999
DXF file: 158611_1.dxf
999
Pro/ENGINEER 2009141 by Parametric Technology Corporation
  0
SECTION
  2
HEADER
  9
$ACADVER
  1
AC1015
  9
$DWGCODEPAGE
  3
ANSI_1252
  9
$EXTMAX
 10
17.0
 20
11.0
 30
0.0
  9
$EXTMIN
 10
0.0
 20
0.0
 30
0.0
  9
$LIMMIN
 10
0.0
 20
0.0
  9
$LIMMAX
 10
17.0
 20
11.0
  9
$VIEWCTR
 10
8.5
 20
5.5
  9
$VIEWSIZE
 40
11.0
  9
$CLAYER
  8
0
  9
$LTSCALE
 40
0.935
  9
$CELTYPE
  6
BYLAYER
  9
$DIMSCALE
 40
1.0
  9
$DIMASZ
 40
0.1875
  9
$DIMEXO
 40
0.10625
  9
$DIMDLI
 40
0.646
  9
$DIMEXE
 40
0.306
  9
$DIMCEN
 40
0.153
  9
$DIMLFAC
 40
1.0
  9
$DIMBLK
  1
_FILLED
  9
$DIMTXT
 40
0.1
  9
$DIMTOL
 70
1
  9
$DIMLIM
 70
0
  9
$DIMTFAC
 40
1.0
  9
$DIMTP
 40
0.005
  9
$DIMTM
 40
0.005
  9
$PDMODE
 70
3
  9
$PDSIZE
 40
0.3125
  9
$HANDSEED
  5
626
  9
$TILEMODE
 70
1
  9
$MEASUREMENT
 70
0
  9
$INSUNITS
 70
1
  0
ENDSEC
  0
SECTION
  2
CLASSES
  0
CLASS
  1
ACDBDICTIONARYWDFLT
  2
AcDbDictionaryWithDefault
  3
AutoCAD 2000
 90
0
280
0
281
0
  0
CLASS
  1
ACDBPLACEHOLDER
  2
AcDbPlaceHolder
  3
AutoCAD 2000
 90
0
280
0
281
0
  0
CLASS
  1
LAYOUT
  2
AcDbLayout
  3
AutoCAD 2000
 90
0
280
0
281
0
  0
ENDSEC
  0
SECTION
  2
TABLES
  0
TABLE
  2
VPORT
  5
8
100
AcDbSymbolTable
 70
2
  0
VPORT
  5
1F4
100
AcDbSymbolTableRecord
100
AcDbViewportTableRecord
  2
*ACTIVE
 70
0
 10
0.0
 20
0.0
 11
1.0
 21
1.0
 12
8.5
 22
5.5
 13
0.0
 23
0.0
 14
1.0
 24
1.0
 15
0.0
 25
0.0
 16
0.0
 26
0.0
 36
1.0
 17
0.0
 27
0.0
 37
0.0
 40
11.0
 41
1.5454545455
 42
50.0
 43
0.0
 44
0.0
 50
0.0
 51
0.0
 71
0
 72
100
 73
1
 74
1
 75
0
 76
0
 77
0
 78
0
  0
ENDTAB
  0
TABLE
  2
LTYPE
  5
5
100
AcDbSymbolTable
 70
6
  0
LTYPE
  5
14
100
AcDbSymbolTableRecord
100
AcDbLinetypeTableRecord
  2
BYBLOCK
 70
0
  3

 72
65
 73
0
 40
0.0
  0
LTYPE
  5
15
100
AcDbSymbolTableRecord
100
AcDbLinetypeTableRecord
  2
BYLAYER
 70
0
  3

 72
65
 73
0
 40
0.0
  0
LTYPE
  5
16
100
AcDbSymbolTableRecord
100
AcDbLinetypeTableRecord
  2
CONTINUOUS
 70
64
  3
Solid line
 72
65
 73
0
 40
0.0
  0
LTYPE
  5
1F5
100
AcDbSymbolTableRecord
100
AcDbLinetypeTableRecord
  2
CENTER
 70
64
  3
____ _ ____ _ ____ _ ____ _ ____ _ ____ _ ____
 72
65
 73
4
 40
0.6
 49
0.375
 74
0
 49
-0.075
 74
0
 49
0.075
 74
0
 49
-0.075
 74
0
  0
LTYPE
  5
1F6
100
AcDbSymbolTableRecord
100
AcDbLinetypeTableRecord
  2
HIDDEN
 70
64
  3
- - - - - - - - - - - - - - - - - - - -
 72
65
 73
2
 40
0.2
 49
0.1
 74
0
 49
-0.1
 74
0
  0
LTYPE
  5
1F7
100
AcDbSymbolTableRecord
100
AcDbLinetypeTableRecord
  2
PHANTOM
 70
64
  3
_____ _ _ _____ _ _ _____ _ _ _____
 72
65
 73
6
 40
0.8
 49
0.45
 74
0
 49
-0.05
 74
0
 49
0.1
 74
0
 49
-0.05
 74
0
 49
0.1
 74
0
 49
-0.05
 74
0
  0
LTYPE
  5
1F8
100
AcDbSymbolTableRecord
100
AcDbLinetypeTableRecord
  2
DOT
 70
64
  3
. . . . . . . . . . . . . . . . . . . .
 72
65
 73
2
 40
0.2
 49
0.1
 74
0
 49
-0.1
 74
0
  0
LTYPE
  5
1F9
100
AcDbSymbolTableRecord
100
AcDbLinetypeTableRecord
  2
DASHED
 70
64
  3
- - - - - - - - - - - - - - - - - - - -
 72
65
 73
2
 40
0.2
 49
0.1
 74
0
 49
-0.1
 74
0
  0
ENDTAB
  0
TABLE
  2
LAYER
  5
2
100
AcDbSymbolTable
 70
36
  0
LAYER
  5
10
100
AcDbSymbolTableRecord
100
AcDbLayerTableRecord
  2
0
 70
0
 62
7
  6
CONTINUOUS
370
-3
390
F
  0
LAYER
  5
1FA
100
AcDbSymbolTableRecord
100
AcDbLayerTableRecord
  2
DEFAULT_1
 70
0
 62
7
  6
CENTER
370
-3
390
F
  0
LAYER
  5
1FB
100
AcDbSymbolTableRecord
100
AcDbLayerTableRecord
  2
DEFAULT_2
 70
0
 62
8
  6
HIDDEN
370
-3
390
F
  0
LAYER
  5
1FC
100
AcDbSymbolTableRecord
100
AcDbLayerTableRecord
  2
DEFAULT_3
 70
0
 62
7
  6
PHANTOM
370
-3
390
F
  0
LAYER
  5
1FD
100
AcDbSymbolTableRecord
100
AcDbLayerTableRecord
  2
01___PRT_ALL_DTM_PLN
 70
0
 62
7
  6
CONTINUOUS
370
-3
390
F
  0
LAYER
  5
1FE
100
AcDbSymbolTableRecord
100
AcDbLayerTableRecord
  2
01___PRT_DEF_DTM_PLN
 70
0
 62
7
  6
CONTINUOUS
370
-3
390
F
  0
LAYER
  5
1FF
100
AcDbSymbolTableRecord
100
AcDbLayerTableRecord
  2
02___PRT_ALL_AXES
 70
0
 62
7
  6
CONTINUOUS
370
-3
390
F
  0
LAYER
  5
200
100
AcDbSymbolTableRecord
100
AcDbLayerTableRecord
  2
03___PRT_ALL_CURVES
 70
0
 62
7
  6
CONTINUOUS
370
-3
390
F
  0
LAYER
  5
201
100
AcDbSymbolTableRecord
100
AcDbLayerTableRecord
  2
04___PRT_ALL_DTM_PNT
 70
0
 62
7
  6
CONTINUOUS
370
-3
390
F
  0
LAYER
  5
202
100
AcDbSymbolTableRecord
100
AcDbLayerTableRecord
  2
05___PRT_ALL_DTM_CSYS
 70
0
 62
7
  6
CONTINUOUS
370
-3
390
F
  0
LAYER
  5
203
100
AcDbSymbolTableRecord
100
AcDbLayerTableRecord
  2
05___PRT_DEF_DTM_CSYS
 70
0
 62
7
  6
CONTINUOUS
370
-3
390
F
  0
LAYER
  5
204
100
AcDbSymbolTableRecord
100
AcDbLayerTableRecord
  2
06___PRT_ALL_SURFS
 70
0
 62
7
  6
CONTINUOUS
370
-3
390
F
  0
LAYER
  5
205
100
AcDbSymbolTableRecord
100
AcDbLayerTableRecord
  2
AXIS
 70
0
 62
7
  6
CONTINUOUS
370
-3
390
F
  0
LAYER
  5
206
100
AcDbSymbolTableRecord
100
AcDbLayerTableRecord
  2
AXIS_COSMETIC_THREADS
 70
0
 62
7
  6
CONTINUOUS
370
-3
390
F
  0
LAYER
  5
207
100
AcDbSymbolTableRecord
100
AcDbLayerTableRecord
  2
COSMETIC_THREADS
 70
0
 62
7
  6
CONTINUOUS
370
-3
390
F
  0
LAYER
  5
208
100
AcDbSymbolTableRecord
100
AcDbLayerTableRecord
  2
DATUM_CURVES
 70
0
 62
7
  6
CONTINUOUS
370
-3
390
F
  0
LAYER
  5
209
100
AcDbSymbolTableRecord
100
AcDbLayerTableRecord
  2
DATUM_PLANES
 70
0
 62
7
  6
CONTINUOUS
370
-3
390
F
  0
LAYER
  5
20A
100
AcDbSymbolTableRecord
100
AcDbLayerTableRecord
  2
NOTES
 70
0
 62
7
  6
CONTINUOUS
370
-3
390
F
  0
LAYER
  5
20B
100
AcDbSymbolTableRecord
100
AcDbLayerTableRecord
  2
QUILTS
 70
0
 62
7
  6
CONTINUOUS
370
-3
390
F
  0
LAYER
  5
20C
100
AcDbSymbolTableRecord
100
AcDbLayerTableRecord
  2
SCHEME_DIMS
 70
0
 62
7
  6
CONTINUOUS
370
-3
390
F
  0
LAYER
  5
20D
100
AcDbSymbolTableRecord
100
AcDbLayerTableRecord
  2
SYMBOLS
 70
0
 62
7
  6
CONTINUOUS
370
-3
390
F
  0
ENDTAB
  0
TABLE
  2
STYLE
  5
3
100
AcDbSymbolTable
 70
1
  0
STYLE
  5
11
100
AcDbSymbolTableRecord
100
AcDbTextStyleTableRecord
  2
STANDARD
 70
0
 40
0.0
 41
1.0
 50
0.0
 71
0
 42
0.2
  3
txt
  4

  0
STYLE
  5
20E
100
AcDbSymbolTableRecord
100
AcDbTextStyleTableRecord
  2
TEXTSTYLE_1
 70
0
 40
0.0
 41
0.8
 50
0.0
 71
0
 42
0.2
  3
gdt
  4

  0
STYLE
  5
20F
100
AcDbSymbolTableRecord
100
AcDbTextStyleTableRecord
  2
TEXTSTYLE_2
 70
0
 40
0.0
 41
0.8
 50
0.0
 71
0
 42
0.2
  3
txt
  4

  0
STYLE
  5
210
100
AcDbSymbolTableRecord
100
AcDbTextStyleTableRecord
  2
TEXTSTYLE_3
 70
0
 40
0.0
 41
0.85
 50
0.0
 71
0
 42
0.2
  3
txt
  4

  0
STYLE
  5
211
100
AcDbSymbolTableRecord
100
AcDbTextStyleTableRecord
  2
TEXTSTYLE_4
 70
0
 40
0.0
 41
0.92
 50
0.0
 71
0
 42
0.2
  3
txt
  4

  0
STYLE
  5
212
100
AcDbSymbolTableRecord
100
AcDbTextStyleTableRecord
  2
TEXTSTYLE_5
 70
0
 40
0.0
 41
1.0
 50
0.0
 71
0
 42
0.2
  3
gdt
  4

  0
ENDTAB
  0
TABLE
  2
VIEW
  5
6
100
AcDbSymbolTable
 70
0
  0
ENDTAB
  0
TABLE
  2
UCS
  5
7
100
AcDbSymbolTable
 70
0
  0
ENDTAB
  0
TABLE
  2
APPID
  5
9
100
AcDbSymbolTable
 70
1
  0
APPID
  5
213
100
AcDbSymbolTableRecord
100
AcDbRegAppTableRecord
  2
ACAD
 70
0
  0
ENDTAB
  0
TABLE
  2
BLOCK_RECORD
  5
1
100
AcDbSymbolTable
 70
0
  0
BLOCK_RECORD
  5
214
100
AcDbSymbolTableRecord
100
AcDbBlockTableRecord
  2
*Model_Space
  0
BLOCK_RECORD
  5
215
100
AcDbSymbolTableRecord
100
AcDbBlockTableRecord
  2
*Paper_Space
  0
BLOCK_RECORD
  5
216
100
AcDbSymbolTableRecord
100
AcDbBlockTableRecord
  2
_FILLED
  0
BLOCK_RECORD
  5
217
100
AcDbSymbolTableRecord
100
AcDbBlockTableRecord
  2
*D0
  0
BLOCK_RECORD
  5
218
100
AcDbSymbolTableRecord
100
AcDbBlockTableRecord
  2
*D1
  0
BLOCK_RECORD
  5
219
100
AcDbSymbolTableRecord
100
AcDbBlockTableRecord
  2
*D2
  0
BLOCK_RECORD
  5
21A
100
AcDbSymbolTableRecord
100
AcDbBlockTableRecord
  2
CL_BL3
  0
BLOCK_RECORD
  5
21B
100
AcDbSymbolTableRecord
100
AcDbBlockTableRecord
  2
CL_BL2
  0
BLOCK_RECORD
  5
21C
100
AcDbSymbolTableRecord
100
AcDbBlockTableRecord
  2
CL_BL1
  0
BLOCK_RECORD
  5
21D
100
AcDbSymbolTableRecord
100
AcDbBlockTableRecord
  2
BANNER_LOGO_TITLEBLOCK_BL0
  0
ENDTAB
  0
TABLE
  2
DIMSTYLE
  5
A
100
AcDbSymbolTable
 70
1
100
AcDbDimStyleTable
 71
0
  0
DIMSTYLE
105
21E
100
AcDbSymbolTableRecord
100
AcDbDimStyleTableRecord
  2
STANDARD
 70
0
  3

  4

 40
1.0
 41
0.1875
 42
0.0625
 43
0.38
 44
0.18
 45
0.0
 46
0.0
 47
0.005
 48
0.005
140
0.1
141
0.09
142
0.0
143
25.4
144
1.0
145
0.0
146
1.0
147
0.09
 71
1.0
 72
0.0
 73
1
 74
1
 75
0
 76
0
 77
0
 78
4
170
0
171
2
172
0
173
0
174
0
175
0
176
0
177
0
178
0
270
2
271
3
272
3
273
2
274
2
275
0
280
0
281
0
282
0
283
1
284
4
285
0
286
0
287
3
288
0
340
11
341
216
342
216
343
216
344
216
  0
DIMSTYLE
105
21F
100
AcDbSymbolTableRecord
100
AcDbDimStyleTableRecord
  2
DIMSTYLE_1
 70
0
  3

  4

 40
1.0
 41
0.1875
 42
0.0625
 43
0.38
 44
0.18
 45
0.0
 46
0.0
 47
0.1
 48
0.1
140
0.1
141
0.09
142
0.0
143
25.4
144
1.0
145
0.0
146
1.0
147
0.09
 71
0.0
 72
0.0
 73
1
 74
1
 75
0
 76
0
 77
0
 78
4
170
0
171
2
172
0
173
0
174
0
175
0
176
0
177
0
178
0
270
2
271
1
272
1
273
2
274
2
275
0
280
0
281
0
282
0
283
1
284
4
285
0
286
0
287
3
288
0
340
11
341
216
342
216
343
216
344
216
  0
DIMSTYLE
105
220
100
AcDbSymbolTableRecord
100
AcDbDimStyleTableRecord
  2
DIMSTYLE_2
 70
0
  3

  4

 40
1.0
 41
0.1875
 42
0.0625
 43
0.38
 44
0.18
 45
0.0
 46
0.0
 47
0.1
 48
0.1
140
0.1
141
0.09
142
0.0
143
25.4
144
1.0
145
0.0
146
1.0
147
0.09
 71
0.0
 72
0.0
 73
1
 74
1
 75
0
 76
0
 77
0
 78
4
170
0
171
2
172
0
173
0
174
0
175
0
176
0
177
0
178
0
270
2
271
1
272
1
273
2
274
2
275
0
280
0
281
0
282
0
283
1
284
4
285
0
286
0
287
3
288
0
340
11
341
216
342
216
343
216
344
216
  0
ENDTAB
  0
ENDSEC
  0
SECTION
  2
BLOCKS
  0
BLOCK
  5
20
100
AcDbEntity
  8
0
100
AcDbBlockBegin
  2
*Model_Space
 70
0
 10
0.0
 20
0.0
 30
0.0
  3
*Model_Space
  1

  0
ENDBLK
  5
21
100
AcDbEntity
  8
0
100
AcDbBlockEnd
  0
BLOCK
  5
1C
100
AcDbEntity
  8
0
100
AcDbBlockBegin
  2
*Paper_Space
 70
0
 10
0.0
 20
0.0
 30
0.0
  3
*Paper_Space
  1

  0
ENDBLK
  5
1D
100
AcDbEntity
  8
0
100
AcDbBlockEnd
  0
BLOCK
  5
221
100
AcDbEntity
  8
SYMBOLS
100
AcDbBlockBegin
 62
2
  6
CONTINUOUS
  2
CL_BL3
 70
64
 10
4.7865570181
 20
6.8495757471
  3
CL_BL3
  1

  0
MTEXT
  5
222
100
AcDbEntity
  8
SYMBOLS
100
AcDbMText
 62
2
  6
CONTINUOUS
  7
TEXTSTYLE_5
 71
1
 72
1
 10
4.7015570181
 20
6.9095757471
 30
0.0
 11
1.0
 21
0.0
 31
0.0
 44
0.9
  1
{\Fgdt;q}
 40
0.12
 41
0.17
  0
ENDBLK
  5
223
100
AcDbEntity
  8
0
  6
BYBLOCK
 62
0
100
AcDbBlockEnd
  0
BLOCK
  5
224
100
AcDbEntity
  8
SYMBOLS
100
AcDbBlockBegin
 62
2
  6
CONTINUOUS
  2
CL_BL2
 70
64
 10
6.0127134607
 20
8.1070577227
  3
CL_BL2
  1

  0
MTEXT
  5
225
100
AcDbEntity
  8
SYMBOLS
100
AcDbMText
 62
2
  6
CONTINUOUS
  7
TEXTSTYLE_5
 71
1
 72
1
 10
5.9277134607
 20
8.1670577227
 30
0.0
 11
1.0
 21
0.0
 31
0.0
 44
0.9
  1
{\Fgdt;q}
 40
0.12
 41
0.17
  0
ENDBLK
  5
226
100
AcDbEntity
  8
0
  6
BYBLOCK
 62
0
100
AcDbBlockEnd
  0
BLOCK
  5
227
100
AcDbEntity
  8
SYMBOLS
100
AcDbBlockBegin
 62
2
  6
CONTINUOUS
  2
CL_BL1
 70
64
 10
4.8182015271
 20
1.9072358628
  3
CL_BL1
  1

  0
MTEXT
  5
228
100
AcDbEntity
  8
SYMBOLS
100
AcDbMText
 62
2
  6
CONTINUOUS
  7
TEXTSTYLE_5
 71
1
 72
1
 10
4.7332015271
 20
1.9672358628
 30
0.0
 11
1.0
 21
0.0
 31
0.0
 44
0.9
  1
{\Fgdt;q}
 40
0.12
 41
0.17
  0
ENDBLK
  5
229
100
AcDbEntity
  8
0
  6
BYBLOCK
 62
0
100
AcDbBlockEnd
  0
BLOCK
  5
22A
100
AcDbEntity
  8
0
100
AcDbBlockBegin
 62
2
  6
CONTINUOUS
  2
BANNER_LOGO_TITLEBLOCK_BL0
 70
64
 10
12.9086867042
 20
2.5403783405
  3
BANNER_LOGO_TITLEBLOCK_BL0
  1

  0
ELLIPSE
  5
22B
100
AcDbEntity
  8
0
100
AcDbEllipse
 62
2
  6
CONTINUOUS
 10
12.9046654608
 20
2.5403783405
 30
0.0
 11
-0.8250004575
 21
0.0
 31
0.0
 40
0.218572
 41
0.0
 42
6.2831853072
  0
ARC
  5
22C
100
AcDbEntity
  8
0
100
AcDbCircle
 62
2
  6
CONTINUOUS
 10
12.400005721
 20
2.5168763464
 40
0.0153945295
100
AcDbArc
 50
354.0454548824
 51
5.1878013979
  0
ARC
  5
22D
100
AcDbEntity
  8
0
100
AcDbCircle
 62
2
  6
CONTINUOUS
 10
12.3931760319
 20
2.5166878286
 40
0.0222174455
100
AcDbArc
 50
4.0793399388
 51
69.834329283
  0
LINE
  5
22E
100
AcDbEntity
  8
0
100
AcDbLine
 62
2
  6
CONTINUOUS
 10
12.4008351814
 20
2.5375433389
 11
12.3907841758
 21
2.5410923409
  0
LINE
  5
22F
100
AcDbEntity
  8
0
100
AcDbLine
 62
2
  6
CONTINUOUS
 10
12.3907841758
 20
2.5410923409
 11
12.3990241804
 21
2.5458683435
  0
ARC
  5
230
100
AcDbEntity
  8
0
100
AcDbCircle
 62
2
  6
CONTINUOUS
 10
12.3771587979
 20
2.5826952352
 40
0.0428289026
100
AcDbArc
 50
300.6990502959
 51
319.0591802498
  0
ARC
  5
231
100
AcDbEntity
  8
0
100
AcDbCircle
 62
2
  6
CONTINUOUS
 10
12.3971873948
 20
2.5665668817
 40
0.0171568255
100
AcDbArc
 50
315.9145124245
 51
16.0049121282
  0
ARC
  5
232
100
AcDbEntity
  8
0
100
AcDbCircle
 62
2
  6
CONTINUOUS
 10
12.3922357827
 20
2.5632132173
 40
0.0229166529
100
AcDbArc
 50
20.6563876465
 51
62.3316896973
  0
ARC
  5
233
100
AcDbEntity
  8
0
100
AcDbCircle
 62
2
  6
CONTINUOUS
 10
12.371573659
 20
2.5302846524
 40
0.061747717
100
AcDbArc
 50
59.5385584989
 51
90.0050977555
  0
LINE
  5
234
100
AcDbEntity
  8
0
100
AcDbLine
 62
2
  6
CONTINUOUS
 10
12.3715681652
 20
2.5920323691
 11
12.2055050731
 21
2.5920323691
  0
ARC
  5
235
100
AcDbEntity
  8
0
100
AcDbCircle
 62
2
  6
CONTINUOUS
 10
12.2055050712
 20
2.5895573696
 40
0.0024749995
100
AcDbArc
 50
89.9999571957
 51
180.0000428043
  0
LINE
  5
236
100
AcDbEntity
  8
0
100
AcDbLine
 62
2
  6
CONTINUOUS
 10
12.2030300717
 20
2.5895573678
 11
12.2030300717
 21
2.5697573568
  0
ARC
  5
237
100
AcDbEntity
  8
0
100
AcDbCircle
 62
2
  6
CONTINUOUS
 10
12.2055050712
 20
2.5697573549
 40
0.0024749995
100
AcDbArc
 50
179.9999571957
 51
270.0000428043
  0
LINE
  5
238
100
AcDbEntity
  8
0
100
AcDbLine
 62
2
  6
CONTINUOUS
 10
12.2055050731
 20
2.5672823554
 11
12.2294470864
 21
2.5672823554
  0
ARC
  5
239
100
AcDbEntity
  8
0
100
AcDbCircle
 62
2
  6
CONTINUOUS
 10
12.2294470882
 20
2.5648073559
 40
0.0024749995
100
AcDbArc
 50
359.9999571957
 51
90.0000428043
  0
LINE
  5
23A
100
AcDbEntity
  8
0
100
AcDbLine
 62
2
  6
CONTINUOUS
 10
12.2319220877
 20
2.564807354
 11
12.2319220877
 21
2.5184523283
  0
ARC
  5
23B
100
AcDbEntity
  8
0
100
AcDbCircle
 62
2
  6
CONTINUOUS
 10
12.2294470882
 20
2.5184523265
 40
0.0024749995
100
AcDbArc
 50
269.9999571957
 51
0.0000428043
  0
LINE
  5
23C
100
AcDbEntity
  8
0
100
AcDbLine
 62
2
  6
CONTINUOUS
 10
12.2294470864
 20
2.515977327
 11
12.2055050731
 21
2.515977327
  0
ARC
  5
23D
100
AcDbEntity
  8
0
100
AcDbCircle
 62
2
  6
CONTINUOUS
 10
12.2055050712
 20
2.5135023274
 40
0.0024749995
100
AcDbArc
 50
89.9999571957
 51
180.0000428043
  0
LINE
  5
23E
100
AcDbEntity
  8
0
100
AcDbLine
 62
2
  6
CONTINUOUS
 10
12.2030300717
 20
2.5135023256
 11
12.2030300717
 21
2.4937023146
  0
ARC
  5
23F
100
AcDbEntity
  8
0
100
AcDbCircle
 62
2
  6
CONTINUOUS
 10
12.2055050712
 20
2.4937023128
 40
0.0024749995
100
AcDbArc
 50
179.9999571957
 51
270.0000428043
  0
LINE
  5
240
100
AcDbEntity
  8
0
100
AcDbLine
 62
2
  6
CONTINUOUS
 10
12.2055050731
 20
2.4912273132
 11
12.3819511709
 21
2.4912273132
  0
ARC
  5
241
100
AcDbEntity
  8
0
100
AcDbCircle
 62
2
  6
CONTINUOUS
 10
12.3792298263
 20
2.539634765
 40
0.048483885
100
AcDbArc
 50
273.21763719
 51
303.0749121182
  0
ARC
  5
242
100
AcDbEntity
  8
0
100
AcDbCircle
 62
2
  6
CONTINUOUS
 10
12.3940692204
 20
2.5168671561
 40
0.0213072145
100
AcDbArc
 50
303.0488228549
 51
355.7263138674
  0
LINE
  5
243
100
AcDbEntity
  8
0
100
AcDbLine
 62
2
  6
CONTINUOUS
 10
12.2949101227
 20
2.5499573458
 11
12.3362731456
 21
2.5499573458
  0
ARC
  5
244
100
AcDbEntity
  8
0
100
AcDbCircle
 62
2
  6
CONTINUOUS
 10
12.3362731456
 20
2.5586198506
 40
0.0086625048
100
AcDbArc
 50
270.0
 51
90.0
  0
LINE
  5
245
100
AcDbEntity
  8
0
100
AcDbLine
 62
2
  6
CONTINUOUS
 10
12.3362731456
 20
2.5672823554
 11
12.2949101227
 21
2.5672823554
  0
ARC
  5
246
100
AcDbEntity
  8
0
100
AcDbCircle
 62
2
  6
CONTINUOUS
 10
12.2949101208
 20
2.5648073559
 40
0.0024749995
100
AcDbArc
 50
89.9999571957
 51
180.0000428043
  0
LINE
  5
247
100
AcDbEntity
  8
0
100
AcDbLine
 62
2
  6
CONTINUOUS
 10
12.2924351213
 20
2.564807354
 11
12.2924351213
 21
2.5524323472
  0
ARC
  5
248
100
AcDbEntity
  8
0
100
AcDbCircle
 62
2
  6
CONTINUOUS
 10
12.2949101208
 20
2.5524323453
 40
0.0024749995
100
AcDbArc
 50
179.9999571957
 51
270.0000428043
  0
LINE
  5
249
100
AcDbEntity
  8
0
100
AcDbLine
 62
2
  6
CONTINUOUS
 10
12.2924351213
 20
2.5184523283
 11
12.2924351213
 21
2.5308273352
  0
ARC
  5
24A
100
AcDbEntity
  8
0
100
AcDbCircle
 62
2
  6
CONTINUOUS
 10
12.2949101208
 20
2.530827337
 40
0.0024749995
100
AcDbArc
 50
89.9999571957
 51
180.0000428043
  0
LINE
  5
24B
100
AcDbEntity
  8
0
100
AcDbLine
 62
2
  6
CONTINUOUS
 10
12.2949101227
 20
2.5333023366
 11
12.3362731456
 21
2.5333023366
  0
ARC
  5
24C
100
AcDbEntity
  8
0
100
AcDbCircle
 62
2
  6
CONTINUOUS
 10
12.3362731456
 20
2.5246398318
 40
0.0086625048
100
AcDbArc
 50
270.0
 51
90.0
  0
LINE
  5
24D
100
AcDbEntity
  8
0
100
AcDbLine
 62
2
  6
CONTINUOUS
 10
12.3362731456
 20
2.515977327
 11
12.2949101227
 21
2.515977327
  0
ARC
  5
24E
100
AcDbEntity
  8
0
100
AcDbCircle
 62
2
  6
CONTINUOUS
 10
12.2949101208
 20
2.5184523265
 40
0.0024749995
100
AcDbArc
 50
179.9999571957
 51
270.0000428043
  0
ARC
  5
24F
100
AcDbEntity
  8
0
100
AcDbCircle
 62
2
  6
CONTINUOUS
 10
13.5806801742
 20
2.5212486481
 40
0.044722495
100
AcDbArc
 50
195.531588407
 51
204.7624440448
  0
LINE
  5
250
100
AcDbEntity
  8
0
100
AcDbLine
 62
2
  6
CONTINUOUS
 10
13.5375908118
 20
2.5092733232
 11
13.5357868108
 21
2.5153423266
  0
ARC
  5
251
100
AcDbEntity
  8
0
100
AcDbCircle
 62
2
  6
CONTINUOUS
 10
13.4974076135
 20
2.5055452462
 40
0.0396099176
100
AcDbArc
 50
14.3201081283
 51
22.4984722084
  0
ARC
  5
252
100
AcDbEntity
  8
0
100
AcDbCircle
 62
2
  6
CONTINUOUS
 10
13.5201739219
 20
2.5145168728
 40
0.0151491919
100
AcDbArc
 50
24.098260853
 51
63.0369451818
  0
ARC
  5
253
100
AcDbEntity
  8
0
100
AcDbCircle
 62
2
  6
CONTINUOUS
 10
13.5161192671
 20
2.5062372524
 40
0.0243676582
100
AcDbArc
 50
63.3666028271
 51
90.3937697637
  0
LINE
  5
254
100
AcDbEntity
  8
0
100
AcDbLine
 62
2
  6
CONTINUOUS
 10
13.5159517998
 20
2.5306043351
 11
13.4883447845
 21
2.5306043351
  0
ARC
  5
255
100
AcDbEntity
  8
0
100
AcDbCircle
 62
2
  6
CONTINUOUS
 10
13.4883447827
 20
2.5281293355
 40
0.0024749995
100
AcDbArc
 50
89.9999571957
 51
180.0000428043
  0
LINE
  5
256
100
AcDbEntity
  8
0
100
AcDbLine
 62
2
  6
CONTINUOUS
 10
13.4858697831
 20
2.5281293337
 11
13.4858697831
 21
2.5184303283
  0
ARC
  5
257
100
AcDbEntity
  8
0
100
AcDbCircle
 62
2
  6
CONTINUOUS
 10
13.4883447827
 20
2.5184303265
 40
0.0024749995
100
AcDbArc
 50
179.9999571957
 51
270.0000428043
  0
LINE
  5
258
100
AcDbEntity
  8
0
100
AcDbLine
 62
2
  6
CONTINUOUS
 10
13.4883447845
 20
2.5159553269
 11
13.5130037982
 21
2.5159553269
  0
ARC
  5
259
100
AcDbEntity
  8
0
100
AcDbCircle
 62
2
  6
CONTINUOUS
 10
13.5130038
 20
2.5134803274
 40
0.0024749995
100
AcDbArc
 50
359.9999571957
 51
90.0000428043
  0
LINE
  5
25A
100
AcDbEntity
  8
0
100
AcDbLine
 62
2
  6
CONTINUOUS
 10
13.5154787995
 20
2.5134803256
 11
13.5154787995
 21
2.4937023146
  0
ARC
  5
25B
100
AcDbEntity
  8
0
100
AcDbCircle
 62
2
  6
CONTINUOUS
 10
13.5130038
 20
2.4937023128
 40
0.0024749995
100
AcDbArc
 50
269.9999571957
 51
0.0000428043
  0
LINE
  5
25C
100
AcDbEntity
  8
0
100
AcDbLine
 62
2
  6
CONTINUOUS
 10
13.5130037982
 20
2.4912273132
 11
13.3994327352
 21
2.4912273132
  0
ARC
  5
25D
100
AcDbEntity
  8
0
100
AcDbCircle
 62
2
  6
CONTINUOUS
 10
13.3994327333
 20
2.4937023128
 40
0.0024749995
100
AcDbArc
 50
179.9999571957
 51
270.0000428043
  0
LINE
  5
25E
100
AcDbEntity
  8
0
100
AcDbLine
 62
2
  6
CONTINUOUS
 10
13.3969577338
 20
2.4937023146
 11
13.3969577338
 21
2.5135023256
  0
ARC
  5
25F
100
AcDbEntity
  8
0
100
AcDbCircle
 62
2
  6
CONTINUOUS
 10
13.3994327333
 20
2.5135023274
 40
0.0024749995
100
AcDbArc
 50
89.9999571957
 51
180.0000428043
  0
LINE
  5
260
100
AcDbEntity
  8
0
100
AcDbLine
 62
2
  6
CONTINUOUS
 10
13.3994327352
 20
2.515977327
 11
13.4221787478
 21
2.515977327
  0
ARC
  5
261
100
AcDbEntity
  8
0
100
AcDbCircle
 62
2
  6
CONTINUOUS
 10
13.4221787497
 20
2.5184523265
 40
0.0024749995
100
AcDbArc
 50
269.9999571957
 51
0.0000428042
  0
LINE
  5
262
100
AcDbEntity
  8
0
100
AcDbLine
 62
2
  6
CONTINUOUS
 10
13.4246537492
 20
2.5184523283
 11
13.4246537492
 21
2.564807354
  0
ARC
  5
263
100
AcDbEntity
  8
0
100
AcDbCircle
 62
2
  6
CONTINUOUS
 10
13.4221787497
 20
2.5648073559
 40
0.0024749995
100
AcDbArc
 50
359.9999571957
 51
90.0000428043
  0
LINE
  5
264
100
AcDbEntity
  8
0
100
AcDbLine
 62
2
  6
CONTINUOUS
 10
13.4221787478
 20
2.5672823554
 11
13.3994327352
 21
2.5672823554
  0
ARC
  5
265
100
AcDbEntity
  8
0
100
AcDbCircle
 62
2
  6
CONTINUOUS
 10
13.3994327333
 20
2.5697573549
 40
0.0024749995
100
AcDbArc
 50
179.9999571957
 51
270.0000428043
  0
LINE
  5
266
100
AcDbEntity
  8
0
100
AcDbLine
 62
2
  6
CONTINUOUS
 10
13.3969577338
 20
2.5697573568
 11
13.3969577338
 21
2.5895573678
  0
ARC
  5
267
100
AcDbEntity
  8
0
100
AcDbCircle
 62
2
  6
CONTINUOUS
 10
13.3994327333
 20
2.5895573696
 40
0.0024749995
100
AcDbArc
 50
89.9999571957
 51
180.0000428043
  0
LINE
  5
268
100
AcDbEntity
  8
0
100
AcDbLine
 62
2
  6
CONTINUOUS
 10
13.3994327352
 20
2.5920323691
 11
13.5490138181
 21
2.5920323691
  0
ARC
  5
269
100
AcDbEntity
  8
0
100
AcDbCircle
 62
2
  6
CONTINUOUS
 10
13.5463505148
 20
2.4094934586
 40
0.1825583387
100
AcDbArc
 50
79.8618509324
 51
89.1640948679
  0
ARC
  5
26A
100
AcDbEntity
  8
0
100
AcDbCircle
 62
2
  6
CONTINUOUS
 10
13.5726548052
 20
2.5503169747
 40
0.039319019
100
AcDbArc
 50
59.1202086415
 51
81.4730239328
  0
ARC
  5
26B
100
AcDbEntity
  8
0
100
AcDbCircle
 62
2
  6
CONTINUOUS
 10
13.5783142014
 20
2.5566516438
 40
0.0310192946
100
AcDbArc
 50
34.7540871
 51
62.0879016178
  0
ARC
  5
26C
100
AcDbEntity
  8
0
100
AcDbCircle
 62
2
  6
CONTINUOUS
 10
13.5900029525
 20
2.565201245
 40
0.0165459396
100
AcDbArc
 50
1.548452892
 51
33.5033152417
  0
ARC
  5
26D
100
AcDbEntity
  8
0
100
AcDbCircle
 62
2
  6
CONTINUOUS
 10
13.5932995477
 20
2.5653696972
 40
0.0132462337
100
AcDbArc
 50
331.1510006998
 51
1.205404301
  0
ARC
  5
26E
100
AcDbEntity
  8
0
100
AcDbCircle
 62
2
  6
CONTINUOUS
 10
13.5822888914
 20
2.5720482849
 40
0.0261183659
100
AcDbArc
 50
305.6373831893
 51
329.9727629745
  0
ARC
  5
26F
100
AcDbEntity
  8
0
100
AcDbCircle
 62
2
  6
CONTINUOUS
 10
13.5519569538
 20
2.6152551345
 40
0.0789082104
100
AcDbArc
 50
292.906155071
 51
305.2574666259
  0
ARC
  5
270
100
AcDbEntity
  8
0
100
AcDbCircle
 62
2
  6
CONTINUOUS
 10
13.5282557878
 20
2.4386010294
 40
0.117346916
100
AcDbArc
 50
58.614769177
 51
62.3737227606
  0
ARC
  5
271
100
AcDbEntity
  8
0
100
AcDbCircle
 62
2
  6
CONTINUOUS
 10
13.5761387404
 20
2.5167282896
 40
0.0257145923
100
AcDbArc
 50
39.3804255939
 51
59.0361096173
  0
ARC
  5
272
100
AcDbEntity
  8
0
100
AcDbCircle
 62
2
  6
CONTINUOUS
 10
13.5750183849
 20
2.5166552064
 40
0.0266349791
100
AcDbArc
 50
20.3630922153
 51
37.9727053099
  0
ARC
  5
273
100
AcDbEntity
  8
0
100
AcDbCircle
 62
2
  6
CONTINUOUS
 10
13.5571178432
 20
2.509473798
 40
0.0459185159
100
AcDbArc
 50
15.6740290068
 51
20.9917271228
  0
ARC
  5
274
100
AcDbEntity
  8
0
100
AcDbCircle
 62
2
  6
CONTINUOUS
 10
13.6156881783
 20
2.525116781
 40
0.0147197649
100
AcDbArc
 50
192.7054516565
 51
206.0594861022
  0
ARC
  5
275
100
AcDbEntity
  8
0
100
AcDbCircle
 62
2
  6
CONTINUOUS
 10
13.6071938412
 20
2.5209082945
 40
0.0052403997
100
AcDbArc
 50
205.5232099488
 51
227.5054868079
  0
ARC
  5
276
100
AcDbEntity
  8
0
100
AcDbCircle
 62
2
  6
CONTINUOUS
 10
13.6054655419
 20
2.5190929218
 40
0.0027347709
100
AcDbArc
 50
228.5117626737
 51
266.1485845754
  0
LINE
  5
277
100
AcDbEntity
  8
0
100
AcDbLine
 62
2
  6
CONTINUOUS
 10
13.6052818493
 20
2.5163643272
 11
13.60639085
 21
2.5163643272
  0
ARC
  5
278
100
AcDbEntity
  8
0
100
AcDbCircle
 62
2
  6
CONTINUOUS
 10
13.6063292954
 20
2.5296129864
 40
0.0132488022
100
AcDbArc
 50
270.266200055
 51
281.2404888597
  0
ARC
  5
279
100
AcDbEntity
  8
0
100
AcDbCircle
 62
2
  6
CONTINUOUS
 10
13.6075235364
 20
2.5238762928
 40
0.0073895522
100
AcDbArc
 50
280.8288201977
 51
305.0837508495
  0
ARC
  5
27A
100
AcDbEntity
  8
0
100
AcDbCircle
 62
2
  6
CONTINUOUS
 10
13.607924718
 20
2.5230254464
 40
0.0064647042
100
AcDbArc
 50
306.5086174083
 51
340.2162360092
  0
ARC
  5
27B
100
AcDbEntity
  8
0
100
AcDbCircle
 62
2
  6
CONTINUOUS
 10
13.6027235414
 20
2.524769508
 40
0.0119498009
100
AcDbArc
 50
340.7883861657
 51
1.1691452593
  0
LINE
  5
27C
100
AcDbEntity
  8
0
100
AcDbLine
 62
2
  6
CONTINUOUS
 10
13.6146708546
 20
2.525013332
 11
13.6146708546
 21
2.5276393334
  0
ARC
  5
27D
100
AcDbEntity
  8
0
100
AcDbCircle
 62
2
  6
CONTINUOUS
 10
13.6171458541
 20
2.5276393353
 40
0.0024749995
100
AcDbArc
 50
89.9999571957
 51
180.0000428043
  0
LINE
  5
27E
100
AcDbEntity
  8
0
100
AcDbLine
 62
2
  6
CONTINUOUS
 10
13.6171458559
 20
2.5301143348
 11
13.6292558626
 21
2.5301143348
  0
ARC
  5
27F
100
AcDbEntity
  8
0
100
AcDbCircle
 62
2
  6
CONTINUOUS
 10
13.6292558645
 20
2.5276393353
 40
0.0024749995
100
AcDbArc
 50
359.9999571957
 51
90.0000428043
  0
LINE
  5
280
100
AcDbEntity
  8
0
100
AcDbLine
 62
2
  6
CONTINUOUS
 10
13.631730864
 20
2.5276393334
 11
13.631730864
 21
2.516087327
  0
ARC
  5
281
100
AcDbEntity
  8
0
100
AcDbCircle
 62
2
  6
CONTINUOUS
 10
13.6141751675
 20
2.5161916447
 40
0.0175560065
100
AcDbArc
 50
332.2279060967
 51
359.6595469939
  0
ARC
  5
282
100
AcDbEntity
  8
0
100
AcDbCircle
 62
2
  6
CONTINUOUS
 10
13.6048681567
 20
2.5210861501
 40
0.0280715479
100
AcDbArc
 50
308.5071794988
 51
332.2400656899
  0
ARC
  5
283
100
AcDbEntity
  8
0
100
AcDbCircle
 62
2
  6
CONTINUOUS
 10
13.5978759713
 20
2.5286873679
 40
0.0383802683
100
AcDbArc
 50
288.7656836787
 51
309.6104317088
  0
ARC
  5
284
100
AcDbEntity
  8
0
100
AcDbCircle
 62
2
  6
CONTINUOUS
 10
13.6036139387
 20
2.5111006186
 40
0.0198837666
100
AcDbArc
 50
271.8586572978
 51
289.4131338543
  0
LINE
  5
285
100
AcDbEntity
  8
0
100
AcDbLine
 62
2
  6
CONTINUOUS
 10
13.6042588488
 20
2.4912273132
 11
13.5568948225
 21
2.4912273132
  0
ARC
  5
286
100
AcDbEntity
  8
0
100
AcDbCircle
 62
2
  6
CONTINUOUS
 10
13.5577001432
 20
2.5085494649
 40
0.0173408616
100
AcDbArc
 50
232.4713476722
 51
267.338189944
  0
ARC
  5
287
100
AcDbEntity
  8
0
100
AcDbCircle
 62
2
  6
CONTINUOUS
 10
13.5607987082
 20
2.5143997688
 40
0.0238935861
100
AcDbArc
 50
209.8247607259
 51
235.1255079367
  0
ARC
  5
288
100
AcDbEntity
  8
0
100
AcDbCircle
 62
2
  6
CONTINUOUS
 10
13.5295131508
 20
2.5629115009
 40
0.0110815393
100
AcDbArc
 50
306.758405961
 51
320.4502234234
  0
ARC
  5
289
100
AcDbEntity
  8
0
100
AcDbCircle
 62
2
  6
CONTINUOUS
 10
13.5238839599
 20
2.5706523294
 40
0.0206523367
100
AcDbArc
 50
289.6883413472
 51
306.4184925496
  0
ARC
  5
28A
100
AcDbEntity
  8
0
100
AcDbCircle
 62
2
  6
CONTINUOUS
 10
13.5219564542
 20
2.5750459767
 40
0.0254407115
100
AcDbArc
 50
270.7327484175
 51
290.441894219
  0
LINE
  5
28B
100
AcDbEntity
  8
0
100
AcDbLine
 62
2
  6
CONTINUOUS
 10
13.5222818033
 20
2.5496073456
 11
13.4883447845
 21
2.5496073456
  0
ARC
  5
28C
100
AcDbEntity
  8
0
100
AcDbCircle
 62
2
  6
CONTINUOUS
 10
13.4883447827
 20
2.5520823451
 40
0.0024749995
100
AcDbArc
 50
179.9999571957
 51
270.0000428043
  0
LINE
  5
28D
100
AcDbEntity
  8
0
100
AcDbLine
 62
2
  6
CONTINUOUS
 10
13.4858697831
 20
2.552082347
 11
13.4858697831
 21
2.564807354
  0
ARC
  5
28E
100
AcDbEntity
  8
0
100
AcDbCircle
 62
2
  6
CONTINUOUS
 10
13.4883447827
 20
2.5648073559
 40
0.0024749995
100
AcDbArc
 50
89.9999571957
 51
180.0000428043
  0
LINE
  5
28F
100
AcDbEntity
  8
0
100
AcDbLine
 62
2
  6
CONTINUOUS
 10
13.4883447845
 20
2.5672823554
 11
13.5251458049
 21
2.5672823554
  0
ARC
  5
290
100
AcDbEntity
  8
0
100
AcDbCircle
 62
2
  6
CONTINUOUS
 10
13.5236009174
 20
2.5388278764
 40
0.0284963867
100
AcDbArc
 50
70.3834917948
 51
86.8922743861
  0
ARC
  5
291
100
AcDbEntity
  8
0
100
AcDbCircle
 62
2
  6
CONTINUOUS
 10
13.5284605274
 20
2.5518696094
 40
0.0145814632
100
AcDbArc
 50
54.6746025112
 51
71.1660573124
  0
ARC
  5
292
100
AcDbEntity
  8
0
100
AcDbCircle
 62
2
  6
CONTINUOUS
 10
13.5335900184
 20
2.5587235346
 40
0.0060275915
100
AcDbArc
 50
20.9055592135
 51
56.7851676243
  0
ARC
  5
293
100
AcDbEntity
  8
0
100
AcDbCircle
 62
2
  6
CONTINUOUS
 10
13.5348905773
 20
2.5593838168
 40
0.0045795888
100
AcDbArc
 50
355.6235353944
 51
18.9942678268
  0
ARC
  5
294
100
AcDbEntity
  8
0
100
AcDbCircle
 62
2
  6
CONTINUOUS
 10
13.533683767
 20
2.559677593
 40
0.0058087709
100
AcDbArc
 50
318.8515287446
 51
353.6422345323
  0
LINE
  5
295
100
AcDbEntity
  8
0
100
AcDbLine
 62
2
  6
CONTINUOUS
 10
12.672340332
 20
2.5920323691
 11
12.7727983877
 21
2.5920323691
  0
ARC
  5
296
100
AcDbEntity
  8
0
100
AcDbCircle
 62
2
  6
CONTINUOUS
 10
12.7727985224
 20
2.5895582013
 40
0.0024741678
100
AcDbArc
 50
46.3477981899
 51
90.0031206038
  0
LINE
  5
297
100
AcDbEntity
  8
0
100
AcDbLine
 62
2
  6
CONTINUOUS
 10
12.7745063886
 20
2.5913483688
 11
12.8345394219
 21
2.534068337
  0
ARC
  5
298
100
AcDbEntity
  8
0
100
AcDbCircle
 62
2
  6
CONTINUOUS
 10
12.8362481229
 20
2.5358592748
 40
0.0024753014
100
AcDbArc
 50
226.3461263059
 51
0.0014637321
  0
LINE
  5
299
100
AcDbEntity
  8
0
100
AcDbLine
 62
2
  6
CONTINUOUS
 10
12.8387234242
 20
2.535859338
 11
12.8387234242
 21
2.564807354
  0
ARC
  5
29A
100
AcDbEntity
  8
0
100
AcDbCircle
 62
2
  6
CONTINUOUS
 10
12.8362484247
 20
2.5648073559
 40
0.0024749995
100
AcDbArc
 50
359.9999571957
 51
90.0000428043
  0
LINE
  5
29B
100
AcDbEntity
  8
0
100
AcDbLine
 62
2
  6
CONTINUOUS
 10
12.8362484229
 20
2.5672823554
 11
12.8174724125
 21
2.5672823554
  0
ARC
  5
29C
100
AcDbEntity
  8
0
100
AcDbCircle
 62
2
  6
CONTINUOUS
 10
12.8174724106
 20
2.5697573549
 40
0.0024749995
100
AcDbArc
 50
179.9999571957
 51
270.0000428043
  0
LINE
  5
29D
100
AcDbEntity
  8
0
100
AcDbLine
 62
2
  6
CONTINUOUS
 10
12.8149974111
 20
2.5697573568
 11
12.8149974111
 21
2.5895573678
  0
ARC
  5
29E
100
AcDbEntity
  8
0
100
AcDbCircle
 62
2
  6
CONTINUOUS
 10
12.8174724106
 20
2.5895573696
 40
0.0024749995
100
AcDbArc
 50
89.9999571957
 51
180.0000428043
  0
LINE
  5
29F
100
AcDbEntity
  8
0
100
AcDbLine
 62
2
  6
CONTINUOUS
 10
12.8174724125
 20
2.5920323691
 11
12.8914734535
 21
2.5920323691
  0
ARC
  5
2A0
100
AcDbEntity
  8
0
100
AcDbCircle
 62
2
  6
CONTINUOUS
 10
12.8914734553
 20
2.5895573696
 40
0.0024749995
100
AcDbArc
 50
359.9999571957
 51
90.0000428043
  0
LINE
  5
2A1
100
AcDbEntity
  8
0
100
AcDbLine
 62
2
  6
CONTINUOUS
 10
12.8939484549
 20
2.5895573678
 11
12.8939484549
 21
2.5697573568
  0
ARC
  5
2A2
100
AcDbEntity
  8
0
100
AcDbCircle
 62
2
  6
CONTINUOUS
 10
12.8914734553
 20
2.5697573549
 40
0.0024749995
100
AcDbArc
 50
269.9999571957
 51
0.0000428043
  0
LINE
  5
2A3
100
AcDbEntity
  8
0
100
AcDbLine
 62
2
  6
CONTINUOUS
 10
12.8914734535
 20
2.5672823554
 11
12.8735404436
 21
2.5672823554
  0
ARC
  5
2A4
100
AcDbEntity
  8
0
100
AcDbCircle
 62
2
  6
CONTINUOUS
 10
12.8735404417
 20
2.5648073559
 40
0.0024749995
100
AcDbArc
 50
89.9999571957
 51
180.0000428043
  0
LINE
  5
2A5
100
AcDbEntity
  8
0
100
AcDbLine
 62
2
  6
CONTINUOUS
 10
12.8710654422
 20
2.564807354
 11
12.8710654422
 21
2.4937023146
  0
ARC
  5
2A6
100
AcDbEntity
  8
0
100
AcDbCircle
 62
2
  6
CONTINUOUS
 10
12.8685904427
 20
2.4937023128
 40
0.0024749995
100
AcDbArc
 50
269.9999571957
 51
0.0000428043
  0
LINE
  5
2A7
100
AcDbEntity
  8
0
100
AcDbLine
 62
2
  6
CONTINUOUS
 10
12.8685904408
 20
2.4912273132
 11
12.7943853997
 21
2.4912273132
  0
ARC
  5
2A8
100
AcDbEntity
  8
0
100
AcDbCircle
 62
2
  6
CONTINUOUS
 10
12.7943847649
 20
2.4937027294
 40
0.0024754162
100
AcDbArc
 50
226.3593695813
 51
270.0146919953
  0
LINE
  5
2A9
100
AcDbEntity
  8
0
100
AcDbLine
 62
2
  6
CONTINUOUS
 10
12.7926763987
 20
2.4919113136
 11
12.7293963636
 21
2.5522893471
  0
ARC
  5
2AA
100
AcDbEntity
  8
0
100
AcDbCircle
 62
2
  6
CONTINUOUS
 10
12.7276876627
 20
2.5504984093
 40
0.0024753014
100
AcDbArc
 50
46.3461263059
 51
180.0014637321
  0
LINE
  5
2AB
100
AcDbEntity
  8
0
100
AcDbLine
 62
2
  6
CONTINUOUS
 10
12.7252123613
 20
2.5504983461
 11
12.7252123613
 21
2.5184523283
  0
ARC
  5
2AC
100
AcDbEntity
  8
0
100
AcDbCircle
 62
2
  6
CONTINUOUS
 10
12.7276873608
 20
2.5184523265
 40
0.0024749995
100
AcDbArc
 50
179.9999571957
 51
270.0000428043
  0
LINE
  5
2AD
100
AcDbEntity
  8
0
100
AcDbLine
 62
2
  6
CONTINUOUS
 10
12.7276873627
 20
2.515977327
 11
12.7480043739
 21
2.515977327
  0
ARC
  5
2AE
100
AcDbEntity
  8
0
100
AcDbCircle
 62
2
  6
CONTINUOUS
 10
12.7480043758
 20
2.5135023274
 40
0.0024749995
100
AcDbArc
 50
359.9999571957
 51
90.0000428043
  0
LINE
  5
2AF
100
AcDbEntity
  8
0
100
AcDbLine
 62
2
  6
CONTINUOUS
 10
12.7504793753
 20
2.5135023256
 11
12.7504793753
 21
2.4937023146
  0
ARC
  5
2B0
100
AcDbEntity
  8
0
100
AcDbCircle
 62
2
  6
CONTINUOUS
 10
12.7480043758
 20
2.4937023128
 40
0.0024749995
100
AcDbArc
 50
269.9999571957
 51
0.0000428043
  0
LINE
  5
2B1
100
AcDbEntity
  8
0
100
AcDbLine
 62
2
  6
CONTINUOUS
 10
12.7480043739
 20
2.4912273132
 11
12.672340332
 21
2.4912273132
  0
ARC
  5
2B2
100
AcDbEntity
  8
0
100
AcDbCircle
 62
2
  6
CONTINUOUS
 10
12.6723403301
 20
2.4937023128
 40
0.0024749995
100
AcDbArc
 50
179.9999571957
 51
270.0000428043
  0
LINE
  5
2B3
100
AcDbEntity
  8
0
100
AcDbLine
 62
2
  6
CONTINUOUS
 10
12.6698653306
 20
2.4937023146
 11
12.6698653306
 21
2.5135023256
  0
ARC
  5
2B4
100
AcDbEntity
  8
0
100
AcDbCircle
 62
2
  6
CONTINUOUS
 10
12.6723403301
 20
2.5135023274
 40
0.0024749995
100
AcDbArc
 50
89.9999571957
 51
180.0000428043
  0
LINE
  5
2B5
100
AcDbEntity
  8
0
100
AcDbLine
 62
2
  6
CONTINUOUS
 10
12.672340332
 20
2.515977327
 11
12.6909873423
 21
2.515977327
  0
ARC
  5
2B6
100
AcDbEntity
  8
0
100
AcDbCircle
 62
2
  6
CONTINUOUS
 10
12.6909873442
 20
2.5184523265
 40
0.0024749995
100
AcDbArc
 50
269.9999571957
 51
0.0000428043
  0
LINE
  5
2B7
100
AcDbEntity
  8
0
100
AcDbLine
 62
2
  6
CONTINUOUS
 10
12.6934623437
 20
2.5184523283
 11
12.6934623437
 21
2.564807354
  0
ARC
  5
2B8
100
AcDbEntity
  8
0
100
AcDbCircle
 62
2
  6
CONTINUOUS
 10
12.6909873442
 20
2.5648073559
 40
0.0024749995
100
AcDbArc
 50
359.9999571957
 51
90.0000428043
  0
LINE
  5
2B9
100
AcDbEntity
  8
0
100
AcDbLine
 62
2
  6
CONTINUOUS
 10
12.6909873423
 20
2.5672823554
 11
12.672340332
 21
2.5672823554
  0
ARC
  5
2BA
100
AcDbEntity
  8
0
100
AcDbCircle
 62
2
  6
CONTINUOUS
 10
12.6723403301
 20
2.5697573549
 40
0.0024749995
100
AcDbArc
 50
179.9999571957
 51
270.0000428043
  0
LINE
  5
2BB
100
AcDbEntity
  8
0
100
AcDbLine
 62
2
  6
CONTINUOUS
 10
12.6698653306
 20
2.5697573568
 11
12.6698653306
 21
2.5895573678
  0
ARC
  5
2BC
100
AcDbEntity
  8
0
100
AcDbCircle
 62
2
  6
CONTINUOUS
 10
12.6723403301
 20
2.5895573696
 40
0.0024749995
100
AcDbArc
 50
89.9999571957
 51
180.0000428043
  0
LINE
  5
2BD
100
AcDbEntity
  8
0
100
AcDbLine
 62
2
  6
CONTINUOUS
 10
12.5246402501
 20
2.5655893545
 11
12.5175232461
 21
2.5543723483
  0
ARC
  5
2BE
100
AcDbEntity
  8
0
100
AcDbCircle
 62
2
  6
CONTINUOUS
 10
12.519613138
 20
2.5530463862
 40
0.0024750401
100
AcDbArc
 50
147.6063258012
 51
270.0025305754
  0
LINE
  5
2BF
100
AcDbEntity
  8
0
100
AcDbLine
 62
2
  6
CONTINUOUS
 10
12.5196132473
 20
2.5505713461
 11
12.5401702587
 21
2.5505713461
  0
ARC
  5
2C0
100
AcDbEntity
  8
0
100
AcDbCircle
 62
2
  6
CONTINUOUS
 10
12.5401702375
 20
2.5530465533
 40
0.0024752071
100
AcDbArc
 50
270.0004896793
 51
32.9089806818
  0
LINE
  5
2C1
100
AcDbEntity
  8
0
100
AcDbLine
 62
2
  6
CONTINUOUS
 10
12.5422482598
 20
2.5543913483
 11
12.5349892558
 21
2.5656073545
  0
ARC
  5
2C2
100
AcDbEntity
  8
0
100
AcDbCircle
 62
2
  6
CONTINUOUS
 10
12.532910715
 20
2.564262895
 40
0.0024754602
100
AcDbArc
 50
32.8959418573
 51
89.9875097202
  0
LINE
  5
2C3
100
AcDbEntity
  8
0
100
AcDbLine
 62
2
  6
CONTINUOUS
 10
12.5329112547
 20
2.5667383551
 11
12.5267302512
 21
2.5667383551
  0
ARC
  5
2C4
100
AcDbEntity
  8
0
100
AcDbCircle
 62
2
  6
CONTINUOUS
 10
12.5267301809
 20
2.5642631548
 40
0.0024752003
100
AcDbArc
 50
89.998372645
 51
147.602165307
  0
LINE
  5
2C5
100
AcDbEntity
  8
0
100
AcDbLine
 62
2
  6
CONTINUOUS
 10
12.548053263
 20
2.5284903339
 11
12.5536792662
 21
2.5197973291
  0
ARC
  5
2C6
100
AcDbEntity
  8
0
100
AcDbCircle
 62
2
  6
CONTINUOUS
 10
12.5516012439
 20
2.5184525341
 40
0.0024752071
100
AcDbArc
 50
270.0004896794
 51
32.9089806818
  0
LINE
  5
2C7
100
AcDbEntity
  8
0
100
AcDbLine
 62
2
  6
CONTINUOUS
 10
12.551601265
 20
2.515977327
 11
12.537150257
 21
2.515977327
  0
ARC
  5
2C8
100
AcDbEntity
  8
0
100
AcDbCircle
 62
2
  6
CONTINUOUS
 10
12.5371502552
 20
2.5135023274
 40
0.0024749995
100
AcDbArc
 50
89.9999571957
 51
180.0000428043
  0
LINE
  5
2C9
100
AcDbEntity
  8
0
100
AcDbLine
 62
2
  6
CONTINUOUS
 10
12.5346752556
 20
2.5135023256
 11
12.5346752556
 21
2.4937023146
  0
ARC
  5
2CA
100
AcDbEntity
  8
0
100
AcDbCircle
 62
2
  6
CONTINUOUS
 10
12.5371502552
 20
2.4937023128
 40
0.0024749995
100
AcDbArc
 50
179.9999571957
 51
270.0000428043
  0
LINE
  5
2CB
100
AcDbEntity
  8
0
100
AcDbLine
 62
2
  6
CONTINUOUS
 10
12.537150257
 20
2.4912273132
 11
12.6424313154
 21
2.4912273132
  0
ARC
  5
2CC
100
AcDbEntity
  8
0
100
AcDbCircle
 62
2
  6
CONTINUOUS
 10
12.6424313172
 20
2.4937023128
 40
0.0024749995
100
AcDbArc
 50
269.9999571957
 51
0.0000428043
  0
LINE
  5
2CD
100
AcDbEntity
  8
0
100
AcDbLine
 62
2
  6
CONTINUOUS
 10
12.6449063168
 20
2.4937023146
 11
12.6449063168
 21
2.5135023256
  0
ARC
  5
2CE
100
AcDbEntity
  8
0
100
AcDbCircle
 62
2
  6
CONTINUOUS
 10
12.6424313172
 20
2.5135023274
 40
0.0024749995
100
AcDbArc
 50
359.9999571957
 51
90.0000428043
  0
LINE
  5
2CF
100
AcDbEntity
  8
0
100
AcDbLine
 62
2
  6
CONTINUOUS
 10
12.6424313154
 20
2.515977327
 11
12.6224153043
 21
2.515977327
  0
ARC
  5
2D0
100
AcDbEntity
  8
0
100
AcDbCircle
 62
2
  6
CONTINUOUS
 10
12.6224154248
 20
2.518451368
 40
0.002474041
100
AcDbArc
 50
212.9056413127
 51
269.9972091756
  0
LINE
  5
2D1
100
AcDbEntity
  8
0
100
AcDbLine
 62
2
  6
CONTINUOUS
 10
12.6203383031
 20
2.5171073276
 11
12.5725822767
 21
2.5909023685
  0
ARC
  5
2D2
100
AcDbEntity
  8
0
100
AcDbCircle
 62
2
  6
CONTINUOUS
 10
12.570504655
 20
2.589557409
 40
0.0024749602
100
AcDbArc
 50
32.9172174468
 51
90.0087853097
  0
LINE
  5
2D3
100
AcDbEntity
  8
0
100
AcDbLine
 62
2
  6
CONTINUOUS
 10
12.5705042755
 20
2.5920323691
 11
12.5133292438
 21
2.5920323691
  0
ARC
  5
2D4
100
AcDbEntity
  8
0
100
AcDbCircle
 62
2
  6
CONTINUOUS
 10
12.5133291735
 20
2.5895571688
 40
0.0024752003
100
AcDbArc
 50
89.9983726451
 51
147.602165307
  0
LINE
  5
2D5
100
AcDbEntity
  8
0
100
AcDbLine
 62
2
  6
CONTINUOUS
 10
12.5112392426
 20
2.5908833685
 11
12.4644392167
 21
2.5171263276
  0
ARC
  5
2D6
100
AcDbEntity
  8
0
100
AcDbCircle
 62
2
  6
CONTINUOUS
 10
12.4623492858
 20
2.5184525273
 40
0.0024752003
100
AcDbArc
 50
269.9983726451
 51
327.602165307
  0
LINE
  5
2D7
100
AcDbEntity
  8
0
100
AcDbLine
 62
2
  6
CONTINUOUS
 10
12.4623492155
 20
2.515977327
 11
12.4394882028
 21
2.515977327
  0
ARC
  5
2D8
100
AcDbEntity
  8
0
100
AcDbCircle
 62
2
  6
CONTINUOUS
 10
12.439488201
 20
2.5135023274
 40
0.0024749995
100
AcDbArc
 50
89.9999571957
 51
180.0000428043
  0
LINE
  5
2D9
100
AcDbEntity
  8
0
100
AcDbLine
 62
2
  6
CONTINUOUS
 10
12.4370132015
 20
2.5135023256
 11
12.4370132015
 21
2.4937023146
  0
ARC
  5
2DA
100
AcDbEntity
  8
0
100
AcDbCircle
 62
2
  6
CONTINUOUS
 10
12.439488201
 20
2.4937023128
 40
0.0024749995
100
AcDbArc
 50
179.9999571957
 51
270.0000428043
  0
LINE
  5
2DB
100
AcDbEntity
  8
0
100
AcDbLine
 62
2
  6
CONTINUOUS
 10
12.4394882028
 20
2.4912273132
 11
12.5168642458
 21
2.4912273132
  0
ARC
  5
2DC
100
AcDbEntity
  8
0
100
AcDbCircle
 62
2
  6
CONTINUOUS
 10
12.5168642476
 20
2.4937023128
 40
0.0024749995
100
AcDbArc
 50
269.9999571957
 51
0.0000428043
  0
LINE
  5
2DD
100
AcDbEntity
  8
0
100
AcDbLine
 62
2
  6
CONTINUOUS
 10
12.5193392471
 20
2.4937023146
 11
12.5193392471
 21
2.5135023256
  0
ARC
  5
2DE
100
AcDbEntity
  8
0
100
AcDbCircle
 62
2
  6
CONTINUOUS
 10
12.5168642476
 20
2.5135023274
 40
0.0024749995
100
AcDbArc
 50
359.9999571957
 51
90.0000428043
  0
LINE
  5
2DF
100
AcDbEntity
  8
0
100
AcDbLine
 62
2
  6
CONTINUOUS
 10
12.5168642458
 20
2.515977327
 11
12.5055812395
 21
2.515977327
  0
ARC
  5
2E0
100
AcDbEntity
  8
0
100
AcDbCircle
 62
2
  6
CONTINUOUS
 10
12.5055811302
 20
2.518452367
 40
0.0024750401
100
AcDbArc
 50
147.6063258011
 51
270.0025305754
  0
LINE
  5
2E1
100
AcDbEntity
  8
0
100
AcDbLine
 62
2
  6
CONTINUOUS
 10
12.5034912383
 20
2.5197783291
 11
12.5090072414
 21
2.5284723339
  0
ARC
  5
2E2
100
AcDbEntity
  8
0
100
AcDbCircle
 62
2
  6
CONTINUOUS
 10
12.5110971723
 20
2.5271461342
 40
0.0024752003
100
AcDbArc
 50
89.998372645
 51
147.602165307
  0
LINE
  5
2E3
100
AcDbEntity
  8
0
100
AcDbLine
 62
2
  6
CONTINUOUS
 10
12.5110972426
 20
2.5296213345
 11
12.5459752619
 21
2.5296213345
  0
ARC
  5
2E4
100
AcDbEntity
  8
0
100
AcDbCircle
 62
2
  6
CONTINUOUS
 10
12.5459747223
 20
2.5271458744
 40
0.0024754602
100
AcDbArc
 50
32.8959418573
 51
89.9875097202
  0
LINE
  5
2E5
100
AcDbEntity
  8
0
100
AcDbLine
 62
2
  6
CONTINUOUS
 10
12.9205934696
 20
2.5920323691
 11
13.0210515254
 21
2.5920323691
  0
ARC
  5
2E6
100
AcDbEntity
  8
0
100
AcDbCircle
 62
2
  6
CONTINUOUS
 10
13.0210516601
 20
2.5895582013
 40
0.0024741678
100
AcDbArc
 50
46.3477981899
 51
90.0031206038
  0
LINE
  5
2E7
100
AcDbEntity
  8
0
100
AcDbLine
 62
2
  6
CONTINUOUS
 10
13.0227595263
 20
2.5913483688
 11
13.0827925596
 21
2.534068337
  0
ARC
  5
2E8
100
AcDbEntity
  8
0
100
AcDbCircle
 62
2
  6
CONTINUOUS
 10
13.0845012605
 20
2.5358592748
 40
0.0024753014
100
AcDbArc
 50
226.3461263059
 51
0.0014637321
  0
LINE
  5
2E9
100
AcDbEntity
  8
0
100
AcDbLine
 62
2
  6
CONTINUOUS
 10
13.0869765619
 20
2.535859338
 11
13.0869765619
 21
2.564807354
  0
ARC
  5
2EA
100
AcDbEntity
  8
0
100
AcDbCircle
 62
2
  6
CONTINUOUS
 10
13.0845015624
 20
2.5648073559
 40
0.0024749995
100
AcDbArc
 50
359.9999571957
 51
90.0000428043
  0
LINE
  5
2EB
100
AcDbEntity
  8
0
100
AcDbLine
 62
2
  6
CONTINUOUS
 10
13.0845015605
 20
2.5672823554
 11
13.0657255501
 21
2.5672823554
  0
ARC
  5
2EC
100
AcDbEntity
  8
0
100
AcDbCircle
 62
2
  6
CONTINUOUS
 10
13.0657255483
 20
2.5697573549
 40
0.0024749995
100
AcDbArc
 50
179.9999571957
 51
270.0000428043
  0
LINE
  5
2ED
100
AcDbEntity
  8
0
100
AcDbLine
 62
2
  6
CONTINUOUS
 10
13.0632505488
 20
2.5697573568
 11
13.0632505488
 21
2.5895573678
  0
ARC
  5
2EE
100
AcDbEntity
  8
0
100
AcDbCircle
 62
2
  6
CONTINUOUS
 10
13.0657255483
 20
2.5895573696
 40
0.0024749995
100
AcDbArc
 50
89.9999571957
 51
180.0000428043
  0
LINE
  5
2EF
100
AcDbEntity
  8
0
100
AcDbLine
 62
2
  6
CONTINUOUS
 10
13.0657255501
 20
2.5920323691
 11
13.1397265912
 21
2.5920323691
  0
ARC
  5
2F0
100
AcDbEntity
  8
0
100
AcDbCircle
 62
2
  6
CONTINUOUS
 10
13.139726593
 20
2.5895573696
 40
0.0024749995
100
AcDbArc
 50
359.9999571957
 51
90.0000428043
  0
LINE
  5
2F1
100
AcDbEntity
  8
0
100
AcDbLine
 62
2
  6
CONTINUOUS
 10
13.1422015925
 20
2.5895573678
 11
13.1422015925
 21
2.5697573568
  0
ARC
  5
2F2
100
AcDbEntity
  8
0
100
AcDbCircle
 62
2
  6
CONTINUOUS
 10
13.139726593
 20
2.5697573549
 40
0.0024749995
100
AcDbArc
 50
269.9999571957
 51
0.0000428042
  0
LINE
  5
2F3
100
AcDbEntity
  8
0
100
AcDbLine
 62
2
  6
CONTINUOUS
 10
13.1397265912
 20
2.5672823554
 11
13.1217935812
 21
2.5672823554
  0
ARC
  5
2F4
100
AcDbEntity
  8
0
100
AcDbCircle
 62
2
  6
CONTINUOUS
 10
13.1217935794
 20
2.5648073559
 40
0.0024749995
100
AcDbArc
 50
89.9999571957
 51
180.0000428042
  0
LINE
  5
2F5
100
AcDbEntity
  8
0
100
AcDbLine
 62
2
  6
CONTINUOUS
 10
13.1193185799
 20
2.564807354
 11
13.1193185799
 21
2.4937023146
  0
ARC
  5
2F6
100
AcDbEntity
  8
0
100
AcDbCircle
 62
2
  6
CONTINUOUS
 10
13.1168435803
 20
2.4937023128
 40
0.0024749995
100
AcDbArc
 50
269.9999571957
 51
0.0000428043
  0
LINE
  5
2F7
100
AcDbEntity
  8
0
100
AcDbLine
 62
2
  6
CONTINUOUS
 10
13.1168435785
 20
2.4912273132
 11
13.0426375373
 21
2.4912273132
  0
ARC
  5
2F8
100
AcDbEntity
  8
0
100
AcDbCircle
 62
2
  6
CONTINUOUS
 10
13.0426374026
 20
2.493701481
 40
0.0024741678
100
AcDbArc
 50
226.3477981898
 51
270.0031206038
  0
LINE
  5
2F9
100
AcDbEntity
  8
0
100
AcDbLine
 62
2
  6
CONTINUOUS
 10
13.0409295364
 20
2.4919113136
 11
12.9776495013
 21
2.5522893471
  0
ARC
  5
2FA
100
AcDbEntity
  8
0
100
AcDbCircle
 62
2
  6
CONTINUOUS
 10
12.9759408003
 20
2.5504984093
 40
0.0024753014
100
AcDbArc
 50
46.3461263059
 51
180.0014637321
  0
LINE
  5
2FB
100
AcDbEntity
  8
0
100
AcDbLine
 62
2
  6
CONTINUOUS
 10
12.973465499
 20
2.5504983461
 11
12.973465499
 21
2.5184523283
  0
ARC
  5
2FC
100
AcDbEntity
  8
0
100
AcDbCircle
 62
2
  6
CONTINUOUS
 10
12.9759404985
 20
2.5184523265
 40
0.0024749995
100
AcDbArc
 50
179.9999571957
 51
270.0000428043
  0
LINE
  5
2FD
100
AcDbEntity
  8
0
100
AcDbLine
 62
2
  6
CONTINUOUS
 10
12.9759405003
 20
2.515977327
 11
12.9962575116
 21
2.515977327
  0
ARC
  5
2FE
100
AcDbEntity
  8
0
100
AcDbCircle
 62
2
  6
CONTINUOUS
 10
12.9962575135
 20
2.5135023274
 40
0.0024749995
100
AcDbArc
 50
359.9999571957
 51
90.0000428043
  0
LINE
  5
2FF
100
AcDbEntity
  8
0
100
AcDbLine
 62
2
  6
CONTINUOUS
 10
12.998732513
 20
2.5135023256
 11
12.998732513
 21
2.4937023146
  0
ARC
  5
300
100
AcDbEntity
  8
0
100
AcDbCircle
 62
2
  6
CONTINUOUS
 10
12.9962575135
 20
2.4937023128
 40
0.0024749995
100
AcDbArc
 50
269.9999571957
 51
0.0000428043
  0
LINE
  5
301
100
AcDbEntity
  8
0
100
AcDbLine
 62
2
  6
CONTINUOUS
 10
12.9962575116
 20
2.4912273132
 11
12.9205934696
 21
2.4912273132
  0
ARC
  5
302
100
AcDbEntity
  8
0
100
AcDbCircle
 62
2
  6
CONTINUOUS
 10
12.9205934678
 20
2.4937023128
 40
0.0024749995
100
AcDbArc
 50
179.9999571957
 51
270.0000428043
  0
LINE
  5
303
100
AcDbEntity
  8
0
100
AcDbLine
 62
2
  6
CONTINUOUS
 10
12.9181184683
 20
2.4937023146
 11
12.9181184683
 21
2.5135023256
  0
ARC
  5
304
100
AcDbEntity
  8
0
100
AcDbCircle
 62
2
  6
CONTINUOUS
 10
12.9205934678
 20
2.5135023274
 40
0.0024749995
100
AcDbArc
 50
89.9999571957
 51
180.0000428042
  0
LINE
  5
305
100
AcDbEntity
  8
0
100
AcDbLine
 62
2
  6
CONTINUOUS
 10
12.9205934696
 20
2.515977327
 11
12.93923948
 21
2.515977327
  0
ARC
  5
306
100
AcDbEntity
  8
0
100
AcDbCircle
 62
2
  6
CONTINUOUS
 10
12.9392394818
 20
2.5184523265
 40
0.0024749995
100
AcDbArc
 50
269.9999571957
 51
0.0000428043
  0
LINE
  5
307
100
AcDbEntity
  8
0
100
AcDbLine
 62
2
  6
CONTINUOUS
 10
12.9417144814
 20
2.5184523283
 11
12.9417144814
 21
2.564807354
  0
ARC
  5
308
100
AcDbEntity
  8
0
100
AcDbCircle
 62
2
  6
CONTINUOUS
 10
12.9392394818
 20
2.5648073559
 40
0.0024749995
100
AcDbArc
 50
359.9999571957
 51
90.0000428043
  0
LINE
  5
309
100
AcDbEntity
  8
0
100
AcDbLine
 62
2
  6
CONTINUOUS
 10
12.93923948
 20
2.5672823554
 11
12.9205934696
 21
2.5672823554
  0
ARC
  5
30A
100
AcDbEntity
  8
0
100
AcDbCircle
 62
2
  6
CONTINUOUS
 10
12.9205934678
 20
2.5697573549
 40
0.0024749995
100
AcDbArc
 50
179.9999571957
 51
270.0000428043
  0
LINE
  5
30B
100
AcDbEntity
  8
0
100
AcDbLine
 62
2
  6
CONTINUOUS
 10
12.9181184683
 20
2.5697573568
 11
12.9181184683
 21
2.5895573678
  0
ARC
  5
30C
100
AcDbEntity
  8
0
100
AcDbCircle
 62
2
  6
CONTINUOUS
 10
12.9205934678
 20
2.5895573696
 40
0.0024749995
100
AcDbArc
 50
89.9999571957
 51
180.0000428042
  0
LINE
  5
30D
100
AcDbEntity
  8
0
100
AcDbLine
 62
2
  6
CONTINUOUS
 10
13.2934226764
 20
2.5324773361
 11
13.2582556569
 21
2.5324773361
  0
ARC
  5
30E
100
AcDbEntity
  8
0
100
AcDbCircle
 62
2
  6
CONTINUOUS
 10
13.2582556551
 20
2.5300023366
 40
0.0024749995
100
AcDbArc
 50
89.9999571957
 51
180.0000428043
  0
LINE
  5
30F
100
AcDbEntity
  8
0
100
AcDbLine
 62
2
  6
CONTINUOUS
 10
13.2557806555
 20
2.5300023347
 11
13.2557806555
 21
2.5184523283
  0
ARC
  5
310
100
AcDbEntity
  8
0
100
AcDbCircle
 62
2
  6
CONTINUOUS
 10
13.2582556551
 20
2.5184523265
 40
0.0024749995
100
AcDbArc
 50
179.9999571957
 51
270.0000428043
  0
LINE
  5
311
100
AcDbEntity
  8
0
100
AcDbLine
 62
2
  6
CONTINUOUS
 10
13.2582556569
 20
2.515977327
 11
13.3232596929
 21
2.515977327
  0
ARC
  5
312
100
AcDbEntity
  8
0
100
AcDbCircle
 62
2
  6
CONTINUOUS
 10
13.3232596948
 20
2.5184523265
 40
0.0024749995
100
AcDbArc
 50
269.9999571957
 51
0.0000428043
  0
LINE
  5
313
100
AcDbEntity
  8
0
100
AcDbLine
 62
2
  6
CONTINUOUS
 10
13.3257346943
 20
2.5184523283
 11
13.3257346943
 21
2.5267023329
  0
ARC
  5
314
100
AcDbEntity
  8
0
100
AcDbCircle
 62
2
  6
CONTINUOUS
 10
13.3282096938
 20
2.5267023348
 40
0.0024749995
100
AcDbArc
 50
89.9999571957
 51
180.0000428043
  0
LINE
  5
315
100
AcDbEntity
  8
0
100
AcDbLine
 62
2
  6
CONTINUOUS
 10
13.3282096957
 20
2.5291773343
 11
13.3705287192
 21
2.5291773343
  0
ARC
  5
316
100
AcDbEntity
  8
0
100
AcDbCircle
 62
2
  6
CONTINUOUS
 10
13.370528721
 20
2.5267023348
 40
0.0024749995
100
AcDbArc
 50
359.9999571957
 51
90.0000428043
  0
LINE
  5
317
100
AcDbEntity
  8
0
100
AcDbLine
 62
2
  6
CONTINUOUS
 10
13.3730037205
 20
2.5267023329
 11
13.3730037205
 21
2.4937023146
  0
ARC
  5
318
100
AcDbEntity
  8
0
100
AcDbCircle
 62
2
  6
CONTINUOUS
 10
13.370528721
 20
2.4937023128
 40
0.0024749995
100
AcDbArc
 50
269.9999571957
 51
0.0000428043
  0
LINE
  5
319
100
AcDbEntity
  8
0
100
AcDbLine
 62
2
  6
CONTINUOUS
 10
13.3705287192
 20
2.4912273132
 11
13.1673166065
 21
2.4912273132
  0
ARC
  5
31A
100
AcDbEntity
  8
0
100
AcDbCircle
 62
2
  6
CONTINUOUS
 10
13.1673166046
 20
2.4937023128
 40
0.0024749995
100
AcDbArc
 50
179.9999571957
 51
270.0000428043
  0
LINE
  5
31B
100
AcDbEntity
  8
0
100
AcDbLine
 62
2
  6
CONTINUOUS
 10
13.1648416051
 20
2.4937023146
 11
13.1648416051
 21
2.5135023256
  0
ARC
  5
31C
100
AcDbEntity
  8
0
100
AcDbCircle
 62
2
  6
CONTINUOUS
 10
13.1673166046
 20
2.5135023274
 40
0.0024749995
100
AcDbArc
 50
89.9999571957
 51
180.0000428043
  0
LINE
  5
31D
100
AcDbEntity
  8
0
100
AcDbLine
 62
2
  6
CONTINUOUS
 10
13.1673166065
 20
2.515977327
 11
13.1912396197
 21
2.515977327
  0
ARC
  5
31E
100
AcDbEntity
  8
0
100
AcDbCircle
 62
2
  6
CONTINUOUS
 10
13.1912396216
 20
2.5184523265
 40
0.0024749995
100
AcDbArc
 50
269.9999571957
 51
0.0000428042
  0
LINE
  5
31F
100
AcDbEntity
  8
0
100
AcDbLine
 62
2
  6
CONTINUOUS
 10
13.1937146211
 20
2.5184523283
 11
13.1937146211
 21
2.564807354
  0
ARC
  5
320
100
AcDbEntity
  8
0
100
AcDbCircle
 62
2
  6
CONTINUOUS
 10
13.1912396216
 20
2.5648073559
 40
0.0024749995
100
AcDbArc
 50
359.9999571957
 51
90.0000428043
  0
LINE
  5
321
100
AcDbEntity
  8
0
100
AcDbLine
 62
2
  6
CONTINUOUS
 10
13.1912396197
 20
2.5672823554
 11
13.1673166065
 21
2.5672823554
  0
ARC
  5
322
100
AcDbEntity
  8
0
100
AcDbCircle
 62
2
  6
CONTINUOUS
 10
13.1673166046
 20
2.5697573549
 40
0.0024749995
100
AcDbArc
 50
179.9999571957
 51
270.0000428043
  0
LINE
  5
323
100
AcDbEntity
  8
0
100
AcDbLine
 62
2
  6
CONTINUOUS
 10
13.1648416051
 20
2.5697573568
 11
13.1648416051
 21
2.5895573678
  0
ARC
  5
324
100
AcDbEntity
  8
0
100
AcDbCircle
 62
2
  6
CONTINUOUS
 10
13.1673166046
 20
2.5895573696
 40
0.0024749995
100
AcDbArc
 50
89.9999571957
 51
180.0000428043
  0
LINE
  5
325
100
AcDbEntity
  8
0
100
AcDbLine
 62
2
  6
CONTINUOUS
 10
13.1673166065
 20
2.5920323691
 11
13.3691097184
 21
2.5920323691
  0
ARC
  5
326
100
AcDbEntity
  8
0
100
AcDbCircle
 62
2
  6
CONTINUOUS
 10
13.3691097202
 20
2.5895573696
 40
0.0024749995
100
AcDbArc
 50
359.9999571957
 51
90.0000428043
  0
LINE
  5
327
100
AcDbEntity
  8
0
100
AcDbLine
 62
2
  6
CONTINUOUS
 10
13.3715847197
 20
2.5895573678
 11
13.3715847197
 21
2.5565573495
  0
ARC
  5
328
100
AcDbEntity
  8
0
100
AcDbCircle
 62
2
  6
CONTINUOUS
 10
13.3691097202
 20
2.5565573476
 40
0.0024749995
100
AcDbArc
 50
269.9999571957
 51
0.0000428042
  0
LINE
  5
329
100
AcDbEntity
  8
0
100
AcDbLine
 62
2
  6
CONTINUOUS
 10
13.3691097184
 20
2.5540823481
 11
13.3272456952
 21
2.5540823481
  0
ARC
  5
32A
100
AcDbEntity
  8
0
100
AcDbCircle
 62
2
  6
CONTINUOUS
 10
13.3272456933
 20
2.5565573476
 40
0.0024749995
100
AcDbArc
 50
179.9999571957
 51
270.0000428043
  0
LINE
  5
32B
100
AcDbEntity
  8
0
100
AcDbLine
 62
2
  6
CONTINUOUS
 10
13.3247706938
 20
2.5565573495
 11
13.3247706938
 21
2.564807354
  0
ARC
  5
32C
100
AcDbEntity
  8
0
100
AcDbCircle
 62
2
  6
CONTINUOUS
 10
13.3222956943
 20
2.5648073559
 40
0.0024749995
100
AcDbArc
 50
359.9999571957
 51
90.0000428043
  0
LINE
  5
32D
100
AcDbEntity
  8
0
100
AcDbLine
 62
2
  6
CONTINUOUS
 10
13.3222956924
 20
2.5672823554
 11
13.2582556569
 21
2.5672823554
  0
ARC
  5
32E
100
AcDbEntity
  8
0
100
AcDbCircle
 62
2
  6
CONTINUOUS
 10
13.2582556551
 20
2.5648073559
 40
0.0024749995
100
AcDbArc
 50
89.9999571957
 51
180.0000428043
  0
LINE
  5
32F
100
AcDbEntity
  8
0
100
AcDbLine
 62
2
  6
CONTINUOUS
 10
13.2557806555
 20
2.564807354
 11
13.2557806555
 21
2.5532573476
  0
ARC
  5
330
100
AcDbEntity
  8
0
100
AcDbCircle
 62
2
  6
CONTINUOUS
 10
13.2582556551
 20
2.5532573458
 40
0.0024749995
100
AcDbArc
 50
179.9999571957
 51
270.0000428043
  0
LINE
  5
331
100
AcDbEntity
  8
0
100
AcDbLine
 62
2
  6
CONTINUOUS
 10
13.2582556569
 20
2.5507823463
 11
13.2934226764
 21
2.5507823463
  0
ARC
  5
332
100
AcDbEntity
  8
0
100
AcDbCircle
 62
2
  6
CONTINUOUS
 10
13.2934226783
 20
2.5483073467
 40
0.0024749995
100
AcDbArc
 50
359.9999571957
 51
90.0000428043
  0
LINE
  5
333
100
AcDbEntity
  8
0
100
AcDbLine
 62
2
  6
CONTINUOUS
 10
13.2958976778
 20
2.5483073449
 11
13.2958976778
 21
2.5349523375
  0
ARC
  5
334
100
AcDbEntity
  8
0
100
AcDbCircle
 62
2
  6
CONTINUOUS
 10
13.2934226783
 20
2.5349523356
 40
0.0024749995
100
AcDbArc
 50
269.9999571957
 51
0.0000428042
  0
LINE
  5
335
100
AcDbEntity
  8
0
100
AcDbLine
 62
2
  6
CONTINUOUS
 10
13.7286871589
 20
2.5350697372
 11
13.7286871589
 21
2.5456869438
  0
LINE
  5
336
100
AcDbEntity
  8
0
100
AcDbLine
 62
2
  6
CONTINUOUS
 10
13.7086871478
 20
2.5004302075
 11
13.7086871478
 21
2.5803264735
  0
LINE
  5
337
100
AcDbEntity
  8
0
100
AcDbLine
 62
2
  6
CONTINUOUS
 10
13.6886871368
 20
2.4843919416
 11
13.6886871368
 21
2.5963647394
  0
LINE
  5
338
100
AcDbEntity
  8
0
100
AcDbLine
 62
2
  6
CONTINUOUS
 10
13.6686871257
 20
2.4726017898
 11
13.6686871257
 21
2.6081548911
  0
LINE
  5
339
100
AcDbEntity
  8
0
100
AcDbLine
 62
2
  6
CONTINUOUS
 10
13.6486871146
 20
2.4628062688
 11
13.6486871146
 21
2.6179504122
  0
LINE
  5
33A
100
AcDbEntity
  8
0
100
AcDbLine
 62
2
  6
CONTINUOUS
 10
13.6286871035
 20
2.4541253507
 11
13.6286871035
 21
2.5062483056
  0
LINE
  5
33B
100
AcDbEntity
  8
0
100
AcDbLine
 62
2
  6
CONTINUOUS
 10
13.6286871035
 20
2.5301143348
 11
13.6286871035
 21
2.6266313303
  0
LINE
  5
33C
100
AcDbEntity
  8
0
100
AcDbLine
 62
2
  6
CONTINUOUS
 10
13.6086870924
 20
2.4465537903
 11
13.6086870924
 21
2.4918774918
  0
LINE
  5
33D
100
AcDbEntity
  8
0
100
AcDbLine
 62
2
  6
CONTINUOUS
 10
13.6086870924
 20
2.5165781173
 11
13.6086870924
 21
2.6342028907
  0
LINE
  5
33E
100
AcDbEntity
  8
0
100
AcDbLine
 62
2
  6
CONTINUOUS
 10
13.5886870813
 20
2.4398033466
 11
13.5886870813
 21
2.4912273132
  0
LINE
  5
33F
100
AcDbEntity
  8
0
100
AcDbLine
 62
2
  6
CONTINUOUS
 10
13.5886870813
 20
2.5391840845
 11
13.5886870813
 21
2.5454298327
  0
LINE
  5
340
100
AcDbEntity
  8
0
100
AcDbLine
 62
2
  6
CONTINUOUS
 10
13.5886870813
 20
2.5862063472
 11
13.5886870813
 21
2.6409533343
  0
LINE
  5
341
100
AcDbEntity
  8
0
100
AcDbLine
 62
2
  6
CONTINUOUS
 10
13.5686870702
 20
2.4334702189
 11
13.5686870702
 21
2.4912273132
  0
LINE
  5
342
100
AcDbEntity
  8
0
100
AcDbLine
 62
2
  6
CONTINUOUS
 10
13.5686870702
 20
2.5906587765
 11
13.5686870702
 21
2.647286462
  0
LINE
  5
343
100
AcDbEntity
  8
0
100
AcDbLine
 62
2
  6
CONTINUOUS
 10
13.5486870591
 20
2.4278968124
 11
13.5486870591
 21
2.4937461006
  0
LINE
  5
344
100
AcDbEntity
  8
0
100
AcDbLine
 62
2
  6
CONTINUOUS
 10
13.5486870591
 20
2.5920323691
 11
13.5486870591
 21
2.6528598686
  0
LINE
  5
345
100
AcDbEntity
  8
0
100
AcDbLine
 62
2
  6
CONTINUOUS
 10
13.528687048
 20
2.4225427674
 11
13.528687048
 21
2.5270426993
  0
LINE
  5
346
100
AcDbEntity
  8
0
100
AcDbLine
 62
2
  6
CONTINUOUS
 10
13.528687048
 20
2.5505166259
 11
13.528687048
 21
2.5668657091
  0
LINE
  5
347
100
AcDbEntity
  8
0
100
AcDbLine
 62
2
  6
CONTINUOUS
 10
13.528687048
 20
2.5920323691
 11
13.528687048
 21
2.6582139136
  0
LINE
  5
348
100
AcDbEntity
  8
0
100
AcDbLine
 62
2
  6
CONTINUOUS
 10
13.5086870369
 20
2.4177306791
 11
13.5086870369
 21
2.4912273132
  0
LINE
  5
349
100
AcDbEntity
  8
0
100
AcDbLine
 62
2
  6
CONTINUOUS
 10
13.5086870369
 20
2.5159553269
 11
13.5086870369
 21
2.5306043351
  0
LINE
  5
34A
100
AcDbEntity
  8
0
100
AcDbLine
 62
2
  6
CONTINUOUS
 10
13.5086870369
 20
2.5496073456
 11
13.5086870369
 21
2.5672823554
  0
LINE
  5
34B
100
AcDbEntity
  8
0
100
AcDbLine
 62
2
  6
CONTINUOUS
 10
13.5086870369
 20
2.5920323691
 11
13.5086870369
 21
2.6630260019
  0
LINE
  5
34C
100
AcDbEntity
  8
0
100
AcDbLine
 62
2
  6
CONTINUOUS
 10
13.4886870258
 20
2.4131795254
 11
13.4886870258
 21
2.4912273132
  0
LINE
  5
34D
100
AcDbEntity
  8
0
100
AcDbLine
 62
2
  6
CONTINUOUS
 10
13.4886870258
 20
2.5159553269
 11
13.4886870258
 21
2.5306043351
  0
LINE
  5
34E
100
AcDbEntity
  8
0
100
AcDbLine
 62
2
  6
CONTINUOUS
 10
13.4886870258
 20
2.5496073456
 11
13.4886870258
 21
2.5672823554
  0
LINE
  5
34F
100
AcDbEntity
  8
0
100
AcDbLine
 62
2
  6
CONTINUOUS
 10
13.4886870258
 20
2.5920323691
 11
13.4886870258
 21
2.6675771555
  0
LINE
  5
350
100
AcDbEntity
  8
0
100
AcDbLine
 62
2
  6
CONTINUOUS
 10
13.4686870147
 20
2.4088819672
 11
13.4686870147
 21
2.4912273132
  0
LINE
  5
351
100
AcDbEntity
  8
0
100
AcDbLine
 62
2
  6
CONTINUOUS
 10
13.4686870147
 20
2.5920323691
 11
13.4686870147
 21
2.6718747138
  0
LINE
  5
352
100
AcDbEntity
  8
0
100
AcDbLine
 62
2
  6
CONTINUOUS
 10
13.4486870037
 20
2.4050092072
 11
13.4486870037
 21
2.4912273132
  0
LINE
  5
353
100
AcDbEntity
  8
0
100
AcDbLine
 62
2
  6
CONTINUOUS
 10
13.4486870037
 20
2.5920323691
 11
13.4486870037
 21
2.6757474738
  0
LINE
  5
354
100
AcDbEntity
  8
0
100
AcDbLine
 62
2
  6
CONTINUOUS
 10
13.4286869926
 20
2.4011364471
 11
13.4286869926
 21
2.4912273132
  0
LINE
  5
355
100
AcDbEntity
  8
0
100
AcDbLine
 62
2
  6
CONTINUOUS
 10
13.4286869926
 20
2.5920323691
 11
13.4286869926
 21
2.6796202339
  0
LINE
  5
356
100
AcDbEntity
  8
0
100
AcDbLine
 62
2
  6
CONTINUOUS
 10
13.4086869815
 20
2.3980226662
 11
13.4086869815
 21
2.4912273132
  0
LINE
  5
357
100
AcDbEntity
  8
0
100
AcDbLine
 62
2
  6
CONTINUOUS
 10
13.4086869815
 20
2.515977327
 11
13.4086869815
 21
2.5672823554
  0
LINE
  5
358
100
AcDbEntity
  8
0
100
AcDbLine
 62
2
  6
CONTINUOUS
 10
13.4086869815
 20
2.5920323691
 11
13.4086869815
 21
2.6827340148
  0
LINE
  5
359
100
AcDbEntity
  8
0
100
AcDbLine
 62
2
  6
CONTINUOUS
 10
13.3886869704
 20
2.3950052774
 11
13.3886869704
 21
2.6857514036
  0
LINE
  5
35A
100
AcDbEntity
  8
0
100
AcDbLine
 62
2
  6
CONTINUOUS
 10
13.3686869593
 20
2.3919878885
 11
13.3686869593
 21
2.4912273132
  0
LINE
  5
35B
100
AcDbEntity
  8
0
100
AcDbLine
 62
2
  6
CONTINUOUS
 10
13.3686869593
 20
2.5291773343
 11
13.3686869593
 21
2.5540823481
  0
LINE
  5
35C
100
AcDbEntity
  8
0
100
AcDbLine
 62
2
  6
CONTINUOUS
 10
13.3686869593
 20
2.5920323691
 11
13.3686869593
 21
2.6887687924
  0
LINE
  5
35D
100
AcDbEntity
  8
0
100
AcDbLine
 62
2
  6
CONTINUOUS
 10
13.3486869482
 20
2.3889704997
 11
13.3486869482
 21
2.4912273132
  0
LINE
  5
35E
100
AcDbEntity
  8
0
100
AcDbLine
 62
2
  6
CONTINUOUS
 10
13.3486869482
 20
2.5291773343
 11
13.3486869482
 21
2.5540823481
  0
LINE
  5
35F
100
AcDbEntity
  8
0
100
AcDbLine
 62
2
  6
CONTINUOUS
 10
13.3486869482
 20
2.5920323691
 11
13.3486869482
 21
2.6917861813
  0
LINE
  5
360
100
AcDbEntity
  8
0
100
AcDbLine
 62
2
  6
CONTINUOUS
 10
13.3286869371
 20
2.3859531109
 11
13.3286869371
 21
2.4912273132
  0
LINE
  5
361
100
AcDbEntity
  8
0
100
AcDbLine
 62
2
  6
CONTINUOUS
 10
13.3286869371
 20
2.5291773343
 11
13.3286869371
 21
2.5540823481
  0
LINE
  5
362
100
AcDbEntity
  8
0
100
AcDbLine
 62
2
  6
CONTINUOUS
 10
13.3286869371
 20
2.5920323691
 11
13.3286869371
 21
2.6948035701
  0
LINE
  5
363
100
AcDbEntity
  8
0
100
AcDbLine
 62
2
  6
CONTINUOUS
 10
13.308686926
 20
2.3833355437
 11
13.308686926
 21
2.4912273132
  0
LINE
  5
364
100
AcDbEntity
  8
0
100
AcDbLine
 62
2
  6
CONTINUOUS
 10
13.308686926
 20
2.515977327
 11
13.308686926
 21
2.5672823554
  0
LINE
  5
365
100
AcDbEntity
  8
0
100
AcDbLine
 62
2
  6
CONTINUOUS
 10
13.308686926
 20
2.5920323691
 11
13.308686926
 21
2.6974211373
  0
LINE
  5
366
100
AcDbEntity
  8
0
100
AcDbLine
 62
2
  6
CONTINUOUS
 10
13.2886869149
 20
2.3812612684
 11
13.2886869149
 21
2.4912273132
  0
LINE
  5
367
100
AcDbEntity
  8
0
100
AcDbLine
 62
2
  6
CONTINUOUS
 10
13.2886869149
 20
2.515977327
 11
13.2886869149
 21
2.5324773361
  0
LINE
  5
368
100
AcDbEntity
  8
0
100
AcDbLine
 62
2
  6
CONTINUOUS
 10
13.2886869149
 20
2.5507823463
 11
13.2886869149
 21
2.5672823554
  0
LINE
  5
369
100
AcDbEntity
  8
0
100
AcDbLine
 62
2
  6
CONTINUOUS
 10
13.2886869149
 20
2.5920323691
 11
13.2886869149
 21
2.6994954125
  0
LINE
  5
36A
100
AcDbEntity
  8
0
100
AcDbLine
 62
2
  6
CONTINUOUS
 10
13.2686869038
 20
2.3791869932
 11
13.2686869038
 21
2.4912273132
  0
LINE
  5
36B
100
AcDbEntity
  8
0
100
AcDbLine
 62
2
  6
CONTINUOUS
 10
13.2686869038
 20
2.515977327
 11
13.2686869038
 21
2.5324773361
  0
LINE
  5
36C
100
AcDbEntity
  8
0
100
AcDbLine
 62
2
  6
CONTINUOUS
 10
13.2686869038
 20
2.5507823463
 11
13.2686869038
 21
2.5672823554
  0
LINE
  5
36D
100
AcDbEntity
  8
0
100
AcDbLine
 62
2
  6
CONTINUOUS
 10
13.2686869038
 20
2.5920323691
 11
13.2686869038
 21
2.7015696878
  0
LINE
  5
36E
100
AcDbEntity
  8
0
100
AcDbLine
 62
2
  6
CONTINUOUS
 10
13.2486868927
 20
2.377112718
 11
13.2486868927
 21
2.4912273132
  0
LINE
  5
36F
100
AcDbEntity
  8
0
100
AcDbLine
 62
2
  6
CONTINUOUS
 10
13.2486868927
 20
2.5920323691
 11
13.2486868927
 21
2.703643963
  0
LINE
  5
370
100
AcDbEntity
  8
0
100
AcDbLine
 62
2
  6
CONTINUOUS
 10
13.2286868817
 20
2.3750384428
 11
13.2286868817
 21
2.4912273132
  0
LINE
  5
371
100
AcDbEntity
  8
0
100
AcDbLine
 62
2
  6
CONTINUOUS
 10
13.2286868817
 20
2.5920323691
 11
13.2286868817
 21
2.7057182382
  0
LINE
  5
372
100
AcDbEntity
  8
0
100
AcDbLine
 62
2
  6
CONTINUOUS
 10
13.2086868706
 20
2.3729641676
 11
13.2086868706
 21
2.4912273132
  0
LINE
  5
373
100
AcDbEntity
  8
0
100
AcDbLine
 62
2
  6
CONTINUOUS
 10
13.2086868706
 20
2.5920323691
 11
13.2086868706
 21
2.7077925134
  0
LINE
  5
374
100
AcDbEntity
  8
0
100
AcDbLine
 62
2
  6
CONTINUOUS
 10
13.1886868595
 20
2.3712344456
 11
13.1886868595
 21
2.4912273132
  0
LINE
  5
375
100
AcDbEntity
  8
0
100
AcDbLine
 62
2
  6
CONTINUOUS
 10
13.1886868595
 20
2.515977327
 11
13.1886868595
 21
2.5672823554
  0
LINE
  5
376
100
AcDbEntity
  8
0
100
AcDbLine
 62
2
  6
CONTINUOUS
 10
13.1886868595
 20
2.5920323691
 11
13.1886868595
 21
2.7095222354
  0
LINE
  5
377
100
AcDbEntity
  8
0
100
AcDbLine
 62
2
  6
CONTINUOUS
 10
13.1686868484
 20
2.3699682418
 11
13.1686868484
 21
2.4912273132
  0
LINE
  5
378
100
AcDbEntity
  8
0
100
AcDbLine
 62
2
  6
CONTINUOUS
 10
13.1686868484
 20
2.515977327
 11
13.1686868484
 21
2.5672823554
  0
LINE
  5
379
100
AcDbEntity
  8
0
100
AcDbLine
 62
2
  6
CONTINUOUS
 10
13.1686868484
 20
2.5920323691
 11
13.1686868484
 21
2.7107884392
  0
LINE
  5
37A
100
AcDbEntity
  8
0
100
AcDbLine
 62
2
  6
CONTINUOUS
 10
13.1486868373
 20
2.3687020381
 11
13.1486868373
 21
2.7120546429
  0
LINE
  5
37B
100
AcDbEntity
  8
0
100
AcDbLine
 62
2
  6
CONTINUOUS
 10
13.1286868262
 20
2.3674358343
 11
13.1286868262
 21
2.5672823554
  0
LINE
  5
37C
100
AcDbEntity
  8
0
100
AcDbLine
 62
2
  6
CONTINUOUS
 10
13.1286868262
 20
2.5920323691
 11
13.1286868262
 21
2.7133208466
  0
LINE
  5
37D
100
AcDbEntity
  8
0
100
AcDbLine
 62
2
  6
CONTINUOUS
 10
13.1086868151
 20
2.3661696306
 11
13.1086868151
 21
2.4912273132
  0
LINE
  5
37E
100
AcDbEntity
  8
0
100
AcDbLine
 62
2
  6
CONTINUOUS
 10
13.1086868151
 20
2.5920323691
 11
13.1086868151
 21
2.7145870504
  0
LINE
  5
37F
100
AcDbEntity
  8
0
100
AcDbLine
 62
2
  6
CONTINUOUS
 10
13.088686804
 20
2.3649034269
 11
13.088686804
 21
2.4912273132
  0
LINE
  5
380
100
AcDbEntity
  8
0
100
AcDbLine
 62
2
  6
CONTINUOUS
 10
13.088686804
 20
2.5920323691
 11
13.088686804
 21
2.7158532541
  0
LINE
  5
381
100
AcDbEntity
  8
0
100
AcDbLine
 62
2
  6
CONTINUOUS
 10
13.0686867929
 20
2.3636739922
 11
13.0686867929
 21
2.4912273132
  0
LINE
  5
382
100
AcDbEntity
  8
0
100
AcDbLine
 62
2
  6
CONTINUOUS
 10
13.0686867929
 20
2.5475272398
 11
13.0686867929
 21
2.5672823554
  0
LINE
  5
383
100
AcDbEntity
  8
0
100
AcDbLine
 62
2
  6
CONTINUOUS
 10
13.0686867929
 20
2.5920323691
 11
13.0686867929
 21
2.7170826887
  0
LINE
  5
384
100
AcDbEntity
  8
0
100
AcDbLine
 62
2
  6
CONTINUOUS
 10
13.0486867818
 20
2.363143203
 11
13.0486867818
 21
2.4912273132
  0
LINE
  5
385
100
AcDbEntity
  8
0
100
AcDbLine
 62
2
  6
CONTINUOUS
 10
13.0486867818
 20
2.5666100882
 11
13.0486867818
 21
2.717613478
  0
LINE
  5
386
100
AcDbEntity
  8
0
100
AcDbLine
 62
2
  6
CONTINUOUS
 10
13.0286867707
 20
2.3626124138
 11
13.0286867707
 21
2.50359263
  0
LINE
  5
387
100
AcDbEntity
  8
0
100
AcDbLine
 62
2
  6
CONTINUOUS
 10
13.0286867707
 20
2.5856929366
 11
13.0286867707
 21
2.7181442672
  0
LINE
  5
388
100
AcDbEntity
  8
0
100
AcDbLine
 62
2
  6
CONTINUOUS
 10
13.0086867596
 20
2.3620816246
 11
13.0086867596
 21
2.5226754472
  0
LINE
  5
389
100
AcDbEntity
  8
0
100
AcDbLine
 62
2
  6
CONTINUOUS
 10
13.0086867596
 20
2.5920323691
 11
13.0086867596
 21
2.7186750564
  0
LINE
  5
38A
100
AcDbEntity
  8
0
100
AcDbLine
 62
2
  6
CONTINUOUS
 10
12.9886867486
 20
2.3615508354
 11
12.9886867486
 21
2.4912273132
  0
LINE
  5
38B
100
AcDbEntity
  8
0
100
AcDbLine
 62
2
  6
CONTINUOUS
 10
12.9886867486
 20
2.515977327
 11
12.9886867486
 21
2.5417582644
  0
LINE
  5
38C
100
AcDbEntity
  8
0
100
AcDbLine
 62
2
  6
CONTINUOUS
 10
12.9886867486
 20
2.5920323691
 11
12.9886867486
 21
2.7192058456
  0
LINE
  5
38D
100
AcDbEntity
  8
0
100
AcDbLine
 62
2
  6
CONTINUOUS
 10
12.9686867375
 20
2.3610200462
 11
12.9686867375
 21
2.4912273132
  0
LINE
  5
38E
100
AcDbEntity
  8
0
100
AcDbLine
 62
2
  6
CONTINUOUS
 10
12.9686867375
 20
2.5920323691
 11
12.9686867375
 21
2.7197366348
  0
LINE
  5
38F
100
AcDbEntity
  8
0
100
AcDbLine
 62
2
  6
CONTINUOUS
 10
12.9486867264
 20
2.360489257
 11
12.9486867264
 21
2.4912273132
  0
LINE
  5
390
100
AcDbEntity
  8
0
100
AcDbLine
 62
2
  6
CONTINUOUS
 10
12.9486867264
 20
2.5920323691
 11
12.9486867264
 21
2.720267424
  0
LINE
  5
391
100
AcDbEntity
  8
0
100
AcDbLine
 62
2
  6
CONTINUOUS
 10
12.9286867153
 20
2.3602836008
 11
12.9286867153
 21
2.4912273132
  0
LINE
  5
392
100
AcDbEntity
  8
0
100
AcDbLine
 62
2
  6
CONTINUOUS
 10
12.9286867153
 20
2.515977327
 11
12.9286867153
 21
2.5672823554
  0
LINE
  5
393
100
AcDbEntity
  8
0
100
AcDbLine
 62
2
  6
CONTINUOUS
 10
12.9286867153
 20
2.5920323691
 11
12.9286867153
 21
2.7204730802
  0
LINE
  5
394
100
AcDbEntity
  8
0
100
AcDbLine
 62
2
  6
CONTINUOUS
 10
12.9086867042
 20
2.3604597639
 11
12.9086867042
 21
2.7202969171
  0
LINE
  5
395
100
AcDbEntity
  8
0
100
AcDbLine
 62
2
  6
CONTINUOUS
 10
12.8886866931
 20
2.360635927
 11
12.8886866931
 21
2.5672823554
  0
LINE
  5
396
100
AcDbEntity
  8
0
100
AcDbLine
 62
2
  6
CONTINUOUS
 10
12.8886866931
 20
2.5920323691
 11
12.8886866931
 21
2.720120754
  0
LINE
  5
397
100
AcDbEntity
  8
0
100
AcDbLine
 62
2
  6
CONTINUOUS
 10
12.868686682
 20
2.3608120901
 11
12.868686682
 21
2.491232357
  0
LINE
  5
398
100
AcDbEntity
  8
0
100
AcDbLine
 62
2
  6
CONTINUOUS
 10
12.868686682
 20
2.5920323691
 11
12.868686682
 21
2.7199445909
  0
LINE
  5
399
100
AcDbEntity
  8
0
100
AcDbLine
 62
2
  6
CONTINUOUS
 10
12.8486866709
 20
2.3609882532
 11
12.8486866709
 21
2.4912273132
  0
LINE
  5
39A
100
AcDbEntity
  8
0
100
AcDbLine
 62
2
  6
CONTINUOUS
 10
12.8486866709
 20
2.5920323691
 11
12.8486866709
 21
2.7197684278
  0
LINE
  5
39B
100
AcDbEntity
  8
0
100
AcDbLine
 62
2
  6
CONTINUOUS
 10
12.8286866598
 20
2.3611644163
 11
12.8286866598
 21
2.4912273132
  0
LINE
  5
39C
100
AcDbEntity
  8
0
100
AcDbLine
 62
2
  6
CONTINUOUS
 10
12.8286866598
 20
2.5396527025
 11
12.8286866598
 21
2.5672823554
  0
LINE
  5
39D
100
AcDbEntity
  8
0
100
AcDbLine
 62
2
  6
CONTINUOUS
 10
12.8286866598
 20
2.5920323691
 11
12.8286866598
 21
2.7195922647
  0
LINE
  5
39E
100
AcDbEntity
  8
0
100
AcDbLine
 62
2
  6
CONTINUOUS
 10
12.8086866487
 20
2.3613405794
 11
12.8086866487
 21
2.4912273132
  0
LINE
  5
39F
100
AcDbEntity
  8
0
100
AcDbLine
 62
2
  6
CONTINUOUS
 10
12.8086866487
 20
2.5587355508
 11
12.8086866487
 21
2.7194161016
  0
LINE
  5
3A0
100
AcDbEntity
  8
0
100
AcDbLine
 62
2
  6
CONTINUOUS
 10
12.7886866376
 20
2.3621089572
 11
12.7886866376
 21
2.4957181055
  0
LINE
  5
3A1
100
AcDbEntity
  8
0
100
AcDbLine
 62
2
  6
CONTINUOUS
 10
12.7886866376
 20
2.5778183992
 11
12.7886866376
 21
2.7186477238
  0
LINE
  5
3A2
100
AcDbEntity
  8
0
100
AcDbLine
 62
2
  6
CONTINUOUS
 10
12.7686866266
 20
2.3630013935
 11
12.7686866266
 21
2.5148009227
  0
LINE
  5
3A3
100
AcDbEntity
  8
0
100
AcDbLine
 62
2
  6
CONTINUOUS
 10
12.7686866266
 20
2.5920323691
 11
12.7686866266
 21
2.7177552874
  0
LINE
  5
3A4
100
AcDbEntity
  8
0
100
AcDbLine
 62
2
  6
CONTINUOUS
 10
12.7486866155
 20
2.3638938299
 11
12.7486866155
 21
2.4913263218
  0
LINE
  5
3A5
100
AcDbEntity
  8
0
100
AcDbLine
 62
2
  6
CONTINUOUS
 10
12.7486866155
 20
2.5158783184
 11
12.7486866155
 21
2.5338837399
  0
LINE
  5
3A6
100
AcDbEntity
  8
0
100
AcDbLine
 62
2
  6
CONTINUOUS
 10
12.7486866155
 20
2.5920323691
 11
12.7486866155
 21
2.7168628511
  0
LINE
  5
3A7
100
AcDbEntity
  8
0
100
AcDbLine
 62
2
  6
CONTINUOUS
 10
12.7286866044
 20
2.3647862663
 11
12.7286866044
 21
2.4912273132
  0
LINE
  5
3A8
100
AcDbEntity
  8
0
100
AcDbLine
 62
2
  6
CONTINUOUS
 10
12.7286866044
 20
2.515977327
 11
12.7286866044
 21
2.5527601554
  0
LINE
  5
3A9
100
AcDbEntity
  8
0
100
AcDbLine
 62
2
  6
CONTINUOUS
 10
12.7286866044
 20
2.5920323691
 11
12.7286866044
 21
2.7159704147
  0
LINE
  5
3AA
100
AcDbEntity
  8
0
100
AcDbLine
 62
2
  6
CONTINUOUS
 10
12.7086865933
 20
2.3656787026
 11
12.7086865933
 21
2.4912273132
  0
LINE
  5
3AB
100
AcDbEntity
  8
0
100
AcDbLine
 62
2
  6
CONTINUOUS
 10
12.7086865933
 20
2.5920323691
 11
12.7086865933
 21
2.7150779784
  0
LINE
  5
3AC
100
AcDbEntity
  8
0
100
AcDbLine
 62
2
  6
CONTINUOUS
 10
12.6886865822
 20
2.366571139
 11
12.6886865822
 21
2.4912273132
  0
LINE
  5
3AD
100
AcDbEntity
  8
0
100
AcDbLine
 62
2
  6
CONTINUOUS
 10
12.6886865822
 20
2.515977327
 11
12.6886865822
 21
2.5672823554
  0
LINE
  5
3AE
100
AcDbEntity
  8
0
100
AcDbLine
 62
2
  6
CONTINUOUS
 10
12.6886865822
 20
2.5920323691
 11
12.6886865822
 21
2.714185542
  0
LINE
  5
3AF
100
AcDbEntity
  8
0
100
AcDbLine
 62
2
  6
CONTINUOUS
 10
12.6686865711
 20
2.3677104027
 11
12.6686865711
 21
2.7130462783
  0
LINE
  5
3B0
100
AcDbEntity
  8
0
100
AcDbLine
 62
2
  6
CONTINUOUS
 10
12.64868656
 20
2.3693682721
 11
12.64868656
 21
2.7113884089
  0
LINE
  5
3B1
100
AcDbEntity
  8
0
100
AcDbLine
 62
2
  6
CONTINUOUS
 10
12.6286865489
 20
2.3710261415
 11
12.6286865489
 21
2.4912273132
  0
LINE
  5
3B2
100
AcDbEntity
  8
0
100
AcDbLine
 62
2
  6
CONTINUOUS
 10
12.6286865489
 20
2.515977327
 11
12.6286865489
 21
2.7097305395
  0
LINE
  5
3B3
100
AcDbEntity
  8
0
100
AcDbLine
 62
2
  6
CONTINUOUS
 10
12.6086865378
 20
2.372684011
 11
12.6086865378
 21
2.4912273132
  0
LINE
  5
3B4
100
AcDbEntity
  8
0
100
AcDbLine
 62
2
  6
CONTINUOUS
 10
12.6086865378
 20
2.5351122279
 11
12.6086865378
 21
2.70807267
  0
LINE
  5
3B5
100
AcDbEntity
  8
0
100
AcDbLine
 62
2
  6
CONTINUOUS
 10
12.5886865267
 20
2.3743418804
 11
12.5886865267
 21
2.4912273132
  0
LINE
  5
3B6
100
AcDbEntity
  8
0
100
AcDbLine
 62
2
  6
CONTINUOUS
 10
12.5886865267
 20
2.5660172622
 11
12.5886865267
 21
2.7064148006
  0
LINE
  5
3B7
100
AcDbEntity
  8
0
100
AcDbLine
 62
2
  6
CONTINUOUS
 10
12.5686865156
 20
2.3759997498
 11
12.5686865156
 21
2.4912273132
  0
LINE
  5
3B8
100
AcDbEntity
  8
0
100
AcDbLine
 62
2
  6
CONTINUOUS
 10
12.5686865156
 20
2.5920323691
 11
12.5686865156
 21
2.7047569312
  0
LINE
  5
3B9
100
AcDbEntity
  8
0
100
AcDbLine
 62
2
  6
CONTINUOUS
 10
12.5486865045
 20
2.3777575277
 11
12.5486865045
 21
2.4912273132
  0
LINE
  5
3BA
100
AcDbEntity
  8
0
100
AcDbLine
 62
2
  6
CONTINUOUS
 10
12.5486865045
 20
2.515977327
 11
12.5486865045
 21
2.5275118824
  0
LINE
  5
3BB
100
AcDbEntity
  8
0
100
AcDbLine
 62
2
  6
CONTINUOUS
 10
12.5486865045
 20
2.5920323691
 11
12.5486865045
 21
2.7029991533
  0
LINE
  5
3BC
100
AcDbEntity
  8
0
100
AcDbLine
 62
2
  6
CONTINUOUS
 10
12.5286864935
 20
2.3802813811
 11
12.5286864935
 21
2.5296213345
  0
LINE
  5
3BD
100
AcDbEntity
  8
0
100
AcDbLine
 62
2
  6
CONTINUOUS
 10
12.5286864935
 20
2.5505713461
 11
12.5286864935
 21
2.5667383551
  0
LINE
  5
3BE
100
AcDbEntity
  8
0
100
AcDbLine
 62
2
  6
CONTINUOUS
 10
12.5286864935
 20
2.5920323691
 11
12.5286864935
 21
2.7004752999
  0
LINE
  5
3BF
100
AcDbEntity
  8
0
100
AcDbLine
 62
2
  6
CONTINUOUS
 10
12.5086864824
 20
2.3828052346
 11
12.5086864824
 21
2.4912273132
  0
LINE
  5
3C0
100
AcDbEntity
  8
0
100
AcDbLine
 62
2
  6
CONTINUOUS
 10
12.5086864824
 20
2.515977327
 11
12.5086864824
 21
2.5279667721
  0
LINE
  5
3C1
100
AcDbEntity
  8
0
100
AcDbLine
 62
2
  6
CONTINUOUS
 10
12.5086864824
 20
2.5868602074
 11
12.5086864824
 21
2.6979514464
  0
LINE
  5
3C2
100
AcDbEntity
  8
0
100
AcDbLine
 62
2
  6
CONTINUOUS
 10
12.4886864713
 20
2.385329088
 11
12.4886864713
 21
2.4912273132
  0
LINE
  5
3C3
100
AcDbEntity
  8
0
100
AcDbLine
 62
2
  6
CONTINUOUS
 10
12.4886864713
 20
2.5553401045
 11
12.4886864713
 21
2.695427593
  0
LINE
  5
3C4
100
AcDbEntity
  8
0
100
AcDbLine
 62
2
  6
CONTINUOUS
 10
12.4686864602
 20
2.3878529415
 11
12.4686864602
 21
2.4912273132
  0
LINE
  5
3C5
100
AcDbEntity
  8
0
100
AcDbLine
 62
2
  6
CONTINUOUS
 10
12.4686864602
 20
2.5238200015
 11
12.4686864602
 21
2.6929037395
  0
LINE
  5
3C6
100
AcDbEntity
  8
0
100
AcDbLine
 62
2
  6
CONTINUOUS
 10
12.4486864491
 20
2.390376795
 11
12.4486864491
 21
2.4912273132
  0
LINE
  5
3C7
100
AcDbEntity
  8
0
100
AcDbLine
 62
2
  6
CONTINUOUS
 10
12.4486864491
 20
2.515977327
 11
12.4486864491
 21
2.690379886
  0
LINE
  5
3C8
100
AcDbEntity
  8
0
100
AcDbLine
 62
2
  6
CONTINUOUS
 10
12.428686438
 20
2.3931794042
 11
12.428686438
 21
2.6875772768
  0
LINE
  5
3C9
100
AcDbEntity
  8
0
100
AcDbLine
 62
2
  6
CONTINUOUS
 10
12.4086864269
 20
2.3964643301
 11
12.4086864269
 21
2.5013773986
  0
LINE
  5
3CA
100
AcDbEntity
  8
0
100
AcDbLine
 62
2
  6
CONTINUOUS
 10
12.4086864269
 20
2.5325739971
 11
12.4086864269
 21
2.5537224311
  0
LINE
  5
3CB
100
AcDbEntity
  8
0
100
AcDbLine
 62
2
  6
CONTINUOUS
 10
12.4086864269
 20
2.5791473398
 11
12.4086864269
 21
2.6842923509
  0
LINE
  5
3CC
100
AcDbEntity
  8
0
100
AcDbLine
 62
2
  6
CONTINUOUS
 10
12.3886864158
 20
2.399749256
 11
12.3886864158
 21
2.4921022658
  0
LINE
  5
3CD
100
AcDbEntity
  8
0
100
AcDbLine
 62
2
  6
CONTINUOUS
 10
12.3886864158
 20
2.5895929958
 11
12.3886864158
 21
2.681007425
  0
LINE
  5
3CE
100
AcDbEntity
  8
0
100
AcDbLine
 62
2
  6
CONTINUOUS
 10
12.3686864047
 20
2.403451877
 11
12.3686864047
 21
2.4912273132
  0
LINE
  5
3CF
100
AcDbEntity
  8
0
100
AcDbLine
 62
2
  6
CONTINUOUS
 10
12.3686864047
 20
2.5920323691
 11
12.3686864047
 21
2.677304804
  0
LINE
  5
3D0
100
AcDbEntity
  8
0
100
AcDbLine
 62
2
  6
CONTINUOUS
 10
12.3486863936
 20
2.407324637
 11
12.3486863936
 21
2.4912273132
  0
LINE
  5
3D1
100
AcDbEntity
  8
0
100
AcDbLine
 62
2
  6
CONTINUOUS
 10
12.3486863936
 20
2.5920323691
 11
12.3486863936
 21
2.673432044
  0
LINE
  5
3D2
100
AcDbEntity
  8
0
100
AcDbLine
 62
2
  6
CONTINUOUS
 10
12.3286863825
 20
2.4113493968
 11
12.3286863825
 21
2.4912273132
  0
LINE
  5
3D3
100
AcDbEntity
  8
0
100
AcDbLine
 62
2
  6
CONTINUOUS
 10
12.3286863825
 20
2.515977327
 11
12.3286863825
 21
2.5333023366
  0
LINE
  5
3D4
100
AcDbEntity
  8
0
100
AcDbLine
 62
2
  6
CONTINUOUS
 10
12.3286863825
 20
2.5499573458
 11
12.3286863825
 21
2.5672823554
  0
LINE
  5
3D5
100
AcDbEntity
  8
0
100
AcDbLine
 62
2
  6
CONTINUOUS
 10
12.3286863825
 20
2.5920323691
 11
12.3286863825
 21
2.6694072842
  0
LINE
  5
3D6
100
AcDbEntity
  8
0
100
AcDbLine
 62
2
  6
CONTINUOUS
 10
12.3086863715
 20
2.4159005505
 11
12.3086863715
 21
2.4912273132
  0
LINE
  5
3D7
100
AcDbEntity
  8
0
100
AcDbLine
 62
2
  6
CONTINUOUS
 10
12.3086863715
 20
2.515977327
 11
12.3086863715
 21
2.5333023366
  0
LINE
  5
3D8
100
AcDbEntity
  8
0
100
AcDbLine
 62
2
  6
CONTINUOUS
 10
12.3086863715
 20
2.5499573458
 11
12.3086863715
 21
2.5672823554
  0
LINE
  5
3D9
100
AcDbEntity
  8
0
100
AcDbLine
 62
2
  6
CONTINUOUS
 10
12.3086863715
 20
2.5920323691
 11
12.3086863715
 21
2.6648561305
  0
LINE
  5
3DA
100
AcDbEntity
  8
0
100
AcDbLine
 62
2
  6
CONTINUOUS
 10
12.2886863604
 20
2.4204517041
 11
12.2886863604
 21
2.4912273132
  0
LINE
  5
3DB
100
AcDbEntity
  8
0
100
AcDbLine
 62
2
  6
CONTINUOUS
 10
12.2886863604
 20
2.5920323691
 11
12.2886863604
 21
2.6603049769
  0
LINE
  5
3DC
100
AcDbEntity
  8
0
100
AcDbLine
 62
2
  6
CONTINUOUS
 10
12.2686863493
 20
2.4257438218
 11
12.2686863493
 21
2.4912273132
  0
LINE
  5
3DD
100
AcDbEntity
  8
0
100
AcDbLine
 62
2
  6
CONTINUOUS
 10
12.2686863493
 20
2.5920323691
 11
12.2686863493
 21
2.6550128592
  0
LINE
  5
3DE
100
AcDbEntity
  8
0
100
AcDbLine
 62
2
  6
CONTINUOUS
 10
12.2486863382
 20
2.4310978667
 11
12.2486863382
 21
2.4912273132
  0
LINE
  5
3DF
100
AcDbEntity
  8
0
100
AcDbLine
 62
2
  6
CONTINUOUS
 10
12.2486863382
 20
2.5920323691
 11
12.2486863382
 21
2.6496588142
  0
LINE
  5
3E0
100
AcDbEntity
  8
0
100
AcDbLine
 62
2
  6
CONTINUOUS
 10
12.2286863271
 20
2.4372566433
 11
12.2286863271
 21
2.4912273132
  0
LINE
  5
3E1
100
AcDbEntity
  8
0
100
AcDbLine
 62
2
  6
CONTINUOUS
 10
12.2286863271
 20
2.515977327
 11
12.2286863271
 21
2.5672823554
  0
LINE
  5
3E2
100
AcDbEntity
  8
0
100
AcDbLine
 62
2
  6
CONTINUOUS
 10
12.2286863271
 20
2.5920323691
 11
12.2286863271
 21
2.6435000377
  0
LINE
  5
3E3
100
AcDbEntity
  8
0
100
AcDbLine
 62
2
  6
CONTINUOUS
 10
12.208686316
 20
2.443589771
 11
12.208686316
 21
2.4912273132
  0
LINE
  5
3E4
100
AcDbEntity
  8
0
100
AcDbLine
 62
2
  6
CONTINUOUS
 10
12.208686316
 20
2.515977327
 11
12.208686316
 21
2.5672823554
  0
LINE
  5
3E5
100
AcDbEntity
  8
0
100
AcDbLine
 62
2
  6
CONTINUOUS
 10
12.208686316
 20
2.5920323691
 11
12.208686316
 21
2.63716691
  0
LINE
  5
3E6
100
AcDbEntity
  8
0
100
AcDbLine
 62
2
  6
CONTINUOUS
 10
12.1886863049
 20
2.4510806436
 11
12.1886863049
 21
2.6296760373
  0
LINE
  5
3E7
100
AcDbEntity
  8
0
100
AcDbLine
 62
2
  6
CONTINUOUS
 10
12.1686862938
 20
2.4591016523
 11
12.1686862938
 21
2.6216550287
  0
LINE
  5
3E8
100
AcDbEntity
  8
0
100
AcDbLine
 62
2
  6
CONTINUOUS
 10
12.1486862827
 20
2.468314272
 11
12.1486862827
 21
2.612442409
  0
LINE
  5
3E9
100
AcDbEntity
  8
0
100
AcDbLine
 62
2
  6
CONTINUOUS
 10
12.1286862716
 20
2.4794932339
 11
12.1286862716
 21
2.601263447
  0
LINE
  5
3EA
100
AcDbEntity
  8
0
100
AcDbLine
 62
2
  6
CONTINUOUS
 10
12.1086862605
 20
2.4934150665
 11
12.1086862605
 21
2.5873416144
  0
LINE
  5
3EB
100
AcDbEntity
  8
0
100
AcDbLine
 62
2
  6
CONTINUOUS
 10
12.0886862494
 20
2.5144449553
 11
12.0886862494
 21
2.5663117257
  0
ENDBLK
  5
3EC
100
AcDbEntity
  8
0
  6
BYBLOCK
 62
0
100
AcDbBlockEnd
  0
BLOCK
  5
3ED
100
AcDbEntity
  8
0
100
AcDbBlockBegin
  2
_FILLED
 70
64
 10
0.0
 20
0.0
  3
_FILLED
  1

  0
SOLID
  5
3EE
100
AcDbEntity
  8
0
  6
BYBLOCK
 62
0
100
AcDbTrace
 10
0.0
 20
0.0
 11
-1.0
 21
0.1666666667
 12
-1.0
 22
-0.1666666667
 13
-1.0
 23
-0.1666666667
  0
ENDBLK
  5
3EF
100
AcDbEntity
  8
0
  6
BYBLOCK
 62
0
100
AcDbBlockEnd
  0
BLOCK
  5
3F0
100
AcDbEntity
  8
SCHEME_DIMS
100
AcDbBlockBegin
 62
2
  6
CONTINUOUS
  2
*D0
 70
65
 10
0.0
 20
0.0
  3
*D0
  1

  0
MTEXT
  5
3F1
100
AcDbEntity
  8
SCHEME_DIMS
100
AcDbMText
 62
2
  6
CONTINUOUS
  7
STANDARD
 71
2
 72
1
 10
2.9172929227
 20
5.6074172055
 30
0.0
 11
1.0
 21
0.0
 31
0.0
 44
0.9
  1
26,3\P[1.03]
 40
0.1
 41
0.6
  0
LINE
  5
3F2
100
AcDbEntity
  8
SCHEME_DIMS
100
AcDbLine
 62
2
  6
CONTINUOUS
 10
3.8084799859
 20
6.0047317412
 11
2.8922929227
 21
6.0047317412
  0
LINE
  5
3F3
100
AcDbEntity
  8
SCHEME_DIMS
100
AcDbLine
 62
2
  6
CONTINUOUS
 10
3.7339028846
 20
4.9712671743
 11
2.8922929227
 21
4.9712671743
  0
LINE
  5
3F4
100
AcDbEntity
  8
SCHEME_DIMS
100
AcDbLine
 62
2
  6
CONTINUOUS
 10
3.0172929227
 20
6.0047317412
 11
3.0172929227
 21
5.7074172055
  0
LINE
  5
3F5
100
AcDbEntity
  8
SCHEME_DIMS
100
AcDbLine
 62
2
  6
CONTINUOUS
 10
3.0172929227
 20
4.9712671743
 11
3.0172929227
 21
5.2574172055
  0
INSERT
  5
3F6
100
AcDbEntity
  8
SCHEME_DIMS
100
AcDbBlockReference
 62
2
  6
CONTINUOUS
  2
_FILLED
 10
3.0172929227
 20
6.0047317412
 41
0.1875
 42
0.1875
 43
0.1875
 50
90.0
  0
INSERT
  5
3F7
100
AcDbEntity
  8
SCHEME_DIMS
100
AcDbBlockReference
 62
2
  6
CONTINUOUS
  2
_FILLED
 10
3.0172929227
 20
4.9712671743
 41
0.1875
 42
0.1875
 43
0.1875
 50
270.0
  0
ENDBLK
  5
3F8
100
AcDbEntity
  8
0
  6
BYBLOCK
 62
0
100
AcDbBlockEnd
  0
BLOCK
  5
3F9
100
AcDbEntity
  8
SCHEME_DIMS
100
AcDbBlockBegin
 62
2
  6
CONTINUOUS
  2
*D1
 70
65
 10
0.0
 20
0.0
  3
*D1
  1

  0
MTEXT
  5
3FA
100
AcDbEntity
  8
SCHEME_DIMS
100
AcDbMText
 62
2
  6
CONTINUOUS
  7
STANDARD
 71
2
 72
1
 10
6.3332245903
 20
5.0852435523
 30
0.0
 11
1.0
 21
0.0
 31
0.0
 44
0.9
  1
49,3\P[1.94]
 40
0.1
 41
0.6
  0
LINE
  5
3FB
100
AcDbEntity
  8
SCHEME_DIMS
100
AcDbLine
 62
2
  6
CONTINUOUS
 10
5.7740311669
 20
6.0047317412
 11
6.5582245903
 21
6.0047317412
  0
LINE
  5
3FC
100
AcDbEntity
  8
SCHEME_DIMS
100
AcDbLine
 62
2
  6
CONTINUOUS
 10
5.3678186015
 20
4.0657553633
 11
6.5582245903
 21
4.0657553633
  0
LINE
  5
3FD
100
AcDbEntity
  8
SCHEME_DIMS
100
AcDbLine
 62
2
  6
CONTINUOUS
 10
6.4332245903
 20
6.0047317412
 11
6.4332245903
 21
5.1852435523
  0
LINE
  5
3FE
100
AcDbEntity
  8
SCHEME_DIMS
100
AcDbLine
 62
2
  6
CONTINUOUS
 10
6.4332245903
 20
4.0657553633
 11
6.4332245903
 21
4.7352435523
  0
INSERT
  5
3FF
100
AcDbEntity
  8
SCHEME_DIMS
100
AcDbBlockReference
 62
2
  6
CONTINUOUS
  2
_FILLED
 10
6.4332245903
 20
6.0047317412
 41
0.1875
 42
0.1875
 43
0.1875
 50
90.0
  0
INSERT
  5
400
100
AcDbEntity
  8
SCHEME_DIMS
100
AcDbBlockReference
 62
2
  6
CONTINUOUS
  2
_FILLED
 10
6.4332245903
 20
4.0657553633
 41
0.1875
 42
0.1875
 43
0.1875
 50
270.0
  0
ENDBLK
  5
401
100
AcDbEntity
  8
0
  6
BYBLOCK
 62
0
100
AcDbBlockEnd
  0
BLOCK
  5
402
100
AcDbEntity
  8
SCHEME_DIMS
100
AcDbBlockBegin
 62
2
  6
CONTINUOUS
  2
*D2
 70
65
 10
0.0
 20
0.0
  3
*D2
  1

  0
MTEXT
  5
403
100
AcDbEntity
  8
SCHEME_DIMS
100
AcDbMText
 62
2
  6
CONTINUOUS
  7
TEXTSTYLE_5
 71
1
 72
1
 10
5.9228084718
 20
9.0376905642
 30
0.0
 11
1.0
 21
0.0
 31
0.0
 44
0.9
  1
{\Fgdt;n}\Ftxt;50\P[1.97]
 40
0.1
 41
0.6
  0
LINE
  5
404
100
AcDbEntity
  8
SCHEME_DIMS
100
AcDbLine
 62
2
  6
CONTINUOUS
 10
5.4863116595
 20
8.8033346439
 11
4.7863343166
 21
8.1113926977
  0
LINE
  5
405
100
AcDbEntity
  8
SCHEME_DIMS
100
AcDbLine
 62
2
  6
CONTINUOUS
 10
4.7863343166
 20
8.1113926977
 11
5.6728084718
 21
8.9876905642
  0
LINE
  5
406
100
AcDbEntity
  8
SCHEME_DIMS
100
AcDbLine
 62
2
  6
CONTINUOUS
 10
5.6728084718
 20
8.9876905642
 11
5.8228084718
 21
8.9876905642
  0
LINE
  5
407
100
AcDbEntity
  8
SCHEME_DIMS
100
AcDbLine
 62
2
  6
CONTINUOUS
 10
4.0863569736
 20
7.4194507516
 11
4.7863343166
 21
8.1113926977
  0
INSERT
  5
408
100
AcDbEntity
  8
SCHEME_DIMS
100
AcDbBlockReference
 62
2
  6
CONTINUOUS
  2
_FILLED
 10
5.4863116595
 20
8.8033346439
 41
0.1875
 42
0.1875
 43
0.1875
 50
44.6692414483
  0
INSERT
  5
409
100
AcDbEntity
  8
SCHEME_DIMS
100
AcDbBlockReference
 62
2
  6
CONTINUOUS
  2
_FILLED
 10
4.0863569736
 20
7.4194507516
 41
0.1875
 42
0.1875
 43
0.1875
 50
224.6692414483
  0
ENDBLK
  5
40A
100
AcDbEntity
  8
0
  6
BYBLOCK
 62
0
100
AcDbBlockEnd
  0
ENDSEC
  0
SECTION
  2
ENTITIES
  0
MTEXT
  5
40B
100
AcDbEntity
  8
0
100
AcDbMText
 62
2
  6
CONTINUOUS
  7
TEXTSTYLE_2
 71
2
 72
1
 10
11.0287658475
 20
1.794867839
 30
0.0
 11
1.0
 21
0.0
 31
0.0
 44
0.9
  1
THIRD ANGLE PROJECTION
 40
0.1
 41
1.76
  0
MTEXT
  5
40C
100
AcDbEntity
  8
0
100
AcDbMText
 62
2
  6
CONTINUOUS
  7
STANDARD
 71
1
 72
1
 10
12.88
 20
1.457
 30
0.0
 11
1.0
 21
0.0
 31
0.0
 44
0.9
  1
DRAWING NO.
 40
0.08
 41
0.88
  0
MTEXT
  5
40D
100
AcDbEntity
  8
0
100
AcDbMText
 62
2
  6
CONTINUOUS
  7
TEXTSTYLE_3
 71
2
 72
1
 10
11.03
 20
2.516432
 30
0.0
 11
1.0
 21
0.0
 31
0.0
 44
0.9
  1
and is proprietary in general
 40
0.08
 41
1.972
  0
MTEXT
  5
40E
100
AcDbEntity
  8
0
100
AcDbMText
 62
2
  6
CONTINUOUS
  7
TEXTSTYLE_3
 71
2
 72
1
 10
11.03
 20
2.396432
 30
0.0
 11
1.0
 21
0.0
 31
0.0
 44
0.9
  1
and in detail.  Its contents
 40
0.08
 41
1.904
  0
MTEXT
  5
40F
100
AcDbEntity
  8
0
100
AcDbMText
 62
2
  6
CONTINUOUS
  7
TEXTSTYLE_3
 71
2
 72
1
 10
11.03
 20
2.276432
 30
0.0
 11
1.0
 21
0.0
 31
0.0
 44
0.9
  1
shall not be revealed to
 40
0.08
 41
1.632
  0
MTEXT
  5
410
100
AcDbEntity
  8
0
100
AcDbMText
 62
2
  6
CONTINUOUS
  7
TEXTSTYLE_3
 71
2
 72
1
 10
11.03
 20
2.156432
 30
0.0
 11
1.0
 21
0.0
 31
0.0
 44
0.9
  1
outside parties without
 40
0.08
 41
1.564
  0
MTEXT
  5
411
100
AcDbEntity
  8
0
100
AcDbMText
 62
2
  6
CONTINUOUS
  7
TEXTSTYLE_3
 71
2
 72
1
 10
11.03
 20
2.036432
 30
0.0
 11
1.0
 21
0.0
 31
0.0
 44
0.9
  1
written consent of BANNER.
 40
0.08
 41
1.768
  0
MTEXT
  5
412
100
AcDbEntity
  8
0
100
AcDbMText
 62
2
  6
CONTINUOUS
  7
TEXTSTYLE_2
 71
1
 72
1
 10
12.08
 20
2.217
 30
0.0
 11
1.0
 21
0.0
 31
0.0
 44
0.9
  1
TITLE
 40
0.1
 41
0.4
  0
MTEXT
  5
413
100
AcDbEntity
  8
0
100
AcDbMText
 62
2
  6
CONTINUOUS
  7
STANDARD
 71
1
 72
1
 10
12.08
 20
1.457
 30
0.0
 11
1.0
 21
0.0
 31
0.0
 44
0.9
  1
SIZE
 40
0.08
 41
0.32
  0
MTEXT
  5
414
100
AcDbEntity
  8
0
100
AcDbMText
 62
2
  6
CONTINUOUS
  7
STANDARD
 71
1
 72
1
 10
12.08
 20
1.087
 30
0.0
 11
1.0
 21
0.0
 31
0.0
 44
0.9
  1
SCALE
 40
0.08
 41
0.4
  0
MTEXT
  5
415
100
AcDbEntity
  8
0
100
AcDbMText
 62
2
  6
CONTINUOUS
  7
TEXTSTYLE_2
 71
2
 72
1
 10
12.5
 20
1.337
 30
0.0
 11
1.0
 21
0.0
 31
0.0
 44
0.9
  1
B
 40
0.1
 41
0.08
  0
MTEXT
  5
416
100
AcDbEntity
  8
0
100
AcDbMText
 62
2
  6
CONTINUOUS
  7
TEXTSTYLE_3
 71
2
 72
1
 10
11.03
 20
2.636432
 30
0.0
 11
1.0
 21
0.0
 31
0.0
 44
0.9
  1
of BANNER ENGINEERING CORP.
 40
0.08
 41
1.836
  0
MTEXT
  5
417
100
AcDbEntity
  8
0
100
AcDbMText
 62
2
  6
CONTINUOUS
  7
TEXTSTYLE_3
 71
2
 72
1
 10
11.03
 20
2.756432
 30
0.0
 11
1.0
 21
0.0
 31
0.0
 44
0.9
  1
This drawing is the property
 40
0.08
 41
1.904
  0
MTEXT
  5
418
100
AcDbEntity
  8
0
100
AcDbMText
 62
2
  6
CONTINUOUS
  7
TEXTSTYLE_2
 71
2
 72
1
 10
15.03
 20
2.4134
 30
0.0
 11
1.0
 21
0.0
 31
0.0
 44
0.9
  1
MINNEAPOLIS, MN 55440
 40
0.1
 41
1.68
  0
MTEXT
  5
419
100
AcDbEntity
  8
0
100
AcDbMText
 62
2
  6
CONTINUOUS
  7
STANDARD
 71
1
 72
1
 10
14.255
 20
1.087
 30
0.0
 11
1.0
 21
0.0
 31
0.0
 44
0.9
  1
SHEET
 40
0.08
 41
0.4
  0
MTEXT
  5
41A
100
AcDbEntity
  8
0
100
AcDbMText
 62
2
  6
CONTINUOUS
  7
STANDARD
 71
1
 72
1
 10
15.63
 20
1.457
 30
0.0
 11
1.0
 21
0.0
 31
0.0
 44
0.9
  1
REV.
 40
0.08
 41
0.32
  0
MTEXT
  5
41B
100
AcDbEntity
  8
0
100
AcDbMText
 62
2
  6
CONTINUOUS
  7
STANDARD
 71
3
 72
1
 10
16.38
 20
0.835443
 30
0.0
 11
1.0
 21
0.0
 31
0.0
 44
0.9
  1
PRO/E
 40
0.07
 41
0.35
  0
MTEXT
  5
41C
100
AcDbEntity
  8
0
100
AcDbMText
 62
2
  6
CONTINUOUS
  7
TEXTSTYLE_4
 71
2
 72
1
 10
15.03
 20
2.751049
 30
0.0
 11
1.0
 21
0.0
 31
0.0
 44
0.9
  1
BANNER ENGINEERING CORP.
 40
0.12
 41
2.6496
  0
MTEXT
  5
41D
100
AcDbEntity
  8
0
100
AcDbMText
 62
2
  6
CONTINUOUS
  7
TEXTSTYLE_2
 71
2
 72
1
 10
15.03
 20
2.5724
 30
0.0
 11
1.0
 21
0.0
 31
0.0
 44
0.9
  1
P.O. BOX 9414
 40
0.1
 41
1.04
  0
MTEXT
  5
41E
100
AcDbEntity
  8
0
100
AcDbMText
 62
2
  6
CONTINUOUS
  7
TEXTSTYLE_2
 71
2
 72
1
 10
9.485
 20
10.312
 30
0.0
 11
1.0
 21
0.0
 31
0.0
 44
0.9
  1
4
 40
0.1
 41
0.08
  0
MTEXT
  5
41F
100
AcDbEntity
  8
0
100
AcDbMText
 62
2
  6
CONTINUOUS
  7
TEXTSTYLE_2
 71
2
 72
1
 10
11.455
 20
10.312
 30
0.0
 11
1.0
 21
0.0
 31
0.0
 44
0.9
  1
3
 40
0.1
 41
0.08
  0
MTEXT
  5
420
100
AcDbEntity
  8
0
100
AcDbMText
 62
2
  6
CONTINUOUS
  7
TEXTSTYLE_2
 71
2
 72
1
 10
13.425
 20
10.312
 30
0.0
 11
1.0
 21
0.0
 31
0.0
 44
0.9
  1
2
 40
0.1
 41
0.08
  0
MTEXT
  5
421
100
AcDbEntity
  8
0
100
AcDbMText
 62
2
  6
CONTINUOUS
  7
TEXTSTYLE_2
 71
2
 72
1
 10
15.395
 20
10.312
 30
0.0
 11
1.0
 21
0.0
 31
0.0
 44
0.9
  1
1
 40
0.1
 41
0.08
  0
MTEXT
  5
422
100
AcDbEntity
  8
0
100
AcDbMText
 62
2
  6
CONTINUOUS
  7
TEXTSTYLE_2
 71
2
 72
1
 10
3.575
 20
10.312
 30
0.0
 11
1.0
 21
0.0
 31
0.0
 44
0.9
  1
7
 40
0.1
 41
0.08
  0
MTEXT
  5
423
100
AcDbEntity
  8
0
100
AcDbMText
 62
2
  6
CONTINUOUS
  7
TEXTSTYLE_2
 71
2
 72
1
 10
5.545
 20
10.312
 30
0.0
 11
1.0
 21
0.0
 31
0.0
 44
0.9
  1
6
 40
0.1
 41
0.08
  0
MTEXT
  5
424
100
AcDbEntity
  8
0
100
AcDbMText
 62
2
  6
CONTINUOUS
  7
TEXTSTYLE_2
 71
2
 72
1
 10
7.515
 20
10.312
 30
0.0
 11
1.0
 21
0.0
 31
0.0
 44
0.9
  1
5
 40
0.1
 41
0.08
  0
MTEXT
  5
425
100
AcDbEntity
  8
0
100
AcDbMText
 62
2
  6
CONTINUOUS
  7
TEXTSTYLE_2
 71
2
 72
1
 10
1.605
 20
10.312
 30
0.0
 11
1.0
 21
0.0
 31
0.0
 44
0.9
  1
8
 40
0.1
 41
0.08
  0
MTEXT
  5
426
100
AcDbEntity
  8
0
100
AcDbMText
 62
2
  6
CONTINUOUS
  7
TEXTSTYLE_2
 71
2
 72
1
 10
1.605
 20
0.787
 30
0.0
 11
1.0
 21
0.0
 31
0.0
 44
0.9
  1
8
 40
0.1
 41
0.08
  0
MTEXT
  5
427
100
AcDbEntity
  8
0
100
AcDbMText
 62
2
  6
CONTINUOUS
  7
TEXTSTYLE_2
 71
2
 72
1
 10
3.575
 20
0.787
 30
0.0
 11
1.0
 21
0.0
 31
0.0
 44
0.9
  1
7
 40
0.1
 41
0.08
  0
MTEXT
  5
428
100
AcDbEntity
  8
0
100
AcDbMText
 62
2
  6
CONTINUOUS
  7
TEXTSTYLE_2
 71
2
 72
1
 10
5.545
 20
0.787
 30
0.0
 11
1.0
 21
0.0
 31
0.0
 44
0.9
  1
6
 40
0.1
 41
0.08
  0
MTEXT
  5
429
100
AcDbEntity
  8
0
100
AcDbMText
 62
2
  6
CONTINUOUS
  7
TEXTSTYLE_2
 71
2
 72
1
 10
7.515
 20
0.787
 30
0.0
 11
1.0
 21
0.0
 31
0.0
 44
0.9
  1
5
 40
0.1
 41
0.08
  0
MTEXT
  5
42A
100
AcDbEntity
  8
0
100
AcDbMText
 62
2
  6
CONTINUOUS
  7
TEXTSTYLE_2
 71
2
 72
1
 10
9.485
 20
0.787
 30
0.0
 11
1.0
 21
0.0
 31
0.0
 44
0.9
  1
4
 40
0.1
 41
0.08
  0
MTEXT
  5
42B
100
AcDbEntity
  8
0
100
AcDbMText
 62
2
  6
CONTINUOUS
  7
TEXTSTYLE_2
 71
2
 72
1
 10
11.455
 20
0.787
 30
0.0
 11
1.0
 21
0.0
 31
0.0
 44
0.9
  1
3
 40
0.1
 41
0.08
  0
MTEXT
  5
42C
100
AcDbEntity
  8
0
100
AcDbMText
 62
2
  6
CONTINUOUS
  7
TEXTSTYLE_2
 71
2
 72
1
 10
13.425
 20
0.787
 30
0.0
 11
1.0
 21
0.0
 31
0.0
 44
0.9
  1
2
 40
0.1
 41
0.08
  0
MTEXT
  5
42D
100
AcDbEntity
  8
0
100
AcDbMText
 62
2
  6
CONTINUOUS
  7
TEXTSTYLE_2
 71
2
 72
1
 10
15.395
 20
0.787
 30
0.0
 11
1.0
 21
0.0
 31
0.0
 44
0.9
  1
1
 40
0.1
 41
0.08
  0
MTEXT
  5
42E
100
AcDbEntity
  8
0
100
AcDbMText
 62
2
  6
CONTINUOUS
  7
TEXTSTYLE_2
 71
3
 72
1
 10
0.52
 20
4.3995
 30
0.0
 11
1.0
 21
0.0
 31
0.0
 44
0.9
  1
B
 40
0.1
 41
0.08
  0
MTEXT
  5
42F
100
AcDbEntity
  8
0
100
AcDbMText
 62
2
  6
CONTINUOUS
  7
TEXTSTYLE_2
 71
3
 72
1
 10
0.52
 20
2.0995
 30
0.0
 11
1.0
 21
0.0
 31
0.0
 44
0.9
  1
A
 40
0.1
 41
0.08
  0
MTEXT
  5
430
100
AcDbEntity
  8
0
100
AcDbMText
 62
2
  6
CONTINUOUS
  7
TEXTSTYLE_2
 71
3
 72
1
 10
0.52
 20
8.9995
 30
0.0
 11
1.0
 21
0.0
 31
0.0
 44
0.9
  1
D
 40
0.1
 41
0.08
  0
MTEXT
  5
431
100
AcDbEntity
  8
0
100
AcDbMText
 62
2
  6
CONTINUOUS
  7
TEXTSTYLE_2
 71
3
 72
1
 10
0.52
 20
6.6995
 30
0.0
 11
1.0
 21
0.0
 31
0.0
 44
0.9
  1
C
 40
0.1
 41
0.08
  0
MTEXT
  5
432
100
AcDbEntity
  8
0
100
AcDbMText
 62
2
  6
CONTINUOUS
  7
TEXTSTYLE_2
 71
1
 72
1
 10
16.48
 20
8.9995
 30
0.0
 11
1.0
 21
0.0
 31
0.0
 44
0.9
  1
D
 40
0.1
 41
0.08
  0
MTEXT
  5
433
100
AcDbEntity
  8
0
100
AcDbMText
 62
2
  6
CONTINUOUS
  7
TEXTSTYLE_2
 71
1
 72
1
 10
16.48
 20
6.6995
 30
0.0
 11
1.0
 21
0.0
 31
0.0
 44
0.9
  1
C
 40
0.1
 41
0.08
  0
MTEXT
  5
434
100
AcDbEntity
  8
0
100
AcDbMText
 62
2
  6
CONTINUOUS
  7
TEXTSTYLE_2
 71
1
 72
1
 10
16.48
 20
4.3995
 30
0.0
 11
1.0
 21
0.0
 31
0.0
 44
0.9
  1
B
 40
0.1
 41
0.08
  0
MTEXT
  5
435
100
AcDbEntity
  8
0
100
AcDbMText
 62
2
  6
CONTINUOUS
  7
TEXTSTYLE_2
 71
1
 72
1
 10
16.48
 20
2.0995
 30
0.0
 11
1.0
 21
0.0
 31
0.0
 44
0.9
  1
A
 40
0.1
 41
0.08
  0
MTEXT
  5
436
100
AcDbEntity
  8
0
100
AcDbMText
 62
2
  6
CONTINUOUS
  7
STANDARD
 71
1
 72
1
 10
14.819264911
 20
1.0627941725
 30
0.0
 11
1.0
 21
0.0
 31
0.0
 44
0.9
  1
1 OF 1
 40
0.1
 41
0.6
  0
MTEXT
  5
437
100
AcDbEntity
  8
0
100
AcDbMText
 62
7
  6
CONTINUOUS
  7
STANDARD
 71
1
 72
1
 10
13.8911999818
 20
1.3747321586
 30
0.0
 11
1.0
 21
0.0
 31
0.0
 44
0.9
  1
158611
 40
0.12
 41
0.72
  0
MTEXT
  5
438
100
AcDbEntity
  8
0
100
AcDbMText
 62
2
  6
CONTINUOUS
  7
STANDARD
 71
1
 72
1
 10
12.644264911
 20
1.0627941725
 30
0.0
 11
1.0
 21
0.0
 31
0.0
 44
0.9
  1
1:1
 40
0.1
 41
0.3
  0
MTEXT
  5
439
100
AcDbEntity
  8
0
100
AcDbMText
 62
2
  6
CONTINUOUS
  7
STANDARD
 71
1
 72
1
 10
1.0597007627
 20
1.6202922458
 30
0.0
 11
1.0
 21
0.0
 31
0.0
 44
0.9
  1
NOTES:\P1. ALL DIMENSIONS ARE MILLIMETERS [INCHES] UNLESS OTHERWISE NOTED.
 40
0.1
 41
6.6
  0
INSERT
  5
43A
100
AcDbEntity
  8
0
100
AcDbBlockReference
 62
2
  6
CONTINUOUS
  2
BANNER_LOGO_TITLEBLOCK_BL0
 10
12.9086867042
 20
2.5403783405
  0
DIMENSION
  5
43B
100
AcDbEntity
  8
SCHEME_DIMS
100
AcDbDimension
 62
2
  6
CONTINUOUS
  2
*D0
 10
3.0172929227
 20
4.9712671743
 11
2.8922929227
 21
5.4824172055
 70
160
 71
2
 42
26.25
  3
DIMSTYLE_1
100
AcDbAlignedDimension
 13
3.8084799859
 23
6.0047317412
 14
3.7339028846
 24
4.9712671743
 50
270.0
100
AcDbRotatedDimension
  0
DIMENSION
  5
43C
100
AcDbEntity
  8
SCHEME_DIMS
100
AcDbDimension
 62
2
  6
CONTINUOUS
  2
*D1
 10
6.4332245903
 20
4.0657553633
 11
6.3082245903
 21
4.9602435523
 70
160
 71
2
 42
49.25
  3
DIMSTYLE_1
100
AcDbAlignedDimension
 13
5.7740311669
 23
6.0047317412
 14
5.3678186015
 24
4.0657553633
 50
270.0
100
AcDbRotatedDimension
  0
DIMENSION
  5
43D
100
AcDbEntity
  8
SCHEME_DIMS
100
AcDbDimension
 62
2
  6
CONTINUOUS
  2
*D2
 10
5.4863116595
 20
8.8033346439
 11
6.2894751385
 21
8.9126905642
 70
163
 71
1
 42
50.0
  1
<>
  3
DIMSTYLE_2
100
AcDbDiametricDimension
 15
4.0863569736
 25
7.4194507516
  0
LINE
  5
43E
100
AcDbEntity
  8
0
100
AcDbLine
 62
2
  6
CONTINUOUS
 10
16.38
 20
0.887
 11
12.03
 21
0.887
  0
LINE
  5
43F
100
AcDbEntity
  8
0
100
AcDbLine
 62
2
  6
CONTINUOUS
 10
16.38
 20
0.887
 11
16.38
 21
2.807
  0
LINE
  5
440
100
AcDbEntity
  8
0
100
AcDbLine
 62
2
  6
CONTINUOUS
 10
16.38
 20
2.807
 11
12.03
 21
2.807
  0
LINE
  5
441
100
AcDbEntity
  8
0
100
AcDbLine
 62
2
  6
CONTINUOUS
 10
12.03
 20
0.887
 11
12.03
 21
2.807
  0
MTEXT
  5
442
100
AcDbEntity
  8
NOTES
100
AcDbMText
 62
7
  6
CONTINUOUS
  7
STANDARD
 71
2
 72
1
 10
16.155
 20
1.367
 30
0.0
 11
1.0
 21
0.0
 31
0.0
 44
0.9
  1
B
 40
0.1
 41
0.1
  0
MTEXT
  5
443
100
AcDbEntity
  8
NOTES
100
AcDbMText
 62
7
  6
CONTINUOUS
  7
STANDARD
 71
2
 72
1
 10
14.205
 20
1.967
 30
0.0
 11
1.0
 21
0.0
 31
0.0
 44
0.9
  1
LED S50L_-X CABLE\PWEB CAD DRAWINGS 2D/3D
 40
0.1
 41
2.2
  0
LEADER
  5
444
100
AcDbEntity
  8
NOTES
100
AcDbLeader
 62
2
  6
CONTINUOUS
  3
STANDARD
 71
1
 72
0
 73
0
 75
0
 40
0.1
 41
0.3
 76
3
 10
4.2086321308
 20
4.2600971707
 30
0.0
 10
3.7970507623
 20
3.8841577414
 30
0.0
 10
3.5470507623
 20
3.8841577414
 30
0.0
340
445
1001
ACAD
1000
DSTYLE
1002
{
1070
77
1070
0
1002
}
  0
MTEXT
  5
445
102
{ACAD_REACTORS
330
444
102
}
100
AcDbEntity
  8
NOTES
100
AcDbMText
 62
2
  6
CONTINUOUS
  7
STANDARD
 71
3
 72
1
 10
3.5470507623
 20
3.9341577414
 30
0.0
 11
1.0
 21
0.0
 31
0.0
 44
0.9
  1
M30
 40
0.1
 41
0.3
  0
MTEXT
  5
446
100
AcDbEntity
  8
NOTES
100
AcDbMText
 62
2
  6
CONTINUOUS
  7
STANDARD
 71
2
 72
1
 10
13.0246450036
 20
4.8407209322
 30
0.0
 11
1.0
 21
0.0
 31
0.0
 44
0.9
  1
ISOMETRIC VIEW\P\H0.1;SCALE  1:1
 40
0.125
 41
1.75
  0
INSERT
  5
447
100
AcDbEntity
  8
SYMBOLS
100
AcDbBlockReference
 62
2
  6
CONTINUOUS
  2
CL_BL1
 10
4.8182015271
 20
1.9072358628
  0
INSERT
  5
448
100
AcDbEntity
  8
SYMBOLS
100
AcDbBlockReference
 62
2
  6
CONTINUOUS
  2
CL_BL2
 10
6.0127134607
 20
8.1070577227
  0
INSERT
  5
449
100
AcDbEntity
  8
SYMBOLS
100
AcDbBlockReference
 62
2
  6
CONTINUOUS
  2
CL_BL3
 10
4.7865570181
 20
6.8495757471
  0
LINE
  5
44A
100
AcDbEntity
  8
0
100
AcDbLine
 62
2
  6
CONTINUOUS
 10
0.47
 20
5.586103
 11
0.47
 21
5.412897
  0
LINE
  5
44B
100
AcDbEntity
  8
0
100
AcDbLine
 62
2
  6
CONTINUOUS
 10
0.62
 20
10.112
 11
0.62
 21
0.887
  0
LINE
  5
44C
100
AcDbEntity
  8
0
100
AcDbLine
 62
2
  6
CONTINUOUS
 10
2.59
 20
0.887
 11
2.59
 21
0.637
  0
LINE
  5
44D
100
AcDbEntity
  8
0
100
AcDbLine
 62
2
  6
CONTINUOUS
 10
2.59
 20
10.112
 11
2.59
 21
10.362
  0
LINE
  5
44E
100
AcDbEntity
  8
0
100
AcDbLine
 62
2
  6
CONTINUOUS
 10
8.413397
 20
0.737
 11
8.586603
 21
0.737
  0
LINE
  5
44F
100
AcDbEntity
  8
0
100
AcDbLine
 62
7
  6
CONTINUOUS
 10
11.1389508475
 20
1.425992839
 11
11.7453418475
 21
1.495385839
  0
LINE
  5
450
100
AcDbEntity
  8
0
100
AcDbLine
 62
2
  6
CONTINUOUS
 10
0.62
 20
0.887
 11
16.38
 21
0.887
  0
LINE
  5
451
100
AcDbEntity
  8
0
100
AcDbLine
 62
2
  6
CONTINUOUS
 10
12.03
 20
1.137
 11
16.38
 21
1.137
  0
LINE
  5
452
100
AcDbEntity
  8
0
100
AcDbLine
 62
7
  6
CONTINUOUS
 10
10.2121898475
 20
1.243294839
 11
10.4342808475
 21
1.243294839
  0
LINE
  5
453
100
AcDbEntity
  8
0
100
AcDbLine
 62
7
  6
CONTINUOUS
 10
10.4842808475
 20
1.243294839
 11
10.5842808475
 21
1.243294839
  0
LINE
  5
454
100
AcDbEntity
  8
0
100
AcDbLine
 62
7
  6
CONTINUOUS
 10
10.6342808475
 20
1.243294839
 11
10.8563718475
 21
1.243294839
  0
LINE
  5
455
100
AcDbEntity
  8
0
100
AcDbLine
 62
7
  6
CONTINUOUS
 10
11.0389508475
 20
1.243294839
 11
11.3171028475
 21
1.243294839
  0
LINE
  5
456
100
AcDbEntity
  8
0
100
AcDbLine
 62
7
  6
CONTINUOUS
 10
11.3671028475
 20
1.243294839
 11
11.5171888475
 21
1.243294839
  0
LINE
  5
457
100
AcDbEntity
  8
0
100
AcDbLine
 62
7
  6
CONTINUOUS
 10
11.5671888475
 20
1.243294839
 11
11.8453418475
 21
1.243294839
  0
LINE
  5
458
100
AcDbEntity
  8
0
100
AcDbLine
 62
7
  6
CONTINUOUS
 10
11.7453418475
 20
0.991203839
 11
11.1389508475
 21
1.060596839
  0
LINE
  5
459
100
AcDbEntity
  8
0
100
AcDbLine
 62
2
  6
CONTINUOUS
 10
4.56
 20
0.887
 11
4.56
 21
0.637
  0
LINE
  5
45A
100
AcDbEntity
  8
0
100
AcDbLine
 62
2
  6
CONTINUOUS
 10
4.56
 20
10.112
 11
4.56
 21
10.362
  0
LINE
  5
45B
100
AcDbEntity
  8
0
100
AcDbLine
 62
2
  6
CONTINUOUS
 10
0.47
 20
5.412897
 11
0.62
 21
5.4995
  0
LINE
  5
45C
100
AcDbEntity
  8
0
100
AcDbLine
 62
2
  6
CONTINUOUS
 10
12.03
 20
1.507
 11
16.38
 21
1.507
  0
LINE
  5
45D
100
AcDbEntity
  8
0
100
AcDbLine
 62
2
  6
CONTINUOUS
 10
10.03
 20
1.907
 11
12.03
 21
1.907
  0
LINE
  5
45E
100
AcDbEntity
  8
0
100
AcDbLine
 62
2
  6
CONTINUOUS
 10
0.62
 20
5.4995
 11
0.47
 21
5.586103
  0
LINE
  5
45F
100
AcDbEntity
  8
0
100
AcDbLine
 62
2
  6
CONTINUOUS
 10
12.03
 20
2.267
 11
16.38
 21
2.267
  0
LINE
  5
460
100
AcDbEntity
  8
0
100
AcDbLine
 62
2
  6
CONTINUOUS
 10
8.5
 20
10.112
 11
8.586603
 21
10.262
  0
LINE
  5
461
100
AcDbEntity
  8
0
100
AcDbLine
 62
2
  6
CONTINUOUS
 10
16.38
 20
2.807
 11
10.03
 21
2.807
  0
LINE
  5
462
100
AcDbEntity
  8
0
100
AcDbLine
 62
2
  6
CONTINUOUS
 10
0.62
 20
3.1995
 11
0.37
 21
3.1995
  0
LINE
  5
463
100
AcDbEntity
  8
0
100
AcDbLine
 62
2
  6
CONTINUOUS
 10
16.38
 20
3.1995
 11
16.63
 21
3.1995
  0
LINE
  5
464
100
AcDbEntity
  8
0
100
AcDbLine
 62
2
  6
CONTINUOUS
 10
8.586603
 20
0.737
 11
8.5
 21
0.887
  0
LINE
  5
465
100
AcDbEntity
  8
0
100
AcDbLine
 62
2
  6
CONTINUOUS
 10
6.53
 20
0.887
 11
6.53
 21
0.637
  0
LINE
  5
466
100
AcDbEntity
  8
0
100
AcDbLine
 62
2
  6
CONTINUOUS
 10
6.53
 20
10.112
 11
6.53
 21
10.362
  0
LINE
  5
467
100
AcDbEntity
  8
0
100
AcDbLine
 62
2
  6
CONTINUOUS
 10
8.5
 20
0.887
 11
8.5
 21
0.637
  0
LINE
  5
468
100
AcDbEntity
  8
0
100
AcDbLine
 62
2
  6
CONTINUOUS
 10
8.5
 20
10.112
 11
8.5
 21
10.362
  0
LINE
  5
469
100
AcDbEntity
  8
0
100
AcDbLine
 62
2
  6
CONTINUOUS
 10
0.62
 20
5.4995
 11
0.37
 21
5.4995
  0
LINE
  5
46A
100
AcDbEntity
  8
0
100
AcDbLine
 62
2
  6
CONTINUOUS
 10
16.38
 20
5.4995
 11
16.63
 21
5.4995
  0
LINE
  5
46B
100
AcDbEntity
  8
0
100
AcDbLine
 62
2
  6
CONTINUOUS
 10
10.03
 20
2.807
 11
10.03
 21
0.887
  0
LINE
  5
46C
100
AcDbEntity
  8
0
100
AcDbLine
 62
2
  6
CONTINUOUS
 10
10.47
 20
0.887
 11
10.47
 21
0.637
  0
LINE
  5
46D
100
AcDbEntity
  8
0
100
AcDbLine
 62
2
  6
CONTINUOUS
 10
10.47
 20
10.112
 11
10.47
 21
10.362
  0
LINE
  5
46E
100
AcDbEntity
  8
0
100
AcDbLine
 62
7
  6
CONTINUOUS
 10
10.5342808475
 20
1.143294839
 11
10.5342808475
 21
0.921203839
  0
LINE
  5
46F
100
AcDbEntity
  8
0
100
AcDbLine
 62
7
  6
CONTINUOUS
 10
10.5342808475
 20
1.193294839
 11
10.5342808475
 21
1.293294839
  0
LINE
  5
470
100
AcDbEntity
  8
0
100
AcDbLine
 62
7
  6
CONTINUOUS
 10
10.5342808475
 20
1.343294839
 11
10.5342808475
 21
1.565385839
  0
LINE
  5
471
100
AcDbEntity
  8
0
100
AcDbLine
 62
2
  6
CONTINUOUS
 10
8.5
 20
0.887
 11
8.413397
 21
0.737
  0
LINE
  5
472
100
AcDbEntity
  8
0
100
AcDbLine
 62
2
  6
CONTINUOUS
 10
0.62
 20
7.7995
 11
0.37
 21
7.7995
  0
LINE
  5
473
100
AcDbEntity
  8
0
100
AcDbLine
 62
2
  6
CONTINUOUS
 10
16.38
 20
7.7995
 11
16.63
 21
7.7995
  0
LINE
  5
474
100
AcDbEntity
  8
0
100
AcDbLine
 62
2
  6
CONTINUOUS
 10
8.413397
 20
10.262
 11
8.5
 21
10.112
  0
LINE
  5
475
100
AcDbEntity
  8
0
100
AcDbLine
 62
7
  6
CONTINUOUS
 10
11.1389508475
 20
1.060596839
 11
11.1389508475
 21
1.425992839
  0
LINE
  5
476
100
AcDbEntity
  8
0
100
AcDbLine
 62
7
  6
CONTINUOUS
 10
11.7453418475
 20
1.495385839
 11
11.7453418475
 21
0.991203839
  0
LINE
  5
477
100
AcDbEntity
  8
0
100
AcDbLine
 62
1
  6
CONTINUOUS
 10
12.03
 20
2.807
 11
12.03
 21
0.887
  0
LINE
  5
478
100
AcDbEntity
  8
0
100
AcDbLine
 62
2
  6
CONTINUOUS
 10
12.44
 20
0.887
 11
12.44
 21
0.637
  0
LINE
  5
479
100
AcDbEntity
  8
0
100
AcDbLine
 62
2
  6
CONTINUOUS
 10
12.44
 20
10.112
 11
12.44
 21
10.362
  0
LINE
  5
47A
100
AcDbEntity
  8
0
100
AcDbLine
 62
2
  6
CONTINUOUS
 10
16.53
 20
5.586103
 11
16.38
 21
5.4995
  0
LINE
  5
47B
100
AcDbEntity
  8
0
100
AcDbLine
 62
2
  6
CONTINUOUS
 10
16.38
 20
5.4995
 11
16.53
 21
5.412897
  0
LINE
  5
47C
100
AcDbEntity
  8
0
100
AcDbLine
 62
2
  6
CONTINUOUS
 10
12.83
 20
1.507
 11
12.83
 21
1.137
  0
LINE
  5
47D
100
AcDbEntity
  8
0
100
AcDbLine
 62
2
  6
CONTINUOUS
 10
16.38
 20
10.112
 11
0.62
 21
10.112
  0
LINE
  5
47E
100
AcDbEntity
  8
0
100
AcDbLine
 62
2
  6
CONTINUOUS
 10
8.586603
 20
10.262
 11
8.413397
 21
10.262
  0
LINE
  5
47F
100
AcDbEntity
  8
0
100
AcDbLine
 62
2
  6
CONTINUOUS
 10
14.205
 20
1.137
 11
14.205
 21
0.887
  0
LINE
  5
480
100
AcDbEntity
  8
0
100
AcDbLine
 62
2
  6
CONTINUOUS
 10
14.41
 20
0.887
 11
14.41
 21
0.637
  0
LINE
  5
481
100
AcDbEntity
  8
0
100
AcDbLine
 62
2
  6
CONTINUOUS
 10
14.41
 20
10.112
 11
14.41
 21
10.362
  0
LINE
  5
482
100
AcDbEntity
  8
0
100
AcDbLine
 62
2
  6
CONTINUOUS
 10
15.58
 20
1.507
 11
15.58
 21
1.137
  0
LINE
  5
483
100
AcDbEntity
  8
0
100
AcDbLine
 62
2
  6
CONTINUOUS
 10
16.38
 20
0.887
 11
16.38
 21
10.112
  0
LINE
  5
484
100
AcDbEntity
  8
0
100
AcDbLine
 62
2
  6
CONTINUOUS
 10
16.53
 20
5.412897
 11
16.53
 21
5.586103
  0
LINE
  5
485
100
AcDbEntity
  8
02___PRT_ALL_AXES
100
AcDbLine
 62
7
  6
CONTINUOUS
 10
4.6788343166
 20
2.1641805601
 11
4.8938343166
 21
2.1641805601
  0
LWPOLYLINE
  5
486
100
AcDbEntity
  8
0
100
AcDbPolyline
 62
7
  6
CONTINUOUS
 90
13
 70
0
 10
3.8020823481
 20
5.0893774105
 10
3.802339507
 20
5.0762635698
 10
3.803393057
 20
5.0608664525
 10
3.8053342167
 20
5.0462502778
 10
3.8082768911
 20
5.0324134056
 10
3.8123991247
 20
5.0193475959
 10
3.8178909771
 20
5.0072462922
 10
3.8249014626
 20
4.9964407331
 10
3.833584554
 20
4.9872172063
 10
3.8438202145
 20
4.9800016076
 10
3.8553227622
 20
4.9749973889
 10
3.8678117751
 20
4.9721477597
 10
3.8808225056
 20
4.9712671743
  0
LINE
  5
487
100
AcDbEntity
  8
02___PRT_ALL_AXES
100
AcDbLine
 62
7
  6
CONTINUOUS
 10
3.8020823481
 20
5.886621505
 11
3.8020823481
 21
5.0893774105
  0
LWPOLYLINE
  5
488
100
AcDbEntity
  8
0
100
AcDbPolyline
 62
7
  6
CONTINUOUS
 90
5
 70
0
 10
4.1997201434
 20
4.90806305
 10
4.1998095237
 20
4.9082271252
 10
4.2041845333
 20
4.909223358
 10
4.2150937723
 20
4.9102195907
 10
4.2324147921
 20
4.9112158235
  0
LINE
  5
489
100
AcDbEntity
  8
0
100
AcDbLine
 62
7
  6
CONTINUOUS
 10
4.1997201434
 20
4.8563898217
 11
4.1999459014
 21
4.8566505882
  0
LINE
  5
48A
100
AcDbEntity
  8
0
100
AcDbLine
 62
7
  6
CONTINUOUS
 10
4.1997201434
 20
4.7973347035
 11
4.1999459014
 21
4.7975954701
  0
LINE
  5
48B
100
AcDbEntity
  8
0
100
AcDbLine
 62
7
  6
CONTINUOUS
 10
4.1997201434
 20
4.7382795854
 11
4.1999459014
 21
4.738540352
  0
LWPOLYLINE
  5
48C
100
AcDbEntity
  8
0
100
AcDbPolyline
 62
7
  6
CONTINUOUS
 90
31
 70
0
 10
4.1997201434
 20
4.8490079319
 10
4.2003670955
 20
4.8494493929
 10
4.2065695515
 20
4.8504456257
 10
4.2192794668
 20
4.8514418584
 10
4.2383541813
 20
4.8524380912
 10
4.2635795946
 20
4.8534343239
 10
4.2946725688
 20
4.8544305567
 10
4.3312841067
 20
4.8554267894
 10
4.3730032691
 20
4.8564230222
 10
4.4193617872
 20
4.8574192549
 10
4.4698393186
 20
4.8584154877
 10
4.5238692879
 20
4.8594117204
 10
4.5808452459
 20
4.8604079532
 10
4.6401276769
 20
4.8614041859
 10
4.7010511765
 20
4.8624004187
 10
4.7629319205
 20
4.8633966514
 10
4.8250753403
 20
4.8643928842
 10
4.8867839188
 20
4.8653891169
 10
4.9473650198
 20
4.8663853497
 10
5.0061386624
 20
4.8673815825
 10
5.0624451529
 20
4.8683778152
 10
5.1156524898
 20
4.869374048
 10
5.1651634577
 20
4.8703702807
 10
5.2104223299
 20
4.8713665135
 10
5.2509211068
 20
4.8723627462
 10
5.2862052178
 20
4.873358979
 10
5.315878623
 20
4.8743552117
 10
5.3396082589
 20
4.8753514445
 10
5.3571277767
 20
4.8763476772
 10
5.3682405319
 20
4.87734391
 10
5.3727227318
 20
4.8782747244
  0
LINE
  5
48D
100
AcDbEntity
  8
0
100
AcDbLine
 62
7
  6
CONTINUOUS
 10
4.2353934669
 20
4.8771246354
 11
4.1999459014
 21
4.8566505882
  0
LINE
  5
48E
100
AcDbEntity
  8
0
100
AcDbLine
 62
7
  6
CONTINUOUS
 10
4.2353934669
 20
4.8180695173
 11
4.1999459014
 21
4.7975954701
  0
LINE
  5
48F
100
AcDbEntity
  8
0
100
AcDbLine
 62
7
  6
CONTINUOUS
 10
4.2353934669
 20
4.7590143991
 11
4.1999459014
 21
4.738540352
  0
LWPOLYLINE
  5
490
100
AcDbEntity
  8
0
100
AcDbPolyline
 62
7
  6
CONTINUOUS
 90
15
 70
0
 10
4.1997201434
 20
4.7899528138
 10
4.2014350019
 20
4.7906716607
 10
4.2094595025
 20
4.7916678934
 10
4.2239590247
 20
4.7926641262
 10
4.2447708213
 20
4.7936603589
 10
4.2716612943
 20
4.7946565917
 10
4.3043286166
 20
4.7956528244
 10
4.3424061203
 20
4.7966490572
 10
4.3854664115
 20
4.7976452899
 10
4.4330261682
 20
4.7986415227
 10
4.484551565
 20
4.7996377554
 10
4.5394642649
 20
4.8006339882
 10
4.5971479107
 20
4.8016302209
 10
4.6569550432
 20
4.8026264537
 10
4.7182143689
 20
4.8036226864
  0
LINE
  5
491
100
AcDbEntity
  8
0
100
AcDbLine
 62
7
  6
CONTINUOUS
 10
4.1999459014
 20
4.7975954701
 11
4.2008323739
 21
4.7979135754
  0
LWPOLYLINE
  5
492
100
AcDbEntity
  8
0
100
AcDbPolyline
 62
7
  6
CONTINUOUS
 90
15
 70
0
 10
4.2351532142
 20
4.8285506391
 10
4.2381136034
 20
4.8295252121
 10
4.2470763888
 20
4.8305091565
 10
4.2619064746
 20
4.8314910386
 10
4.2825307061
 20
4.8324761176
 10
4.3088008734
 20
4.8334651894
 10
4.3403051351
 20
4.8344528338
 10
4.3765729533
 20
4.8354364777
 10
4.4175153497
 20
4.8364244981
 10
4.4625675944
 20
4.8374133196
 10
4.5109697513
 20
4.8383976077
 10
4.5622681019
 20
4.839379638
 10
4.616129951
 20
4.8403638133
 10
4.6717976406
 20
4.841346966
 10
4.7287615359
 20
4.8423308751
  0
LWPOLYLINE
  5
493
100
AcDbEntity
  8
0
100
AcDbPolyline
 62
7
  6
CONTINUOUS
 90
15
 70
0
 10
4.2351532142
 20
4.8876057569
 10
4.2381993115
 20
4.8885943502
 10
4.2472388917
 20
4.8895776247
 10
4.2621639523
 20
4.8905603893
 10
4.2828553314
 20
4.8915448609
 10
4.3089974053
 20
4.8925270143
 10
4.340379764
 20
4.8935101177
 10
4.3765960474
 20
4.8944921846
 10
4.4173561982
 20
4.8954759636
 10
4.462077354
 20
4.8964581039
 10
4.5104160475
 20
4.8974418225
 10
4.5616894849
 20
4.8984239539
 10
4.6154428776
 20
4.8994066106
 10
4.6713872201
 20
4.9003949288
 10
4.7286692392
 20
4.9013844107
  0
LWPOLYLINE
  5
494
100
AcDbEntity
  8
0
100
AcDbPolyline
 62
7
  6
CONTINUOUS
 90
3
 70
0
 10
4.1997201434
 20
4.6792244673
 10
4.1997694098
 20
4.6793462807
 10
4.1999459014
 20
4.6794852339
  0
LWPOLYLINE
  5
495
100
AcDbEntity
  8
0
100
AcDbPolyline
 62
7
  6
CONTINUOUS
 90
31
 70
0
 10
4.1997201434
 20
4.6718425776
 10
4.1997694098
 20
4.6719643909
 10
4.2038851733
 20
4.6729632605
 10
4.2145731469
 20
4.6739621301
 10
4.2317127301
 20
4.6749609996
 10
4.2551105242
 20
4.6759598692
 10
4.2845025143
 20
4.6769587388
 10
4.3195570486
 20
4.6779576084
 10
4.3598785806
 20
4.6789564779
 10
4.405012132
 20
4.6799553475
 10
4.4544484274
 20
4.6809542171
 10
4.5076296398
 20
4.6819530866
 10
4.563955686
 20
4.6829519562
 10
4.6227909968
 20
4.6839508258
 10
4.6834716895
 20
4.6849496954
 10
4.7453130582
 20
4.6859485649
 10
4.8076173005
 20
4.6869474345
 10
4.8696813909
 20
4.6879463041
 10
4.9308050139
 20
4.6889451736
 10
4.9902984658
 20
4.6899440432
 10
5.0474904373
 20
4.6909429128
 10
5.1017355887
 20
4.6919417824
 10
5.1524218313
 20
4.6929406519
 10
5.1989772342
 20
4.6939395215
 10
5.2408764778
 20
4.6949383911
 10
5.2776467818
 20
4.6959372606
 10
5.3088732391
 20
4.6969361302
 10
5.3342034983
 20
4.6979349998
 10
5.3533517391
 20
4.6989338694
 10
5.3661018975
 20
4.6999327389
 10
5.3723101039
 20
4.7009316085
  0
LWPOLYLINE
  5
496
100
AcDbEntity
  8
0
100
AcDbPolyline
 62
7
  6
CONTINUOUS
 90
31
 70
0
 10
4.1997201434
 20
4.6127874594
 10
4.1999172008
 20
4.6130310862
 10
4.2048384329
 20
4.6140299557
 10
4.2163211188
 20
4.6150288253
 10
4.2342356907
 20
4.6160276949
 10
4.2583800049
 20
4.6170265645
 10
4.2884816232
 20
4.618025434
 10
4.3242008864
 20
4.6190243036
 10
4.3651347473
 20
4.6200231732
 10
4.4108213185
 20
4.6210220428
 10
4.4607450842
 20
4.6220209123
 10
4.5143427171
 20
4.6230197819
 10
4.571009435
 20
4.6240186515
 10
4.6301058249
 20
4.625017521
 10
4.6909650578
 20
4.6260163906
 10
4.7529004136
 20
4.6270152602
 10
4.8152130291
 20
4.6280141298
 10
4.8771997845
 20
4.6290129993
 10
4.9381612367
 20
4.6300118689
 10
4.9974095121
 20
4.6310107385
 10
5.0542760679
 20
4.632009608
 10
5.1081192362
 20
4.6330084776
 10
5.1583314641
 20
4.6340073472
 10
5.2043461696
 20
4.6350062168
 10
5.2456441341
 20
4.6360050863
 10
5.2817593619
 20
4.6370039559
 10
5.3122843377
 20
4.6380028255
 10
5.3368746254
 20
4.639001695
 10
5.3552527544
 20
4.6400005646
 10
5.3672113504
 20
4.6409994342
 10
5.3727227318
 20
4.6420542519
  0
LINE
  5
497
100
AcDbEntity
  8
0
100
AcDbLine
 62
7
  6
CONTINUOUS
 10
4.1997201434
 20
4.6201693492
 11
4.1999459014
 21
4.6204301158
  0
LINE
  5
498
100
AcDbEntity
  8
0
100
AcDbLine
 62
7
  6
CONTINUOUS
 10
4.1997201434
 20
4.5611142311
 11
4.1999459014
 21
4.5613749977
  0
LINE
  5
499
100
AcDbEntity
  8
0
100
AcDbLine
 62
7
  6
CONTINUOUS
 10
4.1997201434
 20
4.502059113
 11
4.1999459014
 21
4.5023198796
  0
LWPOLYLINE
  5
49A
100
AcDbEntity
  8
0
100
AcDbPolyline
 62
7
  6
CONTINUOUS
 90
31
 70
0
 10
4.1997201434
 20
4.5537323413
 10
4.2001634915
 20
4.5540977814
 10
4.2058893657
 20
4.555096651
 10
4.2181648352
 20
4.5560955206
 10
4.2368513865
 20
4.5570943901
 10
4.2617381655
 20
4.5580932597
 10
4.2925443558
 20
4.5590921293
 10
4.3289223482
 20
4.5600909989
 10
4.3704616625
 20
4.5610898684
 10
4.4166935795
 20
4.562088738
 10
4.4670964298
 20
4.5630876076
 10
4.5211014805
 20
4.5640864771
 10
4.5780993519
 20
4.5650853467
 10
4.6374468944
 20
4.5660842163
 10
4.6984744453
 20
4.5670830859
 10
4.7604933849
 20
4.5680819554
 10
4.822803907
 20
4.569080825
 10
4.8847029155
 20
4.5700796946
 10
4.9454919574
 20
4.5710785642
 10
5.0044851044
 20
4.5720774337
 10
5.0610166926
 20
4.5730763033
 10
5.1144488338
 20
4.5740751729
 10
5.1641786131
 20
4.5750740424
 10
5.2096448921
 20
4.576072912
 10
5.2503346407
 20
4.5770717816
 10
5.2857887261
 20
4.5780706512
 10
5.3156070932
 20
4.5790695207
 10
5.339453279
 20
4.5800683903
 10
5.3570582092
 20
4.5810672599
 10
5.3682232342
 20
4.5820661294
 10
5.3727227318
 20
4.5829991338
  0
LINE
  5
49B
100
AcDbEntity
  8
0
100
AcDbLine
 62
7
  6
CONTINUOUS
 10
4.2353934669
 20
4.699959281
 11
4.1999459014
 21
4.6794852339
  0
LINE
  5
49C
100
AcDbEntity
  8
0
100
AcDbLine
 62
7
  6
CONTINUOUS
 10
4.2353934669
 20
4.6409041629
 11
4.1999459014
 21
4.6204301158
  0
LINE
  5
49D
100
AcDbEntity
  8
0
100
AcDbLine
 62
7
  6
CONTINUOUS
 10
4.2353934669
 20
4.5818490448
 11
4.1999459014
 21
4.5613749977
  0
LWPOLYLINE
  5
49E
100
AcDbEntity
  8
0
100
AcDbPolyline
 62
7
  6
CONTINUOUS
 90
15
 70
0
 10
4.2351532142
 20
4.7104404027
 10
4.2381635705
 20
4.7114231736
 10
4.2471672659
 20
4.7124063971
 10
4.2620485734
 20
4.7133886654
 10
4.2826783403
 20
4.7143720834
 10
4.3087766114
 20
4.7153541246
 10
4.3401359683
 20
4.7163376857
 10
4.3762933951
 20
4.7173191108
 10
4.4171398011
 20
4.7183056408
 10
4.4622503678
 20
4.7192963975
 10
4.5108969627
 20
4.7202859386
 10
4.562268942
 20
4.7212694174
 10
4.61617246
 20
4.7222543392
 10
4.6719974916
 20
4.7232402136
 10
4.7288681876
 20
4.7242224676
  0
LWPOLYLINE
  5
49F
100
AcDbEntity
  8
0
100
AcDbPolyline
 62
7
  6
CONTINUOUS
 90
13
 70
0
 10
4.2351532142
 20
4.6513852778
 10
4.2381626686
 20
4.6523679082
 10
4.247204346
 20
4.6533543217
 10
4.2621377893
 20
4.6543384737
 10
4.2829053291
 20
4.655326483
 10
4.3091910795
 20
4.656313143
 10
4.3405801923
 20
4.6572954584
 10
4.376837022
 20
4.6582778534
 10
4.4176471214
 20
4.659262167
 10
4.4624193063
 20
4.6602448403
 10
4.5108095925
 20
4.6612291003
 10
4.5621375476
 20
4.6622118468
 10
4.6159071233
 20
4.6631944638
  0
LWPOLYLINE
  5
4A0
100
AcDbEntity
  8
0
100
AcDbPolyline
 62
7
  6
CONTINUOUS
 90
15
 70
0
 10
4.2351532142
 20
4.7694955272
 10
4.2382424213
 20
4.7704910914
 10
4.2473157365
 20
4.7714736707
 10
4.2622826968
 20
4.7724566947
 10
4.2830021487
 20
4.7734407723
 10
4.3091967801
 20
4.7744235734
 10
4.3406536872
 20
4.7754078251
 10
4.3769269767
 20
4.776390381
 10
4.4177131562
 20
4.777373918
 10
4.4625015594
 20
4.77835681
 10
4.5109413384
 20
4.7793419303
 10
4.5622893611
 20
4.7803249166
 10
4.616147284
 20
4.781309006
 10
4.6718094783
 20
4.7822920543
 10
4.7287675669
 20
4.7832758604
  0
LWPOLYLINE
  5
4A1
100
AcDbEntity
  8
0
100
AcDbPolyline
 62
7
  6
CONTINUOUS
 90
16
 70
0
 10
4.1997201434
 20
4.7308976957
 10
4.2030123129
 20
4.7318939284
 10
4.2128518693
 20
4.7328901612
 10
4.2291283703
 20
4.7338863939
 10
4.2516591234
 20
4.7348826267
 10
4.2801912365
 20
4.7358788594
 10
4.3144044562
 20
4.7368750922
 10
4.3539147629
 20
4.7378713249
 10
4.3982786806
 20
4.7388675577
 10
4.4469982548
 20
4.7398637904
 10
4.4995266422
 20
4.7408600232
 10
4.5552742477
 20
4.7418562559
 10
4.6136153429
 20
4.7428524887
 10
4.6738950895
 20
4.7438487214
 10
4.7354368887
 20
4.7448449542
 10
4.8595371761
 20
4.7468374197
  0
LINE
  5
4A2
100
AcDbEntity
  8
0
100
AcDbLine
 62
7
  6
CONTINUOUS
 10
4.1997201434
 20
4.9122120562
 11
4.1997201434
 21
4.90806305
  0
LINE
  5
4A3
100
AcDbEntity
  8
0
100
AcDbLine
 62
7
  6
CONTINUOUS
 10
4.1997201434
 20
4.8563898217
 11
4.1997201434
 21
4.8490079319
  0
LINE
  5
4A4
100
AcDbEntity
  8
0
100
AcDbLine
 62
7
  6
CONTINUOUS
 10
4.1997201434
 20
4.7973347035
 11
4.1997201434
 21
4.7899528138
  0
LINE
  5
4A5
100
AcDbEntity
  8
0
100
AcDbLine
 62
7
  6
CONTINUOUS
 10
4.1997201434
 20
4.7382795854
 11
4.1997201434
 21
4.7308976957
  0
LINE
  5
4A6
100
AcDbEntity
  8
0
100
AcDbLine
 62
7
  6
CONTINUOUS
 10
4.1997201434
 20
4.6792244673
 11
4.1997201434
 21
4.6718425776
  0
LINE
  5
4A7
100
AcDbEntity
  8
0
100
AcDbLine
 62
7
  6
CONTINUOUS
 10
4.1997201434
 20
4.6201693492
 11
4.1997201434
 21
4.6127874594
  0
LINE
  5
4A8
100
AcDbEntity
  8
0
100
AcDbLine
 62
7
  6
CONTINUOUS
 10
4.1997201434
 20
4.5611142311
 11
4.1997201434
 21
4.5537323413
  0
LINE
  5
4A9
100
AcDbEntity
  8
0
100
AcDbLine
 62
7
  6
CONTINUOUS
 10
4.1997201434
 20
4.502059113
 11
4.1997201434
 21
4.4946772232
  0
LINE
  5
4AA
100
AcDbEntity
  8
0
100
AcDbLine
 62
7
  6
CONTINUOUS
 10
4.1997201434
 20
4.4430039949
 11
4.1997201434
 21
4.4356221051
  0
LINE
  5
4AB
100
AcDbEntity
  8
0
100
AcDbLine
 62
7
  6
CONTINUOUS
 10
4.1997201434
 20
4.3839488768
 11
4.1997201434
 21
4.376566987
  0
LINE
  5
4AC
100
AcDbEntity
  8
0
100
AcDbLine
 62
7
  6
CONTINUOUS
 10
4.1997201434
 20
4.3248937587
 11
4.1997201434
 21
4.3175118689
  0
LINE
  5
4AD
100
AcDbEntity
  8
0
100
AcDbLine
 62
7
  6
CONTINUOUS
 10
4.1997201434
 20
4.2658386406
 11
4.1997201434
 21
4.2584567508
  0
LINE
  5
4AE
100
AcDbEntity
  8
0
100
AcDbLine
 62
7
  6
CONTINUOUS
 10
4.1997201434
 20
4.2067835224
 11
4.1997201434
 21
4.1994016327
  0
LINE
  5
4AF
100
AcDbEntity
  8
0
100
AcDbLine
 62
7
  6
CONTINUOUS
 10
4.1997201434
 20
4.1477284043
 11
4.1997201434
 21
4.1403465146
  0
LINE
  5
4B0
100
AcDbEntity
  8
0
100
AcDbLine
 62
7
  6
CONTINUOUS
 10
4.1997201434
 20
4.4430039949
 11
4.1999459014
 21
4.4432647615
  0
LINE
  5
4B1
100
AcDbEntity
  8
0
100
AcDbLine
 62
7
  6
CONTINUOUS
 10
4.1997201434
 20
4.3839488768
 11
4.1999459014
 21
4.3842096434
  0
LINE
  5
4B2
100
AcDbEntity
  8
0
100
AcDbLine
 62
7
  6
CONTINUOUS
 10
4.1997201434
 20
4.3248937587
 11
4.1999459014
 21
4.3251545253
  0
LINE
  5
4B3
100
AcDbEntity
  8
0
100
AcDbLine
 62
7
  6
CONTINUOUS
 10
4.1997201434
 20
4.2658386406
 11
4.1999459014
 21
4.2660994071
  0
LWPOLYLINE
  5
4B4
100
AcDbEntity
  8
0
100
AcDbPolyline
 62
7
  6
CONTINUOUS
 90
16
 70
0
 10
4.1997201434
 20
4.4946772232
 10
4.2005082406
 20
4.4951644767
 10
4.207037795
 20
4.4961633463
 10
4.2201039862
 20
4.4971622158
 10
4.2395593783
 20
4.4981610854
 10
4.2651844417
 20
4.499159955
 10
4.2966900296
 20
4.5001588245
 10
4.3337206408
 20
4.5011576941
 10
4.3758584312
 20
4.5021565637
 10
4.4226279285
 20
4.5031554333
 10
4.4735013975
 20
4.5041543028
 10
4.5279047946
 20
4.5051531724
 10
4.5852242457
 20
4.506152042
 10
4.6448129724
 20
4.5071509115
 10
4.7059985904
 20
4.5081497811
 10
4.8303886592
 20
4.5101475203
  0
LINE
  5
4B5
100
AcDbEntity
  8
0
100
AcDbLine
 62
7
  6
CONTINUOUS
 10
4.2353934669
 20
4.5227939267
 11
4.1999459014
 21
4.5023198796
  0
LINE
  5
4B6
100
AcDbEntity
  8
0
100
AcDbLine
 62
7
  6
CONTINUOUS
 10
4.2353934669
 20
4.4637388086
 11
4.1999459014
 21
4.4432647615
  0
LWPOLYLINE
  5
4B7
100
AcDbEntity
  8
0
100
AcDbPolyline
 62
7
  6
CONTINUOUS
 90
16
 70
0
 10
4.1997201434
 20
4.4356221051
 10
4.2009513901
 20
4.4362311719
 10
4.2082835281
 20
4.4372300415
 10
4.2221382462
 20
4.4382289111
 10
4.2423592112
 20
4.4392277806
 10
4.2687182549
 20
4.4402266502
 10
4.3009179484
 20
4.4412255198
 10
4.3385949584
 20
4.4422243894
 10
4.381324147
 20
4.4432232589
 10
4.4286233688
 20
4.4442221285
 10
4.4799589112
 20
4.4452209981
 10
4.5347515169
 20
4.4462198677
 10
4.5923829197
 20
4.4472187372
 10
4.6522028215
 20
4.4482176068
 10
4.7135362294
 20
4.4492164764
 10
4.8379660116
 20
4.4512142155
  0
LINE
  5
4B8
100
AcDbEntity
  8
0
100
AcDbLine
 62
7
  6
CONTINUOUS
 10
4.1999459014
 20
4.5613749977
 11
4.2001634915
 21
4.5614796712
  0
LINE
  5
4B9
100
AcDbEntity
  8
0
100
AcDbLine
 62
7
  6
CONTINUOUS
 10
4.1999459014
 20
4.5023198796
 11
4.2005082406
 21
4.5025463664
  0
LWPOLYLINE
  5
4BA
100
AcDbEntity
  8
0
100
AcDbPolyline
 62
7
  6
CONTINUOUS
 90
15
 70
0
 10
4.2351532142
 20
4.5332750484
 10
4.2381314358
 20
4.5342525551
 10
4.2471041747
 20
4.535235855
 10
4.2619731037
 20
4.5362191375
 10
4.2827384098
 20
4.5372092499
 10
4.3091477232
 20
4.5382014298
 10
4.3407519567
 20
4.5391902001
 10
4.377052426
 20
4.540173103
 10
4.417933189
 20
4.5411584911
 10
4.462802296
 20
4.5421426734
 10
4.5111063592
 20
4.543124706
 10
4.5624029565
 20
4.5441065642
 10
4.6162357655
 20
4.5450901198
 10
4.6718700176
 20
4.5460726372
 10
4.7287984098
 20
4.5470559168
  0
LWPOLYLINE
  5
4BB
100
AcDbEntity
  8
0
100
AcDbPolyline
 62
7
  6
CONTINUOUS
 90
15
 70
0
 10
4.2351532142
 20
4.5923301662
 10
4.2382232745
 20
4.5933226441
 10
4.2472940234
 20
4.5943065433
 10
4.2622446922
 20
4.5952892482
 10
4.282918364
 20
4.5962719108
 10
4.3091529889
 20
4.5972567273
 10
4.3406458213
 20
4.5982422427
 10
4.376930675
 20
4.5992251209
 10
4.4177511773
 20
4.6002094357
 10
4.4625354654
 20
4.6011921701
 10
4.5109356213
 20
4.6021764634
 10
4.5622676766
 20
4.6031591576
 10
4.6161300776
 20
4.6041433432
 10
4.6717977148
 20
4.6051264949
 10
4.7287615737
 20
4.6061104034
  0
LWPOLYLINE
  5
4BC
100
AcDbEntity
  8
0
100
AcDbPolyline
 62
7
  6
CONTINUOUS
 90
15
 70
0
 10
5.3375154189
 20
4.9063746737
 10
5.3342109686
 20
4.9053449699
 10
5.3249506902
 20
4.9043639585
 10
5.3098279988
 20
4.9033829483
 10
5.2890074961
 20
4.9024019386
 10
5.2627158258
 20
4.9014209299
 10
5.2312391356
 20
4.9004399215
 10
5.1949200891
 20
4.8994589148
 10
5.1541539294
 20
4.8984779079
 10
5.1093844707
 20
4.8974969033
 10
5.0610988898
 20
4.8965158984
 10
5.0098228697
 20
4.8955348958
 10
4.9561143223
 20
4.8945538921
 10
4.9005579482
 20
4.8935728897
 10
4.8437586016
 20
4.8925918914
  0
LINE
  5
4BD
100
AcDbEntity
  8
0
100
AcDbLine
 62
7
  6
CONTINUOUS
 10
4.2351532142
 20
4.9318970956
 11
4.2349602535
 21
4.9357902335
  0
LINE
  5
4BE
100
AcDbEntity
  8
02___PRT_ALL_AXES
100
AcDbLine
 62
7
  6
CONTINUOUS
 10
4.2351532142
 20
4.9318970956
 11
4.2351532142
 21
4.9122120562
  0
LINE
  5
4BF
100
AcDbEntity
  8
02___PRT_ALL_AXES
100
AcDbLine
 62
7
  6
CONTINUOUS
 10
4.2351532142
 20
4.887605757
 11
4.2351532142
 21
4.8771246354
  0
LINE
  5
4C0
100
AcDbEntity
  8
02___PRT_ALL_AXES
100
AcDbLine
 62
7
  6
CONTINUOUS
 10
4.2351532142
 20
4.8285506389
 11
4.2351532142
 21
4.8180695173
  0
LINE
  5
4C1
100
AcDbEntity
  8
02___PRT_ALL_AXES
100
AcDbLine
 62
7
  6
CONTINUOUS
 10
4.2351532142
 20
4.7694955208
 11
4.2351532142
 21
4.7590143991
  0
LINE
  5
4C2
100
AcDbEntity
  8
02___PRT_ALL_AXES
100
AcDbLine
 62
7
  6
CONTINUOUS
 10
4.2351532142
 20
4.7104404027
 11
4.2351532142
 21
4.699959281
  0
LINE
  5
4C3
100
AcDbEntity
  8
02___PRT_ALL_AXES
100
AcDbLine
 62
7
  6
CONTINUOUS
 10
4.2351532142
 20
4.6513852846
 11
4.2351532142
 21
4.6409041629
  0
LINE
  5
4C4
100
AcDbEntity
  8
02___PRT_ALL_AXES
100
AcDbLine
 62
7
  6
CONTINUOUS
 10
4.2351532142
 20
4.5923301664
 11
4.2351532142
 21
4.5818490448
  0
LINE
  5
4C5
100
AcDbEntity
  8
02___PRT_ALL_AXES
100
AcDbLine
 62
7
  6
CONTINUOUS
 10
4.2351532142
 20
4.5332750483
 11
4.2351532142
 21
4.522516406
  0
LINE
  5
4C6
100
AcDbEntity
  8
02___PRT_ALL_AXES
100
AcDbLine
 62
7
  6
CONTINUOUS
 10
4.2351532142
 20
4.4742199302
 11
4.2351532142
 21
4.4637388086
  0
LINE
  5
4C7
100
AcDbEntity
  8
02___PRT_ALL_AXES
100
AcDbLine
 62
7
  6
CONTINUOUS
 10
4.2351532142
 20
4.4151648121
 11
4.2351532142
 21
4.4046836905
  0
LINE
  5
4C8
100
AcDbEntity
  8
02___PRT_ALL_AXES
100
AcDbLine
 62
7
  6
CONTINUOUS
 10
4.2351532142
 20
4.356109694
 11
4.2351532142
 21
4.3456285724
  0
LINE
  5
4C9
100
AcDbEntity
  8
02___PRT_ALL_AXES
100
AcDbLine
 62
7
  6
CONTINUOUS
 10
4.2351532142
 20
4.2970545759
 11
4.2351532142
 21
4.2865734543
  0
LINE
  5
4CA
100
AcDbEntity
  8
02___PRT_ALL_AXES
100
AcDbLine
 62
7
  6
CONTINUOUS
 10
4.2351532142
 20
4.2379994578
 11
4.2351532142
 21
4.2275183362
  0
LINE
  5
4CB
100
AcDbEntity
  8
02___PRT_ALL_AXES
100
AcDbLine
 62
7
  6
CONTINUOUS
 10
4.2351532142
 20
4.1789443397
 11
4.2351532142
 21
4.168463218
  0
LINE
  5
4CC
100
AcDbEntity
  8
02___PRT_ALL_AXES
100
AcDbLine
 62
7
  6
CONTINUOUS
 10
4.2351532142
 20
4.1198892216
 11
4.2351532142
 21
4.105125442
  0
LWPOLYLINE
  5
4CD
100
AcDbEntity
  8
0
100
AcDbPolyline
 62
7
  6
CONTINUOUS
 90
31
 70
0
 10
4.1997201434
 20
4.1403465146
 10
4.1998797615
 20
4.1405657786
 10
4.2046399618
 20
4.1415646482
 10
4.2159638553
 20
4.1425635178
 10
4.233723666
 20
4.1435623873
 10
4.2577189966
 20
4.1445612569
 10
4.28767909
 20
4.1455601265
 10
4.3232658838
 20
4.1465589961
 10
4.3640778257
 20
4.1475578656
 10
4.4096544039
 20
4.1485567352
 10
4.4594813437
 20
4.1495556048
 10
4.5129964106
 20
4.1505544743
 10
4.5695957538
 20
4.1515533439
 10
4.6286407205
 20
4.1525522135
 10
4.6894650623
 20
4.1535510831
 10
4.7513824524
 20
4.1545499526
 10
4.8136942306
 20
4.1555488222
 10
4.8756972864
 20
4.1565476918
 10
4.9366919929
 20
4.1575465613
 10
4.995990101
 20
4.1585454309
 10
5.0529225059
 20
4.1595443005
 10
5.1068467965
 20
4.1605431701
 10
5.1571545046
 20
4.1615420396
 10
5.2032779708
 20
4.1625409092
 10
5.2446967494
 20
4.1635397788
 10
5.2809434812
 20
4.1645386483
 10
5.3116091673
 20
4.1655375179
 10
5.3363477838
 20
4.1665363875
 10
5.3548801862
 20
4.1675352571
 10
5.3669972596
 20
4.1685341266
 10
5.3727227318
 20
4.169613307
  0
LINE
  5
4CE
100
AcDbEntity
  8
0
100
AcDbLine
 62
7
  6
CONTINUOUS
 10
4.1997201434
 20
4.2067835224
 11
4.1999459014
 21
4.207044289
  0
LINE
  5
4CF
100
AcDbEntity
  8
0
100
AcDbLine
 62
7
  6
CONTINUOUS
 10
4.1997201434
 20
4.1477284043
 11
4.1999459014
 21
4.1479891709
  0
LINE
  5
4D0
100
AcDbEntity
  8
0
100
AcDbLine
 62
7
  6
CONTINUOUS
 10
4.2353934669
 20
4.4046836905
 11
4.1999459014
 21
4.3842096434
  0
LINE
  5
4D1
100
AcDbEntity
  8
0
100
AcDbLine
 62
7
  6
CONTINUOUS
 10
4.2353934669
 20
4.3456285724
 11
4.1999459014
 21
4.3251545253
  0
LINE
  5
4D2
100
AcDbEntity
  8
0
100
AcDbLine
 62
7
  6
CONTINUOUS
 10
4.2353934669
 20
4.2865734543
 11
4.1999459014
 21
4.2660994071
  0
LWPOLYLINE
  5
4D3
100
AcDbEntity
  8
0
100
AcDbPolyline
 62
7
  6
CONTINUOUS
 90
15
 70
0
 10
4.1997201434
 20
4.376566987
 10
4.2014928657
 20
4.3772978672
 10
4.2096263556
 20
4.3782967368
 10
4.2242672735
 20
4.3792956063
 10
4.2452504149
 20
4.3802944759
 10
4.2723390113
 20
4.3812933455
 10
4.3052274019
 20
4.382292215
 10
4.3435444822
 20
4.3832910846
 10
4.3868578919
 20
4.3842899542
 10
4.4346788934
 20
4.3852888238
 10
4.4864678865
 20
4.3862876933
 10
4.5416404972
 20
4.3872865629
 10
4.5995741715
 20
4.3882854325
 10
4.6596152005
 20
4.389284302
 10
4.7210860962
 20
4.3902831716
  0
LWPOLYLINE
  5
4D4
100
AcDbEntity
  8
0
100
AcDbPolyline
 62
7
  6
CONTINUOUS
 90
11
 70
0
 10
4.1997201434
 20
4.3175118689
 10
4.2021325763
 20
4.3183645624
 10
4.211066052
 20
4.319363432
 10
4.2264907105
 20
4.3203623016
 10
4.2482325038
 20
4.3213611712
 10
4.2760461029
 20
4.3223600407
 10
4.3096176663
 20
4.3233589103
 10
4.3485683808
 20
4.3243577799
 10
4.3924587364
 20
4.3253566494
 10
4.4407934851
 20
4.326355519
 10
4.49302723
 20
4.3273543886
  0
LINE
  5
4D5
100
AcDbEntity
  8
0
100
AcDbLine
 62
7
  6
CONTINUOUS
 10
4.1999459014
 20
4.4432647615
 11
4.2009513901
 21
4.4436130617
  0
LINE
  5
4D6
100
AcDbEntity
  8
0
100
AcDbLine
 62
7
  6
CONTINUOUS
 10
5.3716025679
 20
4.7597884454
 11
5.3727227318
 21
4.7601644881
  0
LWPOLYLINE
  5
4D7
100
AcDbEntity
  8
0
100
AcDbPolyline
 62
7
  6
CONTINUOUS
 90
15
 70
0
 10
4.2351532142
 20
4.3561096941
 10
4.2381352654
 20
4.3570878296
 10
4.2471221454
 20
4.3580719797
 10
4.2620073814
 20
4.3590556795
 10
4.2826794248
 20
4.3600414203
 10
4.3088119736
 20
4.3610246235
 10
4.3401814627
 20
4.3620082984
 10
4.376402371
 20
4.3629911825
 10
4.4171781971
 20
4.3639758139
 10
4.4619240931
 20
4.3649588086
 10
4.5102951302
 20
4.3659433775
 10
4.5616088247
 20
4.3669263847
 10
4.6153776487
 20
4.3679093776
 10
4.6713252398
 20
4.3688977851
 10
4.7286289362
 20
4.3698876567
  0
LWPOLYLINE
  5
4D8
100
AcDbEntity
  8
0
100
AcDbPolyline
 62
7
  6
CONTINUOUS
 90
15
 70
0
 10
4.2351532142
 20
4.415164806
 10
4.2381591961
 20
4.4161468682
 10
4.2471717417
 20
4.4171311741
 10
4.2620912137
 20
4.4181154304
 10
4.2828997618
 20
4.4191057774
 10
4.3093183616
 20
4.4200970045
 10
4.3408782884
 20
4.4210836228
 10
4.3771503175
 20
4.4220653587
 10
4.4179659687
 20
4.4230490063
 10
4.4627346579
 20
4.4240310125
 10
4.5111135701
 20
4.4250146117
 10
4.56242577
 20
4.4259967537
 10
4.6162676088
 20
4.4269804545
 10
4.6719247173
 20
4.4279633545
 10
4.7288169452
 20
4.4289459984
  0
LWPOLYLINE
  5
4D9
100
AcDbEntity
  8
0
100
AcDbPolyline
 62
7
  6
CONTINUOUS
 90
15
 70
0
 10
5.3375154189
 20
4.7292093194
 10
5.3345103467
 20
4.7282274121
 10
5.3255122836
 20
4.7272442216
 10
5.3106367903
 20
4.7262619814
 10
5.2900258005
 20
4.7252791295
 10
5.2639187214
 20
4.7242965093
 10
5.2325468023
 20
4.7233124469
 10
5.1963657481
 20
4.7223303691
 10
5.1556423879
 20
4.7213466894
 10
5.1109550835
 20
4.7203646465
 10
5.0626474584
 20
4.719381034
 10
5.0114037285
 20
4.7183990524
 10
4.9574990493
 20
4.717413368
 10
4.9014042095
 20
4.7164222887
 10
4.8440284917
 20
4.7154311646
  0
LWPOLYLINE
  5
4DA
100
AcDbEntity
  8
0
100
AcDbPolyline
 62
7
  6
CONTINUOUS
 90
15
 70
0
 10
5.3375154189
 20
4.8473195518
 10
5.3345070549
 20
4.8463371102
 10
5.3255294465
 20
4.8453558684
 10
5.3106613954
 20
4.8443735781
 10
5.2900451841
 20
4.8433901797
 10
5.2639584785
 20
4.8424081037
 10
5.2326107783
 20
4.8414245418
 10
5.1964526629
 20
4.8404428234
 10
5.1558166919
 20
4.8394609304
 10
5.1110749968
 20
4.8384774131
 10
5.0626788671
 20
4.8374918892
 10
5.0113977136
 20
4.8365091763
 10
4.9574014999
 20
4.8355218544
 10
4.9012749284
 20
4.8345302708
 10
4.8439357266
 20
4.8335398102
  0
LWPOLYLINE
  5
4DB
100
AcDbEntity
  8
0
100
AcDbPolyline
 62
7
  6
CONTINUOUS
 90
15
 70
0
 10
5.3375154189
 20
4.7882644375
 10
5.3345013481
 20
4.7872810598
 10
5.3254942726
 20
4.7862978605
 10
5.3106252479
 20
4.7853164615
 10
5.2899106961
 20
4.7843294168
 10
5.2635579446
 20
4.7833393181
 10
5.2319968883
 20
4.7823516099
 10
5.1957087065
 20
4.7813687381
 10
5.1547947984
 20
4.7803823555
 10
5.1098341939
 20
4.7793961354
 10
5.06152625
 20
4.7784140708
 10
5.010246035
 20
4.7774325551
 10
4.9564175755
 20
4.7764490919
 10
4.9007881859
 20
4.7754666668
 10
4.8438648374
 20
4.7744834766
  0
LWPOLYLINE
  5
4DC
100
AcDbEntity
  8
0
100
AcDbPolyline
 62
7
  6
CONTINUOUS
 90
15
 70
0
 10
4.2351532142
 20
4.474219932
 10
4.238173338
 20
4.4752042957
 10
4.2471679228
 20
4.4761859786
 10
4.2620517328
 20
4.4771683676
 10
4.2826839964
 20
4.4781518484
 10
4.3087872044
 20
4.479134014
 10
4.340151392
 20
4.4801176613
 10
4.3763211443
 20
4.4810993465
 10
4.4169577219
 20
4.482080986
 10
4.4617956464
 20
4.4830663352
 10
4.5102603335
 20
4.4840529282
 10
4.5615712164
 20
4.4850359185
 10
4.6155527126
 20
4.4860227538
 10
4.6716132503
 20
4.4870130428
 10
4.7288335843
 20
4.4880014018
  0
LWPOLYLINE
  5
4DD
100
AcDbEntity
  8
0
100
AcDbPolyline
 62
7
  6
CONTINUOUS
 90
15
 70
0
 10
4.1999459014
 20
4.3842096434
 10
4.2014928657
 20
4.3846797569
 10
4.2096263556
 20
4.3856786265
 10
4.2242672735
 20
4.3866774961
 10
4.2452504149
 20
4.3876763657
 10
4.2723390113
 20
4.3886752352
 10
4.3052274019
 20
4.3896741048
 10
4.3435444822
 20
4.3906729744
 10
4.3868578919
 20
4.391671844
 10
4.4346788934
 20
4.3926707135
 10
4.4864678865
 20
4.3936695831
 10
4.5416404972
 20
4.3946684527
 10
4.5995741715
 20
4.3956673222
 10
4.6596152005
 20
4.3966661918
 10
4.7210860962
 20
4.3976650614
  0
LINE
  5
4DE
100
AcDbEntity
  8
0
100
AcDbLine
 62
7
  6
CONTINUOUS
 10
4.2353934669
 20
4.2275183362
 11
4.1999459014
 21
4.207044289
  0
LINE
  5
4DF
100
AcDbEntity
  8
0
100
AcDbLine
 62
7
  6
CONTINUOUS
 10
5.3372751663
 20
4.8578006772
 11
5.3727227318
 21
4.8782747244
  0
LINE
  5
4E0
100
AcDbEntity
  8
0
100
AcDbLine
 62
7
  6
CONTINUOUS
 10
4.2353934669
 20
4.168463218
 11
4.1999459014
 21
4.1479891709
  0
LINE
  5
4E1
100
AcDbEntity
  8
0
100
AcDbLine
 62
7
  6
CONTINUOUS
 10
5.3372751663
 20
4.7987455591
 11
5.3727227318
 21
4.8192196062
  0
LINE
  5
4E2
100
AcDbEntity
  8
0
100
AcDbLine
 62
7
  6
CONTINUOUS
 10
5.3372751663
 20
4.739690441
 11
5.3727227318
 21
4.7601644881
  0
LINE
  5
4E3
100
AcDbEntity
  8
0
100
AcDbLine
 62
7
  6
CONTINUOUS
 10
5.3723101039
 20
4.7009316085
 11
5.3727227318
 21
4.70110937
  0
LWPOLYLINE
  5
4E4
100
AcDbEntity
  8
0
100
AcDbPolyline
 62
7
  6
CONTINUOUS
 90
15
 70
0
 10
5.3375154189
 20
4.6110990744
 10
5.3345502979
 20
4.6101237306
 10
5.3255906558
 20
4.6091404346
 10
5.310738221
 20
4.6081573575
 10
5.290127873
 20
4.6071731818
 10
5.2640376898
 20
4.6061903383
 10
5.2326772461
 20
4.6052060009
 10
5.1965120605
 20
4.6042238671
 10
5.1557811437
 20
4.6032396411
 10
5.1107651406
 20
4.6022504031
 10
5.0621675615
 20
4.6012613429
 10
5.0107884118
 20
4.6002773248
 10
4.956814051
 20
4.5992908461
 10
4.9008494761
 20
4.5983023809
 10
4.843821417
 20
4.5973173778
  0
LWPOLYLINE
  5
4E5
100
AcDbEntity
  8
0
100
AcDbPolyline
 62
7
  6
CONTINUOUS
 90
11
 70
0
 10
4.2351532142
 20
4.2970545758
 10
4.238142542
 20
4.2980339052
 10
4.2471205857
 20
4.2990167333
 10
4.2619562731
 20
4.2999977335
 10
4.2825409099
 20
4.3009804836
 10
4.3087510609
 20
4.3019674252
 10
4.3401907982
 20
4.3029534514
 10
4.3764024686
 20
4.3039360669
 10
4.4173032014
 20
4.3049235659
 10
4.4623379563
 20
4.3059124171
 10
4.5107437654
 20
4.3068970956
  0
LWPOLYLINE
  5
4E6
100
AcDbEntity
  8
0
100
AcDbPolyline
 62
7
  6
CONTINUOUS
 90
15
 70
0
 10
5.3375154189
 20
4.6701542053
 10
5.3344541195
 20
4.669163142
 10
5.3253769783
 20
4.668178018
 10
5.3104085324
 20
4.6671942711
 10
5.2895935626
 20
4.6662058996
 10
5.263236472
 20
4.665218137
 10
5.2317993337
 20
4.6642356509
 10
5.1955327447
 20
4.6632540219
 10
5.1547211232
 20
4.6622704302
 10
5.1099568243
 20
4.6612884823
 10
5.0615823814
 20
4.6603049393
 10
5.0102772539
 20
4.6593229015
 10
4.9565023031
 20
4.6583403746
 10
4.9009021907
 20
4.657358418
 10
4.8438930781
 20
4.6563737246
  0
LWPOLYLINE
  5
4E7
100
AcDbEntity
  8
0
100
AcDbPolyline
 62
7
  6
CONTINUOUS
 90
15
 70
0
 10
4.2351532142
 20
4.2379994619
 10
4.238247177
 20
4.2389957951
 10
4.2473360669
 20
4.2399792664
 10
4.2623111169
 20
4.2409621953
 10
4.2830371078
 20
4.2419461719
 10
4.3092368866
 20
4.2429288764
 10
4.3406973578
 20
4.2439130276
 10
4.3769761288
 20
4.2448955698
 10
4.4177887418
 20
4.2458795885
 10
4.4625675217
 20
4.2468621369
 10
4.5109738854
 20
4.247846508
 10
4.5623105701
 20
4.2488292495
 10
4.616163785
 20
4.2498132388
 10
4.6718207691
 20
4.2507961881
 10
4.7287733192
 20
4.2517798961
  0
LWPOLYLINE
  5
4E8
100
AcDbEntity
  8
0
100
AcDbPolyline
 62
7
  6
CONTINUOUS
 90
15
 70
0
 10
5.3375154189
 20
4.5520439599
 10
5.3343972919
 20
4.5510437408
 10
5.3252807044
 20
4.5500599312
 10
5.3102876296
 20
4.549077386
 10
5.2895466388
 20
4.5480937019
 10
5.2633375206
 20
4.5471113387
 10
5.2318711661
 20
4.546127495
 10
5.1955898736
 20
4.54514524
 10
5.1547680818
 20
4.5441612705
 10
5.1099925529
 20
4.5431789987
 10
5.0616102508
 20
4.5421952516
 10
5.010289307
 20
4.5412128902
 10
4.9564514704
 20
4.5402292271
 10
4.9008109382
 20
4.539246591
 10
4.8438766501
 20
4.5382632067
  0
LWPOLYLINE
  5
4E9
100
AcDbEntity
  8
0
100
AcDbPolyline
 62
7
  6
CONTINUOUS
 90
16
 70
0
 10
4.1997201434
 20
4.2584567508
 10
4.2028704146
 20
4.2594312577
 10
4.2126023755
 20
4.2604301273
 10
4.2288081837
 20
4.2614289968
 10
4.2513049769
 20
4.2624278664
 10
4.279838907
 20
4.263426736
 10
4.3140880043
 20
4.2644256055
 10
4.3536658105
 20
4.2654244751
 10
4.3981257396
 20
4.2664233447
 10
4.4469661169
 20
4.2674222143
 10
4.4996358398
 20
4.2684210838
 10
4.5555405965
 20
4.2694199534
 10
4.6140495716
 20
4.270418823
 10
4.6745025645
 20
4.2714176926
 10
4.7362174389
 20
4.2724165621
 10
4.8606409503
 20
4.2744143013
  0
LINE
  5
4EA
100
AcDbEntity
  8
0
100
AcDbLine
 62
7
  6
CONTINUOUS
 10
4.1999459014
 20
4.140085748
 11
4.1997201434
 21
4.1403465146
  0
LINE
  5
4EB
100
AcDbEntity
  8
0
100
AcDbLine
 62
7
  6
CONTINUOUS
 10
4.1999459014
 20
4.1991408661
 11
4.1997201434
 21
4.1994016327
  0
LINE
  5
4EC
100
AcDbEntity
  8
0
100
AcDbLine
 62
7
  6
CONTINUOUS
 10
4.1999459014
 20
4.2581959842
 11
4.1997201434
 21
4.2584567508
  0
LINE
  5
4ED
100
AcDbEntity
  8
0
100
AcDbLine
 62
7
  6
CONTINUOUS
 10
5.3372751663
 20
4.6806353229
 11
5.3727227318
 21
4.70110937
  0
LINE
  5
4EE
100
AcDbEntity
  8
0
100
AcDbLine
 62
7
  6
CONTINUOUS
 10
5.3372751663
 20
4.6215802048
 11
5.3727227318
 21
4.6420542519
  0
LINE
  5
4EF
100
AcDbEntity
  8
0
100
AcDbLine
 62
7
  6
CONTINUOUS
 10
5.3372751663
 20
4.5625250867
 11
5.3727227318
 21
4.5829991338
  0
LWPOLYLINE
  5
4F0
100
AcDbEntity
  8
0
100
AcDbPolyline
 62
7
  6
CONTINUOUS
 90
15
 70
0
 10
4.2351532142
 20
4.1198892133
 10
4.2381577827
 20
4.1208710465
 10
4.2471924855
 20
4.121857286
 10
4.2621226177
 20
4.1228415735
 10
4.2828957305
 20
4.123830018
 10
4.3092010875
 20
4.1248174209
 10
4.3406012912
 20
4.1258000071
 10
4.3768611532
 20
4.1267824052
 10
4.4176750227
 20
4.1277667441
 10
4.4624508885
 20
4.1287494429
 10
4.51084476
 20
4.1297337297
 10
4.5621764229
 20
4.1307165095
 10
4.6159626371
 20
4.1316993962
 10
4.6716237047
 20
4.1326825164
 10
4.728716281
 20
4.1336686819
  0
LWPOLYLINE
  5
4F1
100
AcDbEntity
  8
0
100
AcDbPolyline
 62
7
  6
CONTINUOUS
 90
15
 70
0
 10
5.3375154189
 20
4.4929888469
 10
5.3344988106
 20
4.492005055
 10
5.3254892502
 20
4.4910218577
 10
5.3106169364
 20
4.4900404116
 10
5.2900045252
 20
4.4890577637
 10
5.2637693234
 20
4.4880709362
 10
5.232299131
 20
4.487084784
 10
5.1960490821
 20
4.4861018201
 10
5.1550961893
 20
4.4851136777
 10
5.1099968229
 20
4.4841239705
 10
5.0615105259
 20
4.4831381708
 10
5.0102455077
 20
4.4821569547
 10
4.9564174264
 20
4.4811734986
 10
4.9007880785
 20
4.4801910744
 10
4.8438647827
 20
4.4792078852
  0
LWPOLYLINE
  5
4F2
100
AcDbEntity
  8
0
100
AcDbPolyline
 62
7
  6
CONTINUOUS
 90
15
 70
0
 10
4.2351532142
 20
4.1789443415
 10
4.2381767775
 20
4.1799292661
 10
4.2471886175
 20
4.1809120868
 10
4.2620814024
 20
4.1818944161
 10
4.2827209002
 20
4.1828778066
 10
4.3088300417
 20
4.1838598861
 10
4.3401987774
 20
4.1848434469
 10
4.3763585216
 20
4.1858247096
 10
4.4171391754
 20
4.1868095634
 10
4.4621925857
 20
4.1877991163
 10
4.5108013957
 20
4.1887879941
 10
4.5621611822
 20
4.1897713431
 10
4.6160841107
 20
4.1907566923
 10
4.6719617153
 20
4.191743527
 10
4.7288807876
 20
4.1927266206
  0
LWPOLYLINE
  5
4F3
100
AcDbEntity
  8
0
100
AcDbPolyline
 62
7
  6
CONTINUOUS
 90
15
 70
0
 10
5.3375154189
 20
4.43393373
 10
5.3344845176
 20
4.4329476069
 10
5.325415272
 20
4.4319606767
 10
5.3104739495
 20
4.4309774022
 10
5.2897436923
 20
4.4299917091
 10
5.2635588232
 20
4.4290086394
 10
5.2321763067
 20
4.4280261028
 10
5.1959412915
 20
4.4270439546
 10
5.1551598425
 20
4.4260600201
 10
5.1104179349
 20
4.4250777271
 10
5.0620589612
 20
4.4240938497
 10
5.0107648841
 20
4.4231115312
 10
4.9570504344
 20
4.4221297308
 10
4.9012040229
 20
4.4211432077
 10
4.8439827127
 20
4.4201547891
  0
LINE
  5
4F4
100
AcDbEntity
  8
0
100
AcDbLine
 62
7
  6
CONTINUOUS
 10
4.1999459014
 20
4.140085748
 11
4.2350931202
 21
4.1197851802
  0
LINE
  5
4F5
100
AcDbEntity
  8
0
100
AcDbLine
 62
7
  6
CONTINUOUS
 10
4.1999459014
 20
4.1991408661
 11
4.2350931202
 21
4.1788402983
  0
LINE
  5
4F6
100
AcDbEntity
  8
0
100
AcDbLine
 62
7
  6
CONTINUOUS
 10
4.1999459014
 20
4.2581959842
 11
4.2350931202
 21
4.2378954164
  0
LWPOLYLINE
  5
4F7
100
AcDbEntity
  8
0
100
AcDbPolyline
 62
7
  6
CONTINUOUS
 90
3
 70
0
 10
4.1999459014
 20
4.3172511023
 10
4.1997910866
 20
4.3173656929
 10
4.1997201434
 20
4.3175118689
  0
LINE
  5
4F8
100
AcDbEntity
  8
0
100
AcDbLine
 62
7
  6
CONTINUOUS
 10
4.1999459014
 20
4.3763062204
 11
4.1997201434
 21
4.376566987
  0
LINE
  5
4F9
100
AcDbEntity
  8
0
100
AcDbLine
 62
7
  6
CONTINUOUS
 10
4.1999459014
 20
4.4353613385
 11
4.1997201434
 21
4.4356221051
  0
LINE
  5
4FA
100
AcDbEntity
  8
0
100
AcDbLine
 62
7
  6
CONTINUOUS
 10
4.1999459014
 20
4.4944164566
 11
4.1997201434
 21
4.4946772232
  0
LINE
  5
4FB
100
AcDbEntity
  8
0
100
AcDbLine
 62
7
  6
CONTINUOUS
 10
4.1999459014
 20
4.5534715747
 11
4.1997201434
 21
4.5537323413
  0
LINE
  5
4FC
100
AcDbEntity
  8
02___PRT_ALL_AXES
100
AcDbLine
 62
7
  6
CONTINUOUS
 10
4.6788343166
 20
2.1641805601
 11
4.6788343166
 21
4.0657553633
  0
LINE
  5
4FD
100
AcDbEntity
  8
02___PRT_ALL_AXES
100
AcDbLine
 62
7
  6
CENTER
 10
4.7863343166
 20
2.21642875
 11
4.7863343166
 21
6.1064304911
  0
LINE
  5
4FE
100
AcDbEntity
  8
0
100
AcDbLine
 62
7
  6
CONTINUOUS
 10
5.3727227318
 20
4.8782747244
 11
5.3729484898
 21
4.8785354909
  0
LINE
  5
4FF
100
AcDbEntity
  8
0
100
AcDbLine
 62
7
  6
CONTINUOUS
 10
5.3727227318
 20
4.8192196062
 11
5.3729484898
 21
4.8194803728
  0
LINE
  5
500
100
AcDbEntity
  8
0
100
AcDbLine
 62
7
  6
CONTINUOUS
 10
5.3727227318
 20
4.7601644881
 11
5.3729484898
 21
4.7604252547
  0
LINE
  5
501
100
AcDbEntity
  8
0
100
AcDbLine
 62
7
  6
CONTINUOUS
 10
5.3372751663
 20
4.5034699686
 11
5.3727227318
 21
4.5239440157
  0
LINE
  5
502
100
AcDbEntity
  8
0
100
AcDbLine
 62
7
  6
CONTINUOUS
 10
5.3372751663
 20
4.4444148505
 11
5.3727227318
 21
4.4648888976
  0
LINE
  5
503
100
AcDbEntity
  8
0
100
AcDbLine
 62
7
  6
CONTINUOUS
 10
5.3372751663
 20
4.3853597323
 11
5.3727227318
 21
4.4058337795
  0
LINE
  5
504
100
AcDbEntity
  8
0
100
AcDbLine
 62
7
  6
CONTINUOUS
 10
5.3718137417
 20
4.2873996057
 11
5.3727227318
 21
4.2877235433
  0
LWPOLYLINE
  5
505
100
AcDbEntity
  8
0
100
AcDbPolyline
 62
7
  6
CONTINUOUS
 90
15
 70
0
 10
5.3375154189
 20
4.2567683745
 10
5.3345200703
 20
4.2557880585
 10
5.325530554
 20
4.2548047783
 10
5.3106643041
 20
4.2538225579
 10
5.2899229018
 20
4.2528338658
 10
5.263540077
 20
4.2518426462
 10
5.231955908
 20
4.2508543594
 10
5.1956604678
 20
4.2498714467
 10
5.1547627768
 20
4.2488855584
 10
5.1098490022
 20
4.2479003843
 10
5.0615520754
 20
4.2469185161
 10
5.0102622349
 20
4.2459367944
 10
4.9564301571
 20
4.2449532544
 10
4.9007967946
 20
4.2439707539
 10
4.8438692233
 20
4.2429874888
  0
LWPOLYLINE
  5
506
100
AcDbEntity
  8
0
100
AcDbPolyline
 62
7
  6
CONTINUOUS
 90
15
 70
0
 10
5.3375154189
 20
4.3158234924
 10
5.3344989448
 20
4.3148397226
 10
5.3255100463
 20
4.313858211
 10
5.3106309855
 20
4.3128758337
 10
5.2900033859
 20
4.3118923615
 10
5.2639047889
 20
4.3109102067
 10
5.2325450414
 20
4.309926569
 10
5.1963780838
 20
4.3089448571
 10
5.1557451315
 20
4.3079632231
 10
5.1109367023
 20
4.3069784319
 10
5.0624929187
 20
4.3059921619
 10
5.0111904459
 20
4.3050092417
 10
4.9572026582
 20
4.3040222247
 10
4.9011198927
 20
4.3030315047
 10
4.8438611653
 20
4.3020424688
  0
LWPOLYLINE
  5
507
100
AcDbEntity
  8
0
100
AcDbPolyline
 62
7
  6
CONTINUOUS
 90
15
 70
0
 10
5.3375154189
 20
4.3748786211
 10
5.334443822
 20
4.3738858844
 10
5.3253618578
 20
4.3729011924
 10
5.3103975881
 20
4.3719180781
 10
5.2896835685
 20
4.3709340741
 10
5.2634897219
 20
4.3699511667
 10
5.2320394071
 20
4.3689670154
 10
5.1957682425
 20
4.3679844276
 10
5.1549478461
 20
4.3670000385
 10
5.1101657126
 20
4.3660172928
 10
5.0617657339
 20
4.3650329579
 10
5.0104244659
 20
4.3640500584
 10
4.9565284692
 20
4.3630652532
 10
4.9007822529
 20
4.3620807366
 10
4.8438799388
 20
4.3610979088
  0
LINE
  5
508
100
AcDbEntity
  8
0
100
AcDbLine
 62
7
  6
CONTINUOUS
 10
5.2981453402
 20
4.0657553633
 11
4.274523293
 21
4.0657553633
  0
LINE
  5
509
100
AcDbEntity
  8
0
100
AcDbLine
 62
7
  6
CONTINUOUS
 10
4.1999459014
 20
4.3172511023
 11
4.2350931202
 21
4.2969505345
  0
LINE
  5
50A
100
AcDbEntity
  8
0
100
AcDbLine
 62
7
  6
CONTINUOUS
 10
4.1999459014
 20
4.3763062204
 11
4.2350931202
 21
4.3560056527
  0
LINE
  5
50B
100
AcDbEntity
  8
0
100
AcDbLine
 62
7
  6
CONTINUOUS
 10
4.1999459014
 20
4.4353613385
 11
4.2350931202
 21
4.4150607708
  0
LINE
  5
50C
100
AcDbEntity
  8
0
100
AcDbLine
 62
7
  6
CONTINUOUS
 10
4.1999459014
 20
4.6125266929
 11
4.1997201434
 21
4.6127874594
  0
LINE
  5
50D
100
AcDbEntity
  8
0
100
AcDbLine
 62
7
  6
CONTINUOUS
 10
4.1999459014
 20
4.671581811
 11
4.1997201434
 21
4.6718425776
  0
LINE
  5
50E
100
AcDbEntity
  8
0
100
AcDbLine
 62
7
  6
CONTINUOUS
 10
4.1999459014
 20
4.7306369291
 11
4.1997201434
 21
4.7308976957
  0
LINE
  5
50F
100
AcDbEntity
  8
0
100
AcDbLine
 62
7
  6
CONTINUOUS
 10
4.1999459014
 20
4.7896920472
 11
4.1997201434
 21
4.7899528138
  0
LINE
  5
510
100
AcDbEntity
  8
02___PRT_ALL_AXES
100
AcDbLine
 62
7
  6
CONTINUOUS
 10
4.8938343166
 20
2.1641805601
 11
4.8938343166
 21
4.0657553633
  0
LINE
  5
511
100
AcDbEntity
  8
0
100
AcDbLine
 62
7
  6
CONTINUOUS
 10
5.3727227318
 20
4.70110937
 11
5.3729484898
 21
4.7013701366
  0
LINE
  5
512
100
AcDbEntity
  8
0
100
AcDbLine
 62
7
  6
CONTINUOUS
 10
5.3727227318
 20
4.6420542519
 11
5.3729484898
 21
4.6423150185
  0
LINE
  5
513
100
AcDbEntity
  8
0
100
AcDbLine
 62
7
  6
CONTINUOUS
 10
5.3727227318
 20
4.5829991338
 11
5.3729484898
 21
4.5832599004
  0
LINE
  5
514
100
AcDbEntity
  8
0
100
AcDbLine
 62
7
  6
CONTINUOUS
 10
5.3727227318
 20
4.5239440157
 11
5.3729484898
 21
4.5242047823
  0
LINE
  5
515
100
AcDbEntity
  8
0
100
AcDbLine
 62
7
  6
CONTINUOUS
 10
5.3372751663
 20
4.3263046142
 11
5.3727227318
 21
4.3467786614
  0
LINE
  5
516
100
AcDbEntity
  8
0
100
AcDbLine
 62
7
  6
CONTINUOUS
 10
5.3372751663
 20
4.2672494961
 11
5.3727227318
 21
4.2877235433
  0
LINE
  5
517
100
AcDbEntity
  8
0
100
AcDbLine
 62
7
  6
CONTINUOUS
 10
5.3722372166
 20
4.228466301
 11
5.3727227318
 21
4.2286684251
  0
LWPOLYLINE
  5
518
100
AcDbEntity
  8
0
100
AcDbPolyline
 62
7
  6
CONTINUOUS
 90
15
 70
0
 10
5.3375154189
 20
4.1977132567
 10
5.3344405732
 20
4.1967200048
 10
5.3253649575
 20
4.1957360912
 10
5.3104060529
 20
4.1947531897
 10
5.2897148494
 20
4.193770029
 10
5.263498509
 20
4.1927861118
 10
5.2320177663
 20
4.1918010339
 10
5.195732867
 20
4.1908181723
 10
5.154906727
 20
4.1898337411
 10
5.1101190692
 20
4.1888509556
 10
5.0617136237
 20
4.1878665778
 10
5.0103758975
 20
4.1868837975
 10
4.9565283313
 20
4.1858998964
 10
4.9008556299
 20
4.1849166614
 10
4.8439033279
 20
4.1839329555
  0
LWPOLYLINE
  5
519
100
AcDbEntity
  8
0
100
AcDbPolyline
 62
7
  6
CONTINUOUS
 90
16
 70
0
 10
4.728716281
 20
4.1336686819
 10
4.8439033279
 20
4.1356364797
 10
4.9008556299
 20
4.1366201857
 10
4.9565283313
 20
4.1376034206
 10
5.0103758975
 20
4.1385873218
 10
5.0617136237
 20
4.139570102
 10
5.1101190692
 20
4.1405544799
 10
5.154906727
 20
4.1415372653
 10
5.195732867
 20
4.1425216965
 10
5.2320177663
 20
4.1435045581
 10
5.263498509
 20
4.144489636
 10
5.2897148494
 20
4.1454735532
 10
5.3104060529
 20
4.1464567139
 10
5.3253649575
 20
4.1474396154
 10
5.3344405732
 20
4.148423529
 10
5.3372751663
 20
4.1491392599
  0
LWPOLYLINE
  5
51A
100
AcDbEntity
  8
0
100
AcDbPolyline
 62
7
  6
CONTINUOUS
 90
16
 70
0
 10
4.8439033279
 20
4.1839329555
 10
4.728716281
 20
4.1819651576
 10
4.6716237047
 20
4.1809789922
 10
4.6159626371
 20
4.1799958719
 10
4.5621764229
 20
4.1790129852
 10
4.51084476
 20
4.1780302055
 10
4.4624508885
 20
4.1770459187
 10
4.4176750227
 20
4.1760632198
 10
4.3768611532
 20
4.1750788809
 10
4.3406012912
 20
4.1740964829
 10
4.3092010875
 20
4.1731138967
 10
4.2828957305
 20
4.1721264938
 10
4.2621226177
 20
4.1711380493
 10
4.2471924855
 20
4.1701537618
 10
4.2381577827
 20
4.1691675222
 10
4.2353934669
 20
4.168463218
  0
LWPOLYLINE
  5
51B
100
AcDbEntity
  8
0
100
AcDbPolyline
 62
7
  6
CONTINUOUS
 90
16
 70
0
 10
4.7288807876
 20
4.1927266206
 10
4.8438692233
 20
4.1946910131
 10
4.9007967946
 20
4.1956742781
 10
4.9564301571
 20
4.1966567787
 10
5.0102622349
 20
4.1976403186
 10
5.0615520754
 20
4.1986220403
 10
5.1098490022
 20
4.1996039086
 10
5.1547627768
 20
4.2005890826
 10
5.1956604678
 20
4.201574971
 10
5.231955908
 20
4.2025578836
 10
5.263540077
 20
4.2035461704
 10
5.2899229018
 20
4.20453739
 10
5.3106643041
 20
4.2055260821
 10
5.325530554
 20
4.2065083025
 10
5.3345200703
 20
4.2074915828
 10
5.3372751663
 20
4.208194378
  0
LWPOLYLINE
  5
51C
100
AcDbEntity
  8
0
100
AcDbPolyline
 62
7
  6
CONTINUOUS
 90
16
 70
0
 10
4.8438692233
 20
4.2429874888
 10
4.7288807876
 20
4.2410230964
 10
4.6719617153
 20
4.2400400028
 10
4.6160841107
 20
4.239053168
 10
4.5621611822
 20
4.2380678189
 10
4.5108013957
 20
4.2370844698
 10
4.4621925857
 20
4.236095592
 10
4.4171391754
 20
4.2351060392
 10
4.3763585216
 20
4.2341211853
 10
4.3401987774
 20
4.2331399226
 10
4.3088300417
 20
4.2321563619
 10
4.2827209002
 20
4.2311742824
 10
4.2620814024
 20
4.2301908919
 10
4.2471886175
 20
4.2292085625
 10
4.2381767775
 20
4.2282257418
 10
4.2353934669
 20
4.2275183362
  0
LWPOLYLINE
  5
51D
100
AcDbEntity
  8
0
100
AcDbPolyline
 62
7
  6
CONTINUOUS
 90
7
 70
0
 10
4.5625493807
 20
4.2178685384
 10
4.6213312884
 20
4.218867408
 10
4.6819750489
 20
4.2198662776
 10
4.7437963731
 20
4.2208651471
 10
4.8060976849
 20
4.2218640167
 10
4.8681759918
 20
4.2228628863
 10
4.9293308177
 20
4.2238617559
  0
LWPOLYLINE
  5
51E
100
AcDbEntity
  8
0
100
AcDbPolyline
 62
7
  6
CONTINUOUS
 90
13
 70
0
 10
4.9293308177
 20
4.2164798661
 10
4.988872107
 20
4.2174787357
 10
5.0461280107
 20
4.2184776052
 10
5.1004524675
 20
4.2194764748
 10
5.1512324938
 20
4.2204753444
 10
5.1978951007
 20
4.221474214
 10
5.2399137589
 20
4.2224730835
 10
5.2768143404
 20
4.2234719531
 10
5.3081804684
 20
4.2244708227
 10
5.3336582153
 20
4.2254696922
 10
5.3529600966
 20
4.2264685618
 10
5.3658683147
 20
4.2274674314
 10
5.3722372166
 20
4.228466301
  0
LWPOLYLINE
  5
51F
100
AcDbEntity
  8
0
100
AcDbPolyline
 62
7
  6
CONTINUOUS
 90
14
 70
0
 10
4.9293308177
 20
4.2238617559
 10
4.988872107
 20
4.2248606254
 10
5.0461280107
 20
4.225859495
 10
5.1004524675
 20
4.2268583646
 10
5.1512324938
 20
4.2278572341
 10
5.1978951007
 20
4.2288561037
 10
5.2399137589
 20
4.2298549733
 10
5.2768143404
 20
4.2308538429
 10
5.3081804684
 20
4.2318527124
 10
5.3336582153
 20
4.232851582
 10
5.3529600966
 20
4.2338504516
 10
5.3658683147
 20
4.2348493211
 10
5.3722372166
 20
4.2358481907
 10
5.3729484898
 20
4.2363110815
  0
LINE
  5
520
100
AcDbEntity
  8
0
100
AcDbLine
 62
9
  6
CONTINUOUS
 10
4.2351532142
 20
4.105125442
 11
5.3375154189
 21
4.105125442
  0
LINE
  5
521
100
AcDbEntity
  8
0
100
AcDbLine
 62
7
  6
CONTINUOUS
 10
4.1999459014
 20
4.4944164566
 11
4.2350931202
 21
4.4741158889
  0
LINE
  5
522
100
AcDbEntity
  8
0
100
AcDbLine
 62
7
  6
CONTINUOUS
 10
4.1999459014
 20
4.5534715747
 11
4.2350931202
 21
4.533171007
  0
LINE
  5
523
100
AcDbEntity
  8
0
100
AcDbLine
 62
7
  6
CONTINUOUS
 10
4.1999459014
 20
4.8487471653
 11
4.1997201434
 21
4.8490079319
  0
LINE
  5
524
100
AcDbEntity
  8
0
100
AcDbLine
 62
7
  6
CONTINUOUS
 10
4.1999459014
 20
4.9078022834
 11
4.1997201434
 21
4.90806305
  0
LINE
  5
525
100
AcDbEntity
  8
0
100
AcDbLine
 62
7
  6
CONTINUOUS
 10
5.3727227318
 20
4.4648888976
 11
5.3729484898
 21
4.4651496642
  0
LINE
  5
526
100
AcDbEntity
  8
0
100
AcDbLine
 62
7
  6
CONTINUOUS
 10
5.3727227318
 20
4.4058337795
 11
5.3729484898
 21
4.4060945461
  0
LINE
  5
527
100
AcDbEntity
  8
0
100
AcDbLine
 62
7
  6
CONTINUOUS
 10
5.3727227318
 20
4.3467786614
 11
5.3729484898
 21
4.347039428
  0
LINE
  5
528
100
AcDbEntity
  8
0
100
AcDbLine
 62
7
  6
CONTINUOUS
 10
5.3372751663
 20
4.208194378
 11
5.3727227318
 21
4.2286684251
  0
LINE
  5
529
100
AcDbEntity
  8
0
100
AcDbLine
 62
7
  6
CONTINUOUS
 10
5.3372751663
 20
4.1491392599
 11
5.3727227318
 21
4.169613307
  0
LWPOLYLINE
  5
52A
100
AcDbEntity
  8
0
100
AcDbPolyline
 62
7
  6
CONTINUOUS
 90
18
 70
0
 10
4.1997201434
 20
4.1994016327
 10
4.2037062566
 20
4.2004979529
 10
4.214235068
 20
4.2014968225
 10
4.2312193038
 20
4.2024956921
 10
4.2544673183
 20
4.2034945617
 10
4.2837167865
 20
4.2044934312
 10
4.3186376648
 20
4.2054923008
 10
4.3588359149
 20
4.2064911704
 10
4.4038579497
 20
4.2074900399
 10
4.4531957519
 20
4.2084889095
 10
4.5062926061
 20
4.2094877791
 10
4.5625493807
 20
4.2104866487
 10
4.6213312884
 20
4.2114855182
 10
4.6819750489
 20
4.2124843878
 10
4.7437963731
 20
4.2134832574
 10
4.8060976849
 20
4.2144821269
 10
4.8681759918
 20
4.2154809965
 10
4.9293308177
 20
4.2164798661
  0
LWPOLYLINE
  5
52B
100
AcDbEntity
  8
0
100
AcDbPolyline
 62
7
  6
CONTINUOUS
 90
12
 70
0
 10
4.1999459014
 20
4.207044289
 10
4.2037062566
 20
4.2078798427
 10
4.214235068
 20
4.2088787123
 10
4.2312193038
 20
4.2098775818
 10
4.2544673183
 20
4.2108764514
 10
4.2837167865
 20
4.211875321
 10
4.3186376648
 20
4.2128741906
 10
4.3588359149
 20
4.2138730601
 10
4.4038579497
 20
4.2148719297
 10
4.4531957519
 20
4.2158707993
 10
4.5062926061
 20
4.2168696689
 10
4.5625493807
 20
4.2178685384
  0
LWPOLYLINE
  5
52C
100
AcDbEntity
  8
0
100
AcDbPolyline
 62
7
  6
CONTINUOUS
 90
31
 70
0
 10
4.1999459014
 20
4.1479891709
 10
4.2046399618
 20
4.148946538
 10
4.2159638553
 20
4.1499454075
 10
4.233723666
 20
4.1509442771
 10
4.2577189966
 20
4.1519431467
 10
4.28767909
 20
4.1529420162
 10
4.3232658838
 20
4.1539408858
 10
4.3640778257
 20
4.1549397554
 10
4.4096544039
 20
4.155938625
 10
4.4594813437
 20
4.1569374945
 10
4.5129964106
 20
4.1579363641
 10
4.5695957538
 20
4.1589352337
 10
4.6286407205
 20
4.1599341032
 10
4.6894650623
 20
4.1609329728
 10
4.7513824524
 20
4.1619318424
 10
4.8136942306
 20
4.162930712
 10
4.8756972864
 20
4.1639295815
 10
4.9366919929
 20
4.1649284511
 10
4.995990101
 20
4.1659273207
 10
5.0529225059
 20
4.1669261903
 10
5.1068467965
 20
4.1679250598
 10
5.1571545046
 20
4.1689239294
 10
5.2032779708
 20
4.169922799
 10
5.2446967494
 20
4.1709216685
 10
5.2809434812
 20
4.1719205381
 10
5.3116091673
 20
4.1729194077
 10
5.3363477838
 20
4.1739182773
 10
5.3548801862
 20
4.1749171468
 10
5.3669972596
 20
4.1759160164
 10
5.3725622781
 20
4.176914886
 10
5.3729484898
 20
4.1772559634
  0
LWPOLYLINE
  5
52D
100
AcDbEntity
  8
0
100
AcDbPolyline
 62
7
  6
CONTINUOUS
 90
11
 70
0
 10
4.5107437654
 20
4.3551935713
 10
4.4623379563
 20
4.3542088928
 10
4.4173032014
 20
4.3532200417
 10
4.3764024686
 20
4.3522325427
 10
4.3401907982
 20
4.3512499272
 10
4.3087510609
 20
4.350263901
 10
4.2825409099
 20
4.3492769593
 10
4.2619562731
 20
4.3482942093
 10
4.2471205857
 20
4.347313209
 10
4.238142542
 20
4.346330381
 10
4.2353934669
 20
4.3456285724
  0
LWPOLYLINE
  5
52E
100
AcDbEntity
  8
0
100
AcDbPolyline
 62
7
  6
CONTINUOUS
 90
5
 70
0
 10
4.5107437654
 20
4.3068970956
 10
4.562073633
 20
4.3078799451
 10
4.6159759826
 20
4.3088649898
 10
4.6716950768
 20
4.309849115
 10
4.7287079266
 20
4.310833893
  0
LWPOLYLINE
  5
52F
100
AcDbEntity
  8
0
100
AcDbPolyline
 62
7
  6
CONTINUOUS
 90
6
 70
0
 10
4.49302723
 20
4.3273543886
 10
4.5485705784
 20
4.3283532582
 10
4.6067967932
 20
4.3293521277
 10
4.6670488644
 20
4.3303509973
 10
4.7286469227
 20
4.3313498669
 10
4.8530934277
 20
4.333347606
  0
LWPOLYLINE
  5
530
100
AcDbEntity
  8
0
100
AcDbPolyline
 62
7
  6
CONTINUOUS
 90
6
 70
0
 10
4.49302723
 20
4.3347362783
 10
4.5485705784
 20
4.3357351479
 10
4.6067967932
 20
4.3367340175
 10
4.6670488644
 20
4.3377328871
 10
4.7286469227
 20
4.3387317566
 10
4.8530934277
 20
4.3407294958
  0
LWPOLYLINE
  5
531
100
AcDbEntity
  8
0
100
AcDbPolyline
 62
7
  6
CONTINUOUS
 90
16
 70
0
 10
4.7287733192
 20
4.2517798961
 10
4.8438611653
 20
4.253745993
 10
4.9011198927
 20
4.254735029
 10
4.9572026582
 20
4.255725749
 10
5.0111904459
 20
4.256712766
 10
5.0624929187
 20
4.2576956861
 10
5.1109367023
 20
4.2586819561
 10
5.1557451315
 20
4.2596667473
 10
5.1963780838
 20
4.2606483813
 10
5.2325450414
 20
4.2616300933
 10
5.2639047889
 20
4.2626137309
 10
5.2900033859
 20
4.2635958858
 10
5.3106309855
 20
4.264579358
 10
5.3255100463
 20
4.2655617352
 10
5.3344989448
 20
4.2665432468
 10
5.3372751663
 20
4.2672494961
  0
LWPOLYLINE
  5
532
100
AcDbEntity
  8
0
100
AcDbPolyline
 62
7
  6
CONTINUOUS
 90
16
 70
0
 10
4.8438611653
 20
4.3020424688
 10
4.7287733192
 20
4.3000763719
 10
4.6718207691
 20
4.2990926639
 10
4.616163785
 20
4.2981097146
 10
4.5623105701
 20
4.2971257253
 10
4.5109738854
 20
4.2961429837
 10
4.4625675217
 20
4.2951586127
 10
4.4177887418
 20
4.2941760643
 10
4.3769761288
 20
4.2931920455
 10
4.3406973578
 20
4.2922095034
 10
4.3092368866
 20
4.2912253521
 10
4.2830371078
 20
4.2902426476
 10
4.2623111169
 20
4.2892586711
 10
4.2473360669
 20
4.2882757422
 10
4.238247177
 20
4.2872922709
 10
4.2353934669
 20
4.2865734543
  0
LWPOLYLINE
  5
533
100
AcDbEntity
  8
0
100
AcDbPolyline
 62
7
  6
CONTINUOUS
 90
16
 70
0
 10
4.7287079266
 20
4.310833893
 10
4.8438799388
 20
4.312801433
 10
4.9007822529
 20
4.3137842609
 10
4.9565284692
 20
4.3147687774
 10
5.0104244659
 20
4.3157535826
 10
5.0617657339
 20
4.3167364822
 10
5.1101657126
 20
4.3177208171
 10
5.1549478461
 20
4.3187035627
 10
5.1957682425
 20
4.3196879519
 10
5.2320394071
 20
4.3206705397
 10
5.2634897219
 20
4.321654691
 10
5.2896835685
 20
4.3226375983
 10
5.3103975881
 20
4.3236216023
 10
5.3253618578
 20
4.3246047166
 10
5.334443822
 20
4.3255894087
 10
5.3372751663
 20
4.3263046142
  0
LWPOLYLINE
  5
534
100
AcDbEntity
  8
0
100
AcDbPolyline
 62
7
  6
CONTINUOUS
 90
6
 70
0
 10
4.8438799388
 20
4.3610979088
 10
4.7287079266
 20
4.3591303687
 10
4.6716950768
 20
4.3581455908
 10
4.6159759826
 20
4.3571614656
 10
4.562073633
 20
4.3561764208
 10
4.5107437654
 20
4.3551935713
  0
LWPOLYLINE
  5
535
100
AcDbEntity
  8
0
100
AcDbPolyline
 62
7
  6
CONTINUOUS
 90
16
 70
0
 10
4.7286289362
 20
4.3698876567
 10
4.8439827127
 20
4.3718583133
 10
4.9012040229
 20
4.372846732
 10
4.9570504344
 20
4.373833255
 10
5.0107648841
 20
4.3748150554
 10
5.0620589612
 20
4.3757973739
 10
5.1104179349
 20
4.3767812513
 10
5.1551598425
 20
4.3777635444
 10
5.1959412915
 20
4.3787474789
 10
5.2321763067
 20
4.379729627
 10
5.2635588232
 20
4.3807121636
 10
5.2897436923
 20
4.3816952333
 10
5.3104739495
 20
4.3826809264
 10
5.325415272
 20
4.3836642009
 10
5.3344845176
 20
4.3846511311
 10
5.3372751663
 20
4.3853597323
  0
LWPOLYLINE
  5
536
100
AcDbEntity
  8
0
100
AcDbPolyline
 62
7
  6
CONTINUOUS
 90
14
 70
0
 10
4.8606409503
 20
4.2744143013
 10
4.9219456236
 20
4.2754131708
 10
4.981720093
 20
4.2764120404
 10
5.0392898783
 20
4.27741091
 10
5.0940053764
 20
4.2784097796
 10
5.1452491915
 20
4.2794086491
 10
5.1924431012
 20
4.2804075187
 10
5.2350545812
 20
4.2814063883
 10
5.2726028143
 20
4.2824052578
 10
5.3046641156
 20
4.2834041274
 10
5.3308767135
 20
4.284402997
 10
5.3509448315
 20
4.2854018666
 10
5.3646420262
 20
4.2864007361
 10
5.3718137417
 20
4.2873996057
  0
LWPOLYLINE
  5
537
100
AcDbEntity
  8
0
100
AcDbPolyline
 62
7
  6
CONTINUOUS
 90
15
 70
0
 10
4.8606409503
 20
4.281796191
 10
4.9219456236
 20
4.2827950606
 10
4.981720093
 20
4.2837939302
 10
5.0392898783
 20
4.2847927997
 10
5.0940053764
 20
4.2857916693
 10
5.1452491915
 20
4.2867905389
 10
5.1924431012
 20
4.2877894085
 10
5.2350545812
 20
4.288788278
 10
5.2726028143
 20
4.2897871476
 10
5.3046641156
 20
4.2907860172
 10
5.3308767135
 20
4.2917848868
 10
5.3509448315
 20
4.2927837563
 10
5.3646420262
 20
4.2937826259
 10
5.3718137417
 20
4.2947814955
 10
5.3729484898
 20
4.2953661996
  0
LWPOLYLINE
  5
538
100
AcDbEntity
  8
0
100
AcDbPolyline
 62
7
  6
CONTINUOUS
 90
15
 70
0
 10
4.8530934277
 20
4.333347606
 10
4.9145376511
 20
4.3343464756
 10
4.9745352603
 20
4.3353453452
 10
5.0324092572
 20
4.3363442147
 10
5.0875066063
 20
4.3373430843
 10
5.1392056027
 20
4.3383419539
 10
5.1869228881
 20
4.3393408234
 10
5.2301200325
 20
4.340339693
 10
5.2683096102
 20
4.3413385626
 10
5.3010606996
 20
4.3423374322
 10
5.3280037456
 20
4.3433363017
 10
5.3488347296
 20
4.3443351713
 10
5.3633186
 20
4.3453340409
 10
5.3712919246
 20
4.3463329105
 10
5.3727227318
 20
4.3467786614
  0
LWPOLYLINE
  5
539
100
AcDbEntity
  8
0
100
AcDbPolyline
 62
7
  6
CONTINUOUS
 90
15
 70
0
 10
4.8530934277
 20
4.3407294958
 10
4.9145376511
 20
4.3417283654
 10
4.9745352603
 20
4.3427272349
 10
5.0324092572
 20
4.3437261045
 10
5.0875066063
 20
4.3447249741
 10
5.1392056027
 20
4.3457238436
 10
5.1869228881
 20
4.3467227132
 10
5.2301200325
 20
4.3477215828
 10
5.2683096102
 20
4.3487204524
 10
5.3010606996
 20
4.3497193219
 10
5.3280037456
 20
4.3507181915
 10
5.3488347296
 20
4.3517170611
 10
5.3633186
 20
4.3527159306
 10
5.3712919246
 20
4.3537148002
 10
5.3729484898
 20
4.3544213177
  0
LWPOLYLINE
  5
53A
100
AcDbEntity
  8
0
100
AcDbPolyline
 62
7
  6
CONTINUOUS
 90
16
 70
0
 10
4.7210860962
 20
4.3902831716
 10
4.8455346916
 20
4.3922809108
 10
4.9071081444
 20
4.3932797803
 10
4.9673188157
 20
4.3942786499
 10
5.0254873033
 20
4.3952775195
 10
5.0809572486
 20
4.3962763891
 10
5.1331027426
 20
4.3972752586
 10
5.1813353887
 20
4.3982741282
 10
5.2251109417
 20
4.3992729978
 10
5.2639354494
 20
4.4002718673
 10
5.2973708257
 20
4.4012707369
 10
5.3250397942
 20
4.4022696065
 10
5.3466301452
 20
4.4032684761
 10
5.3618982586
 20
4.4042673456
 10
5.3706718529
 20
4.4052662152
 10
5.3727227318
 20
4.4058337795
  0
LINE
  5
53B
100
AcDbEntity
  8
0
100
AcDbLine
 62
7
  6
CONTINUOUS
 10
4.1999459014
 20
4.6125266929
 11
4.2350931202
 21
4.5922261251
  0
LINE
  5
53C
100
AcDbEntity
  8
0
100
AcDbLine
 62
7
  6
CONTINUOUS
 10
4.1999459014
 20
4.671581811
 11
4.2350931202
 21
4.6512812432
  0
LINE
  5
53D
100
AcDbEntity
  8
0
100
AcDbLine
 62
7
  6
CONTINUOUS
 10
4.1999459014
 20
4.7306369291
 11
4.2350931202
 21
4.7103363613
  0
LINE
  5
53E
100
AcDbEntity
  8
0
100
AcDbLine
 62
7
  6
CONTINUOUS
 10
5.3727227318
 20
4.2877235433
 11
5.3729484898
 21
4.2879843098
  0
LINE
  5
53F
100
AcDbEntity
  8
0
100
AcDbLine
 62
7
  6
CONTINUOUS
 10
5.3727227318
 20
4.2286684251
 11
5.3729484898
 21
4.2289291917
  0
LINE
  5
540
100
AcDbEntity
  8
0
100
AcDbLine
 62
7
  6
CONTINUOUS
 10
5.3727227318
 20
4.169613307
 11
5.3729484898
 21
4.1698740736
  0
LWPOLYLINE
  5
541
100
AcDbEntity
  8
0
100
AcDbPolyline
 62
7
  6
CONTINUOUS
 90
11
 70
0
 10
4.1999459014
 20
4.3251545253
 10
4.2021325763
 20
4.3257464522
 10
4.211066052
 20
4.3267453218
 10
4.2264907105
 20
4.3277441913
 10
4.2482325038
 20
4.3287430609
 10
4.2760461029
 20
4.3297419305
 10
4.3096176663
 20
4.3307408001
 10
4.3485683808
 20
4.3317396696
 10
4.3924587364
 20
4.3327385392
 10
4.4407934851
 20
4.3337374088
 10
4.49302723
 20
4.3347362783
  0
LWPOLYLINE
  5
542
100
AcDbEntity
  8
0
100
AcDbPolyline
 62
7
  6
CONTINUOUS
 90
16
 70
0
 10
4.1999459014
 20
4.2660994071
 10
4.2028704146
 20
4.2668131475
 10
4.2126023755
 20
4.267812017
 10
4.2288081837
 20
4.2688108866
 10
4.2513049769
 20
4.2698097562
 10
4.279838907
 20
4.2708086257
 10
4.3140880043
 20
4.2718074953
 10
4.3536658105
 20
4.2728063649
 10
4.3981257396
 20
4.2738052345
 10
4.4469661169
 20
4.274804104
 10
4.4996358398
 20
4.2758029736
 10
4.5555405965
 20
4.2768018432
 10
4.6140495716
 20
4.2778007127
 10
4.6745025645
 20
4.2787995823
 10
4.7362174389
 20
4.2797984519
 10
4.8606409503
 20
4.281796191
  0
LWPOLYLINE
  5
543
100
AcDbEntity
  8
0
100
AcDbPolyline
 62
7
  6
CONTINUOUS
 90
15
 70
0
 10
4.2009513901
 20
4.4436130617
 10
4.2082835281
 20
4.4446119313
 10
4.2221382462
 20
4.4456108008
 10
4.2423592112
 20
4.4466096704
 10
4.2687182549
 20
4.44760854
 10
4.3009179484
 20
4.4486074096
 10
4.3385949584
 20
4.4496062791
 10
4.381324147
 20
4.4506051487
 10
4.4286233688
 20
4.4516040183
 10
4.4799589112
 20
4.4526028878
 10
4.5347515169
 20
4.4536017574
 10
4.5923829197
 20
4.454600627
 10
4.6522028215
 20
4.4555994966
 10
4.7135362294
 20
4.4565983661
 10
4.8379660116
 20
4.4585961053
  0
LWPOLYLINE
  5
544
100
AcDbEntity
  8
0
100
AcDbPolyline
 62
7
  6
CONTINUOUS
 90
16
 70
0
 10
4.8439827127
 20
4.4201547891
 10
4.7286289362
 20
4.4181841324
 10
4.6713252398
 20
4.4171942608
 10
4.6153776487
 20
4.4162058534
 10
4.5616088247
 20
4.4152228604
 10
4.5102951302
 20
4.4142398533
 10
4.4619240931
 20
4.4132552844
 10
4.4171781971
 20
4.4122722896
 10
4.376402371
 20
4.4112876583
 10
4.3401814627
 20
4.4103047742
 10
4.3088119736
 20
4.4093210993
 10
4.2826794248
 20
4.408337896
 10
4.2620073814
 20
4.4073521552
 10
4.2471221454
 20
4.4063684555
 10
4.2381352654
 20
4.4053843054
 10
4.2353934669
 20
4.4046836905
  0
LWPOLYLINE
  5
545
100
AcDbEntity
  8
0
100
AcDbPolyline
 62
7
  6
CONTINUOUS
 90
16
 70
0
 10
4.7288169452
 20
4.4289459984
 10
4.8438647827
 20
4.4309114094
 10
4.9007880785
 20
4.4318945986
 10
4.9564174264
 20
4.4328770229
 10
5.0102455077
 20
4.4338604789
 10
5.0615105259
 20
4.434841695
 10
5.1099968229
 20
4.4358274948
 10
5.1550961893
 20
4.4368172019
 10
5.1960490821
 20
4.4378053444
 10
5.232299131
 20
4.4387883082
 10
5.2637693234
 20
4.4397744604
 10
5.2900045252
 20
4.4407612879
 10
5.3106169364
 20
4.4417439358
 10
5.3254892502
 20
4.4427253819
 10
5.3344988106
 20
4.4437085793
 10
5.3372751663
 20
4.4444148505
  0
LWPOLYLINE
  5
546
100
AcDbEntity
  8
0
100
AcDbPolyline
 62
7
  6
CONTINUOUS
 90
16
 70
0
 10
4.8438647827
 20
4.4792078852
 10
4.7288169452
 20
4.4772424742
 10
4.6719247173
 20
4.4762598303
 10
4.6162676088
 20
4.4752769302
 10
4.56242577
 20
4.4742932295
 10
4.5111135701
 20
4.4733110875
 10
4.4627346579
 20
4.4723274882
 10
4.4179659687
 20
4.4713454821
 10
4.3771503175
 20
4.4703618345
 10
4.3408782884
 20
4.4693800985
 10
4.3093183616
 20
4.4683934803
 10
4.2828997618
 20
4.4674022532
 10
4.2620912137
 20
4.4664119062
 10
4.2471717417
 20
4.4654276499
 10
4.2381591961
 20
4.4644433439
 10
4.2353934669
 20
4.4637388086
  0
LWPOLYLINE
  5
547
100
AcDbEntity
  8
0
100
AcDbPolyline
 62
7
  6
CONTINUOUS
 90
16
 70
0
 10
4.7288335843
 20
4.4880014018
 10
4.8438766501
 20
4.489966731
 10
4.9008109382
 20
4.4909501152
 10
4.9564514704
 20
4.4919327513
 10
5.010289307
 20
4.4929164144
 10
5.0616102508
 20
4.4938987759
 10
5.1099925529
 20
4.4948825229
 10
5.1547680818
 20
4.4958647948
 10
5.1955898736
 20
4.4968487642
 10
5.2318711661
 20
4.4978310192
 10
5.2633375206
 20
4.4988148629
 10
5.2895466388
 20
4.4997972261
 10
5.3102876296
 20
4.5007809102
 10
5.3252807044
 20
4.5017634555
 10
5.3343972919
 20
4.5027472651
 10
5.3372751663
 20
4.5034699686
  0
LWPOLYLINE
  5
548
100
AcDbEntity
  8
0
100
AcDbPolyline
 62
7
  6
CONTINUOUS
 90
14
 70
0
 10
4.8996583515
 20
4.4595949748
 10
4.9600719714
 20
4.4605938444
 10
5.0185251791
 20
4.461592714
 10
5.0743584034
 20
4.4625915836
 10
5.1269416362
 20
4.4635904531
 10
5.1756815414
 20
4.4645893227
 10
5.2200281502
 20
4.4655881923
 10
5.2594810665
 20
4.4665870619
 10
5.2935951136
 20
4.4675859314
 10
5.3219853571
 20
4.468584801
 10
5.3443314486
 20
4.4695836706
 10
5.3603812404
 20
4.4705825401
 10
5.3699536307
 20
4.4715814097
 10
5.3729484898
 20
4.4725315539
  0
LWPOLYLINE
  5
549
100
AcDbEntity
  8
0
100
AcDbPolyline
 62
7
  6
CONTINUOUS
 90
15
 70
0
 10
4.8379660116
 20
4.4512142155
 10
4.8996583515
 20
4.4522130851
 10
4.9600719714
 20
4.4532119547
 10
5.0185251791
 20
4.4542108242
 10
5.0743584034
 20
4.4552096938
 10
5.1269416362
 20
4.4562085634
 10
5.1756815414
 20
4.4572074329
 10
5.2200281502
 20
4.4582063025
 10
5.2594810665
 20
4.4592051721
 10
5.2935951136
 20
4.4602040417
 10
5.3219853571
 20
4.4612029112
 10
5.3443314486
 20
4.4622017808
 10
5.3603812404
 20
4.4632006504
 10
5.3699536307
 20
4.4641995199
 10
5.3727227318
 20
4.4648888976
  0
LINE
  5
54A
100
AcDbEntity
  8
0
100
AcDbLine
 62
7
  6
CONTINUOUS
 10
4.8379660116
 20
4.4585961053
 11
4.8996583515
 21
4.4595949748
  0
LWPOLYLINE
  5
54B
100
AcDbEntity
  8
0
100
AcDbPolyline
 62
7
  6
CONTINUOUS
 90
16
 70
0
 10
4.7210860962
 20
4.3976650614
 10
4.8455346916
 20
4.3996628005
 10
4.9071081444
 20
4.4006616701
 10
4.9673188157
 20
4.4016605397
 10
5.0254873033
 20
4.4026594092
 10
5.0809572486
 20
4.4036582788
 10
5.1331027426
 20
4.4046571484
 10
5.1813353887
 20
4.405656018
 10
5.2251109417
 20
4.4066548875
 10
5.2639354494
 20
4.4076537571
 10
5.2973708257
 20
4.4086526267
 10
5.3250397942
 20
4.4096514962
 10
5.3466301452
 20
4.4106503658
 10
5.3618982586
 20
4.4116492354
 10
5.3706718529
 20
4.412648105
 10
5.3729484898
 20
4.4134764358
  0
LWPOLYLINE
  5
54C
100
AcDbEntity
  8
0
100
AcDbPolyline
 62
7
  6
CONTINUOUS
 90
15
 70
0
 10
4.8303886592
 20
4.5101475203
 10
4.8921895237
 20
4.5111463898
 10
4.9527959446
 20
4.5121452594
 10
5.0115240542
 20
4.513144129
 10
5.0677111793
 20
4.5141429985
 10
5.1207233184
 20
4.5151418681
 10
5.169962296
 20
4.5161407377
 10
5.2148725116
 20
4.5171396073
 10
5.2549472098
 20
4.5181384768
 10
5.2897341976
 20
4.5191373464
 10
5.3188409474
 20
4.520136216
 10
5.3419390259
 20
4.5211350856
 10
5.3587678003
 20
4.5221339551
 10
5.3691373788
 20
4.5231328247
 10
5.3727227318
 20
4.5239440157
  0
LWPOLYLINE
  5
54D
100
AcDbEntity
  8
0
100
AcDbPolyline
 62
7
  6
CONTINUOUS
 90
15
 70
0
 10
4.8303886592
 20
4.51752941
 10
4.8921895237
 20
4.5185282796
 10
4.9527959446
 20
4.5195271492
 10
5.0115240542
 20
4.5205260187
 10
5.0677111793
 20
4.5215248883
 10
5.1207233184
 20
4.5225237579
 10
5.169962296
 20
4.5235226275
 10
5.2148725116
 20
4.524521497
 10
5.2549472098
 20
4.5255203666
 10
5.2897341976
 20
4.5265192362
 10
5.3188409474
 20
4.5275181057
 10
5.3419390259
 20
4.5285169753
 10
5.3587678003
 20
4.5295158449
 10
5.3691373788
 20
4.5305147145
 10
5.3729484898
 20
4.531586672
  0
LINE
  5
54E
100
AcDbEntity
  8
0
100
AcDbLine
 62
7
  6
CONTINUOUS
 10
4.1999459014
 20
4.7896920472
 11
4.2350931202
 21
4.7693914794
  0
LINE
  5
54F
100
AcDbEntity
  8
0
100
AcDbLine
 62
7
  6
CONTINUOUS
 10
4.1999459014
 20
4.8487471653
 11
4.2350931202
 21
4.8284465975
  0
LINE
  5
550
100
AcDbEntity
  8
0
100
AcDbLine
 62
7
  6
CONTINUOUS
 10
5.3727227318
 20
4.17751673
 11
5.3375755129
 21
4.1978172977
  0
LINE
  5
551
100
AcDbEntity
  8
0
100
AcDbLine
 62
7
  6
CONTINUOUS
 10
4.1999459014
 20
4.9078022834
 11
4.2350931202
 21
4.8875017157
  0
LINE
  5
552
100
AcDbEntity
  8
0
100
AcDbLine
 62
7
  6
CONTINUOUS
 10
5.3727227318
 20
4.2365718481
 11
5.3375755129
 21
4.2568724158
  0
LINE
  5
553
100
AcDbEntity
  8
02___PRT_ALL_AXES
100
AcDbLine
 62
7
  6
CONTINUOUS
 10
5.3375154189
 20
4.9318970956
 11
5.3375154189
 21
4.9063746737
  0
LINE
  5
554
100
AcDbEntity
  8
02___PRT_ALL_AXES
100
AcDbLine
 62
7
  6
CONTINUOUS
 10
5.3375154189
 20
4.8580781979
 11
5.3375154189
 21
4.8473195556
  0
LINE
  5
555
100
AcDbEntity
  8
02___PRT_ALL_AXES
100
AcDbLine
 62
7
  6
CONTINUOUS
 10
5.3375154189
 20
4.7990230798
 11
5.3375154189
 21
4.7882644375
  0
LINE
  5
556
100
AcDbEntity
  8
02___PRT_ALL_AXES
100
AcDbLine
 62
7
  6
CONTINUOUS
 10
5.3375154189
 20
4.7399679617
 11
5.3375154189
 21
4.7292093194
  0
LINE
  5
557
100
AcDbEntity
  8
02___PRT_ALL_AXES
100
AcDbLine
 62
7
  6
CONTINUOUS
 10
5.3375154189
 20
4.6809128436
 11
5.3375154189
 21
4.6701542013
  0
LINE
  5
558
100
AcDbEntity
  8
02___PRT_ALL_AXES
100
AcDbLine
 62
7
  6
CONTINUOUS
 10
5.3375154189
 20
4.6218577255
 11
5.3375154189
 21
4.6110990832
  0
LINE
  5
559
100
AcDbEntity
  8
02___PRT_ALL_AXES
100
AcDbLine
 62
7
  6
CONTINUOUS
 10
5.3375154189
 20
4.5628026074
 11
5.3375154189
 21
4.5520439651
  0
LINE
  5
55A
100
AcDbEntity
  8
02___PRT_ALL_AXES
100
AcDbLine
 62
7
  6
CONTINUOUS
 10
5.3375154189
 20
4.5037474893
 11
5.3375154189
 21
4.4929888469
  0
LINE
  5
55B
100
AcDbEntity
  8
02___PRT_ALL_AXES
100
AcDbLine
 62
7
  6
CONTINUOUS
 10
5.3375154189
 20
4.4446923712
 11
5.3375154189
 21
4.4339337288
  0
LINE
  5
55C
100
AcDbEntity
  8
02___PRT_ALL_AXES
100
AcDbLine
 62
7
  6
CONTINUOUS
 10
5.3375154189
 20
4.3856372531
 11
5.3375154189
 21
4.3748786107
  0
LINE
  5
55D
100
AcDbEntity
  8
02___PRT_ALL_AXES
100
AcDbLine
 62
7
  6
CONTINUOUS
 10
5.3375154189
 20
4.326582135
 11
5.3375154189
 21
4.3158234926
  0
LINE
  5
55E
100
AcDbEntity
  8
02___PRT_ALL_AXES
100
AcDbLine
 62
7
  6
CONTINUOUS
 10
5.3375154189
 20
4.2675270168
 11
5.3375154189
 21
4.2567683745
  0
LINE
  5
55F
100
AcDbEntity
  8
02___PRT_ALL_AXES
100
AcDbLine
 62
7
  6
CONTINUOUS
 10
5.3375154189
 20
4.2084718987
 11
5.3375154189
 21
4.1977132564
  0
LINE
  5
560
100
AcDbEntity
  8
02___PRT_ALL_AXES
100
AcDbLine
 62
7
  6
CONTINUOUS
 10
5.3375154189
 20
4.1494167806
 11
5.3375154189
 21
4.105125442
  0
LINE
  5
561
100
AcDbEntity
  8
0
100
AcDbLine
 62
7
  6
CONTINUOUS
 10
5.3729484898
 20
4.1698740736
 11
5.3729484898
 21
4.1772559634
  0
LINE
  5
562
100
AcDbEntity
  8
0
100
AcDbLine
 62
7
  6
CONTINUOUS
 10
5.3729484898
 20
4.2289291917
 11
5.3729484898
 21
4.2363110815
  0
LINE
  5
563
100
AcDbEntity
  8
0
100
AcDbLine
 62
7
  6
CONTINUOUS
 10
5.3729484898
 20
4.2879843098
 11
5.3729484898
 21
4.2953661996
  0
LINE
  5
564
100
AcDbEntity
  8
0
100
AcDbLine
 62
7
  6
CONTINUOUS
 10
5.3729484898
 20
4.347039428
 11
5.3729484898
 21
4.3544213177
  0
LINE
  5
565
100
AcDbEntity
  8
0
100
AcDbLine
 62
7
  6
CONTINUOUS
 10
5.3729484898
 20
4.4060945461
 11
5.3729484898
 21
4.4134764358
  0
LINE
  5
566
100
AcDbEntity
  8
0
100
AcDbLine
 62
7
  6
CONTINUOUS
 10
5.3729484898
 20
4.4651496642
 11
5.3729484898
 21
4.4725315539
  0
LINE
  5
567
100
AcDbEntity
  8
0
100
AcDbLine
 62
7
  6
CONTINUOUS
 10
5.3729484898
 20
4.5242047823
 11
5.3729484898
 21
4.531586672
  0
LINE
  5
568
100
AcDbEntity
  8
0
100
AcDbLine
 62
7
  6
CONTINUOUS
 10
5.3729484898
 20
4.5832599004
 11
5.3729484898
 21
4.5906417902
  0
LINE
  5
569
100
AcDbEntity
  8
0
100
AcDbLine
 62
7
  6
CONTINUOUS
 10
5.3729484898
 20
4.6423150185
 11
5.3729484898
 21
4.6496969083
  0
LINE
  5
56A
100
AcDbEntity
  8
0
100
AcDbLine
 62
7
  6
CONTINUOUS
 10
5.3729484898
 20
4.7013701366
 11
5.3729484898
 21
4.7087520264
  0
LINE
  5
56B
100
AcDbEntity
  8
0
100
AcDbLine
 62
7
  6
CONTINUOUS
 10
5.3729484898
 20
4.7604252547
 11
5.3729484898
 21
4.7678071445
  0
LINE
  5
56C
100
AcDbEntity
  8
0
100
AcDbLine
 62
7
  6
CONTINUOUS
 10
5.3729484898
 20
4.8194803728
 11
5.3729484898
 21
4.8268622626
  0
LINE
  5
56D
100
AcDbEntity
  8
0
100
AcDbLine
 62
7
  6
CONTINUOUS
 10
5.3729484898
 20
4.8785354909
 11
5.3729484898
 21
4.8859173807
  0
LWPOLYLINE
  5
56E
100
AcDbEntity
  8
0
100
AcDbPolyline
 62
7
  6
CONTINUOUS
 90
31
 70
0
 10
4.2001634915
 20
4.5614796712
 10
4.2058893657
 20
4.5624785408
 10
4.2181648352
 20
4.5634774103
 10
4.2368513865
 20
4.5644762799
 10
4.2617381655
 20
4.5654751495
 10
4.2925443558
 20
4.5664740191
 10
4.3289223482
 20
4.5674728886
 10
4.3704616625
 20
4.5684717582
 10
4.4166935795
 20
4.5694706278
 10
4.4670964298
 20
4.5704694973
 10
4.5211014805
 20
4.5714683669
 10
4.5780993519
 20
4.5724672365
 10
4.6374468944
 20
4.5734661061
 10
4.6984744453
 20
4.5744649756
 10
4.7604933849
 20
4.5754638452
 10
4.822803907
 20
4.5764627148
 10
4.8847029155
 20
4.5774615843
 10
4.9454919574
 20
4.5784604539
 10
5.0044851044
 20
4.5794593235
 10
5.0610166926
 20
4.5804581931
 10
5.1144488338
 20
4.5814570626
 10
5.1641786131
 20
4.5824559322
 10
5.2096448921
 20
4.5834548018
 10
5.2503346407
 20
4.5844536713
 10
5.2857887261
 20
4.5854525409
 10
5.3156070932
 20
4.5864514105
 10
5.339453279
 20
4.5874502801
 10
5.3570582092
 20
4.5884491496
 10
5.3682232342
 20
4.5894480192
 10
5.3728223705
 20
4.5904468888
 10
5.3729484898
 20
4.5906417902
  0
LWPOLYLINE
  5
56F
100
AcDbEntity
  8
0
100
AcDbPolyline
 62
7
  6
CONTINUOUS
 90
15
 70
0
 10
4.2005082406
 20
4.5025463664
 10
4.207037795
 20
4.503545236
 10
4.2201039862
 20
4.5045441056
 10
4.2395593783
 20
4.5055429752
 10
4.2651844417
 20
4.5065418447
 10
4.2966900296
 20
4.5075407143
 10
4.3337206408
 20
4.5085395839
 10
4.3758584312
 20
4.5095384534
 10
4.4226279285
 20
4.510537323
 10
4.4735013975
 20
4.5115361926
 10
4.5279047946
 20
4.5125350622
 10
4.5852242457
 20
4.5135339317
 10
4.6448129724
 20
4.5145328013
 10
4.7059985904
 20
4.5155316709
 10
4.8303886592
 20
4.51752941
  0
LINE
  5
570
100
AcDbEntity
  8
0
100
AcDbLine
 62
7
  6
CONTINUOUS
 10
4.6159071233
 20
4.6631944638
 11
4.6788322001
 21
4.6643030879
  0
LINE
  5
571
100
AcDbEntity
  8
0
100
AcDbLine
 62
7
  6
CONTINUOUS
 10
4.6788322001
 20
4.6643030879
 11
4.7287082224
 21
4.6651646067
  0
LWPOLYLINE
  5
572
100
AcDbEntity
  8
0
100
AcDbPolyline
 62
7
  6
CONTINUOUS
 90
16
 70
0
 10
4.8438766501
 20
4.5382632067
 10
4.7288335843
 20
4.5362978776
 10
4.6716132503
 20
4.5353095186
 10
4.6155527126
 20
4.5343192295
 10
4.5615712164
 20
4.5333323943
 10
4.5102603335
 20
4.532349404
 10
4.4617956464
 20
4.531362811
 10
4.4169577219
 20
4.5303774617
 10
4.3763211443
 20
4.5293958222
 10
4.340151392
 20
4.5284141371
 10
4.3087872044
 20
4.5274304897
 10
4.2826839964
 20
4.5264483241
 10
4.2620517328
 20
4.5254648433
 10
4.2471679228
 20
4.5244824544
 10
4.238173338
 20
4.5235007715
 10
4.2353934669
 20
4.5227939267
  0
LWPOLYLINE
  5
573
100
AcDbEntity
  8
0
100
AcDbPolyline
 62
7
  6
CONTINUOUS
 90
16
 70
0
 10
4.7287984098
 20
4.5470559168
 10
4.843821417
 20
4.5490209021
 10
4.9008494761
 20
4.5500059052
 10
4.956814051
 20
4.5509943703
 10
5.0107884118
 20
4.551980849
 10
5.0621675615
 20
4.5529648671
 10
5.1107651406
 20
4.5539539273
 10
5.1557811437
 20
4.5549431653
 10
5.1965120605
 20
4.5559273913
 10
5.2326772461
 20
4.5569095251
 10
5.2640376898
 20
4.5578938626
 10
5.290127873
 20
4.558876706
 10
5.310738221
 20
4.5598608817
 10
5.3255906558
 20
4.5608439589
 10
5.3345502979
 20
4.5618272549
 10
5.3372751663
 20
4.5625250867
  0
LWPOLYLINE
  5
574
100
AcDbEntity
  8
0
100
AcDbPolyline
 62
7
  6
CONTINUOUS
 90
16
 70
0
 10
4.843821417
 20
4.5973173778
 10
4.7287984098
 20
4.5953523926
 10
4.6718700176
 20
4.594369113
 10
4.6162357655
 20
4.5933865956
 10
4.5624029565
 20
4.59240304
 10
4.5111063592
 20
4.5914211818
 10
4.462802296
 20
4.5904391492
 10
4.417933189
 20
4.5894549669
 10
4.377052426
 20
4.5884695788
 10
4.3407519567
 20
4.5874866759
 10
4.3091477232
 20
4.5864979055
 10
4.2827384098
 20
4.5855057257
 10
4.2619731037
 20
4.5845156132
 10
4.2471041747
 20
4.5835323307
 10
4.2381314358
 20
4.5825490308
 10
4.2353934669
 20
4.5818490448
  0
LWPOLYLINE
  5
575
100
AcDbEntity
  8
0
100
AcDbPolyline
 62
7
  6
CONTINUOUS
 90
16
 70
0
 10
4.7287615737
 20
4.6061104034
 10
4.8438930781
 20
4.6080772489
 10
4.9009021907
 20
4.6090619422
 10
4.9565023031
 20
4.6100438988
 10
5.0102772539
 20
4.6110264257
 10
5.0615823814
 20
4.6120084635
 10
5.1099568243
 20
4.6129920065
 10
5.1547211232
 20
4.6139739544
 10
5.1955327447
 20
4.6149575462
 10
5.2317993337
 20
4.6159391751
 10
5.263236472
 20
4.6169216612
 10
5.2895935626
 20
4.6179094238
 10
5.3104085324
 20
4.6188977953
 10
5.3253769783
 20
4.6198815422
 10
5.3344541195
 20
4.6208666662
 10
5.3372751663
 20
4.6215802048
  0
LWPOLYLINE
  5
576
100
AcDbEntity
  8
0
100
AcDbPolyline
 62
7
  6
CONTINUOUS
 90
16
 70
0
 10
4.8438930781
 20
4.6563737246
 10
4.7287615737
 20
4.6544068791
 10
4.6717977148
 20
4.6534229706
 10
4.6161300776
 20
4.6524398189
 10
4.5622676766
 20
4.6514556334
 10
4.5109356213
 20
4.6504729392
 10
4.4625354654
 20
4.6494886459
 10
4.4177511773
 20
4.6485059114
 10
4.376930675
 20
4.6475215966
 10
4.3406458213
 20
4.6465387185
 10
4.3091529889
 20
4.645553203
 10
4.282918364
 20
4.6445683866
 10
4.2622446922
 20
4.643585724
 10
4.2472940234
 20
4.642603019
 10
4.2382232745
 20
4.6416191199
 10
4.2353934669
 20
4.6409041629
  0
LWPOLYLINE
  5
577
100
AcDbEntity
  8
0
100
AcDbPolyline
 62
7
  6
CONTINUOUS
 90
16
 70
0
 10
4.7287082224
 20
4.6651646067
 10
4.8440284917
 20
4.6671346888
 10
4.9014042095
 20
4.668125813
 10
4.9574990493
 20
4.6691168923
 10
5.0114037285
 20
4.6701025766
 10
5.0626474584
 20
4.6710845582
 10
5.1109550835
 20
4.6720681707
 10
5.1556423879
 20
4.6730502137
 10
5.1963657481
 20
4.6740338933
 10
5.2325468023
 20
4.6750159712
 10
5.2639187214
 20
4.6760000336
 10
5.2900258005
 20
4.6769826537
 10
5.3106367903
 20
4.6779655056
 10
5.3255122836
 20
4.6789477458
 10
5.3345103467
 20
4.6799309363
 10
5.3372751663
 20
4.6806353229
  0
LINE
  5
578
100
AcDbEntity
  8
0
100
AcDbLine
 62
7
  6
CONTINUOUS
 10
5.3727227318
 20
4.2956269662
 11
5.3375755129
 21
4.3159275339
  0
LINE
  5
579
100
AcDbEntity
  8
0
100
AcDbLine
 62
7
  6
CONTINUOUS
 10
5.3727227318
 20
4.3546820843
 11
5.3375755129
 21
4.374982652
  0
LINE
  5
57A
100
AcDbEntity
  8
0
100
AcDbLine
 62
7
  6
CONTINUOUS
 10
5.3727227318
 20
4.4137372024
 11
5.3375755129
 21
4.4340377702
  0
LINE
  5
57B
100
AcDbEntity
  8
0
100
AcDbLine
 62
7
  6
CONTINUOUS
 10
5.3729484898
 20
4.1772559634
 11
5.3727227318
 21
4.17751673
  0
LINE
  5
57C
100
AcDbEntity
  8
0
100
AcDbLine
 62
7
  6
CONTINUOUS
 10
5.3729484898
 20
4.2363110815
 11
5.3727227318
 21
4.2365718481
  0
LINE
  5
57D
100
AcDbEntity
  8
0
100
AcDbLine
 62
7
  6
CONTINUOUS
 10
5.3729484898
 20
4.2953661996
 11
5.3727227318
 21
4.2956269662
  0
LWPOLYLINE
  5
57E
100
AcDbEntity
  8
0
100
AcDbPolyline
 62
7
  6
CONTINUOUS
 90
31
 70
0
 10
4.1999459014
 20
4.6794852339
 10
4.2038851733
 20
4.6803451503
 10
4.2145731469
 20
4.6813440198
 10
4.2317127301
 20
4.6823428894
 10
4.2551105242
 20
4.683341759
 10
4.2845025143
 20
4.6843406285
 10
4.3195570486
 20
4.6853394981
 10
4.3598785806
 20
4.6863383677
 10
4.405012132
 20
4.6873372373
 10
4.4544484274
 20
4.6883361068
 10
4.5076296398
 20
4.6893349764
 10
4.563955686
 20
4.690333846
 10
4.6227909968
 20
4.6913327155
 10
4.6834716895
 20
4.6923315851
 10
4.7453130582
 20
4.6933304547
 10
4.8076173005
 20
4.6943293243
 10
4.8696813909
 20
4.6953281938
 10
4.9308050139
 20
4.6963270634
 10
4.9902984658
 20
4.697325933
 10
5.0474904373
 20
4.6983248026
 10
5.1017355887
 20
4.6993236721
 10
5.1524218313
 20
4.7003225417
 10
5.1989772342
 20
4.7013214113
 10
5.2408764778
 20
4.7023202808
 10
5.2776467818
 20
4.7033191504
 10
5.3088732391
 20
4.70431802
 10
5.3342034983
 20
4.7053168896
 10
5.3533517391
 20
4.7063157591
 10
5.3661018975
 20
4.7073146287
 10
5.3723101039
 20
4.7083134983
 10
5.3729484898
 20
4.7087520264
  0
LWPOLYLINE
  5
57F
100
AcDbEntity
  8
0
100
AcDbPolyline
 62
7
  6
CONTINUOUS
 90
31
 70
0
 10
4.1999459014
 20
4.6204301158
 10
4.2048384329
 20
4.6214118455
 10
4.2163211188
 20
4.6224107151
 10
4.2342356907
 20
4.6234095847
 10
4.2583800049
 20
4.6244084542
 10
4.2884816232
 20
4.6254073238
 10
4.3242008864
 20
4.6264061934
 10
4.3651347473
 20
4.6274050629
 10
4.4108213185
 20
4.6284039325
 10
4.4607450842
 20
4.6294028021
 10
4.5143427171
 20
4.6304016717
 10
4.571009435
 20
4.6314005412
 10
4.6301058249
 20
4.6323994108
 10
4.6909650578
 20
4.6333982804
 10
4.7529004136
 20
4.6343971499
 10
4.8152130291
 20
4.6353960195
 10
4.8771997845
 20
4.6363948891
 10
4.9381612367
 20
4.6373937587
 10
4.9974095121
 20
4.6383926282
 10
5.0542760679
 20
4.6393914978
 10
5.1081192362
 20
4.6403903674
 10
5.1583314641
 20
4.6413892369
 10
5.2043461696
 20
4.6423881065
 10
5.2456441341
 20
4.6433869761
 10
5.2817593619
 20
4.6443858457
 10
5.3122843377
 20
4.6453847152
 10
5.3368746254
 20
4.6463835848
 10
5.3552527544
 20
4.6473824544
 10
5.3672113504
 20
4.648381324
 10
5.3726154757
 20
4.6493801935
 10
5.3729484898
 20
4.6496969083
  0
LWPOLYLINE
  5
580
100
AcDbEntity
  8
0
100
AcDbPolyline
 62
7
  6
CONTINUOUS
 90
16
 70
0
 10
4.8440284917
 20
4.7154311646
 10
4.7287082224
 20
4.7134610825
 10
4.6715908601
 20
4.7124744825
 10
4.6159071233
 20
4.7114909395
 10
4.5621375476
 20
4.7105083226
 10
4.5108095925
 20
4.7095255761
 10
4.4624193063
 20
4.7085413161
 10
4.4176471214
 20
4.7075586428
 10
4.376837022
 20
4.7065743292
 10
4.3405801923
 20
4.7055919342
 10
4.3091910795
 20
4.7046096188
 10
4.2829053291
 20
4.7036229588
 10
4.2621377893
 20
4.7026349495
 10
4.247204346
 20
4.7016507975
 10
4.2381626686
 20
4.7006643839
 10
4.2353934669
 20
4.699959281
  0
LWPOLYLINE
  5
581
100
AcDbEntity
  8
0
100
AcDbPolyline
 62
7
  6
CONTINUOUS
 90
16
 70
0
 10
4.7288681876
 20
4.7242224676
 10
4.8438648374
 20
4.7261870009
 10
4.9007881859
 20
4.7271701911
 10
4.9564175755
 20
4.7281526161
 10
5.010246035
 20
4.7291360793
 10
5.06152625
 20
4.730117595
 10
5.1098341939
 20
4.7310996597
 10
5.1547947984
 20
4.7320858798
 10
5.1957087065
 20
4.7330722623
 10
5.2319968883
 20
4.7340551341
 10
5.2635579446
 20
4.7350428423
 10
5.2899106961
 20
4.736032941
 10
5.3106252479
 20
4.7370199857
 10
5.3254942726
 20
4.7380013847
 10
5.3345013481
 20
4.738984584
 10
5.3372751663
 20
4.739690441
  0
LWPOLYLINE
  5
582
100
AcDbEntity
  8
0
100
AcDbPolyline
 62
7
  6
CONTINUOUS
 90
16
 70
0
 10
4.8438648374
 20
4.7744834766
 10
4.7288681876
 20
4.7725189433
 10
4.6719974916
 20
4.7715366894
 10
4.61617246
 20
4.770550815
 10
4.562268942
 20
4.7695658932
 10
4.5108969627
 20
4.7685824143
 10
4.4622503678
 20
4.7675928732
 10
4.4171398011
 20
4.7666021166
 10
4.3762933951
 20
4.7656155866
 10
4.3401359683
 20
4.7646341615
 10
4.3087766114
 20
4.7636506004
 10
4.2826783403
 20
4.7626685592
 10
4.2620485734
 20
4.7616851412
 10
4.2471672659
 20
4.7607028729
 10
4.2381635705
 20
4.7597196494
 10
4.2353934669
 20
4.7590143991
  0
LWPOLYLINE
  5
583
100
AcDbEntity
  8
0
100
AcDbPolyline
 62
7
  6
CONTINUOUS
 90
16
 70
0
 10
4.7287675669
 20
4.7832758604
 10
4.8439357266
 20
4.7852433345
 10
4.9012749284
 20
4.786233795
 10
4.9574014999
 20
4.7872253786
 10
5.0113977136
 20
4.7882127005
 10
5.0626788671
 20
4.7891954134
 10
5.1110749968
 20
4.7901809374
 10
5.1558166919
 20
4.7911644546
 10
5.1964526629
 20
4.7921463476
 10
5.2326107783
 20
4.793128066
 10
5.2639584785
 20
4.794111628
 10
5.2900451841
 20
4.795093704
 10
5.3106613954
 20
4.7960771023
 10
5.3255294465
 20
4.7970593926
 10
5.3345070549
 20
4.7980406344
 10
5.3372751663
 20
4.7987455591
  0
LWPOLYLINE
  5
584
100
AcDbEntity
  8
0
100
AcDbPolyline
 62
7
  6
CONTINUOUS
 90
14
 70
0
 10
4.8595371761
 20
4.7468374197
 10
4.9207027242
 20
4.7478336524
 10
4.9803600797
 20
4.7488298852
 10
5.03783963
 20
4.7498261179
 10
5.0924962067
 20
4.7508223507
 10
5.1437163275
 20
4.7518185834
 10
5.190925082
 20
4.7528148162
 10
5.2335925844
 20
4.7538110489
 10
5.2712399215
 20
4.7548072817
 10
5.3034445279
 20
4.7558035144
 10
5.3298449292
 20
4.7567997472
 10
5.350144799
 20
4.7577959799
 10
5.3641162853
 20
4.7587922127
 10
5.3716025679
 20
4.7597884454
  0
LWPOLYLINE
  5
585
100
AcDbEntity
  8
0
100
AcDbPolyline
 62
7
  6
CONTINUOUS
 90
15
 70
0
 10
4.8572251463
 20
4.7541819828
 10
4.9182920724
 20
4.7551758826
 10
4.9778847861
 20
4.7561697824
 10
5.0353375264
 20
4.7571636823
 10
5.0900084398
 20
4.7581575821
 10
5.141286751
 20
4.7591514819
 10
5.1885995864
 20
4.7601453818
 10
5.231418374
 20
4.7611392816
 10
5.2692647487
 20
4.7621331814
 10
5.3017158963
 20
4.7631270813
 10
5.3284092775
 20
4.7641209811
 10
5.3490466778
 20
4.7651148809
 10
5.3633975393
 20
4.7661087808
 10
5.3713015362
 20
4.7671026806
 10
5.3729484898
 20
4.7678071445
  0
LWPOLYLINE
  5
586
100
AcDbEntity
  8
0
100
AcDbPolyline
 62
7
  6
CONTINUOUS
 90
16
 70
0
 10
4.7182143689
 20
4.8036226864
 10
4.8423306425
 20
4.8056151519
 10
4.9037944711
 20
4.8066113847
 10
4.9639398905
 20
4.8076076174
 10
5.0220918099
 20
4.8086038502
 10
5.0775975143
 20
4.8096000829
 10
5.1298339902
 20
4.8105963157
 10
5.1782149195
 20
4.8115925484
 10
5.2221972595
 20
4.8125887812
 10
5.2612873389
 20
4.8135850139
 10
5.2950463984
 20
4.8145812467
 10
5.323095516
 20
4.8155774794
 10
5.3451198596
 20
4.8165737122
 10
5.3608722213
 20
4.8175699449
 10
5.3701757916
 20
4.8185661777
 10
5.3727227318
 20
4.8192196062
  0
LWPOLYLINE
  5
587
100
AcDbEntity
  8
0
100
AcDbPolyline
 62
7
  6
CONTINUOUS
 90
16
 70
0
 10
4.8314511122
 20
4.8128220729
 10
4.8929323948
 20
4.8138159727
 10
4.9532227795
 20
4.8148098726
 10
5.011648711
 20
4.8158037724
 10
5.0675574637
 20
4.8167976722
 10
5.1203244332
 20
4.8177915721
 10
5.1693601147
 20
4.8187854719
 10
5.2141166889
 20
4.8197793717
 10
5.254094142
 20
4.8207732716
 10
5.2888458519
 20
4.8217671714
 10
5.3179835776
 20
4.8227610712
 10
5.3411817968
 20
4.8237549711
 10
5.3581813423
 20
4.8247488709
 10
5.3687922979
 20
4.8257427707
 10
5.3728961195
 20
4.8267366706
 10
5.3729484898
 20
4.8268622626
  0
LINE
  5
588
100
AcDbEntity
  8
0
100
AcDbLine
 62
7
  6
CONTINUOUS
 10
5.3727227318
 20
4.4727923205
 11
5.3375755129
 21
4.4930928883
  0
LINE
  5
589
100
AcDbEntity
  8
0
100
AcDbLine
 62
7
  6
CONTINUOUS
 10
5.3727227318
 20
4.5318474386
 11
5.3375755129
 21
4.5521480064
  0
LINE
  5
58A
100
AcDbEntity
  8
0
100
AcDbLine
 62
7
  6
CONTINUOUS
 10
5.3727227318
 20
4.5909025567
 11
5.3375755129
 21
4.6112031245
  0
LINE
  5
58B
100
AcDbEntity
  8
0
100
AcDbLine
 62
7
  6
CONTINUOUS
 10
5.3729484898
 20
4.3544213177
 11
5.3727227318
 21
4.3546820843
  0
LINE
  5
58C
100
AcDbEntity
  8
0
100
AcDbLine
 62
7
  6
CONTINUOUS
 10
5.3729484898
 20
4.4134764358
 11
5.3727227318
 21
4.4137372024
  0
LINE
  5
58D
100
AcDbEntity
  8
0
100
AcDbLine
 62
7
  6
CONTINUOUS
 10
5.3729484898
 20
4.4725315539
 11
5.3727227318
 21
4.4727923205
  0
LINE
  5
58E
100
AcDbEntity
  8
0
100
AcDbLine
 62
7
  6
CONTINUOUS
 10
5.3729484898
 20
4.531586672
 11
5.3727227318
 21
4.5318474386
  0
LWPOLYLINE
  5
58F
100
AcDbEntity
  8
0
100
AcDbPolyline
 62
7
  6
CONTINUOUS
 90
16
 70
0
 10
4.1999459014
 20
4.738540352
 10
4.2029969265
 20
4.7392734853
 10
4.2127906683
 20
4.7402673851
 10
4.2289919545
 20
4.7412612849
 10
4.2514197868
 20
4.7422551848
 10
4.2798236047
 20
4.7432490846
 10
4.3138860849
 20
4.7442429844
 10
4.3532266866
 20
4.7452368843
 10
4.3974059024
 20
4.7462307841
 10
4.4459301686
 20
4.7472246839
 10
4.4982573794
 20
4.7482185838
 10
4.5538029428
 20
4.7492124836
 10
4.6119463123
 20
4.7502063834
 10
4.6720379186
 20
4.7512002833
 10
4.7334064273
 20
4.7521941831
 10
4.8572251463
 20
4.7541819828
  0
LWPOLYLINE
  5
590
100
AcDbEntity
  8
0
100
AcDbPolyline
 62
7
  6
CONTINUOUS
 90
31
 70
0
 10
4.1999459014
 20
4.8566505882
 10
4.2041648479
 20
4.8575475654
 10
4.2150243346
 20
4.8585414652
 10
4.2322664116
 20
4.8595353651
 10
4.2556984529
 20
4.8605292649
 10
4.2850586791
 20
4.8615231647
 10
4.3200190823
 20
4.8625170646
 10
4.36018909
 20
4.8635109644
 10
4.4051199288
 20
4.8645048642
 10
4.4543096381
 20
4.8654987641
 10
4.5072086778
 20
4.8664926639
 10
4.5632260676
 20
4.8674865637
 10
4.6217359896
 20
4.8684804636
 10
4.6820847797
 20
4.8694743634
 10
4.7435982301
 20
4.8704682632
 10
4.8055891217
 20
4.8714621631
 10
4.8673649015
 20
4.8724560629
 10
4.9282354196
 20
4.8734499627
 10
4.9875206397
 20
4.8744438626
 10
5.0445582361
 20
4.8754377624
 10
5.0987109933
 20
4.8764316622
 10
5.1493739246
 20
4.8774255621
 10
5.1959810314
 20
4.8784194619
 10
5.238011626
 20
4.8794133617
 10
5.2749961488
 20
4.8804072616
 10
5.3065214142
 20
4.8814011614
 10
5.3322352267
 20
4.8823950612
 10
5.3518503154
 20
4.8833889611
 10
5.3651475433
 20
4.8843828609
 10
5.3719783559
 20
4.8853767607
 10
5.3729484898
 20
4.8859173807
  0
LWPOLYLINE
  5
591
100
AcDbEntity
  8
0
100
AcDbPolyline
 62
7
  6
CONTINUOUS
 90
15
 70
0
 10
4.2008323739
 20
4.7979135754
 10
4.2079139356
 20
4.7989074752
 10
4.2214575239
 20
4.7999013751
 10
4.2413118317
 20
4.8008952749
 10
4.2672550498
 20
4.8018891747
 10
4.2989973442
 20
4.8028830746
 10
4.3361840949
 20
4.8038769744
 10
4.378399857
 20
4.8048708742
 10
4.4251730022
 20
4.8058647741
 10
4.475980988
 20
4.8068586739
 10
4.530256195
 20
4.8078525737
 10
4.5873922687
 20
4.8088464736
 10
4.6467508934
 20
4.8098403734
 10
4.7076689234
 20
4.8108342732
 10
4.8314511122
 20
4.8128220729
  0
LWPOLYLINE
  5
592
100
AcDbEntity
  8
0
100
AcDbPolyline
 62
7
  6
CONTINUOUS
 90
13
 70
0
 10
5.6918461276
 20
4.9712671743
 10
5.7048568581
 20
4.9721477597
 10
5.7173458709
 20
4.9749973889
 10
5.7288484186
 20
4.9800016076
 10
5.7390840792
 20
4.9872172063
 10
5.7477671706
 20
4.9964407331
 10
5.7547776561
 20
5.0072462922
 10
5.7602695085
 20
5.0193475959
 10
5.7643917421
 20
5.0324134056
 10
5.7673344164
 20
5.0462502778
 10
5.7692755762
 20
5.0608664525
 10
5.7703291261
 20
5.0762635698
 10
5.7705862851
 20
5.0893774105
  0
LINE
  5
593
100
AcDbEntity
  8
0
100
AcDbLine
 62
7
  6
CONTINUOUS
 10
4.2324147921
 20
4.9112158235
 11
4.2559531762
 21
4.9122120562
  0
LWPOLYLINE
  5
594
100
AcDbEntity
  8
0
100
AcDbPolyline
 62
7
  6
CONTINUOUS
 90
16
 70
0
 10
4.8439357266
 20
4.8335398102
 10
4.7287675669
 20
4.8315723362
 10
4.6718094783
 20
4.83058853
 10
4.616147284
 20
4.8296054817
 10
4.5622893611
 20
4.8286213924
 10
4.5109413384
 20
4.827638406
 10
4.4625015594
 20
4.8266532858
 10
4.4177131562
 20
4.8256703937
 10
4.3769269767
 20
4.8246868568
 10
4.3406536872
 20
4.8237043008
 10
4.3091967801
 20
4.8227200492
 10
4.2830021487
 20
4.8217372481
 10
4.2622826968
 20
4.8207531705
 10
4.2473157365
 20
4.8197701464
 10
4.2382424213
 20
4.8187875672
 10
4.2353934669
 20
4.8180695173
  0
LWPOLYLINE
  5
595
100
AcDbEntity
  8
0
100
AcDbPolyline
 62
7
  6
CONTINUOUS
 90
16
 70
0
 10
4.7287615359
 20
4.8423308751
 10
4.8438702332
 20
4.8442973296
 10
4.9007627918
 20
4.8452799846
 10
4.9565392581
 20
4.8462650338
 10
5.0104464336
 20
4.8472500556
 10
5.0617858336
 20
4.8482329409
 10
5.1101816222
 20
4.8492172153
 10
5.1549617097
 20
4.8501999437
 10
5.195778581
 20
4.8511842782
 10
5.2320510079
 20
4.8521669389
 10
5.263504498
 20
4.8531512574
 10
5.2896946014
 20
4.854134123
 10
5.3104085513
 20
4.8551182688
 10
5.3253695363
 20
4.8561014067
 10
5.3344464279
 20
4.8570858933
 10
5.3372751663
 20
4.8578006772
  0
LWPOLYLINE
  5
596
100
AcDbEntity
  8
0
100
AcDbPolyline
 62
7
  6
CONTINUOUS
 90
16
 70
0
 10
4.8437586016
 20
4.8925918914
 10
4.7287615359
 20
4.8906273509
 10
4.6717976406
 20
4.8896434418
 10
4.616129951
 20
4.8886602891
 10
4.5622681019
 20
4.8876761137
 10
4.5109697513
 20
4.8866940835
 10
4.4625675944
 20
4.8857097953
 10
4.4175153497
 20
4.8847209739
 10
4.3765729533
 20
4.8837329535
 10
4.3403051351
 20
4.8827493096
 10
4.3088008734
 20
4.8817616652
 10
4.2825307061
 20
4.8807725934
 10
4.2619064746
 20
4.8797875143
 10
4.2470763888
 20
4.8788056323
 10
4.2381136034
 20
4.8778216879
 10
4.2353934669
 20
4.8771246354
  0
LWPOLYLINE
  5
597
100
AcDbEntity
  8
0
100
AcDbPolyline
 62
7
  6
CONTINUOUS
 90
11
 70
0
 10
4.7286692392
 20
4.9013844107
 10
4.8440069048
 20
4.9033547911
 10
4.9012344179
 20
4.9043433249
 10
4.9570683746
 20
4.9053296398
 10
5.0108054975
 20
4.9063118767
 10
5.0621290839
 20
4.9072948179
 10
5.1105091934
 20
4.9082792383
 10
5.1552697914
 20
4.9092621306
 10
5.1960626354
 20
4.9102466348
 10
5.2323013666
 20
4.911229318
 10
5.2636711533
 20
4.9122120562
  0
LINE
  5
598
100
AcDbEntity
  8
0
100
AcDbLine
 62
7
  6
CONTINUOUS
 10
5.2636711533
 20
4.9122120562
 11
4.1997221581
 21
4.9122120562
  0
LINE
  5
599
100
AcDbEntity
  8
0
100
AcDbLine
 62
9
  6
CONTINUOUS
 10
4.2351532142
 20
4.9318970956
 11
5.3375154189
 21
4.9318970956
  0
LINE
  5
59A
100
AcDbEntity
  8
0
100
AcDbLine
 62
7
  6
CONTINUOUS
 10
5.3727227318
 20
4.6499576749
 11
5.3375755129
 21
4.6702582426
  0
LINE
  5
59B
100
AcDbEntity
  8
0
100
AcDbLine
 62
7
  6
CONTINUOUS
 10
5.3727227318
 20
4.709012793
 11
5.3375755129
 21
4.7293133607
  0
LINE
  5
59C
100
AcDbEntity
  8
0
100
AcDbLine
 62
7
  6
CONTINUOUS
 10
5.3729484898
 20
4.5906417902
 11
5.3727227318
 21
4.5909025567
  0
LINE
  5
59D
100
AcDbEntity
  8
0
100
AcDbLine
 62
7
  6
CONTINUOUS
 10
5.3729484898
 20
4.6496969083
 11
5.3727227318
 21
4.6499576749
  0
LINE
  5
59E
100
AcDbEntity
  8
0
100
AcDbLine
 62
7
  6
CONTINUOUS
 10
5.3729484898
 20
4.7087520264
 11
5.3727227318
 21
4.709012793
  0
LWPOLYLINE
  5
59F
100
AcDbEntity
  8
0
100
AcDbPolyline
 62
7
  6
CONTINUOUS
 90
13
 70
0
 10
5.770586285
 20
5.886621505
 10
5.7703885341
 20
5.8998953573
 10
5.7696061548
 20
5.9150932549
 10
5.7681759419
 20
5.9295238697
 10
5.7660226427
 20
5.9431608252
 10
5.7630418768
 20
5.9559635757
 10
5.7590947637
 20
5.9678408154
 10
5.7539929958
 20
5.9786495363
 10
5.747606073
 20
5.9880163868
 10
5.7398421726
 20
5.9955725804
 10
5.7309351651
 20
6.0008796566
 10
5.7213056534
 20
6.0038480457
 10
5.7115311669
 20
6.0047317412
  0
LINE
  5
5A0
100
AcDbEntity
  8
02___PRT_ALL_AXES
100
AcDbLine
 62
7
  6
CONTINUOUS
 10
5.7705862851
 20
5.886621505
 11
5.7705862851
 21
5.0893774105
  0
LINE
  5
5A1
100
AcDbEntity
  8
0
100
AcDbLine
 62
7
  6
CONTINUOUS
 10
3.8808244212
 20
4.9712671743
 11
5.691844212
 21
4.9712671743
  0
LINE
  5
5A2
100
AcDbEntity
  8
0
100
AcDbLine
 62
9
  6
CONTINUOUS
 10
3.8020823481
 20
5.0893774105
 11
5.7705862851
 21
5.0893774105
  0
LINE
  5
5A3
100
AcDbEntity
  8
0
100
AcDbLine
 62
7
  6
CONTINUOUS
 10
5.3727227318
 20
4.7680679111
 11
5.3375755129
 21
4.7883684788
  0
LINE
  5
5A4
100
AcDbEntity
  8
0
100
AcDbLine
 62
7
  6
CONTINUOUS
 10
5.3727227318
 20
4.8271230292
 11
5.3375755129
 21
4.8474235969
  0
LINE
  5
5A5
100
AcDbEntity
  8
0
100
AcDbLine
 62
7
  6
CONTINUOUS
 10
5.3727227318
 20
4.8861781473
 11
5.3375755129
 21
4.906478715
  0
LINE
  5
5A6
100
AcDbEntity
  8
0
100
AcDbLine
 62
7
  6
CONTINUOUS
 10
5.3729484898
 20
4.7678071445
 11
5.3727227318
 21
4.7680679111
  0
LINE
  5
5A7
100
AcDbEntity
  8
0
100
AcDbLine
 62
7
  6
CONTINUOUS
 10
5.3729484898
 20
4.8268622626
 11
5.3727227318
 21
4.8271230292
  0
LINE
  5
5A8
100
AcDbEntity
  8
0
100
AcDbLine
 62
7
  6
CONTINUOUS
 10
5.3729484898
 20
4.8859173807
 11
5.3727227318
 21
4.8861781473
  0
LINE
  5
5A9
100
AcDbEntity
  8
0
100
AcDbLine
 62
9
  6
CONTINUOUS
 10
3.8020823481
 20
5.886621505
 11
5.7705862851
 21
5.886621505
  0
LWPOLYLINE
  5
5AA
100
AcDbEntity
  8
0
100
AcDbPolyline
 62
7
  6
CONTINUOUS
 90
13
 70
0
 10
3.8611374663
 20
6.0047317412
 10
3.8513629797
 20
6.0038480457
 10
3.841733468
 20
6.0008796566
 10
3.8328264606
 20
5.9955725804
 10
3.8250625601
 20
5.9880163868
 10
3.8186756374
 20
5.9786495363
 10
3.8135738695
 20
5.9678408154
 10
3.8096267564
 20
5.9559635757
 10
3.8066459905
 20
5.9431608252
 10
3.8044926913
 20
5.9295238697
 10
3.8030624783
 20
5.9150932549
 10
3.802280099
 20
5.8998953573
 10
3.8020823482
 20
5.886621505
  0
LINE
  5
5AB
100
AcDbEntity
  8
0
100
AcDbLine
 62
7
  6
CONTINUOUS
 10
3.8611374663
 20
6.0047317412
 11
5.7115311669
 21
6.0047317412
  0
LWPOLYLINE
  5
5AC
100
AcDbEntity
  8
0
100
AcDbPolyline
 62
9
  6
CONTINUOUS
 90
35
 70
0
 10
4.7863343166
 20
7.1861958473
 10
4.8715835036
 20
7.190131827
 10
4.9562615359
 20
7.2019346189
 10
5.039447763
 20
7.2214922581
 10
5.1204852099
 20
7.2486456947
 10
5.1986685857
 20
7.2831598453
 10
5.2733343201
 20
7.3247414374
 10
5.3438444087
 20
7.3730352598
 10
5.4095974265
 20
7.4276293576
 10
5.4700322629
 20
7.4880578535
 10
5.5246332533
 20
7.5538051348
 10
5.572934496
 20
7.6243101911
 10
5.6145238477
 20
7.6989714186
 10
5.6490464349
 20
7.7771517487
 10
5.676207684
 20
7.8581840854
 10
5.6957758337
 20
7.9413769971
 10
5.7075839133
 20
8.0260206166
 10
5.7115311669
 20
8.1113926977
 10
5.7075839134
 20
8.1967647789
 10
5.6957758339
 20
8.2814083984
 10
5.6762076843
 20
8.3646013102
 10
5.6490464353
 20
8.445633647
 10
5.6145238481
 20
8.5238139772
 10
5.5729344966
 20
8.5984752047
 10
5.5246332539
 20
8.6689802611
 10
5.4700322635
 20
8.7347275426
 10
5.4095974271
 20
8.7951560386
 10
5.3438444093
 20
8.8497501365
 10
5.2733343206
 20
8.898043959
 10
5.1986685863
 20
8.9396255514
 10
5.1204852102
 20
8.9741397015
 10
5.0394477617
 20
9.0012931329
 10
4.9562615347
 20
9.0208507704
 10
4.8715835073
 20
9.0326536087
 10
4.7863343166
 20
9.0365895481
  0
LINE
  5
5AD
100
AcDbEntity
  8
02___PRT_ALL_AXES
100
AcDbLine
 62
7
  6
CENTER
 10
4.7863343166
 20
8.1113926977
 11
4.7863343166
 21
7.0271407292
  0
LINE
  5
5AE
100
AcDbEntity
  8
02___PRT_ALL_AXES
100
AcDbLine
 62
7
  6
CENTER
 10
4.7863343166
 20
8.1113926977
 11
4.7863343166
 21
9.1956446662
  0
LINE
  5
5AF
100
AcDbEntity
  8
02___PRT_ALL_AXES
100
AcDbLine
 62
7
  6
CENTER
 10
4.7863343166
 20
8.1113926977
 11
3.7020823481
 21
8.1113926977
  0
LINE
  5
5B0
100
AcDbEntity
  8
02___PRT_ALL_AXES
100
AcDbLine
 62
7
  6
CENTER
 10
4.7863343166
 20
8.1113926977
 11
5.8705862851
 21
8.1113926977
  0
LWPOLYLINE
  5
5B1
100
AcDbEntity
  8
0
100
AcDbPolyline
 62
9
  6
CONTINUOUS
 90
35
 70
0
 10
4.7863343166
 20
9.0365895481
 10
4.7010851296
 20
9.0326535685
 10
4.6164070973
 20
9.0208507766
 10
4.5332208702
 20
9.0012931373
 10
4.4521834233
 20
8.9741397008
 10
4.3740000475
 20
8.9396255502
 10
4.2993343131
 20
8.8980439581
 10
4.2288242244
 20
8.8497501357
 10
4.1630712067
 20
8.7951560379
 10
4.1026363702
 20
8.734727542
 10
4.0480353799
 20
8.6689802607
 10
3.9997341371
 20
8.5984752044
 10
3.9581447855
 20
8.5238139769
 10
3.9236221982
 20
8.4456336468
 10
3.8964609492
 20
8.3646013101
 10
3.8768927994
 20
8.2814083983
 10
3.8650847198
 20
8.1967647789
 10
3.8611374663
 20
8.1113926977
 10
3.8650847197
 20
8.0260206166
 10
3.8768927992
 20
7.9413769971
 10
3.8964609489
 20
7.8581840853
 10
3.9236221979
 20
7.7771517485
 10
3.958144785
 20
7.6989714183
 10
3.9997341366
 20
7.6243101908
 10
4.0480353793
 20
7.5538051344
 10
4.1026363696
 20
7.4880578529
 10
4.1630712061
 20
7.4276293569
 10
4.2288242238
 20
7.373035259
 10
4.2993343125
 20
7.3247414365
 10
4.3740000469
 20
7.2831598441
 10
4.452183423
 20
7.248645694
 10
4.5332208697
 20
7.2214922564
 10
4.6164070984
 20
7.2019346251
 10
4.7010851267
 20
7.1901317962
 10
4.7863343166
 20
7.1861958473
  0
LWPOLYLINE
  5
5B2
100
AcDbEntity
  8
AXIS
100
AcDbPolyline
 62
7
  6
CONTINUOUS
 90
7
 70
0
 10
12.3422498164
 20
8.6726501907
 10
12.2574602908
 20
8.6161554548
 10
12.1874597559
 20
8.5532690787
 10
12.1336732206
 20
8.4852712478
 10
12.0971956236
 20
8.4135462019
 10
12.0787695438
 20
8.339554056
 10
12.0764664866
 20
8.3021797459
  0
LWPOLYLINE
  5
5B3
100
AcDbEntity
  8
02___PRT_ALL_AXES
100
AcDbPolyline
 62
7
  6
CONTINUOUS
 90
18
 70
0
 10
12.9079243099
 20
5.1374219537
 10
12.9195159816
 20
5.1316230403
 10
12.9324190992
 20
5.1268355735
 10
12.9463709925
 20
5.1231570123
 10
12.9610876411
 20
5.1206622416
 10
12.9762694567
 20
5.1194020478
 10
12.9916073811
 20
5.1194020846
 10
13.0067891784
 20
5.1206623515
 10
13.0215057911
 20
5.1231571929
 10
13.0354576313
 20
5.1268358212
 10
13.0483606799
 20
5.13162335
 10
13.0599522679
 20
5.1374223191
 10
13.0699964241
 20
5.1441146782
 10
13.0782886783
 20
5.1515641901
 10
13.0846602243
 20
5.1596192043
 10
13.0889813557
 20
5.1681157439
 10
13.0911641067
 20
5.1768808439
 10
13.0914369265
 20
5.1813081998
  0
LINE
  5
5B4
100
AcDbEntity
  8
0
100
AcDbLine
 62
9
  6
CONTINUOUS
 10
12.0764576575
 20
8.2578268812
 11
12.0758049448
 21
8.2546750155
  0
LINE
  5
5B5
100
AcDbEntity
  8
02___PRT_ALL_AXES
100
AcDbLine
 62
7
  6
CONTINUOUS
 10
11.9996860039
 20
8.2206902293
 11
11.9996860039
 21
7.5697384992
  0
LINE
  5
5B6
100
AcDbEntity
  8
0
100
AcDbLine
 62
7
  6
CONTINUOUS
 10
11.9996860039
 20
7.5697385285
 11
11.999686004
 21
7.5697306309
  0
LINE
  5
5B7
100
AcDbEntity
  8
0
100
AcDbLine
 62
7
  6
CONTINUOUS
 10
11.9996860039
 20
8.2206902703
 11
11.9996860044
 21
8.2206736448
  0
LWPOLYLINE
  5
5B8
100
AcDbEntity
  8
0
100
AcDbPolyline
 62
9
  6
CONTINUOUS
 90
10
 70
0
 10
11.999686004
 20
7.5697306309
 10
12.0007393787
 20
7.5434554021
 10
12.0091353235
 20
7.4911865972
 10
12.0258497909
 20
7.4395879185
 10
12.0507403259
 20
7.3890995489
 10
12.0835942685
 20
7.340152908
 10
12.1241330534
 20
7.2931636887
 10
12.1720032102
 20
7.2485402064
 10
12.2268123308
 20
7.2066492576
 10
12.2879696287
 20
7.1679233871
  0
LWPOLYLINE
  5
5B9
100
AcDbEntity
  8
0
100
AcDbPolyline
 62
9
  6
CONTINUOUS
 90
10
 70
0
 10
11.9996860044
 20
8.2206736448
 10
12.0007397986
 20
8.1944018969
 10
12.0091363578
 20
8.1421340495
 10
12.0258511754
 20
8.0905362516
 10
12.0507418371
 20
8.0400486768
 10
12.0835957306
 20
7.991102727
 10
12.1241343419
 20
7.9441140837
 10
12.1720043075
 20
7.899491012
 10
12.2268129812
 20
7.8576005358
 10
12.2879696287
 20
7.8188751173
  0
LWPOLYLINE
  5
5BA
100
AcDbEntity
  8
0
100
AcDbPolyline
 62
7
  6
CONTINUOUS
 90
13
 70
0
 10
11.999686192
 20
7.5697308739
 10
12.0008625674
 20
7.5338838671
 10
12.0053015522
 20
7.4928245735
 10
12.0132683408
 20
7.4522245387
 10
12.0250646995
 20
7.4118817923
 10
12.0411048532
 20
7.3715430438
 10
12.0619579799
 20
7.330948919
 10
12.0881104305
 20
7.2902539672
 10
12.1199689835
 20
7.2497552631
 10
12.1578596005
 20
7.2098157594
 10
12.2020181038
 20
7.1708438275
 10
12.2525704006
 20
7.1332861862
 10
12.3080161322
 20
7.0984865827
  0
LINE
  5
5BB
100
AcDbEntity
  8
AXIS
100
AcDbLine
 62
7
  6
CONTINUOUS
 10
12.0764576575
 20
8.2518127355
 11
12.0764576575
 21
8.3021797422
  0
LWPOLYLINE
  5
5BC
100
AcDbEntity
  8
02___PRT_ALL_AXES
100
AcDbPolyline
 62
7
  6
CONTINUOUS
 90
10
 70
0
 10
12.0685836417
 20
8.3171275199
 10
12.0720671735
 20
8.2710659163
 10
12.0824905926
 20
8.2253570669
 10
12.0997745706
 20
8.180346646
 10
12.1237875659
 20
8.1363772101
 10
12.1543468252
 20
8.0937833933
 10
12.1912197741
 20
8.0528893602
 10
12.2341257871
 20
8.014006339
 10
12.2827383236
 20
7.9774302531
 10
12.3366874128
 20
7.9434394685
  0
LWPOLYLINE
  5
5BD
100
AcDbEntity
  8
AXIS
100
AcDbPolyline
 62
7
  6
CONTINUOUS
 90
4
 70
0
 10
12.0764664866
 20
8.3021797459
 10
12.0787700829
 20
8.2648010769
 10
12.0971972299
 20
8.1908090196
 10
12.1275427077
 20
8.1311432541
  0
LWPOLYLINE
  5
5BE
100
AcDbEntity
  8
0
100
AcDbPolyline
 62
7
  6
CONTINUOUS
 90
8
 70
0
 10
12.4012926838
 20
7.0518397851
 10
12.4013101967
 20
7.0516705558
 10
12.4118392638
 20
7.0170274661
 10
12.4288237492
 20
6.9832292465
 10
12.4520720044
 20
6.9506664706
 10
12.4813217017
 20
6.9197157712
 10
12.5162427949
 20
6.8907355911
 10
12.5564412432
 20
6.8640621382
  0
LWPOLYLINE
  5
5BF
100
AcDbEntity
  8
0
100
AcDbPolyline
 62
7
  6
CONTINUOUS
 90
31
 70
0
 10
12.3973237992
 20
6.8008797775
 10
12.3996006511
 20
6.7717455922
 10
12.4083745022
 20
6.7369436129
 10
12.4236428672
 20
6.7028799079
 10
12.4452334616
 20
6.6699480465
 10
12.4729026625
 20
6.6385288261
 10
12.5063382577
 20
6.6089859763
 10
12.5451629683
 20
6.581662054
 10
12.588938706
 20
6.5568745781
 10
12.6371715163
 20
6.5349124473
 10
12.6893171524
 20
6.5160326793
 10
12.7447872159
 20
6.5004575117
 10
12.8029557965
 20
6.4883718934
 10
12.8631665346
 20
6.4799213984
 10
12.9247400273
 20
6.4752105827
 10
12.9869814948
 20
6.4743018048
 10
13.0491886199
 20
6.4772145218
 10
13.1106594731
 20
6.4839250703
 10
13.1707004327
 20
6.4943669328
 10
13.2286340115
 20
6.5084314889
 10
13.2838065016
 20
6.5259692403
 10
13.3355953504
 20
6.5467914982
 10
13.3834161856
 20
6.5706725124
 10
13.4267294088
 20
6.5973520182
 10
13.4650462845
 20
6.6265381737
 10
13.4979344547
 20
6.6579108522
 10
13.5250228175
 20
6.6911252553
 10
13.5460057147
 20
6.7258158026
 10
13.5606463804
 20
6.7616002575
 10
13.5687796131
 20
6.7980840401
 10
13.5705521457
 20
6.8249891009
  0
LWPOLYLINE
  5
5C0
100
AcDbEntity
  8
0
100
AcDbPolyline
 62
7
  6
CONTINUOUS
 90
30
 70
0
 10
12.3973237992
 20
6.8069071084
 10
12.3996006511
 20
6.777772923
 10
12.4083745022
 20
6.7429709437
 10
12.4236428672
 20
6.7089072387
 10
12.4452334616
 20
6.6759753773
 10
12.4729026625
 20
6.644556157
 10
12.5063382577
 20
6.6150133072
 10
12.5451629683
 20
6.5876893848
 10
12.588938706
 20
6.562901909
 10
12.6371715163
 20
6.5409397781
 10
12.6893171524
 20
6.5220600102
 10
12.7447872159
 20
6.5064848425
 10
12.8029557965
 20
6.4943992243
 10
12.8631665346
 20
6.4859487293
 10
12.9247400273
 20
6.4812379136
 10
12.9869814948
 20
6.4803291356
 10
13.0491886199
 20
6.4832418527
 10
13.1106594731
 20
6.4899524012
 10
13.1707004327
 20
6.5003942637
 10
13.2286340115
 20
6.5144588197
 10
13.2838065016
 20
6.5319965711
 10
13.3355953504
 20
6.552818829
 10
13.3834161856
 20
6.5766998432
 10
13.4267294088
 20
6.6033793491
 10
13.4650462845
 20
6.6325655045
 10
13.4979344547
 20
6.663938183
 10
13.5250228175
 20
6.6971525861
 10
13.5460057147
 20
6.7318431334
 10
13.5606463804
 20
6.7676275884
 10
13.5687796131
 20
6.804111371
  0
LWPOLYLINE
  5
5C1
100
AcDbEntity
  8
0
100
AcDbPolyline
 62
7
  6
CONTINUOUS
 90
9
 70
0
 10
12.3973237992
 20
6.8490984242
 10
12.3989805479
 20
6.8242395004
 10
12.4069541297
 20
6.7893748633
 10
12.4214382525
 20
6.7551998444
 10
12.442269481
 20
6.7221092687
 10
12.4692127609
 20
6.6904857248
 10
12.501964071
 20
6.6606952477
 10
12.5401538537
 20
6.6330831884
 10
12.5833511851
 20
6.6079703172
  0
LWPOLYLINE
  5
5C2
100
AcDbEntity
  8
0
100
AcDbPolyline
 62
7
  6
CONTINUOUS
 90
27
 70
0
 10
12.3973237992
 20
6.8551257551
 10
12.3989805479
 20
6.8302668312
 10
12.4069541297
 20
6.7954021942
 10
12.4214382525
 20
6.7612271752
 10
12.442269481
 20
6.7281365995
 10
12.4692127609
 20
6.6965130557
 10
12.501964071
 20
6.6667225785
 10
12.5401538537
 20
6.6391105192
 10
12.5833511851
 20
6.6139976481
 10
12.6310686373
 20
6.5916765352
 10
12.6827677786
 20
6.5724082492
 10
12.7378652488
 20
6.5564194115
 10
12.7957393419
 20
6.5438996388
 10
12.8557370212
 20
6.5349994039
 10
12.9171812878
 20
6.5298283377
 10
12.9793788201
 20
6.5284539919
 10
13.0416277967
 20
6.5309010771
 10
13.1032258159
 20
6.5371511838
 10
13.1634778209
 20
6.5471429901
 10
13.2217039433
 20
6.5607729539
 10
13.2772471741
 20
6.5778964807
 10
13.3294807775
 20
6.5983295559
 10
13.3778153626
 20
6.6218508206
 10
13.4217055339
 20
6.6482040693
 10
13.4606560459
 20
6.6771011417
 10
13.4942273907
 20
6.7082251729
 10
13.5220407578
 20
6.7412341703
  0
LWPOLYLINE
  5
5C3
100
AcDbEntity
  8
0
100
AcDbPolyline
 62
7
  6
CONTINUOUS
 90
9
 70
0
 10
12.3973237992
 20
6.8973170709
 10
12.3984586992
 20
6.876737681
 10
12.4056306724
 20
6.8418163794
 10
12.4193281201
 20
6.8075359238
 10
12.4393964838
 20
6.774292329
 10
12.4656093171
 20
6.7424699104
 10
12.4976708408
 20
6.7124369468
 10
12.535219281
 20
6.6845415255
 10
12.5778309503
 20
6.6591076142
  0
LWPOLYLINE
  5
5C4
100
AcDbEntity
  8
0
100
AcDbPolyline
 62
7
  6
CONTINUOUS
 90
30
 70
0
 10
12.3973237992
 20
6.9033444017
 10
12.3984586992
 20
6.8827650119
 10
12.4056306724
 20
6.8478437102
 10
12.4193281201
 20
6.8135632546
 10
12.4393964838
 20
6.7803196599
 10
12.4656093171
 20
6.7484972412
 10
12.4976708408
 20
6.7184642776
 10
12.535219281
 20
6.6905688563
 10
12.5778309503
 20
6.665134945
 10
12.6250250293
 20
6.6424587364
 10
12.676268992
 20
6.6228053059
 10
12.7309846143
 20
6.6064056206
 10
12.7885544989
 20
6.5934539334
 10
12.8483290415
 20
6.5841055907
 10
12.9096337613
 20
6.5784752794
 10
12.9717769112
 20
6.5766357336
 10
13.0340572835
 20
6.5786169128
 10
13.095772122
 20
6.5844056649
 10
13.156225052
 20
6.5939458738
 10
13.2147339379
 20
6.6071390928
 10
13.2706385799
 20
6.623845656
 10
13.3233081642
 20
6.6438862533
 10
13.3721483804
 20
6.6670439545
 10
13.4166081278
 20
6.6930666567
 10
13.4561857336
 20
6.7216699291
 10
13.4904346141
 20
6.7525402223
 10
13.5189683136
 20
6.7853384064
 10
13.5414648649
 20
6.8197035977
 10
13.5576704226
 20
6.8552572309
 10
13.5674021272
 20
6.8916073305
  0
LWPOLYLINE
  5
5C5
100
AcDbEntity
  8
0
100
AcDbPolyline
 62
7
  6
CONTINUOUS
 90
3
 70
0
 10
12.3973237992
 20
6.9455357176
 10
12.3980351927
 20
6.9292393985
 10
12.4044043526
 20
6.894267435
  0
LWPOLYLINE
  5
5C6
100
AcDbEntity
  8
0
100
AcDbPolyline
 62
7
  6
CONTINUOUS
 90
4
 70
0
 10
12.3973237992
 20
6.9515630484
 10
12.3980351927
 20
6.9352667294
 10
12.4044043526
 20
6.9002947658
 10
12.4173128246
 20
6.8659147686
  0
LWPOLYLINE
  5
5C7
100
AcDbEntity
  8
0
100
AcDbPolyline
 62
7
  6
CONTINUOUS
 90
9
 70
0
 10
12.3973237992
 20
6.9937543643
 10
12.3977100996
 20
6.9817439168
 10
12.4032753764
 20
6.9467273025
 10
12.4153927043
 20
6.9122536754
 10
12.4339253544
 20
6.87872123
 10
12.458664209
 20
6.8465175407
 10
12.4893301209
 20
6.8160151888
 10
12.5255770638
 20
6.7875675579
 10
12.5669960362
 20
6.7615048468
  0
LWPOLYLINE
  5
5C8
100
AcDbEntity
  8
0
100
AcDbPolyline
 62
7
  6
CONTINUOUS
 90
31
 70
0
 10
12.3973237992
 20
6.9997816951
 10
12.3977100996
 20
6.9877712477
 10
12.4032753764
 20
6.9527546334
 10
12.4153927043
 20
6.9182810062
 10
12.4339253544
 20
6.8847485608
 10
12.458664209
 20
6.8525448716
 10
12.4893301209
 20
6.8220425197
 10
12.5255770638
 20
6.7935948888
 10
12.5669960362
 20
6.7675321776
 10
12.6131196768
 20
6.7441576741
 10
12.6634275381
 20
6.7237443331
 10
12.7173519587
 20
6.7065316963
 10
12.774284469
 20
6.6927231897
 10
12.8335826569
 20
6.6824838277
 10
12.8945774164
 20
6.6759383516
 10
12.956580498
 20
6.6731698216
 10
13.0188922746
 20
6.67421868
 10
13.0808096355
 20
6.6790822945
 10
13.1416339209
 20
6.687714988
 10
13.2006788047
 20
6.7000285543
 10
13.2572780394
 20
6.7158932529
 10
13.3107929733
 20
6.7351392733
 10
13.3606197574
 20
6.757558651
 10
13.4061961587
 20
6.7829076143
 10
13.4470079045
 20
6.8109093346
 10
13.4825944854
 20
6.8412570502
 10
13.5125543513
 20
6.873617528
 10
13.5365494425
 20
6.9076348232
 10
13.5543090045
 20
6.942934296
 10
13.5656326428
 20
6.9791268388
 10
13.5703925844
 20
7.0158132668
  0
LWPOLYLINE
  5
5C9
100
AcDbEntity
  8
0
100
AcDbPolyline
 62
7
  6
CONTINUOUS
 90
9
 70
0
 10
12.3973237992
 20
7.0419730109
 10
12.3974834744
 20
7.0342504993
 10
12.4022439333
 20
6.999195253
 10
12.4135680819
 20
6.9646339234
 10
12.4313281413
 20
6.9309656948
 10
12.4553237113
 20
6.8985796738
 10
12.4852840322
 20
6.8678504989
 10
12.520871039
 20
6.8391341132
 10
12.5616831769
 20
6.812763748
  0
LINE
  5
5CA
100
AcDbEntity
  8
0
100
AcDbLine
 62
7
  6
CONTINUOUS
 10
12.3973237992
 20
7.0480003418
 11
12.3974834744
 21
7.0402778301
  0
LINE
  5
5CB
100
AcDbEntity
  8
0
100
AcDbLine
 62
7
  6
CONTINUOUS
 10
12.3977197979
 20
7.0533851067
 11
12.3973237992
 21
7.0480003418
  0
LWPOLYLINE
  5
5CC
100
AcDbEntity
  8
0
100
AcDbPolyline
 62
7
  6
CONTINUOUS
 90
3
 70
0
 10
12.3989368355
 20
6.8248953884
 10
12.3974203158
 20
6.8129112771
 10
12.3973237992
 20
6.8069071084
  0
LWPOLYLINE
  5
5CD
100
AcDbEntity
  8
0
100
AcDbPolyline
 62
7
  6
CONTINUOUS
 90
3
 70
0
 10
12.3989462247
 20
6.8743638537
 10
12.3976074789
 20
6.8654184798
 10
12.3973237992
 20
6.8551257551
  0
LWPOLYLINE
  5
5CE
100
AcDbEntity
  8
0
100
AcDbPolyline
 62
7
  6
CONTINUOUS
 90
3
 70
0
 10
12.3989657065
 20
6.9241301072
 10
12.3978931272
 20
6.9179239135
 10
12.3973237992
 20
6.9033444017
  0
LWPOLYLINE
  5
5CF
100
AcDbEntity
  8
0
100
AcDbPolyline
 62
7
  6
CONTINUOUS
 90
3
 70
0
 10
12.3989573685
 20
6.9738961249
 10
12.3982772128
 20
6.9704268416
 10
12.3973237992
 20
6.9515630484
  0
LWPOLYLINE
  5
5D0
100
AcDbEntity
  8
0
100
AcDbPolyline
 62
7
  6
CONTINUOUS
 90
3
 70
0
 10
12.3989212322
 20
7.0236630843
 10
12.398759671
 20
7.0229265276
 10
12.3973237992
 20
6.9997816951
  0
LWPOLYLINE
  5
5D1
100
AcDbEntity
  8
0
100
AcDbPolyline
 62
9
  6
CONTINUOUS
 90
21
 70
0
 10
12.5941957
 20
6.541077925
 10
12.6370702512
 20
6.5187901585
 10
12.6837451582
 20
6.4992119091
 10
12.7337090421
 20
6.4825576799
 10
12.7864144869
 20
6.4690099387
 10
12.8412840357
 20
6.4587171182
 10
12.89771653
 20
6.4517919873
 10
12.9550936852
 20
6.4483104191
 10
13.0127868654
 20
6.4483105584
 10
13.0701639703
 20
6.4517924039
 10
13.1265963655
 20
6.4587178076
 10
13.1814657651
 20
6.4690108933
 10
13.2341710094
 20
6.482558888
 10
13.2841346479
 20
6.4992133568
 10
13.3308092691
 20
6.5187918301
 10
13.3736834956
 20
6.5410798018
 10
13.4122875888
 20
6.5658330804
 10
13.446198594
 20
6.5927804638
 10
13.4750449752
 20
6.6216267107
 10
13.4985106854
 20
6.6520557757
 10
13.5104246394
 20
6.6732256954
  0
LWPOLYLINE
  5
5D2
100
AcDbEntity
  8
0
100
AcDbPolyline
 62
7
  6
CONTINUOUS
 90
6
 70
0
 10
12.6023497283
 20
6.5230548483
 10
12.5636572173
 20
6.547847201
 10
12.5293299056
 20
6.5750340899
 10
12.4998294447
 20
6.604276248
 10
12.4755344269
 20
6.6351458047
 10
12.4742356339
 20
6.6373510462
  0
LWPOLYLINE
  5
5D3
100
AcDbEntity
  8
0
100
AcDbPolyline
 62
9
  6
CONTINUOUS
 90
4
 70
0
 10
12.4988941114
 20
6.6155634365
 10
12.5216798516
 20
6.5927782406
 10
12.5555912474
 20
6.565831019
 10
12.5941957
 20
6.541077925
  0
LWPOLYLINE
  5
5D4
100
AcDbEntity
  8
0
100
AcDbPolyline
 62
7
  6
CONTINUOUS
 90
6
 70
0
 10
12.4173128246
 20
6.8598874377
 10
12.4366149525
 20
6.8264965448
 10
12.4620929362
 20
6.7944807336
 10
12.4934592883
 20
6.7642104651
 10
12.5303600789
 20
6.7360365043
 10
12.5723789287
 20
6.710285962
  0
LWPOLYLINE
  5
5D5
100
AcDbEntity
  8
0
100
AcDbPolyline
 62
7
  6
CONTINUOUS
 90
27
 70
0
 10
12.4173128246
 20
6.8659147686
 10
12.4366149525
 20
6.8325238757
 10
12.4620929362
 20
6.8005080644
 10
12.4934592883
 20
6.7702377959
 10
12.5303600789
 20
6.7420638352
 10
12.5723789287
 20
6.7163132928
 10
12.6190417075
 20
6.6932859343
 10
12.6698218842
 20
6.6732507974
 10
12.7241464681
 20
6.6564431563
 10
12.7814024741
 20
6.6430618671
 10
12.8409438399
 20
6.6332671236
 10
12.9020987157
 20
6.6271786501
 10
12.964177045
 20
6.6248743502
 10
13.0264783517
 20
6.6263894277
 10
13.0882996435
 20
6.6317159899
 10
13.1489433443
 20
6.6408031357
 10
13.2077251659
 20
6.6535575311
 10
13.263981829
 20
6.6698444613
 10
13.3170785474
 20
6.6894893515
 10
13.3664161911
 20
6.7122797366
 10
13.4114380466
 20
6.7379676582
 10
13.4516360984
 20
6.7662724632
 10
13.4865567619
 20
6.79688397
 10
13.515806001
 20
6.8294659688
 10
13.5390537747
 20
6.8636600153
 10
13.556037761
 20
6.8990894754
 10
13.5665663167
 20
6.9353637745
  0
LINE
  5
5D6
100
AcDbEntity
  8
0
100
AcDbLine
 62
7
  6
CONTINUOUS
 10
12.4044043526
 20
6.894267435
 11
12.4173128246
 21
6.8598874377
  0
LWPOLYLINE
  5
5D7
100
AcDbEntity
  8
0
100
AcDbPolyline
 62
7
  6
CONTINUOUS
 90
30
 70
0
 10
12.3974834744
 20
7.0402778301
 10
12.4022439333
 20
7.0052225838
 10
12.4135680819
 20
6.9706612543
 10
12.4313281413
 20
6.9369930257
 10
12.4553237113
 20
6.9046070047
 10
12.4852840322
 20
6.8738778297
 10
12.520871039
 20
6.845161444
 10
12.5616831769
 20
6.8187910788
 10
12.607259932
 20
6.7950734935
 10
12.6570870277
 20
6.7742855141
 10
12.7106022274
 20
6.7566709098
 10
12.7672016791
 20
6.7424376422
 10
12.8262467288
 20
6.7317555186
 10
12.8870711269
 20
6.7247542763
 10
12.9489885463
 20
6.7215221183
 10
13.0113003261
 20
6.7221047184
 10
13.0733033561
 20
6.7265047052
 10
13.1342980094
 20
6.7346816334
 10
13.1935960379
 20
6.7465524393
 10
13.2505283373
 20
6.7619923784
 10
13.3044524979
 20
6.7808364333
 10
13.3547600529
 20
6.802881175
 10
13.4008833447
 20
6.8278870591
 10
13.4423019294
 20
6.8555811282
 10
13.4785484502
 20
6.8856600922
 10
13.5092139105
 20
6.9177937504
 10
13.5339522888
 20
6.9516287174
 10
13.5524844435
 20
6.9867924108
 10
13.5646012625
 20
7.022897255
 10
13.5690870521
 20
7.0524392871
  0
LWPOLYLINE
  5
5D8
100
AcDbEntity
  8
0
100
AcDbPolyline
 62
7
  6
CONTINUOUS
 90
23
 70
0
 10
12.5833511851
 20
6.6079703172
 10
12.6310686373
 20
6.5856492044
 10
12.6827677786
 20
6.5663809184
 10
12.7378652488
 20
6.5503920807
 10
12.7957393419
 20
6.537872308
 10
12.8557370212
 20
6.5289720731
 10
12.9171812878
 20
6.5238010069
 10
12.9793788201
 20
6.522426661
 10
13.0416277967
 20
6.5248737462
 10
13.1032258159
 20
6.5311238529
 10
13.1634778209
 20
6.5411156593
 10
13.2217039433
 20
6.554745623
 10
13.2772471741
 20
6.5718691499
 10
13.3294807775
 20
6.5923022251
 10
13.3778153626
 20
6.6158234897
 10
13.4217055339
 20
6.6421767385
 10
13.4606560459
 20
6.6710738108
 10
13.4942273907
 20
6.7021978421
 10
13.5220407578
 20
6.7352068394
 10
13.5437823079
 20
6.7697375403
 10
13.559206715
 20
6.8054095118
 10
13.568139934
 20
6.8418294431
 10
13.5705521457
 20
6.8732077476
  0
LWPOLYLINE
  5
5D9
100
AcDbEntity
  8
0
100
AcDbPolyline
 62
7
  6
CONTINUOUS
 90
23
 70
0
 10
12.5778309503
 20
6.6591076142
 10
12.6250250293
 20
6.6364314055
 10
12.676268992
 20
6.616777975
 10
12.7309846143
 20
6.6003782898
 10
12.7885544989
 20
6.5874266026
 10
12.8483290415
 20
6.5780782598
 10
12.9096337613
 20
6.5724479486
 10
12.9717769112
 20
6.5706084027
 10
13.0340572835
 20
6.572589582
 10
13.095772122
 20
6.5783783341
 10
13.156225052
 20
6.5879185429
 10
13.2147339379
 20
6.601111762
 10
13.2706385799
 20
6.6178183251
 10
13.3233081642
 20
6.6378589224
 10
13.3721483804
 20
6.6610166237
 10
13.4166081278
 20
6.6870393259
 10
13.4561857336
 20
6.7156425983
 10
13.4904346141
 20
6.7465128914
 10
13.5189683136
 20
6.7793110755
 10
13.5414648649
 20
6.8136762669
 10
13.5576704226
 20
6.8492299001
 10
13.5674021272
 20
6.8855799997
 10
13.5705521457
 20
6.9214263942
  0
LWPOLYLINE
  5
5DA
100
AcDbEntity
  8
0
100
AcDbPolyline
 62
7
  6
CONTINUOUS
 90
19
 70
0
 10
12.5723789287
 20
6.710285962
 10
12.6190417075
 20
6.6872586035
 10
12.6698218842
 20
6.6672234665
 10
12.7241464681
 20
6.6504158255
 10
12.7814024741
 20
6.6370345362
 10
12.8409438399
 20
6.6272397928
 10
12.9020987157
 20
6.6211513193
 10
12.964177045
 20
6.6188470193
 10
13.0264783517
 20
6.6203620969
 10
13.0882996435
 20
6.625688659
 10
13.1489433443
 20
6.6347758049
 10
13.2077251659
 20
6.6475302002
 10
13.263981829
 20
6.6638171305
 10
13.3170785474
 20
6.6834620207
 10
13.3664161911
 20
6.7062524057
 10
13.4114380466
 20
6.7319403274
 10
13.4516360984
 20
6.7602451323
 10
13.4865567619
 20
6.7908566391
 10
13.515806001
 20
6.8234386379
  0
LWPOLYLINE
  5
5DB
100
AcDbEntity
  8
0
100
AcDbPolyline
 62
7
  6
CONTINUOUS
 90
24
 70
0
 10
12.4269636289
 20
7.0407367532
 10
12.4489096342
 20
7.0088045953
 10
12.477443795
 20
6.9776377072
 10
12.511693109
 20
6.9483987375
 10
12.5512711156
 20
6.9214268143
 10
12.5957312264
 20
6.8970354846
 10
12.6445717649
 20
6.8755091771
 10
12.6972416264
 20
6.8570999918
 10
12.7531464977
 20
6.8420248563
 10
12.811655562
 20
6.8304630773
 10
12.8721086179
 20
6.8225543179
 10
12.9338235282
 20
6.8183970214
 10
12.9961039172
 20
6.8180473003
 10
13.0582470288
 20
6.8215183038
 10
13.1195516557
 20
6.8287800686
 10
13.1793260517
 20
6.8397598576
 10
13.2368957377
 20
6.8543429804
 10
13.2916111117
 20
6.8723740875
 10
13.3428547792
 20
6.8936589232
 10
13.3900485194
 20
6.9179665175
 10
13.4326598101
 20
6.9450317925
 10
13.4702078362
 20
6.9745585532
 10
13.502268915
 20
7.0062228297
 10
13.523996166
 20
7.0339523795
  0
LWPOLYLINE
  5
5DC
100
AcDbEntity
  8
0
100
AcDbPolyline
 62
7
  6
CONTINUOUS
 90
6
 70
0
 10
12.4231224429
 20
7.0423981182
 10
12.4264125991
 20
7.0355111889
 10
12.4489096342
 20
7.0027772645
 10
12.477443795
 20
6.9716103764
 10
12.511693109
 20
6.9423714067
 10
12.5512711156
 20
6.9153994834
  0
LWPOLYLINE
  5
5DD
100
AcDbEntity
  8
0
100
AcDbPolyline
 62
9
  6
CONTINUOUS
 90
8
 70
0
 10
12.0676217858
 20
8.2432957558
 10
12.083331408
 20
8.1947949933
 10
12.1067257714
 20
8.1473379555
 10
12.137604909
 20
8.1013301151
 10
12.1757069758
 20
8.0571620945
 10
12.220699491
 20
8.0152177971
 10
12.2722303226
 20
7.975830339
 10
12.3297277293
 20
7.9394213174
  0
LWPOLYLINE
  5
5DE
100
AcDbEntity
  8
0
100
AcDbPolyline
 62
7
  6
CONTINUOUS
 90
26
 70
0
 10
12.4033627687
 20
7.0509444453
 10
12.4118392638
 20
7.0230547969
 10
12.4288237492
 20
6.9892565773
 10
12.4520720044
 20
6.9566938014
 10
12.4813217017
 20
6.925743102
 10
12.5162427949
 20
6.8967629219
 10
12.5564412432
 20
6.8700894691
 10
12.6014634573
 20
6.8460329227
 10
12.650801418
 20
6.8248739337
 10
12.703898408
 20
6.8068604576
 10
12.7601552942
 20
6.7922049566
 10
12.8189372879
 20
6.7810820027
 10
12.8795811081
 20
6.7736263072
 10
12.9414024649
 20
6.7699312012
 10
13.0037037817
 20
6.7700475819
 10
13.0657820661
 20
6.7739833391
 10
13.1269368422
 20
6.7817032655
 10
13.186478055
 20
6.793129454
 10
13.2437338563
 20
6.8081421773
 10
13.298058186
 20
6.8265812384
 10
13.348838062
 20
6.8482477783
 10
13.3955004969
 20
6.87290652
 10
13.4375189635
 20
6.9002884232
 10
13.474419336
 20
6.9300937202
 10
13.5057852398
 20
6.9619952983
 10
13.5312627499
 20
6.9956423909
  0
LWPOLYLINE
  5
5DF
100
AcDbEntity
  8
0
100
AcDbPolyline
 62
7
  6
CONTINUOUS
 90
19
 70
0
 10
12.5669960362
 20
6.7615048468
 10
12.6131196768
 20
6.7381303433
 10
12.6634275381
 20
6.7177170022
 10
12.7173519587
 20
6.7005043655
 10
12.774284469
 20
6.6866958588
 10
12.8335826569
 20
6.6764564969
 10
12.8945774164
 20
6.6699110208
 10
12.956580498
 20
6.6671424908
 10
13.0188922746
 20
6.6681913492
 10
13.0808096355
 20
6.6730549637
 10
13.1416339209
 20
6.6816876572
 10
13.2006788047
 20
6.6940012235
 10
13.2572780394
 20
6.709865922
 10
13.3107929733
 20
6.7291119424
 10
13.3606197574
 20
6.7515313202
 10
13.4061961587
 20
6.7768802835
 10
13.4470079045
 20
6.8048820037
 10
13.4825944854
 20
6.8352297194
 10
13.5125543513
 20
6.8675901971
  0
LWPOLYLINE
  5
5E0
100
AcDbEntity
  8
0
100
AcDbPolyline
 62
7
  6
CONTINUOUS
 90
19
 70
0
 10
12.5616831769
 20
6.812763748
 10
12.607259932
 20
6.7890461627
 10
12.6570870277
 20
6.7682581833
 10
12.7106022274
 20
6.750643579
 10
12.7672016791
 20
6.7364103113
 10
12.8262467288
 20
6.7257281878
 10
12.8870711269
 20
6.7187269455
 10
12.9489885463
 20
6.7154947875
 10
13.0113003261
 20
6.7160773875
 10
13.0733033561
 20
6.7204773744
 10
13.1342980094
 20
6.7286543026
 10
13.1935960379
 20
6.7405251084
 10
13.2505283373
 20
6.7559650476
 10
13.3044524979
 20
6.7748091025
 10
13.3547600529
 20
6.7968538442
 10
13.4008833447
 20
6.8218597283
 10
13.4423019294
 20
6.8495537974
 10
13.4785484502
 20
6.8796327614
 10
13.5092139105
 20
6.9117664195
  0
LWPOLYLINE
  5
5E1
100
AcDbEntity
  8
0
100
AcDbPolyline
 62
7
  6
CONTINUOUS
 90
20
 70
0
 10
12.5564412432
 20
6.8640621382
 10
12.6014634573
 20
6.8400055919
 10
12.650801418
 20
6.8188466029
 10
12.703898408
 20
6.8008331267
 10
12.7601552942
 20
6.7861776258
 10
12.8189372879
 20
6.7750546719
 10
12.8795811081
 20
6.7675989764
 10
12.9414024649
 20
6.7639038703
 10
13.0037037817
 20
6.7640202511
 10
13.0657820661
 20
6.7679560083
 10
13.1269368422
 20
6.7756759346
 10
13.186478055
 20
6.7871021232
 10
13.2437338563
 20
6.8021148465
 10
13.298058186
 20
6.8205539076
 10
13.348838062
 20
6.8422204475
 10
13.3955004969
 20
6.8668791891
 10
13.4375189635
 20
6.8942610923
 10
13.474419336
 20
6.9240663893
 10
13.5057852398
 20
6.9559679674
 10
13.5312627499
 20
6.98961506
  0
LINE
  5
5E2
100
AcDbEntity
  8
0
100
AcDbLine
 62
7
  6
CONTINUOUS
 10
12.5512711156
 20
6.9153994834
 11
12.5957312264
 21
6.8910081538
  0
LWPOLYLINE
  5
5E3
100
AcDbEntity
  8
0
100
AcDbPolyline
 62
7
  6
CONTINUOUS
 90
4
 70
0
 10
12.4757452625
 20
7.0216938449
 10
12.5072227454
 20
6.9940409693
 10
12.5461736624
 20
6.9667752431
 10
12.5900642021
 20
6.9420533642
  0
LWPOLYLINE
  5
5E4
100
AcDbEntity
  8
0
100
AcDbPolyline
 62
7
  6
CONTINUOUS
 90
20
 70
0
 10
12.4871757323
 20
7.0176795418
 10
12.5072227454
 20
7.0000683002
 10
12.5461736624
 20
6.972802574
 10
12.5900642021
 20
6.948080695
 10
12.6383991146
 20
6.9261908216
 10
12.6906330009
 20
6.9073891563
 10
12.746176467
 20
6.8918970553
 10
12.8044027742
 20
6.8798985303
 10
12.8646549116
 20
6.8715381725
 10
12.9262530091
 20
6.8669195208
 10
12.9885020092
 20
6.8661038937
 10
13.05069951
 20
6.8691096973
 10
13.1121436902
 20
6.8759122178
 10
13.1721412294
 20
6.8864439
 10
13.2300151301
 20
6.9005951097
 10
13.285112358
 20
6.9182153712
 10
13.3368112096
 20
6.9391150645
 10
13.3845283281
 20
6.9630675656
 10
13.4277252856
 20
6.9898118033
 10
13.4508725435
 20
7.0075367491
  0
LWPOLYLINE
  5
5E5
100
AcDbEntity
  8
02___PRT_ALL_AXES
100
AcDbPolyline
 62
7
  6
CONTINUOUS
 90
7
 70
0
 10
12.8764390183
 20
5.1813082007
 10
12.876711902
 20
5.1768803284
 10
12.8788947795
 20
5.1681152389
 10
12.8832160334
 20
5.1596187201
 10
12.8895876956
 20
5.1515637365
 10
12.8978800573
 20
5.1441142645
 10
12.9079243099
 20
5.1374219537
  0
LWPOLYLINE
  5
5E6
100
AcDbEntity
  8
0
100
AcDbPolyline
 62
7
  6
CONTINUOUS
 90
12
 70
0
 10
12.6416261579
 20
6.9734568175
 10
12.6840736415
 20
6.9577275867
 10
12.7392463727
 20
6.9418212594
 10
12.7971801426
 20
6.9293881407
 10
12.8572212411
 20
6.9205777257
 10
12.9186921793
 20
6.9154986316
 10
12.9808993347
 20
6.9142173724
 10
13.0431407773
 20
6.9167576084
 10
13.1047141903
 20
6.9230998789
 10
13.1649247947
 20
6.9331818223
 10
13.2230931893
 20
6.946898879
 10
13.2752175745
 20
6.963067725
  0
LWPOLYLINE
  5
5E7
100
AcDbEntity
  8
0
100
AcDbPolyline
 62
7
  6
CONTINUOUS
 90
20
 70
0
 10
12.5957312264
 20
6.8910081538
 10
12.6445717649
 20
6.8694818462
 10
12.6972416264
 20
6.851072661
 10
12.7531464977
 20
6.8359975254
 10
12.811655562
 20
6.8244357465
 10
12.8721086179
 20
6.8165269871
 10
12.9338235282
 20
6.8123696905
 10
12.9961039172
 20
6.8120199695
 10
13.0582470288
 20
6.815490973
 10
13.1195516557
 20
6.8227527377
 10
13.1793260517
 20
6.8337325267
 10
13.2368957377
 20
6.8483156495
 10
13.2916111117
 20
6.8663467566
 10
13.3428547792
 20
6.8876315923
 10
13.3900485194
 20
6.9119391867
 10
13.4326598101
 20
6.9390044617
 10
13.4702078362
 20
6.9685312223
 10
13.502268915
 20
7.0001954989
 10
13.5284812776
 20
7.0336492024
 10
13.5300495484
 20
7.0363746138
  0
LWPOLYLINE
  5
5E8
100
AcDbEntity
  8
0
100
AcDbPolyline
 62
7
  6
CONTINUOUS
 90
17
 70
0
 10
12.5900642021
 20
6.9420533642
 10
12.6383991146
 20
6.9201634907
 10
12.6906330009
 20
6.9013618255
 10
12.746176467
 20
6.8858697245
 10
12.8044027742
 20
6.8738711995
 10
12.8646549116
 20
6.8655108416
 10
12.9262530091
 20
6.8608921899
 10
12.9885020092
 20
6.8600765628
 10
13.05069951
 20
6.8630823665
 10
13.1121436902
 20
6.869884887
 10
13.1721412294
 20
6.8804165691
 10
13.2300151301
 20
6.8945677789
 10
13.285112358
 20
6.9121880403
 10
13.3368112096
 20
6.9330877337
 10
13.3845283281
 20
6.9570402348
 10
13.4277252856
 20
6.9837844724
 10
13.4644792108
 20
7.0119286845
  0
LWPOLYLINE
  5
5E9
100
AcDbEntity
  8
0
100
AcDbPolyline
 62
7
  6
CONTINUOUS
 90
14
 70
0
 10
12.6141833668
 20
6.9793129732
 10
12.6322845041
 20
6.970891106
 10
12.6840736415
 20
6.9517002559
 10
12.7392463727
 20
6.9357939286
 10
12.7971801426
 20
6.9233608099
 10
12.8572212411
 20
6.9145503948
 10
12.9186921793
 20
6.9094713007
 10
12.9808993347
 20
6.9081900416
 10
13.0431407773
 20
6.9107302776
 10
13.1047141903
 20
6.9170725481
 10
13.1649247947
 20
6.9271544914
 10
13.2230931893
 20
6.9408715482
 10
13.2785630164
 20
6.9580781413
 10
13.3062005174
 20
6.9689492481
  0
LWPOLYLINE
  5
5EA
100
AcDbEntity
  8
0
100
AcDbPolyline
 62
7
  6
CONTINUOUS
 90
15
 70
0
 10
12.3080110438
 20
7.0984895397
 10
12.3758725344
 20
7.0628343444
 10
12.4504648864
 20
7.0305721406
 10
12.5294975375
 20
7.0028164125
 10
12.6122635819
 20
6.9797226458
 10
12.6980707765
 20
6.9614118155
 10
12.7862343158
 20
6.9479796875
 10
12.8760318363
 20
6.939504417
 10
12.9667080156
 20
6.9360375495
 10
13.0575061776
 20
6.9375978421
 10
13.1477088699
 20
6.9441755962
 10
13.2366172682
 20
6.9557401901
 10
13.3234811826
 20
6.9722296541
 10
13.4074007662
 20
6.9935050078
 10
13.4876382158
 20
7.019403906
  0
LWPOLYLINE
  5
5EB
100
AcDbEntity
  8
0
100
AcDbPolyline
 62
9
  6
CONTINUOUS
 90
27
 70
0
 10
12.2879696287
 20
7.1679233871
 10
12.3550456934
 20
7.1326153095
 10
12.4276041295
 20
7.1009721238
 10
12.5048951917
 20
7.0733351635
 10
12.5862838133
 20
7.0499308648
 10
12.6710627384
 20
7.030963306
 10
12.758511977
 20
7.0165933064
 10
12.8478842883
 20
7.006943639
 10
12.938417257
 20
7.0020965454
 10
13.0293382548
 20
7.0020933304
 10
13.1198714435
 20
7.0069339567
 10
13.2092442899
 20
7.0165770537
 10
13.2966941848
 20
7.0309402723
 10
13.3814749434
 20
7.0499009878
 10
13.4628631735
 20
7.0732973481
 10
13.5401644469
 20
7.1009296559
 10
13.6127192244
 20
7.1325620738
 10
13.6799086958
 20
7.1679247609
 10
13.7411598346
 20
7.2067161468
 10
13.7959499983
 20
7.2486053173
 10
13.8438115795
 20
7.2932348769
 10
13.8843360821
 20
7.3402240383
 10
13.917177609
 20
7.389171871
 10
13.9420558157
 20
7.4396607216
 10
13.9587583046
 20
7.4912597777
 10
13.9671424399
 20
7.5435287441
 10
13.9681899406
 20
7.5697236816
  0
LINE
  5
5EC
100
AcDbEntity
  8
02___PRT_ALL_AXES
100
AcDbLine
 62
7
  6
CONTINUOUS
 10
12.8764379724
 20
5.1813082002
 11
12.8764379724
 21
6.4379619763
  0
LINE
  5
5ED
100
AcDbEntity
  8
02___PRT_ALL_AXES
100
AcDbLine
 62
7
  6
CONTINUOUS
 10
13.0914379724
 20
5.1813082002
 11
13.0914379724
 21
6.4376637985
  0
LWPOLYLINE
  5
5EE
100
AcDbEntity
  8
0
100
AcDbPolyline
 62
7
  6
CONTINUOUS
 90
15
 70
0
 10
13.3076559291
 20
6.9692255303
 10
13.2837568537
 20
6.9588056249
 10
13.2337960622
 20
6.94137925
 10
13.1808473017
 20
6.9269976231
 10
13.1257575837
 20
6.9159054952
 10
13.0694086708
 20
6.9082384829
 10
13.0121768744
 20
6.9040056306
 10
12.9545223912
 20
6.9032381046
 10
12.8972849576
 20
6.905940018
 10
12.8409021439
 20
6.9120816815
 10
12.7861665877
 20
6.9215684824
 10
12.7335625812
 20
6.9343021095
 10
12.6837201855
 20
6.9501208323
 10
12.6370269972
 20
6.9689059378
 10
12.6352825522
 20
6.969780157
  0
LWPOLYLINE
  5
5EF
100
AcDbEntity
  8
0
100
AcDbPolyline
 62
7
  6
CONTINUOUS
 90
15
 70
0
 10
13.4876382158
 20
7.019403906
 10
13.5641071338
 20
7.0500026065
 10
13.6361603671
 20
7.0852583487
 10
13.6996238123
 20
7.1228429058
 10
13.7535731851
 20
7.1611110189
 10
13.7997630452
 20
7.2001423371
 10
13.8396188806
 20
7.2403752436
 10
13.8736300458
 20
7.2818148185
 10
13.9017586029
 20
7.3238645544
 10
13.9241708433
 20
7.3659114574
 10
13.9412686209
 20
7.4074636694
 10
13.9537525285
 20
7.4487639132
 10
13.9621816885
 20
7.4902701141
 10
13.9669115473
 20
7.5323892343
 10
13.9681897526
 20
7.5697234302
  0
LWPOLYLINE
  5
5F0
100
AcDbEntity
  8
AXIS
100
AcDbPolyline
 62
7
  6
CONTINUOUS
 90
4
 70
0
 10
13.840335179
 20
8.1311463389
 10
13.8706803212
 20
8.1908132825
 10
13.8891064011
 20
8.2648054284
 10
13.8914094582
 20
8.3021797385
  0
LWPOLYLINE
  5
5F1
100
AcDbEntity
  8
0
100
AcDbPolyline
 62
7
  6
CONTINUOUS
 90
15
 70
0
 10
13.3165512043
 20
6.924897457
 10
13.2846191849
 20
6.9109246944
 10
13.2347471716
 20
6.8934554004
 10
13.1820736766
 20
6.8790690518
 10
13.12730514
 20
6.8679484467
 10
13.0708838167
 20
6.8601754966
 10
13.0136387728
 20
6.855851789
 10
12.955947183
 20
6.8549964273
 10
12.8982718905
 20
6.8576451053
 10
12.8415547706
 20
6.8637714415
 10
12.7866889679
 20
6.8732418664
 10
12.7338546457
 20
6.8860021107
 10
12.6836749915
 20
6.9019183836
 10
12.6369710076
 20
6.920712473
 10
12.6349479959
 20
6.9217264304
  0
LWPOLYLINE
  5
5F2
100
AcDbEntity
  8
0
100
AcDbPolyline
 62
7
  6
CONTINUOUS
 90
15
 70
0
 10
13.3157040766
 20
6.8280829806
 10
13.2842091315
 20
6.8143266443
 10
13.23439673
 20
6.7969093298
 10
13.181790079
 20
6.7825645053
 10
13.1267860549
 20
6.7714230952
 10
13.0702478773
 20
6.7636708065
 10
13.0129471378
 20
6.7593835553
 10
12.9550261223
 20
6.7585737785
 10
12.8973337576
 20
6.7612802821
 10
12.8408220531
 20
6.7674370157
 10
12.786134159
 20
6.7769192564
 10
12.7334830887
 20
6.789668333
 10
12.6836223581
 20
6.805499959
 10
12.6370048889
 20
6.8242599403
 10
12.6300432435
 20
6.8277489162
  0
LWPOLYLINE
  5
5F3
100
AcDbEntity
  8
0
100
AcDbPolyline
 62
7
  6
CONTINUOUS
 90
15
 70
0
 10
13.3190082522
 20
6.8777265751
 10
13.2833704399
 20
6.8622174333
 10
13.2334484535
 20
6.8448345528
 10
13.1807398591
 20
6.8305350092
 10
13.1259523975
 20
6.819500979
 10
13.0695291873
 20
6.8118138176
 10
13.0122620423
 20
6.8075720509
 10
12.9545854347
 20
6.8067997471
 10
12.8973285479
 20
6.8094993339
 10
12.8409332102
 20
6.8156400169
 10
12.7861789004
 20
6.8251286402
 10
12.7335149718
 20
6.8378780892
 10
12.6836419541
 20
6.85371158
 10
12.6370141613
 20
6.8724744169
 10
12.6314124403
 20
6.8752817755
  0
LWPOLYLINE
  5
5F4
100
AcDbEntity
  8
0
100
AcDbPolyline
 62
7
  6
CONTINUOUS
 90
15
 70
0
 10
13.3086411864
 20
6.6803403394
 10
13.2842931043
 20
6.6697036001
 10
13.2344372907
 20
6.6522659704
 10
13.1817874609
 20
6.6379079449
 10
13.127047985
 20
6.6268115498
 10
13.0706613629
 20
6.6190586374
 10
13.0134385328
 20
6.614749546
 10
12.9558987206
 20
6.6139039422
 10
12.8984815666
 20
6.6165358049
 10
12.8419179206
 20
6.6226274546
 10
12.7871001375
 20
6.6320638942
 10
12.7342189197
 20
6.6448075868
 10
12.6839068689
 20
6.6607420812
 10
12.6370020626
 20
6.6796052715
 10
12.6316832202
 20
6.6822709399
  0
LWPOLYLINE
  5
5F5
100
AcDbEntity
  8
0
100
AcDbPolyline
 62
7
  6
CONTINUOUS
 90
15
 70
0
 10
13.3027716686
 20
6.7742217287
 10
13.2839109154
 20
6.7659912755
 10
13.2339844065
 20
6.7485629332
 10
13.1811913375
 20
6.7342042144
 10
13.1263794155
 20
6.723135686
 10
13.0700414978
 20
6.7154303825
 10
13.0127862434
 20
6.7111577832
 10
12.9551116551
 20
6.7103537343
 10
12.8978477675
 20
6.7130218105
 10
12.8414336022
 20
6.7191324697
 10
12.7866649139
 20
6.7285908903
 10
12.7340762007
 20
6.7412845416
 10
12.6839790295
 20
6.7571535426
 10
12.6370970391
 20
6.7759998588
 10
12.6299636389
 20
6.7795741237
  0
LWPOLYLINE
  5
5F6
100
AcDbEntity
  8
0
100
AcDbPolyline
 62
7
  6
CONTINUOUS
 90
15
 70
0
 10
13.3057142147
 20
6.7272854263
 10
13.2836960786
 20
6.7176886405
 10
13.2337645703
 20
6.7002762788
 10
13.1810535071
 20
6.6859530271
 10
13.1262460261
 20
6.6748945254
 10
13.06981158
 20
6.6671875296
 10
13.0125280446
 20
6.6629277589
 10
12.9548268381
 20
6.6621397709
 10
12.897539853
 20
6.6648269863
 10
12.8411065565
 20
6.6709597067
 10
12.7863169866
 20
6.6804441278
 10
12.7335870897
 20
6.6932020446
 10
12.6836173643
 20
6.7090644561
 10
12.6370167308
 20
6.7278173213
 10
12.6305552371
 20
6.7310555437
  0
LWPOLYLINE
  5
5F7
100
AcDbEntity
  8
0
100
AcDbPolyline
 62
9
  6
CONTINUOUS
 90
27
 70
0
 10
12.2879696287
 20
7.8188751173
 10
12.3550482851
 20
7.7835657968
 10
12.427607692
 20
7.7519224448
 10
12.504901397
 20
7.7242848977
 10
12.5862924619
 20
7.7008803897
 10
12.6710738337
 20
7.6819128886
 10
12.7585254059
 20
7.6675432124
 10
12.8478998957
 20
7.6578941117
 10
12.9384348129
 20
7.6530478064
 10
13.0293574761
 20
7.6530455732
 10
13.1198920059
 20
7.6578873424
 10
13.2092658355
 20
7.6675317092
 10
13.29671633
 20
7.6818962874
 10
13.3814972896
 20
7.7008584143
 10
13.4628853175
 20
7.7242561993
 10
13.5401859911
 20
7.7518899066
 10
13.6127397866
 20
7.783523662
 10
13.6799277052
 20
7.8188874663
 10
13.741176553
 20
7.8576795012
 10
13.7959638303
 20
7.8995687059
 10
13.8438223118
 20
7.9441977322
 10
13.8843439519
 20
7.9911860597
 10
13.9171830357
 20
8.0401329503
 10
13.9420592116
 20
8.0906207898
 10
13.9587600662
 20
8.1422188018
 10
13.9671429396
 20
8.1944867241
 10
13.9681899409
 20
8.2206901884
  0
LINE
  5
5F8
100
AcDbEntity
  8
0
100
AcDbLine
 62
7
  6
CONTINUOUS
 10
13.5705521457
 20
6.9274537251
 11
13.5685381464
 21
6.9492775124
  0
LWPOLYLINE
  5
5F9
100
AcDbEntity
  8
0
100
AcDbPolyline
 62
9
  6
CONTINUOUS
 90
12
 70
0
 10
13.8845685192
 20
8.1948538576
 10
13.9002686367
 20
8.2433556705
 10
13.9081499004
 20
8.2924869633
 10
13.9081450613
 20
8.3418285067
 10
13.9002541591
 20
8.3909592896
 10
13.8845445368
 20
8.4394600521
 10
13.8611501735
 20
8.4869170899
 10
13.8302710358
 20
8.5329249303
 10
13.7921689635
 20
8.5770929491
 10
13.7471764539
 20
8.6190372483
 10
13.6956456295
 20
8.6584247099
 10
13.6381482155
 20
8.6948337281
  0
LINE
  5
5FA
100
AcDbEntity
  8
0
100
AcDbLine
 62
7
  6
CONTINUOUS
 10
13.5505643845
 20
7.0306645354
 11
13.5563889666
 21
7.0469142159
  0
LINE
  5
5FB
100
AcDbEntity
  8
0
100
AcDbLine
 62
7
  6
CONTINUOUS
 10
13.5505643845
 20
7.0246372046
 11
13.5589111797
 21
7.0479234684
  0
LINE
  5
5FC
100
AcDbEntity
  8
0
100
AcDbLine
 62
7
  6
CONTINUOUS
 10
13.5312627499
 20
6.9956423909
 11
13.5505643845
 21
7.0306645354
  0
LINE
  5
5FD
100
AcDbEntity
  8
0
100
AcDbLine
 62
7
  6
CONTINUOUS
 10
13.5312627499
 20
6.98961506
 11
13.5505643845
 21
7.0246372046
  0
LWPOLYLINE
  5
5FE
100
AcDbEntity
  8
0
100
AcDbPolyline
 62
7
  6
CONTINUOUS
 90
5
 70
0
 10
13.515806001
 20
6.8234386379
 10
13.5390537747
 20
6.8576326845
 10
13.556037761
 20
6.8930621445
 10
13.5665663167
 20
6.9293364437
 10
13.5705521457
 20
6.9696450409
  0
LWPOLYLINE
  5
5FF
100
AcDbEntity
  8
0
100
AcDbPolyline
 62
7
  6
CONTINUOUS
 90
6
 70
0
 10
13.5125543513
 20
6.8675901971
 10
13.5365494425
 20
6.9016074923
 10
13.5543090045
 20
6.9369069652
 10
13.5656326428
 20
6.973099508
 10
13.5703925844
 20
7.009785936
 10
13.5705521457
 20
7.0178636876
  0
LWPOLYLINE
  5
600
100
AcDbEntity
  8
0
100
AcDbPolyline
 62
7
  6
CONTINUOUS
 90
5
 70
0
 10
13.5092139105
 20
6.9117664195
 10
13.5339522888
 20
6.9456013865
 10
13.5524844435
 20
6.9807650799
 10
13.5646012625
 20
7.0168699241
 10
13.570075724
 20
7.0529230456
  0
LWPOLYLINE
  5
601
100
AcDbEntity
  8
0
100
AcDbPolyline
 62
7
  6
CONTINUOUS
 90
15
 70
0
 10
13.3113665563
 20
6.6333151813
 10
13.2843759729
 20
6.6215174293
 10
13.2345335183
 20
6.6040771803
 10
13.1816025729
 20
6.5896455102
 10
13.126343224
 20
6.5784736354
 10
13.0696714045
 20
6.5707355066
 10
13.0123673035
 20
6.5664834179
 10
12.9545783123
 20
6.5657066337
 10
12.8971534293
 20
6.5684197348
 10
12.8408683633
 20
6.574555909
 10
12.7861512456
 20
6.5840411319
 10
12.7334950111
 20
6.5967904216
 10
12.6836298296
 20
6.6126226934
 10
12.6370083584
 20
6.6313837932
 10
12.6331688131
 20
6.6333080466
  0
LWPOLYLINE
  5
602
100
AcDbEntity
  8
0
100
AcDbPolyline
 62
7
  6
CONTINUOUS
 90
15
 70
0
 10
13.3141432108
 20
6.5863023776
 10
13.2837085349
 20
6.5730375678
 10
13.2337889271
 20
6.5556278701
 10
13.1811252081
 20
6.541314012
 10
13.1262629856
 20
6.5302414467
 10
13.069775246
 20
6.5225277695
 10
13.0124752781
 20
6.5182695024
 10
12.9547716108
 20
6.5174847488
 10
12.8974829274
 20
6.5201754617
 10
12.8410484541
 20
6.5263119312
 10
12.7862673627
 20
6.5357984529
 10
12.7335869605
 20
6.5485461406
 10
12.6836802671
 20
6.5643859658
 10
12.6370350061
 20
6.5831531629
 10
12.6349142856
 20
6.5842159301
  0
LWPOLYLINE
  5
603
100
AcDbEntity
  8
0
100
AcDbPolyline
 62
9
  6
CONTINUOUS
 90
24
 70
0
 10
12.3297277293
 20
7.9394213174
 10
12.3927914048
 20
7.9062259656
 10
12.4610138644
 20
7.8764753626
 10
12.5336649364
 20
7.8504996464
 10
12.6101676024
 20
7.8285020896
 10
12.689856916
 20
7.8106746495
 10
12.7720562863
 20
7.7971684957
 10
12.8560634028
 20
7.7880990745
 10
12.9411616972
 20
7.7835437342
 10
13.0266249791
 20
7.7835413511
 10
13.1117240253
 20
7.7880919449
 10
13.1957326997
 20
7.7971566861
 10
13.2779341751
 20
7.8106582275
 10
13.3576270437
 20
7.8284813631
 10
13.4341313033
 20
7.8504740121
 10
13.5067941594
 20
7.8764485157
 10
13.5749955954
 20
7.9061832392
 10
13.638153663
 20
7.9394244624
 10
13.6957294478
 20
7.9758885452
 10
13.7472316681
 20
8.0152643473
 10
13.7922208664
 20
8.0572158834
 10
13.8303131593
 20
8.1013851899
 10
13.8611835137
 20
8.1473953797
 10
13.8845685192
 20
8.1948538576
  0
LINE
  5
604
100
AcDbEntity
  8
0
100
AcDbLine
 62
7
  6
CONTINUOUS
 10
13.5705521457
 20
6.9756723718
 11
13.5687858825
 21
6.9974025582
  0
LINE
  5
605
100
AcDbEntity
  8
0
100
AcDbLine
 62
7
  6
CONTINUOUS
 10
13.5705521457
 20
7.0238910184
 11
13.5690065316
 21
7.0458816729
  0
LWPOLYLINE
  5
606
100
AcDbEntity
  8
0
100
AcDbPolyline
 62
7
  6
CONTINUOUS
 90
3
 70
0
 10
13.5705521457
 20
6.8310164317
 10
13.5703136394
 20
6.8408920101
 10
13.5688691138
 20
6.8513146918
  0
LWPOLYLINE
  5
607
100
AcDbEntity
  8
0
100
AcDbPolyline
 62
7
  6
CONTINUOUS
 90
3
 70
0
 10
13.5705521457
 20
6.8792350784
 10
13.5704811645
 20
6.8846229145
 10
13.5686779277
 20
6.9000982796
  0
LINE
  5
608
100
AcDbEntity
  8
0
100
AcDbLine
 62
7
  6
CONTINUOUS
 10
13.5703925844
 20
7.0158132668
 11
13.5705521457
 21
7.0238910184
  0
LINE
  5
609
100
AcDbEntity
  8
0
100
AcDbLine
 62
7
  6
CONTINUOUS
 10
13.5687796131
 20
6.804111371
 11
13.5705521457
 21
6.8310164317
  0
LINE
  5
60A
100
AcDbEntity
  8
0
100
AcDbLine
 62
7
  6
CONTINUOUS
 10
13.568139934
 20
6.8478567739
 11
13.5705521457
 21
6.8792350784
  0
LINE
  5
60B
100
AcDbEntity
  8
0
100
AcDbLine
 62
7
  6
CONTINUOUS
 10
13.5674021272
 20
6.8916073305
 11
13.5705521457
 21
6.9274537251
  0
LINE
  5
60C
100
AcDbEntity
  8
0
100
AcDbLine
 62
7
  6
CONTINUOUS
 10
13.5665663167
 20
6.9353637745
 11
13.5705521457
 21
6.9756723718
  0
LWPOLYLINE
  5
60D
100
AcDbEntity
  8
0
100
AcDbPolyline
 62
7
  6
CONTINUOUS
 90
21
 70
0
 10
13.5167452699
 20
6.6809757381
 10
13.5084312749
 20
6.6617562636
 10
13.4875201885
 20
6.6283246075
 10
13.4605873159
 20
6.5962081271
 10
13.4280020928
 20
6.5660403803
 10
13.3901864778
 20
6.5382489427
 10
13.3478107478
 20
6.5132710042
 10
13.3013684406
 20
6.4913076355
 10
13.2515506813
 20
6.4725956821
 10
13.1988494672
 20
6.457239759
 10
13.1439366093
 20
6.4453734031
 10
13.0873336792
 20
6.437061069
 10
13.029688478
 20
6.4323666721
 10
12.9715790748
 20
6.4313167981
 10
12.9136118349
 20
6.4339165126
 10
12.8564225326
 20
6.4401401664
 10
12.8005446904
 20
6.4499480143
 10
12.7466641406
 20
6.4632477455
 10
12.6952438489
 20
6.4799703032
 10
12.6470276079
 20
6.4999264675
 10
12.6023497283
 20
6.5230548483
  0
LWPOLYLINE
  5
60E
100
AcDbEntity
  8
0
100
AcDbPolyline
 62
7
  6
CONTINUOUS
 90
4
 70
0
 10
13.5220407578
 20
6.7412341703
 10
13.5437823079
 20
6.7757648712
 10
13.559206715
 20
6.8114368426
 10
13.568139934
 20
6.8478567739
  0
LWPOLYLINE
  5
60F
100
AcDbEntity
  8
02___PRT_ALL_AXES
100
AcDbPolyline
 62
7
  6
CONTINUOUS
 90
28
 70
0
 10
13.8992923031
 20
8.3171275255
 10
13.8958094357
 20
8.2710703001
 10
13.8853866758
 20
8.2253614005
 10
13.868103347
 20
8.1803508965
 10
13.8440909858
 20
8.1363813452
 10
13.8135323408
 20
8.0937873815
 10
13.7766599818
 20
8.0528931711
 10
13.7337545296
 20
8.0140099437
 10
13.6851425206
 20
7.977433624
 10
13.6311939216
 20
7.9434425801
 10
13.5723193141
 20
7.9122955042
 10
13.5089667692
 20
7.8842294444
 10
13.4416184382
 20
7.8594580004
 10
13.3707868825
 20
7.8381696978
 10
13.297011173
 20
7.8205265534
 10
13.2208527874
 20
7.8066628423
 10
13.142891337
 20
7.7966840756
 10
13.0637201555
 20
7.7906661978
 10
12.9839417834
 20
7.7886550086
 10
12.9041633824
 20
7.7906658143
 10
12.8249921141
 20
7.7966833114
 10
12.7470305198
 20
7.8066617033
 10
12.6708719342
 20
7.8205250483
 10
12.5970959702
 20
7.838167838
 10
12.5262641075
 20
7.8594558001
 10
12.4589154192
 20
7.8842269204
 10
12.3955624696
 20
7.9122926756
 10
12.3366874128
 20
7.9434394685
  0
LWPOLYLINE
  5
610
100
AcDbEntity
  8
AXIS
100
AcDbPolyline
 62
7
  6
CONTINUOUS
 90
18
 70
0
 10
13.8914094582
 20
8.3021797385
 10
13.889105862
 20
8.3395584076
 10
13.870678715
 20
8.4135504649
 10
13.8342000836
 20
8.4852753354
 10
13.7804125676
 20
8.5532729077
 10
13.7104111257
 20
8.6161589472
 10
13.6256207853
 20
8.6726532756
 10
13.5277676334
 20
8.7216058311
 10
13.4188436778
 20
8.7620200811
 10
13.3010662962
 20
8.7930733078
 10
13.1768330965
 20
8.8141333571
 10
13.0486731083
 20
8.8247715072
 10
12.9191952994
 20
8.8247711959
 10
12.7910354647
 20
8.8141324297
 10
12.6668025687
 20
8.7930717832
 10
12.549025635
 20
8.7620179903
 10
12.4401022623
 20
8.7216032167
 10
12.3422498164
 20
8.6726501907
  0
LINE
  5
611
100
AcDbEntity
  8
AXIS
100
AcDbLine
 62
7
  6
CONTINUOUS
 10
13.8914182874
 20
8.2518129671
 11
13.8914182874
 21
8.3021797422
  0
LINE
  5
612
100
AcDbEntity
  8
0
100
AcDbLine
 62
7
  6
CONTINUOUS
 10
13.9681899406
 20
7.5697236816
 11
13.9681899409
 21
7.5697384698
  0
LINE
  5
613
100
AcDbEntity
  8
02___PRT_ALL_AXES
100
AcDbLine
 62
7
  6
CONTINUOUS
 10
13.9681899409
 20
8.2206902293
 11
13.9681899409
 21
7.5697384992
  0
LINE
  5
614
100
AcDbEntity
  8
0
100
AcDbLine
 62
7
  6
CONTINUOUS
 10
13.9681899409
 20
8.2206901884
 11
13.9681899409
 21
8.2206923792
  0
LWPOLYLINE
  5
615
100
AcDbEntity
  8
0
100
AcDbPolyline
 62
7
  6
CONTINUOUS
 90
16
 70
0
 10
13.9681897525
 20
8.2206921591
 10
13.9674725045
 20
8.2505086428
 10
13.9648148194
 20
8.2840578064
 10
13.9601138357
 20
8.3168128446
 10
13.9532757107
 20
8.3488979347
 10
13.9441301983
 20
8.3806252853
 10
13.9324516126
 20
8.4122379407
 10
13.9179757231
 20
8.4438858893
 10
13.9003291835
 20
8.475783503
 10
13.8790747292
 20
8.5080587192
 10
13.8538620512
 20
8.5405893312
 10
13.8243986076
 20
8.5731604598
 10
13.7904338768
 20
8.605520213
 10
13.7517688675
 20
8.6373851527
 10
13.7082683474
 20
8.6684459534
 10
13.6613452388
 20
8.6975136518
  0
LINE
  5
616
100
AcDbEntity
  8
0
100
AcDbLine
 62
9
  6
CONTINUOUS
 10
13.8925824264
 20
8.256918286
 11
13.8914182874
 21
8.2609150527
  0
LWPOLYLINE
  5
617
100
AcDbEntity
  8
0
100
AcDbPolyline
 62
9
  6
CONTINUOUS
 90
28
 70
0
 10
13.6381482155
 20
8.6948337281
 10
13.57508454
 20
8.7280290798
 10
13.5068620805
 20
8.7577796828
 10
13.4342110085
 20
8.783755399
 10
13.3577083425
 20
8.8057529558
 10
13.2780190289
 20
8.8235803959
 10
13.1958196586
 20
8.8370865498
 10
13.111812542
 20
8.8461559709
 10
13.0267142477
 20
8.8507113112
 10
12.9412509658
 20
8.8507136943
 10
12.8561519195
 20
8.8461631005
 10
12.7721432452
 20
8.8370983593
 10
12.6899417698
 20
8.8235968179
 10
12.6102489012
 20
8.8057736823
 10
12.5337446416
 20
8.7837810333
 10
12.4610817855
 20
8.7578065297
 10
12.3928803495
 20
8.7280718062
 10
12.3297222819
 20
8.694830583
 10
12.272146497
 20
8.6583665002
 10
12.2206442768
 20
8.6189906981
 10
12.1756550785
 20
8.577039162
 10
12.1375627855
 20
8.5328698555
 10
12.1066924312
 20
8.4868596657
 10
12.0833074256
 20
8.4394011878
 10
12.0676073082
 20
8.3908993749
 10
12.0597260444
 20
8.3417680821
 10
12.0597308836
 20
8.2924265387
 10
12.0676217858
 20
8.2432957558
  0
LWPOLYLINE
  5
618
100
AcDbEntity
  8
0
100
AcDbPolyline
 62
7
  6
CONTINUOUS
 90
32
 70
0
 10
13.661349189
 20
8.6975114623
 10
13.5950525489
 20
8.7324097054
 10
13.522193387
 20
8.7641125458
 10
13.4449874815
 20
8.791528608
 10
13.3640739145
 20
8.8145094309
 10
13.2801199605
 20
8.832924759
 10
13.1937872447
 20
8.8466721152
 10
13.1056975258
 20
8.8556745606
 10
13.01651536
 20
8.8598662184
 10
12.9271680012
 20
8.8592100284
 10
12.8386595699
 20
8.8537513828
 10
12.7513440375
 20
8.8435362346
 10
12.6648965003
 20
8.8284231492
 10
12.5800342456
 20
8.808320453
 10
12.5005662761
 20
8.7841904126
 10
12.4299909959
 20
8.7578012207
 10
12.3679183518
 20
8.7300421277
 10
12.3124605678
 20
8.7009077301
 10
12.2629057721
 20
8.6706265955
 10
12.2187089951
 20
8.6393734879
 10
12.1793645562
 20
8.6072175713
 10
12.1444351743
 20
8.5741412845
 10
12.1136890267
 20
8.5402010815
 10
12.0869842932
 20
8.5055000763
 10
12.064150543
 20
8.4700730812
 10
12.0450002954
 20
8.4338624225
 10
12.0293805832
 20
8.3967808607
 10
12.0173185886
 20
8.3592680867
 10
12.0087231846
 20
8.3220582755
 10
12.0032623881
 20
8.2858490715
 10
12.0004084881
 20
8.250611761
 10
11.9996861928
 20
8.2206738583
  0
LWPOLYLINE
  5
619
100
AcDbEntity
  8
02___PRT_ALL_AXES
100
AcDbPolyline
 62
7
  6
CONTINUOUS
 90
28
 70
0
 10
13.6311885321
 20
8.6908155769
 10
13.5723134753
 20
8.7219623698
 10
13.5089605257
 20
8.750028125
 10
13.4416118374
 20
8.7747992453
 10
13.3707799746
 20
8.7960872074
 10
13.2970040107
 20
8.8137299971
 10
13.2208454251
 20
8.8275933421
 10
13.1428838308
 20
8.837571734
 10
13.0637125625
 20
8.8435892312
 10
12.9839341615
 20
8.8456000369
 10
12.9041557894
 20
8.8435888476
 10
12.8249846079
 20
8.8375709698
 10
12.7470231575
 20
8.8275922031
 10
12.6708647719
 20
8.813728492
 10
12.5970890624
 20
8.7960853477
 10
12.5262575067
 20
8.774797045
 10
12.4589091757
 20
8.750025601
 10
12.3955566308
 20
8.7219595412
 10
12.3366820232
 20
8.6908124653
 10
12.2827334243
 20
8.6568214214
 10
12.2341214153
 20
8.6202451017
 10
12.1912159631
 20
8.5813618743
 10
12.154343604
 20
8.5404676639
 10
12.123784959
 20
8.4978737002
 10
12.0997725979
 20
8.4539041489
 10
12.082489269
 20
8.4088936449
 10
12.0720665092
 20
8.3631847453
 10
12.0685836417
 20
8.3171275199
  0
LWPOLYLINE
  5
61A
100
AcDbEntity
  8
02___PRT_ALL_AXES
100
AcDbPolyline
 62
7
  6
CONTINUOUS
 90
10
 70
0
 10
13.6311885321
 20
8.6908155769
 10
13.6851376213
 20
8.6568247923
 10
13.7337501578
 20
8.6202487064
 10
13.7766561708
 20
8.5813656852
 10
13.8135291197
 20
8.5404716521
 10
13.844088379
 20
8.4978778353
 10
13.8681013743
 20
8.4539083995
 10
13.8853853523
 20
8.4088979785
 10
13.8958087714
 20
8.3631891291
 10
13.8992923031
 20
8.3171275255
  0
CIRCLE
  5
61B
100
AcDbEntity
  8
0
100
AcDbCircle
 62
7
  6
CONTINUOUS
 10
10.5342808475
 20
1.243294839
 40
0.252091
  0
CIRCLE
  5
61C
100
AcDbEntity
  8
0
100
AcDbCircle
 62
7
  6
CONTINUOUS
 10
10.5342808475
 20
1.243294839
 40
0.182698
  0
ARC
  5
61D
100
AcDbEntity
  8
0
100
AcDbCircle
 62
7
  6
CONTINUOUS
 10
4.274523293
 20
4.105125442
 40
0.0393700787
100
AcDbArc
 50
180.0
 51
270.0
  0
ARC
  5
61E
100
AcDbEntity
  8
0
100
AcDbCircle
 62
7
  6
CONTINUOUS
 10
5.2981453402
 20
4.105125442
 40
0.0393700787
100
AcDbArc
 50
270.0
 51
360.0
  0
ARC
  5
61F
100
AcDbEntity
  8
0
100
AcDbCircle
 62
7
  6
CONTINUOUS
 10
4.1957831355
 20
4.9318970956
 40
0.0393700787
100
AcDbArc
 50
5.6750079022
 51
90.0
  0
ARC
  5
620
100
AcDbEntity
  8
0
100
AcDbCircle
 62
7
  6
CONTINUOUS
 10
5.3768854977
 20
4.9318970956
 40
0.0393700787
100
AcDbArc
 50
90.0
 51
180.0
  0
CIRCLE
  5
621
100
AcDbEntity
  8
0
100
AcDbCircle
 62
7
  6
CONTINUOUS
 10
4.7863343166
 20
8.1113926977
 40
0.9842519685
  0
CIRCLE
  5
622
100
AcDbEntity
  8
02___PRT_ALL_AXES
100
AcDbCircle
 62
7
  6
CONTINUOUS
 10
4.7863343166
 20
8.1113926977
 40
0.9153543307
  0
CIRCLE
  5
623
100
AcDbEntity
  8
AXIS
100
AcDbCircle
 62
7
  6
CONTINUOUS
 10
4.7863343166
 20
8.1113926977
 40
0.907480315
  0
ENDSEC
  0
SECTION
  2
OBJECTS
  0
DICTIONARY
  5
C
100
AcDbDictionary
280
0
281
1
  3
ACAD_GROUP
350
D
  3
ACAD_MLINESTYLE
350
17
  3
ACAD_LAYOUT
350
1A
  3
ACAD_PLOTSETTINGS
350
19
  3
ACAD_PLOTSTYLENAME
350
E
  0
DICTIONARY
  5
D
102
{ACAD_REACTORS
330
C
102
}
100
AcDbDictionary
280
0
281
1
  0
ACDBDICTIONARYWDFLT
  5
E
102
{ACAD_REACTORS
330
C
102
}
100
AcDbDictionary
281
1
  3
Normal
350
F
100
AcDbDictionaryWithDefault
340
F
  0
DICTIONARY
  5
17
102
{ACAD_REACTORS
330
C
102
}
100
AcDbDictionary
280
0
281
1
  3
Standard
350
18
  0
DICTIONARY
  5
19
102
{ACAD_REACTORS
330
C
102
}
100
AcDbDictionary
281
1
  0
DICTIONARY
  5
1A
102
{ACAD_REACTORS
330
C
102
}
100
AcDbDictionary
281
1
  3
Model
350
624
  3
Layout1
350
625
  0
ACDBPLACEHOLDER
  5
F
102
{ACAD_REACTORS
330
E
102
}
  0
MLINESTYLE
  5
18
102
{ACAD_REACTORS
330
17
102
}
100
AcDbMlineStyle
  2
STANDARD
 70
0
  3

 62
256
 51
90.0
 52
90.0
 71
2
 49
0.5
 62
256
  6
BYLAYER
 49
-0.5
 62
256
  6
BYLAYER
  0
LAYOUT
  5
624
102
{ACAD_REACTORS
330
1A
102
}
100
AcDbPlotSettings
  1

  2
none_device
  4
ANSI_B_(17.00_x_11.00_Inches)
  6

 40
0.0
 41
0.0
 42
0.0
 43
0.0
 44
431.8
 45
279.4
 46
0.0
 47
0.0
 48
0.0
 49
0.0
140
0.0
141
0.0
142
1.0
143
1.0
 70
1024
 72
0
 73
0
 74
0
  7

 75
0
147
1.0
148
0.0
149
0.0
100
AcDbLayout
  1
Model
 70
0
 71
0
 10
0.0
 20
0.0
 11
17.0
 21
11.0
 12
0.0
 22
0.0
 32
0.0
 14
0.0
 24
0.0
 34
0.0
 15
0.0
 25
0.0
 35
0.0
146
0.0
 13
0.0
 23
0.0
 33
0.0
 16
1.0
 26
0.0
 36
0.0
 17
0.0
 27
1.0
 37
0.0
 76
0
330
214
345
0
346
0
  0
LAYOUT
  5
625
102
{ACAD_REACTORS
330
1A
102
}
100
AcDbPlotSettings
  1

  2
none_device
  4
ANSI_B_(17.00_x_11.00_Inches)
  6

 40
0.0
 41
0.0
 42
0.0
 43
0.0
 44
431.8
 45
279.4
 46
0.0
 47
0.0
 48
0.0
 49
0.0
140
0.0
141
0.0
142
1.0
143
1.0
 70
0
 72
0
 73
0
 74
0
  7

 75
0
147
1.0
148
0.0
149
0.0
100
AcDbLayout
  1
Layout1
 70
0
 71
1
 10
0.0
 20
0.0
 11
17.0
 21
11.0
 12
0.0
 22
0.0
 32
0.0
 14
0.0
 24
0.0
 34
0.0
 15
0.0
 25
0.0
 35
0.0
146
0.0
 13
0.0
 23
0.0
 33
0.0
 16
1.0
 26
0.0
 36
0.0
 17
0.0
 27
1.0
 37
0.0
 76
0
330
215
345
0
346
0
  0
ENDSEC
  0
EOF
