999
DXF file: 158610_1.dxf
999
Pro/ENGINEER 2009141 by Parametric Technology Corporation
  0
SECTION
  2
HEADER
  9
$ACADVER
  1
AC1015
  9
$DWGCODEPAGE
  3
ANSI_1252
  9
$EXTMAX
 10
17.0
 20
11.0
 30
0.0
  9
$EXTMIN
 10
0.0
 20
0.0
 30
0.0
  9
$LIMMIN
 10
0.0
 20
0.0
  9
$LIMMAX
 10
17.0
 20
11.0
  9
$VIEWCTR
 10
8.5
 20
5.5
  9
$VIEWSIZE
 40
11.0
  9
$CLAYER
  8
0
  9
$LTSCALE
 40
0.935
  9
$CELTYPE
  6
BYLAYER
  9
$DIMSCALE
 40
1.0
  9
$DIMASZ
 40
0.1875
  9
$DIMEXO
 40
0.10625
  9
$DIMDLI
 40
0.646
  9
$DIMEXE
 40
0.306
  9
$DIMCEN
 40
0.153
  9
$DIMLFAC
 40
1.0
  9
$DIMBLK
  1
_FILLED
  9
$DIMTXT
 40
0.1
  9
$DIMTOL
 70
1
  9
$DIMLIM
 70
0
  9
$DIMTFAC
 40
1.0
  9
$DIMTP
 40
0.005
  9
$DIMTM
 40
0.005
  9
$PDMODE
 70
3
  9
$PDSIZE
 40
0.3125
  9
$HANDSEED
  5
7F7
  9
$TILEMODE
 70
1
  9
$MEASUREMENT
 70
0
  9
$INSUNITS
 70
1
  0
ENDSEC
  0
SECTION
  2
CLASSES
  0
CLASS
  1
ACDBDICTIONARYWDFLT
  2
AcDbDictionaryWithDefault
  3
AutoCAD 2000
 90
0
280
0
281
0
  0
CLASS
  1
ACDBPLACEHOLDER
  2
AcDbPlaceHolder
  3
AutoCAD 2000
 90
0
280
0
281
0
  0
CLASS
  1
LAYOUT
  2
AcDbLayout
  3
AutoCAD 2000
 90
0
280
0
281
0
  0
ENDSEC
  0
SECTION
  2
TABLES
  0
TABLE
  2
VPORT
  5
8
100
AcDbSymbolTable
 70
2
  0
VPORT
  5
1F4
100
AcDbSymbolTableRecord
100
AcDbViewportTableRecord
  2
*ACTIVE
 70
0
 10
0.0
 20
0.0
 11
1.0
 21
1.0
 12
8.5
 22
5.5
 13
0.0
 23
0.0
 14
1.0
 24
1.0
 15
0.0
 25
0.0
 16
0.0
 26
0.0
 36
1.0
 17
0.0
 27
0.0
 37
0.0
 40
11.0
 41
1.5454545455
 42
50.0
 43
0.0
 44
0.0
 50
0.0
 51
0.0
 71
0
 72
100
 73
1
 74
1
 75
0
 76
0
 77
0
 78
0
  0
ENDTAB
  0
TABLE
  2
LTYPE
  5
5
100
AcDbSymbolTable
 70
6
  0
LTYPE
  5
14
100
AcDbSymbolTableRecord
100
AcDbLinetypeTableRecord
  2
BYBLOCK
 70
0
  3

 72
65
 73
0
 40
0.0
  0
LTYPE
  5
15
100
AcDbSymbolTableRecord
100
AcDbLinetypeTableRecord
  2
BYLAYER
 70
0
  3

 72
65
 73
0
 40
0.0
  0
LTYPE
  5
16
100
AcDbSymbolTableRecord
100
AcDbLinetypeTableRecord
  2
CONTINUOUS
 70
64
  3
Solid line
 72
65
 73
0
 40
0.0
  0
LTYPE
  5
1F5
100
AcDbSymbolTableRecord
100
AcDbLinetypeTableRecord
  2
CENTER
 70
64
  3
____ _ ____ _ ____ _ ____ _ ____ _ ____ _ ____
 72
65
 73
4
 40
0.6
 49
0.375
 74
0
 49
-0.075
 74
0
 49
0.075
 74
0
 49
-0.075
 74
0
  0
LTYPE
  5
1F6
100
AcDbSymbolTableRecord
100
AcDbLinetypeTableRecord
  2
HIDDEN
 70
64
  3
- - - - - - - - - - - - - - - - - - - -
 72
65
 73
2
 40
0.2
 49
0.1
 74
0
 49
-0.1
 74
0
  0
LTYPE
  5
1F7
100
AcDbSymbolTableRecord
100
AcDbLinetypeTableRecord
  2
PHANTOM
 70
64
  3
_____ _ _ _____ _ _ _____ _ _ _____
 72
65
 73
6
 40
0.8
 49
0.45
 74
0
 49
-0.05
 74
0
 49
0.1
 74
0
 49
-0.05
 74
0
 49
0.1
 74
0
 49
-0.05
 74
0
  0
LTYPE
  5
1F8
100
AcDbSymbolTableRecord
100
AcDbLinetypeTableRecord
  2
DOT
 70
64
  3
. . . . . . . . . . . . . . . . . . . .
 72
65
 73
2
 40
0.2
 49
0.1
 74
0
 49
-0.1
 74
0
  0
LTYPE
  5
1F9
100
AcDbSymbolTableRecord
100
AcDbLinetypeTableRecord
  2
DASHED
 70
64
  3
- - - - - - - - - - - - - - - - - - - -
 72
65
 73
2
 40
0.2
 49
0.1
 74
0
 49
-0.1
 74
0
  0
ENDTAB
  0
TABLE
  2
LAYER
  5
2
100
AcDbSymbolTable
 70
36
  0
LAYER
  5
10
100
AcDbSymbolTableRecord
100
AcDbLayerTableRecord
  2
0
 70
0
 62
7
  6
CONTINUOUS
370
-3
390
F
  0
LAYER
  5
1FA
100
AcDbSymbolTableRecord
100
AcDbLayerTableRecord
  2
DEFAULT_1
 70
0
 62
7
  6
CENTER
370
-3
390
F
  0
LAYER
  5
1FB
100
AcDbSymbolTableRecord
100
AcDbLayerTableRecord
  2
DEFAULT_2
 70
0
 62
8
  6
HIDDEN
370
-3
390
F
  0
LAYER
  5
1FC
100
AcDbSymbolTableRecord
100
AcDbLayerTableRecord
  2
DEFAULT_3
 70
0
 62
7
  6
PHANTOM
370
-3
390
F
  0
LAYER
  5
1FD
100
AcDbSymbolTableRecord
100
AcDbLayerTableRecord
  2
01___PRT_ALL_DTM_PLN
 70
0
 62
7
  6
CONTINUOUS
370
-3
390
F
  0
LAYER
  5
1FE
100
AcDbSymbolTableRecord
100
AcDbLayerTableRecord
  2
01___PRT_DEF_DTM_PLN
 70
0
 62
7
  6
CONTINUOUS
370
-3
390
F
  0
LAYER
  5
1FF
100
AcDbSymbolTableRecord
100
AcDbLayerTableRecord
  2
02___PRT_ALL_AXES
 70
0
 62
7
  6
CONTINUOUS
370
-3
390
F
  0
LAYER
  5
200
100
AcDbSymbolTableRecord
100
AcDbLayerTableRecord
  2
03___PRT_ALL_CURVES
 70
0
 62
7
  6
CONTINUOUS
370
-3
390
F
  0
LAYER
  5
201
100
AcDbSymbolTableRecord
100
AcDbLayerTableRecord
  2
04___PRT_ALL_DTM_PNT
 70
0
 62
7
  6
CONTINUOUS
370
-3
390
F
  0
LAYER
  5
202
100
AcDbSymbolTableRecord
100
AcDbLayerTableRecord
  2
05___PRT_ALL_DTM_CSYS
 70
0
 62
7
  6
CONTINUOUS
370
-3
390
F
  0
LAYER
  5
203
100
AcDbSymbolTableRecord
100
AcDbLayerTableRecord
  2
05___PRT_DEF_DTM_CSYS
 70
0
 62
7
  6
CONTINUOUS
370
-3
390
F
  0
LAYER
  5
204
100
AcDbSymbolTableRecord
100
AcDbLayerTableRecord
  2
06___PRT_ALL_SURFS
 70
0
 62
7
  6
CONTINUOUS
370
-3
390
F
  0
LAYER
  5
205
100
AcDbSymbolTableRecord
100
AcDbLayerTableRecord
  2
AXIS
 70
0
 62
7
  6
CONTINUOUS
370
-3
390
F
  0
LAYER
  5
206
100
AcDbSymbolTableRecord
100
AcDbLayerTableRecord
  2
AXIS_COSMETIC_THREADS
 70
0
 62
7
  6
CONTINUOUS
370
-3
390
F
  0
LAYER
  5
207
100
AcDbSymbolTableRecord
100
AcDbLayerTableRecord
  2
COSMETIC_THREADS
 70
0
 62
7
  6
CONTINUOUS
370
-3
390
F
  0
LAYER
  5
208
100
AcDbSymbolTableRecord
100
AcDbLayerTableRecord
  2
DATUM_CURVES
 70
0
 62
7
  6
CONTINUOUS
370
-3
390
F
  0
LAYER
  5
209
100
AcDbSymbolTableRecord
100
AcDbLayerTableRecord
  2
DATUM_PLANES
 70
0
 62
7
  6
CONTINUOUS
370
-3
390
F
  0
LAYER
  5
20A
100
AcDbSymbolTableRecord
100
AcDbLayerTableRecord
  2
NOTES
 70
0
 62
7
  6
CONTINUOUS
370
-3
390
F
  0
LAYER
  5
20B
100
AcDbSymbolTableRecord
100
AcDbLayerTableRecord
  2
QUILTS
 70
0
 62
7
  6
CONTINUOUS
370
-3
390
F
  0
LAYER
  5
20C
100
AcDbSymbolTableRecord
100
AcDbLayerTableRecord
  2
SCHEME_DIMS
 70
0
 62
7
  6
CONTINUOUS
370
-3
390
F
  0
LAYER
  5
20D
100
AcDbSymbolTableRecord
100
AcDbLayerTableRecord
  2
SYMBOLS
 70
0
 62
7
  6
CONTINUOUS
370
-3
390
F
  0
ENDTAB
  0
TABLE
  2
STYLE
  5
3
100
AcDbSymbolTable
 70
1
  0
STYLE
  5
11
100
AcDbSymbolTableRecord
100
AcDbTextStyleTableRecord
  2
STANDARD
 70
0
 40
0.0
 41
1.0
 50
0.0
 71
0
 42
0.2
  3
txt
  4

  0
STYLE
  5
20E
100
AcDbSymbolTableRecord
100
AcDbTextStyleTableRecord
  2
TEXTSTYLE_1
 70
0
 40
0.0
 41
0.8
 50
0.0
 71
0
 42
0.2
  3
gdt
  4

  0
STYLE
  5
20F
100
AcDbSymbolTableRecord
100
AcDbTextStyleTableRecord
  2
TEXTSTYLE_2
 70
0
 40
0.0
 41
0.8
 50
0.0
 71
0
 42
0.2
  3
txt
  4

  0
STYLE
  5
210
100
AcDbSymbolTableRecord
100
AcDbTextStyleTableRecord
  2
TEXTSTYLE_3
 70
0
 40
0.0
 41
0.85
 50
0.0
 71
0
 42
0.2
  3
txt
  4

  0
STYLE
  5
211
100
AcDbSymbolTableRecord
100
AcDbTextStyleTableRecord
  2
TEXTSTYLE_4
 70
0
 40
0.0
 41
0.92
 50
0.0
 71
0
 42
0.2
  3
txt
  4

  0
STYLE
  5
212
100
AcDbSymbolTableRecord
100
AcDbTextStyleTableRecord
  2
TEXTSTYLE_5
 70
0
 40
0.0
 41
1.0
 50
0.0
 71
0
 42
0.2
  3
gdt
  4

  0
ENDTAB
  0
TABLE
  2
VIEW
  5
6
100
AcDbSymbolTable
 70
0
  0
ENDTAB
  0
TABLE
  2
UCS
  5
7
100
AcDbSymbolTable
 70
0
  0
ENDTAB
  0
TABLE
  2
APPID
  5
9
100
AcDbSymbolTable
 70
1
  0
APPID
  5
213
100
AcDbSymbolTableRecord
100
AcDbRegAppTableRecord
  2
ACAD
 70
0
  0
ENDTAB
  0
TABLE
  2
BLOCK_RECORD
  5
1
100
AcDbSymbolTable
 70
0
  0
BLOCK_RECORD
  5
214
100
AcDbSymbolTableRecord
100
AcDbBlockTableRecord
  2
*Model_Space
  0
BLOCK_RECORD
  5
215
100
AcDbSymbolTableRecord
100
AcDbBlockTableRecord
  2
*Paper_Space
  0
BLOCK_RECORD
  5
216
100
AcDbSymbolTableRecord
100
AcDbBlockTableRecord
  2
_FILLED
  0
BLOCK_RECORD
  5
217
100
AcDbSymbolTableRecord
100
AcDbBlockTableRecord
  2
*D0
  0
BLOCK_RECORD
  5
218
100
AcDbSymbolTableRecord
100
AcDbBlockTableRecord
  2
*D1
  0
BLOCK_RECORD
  5
219
100
AcDbSymbolTableRecord
100
AcDbBlockTableRecord
  2
*D2
  0
BLOCK_RECORD
  5
21A
100
AcDbSymbolTableRecord
100
AcDbBlockTableRecord
  2
*D3
  0
BLOCK_RECORD
  5
21B
100
AcDbSymbolTableRecord
100
AcDbBlockTableRecord
  2
CL_BL3
  0
BLOCK_RECORD
  5
21C
100
AcDbSymbolTableRecord
100
AcDbBlockTableRecord
  2
CL_BL2
  0
BLOCK_RECORD
  5
21D
100
AcDbSymbolTableRecord
100
AcDbBlockTableRecord
  2
CL_BL1
  0
BLOCK_RECORD
  5
21E
100
AcDbSymbolTableRecord
100
AcDbBlockTableRecord
  2
BANNER_LOGO_TITLEBLOCK_BL0
  0
ENDTAB
  0
TABLE
  2
DIMSTYLE
  5
A
100
AcDbSymbolTable
 70
1
100
AcDbDimStyleTable
 71
0
  0
DIMSTYLE
105
21F
100
AcDbSymbolTableRecord
100
AcDbDimStyleTableRecord
  2
STANDARD
 70
0
  3

  4

 40
1.0
 41
0.1875
 42
0.0625
 43
0.38
 44
0.18
 45
0.0
 46
0.0
 47
0.005
 48
0.005
140
0.1
141
0.09
142
0.0
143
25.4
144
1.0
145
0.0
146
1.0
147
0.09
 71
1.0
 72
0.0
 73
1
 74
1
 75
0
 76
0
 77
0
 78
4
170
0
171
2
172
0
173
0
174
0
175
0
176
0
177
0
178
0
270
2
271
3
272
3
273
2
274
2
275
0
280
0
281
0
282
0
283
1
284
4
285
0
286
0
287
3
288
0
340
11
341
216
342
216
343
216
344
216
  0
DIMSTYLE
105
220
100
AcDbSymbolTableRecord
100
AcDbDimStyleTableRecord
  2
DIMSTYLE_1
 70
0
  3

  4

 40
1.0
 41
0.1875
 42
0.0625
 43
0.38
 44
0.18
 45
0.0
 46
0.0
 47
0.1
 48
0.1
140
0.1
141
0.09
142
0.0
143
25.4
144
1.0
145
0.0
146
1.0
147
0.09
 71
0.0
 72
0.0
 73
1
 74
1
 75
0
 76
0
 77
0
 78
4
170
0
171
2
172
0
173
0
174
0
175
0
176
0
177
0
178
0
270
2
271
1
272
1
273
2
274
2
275
0
280
0
281
0
282
0
283
1
284
4
285
0
286
0
287
3
288
0
340
11
341
216
342
216
343
216
344
216
  0
DIMSTYLE
105
221
100
AcDbSymbolTableRecord
100
AcDbDimStyleTableRecord
  2
DIMSTYLE_2
 70
0
  3

  4

 40
1.0
 41
0.1875
 42
0.0625
 43
0.38
 44
0.18
 45
0.0
 46
0.0
 47
0.1
 48
0.1
140
0.1
141
0.09
142
0.0
143
25.4
144
1.0
145
0.0
146
1.0
147
0.09
 71
0.0
 72
0.0
 73
1
 74
1
 75
0
 76
0
 77
0
 78
4
170
0
171
2
172
0
173
0
174
0
175
0
176
0
177
0
178
0
270
2
271
1
272
1
273
2
274
2
275
0
280
0
281
0
282
0
283
1
284
4
285
0
286
0
287
3
288
0
340
11
341
216
342
216
343
216
344
216
  0
ENDTAB
  0
ENDSEC
  0
SECTION
  2
BLOCKS
  0
BLOCK
  5
20
100
AcDbEntity
  8
0
100
AcDbBlockBegin
  2
*Model_Space
 70
0
 10
0.0
 20
0.0
 30
0.0
  3
*Model_Space
  1

  0
ENDBLK
  5
21
100
AcDbEntity
  8
0
100
AcDbBlockEnd
  0
BLOCK
  5
1C
100
AcDbEntity
  8
0
100
AcDbBlockBegin
  2
*Paper_Space
 70
0
 10
0.0
 20
0.0
 30
0.0
  3
*Paper_Space
  1

  0
ENDBLK
  5
1D
100
AcDbEntity
  8
0
100
AcDbBlockEnd
  0
BLOCK
  5
222
100
AcDbEntity
  8
SYMBOLS
100
AcDbBlockBegin
 62
2
  6
CONTINUOUS
  2
CL_BL3
 70
64
 10
4.6262680149
 20
6.7504052377
  3
CL_BL3
  1

  0
MTEXT
  5
223
100
AcDbEntity
  8
SYMBOLS
100
AcDbMText
 62
2
  6
CONTINUOUS
  7
TEXTSTYLE_5
 71
1
 72
1
 10
4.5412680149
 20
6.8104052377
 30
0.0
 11
1.0
 21
0.0
 31
0.0
 44
0.9
  1
{\Fgdt;q}
 40
0.12
 41
0.17
  0
ENDBLK
  5
224
100
AcDbEntity
  8
0
  6
BYBLOCK
 62
0
100
AcDbBlockEnd
  0
BLOCK
  5
225
100
AcDbEntity
  8
SYMBOLS
100
AcDbBlockBegin
 62
2
  6
CONTINUOUS
  2
CL_BL2
 70
64
 10
5.8450514809
 20
8.0053905635
  3
CL_BL2
  1

  0
MTEXT
  5
226
100
AcDbEntity
  8
SYMBOLS
100
AcDbMText
 62
2
  6
CONTINUOUS
  7
TEXTSTYLE_5
 71
1
 72
1
 10
5.7600514809
 20
8.0653905635
 30
0.0
 11
1.0
 21
0.0
 31
0.0
 44
0.9
  1
{\Fgdt;q}
 40
0.12
 41
0.17
  0
ENDBLK
  5
227
100
AcDbEntity
  8
0
  6
BYBLOCK
 62
0
100
AcDbBlockEnd
  0
BLOCK
  5
228
100
AcDbEntity
  8
SYMBOLS
100
AcDbBlockBegin
 62
2
  6
CONTINUOUS
  2
CL_BL1
 70
64
 10
4.6185139199
 20
2.9565941298
  3
CL_BL1
  1

  0
MTEXT
  5
229
100
AcDbEntity
  8
SYMBOLS
100
AcDbMText
 62
2
  6
CONTINUOUS
  7
TEXTSTYLE_5
 71
1
 72
1
 10
4.5335139199
 20
3.0165941298
 30
0.0
 11
1.0
 21
0.0
 31
0.0
 44
0.9
  1
{\Fgdt;q}
 40
0.12
 41
0.17
  0
ENDBLK
  5
22A
100
AcDbEntity
  8
0
  6
BYBLOCK
 62
0
100
AcDbBlockEnd
  0
BLOCK
  5
22B
100
AcDbEntity
  8
0
100
AcDbBlockBegin
 62
2
  6
CONTINUOUS
  2
BANNER_LOGO_TITLEBLOCK_BL0
 70
64
 10
12.9086867042
 20
2.5403783405
  3
BANNER_LOGO_TITLEBLOCK_BL0
  1

  0
ELLIPSE
  5
22C
100
AcDbEntity
  8
0
100
AcDbEllipse
 62
2
  6
CONTINUOUS
 10
12.9046654608
 20
2.5403783405
 30
0.0
 11
-0.8250004575
 21
0.0
 31
0.0
 40
0.218572
 41
0.0
 42
6.2831853072
  0
ARC
  5
22D
100
AcDbEntity
  8
0
100
AcDbCircle
 62
2
  6
CONTINUOUS
 10
12.400005721
 20
2.5168763464
 40
0.0153945295
100
AcDbArc
 50
354.0454548824
 51
5.1878013979
  0
ARC
  5
22E
100
AcDbEntity
  8
0
100
AcDbCircle
 62
2
  6
CONTINUOUS
 10
12.3931760319
 20
2.5166878286
 40
0.0222174455
100
AcDbArc
 50
4.0793399388
 51
69.834329283
  0
LINE
  5
22F
100
AcDbEntity
  8
0
100
AcDbLine
 62
2
  6
CONTINUOUS
 10
12.4008351814
 20
2.5375433389
 11
12.3907841758
 21
2.5410923409
  0
LINE
  5
230
100
AcDbEntity
  8
0
100
AcDbLine
 62
2
  6
CONTINUOUS
 10
12.3907841758
 20
2.5410923409
 11
12.3990241804
 21
2.5458683435
  0
ARC
  5
231
100
AcDbEntity
  8
0
100
AcDbCircle
 62
2
  6
CONTINUOUS
 10
12.3771587979
 20
2.5826952352
 40
0.0428289026
100
AcDbArc
 50
300.6990502959
 51
319.0591802498
  0
ARC
  5
232
100
AcDbEntity
  8
0
100
AcDbCircle
 62
2
  6
CONTINUOUS
 10
12.3971873948
 20
2.5665668817
 40
0.0171568255
100
AcDbArc
 50
315.9145124245
 51
16.0049121282
  0
ARC
  5
233
100
AcDbEntity
  8
0
100
AcDbCircle
 62
2
  6
CONTINUOUS
 10
12.3922357827
 20
2.5632132173
 40
0.0229166529
100
AcDbArc
 50
20.6563876465
 51
62.3316896973
  0
ARC
  5
234
100
AcDbEntity
  8
0
100
AcDbCircle
 62
2
  6
CONTINUOUS
 10
12.371573659
 20
2.5302846524
 40
0.061747717
100
AcDbArc
 50
59.5385584989
 51
90.0050977555
  0
LINE
  5
235
100
AcDbEntity
  8
0
100
AcDbLine
 62
2
  6
CONTINUOUS
 10
12.3715681652
 20
2.5920323691
 11
12.2055050731
 21
2.5920323691
  0
ARC
  5
236
100
AcDbEntity
  8
0
100
AcDbCircle
 62
2
  6
CONTINUOUS
 10
12.2055050712
 20
2.5895573696
 40
0.0024749995
100
AcDbArc
 50
89.9999571957
 51
180.0000428043
  0
LINE
  5
237
100
AcDbEntity
  8
0
100
AcDbLine
 62
2
  6
CONTINUOUS
 10
12.2030300717
 20
2.5895573678
 11
12.2030300717
 21
2.5697573568
  0
ARC
  5
238
100
AcDbEntity
  8
0
100
AcDbCircle
 62
2
  6
CONTINUOUS
 10
12.2055050712
 20
2.5697573549
 40
0.0024749995
100
AcDbArc
 50
179.9999571957
 51
270.0000428043
  0
LINE
  5
239
100
AcDbEntity
  8
0
100
AcDbLine
 62
2
  6
CONTINUOUS
 10
12.2055050731
 20
2.5672823554
 11
12.2294470864
 21
2.5672823554
  0
ARC
  5
23A
100
AcDbEntity
  8
0
100
AcDbCircle
 62
2
  6
CONTINUOUS
 10
12.2294470882
 20
2.5648073559
 40
0.0024749995
100
AcDbArc
 50
359.9999571957
 51
90.0000428043
  0
LINE
  5
23B
100
AcDbEntity
  8
0
100
AcDbLine
 62
2
  6
CONTINUOUS
 10
12.2319220877
 20
2.564807354
 11
12.2319220877
 21
2.5184523283
  0
ARC
  5
23C
100
AcDbEntity
  8
0
100
AcDbCircle
 62
2
  6
CONTINUOUS
 10
12.2294470882
 20
2.5184523265
 40
0.0024749995
100
AcDbArc
 50
269.9999571957
 51
0.0000428043
  0
LINE
  5
23D
100
AcDbEntity
  8
0
100
AcDbLine
 62
2
  6
CONTINUOUS
 10
12.2294470864
 20
2.515977327
 11
12.2055050731
 21
2.515977327
  0
ARC
  5
23E
100
AcDbEntity
  8
0
100
AcDbCircle
 62
2
  6
CONTINUOUS
 10
12.2055050712
 20
2.5135023274
 40
0.0024749995
100
AcDbArc
 50
89.9999571957
 51
180.0000428043
  0
LINE
  5
23F
100
AcDbEntity
  8
0
100
AcDbLine
 62
2
  6
CONTINUOUS
 10
12.2030300717
 20
2.5135023256
 11
12.2030300717
 21
2.4937023146
  0
ARC
  5
240
100
AcDbEntity
  8
0
100
AcDbCircle
 62
2
  6
CONTINUOUS
 10
12.2055050712
 20
2.4937023128
 40
0.0024749995
100
AcDbArc
 50
179.9999571957
 51
270.0000428043
  0
LINE
  5
241
100
AcDbEntity
  8
0
100
AcDbLine
 62
2
  6
CONTINUOUS
 10
12.2055050731
 20
2.4912273132
 11
12.3819511709
 21
2.4912273132
  0
ARC
  5
242
100
AcDbEntity
  8
0
100
AcDbCircle
 62
2
  6
CONTINUOUS
 10
12.3792298263
 20
2.539634765
 40
0.048483885
100
AcDbArc
 50
273.21763719
 51
303.0749121182
  0
ARC
  5
243
100
AcDbEntity
  8
0
100
AcDbCircle
 62
2
  6
CONTINUOUS
 10
12.3940692204
 20
2.5168671561
 40
0.0213072145
100
AcDbArc
 50
303.0488228549
 51
355.7263138674
  0
LINE
  5
244
100
AcDbEntity
  8
0
100
AcDbLine
 62
2
  6
CONTINUOUS
 10
12.2949101227
 20
2.5499573458
 11
12.3362731456
 21
2.5499573458
  0
ARC
  5
245
100
AcDbEntity
  8
0
100
AcDbCircle
 62
2
  6
CONTINUOUS
 10
12.3362731456
 20
2.5586198506
 40
0.0086625048
100
AcDbArc
 50
270.0
 51
90.0
  0
LINE
  5
246
100
AcDbEntity
  8
0
100
AcDbLine
 62
2
  6
CONTINUOUS
 10
12.3362731456
 20
2.5672823554
 11
12.2949101227
 21
2.5672823554
  0
ARC
  5
247
100
AcDbEntity
  8
0
100
AcDbCircle
 62
2
  6
CONTINUOUS
 10
12.2949101208
 20
2.5648073559
 40
0.0024749995
100
AcDbArc
 50
89.9999571957
 51
180.0000428043
  0
LINE
  5
248
100
AcDbEntity
  8
0
100
AcDbLine
 62
2
  6
CONTINUOUS
 10
12.2924351213
 20
2.564807354
 11
12.2924351213
 21
2.5524323472
  0
ARC
  5
249
100
AcDbEntity
  8
0
100
AcDbCircle
 62
2
  6
CONTINUOUS
 10
12.2949101208
 20
2.5524323453
 40
0.0024749995
100
AcDbArc
 50
179.9999571957
 51
270.0000428043
  0
LINE
  5
24A
100
AcDbEntity
  8
0
100
AcDbLine
 62
2
  6
CONTINUOUS
 10
12.2924351213
 20
2.5184523283
 11
12.2924351213
 21
2.5308273352
  0
ARC
  5
24B
100
AcDbEntity
  8
0
100
AcDbCircle
 62
2
  6
CONTINUOUS
 10
12.2949101208
 20
2.530827337
 40
0.0024749995
100
AcDbArc
 50
89.9999571957
 51
180.0000428043
  0
LINE
  5
24C
100
AcDbEntity
  8
0
100
AcDbLine
 62
2
  6
CONTINUOUS
 10
12.2949101227
 20
2.5333023366
 11
12.3362731456
 21
2.5333023366
  0
ARC
  5
24D
100
AcDbEntity
  8
0
100
AcDbCircle
 62
2
  6
CONTINUOUS
 10
12.3362731456
 20
2.5246398318
 40
0.0086625048
100
AcDbArc
 50
270.0
 51
90.0
  0
LINE
  5
24E
100
AcDbEntity
  8
0
100
AcDbLine
 62
2
  6
CONTINUOUS
 10
12.3362731456
 20
2.515977327
 11
12.2949101227
 21
2.515977327
  0
ARC
  5
24F
100
AcDbEntity
  8
0
100
AcDbCircle
 62
2
  6
CONTINUOUS
 10
12.2949101208
 20
2.5184523265
 40
0.0024749995
100
AcDbArc
 50
179.9999571957
 51
270.0000428043
  0
ARC
  5
250
100
AcDbEntity
  8
0
100
AcDbCircle
 62
2
  6
CONTINUOUS
 10
13.5806801742
 20
2.5212486481
 40
0.044722495
100
AcDbArc
 50
195.531588407
 51
204.7624440448
  0
LINE
  5
251
100
AcDbEntity
  8
0
100
AcDbLine
 62
2
  6
CONTINUOUS
 10
13.5375908118
 20
2.5092733232
 11
13.5357868108
 21
2.5153423266
  0
ARC
  5
252
100
AcDbEntity
  8
0
100
AcDbCircle
 62
2
  6
CONTINUOUS
 10
13.4974076135
 20
2.5055452462
 40
0.0396099176
100
AcDbArc
 50
14.3201081283
 51
22.4984722084
  0
ARC
  5
253
100
AcDbEntity
  8
0
100
AcDbCircle
 62
2
  6
CONTINUOUS
 10
13.5201739219
 20
2.5145168728
 40
0.0151491919
100
AcDbArc
 50
24.098260853
 51
63.0369451818
  0
ARC
  5
254
100
AcDbEntity
  8
0
100
AcDbCircle
 62
2
  6
CONTINUOUS
 10
13.5161192671
 20
2.5062372524
 40
0.0243676582
100
AcDbArc
 50
63.3666028271
 51
90.3937697637
  0
LINE
  5
255
100
AcDbEntity
  8
0
100
AcDbLine
 62
2
  6
CONTINUOUS
 10
13.5159517998
 20
2.5306043351
 11
13.4883447845
 21
2.5306043351
  0
ARC
  5
256
100
AcDbEntity
  8
0
100
AcDbCircle
 62
2
  6
CONTINUOUS
 10
13.4883447827
 20
2.5281293355
 40
0.0024749995
100
AcDbArc
 50
89.9999571957
 51
180.0000428043
  0
LINE
  5
257
100
AcDbEntity
  8
0
100
AcDbLine
 62
2
  6
CONTINUOUS
 10
13.4858697831
 20
2.5281293337
 11
13.4858697831
 21
2.5184303283
  0
ARC
  5
258
100
AcDbEntity
  8
0
100
AcDbCircle
 62
2
  6
CONTINUOUS
 10
13.4883447827
 20
2.5184303265
 40
0.0024749995
100
AcDbArc
 50
179.9999571957
 51
270.0000428043
  0
LINE
  5
259
100
AcDbEntity
  8
0
100
AcDbLine
 62
2
  6
CONTINUOUS
 10
13.4883447845
 20
2.5159553269
 11
13.5130037982
 21
2.5159553269
  0
ARC
  5
25A
100
AcDbEntity
  8
0
100
AcDbCircle
 62
2
  6
CONTINUOUS
 10
13.5130038
 20
2.5134803274
 40
0.0024749995
100
AcDbArc
 50
359.9999571957
 51
90.0000428043
  0
LINE
  5
25B
100
AcDbEntity
  8
0
100
AcDbLine
 62
2
  6
CONTINUOUS
 10
13.5154787995
 20
2.5134803256
 11
13.5154787995
 21
2.4937023146
  0
ARC
  5
25C
100
AcDbEntity
  8
0
100
AcDbCircle
 62
2
  6
CONTINUOUS
 10
13.5130038
 20
2.4937023128
 40
0.0024749995
100
AcDbArc
 50
269.9999571957
 51
0.0000428043
  0
LINE
  5
25D
100
AcDbEntity
  8
0
100
AcDbLine
 62
2
  6
CONTINUOUS
 10
13.5130037982
 20
2.4912273132
 11
13.3994327352
 21
2.4912273132
  0
ARC
  5
25E
100
AcDbEntity
  8
0
100
AcDbCircle
 62
2
  6
CONTINUOUS
 10
13.3994327333
 20
2.4937023128
 40
0.0024749995
100
AcDbArc
 50
179.9999571957
 51
270.0000428043
  0
LINE
  5
25F
100
AcDbEntity
  8
0
100
AcDbLine
 62
2
  6
CONTINUOUS
 10
13.3969577338
 20
2.4937023146
 11
13.3969577338
 21
2.5135023256
  0
ARC
  5
260
100
AcDbEntity
  8
0
100
AcDbCircle
 62
2
  6
CONTINUOUS
 10
13.3994327333
 20
2.5135023274
 40
0.0024749995
100
AcDbArc
 50
89.9999571957
 51
180.0000428043
  0
LINE
  5
261
100
AcDbEntity
  8
0
100
AcDbLine
 62
2
  6
CONTINUOUS
 10
13.3994327352
 20
2.515977327
 11
13.4221787478
 21
2.515977327
  0
ARC
  5
262
100
AcDbEntity
  8
0
100
AcDbCircle
 62
2
  6
CONTINUOUS
 10
13.4221787497
 20
2.5184523265
 40
0.0024749995
100
AcDbArc
 50
269.9999571957
 51
0.0000428042
  0
LINE
  5
263
100
AcDbEntity
  8
0
100
AcDbLine
 62
2
  6
CONTINUOUS
 10
13.4246537492
 20
2.5184523283
 11
13.4246537492
 21
2.564807354
  0
ARC
  5
264
100
AcDbEntity
  8
0
100
AcDbCircle
 62
2
  6
CONTINUOUS
 10
13.4221787497
 20
2.5648073559
 40
0.0024749995
100
AcDbArc
 50
359.9999571957
 51
90.0000428043
  0
LINE
  5
265
100
AcDbEntity
  8
0
100
AcDbLine
 62
2
  6
CONTINUOUS
 10
13.4221787478
 20
2.5672823554
 11
13.3994327352
 21
2.5672823554
  0
ARC
  5
266
100
AcDbEntity
  8
0
100
AcDbCircle
 62
2
  6
CONTINUOUS
 10
13.3994327333
 20
2.5697573549
 40
0.0024749995
100
AcDbArc
 50
179.9999571957
 51
270.0000428043
  0
LINE
  5
267
100
AcDbEntity
  8
0
100
AcDbLine
 62
2
  6
CONTINUOUS
 10
13.3969577338
 20
2.5697573568
 11
13.3969577338
 21
2.5895573678
  0
ARC
  5
268
100
AcDbEntity
  8
0
100
AcDbCircle
 62
2
  6
CONTINUOUS
 10
13.3994327333
 20
2.5895573696
 40
0.0024749995
100
AcDbArc
 50
89.9999571957
 51
180.0000428043
  0
LINE
  5
269
100
AcDbEntity
  8
0
100
AcDbLine
 62
2
  6
CONTINUOUS
 10
13.3994327352
 20
2.5920323691
 11
13.5490138181
 21
2.5920323691
  0
ARC
  5
26A
100
AcDbEntity
  8
0
100
AcDbCircle
 62
2
  6
CONTINUOUS
 10
13.5463505148
 20
2.4094934586
 40
0.1825583387
100
AcDbArc
 50
79.8618509324
 51
89.1640948679
  0
ARC
  5
26B
100
AcDbEntity
  8
0
100
AcDbCircle
 62
2
  6
CONTINUOUS
 10
13.5726548052
 20
2.5503169747
 40
0.039319019
100
AcDbArc
 50
59.1202086415
 51
81.4730239328
  0
ARC
  5
26C
100
AcDbEntity
  8
0
100
AcDbCircle
 62
2
  6
CONTINUOUS
 10
13.5783142014
 20
2.5566516438
 40
0.0310192946
100
AcDbArc
 50
34.7540871
 51
62.0879016178
  0
ARC
  5
26D
100
AcDbEntity
  8
0
100
AcDbCircle
 62
2
  6
CONTINUOUS
 10
13.5900029525
 20
2.565201245
 40
0.0165459396
100
AcDbArc
 50
1.548452892
 51
33.5033152417
  0
ARC
  5
26E
100
AcDbEntity
  8
0
100
AcDbCircle
 62
2
  6
CONTINUOUS
 10
13.5932995477
 20
2.5653696972
 40
0.0132462337
100
AcDbArc
 50
331.1510006998
 51
1.205404301
  0
ARC
  5
26F
100
AcDbEntity
  8
0
100
AcDbCircle
 62
2
  6
CONTINUOUS
 10
13.5822888914
 20
2.5720482849
 40
0.0261183659
100
AcDbArc
 50
305.6373831893
 51
329.9727629745
  0
ARC
  5
270
100
AcDbEntity
  8
0
100
AcDbCircle
 62
2
  6
CONTINUOUS
 10
13.5519569538
 20
2.6152551345
 40
0.0789082104
100
AcDbArc
 50
292.906155071
 51
305.2574666259
  0
ARC
  5
271
100
AcDbEntity
  8
0
100
AcDbCircle
 62
2
  6
CONTINUOUS
 10
13.5282557878
 20
2.4386010294
 40
0.117346916
100
AcDbArc
 50
58.614769177
 51
62.3737227606
  0
ARC
  5
272
100
AcDbEntity
  8
0
100
AcDbCircle
 62
2
  6
CONTINUOUS
 10
13.5761387404
 20
2.5167282896
 40
0.0257145923
100
AcDbArc
 50
39.3804255939
 51
59.0361096173
  0
ARC
  5
273
100
AcDbEntity
  8
0
100
AcDbCircle
 62
2
  6
CONTINUOUS
 10
13.5750183849
 20
2.5166552064
 40
0.0266349791
100
AcDbArc
 50
20.3630922153
 51
37.9727053099
  0
ARC
  5
274
100
AcDbEntity
  8
0
100
AcDbCircle
 62
2
  6
CONTINUOUS
 10
13.5571178432
 20
2.509473798
 40
0.0459185159
100
AcDbArc
 50
15.6740290068
 51
20.9917271228
  0
ARC
  5
275
100
AcDbEntity
  8
0
100
AcDbCircle
 62
2
  6
CONTINUOUS
 10
13.6156881783
 20
2.525116781
 40
0.0147197649
100
AcDbArc
 50
192.7054516565
 51
206.0594861022
  0
ARC
  5
276
100
AcDbEntity
  8
0
100
AcDbCircle
 62
2
  6
CONTINUOUS
 10
13.6071938412
 20
2.5209082945
 40
0.0052403997
100
AcDbArc
 50
205.5232099488
 51
227.5054868079
  0
ARC
  5
277
100
AcDbEntity
  8
0
100
AcDbCircle
 62
2
  6
CONTINUOUS
 10
13.6054655419
 20
2.5190929218
 40
0.0027347709
100
AcDbArc
 50
228.5117626737
 51
266.1485845754
  0
LINE
  5
278
100
AcDbEntity
  8
0
100
AcDbLine
 62
2
  6
CONTINUOUS
 10
13.6052818493
 20
2.5163643272
 11
13.60639085
 21
2.5163643272
  0
ARC
  5
279
100
AcDbEntity
  8
0
100
AcDbCircle
 62
2
  6
CONTINUOUS
 10
13.6063292954
 20
2.5296129864
 40
0.0132488022
100
AcDbArc
 50
270.266200055
 51
281.2404888597
  0
ARC
  5
27A
100
AcDbEntity
  8
0
100
AcDbCircle
 62
2
  6
CONTINUOUS
 10
13.6075235364
 20
2.5238762928
 40
0.0073895522
100
AcDbArc
 50
280.8288201977
 51
305.0837508495
  0
ARC
  5
27B
100
AcDbEntity
  8
0
100
AcDbCircle
 62
2
  6
CONTINUOUS
 10
13.607924718
 20
2.5230254464
 40
0.0064647042
100
AcDbArc
 50
306.5086174083
 51
340.2162360092
  0
ARC
  5
27C
100
AcDbEntity
  8
0
100
AcDbCircle
 62
2
  6
CONTINUOUS
 10
13.6027235414
 20
2.524769508
 40
0.0119498009
100
AcDbArc
 50
340.7883861657
 51
1.1691452593
  0
LINE
  5
27D
100
AcDbEntity
  8
0
100
AcDbLine
 62
2
  6
CONTINUOUS
 10
13.6146708546
 20
2.525013332
 11
13.6146708546
 21
2.5276393334
  0
ARC
  5
27E
100
AcDbEntity
  8
0
100
AcDbCircle
 62
2
  6
CONTINUOUS
 10
13.6171458541
 20
2.5276393353
 40
0.0024749995
100
AcDbArc
 50
89.9999571957
 51
180.0000428043
  0
LINE
  5
27F
100
AcDbEntity
  8
0
100
AcDbLine
 62
2
  6
CONTINUOUS
 10
13.6171458559
 20
2.5301143348
 11
13.6292558626
 21
2.5301143348
  0
ARC
  5
280
100
AcDbEntity
  8
0
100
AcDbCircle
 62
2
  6
CONTINUOUS
 10
13.6292558645
 20
2.5276393353
 40
0.0024749995
100
AcDbArc
 50
359.9999571957
 51
90.0000428043
  0
LINE
  5
281
100
AcDbEntity
  8
0
100
AcDbLine
 62
2
  6
CONTINUOUS
 10
13.631730864
 20
2.5276393334
 11
13.631730864
 21
2.516087327
  0
ARC
  5
282
100
AcDbEntity
  8
0
100
AcDbCircle
 62
2
  6
CONTINUOUS
 10
13.6141751675
 20
2.5161916447
 40
0.0175560065
100
AcDbArc
 50
332.2279060967
 51
359.6595469939
  0
ARC
  5
283
100
AcDbEntity
  8
0
100
AcDbCircle
 62
2
  6
CONTINUOUS
 10
13.6048681567
 20
2.5210861501
 40
0.0280715479
100
AcDbArc
 50
308.5071794988
 51
332.2400656899
  0
ARC
  5
284
100
AcDbEntity
  8
0
100
AcDbCircle
 62
2
  6
CONTINUOUS
 10
13.5978759713
 20
2.5286873679
 40
0.0383802683
100
AcDbArc
 50
288.7656836787
 51
309.6104317088
  0
ARC
  5
285
100
AcDbEntity
  8
0
100
AcDbCircle
 62
2
  6
CONTINUOUS
 10
13.6036139387
 20
2.5111006186
 40
0.0198837666
100
AcDbArc
 50
271.8586572978
 51
289.4131338543
  0
LINE
  5
286
100
AcDbEntity
  8
0
100
AcDbLine
 62
2
  6
CONTINUOUS
 10
13.6042588488
 20
2.4912273132
 11
13.5568948225
 21
2.4912273132
  0
ARC
  5
287
100
AcDbEntity
  8
0
100
AcDbCircle
 62
2
  6
CONTINUOUS
 10
13.5577001432
 20
2.5085494649
 40
0.0173408616
100
AcDbArc
 50
232.4713476722
 51
267.338189944
  0
ARC
  5
288
100
AcDbEntity
  8
0
100
AcDbCircle
 62
2
  6
CONTINUOUS
 10
13.5607987082
 20
2.5143997688
 40
0.0238935861
100
AcDbArc
 50
209.8247607259
 51
235.1255079367
  0
ARC
  5
289
100
AcDbEntity
  8
0
100
AcDbCircle
 62
2
  6
CONTINUOUS
 10
13.5295131508
 20
2.5629115009
 40
0.0110815393
100
AcDbArc
 50
306.758405961
 51
320.4502234234
  0
ARC
  5
28A
100
AcDbEntity
  8
0
100
AcDbCircle
 62
2
  6
CONTINUOUS
 10
13.5238839599
 20
2.5706523294
 40
0.0206523367
100
AcDbArc
 50
289.6883413472
 51
306.4184925496
  0
ARC
  5
28B
100
AcDbEntity
  8
0
100
AcDbCircle
 62
2
  6
CONTINUOUS
 10
13.5219564542
 20
2.5750459767
 40
0.0254407115
100
AcDbArc
 50
270.7327484175
 51
290.441894219
  0
LINE
  5
28C
100
AcDbEntity
  8
0
100
AcDbLine
 62
2
  6
CONTINUOUS
 10
13.5222818033
 20
2.5496073456
 11
13.4883447845
 21
2.5496073456
  0
ARC
  5
28D
100
AcDbEntity
  8
0
100
AcDbCircle
 62
2
  6
CONTINUOUS
 10
13.4883447827
 20
2.5520823451
 40
0.0024749995
100
AcDbArc
 50
179.9999571957
 51
270.0000428043
  0
LINE
  5
28E
100
AcDbEntity
  8
0
100
AcDbLine
 62
2
  6
CONTINUOUS
 10
13.4858697831
 20
2.552082347
 11
13.4858697831
 21
2.564807354
  0
ARC
  5
28F
100
AcDbEntity
  8
0
100
AcDbCircle
 62
2
  6
CONTINUOUS
 10
13.4883447827
 20
2.5648073559
 40
0.0024749995
100
AcDbArc
 50
89.9999571957
 51
180.0000428043
  0
LINE
  5
290
100
AcDbEntity
  8
0
100
AcDbLine
 62
2
  6
CONTINUOUS
 10
13.4883447845
 20
2.5672823554
 11
13.5251458049
 21
2.5672823554
  0
ARC
  5
291
100
AcDbEntity
  8
0
100
AcDbCircle
 62
2
  6
CONTINUOUS
 10
13.5236009174
 20
2.5388278764
 40
0.0284963867
100
AcDbArc
 50
70.3834917948
 51
86.8922743861
  0
ARC
  5
292
100
AcDbEntity
  8
0
100
AcDbCircle
 62
2
  6
CONTINUOUS
 10
13.5284605274
 20
2.5518696094
 40
0.0145814632
100
AcDbArc
 50
54.6746025112
 51
71.1660573124
  0
ARC
  5
293
100
AcDbEntity
  8
0
100
AcDbCircle
 62
2
  6
CONTINUOUS
 10
13.5335900184
 20
2.5587235346
 40
0.0060275915
100
AcDbArc
 50
20.9055592135
 51
56.7851676243
  0
ARC
  5
294
100
AcDbEntity
  8
0
100
AcDbCircle
 62
2
  6
CONTINUOUS
 10
13.5348905773
 20
2.5593838168
 40
0.0045795888
100
AcDbArc
 50
355.6235353944
 51
18.9942678268
  0
ARC
  5
295
100
AcDbEntity
  8
0
100
AcDbCircle
 62
2
  6
CONTINUOUS
 10
13.533683767
 20
2.559677593
 40
0.0058087709
100
AcDbArc
 50
318.8515287446
 51
353.6422345323
  0
LINE
  5
296
100
AcDbEntity
  8
0
100
AcDbLine
 62
2
  6
CONTINUOUS
 10
12.672340332
 20
2.5920323691
 11
12.7727983877
 21
2.5920323691
  0
ARC
  5
297
100
AcDbEntity
  8
0
100
AcDbCircle
 62
2
  6
CONTINUOUS
 10
12.7727985224
 20
2.5895582013
 40
0.0024741678
100
AcDbArc
 50
46.3477981899
 51
90.0031206038
  0
LINE
  5
298
100
AcDbEntity
  8
0
100
AcDbLine
 62
2
  6
CONTINUOUS
 10
12.7745063886
 20
2.5913483688
 11
12.8345394219
 21
2.534068337
  0
ARC
  5
299
100
AcDbEntity
  8
0
100
AcDbCircle
 62
2
  6
CONTINUOUS
 10
12.8362481229
 20
2.5358592748
 40
0.0024753014
100
AcDbArc
 50
226.3461263059
 51
0.0014637321
  0
LINE
  5
29A
100
AcDbEntity
  8
0
100
AcDbLine
 62
2
  6
CONTINUOUS
 10
12.8387234242
 20
2.535859338
 11
12.8387234242
 21
2.564807354
  0
ARC
  5
29B
100
AcDbEntity
  8
0
100
AcDbCircle
 62
2
  6
CONTINUOUS
 10
12.8362484247
 20
2.5648073559
 40
0.0024749995
100
AcDbArc
 50
359.9999571957
 51
90.0000428043
  0
LINE
  5
29C
100
AcDbEntity
  8
0
100
AcDbLine
 62
2
  6
CONTINUOUS
 10
12.8362484229
 20
2.5672823554
 11
12.8174724125
 21
2.5672823554
  0
ARC
  5
29D
100
AcDbEntity
  8
0
100
AcDbCircle
 62
2
  6
CONTINUOUS
 10
12.8174724106
 20
2.5697573549
 40
0.0024749995
100
AcDbArc
 50
179.9999571957
 51
270.0000428043
  0
LINE
  5
29E
100
AcDbEntity
  8
0
100
AcDbLine
 62
2
  6
CONTINUOUS
 10
12.8149974111
 20
2.5697573568
 11
12.8149974111
 21
2.5895573678
  0
ARC
  5
29F
100
AcDbEntity
  8
0
100
AcDbCircle
 62
2
  6
CONTINUOUS
 10
12.8174724106
 20
2.5895573696
 40
0.0024749995
100
AcDbArc
 50
89.9999571957
 51
180.0000428043
  0
LINE
  5
2A0
100
AcDbEntity
  8
0
100
AcDbLine
 62
2
  6
CONTINUOUS
 10
12.8174724125
 20
2.5920323691
 11
12.8914734535
 21
2.5920323691
  0
ARC
  5
2A1
100
AcDbEntity
  8
0
100
AcDbCircle
 62
2
  6
CONTINUOUS
 10
12.8914734553
 20
2.5895573696
 40
0.0024749995
100
AcDbArc
 50
359.9999571957
 51
90.0000428043
  0
LINE
  5
2A2
100
AcDbEntity
  8
0
100
AcDbLine
 62
2
  6
CONTINUOUS
 10
12.8939484549
 20
2.5895573678
 11
12.8939484549
 21
2.5697573568
  0
ARC
  5
2A3
100
AcDbEntity
  8
0
100
AcDbCircle
 62
2
  6
CONTINUOUS
 10
12.8914734553
 20
2.5697573549
 40
0.0024749995
100
AcDbArc
 50
269.9999571957
 51
0.0000428043
  0
LINE
  5
2A4
100
AcDbEntity
  8
0
100
AcDbLine
 62
2
  6
CONTINUOUS
 10
12.8914734535
 20
2.5672823554
 11
12.8735404436
 21
2.5672823554
  0
ARC
  5
2A5
100
AcDbEntity
  8
0
100
AcDbCircle
 62
2
  6
CONTINUOUS
 10
12.8735404417
 20
2.5648073559
 40
0.0024749995
100
AcDbArc
 50
89.9999571957
 51
180.0000428043
  0
LINE
  5
2A6
100
AcDbEntity
  8
0
100
AcDbLine
 62
2
  6
CONTINUOUS
 10
12.8710654422
 20
2.564807354
 11
12.8710654422
 21
2.4937023146
  0
ARC
  5
2A7
100
AcDbEntity
  8
0
100
AcDbCircle
 62
2
  6
CONTINUOUS
 10
12.8685904427
 20
2.4937023128
 40
0.0024749995
100
AcDbArc
 50
269.9999571957
 51
0.0000428043
  0
LINE
  5
2A8
100
AcDbEntity
  8
0
100
AcDbLine
 62
2
  6
CONTINUOUS
 10
12.8685904408
 20
2.4912273132
 11
12.7943853997
 21
2.4912273132
  0
ARC
  5
2A9
100
AcDbEntity
  8
0
100
AcDbCircle
 62
2
  6
CONTINUOUS
 10
12.7943847649
 20
2.4937027294
 40
0.0024754162
100
AcDbArc
 50
226.3593695813
 51
270.0146919953
  0
LINE
  5
2AA
100
AcDbEntity
  8
0
100
AcDbLine
 62
2
  6
CONTINUOUS
 10
12.7926763987
 20
2.4919113136
 11
12.7293963636
 21
2.5522893471
  0
ARC
  5
2AB
100
AcDbEntity
  8
0
100
AcDbCircle
 62
2
  6
CONTINUOUS
 10
12.7276876627
 20
2.5504984093
 40
0.0024753014
100
AcDbArc
 50
46.3461263059
 51
180.0014637321
  0
LINE
  5
2AC
100
AcDbEntity
  8
0
100
AcDbLine
 62
2
  6
CONTINUOUS
 10
12.7252123613
 20
2.5504983461
 11
12.7252123613
 21
2.5184523283
  0
ARC
  5
2AD
100
AcDbEntity
  8
0
100
AcDbCircle
 62
2
  6
CONTINUOUS
 10
12.7276873608
 20
2.5184523265
 40
0.0024749995
100
AcDbArc
 50
179.9999571957
 51
270.0000428043
  0
LINE
  5
2AE
100
AcDbEntity
  8
0
100
AcDbLine
 62
2
  6
CONTINUOUS
 10
12.7276873627
 20
2.515977327
 11
12.7480043739
 21
2.515977327
  0
ARC
  5
2AF
100
AcDbEntity
  8
0
100
AcDbCircle
 62
2
  6
CONTINUOUS
 10
12.7480043758
 20
2.5135023274
 40
0.0024749995
100
AcDbArc
 50
359.9999571957
 51
90.0000428043
  0
LINE
  5
2B0
100
AcDbEntity
  8
0
100
AcDbLine
 62
2
  6
CONTINUOUS
 10
12.7504793753
 20
2.5135023256
 11
12.7504793753
 21
2.4937023146
  0
ARC
  5
2B1
100
AcDbEntity
  8
0
100
AcDbCircle
 62
2
  6
CONTINUOUS
 10
12.7480043758
 20
2.4937023128
 40
0.0024749995
100
AcDbArc
 50
269.9999571957
 51
0.0000428043
  0
LINE
  5
2B2
100
AcDbEntity
  8
0
100
AcDbLine
 62
2
  6
CONTINUOUS
 10
12.7480043739
 20
2.4912273132
 11
12.672340332
 21
2.4912273132
  0
ARC
  5
2B3
100
AcDbEntity
  8
0
100
AcDbCircle
 62
2
  6
CONTINUOUS
 10
12.6723403301
 20
2.4937023128
 40
0.0024749995
100
AcDbArc
 50
179.9999571957
 51
270.0000428043
  0
LINE
  5
2B4
100
AcDbEntity
  8
0
100
AcDbLine
 62
2
  6
CONTINUOUS
 10
12.6698653306
 20
2.4937023146
 11
12.6698653306
 21
2.5135023256
  0
ARC
  5
2B5
100
AcDbEntity
  8
0
100
AcDbCircle
 62
2
  6
CONTINUOUS
 10
12.6723403301
 20
2.5135023274
 40
0.0024749995
100
AcDbArc
 50
89.9999571957
 51
180.0000428043
  0
LINE
  5
2B6
100
AcDbEntity
  8
0
100
AcDbLine
 62
2
  6
CONTINUOUS
 10
12.672340332
 20
2.515977327
 11
12.6909873423
 21
2.515977327
  0
ARC
  5
2B7
100
AcDbEntity
  8
0
100
AcDbCircle
 62
2
  6
CONTINUOUS
 10
12.6909873442
 20
2.5184523265
 40
0.0024749995
100
AcDbArc
 50
269.9999571957
 51
0.0000428043
  0
LINE
  5
2B8
100
AcDbEntity
  8
0
100
AcDbLine
 62
2
  6
CONTINUOUS
 10
12.6934623437
 20
2.5184523283
 11
12.6934623437
 21
2.564807354
  0
ARC
  5
2B9
100
AcDbEntity
  8
0
100
AcDbCircle
 62
2
  6
CONTINUOUS
 10
12.6909873442
 20
2.5648073559
 40
0.0024749995
100
AcDbArc
 50
359.9999571957
 51
90.0000428043
  0
LINE
  5
2BA
100
AcDbEntity
  8
0
100
AcDbLine
 62
2
  6
CONTINUOUS
 10
12.6909873423
 20
2.5672823554
 11
12.672340332
 21
2.5672823554
  0
ARC
  5
2BB
100
AcDbEntity
  8
0
100
AcDbCircle
 62
2
  6
CONTINUOUS
 10
12.6723403301
 20
2.5697573549
 40
0.0024749995
100
AcDbArc
 50
179.9999571957
 51
270.0000428043
  0
LINE
  5
2BC
100
AcDbEntity
  8
0
100
AcDbLine
 62
2
  6
CONTINUOUS
 10
12.6698653306
 20
2.5697573568
 11
12.6698653306
 21
2.5895573678
  0
ARC
  5
2BD
100
AcDbEntity
  8
0
100
AcDbCircle
 62
2
  6
CONTINUOUS
 10
12.6723403301
 20
2.5895573696
 40
0.0024749995
100
AcDbArc
 50
89.9999571957
 51
180.0000428043
  0
LINE
  5
2BE
100
AcDbEntity
  8
0
100
AcDbLine
 62
2
  6
CONTINUOUS
 10
12.5246402501
 20
2.5655893545
 11
12.5175232461
 21
2.5543723483
  0
ARC
  5
2BF
100
AcDbEntity
  8
0
100
AcDbCircle
 62
2
  6
CONTINUOUS
 10
12.519613138
 20
2.5530463862
 40
0.0024750401
100
AcDbArc
 50
147.6063258012
 51
270.0025305754
  0
LINE
  5
2C0
100
AcDbEntity
  8
0
100
AcDbLine
 62
2
  6
CONTINUOUS
 10
12.5196132473
 20
2.5505713461
 11
12.5401702587
 21
2.5505713461
  0
ARC
  5
2C1
100
AcDbEntity
  8
0
100
AcDbCircle
 62
2
  6
CONTINUOUS
 10
12.5401702375
 20
2.5530465533
 40
0.0024752071
100
AcDbArc
 50
270.0004896793
 51
32.9089806818
  0
LINE
  5
2C2
100
AcDbEntity
  8
0
100
AcDbLine
 62
2
  6
CONTINUOUS
 10
12.5422482598
 20
2.5543913483
 11
12.5349892558
 21
2.5656073545
  0
ARC
  5
2C3
100
AcDbEntity
  8
0
100
AcDbCircle
 62
2
  6
CONTINUOUS
 10
12.532910715
 20
2.564262895
 40
0.0024754602
100
AcDbArc
 50
32.8959418573
 51
89.9875097202
  0
LINE
  5
2C4
100
AcDbEntity
  8
0
100
AcDbLine
 62
2
  6
CONTINUOUS
 10
12.5329112547
 20
2.5667383551
 11
12.5267302512
 21
2.5667383551
  0
ARC
  5
2C5
100
AcDbEntity
  8
0
100
AcDbCircle
 62
2
  6
CONTINUOUS
 10
12.5267301809
 20
2.5642631548
 40
0.0024752003
100
AcDbArc
 50
89.998372645
 51
147.602165307
  0
LINE
  5
2C6
100
AcDbEntity
  8
0
100
AcDbLine
 62
2
  6
CONTINUOUS
 10
12.548053263
 20
2.5284903339
 11
12.5536792662
 21
2.5197973291
  0
ARC
  5
2C7
100
AcDbEntity
  8
0
100
AcDbCircle
 62
2
  6
CONTINUOUS
 10
12.5516012439
 20
2.5184525341
 40
0.0024752071
100
AcDbArc
 50
270.0004896794
 51
32.9089806818
  0
LINE
  5
2C8
100
AcDbEntity
  8
0
100
AcDbLine
 62
2
  6
CONTINUOUS
 10
12.551601265
 20
2.515977327
 11
12.537150257
 21
2.515977327
  0
ARC
  5
2C9
100
AcDbEntity
  8
0
100
AcDbCircle
 62
2
  6
CONTINUOUS
 10
12.5371502552
 20
2.5135023274
 40
0.0024749995
100
AcDbArc
 50
89.9999571957
 51
180.0000428043
  0
LINE
  5
2CA
100
AcDbEntity
  8
0
100
AcDbLine
 62
2
  6
CONTINUOUS
 10
12.5346752556
 20
2.5135023256
 11
12.5346752556
 21
2.4937023146
  0
ARC
  5
2CB
100
AcDbEntity
  8
0
100
AcDbCircle
 62
2
  6
CONTINUOUS
 10
12.5371502552
 20
2.4937023128
 40
0.0024749995
100
AcDbArc
 50
179.9999571957
 51
270.0000428043
  0
LINE
  5
2CC
100
AcDbEntity
  8
0
100
AcDbLine
 62
2
  6
CONTINUOUS
 10
12.537150257
 20
2.4912273132
 11
12.6424313154
 21
2.4912273132
  0
ARC
  5
2CD
100
AcDbEntity
  8
0
100
AcDbCircle
 62
2
  6
CONTINUOUS
 10
12.6424313172
 20
2.4937023128
 40
0.0024749995
100
AcDbArc
 50
269.9999571957
 51
0.0000428043
  0
LINE
  5
2CE
100
AcDbEntity
  8
0
100
AcDbLine
 62
2
  6
CONTINUOUS
 10
12.6449063168
 20
2.4937023146
 11
12.6449063168
 21
2.5135023256
  0
ARC
  5
2CF
100
AcDbEntity
  8
0
100
AcDbCircle
 62
2
  6
CONTINUOUS
 10
12.6424313172
 20
2.5135023274
 40
0.0024749995
100
AcDbArc
 50
359.9999571957
 51
90.0000428043
  0
LINE
  5
2D0
100
AcDbEntity
  8
0
100
AcDbLine
 62
2
  6
CONTINUOUS
 10
12.6424313154
 20
2.515977327
 11
12.6224153043
 21
2.515977327
  0
ARC
  5
2D1
100
AcDbEntity
  8
0
100
AcDbCircle
 62
2
  6
CONTINUOUS
 10
12.6224154248
 20
2.518451368
 40
0.002474041
100
AcDbArc
 50
212.9056413127
 51
269.9972091756
  0
LINE
  5
2D2
100
AcDbEntity
  8
0
100
AcDbLine
 62
2
  6
CONTINUOUS
 10
12.6203383031
 20
2.5171073276
 11
12.5725822767
 21
2.5909023685
  0
ARC
  5
2D3
100
AcDbEntity
  8
0
100
AcDbCircle
 62
2
  6
CONTINUOUS
 10
12.570504655
 20
2.589557409
 40
0.0024749602
100
AcDbArc
 50
32.9172174468
 51
90.0087853097
  0
LINE
  5
2D4
100
AcDbEntity
  8
0
100
AcDbLine
 62
2
  6
CONTINUOUS
 10
12.5705042755
 20
2.5920323691
 11
12.5133292438
 21
2.5920323691
  0
ARC
  5
2D5
100
AcDbEntity
  8
0
100
AcDbCircle
 62
2
  6
CONTINUOUS
 10
12.5133291735
 20
2.5895571688
 40
0.0024752003
100
AcDbArc
 50
89.9983726451
 51
147.602165307
  0
LINE
  5
2D6
100
AcDbEntity
  8
0
100
AcDbLine
 62
2
  6
CONTINUOUS
 10
12.5112392426
 20
2.5908833685
 11
12.4644392167
 21
2.5171263276
  0
ARC
  5
2D7
100
AcDbEntity
  8
0
100
AcDbCircle
 62
2
  6
CONTINUOUS
 10
12.4623492858
 20
2.5184525273
 40
0.0024752003
100
AcDbArc
 50
269.9983726451
 51
327.602165307
  0
LINE
  5
2D8
100
AcDbEntity
  8
0
100
AcDbLine
 62
2
  6
CONTINUOUS
 10
12.4623492155
 20
2.515977327
 11
12.4394882028
 21
2.515977327
  0
ARC
  5
2D9
100
AcDbEntity
  8
0
100
AcDbCircle
 62
2
  6
CONTINUOUS
 10
12.439488201
 20
2.5135023274
 40
0.0024749995
100
AcDbArc
 50
89.9999571957
 51
180.0000428043
  0
LINE
  5
2DA
100
AcDbEntity
  8
0
100
AcDbLine
 62
2
  6
CONTINUOUS
 10
12.4370132015
 20
2.5135023256
 11
12.4370132015
 21
2.4937023146
  0
ARC
  5
2DB
100
AcDbEntity
  8
0
100
AcDbCircle
 62
2
  6
CONTINUOUS
 10
12.439488201
 20
2.4937023128
 40
0.0024749995
100
AcDbArc
 50
179.9999571957
 51
270.0000428043
  0
LINE
  5
2DC
100
AcDbEntity
  8
0
100
AcDbLine
 62
2
  6
CONTINUOUS
 10
12.4394882028
 20
2.4912273132
 11
12.5168642458
 21
2.4912273132
  0
ARC
  5
2DD
100
AcDbEntity
  8
0
100
AcDbCircle
 62
2
  6
CONTINUOUS
 10
12.5168642476
 20
2.4937023128
 40
0.0024749995
100
AcDbArc
 50
269.9999571957
 51
0.0000428043
  0
LINE
  5
2DE
100
AcDbEntity
  8
0
100
AcDbLine
 62
2
  6
CONTINUOUS
 10
12.5193392471
 20
2.4937023146
 11
12.5193392471
 21
2.5135023256
  0
ARC
  5
2DF
100
AcDbEntity
  8
0
100
AcDbCircle
 62
2
  6
CONTINUOUS
 10
12.5168642476
 20
2.5135023274
 40
0.0024749995
100
AcDbArc
 50
359.9999571957
 51
90.0000428043
  0
LINE
  5
2E0
100
AcDbEntity
  8
0
100
AcDbLine
 62
2
  6
CONTINUOUS
 10
12.5168642458
 20
2.515977327
 11
12.5055812395
 21
2.515977327
  0
ARC
  5
2E1
100
AcDbEntity
  8
0
100
AcDbCircle
 62
2
  6
CONTINUOUS
 10
12.5055811302
 20
2.518452367
 40
0.0024750401
100
AcDbArc
 50
147.6063258011
 51
270.0025305754
  0
LINE
  5
2E2
100
AcDbEntity
  8
0
100
AcDbLine
 62
2
  6
CONTINUOUS
 10
12.5034912383
 20
2.5197783291
 11
12.5090072414
 21
2.5284723339
  0
ARC
  5
2E3
100
AcDbEntity
  8
0
100
AcDbCircle
 62
2
  6
CONTINUOUS
 10
12.5110971723
 20
2.5271461342
 40
0.0024752003
100
AcDbArc
 50
89.998372645
 51
147.602165307
  0
LINE
  5
2E4
100
AcDbEntity
  8
0
100
AcDbLine
 62
2
  6
CONTINUOUS
 10
12.5110972426
 20
2.5296213345
 11
12.5459752619
 21
2.5296213345
  0
ARC
  5
2E5
100
AcDbEntity
  8
0
100
AcDbCircle
 62
2
  6
CONTINUOUS
 10
12.5459747223
 20
2.5271458744
 40
0.0024754602
100
AcDbArc
 50
32.8959418573
 51
89.9875097202
  0
LINE
  5
2E6
100
AcDbEntity
  8
0
100
AcDbLine
 62
2
  6
CONTINUOUS
 10
12.9205934696
 20
2.5920323691
 11
13.0210515254
 21
2.5920323691
  0
ARC
  5
2E7
100
AcDbEntity
  8
0
100
AcDbCircle
 62
2
  6
CONTINUOUS
 10
13.0210516601
 20
2.5895582013
 40
0.0024741678
100
AcDbArc
 50
46.3477981899
 51
90.0031206038
  0
LINE
  5
2E8
100
AcDbEntity
  8
0
100
AcDbLine
 62
2
  6
CONTINUOUS
 10
13.0227595263
 20
2.5913483688
 11
13.0827925596
 21
2.534068337
  0
ARC
  5
2E9
100
AcDbEntity
  8
0
100
AcDbCircle
 62
2
  6
CONTINUOUS
 10
13.0845012605
 20
2.5358592748
 40
0.0024753014
100
AcDbArc
 50
226.3461263059
 51
0.0014637321
  0
LINE
  5
2EA
100
AcDbEntity
  8
0
100
AcDbLine
 62
2
  6
CONTINUOUS
 10
13.0869765619
 20
2.535859338
 11
13.0869765619
 21
2.564807354
  0
ARC
  5
2EB
100
AcDbEntity
  8
0
100
AcDbCircle
 62
2
  6
CONTINUOUS
 10
13.0845015624
 20
2.5648073559
 40
0.0024749995
100
AcDbArc
 50
359.9999571957
 51
90.0000428043
  0
LINE
  5
2EC
100
AcDbEntity
  8
0
100
AcDbLine
 62
2
  6
CONTINUOUS
 10
13.0845015605
 20
2.5672823554
 11
13.0657255501
 21
2.5672823554
  0
ARC
  5
2ED
100
AcDbEntity
  8
0
100
AcDbCircle
 62
2
  6
CONTINUOUS
 10
13.0657255483
 20
2.5697573549
 40
0.0024749995
100
AcDbArc
 50
179.9999571957
 51
270.0000428043
  0
LINE
  5
2EE
100
AcDbEntity
  8
0
100
AcDbLine
 62
2
  6
CONTINUOUS
 10
13.0632505488
 20
2.5697573568
 11
13.0632505488
 21
2.5895573678
  0
ARC
  5
2EF
100
AcDbEntity
  8
0
100
AcDbCircle
 62
2
  6
CONTINUOUS
 10
13.0657255483
 20
2.5895573696
 40
0.0024749995
100
AcDbArc
 50
89.9999571957
 51
180.0000428043
  0
LINE
  5
2F0
100
AcDbEntity
  8
0
100
AcDbLine
 62
2
  6
CONTINUOUS
 10
13.0657255501
 20
2.5920323691
 11
13.1397265912
 21
2.5920323691
  0
ARC
  5
2F1
100
AcDbEntity
  8
0
100
AcDbCircle
 62
2
  6
CONTINUOUS
 10
13.139726593
 20
2.5895573696
 40
0.0024749995
100
AcDbArc
 50
359.9999571957
 51
90.0000428043
  0
LINE
  5
2F2
100
AcDbEntity
  8
0
100
AcDbLine
 62
2
  6
CONTINUOUS
 10
13.1422015925
 20
2.5895573678
 11
13.1422015925
 21
2.5697573568
  0
ARC
  5
2F3
100
AcDbEntity
  8
0
100
AcDbCircle
 62
2
  6
CONTINUOUS
 10
13.139726593
 20
2.5697573549
 40
0.0024749995
100
AcDbArc
 50
269.9999571957
 51
0.0000428042
  0
LINE
  5
2F4
100
AcDbEntity
  8
0
100
AcDbLine
 62
2
  6
CONTINUOUS
 10
13.1397265912
 20
2.5672823554
 11
13.1217935812
 21
2.5672823554
  0
ARC
  5
2F5
100
AcDbEntity
  8
0
100
AcDbCircle
 62
2
  6
CONTINUOUS
 10
13.1217935794
 20
2.5648073559
 40
0.0024749995
100
AcDbArc
 50
89.9999571957
 51
180.0000428042
  0
LINE
  5
2F6
100
AcDbEntity
  8
0
100
AcDbLine
 62
2
  6
CONTINUOUS
 10
13.1193185799
 20
2.564807354
 11
13.1193185799
 21
2.4937023146
  0
ARC
  5
2F7
100
AcDbEntity
  8
0
100
AcDbCircle
 62
2
  6
CONTINUOUS
 10
13.1168435803
 20
2.4937023128
 40
0.0024749995
100
AcDbArc
 50
269.9999571957
 51
0.0000428043
  0
LINE
  5
2F8
100
AcDbEntity
  8
0
100
AcDbLine
 62
2
  6
CONTINUOUS
 10
13.1168435785
 20
2.4912273132
 11
13.0426375373
 21
2.4912273132
  0
ARC
  5
2F9
100
AcDbEntity
  8
0
100
AcDbCircle
 62
2
  6
CONTINUOUS
 10
13.0426374026
 20
2.493701481
 40
0.0024741678
100
AcDbArc
 50
226.3477981898
 51
270.0031206038
  0
LINE
  5
2FA
100
AcDbEntity
  8
0
100
AcDbLine
 62
2
  6
CONTINUOUS
 10
13.0409295364
 20
2.4919113136
 11
12.9776495013
 21
2.5522893471
  0
ARC
  5
2FB
100
AcDbEntity
  8
0
100
AcDbCircle
 62
2
  6
CONTINUOUS
 10
12.9759408003
 20
2.5504984093
 40
0.0024753014
100
AcDbArc
 50
46.3461263059
 51
180.0014637321
  0
LINE
  5
2FC
100
AcDbEntity
  8
0
100
AcDbLine
 62
2
  6
CONTINUOUS
 10
12.973465499
 20
2.5504983461
 11
12.973465499
 21
2.5184523283
  0
ARC
  5
2FD
100
AcDbEntity
  8
0
100
AcDbCircle
 62
2
  6
CONTINUOUS
 10
12.9759404985
 20
2.5184523265
 40
0.0024749995
100
AcDbArc
 50
179.9999571957
 51
270.0000428043
  0
LINE
  5
2FE
100
AcDbEntity
  8
0
100
AcDbLine
 62
2
  6
CONTINUOUS
 10
12.9759405003
 20
2.515977327
 11
12.9962575116
 21
2.515977327
  0
ARC
  5
2FF
100
AcDbEntity
  8
0
100
AcDbCircle
 62
2
  6
CONTINUOUS
 10
12.9962575135
 20
2.5135023274
 40
0.0024749995
100
AcDbArc
 50
359.9999571957
 51
90.0000428043
  0
LINE
  5
300
100
AcDbEntity
  8
0
100
AcDbLine
 62
2
  6
CONTINUOUS
 10
12.998732513
 20
2.5135023256
 11
12.998732513
 21
2.4937023146
  0
ARC
  5
301
100
AcDbEntity
  8
0
100
AcDbCircle
 62
2
  6
CONTINUOUS
 10
12.9962575135
 20
2.4937023128
 40
0.0024749995
100
AcDbArc
 50
269.9999571957
 51
0.0000428043
  0
LINE
  5
302
100
AcDbEntity
  8
0
100
AcDbLine
 62
2
  6
CONTINUOUS
 10
12.9962575116
 20
2.4912273132
 11
12.9205934696
 21
2.4912273132
  0
ARC
  5
303
100
AcDbEntity
  8
0
100
AcDbCircle
 62
2
  6
CONTINUOUS
 10
12.9205934678
 20
2.4937023128
 40
0.0024749995
100
AcDbArc
 50
179.9999571957
 51
270.0000428043
  0
LINE
  5
304
100
AcDbEntity
  8
0
100
AcDbLine
 62
2
  6
CONTINUOUS
 10
12.9181184683
 20
2.4937023146
 11
12.9181184683
 21
2.5135023256
  0
ARC
  5
305
100
AcDbEntity
  8
0
100
AcDbCircle
 62
2
  6
CONTINUOUS
 10
12.9205934678
 20
2.5135023274
 40
0.0024749995
100
AcDbArc
 50
89.9999571957
 51
180.0000428042
  0
LINE
  5
306
100
AcDbEntity
  8
0
100
AcDbLine
 62
2
  6
CONTINUOUS
 10
12.9205934696
 20
2.515977327
 11
12.93923948
 21
2.515977327
  0
ARC
  5
307
100
AcDbEntity
  8
0
100
AcDbCircle
 62
2
  6
CONTINUOUS
 10
12.9392394818
 20
2.5184523265
 40
0.0024749995
100
AcDbArc
 50
269.9999571957
 51
0.0000428043
  0
LINE
  5
308
100
AcDbEntity
  8
0
100
AcDbLine
 62
2
  6
CONTINUOUS
 10
12.9417144814
 20
2.5184523283
 11
12.9417144814
 21
2.564807354
  0
ARC
  5
309
100
AcDbEntity
  8
0
100
AcDbCircle
 62
2
  6
CONTINUOUS
 10
12.9392394818
 20
2.5648073559
 40
0.0024749995
100
AcDbArc
 50
359.9999571957
 51
90.0000428043
  0
LINE
  5
30A
100
AcDbEntity
  8
0
100
AcDbLine
 62
2
  6
CONTINUOUS
 10
12.93923948
 20
2.5672823554
 11
12.9205934696
 21
2.5672823554
  0
ARC
  5
30B
100
AcDbEntity
  8
0
100
AcDbCircle
 62
2
  6
CONTINUOUS
 10
12.9205934678
 20
2.5697573549
 40
0.0024749995
100
AcDbArc
 50
179.9999571957
 51
270.0000428043
  0
LINE
  5
30C
100
AcDbEntity
  8
0
100
AcDbLine
 62
2
  6
CONTINUOUS
 10
12.9181184683
 20
2.5697573568
 11
12.9181184683
 21
2.5895573678
  0
ARC
  5
30D
100
AcDbEntity
  8
0
100
AcDbCircle
 62
2
  6
CONTINUOUS
 10
12.9205934678
 20
2.5895573696
 40
0.0024749995
100
AcDbArc
 50
89.9999571957
 51
180.0000428042
  0
LINE
  5
30E
100
AcDbEntity
  8
0
100
AcDbLine
 62
2
  6
CONTINUOUS
 10
13.2934226764
 20
2.5324773361
 11
13.2582556569
 21
2.5324773361
  0
ARC
  5
30F
100
AcDbEntity
  8
0
100
AcDbCircle
 62
2
  6
CONTINUOUS
 10
13.2582556551
 20
2.5300023366
 40
0.0024749995
100
AcDbArc
 50
89.9999571957
 51
180.0000428043
  0
LINE
  5
310
100
AcDbEntity
  8
0
100
AcDbLine
 62
2
  6
CONTINUOUS
 10
13.2557806555
 20
2.5300023347
 11
13.2557806555
 21
2.5184523283
  0
ARC
  5
311
100
AcDbEntity
  8
0
100
AcDbCircle
 62
2
  6
CONTINUOUS
 10
13.2582556551
 20
2.5184523265
 40
0.0024749995
100
AcDbArc
 50
179.9999571957
 51
270.0000428043
  0
LINE
  5
312
100
AcDbEntity
  8
0
100
AcDbLine
 62
2
  6
CONTINUOUS
 10
13.2582556569
 20
2.515977327
 11
13.3232596929
 21
2.515977327
  0
ARC
  5
313
100
AcDbEntity
  8
0
100
AcDbCircle
 62
2
  6
CONTINUOUS
 10
13.3232596948
 20
2.5184523265
 40
0.0024749995
100
AcDbArc
 50
269.9999571957
 51
0.0000428043
  0
LINE
  5
314
100
AcDbEntity
  8
0
100
AcDbLine
 62
2
  6
CONTINUOUS
 10
13.3257346943
 20
2.5184523283
 11
13.3257346943
 21
2.5267023329
  0
ARC
  5
315
100
AcDbEntity
  8
0
100
AcDbCircle
 62
2
  6
CONTINUOUS
 10
13.3282096938
 20
2.5267023348
 40
0.0024749995
100
AcDbArc
 50
89.9999571957
 51
180.0000428043
  0
LINE
  5
316
100
AcDbEntity
  8
0
100
AcDbLine
 62
2
  6
CONTINUOUS
 10
13.3282096957
 20
2.5291773343
 11
13.3705287192
 21
2.5291773343
  0
ARC
  5
317
100
AcDbEntity
  8
0
100
AcDbCircle
 62
2
  6
CONTINUOUS
 10
13.370528721
 20
2.5267023348
 40
0.0024749995
100
AcDbArc
 50
359.9999571957
 51
90.0000428043
  0
LINE
  5
318
100
AcDbEntity
  8
0
100
AcDbLine
 62
2
  6
CONTINUOUS
 10
13.3730037205
 20
2.5267023329
 11
13.3730037205
 21
2.4937023146
  0
ARC
  5
319
100
AcDbEntity
  8
0
100
AcDbCircle
 62
2
  6
CONTINUOUS
 10
13.370528721
 20
2.4937023128
 40
0.0024749995
100
AcDbArc
 50
269.9999571957
 51
0.0000428043
  0
LINE
  5
31A
100
AcDbEntity
  8
0
100
AcDbLine
 62
2
  6
CONTINUOUS
 10
13.3705287192
 20
2.4912273132
 11
13.1673166065
 21
2.4912273132
  0
ARC
  5
31B
100
AcDbEntity
  8
0
100
AcDbCircle
 62
2
  6
CONTINUOUS
 10
13.1673166046
 20
2.4937023128
 40
0.0024749995
100
AcDbArc
 50
179.9999571957
 51
270.0000428043
  0
LINE
  5
31C
100
AcDbEntity
  8
0
100
AcDbLine
 62
2
  6
CONTINUOUS
 10
13.1648416051
 20
2.4937023146
 11
13.1648416051
 21
2.5135023256
  0
ARC
  5
31D
100
AcDbEntity
  8
0
100
AcDbCircle
 62
2
  6
CONTINUOUS
 10
13.1673166046
 20
2.5135023274
 40
0.0024749995
100
AcDbArc
 50
89.9999571957
 51
180.0000428043
  0
LINE
  5
31E
100
AcDbEntity
  8
0
100
AcDbLine
 62
2
  6
CONTINUOUS
 10
13.1673166065
 20
2.515977327
 11
13.1912396197
 21
2.515977327
  0
ARC
  5
31F
100
AcDbEntity
  8
0
100
AcDbCircle
 62
2
  6
CONTINUOUS
 10
13.1912396216
 20
2.5184523265
 40
0.0024749995
100
AcDbArc
 50
269.9999571957
 51
0.0000428042
  0
LINE
  5
320
100
AcDbEntity
  8
0
100
AcDbLine
 62
2
  6
CONTINUOUS
 10
13.1937146211
 20
2.5184523283
 11
13.1937146211
 21
2.564807354
  0
ARC
  5
321
100
AcDbEntity
  8
0
100
AcDbCircle
 62
2
  6
CONTINUOUS
 10
13.1912396216
 20
2.5648073559
 40
0.0024749995
100
AcDbArc
 50
359.9999571957
 51
90.0000428043
  0
LINE
  5
322
100
AcDbEntity
  8
0
100
AcDbLine
 62
2
  6
CONTINUOUS
 10
13.1912396197
 20
2.5672823554
 11
13.1673166065
 21
2.5672823554
  0
ARC
  5
323
100
AcDbEntity
  8
0
100
AcDbCircle
 62
2
  6
CONTINUOUS
 10
13.1673166046
 20
2.5697573549
 40
0.0024749995
100
AcDbArc
 50
179.9999571957
 51
270.0000428043
  0
LINE
  5
324
100
AcDbEntity
  8
0
100
AcDbLine
 62
2
  6
CONTINUOUS
 10
13.1648416051
 20
2.5697573568
 11
13.1648416051
 21
2.5895573678
  0
ARC
  5
325
100
AcDbEntity
  8
0
100
AcDbCircle
 62
2
  6
CONTINUOUS
 10
13.1673166046
 20
2.5895573696
 40
0.0024749995
100
AcDbArc
 50
89.9999571957
 51
180.0000428043
  0
LINE
  5
326
100
AcDbEntity
  8
0
100
AcDbLine
 62
2
  6
CONTINUOUS
 10
13.1673166065
 20
2.5920323691
 11
13.3691097184
 21
2.5920323691
  0
ARC
  5
327
100
AcDbEntity
  8
0
100
AcDbCircle
 62
2
  6
CONTINUOUS
 10
13.3691097202
 20
2.5895573696
 40
0.0024749995
100
AcDbArc
 50
359.9999571957
 51
90.0000428043
  0
LINE
  5
328
100
AcDbEntity
  8
0
100
AcDbLine
 62
2
  6
CONTINUOUS
 10
13.3715847197
 20
2.5895573678
 11
13.3715847197
 21
2.5565573495
  0
ARC
  5
329
100
AcDbEntity
  8
0
100
AcDbCircle
 62
2
  6
CONTINUOUS
 10
13.3691097202
 20
2.5565573476
 40
0.0024749995
100
AcDbArc
 50
269.9999571957
 51
0.0000428042
  0
LINE
  5
32A
100
AcDbEntity
  8
0
100
AcDbLine
 62
2
  6
CONTINUOUS
 10
13.3691097184
 20
2.5540823481
 11
13.3272456952
 21
2.5540823481
  0
ARC
  5
32B
100
AcDbEntity
  8
0
100
AcDbCircle
 62
2
  6
CONTINUOUS
 10
13.3272456933
 20
2.5565573476
 40
0.0024749995
100
AcDbArc
 50
179.9999571957
 51
270.0000428043
  0
LINE
  5
32C
100
AcDbEntity
  8
0
100
AcDbLine
 62
2
  6
CONTINUOUS
 10
13.3247706938
 20
2.5565573495
 11
13.3247706938
 21
2.564807354
  0
ARC
  5
32D
100
AcDbEntity
  8
0
100
AcDbCircle
 62
2
  6
CONTINUOUS
 10
13.3222956943
 20
2.5648073559
 40
0.0024749995
100
AcDbArc
 50
359.9999571957
 51
90.0000428043
  0
LINE
  5
32E
100
AcDbEntity
  8
0
100
AcDbLine
 62
2
  6
CONTINUOUS
 10
13.3222956924
 20
2.5672823554
 11
13.2582556569
 21
2.5672823554
  0
ARC
  5
32F
100
AcDbEntity
  8
0
100
AcDbCircle
 62
2
  6
CONTINUOUS
 10
13.2582556551
 20
2.5648073559
 40
0.0024749995
100
AcDbArc
 50
89.9999571957
 51
180.0000428043
  0
LINE
  5
330
100
AcDbEntity
  8
0
100
AcDbLine
 62
2
  6
CONTINUOUS
 10
13.2557806555
 20
2.564807354
 11
13.2557806555
 21
2.5532573476
  0
ARC
  5
331
100
AcDbEntity
  8
0
100
AcDbCircle
 62
2
  6
CONTINUOUS
 10
13.2582556551
 20
2.5532573458
 40
0.0024749995
100
AcDbArc
 50
179.9999571957
 51
270.0000428043
  0
LINE
  5
332
100
AcDbEntity
  8
0
100
AcDbLine
 62
2
  6
CONTINUOUS
 10
13.2582556569
 20
2.5507823463
 11
13.2934226764
 21
2.5507823463
  0
ARC
  5
333
100
AcDbEntity
  8
0
100
AcDbCircle
 62
2
  6
CONTINUOUS
 10
13.2934226783
 20
2.5483073467
 40
0.0024749995
100
AcDbArc
 50
359.9999571957
 51
90.0000428043
  0
LINE
  5
334
100
AcDbEntity
  8
0
100
AcDbLine
 62
2
  6
CONTINUOUS
 10
13.2958976778
 20
2.5483073449
 11
13.2958976778
 21
2.5349523375
  0
ARC
  5
335
100
AcDbEntity
  8
0
100
AcDbCircle
 62
2
  6
CONTINUOUS
 10
13.2934226783
 20
2.5349523356
 40
0.0024749995
100
AcDbArc
 50
269.9999571957
 51
0.0000428042
  0
LINE
  5
336
100
AcDbEntity
  8
0
100
AcDbLine
 62
2
  6
CONTINUOUS
 10
13.7286871589
 20
2.5350697372
 11
13.7286871589
 21
2.5456869438
  0
LINE
  5
337
100
AcDbEntity
  8
0
100
AcDbLine
 62
2
  6
CONTINUOUS
 10
13.7086871478
 20
2.5004302075
 11
13.7086871478
 21
2.5803264735
  0
LINE
  5
338
100
AcDbEntity
  8
0
100
AcDbLine
 62
2
  6
CONTINUOUS
 10
13.6886871368
 20
2.4843919416
 11
13.6886871368
 21
2.5963647394
  0
LINE
  5
339
100
AcDbEntity
  8
0
100
AcDbLine
 62
2
  6
CONTINUOUS
 10
13.6686871257
 20
2.4726017898
 11
13.6686871257
 21
2.6081548911
  0
LINE
  5
33A
100
AcDbEntity
  8
0
100
AcDbLine
 62
2
  6
CONTINUOUS
 10
13.6486871146
 20
2.4628062688
 11
13.6486871146
 21
2.6179504122
  0
LINE
  5
33B
100
AcDbEntity
  8
0
100
AcDbLine
 62
2
  6
CONTINUOUS
 10
13.6286871035
 20
2.4541253507
 11
13.6286871035
 21
2.5062483056
  0
LINE
  5
33C
100
AcDbEntity
  8
0
100
AcDbLine
 62
2
  6
CONTINUOUS
 10
13.6286871035
 20
2.5301143348
 11
13.6286871035
 21
2.6266313303
  0
LINE
  5
33D
100
AcDbEntity
  8
0
100
AcDbLine
 62
2
  6
CONTINUOUS
 10
13.6086870924
 20
2.4465537903
 11
13.6086870924
 21
2.4918774918
  0
LINE
  5
33E
100
AcDbEntity
  8
0
100
AcDbLine
 62
2
  6
CONTINUOUS
 10
13.6086870924
 20
2.5165781173
 11
13.6086870924
 21
2.6342028907
  0
LINE
  5
33F
100
AcDbEntity
  8
0
100
AcDbLine
 62
2
  6
CONTINUOUS
 10
13.5886870813
 20
2.4398033466
 11
13.5886870813
 21
2.4912273132
  0
LINE
  5
340
100
AcDbEntity
  8
0
100
AcDbLine
 62
2
  6
CONTINUOUS
 10
13.5886870813
 20
2.5391840845
 11
13.5886870813
 21
2.5454298327
  0
LINE
  5
341
100
AcDbEntity
  8
0
100
AcDbLine
 62
2
  6
CONTINUOUS
 10
13.5886870813
 20
2.5862063472
 11
13.5886870813
 21
2.6409533343
  0
LINE
  5
342
100
AcDbEntity
  8
0
100
AcDbLine
 62
2
  6
CONTINUOUS
 10
13.5686870702
 20
2.4334702189
 11
13.5686870702
 21
2.4912273132
  0
LINE
  5
343
100
AcDbEntity
  8
0
100
AcDbLine
 62
2
  6
CONTINUOUS
 10
13.5686870702
 20
2.5906587765
 11
13.5686870702
 21
2.647286462
  0
LINE
  5
344
100
AcDbEntity
  8
0
100
AcDbLine
 62
2
  6
CONTINUOUS
 10
13.5486870591
 20
2.4278968124
 11
13.5486870591
 21
2.4937461006
  0
LINE
  5
345
100
AcDbEntity
  8
0
100
AcDbLine
 62
2
  6
CONTINUOUS
 10
13.5486870591
 20
2.5920323691
 11
13.5486870591
 21
2.6528598686
  0
LINE
  5
346
100
AcDbEntity
  8
0
100
AcDbLine
 62
2
  6
CONTINUOUS
 10
13.528687048
 20
2.4225427674
 11
13.528687048
 21
2.5270426993
  0
LINE
  5
347
100
AcDbEntity
  8
0
100
AcDbLine
 62
2
  6
CONTINUOUS
 10
13.528687048
 20
2.5505166259
 11
13.528687048
 21
2.5668657091
  0
LINE
  5
348
100
AcDbEntity
  8
0
100
AcDbLine
 62
2
  6
CONTINUOUS
 10
13.528687048
 20
2.5920323691
 11
13.528687048
 21
2.6582139136
  0
LINE
  5
349
100
AcDbEntity
  8
0
100
AcDbLine
 62
2
  6
CONTINUOUS
 10
13.5086870369
 20
2.4177306791
 11
13.5086870369
 21
2.4912273132
  0
LINE
  5
34A
100
AcDbEntity
  8
0
100
AcDbLine
 62
2
  6
CONTINUOUS
 10
13.5086870369
 20
2.5159553269
 11
13.5086870369
 21
2.5306043351
  0
LINE
  5
34B
100
AcDbEntity
  8
0
100
AcDbLine
 62
2
  6
CONTINUOUS
 10
13.5086870369
 20
2.5496073456
 11
13.5086870369
 21
2.5672823554
  0
LINE
  5
34C
100
AcDbEntity
  8
0
100
AcDbLine
 62
2
  6
CONTINUOUS
 10
13.5086870369
 20
2.5920323691
 11
13.5086870369
 21
2.6630260019
  0
LINE
  5
34D
100
AcDbEntity
  8
0
100
AcDbLine
 62
2
  6
CONTINUOUS
 10
13.4886870258
 20
2.4131795254
 11
13.4886870258
 21
2.4912273132
  0
LINE
  5
34E
100
AcDbEntity
  8
0
100
AcDbLine
 62
2
  6
CONTINUOUS
 10
13.4886870258
 20
2.5159553269
 11
13.4886870258
 21
2.5306043351
  0
LINE
  5
34F
100
AcDbEntity
  8
0
100
AcDbLine
 62
2
  6
CONTINUOUS
 10
13.4886870258
 20
2.5496073456
 11
13.4886870258
 21
2.5672823554
  0
LINE
  5
350
100
AcDbEntity
  8
0
100
AcDbLine
 62
2
  6
CONTINUOUS
 10
13.4886870258
 20
2.5920323691
 11
13.4886870258
 21
2.6675771555
  0
LINE
  5
351
100
AcDbEntity
  8
0
100
AcDbLine
 62
2
  6
CONTINUOUS
 10
13.4686870147
 20
2.4088819672
 11
13.4686870147
 21
2.4912273132
  0
LINE
  5
352
100
AcDbEntity
  8
0
100
AcDbLine
 62
2
  6
CONTINUOUS
 10
13.4686870147
 20
2.5920323691
 11
13.4686870147
 21
2.6718747138
  0
LINE
  5
353
100
AcDbEntity
  8
0
100
AcDbLine
 62
2
  6
CONTINUOUS
 10
13.4486870037
 20
2.4050092072
 11
13.4486870037
 21
2.4912273132
  0
LINE
  5
354
100
AcDbEntity
  8
0
100
AcDbLine
 62
2
  6
CONTINUOUS
 10
13.4486870037
 20
2.5920323691
 11
13.4486870037
 21
2.6757474738
  0
LINE
  5
355
100
AcDbEntity
  8
0
100
AcDbLine
 62
2
  6
CONTINUOUS
 10
13.4286869926
 20
2.4011364471
 11
13.4286869926
 21
2.4912273132
  0
LINE
  5
356
100
AcDbEntity
  8
0
100
AcDbLine
 62
2
  6
CONTINUOUS
 10
13.4286869926
 20
2.5920323691
 11
13.4286869926
 21
2.6796202339
  0
LINE
  5
357
100
AcDbEntity
  8
0
100
AcDbLine
 62
2
  6
CONTINUOUS
 10
13.4086869815
 20
2.3980226662
 11
13.4086869815
 21
2.4912273132
  0
LINE
  5
358
100
AcDbEntity
  8
0
100
AcDbLine
 62
2
  6
CONTINUOUS
 10
13.4086869815
 20
2.515977327
 11
13.4086869815
 21
2.5672823554
  0
LINE
  5
359
100
AcDbEntity
  8
0
100
AcDbLine
 62
2
  6
CONTINUOUS
 10
13.4086869815
 20
2.5920323691
 11
13.4086869815
 21
2.6827340148
  0
LINE
  5
35A
100
AcDbEntity
  8
0
100
AcDbLine
 62
2
  6
CONTINUOUS
 10
13.3886869704
 20
2.3950052774
 11
13.3886869704
 21
2.6857514036
  0
LINE
  5
35B
100
AcDbEntity
  8
0
100
AcDbLine
 62
2
  6
CONTINUOUS
 10
13.3686869593
 20
2.3919878885
 11
13.3686869593
 21
2.4912273132
  0
LINE
  5
35C
100
AcDbEntity
  8
0
100
AcDbLine
 62
2
  6
CONTINUOUS
 10
13.3686869593
 20
2.5291773343
 11
13.3686869593
 21
2.5540823481
  0
LINE
  5
35D
100
AcDbEntity
  8
0
100
AcDbLine
 62
2
  6
CONTINUOUS
 10
13.3686869593
 20
2.5920323691
 11
13.3686869593
 21
2.6887687924
  0
LINE
  5
35E
100
AcDbEntity
  8
0
100
AcDbLine
 62
2
  6
CONTINUOUS
 10
13.3486869482
 20
2.3889704997
 11
13.3486869482
 21
2.4912273132
  0
LINE
  5
35F
100
AcDbEntity
  8
0
100
AcDbLine
 62
2
  6
CONTINUOUS
 10
13.3486869482
 20
2.5291773343
 11
13.3486869482
 21
2.5540823481
  0
LINE
  5
360
100
AcDbEntity
  8
0
100
AcDbLine
 62
2
  6
CONTINUOUS
 10
13.3486869482
 20
2.5920323691
 11
13.3486869482
 21
2.6917861813
  0
LINE
  5
361
100
AcDbEntity
  8
0
100
AcDbLine
 62
2
  6
CONTINUOUS
 10
13.3286869371
 20
2.3859531109
 11
13.3286869371
 21
2.4912273132
  0
LINE
  5
362
100
AcDbEntity
  8
0
100
AcDbLine
 62
2
  6
CONTINUOUS
 10
13.3286869371
 20
2.5291773343
 11
13.3286869371
 21
2.5540823481
  0
LINE
  5
363
100
AcDbEntity
  8
0
100
AcDbLine
 62
2
  6
CONTINUOUS
 10
13.3286869371
 20
2.5920323691
 11
13.3286869371
 21
2.6948035701
  0
LINE
  5
364
100
AcDbEntity
  8
0
100
AcDbLine
 62
2
  6
CONTINUOUS
 10
13.308686926
 20
2.3833355437
 11
13.308686926
 21
2.4912273132
  0
LINE
  5
365
100
AcDbEntity
  8
0
100
AcDbLine
 62
2
  6
CONTINUOUS
 10
13.308686926
 20
2.515977327
 11
13.308686926
 21
2.5672823554
  0
LINE
  5
366
100
AcDbEntity
  8
0
100
AcDbLine
 62
2
  6
CONTINUOUS
 10
13.308686926
 20
2.5920323691
 11
13.308686926
 21
2.6974211373
  0
LINE
  5
367
100
AcDbEntity
  8
0
100
AcDbLine
 62
2
  6
CONTINUOUS
 10
13.2886869149
 20
2.3812612684
 11
13.2886869149
 21
2.4912273132
  0
LINE
  5
368
100
AcDbEntity
  8
0
100
AcDbLine
 62
2
  6
CONTINUOUS
 10
13.2886869149
 20
2.515977327
 11
13.2886869149
 21
2.5324773361
  0
LINE
  5
369
100
AcDbEntity
  8
0
100
AcDbLine
 62
2
  6
CONTINUOUS
 10
13.2886869149
 20
2.5507823463
 11
13.2886869149
 21
2.5672823554
  0
LINE
  5
36A
100
AcDbEntity
  8
0
100
AcDbLine
 62
2
  6
CONTINUOUS
 10
13.2886869149
 20
2.5920323691
 11
13.2886869149
 21
2.6994954125
  0
LINE
  5
36B
100
AcDbEntity
  8
0
100
AcDbLine
 62
2
  6
CONTINUOUS
 10
13.2686869038
 20
2.3791869932
 11
13.2686869038
 21
2.4912273132
  0
LINE
  5
36C
100
AcDbEntity
  8
0
100
AcDbLine
 62
2
  6
CONTINUOUS
 10
13.2686869038
 20
2.515977327
 11
13.2686869038
 21
2.5324773361
  0
LINE
  5
36D
100
AcDbEntity
  8
0
100
AcDbLine
 62
2
  6
CONTINUOUS
 10
13.2686869038
 20
2.5507823463
 11
13.2686869038
 21
2.5672823554
  0
LINE
  5
36E
100
AcDbEntity
  8
0
100
AcDbLine
 62
2
  6
CONTINUOUS
 10
13.2686869038
 20
2.5920323691
 11
13.2686869038
 21
2.7015696878
  0
LINE
  5
36F
100
AcDbEntity
  8
0
100
AcDbLine
 62
2
  6
CONTINUOUS
 10
13.2486868927
 20
2.377112718
 11
13.2486868927
 21
2.4912273132
  0
LINE
  5
370
100
AcDbEntity
  8
0
100
AcDbLine
 62
2
  6
CONTINUOUS
 10
13.2486868927
 20
2.5920323691
 11
13.2486868927
 21
2.703643963
  0
LINE
  5
371
100
AcDbEntity
  8
0
100
AcDbLine
 62
2
  6
CONTINUOUS
 10
13.2286868817
 20
2.3750384428
 11
13.2286868817
 21
2.4912273132
  0
LINE
  5
372
100
AcDbEntity
  8
0
100
AcDbLine
 62
2
  6
CONTINUOUS
 10
13.2286868817
 20
2.5920323691
 11
13.2286868817
 21
2.7057182382
  0
LINE
  5
373
100
AcDbEntity
  8
0
100
AcDbLine
 62
2
  6
CONTINUOUS
 10
13.2086868706
 20
2.3729641676
 11
13.2086868706
 21
2.4912273132
  0
LINE
  5
374
100
AcDbEntity
  8
0
100
AcDbLine
 62
2
  6
CONTINUOUS
 10
13.2086868706
 20
2.5920323691
 11
13.2086868706
 21
2.7077925134
  0
LINE
  5
375
100
AcDbEntity
  8
0
100
AcDbLine
 62
2
  6
CONTINUOUS
 10
13.1886868595
 20
2.3712344456
 11
13.1886868595
 21
2.4912273132
  0
LINE
  5
376
100
AcDbEntity
  8
0
100
AcDbLine
 62
2
  6
CONTINUOUS
 10
13.1886868595
 20
2.515977327
 11
13.1886868595
 21
2.5672823554
  0
LINE
  5
377
100
AcDbEntity
  8
0
100
AcDbLine
 62
2
  6
CONTINUOUS
 10
13.1886868595
 20
2.5920323691
 11
13.1886868595
 21
2.7095222354
  0
LINE
  5
378
100
AcDbEntity
  8
0
100
AcDbLine
 62
2
  6
CONTINUOUS
 10
13.1686868484
 20
2.3699682418
 11
13.1686868484
 21
2.4912273132
  0
LINE
  5
379
100
AcDbEntity
  8
0
100
AcDbLine
 62
2
  6
CONTINUOUS
 10
13.1686868484
 20
2.515977327
 11
13.1686868484
 21
2.5672823554
  0
LINE
  5
37A
100
AcDbEntity
  8
0
100
AcDbLine
 62
2
  6
CONTINUOUS
 10
13.1686868484
 20
2.5920323691
 11
13.1686868484
 21
2.7107884392
  0
LINE
  5
37B
100
AcDbEntity
  8
0
100
AcDbLine
 62
2
  6
CONTINUOUS
 10
13.1486868373
 20
2.3687020381
 11
13.1486868373
 21
2.7120546429
  0
LINE
  5
37C
100
AcDbEntity
  8
0
100
AcDbLine
 62
2
  6
CONTINUOUS
 10
13.1286868262
 20
2.3674358343
 11
13.1286868262
 21
2.5672823554
  0
LINE
  5
37D
100
AcDbEntity
  8
0
100
AcDbLine
 62
2
  6
CONTINUOUS
 10
13.1286868262
 20
2.5920323691
 11
13.1286868262
 21
2.7133208466
  0
LINE
  5
37E
100
AcDbEntity
  8
0
100
AcDbLine
 62
2
  6
CONTINUOUS
 10
13.1086868151
 20
2.3661696306
 11
13.1086868151
 21
2.4912273132
  0
LINE
  5
37F
100
AcDbEntity
  8
0
100
AcDbLine
 62
2
  6
CONTINUOUS
 10
13.1086868151
 20
2.5920323691
 11
13.1086868151
 21
2.7145870504
  0
LINE
  5
380
100
AcDbEntity
  8
0
100
AcDbLine
 62
2
  6
CONTINUOUS
 10
13.088686804
 20
2.3649034269
 11
13.088686804
 21
2.4912273132
  0
LINE
  5
381
100
AcDbEntity
  8
0
100
AcDbLine
 62
2
  6
CONTINUOUS
 10
13.088686804
 20
2.5920323691
 11
13.088686804
 21
2.7158532541
  0
LINE
  5
382
100
AcDbEntity
  8
0
100
AcDbLine
 62
2
  6
CONTINUOUS
 10
13.0686867929
 20
2.3636739922
 11
13.0686867929
 21
2.4912273132
  0
LINE
  5
383
100
AcDbEntity
  8
0
100
AcDbLine
 62
2
  6
CONTINUOUS
 10
13.0686867929
 20
2.5475272398
 11
13.0686867929
 21
2.5672823554
  0
LINE
  5
384
100
AcDbEntity
  8
0
100
AcDbLine
 62
2
  6
CONTINUOUS
 10
13.0686867929
 20
2.5920323691
 11
13.0686867929
 21
2.7170826887
  0
LINE
  5
385
100
AcDbEntity
  8
0
100
AcDbLine
 62
2
  6
CONTINUOUS
 10
13.0486867818
 20
2.363143203
 11
13.0486867818
 21
2.4912273132
  0
LINE
  5
386
100
AcDbEntity
  8
0
100
AcDbLine
 62
2
  6
CONTINUOUS
 10
13.0486867818
 20
2.5666100882
 11
13.0486867818
 21
2.717613478
  0
LINE
  5
387
100
AcDbEntity
  8
0
100
AcDbLine
 62
2
  6
CONTINUOUS
 10
13.0286867707
 20
2.3626124138
 11
13.0286867707
 21
2.50359263
  0
LINE
  5
388
100
AcDbEntity
  8
0
100
AcDbLine
 62
2
  6
CONTINUOUS
 10
13.0286867707
 20
2.5856929366
 11
13.0286867707
 21
2.7181442672
  0
LINE
  5
389
100
AcDbEntity
  8
0
100
AcDbLine
 62
2
  6
CONTINUOUS
 10
13.0086867596
 20
2.3620816246
 11
13.0086867596
 21
2.5226754472
  0
LINE
  5
38A
100
AcDbEntity
  8
0
100
AcDbLine
 62
2
  6
CONTINUOUS
 10
13.0086867596
 20
2.5920323691
 11
13.0086867596
 21
2.7186750564
  0
LINE
  5
38B
100
AcDbEntity
  8
0
100
AcDbLine
 62
2
  6
CONTINUOUS
 10
12.9886867486
 20
2.3615508354
 11
12.9886867486
 21
2.4912273132
  0
LINE
  5
38C
100
AcDbEntity
  8
0
100
AcDbLine
 62
2
  6
CONTINUOUS
 10
12.9886867486
 20
2.515977327
 11
12.9886867486
 21
2.5417582644
  0
LINE
  5
38D
100
AcDbEntity
  8
0
100
AcDbLine
 62
2
  6
CONTINUOUS
 10
12.9886867486
 20
2.5920323691
 11
12.9886867486
 21
2.7192058456
  0
LINE
  5
38E
100
AcDbEntity
  8
0
100
AcDbLine
 62
2
  6
CONTINUOUS
 10
12.9686867375
 20
2.3610200462
 11
12.9686867375
 21
2.4912273132
  0
LINE
  5
38F
100
AcDbEntity
  8
0
100
AcDbLine
 62
2
  6
CONTINUOUS
 10
12.9686867375
 20
2.5920323691
 11
12.9686867375
 21
2.7197366348
  0
LINE
  5
390
100
AcDbEntity
  8
0
100
AcDbLine
 62
2
  6
CONTINUOUS
 10
12.9486867264
 20
2.360489257
 11
12.9486867264
 21
2.4912273132
  0
LINE
  5
391
100
AcDbEntity
  8
0
100
AcDbLine
 62
2
  6
CONTINUOUS
 10
12.9486867264
 20
2.5920323691
 11
12.9486867264
 21
2.720267424
  0
LINE
  5
392
100
AcDbEntity
  8
0
100
AcDbLine
 62
2
  6
CONTINUOUS
 10
12.9286867153
 20
2.3602836008
 11
12.9286867153
 21
2.4912273132
  0
LINE
  5
393
100
AcDbEntity
  8
0
100
AcDbLine
 62
2
  6
CONTINUOUS
 10
12.9286867153
 20
2.515977327
 11
12.9286867153
 21
2.5672823554
  0
LINE
  5
394
100
AcDbEntity
  8
0
100
AcDbLine
 62
2
  6
CONTINUOUS
 10
12.9286867153
 20
2.5920323691
 11
12.9286867153
 21
2.7204730802
  0
LINE
  5
395
100
AcDbEntity
  8
0
100
AcDbLine
 62
2
  6
CONTINUOUS
 10
12.9086867042
 20
2.3604597639
 11
12.9086867042
 21
2.7202969171
  0
LINE
  5
396
100
AcDbEntity
  8
0
100
AcDbLine
 62
2
  6
CONTINUOUS
 10
12.8886866931
 20
2.360635927
 11
12.8886866931
 21
2.5672823554
  0
LINE
  5
397
100
AcDbEntity
  8
0
100
AcDbLine
 62
2
  6
CONTINUOUS
 10
12.8886866931
 20
2.5920323691
 11
12.8886866931
 21
2.720120754
  0
LINE
  5
398
100
AcDbEntity
  8
0
100
AcDbLine
 62
2
  6
CONTINUOUS
 10
12.868686682
 20
2.3608120901
 11
12.868686682
 21
2.491232357
  0
LINE
  5
399
100
AcDbEntity
  8
0
100
AcDbLine
 62
2
  6
CONTINUOUS
 10
12.868686682
 20
2.5920323691
 11
12.868686682
 21
2.7199445909
  0
LINE
  5
39A
100
AcDbEntity
  8
0
100
AcDbLine
 62
2
  6
CONTINUOUS
 10
12.8486866709
 20
2.3609882532
 11
12.8486866709
 21
2.4912273132
  0
LINE
  5
39B
100
AcDbEntity
  8
0
100
AcDbLine
 62
2
  6
CONTINUOUS
 10
12.8486866709
 20
2.5920323691
 11
12.8486866709
 21
2.7197684278
  0
LINE
  5
39C
100
AcDbEntity
  8
0
100
AcDbLine
 62
2
  6
CONTINUOUS
 10
12.8286866598
 20
2.3611644163
 11
12.8286866598
 21
2.4912273132
  0
LINE
  5
39D
100
AcDbEntity
  8
0
100
AcDbLine
 62
2
  6
CONTINUOUS
 10
12.8286866598
 20
2.5396527025
 11
12.8286866598
 21
2.5672823554
  0
LINE
  5
39E
100
AcDbEntity
  8
0
100
AcDbLine
 62
2
  6
CONTINUOUS
 10
12.8286866598
 20
2.5920323691
 11
12.8286866598
 21
2.7195922647
  0
LINE
  5
39F
100
AcDbEntity
  8
0
100
AcDbLine
 62
2
  6
CONTINUOUS
 10
12.8086866487
 20
2.3613405794
 11
12.8086866487
 21
2.4912273132
  0
LINE
  5
3A0
100
AcDbEntity
  8
0
100
AcDbLine
 62
2
  6
CONTINUOUS
 10
12.8086866487
 20
2.5587355508
 11
12.8086866487
 21
2.7194161016
  0
LINE
  5
3A1
100
AcDbEntity
  8
0
100
AcDbLine
 62
2
  6
CONTINUOUS
 10
12.7886866376
 20
2.3621089572
 11
12.7886866376
 21
2.4957181055
  0
LINE
  5
3A2
100
AcDbEntity
  8
0
100
AcDbLine
 62
2
  6
CONTINUOUS
 10
12.7886866376
 20
2.5778183992
 11
12.7886866376
 21
2.7186477238
  0
LINE
  5
3A3
100
AcDbEntity
  8
0
100
AcDbLine
 62
2
  6
CONTINUOUS
 10
12.7686866266
 20
2.3630013935
 11
12.7686866266
 21
2.5148009227
  0
LINE
  5
3A4
100
AcDbEntity
  8
0
100
AcDbLine
 62
2
  6
CONTINUOUS
 10
12.7686866266
 20
2.5920323691
 11
12.7686866266
 21
2.7177552874
  0
LINE
  5
3A5
100
AcDbEntity
  8
0
100
AcDbLine
 62
2
  6
CONTINUOUS
 10
12.7486866155
 20
2.3638938299
 11
12.7486866155
 21
2.4913263218
  0
LINE
  5
3A6
100
AcDbEntity
  8
0
100
AcDbLine
 62
2
  6
CONTINUOUS
 10
12.7486866155
 20
2.5158783184
 11
12.7486866155
 21
2.5338837399
  0
LINE
  5
3A7
100
AcDbEntity
  8
0
100
AcDbLine
 62
2
  6
CONTINUOUS
 10
12.7486866155
 20
2.5920323691
 11
12.7486866155
 21
2.7168628511
  0
LINE
  5
3A8
100
AcDbEntity
  8
0
100
AcDbLine
 62
2
  6
CONTINUOUS
 10
12.7286866044
 20
2.3647862663
 11
12.7286866044
 21
2.4912273132
  0
LINE
  5
3A9
100
AcDbEntity
  8
0
100
AcDbLine
 62
2
  6
CONTINUOUS
 10
12.7286866044
 20
2.515977327
 11
12.7286866044
 21
2.5527601554
  0
LINE
  5
3AA
100
AcDbEntity
  8
0
100
AcDbLine
 62
2
  6
CONTINUOUS
 10
12.7286866044
 20
2.5920323691
 11
12.7286866044
 21
2.7159704147
  0
LINE
  5
3AB
100
AcDbEntity
  8
0
100
AcDbLine
 62
2
  6
CONTINUOUS
 10
12.7086865933
 20
2.3656787026
 11
12.7086865933
 21
2.4912273132
  0
LINE
  5
3AC
100
AcDbEntity
  8
0
100
AcDbLine
 62
2
  6
CONTINUOUS
 10
12.7086865933
 20
2.5920323691
 11
12.7086865933
 21
2.7150779784
  0
LINE
  5
3AD
100
AcDbEntity
  8
0
100
AcDbLine
 62
2
  6
CONTINUOUS
 10
12.6886865822
 20
2.366571139
 11
12.6886865822
 21
2.4912273132
  0
LINE
  5
3AE
100
AcDbEntity
  8
0
100
AcDbLine
 62
2
  6
CONTINUOUS
 10
12.6886865822
 20
2.515977327
 11
12.6886865822
 21
2.5672823554
  0
LINE
  5
3AF
100
AcDbEntity
  8
0
100
AcDbLine
 62
2
  6
CONTINUOUS
 10
12.6886865822
 20
2.5920323691
 11
12.6886865822
 21
2.714185542
  0
LINE
  5
3B0
100
AcDbEntity
  8
0
100
AcDbLine
 62
2
  6
CONTINUOUS
 10
12.6686865711
 20
2.3677104027
 11
12.6686865711
 21
2.7130462783
  0
LINE
  5
3B1
100
AcDbEntity
  8
0
100
AcDbLine
 62
2
  6
CONTINUOUS
 10
12.64868656
 20
2.3693682721
 11
12.64868656
 21
2.7113884089
  0
LINE
  5
3B2
100
AcDbEntity
  8
0
100
AcDbLine
 62
2
  6
CONTINUOUS
 10
12.6286865489
 20
2.3710261415
 11
12.6286865489
 21
2.4912273132
  0
LINE
  5
3B3
100
AcDbEntity
  8
0
100
AcDbLine
 62
2
  6
CONTINUOUS
 10
12.6286865489
 20
2.515977327
 11
12.6286865489
 21
2.7097305395
  0
LINE
  5
3B4
100
AcDbEntity
  8
0
100
AcDbLine
 62
2
  6
CONTINUOUS
 10
12.6086865378
 20
2.372684011
 11
12.6086865378
 21
2.4912273132
  0
LINE
  5
3B5
100
AcDbEntity
  8
0
100
AcDbLine
 62
2
  6
CONTINUOUS
 10
12.6086865378
 20
2.5351122279
 11
12.6086865378
 21
2.70807267
  0
LINE
  5
3B6
100
AcDbEntity
  8
0
100
AcDbLine
 62
2
  6
CONTINUOUS
 10
12.5886865267
 20
2.3743418804
 11
12.5886865267
 21
2.4912273132
  0
LINE
  5
3B7
100
AcDbEntity
  8
0
100
AcDbLine
 62
2
  6
CONTINUOUS
 10
12.5886865267
 20
2.5660172622
 11
12.5886865267
 21
2.7064148006
  0
LINE
  5
3B8
100
AcDbEntity
  8
0
100
AcDbLine
 62
2
  6
CONTINUOUS
 10
12.5686865156
 20
2.3759997498
 11
12.5686865156
 21
2.4912273132
  0
LINE
  5
3B9
100
AcDbEntity
  8
0
100
AcDbLine
 62
2
  6
CONTINUOUS
 10
12.5686865156
 20
2.5920323691
 11
12.5686865156
 21
2.7047569312
  0
LINE
  5
3BA
100
AcDbEntity
  8
0
100
AcDbLine
 62
2
  6
CONTINUOUS
 10
12.5486865045
 20
2.3777575277
 11
12.5486865045
 21
2.4912273132
  0
LINE
  5
3BB
100
AcDbEntity
  8
0
100
AcDbLine
 62
2
  6
CONTINUOUS
 10
12.5486865045
 20
2.515977327
 11
12.5486865045
 21
2.5275118824
  0
LINE
  5
3BC
100
AcDbEntity
  8
0
100
AcDbLine
 62
2
  6
CONTINUOUS
 10
12.5486865045
 20
2.5920323691
 11
12.5486865045
 21
2.7029991533
  0
LINE
  5
3BD
100
AcDbEntity
  8
0
100
AcDbLine
 62
2
  6
CONTINUOUS
 10
12.5286864935
 20
2.3802813811
 11
12.5286864935
 21
2.5296213345
  0
LINE
  5
3BE
100
AcDbEntity
  8
0
100
AcDbLine
 62
2
  6
CONTINUOUS
 10
12.5286864935
 20
2.5505713461
 11
12.5286864935
 21
2.5667383551
  0
LINE
  5
3BF
100
AcDbEntity
  8
0
100
AcDbLine
 62
2
  6
CONTINUOUS
 10
12.5286864935
 20
2.5920323691
 11
12.5286864935
 21
2.7004752999
  0
LINE
  5
3C0
100
AcDbEntity
  8
0
100
AcDbLine
 62
2
  6
CONTINUOUS
 10
12.5086864824
 20
2.3828052346
 11
12.5086864824
 21
2.4912273132
  0
LINE
  5
3C1
100
AcDbEntity
  8
0
100
AcDbLine
 62
2
  6
CONTINUOUS
 10
12.5086864824
 20
2.515977327
 11
12.5086864824
 21
2.5279667721
  0
LINE
  5
3C2
100
AcDbEntity
  8
0
100
AcDbLine
 62
2
  6
CONTINUOUS
 10
12.5086864824
 20
2.5868602074
 11
12.5086864824
 21
2.6979514464
  0
LINE
  5
3C3
100
AcDbEntity
  8
0
100
AcDbLine
 62
2
  6
CONTINUOUS
 10
12.4886864713
 20
2.385329088
 11
12.4886864713
 21
2.4912273132
  0
LINE
  5
3C4
100
AcDbEntity
  8
0
100
AcDbLine
 62
2
  6
CONTINUOUS
 10
12.4886864713
 20
2.5553401045
 11
12.4886864713
 21
2.695427593
  0
LINE
  5
3C5
100
AcDbEntity
  8
0
100
AcDbLine
 62
2
  6
CONTINUOUS
 10
12.4686864602
 20
2.3878529415
 11
12.4686864602
 21
2.4912273132
  0
LINE
  5
3C6
100
AcDbEntity
  8
0
100
AcDbLine
 62
2
  6
CONTINUOUS
 10
12.4686864602
 20
2.5238200015
 11
12.4686864602
 21
2.6929037395
  0
LINE
  5
3C7
100
AcDbEntity
  8
0
100
AcDbLine
 62
2
  6
CONTINUOUS
 10
12.4486864491
 20
2.390376795
 11
12.4486864491
 21
2.4912273132
  0
LINE
  5
3C8
100
AcDbEntity
  8
0
100
AcDbLine
 62
2
  6
CONTINUOUS
 10
12.4486864491
 20
2.515977327
 11
12.4486864491
 21
2.690379886
  0
LINE
  5
3C9
100
AcDbEntity
  8
0
100
AcDbLine
 62
2
  6
CONTINUOUS
 10
12.428686438
 20
2.3931794042
 11
12.428686438
 21
2.6875772768
  0
LINE
  5
3CA
100
AcDbEntity
  8
0
100
AcDbLine
 62
2
  6
CONTINUOUS
 10
12.4086864269
 20
2.3964643301
 11
12.4086864269
 21
2.5013773986
  0
LINE
  5
3CB
100
AcDbEntity
  8
0
100
AcDbLine
 62
2
  6
CONTINUOUS
 10
12.4086864269
 20
2.5325739971
 11
12.4086864269
 21
2.5537224311
  0
LINE
  5
3CC
100
AcDbEntity
  8
0
100
AcDbLine
 62
2
  6
CONTINUOUS
 10
12.4086864269
 20
2.5791473398
 11
12.4086864269
 21
2.6842923509
  0
LINE
  5
3CD
100
AcDbEntity
  8
0
100
AcDbLine
 62
2
  6
CONTINUOUS
 10
12.3886864158
 20
2.399749256
 11
12.3886864158
 21
2.4921022658
  0
LINE
  5
3CE
100
AcDbEntity
  8
0
100
AcDbLine
 62
2
  6
CONTINUOUS
 10
12.3886864158
 20
2.5895929958
 11
12.3886864158
 21
2.681007425
  0
LINE
  5
3CF
100
AcDbEntity
  8
0
100
AcDbLine
 62
2
  6
CONTINUOUS
 10
12.3686864047
 20
2.403451877
 11
12.3686864047
 21
2.4912273132
  0
LINE
  5
3D0
100
AcDbEntity
  8
0
100
AcDbLine
 62
2
  6
CONTINUOUS
 10
12.3686864047
 20
2.5920323691
 11
12.3686864047
 21
2.677304804
  0
LINE
  5
3D1
100
AcDbEntity
  8
0
100
AcDbLine
 62
2
  6
CONTINUOUS
 10
12.3486863936
 20
2.407324637
 11
12.3486863936
 21
2.4912273132
  0
LINE
  5
3D2
100
AcDbEntity
  8
0
100
AcDbLine
 62
2
  6
CONTINUOUS
 10
12.3486863936
 20
2.5920323691
 11
12.3486863936
 21
2.673432044
  0
LINE
  5
3D3
100
AcDbEntity
  8
0
100
AcDbLine
 62
2
  6
CONTINUOUS
 10
12.3286863825
 20
2.4113493968
 11
12.3286863825
 21
2.4912273132
  0
LINE
  5
3D4
100
AcDbEntity
  8
0
100
AcDbLine
 62
2
  6
CONTINUOUS
 10
12.3286863825
 20
2.515977327
 11
12.3286863825
 21
2.5333023366
  0
LINE
  5
3D5
100
AcDbEntity
  8
0
100
AcDbLine
 62
2
  6
CONTINUOUS
 10
12.3286863825
 20
2.5499573458
 11
12.3286863825
 21
2.5672823554
  0
LINE
  5
3D6
100
AcDbEntity
  8
0
100
AcDbLine
 62
2
  6
CONTINUOUS
 10
12.3286863825
 20
2.5920323691
 11
12.3286863825
 21
2.6694072842
  0
LINE
  5
3D7
100
AcDbEntity
  8
0
100
AcDbLine
 62
2
  6
CONTINUOUS
 10
12.3086863715
 20
2.4159005505
 11
12.3086863715
 21
2.4912273132
  0
LINE
  5
3D8
100
AcDbEntity
  8
0
100
AcDbLine
 62
2
  6
CONTINUOUS
 10
12.3086863715
 20
2.515977327
 11
12.3086863715
 21
2.5333023366
  0
LINE
  5
3D9
100
AcDbEntity
  8
0
100
AcDbLine
 62
2
  6
CONTINUOUS
 10
12.3086863715
 20
2.5499573458
 11
12.3086863715
 21
2.5672823554
  0
LINE
  5
3DA
100
AcDbEntity
  8
0
100
AcDbLine
 62
2
  6
CONTINUOUS
 10
12.3086863715
 20
2.5920323691
 11
12.3086863715
 21
2.6648561305
  0
LINE
  5
3DB
100
AcDbEntity
  8
0
100
AcDbLine
 62
2
  6
CONTINUOUS
 10
12.2886863604
 20
2.4204517041
 11
12.2886863604
 21
2.4912273132
  0
LINE
  5
3DC
100
AcDbEntity
  8
0
100
AcDbLine
 62
2
  6
CONTINUOUS
 10
12.2886863604
 20
2.5920323691
 11
12.2886863604
 21
2.6603049769
  0
LINE
  5
3DD
100
AcDbEntity
  8
0
100
AcDbLine
 62
2
  6
CONTINUOUS
 10
12.2686863493
 20
2.4257438218
 11
12.2686863493
 21
2.4912273132
  0
LINE
  5
3DE
100
AcDbEntity
  8
0
100
AcDbLine
 62
2
  6
CONTINUOUS
 10
12.2686863493
 20
2.5920323691
 11
12.2686863493
 21
2.6550128592
  0
LINE
  5
3DF
100
AcDbEntity
  8
0
100
AcDbLine
 62
2
  6
CONTINUOUS
 10
12.2486863382
 20
2.4310978667
 11
12.2486863382
 21
2.4912273132
  0
LINE
  5
3E0
100
AcDbEntity
  8
0
100
AcDbLine
 62
2
  6
CONTINUOUS
 10
12.2486863382
 20
2.5920323691
 11
12.2486863382
 21
2.6496588142
  0
LINE
  5
3E1
100
AcDbEntity
  8
0
100
AcDbLine
 62
2
  6
CONTINUOUS
 10
12.2286863271
 20
2.4372566433
 11
12.2286863271
 21
2.4912273132
  0
LINE
  5
3E2
100
AcDbEntity
  8
0
100
AcDbLine
 62
2
  6
CONTINUOUS
 10
12.2286863271
 20
2.515977327
 11
12.2286863271
 21
2.5672823554
  0
LINE
  5
3E3
100
AcDbEntity
  8
0
100
AcDbLine
 62
2
  6
CONTINUOUS
 10
12.2286863271
 20
2.5920323691
 11
12.2286863271
 21
2.6435000377
  0
LINE
  5
3E4
100
AcDbEntity
  8
0
100
AcDbLine
 62
2
  6
CONTINUOUS
 10
12.208686316
 20
2.443589771
 11
12.208686316
 21
2.4912273132
  0
LINE
  5
3E5
100
AcDbEntity
  8
0
100
AcDbLine
 62
2
  6
CONTINUOUS
 10
12.208686316
 20
2.515977327
 11
12.208686316
 21
2.5672823554
  0
LINE
  5
3E6
100
AcDbEntity
  8
0
100
AcDbLine
 62
2
  6
CONTINUOUS
 10
12.208686316
 20
2.5920323691
 11
12.208686316
 21
2.63716691
  0
LINE
  5
3E7
100
AcDbEntity
  8
0
100
AcDbLine
 62
2
  6
CONTINUOUS
 10
12.1886863049
 20
2.4510806436
 11
12.1886863049
 21
2.6296760373
  0
LINE
  5
3E8
100
AcDbEntity
  8
0
100
AcDbLine
 62
2
  6
CONTINUOUS
 10
12.1686862938
 20
2.4591016523
 11
12.1686862938
 21
2.6216550287
  0
LINE
  5
3E9
100
AcDbEntity
  8
0
100
AcDbLine
 62
2
  6
CONTINUOUS
 10
12.1486862827
 20
2.468314272
 11
12.1486862827
 21
2.612442409
  0
LINE
  5
3EA
100
AcDbEntity
  8
0
100
AcDbLine
 62
2
  6
CONTINUOUS
 10
12.1286862716
 20
2.4794932339
 11
12.1286862716
 21
2.601263447
  0
LINE
  5
3EB
100
AcDbEntity
  8
0
100
AcDbLine
 62
2
  6
CONTINUOUS
 10
12.1086862605
 20
2.4934150665
 11
12.1086862605
 21
2.5873416144
  0
LINE
  5
3EC
100
AcDbEntity
  8
0
100
AcDbLine
 62
2
  6
CONTINUOUS
 10
12.0886862494
 20
2.5144449553
 11
12.0886862494
 21
2.5663117257
  0
ENDBLK
  5
3ED
100
AcDbEntity
  8
0
  6
BYBLOCK
 62
0
100
AcDbBlockEnd
  0
BLOCK
  5
3EE
100
AcDbEntity
  8
0
100
AcDbBlockBegin
  2
_FILLED
 70
64
 10
0.0
 20
0.0
  3
_FILLED
  1

  0
SOLID
  5
3EF
100
AcDbEntity
  8
0
  6
BYBLOCK
 62
0
100
AcDbTrace
 10
0.0
 20
0.0
 11
-1.0
 21
0.1666666667
 12
-1.0
 22
-0.1666666667
 13
-1.0
 23
-0.1666666667
  0
ENDBLK
  5
3F0
100
AcDbEntity
  8
0
  6
BYBLOCK
 62
0
100
AcDbBlockEnd
  0
BLOCK
  5
3F1
100
AcDbEntity
  8
SCHEME_DIMS
100
AcDbBlockBegin
 62
2
  6
CONTINUOUS
  2
*D0
 70
65
 10
0.0
 20
0.0
  3
*D0
  1

  0
MTEXT
  5
3F2
100
AcDbEntity
  8
SCHEME_DIMS
100
AcDbMText
 62
2
  6
CONTINUOUS
  7
TEXTSTYLE_5
 71
1
 72
1
 10
5.7722842157
 20
9.0026139611
 30
0.0
 11
1.0
 21
0.0
 31
0.0
 44
0.9
  1
{\Fgdt;n}\Ftxt;50\P[1.97]
 40
0.1
 41
0.6
  0
LINE
  5
3F3
100
AcDbEntity
  8
SCHEME_DIMS
100
AcDbLine
 62
2
  6
CONTINUOUS
 10
5.2782376482
 20
8.7050729085
 11
4.5872312259
 21
8.0041720154
  0
LINE
  5
3F4
100
AcDbEntity
  8
SCHEME_DIMS
100
AcDbLine
 62
2
  6
CONTINUOUS
 10
4.5872312259
 20
8.0041720154
 11
5.5222842157
 21
8.9526139611
  0
LINE
  5
3F5
100
AcDbEntity
  8
SCHEME_DIMS
100
AcDbLine
 62
2
  6
CONTINUOUS
 10
5.5222842157
 20
8.9526139611
 11
5.6722842157
 21
8.9526139611
  0
LINE
  5
3F6
100
AcDbEntity
  8
SCHEME_DIMS
100
AcDbLine
 62
2
  6
CONTINUOUS
 10
3.8962248037
 20
7.3032711223
 11
4.5872312259
 21
8.0041720154
  0
INSERT
  5
3F7
100
AcDbEntity
  8
SCHEME_DIMS
100
AcDbBlockReference
 62
2
  6
CONTINUOUS
  2
_FILLED
 10
5.2782376482
 20
8.7050729085
 41
0.1875
 42
0.1875
 43
0.1875
 50
45.4072842082
  0
INSERT
  5
3F8
100
AcDbEntity
  8
SCHEME_DIMS
100
AcDbBlockReference
 62
2
  6
CONTINUOUS
  2
_FILLED
 10
3.8962248037
 20
7.3032711223
 41
0.1875
 42
0.1875
 43
0.1875
 50
225.4072842082
  0
ENDBLK
  5
3F9
100
AcDbEntity
  8
0
  6
BYBLOCK
 62
0
100
AcDbBlockEnd
  0
BLOCK
  5
3FA
100
AcDbEntity
  8
SCHEME_DIMS
100
AcDbBlockBegin
 62
2
  6
CONTINUOUS
  2
*D1
 70
65
 10
0.0
 20
0.0
  3
*D1
  1

  0
MTEXT
  5
3FB
100
AcDbEntity
  8
SCHEME_DIMS
100
AcDbMText
 62
2
  6
CONTINUOUS
  7
STANDARD
 71
2
 72
1
 10
6.3116589081
 20
4.9851327098
 30
0.0
 11
1.0
 21
0.0
 31
0.0
 44
0.9
  1
49,3\P[1.94]
 40
0.1
 41
0.6
  0
LINE
  5
3FC
100
AcDbEntity
  8
SCHEME_DIMS
100
AcDbLine
 62
2
  6
CONTINUOUS
 10
5.1615422496
 20
3.9656445208
 11
5.3212094244
 21
3.9656445208
  0
LINE
  5
3FD
100
AcDbEntity
  8
SCHEME_DIMS
100
AcDbLine
 62
2
  6
CONTINUOUS
 10
5.4500291654
 20
3.9656445208
 11
6.5366589081
 21
3.9656445208
  0
LINE
  5
3FE
100
AcDbEntity
  8
SCHEME_DIMS
100
AcDbLine
 62
2
  6
CONTINUOUS
 10
5.591837272
 20
5.9046208987
 11
6.5366589081
 21
5.9046208987
  0
LINE
  5
3FF
100
AcDbEntity
  8
SCHEME_DIMS
100
AcDbLine
 62
2
  6
CONTINUOUS
 10
6.4116589081
 20
3.9656445208
 11
6.4116589081
 21
4.6351327098
  0
LINE
  5
400
100
AcDbEntity
  8
SCHEME_DIMS
100
AcDbLine
 62
2
  6
CONTINUOUS
 10
6.4116589081
 20
5.9046208987
 11
6.4116589081
 21
5.0851327098
  0
INSERT
  5
401
100
AcDbEntity
  8
SCHEME_DIMS
100
AcDbBlockReference
 62
2
  6
CONTINUOUS
  2
_FILLED
 10
6.4116589081
 20
3.9656445208
 41
0.1875
 42
0.1875
 43
0.1875
 50
270.0
  0
INSERT
  5
402
100
AcDbEntity
  8
SCHEME_DIMS
100
AcDbBlockReference
 62
2
  6
CONTINUOUS
  2
_FILLED
 10
6.4116589081
 20
5.9046208987
 41
0.1875
 42
0.1875
 43
0.1875
 50
90.0
  0
ENDBLK
  5
403
100
AcDbEntity
  8
0
  6
BYBLOCK
 62
0
100
AcDbBlockEnd
  0
BLOCK
  5
404
100
AcDbEntity
  8
SCHEME_DIMS
100
AcDbBlockBegin
 62
2
  6
CONTINUOUS
  2
*D2
 70
65
 10
0.0
 20
0.0
  3
*D2
  1

  0
MTEXT
  5
405
100
AcDbEntity
  8
SCHEME_DIMS
100
AcDbMText
 62
2
  6
CONTINUOUS
  7
STANDARD
 71
2
 72
1
 10
2.7555487403
 20
5.535073462
 30
0.0
 11
1.0
 21
0.0
 31
0.0
 44
0.9
  1
26,3\P[1.03]
 40
0.1
 41
0.6
  0
LINE
  5
406
100
AcDbEntity
  8
SCHEME_DIMS
100
AcDbLine
 62
2
  6
CONTINUOUS
 10
3.620245375
 20
4.8711563318
 11
2.7305487403
 21
4.8711563318
  0
LINE
  5
407
100
AcDbEntity
  8
SCHEME_DIMS
100
AcDbLine
 62
2
  6
CONTINUOUS
 10
3.5602111895
 20
5.9046208987
 11
2.7305487403
 21
5.9046208987
  0
LINE
  5
408
100
AcDbEntity
  8
SCHEME_DIMS
100
AcDbLine
 62
2
  6
CONTINUOUS
 10
2.8555487403
 20
4.8711563318
 11
2.8555487403
 21
5.185073462
  0
LINE
  5
409
100
AcDbEntity
  8
SCHEME_DIMS
100
AcDbLine
 62
2
  6
CONTINUOUS
 10
2.8555487403
 20
5.9046208987
 11
2.8555487403
 21
5.635073462
  0
INSERT
  5
40A
100
AcDbEntity
  8
SCHEME_DIMS
100
AcDbBlockReference
 62
2
  6
CONTINUOUS
  2
_FILLED
 10
2.8555487403
 20
4.8711563318
 41
0.1875
 42
0.1875
 43
0.1875
 50
270.0
  0
INSERT
  5
40B
100
AcDbEntity
  8
SCHEME_DIMS
100
AcDbBlockReference
 62
2
  6
CONTINUOUS
  2
_FILLED
 10
2.8555487403
 20
5.9046208987
 41
0.1875
 42
0.1875
 43
0.1875
 50
90.0
  0
ENDBLK
  5
40C
100
AcDbEntity
  8
0
  6
BYBLOCK
 62
0
100
AcDbBlockEnd
  0
BLOCK
  5
40D
100
AcDbEntity
  8
SCHEME_DIMS
100
AcDbBlockBegin
 62
2
  6
CONTINUOUS
  2
*D3
 70
65
 10
0.0
 20
0.0
  3
*D3
  1

  0
MTEXT
  5
40E
100
AcDbEntity
  8
SCHEME_DIMS
100
AcDbMText
 62
2
  6
CONTINUOUS
  7
STANDARD
 71
2
 72
1
 10
3.5487939235
 20
3.7243059381
 30
0.0
 11
1.0
 21
0.0
 31
0.0
 44
0.9
  1
14,8\P[.58]
 40
0.1
 41
0.5
  0
LINE
  5
40F
100
AcDbEntity
  8
SCHEME_DIMS
100
AcDbLine
 62
2
  6
CONTINUOUS
 10
4.0129202023
 20
3.9656445208
 11
3.4737939235
 21
3.9656445208
  0
LINE
  5
410
100
AcDbEntity
  8
SCHEME_DIMS
100
AcDbLine
 62
2
  6
CONTINUOUS
 10
4.3209910685
 20
3.3829673554
 11
3.4737939235
 21
3.3829673554
  0
LINE
  5
411
100
AcDbEntity
  8
SCHEME_DIMS
100
AcDbLine
 62
2
  6
CONTINUOUS
 10
3.5987939235
 20
3.9656445208
 11
3.5987939235
 21
4.3656445208
  0
LINE
  5
412
100
AcDbEntity
  8
SCHEME_DIMS
100
AcDbLine
 62
2
  6
CONTINUOUS
 10
3.5987939235
 20
3.3829673554
 11
3.5987939235
 21
2.9829673554
  0
INSERT
  5
413
100
AcDbEntity
  8
SCHEME_DIMS
100
AcDbBlockReference
 62
2
  6
CONTINUOUS
  2
_FILLED
 10
3.5987939235
 20
3.9656445208
 41
0.1875
 42
0.1875
 43
0.1875
 50
270.0
  0
INSERT
  5
414
100
AcDbEntity
  8
SCHEME_DIMS
100
AcDbBlockReference
 62
2
  6
CONTINUOUS
  2
_FILLED
 10
3.5987939235
 20
3.3829673554
 41
0.1875
 42
0.1875
 43
0.1875
 50
90.0
  0
ENDBLK
  5
415
100
AcDbEntity
  8
0
  6
BYBLOCK
 62
0
100
AcDbBlockEnd
  0
ENDSEC
  0
SECTION
  2
ENTITIES
  0
MTEXT
  5
416
100
AcDbEntity
  8
0
100
AcDbMText
 62
2
  6
CONTINUOUS
  7
TEXTSTYLE_2
 71
2
 72
1
 10
11.0287658475
 20
1.794867839
 30
0.0
 11
1.0
 21
0.0
 31
0.0
 44
0.9
  1
THIRD ANGLE PROJECTION
 40
0.1
 41
1.76
  0
MTEXT
  5
417
100
AcDbEntity
  8
0
100
AcDbMText
 62
2
  6
CONTINUOUS
  7
STANDARD
 71
1
 72
1
 10
12.88
 20
1.457
 30
0.0
 11
1.0
 21
0.0
 31
0.0
 44
0.9
  1
DRAWING NO.
 40
0.08
 41
0.88
  0
MTEXT
  5
418
100
AcDbEntity
  8
0
100
AcDbMText
 62
2
  6
CONTINUOUS
  7
TEXTSTYLE_3
 71
2
 72
1
 10
11.03
 20
2.516432
 30
0.0
 11
1.0
 21
0.0
 31
0.0
 44
0.9
  1
and is proprietary in general
 40
0.08
 41
1.972
  0
MTEXT
  5
419
100
AcDbEntity
  8
0
100
AcDbMText
 62
2
  6
CONTINUOUS
  7
TEXTSTYLE_3
 71
2
 72
1
 10
11.03
 20
2.396432
 30
0.0
 11
1.0
 21
0.0
 31
0.0
 44
0.9
  1
and in detail.  Its contents
 40
0.08
 41
1.904
  0
MTEXT
  5
41A
100
AcDbEntity
  8
0
100
AcDbMText
 62
2
  6
CONTINUOUS
  7
TEXTSTYLE_3
 71
2
 72
1
 10
11.03
 20
2.276432
 30
0.0
 11
1.0
 21
0.0
 31
0.0
 44
0.9
  1
shall not be revealed to
 40
0.08
 41
1.632
  0
MTEXT
  5
41B
100
AcDbEntity
  8
0
100
AcDbMText
 62
2
  6
CONTINUOUS
  7
TEXTSTYLE_3
 71
2
 72
1
 10
11.03
 20
2.156432
 30
0.0
 11
1.0
 21
0.0
 31
0.0
 44
0.9
  1
outside parties without
 40
0.08
 41
1.564
  0
MTEXT
  5
41C
100
AcDbEntity
  8
0
100
AcDbMText
 62
2
  6
CONTINUOUS
  7
TEXTSTYLE_3
 71
2
 72
1
 10
11.03
 20
2.036432
 30
0.0
 11
1.0
 21
0.0
 31
0.0
 44
0.9
  1
written consent of BANNER.
 40
0.08
 41
1.768
  0
MTEXT
  5
41D
100
AcDbEntity
  8
0
100
AcDbMText
 62
2
  6
CONTINUOUS
  7
TEXTSTYLE_2
 71
1
 72
1
 10
12.08
 20
2.217
 30
0.0
 11
1.0
 21
0.0
 31
0.0
 44
0.9
  1
TITLE
 40
0.1
 41
0.4
  0
MTEXT
  5
41E
100
AcDbEntity
  8
0
100
AcDbMText
 62
2
  6
CONTINUOUS
  7
STANDARD
 71
1
 72
1
 10
12.08
 20
1.457
 30
0.0
 11
1.0
 21
0.0
 31
0.0
 44
0.9
  1
SIZE
 40
0.08
 41
0.32
  0
MTEXT
  5
41F
100
AcDbEntity
  8
0
100
AcDbMText
 62
2
  6
CONTINUOUS
  7
STANDARD
 71
1
 72
1
 10
12.08
 20
1.087
 30
0.0
 11
1.0
 21
0.0
 31
0.0
 44
0.9
  1
SCALE
 40
0.08
 41
0.4
  0
MTEXT
  5
420
100
AcDbEntity
  8
0
100
AcDbMText
 62
2
  6
CONTINUOUS
  7
TEXTSTYLE_2
 71
2
 72
1
 10
12.5
 20
1.337
 30
0.0
 11
1.0
 21
0.0
 31
0.0
 44
0.9
  1
B
 40
0.1
 41
0.08
  0
MTEXT
  5
421
100
AcDbEntity
  8
0
100
AcDbMText
 62
2
  6
CONTINUOUS
  7
TEXTSTYLE_3
 71
2
 72
1
 10
11.03
 20
2.636432
 30
0.0
 11
1.0
 21
0.0
 31
0.0
 44
0.9
  1
of BANNER ENGINEERING CORP.
 40
0.08
 41
1.836
  0
MTEXT
  5
422
100
AcDbEntity
  8
0
100
AcDbMText
 62
2
  6
CONTINUOUS
  7
TEXTSTYLE_3
 71
2
 72
1
 10
11.03
 20
2.756432
 30
0.0
 11
1.0
 21
0.0
 31
0.0
 44
0.9
  1
This drawing is the property
 40
0.08
 41
1.904
  0
MTEXT
  5
423
100
AcDbEntity
  8
0
100
AcDbMText
 62
2
  6
CONTINUOUS
  7
TEXTSTYLE_2
 71
2
 72
1
 10
15.03
 20
2.4134
 30
0.0
 11
1.0
 21
0.0
 31
0.0
 44
0.9
  1
MINNEAPOLIS, MN 55440
 40
0.1
 41
1.68
  0
MTEXT
  5
424
100
AcDbEntity
  8
0
100
AcDbMText
 62
2
  6
CONTINUOUS
  7
STANDARD
 71
1
 72
1
 10
14.255
 20
1.087
 30
0.0
 11
1.0
 21
0.0
 31
0.0
 44
0.9
  1
SHEET
 40
0.08
 41
0.4
  0
MTEXT
  5
425
100
AcDbEntity
  8
0
100
AcDbMText
 62
2
  6
CONTINUOUS
  7
STANDARD
 71
1
 72
1
 10
15.63
 20
1.457
 30
0.0
 11
1.0
 21
0.0
 31
0.0
 44
0.9
  1
REV.
 40
0.08
 41
0.32
  0
MTEXT
  5
426
100
AcDbEntity
  8
0
100
AcDbMText
 62
2
  6
CONTINUOUS
  7
STANDARD
 71
3
 72
1
 10
16.38
 20
0.835443
 30
0.0
 11
1.0
 21
0.0
 31
0.0
 44
0.9
  1
PRO/E
 40
0.07
 41
0.35
  0
MTEXT
  5
427
100
AcDbEntity
  8
0
100
AcDbMText
 62
2
  6
CONTINUOUS
  7
TEXTSTYLE_4
 71
2
 72
1
 10
15.03
 20
2.751049
 30
0.0
 11
1.0
 21
0.0
 31
0.0
 44
0.9
  1
BANNER ENGINEERING CORP.
 40
0.12
 41
2.6496
  0
MTEXT
  5
428
100
AcDbEntity
  8
0
100
AcDbMText
 62
2
  6
CONTINUOUS
  7
TEXTSTYLE_2
 71
2
 72
1
 10
15.03
 20
2.5724
 30
0.0
 11
1.0
 21
0.0
 31
0.0
 44
0.9
  1
P.O. BOX 9414
 40
0.1
 41
1.04
  0
MTEXT
  5
429
100
AcDbEntity
  8
0
100
AcDbMText
 62
2
  6
CONTINUOUS
  7
TEXTSTYLE_2
 71
2
 72
1
 10
9.485
 20
10.312
 30
0.0
 11
1.0
 21
0.0
 31
0.0
 44
0.9
  1
4
 40
0.1
 41
0.08
  0
MTEXT
  5
42A
100
AcDbEntity
  8
0
100
AcDbMText
 62
2
  6
CONTINUOUS
  7
TEXTSTYLE_2
 71
2
 72
1
 10
11.455
 20
10.312
 30
0.0
 11
1.0
 21
0.0
 31
0.0
 44
0.9
  1
3
 40
0.1
 41
0.08
  0
MTEXT
  5
42B
100
AcDbEntity
  8
0
100
AcDbMText
 62
2
  6
CONTINUOUS
  7
TEXTSTYLE_2
 71
2
 72
1
 10
13.425
 20
10.312
 30
0.0
 11
1.0
 21
0.0
 31
0.0
 44
0.9
  1
2
 40
0.1
 41
0.08
  0
MTEXT
  5
42C
100
AcDbEntity
  8
0
100
AcDbMText
 62
2
  6
CONTINUOUS
  7
TEXTSTYLE_2
 71
2
 72
1
 10
15.395
 20
10.312
 30
0.0
 11
1.0
 21
0.0
 31
0.0
 44
0.9
  1
1
 40
0.1
 41
0.08
  0
MTEXT
  5
42D
100
AcDbEntity
  8
0
100
AcDbMText
 62
2
  6
CONTINUOUS
  7
TEXTSTYLE_2
 71
2
 72
1
 10
3.575
 20
10.312
 30
0.0
 11
1.0
 21
0.0
 31
0.0
 44
0.9
  1
7
 40
0.1
 41
0.08
  0
MTEXT
  5
42E
100
AcDbEntity
  8
0
100
AcDbMText
 62
2
  6
CONTINUOUS
  7
TEXTSTYLE_2
 71
2
 72
1
 10
5.545
 20
10.312
 30
0.0
 11
1.0
 21
0.0
 31
0.0
 44
0.9
  1
6
 40
0.1
 41
0.08
  0
MTEXT
  5
42F
100
AcDbEntity
  8
0
100
AcDbMText
 62
2
  6
CONTINUOUS
  7
TEXTSTYLE_2
 71
2
 72
1
 10
7.515
 20
10.312
 30
0.0
 11
1.0
 21
0.0
 31
0.0
 44
0.9
  1
5
 40
0.1
 41
0.08
  0
MTEXT
  5
430
100
AcDbEntity
  8
0
100
AcDbMText
 62
2
  6
CONTINUOUS
  7
TEXTSTYLE_2
 71
2
 72
1
 10
1.605
 20
10.312
 30
0.0
 11
1.0
 21
0.0
 31
0.0
 44
0.9
  1
8
 40
0.1
 41
0.08
  0
MTEXT
  5
431
100
AcDbEntity
  8
0
100
AcDbMText
 62
2
  6
CONTINUOUS
  7
TEXTSTYLE_2
 71
2
 72
1
 10
1.605
 20
0.787
 30
0.0
 11
1.0
 21
0.0
 31
0.0
 44
0.9
  1
8
 40
0.1
 41
0.08
  0
MTEXT
  5
432
100
AcDbEntity
  8
0
100
AcDbMText
 62
2
  6
CONTINUOUS
  7
TEXTSTYLE_2
 71
2
 72
1
 10
3.575
 20
0.787
 30
0.0
 11
1.0
 21
0.0
 31
0.0
 44
0.9
  1
7
 40
0.1
 41
0.08
  0
MTEXT
  5
433
100
AcDbEntity
  8
0
100
AcDbMText
 62
2
  6
CONTINUOUS
  7
TEXTSTYLE_2
 71
2
 72
1
 10
5.545
 20
0.787
 30
0.0
 11
1.0
 21
0.0
 31
0.0
 44
0.9
  1
6
 40
0.1
 41
0.08
  0
MTEXT
  5
434
100
AcDbEntity
  8
0
100
AcDbMText
 62
2
  6
CONTINUOUS
  7
TEXTSTYLE_2
 71
2
 72
1
 10
7.515
 20
0.787
 30
0.0
 11
1.0
 21
0.0
 31
0.0
 44
0.9
  1
5
 40
0.1
 41
0.08
  0
MTEXT
  5
435
100
AcDbEntity
  8
0
100
AcDbMText
 62
2
  6
CONTINUOUS
  7
TEXTSTYLE_2
 71
2
 72
1
 10
9.485
 20
0.787
 30
0.0
 11
1.0
 21
0.0
 31
0.0
 44
0.9
  1
4
 40
0.1
 41
0.08
  0
MTEXT
  5
436
100
AcDbEntity
  8
0
100
AcDbMText
 62
2
  6
CONTINUOUS
  7
TEXTSTYLE_2
 71
2
 72
1
 10
11.455
 20
0.787
 30
0.0
 11
1.0
 21
0.0
 31
0.0
 44
0.9
  1
3
 40
0.1
 41
0.08
  0
MTEXT
  5
437
100
AcDbEntity
  8
0
100
AcDbMText
 62
2
  6
CONTINUOUS
  7
TEXTSTYLE_2
 71
2
 72
1
 10
13.425
 20
0.787
 30
0.0
 11
1.0
 21
0.0
 31
0.0
 44
0.9
  1
2
 40
0.1
 41
0.08
  0
MTEXT
  5
438
100
AcDbEntity
  8
0
100
AcDbMText
 62
2
  6
CONTINUOUS
  7
TEXTSTYLE_2
 71
2
 72
1
 10
15.395
 20
0.787
 30
0.0
 11
1.0
 21
0.0
 31
0.0
 44
0.9
  1
1
 40
0.1
 41
0.08
  0
MTEXT
  5
439
100
AcDbEntity
  8
0
100
AcDbMText
 62
2
  6
CONTINUOUS
  7
TEXTSTYLE_2
 71
3
 72
1
 10
0.52
 20
4.3995
 30
0.0
 11
1.0
 21
0.0
 31
0.0
 44
0.9
  1
B
 40
0.1
 41
0.08
  0
MTEXT
  5
43A
100
AcDbEntity
  8
0
100
AcDbMText
 62
2
  6
CONTINUOUS
  7
TEXTSTYLE_2
 71
3
 72
1
 10
0.52
 20
2.0995
 30
0.0
 11
1.0
 21
0.0
 31
0.0
 44
0.9
  1
A
 40
0.1
 41
0.08
  0
MTEXT
  5
43B
100
AcDbEntity
  8
0
100
AcDbMText
 62
2
  6
CONTINUOUS
  7
TEXTSTYLE_2
 71
3
 72
1
 10
0.52
 20
8.9995
 30
0.0
 11
1.0
 21
0.0
 31
0.0
 44
0.9
  1
D
 40
0.1
 41
0.08
  0
MTEXT
  5
43C
100
AcDbEntity
  8
0
100
AcDbMText
 62
2
  6
CONTINUOUS
  7
TEXTSTYLE_2
 71
3
 72
1
 10
0.52
 20
6.6995
 30
0.0
 11
1.0
 21
0.0
 31
0.0
 44
0.9
  1
C
 40
0.1
 41
0.08
  0
MTEXT
  5
43D
100
AcDbEntity
  8
0
100
AcDbMText
 62
2
  6
CONTINUOUS
  7
TEXTSTYLE_2
 71
1
 72
1
 10
16.48
 20
8.9995
 30
0.0
 11
1.0
 21
0.0
 31
0.0
 44
0.9
  1
D
 40
0.1
 41
0.08
  0
MTEXT
  5
43E
100
AcDbEntity
  8
0
100
AcDbMText
 62
2
  6
CONTINUOUS
  7
TEXTSTYLE_2
 71
1
 72
1
 10
16.48
 20
6.6995
 30
0.0
 11
1.0
 21
0.0
 31
0.0
 44
0.9
  1
C
 40
0.1
 41
0.08
  0
MTEXT
  5
43F
100
AcDbEntity
  8
0
100
AcDbMText
 62
2
  6
CONTINUOUS
  7
TEXTSTYLE_2
 71
1
 72
1
 10
16.48
 20
4.3995
 30
0.0
 11
1.0
 21
0.0
 31
0.0
 44
0.9
  1
B
 40
0.1
 41
0.08
  0
MTEXT
  5
440
100
AcDbEntity
  8
0
100
AcDbMText
 62
2
  6
CONTINUOUS
  7
TEXTSTYLE_2
 71
1
 72
1
 10
16.48
 20
2.0995
 30
0.0
 11
1.0
 21
0.0
 31
0.0
 44
0.9
  1
A
 40
0.1
 41
0.08
  0
MTEXT
  5
441
100
AcDbEntity
  8
0
100
AcDbMText
 62
2
  6
CONTINUOUS
  7
STANDARD
 71
1
 72
1
 10
14.819264911
 20
1.0627941725
 30
0.0
 11
1.0
 21
0.0
 31
0.0
 44
0.9
  1
1 OF 1
 40
0.1
 41
0.6
  0
MTEXT
  5
442
100
AcDbEntity
  8
0
100
AcDbMText
 62
7
  6
CONTINUOUS
  7
STANDARD
 71
1
 72
1
 10
13.8911999818
 20
1.3747321586
 30
0.0
 11
1.0
 21
0.0
 31
0.0
 44
0.9
  1
158610
 40
0.12
 41
0.72
  0
MTEXT
  5
443
100
AcDbEntity
  8
0
100
AcDbMText
 62
2
  6
CONTINUOUS
  7
STANDARD
 71
1
 72
1
 10
12.644264911
 20
1.0627941725
 30
0.0
 11
1.0
 21
0.0
 31
0.0
 44
0.9
  1
1:1
 40
0.1
 41
0.3
  0
MTEXT
  5
444
100
AcDbEntity
  8
0
100
AcDbMText
 62
2
  6
CONTINUOUS
  7
STANDARD
 71
1
 72
1
 10
1.0597007627
 20
1.6202922458
 30
0.0
 11
1.0
 21
0.0
 31
0.0
 44
0.9
  1
NOTES:\P1. ALL DIMENSIONS ARE MILLIMETERS [INCHES] UNLESS OTHERWISE NOTED.
 40
0.1
 41
6.6
  0
INSERT
  5
445
100
AcDbEntity
  8
0
100
AcDbBlockReference
 62
2
  6
CONTINUOUS
  2
BANNER_LOGO_TITLEBLOCK_BL0
 10
12.9086867042
 20
2.5403783405
  0
DIMENSION
  5
446
100
AcDbEntity
  8
SCHEME_DIMS
100
AcDbDimension
 62
2
  6
CONTINUOUS
  2
*D0
 10
5.2782376482
 20
8.7050729085
 11
6.1389508824
 21
8.8776139611
 70
163
 71
1
 42
50.0
  1
<>
  3
DIMSTYLE_1
100
AcDbDiametricDimension
 15
3.8962248037
 25
7.3032711223
  0
DIMENSION
  5
447
100
AcDbEntity
  8
SCHEME_DIMS
100
AcDbDimension
 62
2
  6
CONTINUOUS
  2
*D1
 10
6.4116589081
 20
5.9046208987
 11
6.2866589081
 21
4.8601327098
 70
160
 71
2
 42
49.25
  3
DIMSTYLE_2
100
AcDbAlignedDimension
 13
5.1615422496
 23
3.9656445208
 14
5.591837272
 24
5.9046208987
 50
90.0
100
AcDbRotatedDimension
  0
DIMENSION
  5
448
100
AcDbEntity
  8
SCHEME_DIMS
100
AcDbDimension
 62
2
  6
CONTINUOUS
  2
*D2
 10
2.8555487403
 20
5.9046208987
 11
2.7305487403
 21
5.410073462
 70
160
 71
2
 42
26.25
  3
DIMSTYLE_2
100
AcDbAlignedDimension
 13
3.620245375
 23
4.8711563318
 14
3.5602111895
 24
5.9046208987
 50
90.0
100
AcDbRotatedDimension
  0
DIMENSION
  5
449
100
AcDbEntity
  8
SCHEME_DIMS
100
AcDbDimension
 62
2
  6
CONTINUOUS
  2
*D3
 10
3.5987939235
 20
3.3829673554
 11
3.4737939235
 21
3.5993059381
 70
160
 71
2
 42
14.8
  3
DIMSTYLE_2
100
AcDbAlignedDimension
 13
4.0129202023
 23
3.9656445208
 14
4.3209910685
 24
3.3829673554
 50
270.0
100
AcDbRotatedDimension
  0
LINE
  5
44A
100
AcDbEntity
  8
0
100
AcDbLine
 62
2
  6
CONTINUOUS
 10
16.38
 20
0.887
 11
12.03
 21
0.887
  0
LINE
  5
44B
100
AcDbEntity
  8
0
100
AcDbLine
 62
2
  6
CONTINUOUS
 10
16.38
 20
0.887
 11
16.38
 21
2.807
  0
LINE
  5
44C
100
AcDbEntity
  8
0
100
AcDbLine
 62
2
  6
CONTINUOUS
 10
16.38
 20
2.807
 11
12.03
 21
2.807
  0
LINE
  5
44D
100
AcDbEntity
  8
0
100
AcDbLine
 62
2
  6
CONTINUOUS
 10
12.03
 20
0.887
 11
12.03
 21
2.807
  0
MTEXT
  5
44E
100
AcDbEntity
  8
NOTES
100
AcDbMText
 62
7
  6
CONTINUOUS
  7
STANDARD
 71
2
 72
1
 10
16.155
 20
1.367
 30
0.0
 11
1.0
 21
0.0
 31
0.0
 44
0.9
  1
B
 40
0.1
 41
0.1
  0
MTEXT
  5
44F
100
AcDbEntity
  8
NOTES
100
AcDbMText
 62
7
  6
CONTINUOUS
  7
STANDARD
 71
2
 72
1
 10
14.205
 20
1.967
 30
0.0
 11
1.0
 21
0.0
 31
0.0
 44
0.9
  1
LED S50L-XQ QD\PWEB CAD DRAWINGS 2D/3D
 40
0.1
 41
2.2
  0
LEADER
  5
450
100
AcDbEntity
  8
NOTES
100
AcDbLeader
 62
2
  6
CONTINUOUS
  3
STANDARD
 71
1
 72
0
 73
0
 75
0
 40
0.1
 41
0.3
 76
3
 10
4.8085371269
 20
3.4616137264
 30
0.0
 10
5.369451644
 20
2.8944684592
 30
0.0
 10
5.619451644
 20
2.8944684592
 30
0.0
340
451
1001
ACAD
1000
DSTYLE
1002
{
1070
77
1070
0
1002
}
  0
MTEXT
  5
451
102
{ACAD_REACTORS
330
450
102
}
100
AcDbEntity
  8
NOTES
100
AcDbMText
 62
2
  6
CONTINUOUS
  7
STANDARD
 71
1
 72
1
 10
5.619451644
 20
2.9444684592
 30
0.0
 11
1.0
 21
0.0
 31
0.0
 44
0.9
  1
M12
 40
0.1
 41
0.3
  0
LEADER
  5
452
100
AcDbEntity
  8
NOTES
100
AcDbLeader
 62
2
  6
CONTINUOUS
  3
STANDARD
 71
1
 72
0
 73
0
 75
0
 40
0.1
 41
0.3
 76
3
 10
5.1637046034
 20
4.2012428151
 30
0.0
 10
5.7636624715
 20
3.5725928362
 30
0.0
 10
6.0136624715
 20
3.5725928362
 30
0.0
340
453
1001
ACAD
1000
DSTYLE
1002
{
1070
77
1070
0
1002
}
  0
MTEXT
  5
453
102
{ACAD_REACTORS
330
452
102
}
100
AcDbEntity
  8
NOTES
100
AcDbMText
 62
2
  6
CONTINUOUS
  7
STANDARD
 71
1
 72
1
 10
6.0136624715
 20
3.6225928362
 30
0.0
 11
1.0
 21
0.0
 31
0.0
 44
0.9
  1
M30
 40
0.1
 41
0.3
  0
MTEXT
  5
454
100
AcDbEntity
  8
NOTES
100
AcDbMText
 62
2
  6
CONTINUOUS
  7
STANDARD
 71
2
 72
1
 10
12.4441710252
 20
5.4798026765
 30
0.0
 11
1.0
 21
0.0
 31
0.0
 44
0.9
  1
ISOMTERIC VIEW\P\H0.1;SCALE  1:1
 40
0.125
 41
1.75
  0
INSERT
  5
455
100
AcDbEntity
  8
SYMBOLS
100
AcDbBlockReference
 62
2
  6
CONTINUOUS
  2
CL_BL1
 10
4.6185139199
 20
2.9565941298
  0
INSERT
  5
456
100
AcDbEntity
  8
SYMBOLS
100
AcDbBlockReference
 62
2
  6
CONTINUOUS
  2
CL_BL2
 10
5.8450514809
 20
8.0053905635
  0
INSERT
  5
457
100
AcDbEntity
  8
SYMBOLS
100
AcDbBlockReference
 62
2
  6
CONTINUOUS
  2
CL_BL3
 10
4.6262680149
 20
6.7504052377
  0
LINE
  5
458
100
AcDbEntity
  8
0
100
AcDbLine
 62
2
  6
CONTINUOUS
 10
0.47
 20
5.586103
 11
0.47
 21
5.412897
  0
LINE
  5
459
100
AcDbEntity
  8
0
100
AcDbLine
 62
2
  6
CONTINUOUS
 10
0.62
 20
10.112
 11
0.62
 21
0.887
  0
LINE
  5
45A
100
AcDbEntity
  8
0
100
AcDbLine
 62
2
  6
CONTINUOUS
 10
2.59
 20
0.887
 11
2.59
 21
0.637
  0
LINE
  5
45B
100
AcDbEntity
  8
0
100
AcDbLine
 62
2
  6
CONTINUOUS
 10
2.59
 20
10.112
 11
2.59
 21
10.362
  0
LINE
  5
45C
100
AcDbEntity
  8
0
100
AcDbLine
 62
2
  6
CONTINUOUS
 10
8.413397
 20
0.737
 11
8.586603
 21
0.737
  0
LINE
  5
45D
100
AcDbEntity
  8
0
100
AcDbLine
 62
7
  6
CONTINUOUS
 10
11.1389508475
 20
1.425992839
 11
11.7453418475
 21
1.495385839
  0
LINE
  5
45E
100
AcDbEntity
  8
0
100
AcDbLine
 62
2
  6
CONTINUOUS
 10
0.62
 20
0.887
 11
16.38
 21
0.887
  0
LINE
  5
45F
100
AcDbEntity
  8
0
100
AcDbLine
 62
2
  6
CONTINUOUS
 10
12.03
 20
1.137
 11
16.38
 21
1.137
  0
LINE
  5
460
100
AcDbEntity
  8
0
100
AcDbLine
 62
7
  6
CONTINUOUS
 10
10.2121898475
 20
1.243294839
 11
10.4342808475
 21
1.243294839
  0
LINE
  5
461
100
AcDbEntity
  8
0
100
AcDbLine
 62
7
  6
CONTINUOUS
 10
10.4842808475
 20
1.243294839
 11
10.5842808475
 21
1.243294839
  0
LINE
  5
462
100
AcDbEntity
  8
0
100
AcDbLine
 62
7
  6
CONTINUOUS
 10
10.6342808475
 20
1.243294839
 11
10.8563718475
 21
1.243294839
  0
LINE
  5
463
100
AcDbEntity
  8
0
100
AcDbLine
 62
7
  6
CONTINUOUS
 10
11.0389508475
 20
1.243294839
 11
11.3171028475
 21
1.243294839
  0
LINE
  5
464
100
AcDbEntity
  8
0
100
AcDbLine
 62
7
  6
CONTINUOUS
 10
11.3671028475
 20
1.243294839
 11
11.5171888475
 21
1.243294839
  0
LINE
  5
465
100
AcDbEntity
  8
0
100
AcDbLine
 62
7
  6
CONTINUOUS
 10
11.5671888475
 20
1.243294839
 11
11.8453418475
 21
1.243294839
  0
LINE
  5
466
100
AcDbEntity
  8
0
100
AcDbLine
 62
7
  6
CONTINUOUS
 10
11.7453418475
 20
0.991203839
 11
11.1389508475
 21
1.060596839
  0
LINE
  5
467
100
AcDbEntity
  8
0
100
AcDbLine
 62
2
  6
CONTINUOUS
 10
4.56
 20
0.887
 11
4.56
 21
0.637
  0
LINE
  5
468
100
AcDbEntity
  8
0
100
AcDbLine
 62
2
  6
CONTINUOUS
 10
4.56
 20
10.112
 11
4.56
 21
10.362
  0
LINE
  5
469
100
AcDbEntity
  8
0
100
AcDbLine
 62
2
  6
CONTINUOUS
 10
0.47
 20
5.412897
 11
0.62
 21
5.4995
  0
LINE
  5
46A
100
AcDbEntity
  8
0
100
AcDbLine
 62
2
  6
CONTINUOUS
 10
12.03
 20
1.507
 11
16.38
 21
1.507
  0
LINE
  5
46B
100
AcDbEntity
  8
0
100
AcDbLine
 62
2
  6
CONTINUOUS
 10
10.03
 20
1.907
 11
12.03
 21
1.907
  0
LINE
  5
46C
100
AcDbEntity
  8
0
100
AcDbLine
 62
2
  6
CONTINUOUS
 10
0.62
 20
5.4995
 11
0.47
 21
5.586103
  0
LINE
  5
46D
100
AcDbEntity
  8
0
100
AcDbLine
 62
2
  6
CONTINUOUS
 10
12.03
 20
2.267
 11
16.38
 21
2.267
  0
LINE
  5
46E
100
AcDbEntity
  8
0
100
AcDbLine
 62
2
  6
CONTINUOUS
 10
8.5
 20
10.112
 11
8.586603
 21
10.262
  0
LINE
  5
46F
100
AcDbEntity
  8
0
100
AcDbLine
 62
2
  6
CONTINUOUS
 10
16.38
 20
2.807
 11
10.03
 21
2.807
  0
LINE
  5
470
100
AcDbEntity
  8
0
100
AcDbLine
 62
2
  6
CONTINUOUS
 10
0.62
 20
3.1995
 11
0.37
 21
3.1995
  0
LINE
  5
471
100
AcDbEntity
  8
0
100
AcDbLine
 62
2
  6
CONTINUOUS
 10
16.38
 20
3.1995
 11
16.63
 21
3.1995
  0
LINE
  5
472
100
AcDbEntity
  8
0
100
AcDbLine
 62
2
  6
CONTINUOUS
 10
8.586603
 20
0.737
 11
8.5
 21
0.887
  0
LINE
  5
473
100
AcDbEntity
  8
0
100
AcDbLine
 62
2
  6
CONTINUOUS
 10
6.53
 20
0.887
 11
6.53
 21
0.637
  0
LINE
  5
474
100
AcDbEntity
  8
0
100
AcDbLine
 62
2
  6
CONTINUOUS
 10
6.53
 20
10.112
 11
6.53
 21
10.362
  0
LINE
  5
475
100
AcDbEntity
  8
0
100
AcDbLine
 62
2
  6
CONTINUOUS
 10
8.5
 20
0.887
 11
8.5
 21
0.637
  0
LINE
  5
476
100
AcDbEntity
  8
0
100
AcDbLine
 62
2
  6
CONTINUOUS
 10
8.5
 20
10.112
 11
8.5
 21
10.362
  0
LINE
  5
477
100
AcDbEntity
  8
0
100
AcDbLine
 62
2
  6
CONTINUOUS
 10
0.62
 20
5.4995
 11
0.37
 21
5.4995
  0
LINE
  5
478
100
AcDbEntity
  8
0
100
AcDbLine
 62
2
  6
CONTINUOUS
 10
16.38
 20
5.4995
 11
16.63
 21
5.4995
  0
LINE
  5
479
100
AcDbEntity
  8
0
100
AcDbLine
 62
2
  6
CONTINUOUS
 10
10.03
 20
2.807
 11
10.03
 21
0.887
  0
LINE
  5
47A
100
AcDbEntity
  8
0
100
AcDbLine
 62
2
  6
CONTINUOUS
 10
10.47
 20
0.887
 11
10.47
 21
0.637
  0
LINE
  5
47B
100
AcDbEntity
  8
0
100
AcDbLine
 62
2
  6
CONTINUOUS
 10
10.47
 20
10.112
 11
10.47
 21
10.362
  0
LINE
  5
47C
100
AcDbEntity
  8
0
100
AcDbLine
 62
7
  6
CONTINUOUS
 10
10.5342808475
 20
1.143294839
 11
10.5342808475
 21
0.921203839
  0
LINE
  5
47D
100
AcDbEntity
  8
0
100
AcDbLine
 62
7
  6
CONTINUOUS
 10
10.5342808475
 20
1.193294839
 11
10.5342808475
 21
1.293294839
  0
LINE
  5
47E
100
AcDbEntity
  8
0
100
AcDbLine
 62
7
  6
CONTINUOUS
 10
10.5342808475
 20
1.343294839
 11
10.5342808475
 21
1.565385839
  0
LINE
  5
47F
100
AcDbEntity
  8
0
100
AcDbLine
 62
2
  6
CONTINUOUS
 10
8.5
 20
0.887
 11
8.413397
 21
0.737
  0
LINE
  5
480
100
AcDbEntity
  8
0
100
AcDbLine
 62
2
  6
CONTINUOUS
 10
0.62
 20
7.7995
 11
0.37
 21
7.7995
  0
LINE
  5
481
100
AcDbEntity
  8
0
100
AcDbLine
 62
2
  6
CONTINUOUS
 10
16.38
 20
7.7995
 11
16.63
 21
7.7995
  0
LINE
  5
482
100
AcDbEntity
  8
0
100
AcDbLine
 62
2
  6
CONTINUOUS
 10
8.413397
 20
10.262
 11
8.5
 21
10.112
  0
LINE
  5
483
100
AcDbEntity
  8
0
100
AcDbLine
 62
7
  6
CONTINUOUS
 10
11.1389508475
 20
1.060596839
 11
11.1389508475
 21
1.425992839
  0
LINE
  5
484
100
AcDbEntity
  8
0
100
AcDbLine
 62
7
  6
CONTINUOUS
 10
11.7453418475
 20
1.495385839
 11
11.7453418475
 21
0.991203839
  0
LINE
  5
485
100
AcDbEntity
  8
0
100
AcDbLine
 62
1
  6
CONTINUOUS
 10
12.03
 20
2.807
 11
12.03
 21
0.887
  0
LINE
  5
486
100
AcDbEntity
  8
0
100
AcDbLine
 62
2
  6
CONTINUOUS
 10
12.44
 20
0.887
 11
12.44
 21
0.637
  0
LINE
  5
487
100
AcDbEntity
  8
0
100
AcDbLine
 62
2
  6
CONTINUOUS
 10
12.44
 20
10.112
 11
12.44
 21
10.362
  0
LINE
  5
488
100
AcDbEntity
  8
0
100
AcDbLine
 62
2
  6
CONTINUOUS
 10
16.53
 20
5.586103
 11
16.38
 21
5.4995
  0
LINE
  5
489
100
AcDbEntity
  8
0
100
AcDbLine
 62
2
  6
CONTINUOUS
 10
16.38
 20
5.4995
 11
16.53
 21
5.412897
  0
LINE
  5
48A
100
AcDbEntity
  8
0
100
AcDbLine
 62
2
  6
CONTINUOUS
 10
12.83
 20
1.507
 11
12.83
 21
1.137
  0
LINE
  5
48B
100
AcDbEntity
  8
0
100
AcDbLine
 62
2
  6
CONTINUOUS
 10
16.38
 20
10.112
 11
0.62
 21
10.112
  0
LINE
  5
48C
100
AcDbEntity
  8
0
100
AcDbLine
 62
2
  6
CONTINUOUS
 10
8.586603
 20
10.262
 11
8.413397
 21
10.262
  0
LINE
  5
48D
100
AcDbEntity
  8
0
100
AcDbLine
 62
2
  6
CONTINUOUS
 10
14.205
 20
1.137
 11
14.205
 21
0.887
  0
LINE
  5
48E
100
AcDbEntity
  8
0
100
AcDbLine
 62
2
  6
CONTINUOUS
 10
14.41
 20
0.887
 11
14.41
 21
0.637
  0
LINE
  5
48F
100
AcDbEntity
  8
0
100
AcDbLine
 62
2
  6
CONTINUOUS
 10
14.41
 20
10.112
 11
14.41
 21
10.362
  0
LINE
  5
490
100
AcDbEntity
  8
0
100
AcDbLine
 62
2
  6
CONTINUOUS
 10
15.58
 20
1.507
 11
15.58
 21
1.137
  0
LINE
  5
491
100
AcDbEntity
  8
0
100
AcDbLine
 62
2
  6
CONTINUOUS
 10
16.38
 20
0.887
 11
16.38
 21
10.112
  0
LINE
  5
492
100
AcDbEntity
  8
0
100
AcDbLine
 62
2
  6
CONTINUOUS
 10
16.53
 20
5.412897
 11
16.53
 21
5.586103
  0
LWPOLYLINE
  5
493
100
AcDbEntity
  8
0
100
AcDbPolyline
 62
7
  6
CONTINUOUS
 90
8
 70
0
 10
4.356548572
 20
3.4430562617
 10
4.3660629835
 20
3.4440961452
 10
4.3815145042
 20
3.4451281308
 10
4.4024168227
 20
3.4461550149
 10
4.4286487481
 20
3.447195657
 10
4.4595535476
 20
3.4482461816
 10
4.4938811245
 20
3.4492920994
 10
4.5302631865
 20
3.4503230909
  0
LWPOLYLINE
  5
494
100
AcDbEntity
  8
0
100
AcDbPolyline
 62
7
  6
CONTINUOUS
 90
8
 70
0
 10
4.8179179612
 20
3.5020129734
 10
4.8083391713
 20
3.5009674576
 10
4.7926573173
 20
3.4999241044
 10
4.7716411198
 20
3.498895898
 10
4.745777557
 20
3.4978715945
 10
4.7153192982
 20
3.4968355212
 10
4.6813555113
 20
3.4957991115
 10
4.6451741676
 20
3.4947724255
  0
LWPOLYLINE
  5
495
100
AcDbEntity
  8
0
100
AcDbPolyline
 62
7
  6
CONTINUOUS
 90
5
 70
0
 10
4.400718327
 20
3.4223374342
 10
4.4203572545
 20
3.4229404049
 10
4.4447533406
 20
3.423542976
 10
4.473243021
 20
3.4241451436
 10
4.5050456155
 20
3.4247468783
  0
LWPOLYLINE
  5
496
100
AcDbEntity
  8
0
100
AcDbPolyline
 62
7
  6
CONTINUOUS
 90
10
 70
0
 10
4.5524106612
 20
3.4714827333
 10
4.6231550611
 20
3.4736194855
 10
4.6574772928
 20
3.4746878615
 10
4.689762271
 20
3.4757562376
 10
4.7190736773
 20
3.4768246137
 10
4.7445614317
 20
3.4778929897
 10
4.7654863469
 20
3.4789613658
 10
4.7812415651
 20
3.4800297419
 10
4.7913701588
 20
3.4810981179
 10
4.7955223725
 20
3.4821212016
  0
LWPOLYLINE
  5
497
100
AcDbEntity
  8
0
100
AcDbPolyline
 62
7
  6
CONTINUOUS
 90
11
 70
0
 10
4.547179613
 20
3.4319528188
 10
4.6179058428
 20
3.4340895709
 10
4.65244833
 20
3.435157947
 10
4.685099412
 20
3.4362263231
 10
4.7149121527
 20
3.4372946991
 10
4.7410219329
 20
3.4383630752
 10
4.7626715251
 20
3.4394314513
 10
4.779233055
 20
3.4404998273
 10
4.7902262104
 20
3.4415682034
 10
4.7953321715
 20
3.4426365795
 10
4.7955223725
 20
3.4427511228
  0
LWPOLYLINE
  5
498
100
AcDbEntity
  8
0
100
AcDbPolyline
 62
7
  6
CONTINUOUS
 90
8
 70
0
 10
4.6460597977
 20
3.4554268522
 10
4.6823433441
 20
3.4564579753
 10
4.716058509
 20
3.4574891447
 10
4.7462930505
 20
3.4585203311
 10
4.7722286708
 20
3.4595514861
 10
4.7931647281
 20
3.4605825945
 10
4.8085371269
 20
3.4616137264
 10
4.8179301301
 20
3.4626448831
  0
LWPOLYLINE
  5
499
100
AcDbEntity
  8
0
100
AcDbPolyline
 62
7
  6
CONTINUOUS
 90
9
 70
0
 10
4.6446729945
 20
3.4534199862
 10
4.681002877
 20
3.4544502112
 10
4.7152965757
 20
3.4554962109
 10
4.746153179
 20
3.4565467167
 10
4.7723239545
 20
3.4575871574
 10
4.7932197095
 20
3.4586172008
 10
4.808603167
 20
3.459650704
 10
4.8179456485
 20
3.4606789204
 10
4.8209348647
 20
3.4614796391
  0
LINE
  5
49A
100
AcDbEntity
  8
0
100
AcDbLine
 62
7
  6
CONTINUOUS
 10
4.5302631865
 20
3.4503230909
 11
4.6446729945
 21
3.4534199862
  0
LINE
  5
49B
100
AcDbEntity
  8
0
100
AcDbLine
 62
7
  6
CONTINUOUS
 10
4.5317800518
 20
3.4523334649
 11
4.6460597977
 21
3.4554268522
  0
LWPOLYLINE
  5
49C
100
AcDbEntity
  8
0
100
AcDbPolyline
 62
7
  6
CONTINUOUS
 90
8
 70
0
 10
4.6813168824
 20
3.4277492212
 10
4.7131631134
 20
3.4283484795
 10
4.7416889564
 20
3.4289473357
 10
4.7660963396
 20
3.4295457704
 10
4.785700176
 20
3.4301437853
 10
4.7999464664
 20
3.4307414037
 10
4.8084260063
 20
3.4313386143
 10
4.8108867435
 20
3.4318196406
  0
LWPOLYLINE
  5
49D
100
AcDbEntity
  8
0
100
AcDbPolyline
 62
7
  6
CONTINUOUS
 90
4
 70
0
 10
4.5050456155
 20
3.4247468783
 10
4.5750272216
 20
3.4259490604
 10
4.6112784405
 20
3.4265495301
 10
4.6813168824
 20
3.4277492212
  0
LINE
  5
49E
100
AcDbEntity
  8
0
100
AcDbLine
 62
7
  6
CONTINUOUS
 10
4.3834910685
 20
3.3829673554
 11
4.7909713834
 21
3.3829673554
  0
LINE
  5
49F
100
AcDbEntity
  8
0
100
AcDbLine
 62
7
  6
CONTINUOUS
 10
4.8014005224
 20
3.4223374342
 11
4.3772531341
 21
3.4223374342
  0
LWPOLYLINE
  5
4A0
100
AcDbEntity
  8
0
100
AcDbPolyline
 62
7
  6
CONTINUOUS
 90
9
 70
0
 10
4.3789400794
 20
3.4235772888
 10
4.3822829653
 20
3.4244741863
 10
4.391724327
 20
3.4255425624
 10
4.406835716
 20
3.4266109384
 10
4.4271788768
 20
3.4276793145
 10
4.4521638236
 20
3.4287476906
 10
4.4810659512
 20
3.4298160667
 10
4.5130470495
 20
3.4308844427
 10
4.547179613
 20
3.4319528188
  0
LWPOLYLINE
  5
4A1
100
AcDbEntity
  8
0
100
AcDbPolyline
 62
7
  6
CONTINUOUS
 90
9
 70
0
 10
4.3535275871
 20
3.4442188513
 10
4.3571287485
 20
3.4451154754
 10
4.3670756055
 20
3.4461465916
 10
4.3829710511
 20
3.4471777244
 10
4.4043852199
 20
3.4482088457
 10
4.4307404672
 20
3.4492399956
 10
4.4613251031
 20
3.450271176
 10
4.4953115533
 20
3.4513023444
 10
4.5317800518
 20
3.4523334649
  0
LWPOLYLINE
  5
4A2
100
AcDbEntity
  8
0
100
AcDbPolyline
 62
7
  6
CONTINUOUS
 90
9
 70
0
 10
4.3789400794
 20
3.4629473676
 10
4.38332211
 20
3.4640041008
 10
4.3936332832
 20
3.4650724769
 10
4.4095591209
 20
3.466140853
 10
4.430637747
 20
3.467209229
 10
4.4562578461
 20
3.4682776051
 10
4.4856763925
 20
3.4693459812
 10
4.5180401991
 20
3.4704143572
 10
4.5524106612
 20
3.4714827333
  0
LWPOLYLINE
  5
4A3
100
AcDbEntity
  8
0
100
AcDbPolyline
 62
7
  6
CONTINUOUS
 90
8
 70
0
 10
4.8182116495
 20
3.5414321518
 10
4.8095118011
 20
3.5404362697
 10
4.7952217776
 20
3.5394411464
 10
4.7759761889
 20
3.5384586836
 10
4.752206195
 20
3.5374802372
 10
4.7243600061
 20
3.5364997514
 10
4.69333578
 20
3.5355244597
 10
4.6597276054
 20
3.534548645
  0
LWPOLYLINE
  5
4A4
100
AcDbEntity
  8
0
100
AcDbPolyline
 62
7
  6
CONTINUOUS
 90
8
 70
0
 10
4.3565125032
 20
3.4824204395
 10
4.3658499931
 20
3.4834485888
 10
4.3812413246
 20
3.4844827842
 10
4.4021339216
 20
3.4855127072
 10
4.4282924102
 20
3.4865527326
 10
4.4591350457
 20
3.487602867
 10
4.4934158202
 20
3.4886485742
 10
4.5297303099
 20
3.489678444
  0
LWPOLYLINE
  5
4A5
100
AcDbEntity
  8
0
100
AcDbPolyline
 62
7
  6
CONTINUOUS
 90
8
 70
0
 10
4.8179527147
 20
3.5807588198
 10
4.8084654912
 20
3.5797180324
 10
4.7928917431
 20
3.5786774309
 10
4.771947707
 20
3.5776494317
 10
4.7458408129
 20
3.576614058
 10
4.7151229028
 20
3.5755693913
 10
4.6810316872
 20
3.5745297941
 10
4.644858934
 20
3.5735038664
  0
LWPOLYLINE
  5
4A6
100
AcDbEntity
  8
0
100
AcDbPolyline
 62
7
  6
CONTINUOUS
 90
8
 70
0
 10
4.3565440867
 20
3.5217956872
 10
4.3661221849
 20
3.5228411789
 10
4.3818044301
 20
3.5238845827
 10
4.4028354657
 20
3.5249134443
 10
4.4289863198
 20
3.52594811
 10
4.4596703641
 20
3.5269900742
 10
4.4936363193
 20
3.5280251012
 10
4.5297517963
 20
3.5290491167
  0
LWPOLYLINE
  5
4A7
100
AcDbEntity
  8
0
100
AcDbPolyline
 62
7
  6
CONTINUOUS
 90
7
 70
0
 10
4.449772785
 20
3.5286366468
 10
4.4220788673
 20
3.5276603626
 10
4.3983721946
 20
3.5266834463
 10
4.379179843
 20
3.5257025956
 10
4.3649220765
 20
3.5247085743
 10
4.3562434883
 20
3.5237139037
 10
4.3535275871
 20
3.5229590087
  0
LWPOLYLINE
  5
4A8
100
AcDbEntity
  8
0
100
AcDbPolyline
 62
7
  6
CONTINUOUS
 90
3
 70
0
 10
4.4646988279
 20
3.5473374342
 10
4.4952123901
 20
3.5484098281
 10
4.5284147136
 20
3.549482222
  0
LWPOLYLINE
  5
4A9
100
AcDbEntity
  8
0
100
AcDbPolyline
 62
7
  6
CONTINUOUS
 90
9
 70
0
 10
4.6441696464
 20
3.5923779795
 10
4.6774918494
 20
3.5934503734
 10
4.7081766654
 20
3.5945227673
 10
4.7353274937
 20
3.5955951613
 10
4.7581509957
 20
3.5966675552
 10
4.775980276
 20
3.5977399492
 10
4.7882943684
 20
3.5988123431
 10
4.7947334592
 20
3.599884737
 10
4.7955223725
 20
3.6002314378
  0
LWPOLYLINE
  5
4AA
100
AcDbEntity
  8
0
100
AcDbPolyline
 62
7
  6
CONTINUOUS
 90
9
 70
0
 10
4.6342313688
 20
3.5526994039
 10
4.6681346259
 20
3.5537717978
 10
4.6996739112
 20
3.5548441917
 10
4.7279276566
 20
3.5559165857
 10
4.7520702967
 20
3.5569889796
 10
4.771396391
 20
3.5580613735
 10
4.7853412372
 20
3.5591337675
 10
4.7934973713
 20
3.5602061614
 10
4.7955223725
 20
3.560861359
  0
LWPOLYLINE
  5
4AB
100
AcDbEntity
  8
0
100
AcDbPolyline
 62
7
  6
CONTINUOUS
 90
3
 70
0
 10
4.449772785
 20
3.5660382216
 10
4.4808259458
 20
3.5670153792
 10
4.5144742052
 20
3.5679928922
  0
LWPOLYLINE
  5
4AC
100
AcDbEntity
  8
0
100
AcDbPolyline
 62
7
  6
CONTINUOUS
 90
9
 70
0
 10
4.6283809054
 20
3.5131494
 10
4.6624605496
 20
3.5142177761
 10
4.6943584176
 20
3.5152861521
 10
4.7231494177
 20
3.5163545282
 10
4.7479985627
 20
3.5174229043
 10
4.7681851858
 20
3.5184912803
 10
4.7831238412
 20
3.5195596564
 10
4.7923812828
 20
3.5206280325
 10
4.7955223725
 20
3.5214912803
  0
LINE
  5
4AD
100
AcDbEntity
  8
0
100
AcDbLine
 62
7
  6
CONTINUOUS
 10
4.5230783683
 20
3.5099442718
 11
4.6283809054
 21
3.5131494
  0
LINE
  5
4AE
100
AcDbEntity
  8
0
100
AcDbLine
 62
7
  6
CONTINUOUS
 10
4.5284147136
 20
3.549482222
 11
4.6342313688
 21
3.5526994039
  0
LINE
  5
4AF
100
AcDbEntity
  8
0
100
AcDbLine
 62
7
  6
CONTINUOUS
 10
4.538328555
 20
3.5891607977
 11
4.6441696464
 21
3.5923779795
  0
LWPOLYLINE
  5
4B0
100
AcDbEntity
  8
0
100
AcDbPolyline
 62
7
  6
CONTINUOUS
 90
3
 70
0
 10
4.5144742052
 20
3.5305913174
 10
4.4808259458
 20
3.5296138044
 10
4.449772785
 20
3.5286366468
  0
LWPOLYLINE
  5
4B1
100
AcDbEntity
  8
0
100
AcDbPolyline
 62
7
  6
CONTINUOUS
 90
9
 70
0
 10
4.6597276054
 20
3.5719502198
 10
4.69333578
 20
3.5729260345
 10
4.7243600061
 20
3.5739013262
 10
4.752206195
 20
3.574881812
 10
4.7759761889
 20
3.5758602584
 10
4.7952217776
 20
3.5768427212
 10
4.8095118011
 20
3.5778378445
 10
4.8182116495
 20
3.5788337266
 10
4.8209348647
 20
3.5795898753
  0
LWPOLYLINE
  5
4B2
100
AcDbEntity
  8
0
100
AcDbPolyline
 62
7
  6
CONTINUOUS
 90
9
 70
0
 10
4.6441806941
 20
3.4927764613
 10
4.680553335
 20
3.4938071478
 10
4.714870307
 20
3.4948526493
 10
4.7457704454
 20
3.4959028313
 10
4.7720035336
 20
3.4969432099
 10
4.7929046331
 20
3.4979694951
 10
4.8083873092
 20
3.4990029176
 10
4.8179130793
 20
3.5000436729
 10
4.8209348647
 20
3.5008497179
  0
LWPOLYLINE
  5
4B3
100
AcDbEntity
  8
0
100
AcDbPolyline
 62
7
  6
CONTINUOUS
 90
9
 70
0
 10
4.5297517963
 20
3.4916475419
 10
4.4936363193
 20
3.4906235264
 10
4.4596703641
 20
3.4895884994
 10
4.4289863198
 20
3.4885465352
 10
4.4028354657
 20
3.4875118695
 10
4.3818044301
 20
3.4864830079
 10
4.3661221849
 20
3.4854396041
 10
4.3565440867
 20
3.4843941124
 10
4.3535275871
 20
3.48358893
  0
LWPOLYLINE
  5
4B4
100
AcDbEntity
  8
0
100
AcDbPolyline
 62
7
  6
CONTINUOUS
 90
9
 70
0
 10
4.6451741676
 20
3.5321740003
 10
4.6813555113
 20
3.5332006863
 10
4.7153192982
 20
3.534237096
 10
4.745777557
 20
3.5352731693
 10
4.7716411198
 20
3.5362974729
 10
4.7926573173
 20
3.5373256792
 10
4.8083391713
 20
3.5383690324
 10
4.8179179612
 20
3.5394145483
 10
4.8209348647
 20
3.5402197966
  0
LWPOLYLINE
  5
4B5
100
AcDbEntity
  8
0
100
AcDbPolyline
 62
7
  6
CONTINUOUS
 90
9
 70
0
 10
4.5294909477
 20
3.570380488
 10
4.4933046321
 20
3.5693539829
 10
4.4592763771
 20
3.5683160536
 10
4.4287096201
 20
3.567276616
 10
4.4027763574
 20
3.5662494513
 10
4.3817774697
 20
3.5652216535
 10
4.3661098774
 20
3.5641787487
 10
4.3565410002
 20
3.5631337659
 10
4.3535275871
 20
3.5623290875
  0
LINE
  5
4B6
100
AcDbEntity
  8
0
100
AcDbLine
 62
7
  6
CONTINUOUS
 10
4.6597276054
 20
3.534548645
 11
4.5144742052
 21
3.5305913174
  0
LINE
  5
4B7
100
AcDbEntity
  8
0
100
AcDbLine
 62
7
  6
CONTINUOUS
 10
4.5144742052
 20
3.5679928922
 11
4.6597276054
 21
3.5719502198
  0
LINE
  5
4B8
100
AcDbEntity
  8
0
100
AcDbLine
 62
7
  6
CONTINUOUS
 10
4.5297303099
 20
3.489678444
 11
4.6441806941
 21
3.4927764613
  0
LINE
  5
4B9
100
AcDbEntity
  8
0
100
AcDbLine
 62
7
  6
CONTINUOUS
 10
4.6451741676
 20
3.4947724255
 11
4.5297517963
 21
3.4916475419
  0
LINE
  5
4BA
100
AcDbEntity
  8
0
100
AcDbLine
 62
7
  6
CONTINUOUS
 10
4.5297517963
 20
3.5290491167
 11
4.6451741676
 21
3.5321740003
  0
LINE
  5
4BB
100
AcDbEntity
  8
0
100
AcDbLine
 62
7
  6
CONTINUOUS
 10
4.644858934
 20
3.5735038664
 11
4.5294909477
 21
3.570380488
  0
LINE
  5
4BC
100
AcDbEntity
  8
0
100
AcDbLine
 62
7
  6
CONTINUOUS
 10
4.3543956306
 20
3.4411549184
 11
4.3786959309
 21
3.4232460273
  0
LINE
  5
4BD
100
AcDbEntity
  8
0
100
AcDbLine
 62
7
  6
CONTINUOUS
 10
4.3535275872
 20
3.4811646785
 11
4.3786959309
 21
3.462616106
  0
LINE
  5
4BE
100
AcDbEntity
  8
0
100
AcDbLine
 62
7
  6
CONTINUOUS
 10
4.3543956306
 20
3.4411549184
 11
4.3533729582
 21
3.442022387
  0
LWPOLYLINE
  5
4BF
100
AcDbEntity
  8
0
100
AcDbPolyline
 62
7
  6
CONTINUOUS
 90
13
 70
0
 10
3.6029792574
 20
4.989266568
 10
3.6032364164
 20
4.9761527273
 10
3.6042899663
 20
4.96075561
 10
3.6062311261
 20
4.9461394353
 10
3.6091738004
 20
4.9323025631
 10
3.613296034
 20
4.9192367534
 10
3.6187878864
 20
4.9071354496
 10
3.6257983719
 20
4.8963298906
 10
3.6344814634
 20
4.8871063638
 10
3.6447171239
 20
4.8798907651
 10
3.6562196716
 20
4.8748865464
 10
3.6687086844
 20
4.8720369172
 10
3.6817194149
 20
4.8711563318
  0
LINE
  5
4C0
100
AcDbEntity
  8
02___PRT_ALL_AXES
100
AcDbLine
 62
7
  6
CONTINUOUS
 10
3.6029792574
 20
5.7865106625
 11
3.6029792574
 21
4.989266568
  0
LWPOLYLINE
  5
4C1
100
AcDbEntity
  8
0
100
AcDbPolyline
 62
7
  6
CONTINUOUS
 90
6
 70
0
 10
4.3562434883
 20
3.5611154785
 10
4.3649220765
 20
3.5621101491
 10
4.379179843
 20
3.5631041704
 10
4.3983721946
 20
3.5640850211
 10
4.4220788673
 20
3.5650619374
 10
4.449772785
 20
3.5660382216
  0
LWPOLYLINE
  5
4C2
100
AcDbEntity
  8
0
100
AcDbPolyline
 62
7
  6
CONTINUOUS
 90
8
 70
0
 10
4.8179402422
 20
3.6201268533
 10
4.8085865731
 20
3.6190981443
 10
4.7932131147
 20
3.6180656464
 10
4.7723142337
 20
3.6170355502
 10
4.7461304839
 20
3.6159947068
 10
4.7152584339
 20
3.6149438085
 10
4.6809483523
 20
3.6138974355
 10
4.6445988884
 20
3.6128667569
  0
LWPOLYLINE
  5
4C3
100
AcDbEntity
  8
0
100
AcDbPolyline
 62
7
  6
CONTINUOUS
 90
8
 70
0
 10
4.3565473217
 20
3.6399064514
 10
4.3660455837
 20
3.6409451037
 10
4.381461755
 20
3.6419755514
 10
4.4023659074
 20
3.6430031817
 10
4.4285971869
 20
3.6440441707
 10
4.4595068301
 20
3.6450950811
 10
4.4938437584
 20
3.6461414011
 10
4.5302343735
 20
3.6471726886
  0
LWPOLYLINE
  5
4C4
100
AcDbEntity
  8
0
100
AcDbPolyline
 62
7
  6
CONTINUOUS
 90
8
 70
0
 10
4.3565410002
 20
3.6005353407
 10
4.3661098774
 20
3.6015803235
 10
4.3817774697
 20
3.6026232283
 10
4.4027763574
 20
3.6036510261
 10
4.4287096201
 20
3.6046781908
 10
4.4592763771
 20
3.6057176284
 10
4.4933046321
 20
3.6067555577
 10
4.5294909477
 20
3.6077820628
  0
LWPOLYLINE
  5
4C5
100
AcDbEntity
  8
0
100
AcDbPolyline
 62
7
  6
CONTINUOUS
 90
8
 70
0
 10
4.8179128085
 20
3.6594924476
 10
4.8083735284
 20
3.658450601
 10
4.792848379
 20
3.6574151485
 10
4.7719438227
 20
3.6563894195
 10
4.7457129629
 20
3.6553495554
 10
4.7148221297
 20
3.6542999278
 10
4.6805201089
 20
3.6532549958
 10
4.6441620918
 20
3.6522247663
  0
LWPOLYLINE
  5
4C6
100
AcDbEntity
  8
0
100
AcDbPolyline
 62
7
  6
CONTINUOUS
 90
8
 70
0
 10
4.8179115339
 20
3.6988623185
 10
4.8083135351
 20
3.6978157433
 10
4.7926013345
 20
3.6967713607
 10
4.7715461793
 20
3.695742157
 10
4.7456799279
 20
3.6947184306
 10
4.715310287
 20
3.6936856263
 10
4.6813865658
 20
3.6926504142
 10
4.645182898
 20
3.6916230607
  0
LWPOLYLINE
  5
4C7
100
AcDbEntity
  8
0
100
AcDbPolyline
 62
7
  6
CONTINUOUS
 90
9
 70
0
 10
4.629457332
 20
3.6706627368
 10
4.6636084819
 20
3.6717351307
 10
4.6955279125
 20
3.6728075247
 10
4.724282948
 20
3.6738799186
 10
4.7490333753
 20
3.6749523125
 10
4.7690559948
 20
3.6760247065
 10
4.7837657519
 20
3.6770971004
 10
4.792732832
 20
3.6781694943
 10
4.7955223725
 20
3.6789715953
  0
LWPOLYLINE
  5
4C8
100
AcDbEntity
  8
0
100
AcDbPolyline
 62
7
  6
CONTINUOUS
 90
9
 70
0
 10
4.6193594576
 20
3.6309841612
 10
4.6539699344
 20
3.6320565551
 10
4.6866303272
 20
3.633128949
 10
4.7163863096
 20
3.634201343
 10
4.7423684211
 20
3.6352737369
 10
4.7638174727
 20
3.6363461308
 10
4.7801067297
 20
3.6374185248
 10
4.7907602253
 20
3.6384909187
 10
4.7955223725
 20
3.6396015165
  0
LINE
  5
4C9
100
AcDbEntity
  8
0
100
AcDbLine
 62
7
  6
CONTINUOUS
 10
4.5237424743
 20
3.667445555
 11
4.629457332
 21
3.6706627368
  0
LWPOLYLINE
  5
4CA
100
AcDbEntity
  8
0
100
AcDbPolyline
 62
7
  6
CONTINUOUS
 90
9
 70
0
 10
4.644858934
 20
3.6109054412
 10
4.6810316872
 20
3.6119313689
 10
4.7151229028
 20
3.6129709661
 10
4.7458408129
 20
3.6140156328
 10
4.771947707
 20
3.6150510065
 10
4.7928917431
 20
3.6160790057
 10
4.8084654912
 20
3.6171196073
 10
4.8179527147
 20
3.6181603946
 10
4.8209348647
 20
3.6189599541
  0
LWPOLYLINE
  5
4CB
100
AcDbEntity
  8
0
100
AcDbPolyline
 62
7
  6
CONTINUOUS
 90
9
 70
0
 10
4.5302343735
 20
3.6097711138
 10
4.4938437584
 20
3.6087398263
 10
4.4595068301
 20
3.6076935063
 10
4.4285971869
 20
3.6066425959
 10
4.4023659074
 20
3.6056016069
 10
4.381461755
 20
3.6045739766
 10
4.3660455837
 20
3.6035435289
 10
4.3565473217
 20
3.6025048766
 10
4.3535275871
 20
3.6016991662
  0
LWPOLYLINE
  5
4CC
100
AcDbEntity
  8
0
100
AcDbPolyline
 62
7
  6
CONTINUOUS
 90
9
 70
0
 10
4.6445988884
 20
3.6502683317
 10
4.6809483523
 20
3.6512990103
 10
4.7152584339
 20
3.6523453833
 10
4.7461304839
 20
3.6533962816
 10
4.7723142337
 20
3.654437125
 10
4.7932131147
 20
3.6554672212
 10
4.8085865731
 20
3.6564997191
 10
4.8179402422
 20
3.6575284281
 10
4.8209348647
 20
3.6583300328
  0
LWPOLYLINE
  5
4CD
100
AcDbEntity
  8
0
100
AcDbPolyline
 62
7
  6
CONTINUOUS
 90
9
 70
0
 10
4.5296471812
 20
3.649124965
 10
4.4933580895
 20
3.6480957043
 10
4.4590992136
 20
3.6470505383
 10
4.4282763453
 20
3.6460009646
 10
4.4021333927
 20
3.6449615029
 10
4.381244728
 20
3.6439317957
 10
4.3658424043
 20
3.6428967767
 10
4.3565064439
 20
3.6418682638
 10
4.3535275871
 20
3.641069245
  0
LWPOLYLINE
  5
4CE
100
AcDbEntity
  8
0
100
AcDbPolyline
 62
7
  6
CONTINUOUS
 90
9
 70
0
 10
4.6441620918
 20
3.6896263411
 10
4.6805201089
 20
3.6906565706
 10
4.7148221297
 20
3.6917015026
 10
4.7457129629
 20
3.6927511302
 10
4.7719438227
 20
3.6937909943
 10
4.792848379
 20
3.6948167233
 10
4.8083735284
 20
3.6958521758
 10
4.8179128085
 20
3.6968940224
 10
4.8209348647
 20
3.6977001116
  0
LWPOLYLINE
  5
4CF
100
AcDbEntity
  8
0
100
AcDbPolyline
 62
7
  6
CONTINUOUS
 90
9
 70
0
 10
4.5296476884
 20
3.6884950577
 10
4.4935205494
 20
3.6874705349
 10
4.4597049953
 20
3.6864400002
 10
4.4290860244
 20
3.6854005562
 10
4.4029287475
 20
3.6843663253
 10
4.3818603807
 20
3.6833365372
 10
4.3661478221
 20
3.682292106
 10
4.3565505137
 20
3.6812455548
 10
4.3535275871
 20
3.6804393237
  0
LINE
  5
4D0
100
AcDbEntity
  8
0
100
AcDbLine
 62
7
  6
CONTINUOUS
 10
4.5294909477
 20
3.6077820628
 11
4.644858934
 21
3.6109054412
  0
LINE
  5
4D1
100
AcDbEntity
  8
0
100
AcDbLine
 62
7
  6
CONTINUOUS
 10
4.6445988884
 20
3.6128667569
 11
4.5302343735
 21
3.6097711138
  0
LINE
  5
4D2
100
AcDbEntity
  8
0
100
AcDbLine
 62
7
  6
CONTINUOUS
 10
4.5302343735
 20
3.6471726886
 11
4.6445988884
 21
3.6502683317
  0
LINE
  5
4D3
100
AcDbEntity
  8
0
100
AcDbLine
 62
7
  6
CONTINUOUS
 10
4.6441620918
 20
3.6522247663
 11
4.5296471812
 21
3.649124965
  0
LINE
  5
4D4
100
AcDbEntity
  8
0
100
AcDbLine
 62
7
  6
CONTINUOUS
 10
4.5296471812
 20
3.6865265398
 11
4.6441620918
 21
3.6896263411
  0
LINE
  5
4D5
100
AcDbEntity
  8
0
100
AcDbLine
 62
7
  6
CONTINUOUS
 10
4.645182898
 20
3.6916230607
 11
4.5296476884
 21
3.6884950577
  0
LINE
  5
4D6
100
AcDbEntity
  8
0
100
AcDbLine
 62
7
  6
CONTINUOUS
 10
4.3535275872
 20
3.5205347572
 11
4.3786959309
 21
3.5019861848
  0
LINE
  5
4D7
100
AcDbEntity
  8
0
100
AcDbLine
 62
7
  6
CONTINUOUS
 10
4.3535275872
 20
3.559904836
 11
4.3786959309
 21
3.5413562635
  0
LINE
  5
4D8
100
AcDbEntity
  8
0
100
AcDbLine
 62
7
  6
CONTINUOUS
 10
4.3535275872
 20
3.5992749147
 11
4.3786959309
 21
3.5807263423
  0
LINE
  5
4D9
100
AcDbEntity
  8
0
100
AcDbLine
 62
7
  6
CONTINUOUS
 10
4.3535275872
 20
3.6386449935
 11
4.3786959309
 21
3.620096421
  0
LWPOLYLINE
  5
4DA
100
AcDbEntity
  8
0
100
AcDbPolyline
 62
7
  6
CONTINUOUS
 90
10
 70
0
 10
4.3789400794
 20
3.6204276825
 10
4.38233203
 20
3.6213326157
 10
4.3918638662
 20
3.6224050097
 10
4.4071042752
 20
3.6234774036
 10
4.4276079369
 20
3.6245497976
 10
4.4527757408
 20
3.6256221915
 10
4.4818722916
 20
3.6266945854
 10
4.5140473973
 20
3.6277669794
 10
4.5483609115
 20
3.6288393733
 10
4.6193594576
 20
3.6309841612
  0
LWPOLYLINE
  5
4DB
100
AcDbEntity
  8
0
100
AcDbPolyline
 62
7
  6
CONTINUOUS
 90
8
 70
0
 10
4.3565064439
 20
3.6792698386
 10
4.3658424043
 20
3.6802983515
 10
4.381244728
 20
3.6813333705
 10
4.4021333927
 20
3.6823630777
 10
4.4282763453
 20
3.6834025394
 10
4.4590992136
 20
3.6844521131
 10
4.4933580895
 20
3.6854972791
 10
4.5296471812
 20
3.6865265398
  0
LWPOLYLINE
  5
4DC
100
AcDbEntity
  8
0
100
AcDbPolyline
 62
7
  6
CONTINUOUS
 90
8
 70
0
 10
4.8179661866
 20
3.7776114271
 10
4.8085220936
 20
3.7765731105
 10
4.7929987049
 20
3.7755338502
 10
4.7720919026
 20
3.7745061293
 10
4.7460057466
 20
3.7734704681
 10
4.7152816366
 20
3.7724248664
 10
4.6811527818
 20
3.7713837302
 10
4.6449714597
 20
3.7703573712
  0
LWPOLYLINE
  5
4DD
100
AcDbEntity
  8
0
100
AcDbPolyline
 62
7
  6
CONTINUOUS
 90
8
 70
0
 10
4.3565505137
 20
3.7186471296
 10
4.3661478221
 20
3.7196936808
 10
4.3818603807
 20
3.720738112
 10
4.4029287475
 20
3.7217679001
 10
4.4290860244
 20
3.722802131
 10
4.4597049953
 20
3.723841575
 10
4.4935205494
 20
3.7248721097
 10
4.5296476884
 20
3.7258966325
  0
LWPOLYLINE
  5
4DE
100
AcDbEntity
  8
0
100
AcDbPolyline
 62
7
  6
CONTINUOUS
 90
8
 70
0
 10
4.8179016014
 20
3.7382307787
 10
4.8082739227
 20
3.7371825688
 10
4.7925148929
 20
3.7361366008
 10
4.7713913363
 20
3.7351054996
 10
4.7452715897
 20
3.7340736498
 10
4.7148804972
 20
3.7330419515
 10
4.6812319675
 20
3.7320159684
 10
4.645027608
 20
3.730988845
  0
LWPOLYLINE
  5
4DF
100
AcDbEntity
  8
0
100
AcDbPolyline
 62
7
  6
CONTINUOUS
 90
8
 70
0
 10
4.3565604455
 20
3.7580188269
 10
4.3661874401
 20
3.7590670133
 10
4.3819468229
 20
3.7601130295
 10
4.4030667929
 20
3.7611439839
 10
4.4290864837
 20
3.7621722264
 10
4.4593026446
 20
3.7631987841
 10
4.4930920562
 20
3.7642296519
 10
4.5293183224
 20
3.7652576043
  0
LWPOLYLINE
  5
4E0
100
AcDbEntity
  8
0
100
AcDbPolyline
 62
7
  6
CONTINUOUS
 90
7
 70
0
 10
4.8096436553
 20
3.8160382216
 10
4.7947163632
 20
3.8150022102
 10
4.774129478
 20
3.8139661804
 10
4.7482039351
 20
3.8129212501
 10
4.7174541494
 20
3.811864766
 10
4.6831336575
 20
3.8108118822
 10
4.6466759575
 20
3.8097746247
  0
LWPOLYLINE
  5
4E1
100
AcDbEntity
  8
0
100
AcDbPolyline
 62
7
  6
CONTINUOUS
 90
9
 70
0
 10
4.6493218533
 20
3.750019888
 10
4.6823073683
 20
3.751092282
 10
4.7125147884
 20
3.7521646759
 10
4.7390614623
 20
3.7532370699
 10
4.7611717045
 20
3.7543094638
 10
4.7781994607
 20
3.7553818577
 10
4.7896471853
 20
3.7564542517
 10
4.7951803793
 20
3.7575266456
 10
4.7955223725
 20
3.7577117527
  0
LWPOLYLINE
  5
4E2
100
AcDbEntity
  8
0
100
AcDbPolyline
 62
7
  6
CONTINUOUS
 90
9
 70
0
 10
4.6394528719
 20
3.7103413124
 10
4.67306193
 20
3.7114137064
 10
4.7041630419
 20
3.7124861003
 10
4.731847443
 20
3.7135584942
 10
4.7553062038
 20
3.7146308882
 10
4.7738538667
 20
3.7157032821
 10
4.7869484748
 20
3.716775676
 10
4.7942074079
 20
3.71784807
 10
4.7955223725
 20
3.718341674
  0
LWPOLYLINE
  5
4E3
100
AcDbEntity
  8
0
100
AcDbPolyline
 62
7
  6
CONTINUOUS
 90
10
 70
0
 10
4.5536551006
 20
3.7864812819
 10
4.6246600865
 20
3.7886260697
 10
4.6590403587
 20
3.7896984637
 10
4.6913223907
 20
3.7907708576
 10
4.7205629116
 20
3.7918432515
 10
4.7459075227
 20
3.7929156455
 10
4.7666156624
 20
3.7939880394
 10
4.7820822454
 20
3.7950604333
 10
4.7918553429
 20
3.7961328273
 10
4.7955223725
 20
3.7970818315
  0
LINE
  5
4E4
100
AcDbEntity
  8
0
100
AcDbLine
 62
7
  6
CONTINUOUS
 10
4.5335914155
 20
3.7071241306
 11
4.6394528719
 21
3.7103413124
  0
LINE
  5
4E5
100
AcDbEntity
  8
0
100
AcDbLine
 62
7
  6
CONTINUOUS
 10
4.5435703523
 20
3.7468027062
 11
4.6493218533
 21
3.750019888
  0
LWPOLYLINE
  5
4E6
100
AcDbEntity
  8
0
100
AcDbPolyline
 62
7
  6
CONTINUOUS
 90
9
 70
0
 10
4.645182898
 20
3.7290246355
 10
4.6813865658
 20
3.730051989
 10
4.715310287
 20
3.7310872011
 10
4.7456799279
 20
3.7321200054
 10
4.7715461793
 20
3.7331437318
 10
4.7926013345
 20
3.7341729355
 10
4.8083135351
 20
3.7352173181
 10
4.8179115339
 20
3.7362638933
 10
4.8209348647
 20
3.7370701903
  0
LWPOLYLINE
  5
4E7
100
AcDbEntity
  8
0
100
AcDbPolyline
 62
7
  6
CONTINUOUS
 90
9
 70
0
 10
4.5293183224
 20
3.7278560295
 10
4.4930920562
 20
3.7268280771
 10
4.4593026446
 20
3.7257972093
 10
4.4290864837
 20
3.7247706516
 10
4.4030667929
 20
3.7237424091
 10
4.3819468229
 20
3.7227114547
 10
4.3661874401
 20
3.7216654385
 10
4.3565604455
 20
3.7206172521
 10
4.3535275871
 20
3.7198094024
  0
LWPOLYLINE
  5
4E8
100
AcDbEntity
  8
0
100
AcDbPolyline
 62
7
  6
CONTINUOUS
 90
9
 70
0
 10
4.645027608
 20
3.7683904198
 10
4.6812319675
 20
3.7694175432
 10
4.7148804972
 20
3.7704435263
 10
4.7452715897
 20
3.7714752246
 10
4.7713913363
 20
3.7725070744
 10
4.7925148929
 20
3.7735381756
 10
4.8082739227
 20
3.7745841436
 10
4.8179016014
 20
3.7756323535
 10
4.8209348647
 20
3.776440269
  0
LWPOLYLINE
  5
4E9
100
AcDbEntity
  8
0
100
AcDbPolyline
 62
7
  6
CONTINUOUS
 90
9
 70
0
 10
4.5297086335
 20
3.7672369
 10
4.4935068761
 20
3.7662102925
 10
4.4594274682
 20
3.7651712825
 10
4.4287822285
 20
3.7641296553
 10
4.4027740783
 20
3.7630997457
 10
4.3817757849
 20
3.7620719527
 10
4.3661091234
 20
3.7610290804
 10
4.3565408111
 20
3.7599841287
 10
4.3535275871
 20
3.7591794812
  0
LINE
  5
4EA
100
AcDbEntity
  8
0
100
AcDbLine
 62
7
  6
CONTINUOUS
 10
4.5296476884
 20
3.7258966325
 11
4.645182898
 21
3.7290246355
  0
LINE
  5
4EB
100
AcDbEntity
  8
0
100
AcDbLine
 62
7
  6
CONTINUOUS
 10
4.645027608
 20
3.730988845
 11
4.5293183224
 21
3.7278560295
  0
LINE
  5
4EC
100
AcDbEntity
  8
0
100
AcDbLine
 62
7
  6
CONTINUOUS
 10
4.5293183224
 20
3.7652576043
 11
4.645027608
 21
3.7683904198
  0
LINE
  5
4ED
100
AcDbEntity
  8
0
100
AcDbLine
 62
7
  6
CONTINUOUS
 10
4.6449714597
 20
3.7703573712
 11
4.5297086335
 21
3.7672369
  0
LINE
  5
4EE
100
AcDbEntity
  8
0
100
AcDbLine
 62
7
  6
CONTINUOUS
 10
4.3535275872
 20
3.6780150722
 11
4.3786959309
 21
3.6594664997
  0
LINE
  5
4EF
100
AcDbEntity
  8
0
100
AcDbLine
 62
7
  6
CONTINUOUS
 10
4.3535275872
 20
3.7173851509
 11
4.3786959309
 21
3.6988365785
  0
LINE
  5
4F0
100
AcDbEntity
  8
0
100
AcDbLine
 62
7
  6
CONTINUOUS
 10
4.3535275872
 20
3.7567552297
 11
4.3786959309
 21
3.7382066572
  0
LINE
  5
4F1
100
AcDbEntity
  8
0
100
AcDbLine
 62
7
  6
CONTINUOUS
 10
4.8108622737
 20
3.4319567401
 11
4.7957665209
 21
3.4430823845
  0
LINE
  5
4F2
100
AcDbEntity
  8
0
100
AcDbLine
 62
7
  6
CONTINUOUS
 10
4.3535275872
 20
3.4811646785
 11
4.3533729582
 21
3.4813925523
  0
LWPOLYLINE
  5
4F3
100
AcDbEntity
  8
0
100
AcDbPolyline
 62
7
  6
CONTINUOUS
 90
9
 70
0
 10
4.3789400794
 20
3.7779079975
 10
4.3833901021
 20
3.7789745243
 10
4.3938041672
 20
3.7800469182
 10
4.4098701101
 20
3.7811193122
 10
4.4311184889
 20
3.7821917061
 10
4.4569284326
 20
3.7832641001
 10
4.486545783
 20
3.784336494
 10
4.5191051303
 20
3.7854088879
 10
4.5536551006
 20
3.7864812819
  0
LWPOLYLINE
  5
4F4
100
AcDbEntity
  8
0
100
AcDbPolyline
 62
7
  6
CONTINUOUS
 90
8
 70
0
 10
4.3565408111
 20
3.7973857035
 10
4.3661091234
 20
3.7984306552
 10
4.3817757849
 20
3.7994735275
 10
4.4027740783
 20
3.8005013205
 10
4.4287822285
 20
3.8015312301
 10
4.4594274682
 20
3.8025728573
 10
4.4935068761
 20
3.8036118673
 10
4.5297086335
 20
3.8046384748
  0
LWPOLYLINE
  5
4F5
100
AcDbEntity
  8
0
100
AcDbPolyline
 62
7
  6
CONTINUOUS
 90
7
 70
0
 10
4.6347073949
 20
3.8283046454
 10
4.6685848355
 20
3.8293770393
 10
4.7000851493
 20
3.8304494332
 10
4.728287907
 20
3.8315218272
 10
4.7523690329
 20
3.8325942211
 10
4.7716248841
 20
3.833666615
 10
4.7854928107
 20
3.834739009
  0
LINE
  5
4F6
100
AcDbEntity
  8
0
100
AcDbLine
 62
7
  6
CONTINUOUS
 10
4.5288837581
 20
3.8250874636
 11
4.6347073949
 21
3.8283046454
  0
LWPOLYLINE
  5
4F7
100
AcDbEntity
  8
0
100
AcDbPolyline
 62
7
  6
CONTINUOUS
 90
7
 70
0
 10
4.6466759575
 20
3.8471761995
 10
4.6831336575
 20
3.848213457
 10
4.7174541494
 20
3.8492663408
 10
4.7482039351
 20
3.8503228249
 10
4.774129478
 20
3.8513677552
 10
4.7947163632
 20
3.852403785
 10
4.8096436553
 20
3.8534397964
  0
LWPOLYLINE
  5
4F8
100
AcDbEntity
  8
0
100
AcDbPolyline
 62
7
  6
CONTINUOUS
 90
9
 70
0
 10
4.6449714597
 20
3.807758946
 10
4.6811527818
 20
3.808785305
 10
4.7152816366
 20
3.8098264412
 10
4.7460057466
 20
3.8108720429
 10
4.7720919026
 20
3.8119077041
 10
4.7929987049
 20
3.8129354251
 10
4.8085220936
 20
3.8139746853
 10
4.8179661866
 20
3.8150130019
 10
4.8209348647
 20
3.8158103478
  0
LWPOLYLINE
  5
4F9
100
AcDbEntity
  8
0
100
AcDbPolyline
 62
7
  6
CONTINUOUS
 90
9
 70
0
 10
4.531769049
 20
3.8066638701
 10
4.4951126175
 20
3.8056272551
 10
4.4604988621
 20
3.8045755788
 10
4.4293060076
 20
3.8035187887
 10
4.4028152193
 20
3.8024716173
 10
4.3817022631
 20
3.8014379048
 10
4.3661580749
 20
3.8004031847
 10
4.3565789597
 20
3.7993604201
 10
4.3535275871
 20
3.7985495599
  0
LINE
  5
4FA
100
AcDbEntity
  8
0
100
AcDbLine
 62
7
  6
CONTINUOUS
 10
4.5297086335
 20
3.8046384748
 11
4.6449714597
 21
3.807758946
  0
LINE
  5
4FB
100
AcDbEntity
  8
0
100
AcDbLine
 62
7
  6
CONTINUOUS
 10
4.6466759575
 20
3.8097746247
 11
4.531769049
 21
3.8066638701
  0
LINE
  5
4FC
100
AcDbEntity
  8
0
100
AcDbLine
 62
7
  6
CONTINUOUS
 10
4.531769049
 20
3.8440654449
 11
4.6466759575
 21
3.8471761995
  0
LINE
  5
4FD
100
AcDbEntity
  8
0
100
AcDbLine
 62
7
  6
CONTINUOUS
 10
4.0008428108
 20
4.0399749055
 11
4.0359900296
 21
4.0196743377
  0
LINE
  5
4FE
100
AcDbEntity
  8
0
100
AcDbLine
 62
7
  6
CONTINUOUS
 10
4.0008428108
 20
4.0990300236
 11
4.0359900296
 21
4.0787294558
  0
LINE
  5
4FF
100
AcDbEntity
  8
0
100
AcDbLine
 62
7
  6
CONTINUOUS
 10
4.3535275872
 20
3.7961253084
 11
4.3786959309
 21
3.777576736
  0
LINE
  5
500
100
AcDbEntity
  8
0
100
AcDbLine
 62
7
  6
CONTINUOUS
 10
4.8209348647
 20
3.4639038906
 11
4.7957665209
 21
3.4824524632
  0
LINE
  5
501
100
AcDbEntity
  8
0
100
AcDbLine
 62
7
  6
CONTINUOUS
 10
4.3535275872
 20
3.8354953872
 11
4.3786959309
 21
3.8169468147
  0
LINE
  5
502
100
AcDbEntity
  8
0
100
AcDbLine
 62
7
  6
CONTINUOUS
 10
4.8209348647
 20
3.5032739694
 11
4.7957665209
 21
3.521822542
  0
LINE
  5
503
100
AcDbEntity
  8
0
100
AcDbLine
 62
7
  6
CONTINUOUS
 10
4.8209348647
 20
3.5426440481
 11
4.7957665209
 21
3.5611926207
  0
LINE
  5
504
100
AcDbEntity
  8
0
100
AcDbLine
 62
7
  6
CONTINUOUS
 10
4.0008428108
 20
4.0399749055
 11
4.0006170527
 21
4.0402356721
  0
LINE
  5
505
100
AcDbEntity
  8
0
100
AcDbLine
 62
7
  6
CONTINUOUS
 10
4.0008428108
 20
4.0990300236
 11
4.0006170527
 21
4.0992907902
  0
LINE
  5
506
100
AcDbEntity
  8
0
100
AcDbLine
 62
7
  6
CONTINUOUS
 10
4.0008428108
 20
4.1580851417
 11
4.0006170527
 21
4.1583459083
  0
LINE
  5
507
100
AcDbEntity
  8
0
100
AcDbLine
 62
7
  6
CONTINUOUS
 10
4.3535275872
 20
3.5205347572
 11
4.3533729582
 21
3.520762631
  0
LINE
  5
508
100
AcDbEntity
  8
0
100
AcDbLine
 62
7
  6
CONTINUOUS
 10
4.3535275872
 20
3.559904836
 11
4.3533729582
 21
3.5601327098
  0
LINE
  5
509
100
AcDbEntity
  8
0
100
AcDbLine
 62
7
  6
CONTINUOUS
 10
4.3535275872
 20
3.5992749147
 11
4.3533729582
 21
3.5995027885
  0
LINE
  5
50A
100
AcDbEntity
  8
0
100
AcDbLine
 62
7
  6
CONTINUOUS
 10
4.3535275872
 20
3.6386449935
 11
4.3533729582
 21
3.6388728672
  0
LINE
  5
50B
100
AcDbEntity
  8
0
100
AcDbLine
 62
7
  6
CONTINUOUS
 10
4.3535275872
 20
3.6780150722
 11
4.3533729582
 21
3.678242946
  0
LINE
  5
50C
100
AcDbEntity
  8
0
100
AcDbLine
 62
9
  6
CONTINUOUS
 10
4.8210894936
 20
3.9144634184
 11
4.3533729582
 21
3.9144634184
  0
LINE
  5
50D
100
AcDbEntity
  8
0
100
AcDbLine
 62
7
  6
CONTINUOUS
 10
5.0990422496
 20
3.9656445208
 11
4.0754202023
 21
3.9656445208
  0
LINE
  5
50E
100
AcDbEntity
  8
0
100
AcDbLine
 62
9
  6
CONTINUOUS
 10
4.0360501236
 20
4.0050145995
 11
5.1384123283
 21
4.0050145995
  0
LINE
  5
50F
100
AcDbEntity
  8
0
100
AcDbLine
 62
7
  6
CONTINUOUS
 10
4.0008428108
 20
4.1580851417
 11
4.0359900296
 21
4.1377845739
  0
LINE
  5
510
100
AcDbEntity
  8
0
100
AcDbLine
 62
7
  6
CONTINUOUS
 10
4.0008428108
 20
4.2171402598
 11
4.0359900296
 21
4.196839692
  0
LINE
  5
511
100
AcDbEntity
  8
0
100
AcDbLine
 62
7
  6
CONTINUOUS
 10
4.8209348647
 20
3.5820141269
 11
4.7957665209
 21
3.6005626995
  0
LINE
  5
512
100
AcDbEntity
  8
0
100
AcDbLine
 62
7
  6
CONTINUOUS
 10
4.8209348647
 20
3.6213842056
 11
4.7957665209
 21
3.6399327782
  0
LINE
  5
513
100
AcDbEntity
  8
0
100
AcDbLine
 62
7
  6
CONTINUOUS
 10
4.8209348647
 20
3.6607542843
 11
4.7957665209
 21
3.6793028569
  0
LWPOLYLINE
  5
514
100
AcDbEntity
  8
0
100
AcDbPolyline
 62
7
  6
CONTINUOUS
 90
3
 70
0
 10
4.0008428108
 20
4.2171402598
 10
4.0006879959
 20
4.2172548504
 10
4.0006170527
 20
4.2174010264
  0
LINE
  5
515
100
AcDbEntity
  8
0
100
AcDbLine
 62
7
  6
CONTINUOUS
 10
4.0008428108
 20
4.2761953779
 11
4.0006170527
 21
4.2764561445
  0
LINE
  5
516
100
AcDbEntity
  8
0
100
AcDbLine
 62
7
  6
CONTINUOUS
 10
4.0008428108
 20
4.335250496
 11
4.0006170527
 21
4.3355112626
  0
LINE
  5
517
100
AcDbEntity
  8
0
100
AcDbLine
 62
7
  6
CONTINUOUS
 10
4.3535275872
 20
3.7173851509
 11
4.3533729582
 21
3.7176130247
  0
LINE
  5
518
100
AcDbEntity
  8
0
100
AcDbLine
 62
7
  6
CONTINUOUS
 10
4.3535275872
 20
3.7567552297
 11
4.3533729582
 21
3.7569831035
  0
LINE
  5
519
100
AcDbEntity
  8
0
100
AcDbLine
 62
7
  6
CONTINUOUS
 10
4.3535275872
 20
3.7961253084
 11
4.3533729582
 21
3.7963531822
  0
LINE
  5
51A
100
AcDbEntity
  8
0
100
AcDbLine
 62
7
  6
CONTINUOUS
 10
4.3535275872
 20
3.8354953872
 11
4.3533729582
 21
3.8357232609
  0
LINE
  5
51B
100
AcDbEntity
  8
0
100
AcDbLine
 62
7
  6
CONTINUOUS
 10
4.0360501236
 20
4.8317862531
 11
4.0358571629
 21
4.835679391
  0
LINE
  5
51C
100
AcDbEntity
  8
0
100
AcDbLine
 62
7
  6
CONTINUOUS
 10
4.0006170527
 20
4.8121012137
 11
4.0006170527
 21
4.8079522075
  0
LINE
  5
51D
100
AcDbEntity
  8
0
100
AcDbLine
 62
7
  6
CONTINUOUS
 10
4.0006170527
 20
4.7562789791
 11
4.0006170527
 21
4.7488970894
  0
LINE
  5
51E
100
AcDbEntity
  8
0
100
AcDbLine
 62
7
  6
CONTINUOUS
 10
4.0006170527
 20
4.697223861
 11
4.0006170527
 21
4.6898419713
  0
LINE
  5
51F
100
AcDbEntity
  8
0
100
AcDbLine
 62
7
  6
CONTINUOUS
 10
4.0006170527
 20
4.6381687429
 11
4.0006170527
 21
4.6307868532
  0
LINE
  5
520
100
AcDbEntity
  8
0
100
AcDbLine
 62
7
  6
CONTINUOUS
 10
4.0006170527
 20
4.5791136248
 11
4.0006170527
 21
4.571731735
  0
LINE
  5
521
100
AcDbEntity
  8
0
100
AcDbLine
 62
7
  6
CONTINUOUS
 10
4.0006170527
 20
4.5200585067
 11
4.0006170527
 21
4.5126766169
  0
LINE
  5
522
100
AcDbEntity
  8
0
100
AcDbLine
 62
7
  6
CONTINUOUS
 10
4.0006170527
 20
4.4610033886
 11
4.0006170527
 21
4.4536214988
  0
LINE
  5
523
100
AcDbEntity
  8
0
100
AcDbLine
 62
7
  6
CONTINUOUS
 10
4.0006170527
 20
4.4019482705
 11
4.0006170527
 21
4.3945663807
  0
LINE
  5
524
100
AcDbEntity
  8
0
100
AcDbLine
 62
7
  6
CONTINUOUS
 10
4.0006170527
 20
4.3428931524
 11
4.0006170527
 21
4.3355112626
  0
LINE
  5
525
100
AcDbEntity
  8
0
100
AcDbLine
 62
7
  6
CONTINUOUS
 10
4.0006170527
 20
4.2838380343
 11
4.0006170527
 21
4.2764561445
  0
LINE
  5
526
100
AcDbEntity
  8
0
100
AcDbLine
 62
7
  6
CONTINUOUS
 10
4.0006170527
 20
4.2247829162
 11
4.0006170527
 21
4.2174010264
  0
LINE
  5
527
100
AcDbEntity
  8
0
100
AcDbLine
 62
7
  6
CONTINUOUS
 10
4.0006170527
 20
4.165727798
 11
4.0006170527
 21
4.1583459083
  0
LINE
  5
528
100
AcDbEntity
  8
0
100
AcDbLine
 62
7
  6
CONTINUOUS
 10
4.0006170527
 20
4.1066726799
 11
4.0006170527
 21
4.0992907902
  0
LINE
  5
529
100
AcDbEntity
  8
0
100
AcDbLine
 62
7
  6
CONTINUOUS
 10
4.0006170527
 20
4.0476175618
 11
4.0006170527
 21
4.0402356721
  0
LINE
  5
52A
100
AcDbEntity
  8
02___PRT_ALL_AXES
100
AcDbLine
 62
7
  6
CONTINUOUS
 10
4.0360501236
 20
4.8317862531
 11
4.0360501236
 21
4.8121012137
  0
LINE
  5
52B
100
AcDbEntity
  8
02___PRT_ALL_AXES
100
AcDbLine
 62
7
  6
CONTINUOUS
 10
4.0360501236
 20
4.7874949145
 11
4.0360501236
 21
4.7770137929
  0
LINE
  5
52C
100
AcDbEntity
  8
02___PRT_ALL_AXES
100
AcDbLine
 62
7
  6
CONTINUOUS
 10
4.0360501236
 20
4.7284397964
 11
4.0360501236
 21
4.7179586747
  0
LINE
  5
52D
100
AcDbEntity
  8
02___PRT_ALL_AXES
100
AcDbLine
 62
7
  6
CONTINUOUS
 10
4.0360501236
 20
4.6693846783
 11
4.0360501236
 21
4.6589035566
  0
LINE
  5
52E
100
AcDbEntity
  8
02___PRT_ALL_AXES
100
AcDbLine
 62
7
  6
CONTINUOUS
 10
4.0360501236
 20
4.6103295602
 11
4.0360501236
 21
4.5998484385
  0
LINE
  5
52F
100
AcDbEntity
  8
02___PRT_ALL_AXES
100
AcDbLine
 62
7
  6
CONTINUOUS
 10
4.0360501236
 20
4.551274442
 11
4.0360501236
 21
4.5407933204
  0
LINE
  5
530
100
AcDbEntity
  8
02___PRT_ALL_AXES
100
AcDbLine
 62
7
  6
CONTINUOUS
 10
4.0360501236
 20
4.4922193239
 11
4.0360501236
 21
4.4817382023
  0
LINE
  5
531
100
AcDbEntity
  8
02___PRT_ALL_AXES
100
AcDbLine
 62
7
  6
CONTINUOUS
 10
4.0360501236
 20
4.4331642058
 11
4.0360501236
 21
4.4224055635
  0
LINE
  5
532
100
AcDbEntity
  8
02___PRT_ALL_AXES
100
AcDbLine
 62
7
  6
CONTINUOUS
 10
4.0360501236
 20
4.3741090877
 11
4.0360501236
 21
4.3636279661
  0
LINE
  5
533
100
AcDbEntity
  8
02___PRT_ALL_AXES
100
AcDbLine
 62
7
  6
CONTINUOUS
 10
4.0360501236
 20
4.3150539696
 11
4.0360501236
 21
4.304572848
  0
LINE
  5
534
100
AcDbEntity
  8
02___PRT_ALL_AXES
100
AcDbLine
 62
7
  6
CONTINUOUS
 10
4.0360501236
 20
4.2559988515
 11
4.0360501236
 21
4.2455177299
  0
LINE
  5
535
100
AcDbEntity
  8
02___PRT_ALL_AXES
100
AcDbLine
 62
7
  6
CONTINUOUS
 10
4.0360501236
 20
4.1969437334
 11
4.0360501236
 21
4.1864626118
  0
LINE
  5
536
100
AcDbEntity
  8
02___PRT_ALL_AXES
100
AcDbLine
 62
7
  6
CONTINUOUS
 10
4.0360501236
 20
4.1378886153
 11
4.0360501236
 21
4.1274074936
  0
LINE
  5
537
100
AcDbEntity
  8
02___PRT_ALL_AXES
100
AcDbLine
 62
7
  6
CONTINUOUS
 10
4.0360501236
 20
4.0788334972
 11
4.0360501236
 21
4.0683523755
  0
LINE
  5
538
100
AcDbEntity
  8
02___PRT_ALL_AXES
100
AcDbLine
 62
7
  6
CONTINUOUS
 10
4.0360501236
 20
4.0197783791
 11
4.0360501236
 21
4.0050145995
  0
LWPOLYLINE
  5
539
100
AcDbEntity
  8
0
100
AcDbPolyline
 62
7
  6
CONTINUOUS
 90
3
 70
0
 10
4.0006170527
 20
4.5791136248
 10
4.0006663191
 20
4.5792354382
 10
4.0008428108
 20
4.5793743914
  0
LWPOLYLINE
  5
53A
100
AcDbEntity
  8
0
100
AcDbPolyline
 62
7
  6
CONTINUOUS
 90
5
 70
0
 10
4.0006170527
 20
4.8079522075
 10
4.0007064331
 20
4.8081162827
 10
4.0050814426
 20
4.8091125154
 10
4.0159906816
 20
4.8101087482
 10
4.0333117014
 20
4.8111049809
  0
LWPOLYLINE
  5
53B
100
AcDbEntity
  8
0
100
AcDbPolyline
 62
7
  6
CONTINUOUS
 90
11
 70
0
 10
4.84702492
 20
4.1183667627
 10
4.9013493768
 20
4.1193656323
 10
4.9521294032
 20
4.1203645019
 10
4.99879201
 20
4.1213633714
 10
5.0408106682
 20
4.122362241
 10
5.0777112497
 20
4.1233611106
 10
5.1090773777
 20
4.1243599802
 10
5.1345551246
 20
4.1253588497
 10
5.1538570059
 20
4.1263577193
 10
5.166765224
 20
4.1273565889
 10
5.1731341259
 20
4.1283554584
  0
LWPOLYLINE
  5
53C
100
AcDbEntity
  8
0
100
AcDbPolyline
 62
7
  6
CONTINUOUS
 90
12
 70
0
 10
4.84702492
 20
4.1257486525
 10
4.9013493768
 20
4.1267475221
 10
4.9521294032
 20
4.1277463916
 10
4.99879201
 20
4.1287452612
 10
5.0408106682
 20
4.1297441308
 10
5.0777112497
 20
4.1307430003
 10
5.1090773777
 20
4.1317418699
 10
5.1345551246
 20
4.1327407395
 10
5.1538570059
 20
4.1337396091
 10
5.166765224
 20
4.1347384786
 10
5.1731341259
 20
4.1357373482
 10
5.1738453992
 20
4.136200239
  0
LWPOLYLINE
  5
53D
100
AcDbEntity
  8
0
100
AcDbPolyline
 62
7
  6
CONTINUOUS
 90
13
 70
0
 10
4.7574252406
 20
4.0374925781
 10
4.8112728068
 20
4.0384764793
 10
4.8626105331
 20
4.0394592595
 10
4.9110159786
 20
4.0404436373
 10
4.9558036364
 20
4.0414264228
 10
4.9966297763
 20
4.042410854
 10
5.0329146757
 20
4.0433937156
 10
5.0643954184
 20
4.0443787935
 10
5.0906117587
 20
4.0453627107
 10
5.1113029622
 20
4.0463458714
 10
5.1262618669
 20
4.0473287729
 10
5.1353374825
 20
4.0483126865
 10
5.1381720756
 20
4.0490284174
  0
LWPOLYLINE
  5
53E
100
AcDbEntity
  8
0
100
AcDbPolyline
 62
7
  6
CONTINUOUS
 90
13
 70
0
 10
4.4168595465
 20
4.0798850294
 10
4.3630733323
 20
4.0789021427
 10
4.3117416694
 20
4.077919363
 10
4.2633477978
 20
4.0769350762
 10
4.2185719321
 20
4.0759523773
 10
4.1777580625
 20
4.0749680384
 10
4.1414982005
 20
4.0739856404
 10
4.1100979968
 20
4.0730030542
 10
4.0837926398
 20
4.0720156512
 10
4.063019527
 20
4.0710272068
 10
4.0480893948
 20
4.0700429192
 10
4.039054692
 20
4.0690566797
 10
4.0362903762
 20
4.0683523755
  0
LWPOLYLINE
  5
53F
100
AcDbEntity
  8
0
100
AcDbPolyline
 62
7
  6
CONTINUOUS
 90
13
 70
0
 10
4.7573270665
 20
4.0965459361
 10
4.8111591442
 20
4.0975294761
 10
4.8624489847
 20
4.0985111978
 10
4.9107459115
 20
4.0994930661
 10
4.9556596862
 20
4.1004782401
 10
4.9965573772
 20
4.1014641285
 10
5.0328528174
 20
4.1024470411
 10
5.0644369863
 20
4.1034353279
 10
5.0908198111
 20
4.1044265475
 10
5.1115612134
 20
4.1054152396
 10
5.1264274634
 20
4.10639746
 10
5.1354169796
 20
4.1073807402
 10
5.1381720756
 20
4.1080835355
  0
LINE
  5
540
100
AcDbEntity
  8
0
100
AcDbLine
 62
7
  6
CONTINUOUS
 10
4.4168595465
 20
4.0315885537
 11
4.5296131903
 21
4.0335578394
  0
LINE
  5
541
100
AcDbEntity
  8
0
100
AcDbLine
 62
7
  6
CONTINUOUS
 10
4.7574252406
 20
4.0857890539
 11
4.6448002373
 21
4.083822113
  0
LINE
  5
542
100
AcDbEntity
  8
0
100
AcDbLine
 62
7
  6
CONTINUOUS
 10
4.4169810201
 20
4.0906458497
 11
4.529777697
 21
4.0926157781
  0
LWPOLYLINE
  5
543
100
AcDbEntity
  8
0
100
AcDbPolyline
 62
7
  6
CONTINUOUS
 90
3
 70
0
 10
4.5296131903
 20
4.0335578394
 10
4.6448002373
 20
4.0355256372
 10
4.7574252406
 20
4.0374925781
  0
LWPOLYLINE
  5
544
100
AcDbEntity
  8
0
100
AcDbPolyline
 62
7
  6
CONTINUOUS
 90
3
 70
0
 10
4.6448002373
 20
4.083822113
 10
4.5296131903
 20
4.0818543151
 10
4.4168595465
 20
4.0798850294
  0
LWPOLYLINE
  5
545
100
AcDbEntity
  8
0
100
AcDbPolyline
 62
7
  6
CONTINUOUS
 90
3
 70
0
 10
4.529777697
 20
4.0926157781
 10
4.6447661326
 20
4.0945801706
 10
4.7573270665
 20
4.0965459361
  0
LINE
  5
546
100
AcDbEntity
  8
0
100
AcDbLine
 62
7
  6
CONTINUOUS
 10
4.36344629
 20
4.1177576959
 11
4.4222281977
 21
4.1187565655
  0
LWPOLYLINE
  5
547
100
AcDbEntity
  8
0
100
AcDbPolyline
 62
7
  6
CONTINUOUS
 90
13
 70
0
 10
4.7375889022
 20
4.0574357188
 10
4.7968870104
 20
4.0584345884
 10
4.8538194152
 20
4.059433458
 10
4.9077437058
 20
4.0604323275
 10
4.958051414
 20
4.0614311971
 10
5.0041748802
 20
4.0624300667
 10
5.0455936587
 20
4.0634289363
 10
5.0818403906
 20
4.0644278058
 10
5.1125060767
 20
4.0654266754
 10
5.1372446931
 20
4.066425545
 10
5.1557770955
 20
4.0674244146
 10
5.167894169
 20
4.0684232841
 10
5.1736196411
 20
4.0695024645
  0
LWPOLYLINE
  5
548
100
AcDbEntity
  8
0
100
AcDbPolyline
 62
7
  6
CONTINUOUS
 90
14
 70
0
 10
4.7375889022
 20
4.0648176086
 10
4.7968870104
 20
4.0658164782
 10
4.8538194152
 20
4.0668153477
 10
4.9077437058
 20
4.0678142173
 10
4.958051414
 20
4.0688130869
 10
5.0041748802
 20
4.0698119565
 10
5.0455936587
 20
4.070810826
 10
5.0818403906
 20
4.0718096956
 10
5.1125060767
 20
4.0728085652
 10
5.1372446931
 20
4.0738074347
 10
5.1557770955
 20
4.0748063043
 10
5.167894169
 20
4.0758051739
 10
5.1734591874
 20
4.0768040435
 10
5.1738453992
 20
4.0771451209
  0
LINE
  5
549
100
AcDbEntity
  8
0
100
AcDbLine
 62
7
  6
CONTINUOUS
 10
4.7742079632
 20
4.1171068396
 11
4.84702492
 21
4.1183667627
  0
LINE
  5
54A
100
AcDbEntity
  8
0
100
AcDbLine
 62
7
  6
CONTINUOUS
 10
4.7820880172
 20
4.1246209258
 11
4.84702492
 21
4.1257486525
  0
LINE
  5
54B
100
AcDbEntity
  8
0
100
AcDbLine
 62
7
  6
CONTINUOUS
 10
4.6690729011
 20
4.115370154
 11
4.7742079632
 21
4.1171068396
  0
LINE
  5
54C
100
AcDbEntity
  8
0
100
AcDbLine
 62
7
  6
CONTINUOUS
 10
4.6690729011
 20
4.1227520438
 11
4.7820880172
 21
4.1246209258
  0
LINE
  5
54D
100
AcDbEntity
  8
0
100
AcDbLine
 62
7
  6
CONTINUOUS
 10
4.4295376299
 20
4.052441371
 11
4.7375889022
 21
4.0574357188
  0
LINE
  5
54E
100
AcDbEntity
  8
0
100
AcDbLine
 62
7
  6
CONTINUOUS
 10
4.4295376299
 20
4.0598232607
 11
4.7375889022
 21
4.0648176086
  0
LWPOLYLINE
  5
54F
100
AcDbEntity
  8
0
100
AcDbPolyline
 62
7
  6
CONTINUOUS
 90
3
 70
0
 10
4.4222281977
 20
4.1113746757
 10
4.5446932825
 20
4.1133724149
 10
4.6690729011
 20
4.115370154
  0
LWPOLYLINE
  5
550
100
AcDbEntity
  8
0
100
AcDbPolyline
 62
7
  6
CONTINUOUS
 90
3
 70
0
 10
4.4222281977
 20
4.1187565655
 10
4.5446932825
 20
4.1207543046
 10
4.6690729011
 20
4.1227520438
  0
LINE
  5
551
100
AcDbEntity
  8
0
100
AcDbLine
 62
7
  6
CONTINUOUS
 10
4.0008428108
 20
4.2761953779
 11
4.0359900296
 21
4.2558948101
  0
LINE
  5
552
100
AcDbEntity
  8
0
100
AcDbLine
 62
7
  6
CONTINUOUS
 10
4.0008428108
 20
4.335250496
 11
4.0359900296
 21
4.3149499283
  0
LINE
  5
553
100
AcDbEntity
  8
0
100
AcDbLine
 62
7
  6
CONTINUOUS
 10
4.8209348647
 20
3.7001243631
 11
4.7957665209
 21
3.7186729357
  0
LINE
  5
554
100
AcDbEntity
  8
0
100
AcDbLine
 62
7
  6
CONTINUOUS
 10
4.8209348647
 20
3.7394944418
 11
4.7957665209
 21
3.7580430144
  0
LINE
  5
555
100
AcDbEntity
  8
0
100
AcDbLine
 62
7
  6
CONTINUOUS
 10
4.8209348647
 20
3.7788645206
 11
4.7957665209
 21
3.7974130932
  0
LINE
  5
556
100
AcDbEntity
  8
0
100
AcDbLine
 62
7
  6
CONTINUOUS
 10
4.0008428108
 20
4.3943056141
 11
4.0006170527
 21
4.3945663807
  0
LINE
  5
557
100
AcDbEntity
  8
0
100
AcDbLine
 62
7
  6
CONTINUOUS
 10
4.0008428108
 20
4.4533607322
 11
4.0006170527
 21
4.4536214988
  0
LINE
  5
558
100
AcDbEntity
  8
0
100
AcDbLine
 62
7
  6
CONTINUOUS
 10
4.0008428108
 20
4.5124158503
 11
4.0006170527
 21
4.5126766169
  0
LWPOLYLINE
  5
559
100
AcDbEntity
  8
0
100
AcDbPolyline
 62
7
  6
CONTINUOUS
 90
14
 70
0
 10
4.0006170527
 20
4.571731735
 10
4.0006663191
 20
4.5718535484
 10
4.0047820827
 20
4.572852418
 10
4.0154700563
 20
4.5738512876
 10
4.0326096395
 20
4.5748501571
 10
4.0560074336
 20
4.5758490267
 10
4.0853994237
 20
4.5768478963
 10
4.120453958
 20
4.5778467658
 10
4.1607754899
 20
4.5788456354
 10
4.2059090414
 20
4.579844505
 10
4.2553453367
 20
4.5808433746
 10
4.3085265492
 20
4.5818422441
 10
4.3648525953
 20
4.5828411137
 10
4.4236879062
 20
4.5838399833
  0
LINE
  5
55A
100
AcDbEntity
  8
0
100
AcDbLine
 62
7
  6
CONTINUOUS
 10
4.0006170527
 20
4.7562789791
 11
4.0008428108
 21
4.7565397457
  0
LINE
  5
55B
100
AcDbEntity
  8
0
100
AcDbLine
 62
7
  6
CONTINUOUS
 10
4.0006170527
 20
4.697223861
 11
4.0008428108
 21
4.6974846276
  0
LINE
  5
55C
100
AcDbEntity
  8
0
100
AcDbLine
 62
7
  6
CONTINUOUS
 10
4.0006170527
 20
4.6381687429
 11
4.0008428108
 21
4.6384295095
  0
LWPOLYLINE
  5
55D
100
AcDbEntity
  8
0
100
AcDbPolyline
 62
7
  6
CONTINUOUS
 90
14
 70
0
 10
4.0006170527
 20
4.7488970894
 10
4.0012640049
 20
4.7493385504
 10
4.0074664609
 20
4.7503347832
 10
4.0201763761
 20
4.7513310159
 10
4.0392510907
 20
4.7523272487
 10
4.064476504
 20
4.7533234814
 10
4.0955694782
 20
4.7543197142
 10
4.1321810161
 20
4.7553159469
 10
4.1739001785
 20
4.7563121797
 10
4.2202586965
 20
4.7573084124
 10
4.2707362279
 20
4.7583046452
 10
4.3247661972
 20
4.7593008779
 10
4.3817421553
 20
4.7602971107
 10
4.4410245863
 20
4.7612933434
  0
LWPOLYLINE
  5
55E
100
AcDbEntity
  8
0
100
AcDbPolyline
 62
7
  6
CONTINUOUS
 90
13
 70
0
 10
4.0008428108
 20
4.0478783284
 10
4.0055368712
 20
4.0488356954
 10
4.0168607646
 20
4.049834565
 10
4.0346205753
 20
4.0508334346
 10
4.058615906
 20
4.0518323042
 10
4.0885759993
 20
4.0528311737
 10
4.1241627931
 20
4.0538300433
 10
4.164974735
 20
4.0548289129
 10
4.2105513132
 20
4.0558277824
 10
4.2603782531
 20
4.056826652
 10
4.3138933199
 20
4.0578255216
 10
4.3704926631
 20
4.0588243912
 10
4.4295376299
 20
4.0598232607
  0
LWPOLYLINE
  5
55F
100
AcDbEntity
  8
0
100
AcDbPolyline
 62
7
  6
CONTINUOUS
 90
3
 70
0
 10
4.3116406747
 20
4.2067862531
 10
4.3629705424
 20
4.2077691026
 10
4.416872892
 20
4.2087541473
  0
LWPOLYLINE
  5
560
100
AcDbEntity
  8
0
100
AcDbPolyline
 62
7
  6
CONTINUOUS
 90
13
 70
0
 10
4.7580995676
 20
4.1556149065
 10
4.8120873553
 20
4.1566019235
 10
4.8633898281
 20
4.1575848436
 10
4.9118336117
 20
4.1585711136
 10
4.9566420408
 20
4.1595559048
 10
4.9972749931
 20
4.1605375388
 10
5.0334419507
 20
4.1615192507
 10
5.0648016983
 20
4.1625028884
 10
5.0909002953
 20
4.1634850433
 10
5.1115278948
 20
4.1644685155
 10
5.1264069557
 20
4.1654508927
 10
5.1353958542
 20
4.1664324043
 10
5.1381720756
 20
4.1671386536
  0
LWPOLYLINE
  5
561
100
AcDbEntity
  8
0
100
AcDbPolyline
 62
7
  6
CONTINUOUS
 90
13
 70
0
 10
4.4169810201
 20
4.1389423255
 10
4.3630580915
 20
4.1379569764
 10
4.3116983051
 20
4.1369736273
 10
4.263089495
 20
4.1359847495
 10
4.2180360848
 20
4.1349951967
 10
4.1772554309
 20
4.1340103428
 10
4.1410956867
 20
4.1330290801
 10
4.1097269511
 20
4.1320455194
 10
4.0836178095
 20
4.1310634399
 10
4.0629783117
 20
4.1300800494
 10
4.0480855269
 20
4.12909772
 10
4.0390736869
 20
4.1281148993
 10
4.0362903762
 20
4.1274074936
  0
LWPOLYLINE
  5
562
100
AcDbEntity
  8
0
100
AcDbPolyline
 62
7
  6
CONTINUOUS
 90
13
 70
0
 10
4.4170606943
 20
4.1979988721
 10
4.3632074794
 20
4.1970148827
 10
4.3118707947
 20
4.1960321412
 10
4.263464431
 20
4.1950477702
 10
4.2186856511
 20
4.1940652218
 10
4.1778730382
 20
4.193081203
 10
4.1415942671
 20
4.1920986609
 10
4.1101337959
 20
4.1911145096
 10
4.0839340172
 20
4.1901318051
 10
4.0632080262
 20
4.1891478286
 10
4.0482329762
 20
4.1881648997
 10
4.0391440863
 20
4.1871814284
 10
4.0362903762
 20
4.1864626118
  0
LWPOLYLINE
  5
563
100
AcDbEntity
  8
0
100
AcDbPolyline
 62
7
  6
CONTINUOUS
 90
13
 70
0
 10
4.7574253786
 20
4.2146579349
 10
4.8113213753
 20
4.2156427401
 10
4.8626626433
 20
4.2166256397
 10
4.9110626219
 20
4.2176099745
 10
4.9558447555
 20
4.2185927202
 10
4.9966651519
 20
4.2195771094
 10
5.0329363164
 20
4.2205596971
 10
5.0643866312
 20
4.2215438485
 10
5.0905804779
 20
4.2225267558
 10
5.1112944975
 20
4.2235107598
 10
5.1262587672
 20
4.2244938741
 10
5.1353407313
 20
4.2254785662
 10
5.1381720756
 20
4.2261937717
  0
LINE
  5
564
100
AcDbEntity
  8
0
100
AcDbLine
 62
7
  6
CONTINUOUS
 10
4.7573270665
 20
4.1448424119
 11
4.6447661326
 21
4.1428766463
  0
LINE
  5
565
100
AcDbEntity
  8
0
100
AcDbLine
 62
7
  6
CONTINUOUS
 10
4.4170606943
 20
4.1497023963
 11
4.5296702286
 21
4.1516690536
  0
LWPOLYLINE
  5
566
100
AcDbEntity
  8
0
100
AcDbPolyline
 62
7
  6
CONTINUOUS
 90
12
 70
0
 10
4.7826170024
 20
4.1763011979
 10
4.8401867876
 20
4.1773000675
 10
4.8949022858
 20
4.178298937
 10
4.9461461009
 20
4.1792978066
 10
4.9933400105
 20
4.1802966762
 10
5.0359514905
 20
4.1812955458
 10
5.0734997236
 20
4.1822944153
 10
5.1055610249
 20
4.1832932849
 10
5.1317736228
 20
4.1842921545
 10
5.1518417409
 20
4.185291024
 10
5.1655389355
 20
4.1862898936
 10
5.172710651
 20
4.1872887632
  0
LWPOLYLINE
  5
567
100
AcDbEntity
  8
0
100
AcDbPolyline
 62
7
  6
CONTINUOUS
 90
13
 70
0
 10
4.7826170024
 20
4.1836830877
 10
4.8401867876
 20
4.1846819572
 10
4.8949022858
 20
4.1856808268
 10
4.9461461009
 20
4.1866796964
 10
4.9933400105
 20
4.187678566
 10
5.0359514905
 20
4.1886774355
 10
5.0734997236
 20
4.1896763051
 10
5.1055610249
 20
4.1906751747
 10
5.1317736228
 20
4.1916740442
 10
5.1518417409
 20
4.1926729138
 10
5.1655389355
 20
4.1936717834
 10
5.172710651
 20
4.194670653
 10
5.1738453992
 20
4.1952553571
  0
LINE
  5
568
100
AcDbEntity
  8
0
100
AcDbLine
 62
7
  6
CONTINUOUS
 10
4.7580995676
 20
4.2039113822
 11
4.6447580747
 21
4.2019316263
  0
LINE
  5
569
100
AcDbEntity
  8
0
100
AcDbLine
 62
7
  6
CONTINUOUS
 10
4.416872892
 20
4.2087541473
 11
4.5296048359
 21
4.2107230505
  0
LWPOLYLINE
  5
56A
100
AcDbEntity
  8
0
100
AcDbPolyline
 62
7
  6
CONTINUOUS
 90
3
 70
0
 10
4.6447661326
 20
4.1428766463
 10
4.529777697
 20
4.1409122539
 10
4.4169810201
 20
4.1389423255
  0
LWPOLYLINE
  5
56B
100
AcDbEntity
  8
0
100
AcDbPolyline
 62
7
  6
CONTINUOUS
 90
3
 70
0
 10
4.5296702286
 20
4.1516690536
 10
4.6447580747
 20
4.1536351505
 10
4.7580995676
 20
4.1556149065
  0
LWPOLYLINE
  5
56C
100
AcDbEntity
  8
0
100
AcDbPolyline
 62
7
  6
CONTINUOUS
 90
3
 70
0
 10
4.6447580747
 20
4.2019316263
 10
4.5296702286
 20
4.1999655293
 10
4.4170606943
 20
4.1979988721
  0
LWPOLYLINE
  5
56D
100
AcDbEntity
  8
0
100
AcDbPolyline
 62
7
  6
CONTINUOUS
 90
3
 70
0
 10
4.5296048359
 20
4.2107230505
 10
4.6447768482
 20
4.2126905905
 10
4.7574253786
 20
4.2146579349
  0
LINE
  5
56E
100
AcDbEntity
  8
0
100
AcDbLine
 62
7
  6
CONTINUOUS
 10
4.6615378597
 20
4.1743034588
 11
4.7826170024
 21
4.1763011979
  0
LINE
  5
56F
100
AcDbEntity
  8
0
100
AcDbLine
 62
7
  6
CONTINUOUS
 10
4.6615378597
 20
4.1816853485
 11
4.7826170024
 21
4.1836830877
  0
LWPOLYLINE
  5
570
100
AcDbEntity
  8
0
100
AcDbPolyline
 62
7
  6
CONTINUOUS
 90
3
 70
0
 10
4.4149464809
 20
4.1703079805
 10
4.5371143483
 20
4.1723057196
 10
4.6615378597
 20
4.1743034588
  0
LWPOLYLINE
  5
571
100
AcDbEntity
  8
0
100
AcDbPolyline
 62
7
  6
CONTINUOUS
 90
3
 70
0
 10
4.4149464809
 20
4.1776898702
 10
4.5371143483
 20
4.1796876094
 10
4.6615378597
 20
4.1816853485
  0
LINE
  5
572
100
AcDbEntity
  8
0
100
AcDbLine
 62
7
  6
CONTINUOUS
 10
4.0008428108
 20
4.3943056141
 11
4.0359900296
 21
4.3740050464
  0
LINE
  5
573
100
AcDbEntity
  8
0
100
AcDbLine
 62
7
  6
CONTINUOUS
 10
4.0008428108
 20
4.4533607322
 11
4.0359900296
 21
4.4330601645
  0
LINE
  5
574
100
AcDbEntity
  8
0
100
AcDbLine
 62
7
  6
CONTINUOUS
 10
4.8096436553
 20
3.8160382216
 11
4.7854928107
 21
3.834739009
  0
LINE
  5
575
100
AcDbEntity
  8
0
100
AcDbLine
 62
7
  6
CONTINUOUS
 10
4.0008428108
 20
4.5714709685
 11
4.0006170527
 21
4.571731735
  0
LINE
  5
576
100
AcDbEntity
  8
0
100
AcDbLine
 62
7
  6
CONTINUOUS
 10
4.0008428108
 20
4.6305260866
 11
4.0006170527
 21
4.6307868532
  0
LINE
  5
577
100
AcDbEntity
  8
0
100
AcDbLine
 62
7
  6
CONTINUOUS
 10
4.0008428108
 20
4.6895812047
 11
4.0006170527
 21
4.6898419713
  0
LINE
  5
578
100
AcDbEntity
  8
0
100
AcDbLine
 62
7
  6
CONTINUOUS
 10
4.8209348647
 20
3.4639038906
 11
4.8210894936
 21
3.4636760168
  0
LINE
  5
579
100
AcDbEntity
  8
0
100
AcDbLine
 62
7
  6
CONTINUOUS
 10
4.8209348647
 20
3.5032739694
 11
4.8210894936
 21
3.5030460956
  0
LINE
  5
57A
100
AcDbEntity
  8
0
100
AcDbLine
 62
7
  6
CONTINUOUS
 10
4.8209348647
 20
3.5426440481
 11
4.8210894936
 21
3.5424161743
  0
LWPOLYLINE
  5
57B
100
AcDbEntity
  8
0
100
AcDbPolyline
 62
7
  6
CONTINUOUS
 90
14
 70
0
 10
4.0006170527
 20
4.5126766169
 10
4.0008141101
 20
4.5129202437
 10
4.0057353423
 20
4.5139191132
 10
4.0172180282
 20
4.5149179828
 10
4.0351326
 20
4.5159168524
 10
4.0592769143
 20
4.516915722
 10
4.0893785326
 20
4.5179145915
 10
4.1250977958
 20
4.5189134611
 10
4.1660316567
 20
4.5199123307
 10
4.2117182279
 20
4.5209112002
 10
4.2616419936
 20
4.5219100698
 10
4.3152396265
 20
4.5229089394
 10
4.3719063444
 20
4.523907809
 10
4.4310027342
 20
4.5249066785
  0
LINE
  5
57C
100
AcDbEntity
  8
0
100
AcDbLine
 62
7
  6
CONTINUOUS
 10
4.0006170527
 20
4.5200585067
 11
4.0008428108
 21
4.5203192733
  0
LINE
  5
57D
100
AcDbEntity
  8
0
100
AcDbLine
 62
7
  6
CONTINUOUS
 10
4.0006170527
 20
4.4610033886
 11
4.0008428108
 21
4.4612641552
  0
LINE
  5
57E
100
AcDbEntity
  8
0
100
AcDbLine
 62
7
  6
CONTINUOUS
 10
4.0362903762
 20
4.7770137929
 11
4.0008428108
 21
4.7565397457
  0
LINE
  5
57F
100
AcDbEntity
  8
0
100
AcDbLine
 62
7
  6
CONTINUOUS
 10
4.0362903762
 20
4.7179586747
 11
4.0008428108
 21
4.6974846276
  0
LWPOLYLINE
  5
580
100
AcDbEntity
  8
0
100
AcDbPolyline
 62
7
  6
CONTINUOUS
 90
13
 70
0
 10
4.0360501236
 20
4.7874949144
 10
4.0390962209
 20
4.7884835077
 10
4.0481358011
 20
4.7894667822
 10
4.0630608616
 20
4.7904495468
 10
4.0837522407
 20
4.7914340184
 10
4.1098943147
 20
4.7924161718
 10
4.1412766734
 20
4.7933992752
 10
4.1774929567
 20
4.7943813421
 10
4.2182531075
 20
4.7953651211
 10
4.2629742634
 20
4.7963472614
 10
4.3113129569
 20
4.79733098
 10
4.3625863942
 20
4.7983131114
 10
4.416339787
 20
4.7992957681
  0
LWPOLYLINE
  5
581
100
AcDbEntity
  8
0
100
AcDbPolyline
 62
7
  6
CONTINUOUS
 90
13
 70
0
 10
4.0006170527
 20
4.0992907902
 10
4.0046031659
 20
4.1003871104
 10
4.0151319773
 20
4.10138598
 10
4.0321162132
 20
4.1023848496
 10
4.0553642276
 20
4.1033837191
 10
4.0846136958
 20
4.1043825887
 10
4.1195345742
 20
4.1053814583
 10
4.1597328242
 20
4.1063803279
 10
4.204754859
 20
4.1073791974
 10
4.2540926612
 20
4.108378067
 10
4.3071895154
 20
4.1093769366
 10
4.36344629
 20
4.1103758061
 10
4.4222281977
 20
4.1113746757
  0
LWPOLYLINE
  5
582
100
AcDbEntity
  8
0
100
AcDbPolyline
 62
7
  6
CONTINUOUS
 90
13
 70
0
 10
4.0008428108
 20
4.1659885646
 10
4.0037673239
 20
4.1667023049
 10
4.0134992848
 20
4.1677011745
 10
4.029705093
 20
4.1687000441
 10
4.0522018863
 20
4.1696989137
 10
4.0807358164
 20
4.1706977832
 10
4.1149849136
 20
4.1716966528
 10
4.1545627198
 20
4.1726955224
 10
4.1990226489
 20
4.1736943919
 10
4.2478630262
 20
4.1746932615
 10
4.3005327492
 20
4.1756921311
 10
4.3564375058
 20
4.1766910007
 10
4.4149464809
 20
4.1776898702
  0
LWPOLYLINE
  5
583
100
AcDbEntity
  8
0
100
AcDbPolyline
 62
7
  6
CONTINUOUS
 90
12
 70
0
 10
4.0008428108
 20
4.1069334465
 10
4.0046031659
 20
4.1077690002
 10
4.0151319773
 20
4.1087678698
 10
4.0321162132
 20
4.1097667393
 10
4.0553642276
 20
4.1107656089
 10
4.0846136958
 20
4.1117644785
 10
4.1195345742
 20
4.1127633481
 10
4.1597328242
 20
4.1137622176
 10
4.204754859
 20
4.1147610872
 10
4.2540926612
 20
4.1157599568
 10
4.3071895154
 20
4.1167588263
 10
4.36344629
 20
4.1177576959
  0
LWPOLYLINE
  5
584
100
AcDbEntity
  8
0
100
AcDbPolyline
 62
7
  6
CONTINUOUS
 90
11
 70
0
 10
4.3116406747
 20
4.2550827288
 10
4.2632348656
 20
4.2540980503
 10
4.2182001107
 20
4.2531091992
 10
4.177299378
 20
4.2521217002
 10
4.1410877075
 20
4.2511390846
 10
4.1096479703
 20
4.2501530585
 10
4.0834378193
 20
4.2491661168
 10
4.0628531825
 20
4.2481833667
 10
4.0480174951
 20
4.2472023665
 10
4.0390394514
 20
4.2462195385
 10
4.0362903762
 20
4.2455177299
  0
LWPOLYLINE
  5
585
100
AcDbEntity
  8
0
100
AcDbPolyline
 62
7
  6
CONTINUOUS
 90
13
 70
0
 10
4.416274558
 20
4.3160950109
 10
4.362505734
 20
4.3151120179
 10
4.3111920395
 20
4.3141290108
 10
4.2628210024
 20
4.3131444419
 10
4.2180751064
 20
4.3121614471
 10
4.1772992803
 20
4.3111768158
 10
4.1410783721
 20
4.3101939317
 10
4.1097088829
 20
4.3092102568
 10
4.0835763341
 20
4.3082270535
 10
4.0629042908
 20
4.3072413127
 10
4.0480190547
 20
4.306257613
 10
4.0390321747
 20
4.3052734628
 10
4.0362903762
 20
4.304572848
  0
LWPOLYLINE
  5
586
100
AcDbEntity
  8
0
100
AcDbPolyline
 62
7
  6
CONTINUOUS
 90
3
 70
0
 10
4.416872892
 20
4.257050623
 10
4.3629705424
 20
4.2560655783
 10
4.3116406747
 20
4.2550827288
  0
LWPOLYLINE
  5
587
100
AcDbEntity
  8
0
100
AcDbPolyline
 62
7
  6
CONTINUOUS
 90
13
 70
0
 10
4.7579473437
 20
4.2737224125
 10
4.8116617935
 20
4.2747042129
 10
4.8629558706
 20
4.2756865314
 10
4.9113148443
 20
4.2766704088
 10
4.9560567518
 20
4.2776527018
 10
4.9968382008
 20
4.2786366363
 10
5.033073216
 20
4.2796187845
 10
5.0644557326
 20
4.2806013211
 10
5.0906406017
 20
4.2815843908
 10
5.1113708589
 20
4.2825700839
 10
5.1263121813
 20
4.2835533584
 10
5.135381427
 20
4.2845402886
 10
5.1381720756
 20
4.2852488898
  0
LWPOLYLINE
  5
588
100
AcDbEntity
  8
0
100
AcDbPolyline
 62
7
  6
CONTINUOUS
 90
13
 70
0
 10
4.7573143357
 20
4.3327661804
 10
4.811142417
 20
4.3337496364
 10
4.8624074352
 20
4.3347308525
 10
4.9108937322
 20
4.3357166523
 10
4.9559930986
 20
4.3367063594
 10
4.9969459914
 20
4.3376945019
 10
5.0331960404
 20
4.3386774657
 10
5.0646662327
 20
4.3396636179
 10
5.0909014346
 20
4.3406504454
 10
5.1115138457
 20
4.3416330933
 10
5.1263861595
 20
4.3426145394
 10
5.1353957199
 20
4.3435977367
 10
5.1381720756
 20
4.3443040079
  0
LWPOLYLINE
  5
589
100
AcDbEntity
  8
0
100
AcDbPolyline
 62
7
  6
CONTINUOUS
 90
3
 70
0
 10
4.2939241393
 20
4.2272435461
 10
4.3494674878
 20
4.2282424156
 10
4.4076937026
 20
4.2292412852
  0
LWPOLYLINE
  5
58A
100
AcDbEntity
  8
0
100
AcDbPolyline
 62
7
  6
CONTINUOUS
 90
3
 70
0
 10
4.2939241393
 20
4.2346254358
 10
4.3494674878
 20
4.2356243054
 10
4.4076937026
 20
4.236623175
  0
LWPOLYLINE
  5
58B
100
AcDbEntity
  8
0
100
AcDbPolyline
 62
7
  6
CONTINUOUS
 90
13
 70
0
 10
4.7754321696
 20
4.2352345026
 10
4.8333061666
 20
4.2362333722
 10
4.8884035156
 20
4.2372322418
 10
4.9401025121
 20
4.2382311114
 10
4.9878197974
 20
4.2392299809
 10
5.0310169418
 20
4.2402288505
 10
5.0692065196
 20
4.2412277201
 10
5.1019576089
 20
4.2422265897
 10
5.1289006549
 20
4.2432254592
 10
5.1497316389
 20
4.2442243288
 10
5.1642155094
 20
4.2452231984
 10
5.1721888339
 20
4.2462220679
 10
5.1736196411
 20
4.2466678189
  0
LWPOLYLINE
  5
58C
100
AcDbEntity
  8
0
100
AcDbPolyline
 62
7
  6
CONTINUOUS
 90
13
 70
0
 10
4.7754321696
 20
4.2426163924
 10
4.8333061666
 20
4.243615262
 10
4.8884035156
 20
4.2446141316
 10
4.9401025121
 20
4.2456130011
 10
4.9878197974
 20
4.2466118707
 10
5.0310169418
 20
4.2476107403
 10
5.0692065196
 20
4.2486096098
 10
5.1019576089
 20
4.2496084794
 10
5.1289006549
 20
4.250607349
 10
5.1497316389
 20
4.2516062186
 10
5.1642155094
 20
4.2526050881
 10
5.1721888339
 20
4.2536039577
 10
5.1738453992
 20
4.2543104752
  0
LINE
  5
58D
100
AcDbEntity
  8
0
100
AcDbLine
 62
7
  6
CONTINUOUS
 10
4.7574253786
 20
4.2629544107
 11
4.6447768482
 21
4.2609870663
  0
LINE
  5
58E
100
AcDbEntity
  8
0
100
AcDbLine
 62
7
  6
CONTINUOUS
 10
4.416274558
 20
4.2677985351
 11
4.5295258456
 21
4.2697768142
  0
LINE
  5
58F
100
AcDbEntity
  8
0
100
AcDbLine
 62
7
  6
CONTINUOUS
 10
4.7579473437
 20
4.3220188883
 11
4.6448796221
 21
4.3200439466
  0
LINE
  5
590
100
AcDbEntity
  8
0
100
AcDbLine
 62
7
  6
CONTINUOUS
 10
4.4171645181
 20
4.3268696119
 11
4.5297138546
 21
4.3288351559
  0
LWPOLYLINE
  5
591
100
AcDbEntity
  8
0
100
AcDbPolyline
 62
7
  6
CONTINUOUS
 90
3
 70
0
 10
4.6447768482
 20
4.2609870663
 10
4.5296048359
 20
4.2590195262
 10
4.416872892
 20
4.257050623
  0
LWPOLYLINE
  5
592
100
AcDbEntity
  8
0
100
AcDbPolyline
 62
7
  6
CONTINUOUS
 90
3
 70
0
 10
4.5295258456
 20
4.2697768142
 10
4.6448796221
 20
4.2717474708
 10
4.7579473437
 20
4.2737224125
  0
LWPOLYLINE
  5
593
100
AcDbEntity
  8
0
100
AcDbPolyline
 62
7
  6
CONTINUOUS
 90
13
 70
0
 10
4.7682157251
 20
4.2941678074
 10
4.8263842126
 20
4.295166677
 10
4.8818541579
 20
4.2961655465
 10
4.9339996519
 20
4.2971644161
 10
4.982232298
 20
4.2981632857
 10
5.0260078511
 20
4.2991621553
 10
5.0648323587
 20
4.3001610248
 10
5.098267735
 20
4.3011598944
 10
5.1259367035
 20
4.302158764
 10
5.1475270545
 20
4.3031576335
 10
5.1627951679
 20
4.3041565031
 10
5.1715687622
 20
4.3051553727
 10
5.1736196411
 20
4.305722937
  0
LWPOLYLINE
  5
594
100
AcDbEntity
  8
0
100
AcDbPolyline
 62
7
  6
CONTINUOUS
 90
13
 70
0
 10
4.7682157251
 20
4.3015496972
 10
4.8263842126
 20
4.3025485667
 10
4.8818541579
 20
4.3035474363
 10
4.9339996519
 20
4.3045463059
 10
4.982232298
 20
4.3055451754
 10
5.0260078511
 20
4.306544045
 10
5.0648323587
 20
4.3075429146
 10
5.098267735
 20
4.3085417842
 10
5.1259367035
 20
4.3095406537
 10
5.1475270545
 20
4.3105395233
 10
5.1627951679
 20
4.3115383929
 10
5.1715687622
 20
4.3125372625
 10
5.1738453992
 20
4.3133655933
  0
LWPOLYLINE
  5
595
100
AcDbEntity
  8
0
100
AcDbPolyline
 62
7
  6
CONTINUOUS
 90
3
 70
0
 10
4.6448796221
 20
4.3200439466
 10
4.5295258456
 20
4.3180732899
 10
4.416274558
 20
4.3160950109
  0
LWPOLYLINE
  5
596
100
AcDbEntity
  8
0
100
AcDbPolyline
 62
7
  6
CONTINUOUS
 90
3
 70
0
 10
4.5297138546
 20
4.3288351559
 10
4.6447616921
 20
4.3308005669
 10
4.7573143357
 20
4.3327661804
  0
LINE
  5
597
100
AcDbEntity
  8
0
100
AcDbLine
 62
7
  6
CONTINUOUS
 10
4.4076937026
 20
4.2292412852
 11
4.5295438321
 21
4.2312390244
  0
LINE
  5
598
100
AcDbEntity
  8
0
100
AcDbLine
 62
7
  6
CONTINUOUS
 10
4.4076937026
 20
4.236623175
 11
4.5295438321
 21
4.2386209141
  0
LINE
  5
599
100
AcDbEntity
  8
0
100
AcDbLine
 62
7
  6
CONTINUOUS
 10
4.6464316009
 20
4.2921700683
 11
4.7682157251
 21
4.2941678074
  0
LWPOLYLINE
  5
59A
100
AcDbEntity
  8
0
100
AcDbPolyline
 62
7
  6
CONTINUOUS
 90
3
 70
0
 10
4.4004710809
 20
4.28817459
 10
4.5219830056
 20
4.2901723291
 10
4.6464316009
 20
4.2921700683
  0
LINE
  5
59B
100
AcDbEntity
  8
0
100
AcDbLine
 62
7
  6
CONTINUOUS
 10
4.6464316009
 20
4.299551958
 11
4.7682157251
 21
4.3015496972
  0
LWPOLYLINE
  5
59C
100
AcDbEntity
  8
0
100
AcDbPolyline
 62
7
  6
CONTINUOUS
 90
3
 70
0
 10
4.4004710809
 20
4.2955564797
 10
4.5219830056
 20
4.2975542189
 10
4.6464316009
 20
4.299551958
  0
LWPOLYLINE
  5
59D
100
AcDbEntity
  8
0
100
AcDbPolyline
 62
7
  6
CONTINUOUS
 90
3
 70
0
 10
4.5295438321
 20
4.2312390244
 10
4.653990337
 20
4.2332367635
 10
4.7754321696
 20
4.2352345026
  0
LWPOLYLINE
  5
59E
100
AcDbEntity
  8
0
100
AcDbPolyline
 62
7
  6
CONTINUOUS
 90
3
 70
0
 10
4.5295438321
 20
4.2386209141
 10
4.653990337
 20
4.2406186533
 10
4.7754321696
 20
4.2426163924
  0
LINE
  5
59F
100
AcDbEntity
  8
0
100
AcDbLine
 62
7
  6
CONTINUOUS
 10
4.0008428108
 20
4.5124158503
 11
4.0359900296
 21
4.4921152826
  0
LINE
  5
5A0
100
AcDbEntity
  8
0
100
AcDbLine
 62
7
  6
CONTINUOUS
 10
4.0008428108
 20
4.5714709685
 11
4.0359900296
 21
4.5511704007
  0
LINE
  5
5A1
100
AcDbEntity
  8
0
100
AcDbLine
 62
7
  6
CONTINUOUS
 10
4.0008428108
 20
4.7486363228
 11
4.0006170527
 21
4.7488970894
  0
LINE
  5
5A2
100
AcDbEntity
  8
0
100
AcDbLine
 62
7
  6
CONTINUOUS
 10
4.0008428108
 20
4.8076914409
 11
4.0006170527
 21
4.8079522075
  0
LINE
  5
5A3
100
AcDbEntity
  8
0
100
AcDbLine
 62
7
  6
CONTINUOUS
 10
4.8209348647
 20
3.5820141269
 11
4.8210894936
 21
3.5817862531
  0
LINE
  5
5A4
100
AcDbEntity
  8
0
100
AcDbLine
 62
7
  6
CONTINUOUS
 10
4.8209348647
 20
3.6213842056
 11
4.8210894936
 21
3.6211563318
  0
LINE
  5
5A5
100
AcDbEntity
  8
0
100
AcDbLine
 62
7
  6
CONTINUOUS
 10
4.8209348647
 20
3.6607542843
 11
4.8210894936
 21
3.6605264106
  0
LINE
  5
5A6
100
AcDbEntity
  8
0
100
AcDbLine
 62
7
  6
CONTINUOUS
 10
4.8209348647
 20
3.7001243631
 11
4.8210894936
 21
3.6998964893
  0
LINE
  5
5A7
100
AcDbEntity
  8
0
100
AcDbLine
 62
7
  6
CONTINUOUS
 10
4.8209348647
 20
3.7394944418
 11
4.8210894936
 21
3.739266568
  0
LINE
  5
5A8
100
AcDbEntity
  8
0
100
AcDbLine
 62
7
  6
CONTINUOUS
 10
4.3533729582
 20
3.9144634184
 11
4.3533729582
 21
3.8357232609
  0
LINE
  5
5A9
100
AcDbEntity
  8
02___PRT_ALL_AXES
100
AcDbLine
 62
7
  6
CONTINUOUS
 10
4.3533729582
 20
3.9144634184
 11
4.3533729582
 21
3.8357232609
  0
LINE
  5
5AA
100
AcDbEntity
  8
0
100
AcDbLine
 62
7
  6
CONTINUOUS
 10
4.3533729582
 20
3.7983216861
 11
4.3533729582
 21
3.7963531822
  0
LINE
  5
5AB
100
AcDbEntity
  8
02___PRT_ALL_AXES
100
AcDbLine
 62
7
  6
CONTINUOUS
 10
4.3533729582
 20
3.7983216861
 11
4.3533729582
 21
3.7963531822
  0
LINE
  5
5AC
100
AcDbEntity
  8
0
100
AcDbLine
 62
7
  6
CONTINUOUS
 10
4.3533729582
 20
3.7589516074
 11
4.3533729582
 21
3.7569831035
  0
LINE
  5
5AD
100
AcDbEntity
  8
02___PRT_ALL_AXES
100
AcDbLine
 62
7
  6
CONTINUOUS
 10
4.3533729582
 20
3.7589516074
 11
4.3533729582
 21
3.7569831035
  0
LINE
  5
5AE
100
AcDbEntity
  8
0
100
AcDbLine
 62
7
  6
CONTINUOUS
 10
4.3533729582
 20
3.7195815287
 11
4.3533729582
 21
3.7176130247
  0
LINE
  5
5AF
100
AcDbEntity
  8
02___PRT_ALL_AXES
100
AcDbLine
 62
7
  6
CONTINUOUS
 10
4.3533729582
 20
3.7195815287
 11
4.3533729582
 21
3.7176130247
  0
LINE
  5
5B0
100
AcDbEntity
  8
0
100
AcDbLine
 62
7
  6
CONTINUOUS
 10
4.3533729582
 20
3.6802114499
 11
4.3533729582
 21
3.678242946
  0
LINE
  5
5B1
100
AcDbEntity
  8
02___PRT_ALL_AXES
100
AcDbLine
 62
7
  6
CONTINUOUS
 10
4.3533729582
 20
3.6802114499
 11
4.3533729582
 21
3.678242946
  0
LINE
  5
5B2
100
AcDbEntity
  8
0
100
AcDbLine
 62
7
  6
CONTINUOUS
 10
4.3533729582
 20
3.6408413712
 11
4.3533729582
 21
3.6388728672
  0
LINE
  5
5B3
100
AcDbEntity
  8
02___PRT_ALL_AXES
100
AcDbLine
 62
7
  6
CONTINUOUS
 10
4.3533729582
 20
3.6408413712
 11
4.3533729582
 21
3.6388728672
  0
LINE
  5
5B4
100
AcDbEntity
  8
0
100
AcDbLine
 62
7
  6
CONTINUOUS
 10
4.3533729582
 20
3.6014712924
 11
4.3533729582
 21
3.5995027885
  0
LINE
  5
5B5
100
AcDbEntity
  8
02___PRT_ALL_AXES
100
AcDbLine
 62
7
  6
CONTINUOUS
 10
4.3533729582
 20
3.6014712924
 11
4.3533729582
 21
3.5995027885
  0
LINE
  5
5B6
100
AcDbEntity
  8
0
100
AcDbLine
 62
7
  6
CONTINUOUS
 10
4.3533729582
 20
3.5621012137
 11
4.3533729582
 21
3.5601327098
  0
LINE
  5
5B7
100
AcDbEntity
  8
02___PRT_ALL_AXES
100
AcDbLine
 62
7
  6
CONTINUOUS
 10
4.3533729582
 20
3.5621012137
 11
4.3533729582
 21
3.5601327098
  0
LINE
  5
5B8
100
AcDbEntity
  8
0
100
AcDbLine
 62
7
  6
CONTINUOUS
 10
4.3533729582
 20
3.522731135
 11
4.3533729582
 21
3.520762631
  0
LINE
  5
5B9
100
AcDbEntity
  8
02___PRT_ALL_AXES
100
AcDbLine
 62
7
  6
CONTINUOUS
 10
4.3533729582
 20
3.522731135
 11
4.3533729582
 21
3.520762631
  0
LINE
  5
5BA
100
AcDbEntity
  8
0
100
AcDbLine
 62
7
  6
CONTINUOUS
 10
4.3533729582
 20
3.4833610562
 11
4.3533729582
 21
3.4813925523
  0
LINE
  5
5BB
100
AcDbEntity
  8
02___PRT_ALL_AXES
100
AcDbLine
 62
7
  6
CONTINUOUS
 10
4.3533729582
 20
3.4833610562
 11
4.3533729582
 21
3.4813925523
  0
LINE
  5
5BC
100
AcDbEntity
  8
02___PRT_ALL_AXES
100
AcDbLine
 62
7
  6
CONTINUOUS
 10
4.3533729582
 20
3.4439909775
 11
4.3533729582
 21
3.4420224735
  0
LINE
  5
5BD
100
AcDbEntity
  8
0
100
AcDbLine
 62
7
  6
CONTINUOUS
 10
4.3834910685
 20
3.4223374342
 11
4.3834910685
 21
3.3829673554
  0
LINE
  5
5BE
100
AcDbEntity
  8
0
100
AcDbLine
 62
7
  6
CONTINUOUS
 10
4.0006170527
 20
4.4019482705
 11
4.0008428108
 21
4.4022090371
  0
LINE
  5
5BF
100
AcDbEntity
  8
0
100
AcDbLine
 62
7
  6
CONTINUOUS
 10
4.0006170527
 20
4.3428931524
 11
4.0008428108
 21
4.343153919
  0
LINE
  5
5C0
100
AcDbEntity
  8
0
100
AcDbLine
 62
7
  6
CONTINUOUS
 10
4.0006170527
 20
4.2838380343
 11
4.0008428108
 21
4.2840988009
  0
LWPOLYLINE
  5
5C1
100
AcDbEntity
  8
0
100
AcDbPolyline
 62
7
  6
CONTINUOUS
 90
14
 70
0
 10
4.0006170527
 20
4.4536214988
 10
4.0010604008
 20
4.4539869389
 10
4.006786275
 20
4.4549858085
 10
4.0190617445
 20
4.4559846781
 10
4.0377482959
 20
4.4569835476
 10
4.0626350748
 20
4.4579824172
 10
4.0934412651
 20
4.4589812868
 10
4.1298192575
 20
4.4599801563
 10
4.1713585718
 20
4.4609790259
 10
4.2175904888
 20
4.4619778955
 10
4.2679933392
 20
4.4629767651
 10
4.3219983898
 20
4.4639756346
 10
4.3789962612
 20
4.4649745042
 10
4.4383438038
 20
4.4659733738
  0
LINE
  5
5C2
100
AcDbEntity
  8
0
100
AcDbLine
 62
7
  6
CONTINUOUS
 10
4.0362903762
 20
4.6589035566
 11
4.0008428108
 21
4.6384295095
  0
LINE
  5
5C3
100
AcDbEntity
  8
0
100
AcDbLine
 62
7
  6
CONTINUOUS
 10
4.0362903762
 20
4.5998484385
 11
4.0008428108
 21
4.5793743914
  0
LWPOLYLINE
  5
5C4
100
AcDbEntity
  8
0
100
AcDbPolyline
 62
7
  6
CONTINUOUS
 90
13
 70
0
 10
4.0006170527
 20
4.6898419713
 10
4.0023319113
 20
4.6905608182
 10
4.0103564119
 20
4.6915570509
 10
4.024855934
 20
4.6925532837
 10
4.0456677306
 20
4.6935495164
 10
4.0725582036
 20
4.6945457492
 10
4.105225526
 20
4.6955419819
 10
4.1433030296
 20
4.6965382147
 10
4.1863633208
 20
4.6975344474
 10
4.2339230776
 20
4.6985306802
 10
4.2854484744
 20
4.6995269129
 10
4.3403611742
 20
4.7005231457
 10
4.39804482
 20
4.7015193784
  0
LINE
  5
5C5
100
AcDbEntity
  8
0
100
AcDbLine
 62
7
  6
CONTINUOUS
 10
4.0008428108
 20
4.6974846276
 11
4.0017292832
 21
4.6978027329
  0
LWPOLYLINE
  5
5C6
100
AcDbEntity
  8
0
100
AcDbPolyline
 62
7
  6
CONTINUOUS
 90
13
 70
0
 10
4.0360501236
 20
4.7284397966
 10
4.0390105128
 20
4.7294143696
 10
4.0479732982
 20
4.730398314
 10
4.0628033839
 20
4.731380196
 10
4.0834276155
 20
4.7323652751
 10
4.1096977828
 20
4.7333543469
 10
4.1412020445
 20
4.7343419913
 10
4.1774698627
 20
4.7353256352
 10
4.218412259
 20
4.7363136556
 10
4.2634645038
 20
4.7373024771
 10
4.3118666606
 20
4.7382867652
 10
4.3631650113
 20
4.7392687955
 10
4.4170268603
 20
4.7402529708
  0
LWPOLYLINE
  5
5C7
100
AcDbEntity
  8
0
100
AcDbPolyline
 62
7
  6
CONTINUOUS
 90
11
 70
0
 10
4.0008428108
 20
4.2250436827
 10
4.0030294857
 20
4.2256356097
 10
4.0119629613
 20
4.2266344793
 10
4.0273876198
 20
4.2276333488
 10
4.0491294131
 20
4.2286322184
 10
4.0769430123
 20
4.229631088
 10
4.1105145757
 20
4.2306299575
 10
4.1494652902
 20
4.2316288271
 10
4.1933556457
 20
4.2326276967
 10
4.2416903945
 20
4.2336265663
 10
4.2939241393
 20
4.2346254358
  0
LWPOLYLINE
  5
5C8
100
AcDbEntity
  8
0
100
AcDbPolyline
 62
7
  6
CONTINUOUS
 90
12
 70
0
 10
4.0018482995
 20
4.3435022192
 10
4.0091804374
 20
4.3445010888
 10
4.0230351555
 20
4.3454999583
 10
4.0432561206
 20
4.3464988279
 10
4.0696151642
 20
4.3474976975
 10
4.1018148577
 20
4.348496567
 10
4.1394918677
 20
4.3494954366
 10
4.1822210564
 20
4.3504943062
 10
4.2295202782
 20
4.3514931758
 10
4.2808558206
 20
4.3524920453
 10
4.3356484262
 20
4.3534909149
 10
4.3932798291
 20
4.3544897845
  0
LWPOLYLINE
  5
5C9
100
AcDbEntity
  8
0
100
AcDbPolyline
 62
7
  6
CONTINUOUS
 90
13
 70
0
 10
4.4171645181
 20
4.3751660877
 10
4.3633226794
 20
4.374182387
 10
4.3120104794
 20
4.373200245
 10
4.2636315672
 20
4.3722166457
 10
4.218862878
 20
4.3712346396
 10
4.1780472268
 20
4.370250992
 10
4.1417751977
 20
4.369269256
 10
4.1102152709
 20
4.3682826378
 10
4.0837966712
 20
4.3672914106
 10
4.0629881231
 20
4.3663010637
 10
4.0480686511
 20
4.3653168074
 10
4.0390561055
 20
4.3643325014
 10
4.0362903762
 20
4.3636279661
  0
LWPOLYLINE
  5
5CA
100
AcDbEntity
  8
0
100
AcDbPolyline
 62
7
  6
CONTINUOUS
 90
13
 70
0
 10
4.7573483797
 20
4.3918219088
 10
4.8111862164
 20
4.3928055719
 10
4.8625071602
 20
4.3937879334
 10
4.9108894623
 20
4.3947716804
 10
4.9556649911
 20
4.3957539523
 10
4.996486783
 20
4.3967379217
 10
5.0327680755
 20
4.3977201767
 10
5.06423443
 20
4.3987040204
 10
5.0904435482
 20
4.3996863836
 10
5.1111845389
 20
4.4006700677
 10
5.1261776137
 20
4.401652613
 10
5.1352942013
 20
4.4026364226
 10
5.1381720756
 20
4.4033591261
  0
LWPOLYLINE
  5
5CB
100
AcDbEntity
  8
0
100
AcDbPolyline
 62
7
  6
CONTINUOUS
 90
13
 70
0
 10
4.4164496219
 20
4.434208387
 10
4.3624681258
 20
4.4332215518
 10
4.3111572429
 20
4.4322385615
 10
4.2626925557
 20
4.4312519685
 10
4.2178546312
 20
4.4302666192
 10
4.1772180537
 20
4.4292849797
 10
4.1410483014
 20
4.4283032946
 10
4.1096841137
 20
4.4273196472
 10
4.0835809057
 20
4.4263374816
 10
4.0629486422
 20
4.4253540008
 10
4.0480648322
 20
4.4243716119
 10
4.0390702474
 20
4.423389929
 10
4.0362903762
 20
4.4226830842
  0
LWPOLYLINE
  5
5CC
100
AcDbEntity
  8
0
100
AcDbPolyline
 62
7
  6
CONTINUOUS
 90
12
 70
0
 10
4.8194220885
 20
4.3614818715
 10
4.8752553128
 20
4.3624807411
 10
4.9278385456
 20
4.3634796106
 10
4.9765784507
 20
4.3644784802
 10
5.0209250595
 20
4.3654773498
 10
5.0603779758
 20
4.3664762193
 10
5.0944920229
 20
4.3674750889
 10
5.1228822664
 20
4.3684739585
 10
5.1452283579
 20
4.3694728281
 10
5.1612781497
 20
4.3704716976
 10
5.1708505401
 20
4.3714705672
 10
5.1738453992
 20
4.3724207114
  0
LINE
  5
5CD
100
AcDbEntity
  8
0
100
AcDbLine
 62
7
  6
CONTINUOUS
 10
4.7573143357
 20
4.3810626561
 11
4.6447616921
 21
4.3790970426
  0
LINE
  5
5CE
100
AcDbEntity
  8
0
100
AcDbLine
 62
7
  6
CONTINUOUS
 10
4.4164496219
 20
4.3859119113
 11
4.5297304936
 21
4.3878905593
  0
LINE
  5
5CF
100
AcDbEntity
  8
0
100
AcDbLine
 62
7
  6
CONTINUOUS
 10
4.7573483797
 20
4.4401183846
 11
4.6447735595
 21
4.4381523642
  0
LWPOLYLINE
  5
5D0
100
AcDbEntity
  8
0
100
AcDbPolyline
 62
7
  6
CONTINUOUS
 90
13
 70
0
 10
4.7609688807
 20
4.3531011121
 10
4.8194220885
 20
4.3540999817
 10
4.8752553128
 20
4.3550988513
 10
4.9278385456
 20
4.3560977209
 10
4.9765784507
 20
4.3570965904
 10
5.0209250595
 20
4.35809546
 10
5.0603779758
 20
4.3590943296
 10
5.0944920229
 20
4.3600931991
 10
5.1228822664
 20
4.3610920687
 10
5.1452283579
 20
4.3620909383
 10
5.1612781497
 20
4.3630898079
 10
5.1708505401
 20
4.3640886774
 10
5.1736196411
 20
4.3647780551
  0
LWPOLYLINE
  5
5D1
100
AcDbEntity
  8
0
100
AcDbPolyline
 62
7
  6
CONTINUOUS
 90
3
 70
0
 10
4.6447616921
 20
4.3790970426
 10
4.5297138546
 20
4.3771316317
 10
4.4171645181
 20
4.3751660877
  0
LWPOLYLINE
  5
5D2
100
AcDbEntity
  8
0
100
AcDbPolyline
 62
7
  6
CONTINUOUS
 90
3
 70
0
 10
4.5297304936
 20
4.3878905593
 10
4.6447735595
 20
4.3898558885
 10
4.7573483797
 20
4.3918219088
  0
LWPOLYLINE
  5
5D3
100
AcDbEntity
  8
0
100
AcDbPolyline
 62
7
  6
CONTINUOUS
 90
3
 70
0
 10
4.6447735595
 20
4.4381523642
 10
4.5297304936
 20
4.4361870351
 10
4.4164496219
 20
4.434208387
  0
LWPOLYLINE
  5
5D4
100
AcDbEntity
  8
0
100
AcDbPolyline
 62
7
  6
CONTINUOUS
 90
13
 70
0
 10
4.7536928539
 20
4.4120344169
 10
4.8124209635
 20
4.4130332865
 10
4.8686080886
 20
4.414032156
 10
4.9216202278
 20
4.4150310256
 10
4.9708592053
 20
4.4160298952
 10
5.015769421
 20
4.4170287648
 10
5.0558441191
 20
4.4180276343
 10
5.0906311069
 20
4.4190265039
 10
5.1197378567
 20
4.4200253735
 10
5.1428359353
 20
4.421024243
 10
5.1596647096
 20
4.4220231126
 10
5.1700342881
 20
4.4230219822
 10
5.1736196411
 20
4.4238331732
  0
LWPOLYLINE
  5
5D5
100
AcDbEntity
  8
0
100
AcDbPolyline
 62
7
  6
CONTINUOUS
 90
13
 70
0
 10
4.7536928539
 20
4.4194163067
 10
4.8124209635
 20
4.4204151762
 10
4.8686080886
 20
4.4214140458
 10
4.9216202278
 20
4.4224129154
 10
4.9708592053
 20
4.4234117849
 10
5.015769421
 20
4.4244106545
 10
5.0558441191
 20
4.4254095241
 10
5.0906311069
 20
4.4264083937
 10
5.1197378567
 20
4.4274072632
 10
5.1428359353
 20
4.4284061328
 10
5.1596647096
 20
4.4294050024
 10
5.1700342881
 20
4.4304038719
 10
5.1738453992
 20
4.4314758295
  0
LINE
  5
5D6
100
AcDbEntity
  8
0
100
AcDbLine
 62
7
  6
CONTINUOUS
 10
4.638862921
 20
4.351103373
 11
4.7609688807
 21
4.3531011121
  0
LWPOLYLINE
  5
5D7
100
AcDbEntity
  8
0
100
AcDbPolyline
 62
7
  6
CONTINUOUS
 90
3
 70
0
 10
4.3932798291
 20
4.3471078947
 10
4.5144331388
 20
4.3491056339
 10
4.638862921
 20
4.351103373
  0
LINE
  5
5D8
100
AcDbEntity
  8
0
100
AcDbLine
 62
7
  6
CONTINUOUS
 10
4.638862921
 20
4.3584852628
 11
4.8194220885
 21
4.3614818715
  0
LWPOLYLINE
  5
5D9
100
AcDbEntity
  8
0
100
AcDbPolyline
 62
7
  6
CONTINUOUS
 90
3
 70
0
 10
4.3932798291
 20
4.3544897845
 10
4.5144331388
 20
4.3564875236
 10
4.638862921
 20
4.3584852628
  0
LWPOLYLINE
  5
5DA
100
AcDbEntity
  8
0
100
AcDbPolyline
 62
7
  6
CONTINUOUS
 90
3
 70
0
 10
4.3861211551
 20
4.4060411995
 10
4.5068954997
 20
4.4080389386
 10
4.6312855686
 20
4.4100366777
  0
LWPOLYLINE
  5
5DB
100
AcDbEntity
  8
0
100
AcDbPolyline
 62
7
  6
CONTINUOUS
 90
3
 70
0
 10
4.3861211551
 20
4.4134230892
 10
4.5068954997
 20
4.4154208284
 10
4.6312855686
 20
4.4174185675
  0
LINE
  5
5DC
100
AcDbEntity
  8
0
100
AcDbLine
 62
7
  6
CONTINUOUS
 10
4.6312855686
 20
4.4100366777
 11
4.7536928539
 21
4.4120344169
  0
LINE
  5
5DD
100
AcDbEntity
  8
0
100
AcDbLine
 62
7
  6
CONTINUOUS
 10
4.6312855686
 20
4.4174185675
 11
4.7536928539
 21
4.4194163067
  0
LINE
  5
5DE
100
AcDbEntity
  8
0
100
AcDbLine
 62
7
  6
CONTINUOUS
 10
4.0008428108
 20
4.6305260866
 11
4.0359900296
 21
4.6102255188
  0
LINE
  5
5DF
100
AcDbEntity
  8
0
100
AcDbLine
 62
7
  6
CONTINUOUS
 10
4.0008428108
 20
4.6895812047
 11
4.0359900296
 21
4.6692806369
  0
LINE
  5
5E0
100
AcDbEntity
  8
0
100
AcDbLine
 62
7
  6
CONTINUOUS
 10
4.0008428108
 20
4.7486363228
 11
4.0359900296
 21
4.728335755
  0
LINE
  5
5E1
100
AcDbEntity
  8
0
100
AcDbLine
 62
7
  6
CONTINUOUS
 10
4.8209348647
 20
3.7788645206
 11
4.8210894936
 21
3.7786366468
  0
LWPOLYLINE
  5
5E2
100
AcDbEntity
  8
0
100
AcDbPolyline
 62
7
  6
CONTINUOUS
 90
14
 70
0
 10
4.0006170527
 20
4.0402356721
 10
4.0007766709
 20
4.0404549361
 10
4.0055368712
 20
4.0414538057
 10
4.0168607646
 20
4.0424526753
 10
4.0346205753
 20
4.0434515448
 10
4.058615906
 20
4.0444504144
 10
4.0885759993
 20
4.045449284
 10
4.1241627931
 20
4.0464481535
 10
4.164974735
 20
4.0474470231
 10
4.2105513132
 20
4.0484458927
 10
4.2603782531
 20
4.0494447623
 10
4.3138933199
 20
4.0504436318
 10
4.3704926631
 20
4.0514425014
 10
4.4295376299
 20
4.052441371
  0
LINE
  5
5E3
100
AcDbEntity
  8
0
100
AcDbLine
 62
7
  6
CONTINUOUS
 10
4.0006170527
 20
4.2247829162
 11
4.0008428108
 21
4.2250436827
  0
LINE
  5
5E4
100
AcDbEntity
  8
0
100
AcDbLine
 62
7
  6
CONTINUOUS
 10
4.0006170527
 20
4.165727798
 11
4.0008428108
 21
4.1659885646
  0
LWPOLYLINE
  5
5E5
100
AcDbEntity
  8
0
100
AcDbPolyline
 62
7
  6
CONTINUOUS
 90
13
 70
0
 10
4.0006170527
 20
4.3945663807
 10
4.0014051499
 20
4.3950536342
 10
4.0079347044
 20
4.3960525037
 10
4.0210008955
 20
4.3970513733
 10
4.0404562877
 20
4.3980502429
 10
4.0660813511
 20
4.3990491125
 10
4.097586939
 20
4.400047982
 10
4.1346175501
 20
4.4010468516
 10
4.1767553405
 20
4.4020457212
 10
4.2235248379
 20
4.4030445907
 10
4.2743983068
 20
4.4040434603
 10
4.328801704
 20
4.4050423299
 10
4.3861211551
 20
4.4060411995
  0
LINE
  5
5E6
100
AcDbEntity
  8
0
100
AcDbLine
 62
7
  6
CONTINUOUS
 10
4.0362903762
 20
4.5407933204
 11
4.0008428108
 21
4.5203192733
  0
LINE
  5
5E7
100
AcDbEntity
  8
0
100
AcDbLine
 62
7
  6
CONTINUOUS
 10
4.0362903762
 20
4.4817382023
 11
4.0008428108
 21
4.4612641552
  0
LWPOLYLINE
  5
5E8
100
AcDbEntity
  8
0
100
AcDbPolyline
 62
7
  6
CONTINUOUS
 90
13
 70
0
 10
4.0360501236
 20
4.6103295602
 10
4.0390604799
 20
4.6113123311
 10
4.0480641752
 20
4.6122955546
 10
4.0629454828
 20
4.6132778229
 10
4.0835752497
 20
4.6142612409
 10
4.1096735208
 20
4.6152432821
 10
4.1410328777
 20
4.6162268432
 10
4.1771903044
 20
4.6172082683
 10
4.2180367104
 20
4.6181947983
 10
4.2631472771
 20
4.6191855549
 10
4.311793872
 20
4.6201750961
 10
4.3631658513
 20
4.6211585749
 10
4.4170693694
 20
4.6221434967
  0
LWPOLYLINE
  5
5E9
100
AcDbEntity
  8
0
100
AcDbPolyline
 62
7
  6
CONTINUOUS
 90
13
 70
0
 10
4.0360501236
 20
4.6693846847
 10
4.0391393307
 20
4.6703802489
 10
4.0482126459
 20
4.6713628281
 10
4.0631796062
 20
4.6723458522
 10
4.0838990581
 20
4.6733299298
 10
4.1100936894
 20
4.6743127309
 10
4.1415505966
 20
4.6752969825
 10
4.177823886
 20
4.6762795385
 10
4.2186100656
 20
4.6772630755
 10
4.2633984688
 20
4.6782459675
 10
4.3118382478
 20
4.6792310878
 10
4.3631862704
 20
4.6802140741
 10
4.4170441933
 20
4.6811981635
  0
LWPOLYLINE
  5
5EA
100
AcDbEntity
  8
0
100
AcDbPolyline
 62
7
  6
CONTINUOUS
 90
13
 70
0
 10
4.0006170527
 20
4.6307868532
 10
4.0039092223
 20
4.6317830859
 10
4.0137487787
 20
4.6327793187
 10
4.0300252797
 20
4.6337755514
 10
4.0525560328
 20
4.6347717842
 10
4.0810881458
 20
4.6357680169
 10
4.1153013656
 20
4.6367642497
 10
4.1548116723
 20
4.6377604824
 10
4.1991755899
 20
4.6387567152
 10
4.2478951642
 20
4.6397529479
 10
4.3004235515
 20
4.6407491807
 10
4.356171157
 20
4.6417454134
 10
4.4145122523
 20
4.6427416462
  0
LWPOLYLINE
  5
5EB
100
AcDbEntity
  8
0
100
AcDbPolyline
 62
7
  6
CONTINUOUS
 90
12
 70
0
 10
4.0014051499
 20
4.4024355239
 10
4.0079347044
 20
4.4034343935
 10
4.0210008955
 20
4.4044332631
 10
4.0404562877
 20
4.4054321326
 10
4.0660813511
 20
4.4064310022
 10
4.097586939
 20
4.4074298718
 10
4.1346175501
 20
4.4084287414
 10
4.1767553405
 20
4.4094276109
 10
4.2235248379
 20
4.4104264805
 10
4.2743983068
 20
4.4114253501
 10
4.328801704
 20
4.4124242197
 10
4.3861211551
 20
4.4134230892
  0
LWPOLYLINE
  5
5EC
100
AcDbEntity
  8
0
100
AcDbPolyline
 62
7
  6
CONTINUOUS
 90
13
 70
0
 10
4.7577109603
 20
4.4508835278
 10
4.8116853212
 20
4.4518700065
 10
4.8630644708
 20
4.4528540246
 10
4.91166205
 20
4.4538430848
 10
4.9566780531
 20
4.4548323228
 10
4.9974089698
 20
4.4558165488
 10
5.0335741555
 20
4.4567986826
 10
5.0649345992
 20
4.4577830201
 10
5.0910247823
 20
4.4587658635
 10
5.1116351304
 20
4.4597500392
 10
5.1264875652
 20
4.4607331163
 10
5.1354472073
 20
4.4617164124
 10
5.1381720756
 20
4.4624142442
  0
LWPOLYLINE
  5
5ED
100
AcDbEntity
  8
0
100
AcDbPolyline
 62
7
  6
CONTINUOUS
 90
13
 70
0
 10
4.4171326748
 20
4.4932757531
 10
4.3632998659
 20
4.4922921975
 10
4.3120032685
 20
4.4913103393
 10
4.2636992054
 20
4.4903283066
 10
4.2188300984
 20
4.4893441244
 10
4.1779493353
 20
4.4883587363
 10
4.1416488661
 20
4.4873758334
 10
4.1100446326
 20
4.486387063
 10
4.0836353191
 20
4.4853948832
 10
4.062870013
 20
4.4844047707
 10
4.048001084
 20
4.4834214882
 10
4.0390283451
 20
4.4824381883
 10
4.0362903762
 20
4.4817382023
  0
LWPOLYLINE
  5
5EE
100
AcDbEntity
  8
0
100
AcDbPolyline
 62
7
  6
CONTINUOUS
 90
13
 70
0
 10
4.7573992124
 20
4.5099330563
 10
4.8111741632
 20
4.5109155832
 10
4.8624792907
 20
4.511897621
 10
4.9108537336
 20
4.512881164
 10
4.9556180325
 20
4.5138631119
 10
4.9964296541
 20
4.5148467037
 10
5.0326962431
 20
4.5158283326
 10
5.0641333813
 20
4.5168108187
 10
5.090490472
 20
4.5177985813
 10
5.1113054417
 20
4.5187869528
 10
5.1262738876
 20
4.5197706997
 10
5.1353510289
 20
4.5207558237
 10
5.1381720756
 20
4.5214693623
  0
LINE
  5
5EF
100
AcDbEntity
  8
0
100
AcDbLine
 62
7
  6
CONTINUOUS
 10
4.4171326748
 20
4.4449792773
 11
4.5296953191
 21
4.4469450743
  0
LINE
  5
5F0
100
AcDbEntity
  8
0
100
AcDbLine
 62
7
  6
CONTINUOUS
 10
4.7577109603
 20
4.4991800036
 11
4.6447183263
 21
4.4972065353
  0
LINE
  5
5F1
100
AcDbEntity
  8
0
100
AcDbLine
 62
7
  6
CONTINUOUS
 10
4.417026987
 20
4.5040325007
 11
4.529658483
 21
4.5059995608
  0
LWPOLYLINE
  5
5F2
100
AcDbEntity
  8
0
100
AcDbPolyline
 62
7
  6
CONTINUOUS
 90
3
 70
0
 10
4.5296953191
 20
4.4469450743
 10
4.6447183263
 20
4.4489100595
 10
4.7577109603
 20
4.4508835278
  0
LWPOLYLINE
  5
5F3
100
AcDbEntity
  8
0
100
AcDbPolyline
 62
7
  6
CONTINUOUS
 90
3
 70
0
 10
4.6447183263
 20
4.4972065353
 10
4.5296953191
 20
4.4952415501
 10
4.4171326748
 20
4.4932757531
  0
LWPOLYLINE
  5
5F4
100
AcDbEntity
  8
0
100
AcDbPolyline
 62
7
  6
CONTINUOUS
 90
3
 70
0
 10
4.529658483
 20
4.5059995608
 10
4.6447899875
 20
4.5079664064
 10
4.7573992124
 20
4.5099330563
  0
LWPOLYLINE
  5
5F5
100
AcDbEntity
  8
0
100
AcDbPolyline
 62
7
  6
CONTINUOUS
 90
13
 70
0
 10
4.7463888668
 20
4.4709677216
 10
4.8053820137
 20
4.4719665912
 10
4.861913602
 20
4.4729654608
 10
4.9153457431
 20
4.4739643304
 10
4.9650755224
 20
4.4749631999
 10
5.0105418014
 20
4.4759620695
 10
5.0512315501
 20
4.4769609391
 10
5.0866856354
 20
4.4779598086
 10
5.1165040025
 20
4.4789586782
 10
5.1403501884
 20
4.4799575478
 10
5.1579551186
 20
4.4809564174
 10
5.1691201435
 20
4.4819552869
 10
5.1736196411
 20
4.4828882913
  0
LWPOLYLINE
  5
5F6
100
AcDbEntity
  8
0
100
AcDbPolyline
 62
7
  6
CONTINUOUS
 90
14
 70
0
 10
4.7463888668
 20
4.4783496114
 10
4.8053820137
 20
4.479348481
 10
4.861913602
 20
4.4803473505
 10
4.9153457431
 20
4.4813462201
 10
4.9650755224
 20
4.4823450897
 10
5.0105418014
 20
4.4833439593
 10
5.0512315501
 20
4.4843428288
 10
5.0866856354
 20
4.4853416984
 10
5.1165040025
 20
4.486340568
 10
5.1403501884
 20
4.4873394376
 10
5.1579551186
 20
4.4883383071
 10
5.1691201435
 20
4.4893371767
 10
5.1737192799
 20
4.4903360463
 10
5.1738453992
 20
4.4905309476
  0
LWPOLYLINE
  5
5F7
100
AcDbEntity
  8
0
100
AcDbPolyline
 62
7
  6
CONTINUOUS
 90
13
 70
0
 10
4.7390581461
 20
4.5299010264
 10
4.7983064215
 20
4.530899896
 10
4.8551729772
 20
4.5318987655
 10
4.9090161455
 20
4.5328976351
 10
4.9592283735
 20
4.5338965047
 10
5.0052430789
 20
4.5348953742
 10
5.0465410435
 20
4.5358942438
 10
5.0826562712
 20
4.5368931134
 10
5.1131812471
 20
4.537891983
 10
5.1377715348
 20
4.5388908525
 10
5.1561496638
 20
4.5398897221
 10
5.1681082598
 20
4.5408885917
 10
5.1736196411
 20
4.5419434094
  0
LWPOLYLINE
  5
5F8
100
AcDbEntity
  8
0
100
AcDbPolyline
 62
7
  6
CONTINUOUS
 90
14
 70
0
 10
4.7390581461
 20
4.5372829162
 10
4.7983064215
 20
4.5382817857
 10
4.8551729772
 20
4.5392806553
 10
4.9090161455
 20
4.5402795249
 10
4.9592283735
 20
4.5412783944
 10
5.0052430789
 20
4.542277264
 10
5.0465410435
 20
4.5432761336
 10
5.0826562712
 20
4.5442750032
 10
5.1131812471
 20
4.5452738727
 10
5.1377715348
 20
4.5462727423
 10
5.1561496638
 20
4.5472716119
 10
5.1681082598
 20
4.5482704814
 10
5.173512385
 20
4.549269351
 10
5.1738453992
 20
4.5495860658
  0
LINE
  5
5F9
100
AcDbEntity
  8
0
100
AcDbLine
 62
7
  6
CONTINUOUS
 10
4.4383438038
 20
4.4659733738
 11
4.7463888668
 21
4.4709677216
  0
LINE
  5
5FA
100
AcDbEntity
  8
0
100
AcDbLine
 62
7
  6
CONTINUOUS
 10
4.4383438038
 20
4.4733552635
 11
4.7463888668
 21
4.4783496114
  0
LINE
  5
5FB
100
AcDbEntity
  8
0
100
AcDbLine
 62
7
  6
CONTINUOUS
 10
4.4310027342
 20
4.5249066785
 11
4.7390581461
 21
4.5299010264
  0
LINE
  5
5FC
100
AcDbEntity
  8
0
100
AcDbLine
 62
7
  6
CONTINUOUS
 10
4.4310027342
 20
4.5322885683
 11
4.7390581461
 21
4.5372829162
  0
LINE
  5
5FD
100
AcDbEntity
  8
0
100
AcDbLine
 62
7
  6
CONTINUOUS
 10
5.1736196411
 20
4.0774058875
 11
5.1384724223
 21
4.0977064552
  0
LINE
  5
5FE
100
AcDbEntity
  8
0
100
AcDbLine
 62
7
  6
CONTINUOUS
 10
4.0008428108
 20
4.8076914409
 11
4.0359900296
 21
4.7873908731
  0
LINE
  5
5FF
100
AcDbEntity
  8
0
100
AcDbLine
 62
7
  6
CONTINUOUS
 10
5.1736196411
 20
4.1364610056
 11
5.1384724223
 21
4.1567615733
  0
LINE
  5
600
100
AcDbEntity
  8
0
100
AcDbLine
 62
7
  6
CONTINUOUS
 10
5.1736196411
 20
4.1955161237
 11
5.1384724223
 21
4.2158166914
  0
LINE
  5
601
100
AcDbEntity
  8
02___PRT_ALL_AXES
100
AcDbLine
 62
7
  6
CENTER
 10
4.5872312259
 20
3.1431256702
 11
4.5872312259
 21
6.0063196486
  0
LINE
  5
602
100
AcDbEntity
  8
0
100
AcDbLine
 62
7
  6
CONTINUOUS
 10
4.0006170527
 20
4.1066726799
 11
4.0008428108
 21
4.1069334465
  0
LINE
  5
603
100
AcDbEntity
  8
0
100
AcDbLine
 62
7
  6
CONTINUOUS
 10
4.0006170527
 20
4.0476175618
 11
4.0008428108
 21
4.0478783284
  0
LINE
  5
604
100
AcDbEntity
  8
0
100
AcDbLine
 62
7
  6
CONTINUOUS
 10
4.0362903762
 20
4.4226830842
 11
4.0008428108
 21
4.4022090371
  0
LINE
  5
605
100
AcDbEntity
  8
0
100
AcDbLine
 62
7
  6
CONTINUOUS
 10
4.0362903762
 20
4.3636279661
 11
4.0008428108
 21
4.343153919
  0
LINE
  5
606
100
AcDbEntity
  8
0
100
AcDbLine
 62
7
  6
CONTINUOUS
 10
4.0008428108
 20
4.4612641552
 11
4.0010604008
 21
4.4613688287
  0
LINE
  5
607
100
AcDbEntity
  8
0
100
AcDbLine
 62
7
  6
CONTINUOUS
 10
4.0008428108
 20
4.4022090371
 11
4.0014051499
 21
4.4024355239
  0
LWPOLYLINE
  5
608
100
AcDbEntity
  8
0
100
AcDbPolyline
 62
7
  6
CONTINUOUS
 90
13
 70
0
 10
4.0360501236
 20
4.5512744353
 10
4.039059578
 20
4.5522570657
 10
4.0481012553
 20
4.5532434792
 10
4.0630346987
 20
4.5542276312
 10
4.0838022384
 20
4.5552156405
 10
4.1100879888
 20
4.5562023005
 10
4.1414771016
 20
4.5571846159
 10
4.1777339314
 20
4.5581670109
 10
4.2185440308
 20
4.5591513245
 10
4.2633162156
 20
4.5601339978
 10
4.3117065018
 20
4.5611182578
 10
4.3630344569
 20
4.5621010043
 10
4.4168040326
 20
4.5630836212
  0
LWPOLYLINE
  5
609
100
AcDbEntity
  8
0
100
AcDbPolyline
 62
7
  6
CONTINUOUS
 90
13
 70
0
 10
4.0360501236
 20
4.4922193237
 10
4.0391201839
 20
4.4932118016
 10
4.0481909328
 20
4.4941957007
 10
4.0631416016
 20
4.4951784057
 10
4.0838152733
 20
4.4961610683
 10
4.1100498982
 20
4.4971458848
 10
4.1415427307
 20
4.4981314002
 10
4.1778275844
 20
4.4991142784
 10
4.2186480867
 20
4.5000985932
 10
4.2634323747
 20
4.5010813276
 10
4.3118325306
 20
4.5020656209
 10
4.363164586
 20
4.5030483151
 10
4.417026987
 20
4.5040325007
  0
LWPOLYLINE
  5
60A
100
AcDbEntity
  8
0
100
AcDbPolyline
 62
7
  6
CONTINUOUS
 90
13
 70
0
 10
5.1384123283
 20
4.8062638312
 10
5.135107878
 20
4.8052341273
 10
5.1258475996
 20
4.804253116
 10
5.1107249081
 20
4.8032721058
 10
5.0899044055
 20
4.8022910961
 10
5.0636127351
 20
4.8013100874
 10
5.0321360449
 20
4.800329079
 10
4.9958169985
 20
4.7993480723
 10
4.9550508387
 20
4.7983670654
 10
4.91028138
 20
4.7973860608
 10
4.8619957991
 20
4.7964050559
 10
4.8107197791
 20
4.7954240533
 10
4.7570112317
 20
4.7944430496
  0
LWPOLYLINE
  5
60B
100
AcDbEntity
  8
0
100
AcDbPolyline
 62
7
  6
CONTINUOUS
 90
13
 70
0
 10
4.0008428108
 20
4.5203192733
 10
4.0057353423
 20
4.521301003
 10
4.0172180282
 20
4.5222998726
 10
4.0351326
 20
4.5232987421
 10
4.0592769143
 20
4.5242976117
 10
4.0893785326
 20
4.5252964813
 10
4.1250977958
 20
4.5262953509
 10
4.1660316567
 20
4.5272942204
 10
4.2117182279
 20
4.52829309
 10
4.2616419936
 20
4.5292919596
 10
4.3152396265
 20
4.5302908291
 10
4.3719063444
 20
4.5312896987
 10
4.4310027342
 20
4.5322885683
  0
LWPOLYLINE
  5
60C
100
AcDbEntity
  8
0
100
AcDbPolyline
 62
7
  6
CONTINUOUS
 90
13
 70
0
 10
4.0010604008
 20
4.4613688287
 10
4.006786275
 20
4.4623676983
 10
4.0190617445
 20
4.4633665678
 10
4.0377482959
 20
4.4643654374
 10
4.0626350748
 20
4.465364307
 10
4.0934412651
 20
4.4663631765
 10
4.1298192575
 20
4.4673620461
 10
4.1713585718
 20
4.4683609157
 10
4.2175904888
 20
4.4693597853
 10
4.2679933392
 20
4.4703586548
 10
4.3219983898
 20
4.4713575244
 10
4.3789962612
 20
4.472356394
 10
4.4383438038
 20
4.4733552635
  0
LWPOLYLINE
  5
60D
100
AcDbEntity
  8
0
100
AcDbPolyline
 62
7
  6
CONTINUOUS
 90
13
 70
0
 10
4.7583959587
 20
4.5690060498
 10
4.8123006379
 20
4.5699917341
 10
4.8635443677
 20
4.5709737157
 10
4.9118519929
 20
4.5719573282
 10
4.9565392972
 20
4.5729393712
 10
4.9972626575
 20
4.5739230508
 10
5.0334437116
 20
4.5749051287
 10
5.0648156307
 20
4.5758891911
 10
5.0909227098
 20
4.5768718112
 10
5.1115336996
 20
4.5778546631
 10
5.126409193
 20
4.5788369033
 10
5.1354072561
 20
4.5798200938
 10
5.1381720756
 20
4.5805244804
  0
LWPOLYLINE
  5
60E
100
AcDbEntity
  8
0
100
AcDbPolyline
 62
7
  6
CONTINUOUS
 90
13
 70
0
 10
4.417026987
 20
4.5523289764
 10
4.363164586
 20
4.5513447909
 10
4.3118325306
 20
4.5503620967
 10
4.2634323747
 20
4.5493778034
 10
4.2186480867
 20
4.5483950689
 10
4.1778275844
 20
4.5474107541
 10
4.1415427307
 20
4.546427876
 10
4.1100498982
 20
4.5454423605
 10
4.0838152733
 20
4.5444575441
 10
4.0631416016
 20
4.5434748815
 10
4.0481909328
 20
4.5424921765
 10
4.0391201839
 20
4.5415082774
 10
4.0362903762
 20
4.5407933204
  0
LWPOLYLINE
  5
60F
100
AcDbEntity
  8
0
100
AcDbPolyline
 62
7
  6
CONTINUOUS
 90
13
 70
0
 10
4.4168040326
 20
4.611380097
 10
4.3630344569
 20
4.6103974801
 10
4.3117065018
 20
4.6094147336
 10
4.2633162156
 20
4.6084304736
 10
4.2185440308
 20
4.6074478003
 10
4.1777339314
 20
4.6064634867
 10
4.1414771016
 20
4.6054810917
 10
4.1100879888
 20
4.6044987763
 10
4.0838022384
 20
4.6035121163
 10
4.0630346987
 20
4.602524107
 10
4.0481012553
 20
4.601539955
 10
4.039059578
 20
4.6005535414
 10
4.0362903762
 20
4.5998484385
  0
LWPOLYLINE
  5
610
100
AcDbEntity
  8
0
100
AcDbPolyline
 62
7
  6
CONTINUOUS
 90
13
 70
0
 10
4.7573144849
 20
4.6280417736
 10
4.8111429444
 20
4.6290252368
 10
4.8624231593
 20
4.6300067525
 10
4.9107311033
 20
4.6309888172
 10
4.9556917077
 20
4.6319750373
 10
4.9966056158
 20
4.6329614198
 10
5.0328937977
 20
4.6339442916
 10
5.0644548539
 20
4.6349319998
 10
5.0908076055
 20
4.6359220985
 10
5.1115221572
 20
4.6369091432
 10
5.1263911819
 20
4.6378905422
 10
5.1353982575
 20
4.6388737415
 10
5.1381720756
 20
4.6395795985
  0
LINE
  5
611
100
AcDbEntity
  8
0
100
AcDbLine
 62
7
  6
CONTINUOUS
 10
4.7573992124
 20
4.5582295321
 11
4.6447899875
 21
4.5562628821
  0
LINE
  5
612
100
AcDbEntity
  8
0
100
AcDbLine
 62
7
  6
CONTINUOUS
 10
4.4168040326
 20
4.5630836212
 11
4.5296051317
 21
4.5650537642
  0
LINE
  5
613
100
AcDbEntity
  8
0
100
AcDbLine
 62
7
  6
CONTINUOUS
 10
4.7583959587
 20
4.6173025255
 11
4.644925401
 21
4.6153203221
  0
LINE
  5
614
100
AcDbEntity
  8
0
100
AcDbLine
 62
7
  6
CONTINUOUS
 10
4.4170693694
 20
4.6221434967
 11
4.5297650969
 21
4.6241116251
  0
LWPOLYLINE
  5
615
100
AcDbEntity
  8
0
100
AcDbPolyline
 62
7
  6
CONTINUOUS
 90
12
 70
0
 10
4.7812569891
 20
4.6487190427
 10
4.8387365393
 20
4.6497152754
 10
4.893393116
 20
4.6507115082
 10
4.9446132369
 20
4.6517077409
 10
4.9918219913
 20
4.6527039737
 10
5.0344894938
 20
4.6537002064
 10
5.0721368309
 20
4.6546964392
 10
5.1043414373
 20
4.6556926719
 10
5.1307418385
 20
4.6566889047
 10
5.1510417083
 20
4.6576851374
 10
5.1650131947
 20
4.6586813702
 10
5.1724994773
 20
4.6596776029
  0
LWPOLYLINE
  5
616
100
AcDbEntity
  8
0
100
AcDbPolyline
 62
7
  6
CONTINUOUS
 90
13
 70
0
 10
4.7787816954
 20
4.6560589399
 10
4.8362344357
 20
4.6570528398
 10
4.8909053491
 20
4.6580467396
 10
4.9421836604
 20
4.6590406394
 10
4.9894964958
 20
4.6600345392
 10
5.0323152834
 20
4.6610284391
 10
5.070161658
 20
4.6620223389
 10
5.1026128056
 20
4.6630162387
 10
5.1293061869
 20
4.6640101386
 10
5.1499435872
 20
4.6650040384
 10
5.1642944486
 20
4.6659979382
 10
5.1721984455
 20
4.6669918381
 10
5.1738453992
 20
4.667696302
  0
LWPOLYLINE
  5
617
100
AcDbEntity
  8
0
100
AcDbPolyline
 62
7
  6
CONTINUOUS
 90
3
 70
0
 10
4.6447899875
 20
4.5562628821
 10
4.529658483
 20
4.5542960366
 10
4.417026987
 20
4.5523289764
  0
LWPOLYLINE
  5
618
100
AcDbEntity
  8
0
100
AcDbPolyline
 62
7
  6
CONTINUOUS
 90
3
 70
0
 10
4.5296051317
 20
4.5650537642
 10
4.644925401
 20
4.5670238463
 10
4.7583959587
 20
4.5690060498
  0
LWPOLYLINE
  5
619
100
AcDbEntity
  8
0
100
AcDbPolyline
 62
7
  6
CONTINUOUS
 90
3
 70
0
 10
4.644925401
 20
4.6153203221
 10
4.5296051317
 20
4.61335024
 10
4.4168040326
 20
4.611380097
  0
LWPOLYLINE
  5
61A
100
AcDbEntity
  8
0
100
AcDbPolyline
 62
7
  6
CONTINUOUS
 90
3
 70
0
 10
4.5297650969
 20
4.6241116251
 10
4.6447617468
 20
4.6260761584
 10
4.7573144849
 20
4.6280417736
  0
LWPOLYLINE
  5
61B
100
AcDbEntity
  8
0
100
AcDbPolyline
 62
7
  6
CONTINUOUS
 90
13
 70
0
 10
4.7317019233
 20
4.5888343311
 10
4.7911953751
 20
4.5898332007
 10
4.8483873467
 20
4.5908320703
 10
4.9026324981
 20
4.5918309399
 10
4.9533187406
 20
4.5928298094
 10
4.9998741435
 20
4.593828679
 10
5.0417733872
 20
4.5948275486
 10
5.0785436911
 20
4.5958264181
 10
5.1097701485
 20
4.5968252877
 10
5.1351004077
 20
4.5978241573
 10
5.1542486484
 20
4.5988230269
 10
5.1669988068
 20
4.5998218964
 10
5.1732070133
 20
4.600820766
  0
LWPOLYLINE
  5
61C
100
AcDbEntity
  8
0
100
AcDbPolyline
 62
7
  6
CONTINUOUS
 90
14
 70
0
 10
4.7317019233
 20
4.5962162209
 10
4.7911953751
 20
4.5972150905
 10
4.8483873467
 20
4.59821396
 10
4.9026324981
 20
4.5992128296
 10
4.9533187406
 20
4.6002116992
 10
4.9998741435
 20
4.6012105688
 10
5.0417733872
 20
4.6022094383
 10
5.0785436911
 20
4.6032083079
 10
5.1097701485
 20
4.6042071775
 10
5.1351004077
 20
4.605206047
 10
5.1542486484
 20
4.6062049166
 10
5.1669988068
 20
4.6072037862
 10
5.1732070133
 20
4.6082026558
 10
5.1738453992
 20
4.6086411839
  0
LINE
  5
61D
100
AcDbEntity
  8
0
100
AcDbLine
 62
7
  6
CONTINUOUS
 10
4.6604340855
 20
4.6467265772
 11
4.7812569891
 21
4.6487190427
  0
LWPOLYLINE
  5
61E
100
AcDbEntity
  8
0
100
AcDbPolyline
 62
7
  6
CONTINUOUS
 90
3
 70
0
 10
4.4145122523
 20
4.6427416462
 10
4.5363337981
 20
4.6447341117
 10
4.6604340855
 20
4.6467265772
  0
LINE
  5
61F
100
AcDbEntity
  8
0
100
AcDbLine
 62
7
  6
CONTINUOUS
 10
4.6581220557
 20
4.6540711403
 11
4.7787816954
 21
4.6560589399
  0
LWPOLYLINE
  5
620
100
AcDbEntity
  8
0
100
AcDbPolyline
 62
7
  6
CONTINUOUS
 90
3
 70
0
 10
4.4128432216
 20
4.6500955409
 10
4.5343033366
 20
4.6520833406
 10
4.6581220557
 20
4.6540711403
  0
LINE
  5
621
100
AcDbEntity
  8
0
100
AcDbLine
 62
7
  6
CONTINUOUS
 10
4.4236879062
 20
4.5838399833
 11
4.7317019233
 21
4.5888343311
  0
LINE
  5
622
100
AcDbEntity
  8
0
100
AcDbLine
 62
7
  6
CONTINUOUS
 10
4.4236879062
 20
4.591221873
 11
4.7317019233
 21
4.5962162209
  0
LINE
  5
623
100
AcDbEntity
  8
0
100
AcDbLine
 62
7
  6
CONTINUOUS
 10
5.1736196411
 20
4.2545712418
 11
5.1384724223
 21
4.2748718095
  0
LINE
  5
624
100
AcDbEntity
  8
0
100
AcDbLine
 62
7
  6
CONTINUOUS
 10
5.1736196411
 20
4.3136263599
 11
5.1384724223
 21
4.3339269276
  0
LINE
  5
625
100
AcDbEntity
  8
0
100
AcDbLine
 62
7
  6
CONTINUOUS
 10
4.8108867435
 20
3.4318196406
 11
4.8108622737
 21
3.4319567401
  0
LINE
  5
626
100
AcDbEntity
  8
0
100
AcDbLine
 62
7
  6
CONTINUOUS
 10
4.0362903762
 20
4.304572848
 11
4.0008428108
 21
4.2840988009
  0
LINE
  5
627
100
AcDbEntity
  8
0
100
AcDbLine
 62
7
  6
CONTINUOUS
 10
4.0362903762
 20
4.2455177299
 11
4.0008428108
 21
4.2250436827
  0
LINE
  5
628
100
AcDbEntity
  8
0
100
AcDbLine
 62
7
  6
CONTINUOUS
 10
4.0362903762
 20
4.1864626118
 11
4.0008428108
 21
4.1659885646
  0
LWPOLYLINE
  5
629
100
AcDbEntity
  8
0
100
AcDbPolyline
 62
7
  6
CONTINUOUS
 90
13
 70
0
 10
4.0006170527
 20
4.3355112626
 10
4.0018482995
 20
4.3361203294
 10
4.0091804374
 20
4.337119199
 10
4.0230351555
 20
4.3381180686
 10
4.0432561206
 20
4.3391169381
 10
4.0696151642
 20
4.3401158077
 10
4.1018148577
 20
4.3411146773
 10
4.1394918677
 20
4.3421135469
 10
4.1822210564
 20
4.3431124164
 10
4.2295202782
 20
4.344111286
 10
4.2808558206
 20
4.3451101556
 10
4.3356484262
 20
4.3461090251
 10
4.3932798291
 20
4.3471078947
  0
LWPOLYLINE
  5
62A
100
AcDbEntity
  8
0
100
AcDbPolyline
 62
7
  6
CONTINUOUS
 90
13
 70
0
 10
4.0006170527
 20
4.2764561445
 10
4.002389775
 20
4.2771870247
 10
4.0105232649
 20
4.2781858942
 10
4.0251641828
 20
4.2791847638
 10
4.0461473242
 20
4.2801836334
 10
4.0732359207
 20
4.281182503
 10
4.1061243112
 20
4.2821813725
 10
4.1444413915
 20
4.2831802421
 10
4.1877548013
 20
4.2841791117
 10
4.2355758028
 20
4.2851779812
 10
4.2873647959
 20
4.2861768508
 10
4.3425374065
 20
4.2871757204
 10
4.4004710809
 20
4.28817459
  0
LINE
  5
62B
100
AcDbEntity
  8
0
100
AcDbLine
 62
7
  6
CONTINUOUS
 10
4.0008428108
 20
4.343153919
 11
4.0018482995
 21
4.3435022192
  0
LWPOLYLINE
  5
62C
100
AcDbEntity
  8
0
100
AcDbPolyline
 62
7
  6
CONTINUOUS
 90
13
 70
0
 10
4.0360501236
 20
4.4331642059
 10
4.0390283451
 20
4.4341417126
 10
4.048001084
 20
4.4351250125
 10
4.062870013
 20
4.436108295
 10
4.0836353191
 20
4.4370984074
 10
4.1100446326
 20
4.4380905872
 10
4.1416488661
 20
4.4390793576
 10
4.1779493353
 20
4.4400622605
 10
4.2188300984
 20
4.4410476486
 10
4.2636992054
 20
4.4420318309
 10
4.3120032685
 20
4.4430138635
 10
4.3632998659
 20
4.4439957217
 10
4.4171326748
 20
4.4449792773
  0
LWPOLYLINE
  5
62D
100
AcDbEntity
  8
0
100
AcDbPolyline
 62
7
  6
CONTINUOUS
 90
13
 70
0
 10
5.1384123283
 20
4.7472087093
 10
5.1354039643
 20
4.7462262677
 10
5.1264263558
 20
4.7452450258
 10
5.1115583048
 20
4.7442627356
 10
5.0909420935
 20
4.7432793372
 10
5.0648553878
 20
4.7422972612
 10
5.0335076876
 20
4.7413136993
 10
4.9973495722
 20
4.7403319809
 10
4.9567136012
 20
4.7393500879
 10
4.9119719062
 20
4.7383665706
 10
4.8635757765
 20
4.7373810467
 10
4.812294623
 20
4.7363983338
 10
4.7582984092
 20
4.7354110118
  0
LWPOLYLINE
  5
62E
100
AcDbEntity
  8
0
100
AcDbPolyline
 62
7
  6
CONTINUOUS
 90
13
 70
0
 10
4.0360501236
 20
4.3741090895
 10
4.0390702474
 20
4.3750934532
 10
4.0480648322
 20
4.3760751361
 10
4.0629486422
 20
4.377057525
 10
4.0835809057
 20
4.3780410059
 10
4.1096841137
 20
4.3790231714
 10
4.1410483014
 20
4.3800068188
 10
4.1772180537
 20
4.3809885039
 10
4.2178546312
 20
4.3819701435
 10
4.2626925557
 20
4.3829554927
 10
4.3111572429
 20
4.3839420857
 10
4.3624681258
 20
4.384925076
 10
4.4164496219
 20
4.3859119113
  0
LWPOLYLINE
  5
62F
100
AcDbEntity
  8
0
100
AcDbPolyline
 62
7
  6
CONTINUOUS
 90
13
 70
0
 10
4.0008428108
 20
4.5793743914
 10
4.0047820827
 20
4.5802343077
 10
4.0154700563
 20
4.5812331773
 10
4.0326096395
 20
4.5822320469
 10
4.0560074336
 20
4.5832309165
 10
4.0853994237
 20
4.584229786
 10
4.120453958
 20
4.5852286556
 10
4.1607754899
 20
4.5862275252
 10
4.2059090414
 20
4.5872263948
 10
4.2553453367
 20
4.5882252643
 10
4.3085265492
 20
4.5892241339
 10
4.3648525953
 20
4.5902230035
 10
4.4236879062
 20
4.591221873
  0
LWPOLYLINE
  5
630
100
AcDbEntity
  8
0
100
AcDbPolyline
 62
7
  6
CONTINUOUS
 90
13
 70
0
 10
4.7582984092
 20
4.6871145361
 10
4.812294623
 20
4.688101858
 10
4.8635757765
 20
4.6890845709
 10
4.9119719062
 20
4.6900700949
 10
4.9567136012
 20
4.6910536121
 10
4.9973495722
 20
4.6920355051
 10
5.0335076876
 20
4.6930172235
 10
5.0648553878
 20
4.6940007855
 10
5.0909420935
 20
4.6949828615
 10
5.1115583048
 20
4.6959662598
 10
5.1264263558
 20
4.6969485501
 10
5.1354039643
 20
4.6979297919
 10
5.1381720756
 20
4.6986347166
  0
LWPOLYLINE
  5
631
100
AcDbEntity
  8
0
100
AcDbPolyline
 62
7
  6
CONTINUOUS
 90
13
 70
0
 10
4.4170693694
 20
4.6704399725
 10
4.3631658513
 20
4.6694550507
 10
4.311793872
 20
4.6684715718
 10
4.2631472771
 20
4.6674820307
 10
4.2180367104
 20
4.6664912741
 10
4.1771903044
 20
4.6655047441
 10
4.1410328777
 20
4.664523319
 10
4.1096735208
 20
4.6635397579
 10
4.0835752497
 20
4.6625577166
 10
4.0629454828
 20
4.6615742987
 10
4.0480641752
 20
4.6605920304
 10
4.0390604799
 20
4.6596088069
 10
4.0362903762
 20
4.6589035566
  0
LWPOLYLINE
  5
632
100
AcDbEntity
  8
0
100
AcDbPolyline
 62
7
  6
CONTINUOUS
 90
13
 70
0
 10
4.4170441933
 20
4.7294946392
 10
4.3631862704
 20
4.7285105499
 10
4.3118382478
 20
4.7275275635
 10
4.2633984688
 20
4.7265424432
 10
4.2186100656
 20
4.7255595512
 10
4.177823886
 20
4.7245760143
 10
4.1415505966
 20
4.7235934583
 10
4.1100936894
 20
4.7226092067
 10
4.0838990581
 20
4.7216264056
 10
4.0631796062
 20
4.720642328
 10
4.0482126459
 20
4.7196593039
 10
4.0391393307
 20
4.7186767247
 10
4.0362903762
 20
4.7179586747
  0
LWPOLYLINE
  5
633
100
AcDbEntity
  8
0
100
AcDbPolyline
 62
7
  6
CONTINUOUS
 90
13
 70
0
 10
4.7574361675
 20
4.7461541913
 10
4.8113433429
 20
4.7471392131
 10
4.862682743
 20
4.7481220984
 10
4.9110785315
 20
4.7491063728
 10
4.9558586191
 20
4.7500891012
 10
4.9966754903
 20
4.7510734357
 10
5.0329479172
 20
4.7520560964
 10
5.0644014074
 20
4.7530404148
 10
5.0905915108
 20
4.7540232805
 10
5.1113054606
 20
4.7550074263
 10
5.1262664457
 20
4.7559905642
 10
5.1353433372
 20
4.7569750507
 10
5.1381720756
 20
4.7576898347
  0
LINE
  5
634
100
AcDbEntity
  8
0
100
AcDbLine
 62
7
  6
CONTINUOUS
 10
4.7573144849
 20
4.6763382494
 11
4.6447617468
 21
4.6743726341
  0
LINE
  5
635
100
AcDbEntity
  8
0
100
AcDbLine
 62
7
  6
CONTINUOUS
 10
4.4170441933
 20
4.6811981635
 11
4.5296644763
 21
4.6831650179
  0
LINE
  5
636
100
AcDbEntity
  8
0
100
AcDbLine
 62
7
  6
CONTINUOUS
 10
4.7582984092
 20
4.7354110118
 11
4.6448326359
 21
4.7334289677
  0
LINE
  5
637
100
AcDbEntity
  8
0
100
AcDbLine
 62
7
  6
CONTINUOUS
 10
4.4170268603
 20
4.7402529708
 11
4.5296584452
 21
4.7422200326
  0
LWPOLYLINE
  5
638
100
AcDbEntity
  8
0
100
AcDbPolyline
 62
7
  6
CONTINUOUS
 90
3
 70
0
 10
4.6447617468
 20
4.6743726341
 10
4.5297650969
 20
4.6724081008
 10
4.4170693694
 20
4.6704399725
  0
LWPOLYLINE
  5
639
100
AcDbEntity
  8
0
100
AcDbPolyline
 62
7
  6
CONTINUOUS
 90
3
 70
0
 10
4.5296644763
 20
4.6831650179
 10
4.6448326359
 20
4.6851324919
 10
4.7582984092
 20
4.6871145361
  0
LWPOLYLINE
  5
63A
100
AcDbEntity
  8
0
100
AcDbPolyline
 62
7
  6
CONTINUOUS
 90
13
 70
0
 10
4.7648367999
 20
4.7074967749
 10
4.8229887193
 20
4.7084930077
 10
4.8784944236
 20
4.7094892404
 10
4.9307308996
 20
4.7104854732
 10
4.9791118289
 20
4.7114817059
 10
5.0230941689
 20
4.7124779387
 10
5.0621842482
 20
4.7134741714
 10
5.0959433078
 20
4.7144704042
 10
5.1239924253
 20
4.7154666369
 10
5.146016769
 20
4.7164628697
 10
5.1617691306
 20
4.7174591024
 10
5.1710727009
 20
4.7184553352
 10
5.1736196411
 20
4.7191087637
  0
LWPOLYLINE
  5
63B
100
AcDbEntity
  8
0
100
AcDbPolyline
 62
7
  6
CONTINUOUS
 90
3
 70
0
 10
4.6448326359
 20
4.7334289677
 10
4.5296644763
 20
4.7314614937
 10
4.4170441933
 20
4.7294946392
  0
LWPOLYLINE
  5
63C
100
AcDbEntity
  8
0
100
AcDbPolyline
 62
7
  6
CONTINUOUS
 90
3
 70
0
 10
4.5296584452
 20
4.7422200326
 10
4.6447671425
 20
4.7441864871
 10
4.7574361675
 20
4.7461541913
  0
LWPOLYLINE
  5
63D
100
AcDbEntity
  8
0
100
AcDbPolyline
 62
7
  6
CONTINUOUS
 90
14
 70
0
 10
4.7541196888
 20
4.7146990301
 10
4.8125456204
 20
4.7156929299
 10
4.8684543731
 20
4.7166868297
 10
4.9212213425
 20
4.7176807296
 10
4.970257024
 20
4.7186746294
 10
5.0150135983
 20
4.7196685292
 10
5.0549910514
 20
4.7206624291
 10
5.0897427613
 20
4.7216563289
 10
5.118880487
 20
4.7226502287
 10
5.1420787061
 20
4.7236441286
 10
5.1590782517
 20
4.7246380284
 10
5.1696892073
 20
4.7256319282
 10
5.1737930289
 20
4.7266258281
 10
5.1738453992
 20
4.7267514201
  0
LWPOLYLINE
  5
63E
100
AcDbEntity
  8
0
100
AcDbPolyline
 62
7
  6
CONTINUOUS
 90
13
 70
0
 10
4.7482619292
 20
4.7662745072
 10
4.8070355717
 20
4.7672707399
 10
4.8633420622
 20
4.7682669727
 10
4.9165493992
 20
4.7692632054
 10
4.966060367
 20
4.7702594382
 10
5.0113192392
 20
4.7712556709
 10
5.0518180162
 20
4.7722519037
 10
5.0871021272
 20
4.7732481364
 10
5.1167755324
 20
4.7742443692
 10
5.1405051682
 20
4.7752406019
 10
5.158024686
 20
4.7762368347
 10
5.1691374413
 20
4.7772330674
 10
5.1736196411
 20
4.7781638818
  0
LINE
  5
63F
100
AcDbEntity
  8
0
100
AcDbLine
 62
7
  6
CONTINUOUS
 10
4.6432275519
 20
4.7055043094
 11
4.7648367999
 21
4.7074967749
  0
LWPOLYLINE
  5
640
100
AcDbEntity
  8
0
100
AcDbPolyline
 62
7
  6
CONTINUOUS
 90
3
 70
0
 10
4.39804482
 20
4.7015193784
 10
4.5191112782
 20
4.7035118439
 10
4.6432275519
 20
4.7055043094
  0
LWPOLYLINE
  5
641
100
AcDbEntity
  8
0
100
AcDbPolyline
 62
7
  6
CONTINUOUS
 90
3
 70
0
 10
4.388289178
 20
4.7087356311
 10
4.5085658327
 20
4.7107234307
 10
4.6323480215
 20
4.7127112304
  0
LINE
  5
642
100
AcDbEntity
  8
0
100
AcDbLine
 62
7
  6
CONTINUOUS
 10
4.6323480215
 20
4.7127112304
 11
4.7541196888
 21
4.7146990301
  0
LWPOLYLINE
  5
643
100
AcDbEntity
  8
0
100
AcDbPolyline
 62
7
  6
CONTINUOUS
 90
3
 70
0
 10
4.4410245863
 20
4.7612933434
 10
4.5638288299
 20
4.7632858089
 10
4.7482619292
 20
4.7662745072
  0
LINE
  5
644
100
AcDbEntity
  8
0
100
AcDbLine
 62
7
  6
CONTINUOUS
 10
5.1736196411
 20
4.372681478
 11
5.1384724223
 21
4.3929820458
  0
LINE
  5
645
100
AcDbEntity
  8
0
100
AcDbLine
 62
7
  6
CONTINUOUS
 10
5.1736196411
 20
4.4317365961
 11
5.1384724223
 21
4.4520371639
  0
LINE
  5
646
100
AcDbEntity
  8
0
100
AcDbLine
 62
7
  6
CONTINUOUS
 10
5.1738453992
 20
4.0771451209
 11
5.1736196411
 21
4.0774058875
  0
LINE
  5
647
100
AcDbEntity
  8
0
100
AcDbLine
 62
7
  6
CONTINUOUS
 10
5.1738453992
 20
4.136200239
 11
5.1736196411
 21
4.1364610056
  0
LINE
  5
648
100
AcDbEntity
  8
0
100
AcDbLine
 62
7
  6
CONTINUOUS
 10
4.7909713834
 20
3.4223374342
 11
4.7909713834
 21
3.3829673554
  0
LINE
  5
649
100
AcDbEntity
  8
0
100
AcDbLine
 62
7
  6
CONTINUOUS
 10
4.8096436553
 20
3.8534397964
 11
4.8096436553
 21
3.8160382216
  0
LINE
  5
64A
100
AcDbEntity
  8
0
100
AcDbLine
 62
7
  6
CONTINUOUS
 10
4.0362903762
 20
4.1274074936
 11
4.0008428108
 21
4.1069334465
  0
LINE
  5
64B
100
AcDbEntity
  8
0
100
AcDbLine
 62
7
  6
CONTINUOUS
 10
5.1381720756
 20
4.7576898347
 11
5.1736196411
 21
4.7781638818
  0
LINE
  5
64C
100
AcDbEntity
  8
0
100
AcDbLine
 62
7
  6
CONTINUOUS
 10
4.0362903762
 20
4.0683523755
 11
4.0008428108
 21
4.0478783284
  0
LWPOLYLINE
  5
64D
100
AcDbEntity
  8
0
100
AcDbPolyline
 62
7
  6
CONTINUOUS
 90
11
 70
0
 10
4.0006170527
 20
4.2174010264
 10
4.0030294857
 20
4.2182537199
 10
4.0119629613
 20
4.2192525895
 10
4.0273876198
 20
4.2202514591
 10
4.0491294131
 20
4.2212503286
 10
4.0769430123
 20
4.2222491982
 10
4.1105145757
 20
4.2232480678
 10
4.1494652902
 20
4.2242469374
 10
4.1933556457
 20
4.2252458069
 10
4.2416903945
 20
4.2262446765
 10
4.2939241393
 20
4.2272435461
  0
LINE
  5
64E
100
AcDbEntity
  8
0
100
AcDbLine
 62
7
  6
CONTINUOUS
 10
5.1724994773
 20
4.6596776029
 11
5.1736196411
 21
4.6600536456
  0
LWPOLYLINE
  5
64F
100
AcDbEntity
  8
0
100
AcDbPolyline
 62
7
  6
CONTINUOUS
 90
13
 70
0
 10
4.0360501236
 20
4.2559988516
 10
4.0390321747
 20
4.2569769871
 10
4.0480190547
 20
4.2579611372
 10
4.0629042908
 20
4.2589448369
 10
4.0835763341
 20
4.2599305777
 10
4.1097088829
 20
4.260913781
 10
4.1410783721
 20
4.2618974559
 10
4.1772992803
 20
4.26288034
 10
4.2180751064
 20
4.2638649714
 10
4.2628210024
 20
4.2648479661
 10
4.3111920395
 20
4.265832535
 10
4.362505734
 20
4.2668155422
 10
4.416274558
 20
4.2677985351
  0
LWPOLYLINE
  5
650
100
AcDbEntity
  8
0
100
AcDbPolyline
 62
7
  6
CONTINUOUS
 90
13
 70
0
 10
4.0360501236
 20
4.3150539635
 10
4.0390561055
 20
4.3160360256
 10
4.0480686511
 20
4.3170203316
 10
4.0629881231
 20
4.3180045879
 10
4.0837966712
 20
4.3189949349
 10
4.1102152709
 20
4.319986162
 10
4.1417751977
 20
4.3209727802
 10
4.1780472268
 20
4.3219545162
 10
4.218862878
 20
4.3229381638
 10
4.2636315672
 20
4.3239201699
 10
4.3120104794
 20
4.3249037692
 10
4.3633226794
 20
4.3258859112
 10
4.4171645181
 20
4.3268696119
  0
LWPOLYLINE
  5
651
100
AcDbEntity
  8
0
100
AcDbPolyline
 62
7
  6
CONTINUOUS
 90
13
 70
0
 10
5.1384123283
 20
4.6290984769
 10
5.1354072561
 20
4.6281165696
 10
5.126409193
 20
4.6271333791
 10
5.1115336996
 20
4.6261511389
 10
5.0909227098
 20
4.625168287
 10
5.0648156307
 20
4.6241856668
 10
5.0334437116
 20
4.6232016044
 10
4.9972626575
 20
4.6222195265
 10
4.9565392972
 20
4.6212358469
 10
4.9118519929
 20
4.620253804
 10
4.8635443677
 20
4.6192701915
 10
4.8123006379
 20
4.6182882099
 10
4.7583959587
 20
4.6173025255
  0
LWPOLYLINE
  5
652
100
AcDbEntity
  8
0
100
AcDbPolyline
 62
7
  6
CONTINUOUS
 90
13
 70
0
 10
5.1384123283
 20
4.688153595
 10
5.1353982575
 20
4.6871702173
 10
5.1263911819
 20
4.686187018
 10
5.1115221572
 20
4.685205619
 10
5.0908076055
 20
4.6842185743
 10
5.0644548539
 20
4.6832284756
 10
5.0328937977
 20
4.6822407674
 10
4.9966056158
 20
4.6812578956
 10
4.9556917077
 20
4.680271513
 10
4.9107311033
 20
4.6792852929
 10
4.8624231593
 20
4.6783032283
 10
4.8111429444
 20
4.6773217126
 10
4.7573144849
 20
4.6763382494
  0
LWPOLYLINE
  5
653
100
AcDbEntity
  8
0
100
AcDbPolyline
 62
7
  6
CONTINUOUS
 90
13
 70
0
 10
4.0008428108
 20
4.2840988009
 10
4.002389775
 20
4.2845689144
 10
4.0105232649
 20
4.285567784
 10
4.0251641828
 20
4.2865666536
 10
4.0461473242
 20
4.2875655232
 10
4.0732359207
 20
4.2885643927
 10
4.1061243112
 20
4.2895632623
 10
4.1444413915
 20
4.2905621319
 10
4.1877548013
 20
4.2915610014
 10
4.2355758028
 20
4.292559871
 10
4.2873647959
 20
4.2935587406
 10
4.3425374065
 20
4.2945576102
 10
4.4004710809
 20
4.2955564797
  0
LWPOLYLINE
  5
654
100
AcDbEntity
  8
0
100
AcDbPolyline
 62
7
  6
CONTINUOUS
 90
13
 70
0
 10
4.0008428108
 20
4.6384295095
 10
4.0038938359
 20
4.6391626428
 10
4.0136875777
 20
4.6401565426
 10
4.0298888639
 20
4.6411504424
 10
4.0523166961
 20
4.6421443423
 10
4.080720514
 20
4.6431382421
 10
4.1147829943
 20
4.6441321419
 10
4.154123596
 20
4.6451260418
 10
4.1983028117
 20
4.6461199416
 10
4.2468270779
 20
4.6471138414
 10
4.2991542887
 20
4.6481077413
 10
4.3546998522
 20
4.6491016411
 10
4.4128432216
 20
4.6500955409
  0
LWPOLYLINE
  5
655
100
AcDbEntity
  8
0
100
AcDbPolyline
 62
7
  6
CONTINUOUS
 90
12
 70
0
 10
4.0017292832
 20
4.6978027329
 10
4.008810845
 20
4.6987966327
 10
4.0223544332
 20
4.6997905326
 10
4.0422087411
 20
4.7007844324
 10
4.0681519591
 20
4.7017783322
 10
4.0998942536
 20
4.7027722321
 10
4.1370810043
 20
4.7037661319
 10
4.1792967663
 20
4.7047600317
 10
4.2260699116
 20
4.7057539316
 10
4.2768778973
 20
4.7067478314
 10
4.3311531043
 20
4.7077417312
 10
4.388289178
 20
4.7087356311
  0
LWPOLYLINE
  5
656
100
AcDbEntity
  8
0
100
AcDbPolyline
 62
7
  6
CONTINUOUS
 90
13
 70
0
 10
5.492743037
 20
4.8711563318
 10
5.5057537674
 20
4.8720369172
 10
5.5182427803
 20
4.8748865464
 10
5.529745328
 20
4.8798907651
 10
5.5399809885
 20
4.8871063638
 10
5.5486640799
 20
4.8963298906
 10
5.5556745654
 20
4.9071354496
 10
5.5611664178
 20
4.9192367534
 10
5.5652886515
 20
4.9323025631
 10
5.5682313258
 20
4.9461394353
 10
5.5701724855
 20
4.96075561
 10
5.5712260355
 20
4.9761527273
 10
5.5714831944
 20
4.989266568
  0
LINE
  5
657
100
AcDbEntity
  8
0
100
AcDbLine
 62
7
  6
CONTINUOUS
 10
4.0333117014
 20
4.8111049809
 11
4.0568500855
 21
4.8121012137
  0
LWPOLYLINE
  5
658
100
AcDbEntity
  8
0
100
AcDbPolyline
 62
7
  6
CONTINUOUS
 90
13
 70
0
 10
4.4170268603
 20
4.7885494466
 10
4.3631650113
 20
4.7875652712
 10
4.3118666606
 20
4.786583241
 10
4.2634645038
 20
4.7855989528
 10
4.218412259
 20
4.7846101314
 10
4.1774698627
 20
4.783622111
 10
4.1412020445
 20
4.7826384671
 10
4.1096977828
 20
4.7816508227
 10
4.0834276155
 20
4.7806617509
 10
4.0628033839
 20
4.7796766718
 10
4.0479732982
 20
4.7786947897
 10
4.0390105128
 20
4.7777108454
 10
4.0362903762
 20
4.7770137929
  0
LWPOLYLINE
  5
659
100
AcDbEntity
  8
0
100
AcDbPolyline
 62
7
  6
CONTINUOUS
 90
8
 70
0
 10
4.757965284
 20
4.8052187973
 10
4.8117024069
 20
4.8062010341
 10
4.8630259933
 20
4.8071839754
 10
4.9114061027
 20
4.8081683958
 10
4.9561667008
 20
4.8091512881
 10
4.9969595447
 20
4.8101357923
 10
5.0331982759
 20
4.8111184754
 10
5.0645680627
 20
4.8121012137
  0
LWPOLYLINE
  5
65A
100
AcDbEntity
  8
0
100
AcDbPolyline
 62
7
  6
CONTINUOUS
 90
13
 70
0
 10
4.7884175491
 20
4.77433302
 10
4.8454551455
 20
4.7753269199
 10
4.8996079026
 20
4.7763208197
 10
4.9502708339
 20
4.7773147195
 10
4.9968779407
 20
4.7783086194
 10
5.0389085353
 20
4.7793025192
 10
5.0758930581
 20
4.780296419
 10
5.1074183236
 20
4.7812903189
 10
5.133132136
 20
4.7822842187
 10
5.1527472247
 20
4.7832781185
 10
5.1660444527
 20
4.7842720184
 10
5.1728752653
 20
4.7852659182
 10
5.1738453992
 20
4.7858065382
  0
LINE
  5
65B
100
AcDbEntity
  8
0
100
AcDbLine
 62
7
  6
CONTINUOUS
 10
4.7570112317
 20
4.7944430496
 11
4.644655511
 21
4.7924810489
  0
LINE
  5
65C
100
AcDbEntity
  8
0
100
AcDbLine
 62
7
  6
CONTINUOUS
 10
4.416339787
 20
4.7992957681
 11
4.5295661485
 21
4.8012735682
  0
LWPOLYLINE
  5
65D
100
AcDbEntity
  8
0
100
AcDbPolyline
 62
7
  6
CONTINUOUS
 90
3
 70
0
 10
4.644655511
 20
4.7924810489
 10
4.5296584452
 20
4.7905165084
 10
4.4170268603
 20
4.7885494466
  0
LWPOLYLINE
  5
65E
100
AcDbEntity
  8
0
100
AcDbPolyline
 62
7
  6
CONTINUOUS
 90
3
 70
0
 10
4.5295661485
 20
4.8012735682
 10
4.6449038141
 20
4.8032439486
 10
4.757965284
 20
4.8052187973
  0
LINE
  5
65F
100
AcDbEntity
  8
0
100
AcDbLine
 62
7
  6
CONTINUOUS
 10
4.6682618108
 20
4.7723452204
 11
4.7884175491
 21
4.77433302
  0
LWPOLYLINE
  5
660
100
AcDbEntity
  8
0
100
AcDbPolyline
 62
7
  6
CONTINUOUS
 90
3
 70
0
 10
4.422632899
 20
4.768369621
 10
4.5444951395
 20
4.7703574207
 10
4.6682618108
 20
4.7723452204
  0
LINE
  5
661
100
AcDbEntity
  8
0
100
AcDbLine
 62
7
  6
CONTINUOUS
 10
5.0645680627
 20
4.8121012137
 11
4.0006190674
 21
4.8121012137
  0
LINE
  5
662
100
AcDbEntity
  8
0
100
AcDbLine
 62
9
  6
CONTINUOUS
 10
4.0360501236
 20
4.8317862531
 11
5.1384123283
 21
4.8317862531
  0
LINE
  5
663
100
AcDbEntity
  8
0
100
AcDbLine
 62
7
  6
CONTINUOUS
 10
3.6817213305
 20
4.8711563318
 11
5.4927411213
 21
4.8711563318
  0
LINE
  5
664
100
AcDbEntity
  8
0
100
AcDbLine
 62
7
  6
CONTINUOUS
 10
5.1736196411
 20
4.4907917142
 11
5.1384724223
 21
4.511092282
  0
LINE
  5
665
100
AcDbEntity
  8
0
100
AcDbLine
 62
7
  6
CONTINUOUS
 10
5.1736196411
 20
4.5498468323
 11
5.1384724223
 21
4.5701474001
  0
LINE
  5
666
100
AcDbEntity
  8
0
100
AcDbLine
 62
7
  6
CONTINUOUS
 10
5.1738453992
 20
4.1952553571
 11
5.1736196411
 21
4.1955161237
  0
LINE
  5
667
100
AcDbEntity
  8
0
100
AcDbLine
 62
7
  6
CONTINUOUS
 10
5.1738453992
 20
4.2543104752
 11
5.1736196411
 21
4.2545712418
  0
LINE
  5
668
100
AcDbEntity
  8
0
100
AcDbLine
 62
7
  6
CONTINUOUS
 10
5.1738453992
 20
4.3133655933
 11
5.1736196411
 21
4.3136263599
  0
LINE
  5
669
100
AcDbEntity
  8
0
100
AcDbLine
 62
7
  6
CONTINUOUS
 10
4.8210894936
 20
3.9144634184
 11
4.8210894936
 21
3.8160382216
  0
LINE
  5
66A
100
AcDbEntity
  8
02___PRT_ALL_AXES
100
AcDbLine
 62
7
  6
CONTINUOUS
 10
4.8210894936
 20
3.9144634184
 11
4.8210894936
 21
3.8160382216
  0
LINE
  5
66B
100
AcDbEntity
  8
0
100
AcDbLine
 62
7
  6
CONTINUOUS
 10
4.8210894936
 20
3.7786366468
 11
4.8210894936
 21
3.7766681428
  0
LINE
  5
66C
100
AcDbEntity
  8
02___PRT_ALL_AXES
100
AcDbLine
 62
7
  6
CONTINUOUS
 10
4.8210894936
 20
3.7786366468
 11
4.8210894936
 21
3.7766681428
  0
LINE
  5
66D
100
AcDbEntity
  8
0
100
AcDbLine
 62
7
  6
CONTINUOUS
 10
4.8210894936
 20
3.739266568
 11
4.8210894936
 21
3.7372980641
  0
LINE
  5
66E
100
AcDbEntity
  8
02___PRT_ALL_AXES
100
AcDbLine
 62
7
  6
CONTINUOUS
 10
4.8210894936
 20
3.739266568
 11
4.8210894936
 21
3.7372980641
  0
LINE
  5
66F
100
AcDbEntity
  8
0
100
AcDbLine
 62
7
  6
CONTINUOUS
 10
4.8210894936
 20
3.6998964893
 11
4.8210894936
 21
3.6979279854
  0
LINE
  5
670
100
AcDbEntity
  8
02___PRT_ALL_AXES
100
AcDbLine
 62
7
  6
CONTINUOUS
 10
4.8210894936
 20
3.6998964893
 11
4.8210894936
 21
3.6979279854
  0
LINE
  5
671
100
AcDbEntity
  8
0
100
AcDbLine
 62
7
  6
CONTINUOUS
 10
4.8210894936
 20
3.6605264106
 11
4.8210894936
 21
3.6585579066
  0
LINE
  5
672
100
AcDbEntity
  8
02___PRT_ALL_AXES
100
AcDbLine
 62
7
  6
CONTINUOUS
 10
4.8210894936
 20
3.6605264106
 11
4.8210894936
 21
3.6585579066
  0
LINE
  5
673
100
AcDbEntity
  8
0
100
AcDbLine
 62
7
  6
CONTINUOUS
 10
4.8210894936
 20
3.6211563318
 11
4.8210894936
 21
3.6191878279
  0
LINE
  5
674
100
AcDbEntity
  8
02___PRT_ALL_AXES
100
AcDbLine
 62
7
  6
CONTINUOUS
 10
4.8210894936
 20
3.6211563318
 11
4.8210894936
 21
3.6191878279
  0
LINE
  5
675
100
AcDbEntity
  8
0
100
AcDbLine
 62
7
  6
CONTINUOUS
 10
4.8210894936
 20
3.5817862531
 11
4.8210894936
 21
3.5798177491
  0
LINE
  5
676
100
AcDbEntity
  8
02___PRT_ALL_AXES
100
AcDbLine
 62
7
  6
CONTINUOUS
 10
4.8210894936
 20
3.5817862531
 11
4.8210894936
 21
3.5798177491
  0
LINE
  5
677
100
AcDbEntity
  8
0
100
AcDbLine
 62
7
  6
CONTINUOUS
 10
4.8210894936
 20
3.5424161743
 11
4.8210894936
 21
3.5404476704
  0
LINE
  5
678
100
AcDbEntity
  8
02___PRT_ALL_AXES
100
AcDbLine
 62
7
  6
CONTINUOUS
 10
4.8210894936
 20
3.5424161743
 11
4.8210894936
 21
3.5404476704
  0
LINE
  5
679
100
AcDbEntity
  8
0
100
AcDbLine
 62
7
  6
CONTINUOUS
 10
4.8210894936
 20
3.5030460956
 11
4.8210894936
 21
3.5010775917
  0
LINE
  5
67A
100
AcDbEntity
  8
02___PRT_ALL_AXES
100
AcDbLine
 62
7
  6
CONTINUOUS
 10
4.8210894936
 20
3.5030460956
 11
4.8210894936
 21
3.5010775917
  0
LINE
  5
67B
100
AcDbEntity
  8
0
100
AcDbLine
 62
7
  6
CONTINUOUS
 10
4.8210894936
 20
3.4636760168
 11
4.8210894936
 21
3.4617075129
  0
LINE
  5
67C
100
AcDbEntity
  8
02___PRT_ALL_AXES
100
AcDbLine
 62
7
  6
CONTINUOUS
 10
4.8210894936
 20
3.4636760168
 11
4.8210894936
 21
3.4617075129
  0
LINE
  5
67D
100
AcDbEntity
  8
0
100
AcDbLine
 62
7
  6
CONTINUOUS
 10
4.3535275871
 20
3.7985495599
 11
4.3533729582
 21
3.7983216861
  0
LINE
  5
67E
100
AcDbEntity
  8
0
100
AcDbLine
 62
7
  6
CONTINUOUS
 10
4.3535275871
 20
3.7591794812
 11
4.3533729582
 21
3.7589516074
  0
LINE
  5
67F
100
AcDbEntity
  8
0
100
AcDbLine
 62
7
  6
CONTINUOUS
 10
4.3535275871
 20
3.7198094024
 11
4.3533729582
 21
3.7195815287
  0
LINE
  5
680
100
AcDbEntity
  8
0
100
AcDbLine
 62
7
  6
CONTINUOUS
 10
5.1381720756
 20
4.6986347166
 11
5.1736196411
 21
4.7191087637
  0
LINE
  5
681
100
AcDbEntity
  8
0
100
AcDbLine
 62
7
  6
CONTINUOUS
 10
5.1381720756
 20
4.6395795985
 11
5.1736196411
 21
4.6600536456
  0
LINE
  5
682
100
AcDbEntity
  8
0
100
AcDbLine
 62
7
  6
CONTINUOUS
 10
5.1381720756
 20
4.5805244804
 11
5.1736196411
 21
4.6009985275
  0
LINE
  5
683
100
AcDbEntity
  8
0
100
AcDbLine
 62
7
  6
CONTINUOUS
 10
5.1732070133
 20
4.600820766
 11
5.1736196411
 21
4.6009985275
  0
LWPOLYLINE
  5
684
100
AcDbEntity
  8
0
100
AcDbPolyline
 62
7
  6
CONTINUOUS
 90
13
 70
0
 10
5.1384123283
 20
4.5109882319
 10
5.1354472073
 20
4.5100128881
 10
5.1264875652
 20
4.5090295921
 10
5.1116351304
 20
4.508046515
 10
5.0910247823
 20
4.5070623393
 10
5.0649345992
 20
4.5060794958
 10
5.0335741555
 20
4.5050951584
 10
4.9974089698
 20
4.5041130246
 10
4.9566780531
 20
4.5031287986
 10
4.91166205
 20
4.5021395606
 10
4.8630644708
 20
4.5011505004
 10
4.8116853212
 20
4.5001664823
 10
4.7577109603
 20
4.4991800036
  0
LWPOLYLINE
  5
685
100
AcDbEntity
  8
0
100
AcDbPolyline
 62
7
  6
CONTINUOUS
 90
11
 70
0
 10
4.0360501236
 20
4.1969437333
 10
4.0390394514
 20
4.1979230627
 10
4.0480174951
 20
4.1989058908
 10
4.0628531825
 20
4.199886891
 10
4.0834378193
 20
4.200869641
 10
4.1096479703
 20
4.2018565827
 10
4.1410877075
 20
4.2028426089
 10
4.177299378
 20
4.2038252244
 10
4.2182001107
 20
4.2048127234
 10
4.2632348656
 20
4.2058015745
 10
4.3116406747
 20
4.2067862531
  0
LWPOLYLINE
  5
686
100
AcDbEntity
  8
0
100
AcDbPolyline
 62
7
  6
CONTINUOUS
 90
13
 70
0
 10
5.1384123283
 20
4.5700433628
 10
5.1353510289
 20
4.5690522995
 10
5.1262738876
 20
4.5680671755
 10
5.1113054417
 20
4.5670834286
 10
5.090490472
 20
4.5660950571
 10
5.0641333813
 20
4.5651072945
 10
5.0326962431
 20
4.5641248084
 10
4.9964296541
 20
4.5631431794
 10
4.9556180325
 20
4.5621595877
 10
4.9108537336
 20
4.5611776397
 10
4.8624792907
 20
4.5601940968
 10
4.8111741632
 20
4.5592120589
 10
4.7573992124
 20
4.5582295321
  0
LWPOLYLINE
  5
687
100
AcDbEntity
  8
0
100
AcDbPolyline
 62
7
  6
CONTINUOUS
 90
13
 70
0
 10
4.0360501236
 20
4.1378886194
 10
4.0391440863
 20
4.1388849526
 10
4.0482329762
 20
4.1398684239
 10
4.0632080262
 20
4.1408513528
 10
4.0839340172
 20
4.1418353294
 10
4.1101337959
 20
4.1428180339
 10
4.1415942671
 20
4.1438021851
 10
4.1778730382
 20
4.1447847273
 10
4.2186856511
 20
4.145768746
 10
4.263464431
 20
4.1467512944
 10
4.3118707947
 20
4.1477356655
 10
4.3632074794
 20
4.148718407
 10
4.4170606943
 20
4.1497023963
  0
LWPOLYLINE
  5
688
100
AcDbEntity
  8
0
100
AcDbPolyline
 62
7
  6
CONTINUOUS
 90
13
 70
0
 10
4.0006170527
 20
4.1583459083
 10
4.0037673239
 20
4.1593204152
 10
4.0134992848
 20
4.1603192847
 10
4.029705093
 20
4.1613181543
 10
4.0522018863
 20
4.1623170239
 10
4.0807358164
 20
4.1633158935
 10
4.1149849136
 20
4.164314763
 10
4.1545627198
 20
4.1653136326
 10
4.1990226489
 20
4.1663125022
 10
4.2478630262
 20
4.1673113718
 10
4.3005327492
 20
4.1683102413
 10
4.3564375058
 20
4.1693091109
 10
4.4149464809
 20
4.1703079805
  0
LWPOLYLINE
  5
689
100
AcDbEntity
  8
0
100
AcDbPolyline
 62
7
  6
CONTINUOUS
 90
13
 70
0
 10
4.0008428108
 20
4.7565397457
 10
4.0050617572
 20
4.7574367229
 10
4.015921244
 20
4.7584306227
 10
4.033163321
 20
4.7594245226
 10
4.0565953622
 20
4.7604184224
 10
4.0859555885
 20
4.7614123222
 10
4.1209159917
 20
4.762406222
 10
4.1610859994
 20
4.7634001219
 10
4.2060168382
 20
4.7643940217
 10
4.2552065475
 20
4.7653879215
 10
4.3081055872
 20
4.7663818214
 10
4.364122977
 20
4.7673757212
 10
4.422632899
 20
4.768369621
  0
LINE
  5
68A
100
AcDbEntity
  8
0
100
AcDbLine
 62
7
  6
CONTINUOUS
 10
5.1736196411
 20
4.6089019505
 11
5.1384724223
 21
4.6292025182
  0
LINE
  5
68B
100
AcDbEntity
  8
0
100
AcDbLine
 62
7
  6
CONTINUOUS
 10
5.1736196411
 20
4.6679570686
 11
5.1384724223
 21
4.6882576363
  0
LINE
  5
68C
100
AcDbEntity
  8
0
100
AcDbLine
 62
7
  6
CONTINUOUS
 10
5.1738453992
 20
4.3724207114
 11
5.1736196411
 21
4.372681478
  0
LINE
  5
68D
100
AcDbEntity
  8
0
100
AcDbLine
 62
7
  6
CONTINUOUS
 10
5.1738453992
 20
4.4314758295
 11
5.1736196411
 21
4.4317365961
  0
LINE
  5
68E
100
AcDbEntity
  8
0
100
AcDbLine
 62
7
  6
CONTINUOUS
 10
4.3535275871
 20
3.6804393237
 11
4.3533729582
 21
3.6802114499
  0
LINE
  5
68F
100
AcDbEntity
  8
0
100
AcDbLine
 62
7
  6
CONTINUOUS
 10
4.3535275871
 20
3.641069245
 11
4.3533729582
 21
3.6408413712
  0
LINE
  5
690
100
AcDbEntity
  8
0
100
AcDbLine
 62
7
  6
CONTINUOUS
 10
4.3535275871
 20
3.6016991662
 11
4.3533729582
 21
3.6014712924
  0
LINE
  5
691
100
AcDbEntity
  8
0
100
AcDbLine
 62
7
  6
CONTINUOUS
 10
4.3535275871
 20
3.5623290875
 11
4.3533729582
 21
3.5621012137
  0
LINE
  5
692
100
AcDbEntity
  8
0
100
AcDbLine
 62
7
  6
CONTINUOUS
 10
4.3535275871
 20
3.5229590087
 11
4.3533729582
 21
3.522731135
  0
LINE
  5
693
100
AcDbEntity
  8
0
100
AcDbLine
 62
7
  6
CONTINUOUS
 10
5.1736196411
 20
4.7781638818
 11
5.1738453992
 21
4.7784246484
  0
LINE
  5
694
100
AcDbEntity
  8
0
100
AcDbLine
 62
7
  6
CONTINUOUS
 10
5.1736196411
 20
4.7191087637
 11
5.1738453992
 21
4.7193695303
  0
LINE
  5
695
100
AcDbEntity
  8
0
100
AcDbLine
 62
7
  6
CONTINUOUS
 10
5.1736196411
 20
4.6600536456
 11
5.1738453992
 21
4.6603144122
  0
LINE
  5
696
100
AcDbEntity
  8
0
100
AcDbLine
 62
7
  6
CONTINUOUS
 10
5.1381720756
 20
4.5214693623
 11
5.1736196411
 21
4.5419434094
  0
LINE
  5
697
100
AcDbEntity
  8
0
100
AcDbLine
 62
7
  6
CONTINUOUS
 10
5.1381720756
 20
4.4624142442
 11
5.1736196411
 21
4.4828882913
  0
LWPOLYLINE
  5
698
100
AcDbEntity
  8
0
100
AcDbPolyline
 62
7
  6
CONTINUOUS
 90
13
 70
0
 10
4.0360501236
 20
4.0197783708
 10
4.039054692
 20
4.020760204
 10
4.0480893948
 20
4.0217464435
 10
4.063019527
 20
4.022730731
 10
4.0837926398
 20
4.0237191755
 10
4.1100979968
 20
4.0247065784
 10
4.1414982005
 20
4.0256891646
 10
4.1777580625
 20
4.0266715627
 10
4.2185719321
 20
4.0276559016
 10
4.2633477978
 20
4.0286386004
 10
4.3117416694
 20
4.0296228872
 10
4.3630733323
 20
4.030605667
 10
4.4168595465
 20
4.0315885537
  0
LWPOLYLINE
  5
699
100
AcDbEntity
  8
0
100
AcDbPolyline
 62
7
  6
CONTINUOUS
 90
13
 70
0
 10
5.1384123283
 20
4.3928780044
 10
5.1353957199
 20
4.3918942125
 10
5.1263861595
 20
4.3909110152
 10
5.1115138457
 20
4.3899295691
 10
5.0909014346
 20
4.3889469212
 10
5.0646662327
 20
4.3879600937
 10
5.0331960404
 20
4.3869739415
 10
4.9969459914
 20
4.3859909776
 10
4.9559930986
 20
4.3850028352
 10
4.9108937322
 20
4.384013128
 10
4.8624074352
 20
4.3830273283
 10
4.811142417
 20
4.3820461122
 10
4.7573143357
 20
4.3810626561
  0
LWPOLYLINE
  5
69A
100
AcDbEntity
  8
0
100
AcDbPolyline
 62
7
  6
CONTINUOUS
 90
13
 70
0
 10
4.0360501236
 20
4.078833499
 10
4.0390736869
 20
4.0798184236
 10
4.0480855269
 20
4.0808012443
 10
4.0629783117
 20
4.0817835736
 10
4.0836178095
 20
4.0827669641
 10
4.1097269511
 20
4.0837490436
 10
4.1410956867
 20
4.0847326044
 10
4.1772554309
 20
4.085713867
 10
4.2180360848
 20
4.0866987209
 10
4.263089495
 20
4.0876882738
 10
4.3116983051
 20
4.0886771516
 10
4.3630580915
 20
4.0896605006
 10
4.4169810201
 20
4.0906458497
  0
LWPOLYLINE
  5
69B
100
AcDbEntity
  8
0
100
AcDbPolyline
 62
7
  6
CONTINUOUS
 90
13
 70
0
 10
5.1384123283
 20
4.4519331174
 10
5.1352942013
 20
4.4509328983
 10
5.1261776137
 20
4.4499490887
 10
5.1111845389
 20
4.4489665435
 10
5.0904435482
 20
4.4479828594
 10
5.06423443
 20
4.4470004962
 10
5.0327680755
 20
4.4460166525
 10
4.996486783
 20
4.4450343974
 10
4.9556649911
 20
4.444050428
 10
4.9108894623
 20
4.4430681562
 10
4.8625071602
 20
4.4420844091
 10
4.8111862164
 20
4.4411020477
 10
4.7573483797
 20
4.4401183846
  0
LINE
  5
69C
100
AcDbEntity
  8
0
100
AcDbLine
 62
9
  6
CONTINUOUS
 10
3.6029792574
 20
4.989266568
 11
5.5714831944
 21
4.989266568
  0
LINE
  5
69D
100
AcDbEntity
  8
0
100
AcDbLine
 62
7
  6
CONTINUOUS
 10
5.1736196411
 20
4.7270121867
 11
5.1384724223
 21
4.7473127544
  0
LINE
  5
69E
100
AcDbEntity
  8
0
100
AcDbLine
 62
7
  6
CONTINUOUS
 10
5.1736196411
 20
4.7860673048
 11
5.1384724223
 21
4.8063678725
  0
LINE
  5
69F
100
AcDbEntity
  8
0
100
AcDbLine
 62
7
  6
CONTINUOUS
 10
5.1738453992
 20
4.4905309476
 11
5.1736196411
 21
4.4907917142
  0
LINE
  5
6A0
100
AcDbEntity
  8
0
100
AcDbLine
 62
7
  6
CONTINUOUS
 10
5.1738453992
 20
4.5495860658
 11
5.1736196411
 21
4.5498468323
  0
LINE
  5
6A1
100
AcDbEntity
  8
0
100
AcDbLine
 62
7
  6
CONTINUOUS
 10
5.1738453992
 20
4.6086411839
 11
5.1736196411
 21
4.6089019505
  0
LINE
  5
6A2
100
AcDbEntity
  8
0
100
AcDbLine
 62
7
  6
CONTINUOUS
 10
4.3535275871
 20
3.48358893
 11
4.3533729582
 21
3.4833610562
  0
LINE
  5
6A3
100
AcDbEntity
  8
0
100
AcDbLine
 62
7
  6
CONTINUOUS
 10
4.3533729582
 20
3.4439909724
 11
4.3535275871
 21
3.4442188513
  0
LINE
  5
6A4
100
AcDbEntity
  8
0
100
AcDbLine
 62
7
  6
CONTINUOUS
 10
5.1736196411
 20
4.6009985275
 11
5.1738453992
 21
4.6012592941
  0
LINE
  5
6A5
100
AcDbEntity
  8
0
100
AcDbLine
 62
7
  6
CONTINUOUS
 10
5.1736196411
 20
4.5419434094
 11
5.1738453992
 21
4.542204176
  0
LINE
  5
6A6
100
AcDbEntity
  8
0
100
AcDbLine
 62
7
  6
CONTINUOUS
 10
4.3789400794
 20
3.8172780762
 11
4.3535275871
 21
3.7985495599
  0
LINE
  5
6A7
100
AcDbEntity
  8
0
100
AcDbLine
 62
7
  6
CONTINUOUS
 10
5.1381720756
 20
4.4033591261
 11
5.1736196411
 21
4.4238331732
  0
LINE
  5
6A8
100
AcDbEntity
  8
0
100
AcDbLine
 62
7
  6
CONTINUOUS
 10
5.1381720756
 20
4.3443040079
 11
5.1736196411
 21
4.3647780551
  0
LWPOLYLINE
  5
6A9
100
AcDbEntity
  8
0
100
AcDbPolyline
 62
7
  6
CONTINUOUS
 90
13
 70
0
 10
5.1384123283
 20
4.3338228875
 10
5.135381427
 20
4.3328367644
 10
5.1263121813
 20
4.3318498342
 10
5.1113708589
 20
4.3308665597
 10
5.0906406017
 20
4.3298808666
 10
5.0644557326
 20
4.3288977969
 10
5.033073216
 20
4.3279152603
 10
4.9968382008
 20
4.3269331121
 10
4.9560567518
 20
4.3259491776
 10
4.9113148443
 20
4.3249668846
 10
4.8629558706
 20
4.3239830072
 10
4.8116617935
 20
4.3230006887
 10
4.7579473437
 20
4.3220188883
  0
LWPOLYLINE
  5
6AA
100
AcDbEntity
  8
0
100
AcDbPolyline
 62
7
  6
CONTINUOUS
 90
13
 70
0
 10
5.1384123283
 20
4.2747677786
 10
5.1353407313
 20
4.2737750419
 10
5.1262587672
 20
4.2727903499
 10
5.1112944975
 20
4.2718072355
 10
5.0905804779
 20
4.2708232315
 10
5.0643866312
 20
4.2698403242
 10
5.0329363164
 20
4.2688561729
 10
4.9966651519
 20
4.2678735851
 10
4.9558447555
 20
4.266889196
 10
4.9110626219
 20
4.2659064503
 10
4.8626626433
 20
4.2649221154
 10
4.8113213753
 20
4.2639392159
 10
4.7574253786
 20
4.2629544107
  0
LINE
  5
6AB
100
AcDbEntity
  8
0
100
AcDbLine
 62
7
  6
CONTINUOUS
 10
5.1738453992
 20
4.667696302
 11
5.1736196411
 21
4.6679570686
  0
LINE
  5
6AC
100
AcDbEntity
  8
0
100
AcDbLine
 62
7
  6
CONTINUOUS
 10
5.1738453992
 20
4.7267514201
 11
5.1736196411
 21
4.7270121867
  0
LINE
  5
6AD
100
AcDbEntity
  8
0
100
AcDbLine
 62
7
  6
CONTINUOUS
 10
5.1738453992
 20
4.7858065382
 11
5.1736196411
 21
4.7860673048
  0
LINE
  5
6AE
100
AcDbEntity
  8
02___PRT_ALL_AXES
100
AcDbLine
 62
7
  6
CONTINUOUS
 10
5.1384123283
 20
4.8317862531
 11
5.1384123283
 21
4.8062638312
  0
LINE
  5
6AF
100
AcDbEntity
  8
02___PRT_ALL_AXES
100
AcDbLine
 62
7
  6
CONTINUOUS
 10
5.1384123283
 20
4.7579673554
 11
5.1384123283
 21
4.7472087131
  0
LINE
  5
6B0
100
AcDbEntity
  8
02___PRT_ALL_AXES
100
AcDbLine
 62
7
  6
CONTINUOUS
 10
5.1384123283
 20
4.6989122373
 11
5.1384123283
 21
4.688153595
  0
LINE
  5
6B1
100
AcDbEntity
  8
02___PRT_ALL_AXES
100
AcDbLine
 62
7
  6
CONTINUOUS
 10
5.1384123283
 20
4.6398571192
 11
5.1384123283
 21
4.6290984769
  0
LINE
  5
6B2
100
AcDbEntity
  8
02___PRT_ALL_AXES
100
AcDbLine
 62
7
  6
CONTINUOUS
 10
5.1384123283
 20
4.5808020011
 11
5.1384123283
 21
4.5700433588
  0
LINE
  5
6B3
100
AcDbEntity
  8
02___PRT_ALL_AXES
100
AcDbLine
 62
7
  6
CONTINUOUS
 10
5.1384123283
 20
4.521746883
 11
5.1384123283
 21
4.5109882407
  0
LINE
  5
6B4
100
AcDbEntity
  8
02___PRT_ALL_AXES
100
AcDbLine
 62
7
  6
CONTINUOUS
 10
5.1384123283
 20
4.4626917649
 11
5.1384123283
 21
4.4519331225
  0
LINE
  5
6B5
100
AcDbEntity
  8
02___PRT_ALL_AXES
100
AcDbLine
 62
7
  6
CONTINUOUS
 10
5.1384123283
 20
4.4036366468
 11
5.1384123283
 21
4.3928780044
  0
LINE
  5
6B6
100
AcDbEntity
  8
02___PRT_ALL_AXES
100
AcDbLine
 62
7
  6
CONTINUOUS
 10
5.1384123283
 20
4.3445815287
 11
5.1384123283
 21
4.3338228863
  0
LINE
  5
6B7
100
AcDbEntity
  8
02___PRT_ALL_AXES
100
AcDbLine
 62
7
  6
CONTINUOUS
 10
5.1384123283
 20
4.2855264106
 11
5.1384123283
 21
4.2747677682
  0
LINE
  5
6B8
100
AcDbEntity
  8
02___PRT_ALL_AXES
100
AcDbLine
 62
7
  6
CONTINUOUS
 10
5.1384123283
 20
4.2264712924
 11
5.1384123283
 21
4.2157126501
  0
LINE
  5
6B9
100
AcDbEntity
  8
02___PRT_ALL_AXES
100
AcDbLine
 62
7
  6
CONTINUOUS
 10
5.1384123283
 20
4.1674161743
 11
5.1384123283
 21
4.156657532
  0
LINE
  5
6BA
100
AcDbEntity
  8
02___PRT_ALL_AXES
100
AcDbLine
 62
7
  6
CONTINUOUS
 10
5.1384123283
 20
4.1083610562
 11
5.1384123283
 21
4.0976024139
  0
LINE
  5
6BB
100
AcDbEntity
  8
02___PRT_ALL_AXES
100
AcDbLine
 62
7
  6
CONTINUOUS
 10
5.1384123283
 20
4.0493059381
 11
5.1384123283
 21
4.0050145995
  0
LINE
  5
6BC
100
AcDbEntity
  8
0
100
AcDbLine
 62
7
  6
CONTINUOUS
 10
5.1738453992
 20
4.0697632311
 11
5.1738453992
 21
4.0771451209
  0
LINE
  5
6BD
100
AcDbEntity
  8
0
100
AcDbLine
 62
7
  6
CONTINUOUS
 10
5.1738453992
 20
4.1288183492
 11
5.1738453992
 21
4.136200239
  0
LINE
  5
6BE
100
AcDbEntity
  8
0
100
AcDbLine
 62
7
  6
CONTINUOUS
 10
5.1738453992
 20
4.1878734673
 11
5.1738453992
 21
4.1952553571
  0
LINE
  5
6BF
100
AcDbEntity
  8
0
100
AcDbLine
 62
7
  6
CONTINUOUS
 10
5.1738453992
 20
4.2469285854
 11
5.1738453992
 21
4.2543104752
  0
LINE
  5
6C0
100
AcDbEntity
  8
0
100
AcDbLine
 62
7
  6
CONTINUOUS
 10
5.1738453992
 20
4.3059837036
 11
5.1738453992
 21
4.3133655933
  0
LINE
  5
6C1
100
AcDbEntity
  8
0
100
AcDbLine
 62
7
  6
CONTINUOUS
 10
5.1738453992
 20
4.3650388217
 11
5.1738453992
 21
4.3724207114
  0
LINE
  5
6C2
100
AcDbEntity
  8
0
100
AcDbLine
 62
7
  6
CONTINUOUS
 10
5.1738453992
 20
4.4240939398
 11
5.1738453992
 21
4.4314758295
  0
LINE
  5
6C3
100
AcDbEntity
  8
0
100
AcDbLine
 62
7
  6
CONTINUOUS
 10
5.1738453992
 20
4.4831490579
 11
5.1738453992
 21
4.4905309476
  0
LINE
  5
6C4
100
AcDbEntity
  8
0
100
AcDbLine
 62
7
  6
CONTINUOUS
 10
5.1738453992
 20
4.542204176
 11
5.1738453992
 21
4.5495860658
  0
LINE
  5
6C5
100
AcDbEntity
  8
0
100
AcDbLine
 62
7
  6
CONTINUOUS
 10
5.1738453992
 20
4.6012592941
 11
5.1738453992
 21
4.6086411839
  0
LINE
  5
6C6
100
AcDbEntity
  8
0
100
AcDbLine
 62
7
  6
CONTINUOUS
 10
5.1738453992
 20
4.6603144122
 11
5.1738453992
 21
4.667696302
  0
LINE
  5
6C7
100
AcDbEntity
  8
0
100
AcDbLine
 62
7
  6
CONTINUOUS
 10
5.1738453992
 20
4.7193695303
 11
5.1738453992
 21
4.7267514201
  0
LINE
  5
6C8
100
AcDbEntity
  8
0
100
AcDbLine
 62
7
  6
CONTINUOUS
 10
5.1738453992
 20
4.7784246484
 11
5.1738453992
 21
4.7858065382
  0
LINE
  5
6C9
100
AcDbEntity
  8
0
100
AcDbLine
 62
7
  6
CONTINUOUS
 10
5.1736196411
 20
4.4828882913
 11
5.1738453992
 21
4.4831490579
  0
LINE
  5
6CA
100
AcDbEntity
  8
0
100
AcDbLine
 62
7
  6
CONTINUOUS
 10
5.1736196411
 20
4.4238331732
 11
5.1738453992
 21
4.4240939398
  0
LINE
  5
6CB
100
AcDbEntity
  8
0
100
AcDbLine
 62
7
  6
CONTINUOUS
 10
5.1736196411
 20
4.3647780551
 11
5.1738453992
 21
4.3650388217
  0
LINE
  5
6CC
100
AcDbEntity
  8
0
100
AcDbLine
 62
7
  6
CONTINUOUS
 10
4.3789400794
 20
3.7779079975
 11
4.3535275871
 21
3.7591794812
  0
LINE
  5
6CD
100
AcDbEntity
  8
0
100
AcDbLine
 62
7
  6
CONTINUOUS
 10
4.3789400794
 20
3.7385379188
 11
4.3535275871
 21
3.7198094024
  0
LINE
  5
6CE
100
AcDbEntity
  8
0
100
AcDbLine
 62
7
  6
CONTINUOUS
 10
4.3789400794
 20
3.69916784
 11
4.3535275871
 21
3.6804393237
  0
LINE
  5
6CF
100
AcDbEntity
  8
0
100
AcDbLine
 62
7
  6
CONTINUOUS
 10
5.1381720756
 20
4.2852488898
 11
5.1736196411
 21
4.305722937
  0
LINE
  5
6D0
100
AcDbEntity
  8
0
100
AcDbLine
 62
7
  6
CONTINUOUS
 10
5.1381720756
 20
4.2261937717
 11
5.1736196411
 21
4.2466678189
  0
LINE
  5
6D1
100
AcDbEntity
  8
0
100
AcDbLine
 62
7
  6
CONTINUOUS
 10
5.172710651
 20
4.1872887632
 11
5.1736196411
 21
4.1876127007
  0
LWPOLYLINE
  5
6D2
100
AcDbEntity
  8
0
100
AcDbPolyline
 62
7
  6
CONTINUOUS
 90
13
 70
0
 10
5.1384123283
 20
4.156657532
 10
5.1354169796
 20
4.155677216
 10
5.1264274634
 20
4.1546939358
 10
5.1115612134
 20
4.1537117154
 10
5.0908198111
 20
4.1527230233
 10
5.0644369863
 20
4.1517318037
 10
5.0328528174
 20
4.1507435169
 10
4.9965573772
 20
4.1497606042
 10
4.9556596862
 20
4.1487747159
 10
4.9107459115
 20
4.1477895418
 10
4.8624489847
 20
4.1468076736
 10
4.8111591442
 20
4.1458259519
 10
4.7573270665
 20
4.1448424119
  0
LWPOLYLINE
  5
6D3
100
AcDbEntity
  8
0
100
AcDbPolyline
 62
7
  6
CONTINUOUS
 90
13
 70
0
 10
5.1384123283
 20
4.2157126499
 10
5.1353958542
 20
4.2147288801
 10
5.1264069557
 20
4.2137473685
 10
5.1115278948
 20
4.2127649912
 10
5.0909002953
 20
4.211781519
 10
5.0648016983
 20
4.2107993642
 10
5.0334419507
 20
4.2098157265
 10
4.9972749931
 20
4.2088340146
 10
4.9566420408
 20
4.2078523806
 10
4.9118336117
 20
4.2068675894
 10
4.8633898281
 20
4.2058813194
 10
4.8120873553
 20
4.2048983992
 10
4.7580995676
 20
4.2039113822
  0
LINE
  5
6D4
100
AcDbEntity
  8
0
100
AcDbLine
 62
7
  6
CONTINUOUS
 10
4.8209348647
 20
3.8158103478
 11
4.8210894936
 21
3.8160382216
  0
LINE
  5
6D5
100
AcDbEntity
  8
0
100
AcDbLine
 62
7
  6
CONTINUOUS
 10
4.8209348647
 20
3.776440269
 11
4.8210894936
 21
3.7766681428
  0
LINE
  5
6D6
100
AcDbEntity
  8
0
100
AcDbLine
 62
7
  6
CONTINUOUS
 10
4.8209348647
 20
3.7370701903
 11
4.8210894936
 21
3.7372980641
  0
LINE
  5
6D7
100
AcDbEntity
  8
0
100
AcDbLine
 62
7
  6
CONTINUOUS
 10
4.8209348647
 20
3.6977001116
 11
4.8210894936
 21
3.6979279854
  0
LINE
  5
6D8
100
AcDbEntity
  8
0
100
AcDbLine
 62
7
  6
CONTINUOUS
 10
4.8209348647
 20
3.6583300328
 11
4.8210894936
 21
3.6585579066
  0
LINE
  5
6D9
100
AcDbEntity
  8
0
100
AcDbLine
 62
7
  6
CONTINUOUS
 10
5.1736196411
 20
4.305722937
 11
5.1738453992
 21
4.3059837036
  0
LINE
  5
6DA
100
AcDbEntity
  8
0
100
AcDbLine
 62
7
  6
CONTINUOUS
 10
5.1736196411
 20
4.2466678189
 11
5.1738453992
 21
4.2469285854
  0
LINE
  5
6DB
100
AcDbEntity
  8
0
100
AcDbLine
 62
7
  6
CONTINUOUS
 10
5.1736196411
 20
4.1876127007
 11
5.1738453992
 21
4.1878734673
  0
LINE
  5
6DC
100
AcDbEntity
  8
0
100
AcDbLine
 62
7
  6
CONTINUOUS
 10
4.3789400794
 20
3.6597977613
 11
4.3535275871
 21
3.641069245
  0
LINE
  5
6DD
100
AcDbEntity
  8
0
100
AcDbLine
 62
7
  6
CONTINUOUS
 10
4.3789400794
 20
3.6204276825
 11
4.3535275871
 21
3.6016991662
  0
LINE
  5
6DE
100
AcDbEntity
  8
0
100
AcDbLine
 62
7
  6
CONTINUOUS
 10
4.3789400794
 20
3.5810576038
 11
4.3535275871
 21
3.5623290875
  0
LWPOLYLINE
  5
6DF
100
AcDbEntity
  8
0
100
AcDbPolyline
 62
7
  6
CONTINUOUS
 90
9
 70
0
 10
4.3789400794
 20
3.6597977613
 10
4.3791841767
 20
3.6599387974
 10
4.3844696439
 20
3.6610111914
 10
4.3956797406
 20
3.6620835853
 10
4.4124869114
 20
3.6631559792
 10
4.434400056
 20
3.6642283732
 10
4.4607788793
 20
3.6653007671
 10
4.4908526002
 20
3.6663731611
 10
4.5237424743
 20
3.667445555
  0
LINE
  5
6E0
100
AcDbEntity
  8
0
100
AcDbLine
 62
7
  6
CONTINUOUS
 10
5.1381720756
 20
4.1671386536
 11
5.1736196411
 21
4.1876127007
  0
LINE
  5
6E1
100
AcDbEntity
  8
0
100
AcDbLine
 62
7
  6
CONTINUOUS
 10
5.1381720756
 20
4.1080835355
 11
5.1736196411
 21
4.1285575826
  0
LWPOLYLINE
  5
6E2
100
AcDbEntity
  8
0
100
AcDbPolyline
 62
7
  6
CONTINUOUS
 90
9
 70
0
 10
4.3789400794
 20
3.8172780762
 10
4.3795934054
 20
3.817580706
 10
4.3857858328
 20
3.8186530999
 10
4.3978644311
 20
3.8197254939
 10
4.4154762675
 20
3.8207978878
 10
4.4381067297
 20
3.8218702817
 10
4.4650945627
 20
3.8229426757
 10
4.4956511905
 20
3.8240150696
 10
4.5288837581
 20
3.8250874636
  0
LINE
  5
6E3
100
AcDbEntity
  8
0
100
AcDbLine
 62
7
  6
CONTINUOUS
 10
5.1731341259
 20
4.1283554584
 11
5.1736196411
 21
4.1285575826
  0
LINE
  5
6E4
100
AcDbEntity
  8
0
100
AcDbLine
 62
7
  6
CONTINUOUS
 10
4.3533729582
 20
3.7963531822
 11
4.3565408111
 21
3.7973857035
  0
LWPOLYLINE
  5
6E5
100
AcDbEntity
  8
0
100
AcDbPolyline
 62
7
  6
CONTINUOUS
 90
9
 70
0
 10
4.3533729582
 20
3.8357232609
 10
4.3565789597
 20
3.8367619949
 10
4.3661580749
 20
3.8378047595
 10
4.3817022631
 20
3.8388394796
 10
4.4028152193
 20
3.8398731921
 10
4.4293060076
 20
3.8409203635
 10
4.4604988621
 20
3.8419771536
 10
4.4951126175
 20
3.8430288299
 10
4.531769049
 20
3.8440654449
  0
LWPOLYLINE
  5
6E6
100
AcDbEntity
  8
0
100
AcDbPolyline
 62
7
  6
CONTINUOUS
 90
13
 70
0
 10
5.1384123283
 20
4.0976024142
 10
5.1353374825
 20
4.0966091622
 10
5.1262618669
 20
4.0956252487
 10
5.1113029622
 20
4.0946423472
 10
5.0906117587
 20
4.0936591865
 10
5.0643954184
 20
4.0926752693
 10
5.0329146757
 20
4.0916901913
 10
4.9966297763
 20
4.0907073298
 10
4.9558036364
 20
4.0897228986
 10
4.9110159786
 20
4.0887401131
 10
4.8626105331
 20
4.0877557353
 10
4.8112728068
 20
4.086772955
 10
4.7574252406
 20
4.0857890539
  0
LINE
  5
6E7
100
AcDbEntity
  8
0
100
AcDbLine
 62
7
  6
CONTINUOUS
 10
4.8209348647
 20
3.6189599541
 11
4.8210894936
 21
3.6191878279
  0
LINE
  5
6E8
100
AcDbEntity
  8
0
100
AcDbLine
 62
7
  6
CONTINUOUS
 10
4.8209348647
 20
3.5795898753
 11
4.8210894936
 21
3.5798177491
  0
LINE
  5
6E9
100
AcDbEntity
  8
0
100
AcDbLine
 62
7
  6
CONTINUOUS
 10
4.8209348647
 20
3.5402197966
 11
4.8210894936
 21
3.5404476704
  0
LINE
  5
6EA
100
AcDbEntity
  8
0
100
AcDbLine
 62
7
  6
CONTINUOUS
 10
4.8209348647
 20
3.5008497179
 11
4.8210894936
 21
3.5010775917
  0
LINE
  5
6EB
100
AcDbEntity
  8
0
100
AcDbLine
 62
7
  6
CONTINUOUS
 10
4.8209348647
 20
3.4614796391
 11
4.8210894936
 21
3.4617075129
  0
LINE
  5
6EC
100
AcDbEntity
  8
0
100
AcDbLine
 62
7
  6
CONTINUOUS
 10
5.1736196411
 20
4.1285575826
 11
5.1738453992
 21
4.1288183492
  0
LINE
  5
6ED
100
AcDbEntity
  8
0
100
AcDbLine
 62
7
  6
CONTINUOUS
 10
5.1736196411
 20
4.0695024645
 11
5.1738453992
 21
4.0697632311
  0
LINE
  5
6EE
100
AcDbEntity
  8
0
100
AcDbLine
 62
7
  6
CONTINUOUS
 10
4.7854928107
 20
3.834739009
 11
4.8096436553
 21
3.8534397964
  0
LINE
  5
6EF
100
AcDbEntity
  8
0
100
AcDbLine
 62
7
  6
CONTINUOUS
 10
4.3789400794
 20
3.5416875251
 11
4.3535275871
 21
3.5229590087
  0
LINE
  5
6F0
100
AcDbEntity
  8
0
100
AcDbLine
 62
7
  6
CONTINUOUS
 10
4.3789400794
 20
3.5023174463
 11
4.3535275871
 21
3.48358893
  0
LINE
  5
6F1
100
AcDbEntity
  8
0
100
AcDbLine
 62
7
  6
CONTINUOUS
 10
4.7955223725
 20
3.7970818315
 11
4.8209348647
 21
3.8158103478
  0
LINE
  5
6F2
100
AcDbEntity
  8
0
100
AcDbLine
 62
7
  6
CONTINUOUS
 10
4.3789400794
 20
3.4629473676
 11
4.3535275871
 21
3.4442188513
  0
LINE
  5
6F3
100
AcDbEntity
  8
0
100
AcDbLine
 62
7
  6
CONTINUOUS
 10
4.7955223725
 20
3.7577117527
 11
4.8209348647
 21
3.776440269
  0
LINE
  5
6F4
100
AcDbEntity
  8
0
100
AcDbLine
 62
7
  6
CONTINUOUS
 10
4.3789400794
 20
3.4235772888
 11
4.3772578766
 21
3.4223374342
  0
LINE
  5
6F5
100
AcDbEntity
  8
0
100
AcDbLine
 62
7
  6
CONTINUOUS
 10
5.1381720756
 20
4.0490284174
 11
5.1736196411
 21
4.0695024645
  0
LWPOLYLINE
  5
6F6
100
AcDbEntity
  8
0
100
AcDbPolyline
 62
7
  6
CONTINUOUS
 90
9
 70
0
 10
4.3789400794
 20
3.69916784
 10
4.3800852694
 20
3.6996173731
 10
4.3870986482
 20
3.700689767
 10
4.3999598379
 20
3.7017621609
 10
4.4182930385
 20
3.7028345549
 10
4.4415625598
 20
3.7039069488
 10
4.4690884736
 20
3.7049793427
 10
4.5000664814
 20
3.7060517367
 10
4.5335914155
 20
3.7071241306
  0
LINE
  5
6F7
100
AcDbEntity
  8
0
100
AcDbLine
 62
7
  6
CONTINUOUS
 10
4.3533729582
 20
3.678242946
 11
4.3565064439
 21
3.6792698386
  0
LINE
  5
6F8
100
AcDbEntity
  8
0
100
AcDbLine
 62
7
  6
CONTINUOUS
 10
4.3533729582
 20
3.7176130247
 11
4.3565505137
 21
3.7186471296
  0
LINE
  5
6F9
100
AcDbEntity
  8
0
100
AcDbLine
 62
7
  6
CONTINUOUS
 10
4.3533729582
 20
3.7569831035
 11
4.3565604455
 21
3.7580188269
  0
LWPOLYLINE
  5
6FA
100
AcDbEntity
  8
0
100
AcDbPolyline
 62
7
  6
CONTINUOUS
 90
9
 70
0
 10
4.3789400794
 20
3.7385379188
 10
4.381488378
 20
3.7392959487
 10
4.3902126716
 20
3.7403683426
 10
4.4046937853
 20
3.7414407366
 10
4.4245085854
 20
3.7425131305
 10
4.4490780899
 20
3.7435855244
 10
4.4776843855
 20
3.7446579184
 10
4.5094916053
 20
3.7457303123
 10
4.5435703523
 20
3.7468027062
  0
LINE
  5
6FB
100
AcDbEntity
  8
0
100
AcDbLine
 62
7
  6
CONTINUOUS
 10
4.7955223725
 20
3.718341674
 11
4.8209348647
 21
3.7370701903
  0
LINE
  5
6FC
100
AcDbEntity
  8
0
100
AcDbLine
 62
7
  6
CONTINUOUS
 10
4.7955223725
 20
3.6789715953
 11
4.8209348647
 21
3.6977001116
  0
LINE
  5
6FD
100
AcDbEntity
  8
0
100
AcDbLine
 62
7
  6
CONTINUOUS
 10
4.7955223725
 20
3.6396015165
 11
4.8209348647
 21
3.6583300328
  0
LINE
  5
6FE
100
AcDbEntity
  8
0
100
AcDbLine
 62
7
  6
CONTINUOUS
 10
4.7955223725
 20
3.6002314378
 11
4.8209348647
 21
3.6189599541
  0
LWPOLYLINE
  5
6FF
100
AcDbEntity
  8
0
100
AcDbPolyline
 62
7
  6
CONTINUOUS
 90
9
 70
0
 10
4.3789400794
 20
3.5023174463
 10
4.3791993745
 20
3.5024656393
 10
4.3844939293
 20
3.5035340154
 10
4.3956682051
 20
3.5046023914
 10
4.4123981292
 20
3.5056707675
 10
4.4341985057
 20
3.5067391436
 10
4.4604370873
 20
3.5078075196
 10
4.4903529111
 20
3.5088758957
 10
4.5230783683
 20
3.5099442718
  0
LWPOLYLINE
  5
700
100
AcDbEntity
  8
0
100
AcDbPolyline
 62
7
  6
CONTINUOUS
 90
7
 70
0
 10
4.3789400794
 20
3.5416875251
 10
4.3796094639
 20
3.5419955538
 10
4.385797661
 20
3.5430639299
 10
4.3978277687
 20
3.544132306
 10
4.4153508938
 20
3.545200682
 10
4.4378588361
 20
3.5462690581
 10
4.4646988279
 20
3.5473374342
  0
LINE
  5
701
100
AcDbEntity
  8
0
100
AcDbLine
 62
7
  6
CONTINUOUS
 10
4.3533729582
 20
3.5601327098
 11
4.3562434883
 21
3.5611154785
  0
LWPOLYLINE
  5
702
100
AcDbEntity
  8
0
100
AcDbPolyline
 62
7
  6
CONTINUOUS
 90
9
 70
0
 10
4.3789400794
 20
3.5810576038
 10
4.380690987
 20
3.5816540401
 10
4.3885214624
 20
3.5827264341
 10
4.4021581746
 20
3.583798828
 10
4.421202663
 20
3.5848712219
 10
4.4450984537
 20
3.5859436159
 10
4.4731473192
 20
3.5870160098
 10
4.5045296806
 20
3.5880884037
 10
4.538328555
 20
3.5891607977
  0
LINE
  5
703
100
AcDbEntity
  8
0
100
AcDbLine
 62
7
  6
CONTINUOUS
 10
4.8210894936
 20
3.7786366468
 11
4.8179661866
 21
3.7776114271
  0
LINE
  5
704
100
AcDbEntity
  8
0
100
AcDbLine
 62
7
  6
CONTINUOUS
 10
4.3533729582
 20
3.5995027885
 11
4.3565410002
 21
3.6005353407
  0
LINE
  5
705
100
AcDbEntity
  8
0
100
AcDbLine
 62
7
  6
CONTINUOUS
 10
4.3533729582
 20
3.6388728672
 11
4.3565473217
 21
3.6399064514
  0
LINE
  5
706
100
AcDbEntity
  8
0
100
AcDbLine
 62
7
  6
CONTINUOUS
 10
4.8210894936
 20
3.6998964893
 11
4.8179115339
 21
3.6988623185
  0
LINE
  5
707
100
AcDbEntity
  8
0
100
AcDbLine
 62
7
  6
CONTINUOUS
 10
4.8210894936
 20
3.739266568
 11
4.8179016014
 21
3.7382307787
  0
LWPOLYLINE
  5
708
100
AcDbEntity
  8
0
100
AcDbPolyline
 62
7
  6
CONTINUOUS
 90
13
 70
0
 10
5.5714831944
 20
5.7865106625
 10
5.5712854435
 20
5.7997845148
 10
5.5705030642
 20
5.8149824123
 10
5.5690728512
 20
5.8294130272
 10
5.566919552
 20
5.8430499827
 10
5.5639387861
 20
5.8558527332
 10
5.559991673
 20
5.8677299729
 10
5.5548899051
 20
5.8785386938
 10
5.5485029824
 20
5.8879055443
 10
5.5407390819
 20
5.8954617378
 10
5.5318320745
 20
5.9007688141
 10
5.5222025628
 20
5.9037372032
 10
5.5124280763
 20
5.9046208987
  0
LINE
  5
709
100
AcDbEntity
  8
02___PRT_ALL_AXES
100
AcDbLine
 62
7
  6
CONTINUOUS
 10
5.5714831944
 20
5.7865106625
 11
5.5714831944
 21
4.989266568
  0
LINE
  5
70A
100
AcDbEntity
  8
0
100
AcDbLine
 62
7
  6
CONTINUOUS
 10
4.8014045335
 20
3.4223374342
 11
4.8108867151
 21
3.4318196122
  0
LINE
  5
70B
100
AcDbEntity
  8
0
100
AcDbLine
 62
7
  6
CONTINUOUS
 10
4.7955223725
 20
3.560861359
 11
4.8209348647
 21
3.5795898753
  0
LINE
  5
70C
100
AcDbEntity
  8
0
100
AcDbLine
 62
7
  6
CONTINUOUS
 10
4.7955223725
 20
3.5214912803
 11
4.8209348647
 21
3.5402197966
  0
LINE
  5
70D
100
AcDbEntity
  8
0
100
AcDbLine
 62
7
  6
CONTINUOUS
 10
4.7955223725
 20
3.4821212016
 11
4.8209348647
 21
3.5008497179
  0
LINE
  5
70E
100
AcDbEntity
  8
0
100
AcDbLine
 62
7
  6
CONTINUOUS
 10
4.3533729582
 20
3.4813925523
 11
4.3565125032
 21
3.4824204395
  0
LINE
  5
70F
100
AcDbEntity
  8
0
100
AcDbLine
 62
7
  6
CONTINUOUS
 10
4.8210894936
 20
3.6211563318
 11
4.8179402422
 21
3.6201268533
  0
LINE
  5
710
100
AcDbEntity
  8
0
100
AcDbLine
 62
7
  6
CONTINUOUS
 10
4.3533729582
 20
3.520762631
 11
4.3565440867
 21
3.5217956872
  0
LINE
  5
711
100
AcDbEntity
  8
0
100
AcDbLine
 62
7
  6
CONTINUOUS
 10
4.8210894936
 20
3.6605264106
 11
4.8179128085
 21
3.6594924476
  0
LINE
  5
712
100
AcDbEntity
  8
0
100
AcDbLine
 62
7
  6
CONTINUOUS
 10
4.3533729582
 20
3.4420224733
 11
4.356548572
 21
3.4430562617
  0
LINE
  5
713
100
AcDbEntity
  8
0
100
AcDbLine
 62
7
  6
CONTINUOUS
 10
4.7955223725
 20
3.4427511228
 11
4.8209348647
 21
3.4614796391
  0
LINE
  5
714
100
AcDbEntity
  8
0
100
AcDbLine
 62
7
  6
CONTINUOUS
 10
4.8210894936
 20
3.5424161743
 11
4.8182116495
 21
3.5414321518
  0
LINE
  5
715
100
AcDbEntity
  8
0
100
AcDbLine
 62
7
  6
CONTINUOUS
 10
4.8210894936
 20
3.5817862531
 11
4.8179527147
 21
3.5807588198
  0
LINE
  5
716
100
AcDbEntity
  8
0
100
AcDbLine
 62
7
  6
CONTINUOUS
 10
4.8210894936
 20
3.5030460956
 11
4.8179179612
 21
3.5020129734
  0
LINE
  5
717
100
AcDbEntity
  8
0
100
AcDbLine
 62
9
  6
CONTINUOUS
 10
3.6029792574
 20
5.7865106625
 11
5.5714831944
 21
5.7865106625
  0
LINE
  5
718
100
AcDbEntity
  8
0
100
AcDbLine
 62
7
  6
CONTINUOUS
 10
4.8179301301
 20
3.4626448831
 11
4.8210894936
 21
3.4636760168
  0
LINE
  5
719
100
AcDbEntity
  8
0
100
AcDbLine
 62
7
  6
CONTINUOUS
 10
3.6620343756
 20
5.9046208987
 11
5.5124280763
 21
5.9046208987
  0
LWPOLYLINE
  5
71A
100
AcDbEntity
  8
0
100
AcDbPolyline
 62
7
  6
CONTINUOUS
 90
13
 70
0
 10
3.6620343756
 20
5.9046208987
 10
3.6522598891
 20
5.9037372032
 10
3.6426303774
 20
5.9007688141
 10
3.6337233699
 20
5.8954617378
 10
3.6259594695
 20
5.8879055443
 10
3.6195725467
 20
5.8785386938
 10
3.6144707788
 20
5.8677299729
 10
3.6105236657
 20
5.8558527332
 10
3.6075428998
 20
5.8430499827
 10
3.6053896007
 20
5.8294130272
 10
3.6039593877
 20
5.8149824123
 10
3.6031770084
 20
5.7997845148
 10
3.6029792575
 20
5.7865106625
  0
LWPOLYLINE
  5
71B
100
AcDbEntity
  8
0
100
AcDbPolyline
 62
9
  6
CONTINUOUS
 90
35
 70
0
 10
4.5872312259
 20
7.078975165
 10
4.6724804129
 20
7.0829111446
 10
4.7571584452
 20
7.0947139365
 10
4.8403446723
 20
7.1142715758
 10
4.9213821192
 20
7.1414250124
 10
4.999565495
 20
7.1759391629
 10
5.0742312294
 20
7.217520755
 10
5.1447413181
 20
7.2658145774
 10
5.2104943358
 20
7.3204086752
 10
5.2709291723
 20
7.3808371711
 10
5.3255301626
 20
7.4465844525
 10
5.3738314054
 20
7.5170895088
 10
5.415420757
 20
7.5917507362
 10
5.4499433443
 20
7.6699310663
 10
5.4771045933
 20
7.7509634031
 10
5.4966727431
 20
7.8341563148
 10
5.5084808227
 20
7.9187999342
 10
5.5124280763
 20
8.0041720154
 10
5.5084808228
 20
8.0895440966
 10
5.4966727433
 20
8.174187716
 10
5.4771045936
 20
8.2573806278
 10
5.4499433447
 20
8.3384129646
 10
5.4154207575
 20
8.4165932948
 10
5.3738314059
 20
8.4912545224
 10
5.3255301632
 20
8.5617595788
 10
5.2709291729
 20
8.6275068602
 10
5.2104943365
 20
8.6879353563
 10
5.1447413187
 20
8.7425294542
 10
5.07423123
 20
8.7908232767
 10
4.9995654956
 20
8.8324048691
 10
4.9213821195
 20
8.8669190191
 10
4.8403446711
 20
8.8940724506
 10
4.7571584441
 20
8.913630088
 10
4.6724804167
 20
8.9254329264
 10
4.5872312259
 20
8.9293688658
  0
LINE
  5
71C
100
AcDbEntity
  8
02___PRT_ALL_AXES
100
AcDbLine
 62
7
  6
CENTER
 10
4.5872312259
 20
8.0041720154
 11
4.5872312259
 21
6.9199200469
  0
LINE
  5
71D
100
AcDbEntity
  8
02___PRT_ALL_AXES
100
AcDbLine
 62
7
  6
CENTER
 10
4.5872312259
 20
8.0041720154
 11
4.5872312259
 21
9.0884239839
  0
LINE
  5
71E
100
AcDbEntity
  8
02___PRT_ALL_AXES
100
AcDbLine
 62
7
  6
CENTER
 10
4.5872312259
 20
8.0041720154
 11
3.5029792574
 21
8.0041720154
  0
LINE
  5
71F
100
AcDbEntity
  8
02___PRT_ALL_AXES
100
AcDbLine
 62
7
  6
CENTER
 10
4.5872312259
 20
8.0041720154
 11
5.6714831944
 21
8.0041720154
  0
LWPOLYLINE
  5
720
100
AcDbEntity
  8
0
100
AcDbPolyline
 62
9
  6
CONTINUOUS
 90
35
 70
0
 10
4.5872312259
 20
8.9293688658
 10
4.5019820389
 20
8.9254328862
 10
4.4173040066
 20
8.9136300943
 10
4.3341177795
 20
8.894072455
 10
4.2530803326
 20
8.8669190185
 10
4.1748969568
 20
8.8324048679
 10
4.1002312225
 20
8.7908232758
 10
4.0297211338
 20
8.7425294534
 10
3.963968116
 20
8.6879353556
 10
3.9035332796
 20
8.6275068597
 10
3.8489322892
 20
8.5617595783
 10
3.8006310465
 20
8.491254522
 10
3.7590416949
 20
8.4165932946
 10
3.7245191076
 20
8.3384129645
 10
3.6973578585
 20
8.2573806277
 10
3.6777897088
 20
8.174187716
 10
3.6659816292
 20
8.0895440966
 10
3.6620343756
 20
8.0041720154
 10
3.6659816291
 20
7.9187999342
 10
3.6777897086
 20
7.8341563148
 10
3.6973578582
 20
7.750963403
 10
3.7245191072
 20
7.6699310662
 10
3.7590416944
 20
7.591750736
 10
3.8006310459
 20
7.5170895084
 10
3.8489322886
 20
7.4465844521
 10
3.903533279
 20
7.3808371706
 10
3.9639681154
 20
7.3204086746
 10
4.0297211332
 20
7.2658145766
 10
4.1002312219
 20
7.2175207541
 10
4.1748969562
 20
7.1759391617
 10
4.2530803324
 20
7.1414250117
 10
4.334117779
 20
7.1142715741
 10
4.4173040078
 20
7.0947139428
 10
4.5019820361
 20
7.0829111138
 10
4.5872312259
 20
7.078975165
  0
LWPOLYLINE
  5
721
100
AcDbEntity
  8
AXIS
100
AcDbPolyline
 62
7
  6
CONTINUOUS
 90
7
 70
0
 10
11.7572708458
 20
8.2924711586
 10
11.6724813203
 20
8.2359764226
 10
11.6024807853
 20
8.1730900466
 10
11.54869425
 20
8.1050922157
 10
11.5122166531
 20
8.0333671698
 10
11.4937905733
 20
7.9593750239
 10
11.4914875161
 20
7.9220007138
  0
LWPOLYLINE
  5
722
100
AcDbEntity
  8
0
100
AcDbPolyline
 62
7
  6
CONTINUOUS
 90
5
 70
0
 10
12.4566198476
 20
5.8087123554
 10
12.4663264718
 20
5.8104877652
 10
12.5021823467
 20
5.8194724853
 10
12.5350759757
 20
5.8316750318
 10
12.5643224573
 20
5.8468333305
  0
LWPOLYLINE
  5
723
100
AcDbEntity
  8
0
100
AcDbPolyline
 62
7
  6
CONTINUOUS
 90
5
 70
0
 10
12.4566198476
 20
5.8408581198
 10
12.465690585
 20
5.8425091376
 10
12.5015836284
 20
5.8514342401
 10
12.5349142812
 20
5.863749686
 10
12.5643224573
 20
5.878979095
  0
LWPOLYLINE
  5
724
100
AcDbEntity
  8
0
100
AcDbPolyline
 62
7
  6
CONTINUOUS
 90
5
 70
0
 10
12.4566198476
 20
5.8730038843
 10
12.4651934055
 20
5.8745584425
 10
12.5014506728
 20
5.8835393106
 10
12.5349384719
 20
5.8959060812
 10
12.5643224573
 20
5.9111248594
  0
LWPOLYLINE
  5
725
100
AcDbEntity
  8
0
100
AcDbPolyline
 62
7
  6
CONTINUOUS
 90
4
 70
0
 10
12.4704350969
 20
5.8772181486
 10
12.4347882121
 20
5.8715491479
 10
12.3984121882
 20
5.8691565842
 10
12.3619743139
 20
5.8700548119
  0
LWPOLYLINE
  5
726
100
AcDbEntity
  8
0
100
AcDbPolyline
 62
7
  6
CONTINUOUS
 90
4
 70
0
 10
12.4286155262
 20
5.8066172545
 10
12.466215306
 20
5.8120732244
 10
12.5019987318
 20
5.8210232094
 10
12.5349988412
 20
5.8332483824
  0
LWPOLYLINE
  5
727
100
AcDbEntity
  8
0
100
AcDbPolyline
 62
7
  6
CONTINUOUS
 90
4
 70
0
 10
12.4651934055
 20
5.8440199662
 10
12.4276650744
 20
5.8386730501
 10
12.3895110463
 20
5.8369258935
 10
12.3511788455
 20
5.838817775
  0
LINE
  5
728
100
AcDbEntity
  8
0
100
AcDbLine
 62
7
  6
CONTINUOUS
 10
12.3619743139
 20
5.8700548119
 11
12.3266245076
 21
5.8741803034
  0
LWPOLYLINE
  5
729
100
AcDbEntity
  8
0
100
AcDbPolyline
 62
7
  6
CONTINUOUS
 90
5
 70
0
 10
12.3249808118
 20
5.9049934702
 10
12.3619743139
 20
5.9005932882
 10
12.3984121882
 20
5.8996950604
 10
12.4347882121
 20
5.9020876241
 10
12.4566198476
 20
5.9051496487
  0
LWPOLYLINE
  5
72A
100
AcDbEntity
  8
0
100
AcDbPolyline
 62
7
  6
CONTINUOUS
 90
5
 70
0
 10
12.3249808118
 20
5.8728477058
 10
12.3511788455
 20
5.8693562512
 10
12.3895110463
 20
5.8674643697
 10
12.4276650744
 20
5.8692115263
 10
12.4566198476
 20
5.8730038843
  0
LWPOLYLINE
  5
72B
100
AcDbEntity
  8
0
100
AcDbPolyline
 62
7
  6
CONTINUOUS
 90
5
 70
0
 10
12.3249808118
 20
5.8085561769
 10
12.3511522613
 20
5.8050673325
 10
12.3900221483
 20
5.8031724231
 10
12.4287700898
 20
5.8050248141
 10
12.4566198476
 20
5.8087123554
  0
LWPOLYLINE
  5
72C
100
AcDbEntity
  8
0
100
AcDbPolyline
 62
7
  6
CONTINUOUS
 90
5
 70
0
 10
12.3249808118
 20
5.8407019413
 10
12.3506540406
 20
5.8372623569
 10
12.3895013801
 20
5.8353186194
 10
12.4282507982
 20
5.8371209347
 10
12.4566198476
 20
5.8408581198
  0
LWPOLYLINE
  5
72D
100
AcDbEntity
  8
0
100
AcDbPolyline
 62
7
  6
CONTINUOUS
 90
5
 70
0
 10
12.3320245255
 20
5.8716528659
 10
12.3482561833
 20
5.8693096839
 10
12.3833015509
 20
5.8669078323
 10
12.4188010108
 20
5.8679866279
 10
12.4495817063
 20
5.8718099897
  0
LWPOLYLINE
  5
72E
100
AcDbEntity
  8
0
100
AcDbPolyline
 62
7
  6
CONTINUOUS
 90
4
 70
0
 10
12.3151458496
 20
5.8119703564
 10
12.3520451441
 20
5.8065879613
 10
12.3902127446
 20
5.8047797207
 10
12.4286155262
 20
5.8066172545
  0
LWPOLYLINE
  5
72F
100
AcDbEntity
  8
0
100
AcDbPolyline
 62
7
  6
CONTINUOUS
 90
9
 70
0
 10
12.3511788455
 20
5.838817775
 10
12.3141383078
 20
5.8443173421
 10
12.2797250935
 20
5.8531523346
 10
12.2481490545
 20
5.8652619102
 10
12.2205378631
 20
5.8803155851
 10
12.1980253489
 20
5.8976727883
 10
12.181236214
 20
5.9166313882
 10
12.1701636679
 20
5.9371263921
 10
12.1653086558
 20
5.9585257634
  0
LWPOLYLINE
  5
730
100
AcDbEntity
  8
0
100
AcDbPolyline
 62
7
  6
CONTINUOUS
 90
5
 70
0
 10
12.3320245255
 20
5.8395071014
 10
12.3431152696
 20
5.837818023
 10
12.3780045887
 20
5.8349011716
 10
12.4135016208
 20
5.8354571485
 10
12.4495817063
 20
5.8396642253
  0
LWPOLYLINE
  5
731
100
AcDbEntity
  8
0
100
AcDbPolyline
 62
7
  6
CONTINUOUS
 90
6
 70
0
 10
12.3320245255
 20
5.807361337
 10
12.3380106911
 20
5.8064018099
 10
12.3727212607
 20
5.8029724243
 10
12.4081927686
 20
5.8030057882
 10
12.4433964819
 20
5.8065262329
 10
12.4495817063
 20
5.8075184608
  0
LWPOLYLINE
  5
732
100
AcDbEntity
  8
0
100
AcDbPolyline
 62
7
  6
CONTINUOUS
 90
7
 70
0
 10
12.3266245076
 20
5.8741803034
 10
12.2930061968
 20
5.881414805
 10
12.2617220629
 20
5.8916525913
 10
12.2334910121
 20
5.9047528195
 10
12.2094301454
 20
5.920255275
 10
12.1903563183
 20
5.9375167592
 10
12.1764651949
 20
5.9561720319
  0
LWPOLYLINE
  5
733
100
AcDbEntity
  8
0
100
AcDbPolyline
 62
7
  6
CONTINUOUS
 90
9
 70
0
 10
12.262480898
 20
5.815167759
 10
12.2922904455
 20
5.8036706814
 10
12.3251932373
 20
5.7951685107
 10
12.3602920638
 20
5.7899199272
 10
12.3966252708
 20
5.7880947392
 10
12.4331948334
 20
5.7897683402
 10
12.4689955398
 20
5.7949197417
 10
12.5030425642
 20
5.8034327105
 10
12.5343951988
 20
5.8150982332
  0
LINE
  5
734
100
AcDbEntity
  8
0
100
AcDbLine
 62
7
  6
CONTINUOUS
 10
12.244817516
 20
5.8242811901
 11
12.262480898
 21
5.815167759
  0
LWPOLYLINE
  5
735
100
AcDbEntity
  8
0
100
AcDbPolyline
 62
7
  6
CONTINUOUS
 90
5
 70
0
 10
12.4566198476
 20
5.9051496487
 10
12.4704350969
 20
5.9077566248
 10
12.504750005
 20
5.9167131115
 10
12.5364251569
 20
5.9287104754
 10
12.5643224573
 20
5.9432706239
  0
LWPOLYLINE
  5
736
100
AcDbEntity
  8
0
100
AcDbPolyline
 62
7
  6
CONTINUOUS
 90
5
 70
0
 10
12.4566198476
 20
5.9694411776
 10
12.4663131333
 20
5.9712139664
 10
12.5021361729
 20
5.9801870724
 10
12.5350490847
 20
5.9923920194
 10
12.5643224573
 20
6.0075621528
  0
LWPOLYLINE
  5
737
100
AcDbEntity
  8
0
100
AcDbPolyline
 62
7
  6
CONTINUOUS
 90
5
 70
0
 10
12.4566198476
 20
5.9372954132
 10
12.4656646301
 20
5.938941378
 10
12.5018000005
 20
5.9479378898
 10
12.535111153
 20
5.9602735762
 10
12.5643224573
 20
5.9754163883
  0
LWPOLYLINE
  5
738
100
AcDbEntity
  8
0
100
AcDbPolyline
 62
7
  6
CONTINUOUS
 90
5
 70
0
 10
12.4566198476
 20
6.0015869421
 10
12.4655773474
 20
6.0032159287
 10
12.5015455455
 20
6.0121514
 10
12.5349129401
 20
6.0244779189
 10
12.5643224573
 20
6.0397079173
  0
LWPOLYLINE
  5
739
100
AcDbEntity
  8
0
100
AcDbPolyline
 62
7
  6
CONTINUOUS
 90
4
 70
0
 10
12.4663131333
 20
5.9406754902
 10
12.4287543158
 20
5.9352136421
 10
12.3899912369
 20
5.933362776
 10
12.3511076432
 20
5.9352620636
  0
LWPOLYLINE
  5
73A
100
AcDbEntity
  8
0
100
AcDbPolyline
 62
7
  6
CONTINUOUS
 90
4
 70
0
 10
12.4656646301
 20
5.9084029018
 10
12.4281604607
 20
5.9030111856
 10
12.3895970421
 20
5.901217307
 10
12.3509491602
 20
5.9031319167
  0
LWPOLYLINE
  5
73B
100
AcDbEntity
  8
0
100
AcDbPolyline
 62
7
  6
CONTINUOUS
 90
4
 70
0
 10
12.4655773474
 20
5.9726774524
 10
12.4281541767
 20
5.9673021194
 10
12.3894232627
 20
5.965509088
 10
12.35059779
 20
5.9674583053
  0
LWPOLYLINE
  5
73C
100
AcDbEntity
  8
0
100
AcDbPolyline
 62
7
  6
CONTINUOUS
 90
4
 70
0
 10
12.465081099
 20
6.0047270964
 10
12.4275119169
 20
5.9993875892
 10
12.3893783803
 20
5.9976549297
 10
12.3511683025
 20
5.9995476322
  0
LWPOLYLINE
  5
73D
100
AcDbEntity
  8
0
100
AcDbPolyline
 62
7
  6
CONTINUOUS
 90
5
 70
0
 10
12.3320245255
 20
5.9359443948
 10
12.3644193884
 20
5.9320559092
 10
12.399937345
 20
5.9312693669
 10
12.4354267147
 20
5.9339995314
 10
12.4495817063
 20
5.9361015186
  0
LWPOLYLINE
  5
73E
100
AcDbEntity
  8
0
100
AcDbPolyline
 62
7
  6
CONTINUOUS
 90
5
 70
0
 10
12.3249808118
 20
5.9692849991
 10
12.3511076432
 20
5.9658005398
 10
12.3899912369
 20
5.9639012523
 10
12.4287543158
 20
5.9657521183
 10
12.4566198476
 20
5.9694411776
  0
LWPOLYLINE
  5
73F
100
AcDbEntity
  8
0
100
AcDbPolyline
 62
7
  6
CONTINUOUS
 90
5
 70
0
 10
12.3249808118
 20
5.9371392347
 10
12.3509491602
 20
5.933670393
 10
12.3895970421
 20
5.9317557832
 10
12.4281604607
 20
5.9335496618
 10
12.4566198476
 20
5.9372954132
  0
LWPOLYLINE
  5
740
100
AcDbEntity
  8
0
100
AcDbPolyline
 62
7
  6
CONTINUOUS
 90
5
 70
0
 10
12.3249808118
 20
6.0014307636
 10
12.35059779
 20
5.9979967815
 10
12.3894232627
 20
5.9960475643
 10
12.4281541767
 20
5.9978405956
 10
12.4566198476
 20
6.0015869421
  0
LWPOLYLINE
  5
741
100
AcDbEntity
  8
0
100
AcDbPolyline
 62
7
  6
CONTINUOUS
 90
5
 70
0
 10
12.3320245255
 20
5.9037986303
 10
12.3543436599
 20
5.9007834658
 10
12.3896768917
 20
5.8989897543
 10
12.4252813438
 20
5.9007093006
 10
12.4495817063
 20
5.9039557542
  0
LWPOLYLINE
  5
742
100
AcDbEntity
  8
0
100
AcDbPolyline
 62
7
  6
CONTINUOUS
 90
5
 70
0
 10
12.3320245255
 20
6.0002359237
 10
12.3495822077
 20
5.9977369624
 10
12.3847973434
 20
5.9954657711
 10
12.4204262782
 20
5.9967032012
 10
12.4495817063
 20
6.0003930475
  0
LWPOLYLINE
  5
743
100
AcDbEntity
  8
0
100
AcDbPolyline
 62
7
  6
CONTINUOUS
 90
8
 70
0
 10
12.3511683025
 20
5.9995476322
 10
12.3141699232
 20
6.005039804
 10
12.2797328458
 20
6.0138787015
 10
12.2481259481
 20
6.0260013286
 10
12.2204929218
 20
6.0410735171
 10
12.1979704175
 20
6.0584525491
 10
12.181190129
 20
6.0774253641
 10
12.1806738626
 20
6.0783815952
  0
LWPOLYLINE
  5
744
100
AcDbEntity
  8
0
100
AcDbPolyline
 62
7
  6
CONTINUOUS
 90
8
 70
0
 10
12.3509491602
 20
5.9031319167
 10
12.3138088611
 20
5.9086753283
 10
12.2794453478
 20
5.9175326207
 10
12.2479115128
 20
5.9296625083
 10
12.2203491763
 20
5.9447294524
 10
12.1978877828
 20
5.9620919856
 10
12.1811043187
 20
5.9811096656
 10
12.1700667824
 20
6.0016733796
  0
LWPOLYLINE
  5
745
100
AcDbEntity
  8
0
100
AcDbPolyline
 62
7
  6
CONTINUOUS
 90
9
 70
0
 10
12.3511076432
 20
5.9352620636
 10
12.313724146
 20
5.9408382346
 10
12.2792148258
 20
5.949751749
 10
12.2480059084
 20
5.9617648937
 10
12.2207572756
 20
5.9766110157
 10
12.1982804454
 20
5.9938742308
 10
12.1813189219
 20
6.012952012
 10
12.1701233563
 20
6.0336696655
 10
12.1652869491
 20
6.0552566726
  0
LWPOLYLINE
  5
746
100
AcDbEntity
  8
0
100
AcDbPolyline
 62
7
  6
CONTINUOUS
 90
9
 70
0
 10
12.35059779
 20
5.9674583053
 10
12.3132892404
 20
5.9730723421
 10
12.2788281247
 20
5.9820210374
 10
12.2474294115
 20
5.9941763379
 10
12.2201675132
 20
6.0091390656
 10
12.1979701499
 20
6.0263070329
 10
12.1811255468
 20
6.0453710801
 10
12.1700234768
 20
6.0660799263
 10
12.1665429782
 20
6.081869625
  0
LWPOLYLINE
  5
747
100
AcDbEntity
  8
0
100
AcDbPolyline
 62
7
  6
CONTINUOUS
 90
6
 70
0
 10
12.3320245255
 20
5.9680901592
 10
12.3396746005
 20
5.9668839583
 10
12.3745788233
 20
5.963616001
 10
12.4101954273
 20
5.9638406561
 10
12.4454837064
 20
5.9675769444
 10
12.4495817063
 20
5.9682472831
  0
LINE
  5
748
100
AcDbEntity
  8
0
100
AcDbLine
 62
9
  6
CONTINUOUS
 10
11.491478687
 20
7.877647849
 11
11.4908259743
 21
7.8744959834
  0
LWPOLYLINE
  5
749
100
AcDbEntity
  8
0
100
AcDbPolyline
 62
7
  6
CONTINUOUS
 90
5
 70
0
 10
12.4566198476
 20
6.0337327066
 10
12.465081099
 20
6.0352655726
 10
12.501379949
 20
6.0442465111
 10
12.5349066271
 20
6.0566209096
 10
12.5484959372
 20
6.0636580342
  0
LWPOLYLINE
  5
74A
100
AcDbEntity
  8
0
100
AcDbPolyline
 62
7
  6
CONTINUOUS
 90
4
 70
0
 10
12.4649078596
 20
6.0368394694
 10
12.4272623758
 20
6.0315102093
 10
12.3888242824
 20
6.029802058
 10
12.3506659399
 20
6.0317430478
  0
LWPOLYLINE
  5
74B
100
AcDbEntity
  8
0
100
AcDbPolyline
 62
7
  6
CONTINUOUS
 90
5
 70
0
 10
12.3320245255
 20
6.0323816881
 10
12.3596094789
 20
6.0288733463
 10
12.395050184
 20
6.0276065472
 10
12.4306051035
 20
6.0298558753
 10
12.4495817063
 20
6.032538812
  0
LWPOLYLINE
  5
74C
100
AcDbEntity
  8
0
100
AcDbPolyline
 62
7
  6
CONTINUOUS
 90
5
 70
0
 10
12.3249808118
 20
6.033576528
 10
12.3511683025
 20
6.0300861084
 10
12.3893783803
 20
6.028193406
 10
12.4275119169
 20
6.0299260654
 10
12.4566198476
 20
6.0337327066
  0
LWPOLYLINE
  5
74D
100
AcDbEntity
  8
0
100
AcDbPolyline
 62
7
  6
CONTINUOUS
 90
5
 70
0
 10
12.3506659399
 20
6.0317430478
 10
12.3140125702
 20
6.0372172545
 10
12.279594992
 20
6.0460681626
 10
12.2479551763
 20
6.0582254948
 10
12.2321701992
 20
6.0668545137
  0
LWPOLYLINE
  5
74E
100
AcDbEntity
  8
0
100
AcDbPolyline
 62
9
  6
CONTINUOUS
 90
21
 70
0
 10
12.0092167294
 20
6.1608988929
 10
12.0520912807
 20
6.1386111264
 10
12.0987661876
 20
6.119032877
 10
12.1487300716
 20
6.1023786478
 10
12.2014355164
 20
6.0888309066
 10
12.2563050652
 20
6.078538086
 10
12.3127375595
 20
6.0716129552
 10
12.3701147147
 20
6.0681313869
 10
12.4278078949
 20
6.0681315263
 10
12.4851849998
 20
6.0716133717
 10
12.541617395
 20
6.0785387754
 10
12.5964867946
 20
6.0888318611
 10
12.6491920389
 20
6.1023798558
 10
12.6991556774
 20
6.1190343246
 10
12.7458302985
 20
6.1386127979
 10
12.7887045251
 20
6.1609007696
 10
12.8273086183
 20
6.1856540483
 10
12.8612196235
 20
6.2126014316
 10
12.8900660047
 20
6.2414476786
 10
12.9135317149
 20
6.2718767436
 10
12.9254456689
 20
6.2930466633
  0
LWPOLYLINE
  5
74F
100
AcDbEntity
  8
0
100
AcDbPolyline
 62
7
  6
CONTINUOUS
 90
5
 70
0
 10
12.227813052
 20
6.0676192934
 10
12.2481259481
 20
6.0565398048
 10
12.2797328458
 20
6.0444171777
 10
12.3141699232
 20
6.0355782802
 10
12.3249808118
 20
6.033576528
  0
LWPOLYLINE
  5
750
100
AcDbEntity
  8
0
100
AcDbPolyline
 62
7
  6
CONTINUOUS
 90
6
 70
0
 10
12.0173707578
 20
6.1428758162
 10
11.9786782467
 20
6.1676681688
 10
11.9443509351
 20
6.1948550578
 10
11.9148504742
 20
6.2240972159
 10
11.8905554564
 20
6.2549667726
 10
11.8892566634
 20
6.257172014
  0
LWPOLYLINE
  5
751
100
AcDbEntity
  8
0
100
AcDbPolyline
 62
9
  6
CONTINUOUS
 90
10
 70
0
 10
11.4147070335
 20
7.1895515988
 10
11.4157604082
 20
7.16327637
 10
11.424156353
 20
7.1110075651
 10
11.4408708204
 20
7.0594088864
 10
11.4657613554
 20
7.0089205168
 10
11.498615298
 20
6.9599738759
 10
11.5391540829
 20
6.9129846566
 10
11.5870242397
 20
6.8683611742
 10
11.6418333603
 20
6.8264702254
 10
11.7029906582
 20
6.7877443549
  0
LWPOLYLINE
  5
752
100
AcDbEntity
  8
0
100
AcDbPolyline
 62
9
  6
CONTINUOUS
 90
10
 70
0
 10
11.4147070338
 20
7.8404946126
 10
11.4157608281
 20
7.8142228647
 10
11.4241573873
 20
7.7619550173
 10
11.4408722049
 20
7.7103572195
 10
11.4657628666
 20
7.6598696446
 10
11.4986167601
 20
7.6109236949
 10
11.5391553714
 20
7.5639350516
 10
11.587025337
 20
7.5193119798
 10
11.6418340107
 20
7.4774215036
 10
11.7029906582
 20
7.4386960851
  0
LWPOLYLINE
  5
753
100
AcDbEntity
  8
0
100
AcDbPolyline
 62
7
  6
CONTINUOUS
 90
13
 70
0
 10
11.4147072215
 20
7.1895518418
 10
11.4158835968
 20
7.1537048349
 10
11.4203225817
 20
7.1126455414
 10
11.4282893703
 20
7.0720455066
 10
11.440085729
 20
7.0317027601
 10
11.4561258827
 20
6.9913640117
 10
11.4769790094
 20
6.9507698869
 10
11.50313146
 20
6.9100749351
 10
11.534990013
 20
6.8695762309
 10
11.57288063
 20
6.8296367272
 10
11.6170391333
 20
6.7906647954
 10
11.6675914301
 20
6.753107154
 10
11.7230371617
 20
6.7183075505
  0
LINE
  5
754
100
AcDbEntity
  8
02___PRT_ALL_AXES
100
AcDbLine
 62
7
  6
CONTINUOUS
 10
11.4147070334
 20
7.8405111972
 11
11.4147070334
 21
7.189559467
  0
LINE
  5
755
100
AcDbEntity
  8
0
100
AcDbLine
 62
7
  6
CONTINUOUS
 10
11.4147070334
 20
7.1895594963
 11
11.4147070335
 21
7.1895515988
  0
LINE
  5
756
100
AcDbEntity
  8
0
100
AcDbLine
 62
7
  6
CONTINUOUS
 10
11.4147070334
 20
7.8405112382
 11
11.4147070338
 21
7.8404946126
  0
LINE
  5
757
100
AcDbEntity
  8
AXIS
100
AcDbLine
 62
7
  6
CONTINUOUS
 10
11.491478687
 20
7.8716337034
 11
11.491478687
 21
7.9220007101
  0
LWPOLYLINE
  5
758
100
AcDbEntity
  8
0
100
AcDbPolyline
 62
7
  6
CONTINUOUS
 90
23
 70
0
 10
11.9983722146
 20
6.2277912851
 10
12.0460896668
 20
6.2054701722
 10
12.0977888081
 20
6.1862018863
 10
12.1528862783
 20
6.1702130485
 10
12.2107603714
 20
6.1576932758
 10
12.2707580507
 20
6.148793041
 10
12.3322023173
 20
6.1436219747
 10
12.3943998496
 20
6.1422476289
 10
12.4566488262
 20
6.1446947141
 10
12.5182468454
 20
6.1509448208
 10
12.5784988504
 20
6.1609366271
 10
12.6367249728
 20
6.1745665909
 10
12.6922682036
 20
6.1916901177
 10
12.744501807
 20
6.2121231929
 10
12.792836392
 20
6.2356444576
 10
12.8367265634
 20
6.2619977064
 10
12.8756770754
 20
6.2908947787
 10
12.9092484202
 20
6.32201881
 10
12.9370617872
 20
6.3550278073
 10
12.9588033374
 20
6.3895585082
 10
12.9742277445
 20
6.4252304797
 10
12.9831609634
 20
6.461650411
 10
12.9855731752
 20
6.4930287154
  0
LWPOLYLINE
  5
759
100
AcDbEntity
  8
0
100
AcDbPolyline
 62
7
  6
CONTINUOUS
 90
23
 70
0
 10
11.9928519798
 20
6.278928582
 10
12.0400460588
 20
6.2562523734
 10
12.0912900215
 20
6.2365989429
 10
12.1460056438
 20
6.2201992577
 10
12.2035755284
 20
6.2072475705
 10
12.263350071
 20
6.1978992277
 10
12.3246547908
 20
6.1922689164
 10
12.3867979407
 20
6.1904293706
 10
12.449078313
 20
6.1924105499
 10
12.5107931515
 20
6.1981993019
 10
12.5712460815
 20
6.2077395108
 10
12.6297549674
 20
6.2209327299
 10
12.6856596094
 20
6.237639293
 10
12.7383291937
 20
6.2576798903
 10
12.7871694099
 20
6.2808375915
 10
12.8316291572
 20
6.3068602937
 10
12.8712067631
 20
6.3354635661
 10
12.9054556436
 20
6.3663338593
 10
12.9339893431
 20
6.3991320434
 10
12.9564858944
 20
6.4334972348
 10
12.972691452
 20
6.469050868
 10
12.9824231567
 20
6.5054009675
 10
12.9855731752
 20
6.5412473621
  0
LWPOLYLINE
  5
75A
100
AcDbEntity
  8
0
100
AcDbPolyline
 62
7
  6
CONTINUOUS
 90
19
 70
0
 10
11.9873999582
 20
6.3301069298
 10
12.034062737
 20
6.3070795713
 10
12.0848429137
 20
6.2870444344
 10
12.1391674976
 20
6.2702367933
 10
12.1964235036
 20
6.2568555041
 10
12.2559648694
 20
6.2470607606
 10
12.3171197451
 20
6.2409722871
 10
12.3791980745
 20
6.2386679872
 10
12.4414993812
 20
6.2401830648
 10
12.503320673
 20
6.2455096269
 10
12.5639643738
 20
6.2545967728
 10
12.6227461954
 20
6.2673511681
 10
12.6790028585
 20
6.2836380983
 10
12.7320995769
 20
6.3032829885
 10
12.7814372206
 20
6.3260733736
 10
12.826459076
 20
6.3517612952
 10
12.8666571279
 20
6.3800661002
 10
12.9015777914
 20
6.410677607
 10
12.9308270305
 20
6.4432596058
  0
LWPOLYLINE
  5
75B
100
AcDbEntity
  8
0
100
AcDbPolyline
 62
9
  6
CONTINUOUS
 90
4
 70
0
 10
11.9139151409
 20
6.2353844044
 10
11.9367008811
 20
6.2125992084
 10
11.9706122769
 20
6.1856519869
 10
12.0092167294
 20
6.1608988929
  0
LWPOLYLINE
  5
75C
100
AcDbEntity
  8
0
100
AcDbPolyline
 62
7
  6
CONTINUOUS
 90
4
 70
0
 10
12.2015495181
 20
5.8611716719
 10
12.2152744256
 20
5.845712149
 10
12.236574844
 20
5.8293193924
 10
12.244817516
 20
5.8242811901
  0
LWPOLYLINE
  5
75D
100
AcDbEntity
  8
02___PRT_ALL_AXES
100
AcDbPolyline
 62
7
  6
CONTINUOUS
 90
10
 70
0
 10
11.4836046712
 20
7.9369484878
 10
11.487088203
 20
7.8908868842
 10
11.4975116221
 20
7.8451780347
 10
11.5147956001
 20
7.8001676138
 10
11.5388085954
 20
7.756198178
 10
11.5693678547
 20
7.7136043612
 10
11.6062408036
 20
7.672710328
 10
11.6491468166
 20
7.6338273069
 10
11.6977593531
 20
7.5972512209
 10
11.7517084423
 20
7.5632604363
  0
LWPOLYLINE
  5
75E
100
AcDbEntity
  8
AXIS
100
AcDbPolyline
 62
7
  6
CONTINUOUS
 90
4
 70
0
 10
11.4914875161
 20
7.9220007138
 10
11.4937911123
 20
7.8846220448
 10
11.5122182594
 20
7.8106299875
 10
11.5425637372
 20
7.7509642219
  0
LWPOLYLINE
  5
75F
100
AcDbEntity
  8
0
100
AcDbPolyline
 62
7
  6
CONTINUOUS
 90
19
 70
0
 10
11.9820170657
 20
6.3813258146
 10
12.0281407063
 20
6.3579513111
 10
12.0784485676
 20
6.3375379701
 10
12.1323729882
 20
6.3203253333
 10
12.1893054985
 20
6.3065168267
 10
12.2486036864
 20
6.2962774647
 10
12.3095984459
 20
6.2897319886
 10
12.3716015275
 20
6.2869634587
 10
12.433913304
 20
6.288012317
 10
12.495830665
 20
6.2928759315
 10
12.5566549504
 20
6.3015086251
 10
12.6156998342
 20
6.3138221913
 10
12.6722990689
 20
6.3296868899
 10
12.7258140028
 20
6.3489329103
 10
12.7756407869
 20
6.3713522881
 10
12.8212171882
 20
6.3967012513
 10
12.862028934
 20
6.4247029716
 10
12.8976155149
 20
6.4550506872
 10
12.9275753807
 20
6.487411165
  0
LWPOLYLINE
  5
760
100
AcDbEntity
  8
0
100
AcDbPolyline
 62
7
  6
CONTINUOUS
 90
19
 70
0
 10
11.9767042064
 20
6.4325847159
 10
12.0222809615
 20
6.4088671305
 10
12.0721080572
 20
6.3880791511
 10
12.1256232569
 20
6.3704645468
 10
12.1822227086
 20
6.3562312792
 10
12.2412677583
 20
6.3455491556
 10
12.3020921564
 20
6.3385479133
 10
12.3640095757
 20
6.3353157554
 10
12.4263213556
 20
6.3358983554
 10
12.4883243856
 20
6.3402983423
 10
12.5493190389
 20
6.3484752704
 10
12.6086170673
 20
6.3603460763
 10
12.6655493667
 20
6.3757860155
 10
12.7194735273
 20
6.3946300703
 10
12.7697810824
 20
6.4166748121
 10
12.8159043742
 20
6.4416806961
 10
12.8573229589
 20
6.4693747652
 10
12.8935694797
 20
6.4994537292
 10
12.92423494
 20
6.5315873874
  0
LWPOLYLINE
  5
761
100
AcDbEntity
  8
0
100
AcDbPolyline
 62
7
  6
CONTINUOUS
 90
6
 70
0
 10
11.8323338541
 20
6.4797084056
 10
11.851635982
 20
6.4463175127
 10
11.8771139657
 20
6.4143017014
 10
11.9084803178
 20
6.3840314329
 10
11.9453811084
 20
6.3558574722
 10
11.9873999582
 20
6.3301069298
  0
LWPOLYLINE
  5
762
100
AcDbEntity
  8
0
100
AcDbPolyline
 62
7
  6
CONTINUOUS
 90
27
 70
0
 10
11.8323338541
 20
6.4857357364
 10
11.851635982
 20
6.4523448435
 10
11.8771139657
 20
6.4203290323
 10
11.9084803178
 20
6.3900587638
 10
11.9453811084
 20
6.361884803
 10
11.9873999582
 20
6.3361342606
 10
12.034062737
 20
6.3131069021
 10
12.0848429137
 20
6.2930717652
 10
12.1391674976
 20
6.2762641242
 10
12.1964235036
 20
6.2628828349
 10
12.2559648694
 20
6.2530880915
 10
12.3171197451
 20
6.246999618
 10
12.3791980745
 20
6.244695318
 10
12.4414993812
 20
6.2462103956
 10
12.503320673
 20
6.2515369577
 10
12.5639643738
 20
6.2606241036
 10
12.6227461954
 20
6.2733784989
 10
12.6790028585
 20
6.2896654291
 10
12.7320995769
 20
6.3093103194
 10
12.7814372206
 20
6.3321007044
 10
12.826459076
 20
6.357788626
 10
12.8666571279
 20
6.386093431
 10
12.9015777914
 20
6.4167049378
 10
12.9308270305
 20
6.4492869366
 10
12.9540748042
 20
6.4834809832
 10
12.9710587905
 20
6.5189104432
 10
12.9815873462
 20
6.5551847424
  0
LWPOLYLINE
  5
763
100
AcDbEntity
  8
0
100
AcDbPolyline
 62
7
  6
CONTINUOUS
 90
20
 70
0
 10
12.0107522559
 20
6.5108291217
 10
12.0595927943
 20
6.4893028141
 10
12.1122626559
 20
6.4708936288
 10
12.1681675272
 20
6.4558184933
 10
12.2266765915
 20
6.4442567143
 10
12.2871296474
 20
6.4363479549
 10
12.3488445576
 20
6.4321906584
 10
12.4111249467
 20
6.4318409374
 10
12.4732680583
 20
6.4353119408
 10
12.5345726851
 20
6.4425737056
 10
12.5943470812
 20
6.4535534946
 10
12.6519167672
 20
6.4681366174
 10
12.7066321412
 20
6.4861677245
 10
12.7578758087
 20
6.5074525602
 10
12.8050695489
 20
6.5317601545
 10
12.8476808396
 20
6.5588254295
 10
12.8852288657
 20
6.5883521902
 10
12.9172899445
 20
6.6200164668
 10
12.9435023071
 20
6.6534701703
 10
12.9450705778
 20
6.6561955817
  0
LWPOLYLINE
  5
764
100
AcDbEntity
  8
0
100
AcDbPolyline
 62
7
  6
CONTINUOUS
 90
17
 70
0
 10
12.0050852316
 20
6.561874332
 10
12.0534201441
 20
6.5399844586
 10
12.1056540304
 20
6.5211827934
 10
12.1611974965
 20
6.5056906923
 10
12.2194238037
 20
6.4936921673
 10
12.2796759411
 20
6.4853318095
 10
12.3412740386
 20
6.4807131578
 10
12.4035230387
 20
6.4798975307
 10
12.4657205395
 20
6.4829033343
 10
12.5271647197
 20
6.4897058548
 10
12.5871622588
 20
6.500237537
 10
12.6450361596
 20
6.5143887467
 10
12.7001333875
 20
6.5320090082
 10
12.7518322391
 20
6.5529087015
 10
12.7995493576
 20
6.5768612026
 10
12.842746315
 20
6.6036054403
 10
12.8795002403
 20
6.6317496523
  0
LWPOLYLINE
  5
765
100
AcDbEntity
  8
0
100
AcDbPolyline
 62
7
  6
CONTINUOUS
 90
15
 70
0
 10
11.7230320732
 20
6.7183105076
 10
11.7908935639
 20
6.6826553122
 10
11.8654859159
 20
6.6503931085
 10
11.9445185669
 20
6.6226373803
 10
12.0272846114
 20
6.5995436137
 10
12.113091806
 20
6.5812327834
 10
12.2012553453
 20
6.5678006553
 10
12.2910528658
 20
6.5593253849
 10
12.3817290451
 20
6.5558585174
 10
12.4725272071
 20
6.55741881
 10
12.5627298994
 20
6.563996564
 10
12.6516382976
 20
6.575561158
 10
12.7385022121
 20
6.5920506219
 10
12.8224217957
 20
6.6133259757
 10
12.9026592453
 20
6.6392248739
  0
LWPOLYLINE
  5
766
100
AcDbEntity
  8
0
100
AcDbPolyline
 62
7
  6
CONTINUOUS
 90
20
 70
0
 10
11.9714622727
 20
6.4838831061
 10
12.0164844868
 20
6.4598265597
 10
12.0658224475
 20
6.4386675707
 10
12.1189194375
 20
6.4206540946
 10
12.1751763236
 20
6.4059985937
 10
12.2339583174
 20
6.3948756398
 10
12.2946021376
 20
6.3874199443
 10
12.3564234944
 20
6.3837248382
 10
12.4187248112
 20
6.3838412189
 10
12.4808030956
 20
6.3877769762
 10
12.5419578717
 20
6.3954969025
 10
12.6014990845
 20
6.406923091
 10
12.6587548858
 20
6.4219358144
 10
12.7130792155
 20
6.4403748754
 10
12.7638590914
 20
6.4620414153
 10
12.8105215264
 20
6.486700157
 10
12.852539993
 20
6.5140820602
 10
12.8894403655
 20
6.5438873572
 10
12.9208062693
 20
6.5757889353
 10
12.9462837794
 20
6.6094360279
  0
LINE
  5
767
100
AcDbEntity
  8
0
100
AcDbLine
 62
7
  6
CONTINUOUS
 10
11.9662921451
 20
6.5352204513
 11
12.0107522559
 21
6.5108291217
  0
LWPOLYLINE
  5
768
100
AcDbEntity
  8
0
100
AcDbPolyline
 62
7
  6
CONTINUOUS
 90
4
 70
0
 10
11.890766292
 20
6.6415148128
 10
11.9222437749
 20
6.6138619372
 10
11.9611946919
 20
6.586596211
 10
12.0050852316
 20
6.561874332
  0
LWPOLYLINE
  5
769
100
AcDbEntity
  8
0
100
AcDbPolyline
 62
7
  6
CONTINUOUS
 90
20
 70
0
 10
11.9021967618
 20
6.6375005097
 10
11.9222437749
 20
6.619889268
 10
11.9611946919
 20
6.5926235418
 10
12.0050852316
 20
6.5679016629
 10
12.0534201441
 20
6.5460117894
 10
12.1056540304
 20
6.5272101242
 10
12.1611974965
 20
6.5117180232
 10
12.2194238037
 20
6.4997194982
 10
12.2796759411
 20
6.4913591403
 10
12.3412740386
 20
6.4867404886
 10
12.4035230387
 20
6.4859248615
 10
12.4657205395
 20
6.4889306652
 10
12.5271647197
 20
6.4957331857
 10
12.5871622588
 20
6.5062648678
 10
12.6450361596
 20
6.5204160776
 10
12.7001333875
 20
6.538036339
 10
12.7518322391
 20
6.5589360323
 10
12.7995493576
 20
6.5828885335
 10
12.842746315
 20
6.6096327711
 10
12.865893573
 20
6.627357717
  0
LWPOLYLINE
  5
76A
100
AcDbEntity
  8
0
100
AcDbPolyline
 62
7
  6
CONTINUOUS
 90
24
 70
0
 10
11.8419846584
 20
6.660557721
 10
11.8639306637
 20
6.6286255632
 10
11.8924648245
 20
6.5974586751
 10
11.9267141385
 20
6.5682197054
 10
11.9662921451
 20
6.5412477821
 10
12.0107522559
 20
6.5168564525
 10
12.0595927943
 20
6.4953301449
 10
12.1122626559
 20
6.4769209596
 10
12.1681675272
 20
6.4618458241
 10
12.2266765915
 20
6.4502840451
 10
12.2871296474
 20
6.4423752858
 10
12.3488445576
 20
6.4382179892
 10
12.4111249467
 20
6.4378682682
 10
12.4732680583
 20
6.4413392716
 10
12.5345726851
 20
6.4486010364
 10
12.5943470812
 20
6.4595808254
 10
12.6519167672
 20
6.4741639482
 10
12.7066321412
 20
6.4921950553
 10
12.7578758087
 20
6.513479891
 10
12.8050695489
 20
6.5377874854
 10
12.8476808396
 20
6.5648527604
 10
12.8852288657
 20
6.594379521
 10
12.9172899445
 20
6.6260437976
 10
12.9390171955
 20
6.6537733474
  0
LWPOLYLINE
  5
76B
100
AcDbEntity
  8
0
100
AcDbPolyline
 62
7
  6
CONTINUOUS
 90
8
 70
0
 10
12.1796670479
 20
6.0786301146
 10
12.1811255468
 20
6.0759095563
 10
12.1979701499
 20
6.0568455091
 10
12.2201675132
 20
6.0396775418
 10
12.2474294115
 20
6.0247148141
 10
12.2788281247
 20
6.0125595136
 10
12.3132892404
 20
6.0036108184
 10
12.3249808118
 20
6.0014307636
  0
LWPOLYLINE
  5
76C
100
AcDbEntity
  8
0
100
AcDbPolyline
 62
7
  6
CONTINUOUS
 90
6
 70
0
 10
11.8381434724
 20
6.662219086
 10
11.8414336286
 20
6.6553321567
 10
11.8639306637
 20
6.6225982323
 10
11.8924648245
 20
6.5914313442
 10
11.9267141385
 20
6.5621923746
 10
11.9662921451
 20
6.5352204513
  0
LINE
  5
76D
100
AcDbEntity
  8
0
100
AcDbLine
 62
7
  6
CONTINUOUS
 10
12.1764651949
 20
5.9561720319
 11
12.1679800699
 21
5.975829863
  0
LINE
  5
76E
100
AcDbEntity
  8
0
100
AcDbLine
 62
7
  6
CONTINUOUS
 10
11.8194253821
 20
6.5140884028
 11
11.8323338541
 21
6.4797084056
  0
LWPOLYLINE
  5
76F
100
AcDbEntity
  8
0
100
AcDbPolyline
 62
7
  6
CONTINUOUS
 90
26
 70
0
 10
11.8183837982
 20
6.6707654131
 10
11.8268602933
 20
6.6428757647
 10
11.8438447787
 20
6.6090775452
 10
11.8670930339
 20
6.5765147692
 10
11.8963427311
 20
6.5455640699
 10
11.9312638244
 20
6.5165838898
 10
11.9714622727
 20
6.4899104369
 10
12.0164844868
 20
6.4658538906
 10
12.0658224475
 20
6.4446949016
 10
12.1189194375
 20
6.4266814254
 10
12.1751763236
 20
6.4120259245
 10
12.2339583174
 20
6.4009029706
 10
12.2946021376
 20
6.3934472751
 10
12.3564234944
 20
6.389752169
 10
12.4187248112
 20
6.3898685498
 10
12.4808030956
 20
6.393804307
 10
12.5419578717
 20
6.4015242333
 10
12.6014990845
 20
6.4129504219
 10
12.6587548858
 20
6.4279631452
 10
12.7130792155
 20
6.4464022063
 10
12.7638590914
 20
6.4680687461
 10
12.8105215264
 20
6.4927274878
 10
12.852539993
 20
6.520109391
 10
12.8894403655
 20
6.549914688
 10
12.9208062693
 20
6.5818162661
 10
12.9462837794
 20
6.6154633587
  0
LWPOLYLINE
  5
770
100
AcDbEntity
  8
0
100
AcDbPolyline
 62
7
  6
CONTINUOUS
 90
8
 70
0
 10
11.8163137133
 20
6.6716607529
 10
11.8163312261
 20
6.6714915236
 10
11.8268602933
 20
6.6368484339
 10
11.8438447787
 20
6.6030502144
 10
11.8670930339
 20
6.5704874384
 10
11.8963427311
 20
6.539536739
 10
11.9312638244
 20
6.510556559
 10
11.9714622727
 20
6.4838831061
  0
LWPOLYLINE
  5
771
100
AcDbEntity
  8
0
100
AcDbPolyline
 62
7
  6
CONTINUOUS
 90
31
 70
0
 10
11.8123448287
 20
6.4207007454
 10
11.8146216806
 20
6.39156656
 10
11.8233955317
 20
6.3567645807
 10
11.8386638967
 20
6.3227008758
 10
11.8602544911
 20
6.2897690143
 10
11.887923692
 20
6.258349794
 10
11.9213592872
 20
6.2288069442
 10
11.9601839978
 20
6.2014830218
 10
12.0039597355
 20
6.176695546
 10
12.0521925458
 20
6.1547334151
 10
12.1043381819
 20
6.1358536472
 10
12.1598082453
 20
6.1202784795
 10
12.217976826
 20
6.1081928613
 10
12.2781875641
 20
6.0997423663
 10
12.3397610568
 20
6.0950315506
 10
12.4020025243
 20
6.0941227726
 10
12.4642096494
 20
6.0970354897
 10
12.5256805026
 20
6.1037460382
 10
12.5857214622
 20
6.1141879007
 10
12.643655041
 20
6.1282524567
 10
12.6988275311
 20
6.1457902081
 10
12.7506163799
 20
6.1666124661
 10
12.7984372151
 20
6.1904934803
 10
12.8417504383
 20
6.2171729861
 10
12.880067314
 20
6.2463591415
 10
12.9129554842
 20
6.2777318201
 10
12.940043847
 20
6.3109462231
 10
12.9610267441
 20
6.3456367704
 10
12.9756674099
 20
6.3814212254
 10
12.9838006426
 20
6.417905008
 10
12.9855731752
 20
6.4448100687
  0
LWPOLYLINE
  5
772
100
AcDbEntity
  8
0
100
AcDbPolyline
 62
7
  6
CONTINUOUS
 90
30
 70
0
 10
11.8123448287
 20
6.4267280762
 10
11.8146216806
 20
6.3975938909
 10
11.8233955317
 20
6.3627919115
 10
11.8386638967
 20
6.3287282066
 10
11.8602544911
 20
6.2957963451
 10
11.887923692
 20
6.2643771248
 10
11.9213592872
 20
6.234834275
 10
11.9601839978
 20
6.2075103527
 10
12.0039597355
 20
6.1827228768
 10
12.0521925458
 20
6.160760746
 10
12.1043381819
 20
6.141880978
 10
12.1598082453
 20
6.1263058104
 10
12.217976826
 20
6.1142201921
 10
12.2781875641
 20
6.1057696971
 10
12.3397610568
 20
6.1010588814
 10
12.4020025243
 20
6.1001501035
 10
12.4642096494
 20
6.1030628205
 10
12.5256805026
 20
6.109773369
 10
12.5857214622
 20
6.1202152315
 10
12.643655041
 20
6.1342797876
 10
12.6988275311
 20
6.1518175389
 10
12.7506163799
 20
6.1726397969
 10
12.7984372151
 20
6.1965208111
 10
12.8417504383
 20
6.2232003169
 10
12.880067314
 20
6.2523864724
 10
12.9129554842
 20
6.2837591509
 10
12.940043847
 20
6.3169735539
 10
12.9610267441
 20
6.3516641013
 10
12.9756674099
 20
6.3874485562
 10
12.9838006426
 20
6.4239323388
  0
LWPOLYLINE
  5
773
100
AcDbEntity
  8
0
100
AcDbPolyline
 62
7
  6
CONTINUOUS
 90
9
 70
0
 10
11.8123448287
 20
6.4689193921
 10
11.8140015774
 20
6.4440604682
 10
11.8219751592
 20
6.4091958312
 10
11.836459282
 20
6.3750208122
 10
11.8572905105
 20
6.3419302366
 10
11.8842337904
 20
6.3103066927
 10
11.9169851005
 20
6.2805162156
 10
11.9551748832
 20
6.2529041563
 10
11.9983722146
 20
6.2277912851
  0
LWPOLYLINE
  5
774
100
AcDbEntity
  8
0
100
AcDbPolyline
 62
7
  6
CONTINUOUS
 90
27
 70
0
 10
11.8123448287
 20
6.4749467229
 10
11.8140015774
 20
6.4500877991
 10
11.8219751592
 20
6.415223162
 10
11.836459282
 20
6.3810481431
 10
11.8572905105
 20
6.3479575674
 10
11.8842337904
 20
6.3163340235
 10
11.9169851005
 20
6.2865435464
 10
11.9551748832
 20
6.2589314871
 10
11.9983722146
 20
6.2338186159
 10
12.0460896668
 20
6.2114975031
 10
12.0977888081
 20
6.1922292171
 10
12.1528862783
 20
6.1762403794
 10
12.2107603714
 20
6.1637206067
 10
12.2707580507
 20
6.1548203718
 10
12.3322023173
 20
6.1496493056
 10
12.3943998496
 20
6.1482749597
 10
12.4566488262
 20
6.1507220449
 10
12.5182468454
 20
6.1569721516
 10
12.5784988504
 20
6.166963958
 10
12.6367249728
 20
6.1805939217
 10
12.6922682036
 20
6.1977174486
 10
12.744501807
 20
6.2181505238
 10
12.792836392
 20
6.2416717884
 10
12.8367265634
 20
6.2680250372
 10
12.8756770754
 20
6.2969221095
 10
12.9092484202
 20
6.3280461408
 10
12.9370617872
 20
6.3610551381
  0
LWPOLYLINE
  5
775
100
AcDbEntity
  8
0
100
AcDbPolyline
 62
7
  6
CONTINUOUS
 90
9
 70
0
 10
11.8123448287
 20
6.5171380388
 10
11.8134797287
 20
6.4965586489
 10
11.8206517019
 20
6.4616373472
 10
11.8343491496
 20
6.4273568916
 10
11.8544175133
 20
6.3941132969
 10
11.8806303465
 20
6.3622908782
 10
11.9126918703
 20
6.3322579146
 10
11.9502403105
 20
6.3043624933
 10
11.9928519798
 20
6.278928582
  0
LWPOLYLINE
  5
776
100
AcDbEntity
  8
0
100
AcDbPolyline
 62
7
  6
CONTINUOUS
 90
30
 70
0
 10
11.8123448287
 20
6.5231653696
 10
11.8134797287
 20
6.5025859797
 10
11.8206517019
 20
6.4676646781
 10
11.8343491496
 20
6.4333842224
 10
11.8544175133
 20
6.4001406277
 10
11.8806303465
 20
6.3683182091
 10
11.9126918703
 20
6.3382852455
 10
11.9502403105
 20
6.3103898242
 10
11.9928519798
 20
6.2849559128
 10
12.0400460588
 20
6.2622797042
 10
12.0912900215
 20
6.2426262737
 10
12.1460056438
 20
6.2262265885
 10
12.2035755284
 20
6.2132749013
 10
12.263350071
 20
6.2039265585
 10
12.3246547908
 20
6.1982962473
 10
12.3867979407
 20
6.1964567014
 10
12.449078313
 20
6.1984378807
 10
12.5107931515
 20
6.2042266328
 10
12.5712460815
 20
6.2137668416
 10
12.6297549674
 20
6.2269600607
 10
12.6856596094
 20
6.2436666238
 10
12.7383291937
 20
6.2637072211
 10
12.7871694099
 20
6.2868649224
 10
12.8316291572
 20
6.3128876246
 10
12.8712067631
 20
6.3414908969
 10
12.9054556436
 20
6.3723611901
 10
12.9339893431
 20
6.4051593742
 10
12.9564858944
 20
6.4395245656
 10
12.972691452
 20
6.4750781988
 10
12.9824231567
 20
6.5114282984
  0
LWPOLYLINE
  5
777
100
AcDbEntity
  8
0
100
AcDbPolyline
 62
7
  6
CONTINUOUS
 90
3
 70
0
 10
11.8123448287
 20
6.5653566854
 10
11.8130562222
 20
6.5490603664
 10
11.8194253821
 20
6.5140884028
  0
LWPOLYLINE
  5
778
100
AcDbEntity
  8
0
100
AcDbPolyline
 62
7
  6
CONTINUOUS
 90
4
 70
0
 10
11.8123448287
 20
6.5713840163
 10
11.8130562222
 20
6.5550876972
 10
11.8194253821
 20
6.5201157337
 10
11.8323338541
 20
6.4857357364
  0
LWPOLYLINE
  5
779
100
AcDbEntity
  8
0
100
AcDbPolyline
 62
7
  6
CONTINUOUS
 90
9
 70
0
 10
11.8123448287
 20
6.6135753321
 10
11.8127311291
 20
6.6015648847
 10
11.8182964059
 20
6.5665482704
 10
11.8304137338
 20
6.5320746433
 10
11.8489463839
 20
6.4985421978
 10
11.8736852385
 20
6.4663385086
 10
11.9043511504
 20
6.4358361567
 10
11.9405980933
 20
6.4073885258
 10
11.9820170657
 20
6.3813258146
  0
LWPOLYLINE
  5
77A
100
AcDbEntity
  8
0
100
AcDbPolyline
 62
7
  6
CONTINUOUS
 90
31
 70
0
 10
11.8123448287
 20
6.619602663
 10
11.8127311291
 20
6.6075922155
 10
11.8182964059
 20
6.5725756012
 10
11.8304137338
 20
6.5381019741
 10
11.8489463839
 20
6.5045695287
 10
11.8736852385
 20
6.4723658394
 10
11.9043511504
 20
6.4418634875
 10
11.9405980933
 20
6.4134158566
 10
11.9820170657
 20
6.3873531455
 10
12.0281407063
 20
6.363978642
 10
12.0784485676
 20
6.3435653009
 10
12.1323729882
 20
6.3263526641
 10
12.1893054985
 20
6.3125441575
 10
12.2486036864
 20
6.3023047956
 10
12.3095984459
 20
6.2957593194
 10
12.3716015275
 20
6.2929907895
 10
12.433913304
 20
6.2940396479
 10
12.495830665
 20
6.2989032623
 10
12.5566549504
 20
6.3075359559
 10
12.6156998342
 20
6.3198495221
 10
12.6722990689
 20
6.3357142207
 10
12.7258140028
 20
6.3549602411
 10
12.7756407869
 20
6.3773796189
 10
12.8212171882
 20
6.4027285822
 10
12.862028934
 20
6.4307303024
 10
12.8976155149
 20
6.461078018
 10
12.9275753807
 20
6.4934384958
 10
12.951570472
 20
6.527455791
 10
12.969330034
 20
6.5627552638
 10
12.9806536723
 20
6.5989478067
 10
12.9854136139
 20
6.6356342347
  0
LWPOLYLINE
  5
77B
100
AcDbEntity
  8
0
100
AcDbPolyline
 62
7
  6
CONTINUOUS
 90
9
 70
0
 10
11.8123448287
 20
6.6617939788
 10
11.8125045039
 20
6.6540714671
 10
11.8172649628
 20
6.6190162208
 10
11.8285891114
 20
6.5844548913
 10
11.8463491707
 20
6.5507866627
 10
11.8703447408
 20
6.5184006417
 10
11.9003050616
 20
6.4876714668
 10
11.9358920684
 20
6.4589550811
 10
11.9767042064
 20
6.4325847159
  0
LINE
  5
77C
100
AcDbEntity
  8
0
100
AcDbLine
 62
7
  6
CONTINUOUS
 10
11.8123448287
 20
6.6678213096
 11
11.8125045039
 21
6.660098798
  0
LINE
  5
77D
100
AcDbEntity
  8
0
100
AcDbLine
 62
7
  6
CONTINUOUS
 10
11.8127408274
 20
6.6732060745
 11
11.8123448287
 21
6.6678213096
  0
LWPOLYLINE
  5
77E
100
AcDbEntity
  8
0
100
AcDbPolyline
 62
7
  6
CONTINUOUS
 90
12
 70
0
 10
12.0566471874
 20
6.5932777854
 10
12.099094671
 20
6.5775485546
 10
12.1542674022
 20
6.5616422273
 10
12.2122011721
 20
6.5492091086
 10
12.2722422705
 20
6.5403986935
 10
12.3337132088
 20
6.5353195994
 10
12.3959203641
 20
6.5340383403
 10
12.4581618068
 20
6.5365785763
 10
12.5197352198
 20
6.5429208468
 10
12.5799458242
 20
6.5530027901
 10
12.6381142188
 20
6.5667198469
 10
12.690238604
 20
6.5828886928
  0
LWPOLYLINE
  5
77F
100
AcDbEntity
  8
0
100
AcDbPolyline
 62
7
  6
CONTINUOUS
 90
14
 70
0
 10
12.0292043963
 20
6.5991339411
 10
12.0473055336
 20
6.5907120739
 10
12.099094671
 20
6.5715212237
 10
12.1542674022
 20
6.5556148964
 10
12.2122011721
 20
6.5431817777
 10
12.2722422705
 20
6.5343713627
 10
12.3337132088
 20
6.5292922686
 10
12.3959203641
 20
6.5280110094
 10
12.4581618068
 20
6.5305512454
 10
12.5197352198
 20
6.536893516
 10
12.5799458242
 20
6.5469754593
 10
12.6381142188
 20
6.560692516
 10
12.6935840459
 20
6.5778991092
 10
12.7212215469
 20
6.5887702159
  0
LWPOLYLINE
  5
780
100
AcDbEntity
  8
0
100
AcDbPolyline
 62
9
  6
CONTINUOUS
 90
27
 70
0
 10
11.7029906582
 20
6.7877443549
 10
11.7700667229
 20
6.7524362773
 10
11.842625159
 20
6.7207930917
 10
11.9199162212
 20
6.6931561314
 10
12.0013048427
 20
6.6697518326
 10
12.0860837679
 20
6.6507842739
 10
12.1735330065
 20
6.6364142742
 10
12.2629053178
 20
6.6267646069
 10
12.3534382865
 20
6.6219175132
 10
12.4443592843
 20
6.6219142983
 10
12.534892473
 20
6.6267549245
 10
12.6242653193
 20
6.6363980216
 10
12.7117152142
 20
6.6507612402
 10
12.7964959729
 20
6.6697219557
 10
12.877884203
 20
6.693118316
 10
12.9551854763
 20
6.7207506238
 10
13.0277402539
 20
6.7523830416
 10
13.0949297253
 20
6.7877457288
 10
13.1561808641
 20
6.8265371147
 10
13.2109710278
 20
6.8684262852
 10
13.258832609
 20
6.9130558448
 10
13.2993571116
 20
6.9600450062
 10
13.3321986384
 20
7.0089928388
 10
13.3570768451
 20
7.0594816895
 10
13.3737793341
 20
7.1110807455
 10
13.3821634694
 20
7.163349712
 10
13.3832109701
 20
7.1895446495
  0
LWPOLYLINE
  5
781
100
AcDbEntity
  8
0
100
AcDbPolyline
 62
7
  6
CONTINUOUS
 90
8
 70
0
 10
12.1679800699
 20
6.0063683392
 10
12.1764651949
 20
5.9867105081
 10
12.1903563183
 20
5.9680552354
 10
12.2094301454
 20
5.9507937512
 10
12.2334910121
 20
5.9352912957
 10
12.2617220629
 20
5.9221910676
 10
12.2930061968
 20
5.9119532812
 10
12.3249808118
 20
5.9049934702
  0
LWPOLYLINE
  5
782
100
AcDbEntity
  8
0
100
AcDbPolyline
 62
9
  6
CONTINUOUS
 90
8
 70
0
 10
11.4826428153
 20
7.8631167236
 10
11.4983524375
 20
7.8146159611
 10
11.5217468009
 20
7.7671589234
 10
11.5526259385
 20
7.7211510829
 10
11.5907280053
 20
7.6769830624
 10
11.6357205205
 20
7.635038765
 10
11.6872513521
 20
7.5956513069
 10
11.7447487588
 20
7.5592422852
  0
LWPOLYLINE
  5
783
100
AcDbEntity
  8
0
100
AcDbPolyline
 62
7
  6
CONTINUOUS
 90
30
 70
0
 10
11.8125045039
 20
6.660098798
 10
11.8172649628
 20
6.6250435517
 10
11.8285891114
 20
6.5904822221
 10
11.8463491707
 20
6.5568139935
 10
11.8703447408
 20
6.5244279725
 10
11.9003050616
 20
6.4936987976
 10
11.9358920684
 20
6.4649824119
 10
11.9767042064
 20
6.4386120467
 10
12.0222809615
 20
6.4148944614
 10
12.0721080572
 20
6.394106482
 10
12.1256232569
 20
6.3764918777
 10
12.1822227086
 20
6.36225861
 10
12.2412677583
 20
6.3515764865
 10
12.3020921564
 20
6.3445752442
 10
12.3640095757
 20
6.3413430862
 10
12.4263213556
 20
6.3419256862
 10
12.4883243856
 20
6.3463256731
 10
12.5493190389
 20
6.3545026013
 10
12.6086170673
 20
6.3663734071
 10
12.6655493667
 20
6.3818133463
 10
12.7194735273
 20
6.4006574011
 10
12.7697810824
 20
6.4227021429
 10
12.8159043742
 20
6.447708027
 10
12.8573229589
 20
6.4754020961
 10
12.8935694797
 20
6.5054810601
 10
12.92423494
 20
6.5376147182
 10
12.9489733183
 20
6.5714496852
 10
12.967505473
 20
6.6066133786
 10
12.979622292
 20
6.6427182228
 10
12.9841080816
 20
6.672260255
  0
LWPOLYLINE
  5
784
100
AcDbEntity
  8
0
100
AcDbPolyline
 62
7
  6
CONTINUOUS
 90
3
 70
0
 10
11.813957865
 20
6.4447163563
 10
11.8124413453
 20
6.432732245
 10
11.8123448287
 20
6.4267280762
  0
LWPOLYLINE
  5
785
100
AcDbEntity
  8
0
100
AcDbPolyline
 62
7
  6
CONTINUOUS
 90
3
 70
0
 10
11.8139672542
 20
6.4941848215
 10
11.8126285084
 20
6.4852394477
 10
11.8123448287
 20
6.4749467229
  0
LWPOLYLINE
  5
786
100
AcDbEntity
  8
0
100
AcDbPolyline
 62
7
  6
CONTINUOUS
 90
3
 70
0
 10
11.813986736
 20
6.5439510751
 10
11.8129141567
 20
6.5377448814
 10
11.8123448287
 20
6.5231653696
  0
LWPOLYLINE
  5
787
100
AcDbEntity
  8
0
100
AcDbPolyline
 62
7
  6
CONTINUOUS
 90
3
 70
0
 10
11.813978398
 20
6.5937170927
 10
11.8132982423
 20
6.5902478094
 10
11.8123448287
 20
6.5713840163
  0
LWPOLYLINE
  5
788
100
AcDbEntity
  8
0
100
AcDbPolyline
 62
7
  6
CONTINUOUS
 90
3
 70
0
 10
11.8139422617
 20
6.6434840521
 10
11.8137807005
 20
6.6427474954
 10
11.8123448287
 20
6.619602663
  0
LWPOLYLINE
  5
789
100
AcDbEntity
  8
0
100
AcDbPolyline
 62
7
  6
CONTINUOUS
 90
6
 70
0
 10
12.1968015711
 20
5.8653497215
 10
12.1998751259
 20
5.8530082213
 10
12.2080650138
 20
5.8369051322
 10
12.2201409529
 20
5.821638866
 10
12.2358571118
 20
5.8075201998
 10
12.2548935548
 20
5.7948365491
  0
LWPOLYLINE
  5
78A
100
AcDbEntity
  8
0
100
AcDbPolyline
 62
7
  6
CONTINUOUS
 90
9
 70
0
 10
12.1653086558
 20
5.9890642396
 10
12.1701636679
 20
5.9676648683
 10
12.181236214
 20
5.9471698644
 10
12.1980253489
 20
5.9282112645
 10
12.2205378631
 20
5.9108540613
 10
12.2481490545
 20
5.8958003865
 10
12.2797250935
 20
5.8836908109
 10
12.3141383078
 20
5.8748558183
 10
12.3249808118
 20
5.8728477058
  0
LWPOLYLINE
  5
78B
100
AcDbEntity
  8
0
100
AcDbPolyline
 62
7
  6
CONTINUOUS
 90
9
 70
0
 10
12.1661443906
 20
6.0819680113
 10
12.1701233563
 20
6.0642081417
 10
12.1813189219
 20
6.0434904883
 10
12.1982804454
 20
6.024412707
 10
12.2207572756
 20
6.0071494919
 10
12.2480059084
 20
5.99230337
 10
12.2792148258
 20
5.9802902252
 10
12.313724146
 20
5.9713767109
 10
12.3249808118
 20
5.9692849991
  0
LINE
  5
78C
100
AcDbEntity
  8
0
100
AcDbLine
 62
7
  6
CONTINUOUS
 10
12.1700667824
 20
6.0016733796
 11
12.1652931027
 21
6.0230260072
  0
LINE
  5
78D
100
AcDbEntity
  8
0
100
AcDbLine
 62
7
  6
CONTINUOUS
 10
12.1679800699
 20
5.975829863
 11
12.1651007342
 21
5.9961478849
  0
LINE
  5
78E
100
AcDbEntity
  8
0
100
AcDbLine
 62
7
  6
CONTINUOUS
 10
12.1651007342
 20
6.0266863611
 11
12.1679800699
 21
6.0063683392
  0
LWPOLYLINE
  5
78F
100
AcDbEntity
  8
0
100
AcDbPolyline
 62
7
  6
CONTINUOUS
 90
9
 70
0
 10
12.1651007342
 20
5.9318564787
 10
12.1654206438
 20
5.9250642938
 10
12.1705792544
 20
5.9039125649
 10
12.1819089565
 20
5.8835461448
 10
12.1991027005
 20
5.864538708
 10
12.2216961072
 20
5.8474257233
 10
12.2490795567
 20
5.8326918205
 10
12.2805127915
 20
5.8207582472
 10
12.3151458496
 20
5.8119703564
  0
LINE
  5
790
100
AcDbEntity
  8
0
100
AcDbLine
 62
7
  6
CONTINUOUS
 10
12.1653086558
 20
5.9585257634
 11
12.1651007355
 21
5.9640158105
  0
LINE
  5
791
100
AcDbEntity
  8
0
100
AcDbLine
 62
7
  6
CONTINUOUS
 10
12.1651007355
 20
5.9945542867
 11
12.1653086558
 21
5.9890642396
  0
LINE
  5
792
100
AcDbEntity
  8
0
100
AcDbLine
 62
7
  6
CONTINUOUS
 10
12.1652931027
 20
6.0230260072
 11
12.1651007363
 21
6.0283112302
  0
LWPOLYLINE
  5
793
100
AcDbEntity
  8
0
100
AcDbPolyline
 62
7
  6
CONTINUOUS
 90
10
 70
0
 10
12.1651007363
 20
6.0588497064
 10
12.1652931027
 20
6.0535644834
 10
12.1700667824
 20
6.0322118559
 10
12.1811043187
 20
6.0116481418
 10
12.1978877828
 20
5.9926304618
 10
12.2203491763
 20
5.9752679286
 10
12.2479115128
 20
5.9602009845
 10
12.2794453478
 20
5.948071097
 10
12.3138088611
 20
5.9392138045
 10
12.3249808118
 20
5.9371392347
  0
LWPOLYLINE
  5
794
100
AcDbEntity
  8
0
100
AcDbPolyline
 62
7
  6
CONTINUOUS
 90
10
 70
0
 10
12.1651007371
 20
5.9302697044
 10
12.1652897592
 20
5.9250273848
 10
12.1701348583
 20
5.9034490359
 10
12.181333838
 20
5.8827406604
 10
12.1982957008
 20
5.8636698168
 10
12.2207907026
 20
5.8463990945
 10
12.248091374
 20
5.831535314
 10
12.2792804956
 20
5.8195404828
 10
12.3137795707
 20
5.8106366711
 10
12.3249808118
 20
5.8085561769
  0
LINE
  5
795
100
AcDbEntity
  8
0
100
AcDbLine
 62
7
  6
CONTINUOUS
 10
12.1652869491
 20
6.0552566726
 11
12.1651007371
 21
6.0604598015
  0
LWPOLYLINE
  5
796
100
AcDbEntity
  8
0
100
AcDbPolyline
 62
7
  6
CONTINUOUS
 90
10
 70
0
 10
12.1651007366
 20
5.9624134284
 10
12.1652707537
 20
5.9574425051
 10
12.1700322225
 20
5.9358663101
 10
12.1811484844
 20
5.9151482194
 10
12.1980140089
 20
5.8960760114
 10
12.2202252157
 20
5.8789111799
 10
12.2474562187
 20
5.8639735977
 10
12.2788445805
 20
5.8518254232
 10
12.3133229576
 20
5.8428751266
 10
12.3249808118
 20
5.8407019413
  0
LWPOLYLINE
  5
797
100
AcDbEntity
  8
0
100
AcDbPolyline
 62
7
  6
CONTINUOUS
 90
3
 70
0
 10
12.1651007355
 20
5.9640158105
 10
12.166866196
 20
5.9799320638
 10
12.167186573
 20
5.9807869697
  0
LWPOLYLINE
  5
798
100
AcDbEntity
  8
0
100
AcDbPolyline
 62
7
  6
CONTINUOUS
 90
3
 70
0
 10
12.1651007363
 20
6.0283112302
 10
12.1668780053
 20
6.044276569
 10
12.1671860675
 20
6.0450972684
  0
LWPOLYLINE
  5
799
100
AcDbEntity
  8
0
100
AcDbPolyline
 62
7
  6
CONTINUOUS
 90
3
 70
0
 10
12.1651007371
 20
6.0604598015
 10
12.1669612681
 20
6.0767908983
 10
12.1671772113
 20
6.0773580795
  0
LINE
  5
79A
100
AcDbEntity
  8
0
100
AcDbLine
 62
7
  6
CONTINUOUS
 10
12.1651007342
 20
5.9961478849
 11
12.1672474974
 21
6.0115377341
  0
LWPOLYLINE
  5
79B
100
AcDbEntity
  8
0
100
AcDbPolyline
 62
9
  6
CONTINUOUS
 90
27
 70
0
 10
11.7029906582
 20
7.4386960851
 10
11.7700693146
 20
7.4033867647
 10
11.8426287215
 20
7.3717434126
 10
11.9199224265
 20
7.3441058655
 10
12.0013134914
 20
7.3207013575
 10
12.0860948632
 20
7.3017338564
 10
12.1735464354
 20
7.2873641803
 10
12.2629209252
 20
7.2777150795
 10
12.3534558424
 20
7.2728687742
 10
12.4443785056
 20
7.272866541
 10
12.5349130354
 20
7.2777083103
 10
12.624286865
 20
7.2873526771
 10
12.7117373595
 20
7.3017172553
 10
12.7965183191
 20
7.3206793822
 10
12.877906347
 20
7.3440771671
 10
12.9552070206
 20
7.3717108745
 10
13.0277608161
 20
7.4033446299
 10
13.0949487347
 20
7.4387084342
 10
13.1561975825
 20
7.4775004691
 10
13.2109848598
 20
7.5193896737
 10
13.2588433413
 20
7.5640187001
 10
13.2993649814
 20
7.6110070276
 10
13.3322040651
 20
7.6599539181
 10
13.3570802411
 20
7.7104417576
 10
13.3737810957
 20
7.7620397697
 10
13.3821639691
 20
7.8143076919
 10
13.3832109704
 20
7.8405111562
  0
LWPOLYLINE
  5
79C
100
AcDbEntity
  8
0
100
AcDbPolyline
 62
7
  6
CONTINUOUS
 90
3
 70
0
 10
12.6310472815
 20
6.0577233503
 10
12.6326062455
 20
6.0503184091
 10
12.6328172687
 20
6.0443538427
  0
LWPOLYLINE
  5
79D
100
AcDbEntity
  8
0
100
AcDbPolyline
 62
7
  6
CONTINUOUS
 90
3
 70
0
 10
12.6310141976
 20
5.9934677976
 10
12.6326283211
 20
5.9857070942
 10
12.6328172667
 20
5.980052863
  0
LWPOLYLINE
  5
79E
100
AcDbEntity
  8
0
100
AcDbPolyline
 62
7
  6
CONTINUOUS
 90
3
 70
0
 10
12.6310448795
 20
5.961247567
 10
12.6326257793
 20
5.9535990701
 10
12.6328172678
 20
5.9479115416
  0
LWPOLYLINE
  5
79F
100
AcDbEntity
  8
0
100
AcDbPolyline
 62
7
  6
CONTINUOUS
 90
3
 70
0
 10
12.6309912969
 20
6.0256638602
 10
12.6326480648
 20
6.0175505959
 10
12.6328172673
 20
6.0122009969
  0
LWPOLYLINE
  5
7A0
100
AcDbEntity
  8
0
100
AcDbPolyline
 62
9
  6
CONTINUOUS
 90
24
 70
0
 10
11.7447487588
 20
7.5592422852
 10
11.8078124343
 20
7.5260469335
 10
11.8760348939
 20
7.4962963304
 10
11.9486859658
 20
7.4703206142
 10
12.0251886318
 20
7.4483230575
 10
12.1048779455
 20
7.4304956174
 10
12.1870773158
 20
7.4169894635
 10
12.2710844323
 20
7.4079200424
 10
12.3561827267
 20
7.4033647021
 10
12.4416460086
 20
7.403362319
 10
12.5267450548
 20
7.4079129127
 10
12.6107537291
 20
7.416977654
 10
12.6929552046
 20
7.4304791953
 10
12.7726480731
 20
7.448302331
 10
12.8491523328
 20
7.4702949799
 10
12.9218151889
 20
7.4962694836
 10
12.9900166249
 20
7.526004207
 10
13.0531746925
 20
7.5592454303
 10
13.1107504773
 20
7.5957095131
 10
13.1622526976
 20
7.6350853152
 10
13.2072418958
 20
7.6770368512
 10
13.2453341888
 20
7.7212061578
 10
13.2762045432
 20
7.7672163476
 10
13.2995895487
 20
7.8146748255
  0
LINE
  5
7A1
100
AcDbEntity
  8
0
100
AcDbLine
 62
7
  6
CONTINUOUS
 10
12.6326019023
 20
6.0825186282
 11
12.6328172695
 21
6.0765171429
  0
LWPOLYLINE
  5
7A2
100
AcDbEntity
  8
0
100
AcDbPolyline
 62
7
  6
CONTINUOUS
 90
3
 70
0
 10
12.167271663
 20
5.9483755529
 10
12.1665725588
 20
5.9464061631
 10
12.1651007342
 20
5.9318564787
  0
LWPOLYLINE
  5
7A3
100
AcDbEntity
  8
0
100
AcDbPolyline
 62
7
  6
CONTINUOUS
 90
6
 70
0
 10
12.6328172695
 20
6.0765171429
 10
12.631099803
 20
6.0595587753
 10
12.6233294933
 20
6.0369823333
 10
12.6092524284
 20
6.0151307397
 10
12.5892801351
 20
5.9948818017
 10
12.5643224573
 20
5.9770236766
  0
LWPOLYLINE
  5
7A4
100
AcDbEntity
  8
0
100
AcDbPolyline
 62
7
  6
CONTINUOUS
 90
6
 70
0
 10
12.6328172687
 20
6.0443538427
 10
12.6310616329
 20
6.0272263206
 10
12.6232592664
 20
6.0046934319
 10
12.6091792374
 20
5.9828945369
 10
12.5892317973
 20
5.9626951482
 10
12.5643224573
 20
5.9448779121
  0
LWPOLYLINE
  5
7A5
100
AcDbEntity
  8
0
100
AcDbPolyline
 62
7
  6
CONTINUOUS
 90
6
 70
0
 10
12.6328172673
 20
6.0122009969
 10
12.630908575
 20
5.9943518075
 10
12.6229055609
 20
5.9718350888
 10
12.6087812198
 20
5.9502597908
 10
12.5890865023
 20
5.9304266607
 10
12.5643224573
 20
5.9127321477
  0
LWPOLYLINE
  5
7A6
100
AcDbEntity
  8
0
100
AcDbPolyline
 62
7
  6
CONTINUOUS
 90
4
 70
0
 10
12.6328172678
 20
5.9479115416
 10
12.6310455718
 20
5.9307110856
 10
12.6232356623
 20
5.9082081538
 10
12.6091547178
 20
5.8864269824
  0
LWPOLYLINE
  5
7A7
100
AcDbEntity
  8
0
100
AcDbPolyline
 62
7
  6
CONTINUOUS
 90
6
 70
0
 10
12.6328172667
 20
5.980052863
 10
12.6309668975
 20
5.9624801185
 10
12.6230678818
 20
5.9400146315
 10
12.6090806088
 20
5.9184813948
 10
12.5892355627
 20
5.8984068033
 10
12.5643224573
 20
5.8805863832
  0
LINE
  5
7A8
100
AcDbEntity
  8
0
100
AcDbLine
 62
7
  6
CONTINUOUS
 10
12.9855731752
 20
6.5472746929
 11
12.9835591759
 21
6.5690984803
  0
LINE
  5
7A9
100
AcDbEntity
  8
0
100
AcDbLine
 62
7
  6
CONTINUOUS
 10
12.9855731752
 20
6.5954933396
 11
12.983806912
 21
6.617223526
  0
LINE
  5
7AA
100
AcDbEntity
  8
0
100
AcDbLine
 62
7
  6
CONTINUOUS
 10
12.9855731752
 20
6.6437119863
 11
12.9840275611
 21
6.6657026407
  0
LWPOLYLINE
  5
7AB
100
AcDbEntity
  8
0
100
AcDbPolyline
 62
7
  6
CONTINUOUS
 90
3
 70
0
 10
12.9855731752
 20
6.4508373996
 10
12.9853346689
 20
6.460712978
 10
12.9838901433
 20
6.4711356597
  0
LWPOLYLINE
  5
7AC
100
AcDbEntity
  8
0
100
AcDbPolyline
 62
7
  6
CONTINUOUS
 90
17
 70
0
 10
12.6001899244
 20
5.861629454
 10
12.5980432386
 20
5.8530091784
 10
12.5898535829
 20
5.8369060499
 10
12.577777864
 20
5.8216397256
 10
12.5620619088
 20
5.8075209839
 10
12.5430256487
 20
5.7948372417
 10
12.5210566071
 20
5.7838467033
 10
12.4966020104
 20
5.7747731045
 10
12.4701596837
 20
5.7678011575
 10
12.4422679164
 20
5.763072791
 10
12.4134945044
 20
5.7606842611
 10
12.3844251916
 20
5.7606841912
 10
12.3556517452
 20
5.7630725828
 10
12.3277599097
 20
5.7678008152
 10
12.3013174824
 20
5.7747726351
 10
12.2768627548
 20
5.7838461163
 10
12.2548935548
 20
5.7948365491
  0
LWPOLYLINE
  5
7AD
100
AcDbEntity
  8
AXIS
100
AcDbPolyline
 62
7
  6
CONTINUOUS
 90
4
 70
0
 10
13.2553562085
 20
7.7509673068
 10
13.2857013507
 20
7.8106342504
 10
13.3041274306
 20
7.8846263963
 10
13.3064304877
 20
7.9220007064
  0
LWPOLYLINE
  5
7AE
100
AcDbEntity
  8
0
100
AcDbPolyline
 62
7
  6
CONTINUOUS
 90
3
 70
0
 10
12.9855731752
 20
6.4990560463
 10
12.985502194
 20
6.5044438823
 10
12.9836989572
 20
6.5199192475
  0
LINE
  5
7AF
100
AcDbEntity
  8
0
100
AcDbLine
 62
7
  6
CONTINUOUS
 10
12.9854136139
 20
6.6356342347
 11
12.9855731752
 21
6.6437119863
  0
LINE
  5
7B0
100
AcDbEntity
  8
0
100
AcDbLine
 62
7
  6
CONTINUOUS
 10
12.9838006426
 20
6.4239323388
 11
12.9855731752
 21
6.4508373996
  0
LINE
  5
7B1
100
AcDbEntity
  8
0
100
AcDbLine
 62
7
  6
CONTINUOUS
 10
12.9831609634
 20
6.4676777418
 11
12.9855731752
 21
6.4990560463
  0
LINE
  5
7B2
100
AcDbEntity
  8
0
100
AcDbLine
 62
7
  6
CONTINUOUS
 10
12.9824231567
 20
6.5114282984
 11
12.9855731752
 21
6.5472746929
  0
LINE
  5
7B3
100
AcDbEntity
  8
0
100
AcDbLine
 62
7
  6
CONTINUOUS
 10
12.9815873462
 20
6.5551847424
 11
12.9855731752
 21
6.5954933396
  0
LWPOLYLINE
  5
7B4
100
AcDbEntity
  8
0
100
AcDbPolyline
 62
9
  6
CONTINUOUS
 90
12
 70
0
 10
13.2995895487
 20
7.8146748255
 10
13.3152896662
 20
7.8631766383
 10
13.3231709299
 20
7.9123079311
 10
13.3231660908
 20
7.9616494746
 10
13.3152751886
 20
8.0107802575
 10
13.2995655663
 20
8.05928102
 10
13.276171203
 20
8.1067380577
 10
13.2452920653
 20
8.1527458982
 10
13.207189993
 20
8.1969139169
 10
13.1621974834
 20
8.2388582161
 10
13.110666659
 20
8.2782456777
 10
13.053169245
 20
8.3146546959
  0
LWPOLYLINE
  5
7B5
100
AcDbEntity
  8
0
100
AcDbPolyline
 62
7
  6
CONTINUOUS
 90
5
 70
0
 10
12.6276718188
 20
6.0810821151
 10
12.6215040334
 20
6.0655742978
 10
12.6073982868
 20
6.0450339172
 10
12.5880698513
 20
6.0260127888
 10
12.5643224573
 20
6.009169441
  0
LWPOLYLINE
  5
7B6
100
AcDbEntity
  8
0
100
AcDbPolyline
 62
7
  6
CONTINUOUS
 90
15
 70
0
 10
12.7315722338
 20
6.5447184249
 10
12.6996402144
 20
6.5307456622
 10
12.6497682011
 20
6.5132763683
 10
12.5970947061
 20
6.4988900197
 10
12.5423261695
 20
6.4877694145
 10
12.4859048462
 20
6.4799964645
 10
12.4286598023
 20
6.4756727568
 10
12.3709682125
 20
6.4748173951
 10
12.31329292
 20
6.4774660732
 10
12.2565758001
 20
6.4835924094
 10
12.2017099973
 20
6.4930628342
 10
12.1488756752
 20
6.5058230785
 10
12.098696021
 20
6.5217393514
 10
12.0519920371
 20
6.5405334408
 10
12.0499690254
 20
6.5415473983
  0
LWPOLYLINE
  5
7B7
100
AcDbEntity
  8
0
100
AcDbPolyline
 62
7
  6
CONTINUOUS
 90
15
 70
0
 10
12.7226769586
 20
6.5890464982
 10
12.6987778832
 20
6.5786265927
 10
12.6488170916
 20
6.5612002178
 10
12.5958683312
 20
6.5468185909
 10
12.5407786132
 20
6.535726463
 10
12.4844297003
 20
6.5280594508
 10
12.4271979038
 20
6.5238265984
 10
12.3695434206
 20
6.5230590725
 10
12.3123059871
 20
6.5257609858
 10
12.2559231733
 20
6.5319026493
 10
12.2011876172
 20
6.5413894503
 10
12.1485836107
 20
6.5541230773
 10
12.0987412149
 20
6.5699418002
 10
12.0520480267
 20
6.5887269057
 10
12.0503035817
 20
6.5896011249
  0
LWPOLYLINE
  5
7B8
100
AcDbEntity
  8
0
100
AcDbPolyline
 62
7
  6
CONTINUOUS
 90
15
 70
0
 10
12.9026592453
 20
6.6392248739
 10
12.9791281633
 20
6.6698235744
 10
13.0511813966
 20
6.7050793166
 10
13.1146448418
 20
6.7426638737
 10
13.1685942146
 20
6.7809319867
 10
13.2147840747
 20
6.819963305
 10
13.2546399101
 20
6.8601962114
 10
13.2886510753
 20
6.9016357863
 10
13.3167796323
 20
6.9436855222
 10
13.3391918728
 20
6.9857324253
 10
13.3562896504
 20
7.0272846373
 10
13.368773558
 20
7.0685848811
 10
13.377202718
 20
7.110091082
 10
13.3819325767
 20
7.1522102022
 10
13.3832107821
 20
7.189544398
  0
LINE
  5
7B9
100
AcDbEntity
  8
0
100
AcDbLine
 62
7
  6
CONTINUOUS
 10
12.965585414
 20
6.6504855032
 11
12.9714099961
 21
6.6667351838
  0
LINE
  5
7BA
100
AcDbEntity
  8
0
100
AcDbLine
 62
7
  6
CONTINUOUS
 10
12.965585414
 20
6.6444581724
 11
12.9739322092
 21
6.6677444363
  0
LINE
  5
7BB
100
AcDbEntity
  8
0
100
AcDbLine
 62
7
  6
CONTINUOUS
 10
12.9462837794
 20
6.6154633587
 11
12.965585414
 21
6.6504855032
  0
LINE
  5
7BC
100
AcDbEntity
  8
0
100
AcDbLine
 62
7
  6
CONTINUOUS
 10
12.9462837794
 20
6.6094360279
 11
12.965585414
 21
6.6444581724
  0
LWPOLYLINE
  5
7BD
100
AcDbEntity
  8
0
100
AcDbPolyline
 62
7
  6
CONTINUOUS
 90
6
 70
0
 10
12.9275753807
 20
6.487411165
 10
12.951570472
 20
6.5214284602
 10
12.969330034
 20
6.556727933
 10
12.9806536723
 20
6.5929204758
 10
12.9854136139
 20
6.6296069038
 10
12.9855731752
 20
6.6376846555
  0
LWPOLYLINE
  5
7BE
100
AcDbEntity
  8
0
100
AcDbPolyline
 62
7
  6
CONTINUOUS
 90
5
 70
0
 10
12.92423494
 20
6.5315873874
 10
12.9489733183
 20
6.5654223544
 10
12.967505473
 20
6.6005860478
 10
12.979622292
 20
6.636690892
 10
12.9850967535
 20
6.6727440134
  0
LWPOLYLINE
  5
7BF
100
AcDbEntity
  8
0
100
AcDbPolyline
 62
7
  6
CONTINUOUS
 90
15
 70
0
 10
12.7307251061
 20
6.4479039484
 10
12.699230161
 20
6.4341476121
 10
12.6494177595
 20
6.4167302976
 10
12.5968111085
 20
6.4023854731
 10
12.5418070843
 20
6.391244063
 10
12.4852689068
 20
6.3834917743
 10
12.4279681673
 20
6.3792045232
 10
12.3700471518
 20
6.3783947463
 10
12.3123547871
 20
6.3811012499
 10
12.2558430826
 20
6.3872579836
 10
12.2011551885
 20
6.3967402243
 10
12.1485041182
 20
6.4094893009
 10
12.0986433876
 20
6.4253209268
 10
12.0520259184
 20
6.4440809082
 10
12.045064273
 20
6.4475698841
  0
LWPOLYLINE
  5
7C0
100
AcDbEntity
  8
0
100
AcDbPolyline
 62
7
  6
CONTINUOUS
 90
15
 70
0
 10
12.7177926981
 20
6.3940426965
 10
12.6989319449
 20
6.3858122433
 10
12.649005436
 20
6.368383901
 10
12.596212367
 20
6.3540251822
 10
12.541400445
 20
6.3429566539
 10
12.4850625273
 20
6.3352513504
 10
12.4278072729
 20
6.3309787511
 10
12.3701326846
 20
6.3301747022
 10
12.312868797
 20
6.3328427783
 10
12.2564546317
 20
6.3389534376
 10
12.2016859434
 20
6.3484118582
 10
12.1490972302
 20
6.3611055095
 10
12.099000059
 20
6.3769745104
 10
12.0521180686
 20
6.3958208267
 10
12.0449846684
 20
6.3993950916
  0
LWPOLYLINE
  5
7C1
100
AcDbEntity
  8
0
100
AcDbPolyline
 62
7
  6
CONTINUOUS
 90
15
 70
0
 10
12.7340292817
 20
6.4975475429
 10
12.6983914694
 20
6.4820384012
 10
12.648469483
 20
6.4646555206
 10
12.5957608886
 20
6.4503559771
 10
12.540973427
 20
6.4393219469
 10
12.4845502168
 20
6.4316347855
 10
12.4272830718
 20
6.4273930187
 10
12.3696064642
 20
6.426620715
 10
12.3123495774
 20
6.4293203017
 10
12.2559542397
 20
6.4354609848
 10
12.2011999299
 20
6.444949608
 10
12.1485360013
 20
6.457699057
 10
12.0986629835
 20
6.4735325479
 10
12.0520351907
 20
6.4922953848
 10
12.0464334698
 20
6.4951027434
  0
LINE
  5
7C2
100
AcDbEntity
  8
AXIS
100
AcDbLine
 62
7
  6
CONTINUOUS
 10
13.3064393169
 20
7.871633935
 11
13.3064393169
 21
7.9220007101
  0
LWPOLYLINE
  5
7C3
100
AcDbEntity
  8
02___PRT_ALL_AXES
100
AcDbPolyline
 62
7
  6
CONTINUOUS
 90
28
 70
0
 10
13.3143133326
 20
7.9369484934
 10
13.3108304652
 20
7.8908912679
 10
13.3004077053
 20
7.8451823683
 10
13.2831243765
 20
7.8001718644
 10
13.2591120153
 20
7.7562023131
 10
13.2285533703
 20
7.7136083493
 10
13.1916810113
 20
7.6727141389
 10
13.1487755591
 20
7.6338309115
 10
13.1001635501
 20
7.5972545919
 10
13.0462149511
 20
7.5632635479
 10
12.9873403436
 20
7.532116472
 10
12.9239877987
 20
7.5040504122
 10
12.8566394677
 20
7.4792789682
 10
12.785807912
 20
7.4579906656
 10
12.7120322025
 20
7.4403475213
 10
12.6358738169
 20
7.4264838101
 10
12.5579123665
 20
7.4165050434
 10
12.478741185
 20
7.4104871656
 10
12.3989628129
 20
7.4084759764
 10
12.3191844118
 20
7.4104867821
 10
12.2400131436
 20
7.4165042793
 10
12.1620515493
 20
7.4264826712
 10
12.0858929637
 20
7.4403460162
 10
12.0121169997
 20
7.4579888059
 10
11.941285137
 20
7.479276768
 10
11.8739364487
 20
7.5040478882
 10
11.8105834991
 20
7.5321136435
 10
11.7517084423
 20
7.5632604363
  0
LWPOLYLINE
  5
7C4
100
AcDbEntity
  8
0
100
AcDbPolyline
 62
7
  6
CONTINUOUS
 90
21
 70
0
 10
12.9317662994
 20
6.3007967059
 10
12.9234523044
 20
6.2815772314
 10
12.902541218
 20
6.2481455753
 10
12.8756083454
 20
6.216029095
 10
12.8430231223
 20
6.1858613481
 10
12.8052075073
 20
6.1580699106
 10
12.7628317773
 20
6.1330919721
 10
12.7163894701
 20
6.1111286033
 10
12.6665717108
 20
6.09241665
 10
12.6138704966
 20
6.0770607269
 10
12.5589576387
 20
6.0651943709
 10
12.5023547087
 20
6.0568820369
 10
12.4447095075
 20
6.05218764
 10
12.3866001043
 20
6.051137766
 10
12.3286328643
 20
6.0537374804
 10
12.2714435621
 20
6.0599611342
 10
12.2155657199
 20
6.0697689822
 10
12.16168517
 20
6.0830687134
 10
12.1102648783
 20
6.099791271
 10
12.0620486374
 20
6.1197474353
 10
12.0173707578
 20
6.1428758162
  0
LWPOLYLINE
  5
7C5
100
AcDbEntity
  8
0
100
AcDbPolyline
 62
7
  6
CONTINUOUS
 90
4
 70
0
 10
12.9370617872
 20
6.3610551381
 10
12.9588033374
 20
6.395585839
 10
12.9742277445
 20
6.4312578105
 10
12.9831609634
 20
6.4676777418
  0
LWPOLYLINE
  5
7C6
100
AcDbEntity
  8
0
100
AcDbPolyline
 62
7
  6
CONTINUOUS
 90
5
 70
0
 10
12.9308270305
 20
6.4432596058
 10
12.9540748042
 20
6.4774536524
 10
12.9710587905
 20
6.5128831124
 10
12.9815873462
 20
6.5491574116
 10
12.9855731752
 20
6.5894660088
  0
LWPOLYLINE
  5
7C7
100
AcDbEntity
  8
0
100
AcDbPolyline
 62
7
  6
CONTINUOUS
 90
3
 70
0
 10
12.6050875329
 20
6.0751627784
 10
12.5892249494
 20
6.0591266514
 10
12.5643224573
 20
6.0413152055
  0
LWPOLYLINE
  5
7C8
100
AcDbEntity
  8
0
100
AcDbPolyline
 62
7
  6
CONTINUOUS
 90
15
 70
0
 10
12.7236622159
 20
6.3001613073
 10
12.6993141338
 20
6.289524568
 10
12.6494583202
 20
6.2720869382
 10
12.5968084904
 20
6.2577289127
 10
12.5420690144
 20
6.2466325177
 10
12.4856823924
 20
6.2388796052
 10
12.4284595623
 20
6.2345705139
 10
12.3709197501
 20
6.23372491
 10
12.3135025961
 20
6.2363567728
 10
12.25693895
 20
6.2424484224
 10
12.202121167
 20
6.2518848621
 10
12.1492399491
 20
6.2646285546
 10
12.0989278984
 20
6.280563049
 10
12.0520230921
 20
6.2994262393
 10
12.0467042497
 20
6.3020919077
  0
LWPOLYLINE
  5
7C9
100
AcDbEntity
  8
0
100
AcDbPolyline
 62
7
  6
CONTINUOUS
 90
15
 70
0
 10
12.7207352442
 20
6.3471063941
 10
12.6987171081
 20
6.3375096083
 10
12.6487855998
 20
6.3200972467
 10
12.5960745366
 20
6.3057739949
 10
12.5412670556
 20
6.2947154933
 10
12.4848326095
 20
6.2870084975
 10
12.4275490741
 20
6.2827487268
 10
12.3698478676
 20
6.2819607388
 10
12.3125608825
 20
6.2846479542
 10
12.256127586
 20
6.2907806746
 10
12.2013380161
 20
6.3002650956
 10
12.1486081192
 20
6.3130230125
 10
12.0986383937
 20
6.328885424
 10
12.0520377603
 20
6.3476382891
 10
12.0455762665
 20
6.3508765115
  0
LWPOLYLINE
  5
7CA
100
AcDbEntity
  8
AXIS
100
AcDbPolyline
 62
7
  6
CONTINUOUS
 90
18
 70
0
 10
13.3064304877
 20
7.9220007064
 10
13.3041268915
 20
7.9593793754
 10
13.2856997445
 20
8.0333714327
 10
13.2492211131
 20
8.1050963033
 10
13.1954335971
 20
8.1730938755
 10
13.1254321552
 20
8.2359799151
 10
13.0406418148
 20
8.2924742434
 10
12.9427886629
 20
8.341426799
 10
12.8338647073
 20
8.3818410489
 10
12.7160873257
 20
8.4128942756
 10
12.591854126
 20
8.4339543249
 10
12.4636941378
 20
8.444592475
 10
12.3342163289
 20
8.4445921638
 10
12.2060564942
 20
8.4339533976
 10
12.0818235982
 20
8.412892751
 10
11.9640466645
 20
8.3818389581
 10
11.8551232918
 20
8.3414241846
 10
11.7572708458
 20
8.2924711586
  0
LWPOLYLINE
  5
7CB
100
AcDbEntity
  8
0
100
AcDbPolyline
 62
7
  6
CONTINUOUS
 90
16
 70
0
 10
13.383210782
 20
7.840513127
 10
13.3824935339
 20
7.8703296107
 10
13.3798358489
 20
7.9038787743
 10
13.3751348651
 20
7.9366338125
 10
13.3682967402
 20
7.9687189026
 10
13.3591512278
 20
8.0004462531
 10
13.347472642
 20
8.0320589086
 10
13.3329967526
 20
8.0637068572
 10
13.315350213
 20
8.0956044708
 10
13.2940957586
 20
8.1278796871
 10
13.2688830807
 20
8.1604102991
 10
13.2394196371
 20
8.1929814277
 10
13.2054549063
 20
8.2253411808
 10
13.166789897
 20
8.2572061205
 10
13.1232893769
 20
8.2882669212
 10
13.0763662683
 20
8.3173346197
  0
LINE
  5
7CC
100
AcDbEntity
  8
0
100
AcDbLine
 62
7
  6
CONTINUOUS
 10
13.3832109701
 20
7.1895446495
 11
13.3832109704
 21
7.1895594377
  0
LINE
  5
7CD
100
AcDbEntity
  8
02___PRT_ALL_AXES
100
AcDbLine
 62
7
  6
CONTINUOUS
 10
13.3832109704
 20
7.8405111972
 11
13.3832109704
 21
7.189559467
  0
LINE
  5
7CE
100
AcDbEntity
  8
0
100
AcDbLine
 62
7
  6
CONTINUOUS
 10
13.3832109704
 20
7.8405111562
 11
13.3832109704
 21
7.8405133471
  0
LWPOLYLINE
  5
7CF
100
AcDbEntity
  8
0
100
AcDbPolyline
 62
7
  6
CONTINUOUS
 90
5
 70
0
 10
12.5892813436
 20
5.8646924782
 10
12.6092542567
 20
5.884942655
 10
12.6233312464
 20
5.9067955675
 10
12.6311009626
 20
5.9293741339
 10
12.6328172695
 20
5.9463264819
  0
LWPOLYLINE
  5
7D0
100
AcDbEntity
  8
0
100
AcDbPolyline
 62
7
  6
CONTINUOUS
 90
3
 70
0
 10
12.6091547178
 20
5.8864269824
 10
12.5892156098
 20
5.8662441686
 10
12.5643224573
 20
5.8484406188
  0
LWPOLYLINE
  5
7D1
100
AcDbEntity
  8
0
100
AcDbPolyline
 62
7
  6
CONTINUOUS
 90
5
 70
0
 10
12.5643224573
 20
6.0075621528
 10
12.5892801351
 20
6.0254202779
 10
12.6092524284
 20
6.0456692159
 10
12.6233294933
 20
6.0675208095
 10
12.6280332385
 20
6.0811874245
  0
LWPOLYLINE
  5
7D2
100
AcDbEntity
  8
0
100
AcDbPolyline
 62
7
  6
CONTINUOUS
 90
4
 70
0
 10
12.5643224573
 20
6.0397079173
 10
12.5880698513
 20
6.056551265
 10
12.6073982868
 20
6.0755723935
 10
12.6074706418
 20
6.0756777547
  0
LWPOLYLINE
  5
7D3
100
AcDbEntity
  8
0
100
AcDbPolyline
 62
7
  6
CONTINUOUS
 90
4
 70
0
 10
12.5441563714
 20
6.0630207541
 10
12.534857471
 20
6.0582066059
 10
12.5012707813
 20
6.0458204585
 10
12.4649078596
 20
6.0368394694
  0
LWPOLYLINE
  5
7D4
100
AcDbEntity
  8
0
100
AcDbPolyline
 62
7
  6
CONTINUOUS
 90
15
 70
0
 10
12.7263875858
 20
6.2531361492
 10
12.6993970024
 20
6.2413383971
 10
12.6495545477
 20
6.2238981481
 10
12.5966236024
 20
6.209466478
 10
12.5413642535
 20
6.1982946033
 10
12.4846924339
 20
6.1905564744
 10
12.427388333
 20
6.1863043858
 10
12.3695993417
 20
6.1855276016
 10
12.3121744587
 20
6.1882407027
 10
12.2558893928
 20
6.1943768769
 10
12.2011722751
 20
6.2038620998
 10
12.1485160406
 20
6.2166113894
 10
12.0986508591
 20
6.2324436613
 10
12.0520293879
 20
6.2512047611
 10
12.0481898426
 20
6.2531290145
  0
LWPOLYLINE
  5
7D5
100
AcDbEntity
  8
0
100
AcDbPolyline
 62
7
  6
CONTINUOUS
 90
15
 70
0
 10
12.7291642403
 20
6.2061233455
 10
12.6987295644
 20
6.1928585357
 10
12.6488099566
 20
6.175448838
 10
12.5961462376
 20
6.1611349798
 10
12.5412840151
 20
6.1500624145
 10
12.4847962755
 20
6.1423487374
 10
12.4274963076
 20
6.1380904702
 10
12.3697926403
 20
6.1373057167
 10
12.3125039569
 20
6.1399964295
 10
12.2560694836
 20
6.1461328991
 10
12.2012883922
 20
6.1556194208
 10
12.14860799
 20
6.1683671085
 10
12.0987012966
 20
6.1842069336
 10
12.0520560355
 20
6.2029741307
 10
12.0499353151
 20
6.2040368979
  0
LINE
  5
7D6
100
AcDbEntity
  8
0
100
AcDbLine
 62
7
  6
CONTINUOUS
 10
12.5643224573
 20
5.8468333305
 11
12.5892813436
 21
5.8646924782
  0
LWPOLYLINE
  5
7D7
100
AcDbEntity
  8
0
100
AcDbPolyline
 62
7
  6
CONTINUOUS
 90
6
 70
0
 10
12.5643224573
 20
5.9754163883
 10
12.5892317973
 20
5.9932336245
 10
12.6091792374
 20
6.0134330131
 10
12.6232592664
 20
6.0352319081
 10
12.6310616329
 20
6.0577647968
 10
12.6328172687
 20
6.074892319
  0
LWPOLYLINE
  5
7D8
100
AcDbEntity
  8
0
100
AcDbPolyline
 62
7
  6
CONTINUOUS
 90
6
 70
0
 10
12.5643224573
 20
5.9111248594
 10
12.5892355627
 20
5.9289452796
 10
12.6090806088
 20
5.949019871
 10
12.6230678818
 20
5.9705531077
 10
12.6309668975
 20
5.9930185947
 10
12.6328172667
 20
6.0105913392
  0
LWPOLYLINE
  5
7D9
100
AcDbEntity
  8
0
100
AcDbPolyline
 62
7
  6
CONTINUOUS
 90
6
 70
0
 10
12.5643224573
 20
5.878979095
 10
12.5892156098
 20
5.8967826448
 10
12.6091547178
 20
5.9169654586
 10
12.6232356623
 20
5.9387466301
 10
12.6310455718
 20
5.9612495618
 10
12.6328172678
 20
5.9784500179
  0
LWPOLYLINE
  5
7DA
100
AcDbEntity
  8
0
100
AcDbPolyline
 62
7
  6
CONTINUOUS
 90
6
 70
0
 10
12.5643224573
 20
5.9432706239
 10
12.5890865023
 20
5.9609651369
 10
12.6087812198
 20
5.9807982671
 10
12.6229055609
 20
6.0023735651
 10
12.630908575
 20
6.0248902837
 10
12.6328172673
 20
6.0427394731
  0
LWPOLYLINE
  5
7DB
100
AcDbEntity
  8
0
100
AcDbPolyline
 62
7
  6
CONTINUOUS
 90
4
 70
0
 10
12.5643224573
 20
5.9448779121
 10
12.535111153
 20
5.9297351
 10
12.5018000005
 20
5.9173994135
 10
12.4656646301
 20
5.9084029018
  0
LWPOLYLINE
  5
7DC
100
AcDbEntity
  8
0
100
AcDbPolyline
 62
7
  6
CONTINUOUS
 90
4
 70
0
 10
12.5643224573
 20
5.9770236766
 10
12.5350490847
 20
5.9618535432
 10
12.5021361729
 20
5.9496485961
 10
12.4663131333
 20
5.9406754902
  0
LWPOLYLINE
  5
7DD
100
AcDbEntity
  8
0
100
AcDbPolyline
 62
7
  6
CONTINUOUS
 90
4
 70
0
 10
12.5643224573
 20
6.009169441
 10
12.5349129401
 20
5.9939394427
 10
12.5015455455
 20
5.9816129238
 10
12.4655773474
 20
5.9726774524
  0
LWPOLYLINE
  5
7DE
100
AcDbEntity
  8
0
100
AcDbPolyline
 62
7
  6
CONTINUOUS
 90
4
 70
0
 10
12.5643224573
 20
6.0413152055
 10
12.5349066271
 20
6.0260824333
 10
12.501379949
 20
6.0137080349
 10
12.465081099
 20
6.0047270964
  0
LINE
  5
7DF
100
AcDbEntity
  8
0
100
AcDbLine
 62
9
  6
CONTINUOUS
 10
13.3076034559
 20
7.8767392539
 11
13.3064393169
 21
7.8807360205
  0
LWPOLYLINE
  5
7E0
100
AcDbEntity
  8
0
100
AcDbPolyline
 62
7
  6
CONTINUOUS
 90
7
 70
0
 10
12.5571119545
 20
5.826597276
 10
12.5621859678
 20
5.8296208401
 10
12.5856438503
 20
5.846627312
 10
12.6041116547
 20
5.8656741437
 10
12.6170679078
 20
5.886260978
 10
12.6241411393
 20
5.9078443188
 10
12.6242077794
 20
5.9093427467
  0
LWPOLYLINE
  5
7E1
100
AcDbEntity
  8
0
100
AcDbPolyline
 62
7
  6
CONTINUOUS
 90
11
 70
0
 10
12.5503980239
 20
5.8227241538
 10
12.5391363701
 20
5.8166704999
 10
12.5096481118
 20
5.8043009597
 10
12.4769536744
 20
5.7949974305
 10
12.4420007022
 20
5.7890295161
 10
12.4058022879
 20
5.7865699288
 10
12.3694073009
 20
5.7876895205
 10
12.3338682935
 20
5.7923556437
 10
12.3002127744
 20
5.8004336058
 10
12.2694160971
 20
5.8116897562
 10
12.2475016706
 20
5.8227328891
  0
LWPOLYLINE
  5
7E2
100
AcDbEntity
  8
0
100
AcDbPolyline
 62
7
  6
CONTINUOUS
 90
4
 70
0
 10
12.5643224573
 20
5.9127321477
 10
12.5364251569
 20
5.8981719992
 10
12.504750005
 20
5.8861746352
 10
12.4704350969
 20
5.8772181486
  0
LINE
  5
7E3
100
AcDbEntity
  8
0
100
AcDbLine
 62
7
  6
CONTINUOUS
 10
12.5349988412
 20
5.8332483824
 11
12.5643224573
 21
5.8484406188
  0
LWPOLYLINE
  5
7E4
100
AcDbEntity
  8
0
100
AcDbPolyline
 62
7
  6
CONTINUOUS
 90
4
 70
0
 10
12.5643224573
 20
5.8805863832
 10
12.5349384719
 20
5.865367605
 10
12.5014506728
 20
5.8530008343
 10
12.4651934055
 20
5.8440199662
  0
LINE
  5
7E5
100
AcDbEntity
  8
0
100
AcDbLine
 62
7
  6
CONTINUOUS
 10
12.5343951988
 20
5.8150982332
 11
12.5571119545
 21
5.826597276
  0
LWPOLYLINE
  5
7E6
100
AcDbEntity
  8
02___PRT_ALL_AXES
100
AcDbPolyline
 62
7
  6
CONTINUOUS
 90
28
 70
0
 10
13.0462095616
 20
8.3106365448
 10
12.9873345048
 20
8.3417833377
 10
12.9239815552
 20
8.3698490929
 10
12.8566328669
 20
8.3946202131
 10
12.7858010041
 20
8.4159081752
 10
12.7120250402
 20
8.4335509649
 10
12.6358664546
 20
8.4474143099
 10
12.5579048603
 20
8.4573927018
 10
12.478733592
 20
8.463410199
 10
12.3989551909
 20
8.4654210047
 10
12.3191768189
 20
8.4634098155
 10
12.2400056374
 20
8.4573919377
 10
12.162044187
 20
8.447413171
 10
12.0858858014
 20
8.4335494599
 10
12.0121100919
 20
8.4159063155
 10
11.9412785362
 20
8.3946180129
 10
11.8739302051
 20
8.3698465689
 10
11.8105776603
 20
8.3417805091
 10
11.7517030527
 20
8.3106334332
 10
11.6977544538
 20
8.2766423892
 10
11.6491424448
 20
8.2400660696
 10
11.6062369926
 20
8.2011828422
 10
11.5693646335
 20
8.1602886318
 10
11.5388059885
 20
8.117694668
 10
11.5147936273
 20
8.0737251168
 10
11.4975102985
 20
8.0287146128
 10
11.4870875387
 20
7.9830057132
 10
11.4836046712
 20
7.9369484878
  0
LWPOLYLINE
  5
7E7
100
AcDbEntity
  8
02___PRT_ALL_AXES
100
AcDbPolyline
 62
7
  6
CONTINUOUS
 90
10
 70
0
 10
13.0462095616
 20
8.3106365448
 10
13.1001586508
 20
8.2766457602
 10
13.1487711873
 20
8.2400696743
 10
13.1916772003
 20
8.2011866531
 10
13.2285501491
 20
8.16029262
 10
13.2591094085
 20
8.1176988031
 10
13.2831224038
 20
8.0737293673
 10
13.3004063818
 20
8.0287189464
 10
13.3108298009
 20
7.9830100969
 10
13.3143133326
 20
7.9369484934
  0
LWPOLYLINE
  5
7E8
100
AcDbEntity
  8
0
100
AcDbPolyline
 62
9
  6
CONTINUOUS
 90
28
 70
0
 10
13.053169245
 20
8.3146546959
 10
12.9901055695
 20
8.3478500477
 10
12.9218831099
 20
8.3776006507
 10
12.849232038
 20
8.4035763669
 10
12.772729372
 20
8.4255739236
 10
12.6930400583
 20
8.4434013638
 10
12.6108406881
 20
8.4569075176
 10
12.5268335715
 20
8.4659769387
 10
12.4417352772
 20
8.4705322791
 10
12.3562719953
 20
8.4705346621
 10
12.271172949
 20
8.4659840684
 10
12.1871642747
 20
8.4569193271
 10
12.1049627993
 20
8.4434177858
 10
12.0252699307
 20
8.4255946501
 10
11.9487656711
 20
8.4036020012
 10
11.876102815
 20
8.3776274975
 10
11.807901379
 20
8.3478927741
 10
11.7447433114
 20
8.3146515508
 10
11.6871675265
 20
8.278187468
 10
11.6356653062
 20
8.238811666
 10
11.590676108
 20
8.1968601299
 10
11.552583815
 20
8.1526908233
 10
11.5217134607
 20
8.1066806336
 10
11.4983284551
 20
8.0592221556
 10
11.4826283377
 20
8.0107203428
 10
11.4747470739
 20
7.96158905
 10
11.4747519131
 20
7.9122475065
 10
11.4826428153
 20
7.8631167236
  0
LWPOLYLINE
  5
7E9
100
AcDbEntity
  8
0
100
AcDbPolyline
 62
7
  6
CONTINUOUS
 90
32
 70
0
 10
13.0763702185
 20
8.3173324301
 10
13.0100735784
 20
8.3522306733
 10
12.9372144165
 20
8.3839335136
 10
12.860008511
 20
8.4113495758
 10
12.779094944
 20
8.4343303987
 10
12.69514099
 20
8.4527457268
 10
12.6088082742
 20
8.466493083
 10
12.5207185553
 20
8.4754955285
 10
12.4315363895
 20
8.4796871863
 10
12.3421890307
 20
8.4790309963
 10
12.2536805994
 20
8.4735723506
 10
12.166365067
 20
8.4633572024
 10
12.0799175298
 20
8.4482441171
 10
11.9950552751
 20
8.4281414209
 10
11.9155873056
 20
8.4040113804
 10
11.8450120254
 20
8.3776221885
 10
11.7829393813
 20
8.3498630956
 10
11.7274815973
 20
8.320728698
 10
11.6779268016
 20
8.2904475634
 10
11.6337300246
 20
8.2591944558
 10
11.5943855856
 20
8.2270385392
 10
11.5594562038
 20
8.1939622524
 10
11.5287100562
 20
8.1600220494
 10
11.5020053227
 20
8.1253210442
 10
11.4791715725
 20
8.089894049
 10
11.4600213249
 20
8.0536833903
 10
11.4444016127
 20
8.0166018286
 10
11.4323396181
 20
7.9790890546
 10
11.4237442141
 20
7.9418792433
 10
11.4182834175
 20
7.9056700393
 10
11.4154295175
 20
7.8704327289
 10
11.4147072223
 20
7.8404948261
  0
CIRCLE
  5
7EA
100
AcDbEntity
  8
0
100
AcDbCircle
 62
7
  6
CONTINUOUS
 10
10.5342808475
 20
1.243294839
 40
0.252091
  0
CIRCLE
  5
7EB
100
AcDbEntity
  8
0
100
AcDbCircle
 62
7
  6
CONTINUOUS
 10
10.5342808475
 20
1.243294839
 40
0.182698
  0
ARC
  5
7EC
100
AcDbEntity
  8
0
100
AcDbCircle
 62
7
  6
CONTINUOUS
 10
4.2943178401
 20
3.9144634184
 40
0.0590551181
100
AcDbArc
 50
0.0
 51
60.5838692132
  0
ARC
  5
7ED
100
AcDbEntity
  8
0
100
AcDbCircle
 62
7
  6
CONTINUOUS
 10
4.8801446118
 20
3.9144634184
 40
0.0590551181
100
AcDbArc
 50
119.4161307868
 51
180.0
  0
ARC
  5
7EE
100
AcDbEntity
  8
0
100
AcDbCircle
 62
7
  6
CONTINUOUS
 10
4.0754202023
 20
4.0050145995
 40
0.0393700787
100
AcDbArc
 50
180.0
 51
270.0
  0
ARC
  5
7EF
100
AcDbEntity
  8
0
100
AcDbCircle
 62
7
  6
CONTINUOUS
 10
5.0990422496
 20
4.0050145995
 40
0.0393700787
100
AcDbArc
 50
270.0
 51
360.0
  0
ARC
  5
7F0
100
AcDbEntity
  8
0
100
AcDbCircle
 62
7
  6
CONTINUOUS
 10
3.9966800448
 20
4.8317862531
 40
0.0393700787
100
AcDbArc
 50
5.6750079022
 51
90.0
  0
ARC
  5
7F1
100
AcDbEntity
  8
0
100
AcDbCircle
 62
7
  6
CONTINUOUS
 10
5.177782407
 20
4.8317862531
 40
0.0393700787
100
AcDbArc
 50
90.0
 51
180.0
  0
CIRCLE
  5
7F2
100
AcDbEntity
  8
0
100
AcDbCircle
 62
7
  6
CONTINUOUS
 10
4.5872312259
 20
8.0041720154
 40
0.9842519685
  0
CIRCLE
  5
7F3
100
AcDbEntity
  8
02___PRT_ALL_AXES
100
AcDbCircle
 62
7
  6
CONTINUOUS
 10
4.5872312259
 20
8.0041720154
 40
0.9153543307
  0
CIRCLE
  5
7F4
100
AcDbEntity
  8
AXIS
100
AcDbCircle
 62
7
  6
CONTINUOUS
 10
4.5872312259
 20
8.0041720154
 40
0.907480315
  0
ENDSEC
  0
SECTION
  2
OBJECTS
  0
DICTIONARY
  5
C
100
AcDbDictionary
280
0
281
1
  3
ACAD_GROUP
350
D
  3
ACAD_MLINESTYLE
350
17
  3
ACAD_LAYOUT
350
1A
  3
ACAD_PLOTSETTINGS
350
19
  3
ACAD_PLOTSTYLENAME
350
E
  0
DICTIONARY
  5
D
102
{ACAD_REACTORS
330
C
102
}
100
AcDbDictionary
280
0
281
1
  0
ACDBDICTIONARYWDFLT
  5
E
102
{ACAD_REACTORS
330
C
102
}
100
AcDbDictionary
281
1
  3
Normal
350
F
100
AcDbDictionaryWithDefault
340
F
  0
DICTIONARY
  5
17
102
{ACAD_REACTORS
330
C
102
}
100
AcDbDictionary
280
0
281
1
  3
Standard
350
18
  0
DICTIONARY
  5
19
102
{ACAD_REACTORS
330
C
102
}
100
AcDbDictionary
281
1
  0
DICTIONARY
  5
1A
102
{ACAD_REACTORS
330
C
102
}
100
AcDbDictionary
281
1
  3
Model
350
7F5
  3
Layout1
350
7F6
  0
ACDBPLACEHOLDER
  5
F
102
{ACAD_REACTORS
330
E
102
}
  0
MLINESTYLE
  5
18
102
{ACAD_REACTORS
330
17
102
}
100
AcDbMlineStyle
  2
STANDARD
 70
0
  3

 62
256
 51
90.0
 52
90.0
 71
2
 49
0.5
 62
256
  6
BYLAYER
 49
-0.5
 62
256
  6
BYLAYER
  0
LAYOUT
  5
7F5
102
{ACAD_REACTORS
330
1A
102
}
100
AcDbPlotSettings
  1

  2
none_device
  4
ANSI_B_(17.00_x_11.00_Inches)
  6

 40
0.0
 41
0.0
 42
0.0
 43
0.0
 44
431.8
 45
279.4
 46
0.0
 47
0.0
 48
0.0
 49
0.0
140
0.0
141
0.0
142
1.0
143
1.0
 70
1024
 72
0
 73
0
 74
0
  7

 75
0
147
1.0
148
0.0
149
0.0
100
AcDbLayout
  1
Model
 70
0
 71
0
 10
0.0
 20
0.0
 11
17.0
 21
11.0
 12
0.0
 22
0.0
 32
0.0
 14
0.0
 24
0.0
 34
0.0
 15
0.0
 25
0.0
 35
0.0
146
0.0
 13
0.0
 23
0.0
 33
0.0
 16
1.0
 26
0.0
 36
0.0
 17
0.0
 27
1.0
 37
0.0
 76
0
330
214
345
0
346
0
  0
LAYOUT
  5
7F6
102
{ACAD_REACTORS
330
1A
102
}
100
AcDbPlotSettings
  1

  2
none_device
  4
ANSI_B_(17.00_x_11.00_Inches)
  6

 40
0.0
 41
0.0
 42
0.0
 43
0.0
 44
431.8
 45
279.4
 46
0.0
 47
0.0
 48
0.0
 49
0.0
140
0.0
141
0.0
142
1.0
143
1.0
 70
0
 72
0
 73
0
 74
0
  7

 75
0
147
1.0
148
0.0
149
0.0
100
AcDbLayout
  1
Layout1
 70
0
 71
1
 10
0.0
 20
0.0
 11
17.0
 21
11.0
 12
0.0
 22
0.0
 32
0.0
 14
0.0
 24
0.0
 34
0.0
 15
0.0
 25
0.0
 35
0.0
146
0.0
 13
0.0
 23
0.0
 33
0.0
 16
1.0
 26
0.0
 36
0.0
 17
0.0
 27
1.0
 37
0.0
 76
0
330
215
345
0
346
0
  0
ENDSEC
  0
EOF
