999
DXF file: 158550_1.dxf
999
Pro/ENGINEER 2009141 by Parametric Technology Corporation
  0
SECTION
  2
HEADER
  9
$ACADVER
  1
AC1015
  9
$DWGCODEPAGE
  3
ANSI_1252
  9
$EXTMAX
 10
17.0
 20
11.0
 30
0.0
  9
$EXTMIN
 10
0.0
 20
0.0
 30
0.0
  9
$LIMMIN
 10
0.0
 20
0.0
  9
$LIMMAX
 10
17.0
 20
11.0
  9
$VIEWCTR
 10
8.5
 20
5.5
  9
$VIEWSIZE
 40
11.0
  9
$CLAYER
  8
0
  9
$LTSCALE
 40
0.935
  9
$CELTYPE
  6
BYLAYER
  9
$DIMSCALE
 40
1.0
  9
$DIMASZ
 40
0.1875
  9
$DIMEXO
 40
0.10625
  9
$DIMDLI
 40
0.646
  9
$DIMEXE
 40
0.306
  9
$DIMCEN
 40
0.153
  9
$DIMLFAC
 40
1.0
  9
$DIMBLK
  1
_FILLED
  9
$DIMTXT
 40
0.1
  9
$DIMTOL
 70
1
  9
$DIMLIM
 70
0
  9
$DIMTFAC
 40
1.0
  9
$DIMTP
 40
0.005
  9
$DIMTM
 40
0.005
  9
$PDMODE
 70
3
  9
$PDSIZE
 40
0.3125
  9
$HANDSEED
  5
A61
  9
$TILEMODE
 70
1
  9
$MEASUREMENT
 70
0
  9
$INSUNITS
 70
1
  0
ENDSEC
  0
SECTION
  2
CLASSES
  0
CLASS
  1
ACDBDICTIONARYWDFLT
  2
AcDbDictionaryWithDefault
  3
AutoCAD 2000
 90
0
280
0
281
0
  0
CLASS
  1
ACDBPLACEHOLDER
  2
AcDbPlaceHolder
  3
AutoCAD 2000
 90
0
280
0
281
0
  0
CLASS
  1
LAYOUT
  2
AcDbLayout
  3
AutoCAD 2000
 90
0
280
0
281
0
  0
ENDSEC
  0
SECTION
  2
TABLES
  0
TABLE
  2
VPORT
  5
8
100
AcDbSymbolTable
 70
2
  0
VPORT
  5
1F4
100
AcDbSymbolTableRecord
100
AcDbViewportTableRecord
  2
*ACTIVE
 70
0
 10
0.0
 20
0.0
 11
1.0
 21
1.0
 12
8.5
 22
5.5
 13
0.0
 23
0.0
 14
1.0
 24
1.0
 15
0.0
 25
0.0
 16
0.0
 26
0.0
 36
1.0
 17
0.0
 27
0.0
 37
0.0
 40
11.0
 41
1.5454545455
 42
50.0
 43
0.0
 44
0.0
 50
0.0
 51
0.0
 71
0
 72
100
 73
1
 74
1
 75
0
 76
0
 77
0
 78
0
  0
ENDTAB
  0
TABLE
  2
LTYPE
  5
5
100
AcDbSymbolTable
 70
6
  0
LTYPE
  5
14
100
AcDbSymbolTableRecord
100
AcDbLinetypeTableRecord
  2
BYBLOCK
 70
0
  3

 72
65
 73
0
 40
0.0
  0
LTYPE
  5
15
100
AcDbSymbolTableRecord
100
AcDbLinetypeTableRecord
  2
BYLAYER
 70
0
  3

 72
65
 73
0
 40
0.0
  0
LTYPE
  5
16
100
AcDbSymbolTableRecord
100
AcDbLinetypeTableRecord
  2
CONTINUOUS
 70
64
  3
Solid line
 72
65
 73
0
 40
0.0
  0
LTYPE
  5
1F5
100
AcDbSymbolTableRecord
100
AcDbLinetypeTableRecord
  2
CENTER
 70
64
  3
____ _ ____ _ ____ _ ____ _ ____ _ ____ _ ____
 72
65
 73
4
 40
0.6
 49
0.375
 74
0
 49
-0.075
 74
0
 49
0.075
 74
0
 49
-0.075
 74
0
  0
LTYPE
  5
1F6
100
AcDbSymbolTableRecord
100
AcDbLinetypeTableRecord
  2
HIDDEN
 70
64
  3
- - - - - - - - - - - - - - - - - - - -
 72
65
 73
2
 40
0.2
 49
0.1
 74
0
 49
-0.1
 74
0
  0
LTYPE
  5
1F7
100
AcDbSymbolTableRecord
100
AcDbLinetypeTableRecord
  2
PHANTOM
 70
64
  3
_____ _ _ _____ _ _ _____ _ _ _____
 72
65
 73
6
 40
0.8
 49
0.45
 74
0
 49
-0.05
 74
0
 49
0.1
 74
0
 49
-0.05
 74
0
 49
0.1
 74
0
 49
-0.05
 74
0
  0
LTYPE
  5
1F8
100
AcDbSymbolTableRecord
100
AcDbLinetypeTableRecord
  2
DOT
 70
64
  3
. . . . . . . . . . . . . . . . . . . .
 72
65
 73
2
 40
0.2
 49
0.1
 74
0
 49
-0.1
 74
0
  0
LTYPE
  5
1F9
100
AcDbSymbolTableRecord
100
AcDbLinetypeTableRecord
  2
DASHED
 70
64
  3
- - - - - - - - - - - - - - - - - - - -
 72
65
 73
2
 40
0.2
 49
0.1
 74
0
 49
-0.1
 74
0
  0
ENDTAB
  0
TABLE
  2
LAYER
  5
2
100
AcDbSymbolTable
 70
36
  0
LAYER
  5
10
100
AcDbSymbolTableRecord
100
AcDbLayerTableRecord
  2
0
 70
0
 62
7
  6
CONTINUOUS
370
-3
390
F
  0
LAYER
  5
1FA
100
AcDbSymbolTableRecord
100
AcDbLayerTableRecord
  2
DEFAULT_1
 70
0
 62
7
  6
CENTER
370
-3
390
F
  0
LAYER
  5
1FB
100
AcDbSymbolTableRecord
100
AcDbLayerTableRecord
  2
DEFAULT_2
 70
0
 62
8
  6
HIDDEN
370
-3
390
F
  0
LAYER
  5
1FC
100
AcDbSymbolTableRecord
100
AcDbLayerTableRecord
  2
DEFAULT_3
 70
0
 62
7
  6
PHANTOM
370
-3
390
F
  0
LAYER
  5
1FD
100
AcDbSymbolTableRecord
100
AcDbLayerTableRecord
  2
01_ALL_DTM_PLN
 70
0
 62
7
  6
CONTINUOUS
370
-3
390
F
  0
LAYER
  5
1FE
100
AcDbSymbolTableRecord
100
AcDbLayerTableRecord
  2
01__ASM_ALL_DTM_PLN
 70
0
 62
7
  6
CONTINUOUS
370
-3
390
F
  0
LAYER
  5
1FF
100
AcDbSymbolTableRecord
100
AcDbLayerTableRecord
  2
01__ASM_DEF_DTM_PLN
 70
0
 62
7
  6
CONTINUOUS
370
-3
390
F
  0
LAYER
  5
200
100
AcDbSymbolTableRecord
100
AcDbLayerTableRecord
  2
01___PRT_ALL_DTM_PLN
 70
0
 62
7
  6
CONTINUOUS
370
-3
390
F
  0
LAYER
  5
201
100
AcDbSymbolTableRecord
100
AcDbLayerTableRecord
  2
01___PRT_DEF_DTM_PLN
 70
0
 62
7
  6
CONTINUOUS
370
-3
390
F
  0
LAYER
  5
202
100
AcDbSymbolTableRecord
100
AcDbLayerTableRecord
  2
02_ALL_AXES
 70
0
 62
7
  6
CONTINUOUS
370
-3
390
F
  0
LAYER
  5
203
100
AcDbSymbolTableRecord
100
AcDbLayerTableRecord
  2
02__ASM_ALL_AXES
 70
0
 62
7
  6
CONTINUOUS
370
-3
390
F
  0
LAYER
  5
204
100
AcDbSymbolTableRecord
100
AcDbLayerTableRecord
  2
02___PRT_ALL_AXES
 70
0
 62
7
  6
CONTINUOUS
370
-3
390
F
  0
LAYER
  5
205
100
AcDbSymbolTableRecord
100
AcDbLayerTableRecord
  2
03_ALL_CURVES
 70
0
 62
7
  6
CONTINUOUS
370
-3
390
F
  0
LAYER
  5
206
100
AcDbSymbolTableRecord
100
AcDbLayerTableRecord
  2
03__ASM_ALL_CURVES
 70
0
 62
7
  6
CONTINUOUS
370
-3
390
F
  0
LAYER
  5
207
100
AcDbSymbolTableRecord
100
AcDbLayerTableRecord
  2
03___PRT_ALL_CURVES
 70
0
 62
7
  6
CONTINUOUS
370
-3
390
F
  0
LAYER
  5
208
100
AcDbSymbolTableRecord
100
AcDbLayerTableRecord
  2
04_ALL_DTM_PNT
 70
0
 62
7
  6
CONTINUOUS
370
-3
390
F
  0
LAYER
  5
209
100
AcDbSymbolTableRecord
100
AcDbLayerTableRecord
  2
04__ASM_ALL_DTM_PNT
 70
0
 62
7
  6
CONTINUOUS
370
-3
390
F
  0
LAYER
  5
20A
100
AcDbSymbolTableRecord
100
AcDbLayerTableRecord
  2
04___PRT_ALL_DTM_PNT
 70
0
 62
7
  6
CONTINUOUS
370
-3
390
F
  0
LAYER
  5
20B
100
AcDbSymbolTableRecord
100
AcDbLayerTableRecord
  2
05_ALL_DTM_CSYS
 70
0
 62
7
  6
CONTINUOUS
370
-3
390
F
  0
LAYER
  5
20C
100
AcDbSymbolTableRecord
100
AcDbLayerTableRecord
  2
05__ASM_ALL_DTM_CSYS
 70
0
 62
7
  6
CONTINUOUS
370
-3
390
F
  0
LAYER
  5
20D
100
AcDbSymbolTableRecord
100
AcDbLayerTableRecord
  2
05__ASM_DEF_DTM_CSYS
 70
0
 62
7
  6
CONTINUOUS
370
-3
390
F
  0
LAYER
  5
20E
100
AcDbSymbolTableRecord
100
AcDbLayerTableRecord
  2
05___PRT_ALL_DTM_CSYS
 70
0
 62
7
  6
CONTINUOUS
370
-3
390
F
  0
LAYER
  5
20F
100
AcDbSymbolTableRecord
100
AcDbLayerTableRecord
  2
05___PRT_DEF_DTM_CSYS
 70
0
 62
7
  6
CONTINUOUS
370
-3
390
F
  0
LAYER
  5
210
100
AcDbSymbolTableRecord
100
AcDbLayerTableRecord
  2
06_ALL_SURFS
 70
0
 62
7
  6
CONTINUOUS
370
-3
390
F
  0
LAYER
  5
211
100
AcDbSymbolTableRecord
100
AcDbLayerTableRecord
  2
06__ASM_ALL_SURFS
 70
0
 62
7
  6
CONTINUOUS
370
-3
390
F
  0
LAYER
  5
212
100
AcDbSymbolTableRecord
100
AcDbLayerTableRecord
  2
06___PRT_ALL_SURFS
 70
0
 62
7
  6
CONTINUOUS
370
-3
390
F
  0
LAYER
  5
213
100
AcDbSymbolTableRecord
100
AcDbLayerTableRecord
  2
07__ASM_ALL_SKELETONS
 70
0
 62
7
  6
CONTINUOUS
370
-3
390
F
  0
LAYER
  5
214
100
AcDbSymbolTableRecord
100
AcDbLayerTableRecord
  2
AXIS
 70
0
 62
7
  6
CONTINUOUS
370
-3
390
F
  0
LAYER
  5
215
100
AcDbSymbolTableRecord
100
AcDbLayerTableRecord
  2
AXIS_COSMETIC_THREADS
 70
0
 62
7
  6
CONTINUOUS
370
-3
390
F
  0
LAYER
  5
216
100
AcDbSymbolTableRecord
100
AcDbLayerTableRecord
  2
COSMETIC_THREADS
 70
0
 62
7
  6
CONTINUOUS
370
-3
390
F
  0
LAYER
  5
217
100
AcDbSymbolTableRecord
100
AcDbLayerTableRecord
  2
DATUM
 70
0
 62
7
  6
CONTINUOUS
370
-3
390
F
  0
LAYER
  5
218
100
AcDbSymbolTableRecord
100
AcDbLayerTableRecord
  2
DATUM_CURVES
 70
0
 62
7
  6
CONTINUOUS
370
-3
390
F
  0
LAYER
  5
219
100
AcDbSymbolTableRecord
100
AcDbLayerTableRecord
  2
DATUM_PLANES
 70
0
 62
7
  6
CONTINUOUS
370
-3
390
F
  0
LAYER
  5
21A
100
AcDbSymbolTableRecord
100
AcDbLayerTableRecord
  2
NOTES
 70
0
 62
7
  6
CONTINUOUS
370
-3
390
F
  0
LAYER
  5
21B
100
AcDbSymbolTableRecord
100
AcDbLayerTableRecord
  2
QUILTS
 70
0
 62
7
  6
CONTINUOUS
370
-3
390
F
  0
LAYER
  5
21C
100
AcDbSymbolTableRecord
100
AcDbLayerTableRecord
  2
SCHEME_DIMS
 70
0
 62
7
  6
CONTINUOUS
370
-3
390
F
  0
LAYER
  5
21D
100
AcDbSymbolTableRecord
100
AcDbLayerTableRecord
  2
SYMBOLS
 70
0
 62
7
  6
CONTINUOUS
370
-3
390
F
  0
LAYER
  5
21E
100
AcDbSymbolTableRecord
100
AcDbLayerTableRecord
  2
XSEC_DATUMS
 70
0
 62
7
  6
CONTINUOUS
370
-3
390
F
  0
ENDTAB
  0
TABLE
  2
STYLE
  5
3
100
AcDbSymbolTable
 70
1
  0
STYLE
  5
11
100
AcDbSymbolTableRecord
100
AcDbTextStyleTableRecord
  2
STANDARD
 70
0
 40
0.0
 41
1.0
 50
0.0
 71
0
 42
0.2
  3
txt
  4

  0
STYLE
  5
21F
100
AcDbSymbolTableRecord
100
AcDbTextStyleTableRecord
  2
TEXTSTYLE_1
 70
0
 40
0.0
 41
0.8
 50
0.0
 71
0
 42
0.2
  3
gdt
  4

  0
STYLE
  5
220
100
AcDbSymbolTableRecord
100
AcDbTextStyleTableRecord
  2
TEXTSTYLE_2
 70
0
 40
0.0
 41
0.8
 50
0.0
 71
0
 42
0.2
  3
txt
  4

  0
STYLE
  5
221
100
AcDbSymbolTableRecord
100
AcDbTextStyleTableRecord
  2
TEXTSTYLE_3
 70
0
 40
0.0
 41
0.85
 50
0.0
 71
0
 42
0.2
  3
txt
  4

  0
STYLE
  5
222
100
AcDbSymbolTableRecord
100
AcDbTextStyleTableRecord
  2
TEXTSTYLE_4
 70
0
 40
0.0
 41
0.92
 50
0.0
 71
0
 42
0.2
  3
txt
  4

  0
STYLE
  5
223
100
AcDbSymbolTableRecord
100
AcDbTextStyleTableRecord
  2
TEXTSTYLE_5
 70
0
 40
0.0
 41
1.0
 50
0.0
 71
0
 42
0.2
  3
gdt
  4

  0
ENDTAB
  0
TABLE
  2
VIEW
  5
6
100
AcDbSymbolTable
 70
0
  0
ENDTAB
  0
TABLE
  2
UCS
  5
7
100
AcDbSymbolTable
 70
0
  0
ENDTAB
  0
TABLE
  2
APPID
  5
9
100
AcDbSymbolTable
 70
1
  0
APPID
  5
224
100
AcDbSymbolTableRecord
100
AcDbRegAppTableRecord
  2
ACAD
 70
0
  0
ENDTAB
  0
TABLE
  2
BLOCK_RECORD
  5
1
100
AcDbSymbolTable
 70
0
  0
BLOCK_RECORD
  5
225
100
AcDbSymbolTableRecord
100
AcDbBlockTableRecord
  2
*Model_Space
  0
BLOCK_RECORD
  5
226
100
AcDbSymbolTableRecord
100
AcDbBlockTableRecord
  2
*Paper_Space
  0
BLOCK_RECORD
  5
227
100
AcDbSymbolTableRecord
100
AcDbBlockTableRecord
  2
_FILLED
  0
BLOCK_RECORD
  5
228
100
AcDbSymbolTableRecord
100
AcDbBlockTableRecord
  2
*D0
  0
BLOCK_RECORD
  5
229
100
AcDbSymbolTableRecord
100
AcDbBlockTableRecord
  2
*D1
  0
BLOCK_RECORD
  5
22A
100
AcDbSymbolTableRecord
100
AcDbBlockTableRecord
  2
*D2
  0
BLOCK_RECORD
  5
22B
100
AcDbSymbolTableRecord
100
AcDbBlockTableRecord
  2
*D3
  0
BLOCK_RECORD
  5
22C
100
AcDbSymbolTableRecord
100
AcDbBlockTableRecord
  2
*D4
  0
BLOCK_RECORD
  5
22D
100
AcDbSymbolTableRecord
100
AcDbBlockTableRecord
  2
*D5
  0
BLOCK_RECORD
  5
22E
100
AcDbSymbolTableRecord
100
AcDbBlockTableRecord
  2
*D6
  0
BLOCK_RECORD
  5
22F
100
AcDbSymbolTableRecord
100
AcDbBlockTableRecord
  2
*D7
  0
BLOCK_RECORD
  5
230
100
AcDbSymbolTableRecord
100
AcDbBlockTableRecord
  2
*D8
  0
BLOCK_RECORD
  5
231
100
AcDbSymbolTableRecord
100
AcDbBlockTableRecord
  2
CL_BL1
  0
BLOCK_RECORD
  5
232
100
AcDbSymbolTableRecord
100
AcDbBlockTableRecord
  2
BANNER_LOGO_TITLEBLOCK_BL0
  0
ENDTAB
  0
TABLE
  2
DIMSTYLE
  5
A
100
AcDbSymbolTable
 70
1
100
AcDbDimStyleTable
 71
0
  0
DIMSTYLE
105
233
100
AcDbSymbolTableRecord
100
AcDbDimStyleTableRecord
  2
STANDARD
 70
0
  3

  4

 40
1.0
 41
0.1875
 42
0.0625
 43
0.38
 44
0.18
 45
0.0
 46
0.0
 47
0.005
 48
0.005
140
0.1
141
0.09
142
0.0
143
25.4
144
1.0
145
0.0
146
1.0
147
0.09
 71
1.0
 72
0.0
 73
1
 74
1
 75
0
 76
0
 77
0
 78
4
170
0
171
2
172
0
173
0
174
0
175
0
176
0
177
0
178
0
270
2
271
3
272
3
273
2
274
2
275
0
280
0
281
0
282
0
283
1
284
4
285
0
286
0
287
3
288
0
340
11
341
227
342
227
343
227
344
227
  0
DIMSTYLE
105
234
100
AcDbSymbolTableRecord
100
AcDbDimStyleTableRecord
  2
DIMSTYLE_1
 70
0
  3

  4

 40
1.0
 41
0.1875
 42
0.0625
 43
0.38
 44
0.18
 45
0.0
 46
0.0
 47
0.1
 48
0.1
140
0.1
141
0.09
142
0.0
143
25.4
144
1.0
145
0.0
146
1.0
147
0.09
 71
0.0
 72
0.0
 73
1
 74
1
 75
0
 76
0
 77
0
 78
4
170
0
171
2
172
0
173
0
174
0
175
0
176
0
177
0
178
0
270
2
271
1
272
1
273
2
274
2
275
0
280
0
281
0
282
0
283
1
284
4
285
0
286
0
287
3
288
0
340
11
341
227
342
227
343
227
344
227
  0
ENDTAB
  0
ENDSEC
  0
SECTION
  2
BLOCKS
  0
BLOCK
  5
20
100
AcDbEntity
  8
0
100
AcDbBlockBegin
  2
*Model_Space
 70
0
 10
0.0
 20
0.0
 30
0.0
  3
*Model_Space
  1

  0
ENDBLK
  5
21
100
AcDbEntity
  8
0
100
AcDbBlockEnd
  0
BLOCK
  5
1C
100
AcDbEntity
  8
0
100
AcDbBlockBegin
  2
*Paper_Space
 70
0
 10
0.0
 20
0.0
 30
0.0
  3
*Paper_Space
  1

  0
ENDBLK
  5
1D
100
AcDbEntity
  8
0
100
AcDbBlockEnd
  0
BLOCK
  5
235
100
AcDbEntity
  8
SYMBOLS
100
AcDbBlockBegin
 62
2
  6
CONTINUOUS
  2
CL_BL1
 70
64
 10
11.1558371811
 20
4.3094344661
  3
CL_BL1
  1

  0
MTEXT
  5
236
100
AcDbEntity
  8
SYMBOLS
100
AcDbMText
 62
2
  6
CONTINUOUS
  7
TEXTSTYLE_5
 71
1
 72
1
 10
11.0708371811
 20
4.3694344661
 30
0.0
 11
1.0
 21
0.0
 31
0.0
 44
0.9
  1
{\Fgdt;q}
 40
0.12
 41
0.17
  0
ENDBLK
  5
237
100
AcDbEntity
  8
0
  6
BYBLOCK
 62
0
100
AcDbBlockEnd
  0
BLOCK
  5
238
100
AcDbEntity
  8
0
100
AcDbBlockBegin
 62
2
  6
CONTINUOUS
  2
BANNER_LOGO_TITLEBLOCK_BL0
 70
64
 10
12.9086867042
 20
2.5403783405
  3
BANNER_LOGO_TITLEBLOCK_BL0
  1

  0
ELLIPSE
  5
239
100
AcDbEntity
  8
0
100
AcDbEllipse
 62
2
  6
CONTINUOUS
 10
12.9046654608
 20
2.5403783405
 30
0.0
 11
-0.8250004575
 21
0.0
 31
0.0
 40
0.218572
 41
0.0
 42
6.2831853072
  0
ARC
  5
23A
100
AcDbEntity
  8
0
100
AcDbCircle
 62
2
  6
CONTINUOUS
 10
12.400005721
 20
2.5168763464
 40
0.0153945295
100
AcDbArc
 50
354.0454548824
 51
5.1878013979
  0
ARC
  5
23B
100
AcDbEntity
  8
0
100
AcDbCircle
 62
2
  6
CONTINUOUS
 10
12.3931760319
 20
2.5166878286
 40
0.0222174455
100
AcDbArc
 50
4.0793399388
 51
69.834329283
  0
LINE
  5
23C
100
AcDbEntity
  8
0
100
AcDbLine
 62
2
  6
CONTINUOUS
 10
12.4008351814
 20
2.5375433389
 11
12.3907841758
 21
2.5410923409
  0
LINE
  5
23D
100
AcDbEntity
  8
0
100
AcDbLine
 62
2
  6
CONTINUOUS
 10
12.3907841758
 20
2.5410923409
 11
12.3990241804
 21
2.5458683435
  0
ARC
  5
23E
100
AcDbEntity
  8
0
100
AcDbCircle
 62
2
  6
CONTINUOUS
 10
12.3771587979
 20
2.5826952352
 40
0.0428289026
100
AcDbArc
 50
300.6990502959
 51
319.0591802498
  0
ARC
  5
23F
100
AcDbEntity
  8
0
100
AcDbCircle
 62
2
  6
CONTINUOUS
 10
12.3971873948
 20
2.5665668817
 40
0.0171568255
100
AcDbArc
 50
315.9145124245
 51
16.0049121282
  0
ARC
  5
240
100
AcDbEntity
  8
0
100
AcDbCircle
 62
2
  6
CONTINUOUS
 10
12.3922357827
 20
2.5632132173
 40
0.0229166529
100
AcDbArc
 50
20.6563876465
 51
62.3316896973
  0
ARC
  5
241
100
AcDbEntity
  8
0
100
AcDbCircle
 62
2
  6
CONTINUOUS
 10
12.371573659
 20
2.5302846524
 40
0.061747717
100
AcDbArc
 50
59.5385584989
 51
90.0050977555
  0
LINE
  5
242
100
AcDbEntity
  8
0
100
AcDbLine
 62
2
  6
CONTINUOUS
 10
12.3715681652
 20
2.5920323691
 11
12.2055050731
 21
2.5920323691
  0
ARC
  5
243
100
AcDbEntity
  8
0
100
AcDbCircle
 62
2
  6
CONTINUOUS
 10
12.2055050712
 20
2.5895573696
 40
0.0024749995
100
AcDbArc
 50
89.9999571957
 51
180.0000428043
  0
LINE
  5
244
100
AcDbEntity
  8
0
100
AcDbLine
 62
2
  6
CONTINUOUS
 10
12.2030300717
 20
2.5895573678
 11
12.2030300717
 21
2.5697573568
  0
ARC
  5
245
100
AcDbEntity
  8
0
100
AcDbCircle
 62
2
  6
CONTINUOUS
 10
12.2055050712
 20
2.5697573549
 40
0.0024749995
100
AcDbArc
 50
179.9999571957
 51
270.0000428043
  0
LINE
  5
246
100
AcDbEntity
  8
0
100
AcDbLine
 62
2
  6
CONTINUOUS
 10
12.2055050731
 20
2.5672823554
 11
12.2294470864
 21
2.5672823554
  0
ARC
  5
247
100
AcDbEntity
  8
0
100
AcDbCircle
 62
2
  6
CONTINUOUS
 10
12.2294470882
 20
2.5648073559
 40
0.0024749995
100
AcDbArc
 50
359.9999571957
 51
90.0000428043
  0
LINE
  5
248
100
AcDbEntity
  8
0
100
AcDbLine
 62
2
  6
CONTINUOUS
 10
12.2319220877
 20
2.564807354
 11
12.2319220877
 21
2.5184523283
  0
ARC
  5
249
100
AcDbEntity
  8
0
100
AcDbCircle
 62
2
  6
CONTINUOUS
 10
12.2294470882
 20
2.5184523265
 40
0.0024749995
100
AcDbArc
 50
269.9999571957
 51
0.0000428043
  0
LINE
  5
24A
100
AcDbEntity
  8
0
100
AcDbLine
 62
2
  6
CONTINUOUS
 10
12.2294470864
 20
2.515977327
 11
12.2055050731
 21
2.515977327
  0
ARC
  5
24B
100
AcDbEntity
  8
0
100
AcDbCircle
 62
2
  6
CONTINUOUS
 10
12.2055050712
 20
2.5135023274
 40
0.0024749995
100
AcDbArc
 50
89.9999571957
 51
180.0000428043
  0
LINE
  5
24C
100
AcDbEntity
  8
0
100
AcDbLine
 62
2
  6
CONTINUOUS
 10
12.2030300717
 20
2.5135023256
 11
12.2030300717
 21
2.4937023146
  0
ARC
  5
24D
100
AcDbEntity
  8
0
100
AcDbCircle
 62
2
  6
CONTINUOUS
 10
12.2055050712
 20
2.4937023128
 40
0.0024749995
100
AcDbArc
 50
179.9999571957
 51
270.0000428043
  0
LINE
  5
24E
100
AcDbEntity
  8
0
100
AcDbLine
 62
2
  6
CONTINUOUS
 10
12.2055050731
 20
2.4912273132
 11
12.3819511709
 21
2.4912273132
  0
ARC
  5
24F
100
AcDbEntity
  8
0
100
AcDbCircle
 62
2
  6
CONTINUOUS
 10
12.3792298263
 20
2.539634765
 40
0.048483885
100
AcDbArc
 50
273.21763719
 51
303.0749121182
  0
ARC
  5
250
100
AcDbEntity
  8
0
100
AcDbCircle
 62
2
  6
CONTINUOUS
 10
12.3940692204
 20
2.5168671561
 40
0.0213072145
100
AcDbArc
 50
303.0488228549
 51
355.7263138674
  0
LINE
  5
251
100
AcDbEntity
  8
0
100
AcDbLine
 62
2
  6
CONTINUOUS
 10
12.2949101227
 20
2.5499573458
 11
12.3362731456
 21
2.5499573458
  0
ARC
  5
252
100
AcDbEntity
  8
0
100
AcDbCircle
 62
2
  6
CONTINUOUS
 10
12.3362731456
 20
2.5586198506
 40
0.0086625048
100
AcDbArc
 50
270.0
 51
90.0
  0
LINE
  5
253
100
AcDbEntity
  8
0
100
AcDbLine
 62
2
  6
CONTINUOUS
 10
12.3362731456
 20
2.5672823554
 11
12.2949101227
 21
2.5672823554
  0
ARC
  5
254
100
AcDbEntity
  8
0
100
AcDbCircle
 62
2
  6
CONTINUOUS
 10
12.2949101208
 20
2.5648073559
 40
0.0024749995
100
AcDbArc
 50
89.9999571957
 51
180.0000428043
  0
LINE
  5
255
100
AcDbEntity
  8
0
100
AcDbLine
 62
2
  6
CONTINUOUS
 10
12.2924351213
 20
2.564807354
 11
12.2924351213
 21
2.5524323472
  0
ARC
  5
256
100
AcDbEntity
  8
0
100
AcDbCircle
 62
2
  6
CONTINUOUS
 10
12.2949101208
 20
2.5524323453
 40
0.0024749995
100
AcDbArc
 50
179.9999571957
 51
270.0000428043
  0
LINE
  5
257
100
AcDbEntity
  8
0
100
AcDbLine
 62
2
  6
CONTINUOUS
 10
12.2924351213
 20
2.5184523283
 11
12.2924351213
 21
2.5308273352
  0
ARC
  5
258
100
AcDbEntity
  8
0
100
AcDbCircle
 62
2
  6
CONTINUOUS
 10
12.2949101208
 20
2.530827337
 40
0.0024749995
100
AcDbArc
 50
89.9999571957
 51
180.0000428043
  0
LINE
  5
259
100
AcDbEntity
  8
0
100
AcDbLine
 62
2
  6
CONTINUOUS
 10
12.2949101227
 20
2.5333023366
 11
12.3362731456
 21
2.5333023366
  0
ARC
  5
25A
100
AcDbEntity
  8
0
100
AcDbCircle
 62
2
  6
CONTINUOUS
 10
12.3362731456
 20
2.5246398318
 40
0.0086625048
100
AcDbArc
 50
270.0
 51
90.0
  0
LINE
  5
25B
100
AcDbEntity
  8
0
100
AcDbLine
 62
2
  6
CONTINUOUS
 10
12.3362731456
 20
2.515977327
 11
12.2949101227
 21
2.515977327
  0
ARC
  5
25C
100
AcDbEntity
  8
0
100
AcDbCircle
 62
2
  6
CONTINUOUS
 10
12.2949101208
 20
2.5184523265
 40
0.0024749995
100
AcDbArc
 50
179.9999571957
 51
270.0000428043
  0
ARC
  5
25D
100
AcDbEntity
  8
0
100
AcDbCircle
 62
2
  6
CONTINUOUS
 10
13.5806801742
 20
2.5212486481
 40
0.044722495
100
AcDbArc
 50
195.531588407
 51
204.7624440448
  0
LINE
  5
25E
100
AcDbEntity
  8
0
100
AcDbLine
 62
2
  6
CONTINUOUS
 10
13.5375908118
 20
2.5092733232
 11
13.5357868108
 21
2.5153423266
  0
ARC
  5
25F
100
AcDbEntity
  8
0
100
AcDbCircle
 62
2
  6
CONTINUOUS
 10
13.4974076135
 20
2.5055452462
 40
0.0396099176
100
AcDbArc
 50
14.3201081283
 51
22.4984722084
  0
ARC
  5
260
100
AcDbEntity
  8
0
100
AcDbCircle
 62
2
  6
CONTINUOUS
 10
13.5201739219
 20
2.5145168728
 40
0.0151491919
100
AcDbArc
 50
24.098260853
 51
63.0369451818
  0
ARC
  5
261
100
AcDbEntity
  8
0
100
AcDbCircle
 62
2
  6
CONTINUOUS
 10
13.5161192671
 20
2.5062372524
 40
0.0243676582
100
AcDbArc
 50
63.3666028271
 51
90.3937697637
  0
LINE
  5
262
100
AcDbEntity
  8
0
100
AcDbLine
 62
2
  6
CONTINUOUS
 10
13.5159517998
 20
2.5306043351
 11
13.4883447845
 21
2.5306043351
  0
ARC
  5
263
100
AcDbEntity
  8
0
100
AcDbCircle
 62
2
  6
CONTINUOUS
 10
13.4883447827
 20
2.5281293355
 40
0.0024749995
100
AcDbArc
 50
89.9999571957
 51
180.0000428043
  0
LINE
  5
264
100
AcDbEntity
  8
0
100
AcDbLine
 62
2
  6
CONTINUOUS
 10
13.4858697831
 20
2.5281293337
 11
13.4858697831
 21
2.5184303283
  0
ARC
  5
265
100
AcDbEntity
  8
0
100
AcDbCircle
 62
2
  6
CONTINUOUS
 10
13.4883447827
 20
2.5184303265
 40
0.0024749995
100
AcDbArc
 50
179.9999571957
 51
270.0000428043
  0
LINE
  5
266
100
AcDbEntity
  8
0
100
AcDbLine
 62
2
  6
CONTINUOUS
 10
13.4883447845
 20
2.5159553269
 11
13.5130037982
 21
2.5159553269
  0
ARC
  5
267
100
AcDbEntity
  8
0
100
AcDbCircle
 62
2
  6
CONTINUOUS
 10
13.5130038
 20
2.5134803274
 40
0.0024749995
100
AcDbArc
 50
359.9999571957
 51
90.0000428043
  0
LINE
  5
268
100
AcDbEntity
  8
0
100
AcDbLine
 62
2
  6
CONTINUOUS
 10
13.5154787995
 20
2.5134803256
 11
13.5154787995
 21
2.4937023146
  0
ARC
  5
269
100
AcDbEntity
  8
0
100
AcDbCircle
 62
2
  6
CONTINUOUS
 10
13.5130038
 20
2.4937023128
 40
0.0024749995
100
AcDbArc
 50
269.9999571957
 51
0.0000428043
  0
LINE
  5
26A
100
AcDbEntity
  8
0
100
AcDbLine
 62
2
  6
CONTINUOUS
 10
13.5130037982
 20
2.4912273132
 11
13.3994327352
 21
2.4912273132
  0
ARC
  5
26B
100
AcDbEntity
  8
0
100
AcDbCircle
 62
2
  6
CONTINUOUS
 10
13.3994327333
 20
2.4937023128
 40
0.0024749995
100
AcDbArc
 50
179.9999571957
 51
270.0000428043
  0
LINE
  5
26C
100
AcDbEntity
  8
0
100
AcDbLine
 62
2
  6
CONTINUOUS
 10
13.3969577338
 20
2.4937023146
 11
13.3969577338
 21
2.5135023256
  0
ARC
  5
26D
100
AcDbEntity
  8
0
100
AcDbCircle
 62
2
  6
CONTINUOUS
 10
13.3994327333
 20
2.5135023274
 40
0.0024749995
100
AcDbArc
 50
89.9999571957
 51
180.0000428043
  0
LINE
  5
26E
100
AcDbEntity
  8
0
100
AcDbLine
 62
2
  6
CONTINUOUS
 10
13.3994327352
 20
2.515977327
 11
13.4221787478
 21
2.515977327
  0
ARC
  5
26F
100
AcDbEntity
  8
0
100
AcDbCircle
 62
2
  6
CONTINUOUS
 10
13.4221787497
 20
2.5184523265
 40
0.0024749995
100
AcDbArc
 50
269.9999571957
 51
0.0000428042
  0
LINE
  5
270
100
AcDbEntity
  8
0
100
AcDbLine
 62
2
  6
CONTINUOUS
 10
13.4246537492
 20
2.5184523283
 11
13.4246537492
 21
2.564807354
  0
ARC
  5
271
100
AcDbEntity
  8
0
100
AcDbCircle
 62
2
  6
CONTINUOUS
 10
13.4221787497
 20
2.5648073559
 40
0.0024749995
100
AcDbArc
 50
359.9999571957
 51
90.0000428043
  0
LINE
  5
272
100
AcDbEntity
  8
0
100
AcDbLine
 62
2
  6
CONTINUOUS
 10
13.4221787478
 20
2.5672823554
 11
13.3994327352
 21
2.5672823554
  0
ARC
  5
273
100
AcDbEntity
  8
0
100
AcDbCircle
 62
2
  6
CONTINUOUS
 10
13.3994327333
 20
2.5697573549
 40
0.0024749995
100
AcDbArc
 50
179.9999571957
 51
270.0000428043
  0
LINE
  5
274
100
AcDbEntity
  8
0
100
AcDbLine
 62
2
  6
CONTINUOUS
 10
13.3969577338
 20
2.5697573568
 11
13.3969577338
 21
2.5895573678
  0
ARC
  5
275
100
AcDbEntity
  8
0
100
AcDbCircle
 62
2
  6
CONTINUOUS
 10
13.3994327333
 20
2.5895573696
 40
0.0024749995
100
AcDbArc
 50
89.9999571957
 51
180.0000428043
  0
LINE
  5
276
100
AcDbEntity
  8
0
100
AcDbLine
 62
2
  6
CONTINUOUS
 10
13.3994327352
 20
2.5920323691
 11
13.5490138181
 21
2.5920323691
  0
ARC
  5
277
100
AcDbEntity
  8
0
100
AcDbCircle
 62
2
  6
CONTINUOUS
 10
13.5463505148
 20
2.4094934586
 40
0.1825583387
100
AcDbArc
 50
79.8618509324
 51
89.1640948679
  0
ARC
  5
278
100
AcDbEntity
  8
0
100
AcDbCircle
 62
2
  6
CONTINUOUS
 10
13.5726548052
 20
2.5503169747
 40
0.039319019
100
AcDbArc
 50
59.1202086415
 51
81.4730239328
  0
ARC
  5
279
100
AcDbEntity
  8
0
100
AcDbCircle
 62
2
  6
CONTINUOUS
 10
13.5783142014
 20
2.5566516438
 40
0.0310192946
100
AcDbArc
 50
34.7540871
 51
62.0879016178
  0
ARC
  5
27A
100
AcDbEntity
  8
0
100
AcDbCircle
 62
2
  6
CONTINUOUS
 10
13.5900029525
 20
2.565201245
 40
0.0165459396
100
AcDbArc
 50
1.548452892
 51
33.5033152417
  0
ARC
  5
27B
100
AcDbEntity
  8
0
100
AcDbCircle
 62
2
  6
CONTINUOUS
 10
13.5932995477
 20
2.5653696972
 40
0.0132462337
100
AcDbArc
 50
331.1510006998
 51
1.205404301
  0
ARC
  5
27C
100
AcDbEntity
  8
0
100
AcDbCircle
 62
2
  6
CONTINUOUS
 10
13.5822888914
 20
2.5720482849
 40
0.0261183659
100
AcDbArc
 50
305.6373831893
 51
329.9727629745
  0
ARC
  5
27D
100
AcDbEntity
  8
0
100
AcDbCircle
 62
2
  6
CONTINUOUS
 10
13.5519569538
 20
2.6152551345
 40
0.0789082104
100
AcDbArc
 50
292.906155071
 51
305.2574666259
  0
ARC
  5
27E
100
AcDbEntity
  8
0
100
AcDbCircle
 62
2
  6
CONTINUOUS
 10
13.5282557878
 20
2.4386010294
 40
0.117346916
100
AcDbArc
 50
58.614769177
 51
62.3737227606
  0
ARC
  5
27F
100
AcDbEntity
  8
0
100
AcDbCircle
 62
2
  6
CONTINUOUS
 10
13.5761387404
 20
2.5167282896
 40
0.0257145923
100
AcDbArc
 50
39.3804255939
 51
59.0361096173
  0
ARC
  5
280
100
AcDbEntity
  8
0
100
AcDbCircle
 62
2
  6
CONTINUOUS
 10
13.5750183849
 20
2.5166552064
 40
0.0266349791
100
AcDbArc
 50
20.3630922153
 51
37.9727053099
  0
ARC
  5
281
100
AcDbEntity
  8
0
100
AcDbCircle
 62
2
  6
CONTINUOUS
 10
13.5571178432
 20
2.509473798
 40
0.0459185159
100
AcDbArc
 50
15.6740290068
 51
20.9917271228
  0
ARC
  5
282
100
AcDbEntity
  8
0
100
AcDbCircle
 62
2
  6
CONTINUOUS
 10
13.6156881783
 20
2.525116781
 40
0.0147197649
100
AcDbArc
 50
192.7054516565
 51
206.0594861022
  0
ARC
  5
283
100
AcDbEntity
  8
0
100
AcDbCircle
 62
2
  6
CONTINUOUS
 10
13.6071938412
 20
2.5209082945
 40
0.0052403997
100
AcDbArc
 50
205.5232099488
 51
227.5054868079
  0
ARC
  5
284
100
AcDbEntity
  8
0
100
AcDbCircle
 62
2
  6
CONTINUOUS
 10
13.6054655419
 20
2.5190929218
 40
0.0027347709
100
AcDbArc
 50
228.5117626737
 51
266.1485845754
  0
LINE
  5
285
100
AcDbEntity
  8
0
100
AcDbLine
 62
2
  6
CONTINUOUS
 10
13.6052818493
 20
2.5163643272
 11
13.60639085
 21
2.5163643272
  0
ARC
  5
286
100
AcDbEntity
  8
0
100
AcDbCircle
 62
2
  6
CONTINUOUS
 10
13.6063292954
 20
2.5296129864
 40
0.0132488022
100
AcDbArc
 50
270.266200055
 51
281.2404888597
  0
ARC
  5
287
100
AcDbEntity
  8
0
100
AcDbCircle
 62
2
  6
CONTINUOUS
 10
13.6075235364
 20
2.5238762928
 40
0.0073895522
100
AcDbArc
 50
280.8288201977
 51
305.0837508495
  0
ARC
  5
288
100
AcDbEntity
  8
0
100
AcDbCircle
 62
2
  6
CONTINUOUS
 10
13.607924718
 20
2.5230254464
 40
0.0064647042
100
AcDbArc
 50
306.5086174083
 51
340.2162360092
  0
ARC
  5
289
100
AcDbEntity
  8
0
100
AcDbCircle
 62
2
  6
CONTINUOUS
 10
13.6027235414
 20
2.524769508
 40
0.0119498009
100
AcDbArc
 50
340.7883861657
 51
1.1691452593
  0
LINE
  5
28A
100
AcDbEntity
  8
0
100
AcDbLine
 62
2
  6
CONTINUOUS
 10
13.6146708546
 20
2.525013332
 11
13.6146708546
 21
2.5276393334
  0
ARC
  5
28B
100
AcDbEntity
  8
0
100
AcDbCircle
 62
2
  6
CONTINUOUS
 10
13.6171458541
 20
2.5276393353
 40
0.0024749995
100
AcDbArc
 50
89.9999571957
 51
180.0000428043
  0
LINE
  5
28C
100
AcDbEntity
  8
0
100
AcDbLine
 62
2
  6
CONTINUOUS
 10
13.6171458559
 20
2.5301143348
 11
13.6292558626
 21
2.5301143348
  0
ARC
  5
28D
100
AcDbEntity
  8
0
100
AcDbCircle
 62
2
  6
CONTINUOUS
 10
13.6292558645
 20
2.5276393353
 40
0.0024749995
100
AcDbArc
 50
359.9999571957
 51
90.0000428043
  0
LINE
  5
28E
100
AcDbEntity
  8
0
100
AcDbLine
 62
2
  6
CONTINUOUS
 10
13.631730864
 20
2.5276393334
 11
13.631730864
 21
2.516087327
  0
ARC
  5
28F
100
AcDbEntity
  8
0
100
AcDbCircle
 62
2
  6
CONTINUOUS
 10
13.6141751675
 20
2.5161916447
 40
0.0175560065
100
AcDbArc
 50
332.2279060967
 51
359.6595469939
  0
ARC
  5
290
100
AcDbEntity
  8
0
100
AcDbCircle
 62
2
  6
CONTINUOUS
 10
13.6048681567
 20
2.5210861501
 40
0.0280715479
100
AcDbArc
 50
308.5071794988
 51
332.2400656899
  0
ARC
  5
291
100
AcDbEntity
  8
0
100
AcDbCircle
 62
2
  6
CONTINUOUS
 10
13.5978759713
 20
2.5286873679
 40
0.0383802683
100
AcDbArc
 50
288.7656836787
 51
309.6104317088
  0
ARC
  5
292
100
AcDbEntity
  8
0
100
AcDbCircle
 62
2
  6
CONTINUOUS
 10
13.6036139387
 20
2.5111006186
 40
0.0198837666
100
AcDbArc
 50
271.8586572978
 51
289.4131338543
  0
LINE
  5
293
100
AcDbEntity
  8
0
100
AcDbLine
 62
2
  6
CONTINUOUS
 10
13.6042588488
 20
2.4912273132
 11
13.5568948225
 21
2.4912273132
  0
ARC
  5
294
100
AcDbEntity
  8
0
100
AcDbCircle
 62
2
  6
CONTINUOUS
 10
13.5577001432
 20
2.5085494649
 40
0.0173408616
100
AcDbArc
 50
232.4713476722
 51
267.338189944
  0
ARC
  5
295
100
AcDbEntity
  8
0
100
AcDbCircle
 62
2
  6
CONTINUOUS
 10
13.5607987082
 20
2.5143997688
 40
0.0238935861
100
AcDbArc
 50
209.8247607259
 51
235.1255079367
  0
ARC
  5
296
100
AcDbEntity
  8
0
100
AcDbCircle
 62
2
  6
CONTINUOUS
 10
13.5295131508
 20
2.5629115009
 40
0.0110815393
100
AcDbArc
 50
306.758405961
 51
320.4502234234
  0
ARC
  5
297
100
AcDbEntity
  8
0
100
AcDbCircle
 62
2
  6
CONTINUOUS
 10
13.5238839599
 20
2.5706523294
 40
0.0206523367
100
AcDbArc
 50
289.6883413472
 51
306.4184925496
  0
ARC
  5
298
100
AcDbEntity
  8
0
100
AcDbCircle
 62
2
  6
CONTINUOUS
 10
13.5219564542
 20
2.5750459767
 40
0.0254407115
100
AcDbArc
 50
270.7327484175
 51
290.441894219
  0
LINE
  5
299
100
AcDbEntity
  8
0
100
AcDbLine
 62
2
  6
CONTINUOUS
 10
13.5222818033
 20
2.5496073456
 11
13.4883447845
 21
2.5496073456
  0
ARC
  5
29A
100
AcDbEntity
  8
0
100
AcDbCircle
 62
2
  6
CONTINUOUS
 10
13.4883447827
 20
2.5520823451
 40
0.0024749995
100
AcDbArc
 50
179.9999571957
 51
270.0000428043
  0
LINE
  5
29B
100
AcDbEntity
  8
0
100
AcDbLine
 62
2
  6
CONTINUOUS
 10
13.4858697831
 20
2.552082347
 11
13.4858697831
 21
2.564807354
  0
ARC
  5
29C
100
AcDbEntity
  8
0
100
AcDbCircle
 62
2
  6
CONTINUOUS
 10
13.4883447827
 20
2.5648073559
 40
0.0024749995
100
AcDbArc
 50
89.9999571957
 51
180.0000428043
  0
LINE
  5
29D
100
AcDbEntity
  8
0
100
AcDbLine
 62
2
  6
CONTINUOUS
 10
13.4883447845
 20
2.5672823554
 11
13.5251458049
 21
2.5672823554
  0
ARC
  5
29E
100
AcDbEntity
  8
0
100
AcDbCircle
 62
2
  6
CONTINUOUS
 10
13.5236009174
 20
2.5388278764
 40
0.0284963867
100
AcDbArc
 50
70.3834917948
 51
86.8922743861
  0
ARC
  5
29F
100
AcDbEntity
  8
0
100
AcDbCircle
 62
2
  6
CONTINUOUS
 10
13.5284605274
 20
2.5518696094
 40
0.0145814632
100
AcDbArc
 50
54.6746025112
 51
71.1660573124
  0
ARC
  5
2A0
100
AcDbEntity
  8
0
100
AcDbCircle
 62
2
  6
CONTINUOUS
 10
13.5335900184
 20
2.5587235346
 40
0.0060275915
100
AcDbArc
 50
20.9055592135
 51
56.7851676243
  0
ARC
  5
2A1
100
AcDbEntity
  8
0
100
AcDbCircle
 62
2
  6
CONTINUOUS
 10
13.5348905773
 20
2.5593838168
 40
0.0045795888
100
AcDbArc
 50
355.6235353944
 51
18.9942678268
  0
ARC
  5
2A2
100
AcDbEntity
  8
0
100
AcDbCircle
 62
2
  6
CONTINUOUS
 10
13.533683767
 20
2.559677593
 40
0.0058087709
100
AcDbArc
 50
318.8515287446
 51
353.6422345323
  0
LINE
  5
2A3
100
AcDbEntity
  8
0
100
AcDbLine
 62
2
  6
CONTINUOUS
 10
12.672340332
 20
2.5920323691
 11
12.7727983877
 21
2.5920323691
  0
ARC
  5
2A4
100
AcDbEntity
  8
0
100
AcDbCircle
 62
2
  6
CONTINUOUS
 10
12.7727985224
 20
2.5895582013
 40
0.0024741678
100
AcDbArc
 50
46.3477981899
 51
90.0031206038
  0
LINE
  5
2A5
100
AcDbEntity
  8
0
100
AcDbLine
 62
2
  6
CONTINUOUS
 10
12.7745063886
 20
2.5913483688
 11
12.8345394219
 21
2.534068337
  0
ARC
  5
2A6
100
AcDbEntity
  8
0
100
AcDbCircle
 62
2
  6
CONTINUOUS
 10
12.8362481229
 20
2.5358592748
 40
0.0024753014
100
AcDbArc
 50
226.3461263059
 51
0.0014637321
  0
LINE
  5
2A7
100
AcDbEntity
  8
0
100
AcDbLine
 62
2
  6
CONTINUOUS
 10
12.8387234242
 20
2.535859338
 11
12.8387234242
 21
2.564807354
  0
ARC
  5
2A8
100
AcDbEntity
  8
0
100
AcDbCircle
 62
2
  6
CONTINUOUS
 10
12.8362484247
 20
2.5648073559
 40
0.0024749995
100
AcDbArc
 50
359.9999571957
 51
90.0000428043
  0
LINE
  5
2A9
100
AcDbEntity
  8
0
100
AcDbLine
 62
2
  6
CONTINUOUS
 10
12.8362484229
 20
2.5672823554
 11
12.8174724125
 21
2.5672823554
  0
ARC
  5
2AA
100
AcDbEntity
  8
0
100
AcDbCircle
 62
2
  6
CONTINUOUS
 10
12.8174724106
 20
2.5697573549
 40
0.0024749995
100
AcDbArc
 50
179.9999571957
 51
270.0000428043
  0
LINE
  5
2AB
100
AcDbEntity
  8
0
100
AcDbLine
 62
2
  6
CONTINUOUS
 10
12.8149974111
 20
2.5697573568
 11
12.8149974111
 21
2.5895573678
  0
ARC
  5
2AC
100
AcDbEntity
  8
0
100
AcDbCircle
 62
2
  6
CONTINUOUS
 10
12.8174724106
 20
2.5895573696
 40
0.0024749995
100
AcDbArc
 50
89.9999571957
 51
180.0000428043
  0
LINE
  5
2AD
100
AcDbEntity
  8
0
100
AcDbLine
 62
2
  6
CONTINUOUS
 10
12.8174724125
 20
2.5920323691
 11
12.8914734535
 21
2.5920323691
  0
ARC
  5
2AE
100
AcDbEntity
  8
0
100
AcDbCircle
 62
2
  6
CONTINUOUS
 10
12.8914734553
 20
2.5895573696
 40
0.0024749995
100
AcDbArc
 50
359.9999571957
 51
90.0000428043
  0
LINE
  5
2AF
100
AcDbEntity
  8
0
100
AcDbLine
 62
2
  6
CONTINUOUS
 10
12.8939484549
 20
2.5895573678
 11
12.8939484549
 21
2.5697573568
  0
ARC
  5
2B0
100
AcDbEntity
  8
0
100
AcDbCircle
 62
2
  6
CONTINUOUS
 10
12.8914734553
 20
2.5697573549
 40
0.0024749995
100
AcDbArc
 50
269.9999571957
 51
0.0000428043
  0
LINE
  5
2B1
100
AcDbEntity
  8
0
100
AcDbLine
 62
2
  6
CONTINUOUS
 10
12.8914734535
 20
2.5672823554
 11
12.8735404436
 21
2.5672823554
  0
ARC
  5
2B2
100
AcDbEntity
  8
0
100
AcDbCircle
 62
2
  6
CONTINUOUS
 10
12.8735404417
 20
2.5648073559
 40
0.0024749995
100
AcDbArc
 50
89.9999571957
 51
180.0000428043
  0
LINE
  5
2B3
100
AcDbEntity
  8
0
100
AcDbLine
 62
2
  6
CONTINUOUS
 10
12.8710654422
 20
2.564807354
 11
12.8710654422
 21
2.4937023146
  0
ARC
  5
2B4
100
AcDbEntity
  8
0
100
AcDbCircle
 62
2
  6
CONTINUOUS
 10
12.8685904427
 20
2.4937023128
 40
0.0024749995
100
AcDbArc
 50
269.9999571957
 51
0.0000428043
  0
LINE
  5
2B5
100
AcDbEntity
  8
0
100
AcDbLine
 62
2
  6
CONTINUOUS
 10
12.8685904408
 20
2.4912273132
 11
12.7943853997
 21
2.4912273132
  0
ARC
  5
2B6
100
AcDbEntity
  8
0
100
AcDbCircle
 62
2
  6
CONTINUOUS
 10
12.7943847649
 20
2.4937027294
 40
0.0024754162
100
AcDbArc
 50
226.3593695813
 51
270.0146919953
  0
LINE
  5
2B7
100
AcDbEntity
  8
0
100
AcDbLine
 62
2
  6
CONTINUOUS
 10
12.7926763987
 20
2.4919113136
 11
12.7293963636
 21
2.5522893471
  0
ARC
  5
2B8
100
AcDbEntity
  8
0
100
AcDbCircle
 62
2
  6
CONTINUOUS
 10
12.7276876627
 20
2.5504984093
 40
0.0024753014
100
AcDbArc
 50
46.3461263059
 51
180.0014637321
  0
LINE
  5
2B9
100
AcDbEntity
  8
0
100
AcDbLine
 62
2
  6
CONTINUOUS
 10
12.7252123613
 20
2.5504983461
 11
12.7252123613
 21
2.5184523283
  0
ARC
  5
2BA
100
AcDbEntity
  8
0
100
AcDbCircle
 62
2
  6
CONTINUOUS
 10
12.7276873608
 20
2.5184523265
 40
0.0024749995
100
AcDbArc
 50
179.9999571957
 51
270.0000428043
  0
LINE
  5
2BB
100
AcDbEntity
  8
0
100
AcDbLine
 62
2
  6
CONTINUOUS
 10
12.7276873627
 20
2.515977327
 11
12.7480043739
 21
2.515977327
  0
ARC
  5
2BC
100
AcDbEntity
  8
0
100
AcDbCircle
 62
2
  6
CONTINUOUS
 10
12.7480043758
 20
2.5135023274
 40
0.0024749995
100
AcDbArc
 50
359.9999571957
 51
90.0000428043
  0
LINE
  5
2BD
100
AcDbEntity
  8
0
100
AcDbLine
 62
2
  6
CONTINUOUS
 10
12.7504793753
 20
2.5135023256
 11
12.7504793753
 21
2.4937023146
  0
ARC
  5
2BE
100
AcDbEntity
  8
0
100
AcDbCircle
 62
2
  6
CONTINUOUS
 10
12.7480043758
 20
2.4937023128
 40
0.0024749995
100
AcDbArc
 50
269.9999571957
 51
0.0000428043
  0
LINE
  5
2BF
100
AcDbEntity
  8
0
100
AcDbLine
 62
2
  6
CONTINUOUS
 10
12.7480043739
 20
2.4912273132
 11
12.672340332
 21
2.4912273132
  0
ARC
  5
2C0
100
AcDbEntity
  8
0
100
AcDbCircle
 62
2
  6
CONTINUOUS
 10
12.6723403301
 20
2.4937023128
 40
0.0024749995
100
AcDbArc
 50
179.9999571957
 51
270.0000428043
  0
LINE
  5
2C1
100
AcDbEntity
  8
0
100
AcDbLine
 62
2
  6
CONTINUOUS
 10
12.6698653306
 20
2.4937023146
 11
12.6698653306
 21
2.5135023256
  0
ARC
  5
2C2
100
AcDbEntity
  8
0
100
AcDbCircle
 62
2
  6
CONTINUOUS
 10
12.6723403301
 20
2.5135023274
 40
0.0024749995
100
AcDbArc
 50
89.9999571957
 51
180.0000428043
  0
LINE
  5
2C3
100
AcDbEntity
  8
0
100
AcDbLine
 62
2
  6
CONTINUOUS
 10
12.672340332
 20
2.515977327
 11
12.6909873423
 21
2.515977327
  0
ARC
  5
2C4
100
AcDbEntity
  8
0
100
AcDbCircle
 62
2
  6
CONTINUOUS
 10
12.6909873442
 20
2.5184523265
 40
0.0024749995
100
AcDbArc
 50
269.9999571957
 51
0.0000428043
  0
LINE
  5
2C5
100
AcDbEntity
  8
0
100
AcDbLine
 62
2
  6
CONTINUOUS
 10
12.6934623437
 20
2.5184523283
 11
12.6934623437
 21
2.564807354
  0
ARC
  5
2C6
100
AcDbEntity
  8
0
100
AcDbCircle
 62
2
  6
CONTINUOUS
 10
12.6909873442
 20
2.5648073559
 40
0.0024749995
100
AcDbArc
 50
359.9999571957
 51
90.0000428043
  0
LINE
  5
2C7
100
AcDbEntity
  8
0
100
AcDbLine
 62
2
  6
CONTINUOUS
 10
12.6909873423
 20
2.5672823554
 11
12.672340332
 21
2.5672823554
  0
ARC
  5
2C8
100
AcDbEntity
  8
0
100
AcDbCircle
 62
2
  6
CONTINUOUS
 10
12.6723403301
 20
2.5697573549
 40
0.0024749995
100
AcDbArc
 50
179.9999571957
 51
270.0000428043
  0
LINE
  5
2C9
100
AcDbEntity
  8
0
100
AcDbLine
 62
2
  6
CONTINUOUS
 10
12.6698653306
 20
2.5697573568
 11
12.6698653306
 21
2.5895573678
  0
ARC
  5
2CA
100
AcDbEntity
  8
0
100
AcDbCircle
 62
2
  6
CONTINUOUS
 10
12.6723403301
 20
2.5895573696
 40
0.0024749995
100
AcDbArc
 50
89.9999571957
 51
180.0000428043
  0
LINE
  5
2CB
100
AcDbEntity
  8
0
100
AcDbLine
 62
2
  6
CONTINUOUS
 10
12.5246402501
 20
2.5655893545
 11
12.5175232461
 21
2.5543723483
  0
ARC
  5
2CC
100
AcDbEntity
  8
0
100
AcDbCircle
 62
2
  6
CONTINUOUS
 10
12.519613138
 20
2.5530463862
 40
0.0024750401
100
AcDbArc
 50
147.6063258012
 51
270.0025305754
  0
LINE
  5
2CD
100
AcDbEntity
  8
0
100
AcDbLine
 62
2
  6
CONTINUOUS
 10
12.5196132473
 20
2.5505713461
 11
12.5401702587
 21
2.5505713461
  0
ARC
  5
2CE
100
AcDbEntity
  8
0
100
AcDbCircle
 62
2
  6
CONTINUOUS
 10
12.5401702375
 20
2.5530465533
 40
0.0024752071
100
AcDbArc
 50
270.0004896793
 51
32.9089806818
  0
LINE
  5
2CF
100
AcDbEntity
  8
0
100
AcDbLine
 62
2
  6
CONTINUOUS
 10
12.5422482598
 20
2.5543913483
 11
12.5349892558
 21
2.5656073545
  0
ARC
  5
2D0
100
AcDbEntity
  8
0
100
AcDbCircle
 62
2
  6
CONTINUOUS
 10
12.532910715
 20
2.564262895
 40
0.0024754602
100
AcDbArc
 50
32.8959418573
 51
89.9875097202
  0
LINE
  5
2D1
100
AcDbEntity
  8
0
100
AcDbLine
 62
2
  6
CONTINUOUS
 10
12.5329112547
 20
2.5667383551
 11
12.5267302512
 21
2.5667383551
  0
ARC
  5
2D2
100
AcDbEntity
  8
0
100
AcDbCircle
 62
2
  6
CONTINUOUS
 10
12.5267301809
 20
2.5642631548
 40
0.0024752003
100
AcDbArc
 50
89.998372645
 51
147.602165307
  0
LINE
  5
2D3
100
AcDbEntity
  8
0
100
AcDbLine
 62
2
  6
CONTINUOUS
 10
12.548053263
 20
2.5284903339
 11
12.5536792662
 21
2.5197973291
  0
ARC
  5
2D4
100
AcDbEntity
  8
0
100
AcDbCircle
 62
2
  6
CONTINUOUS
 10
12.5516012439
 20
2.5184525341
 40
0.0024752071
100
AcDbArc
 50
270.0004896794
 51
32.9089806818
  0
LINE
  5
2D5
100
AcDbEntity
  8
0
100
AcDbLine
 62
2
  6
CONTINUOUS
 10
12.551601265
 20
2.515977327
 11
12.537150257
 21
2.515977327
  0
ARC
  5
2D6
100
AcDbEntity
  8
0
100
AcDbCircle
 62
2
  6
CONTINUOUS
 10
12.5371502552
 20
2.5135023274
 40
0.0024749995
100
AcDbArc
 50
89.9999571957
 51
180.0000428043
  0
LINE
  5
2D7
100
AcDbEntity
  8
0
100
AcDbLine
 62
2
  6
CONTINUOUS
 10
12.5346752556
 20
2.5135023256
 11
12.5346752556
 21
2.4937023146
  0
ARC
  5
2D8
100
AcDbEntity
  8
0
100
AcDbCircle
 62
2
  6
CONTINUOUS
 10
12.5371502552
 20
2.4937023128
 40
0.0024749995
100
AcDbArc
 50
179.9999571957
 51
270.0000428043
  0
LINE
  5
2D9
100
AcDbEntity
  8
0
100
AcDbLine
 62
2
  6
CONTINUOUS
 10
12.537150257
 20
2.4912273132
 11
12.6424313154
 21
2.4912273132
  0
ARC
  5
2DA
100
AcDbEntity
  8
0
100
AcDbCircle
 62
2
  6
CONTINUOUS
 10
12.6424313172
 20
2.4937023128
 40
0.0024749995
100
AcDbArc
 50
269.9999571957
 51
0.0000428043
  0
LINE
  5
2DB
100
AcDbEntity
  8
0
100
AcDbLine
 62
2
  6
CONTINUOUS
 10
12.6449063168
 20
2.4937023146
 11
12.6449063168
 21
2.5135023256
  0
ARC
  5
2DC
100
AcDbEntity
  8
0
100
AcDbCircle
 62
2
  6
CONTINUOUS
 10
12.6424313172
 20
2.5135023274
 40
0.0024749995
100
AcDbArc
 50
359.9999571957
 51
90.0000428043
  0
LINE
  5
2DD
100
AcDbEntity
  8
0
100
AcDbLine
 62
2
  6
CONTINUOUS
 10
12.6424313154
 20
2.515977327
 11
12.6224153043
 21
2.515977327
  0
ARC
  5
2DE
100
AcDbEntity
  8
0
100
AcDbCircle
 62
2
  6
CONTINUOUS
 10
12.6224154248
 20
2.518451368
 40
0.002474041
100
AcDbArc
 50
212.9056413127
 51
269.9972091756
  0
LINE
  5
2DF
100
AcDbEntity
  8
0
100
AcDbLine
 62
2
  6
CONTINUOUS
 10
12.6203383031
 20
2.5171073276
 11
12.5725822767
 21
2.5909023685
  0
ARC
  5
2E0
100
AcDbEntity
  8
0
100
AcDbCircle
 62
2
  6
CONTINUOUS
 10
12.570504655
 20
2.589557409
 40
0.0024749602
100
AcDbArc
 50
32.9172174468
 51
90.0087853097
  0
LINE
  5
2E1
100
AcDbEntity
  8
0
100
AcDbLine
 62
2
  6
CONTINUOUS
 10
12.5705042755
 20
2.5920323691
 11
12.5133292438
 21
2.5920323691
  0
ARC
  5
2E2
100
AcDbEntity
  8
0
100
AcDbCircle
 62
2
  6
CONTINUOUS
 10
12.5133291735
 20
2.5895571688
 40
0.0024752003
100
AcDbArc
 50
89.9983726451
 51
147.602165307
  0
LINE
  5
2E3
100
AcDbEntity
  8
0
100
AcDbLine
 62
2
  6
CONTINUOUS
 10
12.5112392426
 20
2.5908833685
 11
12.4644392167
 21
2.5171263276
  0
ARC
  5
2E4
100
AcDbEntity
  8
0
100
AcDbCircle
 62
2
  6
CONTINUOUS
 10
12.4623492858
 20
2.5184525273
 40
0.0024752003
100
AcDbArc
 50
269.9983726451
 51
327.602165307
  0
LINE
  5
2E5
100
AcDbEntity
  8
0
100
AcDbLine
 62
2
  6
CONTINUOUS
 10
12.4623492155
 20
2.515977327
 11
12.4394882028
 21
2.515977327
  0
ARC
  5
2E6
100
AcDbEntity
  8
0
100
AcDbCircle
 62
2
  6
CONTINUOUS
 10
12.439488201
 20
2.5135023274
 40
0.0024749995
100
AcDbArc
 50
89.9999571957
 51
180.0000428043
  0
LINE
  5
2E7
100
AcDbEntity
  8
0
100
AcDbLine
 62
2
  6
CONTINUOUS
 10
12.4370132015
 20
2.5135023256
 11
12.4370132015
 21
2.4937023146
  0
ARC
  5
2E8
100
AcDbEntity
  8
0
100
AcDbCircle
 62
2
  6
CONTINUOUS
 10
12.439488201
 20
2.4937023128
 40
0.0024749995
100
AcDbArc
 50
179.9999571957
 51
270.0000428043
  0
LINE
  5
2E9
100
AcDbEntity
  8
0
100
AcDbLine
 62
2
  6
CONTINUOUS
 10
12.4394882028
 20
2.4912273132
 11
12.5168642458
 21
2.4912273132
  0
ARC
  5
2EA
100
AcDbEntity
  8
0
100
AcDbCircle
 62
2
  6
CONTINUOUS
 10
12.5168642476
 20
2.4937023128
 40
0.0024749995
100
AcDbArc
 50
269.9999571957
 51
0.0000428043
  0
LINE
  5
2EB
100
AcDbEntity
  8
0
100
AcDbLine
 62
2
  6
CONTINUOUS
 10
12.5193392471
 20
2.4937023146
 11
12.5193392471
 21
2.5135023256
  0
ARC
  5
2EC
100
AcDbEntity
  8
0
100
AcDbCircle
 62
2
  6
CONTINUOUS
 10
12.5168642476
 20
2.5135023274
 40
0.0024749995
100
AcDbArc
 50
359.9999571957
 51
90.0000428043
  0
LINE
  5
2ED
100
AcDbEntity
  8
0
100
AcDbLine
 62
2
  6
CONTINUOUS
 10
12.5168642458
 20
2.515977327
 11
12.5055812395
 21
2.515977327
  0
ARC
  5
2EE
100
AcDbEntity
  8
0
100
AcDbCircle
 62
2
  6
CONTINUOUS
 10
12.5055811302
 20
2.518452367
 40
0.0024750401
100
AcDbArc
 50
147.6063258011
 51
270.0025305754
  0
LINE
  5
2EF
100
AcDbEntity
  8
0
100
AcDbLine
 62
2
  6
CONTINUOUS
 10
12.5034912383
 20
2.5197783291
 11
12.5090072414
 21
2.5284723339
  0
ARC
  5
2F0
100
AcDbEntity
  8
0
100
AcDbCircle
 62
2
  6
CONTINUOUS
 10
12.5110971723
 20
2.5271461342
 40
0.0024752003
100
AcDbArc
 50
89.998372645
 51
147.602165307
  0
LINE
  5
2F1
100
AcDbEntity
  8
0
100
AcDbLine
 62
2
  6
CONTINUOUS
 10
12.5110972426
 20
2.5296213345
 11
12.5459752619
 21
2.5296213345
  0
ARC
  5
2F2
100
AcDbEntity
  8
0
100
AcDbCircle
 62
2
  6
CONTINUOUS
 10
12.5459747223
 20
2.5271458744
 40
0.0024754602
100
AcDbArc
 50
32.8959418573
 51
89.9875097202
  0
LINE
  5
2F3
100
AcDbEntity
  8
0
100
AcDbLine
 62
2
  6
CONTINUOUS
 10
12.9205934696
 20
2.5920323691
 11
13.0210515254
 21
2.5920323691
  0
ARC
  5
2F4
100
AcDbEntity
  8
0
100
AcDbCircle
 62
2
  6
CONTINUOUS
 10
13.0210516601
 20
2.5895582013
 40
0.0024741678
100
AcDbArc
 50
46.3477981899
 51
90.0031206038
  0
LINE
  5
2F5
100
AcDbEntity
  8
0
100
AcDbLine
 62
2
  6
CONTINUOUS
 10
13.0227595263
 20
2.5913483688
 11
13.0827925596
 21
2.534068337
  0
ARC
  5
2F6
100
AcDbEntity
  8
0
100
AcDbCircle
 62
2
  6
CONTINUOUS
 10
13.0845012605
 20
2.5358592748
 40
0.0024753014
100
AcDbArc
 50
226.3461263059
 51
0.0014637321
  0
LINE
  5
2F7
100
AcDbEntity
  8
0
100
AcDbLine
 62
2
  6
CONTINUOUS
 10
13.0869765619
 20
2.535859338
 11
13.0869765619
 21
2.564807354
  0
ARC
  5
2F8
100
AcDbEntity
  8
0
100
AcDbCircle
 62
2
  6
CONTINUOUS
 10
13.0845015624
 20
2.5648073559
 40
0.0024749995
100
AcDbArc
 50
359.9999571957
 51
90.0000428043
  0
LINE
  5
2F9
100
AcDbEntity
  8
0
100
AcDbLine
 62
2
  6
CONTINUOUS
 10
13.0845015605
 20
2.5672823554
 11
13.0657255501
 21
2.5672823554
  0
ARC
  5
2FA
100
AcDbEntity
  8
0
100
AcDbCircle
 62
2
  6
CONTINUOUS
 10
13.0657255483
 20
2.5697573549
 40
0.0024749995
100
AcDbArc
 50
179.9999571957
 51
270.0000428043
  0
LINE
  5
2FB
100
AcDbEntity
  8
0
100
AcDbLine
 62
2
  6
CONTINUOUS
 10
13.0632505488
 20
2.5697573568
 11
13.0632505488
 21
2.5895573678
  0
ARC
  5
2FC
100
AcDbEntity
  8
0
100
AcDbCircle
 62
2
  6
CONTINUOUS
 10
13.0657255483
 20
2.5895573696
 40
0.0024749995
100
AcDbArc
 50
89.9999571957
 51
180.0000428043
  0
LINE
  5
2FD
100
AcDbEntity
  8
0
100
AcDbLine
 62
2
  6
CONTINUOUS
 10
13.0657255501
 20
2.5920323691
 11
13.1397265912
 21
2.5920323691
  0
ARC
  5
2FE
100
AcDbEntity
  8
0
100
AcDbCircle
 62
2
  6
CONTINUOUS
 10
13.139726593
 20
2.5895573696
 40
0.0024749995
100
AcDbArc
 50
359.9999571957
 51
90.0000428043
  0
LINE
  5
2FF
100
AcDbEntity
  8
0
100
AcDbLine
 62
2
  6
CONTINUOUS
 10
13.1422015925
 20
2.5895573678
 11
13.1422015925
 21
2.5697573568
  0
ARC
  5
300
100
AcDbEntity
  8
0
100
AcDbCircle
 62
2
  6
CONTINUOUS
 10
13.139726593
 20
2.5697573549
 40
0.0024749995
100
AcDbArc
 50
269.9999571957
 51
0.0000428042
  0
LINE
  5
301
100
AcDbEntity
  8
0
100
AcDbLine
 62
2
  6
CONTINUOUS
 10
13.1397265912
 20
2.5672823554
 11
13.1217935812
 21
2.5672823554
  0
ARC
  5
302
100
AcDbEntity
  8
0
100
AcDbCircle
 62
2
  6
CONTINUOUS
 10
13.1217935794
 20
2.5648073559
 40
0.0024749995
100
AcDbArc
 50
89.9999571957
 51
180.0000428042
  0
LINE
  5
303
100
AcDbEntity
  8
0
100
AcDbLine
 62
2
  6
CONTINUOUS
 10
13.1193185799
 20
2.564807354
 11
13.1193185799
 21
2.4937023146
  0
ARC
  5
304
100
AcDbEntity
  8
0
100
AcDbCircle
 62
2
  6
CONTINUOUS
 10
13.1168435803
 20
2.4937023128
 40
0.0024749995
100
AcDbArc
 50
269.9999571957
 51
0.0000428043
  0
LINE
  5
305
100
AcDbEntity
  8
0
100
AcDbLine
 62
2
  6
CONTINUOUS
 10
13.1168435785
 20
2.4912273132
 11
13.0426375373
 21
2.4912273132
  0
ARC
  5
306
100
AcDbEntity
  8
0
100
AcDbCircle
 62
2
  6
CONTINUOUS
 10
13.0426374026
 20
2.493701481
 40
0.0024741678
100
AcDbArc
 50
226.3477981898
 51
270.0031206038
  0
LINE
  5
307
100
AcDbEntity
  8
0
100
AcDbLine
 62
2
  6
CONTINUOUS
 10
13.0409295364
 20
2.4919113136
 11
12.9776495013
 21
2.5522893471
  0
ARC
  5
308
100
AcDbEntity
  8
0
100
AcDbCircle
 62
2
  6
CONTINUOUS
 10
12.9759408003
 20
2.5504984093
 40
0.0024753014
100
AcDbArc
 50
46.3461263059
 51
180.0014637321
  0
LINE
  5
309
100
AcDbEntity
  8
0
100
AcDbLine
 62
2
  6
CONTINUOUS
 10
12.973465499
 20
2.5504983461
 11
12.973465499
 21
2.5184523283
  0
ARC
  5
30A
100
AcDbEntity
  8
0
100
AcDbCircle
 62
2
  6
CONTINUOUS
 10
12.9759404985
 20
2.5184523265
 40
0.0024749995
100
AcDbArc
 50
179.9999571957
 51
270.0000428043
  0
LINE
  5
30B
100
AcDbEntity
  8
0
100
AcDbLine
 62
2
  6
CONTINUOUS
 10
12.9759405003
 20
2.515977327
 11
12.9962575116
 21
2.515977327
  0
ARC
  5
30C
100
AcDbEntity
  8
0
100
AcDbCircle
 62
2
  6
CONTINUOUS
 10
12.9962575135
 20
2.5135023274
 40
0.0024749995
100
AcDbArc
 50
359.9999571957
 51
90.0000428043
  0
LINE
  5
30D
100
AcDbEntity
  8
0
100
AcDbLine
 62
2
  6
CONTINUOUS
 10
12.998732513
 20
2.5135023256
 11
12.998732513
 21
2.4937023146
  0
ARC
  5
30E
100
AcDbEntity
  8
0
100
AcDbCircle
 62
2
  6
CONTINUOUS
 10
12.9962575135
 20
2.4937023128
 40
0.0024749995
100
AcDbArc
 50
269.9999571957
 51
0.0000428043
  0
LINE
  5
30F
100
AcDbEntity
  8
0
100
AcDbLine
 62
2
  6
CONTINUOUS
 10
12.9962575116
 20
2.4912273132
 11
12.9205934696
 21
2.4912273132
  0
ARC
  5
310
100
AcDbEntity
  8
0
100
AcDbCircle
 62
2
  6
CONTINUOUS
 10
12.9205934678
 20
2.4937023128
 40
0.0024749995
100
AcDbArc
 50
179.9999571957
 51
270.0000428043
  0
LINE
  5
311
100
AcDbEntity
  8
0
100
AcDbLine
 62
2
  6
CONTINUOUS
 10
12.9181184683
 20
2.4937023146
 11
12.9181184683
 21
2.5135023256
  0
ARC
  5
312
100
AcDbEntity
  8
0
100
AcDbCircle
 62
2
  6
CONTINUOUS
 10
12.9205934678
 20
2.5135023274
 40
0.0024749995
100
AcDbArc
 50
89.9999571957
 51
180.0000428042
  0
LINE
  5
313
100
AcDbEntity
  8
0
100
AcDbLine
 62
2
  6
CONTINUOUS
 10
12.9205934696
 20
2.515977327
 11
12.93923948
 21
2.515977327
  0
ARC
  5
314
100
AcDbEntity
  8
0
100
AcDbCircle
 62
2
  6
CONTINUOUS
 10
12.9392394818
 20
2.5184523265
 40
0.0024749995
100
AcDbArc
 50
269.9999571957
 51
0.0000428043
  0
LINE
  5
315
100
AcDbEntity
  8
0
100
AcDbLine
 62
2
  6
CONTINUOUS
 10
12.9417144814
 20
2.5184523283
 11
12.9417144814
 21
2.564807354
  0
ARC
  5
316
100
AcDbEntity
  8
0
100
AcDbCircle
 62
2
  6
CONTINUOUS
 10
12.9392394818
 20
2.5648073559
 40
0.0024749995
100
AcDbArc
 50
359.9999571957
 51
90.0000428043
  0
LINE
  5
317
100
AcDbEntity
  8
0
100
AcDbLine
 62
2
  6
CONTINUOUS
 10
12.93923948
 20
2.5672823554
 11
12.9205934696
 21
2.5672823554
  0
ARC
  5
318
100
AcDbEntity
  8
0
100
AcDbCircle
 62
2
  6
CONTINUOUS
 10
12.9205934678
 20
2.5697573549
 40
0.0024749995
100
AcDbArc
 50
179.9999571957
 51
270.0000428043
  0
LINE
  5
319
100
AcDbEntity
  8
0
100
AcDbLine
 62
2
  6
CONTINUOUS
 10
12.9181184683
 20
2.5697573568
 11
12.9181184683
 21
2.5895573678
  0
ARC
  5
31A
100
AcDbEntity
  8
0
100
AcDbCircle
 62
2
  6
CONTINUOUS
 10
12.9205934678
 20
2.5895573696
 40
0.0024749995
100
AcDbArc
 50
89.9999571957
 51
180.0000428042
  0
LINE
  5
31B
100
AcDbEntity
  8
0
100
AcDbLine
 62
2
  6
CONTINUOUS
 10
13.2934226764
 20
2.5324773361
 11
13.2582556569
 21
2.5324773361
  0
ARC
  5
31C
100
AcDbEntity
  8
0
100
AcDbCircle
 62
2
  6
CONTINUOUS
 10
13.2582556551
 20
2.5300023366
 40
0.0024749995
100
AcDbArc
 50
89.9999571957
 51
180.0000428043
  0
LINE
  5
31D
100
AcDbEntity
  8
0
100
AcDbLine
 62
2
  6
CONTINUOUS
 10
13.2557806555
 20
2.5300023347
 11
13.2557806555
 21
2.5184523283
  0
ARC
  5
31E
100
AcDbEntity
  8
0
100
AcDbCircle
 62
2
  6
CONTINUOUS
 10
13.2582556551
 20
2.5184523265
 40
0.0024749995
100
AcDbArc
 50
179.9999571957
 51
270.0000428043
  0
LINE
  5
31F
100
AcDbEntity
  8
0
100
AcDbLine
 62
2
  6
CONTINUOUS
 10
13.2582556569
 20
2.515977327
 11
13.3232596929
 21
2.515977327
  0
ARC
  5
320
100
AcDbEntity
  8
0
100
AcDbCircle
 62
2
  6
CONTINUOUS
 10
13.3232596948
 20
2.5184523265
 40
0.0024749995
100
AcDbArc
 50
269.9999571957
 51
0.0000428043
  0
LINE
  5
321
100
AcDbEntity
  8
0
100
AcDbLine
 62
2
  6
CONTINUOUS
 10
13.3257346943
 20
2.5184523283
 11
13.3257346943
 21
2.5267023329
  0
ARC
  5
322
100
AcDbEntity
  8
0
100
AcDbCircle
 62
2
  6
CONTINUOUS
 10
13.3282096938
 20
2.5267023348
 40
0.0024749995
100
AcDbArc
 50
89.9999571957
 51
180.0000428043
  0
LINE
  5
323
100
AcDbEntity
  8
0
100
AcDbLine
 62
2
  6
CONTINUOUS
 10
13.3282096957
 20
2.5291773343
 11
13.3705287192
 21
2.5291773343
  0
ARC
  5
324
100
AcDbEntity
  8
0
100
AcDbCircle
 62
2
  6
CONTINUOUS
 10
13.370528721
 20
2.5267023348
 40
0.0024749995
100
AcDbArc
 50
359.9999571957
 51
90.0000428043
  0
LINE
  5
325
100
AcDbEntity
  8
0
100
AcDbLine
 62
2
  6
CONTINUOUS
 10
13.3730037205
 20
2.5267023329
 11
13.3730037205
 21
2.4937023146
  0
ARC
  5
326
100
AcDbEntity
  8
0
100
AcDbCircle
 62
2
  6
CONTINUOUS
 10
13.370528721
 20
2.4937023128
 40
0.0024749995
100
AcDbArc
 50
269.9999571957
 51
0.0000428043
  0
LINE
  5
327
100
AcDbEntity
  8
0
100
AcDbLine
 62
2
  6
CONTINUOUS
 10
13.3705287192
 20
2.4912273132
 11
13.1673166065
 21
2.4912273132
  0
ARC
  5
328
100
AcDbEntity
  8
0
100
AcDbCircle
 62
2
  6
CONTINUOUS
 10
13.1673166046
 20
2.4937023128
 40
0.0024749995
100
AcDbArc
 50
179.9999571957
 51
270.0000428043
  0
LINE
  5
329
100
AcDbEntity
  8
0
100
AcDbLine
 62
2
  6
CONTINUOUS
 10
13.1648416051
 20
2.4937023146
 11
13.1648416051
 21
2.5135023256
  0
ARC
  5
32A
100
AcDbEntity
  8
0
100
AcDbCircle
 62
2
  6
CONTINUOUS
 10
13.1673166046
 20
2.5135023274
 40
0.0024749995
100
AcDbArc
 50
89.9999571957
 51
180.0000428043
  0
LINE
  5
32B
100
AcDbEntity
  8
0
100
AcDbLine
 62
2
  6
CONTINUOUS
 10
13.1673166065
 20
2.515977327
 11
13.1912396197
 21
2.515977327
  0
ARC
  5
32C
100
AcDbEntity
  8
0
100
AcDbCircle
 62
2
  6
CONTINUOUS
 10
13.1912396216
 20
2.5184523265
 40
0.0024749995
100
AcDbArc
 50
269.9999571957
 51
0.0000428042
  0
LINE
  5
32D
100
AcDbEntity
  8
0
100
AcDbLine
 62
2
  6
CONTINUOUS
 10
13.1937146211
 20
2.5184523283
 11
13.1937146211
 21
2.564807354
  0
ARC
  5
32E
100
AcDbEntity
  8
0
100
AcDbCircle
 62
2
  6
CONTINUOUS
 10
13.1912396216
 20
2.5648073559
 40
0.0024749995
100
AcDbArc
 50
359.9999571957
 51
90.0000428043
  0
LINE
  5
32F
100
AcDbEntity
  8
0
100
AcDbLine
 62
2
  6
CONTINUOUS
 10
13.1912396197
 20
2.5672823554
 11
13.1673166065
 21
2.5672823554
  0
ARC
  5
330
100
AcDbEntity
  8
0
100
AcDbCircle
 62
2
  6
CONTINUOUS
 10
13.1673166046
 20
2.5697573549
 40
0.0024749995
100
AcDbArc
 50
179.9999571957
 51
270.0000428043
  0
LINE
  5
331
100
AcDbEntity
  8
0
100
AcDbLine
 62
2
  6
CONTINUOUS
 10
13.1648416051
 20
2.5697573568
 11
13.1648416051
 21
2.5895573678
  0
ARC
  5
332
100
AcDbEntity
  8
0
100
AcDbCircle
 62
2
  6
CONTINUOUS
 10
13.1673166046
 20
2.5895573696
 40
0.0024749995
100
AcDbArc
 50
89.9999571957
 51
180.0000428043
  0
LINE
  5
333
100
AcDbEntity
  8
0
100
AcDbLine
 62
2
  6
CONTINUOUS
 10
13.1673166065
 20
2.5920323691
 11
13.3691097184
 21
2.5920323691
  0
ARC
  5
334
100
AcDbEntity
  8
0
100
AcDbCircle
 62
2
  6
CONTINUOUS
 10
13.3691097202
 20
2.5895573696
 40
0.0024749995
100
AcDbArc
 50
359.9999571957
 51
90.0000428043
  0
LINE
  5
335
100
AcDbEntity
  8
0
100
AcDbLine
 62
2
  6
CONTINUOUS
 10
13.3715847197
 20
2.5895573678
 11
13.3715847197
 21
2.5565573495
  0
ARC
  5
336
100
AcDbEntity
  8
0
100
AcDbCircle
 62
2
  6
CONTINUOUS
 10
13.3691097202
 20
2.5565573476
 40
0.0024749995
100
AcDbArc
 50
269.9999571957
 51
0.0000428042
  0
LINE
  5
337
100
AcDbEntity
  8
0
100
AcDbLine
 62
2
  6
CONTINUOUS
 10
13.3691097184
 20
2.5540823481
 11
13.3272456952
 21
2.5540823481
  0
ARC
  5
338
100
AcDbEntity
  8
0
100
AcDbCircle
 62
2
  6
CONTINUOUS
 10
13.3272456933
 20
2.5565573476
 40
0.0024749995
100
AcDbArc
 50
179.9999571957
 51
270.0000428043
  0
LINE
  5
339
100
AcDbEntity
  8
0
100
AcDbLine
 62
2
  6
CONTINUOUS
 10
13.3247706938
 20
2.5565573495
 11
13.3247706938
 21
2.564807354
  0
ARC
  5
33A
100
AcDbEntity
  8
0
100
AcDbCircle
 62
2
  6
CONTINUOUS
 10
13.3222956943
 20
2.5648073559
 40
0.0024749995
100
AcDbArc
 50
359.9999571957
 51
90.0000428043
  0
LINE
  5
33B
100
AcDbEntity
  8
0
100
AcDbLine
 62
2
  6
CONTINUOUS
 10
13.3222956924
 20
2.5672823554
 11
13.2582556569
 21
2.5672823554
  0
ARC
  5
33C
100
AcDbEntity
  8
0
100
AcDbCircle
 62
2
  6
CONTINUOUS
 10
13.2582556551
 20
2.5648073559
 40
0.0024749995
100
AcDbArc
 50
89.9999571957
 51
180.0000428043
  0
LINE
  5
33D
100
AcDbEntity
  8
0
100
AcDbLine
 62
2
  6
CONTINUOUS
 10
13.2557806555
 20
2.564807354
 11
13.2557806555
 21
2.5532573476
  0
ARC
  5
33E
100
AcDbEntity
  8
0
100
AcDbCircle
 62
2
  6
CONTINUOUS
 10
13.2582556551
 20
2.5532573458
 40
0.0024749995
100
AcDbArc
 50
179.9999571957
 51
270.0000428043
  0
LINE
  5
33F
100
AcDbEntity
  8
0
100
AcDbLine
 62
2
  6
CONTINUOUS
 10
13.2582556569
 20
2.5507823463
 11
13.2934226764
 21
2.5507823463
  0
ARC
  5
340
100
AcDbEntity
  8
0
100
AcDbCircle
 62
2
  6
CONTINUOUS
 10
13.2934226783
 20
2.5483073467
 40
0.0024749995
100
AcDbArc
 50
359.9999571957
 51
90.0000428043
  0
LINE
  5
341
100
AcDbEntity
  8
0
100
AcDbLine
 62
2
  6
CONTINUOUS
 10
13.2958976778
 20
2.5483073449
 11
13.2958976778
 21
2.5349523375
  0
ARC
  5
342
100
AcDbEntity
  8
0
100
AcDbCircle
 62
2
  6
CONTINUOUS
 10
13.2934226783
 20
2.5349523356
 40
0.0024749995
100
AcDbArc
 50
269.9999571957
 51
0.0000428042
  0
LINE
  5
343
100
AcDbEntity
  8
0
100
AcDbLine
 62
2
  6
CONTINUOUS
 10
13.7286871589
 20
2.5350697372
 11
13.7286871589
 21
2.5456869438
  0
LINE
  5
344
100
AcDbEntity
  8
0
100
AcDbLine
 62
2
  6
CONTINUOUS
 10
13.7086871478
 20
2.5004302075
 11
13.7086871478
 21
2.5803264735
  0
LINE
  5
345
100
AcDbEntity
  8
0
100
AcDbLine
 62
2
  6
CONTINUOUS
 10
13.6886871368
 20
2.4843919416
 11
13.6886871368
 21
2.5963647394
  0
LINE
  5
346
100
AcDbEntity
  8
0
100
AcDbLine
 62
2
  6
CONTINUOUS
 10
13.6686871257
 20
2.4726017898
 11
13.6686871257
 21
2.6081548911
  0
LINE
  5
347
100
AcDbEntity
  8
0
100
AcDbLine
 62
2
  6
CONTINUOUS
 10
13.6486871146
 20
2.4628062688
 11
13.6486871146
 21
2.6179504122
  0
LINE
  5
348
100
AcDbEntity
  8
0
100
AcDbLine
 62
2
  6
CONTINUOUS
 10
13.6286871035
 20
2.4541253507
 11
13.6286871035
 21
2.5062483056
  0
LINE
  5
349
100
AcDbEntity
  8
0
100
AcDbLine
 62
2
  6
CONTINUOUS
 10
13.6286871035
 20
2.5301143348
 11
13.6286871035
 21
2.6266313303
  0
LINE
  5
34A
100
AcDbEntity
  8
0
100
AcDbLine
 62
2
  6
CONTINUOUS
 10
13.6086870924
 20
2.4465537903
 11
13.6086870924
 21
2.4918774918
  0
LINE
  5
34B
100
AcDbEntity
  8
0
100
AcDbLine
 62
2
  6
CONTINUOUS
 10
13.6086870924
 20
2.5165781173
 11
13.6086870924
 21
2.6342028907
  0
LINE
  5
34C
100
AcDbEntity
  8
0
100
AcDbLine
 62
2
  6
CONTINUOUS
 10
13.5886870813
 20
2.4398033466
 11
13.5886870813
 21
2.4912273132
  0
LINE
  5
34D
100
AcDbEntity
  8
0
100
AcDbLine
 62
2
  6
CONTINUOUS
 10
13.5886870813
 20
2.5391840845
 11
13.5886870813
 21
2.5454298327
  0
LINE
  5
34E
100
AcDbEntity
  8
0
100
AcDbLine
 62
2
  6
CONTINUOUS
 10
13.5886870813
 20
2.5862063472
 11
13.5886870813
 21
2.6409533343
  0
LINE
  5
34F
100
AcDbEntity
  8
0
100
AcDbLine
 62
2
  6
CONTINUOUS
 10
13.5686870702
 20
2.4334702189
 11
13.5686870702
 21
2.4912273132
  0
LINE
  5
350
100
AcDbEntity
  8
0
100
AcDbLine
 62
2
  6
CONTINUOUS
 10
13.5686870702
 20
2.5906587765
 11
13.5686870702
 21
2.647286462
  0
LINE
  5
351
100
AcDbEntity
  8
0
100
AcDbLine
 62
2
  6
CONTINUOUS
 10
13.5486870591
 20
2.4278968124
 11
13.5486870591
 21
2.4937461006
  0
LINE
  5
352
100
AcDbEntity
  8
0
100
AcDbLine
 62
2
  6
CONTINUOUS
 10
13.5486870591
 20
2.5920323691
 11
13.5486870591
 21
2.6528598686
  0
LINE
  5
353
100
AcDbEntity
  8
0
100
AcDbLine
 62
2
  6
CONTINUOUS
 10
13.528687048
 20
2.4225427674
 11
13.528687048
 21
2.5270426993
  0
LINE
  5
354
100
AcDbEntity
  8
0
100
AcDbLine
 62
2
  6
CONTINUOUS
 10
13.528687048
 20
2.5505166259
 11
13.528687048
 21
2.5668657091
  0
LINE
  5
355
100
AcDbEntity
  8
0
100
AcDbLine
 62
2
  6
CONTINUOUS
 10
13.528687048
 20
2.5920323691
 11
13.528687048
 21
2.6582139136
  0
LINE
  5
356
100
AcDbEntity
  8
0
100
AcDbLine
 62
2
  6
CONTINUOUS
 10
13.5086870369
 20
2.4177306791
 11
13.5086870369
 21
2.4912273132
  0
LINE
  5
357
100
AcDbEntity
  8
0
100
AcDbLine
 62
2
  6
CONTINUOUS
 10
13.5086870369
 20
2.5159553269
 11
13.5086870369
 21
2.5306043351
  0
LINE
  5
358
100
AcDbEntity
  8
0
100
AcDbLine
 62
2
  6
CONTINUOUS
 10
13.5086870369
 20
2.5496073456
 11
13.5086870369
 21
2.5672823554
  0
LINE
  5
359
100
AcDbEntity
  8
0
100
AcDbLine
 62
2
  6
CONTINUOUS
 10
13.5086870369
 20
2.5920323691
 11
13.5086870369
 21
2.6630260019
  0
LINE
  5
35A
100
AcDbEntity
  8
0
100
AcDbLine
 62
2
  6
CONTINUOUS
 10
13.4886870258
 20
2.4131795254
 11
13.4886870258
 21
2.4912273132
  0
LINE
  5
35B
100
AcDbEntity
  8
0
100
AcDbLine
 62
2
  6
CONTINUOUS
 10
13.4886870258
 20
2.5159553269
 11
13.4886870258
 21
2.5306043351
  0
LINE
  5
35C
100
AcDbEntity
  8
0
100
AcDbLine
 62
2
  6
CONTINUOUS
 10
13.4886870258
 20
2.5496073456
 11
13.4886870258
 21
2.5672823554
  0
LINE
  5
35D
100
AcDbEntity
  8
0
100
AcDbLine
 62
2
  6
CONTINUOUS
 10
13.4886870258
 20
2.5920323691
 11
13.4886870258
 21
2.6675771555
  0
LINE
  5
35E
100
AcDbEntity
  8
0
100
AcDbLine
 62
2
  6
CONTINUOUS
 10
13.4686870147
 20
2.4088819672
 11
13.4686870147
 21
2.4912273132
  0
LINE
  5
35F
100
AcDbEntity
  8
0
100
AcDbLine
 62
2
  6
CONTINUOUS
 10
13.4686870147
 20
2.5920323691
 11
13.4686870147
 21
2.6718747138
  0
LINE
  5
360
100
AcDbEntity
  8
0
100
AcDbLine
 62
2
  6
CONTINUOUS
 10
13.4486870037
 20
2.4050092072
 11
13.4486870037
 21
2.4912273132
  0
LINE
  5
361
100
AcDbEntity
  8
0
100
AcDbLine
 62
2
  6
CONTINUOUS
 10
13.4486870037
 20
2.5920323691
 11
13.4486870037
 21
2.6757474738
  0
LINE
  5
362
100
AcDbEntity
  8
0
100
AcDbLine
 62
2
  6
CONTINUOUS
 10
13.4286869926
 20
2.4011364471
 11
13.4286869926
 21
2.4912273132
  0
LINE
  5
363
100
AcDbEntity
  8
0
100
AcDbLine
 62
2
  6
CONTINUOUS
 10
13.4286869926
 20
2.5920323691
 11
13.4286869926
 21
2.6796202339
  0
LINE
  5
364
100
AcDbEntity
  8
0
100
AcDbLine
 62
2
  6
CONTINUOUS
 10
13.4086869815
 20
2.3980226662
 11
13.4086869815
 21
2.4912273132
  0
LINE
  5
365
100
AcDbEntity
  8
0
100
AcDbLine
 62
2
  6
CONTINUOUS
 10
13.4086869815
 20
2.515977327
 11
13.4086869815
 21
2.5672823554
  0
LINE
  5
366
100
AcDbEntity
  8
0
100
AcDbLine
 62
2
  6
CONTINUOUS
 10
13.4086869815
 20
2.5920323691
 11
13.4086869815
 21
2.6827340148
  0
LINE
  5
367
100
AcDbEntity
  8
0
100
AcDbLine
 62
2
  6
CONTINUOUS
 10
13.3886869704
 20
2.3950052774
 11
13.3886869704
 21
2.6857514036
  0
LINE
  5
368
100
AcDbEntity
  8
0
100
AcDbLine
 62
2
  6
CONTINUOUS
 10
13.3686869593
 20
2.3919878885
 11
13.3686869593
 21
2.4912273132
  0
LINE
  5
369
100
AcDbEntity
  8
0
100
AcDbLine
 62
2
  6
CONTINUOUS
 10
13.3686869593
 20
2.5291773343
 11
13.3686869593
 21
2.5540823481
  0
LINE
  5
36A
100
AcDbEntity
  8
0
100
AcDbLine
 62
2
  6
CONTINUOUS
 10
13.3686869593
 20
2.5920323691
 11
13.3686869593
 21
2.6887687924
  0
LINE
  5
36B
100
AcDbEntity
  8
0
100
AcDbLine
 62
2
  6
CONTINUOUS
 10
13.3486869482
 20
2.3889704997
 11
13.3486869482
 21
2.4912273132
  0
LINE
  5
36C
100
AcDbEntity
  8
0
100
AcDbLine
 62
2
  6
CONTINUOUS
 10
13.3486869482
 20
2.5291773343
 11
13.3486869482
 21
2.5540823481
  0
LINE
  5
36D
100
AcDbEntity
  8
0
100
AcDbLine
 62
2
  6
CONTINUOUS
 10
13.3486869482
 20
2.5920323691
 11
13.3486869482
 21
2.6917861813
  0
LINE
  5
36E
100
AcDbEntity
  8
0
100
AcDbLine
 62
2
  6
CONTINUOUS
 10
13.3286869371
 20
2.3859531109
 11
13.3286869371
 21
2.4912273132
  0
LINE
  5
36F
100
AcDbEntity
  8
0
100
AcDbLine
 62
2
  6
CONTINUOUS
 10
13.3286869371
 20
2.5291773343
 11
13.3286869371
 21
2.5540823481
  0
LINE
  5
370
100
AcDbEntity
  8
0
100
AcDbLine
 62
2
  6
CONTINUOUS
 10
13.3286869371
 20
2.5920323691
 11
13.3286869371
 21
2.6948035701
  0
LINE
  5
371
100
AcDbEntity
  8
0
100
AcDbLine
 62
2
  6
CONTINUOUS
 10
13.308686926
 20
2.3833355437
 11
13.308686926
 21
2.4912273132
  0
LINE
  5
372
100
AcDbEntity
  8
0
100
AcDbLine
 62
2
  6
CONTINUOUS
 10
13.308686926
 20
2.515977327
 11
13.308686926
 21
2.5672823554
  0
LINE
  5
373
100
AcDbEntity
  8
0
100
AcDbLine
 62
2
  6
CONTINUOUS
 10
13.308686926
 20
2.5920323691
 11
13.308686926
 21
2.6974211373
  0
LINE
  5
374
100
AcDbEntity
  8
0
100
AcDbLine
 62
2
  6
CONTINUOUS
 10
13.2886869149
 20
2.3812612684
 11
13.2886869149
 21
2.4912273132
  0
LINE
  5
375
100
AcDbEntity
  8
0
100
AcDbLine
 62
2
  6
CONTINUOUS
 10
13.2886869149
 20
2.515977327
 11
13.2886869149
 21
2.5324773361
  0
LINE
  5
376
100
AcDbEntity
  8
0
100
AcDbLine
 62
2
  6
CONTINUOUS
 10
13.2886869149
 20
2.5507823463
 11
13.2886869149
 21
2.5672823554
  0
LINE
  5
377
100
AcDbEntity
  8
0
100
AcDbLine
 62
2
  6
CONTINUOUS
 10
13.2886869149
 20
2.5920323691
 11
13.2886869149
 21
2.6994954125
  0
LINE
  5
378
100
AcDbEntity
  8
0
100
AcDbLine
 62
2
  6
CONTINUOUS
 10
13.2686869038
 20
2.3791869932
 11
13.2686869038
 21
2.4912273132
  0
LINE
  5
379
100
AcDbEntity
  8
0
100
AcDbLine
 62
2
  6
CONTINUOUS
 10
13.2686869038
 20
2.515977327
 11
13.2686869038
 21
2.5324773361
  0
LINE
  5
37A
100
AcDbEntity
  8
0
100
AcDbLine
 62
2
  6
CONTINUOUS
 10
13.2686869038
 20
2.5507823463
 11
13.2686869038
 21
2.5672823554
  0
LINE
  5
37B
100
AcDbEntity
  8
0
100
AcDbLine
 62
2
  6
CONTINUOUS
 10
13.2686869038
 20
2.5920323691
 11
13.2686869038
 21
2.7015696878
  0
LINE
  5
37C
100
AcDbEntity
  8
0
100
AcDbLine
 62
2
  6
CONTINUOUS
 10
13.2486868927
 20
2.377112718
 11
13.2486868927
 21
2.4912273132
  0
LINE
  5
37D
100
AcDbEntity
  8
0
100
AcDbLine
 62
2
  6
CONTINUOUS
 10
13.2486868927
 20
2.5920323691
 11
13.2486868927
 21
2.703643963
  0
LINE
  5
37E
100
AcDbEntity
  8
0
100
AcDbLine
 62
2
  6
CONTINUOUS
 10
13.2286868817
 20
2.3750384428
 11
13.2286868817
 21
2.4912273132
  0
LINE
  5
37F
100
AcDbEntity
  8
0
100
AcDbLine
 62
2
  6
CONTINUOUS
 10
13.2286868817
 20
2.5920323691
 11
13.2286868817
 21
2.7057182382
  0
LINE
  5
380
100
AcDbEntity
  8
0
100
AcDbLine
 62
2
  6
CONTINUOUS
 10
13.2086868706
 20
2.3729641676
 11
13.2086868706
 21
2.4912273132
  0
LINE
  5
381
100
AcDbEntity
  8
0
100
AcDbLine
 62
2
  6
CONTINUOUS
 10
13.2086868706
 20
2.5920323691
 11
13.2086868706
 21
2.7077925134
  0
LINE
  5
382
100
AcDbEntity
  8
0
100
AcDbLine
 62
2
  6
CONTINUOUS
 10
13.1886868595
 20
2.3712344456
 11
13.1886868595
 21
2.4912273132
  0
LINE
  5
383
100
AcDbEntity
  8
0
100
AcDbLine
 62
2
  6
CONTINUOUS
 10
13.1886868595
 20
2.515977327
 11
13.1886868595
 21
2.5672823554
  0
LINE
  5
384
100
AcDbEntity
  8
0
100
AcDbLine
 62
2
  6
CONTINUOUS
 10
13.1886868595
 20
2.5920323691
 11
13.1886868595
 21
2.7095222354
  0
LINE
  5
385
100
AcDbEntity
  8
0
100
AcDbLine
 62
2
  6
CONTINUOUS
 10
13.1686868484
 20
2.3699682418
 11
13.1686868484
 21
2.4912273132
  0
LINE
  5
386
100
AcDbEntity
  8
0
100
AcDbLine
 62
2
  6
CONTINUOUS
 10
13.1686868484
 20
2.515977327
 11
13.1686868484
 21
2.5672823554
  0
LINE
  5
387
100
AcDbEntity
  8
0
100
AcDbLine
 62
2
  6
CONTINUOUS
 10
13.1686868484
 20
2.5920323691
 11
13.1686868484
 21
2.7107884392
  0
LINE
  5
388
100
AcDbEntity
  8
0
100
AcDbLine
 62
2
  6
CONTINUOUS
 10
13.1486868373
 20
2.3687020381
 11
13.1486868373
 21
2.7120546429
  0
LINE
  5
389
100
AcDbEntity
  8
0
100
AcDbLine
 62
2
  6
CONTINUOUS
 10
13.1286868262
 20
2.3674358343
 11
13.1286868262
 21
2.5672823554
  0
LINE
  5
38A
100
AcDbEntity
  8
0
100
AcDbLine
 62
2
  6
CONTINUOUS
 10
13.1286868262
 20
2.5920323691
 11
13.1286868262
 21
2.7133208466
  0
LINE
  5
38B
100
AcDbEntity
  8
0
100
AcDbLine
 62
2
  6
CONTINUOUS
 10
13.1086868151
 20
2.3661696306
 11
13.1086868151
 21
2.4912273132
  0
LINE
  5
38C
100
AcDbEntity
  8
0
100
AcDbLine
 62
2
  6
CONTINUOUS
 10
13.1086868151
 20
2.5920323691
 11
13.1086868151
 21
2.7145870504
  0
LINE
  5
38D
100
AcDbEntity
  8
0
100
AcDbLine
 62
2
  6
CONTINUOUS
 10
13.088686804
 20
2.3649034269
 11
13.088686804
 21
2.4912273132
  0
LINE
  5
38E
100
AcDbEntity
  8
0
100
AcDbLine
 62
2
  6
CONTINUOUS
 10
13.088686804
 20
2.5920323691
 11
13.088686804
 21
2.7158532541
  0
LINE
  5
38F
100
AcDbEntity
  8
0
100
AcDbLine
 62
2
  6
CONTINUOUS
 10
13.0686867929
 20
2.3636739922
 11
13.0686867929
 21
2.4912273132
  0
LINE
  5
390
100
AcDbEntity
  8
0
100
AcDbLine
 62
2
  6
CONTINUOUS
 10
13.0686867929
 20
2.5475272398
 11
13.0686867929
 21
2.5672823554
  0
LINE
  5
391
100
AcDbEntity
  8
0
100
AcDbLine
 62
2
  6
CONTINUOUS
 10
13.0686867929
 20
2.5920323691
 11
13.0686867929
 21
2.7170826887
  0
LINE
  5
392
100
AcDbEntity
  8
0
100
AcDbLine
 62
2
  6
CONTINUOUS
 10
13.0486867818
 20
2.363143203
 11
13.0486867818
 21
2.4912273132
  0
LINE
  5
393
100
AcDbEntity
  8
0
100
AcDbLine
 62
2
  6
CONTINUOUS
 10
13.0486867818
 20
2.5666100882
 11
13.0486867818
 21
2.717613478
  0
LINE
  5
394
100
AcDbEntity
  8
0
100
AcDbLine
 62
2
  6
CONTINUOUS
 10
13.0286867707
 20
2.3626124138
 11
13.0286867707
 21
2.50359263
  0
LINE
  5
395
100
AcDbEntity
  8
0
100
AcDbLine
 62
2
  6
CONTINUOUS
 10
13.0286867707
 20
2.5856929366
 11
13.0286867707
 21
2.7181442672
  0
LINE
  5
396
100
AcDbEntity
  8
0
100
AcDbLine
 62
2
  6
CONTINUOUS
 10
13.0086867596
 20
2.3620816246
 11
13.0086867596
 21
2.5226754472
  0
LINE
  5
397
100
AcDbEntity
  8
0
100
AcDbLine
 62
2
  6
CONTINUOUS
 10
13.0086867596
 20
2.5920323691
 11
13.0086867596
 21
2.7186750564
  0
LINE
  5
398
100
AcDbEntity
  8
0
100
AcDbLine
 62
2
  6
CONTINUOUS
 10
12.9886867486
 20
2.3615508354
 11
12.9886867486
 21
2.4912273132
  0
LINE
  5
399
100
AcDbEntity
  8
0
100
AcDbLine
 62
2
  6
CONTINUOUS
 10
12.9886867486
 20
2.515977327
 11
12.9886867486
 21
2.5417582644
  0
LINE
  5
39A
100
AcDbEntity
  8
0
100
AcDbLine
 62
2
  6
CONTINUOUS
 10
12.9886867486
 20
2.5920323691
 11
12.9886867486
 21
2.7192058456
  0
LINE
  5
39B
100
AcDbEntity
  8
0
100
AcDbLine
 62
2
  6
CONTINUOUS
 10
12.9686867375
 20
2.3610200462
 11
12.9686867375
 21
2.4912273132
  0
LINE
  5
39C
100
AcDbEntity
  8
0
100
AcDbLine
 62
2
  6
CONTINUOUS
 10
12.9686867375
 20
2.5920323691
 11
12.9686867375
 21
2.7197366348
  0
LINE
  5
39D
100
AcDbEntity
  8
0
100
AcDbLine
 62
2
  6
CONTINUOUS
 10
12.9486867264
 20
2.360489257
 11
12.9486867264
 21
2.4912273132
  0
LINE
  5
39E
100
AcDbEntity
  8
0
100
AcDbLine
 62
2
  6
CONTINUOUS
 10
12.9486867264
 20
2.5920323691
 11
12.9486867264
 21
2.720267424
  0
LINE
  5
39F
100
AcDbEntity
  8
0
100
AcDbLine
 62
2
  6
CONTINUOUS
 10
12.9286867153
 20
2.3602836008
 11
12.9286867153
 21
2.4912273132
  0
LINE
  5
3A0
100
AcDbEntity
  8
0
100
AcDbLine
 62
2
  6
CONTINUOUS
 10
12.9286867153
 20
2.515977327
 11
12.9286867153
 21
2.5672823554
  0
LINE
  5
3A1
100
AcDbEntity
  8
0
100
AcDbLine
 62
2
  6
CONTINUOUS
 10
12.9286867153
 20
2.5920323691
 11
12.9286867153
 21
2.7204730802
  0
LINE
  5
3A2
100
AcDbEntity
  8
0
100
AcDbLine
 62
2
  6
CONTINUOUS
 10
12.9086867042
 20
2.3604597639
 11
12.9086867042
 21
2.7202969171
  0
LINE
  5
3A3
100
AcDbEntity
  8
0
100
AcDbLine
 62
2
  6
CONTINUOUS
 10
12.8886866931
 20
2.360635927
 11
12.8886866931
 21
2.5672823554
  0
LINE
  5
3A4
100
AcDbEntity
  8
0
100
AcDbLine
 62
2
  6
CONTINUOUS
 10
12.8886866931
 20
2.5920323691
 11
12.8886866931
 21
2.720120754
  0
LINE
  5
3A5
100
AcDbEntity
  8
0
100
AcDbLine
 62
2
  6
CONTINUOUS
 10
12.868686682
 20
2.3608120901
 11
12.868686682
 21
2.491232357
  0
LINE
  5
3A6
100
AcDbEntity
  8
0
100
AcDbLine
 62
2
  6
CONTINUOUS
 10
12.868686682
 20
2.5920323691
 11
12.868686682
 21
2.7199445909
  0
LINE
  5
3A7
100
AcDbEntity
  8
0
100
AcDbLine
 62
2
  6
CONTINUOUS
 10
12.8486866709
 20
2.3609882532
 11
12.8486866709
 21
2.4912273132
  0
LINE
  5
3A8
100
AcDbEntity
  8
0
100
AcDbLine
 62
2
  6
CONTINUOUS
 10
12.8486866709
 20
2.5920323691
 11
12.8486866709
 21
2.7197684278
  0
LINE
  5
3A9
100
AcDbEntity
  8
0
100
AcDbLine
 62
2
  6
CONTINUOUS
 10
12.8286866598
 20
2.3611644163
 11
12.8286866598
 21
2.4912273132
  0
LINE
  5
3AA
100
AcDbEntity
  8
0
100
AcDbLine
 62
2
  6
CONTINUOUS
 10
12.8286866598
 20
2.5396527025
 11
12.8286866598
 21
2.5672823554
  0
LINE
  5
3AB
100
AcDbEntity
  8
0
100
AcDbLine
 62
2
  6
CONTINUOUS
 10
12.8286866598
 20
2.5920323691
 11
12.8286866598
 21
2.7195922647
  0
LINE
  5
3AC
100
AcDbEntity
  8
0
100
AcDbLine
 62
2
  6
CONTINUOUS
 10
12.8086866487
 20
2.3613405794
 11
12.8086866487
 21
2.4912273132
  0
LINE
  5
3AD
100
AcDbEntity
  8
0
100
AcDbLine
 62
2
  6
CONTINUOUS
 10
12.8086866487
 20
2.5587355508
 11
12.8086866487
 21
2.7194161016
  0
LINE
  5
3AE
100
AcDbEntity
  8
0
100
AcDbLine
 62
2
  6
CONTINUOUS
 10
12.7886866376
 20
2.3621089572
 11
12.7886866376
 21
2.4957181055
  0
LINE
  5
3AF
100
AcDbEntity
  8
0
100
AcDbLine
 62
2
  6
CONTINUOUS
 10
12.7886866376
 20
2.5778183992
 11
12.7886866376
 21
2.7186477238
  0
LINE
  5
3B0
100
AcDbEntity
  8
0
100
AcDbLine
 62
2
  6
CONTINUOUS
 10
12.7686866266
 20
2.3630013935
 11
12.7686866266
 21
2.5148009227
  0
LINE
  5
3B1
100
AcDbEntity
  8
0
100
AcDbLine
 62
2
  6
CONTINUOUS
 10
12.7686866266
 20
2.5920323691
 11
12.7686866266
 21
2.7177552874
  0
LINE
  5
3B2
100
AcDbEntity
  8
0
100
AcDbLine
 62
2
  6
CONTINUOUS
 10
12.7486866155
 20
2.3638938299
 11
12.7486866155
 21
2.4913263218
  0
LINE
  5
3B3
100
AcDbEntity
  8
0
100
AcDbLine
 62
2
  6
CONTINUOUS
 10
12.7486866155
 20
2.5158783184
 11
12.7486866155
 21
2.5338837399
  0
LINE
  5
3B4
100
AcDbEntity
  8
0
100
AcDbLine
 62
2
  6
CONTINUOUS
 10
12.7486866155
 20
2.5920323691
 11
12.7486866155
 21
2.7168628511
  0
LINE
  5
3B5
100
AcDbEntity
  8
0
100
AcDbLine
 62
2
  6
CONTINUOUS
 10
12.7286866044
 20
2.3647862663
 11
12.7286866044
 21
2.4912273132
  0
LINE
  5
3B6
100
AcDbEntity
  8
0
100
AcDbLine
 62
2
  6
CONTINUOUS
 10
12.7286866044
 20
2.515977327
 11
12.7286866044
 21
2.5527601554
  0
LINE
  5
3B7
100
AcDbEntity
  8
0
100
AcDbLine
 62
2
  6
CONTINUOUS
 10
12.7286866044
 20
2.5920323691
 11
12.7286866044
 21
2.7159704147
  0
LINE
  5
3B8
100
AcDbEntity
  8
0
100
AcDbLine
 62
2
  6
CONTINUOUS
 10
12.7086865933
 20
2.3656787026
 11
12.7086865933
 21
2.4912273132
  0
LINE
  5
3B9
100
AcDbEntity
  8
0
100
AcDbLine
 62
2
  6
CONTINUOUS
 10
12.7086865933
 20
2.5920323691
 11
12.7086865933
 21
2.7150779784
  0
LINE
  5
3BA
100
AcDbEntity
  8
0
100
AcDbLine
 62
2
  6
CONTINUOUS
 10
12.6886865822
 20
2.366571139
 11
12.6886865822
 21
2.4912273132
  0
LINE
  5
3BB
100
AcDbEntity
  8
0
100
AcDbLine
 62
2
  6
CONTINUOUS
 10
12.6886865822
 20
2.515977327
 11
12.6886865822
 21
2.5672823554
  0
LINE
  5
3BC
100
AcDbEntity
  8
0
100
AcDbLine
 62
2
  6
CONTINUOUS
 10
12.6886865822
 20
2.5920323691
 11
12.6886865822
 21
2.714185542
  0
LINE
  5
3BD
100
AcDbEntity
  8
0
100
AcDbLine
 62
2
  6
CONTINUOUS
 10
12.6686865711
 20
2.3677104027
 11
12.6686865711
 21
2.7130462783
  0
LINE
  5
3BE
100
AcDbEntity
  8
0
100
AcDbLine
 62
2
  6
CONTINUOUS
 10
12.64868656
 20
2.3693682721
 11
12.64868656
 21
2.7113884089
  0
LINE
  5
3BF
100
AcDbEntity
  8
0
100
AcDbLine
 62
2
  6
CONTINUOUS
 10
12.6286865489
 20
2.3710261415
 11
12.6286865489
 21
2.4912273132
  0
LINE
  5
3C0
100
AcDbEntity
  8
0
100
AcDbLine
 62
2
  6
CONTINUOUS
 10
12.6286865489
 20
2.515977327
 11
12.6286865489
 21
2.7097305395
  0
LINE
  5
3C1
100
AcDbEntity
  8
0
100
AcDbLine
 62
2
  6
CONTINUOUS
 10
12.6086865378
 20
2.372684011
 11
12.6086865378
 21
2.4912273132
  0
LINE
  5
3C2
100
AcDbEntity
  8
0
100
AcDbLine
 62
2
  6
CONTINUOUS
 10
12.6086865378
 20
2.5351122279
 11
12.6086865378
 21
2.70807267
  0
LINE
  5
3C3
100
AcDbEntity
  8
0
100
AcDbLine
 62
2
  6
CONTINUOUS
 10
12.5886865267
 20
2.3743418804
 11
12.5886865267
 21
2.4912273132
  0
LINE
  5
3C4
100
AcDbEntity
  8
0
100
AcDbLine
 62
2
  6
CONTINUOUS
 10
12.5886865267
 20
2.5660172622
 11
12.5886865267
 21
2.7064148006
  0
LINE
  5
3C5
100
AcDbEntity
  8
0
100
AcDbLine
 62
2
  6
CONTINUOUS
 10
12.5686865156
 20
2.3759997498
 11
12.5686865156
 21
2.4912273132
  0
LINE
  5
3C6
100
AcDbEntity
  8
0
100
AcDbLine
 62
2
  6
CONTINUOUS
 10
12.5686865156
 20
2.5920323691
 11
12.5686865156
 21
2.7047569312
  0
LINE
  5
3C7
100
AcDbEntity
  8
0
100
AcDbLine
 62
2
  6
CONTINUOUS
 10
12.5486865045
 20
2.3777575277
 11
12.5486865045
 21
2.4912273132
  0
LINE
  5
3C8
100
AcDbEntity
  8
0
100
AcDbLine
 62
2
  6
CONTINUOUS
 10
12.5486865045
 20
2.515977327
 11
12.5486865045
 21
2.5275118824
  0
LINE
  5
3C9
100
AcDbEntity
  8
0
100
AcDbLine
 62
2
  6
CONTINUOUS
 10
12.5486865045
 20
2.5920323691
 11
12.5486865045
 21
2.7029991533
  0
LINE
  5
3CA
100
AcDbEntity
  8
0
100
AcDbLine
 62
2
  6
CONTINUOUS
 10
12.5286864935
 20
2.3802813811
 11
12.5286864935
 21
2.5296213345
  0
LINE
  5
3CB
100
AcDbEntity
  8
0
100
AcDbLine
 62
2
  6
CONTINUOUS
 10
12.5286864935
 20
2.5505713461
 11
12.5286864935
 21
2.5667383551
  0
LINE
  5
3CC
100
AcDbEntity
  8
0
100
AcDbLine
 62
2
  6
CONTINUOUS
 10
12.5286864935
 20
2.5920323691
 11
12.5286864935
 21
2.7004752999
  0
LINE
  5
3CD
100
AcDbEntity
  8
0
100
AcDbLine
 62
2
  6
CONTINUOUS
 10
12.5086864824
 20
2.3828052346
 11
12.5086864824
 21
2.4912273132
  0
LINE
  5
3CE
100
AcDbEntity
  8
0
100
AcDbLine
 62
2
  6
CONTINUOUS
 10
12.5086864824
 20
2.515977327
 11
12.5086864824
 21
2.5279667721
  0
LINE
  5
3CF
100
AcDbEntity
  8
0
100
AcDbLine
 62
2
  6
CONTINUOUS
 10
12.5086864824
 20
2.5868602074
 11
12.5086864824
 21
2.6979514464
  0
LINE
  5
3D0
100
AcDbEntity
  8
0
100
AcDbLine
 62
2
  6
CONTINUOUS
 10
12.4886864713
 20
2.385329088
 11
12.4886864713
 21
2.4912273132
  0
LINE
  5
3D1
100
AcDbEntity
  8
0
100
AcDbLine
 62
2
  6
CONTINUOUS
 10
12.4886864713
 20
2.5553401045
 11
12.4886864713
 21
2.695427593
  0
LINE
  5
3D2
100
AcDbEntity
  8
0
100
AcDbLine
 62
2
  6
CONTINUOUS
 10
12.4686864602
 20
2.3878529415
 11
12.4686864602
 21
2.4912273132
  0
LINE
  5
3D3
100
AcDbEntity
  8
0
100
AcDbLine
 62
2
  6
CONTINUOUS
 10
12.4686864602
 20
2.5238200015
 11
12.4686864602
 21
2.6929037395
  0
LINE
  5
3D4
100
AcDbEntity
  8
0
100
AcDbLine
 62
2
  6
CONTINUOUS
 10
12.4486864491
 20
2.390376795
 11
12.4486864491
 21
2.4912273132
  0
LINE
  5
3D5
100
AcDbEntity
  8
0
100
AcDbLine
 62
2
  6
CONTINUOUS
 10
12.4486864491
 20
2.515977327
 11
12.4486864491
 21
2.690379886
  0
LINE
  5
3D6
100
AcDbEntity
  8
0
100
AcDbLine
 62
2
  6
CONTINUOUS
 10
12.428686438
 20
2.3931794042
 11
12.428686438
 21
2.6875772768
  0
LINE
  5
3D7
100
AcDbEntity
  8
0
100
AcDbLine
 62
2
  6
CONTINUOUS
 10
12.4086864269
 20
2.3964643301
 11
12.4086864269
 21
2.5013773986
  0
LINE
  5
3D8
100
AcDbEntity
  8
0
100
AcDbLine
 62
2
  6
CONTINUOUS
 10
12.4086864269
 20
2.5325739971
 11
12.4086864269
 21
2.5537224311
  0
LINE
  5
3D9
100
AcDbEntity
  8
0
100
AcDbLine
 62
2
  6
CONTINUOUS
 10
12.4086864269
 20
2.5791473398
 11
12.4086864269
 21
2.6842923509
  0
LINE
  5
3DA
100
AcDbEntity
  8
0
100
AcDbLine
 62
2
  6
CONTINUOUS
 10
12.3886864158
 20
2.399749256
 11
12.3886864158
 21
2.4921022658
  0
LINE
  5
3DB
100
AcDbEntity
  8
0
100
AcDbLine
 62
2
  6
CONTINUOUS
 10
12.3886864158
 20
2.5895929958
 11
12.3886864158
 21
2.681007425
  0
LINE
  5
3DC
100
AcDbEntity
  8
0
100
AcDbLine
 62
2
  6
CONTINUOUS
 10
12.3686864047
 20
2.403451877
 11
12.3686864047
 21
2.4912273132
  0
LINE
  5
3DD
100
AcDbEntity
  8
0
100
AcDbLine
 62
2
  6
CONTINUOUS
 10
12.3686864047
 20
2.5920323691
 11
12.3686864047
 21
2.677304804
  0
LINE
  5
3DE
100
AcDbEntity
  8
0
100
AcDbLine
 62
2
  6
CONTINUOUS
 10
12.3486863936
 20
2.407324637
 11
12.3486863936
 21
2.4912273132
  0
LINE
  5
3DF
100
AcDbEntity
  8
0
100
AcDbLine
 62
2
  6
CONTINUOUS
 10
12.3486863936
 20
2.5920323691
 11
12.3486863936
 21
2.673432044
  0
LINE
  5
3E0
100
AcDbEntity
  8
0
100
AcDbLine
 62
2
  6
CONTINUOUS
 10
12.3286863825
 20
2.4113493968
 11
12.3286863825
 21
2.4912273132
  0
LINE
  5
3E1
100
AcDbEntity
  8
0
100
AcDbLine
 62
2
  6
CONTINUOUS
 10
12.3286863825
 20
2.515977327
 11
12.3286863825
 21
2.5333023366
  0
LINE
  5
3E2
100
AcDbEntity
  8
0
100
AcDbLine
 62
2
  6
CONTINUOUS
 10
12.3286863825
 20
2.5499573458
 11
12.3286863825
 21
2.5672823554
  0
LINE
  5
3E3
100
AcDbEntity
  8
0
100
AcDbLine
 62
2
  6
CONTINUOUS
 10
12.3286863825
 20
2.5920323691
 11
12.3286863825
 21
2.6694072842
  0
LINE
  5
3E4
100
AcDbEntity
  8
0
100
AcDbLine
 62
2
  6
CONTINUOUS
 10
12.3086863715
 20
2.4159005505
 11
12.3086863715
 21
2.4912273132
  0
LINE
  5
3E5
100
AcDbEntity
  8
0
100
AcDbLine
 62
2
  6
CONTINUOUS
 10
12.3086863715
 20
2.515977327
 11
12.3086863715
 21
2.5333023366
  0
LINE
  5
3E6
100
AcDbEntity
  8
0
100
AcDbLine
 62
2
  6
CONTINUOUS
 10
12.3086863715
 20
2.5499573458
 11
12.3086863715
 21
2.5672823554
  0
LINE
  5
3E7
100
AcDbEntity
  8
0
100
AcDbLine
 62
2
  6
CONTINUOUS
 10
12.3086863715
 20
2.5920323691
 11
12.3086863715
 21
2.6648561305
  0
LINE
  5
3E8
100
AcDbEntity
  8
0
100
AcDbLine
 62
2
  6
CONTINUOUS
 10
12.2886863604
 20
2.4204517041
 11
12.2886863604
 21
2.4912273132
  0
LINE
  5
3E9
100
AcDbEntity
  8
0
100
AcDbLine
 62
2
  6
CONTINUOUS
 10
12.2886863604
 20
2.5920323691
 11
12.2886863604
 21
2.6603049769
  0
LINE
  5
3EA
100
AcDbEntity
  8
0
100
AcDbLine
 62
2
  6
CONTINUOUS
 10
12.2686863493
 20
2.4257438218
 11
12.2686863493
 21
2.4912273132
  0
LINE
  5
3EB
100
AcDbEntity
  8
0
100
AcDbLine
 62
2
  6
CONTINUOUS
 10
12.2686863493
 20
2.5920323691
 11
12.2686863493
 21
2.6550128592
  0
LINE
  5
3EC
100
AcDbEntity
  8
0
100
AcDbLine
 62
2
  6
CONTINUOUS
 10
12.2486863382
 20
2.4310978667
 11
12.2486863382
 21
2.4912273132
  0
LINE
  5
3ED
100
AcDbEntity
  8
0
100
AcDbLine
 62
2
  6
CONTINUOUS
 10
12.2486863382
 20
2.5920323691
 11
12.2486863382
 21
2.6496588142
  0
LINE
  5
3EE
100
AcDbEntity
  8
0
100
AcDbLine
 62
2
  6
CONTINUOUS
 10
12.2286863271
 20
2.4372566433
 11
12.2286863271
 21
2.4912273132
  0
LINE
  5
3EF
100
AcDbEntity
  8
0
100
AcDbLine
 62
2
  6
CONTINUOUS
 10
12.2286863271
 20
2.515977327
 11
12.2286863271
 21
2.5672823554
  0
LINE
  5
3F0
100
AcDbEntity
  8
0
100
AcDbLine
 62
2
  6
CONTINUOUS
 10
12.2286863271
 20
2.5920323691
 11
12.2286863271
 21
2.6435000377
  0
LINE
  5
3F1
100
AcDbEntity
  8
0
100
AcDbLine
 62
2
  6
CONTINUOUS
 10
12.208686316
 20
2.443589771
 11
12.208686316
 21
2.4912273132
  0
LINE
  5
3F2
100
AcDbEntity
  8
0
100
AcDbLine
 62
2
  6
CONTINUOUS
 10
12.208686316
 20
2.515977327
 11
12.208686316
 21
2.5672823554
  0
LINE
  5
3F3
100
AcDbEntity
  8
0
100
AcDbLine
 62
2
  6
CONTINUOUS
 10
12.208686316
 20
2.5920323691
 11
12.208686316
 21
2.63716691
  0
LINE
  5
3F4
100
AcDbEntity
  8
0
100
AcDbLine
 62
2
  6
CONTINUOUS
 10
12.1886863049
 20
2.4510806436
 11
12.1886863049
 21
2.6296760373
  0
LINE
  5
3F5
100
AcDbEntity
  8
0
100
AcDbLine
 62
2
  6
CONTINUOUS
 10
12.1686862938
 20
2.4591016523
 11
12.1686862938
 21
2.6216550287
  0
LINE
  5
3F6
100
AcDbEntity
  8
0
100
AcDbLine
 62
2
  6
CONTINUOUS
 10
12.1486862827
 20
2.468314272
 11
12.1486862827
 21
2.612442409
  0
LINE
  5
3F7
100
AcDbEntity
  8
0
100
AcDbLine
 62
2
  6
CONTINUOUS
 10
12.1286862716
 20
2.4794932339
 11
12.1286862716
 21
2.601263447
  0
LINE
  5
3F8
100
AcDbEntity
  8
0
100
AcDbLine
 62
2
  6
CONTINUOUS
 10
12.1086862605
 20
2.4934150665
 11
12.1086862605
 21
2.5873416144
  0
LINE
  5
3F9
100
AcDbEntity
  8
0
100
AcDbLine
 62
2
  6
CONTINUOUS
 10
12.0886862494
 20
2.5144449553
 11
12.0886862494
 21
2.5663117257
  0
ENDBLK
  5
3FA
100
AcDbEntity
  8
0
  6
BYBLOCK
 62
0
100
AcDbBlockEnd
  0
BLOCK
  5
3FB
100
AcDbEntity
  8
0
100
AcDbBlockBegin
  2
_FILLED
 70
64
 10
0.0
 20
0.0
  3
_FILLED
  1

  0
SOLID
  5
3FC
100
AcDbEntity
  8
0
  6
BYBLOCK
 62
0
100
AcDbTrace
 10
0.0
 20
0.0
 11
-1.0
 21
0.1666666667
 12
-1.0
 22
-0.1666666667
 13
-1.0
 23
-0.1666666667
  0
ENDBLK
  5
3FD
100
AcDbEntity
  8
0
  6
BYBLOCK
 62
0
100
AcDbBlockEnd
  0
BLOCK
  5
3FE
100
AcDbEntity
  8
SCHEME_DIMS
100
AcDbBlockBegin
 62
2
  6
CONTINUOUS
  2
*D0
 70
65
 10
0.0
 20
0.0
  3
*D0
  1

  0
MTEXT
  5
3FF
100
AcDbEntity
  8
SCHEME_DIMS
100
AcDbMText
 62
2
  6
CONTINUOUS
  7
STANDARD
 71
2
 72
1
 10
8.2548310508
 20
5.7329304348
 30
0.0
 11
1.0
 21
0.0
 31
0.0
 44
0.9
  1
121.2\P[4.77]
 40
0.1
 41
0.6
  0
LINE
  5
400
100
AcDbEntity
  8
SCHEME_DIMS
100
AcDbLine
 62
2
  6
CONTINUOUS
 10
6.3101494897
 20
4.6256155076
 11
6.3101494897
 21
5.8079304348
  0
LINE
  5
401
100
AcDbEntity
  8
SCHEME_DIMS
100
AcDbLine
 62
2
  6
CONTINUOUS
 10
11.0798345291
 20
4.6751532757
 11
11.0798345291
 21
4.7889853389
  0
LINE
  5
402
100
AcDbEntity
  8
SCHEME_DIMS
100
AcDbLine
 62
2
  6
CONTINUOUS
 10
11.0798345291
 20
4.8239371882
 11
11.0798345291
 21
5.8079304348
  0
LINE
  5
403
100
AcDbEntity
  8
SCHEME_DIMS
100
AcDbLine
 62
2
  6
CONTINUOUS
 10
6.3101494897
 20
5.6829304348
 11
7.9048310508
 21
5.6829304348
  0
LINE
  5
404
100
AcDbEntity
  8
SCHEME_DIMS
100
AcDbLine
 62
2
  6
CONTINUOUS
 10
11.0798345291
 20
5.6829304348
 11
8.7048310508
 21
5.6829304348
  0
INSERT
  5
405
100
AcDbEntity
  8
SCHEME_DIMS
100
AcDbBlockReference
 62
2
  6
CONTINUOUS
  2
_FILLED
 10
6.3101494897
 20
5.6829304348
 41
0.1875
 42
0.1875
 43
0.1875
 50
180.0
  0
INSERT
  5
406
100
AcDbEntity
  8
SCHEME_DIMS
100
AcDbBlockReference
 62
2
  6
CONTINUOUS
  2
_FILLED
 10
11.0798345291
 20
5.6829304348
 41
0.1875
 42
0.1875
 43
0.1875
  0
ENDBLK
  5
407
100
AcDbEntity
  8
0
  6
BYBLOCK
 62
0
100
AcDbBlockEnd
  0
BLOCK
  5
408
100
AcDbEntity
  8
SCHEME_DIMS
100
AcDbBlockBegin
 62
2
  6
CONTINUOUS
  2
*D1
 70
65
 10
0.0
 20
0.0
  3
*D1
  1

  0
MTEXT
  5
409
100
AcDbEntity
  8
SCHEME_DIMS
100
AcDbMText
 62
2
  6
CONTINUOUS
  7
STANDARD
 71
2
 72
1
 10
9.616846703
 20
5.3579304348
 30
0.0
 11
1.0
 21
0.0
 31
0.0
 44
0.9
  1
113.4\P[4.46]
 40
0.1
 41
0.6
  0
LINE
  5
40A
100
AcDbEntity
  8
SCHEME_DIMS
100
AcDbLine
 62
2
  6
CONTINUOUS
 10
11.0207794109
 20
4.8216347839
 11
11.0207794109
 21
5.4329304348
  0
LINE
  5
40B
100
AcDbEntity
  8
SCHEME_DIMS
100
AcDbLine
 62
2
  6
CONTINUOUS
 10
6.5562124818
 20
4.8118054206
 11
6.5562124818
 21
5.4329304348
  0
LINE
  5
40C
100
AcDbEntity
  8
SCHEME_DIMS
100
AcDbLine
 62
2
  6
CONTINUOUS
 10
11.0207794109
 20
5.3079304348
 11
10.066846703
 21
5.3079304348
  0
LINE
  5
40D
100
AcDbEntity
  8
SCHEME_DIMS
100
AcDbLine
 62
2
  6
CONTINUOUS
 10
6.5562124818
 20
5.3079304348
 11
9.266846703
 21
5.3079304348
  0
INSERT
  5
40E
100
AcDbEntity
  8
SCHEME_DIMS
100
AcDbBlockReference
 62
2
  6
CONTINUOUS
  2
_FILLED
 10
11.0207794109
 20
5.3079304348
 41
0.1875
 42
0.1875
 43
0.1875
  0
INSERT
  5
40F
100
AcDbEntity
  8
SCHEME_DIMS
100
AcDbBlockReference
 62
2
  6
CONTINUOUS
  2
_FILLED
 10
6.5562124818
 20
5.3079304348
 41
0.1875
 42
0.1875
 43
0.1875
 50
180.0
  0
ENDBLK
  5
410
100
AcDbEntity
  8
0
  6
BYBLOCK
 62
0
100
AcDbBlockEnd
  0
BLOCK
  5
411
100
AcDbEntity
  8
SCHEME_DIMS
100
AcDbBlockBegin
 62
2
  6
CONTINUOUS
  2
*D2
 70
65
 10
0.0
 20
0.0
  3
*D2
  1

  0
MTEXT
  5
412
100
AcDbEntity
  8
SCHEME_DIMS
100
AcDbMText
 62
2
  6
CONTINUOUS
  7
STANDARD
 71
2
 72
1
 10
11.4798345291
 20
4.4705526261
 30
0.0
 11
1.0
 21
0.0
 31
0.0
 44
0.9
  1
25.4\P[1.00]
 40
0.1
 41
0.6
  0
LINE
  5
413
100
AcDbEntity
  8
SCHEME_DIMS
100
AcDbLine
 62
2
  6
CONTINUOUS
 10
11.0508721683
 20
3.8079304348
 11
11.7048345291
 21
3.8079304348
  0
LINE
  5
414
100
AcDbEntity
  8
SCHEME_DIMS
100
AcDbLine
 62
2
  6
CONTINUOUS
 10
11.0527386871
 20
4.8079304348
 11
11.7048345291
 21
4.8079304348
  0
LINE
  5
415
100
AcDbEntity
  8
SCHEME_DIMS
100
AcDbLine
 62
2
  6
CONTINUOUS
 10
11.5798345291
 20
3.8079304348
 11
11.5798345291
 21
4.1205526261
  0
LINE
  5
416
100
AcDbEntity
  8
SCHEME_DIMS
100
AcDbLine
 62
2
  6
CONTINUOUS
 10
11.5798345291
 20
4.8079304348
 11
11.5798345291
 21
4.5705526261
  0
INSERT
  5
417
100
AcDbEntity
  8
SCHEME_DIMS
100
AcDbBlockReference
 62
2
  6
CONTINUOUS
  2
_FILLED
 10
11.5798345291
 20
3.8079304348
 41
0.1875
 42
0.1875
 43
0.1875
 50
270.0
  0
INSERT
  5
418
100
AcDbEntity
  8
SCHEME_DIMS
100
AcDbBlockReference
 62
2
  6
CONTINUOUS
  2
_FILLED
 10
11.5798345291
 20
4.8079304348
 41
0.1875
 42
0.1875
 43
0.1875
 50
90.0
  0
ENDBLK
  5
419
100
AcDbEntity
  8
0
  6
BYBLOCK
 62
0
100
AcDbBlockEnd
  0
BLOCK
  5
41A
100
AcDbEntity
  8
SCHEME_DIMS
100
AcDbBlockBegin
 62
2
  6
CONTINUOUS
  2
*D3
 70
65
 10
0.0
 20
0.0
  3
*D3
  1

  0
MTEXT
  5
41B
100
AcDbEntity
  8
SCHEME_DIMS
100
AcDbMText
 62
2
  6
CONTINUOUS
  7
STANDARD
 71
3
 72
1
 10
1.2566306799
 20
5.3579304348
 30
0.0
 11
1.0
 21
0.0
 31
0.0
 44
0.9
  1
5.9\P[.23]
 40
0.1
 41
0.5
  0
LINE
  5
41C
100
AcDbEntity
  8
SCHEME_DIMS
100
AcDbLine
 62
2
  6
CONTINUOUS
 10
1.8593265625
 20
4.2641312222
 11
1.8593265625
 21
4.6632460046
  0
LINE
  5
41D
100
AcDbEntity
  8
SCHEME_DIMS
100
AcDbLine
 62
2
  6
CONTINUOUS
 10
1.8593265625
 20
4.8046122856
 11
1.8593265625
 21
5.4329304348
  0
LINE
  5
41E
100
AcDbEntity
  8
SCHEME_DIMS
100
AcDbLine
 62
2
  6
CONTINUOUS
 10
2.0916100271
 20
4.6735800411
 11
2.0916100271
 21
5.4329304348
  0
LINE
  5
41F
100
AcDbEntity
  8
SCHEME_DIMS
100
AcDbLine
 62
2
  6
CONTINUOUS
 10
1.8593265625
 20
5.3079304348
 11
1.5566306799
 21
5.3079304348
  0
LINE
  5
420
100
AcDbEntity
  8
SCHEME_DIMS
100
AcDbLine
 62
2
  6
CONTINUOUS
 10
2.0916100271
 20
5.3079304348
 11
2.4916100271
 21
5.3079304348
  0
INSERT
  5
421
100
AcDbEntity
  8
SCHEME_DIMS
100
AcDbBlockReference
 62
2
  6
CONTINUOUS
  2
_FILLED
 10
1.8593265625
 20
5.3079304348
 41
0.1875
 42
0.1875
 43
0.1875
  0
INSERT
  5
422
100
AcDbEntity
  8
SCHEME_DIMS
100
AcDbBlockReference
 62
2
  6
CONTINUOUS
  2
_FILLED
 10
2.0916100271
 20
5.3079304348
 41
0.1875
 42
0.1875
 43
0.1875
 50
180.0
  0
ENDBLK
  5
423
100
AcDbEntity
  8
0
  6
BYBLOCK
 62
0
100
AcDbBlockEnd
  0
BLOCK
  5
424
100
AcDbEntity
  8
SCHEME_DIMS
100
AcDbBlockBegin
 62
2
  6
CONTINUOUS
  2
*D4
 70
65
 10
0.0
 20
0.0
  3
*D4
  1

  0
MTEXT
  5
425
100
AcDbEntity
  8
SCHEME_DIMS
100
AcDbMText
 62
2
  6
CONTINUOUS
  7
STANDARD
 71
3
 72
1
 10
1.5559948272
 20
3.3579304348
 30
0.0
 11
1.0
 21
0.0
 31
0.0
 44
0.9
  1
10.7\P[.42]
 40
0.1
 41
0.5
  0
LINE
  5
426
100
AcDbEntity
  8
SCHEME_DIMS
100
AcDbLine
 62
2
  6
CONTINUOUS
 10
1.8593265625
 20
3.7966115372
 11
1.8593265625
 21
3.1829304348
  0
LINE
  5
427
100
AcDbEntity
  8
SCHEME_DIMS
100
AcDbLine
 62
2
  6
CONTINUOUS
 10
2.2814352657
 20
3.7394359598
 11
2.2814352657
 21
3.1829304348
  0
LINE
  5
428
100
AcDbEntity
  8
SCHEME_DIMS
100
AcDbLine
 62
2
  6
CONTINUOUS
 10
1.8593265625
 20
3.3079304348
 11
2.0703809141
 21
3.3079304348
  0
LINE
  5
429
100
AcDbEntity
  8
SCHEME_DIMS
100
AcDbLine
 62
2
  6
CONTINUOUS
 10
2.0703809141
 20
3.3079304348
 11
1.7559948272
 21
3.3079304348
  0
LINE
  5
42A
100
AcDbEntity
  8
SCHEME_DIMS
100
AcDbLine
 62
2
  6
CONTINUOUS
 10
2.2814352657
 20
3.3079304348
 11
2.0703809141
 21
3.3079304348
  0
INSERT
  5
42B
100
AcDbEntity
  8
SCHEME_DIMS
100
AcDbBlockReference
 62
2
  6
CONTINUOUS
  2
_FILLED
 10
1.8593265625
 20
3.3079304348
 41
0.1875
 42
0.1875
 43
0.1875
 50
180.0
  0
INSERT
  5
42C
100
AcDbEntity
  8
SCHEME_DIMS
100
AcDbBlockReference
 62
2
  6
CONTINUOUS
  2
_FILLED
 10
2.2814352657
 20
3.3079304348
 41
0.1875
 42
0.1875
 43
0.1875
  0
ENDBLK
  5
42D
100
AcDbEntity
  8
0
  6
BYBLOCK
 62
0
100
AcDbBlockEnd
  0
BLOCK
  5
42E
100
AcDbEntity
  8
SCHEME_DIMS
100
AcDbBlockBegin
 62
2
  6
CONTINUOUS
  2
*D5
 70
65
 10
0.0
 20
0.0
  3
*D5
  1

  0
MTEXT
  5
42F
100
AcDbEntity
  8
SCHEME_DIMS
100
AcDbMText
 62
2
  6
CONTINUOUS
  7
STANDARD
 71
2
 72
1
 10
2.3843265625
 20
2.9829304348
 30
0.0
 11
1.0
 21
0.0
 31
0.0
 44
0.9
  1
31.8\P[1.25]
 40
0.1
 41
0.6
  0
LINE
  5
430
100
AcDbEntity
  8
SCHEME_DIMS
100
AcDbLine
 62
2
  6
CONTINUOUS
 10
1.8593265625
 20
3.7966115372
 11
1.8593265625
 21
2.8079304348
  0
LINE
  5
431
100
AcDbEntity
  8
SCHEME_DIMS
100
AcDbLine
 62
2
  6
CONTINUOUS
 10
3.1093265625
 20
3.7966115371
 11
3.1093265625
 21
2.8079304348
  0
LINE
  5
432
100
AcDbEntity
  8
SCHEME_DIMS
100
AcDbLine
 62
2
  6
CONTINUOUS
 10
1.8593265625
 20
2.9329304348
 11
2.0843265625
 21
2.9329304348
  0
LINE
  5
433
100
AcDbEntity
  8
SCHEME_DIMS
100
AcDbLine
 62
2
  6
CONTINUOUS
 10
3.1093265625
 20
2.9329304348
 11
2.8843265625
 21
2.9329304348
  0
INSERT
  5
434
100
AcDbEntity
  8
SCHEME_DIMS
100
AcDbBlockReference
 62
2
  6
CONTINUOUS
  2
_FILLED
 10
1.8593265625
 20
2.9329304348
 41
0.1875
 42
0.1875
 43
0.1875
 50
180.0
  0
INSERT
  5
435
100
AcDbEntity
  8
SCHEME_DIMS
100
AcDbBlockReference
 62
2
  6
CONTINUOUS
  2
_FILLED
 10
3.1093265625
 20
2.9329304348
 41
0.1875
 42
0.1875
 43
0.1875
  0
ENDBLK
  5
436
100
AcDbEntity
  8
0
  6
BYBLOCK
 62
0
100
AcDbBlockEnd
  0
BLOCK
  5
437
100
AcDbEntity
  8
SCHEME_DIMS
100
AcDbBlockBegin
 62
2
  6
CONTINUOUS
  2
*D6
 70
65
 10
0.0
 20
0.0
  3
*D6
  1

  0
MTEXT
  5
438
100
AcDbEntity
  8
SCHEME_DIMS
100
AcDbMText
 62
2
  6
CONTINUOUS
  7
STANDARD
 71
2
 72
1
 10
2.3327734424
 20
5.7329304348
 30
0.0
 11
1.0
 21
0.0
 31
0.0
 44
0.9
  1
22.9\P[.90]
 40
0.1
 41
0.5
  0
LINE
  5
439
100
AcDbEntity
  8
SCHEME_DIMS
100
AcDbLine
 62
2
  6
CONTINUOUS
 10
2.7609013657
 20
4.7420839781
 11
2.7609013657
 21
5.8079304348
  0
LINE
  5
43A
100
AcDbEntity
  8
SCHEME_DIMS
100
AcDbLine
 62
2
  6
CONTINUOUS
 10
1.8593265625
 20
4.8403258723
 11
1.8593265625
 21
5.8079304348
  0
LINE
  5
43B
100
AcDbEntity
  8
SCHEME_DIMS
100
AcDbLine
 62
2
  6
CONTINUOUS
 10
2.7609013657
 20
5.6829304348
 11
3.1609013657
 21
5.6829304348
  0
LINE
  5
43C
100
AcDbEntity
  8
SCHEME_DIMS
100
AcDbLine
 62
2
  6
CONTINUOUS
 10
1.8593265625
 20
5.6829304348
 11
1.4593265625
 21
5.6829304348
  0
INSERT
  5
43D
100
AcDbEntity
  8
SCHEME_DIMS
100
AcDbBlockReference
 62
2
  6
CONTINUOUS
  2
_FILLED
 10
2.7609013657
 20
5.6829304348
 41
0.1875
 42
0.1875
 43
0.1875
 50
180.0
  0
INSERT
  5
43E
100
AcDbEntity
  8
SCHEME_DIMS
100
AcDbBlockReference
 62
2
  6
CONTINUOUS
  2
_FILLED
 10
1.8593265625
 20
5.6829304348
 41
0.1875
 42
0.1875
 43
0.1875
  0
ENDBLK
  5
43F
100
AcDbEntity
  8
0
  6
BYBLOCK
 62
0
100
AcDbBlockEnd
  0
BLOCK
  5
440
100
AcDbEntity
  8
SCHEME_DIMS
100
AcDbBlockBegin
 62
2
  6
CONTINUOUS
  2
*D7
 70
65
 10
0.0
 20
0.0
  3
*D7
  1

  0
MTEXT
  5
441
100
AcDbEntity
  8
SCHEME_DIMS
100
AcDbMText
 62
2
  6
CONTINUOUS
  7
STANDARD
 71
2
 72
1
 10
3.5593265625
 20
4.2023877565
 30
0.0
 11
1.0
 21
0.0
 31
0.0
 44
0.9
  1
12.7\P[.50]
 40
0.1
 41
0.5
  0
LINE
  5
442
100
AcDbEntity
  8
SCHEME_DIMS
100
AcDbLine
 62
2
  6
CONTINUOUS
 10
3.195054909
 20
4.3079304348
 11
3.7343265625
 21
4.3079304348
  0
LINE
  5
443
100
AcDbEntity
  8
SCHEME_DIMS
100
AcDbLine
 62
2
  6
CONTINUOUS
 10
3.1206454601
 20
3.8079304348
 11
3.7343265625
 21
3.8079304348
  0
LINE
  5
444
100
AcDbEntity
  8
SCHEME_DIMS
100
AcDbLine
 62
2
  6
CONTINUOUS
 10
3.6093265625
 20
4.3079304348
 11
3.6093265625
 21
4.7079304348
  0
LINE
  5
445
100
AcDbEntity
  8
SCHEME_DIMS
100
AcDbLine
 62
2
  6
CONTINUOUS
 10
3.6093265625
 20
3.8079304348
 11
3.6093265625
 21
3.4079304348
  0
INSERT
  5
446
100
AcDbEntity
  8
SCHEME_DIMS
100
AcDbBlockReference
 62
2
  6
CONTINUOUS
  2
_FILLED
 10
3.6093265625
 20
4.3079304348
 41
0.1875
 42
0.1875
 43
0.1875
 50
270.0
  0
INSERT
  5
447
100
AcDbEntity
  8
SCHEME_DIMS
100
AcDbBlockReference
 62
2
  6
CONTINUOUS
  2
_FILLED
 10
3.6093265625
 20
3.8079304348
 41
0.1875
 42
0.1875
 43
0.1875
 50
90.0
  0
ENDBLK
  5
448
100
AcDbEntity
  8
0
  6
BYBLOCK
 62
0
100
AcDbBlockEnd
  0
BLOCK
  5
449
100
AcDbEntity
  8
SCHEME_DIMS
100
AcDbBlockBegin
 62
2
  6
CONTINUOUS
  2
*D8
 70
65
 10
0.0
 20
0.0
  3
*D8
  1

  0
MTEXT
  5
44A
100
AcDbEntity
  8
SCHEME_DIMS
100
AcDbMText
 62
2
  6
CONTINUOUS
  7
STANDARD
 71
2
 72
1
 10
13.7328129489
 20
4.3579304348
 30
0.0
 11
1.0
 21
0.0
 31
0.0
 44
0.9
  1
25.4\P[1.00]
 40
0.1
 41
0.6
  0
LINE
  5
44B
100
AcDbEntity
  8
SCHEME_DIMS
100
AcDbLine
 62
2
  6
CONTINUOUS
 10
13.4586728379
 20
4.8079304348
 11
13.9578129489
 21
4.8079304348
  0
LINE
  5
44C
100
AcDbEntity
  8
SCHEME_DIMS
100
AcDbLine
 62
2
  6
CONTINUOUS
 10
13.4586728379
 20
3.8079304348
 11
13.9578129489
 21
3.8079304348
  0
LINE
  5
44D
100
AcDbEntity
  8
SCHEME_DIMS
100
AcDbLine
 62
2
  6
CONTINUOUS
 10
13.8328129489
 20
4.8079304348
 11
13.8328129489
 21
4.4579304348
  0
LINE
  5
44E
100
AcDbEntity
  8
SCHEME_DIMS
100
AcDbLine
 62
2
  6
CONTINUOUS
 10
13.8328129489
 20
3.8079304348
 11
13.8328129489
 21
4.0079304348
  0
INSERT
  5
44F
100
AcDbEntity
  8
SCHEME_DIMS
100
AcDbBlockReference
 62
2
  6
CONTINUOUS
  2
_FILLED
 10
13.8328129489
 20
4.8079304348
 41
0.1875
 42
0.1875
 43
0.1875
 50
90.0
  0
INSERT
  5
450
100
AcDbEntity
  8
SCHEME_DIMS
100
AcDbBlockReference
 62
2
  6
CONTINUOUS
  2
_FILLED
 10
13.8328129489
 20
3.8079304348
 41
0.1875
 42
0.1875
 43
0.1875
 50
270.0
  0
ENDBLK
  5
451
100
AcDbEntity
  8
0
  6
BYBLOCK
 62
0
100
AcDbBlockEnd
  0
ENDSEC
  0
SECTION
  2
ENTITIES
  0
MTEXT
  5
452
100
AcDbEntity
  8
0
100
AcDbMText
 62
2
  6
CONTINUOUS
  7
TEXTSTYLE_2
 71
2
 72
1
 10
11.0287658475
 20
1.794867839
 30
0.0
 11
1.0
 21
0.0
 31
0.0
 44
0.9
  1
THIRD ANGLE PROJECTION
 40
0.1
 41
1.76
  0
MTEXT
  5
453
100
AcDbEntity
  8
0
100
AcDbMText
 62
2
  6
CONTINUOUS
  7
STANDARD
 71
1
 72
1
 10
12.88
 20
1.457
 30
0.0
 11
1.0
 21
0.0
 31
0.0
 44
0.9
  1
DRAWING NO.
 40
0.08
 41
0.88
  0
MTEXT
  5
454
100
AcDbEntity
  8
0
100
AcDbMText
 62
2
  6
CONTINUOUS
  7
TEXTSTYLE_3
 71
2
 72
1
 10
11.03
 20
2.516432
 30
0.0
 11
1.0
 21
0.0
 31
0.0
 44
0.9
  1
and is proprietary in general
 40
0.08
 41
1.972
  0
MTEXT
  5
455
100
AcDbEntity
  8
0
100
AcDbMText
 62
2
  6
CONTINUOUS
  7
TEXTSTYLE_3
 71
2
 72
1
 10
11.03
 20
2.396432
 30
0.0
 11
1.0
 21
0.0
 31
0.0
 44
0.9
  1
and in detail.  Its contents
 40
0.08
 41
1.904
  0
MTEXT
  5
456
100
AcDbEntity
  8
0
100
AcDbMText
 62
2
  6
CONTINUOUS
  7
TEXTSTYLE_3
 71
2
 72
1
 10
11.03
 20
2.276432
 30
0.0
 11
1.0
 21
0.0
 31
0.0
 44
0.9
  1
shall not be revealed to
 40
0.08
 41
1.632
  0
MTEXT
  5
457
100
AcDbEntity
  8
0
100
AcDbMText
 62
2
  6
CONTINUOUS
  7
TEXTSTYLE_3
 71
2
 72
1
 10
11.03
 20
2.156432
 30
0.0
 11
1.0
 21
0.0
 31
0.0
 44
0.9
  1
outside parties without
 40
0.08
 41
1.564
  0
MTEXT
  5
458
100
AcDbEntity
  8
0
100
AcDbMText
 62
2
  6
CONTINUOUS
  7
TEXTSTYLE_3
 71
2
 72
1
 10
11.03
 20
2.036432
 30
0.0
 11
1.0
 21
0.0
 31
0.0
 44
0.9
  1
written consent of BANNER.
 40
0.08
 41
1.768
  0
MTEXT
  5
459
100
AcDbEntity
  8
0
100
AcDbMText
 62
2
  6
CONTINUOUS
  7
TEXTSTYLE_2
 71
1
 72
1
 10
12.08
 20
2.217
 30
0.0
 11
1.0
 21
0.0
 31
0.0
 44
0.9
  1
TITLE
 40
0.1
 41
0.4
  0
MTEXT
  5
45A
100
AcDbEntity
  8
0
100
AcDbMText
 62
2
  6
CONTINUOUS
  7
STANDARD
 71
1
 72
1
 10
12.08
 20
1.457
 30
0.0
 11
1.0
 21
0.0
 31
0.0
 44
0.9
  1
SIZE
 40
0.08
 41
0.32
  0
MTEXT
  5
45B
100
AcDbEntity
  8
0
100
AcDbMText
 62
2
  6
CONTINUOUS
  7
STANDARD
 71
1
 72
1
 10
12.08
 20
1.087
 30
0.0
 11
1.0
 21
0.0
 31
0.0
 44
0.9
  1
SCALE
 40
0.08
 41
0.4
  0
MTEXT
  5
45C
100
AcDbEntity
  8
0
100
AcDbMText
 62
2
  6
CONTINUOUS
  7
TEXTSTYLE_2
 71
2
 72
1
 10
12.5
 20
1.337
 30
0.0
 11
1.0
 21
0.0
 31
0.0
 44
0.9
  1
B
 40
0.1
 41
0.08
  0
MTEXT
  5
45D
100
AcDbEntity
  8
0
100
AcDbMText
 62
2
  6
CONTINUOUS
  7
TEXTSTYLE_3
 71
2
 72
1
 10
11.03
 20
2.636432
 30
0.0
 11
1.0
 21
0.0
 31
0.0
 44
0.9
  1
of BANNER ENGINEERING CORP.
 40
0.08
 41
1.836
  0
MTEXT
  5
45E
100
AcDbEntity
  8
0
100
AcDbMText
 62
2
  6
CONTINUOUS
  7
TEXTSTYLE_3
 71
2
 72
1
 10
11.03
 20
2.756432
 30
0.0
 11
1.0
 21
0.0
 31
0.0
 44
0.9
  1
This drawing is the property
 40
0.08
 41
1.904
  0
MTEXT
  5
45F
100
AcDbEntity
  8
0
100
AcDbMText
 62
2
  6
CONTINUOUS
  7
TEXTSTYLE_2
 71
2
 72
1
 10
15.03
 20
2.4134
 30
0.0
 11
1.0
 21
0.0
 31
0.0
 44
0.9
  1
MINNEAPOLIS, MN 55440
 40
0.1
 41
1.68
  0
MTEXT
  5
460
100
AcDbEntity
  8
0
100
AcDbMText
 62
2
  6
CONTINUOUS
  7
STANDARD
 71
1
 72
1
 10
14.255
 20
1.087
 30
0.0
 11
1.0
 21
0.0
 31
0.0
 44
0.9
  1
SHEET
 40
0.08
 41
0.4
  0
MTEXT
  5
461
100
AcDbEntity
  8
0
100
AcDbMText
 62
2
  6
CONTINUOUS
  7
STANDARD
 71
1
 72
1
 10
15.63
 20
1.457
 30
0.0
 11
1.0
 21
0.0
 31
0.0
 44
0.9
  1
REV.
 40
0.08
 41
0.32
  0
MTEXT
  5
462
100
AcDbEntity
  8
0
100
AcDbMText
 62
2
  6
CONTINUOUS
  7
STANDARD
 71
3
 72
1
 10
16.38
 20
0.835443
 30
0.0
 11
1.0
 21
0.0
 31
0.0
 44
0.9
  1
PRO/E
 40
0.07
 41
0.35
  0
MTEXT
  5
463
100
AcDbEntity
  8
0
100
AcDbMText
 62
2
  6
CONTINUOUS
  7
TEXTSTYLE_4
 71
2
 72
1
 10
15.03
 20
2.751049
 30
0.0
 11
1.0
 21
0.0
 31
0.0
 44
0.9
  1
BANNER ENGINEERING CORP.
 40
0.12
 41
2.6496
  0
MTEXT
  5
464
100
AcDbEntity
  8
0
100
AcDbMText
 62
2
  6
CONTINUOUS
  7
TEXTSTYLE_2
 71
2
 72
1
 10
15.03
 20
2.5724
 30
0.0
 11
1.0
 21
0.0
 31
0.0
 44
0.9
  1
P.O. BOX 9414
 40
0.1
 41
1.04
  0
MTEXT
  5
465
100
AcDbEntity
  8
0
100
AcDbMText
 62
2
  6
CONTINUOUS
  7
TEXTSTYLE_2
 71
2
 72
1
 10
9.485
 20
10.312
 30
0.0
 11
1.0
 21
0.0
 31
0.0
 44
0.9
  1
4
 40
0.1
 41
0.08
  0
MTEXT
  5
466
100
AcDbEntity
  8
0
100
AcDbMText
 62
2
  6
CONTINUOUS
  7
TEXTSTYLE_2
 71
2
 72
1
 10
11.455
 20
10.312
 30
0.0
 11
1.0
 21
0.0
 31
0.0
 44
0.9
  1
3
 40
0.1
 41
0.08
  0
MTEXT
  5
467
100
AcDbEntity
  8
0
100
AcDbMText
 62
2
  6
CONTINUOUS
  7
TEXTSTYLE_2
 71
2
 72
1
 10
13.425
 20
10.312
 30
0.0
 11
1.0
 21
0.0
 31
0.0
 44
0.9
  1
2
 40
0.1
 41
0.08
  0
MTEXT
  5
468
100
AcDbEntity
  8
0
100
AcDbMText
 62
2
  6
CONTINUOUS
  7
TEXTSTYLE_2
 71
2
 72
1
 10
15.395
 20
10.312
 30
0.0
 11
1.0
 21
0.0
 31
0.0
 44
0.9
  1
1
 40
0.1
 41
0.08
  0
MTEXT
  5
469
100
AcDbEntity
  8
0
100
AcDbMText
 62
2
  6
CONTINUOUS
  7
TEXTSTYLE_2
 71
2
 72
1
 10
3.575
 20
10.312
 30
0.0
 11
1.0
 21
0.0
 31
0.0
 44
0.9
  1
7
 40
0.1
 41
0.08
  0
MTEXT
  5
46A
100
AcDbEntity
  8
0
100
AcDbMText
 62
2
  6
CONTINUOUS
  7
TEXTSTYLE_2
 71
2
 72
1
 10
5.545
 20
10.312
 30
0.0
 11
1.0
 21
0.0
 31
0.0
 44
0.9
  1
6
 40
0.1
 41
0.08
  0
MTEXT
  5
46B
100
AcDbEntity
  8
0
100
AcDbMText
 62
2
  6
CONTINUOUS
  7
TEXTSTYLE_2
 71
2
 72
1
 10
7.515
 20
10.312
 30
0.0
 11
1.0
 21
0.0
 31
0.0
 44
0.9
  1
5
 40
0.1
 41
0.08
  0
MTEXT
  5
46C
100
AcDbEntity
  8
0
100
AcDbMText
 62
2
  6
CONTINUOUS
  7
TEXTSTYLE_2
 71
2
 72
1
 10
1.605
 20
10.312
 30
0.0
 11
1.0
 21
0.0
 31
0.0
 44
0.9
  1
8
 40
0.1
 41
0.08
  0
MTEXT
  5
46D
100
AcDbEntity
  8
0
100
AcDbMText
 62
2
  6
CONTINUOUS
  7
TEXTSTYLE_2
 71
2
 72
1
 10
1.605
 20
0.787
 30
0.0
 11
1.0
 21
0.0
 31
0.0
 44
0.9
  1
8
 40
0.1
 41
0.08
  0
MTEXT
  5
46E
100
AcDbEntity
  8
0
100
AcDbMText
 62
2
  6
CONTINUOUS
  7
TEXTSTYLE_2
 71
2
 72
1
 10
3.575
 20
0.787
 30
0.0
 11
1.0
 21
0.0
 31
0.0
 44
0.9
  1
7
 40
0.1
 41
0.08
  0
MTEXT
  5
46F
100
AcDbEntity
  8
0
100
AcDbMText
 62
2
  6
CONTINUOUS
  7
TEXTSTYLE_2
 71
2
 72
1
 10
5.545
 20
0.787
 30
0.0
 11
1.0
 21
0.0
 31
0.0
 44
0.9
  1
6
 40
0.1
 41
0.08
  0
MTEXT
  5
470
100
AcDbEntity
  8
0
100
AcDbMText
 62
2
  6
CONTINUOUS
  7
TEXTSTYLE_2
 71
2
 72
1
 10
7.515
 20
0.787
 30
0.0
 11
1.0
 21
0.0
 31
0.0
 44
0.9
  1
5
 40
0.1
 41
0.08
  0
MTEXT
  5
471
100
AcDbEntity
  8
0
100
AcDbMText
 62
2
  6
CONTINUOUS
  7
TEXTSTYLE_2
 71
2
 72
1
 10
9.485
 20
0.787
 30
0.0
 11
1.0
 21
0.0
 31
0.0
 44
0.9
  1
4
 40
0.1
 41
0.08
  0
MTEXT
  5
472
100
AcDbEntity
  8
0
100
AcDbMText
 62
2
  6
CONTINUOUS
  7
TEXTSTYLE_2
 71
2
 72
1
 10
11.455
 20
0.787
 30
0.0
 11
1.0
 21
0.0
 31
0.0
 44
0.9
  1
3
 40
0.1
 41
0.08
  0
MTEXT
  5
473
100
AcDbEntity
  8
0
100
AcDbMText
 62
2
  6
CONTINUOUS
  7
TEXTSTYLE_2
 71
2
 72
1
 10
13.425
 20
0.787
 30
0.0
 11
1.0
 21
0.0
 31
0.0
 44
0.9
  1
2
 40
0.1
 41
0.08
  0
MTEXT
  5
474
100
AcDbEntity
  8
0
100
AcDbMText
 62
2
  6
CONTINUOUS
  7
TEXTSTYLE_2
 71
2
 72
1
 10
15.395
 20
0.787
 30
0.0
 11
1.0
 21
0.0
 31
0.0
 44
0.9
  1
1
 40
0.1
 41
0.08
  0
MTEXT
  5
475
100
AcDbEntity
  8
0
100
AcDbMText
 62
2
  6
CONTINUOUS
  7
TEXTSTYLE_2
 71
3
 72
1
 10
0.52
 20
4.3995
 30
0.0
 11
1.0
 21
0.0
 31
0.0
 44
0.9
  1
B
 40
0.1
 41
0.08
  0
MTEXT
  5
476
100
AcDbEntity
  8
0
100
AcDbMText
 62
2
  6
CONTINUOUS
  7
TEXTSTYLE_2
 71
3
 72
1
 10
0.52
 20
2.0995
 30
0.0
 11
1.0
 21
0.0
 31
0.0
 44
0.9
  1
A
 40
0.1
 41
0.08
  0
MTEXT
  5
477
100
AcDbEntity
  8
0
100
AcDbMText
 62
2
  6
CONTINUOUS
  7
TEXTSTYLE_2
 71
3
 72
1
 10
0.52
 20
8.9995
 30
0.0
 11
1.0
 21
0.0
 31
0.0
 44
0.9
  1
D
 40
0.1
 41
0.08
  0
MTEXT
  5
478
100
AcDbEntity
  8
0
100
AcDbMText
 62
2
  6
CONTINUOUS
  7
TEXTSTYLE_2
 71
3
 72
1
 10
0.52
 20
6.6995
 30
0.0
 11
1.0
 21
0.0
 31
0.0
 44
0.9
  1
C
 40
0.1
 41
0.08
  0
MTEXT
  5
479
100
AcDbEntity
  8
0
100
AcDbMText
 62
2
  6
CONTINUOUS
  7
TEXTSTYLE_2
 71
1
 72
1
 10
16.48
 20
8.9995
 30
0.0
 11
1.0
 21
0.0
 31
0.0
 44
0.9
  1
D
 40
0.1
 41
0.08
  0
MTEXT
  5
47A
100
AcDbEntity
  8
0
100
AcDbMText
 62
2
  6
CONTINUOUS
  7
TEXTSTYLE_2
 71
1
 72
1
 10
16.48
 20
6.6995
 30
0.0
 11
1.0
 21
0.0
 31
0.0
 44
0.9
  1
C
 40
0.1
 41
0.08
  0
MTEXT
  5
47B
100
AcDbEntity
  8
0
100
AcDbMText
 62
2
  6
CONTINUOUS
  7
TEXTSTYLE_2
 71
1
 72
1
 10
16.48
 20
4.3995
 30
0.0
 11
1.0
 21
0.0
 31
0.0
 44
0.9
  1
B
 40
0.1
 41
0.08
  0
MTEXT
  5
47C
100
AcDbEntity
  8
0
100
AcDbMText
 62
2
  6
CONTINUOUS
  7
TEXTSTYLE_2
 71
1
 72
1
 10
16.48
 20
2.0995
 30
0.0
 11
1.0
 21
0.0
 31
0.0
 44
0.9
  1
A
 40
0.1
 41
0.08
  0
MTEXT
  5
47D
100
AcDbEntity
  8
0
100
AcDbMText
 62
2
  6
CONTINUOUS
  7
STANDARD
 71
1
 72
1
 10
14.819264911
 20
1.0627941725
 30
0.0
 11
1.0
 21
0.0
 31
0.0
 44
0.9
  1
1 OF 1
 40
0.1
 41
0.6
  0
MTEXT
  5
47E
100
AcDbEntity
  8
0
100
AcDbMText
 62
7
  6
CONTINUOUS
  7
STANDARD
 71
1
 72
1
 10
13.8911999818
 20
1.3747321586
 30
0.0
 11
1.0
 21
0.0
 31
0.0
 44
0.9
  1
158550
 40
0.12
 41
0.72
  0
MTEXT
  5
47F
100
AcDbEntity
  8
0
100
AcDbMText
 62
2
  6
CONTINUOUS
  7
STANDARD
 71
1
 72
1
 10
12.644264911
 20
1.0627941725
 30
0.0
 11
1.0
 21
0.0
 31
0.0
 44
0.9
  1
1:1
 40
0.1
 41
0.3
  0
MTEXT
  5
480
100
AcDbEntity
  8
0
100
AcDbMText
 62
2
  6
CONTINUOUS
  7
STANDARD
 71
1
 72
1
 10
1.0597007627
 20
1.6202922458
 30
0.0
 11
1.0
 21
0.0
 31
0.0
 44
0.9
  1
NOTES:\P1. ALL DIMENSIONS ARE MILLIMETERS [INCHES] UNLESS OTHERWISE NOTED.
 40
0.1
 41
6.6
  0
INSERT
  5
481
100
AcDbEntity
  8
0
100
AcDbBlockReference
 62
2
  6
CONTINUOUS
  2
BANNER_LOGO_TITLEBLOCK_BL0
 10
12.9086867042
 20
2.5403783405
  0
DIMENSION
  5
482
100
AcDbEntity
  8
SCHEME_DIMS
100
AcDbDimension
 62
2
  6
CONTINUOUS
  2
*D0
 10
11.0798345291
 20
5.6829304348
 11
8.1548310508
 21
5.6079304348
 70
160
 71
2
 42
121.15
  3
DIMSTYLE_1
100
AcDbAlignedDimension
 13
6.3101494897
 23
4.6256155076
 14
11.0798345291
 24
4.6751532757
100
AcDbRotatedDimension
  0
DIMENSION
  5
483
100
AcDbEntity
  8
SCHEME_DIMS
100
AcDbDimension
 62
2
  6
CONTINUOUS
  2
*D1
 10
6.5562124818
 20
5.3079304348
 11
9.516846703
 21
5.2329304348
 70
160
 71
2
 42
113.4
  3
DIMSTYLE_1
100
AcDbAlignedDimension
 13
11.0207794109
 23
4.8216347839
 14
6.5562124818
 24
4.8118054206
 50
180.0
100
AcDbRotatedDimension
  0
DIMENSION
  5
484
100
AcDbEntity
  8
SCHEME_DIMS
100
AcDbDimension
 62
2
  6
CONTINUOUS
  2
*D2
 10
11.5798345291
 20
4.8079304348
 11
11.4548345291
 21
4.3455526261
 70
160
 71
2
 42
25.4
  3
DIMSTYLE_1
100
AcDbAlignedDimension
 13
11.0508721683
 23
3.8079304348
 14
11.0527386871
 24
4.8079304348
 50
90.0
100
AcDbRotatedDimension
  0
DIMENSION
  5
485
100
AcDbEntity
  8
SCHEME_DIMS
100
AcDbDimension
 62
2
  6
CONTINUOUS
  2
*D3
 10
2.0916100271
 20
5.3079304348
 11
1.0066306799
 21
5.2329304348
 70
160
 71
3
 42
5.9
  3
DIMSTYLE_1
100
AcDbAlignedDimension
 13
1.8593265625
 23
4.2641312222
 14
2.0916100271
 24
4.6735800411
100
AcDbRotatedDimension
  0
DIMENSION
  5
486
100
AcDbEntity
  8
SCHEME_DIMS
100
AcDbDimension
 62
2
  6
CONTINUOUS
  2
*D4
 10
2.2814352657
 20
3.3079304348
 11
1.1559948272
 21
3.2329304348
 70
160
 71
3
 42
10.7215610606
  3
DIMSTYLE_1
100
AcDbAlignedDimension
 13
1.8593265625
 23
3.7966115372
 14
2.2814352657
 24
3.7394359598
100
AcDbRotatedDimension
  0
DIMENSION
  5
487
100
AcDbEntity
  8
SCHEME_DIMS
100
AcDbDimension
 62
2
  6
CONTINUOUS
  2
*D5
 10
3.1093265625
 20
2.9329304348
 11
2.3593265625
 21
2.8579304348
 70
160
 71
2
 42
31.75
  3
DIMSTYLE_1
100
AcDbAlignedDimension
 13
1.8593265625
 23
3.7966115372
 14
3.1093265625
 24
3.7966115371
100
AcDbRotatedDimension
  0
DIMENSION
  5
488
100
AcDbEntity
  8
SCHEME_DIMS
100
AcDbDimension
 62
2
  6
CONTINUOUS
  2
*D6
 10
1.8593265625
 20
5.6829304348
 11
2.2577734424
 21
5.6079304348
 70
160
 71
2
 42
22.9
  3
DIMSTYLE_1
100
AcDbAlignedDimension
 13
2.7609013657
 23
4.7420839781
 14
1.8593265625
 24
4.8403258723
 50
180.0
100
AcDbRotatedDimension
  0
DIMENSION
  5
489
100
AcDbEntity
  8
SCHEME_DIMS
100
AcDbDimension
 62
2
  6
CONTINUOUS
  2
*D7
 10
3.6093265625
 20
3.8079304348
 11
3.4843265625
 21
4.0773877565
 70
160
 71
2
 42
12.7
  3
DIMSTYLE_1
100
AcDbAlignedDimension
 13
3.195054909
 23
4.3079304348
 14
3.1206454601
 24
3.8079304348
 50
270.0
100
AcDbRotatedDimension
  0
DIMENSION
  5
48A
100
AcDbEntity
  8
SCHEME_DIMS
100
AcDbDimension
 62
2
  6
CONTINUOUS
  2
*D8
 10
13.8328129489
 20
3.8079304348
 11
13.7078129489
 21
4.2329304348
 70
160
 71
2
 42
25.4
  3
DIMSTYLE_1
100
AcDbAlignedDimension
 13
13.4586728379
 23
4.8079304348
 14
13.4586728379
 24
3.8079304348
 50
270.0
100
AcDbRotatedDimension
  0
LINE
  5
48B
100
AcDbEntity
  8
0
100
AcDbLine
 62
2
  6
CONTINUOUS
 10
16.38
 20
0.887
 11
12.03
 21
0.887
  0
LINE
  5
48C
100
AcDbEntity
  8
0
100
AcDbLine
 62
2
  6
CONTINUOUS
 10
16.38
 20
0.887
 11
16.38
 21
2.807
  0
LINE
  5
48D
100
AcDbEntity
  8
0
100
AcDbLine
 62
2
  6
CONTINUOUS
 10
16.38
 20
2.807
 11
12.03
 21
2.807
  0
LINE
  5
48E
100
AcDbEntity
  8
0
100
AcDbLine
 62
2
  6
CONTINUOUS
 10
12.03
 20
0.887
 11
12.03
 21
2.807
  0
MTEXT
  5
48F
100
AcDbEntity
  8
NOTES
100
AcDbMText
 62
7
  6
CONTINUOUS
  7
STANDARD
 71
2
 72
1
 10
16.155
 20
1.367
 30
0.0
 11
1.0
 21
0.0
 31
0.0
 44
0.9
  1
A
 40
0.1
 41
0.1
  0
MTEXT
  5
490
100
AcDbEntity
  8
NOTES
100
AcDbMText
 62
7
  6
CONTINUOUS
  7
STANDARD
 71
2
 72
1
 10
14.205
 20
1.817
 30
0.0
 11
1.0
 21
0.0
 31
0.0
 44
0.9
  1
LX3E CABLE/PIGTAIL
 40
0.1
 41
1.8
  0
MTEXT
  5
491
100
AcDbEntity
  8
NOTES
100
AcDbMText
 62
2
  6
CONTINUOUS
  7
STANDARD
 71
2
 72
1
 10
15.1660319514
 20
3.3699671098
 30
0.0
 11
1.0
 21
0.0
 31
0.0
 44
0.9
  1
ISOMETRIC VIEW\PSCALE  1:1
 40
0.1
 41
1.4
  0
INSERT
  5
492
100
AcDbEntity
  8
SYMBOLS
100
AcDbBlockReference
 62
2
  6
CONTINUOUS
  2
CL_BL1
 10
11.1558371811
 20
4.3094344661
  0
LINE
  5
493
100
AcDbEntity
  8
0
100
AcDbLine
 62
2
  6
CONTINUOUS
 10
0.47
 20
5.586103
 11
0.47
 21
5.412897
  0
LINE
  5
494
100
AcDbEntity
  8
0
100
AcDbLine
 62
2
  6
CONTINUOUS
 10
0.62
 20
10.112
 11
0.62
 21
0.887
  0
LINE
  5
495
100
AcDbEntity
  8
0
100
AcDbLine
 62
2
  6
CONTINUOUS
 10
2.59
 20
0.887
 11
2.59
 21
0.637
  0
LINE
  5
496
100
AcDbEntity
  8
0
100
AcDbLine
 62
2
  6
CONTINUOUS
 10
2.59
 20
10.112
 11
2.59
 21
10.362
  0
LINE
  5
497
100
AcDbEntity
  8
0
100
AcDbLine
 62
2
  6
CONTINUOUS
 10
8.413397
 20
0.737
 11
8.586603
 21
0.737
  0
LINE
  5
498
100
AcDbEntity
  8
0
100
AcDbLine
 62
7
  6
CONTINUOUS
 10
11.1389508475
 20
1.425992839
 11
11.7453418475
 21
1.495385839
  0
LINE
  5
499
100
AcDbEntity
  8
0
100
AcDbLine
 62
2
  6
CONTINUOUS
 10
0.62
 20
0.887
 11
16.38
 21
0.887
  0
LINE
  5
49A
100
AcDbEntity
  8
0
100
AcDbLine
 62
2
  6
CONTINUOUS
 10
12.03
 20
1.137
 11
16.38
 21
1.137
  0
LINE
  5
49B
100
AcDbEntity
  8
0
100
AcDbLine
 62
7
  6
CONTINUOUS
 10
10.2121898475
 20
1.243294839
 11
10.4342808475
 21
1.243294839
  0
LINE
  5
49C
100
AcDbEntity
  8
0
100
AcDbLine
 62
7
  6
CONTINUOUS
 10
10.4842808475
 20
1.243294839
 11
10.5842808475
 21
1.243294839
  0
LINE
  5
49D
100
AcDbEntity
  8
0
100
AcDbLine
 62
7
  6
CONTINUOUS
 10
10.6342808475
 20
1.243294839
 11
10.8563718475
 21
1.243294839
  0
LINE
  5
49E
100
AcDbEntity
  8
0
100
AcDbLine
 62
7
  6
CONTINUOUS
 10
11.0389508475
 20
1.243294839
 11
11.3171028475
 21
1.243294839
  0
LINE
  5
49F
100
AcDbEntity
  8
0
100
AcDbLine
 62
7
  6
CONTINUOUS
 10
11.3671028475
 20
1.243294839
 11
11.5171888475
 21
1.243294839
  0
LINE
  5
4A0
100
AcDbEntity
  8
0
100
AcDbLine
 62
7
  6
CONTINUOUS
 10
11.5671888475
 20
1.243294839
 11
11.8453418475
 21
1.243294839
  0
LINE
  5
4A1
100
AcDbEntity
  8
0
100
AcDbLine
 62
7
  6
CONTINUOUS
 10
11.7453418475
 20
0.991203839
 11
11.1389508475
 21
1.060596839
  0
LINE
  5
4A2
100
AcDbEntity
  8
0
100
AcDbLine
 62
2
  6
CONTINUOUS
 10
4.56
 20
0.887
 11
4.56
 21
0.637
  0
LINE
  5
4A3
100
AcDbEntity
  8
0
100
AcDbLine
 62
2
  6
CONTINUOUS
 10
4.56
 20
10.112
 11
4.56
 21
10.362
  0
LINE
  5
4A4
100
AcDbEntity
  8
0
100
AcDbLine
 62
2
  6
CONTINUOUS
 10
0.47
 20
5.412897
 11
0.62
 21
5.4995
  0
LINE
  5
4A5
100
AcDbEntity
  8
0
100
AcDbLine
 62
2
  6
CONTINUOUS
 10
12.03
 20
1.507
 11
16.38
 21
1.507
  0
LINE
  5
4A6
100
AcDbEntity
  8
0
100
AcDbLine
 62
2
  6
CONTINUOUS
 10
10.03
 20
1.907
 11
12.03
 21
1.907
  0
LINE
  5
4A7
100
AcDbEntity
  8
0
100
AcDbLine
 62
2
  6
CONTINUOUS
 10
0.62
 20
5.4995
 11
0.47
 21
5.586103
  0
LINE
  5
4A8
100
AcDbEntity
  8
0
100
AcDbLine
 62
2
  6
CONTINUOUS
 10
12.03
 20
2.267
 11
16.38
 21
2.267
  0
LINE
  5
4A9
100
AcDbEntity
  8
0
100
AcDbLine
 62
2
  6
CONTINUOUS
 10
8.5
 20
10.112
 11
8.586603
 21
10.262
  0
LINE
  5
4AA
100
AcDbEntity
  8
0
100
AcDbLine
 62
2
  6
CONTINUOUS
 10
16.38
 20
2.807
 11
10.03
 21
2.807
  0
LINE
  5
4AB
100
AcDbEntity
  8
0
100
AcDbLine
 62
2
  6
CONTINUOUS
 10
0.62
 20
3.1995
 11
0.37
 21
3.1995
  0
LINE
  5
4AC
100
AcDbEntity
  8
0
100
AcDbLine
 62
2
  6
CONTINUOUS
 10
16.38
 20
3.1995
 11
16.63
 21
3.1995
  0
LINE
  5
4AD
100
AcDbEntity
  8
0
100
AcDbLine
 62
2
  6
CONTINUOUS
 10
8.586603
 20
0.737
 11
8.5
 21
0.887
  0
LINE
  5
4AE
100
AcDbEntity
  8
0
100
AcDbLine
 62
2
  6
CONTINUOUS
 10
6.53
 20
0.887
 11
6.53
 21
0.637
  0
LINE
  5
4AF
100
AcDbEntity
  8
0
100
AcDbLine
 62
2
  6
CONTINUOUS
 10
6.53
 20
10.112
 11
6.53
 21
10.362
  0
LINE
  5
4B0
100
AcDbEntity
  8
0
100
AcDbLine
 62
2
  6
CONTINUOUS
 10
8.5
 20
0.887
 11
8.5
 21
0.637
  0
LINE
  5
4B1
100
AcDbEntity
  8
0
100
AcDbLine
 62
2
  6
CONTINUOUS
 10
8.5
 20
10.112
 11
8.5
 21
10.362
  0
LINE
  5
4B2
100
AcDbEntity
  8
0
100
AcDbLine
 62
2
  6
CONTINUOUS
 10
0.62
 20
5.4995
 11
0.37
 21
5.4995
  0
LINE
  5
4B3
100
AcDbEntity
  8
0
100
AcDbLine
 62
2
  6
CONTINUOUS
 10
16.38
 20
5.4995
 11
16.63
 21
5.4995
  0
LINE
  5
4B4
100
AcDbEntity
  8
0
100
AcDbLine
 62
2
  6
CONTINUOUS
 10
10.03
 20
2.807
 11
10.03
 21
0.887
  0
LINE
  5
4B5
100
AcDbEntity
  8
0
100
AcDbLine
 62
2
  6
CONTINUOUS
 10
10.47
 20
0.887
 11
10.47
 21
0.637
  0
LINE
  5
4B6
100
AcDbEntity
  8
0
100
AcDbLine
 62
2
  6
CONTINUOUS
 10
10.47
 20
10.112
 11
10.47
 21
10.362
  0
LINE
  5
4B7
100
AcDbEntity
  8
0
100
AcDbLine
 62
7
  6
CONTINUOUS
 10
10.5342808475
 20
1.143294839
 11
10.5342808475
 21
0.921203839
  0
LINE
  5
4B8
100
AcDbEntity
  8
0
100
AcDbLine
 62
7
  6
CONTINUOUS
 10
10.5342808475
 20
1.193294839
 11
10.5342808475
 21
1.293294839
  0
LINE
  5
4B9
100
AcDbEntity
  8
0
100
AcDbLine
 62
7
  6
CONTINUOUS
 10
10.5342808475
 20
1.343294839
 11
10.5342808475
 21
1.565385839
  0
LINE
  5
4BA
100
AcDbEntity
  8
0
100
AcDbLine
 62
2
  6
CONTINUOUS
 10
8.5
 20
0.887
 11
8.413397
 21
0.737
  0
LINE
  5
4BB
100
AcDbEntity
  8
0
100
AcDbLine
 62
2
  6
CONTINUOUS
 10
0.62
 20
7.7995
 11
0.37
 21
7.7995
  0
LINE
  5
4BC
100
AcDbEntity
  8
0
100
AcDbLine
 62
2
  6
CONTINUOUS
 10
16.38
 20
7.7995
 11
16.63
 21
7.7995
  0
LINE
  5
4BD
100
AcDbEntity
  8
0
100
AcDbLine
 62
2
  6
CONTINUOUS
 10
8.413397
 20
10.262
 11
8.5
 21
10.112
  0
LINE
  5
4BE
100
AcDbEntity
  8
0
100
AcDbLine
 62
7
  6
CONTINUOUS
 10
11.1389508475
 20
1.060596839
 11
11.1389508475
 21
1.425992839
  0
LINE
  5
4BF
100
AcDbEntity
  8
0
100
AcDbLine
 62
7
  6
CONTINUOUS
 10
11.7453418475
 20
1.495385839
 11
11.7453418475
 21
0.991203839
  0
LINE
  5
4C0
100
AcDbEntity
  8
0
100
AcDbLine
 62
1
  6
CONTINUOUS
 10
12.03
 20
2.807
 11
12.03
 21
0.887
  0
LINE
  5
4C1
100
AcDbEntity
  8
0
100
AcDbLine
 62
2
  6
CONTINUOUS
 10
12.44
 20
0.887
 11
12.44
 21
0.637
  0
LINE
  5
4C2
100
AcDbEntity
  8
0
100
AcDbLine
 62
2
  6
CONTINUOUS
 10
12.44
 20
10.112
 11
12.44
 21
10.362
  0
LINE
  5
4C3
100
AcDbEntity
  8
0
100
AcDbLine
 62
2
  6
CONTINUOUS
 10
16.53
 20
5.586103
 11
16.38
 21
5.4995
  0
LINE
  5
4C4
100
AcDbEntity
  8
0
100
AcDbLine
 62
2
  6
CONTINUOUS
 10
16.38
 20
5.4995
 11
16.53
 21
5.412897
  0
LINE
  5
4C5
100
AcDbEntity
  8
0
100
AcDbLine
 62
2
  6
CONTINUOUS
 10
12.83
 20
1.507
 11
12.83
 21
1.137
  0
LINE
  5
4C6
100
AcDbEntity
  8
0
100
AcDbLine
 62
2
  6
CONTINUOUS
 10
16.38
 20
10.112
 11
0.62
 21
10.112
  0
LINE
  5
4C7
100
AcDbEntity
  8
0
100
AcDbLine
 62
2
  6
CONTINUOUS
 10
8.586603
 20
10.262
 11
8.413397
 21
10.262
  0
LINE
  5
4C8
100
AcDbEntity
  8
0
100
AcDbLine
 62
2
  6
CONTINUOUS
 10
14.205
 20
1.137
 11
14.205
 21
0.887
  0
LINE
  5
4C9
100
AcDbEntity
  8
0
100
AcDbLine
 62
2
  6
CONTINUOUS
 10
14.41
 20
0.887
 11
14.41
 21
0.637
  0
LINE
  5
4CA
100
AcDbEntity
  8
0
100
AcDbLine
 62
2
  6
CONTINUOUS
 10
14.41
 20
10.112
 11
14.41
 21
10.362
  0
LINE
  5
4CB
100
AcDbEntity
  8
0
100
AcDbLine
 62
2
  6
CONTINUOUS
 10
15.58
 20
1.507
 11
15.58
 21
1.137
  0
LINE
  5
4CC
100
AcDbEntity
  8
0
100
AcDbLine
 62
2
  6
CONTINUOUS
 10
16.38
 20
0.887
 11
16.38
 21
10.112
  0
LINE
  5
4CD
100
AcDbEntity
  8
0
100
AcDbLine
 62
2
  6
CONTINUOUS
 10
16.53
 20
5.412897
 11
16.53
 21
5.586103
  0
LINE
  5
4CE
100
AcDbEntity
  8
02___PRT_ALL_AXES
100
AcDbLine
 62
7
  6
CONTINUOUS
 10
4.0562124818
 20
4.1829304348
 11
4.0562124818
 21
4.4329304348
  0
LINE
  5
4CF
100
AcDbEntity
  8
0
100
AcDbLine
 62
7
  6
CONTINUOUS
 10
6.3101494897
 20
4.1583241356
 11
6.3101494897
 21
4.457536734
  0
LINE
  5
4D0
100
AcDbEntity
  8
0
100
AcDbLine
 62
3
  6
CONTINUOUS
 10
6.3199920094
 20
4.0382453955
 11
6.3199920094
 21
4.5776154685
  0
LINE
  5
4D1
100
AcDbEntity
  8
0
100
AcDbLine
 62
7
  6
CONTINUOUS
 10
6.3396770487
 20
4.0382453955
 11
6.3396770487
 21
4.1633908415
  0
LINE
  5
4D2
100
AcDbEntity
  8
0
100
AcDbLine
 62
7
  6
CONTINUOUS
 10
6.3396770487
 20
4.452338203
 11
6.3396770487
 21
4.5776154685
  0
LINE
  5
4D3
100
AcDbEntity
  8
0
100
AcDbLine
 62
9
  6
CONTINUOUS
 10
6.3445983086
 20
4.0185603561
 11
6.3445983086
 21
4.0628433113
  0
LINE
  5
4D4
100
AcDbEntity
  8
0
100
AcDbLine
 62
9
  6
CONTINUOUS
 10
6.3445983086
 20
4.163110621
 11
6.3445983086
 21
4.452618168
  0
LINE
  5
4D5
100
AcDbEntity
  8
0
100
AcDbLine
 62
9
  6
CONTINUOUS
 10
6.3445983086
 20
4.5530175583
 11
6.3445983086
 21
4.5973005135
  0
LINE
  5
4D6
100
AcDbEntity
  8
0
100
AcDbLine
 62
9
  6
CONTINUOUS
 10
6.3790471275
 20
4.0421824033
 11
6.3790471275
 21
4.163110621
  0
LINE
  5
4D7
100
AcDbEntity
  8
0
100
AcDbLine
 62
9
  6
CONTINUOUS
 10
6.3790471275
 20
4.452618168
 11
6.3790471275
 21
4.5736784663
  0
LINE
  5
4D8
100
AcDbEntity
  8
02___PRT_ALL_AXES
100
AcDbLine
 62
7
  6
CONTINUOUS
 10
6.3888896472
 20
4.0421824033
 11
6.3888896472
 21
4.163110621
  0
LINE
  5
4D9
100
AcDbEntity
  8
02___PRT_ALL_AXES
100
AcDbLine
 62
7
  6
CONTINUOUS
 10
6.3888896472
 20
4.452618168
 11
6.3888896472
 21
4.5736784663
  0
LINE
  5
4DA
100
AcDbEntity
  8
0
100
AcDbLine
 62
7
  6
CONTINUOUS
 10
6.4085746865
 20
4.0441509072
 11
6.4085748268
 21
4.163110621
  0
LINE
  5
4DB
100
AcDbEntity
  8
0
100
AcDbLine
 62
7
  6
CONTINUOUS
 10
6.4085748268
 20
4.452618168
 11
6.4085746865
 21
4.5717099623
  0
LINE
  5
4DC
100
AcDbEntity
  8
0
100
AcDbLine
 62
3
  6
CONTINUOUS
 10
6.3199920094
 20
4.4403147893
 11
6.3205873114
 21
4.4430047267
  0
LINE
  5
4DD
100
AcDbEntity
  8
0
100
AcDbLine
 62
3
  6
CONTINUOUS
 10
6.3199920094
 20
4.175425231
 11
6.3205873114
 21
4.1727328381
  0
LWPOLYLINE
  5
4DE
100
AcDbEntity
  8
0
100
AcDbPolyline
 62
3
  6
CONTINUOUS
 90
10
 70
0
 10
6.5562124818
 20
4.3789680369
 10
6.5550321948
 20
4.3924744585
 10
6.5515031798
 20
4.4053085989
 10
6.5457882415
 20
4.4169744363
 10
6.5380198754
 20
4.4273235397
 10
6.5283205489
 20
4.4361933024
 10
6.5171171173
 20
4.4432452628
 10
6.5046696961
 20
4.4484009602
 10
6.4912383647
 20
4.4515666854
 10
6.4774723243
 20
4.452618168
  0
LINE
  5
4DF
100
AcDbEntity
  8
02___PRT_ALL_AXES
100
AcDbLine
 62
3
  6
CONTINUOUS
 10
6.424322718
 20
4.2209151739
 11
6.424322718
 21
4.3949456957
  0
LINE
  5
4E0
100
AcDbEntity
  8
02___PRT_ALL_AXES
100
AcDbLine
 62
7
  6
CONTINUOUS
 10
6.4538502771
 20
4.2542635767
 11
6.4538502771
 21
4.3615972928
  0
LINE
  5
4E1
100
AcDbEntity
  8
0
100
AcDbLine
 62
7
  6
CONTINUOUS
 10
6.4676298046
 20
4.0185603561
 11
6.4676298046
 21
4.0175136209
  0
LINE
  5
4E2
100
AcDbEntity
  8
02___PRT_ALL_AXES
100
AcDbLine
 62
7
  6
CONTINUOUS
 10
6.4676298046
 20
4.0362768915
 11
6.4676298046
 21
4.163110621
  0
LINE
  5
4E3
100
AcDbEntity
  8
02___PRT_ALL_AXES
100
AcDbLine
 62
7
  6
CONTINUOUS
 10
6.4676298046
 20
4.2268345794
 11
6.4676298046
 21
4.3890262902
  0
LINE
  5
4E4
100
AcDbEntity
  8
02___PRT_ALL_AXES
100
AcDbLine
 62
7
  6
CONTINUOUS
 10
6.4676298046
 20
4.452618168
 11
6.4676298046
 21
4.5795839781
  0
LINE
  5
4E5
100
AcDbEntity
  8
0
100
AcDbLine
 62
7
  6
CONTINUOUS
 10
6.4676298046
 20
4.5973005135
 11
6.4676298046
 21
4.5983472487
  0
LINE
  5
4E6
100
AcDbEntity
  8
0
100
AcDbLine
 62
9
  6
CONTINUOUS
 10
6.4774723243
 20
4.5973005135
 11
6.4774723243
 21
4.5795839781
  0
LINE
  5
4E7
100
AcDbEntity
  8
0
100
AcDbLine
 62
9
  6
CONTINUOUS
 10
6.4774723243
 20
4.0362768915
 11
6.4774723243
 21
4.0185603561
  0
LINE
  5
4E8
100
AcDbEntity
  8
02___PRT_ALL_AXES
100
AcDbLine
 62
3
  6
CONTINUOUS
 10
6.4971573637
 20
4.2209151739
 11
6.4971573637
 21
4.3949456957
  0
LINE
  5
4E9
100
AcDbEntity
  8
0
100
AcDbLine
 62
7
  6
CONTINUOUS
 10
6.5444014582
 20
4.0284028757
 11
6.5444014582
 21
4.1968976422
  0
LINE
  5
4EA
100
AcDbEntity
  8
0
100
AcDbLine
 62
7
  6
CONTINUOUS
 10
6.5444014582
 20
4.4188219243
 11
6.5444014582
 21
4.5874579938
  0
LINE
  5
4EB
100
AcDbEntity
  8
0
100
AcDbLine
 62
9
  6
CONTINUOUS
 10
6.5463699621
 20
4.0284028757
 11
6.5463699621
 21
4.1999331371
  0
LINE
  5
4EC
100
AcDbEntity
  8
0
100
AcDbLine
 62
9
  6
CONTINUOUS
 10
6.5463699621
 20
4.4157869766
 11
6.5463699621
 21
4.5874579938
  0
LINE
  5
4ED
100
AcDbEntity
  8
0
100
AcDbLine
 62
7
  6
CONTINUOUS
 10
6.5562124818
 20
3.8473005135
 11
6.5562124818
 21
4.768560356
  0
LINE
  5
4EE
100
AcDbEntity
  8
0
100
AcDbLine
 62
9
  6
CONTINUOUS
 10
6.5955825606
 20
3.8079304348
 11
6.5955825606
 21
4.8079304348
  0
LINE
  5
4EF
100
AcDbEntity
  8
0
100
AcDbLine
 62
3
  6
CONTINUOUS
 10
6.3205873114
 20
4.4430047267
 11
6.3223371513
 21
4.4455568053
  0
LINE
  5
4F0
100
AcDbEntity
  8
0
100
AcDbLine
 62
7
  6
CONTINUOUS
 10
6.3888897121
 20
4.552024858
 11
6.4085747567
 21
4.5717098922
  0
LINE
  5
4F1
100
AcDbEntity
  8
02___PRT_ALL_AXES
100
AcDbLine
 62
7
  6
CONTINUOUS
 10
6.4538502771
 20
4.5983472487
 11
6.4527363648
 21
4.5973005135
  0
LINE
  5
4F2
100
AcDbEntity
  8
02___PRT_ALL_AXES
100
AcDbLine
 62
7
  6
CONTINUOUS
 10
6.4538502771
 20
4.0175136209
 11
6.4527363647
 21
4.0185603561
  0
LINE
  5
4F3
100
AcDbEntity
  8
0
100
AcDbLine
 62
7
  6
CONTINUOUS
 10
6.3888897121
 20
4.0638360115
 11
6.4085747567
 21
4.0441509774
  0
LINE
  5
4F4
100
AcDbEntity
  8
0
100
AcDbLine
 62
3
  6
CONTINUOUS
 10
6.3205873114
 20
4.1727328381
 11
6.3223371513
 21
4.1701784298
  0
LWPOLYLINE
  5
4F5
100
AcDbEntity
  8
0
100
AcDbPolyline
 62
3
  6
CONTINUOUS
 90
6
 70
0
 10
6.3223371513
 20
4.4455568053
 10
6.3252526121
 20
4.447917792
 10
6.3291514843
 20
4.4498918353
 10
6.333837194
 20
4.4513792211
 10
6.3390706688
 20
4.4523037068
 10
6.3445983086
 20
4.452618168
  0
LWPOLYLINE
  5
4F6
100
AcDbEntity
  8
0
100
AcDbPolyline
 62
3
  6
CONTINUOUS
 90
6
 70
0
 10
6.3223371513
 20
4.1701784298
 10
6.3252526121
 20
4.1678152879
 10
6.3291514843
 20
4.1658394425
 10
6.333837194
 20
4.1643506989
 10
6.3390706688
 20
4.1634253693
 10
6.3445983086
 20
4.163110621
  0
LINE
  5
4F7
100
AcDbEntity
  8
0
100
AcDbLine
 62
7
  6
CONTINUOUS
 10
11.0109368913
 20
3.8079304348
 11
10.8239290172
 21
3.8079304348
  0
LINE
  5
4F8
100
AcDbEntity
  8
02___PRT_ALL_AXES
100
AcDbLine
 62
7
  6
CONTINUOUS
 10
11.0109368913
 20
3.8079304348
 11
10.8239290172
 21
3.8079304348
  0
LINE
  5
4F9
100
AcDbEntity
  8
0
100
AcDbLine
 62
7
  6
CONTINUOUS
 10
7.2845589385
 20
3.8079304348
 11
6.5955825606
 21
3.8079304348
  0
LINE
  5
4FA
100
AcDbEntity
  8
02___PRT_ALL_AXES
100
AcDbLine
 62
7
  6
CONTINUOUS
 10
7.2845589385
 20
3.8079304348
 11
6.5955825606
 21
3.8079304348
  0
LINE
  5
4FB
100
AcDbEntity
  8
0
100
AcDbLine
 62
7
  6
CONTINUOUS
 10
7.3042439779
 20
3.8079304348
 11
10.8042439779
 21
3.8079304348
  0
LINE
  5
4FC
100
AcDbEntity
  8
0
100
AcDbLine
 62
7
  6
CONTINUOUS
 10
10.8239290172
 20
3.8433635056
 11
10.8180235054
 21
3.8433635056
  0
LINE
  5
4FD
100
AcDbEntity
  8
0
100
AcDbLine
 62
7
  6
CONTINUOUS
 10
7.2845589385
 20
3.8433635056
 11
7.2904644503
 21
3.8433635056
  0
LINE
  5
4FE
100
AcDbEntity
  8
0
100
AcDbLine
 62
9
  6
CONTINUOUS
 10
11.0207794109
 20
3.8591115371
 11
11.0109368913
 21
3.8591115371
  0
LINE
  5
4FF
100
AcDbEntity
  8
02___PRT_ALL_AXES
100
AcDbLine
 62
9
  6
CONTINUOUS
 10
11.0109368913
 20
3.8591115371
 11
10.8239290172
 21
3.8591115371
  0
LINE
  5
500
100
AcDbEntity
  8
02___PRT_ALL_AXES
100
AcDbLine
 62
9
  6
CONTINUOUS
 10
7.2845589385
 20
3.8591115371
 11
6.5955825606
 21
3.8591115371
  0
LINE
  5
501
100
AcDbEntity
  8
0
100
AcDbLine
 62
9
  6
CONTINUOUS
 10
6.5562124818
 20
3.8591115371
 11
6.5955825606
 21
3.8591115371
  0
LINE
  5
502
100
AcDbEntity
  8
0
100
AcDbLine
 62
9
  6
CONTINUOUS
 10
7.2845589385
 20
3.8591115371
 11
7.2944014582
 21
3.8591115371
  0
LINE
  5
503
100
AcDbEntity
  8
0
100
AcDbLine
 62
9
  6
CONTINUOUS
 10
7.3042439779
 20
3.8591115371
 11
10.8042439779
 21
3.8591115371
  0
LINE
  5
504
100
AcDbEntity
  8
0
100
AcDbLine
 62
9
  6
CONTINUOUS
 10
10.8140864976
 20
3.8591115371
 11
10.8239290172
 21
3.8591115371
  0
LINE
  5
505
100
AcDbEntity
  8
02___PRT_ALL_AXES
100
AcDbLine
 62
7
  6
CONTINUOUS
 10
7.2845589385
 20
3.8079304348
 11
7.2845589385
 21
4.8079304348
  0
LINE
  5
506
100
AcDbEntity
  8
0
100
AcDbLine
 62
9
  6
CONTINUOUS
 10
7.2904644503
 20
4.7724973639
 11
7.2904644503
 21
4.6904304348
  0
LINE
  5
507
100
AcDbEntity
  8
0
100
AcDbLine
 62
9
  6
CONTINUOUS
 10
7.2904644503
 20
3.9254304348
 11
7.2904644503
 21
3.8433635056
  0
LINE
  5
508
100
AcDbEntity
  8
0
100
AcDbLine
 62
7
  6
CONTINUOUS
 10
7.2944014582
 20
4.768560356
 11
7.2944014582
 21
4.6904304348
  0
LINE
  5
509
100
AcDbEntity
  8
0
100
AcDbLine
 62
7
  6
CONTINUOUS
 10
7.2944014582
 20
3.9254304348
 11
7.2944014582
 21
3.8473005135
  0
LINE
  5
50A
100
AcDbEntity
  8
0
100
AcDbLine
 62
7
  6
CONTINUOUS
 10
7.3042439779
 20
3.8079304348
 11
7.3042439779
 21
3.9554497654
  0
LINE
  5
50B
100
AcDbEntity
  8
0
100
AcDbLine
 62
7
  6
CONTINUOUS
 10
7.3042439779
 20
4.6604111042
 11
7.3042439779
 21
4.8079304348
  0
LWPOLYLINE
  5
50C
100
AcDbEntity
  8
0
100
AcDbPolyline
 62
3
  6
CONTINUOUS
 90
9
 70
0
 10
6.5537024175
 20
4.024962231
 10
6.5515031798
 20
4.0232571584
 10
6.5457882415
 20
4.0212819818
 10
6.5380198754
 20
4.0199581922
 10
6.5283205489
 20
4.0191604797
 10
6.5171171173
 20
4.0187588272
 10
6.5046696961
 20
4.0186010581
 10
6.4912383647
 20
4.0185629268
 10
6.4774723243
 20
4.0185603561
  0
LINE
  5
50D
100
AcDbEntity
  8
0
100
AcDbLine
 62
9
  6
CONTINUOUS
 10
6.3223371513
 20
4.0326828185
 11
6.3341467964
 21
4.0382474689
  0
LINE
  5
50E
100
AcDbEntity
  8
0
100
AcDbLine
 62
9
  6
CONTINUOUS
 10
6.3396770487
 20
4.0408532983
 11
6.3401443772
 21
4.0410735013
  0
LINE
  5
50F
100
AcDbEntity
  8
0
100
AcDbLine
 62
7
  6
CONTINUOUS
 10
7.2944014582
 20
3.8866705923
 11
7.3042439779
 21
3.8866705923
  0
LINE
  5
510
100
AcDbEntity
  8
0
100
AcDbLine
 62
7
  6
CONTINUOUS
 10
10.8042439779
 20
3.8866705923
 11
10.8140864976
 21
3.8866705923
  0
LINE
  5
511
100
AcDbEntity
  8
0
100
AcDbLine
 62
7
  6
CONTINUOUS
 10
7.3042439779
 20
3.9254304348
 11
7.2845589385
 21
3.9254304348
  0
LINE
  5
512
100
AcDbEntity
  8
0
100
AcDbLine
 62
7
  6
CONTINUOUS
 10
10.8140864976
 20
3.9378516946
 11
10.8042439779
 21
3.9378516946
  0
LINE
  5
513
100
AcDbEntity
  8
0
100
AcDbLine
 62
9
  6
CONTINUOUS
 10
10.8042439779
 20
3.9404905276
 11
7.3042439779
 21
3.9404905276
  0
LINE
  5
514
100
AcDbEntity
  8
02___PRT_ALL_AXES
100
AcDbLine
 62
7
  6
CONTINUOUS
 10
10.8140864976
 20
3.9457257104
 11
10.8042439779
 21
3.9457257104
  0
LINE
  5
515
100
AcDbEntity
  8
0
100
AcDbLine
 62
9
  6
CONTINUOUS
 10
10.8140864976
 20
3.9535997261
 11
10.8042439779
 21
3.9535997261
  0
LINE
  5
516
100
AcDbEntity
  8
0
100
AcDbLine
 62
7
  6
CONTINUOUS
 10
7.3042439779
 20
3.9554511575
 11
10.8042439779
 21
3.9554511575
  0
LINE
  5
517
100
AcDbEntity
  8
02___PRT_ALL_AXES
100
AcDbLine
 62
7
  6
CONTINUOUS
 10
11.05030697
 20
3.9841115371
 11
11.0207794109
 21
3.9841115371
  0
LINE
  5
518
100
AcDbEntity
  8
0
100
AcDbLine
 62
7
  6
CONTINUOUS
 10
10.8042439779
 20
3.9850957891
 11
10.8140864976
 21
3.9850957891
  0
LINE
  5
519
100
AcDbEntity
  8
02___PRT_ALL_AXES
100
AcDbLine
 62
7
  6
CONTINUOUS
 10
6.4676298046
 20
4.0175136209
 11
6.4538502771
 21
4.0175136209
  0
LINE
  5
51A
100
AcDbEntity
  8
0
100
AcDbLine
 62
3
  6
CONTINUOUS
 10
6.3445983086
 20
4.0185603561
 11
6.4774723243
 21
4.0185603561
  0
LINE
  5
51B
100
AcDbEntity
  8
0
100
AcDbLine
 62
7
  6
CONTINUOUS
 10
6.5463699621
 20
4.0284028757
 11
6.5444014582
 21
4.0284028757
  0
LINE
  5
51C
100
AcDbEntity
  8
02___PRT_ALL_AXES
100
AcDbLine
 62
7
  6
CONTINUOUS
 10
6.5444014582
 20
4.0362768915
 11
6.4676298046
 21
4.0362768915
  0
LINE
  5
51D
100
AcDbEntity
  8
0
100
AcDbLine
 62
7
  6
CONTINUOUS
 10
6.4676298046
 20
4.0362768915
 11
6.5444014582
 21
4.0362768915
  0
LINE
  5
51E
100
AcDbEntity
  8
0
100
AcDbLine
 62
7
  6
CONTINUOUS
 10
6.3445983086
 20
4.0382453955
 11
6.4676298046
 21
4.0382453955
  0
LINE
  5
51F
100
AcDbEntity
  8
0
100
AcDbLine
 62
7
  6
CONTINUOUS
 10
6.3199920094
 20
4.0382474689
 11
6.3396770487
 21
4.0382474689
  0
LINE
  5
520
100
AcDbEntity
  8
0
100
AcDbLine
 62
7
  6
CONTINUOUS
 10
6.3888896472
 20
4.0421824033
 11
6.3790471275
 21
4.0421824033
  0
LINE
  5
521
100
AcDbEntity
  8
02___PRT_ALL_AXES
100
AcDbLine
 62
7
  6
CONTINUOUS
 10
6.3790471275
 20
4.0421824033
 11
6.3888896472
 21
4.0421824033
  0
LINE
  5
522
100
AcDbEntity
  8
0
100
AcDbLine
 62
7
  6
CONTINUOUS
 10
6.4676298046
 20
4.0441509072
 11
6.4085746865
 21
4.0441509072
  0
LINE
  5
523
100
AcDbEntity
  8
0
100
AcDbLine
 62
7
  6
CONTINUOUS
 10
10.8140864976
 20
4.0638359466
 11
10.8042439779
 21
4.0638359466
  0
LINE
  5
524
100
AcDbEntity
  8
02___PRT_ALL_AXES
100
AcDbLine
 62
7
  6
CONTINUOUS
 10
6.424322718
 20
4.2593909835
 11
6.4538502771
 21
4.2542635767
  0
LINE
  5
525
100
AcDbEntity
  8
0
100
AcDbLine
 62
9
  6
CONTINUOUS
 10
6.3401438816
 20
4.5747863134
 11
6.3396770487
 21
4.5750061479
  0
LINE
  5
526
100
AcDbEntity
  8
0
100
AcDbLine
 62
9
  6
CONTINUOUS
 10
6.3341359733
 20
4.5776154742
 11
6.3223346697
 21
4.5831727802
  0
LWPOLYLINE
  5
527
100
AcDbEntity
  8
0
100
AcDbPolyline
 62
3
  6
CONTINUOUS
 90
10
 70
0
 10
6.4774723243
 20
4.163110621
 10
6.4912372625
 20
4.1641616152
 10
6.5046668364
 20
4.1673256494
 10
6.5171136172
 20
4.1724789894
 10
6.5283176293
 20
4.1795286331
 10
6.5380172693
 20
4.1883955294
 10
6.5457859982
 20
4.1987414967
 10
6.5515021319
 20
4.2104058754
 10
6.5550320732
 20
4.2232398591
 10
6.5562124818
 20
4.2367449726
  0
LINE
  5
528
100
AcDbEntity
  8
02___PRT_ALL_AXES
100
AcDbLine
 62
7
  6
CONTINUOUS
 10
11.05030697
 20
4.1376548442
 11
11.0207794109
 21
4.1376548442
  0
LINE
  5
529
100
AcDbEntity
  8
0
100
AcDbLine
 62
3
  6
CONTINUOUS
 10
6.3445983086
 20
4.163110621
 11
6.4774723243
 21
4.163110621
  0
LINE
  5
52A
100
AcDbEntity
  8
0
100
AcDbLine
 62
7
  6
CONTINUOUS
 10
6.3199920094
 20
4.1729635239
 11
6.3205363056
 21
4.1729635239
  0
LINE
  5
52B
100
AcDbEntity
  8
02___PRT_ALL_AXES
100
AcDbLine
 62
7
  6
CONTINUOUS
 10
6.3101494897
 20
4.1829304348
 11
4.0562124818
 21
4.1829304348
  0
LINE
  5
52C
100
AcDbEntity
  8
02___PRT_ALL_AXES
100
AcDbLine
 62
3
  6
CONTINUOUS
 10
6.4971573637
 20
4.2209151739
 11
6.424322718
 21
4.2209151739
  0
LINE
  5
52D
100
AcDbEntity
  8
0
100
AcDbLine
 62
7
  6
CONTINUOUS
 10
10.8042439779
 20
4.2213162616
 11
10.8140864976
 21
4.2213162616
  0
LINE
  5
52E
100
AcDbEntity
  8
02___PRT_ALL_AXES
100
AcDbLine
 62
7
  6
CONTINUOUS
 10
6.4676298046
 20
4.2268345794
 11
6.424322718
 21
4.2268345794
  0
LINE
  5
52F
100
AcDbEntity
  8
02___PRT_ALL_AXES
100
AcDbLine
 62
7
  6
CONTINUOUS
 10
6.4538502771
 20
4.2542635767
 11
6.4676298046
 21
4.2542635767
  0
LINE
  5
530
100
AcDbEntity
  8
02___PRT_ALL_AXES
100
AcDbLine
 62
7
  6
CENTER
 10
4.0319976302
 20
4.3079304348
 11
10.9081216033
 21
4.3079304348
  0
LINE
  5
531
100
AcDbEntity
  8
02___PRT_ALL_AXES
100
AcDbLine
 62
7
  6
CONTINUOUS
 10
6.424322718
 20
4.356469886
 11
6.4538502771
 21
4.3615972928
  0
LINE
  5
532
100
AcDbEntity
  8
02___PRT_ALL_AXES
100
AcDbLine
 62
7
  6
CONTINUOUS
 10
6.4538502771
 20
4.3615972928
 11
6.4676298046
 21
4.3615972928
  0
LINE
  5
533
100
AcDbEntity
  8
02___PRT_ALL_AXES
100
AcDbLine
 62
7
  6
CONTINUOUS
 10
6.4676298046
 20
4.3890262902
 11
6.424322718
 21
4.3890262902
  0
LINE
  5
534
100
AcDbEntity
  8
0
100
AcDbLine
 62
7
  6
CONTINUOUS
 10
10.8140864976
 20
4.394544608
 11
10.8042439779
 21
4.394544608
  0
LINE
  5
535
100
AcDbEntity
  8
02___PRT_ALL_AXES
100
AcDbLine
 62
3
  6
CONTINUOUS
 10
6.4971573637
 20
4.3949456957
 11
6.424322718
 21
4.3949456957
  0
LINE
  5
536
100
AcDbEntity
  8
02___PRT_ALL_AXES
100
AcDbLine
 62
7
  6
CONTINUOUS
 10
6.3101494897
 20
4.4329304348
 11
4.0562124818
 21
4.4329304348
  0
LINE
  5
537
100
AcDbEntity
  8
0
100
AcDbLine
 62
7
  6
CONTINUOUS
 10
6.3199920094
 20
4.4427729545
 11
6.3205360186
 21
4.4427729545
  0
LINE
  5
538
100
AcDbEntity
  8
0
100
AcDbLine
 62
3
  6
CONTINUOUS
 10
6.3445983086
 20
4.452618168
 11
6.4774723243
 21
4.452618168
  0
LINE
  5
539
100
AcDbEntity
  8
02___PRT_ALL_AXES
100
AcDbLine
 62
7
  6
CONTINUOUS
 10
11.05030697
 20
4.4782060253
 11
11.0207794109
 21
4.4782060253
  0
LINE
  5
53A
100
AcDbEntity
  8
0
100
AcDbLine
 62
7
  6
CONTINUOUS
 10
10.8042439779
 20
4.552024923
 11
10.8140864976
 21
4.552024923
  0
LINE
  5
53B
100
AcDbEntity
  8
0
100
AcDbLine
 62
7
  6
CONTINUOUS
 10
6.4676298046
 20
4.5717099623
 11
6.4085746865
 21
4.5717099623
  0
LINE
  5
53C
100
AcDbEntity
  8
0
100
AcDbLine
 62
7
  6
CONTINUOUS
 10
6.3888896472
 20
4.5736784663
 11
6.3790471275
 21
4.5736784663
  0
LINE
  5
53D
100
AcDbEntity
  8
02___PRT_ALL_AXES
100
AcDbLine
 62
7
  6
CONTINUOUS
 10
6.3790471275
 20
4.5736784663
 11
6.3888896472
 21
4.5736784663
  0
LINE
  5
53E
100
AcDbEntity
  8
0
100
AcDbLine
 62
7
  6
CONTINUOUS
 10
6.3396770487
 20
4.5776154742
 11
6.3199920094
 21
4.5776154742
  0
LINE
  5
53F
100
AcDbEntity
  8
0
100
AcDbLine
 62
7
  6
CONTINUOUS
 10
6.3445983086
 20
4.5776154742
 11
6.4676298046
 21
4.5776154742
  0
LINE
  5
540
100
AcDbEntity
  8
02___PRT_ALL_AXES
100
AcDbLine
 62
7
  6
CONTINUOUS
 10
6.5444014582
 20
4.5795839781
 11
6.4676298046
 21
4.5795839781
  0
LINE
  5
541
100
AcDbEntity
  8
0
100
AcDbLine
 62
7
  6
CONTINUOUS
 10
6.4676298046
 20
4.5795839781
 11
6.5444014582
 21
4.5795839781
  0
LINE
  5
542
100
AcDbEntity
  8
0
100
AcDbLine
 62
7
  6
CONTINUOUS
 10
6.5463699621
 20
4.5874579938
 11
6.5444014582
 21
4.5874579938
  0
LINE
  5
543
100
AcDbEntity
  8
0
100
AcDbLine
 62
3
  6
CONTINUOUS
 10
6.4774821681
 20
4.5973005135
 11
6.3445983086
 21
4.5973005135
  0
LINE
  5
544
100
AcDbEntity
  8
02___PRT_ALL_AXES
100
AcDbLine
 62
7
  6
CONTINUOUS
 10
6.4676298046
 20
4.5983472487
 11
6.4538502771
 21
4.5983472487
  0
LINE
  5
545
100
AcDbEntity
  8
0
100
AcDbLine
 62
7
  6
CONTINUOUS
 10
10.8140864976
 20
4.6307650805
 11
10.8042439779
 21
4.6307650805
  0
LINE
  5
546
100
AcDbEntity
  8
02___PRT_ALL_AXES
100
AcDbLine
 62
7
  6
CONTINUOUS
 10
11.05030697
 20
4.6317493324
 11
11.0207794109
 21
4.6317493324
  0
LINE
  5
547
100
AcDbEntity
  8
0
100
AcDbLine
 62
7
  6
CONTINUOUS
 10
7.3042439779
 20
4.6604097121
 11
10.8042439779
 21
4.6604097121
  0
LINE
  5
548
100
AcDbEntity
  8
0
100
AcDbLine
 62
9
  6
CONTINUOUS
 10
10.8140864976
 20
4.6622611434
 11
10.8042439779
 21
4.6622611434
  0
LINE
  5
549
100
AcDbEntity
  8
02___PRT_ALL_AXES
100
AcDbLine
 62
7
  6
CONTINUOUS
 10
10.8140864976
 20
4.6701351592
 11
10.8042439779
 21
4.6701351592
  0
LINE
  5
54A
100
AcDbEntity
  8
0
100
AcDbLine
 62
9
  6
CONTINUOUS
 10
10.8042439779
 20
4.675370342
 11
7.3042439779
 21
4.675370342
  0
LINE
  5
54B
100
AcDbEntity
  8
0
100
AcDbLine
 62
7
  6
CONTINUOUS
 10
10.8140864976
 20
4.6780091749
 11
10.8042439779
 21
4.6780091749
  0
LINE
  5
54C
100
AcDbEntity
  8
0
100
AcDbLine
 62
7
  6
CONTINUOUS
 10
7.3042439779
 20
4.6904304348
 11
7.2845589385
 21
4.6904304348
  0
LINE
  5
54D
100
AcDbEntity
  8
0
100
AcDbLine
 62
7
  6
CONTINUOUS
 10
7.2944014582
 20
4.7291902773
 11
7.3042439779
 21
4.7291902773
  0
LINE
  5
54E
100
AcDbEntity
  8
0
100
AcDbLine
 62
7
  6
CONTINUOUS
 10
10.8042439779
 20
4.7291902773
 11
10.8140864976
 21
4.7291902773
  0
LINE
  5
54F
100
AcDbEntity
  8
02___PRT_ALL_AXES
100
AcDbLine
 62
7
  6
CONTINUOUS
 10
7.3042439779
 20
4.7370642931
 11
7.2944014582
 21
4.7370642931
  0
LINE
  5
550
100
AcDbEntity
  8
02___PRT_ALL_AXES
100
AcDbLine
 62
7
  6
CONTINUOUS
 10
10.8042439779
 20
4.7370642931
 11
10.8140864976
 21
4.7370642931
  0
LINE
  5
551
100
AcDbEntity
  8
0
100
AcDbLine
 62
9
  6
CONTINUOUS
 10
11.0207794109
 20
4.7567493324
 11
11.0109368913
 21
4.7567493324
  0
LINE
  5
552
100
AcDbEntity
  8
02___PRT_ALL_AXES
100
AcDbLine
 62
9
  6
CONTINUOUS
 10
11.0109368913
 20
4.7567493324
 11
10.8239290172
 21
4.7567493324
  0
LINE
  5
553
100
AcDbEntity
  8
02___PRT_ALL_AXES
100
AcDbLine
 62
9
  6
CONTINUOUS
 10
7.2845589385
 20
4.7567493324
 11
6.5955825606
 21
4.7567493324
  0
LINE
  5
554
100
AcDbEntity
  8
0
100
AcDbLine
 62
9
  6
CONTINUOUS
 10
6.5562124818
 20
4.7567493324
 11
6.5955825606
 21
4.7567493323
  0
LINE
  5
555
100
AcDbEntity
  8
0
100
AcDbLine
 62
9
  6
CONTINUOUS
 10
7.2845589385
 20
4.7567493324
 11
7.2944014582
 21
4.7567493324
  0
LINE
  5
556
100
AcDbEntity
  8
0
100
AcDbLine
 62
9
  6
CONTINUOUS
 10
7.3042439779
 20
4.7567493324
 11
10.8042439779
 21
4.7567493324
  0
LINE
  5
557
100
AcDbEntity
  8
0
100
AcDbLine
 62
9
  6
CONTINUOUS
 10
10.8140864976
 20
4.7567493324
 11
10.8239290172
 21
4.7567493324
  0
LINE
  5
558
100
AcDbEntity
  8
0
100
AcDbLine
 62
7
  6
CONTINUOUS
 10
10.8239290172
 20
4.7724973639
 11
10.8180235054
 21
4.7724973639
  0
LINE
  5
559
100
AcDbEntity
  8
02___PRT_ALL_AXES
100
AcDbLine
 62
7
  6
CONTINUOUS
 10
7.2845589385
 20
4.7724973639
 11
7.2904644503
 21
4.7724973639
  0
LINE
  5
55A
100
AcDbEntity
  8
0
100
AcDbLine
 62
7
  6
CONTINUOUS
 10
7.2845589385
 20
4.7724973639
 11
7.2904644503
 21
4.7724973639
  0
LINE
  5
55B
100
AcDbEntity
  8
02___PRT_ALL_AXES
100
AcDbLine
 62
7
  6
CONTINUOUS
 10
7.3042439779
 20
4.8079304348
 11
6.5955825606
 21
4.8079304348
  0
LINE
  5
55C
100
AcDbEntity
  8
0
100
AcDbLine
 62
7
  6
CONTINUOUS
 10
7.3042439779
 20
4.8079304348
 11
10.8042439779
 21
4.8079304348
  0
LINE
  5
55D
100
AcDbEntity
  8
02___PRT_ALL_AXES
100
AcDbLine
 62
7
  6
CONTINUOUS
 10
10.8042439779
 20
4.8079304348
 11
11.0109368913
 21
4.8079304348
  0
LWPOLYLINE
  5
55E
100
AcDbEntity
  8
0
100
AcDbPolyline
 62
3
  6
CONTINUOUS
 90
9
 70
0
 10
6.4774822877
 20
4.5973005135
 10
6.4912383647
 20
4.5972979761
 10
6.5046696961
 20
4.5972599444
 10
6.5171171173
 20
4.5971023361
 10
6.5283205489
 20
4.5967009004
 10
6.5380198754
 20
4.595903456
 10
6.5457882415
 20
4.5945799731
 10
6.5515031798
 20
4.5926051345
 10
6.5537031436
 20
4.5908997252
  0
LINE
  5
55F
100
AcDbEntity
  8
0
100
AcDbLine
 62
7
  6
CONTINUOUS
 10
10.8042439779
 20
3.8079304348
 11
10.8042439779
 21
4.8079304348
  0
LINE
  5
560
100
AcDbEntity
  8
0
100
AcDbLine
 62
7
  6
CONTINUOUS
 10
10.8140864976
 20
3.8473005135
 11
10.8140864976
 21
4.768560356
  0
LINE
  5
561
100
AcDbEntity
  8
0
100
AcDbLine
 62
9
  6
CONTINUOUS
 10
10.8180235054
 20
3.8433635056
 11
10.8180235054
 21
4.7724973639
  0
LINE
  5
562
100
AcDbEntity
  8
02___PRT_ALL_AXES
100
AcDbLine
 62
7
  6
CONTINUOUS
 10
10.8239290172
 20
3.8079304348
 11
10.8239290172
 21
4.8079304348
  0
LINE
  5
563
100
AcDbEntity
  8
0
100
AcDbLine
 62
9
  6
CONTINUOUS
 10
11.0109368913
 20
4.8079304348
 11
11.0109368913
 21
3.8079304348
  0
LINE
  5
564
100
AcDbEntity
  8
0
100
AcDbLine
 62
7
  6
CONTINUOUS
 10
11.0207794109
 20
4.7980879151
 11
11.0207794109
 21
3.8177729545
  0
LINE
  5
565
100
AcDbEntity
  8
0
100
AcDbLine
 62
9
  6
CONTINUOUS
 10
11.05030697
 20
4.6317493324
 11
11.05030697
 21
4.4782060253
  0
LINE
  5
566
100
AcDbEntity
  8
0
100
AcDbLine
 62
9
  6
CONTINUOUS
 10
11.05030697
 20
4.1376548442
 11
11.05030697
 21
3.9841115371
  0
LINE
  5
567
100
AcDbEntity
  8
0
100
AcDbLine
 62
7
  6
CONTINUOUS
 10
11.0798345291
 20
4.6022212246
 11
11.0798345291
 21
4.5077341332
  0
LINE
  5
568
100
AcDbEntity
  8
0
100
AcDbLine
 62
7
  6
CONTINUOUS
 10
11.0798345291
 20
4.1081267364
 11
11.0798345291
 21
4.013639645
  0
LINE
  5
569
100
AcDbEntity
  8
0
100
AcDbLine
 62
7
  6
CONTINUOUS
 10
1.8593265625
 20
4.7567493324
 11
1.8593265625
 21
4.7213162616
  0
LINE
  5
56A
100
AcDbEntity
  8
0
100
AcDbLine
 62
7
  6
CONTINUOUS
 10
1.8593265625
 20
4.2016312222
 11
1.8593265625
 21
3.8591115371
  0
LINE
  5
56B
100
AcDbEntity
  8
0
100
AcDbLine
 62
9
  6
CONTINUOUS
 10
1.8986966413
 20
4.7567493324
 11
1.8986966413
 21
4.7213162616
  0
LINE
  5
56C
100
AcDbEntity
  8
0
100
AcDbLine
 62
9
  6
CONTINUOUS
 10
1.8986966413
 20
4.2016312222
 11
1.8986966413
 21
3.8591115371
  0
LINE
  5
56D
100
AcDbEntity
  8
0
100
AcDbLine
 62
7
  6
CONTINUOUS
 10
2.0322566311
 20
4.7567493324
 11
2.0207438854
 21
4.7370642931
  0
LINE
  5
56E
100
AcDbEntity
  8
0
100
AcDbLine
 62
9
  6
CONTINUOUS
 10
1.9105076649
 20
4.7095052379
 11
1.9105076649
 21
4.6701351592
  0
LINE
  5
56F
100
AcDbEntity
  8
0
100
AcDbLine
 62
9
  6
CONTINUOUS
 10
1.9105076649
 20
3.8473005135
 11
1.9105076649
 21
3.8079304348
  0
LINE
  5
570
100
AcDbEntity
  8
0
100
AcDbLine
 62
9
  6
CONTINUOUS
 10
1.9105076649
 20
4.2134422458
 11
1.910507665
 21
4.2528123245
  0
LINE
  5
571
100
AcDbEntity
  8
0
100
AcDbLine
 62
9
  6
CONTINUOUS
 10
1.9105076649
 20
4.768560356
 11
1.910507665
 21
4.8079304348
  0
LINE
  5
572
100
AcDbEntity
  8
0
100
AcDbLine
 62
7
  6
CONTINUOUS
 10
1.9301927043
 20
4.1661981513
 11
1.9301927043
 21
4.2134422458
  0
LINE
  5
573
100
AcDbEntity
  8
0
100
AcDbLine
 62
7
  6
CONTINUOUS
 10
1.9301927043
 20
4.7095052379
 11
1.9301927043
 21
4.7567493324
  0
LINE
  5
574
100
AcDbEntity
  8
0
100
AcDbLine
 62
7
  6
CONTINUOUS
 10
1.9498777436
 20
4.1858831907
 11
1.9498777436
 21
4.2528123245
  0
LINE
  5
575
100
AcDbEntity
  8
0
100
AcDbLine
 62
7
  6
CONTINUOUS
 10
1.9498777436
 20
4.6701351592
 11
1.9498777436
 21
4.7370642931
  0
LINE
  5
576
100
AcDbEntity
  8
0
100
AcDbLine
 62
7
  6
CONTINUOUS
 10
1.9105076649
 20
3.8079304348
 11
3.0581454602
 21
3.8079304348
  0
LINE
  5
577
100
AcDbEntity
  8
0
100
AcDbLine
 62
9
  6
CONTINUOUS
 10
2.593578531
 20
3.8177729545
 11
2.3652320743
 21
3.8177729545
  0
LINE
  5
578
100
AcDbEntity
  8
0
100
AcDbLine
 62
9
  6
CONTINUOUS
 10
1.9105076649
 20
3.8473005135
 11
2.3652320743
 21
3.8473005135
  0
LINE
  5
579
100
AcDbEntity
  8
0
100
AcDbLine
 62
9
  6
CONTINUOUS
 10
2.593578531
 20
3.8473005135
 11
3.0581454602
 21
3.8473005135
  0
LINE
  5
57A
100
AcDbEntity
  8
0
100
AcDbLine
 62
9
  6
CONTINUOUS
 10
1.8986966413
 20
3.8591115371
 11
1.8593265625
 21
3.8591115372
  0
LINE
  5
57B
100
AcDbEntity
  8
0
100
AcDbLine
 62
9
  6
CONTINUOUS
 10
3.0699564838
 20
3.8591115371
 11
3.1093265625
 21
3.8591115371
  0
LINE
  5
57C
100
AcDbEntity
  8
0
100
AcDbLine
 62
7
  6
CONTINUOUS
 10
2.0324295763
 20
4.1661981513
 11
2.0207438854
 21
4.1858831907
  0
LINE
  5
57D
100
AcDbEntity
  8
0
100
AcDbLine
 62
7
  6
CONTINUOUS
 10
2.0916100271
 20
4.6110800411
 11
2.0916100271
 21
4.3158044505
  0
LINE
  5
57E
100
AcDbEntity
  8
0
100
AcDbLine
 62
7
  6
CONTINUOUS
 10
2.1112950665
 20
4.6162365585
 11
2.1112950665
 21
4.3107848833
  0
LINE
  5
57F
100
AcDbEntity
  8
0
100
AcDbLine
 62
7
  6
CONTINUOUS
 10
2.0916100271
 20
4.3158044505
 11
2.0207438854
 21
4.1858831907
  0
LINE
  5
580
100
AcDbEntity
  8
0
100
AcDbLine
 62
7
  6
CONTINUOUS
 10
2.1112950665
 20
4.3107848833
 11
2.0324295763
 21
4.1661981513
  0
LINE
  5
581
100
AcDbEntity
  8
0
100
AcDbLine
 62
7
  6
CONTINUOUS
 10
2.5119053027
 20
4.7230827409
 11
2.4794053027
 21
4.7037978441
  0
LINE
  5
582
100
AcDbEntity
  8
0
100
AcDbLine
 62
7
  6
CONTINUOUS
 10
2.4469053027
 20
4.6845129474
 11
2.4094053027
 21
4.6622611434
  0
LINE
  5
583
100
AcDbEntity
  8
0
100
AcDbLine
 62
9
  6
CONTINUOUS
 10
2.6034210507
 20
3.9535997261
 11
2.593578531
 21
3.9535997261
  0
LINE
  5
584
100
AcDbEntity
  8
DEFAULT_1
100
AcDbLine
 62
7
  6
CENTER
 10
2.4794053027
 20
3.9535997261
 11
2.3652320743
 21
3.9535997261
  0
LINE
  5
585
100
AcDbEntity
  8
DEFAULT_1
100
AcDbLine
 62
7
  6
CENTER
 10
2.3553895547
 20
3.9535997261
 11
2.2691690822
 21
3.9535997261
  0
LINE
  5
586
100
AcDbEntity
  8
0
100
AcDbLine
 62
9
  6
CONTINUOUS
 10
2.3553895547
 20
3.9535997261
 11
2.3652320743
 21
3.9535997261
  0
LINE
  5
587
100
AcDbEntity
  8
DEFAULT_1
100
AcDbLine
 62
7
  6
CENTER
 10
2.4794053027
 20
3.9535997261
 11
2.593578531
 21
3.9535997261
  0
LINE
  5
588
100
AcDbEntity
  8
DEFAULT_1
100
AcDbLine
 62
7
  6
CENTER
 10
2.6034210507
 20
3.9535997261
 11
2.6896415232
 21
3.9535997261
  0
LINE
  5
589
100
AcDbEntity
  8
0
100
AcDbLine
 62
7
  6
CONTINUOUS
 10
2.4094053027
 20
3.9535997261
 11
2.4469053027
 21
3.931949091
  0
LINE
  5
58A
100
AcDbEntity
  8
0
100
AcDbLine
 62
7
  6
CONTINUOUS
 10
2.4794053027
 20
3.9131852073
 11
2.5119053027
 21
3.8944213235
  0
LINE
  5
58B
100
AcDbEntity
  8
0
100
AcDbLine
 62
7
  6
CONTINUOUS
 10
1.9301927043
 20
4.1661981513
 11
1.9498777436
 21
4.1858831907
  0
LINE
  5
58C
100
AcDbEntity
  8
0
100
AcDbLine
 62
7
  6
CONTINUOUS
 10
2.4469053027
 20
4.6030827409
 11
2.4794053027
 21
4.6218466246
  0
LINE
  5
58D
100
AcDbEntity
  8
0
100
AcDbLine
 62
7
  6
CONTINUOUS
 10
2.5119053027
 20
4.6406105083
 11
2.5494053027
 21
4.6622611434
  0
LINE
  5
58E
100
AcDbEntity
  8
0
100
AcDbLine
 62
7
  6
CONTINUOUS
 10
2.5494053027
 20
3.9535997261
 11
2.5119053027
 21
3.9758515301
  0
LINE
  5
58F
100
AcDbEntity
  8
0
100
AcDbLine
 62
7
  6
CONTINUOUS
 10
2.4794053027
 20
3.9951364268
 11
2.4469053027
 21
4.0144213235
  0
LINE
  5
590
100
AcDbEntity
  8
02___PRT_ALL_AXES
100
AcDbLine
 62
7
  6
CENTER
 10
2.2814352657
 20
4.0608831907
 11
2.0337974704
 21
4.0608831907
  0
LINE
  5
591
100
AcDbEntity
  8
02___PRT_ALL_AXES
100
AcDbLine
 62
7
  6
CENTER
 10
2.2814352657
 20
4.0608831907
 11
2.529073061
 21
4.0608831907
  0
LINE
  5
592
100
AcDbEntity
  8
02___PRT_ALL_AXES
100
AcDbLine
 62
7
  6
CENTER
 10
2.2814352657
 20
4.5549776789
 11
2.2814352657
 21
4.3073398836
  0
LINE
  5
593
100
AcDbEntity
  8
02___PRT_ALL_AXES
100
AcDbLine
 62
7
  6
CENTER
 10
2.2814352657
 20
4.0608831907
 11
2.2814352657
 21
3.8132453954
  0
LINE
  5
594
100
AcDbEntity
  8
02___PRT_ALL_AXES
100
AcDbLine
 62
7
  6
CENTER
 10
2.2814352657
 20
4.0608831907
 11
2.2814352657
 21
4.3073398836
  0
LINE
  5
595
100
AcDbEntity
  8
02___PRT_ALL_AXES
100
AcDbLine
 62
7
  6
CENTER
 10
2.2814352657
 20
4.5549776789
 11
2.2814352657
 21
4.8026154742
  0
LINE
  5
596
100
AcDbEntity
  8
0
100
AcDbLine
 62
7
  6
CONTINUOUS
 10
2.0207438854
 20
4.7370642931
 11
2.0916100271
 21
4.6110800411
  0
LINE
  5
597
100
AcDbEntity
  8
0
100
AcDbLine
 62
7
  6
CONTINUOUS
 10
2.0322566311
 20
4.7567493324
 11
2.1112950665
 21
4.6162365585
  0
LINE
  5
598
100
AcDbEntity
  8
0
100
AcDbLine
 62
9
  6
CONTINUOUS
 10
2.3553895547
 20
3.8079304348
 11
2.3553895547
 21
3.9535997261
  0
LINE
  5
599
100
AcDbEntity
  8
0
100
AcDbLine
 62
9
  6
CONTINUOUS
 10
2.3553895547
 20
4.6622611434
 11
2.3553895547
 21
4.8079304348
  0
LINE
  5
59A
100
AcDbEntity
  8
0
100
AcDbLine
 62
7
  6
CONTINUOUS
 10
2.3652320743
 20
3.8177729545
 11
2.3652320743
 21
3.9535997261
  0
LINE
  5
59B
100
AcDbEntity
  8
0
100
AcDbLine
 62
7
  6
CONTINUOUS
 10
2.3652320743
 20
4.6622611434
 11
2.3652320743
 21
4.7980879151
  0
LINE
  5
59C
100
AcDbEntity
  8
0
100
AcDbLine
 62
7
  6
CONTINUOUS
 10
2.0324295763
 20
4.1661981513
 11
1.9301927043
 21
4.1661981513
  0
LINE
  5
59D
100
AcDbEntity
  8
0
100
AcDbLine
 62
7
  6
CONTINUOUS
 10
2.0207438854
 20
4.1858831907
 11
1.9498777436
 21
4.1858831907
  0
LINE
  5
59E
100
AcDbEntity
  8
0
100
AcDbLine
 62
9
  6
CONTINUOUS
 10
1.8986966413
 20
4.2016312222
 11
1.8593265625
 21
4.2016312222
  0
LINE
  5
59F
100
AcDbEntity
  8
02___PRT_ALL_AXES
100
AcDbLine
 62
7
  6
CONTINUOUS
 10
3.0451672554
 20
4.3580541808
 11
3.0652612421
 21
4.3615972928
  0
LINE
  5
5A0
100
AcDbEntity
  8
0
100
AcDbLine
 62
9
  6
CONTINUOUS
 10
1.9301927043
 20
4.2134422458
 11
1.9105076649
 21
4.2134422458
  0
LINE
  5
5A1
100
AcDbEntity
  8
0
100
AcDbLine
 62
7
  6
CONTINUOUS
 10
1.9105076649
 20
4.2528123245
 11
1.9498777436
 21
4.2528123245
  0
LINE
  5
5A2
100
AcDbEntity
  8
0
100
AcDbLine
 62
7
  6
CONTINUOUS
 10
2.1112950665
 20
4.3107848833
 11
2.0916100271
 21
4.3158044505
  0
LINE
  5
5A3
100
AcDbEntity
  8
0
100
AcDbLine
 62
7
  6
CONTINUOUS
 10
1.9301927043
 20
4.7567493324
 11
1.9498777436
 21
4.7370642931
  0
LINE
  5
5A4
100
AcDbEntity
  8
0
100
AcDbLine
 62
7
  6
CONTINUOUS
 10
2.4469053027
 20
4.7230827409
 11
2.4469053027
 21
4.6845129474
  0
LINE
  5
5A5
100
AcDbEntity
  8
0
100
AcDbLine
 62
7
  6
CONTINUOUS
 10
2.4469053027
 20
4.6406105083
 11
2.4469053027
 21
4.6030827409
  0
LINE
  5
5A6
100
AcDbEntity
  8
0
100
AcDbLine
 62
7
  6
CONTINUOUS
 10
2.4469053027
 20
4.0144213235
 11
2.4469053027
 21
3.9758515301
  0
LINE
  5
5A7
100
AcDbEntity
  8
0
100
AcDbLine
 62
7
  6
CONTINUOUS
 10
2.4469053027
 20
3.931949091
 11
2.4469053027
 21
3.8944213235
  0
LINE
  5
5A8
100
AcDbEntity
  8
DEFAULT_1
100
AcDbLine
 62
7
  6
CENTER
 10
2.4794053027
 20
4.6622611434
 11
2.4794053027
 21
4.452024923
  0
LINE
  5
5A9
100
AcDbEntity
  8
DEFAULT_1
100
AcDbLine
 62
7
  6
CENTER
 10
2.4794053027
 20
3.9535997261
 11
2.4794053027
 21
3.7433635056
  0
LINE
  5
5AA
100
AcDbEntity
  8
DEFAULT_1
100
AcDbLine
 62
7
  6
CENTER
 10
2.4794053027
 20
3.9535997261
 11
2.4794053027
 21
4.1638359466
  0
LINE
  5
5AB
100
AcDbEntity
  8
DEFAULT_1
100
AcDbLine
 62
7
  6
CENTER
 10
2.4794053027
 20
4.6622611434
 11
2.4794053027
 21
4.8724973639
  0
LINE
  5
5AC
100
AcDbEntity
  8
02___PRT_ALL_AXES
100
AcDbLine
 62
7
  6
CENTER
 10
2.7609013657
 20
4.3079304348
 11
2.3892478224
 21
4.3079304348
  0
LINE
  5
5AD
100
AcDbEntity
  8
02___PRT_ALL_AXES
100
AcDbLine
 62
7
  6
CENTER
 10
2.7609013657
 20
4.3079304348
 11
3.132554909
 21
4.3079304348
  0
LINE
  5
5AE
100
AcDbEntity
  8
0
100
AcDbLine
 62
7
  6
CONTINUOUS
 10
2.5119053027
 20
3.8944213235
 11
2.5119053027
 21
3.931949091
  0
LINE
  5
5AF
100
AcDbEntity
  8
0
100
AcDbLine
 62
7
  6
CONTINUOUS
 10
2.5119053027
 20
3.9758515301
 11
2.5119053027
 21
4.0144213235
  0
LINE
  5
5B0
100
AcDbEntity
  8
0
100
AcDbLine
 62
7
  6
CONTINUOUS
 10
2.5119053027
 20
4.6030827409
 11
2.5119053027
 21
4.6406105083
  0
LINE
  5
5B1
100
AcDbEntity
  8
0
100
AcDbLine
 62
7
  6
CONTINUOUS
 10
2.5119053027
 20
4.6845129474
 11
2.5119053027
 21
4.7230827409
  0
LINE
  5
5B2
100
AcDbEntity
  8
02___PRT_ALL_AXES
100
AcDbLine
 62
7
  6
CONTINUOUS
 10
3.0451635302
 20
4.2578073456
 11
3.0652612421
 21
4.2542635767
  0
LINE
  5
5B3
100
AcDbEntity
  8
0
100
AcDbLine
 62
7
  6
CONTINUOUS
 10
2.593578531
 20
4.7980879151
 11
2.593578531
 21
4.6622611434
  0
LINE
  5
5B4
100
AcDbEntity
  8
0
100
AcDbLine
 62
7
  6
CONTINUOUS
 10
2.593578531
 20
3.9535997261
 11
2.593578531
 21
3.8177729545
  0
LINE
  5
5B5
100
AcDbEntity
  8
0
100
AcDbLine
 62
9
  6
CONTINUOUS
 10
2.6034210507
 20
4.8079304348
 11
2.6034210507
 21
4.6622611434
  0
LINE
  5
5B6
100
AcDbEntity
  8
0
100
AcDbLine
 62
9
  6
CONTINUOUS
 10
2.6034210507
 20
3.9535997261
 11
2.6034210507
 21
3.8079304348
  0
LINE
  5
5B7
100
AcDbEntity
  8
0
100
AcDbLine
 62
3
  6
CONTINUOUS
 10
2.5316074334
 20
4.1755516164
 11
2.5273472706
 21
4.1730879151
  0
LINE
  5
5B8
100
AcDbEntity
  8
0
100
AcDbLine
 62
3
  6
CONTINUOUS
 10
2.5316074334
 20
4.1755516164
 11
2.5102975884
 21
4.1632487522
  0
LINE
  5
5B9
100
AcDbEntity
  8
0
100
AcDbLine
 62
3
  6
CONTINUOUS
 10
2.9901921017
 20
4.4403147893
 11
3.0115016497
 21
4.452618168
  0
LINE
  5
5BA
100
AcDbEntity
  8
0
100
AcDbLine
 62
3
  6
CONTINUOUS
 10
2.9901921017
 20
4.4403147893
 11
2.9944554608
 21
4.4427729545
  0
LINE
  5
5BB
100
AcDbEntity
  8
0
100
AcDbLine
 62
3
  6
CONTINUOUS
 10
2.5316112823
 20
4.4403111233
 11
2.510299525
 21
4.4526154718
  0
LINE
  5
5BC
100
AcDbEntity
  8
0
100
AcDbLine
 62
3
  6
CONTINUOUS
 10
2.9901222852
 20
4.175425231
 11
3.0114253446
 21
4.163110621
  0
LINE
  5
5BD
100
AcDbEntity
  8
0
100
AcDbLine
 62
7
  6
CONTINUOUS
 10
2.656570657
 20
4.377741759
 11
2.656570657
 21
4.376613921
  0
LINE
  5
5BE
100
AcDbEntity
  8
0
100
AcDbLine
 62
7
  6
CONTINUOUS
 10
2.656570657
 20
4.2392469486
 11
2.656570657
 21
4.2381191105
  0
LINE
  5
5BF
100
AcDbEntity
  8
02___PRT_ALL_AXES
100
AcDbLine
 62
7
  6
CONTINUOUS
 10
2.562244565
 20
4.0711804789
 11
2.5753603677
 21
4.0868112838
  0
LINE
  5
5C0
100
AcDbEntity
  8
02___PRT_ALL_AXES
100
AcDbLine
 62
7
  6
CONTINUOUS
 10
2.562244565
 20
4.5446803906
 11
2.5752519387
 21
4.5291788063
  0
LINE
  5
5C1
100
AcDbEntity
  8
0
100
AcDbLine
 62
7
  6
CONTINUOUS
 10
2.7254682948
 20
4.4283683474
 11
2.7254682948
 21
4.4277863057
  0
LINE
  5
5C2
100
AcDbEntity
  8
0
100
AcDbLine
 62
7
  6
CONTINUOUS
 10
2.7254682948
 20
4.1880745639
 11
2.7254682948
 21
4.1874925221
  0
LINE
  5
5C3
100
AcDbEntity
  8
02___PRT_ALL_AXES
100
AcDbLine
 62
7
  6
CONTINUOUS
 10
2.6551982899
 20
4.0175136209
 11
2.6621769696
 21
4.0366873858
  0
LINE
  5
5C4
100
AcDbEntity
  8
0
100
AcDbLine
 62
7
  6
CONTINUOUS
 10
2.5119053027
 20
4.0144213235
 11
2.4794053027
 21
3.9951364268
  0
LINE
  5
5C5
100
AcDbEntity
  8
0
100
AcDbLine
 62
7
  6
CONTINUOUS
 10
2.4469053027
 20
3.9758515301
 11
2.4094053027
 21
3.9535997261
  0
LINE
  5
5C6
100
AcDbEntity
  8
02___PRT_ALL_AXES
100
AcDbLine
 62
7
  6
CENTER
 10
2.2814352657
 20
4.5549776789
 11
2.0337974704
 21
4.5549776789
  0
LINE
  5
5C7
100
AcDbEntity
  8
02___PRT_ALL_AXES
100
AcDbLine
 62
7
  6
CENTER
 10
2.2814352657
 20
4.5549776789
 11
2.529073061
 21
4.5549776789
  0
LINE
  5
5C8
100
AcDbEntity
  8
0
100
AcDbLine
 62
7
  6
CONTINUOUS
 10
2.4094053027
 20
4.6622611434
 11
2.4469053027
 21
4.6406105083
  0
LINE
  5
5C9
100
AcDbEntity
  8
0
100
AcDbLine
 62
7
  6
CONTINUOUS
 10
2.4794053027
 20
4.6218466246
 11
2.5119053027
 21
4.6030827409
  0
LINE
  5
5CA
100
AcDbEntity
  8
02___PRT_ALL_AXES
100
AcDbLine
 62
7
  6
CONTINUOUS
 10
2.6551982899
 20
4.5983472487
 11
2.6621193624
 21
4.5793317582
  0
LINE
  5
5CB
100
AcDbEntity
  8
02___PRT_ALL_AXES
100
AcDbLine
 62
7
  6
CENTER
 10
2.7609013657
 20
4.3079304348
 11
2.7609013657
 21
3.9362768915
  0
LINE
  5
5CC
100
AcDbEntity
  8
0
100
AcDbLine
 62
3
  6
CONTINUOUS
 10
2.7608949009
 20
4.0431666553
 11
2.7608943
 21
4.0185603561
  0
LINE
  5
5CD
100
AcDbEntity
  8
0
100
AcDbLine
 62
3
  6
CONTINUOUS
 10
2.7609021592
 20
4.57269214
 11
2.7609022329
 21
4.5973005135
  0
LINE
  5
5CE
100
AcDbEntity
  8
02___PRT_ALL_AXES
100
AcDbLine
 62
7
  6
CENTER
 10
2.7609013657
 20
4.3079304348
 11
2.7609013657
 21
4.6795839781
  0
LINE
  5
5CF
100
AcDbEntity
  8
0
100
AcDbLine
 62
7
  6
CONTINUOUS
 10
2.4469053027
 20
3.8944213235
 11
2.4794053027
 21
3.9131852073
  0
LINE
  5
5D0
100
AcDbEntity
  8
0
100
AcDbLine
 62
7
  6
CONTINUOUS
 10
2.5119053027
 20
3.931949091
 11
2.5494053027
 21
3.9535997261
  0
LINE
  5
5D1
100
AcDbEntity
  8
0
100
AcDbLine
 62
9
  6
CONTINUOUS
 10
2.6034210507
 20
4.6622611434
 11
2.593578531
 21
4.6622611435
  0
LINE
  5
5D2
100
AcDbEntity
  8
DEFAULT_1
100
AcDbLine
 62
7
  6
CENTER
 10
2.4794053027
 20
4.6622611434
 11
2.3652320743
 21
4.6622611434
  0
LINE
  5
5D3
100
AcDbEntity
  8
DEFAULT_1
100
AcDbLine
 62
7
  6
CENTER
 10
2.3553895547
 20
4.6622611434
 11
2.2691690822
 21
4.6622611434
  0
LINE
  5
5D4
100
AcDbEntity
  8
0
100
AcDbLine
 62
9
  6
CONTINUOUS
 10
2.3553895547
 20
4.6622611434
 11
2.3652320743
 21
4.6622611434
  0
LINE
  5
5D5
100
AcDbEntity
  8
DEFAULT_1
100
AcDbLine
 62
7
  6
CENTER
 10
2.4794053027
 20
4.6622611434
 11
2.593578531
 21
4.6622611435
  0
LINE
  5
5D6
100
AcDbEntity
  8
DEFAULT_1
100
AcDbLine
 62
7
  6
CENTER
 10
2.6034210507
 20
4.6622611434
 11
2.6896415232
 21
4.6622611434
  0
LINE
  5
5D7
100
AcDbEntity
  8
0
100
AcDbLine
 62
7
  6
CONTINUOUS
 10
1.9105076649
 20
4.6701351592
 11
1.9498777436
 21
4.6701351592
  0
LINE
  5
5D8
100
AcDbEntity
  8
0
100
AcDbLine
 62
7
  6
CONTINUOUS
 10
2.5494053027
 20
4.6622611434
 11
2.5119053027
 21
4.6845129474
  0
LINE
  5
5D9
100
AcDbEntity
  8
0
100
AcDbLine
 62
7
  6
CONTINUOUS
 10
2.4794053027
 20
4.7037978441
 11
2.4469053027
 21
4.7230827409
  0
LINE
  5
5DA
100
AcDbEntity
  8
0
100
AcDbLine
 62
7
  6
CONTINUOUS
 10
2.1112950665
 20
4.6162365585
 11
2.0916100271
 21
4.6110800411
  0
LINE
  5
5DB
100
AcDbEntity
  8
0
100
AcDbLine
 62
9
  6
CONTINUOUS
 10
1.9105076649
 20
4.7095052379
 11
1.9301927043
 21
4.7095052379
  0
LINE
  5
5DC
100
AcDbEntity
  8
0
100
AcDbLine
 62
9
  6
CONTINUOUS
 10
1.8986966413
 20
4.7213162616
 11
1.8593265625
 21
4.7213162616
  0
LINE
  5
5DD
100
AcDbEntity
  8
0
100
AcDbLine
 62
7
  6
CONTINUOUS
 10
1.9498777436
 20
4.7370642931
 11
2.0207438854
 21
4.7370642931
  0
LINE
  5
5DE
100
AcDbEntity
  8
0
100
AcDbLine
 62
9
  6
CONTINUOUS
 10
1.8986966413
 20
4.7567493324
 11
1.8593265625
 21
4.7567493324
  0
LINE
  5
5DF
100
AcDbEntity
  8
0
100
AcDbLine
 62
7
  6
CONTINUOUS
 10
1.9301927043
 20
4.7567493324
 11
2.0322566311
 21
4.7567493324
  0
LINE
  5
5E0
100
AcDbEntity
  8
0
100
AcDbLine
 62
9
  6
CONTINUOUS
 10
3.0699564838
 20
4.7567493324
 11
3.1093265625
 21
4.7567493323
  0
LINE
  5
5E1
100
AcDbEntity
  8
0
100
AcDbLine
 62
9
  6
CONTINUOUS
 10
3.0581454602
 20
4.768560356
 11
2.593578531
 21
4.768560356
  0
LINE
  5
5E2
100
AcDbEntity
  8
0
100
AcDbLine
 62
9
  6
CONTINUOUS
 10
1.9105076649
 20
4.768560356
 11
2.3652320743
 21
4.768560356
  0
LINE
  5
5E3
100
AcDbEntity
  8
0
100
AcDbLine
 62
9
  6
CONTINUOUS
 10
2.3652320743
 20
4.7980879151
 11
2.593578531
 21
4.7980879151
  0
LINE
  5
5E4
100
AcDbEntity
  8
0
100
AcDbLine
 62
7
  6
CONTINUOUS
 10
1.9105076649
 20
4.8079304348
 11
3.0581454602
 21
4.8079304348
  0
LINE
  5
5E5
100
AcDbEntity
  8
0
100
AcDbLine
 62
9
  6
CONTINUOUS
 10
3.0581454602
 20
3.8473005135
 11
3.0581454601
 21
3.8079304348
  0
LINE
  5
5E6
100
AcDbEntity
  8
0
100
AcDbLine
 62
9
  6
CONTINUOUS
 10
3.0581454602
 20
4.768560356
 11
3.0581454602
 21
4.8079304348
  0
LINE
  5
5E7
100
AcDbEntity
  8
0
100
AcDbLine
 62
9
  6
CONTINUOUS
 10
3.0699564838
 20
3.8591115371
 11
3.0699564838
 21
4.7567493324
  0
LINE
  5
5E8
100
AcDbEntity
  8
0
100
AcDbLine
 62
7
  6
CONTINUOUS
 10
3.1093265625
 20
3.8591115371
 11
3.1093265625
 21
4.7567493324
  0
LWPOLYLINE
  5
5E9
100
AcDbEntity
  8
0
100
AcDbPolyline
 62
7
  6
CONTINUOUS
 90
6
 70
0
 10
15.433134702
 20
9.8609642653
 10
15.4435502892
 20
9.8655857657
 10
15.4551873991
 20
9.8683604637
 10
15.4673723576
 20
9.8692732617
 10
15.4795324746
 20
9.868337914
 10
15.4910969911
 20
9.8655612529
  0
LWPOLYLINE
  5
5EA
100
AcDbEntity
  8
0
100
AcDbPolyline
 62
9
  6
CONTINUOUS
 90
4
 70
0
 10
14.9480942259
 20
9.5775989827
 10
14.9502518086
 20
9.578448723
 10
14.9521970967
 20
9.5784227882
 10
14.9529749496
 20
9.5781094359
  0
LWPOLYLINE
  5
5EB
100
AcDbEntity
  8
0
100
AcDbPolyline
 62
9
  6
CONTINUOUS
 90
3
 70
0
 10
15.4965175241
 20
9.8604769621
 10
15.4991808703
 20
9.8614029034
 10
15.5014387005
 20
9.8609644413
  0
LWPOLYLINE
  5
5EC
100
AcDbEntity
  8
0
100
AcDbPolyline
 62
9
  6
CONTINUOUS
 90
3
 70
0
 10
15.5215725931
 20
9.8460117385
 10
15.5242359487
 20
9.8469376807
 10
15.5264937695
 20
9.8464992177
  0
LINE
  5
5ED
100
AcDbEntity
  8
0
100
AcDbLine
 62
9
  6
CONTINUOUS
 10
14.6265568511
 20
9.3919604009
 11
14.6227165989
 21
9.3894039073
  0
LINE
  5
5EE
100
AcDbEntity
  8
0
100
AcDbLine
 62
7
  6
CONTINUOUS
 10
15.433134702
 20
9.8609642653
 11
15.1185570107
 21
9.6793438346
  0
LINE
  5
5EF
100
AcDbEntity
  8
0
100
AcDbLine
 62
7
  6
CONTINUOUS
 10
14.9431729881
 20
9.5780864264
 11
14.6216356133
 21
9.3924478446
  0
LINE
  5
5F0
100
AcDbEntity
  8
0
100
AcDbLine
 62
9
  6
CONTINUOUS
 10
15.4380559398
 20
9.8604768216
 11
15.1234782485
 21
9.6788563909
  0
LINE
  5
5F1
100
AcDbEntity
  8
0
100
AcDbLine
 62
9
  6
CONTINUOUS
 10
14.9480942259
 20
9.5775989827
 11
14.6265568511
 21
9.3919604009
  0
LINE
  5
5F2
100
AcDbEntity
  8
0
100
AcDbLine
 62
7
  6
CONTINUOUS
 10
15.4533674868
 20
9.8355644252
 11
15.3811976925
 21
9.7938974237
  0
LINE
  5
5F3
100
AcDbEntity
  8
0
100
AcDbLine
 62
7
  6
CONTINUOUS
 10
15.0149088568
 20
9.5423530676
 11
15.1136748554
 21
9.5993753031
  0
LINE
  5
5F4
100
AcDbEntity
  8
0
100
AcDbLine
 62
9
  6
CONTINUOUS
 10
15.0177916408
 20
9.5406887291
 11
15.116518565
 21
9.5976884051
  0
LINE
  5
5F5
100
AcDbEntity
  8
0
100
AcDbLine
 62
9
  6
CONTINUOUS
 10
15.5076534696
 20
9.8042231074
 11
15.5215728365
 21
9.8122594096
  0
LINE
  5
5F6
100
AcDbEntity
  8
0
100
AcDbLine
 62
9
  6
CONTINUOUS
 10
15.5134532638
 20
9.7914988568
 11
15.5285325779
 21
9.8002048509
  0
LWPOLYLINE
  5
5F7
100
AcDbEntity
  8
02___PRT_ALL_AXES
100
AcDbPolyline
 62
7
  6
CONTINUOUS
 90
16
 70
0
 10
15.1760250262
 20
9.5182864238
 10
15.1658708263
 20
9.5135390681
 10
15.1542289081
 20
9.5101143245
 10
15.1416080794
 20
9.5081618709
 10
15.1285599309
 20
9.5077670389
 10
15.1156547294
 20
9.5089470844
 10
15.103456494
 20
9.5116504339
 10
15.0924983461
 20
9.515758938
 10
15.0832592095
 20
9.5210930353
 10
15.0761428787
 20
9.5274196002
 10
15.0714603715
 20
9.5344621316
 10
15.069416336
 20
9.5419128368
 10
15.0701001063
 20
9.5494460844
 10
15.0734817984
 20
9.5567326354
 10
15.0794136161
 20
9.5634540324
 10
15.0876363105
 20
9.5693165181
  0
LWPOLYLINE
  5
5F8
100
AcDbEntity
  8
0
100
AcDbPolyline
 62
9
  6
CONTINUOUS
 90
3
 70
0
 10
15.044138657
 20
9.5221489589
 10
15.0468020126
 20
9.5230749012
 10
15.0490598334
 20
9.5226364381
  0
LWPOLYLINE
  5
5F9
100
AcDbEntity
  8
0
100
AcDbPolyline
 62
9
  6
CONTINUOUS
 90
3
 70
0
 10
15.8890469385
 20
9.6338551259
 10
15.8917102859
 20
9.6347810673
 10
15.8939681148
 20
9.6343426051
  0
LWPOLYLINE
  5
5FA
100
AcDbEntity
  8
02___PRT_ALL_AXES
100
AcDbPolyline
 62
7
  6
CONTINUOUS
 90
7
 70
0
 10
15.0949464324
 20
3.575590054
 10
15.0832670688
 20
3.5833718107
 10
15.0736247878
 20
3.5920339876
 10
15.0662158783
 20
3.6014002475
 10
15.0611911644
 20
3.6112799206
 10
15.0586529349
 20
3.6214718851
 10
15.0583356282
 20
3.6266205738
  0
LWPOLYLINE
  5
5FB
100
AcDbEntity
  8
0
100
AcDbPolyline
 62
9
  6
CONTINUOUS
 90
9
 70
0
 10
14.6227165989
 20
9.3894039073
 10
14.6190400189
 20
9.3860152752
 10
14.6161764577
 20
9.3819109502
 10
14.6146311526
 20
9.3773208861
 10
14.6146792623
 20
9.3725697626
 10
14.6163060411
 20
9.3680116854
 10
14.619203078
 20
9.3639724171
 10
14.6228409383
 20
9.3606694614
 10
14.6265570945
 20
9.358208072
  0
LWPOLYLINE
  5
5FC
100
AcDbEntity
  8
0
100
AcDbPolyline
 62
9
  6
CONTINUOUS
 90
5
 70
0
 10
14.6265570945
 20
9.358208072
 10
14.6238937389
 20
9.3560586545
 10
14.6216358551
 20
9.353012991
 10
14.6201271854
 20
9.3495347562
 10
14.619597411
 20
9.3461534798
  0
LWPOLYLINE
  5
5FD
100
AcDbEntity
  8
0
100
AcDbPolyline
 62
9
  6
CONTINUOUS
 90
5
 70
0
 10
15.2195226796
 20
9.6234063672
 10
15.2168592744
 20
9.6212568972
 10
15.2146013943
 20
9.6182112066
 10
15.2130927545
 20
9.6147329973
 10
15.2125629962
 20
9.611351775
  0
LWPOLYLINE
  5
5FE
100
AcDbEntity
  8
0
100
AcDbPolyline
 62
9
  6
CONTINUOUS
 90
6
 70
0
 10
15.1234782485
 20
9.6788563909
 10
15.121327588
 20
9.6772213825
 10
15.1193874492
 20
9.6749597573
 10
15.1178477463
 20
9.6722928988
 10
15.1168591962
 20
9.6694818579
 10
15.116518565
 20
9.6668017987
  0
LWPOLYLINE
  5
5FF
100
AcDbEntity
  8
02___PRT_ALL_AXES
100
AcDbPolyline
 62
7
  6
CONTINUOUS
 90
16
 70
0
 10
15.1760250262
 20
9.5182864238
 10
15.1842477206
 20
9.5241489096
 10
15.1901795382
 20
9.5308703066
 10
15.1935612303
 20
9.5381568575
 10
15.1942450006
 20
9.5456901052
 10
15.1922009651
 20
9.5531408104
 10
15.187518458
 20
9.5601833417
 10
15.1804021272
 20
9.5665099067
 10
15.1711629906
 20
9.571844004
 10
15.1602048427
 20
9.5759525081
 10
15.1480066073
 20
9.5786558576
 10
15.1351014058
 20
9.5798359031
 10
15.1220532573
 20
9.5794410711
 10
15.1094324286
 20
9.5774886175
 10
15.0977905104
 20
9.5740638739
 10
15.0876363105
 20
9.5693165181
  0
LWPOLYLINE
  5
600
100
AcDbEntity
  8
02___PRT_ALL_AXES
100
AcDbPolyline
 62
7
  6
CONTINUOUS
 90
4
 70
0
 10
15.0715591237
 20
9.5642836655
 10
15.0563874184
 20
9.5538548384
 10
15.0430898663
 20
9.5412086707
 10
15.0350786895
 20
9.5307082727
  0
LWPOLYLINE
  5
601
100
AcDbEntity
  8
02___PRT_ALL_AXES
100
AcDbPolyline
 62
7
  6
CONTINUOUS
 90
7
 70
0
 10
15.4095231907
 20
9.573180144
 10
15.4177998255
 20
9.5786948145
 10
15.4246328496
 20
9.5848333979
 10
15.4298831621
 20
9.5914709302
 10
15.433443882
 20
9.5984722904
 10
15.4352425232
 20
9.6056949511
 10
15.4354673335
 20
9.6093432026
  0
LWPOLYLINE
  5
602
100
AcDbEntity
  8
0
100
AcDbPolyline
 62
9
  6
CONTINUOUS
 90
9
 70
0
 10
15.5215728365
 20
9.8122594096
 10
15.5254130886
 20
9.8148159032
 10
15.5290896686
 20
9.8182045354
 10
15.5319532298
 20
9.8223088604
 10
15.533498535
 20
9.8268989244
 10
15.5334504252
 20
9.8316500479
 10
15.5318236465
 20
9.8362081251
 10
15.5289266096
 20
9.8402473934
 10
15.5252887493
 20
9.8435503492
  0
LWPOLYLINE
  5
603
100
AcDbEntity
  8
0
100
AcDbPolyline
 62
9
  6
CONTINUOUS
 90
6
 70
0
 10
15.5285325779
 20
9.8002048509
 10
15.5332928102
 20
9.8033742863
 10
15.5378445461
 20
9.8075713036
 10
15.5413882059
 20
9.8126539216
 10
15.5432985828
 20
9.8183348046
 10
15.543523025
 20
9.8211002566
  0
LINE
  5
604
100
AcDbEntity
  8
0
100
AcDbLine
 62
7
  6
CONTINUOUS
 10
15.4533676027
 20
9.7230545942
 11
15.423707214
 21
9.705930263
  0
LWPOLYLINE
  5
605
100
AcDbEntity
  8
02___PRT_ALL_AXES
100
AcDbPolyline
 62
7
  6
CONTINUOUS
 90
7
 70
0
 10
15.3920110226
 20
9.5734848457
 10
15.4011715011
 20
9.5780018852
 10
15.4089952785
 20
9.5832906519
 10
15.4152897075
 20
9.5892209189
 10
15.4198997984
 20
9.5956466633
 10
15.4227120353
 20
9.602409662
 10
15.4236571718
 20
9.6093432037
  0
LINE
  5
606
100
AcDbEntity
  8
0
100
AcDbLine
 62
7
  6
CONTINUOUS
 10
15.8360057753
 20
9.6389392981
 11
15.8256641164
 21
9.6343424291
  0
LWPOLYLINE
  5
607
100
AcDbEntity
  8
0
100
AcDbPolyline
 62
9
  6
CONTINUOUS
 90
3
 70
0
 10
16.1312459388
 20
9.4940246313
 10
16.1339092944
 20
9.4949505735
 10
16.1361671152
 20
9.4945121105
  0
LWPOLYLINE
  5
608
100
AcDbEntity
  8
DEFAULT_2
100
AcDbPolyline
 62
8
  6
HIDDEN
 90
3
 70
0
 10
15.2702507511
 20
9.6349943675
 10
15.2700961292
 20
9.6348397692
 10
15.2697896943
 20
9.6345296425
  0
LWPOLYLINE
  5
609
100
AcDbEntity
  8
02___PRT_ALL_AXES
100
AcDbPolyline
 62
7
  6
CONTINUOUS
 90
6
 70
0
 10
15.2702483248
 20
9.6348503226
 10
15.2691381869
 20
9.633853008
 10
15.2638878743
 20
9.6272154757
 10
15.2603271545
 20
9.6202141155
 10
15.2585285133
 20
9.6129914548
 10
15.2583037029
 20
9.6093432033
  0
LINE
  5
60A
100
AcDbEntity
  8
0
100
AcDbLine
 62
7
  6
CONTINUOUS
 10
15.8256641164
 20
9.6343424291
 11
15.8114047048
 21
9.6261098031
  0
LINE
  5
60B
100
AcDbEntity
  8
0
100
AcDbLine
 62
9
  6
CONTINUOUS
 10
15.8305853542
 20
9.6338549854
 11
15.8166659873
 21
9.6258186832
  0
LINE
  5
60C
100
AcDbEntity
  8
0
100
AcDbLine
 62
7
  6
CONTINUOUS
 10
15.7986598856
 20
9.5527397601
 11
15.8709519702
 21
9.5944773654
  0
LWPOLYLINE
  5
60D
100
AcDbEntity
  8
02___PRT_ALL_AXES
100
AcDbPolyline
 62
7
  6
CONTINUOUS
 90
7
 70
0
 10
15.7413900403
 20
9.3717753391
 10
15.7505505188
 20
9.3762923785
 10
15.7583742962
 20
9.3815811453
 10
15.7646687253
 20
9.3875114123
 10
15.7692788161
 20
9.3939371567
 10
15.7720910531
 20
9.4007001554
 10
15.7730361895
 20
9.4076336971
  0
LWPOLYLINE
  5
60E
100
AcDbEntity
  8
02___PRT_ALL_AXES
100
AcDbPolyline
 62
7
  6
CONTINUOUS
 90
16
 70
0
 10
15.6771264062
 20
9.2289819521
 10
15.6669722063
 20
9.2242345964
 10
15.6553302881
 20
9.2208098528
 10
15.6427094594
 20
9.2188573992
 10
15.629661311
 20
9.2184625671
 10
15.6167561094
 20
9.2196426127
 10
15.604557874
 20
9.2223459622
 10
15.5935997261
 20
9.2264544663
 10
15.5843605895
 20
9.2317885636
 10
15.5772442587
 20
9.2381151285
 10
15.5725617516
 20
9.2451576598
 10
15.5705177161
 20
9.2526083651
 10
15.5712014864
 20
9.2601416127
 10
15.5745831785
 20
9.2674281637
 10
15.5805149961
 20
9.2741495607
 10
15.5887376905
 20
9.2800120464
  0
LWPOLYLINE
  5
60F
100
AcDbEntity
  8
0
100
AcDbPolyline
 62
9
  6
CONTINUOUS
 90
6
 70
0
 10
15.8236282322
 20
9.266597313
 10
15.8211369378
 20
9.2655522967
 10
15.8182082406
 20
9.2650028952
 10
15.815128822
 20
9.2650028878
 10
15.8122001169
 20
9.2655522752
 10
15.8097088074
 20
9.2665972795
  0
LWPOLYLINE
  5
610
100
AcDbEntity
  8
0
100
AcDbPolyline
 62
9
  6
CONTINUOUS
 90
4
 70
0
 10
15.6412844682
 20
9.1773944635
 10
15.6434351287
 20
9.178242809
 10
15.6453752675
 20
9.1782214498
 10
15.6462056446
 20
9.1778819427
  0
LWPOLYLINE
  5
611
100
AcDbEntity
  8
0
100
AcDbPolyline
 62
9
  6
CONTINUOUS
 90
3
 70
0
 10
15.5452400371
 20
9.2328444872
 10
15.5479034423
 20
9.2337704344
 10
15.5501612134
 20
9.2333319664
  0
LWPOLYLINE
  5
612
100
AcDbEntity
  8
0
100
AcDbPolyline
 62
7
  6
CONTINUOUS
 90
3
 70
0
 10
14.6067385447
 20
9.2064685087
 10
14.6063503801
 20
9.2059299374
 10
14.6046066641
 20
9.1982827106
  0
LWPOLYLINE
  5
613
100
AcDbEntity
  8
DEFAULT_2
100
AcDbPolyline
 62
8
  6
HIDDEN
 90
7
 70
0
 10
15.2690730187
 20
9.6337839775
 10
15.2682035232
 20
9.632837791
 10
15.2672327577
 20
9.6317209112
 10
15.2664385012
 20
9.6307529268
 10
15.2655564906
 20
9.6296117724
 10
15.2647230352
 20
9.6284585173
 10
15.2639454904
 20
9.6273044094
  0
LINE
  5
614
100
AcDbEntity
  8
DEFAULT_2
100
AcDbLine
 62
8
  6
HIDDEN
 10
15.2692336587
 20
9.6339536848
 11
15.2690730187
 21
9.6337839775
  0
LINE
  5
615
100
AcDbEntity
  8
DEFAULT_2
100
AcDbLine
 62
8
  6
HIDDEN
 10
15.2694870168
 20
9.6342182882
 11
15.2692336587
 21
9.6339536849
  0
LINE
  5
616
100
AcDbEntity
  8
DEFAULT_2
100
AcDbLine
 62
8
  6
HIDDEN
 10
15.2697896943
 20
9.6345296425
 11
15.2694870168
 21
9.6342182882
  0
LWPOLYLINE
  5
617
100
AcDbEntity
  8
02___PRT_ALL_AXES
100
AcDbPolyline
 62
7
  6
CONTINUOUS
 90
4
 70
0
 10
15.3302937268
 20
9.6434601695
 10
15.3312076915
 20
9.6443669983
 10
15.331566755
 20
9.6453954923
 10
15.331569917
 20
9.6455059817
  0
LWPOLYLINE
  5
618
100
AcDbEntity
  8
02___PRT_ALL_AXES
100
AcDbPolyline
 62
7
  6
CONTINUOUS
 90
4
 70
0
 10
15.3634773096
 20
9.6716635297
 10
15.362563345
 20
9.670756701
 10
15.3622042815
 20
9.669728207
 10
15.3622011195
 20
9.6696177176
  0
LWPOLYLINE
  5
619
100
AcDbEntity
  8
02___PRT_ALL_AXES
100
AcDbPolyline
 62
7
  6
CONTINUOUS
 90
4
 70
0
 10
15.5726605037
 20
9.2749791938
 10
15.5574887984
 20
9.2645503666
 10
15.5441912464
 20
9.251904199
 10
15.5370222433
 20
9.2425076538
  0
LWPOLYLINE
  5
61A
100
AcDbEntity
  8
02___PRT_ALL_AXES
100
AcDbPolyline
 62
7
  6
CONTINUOUS
 90
7
 70
0
 10
15.7589022085
 20
9.3714706373
 10
15.7671788433
 20
9.3769853079
 10
15.7740118673
 20
9.3831238912
 10
15.7792621799
 20
9.3897614235
 10
15.7828228997
 20
9.3967627837
 10
15.7846215409
 20
9.4039854444
 10
15.7848463513
 20
9.4076336959
  0
LINE
  5
61B
100
AcDbEntity
  8
0
100
AcDbLine
 62
9
  6
CONTINUOUS
 10
15.3197470934
 20
8.9917558817
 11
15.6412844682
 21
9.1773944635
  0
LINE
  5
61C
100
AcDbEntity
  8
0
100
AcDbLine
 62
9
  6
CONTINUOUS
 10
15.8166684908
 20
9.2786518717
 11
16.1312461822
 21
9.4602723024
  0
LINE
  5
61D
100
AcDbEntity
  8
0
100
AcDbLine
 62
9
  6
CONTINUOUS
 10
15.3267068348
 20
8.9797013229
 11
15.6482442096
 21
9.1653399047
  0
LINE
  5
61E
100
AcDbEntity
  8
0
100
AcDbLine
 62
9
  6
CONTINUOUS
 10
15.8236282322
 20
9.266597313
 11
16.1382059236
 21
9.4482177436
  0
LINE
  5
61F
100
AcDbEntity
  8
0
100
AcDbLine
 62
9
  6
CONTINUOUS
 10
15.8097088074
 20
9.1974838859
 11
15.6511269879
 21
9.1059271763
  0
LINE
  5
620
100
AcDbEntity
  8
0
100
AcDbLine
 62
9
  6
CONTINUOUS
 10
15.8236282322
 20
9.1894474783
 11
15.6482442096
 21
9.08819007
  0
LWPOLYLINE
  5
621
100
AcDbEntity
  8
02___PRT_ALL_AXES
100
AcDbPolyline
 62
7
  6
CONTINUOUS
 90
5
 70
0
 10
15.7082392341
 20
9.1724718501
 10
15.6931194423
 20
9.1652230775
 10
15.675950041
 20
9.1597017322
 10
15.6573157136
 20
9.1560958367
 10
15.6511269879
 20
9.1555974078
  0
LWPOLYLINE
  5
622
100
AcDbEntity
  8
02___PRT_ALL_AXES
100
AcDbPolyline
 62
7
  6
CONTINUOUS
 90
5
 70
0
 10
15.7082392341
 20
9.1628457163
 10
15.6931194423
 20
9.1555969438
 10
15.675950041
 20
9.1500755984
 10
15.6573157136
 20
9.146469703
 10
15.6511269879
 20
9.145971274
  0
LWPOLYLINE
  5
623
100
AcDbEntity
  8
02___PRT_ALL_AXES
100
AcDbPolyline
 62
7
  6
CONTINUOUS
 90
8
 70
0
 10
15.3267068348
 20
8.8270089418
 10
15.3177463482
 20
8.822883365
 10
15.3074204272
 20
8.820012385
 10
15.2962468567
 20
8.8185399645
 10
15.284785926
 20
8.818539937
 10
15.2736123343
 20
8.8200123037
 10
15.2632863719
 20
8.8228832341
 10
15.2543258257
 20
8.8270087678
  0
LWPOLYLINE
  5
624
100
AcDbEntity
  8
0
100
AcDbPolyline
 62
7
  6
CONTINUOUS
 90
4
 70
0
 10
15.2007410062
 20
8.8579452779
 10
15.1965093995
 20
8.8562117691
 10
15.1934405709
 20
8.8534306316
 10
15.1924005852
 20
8.8502625556
  0
LINE
  5
625
100
AcDbEntity
  8
DEFAULT_2
100
AcDbLine
 62
8
  6
HIDDEN
 10
15.6188660346
 20
9.4325087816
 11
15.6186126765
 21
9.4322441782
  0
LINE
  5
626
100
AcDbEntity
  8
DEFAULT_2
100
AcDbLine
 62
8
  6
HIDDEN
 10
15.619168712
 20
9.4328201358
 11
15.6188660346
 21
9.4325087816
  0
LWPOLYLINE
  5
627
100
AcDbEntity
  8
DEFAULT_2
100
AcDbPolyline
 62
8
  6
HIDDEN
 90
3
 70
0
 10
15.6196297689
 20
9.4332848608
 10
15.619475147
 20
9.4331302625
 10
15.619168712
 20
9.4328201358
  0
LWPOLYLINE
  5
628
100
AcDbEntity
  8
02___PRT_ALL_AXES
100
AcDbPolyline
 62
7
  6
CONTINUOUS
 90
4
 70
0
 10
15.6796727446
 20
9.4417506629
 10
15.6805867092
 20
9.4426574916
 10
15.6809457727
 20
9.4436859856
 10
15.6809489347
 20
9.443796475
  0
LWPOLYLINE
  5
629
100
AcDbEntity
  8
02___PRT_ALL_AXES
100
AcDbPolyline
 62
7
  6
CONTINUOUS
 90
4
 70
0
 10
15.7128563274
 20
9.4699540231
 10
15.7119423627
 20
9.4690471943
 10
15.7115832992
 20
9.4680187003
 10
15.7115801372
 20
9.4679082109
  0
LWPOLYLINE
  5
62A
100
AcDbEntity
  8
02___PRT_ALL_AXES
100
AcDbPolyline
 62
7
  6
CONTINUOUS
 90
6
 70
0
 10
15.6196273425
 20
9.4331408159
 10
15.6185172046
 20
9.4321435014
 10
15.6132668921
 20
9.4255059691
 10
15.6097061722
 20
9.4185046088
 10
15.607907531
 20
9.4112819482
 10
15.6076827207
 20
9.4076336967
  0
LWPOLYLINE
  5
62B
100
AcDbEntity
  8
0
100
AcDbPolyline
 62
9
  6
CONTINUOUS
 90
5
 70
0
 10
15.2612855092
 20
8.9917557412
 10
15.2586221629
 20
8.9896063335
 10
15.2563642785
 20
8.9865606752
 10
15.2548556031
 20
8.9830824357
 10
15.2543258257
 20
8.979701149
  0
LWPOLYLINE
  5
62C
100
AcDbEntity
  8
0
100
AcDbPolyline
 62
9
  6
CONTINUOUS
 90
5
 70
0
 10
15.7206240597
 20
9.3341018955
 10
15.7179607041
 20
9.331952478
 10
15.7157028203
 20
9.3289068145
 10
15.7141941506
 20
9.3254285796
 10
15.7136643762
 20
9.3220473032
  0
LWPOLYLINE
  5
62D
100
AcDbEntity
  8
0
100
AcDbPolyline
 62
9
  6
CONTINUOUS
 90
4
 70
0
 10
15.6482442096
 20
9.1653399047
 10
15.6500589052
 20
9.1667835398
 10
15.6510090977
 20
9.1684811513
 10
15.6511269875
 20
9.169356391
  0
LWPOLYLINE
  5
62E
100
AcDbEntity
  8
0
100
AcDbPolyline
 62
9
  6
CONTINUOUS
 90
6
 70
0
 10
15.8166684908
 20
9.2786518717
 10
15.8145109081
 20
9.2770102649
 10
15.8125656201
 20
9.2747381184
 10
15.8110262796
 20
9.2720629537
 10
15.8100416692
 20
9.2692450702
 10
15.8097088074
 20
9.2665972795
  0
LWPOLYLINE
  5
62F
100
AcDbEntity
  8
02___PRT_ALL_AXES
100
AcDbPolyline
 62
7
  6
CONTINUOUS
 90
16
 70
0
 10
15.6771264062
 20
9.2289819521
 10
15.6853491006
 20
9.2348444379
 10
15.6912809183
 20
9.2415658349
 10
15.6946626104
 20
9.2488523858
 10
15.6953463807
 20
9.2563856335
 10
15.6933023452
 20
9.2638363387
 10
15.688619838
 20
9.27087887
 10
15.6815035072
 20
9.277205435
 10
15.6722643706
 20
9.2825395323
 10
15.6613062227
 20
9.2866480364
 10
15.6491079873
 20
9.2893513859
 10
15.6362027858
 20
9.2905314314
 10
15.6231546373
 20
9.2901365994
 10
15.6105338086
 20
9.2881841458
 10
15.5988918904
 20
9.2847594022
 10
15.5887376905
 20
9.2800120464
  0
LWPOLYLINE
  5
630
100
AcDbEntity
  8
02___PRT_ALL_AXES
100
AcDbPolyline
 62
7
  6
CONTINUOUS
 90
4
 70
0
 10
15.7082392341
 20
9.1724718501
 10
15.72079453
 20
9.1812012015
 10
15.7303577745
 20
9.1911138642
 10
15.7366033027
 20
9.2018722744
  0
LWPOLYLINE
  5
631
100
AcDbEntity
  8
02___PRT_ALL_AXES
100
AcDbPolyline
 62
7
  6
CONTINUOUS
 90
6
 70
0
 10
15.7082392341
 20
9.1628457163
 10
15.72079453
 20
9.1715750677
 10
15.7303577745
 20
9.1814877305
 10
15.7366033027
 20
9.1922461407
 10
15.7393184307
 20
9.2034839335
 10
15.7394304163
 20
9.2063172804
  0
LWPOLYLINE
  5
632
100
AcDbEntity
  8
0
100
AcDbPolyline
 62
9
  6
CONTINUOUS
 90
9
 70
0
 10
16.1312461822
 20
9.4602723024
 10
16.1350864343
 20
9.462828796
 10
16.1387630143
 20
9.4662174281
 10
16.1416265755
 20
9.4703217531
 10
16.1431718807
 20
9.4749118172
 10
16.1431237709
 20
9.4796629407
 10
16.1414969922
 20
9.4842210179
 10
16.1385999553
 20
9.4882602862
 10
16.134962095
 20
9.4915632419
  0
LWPOLYLINE
  5
633
100
AcDbEntity
  8
0
100
AcDbPolyline
 62
9
  6
CONTINUOUS
 90
6
 70
0
 10
16.1382059236
 20
9.4482177436
 10
16.1429661559
 20
9.451387179
 10
16.1475178918
 20
9.4555841963
 10
16.1510615516
 20
9.4606668143
 10
16.1529719285
 20
9.4663476974
 10
16.1531963707
 20
9.4691131494
  0
LINE
  5
634
100
AcDbEntity
  8
02___PRT_ALL_AXES
100
AcDbLine
 62
7
  6
CONTINUOUS
 10
15.3267068348
 20
8.8270089418
 11
16.1382059236
 21
9.2955253625
  0
LINE
  5
635
100
AcDbEntity
  8
0
100
AcDbLine
 62
7
  6
CONTINUOUS
 10
16.1382059236
 20
9.2794524802
 11
15.3267068348
 21
8.8109360596
  0
LWPOLYLINE
  5
636
100
AcDbEntity
  8
DEFAULT_2
100
AcDbPolyline
 62
8
  6
HIDDEN
 90
7
 70
0
 10
15.2638087363
 20
9.6270924939
 10
15.2631831213
 20
9.6260841249
 10
15.2624996586
 20
9.6248984447
 10
15.2619539173
 20
9.6238747289
 10
15.2613643196
 20
9.6226723695
 10
15.2608995756
 20
9.6216354146
 10
15.26038567
 20
9.6203682731
  0
LINE
  5
637
100
AcDbEntity
  8
DEFAULT_2
100
AcDbLine
 62
8
  6
HIDDEN
 10
15.2639454906
 20
9.6273044097
 11
15.2638087363
 21
9.6270924939
  0
LINE
  5
638
100
AcDbEntity
  8
0
100
AcDbLine
 62
7
  6
CONTINUOUS
 10
15.5378191088
 20
9.6391917602
 11
15.5417793075
 21
9.6446864642
  0
LWPOLYLINE
  5
639
100
AcDbEntity
  8
DEFAULT_2
100
AcDbPolyline
 62
8
  6
HIDDEN
 90
7
 70
0
 10
15.6184520365
 20
9.4320744708
 10
15.617582541
 20
9.4311282844
 10
15.6166117755
 20
9.4300114046
 10
15.6158175189
 20
9.4290434201
 10
15.6149355084
 20
9.4279022657
 10
15.6141020529
 20
9.4267490106
 10
15.6133245082
 20
9.4255949027
  0
LINE
  5
63A
100
AcDbEntity
  8
DEFAULT_2
100
AcDbLine
 62
8
  6
HIDDEN
 10
15.6186126764
 20
9.4322441782
 11
15.6184520365
 21
9.4320744708
  0
LWPOLYLINE
  5
63B
100
AcDbEntity
  8
0
100
AcDbPolyline
 62
7
  6
CONTINUOUS
 90
4
 70
0
 10
16.1382059236
 20
9.2794524802
 10
16.146256018
 20
9.2854891196
 10
16.1514526532
 20
9.292699357
 10
16.1531963691
 20
9.3003465837
  0
LINE
  5
63C
100
AcDbEntity
  8
0
100
AcDbLine
 62
7
  6
CONTINUOUS
 10
15.1200195361
 20
9.5702160333
 11
15.1129964707
 21
9.5550833948
  0
LINE
  5
63D
100
AcDbEntity
  8
0
100
AcDbLine
 62
7
  6
CONTINUOUS
 10
15.1059734053
 20
9.5399507563
 11
15.0989503399
 21
9.5248181178
  0
LINE
  5
63E
100
AcDbEntity
  8
0
100
AcDbLine
 62
7
  6
CONTINUOUS
 10
15.1200195361
 20
9.5473539656
 11
15.1129964707
 21
9.5322213271
  0
LINE
  5
63F
100
AcDbEntity
  8
0
100
AcDbLine
 62
7
  6
CONTINUOUS
 10
15.1443489044
 20
9.5177951528
 11
15.1514068554
 21
9.5330029596
  0
LINE
  5
640
100
AcDbEntity
  8
0
100
AcDbLine
 62
7
  6
CONTINUOUS
 10
15.1583950352
 20
9.5480604298
 11
15.1654181006
 21
9.5631930683
  0
LWPOLYLINE
  5
641
100
AcDbEntity
  8
02___PRT_ALL_AXES
100
AcDbPolyline
 62
7
  6
CONTINUOUS
 90
3
 70
0
 10
15.3302937268
 20
9.6434601695
 10
15.3295614714
 20
9.6421177038
 10
15.3294013683
 20
9.6410938938
  0
LWPOLYLINE
  5
642
100
AcDbEntity
  8
02___PRT_ALL_AXES
100
AcDbPolyline
 62
7
  6
CONTINUOUS
 90
3
 70
0
 10
15.3634773096
 20
9.6716635297
 10
15.3642095651
 20
9.6730059954
 10
15.3643696681
 20
9.6740298055
  0
LINE
  5
643
100
AcDbEntity
  8
DEFAULT_2
100
AcDbLine
 62
8
  6
HIDDEN
 10
15.6133245084
 20
9.425594903
 11
15.6131877541
 21
9.4253829872
  0
LWPOLYLINE
  5
644
100
AcDbEntity
  8
0
100
AcDbPolyline
 62
7
  6
CONTINUOUS
 90
3
 70
0
 10
15.3720361524
 20
5.3825172706
 10
15.3728557237
 20
5.3826649914
 10
15.3730165492
 20
5.3827468382
  0
LWPOLYLINE
  5
645
100
AcDbEntity
  8
0
100
AcDbPolyline
 62
3
  6
CONTINUOUS
 90
3
 70
0
 10
15.3779694306
 20
5.3645522925
 10
15.3813084032
 20
5.3650051544
 10
15.3828588513
 20
5.3657002025
  0
LWPOLYLINE
  5
646
100
AcDbEntity
  8
0
100
AcDbPolyline
 62
9
  6
CONTINUOUS
 90
5
 70
0
 10
15.2340551264
 20
5.3729412417
 10
15.2105143744
 20
5.3705977553
 10
15.1742638038
 20
5.3698825709
 10
15.1381829024
 20
5.3720238986
 10
15.1136759996
 20
5.3754717881
  0
LWPOLYLINE
  5
647
100
AcDbEntity
  8
02___PRT_ALL_AXES
100
AcDbPolyline
 62
7
  6
CONTINUOUS
 90
7
 70
0
 10
15.2224382697
 20
5.3796480853
 10
15.2148848678
 20
5.3789147459
 10
15.1896597094
 20
5.3778730797
 10
15.1643772681
 20
5.3782204832
 10
15.1392665057
 20
5.3799538101
 10
15.114554829
 20
5.3830573631
 10
15.1136759996
 20
5.3832195542
  0
LWPOLYLINE
  5
648
100
AcDbEntity
  8
0
100
AcDbPolyline
 62
7
  6
CONTINUOUS
 90
4
 70
0
 10
15.1950000776
 20
5.3954891745
 10
15.186647065
 20
5.3950511195
 10
15.1456619647
 20
5.3966002484
 10
15.1136759996
 20
5.4007533218
  0
LWPOLYLINE
  5
649
100
AcDbEntity
  8
0
100
AcDbPolyline
 62
7
  6
CONTINUOUS
 90
4
 70
0
 10
15.2024780438
 20
5.3911718664
 10
15.1740012214
 20
5.3904341699
 10
15.1338298058
 20
5.3932598024
 10
15.1136759996
 20
5.3966968281
  0
LINE
  5
64A
100
AcDbEntity
  8
0
100
AcDbLine
 62
7
  6
CONTINUOUS
 10
15.1482580048
 20
5.3366969967
 11
15.1136759831
 21
5.3406579544
  0
LWPOLYLINE
  5
64B
100
AcDbEntity
  8
0
100
AcDbPolyline
 62
7
  6
CONTINUOUS
 90
6
 70
0
 10
15.1136759996
 20
5.3592691786
 10
15.1287347806
 20
5.3566475028
 10
15.1642241833
 20
5.3535768818
 10
15.1999825654
 20
5.3534746107
 10
15.2354329976
 20
5.356331386
 10
15.2566645755
 20
5.3598879655
  0
LINE
  5
64C
100
AcDbEntity
  8
0
100
AcDbLine
 62
3
  6
CONTINUOUS
 10
15.3743602104
 20
5.3652071794
 11
15.3779694306
 21
5.3645522925
  0
LINE
  5
64D
100
AcDbEntity
  8
0
100
AcDbLine
 62
9
  6
CONTINUOUS
 10
15.1149471385
 20
5.3434027869
 11
15.113731154
 21
5.343640699
  0
LWPOLYLINE
  5
64E
100
AcDbEntity
  8
0
100
AcDbPolyline
 62
3
  6
CONTINUOUS
 90
9
 70
0
 10
15.1111932972
 20
5.3231027296
 10
15.0758472126
 20
5.3300443976
 10
15.042165241
 20
5.3397064982
 10
15.0106848665
 20
5.3519955558
 10
14.9819553321
 20
5.3667790947
 10
14.9565267108
 20
5.38386938
 10
14.934988819
 20
5.4029394595
 10
14.9178081928
 20
5.4235536755
 10
14.9052720373
 20
5.4451727108
  0
LWPOLYLINE
  5
64F
100
AcDbEntity
  8
0
100
AcDbPolyline
 62
9
  6
CONTINUOUS
 90
7
 70
0
 10
15.1085914439
 20
5.3336968323
 10
15.067740616
 20
5.3419362358
 10
15.0294746637
 20
5.3536004904
 10
14.9946492795
 20
5.3684287633
 10
14.9640432187
 20
5.3860894689
 10
14.9383408855
 20
5.4061876835
 10
14.918117028
 20
5.4282739765
  0
LWPOLYLINE
  5
650
100
AcDbEntity
  8
0
100
AcDbPolyline
 62
3
  6
CONTINUOUS
 90
6
 70
0
 10
15.1111933268
 20
5.3231029217
 10
15.11101957
 20
5.3231442007
 10
15.1099998162
 20
5.324125633
 10
15.1092314606
 20
5.3262923769
 10
15.1087538887
 20
5.3295342763
 10
15.1085914439
 20
5.3336968323
  0
LINE
  5
651
100
AcDbEntity
  8
02___PRT_ALL_AXES
100
AcDbLine
 62
7
  6
CONTINUOUS
 10
15.0497192481
 20
5.4595089646
 11
15.0275212672
 21
5.4670749189
  0
LWPOLYLINE
  5
652
100
AcDbEntity
  8
02___PRT_ALL_AXES
100
AcDbPolyline
 62
3
  6
CONTINUOUS
 90
5
 70
0
 10
15.0497192481
 20
5.4119990717
 10
15.0194666058
 20
5.4224920716
 10
14.9916014055
 20
5.4350588341
 10
14.9665959952
 20
5.4494958632
 10
14.9448330756
 20
5.4655814216
  0
LWPOLYLINE
  5
653
100
AcDbEntity
  8
02___PRT_ALL_AXES
100
AcDbPolyline
 62
3
  6
CONTINUOUS
 90
6
 70
0
 10
15.0497192481
 20
5.4714687359
 10
15.0194666058
 20
5.4819617358
 10
14.9916014055
 20
5.4945284983
 10
14.9665959952
 20
5.5089655275
 10
14.9448330756
 20
5.5250510859
 10
14.9266605737
 20
5.5425150874
  0
LWPOLYLINE
  5
654
100
AcDbEntity
  8
0
100
AcDbPolyline
 62
7
  6
CONTINUOUS
 90
4
 70
0
 10
15.1141964215
 20
5.3425576843
 10
15.1141071318
 20
5.3425913205
 10
15.1138743134
 20
5.3429491762
 10
15.113726677
 20
5.343662325
  0
LWPOLYLINE
  5
655
100
AcDbEntity
  8
02___PRT_ALL_AXES
100
AcDbPolyline
 62
7
  6
CONTINUOUS
 90
3
 70
0
 10
15.0060687328
 20
5.4381354897
 10
14.9778768085
 20
5.4510050741
 10
14.96479464
 20
5.4581309812
  0
LWPOLYLINE
  5
656
100
AcDbEntity
  8
02___PRT_ALL_AXES
100
AcDbPolyline
 62
7
  6
CONTINUOUS
 90
4
 70
0
 10
15.0060687328
 20
5.4493865072
 10
14.9778768085
 20
5.4622560917
 10
14.9524633458
 20
5.4769282292
 10
14.9301720183
 20
5.4932045045
  0
LWPOLYLINE
  5
657
100
AcDbEntity
  8
02___PRT_ALL_AXES
100
AcDbPolyline
 62
7
  6
CONTINUOUS
 90
4
 70
0
 10
15.0275212672
 20
5.4590384778
 10
15.0027411045
 20
5.4703505966
 10
14.9804031564
 20
5.4832471252
 10
14.9608095054
 20
5.4975536601
  0
LWPOLYLINE
  5
658
100
AcDbEntity
  8
0
100
AcDbPolyline
 62
7
  6
CONTINUOUS
 90
3
 70
0
 10
14.9703619393
 20
5.4725985875
 10
14.9830839304
 20
5.46566854
 10
15.0105850558
 20
5.4531103834
  0
LINE
  5
659
100
AcDbEntity
  8
0
100
AcDbLine
 62
7
  6
CONTINUOUS
 10
15.0044082389
 20
5.4352595152
 11
14.9647947562
 21
5.4581310483
  0
LINE
  5
65A
100
AcDbEntity
  8
0
100
AcDbLine
 62
7
  6
CONTINUOUS
 10
14.9366220156
 20
5.4958119985
 11
14.9446845122
 21
5.491034925
  0
LINE
  5
65B
100
AcDbEntity
  8
02___PRT_ALL_AXES
100
AcDbLine
 62
7
  6
CONTINUOUS
 10
15.0320375903
 20
5.4225801484
 11
15.0060687328
 21
5.4381354897
  0
LWPOLYLINE
  5
65C
100
AcDbEntity
  8
02___PRT_ALL_AXES
100
AcDbPolyline
 62
7
  6
CONTINUOUS
 90
3
 70
0
 10
14.96479464
 20
5.4581309812
 10
14.9524633458
 20
5.4656772117
 10
14.9301720183
 20
5.4819534869
  0
LWPOLYLINE
  5
65D
100
AcDbEntity
  8
DEFAULT_2
100
AcDbPolyline
 62
8
  6
HIDDEN
 90
7
 70
0
 10
15.2602779713
 20
9.62008275
 10
15.259907401
 20
9.6190332281
 10
15.2595232987
 20
9.6178034463
 10
15.2591913534
 20
9.6165686136
 10
15.2589484927
 20
9.6155067241
 10
15.2587139126
 20
9.6142644689
 10
15.2585311749
 20
9.6130128786
  0
LINE
  5
65E
100
AcDbEntity
  8
DEFAULT_2
100
AcDbLine
 62
8
  6
HIDDEN
 10
15.26038567
 20
9.6203682733
 11
15.2602779713
 21
9.62008275
  0
LINE
  5
65F
100
AcDbEntity
  8
02___PRT_ALL_AXES
100
AcDbLine
 62
7
  6
CONTINUOUS
 10
15.3485136341
 20
9.6391858848
 11
15.3490420885
 21
9.6405598777
  0
LWPOLYLINE
  5
660
100
AcDbEntity
  8
DEFAULT_2
100
AcDbPolyline
 62
8
  6
HIDDEN
 90
7
 70
0
 10
15.6131877541
 20
9.4253829872
 10
15.612562139
 20
9.4243746182
 10
15.6118786764
 20
9.423188938
 10
15.611332935
 20
9.4221652222
 10
15.6107433373
 20
9.4209628628
 10
15.6102785933
 20
9.4199259079
 10
15.6097646877
 20
9.4186587665
  0
LINE
  5
661
100
AcDbEntity
  8
0
100
AcDbLine
 62
7
  6
CONTINUOUS
 10
15.1144065155
 20
5.3426169237
 11
15.1141964215
 21
5.3425576843
  0
LINE
  5
662
100
AcDbEntity
  8
0
100
AcDbLine
 62
3
  6
CONTINUOUS
 10
15.1122392114
 20
5.3233973537
 11
15.1111933268
 21
5.3231029217
  0
LWPOLYLINE
  5
663
100
AcDbEntity
  8
0
100
AcDbPolyline
 62
7
  6
CONTINUOUS
 90
3
 70
0
 10
15.3705545605
 20
5.3829910325
 10
15.371318773
 20
5.3826475532
 10
15.3720361524
 20
5.3825172706
  0
LINE
  5
664
100
AcDbEntity
  8
0
100
AcDbLine
 62
3
  6
CONTINUOUS
 10
15.3740339445
 20
5.3653538482
 11
15.3743602104
 21
5.3652071794
  0
LINE
  5
665
100
AcDbEntity
  8
0
100
AcDbLine
 62
7
  6
CONTINUOUS
 10
15.2624798541
 20
5.3565305888
 11
14.627751438
 21
5.7229829204
  0
LINE
  5
666
100
AcDbEntity
  8
0
100
AcDbLine
 62
9
  6
CONTINUOUS
 10
15.2543258257
 20
5.3745536654
 11
14.619597411
 21
5.7410059963
  0
LINE
  5
667
100
AcDbEntity
  8
0
100
AcDbLine
 62
9
  6
CONTINUOUS
 10
15.3879558049
 20
5.3769633574
 11
15.3740359823
 21
5.3849993965
  0
LINE
  5
668
100
AcDbEntity
  8
0
100
AcDbLine
 62
7
  6
CONTINUOUS
 10
15.3705560266
 20
5.3829901857
 11
15.3740354104
 21
5.3809808458
  0
LINE
  5
669
100
AcDbEntity
  8
0
100
AcDbLine
 62
7
  6
CONTINUOUS
 10
15.0162304596
 20
5.4497287874
 11
15.0105850558
 21
5.4531103834
  0
LWPOLYLINE
  5
66A
100
AcDbEntity
  8
0
100
AcDbPolyline
 62
9
  6
CONTINUOUS
 90
5
 70
0
 10
14.619597411
 20
5.7410059963
 10
14.6124514307
 20
5.7461794176
 10
14.6074788225
 20
5.7521408884
 10
14.6049284462
 20
5.7585921094
 10
14.6046066625
 20
5.7619003848
  0
LWPOLYLINE
  5
66B
100
AcDbEntity
  8
0
100
AcDbPolyline
 62
7
  6
CONTINUOUS
 90
3
 70
0
 10
14.9366220156
 20
5.4958119985
 10
14.9583720075
 20
5.4799357889
 10
14.9703619393
 20
5.4725985875
  0
LWPOLYLINE
  5
66C
100
AcDbEntity
  8
0
100
AcDbPolyline
 62
7
  6
CONTINUOUS
 90
3
 70
0
 10
14.9446845122
 20
5.491034925
 10
14.9657002191
 20
5.4756927901
 10
14.9704696492
 20
5.4727746281
  0
LWPOLYLINE
  5
66D
100
AcDbEntity
  8
0
100
AcDbPolyline
 62
7
  6
CONTINUOUS
 90
6
 70
0
 10
14.6277514375
 20
5.7229829207
 10
14.6182681164
 20
5.7301131348
 10
14.6111892596
 20
5.7388851915
 10
14.6066045221
 20
5.7488888537
 10
14.6046522039
 20
5.7599147924
 10
14.6046066641
 20
5.7619076695
  0
LWPOLYLINE
  5
66E
100
AcDbEntity
  8
0
100
AcDbPolyline
 62
9
  6
CONTINUOUS
 90
4
 70
0
 10
14.6277512285
 20
5.7229830414
 10
14.6233271187
 20
5.7270863988
 10
14.6205460001
 20
5.7332336917
 10
14.6195974111
 20
5.7410059962
  0
LWPOLYLINE
  5
66F
100
AcDbEntity
  8
0
100
AcDbPolyline
 62
9
  6
CONTINUOUS
 90
4
 70
0
 10
15.2624798541
 20
5.3565305888
 10
15.2580555088
 20
5.3606341039
 10
15.2552744076
 20
5.3667813901
 10
15.2543258257
 20
5.3745536654
  0
LINE
  5
670
100
AcDbEntity
  8
02___PRT_ALL_AXES
100
AcDbLine
 62
3
  6
CONTINUOUS
 10
14.9448330756
 20
5.4655814216
 11
14.9266605737
 21
5.4830454232
  0
LINE
  5
671
100
AcDbEntity
  8
02___PRT_ALL_AXES
100
AcDbLine
 62
7
  6
CONTINUOUS
 10
14.9608095054
 20
5.5055901012
 11
14.944121379
 21
5.5219099229
  0
LINE
  5
672
100
AcDbEntity
  8
0
100
AcDbLine
 62
9
  6
CONTINUOUS
 10
14.918117028
 20
5.4282739765
 11
14.9038238864
 21
5.4518544606
  0
LWPOLYLINE
  5
673
100
AcDbEntity
  8
0
100
AcDbPolyline
 62
7
  6
CONTINUOUS
 90
5
 70
0
 10
14.6046066628
 20
9.3670446093
 10
14.6049060494
 20
9.3708014469
 10
14.6075661224
 20
9.3786485744
 10
14.613181664
 20
9.3860937565
 10
14.6216356133
 20
9.3924478446
  0
LINE
  5
674
100
AcDbEntity
  8
0
100
AcDbLine
 62
7
  6
CONTINUOUS
 10
15.6211209162
 20
9.2809115616
 11
15.6140978507
 21
9.2657789231
  0
LINE
  5
675
100
AcDbEntity
  8
0
100
AcDbLine
 62
7
  6
CONTINUOUS
 10
15.6070747853
 20
9.2506462846
 11
15.6000517199
 21
9.2355136461
  0
LINE
  5
676
100
AcDbEntity
  8
0
100
AcDbLine
 62
7
  6
CONTINUOUS
 10
15.6211209162
 20
9.2580494939
 11
15.6140978507
 21
9.2429168554
  0
LWPOLYLINE
  5
677
100
AcDbEntity
  8
02___PRT_ALL_AXES
100
AcDbPolyline
 62
7
  6
CONTINUOUS
 90
3
 70
0
 10
15.6796727446
 20
9.4417506629
 10
15.6789404891
 20
9.4404081972
 10
15.6787803861
 20
9.4393843871
  0
LWPOLYLINE
  5
678
100
AcDbEntity
  8
02___PRT_ALL_AXES
100
AcDbPolyline
 62
7
  6
CONTINUOUS
 90
3
 70
0
 10
15.7128563274
 20
9.4699540231
 10
15.7135885828
 20
9.4712964888
 10
15.7137486859
 20
9.4723202989
  0
LWPOLYLINE
  5
679
100
AcDbEntity
  8
0
100
AcDbPolyline
 62
7
  6
CONTINUOUS
 90
4
 70
0
 10
15.6511269879
 20
5.7069988767
 10
15.6534508429
 20
5.7069017594
 10
15.6765548255
 20
5.7031191422
 10
15.6976314776
 20
5.6967816308
  0
LWPOLYLINE
  5
67A
100
AcDbEntity
  8
0
100
AcDbPolyline
 62
3
  6
CONTINUOUS
 90
3
 70
0
 10
14.9052731522
 20
5.445173228
 10
14.9044313686
 20
5.4474351033
 10
14.9038238864
 20
5.4518544606
  0
LINE
  5
67B
100
AcDbEntity
  8
0
100
AcDbLine
 62
7
  6
CONTINUOUS
 10
14.6046066625
 20
9.3670478656
 11
14.6046066625
 21
9.2143554845
  0
LINE
  5
67C
100
AcDbEntity
  8
0
100
AcDbLine
 62
7
  6
CONTINUOUS
 10
14.6046066625
 20
6.32445126
 11
14.6046066625
 21
5.7619003821
  0
LINE
  5
67D
100
AcDbEntity
  8
0
100
AcDbLine
 62
7
  6
CONTINUOUS
 10
14.6046066625
 20
6.3405241423
 11
14.6046066625
 21
9.1982826022
  0
LINE
  5
67E
100
AcDbEntity
  8
02___PRT_ALL_AXES
100
AcDbLine
 62
9
  6
CONTINUOUS
 10
14.619597411
 20
9.3461534798
 11
14.619597411
 21
9.1934610986
  0
LINE
  5
67F
100
AcDbEntity
  8
02___PRT_ALL_AXES
100
AcDbLine
 62
9
  6
CONTINUOUS
 10
14.619597411
 20
6.3035568742
 11
14.619597411
 21
5.7410059963
  0
LINE
  5
680
100
AcDbEntity
  8
0
100
AcDbLine
 62
9
  6
CONTINUOUS
 10
14.619597411
 20
6.3196297564
 11
14.619597411
 21
9.1773882164
  0
LINE
  5
681
100
AcDbEntity
  8
0
100
AcDbLine
 62
9
  6
CONTINUOUS
 10
14.6771412866
 20
9.1441659959
 11
14.6771412866
 21
6.286407536
  0
LINE
  5
682
100
AcDbEntity
  8
0
100
AcDbLine
 62
7
  6
CONTINUOUS
 10
14.7026806353
 20
6.2925151257
 11
14.7026806353
 21
9.1454940619
  0
LWPOLYLINE
  5
683
100
AcDbEntity
  8
02___PRT_ALL_AXES
100
AcDbPolyline
 62
7
  6
CONTINUOUS
 90
3
 70
0
 10
14.6046096914
 20
6.3244512606
 10
14.6049284547
 20
6.3277595762
 10
14.6067395824
 20
6.3323409127
  0
LWPOLYLINE
  5
684
100
AcDbEntity
  8
DEFAULT_2
100
AcDbPolyline
 62
8
  6
HIDDEN
 90
7
 70
0
 10
15.609656989
 20
9.4183732433
 10
15.6092864187
 20
9.4173237214
 10
15.6089023164
 20
9.4160939396
 10
15.6085703712
 20
9.4148591069
 10
15.6083275105
 20
9.4137972175
 10
15.6080929303
 20
9.4125549623
 10
15.6079101927
 20
9.4113033719
  0
LINE
  5
685
100
AcDbEntity
  8
DEFAULT_2
100
AcDbLine
 62
8
  6
HIDDEN
 10
15.6097646878
 20
9.4186587667
 11
15.609656989
 21
9.4183732434
  0
LINE
  5
686
100
AcDbEntity
  8
02___PRT_ALL_AXES
100
AcDbLine
 62
7
  6
CONTINUOUS
 10
15.6978926518
 20
9.4374763781
 11
15.6984211062
 21
9.438850371
  0
LINE
  5
687
100
AcDbEntity
  8
0
100
AcDbLine
 62
7
  6
CONTINUOUS
 10
15.6454502844
 20
9.2284906811
 11
15.6525082354
 21
9.2436984878
  0
LINE
  5
688
100
AcDbEntity
  8
0
100
AcDbLine
 62
7
  6
CONTINUOUS
 10
15.6594964152
 20
9.2587559581
 11
15.6665194806
 21
9.2738885966
  0
LWPOLYLINE
  5
689
100
AcDbEntity
  8
0
100
AcDbPolyline
 62
7
  6
CONTINUOUS
 90
5
 70
0
 10
15.6482442096
 20
9.08819007
 10
15.6495912763
 20
9.0909080154
 10
15.6505802695
 20
9.0938400348
 10
15.6510863129
 20
9.0968351312
 10
15.6511269608
 20
9.0978634737
  0
LWPOLYLINE
  5
68A
100
AcDbEntity
  8
0
100
AcDbPolyline
 62
7
  6
CONTINUOUS
 90
7
 70
0
 10
14.6771412866
 20
6.286407536
 10
14.6819153125
 20
6.2845543771
 10
14.6875163884
 20
6.2838785255
 10
14.6932020295
 20
6.2844784946
 10
14.6980191442
 20
6.2862502814
 10
14.7013637883
 20
6.2889717488
 10
14.7026796741
 20
6.2925063807
  0
LWPOLYLINE
  5
68B
100
AcDbEntity
  8
0
100
AcDbPolyline
 62
7
  6
CONTINUOUS
 90
5
 70
0
 10
15.7908680903
 20
5.6448890565
 10
15.7977072788
 20
5.6418763715
 10
15.8042789339
 20
5.6407405328
 10
15.8102282692
 20
5.6413279333
 10
15.8154742179
 20
5.6434267609
  0
LINE
  5
68C
100
AcDbEntity
  8
0
100
AcDbLine
 62
9
  6
CONTINUOUS
 10
15.7934845458
 20
5.6473141611
 11
15.7888295832
 21
5.6493948256
  0
LINE
  5
68D
100
AcDbEntity
  8
0
100
AcDbLine
 62
7
  6
CONTINUOUS
 10
15.6976314776
 20
5.6967816308
 11
15.7157028834
 21
5.6882847272
  0
LWPOLYLINE
  5
68E
100
AcDbEntity
  8
0
100
AcDbPolyline
 62
9
  6
CONTINUOUS
 90
5
 70
0
 10
15.7136643762
 20
5.6927904964
 10
15.6962306816
 20
5.7010390082
 10
15.6764160013
 20
5.7071289747
 10
15.6550009939
 20
5.7108538148
 10
15.6511269879
 20
5.7110705534
  0
LINE
  5
68F
100
AcDbEntity
  8
0
100
AcDbLine
 62
7
  6
CONTINUOUS
 10
15.6482442096
 20
5.7402087022
 11
15.6511269608
 21
5.7385448398
  0
LINE
  5
690
100
AcDbEntity
  8
02___PRT_ALL_AXES
100
AcDbLine
 62
7
  6
CONTINUOUS
 10
14.619597411
 20
6.3035568742
 11
15.2543258257
 21
5.9371045434
  0
LINE
  5
691
100
AcDbEntity
  8
0
100
AcDbLine
 62
7
  6
CONTINUOUS
 10
15.2543258257
 20
5.9531774256
 11
15.1967819502
 21
5.9863996461
  0
LINE
  5
692
100
AcDbEntity
  8
0
100
AcDbLine
 62
7
  6
CONTINUOUS
 10
14.6771412866
 20
6.286407536
 11
14.619597411
 21
6.3196297564
  0
LINE
  5
693
100
AcDbEntity
  8
0
100
AcDbLine
 62
7
  6
CONTINUOUS
 10
15.7908680903
 20
5.6448890565
 11
15.7157028834
 21
5.6882847272
  0
LINE
  5
694
100
AcDbEntity
  8
0
100
AcDbLine
 62
9
  6
CONTINUOUS
 10
15.7888295832
 20
5.6493948256
 11
15.7136643762
 21
5.6927904964
  0
LWPOLYLINE
  5
695
100
AcDbEntity
  8
02___PRT_ALL_AXES
100
AcDbPolyline
 62
7
  6
CONTINUOUS
 90
5
 70
0
 10
14.619597411
 20
6.3035568742
 10
14.6124516004
 20
6.3087301396
 10
14.6074788459
 20
6.3146917277
 10
14.6049285024
 20
6.3211426994
 10
14.6046096914
 20
6.3244512606
  0
LWPOLYLINE
  5
696
100
AcDbEntity
  8
0
100
AcDbPolyline
 62
7
  6
CONTINUOUS
 90
4
 70
0
 10
14.619597411
 20
6.3196297564
 10
14.6115482269
 20
6.3256653674
 10
14.6063446397
 20
6.3328891873
 10
14.6046066641
 20
6.3405242506
  0
LWPOLYLINE
  5
697
100
AcDbEntity
  8
0
100
AcDbPolyline
 62
9
  6
CONTINUOUS
 90
6
 70
0
 10
14.6046066628
 20
9.3670446093
 10
14.6048912979
 20
9.3639358429
 10
14.606901622
 20
9.3582986999
 10
14.6104844514
 20
9.3532989407
 10
14.6149871956
 20
9.3492079153
 10
14.619597411
 20
9.3461534798
  0
LINE
  5
698
100
AcDbEntity
  8
0
100
AcDbLine
 62
3
  6
CONTINUOUS
 10
14.9038238864
 20
5.4518544606
 11
14.9038238864
 21
5.5603464156
  0
LINE
  5
699
100
AcDbEntity
  8
02___PRT_ALL_AXES
100
AcDbLine
 62
3
  6
CONTINUOUS
 10
14.9266605737
 20
5.5425150874
 11
14.9266605737
 21
5.4830454232
  0
LINE
  5
69A
100
AcDbEntity
  8
02___PRT_ALL_AXES
100
AcDbLine
 62
7
  6
CONTINUOUS
 10
14.9301720183
 20
5.4819534869
 11
14.9301720183
 21
5.4932045045
  0
LINE
  5
69B
100
AcDbEntity
  8
02___PRT_ALL_AXES
100
AcDbLine
 62
7
  6
CONTINUOUS
 10
14.944121379
 20
5.5219099229
 11
14.944121379
 21
5.4913685845
  0
LINE
  5
69C
100
AcDbEntity
  8
02___PRT_ALL_AXES
100
AcDbLine
 62
7
  6
CONTINUOUS
 10
14.9608095054
 20
5.4975536601
 11
14.9608095054
 21
5.5055901012
  0
LINE
  5
69D
100
AcDbEntity
  8
0
100
AcDbLine
 62
3
  6
CONTINUOUS
 10
14.9039195337
 20
5.5635408031
 11
14.9038238864
 21
5.5603464156
  0
LWPOLYLINE
  5
69E
100
AcDbEntity
  8
DEFAULT_2
100
AcDbPolyline
 62
8
  6
HIDDEN
 90
7
 70
0
 10
15.2585144205
 20
9.6128758465
 10
15.2584551911
 20
9.6123413787
 10
15.2584056592
 20
9.6118065822
 10
15.25836583
 20
9.6112715155
 10
15.258335708
 20
9.6107362374
 10
15.2583152965
 20
9.6102008064
 10
15.2583045259
 20
9.6096586262
  0
LINE
  5
69F
100
AcDbEntity
  8
DEFAULT_2
100
AcDbLine
 62
8
  6
HIDDEN
 10
15.2585311749
 20
9.6130128786
 11
15.2585144205
 21
9.6128758465
  0
LINE
  5
6A0
100
AcDbEntity
  8
0
100
AcDbLine
 62
7
  6
CONTINUOUS
 10
15.5417793075
 20
9.6446864642
 11
15.5435230234
 21
9.652333691
  0
LWPOLYLINE
  5
6A1
100
AcDbEntity
  8
0
100
AcDbPolyline
 62
9
  6
CONTINUOUS
 90
3
 70
0
 10
15.7157027682
 20
5.6882847937
 10
15.7141941324
 20
5.6900209873
 10
15.7136643763
 20
5.6927904964
  0
LWPOLYLINE
  5
6A2
100
AcDbEntity
  8
0
100
AcDbPolyline
 62
7
  6
CONTINUOUS
 90
3
 70
0
 10
15.1924005852
 20
5.9925040957
 10
15.1935720993
 20
5.9891558764
 10
15.1967819502
 20
5.9863996461
  0
LINE
  5
6A3
100
AcDbEntity
  8
0
100
AcDbLine
 62
9
  6
CONTINUOUS
 10
15.3779694306
 20
5.3645522925
 11
15.3740339445
 21
5.3764682888
  0
LINE
  5
6A4
100
AcDbEntity
  8
0
100
AcDbLine
 62
9
  6
CONTINUOUS
 10
15.3721919906
 20
5.3820454185
 11
15.3720361524
 21
5.3825172706
  0
LINE
  5
6A5
100
AcDbEntity
  8
0
100
AcDbLine
 62
3
  6
CONTINUOUS
 10
15.1085914439
 20
5.4421887873
 11
15.1082441945
 21
5.4455765739
  0
LINE
  5
6A6
100
AcDbEntity
  8
0
100
AcDbLine
 62
7
  6
CONTINUOUS
 10
15.113726677
 20
5.343662325
 11
15.1136759996
 21
5.3446761724
  0
LINE
  5
6A7
100
AcDbEntity
  8
02___PRT_ALL_AXES
100
AcDbLine
 62
7
  6
CONTINUOUS
 10
15.0060687328
 20
5.4381354897
 11
15.0060687328
 21
5.4493865072
  0
LINE
  5
6A8
100
AcDbEntity
  8
02___PRT_ALL_AXES
100
AcDbLine
 62
7
  6
CONTINUOUS
 10
15.0275212672
 20
5.4590384778
 11
15.0275212672
 21
5.4670749189
  0
LINE
  5
6A9
100
AcDbEntity
  8
02___PRT_ALL_AXES
100
AcDbLine
 62
7
  6
CONTINUOUS
 10
15.0320375903
 20
5.4655355765
 11
15.0320375903
 21
5.4225801484
  0
LINE
  5
6AA
100
AcDbEntity
  8
02___PRT_ALL_AXES
100
AcDbLine
 62
3
  6
CONTINUOUS
 10
15.0497192481
 20
5.4714687359
 11
15.0497192481
 21
5.4119990717
  0
LINE
  5
6AB
100
AcDbEntity
  8
02___PRT_ALL_AXES
100
AcDbLine
 62
7
  6
CONTINUOUS
 10
15.0583344121
 20
5.3350681665
 11
15.0583344121
 21
3.6266205733
  0
LINE
  5
6AC
100
AcDbEntity
  8
0
100
AcDbLine
 62
7
  6
CONTINUOUS
 10
15.1059734053
 20
9.5399507563
 11
15.1059734053
 21
9.5258858726
  0
LINE
  5
6AD
100
AcDbEntity
  8
0
100
AcDbLine
 62
3
  6
CONTINUOUS
 10
15.1085914439
 20
5.3336968323
 11
15.1085914439
 21
5.4421887873
  0
LINE
  5
6AE
100
AcDbEntity
  8
0
100
AcDbLine
 62
7
  6
CONTINUOUS
 10
15.1129964707
 20
9.5550833948
 11
15.1129964707
 21
9.5322213271
  0
LINE
  5
6AF
100
AcDbEntity
  8
0
100
AcDbLine
 62
7
  6
CONTINUOUS
 10
15.1136357288
 20
9.5993075366
 11
15.1136357288
 21
9.6708199498
  0
LINE
  5
6B0
100
AcDbEntity
  8
0
100
AcDbLine
 62
7
  6
CONTINUOUS
 10
15.1136759996
 20
5.3446761724
 11
15.1136759996
 21
5.4424405907
  0
LINE
  5
6B1
100
AcDbEntity
  8
0
100
AcDbLine
 62
7
  6
CONTINUOUS
 10
15.1136766025
 20
5.3245864097
 11
15.1136766025
 21
5.3406592919
  0
LINE
  5
6B2
100
AcDbEntity
  8
0
100
AcDbLine
 62
9
  6
CONTINUOUS
 10
15.116518565
 20
9.5976884051
 11
15.116518565
 21
9.6668017987
  0
LINE
  5
6B3
100
AcDbEntity
  8
0
100
AcDbLine
 62
7
  6
CONTINUOUS
 10
15.1200195361
 20
9.5702160333
 11
15.1200195361
 21
9.5473539656
  0
LINE
  5
6B4
100
AcDbEntity
  8
0
100
AcDbLine
 62
7
  6
CONTINUOUS
 10
15.1392072857
 20
9.5591382316
 11
15.1392072857
 21
9.5362761639
  0
LINE
  5
6B5
100
AcDbEntity
  8
0
100
AcDbLine
 62
7
  6
CONTINUOUS
 10
15.1583950352
 20
9.5480604298
 11
15.1583950352
 21
9.5340654104
  0
LWPOLYLINE
  5
6B6
100
AcDbEntity
  8
0
100
AcDbPolyline
 62
7
  6
CONTINUOUS
 90
15
 70
0
 10
15.2701138647
 20
9.6334525263
 10
15.2709458593
 20
9.6421016259
 10
15.273471381
 20
9.6506411771
 10
15.2778858244
 20
9.6591119774
 10
15.2842094521
 20
9.667067973
 10
15.2924388746
 20
9.6742352619
 10
15.3024173751
 20
9.6803132546
 10
15.3136040213
 20
9.6849785372
 10
15.3253965744
 20
9.6881330255
 10
15.3374616031
 20
9.689855549
 10
15.3495956251
 20
9.6902230962
 10
15.3616341563
 20
9.6892686224
 10
15.3734098218
 20
9.6869792272
 10
15.3846663179
 20
9.6833251418
 10
15.3950555277
 20
9.6783114126
  0
LWPOLYLINE
  5
6B7
100
AcDbEntity
  8
DEFAULT_2
100
AcDbPolyline
 62
8
  6
HIDDEN
 90
7
 70
0
 10
15.435467695
 20
9.6095150983
 10
15.4347682555
 20
9.6029267749
 10
15.4325263902
 20
9.5962726626
 10
15.4288972767
 20
9.590013346
 10
15.4237488016
 20
9.5839209625
 10
15.4172499216
 20
9.5782752203
 10
15.4095231903
 20
9.5731801438
  0
LINE
  5
6B8
100
AcDbEntity
  8
0
100
AcDbLine
 62
7
  6
CONTINUOUS
 10
15.5134532638
 20
9.7914988568
 11
15.5006938441
 21
9.6957313941
  0
LWPOLYLINE
  5
6B9
100
AcDbEntity
  8
0
100
AcDbPolyline
 62
9
  6
CONTINUOUS
 90
13
 70
0
 10
15.51875882
 20
9.2754367484
 10
15.5209708456
 20
9.2883492873
 10
15.5274687316
 20
9.3006885501
 10
15.5380110951
 20
9.312067446
 10
15.5521952355
 20
9.3220447137
 10
15.5694750511
 20
9.3302347977
 10
15.5891826701
 20
9.3363224355
 10
15.6105538846
 20
9.3400751946
 10
15.6327676096
 20
9.3413536836
 10
15.6549875983
 20
9.3401121448
 10
15.6764066295
 20
9.33638801
 10
15.6962264556
 20
9.3302974403
 10
15.7136643762
 20
9.3220473032
  0
LWPOLYLINE
  5
6BA
100
AcDbEntity
  8
02___PRT_ALL_AXES
100
AcDbPolyline
 62
7
  6
CONTINUOUS
 90
3
 70
0
 10
15.7366033027
 20
9.2018722744
 10
15.7393184307
 20
9.2131100673
 10
15.7394320484
 20
9.2159494904
  0
LWPOLYLINE
  5
6BB
100
AcDbEntity
  8
0
100
AcDbPolyline
 62
9
  6
CONTINUOUS
 90
3
 70
0
 10
15.7908680273
 20
5.6448890928
 10
15.7893593576
 20
5.6466252763
 10
15.7888295832
 20
5.6493948256
  0
LWPOLYLINE
  5
6BC
100
AcDbEntity
  8
0
100
AcDbPolyline
 62
7
  6
CONTINUOUS
 90
4
 70
0
 10
14.6046066641
 20
9.1982827106
 10
14.6063446397
 20
9.1906476472
 10
14.6115482269
 20
9.1834238273
 10
14.619597411
 20
9.1773882164
  0
LWPOLYLINE
  5
6BD
100
AcDbEntity
  8
0
100
AcDbPolyline
 62
9
  6
CONTINUOUS
 90
7
 70
0
 10
15.2701138647
 20
9.6334524943
 10
15.2701675787
 20
9.6317947865
 10
15.2714523078
 20
9.6252121435
 10
15.2744220642
 20
9.6188133524
 10
15.2790107116
 20
9.6127413327
 10
15.2851145546
 20
9.6071328542
 10
15.2925999874
 20
9.6021109476
  0
LINE
  5
6BE
100
AcDbEntity
  8
0
100
AcDbLine
 62
9
  6
CONTINUOUS
 10
15.2460038698
 20
9.5647864838
 11
15.2460038967
 21
9.5647412238
  0
LINE
  5
6BF
100
AcDbEntity
  8
0
100
AcDbLine
 62
7
  6
CONTINUOUS
 10
15.1924000391
 20
5.9925072358
 11
15.1924000391
 21
8.8502656957
  0
LINE
  5
6C0
100
AcDbEntity
  8
0
100
AcDbLine
 62
9
  6
CONTINUOUS
 10
15.1967819502
 20
8.844158106
 11
15.1967819502
 21
5.9863996461
  0
LINE
  5
6C1
100
AcDbEntity
  8
0
100
AcDbLine
 62
9
  6
CONTINUOUS
 10
15.2125629962
 20
9.611351775
 11
15.2125629962
 21
9.5486486623
  0
LINE
  5
6C2
100
AcDbEntity
  8
02___PRT_ALL_AXES
100
AcDbLine
 62
9
  6
CONTINUOUS
 10
15.2543258257
 20
8.979701149
 11
15.2543258257
 21
8.8270087678
  0
LINE
  5
6C3
100
AcDbEntity
  8
02___PRT_ALL_AXES
100
AcDbLine
 62
9
  6
CONTINUOUS
 10
15.2543258257
 20
5.9371045434
 11
15.2543258257
 21
5.3745536654
  0
LINE
  5
6C4
100
AcDbEntity
  8
0
100
AcDbLine
 62
9
  6
CONTINUOUS
 10
15.2543258257
 20
5.9531774256
 11
15.2543258257
 21
8.8109358856
  0
LINE
  5
6C5
100
AcDbEntity
  8
02___PRT_ALL_AXES
100
AcDbLine
 62
7
  6
CONTINUOUS
 10
15.2701138647
 20
9.6334525263
 11
15.2701138647
 21
9.609343203
  0
LINE
  5
6C6
100
AcDbEntity
  8
02___PRT_ALL_AXES
100
AcDbLine
 62
7
  6
CONTINUOUS
 10
15.3083344121
 20
5.337359444
 11
15.3083344121
 21
3.6266205733
  0
LINE
  5
6C7
100
AcDbEntity
  8
02___PRT_ALL_AXES
100
AcDbLine
 62
7
  6
CONTINUOUS
 10
15.3174368
 20
9.6475095796
 11
15.3174368
 21
9.6588067867
  0
LINE
  5
6C8
100
AcDbEntity
  8
02___PRT_ALL_AXES
100
AcDbLine
 62
7
  6
CONTINUOUS
 10
15.3239277188
 20
9.6484755172
 11
15.3239277188
 21
9.6619739989
  0
LINE
  5
6C9
100
AcDbEntity
  8
02___PRT_ALL_AXES
100
AcDbLine
 62
9
  6
CONTINUOUS
 10
15.3267068348
 20
8.9797013229
 11
15.3267068348
 21
8.8270089418
  0
LINE
  5
6CA
100
AcDbEntity
  8
02___PRT_ALL_AXES
100
AcDbLine
 62
9
  6
CONTINUOUS
 10
15.3267068348
 20
5.9371047174
 11
15.3267068348
 21
5.3745538394
  0
LINE
  5
6CB
100
AcDbEntity
  8
0
100
AcDbLine
 62
9
  6
CONTINUOUS
 10
15.3267068348
 20
5.9531775996
 11
15.3267068348
 21
8.8109360596
  0
LINE
  5
6CC
100
AcDbEntity
  8
02___PRT_ALL_AXES
100
AcDbLine
 62
7
  6
CONTINUOUS
 10
15.3302937268
 20
9.6388322225
 11
15.3302937268
 21
9.6434601695
  0
LINE
  5
6CD
100
AcDbEntity
  8
02___PRT_ALL_AXES
100
AcDbLine
 62
7
  6
CONTINUOUS
 10
15.3315701322
 20
9.6376046615
 11
15.3315701322
 21
9.6455073963
  0
LINE
  5
6CE
100
AcDbEntity
  8
02___PRT_ALL_AXES
100
AcDbLine
 62
7
  6
CONTINUOUS
 10
15.3340285914
 20
9.6407627023
 11
15.3340285914
 21
9.6729084668
  0
LINE
  5
6CF
100
AcDbEntity
  8
02___PRT_ALL_AXES
100
AcDbLine
 62
7
  6
CONTINUOUS
 10
15.3448067692
 20
9.6418826878
 11
15.3448067692
 21
9.6740284522
  0
LINE
  5
6D0
100
AcDbEntity
  8
02___PRT_ALL_AXES
100
AcDbLine
 62
7
  6
CONTINUOUS
 10
15.3489642673
 20
9.6403575409
 11
15.3489642673
 21
9.6405598777
  0
LINE
  5
6D1
100
AcDbEntity
  8
02___PRT_ALL_AXES
100
AcDbLine
 62
7
  6
CONTINUOUS
 10
15.3622009042
 20
9.6408709228
 11
15.3622009042
 21
9.669616303
  0
LINE
  5
6D2
100
AcDbEntity
  8
02___PRT_ALL_AXES
100
AcDbLine
 62
7
  6
CONTINUOUS
 10
15.3698433176
 20
9.6399908143
 11
15.3698433176
 21
9.6531497004
  0
LINE
  5
6D3
100
AcDbEntity
  8
02___PRT_ALL_AXES
100
AcDbLine
 62
7
  6
CONTINUOUS
 10
15.3713105557
 20
9.6553135024
 11
15.3713105557
 21
9.6671411053
  0
LINE
  5
6D4
100
AcDbEntity
  8
02___PRT_ALL_AXES
100
AcDbLine
 62
7
  6
CONTINUOUS
 10
15.3734671259
 20
9.6409245385
 11
15.3734671259
 21
9.6501391334
  0
LINE
  5
6D5
100
AcDbEntity
  8
0
100
AcDbLine
 62
7
  6
CONTINUOUS
 10
15.3740339445
 20
5.3649088101
 11
15.3740339445
 21
5.3809816923
  0
LINE
  5
6D6
100
AcDbEntity
  8
0
100
AcDbLine
 62
7
  6
CONTINUOUS
 10
15.3740359823
 20
5.3849993965
 11
15.3740359823
 21
5.388563798
  0
LINE
  5
6D7
100
AcDbEntity
  8
0
100
AcDbLine
 62
3
  6
CONTINUOUS
 10
15.3879558049
 20
5.3769633574
 11
15.3879558049
 21
5.3966003634
  0
LWPOLYLINE
  5
6D8
100
AcDbEntity
  8
0
100
AcDbPolyline
 62
7
  6
CONTINUOUS
 90
15
 70
0
 10
15.6194928824
 20
9.4317430196
 10
15.620324877
 20
9.4403921193
 10
15.6228503987
 20
9.4489316704
 10
15.6272648422
 20
9.4574024708
 10
15.6335884698
 20
9.4653584664
 10
15.6418178923
 20
9.4725257553
 10
15.6517963928
 20
9.478603748
 10
15.662983039
 20
9.4832690305
 10
15.6747755921
 20
9.4864235188
 10
15.6868406209
 20
9.4881460423
 10
15.6989746429
 20
9.4885135895
 10
15.711013174
 20
9.4875591158
 10
15.7227888396
 20
9.4852697205
 10
15.7340453357
 20
9.4816156352
 10
15.7444345454
 20
9.4766019059
  0
LWPOLYLINE
  5
6D9
100
AcDbEntity
  8
0
100
AcDbPolyline
 62
7
  6
CONTINUOUS
 90
4
 70
0
 10
15.5435301959
 20
9.6523340241
 10
15.5432114203
 20
9.6490781097
 10
15.5406549424
 20
9.6425810356
 10
15.5376774281
 20
9.639022429
  0
LWPOLYLINE
  5
6DA
100
AcDbEntity
  8
DEFAULT_2
100
AcDbPolyline
 62
8
  6
HIDDEN
 90
7
 70
0
 10
15.6078934382
 20
9.4111663398
 10
15.6078342089
 20
9.4106318721
 10
15.6077846769
 20
9.4100970755
 10
15.6077448477
 20
9.4095620088
 10
15.6077147257
 20
9.4090267307
 10
15.6076943142
 20
9.4084912998
 10
15.6076835436
 20
9.4079491195
  0
LINE
  5
6DB
100
AcDbEntity
  8
0
100
AcDbLine
 62
9
  6
CONTINUOUS
 10
15.1122392114
 20
5.3233973537
 11
15.1136766025
 21
5.3361440836
  0
LINE
  5
6DC
100
AcDbEntity
  8
0
100
AcDbLine
 62
9
  6
CONTINUOUS
 10
15.1143496462
 20
5.3421126093
 11
15.1144065155
 21
5.3426169237
  0
LINE
  5
6DD
100
AcDbEntity
  8
DEFAULT_2
100
AcDbLine
 62
8
  6
HIDDEN
 10
15.6079101927
 20
9.4113033719
 11
15.6078934382
 21
9.4111663398
  0
LWPOLYLINE
  5
6DE
100
AcDbEntity
  8
02___PRT_ALL_AXES
100
AcDbPolyline
 62
7
  6
CONTINUOUS
 90
18
 70
0
 10
15.2583037029
 20
9.6093432033
 10
15.2585285659
 20
9.6056945263
 10
15.2603273113
 20
9.5984718743
 10
15.2638881321
 20
9.5914705312
 10
15.2691385404
 20
9.5848330241
 10
15.2759716529
 20
9.5786944736
 10
15.2842483673
 20
9.5731798429
 10
15.2938001934
 20
9.5684013938
 10
15.3044326836
 20
9.564456402
 10
15.3159293912
 20
9.561425176
 10
15.3280562762
 20
9.5593694228
 10
15.3405664703
 20
9.5583309916
 10
15.3532053019
 20
9.558331022
 10
15.365715481
 20
9.5593695133
 10
15.3778423364
 20
9.5614253248
 10
15.3893390002
 20
9.5644566061
 10
15.3999714335
 20
9.5684016491
 10
15.4095231907
 20
9.573180144
  0
LWPOLYLINE
  5
6DF
100
AcDbEntity
  8
02___PRT_ALL_AXES
100
AcDbPolyline
 62
7
  6
CONTINUOUS
 90
5
 70
0
 10
15.4354673335
 20
9.6093432026
 10
15.4352424706
 20
9.6129918796
 10
15.4334437252
 20
9.6202145316
 10
15.4298829044
 20
9.6272158747
 10
15.4246324961
 20
9.6338533818
  0
LWPOLYLINE
  5
6E0
100
AcDbEntity
  8
02___PRT_ALL_AXES
100
AcDbPolyline
 62
7
  6
CONTINUOUS
 90
13
 70
0
 10
15.3294013683
 20
9.6410938938
 10
15.3294231689
 20
9.6407125113
 10
15.3298873039
 20
9.6393307962
 10
15.3309254031
 20
9.6380573224
 10
15.3324737822
 20
9.6369702138
 10
15.334437453
 20
9.6361361609
 10
15.3366959504
 20
9.6356063305
 10
15.3391107224
 20
9.635413226
 10
15.3415336302
 20
9.6355686938
 10
15.3438160359
 20
9.6360631963
 10
15.345817921
 20
9.6368663974
 10
15.3474164758
 20
9.6379290232
 10
15.3485136341
 20
9.6391858848
  0
LWPOLYLINE
  5
6E1
100
AcDbEntity
  8
02___PRT_ALL_AXES
100
AcDbPolyline
 62
7
  6
CONTINUOUS
 90
14
 70
0
 10
15.3643696681
 20
9.6740298055
 10
15.3643478675
 20
9.674411188
 10
15.3638837325
 20
9.6757929031
 10
15.3628456334
 20
9.6770663769
 10
15.3612972543
 20
9.6781534855
 10
15.3593335834
 20
9.6789875384
 10
15.3570750861
 20
9.6795173688
 10
15.3546603141
 20
9.6797104733
 10
15.3522374062
 20
9.6795550055
 10
15.3499550005
 20
9.679060503
 10
15.3479531155
 20
9.6782573019
 10
15.3463545606
 20
9.6771946761
 10
15.3452574024
 20
9.6759378145
 10
15.344728948
 20
9.6745638216
  0
LINE
  5
6E2
100
AcDbEntity
  8
02___PRT_ALL_AXES
100
AcDbLine
 62
7
  6
CONTINUOUS
 10
15.4236571718
 20
9.6334525263
 11
15.4236571718
 21
9.609343203
  0
LINE
  5
6E3
100
AcDbEntity
  8
0
100
AcDbLine
 62
7
  6
CONTINUOUS
 10
15.4533674868
 20
9.8355644252
 11
15.4533676027
 21
9.6876976283
  0
LINE
  5
6E4
100
AcDbEntity
  8
0
100
AcDbLine
 62
7
  6
CONTINUOUS
 10
15.5006938441
 20
9.6957313941
 11
15.5006938441
 21
9.6603744282
  0
LINE
  5
6E5
100
AcDbEntity
  8
0
100
AcDbLine
 62
9
  6
CONTINUOUS
 10
15.5285325779
 20
9.8002048509
 11
15.5285325779
 21
9.6443020913
  0
LINE
  5
6E6
100
AcDbEntity
  8
0
100
AcDbLine
 62
7
  6
CONTINUOUS
 10
15.543523025
 20
9.6356475484
 11
15.543523025
 21
9.8210990627
  0
LINE
  5
6E7
100
AcDbEntity
  8
0
100
AcDbLine
 62
7
  6
CONTINUOUS
 10
15.6070747853
 20
9.2506462846
 11
15.6070747853
 21
9.2365814008
  0
LINE
  5
6E8
100
AcDbEntity
  8
0
100
AcDbLine
 62
7
  6
CONTINUOUS
 10
15.6140978507
 20
9.2657789231
 11
15.6140978507
 21
9.2429168554
  0
LINE
  5
6E9
100
AcDbEntity
  8
02___PRT_ALL_AXES
100
AcDbLine
 62
7
  6
CONTINUOUS
 10
15.6194928824
 20
9.4317430196
 11
15.6194928824
 21
9.4076336963
  0
LINE
  5
6EA
100
AcDbEntity
  8
0
100
AcDbLine
 62
7
  6
CONTINUOUS
 10
15.6211209162
 20
9.2809115616
 11
15.6211209162
 21
9.2580494939
  0
LWPOLYLINE
  5
6EB
100
AcDbEntity
  8
02___PRT_ALL_AXES
100
AcDbPolyline
 62
7
  6
CONTINUOUS
 90
18
 70
0
 10
15.3083331959
 20
3.6266205727
 10
15.3080159635
 20
3.6214724845
 10
15.3054778809
 20
3.6112805078
 10
15.3004533095
 20
3.6014008106
 10
15.2930445352
 20
3.592034515
 10
15.283402379
 20
3.5833722918
 10
15.2717231277
 20
3.5755904789
 10
15.258244537
 20
3.5688474916
 10
15.2432409922
 20
3.5632805977
 10
15.2270179221
 20
3.5590031229
 10
15.2099055818
 20
3.5561021445
 10
15.1922523291
 20
3.5546367179
 10
15.1744175333
 20
3.5546366751
 10
15.1567642594
 20
3.5561020168
 10
15.1396518772
 20
3.5590029129
 10
15.1234287455
 20
3.5632803097
 10
15.1084251204
 20
3.5688471315
 10
15.0949464324
 20
3.575590054
  0
LWPOLYLINE
  5
6EC
100
AcDbEntity
  8
DEFAULT_2
100
AcDbPolyline
 62
8
  6
HIDDEN
 90
7
 70
0
 10
15.7848467128
 20
9.4078055917
 10
15.7841472733
 20
9.4012172682
 10
15.781905408
 20
9.3945631559
 10
15.7782762945
 20
9.3883038393
 10
15.7731278193
 20
9.3822114558
 10
15.7666289393
 20
9.3765657136
 10
15.7589022081
 20
9.3714706371
  0
LINE
  5
6ED
100
AcDbEntity
  8
0
100
AcDbLine
 62
7
  6
CONTINUOUS
 10
15.8085462987
 20
9.6211306679
 11
15.7994988866
 21
9.5532241546
  0
LWPOLYLINE
  5
6EE
100
AcDbEntity
  8
0
100
AcDbPolyline
 62
9
  6
CONTINUOUS
 90
4
 70
0
 10
15.1136357288
 20
9.6708198286
 10
15.1137613689
 20
9.6699148948
 10
15.114724809
 20
9.668221751
 10
15.116518565
 20
9.6668017987
  0
LWPOLYLINE
  5
6EF
100
AcDbEntity
  8
02___PRT_ALL_AXES
100
AcDbPolyline
 62
7
  6
CONTINUOUS
 90
18
 70
0
 10
15.6076827207
 20
9.4076336967
 10
15.6079075836
 20
9.4039850196
 10
15.609706329
 20
9.3967623676
 10
15.6132671498
 20
9.3897610245
 10
15.6185175581
 20
9.3831235175
 10
15.6253506707
 20
9.376984967
 10
15.633627385
 20
9.3714703362
 10
15.6431792111
 20
9.3666918872
 10
15.6538117014
 20
9.3627468953
 10
15.6653084089
 20
9.3597156693
 10
15.6774352939
 20
9.3576599161
 10
15.689945488
 20
9.356621485
 10
15.7025843197
 20
9.3566215153
 10
15.7150944988
 20
9.3576600066
 10
15.7272213541
 20
9.3597158181
 10
15.7387180179
 20
9.3627470994
 10
15.7493504513
 20
9.3666921424
 10
15.7589022085
 20
9.3714706373
  0
LWPOLYLINE
  5
6F0
100
AcDbEntity
  8
02___PRT_ALL_AXES
100
AcDbPolyline
 62
7
  6
CONTINUOUS
 90
13
 70
0
 10
15.6787803861
 20
9.4393843871
 10
15.6788021867
 20
9.4390030046
 10
15.6792663216
 20
9.4376212895
 10
15.6803044208
 20
9.4363478158
 10
15.6818527999
 20
9.4352607071
 10
15.6838164708
 20
9.4344266543
 10
15.6860749681
 20
9.4338968239
 10
15.6884897401
 20
9.4337037194
 10
15.690912648
 20
9.4338591871
 10
15.6931950537
 20
9.4343536896
 10
15.6951969387
 20
9.4351568907
 10
15.6967954936
 20
9.4362195165
 10
15.6978926518
 20
9.4374763781
  0
LWPOLYLINE
  5
6F1
100
AcDbEntity
  8
0
100
AcDbPolyline
 62
9
  6
CONTINUOUS
 90
7
 70
0
 10
15.6194928824
 20
9.4317429877
 10
15.6195465964
 20
9.4300852799
 10
15.6208313255
 20
9.4235026369
 10
15.6238010819
 20
9.4171038458
 10
15.6283897294
 20
9.411031826
 10
15.6344935723
 20
9.4054233476
 10
15.6419790052
 20
9.4004014409
  0
LINE
  5
6F2
100
AcDbEntity
  8
0
100
AcDbLine
 62
7
  6
CONTINUOUS
 10
15.6403086657
 20
9.2698337598
 11
15.6403086657
 21
9.2469716922
  0
LINE
  5
6F3
100
AcDbEntity
  8
0
100
AcDbLine
 62
9
  6
CONTINUOUS
 10
15.6482442096
 20
5.5601924212
 11
15.6482442096
 21
5.7402087022
  0
LINE
  5
6F4
100
AcDbEntity
  8
0
100
AcDbLine
 62
9
  6
CONTINUOUS
 10
15.6482442096
 20
9.08819007
 11
15.6482442096
 21
9.1653399047
  0
LINE
  5
6F5
100
AcDbEntity
  8
0
100
AcDbLine
 62
7
  6
CONTINUOUS
 10
15.6511269879
 20
5.5642105389
 11
15.6511269879
 21
5.7385893983
  0
LINE
  5
6F6
100
AcDbEntity
  8
0
100
AcDbLine
 62
7
  6
CONTINUOUS
 10
15.6511269879
 20
9.0978456092
 11
15.6511269879
 21
9.1693580224
  0
LINE
  5
6F7
100
AcDbEntity
  8
0
100
AcDbLine
 62
7
  6
CONTINUOUS
 10
15.6594964152
 20
9.2587559581
 11
15.6594964152
 21
9.2447609387
  0
LINE
  5
6F8
100
AcDbEntity
  8
02___PRT_ALL_AXES
100
AcDbLine
 62
7
  6
CONTINUOUS
 10
15.6668158177
 20
9.4458000729
 11
15.6668158177
 21
9.45709728
  0
LINE
  5
6F9
100
AcDbEntity
  8
02___PRT_ALL_AXES
100
AcDbLine
 62
7
  6
CONTINUOUS
 10
15.6733067366
 20
9.4467660105
 11
15.6733067366
 21
9.4602644922
  0
LINE
  5
6FA
100
AcDbEntity
  8
02___PRT_ALL_AXES
100
AcDbLine
 62
7
  6
CONTINUOUS
 10
15.6796727446
 20
9.4371227158
 11
15.6796727446
 21
9.4417506629
  0
LINE
  5
6FB
100
AcDbEntity
  8
02___PRT_ALL_AXES
100
AcDbLine
 62
7
  6
CONTINUOUS
 10
15.68094915
 20
9.4358951549
 11
15.68094915
 21
9.4437978896
  0
LINE
  5
6FC
100
AcDbEntity
  8
02___PRT_ALL_AXES
100
AcDbLine
 62
7
  6
CONTINUOUS
 10
15.6834076091
 20
9.4390531957
 11
15.6834076091
 21
9.4711989601
  0
LINE
  5
6FD
100
AcDbEntity
  8
02___PRT_ALL_AXES
100
AcDbLine
 62
7
  6
CONTINUOUS
 10
15.6941857869
 20
9.4401731811
 11
15.6941857869
 21
9.4723189456
  0
LINE
  5
6FE
100
AcDbEntity
  8
02___PRT_ALL_AXES
100
AcDbLine
 62
7
  6
CONTINUOUS
 10
15.698343285
 20
9.4386480342
 11
15.698343285
 21
9.438850371
  0
LINE
  5
6FF
100
AcDbEntity
  8
02___PRT_ALL_AXES
100
AcDbLine
 62
7
  6
CONTINUOUS
 10
15.711579922
 20
9.4391614161
 11
15.711579922
 21
9.4679067963
  0
LINE
  5
700
100
AcDbEntity
  8
0
100
AcDbLine
 62
9
  6
CONTINUOUS
 10
15.7136643762
 20
9.3220473032
 11
15.7136643762
 21
9.2593441906
  0
LINE
  5
701
100
AcDbEntity
  8
0
100
AcDbLine
 62
9
  6
CONTINUOUS
 10
15.7136643762
 20
5.6927904964
 11
15.7136643762
 21
5.7445781791
  0
LINE
  5
702
100
AcDbEntity
  8
02___PRT_ALL_AXES
100
AcDbLine
 62
7
  6
CONTINUOUS
 10
15.7192223354
 20
9.4382813076
 11
15.7192223354
 21
9.4514401937
  0
LINE
  5
703
100
AcDbEntity
  8
02___PRT_ALL_AXES
100
AcDbLine
 62
7
  6
CONTINUOUS
 10
15.7206895734
 20
9.4536039958
 11
15.7206895734
 21
9.4654315987
  0
LINE
  5
704
100
AcDbEntity
  8
02___PRT_ALL_AXES
100
AcDbLine
 62
7
  6
CONTINUOUS
 10
15.7228461436
 20
9.4392150319
 11
15.7228461436
 21
9.4484296267
  0
LINE
  5
705
100
AcDbEntity
  8
02___PRT_ALL_AXES
100
AcDbLine
 62
7
  6
CONTINUOUS
 10
15.7394320484
 20
9.2063233567
 11
15.7394320484
 21
9.2159494904
  0
LINE
  5
706
100
AcDbEntity
  8
02___PRT_ALL_AXES
100
AcDbLine
 62
7
  6
CONTINUOUS
 10
15.7730361895
 20
9.4317430196
 11
15.7730361895
 21
9.4076336963
  0
LINE
  5
707
100
AcDbEntity
  8
0
100
AcDbLine
 62
9
  6
CONTINUOUS
 10
15.8097088074
 20
9.2665972795
 11
15.8097088074
 21
9.1974838859
  0
LINE
  5
708
100
AcDbEntity
  8
0
100
AcDbLine
 62
9
  6
CONTINUOUS
 10
15.8097088074
 20
5.8301009311
 11
15.8097088074
 21
5.6614498184
  0
LINE
  5
709
100
AcDbEntity
  8
0
100
AcDbLine
 62
9
  6
CONTINUOUS
 10
15.8236282322
 20
9.266597313
 11
15.8236282322
 21
9.1894474783
  0
LINE
  5
70A
100
AcDbEntity
  8
0
100
AcDbLine
 62
9
  6
CONTINUOUS
 10
15.8236282322
 20
5.8414661104
 11
15.8236282322
 21
5.6614498295
  0
LINE
  5
70B
100
AcDbEntity
  8
0
100
AcDbLine
 62
9
  6
CONTINUOUS
 10
15.7422723173
 20
5.7911666878
 11
15.7420154075
 21
5.7877693291
  0
LINE
  5
70C
100
AcDbEntity
  8
0
100
AcDbLine
 62
7
  6
CONTINUOUS
 10
15.6500536929
 20
5.5557357985
 11
15.6511269879
 21
5.5642105389
  0
LINE
  5
70D
100
AcDbEntity
  8
0
100
AcDbLine
 62
9
  6
CONTINUOUS
 10
15.1097561022
 20
5.4447036933
 11
15.1085914439
 21
5.4421887873
  0
LINE
  5
70E
100
AcDbEntity
  8
0
100
AcDbLine
 62
9
  6
CONTINUOUS
 10
15.1085914439
 20
5.3336968323
 11
15.1136759996
 21
5.3446761724
  0
LINE
  5
70F
100
AcDbEntity
  8
0
100
AcDbLine
 62
7
  6
CONTINUOUS
 10
15.1149471385
 20
5.3434027869
 11
15.1136759831
 21
5.3406579544
  0
LWPOLYLINE
  5
710
100
AcDbEntity
  8
0
100
AcDbPolyline
 62
7
  6
CONTINUOUS
 90
3
 70
0
 10
15.1149477579
 20
5.3434041249
 10
15.1146685818
 20
5.3428989539
 10
15.1144065155
 20
5.3426169237
  0
LINE
  5
711
100
AcDbEntity
  8
0
100
AcDbLine
 62
3
  6
CONTINUOUS
 10
15.1136766025
 20
5.3250307992
 11
15.1135575673
 21
5.3248153984
  0
LWPOLYLINE
  5
712
100
AcDbEntity
  8
DEFAULT_2
100
AcDbPolyline
 62
8
  6
HIDDEN
 90
13
 70
0
 10
15.2583045259
 20
9.6096586261
 10
15.2598854197
 20
9.5997191773
 10
15.2647801203
 20
9.5901463046
 10
15.2729721646
 20
9.5811555065
 10
15.2838629794
 20
9.5734037191
 10
15.2971543032
 20
9.5670208554
 10
15.3126248127
 20
9.5621807039
 10
15.3291441148
 20
9.5592369228
 10
15.3466483902
 20
9.5582008848
 10
15.3638586434
 20
9.5591482909
 10
15.3804223956
 20
9.5620076055
 10
15.3959664469
 20
9.5667685718
 10
15.409523189
 20
9.573180143
  0
LINE
  5
713
100
AcDbEntity
  8
02___PRT_ALL_AXES
100
AcDbLine
 62
7
  6
CONTINUOUS
 10
15.3489657232
 20
9.6411021938
 11
15.3490420885
 21
9.6405598777
  0
LINE
  5
714
100
AcDbEntity
  8
02___PRT_ALL_AXES
100
AcDbLine
 62
7
  6
CONTINUOUS
 10
15.3448053132
 20
9.6740215055
 11
15.344728948
 21
9.6745638216
  0
LWPOLYLINE
  5
715
100
AcDbEntity
  8
02___PRT_ALL_AXES
100
AcDbPolyline
 62
7
  6
CONTINUOUS
 90
5
 70
0
 10
15.7848463513
 20
9.4076336959
 10
15.7846214883
 20
9.411282373
 10
15.7828227429
 20
9.418505025
 10
15.7792619221
 20
9.4255063681
 10
15.7740115138
 20
9.4321438751
  0
LWPOLYLINE
  5
716
100
AcDbEntity
  8
02___PRT_ALL_AXES
100
AcDbPolyline
 62
7
  6
CONTINUOUS
 90
14
 70
0
 10
15.7137486859
 20
9.4723202989
 10
15.7137268853
 20
9.4727016813
 10
15.7132627503
 20
9.4740833964
 10
15.7122246511
 20
9.4753568702
 10
15.710676272
 20
9.4764439789
 10
15.7087126012
 20
9.4772780317
 10
15.7064541038
 20
9.4778078621
 10
15.7040393318
 20
9.4780009666
 10
15.701616424
 20
9.4778454989
 10
15.6993340183
 20
9.4773509963
 10
15.6973321332
 20
9.4765477952
 10
15.6957335784
 20
9.4754851694
 10
15.6946364201
 20
9.4742283078
 10
15.6941079657
 20
9.472854315
  0
LWPOLYLINE
  5
717
100
AcDbEntity
  8
02___PRT_ALL_AXES
100
AcDbPolyline
 62
7
  6
CONTINUOUS
 90
5
 70
0
 10
16.1531933418
 20
9.3164195738
 10
16.1528745786
 20
9.3131112582
 10
16.1503243281
 20
9.3066602742
 10
16.1453516597
 20
9.3006986622
 10
16.1382059236
 20
9.2955253625
  0
LWPOLYLINE
  5
718
100
AcDbEntity
  8
0
100
AcDbPolyline
 62
9
  6
CONTINUOUS
 90
7
 70
0
 10
15.8097088074
 20
5.6614498184
 10
15.8091840688
 20
5.6563815837
 10
15.8076389112
 20
5.6521789
 10
15.8051525465
 20
5.6490468264
 10
15.8018493974
 20
5.6471395839
 10
15.7978937635
 20
5.6465521056
 10
15.7934845458
 20
5.6473141611
  0
LWPOLYLINE
  5
719
100
AcDbEntity
  8
0
100
AcDbPolyline
 62
9
  6
CONTINUOUS
 90
5
 70
0
 10
15.8236282322
 20
5.6614498295
 10
15.8229301525
 20
5.6546992516
 10
15.8208713878
 20
5.6490941253
 10
15.8175547886
 20
5.644913904
 10
15.8154742191
 20
5.6434267616
  0
LWPOLYLINE
  5
71A
100
AcDbEntity
  8
0
100
AcDbPolyline
 62
7
  6
CONTINUOUS
 90
6
 70
0
 10
15.7421769107
 20
5.7911116051
 10
15.7410622807
 20
5.7816429883
 10
15.7368581669
 20
5.7701011703
 10
15.7296191221
 20
5.7588916136
 10
15.7192826645
 20
5.7484695287
 10
15.706218324
 20
5.7394208801
  0
LWPOLYLINE
  5
71B
100
AcDbEntity
  8
0
100
AcDbPolyline
 62
9
  6
CONTINUOUS
 90
5
 70
0
 10
15.7420154075
 20
5.7877693291
 10
15.7387010443
 20
5.7769169473
 10
15.7321729437
 20
5.766561717
 10
15.7226294587
 20
5.7570182767
 10
15.7103605633
 20
5.7485765989
  0
LINE
  5
71C
100
AcDbEntity
  8
0
100
AcDbLine
 62
7
  6
CONTINUOUS
 10
16.1382059236
 20
6.4216940203
 11
15.3267068348
 21
5.9531775996
  0
LINE
  5
71D
100
AcDbEntity
  8
02___PRT_ALL_AXES
100
AcDbLine
 62
7
  6
CONTINUOUS
 10
15.3267068348
 20
5.9371047174
 11
16.1382059236
 21
6.4056211381
  0
LWPOLYLINE
  5
71E
100
AcDbEntity
  8
0
100
AcDbPolyline
 62
7
  6
CONTINUOUS
 90
7
 70
0
 10
15.3267068348
 20
5.9531775996
 10
15.3162527006
 20
5.9485304674
 10
15.3037404986
 20
5.9455262179
 10
15.290500135
 20
5.9445228121
 10
15.2772704173
 20
5.945529532
 10
15.2647817413
 20
5.9485297679
 10
15.2543258257
 20
5.9531774256
  0
LWPOLYLINE
  5
71F
100
AcDbEntity
  8
02___PRT_ALL_AXES
100
AcDbPolyline
 62
7
  6
CONTINUOUS
 90
3
 70
0
 10
16.1510644886
 20
6.4344023257
 10
16.1528745308
 20
6.4298239105
 10
16.1531933418
 20
6.4265153494
  0
LWPOLYLINE
  5
720
100
AcDbEntity
  8
0
100
AcDbPolyline
 62
7
  6
CONTINUOUS
 90
3
 70
0
 10
15.1924005852
 20
8.8502625556
 10
15.1935720993
 20
8.8469143364
 10
15.1967819502
 20
8.844158106
  0
LWPOLYLINE
  5
721
100
AcDbEntity
  8
02___PRT_ALL_AXES
100
AcDbPolyline
 62
7
  6
CONTINUOUS
 90
9
 70
0
 10
15.3085216352
 20
9.6531489003
 10
15.3088569848
 20
9.6516788012
 10
15.3097747099
 20
9.6503748802
 10
15.3112193688
 20
9.6492411774
 10
15.313102336
 20
9.6483472422
 10
15.3153080975
 20
9.6477479145
 10
15.3177013363
 20
9.6474799614
 10
15.3201352349
 20
9.6475598209
 10
15.3224604808
 20
9.6479825939
  0
LWPOLYLINE
  5
722
100
AcDbEntity
  8
02___PRT_ALL_AXES
100
AcDbPolyline
 62
7
  6
CONTINUOUS
 90
9
 70
0
 10
15.3852494012
 20
9.661974799
 10
15.3849140516
 20
9.6634448981
 10
15.3839963265
 20
9.6647488191
 10
15.3825516677
 20
9.6658825218
 10
15.3806687004
 20
9.6667764571
 10
15.378462939
 20
9.6673757848
 10
15.3760697001
 20
9.6676437379
 10
15.3736358016
 20
9.6675638784
 10
15.3713105557
 20
9.6671411053
  0
LWPOLYLINE
  5
723
100
AcDbEntity
  8
02___PRT_ALL_AXES
100
AcDbPolyline
 62
7
  6
CONTINUOUS
 90
5
 70
0
 10
15.3239266714
 20
9.6619723876
 10
15.3237807593
 20
9.6627073983
 10
15.3230824667
 20
9.6636760269
 10
15.3218807826
 20
9.6644630718
 10
15.3203039105
 20
9.6649845659
  0
LWPOLYLINE
  5
724
100
AcDbEntity
  8
02___PRT_ALL_AXES
100
AcDbPolyline
 62
7
  6
CONTINUOUS
 90
5
 70
0
 10
15.369844365
 20
9.6531513117
 10
15.3699902772
 20
9.652416301
 10
15.3706885697
 20
9.6514476724
 10
15.3718902538
 20
9.6506606274
 10
15.3734671259
 20
9.6501391334
  0
LWPOLYLINE
  5
725
100
AcDbEntity
  8
02___PRT_ALL_AXES
100
AcDbPolyline
 62
7
  6
CONTINUOUS
 90
5
 70
0
 10
15.3161640335
 20
9.6696175383
 10
15.3163756947
 20
9.6684433667
 10
15.3171703787
 20
9.6671127879
 10
15.318507119
 20
9.6659357858
 10
15.3203039105
 20
9.6649845659
  0
LWPOLYLINE
  5
726
100
AcDbEntity
  8
02___PRT_ALL_AXES
100
AcDbPolyline
 62
7
  6
CONTINUOUS
 90
5
 70
0
 10
15.377607003
 20
9.645506161
 10
15.3773953417
 20
9.6466803325
 10
15.3766006577
 20
9.6480109114
 10
15.3752639175
 20
9.6491879135
 10
15.3734671259
 20
9.6501391334
  0
LWPOLYLINE
  5
727
100
AcDbEntity
  8
0
100
AcDbPolyline
 62
7
  6
CONTINUOUS
 90
4
 70
0
 10
15.5187588469
 20
9.2753914884
 10
15.5205922134
 20
9.2647114596
 10
15.5266996591
 20
9.2532979137
 10
15.5366266918
 20
9.2427838899
  0
LWPOLYLINE
  5
728
100
AcDbEntity
  8
DEFAULT_2
100
AcDbPolyline
 62
8
  6
HIDDEN
 90
13
 70
0
 10
15.6076835436
 20
9.4079491194
 10
15.6092644375
 20
9.3980096706
 10
15.6141591381
 20
9.3884367979
 10
15.6223511823
 20
9.3794459999
 10
15.6332419972
 20
9.3716942124
 10
15.646533321
 20
9.3653113488
 10
15.6620038304
 20
9.3604711972
 10
15.6785231326
 20
9.3575274161
 10
15.6960274079
 20
9.3564913782
 10
15.7132376612
 20
9.3574387842
 10
15.7298014134
 20
9.3602980989
 10
15.7453454646
 20
9.3650590651
 10
15.7589022067
 20
9.3714706363
  0
LWPOLYLINE
  5
729
100
AcDbEntity
  8
0
100
AcDbPolyline
 62
9
  6
CONTINUOUS
 90
5
 70
0
 10
15.6482442096
 20
9.1653399047
 10
15.6477144309
 20
9.1687211786
 10
15.6462057486
 20
9.1721994061
 10
15.643947846
 20
9.1752450588
 10
15.6412844682
 20
9.1773944635
  0
LWPOLYLINE
  5
72A
100
AcDbEntity
  8
02___PRT_ALL_AXES
100
AcDbPolyline
 62
7
  6
CONTINUOUS
 90
4
 70
0
 10
15.7394320484
 20
9.2159494904
 10
15.738410698
 20
9.2244445534
 10
15.7339110164
 20
9.2354897502
 10
15.7327539115
 20
9.2373800469
  0
LINE
  5
72B
100
AcDbEntity
  8
02___PRT_ALL_AXES
100
AcDbLine
 62
9
  6
CONTINUOUS
 10
16.1382059236
 20
9.4482177436
 11
16.1382059236
 21
9.2955253625
  0
LINE
  5
72C
100
AcDbEntity
  8
02___PRT_ALL_AXES
100
AcDbLine
 62
9
  6
CONTINUOUS
 10
16.1382059236
 20
6.4056211381
 11
16.1382059236
 21
5.8430702601
  0
LINE
  5
72D
100
AcDbEntity
  8
0
100
AcDbLine
 62
9
  6
CONTINUOUS
 10
16.1382059236
 20
6.4216940203
 11
16.1382059236
 21
9.2794524802
  0
LINE
  5
72E
100
AcDbEntity
  8
0
100
AcDbLine
 62
7
  6
CONTINUOUS
 10
16.1531963707
 20
9.4691119555
 11
16.1531963707
 21
9.3164195743
  0
LINE
  5
72F
100
AcDbEntity
  8
0
100
AcDbLine
 62
7
  6
CONTINUOUS
 10
16.1531963707
 20
6.4265153499
 11
16.1531963707
 21
5.863964472
  0
LINE
  5
730
100
AcDbEntity
  8
0
100
AcDbLine
 62
7
  6
CONTINUOUS
 10
16.1531963707
 20
6.4425882321
 11
16.1531963707
 21
9.3003466921
  0
LINE
  5
731
100
AcDbEntity
  8
0
100
AcDbLine
 62
9
  6
CONTINUOUS
 10
16.1531963707
 20
5.8639644693
 11
16.1531963692
 21
5.8639571846
  0
LWPOLYLINE
  5
732
100
AcDbEntity
  8
02___PRT_ALL_AXES
100
AcDbPolyline
 62
7
  6
CONTINUOUS
 90
5
 70
0
 10
16.1531933418
 20
6.4265153494
 10
16.1528745786
 20
6.4232070338
 10
16.1503243281
 20
6.4167560498
 10
16.1453516597
 20
6.4107944378
 10
16.1382059236
 20
6.4056211381
  0
LWPOLYLINE
  5
733
100
AcDbEntity
  8
0
100
AcDbPolyline
 62
9
  6
CONTINUOUS
 90
5
 70
0
 10
16.1531963692
 20
5.8639571846
 10
16.1528746232
 20
5.8606563845
 10
16.1503243418
 20
5.8542051945
 10
16.1453517828
 20
5.848243673
 10
16.1382059236
 20
5.8430702601
  0
LWPOLYLINE
  5
734
100
AcDbEntity
  8
0
100
AcDbPolyline
 62
7
  6
CONTINUOUS
 90
5
 70
0
 10
16.1531963692
 20
5.8639571846
 10
16.1521338098
 20
5.8544264944
 10
16.147896924
 20
5.8431616547
 10
16.1404717307
 20
5.8331097382
 10
16.1300519093
 20
5.8250471915
  0
LWPOLYLINE
  5
735
100
AcDbEntity
  8
0
100
AcDbPolyline
 62
7
  6
CONTINUOUS
 90
4
 70
0
 10
16.1531963691
 20
6.4425881238
 10
16.1514526532
 20
6.434940897
 10
16.146256018
 20
6.4277306597
 10
16.1382059236
 20
6.4216940203
  0
LWPOLYLINE
  5
736
100
AcDbEntity
  8
0
100
AcDbPolyline
 62
3
  6
CONTINUOUS
 90
5
 70
0
 10
15.4559096174
 20
5.4358332811
 10
15.4501777292
 20
5.4254611358
 10
15.4323898802
 20
5.4036716712
 10
15.4097564288
 20
5.3835731951
 10
15.3828595718
 20
5.3656989544
  0
LWPOLYLINE
  5
737
100
AcDbEntity
  8
0
100
AcDbPolyline
 62
7
  6
CONTINUOUS
 90
5
 70
0
 10
15.8236282322
 20
5.8414661104
 10
15.8219479666
 20
5.8389405332
 10
15.8199032665
 20
5.8366180126
 10
15.8175624601
 20
5.8346821932
 10
15.8166920878
 20
5.8341327372
  0
LWPOLYLINE
  5
738
100
AcDbEntity
  8
0
100
AcDbPolyline
 62
9
  6
CONTINUOUS
 90
4
 70
0
 10
15.4514244412
 20
5.4332437789
 10
15.4391743917
 20
5.4170324194
 10
15.4161655754
 20
5.3958898935
 10
15.3879558049
 20
5.3769633574
  0
LINE
  5
739
100
AcDbEntity
  8
0
100
AcDbLine
 62
3
  6
CONTINUOUS
 10
15.1135575673
 20
5.3248153984
 11
15.1122392114
 21
5.3233973537
  0
LINE
  5
73A
100
AcDbEntity
  8
0
100
AcDbLine
 62
7
  6
CONTINUOUS
 10
15.0060687328
 20
5.4493865072
 11
15.0105850558
 21
5.4531103834
  0
LINE
  5
73B
100
AcDbEntity
  8
0
100
AcDbLine
 62
7
  6
CONTINUOUS
 10
15.0162304596
 20
5.4497287874
 11
15.0275212672
 21
5.4590384778
  0
LWPOLYLINE
  5
73C
100
AcDbEntity
  8
02___PRT_ALL_AXES
100
AcDbPolyline
 62
7
  6
CONTINUOUS
 90
8
 70
0
 10
15.3267068348
 20
5.9371047174
 10
15.3177463482
 20
5.9329791406
 10
15.3074204272
 20
5.9301081606
 10
15.2962468567
 20
5.9286357401
 10
15.284785926
 20
5.9286357126
 10
15.2736123343
 20
5.9301080793
 10
15.2632863719
 20
5.9329790097
 10
15.2543258257
 20
5.9371045434
  0
LWPOLYLINE
  5
73D
100
AcDbEntity
  8
02___PRT_ALL_AXES
100
AcDbPolyline
 62
7
  6
CONTINUOUS
 90
8
 70
0
 10
15.331569917
 20
9.6455059817
 10
15.33133261
 20
9.646435925
 10
15.3305302369
 20
9.647377296
 10
15.3292452379
 20
9.6481191737
 10
15.3276147054
 20
9.6485824096
 10
15.3258125955
 20
9.6487175827
 10
15.3240311691
 20
9.6485102717
 10
15.3224604808
 20
9.6479825939
  0
LWPOLYLINE
  5
73E
100
AcDbEntity
  8
02___PRT_ALL_AXES
100
AcDbPolyline
 62
7
  6
CONTINUOUS
 90
8
 70
0
 10
15.3622011195
 20
9.6696177176
 10
15.3624384264
 20
9.6686877743
 10
15.3632407996
 20
9.6677464033
 10
15.3645257985
 20
9.6670045256
 10
15.366156331
 20
9.6665412896
 10
15.367958441
 20
9.6664061166
 10
15.3697398673
 20
9.6666134276
 10
15.3713105557
 20
9.6671411053
  0
LWPOLYLINE
  5
73F
100
AcDbEntity
  8
02___PRT_ALL_AXES
100
AcDbPolyline
 62
7
  6
CONTINUOUS
 90
9
 70
0
 10
15.657900653
 20
9.4514393936
 10
15.6582360026
 20
9.4499692945
 10
15.6591537277
 20
9.4486653735
 10
15.6605983865
 20
9.4475316708
 10
15.6624813538
 20
9.4466377355
 10
15.6646871152
 20
9.4460384079
 10
15.6670803541
 20
9.4457704547
 10
15.6695142526
 20
9.4458503143
 10
15.6718394985
 20
9.4462730873
  0
LWPOLYLINE
  5
740
100
AcDbEntity
  8
02___PRT_ALL_AXES
100
AcDbPolyline
 62
7
  6
CONTINUOUS
 90
5
 70
0
 10
15.6733056891
 20
9.460262881
 10
15.673159777
 20
9.4609978916
 10
15.6724614845
 20
9.4619665202
 10
15.6712598004
 20
9.4627535652
 10
15.6696829283
 20
9.4632750593
  0
LWPOLYLINE
  5
741
100
AcDbEntity
  8
02___PRT_ALL_AXES
100
AcDbPolyline
 62
7
  6
CONTINUOUS
 90
5
 70
0
 10
15.7192233828
 20
9.451441805
 10
15.7193692949
 20
9.4507067943
 10
15.7200675874
 20
9.4497381657
 10
15.7212692716
 20
9.4489511208
 10
15.7228461436
 20
9.4484296267
  0
LWPOLYLINE
  5
742
100
AcDbEntity
  8
02___PRT_ALL_AXES
100
AcDbPolyline
 62
7
  6
CONTINUOUS
 90
5
 70
0
 10
15.6655430512
 20
9.4679080316
 10
15.6657547125
 20
9.4667338601
 10
15.6665493965
 20
9.4654032812
 10
15.6678861367
 20
9.4642262791
 10
15.6696829283
 20
9.4632750593
  0
LWPOLYLINE
  5
743
100
AcDbEntity
  8
02___PRT_ALL_AXES
100
AcDbPolyline
 62
7
  6
CONTINUOUS
 90
5
 70
0
 10
15.7269860207
 20
9.4437966544
 10
15.7267743595
 20
9.4449708259
 10
15.7259796755
 20
9.4463014048
 10
15.7246429352
 20
9.4474784069
 10
15.7228461436
 20
9.4484296267
  0
LINE
  5
744
100
AcDbEntity
  8
02___PRT_ALL_AXES
100
AcDbLine
 62
7
  6
CONTINUOUS
 10
15.698344741
 20
9.4393926872
 11
15.6984211062
 21
9.438850371
  0
LINE
  5
745
100
AcDbEntity
  8
02___PRT_ALL_AXES
100
AcDbLine
 62
7
  6
CONTINUOUS
 10
15.6941843309
 20
9.4723119988
 11
15.6941079657
 21
9.472854315
  0
LWPOLYLINE
  5
746
100
AcDbEntity
  8
0
100
AcDbPolyline
 62
9
  6
CONTINUOUS
 90
4
 70
0
 10
15.3185529467
 20
5.3565308437
 10
15.3229770937
 20
5.3606342226
 10
15.3257582364
 20
5.3667815295
 10
15.3267068349
 20
5.3745538395
  0
LWPOLYLINE
  5
747
100
AcDbEntity
  8
0
100
AcDbPolyline
 62
9
  6
CONTINUOUS
 90
3
 70
0
 10
15.6482442096
 20
5.5601924212
 10
15.6503777864
 20
5.5620359621
 10
15.6511269879
 20
5.5642105389
  0
LWPOLYLINE
  5
748
100
AcDbEntity
  8
0
100
AcDbPolyline
 62
7
  6
CONTINUOUS
 90
4
 70
0
 10
15.3730165492
 20
5.3827468382
 10
15.3734931158
 20
5.383157665
 10
15.3738972718
 20
5.383956306
 10
15.3740359823
 20
5.3849993965
  0
LWPOLYLINE
  5
749
100
AcDbEntity
  8
0
100
AcDbPolyline
 62
9
  6
CONTINUOUS
 90
5
 70
0
 10
15.6400901987
 20
5.5421693546
 10
15.6438336364
 20
5.5453752541
 10
15.6464214198
 20
5.549804087
 10
15.6478371245
 20
5.554950212
 10
15.6482442096
 20
5.5601924212
  0
LWPOLYLINE
  5
74A
100
AcDbEntity
  8
0
100
AcDbPolyline
 62
3
  6
CONTINUOUS
 90
5
 70
0
 10
15.3828588513
 20
5.3657002025
 10
15.3841001499
 20
5.3665768924
 10
15.3862036521
 20
5.3691884149
 10
15.3875110852
 20
5.3727067668
 10
15.387955805
 20
5.3769633574
  0
LINE
  5
74B
100
AcDbEntity
  8
0
100
AcDbLine
 62
9
  6
CONTINUOUS
 10
15.3739065184
 20
5.3851960404
 11
15.3705560266
 21
5.3829901857
  0
LINE
  5
74C
100
AcDbEntity
  8
0
100
AcDbLine
 62
9
  6
CONTINUOUS
 10
15.6482442096
 20
5.7402087022
 11
15.8236282322
 21
5.8414661104
  0
LINE
  5
74D
100
AcDbEntity
  8
0
100
AcDbLine
 62
7
  6
CONTINUOUS
 10
15.6510878613
 20
5.7385216319
 11
15.8167075734
 21
5.8341416464
  0
LWPOLYLINE
  5
74E
100
AcDbEntity
  8
0
100
AcDbPolyline
 62
9
  6
CONTINUOUS
 90
5
 70
0
 10
15.7103605633
 20
5.7485765989
 10
15.6957390416
 20
5.7414931798
 10
15.6792091612
 20
5.7359832455
 10
15.6612731742
 20
5.7322142125
 10
15.6511269879
 20
5.7311812957
  0
LWPOLYLINE
  5
74F
100
AcDbEntity
  8
0
100
AcDbPolyline
 62
7
  6
CONTINUOUS
 90
5
 70
0
 10
15.706218324
 20
5.7394208801
 10
15.6902493023
 20
5.7318087536
 10
15.672538997
 20
5.7262590225
 10
15.653793706
 20
5.7228626301
 10
15.6511269879
 20
5.7226895685
  0
LINE
  5
750
100
AcDbEntity
  8
0
100
AcDbLine
 62
7
  6
CONTINUOUS
 10
14.9301720183
 20
5.4932045045
 11
14.9366220156
 21
5.4958119985
  0
LINE
  5
751
100
AcDbEntity
  8
0
100
AcDbLine
 62
7
  6
CONTINUOUS
 10
14.9446845122
 20
5.491034925
 11
14.9608095054
 21
5.4975536601
  0
LINE
  5
752
100
AcDbEntity
  8
02___PRT_ALL_AXES
100
AcDbLine
 62
7
  6
CONTINUOUS
 10
14.9266605737
 20
5.4830454232
 11
14.9301720183
 21
5.4841007818
  0
LWPOLYLINE
  5
753
100
AcDbEntity
  8
02___PRT_ALL_AXES
100
AcDbPolyline
 62
7
  6
CONTINUOUS
 90
8
 70
0
 10
15.6809489347
 20
9.443796475
 10
15.6807116278
 20
9.4447264183
 10
15.6799092546
 20
9.4456677894
 10
15.6786242557
 20
9.4464096671
 10
15.6769937232
 20
9.446872903
 10
15.6751916132
 20
9.447008076
 10
15.6734101869
 20
9.446800765
 10
15.6718394985
 20
9.4462730873
  0
LWPOLYLINE
  5
754
100
AcDbEntity
  8
02___PRT_ALL_AXES
100
AcDbPolyline
 62
7
  6
CONTINUOUS
 90
8
 70
0
 10
15.7115801372
 20
9.4679082109
 10
15.7118174441
 20
9.4669782676
 10
15.7126198173
 20
9.4660368966
 10
15.7139048163
 20
9.4652950189
 10
15.7155353488
 20
9.464831783
 10
15.7173374587
 20
9.4646966099
 10
15.7191188851
 20
9.4649039209
 10
15.7206895734
 20
9.4654315987
  0
LWPOLYLINE
  5
755
100
AcDbEntity
  8
02___PRT_ALL_AXES
100
AcDbPolyline
 62
7
  6
CONTINUOUS
 90
9
 70
0
 10
15.734628419
 20
9.4602652923
 10
15.7342930694
 20
9.4617353914
 10
15.7333753443
 20
9.4630393124
 10
15.7319306854
 20
9.4641730152
 10
15.7300477181
 20
9.4650669504
 10
15.7278419567
 20
9.4656662781
 10
15.7254487179
 20
9.4659342312
 10
15.7230148193
 20
9.4658543717
 10
15.7206895734
 20
9.4654315987
  0
LWPOLYLINE
  5
756
100
AcDbEntity
  8
0
100
AcDbPolyline
 62
9
  6
CONTINUOUS
 90
4
 70
0
 10
16.1300519093
 20
5.8250471915
 10
16.1344762094
 20
5.8291506807
 10
16.1372573338
 20
5.8352979802
 10
16.1382059236
 20
5.8430702601
  0
LWPOLYLINE
  5
757
100
AcDbEntity
  8
0
100
AcDbPolyline
 62
7
  6
CONTINUOUS
 90
4
 70
0
 10
15.6400873472
 20
5.5421677088
 10
15.6425602916
 20
5.5438574778
 10
15.6470412401
 20
5.5488568103
 10
15.6500536929
 20
5.5557357985
  0
LINE
  5
758
100
AcDbEntity
  8
0
100
AcDbLine
 62
9
  6
CONTINUOUS
 10
16.1382059236
 20
5.8430702601
 11
15.8236282322
 21
5.6614498295
  0
LINE
  5
759
100
AcDbEntity
  8
0
100
AcDbLine
 62
9
  6
CONTINUOUS
 10
15.6482442096
 20
5.5601924212
 11
15.3267068348
 21
5.3745538394
  0
LINE
  5
75A
100
AcDbEntity
  8
0
100
AcDbLine
 62
7
  6
CONTINUOUS
 10
16.1300519093
 20
5.8250471915
 11
15.8154742179
 21
5.6434267609
  0
LINE
  5
75B
100
AcDbEntity
  8
0
100
AcDbLine
 62
7
  6
CONTINUOUS
 10
15.6400901953
 20
5.5421693526
 11
15.3185528192
 21
5.3565307701
  0
LINE
  5
75C
100
AcDbEntity
  8
0
100
AcDbLine
 62
7
  6
CONTINUOUS
 10
15.3740354104
 20
5.3809808458
 11
15.34752188
 21
5.3675554298
  0
LWPOLYLINE
  5
75D
100
AcDbEntity
  8
0
100
AcDbPolyline
 62
3
  6
CONTINUOUS
 90
9
 70
0
 10
15.3740354104
 20
5.3649079635
 10
15.34752188
 20
5.3514825476
 10
15.3182051221
 20
5.3401708353
 10
15.2865833214
 20
5.3311642637
 10
15.2531981069
 20
5.3246168077
 10
15.2186199688
 20
5.3206400024
 10
15.1834396303
 20
5.319301537
 10
15.1482580048
 20
5.3206241145
 10
15.1136759831
 20
5.3245850722
  0
LWPOLYLINE
  5
75E
100
AcDbEntity
  8
0
100
AcDbPolyline
 62
9
  6
CONTINUOUS
 90
8
 70
0
 10
15.3267068348
 20
5.3745538394
 10
15.3177460781
 20
5.3704281647
 10
15.3074203601
 20
5.3675572691
 10
15.2962463579
 20
5.3660848297
 10
15.2847863221
 20
5.3660848089
 10
15.2736123735
 20
5.3675571934
 10
15.2632865679
 20
5.3704280607
 10
15.2543258257
 20
5.3745536654
  0
LWPOLYLINE
  5
75F
100
AcDbEntity
  8
0
100
AcDbPolyline
 62
7
  6
CONTINUOUS
 90
6
 70
0
 10
15.3185528187
 20
5.3565307698
 10
15.307981749
 20
5.3519046451
 10
15.2960700186
 20
5.3495176953
 10
15.2841916109
 20
5.3495948502
 10
15.2727484134
 20
5.3520006647
 10
15.2624798541
 20
5.3565305888
  0
LINE
  5
760
100
AcDbEntity
  8
0
100
AcDbLine
 62
7
  6
CONTINUOUS
 10
15.34752188
 20
5.3675554298
 11
15.3182051221
 21
5.3562437176
  0
LWPOLYLINE
  5
761
100
AcDbEntity
  8
0
100
AcDbPolyline
 62
9
  6
CONTINUOUS
 90
5
 70
0
 10
15.8236282322
 20
5.6614498295
 10
15.8204350979
 20
5.6602180106
 10
15.8166685318
 20
5.659785447
 10
15.8129019595
 20
5.6602179925
 10
15.8097088074
 20
5.661449796
  0
LINE
  5
762
100
AcDbEntity
  8
0
100
AcDbLine
 62
7
  6
CONTINUOUS
 10
15.3182051221
 20
5.3562437176
 11
15.3173223136
 21
5.3559922746
  0
LWPOLYLINE
  5
763
100
AcDbEntity
  8
0
100
AcDbPolyline
 62
7
  6
CONTINUOUS
 90
6
 70
0
 10
15.2946232551
 20
5.3495270926
 10
15.2865833214
 20
5.3472371459
 10
15.2531981069
 20
5.3406896899
 10
15.2186199688
 20
5.3367128846
 10
15.1834396303
 20
5.3353744193
 10
15.1482580048
 20
5.3366969967
  0
LINE
  5
764
100
AcDbEntity
  8
0
100
AcDbLine
 62
7
  6
CONTINUOUS
 10
15.3811976925
 20
9.7938974237
 11
15.4246672605
 21
9.7042674037
  0
LWPOLYLINE
  5
765
100
AcDbEntity
  8
0
100
AcDbPolyline
 62
7
  6
CONTINUOUS
 90
3
 70
0
 10
16.1531963691
 20
9.3003465837
 10
16.1514583935
 20
9.3079816471
 10
16.1510634509
 20
9.3085299216
  0
LINE
  5
766
100
AcDbEntity
  8
0
100
AcDbLine
 62
7
  6
CONTINUOUS
 10
15.2543258257
 20
8.8109358856
 11
15.1967819502
 21
8.844158106
  0
LINE
  5
767
100
AcDbEntity
  8
0
100
AcDbLine
 62
7
  6
CONTINUOUS
 10
14.6771412866
 20
9.1441659959
 11
14.619597411
 21
9.1773882164
  0
LWPOLYLINE
  5
768
100
AcDbEntity
  8
02___PRT_ALL_AXES
100
AcDbPolyline
 62
7
  6
CONTINUOUS
 90
5
 70
0
 10
14.619597411
 20
9.1934610986
 10
14.6124516004
 20
9.198634364
 10
14.6074788459
 20
9.2045959521
 10
14.6049285024
 20
9.2110469238
 10
14.6046096914
 20
9.214355485
  0
LWPOLYLINE
  5
769
100
AcDbEntity
  8
0
100
AcDbPolyline
 62
9
  6
CONTINUOUS
 90
5
 70
0
 10
15.3197470934
 20
8.9917558817
 10
15.3224104712
 20
8.989606477
 10
15.3246683738
 20
8.9865608244
 10
15.3261770561
 20
8.9830825968
 10
15.3267068348
 20
8.9797013229
  0
LWPOLYLINE
  5
76A
100
AcDbEntity
  8
02___PRT_ALL_AXES
100
AcDbPolyline
 62
7
  6
CONTINUOUS
 90
11
 70
0
 10
15.2275883213
 20
9.5319698167
 10
15.2199848771
 20
9.5418577085
 10
15.2044471208
 20
9.5560746148
 10
15.1868744073
 20
9.5671284094
 10
15.1694570747
 20
9.5743628587
 10
15.1522817119
 20
9.5785885035
 10
15.1352077019
 20
9.5802636786
 10
15.118536144
 20
9.5795861295
 10
15.10240696
 20
9.5767141459
 10
15.0868283789
 20
9.5716923415
 10
15.0715591237
 20
9.5642836655
  0
LWPOLYLINE
  5
76B
100
AcDbEntity
  8
0
100
AcDbPolyline
 62
7
  6
CONTINUOUS
 90
7
 70
0
 10
15.2543258257
 20
8.8109358856
 10
15.2647817413
 20
8.8062882279
 10
15.2772704173
 20
8.803287992
 10
15.290500135
 20
8.8022812721
 10
15.3037404986
 20
8.8032846779
 10
15.3162527006
 20
8.8062889273
 10
15.3267068348
 20
8.8109360596
  0
LWPOLYLINE
  5
76C
100
AcDbEntity
  8
0
100
AcDbPolyline
 62
9
  6
CONTINUOUS
 90
10
 70
0
 10
15.2543258257
 20
8.979701149
 10
15.2598155273
 20
8.9769528668
 10
15.2670850785
 20
8.9743249585
 10
15.2758885569
 20
8.9722790548
 10
15.2857282757
 20
8.9711761139
 10
15.2959064382
 20
8.971210866
 10
15.3056703957
 20
8.9723715105
 10
15.3143303566
 20
8.9744400285
 10
15.3214163217
 20
8.9770396519
 10
15.3267068348
 20
8.9797013229
  0
LINE
  5
76D
100
AcDbEntity
  8
02___PRT_ALL_AXES
100
AcDbLine
 62
7
  6
CONTINUOUS
 10
14.619597411
 20
9.1934610986
 11
15.2543258257
 21
8.8270087678
  0
LINE
  5
76E
100
AcDbEntity
  8
0
100
AcDbLine
 62
9
  6
CONTINUOUS
 10
14.619597411
 20
9.3461534798
 11
15.2543258257
 21
8.979701149
  0
LINE
  5
76F
100
AcDbEntity
  8
0
100
AcDbLine
 62
9
  6
CONTINUOUS
 10
14.6265570945
 20
9.358208072
 11
15.2612855092
 21
8.9917557412
  0
LWPOLYLINE
  5
770
100
AcDbEntity
  8
02___PRT_ALL_AXES
100
AcDbPolyline
 62
7
  6
CONTINUOUS
 90
11
 70
0
 10
15.7327539115
 20
9.2373800469
 10
15.7210862571
 20
9.2525532368
 10
15.7055485008
 20
9.2667701431
 10
15.6879757874
 20
9.2778239377
 10
15.6705584547
 20
9.285058387
 10
15.653383092
 20
9.2892840318
 10
15.6363090819
 20
9.2909592069
 10
15.619637524
 20
9.2902816578
 10
15.60350834
 20
9.2874096742
 10
15.5879297589
 20
9.2823878698
 10
15.5726605037
 20
9.2749791938
  0
LWPOLYLINE
  5
771
100
AcDbEntity
  8
0
100
AcDbPolyline
 62
7
  6
CONTINUOUS
 90
6
 70
0
 10
14.6771412866
 20
9.1441659959
 10
14.6819153125
 20
9.1423128371
 10
14.6875163884
 20
9.1416369854
 10
14.6932020295
 20
9.1422369545
 10
14.6980191442
 20
9.1440087414
 10
14.7010216772
 20
9.1464518401
  0
LWPOLYLINE
  5
772
100
AcDbEntity
  8
0
100
AcDbPolyline
 62
9
  6
CONTINUOUS
 90
10
 70
0
 10
15.2612855092
 20
8.9917557412
 10
15.2657135493
 20
8.9895386023
 10
15.2715829162
 20
8.9874159582
 10
15.2786919172
 20
8.985762704
 10
15.2866422551
 20
8.9848705344
 10
15.29487156
 20
8.9848983102
 10
15.3027664942
 20
8.9858375179
 10
15.3097628121
 20
8.987510099
 10
15.3154837811
 20
8.9896103886
 10
15.3197470934
 20
8.9917558817
  0
LINE
  5
773
100
AcDbEntity
  8
0
100
AcDbLine
 62
7
  6
CONTINUOUS
 10
15.5366266918
 20
9.2427838899
 11
15.5501612134
 21
9.2333319664
  0
LWPOLYLINE
  5
774
100
AcDbEntity
  8
0
100
AcDbPolyline
 62
9
  6
CONTINUOUS
 90
17
 70
0
 10
15.5452400371
 20
9.2328444872
 10
15.5297478843
 20
9.2437540607
 10
15.5182795143
 20
9.2561809913
 10
15.5112622482
 20
9.2696127018
 10
15.5089164307
 20
9.2835492694
 10
15.511313827
 20
9.29748377
 10
15.5183691422
 20
9.3108908028
 10
15.5298201712
 20
9.3232547115
 10
15.5452294169
 20
9.3340957601
 10
15.5640034089
 20
9.3429947405
 10
15.5854161333
 20
9.3496088302
 10
15.6086364766
 20
9.3536852678
 10
15.6327717697
 20
9.3550726232
 10
15.6569129934
 20
9.3537213121
 10
15.6801826961
 20
9.3496720862
 10
15.7017133809
 20
9.3430515887
 10
15.7206240597
 20
9.3341018955
  0
LWPOLYLINE
  5
775
100
AcDbEntity
  8
0
100
AcDbPolyline
 62
7
  6
CONTINUOUS
 90
4
 70
0
 10
15.6462056446
 20
9.1778819427
 10
15.6490647693
 20
9.175386464
 10
15.6507894671
 20
9.1719134459
 10
15.6511269875
 20
9.169356391
  0
LWPOLYLINE
  5
776
100
AcDbEntity
  8
02___PRT_ALL_AXES
100
AcDbPolyline
 62
7
  6
CONTINUOUS
 90
10
 70
0
 10
15.3597424451
 20
9.6422152325
 10
15.3588391648
 20
9.6431256227
 10
15.3574759335
 20
9.6438193988
 10
15.3557981897
 20
9.6442225444
 10
15.3539849264
 20
9.6442920491
 10
15.3522295944
 20
9.6440204976
 10
15.3507194644
 20
9.643436861
 10
15.349615647
 20
9.6426034054
 10
15.3490359047
 20
9.6416090495
 10
15.3489657232
 20
9.6411021938
  0
LWPOLYLINE
  5
777
100
AcDbEntity
  8
02___PRT_ALL_AXES
100
AcDbPolyline
 62
7
  6
CONTINUOUS
 90
10
 70
0
 10
15.3340285914
 20
9.6729084668
 10
15.3349318717
 20
9.6719980766
 10
15.336295103
 20
9.6713043004
 10
15.3379728467
 20
9.6709011549
 10
15.3397861101
 20
9.6708316502
 10
15.341541442
 20
9.6711032017
 10
15.3430515721
 20
9.6716868383
 10
15.3441553895
 20
9.6725202939
 10
15.3447351317
 20
9.6735146498
 10
15.3448053132
 20
9.6740215055
  0
LWPOLYLINE
  5
778
100
AcDbEntity
  8
02___PRT_ALL_AXES
100
AcDbPolyline
 62
7
  6
CONTINUOUS
 90
10
 70
0
 10
15.7091214628
 20
9.4405057258
 10
15.7082181825
 20
9.441416116
 10
15.7068549512
 20
9.4421098922
 10
15.7051772075
 20
9.4425130377
 10
15.7033639441
 20
9.4425825424
 10
15.7016086122
 20
9.442310991
 10
15.7000984821
 20
9.4417273543
 10
15.6989946647
 20
9.4408938988
 10
15.6984149225
 20
9.4398995428
 10
15.698344741
 20
9.4393926872
  0
LWPOLYLINE
  5
779
100
AcDbEntity
  8
02___PRT_ALL_AXES
100
AcDbPolyline
 62
7
  6
CONTINUOUS
 90
10
 70
0
 10
15.6834076091
 20
9.4711989601
 10
15.6843108894
 20
9.47028857
 10
15.6856741207
 20
9.4695947938
 10
15.6873518645
 20
9.4691916482
 10
15.6891651278
 20
9.4691221436
 10
15.6909204598
 20
9.469393695
 10
15.6924305898
 20
9.4699773316
 10
15.6935344072
 20
9.4708107872
 10
15.6941141495
 20
9.4718051431
 10
15.6941843309
 20
9.4723119988
  0
LWPOLYLINE
  5
77A
100
AcDbEntity
  8
02___PRT_ALL_AXES
100
AcDbPolyline
 62
7
  6
CONTINUOUS
 90
11
 70
0
 10
15.3340285914
 20
9.6407627023
 10
15.334818828
 20
9.6399350559
 10
15.3359920471
 20
9.639276004
 10
15.3374466902
 20
9.6388425967
 10
15.3390568378
 20
9.6386723513
 10
15.3406831095
 20
9.638780005
 10
15.3421847288
 20
9.6391562389
 10
15.3434317099
 20
9.6397684846
 10
15.3443161091
 20
9.6405637439
 10
15.3447613697
 20
9.6414731761
 10
15.3448059692
 20
9.6418778834
  0
LWPOLYLINE
  5
77B
100
AcDbEntity
  8
02___PRT_ALL_AXES
100
AcDbPolyline
 62
7
  6
CONTINUOUS
 90
11
 70
0
 10
15.6834076091
 20
9.4390531957
 10
15.6841978457
 20
9.4382255493
 10
15.6853710648
 20
9.4375664973
 10
15.6868257079
 20
9.43713309
 10
15.6884358556
 20
9.4369628446
 10
15.6900621272
 20
9.4370704983
 10
15.6915637466
 20
9.4374467322
 10
15.6928107276
 20
9.4380589779
 10
15.6936951269
 20
9.4388542373
 10
15.6941403874
 20
9.4397636694
 10
15.694184987
 20
9.4401683768
  0
LWPOLYLINE
  5
77C
100
AcDbEntity
  8
DEFAULT_2
100
AcDbPolyline
 62
8
  6
HIDDEN
 90
7
 70
0
 10
15.4235298747
 20
9.6349848157
 10
15.4269774739
 20
9.6311921418
 10
15.4299710229
 20
9.6270788791
 10
15.432332241
 20
9.6228306372
 10
15.434043158
 20
9.6184797478
 10
15.4350907528
 20
9.6140593238
 10
15.435467695
 20
9.6095150979
  0
LWPOLYLINE
  5
77D
100
AcDbEntity
  8
DEFAULT_2
100
AcDbPolyline
 62
8
  6
HIDDEN
 90
7
 70
0
 10
15.7729088925
 20
9.433275309
 10
15.7763564916
 20
9.4294826351
 10
15.7793500406
 20
9.4253693724
 10
15.7817112588
 20
9.4211211306
 10
15.7834221758
 20
9.4167702412
 10
15.7844697705
 20
9.4123498172
 10
15.7848467128
 20
9.4078055913
  0
LWPOLYLINE
  5
77E
100
AcDbEntity
  8
0
100
AcDbPolyline
 62
9
  6
CONTINUOUS
 90
3
 70
0
 10
14.6265568511
 20
9.3919604009
 10
14.6238934827
 20
9.3928863294
 10
14.6216356133
 20
9.3924478446
  0
LINE
  5
77F
100
AcDbEntity
  8
0
100
AcDbLine
 62
9
  6
CONTINUOUS
 10
15.0630493358
 20
9.5131992657
 11
15.044138657
 21
9.5221489589
  0
LWPOLYLINE
  5
780
100
AcDbEntity
  8
0
100
AcDbPolyline
 62
7
  6
CONTINUOUS
 90
14
 70
0
 10
15.0490598334
 20
9.5226364381
 10
15.0658567407
 20
9.5146309869
 10
15.0853053188
 20
9.5084945001
 10
15.1066456305
 20
9.5045500933
 10
15.1290376797
 20
9.5030032723
 10
15.1515793022
 20
9.5039425949
 10
15.1733026879
 20
9.5073223035
 10
15.1933514455
 20
9.5129734897
 10
15.2109057995
 20
9.520596548
 10
15.2252956049
 20
9.5297788201
 10
15.2361470072
 20
9.5401487837
 10
15.2432069734
 20
9.5515091871
 10
15.2459771236
 20
9.5634426309
 10
15.2460038698
 20
9.5647864838
  0
LINE
  5
781
100
AcDbEntity
  8
0
100
AcDbLine
 62
9
  6
CONTINUOUS
 10
14.9529749496
 20
9.5781094359
 11
14.9530155072
 21
9.5780864013
  0
LINE
  5
782
100
AcDbEntity
  8
0
100
AcDbLine
 62
9
  6
CONTINUOUS
 10
15.6412844682
 20
9.1773944635
 11
15.5452400371
 21
9.2328444872
  0
LINE
  5
783
100
AcDbEntity
  8
0
100
AcDbLine
 62
9
  6
CONTINUOUS
 10
15.044138657
 20
9.5221489589
 11
14.9480942259
 21
9.5775989827
  0
LINE
  5
784
100
AcDbEntity
  8
0
100
AcDbLine
 62
7
  6
CONTINUOUS
 10
15.6462056446
 20
9.1778819427
 11
15.5501612134
 21
9.2333319664
  0
LINE
  5
785
100
AcDbEntity
  8
0
100
AcDbLine
 62
7
  6
CONTINUOUS
 10
15.0490598334
 20
9.5226364381
 11
14.9530154022
 21
9.5780864619
  0
LINE
  5
786
100
AcDbEntity
  8
0
100
AcDbLine
 62
7
  6
CONTINUOUS
 10
15.0867856558
 20
9.5510285581
 11
15.1059734053
 21
9.5399507563
  0
LINE
  5
787
100
AcDbEntity
  8
0
100
AcDbLine
 62
7
  6
CONTINUOUS
 10
15.1252569418
 20
9.5288176532
 11
15.1443489044
 21
9.5177951528
  0
LINE
  5
788
100
AcDbEntity
  8
0
100
AcDbLine
 62
7
  6
CONTINUOUS
 10
15.5878870358
 20
9.2617240864
 11
15.6070747853
 21
9.2506462846
  0
LINE
  5
789
100
AcDbEntity
  8
0
100
AcDbLine
 62
7
  6
CONTINUOUS
 10
15.6263583218
 20
9.2395131815
 11
15.6454502844
 21
9.2284906811
  0
LINE
  5
78A
100
AcDbEntity
  8
0
100
AcDbLine
 62
7
  6
CONTINUOUS
 10
15.6403086657
 20
9.2469716922
 11
15.6211209162
 21
9.2580494939
  0
LINE
  5
78B
100
AcDbEntity
  8
0
100
AcDbLine
 62
7
  6
CONTINUOUS
 10
15.1392072857
 20
9.5362761639
 11
15.1200195361
 21
9.5473539656
  0
LINE
  5
78C
100
AcDbEntity
  8
0
100
AcDbLine
 62
7
  6
CONTINUOUS
 10
15.6786841648
 20
9.2476781564
 11
15.6594964152
 21
9.2587559581
  0
LINE
  5
78D
100
AcDbEntity
  8
0
100
AcDbLine
 62
7
  6
CONTINUOUS
 10
15.6403086657
 20
9.2698337598
 11
15.6211209162
 21
9.2809115616
  0
LINE
  5
78E
100
AcDbEntity
  8
0
100
AcDbLine
 62
7
  6
CONTINUOUS
 10
15.1775827847
 20
9.5369826281
 11
15.1583950352
 21
9.5480604298
  0
LINE
  5
78F
100
AcDbEntity
  8
0
100
AcDbLine
 62
7
  6
CONTINUOUS
 10
15.1392072857
 20
9.5591382316
 11
15.1200195361
 21
9.5702160333
  0
LINE
  5
790
100
AcDbEntity
  8
0
100
AcDbLine
 62
7
  6
CONTINUOUS
 10
15.8236282322
 20
9.1894474783
 11
15.8097088074
 21
9.1974838859
  0
LINE
  5
791
100
AcDbEntity
  8
0
100
AcDbLine
 62
7
  6
CONTINUOUS
 10
15.8097088074
 20
9.1974838859
 11
15.7264854982
 21
9.2455317989
  0
LINE
  5
792
100
AcDbEntity
  8
0
100
AcDbLine
 62
7
  6
CONTINUOUS
 10
15.1136362767
 20
9.5993529984
 11
15.1490525505
 21
9.5789053248
  0
LWPOLYLINE
  5
793
100
AcDbEntity
  8
02___PRT_ALL_AXES
100
AcDbPolyline
 62
7
  6
CONTINUOUS
 90
6
 70
0
 10
15.2925999874
 20
9.5780016242
 10
15.2847761337
 20
9.5832903533
 10
15.2784816192
 20
9.5892205901
 10
15.2738714356
 20
9.5956463123
 10
15.2710591011
 20
9.6024092975
 10
15.2701138647
 20
9.6093432022
  0
LWPOLYLINE
  5
794
100
AcDbEntity
  8
02___PRT_ALL_AXES
100
AcDbPolyline
 62
7
  6
CONTINUOUS
 90
6
 70
0
 10
15.6419790052
 20
9.3762921176
 10
15.6341551514
 20
9.3815808467
 10
15.6278606369
 20
9.3875110834
 10
15.6232504534
 20
9.3939368057
 10
15.6204381189
 20
9.4006997908
 10
15.6194928824
 20
9.4076336955
  0
LWPOLYLINE
  5
795
100
AcDbEntity
  8
0
100
AcDbPolyline
 62
9
  6
CONTINUOUS
 90
16
 70
0
 10
15.2195226796
 20
9.6234063672
 10
15.2350148324
 20
9.6124967938
 10
15.2464832024
 20
9.6000698631
 10
15.2535004685
 20
9.5866381526
 10
15.255846286
 20
9.5727015851
 10
15.2534488897
 20
9.5587670844
 10
15.2463935745
 20
9.5453600517
 10
15.2349425455
 20
9.5329961429
 10
15.2195332998
 20
9.5221550943
 10
15.2007593078
 20
9.5132561139
 10
15.1793465834
 20
9.5066420242
 10
15.1561262401
 20
9.5025655866
 10
15.1319909471
 20
9.5011782313
 10
15.1078497233
 20
9.5025295423
 10
15.0845800206
 20
9.5065787682
 10
15.0630493358
 20
9.5131992657
  0
LWPOLYLINE
  5
796
100
AcDbEntity
  8
0
100
AcDbPolyline
 62
9
  6
CONTINUOUS
 90
5
 70
0
 10
15.2125629962
 20
9.611351775
 10
15.2268505925
 20
9.6012862878
 10
15.2373992425
 20
9.5898459901
 10
15.2438509388
 20
9.5774818546
 10
15.2460038698
 20
9.5647864838
  0
LWPOLYLINE
  5
797
100
AcDbEntity
  8
0
100
AcDbPolyline
 62
9
  6
CONTINUOUS
 90
5
 70
0
 10
15.8166684908
 20
9.2786518717
 10
15.8193318686
 20
9.276502467
 10
15.8215897712
 20
9.2734568144
 10
15.8230984535
 20
9.2699785868
 10
15.8236282322
 20
9.266597313
  0
LINE
  5
798
100
AcDbEntity
  8
02___PRT_ALL_AXES
100
AcDbLine
 62
7
  6
CONTINUOUS
 10
15.4246324961
 20
9.6338533818
 11
15.4235286116
 21
9.6348450602
  0
LINE
  5
799
100
AcDbEntity
  8
02___PRT_ALL_AXES
100
AcDbLine
 62
7
  6
CONTINUOUS
 10
15.7740115138
 20
9.4321438751
 11
15.7729076294
 21
9.4331355536
  0
LWPOLYLINE
  5
79A
100
AcDbEntity
  8
02___PRT_ALL_AXES
100
AcDbPolyline
 62
7
  6
CONTINUOUS
 90
3
 70
0
 10
15.7199885856
 20
9.3654795987
 10
15.7311184221
 20
9.3681412513
 10
15.7413900403
 20
9.3717753391
  0
LINE
  5
79B
100
AcDbEntity
  8
0
100
AcDbLine
 62
7
  6
CONTINUOUS
 10
15.6594964152
 20
9.2499400543
 11
15.6403086657
 21
9.2469716922
  0
LINE
  5
79C
100
AcDbEntity
  8
0
100
AcDbLine
 62
7
  6
CONTINUOUS
 10
15.6140978507
 20
9.2429168554
 11
15.6070747853
 21
9.2418303809
  0
LINE
  5
79D
100
AcDbEntity
  8
0
100
AcDbLine
 62
7
  6
CONTINUOUS
 10
15.6665194806
 20
9.2738885966
 11
15.6403086657
 21
9.2698337598
  0
LINE
  5
79E
100
AcDbEntity
  8
0
100
AcDbLine
 62
7
  6
CONTINUOUS
 10
15.6140978507
 20
9.2657789231
 11
15.5878870358
 21
9.2617240864
  0
LINE
  5
79F
100
AcDbEntity
  8
0
100
AcDbLine
 62
7
  6
CONTINUOUS
 10
15.6000517199
 20
9.2355136461
 11
15.6263583218
 21
9.2395131815
  0
LINE
  5
7A0
100
AcDbEntity
  8
0
100
AcDbLine
 62
7
  6
CONTINUOUS
 10
15.6525082354
 20
9.2436984878
 11
15.6786841648
 21
9.2476781564
  0
LWPOLYLINE
  5
7A1
100
AcDbEntity
  8
0
100
AcDbPolyline
 62
9
  6
CONTINUOUS
 90
3
 70
0
 10
14.9480942259
 20
9.5775989827
 10
14.9454308481
 20
9.5785249121
 10
14.9431730046
 20
9.578086436
  0
LWPOLYLINE
  5
7A2
100
AcDbEntity
  8
02___PRT_ALL_AXES
100
AcDbPolyline
 62
7
  6
CONTINUOUS
 90
8
 70
0
 10
15.6419790052
 20
9.3762921176
 10
15.6511395488
 20
9.3717751221
 10
15.6614112194
 20
9.3681410838
 10
15.6725410943
 20
9.3654794846
 10
15.6842551191
 20
9.3638558621
 10
15.6962648556
 20
9.3633101951
 10
15.7082745842
 20
9.3638559198
 10
15.7199885856
 20
9.3654795987
  0
LWPOLYLINE
  5
7A3
100
AcDbEntity
  8
02___PRT_ALL_AXES
100
AcDbPolyline
 62
7
  6
CONTINUOUS
 90
8
 70
0
 10
15.2925999874
 20
9.5780016242
 10
15.3017605311
 20
9.5734846288
 10
15.3120322017
 20
9.5698505904
 10
15.3231620766
 20
9.5671889913
 10
15.3348761014
 20
9.5655653688
 10
15.3468858379
 20
9.5650197018
 10
15.3588955665
 20
9.5655654265
 10
15.3706095678
 20
9.5671891054
  0
LWPOLYLINE
  5
7A4
100
AcDbEntity
  8
0
100
AcDbPolyline
 62
9
  6
CONTINUOUS
 90
17
 70
0
 10
15.6419790052
 20
9.4004014409
 10
15.6506773344
 20
9.3960798512
 10
15.6603916874
 20
9.3925558882
 10
15.670908928
 20
9.3899067124
 10
15.681992131
 20
9.3881921966
 10
15.6933937829
 20
9.3874505173
 10
15.7048604149
 20
9.3876982271
 10
15.7161347834
 20
9.3889298487
 10
15.7269652602
 20
9.3911178601
 10
15.7371096285
 20
9.3942132786
 10
15.7463419713
 20
9.3981471844
 10
15.7544554396
 20
9.4028314659
 10
15.7612691911
 20
9.4081617142
 10
15.7666306128
 20
9.4140185068
 10
15.7704203338
 20
9.4202714149
 10
15.7725535104
 20
9.426780592
 10
15.7730361895
 20
9.4317430196
  0
LWPOLYLINE
  5
7A5
100
AcDbEntity
  8
0
100
AcDbPolyline
 62
9
  6
CONTINUOUS
 90
17
 70
0
 10
15.2925999874
 20
9.6021109476
 10
15.3012983166
 20
9.5977893579
 10
15.3110126696
 20
9.5942653949
 10
15.3215299103
 20
9.5916162191
 10
15.3326131133
 20
9.5899017033
 10
15.3440147651
 20
9.589160024
 10
15.3554813972
 20
9.5894077338
 10
15.3667557657
 20
9.5906393553
 10
15.3775862425
 20
9.5928273668
 10
15.3877306108
 20
9.5959227853
 10
15.3969629536
 20
9.599856691
 10
15.4050764218
 20
9.6045409725
 10
15.4118901734
 20
9.6098712209
 10
15.4172515951
 20
9.6157280134
 10
15.4210413161
 20
9.6219809215
 10
15.4231744926
 20
9.6284900987
 10
15.4236571718
 20
9.6334525263
  0
LWPOLYLINE
  5
7A6
100
AcDbEntity
  8
0
100
AcDbPolyline
 62
9
  6
CONTINUOUS
 90
22
 70
0
 10
15.6628580555
 20
9.4365652176
 10
15.6682097451
 20
9.433906251
 10
15.6741877961
 20
9.4317375393
 10
15.6806599601
 20
9.4301071506
 10
15.6874804534
 20
9.4290519543
 10
15.6944969485
 20
9.4285954402
 10
15.7015534592
 20
9.4287478008
 10
15.7084916737
 20
9.4295056674
 10
15.7151567349
 20
9.4308521055
 10
15.7213995769
 20
9.4327569726
 10
15.7270811641
 20
9.4351778562
 10
15.7320741956
 20
9.4380605323
 10
15.7362673748
 20
9.4413407467
 10
15.7395667773
 20
9.4449450037
 10
15.7418989365
 20
9.4487930307
 10
15.74321164
 20
9.4527987623
 10
15.7434755559
 20
9.4568727904
 10
15.7426848514
 20
9.4609237162
 10
15.7408571752
 20
9.4648614877
 10
15.7380332246
 20
9.4685981484
 10
15.7342768428
 20
9.4720495367
 10
15.7296710165
 20
9.4751394684
  0
LWPOLYLINE
  5
7A7
100
AcDbEntity
  8
0
100
AcDbPolyline
 62
9
  6
CONTINUOUS
 90
22
 70
0
 10
15.3134790377
 20
9.6382747243
 10
15.3188307273
 20
9.6356157576
 10
15.3248087783
 20
9.633447046
 10
15.3312809423
 20
9.6318166573
 10
15.3381014356
 20
9.630761461
 10
15.3451179307
 20
9.6303049469
 10
15.3521744415
 20
9.6304573074
 10
15.359112656
 20
9.631215174
 10
15.3657777172
 20
9.6325616122
 10
15.3720205591
 20
9.6344664793
 10
15.3777021464
 20
9.6368873628
 10
15.3826951778
 20
9.6397700389
 10
15.3868883571
 20
9.6430502533
 10
15.3901877596
 20
9.6466545103
 10
15.3925199188
 20
9.6505025374
 10
15.3938326223
 20
9.654508269
 10
15.3940965382
 20
9.6585822971
 10
15.3933058336
 20
9.6626332229
 10
15.3914781574
 20
9.6665709944
 10
15.3886542069
 20
9.670307655
 10
15.3848978251
 20
9.6737590434
 10
15.3802919987
 20
9.676848975
  0
LINE
  5
7A8
100
AcDbEntity
  8
0
100
AcDbLine
 62
9
  6
CONTINUOUS
 10
15.116518565
 20
9.6668017987
 11
15.2125629962
 21
9.611351775
  0
LINE
  5
7A9
100
AcDbEntity
  8
0
100
AcDbLine
 62
9
  6
CONTINUOUS
 10
15.7136643762
 20
9.3220473032
 11
15.8097088074
 21
9.2665972795
  0
LINE
  5
7AA
100
AcDbEntity
  8
0
100
AcDbLine
 62
9
  6
CONTINUOUS
 10
15.1234782485
 20
9.6788563909
 11
15.2195226796
 21
9.6234063672
  0
LINE
  5
7AB
100
AcDbEntity
  8
0
100
AcDbLine
 62
9
  6
CONTINUOUS
 10
15.7206240597
 20
9.3341018955
 11
15.8166684908
 21
9.2786518717
  0
LINE
  5
7AC
100
AcDbEntity
  8
0
100
AcDbLine
 62
7
  6
CONTINUOUS
 10
15.4246672605
 20
9.7042674037
 11
15.6406551106
 21
9.5795695814
  0
LWPOLYLINE
  5
7AD
100
AcDbEntity
  8
02___PRT_ALL_AXES
100
AcDbPolyline
 62
7
  6
CONTINUOUS
 90
10
 70
0
 10
15.3622009042
 20
9.6454075211
 10
15.3605850539
 20
9.6463616331
 10
15.3583197756
 20
9.6471265448
 10
15.3557849204
 20
9.6475186761
 10
15.3531606896
 20
9.6475101507
 10
15.3506336384
 20
9.6471015746
 10
15.3483834136
 20
9.6463219932
 10
15.3465699823
 20
9.6452268266
 10
15.3453222605
 20
9.6438939296
 10
15.3448067692
 20
9.6426116383
  0
LWPOLYLINE
  5
7AE
100
AcDbEntity
  8
02___PRT_ALL_AXES
100
AcDbPolyline
 62
7
  6
CONTINUOUS
 90
10
 70
0
 10
15.711579922
 20
9.4436980144
 10
15.7099640716
 20
9.4446521264
 10
15.7076987934
 20
9.4454170381
 10
15.7051639381
 20
9.4458091695
 10
15.7025397073
 20
9.445800644
 10
15.7000126562
 20
9.4453920679
 10
15.6977624313
 20
9.4446124866
 10
15.695949
 20
9.44351732
 10
15.6947012782
 20
9.442184423
 10
15.6941857869
 20
9.4409021317
  0
LWPOLYLINE
  5
7AF
100
AcDbEntity
  8
02___PRT_ALL_AXES
100
AcDbPolyline
 62
7
  6
CONTINUOUS
 90
3
 70
0
 10
15.3340285914
 20
9.6407627023
 10
15.3322365904
 20
9.6418695647
 10
15.3315701322
 20
9.6421063774
  0
LWPOLYLINE
  5
7B0
100
AcDbEntity
  8
02___PRT_ALL_AXES
100
AcDbPolyline
 62
7
  6
CONTINUOUS
 90
3
 70
0
 10
15.6834076091
 20
9.4390531957
 10
15.6816156081
 20
9.440160058
 10
15.68094915
 20
9.4403968707
  0
LWPOLYLINE
  5
7B1
100
AcDbEntity
  8
02___PRT_ALL_AXES
100
AcDbPolyline
 62
7
  6
CONTINUOUS
 90
12
 70
0
 10
15.3597424451
 20
9.6422152325
 10
15.3613900447
 20
9.6411778771
 10
15.3634287124
 20
9.6404061306
 10
15.3657333822
 20
9.6399473372
 10
15.3681626697
 20
9.6398296425
 10
15.3705675456
 20
9.6400602667
 10
15.3728004781
 20
9.6406250617
 10
15.3747244838
 20
9.641489379
 10
15.3762215307
 20
9.6426001955
 10
15.3771997797
 20
9.643889366
 10
15.3775992181
 20
9.6452778038
 10
15.377607003
 20
9.645506161
  0
LWPOLYLINE
  5
7B2
100
AcDbEntity
  8
02___PRT_ALL_AXES
100
AcDbPolyline
 62
7
  6
CONTINUOUS
 90
12
 70
0
 10
15.3340285914
 20
9.6729084668
 10
15.3323809918
 20
9.6739458221
 10
15.330342324
 20
9.6747175686
 10
15.3280376542
 20
9.675176362
 10
15.3256083667
 20
9.6752940567
 10
15.3232034908
 20
9.6750634326
 10
15.3209705583
 20
9.6744986376
 10
15.3190465527
 20
9.6736343203
 10
15.3175495058
 20
9.6725235038
 10
15.3165712568
 20
9.6712343333
 10
15.3161718183
 20
9.6698458955
 10
15.3161640335
 20
9.6696175383
  0
LWPOLYLINE
  5
7B3
100
AcDbEntity
  8
02___PRT_ALL_AXES
100
AcDbPolyline
 62
7
  6
CONTINUOUS
 90
12
 70
0
 10
15.7091214628
 20
9.4405057258
 10
15.7107690624
 20
9.4394683705
 10
15.7128077301
 20
9.438696624
 10
15.7151124
 20
9.4382378306
 10
15.7175416875
 20
9.4381201359
 10
15.7199465634
 20
9.43835076
 10
15.7221794959
 20
9.438915555
 10
15.7241035015
 20
9.4397798723
 10
15.7256005484
 20
9.4408906888
 10
15.7265787974
 20
9.4421798593
 10
15.7269782359
 20
9.4435682971
 10
15.7269860207
 20
9.4437966544
  0
LWPOLYLINE
  5
7B4
100
AcDbEntity
  8
02___PRT_ALL_AXES
100
AcDbPolyline
 62
7
  6
CONTINUOUS
 90
12
 70
0
 10
15.6834076091
 20
9.4711989601
 10
15.6817600095
 20
9.4722363155
 10
15.6797213418
 20
9.473008062
 10
15.677416672
 20
9.4734668554
 10
15.6749873845
 20
9.4735845501
 10
15.6725825086
 20
9.4733539259
 10
15.670349576
 20
9.472789131
 10
15.6684255704
 20
9.4719248136
 10
15.6669285235
 20
9.4708139971
 10
15.6659502745
 20
9.4695248267
 10
15.6655508361
 20
9.4681363889
 10
15.6655430512
 20
9.4679080316
  0
LWPOLYLINE
  5
7B5
100
AcDbEntity
  8
0
100
AcDbPolyline
 62
7
  6
CONTINUOUS
 90
7
 70
0
 10
15.3950555277
 20
9.6783114126
 10
15.4040011224
 20
9.6721813109
 10
15.4112403899
 20
9.6652361305
 10
15.4167405853
 20
9.657748484
 10
15.4205984146
 20
9.6498796003
 10
15.4228904053
 20
9.6417579659
 10
15.4236571718
 20
9.6334525263
  0
LWPOLYLINE
  5
7B6
100
AcDbEntity
  8
0
100
AcDbPolyline
 62
7
  6
CONTINUOUS
 90
7
 70
0
 10
15.7444345454
 20
9.4766019059
 10
15.7533801401
 20
9.4704718042
 10
15.7606194076
 20
9.4635266238
 10
15.7661196031
 20
9.4560389774
 10
15.7699774324
 20
9.4481700937
 10
15.772269423
 20
9.4400484593
 10
15.7730361895
 20
9.4317430196
  0
LWPOLYLINE
  5
7B7
100
AcDbEntity
  8
0
100
AcDbPolyline
 62
7
  6
CONTINUOUS
 90
5
 70
0
 10
15.5264937695
 20
9.8464992177
 10
15.5348586554
 20
9.8402329165
 10
15.5404302497
 20
9.8329480089
 10
15.5431610564
 20
9.8252246832
 10
15.5435230247
 20
9.821102319
  0
LWPOLYLINE
  5
7B8
100
AcDbEntity
  8
0
100
AcDbPolyline
 62
9
  6
CONTINUOUS
 90
5
 70
0
 10
15.5215728365
 20
9.8122594096
 10
15.5242362049
 20
9.8101100148
 10
15.5264941081
 20
9.8070643673
 10
15.528002796
 20
9.8035861351
 10
15.5285325779
 20
9.8002048509
  0
LWPOLYLINE
  5
7B9
100
AcDbEntity
  8
0
100
AcDbPolyline
 62
9
  6
CONTINUOUS
 90
5
 70
0
 10
16.1312461822
 20
9.4602723024
 10
16.1339095506
 20
9.4581229075
 10
16.1361674538
 20
9.4550772601
 10
16.1376761417
 20
9.4515990278
 10
16.1382059236
 20
9.4482177436
  0
LWPOLYLINE
  5
7BA
100
AcDbEntity
  8
02___PRT_ALL_AXES
100
AcDbPolyline
 62
7
  6
CONTINUOUS
 90
3
 70
0
 10
15.3706095678
 20
9.5671891054
 10
15.3817394044
 20
9.569850758
 10
15.3920110226
 20
9.5734848457
  0
LINE
  5
7BB
100
AcDbEntity
  8
0
100
AcDbLine
 62
7
  6
CONTINUOUS
 10
15.1583950352
 20
9.5392445261
 11
15.1392072857
 21
9.5362761639
  0
LINE
  5
7BC
100
AcDbEntity
  8
0
100
AcDbLine
 62
7
  6
CONTINUOUS
 10
15.1129964707
 20
9.5322213271
 11
15.1059734053
 21
9.5311348526
  0
LINE
  5
7BD
100
AcDbEntity
  8
0
100
AcDbLine
 62
7
  6
CONTINUOUS
 10
15.0989503399
 20
9.5248181178
 11
15.1252569418
 21
9.5288176532
  0
LINE
  5
7BE
100
AcDbEntity
  8
0
100
AcDbLine
 62
7
  6
CONTINUOUS
 10
15.1514068554
 20
9.5330029596
 11
15.1775827847
 21
9.5369826281
  0
LWPOLYLINE
  5
7BF
100
AcDbEntity
  8
02___PRT_ALL_AXES
100
AcDbPolyline
 62
7
  6
CONTINUOUS
 90
7
 70
0
 10
15.7257132542
 20
9.4546074059
 10
15.7280931093
 20
9.4549125163
 10
15.7302700794
 20
9.4555459623
 10
15.7321106143
 20
9.4564688841
 10
15.7335018026
 20
9.4576246631
 10
15.7343582994
 20
9.4589423959
 10
15.734628419
 20
9.4602652923
  0
LWPOLYLINE
  5
7C0
100
AcDbEntity
  8
02___PRT_ALL_AXES
100
AcDbPolyline
 62
7
  6
CONTINUOUS
 90
7
 70
0
 10
15.6668158177
 20
9.45709728
 10
15.6644359627
 20
9.4567921697
 10
15.6622589925
 20
9.4561587236
 10
15.6604184577
 20
9.4552358019
 10
15.6590272693
 20
9.4540800229
 10
15.6581707725
 20
9.45276229
 10
15.657900653
 20
9.4514393936
  0
LWPOLYLINE
  5
7C1
100
AcDbEntity
  8
02___PRT_ALL_AXES
100
AcDbPolyline
 62
7
  6
CONTINUOUS
 90
7
 70
0
 10
15.7257132542
 20
9.4546074059
 10
15.7238960093
 20
9.4546109673
 10
15.7221737145
 20
9.4542762495
 10
15.7207301156
 20
9.4536389624
 10
15.7197192255
 20
9.452767096
 10
15.7192488925
 20
9.4517536669
 10
15.7192233828
 20
9.451441805
  0
LWPOLYLINE
  5
7C2
100
AcDbEntity
  8
02___PRT_ALL_AXES
100
AcDbPolyline
 62
7
  6
CONTINUOUS
 90
7
 70
0
 10
15.6668158177
 20
9.45709728
 10
15.6686330626
 20
9.4570937186
 10
15.6703553574
 20
9.4574284364
 10
15.6717989563
 20
9.4580657236
 10
15.6728098465
 20
9.4589375899
 10
15.6732801795
 20
9.4599510191
 10
15.6733056891
 20
9.460262881
  0
LWPOLYLINE
  5
7C3
100
AcDbEntity
  8
0
100
AcDbPolyline
 62
9
  6
CONTINUOUS
 90
22
 70
0
 10
15.7296710165
 20
9.4751394684
 10
15.7243193269
 20
9.477798435
 10
15.7183412759
 20
9.4799671467
 10
15.7118691119
 20
9.4815975353
 10
15.7050486186
 20
9.4826527316
 10
15.6980321234
 20
9.4831092457
 10
15.6909756127
 20
9.4829568852
 10
15.6840373982
 20
9.4821990186
 10
15.677372337
 20
9.4808525804
 10
15.6711294951
 20
9.4789477133
 10
15.6654479078
 20
9.4765268298
 10
15.6604548764
 20
9.4736441537
 10
15.6562616971
 20
9.4703639393
 10
15.6529622946
 20
9.4667596823
 10
15.6506301354
 20
9.4629116553
 10
15.6493174319
 20
9.4589059237
 10
15.649053516
 20
9.4548318955
 10
15.6498442206
 20
9.4507809697
 10
15.6516718968
 20
9.4468431982
 10
15.6544958473
 20
9.4431065376
 10
15.6582522291
 20
9.4396551492
 10
15.6628580555
 20
9.4365652176
  0
LWPOLYLINE
  5
7C4
100
AcDbEntity
  8
0
100
AcDbPolyline
 62
9
  6
CONTINUOUS
 90
22
 70
0
 10
15.3802919987
 20
9.676848975
 10
15.3749403091
 20
9.6795079416
 10
15.3689622581
 20
9.6816766533
 10
15.3624900941
 20
9.683307042
 10
15.3556696008
 20
9.6843622383
 10
15.3486531057
 20
9.6848187524
 10
15.341596595
 20
9.6846663918
 10
15.3346583805
 20
9.6839085252
 10
15.3279933193
 20
9.6825620871
 10
15.3217504773
 20
9.68065722
 10
15.3160688901
 20
9.6782363364
 10
15.3110758586
 20
9.6753536604
 10
15.3068826793
 20
9.6720734459
 10
15.3035832769
 20
9.6684691889
 10
15.3012511177
 20
9.6646211619
 10
15.2999384142
 20
9.6606154303
 10
15.2996744983
 20
9.6565414022
 10
15.3004652028
 20
9.6524904764
 10
15.302292879
 20
9.6485527049
 10
15.3051168296
 20
9.6448160442
 10
15.3088732114
 20
9.6413646559
 10
15.3134790377
 20
9.6382747243
  0
LWPOLYLINE
  5
7C5
100
AcDbEntity
  8
0
100
AcDbPolyline
 62
9
  6
CONTINUOUS
 90
10
 70
0
 10
15.8890469385
 20
9.6338551259
 10
15.8847835963
 20
9.6360005994
 10
15.8790625953
 20
9.63810086
 10
15.8720662539
 20
9.6397734083
 10
15.8641713061
 20
9.6407125779
 10
15.8559420008
 20
9.6407403142
 10
15.847991676
 20
9.6398481059
 10
15.8408826978
 20
9.6381948189
 10
15.8350133638
 20
9.6360721444
 10
15.8305853542
 20
9.6338549854
  0
LINE
  5
7C6
100
AcDbEntity
  8
0
100
AcDbLine
 62
7
  6
CONTINUOUS
 10
15.5006938441
 20
9.6957313941
 11
15.4533676027
 21
9.7230545942
  0
LINE
  5
7C7
100
AcDbEntity
  8
0
100
AcDbLine
 62
7
  6
CONTINUOUS
 10
15.8709519702
 20
9.5944773654
 11
15.8166659873
 21
9.6258186832
  0
LINE
  5
7C8
100
AcDbEntity
  8
0
100
AcDbLine
 62
7
  6
CONTINUOUS
 10
15.5076534696
 20
9.8042231074
 11
15.4533674868
 21
9.8355644252
  0
LINE
  5
7C9
100
AcDbEntity
  8
0
100
AcDbLine
 62
9
  6
CONTINUOUS
 10
16.1312459388
 20
9.4940246313
 11
15.8890469385
 21
9.6338551259
  0
LINE
  5
7CA
100
AcDbEntity
  8
0
100
AcDbLine
 62
9
  6
CONTINUOUS
 10
15.5215725931
 20
9.8460117385
 11
15.4965175241
 21
9.8604769621
  0
LINE
  5
7CB
100
AcDbEntity
  8
0
100
AcDbLine
 62
7
  6
CONTINUOUS
 10
16.1361671152
 20
9.4945121105
 11
15.8939681148
 21
9.6343426051
  0
LINE
  5
7CC
100
AcDbEntity
  8
0
100
AcDbLine
 62
7
  6
CONTINUOUS
 10
15.5264937695
 20
9.8464992177
 11
15.5014387005
 21
9.8609644413
  0
LINE
  5
7CD
100
AcDbEntity
  8
0
100
AcDbLine
 62
9
  6
CONTINUOUS
 10
15.5252887493
 20
9.8435503492
 11
15.5215725931
 21
9.8460117385
  0
LINE
  5
7CE
100
AcDbEntity
  8
0
100
AcDbLine
 62
9
  6
CONTINUOUS
 10
16.134962095
 20
9.4915632419
 11
16.1312459388
 21
9.4940246313
  0
LWPOLYLINE
  5
7CF
100
AcDbEntity
  8
0
100
AcDbPolyline
 62
7
  6
CONTINUOUS
 90
5
 70
0
 10
16.1361671152
 20
9.4945121105
 10
16.1445320011
 20
9.4882458092
 10
16.1501035954
 20
9.4809609016
 10
16.1528344021
 20
9.473237576
 10
16.1531963704
 20
9.4691152118
  0
LWPOLYLINE
  5
7D0
100
AcDbEntity
  8
0
100
AcDbPolyline
 62
9
  6
CONTINUOUS
 90
3
 70
0
 10
15.1185570107
 20
9.6793438346
 10
15.1208148708
 20
9.6797823203
 10
15.1234782485
 20
9.6788563909
  0
LINE
  5
7D1
100
AcDbEntity
  8
0
100
AcDbLine
 62
7
  6
CONTINUOUS
 10
15.1654181006
 20
9.5631930683
 11
15.1392072857
 21
9.5591382316
  0
LINE
  5
7D2
100
AcDbEntity
  8
0
100
AcDbLine
 62
7
  6
CONTINUOUS
 10
15.1129964707
 20
9.5550833948
 11
15.0867856558
 21
9.5510285581
  0
LWPOLYLINE
  5
7D3
100
AcDbEntity
  8
02___PRT_ALL_AXES
100
AcDbPolyline
 62
7
  6
CONTINUOUS
 90
7
 70
0
 10
15.3763342365
 20
9.6563169126
 10
15.3787140915
 20
9.656622023
 10
15.3808910617
 20
9.657255469
 10
15.3827315965
 20
9.6581783907
 10
15.3841227849
 20
9.6593341697
 10
15.3849792816
 20
9.6606519026
 10
15.3852494012
 20
9.661974799
  0
LWPOLYLINE
  5
7D4
100
AcDbEntity
  8
02___PRT_ALL_AXES
100
AcDbPolyline
 62
7
  6
CONTINUOUS
 90
7
 70
0
 10
15.3174368
 20
9.6588067867
 10
15.3150569449
 20
9.6585016763
 10
15.3128799748
 20
9.6578682303
 10
15.3110394399
 20
9.6569453086
 10
15.3096482516
 20
9.6557895295
 10
15.3087917548
 20
9.6544717967
 10
15.3085216352
 20
9.6531489003
  0
LWPOLYLINE
  5
7D5
100
AcDbEntity
  8
02___PRT_ALL_AXES
100
AcDbPolyline
 62
7
  6
CONTINUOUS
 90
7
 70
0
 10
15.3763342365
 20
9.6563169126
 10
15.3745169916
 20
9.656320474
 10
15.3727946968
 20
9.6559857562
 10
15.3713510979
 20
9.6553484691
 10
15.3703402077
 20
9.6544766027
 10
15.3698698747
 20
9.6534631735
 10
15.369844365
 20
9.6531513117
  0
LWPOLYLINE
  5
7D6
100
AcDbEntity
  8
02___PRT_ALL_AXES
100
AcDbPolyline
 62
7
  6
CONTINUOUS
 90
7
 70
0
 10
15.3174368
 20
9.6588067867
 10
15.3192540449
 20
9.6588032253
 10
15.3209763397
 20
9.6591379431
 10
15.3224199386
 20
9.6597752302
 10
15.3234308287
 20
9.6606470966
 10
15.3239011617
 20
9.6616605257
 10
15.3239266714
 20
9.6619723876
  0
LINE
  5
7D7
100
AcDbEntity
  8
0
100
AcDbLine
 62
7
  6
CONTINUOUS
 10
15.6406551106
 20
9.5795695814
 11
15.7986598856
 21
9.5527397601
  0
LWPOLYLINE
  5
7D8
100
AcDbEntity
  8
0
100
AcDbPolyline
 62
9
  6
CONTINUOUS
 90
3
 70
0
 10
15.8305853542
 20
9.6338549854
 10
15.8279219765
 20
9.6347809148
 10
15.8256641164
 20
9.6343424291
  0
LWPOLYLINE
  5
7D9
100
AcDbEntity
  8
0
100
AcDbPolyline
 62
9
  6
CONTINUOUS
 90
3
 70
0
 10
15.4380559398
 20
9.8604768216
 10
15.4353925621
 20
9.861402751
 10
15.433134702
 20
9.8609642653
  0
LWPOLYLINE
  5
7DA
100
AcDbEntity
  8
0
100
AcDbPolyline
 62
7
  6
CONTINUOUS
 90
6
 70
0
 10
15.8939681148
 20
9.6343426051
 10
15.8835524769
 20
9.6389640478
 10
15.8719153392
 20
9.6417386863
 10
15.8597303717
 20
9.6426514252
 10
15.8475702638
 20
9.6417160183
 10
15.8360057753
 20
9.6389392981
  0
LINE
  5
7DB
100
AcDbEntity
  8
0
100
AcDbLine
 62
7
  6
CONTINUOUS
 10
15.4910969911
 20
9.8655612529
 11
15.5014387005
 21
9.8609644413
  0
LWPOLYLINE
  5
7DC
100
AcDbEntity
  8
0
100
AcDbPolyline
 62
9
  6
CONTINUOUS
 90
10
 70
0
 10
15.4965175241
 20
9.8604769621
 10
15.492089484
 20
9.862694101
 10
15.4862201171
 20
9.8648167451
 10
15.479111116
 20
9.8664699993
 10
15.4711607782
 20
9.8673621689
 10
15.4629314733
 20
9.8673343931
 10
15.4550365391
 20
9.8663951854
 10
15.4480402211
 20
9.8647226043
 10
15.4423192522
 20
9.8626223147
 10
15.4380559398
 20
9.8604768216
  0
LINE
  5
7DD
100
AcDbEntity
  8
0
100
AcDbLine
 62
7
  6
CONTINUOUS
 10
12.1973539402
 20
4.7567493324
 11
12.1973539402
 21
3.8591115371
  0
LINE
  5
7DE
100
AcDbEntity
  8
0
100
AcDbLine
 62
9
  6
CONTINUOUS
 10
12.2071964599
 20
4.7567493324
 11
12.2071964599
 21
3.8591115371
  0
LINE
  5
7DF
100
AcDbEntity
  8
0
100
AcDbLine
 62
9
  6
CONTINUOUS
 10
12.2485350426
 20
3.8177729545
 11
12.2485350426
 21
3.8079304348
  0
LINE
  5
7E0
100
AcDbEntity
  8
0
100
AcDbLine
 62
9
  6
CONTINUOUS
 10
12.2485350426
 20
4.7980879151
 11
12.2485350426
 21
4.8079304348
  0
LINE
  5
7E1
100
AcDbEntity
  8
0
100
AcDbLine
 62
7
  6
CONTINUOUS
 10
12.2485350426
 20
3.8079304348
 11
13.3961728379
 21
3.8079304348
  0
LINE
  5
7E2
100
AcDbEntity
  8
0
100
AcDbLine
 62
9
  6
CONTINUOUS
 10
12.2485350426
 20
3.8177729545
 11
13.3961728379
 21
3.8177729545
  0
LINE
  5
7E3
100
AcDbEntity
  8
0
100
AcDbLine
 62
9
  6
CONTINUOUS
 10
12.2071964599
 20
3.8591115371
 11
12.1973539402
 21
3.8591115371
  0
LINE
  5
7E4
100
AcDbEntity
  8
0
100
AcDbLine
 62
9
  6
CONTINUOUS
 10
13.4375114205
 20
3.8591115371
 11
13.4473539402
 21
3.8591115371
  0
LINE
  5
7E5
100
AcDbEntity
  8
0
100
AcDbLine
 62
7
  6
CONTINUOUS
 10
12.8512752001
 20
4.7029643374
 11
12.8277752001
 21
4.6893966061
  0
LINE
  5
7E6
100
AcDbEntity
  8
0
100
AcDbLine
 62
7
  6
CONTINUOUS
 10
12.8042752001
 20
4.6758288748
 11
12.7807752001
 21
4.6622611434
  0
LINE
  5
7E7
100
AcDbEntity
  8
0
100
AcDbLine
 62
9
  6
CONTINUOUS
 10
12.9512909481
 20
3.9535997261
 11
12.9414484284
 21
3.9535997261
  0
LINE
  5
7E8
100
AcDbEntity
  8
0
100
AcDbLine
 62
9
  6
CONTINUOUS
 10
12.703259452
 20
3.9535997261
 11
12.7131019717
 21
3.9535997261
  0
LINE
  5
7E9
100
AcDbEntity
  8
0
100
AcDbLine
 62
7
  6
CONTINUOUS
 10
12.7807752001
 20
3.9535997261
 11
12.8042752001
 21
3.9398965321
  0
LINE
  5
7EA
100
AcDbEntity
  8
0
100
AcDbLine
 62
7
  6
CONTINUOUS
 10
12.8278919314
 20
3.9265316584
 11
12.8512752001
 21
3.9128965321
  0
LINE
  5
7EB
100
AcDbEntity
  8
0
100
AcDbLine
 62
7
  6
CONTINUOUS
 10
12.8042752001
 20
4.6215579495
 11
12.8278919314
 21
4.6351930757
  0
LINE
  5
7EC
100
AcDbEntity
  8
0
100
AcDbLine
 62
7
  6
CONTINUOUS
 10
12.8512752001
 20
4.6486934121
 11
12.8747752001
 21
4.6622611434
  0
LINE
  5
7ED
100
AcDbEntity
  8
0
100
AcDbLine
 62
7
  6
CONTINUOUS
 10
12.8747752001
 20
3.9535997261
 11
12.8512752001
 21
3.9671674574
  0
LINE
  5
7EE
100
AcDbEntity
  8
0
100
AcDbLine
 62
7
  6
CONTINUOUS
 10
12.8277752001
 20
3.9807351888
 11
12.8042752001
 21
3.9943029201
  0
LINE
  5
7EF
100
AcDbEntity
  8
0
100
AcDbLine
 62
9
  6
CONTINUOUS
 10
12.703259452
 20
3.8079304348
 11
12.703259452
 21
3.9535997261
  0
LINE
  5
7F0
100
AcDbEntity
  8
0
100
AcDbLine
 62
9
  6
CONTINUOUS
 10
12.703259452
 20
4.6622611434
 11
12.703259452
 21
4.8079304348
  0
LINE
  5
7F1
100
AcDbEntity
  8
0
100
AcDbLine
 62
7
  6
CONTINUOUS
 10
12.7131019717
 20
3.8177729545
 11
12.7131019717
 21
3.9535997261
  0
LINE
  5
7F2
100
AcDbEntity
  8
0
100
AcDbLine
 62
7
  6
CONTINUOUS
 10
12.7131019717
 20
4.6622611434
 11
12.7131019717
 21
4.7980879151
  0
LINE
  5
7F3
100
AcDbEntity
  8
02___PRT_ALL_AXES
100
AcDbLine
 62
7
  6
CONTINUOUS
 10
13.0454806309
 20
4.5786350322
 11
13.043424137
 21
4.5773258996
  0
LINE
  5
7F4
100
AcDbEntity
  8
0
100
AcDbLine
 62
7
  6
CONTINUOUS
 10
13.2742509265
 20
4.1661981513
 11
13.3764877985
 21
4.1661981513
  0
LINE
  5
7F5
100
AcDbEntity
  8
0
100
AcDbLine
 62
7
  6
CONTINUOUS
 10
13.2859366174
 20
4.1858831907
 11
13.3568027591
 21
4.1858831907
  0
LINE
  5
7F6
100
AcDbEntity
  8
0
100
AcDbLine
 62
9
  6
CONTINUOUS
 10
13.4375114205
 20
4.2016312222
 11
13.4473539402
 21
4.2016312222
  0
LINE
  5
7F7
100
AcDbEntity
  8
02___PRT_ALL_AXES
100
AcDbLine
 62
7
  6
CONTINUOUS
 10
12.9929602062
 20
4.0675485187
 11
12.9951221952
 21
4.066422109
  0
LINE
  5
7F8
100
AcDbEntity
  8
02___PRT_ALL_AXES
100
AcDbLine
 62
7
  6
CONTINUOUS
 10
13.0552909813
 20
4.0542178627
 11
13.0531289923
 21
4.0553442724
  0
LINE
  5
7F9
100
AcDbEntity
  8
02___PRT_ALL_AXES
100
AcDbLine
 62
7
  6
CONTINUOUS
 10
13.0027705566
 20
4.5313203256
 11
13.0048270505
 21
4.5326294581
  0
LINE
  5
7FA
100
AcDbEntity
  8
0
100
AcDbLine
 62
7
  6
CONTINUOUS
 10
13.1953854363
 20
4.3107848833
 11
13.2150704757
 21
4.3158044505
  0
LINE
  5
7FB
100
AcDbEntity
  8
0
100
AcDbLine
 62
9
  6
CONTINUOUS
 10
13.3961728379
 20
4.2429698049
 11
13.3764877985
 21
4.2429698049
  0
LINE
  5
7FC
100
AcDbEntity
  8
0
100
AcDbLine
 62
7
  6
CONTINUOUS
 10
13.3961728379
 20
4.2528123245
 11
13.3568027591
 21
4.2528123245
  0
LINE
  5
7FD
100
AcDbEntity
  8
0
100
AcDbLine
 62
7
  6
CONTINUOUS
 10
12.8042752001
 20
4.7029643374
 11
12.8042752001
 21
4.6758288748
  0
LINE
  5
7FE
100
AcDbEntity
  8
0
100
AcDbLine
 62
7
  6
CONTINUOUS
 10
12.8042752001
 20
4.6485579495
 11
12.8042752001
 21
4.6215579495
  0
LINE
  5
7FF
100
AcDbEntity
  8
0
100
AcDbLine
 62
7
  6
CONTINUOUS
 10
12.8042752001
 20
3.9943029201
 11
12.8042752001
 21
3.9671674574
  0
LINE
  5
800
100
AcDbEntity
  8
0
100
AcDbLine
 62
7
  6
CONTINUOUS
 10
12.8042752001
 20
3.9398965321
 11
12.8042752001
 21
3.9128965321
  0
LINE
  5
801
100
AcDbEntity
  8
0
100
AcDbLine
 62
7
  6
CONTINUOUS
 10
12.8512752001
 20
3.9128965321
 11
12.8512752001
 21
3.9400319948
  0
LINE
  5
802
100
AcDbEntity
  8
0
100
AcDbLine
 62
7
  6
CONTINUOUS
 10
12.8512752001
 20
3.9671674574
 11
12.8512752001
 21
3.9943029201
  0
LINE
  5
803
100
AcDbEntity
  8
0
100
AcDbLine
 62
7
  6
CONTINUOUS
 10
12.8512752001
 20
4.6215579495
 11
12.8512752001
 21
4.6486934121
  0
LINE
  5
804
100
AcDbEntity
  8
0
100
AcDbLine
 62
7
  6
CONTINUOUS
 10
12.8512752001
 20
4.6758288748
 11
12.8512752001
 21
4.7029643374
  0
LINE
  5
805
100
AcDbEntity
  8
0
100
AcDbLine
 62
7
  6
CONTINUOUS
 10
13.3764877985
 20
4.7567493324
 11
13.3568027591
 21
4.7370642931
  0
LINE
  5
806
100
AcDbEntity
  8
0
100
AcDbLine
 62
7
  6
CONTINUOUS
 10
12.9414484284
 20
4.7980879151
 11
12.9414484284
 21
4.6622611434
  0
LINE
  5
807
100
AcDbEntity
  8
0
100
AcDbLine
 62
7
  6
CONTINUOUS
 10
12.9414484284
 20
3.9535997261
 11
12.9414484284
 21
3.8177729545
  0
LINE
  5
808
100
AcDbEntity
  8
0
100
AcDbLine
 62
9
  6
CONTINUOUS
 10
12.9512909481
 20
4.8079304348
 11
12.9512909481
 21
4.6622611434
  0
LINE
  5
809
100
AcDbEntity
  8
0
100
AcDbLine
 62
9
  6
CONTINUOUS
 10
12.9512909481
 20
3.9535997261
 11
12.9512909481
 21
3.8079304348
  0
LINE
  5
80A
100
AcDbEntity
  8
02___PRT_ALL_AXES
100
AcDbLine
 62
7
  6
CONTINUOUS
 10
13.0143152434
 20
4.091205872
 11
13.0144207385
 21
4.0887703298
  0
LINE
  5
80B
100
AcDbEntity
  8
02___PRT_ALL_AXES
100
AcDbLine
 62
7
  6
CONTINUOUS
 10
13.0339359441
 20
4.0305605094
 11
13.033830449
 21
4.0329960516
  0
LINE
  5
80C
100
AcDbEntity
  8
02___PRT_ALL_AXES
100
AcDbLine
 62
7
  6
CONTINUOUS
 10
13.0143152434
 20
4.5853003602
 11
13.0144207385
 21
4.582864818
  0
LINE
  5
80D
100
AcDbEntity
  8
0
100
AcDbLine
 62
7
  6
CONTINUOUS
 10
13.2744238716
 20
4.7567493324
 11
13.1953854363
 21
4.6162365585
  0
LINE
  5
80E
100
AcDbEntity
  8
0
100
AcDbLine
 62
7
  6
CONTINUOUS
 10
13.2859366174
 20
4.7370642931
 11
13.2150704757
 21
4.6110800411
  0
LINE
  5
80F
100
AcDbEntity
  8
02___PRT_ALL_AXES
100
AcDbLine
 62
7
  6
CONTINUOUS
 10
13.0339359441
 20
4.5246549975
 11
13.033830449
 21
4.5270905398
  0
LINE
  5
810
100
AcDbEntity
  8
02___PRT_ALL_AXES
100
AcDbLine
 62
7
  6
CONTINUOUS
 10
13.0454806309
 20
4.084540544
 11
13.043424137
 21
4.0832314115
  0
LINE
  5
811
100
AcDbEntity
  8
02___PRT_ALL_AXES
100
AcDbLine
 62
7
  6
CONTINUOUS
 10
13.0027705566
 20
4.0372258374
 11
13.0048270505
 21
4.0385349699
  0
LINE
  5
812
100
AcDbEntity
  8
0
100
AcDbLine
 62
7
  6
CONTINUOUS
 10
12.8512752001
 20
3.9943029201
 11
12.8277752001
 21
3.9807351888
  0
LINE
  5
813
100
AcDbEntity
  8
0
100
AcDbLine
 62
7
  6
CONTINUOUS
 10
12.8042752001
 20
3.9671674574
 11
12.7807752001
 21
3.9535997261
  0
LINE
  5
814
100
AcDbEntity
  8
02___PRT_ALL_AXES
100
AcDbLine
 62
7
  6
CONTINUOUS
 10
12.9929602062
 20
4.5616430069
 11
12.9951221952
 21
4.5605165972
  0
LINE
  5
815
100
AcDbEntity
  8
02___PRT_ALL_AXES
100
AcDbLine
 62
7
  6
CONTINUOUS
 10
13.0552909813
 20
4.5483123509
 11
13.0531289923
 21
4.5494387605
  0
LINE
  5
816
100
AcDbEntity
  8
0
100
AcDbLine
 62
7
  6
CONTINUOUS
 10
12.7807752001
 20
4.6622611434
 11
12.8042752001
 21
4.6485579495
  0
LINE
  5
817
100
AcDbEntity
  8
0
100
AcDbLine
 62
7
  6
CONTINUOUS
 10
12.8278919314
 20
4.6351930757
 11
12.8512752001
 21
4.6215579495
  0
LINE
  5
818
100
AcDbEntity
  8
0
100
AcDbLine
 62
7
  6
CONTINUOUS
 10
13.3764877985
 20
4.1661981513
 11
13.3568027591
 21
4.1858831907
  0
LINE
  5
819
100
AcDbEntity
  8
0
100
AcDbLine
 62
7
  6
CONTINUOUS
 10
13.1953854363
 20
4.6162365585
 11
13.1953854363
 21
4.3107848833
  0
LINE
  5
81A
100
AcDbEntity
  8
0
100
AcDbLine
 62
7
  6
CONTINUOUS
 10
12.8042752001
 20
3.9128965321
 11
12.8278919314
 21
3.9265316584
  0
LINE
  5
81B
100
AcDbEntity
  8
0
100
AcDbLine
 62
7
  6
CONTINUOUS
 10
12.8512752001
 20
3.9400319948
 11
12.8747752001
 21
3.9535997261
  0
LINE
  5
81C
100
AcDbEntity
  8
0
100
AcDbLine
 62
9
  6
CONTINUOUS
 10
12.9512909481
 20
4.6622611434
 11
12.9414484284
 21
4.6622611435
  0
LINE
  5
81D
100
AcDbEntity
  8
0
100
AcDbLine
 62
9
  6
CONTINUOUS
 10
12.703259452
 20
4.6622611434
 11
12.7131019717
 21
4.6622611434
  0
LINE
  5
81E
100
AcDbEntity
  8
0
100
AcDbLine
 62
7
  6
CONTINUOUS
 10
13.3568027591
 20
4.6701351592
 11
13.3961728379
 21
4.6701351592
  0
LINE
  5
81F
100
AcDbEntity
  8
0
100
AcDbLine
 62
9
  6
CONTINUOUS
 10
13.3764877985
 20
4.6799776789
 11
13.3961728379
 21
4.6799776789
  0
LINE
  5
820
100
AcDbEntity
  8
0
100
AcDbLine
 62
7
  6
CONTINUOUS
 10
12.8747752001
 20
4.6622611434
 11
12.8512752001
 21
4.6758288748
  0
LINE
  5
821
100
AcDbEntity
  8
0
100
AcDbLine
 62
7
  6
CONTINUOUS
 10
12.8277752001
 20
4.6893966061
 11
12.8042752001
 21
4.7029643374
  0
LINE
  5
822
100
AcDbEntity
  8
0
100
AcDbLine
 62
7
  6
CONTINUOUS
 10
13.1953854363
 20
4.3107848833
 11
13.2742509265
 21
4.1661981513
  0
LINE
  5
823
100
AcDbEntity
  8
0
100
AcDbLine
 62
7
  6
CONTINUOUS
 10
13.2150704757
 20
4.3158044505
 11
13.2859366174
 21
4.1858831907
  0
LINE
  5
824
100
AcDbEntity
  8
0
100
AcDbLine
 62
7
  6
CONTINUOUS
 10
13.2150704757
 20
4.6110800411
 11
13.2150704757
 21
4.3158044505
  0
LINE
  5
825
100
AcDbEntity
  8
0
100
AcDbLine
 62
9
  6
CONTINUOUS
 10
13.4375114205
 20
4.7213162616
 11
13.4473539402
 21
4.7213162616
  0
LINE
  5
826
100
AcDbEntity
  8
0
100
AcDbLine
 62
7
  6
CONTINUOUS
 10
13.3568027591
 20
4.7370642931
 11
13.2859366174
 21
4.7370642931
  0
LINE
  5
827
100
AcDbEntity
  8
0
100
AcDbLine
 62
7
  6
CONTINUOUS
 10
13.1953854363
 20
4.6162365585
 11
13.2150704757
 21
4.6110800411
  0
LINE
  5
828
100
AcDbEntity
  8
0
100
AcDbLine
 62
7
  6
CONTINUOUS
 10
13.2742509265
 20
4.1661981513
 11
13.2859366174
 21
4.1858831907
  0
LINE
  5
829
100
AcDbEntity
  8
0
100
AcDbLine
 62
7
  6
CONTINUOUS
 10
13.3764877985
 20
4.7567493324
 11
13.2744238716
 21
4.7567493324
  0
LINE
  5
82A
100
AcDbEntity
  8
0
100
AcDbLine
 62
9
  6
CONTINUOUS
 10
12.2071964599
 20
4.7567493324
 11
12.1973539402
 21
4.7567493324
  0
LINE
  5
82B
100
AcDbEntity
  8
0
100
AcDbLine
 62
9
  6
CONTINUOUS
 10
13.4375114205
 20
4.7567493324
 11
13.4473539402
 21
4.7567493324
  0
LINE
  5
82C
100
AcDbEntity
  8
0
100
AcDbLine
 62
7
  6
CONTINUOUS
 10
13.3568027591
 20
4.1858831907
 11
13.3568027591
 21
4.2528123245
  0
LINE
  5
82D
100
AcDbEntity
  8
0
100
AcDbLine
 62
7
  6
CONTINUOUS
 10
13.3568027591
 20
4.6701351592
 11
13.3568027591
 21
4.7370642931
  0
LINE
  5
82E
100
AcDbEntity
  8
0
100
AcDbLine
 62
9
  6
CONTINUOUS
 10
12.2485350426
 20
4.7980879151
 11
13.3961728379
 21
4.7980879151
  0
LINE
  5
82F
100
AcDbEntity
  8
0
100
AcDbLine
 62
7
  6
CONTINUOUS
 10
12.2485350426
 20
4.8079304348
 11
13.3961728379
 21
4.8079304348
  0
LINE
  5
830
100
AcDbEntity
  8
0
100
AcDbLine
 62
7
  6
CONTINUOUS
 10
13.3764877985
 20
4.1661981513
 11
13.3764877985
 21
4.2429698049
  0
LINE
  5
831
100
AcDbEntity
  8
0
100
AcDbLine
 62
7
  6
CONTINUOUS
 10
13.3764877985
 20
4.6799776789
 11
13.3764877985
 21
4.7567493324
  0
LINE
  5
832
100
AcDbEntity
  8
0
100
AcDbLine
 62
9
  6
CONTINUOUS
 10
13.3961728379
 20
4.6799776789
 11
13.3961728379
 21
4.6701351592
  0
LINE
  5
833
100
AcDbEntity
  8
0
100
AcDbLine
 62
9
  6
CONTINUOUS
 10
13.3961728379
 20
3.8177729545
 11
13.3961728379
 21
3.8079304348
  0
LINE
  5
834
100
AcDbEntity
  8
0
100
AcDbLine
 62
9
  6
CONTINUOUS
 10
13.3961728379
 20
4.2429698049
 11
13.3961728379
 21
4.2528123245
  0
LINE
  5
835
100
AcDbEntity
  8
0
100
AcDbLine
 62
9
  6
CONTINUOUS
 10
13.3961728379
 20
4.7980879151
 11
13.3961728379
 21
4.8079304348
  0
LINE
  5
836
100
AcDbEntity
  8
0
100
AcDbLine
 62
9
  6
CONTINUOUS
 10
13.4375114205
 20
3.8591115371
 11
13.4375114205
 21
4.2016312222
  0
LINE
  5
837
100
AcDbEntity
  8
0
100
AcDbLine
 62
9
  6
CONTINUOUS
 10
13.4375114205
 20
4.7213162616
 11
13.4375114205
 21
4.7567493324
  0
LINE
  5
838
100
AcDbEntity
  8
0
100
AcDbLine
 62
7
  6
CONTINUOUS
 10
13.4473539402
 20
3.8591115371
 11
13.4473539402
 21
4.2016312222
  0
LINE
  5
839
100
AcDbEntity
  8
0
100
AcDbLine
 62
7
  6
CONTINUOUS
 10
13.4473539402
 20
4.7213162616
 11
13.4473539402
 21
4.7567493324
  0
LINE
  5
83A
100
AcDbEntity
  8
0
100
AcDbLine
 62
7
  6
CONTINUOUS
 10
13.2744238716
 20
4.7567493324
 11
13.2859366174
 21
4.7370642931
  0
LINE
  5
83B
100
AcDbEntity
  8
02___PRT_ALL_AXES
100
AcDbLine
 62
7
  6
CONTINUOUS
 10
4.0562124818
 20
6.7554054958
 11
4.0562124818
 21
7.0054054958
  0
LINE
  5
83C
100
AcDbEntity
  8
0
100
AcDbLine
 62
7
  6
CONTINUOUS
 10
6.3101494897
 20
7.0300117942
 11
6.3101494897
 21
6.7307991966
  0
LINE
  5
83D
100
AcDbEntity
  8
0
100
AcDbLine
 62
3
  6
CONTINUOUS
 10
6.3199920094
 20
6.6156417164
 11
6.3199920094
 21
7.1500905351
  0
LINE
  5
83E
100
AcDbEntity
  8
0
100
AcDbLine
 62
7
  6
CONTINUOUS
 10
6.3396770487
 20
6.6468514006
 11
6.3396770487
 21
6.8804054958
  0
LINE
  5
83F
100
AcDbEntity
  8
0
100
AcDbLine
 62
7
  6
CONTINUOUS
 10
6.3396770487
 20
7.1305523065
 11
6.3396770487
 21
7.1500905351
  0
LINE
  5
840
100
AcDbEntity
  8
0
100
AcDbLine
 62
9
  6
CONTINUOUS
 10
6.3445983086
 20
6.8804046286
 11
6.3445983086
 21
7.1310073364
  0
LINE
  5
841
100
AcDbEntity
  8
0
100
AcDbLine
 62
9
  6
CONTINUOUS
 10
6.3790471275
 20
6.6468528501
 11
6.3790471275
 21
6.8804054958
  0
LINE
  5
842
100
AcDbEntity
  8
0
100
AcDbLine
 62
9
  6
CONTINUOUS
 10
6.3790471275
 20
7.1310073364
 11
6.3790471275
 21
7.1461535273
  0
LINE
  5
843
100
AcDbEntity
  8
02___PRT_ALL_AXES
100
AcDbLine
 62
7
  6
CONTINUOUS
 10
6.3888896472
 20
7.1461530161
 11
6.3888896472
 21
7.1310073364
  0
LINE
  5
844
100
AcDbEntity
  8
02___PRT_ALL_AXES
100
AcDbLine
 62
7
  6
CONTINUOUS
 10
6.3888896472
 20
6.6468528501
 11
6.3888896472
 21
6.8804054958
  0
LINE
  5
845
100
AcDbEntity
  8
0
100
AcDbLine
 62
7
  6
CONTINUOUS
 10
6.4085748268
 20
7.1310073364
 11
6.4085748268
 21
7.1441850233
  0
LINE
  5
846
100
AcDbEntity
  8
0
100
AcDbLine
 62
3
  6
CONTINUOUS
 10
6.3205845677
 20
7.1143460599
 11
6.3199920095
 21
7.1096955792
  0
LINE
  5
847
100
AcDbEntity
  8
02___PRT_ALL_AXES
100
AcDbLine
 62
7
  6
CONTINUOUS
 10
6.4250297005
 20
6.6044283466
 11
6.4538502771
 21
6.5760456193
  0
LINE
  5
848
100
AcDbEntity
  8
0
100
AcDbLine
 62
7
  6
CONTINUOUS
 10
6.4676298046
 20
6.5838000111
 11
6.457787285
 21
6.5934930008
  0
LINE
  5
849
100
AcDbEntity
  8
0
100
AcDbLine
 62
7
  6
CONTINUOUS
 10
6.424322718
 20
6.6008780854
 11
6.4538502771
 21
6.571350542
  0
LINE
  5
84A
100
AcDbEntity
  8
02___PRT_ALL_AXES
100
AcDbLine
 62
3
  6
CONTINUOUS
 10
6.424322718
 20
6.5910370944
 11
6.424322718
 21
6.6044283466
  0
LINE
  5
84B
100
AcDbEntity
  8
02___PRT_ALL_AXES
100
AcDbLine
 62
3
  6
CONTINUOUS
 10
6.424322718
 20
6.9430366439
 11
6.424322718
 21
7.0937514968
  0
LINE
  5
84C
100
AcDbEntity
  8
02___PRT_ALL_AXES
100
AcDbLine
 62
7
  6
CONTINUOUS
 10
6.4538502771
 20
7.0790622964
 11
6.4538502771
 21
6.9861085716
  0
LINE
  5
84D
100
AcDbEntity
  8
02___PRT_ALL_AXES
100
AcDbLine
 62
7
  6
CONTINUOUS
 10
6.4538502771
 20
6.5713503777
 11
6.4538502771
 21
6.5760456193
  0
LINE
  5
84E
100
AcDbEntity
  8
0
100
AcDbLine
 62
7
  6
CONTINUOUS
 10
6.457787285
 20
6.5934930008
 11
6.457787285
 21
6.6044283466
  0
LINE
  5
84F
100
AcDbEntity
  8
0
100
AcDbLine
 62
7
  6
CONTINUOUS
 10
6.457787285
 20
6.9733164796
 11
6.457787285
 21
6.9800491596
  0
LINE
  5
850
100
AcDbEntity
  8
02___PRT_ALL_AXES
100
AcDbLine
 62
7
  6
CONTINUOUS
 10
6.4676298046
 20
6.5713517038
 11
6.4676298046
 21
6.5760456193
  0
LINE
  5
851
100
AcDbEntity
  8
0
100
AcDbLine
 62
7
  6
CONTINUOUS
 10
6.4676298046
 20
6.5760456193
 11
6.4676298046
 21
6.5838000111
  0
LINE
  5
852
100
AcDbEntity
  8
02___PRT_ALL_AXES
100
AcDbLine
 62
7
  6
CONTINUOUS
 10
6.4676298046
 20
6.6206333719
 11
6.4676298046
 21
6.8804054958
  0
LINE
  5
853
100
AcDbEntity
  8
02___PRT_ALL_AXES
100
AcDbLine
 62
7
  6
CONTINUOUS
 10
6.4676298046
 20
6.9430366439
 11
6.4676298046
 21
6.9733164796
  0
LINE
  5
854
100
AcDbEntity
  8
0
100
AcDbLine
 62
7
  6
CONTINUOUS
 10
6.4676298046
 20
6.9834154996
 11
6.4676298046
 21
6.9861085716
  0
LINE
  5
855
100
AcDbEntity
  8
02___PRT_ALL_AXES
100
AcDbLine
 62
7
  6
CONTINUOUS
 10
6.4676298046
 20
6.9861085716
 11
6.4676298046
 21
7.0792381634
  0
LINE
  5
856
100
AcDbEntity
  8
02___PRT_ALL_AXES
100
AcDbLine
 62
7
  6
CONTINUOUS
 10
6.4676298046
 20
7.1310073364
 11
6.4676298046
 21
7.1520550121
  0
LINE
  5
857
100
AcDbEntity
  8
02___PRT_ALL_AXES
100
AcDbLine
 62
3
  6
CONTINUOUS
 10
6.4971573637
 20
6.5910370944
 11
6.4971573637
 21
6.6044283466
  0
LINE
  5
858
100
AcDbEntity
  8
02___PRT_ALL_AXES
100
AcDbLine
 62
3
  6
CONTINUOUS
 10
6.4971573637
 20
6.9430366439
 11
6.4971573637
 21
7.0937514968
  0
LINE
  5
859
100
AcDbEntity
  8
0
100
AcDbLine
 62
7
  6
CONTINUOUS
 10
6.5444014582
 20
6.6087519525
 11
6.5444014582
 21
6.9179950205
  0
LINE
  5
85A
100
AcDbEntity
  8
0
100
AcDbLine
 62
7
  6
CONTINUOUS
 10
6.5444014582
 20
7.1100609179
 11
6.5444014582
 21
7.1599330548
  0
LINE
  5
85B
100
AcDbEntity
  8
0
100
AcDbLine
 62
9
  6
CONTINUOUS
 10
6.5463699621
 20
6.6008779367
 11
6.5463699621
 21
6.9212470228
  0
LINE
  5
85C
100
AcDbEntity
  8
0
100
AcDbLine
 62
9
  6
CONTINUOUS
 10
6.5463699621
 20
7.108055343
 11
6.5463699621
 21
7.1599330548
  0
LINE
  5
85D
100
AcDbEntity
  8
0
100
AcDbLine
 62
7
  6
CONTINUOUS
 10
6.5562124818
 20
6.5713503777
 11
6.5562124818
 21
7.7426102202
  0
LINE
  5
85E
100
AcDbEntity
  8
0
100
AcDbLine
 62
9
  6
CONTINUOUS
 10
6.5660550015
 20
7.0477283304
 11
6.5660550015
 21
7.2760747871
  0
LINE
  5
85F
100
AcDbEntity
  8
0
100
AcDbLine
 62
9
  6
CONTINUOUS
 10
6.5955825606
 20
6.5319802989
 11
6.5955825606
 21
7.0477283304
  0
LINE
  5
860
100
AcDbEntity
  8
0
100
AcDbLine
 62
9
  6
CONTINUOUS
 10
6.5955825606
 20
7.2760747871
 11
6.5955825606
 21
7.7819802989
  0
LINE
  5
861
100
AcDbEntity
  8
0
100
AcDbLine
 62
3
  6
CONTINUOUS
 10
6.3223346352
 20
7.1187722969
 11
6.3205845677
 21
7.1143460599
  0
LWPOLYLINE
  5
862
100
AcDbEntity
  8
0
100
AcDbPolyline
 62
3
  6
CONTINUOUS
 90
7
 70
0
 10
6.3223346352
 20
7.1187722969
 10
6.3246941087
 20
7.1222264067
 10
6.3277564224
 20
7.1252336023
 10
6.3314132849
 20
7.1276898443
 10
6.3355367965
 20
7.129509754
 10
6.3399804992
 20
7.130628718
 10
6.3445983086
 20
7.1310073364
  0
LWPOLYLINE
  5
863
100
AcDbEntity
  8
0
100
AcDbPolyline
 62
3
  6
CONTINUOUS
 90
10
 70
0
 10
6.5562124818
 20
7.0821811686
 10
6.5550320732
 20
7.0919932327
 10
6.5515021319
 20
7.100983943
 10
6.5457859982
 20
7.1088599621
 10
6.5380172693
 20
7.1155985898
 10
6.5283176293
 20
7.1211795348
 10
6.5171136172
 20
7.1254825038
 10
6.5046668364
 20
7.1285496261
 10
6.4912372625
 20
7.1303988904
 10
6.4774723243
 20
7.1310073364
  0
LINE
  5
864
100
AcDbEntity
  8
0
100
AcDbLine
 62
7
  6
CONTINUOUS
 10
6.7262124818
 20
7.0724015588
 11
6.7262124818
 21
7.2514015588
  0
LINE
  5
865
100
AcDbEntity
  8
0
100
AcDbLine
 62
9
  6
CONTINUOUS
 10
6.7462124818
 20
7.0524015588
 11
6.7462124818
 21
7.2714015588
  0
LINE
  5
866
100
AcDbEntity
  8
0
100
AcDbLine
 62
7
  6
CONTINUOUS
 10
6.8062124818
 20
7.2760747871
 11
6.8062124818
 21
7.0477283304
  0
LINE
  5
867
100
AcDbEntity
  8
0
100
AcDbLine
 62
9
  6
CONTINUOUS
 10
6.8160550015
 20
7.2859173068
 11
6.8160550015
 21
7.0378858107
  0
LINE
  5
868
100
AcDbEntity
  8
0
100
AcDbLine
 62
7
  6
CONTINUOUS
 10
6.3953971329
 20
7.1310073364
 11
6.4085748268
 21
7.1441850233
  0
LINE
  5
869
100
AcDbEntity
  8
0
100
AcDbLine
 62
7
  6
CONTINUOUS
 10
6.8062124818
 20
7.2760747871
 11
6.8160550015
 21
7.2859173068
  0
LINE
  5
86A
100
AcDbEntity
  8
02___PRT_ALL_AXES
100
AcDbLine
 62
7
  6
CONTINUOUS
 10
6.4538502771
 20
7.0790622964
 11
6.424322718
 21
7.0600823473
  0
LINE
  5
86B
100
AcDbEntity
  8
0
100
AcDbLine
 62
7
  6
CONTINUOUS
 10
11.0109368913
 20
6.5319802989
 11
10.8239290172
 21
6.5319802989
  0
LINE
  5
86C
100
AcDbEntity
  8
02___PRT_ALL_AXES
100
AcDbLine
 62
7
  6
CONTINUOUS
 10
11.0109368913
 20
6.5319802989
 11
10.8239290172
 21
6.5319802989
  0
LINE
  5
86D
100
AcDbEntity
  8
0
100
AcDbLine
 62
7
  6
CONTINUOUS
 10
7.2845589385
 20
6.5319802989
 11
6.5955825606
 21
6.5319802989
  0
LINE
  5
86E
100
AcDbEntity
  8
02___PRT_ALL_AXES
100
AcDbLine
 62
7
  6
CONTINUOUS
 10
7.2845589385
 20
6.5319802989
 11
6.5955825606
 21
6.5319802989
  0
LINE
  5
86F
100
AcDbEntity
  8
0
100
AcDbLine
 62
7
  6
CONTINUOUS
 10
7.3042439779
 20
6.5319802989
 11
10.8042439779
 21
6.5319802989
  0
LINE
  5
870
100
AcDbEntity
  8
02___PRT_ALL_AXES
100
AcDbLine
 62
7
  6
CONTINUOUS
 10
6.4538502771
 20
6.5713503777
 11
6.4676298046
 21
6.5713503777
  0
LINE
  5
871
100
AcDbEntity
  8
0
100
AcDbLine
 62
7
  6
CONTINUOUS
 10
7.3042439779
 20
6.5719802989
 11
7.2845589385
 21
6.5719802989
  0
LINE
  5
872
100
AcDbEntity
  8
02___PRT_ALL_AXES
100
AcDbLine
 62
7
  6
CONTINUOUS
 10
6.4538502771
 20
6.5760456193
 11
6.4676298046
 21
6.5760456193
  0
LINE
  5
873
100
AcDbEntity
  8
0
100
AcDbLine
 62
9
  6
CONTINUOUS
 10
11.0207794109
 20
6.5831614013
 11
11.0109368913
 21
6.5831614013
  0
LINE
  5
874
100
AcDbEntity
  8
02___PRT_ALL_AXES
100
AcDbLine
 62
9
  6
CONTINUOUS
 10
11.0109368913
 20
6.5831614013
 11
10.8239290172
 21
6.5831614013
  0
LINE
  5
875
100
AcDbEntity
  8
02___PRT_ALL_AXES
100
AcDbLine
 62
9
  6
CONTINUOUS
 10
7.2845589385
 20
6.5831614013
 11
6.5955825606
 21
6.5831614013
  0
LINE
  5
876
100
AcDbEntity
  8
0
100
AcDbLine
 62
9
  6
CONTINUOUS
 10
6.5562124818
 20
6.5831614013
 11
6.5955825606
 21
6.5831614013
  0
LINE
  5
877
100
AcDbEntity
  8
0
100
AcDbLine
 62
9
  6
CONTINUOUS
 10
7.3042439779
 20
6.5831614013
 11
10.8042439779
 21
6.5831614013
  0
LINE
  5
878
100
AcDbEntity
  8
0
100
AcDbLine
 62
3
  6
CONTINUOUS
 10
6.5562124818
 20
6.591035417
 11
6.4971573637
 21
6.591035417
  0
LINE
  5
879
100
AcDbEntity
  8
0
100
AcDbLine
 62
3
  6
CONTINUOUS
 10
6.424322718
 20
6.591035417
 11
6.3445983086
 21
6.591035417
  0
LINE
  5
87A
100
AcDbEntity
  8
02___PRT_ALL_AXES
100
AcDbLine
 62
7
  6
CONTINUOUS
 10
10.8239290172
 20
6.5949724249
 11
10.8180235054
 21
6.5949724249
  0
LINE
  5
87B
100
AcDbEntity
  8
0
100
AcDbLine
 62
7
  6
CONTINUOUS
 10
10.8239290172
 20
6.5949724249
 11
10.8180235054
 21
6.5949724249
  0
LINE
  5
87C
100
AcDbEntity
  8
0
100
AcDbLine
 62
7
  6
CONTINUOUS
 10
7.2845589385
 20
6.5949724249
 11
7.2904644503
 21
6.5949724249
  0
LINE
  5
87D
100
AcDbEntity
  8
02___PRT_ALL_AXES
100
AcDbLine
 62
3
  6
CONTINUOUS
 10
6.4971573637
 20
6.6044283466
 11
6.424322718
 21
6.6044283466
  0
LINE
  5
87E
100
AcDbEntity
  8
0
100
AcDbLine
 62
9
  6
CONTINUOUS
 10
7.2845589385
 20
6.6107204564
 11
7.2944014582
 21
6.6107204564
  0
LINE
  5
87F
100
AcDbEntity
  8
0
100
AcDbLine
 62
9
  6
CONTINUOUS
 10
10.8140864976
 20
6.6107204564
 11
10.8239290172
 21
6.6107204564
  0
LINE
  5
880
100
AcDbEntity
  8
0
100
AcDbLine
 62
7
  6
CONTINUOUS
 10
7.3042439779
 20
6.6319802989
 11
7.2944014582
 21
6.6319802989
  0
LINE
  5
881
100
AcDbEntity
  8
0
100
AcDbLine
 62
7
  6
CONTINUOUS
 10
7.2944014582
 20
6.6382795115
 11
7.3042439779
 21
6.6382795115
  0
LINE
  5
882
100
AcDbEntity
  8
0
100
AcDbLine
 62
7
  6
CONTINUOUS
 10
10.8042439779
 20
6.6382795115
 11
10.8140864976
 21
6.6382795115
  0
LINE
  5
883
100
AcDbEntity
  8
0
100
AcDbLine
 62
7
  6
CONTINUOUS
 10
6.3199920094
 20
6.6468514006
 11
6.3396770487
 21
6.6468514006
  0
LINE
  5
884
100
AcDbEntity
  8
0
100
AcDbLine
 62
7
  6
CONTINUOUS
 10
10.8140864976
 20
6.6776495903
 11
10.8042439779
 21
6.6776495903
  0
LINE
  5
885
100
AcDbEntity
  8
0
100
AcDbLine
 62
7
  6
CONTINUOUS
 10
7.2944014582
 20
6.6776495903
 11
7.3042439779
 21
6.6776495903
  0
LINE
  5
886
100
AcDbEntity
  8
0
100
AcDbLine
 62
7
  6
CONTINUOUS
 10
6.8160550015
 20
7.0378858107
 11
6.8062124818
 21
7.0477283304
  0
LINE
  5
887
100
AcDbEntity
  8
02___PRT_ALL_AXES
100
AcDbLine
 62
7
  6
CONTINUOUS
 10
7.2845589385
 20
6.5319802989
 11
7.2845589385
 21
7.6205629761
  0
LINE
  5
888
100
AcDbEntity
  8
0
100
AcDbLine
 62
9
  6
CONTINUOUS
 10
7.2904644503
 20
7.6205629761
 11
7.2904644503
 21
6.5949724249
  0
LINE
  5
889
100
AcDbEntity
  8
0
100
AcDbLine
 62
7
  6
CONTINUOUS
 10
7.2944014582
 20
7.6205629761
 11
7.2944014582
 21
6.5989094328
  0
LINE
  5
88A
100
AcDbEntity
  8
02___PRT_ALL_AXES
100
AcDbLine
 62
7
  6
CONTINUOUS
 10
7.3042439779
 20
7.7307991966
 11
7.3042439779
 21
7.6205629761
  0
LINE
  5
88B
100
AcDbEntity
  8
0
100
AcDbLine
 62
7
  6
CONTINUOUS
 10
7.3042439779
 20
6.5319802989
 11
7.3042439779
 21
7.7819802989
  0
LINE
  5
88C
100
AcDbEntity
  8
0
100
AcDbLine
 62
7
  6
CONTINUOUS
 10
7.2944014582
 20
6.717019669
 11
7.3042439779
 21
6.717019669
  0
LINE
  5
88D
100
AcDbEntity
  8
0
100
AcDbLine
 62
7
  6
CONTINUOUS
 10
10.8042439779
 20
6.717019669
 11
10.8140864976
 21
6.717019669
  0
LINE
  5
88E
100
AcDbEntity
  8
02___PRT_ALL_AXES
100
AcDbLine
 62
7
  6
CONTINUOUS
 10
6.3101494897
 20
6.7554054958
 11
4.0562124818
 21
6.7554054958
  0
LINE
  5
88F
100
AcDbEntity
  8
0
100
AcDbLine
 62
3
  6
CONTINUOUS
 10
6.3199920095
 20
6.8804047023
 11
6.3223346697
 21
6.8804046709
  0
LINE
  5
890
100
AcDbEntity
  8
0
100
AcDbLine
 62
3
  6
CONTINUOUS
 10
6.3223346697
 20
6.8804046709
 11
6.4774723243
 21
6.8804046286
  0
LINE
  5
891
100
AcDbEntity
  8
0
100
AcDbLine
 62
7
  6
CONTINUOUS
 10
10.8140864976
 20
6.9178070706
 11
10.8042439779
 21
6.9178070706
  0
LINE
  5
892
100
AcDbEntity
  8
0
100
AcDbLine
 62
7
  6
CONTINUOUS
 10
7.2944014582
 20
6.9178070706
 11
7.3042439779
 21
6.9178070706
  0
LINE
  5
893
100
AcDbEntity
  8
02___PRT_ALL_AXES
100
AcDbLine
 62
3
  6
CONTINUOUS
 10
6.4971573637
 20
6.9430366439
 11
6.424322718
 21
6.9430366439
  0
LINE
  5
894
100
AcDbEntity
  8
02___PRT_ALL_AXES
100
AcDbLine
 62
7
  6
CONTINUOUS
 10
6.4538502771
 20
6.9861085716
 11
6.424322718
 21
6.9760095516
  0
LINE
  5
895
100
AcDbEntity
  8
0
100
AcDbLine
 62
7
  6
CONTINUOUS
 10
6.457787285
 20
6.9800491596
 11
6.4676298046
 21
6.9834154996
  0
LINE
  5
896
100
AcDbEntity
  8
02___PRT_ALL_AXES
100
AcDbLine
 62
7
  6
CONTINUOUS
 10
7.3042439779
 20
6.9567834485
 11
7.2944014582
 21
6.9567834485
  0
LINE
  5
897
100
AcDbEntity
  8
02___PRT_ALL_AXES
100
AcDbLine
 62
7
  6
CONTINUOUS
 10
10.8140864976
 20
6.9571771493
 11
10.8042439779
 21
6.9571771493
  0
LINE
  5
898
100
AcDbEntity
  8
02___PRT_ALL_AXES
100
AcDbLine
 62
7
  6
CONTINUOUS
 10
6.4676298046
 20
6.9706234076
 11
6.424322718
 21
6.9706234076
  0
LINE
  5
899
100
AcDbEntity
  8
02___PRT_ALL_AXES
100
AcDbLine
 62
7
  6
CONTINUOUS
 10
6.4676298046
 20
6.9733164796
 11
6.457787285
 21
6.9733164796
  0
LINE
  5
89A
100
AcDbEntity
  8
02___PRT_ALL_AXES
100
AcDbLine
 62
7
  6
CONTINUOUS
 10
6.4676298046
 20
6.9861085716
 11
6.4538502771
 21
6.9861085716
  0
LINE
  5
89B
100
AcDbEntity
  8
02___PRT_ALL_AXES
100
AcDbLine
 62
7
  6
CONTINUOUS
 10
6.3101494897
 20
7.0054054958
 11
4.0562124818
 21
7.0054054958
  0
LINE
  5
89C
100
AcDbEntity
  8
02___PRT_ALL_AXES
100
AcDbLine
 62
7
  6
CONTINUOUS
 10
7.3042439779
 20
7.0067834485
 11
7.2944014582
 21
7.0067834485
  0
LINE
  5
89D
100
AcDbEntity
  8
02___PRT_ALL_AXES
100
AcDbLine
 62
7
  6
CONTINUOUS
 10
10.8140864976
 20
7.0071771493
 11
10.8042439779
 21
7.0071771493
  0
LINE
  5
89E
100
AcDbEntity
  8
0
100
AcDbLine
 62
9
  6
CONTINUOUS
 10
11.0207794109
 20
7.0378858107
 11
10.9164487023
 21
7.0378858107
  0
LINE
  5
89F
100
AcDbEntity
  8
0
100
AcDbLine
 62
9
  6
CONTINUOUS
 10
6.8160550015
 20
7.0378858107
 11
6.5562124818
 21
7.0378858107
  0
LINE
  5
8A0
100
AcDbEntity
  8
0
100
AcDbLine
 62
7
  6
CONTINUOUS
 10
11.0109368913
 20
7.0477283304
 11
10.926291222
 21
7.0477283304
  0
LINE
  5
8A1
100
AcDbEntity
  8
0
100
AcDbLine
 62
7
  6
CONTINUOUS
 10
6.8062124818
 20
7.0477283304
 11
6.5660550015
 21
7.0477283304
  0
LINE
  5
8A2
100
AcDbEntity
  8
0
100
AcDbLine
 62
7
  6
CONTINUOUS
 10
6.8062124818
 20
7.0524015588
 11
6.7462124818
 21
7.0524015588
  0
LINE
  5
8A3
100
AcDbEntity
  8
02___PRT_ALL_AXES
100
AcDbLine
 62
7
  6
CONTINUOUS
 10
10.926291222
 20
7.0554015588
 11
10.9380806957
 21
7.0554015588
  0
LINE
  5
8A4
100
AcDbEntity
  8
0
100
AcDbLine
 62
7
  6
CONTINUOUS
 10
10.8140864976
 20
7.0713503777
 11
10.8042439779
 21
7.0713503777
  0
LINE
  5
8A5
100
AcDbEntity
  8
02___PRT_ALL_AXES
100
AcDbLine
 62
7
  6
CONTINUOUS
 10
6.4676298046
 20
7.0790622964
 11
6.4538502771
 21
7.0790622964
  0
LINE
  5
8A6
100
AcDbEntity
  8
02___PRT_ALL_AXES
100
AcDbLine
 62
7
  6
CONTINUOUS
 10
6.4676298046
 20
7.0792381634
 11
6.424322718
 21
7.0792381634
  0
LINE
  5
8A7
100
AcDbEntity
  8
0
100
AcDbLine
 62
9
  6
CONTINUOUS
 10
10.8140864976
 20
7.0851299052
 11
10.8042439779
 21
7.0851299052
  0
LINE
  5
8A8
100
AcDbEntity
  8
02___PRT_ALL_AXES
100
AcDbLine
 62
3
  6
CONTINUOUS
 10
6.4971573637
 20
7.0937514968
 11
6.424322718
 21
7.0937514968
  0
LINE
  5
8A9
100
AcDbEntity
  8
0
100
AcDbLine
 62
9
  6
CONTINUOUS
 10
10.8140864976
 20
7.0969409288
 11
10.8042439779
 21
7.0969409288
  0
LINE
  5
8AA
100
AcDbEntity
  8
0
100
AcDbLine
 62
7
  6
CONTINUOUS
 10
7.3042439779
 20
7.1059015588
 11
7.2944014582
 21
7.1059015588
  0
LINE
  5
8AB
100
AcDbEntity
  8
0
100
AcDbLine
 62
7
  6
CONTINUOUS
 10
10.8140864976
 20
7.1107204564
 11
10.8042439779
 21
7.1107204564
  0
LINE
  5
8AC
100
AcDbEntity
  8
0
100
AcDbLine
 62
7
  6
CONTINUOUS
 10
6.3199920094
 20
7.1139575142
 11
6.3205350597
 21
7.1139575142
  0
LINE
  5
8AD
100
AcDbEntity
  8
0
100
AcDbLine
 62
3
  6
CONTINUOUS
 10
6.3445983086
 20
7.1310073364
 11
6.4774723243
 21
7.1310073364
  0
LINE
  5
8AE
100
AcDbEntity
  8
0
100
AcDbLine
 62
7
  6
CONTINUOUS
 10
6.4676298046
 20
7.1441850233
 11
6.4085748268
 21
7.1441850233
  0
LINE
  5
8AF
100
AcDbEntity
  8
02___PRT_ALL_AXES
100
AcDbLine
 62
7
  6
CONTINUOUS
 10
6.3790471275
 20
7.1461535273
 11
6.3888896472
 21
7.1461535273
  0
LINE
  5
8B0
100
AcDbEntity
  8
0
100
AcDbLine
 62
7
  6
CONTINUOUS
 10
6.3396770487
 20
7.1500905351
 11
6.3199920094
 21
7.1500905351
  0
LINE
  5
8B1
100
AcDbEntity
  8
02___PRT_ALL_AXES
100
AcDbLine
 62
7
  6
CONTINUOUS
 10
6.5444014582
 20
7.1520590391
 11
6.4676298046
 21
7.1520590391
  0
LINE
  5
8B2
100
AcDbEntity
  8
0
100
AcDbLine
 62
7
  6
CONTINUOUS
 10
6.5463699621
 20
7.1599330548
 11
6.5444014582
 21
7.1599330548
  0
LINE
  5
8B3
100
AcDbEntity
  8
0
100
AcDbLine
 62
9
  6
CONTINUOUS
 10
7.2944014582
 20
7.5955128788
 11
7.2941017713
 21
7.5968355406
  0
LINE
  5
8B4
100
AcDbEntity
  8
0
100
AcDbLine
 62
7
  6
CONTINUOUS
 10
10.8140864976
 20
7.2130826611
 11
10.8042439779
 21
7.2130826611
  0
LINE
  5
8B5
100
AcDbEntity
  8
0
100
AcDbLine
 62
7
  6
CONTINUOUS
 10
7.3042439779
 20
7.2179015588
 11
7.2944014582
 21
7.2179015588
  0
LINE
  5
8B6
100
AcDbEntity
  8
0
100
AcDbLine
 62
9
  6
CONTINUOUS
 10
10.8140864976
 20
7.2268621887
 11
10.8042439779
 21
7.2268621887
  0
LINE
  5
8B7
100
AcDbEntity
  8
0
100
AcDbLine
 62
9
  6
CONTINUOUS
 10
10.8140864976
 20
7.2386732123
 11
10.8042439779
 21
7.2386732123
  0
LINE
  5
8B8
100
AcDbEntity
  8
0
100
AcDbLine
 62
7
  6
CONTINUOUS
 10
10.8140864976
 20
7.2524527399
 11
10.8042439779
 21
7.2524527399
  0
LINE
  5
8B9
100
AcDbEntity
  8
02___PRT_ALL_AXES
100
AcDbLine
 62
7
  6
CONTINUOUS
 10
10.926291222
 20
7.2684015588
 11
10.9380806957
 21
7.2684015588
  0
LINE
  5
8BA
100
AcDbEntity
  8
0
100
AcDbLine
 62
7
  6
CONTINUOUS
 10
6.8062124818
 20
7.2714015588
 11
6.7462124818
 21
7.2714015588
  0
LINE
  5
8BB
100
AcDbEntity
  8
0
100
AcDbLine
 62
7
  6
CONTINUOUS
 10
6.5660550015
 20
7.2760747871
 11
6.8062124818
 21
7.2760747871
  0
LINE
  5
8BC
100
AcDbEntity
  8
0
100
AcDbLine
 62
7
  6
CONTINUOUS
 10
10.926291222
 20
7.2760747871
 11
11.0109368913
 21
7.2760747871
  0
LINE
  5
8BD
100
AcDbEntity
  8
02___PRT_ALL_AXES
100
AcDbLine
 62
7
  6
CONTINUOUS
 10
11.05030697
 20
7.2819802989
 11
11.0207794109
 21
7.2819802989
  0
LINE
  5
8BE
100
AcDbEntity
  8
0
100
AcDbLine
 62
7
  6
CONTINUOUS
 10
11.0207794109
 20
7.2819802989
 11
11.05030697
 21
7.2819802989
  0
LINE
  5
8BF
100
AcDbEntity
  8
0
100
AcDbLine
 62
9
  6
CONTINUOUS
 10
6.5562124818
 20
7.2859173068
 11
6.8160550015
 21
7.2859173068
  0
LINE
  5
8C0
100
AcDbEntity
  8
0
100
AcDbLine
 62
9
  6
CONTINUOUS
 10
10.9164487023
 20
7.2859173068
 11
11.0207794109
 21
7.2859173068
  0
LINE
  5
8C1
100
AcDbEntity
  8
0
100
AcDbLine
 62
7
  6
CONTINUOUS
 10
7.2944014582
 20
7.4119015588
 11
7.3042439779
 21
7.4119015588
  0
LWPOLYLINE
  5
8C2
100
AcDbEntity
  8
0
100
AcDbPolyline
 62
9
  6
CONTINUOUS
 90
4
 70
0
 10
7.2941017713
 20
7.5968355406
 10
7.2932483353
 20
7.5979568391
 10
7.291971078
 20
7.5987060668
 10
7.2904644503
 20
7.5989691606
  0
LINE
  5
8C3
100
AcDbEntity
  8
02___PRT_ALL_AXES
100
AcDbLine
 62
7
  6
CONTINUOUS
 10
11.05030697
 20
7.435523606
 11
11.0207794109
 21
7.435523606
  0
LINE
  5
8C4
100
AcDbEntity
  8
0
100
AcDbLine
 62
7
  6
CONTINUOUS
 10
11.0207794109
 20
7.435523606
 11
11.05030697
 21
7.435523606
  0
LINE
  5
8C5
100
AcDbEntity
  8
02___PRT_ALL_AXES
100
AcDbLine
 62
7
  6
CONTINUOUS
 10
10.8140864976
 20
7.4549253789
 11
10.8042439779
 21
7.4549253789
  0
LINE
  5
8C6
100
AcDbEntity
  8
0
100
AcDbLine
 62
7
  6
CONTINUOUS
 10
10.8140864976
 20
7.4549253789
 11
10.8042439779
 21
7.4549253789
  0
LINE
  5
8C7
100
AcDbEntity
  8
02___PRT_ALL_AXES
100
AcDbLine
 62
7
  6
CONTINUOUS
 10
7.2944014582
 20
7.4549253789
 11
7.3042439779
 21
7.4549253789
  0
LINE
  5
8C8
100
AcDbEntity
  8
0
100
AcDbLine
 62
7
  6
CONTINUOUS
 10
10.8140864976
 20
7.5257915206
 11
10.8042439779
 21
7.5257915206
  0
LINE
  5
8C9
100
AcDbEntity
  8
02___PRT_ALL_AXES
100
AcDbLine
 62
7
  6
CONTINUOUS
 10
7.3042439779
 20
7.5257915206
 11
7.2944014582
 21
7.5257915206
  0
LINE
  5
8CA
100
AcDbEntity
  8
0
100
AcDbLine
 62
9
  6
CONTINUOUS
 10
10.8239290172
 20
7.5729133017
 11
10.8140864976
 21
7.5729133017
  0
LINE
  5
8CB
100
AcDbEntity
  8
0
100
AcDbLine
 62
9
  6
CONTINUOUS
 10
7.2845589385
 20
7.5729133017
 11
7.2944014582
 21
7.5729133017
  0
LINE
  5
8CC
100
AcDbEntity
  8
02___PRT_ALL_AXES
100
AcDbLine
 62
7
  6
CONTINUOUS
 10
10.8239290172
 20
7.5886613332
 11
10.8180235054
 21
7.5886613332
  0
LINE
  5
8CD
100
AcDbEntity
  8
02___PRT_ALL_AXES
100
AcDbLine
 62
7
  6
CONTINUOUS
 10
7.2845589385
 20
7.5886613332
 11
7.2904644503
 21
7.5886613332
  0
LINE
  5
8CE
100
AcDbEntity
  8
0
100
AcDbLine
 62
9
  6
CONTINUOUS
 10
10.8239290172
 20
7.5989691606
 11
10.8180235054
 21
7.5989691606
  0
LINE
  5
8CF
100
AcDbEntity
  8
0
100
AcDbLine
 62
9
  6
CONTINUOUS
 10
7.2845589385
 20
7.5989691606
 11
7.2904644503
 21
7.5989691606
  0
LINE
  5
8D0
100
AcDbEntity
  8
0
100
AcDbLine
 62
9
  6
CONTINUOUS
 10
7.2845589385
 20
7.6006973015
 11
7.2944014582
 21
7.6006973015
  0
LINE
  5
8D1
100
AcDbEntity
  8
0
100
AcDbLine
 62
9
  6
CONTINUOUS
 10
10.8140864976
 20
7.6006973015
 11
10.8239290172
 21
7.6006973015
  0
LINE
  5
8D2
100
AcDbEntity
  8
0
100
AcDbLine
 62
7
  6
CONTINUOUS
 10
10.8140864976
 20
7.6126889603
 11
10.8042439779
 21
7.6126889603
  0
LINE
  5
8D3
100
AcDbEntity
  8
02___PRT_ALL_AXES
100
AcDbLine
 62
7
  6
CONTINUOUS
 10
7.2944014582
 20
7.6126889603
 11
7.3042439779
 21
7.6126889603
  0
LINE
  5
8D4
100
AcDbEntity
  8
02___PRT_ALL_AXES
100
AcDbLine
 62
7
  6
CONTINUOUS
 10
7.3042439779
 20
7.6205629761
 11
7.2845589385
 21
7.6205629761
  0
LINE
  5
8D5
100
AcDbEntity
  8
02___PRT_ALL_AXES
100
AcDbLine
 62
7
  6
CONTINUOUS
 10
10.8042439779
 20
7.6205629761
 11
10.8239290172
 21
7.6205629761
  0
LINE
  5
8D6
100
AcDbEntity
  8
0
100
AcDbLine
 62
9
  6
CONTINUOUS
 10
6.5562124818
 20
7.7307991966
 11
11.0207794109
 21
7.7307991966
  0
LINE
  5
8D7
100
AcDbEntity
  8
0
100
AcDbLine
 62
7
  6
CONTINUOUS
 10
6.5955825606
 20
7.7819802989
 11
11.0109368913
 21
7.7819802989
  0
LINE
  5
8D8
100
AcDbEntity
  8
0
100
AcDbLine
 62
7
  6
CONTINUOUS
 10
10.9164487023
 20
7.0378858107
 11
10.926291222
 21
7.0477283304
  0
LINE
  5
8D9
100
AcDbEntity
  8
0
100
AcDbLine
 62
7
  6
CONTINUOUS
 10
10.9164487023
 20
7.2859173068
 11
10.926291222
 21
7.2760747871
  0
LWPOLYLINE
  5
8DA
100
AcDbEntity
  8
0
100
AcDbPolyline
 62
9
  6
CONTINUOUS
 90
5
 70
0
 10
10.8140864976
 20
7.5955128788
 10
10.8143861844
 20
7.5968355406
 10
10.8152396205
 20
7.5979568391
 10
10.8165168778
 20
7.5987060669
 10
10.8180235054
 20
7.5989691606
  0
LINE
  5
8DB
100
AcDbEntity
  8
02___PRT_ALL_AXES
100
AcDbLine
 62
7
  6
CONTINUOUS
 10
10.8042439779
 20
7.7307991966
 11
10.8042439779
 21
7.6205629761
  0
LINE
  5
8DC
100
AcDbEntity
  8
0
100
AcDbLine
 62
7
  6
CONTINUOUS
 10
10.8042439779
 20
6.5319802989
 11
10.8042439779
 21
7.7819802989
  0
LINE
  5
8DD
100
AcDbEntity
  8
0
100
AcDbLine
 62
7
  6
CONTINUOUS
 10
10.8140864976
 20
6.5989094328
 11
10.8140864976
 21
7.6205629761
  0
LINE
  5
8DE
100
AcDbEntity
  8
0
100
AcDbLine
 62
9
  6
CONTINUOUS
 10
10.8180235054
 20
6.5949724249
 11
10.8180235054
 21
7.6205629761
  0
LINE
  5
8DF
100
AcDbEntity
  8
02___PRT_ALL_AXES
100
AcDbLine
 62
7
  6
CONTINUOUS
 10
10.8239290172
 20
6.5319802989
 11
10.8239290172
 21
7.6205629761
  0
LINE
  5
8E0
100
AcDbEntity
  8
0
100
AcDbLine
 62
9
  6
CONTINUOUS
 10
10.9164487023
 20
7.0378858107
 11
10.9164487023
 21
7.2859173068
  0
LINE
  5
8E1
100
AcDbEntity
  8
0
100
AcDbLine
 62
7
  6
CONTINUOUS
 10
10.926291222
 20
7.0477283304
 11
10.926291222
 21
7.2760747871
  0
LINE
  5
8E2
100
AcDbEntity
  8
02___PRT_ALL_AXES
100
AcDbLine
 62
7
  6
CONTINUOUS
 10
10.9380806957
 20
7.0554015588
 11
10.9380806957
 21
7.2684015588
  0
LINE
  5
8E3
100
AcDbEntity
  8
02___PRT_ALL_AXES
100
AcDbLine
 62
7
  6
CONTINUOUS
 10
10.985291222
 20
7.099404367
 11
10.985291222
 21
7.2243987505
  0
LINE
  5
8E4
100
AcDbEntity
  8
0
100
AcDbLine
 62
9
  6
CONTINUOUS
 10
11.0109368913
 20
6.5319802989
 11
11.0109368913
 21
7.7819802989
  0
LINE
  5
8E5
100
AcDbEntity
  8
0
100
AcDbLine
 62
7
  6
CONTINUOUS
 10
11.0207794109
 20
7.7721377792
 11
11.0207794109
 21
6.5418228186
  0
LINE
  5
8E6
100
AcDbEntity
  8
0
100
AcDbLine
 62
9
  6
CONTINUOUS
 10
11.05030697
 20
7.435523606
 11
11.05030697
 21
7.2819802989
  0
LINE
  5
8E7
100
AcDbEntity
  8
0
100
AcDbLine
 62
7
  6
CONTINUOUS
 10
11.0798345291
 20
7.4059960469
 11
11.0798345291
 21
7.311507858
  0
LINE
  5
8E8
100
AcDbEntity
  8
02___PRT_ALL_AXES
100
AcDbLine
 62
7
  6
CONTINUOUS
 10
4.0562124818
 20
9.0302309783
 11
4.0562124818
 21
9.2802309783
  0
LINE
  5
8E9
100
AcDbEntity
  8
0
100
AcDbLine
 62
7
  6
CONTINUOUS
 10
6.3101494897
 20
9.005624679
 11
6.3101494897
 21
9.3048372775
  0
LINE
  5
8EA
100
AcDbEntity
  8
0
100
AcDbLine
 62
3
  6
CONTINUOUS
 10
6.3199920094
 20
8.8855459389
 11
6.3199920094
 21
9.4249160175
  0
LINE
  5
8EB
100
AcDbEntity
  8
0
100
AcDbLine
 62
7
  6
CONTINUOUS
 10
6.3396770487
 20
9.0203884589
 11
6.3396770487
 21
9.2900734979
  0
LINE
  5
8EC
100
AcDbEntity
  8
0
100
AcDbLine
 62
9
  6
CONTINUOUS
 10
6.3445983086
 20
8.8658608995
 11
6.3445983086
 21
9.0203884608
  0
LINE
  5
8ED
100
AcDbEntity
  8
0
100
AcDbLine
 62
9
  6
CONTINUOUS
 10
6.3790471275
 20
9.0203884608
 11
6.3790471275
 21
9.2900703695
  0
LINE
  5
8EE
100
AcDbEntity
  8
02___PRT_ALL_AXES
100
AcDbLine
 62
7
  6
CONTINUOUS
 10
6.3888896472
 20
9.2900703695
 11
6.3888896472
 21
9.0203884608
  0
LINE
  5
8EF
100
AcDbEntity
  8
0
100
AcDbLine
 62
7
  6
CONTINUOUS
 10
6.4085748268
 20
9.0203884608
 11
6.4085746388
 21
9.3572978196
  0
LWPOLYLINE
  5
8F0
100
AcDbEntity
  8
0
100
AcDbPolyline
 62
7
  6
CONTINUOUS
 90
3
 70
0
 10
6.3396770487
 20
9.0228490906
 10
6.3397994232
 20
9.0223037703
 10
6.3401438816
 20
9.0218030411
  0
LINE
  5
8F1
100
AcDbEntity
  8
0
100
AcDbLine
 62
3
  6
CONTINUOUS
 10
6.3205845677
 20
9.0201653335
 11
6.3205100909
 21
9.0205027972
  0
LINE
  5
8F2
100
AcDbEntity
  8
02___PRT_ALL_AXES
100
AcDbLine
 62
3
  6
CONTINUOUS
 10
6.424322718
 20
8.8727201258
 11
6.424322718
 21
8.9597353867
  0
LINE
  5
8F3
100
AcDbEntity
  8
02___PRT_ALL_AXES
100
AcDbLine
 62
3
  6
CONTINUOUS
 10
6.424322718
 20
9.3507265698
 11
6.424322718
 21
9.4377418307
  0
LINE
  5
8F4
100
AcDbEntity
  8
02___PRT_ALL_AXES
100
AcDbLine
 62
7
  6
CONTINUOUS
 10
6.4538502771
 20
9.4456477922
 11
6.4538502771
 21
9.3919809341
  0
LINE
  5
8F5
100
AcDbEntity
  8
02___PRT_ALL_AXES
100
AcDbLine
 62
7
  6
CONTINUOUS
 10
6.4538502771
 20
8.9184810224
 11
6.4538502771
 21
8.8648141644
  0
LINE
  5
8F6
100
AcDbEntity
  8
0
100
AcDbLine
 62
7
  6
CONTINUOUS
 10
6.457787285
 20
8.947132291
 11
6.457787285
 21
8.9320526759
  0
LINE
  5
8F7
100
AcDbEntity
  8
0
100
AcDbLine
 62
7
  6
CONTINUOUS
 10
6.457787285
 20
9.3633296656
 11
6.457787285
 21
9.3784092806
  0
LINE
  5
8F8
100
AcDbEntity
  8
02___PRT_ALL_AXES
100
AcDbLine
 62
7
  6
CONTINUOUS
 10
6.4676298046
 20
9.4456477922
 11
6.4676298046
 21
9.3919809341
  0
LINE
  5
8F9
100
AcDbEntity
  8
0
100
AcDbLine
 62
7
  6
CONTINUOUS
 10
6.4676298046
 20
8.9245128684
 11
6.4676298046
 21
8.9184810224
  0
LINE
  5
8FA
100
AcDbEntity
  8
02___PRT_ALL_AXES
100
AcDbLine
 62
7
  6
CONTINUOUS
 10
6.4676298046
 20
8.9184810224
 11
6.4676298046
 21
8.8648141644
  0
LINE
  5
8FB
100
AcDbEntity
  8
02___PRT_ALL_AXES
100
AcDbLine
 62
7
  6
CONTINUOUS
 10
6.4676298046
 20
8.947132291
 11
6.4676298046
 21
8.9597353867
  0
LINE
  5
8FC
100
AcDbEntity
  8
02___PRT_ALL_AXES
100
AcDbLine
 62
7
  6
CONTINUOUS
 10
6.4676298046
 20
9.3507265698
 11
6.4676298046
 21
9.3633296656
  0
LINE
  5
8FD
100
AcDbEntity
  8
0
100
AcDbLine
 62
7
  6
CONTINUOUS
 10
6.4676298046
 20
9.3859490881
 11
6.4676298046
 21
9.3919809341
  0
LINE
  5
8FE
100
AcDbEntity
  8
02___PRT_ALL_AXES
100
AcDbLine
 62
3
  6
CONTINUOUS
 10
6.4971573637
 20
8.8727201258
 11
6.4971573637
 21
8.9597353867
  0
LINE
  5
8FF
100
AcDbEntity
  8
02___PRT_ALL_AXES
100
AcDbLine
 62
3
  6
CONTINUOUS
 10
6.4971573637
 20
9.3507265698
 11
6.4971573637
 21
9.4377418307
  0
LINE
  5
900
100
AcDbEntity
  8
0
100
AcDbLine
 62
7
  6
CONTINUOUS
 10
6.5444014582
 20
9.1552309783
 11
6.5444014582
 21
9.4268845216
  0
LINE
  5
901
100
AcDbEntity
  8
0
100
AcDbLine
 62
9
  6
CONTINUOUS
 10
6.5463699621
 20
9.1552309783
 11
6.5463699621
 21
9.4347585373
  0
LINE
  5
902
100
AcDbEntity
  8
0
100
AcDbLine
 62
7
  6
CONTINUOUS
 10
6.5562124818
 20
8.694601057
 11
6.5562124818
 21
9.6158608995
  0
LINE
  5
903
100
AcDbEntity
  8
0
100
AcDbLine
 62
9
  6
CONTINUOUS
 10
6.5955825606
 20
8.6552309783
 11
6.5955825606
 21
8.7930262539
  0
LINE
  5
904
100
AcDbEntity
  8
0
100
AcDbLine
 62
9
  6
CONTINUOUS
 10
6.5955825606
 20
9.2103490885
 11
6.5955825606
 21
9.6552309783
  0
LINE
  5
905
100
AcDbEntity
  8
02___PRT_ALL_AXES
100
AcDbLine
 62
7
  6
CONTINUOUS
 10
6.4538502771
 20
9.4456477922
 11
6.424322718
 21
9.4179009628
  0
LINE
  5
906
100
AcDbEntity
  8
02___PRT_ALL_AXES
100
AcDbLine
 62
7
  6
CONTINUOUS
 10
6.4538502771
 20
8.8648141644
 11
6.424322718
 21
8.8925609937
  0
LINE
  5
907
100
AcDbEntity
  8
0
100
AcDbLine
 62
3
  6
CONTINUOUS
 10
6.3223346352
 20
9.0176098444
 11
6.3205845677
 21
9.0201653335
  0
LINE
  5
908
100
AcDbEntity
  8
0
100
AcDbLine
 62
7
  6
CONTINUOUS
 10
6.674322718
 20
8.7930262539
 11
6.674322718
 21
9.2103490885
  0
LINE
  5
909
100
AcDbEntity
  8
02___PRT_ALL_AXES
100
AcDbLine
 62
7
  6
CONTINUOUS
 10
6.4538502771
 20
9.3919809341
 11
6.4085746865
 21
9.3572978196
  0
LINE
  5
90A
100
AcDbEntity
  8
0
100
AcDbLine
 62
7
  6
CONTINUOUS
 10
6.457787285
 20
9.3784092806
 11
6.4676298046
 21
9.3859490881
  0
LWPOLYLINE
  5
90B
100
AcDbEntity
  8
0
100
AcDbPolyline
 62
7
  6
CONTINUOUS
 90
4
 70
0
 10
6.3401438816
 20
9.0218030411
 10
6.341227422
 20
9.0210563328
 10
6.3427849578
 20
9.0205615944
 10
6.3445983086
 20
9.0203884608
  0
LINE
  5
90C
100
AcDbEntity
  8
02___PRT_ALL_AXES
100
AcDbLine
 62
7
  6
CONTINUOUS
 10
6.4538502771
 20
8.9184810224
 11
6.424322718
 21
8.9411004449
  0
LINE
  5
90D
100
AcDbEntity
  8
0
100
AcDbLine
 62
7
  6
CONTINUOUS
 10
6.4676298046
 20
8.9245128684
 11
6.457787285
 21
8.9320526759
  0
LWPOLYLINE
  5
90E
100
AcDbEntity
  8
0
100
AcDbPolyline
 62
3
  6
CONTINUOUS
 90
7
 70
0
 10
6.3223346352
 20
9.0176098444
 10
6.3246941087
 20
9.0156156133
 10
6.3277564224
 20
9.0138794081
 10
6.3314132849
 20
9.0124612961
 10
6.3355367965
 20
9.0114105708
 10
6.3399804992
 20
9.0107645367
 10
6.3445983086
 20
9.0105459412
  0
LWPOLYLINE
  5
90F
100
AcDbEntity
  8
0
100
AcDbPolyline
 62
3
  6
CONTINUOUS
 90
10
 70
0
 10
6.5562124818
 20
9.4336801825
 10
6.5550321948
 20
9.4371682035
 10
6.5515031798
 20
9.4399042547
 10
6.5457882415
 20
9.4418794312
 10
6.5380198754
 20
9.4432032208
 10
6.5283205489
 20
9.4440009333
 10
6.5171171173
 20
9.4444025859
 10
6.5046696961
 20
9.4445603549
 10
6.4912383647
 20
9.4445984862
 10
6.4774723243
 20
9.4446010569
  0
LINE
  5
910
100
AcDbEntity
  8
0
100
AcDbLine
 62
7
  6
CONTINUOUS
 10
6.5955825606
 20
8.6552309783
 11
11.0109368913
 21
8.6552309783
  0
LINE
  5
911
100
AcDbEntity
  8
0
100
AcDbLine
 62
9
  6
CONTINUOUS
 10
6.5562124818
 20
8.7064120806
 11
11.0207794109
 21
8.7064120806
  0
LINE
  5
912
100
AcDbEntity
  8
02___PRT_ALL_AXES
100
AcDbLine
 62
7
  6
CONTINUOUS
 10
7.2845589385
 20
8.7930262539
 11
7.2845589385
 21
9.2103490885
  0
LINE
  5
913
100
AcDbEntity
  8
02___PRT_ALL_AXES
100
AcDbLine
 62
7
  6
CONTINUOUS
 10
7.2845589385
 20
9.2772782224
 11
7.2845589385
 21
9.6552309783
  0
LINE
  5
914
100
AcDbEntity
  8
0
100
AcDbLine
 62
9
  6
CONTINUOUS
 10
7.2904644503
 20
9.6197979074
 11
7.2904644503
 21
9.2772782224
  0
LINE
  5
915
100
AcDbEntity
  8
0
100
AcDbLine
 62
9
  6
CONTINUOUS
 10
7.2904644503
 20
9.2103490885
 11
7.2904644503
 21
8.7930262539
  0
LINE
  5
916
100
AcDbEntity
  8
0
100
AcDbLine
 62
7
  6
CONTINUOUS
 10
7.2944014582
 20
9.6158608995
 11
7.2944014582
 21
9.2772782224
  0
LINE
  5
917
100
AcDbEntity
  8
0
100
AcDbLine
 62
7
  6
CONTINUOUS
 10
7.2944014582
 20
9.2103490885
 11
7.2944014582
 21
8.7930262539
  0
LINE
  5
918
100
AcDbEntity
  8
02___PRT_ALL_AXES
100
AcDbLine
 62
7
  6
CONTINUOUS
 10
7.3042439779
 20
9.2772782224
 11
7.3042439779
 21
9.2615301909
  0
LINE
  5
919
100
AcDbEntity
  8
0
100
AcDbLine
 62
7
  6
CONTINUOUS
 10
7.3042439779
 20
8.6552309783
 11
7.3042439779
 21
9.6552309783
  0
LWPOLYLINE
  5
91A
100
AcDbEntity
  8
0
100
AcDbPolyline
 62
9
  6
CONTINUOUS
 90
5
 70
0
 10
7.2944014582
 20
9.3135706562
 10
7.2941017713
 20
9.3128492043
 10
7.2932483353
 20
9.312237587
 10
7.291971078
 20
9.3118289173
 10
7.2904644503
 20
9.3116854116
  0
LWPOLYLINE
  5
91B
100
AcDbEntity
  8
0
100
AcDbPolyline
 62
9
  6
CONTINUOUS
 90
3
 70
0
 10
7.2944014582
 20
9.1587180937
 10
7.2941017713
 20
9.1579966418
 10
7.2932483353
 20
9.1573850244
  0
LINE
  5
91C
100
AcDbEntity
  8
0
100
AcDbLine
 62
7
  6
CONTINUOUS
 10
6.5562124818
 20
8.8469248546
 11
6.674322718
 21
8.852081372
  0
LWPOLYLINE
  5
91D
100
AcDbEntity
  8
0
100
AcDbPolyline
 62
3
  6
CONTINUOUS
 90
10
 70
0
 10
6.4774822877
 20
8.8658608995
 10
6.4912383647
 20
8.865863437
 10
6.5046696961
 20
8.8659014687
 10
6.5171171173
 20
8.866059077
 10
6.5283205489
 20
8.8664605127
 10
6.5380198754
 20
8.867257957
 10
6.5457882415
 20
8.86858144
 10
6.5515031798
 20
8.8705562785
 10
6.5550321948
 20
8.8732919667
 10
6.5562124818
 20
8.8767796154
  0
LINE
  5
91E
100
AcDbEntity
  8
0
100
AcDbLine
 62
9
  6
CONTINUOUS
 10
6.5562124818
 20
8.7418451515
 11
11.0207794109
 21
8.7418451515
  0
LINE
  5
91F
100
AcDbEntity
  8
0
100
AcDbLine
 62
7
  6
CONTINUOUS
 10
6.5955825606
 20
8.7930262539
 11
11.0109368913
 21
8.7930262539
  0
LINE
  5
920
100
AcDbEntity
  8
02___PRT_ALL_AXES
100
AcDbLine
 62
7
  6
CONTINUOUS
 10
7.2944014582
 20
8.7957363313
 11
7.3042439779
 21
8.7957363313
  0
LINE
  5
921
100
AcDbEntity
  8
0
100
AcDbLine
 62
7
  6
CONTINUOUS
 10
10.8042439779
 20
8.7957363313
 11
10.8140864976
 21
8.7957363313
  0
LINE
  5
922
100
AcDbEntity
  8
02___PRT_ALL_AXES
100
AcDbLine
 62
7
  6
CONTINUOUS
 10
11.05030697
 20
8.8314120806
 11
11.0207794109
 21
8.8314120806
  0
LINE
  5
923
100
AcDbEntity
  8
0
100
AcDbLine
 62
9
  6
CONTINUOUS
 10
10.8239290172
 20
8.8423502112
 11
10.8180235054
 21
8.8423502112
  0
LINE
  5
924
100
AcDbEntity
  8
0
100
AcDbLine
 62
9
  6
CONTINUOUS
 10
7.2845589385
 20
8.8423502112
 11
7.2904644503
 21
8.8423502112
  0
LINE
  5
925
100
AcDbEntity
  8
0
100
AcDbLine
 62
9
  6
CONTINUOUS
 10
7.2845589385
 20
8.8433152924
 11
7.2944014582
 21
8.8433152924
  0
LINE
  5
926
100
AcDbEntity
  8
0
100
AcDbLine
 62
9
  6
CONTINUOUS
 10
10.8140864976
 20
8.8433152924
 11
10.8239290172
 21
8.8433152924
  0
LINE
  5
927
100
AcDbEntity
  8
0
100
AcDbLine
 62
7
  6
CONTINUOUS
 10
10.9026691747
 20
8.852081372
 11
10.8239290172
 21
8.852081372
  0
LINE
  5
928
100
AcDbEntity
  8
0
100
AcDbLine
 62
7
  6
CONTINUOUS
 10
10.8042439779
 20
8.852081372
 11
7.3042439779
 21
8.852081372
  0
LINE
  5
929
100
AcDbEntity
  8
02___PRT_ALL_AXES
100
AcDbLine
 62
7
  6
CONTINUOUS
 10
7.2845589385
 20
8.852081372
 11
6.674322718
 21
8.852081372
  0
LINE
  5
92A
100
AcDbEntity
  8
0
100
AcDbLine
 62
7
  6
CONTINUOUS
 10
7.3042439779
 20
8.8569002696
 11
7.2944014582
 21
8.8569002696
  0
LINE
  5
92B
100
AcDbEntity
  8
02___PRT_ALL_AXES
100
AcDbLine
 62
7
  6
CONTINUOUS
 10
10.8140864976
 20
8.860166762
 11
10.8042439779
 21
8.860166762
  0
LINE
  5
92C
100
AcDbEntity
  8
02___PRT_ALL_AXES
100
AcDbLine
 62
7
  6
CONTINUOUS
 10
6.4676298046
 20
8.8648141644
 11
6.4538502771
 21
8.8648141644
  0
LINE
  5
92D
100
AcDbEntity
  8
0
100
AcDbLine
 62
3
  6
CONTINUOUS
 10
6.4774821681
 20
8.8658608995
 11
6.4676298046
 21
8.8658608995
  0
LINE
  5
92E
100
AcDbEntity
  8
0
100
AcDbLine
 62
3
  6
CONTINUOUS
 10
6.4527363648
 20
8.8658608995
 11
6.3445983086
 21
8.8658608995
  0
LINE
  5
92F
100
AcDbEntity
  8
02___PRT_ALL_AXES
100
AcDbLine
 62
3
  6
CONTINUOUS
 10
6.4971573637
 20
8.8727201258
 11
6.4676298046
 21
8.8727201258
  0
LINE
  5
930
100
AcDbEntity
  8
02___PRT_ALL_AXES
100
AcDbLine
 62
3
  6
CONTINUOUS
 10
6.4454369286
 20
8.8727201258
 11
6.424322718
 21
8.8727201258
  0
LINE
  5
931
100
AcDbEntity
  8
0
100
AcDbLine
 62
7
  6
CONTINUOUS
 10
6.3206399055
 20
8.8855459389
 11
6.3199920094
 21
8.8855459389
  0
LINE
  5
932
100
AcDbEntity
  8
0
100
AcDbLine
 62
7
  6
CONTINUOUS
 10
6.3199920094
 20
8.8855480132
 11
6.3206396324
 21
8.8855480132
  0
LINE
  5
933
100
AcDbEntity
  8
02___PRT_ALL_AXES
100
AcDbLine
 62
7
  6
CONTINUOUS
 10
6.4249851076
 20
8.8919385511
 11
6.424322718
 21
8.8919385511
  0
LINE
  5
934
100
AcDbEntity
  8
0
100
AcDbLine
 62
7
  6
CONTINUOUS
 10
7.2944014582
 20
8.9111364901
 11
7.3042439779
 21
8.9111364901
  0
LINE
  5
935
100
AcDbEntity
  8
02___PRT_ALL_AXES
100
AcDbLine
 62
7
  6
CONTINUOUS
 10
6.4676298046
 20
8.9184810224
 11
6.4538502771
 21
8.9184810224
  0
LINE
  5
936
100
AcDbEntity
  8
02___PRT_ALL_AXES
100
AcDbLine
 62
7
  6
CONTINUOUS
 10
6.4676298046
 20
8.947132291
 11
6.457787285
 21
8.947132291
  0
LWPOLYLINE
  5
937
100
AcDbEntity
  8
0
100
AcDbPolyline
 62
9
  6
CONTINUOUS
 90
3
 70
0
 10
7.2932483353
 20
8.8417848798
 10
7.291971078
 20
8.8422032864
 10
7.2904644503
 20
8.8423502112
  0
LWPOLYLINE
  5
938
100
AcDbEntity
  8
0
100
AcDbPolyline
 62
9
  6
CONTINUOUS
 90
3
 70
0
 10
7.2944014582
 20
8.8404200489
 10
7.2941017713
 20
8.84115869
 10
7.2932483353
 20
8.8417848798
  0
LWPOLYLINE
  5
939
100
AcDbEntity
  8
0
100
AcDbPolyline
 62
9
  6
CONTINUOUS
 90
3
 70
0
 10
7.2932483353
 20
9.1573850244
 10
7.291971078
 20
9.1569763548
 10
7.2904644503
 20
9.1568328491
  0
LINE
  5
93A
100
AcDbEntity
  8
0
100
AcDbLine
 62
7
  6
CONTINUOUS
 10
11.0207794109
 20
9.1523765297
 11
10.9026691747
 21
9.1473569625
  0
LINE
  5
93B
100
AcDbEntity
  8
02___PRT_ALL_AXES
100
AcDbLine
 62
7
  6
CONTINUOUS
 10
6.4676298046
 20
8.953164137
 11
6.424322718
 21
8.953164137
  0
LINE
  5
93C
100
AcDbEntity
  8
02___PRT_ALL_AXES
100
AcDbLine
 62
7
  6
CONTINUOUS
 10
10.8042439779
 20
8.9562007063
 11
10.8140864976
 21
8.9562007063
  0
LINE
  5
93D
100
AcDbEntity
  8
02___PRT_ALL_AXES
100
AcDbLine
 62
3
  6
CONTINUOUS
 10
6.4971573637
 20
8.9597353867
 11
6.424322718
 21
8.9597353867
  0
LINE
  5
93E
100
AcDbEntity
  8
02___PRT_ALL_AXES
100
AcDbLine
 62
7
  6
CONTINUOUS
 10
11.05030697
 20
8.9849553877
 11
11.0207794109
 21
8.9849553877
  0
LINE
  5
93F
100
AcDbEntity
  8
0
100
AcDbLine
 62
7
  6
CONTINUOUS
 10
6.3445983086
 20
9.0203884608
 11
6.4676298046
 21
9.0203884608
  0
LINE
  5
940
100
AcDbEntity
  8
0
100
AcDbLine
 62
7
  6
CONTINUOUS
 10
6.3199920094
 20
9.020389658
 11
6.3396770487
 21
9.020389658
  0
LINE
  5
941
100
AcDbEntity
  8
02___PRT_ALL_AXES
100
AcDbLine
 62
7
  6
CONTINUOUS
 10
10.8140864976
 20
9.0302309783
 11
10.8042439779
 21
9.0302309783
  0
LINE
  5
942
100
AcDbEntity
  8
02___PRT_ALL_AXES
100
AcDbLine
 62
7
  6
CONTINUOUS
 10
6.3101494897
 20
9.0302309783
 11
4.0562124818
 21
9.0302309783
  0
LINE
  5
943
100
AcDbEntity
  8
0
100
AcDbLine
 62
7
  6
CONTINUOUS
 10
7.2944014582
 20
9.068616805
 11
7.3042439779
 21
9.068616805
  0
LINE
  5
944
100
AcDbEntity
  8
0
100
AcDbLine
 62
7
  6
CONTINUOUS
 10
10.8042439779
 20
9.0922388523
 11
10.8140864976
 21
9.0922388523
  0
LINE
  5
945
100
AcDbEntity
  8
0
100
AcDbLine
 62
7
  6
CONTINUOUS
 10
10.9026691747
 20
9.1473569625
 11
10.8239290172
 21
9.1473569625
  0
LINE
  5
946
100
AcDbEntity
  8
0
100
AcDbLine
 62
7
  6
CONTINUOUS
 10
10.8042439779
 20
9.1473569625
 11
7.3042439779
 21
9.1473569625
  0
LINE
  5
947
100
AcDbEntity
  8
02___PRT_ALL_AXES
100
AcDbLine
 62
7
  6
CONTINUOUS
 10
7.2845589385
 20
9.1473569625
 11
6.674322718
 21
9.1473569625
  0
LINE
  5
948
100
AcDbEntity
  8
0
100
AcDbLine
 62
9
  6
CONTINUOUS
 10
7.2845589385
 20
9.1558902268
 11
7.2944014582
 21
9.1558902268
  0
LINE
  5
949
100
AcDbEntity
  8
0
100
AcDbLine
 62
9
  6
CONTINUOUS
 10
10.8140864976
 20
9.1558902268
 11
10.8239290172
 21
9.1558902268
  0
LINE
  5
94A
100
AcDbEntity
  8
0
100
AcDbLine
 62
9
  6
CONTINUOUS
 10
10.8239290172
 20
9.1568328491
 11
10.8180235054
 21
9.1568328491
  0
LINE
  5
94B
100
AcDbEntity
  8
0
100
AcDbLine
 62
9
  6
CONTINUOUS
 10
7.2845589385
 20
9.1568328491
 11
7.2904644503
 21
9.1568328491
  0
LINE
  5
94C
100
AcDbEntity
  8
0
100
AcDbLine
 62
7
  6
CONTINUOUS
 10
10.8140864976
 20
9.1674352314
 11
10.8042439779
 21
9.1674352314
  0
LINE
  5
94D
100
AcDbEntity
  8
0
100
AcDbLine
 62
7
  6
CONTINUOUS
 10
6.5562124818
 20
9.1523765297
 11
6.674322718
 21
9.1473569625
  0
LINE
  5
94E
100
AcDbEntity
  8
0
100
AcDbLine
 62
7
  6
CONTINUOUS
 10
11.0207794109
 20
8.8469248546
 11
10.9026691747
 21
8.852081372
  0
LINE
  5
94F
100
AcDbEntity
  8
0
100
AcDbLine
 62
9
  6
CONTINUOUS
 10
6.3401438816
 20
9.0218030411
 11
6.3396770487
 21
9.0216931251
  0
LINE
  5
950
100
AcDbEntity
  8
0
100
AcDbLine
 62
9
  6
CONTINUOUS
 10
6.3341409939
 20
9.020389658
 11
6.3223346352
 21
9.0176098444
  0
LINE
  5
951
100
AcDbEntity
  8
0
100
AcDbLine
 62
7
  6
CONTINUOUS
 10
6.5955825606
 20
9.2103490885
 11
11.0109368913
 21
9.2103490885
  0
LINE
  5
952
100
AcDbEntity
  8
0
100
AcDbLine
 62
9
  6
CONTINUOUS
 10
6.5562124818
 20
9.2615301909
 11
11.0207794109
 21
9.2615301909
  0
LINE
  5
953
100
AcDbEntity
  8
02___PRT_ALL_AXES
100
AcDbLine
 62
7
  6
CONTINUOUS
 10
7.3042439779
 20
9.2772782224
 11
7.2845589385
 21
9.2772782224
  0
LINE
  5
954
100
AcDbEntity
  8
02___PRT_ALL_AXES
100
AcDbLine
 62
7
  6
CONTINUOUS
 10
10.8042439779
 20
9.2772782224
 11
10.8239290172
 21
9.2772782224
  0
LINE
  5
955
100
AcDbEntity
  8
02___PRT_ALL_AXES
100
AcDbLine
 62
7
  6
CONTINUOUS
 10
10.8140864976
 20
9.2802309783
 11
10.8042439779
 21
9.2802309783
  0
LINE
  5
956
100
AcDbEntity
  8
02___PRT_ALL_AXES
100
AcDbLine
 62
7
  6
CONTINUOUS
 10
6.3101494897
 20
9.2802309783
 11
4.0562124818
 21
9.2802309783
  0
LINE
  5
957
100
AcDbEntity
  8
0
100
AcDbLine
 62
7
  6
CONTINUOUS
 10
6.3199920094
 20
9.2900734979
 11
6.3396770487
 21
9.2900734979
  0
LINE
  5
958
100
AcDbEntity
  8
0
100
AcDbLine
 62
9
  6
CONTINUOUS
 10
10.8239290172
 20
9.3116854116
 11
10.8180235054
 21
9.3116854116
  0
LINE
  5
959
100
AcDbEntity
  8
0
100
AcDbLine
 62
9
  6
CONTINUOUS
 10
7.2845589385
 20
9.3116854116
 11
7.2904644503
 21
9.3116854116
  0
LINE
  5
95A
100
AcDbEntity
  8
02___PRT_ALL_AXES
100
AcDbLine
 62
7
  6
CONTINUOUS
 10
10.8239290172
 20
9.3127112932
 11
10.8180235054
 21
9.3127112932
  0
LINE
  5
95B
100
AcDbEntity
  8
0
100
AcDbLine
 62
7
  6
CONTINUOUS
 10
10.8239290172
 20
9.3127112932
 11
10.8180235054
 21
9.3127112932
  0
LINE
  5
95C
100
AcDbEntity
  8
0
100
AcDbLine
 62
7
  6
CONTINUOUS
 10
7.2845589385
 20
9.3127112932
 11
7.2904644503
 21
9.3127112932
  0
LINE
  5
95D
100
AcDbEntity
  8
02___PRT_ALL_AXES
100
AcDbLine
 62
7
  6
CONTINUOUS
 10
11.05030697
 20
9.3255065688
 11
11.0207794109
 21
9.3255065688
  0
LINE
  5
95E
100
AcDbEntity
  8
0
100
AcDbLine
 62
9
  6
CONTINUOUS
 10
10.8140864976
 20
9.3284593247
 11
10.8239290172
 21
9.3284593247
  0
LINE
  5
95F
100
AcDbEntity
  8
0
100
AcDbLine
 62
9
  6
CONTINUOUS
 10
7.2944014582
 20
9.3284593247
 11
7.2845589385
 21
9.3284593247
  0
LINE
  5
960
100
AcDbEntity
  8
02___PRT_ALL_AXES
100
AcDbLine
 62
3
  6
CONTINUOUS
 10
6.4971573637
 20
9.3507265698
 11
6.424322718
 21
9.3507265698
  0
LINE
  5
961
100
AcDbEntity
  8
02___PRT_ALL_AXES
100
AcDbLine
 62
7
  6
CONTINUOUS
 10
6.4676298046
 20
9.3572978196
 11
6.424322718
 21
9.3572978196
  0
LINE
  5
962
100
AcDbEntity
  8
02___PRT_ALL_AXES
100
AcDbLine
 62
7
  6
CONTINUOUS
 10
6.4676298046
 20
9.3633296656
 11
6.457787285
 21
9.3633296656
  0
LINE
  5
963
100
AcDbEntity
  8
02___PRT_ALL_AXES
100
AcDbLine
 62
7
  6
CONTINUOUS
 10
6.4676298046
 20
9.3919809341
 11
6.4538502771
 21
9.3919809341
  0
LINE
  5
964
100
AcDbEntity
  8
0
100
AcDbLine
 62
7
  6
CONTINUOUS
 10
7.2944014582
 20
9.3993254664
 11
7.3042439779
 21
9.3993254664
  0
LINE
  5
965
100
AcDbEntity
  8
02___PRT_ALL_AXES
100
AcDbLine
 62
7
  6
CONTINUOUS
 10
6.4249851076
 20
9.4185234054
 11
6.424322718
 21
9.4185234054
  0
LINE
  5
966
100
AcDbEntity
  8
0
100
AcDbLine
 62
7
  6
CONTINUOUS
 10
6.3199920094
 20
9.4249139442
 11
6.3205363447
 21
9.4249139442
  0
LINE
  5
967
100
AcDbEntity
  8
02___PRT_ALL_AXES
100
AcDbLine
 62
3
  6
CONTINUOUS
 10
6.4971573637
 20
9.4377418307
 11
6.4676298046
 21
9.4377418307
  0
LINE
  5
968
100
AcDbEntity
  8
02___PRT_ALL_AXES
100
AcDbLine
 62
3
  6
CONTINUOUS
 10
6.4454369286
 20
9.4377418307
 11
6.424322718
 21
9.4377418307
  0
LINE
  5
969
100
AcDbEntity
  8
0
100
AcDbLine
 62
3
  6
CONTINUOUS
 10
6.3445983086
 20
9.4446010569
 11
6.4527363647
 21
9.4446010569
  0
LINE
  5
96A
100
AcDbEntity
  8
0
100
AcDbLine
 62
3
  6
CONTINUOUS
 10
6.4676298046
 20
9.4446010569
 11
6.4774723243
 21
9.4446010569
  0
LINE
  5
96B
100
AcDbEntity
  8
02___PRT_ALL_AXES
100
AcDbLine
 62
7
  6
CONTINUOUS
 10
6.4676298046
 20
9.4456477922
 11
6.4538502771
 21
9.4456477922
  0
LINE
  5
96C
100
AcDbEntity
  8
0
100
AcDbLine
 62
7
  6
CONTINUOUS
 10
7.3042439779
 20
9.4535616869
 11
7.2944014582
 21
9.4535616869
  0
LINE
  5
96D
100
AcDbEntity
  8
02___PRT_ALL_AXES
100
AcDbLine
 62
7
  6
CONTINUOUS
 10
11.05030697
 20
9.4790498759
 11
11.0207794109
 21
9.4790498759
  0
LINE
  5
96E
100
AcDbEntity
  8
02___PRT_ALL_AXES
100
AcDbLine
 62
7
  6
CONTINUOUS
 10
10.8140864976
 20
9.505624679
 11
10.8042439779
 21
9.505624679
  0
LINE
  5
96F
100
AcDbEntity
  8
02___PRT_ALL_AXES
100
AcDbLine
 62
7
  6
CONTINUOUS
 10
7.2944014582
 20
9.505624679
 11
7.3042439779
 21
9.505624679
  0
LINE
  5
970
100
AcDbEntity
  8
02___PRT_ALL_AXES
100
AcDbLine
 62
7
  6
CONTINUOUS
 10
10.8140864976
 20
9.5764908208
 11
10.8042439779
 21
9.5764908208
  0
LINE
  5
971
100
AcDbEntity
  8
02___PRT_ALL_AXES
100
AcDbLine
 62
7
  6
CONTINUOUS
 10
7.3042439779
 20
9.5764908208
 11
7.2944014582
 21
9.5764908208
  0
LINE
  5
972
100
AcDbEntity
  8
0
100
AcDbLine
 62
9
  6
CONTINUOUS
 10
11.0207794109
 20
9.6040498759
 11
11.0109368913
 21
9.6040498759
  0
LINE
  5
973
100
AcDbEntity
  8
02___PRT_ALL_AXES
100
AcDbLine
 62
9
  6
CONTINUOUS
 10
11.0109368913
 20
9.6040498759
 11
10.8239290172
 21
9.6040498759
  0
LINE
  5
974
100
AcDbEntity
  8
02___PRT_ALL_AXES
100
AcDbLine
 62
9
  6
CONTINUOUS
 10
7.2845589385
 20
9.6040498759
 11
6.5955825606
 21
9.6040498759
  0
LINE
  5
975
100
AcDbEntity
  8
0
100
AcDbLine
 62
9
  6
CONTINUOUS
 10
6.5562124818
 20
9.6040498759
 11
6.5955825606
 21
9.6040498758
  0
LINE
  5
976
100
AcDbEntity
  8
0
100
AcDbLine
 62
9
  6
CONTINUOUS
 10
7.2845589385
 20
9.6040498759
 11
7.2944014582
 21
9.6040498759
  0
LINE
  5
977
100
AcDbEntity
  8
0
100
AcDbLine
 62
9
  6
CONTINUOUS
 10
7.3042439779
 20
9.6040498759
 11
10.8042439779
 21
9.6040498759
  0
LINE
  5
978
100
AcDbEntity
  8
0
100
AcDbLine
 62
9
  6
CONTINUOUS
 10
10.8140864976
 20
9.6040498759
 11
10.8239290172
 21
9.6040498759
  0
LINE
  5
979
100
AcDbEntity
  8
0
100
AcDbLine
 62
7
  6
CONTINUOUS
 10
10.8239290172
 20
9.6197979074
 11
10.8180235054
 21
9.6197979074
  0
LINE
  5
97A
100
AcDbEntity
  8
02___PRT_ALL_AXES
100
AcDbLine
 62
7
  6
CONTINUOUS
 10
7.2845589385
 20
9.6197979074
 11
7.2904644503
 21
9.6197979074
  0
LINE
  5
97B
100
AcDbEntity
  8
0
100
AcDbLine
 62
7
  6
CONTINUOUS
 10
7.2845589385
 20
9.6197979074
 11
7.2904644503
 21
9.6197979074
  0
LINE
  5
97C
100
AcDbEntity
  8
0
100
AcDbLine
 62
7
  6
CONTINUOUS
 10
11.0109368913
 20
9.6552309783
 11
10.8239290172
 21
9.6552309783
  0
LINE
  5
97D
100
AcDbEntity
  8
02___PRT_ALL_AXES
100
AcDbLine
 62
7
  6
CONTINUOUS
 10
11.0109368913
 20
9.6552309783
 11
10.8239290172
 21
9.6552309783
  0
LINE
  5
97E
100
AcDbEntity
  8
0
100
AcDbLine
 62
7
  6
CONTINUOUS
 10
7.2845589385
 20
9.6552309783
 11
6.5955825606
 21
9.6552309783
  0
LINE
  5
97F
100
AcDbEntity
  8
02___PRT_ALL_AXES
100
AcDbLine
 62
7
  6
CONTINUOUS
 10
7.2845589385
 20
9.6552309783
 11
6.5955825606
 21
9.6552309783
  0
LINE
  5
980
100
AcDbEntity
  8
0
100
AcDbLine
 62
7
  6
CONTINUOUS
 10
7.3042439779
 20
9.6552309783
 11
10.8042439779
 21
9.6552309783
  0
LWPOLYLINE
  5
981
100
AcDbEntity
  8
0
100
AcDbPolyline
 62
9
  6
CONTINUOUS
 90
3
 70
0
 10
10.8152396205
 20
9.1573850244
 10
10.8165168777
 20
9.1569763548
 10
10.8180235054
 20
9.1568328491
  0
LWPOLYLINE
  5
982
100
AcDbEntity
  8
0
100
AcDbPolyline
 62
9
  6
CONTINUOUS
 90
3
 70
0
 10
10.8152396205
 20
8.8417848798
 10
10.8165168812
 20
8.8422032871
 10
10.8180235054
 20
8.8423502112
  0
LWPOLYLINE
  5
983
100
AcDbEntity
  8
0
100
AcDbPolyline
 62
9
  6
CONTINUOUS
 90
3
 70
0
 10
10.8140864976
 20
9.1587180937
 10
10.8143861844
 20
9.1579966418
 10
10.8152396205
 20
9.1573850244
  0
LWPOLYLINE
  5
984
100
AcDbEntity
  8
0
100
AcDbPolyline
 62
9
  6
CONTINUOUS
 90
5
 70
0
 10
10.8140864976
 20
9.3135706562
 10
10.8143861844
 20
9.3128492044
 10
10.8152396205
 20
9.312237587
 10
10.8165168778
 20
9.3118289173
 10
10.8180235054
 20
9.3116854116
  0
LINE
  5
985
100
AcDbEntity
  8
02___PRT_ALL_AXES
100
AcDbLine
 62
7
  6
CONTINUOUS
 10
10.8042439779
 20
9.2772782224
 11
10.8042439779
 21
9.2615301909
  0
LINE
  5
986
100
AcDbEntity
  8
0
100
AcDbLine
 62
7
  6
CONTINUOUS
 10
10.8042439779
 20
8.6552309783
 11
10.8042439779
 21
9.6552309783
  0
LINE
  5
987
100
AcDbEntity
  8
0
100
AcDbLine
 62
7
  6
CONTINUOUS
 10
10.8140864976
 20
8.7930262539
 11
10.8140864976
 21
9.2103490885
  0
LINE
  5
988
100
AcDbEntity
  8
0
100
AcDbLine
 62
7
  6
CONTINUOUS
 10
10.8140864976
 20
9.2772782224
 11
10.8140864976
 21
9.6158608995
  0
LINE
  5
989
100
AcDbEntity
  8
0
100
AcDbLine
 62
9
  6
CONTINUOUS
 10
10.8180235054
 20
8.7930262539
 11
10.8180235054
 21
9.2103490885
  0
LINE
  5
98A
100
AcDbEntity
  8
0
100
AcDbLine
 62
9
  6
CONTINUOUS
 10
10.8180235054
 20
9.2772782224
 11
10.8180235054
 21
9.6197979074
  0
LINE
  5
98B
100
AcDbEntity
  8
02___PRT_ALL_AXES
100
AcDbLine
 62
7
  6
CONTINUOUS
 10
10.8239290172
 20
8.7930262539
 11
10.8239290172
 21
9.2103490885
  0
LINE
  5
98C
100
AcDbEntity
  8
02___PRT_ALL_AXES
100
AcDbLine
 62
7
  6
CONTINUOUS
 10
10.8239290172
 20
9.2772782224
 11
10.8239290172
 21
9.6552309783
  0
LINE
  5
98D
100
AcDbEntity
  8
0
100
AcDbLine
 62
7
  6
CONTINUOUS
 10
10.9026691747
 20
8.7930262539
 11
10.9026691747
 21
9.2103490885
  0
LINE
  5
98E
100
AcDbEntity
  8
0
100
AcDbLine
 62
9
  6
CONTINUOUS
 10
11.0109368913
 20
9.6552309783
 11
11.0109368913
 21
9.2103490885
  0
LINE
  5
98F
100
AcDbEntity
  8
0
100
AcDbLine
 62
9
  6
CONTINUOUS
 10
11.0109368913
 20
8.7930262539
 11
11.0109368913
 21
8.6552309783
  0
LINE
  5
990
100
AcDbEntity
  8
0
100
AcDbLine
 62
7
  6
CONTINUOUS
 10
11.0207794109
 20
8.6650734979
 11
11.0207794109
 21
9.6453884586
  0
LINE
  5
991
100
AcDbEntity
  8
0
100
AcDbLine
 62
9
  6
CONTINUOUS
 10
11.05030697
 20
9.4790498759
 11
11.05030697
 21
9.3255065688
  0
LINE
  5
992
100
AcDbEntity
  8
0
100
AcDbLine
 62
9
  6
CONTINUOUS
 10
11.05030697
 20
8.9849553877
 11
11.05030697
 21
8.8314120806
  0
LINE
  5
993
100
AcDbEntity
  8
0
100
AcDbLine
 62
7
  6
CONTINUOUS
 10
11.0798345291
 20
9.4495217681
 11
11.0798345291
 21
9.3550346766
  0
LINE
  5
994
100
AcDbEntity
  8
0
100
AcDbLine
 62
7
  6
CONTINUOUS
 10
11.0798345291
 20
8.9554272799
 11
11.0798345291
 21
8.8609401885
  0
LWPOLYLINE
  5
995
100
AcDbEntity
  8
0
100
AcDbPolyline
 62
9
  6
CONTINUOUS
 90
3
 70
0
 10
10.8140864976
 20
8.8404200489
 10
10.814386183
 20
8.8411586883
 10
10.8152396205
 20
8.8417848798
  0
CIRCLE
  5
996
100
AcDbEntity
  8
0
100
AcDbCircle
 62
7
  6
CONTINUOUS
 10
10.5342808475
 20
1.243294839
 40
0.252091
  0
CIRCLE
  5
997
100
AcDbEntity
  8
0
100
AcDbCircle
 62
7
  6
CONTINUOUS
 10
10.5342808475
 20
1.243294839
 40
0.182698
  0
ARC
  5
998
100
AcDbEntity
  8
0
100
AcDbCircle
 62
7
  6
CONTINUOUS
 10
6.3790471275
 20
4.081552482
 40
0.0393700787
100
AcDbArc
 50
180.0
 51
270.0
  0
ARC
  5
999
100
AcDbEntity
  8
0
100
AcDbCircle
 62
7
  6
CONTINUOUS
 10
6.5955825606
 20
3.8473005135
 40
0.0393700787
100
AcDbArc
 50
180.0
 51
270.0
  0
ARC
  5
99A
100
AcDbEntity
  8
0
100
AcDbCircle
 62
3
  6
CONTINUOUS
 10
6.3445983086
 20
4.0431666553
 40
0.0246062992
100
AcDbArc
 50
191.3936309717
 51
269.9999999934
  0
ARC
  5
99B
100
AcDbEntity
  8
0
100
AcDbCircle
 62
7
  6
CONTINUOUS
 10
6.3199920094
 20
4.1583241356
 40
0.0098425197
100
AcDbArc
 50
180.0
 51
270.0
  0
ARC
  5
99C
100
AcDbEntity
  8
0
100
AcDbCircle
 62
7
  6
CONTINUOUS
 10
6.5463699621
 20
4.018560356
 40
0.0098425197
100
AcDbArc
 50
0.0000094205
 51
90.0
  0
ARC
  5
99D
100
AcDbEntity
  8
0
100
AcDbCircle
 62
7
  6
CONTINUOUS
 10
6.3445983086
 20
4.0431666553
 40
0.0049212598
100
AcDbArc
 50
179.9758611072
 51
269.9999999915
  0
ARC
  5
99E
100
AcDbEntity
  8
0
100
AcDbCircle
 62
7
  6
CONTINUOUS
 10
7.2904644503
 20
3.8473005135
 40
0.0039370079
100
AcDbArc
 50
270.0
 51
359.9999999999
  0
ARC
  5
99F
100
AcDbEntity
  8
0
100
AcDbCircle
 62
7
  6
CONTINUOUS
 10
6.3199920094
 20
4.457536734
 40
0.0098425197
100
AcDbArc
 50
90.0
 51
180.0
  0
ARC
  5
9A0
100
AcDbEntity
  8
0
100
AcDbCircle
 62
3
  6
CONTINUOUS
 10
6.3445983086
 20
4.5726942143
 40
0.0246062992
100
AcDbArc
 50
90.0000000001
 51
168.6063818049
  0
ARC
  5
9A1
100
AcDbEntity
  8
0
100
AcDbCircle
 62
7
  6
CONTINUOUS
 10
6.3445983086
 20
4.5726942143
 40
0.0049212598
100
AcDbArc
 50
90.0000000001
 51
180.0
  0
ARC
  5
9A2
100
AcDbEntity
  8
0
100
AcDbCircle
 62
7
  6
CONTINUOUS
 10
6.3790471275
 20
4.5343083875
 40
0.0393700787
100
AcDbArc
 50
90.0
 51
180.0
  0
ARC
  5
9A3
100
AcDbEntity
  8
0
100
AcDbCircle
 62
7
  6
CONTINUOUS
 10
6.5463699621
 20
4.5973005135
 40
0.0098425197
100
AcDbArc
 50
270.0
 51
359.9999905795
  0
ARC
  5
9A4
100
AcDbEntity
  8
0
100
AcDbCircle
 62
7
  6
CONTINUOUS
 10
6.5955825606
 20
4.768560356
 40
0.0393700787
100
AcDbArc
 50
90.0
 51
180.0
  0
ARC
  5
9A5
100
AcDbEntity
  8
0
100
AcDbCircle
 62
7
  6
CONTINUOUS
 10
7.2904644503
 20
4.768560356
 40
0.0039370079
100
AcDbArc
 50
0.0000000003
 51
90.0
  0
ARC
  5
9A6
100
AcDbEntity
  8
0
100
AcDbCircle
 62
7
  6
CONTINUOUS
 10
11.05030697
 20
4.1081272852
 40
0.0295275591
100
AcDbArc
 50
359.9999997849
 51
90.0
  0
ARC
  5
9A7
100
AcDbEntity
  8
0
100
AcDbCircle
 62
7
  6
CONTINUOUS
 10
11.05030697
 20
4.0136390962
 40
0.0295275591
100
AcDbArc
 50
270.0
 51
0.0000002151
  0
ARC
  5
9A8
100
AcDbEntity
  8
0
100
AcDbCircle
 62
7
  6
CONTINUOUS
 10
11.0109368913
 20
3.8177729545
 40
0.0098425197
100
AcDbArc
 50
270.0
 51
360.0
  0
ARC
  5
9A9
100
AcDbEntity
  8
0
100
AcDbCircle
 62
7
  6
CONTINUOUS
 10
10.8180235054
 20
3.8473005135
 40
0.0039370079
100
AcDbArc
 50
180.0000000003
 51
270.0
  0
ARC
  5
9AA
100
AcDbEntity
  8
0
100
AcDbCircle
 62
7
  6
CONTINUOUS
 10
11.05030697
 20
4.6022217734
 40
0.0295275591
100
AcDbArc
 50
359.9999997849
 51
90.0
  0
ARC
  5
9AB
100
AcDbEntity
  8
0
100
AcDbCircle
 62
7
  6
CONTINUOUS
 10
11.05030697
 20
4.5077335844
 40
0.0295275591
100
AcDbArc
 50
270.0
 51
0.0000002151
  0
ARC
  5
9AC
100
AcDbEntity
  8
0
100
AcDbCircle
 62
7
  6
CONTINUOUS
 10
11.0109368913
 20
4.7980879151
 40
0.0098425197
100
AcDbArc
 50
0.0
 51
90.0
  0
ARC
  5
9AD
100
AcDbEntity
  8
0
100
AcDbCircle
 62
7
  6
CONTINUOUS
 10
10.8180235054
 20
4.768560356
 40
0.0039370079
100
AcDbArc
 50
90.0
 51
179.9999999999
  0
ARC
  5
9AE
100
AcDbEntity
  8
0
100
AcDbCircle
 62
7
  6
CONTINUOUS
 10
1.9105076649
 20
3.8591115371
 40
0.0511811024
100
AcDbArc
 50
180.0
 51
270.0
  0
ARC
  5
9AF
100
AcDbEntity
  8
0
100
AcDbCircle
 62
9
  6
CONTINUOUS
 10
1.9105076649
 20
3.8591115371
 40
0.0118110161
100
AcDbArc
 50
180.0
 51
270.0
  0
ARC
  5
9B0
100
AcDbEntity
  8
0
100
AcDbCircle
 62
7
  6
CONTINUOUS
 10
1.9105076649
 20
4.2016312222
 40
0.0511811024
100
AcDbArc
 50
90.0
 51
180.0
  0
ARC
  5
9B1
100
AcDbEntity
  8
0
100
AcDbCircle
 62
9
  6
CONTINUOUS
 10
1.9105076649
 20
4.2016312222
 40
0.0118110161
100
AcDbArc
 50
90.0
 51
180.0
  0
ARC
  5
9B2
100
AcDbEntity
  8
0
100
AcDbCircle
 62
9
  6
CONTINUOUS
 10
2.4794053027
 20
3.9535997261
 40
0.1240157235
100
AcDbArc
 50
0.0
 51
180.0
  0
ARC
  5
9B3
100
AcDbEntity
  8
0
100
AcDbCircle
 62
7
  6
CONTINUOUS
 10
2.4794053027
 20
3.9535997261
 40
0.1141732283
100
AcDbArc
 50
0.0
 51
180.0
  0
CIRCLE
  5
9B4
100
AcDbEntity
  8
0
100
AcDbCircle
 62
7
  6
CONTINUOUS
 10
2.4794053027
 20
3.9535997261
 40
0.1095
  0
CIRCLE
  5
9B5
100
AcDbEntity
  8
0
100
AcDbCircle
 62
9
  6
CONTINUOUS
 10
2.4794053027
 20
3.9535997261
 40
0.0895
  0
ARC
  5
9B6
100
AcDbEntity
  8
0
100
AcDbCircle
 62
7
  6
CONTINUOUS
 10
2.3553895547
 20
3.8177729545
 40
0.0098425197
100
AcDbArc
 50
270.0
 51
360.0
  0
CIRCLE
  5
9B7
100
AcDbEntity
  8
DEFAULT_2
100
AcDbCircle
 62
8
  6
HIDDEN
 10
2.2814352657
 20
4.0608831907
 40
0.0885826772
  0
CIRCLE
  5
9B8
100
AcDbEntity
  8
02___PRT_ALL_AXES
100
AcDbCircle
 62
7
  6
CONTINUOUS
 10
2.2814352657
 20
4.0608831907
 40
0.0885826772
  0
CIRCLE
  5
9B9
100
AcDbEntity
  8
02___PRT_ALL_AXES
100
AcDbCircle
 62
7
  6
CONTINUOUS
 10
2.2814352657
 20
4.0608831907
 40
0.0728346457
  0
CIRCLE
  5
9BA
100
AcDbEntity
  8
DEFAULT_2
100
AcDbCircle
 62
8
  6
HIDDEN
 10
2.2814352657
 20
4.0608831907
 40
0.0590551181
  0
CIRCLE
  5
9BB
100
AcDbEntity
  8
COSMETIC_THREADS
100
AcDbCircle
 62
7
  6
CONTINUOUS
 10
2.2814352657
 20
4.0608831907
 40
0.0492125984
  0
ARC
  5
9BC
100
AcDbEntity
  8
0
100
AcDbCircle
 62
7
  6
CONTINUOUS
 10
1.9105076649
 20
4.7213162616
 40
0.0511811024
100
AcDbArc
 50
180.0
 51
270.0
  0
ARC
  5
9BD
100
AcDbEntity
  8
0
100
AcDbCircle
 62
7
  6
CONTINUOUS
 10
1.9105076649
 20
4.7567493324
 40
0.0511811024
100
AcDbArc
 50
90.0
 51
180.0
  0
ARC
  5
9BE
100
AcDbEntity
  8
0
100
AcDbCircle
 62
9
  6
CONTINUOUS
 10
1.9105076649
 20
4.7213162616
 40
0.0118110161
100
AcDbArc
 50
180.0
 51
270.0
  0
ARC
  5
9BF
100
AcDbEntity
  8
0
100
AcDbCircle
 62
9
  6
CONTINUOUS
 10
1.9105076649
 20
4.7567493324
 40
0.0118110161
100
AcDbArc
 50
90.0
 51
180.0
  0
ARC
  5
9C0
100
AcDbEntity
  8
0
100
AcDbCircle
 62
9
  6
CONTINUOUS
 10
2.4794053027
 20
4.6622611434
 40
0.1240157235
100
AcDbArc
 50
180.0
 51
360.0
  0
ARC
  5
9C1
100
AcDbEntity
  8
0
100
AcDbCircle
 62
7
  6
CONTINUOUS
 10
2.4794053027
 20
4.6622611434
 40
0.1141732283
100
AcDbArc
 50
180.0
 51
360.0
  0
CIRCLE
  5
9C2
100
AcDbEntity
  8
0
100
AcDbCircle
 62
7
  6
CONTINUOUS
 10
2.4794053027
 20
4.6622611434
 40
0.1095
  0
CIRCLE
  5
9C3
100
AcDbEntity
  8
0
100
AcDbCircle
 62
9
  6
CONTINUOUS
 10
2.4794053027
 20
4.6622611434
 40
0.0895
  0
CIRCLE
  5
9C4
100
AcDbEntity
  8
DEFAULT_2
100
AcDbCircle
 62
8
  6
HIDDEN
 10
2.2814352657
 20
4.5549776789
 40
0.0885826772
  0
CIRCLE
  5
9C5
100
AcDbEntity
  8
02___PRT_ALL_AXES
100
AcDbCircle
 62
7
  6
CONTINUOUS
 10
2.2814352657
 20
4.5549776789
 40
0.0885826772
  0
CIRCLE
  5
9C6
100
AcDbEntity
  8
02___PRT_ALL_AXES
100
AcDbCircle
 62
7
  6
CONTINUOUS
 10
2.2814352657
 20
4.5549776789
 40
0.0728346457
  0
CIRCLE
  5
9C7
100
AcDbEntity
  8
DEFAULT_2
100
AcDbCircle
 62
8
  6
HIDDEN
 10
2.2814352657
 20
4.5549776789
 40
0.0590551181
  0
CIRCLE
  5
9C8
100
AcDbEntity
  8
COSMETIC_THREADS
100
AcDbCircle
 62
7
  6
CONTINUOUS
 10
2.2814352657
 20
4.5549776789
 40
0.0492125984
  0
ARC
  5
9C9
100
AcDbEntity
  8
0
100
AcDbCircle
 62
7
  6
CONTINUOUS
 10
2.3553895547
 20
4.7980879151
 40
0.0098425197
100
AcDbArc
 50
0.0
 51
90.0
  0
ARC
  5
9CA
100
AcDbEntity
  8
0
100
AcDbCircle
 62
7
  6
CONTINUOUS
 10
3.0581454602
 20
3.8591115371
 40
0.0511811024
100
AcDbArc
 50
270.0
 51
360.0
  0
ARC
  5
9CB
100
AcDbEntity
  8
0
100
AcDbCircle
 62
9
  6
CONTINUOUS
 10
3.0581454602
 20
3.8591115371
 40
0.0118110161
100
AcDbArc
 50
270.0
 51
360.0
  0
ARC
  5
9CC
100
AcDbEntity
  8
0
100
AcDbCircle
 62
7
  6
CONTINUOUS
 10
2.6034210507
 20
3.8177729545
 40
0.0098425197
100
AcDbArc
 50
180.0
 51
270.0
  0
ARC
  5
9CD
100
AcDbEntity
  8
02___PRT_ALL_AXES
100
AcDbCircle
 62
7
  6
CONTINUOUS
 10
2.7609013657
 20
4.3079304348
 40
0.3090551181
100
AcDbArc
 50
350.0
 51
10.0
  0
ARC
  5
9CE
100
AcDbEntity
  8
02___PRT_ALL_AXES
100
AcDbCircle
 62
7
  6
CONTINUOUS
 10
2.7609013657
 20
4.3079304348
 40
0.3090549537
100
AcDbArc
 50
230.0
 51
250.0
  0
ARC
  5
9CF
100
AcDbEntity
  8
02___PRT_ALL_AXES
100
AcDbCircle
 62
7
  6
CONTINUOUS
 10
2.7609013657
 20
4.3079304348
 40
0.3090549537
100
AcDbArc
 50
110.0
 51
130.0
  0
ARC
  5
9D0
100
AcDbEntity
  8
02___PRT_ALL_AXES
100
AcDbCircle
 62
3
  6
CONTINUOUS
 10
2.7609013657
 20
4.3079304348
 40
0.2893700787
100
AcDbArc
 50
105.4122508556
 51
108.1468455922
  0
ARC
  5
9D1
100
AcDbEntity
  8
02___PRT_ALL_AXES
100
AcDbCircle
 62
3
  6
CONTINUOUS
 10
2.7609013657
 20
4.3079304348
 40
0.2893700787
100
AcDbArc
 50
131.8534765553
 51
134.5871986193
  0
ARC
  5
9D2
100
AcDbEntity
  8
0
100
AcDbCircle
 62
3
  6
CONTINUOUS
 10
2.7609013657
 20
4.3079304348
 40
0.2893700787
100
AcDbArc
 50
89.9998282992
 51
150.0000005352
  0
ARC
  5
9D3
100
AcDbEntity
  8
0
100
AcDbCircle
 62
3
  6
CONTINUOUS
 10
2.7609013657
 20
4.3079304348
 40
0.2893700787
100
AcDbArc
 50
329.9691813787
 51
30.0006158969
  0
ARC
  5
9D4
100
AcDbEntity
  8
02___PRT_ALL_AXES
100
AcDbCircle
 62
3
  6
CONTINUOUS
 10
2.7609013657
 20
4.3079304348
 40
0.2893700787
100
AcDbArc
 50
345.3959062254
 51
348.1333143035
  0
ARC
  5
9D5
100
AcDbEntity
  8
02___PRT_ALL_AXES
100
AcDbCircle
 62
3
  6
CONTINUOUS
 10
2.7609013657
 20
4.3079304348
 40
0.2893700787
100
AcDbArc
 50
11.8488699
 51
14.5792017265
  0
ARC
  5
9D6
100
AcDbEntity
  8
0
100
AcDbCircle
 62
3
  6
CONTINUOUS
 10
2.7609013657
 20
4.3079304348
 40
0.2893700787
100
AcDbArc
 50
209.9992325244
 51
269.9986010034
  0
ARC
  5
9D7
100
AcDbEntity
  8
02___PRT_ALL_AXES
100
AcDbCircle
 62
3
  6
CONTINUOUS
 10
2.7609013657
 20
4.3079304348
 40
0.2893700787
100
AcDbArc
 50
225.4119412102
 51
229.9995941663
  0
ARC
  5
9D8
100
AcDbEntity
  8
02___PRT_ALL_AXES
100
AcDbCircle
 62
3
  6
CONTINUOUS
 10
2.7609013657
 20
4.3079304348
 40
0.2893700787
100
AcDbArc
 50
250.0004068104
 51
254.5867199199
  0
ARC
  5
9D9
100
AcDbEntity
  8
0
100
AcDbCircle
 62
9
  6
CONTINUOUS
 10
2.7609013657
 20
4.3079304348
 40
0.2893700746
100
AcDbArc
 50
30.0006158969
 51
89.9998282992
  0
ARC
  5
9DA
100
AcDbEntity
  8
0
100
AcDbCircle
 62
9
  6
CONTINUOUS
 10
2.7609013657
 20
4.3079304348
 40
0.2893700746
100
AcDbArc
 50
150.00493516
 51
209.994321095
  0
ARC
  5
9DB
100
AcDbEntity
  8
0
100
AcDbCircle
 62
9
  6
CONTINUOUS
 10
2.7609013657
 20
4.3079304348
 40
0.2893700746
100
AcDbArc
 50
269.9986010034
 51
329.9691813787
  0
ARC
  5
9DC
100
AcDbEntity
  8
0
100
AcDbCircle
 62
7
  6
CONTINUOUS
 10
2.7609013657
 20
4.3079304348
 40
0.2795275591
100
AcDbArc
 50
30.0006158969
 51
89.9998282992
  0
ARC
  5
9DD
100
AcDbEntity
  8
0
100
AcDbCircle
 62
7
  6
CONTINUOUS
 10
2.7609013657
 20
4.3079304348
 40
0.2795275591
100
AcDbArc
 50
150.0000005352
 51
209.9992325244
  0
ARC
  5
9DE
100
AcDbEntity
  8
0
100
AcDbCircle
 62
7
  6
CONTINUOUS
 10
2.7609013657
 20
4.3079304348
 40
0.2795275591
100
AcDbArc
 50
269.9986010034
 51
329.9691813787
  0
ARC
  5
9DF
100
AcDbEntity
  8
02___PRT_ALL_AXES
100
AcDbCircle
 62
7
  6
CONTINUOUS
 10
2.7609013657
 20
4.3079304348
 40
0.2716535433
100
AcDbArc
 50
270.0
 51
329.9583140178
  0
ARC
  5
9E0
100
AcDbEntity
  8
02___PRT_ALL_AXES
100
AcDbCircle
 62
7
  6
CONTINUOUS
 10
2.7609013657
 20
4.3079304348
 40
0.2716535433
100
AcDbArc
 50
30.0110698014
 51
90.0
  0
ARC
  5
9E1
100
AcDbEntity
  8
02___PRT_ALL_AXES
100
AcDbCircle
 62
7
  6
CONTINUOUS
 10
2.7609013657
 20
4.3079304348
 40
0.2716535433
100
AcDbArc
 50
150.0142847484
 51
209.9857346892
  0
ARC
  5
9E2
100
AcDbEntity
  8
0
100
AcDbCircle
 62
3
  6
CONTINUOUS
 10
2.7609013657
 20
4.3079304348
 40
0.2696850394
100
AcDbArc
 50
269.9987728203
 51
329.9691850017
  0
ARC
  5
9E3
100
AcDbEntity
  8
0
100
AcDbCircle
 62
3
  6
CONTINUOUS
 10
2.7609013657
 20
4.3079304348
 40
0.2696850394
100
AcDbArc
 50
150.0000000709
 51
210.0
  0
ARC
  5
9E4
100
AcDbEntity
  8
0
100
AcDbCircle
 62
3
  6
CONTINUOUS
 10
2.7609013657
 20
4.3079304348
 40
0.2696850394
100
AcDbArc
 50
30.0
 51
90.0
  0
ARC
  5
9E5
100
AcDbEntity
  8
0
100
AcDbCircle
 62
9
  6
CONTINUOUS
 10
2.7609013657
 20
4.3079304348
 40
0.2647637795
100
AcDbArc
 50
209.9992325244
 51
269.9986010034
  0
ARC
  5
9E6
100
AcDbEntity
  8
0
100
AcDbCircle
 62
9
  6
CONTINUOUS
 10
2.7609013657
 20
4.3079304348
 40
0.2647637795
100
AcDbArc
 50
329.9691813787
 51
30.0006158969
  0
ARC
  5
9E7
100
AcDbEntity
  8
0
100
AcDbCircle
 62
9
  6
CONTINUOUS
 10
2.7609013657
 20
4.3079304348
 40
0.2647637795
100
AcDbArc
 50
89.9998282992
 51
150.0000005352
  0
CIRCLE
  5
9E8
100
AcDbEntity
  8
0
100
AcDbCircle
 62
3
  6
CONTINUOUS
 10
2.7609013657
 20
4.3079304348
 40
0.1673228346
  0
CIRCLE
  5
9E9
100
AcDbEntity
  8
0
100
AcDbCircle
 62
7
  6
CONTINUOUS
 10
2.7609013657
 20
4.3079304348
 40
0.1594488189
  0
CIRCLE
  5
9EA
100
AcDbEntity
  8
0
100
AcDbCircle
 62
9
  6
CONTINUOUS
 10
2.7609013657
 20
4.3079304348
 40
0.1496062928
  0
CIRCLE
  5
9EB
100
AcDbEntity
  8
02___PRT_ALL_AXES
100
AcDbCircle
 62
7
  6
CONTINUOUS
 10
2.7609013657
 20
4.3079304348
 40
0.125984252
  0
CIRCLE
  5
9EC
100
AcDbEntity
  8
02___PRT_ALL_AXES
100
AcDbCircle
 62
7
  6
CONTINUOUS
 10
2.7609013657
 20
4.3079304348
 40
0.125
  0
ARC
  5
9ED
100
AcDbEntity
  8
0
100
AcDbCircle
 62
7
  6
CONTINUOUS
 10
2.6034210507
 20
4.7980879151
 40
0.0098425197
100
AcDbArc
 50
90.0
 51
180.0
  0
ARC
  5
9EE
100
AcDbEntity
  8
0
100
AcDbCircle
 62
7
  6
CONTINUOUS
 10
3.0581454602
 20
4.7567493324
 40
0.0511811024
100
AcDbArc
 50
0.0
 51
90.0
  0
ARC
  5
9EF
100
AcDbEntity
  8
0
100
AcDbCircle
 62
9
  6
CONTINUOUS
 10
3.0581454602
 20
4.7567493324
 40
0.0118110161
100
AcDbArc
 50
0.0
 51
90.0
  0
ARC
  5
9F0
100
AcDbEntity
  8
0
100
AcDbCircle
 62
7
  6
CONTINUOUS
 10
15.1234782485
 20
9.6708199498
 40
0.0098425197
100
AcDbArc
 50
120.0000842006
 51
179.4548822656
  0
ARC
  5
9F1
100
AcDbEntity
  8
0
100
AcDbCircle
 62
7
  6
CONTINUOUS
 10
14.9480942259
 20
9.5695625416
 40
0.0098425197
100
AcDbArc
 50
60.5458165734
 51
119.9997004116
  0
ARC
  5
9F2
100
AcDbEntity
  8
0
100
AcDbCircle
 62
7
  6
CONTINUOUS
 10
12.2485350426
 20
3.8591115371
 40
0.0511811024
100
AcDbArc
 50
180.0
 51
270.0
  0
ARC
  5
9F3
100
AcDbEntity
  8
0
100
AcDbCircle
 62
9
  6
CONTINUOUS
 10
12.2485350426
 20
3.8591115371
 40
0.0413385147
100
AcDbArc
 50
180.0
 51
270.0
  0
ARC
  5
9F4
100
AcDbEntity
  8
0
100
AcDbCircle
 62
7
  6
CONTINUOUS
 10
12.703259452
 20
3.8177729545
 40
0.0098425197
100
AcDbArc
 50
270.0
 51
360.0
  0
ARC
  5
9F5
100
AcDbEntity
  8
0
100
AcDbCircle
 62
7
  6
CONTINUOUS
 10
12.2485350426
 20
4.7567493324
 40
0.0511811024
100
AcDbArc
 50
90.0
 51
180.0
  0
ARC
  5
9F6
100
AcDbEntity
  8
0
100
AcDbCircle
 62
9
  6
CONTINUOUS
 10
12.2485350426
 20
4.7567493324
 40
0.0413385147
100
AcDbArc
 50
90.0
 51
180.0
  0
ARC
  5
9F7
100
AcDbEntity
  8
0
100
AcDbCircle
 62
7
  6
CONTINUOUS
 10
12.703259452
 20
4.7980879151
 40
0.0098425197
100
AcDbArc
 50
0.0
 51
90.0
  0
ARC
  5
9F8
100
AcDbEntity
  8
0
100
AcDbCircle
 62
9
  6
CONTINUOUS
 10
12.8272752001
 20
3.9535997261
 40
0.1240157308
100
AcDbArc
 50
0.0
 51
180.0
  0
ARC
  5
9F9
100
AcDbEntity
  8
0
100
AcDbCircle
 62
7
  6
CONTINUOUS
 10
12.8272752001
 20
3.9535997261
 40
0.1141732283
100
AcDbArc
 50
0.0
 51
180.0
  0
CIRCLE
  5
9FA
100
AcDbEntity
  8
02___PRT_ALL_AXES
100
AcDbCircle
 62
7
  6
CONTINUOUS
 10
12.8272752001
 20
3.9535997261
 40
0.1065
  0
CIRCLE
  5
9FB
100
AcDbEntity
  8
02___PRT_ALL_AXES
100
AcDbCircle
 62
7
  6
CONTINUOUS
 10
12.8272752001
 20
3.9535997261
 40
0.0625
  0
ARC
  5
9FC
100
AcDbEntity
  8
0
100
AcDbCircle
 62
7
  6
CONTINUOUS
 10
12.9512909481
 20
3.8177729545
 40
0.0098425197
100
AcDbArc
 50
180.0
 51
270.0
  0
CIRCLE
  5
9FD
100
AcDbEntity
  8
DEFAULT_2
100
AcDbCircle
 62
8
  6
HIDDEN
 10
13.0241255938
 20
4.0608831907
 40
0.0885826772
  0
CIRCLE
  5
9FE
100
AcDbEntity
  8
02___PRT_ALL_AXES
100
AcDbCircle
 62
7
  6
CONTINUOUS
 10
13.0241255938
 20
4.0608831907
 40
0.0885826772
  0
CIRCLE
  5
9FF
100
AcDbEntity
  8
0
100
AcDbCircle
 62
7
  6
CONTINUOUS
 10
13.0241255938
 20
4.0608831907
 40
0.0767716535
  0
CIRCLE
  5
A00
100
AcDbEntity
  8
0
100
AcDbCircle
 62
9
  6
CONTINUOUS
 10
13.0241255938
 20
4.0608831907
 40
0.0472440943
  0
ARC
  5
A01
100
AcDbEntity
  8
02___PRT_ALL_AXES
100
AcDbCircle
 62
7
  6
CONTINUOUS
 10
13.04969721
 20
4.0756469702
 40
0.0098425197
100
AcDbArc
 50
290.4059317731
 51
115.3663441945
  0
ARC
  5
A02
100
AcDbEntity
  8
02___PRT_ALL_AXES
100
AcDbCircle
 62
7
  6
CONTINUOUS
 10
13.0241255938
 20
4.0904107497
 40
0.0098425197
100
AcDbArc
 50
350.4059317731
 51
175.3663441945
  0
ARC
  5
A03
100
AcDbEntity
  8
02___PRT_ALL_AXES
100
AcDbCircle
 62
7
  6
CONTINUOUS
 10
12.9985539775
 20
4.0756469702
 40
0.0098425197
100
AcDbArc
 50
50.4059317731
 51
235.3663441945
  0
ARC
  5
A04
100
AcDbEntity
  8
02___PRT_ALL_AXES
100
AcDbCircle
 62
7
  6
CONTINUOUS
 10
12.9985539775
 20
4.0461194112
 40
0.0098425197
100
AcDbArc
 50
110.4059317731
 51
295.3663441945
  0
ARC
  5
A05
100
AcDbEntity
  8
02___PRT_ALL_AXES
100
AcDbCircle
 62
7
  6
CONTINUOUS
 10
13.0241255938
 20
4.0313556316
 40
0.0098425197
100
AcDbArc
 50
170.4059317731
 51
355.3663441945
  0
ARC
  5
A06
100
AcDbEntity
  8
02___PRT_ALL_AXES
100
AcDbCircle
 62
7
  6
CONTINUOUS
 10
13.04969721
 20
4.0461194112
 40
0.0098425197
100
AcDbArc
 50
230.4059317731
 51
55.3663441945
  0
ARC
  5
A07
100
AcDbEntity
  8
02___PRT_ALL_AXES
100
AcDbCircle
 62
7
  6
CONTINUOUS
 10
13.0388893733
 20
4.0864548069
 40
0.0055636643
100
AcDbArc
 50
155.4059317731
 51
324.5940682268
  0
ARC
  5
A08
100
AcDbEntity
  8
02___PRT_ALL_AXES
100
AcDbCircle
 62
7
  6
CONTINUOUS
 10
13.0093618142
 20
4.0864548069
 40
0.0055636643
100
AcDbArc
 50
215.4059317731
 51
24.5940682269
  0
ARC
  5
A09
100
AcDbEntity
  8
02___PRT_ALL_AXES
100
AcDbCircle
 62
7
  6
CONTINUOUS
 10
12.9945980347
 20
4.0608831907
 40
0.0055636643
100
AcDbArc
 50
275.4059317731
 51
84.5940682268
  0
ARC
  5
A0A
100
AcDbEntity
  8
02___PRT_ALL_AXES
100
AcDbCircle
 62
7
  6
CONTINUOUS
 10
13.0093618142
 20
4.0353115744
 40
0.0055636643
100
AcDbArc
 50
335.4059317731
 51
144.5940682269
  0
ARC
  5
A0B
100
AcDbEntity
  8
02___PRT_ALL_AXES
100
AcDbCircle
 62
7
  6
CONTINUOUS
 10
13.0388893733
 20
4.0353115744
 40
0.0055636643
100
AcDbArc
 50
35.4059317731
 51
204.5940682269
  0
ARC
  5
A0C
100
AcDbEntity
  8
02___PRT_ALL_AXES
100
AcDbCircle
 62
7
  6
CONTINUOUS
 10
13.0536531528
 20
4.0608831907
 40
0.0055636643
100
AcDbArc
 50
95.4059317731
 51
264.5940682268
  0
ARC
  5
A0D
100
AcDbEntity
  8
0
100
AcDbCircle
 62
7
  6
CONTINUOUS
 10
13.3961728379
 20
3.8591115371
 40
0.0511811024
100
AcDbArc
 50
270.0
 51
360.0
  0
ARC
  5
A0E
100
AcDbEntity
  8
0
100
AcDbCircle
 62
9
  6
CONTINUOUS
 10
13.3961728379
 20
3.8591115371
 40
0.0413385147
100
AcDbArc
 50
270.0
 51
360.0
  0
ARC
  5
A0F
100
AcDbEntity
  8
0
100
AcDbCircle
 62
7
  6
CONTINUOUS
 10
13.3961728379
 20
4.2016312222
 40
0.0511811024
100
AcDbArc
 50
0.0
 51
90.0
  0
ARC
  5
A10
100
AcDbEntity
  8
0
100
AcDbCircle
 62
9
  6
CONTINUOUS
 10
13.3961728379
 20
4.2016312222
 40
0.0413385147
100
AcDbArc
 50
0.0
 51
90.0
  0
CIRCLE
  5
A11
100
AcDbEntity
  8
DEFAULT_2
100
AcDbCircle
 62
8
  6
HIDDEN
 10
13.0241255938
 20
4.5549776789
 40
0.0885826772
  0
CIRCLE
  5
A12
100
AcDbEntity
  8
02___PRT_ALL_AXES
100
AcDbCircle
 62
7
  6
CONTINUOUS
 10
13.0241255938
 20
4.5549776789
 40
0.0885826772
  0
CIRCLE
  5
A13
100
AcDbEntity
  8
0
100
AcDbCircle
 62
7
  6
CONTINUOUS
 10
13.0241255938
 20
4.5549776789
 40
0.0767716535
  0
CIRCLE
  5
A14
100
AcDbEntity
  8
0
100
AcDbCircle
 62
9
  6
CONTINUOUS
 10
13.0241255938
 20
4.5549776789
 40
0.0472440943
  0
ARC
  5
A15
100
AcDbEntity
  8
02___PRT_ALL_AXES
100
AcDbCircle
 62
7
  6
CONTINUOUS
 10
13.04969721
 20
4.5697414584
 40
0.0098425197
100
AcDbArc
 50
290.4059317731
 51
115.3663441945
  0
ARC
  5
A16
100
AcDbEntity
  8
02___PRT_ALL_AXES
100
AcDbCircle
 62
7
  6
CONTINUOUS
 10
13.0241255938
 20
4.5845052379
 40
0.0098425197
100
AcDbArc
 50
350.4059317731
 51
175.3663441945
  0
ARC
  5
A17
100
AcDbEntity
  8
02___PRT_ALL_AXES
100
AcDbCircle
 62
7
  6
CONTINUOUS
 10
12.9985539775
 20
4.5697414584
 40
0.0098425197
100
AcDbArc
 50
50.4059317731
 51
235.3663441945
  0
ARC
  5
A18
100
AcDbEntity
  8
02___PRT_ALL_AXES
100
AcDbCircle
 62
7
  6
CONTINUOUS
 10
12.9985539775
 20
4.5402138993
 40
0.0098425197
100
AcDbArc
 50
110.4059317731
 51
295.3663441945
  0
ARC
  5
A19
100
AcDbEntity
  8
02___PRT_ALL_AXES
100
AcDbCircle
 62
7
  6
CONTINUOUS
 10
13.0241255938
 20
4.5254501198
 40
0.0098425197
100
AcDbArc
 50
170.4059317731
 51
355.3663441945
  0
ARC
  5
A1A
100
AcDbEntity
  8
02___PRT_ALL_AXES
100
AcDbCircle
 62
7
  6
CONTINUOUS
 10
13.04969721
 20
4.5402138993
 40
0.0098425197
100
AcDbArc
 50
230.4059317731
 51
55.3663441945
  0
ARC
  5
A1B
100
AcDbEntity
  8
02___PRT_ALL_AXES
100
AcDbCircle
 62
7
  6
CONTINUOUS
 10
13.0388893733
 20
4.5805492951
 40
0.0055636643
100
AcDbArc
 50
155.4059317731
 51
324.5940682268
  0
ARC
  5
A1C
100
AcDbEntity
  8
02___PRT_ALL_AXES
100
AcDbCircle
 62
7
  6
CONTINUOUS
 10
13.0093618142
 20
4.5805492951
 40
0.0055636643
100
AcDbArc
 50
215.4059317731
 51
24.5940682269
  0
ARC
  5
A1D
100
AcDbEntity
  8
02___PRT_ALL_AXES
100
AcDbCircle
 62
7
  6
CONTINUOUS
 10
12.9945980347
 20
4.5549776789
 40
0.0055636643
100
AcDbArc
 50
275.4059317731
 51
84.5940682268
  0
ARC
  5
A1E
100
AcDbEntity
  8
02___PRT_ALL_AXES
100
AcDbCircle
 62
7
  6
CONTINUOUS
 10
13.0093618142
 20
4.5294060626
 40
0.0055636643
100
AcDbArc
 50
335.4059317731
 51
144.5940682269
  0
ARC
  5
A1F
100
AcDbEntity
  8
02___PRT_ALL_AXES
100
AcDbCircle
 62
7
  6
CONTINUOUS
 10
13.0388893733
 20
4.5294060626
 40
0.0055636643
100
AcDbArc
 50
35.4059317731
 51
204.5940682269
  0
ARC
  5
A20
100
AcDbEntity
  8
02___PRT_ALL_AXES
100
AcDbCircle
 62
7
  6
CONTINUOUS
 10
13.0536531528
 20
4.5549776789
 40
0.0055636643
100
AcDbArc
 50
95.4059317731
 51
264.5940682268
  0
ARC
  5
A21
100
AcDbEntity
  8
0
100
AcDbCircle
 62
9
  6
CONTINUOUS
 10
12.8272752001
 20
4.6622611434
 40
0.1240157308
100
AcDbArc
 50
180.0
 51
360.0
  0
ARC
  5
A22
100
AcDbEntity
  8
0
100
AcDbCircle
 62
7
  6
CONTINUOUS
 10
12.8272752001
 20
4.6622611434
 40
0.1141732283
100
AcDbArc
 50
180.0
 51
360.0
  0
CIRCLE
  5
A23
100
AcDbEntity
  8
02___PRT_ALL_AXES
100
AcDbCircle
 62
7
  6
CONTINUOUS
 10
12.8272752001
 20
4.6622611434
 40
0.1065
  0
CIRCLE
  5
A24
100
AcDbEntity
  8
02___PRT_ALL_AXES
100
AcDbCircle
 62
7
  6
CONTINUOUS
 10
12.8272752001
 20
4.6622611434
 40
0.0625
  0
ARC
  5
A25
100
AcDbEntity
  8
0
100
AcDbCircle
 62
7
  6
CONTINUOUS
 10
12.9512909481
 20
4.7980879151
 40
0.0098425197
100
AcDbArc
 50
90.0
 51
180.0
  0
ARC
  5
A26
100
AcDbEntity
  8
0
100
AcDbCircle
 62
7
  6
CONTINUOUS
 10
13.3961728379
 20
4.7213162616
 40
0.0511811024
100
AcDbArc
 50
270.0
 51
360.0
  0
ARC
  5
A27
100
AcDbEntity
  8
0
100
AcDbCircle
 62
7
  6
CONTINUOUS
 10
13.3961728379
 20
4.7567493324
 40
0.0511811024
100
AcDbArc
 50
0.0
 51
90.0
  0
ARC
  5
A28
100
AcDbEntity
  8
0
100
AcDbCircle
 62
9
  6
CONTINUOUS
 10
13.3961728379
 20
4.7213162616
 40
0.0413385147
100
AcDbArc
 50
270.0
 51
360.0
  0
ARC
  5
A29
100
AcDbEntity
  8
0
100
AcDbCircle
 62
9
  6
CONTINUOUS
 10
13.3961728379
 20
4.7567493324
 40
0.0413385147
100
AcDbArc
 50
0.0
 51
90.0
  0
ARC
  5
A2A
100
AcDbEntity
  8
0
100
AcDbCircle
 62
3
  6
CONTINUOUS
 10
6.4774723243
 20
6.9591447945
 40
0.0787401575
100
AcDbArc
 50
270.0
 51
0.0000177032
  0
ARC
  5
A2B
100
AcDbEntity
  8
0
100
AcDbCircle
 62
7
  6
CONTINUOUS
 10
6.3790471275
 20
7.1067834485
 40
0.0393700787
100
AcDbArc
 50
90.0
 51
141.8166740433
  0
ARC
  5
A2C
100
AcDbEntity
  8
0
100
AcDbCircle
 62
7
  6
CONTINUOUS
 10
6.3790471275
 20
6.654027543
 40
0.0393700787
100
AcDbArc
 50
184.2253831696
 51
186.9265187789
  0
ARC
  5
A2D
100
AcDbEntity
  8
0
100
AcDbCircle
 62
7
  6
CONTINUOUS
 10
6.5955825606
 20
6.5713503777
 40
0.0393700787
100
AcDbArc
 50
180.0
 51
270.0
  0
ARC
  5
A2E
100
AcDbEntity
  8
0
100
AcDbCircle
 62
3
  6
CONTINUOUS
 10
6.3445983086
 20
6.6156417162
 40
0.0246062992
100
AcDbArc
 50
180.0
 51
270.0
  0
ARC
  5
A2F
100
AcDbEntity
  8
0
100
AcDbCircle
 62
7
  6
CONTINUOUS
 10
6.7462124818
 20
7.0724015588
 40
0.02
100
AcDbArc
 50
180.0
 51
270.0
  0
ARC
  5
A30
100
AcDbEntity
  8
0
100
AcDbCircle
 62
7
  6
CONTINUOUS
 10
6.3199920094
 20
7.030011795
 40
0.0098425197
100
AcDbArc
 50
90.0
 51
180.0000046295
  0
ARC
  5
A31
100
AcDbEntity
  8
0
100
AcDbCircle
 62
7
  6
CONTINUOUS
 10
6.3199920094
 20
6.7307991966
 40
0.0098425197
100
AcDbArc
 50
179.9999953705
 51
270.0
  0
ARC
  5
A32
100
AcDbEntity
  8
0
100
AcDbCircle
 62
7
  6
CONTINUOUS
 10
6.5660550015
 20
7.0378858107
 40
0.0098425197
100
AcDbArc
 50
90.0
 51
180.0
  0
ARC
  5
A33
100
AcDbEntity
  8
0
100
AcDbCircle
 62
7
  6
CONTINUOUS
 10
7.2904644503
 20
6.5989094328
 40
0.0039370079
100
AcDbArc
 50
270.0
 51
359.9999999999
  0
ARC
  5
A34
100
AcDbEntity
  8
0
100
AcDbCircle
 62
7
  6
CONTINUOUS
 10
6.5955825606
 20
7.7426102202
 40
0.0393700787
100
AcDbArc
 50
90.0
 51
180.0
  0
ARC
  5
A35
100
AcDbEntity
  8
0
100
AcDbCircle
 62
7
  6
CONTINUOUS
 10
6.7462124818
 20
7.2514015588
 40
0.02
100
AcDbArc
 50
90.0
 51
180.0
  0
ARC
  5
A36
100
AcDbEntity
  8
0
100
AcDbCircle
 62
7
  6
CONTINUOUS
 10
6.5463699621
 20
7.1697755745
 40
0.0098425197
100
AcDbArc
 50
270.0
 51
359.9999999988
  0
ARC
  5
A37
100
AcDbEntity
  8
0
100
AcDbCircle
 62
7
  6
CONTINUOUS
 10
6.5660550015
 20
7.2859173068
 40
0.0098425197
100
AcDbArc
 50
180.0
 51
270.0
  0
ARC
  5
A38
100
AcDbEntity
  8
0
100
AcDbCircle
 62
7
  6
CONTINUOUS
 10
7.2904644503
 20
7.5847243253
 40
0.0039370079
100
AcDbArc
 50
359.9954164776
 51
90.0
  0
ARC
  5
A39
100
AcDbEntity
  8
02___PRT_ALL_AXES
100
AcDbCircle
 62
7
  6
CONTINUOUS
 10
10.8885627125
 20
7.155860353
 40
0.112
100
AcDbArc
 50
296.2395337099
 51
329.7286137812
  0
ARC
  5
A3A
100
AcDbEntity
  8
0
100
AcDbCircle
 62
7
  6
CONTINUOUS
 10
11.0109368913
 20
6.5418228186
 40
0.0098425197
100
AcDbArc
 50
270.0
 51
360.0
  0
ARC
  5
A3B
100
AcDbEntity
  8
0
100
AcDbCircle
 62
7
  6
CONTINUOUS
 10
11.0109368913
 20
7.0378858107
 40
0.0098425197
100
AcDbArc
 50
0.0
 51
90.0
  0
ARC
  5
A3C
100
AcDbEntity
  8
0
100
AcDbCircle
 62
7
  6
CONTINUOUS
 10
10.8180235054
 20
6.5989094328
 40
0.0039370079
100
AcDbArc
 50
180.0000000003
 51
270.0
  0
ARC
  5
A3D
100
AcDbEntity
  8
02___PRT_ALL_AXES
100
AcDbCircle
 62
7
  6
CONTINUOUS
 10
10.8885627125
 20
7.1679427645
 40
0.112
100
AcDbArc
 50
30.2713862188
 51
63.7604662901
  0
ARC
  5
A3E
100
AcDbEntity
  8
0
100
AcDbCircle
 62
7
  6
CONTINUOUS
 10
11.05030697
 20
7.311507858
 40
0.0295275591
100
AcDbArc
 50
270.0
 51
360.0
  0
ARC
  5
A3F
100
AcDbEntity
  8
0
100
AcDbCircle
 62
7
  6
CONTINUOUS
 10
11.05030697
 20
7.4059960469
 40
0.0295275591
100
AcDbArc
 50
0.0
 51
90.0
  0
ARC
  5
A40
100
AcDbEntity
  8
0
100
AcDbCircle
 62
7
  6
CONTINUOUS
 10
11.0109368913
 20
7.7721377792
 40
0.0098425197
100
AcDbArc
 50
0.0
 51
90.0
  0
ARC
  5
A41
100
AcDbEntity
  8
0
100
AcDbCircle
 62
7
  6
CONTINUOUS
 10
11.0109368913
 20
7.2859173068
 40
0.0098425197
100
AcDbArc
 50
270.0
 51
360.0
  0
ARC
  5
A42
100
AcDbEntity
  8
0
100
AcDbCircle
 62
7
  6
CONTINUOUS
 10
10.8180235054
 20
7.5847243253
 40
0.0039370079
100
AcDbArc
 50
90.0
 51
180.0031653334
  0
ARC
  5
A43
100
AcDbEntity
  8
0
100
AcDbCircle
 62
3
  6
CONTINUOUS
 10
6.3445983086
 20
8.8904671987
 40
0.0246062992
100
AcDbArc
 50
180.0
 51
270.0
  0
ARC
  5
A44
100
AcDbEntity
  8
0
100
AcDbCircle
 62
7
  6
CONTINUOUS
 10
6.3199920094
 20
9.005624679
 40
0.0098425197
100
AcDbArc
 50
180.0
 51
270.0
  0
ARC
  5
A45
100
AcDbEntity
  8
0
100
AcDbCircle
 62
7
  6
CONTINUOUS
 10
6.5955825606
 20
8.694601057
 40
0.0393700787
100
AcDbArc
 50
180.0
 51
270.0
  0
ARC
  5
A46
100
AcDbEntity
  8
0
100
AcDbCircle
 62
7
  6
CONTINUOUS
 10
6.5955825606
 20
8.7536561751
 40
0.0393700787
100
AcDbArc
 50
90.0
 51
180.0
  0
ARC
  5
A47
100
AcDbEntity
  8
0
100
AcDbCircle
 62
7
  6
CONTINUOUS
 10
6.5463699621
 20
8.8658608995
 40
0.0098425197
100
AcDbArc
 50
0.0000094205
 51
41.0615950836
  0
ARC
  5
A48
100
AcDbEntity
  8
0
100
AcDbCircle
 62
7
  6
CONTINUOUS
 10
6.5955825606
 20
9.2497191672
 40
0.0393700787
100
AcDbArc
 50
180.0
 51
270.0
  0
ARC
  5
A49
100
AcDbEntity
  8
0
100
AcDbCircle
 62
7
  6
CONTINUOUS
 10
6.5955825606
 20
9.6158608995
 40
0.0393700787
100
AcDbArc
 50
90.0
 51
180.0
  0
ARC
  5
A4A
100
AcDbEntity
  8
0
100
AcDbCircle
 62
3
  6
CONTINUOUS
 10
6.3445983086
 20
9.4199947577
 40
0.0246062992
100
AcDbArc
 50
90.0000000066
 51
180.0
  0
ARC
  5
A4B
100
AcDbEntity
  8
0
100
AcDbCircle
 62
7
  6
CONTINUOUS
 10
6.3199920094
 20
9.3048372775
 40
0.0098425197
100
AcDbArc
 50
90.0
 51
180.0
  0
ARC
  5
A4C
100
AcDbEntity
  8
0
100
AcDbCircle
 62
7
  6
CONTINUOUS
 10
6.5463699621
 20
9.444601057
 40
0.0098425197
100
AcDbArc
 50
318.9307478232
 51
359.9999905795
  0
ARC
  5
A4D
100
AcDbEntity
  8
0
100
AcDbCircle
 62
7
  6
CONTINUOUS
 10
7.2904644503
 20
9.3166483011
 40
0.0039370079
100
AcDbArc
 50
270.0
 51
359.9999999999
  0
ARC
  5
A4E
100
AcDbEntity
  8
0
100
AcDbCircle
 62
7
  6
CONTINUOUS
 10
7.2904644503
 20
9.6158608995
 40
0.0039370079
100
AcDbArc
 50
0.0000000003
 51
90.0
  0
ARC
  5
A4F
100
AcDbEntity
  8
0
100
AcDbCircle
 62
7
  6
CONTINUOUS
 10
11.05030697
 20
8.8609396397
 40
0.0295275591
100
AcDbArc
 50
270.0
 51
0.0000002151
  0
ARC
  5
A50
100
AcDbEntity
  8
0
100
AcDbCircle
 62
7
  6
CONTINUOUS
 10
11.05030697
 20
8.9554278287
 40
0.0295275591
100
AcDbArc
 50
359.9999997849
 51
90.0
  0
ARC
  5
A51
100
AcDbEntity
  8
0
100
AcDbCircle
 62
7
  6
CONTINUOUS
 10
11.0109368913
 20
8.6650734979
 40
0.0098425197
100
AcDbArc
 50
270.0
 51
360.0
  0
ARC
  5
A52
100
AcDbEntity
  8
0
100
AcDbCircle
 62
7
  6
CONTINUOUS
 10
11.0109368913
 20
8.7831837342
 40
0.0098425197
100
AcDbArc
 50
0.0
 51
90.0
  0
ARC
  5
A53
100
AcDbEntity
  8
0
100
AcDbCircle
 62
7
  6
CONTINUOUS
 10
11.05030697
 20
9.3550341279
 40
0.0295275591
100
AcDbArc
 50
270.0
 51
0.0000002151
  0
ARC
  5
A54
100
AcDbEntity
  8
0
100
AcDbCircle
 62
7
  6
CONTINUOUS
 10
11.05030697
 20
9.4495223168
 40
0.0295275591
100
AcDbArc
 50
359.9999997849
 51
90.0
  0
ARC
  5
A55
100
AcDbEntity
  8
0
100
AcDbCircle
 62
7
  6
CONTINUOUS
 10
11.0109368913
 20
9.2201916082
 40
0.0098425197
100
AcDbArc
 50
270.0
 51
360.0
  0
ARC
  5
A56
100
AcDbEntity
  8
0
100
AcDbCircle
 62
7
  6
CONTINUOUS
 10
11.0109368913
 20
9.6453884586
 40
0.0098425197
100
AcDbArc
 50
0.0
 51
90.0
  0
ARC
  5
A57
100
AcDbEntity
  8
0
100
AcDbCircle
 62
7
  6
CONTINUOUS
 10
10.8180235054
 20
9.3166483011
 40
0.0039370079
100
AcDbArc
 50
180.0000000003
 51
270.0
  0
ARC
  5
A58
100
AcDbEntity
  8
0
100
AcDbCircle
 62
7
  6
CONTINUOUS
 10
10.8180235054
 20
9.6158608995
 40
0.0039370079
100
AcDbArc
 50
90.0
 51
179.9999999999
  0
ELLIPSE
  5
A59
100
AcDbEntity
  8
0
100
AcDbEllipse
 62
7
  6
CONTINUOUS
 10
1.936754384
 20
4.2134422458
 30
0.0
 11
-0.0
 21
0.0393700787
 31
0.0
 40
0.1666666667
 41
-0.0
 42
1.5707963268
  0
ELLIPSE
  5
A5A
100
AcDbEntity
  8
0
100
AcDbEllipse
 62
7
  6
CONTINUOUS
 10
1.936754384
 20
4.7095052379
 30
0.0
 11
-0.0
 21
0.0393700787
 31
0.0
 40
0.1666666667
 41
-4.7123889804
 42
-3.1415926536
  0
ELLIPSE
  5
A5B
100
AcDbEntity
  8
0
100
AcDbEllipse
 62
7
  6
CONTINUOUS
 10
15.5064935224
 20
9.7955169744
 30
0.0
 11
-0.0034174704
 21
0.0093175076
 31
0.0
 40
0.6625027107
 41
-2.2415673343
 42
-0.6707710075
  0
ELLIPSE
  5
A5C
100
AcDbEntity
  8
0
100
AcDbEllipse
 62
7
  6
CONTINUOUS
 10
15.8155060401
 20
9.6171125502
 30
0.0
 11
-0.0034174704
 21
0.0093175076
 31
0.0
 40
0.6625027107
 41
-0.6707710075
 42
0.9000253193
  0
ELLIPSE
  5
A5D
100
AcDbEntity
  8
0
100
AcDbEllipse
 62
7
  6
CONTINUOUS
 10
13.3748473785
 20
4.2429698049
 30
0.0
 11
0.0
 21
0.0098425197
 31
0.0
 40
0.1666666667
 41
-1.5707963268
 42
0.0
  0
ELLIPSE
  5
A5E
100
AcDbEntity
  8
0
100
AcDbEllipse
 62
7
  6
CONTINUOUS
 10
13.3748473785
 20
4.6799776789
 30
0.0
 11
-0.0
 21
0.0098425197
 31
0.0
 40
0.1666666667
 41
-3.1415926536
 42
-1.5707963268
  0
ENDSEC
  0
SECTION
  2
OBJECTS
  0
DICTIONARY
  5
C
100
AcDbDictionary
280
0
281
1
  3
ACAD_GROUP
350
D
  3
ACAD_MLINESTYLE
350
17
  3
ACAD_LAYOUT
350
1A
  3
ACAD_PLOTSETTINGS
350
19
  3
ACAD_PLOTSTYLENAME
350
E
  0
DICTIONARY
  5
D
102
{ACAD_REACTORS
330
C
102
}
100
AcDbDictionary
280
0
281
1
  0
ACDBDICTIONARYWDFLT
  5
E
102
{ACAD_REACTORS
330
C
102
}
100
AcDbDictionary
281
1
  3
Normal
350
F
100
AcDbDictionaryWithDefault
340
F
  0
DICTIONARY
  5
17
102
{ACAD_REACTORS
330
C
102
}
100
AcDbDictionary
280
0
281
1
  3
Standard
350
18
  0
DICTIONARY
  5
19
102
{ACAD_REACTORS
330
C
102
}
100
AcDbDictionary
281
1
  0
DICTIONARY
  5
1A
102
{ACAD_REACTORS
330
C
102
}
100
AcDbDictionary
281
1
  3
Model
350
A5F
  3
Layout1
350
A60
  0
ACDBPLACEHOLDER
  5
F
102
{ACAD_REACTORS
330
E
102
}
  0
MLINESTYLE
  5
18
102
{ACAD_REACTORS
330
17
102
}
100
AcDbMlineStyle
  2
STANDARD
 70
0
  3

 62
256
 51
90.0
 52
90.0
 71
2
 49
0.5
 62
256
  6
BYLAYER
 49
-0.5
 62
256
  6
BYLAYER
  0
LAYOUT
  5
A5F
102
{ACAD_REACTORS
330
1A
102
}
100
AcDbPlotSettings
  1

  2
none_device
  4
ANSI_B_(17.00_x_11.00_Inches)
  6

 40
0.0
 41
0.0
 42
0.0
 43
0.0
 44
431.8
 45
279.4
 46
0.0
 47
0.0
 48
0.0
 49
0.0
140
0.0
141
0.0
142
1.0
143
1.0
 70
1024
 72
0
 73
0
 74
0
  7

 75
0
147
1.0
148
0.0
149
0.0
100
AcDbLayout
  1
Model
 70
0
 71
0
 10
0.0
 20
0.0
 11
17.0
 21
11.0
 12
0.0
 22
0.0
 32
0.0
 14
0.0
 24
0.0
 34
0.0
 15
0.0
 25
0.0
 35
0.0
146
0.0
 13
0.0
 23
0.0
 33
0.0
 16
1.0
 26
0.0
 36
0.0
 17
0.0
 27
1.0
 37
0.0
 76
0
330
225
345
0
346
0
  0
LAYOUT
  5
A60
102
{ACAD_REACTORS
330
1A
102
}
100
AcDbPlotSettings
  1

  2
none_device
  4
ANSI_B_(17.00_x_11.00_Inches)
  6

 40
0.0
 41
0.0
 42
0.0
 43
0.0
 44
431.8
 45
279.4
 46
0.0
 47
0.0
 48
0.0
 49
0.0
140
0.0
141
0.0
142
1.0
143
1.0
 70
0
 72
0
 73
0
 74
0
  7

 75
0
147
1.0
148
0.0
149
0.0
100
AcDbLayout
  1
Layout1
 70
0
 71
1
 10
0.0
 20
0.0
 11
17.0
 21
11.0
 12
0.0
 22
0.0
 32
0.0
 14
0.0
 24
0.0
 34
0.0
 15
0.0
 25
0.0
 35
0.0
146
0.0
 13
0.0
 23
0.0
 33
0.0
 16
1.0
 26
0.0
 36
0.0
 17
0.0
 27
1.0
 37
0.0
 76
0
330
226
345
0
346
0
  0
ENDSEC
  0
EOF
