999
DXF file: 156666_1.dxf
999
Pro/ENGINEER 2019292 by Parametric Technology Corporation
  0
SECTION
  2
HEADER
  9
$ACADVER
  1
AC1027
  9
$DWGCODEPAGE
  3
ANSI_1252
  9
$EXTMAX
 10
17.0
 20
11.0
 30
0.0
  9
$EXTMIN
 10
0.0
 20
0.0
 30
0.0
  9
$LIMMIN
 10
0.0
 20
0.0
  9
$LIMMAX
 10
17.0
 20
11.0
  9
$VIEWCTR
 10
8.5
 20
5.5
  9
$VIEWSIZE
 40
11.0
  9
$CLAYER
  8
0
  9
$LTSCALE
 40
0.935
  9
$CELTYPE
  6
BYLAYER
  9
$DIMSCALE
 40
1.0
  9
$DIMASZ
 40
0.1875
  9
$DIMEXO
 40
0.0625
  9
$DIMDLI
 40
0.646
  9
$DIMEXE
 40
0.125
  9
$DIMCEN
 40
0.153
  9
$DIMLFAC
 40
1.0
  9
$DIMBLK
  1
_FILLED
  9
$DIMALT
 70
1
  9
$DIMALTD
 70
2
  9
$DIMALTTD
 70
2
  9
$DIMALTF
 40
25.4
  9
$DIMTXT
 40
0.1
  9
$DIMTOL
 70
1
  9
$DIMLIM
 70
0
  9
$DIMTFAC
 40
1.0
  9
$DIMTP
 40
0.005
  9
$DIMTM
 40
0.005
  9
$DIMGAP
 40
0.09
  9
$DIMDSEP
 70
46
  9
$AUNITS
 70
0
  9
$PDMODE
 70
3
  9
$PDSIZE
 40
0.3125
  9
$HANDSEED
  5
56D
  9
$TILEMODE
 70
1
  9
$MEASUREMENT
 70
0
  9
$INSUNITS
 70
1
  0
ENDSEC
  0
SECTION
  2
CLASSES
  0
CLASS
  1
ACDBDICTIONARYWDFLT
  2
AcDbDictionaryWithDefault
  3
AutoCAD 2000
 90
0
 91
1
280
0
281
0
  0
CLASS
  1
ACDBPLACEHOLDER
  2
AcDbPlaceHolder
  3
AutoCAD 2000
 90
0
 91
1
280
0
281
0
  0
CLASS
  1
LAYOUT
  2
AcDbLayout
  3
AutoCAD 2000
 90
0
 91
0
280
0
281
0
  0
CLASS
  1
TABLESTYLE
  2
AcDbTableStyle
  3
ObjectDBX Classes
 90
2047
 91
1
280
0
281
0
  0
CLASS
  1
ACAD_TABLE
  2
AcDbTable
  3
ObjectDBX Classes
 90
1025
 91
1
280
0
281
1
  0
ENDSEC
  0
SECTION
  2
TABLES
  0
TABLE
  2
VPORT
  5
8
100
AcDbSymbolTable
 70
2
  0
VPORT
  5
1F4
100
AcDbSymbolTableRecord
100
AcDbViewportTableRecord
  2
*ACTIVE
 70
0
 10
0.0
 20
0.0
 11
1.0
 21
1.0
 12
8.5
 22
5.5
 13
0.0
 23
0.0
 14
1.0
 24
1.0
 15
0.0
 25
0.0
 16
0.0
 26
0.0
 36
1.0
 17
0.0
 27
0.0
 37
0.0
 40
11.0
 41
1.5454545455
 42
50.0
 43
0.0
 44
0.0
 50
0.0
 51
0.0
 71
0
 72
100
 73
1
 74
1
 75
0
 76
0
 77
0
 78
0
  0
ENDTAB
  0
TABLE
  2
LTYPE
  5
5
100
AcDbSymbolTable
 70
6
  0
LTYPE
  5
14
100
AcDbSymbolTableRecord
100
AcDbLinetypeTableRecord
  2
BYBLOCK
 70
0
  3

 72
65
 73
0
 40
0.0
  0
LTYPE
  5
15
100
AcDbSymbolTableRecord
100
AcDbLinetypeTableRecord
  2
BYLAYER
 70
0
  3

 72
65
 73
0
 40
0.0
  0
LTYPE
  5
16
100
AcDbSymbolTableRecord
100
AcDbLinetypeTableRecord
  2
CONTINUOUS
 70
64
  3
Solid line
 72
65
 73
0
 40
0.0
  0
LTYPE
  5
1F5
100
AcDbSymbolTableRecord
100
AcDbLinetypeTableRecord
  2
CENTER
 70
64
  3
____ _ ____ _ ____ _ ____ _ ____ _ ____ _ ____
 72
65
 73
4
 40
0.6
 49
0.375
 74
0
 49
-0.075
 74
0
 49
0.075
 74
0
 49
-0.075
 74
0
  0
LTYPE
  5
1F6
100
AcDbSymbolTableRecord
100
AcDbLinetypeTableRecord
  2
HIDDEN
 70
64
  3
- - - - - - - - - - - - - - - - - - - -
 72
65
 73
2
 40
0.2
 49
0.1
 74
0
 49
-0.1
 74
0
  0
LTYPE
  5
1F7
100
AcDbSymbolTableRecord
100
AcDbLinetypeTableRecord
  2
PHANTOM
 70
64
  3
_____ _ _ _____ _ _ _____ _ _ _____
 72
65
 73
6
 40
0.8
 49
0.45
 74
0
 49
-0.05
 74
0
 49
0.1
 74
0
 49
-0.05
 74
0
 49
0.1
 74
0
 49
-0.05
 74
0
  0
LTYPE
  5
1F8
100
AcDbSymbolTableRecord
100
AcDbLinetypeTableRecord
  2
DOT
 70
64
  3
. . . . . . . . . . . . . . . . . . . .
 72
65
 73
2
 40
0.2
 49
0.1
 74
0
 49
-0.1
 74
0
  0
LTYPE
  5
1F9
100
AcDbSymbolTableRecord
100
AcDbLinetypeTableRecord
  2
DASHED
 70
64
  3
- - - - - - - - - - - - - - - - - - - -
 72
65
 73
2
 40
0.2
 49
0.1
 74
0
 49
-0.1
 74
0
  0
ENDTAB
  0
TABLE
  2
LAYER
  5
2
100
AcDbSymbolTable
 70
36
  0
LAYER
  5
10
100
AcDbSymbolTableRecord
100
AcDbLayerTableRecord
  2
0
 70
0
 62
7
  6
CONTINUOUS
370
-3
390
F
  0
LAYER
  5
1FA
100
AcDbSymbolTableRecord
100
AcDbLayerTableRecord
  2
DEFAULT_1
 70
0
 62
7
  6
CENTER
370
-3
390
F
  0
LAYER
  5
1FB
100
AcDbSymbolTableRecord
100
AcDbLayerTableRecord
  2
DEFAULT_2
 70
0
 62
7
  6
HIDDEN
370
-3
390
F
  0
LAYER
  5
1FC
100
AcDbSymbolTableRecord
100
AcDbLayerTableRecord
  2
DEFAULT_3
 70
0
 62
7
  6
PHANTOM
370
-3
390
F
  0
LAYER
  5
1FD
100
AcDbSymbolTableRecord
100
AcDbLayerTableRecord
  2
DATUM_PLANES
 70
0
 62
7
  6
CONTINUOUS
370
-3
390
F
  0
LAYER
  5
1FE
100
AcDbSymbolTableRecord
100
AcDbLayerTableRecord
  2
DCURVE
 70
0
 62
7
  6
CONTINUOUS
370
-3
390
F
  0
LAYER
  5
1FF
100
AcDbSymbolTableRecord
100
AcDbLayerTableRecord
  2
DRIVEN_DIMS
 70
0
 62
7
  6
CONTINUOUS
370
-3
390
F
  0
LAYER
  5
200
100
AcDbSymbolTableRecord
100
AcDbLayerTableRecord
  2
NOTES
 70
0
 62
7
  6
CONTINUOUS
370
-3
390
F
  0
LAYER
  5
201
100
AcDbSymbolTableRecord
100
AcDbLayerTableRecord
  2
SCHEME_DIMS
 70
0
 62
7
  6
CONTINUOUS
370
-3
390
F
  0
LAYER
  5
202
100
AcDbSymbolTableRecord
100
AcDbLayerTableRecord
  2
SKETCHED_ENT
 70
0
 62
7
  6
CONTINUOUS
370
-3
390
F
  0
LAYER
  5
203
100
AcDbSymbolTableRecord
100
AcDbLayerTableRecord
  2
SYMBOLS
 70
0
 62
7
  6
CONTINUOUS
370
-3
390
F
  0
ENDTAB
  0
TABLE
  2
STYLE
  5
3
100
AcDbSymbolTable
 70
1
  0
STYLE
  5
11
100
AcDbSymbolTableRecord
100
AcDbTextStyleTableRecord
  2
STANDARD
 70
0
 40
0.0
 41
1.0
 50
0.0
 71
0
 42
0.2
  3
txt
  4

  0
STYLE
  5
204
100
AcDbSymbolTableRecord
100
AcDbTextStyleTableRecord
  2
TEXTSTYLE_1
 70
0
 40
0.0
 41
0.8
 50
0.0
 71
0
 42
0.2
  3
gdt
  4

  0
STYLE
  5
205
100
AcDbSymbolTableRecord
100
AcDbTextStyleTableRecord
  2
TEXTSTYLE_2
 70
0
 40
0.0
 41
0.8
 50
0.0
 71
0
 42
0.2
  3
txt
  4

  0
STYLE
  5
206
100
AcDbSymbolTableRecord
100
AcDbTextStyleTableRecord
  2
TEXTSTYLE_3
 70
0
 40
0.0
 41
0.85
 50
0.0
 71
0
 42
0.2
  3
txt
  4

  0
STYLE
  5
207
100
AcDbSymbolTableRecord
100
AcDbTextStyleTableRecord
  2
TEXTSTYLE_4
 70
0
 40
0.0
 41
0.9
 50
0.0
 71
0
 42
0.2
  3
txt
  4

  0
STYLE
  5
208
100
AcDbSymbolTableRecord
100
AcDbTextStyleTableRecord
  2
TEXTSTYLE_5
 70
0
 40
0.0
 41
0.75
 50
0.0
 71
0
 42
0.2
  3
txt
  4

  0
STYLE
  5
209
100
AcDbSymbolTableRecord
100
AcDbTextStyleTableRecord
  2
TEXTSTYLE_6
 70
0
 40
0.0
 41
1.0
 50
0.0
 71
0
 42
0.2
  3
gdt
  4

  0
ENDTAB
  0
TABLE
  2
VIEW
  5
6
100
AcDbSymbolTable
 70
0
  0
ENDTAB
  0
TABLE
  2
UCS
  5
7
100
AcDbSymbolTable
 70
0
  0
ENDTAB
  0
TABLE
  2
APPID
  5
9
100
AcDbSymbolTable
 70
1
  0
APPID
  5
20A
100
AcDbSymbolTableRecord
100
AcDbRegAppTableRecord
  2
ACAD
 70
0
  0
ENDTAB
  0
TABLE
  2
BLOCK_RECORD
  5
1
100
AcDbSymbolTable
 70
0
  0
BLOCK_RECORD
  5
20B
100
AcDbSymbolTableRecord
100
AcDbBlockTableRecord
  2
*Model_Space
  0
BLOCK_RECORD
  5
20C
100
AcDbSymbolTableRecord
100
AcDbBlockTableRecord
  2
*Paper_Space
  0
BLOCK_RECORD
  5
20D
100
AcDbSymbolTableRecord
100
AcDbBlockTableRecord
  2
_FILLED
  0
BLOCK_RECORD
  5
20E
100
AcDbSymbolTableRecord
100
AcDbBlockTableRecord
  2
*D0
  0
BLOCK_RECORD
  5
20F
100
AcDbSymbolTableRecord
100
AcDbBlockTableRecord
  2
*D1
  0
BLOCK_RECORD
  5
210
100
AcDbSymbolTableRecord
100
AcDbBlockTableRecord
  2
*D2
  0
BLOCK_RECORD
  5
211
100
AcDbSymbolTableRecord
100
AcDbBlockTableRecord
  2
*D3
  0
BLOCK_RECORD
  5
212
100
AcDbSymbolTableRecord
100
AcDbBlockTableRecord
  2
*D4
  0
BLOCK_RECORD
  5
213
100
AcDbSymbolTableRecord
100
AcDbBlockTableRecord
  2
*D5
  0
BLOCK_RECORD
  5
214
100
AcDbSymbolTableRecord
100
AcDbBlockTableRecord
  2
*D6
  0
BLOCK_RECORD
  5
215
100
AcDbSymbolTableRecord
100
AcDbBlockTableRecord
  2
*D7
  0
BLOCK_RECORD
  5
216
100
AcDbSymbolTableRecord
100
AcDbBlockTableRecord
  2
*D8
  0
BLOCK_RECORD
  5
217
100
AcDbSymbolTableRecord
100
AcDbBlockTableRecord
  2
*D9
  0
BLOCK_RECORD
  5
218
100
AcDbSymbolTableRecord
100
AcDbBlockTableRecord
  2
*D10
  0
BLOCK_RECORD
  5
219
100
AcDbSymbolTableRecord
100
AcDbBlockTableRecord
  2
*D11
  0
BLOCK_RECORD
  5
21A
100
AcDbSymbolTableRecord
100
AcDbBlockTableRecord
  2
*D12
  0
BLOCK_RECORD
  5
21B
100
AcDbSymbolTableRecord
100
AcDbBlockTableRecord
  2
*D13
  0
BLOCK_RECORD
  5
21C
100
AcDbSymbolTableRecord
100
AcDbBlockTableRecord
  2
*D14
  0
BLOCK_RECORD
  5
21D
100
AcDbSymbolTableRecord
100
AcDbBlockTableRecord
  2
*D15
  0
BLOCK_RECORD
  5
21E
100
AcDbSymbolTableRecord
100
AcDbBlockTableRecord
  2
*D16
  0
BLOCK_RECORD
  5
21F
100
AcDbSymbolTableRecord
100
AcDbBlockTableRecord
  2
*D17
  0
BLOCK_RECORD
  5
220
100
AcDbSymbolTableRecord
100
AcDbBlockTableRecord
  2
*T1
  0
ENDTAB
  0
TABLE
  2
DIMSTYLE
  5
A
100
AcDbSymbolTable
 70
1
100
AcDbDimStyleTable
 71
0
  0
DIMSTYLE
105
221
100
AcDbSymbolTableRecord
100
AcDbDimStyleTableRecord
  2
STANDARD
 70
0
  3

  4

 40
1.0
 41
0.1875
 42
0.0625
 43
0.38
 44
0.125
 45
0.0
 46
0.0
 47
0.005
 48
0.005
140
0.1
141
0.09
142
0.0
143
1.0
144
1.0
145
0.0
146
1.0
147
0.09
 71
1.0
 72
0.0
 73
1
 74
1
 75
0
 76
0
 77
0
 78
4
 79
1
170
1
171
2
172
0
173
0
174
0
175
0
176
0
177
0
178
0
270
2
179
3
271
3
272
3
273
2
274
2
275
0
280
0
281
0
282
0
283
1
284
4
285
0
286
0
287
3
288
0
340
11
278
46
341
20D
342
20D
343
20D
344
20D
  0
DIMSTYLE
105
222
100
AcDbSymbolTableRecord
100
AcDbDimStyleTableRecord
  2
DIMSTYLE_1
 70
0
  3
<>
  4

 40
1.0
 41
0.1875
 42
0.0625
 43
0.38
 44
0.125
 45
0.0
 46
0.0
 47
0.0
 48
0.0
140
0.1
141
0.09
142
0.0
143
1.0
144
1.0
145
0.0
146
1.0
147
0.09
 71
0.0
 72
0.0
 73
1
 74
1
 75
0
 76
0
 77
0
 78
4
 79
1
170
1
171
2
172
0
173
0
174
0
175
0
176
0
177
0
178
0
270
2
179
3
271
1
272
3
273
2
274
4
275
0
280
0
281
0
282
0
283
1
284
4
285
0
286
0
287
3
288
0
340
11
278
46
341
20D
342
20D
343
20D
344
20D
  0
DIMSTYLE
105
223
100
AcDbSymbolTableRecord
100
AcDbDimStyleTableRecord
  2
DIMSTYLE_2
 70
0
  3

  4

 40
1.0
 41
0.1875
 42
0.0625
 43
0.38
 44
0.125
 45
0.0
 46
0.0
 47
1.0
 48
1.0
140
0.1
141
0.09
142
0.0
143
1.0
144
1.0
145
0.0
146
1.0
147
0.05
 71
0.0
 72
0.0
 73
1
 74
1
 75
0
 76
0
 77
0
 78
4
 79
1
170
0
171
2
172
0
173
0
174
0
175
0
176
0
177
0
178
0
270
2
179
3
271
0
272
0
273
2
274
2
275
0
280
0
281
0
282
0
283
1
284
4
285
0
286
0
287
3
288
0
340
11
278
46
341
20D
342
20D
343
20D
344
20D
  0
DIMSTYLE
105
224
100
AcDbSymbolTableRecord
100
AcDbDimStyleTableRecord
  2
DIMSTYLE_3
 70
0
  3

  4

 40
1.0
 41
0.1875
 42
0.0625
 43
0.38
 44
0.125
 45
0.0
 46
0.0
 47
0.1
 48
0.1
140
0.1
141
0.09
142
0.0
143
1.0
144
1.0
145
0.0
146
1.0
147
0.1
 71
0.0
 72
0.0
 73
1
 74
1
 75
0
 76
0
 77
0
 78
4
 79
1
170
1
171
2
172
0
173
0
174
0
175
0
176
0
177
0
178
0
270
2
179
3
271
1
272
3
273
2
274
-1
275
0
280
0
281
0
282
0
283
1
284
4
285
0
286
0
287
3
288
0
340
11
278
46
341
20D
342
20D
343
20D
344
20D
  0
DIMSTYLE
105
225
100
AcDbSymbolTableRecord
100
AcDbDimStyleTableRecord
  2
DIMSTYLE_4
 70
0
  3
<>
  4

 40
1.0
 41
0.1875
 42
0.0625
 43
0.38
 44
0.125
 45
0.0
 46
0.0
 47
0.1
 48
0.1
140
0.1
141
0.09
142
0.0
143
1.0
144
1.0
145
0.0
146
1.0
147
0.09
 71
0.0
 72
0.0
 73
1
 74
1
 75
0
 76
0
 77
0
 78
4
 79
1
170
1
171
2
172
0
173
0
174
0
175
0
176
0
177
0
178
0
270
2
179
3
271
1
272
3
273
2
274
4
275
0
280
0
281
0
282
0
283
1
284
4
285
0
286
0
287
3
288
1
340
11
278
46
289
1
341
20D
342
20D
343
20D
344
20D
  0
DIMSTYLE
105
226
100
AcDbSymbolTableRecord
100
AcDbDimStyleTableRecord
  2
DIMSTYLE_5
 70
0
  3
<>
  4

 40
1.0
 41
0.1875
 42
0.0625
 43
0.38
 44
0.125
 45
0.0
 46
0.0
 47
0.1
 48
0.1
140
0.1
141
0.09
142
0.0
143
1.0
144
1.0
145
0.0
146
1.0
147
0.09
 71
0.0
 72
0.0
 73
1
 74
1
 75
0
 76
0
 77
0
 78
4
 79
1
170
1
171
2
172
0
173
0
174
0
175
0
176
0
177
0
178
0
270
2
179
3
271
1
272
3
273
2
274
4
275
0
280
0
281
0
282
0
283
1
284
4
285
0
286
0
287
3
288
0
340
11
278
46
341
20D
342
20D
343
20D
344
20D
  0
DIMSTYLE
105
227
100
AcDbSymbolTableRecord
100
AcDbDimStyleTableRecord
  2
DIMSTYLE_6
 70
0
  3

  4

 40
1.0
 41
0.1875
 42
0.0625
 43
0.38
 44
0.125
 45
0.0
 46
0.0
 47
0.1
 48
0.1
140
0.1
141
0.09
142
0.0
143
1.0
144
1.0
145
0.0
146
1.0
147
0.1
 71
0.0
 72
0.0
 73
1
 74
1
 75
0
 76
0
 77
0
 78
4
 79
1
170
1
171
2
172
0
173
0
174
0
175
0
176
0
177
0
178
0
270
2
179
3
271
1
272
3
273
2
274
4
275
0
280
0
281
0
282
0
283
1
284
4
285
0
286
0
287
3
288
0
340
11
278
46
341
20D
342
20D
343
20D
344
20D
  0
ENDTAB
  0
ENDSEC
  0
SECTION
  2
BLOCKS
  0
BLOCK
  5
20
100
AcDbEntity
  8
0
100
AcDbBlockBegin
  2
*Model_Space
 70
0
 10
0.0
 20
0.0
 30
0.0
  3
*Model_Space
  1

  0
ENDBLK
  5
21
100
AcDbEntity
  8
0
100
AcDbBlockEnd
  0
BLOCK
  5
1C
100
AcDbEntity
  8
0
100
AcDbBlockBegin
  2
*Paper_Space
 70
0
 10
0.0
 20
0.0
 30
0.0
  3
*Paper_Space
  1

  0
ENDBLK
  5
1D
100
AcDbEntity
  8
0
100
AcDbBlockEnd
  0
BLOCK
  5
228
100
AcDbEntity
  8
0
100
AcDbBlockBegin
  2
_FILLED
 70
64
 10
0.0
 20
0.0
  3
_FILLED
  1

  0
SOLID
  5
229
100
AcDbEntity
  8
0
  6
BYBLOCK
 62
0
100
AcDbTrace
 10
0.0
 20
0.0
 11
-1.0
 21
0.1666666667
 12
-1.0
 22
-0.1666666667
 13
-1.0
 23
-0.1666666667
  0
ENDBLK
  5
22A
100
AcDbEntity
  8
0
  6
BYBLOCK
 62
0
100
AcDbBlockEnd
  0
BLOCK
  5
22B
100
AcDbEntity
  8
DRIVEN_DIMS
100
AcDbBlockBegin
 62
7
  6
CONTINUOUS
  2
*D0
 70
65
 10
0.0
 20
0.0
  3
*D0
  1

  0
MTEXT
  5
22C
100
AcDbEntity
  8
DRIVEN_DIMS
100
AcDbMText
 62
7
  6
CONTINUOUS
  7
STANDARD
 71
1
 72
1
 10
9.9138505287
 20
7.9533227402
 30
0.0
 11
1.0
 21
0.0
 31
0.0
 73
2
 44
0.9
  1
R11,68  \P[.46] 
 40
0.1
 41
0.8
  0
LINE
  5
22D
100
AcDbEntity
  8
DRIVEN_DIMS
100
AcDbLine
 62
7
  6
CONTINUOUS
 10
8.7069191925
 20
8.0391201148
 11
9.6638505287
 21
7.9033227402
  0
LINE
  5
22E
100
AcDbEntity
  8
DRIVEN_DIMS
100
AcDbLine
 62
7
  6
CONTINUOUS
 10
9.6638505287
 20
7.9033227402
 11
9.8138505287
 21
7.9033227402
  0
INSERT
  5
22F
100
AcDbEntity
  8
DRIVEN_DIMS
100
AcDbBlockReference
 62
7
  6
CONTINUOUS
  2
_FILLED
 10
8.7069191925
 20
8.0391201148
 41
0.1875
 42
0.1875
 43
0.1875
 50
171.9231307211
  0
ENDBLK
  5
230
100
AcDbEntity
  8
0
  6
BYBLOCK
 62
0
100
AcDbBlockEnd
  0
BLOCK
  5
231
100
AcDbEntity
  8
DRIVEN_DIMS
100
AcDbBlockBegin
 62
7
  6
CONTINUOUS
  2
*D1
 70
65
 10
0.0
 20
0.0
  3
*D1
  1

  0
MTEXT
  5
232
100
AcDbEntity
  8
DRIVEN_DIMS
100
AcDbMText
 62
7
  6
CONTINUOUS
  7
STANDARD
 71
2
 72
1
 10
8.2586043364
 20
7.0841743595
 30
0.0
 11
1.0
 21
0.0
 31
0.0
 73
2
 44
0.9
  1
4X 55\fgdt;{\fgdt;~}
 40
0.1
 41
0.5666666667
  0
LINE
  5
233
100
AcDbEntity
  8
DRIVEN_DIMS
100
AcDbLine
 62
7
  6
CONTINUOUS
 10
8.2256009183
 20
8.047312732
 11
7.7074925478
 21
7.0417333485
  0
LINE
  5
234
100
AcDbEntity
  8
DRIVEN_DIMS
100
AcDbLine
 62
7
  6
CONTINUOUS
 10
8.2833096461
 20
8.0475548995
 11
8.8096357776
 21
7.0462446757
  0
ARC
  5
235
100
AcDbEntity
  8
DRIVEN_DIMS
100
AcDbCircle
 62
7
  6
CONTINUOUS
 10
8.2542298862
 20
8.102877748
 40
1.0687123413
100
AcDbArc
 50
221.2961611072
 51
242.7409511788
  0
ARC
  5
236
100
AcDbEntity
  8
DRIVEN_DIMS
100
AcDbCircle
 62
7
  6
CONTINUOUS
 10
8.2542298862
 20
8.102877748
 40
1.0687123413
100
AcDbArc
 50
297.7280959519
 51
319.1728860234
  0
SOLID
  5
237
100
AcDbEntity
  8
DRIVEN_DIMS
100
AcDbTrace
 62
7
  6
CONTINUOUS
 10
7.5895401444
 20
7.2265827425
 11
7.764744337
 21
7.1528514507
 12
7.6229234927
 22
7.2794202487
 13
7.6229234927
 23
7.2794202487
  0
SOLID
  5
238
100
AcDbEntity
  8
DRIVEN_DIMS
100
AcDbTrace
 62
7
  6
CONTINUOUS
 10
8.8922562167
 20
7.284615921
 11
8.7514762579
 21
7.1568903727
 12
8.9260709913
 22
7.2320534723
 13
8.9260709913
 23
7.2320534723
  0
ENDBLK
  5
239
100
AcDbEntity
  8
0
  6
BYBLOCK
 62
0
100
AcDbBlockEnd
  0
BLOCK
  5
23A
100
AcDbEntity
  8
SCHEME_DIMS
100
AcDbBlockBegin
 62
7
  6
CONTINUOUS
  2
*D2
 70
65
 10
0.0
 20
0.0
  3
*D2
  1

  0
MTEXT
  5
23B
100
AcDbEntity
  8
SCHEME_DIMS
100
AcDbMText
 62
7
  6
CONTINUOUS
  7
STANDARD
 71
2
 72
1
 10
2.2417606417
 20
4.6437561156
 30
0.0
 11
1.0
 21
0.0
 31
0.0
 73
2
 44
0.9
  1
44,2\P[1.74]
 40
0.1
 41
0.6
  0
LINE
  5
23C
100
AcDbEntity
  8
SCHEME_DIMS
100
AcDbLine
 62
7
  6
CONTINUOUS
 10
2.8708905784
 20
3.6234223316
 11
2.2167606417
 21
3.6234223316
  0
LINE
  5
23D
100
AcDbEntity
  8
SCHEME_DIMS
100
AcDbLine
 62
7
  6
CONTINUOUS
 10
2.7834108326
 20
5.3634223316
 11
2.2167606417
 21
5.3634223316
  0
LINE
  5
23E
100
AcDbEntity
  8
SCHEME_DIMS
100
AcDbLine
 62
7
  6
CONTINUOUS
 10
2.3417606417
 20
3.6234223316
 11
2.3417606417
 21
4.2937561156
  0
LINE
  5
23F
100
AcDbEntity
  8
SCHEME_DIMS
100
AcDbLine
 62
7
  6
CONTINUOUS
 10
2.3417606417
 20
5.3634223316
 11
2.3417606417
 21
4.7437561156
  0
INSERT
  5
240
100
AcDbEntity
  8
SCHEME_DIMS
100
AcDbBlockReference
 62
7
  6
CONTINUOUS
  2
_FILLED
 10
2.3417606417
 20
3.6234223316
 41
0.1875
 42
0.1875
 43
0.1875
 50
270.0
  0
INSERT
  5
241
100
AcDbEntity
  8
SCHEME_DIMS
100
AcDbBlockReference
 62
7
  6
CONTINUOUS
  2
_FILLED
 10
2.3417606417
 20
5.3634223316
 41
0.1875
 42
0.1875
 43
0.1875
 50
90.0
  0
ENDBLK
  5
242
100
AcDbEntity
  8
0
  6
BYBLOCK
 62
0
100
AcDbBlockEnd
  0
BLOCK
  5
243
100
AcDbEntity
  8
SCHEME_DIMS
100
AcDbBlockBegin
 62
7
  6
CONTINUOUS
  2
*D3
 70
65
 10
0.0
 20
0.0
  3
*D3
  1

  0
MTEXT
  5
244
100
AcDbEntity
  8
SCHEME_DIMS
100
AcDbMText
 62
7
  6
CONTINUOUS
  7
STANDARD
 71
2
 72
1
 10
3.5792606417
 20
5.9134223316
 30
0.0
 11
1.0
 21
0.0
 31
0.0
 73
2
 44
0.9
  1
42,5\P[1.68]
 40
0.1
 41
0.6
  0
LINE
  5
245
100
AcDbEntity
  8
SCHEME_DIMS
100
AcDbLine
 62
7
  6
CONTINUOUS
 10
2.8417606417
 20
5.4247217112
 11
2.8417606417
 21
5.9884223316
  0
LINE
  5
246
100
AcDbEntity
  8
SCHEME_DIMS
100
AcDbLine
 62
7
  6
CONTINUOUS
 10
4.5167606417
 20
3.7656227463
 11
4.5167606417
 21
5.9884223316
  0
LINE
  5
247
100
AcDbEntity
  8
SCHEME_DIMS
100
AcDbLine
 62
7
  6
CONTINUOUS
 10
2.8417606417
 20
5.8634223316
 11
3.2792606417
 21
5.8634223316
  0
LINE
  5
248
100
AcDbEntity
  8
SCHEME_DIMS
100
AcDbLine
 62
7
  6
CONTINUOUS
 10
4.5167606417
 20
5.8634223316
 11
4.0792606417
 21
5.8634223316
  0
INSERT
  5
249
100
AcDbEntity
  8
SCHEME_DIMS
100
AcDbBlockReference
 62
7
  6
CONTINUOUS
  2
_FILLED
 10
2.8417606417
 20
5.8634223316
 41
0.1875
 42
0.1875
 43
0.1875
 50
180.0
  0
INSERT
  5
24A
100
AcDbEntity
  8
SCHEME_DIMS
100
AcDbBlockReference
 62
7
  6
CONTINUOUS
  2
_FILLED
 10
4.5167606417
 20
5.8634223316
 41
0.1875
 42
0.1875
 43
0.1875
  0
ENDBLK
  5
24B
100
AcDbEntity
  8
0
  6
BYBLOCK
 62
0
100
AcDbBlockEnd
  0
BLOCK
  5
24C
100
AcDbEntity
  8
SCHEME_DIMS
100
AcDbBlockBegin
 62
7
  6
CONTINUOUS
  2
*D4
 70
65
 10
0.0
 20
0.0
  3
*D4
  1

  0
MTEXT
  5
24D
100
AcDbEntity
  8
SCHEME_DIMS
100
AcDbMText
 62
7
  6
CONTINUOUS
  7
TEXTSTYLE_6
 71
1
 72
1
 10
10.1368641258
 20
8.6438752109
 30
0.0
 11
1.0
 21
0.0
 31
0.0
 73
2
 44
0.9
  1
{\fgdt;n}\ftxt;15,2\P[.60]
 40
0.1
 41
0.5333333333
  0
LINE
  5
24E
100
AcDbEntity
  8
SCHEME_DIMS
100
AcDbLine
 62
7
  6
CONTINUOUS
 10
8.5504641134
 20
8.190151889
 11
9.8868641258
 21
8.5938752109
  0
LINE
  5
24F
100
AcDbEntity
  8
SCHEME_DIMS
100
AcDbLine
 62
7
  6
CONTINUOUS
 10
9.8868641258
 20
8.5938752109
 11
10.0368641258
 21
8.5938752109
  0
INSERT
  5
250
100
AcDbEntity
  8
SCHEME_DIMS
100
AcDbBlockReference
 62
7
  6
CONTINUOUS
  2
_FILLED
 10
8.5504641134
 20
8.190151889
 41
0.1875
 42
0.1875
 43
0.1875
 50
196.8094440476
  0
ENDBLK
  5
251
100
AcDbEntity
  8
0
  6
BYBLOCK
 62
0
100
AcDbBlockEnd
  0
BLOCK
  5
252
100
AcDbEntity
  8
SCHEME_DIMS
100
AcDbBlockBegin
 62
7
  6
CONTINUOUS
  2
*D5
 70
65
 10
0.0
 20
0.0
  3
*D5
  1

  0
MTEXT
  5
253
100
AcDbEntity
  8
SCHEME_DIMS
100
AcDbMText
 62
7
  6
CONTINUOUS
  7
STANDARD
 71
3
 72
1
 10
6.7961863361
 20
7.5383098585
 30
0.0
 11
1.0
 21
0.0
 31
0.0
 73
2
 44
0.9
  1
R1,8\P[.07]
 40
0.1
 41
0.5
  0
LINE
  5
254
100
AcDbEntity
  8
SCHEME_DIMS
100
AcDbLine
 62
7
  6
CONTINUOUS
 10
7.7980908414
 20
7.8555059149
 11
7.2461863361
 21
7.4883098585
  0
LINE
  5
255
100
AcDbEntity
  8
SCHEME_DIMS
100
AcDbLine
 62
7
  6
CONTINUOUS
 10
7.2461863361
 20
7.4883098585
 11
7.0961863361
 21
7.4883098585
  0
INSERT
  5
256
100
AcDbEntity
  8
SCHEME_DIMS
100
AcDbBlockReference
 62
7
  6
CONTINUOUS
  2
_FILLED
 10
7.7980908414
 20
7.8555059149
 41
0.1875
 42
0.1875
 43
0.1875
 50
33.6368293749
  0
ENDBLK
  5
257
100
AcDbEntity
  8
0
  6
BYBLOCK
 62
0
100
AcDbBlockEnd
  0
BLOCK
  5
258
100
AcDbEntity
  8
SCHEME_DIMS
100
AcDbBlockBegin
 62
7
  6
CONTINUOUS
  2
*D6
 70
65
 10
0.0
 20
0.0
  3
*D6
  1

  0
MTEXT
  5
259
100
AcDbEntity
  8
SCHEME_DIMS
100
AcDbMText
 62
7
  6
CONTINUOUS
  7
STANDARD
 71
2
 72
1
 10
6.2882825604
 20
8.7586620399
 30
0.0
 11
1.0
 21
0.0
 31
0.0
 73
2
 44
0.9
  1
26,7\P[1.05]
 40
0.1
 41
0.6
  0
LINE
  5
25A
100
AcDbEntity
  8
SCHEME_DIMS
100
AcDbLine
 62
7
  6
CONTINUOUS
 10
7.9949011454
 20
8.1033950127
 11
6.2632825604
 21
8.1033950127
  0
LINE
  5
25B
100
AcDbEntity
  8
SCHEME_DIMS
100
AcDbLine
 62
7
  6
CONTINUOUS
 10
6.8623902033
 20
9.1533950127
 11
6.2632825604
 21
9.1533950127
  0
LINE
  5
25C
100
AcDbEntity
  8
SCHEME_DIMS
100
AcDbLine
 62
7
  6
CONTINUOUS
 10
6.3882825604
 20
8.1033950127
 11
6.3882825604
 21
8.4086620399
  0
LINE
  5
25D
100
AcDbEntity
  8
SCHEME_DIMS
100
AcDbLine
 62
7
  6
CONTINUOUS
 10
6.3882825604
 20
9.1533950127
 11
6.3882825604
 21
8.8586620399
  0
INSERT
  5
25E
100
AcDbEntity
  8
SCHEME_DIMS
100
AcDbBlockReference
 62
7
  6
CONTINUOUS
  2
_FILLED
 10
6.3882825604
 20
8.1033950127
 41
0.1875
 42
0.1875
 43
0.1875
 50
270.0
  0
INSERT
  5
25F
100
AcDbEntity
  8
SCHEME_DIMS
100
AcDbBlockReference
 62
7
  6
CONTINUOUS
  2
_FILLED
 10
6.3882825604
 20
9.1533950127
 41
0.1875
 42
0.1875
 43
0.1875
 50
90.0
  0
ENDBLK
  5
260
100
AcDbEntity
  8
0
  6
BYBLOCK
 62
0
100
AcDbBlockEnd
  0
BLOCK
  5
261
100
AcDbEntity
  8
SCHEME_DIMS
100
AcDbBlockBegin
 62
7
  6
CONTINUOUS
  2
*D7
 70
65
 10
0.0
 20
0.0
  3
*D7
  1

  0
MTEXT
  5
262
100
AcDbEntity
  8
SCHEME_DIMS
100
AcDbMText
 62
7
  6
CONTINUOUS
  7
STANDARD
 71
2
 72
1
 10
7.4757825604
 20
9.7033950127
 30
0.0
 11
1.0
 21
0.0
 31
0.0
 73
2
 44
0.9
  1
34,9\P[1.38]
 40
0.1
 41
0.6
  0
LINE
  5
263
100
AcDbEntity
  8
SCHEME_DIMS
100
AcDbLine
 62
7
  6
CONTINUOUS
 10
8.2632825604
 20
8.3717764277
 11
8.2632825604
 21
9.7783950127
  0
LINE
  5
264
100
AcDbEntity
  8
SCHEME_DIMS
100
AcDbLine
 62
7
  6
CONTINUOUS
 10
6.8882825604
 20
9.1982247353
 11
6.8882825604
 21
9.7783950127
  0
LINE
  5
265
100
AcDbEntity
  8
SCHEME_DIMS
100
AcDbLine
 62
7
  6
CONTINUOUS
 10
8.2632825604
 20
9.6533950127
 11
8.6632825604
 21
9.6533950127
  0
LINE
  5
266
100
AcDbEntity
  8
SCHEME_DIMS
100
AcDbLine
 62
7
  6
CONTINUOUS
 10
6.8882825604
 20
9.6533950127
 11
6.4882825604
 21
9.6533950127
  0
INSERT
  5
267
100
AcDbEntity
  8
SCHEME_DIMS
100
AcDbBlockReference
 62
7
  6
CONTINUOUS
  2
_FILLED
 10
8.2632825604
 20
9.6533950127
 41
0.1875
 42
0.1875
 43
0.1875
 50
180.0
  0
INSERT
  5
268
100
AcDbEntity
  8
SCHEME_DIMS
100
AcDbBlockReference
 62
7
  6
CONTINUOUS
  2
_FILLED
 10
6.8882825604
 20
9.6533950127
 41
0.1875
 42
0.1875
 43
0.1875
  0
ENDBLK
  5
269
100
AcDbEntity
  8
0
  6
BYBLOCK
 62
0
100
AcDbBlockEnd
  0
BLOCK
  5
26A
100
AcDbEntity
  8
SCHEME_DIMS
100
AcDbBlockBegin
 62
7
  6
CONTINUOUS
  2
*D8
 70
65
 10
0.0
 20
0.0
  3
*D8
  1

  0
MTEXT
  5
26B
100
AcDbEntity
  8
SCHEME_DIMS
100
AcDbMText
 62
7
  6
CONTINUOUS
  7
STANDARD
 71
1
 72
1
 10
9.9394225274
 20
7.3680873888
 30
0.0
 11
1.0
 21
0.0
 31
0.0
 73
2
 44
0.9
  1
R15,9\P[.63]
 40
0.1
 41
0.5
  0
LINE
  5
26C
100
AcDbEntity
  8
SCHEME_DIMS
100
AcDbLine
 62
7
  6
CONTINUOUS
 10
8.8107665736
 20
7.8019215392
 11
9.6894225274
 21
7.3180873888
  0
LINE
  5
26D
100
AcDbEntity
  8
SCHEME_DIMS
100
AcDbLine
 62
7
  6
CONTINUOUS
 10
9.6894225274
 20
7.3180873888
 11
9.8394225274
 21
7.3180873888
  0
INSERT
  5
26E
100
AcDbEntity
  8
SCHEME_DIMS
100
AcDbBlockReference
 62
7
  6
CONTINUOUS
  2
_FILLED
 10
8.8107665736
 20
7.8019215392
 41
0.1875
 42
0.1875
 43
0.1875
 50
151.1605086491
  0
ENDBLK
  5
26F
100
AcDbEntity
  8
0
  6
BYBLOCK
 62
0
100
AcDbBlockEnd
  0
BLOCK
  5
270
100
AcDbEntity
  8
SCHEME_DIMS
100
AcDbBlockBegin
 62
7
  6
CONTINUOUS
  2
*D9
 70
65
 10
0.0
 20
0.0
  3
*D9
  1

  0
MTEXT
  5
271
100
AcDbEntity
  8
SCHEME_DIMS
100
AcDbMText
 62
7
  6
CONTINUOUS
  7
STANDARD
 71
2
 72
1
 10
8.0390597802
 20
2.7984223316
 30
0.0
 11
1.0
 21
0.0
 31
0.0
 73
2
 44
0.9
  1
69,9\P[2.75]
 40
0.1
 41
0.6
  0
LINE
  5
272
100
AcDbEntity
  8
SCHEME_DIMS
100
AcDbLine
 62
7
  6
CONTINUOUS
 10
6.8882825604
 20
3.5612692679
 11
6.8882825604
 21
2.6234223316
  0
LINE
  5
273
100
AcDbEntity
  8
SCHEME_DIMS
100
AcDbLine
 62
7
  6
CONTINUOUS
 10
9.6382825604
 20
3.5474136501
 11
9.6382825604
 21
2.6234223316
  0
LINE
  5
274
100
AcDbEntity
  8
SCHEME_DIMS
100
AcDbLine
 62
7
  6
CONTINUOUS
 10
6.8882825604
 20
2.7484223316
 11
7.7390597802
 21
2.7484223316
  0
LINE
  5
275
100
AcDbEntity
  8
SCHEME_DIMS
100
AcDbLine
 62
7
  6
CONTINUOUS
 10
9.6382825604
 20
2.7484223316
 11
8.5390597802
 21
2.7484223316
  0
INSERT
  5
276
100
AcDbEntity
  8
SCHEME_DIMS
100
AcDbBlockReference
 62
7
  6
CONTINUOUS
  2
_FILLED
 10
6.8882825604
 20
2.7484223316
 41
0.1875
 42
0.1875
 43
0.1875
 50
180.0
  0
INSERT
  5
277
100
AcDbEntity
  8
SCHEME_DIMS
100
AcDbBlockReference
 62
7
  6
CONTINUOUS
  2
_FILLED
 10
9.6382825604
 20
2.7484223316
 41
0.1875
 42
0.1875
 43
0.1875
  0
ENDBLK
  5
278
100
AcDbEntity
  8
0
  6
BYBLOCK
 62
0
100
AcDbBlockEnd
  0
BLOCK
  5
279
100
AcDbEntity
  8
SCHEME_DIMS
100
AcDbBlockBegin
 62
7
  6
CONTINUOUS
  2
*D10
 70
65
 10
0.0
 20
0.0
  3
*D10
  1

  0
MTEXT
  5
27A
100
AcDbEntity
  8
SCHEME_DIMS
100
AcDbMText
 62
7
  6
CONTINUOUS
  7
STANDARD
 71
2
 72
1
 10
6.3382825604
 20
3.9959223316
 30
0.0
 11
1.0
 21
0.0
 31
0.0
 73
2
 44
0.9
  1
16,4\P[.65]
 40
0.1
 41
0.5
  0
LINE
  5
27B
100
AcDbEntity
  8
SCHEME_DIMS
100
AcDbLine
 62
7
  6
CONTINUOUS
 10
6.8257825604
 20
3.6234223316
 11
6.2632825604
 21
3.6234223316
  0
LINE
  5
27C
100
AcDbEntity
  8
SCHEME_DIMS
100
AcDbLine
 62
7
  6
CONTINUOUS
 10
7.5275637184
 20
4.2684223316
 11
6.2632825604
 21
4.2684223316
  0
LINE
  5
27D
100
AcDbEntity
  8
SCHEME_DIMS
100
AcDbLine
 62
7
  6
CONTINUOUS
 10
6.3882825604
 20
3.6234223316
 11
6.3882825604
 21
3.2234223316
  0
LINE
  5
27E
100
AcDbEntity
  8
SCHEME_DIMS
100
AcDbLine
 62
7
  6
CONTINUOUS
 10
6.3882825604
 20
4.2684223316
 11
6.3882825604
 21
4.6684223316
  0
INSERT
  5
27F
100
AcDbEntity
  8
SCHEME_DIMS
100
AcDbBlockReference
 62
7
  6
CONTINUOUS
  2
_FILLED
 10
6.3882825604
 20
3.6234223316
 41
0.1875
 42
0.1875
 43
0.1875
 50
90.0
  0
INSERT
  5
280
100
AcDbEntity
  8
SCHEME_DIMS
100
AcDbBlockReference
 62
7
  6
CONTINUOUS
  2
_FILLED
 10
6.3882825604
 20
4.2684223316
 41
0.1875
 42
0.1875
 43
0.1875
 50
270.0
  0
ENDBLK
  5
281
100
AcDbEntity
  8
0
  6
BYBLOCK
 62
0
100
AcDbBlockEnd
  0
BLOCK
  5
282
100
AcDbEntity
  8
SCHEME_DIMS
100
AcDbBlockBegin
 62
7
  6
CONTINUOUS
  2
*D11
 70
65
 10
0.0
 20
0.0
  3
*D11
  1

  0
MTEXT
  5
283
100
AcDbEntity
  8
SCHEME_DIMS
100
AcDbMText
 62
7
  6
CONTINUOUS
  7
STANDARD
 71
2
 72
1
 10
5.8916155718
 20
4.2857742393
 30
0.0
 11
1.0
 21
0.0
 31
0.0
 73
2
 44
0.9
  1
22,1\P[.87]
 40
0.1
 41
0.5
  0
LINE
  5
284
100
AcDbEntity
  8
SCHEME_DIMS
100
AcDbLine
 62
7
  6
CONTINUOUS
 10
6.7713646375
 20
3.6234223316
 11
5.8166155718
 21
3.6234223316
  0
LINE
  5
285
100
AcDbEntity
  8
SCHEME_DIMS
100
AcDbLine
 62
7
  6
CONTINUOUS
 10
7.7489143003
 20
4.4934223316
 11
5.8166155718
 21
4.4934223316
  0
LINE
  5
286
100
AcDbEntity
  8
SCHEME_DIMS
100
AcDbLine
 62
7
  6
CONTINUOUS
 10
5.9416155718
 20
3.6234223316
 11
5.9416155718
 21
3.2234223316
  0
LINE
  5
287
100
AcDbEntity
  8
SCHEME_DIMS
100
AcDbLine
 62
7
  6
CONTINUOUS
 10
5.9416155718
 20
4.4934223316
 11
5.9416155718
 21
4.8934223316
  0
INSERT
  5
288
100
AcDbEntity
  8
SCHEME_DIMS
100
AcDbBlockReference
 62
7
  6
CONTINUOUS
  2
_FILLED
 10
5.9416155718
 20
3.6234223316
 41
0.1875
 42
0.1875
 43
0.1875
 50
90.0
  0
INSERT
  5
289
100
AcDbEntity
  8
SCHEME_DIMS
100
AcDbBlockReference
 62
7
  6
CONTINUOUS
  2
_FILLED
 10
5.9416155718
 20
4.4934223316
 41
0.1875
 42
0.1875
 43
0.1875
 50
270.0
  0
ENDBLK
  5
28A
100
AcDbEntity
  8
0
  6
BYBLOCK
 62
0
100
AcDbBlockEnd
  0
BLOCK
  5
28B
100
AcDbEntity
  8
SCHEME_DIMS
100
AcDbBlockBegin
 62
7
  6
CONTINUOUS
  2
*D12
 70
65
 10
0.0
 20
0.0
  3
*D12
  1

  0
MTEXT
  5
28C
100
AcDbEntity
  8
SCHEME_DIMS
100
AcDbMText
 62
7
  6
CONTINUOUS
  7
STANDARD
 71
2
 72
1
 10
8.3238166147
 20
6.2884223316
 30
0.0
 11
1.0
 21
0.0
 31
0.0
 73
2
 44
0.9
  1
52,1\P[2.05]
 40
0.1
 41
0.6
  0
LINE
  5
28D
100
AcDbEntity
  8
SCHEME_DIMS
100
AcDbLine
 62
7
  6
CONTINUOUS
 10
7.2382825604
 20
5.2659223316
 11
7.2382825604
 21
6.3634223316
  0
LINE
  5
28E
100
AcDbEntity
  8
SCHEME_DIMS
100
AcDbLine
 62
7
  6
CONTINUOUS
 10
9.2882825604
 20
5.2659223316
 11
9.2882825604
 21
6.3634223316
  0
LINE
  5
28F
100
AcDbEntity
  8
SCHEME_DIMS
100
AcDbLine
 62
7
  6
CONTINUOUS
 10
7.2382825604
 20
6.2384223316
 11
8.0238166147
 21
6.2384223316
  0
LINE
  5
290
100
AcDbEntity
  8
SCHEME_DIMS
100
AcDbLine
 62
7
  6
CONTINUOUS
 10
9.2882825604
 20
6.2384223316
 11
8.8238166147
 21
6.2384223316
  0
INSERT
  5
291
100
AcDbEntity
  8
SCHEME_DIMS
100
AcDbBlockReference
 62
7
  6
CONTINUOUS
  2
_FILLED
 10
7.2382825604
 20
6.2384223316
 41
0.1875
 42
0.1875
 43
0.1875
 50
180.0
  0
INSERT
  5
292
100
AcDbEntity
  8
SCHEME_DIMS
100
AcDbBlockReference
 62
7
  6
CONTINUOUS
  2
_FILLED
 10
9.2882825604
 20
6.2384223316
 41
0.1875
 42
0.1875
 43
0.1875
  0
ENDBLK
  5
293
100
AcDbEntity
  8
0
  6
BYBLOCK
 62
0
100
AcDbBlockEnd
  0
BLOCK
  5
294
100
AcDbEntity
  8
SCHEME_DIMS
100
AcDbBlockBegin
 62
7
  6
CONTINUOUS
  2
*D13
 70
65
 10
0.0
 20
0.0
  3
*D13
  1

  0
MTEXT
  5
295
100
AcDbEntity
  8
SCHEME_DIMS
100
AcDbMText
 62
7
  6
CONTINUOUS
  7
STANDARD
 71
2
 72
1
 10
8.2132825604
 20
5.9134223316
 30
0.0
 11
1.0
 21
0.0
 31
0.0
 73
2
 44
0.9
  1
19,1\P[.75]
 40
0.1
 41
0.5
  0
LINE
  5
296
100
AcDbEntity
  8
SCHEME_DIMS
100
AcDbLine
 62
7
  6
CONTINUOUS
 10
8.6382825604
 20
4.6450784458
 11
8.6382825604
 21
5.9884223316
  0
LINE
  5
297
100
AcDbEntity
  8
SCHEME_DIMS
100
AcDbLine
 62
7
  6
CONTINUOUS
 10
7.8882825604
 20
4.6327905917
 11
7.8882825604
 21
5.9884223316
  0
LINE
  5
298
100
AcDbEntity
  8
SCHEME_DIMS
100
AcDbLine
 62
7
  6
CONTINUOUS
 10
8.6382825604
 20
5.8634223316
 11
9.0382825604
 21
5.8634223316
  0
LINE
  5
299
100
AcDbEntity
  8
SCHEME_DIMS
100
AcDbLine
 62
7
  6
CONTINUOUS
 10
7.8882825604
 20
5.8634223316
 11
7.4882825604
 21
5.8634223316
  0
INSERT
  5
29A
100
AcDbEntity
  8
SCHEME_DIMS
100
AcDbBlockReference
 62
7
  6
CONTINUOUS
  2
_FILLED
 10
8.6382825604
 20
5.8634223316
 41
0.1875
 42
0.1875
 43
0.1875
 50
180.0
  0
INSERT
  5
29B
100
AcDbEntity
  8
SCHEME_DIMS
100
AcDbBlockReference
 62
7
  6
CONTINUOUS
  2
_FILLED
 10
7.8882825604
 20
5.8634223316
 41
0.1875
 42
0.1875
 43
0.1875
  0
ENDBLK
  5
29C
100
AcDbEntity
  8
0
  6
BYBLOCK
 62
0
100
AcDbBlockEnd
  0
BLOCK
  5
29D
100
AcDbEntity
  8
SCHEME_DIMS
100
AcDbBlockBegin
 62
7
  6
CONTINUOUS
  2
*D14
 70
65
 10
0.0
 20
0.0
  3
*D14
  1

  0
MTEXT
  5
29E
100
AcDbEntity
  8
SCHEME_DIMS
100
AcDbMText
 62
7
  6
CONTINUOUS
  7
STANDARD
 71
2
 72
1
 10
8.2588385451
 20
3.1734223316
 30
0.0
 11
1.0
 21
0.0
 31
0.0
 73
2
 44
0.9
  1
30,5\P[1.20]
 40
0.1
 41
0.6
  0
LINE
  5
29F
100
AcDbEntity
  8
SCHEME_DIMS
100
AcDbLine
 62
7
  6
CONTINUOUS
 10
8.8632825604
 20
4.1160599044
 11
8.8632825604
 21
2.9984223316
  0
LINE
  5
2A0
100
AcDbEntity
  8
SCHEME_DIMS
100
AcDbLine
 62
7
  6
CONTINUOUS
 10
7.6632825604
 20
4.1327034896
 11
7.6632825604
 21
2.9984223316
  0
LINE
  5
2A1
100
AcDbEntity
  8
SCHEME_DIMS
100
AcDbLine
 62
7
  6
CONTINUOUS
 10
8.8632825604
 20
3.1234223316
 11
9.2632825604
 21
3.1234223316
  0
LINE
  5
2A2
100
AcDbEntity
  8
SCHEME_DIMS
100
AcDbLine
 62
7
  6
CONTINUOUS
 10
7.6632825604
 20
3.1234223316
 11
7.2632825604
 21
3.1234223316
  0
INSERT
  5
2A3
100
AcDbEntity
  8
SCHEME_DIMS
100
AcDbBlockReference
 62
7
  6
CONTINUOUS
  2
_FILLED
 10
8.8632825604
 20
3.1234223316
 41
0.1875
 42
0.1875
 43
0.1875
 50
180.0
  0
INSERT
  5
2A4
100
AcDbEntity
  8
SCHEME_DIMS
100
AcDbBlockReference
 62
7
  6
CONTINUOUS
  2
_FILLED
 10
7.6632825604
 20
3.1234223316
 41
0.1875
 42
0.1875
 43
0.1875
  0
ENDBLK
  5
2A5
100
AcDbEntity
  8
0
  6
BYBLOCK
 62
0
100
AcDbBlockEnd
  0
BLOCK
  5
2A6
100
AcDbEntity
  8
SCHEME_DIMS
100
AcDbBlockBegin
 62
7
  6
CONTINUOUS
  2
*D15
 70
65
 10
0.0
 20
0.0
  3
*D15
  1

  0
MTEXT
  5
2A7
100
AcDbEntity
  8
SCHEME_DIMS
100
AcDbMText
 62
7
  6
CONTINUOUS
  7
STANDARD
 71
2
 72
1
 10
10.0382825604
 20
3.9259288853
 30
0.0
 11
1.0
 21
0.0
 31
0.0
 73
2
 44
0.9
  1
8,6\P[.34]
 40
0.1
 41
0.5
  0
LINE
  5
2A8
100
AcDbEntity
  8
SCHEME_DIMS
100
AcDbLine
 62
7
  6
CONTINUOUS
 10
9.7007825604
 20
3.6234223316
 11
10.2632825604
 21
3.6234223316
  0
LINE
  5
2A9
100
AcDbEntity
  8
SCHEME_DIMS
100
AcDbLine
 62
7
  6
CONTINUOUS
 10
9.5907825604
 20
3.9634223316
 11
10.2632825604
 21
3.9634223316
  0
LINE
  5
2AA
100
AcDbEntity
  8
SCHEME_DIMS
100
AcDbLine
 62
7
  6
CONTINUOUS
 10
10.1382825604
 20
3.6234223316
 11
10.1382825604
 21
3.2234223316
  0
LINE
  5
2AB
100
AcDbEntity
  8
SCHEME_DIMS
100
AcDbLine
 62
7
  6
CONTINUOUS
 10
10.1382825604
 20
3.9634223316
 11
10.1382825604
 21
4.3634223316
  0
INSERT
  5
2AC
100
AcDbEntity
  8
SCHEME_DIMS
100
AcDbBlockReference
 62
7
  6
CONTINUOUS
  2
_FILLED
 10
10.1382825604
 20
3.6234223316
 41
0.1875
 42
0.1875
 43
0.1875
 50
90.0
  0
INSERT
  5
2AD
100
AcDbEntity
  8
SCHEME_DIMS
100
AcDbBlockReference
 62
7
  6
CONTINUOUS
  2
_FILLED
 10
10.1382825604
 20
3.9634223316
 41
0.1875
 42
0.1875
 43
0.1875
 50
270.0
  0
ENDBLK
  5
2AE
100
AcDbEntity
  8
0
  6
BYBLOCK
 62
0
100
AcDbBlockEnd
  0
BLOCK
  5
2AF
100
AcDbEntity
  8
SCHEME_DIMS
100
AcDbBlockBegin
 62
7
  6
CONTINUOUS
  2
*D16
 70
65
 10
0.0
 20
0.0
  3
*D16
  1

  0
MTEXT
  5
2B0
100
AcDbEntity
  8
SCHEME_DIMS
100
AcDbMText
 62
7
  6
CONTINUOUS
  7
STANDARD
 71
2
 72
1
 10
10.4132825604
 20
4.6146986325
 30
0.0
 11
1.0
 21
0.0
 31
0.0
 73
2
 44
0.9
  1
25,4\P[1.00]
 40
0.1
 41
0.6
  0
LINE
  5
2B1
100
AcDbEntity
  8
SCHEME_DIMS
100
AcDbLine
 62
7
  6
CONTINUOUS
 10
9.5907825604
 20
3.9634223316
 11
10.6382825604
 21
3.9634223316
  0
LINE
  5
2B2
100
AcDbEntity
  8
SCHEME_DIMS
100
AcDbLine
 62
7
  6
CONTINUOUS
 10
9.5907825604
 20
4.9634223316
 11
10.6382825604
 21
4.9634223316
  0
LINE
  5
2B3
100
AcDbEntity
  8
SCHEME_DIMS
100
AcDbLine
 62
7
  6
CONTINUOUS
 10
10.5132825604
 20
3.9634223316
 11
10.5132825604
 21
4.2646986325
  0
LINE
  5
2B4
100
AcDbEntity
  8
SCHEME_DIMS
100
AcDbLine
 62
7
  6
CONTINUOUS
 10
10.5132825604
 20
4.9634223316
 11
10.5132825604
 21
4.7146986325
  0
INSERT
  5
2B5
100
AcDbEntity
  8
SCHEME_DIMS
100
AcDbBlockReference
 62
7
  6
CONTINUOUS
  2
_FILLED
 10
10.5132825604
 20
3.9634223316
 41
0.1875
 42
0.1875
 43
0.1875
 50
270.0
  0
INSERT
  5
2B6
100
AcDbEntity
  8
SCHEME_DIMS
100
AcDbBlockReference
 62
7
  6
CONTINUOUS
  2
_FILLED
 10
10.5132825604
 20
4.9634223316
 41
0.1875
 42
0.1875
 43
0.1875
 50
90.0
  0
ENDBLK
  5
2B7
100
AcDbEntity
  8
0
  6
BYBLOCK
 62
0
100
AcDbBlockEnd
  0
BLOCK
  5
2B8
100
AcDbEntity
  8
SCHEME_DIMS
100
AcDbBlockBegin
 62
7
  6
CONTINUOUS
  2
*D17
 70
65
 10
0.0
 20
0.0
  3
*D17
  1

  0
MTEXT
  5
2B9
100
AcDbEntity
  8
SCHEME_DIMS
100
AcDbMText
 62
7
  6
CONTINUOUS
  7
STANDARD
 71
1
 72
1
 10
10.1301952232
 20
5.7870214644
 30
0.0
 11
1.0
 21
0.0
 31
0.0
 73
2
 44
0.9
  1
R3,6\P[.14]
 40
0.1
 41
0.5
  0
LINE
  5
2BA
100
AcDbEntity
  8
SCHEME_DIMS
100
AcDbLine
 62
7
  6
CONTINUOUS
 10
9.3733561223
 20
5.0746090622
 11
9.8801952232
 21
5.7370214644
  0
LINE
  5
2BB
100
AcDbEntity
  8
SCHEME_DIMS
100
AcDbLine
 62
7
  6
CONTINUOUS
 10
9.8801952232
 20
5.7370214644
 11
10.0301952232
 21
5.7370214644
  0
INSERT
  5
2BC
100
AcDbEntity
  8
SCHEME_DIMS
100
AcDbBlockReference
 62
7
  6
CONTINUOUS
  2
_FILLED
 10
9.3733561223
 20
5.0746090622
 41
0.1875
 42
0.1875
 43
0.1875
 50
232.5789038544
  0
ENDBLK
  5
2BD
100
AcDbEntity
  8
0
  6
BYBLOCK
 62
0
100
AcDbBlockEnd
  0
BLOCK
  5
2BE
100
AcDbEntity
  8
0
100
AcDbBlockBegin
  2
*T1
 70
1
 10
0.0
 20
0.0
  3
*T1
  1

  0
LINE
  5
2BF
100
AcDbEntity
  8
0
100
AcDbLine
 62
7
  6
CONTINUOUS
 10
4.35
 20
0.0
 11
0.0
 21
0.0
  0
LINE
  5
2C0
100
AcDbEntity
  8
0
100
AcDbLine
 62
7
  6
CONTINUOUS
 10
4.35
 20
0.0
 11
4.35
 21
1.92
  0
LINE
  5
2C1
100
AcDbEntity
  8
0
100
AcDbLine
 62
7
  6
CONTINUOUS
 10
4.35
 20
1.92
 11
0.0
 21
1.92
  0
LINE
  5
2C2
100
AcDbEntity
  8
0
100
AcDbLine
 62
7
  6
CONTINUOUS
 10
0.0
 20
0.0
 11
0.0
 21
1.92
  0
MTEXT
  5
2C3
100
AcDbEntity
  8
NOTES
100
AcDbMText
 62
7
  6
CONTINUOUS
  7
STANDARD
 71
2
 72
1
 10
4.125
 20
0.48
 30
0.0
 11
1.0
 21
0.0
 31
0.0
 73
2
 44
0.9
  1
A
 40
0.1
 41
0.2
  0
MTEXT
  5
2C4
100
AcDbEntity
  8
NOTES
100
AcDbMText
 62
7
  6
CONTINUOUS
  7
STANDARD
 71
2
 72
1
 10
2.175
 20
0.93
 30
0.0
 11
1.0
 21
0.0
 31
0.0
 73
2
 44
0.9
  1
USMB-6
 40
0.1
 41
1.2
  0
ENDBLK
  5
2C5
100
AcDbEntity
  8
0
  6
BYBLOCK
 62
0
100
AcDbBlockEnd
  0
ENDSEC
  0
SECTION
  2
ENTITIES
  0
MTEXT
  5
2C6
100
AcDbEntity
  8
0
100
AcDbMText
 62
7
  6
CONTINUOUS
  7
TEXTSTYLE_2
 71
2
 72
1
 10
11.0287658475
 20
1.794867839
 30
0.0
 11
1.0
 21
0.0
 31
0.0
 73
2
 44
0.9
  1
\LTHIRD ANGLE PROJECTION\l
 40
0.1
 41
1.76
  0
MTEXT
  5
2C7
100
AcDbEntity
  8
0
100
AcDbMText
 62
7
  6
CONTINUOUS
  7
STANDARD
 71
1
 72
1
 10
12.88
 20
1.457
 30
0.0
 11
1.0
 21
0.0
 31
0.0
 73
2
 44
0.9
  1
DRAWING NO.
 40
0.08
 41
0.88
  0
MTEXT
  5
2C8
100
AcDbEntity
  8
0
100
AcDbMText
 62
7
  6
CONTINUOUS
  7
TEXTSTYLE_2
 71
1
 72
1
 10
12.08
 20
2.217
 30
0.0
 11
1.0
 21
0.0
 31
0.0
 73
2
 44
0.9
  1
TITLE
 40
0.1
 41
0.4
  0
MTEXT
  5
2C9
100
AcDbEntity
  8
0
100
AcDbMText
 62
7
  6
CONTINUOUS
  7
STANDARD
 71
1
 72
1
 10
12.08
 20
1.457
 30
0.0
 11
1.0
 21
0.0
 31
0.0
 73
2
 44
0.9
  1
SIZE
 40
0.08
 41
0.32
  0
MTEXT
  5
2CA
100
AcDbEntity
  8
0
100
AcDbMText
 62
7
  6
CONTINUOUS
  7
STANDARD
 71
1
 72
1
 10
12.08
 20
1.087
 30
0.0
 11
1.0
 21
0.0
 31
0.0
 73
2
 44
0.9
  1
SCALE
 40
0.08
 41
0.4
  0
MTEXT
  5
2CB
100
AcDbEntity
  8
0
100
AcDbMText
 62
7
  6
CONTINUOUS
  7
TEXTSTYLE_2
 71
2
 72
1
 10
12.5
 20
1.337
 30
0.0
 11
1.0
 21
0.0
 31
0.0
 73
2
 44
0.9
  1
B
 40
0.1
 41
0.08
  0
MTEXT
  5
2CC
100
AcDbEntity
  8
0
100
AcDbMText
 62
7
  6
CONTINUOUS
  7
TEXTSTYLE_3
 71
2
 72
1
 10
11.0340287086
 20
2.7679425959
 30
0.0
 11
1.0
 21
0.0
 31
0.0
 73
2
 44
0.9
  1
This drawing is the property\Pof BANNER ENGINEERING CORP.\PAny use or reproduction,\Pin any form, without prior\Pwritten permission of\PBanner is prohibited.
 40
0.08
 41
1.904
  0
MTEXT
  5
2CD
100
AcDbEntity
  8
0
100
AcDbMText
 62
7
  6
CONTINUOUS
  7
STANDARD
 71
1
 72
1
 10
14.255
 20
1.087
 30
0.0
 11
1.0
 21
0.0
 31
0.0
 73
2
 44
0.9
  1
SHEET
 40
0.08
 41
0.4
  0
MTEXT
  5
2CE
100
AcDbEntity
  8
0
100
AcDbMText
 62
7
  6
CONTINUOUS
  7
STANDARD
 71
1
 72
1
 10
15.63
 20
1.457
 30
0.0
 11
1.0
 21
0.0
 31
0.0
 73
2
 44
0.9
  1
REV.
 40
0.08
 41
0.32
  0
MTEXT
  5
2CF
100
AcDbEntity
  8
0
100
AcDbMText
 62
7
  6
CONTINUOUS
  7
STANDARD
 71
3
 72
1
 10
16.38
 20
0.835443
 30
0.0
 11
1.0
 21
0.0
 31
0.0
 73
2
 44
0.9
  1
CREO
 40
0.07
 41
0.28
  0
MTEXT
  5
2D0
100
AcDbEntity
  8
0
100
AcDbMText
 62
7
  6
CONTINUOUS
  7
TEXTSTYLE_4
 71
2
 72
1
 10
15.1043392653
 20
2.7174764286
 30
0.0
 11
1.0
 21
0.0
 31
0.0
 73
2
 44
0.9
  1
BANNER ENGINEERING CORP.
 40
0.12
 41
2.592
  0
MTEXT
  5
2D1
100
AcDbEntity
  8
0
100
AcDbMText
 62
7
  6
CONTINUOUS
  7
TEXTSTYLE_2
 71
2
 72
1
 10
15.0923490612
 20
2.4764783673
 30
0.0
 11
1.0
 21
0.0
 31
0.0
 73
2
 44
0.9
  1
www.bannerengineering.com
 40
0.1
 41
2.0
  0
MTEXT
  5
2D2
100
AcDbEntity
  8
0
100
AcDbMText
 62
7
  6
CONTINUOUS
  7
TEXTSTYLE_2
 71
2
 72
1
 10
9.485
 20
10.312
 30
0.0
 11
1.0
 21
0.0
 31
0.0
 73
2
 44
0.9
  1
4
 40
0.1
 41
0.08
  0
MTEXT
  5
2D3
100
AcDbEntity
  8
0
100
AcDbMText
 62
7
  6
CONTINUOUS
  7
TEXTSTYLE_2
 71
2
 72
1
 10
11.455
 20
10.312
 30
0.0
 11
1.0
 21
0.0
 31
0.0
 73
2
 44
0.9
  1
3
 40
0.1
 41
0.08
  0
MTEXT
  5
2D4
100
AcDbEntity
  8
0
100
AcDbMText
 62
7
  6
CONTINUOUS
  7
TEXTSTYLE_2
 71
2
 72
1
 10
13.425
 20
10.312
 30
0.0
 11
1.0
 21
0.0
 31
0.0
 73
2
 44
0.9
  1
2
 40
0.1
 41
0.08
  0
MTEXT
  5
2D5
100
AcDbEntity
  8
0
100
AcDbMText
 62
7
  6
CONTINUOUS
  7
TEXTSTYLE_2
 71
2
 72
1
 10
15.395
 20
10.312
 30
0.0
 11
1.0
 21
0.0
 31
0.0
 73
2
 44
0.9
  1
1
 40
0.1
 41
0.08
  0
MTEXT
  5
2D6
100
AcDbEntity
  8
0
100
AcDbMText
 62
7
  6
CONTINUOUS
  7
TEXTSTYLE_2
 71
2
 72
1
 10
3.575
 20
10.312
 30
0.0
 11
1.0
 21
0.0
 31
0.0
 73
2
 44
0.9
  1
7
 40
0.1
 41
0.08
  0
MTEXT
  5
2D7
100
AcDbEntity
  8
0
100
AcDbMText
 62
7
  6
CONTINUOUS
  7
TEXTSTYLE_2
 71
2
 72
1
 10
5.545
 20
10.312
 30
0.0
 11
1.0
 21
0.0
 31
0.0
 73
2
 44
0.9
  1
6
 40
0.1
 41
0.08
  0
MTEXT
  5
2D8
100
AcDbEntity
  8
0
100
AcDbMText
 62
7
  6
CONTINUOUS
  7
TEXTSTYLE_2
 71
2
 72
1
 10
7.515
 20
10.312
 30
0.0
 11
1.0
 21
0.0
 31
0.0
 73
2
 44
0.9
  1
5
 40
0.1
 41
0.08
  0
MTEXT
  5
2D9
100
AcDbEntity
  8
0
100
AcDbMText
 62
7
  6
CONTINUOUS
  7
TEXTSTYLE_2
 71
2
 72
1
 10
1.605
 20
10.312
 30
0.0
 11
1.0
 21
0.0
 31
0.0
 73
2
 44
0.9
  1
8
 40
0.1
 41
0.08
  0
MTEXT
  5
2DA
100
AcDbEntity
  8
0
100
AcDbMText
 62
7
  6
CONTINUOUS
  7
TEXTSTYLE_2
 71
2
 72
1
 10
1.605
 20
0.787
 30
0.0
 11
1.0
 21
0.0
 31
0.0
 73
2
 44
0.9
  1
8
 40
0.1
 41
0.08
  0
MTEXT
  5
2DB
100
AcDbEntity
  8
0
100
AcDbMText
 62
7
  6
CONTINUOUS
  7
TEXTSTYLE_2
 71
2
 72
1
 10
3.575
 20
0.787
 30
0.0
 11
1.0
 21
0.0
 31
0.0
 73
2
 44
0.9
  1
7
 40
0.1
 41
0.08
  0
MTEXT
  5
2DC
100
AcDbEntity
  8
0
100
AcDbMText
 62
7
  6
CONTINUOUS
  7
TEXTSTYLE_2
 71
2
 72
1
 10
5.545
 20
0.787
 30
0.0
 11
1.0
 21
0.0
 31
0.0
 73
2
 44
0.9
  1
6
 40
0.1
 41
0.08
  0
MTEXT
  5
2DD
100
AcDbEntity
  8
0
100
AcDbMText
 62
7
  6
CONTINUOUS
  7
TEXTSTYLE_2
 71
2
 72
1
 10
7.515
 20
0.787
 30
0.0
 11
1.0
 21
0.0
 31
0.0
 73
2
 44
0.9
  1
5
 40
0.1
 41
0.08
  0
MTEXT
  5
2DE
100
AcDbEntity
  8
0
100
AcDbMText
 62
7
  6
CONTINUOUS
  7
TEXTSTYLE_2
 71
2
 72
1
 10
9.485
 20
0.787
 30
0.0
 11
1.0
 21
0.0
 31
0.0
 73
2
 44
0.9
  1
4
 40
0.1
 41
0.08
  0
MTEXT
  5
2DF
100
AcDbEntity
  8
0
100
AcDbMText
 62
7
  6
CONTINUOUS
  7
TEXTSTYLE_2
 71
2
 72
1
 10
11.455
 20
0.787
 30
0.0
 11
1.0
 21
0.0
 31
0.0
 73
2
 44
0.9
  1
3
 40
0.1
 41
0.08
  0
MTEXT
  5
2E0
100
AcDbEntity
  8
0
100
AcDbMText
 62
7
  6
CONTINUOUS
  7
TEXTSTYLE_2
 71
2
 72
1
 10
13.425
 20
0.787
 30
0.0
 11
1.0
 21
0.0
 31
0.0
 73
2
 44
0.9
  1
2
 40
0.1
 41
0.08
  0
MTEXT
  5
2E1
100
AcDbEntity
  8
0
100
AcDbMText
 62
7
  6
CONTINUOUS
  7
TEXTSTYLE_2
 71
2
 72
1
 10
15.395
 20
0.787
 30
0.0
 11
1.0
 21
0.0
 31
0.0
 73
2
 44
0.9
  1
1
 40
0.1
 41
0.08
  0
MTEXT
  5
2E2
100
AcDbEntity
  8
0
100
AcDbMText
 62
7
  6
CONTINUOUS
  7
TEXTSTYLE_2
 71
3
 72
1
 10
0.52
 20
4.3995
 30
0.0
 11
1.0
 21
0.0
 31
0.0
 73
2
 44
0.9
  1
B
 40
0.1
 41
0.08
  0
MTEXT
  5
2E3
100
AcDbEntity
  8
0
100
AcDbMText
 62
7
  6
CONTINUOUS
  7
TEXTSTYLE_2
 71
3
 72
1
 10
0.52
 20
2.0995
 30
0.0
 11
1.0
 21
0.0
 31
0.0
 73
2
 44
0.9
  1
A
 40
0.1
 41
0.08
  0
MTEXT
  5
2E4
100
AcDbEntity
  8
0
100
AcDbMText
 62
7
  6
CONTINUOUS
  7
TEXTSTYLE_2
 71
3
 72
1
 10
0.52
 20
8.9995
 30
0.0
 11
1.0
 21
0.0
 31
0.0
 73
2
 44
0.9
  1
D
 40
0.1
 41
0.08
  0
MTEXT
  5
2E5
100
AcDbEntity
  8
0
100
AcDbMText
 62
7
  6
CONTINUOUS
  7
TEXTSTYLE_2
 71
3
 72
1
 10
0.52
 20
6.6995
 30
0.0
 11
1.0
 21
0.0
 31
0.0
 73
2
 44
0.9
  1
C
 40
0.1
 41
0.08
  0
MTEXT
  5
2E6
100
AcDbEntity
  8
0
100
AcDbMText
 62
7
  6
CONTINUOUS
  7
TEXTSTYLE_2
 71
1
 72
1
 10
16.48
 20
8.9995
 30
0.0
 11
1.0
 21
0.0
 31
0.0
 73
2
 44
0.9
  1
D
 40
0.1
 41
0.08
  0
MTEXT
  5
2E7
100
AcDbEntity
  8
0
100
AcDbMText
 62
7
  6
CONTINUOUS
  7
TEXTSTYLE_2
 71
1
 72
1
 10
16.48
 20
6.6995
 30
0.0
 11
1.0
 21
0.0
 31
0.0
 73
2
 44
0.9
  1
C
 40
0.1
 41
0.08
  0
MTEXT
  5
2E8
100
AcDbEntity
  8
0
100
AcDbMText
 62
7
  6
CONTINUOUS
  7
TEXTSTYLE_2
 71
1
 72
1
 10
16.48
 20
4.3995
 30
0.0
 11
1.0
 21
0.0
 31
0.0
 73
2
 44
0.9
  1
B
 40
0.1
 41
0.08
  0
MTEXT
  5
2E9
100
AcDbEntity
  8
0
100
AcDbMText
 62
7
  6
CONTINUOUS
  7
TEXTSTYLE_2
 71
1
 72
1
 10
16.48
 20
2.0995
 30
0.0
 11
1.0
 21
0.0
 31
0.0
 73
2
 44
0.9
  1
A
 40
0.1
 41
0.08
  0
MTEXT
  5
2EA
100
AcDbEntity
  8
0
100
AcDbMText
 62
7
  6
CONTINUOUS
  7
STANDARD
 71
1
 72
1
 10
14.819264911
 20
1.0627941725
 30
0.0
 11
1.0
 21
0.0
 31
0.0
 73
2
 44
0.9
  1
1 OF 1
 40
0.1
 41
0.6
  0
MTEXT
  5
2EB
100
AcDbEntity
  8
0
100
AcDbMText
 62
7
  6
CONTINUOUS
  7
STANDARD
 71
1
 72
1
 10
13.8911999818
 20
1.3747321586
 30
0.0
 11
1.0
 21
0.0
 31
0.0
 73
2
 44
0.9
  1
156666
 40
0.12
 41
0.72
  0
MTEXT
  5
2EC
100
AcDbEntity
  8
0
100
AcDbMText
 62
7
  6
CONTINUOUS
  7
STANDARD
 71
1
 72
1
 10
12.644264911
 20
1.0627941725
 30
0.0
 11
1.0
 21
0.0
 31
0.0
 73
2
 44
0.9
  1
1:1
 40
0.1
 41
0.3
  0
MTEXT
  5
2ED
100
AcDbEntity
  8
0
100
AcDbMText
 62
7
  6
CONTINUOUS
  7
STANDARD
 71
1
 72
1
 10
0.8489354566
 20
1.4938330621
 30
0.0
 11
1.0
 21
0.0
 31
0.0
 73
2
 44
0.9
  1
NOTES:\P1. ALL DIMENSIONS ARE MILLIMETERS [INCHES] UNLESS OTHERWISE NOTED.\P2. REFER TO "www.bannerengineering.com" FOR ADDITIONAL DATA AND SPECIFICATIONS.
 40
0.1
 41
7.9
  0
MTEXT
  5
2EE
100
AcDbEntity
  8
0
100
AcDbMText
 62
7
  6
CONTINUOUS
  7
TEXTSTYLE_5
 71
2
 72
1
 10
11.0519651892
 20
2.0334024775
 30
0.0
 11
1.0
 21
0.0
 31
0.0
 73
2
 44
0.9
  1
C  2015 Banner Engineering Corp.
 40
0.08
 41
1.92
  0
DIMENSION
  5
2EF
100
AcDbEntity
  8
DRIVEN_DIMS
100
AcDbDimension
 62
7
  6
CONTINUOUS
  2
*D0
 10
8.2539581346
 20
8.1033994629
 11
10.3138505287
 21
7.8283227402
 70
164
 71
1
 72
2
 41
0.9
 42
0.45749924
  1
R11,68  \P[.46] \P[]
  3
DIMSTYLE_1
100
AcDbRadialDimension
 15
8.7069191925
 25
8.0391201148
  0
DIMENSION
  5
2F0
100
AcDbEntity
  8
DRIVEN_DIMS
100
AcDbDimension
 62
7
  6
CONTINUOUS
  2
*D1
 10
8.2542298862
 20
8.102877748
 11
8.2586043364
 21
7.0341743595
 70
162
 71
2
 72
2
 41
0.9
 42
0.9597067226
  1
4X <>
  3
DIMSTYLE_2
100
AcDb2LineAngularDimension
 13
8.2591216684
 23
8.112372046
 14
8.2542268129
 24
8.1028717831
 15
8.2492574225
 25
8.1123376218
 16
8.2586043364
 26
7.0341743595
  0
DIMENSION
  5
2F1
100
AcDbEntity
  8
SCHEME_DIMS
100
AcDbDimension
 62
7
  6
CONTINUOUS
  2
*D2
 10
2.3417606417
 20
5.3634223316
 11
2.3417606417
 21
4.5187561156
 70
160
 71
2
 72
2
 41
0.9
 42
44.196
  1
<>\P[]
  3
DIMSTYLE_3
100
AcDbAlignedDimension
 13
2.9333905784
 23
3.6234223316
 14
2.8459108326
 24
5.3634223316
 50
90.0
100
AcDbRotatedDimension
  0
DIMENSION
  5
2F2
100
AcDbEntity
  8
SCHEME_DIMS
100
AcDbDimension
 62
7
  6
CONTINUOUS
  2
*D3
 10
4.5167606417
 20
5.8634223316
 11
3.6792606417
 21
5.7884223316
 70
160
 71
2
 72
2
 41
0.9
 42
42.545
  1
<>\P[]
  3
DIMSTYLE_3
100
AcDbAlignedDimension
 13
2.8417606417
 23
5.3622217112
 14
4.5167606417
 24
3.7031227463
100
AcDbRotatedDimension
  0
DIMENSION
  5
2F3
100
AcDbEntity
  8
SCHEME_DIMS
100
AcDbDimension
 62
7
  6
CONTINUOUS
  2
*D4
 10
8.5504641134
 20
8.190151889
 11
10.4535307925
 21
8.5188752109
 70
163
 71
1
 72
2
 41
0.9
 42
15.24
  1
%%c<>\P[]
  3
DIMSTYLE_4
100
AcDbDiametricDimension
 15
7.9761010073
 25
8.0166381364
  0
DIMENSION
  5
2F4
100
AcDbEntity
  8
SCHEME_DIMS
100
AcDbDimension
 62
7
  6
CONTINUOUS
  2
*D5
 10
7.8563704161
 20
7.8942807931
 11
6.6961863361
 21
7.4133098585
 70
164
 71
3
 72
2
 41
0.9
 42
1.778
  1
R<>\P[]
  3
DIMSTYLE_5
100
AcDbRadialDimension
 15
7.7980908414
 25
7.8555059149
  0
DIMENSION
  5
2F5
100
AcDbEntity
  8
SCHEME_DIMS
100
AcDbDimension
 62
7
  6
CONTINUOUS
  2
*D6
 10
6.3882825604
 20
9.1533950127
 11
6.3882825604
 21
8.6336620399
 70
160
 71
2
 72
2
 41
0.9
 42
26.67
  1
<>\P[]
  3
DIMSTYLE_6
100
AcDbAlignedDimension
 13
8.0574011454
 23
8.1033950127
 14
6.9248902033
 24
9.1533950127
 50
90.0
100
AcDbRotatedDimension
  0
DIMENSION
  5
2F6
100
AcDbEntity
  8
SCHEME_DIMS
100
AcDbDimension
 62
7
  6
CONTINUOUS
  2
*D7
 10
6.8882825604
 20
9.6533950127
 11
7.5757825604
 21
9.5783950127
 70
160
 71
2
 72
2
 41
0.9
 42
34.925
  1
<>\P[]
  3
DIMSTYLE_6
100
AcDbAlignedDimension
 13
8.2632825604
 23
8.3092764277
 14
6.8882825604
 24
9.1357247353
 50
180.0
100
AcDbRotatedDimension
  0
DIMENSION
  5
2F7
100
AcDbEntity
  8
SCHEME_DIMS
100
AcDbDimension
 62
7
  6
CONTINUOUS
  2
*D8
 10
8.2632825604
 20
8.1033950127
 11
10.2394225274
 21
7.2430873888
 70
164
 71
1
 72
2
 41
0.9
 42
15.875
  1
R<>\P[]
  3
DIMSTYLE_5
100
AcDbRadialDimension
 15
8.8107665736
 25
7.8019215392
  0
DIMENSION
  5
2F8
100
AcDbEntity
  8
SCHEME_DIMS
100
AcDbDimension
 62
7
  6
CONTINUOUS
  2
*D9
 10
9.6382825604
 20
2.7484223316
 11
8.1390597802
 21
2.6734223316
 70
160
 71
2
 72
2
 41
0.9
 42
69.85
  1
<>\P[]
  3
DIMSTYLE_6
100
AcDbAlignedDimension
 13
6.8882825604
 23
3.6237692679
 14
9.6382825604
 24
3.6099136501
100
AcDbRotatedDimension
  0
DIMENSION
  5
2F9
100
AcDbEntity
  8
SCHEME_DIMS
100
AcDbDimension
 62
7
  6
CONTINUOUS
  2
*D10
 10
6.3882825604
 20
4.2684223316
 11
6.3882825604
 21
3.8709223316
 70
160
 71
2
 72
2
 41
0.9
 42
16.383
  1
<>\P[]
  3
DIMSTYLE_6
100
AcDbAlignedDimension
 13
6.8882825604
 23
3.6234223316
 14
7.5900637184
 24
4.2684223316
 50
90.0
100
AcDbRotatedDimension
  0
DIMENSION
  5
2FA
100
AcDbEntity
  8
SCHEME_DIMS
100
AcDbDimension
 62
7
  6
CONTINUOUS
  2
*D11
 10
5.9416155718
 20
4.4934223316
 11
5.9416155718
 21
4.1607742393
 70
160
 71
2
 72
2
 41
0.9
 42
22.098
  1
<>\P[]
  3
DIMSTYLE_6
100
AcDbAlignedDimension
 13
6.8338646375
 23
3.6234223316
 14
7.8114143003
 24
4.4934223316
 50
90.0
100
AcDbRotatedDimension
  0
DIMENSION
  5
2FB
100
AcDbEntity
  8
SCHEME_DIMS
100
AcDbDimension
 62
7
  6
CONTINUOUS
  2
*D12
 10
9.2882825604
 20
6.2384223316
 11
8.4238166147
 21
6.1634223316
 70
160
 71
2
 72
2
 41
0.9
 42
52.07
  1
<>\P[]
  3
DIMSTYLE_6
100
AcDbAlignedDimension
 13
7.2382825604
 23
5.2034223316
 14
9.2882825604
 24
5.2034223316
100
AcDbRotatedDimension
  0
DIMENSION
  5
2FC
100
AcDbEntity
  8
SCHEME_DIMS
100
AcDbDimension
 62
7
  6
CONTINUOUS
  2
*D13
 10
7.8882825604
 20
5.8634223316
 11
8.2632825604
 21
5.7884223316
 70
160
 71
2
 72
2
 41
0.9
 42
19.05
  1
<>\P[]
  3
DIMSTYLE_6
100
AcDbAlignedDimension
 13
8.6382825604
 23
4.5825784458
 14
7.8882825604
 24
4.5702905917
 50
180.0
100
AcDbRotatedDimension
  0
DIMENSION
  5
2FD
100
AcDbEntity
  8
SCHEME_DIMS
100
AcDbDimension
 62
7
  6
CONTINUOUS
  2
*D14
 10
7.6632825604
 20
3.1234223316
 11
8.3588385451
 21
3.0484223316
 70
160
 71
2
 72
2
 41
0.9
 42
30.48
  1
<>\P[]
  3
DIMSTYLE_6
100
AcDbAlignedDimension
 13
8.8632825604
 23
4.1785599044
 14
7.6632825604
 24
4.1952034896
 50
180.0
100
AcDbRotatedDimension
  0
DIMENSION
  5
2FE
100
AcDbEntity
  8
SCHEME_DIMS
100
AcDbDimension
 62
7
  6
CONTINUOUS
  2
*D15
 10
10.1382825604
 20
3.9634223316
 11
10.1382825604
 21
3.8009288853
 70
160
 71
2
 72
2
 41
0.9
 42
8.636
  1
<>\P[]
  3
DIMSTYLE_6
100
AcDbAlignedDimension
 13
9.6382825604
 23
3.6234223316
 14
9.5282825604
 24
3.9634223316
 50
90.0
100
AcDbRotatedDimension
  0
DIMENSION
  5
2FF
100
AcDbEntity
  8
SCHEME_DIMS
100
AcDbDimension
 62
7
  6
CONTINUOUS
  2
*D16
 10
10.5132825604
 20
4.9634223316
 11
10.5132825604
 21
4.4896986325
 70
160
 71
2
 72
2
 41
0.9
 42
25.4
  1
<>\P[]
  3
DIMSTYLE_6
100
AcDbAlignedDimension
 13
9.5282825604
 23
3.9634223316
 14
9.5282825604
 24
4.9634223316
 50
90.0
100
AcDbRotatedDimension
  0
DIMENSION
  5
300
100
AcDbEntity
  8
SCHEME_DIMS
100
AcDbDimension
 62
7
  6
CONTINUOUS
  2
*D17
 10
9.2882825604
 20
4.9634223316
 11
10.4301952232
 21
5.6620214644
 70
164
 71
1
 72
2
 41
0.9
 42
3.556
  1
R<>\P[]
  3
DIMSTYLE_5
100
AcDbRadialDimension
 15
9.3733561223
 25
5.0746090622
  0
ACAD_TABLE
  5
301
100
AcDbEntity
  8
0
 62
7
  6
CONTINUOUS
100
AcDbBlockReference
  2
*T1
 10
12.03
 20
0.887
 30
0.0
100
AcDbTable
342
       56C
343
220
 11
1.0
 21
0.0
 31
0.0
 90
6
 91
3
 92
5
 93
4
 94
0
 95
0
 96
0
 70
1
141
0.33
141
0.45
141
1.14
142
0.65
142
1.15
142
1.025
142
1.075
142
0.45
171
1
172
0
173
0
174
0
175
1
176
1
 91
33
178
0
145
0.0
301
CELL_VALUE
 90
4
  1
 
304
ACVALUE_END
170
1
140
0.1
171
1
172
0
173
0
174
0
175
1
176
1
 91
33
178
0
145
0.0
301
CELL_VALUE
 90
4
  1
 
304
ACVALUE_END
170
1
140
0.1
171
1
172
0
173
0
174
0
175
1
176
1
 91
33
178
0
145
0.0
301
CELL_VALUE
 90
4
  1
 
304
ACVALUE_END
170
1
140
0.1
171
1
172
0
173
0
174
0
175
1
176
1
 91
33
178
0
145
0.0
301
CELL_VALUE
 90
4
  1
 
304
ACVALUE_END
170
1
140
0.1
171
1
172
0
173
0
174
0
175
1
176
1
 91
33
178
0
145
0.0
301
CELL_VALUE
 90
4
  1
 
304
ACVALUE_END
170
1
140
0.1
171
1
172
0
173
0
174
0
175
1
176
1
 91
33
178
0
145
0.0
301
CELL_VALUE
 90
4
  1
 
304
ACVALUE_END
170
1
140
0.1
171
1
172
0
173
0
174
0
175
1
176
1
 91
33
178
0
145
0.0
301
CELL_VALUE
 90
4
  1
 
304
ACVALUE_END
170
1
140
0.1
171
1
172
0
173
0
174
0
175
1
176
1
 91
33
178
0
145
0.0
301
CELL_VALUE
 90
4
  1
 
304
ACVALUE_END
170
1
140
0.1
171
1
172
0
173
0
174
0
175
1
176
1
 91
33
178
0
145
0.0
301
CELL_VALUE
 90
4
  1
 
304
ACVALUE_END
170
1
140
0.1
171
1
172
0
173
0
174
0
175
1
176
1
 91
41
178
0
145
0.0
301
CELL_VALUE
 90
4
  1
A
304
ACVALUE_END
170
8
140
0.1
 64
7
171
1
172
0
173
0
174
0
175
5
176
1
 91
33
178
0
145
0.0
301
CELL_VALUE
 90
4
  1
USMB-6
304
ACVALUE_END
170
8
140
0.1
171
1
172
0
173
1
174
0
175
1
176
1
 91
1
178
0
145
0.0
170
1
171
1
172
0
173
1
174
0
175
1
176
1
 91
1
178
0
145
0.0
170
1
171
1
172
0
173
1
174
0
175
1
176
1
 91
1
178
0
145
0.0
170
1
171
1
172
0
173
1
174
0
175
1
176
1
 91
1
178
0
145
0.0
170
8
  0
MTEXT
  5
302
100
AcDbEntity
  8
NOTES
100
AcDbMText
 62
7
  6
CONTINUOUS
  7
TEXTSTYLE_6
 71
1
 72
1
 10
8.3118965408
 20
3.4260965733
 30
0.0
 11
1.0
 21
0.0
 31
0.0
 73
2
 44
0.9
  1
{\fgdt;q}
 40
0.1
 41
0.1583333333
  0
MTEXT
  5
303
100
AcDbEntity
  8
NOTES
100
AcDbMText
 62
7
  6
CONTINUOUS
  7
TEXTSTYLE_6
 71
1
 72
1
 10
8.1875138754
 20
5.5754484485
 30
0.0
 11
1.0
 21
0.0
 31
0.0
 73
2
 44
0.9
  1
{\fgdt;q}
 40
0.1
 41
0.1583333333
  0
MTEXT
  5
304
100
AcDbEntity
  8
NOTES
100
AcDbMText
 62
7
  6
CONTINUOUS
  7
STANDARD
 71
2
 72
1
 10
13.9358620553
 20
4.8977854414
 30
0.0
 11
1.0
 21
0.0
 31
0.0
 73
2
 44
0.9
  1
ISOMETRIC VIEW\PSCALE  1:1
 40
0.1
 41
1.4
  0
LINE
  5
305
100
AcDbEntity
  8
0
100
AcDbLine
 62
7
  6
CONTINUOUS
 10
0.47
 20
5.586103
 11
0.47
 21
5.412897
  0
LINE
  5
306
100
AcDbEntity
  8
0
100
AcDbLine
 62
7
  6
CONTINUOUS
 10
0.62
 20
10.112
 11
0.62
 21
0.887
  0
LINE
  5
307
100
AcDbEntity
  8
0
100
AcDbLine
 62
7
  6
CONTINUOUS
 10
2.59
 20
0.887
 11
2.59
 21
0.637
  0
LINE
  5
308
100
AcDbEntity
  8
0
100
AcDbLine
 62
7
  6
CONTINUOUS
 10
2.59
 20
10.112
 11
2.59
 21
10.362
  0
LINE
  5
309
100
AcDbEntity
  8
0
100
AcDbLine
 62
7
  6
CONTINUOUS
 10
8.413397
 20
0.737
 11
8.586603
 21
0.737
  0
LINE
  5
30A
100
AcDbEntity
  8
0
100
AcDbLine
 62
7
  6
CONTINUOUS
 10
11.1389508475
 20
1.425992839
 11
11.7453418475
 21
1.495385839
  0
LINE
  5
30B
100
AcDbEntity
  8
0
100
AcDbLine
 62
7
  6
CONTINUOUS
 10
0.62
 20
0.887
 11
16.38
 21
0.887
  0
LINE
  5
30C
100
AcDbEntity
  8
0
100
AcDbLine
 62
7
  6
CONTINUOUS
 10
12.03
 20
1.137
 11
16.38
 21
1.137
  0
LINE
  5
30D
100
AcDbEntity
  8
0
100
AcDbLine
 62
7
  6
CONTINUOUS
 10
10.2121898475
 20
1.243294839
 11
10.4342808475
 21
1.243294839
  0
LINE
  5
30E
100
AcDbEntity
  8
0
100
AcDbLine
 62
7
  6
CONTINUOUS
 10
10.4842808475
 20
1.243294839
 11
10.5842808475
 21
1.243294839
  0
LINE
  5
30F
100
AcDbEntity
  8
0
100
AcDbLine
 62
7
  6
CONTINUOUS
 10
10.6342808475
 20
1.243294839
 11
10.8563718475
 21
1.243294839
  0
LINE
  5
310
100
AcDbEntity
  8
0
100
AcDbLine
 62
7
  6
CONTINUOUS
 10
11.0389508475
 20
1.243294839
 11
11.3171028475
 21
1.243294839
  0
LINE
  5
311
100
AcDbEntity
  8
0
100
AcDbLine
 62
7
  6
CONTINUOUS
 10
11.3671028475
 20
1.243294839
 11
11.5171888475
 21
1.243294839
  0
LINE
  5
312
100
AcDbEntity
  8
0
100
AcDbLine
 62
7
  6
CONTINUOUS
 10
11.5671888475
 20
1.243294839
 11
11.8453418475
 21
1.243294839
  0
LINE
  5
313
100
AcDbEntity
  8
0
100
AcDbLine
 62
7
  6
CONTINUOUS
 10
11.7453418475
 20
0.991203839
 11
11.1389508475
 21
1.060596839
  0
LINE
  5
314
100
AcDbEntity
  8
0
100
AcDbLine
 62
7
  6
CONTINUOUS
 10
4.56
 20
0.887
 11
4.56
 21
0.637
  0
LINE
  5
315
100
AcDbEntity
  8
0
100
AcDbLine
 62
7
  6
CONTINUOUS
 10
4.56
 20
10.112
 11
4.56
 21
10.362
  0
LINE
  5
316
100
AcDbEntity
  8
0
100
AcDbLine
 62
7
  6
CONTINUOUS
 10
0.47
 20
5.412897
 11
0.62
 21
5.4995
  0
LINE
  5
317
100
AcDbEntity
  8
0
100
AcDbLine
 62
7
  6
CONTINUOUS
 10
12.03
 20
1.507
 11
16.38
 21
1.507
  0
LINE
  5
318
100
AcDbEntity
  8
0
100
AcDbLine
 62
7
  6
CONTINUOUS
 10
10.03
 20
1.907
 11
12.03
 21
1.907
  0
LINE
  5
319
100
AcDbEntity
  8
0
100
AcDbLine
 62
7
  6
CONTINUOUS
 10
0.62
 20
5.4995
 11
0.47
 21
5.586103
  0
LINE
  5
31A
100
AcDbEntity
  8
0
100
AcDbLine
 62
7
  6
CONTINUOUS
 10
12.03
 20
2.267
 11
16.38
 21
2.267
  0
LINE
  5
31B
100
AcDbEntity
  8
0
100
AcDbLine
 62
7
  6
CONTINUOUS
 10
13.6042588488
 20
2.4912273132
 11
13.5568948225
 21
2.4912273132
  0
LINE
  5
31C
100
AcDbEntity
  8
0
100
AcDbLine
 62
7
  6
CONTINUOUS
 10
13.5130037982
 20
2.4912273132
 11
13.3994327352
 21
2.4912273132
  0
LINE
  5
31D
100
AcDbEntity
  8
0
100
AcDbLine
 62
7
  6
CONTINUOUS
 10
13.3705287192
 20
2.4912273132
 11
13.1673166065
 21
2.4912273132
  0
LINE
  5
31E
100
AcDbEntity
  8
0
100
AcDbLine
 62
7
  6
CONTINUOUS
 10
13.1168435785
 20
2.4912273132
 11
13.0426375373
 21
2.4912273132
  0
LINE
  5
31F
100
AcDbEntity
  8
0
100
AcDbLine
 62
7
  6
CONTINUOUS
 10
12.9962575116
 20
2.4912273132
 11
12.9205934696
 21
2.4912273132
  0
LINE
  5
320
100
AcDbEntity
  8
0
100
AcDbLine
 62
7
  6
CONTINUOUS
 10
12.8685904408
 20
2.4912273132
 11
12.7943853997
 21
2.4912273132
  0
LINE
  5
321
100
AcDbEntity
  8
0
100
AcDbLine
 62
7
  6
CONTINUOUS
 10
12.7480043739
 20
2.4912273132
 11
12.672340332
 21
2.4912273132
  0
LINE
  5
322
100
AcDbEntity
  8
0
100
AcDbLine
 62
7
  6
CONTINUOUS
 10
12.2055050731
 20
2.4912273132
 11
12.3819511709
 21
2.4912273132
  0
LINE
  5
323
100
AcDbEntity
  8
0
100
AcDbLine
 62
7
  6
CONTINUOUS
 10
12.4394882028
 20
2.4912273132
 11
12.5168642458
 21
2.4912273132
  0
LINE
  5
324
100
AcDbEntity
  8
0
100
AcDbLine
 62
7
  6
CONTINUOUS
 10
12.537150257
 20
2.4912273132
 11
12.6424313154
 21
2.4912273132
  0
LINE
  5
325
100
AcDbEntity
  8
0
100
AcDbLine
 62
7
  6
CONTINUOUS
 10
13.4883447845
 20
2.5159553269
 11
13.5130037982
 21
2.5159553269
  0
LINE
  5
326
100
AcDbEntity
  8
0
100
AcDbLine
 62
7
  6
CONTINUOUS
 10
12.6424313154
 20
2.515977327
 11
12.6224153043
 21
2.515977327
  0
LINE
  5
327
100
AcDbEntity
  8
0
100
AcDbLine
 62
7
  6
CONTINUOUS
 10
12.551601265
 20
2.515977327
 11
12.537150257
 21
2.515977327
  0
LINE
  5
328
100
AcDbEntity
  8
0
100
AcDbLine
 62
7
  6
CONTINUOUS
 10
12.5168642458
 20
2.515977327
 11
12.5055812395
 21
2.515977327
  0
LINE
  5
329
100
AcDbEntity
  8
0
100
AcDbLine
 62
7
  6
CONTINUOUS
 10
12.4623492155
 20
2.515977327
 11
12.4394882028
 21
2.515977327
  0
LINE
  5
32A
100
AcDbEntity
  8
0
100
AcDbLine
 62
7
  6
CONTINUOUS
 10
12.3362731456
 20
2.515977327
 11
12.2949101227
 21
2.515977327
  0
LINE
  5
32B
100
AcDbEntity
  8
0
100
AcDbLine
 62
7
  6
CONTINUOUS
 10
12.2294470864
 20
2.515977327
 11
12.2055050731
 21
2.515977327
  0
LINE
  5
32C
100
AcDbEntity
  8
0
100
AcDbLine
 62
7
  6
CONTINUOUS
 10
12.672340332
 20
2.515977327
 11
12.6909873423
 21
2.515977327
  0
LINE
  5
32D
100
AcDbEntity
  8
0
100
AcDbLine
 62
7
  6
CONTINUOUS
 10
12.7276873627
 20
2.515977327
 11
12.7480043739
 21
2.515977327
  0
LINE
  5
32E
100
AcDbEntity
  8
0
100
AcDbLine
 62
7
  6
CONTINUOUS
 10
12.9205934696
 20
2.515977327
 11
12.93923948
 21
2.515977327
  0
LINE
  5
32F
100
AcDbEntity
  8
0
100
AcDbLine
 62
7
  6
CONTINUOUS
 10
12.9759405003
 20
2.515977327
 11
12.9962575116
 21
2.515977327
  0
LINE
  5
330
100
AcDbEntity
  8
0
100
AcDbLine
 62
7
  6
CONTINUOUS
 10
13.1673166065
 20
2.515977327
 11
13.1912396197
 21
2.515977327
  0
LINE
  5
331
100
AcDbEntity
  8
0
100
AcDbLine
 62
7
  6
CONTINUOUS
 10
13.2582556569
 20
2.515977327
 11
13.3232596929
 21
2.515977327
  0
LINE
  5
332
100
AcDbEntity
  8
0
100
AcDbLine
 62
7
  6
CONTINUOUS
 10
13.3994327352
 20
2.515977327
 11
13.4221787478
 21
2.515977327
  0
LINE
  5
333
100
AcDbEntity
  8
0
100
AcDbLine
 62
7
  6
CONTINUOUS
 10
13.6052818493
 20
2.5163643272
 11
13.60639085
 21
2.5163643272
  0
LINE
  5
334
100
AcDbEntity
  8
0
100
AcDbLine
 62
7
  6
CONTINUOUS
 10
13.3282096957
 20
2.5291773343
 11
13.3705287192
 21
2.5291773343
  0
LINE
  5
335
100
AcDbEntity
  8
0
100
AcDbLine
 62
7
  6
CONTINUOUS
 10
12.5110972426
 20
2.5296213345
 11
12.5459752619
 21
2.5296213345
  0
LINE
  5
336
100
AcDbEntity
  8
0
100
AcDbLine
 62
7
  6
CONTINUOUS
 10
13.6171458559
 20
2.5301143348
 11
13.6292558626
 21
2.5301143348
  0
LINE
  5
337
100
AcDbEntity
  8
0
100
AcDbLine
 62
7
  6
CONTINUOUS
 10
13.5159517998
 20
2.5306043351
 11
13.4883447845
 21
2.5306043351
  0
LINE
  5
338
100
AcDbEntity
  8
0
100
AcDbLine
 62
7
  6
CONTINUOUS
 10
13.2934226764
 20
2.5324773361
 11
13.2582556569
 21
2.5324773361
  0
LINE
  5
339
100
AcDbEntity
  8
0
100
AcDbLine
 62
7
  6
CONTINUOUS
 10
12.2949101227
 20
2.5333023366
 11
12.3362731456
 21
2.5333023366
  0
LINE
  5
33A
100
AcDbEntity
  8
0
100
AcDbLine
 62
7
  6
CONTINUOUS
 10
13.5222818033
 20
2.5496073456
 11
13.4883447845
 21
2.5496073456
  0
LINE
  5
33B
100
AcDbEntity
  8
0
100
AcDbLine
 62
7
  6
CONTINUOUS
 10
12.2949101227
 20
2.5499573458
 11
12.3362731456
 21
2.5499573458
  0
LINE
  5
33C
100
AcDbEntity
  8
0
100
AcDbLine
 62
7
  6
CONTINUOUS
 10
12.5196132473
 20
2.5505713461
 11
12.5401702587
 21
2.5505713461
  0
LINE
  5
33D
100
AcDbEntity
  8
0
100
AcDbLine
 62
7
  6
CONTINUOUS
 10
13.2582556569
 20
2.5507823463
 11
13.2934226764
 21
2.5507823463
  0
LINE
  5
33E
100
AcDbEntity
  8
0
100
AcDbLine
 62
7
  6
CONTINUOUS
 10
13.3691097184
 20
2.5540823481
 11
13.3272456952
 21
2.5540823481
  0
LINE
  5
33F
100
AcDbEntity
  8
0
100
AcDbLine
 62
7
  6
CONTINUOUS
 10
12.5329112547
 20
2.5667383551
 11
12.5267302512
 21
2.5667383551
  0
LINE
  5
340
100
AcDbEntity
  8
0
100
AcDbLine
 62
7
  6
CONTINUOUS
 10
13.4221787478
 20
2.5672823554
 11
13.3994327352
 21
2.5672823554
  0
LINE
  5
341
100
AcDbEntity
  8
0
100
AcDbLine
 62
7
  6
CONTINUOUS
 10
13.3222956924
 20
2.5672823554
 11
13.2582556569
 21
2.5672823554
  0
LINE
  5
342
100
AcDbEntity
  8
0
100
AcDbLine
 62
7
  6
CONTINUOUS
 10
13.1912396197
 20
2.5672823554
 11
13.1673166065
 21
2.5672823554
  0
LINE
  5
343
100
AcDbEntity
  8
0
100
AcDbLine
 62
7
  6
CONTINUOUS
 10
13.1397265912
 20
2.5672823554
 11
13.1217935812
 21
2.5672823554
  0
LINE
  5
344
100
AcDbEntity
  8
0
100
AcDbLine
 62
7
  6
CONTINUOUS
 10
13.0845015605
 20
2.5672823554
 11
13.0657255501
 21
2.5672823554
  0
LINE
  5
345
100
AcDbEntity
  8
0
100
AcDbLine
 62
7
  6
CONTINUOUS
 10
12.93923948
 20
2.5672823554
 11
12.9205934696
 21
2.5672823554
  0
LINE
  5
346
100
AcDbEntity
  8
0
100
AcDbLine
 62
7
  6
CONTINUOUS
 10
12.8914734535
 20
2.5672823554
 11
12.8735404436
 21
2.5672823554
  0
LINE
  5
347
100
AcDbEntity
  8
0
100
AcDbLine
 62
7
  6
CONTINUOUS
 10
12.8362484229
 20
2.5672823554
 11
12.8174724125
 21
2.5672823554
  0
LINE
  5
348
100
AcDbEntity
  8
0
100
AcDbLine
 62
7
  6
CONTINUOUS
 10
12.6909873423
 20
2.5672823554
 11
12.672340332
 21
2.5672823554
  0
LINE
  5
349
100
AcDbEntity
  8
0
100
AcDbLine
 62
7
  6
CONTINUOUS
 10
12.3362731456
 20
2.5672823554
 11
12.2949101227
 21
2.5672823554
  0
LINE
  5
34A
100
AcDbEntity
  8
0
100
AcDbLine
 62
7
  6
CONTINUOUS
 10
12.2055050731
 20
2.5672823554
 11
12.2294470864
 21
2.5672823554
  0
LINE
  5
34B
100
AcDbEntity
  8
0
100
AcDbLine
 62
7
  6
CONTINUOUS
 10
13.4883447845
 20
2.5672823554
 11
13.5251458049
 21
2.5672823554
  0
LINE
  5
34C
100
AcDbEntity
  8
0
100
AcDbLine
 62
7
  6
CONTINUOUS
 10
12.5705042755
 20
2.5920323691
 11
12.5133292438
 21
2.5920323691
  0
LINE
  5
34D
100
AcDbEntity
  8
0
100
AcDbLine
 62
7
  6
CONTINUOUS
 10
12.3715681652
 20
2.5920323691
 11
12.2055050731
 21
2.5920323691
  0
LINE
  5
34E
100
AcDbEntity
  8
0
100
AcDbLine
 62
7
  6
CONTINUOUS
 10
12.672340332
 20
2.5920323691
 11
12.7727983877
 21
2.5920323691
  0
LINE
  5
34F
100
AcDbEntity
  8
0
100
AcDbLine
 62
7
  6
CONTINUOUS
 10
12.8174724125
 20
2.5920323691
 11
12.8914734535
 21
2.5920323691
  0
LINE
  5
350
100
AcDbEntity
  8
0
100
AcDbLine
 62
7
  6
CONTINUOUS
 10
12.9205934696
 20
2.5920323691
 11
13.0210515254
 21
2.5920323691
  0
LINE
  5
351
100
AcDbEntity
  8
0
100
AcDbLine
 62
7
  6
CONTINUOUS
 10
13.0657255501
 20
2.5920323691
 11
13.1397265912
 21
2.5920323691
  0
LINE
  5
352
100
AcDbEntity
  8
0
100
AcDbLine
 62
7
  6
CONTINUOUS
 10
13.1673166065
 20
2.5920323691
 11
13.3691097184
 21
2.5920323691
  0
LINE
  5
353
100
AcDbEntity
  8
0
100
AcDbLine
 62
7
  6
CONTINUOUS
 10
13.3994327352
 20
2.5920323691
 11
13.5490138181
 21
2.5920323691
  0
LINE
  5
354
100
AcDbEntity
  8
0
100
AcDbLine
 62
7
  6
CONTINUOUS
 10
12.4008351814
 20
2.5375433389
 11
12.3907841758
 21
2.5410923409
  0
LINE
  5
355
100
AcDbEntity
  8
0
100
AcDbLine
 62
7
  6
CONTINUOUS
 10
12.7926763987
 20
2.4919113136
 11
12.7293963636
 21
2.5522893471
  0
LINE
  5
356
100
AcDbEntity
  8
0
100
AcDbLine
 62
7
  6
CONTINUOUS
 10
12.7745063886
 20
2.5913483688
 11
12.8345394219
 21
2.534068337
  0
LINE
  5
357
100
AcDbEntity
  8
0
100
AcDbLine
 62
7
  6
CONTINUOUS
 10
13.0409295364
 20
2.4919113136
 11
12.9776495013
 21
2.5522893471
  0
LINE
  5
358
100
AcDbEntity
  8
0
100
AcDbLine
 62
7
  6
CONTINUOUS
 10
13.0227595263
 20
2.5913483688
 11
13.0827925596
 21
2.534068337
  0
LINE
  5
359
100
AcDbEntity
  8
0
100
AcDbLine
 62
7
  6
CONTINUOUS
 10
12.548053263
 20
2.5284903339
 11
12.5536792662
 21
2.5197973291
  0
LINE
  5
35A
100
AcDbEntity
  8
0
100
AcDbLine
 62
7
  6
CONTINUOUS
 10
12.5422482598
 20
2.5543913483
 11
12.5349892558
 21
2.5656073545
  0
LINE
  5
35B
100
AcDbEntity
  8
0
100
AcDbLine
 62
7
  6
CONTINUOUS
 10
12.6203383031
 20
2.5171073276
 11
12.5725822767
 21
2.5909023685
  0
LINE
  5
35C
100
AcDbEntity
  8
0
100
AcDbLine
 62
7
  6
CONTINUOUS
 10
12.2030300717
 20
2.5895573678
 11
12.2030300717
 21
2.5697573568
  0
LINE
  5
35D
100
AcDbEntity
  8
0
100
AcDbLine
 62
7
  6
CONTINUOUS
 10
12.2030300717
 20
2.5135023256
 11
12.2030300717
 21
2.4937023146
  0
LINE
  5
35E
100
AcDbEntity
  8
0
100
AcDbLine
 62
7
  6
CONTINUOUS
 10
12.2319220877
 20
2.564807354
 11
12.2319220877
 21
2.5184523283
  0
LINE
  5
35F
100
AcDbEntity
  8
0
100
AcDbLine
 62
7
  6
CONTINUOUS
 10
12.2924351213
 20
2.564807354
 11
12.2924351213
 21
2.5524323472
  0
LINE
  5
360
100
AcDbEntity
  8
0
100
AcDbLine
 62
7
  6
CONTINUOUS
 10
12.2924351213
 20
2.5184523283
 11
12.2924351213
 21
2.5308273352
  0
LINE
  5
361
100
AcDbEntity
  8
0
100
AcDbLine
 62
7
  6
CONTINUOUS
 10
12.4370132015
 20
2.5135023256
 11
12.4370132015
 21
2.4937023146
  0
LINE
  5
362
100
AcDbEntity
  8
0
100
AcDbLine
 62
7
  6
CONTINUOUS
 10
12.5193392471
 20
2.4937023146
 11
12.5193392471
 21
2.5135023256
  0
LINE
  5
363
100
AcDbEntity
  8
0
100
AcDbLine
 62
7
  6
CONTINUOUS
 10
12.5346752556
 20
2.5135023256
 11
12.5346752556
 21
2.4937023146
  0
LINE
  5
364
100
AcDbEntity
  8
0
100
AcDbLine
 62
7
  6
CONTINUOUS
 10
12.6449063168
 20
2.4937023146
 11
12.6449063168
 21
2.5135023256
  0
LINE
  5
365
100
AcDbEntity
  8
0
100
AcDbLine
 62
7
  6
CONTINUOUS
 10
12.6698653306
 20
2.4937023146
 11
12.6698653306
 21
2.5135023256
  0
LINE
  5
366
100
AcDbEntity
  8
0
100
AcDbLine
 62
7
  6
CONTINUOUS
 10
12.6698653306
 20
2.5697573568
 11
12.6698653306
 21
2.5895573678
  0
LINE
  5
367
100
AcDbEntity
  8
0
100
AcDbLine
 62
7
  6
CONTINUOUS
 10
12.6934623437
 20
2.5184523283
 11
12.6934623437
 21
2.564807354
  0
LINE
  5
368
100
AcDbEntity
  8
0
100
AcDbLine
 62
7
  6
CONTINUOUS
 10
12.7252123613
 20
2.5504983461
 11
12.7252123613
 21
2.5184523283
  0
LINE
  5
369
100
AcDbEntity
  8
0
100
AcDbLine
 62
7
  6
CONTINUOUS
 10
13.5375908118
 20
2.5092733232
 11
13.5357868108
 21
2.5153423266
  0
LINE
  5
36A
100
AcDbEntity
  8
0
100
AcDbLine
 62
7
  6
CONTINUOUS
 10
12.7504793753
 20
2.5135023256
 11
12.7504793753
 21
2.4937023146
  0
LINE
  5
36B
100
AcDbEntity
  8
0
100
AcDbLine
 62
7
  6
CONTINUOUS
 10
12.8149974111
 20
2.5697573568
 11
12.8149974111
 21
2.5895573678
  0
LINE
  5
36C
100
AcDbEntity
  8
0
100
AcDbLine
 62
7
  6
CONTINUOUS
 10
12.8387234242
 20
2.535859338
 11
12.8387234242
 21
2.564807354
  0
LINE
  5
36D
100
AcDbEntity
  8
0
100
AcDbLine
 62
7
  6
CONTINUOUS
 10
12.8710654422
 20
2.564807354
 11
12.8710654422
 21
2.4937023146
  0
LINE
  5
36E
100
AcDbEntity
  8
0
100
AcDbLine
 62
7
  6
CONTINUOUS
 10
12.8939484549
 20
2.5895573678
 11
12.8939484549
 21
2.5697573568
  0
LINE
  5
36F
100
AcDbEntity
  8
0
100
AcDbLine
 62
7
  6
CONTINUOUS
 10
12.9181184683
 20
2.4937023146
 11
12.9181184683
 21
2.5135023256
  0
LINE
  5
370
100
AcDbEntity
  8
0
100
AcDbLine
 62
7
  6
CONTINUOUS
 10
12.9181184683
 20
2.5697573568
 11
12.9181184683
 21
2.5895573678
  0
LINE
  5
371
100
AcDbEntity
  8
0
100
AcDbLine
 62
7
  6
CONTINUOUS
 10
12.9417144814
 20
2.5184523283
 11
12.9417144814
 21
2.564807354
  0
LINE
  5
372
100
AcDbEntity
  8
0
100
AcDbLine
 62
7
  6
CONTINUOUS
 10
12.973465499
 20
2.5504983461
 11
12.973465499
 21
2.5184523283
  0
LINE
  5
373
100
AcDbEntity
  8
0
100
AcDbLine
 62
7
  6
CONTINUOUS
 10
12.998732513
 20
2.5135023256
 11
12.998732513
 21
2.4937023146
  0
LINE
  5
374
100
AcDbEntity
  8
0
100
AcDbLine
 62
7
  6
CONTINUOUS
 10
13.0632505488
 20
2.5697573568
 11
13.0632505488
 21
2.5895573678
  0
LINE
  5
375
100
AcDbEntity
  8
0
100
AcDbLine
 62
7
  6
CONTINUOUS
 10
13.0869765619
 20
2.535859338
 11
13.0869765619
 21
2.564807354
  0
LINE
  5
376
100
AcDbEntity
  8
0
100
AcDbLine
 62
7
  6
CONTINUOUS
 10
13.1193185799
 20
2.564807354
 11
13.1193185799
 21
2.4937023146
  0
LINE
  5
377
100
AcDbEntity
  8
0
100
AcDbLine
 62
7
  6
CONTINUOUS
 10
13.1422015925
 20
2.5895573678
 11
13.1422015925
 21
2.5697573568
  0
LINE
  5
378
100
AcDbEntity
  8
0
100
AcDbLine
 62
7
  6
CONTINUOUS
 10
13.1648416051
 20
2.4937023146
 11
13.1648416051
 21
2.5135023256
  0
LINE
  5
379
100
AcDbEntity
  8
0
100
AcDbLine
 62
7
  6
CONTINUOUS
 10
13.1648416051
 20
2.5697573568
 11
13.1648416051
 21
2.5895573678
  0
LINE
  5
37A
100
AcDbEntity
  8
0
100
AcDbLine
 62
7
  6
CONTINUOUS
 10
13.1937146211
 20
2.5184523283
 11
13.1937146211
 21
2.564807354
  0
LINE
  5
37B
100
AcDbEntity
  8
0
100
AcDbLine
 62
7
  6
CONTINUOUS
 10
13.2557806555
 20
2.564807354
 11
13.2557806555
 21
2.5532573476
  0
LINE
  5
37C
100
AcDbEntity
  8
0
100
AcDbLine
 62
7
  6
CONTINUOUS
 10
13.2557806555
 20
2.5300023347
 11
13.2557806555
 21
2.5184523283
  0
LINE
  5
37D
100
AcDbEntity
  8
0
100
AcDbLine
 62
7
  6
CONTINUOUS
 10
13.2958976778
 20
2.5483073449
 11
13.2958976778
 21
2.5349523375
  0
LINE
  5
37E
100
AcDbEntity
  8
0
100
AcDbLine
 62
7
  6
CONTINUOUS
 10
12.3907841758
 20
2.5410923409
 11
12.3990241804
 21
2.5458683435
  0
LINE
  5
37F
100
AcDbEntity
  8
0
100
AcDbLine
 62
7
  6
CONTINUOUS
 10
13.3247706938
 20
2.5565573495
 11
13.3247706938
 21
2.564807354
  0
LINE
  5
380
100
AcDbEntity
  8
0
100
AcDbLine
 62
7
  6
CONTINUOUS
 10
13.3257346943
 20
2.5184523283
 11
13.3257346943
 21
2.5267023329
  0
LINE
  5
381
100
AcDbEntity
  8
0
100
AcDbLine
 62
7
  6
CONTINUOUS
 10
13.3715847197
 20
2.5895573678
 11
13.3715847197
 21
2.5565573495
  0
LINE
  5
382
100
AcDbEntity
  8
0
100
AcDbLine
 62
7
  6
CONTINUOUS
 10
13.3730037205
 20
2.5267023329
 11
13.3730037205
 21
2.4937023146
  0
LINE
  5
383
100
AcDbEntity
  8
0
100
AcDbLine
 62
7
  6
CONTINUOUS
 10
13.3969577338
 20
2.4937023146
 11
13.3969577338
 21
2.5135023256
  0
LINE
  5
384
100
AcDbEntity
  8
0
100
AcDbLine
 62
7
  6
CONTINUOUS
 10
13.3969577338
 20
2.5697573568
 11
13.3969577338
 21
2.5895573678
  0
LINE
  5
385
100
AcDbEntity
  8
0
100
AcDbLine
 62
7
  6
CONTINUOUS
 10
13.4246537492
 20
2.5184523283
 11
13.4246537492
 21
2.564807354
  0
LINE
  5
386
100
AcDbEntity
  8
0
100
AcDbLine
 62
7
  6
CONTINUOUS
 10
13.4858697831
 20
2.5281293337
 11
13.4858697831
 21
2.5184303283
  0
LINE
  5
387
100
AcDbEntity
  8
0
100
AcDbLine
 62
7
  6
CONTINUOUS
 10
13.4858697831
 20
2.552082347
 11
13.4858697831
 21
2.564807354
  0
LINE
  5
388
100
AcDbEntity
  8
0
100
AcDbLine
 62
7
  6
CONTINUOUS
 10
13.5154787995
 20
2.5134803256
 11
13.5154787995
 21
2.4937023146
  0
LINE
  5
389
100
AcDbEntity
  8
0
100
AcDbLine
 62
7
  6
CONTINUOUS
 10
13.6146708546
 20
2.525013332
 11
13.6146708546
 21
2.5276393334
  0
LINE
  5
38A
100
AcDbEntity
  8
0
100
AcDbLine
 62
7
  6
CONTINUOUS
 10
13.631730864
 20
2.5276393334
 11
13.631730864
 21
2.516087327
  0
LINE
  5
38B
100
AcDbEntity
  8
0
100
AcDbLine
 62
7
  6
CONTINUOUS
 10
13.7286871589
 20
2.5350697372
 11
13.7286871589
 21
2.5456869438
  0
LINE
  5
38C
100
AcDbEntity
  8
0
100
AcDbLine
 62
7
  6
CONTINUOUS
 10
12.5112392426
 20
2.5908833685
 11
12.4644392167
 21
2.5171263276
  0
LINE
  5
38D
100
AcDbEntity
  8
0
100
AcDbLine
 62
7
  6
CONTINUOUS
 10
12.5246402501
 20
2.5655893545
 11
12.5175232461
 21
2.5543723483
  0
LINE
  5
38E
100
AcDbEntity
  8
0
100
AcDbLine
 62
7
  6
CONTINUOUS
 10
12.5034912383
 20
2.5197783291
 11
12.5090072414
 21
2.5284723339
  0
ARC
  5
38F
100
AcDbEntity
  8
0
100
AcDbCircle
 62
7
  6
CONTINUOUS
 10
12.7943847649
 20
2.4937027294
 40
0.0024754162
100
AcDbArc
 50
226.3593695813
 51
270.0146919953
  0
ARC
  5
390
100
AcDbEntity
  8
0
100
AcDbCircle
 62
7
  6
CONTINUOUS
 10
12.2055050712
 20
2.4937023128
 40
0.0024749995
100
AcDbArc
 50
179.9999571957
 51
270.0000428043
  0
ARC
  5
391
100
AcDbEntity
  8
0
100
AcDbCircle
 62
7
  6
CONTINUOUS
 10
12.8685904427
 20
2.4937023128
 40
0.0024749995
100
AcDbArc
 50
269.9999571957
 51
0.0000428043
  0
ARC
  5
392
100
AcDbEntity
  8
0
100
AcDbCircle
 62
7
  6
CONTINUOUS
 10
12.7480043758
 20
2.4937023128
 40
0.0024749995
100
AcDbArc
 50
269.9999571957
 51
0.0000428043
  0
ARC
  5
393
100
AcDbEntity
  8
0
100
AcDbCircle
 62
7
  6
CONTINUOUS
 10
12.6723403301
 20
2.4937023128
 40
0.0024749995
100
AcDbArc
 50
179.9999571957
 51
270.0000428043
  0
ARC
  5
394
100
AcDbEntity
  8
0
100
AcDbCircle
 62
7
  6
CONTINUOUS
 10
12.5371502552
 20
2.4937023128
 40
0.0024749995
100
AcDbArc
 50
179.9999571957
 51
270.0000428043
  0
ARC
  5
395
100
AcDbEntity
  8
0
100
AcDbCircle
 62
7
  6
CONTINUOUS
 10
12.6424313172
 20
2.4937023128
 40
0.0024749995
100
AcDbArc
 50
269.9999571957
 51
0.0000428043
  0
ARC
  5
396
100
AcDbEntity
  8
0
100
AcDbCircle
 62
7
  6
CONTINUOUS
 10
12.439488201
 20
2.4937023128
 40
0.0024749995
100
AcDbArc
 50
179.9999571957
 51
270.0000428043
  0
ARC
  5
397
100
AcDbEntity
  8
0
100
AcDbCircle
 62
7
  6
CONTINUOUS
 10
12.5168642476
 20
2.4937023128
 40
0.0024749995
100
AcDbArc
 50
269.9999571957
 51
0.0000428043
  0
ARC
  5
398
100
AcDbEntity
  8
0
100
AcDbCircle
 62
7
  6
CONTINUOUS
 10
12.371573659
 20
2.5302846524
 40
0.061747717
100
AcDbArc
 50
59.5385584989
 51
90.0050977555
  0
ARC
  5
399
100
AcDbEntity
  8
0
100
AcDbCircle
 62
7
  6
CONTINUOUS
 10
12.3792298263
 20
2.539634765
 40
0.048483885
100
AcDbArc
 50
273.21763719
 51
303.0749121182
  0
ARC
  5
39A
100
AcDbEntity
  8
0
100
AcDbCircle
 62
7
  6
CONTINUOUS
 10
12.3931760319
 20
2.5166878286
 40
0.0222174455
100
AcDbArc
 50
4.0793399388
 51
69.834329283
  0
ARC
  5
39B
100
AcDbEntity
  8
0
100
AcDbCircle
 62
7
  6
CONTINUOUS
 10
12.3940692204
 20
2.5168671561
 40
0.0213072145
100
AcDbArc
 50
303.0488228549
 51
355.7263138674
  0
ARC
  5
39C
100
AcDbEntity
  8
0
100
AcDbCircle
 62
7
  6
CONTINUOUS
 10
12.400005721
 20
2.5168763464
 40
0.0153945295
100
AcDbArc
 50
354.0454548824
 51
5.1878013979
  0
ARC
  5
39D
100
AcDbEntity
  8
0
100
AcDbCircle
 62
7
  6
CONTINUOUS
 10
12.3362731456
 20
2.5246398318
 40
0.0086625048
100
AcDbArc
 50
270.0
 51
90.0
  0
ARC
  5
39E
100
AcDbEntity
  8
0
100
AcDbCircle
 62
7
  6
CONTINUOUS
 10
12.5459747223
 20
2.5271458744
 40
0.0024754602
100
AcDbArc
 50
32.8959418573
 51
89.9875097202
  0
ARC
  5
39F
100
AcDbEntity
  8
0
100
AcDbCircle
 62
7
  6
CONTINUOUS
 10
12.4623492858
 20
2.5184525273
 40
0.0024752003
100
AcDbArc
 50
269.9983726451
 51
327.602165307
  0
ARC
  5
3A0
100
AcDbEntity
  8
0
100
AcDbCircle
 62
7
  6
CONTINUOUS
 10
12.5110971723
 20
2.5271461342
 40
0.0024752003
100
AcDbArc
 50
89.998372645
 51
147.602165307
  0
ARC
  5
3A1
100
AcDbEntity
  8
0
100
AcDbCircle
 62
7
  6
CONTINUOUS
 10
12.5055811302
 20
2.518452367
 40
0.0024750401
100
AcDbArc
 50
147.6063258011
 51
270.0025305754
  0
ARC
  5
3A2
100
AcDbEntity
  8
0
100
AcDbCircle
 62
7
  6
CONTINUOUS
 10
12.2294470882
 20
2.5184523265
 40
0.0024749995
100
AcDbArc
 50
269.9999571957
 51
0.0000428043
  0
ARC
  5
3A3
100
AcDbEntity
  8
0
100
AcDbCircle
 62
7
  6
CONTINUOUS
 10
12.2055050712
 20
2.5135023274
 40
0.0024749995
100
AcDbArc
 50
89.9999571957
 51
180.0000428043
  0
ARC
  5
3A4
100
AcDbEntity
  8
0
100
AcDbCircle
 62
7
  6
CONTINUOUS
 10
12.2949101208
 20
2.530827337
 40
0.0024749995
100
AcDbArc
 50
89.9999571957
 51
180.0000428043
  0
ARC
  5
3A5
100
AcDbEntity
  8
0
100
AcDbCircle
 62
7
  6
CONTINUOUS
 10
12.2949101208
 20
2.5184523265
 40
0.0024749995
100
AcDbArc
 50
179.9999571957
 51
270.0000428043
  0
ARC
  5
3A6
100
AcDbEntity
  8
0
100
AcDbCircle
 62
7
  6
CONTINUOUS
 10
12.5371502552
 20
2.5135023274
 40
0.0024749995
100
AcDbArc
 50
89.9999571957
 51
180.0000428043
  0
ARC
  5
3A7
100
AcDbEntity
  8
0
100
AcDbCircle
 62
7
  6
CONTINUOUS
 10
12.439488201
 20
2.5135023274
 40
0.0024749995
100
AcDbArc
 50
89.9999571957
 51
180.0000428043
  0
ARC
  5
3A8
100
AcDbEntity
  8
0
100
AcDbCircle
 62
7
  6
CONTINUOUS
 10
12.5168642476
 20
2.5135023274
 40
0.0024749995
100
AcDbArc
 50
359.9999571957
 51
90.0000428043
  0
ARC
  5
3A9
100
AcDbEntity
  8
0
100
AcDbCircle
 62
7
  6
CONTINUOUS
 10
12.3771587979
 20
2.5826952352
 40
0.0428289026
100
AcDbArc
 50
300.6990502959
 51
319.0591802498
  0
ARC
  5
3AA
100
AcDbEntity
  8
0
100
AcDbCircle
 62
7
  6
CONTINUOUS
 10
12.3922357827
 20
2.5632132173
 40
0.0229166529
100
AcDbArc
 50
20.6563876465
 51
62.3316896973
  0
ARC
  5
3AB
100
AcDbEntity
  8
0
100
AcDbCircle
 62
7
  6
CONTINUOUS
 10
12.3971873948
 20
2.5665668817
 40
0.0171568255
100
AcDbArc
 50
315.9145124245
 51
16.0049121282
  0
ARC
  5
3AC
100
AcDbEntity
  8
0
100
AcDbCircle
 62
7
  6
CONTINUOUS
 10
12.3362731456
 20
2.5586198506
 40
0.0086625048
100
AcDbArc
 50
270.0
 51
90.0
  0
ARC
  5
3AD
100
AcDbEntity
  8
0
100
AcDbCircle
 62
7
  6
CONTINUOUS
 10
12.532910715
 20
2.564262895
 40
0.0024754602
100
AcDbArc
 50
32.8959418573
 51
89.9875097202
  0
ARC
  5
3AE
100
AcDbEntity
  8
0
100
AcDbCircle
 62
7
  6
CONTINUOUS
 10
12.5401702375
 20
2.5530465533
 40
0.0024752071
100
AcDbArc
 50
270.0004896793
 51
32.9089806818
  0
ARC
  5
3AF
100
AcDbEntity
  8
0
100
AcDbCircle
 62
7
  6
CONTINUOUS
 10
12.5267301809
 20
2.5642631548
 40
0.0024752003
100
AcDbArc
 50
89.998372645
 51
147.602165307
  0
ARC
  5
3B0
100
AcDbEntity
  8
0
100
AcDbCircle
 62
7
  6
CONTINUOUS
 10
12.5133291735
 20
2.5895571688
 40
0.0024752003
100
AcDbArc
 50
89.9983726451
 51
147.602165307
  0
ARC
  5
3B1
100
AcDbEntity
  8
0
100
AcDbCircle
 62
7
  6
CONTINUOUS
 10
12.519613138
 20
2.5530463862
 40
0.0024750401
100
AcDbArc
 50
147.6063258012
 51
270.0025305754
  0
ARC
  5
3B2
100
AcDbEntity
  8
0
100
AcDbCircle
 62
7
  6
CONTINUOUS
 10
12.2055050712
 20
2.5895573696
 40
0.0024749995
100
AcDbArc
 50
89.9999571957
 51
180.0000428043
  0
ARC
  5
3B3
100
AcDbEntity
  8
0
100
AcDbCircle
 62
7
  6
CONTINUOUS
 10
12.2055050712
 20
2.5697573549
 40
0.0024749995
100
AcDbArc
 50
179.9999571957
 51
270.0000428043
  0
ARC
  5
3B4
100
AcDbEntity
  8
0
100
AcDbCircle
 62
7
  6
CONTINUOUS
 10
12.2294470882
 20
2.5648073559
 40
0.0024749995
100
AcDbArc
 50
359.9999571957
 51
90.0000428043
  0
ARC
  5
3B5
100
AcDbEntity
  8
0
100
AcDbCircle
 62
7
  6
CONTINUOUS
 10
12.2949101208
 20
2.5648073559
 40
0.0024749995
100
AcDbArc
 50
89.9999571957
 51
180.0000428043
  0
ARC
  5
3B6
100
AcDbEntity
  8
0
100
AcDbCircle
 62
7
  6
CONTINUOUS
 10
12.2949101208
 20
2.5524323453
 40
0.0024749995
100
AcDbArc
 50
179.9999571957
 51
270.0000428043
  0
ARC
  5
3B7
100
AcDbEntity
  8
0
100
AcDbCircle
 62
7
  6
CONTINUOUS
 10
12.8362481229
 20
2.5358592748
 40
0.0024753014
100
AcDbArc
 50
226.3461263059
 51
0.0014637321
  0
ARC
  5
3B8
100
AcDbEntity
  8
0
100
AcDbCircle
 62
7
  6
CONTINUOUS
 10
12.7276876627
 20
2.5504984093
 40
0.0024753014
100
AcDbArc
 50
46.3461263059
 51
180.0014637321
  0
ARC
  5
3B9
100
AcDbEntity
  8
0
100
AcDbCircle
 62
7
  6
CONTINUOUS
 10
12.5516012439
 20
2.5184525341
 40
0.0024752071
100
AcDbArc
 50
270.0004896794
 51
32.9089806818
  0
ARC
  5
3BA
100
AcDbEntity
  8
0
100
AcDbCircle
 62
7
  6
CONTINUOUS
 10
12.7276873608
 20
2.5184523265
 40
0.0024749995
100
AcDbArc
 50
179.9999571957
 51
270.0000428043
  0
ARC
  5
3BB
100
AcDbEntity
  8
0
100
AcDbCircle
 62
7
  6
CONTINUOUS
 10
12.7480043758
 20
2.5135023274
 40
0.0024749995
100
AcDbArc
 50
359.9999571957
 51
90.0000428043
  0
ARC
  5
3BC
100
AcDbEntity
  8
0
100
AcDbCircle
 62
7
  6
CONTINUOUS
 10
12.6723403301
 20
2.5135023274
 40
0.0024749995
100
AcDbArc
 50
89.9999571957
 51
180.0000428043
  0
ARC
  5
3BD
100
AcDbEntity
  8
0
100
AcDbCircle
 62
7
  6
CONTINUOUS
 10
12.6909873442
 20
2.5184523265
 40
0.0024749995
100
AcDbArc
 50
269.9999571957
 51
0.0000428043
  0
ARC
  5
3BE
100
AcDbEntity
  8
0
100
AcDbCircle
 62
7
  6
CONTINUOUS
 10
12.6424313172
 20
2.5135023274
 40
0.0024749995
100
AcDbArc
 50
359.9999571957
 51
90.0000428043
  0
ARC
  5
3BF
100
AcDbEntity
  8
0
100
AcDbCircle
 62
7
  6
CONTINUOUS
 10
12.6224154248
 20
2.518451368
 40
0.002474041
100
AcDbArc
 50
212.9056413127
 51
269.9972091756
  0
ARC
  5
3C0
100
AcDbEntity
  8
0
100
AcDbCircle
 62
7
  6
CONTINUOUS
 10
12.8362484247
 20
2.5648073559
 40
0.0024749995
100
AcDbArc
 50
359.9999571957
 51
90.0000428043
  0
ARC
  5
3C1
100
AcDbEntity
  8
0
100
AcDbCircle
 62
7
  6
CONTINUOUS
 10
12.8174724106
 20
2.5697573549
 40
0.0024749995
100
AcDbArc
 50
179.9999571957
 51
270.0000428043
  0
ARC
  5
3C2
100
AcDbEntity
  8
0
100
AcDbCircle
 62
7
  6
CONTINUOUS
 10
12.8174724106
 20
2.5895573696
 40
0.0024749995
100
AcDbArc
 50
89.9999571957
 51
180.0000428043
  0
ARC
  5
3C3
100
AcDbEntity
  8
0
100
AcDbCircle
 62
7
  6
CONTINUOUS
 10
12.8914734553
 20
2.5895573696
 40
0.0024749995
100
AcDbArc
 50
359.9999571957
 51
90.0000428043
  0
ARC
  5
3C4
100
AcDbEntity
  8
0
100
AcDbCircle
 62
7
  6
CONTINUOUS
 10
12.8914734553
 20
2.5697573549
 40
0.0024749995
100
AcDbArc
 50
269.9999571957
 51
0.0000428043
  0
ARC
  5
3C5
100
AcDbEntity
  8
0
100
AcDbCircle
 62
7
  6
CONTINUOUS
 10
12.8735404417
 20
2.5648073559
 40
0.0024749995
100
AcDbArc
 50
89.9999571957
 51
180.0000428043
  0
ARC
  5
3C6
100
AcDbEntity
  8
0
100
AcDbCircle
 62
7
  6
CONTINUOUS
 10
12.6909873442
 20
2.5648073559
 40
0.0024749995
100
AcDbArc
 50
359.9999571957
 51
90.0000428043
  0
ARC
  5
3C7
100
AcDbEntity
  8
0
100
AcDbCircle
 62
7
  6
CONTINUOUS
 10
12.6723403301
 20
2.5697573549
 40
0.0024749995
100
AcDbArc
 50
179.9999571957
 51
270.0000428043
  0
ARC
  5
3C8
100
AcDbEntity
  8
0
100
AcDbCircle
 62
7
  6
CONTINUOUS
 10
12.6723403301
 20
2.5895573696
 40
0.0024749995
100
AcDbArc
 50
89.9999571957
 51
180.0000428043
  0
ARC
  5
3C9
100
AcDbEntity
  8
0
100
AcDbCircle
 62
7
  6
CONTINUOUS
 10
12.570504655
 20
2.589557409
 40
0.0024749602
100
AcDbArc
 50
32.9172174468
 51
90.0087853097
  0
ARC
  5
3CA
100
AcDbEntity
  8
0
100
AcDbCircle
 62
7
  6
CONTINUOUS
 10
12.7727985224
 20
2.5895582013
 40
0.0024741678
100
AcDbArc
 50
46.3477981899
 51
90.0031206038
  0
ARC
  5
3CB
100
AcDbEntity
  8
0
100
AcDbCircle
 62
7
  6
CONTINUOUS
 10
13.5463505148
 20
2.4094934586
 40
0.1825583387
100
AcDbArc
 50
79.8618509324
 51
89.1640948679
  0
ARC
  5
3CC
100
AcDbEntity
  8
0
100
AcDbCircle
 62
7
  6
CONTINUOUS
 10
13.5282557878
 20
2.4386010294
 40
0.117346916
100
AcDbArc
 50
58.614769177
 51
62.3737227606
  0
ARC
  5
3CD
100
AcDbEntity
  8
0
100
AcDbCircle
 62
7
  6
CONTINUOUS
 10
13.5571178432
 20
2.509473798
 40
0.0459185159
100
AcDbArc
 50
15.6740290068
 51
20.9917271228
  0
ARC
  5
3CE
100
AcDbEntity
  8
0
100
AcDbCircle
 62
7
  6
CONTINUOUS
 10
13.4974076135
 20
2.5055452462
 40
0.0396099176
100
AcDbArc
 50
14.3201081283
 51
22.4984722084
  0
ARC
  5
3CF
100
AcDbEntity
  8
0
100
AcDbCircle
 62
7
  6
CONTINUOUS
 10
13.5161192671
 20
2.5062372524
 40
0.0243676582
100
AcDbArc
 50
63.3666028271
 51
90.3937697637
  0
ARC
  5
3D0
100
AcDbEntity
  8
0
100
AcDbCircle
 62
7
  6
CONTINUOUS
 10
13.6036139387
 20
2.5111006186
 40
0.0198837666
100
AcDbArc
 50
271.8586572978
 51
289.4131338543
  0
ARC
  5
3D1
100
AcDbEntity
  8
0
100
AcDbCircle
 62
7
  6
CONTINUOUS
 10
13.5577001432
 20
2.5085494649
 40
0.0173408616
100
AcDbArc
 50
232.4713476722
 51
267.338189944
  0
ARC
  5
3D2
100
AcDbEntity
  8
0
100
AcDbCircle
 62
7
  6
CONTINUOUS
 10
13.5130038
 20
2.4937023128
 40
0.0024749995
100
AcDbArc
 50
269.9999571957
 51
0.0000428043
  0
ARC
  5
3D3
100
AcDbEntity
  8
0
100
AcDbCircle
 62
7
  6
CONTINUOUS
 10
13.3994327333
 20
2.4937023128
 40
0.0024749995
100
AcDbArc
 50
179.9999571957
 51
270.0000428043
  0
ARC
  5
3D4
100
AcDbEntity
  8
0
100
AcDbCircle
 62
7
  6
CONTINUOUS
 10
13.1168435803
 20
2.4937023128
 40
0.0024749995
100
AcDbArc
 50
269.9999571957
 51
0.0000428043
  0
ARC
  5
3D5
100
AcDbEntity
  8
0
100
AcDbCircle
 62
7
  6
CONTINUOUS
 10
12.9962575135
 20
2.4937023128
 40
0.0024749995
100
AcDbArc
 50
269.9999571957
 51
0.0000428043
  0
ARC
  5
3D6
100
AcDbEntity
  8
0
100
AcDbCircle
 62
7
  6
CONTINUOUS
 10
12.9205934678
 20
2.4937023128
 40
0.0024749995
100
AcDbArc
 50
179.9999571957
 51
270.0000428043
  0
ARC
  5
3D7
100
AcDbEntity
  8
0
100
AcDbCircle
 62
7
  6
CONTINUOUS
 10
13.370528721
 20
2.4937023128
 40
0.0024749995
100
AcDbArc
 50
269.9999571957
 51
0.0000428043
  0
ARC
  5
3D8
100
AcDbEntity
  8
0
100
AcDbCircle
 62
7
  6
CONTINUOUS
 10
13.1673166046
 20
2.4937023128
 40
0.0024749995
100
AcDbArc
 50
179.9999571957
 51
270.0000428043
  0
ARC
  5
3D9
100
AcDbEntity
  8
0
100
AcDbCircle
 62
7
  6
CONTINUOUS
 10
13.0426374026
 20
2.493701481
 40
0.0024741678
100
AcDbArc
 50
226.3477981898
 51
270.0031206038
  0
ARC
  5
3DA
100
AcDbEntity
  8
0
100
AcDbCircle
 62
7
  6
CONTINUOUS
 10
13.0845012605
 20
2.5358592748
 40
0.0024753014
100
AcDbArc
 50
226.3461263059
 51
0.0014637321
  0
ARC
  5
3DB
100
AcDbEntity
  8
0
100
AcDbCircle
 62
7
  6
CONTINUOUS
 10
12.9759408003
 20
2.5504984093
 40
0.0024753014
100
AcDbArc
 50
46.3461263059
 51
180.0014637321
  0
ARC
  5
3DC
100
AcDbEntity
  8
0
100
AcDbCircle
 62
7
  6
CONTINUOUS
 10
12.9759404985
 20
2.5184523265
 40
0.0024749995
100
AcDbArc
 50
179.9999571957
 51
270.0000428043
  0
ARC
  5
3DD
100
AcDbEntity
  8
0
100
AcDbCircle
 62
7
  6
CONTINUOUS
 10
12.9962575135
 20
2.5135023274
 40
0.0024749995
100
AcDbArc
 50
359.9999571957
 51
90.0000428043
  0
ARC
  5
3DE
100
AcDbEntity
  8
0
100
AcDbCircle
 62
7
  6
CONTINUOUS
 10
12.9205934678
 20
2.5135023274
 40
0.0024749995
100
AcDbArc
 50
89.9999571957
 51
180.0000428042
  0
ARC
  5
3DF
100
AcDbEntity
  8
0
100
AcDbCircle
 62
7
  6
CONTINUOUS
 10
12.9392394818
 20
2.5184523265
 40
0.0024749995
100
AcDbArc
 50
269.9999571957
 51
0.0000428043
  0
ARC
  5
3E0
100
AcDbEntity
  8
0
100
AcDbCircle
 62
7
  6
CONTINUOUS
 10
13.2582556551
 20
2.5300023366
 40
0.0024749995
100
AcDbArc
 50
89.9999571957
 51
180.0000428043
  0
ARC
  5
3E1
100
AcDbEntity
  8
0
100
AcDbCircle
 62
7
  6
CONTINUOUS
 10
13.2582556551
 20
2.5184523265
 40
0.0024749995
100
AcDbArc
 50
179.9999571957
 51
270.0000428043
  0
ARC
  5
3E2
100
AcDbEntity
  8
0
100
AcDbCircle
 62
7
  6
CONTINUOUS
 10
13.1673166046
 20
2.5135023274
 40
0.0024749995
100
AcDbArc
 50
89.9999571957
 51
180.0000428043
  0
ARC
  5
3E3
100
AcDbEntity
  8
0
100
AcDbCircle
 62
7
  6
CONTINUOUS
 10
13.1912396216
 20
2.5184523265
 40
0.0024749995
100
AcDbArc
 50
269.9999571957
 51
0.0000428042
  0
ARC
  5
3E4
100
AcDbEntity
  8
0
100
AcDbCircle
 62
7
  6
CONTINUOUS
 10
13.2582556551
 20
2.5532573458
 40
0.0024749995
100
AcDbArc
 50
179.9999571957
 51
270.0000428043
  0
ARC
  5
3E5
100
AcDbEntity
  8
0
100
AcDbCircle
 62
7
  6
CONTINUOUS
 10
13.0845015624
 20
2.5648073559
 40
0.0024749995
100
AcDbArc
 50
359.9999571957
 51
90.0000428043
  0
ARC
  5
3E6
100
AcDbEntity
  8
0
100
AcDbCircle
 62
7
  6
CONTINUOUS
 10
13.0657255483
 20
2.5697573549
 40
0.0024749995
100
AcDbArc
 50
179.9999571957
 51
270.0000428043
  0
ARC
  5
3E7
100
AcDbEntity
  8
0
100
AcDbCircle
 62
7
  6
CONTINUOUS
 10
13.0657255483
 20
2.5895573696
 40
0.0024749995
100
AcDbArc
 50
89.9999571957
 51
180.0000428043
  0
ARC
  5
3E8
100
AcDbEntity
  8
0
100
AcDbCircle
 62
7
  6
CONTINUOUS
 10
13.139726593
 20
2.5895573696
 40
0.0024749995
100
AcDbArc
 50
359.9999571957
 51
90.0000428043
  0
ARC
  5
3E9
100
AcDbEntity
  8
0
100
AcDbCircle
 62
7
  6
CONTINUOUS
 10
13.139726593
 20
2.5697573549
 40
0.0024749995
100
AcDbArc
 50
269.9999571957
 51
0.0000428042
  0
ARC
  5
3EA
100
AcDbEntity
  8
0
100
AcDbCircle
 62
7
  6
CONTINUOUS
 10
13.1217935794
 20
2.5648073559
 40
0.0024749995
100
AcDbArc
 50
89.9999571957
 51
180.0000428042
  0
ARC
  5
3EB
100
AcDbEntity
  8
0
100
AcDbCircle
 62
7
  6
CONTINUOUS
 10
12.9392394818
 20
2.5648073559
 40
0.0024749995
100
AcDbArc
 50
359.9999571957
 51
90.0000428043
  0
ARC
  5
3EC
100
AcDbEntity
  8
0
100
AcDbCircle
 62
7
  6
CONTINUOUS
 10
12.9205934678
 20
2.5697573549
 40
0.0024749995
100
AcDbArc
 50
179.9999571957
 51
270.0000428043
  0
ARC
  5
3ED
100
AcDbEntity
  8
0
100
AcDbCircle
 62
7
  6
CONTINUOUS
 10
12.9205934678
 20
2.5895573696
 40
0.0024749995
100
AcDbArc
 50
89.9999571957
 51
180.0000428042
  0
ARC
  5
3EE
100
AcDbEntity
  8
0
100
AcDbCircle
 62
7
  6
CONTINUOUS
 10
13.1912396216
 20
2.5648073559
 40
0.0024749995
100
AcDbArc
 50
359.9999571957
 51
90.0000428043
  0
ARC
  5
3EF
100
AcDbEntity
  8
0
100
AcDbCircle
 62
7
  6
CONTINUOUS
 10
13.1673166046
 20
2.5697573549
 40
0.0024749995
100
AcDbArc
 50
179.9999571957
 51
270.0000428043
  0
ARC
  5
3F0
100
AcDbEntity
  8
0
100
AcDbCircle
 62
7
  6
CONTINUOUS
 10
13.1673166046
 20
2.5895573696
 40
0.0024749995
100
AcDbArc
 50
89.9999571957
 51
180.0000428043
  0
ARC
  5
3F1
100
AcDbEntity
  8
0
100
AcDbCircle
 62
7
  6
CONTINUOUS
 10
13.2582556551
 20
2.5648073559
 40
0.0024749995
100
AcDbArc
 50
89.9999571957
 51
180.0000428043
  0
ARC
  5
3F2
100
AcDbEntity
  8
0
100
AcDbCircle
 62
7
  6
CONTINUOUS
 10
13.0210516601
 20
2.5895582013
 40
0.0024741678
100
AcDbArc
 50
46.3477981899
 51
90.0031206038
  0
ARC
  5
3F3
100
AcDbEntity
  8
0
100
AcDbCircle
 62
7
  6
CONTINUOUS
 10
13.5806801742
 20
2.5212486481
 40
0.044722495
100
AcDbArc
 50
195.531588407
 51
204.7624440448
  0
ARC
  5
3F4
100
AcDbEntity
  8
0
100
AcDbCircle
 62
7
  6
CONTINUOUS
 10
13.5726548052
 20
2.5503169747
 40
0.039319019
100
AcDbArc
 50
59.1202086415
 51
81.4730239328
  0
ARC
  5
3F5
100
AcDbEntity
  8
0
100
AcDbCircle
 62
7
  6
CONTINUOUS
 10
13.5978759713
 20
2.5286873679
 40
0.0383802683
100
AcDbArc
 50
288.7656836787
 51
309.6104317088
  0
ARC
  5
3F6
100
AcDbEntity
  8
0
100
AcDbCircle
 62
7
  6
CONTINUOUS
 10
13.5783142014
 20
2.5566516438
 40
0.0310192946
100
AcDbArc
 50
34.7540871
 51
62.0879016178
  0
ARC
  5
3F7
100
AcDbEntity
  8
0
100
AcDbCircle
 62
7
  6
CONTINUOUS
 10
13.5236009174
 20
2.5388278764
 40
0.0284963867
100
AcDbArc
 50
70.3834917948
 51
86.8922743861
  0
ARC
  5
3F8
100
AcDbEntity
  8
0
100
AcDbCircle
 62
7
  6
CONTINUOUS
 10
13.6048681567
 20
2.5210861501
 40
0.0280715479
100
AcDbArc
 50
308.5071794988
 51
332.24006569
  0
ARC
  5
3F9
100
AcDbEntity
  8
0
100
AcDbCircle
 62
7
  6
CONTINUOUS
 10
13.5750183849
 20
2.5166552064
 40
0.0266349791
100
AcDbArc
 50
20.3630922153
 51
37.9727053099
  0
ARC
  5
3FA
100
AcDbEntity
  8
0
100
AcDbCircle
 62
7
  6
CONTINUOUS
 10
13.5761387404
 20
2.5167282896
 40
0.0257145923
100
AcDbArc
 50
39.3804255939
 51
59.0361096173
  0
ARC
  5
3FB
100
AcDbEntity
  8
0
100
AcDbCircle
 62
7
  6
CONTINUOUS
 10
13.5607987082
 20
2.5143997688
 40
0.0238935861
100
AcDbArc
 50
209.8247607259
 51
235.1255079367
  0
ARC
  5
3FC
100
AcDbEntity
  8
0
100
AcDbCircle
 62
7
  6
CONTINUOUS
 10
13.6141751675
 20
2.5161916447
 40
0.0175560065
100
AcDbArc
 50
332.2279060967
 51
359.6595469939
  0
ARC
  5
3FD
100
AcDbEntity
  8
0
100
AcDbCircle
 62
7
  6
CONTINUOUS
 10
13.5201739219
 20
2.5145168728
 40
0.0151491919
100
AcDbArc
 50
24.098260853
 51
63.0369451818
  0
ARC
  5
3FE
100
AcDbEntity
  8
0
100
AcDbCircle
 62
7
  6
CONTINUOUS
 10
13.6156881783
 20
2.525116781
 40
0.0147197649
100
AcDbArc
 50
192.7054516565
 51
206.0594861022
  0
ARC
  5
3FF
100
AcDbEntity
  8
0
100
AcDbCircle
 62
7
  6
CONTINUOUS
 10
13.5284605274
 20
2.5518696094
 40
0.0145814632
100
AcDbArc
 50
54.6746025112
 51
71.1660573124
  0
ARC
  5
400
100
AcDbEntity
  8
0
100
AcDbCircle
 62
7
  6
CONTINUOUS
 10
13.6063292954
 20
2.5296129864
 40
0.0132488022
100
AcDbArc
 50
270.266200055
 51
281.2404888597
  0
ARC
  5
401
100
AcDbEntity
  8
0
100
AcDbCircle
 62
7
  6
CONTINUOUS
 10
13.6027235414
 20
2.524769508
 40
0.0119498009
100
AcDbArc
 50
340.7883861657
 51
1.1691452593
  0
ARC
  5
402
100
AcDbEntity
  8
0
100
AcDbCircle
 62
7
  6
CONTINUOUS
 10
13.5295131508
 20
2.5629115009
 40
0.0110815393
100
AcDbArc
 50
306.758405961
 51
320.4502234234
  0
ARC
  5
403
100
AcDbEntity
  8
0
100
AcDbCircle
 62
7
  6
CONTINUOUS
 10
13.6075235364
 20
2.5238762928
 40
0.0073895522
100
AcDbArc
 50
280.8288201977
 51
305.0837508495
  0
ARC
  5
404
100
AcDbEntity
  8
0
100
AcDbCircle
 62
7
  6
CONTINUOUS
 10
13.607924718
 20
2.5230254464
 40
0.0064647042
100
AcDbArc
 50
306.5086174083
 51
340.2162360092
  0
ARC
  5
405
100
AcDbEntity
  8
0
100
AcDbCircle
 62
7
  6
CONTINUOUS
 10
13.5335900184
 20
2.5587235346
 40
0.0060275915
100
AcDbArc
 50
20.9055592135
 51
56.7851676243
  0
ARC
  5
406
100
AcDbEntity
  8
0
100
AcDbCircle
 62
7
  6
CONTINUOUS
 10
13.533683767
 20
2.559677593
 40
0.0058087709
100
AcDbArc
 50
318.8515287446
 51
353.6422345323
  0
ARC
  5
407
100
AcDbEntity
  8
0
100
AcDbCircle
 62
7
  6
CONTINUOUS
 10
13.6071938412
 20
2.5209082945
 40
0.0052403997
100
AcDbArc
 50
205.5232099488
 51
227.5054868079
  0
ARC
  5
408
100
AcDbEntity
  8
0
100
AcDbCircle
 62
7
  6
CONTINUOUS
 10
13.5348905773
 20
2.5593838168
 40
0.0045795888
100
AcDbArc
 50
355.6235353944
 51
18.9942678268
  0
ARC
  5
409
100
AcDbEntity
  8
0
100
AcDbCircle
 62
7
  6
CONTINUOUS
 10
13.6054655419
 20
2.5190929218
 40
0.0027347709
100
AcDbArc
 50
228.5117626737
 51
266.1485845754
  0
ARC
  5
40A
100
AcDbEntity
  8
0
100
AcDbCircle
 62
7
  6
CONTINUOUS
 10
13.4883447827
 20
2.5281293355
 40
0.0024749995
100
AcDbArc
 50
89.9999571957
 51
180.0000428043
  0
ARC
  5
40B
100
AcDbEntity
  8
0
100
AcDbCircle
 62
7
  6
CONTINUOUS
 10
13.4883447827
 20
2.5184303265
 40
0.0024749995
100
AcDbArc
 50
179.9999571957
 51
270.0000428043
  0
ARC
  5
40C
100
AcDbEntity
  8
0
100
AcDbCircle
 62
7
  6
CONTINUOUS
 10
13.5130038
 20
2.5134803274
 40
0.0024749995
100
AcDbArc
 50
359.9999571957
 51
90.0000428043
  0
ARC
  5
40D
100
AcDbEntity
  8
0
100
AcDbCircle
 62
7
  6
CONTINUOUS
 10
13.3994327333
 20
2.5135023274
 40
0.0024749995
100
AcDbArc
 50
89.9999571957
 51
180.0000428043
  0
ARC
  5
40E
100
AcDbEntity
  8
0
100
AcDbCircle
 62
7
  6
CONTINUOUS
 10
13.4221787497
 20
2.5184523265
 40
0.0024749995
100
AcDbArc
 50
269.9999571957
 51
0.0000428042
  0
ARC
  5
40F
100
AcDbEntity
  8
0
100
AcDbCircle
 62
7
  6
CONTINUOUS
 10
13.6171458541
 20
2.5276393353
 40
0.0024749995
100
AcDbArc
 50
89.9999571957
 51
180.0000428043
  0
ARC
  5
410
100
AcDbEntity
  8
0
100
AcDbCircle
 62
7
  6
CONTINUOUS
 10
13.6292558645
 20
2.5276393353
 40
0.0024749995
100
AcDbArc
 50
359.9999571957
 51
90.0000428043
  0
ARC
  5
411
100
AcDbEntity
  8
0
100
AcDbCircle
 62
7
  6
CONTINUOUS
 10
13.4883447827
 20
2.5520823451
 40
0.0024749995
100
AcDbArc
 50
179.9999571957
 51
270.0000428043
  0
ARC
  5
412
100
AcDbEntity
  8
0
100
AcDbCircle
 62
7
  6
CONTINUOUS
 10
13.3232596948
 20
2.5184523265
 40
0.0024749995
100
AcDbArc
 50
269.9999571957
 51
0.0000428043
  0
ARC
  5
413
100
AcDbEntity
  8
0
100
AcDbCircle
 62
7
  6
CONTINUOUS
 10
13.3282096938
 20
2.5267023348
 40
0.0024749995
100
AcDbArc
 50
89.9999571957
 51
180.0000428043
  0
ARC
  5
414
100
AcDbEntity
  8
0
100
AcDbCircle
 62
7
  6
CONTINUOUS
 10
13.370528721
 20
2.5267023348
 40
0.0024749995
100
AcDbArc
 50
359.9999571957
 51
90.0000428043
  0
ARC
  5
415
100
AcDbEntity
  8
0
100
AcDbCircle
 62
7
  6
CONTINUOUS
 10
13.3691097202
 20
2.5565573476
 40
0.0024749995
100
AcDbArc
 50
269.9999571957
 51
0.0000428042
  0
ARC
  5
416
100
AcDbEntity
  8
0
100
AcDbCircle
 62
7
  6
CONTINUOUS
 10
13.3272456933
 20
2.5565573476
 40
0.0024749995
100
AcDbArc
 50
179.9999571957
 51
270.0000428043
  0
ARC
  5
417
100
AcDbEntity
  8
0
100
AcDbCircle
 62
7
  6
CONTINUOUS
 10
13.2934226783
 20
2.5483073467
 40
0.0024749995
100
AcDbArc
 50
359.9999571957
 51
90.0000428043
  0
ARC
  5
418
100
AcDbEntity
  8
0
100
AcDbCircle
 62
7
  6
CONTINUOUS
 10
13.2934226783
 20
2.5349523356
 40
0.0024749995
100
AcDbArc
 50
269.9999571957
 51
0.0000428042
  0
ARC
  5
419
100
AcDbEntity
  8
0
100
AcDbCircle
 62
7
  6
CONTINUOUS
 10
13.5519569538
 20
2.6152551345
 40
0.0789082104
100
AcDbArc
 50
292.906155071
 51
305.2574666259
  0
ARC
  5
41A
100
AcDbEntity
  8
0
100
AcDbCircle
 62
7
  6
CONTINUOUS
 10
13.5822888914
 20
2.5720482849
 40
0.0261183659
100
AcDbArc
 50
305.6373831893
 51
329.9727629745
  0
ARC
  5
41B
100
AcDbEntity
  8
0
100
AcDbCircle
 62
7
  6
CONTINUOUS
 10
13.5219564542
 20
2.5750459767
 40
0.0254407115
100
AcDbArc
 50
270.7327484175
 51
290.441894219
  0
ARC
  5
41C
100
AcDbEntity
  8
0
100
AcDbCircle
 62
7
  6
CONTINUOUS
 10
13.5238839599
 20
2.5706523294
 40
0.0206523367
100
AcDbArc
 50
289.6883413472
 51
306.4184925496
  0
ARC
  5
41D
100
AcDbEntity
  8
0
100
AcDbCircle
 62
7
  6
CONTINUOUS
 10
13.5900029525
 20
2.565201245
 40
0.0165459396
100
AcDbArc
 50
1.548452892
 51
33.5033152417
  0
ARC
  5
41E
100
AcDbEntity
  8
0
100
AcDbCircle
 62
7
  6
CONTINUOUS
 10
13.5932995477
 20
2.5653696972
 40
0.0132462337
100
AcDbArc
 50
331.1510006998
 51
1.205404301
  0
ARC
  5
41F
100
AcDbEntity
  8
0
100
AcDbCircle
 62
7
  6
CONTINUOUS
 10
13.4221787497
 20
2.5648073559
 40
0.0024749995
100
AcDbArc
 50
359.9999571957
 51
90.0000428043
  0
ARC
  5
420
100
AcDbEntity
  8
0
100
AcDbCircle
 62
7
  6
CONTINUOUS
 10
13.3994327333
 20
2.5697573549
 40
0.0024749995
100
AcDbArc
 50
179.9999571957
 51
270.0000428043
  0
ARC
  5
421
100
AcDbEntity
  8
0
100
AcDbCircle
 62
7
  6
CONTINUOUS
 10
13.3994327333
 20
2.5895573696
 40
0.0024749995
100
AcDbArc
 50
89.9999571957
 51
180.0000428043
  0
ARC
  5
422
100
AcDbEntity
  8
0
100
AcDbCircle
 62
7
  6
CONTINUOUS
 10
13.4883447827
 20
2.5648073559
 40
0.0024749995
100
AcDbArc
 50
89.9999571957
 51
180.0000428043
  0
ARC
  5
423
100
AcDbEntity
  8
0
100
AcDbCircle
 62
7
  6
CONTINUOUS
 10
13.3691097202
 20
2.5895573696
 40
0.0024749995
100
AcDbArc
 50
359.9999571957
 51
90.0000428043
  0
ARC
  5
424
100
AcDbEntity
  8
0
100
AcDbCircle
 62
7
  6
CONTINUOUS
 10
13.3222956943
 20
2.5648073559
 40
0.0024749995
100
AcDbArc
 50
359.9999571957
 51
90.0000428043
  0
ELLIPSE
  5
425
100
AcDbEntity
  8
0
100
AcDbEllipse
 62
7
  6
CONTINUOUS
 10
12.9046654608
 20
2.5403783405
 30
0.0
 11
-0.8250004575
 21
0.0
 31
0.0
 40
0.218572
 41
0.0
 42
6.2831853072
  0
HATCH
  5
426
100
AcDbEntity
  8
0
100
AcDbHatch
 62
7
  6
CONTINUOUS
 10
0.0
 20
0.0
 30
0.0
210
0.0
220
0.0
230
1.0
  2
XSEC0001
 70
1
 71
1
 91
11
 92
1
 93
57
 72
2
 10
13.5577001432
 20
2.5085494649
 40
0.0173408616
 50
232.4713476722
 51
267.338189944
 73
1
 72
2
 10
13.5607987082
 20
2.5143997688
 40
0.0238935861
 50
209.8247607259
 51
235.1255079367
 73
1
 72
2
 10
13.5806801742
 20
2.5212486481
 40
0.044722495
 50
195.531588407
 51
204.7624440448
 73
1
 72
1
 10
13.5375908118
 20
2.5092733232
 11
13.5357868108
 21
2.5153423266
 72
2
 10
13.4974076135
 20
2.5055452462
 40
0.0396099176
 50
14.3201081283
 51
22.4984722084
 73
1
 72
2
 10
13.5201739219
 20
2.5145168728
 40
0.0151491919
 50
24.098260853
 51
63.0369451818
 73
1
 72
2
 10
13.5161192671
 20
2.5062372524
 40
0.0243676582
 50
63.3666028271
 51
90.3937697637
 73
1
 72
1
 10
13.5159517998
 20
2.5306043351
 11
13.4883447845
 21
2.5306043351
 72
2
 10
13.4883447827
 20
2.5281293355
 40
0.0024749995
 50
89.9999571958
 51
180.0000428043
 73
1
 72
1
 10
13.4858697831
 20
2.5281293337
 11
13.4858697831
 21
2.5184303283
 72
2
 10
13.4883447827
 20
2.5184303265
 40
0.0024749995
 50
179.9999571957
 51
270.0000428042
 73
1
 72
1
 10
13.4883447845
 20
2.5159553269
 11
13.5130037982
 21
2.5159553269
 72
2
 10
13.5130038
 20
2.5134803274
 40
0.0024749995
 50
359.9999571957
 51
90.0000428042
 73
1
 72
1
 10
13.5154787995
 20
2.5134803256
 11
13.5154787995
 21
2.4937023146
 72
2
 10
13.5130038
 20
2.4937023128
 40
0.0024749995
 50
269.9999571958
 51
0.0000428043
 73
1
 72
1
 10
13.5130037982
 20
2.4912273132
 11
13.3994327352
 21
2.4912273132
 72
2
 10
13.3994327333
 20
2.4937023128
 40
0.0024749995
 50
179.9999571957
 51
270.0000428043
 73
1
 72
1
 10
13.3969577338
 20
2.4937023146
 11
13.3969577338
 21
2.5135023256
 72
2
 10
13.3994327333
 20
2.5135023274
 40
0.0024749995
 50
89.9999571957
 51
180.0000428043
 73
1
 72
1
 10
13.3994327352
 20
2.515977327
 11
13.4221787478
 21
2.515977327
 72
2
 10
13.4221787497
 20
2.5184523265
 40
0.0024749995
 50
269.9999571956
 51
0.0000428042
 73
1
 72
1
 10
13.4246537492
 20
2.5184523283
 11
13.4246537492
 21
2.564807354
 72
2
 10
13.4221787497
 20
2.5648073559
 40
0.0024749995
 50
359.9999571957
 51
90.0000428043
 73
1
 72
1
 10
13.4221787478
 20
2.5672823554
 11
13.3994327352
 21
2.5672823554
 72
2
 10
13.3994327333
 20
2.5697573549
 40
0.0024749995
 50
179.9999571957
 51
270.0000428043
 73
1
 72
1
 10
13.3969577338
 20
2.5697573568
 11
13.3969577338
 21
2.5895573678
 72
2
 10
13.3994327333
 20
2.5895573696
 40
0.0024749995
 50
89.9999571957
 51
180.0000428043
 73
1
 72
1
 10
13.3994327352
 20
2.5920323691
 11
13.5490138181
 21
2.5920323691
 72
2
 10
13.5463505148
 20
2.4094934586
 40
0.1825583387
 50
79.8618509324
 51
89.1640948679
 73
1
 72
2
 10
13.5726548052
 20
2.5503169747
 40
0.039319019
 50
59.1202086415
 51
81.4730239328
 73
1
 72
2
 10
13.5783142014
 20
2.5566516438
 40
0.0310192946
 50
34.7540871
 51
62.0879016178
 73
1
 72
2
 10
13.5900029525
 20
2.565201245
 40
0.0165459396
 50
1.548452892
 51
33.5033152417
 73
1
 72
2
 10
13.5932995477
 20
2.5653696972
 40
0.0132462337
 50
331.1510006998
 51
1.205404301
 73
1
 72
2
 10
13.5822888914
 20
2.5720482849
 40
0.0261183659
 50
305.6373831893
 51
329.9727629745
 73
1
 72
2
 10
13.5519569538
 20
2.6152551345
 40
0.0789082104
 50
292.906155071
 51
305.2574666259
 73
1
 72
2
 10
13.5282557878
 20
2.4386010294
 40
0.117346916
 50
58.614769177
 51
62.3737227606
 73
1
 72
2
 10
13.5761387404
 20
2.5167282896
 40
0.0257145923
 50
39.3804255939
 51
59.0361096173
 73
1
 72
2
 10
13.5750183849
 20
2.5166552064
 40
0.0266349791
 50
20.3630922153
 51
37.9727053099
 73
1
 72
2
 10
13.5571178432
 20
2.509473798
 40
0.0459185159
 50
15.6740290068
 51
20.9917271228
 73
1
 72
2
 10
13.6156881783
 20
2.525116781
 40
0.0147197649
 50
192.7054516565
 51
206.0594861022
 73
1
 72
2
 10
13.6071938412
 20
2.5209082945
 40
0.0052403997
 50
205.5232099488
 51
227.5054868079
 73
1
 72
2
 10
13.6054655419
 20
2.5190929218
 40
0.0027347709
 50
228.5117626737
 51
266.1485845754
 73
1
 72
1
 10
13.6052818493
 20
2.5163643272
 11
13.60639085
 21
2.5163643272
 72
2
 10
13.6063292954
 20
2.5296129864
 40
0.0132488022
 50
270.266200055
 51
281.2404888597
 73
1
 72
2
 10
13.6075235364
 20
2.5238762928
 40
0.0073895522
 50
280.8288201977
 51
305.0837508495
 73
1
 72
2
 10
13.607924718
 20
2.5230254464
 40
0.0064647042
 50
306.5086174083
 51
340.2162360092
 73
1
 72
2
 10
13.6027235414
 20
2.524769508
 40
0.0119498009
 50
340.7883861657
 51
1.1691452593
 73
1
 72
1
 10
13.6146708546
 20
2.525013332
 11
13.6146708546
 21
2.5276393334
 72
2
 10
13.6171458541
 20
2.5276393353
 40
0.0024749995
 50
89.9999571958
 51
180.0000428043
 73
1
 72
1
 10
13.6171458559
 20
2.5301143348
 11
13.6292558626
 21
2.5301143348
 72
2
 10
13.6292558645
 20
2.5276393353
 40
0.0024749995
 50
359.9999571957
 51
90.0000428042
 73
1
 72
1
 10
13.631730864
 20
2.5276393334
 11
13.631730864
 21
2.516087327
 72
2
 10
13.6141751675
 20
2.5161916447
 40
0.0175560065
 50
332.2279060967
 51
359.6595469939
 73
1
 72
2
 10
13.6048681567
 20
2.5210861501
 40
0.0280715479
 50
308.5071794988
 51
332.2400656899
 73
1
 72
2
 10
13.5978759713
 20
2.5286873679
 40
0.0383802683
 50
288.7656836787
 51
309.6104317088
 73
1
 72
2
 10
13.6036139387
 20
2.5111006186
 40
0.0198837666
 50
271.8586572978
 51
289.4131338543
 73
1
 72
1
 10
13.6042588488
 20
2.4912273132
 11
13.5568948225
 21
2.4912273132
 97
267
330
31B
330
31C
330
31D
330
31E
330
31F
330
320
330
321
330
322
330
323
330
324
330
325
330
326
330
327
330
328
330
329
330
32A
330
32B
330
32C
330
32D
330
32E
330
32F
330
330
330
331
330
332
330
333
330
334
330
335
330
336
330
337
330
338
330
339
330
33A
330
33B
330
33C
330
33D
330
33E
330
33F
330
340
330
341
330
342
330
343
330
344
330
345
330
346
330
347
330
348
330
349
330
34A
330
34B
330
34C
330
34D
330
34E
330
34F
330
350
330
351
330
352
330
353
330
354
330
355
330
356
330
357
330
358
330
359
330
35A
330
35B
330
35C
330
35D
330
35E
330
35F
330
360
330
361
330
362
330
363
330
364
330
365
330
366
330
367
330
368
330
369
330
36A
330
36B
330
36C
330
36D
330
36E
330
36F
330
370
330
371
330
372
330
373
330
374
330
375
330
376
330
377
330
378
330
379
330
37A
330
37B
330
37C
330
37D
330
37E
330
37F
330
380
330
381
330
382
330
383
330
384
330
385
330
386
330
387
330
388
330
389
330
38A
330
38B
330
38C
330
38D
330
38E
330
38F
330
390
330
391
330
392
330
393
330
394
330
395
330
396
330
397
330
398
330
399
330
39A
330
39B
330
39C
330
39D
330
39E
330
39F
330
3A0
330
3A1
330
3A2
330
3A3
330
3A4
330
3A5
330
3A6
330
3A7
330
3A8
330
3A9
330
3AA
330
3AB
330
3AC
330
3AD
330
3AE
330
3AF
330
3B0
330
3B1
330
3B2
330
3B3
330
3B4
330
3B5
330
3B6
330
3B7
330
3B8
330
3B9
330
3BA
330
3BB
330
3BC
330
3BD
330
3BE
330
3BF
330
3C0
330
3C1
330
3C2
330
3C3
330
3C4
330
3C5
330
3C6
330
3C7
330
3C8
330
3C9
330
3CA
330
3CB
330
3CC
330
3CD
330
3CE
330
3CF
330
3D0
330
3D1
330
3D2
330
3D3
330
3D4
330
3D5
330
3D6
330
3D7
330
3D8
330
3D9
330
3DA
330
3DB
330
3DC
330
3DD
330
3DE
330
3DF
330
3E0
330
3E1
330
3E2
330
3E3
330
3E4
330
3E5
330
3E6
330
3E7
330
3E8
330
3E9
330
3EA
330
3EB
330
3EC
330
3ED
330
3EE
330
3EF
330
3F0
330
3F1
330
3F2
330
3F3
330
3F4
330
3F5
330
3F6
330
3F7
330
3F8
330
3F9
330
3FA
330
3FB
330
3FC
330
3FD
330
3FE
330
3FF
330
400
330
401
330
402
330
403
330
404
330
405
330
406
330
407
330
408
330
409
330
40A
330
40B
330
40C
330
40D
330
40E
330
40F
330
410
330
411
330
412
330
413
330
414
330
415
330
416
330
417
330
418
330
419
330
41A
330
41B
330
41C
330
41D
330
41E
330
41F
330
420
330
421
330
422
330
423
330
424
330
425
 92
1
 93
40
 72
2
 10
13.1673166046
 20
2.4937023128
 40
0.0024749995
 50
179.9999571957
 51
270.0000428042
 73
1
 72
1
 10
13.1648416051
 20
2.4937023146
 11
13.1648416051
 21
2.5135023256
 72
2
 10
13.1673166046
 20
2.5135023274
 40
0.0024749995
 50
89.9999571958
 51
180.0000428043
 73
1
 72
1
 10
13.1673166065
 20
2.515977327
 11
13.1912396197
 21
2.515977327
 72
2
 10
13.1912396216
 20
2.5184523265
 40
0.0024749995
 50
269.9999571956
 51
0.0000428042
 73
1
 72
1
 10
13.1937146211
 20
2.5184523283
 11
13.1937146211
 21
2.564807354
 72
2
 10
13.1912396216
 20
2.5648073559
 40
0.0024749995
 50
359.9999571957
 51
90.0000428043
 73
1
 72
1
 10
13.1912396197
 20
2.5672823554
 11
13.1673166065
 21
2.5672823554
 72
2
 10
13.1673166046
 20
2.5697573549
 40
0.0024749995
 50
179.9999571957
 51
270.0000428043
 73
1
 72
1
 10
13.1648416051
 20
2.5697573568
 11
13.1648416051
 21
2.5895573678
 72
2
 10
13.1673166046
 20
2.5895573696
 40
0.0024749995
 50
89.9999571958
 51
180.0000428043
 73
1
 72
1
 10
13.1673166065
 20
2.5920323691
 11
13.3691097184
 21
2.5920323691
 72
2
 10
13.3691097202
 20
2.5895573696
 40
0.0024749995
 50
359.9999571957
 51
90.0000428042
 73
1
 72
1
 10
13.3715847197
 20
2.5895573678
 11
13.3715847197
 21
2.5565573495
 72
2
 10
13.3691097202
 20
2.5565573476
 40
0.0024749995
 50
269.9999571956
 51
0.0000428042
 73
1
 72
1
 10
13.3691097184
 20
2.5540823481
 11
13.3272456952
 21
2.5540823481
 72
2
 10
13.3272456933
 20
2.5565573476
 40
0.0024749995
 50
179.9999571957
 51
270.0000428043
 73
1
 72
1
 10
13.3247706938
 20
2.5565573495
 11
13.3247706938
 21
2.564807354
 72
2
 10
13.3222956943
 20
2.5648073559
 40
0.0024749995
 50
359.9999571957
 51
90.0000428043
 73
1
 72
1
 10
13.3222956924
 20
2.5672823554
 11
13.2582556569
 21
2.5672823554
 72
2
 10
13.2582556551
 20
2.5648073559
 40
0.0024749995
 50
89.9999571957
 51
180.0000428043
 73
1
 72
1
 10
13.2557806555
 20
2.564807354
 11
13.2557806555
 21
2.5532573476
 72
2
 10
13.2582556551
 20
2.5532573458
 40
0.0024749995
 50
179.9999571957
 51
270.0000428042
 73
1
 72
1
 10
13.2582556569
 20
2.5507823463
 11
13.2934226764
 21
2.5507823463
 72
2
 10
13.2934226783
 20
2.5483073467
 40
0.0024749995
 50
359.9999571957
 51
90.0000428042
 73
1
 72
1
 10
13.2958976778
 20
2.5483073449
 11
13.2958976778
 21
2.5349523375
 72
2
 10
13.2934226783
 20
2.5349523356
 40
0.0024749995
 50
269.9999571956
 51
0.0000428042
 73
1
 72
1
 10
13.2934226764
 20
2.5324773361
 11
13.2582556569
 21
2.5324773361
 72
2
 10
13.2582556551
 20
2.5300023366
 40
0.0024749995
 50
89.9999571957
 51
180.0000428043
 73
1
 72
1
 10
13.2557806555
 20
2.5300023347
 11
13.2557806555
 21
2.5184523283
 72
2
 10
13.2582556551
 20
2.5184523265
 40
0.0024749995
 50
179.9999571957
 51
270.0000428043
 73
1
 72
1
 10
13.2582556569
 20
2.515977327
 11
13.3232596929
 21
2.515977327
 72
2
 10
13.3232596948
 20
2.5184523265
 40
0.0024749995
 50
269.9999571958
 51
0.0000428043
 73
1
 72
1
 10
13.3257346943
 20
2.5184523283
 11
13.3257346943
 21
2.5267023329
 72
2
 10
13.3282096938
 20
2.5267023348
 40
0.0024749995
 50
89.9999571957
 51
180.0000428043
 73
1
 72
1
 10
13.3282096957
 20
2.5291773343
 11
13.3705287192
 21
2.5291773343
 72
2
 10
13.370528721
 20
2.5267023348
 40
0.0024749995
 50
359.9999571957
 51
90.0000428043
 73
1
 72
1
 10
13.3730037205
 20
2.5267023329
 11
13.3730037205
 21
2.4937023146
 72
2
 10
13.370528721
 20
2.4937023128
 40
0.0024749995
 50
269.9999571957
 51
0.0000428043
 73
1
 72
1
 10
13.3705287192
 20
2.4912273132
 11
13.1673166065
 21
2.4912273132
 97
267
330
31B
330
31C
330
31D
330
31E
330
31F
330
320
330
321
330
322
330
323
330
324
330
325
330
326
330
327
330
328
330
329
330
32A
330
32B
330
32C
330
32D
330
32E
330
32F
330
330
330
331
330
332
330
333
330
334
330
335
330
336
330
337
330
338
330
339
330
33A
330
33B
330
33C
330
33D
330
33E
330
33F
330
340
330
341
330
342
330
343
330
344
330
345
330
346
330
347
330
348
330
349
330
34A
330
34B
330
34C
330
34D
330
34E
330
34F
330
350
330
351
330
352
330
353
330
354
330
355
330
356
330
357
330
358
330
359
330
35A
330
35B
330
35C
330
35D
330
35E
330
35F
330
360
330
361
330
362
330
363
330
364
330
365
330
366
330
367
330
368
330
369
330
36A
330
36B
330
36C
330
36D
330
36E
330
36F
330
370
330
371
330
372
330
373
330
374
330
375
330
376
330
377
330
378
330
379
330
37A
330
37B
330
37C
330
37D
330
37E
330
37F
330
380
330
381
330
382
330
383
330
384
330
385
330
386
330
387
330
388
330
389
330
38A
330
38B
330
38C
330
38D
330
38E
330
38F
330
390
330
391
330
392
330
393
330
394
330
395
330
396
330
397
330
398
330
399
330
39A
330
39B
330
39C
330
39D
330
39E
330
39F
330
3A0
330
3A1
330
3A2
330
3A3
330
3A4
330
3A5
330
3A6
330
3A7
330
3A8
330
3A9
330
3AA
330
3AB
330
3AC
330
3AD
330
3AE
330
3AF
330
3B0
330
3B1
330
3B2
330
3B3
330
3B4
330
3B5
330
3B6
330
3B7
330
3B8
330
3B9
330
3BA
330
3BB
330
3BC
330
3BD
330
3BE
330
3BF
330
3C0
330
3C1
330
3C2
330
3C3
330
3C4
330
3C5
330
3C6
330
3C7
330
3C8
330
3C9
330
3CA
330
3CB
330
3CC
330
3CD
330
3CE
330
3CF
330
3D0
330
3D1
330
3D2
330
3D3
330
3D4
330
3D5
330
3D6
330
3D7
330
3D8
330
3D9
330
3DA
330
3DB
330
3DC
330
3DD
330
3DE
330
3DF
330
3E0
330
3E1
330
3E2
330
3E3
330
3E4
330
3E5
330
3E6
330
3E7
330
3E8
330
3E9
330
3EA
330
3EB
330
3EC
330
3ED
330
3EE
330
3EF
330
3F0
330
3F1
330
3F2
330
3F3
330
3F4
330
3F5
330
3F6
330
3F7
330
3F8
330
3F9
330
3FA
330
3FB
330
3FC
330
3FD
330
3FE
330
3FF
330
400
330
401
330
402
330
403
330
404
330
405
330
406
330
407
330
408
330
409
330
40A
330
40B
330
40C
330
40D
330
40E
330
40F
330
410
330
411
330
412
330
413
330
414
330
415
330
416
330
417
330
418
330
419
330
41A
330
41B
330
41C
330
41D
330
41E
330
41F
330
420
330
421
330
422
330
423
330
424
330
425
 92
1
 93
40
 72
2
 10
13.0426374026
 20
2.493701481
 40
0.0024741678
 50
226.3477981898
 51
270.0031206038
 73
1
 72
1
 10
13.0409295364
 20
2.4919113136
 11
12.9776495013
 21
2.5522893471
 72
2
 10
12.9759408003
 20
2.5504984093
 40
0.0024753014
 50
46.3461263059
 51
180.0014637321
 73
1
 72
1
 10
12.973465499
 20
2.5504983461
 11
12.973465499
 21
2.5184523283
 72
2
 10
12.9759404985
 20
2.5184523265
 40
0.0024749995
 50
179.9999571957
 51
270.0000428043
 73
1
 72
1
 10
12.9759405003
 20
2.515977327
 11
12.9962575116
 21
2.515977327
 72
2
 10
12.9962575135
 20
2.5135023274
 40
0.0024749995
 50
359.9999571957
 51
90.0000428043
 73
1
 72
1
 10
12.998732513
 20
2.5135023256
 11
12.998732513
 21
2.4937023146
 72
2
 10
12.9962575135
 20
2.4937023128
 40
0.0024749995
 50
269.9999571957
 51
0.0000428043
 73
1
 72
1
 10
12.9962575116
 20
2.4912273132
 11
12.9205934696
 21
2.4912273132
 72
2
 10
12.9205934678
 20
2.4937023128
 40
0.0024749995
 50
179.9999571957
 51
270.0000428043
 73
1
 72
1
 10
12.9181184683
 20
2.4937023146
 11
12.9181184683
 21
2.5135023256
 72
2
 10
12.9205934678
 20
2.5135023274
 40
0.0024749995
 50
89.9999571956
 51
180.0000428042
 73
1
 72
1
 10
12.9205934696
 20
2.515977327
 11
12.93923948
 21
2.515977327
 72
2
 10
12.9392394818
 20
2.5184523265
 40
0.0024749995
 50
269.9999571957
 51
0.0000428043
 73
1
 72
1
 10
12.9417144814
 20
2.5184523283
 11
12.9417144814
 21
2.564807354
 72
2
 10
12.9392394818
 20
2.5648073559
 40
0.0024749995
 50
359.9999571957
 51
90.0000428043
 73
1
 72
1
 10
12.93923948
 20
2.5672823554
 11
12.9205934696
 21
2.5672823554
 72
2
 10
12.9205934678
 20
2.5697573549
 40
0.0024749995
 50
179.9999571957
 51
270.0000428043
 73
1
 72
1
 10
12.9181184683
 20
2.5697573568
 11
12.9181184683
 21
2.5895573678
 72
2
 10
12.9205934678
 20
2.5895573696
 40
0.0024749995
 50
89.9999571956
 51
180.0000428042
 73
1
 72
1
 10
12.9205934696
 20
2.5920323691
 11
13.0210515254
 21
2.5920323691
 72
2
 10
13.0210516601
 20
2.5895582013
 40
0.0024741678
 50
46.3477981898
 51
90.0031206038
 73
1
 72
1
 10
13.0227595263
 20
2.5913483688
 11
13.0827925596
 21
2.534068337
 72
2
 10
13.0845012605
 20
2.5358592748
 40
0.0024753014
 50
226.3461263059
 51
0.0014637321
 73
1
 72
1
 10
13.0869765619
 20
2.535859338
 11
13.0869765619
 21
2.564807354
 72
2
 10
13.0845015624
 20
2.5648073559
 40
0.0024749995
 50
359.9999571957
 51
90.0000428043
 73
1
 72
1
 10
13.0845015605
 20
2.5672823554
 11
13.0657255501
 21
2.5672823554
 72
2
 10
13.0657255483
 20
2.5697573549
 40
0.0024749995
 50
179.9999571957
 51
270.0000428043
 73
1
 72
1
 10
13.0632505488
 20
2.5697573568
 11
13.0632505488
 21
2.5895573678
 72
2
 10
13.0657255483
 20
2.5895573696
 40
0.0024749995
 50
89.9999571957
 51
180.0000428043
 73
1
 72
1
 10
13.0657255501
 20
2.5920323691
 11
13.1397265912
 21
2.5920323691
 72
2
 10
13.139726593
 20
2.5895573696
 40
0.0024749995
 50
359.9999571957
 51
90.0000428043
 73
1
 72
1
 10
13.1422015925
 20
2.5895573678
 11
13.1422015925
 21
2.5697573568
 72
2
 10
13.139726593
 20
2.5697573549
 40
0.0024749995
 50
269.9999571956
 51
0.0000428042
 73
1
 72
1
 10
13.1397265912
 20
2.5672823554
 11
13.1217935812
 21
2.5672823554
 72
2
 10
13.1217935794
 20
2.5648073559
 40
0.0024749995
 50
89.9999571957
 51
180.0000428042
 73
1
 72
1
 10
13.1193185799
 20
2.564807354
 11
13.1193185799
 21
2.4937023146
 72
2
 10
13.1168435803
 20
2.4937023128
 40
0.0024749995
 50
269.9999571957
 51
0.0000428043
 73
1
 72
1
 10
13.1168435785
 20
2.4912273132
 11
13.0426375373
 21
2.4912273132
 97
267
330
31B
330
31C
330
31D
330
31E
330
31F
330
320
330
321
330
322
330
323
330
324
330
325
330
326
330
327
330
328
330
329
330
32A
330
32B
330
32C
330
32D
330
32E
330
32F
330
330
330
331
330
332
330
333
330
334
330
335
330
336
330
337
330
338
330
339
330
33A
330
33B
330
33C
330
33D
330
33E
330
33F
330
340
330
341
330
342
330
343
330
344
330
345
330
346
330
347
330
348
330
349
330
34A
330
34B
330
34C
330
34D
330
34E
330
34F
330
350
330
351
330
352
330
353
330
354
330
355
330
356
330
357
330
358
330
359
330
35A
330
35B
330
35C
330
35D
330
35E
330
35F
330
360
330
361
330
362
330
363
330
364
330
365
330
366
330
367
330
368
330
369
330
36A
330
36B
330
36C
330
36D
330
36E
330
36F
330
370
330
371
330
372
330
373
330
374
330
375
330
376
330
377
330
378
330
379
330
37A
330
37B
330
37C
330
37D
330
37E
330
37F
330
380
330
381
330
382
330
383
330
384
330
385
330
386
330
387
330
388
330
389
330
38A
330
38B
330
38C
330
38D
330
38E
330
38F
330
390
330
391
330
392
330
393
330
394
330
395
330
396
330
397
330
398
330
399
330
39A
330
39B
330
39C
330
39D
330
39E
330
39F
330
3A0
330
3A1
330
3A2
330
3A3
330
3A4
330
3A5
330
3A6
330
3A7
330
3A8
330
3A9
330
3AA
330
3AB
330
3AC
330
3AD
330
3AE
330
3AF
330
3B0
330
3B1
330
3B2
330
3B3
330
3B4
330
3B5
330
3B6
330
3B7
330
3B8
330
3B9
330
3BA
330
3BB
330
3BC
330
3BD
330
3BE
330
3BF
330
3C0
330
3C1
330
3C2
330
3C3
330
3C4
330
3C5
330
3C6
330
3C7
330
3C8
330
3C9
330
3CA
330
3CB
330
3CC
330
3CD
330
3CE
330
3CF
330
3D0
330
3D1
330
3D2
330
3D3
330
3D4
330
3D5
330
3D6
330
3D7
330
3D8
330
3D9
330
3DA
330
3DB
330
3DC
330
3DD
330
3DE
330
3DF
330
3E0
330
3E1
330
3E2
330
3E3
330
3E4
330
3E5
330
3E6
330
3E7
330
3E8
330
3E9
330
3EA
330
3EB
330
3EC
330
3ED
330
3EE
330
3EF
330
3F0
330
3F1
330
3F2
330
3F3
330
3F4
330
3F5
330
3F6
330
3F7
330
3F8
330
3F9
330
3FA
330
3FB
330
3FC
330
3FD
330
3FE
330
3FF
330
400
330
401
330
402
330
403
330
404
330
405
330
406
330
407
330
408
330
409
330
40A
330
40B
330
40C
330
40D
330
40E
330
40F
330
410
330
411
330
412
330
413
330
414
330
415
330
416
330
417
330
418
330
419
330
41A
330
41B
330
41C
330
41D
330
41E
330
41F
330
420
330
421
330
422
330
423
330
424
330
425
 92
1
 93
40
 72
2
 10
12.7943847649
 20
2.4937027294
 40
0.0024754162
 50
226.3593695813
 51
270.0146919953
 73
1
 72
1
 10
12.7926763987
 20
2.4919113136
 11
12.7293963636
 21
2.5522893471
 72
2
 10
12.7276876627
 20
2.5504984093
 40
0.0024753014
 50
46.3461263059
 51
180.0014637321
 73
1
 72
1
 10
12.7252123613
 20
2.5504983461
 11
12.7252123613
 21
2.5184523283
 72
2
 10
12.7276873608
 20
2.5184523265
 40
0.0024749995
 50
179.9999571957
 51
270.0000428043
 73
1
 72
1
 10
12.7276873627
 20
2.515977327
 11
12.7480043739
 21
2.515977327
 72
2
 10
12.7480043758
 20
2.5135023274
 40
0.0024749995
 50
359.9999571957
 51
90.0000428043
 73
1
 72
1
 10
12.7504793753
 20
2.5135023256
 11
12.7504793753
 21
2.4937023146
 72
2
 10
12.7480043758
 20
2.4937023128
 40
0.0024749995
 50
269.9999571958
 51
0.0000428043
 73
1
 72
1
 10
12.7480043739
 20
2.4912273132
 11
12.672340332
 21
2.4912273132
 72
2
 10
12.6723403301
 20
2.4937023128
 40
0.0024749995
 50
179.9999571957
 51
270.0000428042
 73
1
 72
1
 10
12.6698653306
 20
2.4937023146
 11
12.6698653306
 21
2.5135023256
 72
2
 10
12.6723403301
 20
2.5135023274
 40
0.0024749995
 50
89.9999571957
 51
180.0000428043
 73
1
 72
1
 10
12.672340332
 20
2.515977327
 11
12.6909873423
 21
2.515977327
 72
2
 10
12.6909873442
 20
2.5184523265
 40
0.0024749995
 50
269.9999571957
 51
0.0000428043
 73
1
 72
1
 10
12.6934623437
 20
2.5184523283
 11
12.6934623437
 21
2.564807354
 72
2
 10
12.6909873442
 20
2.5648073559
 40
0.0024749995
 50
359.9999571957
 51
90.0000428043
 73
1
 72
1
 10
12.6909873423
 20
2.5672823554
 11
12.672340332
 21
2.5672823554
 72
2
 10
12.6723403301
 20
2.5697573549
 40
0.0024749995
 50
179.9999571957
 51
270.0000428043
 73
1
 72
1
 10
12.6698653306
 20
2.5697573568
 11
12.6698653306
 21
2.5895573678
 72
2
 10
12.6723403301
 20
2.5895573696
 40
0.0024749995
 50
89.9999571957
 51
180.0000428043
 73
1
 72
1
 10
12.672340332
 20
2.5920323691
 11
12.7727983877
 21
2.5920323691
 72
2
 10
12.7727985224
 20
2.5895582013
 40
0.0024741678
 50
46.3477981899
 51
90.0031206038
 73
1
 72
1
 10
12.7745063886
 20
2.5913483688
 11
12.8345394219
 21
2.534068337
 72
2
 10
12.8362481229
 20
2.5358592748
 40
0.0024753014
 50
226.3461263059
 51
0.0014637321
 73
1
 72
1
 10
12.8387234242
 20
2.535859338
 11
12.8387234242
 21
2.564807354
 72
2
 10
12.8362484247
 20
2.5648073559
 40
0.0024749995
 50
359.9999571957
 51
90.0000428043
 73
1
 72
1
 10
12.8362484229
 20
2.5672823554
 11
12.8174724125
 21
2.5672823554
 72
2
 10
12.8174724106
 20
2.5697573549
 40
0.0024749995
 50
179.9999571957
 51
270.0000428043
 73
1
 72
1
 10
12.8149974111
 20
2.5697573568
 11
12.8149974111
 21
2.5895573678
 72
2
 10
12.8174724106
 20
2.5895573696
 40
0.0024749995
 50
89.9999571958
 51
180.0000428043
 73
1
 72
1
 10
12.8174724125
 20
2.5920323691
 11
12.8914734535
 21
2.5920323691
 72
2
 10
12.8914734553
 20
2.5895573696
 40
0.0024749995
 50
359.9999571957
 51
90.0000428042
 73
1
 72
1
 10
12.8939484549
 20
2.5895573678
 11
12.8939484549
 21
2.5697573568
 72
2
 10
12.8914734553
 20
2.5697573549
 40
0.0024749995
 50
269.9999571958
 51
0.0000428043
 73
1
 72
1
 10
12.8914734535
 20
2.5672823554
 11
12.8735404436
 21
2.5672823554
 72
2
 10
12.8735404417
 20
2.5648073559
 40
0.0024749995
 50
89.9999571957
 51
180.0000428043
 73
1
 72
1
 10
12.8710654422
 20
2.564807354
 11
12.8710654422
 21
2.4937023146
 72
2
 10
12.8685904427
 20
2.4937023128
 40
0.0024749995
 50
269.9999571957
 51
0.0000428043
 73
1
 72
1
 10
12.8685904408
 20
2.4912273132
 11
12.7943853997
 21
2.4912273132
 97
267
330
31B
330
31C
330
31D
330
31E
330
31F
330
320
330
321
330
322
330
323
330
324
330
325
330
326
330
327
330
328
330
329
330
32A
330
32B
330
32C
330
32D
330
32E
330
32F
330
330
330
331
330
332
330
333
330
334
330
335
330
336
330
337
330
338
330
339
330
33A
330
33B
330
33C
330
33D
330
33E
330
33F
330
340
330
341
330
342
330
343
330
344
330
345
330
346
330
347
330
348
330
349
330
34A
330
34B
330
34C
330
34D
330
34E
330
34F
330
350
330
351
330
352
330
353
330
354
330
355
330
356
330
357
330
358
330
359
330
35A
330
35B
330
35C
330
35D
330
35E
330
35F
330
360
330
361
330
362
330
363
330
364
330
365
330
366
330
367
330
368
330
369
330
36A
330
36B
330
36C
330
36D
330
36E
330
36F
330
370
330
371
330
372
330
373
330
374
330
375
330
376
330
377
330
378
330
379
330
37A
330
37B
330
37C
330
37D
330
37E
330
37F
330
380
330
381
330
382
330
383
330
384
330
385
330
386
330
387
330
388
330
389
330
38A
330
38B
330
38C
330
38D
330
38E
330
38F
330
390
330
391
330
392
330
393
330
394
330
395
330
396
330
397
330
398
330
399
330
39A
330
39B
330
39C
330
39D
330
39E
330
39F
330
3A0
330
3A1
330
3A2
330
3A3
330
3A4
330
3A5
330
3A6
330
3A7
330
3A8
330
3A9
330
3AA
330
3AB
330
3AC
330
3AD
330
3AE
330
3AF
330
3B0
330
3B1
330
3B2
330
3B3
330
3B4
330
3B5
330
3B6
330
3B7
330
3B8
330
3B9
330
3BA
330
3BB
330
3BC
330
3BD
330
3BE
330
3BF
330
3C0
330
3C1
330
3C2
330
3C3
330
3C4
330
3C5
330
3C6
330
3C7
330
3C8
330
3C9
330
3CA
330
3CB
330
3CC
330
3CD
330
3CE
330
3CF
330
3D0
330
3D1
330
3D2
330
3D3
330
3D4
330
3D5
330
3D6
330
3D7
330
3D8
330
3D9
330
3DA
330
3DB
330
3DC
330
3DD
330
3DE
330
3DF
330
3E0
330
3E1
330
3E2
330
3E3
330
3E4
330
3E5
330
3E6
330
3E7
330
3E8
330
3E9
330
3EA
330
3EB
330
3EC
330
3ED
330
3EE
330
3EF
330
3F0
330
3F1
330
3F2
330
3F3
330
3F4
330
3F5
330
3F6
330
3F7
330
3F8
330
3F9
330
3FA
330
3FB
330
3FC
330
3FD
330
3FE
330
3FF
330
400
330
401
330
402
330
403
330
404
330
405
330
406
330
407
330
408
330
409
330
40A
330
40B
330
40C
330
40D
330
40E
330
40F
330
410
330
411
330
412
330
413
330
414
330
415
330
416
330
417
330
418
330
419
330
41A
330
41B
330
41C
330
41D
330
41E
330
41F
330
420
330
421
330
422
330
423
330
424
330
425
 92
1
 93
23
 72
2
 10
12.3792298263
 20
2.539634765
 40
0.048483885
 50
273.21763719
 51
303.0749121182
 73
1
 72
2
 10
12.3940692204
 20
2.5168671561
 40
0.0213072145
 50
303.0488228549
 51
355.7263138674
 73
1
 72
2
 10
12.400005721
 20
2.5168763464
 40
0.0153945295
 50
354.0454548824
 51
5.1878013979
 73
1
 72
2
 10
12.3931760319
 20
2.5166878286
 40
0.0222174455
 50
4.0793399388
 51
69.834329283
 73
1
 72
1
 10
12.4008351814
 20
2.5375433389
 11
12.3907841758
 21
2.5410923409
 72
1
 10
12.3907841758
 20
2.5410923409
 11
12.3990241804
 21
2.5458683435
 72
2
 10
12.3771587979
 20
2.5826952352
 40
0.0428289026
 50
300.6990502959
 51
319.0591802498
 73
1
 72
2
 10
12.3971873948
 20
2.5665668817
 40
0.0171568255
 50
315.9145124245
 51
16.0049121282
 73
1
 72
2
 10
12.3922357827
 20
2.5632132173
 40
0.0229166529
 50
20.6563876465
 51
62.3316896973
 73
1
 72
2
 10
12.371573659
 20
2.5302846524
 40
0.061747717
 50
59.5385584989
 51
90.0050977555
 73
1
 72
1
 10
12.3715681652
 20
2.5920323691
 11
12.2055050731
 21
2.5920323691
 72
2
 10
12.2055050712
 20
2.5895573696
 40
0.0024749995
 50
89.9999571957
 51
180.0000428043
 73
1
 72
1
 10
12.2030300717
 20
2.5895573678
 11
12.2030300717
 21
2.5697573568
 72
2
 10
12.2055050712
 20
2.5697573549
 40
0.0024749995
 50
179.9999571957
 51
270.0000428043
 73
1
 72
1
 10
12.2055050731
 20
2.5672823554
 11
12.2294470864
 21
2.5672823554
 72
2
 10
12.2294470882
 20
2.5648073559
 40
0.0024749995
 50
359.9999571957
 51
90.0000428043
 73
1
 72
1
 10
12.2319220877
 20
2.564807354
 11
12.2319220877
 21
2.5184523283
 72
2
 10
12.2294470882
 20
2.5184523265
 40
0.0024749995
 50
269.9999571957
 51
0.0000428043
 73
1
 72
1
 10
12.2294470864
 20
2.515977327
 11
12.2055050731
 21
2.515977327
 72
2
 10
12.2055050712
 20
2.5135023274
 40
0.0024749995
 50
89.9999571957
 51
180.0000428043
 73
1
 72
1
 10
12.2030300717
 20
2.5135023256
 11
12.2030300717
 21
2.4937023146
 72
2
 10
12.2055050712
 20
2.4937023128
 40
0.0024749995
 50
179.9999571957
 51
270.0000428043
 73
1
 72
1
 10
12.2055050731
 20
2.4912273132
 11
12.3819511709
 21
2.4912273132
 97
267
330
31B
330
31C
330
31D
330
31E
330
31F
330
320
330
321
330
322
330
323
330
324
330
325
330
326
330
327
330
328
330
329
330
32A
330
32B
330
32C
330
32D
330
32E
330
32F
330
330
330
331
330
332
330
333
330
334
330
335
330
336
330
337
330
338
330
339
330
33A
330
33B
330
33C
330
33D
330
33E
330
33F
330
340
330
341
330
342
330
343
330
344
330
345
330
346
330
347
330
348
330
349
330
34A
330
34B
330
34C
330
34D
330
34E
330
34F
330
350
330
351
330
352
330
353
330
354
330
355
330
356
330
357
330
358
330
359
330
35A
330
35B
330
35C
330
35D
330
35E
330
35F
330
360
330
361
330
362
330
363
330
364
330
365
330
366
330
367
330
368
330
369
330
36A
330
36B
330
36C
330
36D
330
36E
330
36F
330
370
330
371
330
372
330
373
330
374
330
375
330
376
330
377
330
378
330
379
330
37A
330
37B
330
37C
330
37D
330
37E
330
37F
330
380
330
381
330
382
330
383
330
384
330
385
330
386
330
387
330
388
330
389
330
38A
330
38B
330
38C
330
38D
330
38E
330
38F
330
390
330
391
330
392
330
393
330
394
330
395
330
396
330
397
330
398
330
399
330
39A
330
39B
330
39C
330
39D
330
39E
330
39F
330
3A0
330
3A1
330
3A2
330
3A3
330
3A4
330
3A5
330
3A6
330
3A7
330
3A8
330
3A9
330
3AA
330
3AB
330
3AC
330
3AD
330
3AE
330
3AF
330
3B0
330
3B1
330
3B2
330
3B3
330
3B4
330
3B5
330
3B6
330
3B7
330
3B8
330
3B9
330
3BA
330
3BB
330
3BC
330
3BD
330
3BE
330
3BF
330
3C0
330
3C1
330
3C2
330
3C3
330
3C4
330
3C5
330
3C6
330
3C7
330
3C8
330
3C9
330
3CA
330
3CB
330
3CC
330
3CD
330
3CE
330
3CF
330
3D0
330
3D1
330
3D2
330
3D3
330
3D4
330
3D5
330
3D6
330
3D7
330
3D8
330
3D9
330
3DA
330
3DB
330
3DC
330
3DD
330
3DE
330
3DF
330
3E0
330
3E1
330
3E2
330
3E3
330
3E4
330
3E5
330
3E6
330
3E7
330
3E8
330
3E9
330
3EA
330
3EB
330
3EC
330
3ED
330
3EE
330
3EF
330
3F0
330
3F1
330
3F2
330
3F3
330
3F4
330
3F5
330
3F6
330
3F7
330
3F8
330
3F9
330
3FA
330
3FB
330
3FC
330
3FD
330
3FE
330
3FF
330
400
330
401
330
402
330
403
330
404
330
405
330
406
330
407
330
408
330
409
330
40A
330
40B
330
40C
330
40D
330
40E
330
40F
330
410
330
411
330
412
330
413
330
414
330
415
330
416
330
417
330
418
330
419
330
41A
330
41B
330
41C
330
41D
330
41E
330
41F
330
420
330
421
330
422
330
423
330
424
330
425
 92
1
 93
32
 72
2
 10
12.5168642476
 20
2.4937023128
 40
0.0024749995
 50
269.9999571957
 51
0.0000428043
 73
1
 72
1
 10
12.5193392471
 20
2.4937023146
 11
12.5193392471
 21
2.5135023256
 72
2
 10
12.5168642476
 20
2.5135023274
 40
0.0024749995
 50
359.9999571957
 51
90.0000428043
 73
1
 72
1
 10
12.5168642458
 20
2.515977327
 11
12.5055812395
 21
2.515977327
 72
2
 10
12.5055811302
 20
2.518452367
 40
0.0024750401
 50
147.6063258011
 51
270.0025305754
 73
1
 72
1
 10
12.5034912383
 20
2.5197783291
 11
12.5090072414
 21
2.5284723339
 72
2
 10
12.5110971723
 20
2.5271461342
 40
0.0024752003
 50
89.998372645
 51
147.602165307
 73
1
 72
1
 10
12.5110972426
 20
2.5296213345
 11
12.5459752619
 21
2.5296213345
 72
2
 10
12.5459747223
 20
2.5271458744
 40
0.0024754602
 50
32.8959418573
 51
89.9875097202
 73
1
 72
1
 10
12.548053263
 20
2.5284903339
 11
12.5536792662
 21
2.5197973291
 72
2
 10
12.5516012439
 20
2.5184525341
 40
0.0024752071
 50
270.0004896794
 51
32.9089806818
 73
1
 72
1
 10
12.551601265
 20
2.515977327
 11
12.537150257
 21
2.515977327
 72
2
 10
12.5371502552
 20
2.5135023274
 40
0.0024749995
 50
89.9999571958
 51
180.0000428043
 73
1
 72
1
 10
12.5346752556
 20
2.5135023256
 11
12.5346752556
 21
2.4937023146
 72
2
 10
12.5371502552
 20
2.4937023128
 40
0.0024749995
 50
179.9999571957
 51
270.0000428042
 73
1
 72
1
 10
12.537150257
 20
2.4912273132
 11
12.6424313154
 21
2.4912273132
 72
2
 10
12.6424313172
 20
2.4937023128
 40
0.0024749995
 50
269.9999571957
 51
0.0000428043
 73
1
 72
1
 10
12.6449063168
 20
2.4937023146
 11
12.6449063168
 21
2.5135023256
 72
2
 10
12.6424313172
 20
2.5135023274
 40
0.0024749995
 50
359.9999571957
 51
90.0000428043
 73
1
 72
1
 10
12.6424313154
 20
2.515977327
 11
12.6224153043
 21
2.515977327
 72
2
 10
12.6224154248
 20
2.518451368
 40
0.002474041
 50
212.9056413127
 51
269.9972091756
 73
1
 72
1
 10
12.6203383031
 20
2.5171073276
 11
12.5725822767
 21
2.5909023685
 72
2
 10
12.570504655
 20
2.589557409
 40
0.0024749602
 50
32.9172174468
 51
90.0087853097
 73
1
 72
1
 10
12.5705042755
 20
2.5920323691
 11
12.5133292438
 21
2.5920323691
 72
2
 10
12.5133291735
 20
2.5895571688
 40
0.0024752003
 50
89.9983726451
 51
147.602165307
 73
1
 72
1
 10
12.5112392426
 20
2.5908833685
 11
12.4644392167
 21
2.5171263276
 72
2
 10
12.4623492858
 20
2.5184525273
 40
0.0024752003
 50
269.9983726451
 51
327.602165307
 73
1
 72
1
 10
12.4623492155
 20
2.515977327
 11
12.4394882028
 21
2.515977327
 72
2
 10
12.439488201
 20
2.5135023274
 40
0.0024749995
 50
89.9999571958
 51
180.0000428043
 73
1
 72
1
 10
12.4370132015
 20
2.5135023256
 11
12.4370132015
 21
2.4937023146
 72
2
 10
12.439488201
 20
2.4937023128
 40
0.0024749995
 50
179.9999571957
 51
270.0000428042
 73
1
 72
1
 10
12.4394882028
 20
2.4912273132
 11
12.5168642458
 21
2.4912273132
 97
267
330
31B
330
31C
330
31D
330
31E
330
31F
330
320
330
321
330
322
330
323
330
324
330
325
330
326
330
327
330
328
330
329
330
32A
330
32B
330
32C
330
32D
330
32E
330
32F
330
330
330
331
330
332
330
333
330
334
330
335
330
336
330
337
330
338
330
339
330
33A
330
33B
330
33C
330
33D
330
33E
330
33F
330
340
330
341
330
342
330
343
330
344
330
345
330
346
330
347
330
348
330
349
330
34A
330
34B
330
34C
330
34D
330
34E
330
34F
330
350
330
351
330
352
330
353
330
354
330
355
330
356
330
357
330
358
330
359
330
35A
330
35B
330
35C
330
35D
330
35E
330
35F
330
360
330
361
330
362
330
363
330
364
330
365
330
366
330
367
330
368
330
369
330
36A
330
36B
330
36C
330
36D
330
36E
330
36F
330
370
330
371
330
372
330
373
330
374
330
375
330
376
330
377
330
378
330
379
330
37A
330
37B
330
37C
330
37D
330
37E
330
37F
330
380
330
381
330
382
330
383
330
384
330
385
330
386
330
387
330
388
330
389
330
38A
330
38B
330
38C
330
38D
330
38E
330
38F
330
390
330
391
330
392
330
393
330
394
330
395
330
396
330
397
330
398
330
399
330
39A
330
39B
330
39C
330
39D
330
39E
330
39F
330
3A0
330
3A1
330
3A2
330
3A3
330
3A4
330
3A5
330
3A6
330
3A7
330
3A8
330
3A9
330
3AA
330
3AB
330
3AC
330
3AD
330
3AE
330
3AF
330
3B0
330
3B1
330
3B2
330
3B3
330
3B4
330
3B5
330
3B6
330
3B7
330
3B8
330
3B9
330
3BA
330
3BB
330
3BC
330
3BD
330
3BE
330
3BF
330
3C0
330
3C1
330
3C2
330
3C3
330
3C4
330
3C5
330
3C6
330
3C7
330
3C8
330
3C9
330
3CA
330
3CB
330
3CC
330
3CD
330
3CE
330
3CF
330
3D0
330
3D1
330
3D2
330
3D3
330
3D4
330
3D5
330
3D6
330
3D7
330
3D8
330
3D9
330
3DA
330
3DB
330
3DC
330
3DD
330
3DE
330
3DF
330
3E0
330
3E1
330
3E2
330
3E3
330
3E4
330
3E5
330
3E6
330
3E7
330
3E8
330
3E9
330
3EA
330
3EB
330
3EC
330
3ED
330
3EE
330
3EF
330
3F0
330
3F1
330
3F2
330
3F3
330
3F4
330
3F5
330
3F6
330
3F7
330
3F8
330
3F9
330
3FA
330
3FB
330
3FC
330
3FD
330
3FE
330
3FF
330
400
330
401
330
402
330
403
330
404
330
405
330
406
330
407
330
408
330
409
330
40A
330
40B
330
40C
330
40D
330
40E
330
40F
330
410
330
411
330
412
330
413
330
414
330
415
330
416
330
417
330
418
330
419
330
41A
330
41B
330
41C
330
41D
330
41E
330
41F
330
420
330
421
330
422
330
423
330
424
330
425
 92
1
 93
6
 72
2
 10
12.2949101208
 20
2.5184523265
 40
0.0024749995
 50
179.9999571957
 51
270.0000428043
 73
1
 72
1
 10
12.2924351213
 20
2.5184523283
 11
12.2924351213
 21
2.5308273352
 72
2
 10
12.2949101208
 20
2.530827337
 40
0.0024749995
 50
89.9999571957
 51
180.0000428043
 73
1
 72
1
 10
12.2949101227
 20
2.5333023366
 11
12.3362731456
 21
2.5333023366
 72
2
 10
12.3362731456
 20
2.5246398318
 40
0.0086625048
 50
270.0
 51
90.0
 73
1
 72
1
 10
12.3362731456
 20
2.515977327
 11
12.2949101227
 21
2.515977327
 97
267
330
31B
330
31C
330
31D
330
31E
330
31F
330
320
330
321
330
322
330
323
330
324
330
325
330
326
330
327
330
328
330
329
330
32A
330
32B
330
32C
330
32D
330
32E
330
32F
330
330
330
331
330
332
330
333
330
334
330
335
330
336
330
337
330
338
330
339
330
33A
330
33B
330
33C
330
33D
330
33E
330
33F
330
340
330
341
330
342
330
343
330
344
330
345
330
346
330
347
330
348
330
349
330
34A
330
34B
330
34C
330
34D
330
34E
330
34F
330
350
330
351
330
352
330
353
330
354
330
355
330
356
330
357
330
358
330
359
330
35A
330
35B
330
35C
330
35D
330
35E
330
35F
330
360
330
361
330
362
330
363
330
364
330
365
330
366
330
367
330
368
330
369
330
36A
330
36B
330
36C
330
36D
330
36E
330
36F
330
370
330
371
330
372
330
373
330
374
330
375
330
376
330
377
330
378
330
379
330
37A
330
37B
330
37C
330
37D
330
37E
330
37F
330
380
330
381
330
382
330
383
330
384
330
385
330
386
330
387
330
388
330
389
330
38A
330
38B
330
38C
330
38D
330
38E
330
38F
330
390
330
391
330
392
330
393
330
394
330
395
330
396
330
397
330
398
330
399
330
39A
330
39B
330
39C
330
39D
330
39E
330
39F
330
3A0
330
3A1
330
3A2
330
3A3
330
3A4
330
3A5
330
3A6
330
3A7
330
3A8
330
3A9
330
3AA
330
3AB
330
3AC
330
3AD
330
3AE
330
3AF
330
3B0
330
3B1
330
3B2
330
3B3
330
3B4
330
3B5
330
3B6
330
3B7
330
3B8
330
3B9
330
3BA
330
3BB
330
3BC
330
3BD
330
3BE
330
3BF
330
3C0
330
3C1
330
3C2
330
3C3
330
3C4
330
3C5
330
3C6
330
3C7
330
3C8
330
3C9
330
3CA
330
3CB
330
3CC
330
3CD
330
3CE
330
3CF
330
3D0
330
3D1
330
3D2
330
3D3
330
3D4
330
3D5
330
3D6
330
3D7
330
3D8
330
3D9
330
3DA
330
3DB
330
3DC
330
3DD
330
3DE
330
3DF
330
3E0
330
3E1
330
3E2
330
3E3
330
3E4
330
3E5
330
3E6
330
3E7
330
3E8
330
3E9
330
3EA
330
3EB
330
3EC
330
3ED
330
3EE
330
3EF
330
3F0
330
3F1
330
3F2
330
3F3
330
3F4
330
3F5
330
3F6
330
3F7
330
3F8
330
3F9
330
3FA
330
3FB
330
3FC
330
3FD
330
3FE
330
3FF
330
400
330
401
330
402
330
403
330
404
330
405
330
406
330
407
330
408
330
409
330
40A
330
40B
330
40C
330
40D
330
40E
330
40F
330
410
330
411
330
412
330
413
330
414
330
415
330
416
330
417
330
418
330
419
330
41A
330
41B
330
41C
330
41D
330
41E
330
41F
330
420
330
421
330
422
330
423
330
424
330
425
 92
1
 93
13
 72
2
 10
13.4883447827
 20
2.5520823451
 40
0.0024749995
 50
179.9999571957
 51
270.0000428042
 73
1
 72
1
 10
13.4858697831
 20
2.552082347
 11
13.4858697831
 21
2.564807354
 72
2
 10
13.4883447827
 20
2.5648073559
 40
0.0024749995
 50
89.9999571958
 51
180.0000428043
 73
1
 72
1
 10
13.4883447845
 20
2.5672823554
 11
13.5251458049
 21
2.5672823554
 72
2
 10
13.5236009174
 20
2.5388278764
 40
0.0284963867
 50
70.3834917948
 51
86.8922743861
 73
1
 72
2
 10
13.5284605274
 20
2.5518696094
 40
0.0145814632
 50
54.6746025112
 51
71.1660573124
 73
1
 72
2
 10
13.5335900184
 20
2.5587235346
 40
0.0060275915
 50
20.9055592135
 51
56.7851676243
 73
1
 72
2
 10
13.5348905773
 20
2.5593838168
 40
0.0045795888
 50
355.6235353944
 51
18.9942678268
 73
1
 72
2
 10
13.533683767
 20
2.559677593
 40
0.0058087709
 50
318.8515287446
 51
353.6422345323
 73
1
 72
2
 10
13.5295131508
 20
2.5629115009
 40
0.0110815393
 50
306.758405961
 51
320.4502234234
 73
1
 72
2
 10
13.5238839599
 20
2.5706523294
 40
0.0206523367
 50
289.6883413472
 51
306.4184925496
 73
1
 72
2
 10
13.5219564542
 20
2.5750459767
 40
0.0254407115
 50
270.7327484175
 51
290.441894219
 73
1
 72
1
 10
13.5222818033
 20
2.5496073456
 11
13.4883447845
 21
2.5496073456
 97
267
330
31B
330
31C
330
31D
330
31E
330
31F
330
320
330
321
330
322
330
323
330
324
330
325
330
326
330
327
330
328
330
329
330
32A
330
32B
330
32C
330
32D
330
32E
330
32F
330
330
330
331
330
332
330
333
330
334
330
335
330
336
330
337
330
338
330
339
330
33A
330
33B
330
33C
330
33D
330
33E
330
33F
330
340
330
341
330
342
330
343
330
344
330
345
330
346
330
347
330
348
330
349
330
34A
330
34B
330
34C
330
34D
330
34E
330
34F
330
350
330
351
330
352
330
353
330
354
330
355
330
356
330
357
330
358
330
359
330
35A
330
35B
330
35C
330
35D
330
35E
330
35F
330
360
330
361
330
362
330
363
330
364
330
365
330
366
330
367
330
368
330
369
330
36A
330
36B
330
36C
330
36D
330
36E
330
36F
330
370
330
371
330
372
330
373
330
374
330
375
330
376
330
377
330
378
330
379
330
37A
330
37B
330
37C
330
37D
330
37E
330
37F
330
380
330
381
330
382
330
383
330
384
330
385
330
386
330
387
330
388
330
389
330
38A
330
38B
330
38C
330
38D
330
38E
330
38F
330
390
330
391
330
392
330
393
330
394
330
395
330
396
330
397
330
398
330
399
330
39A
330
39B
330
39C
330
39D
330
39E
330
39F
330
3A0
330
3A1
330
3A2
330
3A3
330
3A4
330
3A5
330
3A6
330
3A7
330
3A8
330
3A9
330
3AA
330
3AB
330
3AC
330
3AD
330
3AE
330
3AF
330
3B0
330
3B1
330
3B2
330
3B3
330
3B4
330
3B5
330
3B6
330
3B7
330
3B8
330
3B9
330
3BA
330
3BB
330
3BC
330
3BD
330
3BE
330
3BF
330
3C0
330
3C1
330
3C2
330
3C3
330
3C4
330
3C5
330
3C6
330
3C7
330
3C8
330
3C9
330
3CA
330
3CB
330
3CC
330
3CD
330
3CE
330
3CF
330
3D0
330
3D1
330
3D2
330
3D3
330
3D4
330
3D5
330
3D6
330
3D7
330
3D8
330
3D9
330
3DA
330
3DB
330
3DC
330
3DD
330
3DE
330
3DF
330
3E0
330
3E1
330
3E2
330
3E3
330
3E4
330
3E5
330
3E6
330
3E7
330
3E8
330
3E9
330
3EA
330
3EB
330
3EC
330
3ED
330
3EE
330
3EF
330
3F0
330
3F1
330
3F2
330
3F3
330
3F4
330
3F5
330
3F6
330
3F7
330
3F8
330
3F9
330
3FA
330
3FB
330
3FC
330
3FD
330
3FE
330
3FF
330
400
330
401
330
402
330
403
330
404
330
405
330
406
330
407
330
408
330
409
330
40A
330
40B
330
40C
330
40D
330
40E
330
40F
330
410
330
411
330
412
330
413
330
414
330
415
330
416
330
417
330
418
330
419
330
41A
330
41B
330
41C
330
41D
330
41E
330
41F
330
420
330
421
330
422
330
423
330
424
330
425
 92
1
 93
6
 72
2
 10
12.3362731456
 20
2.5586198506
 40
0.0086625048
 50
270.0
 51
90.0
 73
1
 72
1
 10
12.3362731456
 20
2.5672823554
 11
12.2949101227
 21
2.5672823554
 72
2
 10
12.2949101208
 20
2.5648073559
 40
0.0024749995
 50
89.9999571957
 51
180.0000428043
 73
1
 72
1
 10
12.2924351213
 20
2.564807354
 11
12.2924351213
 21
2.5524323472
 72
2
 10
12.2949101208
 20
2.5524323453
 40
0.0024749995
 50
179.9999571957
 51
270.0000428043
 73
1
 72
1
 10
12.2949101227
 20
2.5499573458
 11
12.3362731456
 21
2.5499573458
 97
267
330
31B
330
31C
330
31D
330
31E
330
31F
330
320
330
321
330
322
330
323
330
324
330
325
330
326
330
327
330
328
330
329
330
32A
330
32B
330
32C
330
32D
330
32E
330
32F
330
330
330
331
330
332
330
333
330
334
330
335
330
336
330
337
330
338
330
339
330
33A
330
33B
330
33C
330
33D
330
33E
330
33F
330
340
330
341
330
342
330
343
330
344
330
345
330
346
330
347
330
348
330
349
330
34A
330
34B
330
34C
330
34D
330
34E
330
34F
330
350
330
351
330
352
330
353
330
354
330
355
330
356
330
357
330
358
330
359
330
35A
330
35B
330
35C
330
35D
330
35E
330
35F
330
360
330
361
330
362
330
363
330
364
330
365
330
366
330
367
330
368
330
369
330
36A
330
36B
330
36C
330
36D
330
36E
330
36F
330
370
330
371
330
372
330
373
330
374
330
375
330
376
330
377
330
378
330
379
330
37A
330
37B
330
37C
330
37D
330
37E
330
37F
330
380
330
381
330
382
330
383
330
384
330
385
330
386
330
387
330
388
330
389
330
38A
330
38B
330
38C
330
38D
330
38E
330
38F
330
390
330
391
330
392
330
393
330
394
330
395
330
396
330
397
330
398
330
399
330
39A
330
39B
330
39C
330
39D
330
39E
330
39F
330
3A0
330
3A1
330
3A2
330
3A3
330
3A4
330
3A5
330
3A6
330
3A7
330
3A8
330
3A9
330
3AA
330
3AB
330
3AC
330
3AD
330
3AE
330
3AF
330
3B0
330
3B1
330
3B2
330
3B3
330
3B4
330
3B5
330
3B6
330
3B7
330
3B8
330
3B9
330
3BA
330
3BB
330
3BC
330
3BD
330
3BE
330
3BF
330
3C0
330
3C1
330
3C2
330
3C3
330
3C4
330
3C5
330
3C6
330
3C7
330
3C8
330
3C9
330
3CA
330
3CB
330
3CC
330
3CD
330
3CE
330
3CF
330
3D0
330
3D1
330
3D2
330
3D3
330
3D4
330
3D5
330
3D6
330
3D7
330
3D8
330
3D9
330
3DA
330
3DB
330
3DC
330
3DD
330
3DE
330
3DF
330
3E0
330
3E1
330
3E2
330
3E3
330
3E4
330
3E5
330
3E6
330
3E7
330
3E8
330
3E9
330
3EA
330
3EB
330
3EC
330
3ED
330
3EE
330
3EF
330
3F0
330
3F1
330
3F2
330
3F3
330
3F4
330
3F5
330
3F6
330
3F7
330
3F8
330
3F9
330
3FA
330
3FB
330
3FC
330
3FD
330
3FE
330
3FF
330
400
330
401
330
402
330
403
330
404
330
405
330
406
330
407
330
408
330
409
330
40A
330
40B
330
40C
330
40D
330
40E
330
40F
330
410
330
411
330
412
330
413
330
414
330
415
330
416
330
417
330
418
330
419
330
41A
330
41B
330
41C
330
41D
330
41E
330
41F
330
420
330
421
330
422
330
423
330
424
330
425
 92
1
 93
8
 72
2
 10
12.5401702375
 20
2.5530465533
 40
0.0024752071
 50
270.0004896793
 51
32.9089806818
 73
1
 72
1
 10
12.5422482598
 20
2.5543913483
 11
12.5349892558
 21
2.5656073545
 72
2
 10
12.532910715
 20
2.564262895
 40
0.0024754602
 50
32.8959418573
 51
89.9875097202
 73
1
 72
1
 10
12.5329112547
 20
2.5667383551
 11
12.5267302512
 21
2.5667383551
 72
2
 10
12.5267301809
 20
2.5642631548
 40
0.0024752003
 50
89.998372645
 51
147.602165307
 73
1
 72
1
 10
12.5246402501
 20
2.5655893545
 11
12.5175232461
 21
2.5543723483
 72
2
 10
12.519613138
 20
2.5530463862
 40
0.0024750401
 50
147.6063258012
 51
270.0025305754
 73
1
 72
1
 10
12.5196132473
 20
2.5505713461
 11
12.5401702587
 21
2.5505713461
 97
267
330
31B
330
31C
330
31D
330
31E
330
31F
330
320
330
321
330
322
330
323
330
324
330
325
330
326
330
327
330
328
330
329
330
32A
330
32B
330
32C
330
32D
330
32E
330
32F
330
330
330
331
330
332
330
333
330
334
330
335
330
336
330
337
330
338
330
339
330
33A
330
33B
330
33C
330
33D
330
33E
330
33F
330
340
330
341
330
342
330
343
330
344
330
345
330
346
330
347
330
348
330
349
330
34A
330
34B
330
34C
330
34D
330
34E
330
34F
330
350
330
351
330
352
330
353
330
354
330
355
330
356
330
357
330
358
330
359
330
35A
330
35B
330
35C
330
35D
330
35E
330
35F
330
360
330
361
330
362
330
363
330
364
330
365
330
366
330
367
330
368
330
369
330
36A
330
36B
330
36C
330
36D
330
36E
330
36F
330
370
330
371
330
372
330
373
330
374
330
375
330
376
330
377
330
378
330
379
330
37A
330
37B
330
37C
330
37D
330
37E
330
37F
330
380
330
381
330
382
330
383
330
384
330
385
330
386
330
387
330
388
330
389
330
38A
330
38B
330
38C
330
38D
330
38E
330
38F
330
390
330
391
330
392
330
393
330
394
330
395
330
396
330
397
330
398
330
399
330
39A
330
39B
330
39C
330
39D
330
39E
330
39F
330
3A0
330
3A1
330
3A2
330
3A3
330
3A4
330
3A5
330
3A6
330
3A7
330
3A8
330
3A9
330
3AA
330
3AB
330
3AC
330
3AD
330
3AE
330
3AF
330
3B0
330
3B1
330
3B2
330
3B3
330
3B4
330
3B5
330
3B6
330
3B7
330
3B8
330
3B9
330
3BA
330
3BB
330
3BC
330
3BD
330
3BE
330
3BF
330
3C0
330
3C1
330
3C2
330
3C3
330
3C4
330
3C5
330
3C6
330
3C7
330
3C8
330
3C9
330
3CA
330
3CB
330
3CC
330
3CD
330
3CE
330
3CF
330
3D0
330
3D1
330
3D2
330
3D3
330
3D4
330
3D5
330
3D6
330
3D7
330
3D8
330
3D9
330
3DA
330
3DB
330
3DC
330
3DD
330
3DE
330
3DF
330
3E0
330
3E1
330
3E2
330
3E3
330
3E4
330
3E5
330
3E6
330
3E7
330
3E8
330
3E9
330
3EA
330
3EB
330
3EC
330
3ED
330
3EE
330
3EF
330
3F0
330
3F1
330
3F2
330
3F3
330
3F4
330
3F5
330
3F6
330
3F7
330
3F8
330
3F9
330
3FA
330
3FB
330
3FC
330
3FD
330
3FE
330
3FF
330
400
330
401
330
402
330
403
330
404
330
405
330
406
330
407
330
408
330
409
330
40A
330
40B
330
40C
330
40D
330
40E
330
40F
330
410
330
411
330
412
330
413
330
414
330
415
330
416
330
417
330
418
330
419
330
41A
330
41B
330
41C
330
41D
330
41E
330
41F
330
420
330
421
330
422
330
423
330
424
330
425
 92
1
 93
1
 72
3
 10
12.9046654608
 20
2.5403783405
 11
-0.8250004575
 21
0.0
 40
0.218572
 50
0.0
 51
-0.0
 73
1
 97
267
330
31B
330
31C
330
31D
330
31E
330
31F
330
320
330
321
330
322
330
323
330
324
330
325
330
326
330
327
330
328
330
329
330
32A
330
32B
330
32C
330
32D
330
32E
330
32F
330
330
330
331
330
332
330
333
330
334
330
335
330
336
330
337
330
338
330
339
330
33A
330
33B
330
33C
330
33D
330
33E
330
33F
330
340
330
341
330
342
330
343
330
344
330
345
330
346
330
347
330
348
330
349
330
34A
330
34B
330
34C
330
34D
330
34E
330
34F
330
350
330
351
330
352
330
353
330
354
330
355
330
356
330
357
330
358
330
359
330
35A
330
35B
330
35C
330
35D
330
35E
330
35F
330
360
330
361
330
362
330
363
330
364
330
365
330
366
330
367
330
368
330
369
330
36A
330
36B
330
36C
330
36D
330
36E
330
36F
330
370
330
371
330
372
330
373
330
374
330
375
330
376
330
377
330
378
330
379
330
37A
330
37B
330
37C
330
37D
330
37E
330
37F
330
380
330
381
330
382
330
383
330
384
330
385
330
386
330
387
330
388
330
389
330
38A
330
38B
330
38C
330
38D
330
38E
330
38F
330
390
330
391
330
392
330
393
330
394
330
395
330
396
330
397
330
398
330
399
330
39A
330
39B
330
39C
330
39D
330
39E
330
39F
330
3A0
330
3A1
330
3A2
330
3A3
330
3A4
330
3A5
330
3A6
330
3A7
330
3A8
330
3A9
330
3AA
330
3AB
330
3AC
330
3AD
330
3AE
330
3AF
330
3B0
330
3B1
330
3B2
330
3B3
330
3B4
330
3B5
330
3B6
330
3B7
330
3B8
330
3B9
330
3BA
330
3BB
330
3BC
330
3BD
330
3BE
330
3BF
330
3C0
330
3C1
330
3C2
330
3C3
330
3C4
330
3C5
330
3C6
330
3C7
330
3C8
330
3C9
330
3CA
330
3CB
330
3CC
330
3CD
330
3CE
330
3CF
330
3D0
330
3D1
330
3D2
330
3D3
330
3D4
330
3D5
330
3D6
330
3D7
330
3D8
330
3D9
330
3DA
330
3DB
330
3DC
330
3DD
330
3DE
330
3DF
330
3E0
330
3E1
330
3E2
330
3E3
330
3E4
330
3E5
330
3E6
330
3E7
330
3E8
330
3E9
330
3EA
330
3EB
330
3EC
330
3ED
330
3EE
330
3EF
330
3F0
330
3F1
330
3F2
330
3F3
330
3F4
330
3F5
330
3F6
330
3F7
330
3F8
330
3F9
330
3FA
330
3FB
330
3FC
330
3FD
330
3FE
330
3FF
330
400
330
401
330
402
330
403
330
404
330
405
330
406
330
407
330
408
330
409
330
40A
330
40B
330
40C
330
40D
330
40E
330
40F
330
410
330
411
330
412
330
413
330
414
330
415
330
416
330
417
330
418
330
419
330
41A
330
41B
330
41C
330
41D
330
41E
330
41F
330
420
330
421
330
422
330
423
330
424
330
425
 75
0
 76
1
 98
1
 10
0.0
 20
0.0
  0
LINE
  5
427
100
AcDbEntity
  8
0
100
AcDbLine
 62
7
  6
CONTINUOUS
 10
8.5
 20
10.112
 11
8.586603
 21
10.262
  0
LINE
  5
428
100
AcDbEntity
  8
0
100
AcDbLine
 62
7
  6
CONTINUOUS
 10
16.38
 20
2.807
 11
10.03
 21
2.807
  0
LINE
  5
429
100
AcDbEntity
  8
0
100
AcDbLine
 62
7
  6
CONTINUOUS
 10
0.62
 20
3.1995
 11
0.37
 21
3.1995
  0
LINE
  5
42A
100
AcDbEntity
  8
0
100
AcDbLine
 62
7
  6
CONTINUOUS
 10
16.38
 20
3.1995
 11
16.63
 21
3.1995
  0
LINE
  5
42B
100
AcDbEntity
  8
0
100
AcDbLine
 62
7
  6
CONTINUOUS
 10
8.586603
 20
0.737
 11
8.5
 21
0.887
  0
LINE
  5
42C
100
AcDbEntity
  8
0
100
AcDbLine
 62
7
  6
CONTINUOUS
 10
6.53
 20
0.887
 11
6.53
 21
0.637
  0
LINE
  5
42D
100
AcDbEntity
  8
0
100
AcDbLine
 62
7
  6
CONTINUOUS
 10
6.53
 20
10.112
 11
6.53
 21
10.362
  0
LINE
  5
42E
100
AcDbEntity
  8
SKETCHED_ENT
100
AcDbLine
 62
7
  6
CONTINUOUS
 10
8.0448433178
 20
7.6964862894
 11
8.2542268129
 21
8.1028717831
  0
LINE
  5
42F
100
AcDbEntity
  8
SKETCHED_ENT
100
AcDbLine
 62
7
  6
CENTER
 10
8.2636355268
 20
3.2327353922
 11
8.2629381986
 21
5.0921918532
  0
LINE
  5
430
100
AcDbEntity
  8
0
100
AcDbLine
 62
7
  6
CONTINUOUS
 10
8.5
 20
0.887
 11
8.5
 21
0.637
  0
LINE
  5
431
100
AcDbEntity
  8
0
100
AcDbLine
 62
7
  6
CONTINUOUS
 10
8.5
 20
10.112
 11
8.5
 21
10.362
  0
LINE
  5
432
100
AcDbEntity
  8
0
100
AcDbLine
 62
7
  6
CONTINUOUS
 10
0.62
 20
5.4995
 11
0.37
 21
5.4995
  0
LINE
  5
433
100
AcDbEntity
  8
0
100
AcDbLine
 62
7
  6
CONTINUOUS
 10
16.38
 20
5.4995
 11
16.63
 21
5.4995
  0
LINE
  5
434
100
AcDbEntity
  8
SKETCHED_ENT
100
AcDbLine
 62
7
  6
CONTINUOUS
 10
8.2539552081
 20
8.10340031
 11
8.4659051905
 21
7.7001756331
  0
LINE
  5
435
100
AcDbEntity
  8
0
100
AcDbLine
 62
7
  6
CONTINUOUS
 10
10.03
 20
2.807
 11
10.03
 21
0.887
  0
LINE
  5
436
100
AcDbEntity
  8
0
100
AcDbLine
 62
7
  6
CONTINUOUS
 10
10.47
 20
0.887
 11
10.47
 21
0.637
  0
LINE
  5
437
100
AcDbEntity
  8
0
100
AcDbLine
 62
7
  6
CONTINUOUS
 10
10.47
 20
10.112
 11
10.47
 21
10.362
  0
LINE
  5
438
100
AcDbEntity
  8
0
100
AcDbLine
 62
7
  6
CONTINUOUS
 10
10.5342808475
 20
1.143294839
 11
10.5342808475
 21
0.921203839
  0
LINE
  5
439
100
AcDbEntity
  8
0
100
AcDbLine
 62
7
  6
CONTINUOUS
 10
10.5342808475
 20
1.193294839
 11
10.5342808475
 21
1.293294839
  0
LINE
  5
43A
100
AcDbEntity
  8
0
100
AcDbLine
 62
7
  6
CONTINUOUS
 10
10.5342808475
 20
1.343294839
 11
10.5342808475
 21
1.565385839
  0
LINE
  5
43B
100
AcDbEntity
  8
0
100
AcDbLine
 62
7
  6
CONTINUOUS
 10
8.5
 20
0.887
 11
8.413397
 21
0.737
  0
LINE
  5
43C
100
AcDbEntity
  8
0
100
AcDbLine
 62
7
  6
CONTINUOUS
 10
0.62
 20
7.7995
 11
0.37
 21
7.7995
  0
LINE
  5
43D
100
AcDbEntity
  8
0
100
AcDbLine
 62
7
  6
CONTINUOUS
 10
16.38
 20
7.7995
 11
16.63
 21
7.7995
  0
LINE
  5
43E
100
AcDbEntity
  8
0
100
AcDbLine
 62
7
  6
CONTINUOUS
 10
8.413397
 20
10.262
 11
8.5
 21
10.112
  0
LINE
  5
43F
100
AcDbEntity
  8
0
100
AcDbLine
 62
7
  6
CONTINUOUS
 10
11.1389508475
 20
1.060596839
 11
11.1389508475
 21
1.425992839
  0
LINE
  5
440
100
AcDbEntity
  8
0
100
AcDbLine
 62
7
  6
CONTINUOUS
 10
11.7453418475
 20
1.495385839
 11
11.7453418475
 21
0.991203839
  0
LINE
  5
441
100
AcDbEntity
  8
0
100
AcDbLine
 62
7
  6
CONTINUOUS
 10
12.44
 20
0.887
 11
12.44
 21
0.637
  0
LINE
  5
442
100
AcDbEntity
  8
0
100
AcDbLine
 62
7
  6
CONTINUOUS
 10
12.44
 20
10.112
 11
12.44
 21
10.362
  0
LINE
  5
443
100
AcDbEntity
  8
0
100
AcDbLine
 62
7
  6
CONTINUOUS
 10
16.53
 20
5.586103
 11
16.38
 21
5.4995
  0
LINE
  5
444
100
AcDbEntity
  8
0
100
AcDbLine
 62
7
  6
CONTINUOUS
 10
16.38
 20
5.4995
 11
16.53
 21
5.412897
  0
LINE
  5
445
100
AcDbEntity
  8
0
100
AcDbLine
 62
7
  6
CONTINUOUS
 10
12.83
 20
1.507
 11
12.83
 21
1.137
  0
LINE
  5
446
100
AcDbEntity
  8
0
100
AcDbLine
 62
7
  6
CONTINUOUS
 10
16.38
 20
10.112
 11
0.62
 21
10.112
  0
LINE
  5
447
100
AcDbEntity
  8
0
100
AcDbLine
 62
7
  6
CONTINUOUS
 10
8.586603
 20
10.262
 11
8.413397
 21
10.262
  0
LINE
  5
448
100
AcDbEntity
  8
0
100
AcDbLine
 62
7
  6
CONTINUOUS
 10
14.205
 20
1.137
 11
14.205
 21
0.887
  0
LINE
  5
449
100
AcDbEntity
  8
0
100
AcDbLine
 62
7
  6
CONTINUOUS
 10
14.41
 20
0.887
 11
14.41
 21
0.637
  0
LINE
  5
44A
100
AcDbEntity
  8
0
100
AcDbLine
 62
7
  6
CONTINUOUS
 10
14.41
 20
10.112
 11
14.41
 21
10.362
  0
LINE
  5
44B
100
AcDbEntity
  8
0
100
AcDbLine
 62
7
  6
CONTINUOUS
 10
15.58
 20
1.507
 11
15.58
 21
1.137
  0
LINE
  5
44C
100
AcDbEntity
  8
0
100
AcDbLine
 62
7
  6
CONTINUOUS
 10
16.38
 20
0.887
 11
16.38
 21
10.112
  0
LINE
  5
44D
100
AcDbEntity
  8
0
100
AcDbLine
 62
7
  6
CONTINUOUS
 10
16.53
 20
5.412897
 11
16.53
 21
5.586103
  0
LINE
  5
44E
100
AcDbEntity
  8
0
100
AcDbLine
 62
7
  6
CONTINUOUS
 10
12.7661542216
 20
5.522975314
 11
12.8297940969
 21
5.4862336461
  0
LINE
  5
44F
100
AcDbEntity
  8
0
100
AcDbLine
 62
7
  6
CONTINUOUS
 10
14.599353004
 20
5.3446691692
 11
14.5932630193
 21
5.3429555758
  0
LWPOLYLINE
  5
450
100
AcDbEntity
  8
0
100
AcDbPolyline
 62
7
  6
CONTINUOUS
 90
7
 70
0
 10
14.6421535493
 20
5.341196378
 10
14.7192809868
 20
5.3594903638
 10
14.7904517724
 20
5.3845725315
 10
14.8538875892
 20
5.4158161628
 10
14.9080033915
 20
5.4524405853
 10
14.9514470087
 20
5.4935306789
 10
14.9831329323
 20
5.5380597415
  0
LWPOLYLINE
  5
451
100
AcDbEntity
  8
0
100
AcDbPolyline
 62
7
  6
CONTINUOUS
 90
7
 70
0
 10
14.599353004
 20
5.3446691692
 10
14.6560106004
 20
5.3581078791
 10
14.708292457
 20
5.3765331682
 10
14.7548922277
 20
5.3994846509
 10
14.7946455421
 20
5.4263888475
 10
14.8265590999
 20
5.4565735134
 10
14.8498354892
 20
5.4892844362
  0
LWPOLYLINE
  5
452
100
AcDbEntity
  8
0
100
AcDbPolyline
 62
7
  6
CONTINUOUS
 90
7
 70
0
 10
14.3595924576
 20
5.2036996787
 10
14.4609788559
 20
5.1970222902
 10
14.5628959551
 20
5.199958971
 10
14.6626269309
 20
5.2124314374
 10
14.7575132349
 20
5.2341072085
 10
14.845025464
 20
5.2644084688
 10
14.9228307874
 20
5.3025274717
  0
LWPOLYLINE
  5
453
100
AcDbEntity
  8
0
100
AcDbPolyline
 62
7
  6
CONTINUOUS
 90
7
 70
0
 10
12.7661542216
 20
5.522975314
 10
12.7690455232
 20
5.4959468929
 10
12.7775223904
 20
5.4674219021
 10
12.7910071388
 20
5.4393442726
 10
12.8085808051
 20
5.4136274484
 10
12.829045773
 20
5.3920239887
 10
12.8510073886
 20
5.3760061334
  0
LWPOLYLINE
  5
454
100
AcDbEntity
  8
0
100
AcDbPolyline
 62
7
  6
CONTINUOUS
 90
7
 70
0
 10
12.8297940969
 20
5.4862336461
 10
12.8305169223
 20
5.4794765408
 10
12.8326361391
 20
5.4723452931
 10
12.8360073262
 20
5.4653258857
 10
12.8404007428
 20
5.4588966797
 10
12.8455169847
 20
5.4534958147
 10
12.8510073886
 20
5.4494913509
  0
LWPOLYLINE
  5
455
100
AcDbEntity
  8
0
100
AcDbPolyline
 62
7
  6
CONTINUOUS
 90
9
 70
0
 10
12.7661542216
 20
6.6415836254
 10
12.7695508514
 20
6.6833671782
 10
12.7796099405
 20
6.7274661963
 10
12.7959461421
 20
6.7721896591
 10
12.8179307014
 20
6.8158152105
 10
12.8447190201
 20
6.8566672308
 10
12.8752822773
 20
6.8931764644
 10
12.9084432576
 20
6.923937218
 10
12.9429301809
 20
6.9477702682
  0
LWPOLYLINE
  5
456
100
AcDbEntity
  8
0
100
AcDbPolyline
 62
7
  6
CONTINUOUS
 90
6
 70
0
 10
14.599353004
 20
5.4181543867
 10
14.5814428009
 20
5.413114833
 10
14.5667172987
 20
5.4053662139
 10
14.5563694701
 20
5.3955362764
 10
14.5512376346
 20
5.3844213836
 10
14.5507634577
 20
5.3796821141
  0
LWPOLYLINE
  5
457
100
AcDbEntity
  8
0
100
AcDbPolyline
 62
7
  6
CONTINUOUS
 90
7
 70
0
 10
14.599353004
 20
5.4181543867
 10
14.6560106004
 20
5.4315930966
 10
14.708292457
 20
5.4500183857
 10
14.7548922277
 20
5.4729698684
 10
14.7946455421
 20
5.499874065
 10
14.8265590999
 20
5.530058731
 10
14.8498354892
 20
5.5627696537
  0
LWPOLYLINE
  5
458
100
AcDbEntity
  8
0
100
AcDbPolyline
 62
7
  6
CONTINUOUS
 90
7
 70
0
 10
14.3595924576
 20
5.2771848962
 10
14.4609788559
 20
5.2705075077
 10
14.5628959551
 20
5.2734441885
 10
14.6626269309
 20
5.285916655
 10
14.7575132349
 20
5.307592426
 10
14.845025464
 20
5.3378936863
 10
14.9228307874
 20
5.3760126892
  0
LINE
  5
459
100
AcDbEntity
  8
0
100
AcDbLine
 62
7
  6
CONTINUOUS
 10
12.8510073886
 20
5.3760061334
 11
14.3595924576
 21
5.2036996787
  0
LINE
  5
45A
100
AcDbEntity
  8
0
100
AcDbLine
 62
7
  6
CONTINUOUS
 10
12.8510073886
 20
5.4494913509
 11
14.3595924576
 21
5.2771848962
  0
LINE
  5
45B
100
AcDbEntity
  8
0
100
AcDbLine
 62
7
  6
CONTINUOUS
 10
12.7661542216
 20
6.6415836254
 11
12.7661542216
 21
5.522975314
  0
LINE
  5
45C
100
AcDbEntity
  8
0
100
AcDbLine
 62
7
  6
CONTINUOUS
 10
12.8297940969
 20
6.6048419575
 11
12.8297940969
 21
5.4862336461
  0
LINE
  5
45D
100
AcDbEntity
  8
0
100
AcDbLine
 62
7
  6
CONTINUOUS
 10
12.8510073886
 20
5.3760061334
 11
12.8510073886
 21
5.4494913509
  0
LWPOLYLINE
  5
45E
100
AcDbEntity
  8
0
100
AcDbPolyline
 62
7
  6
CONTINUOUS
 90
8
 70
0
 10
14.3196250512
 20
5.3411956027
 10
14.3392690049
 20
5.3392734836
 10
14.3590552001
 20
5.3406244315
 10
14.377380677
 20
5.3451390007
 10
14.3927608145
 20
5.3524514477
 10
14.4039496052
 20
5.3619693616
 10
14.4100405999
 20
5.3729216574
 10
14.4110145874
 20
5.3796814396
  0
LWPOLYLINE
  5
45F
100
AcDbEntity
  8
0
100
AcDbPolyline
 62
7
  6
CONTINUOUS
 90
12
 70
0
 10
13.0072857739
 20
5.6875125625
 10
13.0155583555
 20
5.683743161
 10
13.03432832
 20
5.6809613055
 10
13.055252083
 20
5.6845872903
 10
13.0772804399
 20
5.6944392933
 10
13.0993087968
 20
5.710023294
 10
13.1202325599
 20
5.7305578455
 10
13.1390025243
 20
5.7550132597
 10
13.1546774857
 20
5.7821632399
 10
13.166471436
 20
5.8106463729
 10
13.1737929774
 20
5.8390343953
 10
13.1762749771
 20
5.8659038132
  0
LWPOLYLINE
  5
460
100
AcDbEntity
  8
0
100
AcDbPolyline
 62
7
  6
CONTINUOUS
 90
5
 70
0
 10
12.9782859027
 20
5.7515954501
 10
12.9807679024
 20
5.7275919815
 10
12.9880894438
 20
5.7076580964
 10
12.9998833941
 20
5.692793363
 10
13.0072857739
 20
5.6875125625
  0
LINE
  5
461
100
AcDbEntity
  8
0
100
AcDbLine
 62
7
  6
CONTINUOUS
 10
12.9782859027
 20
5.7515954501
 11
12.9782859027
 21
6.5680978673
  0
LWPOLYLINE
  5
462
100
AcDbEntity
  8
0
100
AcDbPolyline
 62
7
  6
CONTINUOUS
 90
5
 70
0
 10
14.5339138147
 20
7.8663196144
 10
14.568400738
 20
7.8823083954
 10
14.6015617183
 20
7.889838415
 10
14.6321249755
 20
7.8886203804
 10
14.658911704
 20
7.8787015796
  0
LINE
  5
463
100
AcDbEntity
  8
0
100
AcDbLine
 62
7
  6
CONTINUOUS
 10
14.3685149908
 20
5.3429548963
 11
14.3624244865
 21
5.3446685996
  0
LINE
  5
464
100
AcDbEntity
  8
0
100
AcDbLine
 62
7
  6
CONTINUOUS
 10
13.1762749771
 20
5.8659038132
 11
13.1126351019
 21
5.9026454811
  0
LINE
  5
465
100
AcDbEntity
  8
0
100
AcDbLine
 62
7
  6
CONTINUOUS
 10
13.1126351019
 20
6.7191478983
 11
13.1126351019
 21
5.9026454811
  0
LWPOLYLINE
  5
466
100
AcDbEntity
  8
0
100
AcDbPolyline
 62
7
  6
CONTINUOUS
 90
9
 70
0
 10
13.0065700562
 20
6.9110286003
 10
12.9720831329
 20
6.8871955501
 10
12.9389221526
 20
6.8564347965
 10
12.9083588954
 20
6.8199255629
 10
12.8815705766
 20
6.7790735426
 10
12.8595860173
 20
6.7354479912
 10
12.8432498158
 20
6.6907245284
 10
12.8331907267
 20
6.6466255103
 10
12.8297940969
 20
6.6048419575
  0
LINE
  5
467
100
AcDbEntity
  8
0
100
AcDbLine
 62
7
  6
CONTINUOUS
 10
12.9429301809
 20
6.9477702682
 11
14.5339138147
 21
7.8663196144
  0
LINE
  5
468
100
AcDbEntity
  8
0
100
AcDbLine
 62
7
  6
CONTINUOUS
 10
14.6027192183
 20
5.8482166725
 11
14.5932594276
 21
5.8458862077
  0
LWPOLYLINE
  5
469
100
AcDbEntity
  8
0
100
AcDbPolyline
 62
7
  6
CONTINUOUS
 90
3
 70
0
 10
13.1126351019
 20
6.7191478983
 10
13.1101531021
 20
6.7431513669
 10
13.1073414708
 20
6.7508064129
  0
LWPOLYLINE
  5
46A
100
AcDbEntity
  8
0
100
AcDbPolyline
 62
7
  6
CONTINUOUS
 90
5
 70
0
 10
13.1762749771
 20
6.6824062304
 10
13.1737929774
 20
6.706409699
 10
13.166471436
 20
6.7263435841
 10
13.1546774857
 20
6.7412083175
 10
13.1472751059
 20
6.746489118
  0
LINE
  5
46B
100
AcDbEntity
  8
0
100
AcDbLine
 62
7
  6
CONTINUOUS
 10
13.1762749771
 20
6.6824062304
 11
13.1762749771
 21
5.8659038132
  0
LINE
  5
46C
100
AcDbEntity
  8
0
100
AcDbLine
 62
7
  6
CONTINUOUS
 10
13.0065700562
 20
6.9110286003
 11
14.5975536899
 21
7.8295779465
  0
LWPOLYLINE
  5
46D
100
AcDbEntity
  8
0
100
AcDbPolyline
 62
7
  6
CONTINUOUS
 90
6
 70
0
 10
14.3624214144
 20
5.8441719349
 10
14.3803316175
 20
5.8492114886
 10
14.3950571197
 20
5.8569601077
 10
14.4054049483
 20
5.8667900452
 10
14.4105367838
 20
5.877904938
 10
14.4110109607
 20
5.8826442075
  0
LWPOLYLINE
  5
46E
100
AcDbEntity
  8
0
100
AcDbPolyline
 62
7
  6
CONTINUOUS
 90
7
 70
0
 10
14.3624214144
 20
5.8441719349
 10
14.305763818
 20
5.8307332249
 10
14.2534819614
 20
5.8123079359
 10
14.2068821907
 20
5.7893564532
 10
14.1671288763
 20
5.7624522565
 10
14.1352153186
 20
5.7322675906
 10
14.1119389292
 20
5.6995566679
  0
LWPOLYLINE
  5
46F
100
AcDbEntity
  8
0
100
AcDbPolyline
 62
7
  6
CONTINUOUS
 90
7
 70
0
 10
14.3196208692
 20
5.847644726
 10
14.2424934316
 20
5.8293507403
 10
14.171322646
 20
5.8042685726
 10
14.1078868292
 20
5.7730249413
 10
14.0537710269
 20
5.7364005187
 10
14.0103274097
 20
5.6953104251
 10
14.0002867688
 20
5.6812000481
  0
LWPOLYLINE
  5
470
100
AcDbEntity
  8
0
100
AcDbPolyline
 62
7
  6
CONTINUOUS
 90
7
 70
0
 10
14.3196208692
 20
5.9211299436
 10
14.2424934316
 20
5.9028359578
 10
14.171322646
 20
5.8777537901
 10
14.1078868292
 20
5.8465101588
 10
14.0537710269
 20
5.8098857363
 10
14.0103274097
 20
5.7687956427
 10
13.9786414861
 20
5.7242665801
  0
LWPOLYLINE
  5
471
100
AcDbEntity
  8
0
100
AcDbPolyline
 62
7
  6
CONTINUOUS
 90
10
 70
0
 10
12.9835795338
 20
5.7199369355
 10
12.9916122078
 20
5.7213289582
 10
13.0136405647
 20
5.7311809612
 10
13.0356689215
 20
5.7467649619
 10
13.0565926846
 20
5.7672995134
 10
13.075362649
 20
5.7917549276
 10
13.0910376104
 20
5.8189049078
 10
13.1028315608
 20
5.8473880408
 10
13.1101531021
 20
5.8757760632
 10
13.1126351019
 20
5.9026454811
  0
LWPOLYLINE
  5
472
100
AcDbEntity
  8
0
100
AcDbPolyline
 62
7
  6
CONTINUOUS
 90
3
 70
0
 10
14.3590510098
 20
5.8482160868
 10
14.3392647951
 20
5.8495669396
 10
14.3196208692
 20
5.847644726
  0
LWPOLYLINE
  5
473
100
AcDbEntity
  8
0
100
AcDbPolyline
 62
7
  6
CONTINUOUS
 90
3
 70
0
 10
14.6421493672
 20
5.8476455013
 10
14.6225054135
 20
5.8495676205
 10
14.6027192183
 20
5.8482166725
  0
LWPOLYLINE
  5
474
100
AcDbEntity
  8
0
100
AcDbPolyline
 62
7
  6
CONTINUOUS
 90
8
 70
0
 10
13.3078007509
 20
6.1100423964
 10
13.3251313015
 20
6.1040894467
 10
13.3451037478
 20
6.1045141819
 10
13.3667156992
 20
6.1112958173
 10
13.3888834422
 20
6.1240942933
 10
13.4104953936
 20
6.1422678409
 10
13.4304678399
 20
6.1649051625
 10
13.4477992793
 20
6.1908711282
  0
LWPOLYLINE
  5
475
100
AcDbEntity
  8
0
100
AcDbPolyline
 62
7
  6
CONTINUOUS
 90
8
 70
0
 10
14.9614876497
 20
5.5076410559
 10
14.9471512122
 20
5.5132586319
 10
14.9281810081
 20
5.516775219
 10
14.9082631991
 20
5.5170637414
 10
14.8890114076
 20
5.5141008246
 10
14.8719852992
 20
5.5081265065
 10
14.8585642279
 20
5.4996247909
 10
14.8498354892
 20
5.4892844362
  0
LWPOLYLINE
  5
476
100
AcDbEntity
  8
0
100
AcDbPolyline
 62
7
  6
CONTINUOUS
 90
8
 70
0
 10
14.6421493672
 20
5.9211307188
 10
14.6225054135
 20
5.923052838
 10
14.6027192183
 20
5.9217018901
 10
14.5843937414
 20
5.9171873208
 10
14.5690136039
 20
5.9098748738
 10
14.5578248132
 20
5.90035696
 10
14.5517338185
 20
5.8894046642
 10
14.550759831
 20
5.8826448819
  0
LINE
  5
477
100
AcDbEntity
  8
0
100
AcDbLine
 62
7
  6
CONTINUOUS
 10
14.3685113992
 20
5.8458855282
 11
14.3590510098
 21
5.8482160868
  0
LWPOLYLINE
  5
478
100
AcDbEntity
  8
0
100
AcDbPolyline
 62
7
  6
CONTINUOUS
 90
12
 70
0
 10
13.7320672071
 20
6.1059628202
 10
13.7403397887
 20
6.1021934188
 10
13.7591097531
 20
6.0994115632
 10
13.7800335162
 20
6.103037548
 10
13.8020618731
 20
6.112889551
 10
13.8240902299
 20
6.1284735517
 10
13.845013993
 20
6.1490081032
 10
13.8637839575
 20
6.1734635174
 10
13.8794589188
 20
6.2006134977
 10
13.8912528692
 20
6.2290966306
 10
13.8985744105
 20
6.257484653
 10
13.9010564103
 20
6.2843540709
  0
LINE
  5
479
100
AcDbEntity
  8
0
100
AcDbLine
 62
7
  6
CONTINUOUS
 10
13.4477992793
 20
6.1908711282
 11
13.384159404
 21
6.2276127961
  0
LINE
  5
47A
100
AcDbEntity
  8
0
100
AcDbLine
 62
7
  6
CONTINUOUS
 10
12.8297940969
 20
6.6048419575
 11
12.7661542216
 21
6.6415836254
  0
LWPOLYLINE
  5
47B
100
AcDbEntity
  8
0
100
AcDbPolyline
 62
7
  6
CONTINUOUS
 90
8
 70
0
 10
14.1119399156
 20
5.4892826625
 10
14.1032110278
 20
5.4996229753
 10
14.0897898339
 20
5.5081246264
 10
14.0727636393
 20
5.5140988626
 10
14.0535118051
 20
5.5170616868
 10
14.0335940002
 20
5.5167730687
 10
14.0146238469
 20
5.5132563904
 10
14.0002883192
 20
5.5076390702
  0
LWPOLYLINE
  5
47C
100
AcDbEntity
  8
0
100
AcDbPolyline
 62
7
  6
CONTINUOUS
 90
11
 70
0
 10
14.1119399156
 20
5.56276788
 10
14.1032110278
 20
5.5731081928
 10
14.0897898339
 20
5.5816098439
 10
14.0727636393
 20
5.5875840801
 10
14.0535118051
 20
5.5905469044
 10
14.0335940002
 20
5.5902582863
 10
14.0146238469
 20
5.5867416079
 10
13.9981381941
 20
5.5802817697
 10
13.9854726113
 20
5.5714021092
 10
13.9776531888
 20
5.5608220039
 10
13.9752924835
 20
5.55040224
  0
LWPOLYLINE
  5
47D
100
AcDbEntity
  8
0
100
AcDbPolyline
 62
7
  6
CONTINUOUS
 90
7
 70
0
 10
13.9786428289
 20
5.538057327
 10
14.0103293947
 20
5.4935284167
 10
14.0537736046
 20
5.452438532
 10
14.1078899351
 20
5.4158143696
 10
14.1713262025
 20
5.3845710433
 10
14.2424973498
 20
5.3594892177
 10
14.3196250512
 20
5.3411956027
  0
LWPOLYLINE
  5
47E
100
AcDbEntity
  8
0
100
AcDbPolyline
 62
7
  6
CONTINUOUS
 90
7
 70
0
 10
14.1119399156
 20
5.4892826625
 10
14.1352167768
 20
5.4565718516
 10
14.1671307698
 20
5.4263873391
 10
14.2068844723
 20
5.3994833336
 10
14.253484574
 20
5.3765320749
 10
14.3057666964
 20
5.3581070372
 10
14.3624244865
 20
5.3446685996
  0
LWPOLYLINE
  5
47F
100
AcDbEntity
  8
0
100
AcDbPolyline
 62
7
  6
CONTINUOUS
 90
8
 70
0
 10
13.3077998622
 20
6.2717021404
 10
13.2939785005
 20
6.2437095724
 10
13.2843602773
 20
6.2150940664
 10
13.2794274904
 20
6.1872905234
 10
13.2794274904
 20
6.1616931291
 10
13.2843602773
 20
6.1395854438
 10
13.2939785005
 20
6.122076039
 10
13.3078007509
 20
6.1100423964
  0
LINE
  5
480
100
AcDbEntity
  8
0
100
AcDbLine
 62
7
  6
CONTINUOUS
 10
13.3077998622
 20
6.2717021404
 11
13.4668982255
 21
6.5472701189
  0
LWPOLYLINE
  5
481
100
AcDbEntity
  8
0
100
AcDbPolyline
 62
7
  6
CONTINUOUS
 90
10
 70
0
 10
13.7083609669
 20
6.1383871932
 10
13.7163936409
 20
6.1397792159
 10
13.7384219978
 20
6.1496312189
 10
13.7604503547
 20
6.1652152196
 10
13.7813741178
 20
6.1857497711
 10
13.8001440822
 20
6.2102051853
 10
13.8158190436
 20
6.2373551656
 10
13.8276129939
 20
6.2658382985
 10
13.8349345353
 20
6.2942263209
 10
13.837416535
 20
6.3210957389
  0
LWPOLYLINE
  5
482
100
AcDbEntity
  8
0
100
AcDbPolyline
 62
7
  6
CONTINUOUS
 90
7
 70
0
 10
14.1119399156
 20
5.56276788
 10
14.1352167768
 20
5.5300570692
 10
14.1671307698
 20
5.4998725567
 10
14.2068844723
 20
5.4729685512
 10
14.253484574
 20
5.4500172925
 10
14.3057666964
 20
5.4315922547
 10
14.3624244865
 20
5.4181538172
  0
LWPOLYLINE
  5
483
100
AcDbEntity
  8
0
100
AcDbPolyline
 62
7
  6
CONTINUOUS
 90
5
 70
0
 10
13.7030673359
 20
6.1700457079
 10
13.7055493356
 20
6.1460422393
 10
13.7128708769
 20
6.1261083541
 10
13.7246648273
 20
6.1112436207
 10
13.7320672071
 20
6.1059628202
  0
LINE
  5
484
100
AcDbEntity
  8
0
100
AcDbLine
 62
7
  6
CONTINUOUS
 10
13.7030673359
 20
6.1700457079
 11
13.7030673359
 21
6.986548125
  0
LWPOLYLINE
  5
485
100
AcDbEntity
  8
0
100
AcDbPolyline
 62
7
  6
CONTINUOUS
 90
6
 70
0
 10
13.5432577674
 20
6.5031807746
 10
13.5570791291
 20
6.5311733426
 10
13.5666973523
 20
6.5597888486
 10
13.5716301392
 20
6.5875923916
 10
13.5716301392
 20
6.6131897859
 10
13.5672351964
 20
6.6328869701
  0
LWPOLYLINE
  5
486
100
AcDbEntity
  8
0
100
AcDbPolyline
 62
7
  6
CONTINUOUS
 90
8
 70
0
 10
13.6068976427
 20
6.4664391067
 10
13.6207190044
 20
6.4944316747
 10
13.6303372276
 20
6.5230471807
 10
13.6352700144
 20
6.5508507237
 10
13.6352700144
 20
6.576448118
 10
13.6303372276
 20
6.5985558033
 10
13.6207190044
 20
6.6160652081
 10
13.6068967539
 20
6.6280988507
  0
LINE
  5
487
100
AcDbEntity
  8
0
100
AcDbLine
 62
7
  6
CONTINUOUS
 10
13.5432577674
 20
6.5031807746
 11
13.384159404
 21
6.2276127961
  0
LINE
  5
488
100
AcDbEntity
  8
0
100
AcDbLine
 62
7
  6
CONTINUOUS
 10
13.6068976427
 20
6.4664391067
 11
13.4477992793
 21
6.1908711282
  0
LINE
  5
489
100
AcDbEntity
  8
0
100
AcDbLine
 62
7
  6
CONTINUOUS
 10
13.1762749771
 20
6.6824062304
 11
13.1126351019
 21
6.7191478983
  0
LINE
  5
48A
100
AcDbEntity
  8
0
100
AcDbLine
 62
7
  6
CONTINUOUS
 10
13.9010564103
 20
6.2843540709
 11
13.837416535
 21
6.3210957389
  0
LINE
  5
48B
100
AcDbEntity
  8
0
100
AcDbLine
 62
7
  6
CONTINUOUS
 10
13.6068976427
 20
6.4664391067
 11
13.5432577674
 21
6.5031807746
  0
LINE
  5
48C
100
AcDbEntity
  8
0
100
AcDbLine
 62
7
  6
CONTINUOUS
 10
13.9752924835
 20
5.55040224
 11
13.9786428289
 21
5.538057327
  0
LWPOLYLINE
  5
48D
100
AcDbEntity
  8
0
100
AcDbPolyline
 62
7
  6
CONTINUOUS
 90
12
 70
0
 10
13.1472751059
 20
6.746489118
 10
13.1390025243
 20
6.7502585195
 10
13.1202325599
 20
6.753040375
 10
13.0993087968
 20
6.7494143902
 10
13.0772804399
 20
6.7395623872
 10
13.055252083
 20
6.7239783865
 10
13.03432832
 20
6.703443835
 10
13.0155583555
 20
6.6789884208
 10
12.9998833941
 20
6.6518384406
 10
12.9880894438
 20
6.6233553076
 10
12.9807679024
 20
6.5949672852
 10
12.9782859027
 20
6.5680978673
  0
LINE
  5
48E
100
AcDbEntity
  8
0
100
AcDbLine
 62
7
  6
CONTINUOUS
 10
13.0065700562
 20
6.9110286003
 11
12.9429301809
 21
6.9477702682
  0
LWPOLYLINE
  5
48F
100
AcDbEntity
  8
0
100
AcDbPolyline
 62
7
  6
CONTINUOUS
 90
11
 70
0
 10
13.9752913182
 20
5.7119219851
 10
13.9776521743
 20
5.7015018985
 10
13.9854717494
 20
5.6909218307
 10
13.9981374602
 20
5.6820422311
 10
14.0146232062
 20
5.6755824721
 10
14.0335934103
 20
5.672065885
 10
14.0535112193
 20
5.6717773626
 10
14.0727630108
 20
5.6747402794
 10
14.0897891192
 20
5.6807145975
 10
14.1032101905
 20
5.6892163131
 10
14.1119389292
 20
5.6995566679
  0
LWPOLYLINE
  5
490
100
AcDbEntity
  8
0
100
AcDbPolyline
 62
7
  6
CONTINUOUS
 90
3
 70
0
 10
13.837416535
 20
7.137598156
 10
13.8349345353
 20
7.1616016246
 10
13.8321229039
 20
7.1692566707
  0
LINE
  5
491
100
AcDbEntity
  8
0
100
AcDbLine
 62
7
  6
CONTINUOUS
 10
13.837416535
 20
7.137598156
 11
13.837416535
 21
6.3210957389
  0
LINE
  5
492
100
AcDbEntity
  8
0
100
AcDbLine
 62
7
  6
CONTINUOUS
 10
13.9010564103
 20
7.1008564881
 11
13.9010564103
 21
6.2843540709
  0
LWPOLYLINE
  5
493
100
AcDbEntity
  8
0
100
AcDbPolyline
 62
7
  6
CONTINUOUS
 90
10
 70
0
 10
14.4331424001
 20
6.5568374509
 10
14.4411750741
 20
6.5582294736
 10
14.4632034309
 20
6.5680814766
 10
14.4852317878
 20
6.5836654773
 10
14.5061555509
 20
6.6042000288
 10
14.5249255153
 20
6.628655443
 10
14.5406004767
 20
6.6558054233
 10
14.5523944271
 20
6.6842885562
 10
14.5597159684
 20
6.7126765787
 10
14.5621979682
 20
6.7395459966
  0
LWPOLYLINE
  5
494
100
AcDbEntity
  8
0
100
AcDbPolyline
 62
7
  6
CONTINUOUS
 90
8
 70
0
 10
13.6068967539
 20
6.6280988507
 10
13.5895662033
 20
6.6340518004
 10
13.569593757
 20
6.6336270651
 10
13.5479818056
 20
6.6268454298
 10
13.5258140626
 20
6.6140469538
 10
13.5042021112
 20
6.5958734062
 10
13.4842296649
 20
6.5732360846
 10
13.4668982255
 20
6.5472701189
  0
LWPOLYLINE
  5
495
100
AcDbEntity
  8
0
100
AcDbPolyline
 62
7
  6
CONTINUOUS
 90
5
 70
0
 10
13.9010564103
 20
7.1008564881
 10
13.8985744105
 20
7.1248599567
 10
13.8912528692
 20
7.1447938418
 10
13.8794589188
 20
7.1596585753
 10
13.8720565391
 20
7.1649393757
  0
LINE
  5
496
100
AcDbEntity
  8
0
100
AcDbLine
 62
7
  6
CONTINUOUS
 10
13.9786414861
 20
5.7242665801
 11
13.9786414861
 21
5.7001633365
  0
LWPOLYLINE
  5
497
100
AcDbEntity
  8
0
100
AcDbPolyline
 62
7
  6
CONTINUOUS
 90
15
 70
0
 10
14.1563253804
 20
6.5999353725
 10
14.1736559062
 20
6.5939824313
 10
14.1936283525
 20
6.5944071666
 10
14.2152403039
 20
6.601188802
 10
14.2374080469
 20
6.613987278
 10
14.2590199983
 20
6.6321608255
 10
14.2789924446
 20
6.6547981471
 10
14.296323884
 20
6.6807641129
 10
14.3101452456
 20
6.7087566808
 10
14.3197634689
 20
6.7373721868
 10
14.3246962557
 20
6.7651757298
 10
14.3246962557
 20
6.7907731242
 10
14.3197634689
 20
6.8128808095
 10
14.3101452456
 20
6.8303902143
 10
14.296323884
 20
6.8424233437
  0
LWPOLYLINE
  5
498
100
AcDbEntity
  8
0
100
AcDbPolyline
 62
7
  6
CONTINUOUS
 90
13
 70
0
 10
14.1808872092
 20
5.6311631562
 10
14.1866518688
 20
5.5973723016
 10
14.2037238274
 20
5.5648807273
 10
14.2314470194
 20
5.5349363498
 10
14.268756058
 20
5.5086899146
 10
14.3142171778
 20
5.4871500576
 10
14.3660833334
 20
5.4711445434
 10
14.4223613376
 20
5.4612884549
 10
14.4808884582
 20
5.4579605561
 10
14.5394155308
 20
5.4612887363
 10
14.5956933929
 20
5.4711450953
 10
14.6475593176
 20
5.4871508589
 10
14.6930201267
 20
5.5086909344
  0
LINE
  5
499
100
AcDbEntity
  8
0
100
AcDbLine
 62
7
  6
CONTINUOUS
 10
14.1119399156
 20
5.56276788
 11
14.1119399156
 21
5.4892826625
  0
LWPOLYLINE
  5
49A
100
AcDbEntity
  8
0
100
AcDbPolyline
 62
7
  6
CONTINUOUS
 90
6
 70
0
 10
13.2838224332
 20
6.1419959449
 10
13.303075824
 20
6.1480374852
 10
13.325243567
 20
6.1608359612
 10
13.3468555184
 20
6.1790095088
 10
13.3668279647
 20
6.2016468304
 10
13.384159404
 20
6.2276127961
  0
LWPOLYLINE
  5
49B
100
AcDbEntity
  8
0
100
AcDbPolyline
 62
7
  6
CONTINUOUS
 90
15
 70
0
 10
14.0926855051
 20
6.6366770404
 10
14.1100160309
 20
6.6307240992
 10
14.1299884772
 20
6.6311488345
 10
14.1516004286
 20
6.6379304699
 10
14.1737681716
 20
6.6507289459
 10
14.195380123
 20
6.6689024934
 10
14.2153525693
 20
6.691539815
 10
14.2326840087
 20
6.7175057808
 10
14.2465053704
 20
6.7454983488
 10
14.2561235936
 20
6.7741138547
 10
14.2610563805
 20
6.8019173978
 10
14.2610563805
 20
6.8275147921
 10
14.2561235936
 20
6.8496224774
 10
14.2465053704
 20
6.8671318822
 10
14.2326840087
 20
6.8791650116
  0
LWPOLYLINE
  5
49C
100
AcDbEntity
  8
0
100
AcDbPolyline
 62
7
  6
CONTINUOUS
 90
12
 70
0
 10
14.4568486402
 20
6.524413078
 10
14.4651212218
 20
6.5206436765
 10
14.4838911863
 20
6.517861821
 10
14.5048149493
 20
6.5214878057
 10
14.5268433062
 20
6.5313398087
 10
14.5488716631
 20
6.5469238094
 10
14.5697954262
 20
6.5674583609
 10
14.5885653906
 20
6.5919137751
 10
14.604240352
 20
6.6190637554
 10
14.6160343023
 20
6.6475468883
 10
14.6233558437
 20
6.6759349107
 10
14.6258378434
 20
6.7028043287
  0
LINE
  5
49D
100
AcDbEntity
  8
0
100
AcDbLine
 62
7
  6
CONTINUOUS
 10
14.1563244668
 20
6.5999358942
 11
13.9972261035
 21
6.6917940034
  0
LWPOLYLINE
  5
49E
100
AcDbEntity
  8
0
100
AcDbPolyline
 62
7
  6
CONTINUOUS
 90
11
 70
0
 10
14.8498345028
 20
5.6995584415
 10
14.8585633906
 20
5.6892181288
 10
14.8719845845
 20
5.6807164777
 10
14.8890107791
 20
5.6747422414
 10
14.9082626133
 20
5.6717794172
 10
14.9281804182
 20
5.6720680353
 10
14.9471505715
 20
5.6755847137
 10
14.9636362244
 20
5.6820445519
 10
14.9763018071
 20
5.6909242123
 10
14.9841212296
 20
5.7015043177
 10
14.9864819349
 20
5.7119240815
  0
LWPOLYLINE
  5
49F
100
AcDbEntity
  8
0
100
AcDbPolyline
 62
7
  6
CONTINUOUS
 90
6
 70
0
 10
14.4110145874
 20
5.3796814396
 10
14.4105403424
 20
5.3844210454
 10
14.4054083466
 20
5.3955359135
 10
14.3950603763
 20
5.4053658013
 10
14.3803347623
 20
5.4131143496
 10
14.3624244865
 20
5.4181538172
  0
LINE
  5
4A0
100
AcDbEntity
  8
0
100
AcDbLine
 62
7
  6
CONTINUOUS
 10
14.2687542917
 20
5.7536353871
 11
14.2687542917
 21
5.6801501696
  0
LINE
  5
4A1
100
AcDbEntity
  8
0
100
AcDbLine
 62
7
  6
CONTINUOUS
 10
13.9786414861
 20
5.7242665801
 11
13.9752913182
 21
5.7119219851
  0
LINE
  5
4A2
100
AcDbEntity
  8
0
100
AcDbLine
 62
7
  6
CONTINUOUS
 10
12.8297940969
 20
5.4862336461
 11
14.7743296492
 21
6.6089050692
  0
LWPOLYLINE
  5
4A3
100
AcDbEntity
  8
0
100
AcDbPolyline
 62
7
  6
CONTINUOUS
 90
7
 70
0
 10
14.8498345028
 20
5.6995584415
 10
14.8265576417
 20
5.7322692524
 10
14.7946436486
 20
5.7624537649
 10
14.7548899461
 20
5.7893577704
 10
14.7082898444
 20
5.8123090291
 10
14.656007722
 20
5.8307340668
 10
14.5993499319
 20
5.8441725044
  0
LWPOLYLINE
  5
4A4
100
AcDbEntity
  8
0
100
AcDbPolyline
 62
7
  6
CONTINUOUS
 90
7
 70
0
 10
14.9614860992
 20
5.6812020338
 10
14.9514450237
 20
5.6953126873
 10
14.9080008138
 20
5.7364025721
 10
14.8538844833
 20
5.7730267344
 10
14.7904482159
 20
5.8042700608
 10
14.7192770686
 20
5.8293518863
 10
14.6421493672
 20
5.8476455013
  0
LWPOLYLINE
  5
4A5
100
AcDbEntity
  8
0
100
AcDbPolyline
 62
7
  6
CONTINUOUS
 90
12
 70
0
 10
14.7735715153
 20
5.5944207513
 10
14.758050591
 20
5.6239603767
 10
14.730327399
 20
5.6539047542
 10
14.6930183604
 20
5.6801511894
 10
14.6475572406
 20
5.7016910464
 10
14.595691085
 20
5.7176965606
 10
14.5394130808
 20
5.7275526491
 10
14.4808859602
 20
5.7308805479
 10
14.4223588876
 20
5.7275523677
 10
14.3660810256
 20
5.7176960087
 10
14.3142151008
 20
5.7016902451
 10
14.2687542917
 20
5.6801501696
  0
LINE
  5
4A6
100
AcDbEntity
  8
0
100
AcDbLine
 62
7
  6
CONTINUOUS
 10
14.3196208692
 20
5.9211299436
 11
14.3196208692
 21
5.847644726
  0
LINE
  5
4A7
100
AcDbEntity
  8
0
100
AcDbLine
 62
7
  6
CONTINUOUS
 10
14.3595924576
 20
5.2771848962
 11
14.3595924576
 21
5.2036996787
  0
LINE
  5
4A8
100
AcDbEntity
  8
0
100
AcDbLine
 62
7
  6
CONTINUOUS
 10
14.3624244865
 20
5.4181538172
 11
14.3624244865
 21
5.3446685996
  0
LINE
  5
4A9
100
AcDbEntity
  8
0
100
AcDbLine
 62
7
  6
CONTINUOUS
 10
12.8510073886
 20
5.4494913509
 11
14.795542941
 21
6.5721627741
  0
LWPOLYLINE
  5
4AA
100
AcDbEntity
  8
0
100
AcDbPolyline
 62
7
  6
CONTINUOUS
 90
15
 70
0
 10
14.137224607
 20
6.9342819746
 10
14.1198940812
 20
6.9402349158
 10
14.0999216349
 20
6.9398101805
 10
14.0783096835
 20
6.9330285452
 10
14.0561419405
 20
6.9202300692
 10
14.0345299891
 20
6.9020565216
 10
14.0145575428
 20
6.8794192
 10
13.9972261035
 20
6.8534532343
 10
13.9834047418
 20
6.8254606663
 10
13.9737865186
 20
6.7968451603
 10
13.9688537317
 20
6.7690416173
 10
13.9688537317
 20
6.743444223
 10
13.9737865186
 20
6.7213365376
 10
13.9834047418
 20
6.7038271329
 10
13.9972261035
 20
6.6917940034
  0
LINE
  5
4AB
100
AcDbEntity
  8
0
100
AcDbLine
 62
7
  6
CONTINUOUS
 10
14.1372255206
 20
6.934281453
 11
14.296323884
 21
6.8424233437
  0
LINE
  5
4AC
100
AcDbEntity
  8
0
100
AcDbLine
 62
7
  6
CONTINUOUS
 10
13.9010564103
 20
7.1008564881
 11
13.837416535
 21
7.137598156
  0
LINE
  5
4AD
100
AcDbEntity
  8
0
100
AcDbLine
 62
7
  6
CONTINUOUS
 10
14.6258378434
 20
6.7028043287
 11
14.5621979682
 21
6.7395459966
  0
LWPOLYLINE
  5
4AE
100
AcDbEntity
  8
0
100
AcDbPolyline
 62
7
  6
CONTINUOUS
 90
7
 70
0
 10
14.9831315895
 20
5.7242689946
 10
14.9514450237
 20
5.7687979048
 10
14.9080008138
 20
5.8098877896
 10
14.8538844833
 20
5.846511952
 10
14.7904482159
 20
5.8777552783
 10
14.7192770686
 20
5.9028371038
 10
14.6421493672
 20
5.9211307188
  0
LWPOLYLINE
  5
4AF
100
AcDbEntity
  8
0
100
AcDbPolyline
 62
7
  6
CONTINUOUS
 90
8
 70
0
 10
14.4110109607
 20
5.8826442075
 10
14.4100368754
 20
5.8894043236
 10
14.4039457227
 20
5.9003565901
 10
14.3927567947
 20
5.9098744502
 10
14.3773765518
 20
5.9171868232
 10
14.3590510098
 20
5.9217013044
 10
14.3392647951
 20
5.9230521572
 10
14.3196208692
 20
5.9211299436
  0
LWPOLYLINE
  5
4B0
100
AcDbEntity
  8
0
100
AcDbPolyline
 62
7
  6
CONTINUOUS
 90
8
 70
0
 10
14.5507634577
 20
5.3796821141
 10
14.551737543
 20
5.372921998
 10
14.5578286957
 20
5.3619697314
 10
14.5690176237
 20
5.3524518714
 10
14.5843978666
 20
5.3451394983
 10
14.6027234086
 20
5.3406250172
 10
14.6225096233
 20
5.3392741644
 10
14.6421535493
 20
5.341196378
  0
LWPOLYLINE
  5
4B1
100
AcDbEntity
  8
0
100
AcDbPolyline
 62
7
  6
CONTINUOUS
 90
5
 70
0
 10
14.427848769
 20
6.5884959656
 10
14.4303307687
 20
6.564492497
 10
14.4376523101
 20
6.5445586118
 10
14.4494462604
 20
6.5296938784
 10
14.4568486402
 20
6.524413078
  0
LWPOLYLINE
  5
4B2
100
AcDbEntity
  8
0
100
AcDbPolyline
 62
7
  6
CONTINUOUS
 90
6
 70
0
 10
14.550759831
 20
5.8826448819
 10
14.551234076
 20
5.8779052762
 10
14.5563660718
 20
5.866790408
 10
14.5667140421
 20
5.8569605203
 10
14.5814396561
 20
5.849211972
 10
14.5993499319
 20
5.8441725044
  0
LINE
  5
4B3
100
AcDbEntity
  8
0
100
AcDbLine
 62
7
  6
CONTINUOUS
 10
14.427848769
 20
6.5884959656
 11
14.427848769
 21
7.4049983827
  0
LWPOLYLINE
  5
4B4
100
AcDbEntity
  8
0
100
AcDbPolyline
 62
7
  6
CONTINUOUS
 90
12
 70
0
 10
13.8720565391
 20
7.1649393757
 10
13.8637839575
 20
7.1687087772
 10
13.845013993
 20
7.1714906327
 10
13.8240902299
 20
7.1678646479
 10
13.8020618731
 20
7.1580126449
 10
13.7800335162
 20
7.1424286442
 10
13.7591097531
 20
7.1218940927
 10
13.7403397887
 20
7.0974386785
 10
13.7246648273
 20
7.0702886983
 10
13.7128708769
 20
7.0418055653
 10
13.7055493356
 20
7.0134175429
 10
13.7030673359
 20
6.986548125
  0
LWPOLYLINE
  5
4B5
100
AcDbEntity
  8
0
100
AcDbPolyline
 62
7
  6
CONTINUOUS
 90
3
 70
0
 10
14.5621979682
 20
7.5560484137
 10
14.5597159684
 20
7.5800518823
 10
14.5569043371
 20
7.5877069284
  0
LINE
  5
4B6
100
AcDbEntity
  8
0
100
AcDbLine
 62
7
  6
CONTINUOUS
 10
14.5621979682
 20
7.5560484137
 11
14.5621979682
 21
6.7395459966
  0
LINE
  5
4B7
100
AcDbEntity
  8
0
100
AcDbLine
 62
7
  6
CONTINUOUS
 10
14.599353004
 20
5.4181543867
 11
14.599353004
 21
5.3446691692
  0
LINE
  5
4B8
100
AcDbEntity
  8
0
100
AcDbLine
 62
7
  6
CONTINUOUS
 10
14.6258378434
 20
7.5193067458
 11
14.6258378434
 21
6.7028043287
  0
LINE
  5
4B9
100
AcDbEntity
  8
0
100
AcDbLine
 62
7
  6
CONTINUOUS
 10
14.6421493672
 20
5.9211307188
 11
14.6421493672
 21
5.8476455013
  0
LWPOLYLINE
  5
4BA
100
AcDbEntity
  8
0
100
AcDbPolyline
 62
7
  6
CONTINUOUS
 90
13
 70
0
 10
14.7808872092
 20
5.6311631654
 10
14.7751225497
 20
5.66495402
 10
14.758050591
 20
5.6974455942
 10
14.730327399
 20
5.7273899718
 10
14.6930183604
 20
5.7536364069
 10
14.6475572406
 20
5.7751762639
 10
14.595691085
 20
5.7911817781
 10
14.5394130808
 20
5.8010378666
 10
14.4808859602
 20
5.8043657654
 10
14.4223588876
 20
5.8010375853
 10
14.3660810256
 20
5.7911812262
 10
14.3142151008
 20
5.7751754627
 10
14.2687542917
 20
5.7536353871
  0
LWPOLYLINE
  5
4BB
100
AcDbEntity
  8
0
100
AcDbPolyline
 62
7
  6
CONTINUOUS
 90
7
 70
0
 10
14.7743296492
 20
6.6089050692
 10
14.7750524746
 20
6.6021479639
 10
14.7771716914
 20
6.5950167162
 10
14.7805428785
 20
6.5879973089
 10
14.7849362951
 20
6.5815681028
 10
14.7900525371
 20
6.5761672379
 10
14.795542941
 20
6.5721627741
  0
LWPOLYLINE
  5
4BC
100
AcDbEntity
  8
0
100
AcDbPolyline
 62
7
  6
CONTINUOUS
 90
5
 70
0
 10
14.6258378434
 20
7.5193067458
 10
14.6233558437
 20
7.5433102144
 10
14.6160343023
 20
7.5632440995
 10
14.604240352
 20
7.578108833
 10
14.5968379722
 20
7.5833896334
  0
LINE
  5
4BD
100
AcDbEntity
  8
0
100
AcDbLine
 62
7
  6
CONTINUOUS
 10
14.7743296492
 20
7.7275133807
 11
14.7743296492
 21
6.6089050692
  0
LWPOLYLINE
  5
4BE
100
AcDbEntity
  8
0
100
AcDbPolyline
 62
7
  6
CONTINUOUS
 90
5
 70
0
 10
14.2687542917
 20
5.7536353871
 10
14.2314456316
 20
5.7273887726
 10
14.2037228715
 20
5.6974442618
 10
14.1866513814
 20
5.6649526054
 10
14.1808872092
 20
5.6311631562
  0
LINE
  5
4BF
100
AcDbEntity
  8
0
100
AcDbLine
 62
7
  6
CONTINUOUS
 10
15.0940033032
 20
5.7011946646
 11
14.795542941
 21
6.5721627741
  0
LINE
  5
4C0
100
AcDbEntity
  8
0
100
AcDbLine
 62
7
  6
CONTINUOUS
 10
14.9864819349
 20
5.7119240815
 11
14.9831315895
 21
5.7242689946
  0
LWPOLYLINE
  5
4C1
100
AcDbEntity
  8
0
100
AcDbPolyline
 62
7
  6
CONTINUOUS
 90
11
 70
0
 10
14.9864831002
 20
5.5504043365
 10
14.9841222441
 20
5.5608244231
 10
14.976302669
 20
5.5714044909
 10
14.9636369582
 20
5.5802840904
 10
14.9471512122
 20
5.5867438494
 10
14.9281810081
 20
5.5902604366
 10
14.9082631991
 20
5.5905489589
 10
14.8890114076
 20
5.5875860421
 10
14.8719852992
 20
5.5816117241
 10
14.8585642279
 20
5.5731100085
 10
14.8498354892
 20
5.5627696537
  0
LWPOLYLINE
  5
4C2
100
AcDbEntity
  8
0
100
AcDbPolyline
 62
7
  6
CONTINUOUS
 90
5
 70
0
 10
14.7743296492
 20
7.7275133807
 10
14.7709330195
 20
7.7653748666
 10
14.7608739303
 20
7.7978587184
 10
14.7445377288
 20
7.8237188731
 10
14.7225515793
 20
7.8419599117
  0
LINE
  5
4C3
100
AcDbEntity
  8
0
100
AcDbLine
 62
7
  6
CONTINUOUS
 10
14.8498354892
 20
5.5627696537
 11
14.8498354892
 21
5.4892844362
  0
LWPOLYLINE
  5
4C4
100
AcDbEntity
  8
0
100
AcDbPolyline
 62
7
  6
CONTINUOUS
 90
4
 70
0
 10
14.2687542917
 20
5.6801501696
 10
14.2314456316
 20
5.6539035551
 10
14.2037228715
 20
5.6239590443
 10
14.1882029031
 20
5.5944203528
  0
LINE
  5
4C5
100
AcDbEntity
  8
0
100
AcDbLine
 62
7
  6
CONTINUOUS
 10
14.9228307874
 20
5.3760126892
 11
14.9228307874
 21
5.3025274717
  0
LINE
  5
4C6
100
AcDbEntity
  8
0
100
AcDbLine
 62
7
  6
CONTINUOUS
 10
14.9831315895
 20
5.7242689946
 11
14.9831315895
 21
5.7001652807
  0
LWPOLYLINE
  5
4C7
100
AcDbEntity
  8
0
100
AcDbPolyline
 62
7
  6
CONTINUOUS
 90
3
 70
0
 10
15.1058830992
 20
5.6311883372
 10
15.1055698889
 20
5.6426600927
 10
15.0940033032
 20
5.7011946646
  0
LINE
  5
4C8
100
AcDbEntity
  8
0
100
AcDbLine
 62
7
  6
CONTINUOUS
 10
15.1058872092
 20
5.5576779432
 11
15.1058872092
 21
5.6311631608
  0
LINE
  5
4C9
100
AcDbEntity
  8
0
100
AcDbLine
 62
7
  6
CONTINUOUS
 10
14.6258378434
 20
7.5193067458
 11
14.5621979682
 21
7.5560484137
  0
LINE
  5
4CA
100
AcDbEntity
  8
0
100
AcDbLine
 62
7
  6
CONTINUOUS
 10
14.9831329323
 20
5.5380597415
 11
14.9864831002
 21
5.5504043365
  0
LWPOLYLINE
  5
4CB
100
AcDbEntity
  8
0
100
AcDbPolyline
 62
7
  6
CONTINUOUS
 90
5
 70
0
 10
14.6930201267
 20
5.5086909344
 10
14.7303287868
 20
5.5349375489
 10
14.7580515469
 20
5.5648820598
 10
14.775123037
 20
5.5973737161
 10
14.7808872092
 20
5.6311631654
  0
LWPOLYLINE
  5
4CC
100
AcDbEntity
  8
0
100
AcDbPolyline
 62
7
  6
CONTINUOUS
 90
12
 70
0
 10
14.5968379722
 20
7.5833896334
 10
14.5885653906
 20
7.5871590349
 10
14.5697954262
 20
7.5899408904
 10
14.5488716631
 20
7.5863149057
 10
14.5268433062
 20
7.5764629027
 10
14.5048149493
 20
7.560878902
 10
14.4838911863
 20
7.5403443504
 10
14.4651212218
 20
7.5158889363
 10
14.4494462604
 20
7.488738956
 10
14.4376523101
 20
7.4602558231
 10
14.4303307687
 20
7.4318678006
 10
14.427848769
 20
7.4049983827
  0
LWPOLYLINE
  5
4CD
100
AcDbEntity
  8
0
100
AcDbPolyline
 62
7
  6
CONTINUOUS
 90
6
 70
0
 10
14.9228307874
 20
5.3760126892
 10
14.9888551332
 20
5.4209332888
 10
15.0413384772
 20
5.4714580279
 10
15.0788817605
 20
5.5262400584
 10
15.1004841845
 20
5.5838190448
 10
15.1058830992
 20
5.6311883372
  0
LWPOLYLINE
  5
4CE
100
AcDbEntity
  8
0
100
AcDbPolyline
 62
7
  6
CONTINUOUS
 90
5
 70
0
 10
14.7225515793
 20
7.8419599117
 10
14.6957648508
 20
7.8518787125
 10
14.6652015935
 20
7.8530967471
 10
14.6320406133
 20
7.8455667275
 10
14.5975536899
 20
7.8295779465
  0
LINE
  5
4CF
100
AcDbEntity
  8
0
100
AcDbLine
 62
7
  6
CONTINUOUS
 10
14.5975536899
 20
7.8295779465
 11
14.5339138147
 21
7.8663196144
  0
LINE
  5
4D0
100
AcDbEntity
  8
0
100
AcDbLine
 62
7
  6
CONTINUOUS
 10
14.7225515691
 20
7.8419599176
 11
14.6589116938
 21
7.8787015855
  0
LWPOLYLINE
  5
4D1
100
AcDbEntity
  8
0
100
AcDbPolyline
 62
7
  6
CONTINUOUS
 90
6
 70
0
 10
14.9228307874
 20
5.3025274717
 10
14.9888551332
 20
5.3474480713
 10
15.0413384772
 20
5.3979728104
 10
15.0788817605
 20
5.4527548408
 10
15.1004841845
 20
5.5103338272
 10
15.1058830992
 20
5.5577031197
  0
LINE
  5
4D2
100
AcDbEntity
  8
0
100
AcDbLine
 62
7
  6
CONTINUOUS
 10
6.8882825604
 20
3.6234223316
 11
6.8882825604
 21
5.1134223316
  0
LINE
  5
4D3
100
AcDbEntity
  8
0
100
AcDbLine
 62
7
  6
CONTINUOUS
 10
7.0982825604
 20
3.9634223316
 11
7.0982825604
 21
4.9634223316
  0
LINE
  5
4D4
100
AcDbEntity
  8
DEFAULT_1
100
AcDbLine
 62
7
  6
CENTER
 10
7.2382825604
 20
4.9634223316
 11
7.2382825604
 21
4.7234223316
  0
LINE
  5
4D5
100
AcDbEntity
  8
DEFAULT_1
100
AcDbLine
 62
7
  6
CENTER
 10
7.2382825604
 20
3.9634223316
 11
7.2382825604
 21
3.7234223316
  0
LINE
  5
4D6
100
AcDbEntity
  8
DEFAULT_1
100
AcDbLine
 62
7
  6
CENTER
 10
7.2382825604
 20
3.9634223316
 11
7.2382825604
 21
4.2034223316
  0
LINE
  5
4D7
100
AcDbEntity
  8
DEFAULT_1
100
AcDbLine
 62
7
  6
CENTER
 10
7.2382825604
 20
4.9634223316
 11
7.2382825604
 21
5.2034223316
  0
LINE
  5
4D8
100
AcDbEntity
  8
0
100
AcDbLine
 62
7
  6
CONTINUOUS
 10
7.3782825604
 20
4.9634223316
 11
7.3782825604
 21
3.9634223316
  0
LINE
  5
4D9
100
AcDbEntity
  8
0
100
AcDbLine
 62
7
  6
CONTINUOUS
 10
6.8882825604
 20
3.6234223316
 11
9.6382825604
 21
3.6234223316
  0
LINE
  5
4DA
100
AcDbEntity
  8
0
100
AcDbLine
 62
7
  6
CONTINUOUS
 10
6.8882825604
 20
3.7134223316
 11
9.6382825604
 21
3.7134223316
  0
LINE
  5
4DB
100
AcDbEntity
  8
0
100
AcDbLine
 62
7
  6
CONTINUOUS
 10
6.8882825604
 20
3.7434223316
 11
9.6382825604
 21
3.7434223316
  0
LINE
  5
4DC
100
AcDbEntity
  8
DEFAULT_1
100
AcDbLine
 62
7
  6
CENTER
 10
7.6632825604
 20
4.2684223316
 11
7.6632825604
 21
4.1952034896
  0
LINE
  5
4DD
100
AcDbEntity
  8
DEFAULT_1
100
AcDbLine
 62
7
  6
CENTER
 10
7.6632825604
 20
4.2684223316
 11
7.6632825604
 21
4.3416411736
  0
LINE
  5
4DE
100
AcDbEntity
  8
DEFAULT_1
100
AcDbLine
 62
7
  6
CENTER
 10
9.2882825604
 20
3.9634223316
 11
9.0482825604
 21
3.9634223316
  0
LINE
  5
4DF
100
AcDbEntity
  8
DEFAULT_1
100
AcDbLine
 62
7
  6
CENTER
 10
8.2632825604
 20
3.9634223316
 11
8.0232825604
 21
3.9634223316
  0
LINE
  5
4E0
100
AcDbEntity
  8
DEFAULT_1
100
AcDbLine
 62
7
  6
CENTER
 10
7.2382825604
 20
3.9634223316
 11
6.9982825604
 21
3.9634223316
  0
LINE
  5
4E1
100
AcDbEntity
  8
DEFAULT_1
100
AcDbLine
 62
7
  6
CENTER
 10
7.2382825604
 20
3.9634223316
 11
7.4782825604
 21
3.9634223316
  0
LINE
  5
4E2
100
AcDbEntity
  8
DEFAULT_1
100
AcDbLine
 62
7
  6
CENTER
 10
8.2632825604
 20
3.9634223316
 11
8.5032825604
 21
3.9634223316
  0
LINE
  5
4E3
100
AcDbEntity
  8
DEFAULT_1
100
AcDbLine
 62
7
  6
CENTER
 10
9.2882825604
 20
3.9634223316
 11
9.5282825604
 21
3.9634223316
  0
LINE
  5
4E4
100
AcDbEntity
  8
0
100
AcDbLine
 62
7
  6
CONTINUOUS
 10
7.7439735092
 20
3.7134223316
 11
7.7439735092
 21
3.6234223316
  0
LINE
  5
4E5
100
AcDbEntity
  8
DEFAULT_1
100
AcDbLine
 62
7
  6
CENTER
 10
7.8882825604
 20
4.4934223316
 11
7.8882825604
 21
4.4165540715
  0
LINE
  5
4E6
100
AcDbEntity
  8
DEFAULT_1
100
AcDbLine
 62
7
  6
CENTER
 10
7.8882825604
 20
4.4934223316
 11
7.8882825604
 21
4.5702905917
  0
LINE
  5
4E7
100
AcDbEntity
  8
0
100
AcDbLine
 62
7
  6
CONTINUOUS
 10
7.564287611
 20
4.367417281
 11
7.789287611
 21
4.592417281
  0
LINE
  5
4E8
100
AcDbEntity
  8
DEFAULT_1
100
AcDbLine
 62
7
  6
CENTER
 10
8.8632825604
 20
4.2684223316
 11
8.7734201332
 21
4.2684223316
  0
LINE
  5
4E9
100
AcDbEntity
  8
DEFAULT_1
100
AcDbLine
 62
7
  6
CENTER
 10
7.6632825604
 20
4.2684223316
 11
7.5900637184
 21
4.2684223316
  0
LINE
  5
4EA
100
AcDbEntity
  8
DEFAULT_1
100
AcDbLine
 62
7
  6
CENTER
 10
7.6632825604
 20
4.2684223316
 11
7.7365014023
 21
4.2684223316
  0
LINE
  5
4EB
100
AcDbEntity
  8
DEFAULT_1
100
AcDbLine
 62
7
  6
CENTER
 10
8.8632825604
 20
4.2684223316
 11
8.9531449876
 21
4.2684223316
  0
LINE
  5
4EC
100
AcDbEntity
  8
0
100
AcDbLine
 62
7
  6
CONTINUOUS
 10
8.1232825604
 20
3.9634223316
 11
8.1232825604
 21
4.9634223316
  0
LINE
  5
4ED
100
AcDbEntity
  8
0
100
AcDbLine
 62
7
  6
CONTINUOUS
 10
7.9872775097
 20
4.3944273823
 11
7.7622775097
 21
4.1694273823
  0
LINE
  5
4EE
100
AcDbEntity
  8
DEFAULT_1
100
AcDbLine
 62
7
  6
CENTER
 10
8.2632825604
 20
4.9634223316
 11
8.2632825604
 21
4.7140356631
  0
LINE
  5
4EF
100
AcDbEntity
  8
DEFAULT_1
100
AcDbLine
 62
7
  6
CENTER
 10
8.2632825604
 20
3.9634223316
 11
8.2632825604
 21
3.7234223316
  0
LINE
  5
4F0
100
AcDbEntity
  8
0
100
AcDbLine
 62
7
  6
CONTINUOUS
 10
8.2632825604
 20
3.7134223316
 11
8.2632825604
 21
3.6234223316
  0
LINE
  5
4F1
100
AcDbEntity
  8
DEFAULT_1
100
AcDbLine
 62
7
  6
CENTER
 10
8.2632825604
 20
3.9634223316
 11
8.2632825604
 21
4.2034223316
  0
LINE
  5
4F2
100
AcDbEntity
  8
DEFAULT_1
100
AcDbLine
 62
7
  6
CENTER
 10
8.2632825604
 20
4.9634223316
 11
8.2632825604
 21
5.3959889672
  0
LINE
  5
4F3
100
AcDbEntity
  8
DEFAULT_1
100
AcDbLine
 62
7
  6
CENTER
 10
8.6382825604
 20
4.4934223316
 11
8.5491264462
 21
4.4934223316
  0
LINE
  5
4F4
100
AcDbEntity
  8
DEFAULT_1
100
AcDbLine
 62
7
  6
CENTER
 10
7.8882825604
 20
4.4934223316
 11
7.8114143003
 21
4.4934223316
  0
LINE
  5
4F5
100
AcDbEntity
  8
DEFAULT_1
100
AcDbLine
 62
7
  6
CENTER
 10
7.8882825604
 20
4.4934223316
 11
7.9651508205
 21
4.4934223316
  0
LINE
  5
4F6
100
AcDbEntity
  8
DEFAULT_1
100
AcDbLine
 62
7
  6
CENTER
 10
8.6382825604
 20
4.4934223316
 11
8.7274386745
 21
4.4934223316
  0
LINE
  5
4F7
100
AcDbEntity
  8
0
100
AcDbLine
 62
7
  6
CONTINUOUS
 10
8.4032825604
 20
4.9634223316
 11
8.4032825604
 21
3.9634223316
  0
LINE
  5
4F8
100
AcDbEntity
  8
0
100
AcDbLine
 62
7
  6
CONTINUOUS
 10
8.764287611
 20
4.1694273823
 11
8.539287611
 21
4.3944273823
  0
LINE
  5
4F9
100
AcDbEntity
  8
DEFAULT_1
100
AcDbLine
 62
7
  6
CENTER
 10
8.6382825604
 20
4.4934223316
 11
8.6382825604
 21
4.4042662174
  0
LINE
  5
4FA
100
AcDbEntity
  8
DEFAULT_1
100
AcDbLine
 62
7
  6
CENTER
 10
8.6382825604
 20
4.4934223316
 11
8.6382825604
 21
4.5825784458
  0
LINE
  5
4FB
100
AcDbEntity
  8
0
100
AcDbLine
 62
7
  6
CONTINUOUS
 10
8.7372775097
 20
4.592417281
 11
8.9622775097
 21
4.367417281
  0
LINE
  5
4FC
100
AcDbEntity
  8
0
100
AcDbLine
 62
7
  6
CONTINUOUS
 10
8.7825916115
 20
3.7134223316
 11
8.7825916115
 21
3.6234223316
  0
LINE
  5
4FD
100
AcDbEntity
  8
DEFAULT_1
100
AcDbLine
 62
7
  6
CENTER
 10
9.2882825604
 20
4.9634223316
 11
9.0482825604
 21
4.9634223316
  0
LINE
  5
4FE
100
AcDbEntity
  8
DEFAULT_1
100
AcDbLine
 62
7
  6
CENTER
 10
8.2632825604
 20
4.9634223316
 11
8.0138958918
 21
4.9634223316
  0
LINE
  5
4FF
100
AcDbEntity
  8
DEFAULT_1
100
AcDbLine
 62
7
  6
CENTER
 10
7.2382825604
 20
4.9634223316
 11
6.9982825604
 21
4.9634223316
  0
LINE
  5
500
100
AcDbEntity
  8
DEFAULT_1
100
AcDbLine
 62
7
  6
CENTER
 10
7.2382825604
 20
4.9634223316
 11
7.4782825604
 21
4.9634223316
  0
LINE
  5
501
100
AcDbEntity
  8
DEFAULT_1
100
AcDbLine
 62
7
  6
CENTER
 10
8.2632825604
 20
4.9634223316
 11
8.5126692289
 21
4.9634223316
  0
LINE
  5
502
100
AcDbEntity
  8
DEFAULT_1
100
AcDbLine
 62
7
  6
CENTER
 10
9.2882825604
 20
4.9634223316
 11
9.5282825604
 21
4.9634223316
  0
LINE
  5
503
100
AcDbEntity
  8
DEFAULT_1
100
AcDbLine
 62
7
  6
CENTER
 10
8.8632825604
 20
4.2684223316
 11
8.8632825604
 21
4.1785599044
  0
LINE
  5
504
100
AcDbEntity
  8
DEFAULT_1
100
AcDbLine
 62
7
  6
CENTER
 10
8.8632825604
 20
4.2684223316
 11
8.8632825604
 21
4.3582847588
  0
LINE
  5
505
100
AcDbEntity
  8
0
100
AcDbLine
 62
7
  6
CONTINUOUS
 10
7.1382825604
 20
5.3634223316
 11
9.3882825604
 21
5.3634223316
  0
LINE
  5
506
100
AcDbEntity
  8
0
100
AcDbLine
 62
7
  6
CONTINUOUS
 10
9.1482825604
 20
3.9634223316
 11
9.1482825604
 21
4.9634223316
  0
LINE
  5
507
100
AcDbEntity
  8
DEFAULT_1
100
AcDbLine
 62
7
  6
CENTER
 10
9.2882825604
 20
4.9634223316
 11
9.2882825604
 21
4.7234223316
  0
LINE
  5
508
100
AcDbEntity
  8
DEFAULT_1
100
AcDbLine
 62
7
  6
CENTER
 10
9.2882825604
 20
3.9634223316
 11
9.2882825604
 21
3.7234223316
  0
LINE
  5
509
100
AcDbEntity
  8
DEFAULT_1
100
AcDbLine
 62
7
  6
CENTER
 10
9.2882825604
 20
3.9634223316
 11
9.2882825604
 21
4.2034223316
  0
LINE
  5
50A
100
AcDbEntity
  8
DEFAULT_1
100
AcDbLine
 62
7
  6
CENTER
 10
9.2882825604
 20
4.9634223316
 11
9.2882825604
 21
5.2034223316
  0
LINE
  5
50B
100
AcDbEntity
  8
0
100
AcDbLine
 62
7
  6
CONTINUOUS
 10
9.4282825604
 20
4.9634223316
 11
9.4282825604
 21
3.9634223316
  0
LINE
  5
50C
100
AcDbEntity
  8
0
100
AcDbLine
 62
7
  6
CONTINUOUS
 10
9.6382825604
 20
3.6234223316
 11
9.6382825604
 21
5.1134223316
  0
LINE
  5
50D
100
AcDbEntity
  8
0
100
AcDbLine
 62
7
  6
CONTINUOUS
 10
2.8417606417
 20
3.7434223316
 11
2.8417606417
 21
5.3634223316
  0
LINE
  5
50E
100
AcDbEntity
  8
0
100
AcDbLine
 62
7
  6
CONTINUOUS
 10
2.9617606417
 20
3.6234223316
 11
4.5167606417
 21
3.6234223316
  0
LINE
  5
50F
100
AcDbEntity
  8
0
100
AcDbLine
 62
7
  6
CONTINUOUS
 10
2.9317606417
 20
5.3634223316
 11
2.9317606417
 21
3.7434223316
  0
LINE
  5
510
100
AcDbEntity
  8
0
100
AcDbLine
 62
7
  6
CONTINUOUS
 10
2.9617606417
 20
3.6234223316
 11
2.9617606417
 21
3.7134223316
  0
LINE
  5
511
100
AcDbEntity
  8
0
100
AcDbLine
 62
7
  6
CONTINUOUS
 10
2.9617606417
 20
3.7134223316
 11
4.5167606417
 21
3.7134223316
  0
LINE
  5
512
100
AcDbEntity
  8
0
100
AcDbLine
 62
7
  6
CONTINUOUS
 10
2.8417606417
 20
3.7434223316
 11
2.9317606417
 21
3.7434223316
  0
LINE
  5
513
100
AcDbEntity
  8
0
100
AcDbLine
 62
7
  6
CONTINUOUS
 10
4.2395294001
 20
3.7134223316
 11
4.2395294001
 21
3.6234223316
  0
LINE
  5
514
100
AcDbEntity
  8
0
100
AcDbLine
 62
7
  6
CONTINUOUS
 10
2.9317606417
 20
5.1134223316
 11
2.8417606417
 21
5.1134223316
  0
LINE
  5
515
100
AcDbEntity
  8
0
100
AcDbLine
 62
7
  6
CONTINUOUS
 10
4.5167606417
 20
3.7134223316
 11
4.5167606417
 21
3.6234223316
  0
LINE
  5
516
100
AcDbEntity
  8
0
100
AcDbLine
 62
7
  6
CONTINUOUS
 10
2.9317606417
 20
5.3634223316
 11
2.8417606417
 21
5.3634223316
  0
LINE
  5
517
100
AcDbEntity
  8
0
100
AcDbLine
 62
7
  6
CONTINUOUS
 10
6.8882825604
 20
9.0333950127
 11
6.8882825604
 21
9.1533950127
  0
LINE
  5
518
100
AcDbEntity
  8
0
100
AcDbLine
 62
7
  6
CONTINUOUS
 10
7.1382825604
 20
9.0633950127
 11
7.1382825604
 21
9.1533950127
  0
LINE
  5
519
100
AcDbEntity
  8
0
100
AcDbLine
 62
7
  6
CONTINUOUS
 10
6.8882825604
 20
9.0333950127
 11
7.7439735092
 21
7.7556262542
  0
LINE
  5
51A
100
AcDbEntity
  8
DEFAULT_1
100
AcDbLine
 62
7
  6
CENTER
 10
8.4723967799
 20
7.6964828684
 11
8.425535435
 21
7.6964828684
  0
LINE
  5
51B
100
AcDbEntity
  8
DEFAULT_1
100
AcDbLine
 62
7
  6
CENTER
 10
8.0541683408
 20
7.6964828684
 11
8.0072236495
 21
7.6964828684
  0
LINE
  5
51C
100
AcDbEntity
  8
DEFAULT_1
100
AcDbLine
 62
7
  6
CENTER
 10
8.0541683408
 20
7.6964828684
 11
8.1011130321
 21
7.6964828684
  0
LINE
  5
51D
100
AcDbEntity
  8
DEFAULT_1
100
AcDbLine
 62
7
  6
CENTER
 10
8.4723967799
 20
7.6964828684
 11
8.5192581249
 21
7.6964828684
  0
LINE
  5
51E
100
AcDbEntity
  8
DEFAULT_1
100
AcDbLine
 62
7
  6
CENTER
 10
8.6701947047
 20
7.8942807931
 11
8.6271485135
 21
7.8942807931
  0
LINE
  5
51F
100
AcDbEntity
  8
DEFAULT_1
100
AcDbLine
 62
7
  6
CENTER
 10
7.8563704161
 20
7.8942807931
 11
7.8039973879
 21
7.8942807931
  0
LINE
  5
520
100
AcDbEntity
  8
DEFAULT_1
100
AcDbLine
 62
7
  6
CENTER
 10
7.8563704161
 20
7.8942807931
 11
7.9087434443
 21
7.8942807931
  0
LINE
  5
521
100
AcDbEntity
  8
DEFAULT_1
100
AcDbLine
 62
7
  6
CENTER
 10
8.6701947047
 20
7.8942807931
 11
8.7132408958
 21
7.8942807931
  0
LINE
  5
522
100
AcDbEntity
  8
DEFAULT_1
100
AcDbLine
 62
7
  6
CENTER
 10
7.8563704161
 20
8.3125092323
 11
7.8563704161
 21
8.2625315556
  0
LINE
  5
523
100
AcDbEntity
  8
DEFAULT_1
100
AcDbLine
 62
7
  6
CENTER
 10
7.8563704161
 20
7.8942807931
 11
7.8563704161
 21
7.8419077649
  0
LINE
  5
524
100
AcDbEntity
  8
DEFAULT_1
100
AcDbLine
 62
7
  6
CENTER
 10
7.8563704161
 20
7.8942807931
 11
7.8563704161
 21
7.9466538213
  0
LINE
  5
525
100
AcDbEntity
  8
DEFAULT_1
100
AcDbLine
 62
7
  6
CENTER
 10
7.8563704161
 20
8.3125092323
 11
7.8563704161
 21
8.3624869089
  0
LINE
  5
526
100
AcDbEntity
  8
DEFAULT_1
100
AcDbLine
 62
7
  6
CENTER
 10
8.0541683408
 20
8.510307157
 11
8.0541683408
 21
8.4683961483
  0
LINE
  5
527
100
AcDbEntity
  8
DEFAULT_1
100
AcDbLine
 62
7
  6
CENTER
 10
8.0541683408
 20
7.6964828684
 11
8.0541683408
 21
7.6495381771
  0
LINE
  5
528
100
AcDbEntity
  8
DEFAULT_1
100
AcDbLine
 62
7
  6
CENTER
 10
8.0541683408
 20
7.6964828684
 11
8.0541683408
 21
7.7434275597
  0
LINE
  5
529
100
AcDbEntity
  8
DEFAULT_1
100
AcDbLine
 62
7
  6
CENTER
 10
8.0541683408
 20
8.510307157
 11
8.0541683408
 21
8.5522181657
  0
LINE
  5
52A
100
AcDbEntity
  8
DEFAULT_1
100
AcDbLine
 62
7
  6
CENTER
 10
8.2632825604
 20
8.1033950127
 11
8.0574011454
 21
8.1033950127
  0
LINE
  5
52B
100
AcDbEntity
  8
DEFAULT_1
100
AcDbLine
 62
7
  6
CENTER
 10
8.2632825604
 20
8.1033950127
 11
8.4691639753
 21
8.1033950127
  0
LINE
  5
52C
100
AcDbEntity
  8
DEFAULT_1
100
AcDbLine
 62
7
  6
CENTER
 10
8.2632825604
 20
8.1033950127
 11
8.2632825604
 21
7.8975135978
  0
LINE
  5
52D
100
AcDbEntity
  8
DEFAULT_1
100
AcDbLine
 62
7
  6
CENTER
 10
8.2632825604
 20
8.1033950127
 11
8.2632825604
 21
8.3092764277
  0
LINE
  5
52E
100
AcDbEntity
  8
DEFAULT_1
100
AcDbLine
 62
7
  6
CENTER
 10
8.6701947047
 20
8.3125092323
 11
8.6227447406
 21
8.3125092323
  0
LINE
  5
52F
100
AcDbEntity
  8
DEFAULT_1
100
AcDbLine
 62
7
  6
CENTER
 10
7.8563704161
 20
8.3125092323
 11
7.8063927394
 21
8.3125092323
  0
LINE
  5
530
100
AcDbEntity
  8
DEFAULT_1
100
AcDbLine
 62
7
  6
CENTER
 10
7.8563704161
 20
8.3125092323
 11
7.9063480927
 21
8.3125092323
  0
LINE
  5
531
100
AcDbEntity
  8
DEFAULT_1
100
AcDbLine
 62
7
  6
CENTER
 10
8.6701947047
 20
8.3125092323
 11
8.7176446687
 21
8.3125092323
  0
LINE
  5
532
100
AcDbEntity
  8
DEFAULT_1
100
AcDbLine
 62
7
  6
CENTER
 10
8.4723967799
 20
8.510307157
 11
8.4723967799
 21
8.4647521397
  0
LINE
  5
533
100
AcDbEntity
  8
DEFAULT_1
100
AcDbLine
 62
7
  6
CENTER
 10
8.4723967799
 20
7.6964828684
 11
8.4723967799
 21
7.6496215234
  0
LINE
  5
534
100
AcDbEntity
  8
DEFAULT_1
100
AcDbLine
 62
7
  6
CENTER
 10
8.4723967799
 20
7.6964828684
 11
8.4723967799
 21
7.7433442134
  0
LINE
  5
535
100
AcDbEntity
  8
DEFAULT_1
100
AcDbLine
 62
7
  6
CENTER
 10
8.4723967799
 20
8.510307157
 11
8.4723967799
 21
8.5558621743
  0
LINE
  5
536
100
AcDbEntity
  8
DEFAULT_1
100
AcDbLine
 62
7
  6
CENTER
 10
8.4723967799
 20
8.510307157
 11
8.4268417626
 21
8.510307157
  0
LINE
  5
537
100
AcDbEntity
  8
DEFAULT_1
100
AcDbLine
 62
7
  6
CENTER
 10
8.0541683408
 20
8.510307157
 11
8.0122573321
 21
8.510307157
  0
LINE
  5
538
100
AcDbEntity
  8
DEFAULT_1
100
AcDbLine
 62
7
  6
CENTER
 10
8.0541683408
 20
8.510307157
 11
8.0960793495
 21
8.510307157
  0
LINE
  5
539
100
AcDbEntity
  8
DEFAULT_1
100
AcDbLine
 62
7
  6
CENTER
 10
8.4723967799
 20
8.510307157
 11
8.5179517972
 21
8.510307157
  0
LINE
  5
53A
100
AcDbEntity
  8
DEFAULT_1
100
AcDbLine
 62
7
  6
CENTER
 10
8.6701947047
 20
8.3125092323
 11
8.6701947047
 21
8.2650592682
  0
LINE
  5
53B
100
AcDbEntity
  8
DEFAULT_1
100
AcDbLine
 62
7
  6
CENTER
 10
8.6701947047
 20
7.8942807931
 11
8.6701947047
 21
7.851234602
  0
LINE
  5
53C
100
AcDbEntity
  8
DEFAULT_1
100
AcDbLine
 62
7
  6
CENTER
 10
8.6701947047
 20
7.8942807931
 11
8.6701947047
 21
7.9373269843
  0
LINE
  5
53D
100
AcDbEntity
  8
DEFAULT_1
100
AcDbLine
 62
7
  6
CENTER
 10
8.6701947047
 20
8.3125092323
 11
8.6701947047
 21
8.3599591963
  0
LINE
  5
53E
100
AcDbEntity
  8
0
100
AcDbLine
 62
7
  6
CONTINUOUS
 10
8.7825916115
 20
7.7556262542
 11
9.6382825604
 21
9.0333950127
  0
LINE
  5
53F
100
AcDbEntity
  8
0
100
AcDbLine
 62
7
  6
CONTINUOUS
 10
6.8882825604
 20
9.0333950127
 11
9.6382825604
 21
9.0333950127
  0
LINE
  5
540
100
AcDbEntity
  8
0
100
AcDbLine
 62
7
  6
CONTINUOUS
 10
6.8882825604
 20
9.0633950127
 11
9.6382825604
 21
9.0633950127
  0
LINE
  5
541
100
AcDbEntity
  8
0
100
AcDbLine
 62
7
  6
CONTINUOUS
 10
6.8882825604
 20
9.1533950127
 11
9.6382825604
 21
9.1533950127
  0
LINE
  5
542
100
AcDbEntity
  8
0
100
AcDbLine
 62
7
  6
CONTINUOUS
 10
9.3882825604
 20
9.0633950127
 11
9.3882825604
 21
9.1533950127
  0
LINE
  5
543
100
AcDbEntity
  8
0
100
AcDbLine
 62
7
  6
CONTINUOUS
 10
9.6382825604
 20
9.0333950127
 11
9.6382825604
 21
9.1533950127
  0
CIRCLE
  5
544
100
AcDbEntity
  8
0
100
AcDbCircle
 62
7
  6
CONTINUOUS
 10
10.5342808475
 20
1.243294839
 40
0.252091
  0
CIRCLE
  5
545
100
AcDbEntity
  8
0
100
AcDbCircle
 62
7
  6
CONTINUOUS
 10
10.5342808475
 20
1.243294839
 40
0.182698
  0
CIRCLE
  5
546
100
AcDbEntity
  8
0
100
AcDbCircle
 62
7
  6
CONTINUOUS
 10
10.1225539079
 20
1.9935547577
 40
0.0638444824
  0
CIRCLE
  5
547
100
AcDbEntity
  8
SKETCHED_ENT
100
AcDbCircle
 62
7
  6
CENTER
 10
8.2539581346
 20
8.1033994629
 40
0.45749924
  0
ARC
  5
548
100
AcDbEntity
  8
0
100
AcDbCircle
 62
7
  6
CONTINUOUS
 10
7.1382825604
 20
5.1134223316
 40
0.25
100
AcDbArc
 50
90.0
 51
180.0
  0
ARC
  5
549
100
AcDbEntity
  8
0
100
AcDbCircle
 62
7
  6
CONTINUOUS
 10
9.3882825604
 20
5.1134223316
 40
0.25
100
AcDbArc
 50
0.0
 51
90.0
  0
ARC
  5
54A
100
AcDbEntity
  8
0
100
AcDbCircle
 62
7
  6
CONTINUOUS
 10
7.2382825604
 20
4.9634223316
 40
0.14
100
AcDbArc
 50
0.0
 51
180.0
  0
ARC
  5
54B
100
AcDbEntity
  8
0
100
AcDbCircle
 62
7
  6
CONTINUOUS
 10
7.2382825604
 20
3.9634223316
 40
0.14
100
AcDbArc
 50
180.0
 51
360.0
  0
ARC
  5
54C
100
AcDbEntity
  8
0
100
AcDbCircle
 62
7
  6
CONTINUOUS
 10
8.2632825604
 20
4.9634223316
 40
0.14
100
AcDbArc
 50
0.0
 51
180.0
  0
ARC
  5
54D
100
AcDbEntity
  8
0
100
AcDbCircle
 62
7
  6
CONTINUOUS
 10
8.2632825604
 20
3.9634223316
 40
0.14
100
AcDbArc
 50
180.0
 51
360.0
  0
ARC
  5
54E
100
AcDbEntity
  8
0
100
AcDbCircle
 62
7
  6
CONTINUOUS
 10
9.2882825604
 20
4.9634223316
 40
0.14
100
AcDbArc
 50
0.0
 51
180.0
  0
ARC
  5
54F
100
AcDbEntity
  8
0
100
AcDbCircle
 62
7
  6
CONTINUOUS
 10
9.2882825604
 20
3.9634223316
 40
0.14
100
AcDbArc
 50
180.0
 51
360.0
  0
ARC
  5
550
100
AcDbEntity
  8
0
100
AcDbCircle
 62
7
  6
CONTINUOUS
 10
7.8882825604
 20
4.4934223316
 40
0.14
100
AcDbArc
 50
315.0
 51
135.0
  0
ARC
  5
551
100
AcDbEntity
  8
0
100
AcDbCircle
 62
7
  6
CONTINUOUS
 10
7.6632825604
 20
4.2684223316
 40
0.14
100
AcDbArc
 50
135.0
 51
315.0
  0
ARC
  5
552
100
AcDbEntity
  8
0
100
AcDbCircle
 62
7
  6
CONTINUOUS
 10
8.6382825604
 20
4.4934223316
 40
0.14
100
AcDbArc
 50
45.0
 51
225.0
  0
ARC
  5
553
100
AcDbEntity
  8
0
100
AcDbCircle
 62
7
  6
CONTINUOUS
 10
8.8632825604
 20
4.2684223316
 40
0.14
100
AcDbArc
 50
225.0
 51
45.0
  0
ARC
  5
554
100
AcDbEntity
  8
0
100
AcDbCircle
 62
7
  6
CONTINUOUS
 10
2.9617606417
 20
3.7434223316
 40
0.12
100
AcDbArc
 50
180.0
 51
270.0
  0
ARC
  5
555
100
AcDbEntity
  8
0
100
AcDbCircle
 62
7
  6
CONTINUOUS
 10
2.9617606417
 20
3.7434223316
 40
0.03
100
AcDbArc
 50
180.0
 51
270.0
  0
ARC
  5
556
100
AcDbEntity
  8
0
100
AcDbCircle
 62
7
  6
CONTINUOUS
 10
8.2632825604
 20
8.1033950127
 40
0.625
100
AcDbArc
 50
213.8092671497
 51
326.1907328503
  0
ARC
  5
557
100
AcDbEntity
  8
0
100
AcDbCircle
 62
7
  6
CONTINUOUS
 10
8.2632825604
 20
8.1033950127
 40
0.5275
100
AcDbArc
 50
62.8011380108
 51
117.1988619892
  0
ARC
  5
558
100
AcDbEntity
  8
0
100
AcDbCircle
 62
7
  6
CONTINUOUS
 10
8.2632825604
 20
8.1033950127
 40
0.5275
100
AcDbArc
 50
242.8011380108
 51
297.1988619892
  0
ARC
  5
559
100
AcDbEntity
  8
0
100
AcDbCircle
 62
7
  6
CONTINUOUS
 10
8.2632825604
 20
8.1033950127
 40
0.5275
100
AcDbArc
 50
152.8011380108
 51
207.1988619892
  0
ARC
  5
55A
100
AcDbEntity
  8
0
100
AcDbCircle
 62
7
  6
CONTINUOUS
 10
8.2632825604
 20
8.1033950127
 40
0.5275
100
AcDbArc
 50
332.8011380108
 51
27.1988619892
  0
ARC
  5
55B
100
AcDbEntity
  8
0
100
AcDbCircle
 62
7
  6
CONTINUOUS
 10
8.2632825604
 20
8.1033950127
 40
0.3875
100
AcDbArc
 50
62.8011380108
 51
117.1988619892
  0
ARC
  5
55C
100
AcDbEntity
  8
0
100
AcDbCircle
 62
7
  6
CONTINUOUS
 10
8.2632825604
 20
8.1033950127
 40
0.3875
100
AcDbArc
 50
242.8011380108
 51
297.1988619892
  0
ARC
  5
55D
100
AcDbEntity
  8
0
100
AcDbCircle
 62
7
  6
CONTINUOUS
 10
8.2632825604
 20
8.1033950127
 40
0.3875
100
AcDbArc
 50
152.8011380108
 51
207.1988619892
  0
ARC
  5
55E
100
AcDbEntity
  8
0
100
AcDbCircle
 62
7
  6
CONTINUOUS
 10
8.2632825604
 20
8.1033950127
 40
0.3875
100
AcDbArc
 50
332.8011380108
 51
27.1988619892
  0
CIRCLE
  5
55F
100
AcDbEntity
  8
0
100
AcDbCircle
 62
7
  6
CONTINUOUS
 10
8.2632825604
 20
8.1033950127
 40
0.3
  0
ARC
  5
560
100
AcDbEntity
  8
0
100
AcDbCircle
 62
7
  6
CONTINUOUS
 10
8.4723967799
 20
8.510307157
 40
0.07
100
AcDbArc
 50
242.8011380108
 51
62.8011380108
  0
ARC
  5
561
100
AcDbEntity
  8
0
100
AcDbCircle
 62
7
  6
CONTINUOUS
 10
8.0541683408
 20
8.510307157
 40
0.07
100
AcDbArc
 50
117.1988619892
 51
297.1988619892
  0
ARC
  5
562
100
AcDbEntity
  8
0
100
AcDbCircle
 62
7
  6
CONTINUOUS
 10
8.4723967799
 20
7.6964828684
 40
0.07
100
AcDbArc
 50
297.1988619892
 51
117.1988619892
  0
ARC
  5
563
100
AcDbEntity
  8
0
100
AcDbCircle
 62
7
  6
CONTINUOUS
 10
8.0541683408
 20
7.6964828684
 40
0.07
100
AcDbArc
 50
62.8011380108
 51
242.8011380108
  0
ARC
  5
564
100
AcDbEntity
  8
0
100
AcDbCircle
 62
7
  6
CONTINUOUS
 10
7.8563704161
 20
8.3125092323
 40
0.07
100
AcDbArc
 50
332.8011380108
 51
152.8011380108
  0
ARC
  5
565
100
AcDbEntity
  8
0
100
AcDbCircle
 62
7
  6
CONTINUOUS
 10
7.8563704161
 20
7.8942807931
 40
0.07
100
AcDbArc
 50
207.1988619892
 51
27.1988619892
  0
ARC
  5
566
100
AcDbEntity
  8
0
100
AcDbCircle
 62
7
  6
CONTINUOUS
 10
8.6701947047
 20
7.8942807931
 40
0.07
100
AcDbArc
 50
152.8011380108
 51
332.8011380108
  0
ARC
  5
567
100
AcDbEntity
  8
0
100
AcDbCircle
 62
7
  6
CONTINUOUS
 10
8.6701947047
 20
8.3125092323
 40
0.07
100
AcDbArc
 50
27.1988619892
 51
207.1988619892
  0
ENDSEC
  0
SECTION
  2
OBJECTS
  0
DICTIONARY
  5
C
100
AcDbDictionary
280
0
281
1
  3
ACAD_GROUP
350
D
  3
ACAD_MLINESTYLE
350
17
  3
ACAD_LAYOUT
350
1A
  3
ACAD_PLOTSETTINGS
350
19
  3
ACAD_PLOTSTYLENAME
350
E
  3
ACAD_TABLESTYLE
350
       568
  0
DICTIONARY
  5
D
102
{ACAD_REACTORS
330
C
102
}
100
AcDbDictionary
280
0
281
1
  0
ACDBDICTIONARYWDFLT
  5
E
102
{ACAD_REACTORS
330
C
102
}
100
AcDbDictionary
281
1
  3
Normal
350
F
100
AcDbDictionaryWithDefault
340
F
  0
DICTIONARY
  5
17
102
{ACAD_REACTORS
330
C
102
}
100
AcDbDictionary
280
0
281
1
  3
Standard
350
18
  0
DICTIONARY
  5
568
330
C
100
AcDbDictionary
281
1
  3
Standard
350
       56B
  3
Standard1
350
       56C
  0
DICTIONARY
  5
19
102
{ACAD_REACTORS
330
C
102
}
100
AcDbDictionary
281
1
  0
DICTIONARY
  5
1A
102
{ACAD_REACTORS
330
C
102
}
100
AcDbDictionary
281
1
  3
Model
350
569
  3
Layout1
350
56A
  0
ACDBPLACEHOLDER
  5
F
102
{ACAD_REACTORS
330
E
102
}
  0
MLINESTYLE
  5
18
102
{ACAD_REACTORS
330
17
102
}
100
AcDbMlineStyle
  2
STANDARD
 70
0
  3

 62
256
 51
90.0
 52
90.0
 71
2
 49
0.5
 62
256
  6
BYLAYER
 49
-0.5
 62
256
  6
BYLAYER
  0
LAYOUT
  5
569
102
{ACAD_REACTORS
330
1A
102
}
100
AcDbPlotSettings
  1

  2
none_device
  4
ANSI_B_(17.00_x_11.00_Inches)
  6

 40
0.0
 41
0.0
 42
0.0
 43
0.0
 44
431.8
 45
279.4
 46
0.0
 47
0.0
 48
0.0
 49
0.0
140
0.0
141
0.0
142
1.0
143
1.0
 70
1024
 72
0
 73
0
 74
0
  7

 75
0
147
1.0
148
0.0
149
0.0
100
AcDbLayout
  1
Model
 70
0
 71
0
 10
0.0
 20
0.0
 11
17.0
 21
11.0
 12
0.0
 22
0.0
 32
0.0
 14
0.0
 24
0.0
 34
0.0
 15
0.0
 25
0.0
 35
0.0
146
0.0
 13
0.0
 23
0.0
 33
0.0
 16
1.0
 26
0.0
 36
0.0
 17
0.0
 27
1.0
 37
0.0
 76
0
330
20B
345
0
346
0
  0
LAYOUT
  5
56A
102
{ACAD_REACTORS
330
1A
102
}
100
AcDbPlotSettings
  1

  2
none_device
  4
ANSI_B_(17.00_x_11.00_Inches)
  6

 40
0.0
 41
0.0
 42
0.0
 43
0.0
 44
431.8
 45
279.4
 46
0.0
 47
0.0
 48
0.0
 49
0.0
140
0.0
141
0.0
142
1.0
143
1.0
 70
0
 72
0
 73
0
 74
0
  7

 75
0
147
1.0
148
0.0
149
0.0
100
AcDbLayout
  1
Layout1
 70
0
 71
1
 10
0.0
 20
0.0
 11
17.0
 21
11.0
 12
0.0
 22
0.0
 32
0.0
 14
0.0
 24
0.0
 34
0.0
 15
0.0
 25
0.0
 35
0.0
146
0.0
 13
0.0
 23
0.0
 33
0.0
 16
1.0
 26
0.0
 36
0.0
 17
0.0
 27
1.0
 37
0.0
 76
0
330
20C
345
0
346
0
  0
TABLESTYLE
  5
56B
102
{ACAD_REACTORS
330
568
102
}
330
568
100
AcDbTableStyle
  3
Standard
 70
0
 71
0
 40
0.06
 41
0.06
280
1
281
1
  7
Standard
140
0.18
170
1
 62
0
 63
7
283
0
  7
Standard
140
0.18
170
1
 62
0
 63
7
283
0
  7
Standard
140
0.18
170
1
 62
0
 63
7
283
0
  0
TABLESTYLE
  5
56C
102
{ACAD_REACTORS
330
568
330
301
102
}
330
568
100
AcDbTableStyle
  3
Standard1
 70
1
 71
0
 40
0.06
 41
0.06
280
1
281
1
  7
Standard
140
0.18
170
1
 62
0
 63
7
283
0
  7
Standard
140
0.18
170
1
 62
0
 63
7
283
0
  7
Standard
140
0.18
170
1
 62
0
 63
7
283
0
  0
ENDSEC
  0
EOF
