999
DXF file: 156642_1.dxf
999
Pro/ENGINEER 2009141 by Parametric Technology Corporation
  0
SECTION
  2
HEADER
  9
$ACADVER
  1
AC1015
  9
$DWGCODEPAGE
  3
ANSI_1252
  9
$EXTMAX
 10
17.0
 20
11.0
 30
0.0
  9
$EXTMIN
 10
0.0
 20
0.0
 30
0.0
  9
$LIMMIN
 10
0.0
 20
0.0
  9
$LIMMAX
 10
17.0
 20
11.0
  9
$VIEWCTR
 10
8.5
 20
5.5
  9
$VIEWSIZE
 40
11.0
  9
$CLAYER
  8
0
  9
$LTSCALE
 40
0.935
  9
$CELTYPE
  6
BYLAYER
  9
$DIMSCALE
 40
1.0
  9
$DIMASZ
 40
0.1875
  9
$DIMEXO
 40
0.10625
  9
$DIMDLI
 40
0.646
  9
$DIMEXE
 40
0.306
  9
$DIMCEN
 40
0.153
  9
$DIMLFAC
 40
1.0
  9
$DIMBLK
  1
_FILLED
  9
$DIMTXT
 40
0.1
  9
$DIMTOL
 70
1
  9
$DIMLIM
 70
0
  9
$DIMTFAC
 40
1.0
  9
$DIMTP
 40
0.005
  9
$DIMTM
 40
0.005
  9
$PDMODE
 70
3
  9
$PDSIZE
 40
0.3125
  9
$HANDSEED
  5
96C
  9
$TILEMODE
 70
1
  9
$MEASUREMENT
 70
0
  9
$INSUNITS
 70
1
  0
ENDSEC
  0
SECTION
  2
CLASSES
  0
CLASS
  1
ACDBDICTIONARYWDFLT
  2
AcDbDictionaryWithDefault
  3
AutoCAD 2000
 90
0
280
0
281
0
  0
CLASS
  1
ACDBPLACEHOLDER
  2
AcDbPlaceHolder
  3
AutoCAD 2000
 90
0
280
0
281
0
  0
CLASS
  1
LAYOUT
  2
AcDbLayout
  3
AutoCAD 2000
 90
0
280
0
281
0
  0
ENDSEC
  0
SECTION
  2
TABLES
  0
TABLE
  2
VPORT
  5
8
100
AcDbSymbolTable
 70
2
  0
VPORT
  5
1F4
100
AcDbSymbolTableRecord
100
AcDbViewportTableRecord
  2
*ACTIVE
 70
0
 10
0.0
 20
0.0
 11
1.0
 21
1.0
 12
8.5
 22
5.5
 13
0.0
 23
0.0
 14
1.0
 24
1.0
 15
0.0
 25
0.0
 16
0.0
 26
0.0
 36
1.0
 17
0.0
 27
0.0
 37
0.0
 40
11.0
 41
1.5454545455
 42
50.0
 43
0.0
 44
0.0
 50
0.0
 51
0.0
 71
0
 72
100
 73
1
 74
1
 75
0
 76
0
 77
0
 78
0
  0
ENDTAB
  0
TABLE
  2
LTYPE
  5
5
100
AcDbSymbolTable
 70
6
  0
LTYPE
  5
14
100
AcDbSymbolTableRecord
100
AcDbLinetypeTableRecord
  2
BYBLOCK
 70
0
  3

 72
65
 73
0
 40
0.0
  0
LTYPE
  5
15
100
AcDbSymbolTableRecord
100
AcDbLinetypeTableRecord
  2
BYLAYER
 70
0
  3

 72
65
 73
0
 40
0.0
  0
LTYPE
  5
16
100
AcDbSymbolTableRecord
100
AcDbLinetypeTableRecord
  2
CONTINUOUS
 70
64
  3
Solid line
 72
65
 73
0
 40
0.0
  0
LTYPE
  5
1F5
100
AcDbSymbolTableRecord
100
AcDbLinetypeTableRecord
  2
CENTER
 70
64
  3
____ _ ____ _ ____ _ ____ _ ____ _ ____ _ ____
 72
65
 73
4
 40
0.6
 49
0.375
 74
0
 49
-0.075
 74
0
 49
0.075
 74
0
 49
-0.075
 74
0
  0
LTYPE
  5
1F6
100
AcDbSymbolTableRecord
100
AcDbLinetypeTableRecord
  2
HIDDEN
 70
64
  3
- - - - - - - - - - - - - - - - - - - -
 72
65
 73
2
 40
0.2
 49
0.1
 74
0
 49
-0.1
 74
0
  0
LTYPE
  5
1F7
100
AcDbSymbolTableRecord
100
AcDbLinetypeTableRecord
  2
PHANTOM
 70
64
  3
_____ _ _ _____ _ _ _____ _ _ _____
 72
65
 73
6
 40
0.8
 49
0.45
 74
0
 49
-0.05
 74
0
 49
0.1
 74
0
 49
-0.05
 74
0
 49
0.1
 74
0
 49
-0.05
 74
0
  0
LTYPE
  5
1F8
100
AcDbSymbolTableRecord
100
AcDbLinetypeTableRecord
  2
DOT
 70
64
  3
. . . . . . . . . . . . . . . . . . . .
 72
65
 73
2
 40
0.2
 49
0.1
 74
0
 49
-0.1
 74
0
  0
LTYPE
  5
1F9
100
AcDbSymbolTableRecord
100
AcDbLinetypeTableRecord
  2
DASHED
 70
64
  3
- - - - - - - - - - - - - - - - - - - -
 72
65
 73
2
 40
0.2
 49
0.1
 74
0
 49
-0.1
 74
0
  0
ENDTAB
  0
TABLE
  2
LAYER
  5
2
100
AcDbSymbolTable
 70
36
  0
LAYER
  5
10
100
AcDbSymbolTableRecord
100
AcDbLayerTableRecord
  2
0
 70
0
 62
7
  6
CONTINUOUS
370
-3
390
F
  0
LAYER
  5
1FA
100
AcDbSymbolTableRecord
100
AcDbLayerTableRecord
  2
DEFAULT_1
 70
0
 62
7
  6
CENTER
370
-3
390
F
  0
LAYER
  5
1FB
100
AcDbSymbolTableRecord
100
AcDbLayerTableRecord
  2
DEFAULT_2
 70
0
 62
8
  6
HIDDEN
370
-3
390
F
  0
LAYER
  5
1FC
100
AcDbSymbolTableRecord
100
AcDbLayerTableRecord
  2
DEFAULT_3
 70
0
 62
7
  6
PHANTOM
370
-3
390
F
  0
LAYER
  5
1FD
100
AcDbSymbolTableRecord
100
AcDbLayerTableRecord
  2
AXIS_COSMETIC_THREADS
 70
0
 62
7
  6
CONTINUOUS
370
-3
390
F
  0
LAYER
  5
1FE
100
AcDbSymbolTableRecord
100
AcDbLayerTableRecord
  2
DATUM_CURVE
 70
0
 62
7
  6
CONTINUOUS
370
-3
390
F
  0
LAYER
  5
1FF
100
AcDbSymbolTableRecord
100
AcDbLayerTableRecord
  2
DATUM_PLANES
 70
0
 62
7
  6
CONTINUOUS
370
-3
390
F
  0
LAYER
  5
200
100
AcDbSymbolTableRecord
100
AcDbLayerTableRecord
  2
INTFCLR_5
 70
0
 62
7
  6
CONTINUOUS
370
-3
390
F
  0
LAYER
  5
201
100
AcDbSymbolTableRecord
100
AcDbLayerTableRecord
  2
NOTES
 70
0
 62
7
  6
CONTINUOUS
370
-3
390
F
  0
LAYER
  5
202
100
AcDbSymbolTableRecord
100
AcDbLayerTableRecord
  2
QUILTS
 70
0
 62
7
  6
CONTINUOUS
370
-3
390
F
  0
LAYER
  5
203
100
AcDbSymbolTableRecord
100
AcDbLayerTableRecord
  2
SCHEME_DIMS
 70
0
 62
7
  6
CONTINUOUS
370
-3
390
F
  0
LAYER
  5
204
100
AcDbSymbolTableRecord
100
AcDbLayerTableRecord
  2
SURFACE
 70
0
 62
7
  6
CONTINUOUS
370
-3
390
F
  0
LAYER
  5
205
100
AcDbSymbolTableRecord
100
AcDbLayerTableRecord
  2
SYMBOLS
 70
0
 62
7
  6
CONTINUOUS
370
-3
390
F
  0
LAYER
  5
206
100
AcDbSymbolTableRecord
100
AcDbLayerTableRecord
  2
XSEC_DATUMS
 70
0
 62
7
  6
CONTINUOUS
370
-3
390
F
  0
ENDTAB
  0
TABLE
  2
STYLE
  5
3
100
AcDbSymbolTable
 70
1
  0
STYLE
  5
11
100
AcDbSymbolTableRecord
100
AcDbTextStyleTableRecord
  2
STANDARD
 70
0
 40
0.0
 41
1.0
 50
0.0
 71
0
 42
0.2
  3
txt
  4

  0
STYLE
  5
207
100
AcDbSymbolTableRecord
100
AcDbTextStyleTableRecord
  2
TEXTSTYLE_1
 70
0
 40
0.0
 41
0.8
 50
0.0
 71
0
 42
0.2
  3
gdt
  4

  0
STYLE
  5
208
100
AcDbSymbolTableRecord
100
AcDbTextStyleTableRecord
  2
TEXTSTYLE_2
 70
0
 40
0.0
 41
0.8
 50
0.0
 71
0
 42
0.2
  3
txt
  4

  0
STYLE
  5
209
100
AcDbSymbolTableRecord
100
AcDbTextStyleTableRecord
  2
TEXTSTYLE_3
 70
0
 40
0.0
 41
0.85
 50
0.0
 71
0
 42
0.2
  3
txt
  4

  0
STYLE
  5
20A
100
AcDbSymbolTableRecord
100
AcDbTextStyleTableRecord
  2
TEXTSTYLE_4
 70
0
 40
0.0
 41
0.92
 50
0.0
 71
0
 42
0.2
  3
txt
  4

  0
STYLE
  5
20B
100
AcDbSymbolTableRecord
100
AcDbTextStyleTableRecord
  2
TEXTSTYLE_5
 70
0
 40
0.0
 41
1.0
 50
0.0
 71
0
 42
0.2
  3
gdt
  4

  0
ENDTAB
  0
TABLE
  2
VIEW
  5
6
100
AcDbSymbolTable
 70
0
  0
ENDTAB
  0
TABLE
  2
UCS
  5
7
100
AcDbSymbolTable
 70
0
  0
ENDTAB
  0
TABLE
  2
APPID
  5
9
100
AcDbSymbolTable
 70
1
  0
APPID
  5
20C
100
AcDbSymbolTableRecord
100
AcDbRegAppTableRecord
  2
ACAD
 70
0
  0
ENDTAB
  0
TABLE
  2
BLOCK_RECORD
  5
1
100
AcDbSymbolTable
 70
0
  0
BLOCK_RECORD
  5
20D
100
AcDbSymbolTableRecord
100
AcDbBlockTableRecord
  2
*Model_Space
  0
BLOCK_RECORD
  5
20E
100
AcDbSymbolTableRecord
100
AcDbBlockTableRecord
  2
*Paper_Space
  0
BLOCK_RECORD
  5
20F
100
AcDbSymbolTableRecord
100
AcDbBlockTableRecord
  2
_FILLED
  0
BLOCK_RECORD
  5
210
100
AcDbSymbolTableRecord
100
AcDbBlockTableRecord
  2
*D0
  0
BLOCK_RECORD
  5
211
100
AcDbSymbolTableRecord
100
AcDbBlockTableRecord
  2
*D1
  0
BLOCK_RECORD
  5
212
100
AcDbSymbolTableRecord
100
AcDbBlockTableRecord
  2
*D2
  0
BLOCK_RECORD
  5
213
100
AcDbSymbolTableRecord
100
AcDbBlockTableRecord
  2
*D3
  0
BLOCK_RECORD
  5
214
100
AcDbSymbolTableRecord
100
AcDbBlockTableRecord
  2
*D4
  0
BLOCK_RECORD
  5
215
100
AcDbSymbolTableRecord
100
AcDbBlockTableRecord
  2
*D5
  0
BLOCK_RECORD
  5
216
100
AcDbSymbolTableRecord
100
AcDbBlockTableRecord
  2
*D6
  0
BLOCK_RECORD
  5
217
100
AcDbSymbolTableRecord
100
AcDbBlockTableRecord
  2
*D7
  0
BLOCK_RECORD
  5
218
100
AcDbSymbolTableRecord
100
AcDbBlockTableRecord
  2
*D8
  0
BLOCK_RECORD
  5
219
100
AcDbSymbolTableRecord
100
AcDbBlockTableRecord
  2
*D9
  0
BLOCK_RECORD
  5
21A
100
AcDbSymbolTableRecord
100
AcDbBlockTableRecord
  2
*D10
  0
BLOCK_RECORD
  5
21B
100
AcDbSymbolTableRecord
100
AcDbBlockTableRecord
  2
*D11
  0
BLOCK_RECORD
  5
21C
100
AcDbSymbolTableRecord
100
AcDbBlockTableRecord
  2
*D12
  0
BLOCK_RECORD
  5
21D
100
AcDbSymbolTableRecord
100
AcDbBlockTableRecord
  2
*D13
  0
BLOCK_RECORD
  5
21E
100
AcDbSymbolTableRecord
100
AcDbBlockTableRecord
  2
*D14
  0
BLOCK_RECORD
  5
21F
100
AcDbSymbolTableRecord
100
AcDbBlockTableRecord
  2
BANNER_LOGO_TITLEBLOCK_BL0
  0
ENDTAB
  0
TABLE
  2
DIMSTYLE
  5
A
100
AcDbSymbolTable
 70
1
100
AcDbDimStyleTable
 71
0
  0
DIMSTYLE
105
220
100
AcDbSymbolTableRecord
100
AcDbDimStyleTableRecord
  2
STANDARD
 70
0
  3

  4

 40
1.0
 41
0.1875
 42
0.0625
 43
0.38
 44
0.18
 45
0.0
 46
0.0
 47
0.005
 48
0.005
140
0.1
141
0.09
142
0.0
143
25.4
144
1.0
145
0.0
146
1.0
147
0.09
 71
1.0
 72
0.0
 73
1
 74
1
 75
0
 76
0
 77
0
 78
4
170
0
171
2
172
0
173
0
174
0
175
0
176
0
177
0
178
0
270
2
271
3
272
3
273
2
274
2
275
0
280
0
281
0
282
0
283
1
284
4
285
0
286
0
287
3
288
0
340
11
341
20F
342
20F
343
20F
344
20F
  0
DIMSTYLE
105
221
100
AcDbSymbolTableRecord
100
AcDbDimStyleTableRecord
  2
DIMSTYLE_1
 70
0
  3

  4

 40
1.0
 41
0.1875
 42
0.0625
 43
0.38
 44
0.18
 45
0.0
 46
0.0
 47
0.1
 48
0.1
140
0.1
141
0.09
142
0.0
143
25.4
144
1.0
145
0.0
146
1.0
147
0.09
 71
0.0
 72
0.0
 73
1
 74
1
 75
0
 76
0
 77
0
 78
4
170
0
171
2
172
0
173
0
174
0
175
0
176
0
177
0
178
0
270
2
271
1
272
1
273
2
274
2
275
0
280
0
281
0
282
0
283
1
284
4
285
0
286
0
287
3
288
0
340
11
341
20F
342
20F
343
20F
344
20F
  0
DIMSTYLE
105
222
100
AcDbSymbolTableRecord
100
AcDbDimStyleTableRecord
  2
DIMSTYLE_2
 70
0
  3

  4

 40
1.0
 41
0.1875
 42
0.0625
 43
0.38
 44
0.18
 45
0.0
 46
0.0
 47
0.1
 48
0.1
140
0.1
141
0.09
142
0.0
143
25.4
144
1.0
145
0.0
146
1.0
147
0.09
 71
0.0
 72
0.0
 73
1
 74
1
 75
0
 76
0
 77
0
 78
4
170
0
171
2
172
0
173
0
174
0
175
0
176
0
177
0
178
0
270
2
271
1
272
1
273
2
274
2
275
0
280
0
281
0
282
0
283
1
284
4
285
0
286
0
287
3
288
0
340
11
341
20F
342
20F
343
20F
344
20F
  0
ENDTAB
  0
ENDSEC
  0
SECTION
  2
BLOCKS
  0
BLOCK
  5
20
100
AcDbEntity
  8
0
100
AcDbBlockBegin
  2
*Model_Space
 70
0
 10
0.0
 20
0.0
 30
0.0
  3
*Model_Space
  1

  0
ENDBLK
  5
21
100
AcDbEntity
  8
0
100
AcDbBlockEnd
  0
BLOCK
  5
1C
100
AcDbEntity
  8
0
100
AcDbBlockBegin
  2
*Paper_Space
 70
0
 10
0.0
 20
0.0
 30
0.0
  3
*Paper_Space
  1

  0
ENDBLK
  5
1D
100
AcDbEntity
  8
0
100
AcDbBlockEnd
  0
BLOCK
  5
223
100
AcDbEntity
  8
0
100
AcDbBlockBegin
 62
2
  6
CONTINUOUS
  2
BANNER_LOGO_TITLEBLOCK_BL0
 70
64
 10
12.9086867042
 20
2.5403783405
  3
BANNER_LOGO_TITLEBLOCK_BL0
  1

  0
ELLIPSE
  5
224
100
AcDbEntity
  8
0
100
AcDbEllipse
 62
2
  6
CONTINUOUS
 10
12.9046654608
 20
2.5403783405
 30
0.0
 11
-0.8250004575
 21
0.0
 31
0.0
 40
0.218572
 41
0.0
 42
6.2831853072
  0
ARC
  5
225
100
AcDbEntity
  8
0
100
AcDbCircle
 62
2
  6
CONTINUOUS
 10
12.400005721
 20
2.5168763464
 40
0.0153945295
100
AcDbArc
 50
354.0454548824
 51
5.1878013979
  0
ARC
  5
226
100
AcDbEntity
  8
0
100
AcDbCircle
 62
2
  6
CONTINUOUS
 10
12.3931760319
 20
2.5166878286
 40
0.0222174455
100
AcDbArc
 50
4.0793399388
 51
69.834329283
  0
LINE
  5
227
100
AcDbEntity
  8
0
100
AcDbLine
 62
2
  6
CONTINUOUS
 10
12.4008351814
 20
2.5375433389
 11
12.3907841758
 21
2.5410923409
  0
LINE
  5
228
100
AcDbEntity
  8
0
100
AcDbLine
 62
2
  6
CONTINUOUS
 10
12.3907841758
 20
2.5410923409
 11
12.3990241804
 21
2.5458683435
  0
ARC
  5
229
100
AcDbEntity
  8
0
100
AcDbCircle
 62
2
  6
CONTINUOUS
 10
12.3771587979
 20
2.5826952352
 40
0.0428289026
100
AcDbArc
 50
300.6990502959
 51
319.0591802498
  0
ARC
  5
22A
100
AcDbEntity
  8
0
100
AcDbCircle
 62
2
  6
CONTINUOUS
 10
12.3971873948
 20
2.5665668817
 40
0.0171568255
100
AcDbArc
 50
315.9145124245
 51
16.0049121282
  0
ARC
  5
22B
100
AcDbEntity
  8
0
100
AcDbCircle
 62
2
  6
CONTINUOUS
 10
12.3922357827
 20
2.5632132173
 40
0.0229166529
100
AcDbArc
 50
20.6563876465
 51
62.3316896973
  0
ARC
  5
22C
100
AcDbEntity
  8
0
100
AcDbCircle
 62
2
  6
CONTINUOUS
 10
12.371573659
 20
2.5302846524
 40
0.061747717
100
AcDbArc
 50
59.5385584989
 51
90.0050977555
  0
LINE
  5
22D
100
AcDbEntity
  8
0
100
AcDbLine
 62
2
  6
CONTINUOUS
 10
12.3715681652
 20
2.5920323691
 11
12.2055050731
 21
2.5920323691
  0
ARC
  5
22E
100
AcDbEntity
  8
0
100
AcDbCircle
 62
2
  6
CONTINUOUS
 10
12.2055050712
 20
2.5895573696
 40
0.0024749995
100
AcDbArc
 50
89.9999571957
 51
180.0000428043
  0
LINE
  5
22F
100
AcDbEntity
  8
0
100
AcDbLine
 62
2
  6
CONTINUOUS
 10
12.2030300717
 20
2.5895573678
 11
12.2030300717
 21
2.5697573568
  0
ARC
  5
230
100
AcDbEntity
  8
0
100
AcDbCircle
 62
2
  6
CONTINUOUS
 10
12.2055050712
 20
2.5697573549
 40
0.0024749995
100
AcDbArc
 50
179.9999571957
 51
270.0000428043
  0
LINE
  5
231
100
AcDbEntity
  8
0
100
AcDbLine
 62
2
  6
CONTINUOUS
 10
12.2055050731
 20
2.5672823554
 11
12.2294470864
 21
2.5672823554
  0
ARC
  5
232
100
AcDbEntity
  8
0
100
AcDbCircle
 62
2
  6
CONTINUOUS
 10
12.2294470882
 20
2.5648073559
 40
0.0024749995
100
AcDbArc
 50
359.9999571957
 51
90.0000428043
  0
LINE
  5
233
100
AcDbEntity
  8
0
100
AcDbLine
 62
2
  6
CONTINUOUS
 10
12.2319220877
 20
2.564807354
 11
12.2319220877
 21
2.5184523283
  0
ARC
  5
234
100
AcDbEntity
  8
0
100
AcDbCircle
 62
2
  6
CONTINUOUS
 10
12.2294470882
 20
2.5184523265
 40
0.0024749995
100
AcDbArc
 50
269.9999571957
 51
0.0000428043
  0
LINE
  5
235
100
AcDbEntity
  8
0
100
AcDbLine
 62
2
  6
CONTINUOUS
 10
12.2294470864
 20
2.515977327
 11
12.2055050731
 21
2.515977327
  0
ARC
  5
236
100
AcDbEntity
  8
0
100
AcDbCircle
 62
2
  6
CONTINUOUS
 10
12.2055050712
 20
2.5135023274
 40
0.0024749995
100
AcDbArc
 50
89.9999571957
 51
180.0000428043
  0
LINE
  5
237
100
AcDbEntity
  8
0
100
AcDbLine
 62
2
  6
CONTINUOUS
 10
12.2030300717
 20
2.5135023256
 11
12.2030300717
 21
2.4937023146
  0
ARC
  5
238
100
AcDbEntity
  8
0
100
AcDbCircle
 62
2
  6
CONTINUOUS
 10
12.2055050712
 20
2.4937023128
 40
0.0024749995
100
AcDbArc
 50
179.9999571957
 51
270.0000428043
  0
LINE
  5
239
100
AcDbEntity
  8
0
100
AcDbLine
 62
2
  6
CONTINUOUS
 10
12.2055050731
 20
2.4912273132
 11
12.3819511709
 21
2.4912273132
  0
ARC
  5
23A
100
AcDbEntity
  8
0
100
AcDbCircle
 62
2
  6
CONTINUOUS
 10
12.3792298263
 20
2.539634765
 40
0.048483885
100
AcDbArc
 50
273.21763719
 51
303.0749121182
  0
ARC
  5
23B
100
AcDbEntity
  8
0
100
AcDbCircle
 62
2
  6
CONTINUOUS
 10
12.3940692204
 20
2.5168671561
 40
0.0213072145
100
AcDbArc
 50
303.0488228549
 51
355.7263138674
  0
LINE
  5
23C
100
AcDbEntity
  8
0
100
AcDbLine
 62
2
  6
CONTINUOUS
 10
12.2949101227
 20
2.5499573458
 11
12.3362731456
 21
2.5499573458
  0
ARC
  5
23D
100
AcDbEntity
  8
0
100
AcDbCircle
 62
2
  6
CONTINUOUS
 10
12.3362731456
 20
2.5586198506
 40
0.0086625048
100
AcDbArc
 50
270.0
 51
90.0
  0
LINE
  5
23E
100
AcDbEntity
  8
0
100
AcDbLine
 62
2
  6
CONTINUOUS
 10
12.3362731456
 20
2.5672823554
 11
12.2949101227
 21
2.5672823554
  0
ARC
  5
23F
100
AcDbEntity
  8
0
100
AcDbCircle
 62
2
  6
CONTINUOUS
 10
12.2949101208
 20
2.5648073559
 40
0.0024749995
100
AcDbArc
 50
89.9999571957
 51
180.0000428043
  0
LINE
  5
240
100
AcDbEntity
  8
0
100
AcDbLine
 62
2
  6
CONTINUOUS
 10
12.2924351213
 20
2.564807354
 11
12.2924351213
 21
2.5524323472
  0
ARC
  5
241
100
AcDbEntity
  8
0
100
AcDbCircle
 62
2
  6
CONTINUOUS
 10
12.2949101208
 20
2.5524323453
 40
0.0024749995
100
AcDbArc
 50
179.9999571957
 51
270.0000428043
  0
LINE
  5
242
100
AcDbEntity
  8
0
100
AcDbLine
 62
2
  6
CONTINUOUS
 10
12.2924351213
 20
2.5184523283
 11
12.2924351213
 21
2.5308273352
  0
ARC
  5
243
100
AcDbEntity
  8
0
100
AcDbCircle
 62
2
  6
CONTINUOUS
 10
12.2949101208
 20
2.530827337
 40
0.0024749995
100
AcDbArc
 50
89.9999571957
 51
180.0000428043
  0
LINE
  5
244
100
AcDbEntity
  8
0
100
AcDbLine
 62
2
  6
CONTINUOUS
 10
12.2949101227
 20
2.5333023366
 11
12.3362731456
 21
2.5333023366
  0
ARC
  5
245
100
AcDbEntity
  8
0
100
AcDbCircle
 62
2
  6
CONTINUOUS
 10
12.3362731456
 20
2.5246398318
 40
0.0086625048
100
AcDbArc
 50
270.0
 51
90.0
  0
LINE
  5
246
100
AcDbEntity
  8
0
100
AcDbLine
 62
2
  6
CONTINUOUS
 10
12.3362731456
 20
2.515977327
 11
12.2949101227
 21
2.515977327
  0
ARC
  5
247
100
AcDbEntity
  8
0
100
AcDbCircle
 62
2
  6
CONTINUOUS
 10
12.2949101208
 20
2.5184523265
 40
0.0024749995
100
AcDbArc
 50
179.9999571957
 51
270.0000428043
  0
ARC
  5
248
100
AcDbEntity
  8
0
100
AcDbCircle
 62
2
  6
CONTINUOUS
 10
13.5806801742
 20
2.5212486481
 40
0.044722495
100
AcDbArc
 50
195.531588407
 51
204.7624440448
  0
LINE
  5
249
100
AcDbEntity
  8
0
100
AcDbLine
 62
2
  6
CONTINUOUS
 10
13.5375908118
 20
2.5092733232
 11
13.5357868108
 21
2.5153423266
  0
ARC
  5
24A
100
AcDbEntity
  8
0
100
AcDbCircle
 62
2
  6
CONTINUOUS
 10
13.4974076135
 20
2.5055452462
 40
0.0396099176
100
AcDbArc
 50
14.3201081283
 51
22.4984722084
  0
ARC
  5
24B
100
AcDbEntity
  8
0
100
AcDbCircle
 62
2
  6
CONTINUOUS
 10
13.5201739219
 20
2.5145168728
 40
0.0151491919
100
AcDbArc
 50
24.098260853
 51
63.0369451818
  0
ARC
  5
24C
100
AcDbEntity
  8
0
100
AcDbCircle
 62
2
  6
CONTINUOUS
 10
13.5161192671
 20
2.5062372524
 40
0.0243676582
100
AcDbArc
 50
63.3666028271
 51
90.3937697637
  0
LINE
  5
24D
100
AcDbEntity
  8
0
100
AcDbLine
 62
2
  6
CONTINUOUS
 10
13.5159517998
 20
2.5306043351
 11
13.4883447845
 21
2.5306043351
  0
ARC
  5
24E
100
AcDbEntity
  8
0
100
AcDbCircle
 62
2
  6
CONTINUOUS
 10
13.4883447827
 20
2.5281293355
 40
0.0024749995
100
AcDbArc
 50
89.9999571957
 51
180.0000428043
  0
LINE
  5
24F
100
AcDbEntity
  8
0
100
AcDbLine
 62
2
  6
CONTINUOUS
 10
13.4858697831
 20
2.5281293337
 11
13.4858697831
 21
2.5184303283
  0
ARC
  5
250
100
AcDbEntity
  8
0
100
AcDbCircle
 62
2
  6
CONTINUOUS
 10
13.4883447827
 20
2.5184303265
 40
0.0024749995
100
AcDbArc
 50
179.9999571957
 51
270.0000428043
  0
LINE
  5
251
100
AcDbEntity
  8
0
100
AcDbLine
 62
2
  6
CONTINUOUS
 10
13.4883447845
 20
2.5159553269
 11
13.5130037982
 21
2.5159553269
  0
ARC
  5
252
100
AcDbEntity
  8
0
100
AcDbCircle
 62
2
  6
CONTINUOUS
 10
13.5130038
 20
2.5134803274
 40
0.0024749995
100
AcDbArc
 50
359.9999571957
 51
90.0000428043
  0
LINE
  5
253
100
AcDbEntity
  8
0
100
AcDbLine
 62
2
  6
CONTINUOUS
 10
13.5154787995
 20
2.5134803256
 11
13.5154787995
 21
2.4937023146
  0
ARC
  5
254
100
AcDbEntity
  8
0
100
AcDbCircle
 62
2
  6
CONTINUOUS
 10
13.5130038
 20
2.4937023128
 40
0.0024749995
100
AcDbArc
 50
269.9999571957
 51
0.0000428043
  0
LINE
  5
255
100
AcDbEntity
  8
0
100
AcDbLine
 62
2
  6
CONTINUOUS
 10
13.5130037982
 20
2.4912273132
 11
13.3994327352
 21
2.4912273132
  0
ARC
  5
256
100
AcDbEntity
  8
0
100
AcDbCircle
 62
2
  6
CONTINUOUS
 10
13.3994327333
 20
2.4937023128
 40
0.0024749995
100
AcDbArc
 50
179.9999571957
 51
270.0000428043
  0
LINE
  5
257
100
AcDbEntity
  8
0
100
AcDbLine
 62
2
  6
CONTINUOUS
 10
13.3969577338
 20
2.4937023146
 11
13.3969577338
 21
2.5135023256
  0
ARC
  5
258
100
AcDbEntity
  8
0
100
AcDbCircle
 62
2
  6
CONTINUOUS
 10
13.3994327333
 20
2.5135023274
 40
0.0024749995
100
AcDbArc
 50
89.9999571957
 51
180.0000428043
  0
LINE
  5
259
100
AcDbEntity
  8
0
100
AcDbLine
 62
2
  6
CONTINUOUS
 10
13.3994327352
 20
2.515977327
 11
13.4221787478
 21
2.515977327
  0
ARC
  5
25A
100
AcDbEntity
  8
0
100
AcDbCircle
 62
2
  6
CONTINUOUS
 10
13.4221787497
 20
2.5184523265
 40
0.0024749995
100
AcDbArc
 50
269.9999571957
 51
0.0000428042
  0
LINE
  5
25B
100
AcDbEntity
  8
0
100
AcDbLine
 62
2
  6
CONTINUOUS
 10
13.4246537492
 20
2.5184523283
 11
13.4246537492
 21
2.564807354
  0
ARC
  5
25C
100
AcDbEntity
  8
0
100
AcDbCircle
 62
2
  6
CONTINUOUS
 10
13.4221787497
 20
2.5648073559
 40
0.0024749995
100
AcDbArc
 50
359.9999571957
 51
90.0000428043
  0
LINE
  5
25D
100
AcDbEntity
  8
0
100
AcDbLine
 62
2
  6
CONTINUOUS
 10
13.4221787478
 20
2.5672823554
 11
13.3994327352
 21
2.5672823554
  0
ARC
  5
25E
100
AcDbEntity
  8
0
100
AcDbCircle
 62
2
  6
CONTINUOUS
 10
13.3994327333
 20
2.5697573549
 40
0.0024749995
100
AcDbArc
 50
179.9999571957
 51
270.0000428043
  0
LINE
  5
25F
100
AcDbEntity
  8
0
100
AcDbLine
 62
2
  6
CONTINUOUS
 10
13.3969577338
 20
2.5697573568
 11
13.3969577338
 21
2.5895573678
  0
ARC
  5
260
100
AcDbEntity
  8
0
100
AcDbCircle
 62
2
  6
CONTINUOUS
 10
13.3994327333
 20
2.5895573696
 40
0.0024749995
100
AcDbArc
 50
89.9999571957
 51
180.0000428043
  0
LINE
  5
261
100
AcDbEntity
  8
0
100
AcDbLine
 62
2
  6
CONTINUOUS
 10
13.3994327352
 20
2.5920323691
 11
13.5490138181
 21
2.5920323691
  0
ARC
  5
262
100
AcDbEntity
  8
0
100
AcDbCircle
 62
2
  6
CONTINUOUS
 10
13.5463505148
 20
2.4094934586
 40
0.1825583387
100
AcDbArc
 50
79.8618509324
 51
89.1640948679
  0
ARC
  5
263
100
AcDbEntity
  8
0
100
AcDbCircle
 62
2
  6
CONTINUOUS
 10
13.5726548052
 20
2.5503169747
 40
0.039319019
100
AcDbArc
 50
59.1202086415
 51
81.4730239328
  0
ARC
  5
264
100
AcDbEntity
  8
0
100
AcDbCircle
 62
2
  6
CONTINUOUS
 10
13.5783142014
 20
2.5566516438
 40
0.0310192946
100
AcDbArc
 50
34.7540871
 51
62.0879016178
  0
ARC
  5
265
100
AcDbEntity
  8
0
100
AcDbCircle
 62
2
  6
CONTINUOUS
 10
13.5900029525
 20
2.565201245
 40
0.0165459396
100
AcDbArc
 50
1.548452892
 51
33.5033152417
  0
ARC
  5
266
100
AcDbEntity
  8
0
100
AcDbCircle
 62
2
  6
CONTINUOUS
 10
13.5932995477
 20
2.5653696972
 40
0.0132462337
100
AcDbArc
 50
331.1510006998
 51
1.205404301
  0
ARC
  5
267
100
AcDbEntity
  8
0
100
AcDbCircle
 62
2
  6
CONTINUOUS
 10
13.5822888914
 20
2.5720482849
 40
0.0261183659
100
AcDbArc
 50
305.6373831893
 51
329.9727629745
  0
ARC
  5
268
100
AcDbEntity
  8
0
100
AcDbCircle
 62
2
  6
CONTINUOUS
 10
13.5519569538
 20
2.6152551345
 40
0.0789082104
100
AcDbArc
 50
292.906155071
 51
305.2574666259
  0
ARC
  5
269
100
AcDbEntity
  8
0
100
AcDbCircle
 62
2
  6
CONTINUOUS
 10
13.5282557878
 20
2.4386010294
 40
0.117346916
100
AcDbArc
 50
58.614769177
 51
62.3737227606
  0
ARC
  5
26A
100
AcDbEntity
  8
0
100
AcDbCircle
 62
2
  6
CONTINUOUS
 10
13.5761387404
 20
2.5167282896
 40
0.0257145923
100
AcDbArc
 50
39.3804255939
 51
59.0361096173
  0
ARC
  5
26B
100
AcDbEntity
  8
0
100
AcDbCircle
 62
2
  6
CONTINUOUS
 10
13.5750183849
 20
2.5166552064
 40
0.0266349791
100
AcDbArc
 50
20.3630922153
 51
37.9727053099
  0
ARC
  5
26C
100
AcDbEntity
  8
0
100
AcDbCircle
 62
2
  6
CONTINUOUS
 10
13.5571178432
 20
2.509473798
 40
0.0459185159
100
AcDbArc
 50
15.6740290068
 51
20.9917271228
  0
ARC
  5
26D
100
AcDbEntity
  8
0
100
AcDbCircle
 62
2
  6
CONTINUOUS
 10
13.6156881783
 20
2.525116781
 40
0.0147197649
100
AcDbArc
 50
192.7054516565
 51
206.0594861022
  0
ARC
  5
26E
100
AcDbEntity
  8
0
100
AcDbCircle
 62
2
  6
CONTINUOUS
 10
13.6071938412
 20
2.5209082945
 40
0.0052403997
100
AcDbArc
 50
205.5232099488
 51
227.5054868079
  0
ARC
  5
26F
100
AcDbEntity
  8
0
100
AcDbCircle
 62
2
  6
CONTINUOUS
 10
13.6054655419
 20
2.5190929218
 40
0.0027347709
100
AcDbArc
 50
228.5117626737
 51
266.1485845754
  0
LINE
  5
270
100
AcDbEntity
  8
0
100
AcDbLine
 62
2
  6
CONTINUOUS
 10
13.6052818493
 20
2.5163643272
 11
13.60639085
 21
2.5163643272
  0
ARC
  5
271
100
AcDbEntity
  8
0
100
AcDbCircle
 62
2
  6
CONTINUOUS
 10
13.6063292954
 20
2.5296129864
 40
0.0132488022
100
AcDbArc
 50
270.266200055
 51
281.2404888597
  0
ARC
  5
272
100
AcDbEntity
  8
0
100
AcDbCircle
 62
2
  6
CONTINUOUS
 10
13.6075235364
 20
2.5238762928
 40
0.0073895522
100
AcDbArc
 50
280.8288201977
 51
305.0837508495
  0
ARC
  5
273
100
AcDbEntity
  8
0
100
AcDbCircle
 62
2
  6
CONTINUOUS
 10
13.607924718
 20
2.5230254464
 40
0.0064647042
100
AcDbArc
 50
306.5086174083
 51
340.2162360092
  0
ARC
  5
274
100
AcDbEntity
  8
0
100
AcDbCircle
 62
2
  6
CONTINUOUS
 10
13.6027235414
 20
2.524769508
 40
0.0119498009
100
AcDbArc
 50
340.7883861657
 51
1.1691452593
  0
LINE
  5
275
100
AcDbEntity
  8
0
100
AcDbLine
 62
2
  6
CONTINUOUS
 10
13.6146708546
 20
2.525013332
 11
13.6146708546
 21
2.5276393334
  0
ARC
  5
276
100
AcDbEntity
  8
0
100
AcDbCircle
 62
2
  6
CONTINUOUS
 10
13.6171458541
 20
2.5276393353
 40
0.0024749995
100
AcDbArc
 50
89.9999571957
 51
180.0000428043
  0
LINE
  5
277
100
AcDbEntity
  8
0
100
AcDbLine
 62
2
  6
CONTINUOUS
 10
13.6171458559
 20
2.5301143348
 11
13.6292558626
 21
2.5301143348
  0
ARC
  5
278
100
AcDbEntity
  8
0
100
AcDbCircle
 62
2
  6
CONTINUOUS
 10
13.6292558645
 20
2.5276393353
 40
0.0024749995
100
AcDbArc
 50
359.9999571957
 51
90.0000428043
  0
LINE
  5
279
100
AcDbEntity
  8
0
100
AcDbLine
 62
2
  6
CONTINUOUS
 10
13.631730864
 20
2.5276393334
 11
13.631730864
 21
2.516087327
  0
ARC
  5
27A
100
AcDbEntity
  8
0
100
AcDbCircle
 62
2
  6
CONTINUOUS
 10
13.6141751675
 20
2.5161916447
 40
0.0175560065
100
AcDbArc
 50
332.2279060967
 51
359.6595469939
  0
ARC
  5
27B
100
AcDbEntity
  8
0
100
AcDbCircle
 62
2
  6
CONTINUOUS
 10
13.6048681567
 20
2.5210861501
 40
0.0280715479
100
AcDbArc
 50
308.5071794988
 51
332.2400656899
  0
ARC
  5
27C
100
AcDbEntity
  8
0
100
AcDbCircle
 62
2
  6
CONTINUOUS
 10
13.5978759713
 20
2.5286873679
 40
0.0383802683
100
AcDbArc
 50
288.7656836787
 51
309.6104317088
  0
ARC
  5
27D
100
AcDbEntity
  8
0
100
AcDbCircle
 62
2
  6
CONTINUOUS
 10
13.6036139387
 20
2.5111006186
 40
0.0198837666
100
AcDbArc
 50
271.8586572978
 51
289.4131338543
  0
LINE
  5
27E
100
AcDbEntity
  8
0
100
AcDbLine
 62
2
  6
CONTINUOUS
 10
13.6042588488
 20
2.4912273132
 11
13.5568948225
 21
2.4912273132
  0
ARC
  5
27F
100
AcDbEntity
  8
0
100
AcDbCircle
 62
2
  6
CONTINUOUS
 10
13.5577001432
 20
2.5085494649
 40
0.0173408616
100
AcDbArc
 50
232.4713476722
 51
267.338189944
  0
ARC
  5
280
100
AcDbEntity
  8
0
100
AcDbCircle
 62
2
  6
CONTINUOUS
 10
13.5607987082
 20
2.5143997688
 40
0.0238935861
100
AcDbArc
 50
209.8247607259
 51
235.1255079367
  0
ARC
  5
281
100
AcDbEntity
  8
0
100
AcDbCircle
 62
2
  6
CONTINUOUS
 10
13.5295131508
 20
2.5629115009
 40
0.0110815393
100
AcDbArc
 50
306.758405961
 51
320.4502234234
  0
ARC
  5
282
100
AcDbEntity
  8
0
100
AcDbCircle
 62
2
  6
CONTINUOUS
 10
13.5238839599
 20
2.5706523294
 40
0.0206523367
100
AcDbArc
 50
289.6883413472
 51
306.4184925496
  0
ARC
  5
283
100
AcDbEntity
  8
0
100
AcDbCircle
 62
2
  6
CONTINUOUS
 10
13.5219564542
 20
2.5750459767
 40
0.0254407115
100
AcDbArc
 50
270.7327484175
 51
290.441894219
  0
LINE
  5
284
100
AcDbEntity
  8
0
100
AcDbLine
 62
2
  6
CONTINUOUS
 10
13.5222818033
 20
2.5496073456
 11
13.4883447845
 21
2.5496073456
  0
ARC
  5
285
100
AcDbEntity
  8
0
100
AcDbCircle
 62
2
  6
CONTINUOUS
 10
13.4883447827
 20
2.5520823451
 40
0.0024749995
100
AcDbArc
 50
179.9999571957
 51
270.0000428043
  0
LINE
  5
286
100
AcDbEntity
  8
0
100
AcDbLine
 62
2
  6
CONTINUOUS
 10
13.4858697831
 20
2.552082347
 11
13.4858697831
 21
2.564807354
  0
ARC
  5
287
100
AcDbEntity
  8
0
100
AcDbCircle
 62
2
  6
CONTINUOUS
 10
13.4883447827
 20
2.5648073559
 40
0.0024749995
100
AcDbArc
 50
89.9999571957
 51
180.0000428043
  0
LINE
  5
288
100
AcDbEntity
  8
0
100
AcDbLine
 62
2
  6
CONTINUOUS
 10
13.4883447845
 20
2.5672823554
 11
13.5251458049
 21
2.5672823554
  0
ARC
  5
289
100
AcDbEntity
  8
0
100
AcDbCircle
 62
2
  6
CONTINUOUS
 10
13.5236009174
 20
2.5388278764
 40
0.0284963867
100
AcDbArc
 50
70.3834917948
 51
86.8922743861
  0
ARC
  5
28A
100
AcDbEntity
  8
0
100
AcDbCircle
 62
2
  6
CONTINUOUS
 10
13.5284605274
 20
2.5518696094
 40
0.0145814632
100
AcDbArc
 50
54.6746025112
 51
71.1660573124
  0
ARC
  5
28B
100
AcDbEntity
  8
0
100
AcDbCircle
 62
2
  6
CONTINUOUS
 10
13.5335900184
 20
2.5587235346
 40
0.0060275915
100
AcDbArc
 50
20.9055592135
 51
56.7851676243
  0
ARC
  5
28C
100
AcDbEntity
  8
0
100
AcDbCircle
 62
2
  6
CONTINUOUS
 10
13.5348905773
 20
2.5593838168
 40
0.0045795888
100
AcDbArc
 50
355.6235353944
 51
18.9942678268
  0
ARC
  5
28D
100
AcDbEntity
  8
0
100
AcDbCircle
 62
2
  6
CONTINUOUS
 10
13.533683767
 20
2.559677593
 40
0.0058087709
100
AcDbArc
 50
318.8515287446
 51
353.6422345323
  0
LINE
  5
28E
100
AcDbEntity
  8
0
100
AcDbLine
 62
2
  6
CONTINUOUS
 10
12.672340332
 20
2.5920323691
 11
12.7727983877
 21
2.5920323691
  0
ARC
  5
28F
100
AcDbEntity
  8
0
100
AcDbCircle
 62
2
  6
CONTINUOUS
 10
12.7727985224
 20
2.5895582013
 40
0.0024741678
100
AcDbArc
 50
46.3477981899
 51
90.0031206038
  0
LINE
  5
290
100
AcDbEntity
  8
0
100
AcDbLine
 62
2
  6
CONTINUOUS
 10
12.7745063886
 20
2.5913483688
 11
12.8345394219
 21
2.534068337
  0
ARC
  5
291
100
AcDbEntity
  8
0
100
AcDbCircle
 62
2
  6
CONTINUOUS
 10
12.8362481229
 20
2.5358592748
 40
0.0024753014
100
AcDbArc
 50
226.3461263059
 51
0.0014637321
  0
LINE
  5
292
100
AcDbEntity
  8
0
100
AcDbLine
 62
2
  6
CONTINUOUS
 10
12.8387234242
 20
2.535859338
 11
12.8387234242
 21
2.564807354
  0
ARC
  5
293
100
AcDbEntity
  8
0
100
AcDbCircle
 62
2
  6
CONTINUOUS
 10
12.8362484247
 20
2.5648073559
 40
0.0024749995
100
AcDbArc
 50
359.9999571957
 51
90.0000428043
  0
LINE
  5
294
100
AcDbEntity
  8
0
100
AcDbLine
 62
2
  6
CONTINUOUS
 10
12.8362484229
 20
2.5672823554
 11
12.8174724125
 21
2.5672823554
  0
ARC
  5
295
100
AcDbEntity
  8
0
100
AcDbCircle
 62
2
  6
CONTINUOUS
 10
12.8174724106
 20
2.5697573549
 40
0.0024749995
100
AcDbArc
 50
179.9999571957
 51
270.0000428043
  0
LINE
  5
296
100
AcDbEntity
  8
0
100
AcDbLine
 62
2
  6
CONTINUOUS
 10
12.8149974111
 20
2.5697573568
 11
12.8149974111
 21
2.5895573678
  0
ARC
  5
297
100
AcDbEntity
  8
0
100
AcDbCircle
 62
2
  6
CONTINUOUS
 10
12.8174724106
 20
2.5895573696
 40
0.0024749995
100
AcDbArc
 50
89.9999571957
 51
180.0000428043
  0
LINE
  5
298
100
AcDbEntity
  8
0
100
AcDbLine
 62
2
  6
CONTINUOUS
 10
12.8174724125
 20
2.5920323691
 11
12.8914734535
 21
2.5920323691
  0
ARC
  5
299
100
AcDbEntity
  8
0
100
AcDbCircle
 62
2
  6
CONTINUOUS
 10
12.8914734553
 20
2.5895573696
 40
0.0024749995
100
AcDbArc
 50
359.9999571957
 51
90.0000428043
  0
LINE
  5
29A
100
AcDbEntity
  8
0
100
AcDbLine
 62
2
  6
CONTINUOUS
 10
12.8939484549
 20
2.5895573678
 11
12.8939484549
 21
2.5697573568
  0
ARC
  5
29B
100
AcDbEntity
  8
0
100
AcDbCircle
 62
2
  6
CONTINUOUS
 10
12.8914734553
 20
2.5697573549
 40
0.0024749995
100
AcDbArc
 50
269.9999571957
 51
0.0000428043
  0
LINE
  5
29C
100
AcDbEntity
  8
0
100
AcDbLine
 62
2
  6
CONTINUOUS
 10
12.8914734535
 20
2.5672823554
 11
12.8735404436
 21
2.5672823554
  0
ARC
  5
29D
100
AcDbEntity
  8
0
100
AcDbCircle
 62
2
  6
CONTINUOUS
 10
12.8735404417
 20
2.5648073559
 40
0.0024749995
100
AcDbArc
 50
89.9999571957
 51
180.0000428043
  0
LINE
  5
29E
100
AcDbEntity
  8
0
100
AcDbLine
 62
2
  6
CONTINUOUS
 10
12.8710654422
 20
2.564807354
 11
12.8710654422
 21
2.4937023146
  0
ARC
  5
29F
100
AcDbEntity
  8
0
100
AcDbCircle
 62
2
  6
CONTINUOUS
 10
12.8685904427
 20
2.4937023128
 40
0.0024749995
100
AcDbArc
 50
269.9999571957
 51
0.0000428043
  0
LINE
  5
2A0
100
AcDbEntity
  8
0
100
AcDbLine
 62
2
  6
CONTINUOUS
 10
12.8685904408
 20
2.4912273132
 11
12.7943853997
 21
2.4912273132
  0
ARC
  5
2A1
100
AcDbEntity
  8
0
100
AcDbCircle
 62
2
  6
CONTINUOUS
 10
12.7943847649
 20
2.4937027294
 40
0.0024754162
100
AcDbArc
 50
226.3593695813
 51
270.0146919953
  0
LINE
  5
2A2
100
AcDbEntity
  8
0
100
AcDbLine
 62
2
  6
CONTINUOUS
 10
12.7926763987
 20
2.4919113136
 11
12.7293963636
 21
2.5522893471
  0
ARC
  5
2A3
100
AcDbEntity
  8
0
100
AcDbCircle
 62
2
  6
CONTINUOUS
 10
12.7276876627
 20
2.5504984093
 40
0.0024753014
100
AcDbArc
 50
46.3461263059
 51
180.0014637321
  0
LINE
  5
2A4
100
AcDbEntity
  8
0
100
AcDbLine
 62
2
  6
CONTINUOUS
 10
12.7252123613
 20
2.5504983461
 11
12.7252123613
 21
2.5184523283
  0
ARC
  5
2A5
100
AcDbEntity
  8
0
100
AcDbCircle
 62
2
  6
CONTINUOUS
 10
12.7276873608
 20
2.5184523265
 40
0.0024749995
100
AcDbArc
 50
179.9999571957
 51
270.0000428043
  0
LINE
  5
2A6
100
AcDbEntity
  8
0
100
AcDbLine
 62
2
  6
CONTINUOUS
 10
12.7276873627
 20
2.515977327
 11
12.7480043739
 21
2.515977327
  0
ARC
  5
2A7
100
AcDbEntity
  8
0
100
AcDbCircle
 62
2
  6
CONTINUOUS
 10
12.7480043758
 20
2.5135023274
 40
0.0024749995
100
AcDbArc
 50
359.9999571957
 51
90.0000428043
  0
LINE
  5
2A8
100
AcDbEntity
  8
0
100
AcDbLine
 62
2
  6
CONTINUOUS
 10
12.7504793753
 20
2.5135023256
 11
12.7504793753
 21
2.4937023146
  0
ARC
  5
2A9
100
AcDbEntity
  8
0
100
AcDbCircle
 62
2
  6
CONTINUOUS
 10
12.7480043758
 20
2.4937023128
 40
0.0024749995
100
AcDbArc
 50
269.9999571957
 51
0.0000428043
  0
LINE
  5
2AA
100
AcDbEntity
  8
0
100
AcDbLine
 62
2
  6
CONTINUOUS
 10
12.7480043739
 20
2.4912273132
 11
12.672340332
 21
2.4912273132
  0
ARC
  5
2AB
100
AcDbEntity
  8
0
100
AcDbCircle
 62
2
  6
CONTINUOUS
 10
12.6723403301
 20
2.4937023128
 40
0.0024749995
100
AcDbArc
 50
179.9999571957
 51
270.0000428043
  0
LINE
  5
2AC
100
AcDbEntity
  8
0
100
AcDbLine
 62
2
  6
CONTINUOUS
 10
12.6698653306
 20
2.4937023146
 11
12.6698653306
 21
2.5135023256
  0
ARC
  5
2AD
100
AcDbEntity
  8
0
100
AcDbCircle
 62
2
  6
CONTINUOUS
 10
12.6723403301
 20
2.5135023274
 40
0.0024749995
100
AcDbArc
 50
89.9999571957
 51
180.0000428043
  0
LINE
  5
2AE
100
AcDbEntity
  8
0
100
AcDbLine
 62
2
  6
CONTINUOUS
 10
12.672340332
 20
2.515977327
 11
12.6909873423
 21
2.515977327
  0
ARC
  5
2AF
100
AcDbEntity
  8
0
100
AcDbCircle
 62
2
  6
CONTINUOUS
 10
12.6909873442
 20
2.5184523265
 40
0.0024749995
100
AcDbArc
 50
269.9999571957
 51
0.0000428043
  0
LINE
  5
2B0
100
AcDbEntity
  8
0
100
AcDbLine
 62
2
  6
CONTINUOUS
 10
12.6934623437
 20
2.5184523283
 11
12.6934623437
 21
2.564807354
  0
ARC
  5
2B1
100
AcDbEntity
  8
0
100
AcDbCircle
 62
2
  6
CONTINUOUS
 10
12.6909873442
 20
2.5648073559
 40
0.0024749995
100
AcDbArc
 50
359.9999571957
 51
90.0000428043
  0
LINE
  5
2B2
100
AcDbEntity
  8
0
100
AcDbLine
 62
2
  6
CONTINUOUS
 10
12.6909873423
 20
2.5672823554
 11
12.672340332
 21
2.5672823554
  0
ARC
  5
2B3
100
AcDbEntity
  8
0
100
AcDbCircle
 62
2
  6
CONTINUOUS
 10
12.6723403301
 20
2.5697573549
 40
0.0024749995
100
AcDbArc
 50
179.9999571957
 51
270.0000428043
  0
LINE
  5
2B4
100
AcDbEntity
  8
0
100
AcDbLine
 62
2
  6
CONTINUOUS
 10
12.6698653306
 20
2.5697573568
 11
12.6698653306
 21
2.5895573678
  0
ARC
  5
2B5
100
AcDbEntity
  8
0
100
AcDbCircle
 62
2
  6
CONTINUOUS
 10
12.6723403301
 20
2.5895573696
 40
0.0024749995
100
AcDbArc
 50
89.9999571957
 51
180.0000428043
  0
LINE
  5
2B6
100
AcDbEntity
  8
0
100
AcDbLine
 62
2
  6
CONTINUOUS
 10
12.5246402501
 20
2.5655893545
 11
12.5175232461
 21
2.5543723483
  0
ARC
  5
2B7
100
AcDbEntity
  8
0
100
AcDbCircle
 62
2
  6
CONTINUOUS
 10
12.519613138
 20
2.5530463862
 40
0.0024750401
100
AcDbArc
 50
147.6063258012
 51
270.0025305754
  0
LINE
  5
2B8
100
AcDbEntity
  8
0
100
AcDbLine
 62
2
  6
CONTINUOUS
 10
12.5196132473
 20
2.5505713461
 11
12.5401702587
 21
2.5505713461
  0
ARC
  5
2B9
100
AcDbEntity
  8
0
100
AcDbCircle
 62
2
  6
CONTINUOUS
 10
12.5401702375
 20
2.5530465533
 40
0.0024752071
100
AcDbArc
 50
270.0004896793
 51
32.9089806818
  0
LINE
  5
2BA
100
AcDbEntity
  8
0
100
AcDbLine
 62
2
  6
CONTINUOUS
 10
12.5422482598
 20
2.5543913483
 11
12.5349892558
 21
2.5656073545
  0
ARC
  5
2BB
100
AcDbEntity
  8
0
100
AcDbCircle
 62
2
  6
CONTINUOUS
 10
12.532910715
 20
2.564262895
 40
0.0024754602
100
AcDbArc
 50
32.8959418573
 51
89.9875097202
  0
LINE
  5
2BC
100
AcDbEntity
  8
0
100
AcDbLine
 62
2
  6
CONTINUOUS
 10
12.5329112547
 20
2.5667383551
 11
12.5267302512
 21
2.5667383551
  0
ARC
  5
2BD
100
AcDbEntity
  8
0
100
AcDbCircle
 62
2
  6
CONTINUOUS
 10
12.5267301809
 20
2.5642631548
 40
0.0024752003
100
AcDbArc
 50
89.998372645
 51
147.602165307
  0
LINE
  5
2BE
100
AcDbEntity
  8
0
100
AcDbLine
 62
2
  6
CONTINUOUS
 10
12.548053263
 20
2.5284903339
 11
12.5536792662
 21
2.5197973291
  0
ARC
  5
2BF
100
AcDbEntity
  8
0
100
AcDbCircle
 62
2
  6
CONTINUOUS
 10
12.5516012439
 20
2.5184525341
 40
0.0024752071
100
AcDbArc
 50
270.0004896794
 51
32.9089806818
  0
LINE
  5
2C0
100
AcDbEntity
  8
0
100
AcDbLine
 62
2
  6
CONTINUOUS
 10
12.551601265
 20
2.515977327
 11
12.537150257
 21
2.515977327
  0
ARC
  5
2C1
100
AcDbEntity
  8
0
100
AcDbCircle
 62
2
  6
CONTINUOUS
 10
12.5371502552
 20
2.5135023274
 40
0.0024749995
100
AcDbArc
 50
89.9999571957
 51
180.0000428043
  0
LINE
  5
2C2
100
AcDbEntity
  8
0
100
AcDbLine
 62
2
  6
CONTINUOUS
 10
12.5346752556
 20
2.5135023256
 11
12.5346752556
 21
2.4937023146
  0
ARC
  5
2C3
100
AcDbEntity
  8
0
100
AcDbCircle
 62
2
  6
CONTINUOUS
 10
12.5371502552
 20
2.4937023128
 40
0.0024749995
100
AcDbArc
 50
179.9999571957
 51
270.0000428043
  0
LINE
  5
2C4
100
AcDbEntity
  8
0
100
AcDbLine
 62
2
  6
CONTINUOUS
 10
12.537150257
 20
2.4912273132
 11
12.6424313154
 21
2.4912273132
  0
ARC
  5
2C5
100
AcDbEntity
  8
0
100
AcDbCircle
 62
2
  6
CONTINUOUS
 10
12.6424313172
 20
2.4937023128
 40
0.0024749995
100
AcDbArc
 50
269.9999571957
 51
0.0000428043
  0
LINE
  5
2C6
100
AcDbEntity
  8
0
100
AcDbLine
 62
2
  6
CONTINUOUS
 10
12.6449063168
 20
2.4937023146
 11
12.6449063168
 21
2.5135023256
  0
ARC
  5
2C7
100
AcDbEntity
  8
0
100
AcDbCircle
 62
2
  6
CONTINUOUS
 10
12.6424313172
 20
2.5135023274
 40
0.0024749995
100
AcDbArc
 50
359.9999571957
 51
90.0000428043
  0
LINE
  5
2C8
100
AcDbEntity
  8
0
100
AcDbLine
 62
2
  6
CONTINUOUS
 10
12.6424313154
 20
2.515977327
 11
12.6224153043
 21
2.515977327
  0
ARC
  5
2C9
100
AcDbEntity
  8
0
100
AcDbCircle
 62
2
  6
CONTINUOUS
 10
12.6224154248
 20
2.518451368
 40
0.002474041
100
AcDbArc
 50
212.9056413127
 51
269.9972091756
  0
LINE
  5
2CA
100
AcDbEntity
  8
0
100
AcDbLine
 62
2
  6
CONTINUOUS
 10
12.6203383031
 20
2.5171073276
 11
12.5725822767
 21
2.5909023685
  0
ARC
  5
2CB
100
AcDbEntity
  8
0
100
AcDbCircle
 62
2
  6
CONTINUOUS
 10
12.570504655
 20
2.589557409
 40
0.0024749602
100
AcDbArc
 50
32.9172174468
 51
90.0087853097
  0
LINE
  5
2CC
100
AcDbEntity
  8
0
100
AcDbLine
 62
2
  6
CONTINUOUS
 10
12.5705042755
 20
2.5920323691
 11
12.5133292438
 21
2.5920323691
  0
ARC
  5
2CD
100
AcDbEntity
  8
0
100
AcDbCircle
 62
2
  6
CONTINUOUS
 10
12.5133291735
 20
2.5895571688
 40
0.0024752003
100
AcDbArc
 50
89.9983726451
 51
147.602165307
  0
LINE
  5
2CE
100
AcDbEntity
  8
0
100
AcDbLine
 62
2
  6
CONTINUOUS
 10
12.5112392426
 20
2.5908833685
 11
12.4644392167
 21
2.5171263276
  0
ARC
  5
2CF
100
AcDbEntity
  8
0
100
AcDbCircle
 62
2
  6
CONTINUOUS
 10
12.4623492858
 20
2.5184525273
 40
0.0024752003
100
AcDbArc
 50
269.9983726451
 51
327.602165307
  0
LINE
  5
2D0
100
AcDbEntity
  8
0
100
AcDbLine
 62
2
  6
CONTINUOUS
 10
12.4623492155
 20
2.515977327
 11
12.4394882028
 21
2.515977327
  0
ARC
  5
2D1
100
AcDbEntity
  8
0
100
AcDbCircle
 62
2
  6
CONTINUOUS
 10
12.439488201
 20
2.5135023274
 40
0.0024749995
100
AcDbArc
 50
89.9999571957
 51
180.0000428043
  0
LINE
  5
2D2
100
AcDbEntity
  8
0
100
AcDbLine
 62
2
  6
CONTINUOUS
 10
12.4370132015
 20
2.5135023256
 11
12.4370132015
 21
2.4937023146
  0
ARC
  5
2D3
100
AcDbEntity
  8
0
100
AcDbCircle
 62
2
  6
CONTINUOUS
 10
12.439488201
 20
2.4937023128
 40
0.0024749995
100
AcDbArc
 50
179.9999571957
 51
270.0000428043
  0
LINE
  5
2D4
100
AcDbEntity
  8
0
100
AcDbLine
 62
2
  6
CONTINUOUS
 10
12.4394882028
 20
2.4912273132
 11
12.5168642458
 21
2.4912273132
  0
ARC
  5
2D5
100
AcDbEntity
  8
0
100
AcDbCircle
 62
2
  6
CONTINUOUS
 10
12.5168642476
 20
2.4937023128
 40
0.0024749995
100
AcDbArc
 50
269.9999571957
 51
0.0000428043
  0
LINE
  5
2D6
100
AcDbEntity
  8
0
100
AcDbLine
 62
2
  6
CONTINUOUS
 10
12.5193392471
 20
2.4937023146
 11
12.5193392471
 21
2.5135023256
  0
ARC
  5
2D7
100
AcDbEntity
  8
0
100
AcDbCircle
 62
2
  6
CONTINUOUS
 10
12.5168642476
 20
2.5135023274
 40
0.0024749995
100
AcDbArc
 50
359.9999571957
 51
90.0000428043
  0
LINE
  5
2D8
100
AcDbEntity
  8
0
100
AcDbLine
 62
2
  6
CONTINUOUS
 10
12.5168642458
 20
2.515977327
 11
12.5055812395
 21
2.515977327
  0
ARC
  5
2D9
100
AcDbEntity
  8
0
100
AcDbCircle
 62
2
  6
CONTINUOUS
 10
12.5055811302
 20
2.518452367
 40
0.0024750401
100
AcDbArc
 50
147.6063258011
 51
270.0025305754
  0
LINE
  5
2DA
100
AcDbEntity
  8
0
100
AcDbLine
 62
2
  6
CONTINUOUS
 10
12.5034912383
 20
2.5197783291
 11
12.5090072414
 21
2.5284723339
  0
ARC
  5
2DB
100
AcDbEntity
  8
0
100
AcDbCircle
 62
2
  6
CONTINUOUS
 10
12.5110971723
 20
2.5271461342
 40
0.0024752003
100
AcDbArc
 50
89.998372645
 51
147.602165307
  0
LINE
  5
2DC
100
AcDbEntity
  8
0
100
AcDbLine
 62
2
  6
CONTINUOUS
 10
12.5110972426
 20
2.5296213345
 11
12.5459752619
 21
2.5296213345
  0
ARC
  5
2DD
100
AcDbEntity
  8
0
100
AcDbCircle
 62
2
  6
CONTINUOUS
 10
12.5459747223
 20
2.5271458744
 40
0.0024754602
100
AcDbArc
 50
32.8959418573
 51
89.9875097202
  0
LINE
  5
2DE
100
AcDbEntity
  8
0
100
AcDbLine
 62
2
  6
CONTINUOUS
 10
12.9205934696
 20
2.5920323691
 11
13.0210515254
 21
2.5920323691
  0
ARC
  5
2DF
100
AcDbEntity
  8
0
100
AcDbCircle
 62
2
  6
CONTINUOUS
 10
13.0210516601
 20
2.5895582013
 40
0.0024741678
100
AcDbArc
 50
46.3477981899
 51
90.0031206038
  0
LINE
  5
2E0
100
AcDbEntity
  8
0
100
AcDbLine
 62
2
  6
CONTINUOUS
 10
13.0227595263
 20
2.5913483688
 11
13.0827925596
 21
2.534068337
  0
ARC
  5
2E1
100
AcDbEntity
  8
0
100
AcDbCircle
 62
2
  6
CONTINUOUS
 10
13.0845012605
 20
2.5358592748
 40
0.0024753014
100
AcDbArc
 50
226.3461263059
 51
0.0014637321
  0
LINE
  5
2E2
100
AcDbEntity
  8
0
100
AcDbLine
 62
2
  6
CONTINUOUS
 10
13.0869765619
 20
2.535859338
 11
13.0869765619
 21
2.564807354
  0
ARC
  5
2E3
100
AcDbEntity
  8
0
100
AcDbCircle
 62
2
  6
CONTINUOUS
 10
13.0845015624
 20
2.5648073559
 40
0.0024749995
100
AcDbArc
 50
359.9999571957
 51
90.0000428043
  0
LINE
  5
2E4
100
AcDbEntity
  8
0
100
AcDbLine
 62
2
  6
CONTINUOUS
 10
13.0845015605
 20
2.5672823554
 11
13.0657255501
 21
2.5672823554
  0
ARC
  5
2E5
100
AcDbEntity
  8
0
100
AcDbCircle
 62
2
  6
CONTINUOUS
 10
13.0657255483
 20
2.5697573549
 40
0.0024749995
100
AcDbArc
 50
179.9999571957
 51
270.0000428043
  0
LINE
  5
2E6
100
AcDbEntity
  8
0
100
AcDbLine
 62
2
  6
CONTINUOUS
 10
13.0632505488
 20
2.5697573568
 11
13.0632505488
 21
2.5895573678
  0
ARC
  5
2E7
100
AcDbEntity
  8
0
100
AcDbCircle
 62
2
  6
CONTINUOUS
 10
13.0657255483
 20
2.5895573696
 40
0.0024749995
100
AcDbArc
 50
89.9999571957
 51
180.0000428043
  0
LINE
  5
2E8
100
AcDbEntity
  8
0
100
AcDbLine
 62
2
  6
CONTINUOUS
 10
13.0657255501
 20
2.5920323691
 11
13.1397265912
 21
2.5920323691
  0
ARC
  5
2E9
100
AcDbEntity
  8
0
100
AcDbCircle
 62
2
  6
CONTINUOUS
 10
13.139726593
 20
2.5895573696
 40
0.0024749995
100
AcDbArc
 50
359.9999571957
 51
90.0000428043
  0
LINE
  5
2EA
100
AcDbEntity
  8
0
100
AcDbLine
 62
2
  6
CONTINUOUS
 10
13.1422015925
 20
2.5895573678
 11
13.1422015925
 21
2.5697573568
  0
ARC
  5
2EB
100
AcDbEntity
  8
0
100
AcDbCircle
 62
2
  6
CONTINUOUS
 10
13.139726593
 20
2.5697573549
 40
0.0024749995
100
AcDbArc
 50
269.9999571957
 51
0.0000428042
  0
LINE
  5
2EC
100
AcDbEntity
  8
0
100
AcDbLine
 62
2
  6
CONTINUOUS
 10
13.1397265912
 20
2.5672823554
 11
13.1217935812
 21
2.5672823554
  0
ARC
  5
2ED
100
AcDbEntity
  8
0
100
AcDbCircle
 62
2
  6
CONTINUOUS
 10
13.1217935794
 20
2.5648073559
 40
0.0024749995
100
AcDbArc
 50
89.9999571957
 51
180.0000428042
  0
LINE
  5
2EE
100
AcDbEntity
  8
0
100
AcDbLine
 62
2
  6
CONTINUOUS
 10
13.1193185799
 20
2.564807354
 11
13.1193185799
 21
2.4937023146
  0
ARC
  5
2EF
100
AcDbEntity
  8
0
100
AcDbCircle
 62
2
  6
CONTINUOUS
 10
13.1168435803
 20
2.4937023128
 40
0.0024749995
100
AcDbArc
 50
269.9999571957
 51
0.0000428043
  0
LINE
  5
2F0
100
AcDbEntity
  8
0
100
AcDbLine
 62
2
  6
CONTINUOUS
 10
13.1168435785
 20
2.4912273132
 11
13.0426375373
 21
2.4912273132
  0
ARC
  5
2F1
100
AcDbEntity
  8
0
100
AcDbCircle
 62
2
  6
CONTINUOUS
 10
13.0426374026
 20
2.493701481
 40
0.0024741678
100
AcDbArc
 50
226.3477981898
 51
270.0031206038
  0
LINE
  5
2F2
100
AcDbEntity
  8
0
100
AcDbLine
 62
2
  6
CONTINUOUS
 10
13.0409295364
 20
2.4919113136
 11
12.9776495013
 21
2.5522893471
  0
ARC
  5
2F3
100
AcDbEntity
  8
0
100
AcDbCircle
 62
2
  6
CONTINUOUS
 10
12.9759408003
 20
2.5504984093
 40
0.0024753014
100
AcDbArc
 50
46.3461263059
 51
180.0014637321
  0
LINE
  5
2F4
100
AcDbEntity
  8
0
100
AcDbLine
 62
2
  6
CONTINUOUS
 10
12.973465499
 20
2.5504983461
 11
12.973465499
 21
2.5184523283
  0
ARC
  5
2F5
100
AcDbEntity
  8
0
100
AcDbCircle
 62
2
  6
CONTINUOUS
 10
12.9759404985
 20
2.5184523265
 40
0.0024749995
100
AcDbArc
 50
179.9999571957
 51
270.0000428043
  0
LINE
  5
2F6
100
AcDbEntity
  8
0
100
AcDbLine
 62
2
  6
CONTINUOUS
 10
12.9759405003
 20
2.515977327
 11
12.9962575116
 21
2.515977327
  0
ARC
  5
2F7
100
AcDbEntity
  8
0
100
AcDbCircle
 62
2
  6
CONTINUOUS
 10
12.9962575135
 20
2.5135023274
 40
0.0024749995
100
AcDbArc
 50
359.9999571957
 51
90.0000428043
  0
LINE
  5
2F8
100
AcDbEntity
  8
0
100
AcDbLine
 62
2
  6
CONTINUOUS
 10
12.998732513
 20
2.5135023256
 11
12.998732513
 21
2.4937023146
  0
ARC
  5
2F9
100
AcDbEntity
  8
0
100
AcDbCircle
 62
2
  6
CONTINUOUS
 10
12.9962575135
 20
2.4937023128
 40
0.0024749995
100
AcDbArc
 50
269.9999571957
 51
0.0000428043
  0
LINE
  5
2FA
100
AcDbEntity
  8
0
100
AcDbLine
 62
2
  6
CONTINUOUS
 10
12.9962575116
 20
2.4912273132
 11
12.9205934696
 21
2.4912273132
  0
ARC
  5
2FB
100
AcDbEntity
  8
0
100
AcDbCircle
 62
2
  6
CONTINUOUS
 10
12.9205934678
 20
2.4937023128
 40
0.0024749995
100
AcDbArc
 50
179.9999571957
 51
270.0000428043
  0
LINE
  5
2FC
100
AcDbEntity
  8
0
100
AcDbLine
 62
2
  6
CONTINUOUS
 10
12.9181184683
 20
2.4937023146
 11
12.9181184683
 21
2.5135023256
  0
ARC
  5
2FD
100
AcDbEntity
  8
0
100
AcDbCircle
 62
2
  6
CONTINUOUS
 10
12.9205934678
 20
2.5135023274
 40
0.0024749995
100
AcDbArc
 50
89.9999571957
 51
180.0000428042
  0
LINE
  5
2FE
100
AcDbEntity
  8
0
100
AcDbLine
 62
2
  6
CONTINUOUS
 10
12.9205934696
 20
2.515977327
 11
12.93923948
 21
2.515977327
  0
ARC
  5
2FF
100
AcDbEntity
  8
0
100
AcDbCircle
 62
2
  6
CONTINUOUS
 10
12.9392394818
 20
2.5184523265
 40
0.0024749995
100
AcDbArc
 50
269.9999571957
 51
0.0000428043
  0
LINE
  5
300
100
AcDbEntity
  8
0
100
AcDbLine
 62
2
  6
CONTINUOUS
 10
12.9417144814
 20
2.5184523283
 11
12.9417144814
 21
2.564807354
  0
ARC
  5
301
100
AcDbEntity
  8
0
100
AcDbCircle
 62
2
  6
CONTINUOUS
 10
12.9392394818
 20
2.5648073559
 40
0.0024749995
100
AcDbArc
 50
359.9999571957
 51
90.0000428043
  0
LINE
  5
302
100
AcDbEntity
  8
0
100
AcDbLine
 62
2
  6
CONTINUOUS
 10
12.93923948
 20
2.5672823554
 11
12.9205934696
 21
2.5672823554
  0
ARC
  5
303
100
AcDbEntity
  8
0
100
AcDbCircle
 62
2
  6
CONTINUOUS
 10
12.9205934678
 20
2.5697573549
 40
0.0024749995
100
AcDbArc
 50
179.9999571957
 51
270.0000428043
  0
LINE
  5
304
100
AcDbEntity
  8
0
100
AcDbLine
 62
2
  6
CONTINUOUS
 10
12.9181184683
 20
2.5697573568
 11
12.9181184683
 21
2.5895573678
  0
ARC
  5
305
100
AcDbEntity
  8
0
100
AcDbCircle
 62
2
  6
CONTINUOUS
 10
12.9205934678
 20
2.5895573696
 40
0.0024749995
100
AcDbArc
 50
89.9999571957
 51
180.0000428042
  0
LINE
  5
306
100
AcDbEntity
  8
0
100
AcDbLine
 62
2
  6
CONTINUOUS
 10
13.2934226764
 20
2.5324773361
 11
13.2582556569
 21
2.5324773361
  0
ARC
  5
307
100
AcDbEntity
  8
0
100
AcDbCircle
 62
2
  6
CONTINUOUS
 10
13.2582556551
 20
2.5300023366
 40
0.0024749995
100
AcDbArc
 50
89.9999571957
 51
180.0000428043
  0
LINE
  5
308
100
AcDbEntity
  8
0
100
AcDbLine
 62
2
  6
CONTINUOUS
 10
13.2557806555
 20
2.5300023347
 11
13.2557806555
 21
2.5184523283
  0
ARC
  5
309
100
AcDbEntity
  8
0
100
AcDbCircle
 62
2
  6
CONTINUOUS
 10
13.2582556551
 20
2.5184523265
 40
0.0024749995
100
AcDbArc
 50
179.9999571957
 51
270.0000428043
  0
LINE
  5
30A
100
AcDbEntity
  8
0
100
AcDbLine
 62
2
  6
CONTINUOUS
 10
13.2582556569
 20
2.515977327
 11
13.3232596929
 21
2.515977327
  0
ARC
  5
30B
100
AcDbEntity
  8
0
100
AcDbCircle
 62
2
  6
CONTINUOUS
 10
13.3232596948
 20
2.5184523265
 40
0.0024749995
100
AcDbArc
 50
269.9999571957
 51
0.0000428043
  0
LINE
  5
30C
100
AcDbEntity
  8
0
100
AcDbLine
 62
2
  6
CONTINUOUS
 10
13.3257346943
 20
2.5184523283
 11
13.3257346943
 21
2.5267023329
  0
ARC
  5
30D
100
AcDbEntity
  8
0
100
AcDbCircle
 62
2
  6
CONTINUOUS
 10
13.3282096938
 20
2.5267023348
 40
0.0024749995
100
AcDbArc
 50
89.9999571957
 51
180.0000428043
  0
LINE
  5
30E
100
AcDbEntity
  8
0
100
AcDbLine
 62
2
  6
CONTINUOUS
 10
13.3282096957
 20
2.5291773343
 11
13.3705287192
 21
2.5291773343
  0
ARC
  5
30F
100
AcDbEntity
  8
0
100
AcDbCircle
 62
2
  6
CONTINUOUS
 10
13.370528721
 20
2.5267023348
 40
0.0024749995
100
AcDbArc
 50
359.9999571957
 51
90.0000428043
  0
LINE
  5
310
100
AcDbEntity
  8
0
100
AcDbLine
 62
2
  6
CONTINUOUS
 10
13.3730037205
 20
2.5267023329
 11
13.3730037205
 21
2.4937023146
  0
ARC
  5
311
100
AcDbEntity
  8
0
100
AcDbCircle
 62
2
  6
CONTINUOUS
 10
13.370528721
 20
2.4937023128
 40
0.0024749995
100
AcDbArc
 50
269.9999571957
 51
0.0000428043
  0
LINE
  5
312
100
AcDbEntity
  8
0
100
AcDbLine
 62
2
  6
CONTINUOUS
 10
13.3705287192
 20
2.4912273132
 11
13.1673166065
 21
2.4912273132
  0
ARC
  5
313
100
AcDbEntity
  8
0
100
AcDbCircle
 62
2
  6
CONTINUOUS
 10
13.1673166046
 20
2.4937023128
 40
0.0024749995
100
AcDbArc
 50
179.9999571957
 51
270.0000428043
  0
LINE
  5
314
100
AcDbEntity
  8
0
100
AcDbLine
 62
2
  6
CONTINUOUS
 10
13.1648416051
 20
2.4937023146
 11
13.1648416051
 21
2.5135023256
  0
ARC
  5
315
100
AcDbEntity
  8
0
100
AcDbCircle
 62
2
  6
CONTINUOUS
 10
13.1673166046
 20
2.5135023274
 40
0.0024749995
100
AcDbArc
 50
89.9999571957
 51
180.0000428043
  0
LINE
  5
316
100
AcDbEntity
  8
0
100
AcDbLine
 62
2
  6
CONTINUOUS
 10
13.1673166065
 20
2.515977327
 11
13.1912396197
 21
2.515977327
  0
ARC
  5
317
100
AcDbEntity
  8
0
100
AcDbCircle
 62
2
  6
CONTINUOUS
 10
13.1912396216
 20
2.5184523265
 40
0.0024749995
100
AcDbArc
 50
269.9999571957
 51
0.0000428042
  0
LINE
  5
318
100
AcDbEntity
  8
0
100
AcDbLine
 62
2
  6
CONTINUOUS
 10
13.1937146211
 20
2.5184523283
 11
13.1937146211
 21
2.564807354
  0
ARC
  5
319
100
AcDbEntity
  8
0
100
AcDbCircle
 62
2
  6
CONTINUOUS
 10
13.1912396216
 20
2.5648073559
 40
0.0024749995
100
AcDbArc
 50
359.9999571957
 51
90.0000428043
  0
LINE
  5
31A
100
AcDbEntity
  8
0
100
AcDbLine
 62
2
  6
CONTINUOUS
 10
13.1912396197
 20
2.5672823554
 11
13.1673166065
 21
2.5672823554
  0
ARC
  5
31B
100
AcDbEntity
  8
0
100
AcDbCircle
 62
2
  6
CONTINUOUS
 10
13.1673166046
 20
2.5697573549
 40
0.0024749995
100
AcDbArc
 50
179.9999571957
 51
270.0000428043
  0
LINE
  5
31C
100
AcDbEntity
  8
0
100
AcDbLine
 62
2
  6
CONTINUOUS
 10
13.1648416051
 20
2.5697573568
 11
13.1648416051
 21
2.5895573678
  0
ARC
  5
31D
100
AcDbEntity
  8
0
100
AcDbCircle
 62
2
  6
CONTINUOUS
 10
13.1673166046
 20
2.5895573696
 40
0.0024749995
100
AcDbArc
 50
89.9999571957
 51
180.0000428043
  0
LINE
  5
31E
100
AcDbEntity
  8
0
100
AcDbLine
 62
2
  6
CONTINUOUS
 10
13.1673166065
 20
2.5920323691
 11
13.3691097184
 21
2.5920323691
  0
ARC
  5
31F
100
AcDbEntity
  8
0
100
AcDbCircle
 62
2
  6
CONTINUOUS
 10
13.3691097202
 20
2.5895573696
 40
0.0024749995
100
AcDbArc
 50
359.9999571957
 51
90.0000428043
  0
LINE
  5
320
100
AcDbEntity
  8
0
100
AcDbLine
 62
2
  6
CONTINUOUS
 10
13.3715847197
 20
2.5895573678
 11
13.3715847197
 21
2.5565573495
  0
ARC
  5
321
100
AcDbEntity
  8
0
100
AcDbCircle
 62
2
  6
CONTINUOUS
 10
13.3691097202
 20
2.5565573476
 40
0.0024749995
100
AcDbArc
 50
269.9999571957
 51
0.0000428042
  0
LINE
  5
322
100
AcDbEntity
  8
0
100
AcDbLine
 62
2
  6
CONTINUOUS
 10
13.3691097184
 20
2.5540823481
 11
13.3272456952
 21
2.5540823481
  0
ARC
  5
323
100
AcDbEntity
  8
0
100
AcDbCircle
 62
2
  6
CONTINUOUS
 10
13.3272456933
 20
2.5565573476
 40
0.0024749995
100
AcDbArc
 50
179.9999571957
 51
270.0000428043
  0
LINE
  5
324
100
AcDbEntity
  8
0
100
AcDbLine
 62
2
  6
CONTINUOUS
 10
13.3247706938
 20
2.5565573495
 11
13.3247706938
 21
2.564807354
  0
ARC
  5
325
100
AcDbEntity
  8
0
100
AcDbCircle
 62
2
  6
CONTINUOUS
 10
13.3222956943
 20
2.5648073559
 40
0.0024749995
100
AcDbArc
 50
359.9999571957
 51
90.0000428043
  0
LINE
  5
326
100
AcDbEntity
  8
0
100
AcDbLine
 62
2
  6
CONTINUOUS
 10
13.3222956924
 20
2.5672823554
 11
13.2582556569
 21
2.5672823554
  0
ARC
  5
327
100
AcDbEntity
  8
0
100
AcDbCircle
 62
2
  6
CONTINUOUS
 10
13.2582556551
 20
2.5648073559
 40
0.0024749995
100
AcDbArc
 50
89.9999571957
 51
180.0000428043
  0
LINE
  5
328
100
AcDbEntity
  8
0
100
AcDbLine
 62
2
  6
CONTINUOUS
 10
13.2557806555
 20
2.564807354
 11
13.2557806555
 21
2.5532573476
  0
ARC
  5
329
100
AcDbEntity
  8
0
100
AcDbCircle
 62
2
  6
CONTINUOUS
 10
13.2582556551
 20
2.5532573458
 40
0.0024749995
100
AcDbArc
 50
179.9999571957
 51
270.0000428043
  0
LINE
  5
32A
100
AcDbEntity
  8
0
100
AcDbLine
 62
2
  6
CONTINUOUS
 10
13.2582556569
 20
2.5507823463
 11
13.2934226764
 21
2.5507823463
  0
ARC
  5
32B
100
AcDbEntity
  8
0
100
AcDbCircle
 62
2
  6
CONTINUOUS
 10
13.2934226783
 20
2.5483073467
 40
0.0024749995
100
AcDbArc
 50
359.9999571957
 51
90.0000428043
  0
LINE
  5
32C
100
AcDbEntity
  8
0
100
AcDbLine
 62
2
  6
CONTINUOUS
 10
13.2958976778
 20
2.5483073449
 11
13.2958976778
 21
2.5349523375
  0
ARC
  5
32D
100
AcDbEntity
  8
0
100
AcDbCircle
 62
2
  6
CONTINUOUS
 10
13.2934226783
 20
2.5349523356
 40
0.0024749995
100
AcDbArc
 50
269.9999571957
 51
0.0000428042
  0
LINE
  5
32E
100
AcDbEntity
  8
0
100
AcDbLine
 62
2
  6
CONTINUOUS
 10
13.7286871589
 20
2.5350697372
 11
13.7286871589
 21
2.5456869438
  0
LINE
  5
32F
100
AcDbEntity
  8
0
100
AcDbLine
 62
2
  6
CONTINUOUS
 10
13.7086871478
 20
2.5004302075
 11
13.7086871478
 21
2.5803264735
  0
LINE
  5
330
100
AcDbEntity
  8
0
100
AcDbLine
 62
2
  6
CONTINUOUS
 10
13.6886871368
 20
2.4843919416
 11
13.6886871368
 21
2.5963647394
  0
LINE
  5
331
100
AcDbEntity
  8
0
100
AcDbLine
 62
2
  6
CONTINUOUS
 10
13.6686871257
 20
2.4726017898
 11
13.6686871257
 21
2.6081548911
  0
LINE
  5
332
100
AcDbEntity
  8
0
100
AcDbLine
 62
2
  6
CONTINUOUS
 10
13.6486871146
 20
2.4628062688
 11
13.6486871146
 21
2.6179504122
  0
LINE
  5
333
100
AcDbEntity
  8
0
100
AcDbLine
 62
2
  6
CONTINUOUS
 10
13.6286871035
 20
2.4541253507
 11
13.6286871035
 21
2.5062483056
  0
LINE
  5
334
100
AcDbEntity
  8
0
100
AcDbLine
 62
2
  6
CONTINUOUS
 10
13.6286871035
 20
2.5301143348
 11
13.6286871035
 21
2.6266313303
  0
LINE
  5
335
100
AcDbEntity
  8
0
100
AcDbLine
 62
2
  6
CONTINUOUS
 10
13.6086870924
 20
2.4465537903
 11
13.6086870924
 21
2.4918774918
  0
LINE
  5
336
100
AcDbEntity
  8
0
100
AcDbLine
 62
2
  6
CONTINUOUS
 10
13.6086870924
 20
2.5165781173
 11
13.6086870924
 21
2.6342028907
  0
LINE
  5
337
100
AcDbEntity
  8
0
100
AcDbLine
 62
2
  6
CONTINUOUS
 10
13.5886870813
 20
2.4398033466
 11
13.5886870813
 21
2.4912273132
  0
LINE
  5
338
100
AcDbEntity
  8
0
100
AcDbLine
 62
2
  6
CONTINUOUS
 10
13.5886870813
 20
2.5391840845
 11
13.5886870813
 21
2.5454298327
  0
LINE
  5
339
100
AcDbEntity
  8
0
100
AcDbLine
 62
2
  6
CONTINUOUS
 10
13.5886870813
 20
2.5862063472
 11
13.5886870813
 21
2.6409533343
  0
LINE
  5
33A
100
AcDbEntity
  8
0
100
AcDbLine
 62
2
  6
CONTINUOUS
 10
13.5686870702
 20
2.4334702189
 11
13.5686870702
 21
2.4912273132
  0
LINE
  5
33B
100
AcDbEntity
  8
0
100
AcDbLine
 62
2
  6
CONTINUOUS
 10
13.5686870702
 20
2.5906587765
 11
13.5686870702
 21
2.647286462
  0
LINE
  5
33C
100
AcDbEntity
  8
0
100
AcDbLine
 62
2
  6
CONTINUOUS
 10
13.5486870591
 20
2.4278968124
 11
13.5486870591
 21
2.4937461006
  0
LINE
  5
33D
100
AcDbEntity
  8
0
100
AcDbLine
 62
2
  6
CONTINUOUS
 10
13.5486870591
 20
2.5920323691
 11
13.5486870591
 21
2.6528598686
  0
LINE
  5
33E
100
AcDbEntity
  8
0
100
AcDbLine
 62
2
  6
CONTINUOUS
 10
13.528687048
 20
2.4225427674
 11
13.528687048
 21
2.5270426993
  0
LINE
  5
33F
100
AcDbEntity
  8
0
100
AcDbLine
 62
2
  6
CONTINUOUS
 10
13.528687048
 20
2.5505166259
 11
13.528687048
 21
2.5668657091
  0
LINE
  5
340
100
AcDbEntity
  8
0
100
AcDbLine
 62
2
  6
CONTINUOUS
 10
13.528687048
 20
2.5920323691
 11
13.528687048
 21
2.6582139136
  0
LINE
  5
341
100
AcDbEntity
  8
0
100
AcDbLine
 62
2
  6
CONTINUOUS
 10
13.5086870369
 20
2.4177306791
 11
13.5086870369
 21
2.4912273132
  0
LINE
  5
342
100
AcDbEntity
  8
0
100
AcDbLine
 62
2
  6
CONTINUOUS
 10
13.5086870369
 20
2.5159553269
 11
13.5086870369
 21
2.5306043351
  0
LINE
  5
343
100
AcDbEntity
  8
0
100
AcDbLine
 62
2
  6
CONTINUOUS
 10
13.5086870369
 20
2.5496073456
 11
13.5086870369
 21
2.5672823554
  0
LINE
  5
344
100
AcDbEntity
  8
0
100
AcDbLine
 62
2
  6
CONTINUOUS
 10
13.5086870369
 20
2.5920323691
 11
13.5086870369
 21
2.6630260019
  0
LINE
  5
345
100
AcDbEntity
  8
0
100
AcDbLine
 62
2
  6
CONTINUOUS
 10
13.4886870258
 20
2.4131795254
 11
13.4886870258
 21
2.4912273132
  0
LINE
  5
346
100
AcDbEntity
  8
0
100
AcDbLine
 62
2
  6
CONTINUOUS
 10
13.4886870258
 20
2.5159553269
 11
13.4886870258
 21
2.5306043351
  0
LINE
  5
347
100
AcDbEntity
  8
0
100
AcDbLine
 62
2
  6
CONTINUOUS
 10
13.4886870258
 20
2.5496073456
 11
13.4886870258
 21
2.5672823554
  0
LINE
  5
348
100
AcDbEntity
  8
0
100
AcDbLine
 62
2
  6
CONTINUOUS
 10
13.4886870258
 20
2.5920323691
 11
13.4886870258
 21
2.6675771555
  0
LINE
  5
349
100
AcDbEntity
  8
0
100
AcDbLine
 62
2
  6
CONTINUOUS
 10
13.4686870147
 20
2.4088819672
 11
13.4686870147
 21
2.4912273132
  0
LINE
  5
34A
100
AcDbEntity
  8
0
100
AcDbLine
 62
2
  6
CONTINUOUS
 10
13.4686870147
 20
2.5920323691
 11
13.4686870147
 21
2.6718747138
  0
LINE
  5
34B
100
AcDbEntity
  8
0
100
AcDbLine
 62
2
  6
CONTINUOUS
 10
13.4486870037
 20
2.4050092072
 11
13.4486870037
 21
2.4912273132
  0
LINE
  5
34C
100
AcDbEntity
  8
0
100
AcDbLine
 62
2
  6
CONTINUOUS
 10
13.4486870037
 20
2.5920323691
 11
13.4486870037
 21
2.6757474738
  0
LINE
  5
34D
100
AcDbEntity
  8
0
100
AcDbLine
 62
2
  6
CONTINUOUS
 10
13.4286869926
 20
2.4011364471
 11
13.4286869926
 21
2.4912273132
  0
LINE
  5
34E
100
AcDbEntity
  8
0
100
AcDbLine
 62
2
  6
CONTINUOUS
 10
13.4286869926
 20
2.5920323691
 11
13.4286869926
 21
2.6796202339
  0
LINE
  5
34F
100
AcDbEntity
  8
0
100
AcDbLine
 62
2
  6
CONTINUOUS
 10
13.4086869815
 20
2.3980226662
 11
13.4086869815
 21
2.4912273132
  0
LINE
  5
350
100
AcDbEntity
  8
0
100
AcDbLine
 62
2
  6
CONTINUOUS
 10
13.4086869815
 20
2.515977327
 11
13.4086869815
 21
2.5672823554
  0
LINE
  5
351
100
AcDbEntity
  8
0
100
AcDbLine
 62
2
  6
CONTINUOUS
 10
13.4086869815
 20
2.5920323691
 11
13.4086869815
 21
2.6827340148
  0
LINE
  5
352
100
AcDbEntity
  8
0
100
AcDbLine
 62
2
  6
CONTINUOUS
 10
13.3886869704
 20
2.3950052774
 11
13.3886869704
 21
2.6857514036
  0
LINE
  5
353
100
AcDbEntity
  8
0
100
AcDbLine
 62
2
  6
CONTINUOUS
 10
13.3686869593
 20
2.3919878885
 11
13.3686869593
 21
2.4912273132
  0
LINE
  5
354
100
AcDbEntity
  8
0
100
AcDbLine
 62
2
  6
CONTINUOUS
 10
13.3686869593
 20
2.5291773343
 11
13.3686869593
 21
2.5540823481
  0
LINE
  5
355
100
AcDbEntity
  8
0
100
AcDbLine
 62
2
  6
CONTINUOUS
 10
13.3686869593
 20
2.5920323691
 11
13.3686869593
 21
2.6887687924
  0
LINE
  5
356
100
AcDbEntity
  8
0
100
AcDbLine
 62
2
  6
CONTINUOUS
 10
13.3486869482
 20
2.3889704997
 11
13.3486869482
 21
2.4912273132
  0
LINE
  5
357
100
AcDbEntity
  8
0
100
AcDbLine
 62
2
  6
CONTINUOUS
 10
13.3486869482
 20
2.5291773343
 11
13.3486869482
 21
2.5540823481
  0
LINE
  5
358
100
AcDbEntity
  8
0
100
AcDbLine
 62
2
  6
CONTINUOUS
 10
13.3486869482
 20
2.5920323691
 11
13.3486869482
 21
2.6917861813
  0
LINE
  5
359
100
AcDbEntity
  8
0
100
AcDbLine
 62
2
  6
CONTINUOUS
 10
13.3286869371
 20
2.3859531109
 11
13.3286869371
 21
2.4912273132
  0
LINE
  5
35A
100
AcDbEntity
  8
0
100
AcDbLine
 62
2
  6
CONTINUOUS
 10
13.3286869371
 20
2.5291773343
 11
13.3286869371
 21
2.5540823481
  0
LINE
  5
35B
100
AcDbEntity
  8
0
100
AcDbLine
 62
2
  6
CONTINUOUS
 10
13.3286869371
 20
2.5920323691
 11
13.3286869371
 21
2.6948035701
  0
LINE
  5
35C
100
AcDbEntity
  8
0
100
AcDbLine
 62
2
  6
CONTINUOUS
 10
13.308686926
 20
2.3833355437
 11
13.308686926
 21
2.4912273132
  0
LINE
  5
35D
100
AcDbEntity
  8
0
100
AcDbLine
 62
2
  6
CONTINUOUS
 10
13.308686926
 20
2.515977327
 11
13.308686926
 21
2.5672823554
  0
LINE
  5
35E
100
AcDbEntity
  8
0
100
AcDbLine
 62
2
  6
CONTINUOUS
 10
13.308686926
 20
2.5920323691
 11
13.308686926
 21
2.6974211373
  0
LINE
  5
35F
100
AcDbEntity
  8
0
100
AcDbLine
 62
2
  6
CONTINUOUS
 10
13.2886869149
 20
2.3812612684
 11
13.2886869149
 21
2.4912273132
  0
LINE
  5
360
100
AcDbEntity
  8
0
100
AcDbLine
 62
2
  6
CONTINUOUS
 10
13.2886869149
 20
2.515977327
 11
13.2886869149
 21
2.5324773361
  0
LINE
  5
361
100
AcDbEntity
  8
0
100
AcDbLine
 62
2
  6
CONTINUOUS
 10
13.2886869149
 20
2.5507823463
 11
13.2886869149
 21
2.5672823554
  0
LINE
  5
362
100
AcDbEntity
  8
0
100
AcDbLine
 62
2
  6
CONTINUOUS
 10
13.2886869149
 20
2.5920323691
 11
13.2886869149
 21
2.6994954125
  0
LINE
  5
363
100
AcDbEntity
  8
0
100
AcDbLine
 62
2
  6
CONTINUOUS
 10
13.2686869038
 20
2.3791869932
 11
13.2686869038
 21
2.4912273132
  0
LINE
  5
364
100
AcDbEntity
  8
0
100
AcDbLine
 62
2
  6
CONTINUOUS
 10
13.2686869038
 20
2.515977327
 11
13.2686869038
 21
2.5324773361
  0
LINE
  5
365
100
AcDbEntity
  8
0
100
AcDbLine
 62
2
  6
CONTINUOUS
 10
13.2686869038
 20
2.5507823463
 11
13.2686869038
 21
2.5672823554
  0
LINE
  5
366
100
AcDbEntity
  8
0
100
AcDbLine
 62
2
  6
CONTINUOUS
 10
13.2686869038
 20
2.5920323691
 11
13.2686869038
 21
2.7015696878
  0
LINE
  5
367
100
AcDbEntity
  8
0
100
AcDbLine
 62
2
  6
CONTINUOUS
 10
13.2486868927
 20
2.377112718
 11
13.2486868927
 21
2.4912273132
  0
LINE
  5
368
100
AcDbEntity
  8
0
100
AcDbLine
 62
2
  6
CONTINUOUS
 10
13.2486868927
 20
2.5920323691
 11
13.2486868927
 21
2.703643963
  0
LINE
  5
369
100
AcDbEntity
  8
0
100
AcDbLine
 62
2
  6
CONTINUOUS
 10
13.2286868817
 20
2.3750384428
 11
13.2286868817
 21
2.4912273132
  0
LINE
  5
36A
100
AcDbEntity
  8
0
100
AcDbLine
 62
2
  6
CONTINUOUS
 10
13.2286868817
 20
2.5920323691
 11
13.2286868817
 21
2.7057182382
  0
LINE
  5
36B
100
AcDbEntity
  8
0
100
AcDbLine
 62
2
  6
CONTINUOUS
 10
13.2086868706
 20
2.3729641676
 11
13.2086868706
 21
2.4912273132
  0
LINE
  5
36C
100
AcDbEntity
  8
0
100
AcDbLine
 62
2
  6
CONTINUOUS
 10
13.2086868706
 20
2.5920323691
 11
13.2086868706
 21
2.7077925134
  0
LINE
  5
36D
100
AcDbEntity
  8
0
100
AcDbLine
 62
2
  6
CONTINUOUS
 10
13.1886868595
 20
2.3712344456
 11
13.1886868595
 21
2.4912273132
  0
LINE
  5
36E
100
AcDbEntity
  8
0
100
AcDbLine
 62
2
  6
CONTINUOUS
 10
13.1886868595
 20
2.515977327
 11
13.1886868595
 21
2.5672823554
  0
LINE
  5
36F
100
AcDbEntity
  8
0
100
AcDbLine
 62
2
  6
CONTINUOUS
 10
13.1886868595
 20
2.5920323691
 11
13.1886868595
 21
2.7095222354
  0
LINE
  5
370
100
AcDbEntity
  8
0
100
AcDbLine
 62
2
  6
CONTINUOUS
 10
13.1686868484
 20
2.3699682418
 11
13.1686868484
 21
2.4912273132
  0
LINE
  5
371
100
AcDbEntity
  8
0
100
AcDbLine
 62
2
  6
CONTINUOUS
 10
13.1686868484
 20
2.515977327
 11
13.1686868484
 21
2.5672823554
  0
LINE
  5
372
100
AcDbEntity
  8
0
100
AcDbLine
 62
2
  6
CONTINUOUS
 10
13.1686868484
 20
2.5920323691
 11
13.1686868484
 21
2.7107884392
  0
LINE
  5
373
100
AcDbEntity
  8
0
100
AcDbLine
 62
2
  6
CONTINUOUS
 10
13.1486868373
 20
2.3687020381
 11
13.1486868373
 21
2.7120546429
  0
LINE
  5
374
100
AcDbEntity
  8
0
100
AcDbLine
 62
2
  6
CONTINUOUS
 10
13.1286868262
 20
2.3674358343
 11
13.1286868262
 21
2.5672823554
  0
LINE
  5
375
100
AcDbEntity
  8
0
100
AcDbLine
 62
2
  6
CONTINUOUS
 10
13.1286868262
 20
2.5920323691
 11
13.1286868262
 21
2.7133208466
  0
LINE
  5
376
100
AcDbEntity
  8
0
100
AcDbLine
 62
2
  6
CONTINUOUS
 10
13.1086868151
 20
2.3661696306
 11
13.1086868151
 21
2.4912273132
  0
LINE
  5
377
100
AcDbEntity
  8
0
100
AcDbLine
 62
2
  6
CONTINUOUS
 10
13.1086868151
 20
2.5920323691
 11
13.1086868151
 21
2.7145870504
  0
LINE
  5
378
100
AcDbEntity
  8
0
100
AcDbLine
 62
2
  6
CONTINUOUS
 10
13.088686804
 20
2.3649034269
 11
13.088686804
 21
2.4912273132
  0
LINE
  5
379
100
AcDbEntity
  8
0
100
AcDbLine
 62
2
  6
CONTINUOUS
 10
13.088686804
 20
2.5920323691
 11
13.088686804
 21
2.7158532541
  0
LINE
  5
37A
100
AcDbEntity
  8
0
100
AcDbLine
 62
2
  6
CONTINUOUS
 10
13.0686867929
 20
2.3636739922
 11
13.0686867929
 21
2.4912273132
  0
LINE
  5
37B
100
AcDbEntity
  8
0
100
AcDbLine
 62
2
  6
CONTINUOUS
 10
13.0686867929
 20
2.5475272398
 11
13.0686867929
 21
2.5672823554
  0
LINE
  5
37C
100
AcDbEntity
  8
0
100
AcDbLine
 62
2
  6
CONTINUOUS
 10
13.0686867929
 20
2.5920323691
 11
13.0686867929
 21
2.7170826887
  0
LINE
  5
37D
100
AcDbEntity
  8
0
100
AcDbLine
 62
2
  6
CONTINUOUS
 10
13.0486867818
 20
2.363143203
 11
13.0486867818
 21
2.4912273132
  0
LINE
  5
37E
100
AcDbEntity
  8
0
100
AcDbLine
 62
2
  6
CONTINUOUS
 10
13.0486867818
 20
2.5666100882
 11
13.0486867818
 21
2.717613478
  0
LINE
  5
37F
100
AcDbEntity
  8
0
100
AcDbLine
 62
2
  6
CONTINUOUS
 10
13.0286867707
 20
2.3626124138
 11
13.0286867707
 21
2.50359263
  0
LINE
  5
380
100
AcDbEntity
  8
0
100
AcDbLine
 62
2
  6
CONTINUOUS
 10
13.0286867707
 20
2.5856929366
 11
13.0286867707
 21
2.7181442672
  0
LINE
  5
381
100
AcDbEntity
  8
0
100
AcDbLine
 62
2
  6
CONTINUOUS
 10
13.0086867596
 20
2.3620816246
 11
13.0086867596
 21
2.5226754472
  0
LINE
  5
382
100
AcDbEntity
  8
0
100
AcDbLine
 62
2
  6
CONTINUOUS
 10
13.0086867596
 20
2.5920323691
 11
13.0086867596
 21
2.7186750564
  0
LINE
  5
383
100
AcDbEntity
  8
0
100
AcDbLine
 62
2
  6
CONTINUOUS
 10
12.9886867486
 20
2.3615508354
 11
12.9886867486
 21
2.4912273132
  0
LINE
  5
384
100
AcDbEntity
  8
0
100
AcDbLine
 62
2
  6
CONTINUOUS
 10
12.9886867486
 20
2.515977327
 11
12.9886867486
 21
2.5417582644
  0
LINE
  5
385
100
AcDbEntity
  8
0
100
AcDbLine
 62
2
  6
CONTINUOUS
 10
12.9886867486
 20
2.5920323691
 11
12.9886867486
 21
2.7192058456
  0
LINE
  5
386
100
AcDbEntity
  8
0
100
AcDbLine
 62
2
  6
CONTINUOUS
 10
12.9686867375
 20
2.3610200462
 11
12.9686867375
 21
2.4912273132
  0
LINE
  5
387
100
AcDbEntity
  8
0
100
AcDbLine
 62
2
  6
CONTINUOUS
 10
12.9686867375
 20
2.5920323691
 11
12.9686867375
 21
2.7197366348
  0
LINE
  5
388
100
AcDbEntity
  8
0
100
AcDbLine
 62
2
  6
CONTINUOUS
 10
12.9486867264
 20
2.360489257
 11
12.9486867264
 21
2.4912273132
  0
LINE
  5
389
100
AcDbEntity
  8
0
100
AcDbLine
 62
2
  6
CONTINUOUS
 10
12.9486867264
 20
2.5920323691
 11
12.9486867264
 21
2.720267424
  0
LINE
  5
38A
100
AcDbEntity
  8
0
100
AcDbLine
 62
2
  6
CONTINUOUS
 10
12.9286867153
 20
2.3602836008
 11
12.9286867153
 21
2.4912273132
  0
LINE
  5
38B
100
AcDbEntity
  8
0
100
AcDbLine
 62
2
  6
CONTINUOUS
 10
12.9286867153
 20
2.515977327
 11
12.9286867153
 21
2.5672823554
  0
LINE
  5
38C
100
AcDbEntity
  8
0
100
AcDbLine
 62
2
  6
CONTINUOUS
 10
12.9286867153
 20
2.5920323691
 11
12.9286867153
 21
2.7204730802
  0
LINE
  5
38D
100
AcDbEntity
  8
0
100
AcDbLine
 62
2
  6
CONTINUOUS
 10
12.9086867042
 20
2.3604597639
 11
12.9086867042
 21
2.7202969171
  0
LINE
  5
38E
100
AcDbEntity
  8
0
100
AcDbLine
 62
2
  6
CONTINUOUS
 10
12.8886866931
 20
2.360635927
 11
12.8886866931
 21
2.5672823554
  0
LINE
  5
38F
100
AcDbEntity
  8
0
100
AcDbLine
 62
2
  6
CONTINUOUS
 10
12.8886866931
 20
2.5920323691
 11
12.8886866931
 21
2.720120754
  0
LINE
  5
390
100
AcDbEntity
  8
0
100
AcDbLine
 62
2
  6
CONTINUOUS
 10
12.868686682
 20
2.3608120901
 11
12.868686682
 21
2.491232357
  0
LINE
  5
391
100
AcDbEntity
  8
0
100
AcDbLine
 62
2
  6
CONTINUOUS
 10
12.868686682
 20
2.5920323691
 11
12.868686682
 21
2.7199445909
  0
LINE
  5
392
100
AcDbEntity
  8
0
100
AcDbLine
 62
2
  6
CONTINUOUS
 10
12.8486866709
 20
2.3609882532
 11
12.8486866709
 21
2.4912273132
  0
LINE
  5
393
100
AcDbEntity
  8
0
100
AcDbLine
 62
2
  6
CONTINUOUS
 10
12.8486866709
 20
2.5920323691
 11
12.8486866709
 21
2.7197684278
  0
LINE
  5
394
100
AcDbEntity
  8
0
100
AcDbLine
 62
2
  6
CONTINUOUS
 10
12.8286866598
 20
2.3611644163
 11
12.8286866598
 21
2.4912273132
  0
LINE
  5
395
100
AcDbEntity
  8
0
100
AcDbLine
 62
2
  6
CONTINUOUS
 10
12.8286866598
 20
2.5396527025
 11
12.8286866598
 21
2.5672823554
  0
LINE
  5
396
100
AcDbEntity
  8
0
100
AcDbLine
 62
2
  6
CONTINUOUS
 10
12.8286866598
 20
2.5920323691
 11
12.8286866598
 21
2.7195922647
  0
LINE
  5
397
100
AcDbEntity
  8
0
100
AcDbLine
 62
2
  6
CONTINUOUS
 10
12.8086866487
 20
2.3613405794
 11
12.8086866487
 21
2.4912273132
  0
LINE
  5
398
100
AcDbEntity
  8
0
100
AcDbLine
 62
2
  6
CONTINUOUS
 10
12.8086866487
 20
2.5587355508
 11
12.8086866487
 21
2.7194161016
  0
LINE
  5
399
100
AcDbEntity
  8
0
100
AcDbLine
 62
2
  6
CONTINUOUS
 10
12.7886866376
 20
2.3621089572
 11
12.7886866376
 21
2.4957181055
  0
LINE
  5
39A
100
AcDbEntity
  8
0
100
AcDbLine
 62
2
  6
CONTINUOUS
 10
12.7886866376
 20
2.5778183992
 11
12.7886866376
 21
2.7186477238
  0
LINE
  5
39B
100
AcDbEntity
  8
0
100
AcDbLine
 62
2
  6
CONTINUOUS
 10
12.7686866266
 20
2.3630013935
 11
12.7686866266
 21
2.5148009227
  0
LINE
  5
39C
100
AcDbEntity
  8
0
100
AcDbLine
 62
2
  6
CONTINUOUS
 10
12.7686866266
 20
2.5920323691
 11
12.7686866266
 21
2.7177552874
  0
LINE
  5
39D
100
AcDbEntity
  8
0
100
AcDbLine
 62
2
  6
CONTINUOUS
 10
12.7486866155
 20
2.3638938299
 11
12.7486866155
 21
2.4913263218
  0
LINE
  5
39E
100
AcDbEntity
  8
0
100
AcDbLine
 62
2
  6
CONTINUOUS
 10
12.7486866155
 20
2.5158783184
 11
12.7486866155
 21
2.5338837399
  0
LINE
  5
39F
100
AcDbEntity
  8
0
100
AcDbLine
 62
2
  6
CONTINUOUS
 10
12.7486866155
 20
2.5920323691
 11
12.7486866155
 21
2.7168628511
  0
LINE
  5
3A0
100
AcDbEntity
  8
0
100
AcDbLine
 62
2
  6
CONTINUOUS
 10
12.7286866044
 20
2.3647862663
 11
12.7286866044
 21
2.4912273132
  0
LINE
  5
3A1
100
AcDbEntity
  8
0
100
AcDbLine
 62
2
  6
CONTINUOUS
 10
12.7286866044
 20
2.515977327
 11
12.7286866044
 21
2.5527601554
  0
LINE
  5
3A2
100
AcDbEntity
  8
0
100
AcDbLine
 62
2
  6
CONTINUOUS
 10
12.7286866044
 20
2.5920323691
 11
12.7286866044
 21
2.7159704147
  0
LINE
  5
3A3
100
AcDbEntity
  8
0
100
AcDbLine
 62
2
  6
CONTINUOUS
 10
12.7086865933
 20
2.3656787026
 11
12.7086865933
 21
2.4912273132
  0
LINE
  5
3A4
100
AcDbEntity
  8
0
100
AcDbLine
 62
2
  6
CONTINUOUS
 10
12.7086865933
 20
2.5920323691
 11
12.7086865933
 21
2.7150779784
  0
LINE
  5
3A5
100
AcDbEntity
  8
0
100
AcDbLine
 62
2
  6
CONTINUOUS
 10
12.6886865822
 20
2.366571139
 11
12.6886865822
 21
2.4912273132
  0
LINE
  5
3A6
100
AcDbEntity
  8
0
100
AcDbLine
 62
2
  6
CONTINUOUS
 10
12.6886865822
 20
2.515977327
 11
12.6886865822
 21
2.5672823554
  0
LINE
  5
3A7
100
AcDbEntity
  8
0
100
AcDbLine
 62
2
  6
CONTINUOUS
 10
12.6886865822
 20
2.5920323691
 11
12.6886865822
 21
2.714185542
  0
LINE
  5
3A8
100
AcDbEntity
  8
0
100
AcDbLine
 62
2
  6
CONTINUOUS
 10
12.6686865711
 20
2.3677104027
 11
12.6686865711
 21
2.7130462783
  0
LINE
  5
3A9
100
AcDbEntity
  8
0
100
AcDbLine
 62
2
  6
CONTINUOUS
 10
12.64868656
 20
2.3693682721
 11
12.64868656
 21
2.7113884089
  0
LINE
  5
3AA
100
AcDbEntity
  8
0
100
AcDbLine
 62
2
  6
CONTINUOUS
 10
12.6286865489
 20
2.3710261415
 11
12.6286865489
 21
2.4912273132
  0
LINE
  5
3AB
100
AcDbEntity
  8
0
100
AcDbLine
 62
2
  6
CONTINUOUS
 10
12.6286865489
 20
2.515977327
 11
12.6286865489
 21
2.7097305395
  0
LINE
  5
3AC
100
AcDbEntity
  8
0
100
AcDbLine
 62
2
  6
CONTINUOUS
 10
12.6086865378
 20
2.372684011
 11
12.6086865378
 21
2.4912273132
  0
LINE
  5
3AD
100
AcDbEntity
  8
0
100
AcDbLine
 62
2
  6
CONTINUOUS
 10
12.6086865378
 20
2.5351122279
 11
12.6086865378
 21
2.70807267
  0
LINE
  5
3AE
100
AcDbEntity
  8
0
100
AcDbLine
 62
2
  6
CONTINUOUS
 10
12.5886865267
 20
2.3743418804
 11
12.5886865267
 21
2.4912273132
  0
LINE
  5
3AF
100
AcDbEntity
  8
0
100
AcDbLine
 62
2
  6
CONTINUOUS
 10
12.5886865267
 20
2.5660172622
 11
12.5886865267
 21
2.7064148006
  0
LINE
  5
3B0
100
AcDbEntity
  8
0
100
AcDbLine
 62
2
  6
CONTINUOUS
 10
12.5686865156
 20
2.3759997498
 11
12.5686865156
 21
2.4912273132
  0
LINE
  5
3B1
100
AcDbEntity
  8
0
100
AcDbLine
 62
2
  6
CONTINUOUS
 10
12.5686865156
 20
2.5920323691
 11
12.5686865156
 21
2.7047569312
  0
LINE
  5
3B2
100
AcDbEntity
  8
0
100
AcDbLine
 62
2
  6
CONTINUOUS
 10
12.5486865045
 20
2.3777575277
 11
12.5486865045
 21
2.4912273132
  0
LINE
  5
3B3
100
AcDbEntity
  8
0
100
AcDbLine
 62
2
  6
CONTINUOUS
 10
12.5486865045
 20
2.515977327
 11
12.5486865045
 21
2.5275118824
  0
LINE
  5
3B4
100
AcDbEntity
  8
0
100
AcDbLine
 62
2
  6
CONTINUOUS
 10
12.5486865045
 20
2.5920323691
 11
12.5486865045
 21
2.7029991533
  0
LINE
  5
3B5
100
AcDbEntity
  8
0
100
AcDbLine
 62
2
  6
CONTINUOUS
 10
12.5286864935
 20
2.3802813811
 11
12.5286864935
 21
2.5296213345
  0
LINE
  5
3B6
100
AcDbEntity
  8
0
100
AcDbLine
 62
2
  6
CONTINUOUS
 10
12.5286864935
 20
2.5505713461
 11
12.5286864935
 21
2.5667383551
  0
LINE
  5
3B7
100
AcDbEntity
  8
0
100
AcDbLine
 62
2
  6
CONTINUOUS
 10
12.5286864935
 20
2.5920323691
 11
12.5286864935
 21
2.7004752999
  0
LINE
  5
3B8
100
AcDbEntity
  8
0
100
AcDbLine
 62
2
  6
CONTINUOUS
 10
12.5086864824
 20
2.3828052346
 11
12.5086864824
 21
2.4912273132
  0
LINE
  5
3B9
100
AcDbEntity
  8
0
100
AcDbLine
 62
2
  6
CONTINUOUS
 10
12.5086864824
 20
2.515977327
 11
12.5086864824
 21
2.5279667721
  0
LINE
  5
3BA
100
AcDbEntity
  8
0
100
AcDbLine
 62
2
  6
CONTINUOUS
 10
12.5086864824
 20
2.5868602074
 11
12.5086864824
 21
2.6979514464
  0
LINE
  5
3BB
100
AcDbEntity
  8
0
100
AcDbLine
 62
2
  6
CONTINUOUS
 10
12.4886864713
 20
2.385329088
 11
12.4886864713
 21
2.4912273132
  0
LINE
  5
3BC
100
AcDbEntity
  8
0
100
AcDbLine
 62
2
  6
CONTINUOUS
 10
12.4886864713
 20
2.5553401045
 11
12.4886864713
 21
2.695427593
  0
LINE
  5
3BD
100
AcDbEntity
  8
0
100
AcDbLine
 62
2
  6
CONTINUOUS
 10
12.4686864602
 20
2.3878529415
 11
12.4686864602
 21
2.4912273132
  0
LINE
  5
3BE
100
AcDbEntity
  8
0
100
AcDbLine
 62
2
  6
CONTINUOUS
 10
12.4686864602
 20
2.5238200015
 11
12.4686864602
 21
2.6929037395
  0
LINE
  5
3BF
100
AcDbEntity
  8
0
100
AcDbLine
 62
2
  6
CONTINUOUS
 10
12.4486864491
 20
2.390376795
 11
12.4486864491
 21
2.4912273132
  0
LINE
  5
3C0
100
AcDbEntity
  8
0
100
AcDbLine
 62
2
  6
CONTINUOUS
 10
12.4486864491
 20
2.515977327
 11
12.4486864491
 21
2.690379886
  0
LINE
  5
3C1
100
AcDbEntity
  8
0
100
AcDbLine
 62
2
  6
CONTINUOUS
 10
12.428686438
 20
2.3931794042
 11
12.428686438
 21
2.6875772768
  0
LINE
  5
3C2
100
AcDbEntity
  8
0
100
AcDbLine
 62
2
  6
CONTINUOUS
 10
12.4086864269
 20
2.3964643301
 11
12.4086864269
 21
2.5013773986
  0
LINE
  5
3C3
100
AcDbEntity
  8
0
100
AcDbLine
 62
2
  6
CONTINUOUS
 10
12.4086864269
 20
2.5325739971
 11
12.4086864269
 21
2.5537224311
  0
LINE
  5
3C4
100
AcDbEntity
  8
0
100
AcDbLine
 62
2
  6
CONTINUOUS
 10
12.4086864269
 20
2.5791473398
 11
12.4086864269
 21
2.6842923509
  0
LINE
  5
3C5
100
AcDbEntity
  8
0
100
AcDbLine
 62
2
  6
CONTINUOUS
 10
12.3886864158
 20
2.399749256
 11
12.3886864158
 21
2.4921022658
  0
LINE
  5
3C6
100
AcDbEntity
  8
0
100
AcDbLine
 62
2
  6
CONTINUOUS
 10
12.3886864158
 20
2.5895929958
 11
12.3886864158
 21
2.681007425
  0
LINE
  5
3C7
100
AcDbEntity
  8
0
100
AcDbLine
 62
2
  6
CONTINUOUS
 10
12.3686864047
 20
2.403451877
 11
12.3686864047
 21
2.4912273132
  0
LINE
  5
3C8
100
AcDbEntity
  8
0
100
AcDbLine
 62
2
  6
CONTINUOUS
 10
12.3686864047
 20
2.5920323691
 11
12.3686864047
 21
2.677304804
  0
LINE
  5
3C9
100
AcDbEntity
  8
0
100
AcDbLine
 62
2
  6
CONTINUOUS
 10
12.3486863936
 20
2.407324637
 11
12.3486863936
 21
2.4912273132
  0
LINE
  5
3CA
100
AcDbEntity
  8
0
100
AcDbLine
 62
2
  6
CONTINUOUS
 10
12.3486863936
 20
2.5920323691
 11
12.3486863936
 21
2.673432044
  0
LINE
  5
3CB
100
AcDbEntity
  8
0
100
AcDbLine
 62
2
  6
CONTINUOUS
 10
12.3286863825
 20
2.4113493968
 11
12.3286863825
 21
2.4912273132
  0
LINE
  5
3CC
100
AcDbEntity
  8
0
100
AcDbLine
 62
2
  6
CONTINUOUS
 10
12.3286863825
 20
2.515977327
 11
12.3286863825
 21
2.5333023366
  0
LINE
  5
3CD
100
AcDbEntity
  8
0
100
AcDbLine
 62
2
  6
CONTINUOUS
 10
12.3286863825
 20
2.5499573458
 11
12.3286863825
 21
2.5672823554
  0
LINE
  5
3CE
100
AcDbEntity
  8
0
100
AcDbLine
 62
2
  6
CONTINUOUS
 10
12.3286863825
 20
2.5920323691
 11
12.3286863825
 21
2.6694072842
  0
LINE
  5
3CF
100
AcDbEntity
  8
0
100
AcDbLine
 62
2
  6
CONTINUOUS
 10
12.3086863715
 20
2.4159005505
 11
12.3086863715
 21
2.4912273132
  0
LINE
  5
3D0
100
AcDbEntity
  8
0
100
AcDbLine
 62
2
  6
CONTINUOUS
 10
12.3086863715
 20
2.515977327
 11
12.3086863715
 21
2.5333023366
  0
LINE
  5
3D1
100
AcDbEntity
  8
0
100
AcDbLine
 62
2
  6
CONTINUOUS
 10
12.3086863715
 20
2.5499573458
 11
12.3086863715
 21
2.5672823554
  0
LINE
  5
3D2
100
AcDbEntity
  8
0
100
AcDbLine
 62
2
  6
CONTINUOUS
 10
12.3086863715
 20
2.5920323691
 11
12.3086863715
 21
2.6648561305
  0
LINE
  5
3D3
100
AcDbEntity
  8
0
100
AcDbLine
 62
2
  6
CONTINUOUS
 10
12.2886863604
 20
2.4204517041
 11
12.2886863604
 21
2.4912273132
  0
LINE
  5
3D4
100
AcDbEntity
  8
0
100
AcDbLine
 62
2
  6
CONTINUOUS
 10
12.2886863604
 20
2.5920323691
 11
12.2886863604
 21
2.6603049769
  0
LINE
  5
3D5
100
AcDbEntity
  8
0
100
AcDbLine
 62
2
  6
CONTINUOUS
 10
12.2686863493
 20
2.4257438218
 11
12.2686863493
 21
2.4912273132
  0
LINE
  5
3D6
100
AcDbEntity
  8
0
100
AcDbLine
 62
2
  6
CONTINUOUS
 10
12.2686863493
 20
2.5920323691
 11
12.2686863493
 21
2.6550128592
  0
LINE
  5
3D7
100
AcDbEntity
  8
0
100
AcDbLine
 62
2
  6
CONTINUOUS
 10
12.2486863382
 20
2.4310978667
 11
12.2486863382
 21
2.4912273132
  0
LINE
  5
3D8
100
AcDbEntity
  8
0
100
AcDbLine
 62
2
  6
CONTINUOUS
 10
12.2486863382
 20
2.5920323691
 11
12.2486863382
 21
2.6496588142
  0
LINE
  5
3D9
100
AcDbEntity
  8
0
100
AcDbLine
 62
2
  6
CONTINUOUS
 10
12.2286863271
 20
2.4372566433
 11
12.2286863271
 21
2.4912273132
  0
LINE
  5
3DA
100
AcDbEntity
  8
0
100
AcDbLine
 62
2
  6
CONTINUOUS
 10
12.2286863271
 20
2.515977327
 11
12.2286863271
 21
2.5672823554
  0
LINE
  5
3DB
100
AcDbEntity
  8
0
100
AcDbLine
 62
2
  6
CONTINUOUS
 10
12.2286863271
 20
2.5920323691
 11
12.2286863271
 21
2.6435000377
  0
LINE
  5
3DC
100
AcDbEntity
  8
0
100
AcDbLine
 62
2
  6
CONTINUOUS
 10
12.208686316
 20
2.443589771
 11
12.208686316
 21
2.4912273132
  0
LINE
  5
3DD
100
AcDbEntity
  8
0
100
AcDbLine
 62
2
  6
CONTINUOUS
 10
12.208686316
 20
2.515977327
 11
12.208686316
 21
2.5672823554
  0
LINE
  5
3DE
100
AcDbEntity
  8
0
100
AcDbLine
 62
2
  6
CONTINUOUS
 10
12.208686316
 20
2.5920323691
 11
12.208686316
 21
2.63716691
  0
LINE
  5
3DF
100
AcDbEntity
  8
0
100
AcDbLine
 62
2
  6
CONTINUOUS
 10
12.1886863049
 20
2.4510806436
 11
12.1886863049
 21
2.6296760373
  0
LINE
  5
3E0
100
AcDbEntity
  8
0
100
AcDbLine
 62
2
  6
CONTINUOUS
 10
12.1686862938
 20
2.4591016523
 11
12.1686862938
 21
2.6216550287
  0
LINE
  5
3E1
100
AcDbEntity
  8
0
100
AcDbLine
 62
2
  6
CONTINUOUS
 10
12.1486862827
 20
2.468314272
 11
12.1486862827
 21
2.612442409
  0
LINE
  5
3E2
100
AcDbEntity
  8
0
100
AcDbLine
 62
2
  6
CONTINUOUS
 10
12.1286862716
 20
2.4794932339
 11
12.1286862716
 21
2.601263447
  0
LINE
  5
3E3
100
AcDbEntity
  8
0
100
AcDbLine
 62
2
  6
CONTINUOUS
 10
12.1086862605
 20
2.4934150665
 11
12.1086862605
 21
2.5873416144
  0
LINE
  5
3E4
100
AcDbEntity
  8
0
100
AcDbLine
 62
2
  6
CONTINUOUS
 10
12.0886862494
 20
2.5144449553
 11
12.0886862494
 21
2.5663117257
  0
ENDBLK
  5
3E5
100
AcDbEntity
  8
0
  6
BYBLOCK
 62
0
100
AcDbBlockEnd
  0
BLOCK
  5
3E6
100
AcDbEntity
  8
0
100
AcDbBlockBegin
  2
_FILLED
 70
64
 10
0.0
 20
0.0
  3
_FILLED
  1

  0
SOLID
  5
3E7
100
AcDbEntity
  8
0
  6
BYBLOCK
 62
0
100
AcDbTrace
 10
0.0
 20
0.0
 11
-1.0
 21
0.1666666667
 12
-1.0
 22
-0.1666666667
 13
-1.0
 23
-0.1666666667
  0
ENDBLK
  5
3E8
100
AcDbEntity
  8
0
  6
BYBLOCK
 62
0
100
AcDbBlockEnd
  0
BLOCK
  5
3E9
100
AcDbEntity
  8
SCHEME_DIMS
100
AcDbBlockBegin
 62
2
  6
CONTINUOUS
  2
*D0
 70
65
 10
0.0
 20
0.0
  3
*D0
  1

  0
MTEXT
  5
3EA
100
AcDbEntity
  8
SCHEME_DIMS
100
AcDbMText
 62
2
  6
CONTINUOUS
  7
STANDARD
 71
2
 72
1
 10
5.9652058049
 20
9.2244489098
 30
0.0
 11
1.0
 21
0.0
 31
0.0
 44
0.9
  1
43\P[1.69]
 40
0.1
 41
0.6
  0
LINE
  5
3EB
100
AcDbEntity
  8
SCHEME_DIMS
100
AcDbLine
 62
2
  6
CONTINUOUS
 10
5.318749112
 20
7.7711221381
 11
5.318749112
 21
9.2994489098
  0
LINE
  5
3EC
100
AcDbEntity
  8
SCHEME_DIMS
100
AcDbLine
 62
2
  6
CONTINUOUS
 10
7.0116624978
 20
7.7711221381
 11
7.0116624978
 21
9.2994489098
  0
LINE
  5
3ED
100
AcDbEntity
  8
SCHEME_DIMS
100
AcDbLine
 62
2
  6
CONTINUOUS
 10
5.318749112
 20
9.1744489098
 11
5.7652058049
 21
9.1744489098
  0
LINE
  5
3EE
100
AcDbEntity
  8
SCHEME_DIMS
100
AcDbLine
 62
2
  6
CONTINUOUS
 10
7.0116624978
 20
9.1744489098
 11
6.5652058049
 21
9.1744489098
  0
INSERT
  5
3EF
100
AcDbEntity
  8
SCHEME_DIMS
100
AcDbBlockReference
 62
2
  6
CONTINUOUS
  2
_FILLED
 10
5.318749112
 20
9.1744489098
 41
0.1875
 42
0.1875
 43
0.1875
 50
180.0
  0
INSERT
  5
3F0
100
AcDbEntity
  8
SCHEME_DIMS
100
AcDbBlockReference
 62
2
  6
CONTINUOUS
  2
_FILLED
 10
7.0116624978
 20
9.1744489098
 41
0.1875
 42
0.1875
 43
0.1875
  0
ENDBLK
  5
3F1
100
AcDbEntity
  8
0
  6
BYBLOCK
 62
0
100
AcDbBlockEnd
  0
BLOCK
  5
3F2
100
AcDbEntity
  8
SCHEME_DIMS
100
AcDbBlockBegin
 62
2
  6
CONTINUOUS
  2
*D1
 70
65
 10
0.0
 20
0.0
  3
*D1
  1

  0
MTEXT
  5
3F3
100
AcDbEntity
  8
SCHEME_DIMS
100
AcDbMText
 62
2
  6
CONTINUOUS
  7
STANDARD
 71
2
 72
1
 10
6.5384341513
 20
5.8997329835
 30
0.0
 11
1.0
 21
0.0
 31
0.0
 44
0.9
  1
21,5\P[.85]
 40
0.1
 41
0.5
  0
LINE
  5
3F4
100
AcDbEntity
  8
SCHEME_DIMS
100
AcDbLine
 62
2
  6
CONTINUOUS
 10
6.1652058049
 20
7.1190969668
 11
6.1652058049
 21
5.7247329835
  0
LINE
  5
3F5
100
AcDbEntity
  8
SCHEME_DIMS
100
AcDbLine
 62
2
  6
CONTINUOUS
 10
7.0116624978
 20
7.2177756814
 11
7.0116624978
 21
5.7247329835
  0
LINE
  5
3F6
100
AcDbEntity
  8
SCHEME_DIMS
100
AcDbLine
 62
2
  6
CONTINUOUS
 10
6.1652058049
 20
5.8497329835
 11
5.7652058049
 21
5.8497329835
  0
LINE
  5
3F7
100
AcDbEntity
  8
SCHEME_DIMS
100
AcDbLine
 62
2
  6
CONTINUOUS
 10
7.0116624978
 20
5.8497329835
 11
7.4116624978
 21
5.8497329835
  0
INSERT
  5
3F8
100
AcDbEntity
  8
SCHEME_DIMS
100
AcDbBlockReference
 62
2
  6
CONTINUOUS
  2
_FILLED
 10
6.1652058049
 20
5.8497329835
 41
0.1875
 42
0.1875
 43
0.1875
  0
INSERT
  5
3F9
100
AcDbEntity
  8
SCHEME_DIMS
100
AcDbBlockReference
 62
2
  6
CONTINUOUS
  2
_FILLED
 10
7.0116624978
 20
5.8497329835
 41
0.1875
 42
0.1875
 43
0.1875
 50
180.0
  0
ENDBLK
  5
3FA
100
AcDbEntity
  8
0
  6
BYBLOCK
 62
0
100
AcDbBlockEnd
  0
BLOCK
  5
3FB
100
AcDbEntity
  8
SCHEME_DIMS
100
AcDbBlockBegin
 62
2
  6
CONTINUOUS
  2
*D2
 70
65
 10
0.0
 20
0.0
  3
*D2
  1

  0
MTEXT
  5
3FC
100
AcDbEntity
  8
SCHEME_DIMS
100
AcDbMText
 62
2
  6
CONTINUOUS
  7
STANDARD
 71
2
 72
1
 10
6.7202058049
 20
5.5247329835
 30
0.0
 11
1.0
 21
0.0
 31
0.0
 44
0.9
  1
33,3\P[1.31]
 40
0.1
 41
0.6
  0
LINE
  5
3FD
100
AcDbEntity
  8
SCHEME_DIMS
100
AcDbLine
 62
2
  6
CONTINUOUS
 10
6.1652058049
 20
7.1190969668
 11
6.1652058049
 21
5.3497329835
  0
LINE
  5
3FE
100
AcDbEntity
  8
SCHEME_DIMS
100
AcDbLine
 62
2
  6
CONTINUOUS
 10
7.4752058049
 20
6.5619489098
 11
7.4752058049
 21
5.3497329835
  0
LINE
  5
3FF
100
AcDbEntity
  8
SCHEME_DIMS
100
AcDbLine
 62
2
  6
CONTINUOUS
 10
6.1652058049
 20
5.4747329835
 11
6.4202058049
 21
5.4747329835
  0
LINE
  5
400
100
AcDbEntity
  8
SCHEME_DIMS
100
AcDbLine
 62
2
  6
CONTINUOUS
 10
7.4752058049
 20
5.4747329835
 11
7.2202058049
 21
5.4747329835
  0
INSERT
  5
401
100
AcDbEntity
  8
SCHEME_DIMS
100
AcDbBlockReference
 62
2
  6
CONTINUOUS
  2
_FILLED
 10
6.1652058049
 20
5.4747329835
 41
0.1875
 42
0.1875
 43
0.1875
 50
180.0
  0
INSERT
  5
402
100
AcDbEntity
  8
SCHEME_DIMS
100
AcDbBlockReference
 62
2
  6
CONTINUOUS
  2
_FILLED
 10
7.4752058049
 20
5.4747329835
 41
0.1875
 42
0.1875
 43
0.1875
  0
ENDBLK
  5
403
100
AcDbEntity
  8
0
  6
BYBLOCK
 62
0
100
AcDbBlockEnd
  0
BLOCK
  5
404
100
AcDbEntity
  8
SCHEME_DIMS
100
AcDbBlockBegin
 62
2
  6
CONTINUOUS
  2
*D3
 70
65
 10
0.0
 20
0.0
  3
*D3
  1

  0
MTEXT
  5
405
100
AcDbEntity
  8
SCHEME_DIMS
100
AcDbMText
 62
2
  6
CONTINUOUS
  7
STANDARD
 71
2
 72
1
 10
7.7752058049
 20
8.2094489098
 30
0.0
 11
1.0
 21
0.0
 31
0.0
 44
0.9
  1
30\P[1.18]
 40
0.1
 41
0.6
  0
LINE
  5
406
100
AcDbEntity
  8
SCHEME_DIMS
100
AcDbLine
 62
2
  6
CONTINUOUS
 10
7.5849955695
 20
8.6744489098
 11
8.1002058049
 21
8.6744489098
  0
LINE
  5
407
100
AcDbEntity
  8
SCHEME_DIMS
100
AcDbLine
 62
2
  6
CONTINUOUS
 10
7.3014364728
 20
7.4944489098
 11
8.1002058049
 21
7.4944489098
  0
LINE
  5
408
100
AcDbEntity
  8
SCHEME_DIMS
100
AcDbLine
 62
2
  6
CONTINUOUS
 10
7.9752058049
 20
8.6744489098
 11
7.9752058049
 21
8.3094489098
  0
LINE
  5
409
100
AcDbEntity
  8
SCHEME_DIMS
100
AcDbLine
 62
2
  6
CONTINUOUS
 10
7.9752058049
 20
7.4944489098
 11
7.9752058049
 21
7.8594489098
  0
INSERT
  5
40A
100
AcDbEntity
  8
SCHEME_DIMS
100
AcDbBlockReference
 62
2
  6
CONTINUOUS
  2
_FILLED
 10
7.9752058049
 20
8.6744489098
 41
0.1875
 42
0.1875
 43
0.1875
 50
90.0
  0
INSERT
  5
40B
100
AcDbEntity
  8
SCHEME_DIMS
100
AcDbBlockReference
 62
2
  6
CONTINUOUS
  2
_FILLED
 10
7.9752058049
 20
7.4944489098
 41
0.1875
 42
0.1875
 43
0.1875
 50
270.0
  0
ENDBLK
  5
40C
100
AcDbEntity
  8
0
  6
BYBLOCK
 62
0
100
AcDbBlockEnd
  0
BLOCK
  5
40D
100
AcDbEntity
  8
SCHEME_DIMS
100
AcDbBlockBegin
 62
2
  6
CONTINUOUS
  2
*D4
 70
65
 10
0.0
 20
0.0
  3
*D4
  1

  0
MTEXT
  5
40E
100
AcDbEntity
  8
SCHEME_DIMS
100
AcDbMText
 62
2
  6
CONTINUOUS
  7
STANDARD
 71
2
 72
1
 10
6.0652058049
 20
2.6833834024
 30
0.0
 11
1.0
 21
0.0
 31
0.0
 44
0.9
  1
50,8\P[2.00]
 40
0.1
 41
0.6
  0
LINE
  5
40F
100
AcDbEntity
  8
SCHEME_DIMS
100
AcDbLine
 62
2
  6
CONTINUOUS
 10
5.1652058049
 20
2.983300763
 11
5.1652058049
 21
2.5083834024
  0
LINE
  5
410
100
AcDbEntity
  8
SCHEME_DIMS
100
AcDbLine
 62
2
  6
CONTINUOUS
 10
7.1652058049
 20
2.980866761
 11
7.1652058049
 21
2.5083834024
  0
LINE
  5
411
100
AcDbEntity
  8
SCHEME_DIMS
100
AcDbLine
 62
2
  6
CONTINUOUS
 10
5.1652058049
 20
2.6333834024
 11
5.7652058049
 21
2.6333834024
  0
LINE
  5
412
100
AcDbEntity
  8
SCHEME_DIMS
100
AcDbLine
 62
2
  6
CONTINUOUS
 10
7.1652058049
 20
2.6333834024
 11
6.5652058049
 21
2.6333834024
  0
INSERT
  5
413
100
AcDbEntity
  8
SCHEME_DIMS
100
AcDbBlockReference
 62
2
  6
CONTINUOUS
  2
_FILLED
 10
5.1652058049
 20
2.6333834024
 41
0.1875
 42
0.1875
 43
0.1875
 50
180.0
  0
INSERT
  5
414
100
AcDbEntity
  8
SCHEME_DIMS
100
AcDbBlockReference
 62
2
  6
CONTINUOUS
  2
_FILLED
 10
7.1652058049
 20
2.6333834024
 41
0.1875
 42
0.1875
 43
0.1875
  0
ENDBLK
  5
415
100
AcDbEntity
  8
0
  6
BYBLOCK
 62
0
100
AcDbBlockEnd
  0
BLOCK
  5
416
100
AcDbEntity
  8
SCHEME_DIMS
100
AcDbBlockBegin
 62
2
  6
CONTINUOUS
  2
*D5
 70
65
 10
0.0
 20
0.0
  3
*D5
  1

  0
MTEXT
  5
417
100
AcDbEntity
  8
SCHEME_DIMS
100
AcDbMText
 62
2
  6
CONTINUOUS
  7
STANDARD
 71
2
 72
1
 10
6.0652058049
 20
2.2440572972
 30
0.0
 11
1.0
 21
0.0
 31
0.0
 44
0.9
  1
66,5\P[2.62]
 40
0.1
 41
0.6
  0
LINE
  5
418
100
AcDbEntity
  8
SCHEME_DIMS
100
AcDbLine
 62
2
  6
CONTINUOUS
 10
4.8552058049
 20
3.0924328643
 11
4.8552058049
 21
3.020211138
  0
LINE
  5
419
100
AcDbEntity
  8
SCHEME_DIMS
100
AcDbLine
 62
2
  6
CONTINUOUS
 10
4.8552058049
 20
2.9796831673
 11
4.8552058049
 21
2.0690572972
  0
LINE
  5
41A
100
AcDbEntity
  8
SCHEME_DIMS
100
AcDbLine
 62
2
  6
CONTINUOUS
 10
7.4752058049
 20
3.1202465359
 11
7.4752058049
 21
2.0690572972
  0
LINE
  5
41B
100
AcDbEntity
  8
SCHEME_DIMS
100
AcDbLine
 62
2
  6
CONTINUOUS
 10
4.8552058049
 20
2.1940572972
 11
5.7652058049
 21
2.1940572972
  0
LINE
  5
41C
100
AcDbEntity
  8
SCHEME_DIMS
100
AcDbLine
 62
2
  6
CONTINUOUS
 10
7.4752058049
 20
2.1940572972
 11
6.5652058049
 21
2.1940572972
  0
INSERT
  5
41D
100
AcDbEntity
  8
SCHEME_DIMS
100
AcDbBlockReference
 62
2
  6
CONTINUOUS
  2
_FILLED
 10
4.8552058049
 20
2.1940572972
 41
0.1875
 42
0.1875
 43
0.1875
 50
180.0
  0
INSERT
  5
41E
100
AcDbEntity
  8
SCHEME_DIMS
100
AcDbBlockReference
 62
2
  6
CONTINUOUS
  2
_FILLED
 10
7.4752058049
 20
2.1940572972
 41
0.1875
 42
0.1875
 43
0.1875
  0
ENDBLK
  5
41F
100
AcDbEntity
  8
0
  6
BYBLOCK
 62
0
100
AcDbBlockEnd
  0
BLOCK
  5
420
100
AcDbEntity
  8
SCHEME_DIMS
100
AcDbBlockBegin
 62
2
  6
CONTINUOUS
  2
*D6
 70
65
 10
0.0
 20
0.0
  3
*D6
  1

  0
MTEXT
  5
421
100
AcDbEntity
  8
SCHEME_DIMS
100
AcDbMText
 62
2
  6
CONTINUOUS
  7
STANDARD
 71
2
 72
1
 10
8.1314345782
 20
3.8722863989
 30
0.0
 11
1.0
 21
0.0
 31
0.0
 44
0.9
  1
21\P[.83]
 40
0.1
 41
0.5
  0
LINE
  5
422
100
AcDbEntity
  8
SCHEME_DIMS
100
AcDbLine
 62
2
  6
CONTINUOUS
 10
7.4677058049
 20
3.3187026632
 11
8.4064345782
 21
3.3187026632
  0
LINE
  5
423
100
AcDbEntity
  8
SCHEME_DIMS
100
AcDbLine
 62
2
  6
CONTINUOUS
 10
7.371000065
 20
4.1467026632
 11
8.4064345782
 21
4.1467026632
  0
LINE
  5
424
100
AcDbEntity
  8
SCHEME_DIMS
100
AcDbLine
 62
2
  6
CONTINUOUS
 10
8.2814345782
 20
3.3187026632
 11
8.2814345782
 21
2.9187026632
  0
LINE
  5
425
100
AcDbEntity
  8
SCHEME_DIMS
100
AcDbLine
 62
2
  6
CONTINUOUS
 10
8.2814345782
 20
4.1467026632
 11
8.2814345782
 21
4.5467026632
  0
INSERT
  5
426
100
AcDbEntity
  8
SCHEME_DIMS
100
AcDbBlockReference
 62
2
  6
CONTINUOUS
  2
_FILLED
 10
8.2814345782
 20
3.3187026632
 41
0.1875
 42
0.1875
 43
0.1875
 50
90.0
  0
INSERT
  5
427
100
AcDbEntity
  8
SCHEME_DIMS
100
AcDbBlockReference
 62
2
  6
CONTINUOUS
  2
_FILLED
 10
8.2814345782
 20
4.1467026632
 41
0.1875
 42
0.1875
 43
0.1875
 50
270.0
  0
ENDBLK
  5
428
100
AcDbEntity
  8
0
  6
BYBLOCK
 62
0
100
AcDbBlockEnd
  0
BLOCK
  5
429
100
AcDbEntity
  8
SCHEME_DIMS
100
AcDbBlockBegin
 62
2
  6
CONTINUOUS
  2
*D7
 70
65
 10
0.0
 20
0.0
  3
*D7
  1

  0
MTEXT
  5
42A
100
AcDbEntity
  8
SCHEME_DIMS
100
AcDbMText
 62
2
  6
CONTINUOUS
  7
STANDARD
 71
2
 72
1
 10
8.8024650254
 20
3.7124107052
 30
0.0
 11
1.0
 21
0.0
 31
0.0
 44
0.9
  1
29\P[1.14]
 40
0.1
 41
0.6
  0
LINE
  5
42B
100
AcDbEntity
  8
SCHEME_DIMS
100
AcDbLine
 62
2
  6
CONTINUOUS
 10
7.3344456964
 20
3.0067026632
 11
7.4280553712
 21
3.0067026632
  0
LINE
  5
42C
100
AcDbEntity
  8
SCHEME_DIMS
100
AcDbLine
 62
2
  6
CONTINUOUS
 10
7.5172939587
 20
3.0067026632
 11
8.2218410426
 21
3.0067026632
  0
LINE
  5
42D
100
AcDbEntity
  8
SCHEME_DIMS
100
AcDbLine
 62
2
  6
CONTINUOUS
 10
8.3267302479
 20
3.0067026632
 11
9.1274650254
 21
3.0067026632
  0
LINE
  5
42E
100
AcDbEntity
  8
SCHEME_DIMS
100
AcDbLine
 62
2
  6
CONTINUOUS
 10
7.4933117255
 20
4.1467026632
 11
9.1274650254
 21
4.1467026632
  0
LINE
  5
42F
100
AcDbEntity
  8
SCHEME_DIMS
100
AcDbLine
 62
2
  6
CONTINUOUS
 10
9.0024650254
 20
3.0067026632
 11
9.0024650254
 21
3.3624107052
  0
LINE
  5
430
100
AcDbEntity
  8
SCHEME_DIMS
100
AcDbLine
 62
2
  6
CONTINUOUS
 10
9.0024650254
 20
4.1467026632
 11
9.0024650254
 21
3.8124107052
  0
INSERT
  5
431
100
AcDbEntity
  8
SCHEME_DIMS
100
AcDbBlockReference
 62
2
  6
CONTINUOUS
  2
_FILLED
 10
9.0024650254
 20
3.0067026632
 41
0.1875
 42
0.1875
 43
0.1875
 50
270.0
  0
INSERT
  5
432
100
AcDbEntity
  8
SCHEME_DIMS
100
AcDbBlockReference
 62
2
  6
CONTINUOUS
  2
_FILLED
 10
9.0024650254
 20
4.1467026632
 41
0.1875
 42
0.1875
 43
0.1875
 50
90.0
  0
ENDBLK
  5
433
100
AcDbEntity
  8
0
  6
BYBLOCK
 62
0
100
AcDbBlockEnd
  0
BLOCK
  5
434
100
AcDbEntity
  8
SCHEME_DIMS
100
AcDbBlockBegin
 62
2
  6
CONTINUOUS
  2
*D8
 70
65
 10
0.0
 20
0.0
  3
*D8
  1

  0
MTEXT
  5
435
100
AcDbEntity
  8
SCHEME_DIMS
100
AcDbMText
 62
2
  6
CONTINUOUS
  7
STANDARD
 71
2
 72
1
 10
3.8509614422
 20
3.9379231356
 30
0.0
 11
1.0
 21
0.0
 31
0.0
 44
0.9
  1
44,8\P[1.76]
 40
0.1
 41
0.6
  0
LINE
  5
436
100
AcDbEntity
  8
SCHEME_DIMS
100
AcDbLine
 62
2
  6
CONTINUOUS
 10
5.0427058049
 20
3.0067026632
 11
4.8768858635
 21
3.0067026632
  0
LINE
  5
437
100
AcDbEntity
  8
SCHEME_DIMS
100
AcDbLine
 62
2
  6
CONTINUOUS
 10
4.8373839174
 20
3.0067026632
 11
3.8259614422
 21
3.0067026632
  0
LINE
  5
438
100
AcDbEntity
  8
SCHEME_DIMS
100
AcDbLine
 62
2
  6
CONTINUOUS
 10
5.0200286395
 20
4.769143608
 11
3.8259614422
 21
4.769143608
  0
LINE
  5
439
100
AcDbEntity
  8
SCHEME_DIMS
100
AcDbLine
 62
2
  6
CONTINUOUS
 10
3.9509614422
 20
3.0067026632
 11
3.9509614422
 21
3.5879231356
  0
LINE
  5
43A
100
AcDbEntity
  8
SCHEME_DIMS
100
AcDbLine
 62
2
  6
CONTINUOUS
 10
3.9509614422
 20
4.769143608
 11
3.9509614422
 21
4.0379231356
  0
INSERT
  5
43B
100
AcDbEntity
  8
SCHEME_DIMS
100
AcDbBlockReference
 62
2
  6
CONTINUOUS
  2
_FILLED
 10
3.9509614422
 20
3.0067026632
 41
0.1875
 42
0.1875
 43
0.1875
 50
270.0
  0
INSERT
  5
43C
100
AcDbEntity
  8
SCHEME_DIMS
100
AcDbBlockReference
 62
2
  6
CONTINUOUS
  2
_FILLED
 10
3.9509614422
 20
4.769143608
 41
0.1875
 42
0.1875
 43
0.1875
 50
90.0
  0
ENDBLK
  5
43D
100
AcDbEntity
  8
0
  6
BYBLOCK
 62
0
100
AcDbBlockEnd
  0
BLOCK
  5
43E
100
AcDbEntity
  8
SCHEME_DIMS
100
AcDbBlockBegin
 62
2
  6
CONTINUOUS
  2
*D9
 70
65
 10
0.0
 20
0.0
  3
*D9
  1

  0
MTEXT
  5
43F
100
AcDbEntity
  8
SCHEME_DIMS
100
AcDbMText
 62
2
  6
CONTINUOUS
  7
STANDARD
 71
2
 72
1
 10
4.1552058049
 20
7.8296720762
 30
0.0
 11
1.0
 21
0.0
 31
0.0
 44
0.9
  1
52\P[2.05]
 40
0.1
 41
0.6
  0
LINE
  5
440
100
AcDbEntity
  8
SCHEME_DIMS
100
AcDbLine
 62
2
  6
CONTINUOUS
 10
5.1620970007
 20
6.4708268625
 11
4.2302058049
 21
6.4708268625
  0
LINE
  5
441
100
AcDbEntity
  8
SCHEME_DIMS
100
AcDbLine
 62
2
  6
CONTINUOUS
 10
5.1827829603
 20
8.518070957
 11
5.1262276575
 21
8.518070957
  0
LINE
  5
442
100
AcDbEntity
  8
SCHEME_DIMS
100
AcDbLine
 62
2
  6
CONTINUOUS
 10
5.0344939122
 20
8.518070957
 11
4.2302058049
 21
8.518070957
  0
LINE
  5
443
100
AcDbEntity
  8
SCHEME_DIMS
100
AcDbLine
 62
2
  6
CONTINUOUS
 10
4.3552058049
 20
6.4708268625
 11
4.3552058049
 21
7.4796720762
  0
LINE
  5
444
100
AcDbEntity
  8
SCHEME_DIMS
100
AcDbLine
 62
2
  6
CONTINUOUS
 10
4.3552058049
 20
8.518070957
 11
4.3552058049
 21
7.9296720762
  0
INSERT
  5
445
100
AcDbEntity
  8
SCHEME_DIMS
100
AcDbBlockReference
 62
2
  6
CONTINUOUS
  2
_FILLED
 10
4.3552058049
 20
6.4708268625
 41
0.1875
 42
0.1875
 43
0.1875
 50
270.0
  0
INSERT
  5
446
100
AcDbEntity
  8
SCHEME_DIMS
100
AcDbBlockReference
 62
2
  6
CONTINUOUS
  2
_FILLED
 10
4.3552058049
 20
8.518070957
 41
0.1875
 42
0.1875
 43
0.1875
 50
90.0
  0
ENDBLK
  5
447
100
AcDbEntity
  8
0
  6
BYBLOCK
 62
0
100
AcDbBlockEnd
  0
BLOCK
  5
448
100
AcDbEntity
  8
SCHEME_DIMS
100
AcDbBlockBegin
 62
2
  6
CONTINUOUS
  2
*D10
 70
65
 10
0.0
 20
0.0
  3
*D10
  1

  0
MTEXT
  5
449
100
AcDbEntity
  8
SCHEME_DIMS
100
AcDbMText
 62
2
  6
CONTINUOUS
  7
STANDARD
 71
2
 72
1
 10
6.0995814084
 20
9.5965225077
 30
0.0
 11
1.0
 21
0.0
 31
0.0
 44
0.9
  1
55\P[2.17]
 40
0.1
 41
0.6
  0
LINE
  5
44A
100
AcDbEntity
  8
SCHEME_DIMS
100
AcDbLine
 62
2
  6
CONTINUOUS
 10
5.0825286395
 20
8.4097925975
 11
5.0825286395
 21
9.6715225077
  0
LINE
  5
44B
100
AcDbEntity
  8
SCHEME_DIMS
100
AcDbLine
 62
2
  6
CONTINUOUS
 10
7.2478829702
 20
8.409006108
 11
7.2478829702
 21
9.6715225077
  0
LINE
  5
44C
100
AcDbEntity
  8
SCHEME_DIMS
100
AcDbLine
 62
2
  6
CONTINUOUS
 10
5.0825286395
 20
9.5465225077
 11
5.8995814084
 21
9.5465225077
  0
LINE
  5
44D
100
AcDbEntity
  8
SCHEME_DIMS
100
AcDbLine
 62
2
  6
CONTINUOUS
 10
7.2478829702
 20
9.5465225077
 11
6.6995814084
 21
9.5465225077
  0
INSERT
  5
44E
100
AcDbEntity
  8
SCHEME_DIMS
100
AcDbBlockReference
 62
2
  6
CONTINUOUS
  2
_FILLED
 10
5.0825286395
 20
9.5465225077
 41
0.1875
 42
0.1875
 43
0.1875
 50
180.0
  0
INSERT
  5
44F
100
AcDbEntity
  8
SCHEME_DIMS
100
AcDbBlockReference
 62
2
  6
CONTINUOUS
  2
_FILLED
 10
7.2478829702
 20
9.5465225077
 41
0.1875
 42
0.1875
 43
0.1875
  0
ENDBLK
  5
450
100
AcDbEntity
  8
0
  6
BYBLOCK
 62
0
100
AcDbBlockEnd
  0
BLOCK
  5
451
100
AcDbEntity
  8
SCHEME_DIMS
100
AcDbBlockBegin
 62
2
  6
CONTINUOUS
  2
*D11
 70
65
 10
0.0
 20
0.0
  3
*D11
  1

  0
MTEXT
  5
452
100
AcDbEntity
  8
SCHEME_DIMS
100
AcDbMText
 62
2
  6
CONTINUOUS
  7
STANDARD
 71
2
 72
1
 10
3.8802058049
 20
7.4931486008
 30
0.0
 11
1.0
 21
0.0
 31
0.0
 44
0.9
  1
59,1\P[2.33]
 40
0.1
 41
0.6
  0
LINE
  5
453
100
AcDbEntity
  8
SCHEME_DIMS
100
AcDbLine
 62
2
  6
CONTINUOUS
 10
4.76793704
 20
8.6744489098
 11
3.8552058049
 21
8.6744489098
  0
LINE
  5
454
100
AcDbEntity
  8
SCHEME_DIMS
100
AcDbLine
 62
2
  6
CONTINUOUS
 10
5.8354765572
 20
6.3494489098
 11
5.4326096369
 21
6.3494489098
  0
LINE
  5
455
100
AcDbEntity
  8
SCHEME_DIMS
100
AcDbLine
 62
2
  6
CONTINUOUS
 10
5.3371086924
 20
6.3494489098
 11
3.8552058049
 21
6.3494489098
  0
LINE
  5
456
100
AcDbEntity
  8
SCHEME_DIMS
100
AcDbLine
 62
2
  6
CONTINUOUS
 10
3.9802058049
 20
8.6744489098
 11
3.9802058049
 21
7.5931486008
  0
LINE
  5
457
100
AcDbEntity
  8
SCHEME_DIMS
100
AcDbLine
 62
2
  6
CONTINUOUS
 10
3.9802058049
 20
6.3494489098
 11
3.9802058049
 21
7.1431486008
  0
INSERT
  5
458
100
AcDbEntity
  8
SCHEME_DIMS
100
AcDbBlockReference
 62
2
  6
CONTINUOUS
  2
_FILLED
 10
3.9802058049
 20
8.6744489098
 41
0.1875
 42
0.1875
 43
0.1875
 50
90.0
  0
INSERT
  5
459
100
AcDbEntity
  8
SCHEME_DIMS
100
AcDbBlockReference
 62
2
  6
CONTINUOUS
  2
_FILLED
 10
3.9802058049
 20
6.3494489098
 41
0.1875
 42
0.1875
 43
0.1875
 50
270.0
  0
ENDBLK
  5
45A
100
AcDbEntity
  8
0
  6
BYBLOCK
 62
0
100
AcDbBlockEnd
  0
BLOCK
  5
45B
100
AcDbEntity
  8
SCHEME_DIMS
100
AcDbBlockBegin
 62
2
  6
CONTINUOUS
  2
*D12
 70
65
 10
0.0
 20
0.0
  3
*D12
  1

  0
MTEXT
  5
45C
100
AcDbEntity
  8
SCHEME_DIMS
100
AcDbMText
 62
2
  6
CONTINUOUS
  7
STANDARD
 71
1
 72
1
 10
8.0833231766
 20
6.9908312185
 30
0.0
 11
1.0
 21
0.0
 31
0.0
 44
0.9
  1
2X \Fgdt;{\Fgdt;n}\Ftxt;5,8\P[.23]
 40
0.1
 41
0.7333333333
  0
LINE
  5
45D
100
AcDbEntity
  8
SCHEME_DIMS
100
AcDbLine
 62
2
  6
CONTINUOUS
 10
7.1063484056
 20
7.4306515357
 11
7.8333231766
 21
6.9408312185
  0
LINE
  5
45E
100
AcDbEntity
  8
SCHEME_DIMS
100
AcDbLine
 62
2
  6
CONTINUOUS
 10
7.8333231766
 20
6.9408312185
 11
7.9833231766
 21
6.9408312185
  0
INSERT
  5
45F
100
AcDbEntity
  8
SCHEME_DIMS
100
AcDbBlockReference
 62
2
  6
CONTINUOUS
  2
_FILLED
 10
7.1063484056
 20
7.4306515357
 41
0.1875
 42
0.1875
 43
0.1875
 50
146.0287387034
  0
ENDBLK
  5
460
100
AcDbEntity
  8
0
  6
BYBLOCK
 62
0
100
AcDbBlockEnd
  0
BLOCK
  5
461
100
AcDbEntity
  8
SCHEME_DIMS
100
AcDbBlockBegin
 62
2
  6
CONTINUOUS
  2
*D13
 70
65
 10
0.0
 20
0.0
  3
*D13
  1

  0
MTEXT
  5
462
100
AcDbEntity
  8
SCHEME_DIMS
100
AcDbMText
 62
2
  6
CONTINUOUS
  7
TEXTSTYLE_5
 71
3
 72
1
 10
4.4254819007
 20
5.9498443206
 30
0.0
 11
1.0
 21
0.0
 31
0.0
 44
0.9
  1
{\Fgdt;n}\Ftxt;32\P[1.26]
 40
0.1
 41
0.6
  0
LINE
  5
463
100
AcDbEntity
  8
SCHEME_DIMS
100
AcDbLine
 62
2
  6
CONTINUOUS
 10
5.809792995
 20
6.9743695618
 11
6.1652058049
 21
7.4944489098
  0
LINE
  5
464
100
AcDbEntity
  8
SCHEME_DIMS
100
AcDbLine
 62
2
  6
CONTINUOUS
 10
6.1652058049
 20
7.4944489098
 11
5.0754819007
 21
5.8998443206
  0
LINE
  5
465
100
AcDbEntity
  8
SCHEME_DIMS
100
AcDbLine
 62
2
  6
CONTINUOUS
 10
5.0754819007
 20
5.8998443206
 11
4.9254819007
 21
5.8998443206
  0
LINE
  5
466
100
AcDbEntity
  8
SCHEME_DIMS
100
AcDbLine
 62
2
  6
CONTINUOUS
 10
6.5206186147
 20
8.0145282578
 11
6.1652058049
 21
7.4944489098
  0
INSERT
  5
467
100
AcDbEntity
  8
SCHEME_DIMS
100
AcDbBlockReference
 62
2
  6
CONTINUOUS
  2
_FILLED
 10
5.809792995
 20
6.9743695618
 41
0.1875
 42
0.1875
 43
0.1875
 50
235.6520059677
  0
INSERT
  5
468
100
AcDbEntity
  8
SCHEME_DIMS
100
AcDbBlockReference
 62
2
  6
CONTINUOUS
  2
_FILLED
 10
6.5206186147
 20
8.0145282578
 41
0.1875
 42
0.1875
 43
0.1875
 50
55.6520059677
  0
ENDBLK
  5
469
100
AcDbEntity
  8
0
  6
BYBLOCK
 62
0
100
AcDbBlockEnd
  0
BLOCK
  5
46A
100
AcDbEntity
  8
SCHEME_DIMS
100
AcDbBlockBegin
 62
2
  6
CONTINUOUS
  2
*D14
 70
65
 10
0.0
 20
0.0
  3
*D14
  1

  0
MTEXT
  5
46B
100
AcDbEntity
  8
SCHEME_DIMS
100
AcDbMText
 62
2
  6
CONTINUOUS
  7
STANDARD
 71
3
 72
1
 10
4.0682666407
 20
2.7046080368
 30
0.0
 11
1.0
 21
0.0
 31
0.0
 44
0.9
  1
2X \Fgdt;{\Fgdt;n}\Ftxt;7,1\P[.28]
 40
0.1
 41
0.7333333333
  0
LINE
  5
46C
100
AcDbEntity
  8
SCHEME_DIMS
100
AcDbLine
 62
2
  6
CONTINUOUS
 10
5.067514612
 20
3.2184209059
 11
4.5182666407
 21
2.6546080368
  0
LINE
  5
46D
100
AcDbEntity
  8
SCHEME_DIMS
100
AcDbLine
 62
2
  6
CONTINUOUS
 10
4.5182666407
 20
2.6546080368
 11
4.3682666407
 21
2.6546080368
  0
INSERT
  5
46E
100
AcDbEntity
  8
SCHEME_DIMS
100
AcDbBlockReference
 62
2
  6
CONTINUOUS
  2
_FILLED
 10
5.067514612
 20
3.2184209059
 41
0.1875
 42
0.1875
 43
0.1875
 50
45.7496980521
  0
ENDBLK
  5
46F
100
AcDbEntity
  8
0
  6
BYBLOCK
 62
0
100
AcDbBlockEnd
  0
ENDSEC
  0
SECTION
  2
ENTITIES
  0
MTEXT
  5
470
100
AcDbEntity
  8
0
100
AcDbMText
 62
2
  6
CONTINUOUS
  7
TEXTSTYLE_2
 71
2
 72
1
 10
11.0287658475
 20
1.794867839
 30
0.0
 11
1.0
 21
0.0
 31
0.0
 44
0.9
  1
THIRD ANGLE PROJECTION
 40
0.1
 41
1.76
  0
MTEXT
  5
471
100
AcDbEntity
  8
0
100
AcDbMText
 62
2
  6
CONTINUOUS
  7
STANDARD
 71
1
 72
1
 10
12.88
 20
1.457
 30
0.0
 11
1.0
 21
0.0
 31
0.0
 44
0.9
  1
DRAWING NO.
 40
0.08
 41
0.88
  0
MTEXT
  5
472
100
AcDbEntity
  8
0
100
AcDbMText
 62
2
  6
CONTINUOUS
  7
TEXTSTYLE_3
 71
2
 72
1
 10
11.03
 20
2.516432
 30
0.0
 11
1.0
 21
0.0
 31
0.0
 44
0.9
  1
and is proprietary in general
 40
0.08
 41
1.972
  0
MTEXT
  5
473
100
AcDbEntity
  8
0
100
AcDbMText
 62
2
  6
CONTINUOUS
  7
TEXTSTYLE_3
 71
2
 72
1
 10
11.03
 20
2.396432
 30
0.0
 11
1.0
 21
0.0
 31
0.0
 44
0.9
  1
and in detail.  Its contents
 40
0.08
 41
1.904
  0
MTEXT
  5
474
100
AcDbEntity
  8
0
100
AcDbMText
 62
2
  6
CONTINUOUS
  7
TEXTSTYLE_3
 71
2
 72
1
 10
11.03
 20
2.276432
 30
0.0
 11
1.0
 21
0.0
 31
0.0
 44
0.9
  1
shall not be revealed to
 40
0.08
 41
1.632
  0
MTEXT
  5
475
100
AcDbEntity
  8
0
100
AcDbMText
 62
2
  6
CONTINUOUS
  7
TEXTSTYLE_3
 71
2
 72
1
 10
11.03
 20
2.156432
 30
0.0
 11
1.0
 21
0.0
 31
0.0
 44
0.9
  1
outside parties without
 40
0.08
 41
1.564
  0
MTEXT
  5
476
100
AcDbEntity
  8
0
100
AcDbMText
 62
2
  6
CONTINUOUS
  7
TEXTSTYLE_3
 71
2
 72
1
 10
11.03
 20
2.036432
 30
0.0
 11
1.0
 21
0.0
 31
0.0
 44
0.9
  1
written consent of BANNER.
 40
0.08
 41
1.768
  0
MTEXT
  5
477
100
AcDbEntity
  8
0
100
AcDbMText
 62
2
  6
CONTINUOUS
  7
TEXTSTYLE_2
 71
1
 72
1
 10
12.08
 20
2.217
 30
0.0
 11
1.0
 21
0.0
 31
0.0
 44
0.9
  1
TITLE
 40
0.1
 41
0.4
  0
MTEXT
  5
478
100
AcDbEntity
  8
0
100
AcDbMText
 62
2
  6
CONTINUOUS
  7
STANDARD
 71
1
 72
1
 10
12.08
 20
1.457
 30
0.0
 11
1.0
 21
0.0
 31
0.0
 44
0.9
  1
SIZE
 40
0.08
 41
0.32
  0
MTEXT
  5
479
100
AcDbEntity
  8
0
100
AcDbMText
 62
2
  6
CONTINUOUS
  7
STANDARD
 71
1
 72
1
 10
12.08
 20
1.087
 30
0.0
 11
1.0
 21
0.0
 31
0.0
 44
0.9
  1
SCALE
 40
0.08
 41
0.4
  0
MTEXT
  5
47A
100
AcDbEntity
  8
0
100
AcDbMText
 62
2
  6
CONTINUOUS
  7
TEXTSTYLE_2
 71
2
 72
1
 10
12.5
 20
1.337
 30
0.0
 11
1.0
 21
0.0
 31
0.0
 44
0.9
  1
B
 40
0.1
 41
0.08
  0
MTEXT
  5
47B
100
AcDbEntity
  8
0
100
AcDbMText
 62
2
  6
CONTINUOUS
  7
TEXTSTYLE_3
 71
2
 72
1
 10
11.03
 20
2.636432
 30
0.0
 11
1.0
 21
0.0
 31
0.0
 44
0.9
  1
of BANNER ENGINEERING CORP.
 40
0.08
 41
1.836
  0
MTEXT
  5
47C
100
AcDbEntity
  8
0
100
AcDbMText
 62
2
  6
CONTINUOUS
  7
TEXTSTYLE_3
 71
2
 72
1
 10
11.03
 20
2.756432
 30
0.0
 11
1.0
 21
0.0
 31
0.0
 44
0.9
  1
This drawing is the property
 40
0.08
 41
1.904
  0
MTEXT
  5
47D
100
AcDbEntity
  8
0
100
AcDbMText
 62
2
  6
CONTINUOUS
  7
TEXTSTYLE_2
 71
2
 72
1
 10
15.03
 20
2.4134
 30
0.0
 11
1.0
 21
0.0
 31
0.0
 44
0.9
  1
MINNEAPOLIS, MN 55440
 40
0.1
 41
1.68
  0
MTEXT
  5
47E
100
AcDbEntity
  8
0
100
AcDbMText
 62
2
  6
CONTINUOUS
  7
STANDARD
 71
1
 72
1
 10
14.255
 20
1.087
 30
0.0
 11
1.0
 21
0.0
 31
0.0
 44
0.9
  1
SHEET
 40
0.08
 41
0.4
  0
MTEXT
  5
47F
100
AcDbEntity
  8
0
100
AcDbMText
 62
2
  6
CONTINUOUS
  7
STANDARD
 71
1
 72
1
 10
15.63
 20
1.457
 30
0.0
 11
1.0
 21
0.0
 31
0.0
 44
0.9
  1
REV.
 40
0.08
 41
0.32
  0
MTEXT
  5
480
100
AcDbEntity
  8
0
100
AcDbMText
 62
2
  6
CONTINUOUS
  7
STANDARD
 71
3
 72
1
 10
16.38
 20
0.835443
 30
0.0
 11
1.0
 21
0.0
 31
0.0
 44
0.9
  1
PRO/E
 40
0.07
 41
0.35
  0
MTEXT
  5
481
100
AcDbEntity
  8
0
100
AcDbMText
 62
2
  6
CONTINUOUS
  7
TEXTSTYLE_4
 71
2
 72
1
 10
15.03
 20
2.751049
 30
0.0
 11
1.0
 21
0.0
 31
0.0
 44
0.9
  1
BANNER ENGINEERING CORP.
 40
0.12
 41
2.6496
  0
MTEXT
  5
482
100
AcDbEntity
  8
0
100
AcDbMText
 62
2
  6
CONTINUOUS
  7
TEXTSTYLE_2
 71
2
 72
1
 10
15.03
 20
2.5724
 30
0.0
 11
1.0
 21
0.0
 31
0.0
 44
0.9
  1
P.O. BOX 9414
 40
0.1
 41
1.04
  0
MTEXT
  5
483
100
AcDbEntity
  8
0
100
AcDbMText
 62
2
  6
CONTINUOUS
  7
TEXTSTYLE_2
 71
2
 72
1
 10
9.485
 20
10.312
 30
0.0
 11
1.0
 21
0.0
 31
0.0
 44
0.9
  1
4
 40
0.1
 41
0.08
  0
MTEXT
  5
484
100
AcDbEntity
  8
0
100
AcDbMText
 62
2
  6
CONTINUOUS
  7
TEXTSTYLE_2
 71
2
 72
1
 10
11.455
 20
10.312
 30
0.0
 11
1.0
 21
0.0
 31
0.0
 44
0.9
  1
3
 40
0.1
 41
0.08
  0
MTEXT
  5
485
100
AcDbEntity
  8
0
100
AcDbMText
 62
2
  6
CONTINUOUS
  7
TEXTSTYLE_2
 71
2
 72
1
 10
13.425
 20
10.312
 30
0.0
 11
1.0
 21
0.0
 31
0.0
 44
0.9
  1
2
 40
0.1
 41
0.08
  0
MTEXT
  5
486
100
AcDbEntity
  8
0
100
AcDbMText
 62
2
  6
CONTINUOUS
  7
TEXTSTYLE_2
 71
2
 72
1
 10
15.395
 20
10.312
 30
0.0
 11
1.0
 21
0.0
 31
0.0
 44
0.9
  1
1
 40
0.1
 41
0.08
  0
MTEXT
  5
487
100
AcDbEntity
  8
0
100
AcDbMText
 62
2
  6
CONTINUOUS
  7
TEXTSTYLE_2
 71
2
 72
1
 10
3.575
 20
10.312
 30
0.0
 11
1.0
 21
0.0
 31
0.0
 44
0.9
  1
7
 40
0.1
 41
0.08
  0
MTEXT
  5
488
100
AcDbEntity
  8
0
100
AcDbMText
 62
2
  6
CONTINUOUS
  7
TEXTSTYLE_2
 71
2
 72
1
 10
5.545
 20
10.312
 30
0.0
 11
1.0
 21
0.0
 31
0.0
 44
0.9
  1
6
 40
0.1
 41
0.08
  0
MTEXT
  5
489
100
AcDbEntity
  8
0
100
AcDbMText
 62
2
  6
CONTINUOUS
  7
TEXTSTYLE_2
 71
2
 72
1
 10
7.515
 20
10.312
 30
0.0
 11
1.0
 21
0.0
 31
0.0
 44
0.9
  1
5
 40
0.1
 41
0.08
  0
MTEXT
  5
48A
100
AcDbEntity
  8
0
100
AcDbMText
 62
2
  6
CONTINUOUS
  7
TEXTSTYLE_2
 71
2
 72
1
 10
1.605
 20
10.312
 30
0.0
 11
1.0
 21
0.0
 31
0.0
 44
0.9
  1
8
 40
0.1
 41
0.08
  0
MTEXT
  5
48B
100
AcDbEntity
  8
0
100
AcDbMText
 62
2
  6
CONTINUOUS
  7
TEXTSTYLE_2
 71
2
 72
1
 10
1.605
 20
0.787
 30
0.0
 11
1.0
 21
0.0
 31
0.0
 44
0.9
  1
8
 40
0.1
 41
0.08
  0
MTEXT
  5
48C
100
AcDbEntity
  8
0
100
AcDbMText
 62
2
  6
CONTINUOUS
  7
TEXTSTYLE_2
 71
2
 72
1
 10
3.575
 20
0.787
 30
0.0
 11
1.0
 21
0.0
 31
0.0
 44
0.9
  1
7
 40
0.1
 41
0.08
  0
MTEXT
  5
48D
100
AcDbEntity
  8
0
100
AcDbMText
 62
2
  6
CONTINUOUS
  7
TEXTSTYLE_2
 71
2
 72
1
 10
5.545
 20
0.787
 30
0.0
 11
1.0
 21
0.0
 31
0.0
 44
0.9
  1
6
 40
0.1
 41
0.08
  0
MTEXT
  5
48E
100
AcDbEntity
  8
0
100
AcDbMText
 62
2
  6
CONTINUOUS
  7
TEXTSTYLE_2
 71
2
 72
1
 10
7.515
 20
0.787
 30
0.0
 11
1.0
 21
0.0
 31
0.0
 44
0.9
  1
5
 40
0.1
 41
0.08
  0
MTEXT
  5
48F
100
AcDbEntity
  8
0
100
AcDbMText
 62
2
  6
CONTINUOUS
  7
TEXTSTYLE_2
 71
2
 72
1
 10
9.485
 20
0.787
 30
0.0
 11
1.0
 21
0.0
 31
0.0
 44
0.9
  1
4
 40
0.1
 41
0.08
  0
MTEXT
  5
490
100
AcDbEntity
  8
0
100
AcDbMText
 62
2
  6
CONTINUOUS
  7
TEXTSTYLE_2
 71
2
 72
1
 10
11.455
 20
0.787
 30
0.0
 11
1.0
 21
0.0
 31
0.0
 44
0.9
  1
3
 40
0.1
 41
0.08
  0
MTEXT
  5
491
100
AcDbEntity
  8
0
100
AcDbMText
 62
2
  6
CONTINUOUS
  7
TEXTSTYLE_2
 71
2
 72
1
 10
13.425
 20
0.787
 30
0.0
 11
1.0
 21
0.0
 31
0.0
 44
0.9
  1
2
 40
0.1
 41
0.08
  0
MTEXT
  5
492
100
AcDbEntity
  8
0
100
AcDbMText
 62
2
  6
CONTINUOUS
  7
TEXTSTYLE_2
 71
2
 72
1
 10
15.395
 20
0.787
 30
0.0
 11
1.0
 21
0.0
 31
0.0
 44
0.9
  1
1
 40
0.1
 41
0.08
  0
MTEXT
  5
493
100
AcDbEntity
  8
0
100
AcDbMText
 62
2
  6
CONTINUOUS
  7
TEXTSTYLE_2
 71
3
 72
1
 10
0.52
 20
4.3995
 30
0.0
 11
1.0
 21
0.0
 31
0.0
 44
0.9
  1
B
 40
0.1
 41
0.08
  0
MTEXT
  5
494
100
AcDbEntity
  8
0
100
AcDbMText
 62
2
  6
CONTINUOUS
  7
TEXTSTYLE_2
 71
3
 72
1
 10
0.52
 20
2.0995
 30
0.0
 11
1.0
 21
0.0
 31
0.0
 44
0.9
  1
A
 40
0.1
 41
0.08
  0
MTEXT
  5
495
100
AcDbEntity
  8
0
100
AcDbMText
 62
2
  6
CONTINUOUS
  7
TEXTSTYLE_2
 71
3
 72
1
 10
0.52
 20
8.9995
 30
0.0
 11
1.0
 21
0.0
 31
0.0
 44
0.9
  1
D
 40
0.1
 41
0.08
  0
MTEXT
  5
496
100
AcDbEntity
  8
0
100
AcDbMText
 62
2
  6
CONTINUOUS
  7
TEXTSTYLE_2
 71
3
 72
1
 10
0.52
 20
6.6995
 30
0.0
 11
1.0
 21
0.0
 31
0.0
 44
0.9
  1
C
 40
0.1
 41
0.08
  0
MTEXT
  5
497
100
AcDbEntity
  8
0
100
AcDbMText
 62
2
  6
CONTINUOUS
  7
TEXTSTYLE_2
 71
1
 72
1
 10
16.48
 20
8.9995
 30
0.0
 11
1.0
 21
0.0
 31
0.0
 44
0.9
  1
D
 40
0.1
 41
0.08
  0
MTEXT
  5
498
100
AcDbEntity
  8
0
100
AcDbMText
 62
2
  6
CONTINUOUS
  7
TEXTSTYLE_2
 71
1
 72
1
 10
16.48
 20
6.6995
 30
0.0
 11
1.0
 21
0.0
 31
0.0
 44
0.9
  1
C
 40
0.1
 41
0.08
  0
MTEXT
  5
499
100
AcDbEntity
  8
0
100
AcDbMText
 62
2
  6
CONTINUOUS
  7
TEXTSTYLE_2
 71
1
 72
1
 10
16.48
 20
4.3995
 30
0.0
 11
1.0
 21
0.0
 31
0.0
 44
0.9
  1
B
 40
0.1
 41
0.08
  0
MTEXT
  5
49A
100
AcDbEntity
  8
0
100
AcDbMText
 62
2
  6
CONTINUOUS
  7
TEXTSTYLE_2
 71
1
 72
1
 10
16.48
 20
2.0995
 30
0.0
 11
1.0
 21
0.0
 31
0.0
 44
0.9
  1
A
 40
0.1
 41
0.08
  0
MTEXT
  5
49B
100
AcDbEntity
  8
0
100
AcDbMText
 62
2
  6
CONTINUOUS
  7
STANDARD
 71
1
 72
1
 10
14.819264911
 20
1.0627941725
 30
0.0
 11
1.0
 21
0.0
 31
0.0
 44
0.9
  1
1 OF 1
 40
0.1
 41
0.6
  0
MTEXT
  5
49C
100
AcDbEntity
  8
0
100
AcDbMText
 62
7
  6
CONTINUOUS
  7
STANDARD
 71
1
 72
1
 10
13.8911999818
 20
1.3747321586
 30
0.0
 11
1.0
 21
0.0
 31
0.0
 44
0.9
  1
156642
 40
0.12
 41
0.72
  0
MTEXT
  5
49D
100
AcDbEntity
  8
0
100
AcDbMText
 62
2
  6
CONTINUOUS
  7
STANDARD
 71
1
 72
1
 10
12.644264911
 20
1.0627941725
 30
0.0
 11
1.0
 21
0.0
 31
0.0
 44
0.9
  1
1:1
 40
0.1
 41
0.3
  0
MTEXT
  5
49E
100
AcDbEntity
  8
0
100
AcDbMText
 62
2
  6
CONTINUOUS
  7
STANDARD
 71
1
 72
1
 10
1.0597007627
 20
1.6202922458
 30
0.0
 11
1.0
 21
0.0
 31
0.0
 44
0.9
  1
NOTES:\P1. ALL DIMENSIONS ARE MILLIMETERS [INCHES] UNLESS OTHERWISE NOTED.
 40
0.1
 41
6.6
  0
INSERT
  5
49F
100
AcDbEntity
  8
0
100
AcDbBlockReference
 62
2
  6
CONTINUOUS
  2
BANNER_LOGO_TITLEBLOCK_BL0
 10
12.9086867042
 20
2.5403783405
  0
DIMENSION
  5
4A0
100
AcDbEntity
  8
SCHEME_DIMS
100
AcDbDimension
 62
2
  6
CONTINUOUS
  2
*D0
 10
7.0116624978
 20
9.1744489098
 11
6.0902058049
 21
9.0994489098
 70
160
 71
2
 42
43.0
  3
DIMSTYLE_1
100
AcDbAlignedDimension
 13
5.318749112
 23
7.7711221381
 14
7.0116624978
 24
7.7711221381
100
AcDbRotatedDimension
  0
DIMENSION
  5
4A1
100
AcDbEntity
  8
SCHEME_DIMS
100
AcDbDimension
 62
2
  6
CONTINUOUS
  2
*D1
 10
7.0116624978
 20
5.8497329835
 11
6.4634341513
 21
5.7747329835
 70
160
 71
2
 42
21.5
  3
DIMSTYLE_1
100
AcDbAlignedDimension
 13
6.1652058049
 23
7.1190969668
 14
7.0116624978
 24
7.2177756814
100
AcDbRotatedDimension
  0
DIMENSION
  5
4A2
100
AcDbEntity
  8
SCHEME_DIMS
100
AcDbDimension
 62
2
  6
CONTINUOUS
  2
*D2
 10
7.4752058049
 20
5.4747329835
 11
6.6952058049
 21
5.3997329835
 70
160
 71
2
 42
33.274
  3
DIMSTYLE_1
100
AcDbAlignedDimension
 13
6.1652058049
 23
7.1190969668
 14
7.4752058049
 24
6.5619489098
100
AcDbRotatedDimension
  0
DIMENSION
  5
4A3
100
AcDbEntity
  8
SCHEME_DIMS
100
AcDbDimension
 62
2
  6
CONTINUOUS
  2
*D3
 10
7.9752058049
 20
7.4944489098
 11
7.9002058049
 21
8.0844489098
 70
160
 71
2
 42
29.972
  3
DIMSTYLE_1
100
AcDbAlignedDimension
 13
7.5849955695
 23
8.6744489098
 14
7.3014364728
 24
7.4944489098
 50
270.0
100
AcDbRotatedDimension
  0
DIMENSION
  5
4A4
100
AcDbEntity
  8
SCHEME_DIMS
100
AcDbDimension
 62
2
  6
CONTINUOUS
  2
*D4
 10
7.1652058049
 20
2.6333834024
 11
6.0402058049
 21
2.5583834024
 70
160
 71
2
 42
50.8
  3
DIMSTYLE_1
100
AcDbAlignedDimension
 13
5.1652058049
 23
2.983300763
 14
7.1652058049
 24
2.980866761
100
AcDbRotatedDimension
  0
DIMENSION
  5
4A5
100
AcDbEntity
  8
SCHEME_DIMS
100
AcDbDimension
 62
2
  6
CONTINUOUS
  2
*D5
 10
7.4752058049
 20
2.1940572972
 11
6.0402058049
 21
2.1190572972
 70
160
 71
2
 42
66.548
  3
DIMSTYLE_1
100
AcDbAlignedDimension
 13
4.8552058049
 23
3.0924328643
 14
7.4752058049
 24
3.1202465359
100
AcDbRotatedDimension
  0
DIMENSION
  5
4A6
100
AcDbEntity
  8
SCHEME_DIMS
100
AcDbDimension
 62
2
  6
CONTINUOUS
  2
*D6
 10
8.2814345782
 20
4.1467026632
 11
8.2064345782
 21
3.7472863989
 70
160
 71
2
 42
21.0312
  3
DIMSTYLE_1
100
AcDbAlignedDimension
 13
7.4677058049
 23
3.3187026632
 14
7.371000065
 24
4.1467026632
 50
90.0
100
AcDbRotatedDimension
  0
DIMENSION
  5
4A7
100
AcDbEntity
  8
SCHEME_DIMS
100
AcDbDimension
 62
2
  6
CONTINUOUS
  2
*D7
 10
9.0024650254
 20
4.1467026632
 11
8.9274650254
 21
3.5874107052
 70
160
 71
2
 42
28.956
  3
DIMSTYLE_1
100
AcDbAlignedDimension
 13
7.3344456964
 23
3.0067026632
 14
7.4933117255
 24
4.1467026632
 50
90.0
100
AcDbRotatedDimension
  0
DIMENSION
  5
4A8
100
AcDbEntity
  8
SCHEME_DIMS
100
AcDbDimension
 62
2
  6
CONTINUOUS
  2
*D8
 10
3.9509614422
 20
4.769143608
 11
3.8259614422
 21
3.8129231356
 70
160
 71
2
 42
44.766
  3
DIMSTYLE_1
100
AcDbAlignedDimension
 13
5.0427058049
 23
3.0067026632
 14
5.0200286395
 24
4.769143608
 50
90.0
100
AcDbRotatedDimension
  0
DIMENSION
  5
4A9
100
AcDbEntity
  8
SCHEME_DIMS
100
AcDbDimension
 62
2
  6
CONTINUOUS
  2
*D9
 10
4.3552058049
 20
8.518070957
 11
4.2802058049
 21
7.7046720762
 70
160
 71
2
 42
52.0
  3
DIMSTYLE_1
100
AcDbAlignedDimension
 13
5.1620970007
 23
6.4708268625
 14
5.1827829603
 24
8.518070957
 50
90.0
100
AcDbRotatedDimension
  0
DIMENSION
  5
4AA
100
AcDbEntity
  8
SCHEME_DIMS
100
AcDbDimension
 62
2
  6
CONTINUOUS
  2
*D10
 10
7.2478829702
 20
9.5465225077
 11
6.2245814084
 21
9.4715225077
 70
160
 71
2
 42
55.0
  3
DIMSTYLE_1
100
AcDbAlignedDimension
 13
5.0825286395
 23
8.4097925975
 14
7.2478829702
 24
8.409006108
100
AcDbRotatedDimension
  0
DIMENSION
  5
4AB
100
AcDbEntity
  8
SCHEME_DIMS
100
AcDbDimension
 62
2
  6
CONTINUOUS
  2
*D11
 10
3.9802058049
 20
6.3494489098
 11
3.8552058049
 21
7.3681486008
 70
160
 71
2
 42
59.055
  3
DIMSTYLE_1
100
AcDbAlignedDimension
 13
4.76793704
 23
8.6744489098
 14
5.8354765572
 24
6.3494489098
 50
270.0
100
AcDbRotatedDimension
  0
DIMENSION
  5
4AC
100
AcDbEntity
  8
SCHEME_DIMS
100
AcDbDimension
 62
2
  6
CONTINUOUS
  2
*D12
 10
7.1063484056
 20
7.4306515357
 11
8.5499898433
 21
6.8658312185
 70
163
 71
1
 42
5.8
  1
2X <>
  3
DIMSTYLE_2
100
AcDbDiametricDimension
 15
6.91697659
 25
7.5582462838
  0
DIMENSION
  5
4AD
100
AcDbEntity
  8
SCHEME_DIMS
100
AcDbDimension
 62
2
  6
CONTINUOUS
  2
*D13
 10
5.809792995
 20
6.9743695618
 11
4.3254819007
 21
5.8248443206
 70
163
 71
3
 42
32.0
  1
<>
  3
DIMSTYLE_2
100
AcDbDiametricDimension
 15
6.5206186147
 25
8.0145282578
  0
DIMENSION
  5
4AE
100
AcDbEntity
  8
SCHEME_DIMS
100
AcDbDimension
 62
2
  6
CONTINUOUS
  2
*D14
 10
5.067514612
 20
3.2184209059
 11
3.601599974
 21
2.5796080368
 70
163
 71
3
 42
7.112
  1
2X <>
  3
DIMSTYLE_2
100
AcDbDiametricDimension
 15
5.2628969977
 25
3.4189844204
  0
LINE
  5
4AF
100
AcDbEntity
  8
0
100
AcDbLine
 62
2
  6
CONTINUOUS
 10
16.38
 20
0.887
 11
12.03
 21
0.887
  0
LINE
  5
4B0
100
AcDbEntity
  8
0
100
AcDbLine
 62
2
  6
CONTINUOUS
 10
16.38
 20
0.887
 11
16.38
 21
2.807
  0
LINE
  5
4B1
100
AcDbEntity
  8
0
100
AcDbLine
 62
2
  6
CONTINUOUS
 10
16.38
 20
2.807
 11
12.03
 21
2.807
  0
LINE
  5
4B2
100
AcDbEntity
  8
0
100
AcDbLine
 62
2
  6
CONTINUOUS
 10
12.03
 20
0.887
 11
12.03
 21
2.807
  0
MTEXT
  5
4B3
100
AcDbEntity
  8
NOTES
100
AcDbMText
 62
7
  6
CONTINUOUS
  7
STANDARD
 71
2
 72
1
 10
14.205
 20
1.967
 30
0.0
 11
1.0
 21
0.0
 31
0.0
 44
0.9
  1
EZA-MBK-5\PWEB CAD DRAWINGS 2D/3D
 40
0.1
 41
2.2
  0
MTEXT
  5
4B4
100
AcDbEntity
  8
NOTES
100
AcDbMText
 62
2
  6
CONTINUOUS
  7
STANDARD
 71
2
 72
1
 10
13.0881482529
 20
4.7921199604
 30
0.0
 11
1.0
 21
0.0
 31
0.0
 44
0.9
  1
ISOMETRIC VIEW\PSCALE  1:1
 40
0.1
 41
1.4
  0
LINE
  5
4B5
100
AcDbEntity
  8
0
100
AcDbLine
 62
2
  6
CONTINUOUS
 10
0.47
 20
5.586103
 11
0.47
 21
5.412897
  0
LINE
  5
4B6
100
AcDbEntity
  8
0
100
AcDbLine
 62
2
  6
CONTINUOUS
 10
0.62
 20
10.112
 11
0.62
 21
0.887
  0
LINE
  5
4B7
100
AcDbEntity
  8
0
100
AcDbLine
 62
2
  6
CONTINUOUS
 10
2.59
 20
0.887
 11
2.59
 21
0.637
  0
LINE
  5
4B8
100
AcDbEntity
  8
0
100
AcDbLine
 62
2
  6
CONTINUOUS
 10
2.59
 20
10.112
 11
2.59
 21
10.362
  0
LINE
  5
4B9
100
AcDbEntity
  8
0
100
AcDbLine
 62
2
  6
CONTINUOUS
 10
8.413397
 20
0.737
 11
8.586603
 21
0.737
  0
LINE
  5
4BA
100
AcDbEntity
  8
0
100
AcDbLine
 62
7
  6
CONTINUOUS
 10
11.1389508475
 20
1.425992839
 11
11.7453418475
 21
1.495385839
  0
LINE
  5
4BB
100
AcDbEntity
  8
0
100
AcDbLine
 62
2
  6
CONTINUOUS
 10
0.62
 20
0.887
 11
16.38
 21
0.887
  0
LINE
  5
4BC
100
AcDbEntity
  8
0
100
AcDbLine
 62
2
  6
CONTINUOUS
 10
12.03
 20
1.137
 11
16.38
 21
1.137
  0
LINE
  5
4BD
100
AcDbEntity
  8
0
100
AcDbLine
 62
7
  6
CONTINUOUS
 10
10.2121898475
 20
1.243294839
 11
10.4342808475
 21
1.243294839
  0
LINE
  5
4BE
100
AcDbEntity
  8
0
100
AcDbLine
 62
7
  6
CONTINUOUS
 10
10.4842808475
 20
1.243294839
 11
10.5842808475
 21
1.243294839
  0
LINE
  5
4BF
100
AcDbEntity
  8
0
100
AcDbLine
 62
7
  6
CONTINUOUS
 10
10.6342808475
 20
1.243294839
 11
10.8563718475
 21
1.243294839
  0
LINE
  5
4C0
100
AcDbEntity
  8
0
100
AcDbLine
 62
7
  6
CONTINUOUS
 10
11.0389508475
 20
1.243294839
 11
11.3171028475
 21
1.243294839
  0
LINE
  5
4C1
100
AcDbEntity
  8
0
100
AcDbLine
 62
7
  6
CONTINUOUS
 10
11.3671028475
 20
1.243294839
 11
11.5171888475
 21
1.243294839
  0
LINE
  5
4C2
100
AcDbEntity
  8
0
100
AcDbLine
 62
7
  6
CONTINUOUS
 10
11.5671888475
 20
1.243294839
 11
11.8453418475
 21
1.243294839
  0
LINE
  5
4C3
100
AcDbEntity
  8
0
100
AcDbLine
 62
7
  6
CONTINUOUS
 10
11.7453418475
 20
0.991203839
 11
11.1389508475
 21
1.060596839
  0
LINE
  5
4C4
100
AcDbEntity
  8
0
100
AcDbLine
 62
2
  6
CONTINUOUS
 10
4.56
 20
0.887
 11
4.56
 21
0.637
  0
LINE
  5
4C5
100
AcDbEntity
  8
0
100
AcDbLine
 62
2
  6
CONTINUOUS
 10
4.56
 20
10.112
 11
4.56
 21
10.362
  0
LINE
  5
4C6
100
AcDbEntity
  8
0
100
AcDbLine
 62
2
  6
CONTINUOUS
 10
0.47
 20
5.412897
 11
0.62
 21
5.4995
  0
LINE
  5
4C7
100
AcDbEntity
  8
0
100
AcDbLine
 62
2
  6
CONTINUOUS
 10
12.03
 20
1.507
 11
16.38
 21
1.507
  0
LINE
  5
4C8
100
AcDbEntity
  8
0
100
AcDbLine
 62
2
  6
CONTINUOUS
 10
10.03
 20
1.907
 11
12.03
 21
1.907
  0
LINE
  5
4C9
100
AcDbEntity
  8
0
100
AcDbLine
 62
2
  6
CONTINUOUS
 10
0.62
 20
5.4995
 11
0.47
 21
5.586103
  0
LINE
  5
4CA
100
AcDbEntity
  8
0
100
AcDbLine
 62
2
  6
CONTINUOUS
 10
12.03
 20
2.267
 11
16.38
 21
2.267
  0
LINE
  5
4CB
100
AcDbEntity
  8
0
100
AcDbLine
 62
2
  6
CONTINUOUS
 10
8.5
 20
10.112
 11
8.586603
 21
10.262
  0
LINE
  5
4CC
100
AcDbEntity
  8
0
100
AcDbLine
 62
2
  6
CONTINUOUS
 10
16.38
 20
2.807
 11
10.03
 21
2.807
  0
LINE
  5
4CD
100
AcDbEntity
  8
0
100
AcDbLine
 62
2
  6
CONTINUOUS
 10
0.62
 20
3.1995
 11
0.37
 21
3.1995
  0
LINE
  5
4CE
100
AcDbEntity
  8
0
100
AcDbLine
 62
2
  6
CONTINUOUS
 10
16.38
 20
3.1995
 11
16.63
 21
3.1995
  0
LINE
  5
4CF
100
AcDbEntity
  8
0
100
AcDbLine
 62
2
  6
CONTINUOUS
 10
8.586603
 20
0.737
 11
8.5
 21
0.887
  0
LINE
  5
4D0
100
AcDbEntity
  8
0
100
AcDbLine
 62
2
  6
CONTINUOUS
 10
6.53
 20
0.887
 11
6.53
 21
0.637
  0
LINE
  5
4D1
100
AcDbEntity
  8
0
100
AcDbLine
 62
2
  6
CONTINUOUS
 10
6.53
 20
10.112
 11
6.53
 21
10.362
  0
LINE
  5
4D2
100
AcDbEntity
  8
0
100
AcDbLine
 62
2
  6
CONTINUOUS
 10
8.5
 20
0.887
 11
8.5
 21
0.637
  0
LINE
  5
4D3
100
AcDbEntity
  8
0
100
AcDbLine
 62
2
  6
CONTINUOUS
 10
8.5
 20
10.112
 11
8.5
 21
10.362
  0
LINE
  5
4D4
100
AcDbEntity
  8
0
100
AcDbLine
 62
2
  6
CONTINUOUS
 10
0.62
 20
5.4995
 11
0.37
 21
5.4995
  0
LINE
  5
4D5
100
AcDbEntity
  8
0
100
AcDbLine
 62
2
  6
CONTINUOUS
 10
16.38
 20
5.4995
 11
16.63
 21
5.4995
  0
LINE
  5
4D6
100
AcDbEntity
  8
0
100
AcDbLine
 62
2
  6
CONTINUOUS
 10
10.03
 20
2.807
 11
10.03
 21
0.887
  0
LINE
  5
4D7
100
AcDbEntity
  8
0
100
AcDbLine
 62
2
  6
CONTINUOUS
 10
10.47
 20
0.887
 11
10.47
 21
0.637
  0
LINE
  5
4D8
100
AcDbEntity
  8
0
100
AcDbLine
 62
2
  6
CONTINUOUS
 10
10.47
 20
10.112
 11
10.47
 21
10.362
  0
LINE
  5
4D9
100
AcDbEntity
  8
0
100
AcDbLine
 62
7
  6
CONTINUOUS
 10
10.5342808475
 20
1.143294839
 11
10.5342808475
 21
0.921203839
  0
LINE
  5
4DA
100
AcDbEntity
  8
0
100
AcDbLine
 62
7
  6
CONTINUOUS
 10
10.5342808475
 20
1.193294839
 11
10.5342808475
 21
1.293294839
  0
LINE
  5
4DB
100
AcDbEntity
  8
0
100
AcDbLine
 62
7
  6
CONTINUOUS
 10
10.5342808475
 20
1.343294839
 11
10.5342808475
 21
1.565385839
  0
LINE
  5
4DC
100
AcDbEntity
  8
0
100
AcDbLine
 62
2
  6
CONTINUOUS
 10
8.5
 20
0.887
 11
8.413397
 21
0.737
  0
LINE
  5
4DD
100
AcDbEntity
  8
0
100
AcDbLine
 62
2
  6
CONTINUOUS
 10
0.62
 20
7.7995
 11
0.37
 21
7.7995
  0
LINE
  5
4DE
100
AcDbEntity
  8
0
100
AcDbLine
 62
2
  6
CONTINUOUS
 10
16.38
 20
7.7995
 11
16.63
 21
7.7995
  0
LINE
  5
4DF
100
AcDbEntity
  8
0
100
AcDbLine
 62
2
  6
CONTINUOUS
 10
8.413397
 20
10.262
 11
8.5
 21
10.112
  0
LINE
  5
4E0
100
AcDbEntity
  8
0
100
AcDbLine
 62
7
  6
CONTINUOUS
 10
11.1389508475
 20
1.060596839
 11
11.1389508475
 21
1.425992839
  0
LINE
  5
4E1
100
AcDbEntity
  8
0
100
AcDbLine
 62
7
  6
CONTINUOUS
 10
11.7453418475
 20
1.495385839
 11
11.7453418475
 21
0.991203839
  0
LINE
  5
4E2
100
AcDbEntity
  8
0
100
AcDbLine
 62
1
  6
CONTINUOUS
 10
12.03
 20
2.807
 11
12.03
 21
0.887
  0
LINE
  5
4E3
100
AcDbEntity
  8
0
100
AcDbLine
 62
2
  6
CONTINUOUS
 10
12.44
 20
0.887
 11
12.44
 21
0.637
  0
LINE
  5
4E4
100
AcDbEntity
  8
0
100
AcDbLine
 62
2
  6
CONTINUOUS
 10
12.44
 20
10.112
 11
12.44
 21
10.362
  0
LINE
  5
4E5
100
AcDbEntity
  8
0
100
AcDbLine
 62
2
  6
CONTINUOUS
 10
16.53
 20
5.586103
 11
16.38
 21
5.4995
  0
LINE
  5
4E6
100
AcDbEntity
  8
0
100
AcDbLine
 62
2
  6
CONTINUOUS
 10
16.38
 20
5.4995
 11
16.53
 21
5.412897
  0
LINE
  5
4E7
100
AcDbEntity
  8
0
100
AcDbLine
 62
2
  6
CONTINUOUS
 10
12.83
 20
1.507
 11
12.83
 21
1.137
  0
LINE
  5
4E8
100
AcDbEntity
  8
0
100
AcDbLine
 62
2
  6
CONTINUOUS
 10
16.38
 20
10.112
 11
0.62
 21
10.112
  0
LINE
  5
4E9
100
AcDbEntity
  8
0
100
AcDbLine
 62
2
  6
CONTINUOUS
 10
8.586603
 20
10.262
 11
8.413397
 21
10.262
  0
LINE
  5
4EA
100
AcDbEntity
  8
0
100
AcDbLine
 62
2
  6
CONTINUOUS
 10
14.205
 20
1.137
 11
14.205
 21
0.887
  0
LINE
  5
4EB
100
AcDbEntity
  8
0
100
AcDbLine
 62
2
  6
CONTINUOUS
 10
14.41
 20
0.887
 11
14.41
 21
0.637
  0
LINE
  5
4EC
100
AcDbEntity
  8
0
100
AcDbLine
 62
2
  6
CONTINUOUS
 10
14.41
 20
10.112
 11
14.41
 21
10.362
  0
LINE
  5
4ED
100
AcDbEntity
  8
0
100
AcDbLine
 62
2
  6
CONTINUOUS
 10
15.58
 20
1.507
 11
15.58
 21
1.137
  0
LINE
  5
4EE
100
AcDbEntity
  8
0
100
AcDbLine
 62
2
  6
CONTINUOUS
 10
16.38
 20
0.887
 11
16.38
 21
10.112
  0
LINE
  5
4EF
100
AcDbEntity
  8
0
100
AcDbLine
 62
2
  6
CONTINUOUS
 10
16.53
 20
5.412897
 11
16.53
 21
5.586103
  0
LINE
  5
4F0
100
AcDbEntity
  8
0
100
AcDbLine
 62
7
  6
CONTINUOUS
 10
11.4333935558
 20
6.1349718036
 11
11.4333935558
 21
5.6124102566
  0
LWPOLYLINE
  5
4F1
100
AcDbEntity
  8
0
100
AcDbPolyline
 62
7
  6
CONTINUOUS
 90
5
 70
0
 10
11.4851716257
 20
5.4979637256
 10
11.4631854763
 20
5.5162047642
 10
11.4468492747
 20
5.5420649189
 10
11.4367901856
 20
5.5745487707
 10
11.4333935558
 20
5.6124102566
  0
LWPOLYLINE
  5
4F2
100
AcDbEntity
  8
0
100
AcDbPolyline
 62
7
  6
CONTINUOUS
 90
6
 70
0
 10
11.8210487554
 20
5.3040493613
 10
11.843927356
 20
5.2943757676
 10
11.8697514505
 20
5.2902685955
 10
11.8981304779
 20
5.2922458286
 10
11.9281325464
 20
5.3006286856
 10
11.9585465786
 20
5.3151932255
  0
LINE
  5
4F3
100
AcDbEntity
  8
0
100
AcDbLine
 62
7
  6
CONTINUOUS
 10
11.485171636
 20
5.4979637197
 11
11.8210487554
 21
5.3040493613
  0
LINE
  5
4F4
100
AcDbEntity
  8
0
100
AcDbLine
 62
9
  6
CONTINUOUS
 10
11.4333935558
 20
5.6124102566
 11
11.7692706752
 21
5.4184958982
  0
LWPOLYLINE
  5
4F5
100
AcDbEntity
  8
0
100
AcDbPolyline
 62
9
  6
CONTINUOUS
 90
6
 70
0
 10
11.7692706752
 20
5.4184958982
 10
11.7713349014
 20
5.3885842646
 10
11.7785205845
 20
5.3586715447
 10
11.7915457084
 20
5.3321637741
 10
11.8099777709
 20
5.3116891865
 10
11.8210483318
 20
5.3040496059
  0
LINE
  5
4F6
100
AcDbEntity
  8
0
100
AcDbLine
 62
7
  6
CONTINUOUS
 10
12.0061506079
 20
5.3733351663
 11
11.8682642115
 21
5.4529421134
  0
LWPOLYLINE
  5
4F7
100
AcDbEntity
  8
0
100
AcDbPolyline
 62
9
  6
CONTINUOUS
 90
9
 70
0
 10
11.7692706758
 20
5.9410574449
 10
11.7744811973
 20
5.9263197472
 10
11.7808719925
 20
5.9105444713
 10
11.7885719177
 20
5.8938892697
 10
11.7977043798
 20
5.8765596351
 10
11.8082018923
 20
5.859115539
 10
11.8189469883
 20
5.8434788757
 10
11.8286120423
 20
5.8310947829
 10
11.836767245
 20
5.8218379893
  0
LWPOLYLINE
  5
4F8
100
AcDbEntity
  8
0
100
AcDbPolyline
 62
9
  6
CONTINUOUS
 90
9
 70
0
 10
11.7692706752
 20
5.9410574452
 10
11.7718913176
 20
5.9264456685
 10
11.7751397192
 20
5.9106010873
 10
11.7790918622
 20
5.8935880033
 10
11.7838239328
 20
5.8754804007
 10
11.7893169825
 20
5.8566662205
 10
11.795003959
 20
5.8390162415
 10
11.8001840761
 20
5.8241293545
 10
11.8046260143
 20
5.8119571625
  0
LWPOLYLINE
  5
4F9
100
AcDbEntity
  8
0
100
AcDbPolyline
 62
7
  6
CONTINUOUS
 90
6
 70
0
 10
11.8470509198
 20
5.4934738095
 10
11.8479423264
 20
5.484846083
 10
11.8506547288
 20
5.4756220159
 10
11.8551358403
 20
5.4665889225
 10
11.8611585363
 20
5.4586784453
 10
11.8682642115
 20
5.4529421134
  0
LWPOLYLINE
  5
4FA
100
AcDbEntity
  8
0
100
AcDbPolyline
 62
9
  6
CONTINUOUS
 90
9
 70
0
 10
11.8046260143
 20
5.4184959832
 10
11.8064786512
 20
5.3916112062
 10
11.8129424061
 20
5.3646786033
 10
11.8246667429
 20
5.3408072749
 10
11.841263673
 20
5.3223689074
 10
11.8618903738
 20
5.3104075385
 10
11.8861215941
 20
5.3051704681
 10
11.9126777427
 20
5.306879315
 10
11.9393444109
 20
5.3147319915
  0
LINE
  5
4FB
100
AcDbEntity
  8
0
100
AcDbLine
 62
9
  6
CONTINUOUS
 10
11.7692706752
 20
5.9410574452
 11
11.7692706752
 21
5.4184958982
  0
LINE
  5
4FC
100
AcDbEntity
  8
0
100
AcDbLine
 62
7
  6
CONTINUOUS
 10
11.802556499
 20
6.8762861118
 11
11.802556499
 21
6.6673386428
  0
LINE
  5
4FD
100
AcDbEntity
  8
0
100
AcDbLine
 62
9
  6
CONTINUOUS
 10
11.8046260143
 20
5.8119571625
 11
11.8046260143
 21
5.4184959832
  0
LINE
  5
4FE
100
AcDbEntity
  8
0
100
AcDbLine
 62
7
  6
CONTINUOUS
 10
11.8470522445
 20
5.5996805576
 11
11.8470522445
 21
5.387547007
  0
LWPOLYLINE
  5
4FF
100
AcDbEntity
  8
0
100
AcDbPolyline
 62
9
  6
CONTINUOUS
 90
3
 70
0
 10
11.836767245
 20
5.8218379893
 10
11.8530906945
 20
5.8082161277
 10
11.8563161123
 20
5.8062498227
  0
LWPOLYLINE
  5
500
100
AcDbEntity
  8
0
100
AcDbPolyline
 62
9
  6
CONTINUOUS
 90
5
 70
0
 10
11.8046260143
 20
5.8119571625
 10
11.8225520619
 20
5.7969921797
 10
11.8451631082
 20
5.7864880379
 10
11.8717263902
 20
5.7819788965
 10
11.8953096345
 20
5.7837373397
  0
LINE
  5
501
100
AcDbEntity
  8
0
100
AcDbLine
 62
9
  6
CONTINUOUS
 10
11.871744569
 20
6.7798504849
 11
11.871744569
 21
6.5709030159
  0
LINE
  5
502
100
AcDbEntity
  8
0
100
AcDbLine
 62
9
  6
CONTINUOUS
 10
11.984936168
 20
5.731992607
 11
11.984936168
 21
5.6650059581
  0
LWPOLYLINE
  5
503
100
AcDbEntity
  8
0
100
AcDbPolyline
 62
7
  6
CONTINUOUS
 90
5
 70
0
 10
11.8717431781
 20
6.9727209357
 10
11.8423665495
 20
6.9520545426
 10
11.8205380701
 20
6.928476979
 10
11.8070953114
 20
6.9028922468
 10
11.802556499
 20
6.8762861081
  0
LWPOLYLINE
  5
504
100
AcDbEntity
  8
0
100
AcDbPolyline
 62
9
  6
CONTINUOUS
 90
9
 70
0
 10
13.4559451501
 20
5.3621451242
 10
13.5868690212
 20
5.3842588866
 10
13.7158367715
 20
5.4163730727
 10
13.8387074575
 20
5.4581787768
 10
13.9517196886
 20
5.5087095843
 10
14.0525370404
 20
5.5669147475
 10
14.1400619723
 20
5.6321606068
 10
14.2124763813
 20
5.7031003914
 10
14.2681056041
 20
5.7775639656
  0
LINE
  5
505
100
AcDbEntity
  8
0
100
AcDbLine
 62
7
  6
CONTINUOUS
 10
11.8470522445
 20
5.387547007
 11
12.0061506079
 21
5.3733351663
  0
LWPOLYLINE
  5
506
100
AcDbEntity
  8
0
100
AcDbPolyline
 62
9
  6
CONTINUOUS
 90
4
 70
0
 10
12.1932357834
 20
5.5059709026
 10
12.1909106915
 20
5.5066082038
 10
12.1877875339
 20
5.508411498
 10
12.1840612479
 20
5.5112682325
  0
LWPOLYLINE
  5
507
100
AcDbEntity
  8
0
100
AcDbPolyline
 62
7
  6
CONTINUOUS
 90
3
 70
0
 10
12.2912461009
 20
5.5551484942
 10
12.3202452913
 20
5.5444215675
 10
12.3298302606
 20
5.5440182711
  0
LWPOLYLINE
  5
508
100
AcDbEntity
  8
0
100
AcDbPolyline
 62
9
  6
CONTINUOUS
 90
14
 70
0
 10
12.3244262637
 20
5.5519050526
 10
12.3033381063
 20
5.5597143055
 10
12.2822453759
 20
5.5772151142
 10
12.2665698173
 20
5.6020203473
 10
12.256905835
 20
5.6332079241
 10
12.2536407783
 20
5.6695799291
 10
12.2569066909
 20
5.7097224173
 10
12.2665715153
 20
5.7520691848
 10
12.2822478345
 20
5.7949748435
 10
12.3033410271
 20
5.8368306831
 10
12.3290736838
 20
5.8760720501
 10
12.3584461379
 20
5.9111510993
 10
12.390288896
 20
5.9406778513
 10
12.423345699
 20
5.9635165545
  0
LINE
  5
509
100
AcDbEntity
  8
0
100
AcDbLine
 62
7
  6
CONTINUOUS
 10
12.1652489713
 20
5.5712568762
 11
12.0273625749
 21
5.6508638234
  0
LINE
  5
50A
100
AcDbEntity
  8
0
100
AcDbLine
 62
7
  6
CONTINUOUS
 10
12.9347465725
 20
5.1836317199
 11
12.3584521465
 21
5.5163479348
  0
LINE
  5
50B
100
AcDbEntity
  8
0
100
AcDbLine
 62
7
  6
CONTINUOUS
 10
11.8564042417
 20
5.8061988705
 11
12.2912767226
 21
5.5551308065
  0
LINE
  5
50C
100
AcDbEntity
  8
0
100
AcDbLine
 62
9
  6
CONTINUOUS
 10
12.3584149713
 20
5.5163694102
 11
12.358452129
 21
5.5163479449
  0
LINE
  5
50D
100
AcDbEntity
  8
0
100
AcDbLine
 62
9
  6
CONTINUOUS
 10
11.8563161123
 20
5.8062498227
 11
11.8564042417
 21
5.8061988705
  0
LWPOLYLINE
  5
50E
100
AcDbEntity
  8
0
100
AcDbPolyline
 62
7
  6
CONTINUOUS
 90
5
 70
0
 10
12.3584149713
 20
5.5163694102
 10
12.3371175728
 20
5.5333829137
 10
12.3195385036
 20
5.5590384199
 10
12.3082078229
 20
5.5916947434
 10
12.3037980728
 20
5.6299035152
  0
LWPOLYLINE
  5
50F
100
AcDbEntity
  8
0
100
AcDbPolyline
 62
9
  6
CONTINUOUS
 90
13
 70
0
 10
12.2912461009
 20
5.5551484942
 10
12.269283979
 20
5.5733794287
 10
12.2529615091
 20
5.5992162091
 10
12.2428987128
 20
5.6316978759
 10
12.2394986425
 20
5.6695772415
 10
12.2428986926
 20
5.711382722
 10
12.252961546
 20
5.7554840886
 10
12.2692841059
 20
5.8001684897
 10
12.2912475471
 20
5.8437611598
 10
12.3180428529
 20
5.8846331753
 10
12.348629528
 20
5.9211731696
 10
12.3817903875
 20
5.9519331222
 10
12.4162746018
 20
5.9757639862
  0
LWPOLYLINE
  5
510
100
AcDbEntity
  8
0
100
AcDbPolyline
 62
7
  6
CONTINUOUS
 90
5
 70
0
 10
11.802556499
 20
6.8762861081
 10
11.8070956951
 20
6.849678863
 10
11.8205388229
 20
6.8240941953
 10
11.8423676423
 20
6.8005167367
 10
11.871744569
 20
6.7798504849
  0
LINE
  5
511
100
AcDbEntity
  8
0
100
AcDbLine
 62
9
  6
CONTINUOUS
 10
12.0273625749
 20
5.7074982637
 11
12.0273625749
 21
5.6508638234
  0
LINE
  5
512
100
AcDbEntity
  8
0
100
AcDbLine
 62
7
  6
CONTINUOUS
 10
13.0688087293
 20
7.6638429284
 11
11.8717431781
 21
6.9727209357
  0
LWPOLYLINE
  5
513
100
AcDbEntity
  8
0
100
AcDbPolyline
 62
9
  6
CONTINUOUS
 90
4
 70
0
 10
13.3431522005
 20
5.3877818499
 10
13.3796182141
 20
5.3972955956
 10
13.4173139451
 20
5.4051004736
 10
13.4559451501
 20
5.4111352692
  0
LWPOLYLINE
  5
514
100
AcDbEntity
  8
0
100
AcDbPolyline
 62
9
  6
CONTINUOUS
 90
4
 70
0
 10
13.3364332423
 20
5.4077721345
 10
13.3739890086
 20
5.4175703119
 10
13.4128285875
 20
5.4256119169
 10
13.4526099804
 20
5.4318261565
  0
LWPOLYLINE
  5
515
100
AcDbEntity
  8
0
100
AcDbPolyline
 62
9
  6
CONTINUOUS
 90
6
 70
0
 10
13.6230562138
 20
5.4627440359
 10
13.6294397072
 20
5.4637493652
 10
13.6348722602
 20
5.465932548
 10
13.6389383215
 20
5.4689450332
 10
13.6414412889
 20
5.4724439855
 10
13.6422898577
 20
5.4761344965
  0
LWPOLYLINE
  5
516
100
AcDbEntity
  8
0
100
AcDbPolyline
 62
9
  6
CONTINUOUS
 90
4
 70
0
 10
13.4559451501
 20
5.4111352692
 10
13.5144569511
 20
5.4197952205
 10
13.5721087585
 20
5.4302529111
 10
13.6286843821
 20
5.4424690842
  0
LWPOLYLINE
  5
517
100
AcDbEntity
  8
0
100
AcDbPolyline
 62
9
  6
CONTINUOUS
 90
4
 70
0
 10
13.4526099804
 20
5.4318261565
 10
13.5103411819
 20
5.4403705079
 10
13.5672333081
 20
5.450690363
 10
13.6230562138
 20
5.4627440359
  0
LINE
  5
518
100
AcDbEntity
  8
0
100
AcDbLine
 62
9
  6
CONTINUOUS
 10
11.8682642115
 20
5.4529421134
 11
11.8470522445
 21
5.454836923
  0
LINE
  5
519
100
AcDbEntity
  8
0
100
AcDbLine
 62
9
  6
CONTINUOUS
 10
11.4333935558
 20
6.1349718036
 11
11.7692706752
 21
5.9410574452
  0
LWPOLYLINE
  5
51A
100
AcDbEntity
  8
0
100
AcDbPolyline
 62
9
  6
CONTINUOUS
 90
5
 70
0
 10
12.3066740664
 20
5.6307945757
 10
12.3100741133
 20
5.5929151267
 10
12.3201369598
 20
5.5604332782
 10
12.3364595003
 20
5.5345964449
 10
12.3584149713
 20
5.5163694102
  0
LWPOLYLINE
  5
51B
100
AcDbEntity
  8
AXIS_COSMETIC_THREADS
100
AcDbPolyline
 62
7
  6
CONTINUOUS
 90
10
 70
0
 10
12.3042387542
 20
5.6369001024
 10
12.3031384
 20
5.6491653737
 10
12.3062361908
 20
5.6872723855
 10
12.315410517
 20
5.7274919655
 10
12.3303088143
 20
5.768278498
 10
12.3503585495
 20
5.8080645793
 10
12.3747892225
 20
5.8453212527
 10
12.4026619763
 20
5.878616765
 10
12.4329056766
 20
5.9066715885
 10
12.4643580749
 20
5.9284075919
  0
LINE
  5
51C
100
AcDbEntity
  8
0
100
AcDbLine
 62
7
  6
CONTINUOUS
 10
12.1652489713
 20
5.5712568762
 11
12.1652489713
 21
5.6278913166
  0
LINE
  5
51D
100
AcDbEntity
  8
0
100
AcDbLine
 62
9
  6
CONTINUOUS
 10
12.1723200097
 20
5.6238089431
 11
12.1723200097
 21
5.4862660034
  0
LINE
  5
51E
100
AcDbEntity
  8
0
100
AcDbLine
 62
9
  6
CONTINUOUS
 10
12.2076753487
 20
5.6033969903
 11
12.2076753487
 21
5.5649305218
  0
LINE
  5
51F
100
AcDbEntity
  8
0
100
AcDbLine
 62
9
  6
CONTINUOUS
 10
12.2288883166
 20
5.5189255357
 11
12.2288883166
 21
5.4797294317
  0
LINE
  5
520
100
AcDbEntity
  8
0
100
AcDbLine
 62
7
  6
CONTINUOUS
 10
12.2362105735
 20
5.5291315546
 11
12.2362105735
 21
5.4899351654
  0
LINE
  5
521
100
AcDbEntity
  8
0
100
AcDbLine
 62
9
  6
CONTINUOUS
 10
12.2614900868
 20
6.3458884268
 11
12.2614900868
 21
6.4101799557
  0
LINE
  5
522
100
AcDbEntity
  8
0
100
AcDbLine
 62
9
  6
CONTINUOUS
 10
12.2362105734
 20
5.4899364839
 11
12.236209727
 21
5.4898167413
  0
LWPOLYLINE
  5
523
100
AcDbEntity
  8
0
100
AcDbPolyline
 62
9
  6
CONTINUOUS
 90
3
 70
0
 10
11.9637243777
 20
5.326637874
 10
11.9623787396
 20
5.3196032122
 10
11.9585466866
 20
5.3151932878
  0
LWPOLYLINE
  5
524
100
AcDbEntity
  8
0
100
AcDbPolyline
 62
7
  6
CONTINUOUS
 90
9
 70
0
 10
11.6101695151
 20
6.4411584464
 10
11.5756822363
 20
6.4173251092
 10
11.5425202842
 20
6.3865632414
 10
11.5119580542
 20
6.3500550042
 10
11.4851700355
 20
6.3092033887
 10
11.4631856768
 20
6.2655782995
 10
11.4468498245
 20
6.2208562244
 10
11.4367902563
 20
6.1767558077
 10
11.4333935558
 20
6.1349718036
  0
LWPOLYLINE
  5
525
100
AcDbEntity
  8
0
100
AcDbPolyline
 62
7
  6
CONTINUOUS
 90
4
 70
0
 10
13.3406011418
 20
5.6505610721
 10
13.3774008838
 20
5.6601617495
 10
13.4154745123
 20
5.6680453407
 10
13.4545680519
 20
5.6741527685
  0
LINE
  5
526
100
AcDbEntity
  8
0
100
AcDbLine
 62
7
  6
CONTINUOUS
 10
13.6264697292
 20
5.7053358633
 11
13.6264736223
 21
5.705336779
  0
LWPOLYLINE
  5
527
100
AcDbEntity
  8
0
100
AcDbPolyline
 62
7
  6
CONTINUOUS
 90
3
 70
0
 10
13.6264697292
 20
5.7053358633
 10
13.5701377078
 20
5.6931724875
 10
13.5127835197
 20
5.6827689411
  0
LWPOLYLINE
  5
528
100
AcDbEntity
  8
0
100
AcDbPolyline
 62
9
  6
CONTINUOUS
 90
4
 70
0
 10
13.6286843821
 20
5.7119148818
 10
13.5721089728
 20
5.6996987513
 10
13.5144565408
 20
5.6892409506
 10
13.4559451501
 20
5.6805810669
  0
LWPOLYLINE
  5
529
100
AcDbEntity
  8
0
100
AcDbPolyline
 62
7
  6
CONTINUOUS
 90
4
 70
0
 10
13.6264736231
 20
5.7053367757
 10
13.6285616494
 20
5.7057329319
 10
13.6337369513
 20
5.7058036717
 10
13.6367320799
 20
5.7048720466
  0
LINE
  5
52A
100
AcDbEntity
  8
0
100
AcDbLine
 62
9
  6
CONTINUOUS
 10
13.4170956805
 20
5.5816527152
 11
13.3238771494
 21
5.5711488791
  0
LINE
  5
52B
100
AcDbEntity
  8
0
100
AcDbLine
 62
9
  6
CONTINUOUS
 10
13.4134124439
 20
5.6040971941
 11
13.3238771494
 21
5.5940070802
  0
LWPOLYLINE
  5
52C
100
AcDbEntity
  8
0
100
AcDbPolyline
 62
9
  6
CONTINUOUS
 90
4
 70
0
 10
13.4134124439
 20
5.604097194
 10
13.4184842607
 20
5.6038899274
 10
13.4234800366
 20
5.6024777809
 10
13.427702238
 20
5.6000239138
  0
LWPOLYLINE
  5
52D
100
AcDbEntity
  8
0
100
AcDbPolyline
 62
7
  6
CONTINUOUS
 90
6
 70
0
 10
11.984936168
 20
5.6650059581
 10
11.991912319
 20
5.6639477816
 10
12.0003682286
 20
5.6618687583
 10
12.0096837713
 20
5.6588497988
 10
12.0190314426
 20
5.6550756609
 10
12.0273625749
 20
5.6508638234
  0
LWPOLYLINE
  5
52E
100
AcDbEntity
  8
0
100
AcDbPolyline
 62
9
  6
CONTINUOUS
 90
3
 70
0
 10
13.326240507
 20
5.4087852754
 10
13.3310329593
 20
5.407698584
 10
13.3364332423
 20
5.4077721345
  0
LINE
  5
52F
100
AcDbEntity
  8
0
100
AcDbLine
 62
9
  6
CONTINUOUS
 10
13.3243035972
 20
5.4097021562
 11
13.326240507
 21
5.4087852754
  0
LINE
  5
530
100
AcDbEntity
  8
0
100
AcDbLine
 62
7
  6
CONTINUOUS
 10
13.1863926193
 20
5.3197571108
 11
13.0176417228
 21
5.4171832823
  0
LWPOLYLINE
  5
531
100
AcDbEntity
  8
0
100
AcDbPolyline
 62
9
  6
CONTINUOUS
 90
3
 70
0
 10
11.8758215832
 20
6.5618914776
 10
11.8728041218
 20
6.5653639082
 10
11.871744569
 20
6.5709030159
  0
LINE
  5
532
100
AcDbEntity
  8
0
100
AcDbLine
 62
9
  6
CONTINUOUS
 10
12.2893289364
 20
6.3458884937
 11
12.2893289364
 21
6.3874498256
  0
LWPOLYLINE
  5
533
100
AcDbEntity
  8
0
100
AcDbPolyline
 62
7
  6
CONTINUOUS
 90
8
 70
0
 10
12.3037980728
 20
5.6299035152
 10
12.3064484817
 20
5.6719833858
 10
12.3159387364
 20
5.7162628828
 10
12.3318045268
 20
5.7610502176
 10
12.3533915578
 20
5.8046979827
 10
12.3798844359
 20
5.8456178961
 10
12.410299761
 20
5.8822781675
 10
12.4435424506
 20
5.9132977923
  0
LWPOLYLINE
  5
534
100
AcDbEntity
  8
0
100
AcDbPolyline
 62
7
  6
CONTINUOUS
 90
3
 70
0
 10
12.2362105735
 20
5.5291315546
 10
12.2364158328
 20
5.5318487427
 10
12.2365032076
 20
5.5322458018
  0
LWPOLYLINE
  5
535
100
AcDbEntity
  8
0
100
AcDbPolyline
 62
9
  6
CONTINUOUS
 90
4
 70
0
 10
12.236209727
 20
5.4898167413
 10
12.2359138082
 20
5.4877227167
 10
12.2335030297
 20
5.4833988525
 10
12.2288883166
 20
5.4797294317
  0
LWPOLYLINE
  5
536
100
AcDbEntity
  8
AXIS_COSMETIC_THREADS
100
AcDbPolyline
 62
7
  6
CONTINUOUS
 90
6
 70
0
 10
12.7486656093
 20
7.1575572255
 10
12.6844705124
 20
7.1141622165
 10
12.6328239153
 20
7.0655036154
 10
12.5949975289
 20
7.0127795586
 10
12.5719227641
 20
6.9572882874
 10
12.5641677984
 20
6.9003976889
  0
LINE
  5
537
100
AcDbEntity
  8
0
100
AcDbLine
 62
7
  6
CONTINUOUS
 10
11.8505313915
 20
6.5799306121
 11
11.6101695151
 21
6.4411584464
  0
LWPOLYLINE
  5
538
100
AcDbEntity
  8
0
100
AcDbPolyline
 62
9
  6
CONTINUOUS
 90
5
 70
0
 10
13.4559451501
 20
5.7295712119
 10
13.3893531319
 20
5.7179369735
 10
13.3253009412
 20
5.7007914972
 10
13.2660678477
 20
5.678607246
 10
13.2135626087
 20
5.6522465557
  0
LWPOLYLINE
  5
539
100
AcDbEntity
  8
0
100
AcDbPolyline
 62
9
  6
CONTINUOUS
 90
5
 70
0
 10
13.450386534
 20
5.764056024
 10
13.3804874181
 20
5.7518450443
 10
13.3132082022
 20
5.7338367134
 10
13.2509929121
 20
5.7105341216
 10
13.1958848656
 20
5.682865135
  0
LWPOLYLINE
  5
53A
100
AcDbEntity
  8
0
100
AcDbPolyline
 62
9
  6
CONTINUOUS
 90
4
 70
0
 10
13.4559451501
 20
5.6805810669
 10
13.4173139676
 20
5.6745462753
 10
13.379618375
 20
5.6667414309
 10
13.3431522005
 20
5.6572276475
  0
LINE
  5
53B
100
AcDbEntity
  8
0
100
AcDbLine
 62
7
  6
CONTINUOUS
 10
13.5127835197
 20
5.6827689411
 11
13.4545680519
 21
5.6741527685
  0
LWPOLYLINE
  5
53C
100
AcDbEntity
  8
0
100
AcDbPolyline
 62
9
  6
CONTINUOUS
 90
3
 70
0
 10
13.7186623388
 20
5.4924515348
 10
13.7235986728
 20
5.4912422454
 10
13.7290784024
 20
5.4913464475
  0
LWPOLYLINE
  5
53D
100
AcDbEntity
  8
0
100
AcDbPolyline
 62
9
  6
CONTINUOUS
 90
4
 70
0
 10
13.6422898577
 20
5.4761344965
 10
13.6472532212
 20
5.4742342604
 10
13.6531061522
 20
5.4735988752
 10
13.6589260212
 20
5.4743285002
  0
LINE
  5
53E
100
AcDbEntity
  8
0
100
AcDbLine
 62
9
  6
CONTINUOUS
 10
13.3364332423
 20
5.4077721345
 11
13.3238771494
 21
5.4150212342
  0
LINE
  5
53F
100
AcDbEntity
  8
0
100
AcDbLine
 62
7
  6
CONTINUOUS
 10
13.2551361767
 20
5.4899963098
 11
13.1376759367
 21
5.5578104769
  0
LINE
  5
540
100
AcDbEntity
  8
0
100
AcDbLine
 62
9
  6
CONTINUOUS
 10
13.0597444517
 20
5.6042648996
 11
12.4834500257
 21
5.9369811145
  0
LINE
  5
541
100
AcDbEntity
  8
0
100
AcDbLine
 62
9
  6
CONTINUOUS
 10
11.6101695151
 20
6.4411584464
 11
12.4162746018
 21
5.9757639862
  0
LINE
  5
542
100
AcDbEntity
  8
0
100
AcDbLine
 62
7
  6
CONTINUOUS
 10
13.3242990385
 20
5.4097047899
 11
13.3243035972
 21
5.4097021562
  0
LWPOLYLINE
  5
543
100
AcDbEntity
  8
0
100
AcDbPolyline
 62
7
  6
CONTINUOUS
 90
5
 70
0
 10
13.3243027781
 20
5.409702998
 10
13.3241703338
 20
5.4097935745
 10
13.3241238378
 20
5.4098727709
 10
13.3239202363
 20
5.410685955
 10
13.3238771521
 20
5.4114371622
  0
LWPOLYLINE
  5
544
100
AcDbEntity
  8
0
100
AcDbPolyline
 62
9
  6
CONTINUOUS
 90
4
 70
0
 10
12.4162746018
 20
5.9757639862
 10
12.4198101504
 20
5.9726288766
 10
12.4223983516
 20
5.9681460055
 10
12.423345699
 20
5.9635165545
  0
LINE
  5
545
100
AcDbEntity
  8
0
100
AcDbLine
 62
7
  6
CONTINUOUS
 10
12.9867600364
 20
5.3375897674
 11
13.0533042307
 21
5.2429189525
  0
LWPOLYLINE
  5
546
100
AcDbEntity
  8
0
100
AcDbPolyline
 62
7
  6
CONTINUOUS
 90
5
 70
0
 10
12.2614900868
 20
6.4101799557
 10
12.2648506406
 20
6.4051288175
 10
12.2689400572
 20
6.400483796
 10
12.2736216783
 20
6.3966121796
 10
12.2753625048
 20
6.395513229
  0
LWPOLYLINE
  5
547
100
AcDbEntity
  8
AXIS_COSMETIC_THREADS
100
AcDbPolyline
 62
7
  6
CONTINUOUS
 90
5
 70
0
 10
12.4813881591
 20
6.5548512874
 10
12.4815913284
 20
6.5588163943
 10
12.4865525777
 20
6.5744469461
 10
12.4978487261
 20
6.5889378215
 10
12.5148232825
 20
6.6014468636
  0
LWPOLYLINE
  5
548
100
AcDbEntity
  8
0
100
AcDbPolyline
 62
9
  6
CONTINUOUS
 90
8
 70
0
 10
12.2076753487
 20
5.5649305218
 10
12.2044468156
 20
5.5551822703
 10
12.2010890319
 20
5.5461425243
 10
12.1976765073
 20
5.5378157123
 10
12.1942391776
 20
5.5301574947
 10
12.1908123025
 20
5.5231774791
 10
12.1874189862
 20
5.5168822439
 10
12.1840613244
 20
5.5112680518
  0
LWPOLYLINE
  5
549
100
AcDbEntity
  8
AXIS_COSMETIC_THREADS
100
AcDbPolyline
 62
7
  6
CONTINUOUS
 90
5
 70
0
 10
12.7486656093
 20
7.0129012855
 10
12.681426925
 20
6.9670665447
 10
12.6281723272
 20
6.9154674145
 10
12.5903544627
 20
6.8595113847
 10
12.5786588948
 20
6.8273073179
  0
LWPOLYLINE
  5
54A
100
AcDbEntity
  8
0
100
AcDbPolyline
 62
9
  6
CONTINUOUS
 90
4
 70
0
 10
14.2027042512
 20
5.9969205812
 10
14.2082807663
 20
5.997446822
 10
14.2131243971
 20
5.9991268191
 10
14.2165478209
 20
6.0017221694
  0
LWPOLYLINE
  5
54B
100
AcDbEntity
  8
0
100
AcDbPolyline
 62
9
  6
CONTINUOUS
 90
3
 70
0
 10
14.0257234817
 20
5.6256903365
 10
14.0264605344
 20
5.6255787641
 10
14.0280158421
 20
5.6257884474
  0
LWPOLYLINE
  5
54C
100
AcDbEntity
  8
0
100
AcDbPolyline
 62
9
  6
CONTINUOUS
 90
3
 70
0
 10
12.4834500257
 20
5.9369811145
 10
12.479914434
 20
5.9379284086
 10
12.478450048
 20
5.9374763573
  0
LINE
  5
54D
100
AcDbEntity
  8
0
100
AcDbLine
 62
9
  6
CONTINUOUS
 10
13.7168424342
 20
5.4933378542
 11
13.7186623388
 21
5.4924515348
  0
LINE
  5
54E
100
AcDbEntity
  8
0
100
AcDbLine
 62
9
  6
CONTINUOUS
 10
13.6230562138
 20
5.4627440359
 11
13.4170956805
 21
5.5816527152
  0
LINE
  5
54F
100
AcDbEntity
  8
0
100
AcDbLine
 62
9
  6
CONTINUOUS
 10
13.6422898577
 20
5.4761344965
 11
13.4277022391
 21
5.6000239131
  0
LWPOLYLINE
  5
550
100
AcDbEntity
  8
0
100
AcDbPolyline
 62
9
  6
CONTINUOUS
 90
6
 70
0
 10
11.871744569
 20
6.5709030159
 10
11.8524991949
 20
6.5834734767
 10
11.8340025274
 20
6.5993505503
 10
11.8180810342
 20
6.618713505
 10
11.8068465263
 20
6.6414650864
 10
11.802556499
 20
6.6673383562
  0
LWPOLYLINE
  5
551
100
AcDbEntity
  8
0
100
AcDbPolyline
 62
7
  6
CONTINUOUS
 90
5
 70
0
 10
11.8758215832
 20
6.5618914776
 10
11.8441980385
 20
6.5844481029
 10
11.820950815
 20
6.6105683885
 10
11.8070939329
 20
6.6386349744
 10
11.802556499
 20
6.6673386428
  0
LWPOLYLINE
  5
552
100
AcDbEntity
  8
0
100
AcDbPolyline
 62
9
  6
CONTINUOUS
 90
4
 70
0
 10
12.2655621777
 20
6.3368797337
 10
12.2641660298
 20
6.3379580926
 10
12.2621758555
 20
6.3413015728
 10
12.2614900868
 20
6.3458884268
  0
LWPOLYLINE
  5
553
100
AcDbEntity
  8
0
100
AcDbPolyline
 62
9
  6
CONTINUOUS
 90
3
 70
0
 10
12.589792001
 20
6.1650462352
 10
12.5374316892
 20
6.220128048
 10
12.5134212882
 20
6.2580729729
  0
LWPOLYLINE
  5
554
100
AcDbEntity
  8
0
100
AcDbPolyline
 62
7
  6
CONTINUOUS
 90
3
 70
0
 10
12.5215760505
 20
6.2533649252
 10
12.554596895
 20
6.2067785764
 10
12.589792001
 20
6.1717282227
  0
LINE
  5
555
100
AcDbEntity
  8
0
100
AcDbLine
 62
9
  6
CONTINUOUS
 10
12.5897926603
 20
6.1609620671
 11
12.589792001
 21
6.1610553237
  0
LINE
  5
556
100
AcDbEntity
  8
0
100
AcDbLine
 62
7
  6
CONTINUOUS
 10
12.589792001
 20
6.2140716766
 11
12.589792001
 21
6.1610550812
  0
LINE
  5
557
100
AcDbEntity
  8
0
100
AcDbLine
 62
9
  6
CONTINUOUS
 10
12.5955576735
 20
6.2173103079
 11
12.5955576735
 21
6.153018779
  0
LINE
  5
558
100
AcDbEntity
  8
0
100
AcDbLine
 62
7
  6
CONTINUOUS
 10
12.6663940421
 20
6.1039874866
 11
12.666421479
 21
6.105448741
  0
LWPOLYLINE
  5
559
100
AcDbEntity
  8
0
100
AcDbPolyline
 62
9
  6
CONTINUOUS
 90
3
 70
0
 10
12.2362105735
 20
5.5291315546
 10
12.2343076016
 20
5.5236081295
 10
12.2288883166
 20
5.5189255357
  0
LINE
  5
55A
100
AcDbEntity
  8
0
100
AcDbLine
 62
7
  6
CONTINUOUS
 10
11.9634036379
 20
5.7444241379
 11
11.8470522445
 21
5.5996805576
  0
LWPOLYLINE
  5
55B
100
AcDbEntity
  8
0
100
AcDbPolyline
 62
9
  6
CONTINUOUS
 90
5
 70
0
 10
11.8046260143
 20
5.8119571625
 10
11.8115066568
 20
5.8188672277
 10
11.8200310278
 20
5.823171462
 10
11.8289013557
 20
5.824214639
 10
11.836767245
 20
5.8218379893
  0
LWPOLYLINE
  5
55C
100
AcDbEntity
  8
0
100
AcDbPolyline
 62
9
  6
CONTINUOUS
 90
4
 70
0
 10
12.2852519293
 20
6.3368769594
 10
12.2866705518
 20
6.337975875
 10
12.2886476685
 20
6.3413150213
 10
12.2893289364
 20
6.3458884937
  0
LWPOLYLINE
  5
55D
100
AcDbEntity
  8
AXIS_COSMETIC_THREADS
100
AcDbPolyline
 62
7
  6
CONTINUOUS
 90
11
 70
0
 10
13.7118888337
 20
7.2925688564
 10
13.7335552986
 20
7.3023690852
 10
13.7586544959
 20
7.3088909469
 10
13.7857277514
 20
7.3117554147
 10
13.8132016658
 20
7.3107960161
 10
13.8394795553
 20
7.3060685079
 10
13.8630342443
 20
7.2978476357
 10
13.8824968199
 20
7.2866111666
 10
13.8967361881
 20
7.2730121234
 10
13.9049248084
 20
7.2578408331
 10
13.9067899574
 20
7.2459441029
  0
LWPOLYLINE
  5
55E
100
AcDbEntity
  8
0
100
AcDbPolyline
 62
7
  6
CONTINUOUS
 90
5
 70
0
 10
13.7138689241
 20
6.11706208
 10
13.6996705569
 20
6.1143973599
 10
13.6864830607
 20
6.1075701981
 10
13.6740094262
 20
6.096517581
 10
13.6621390728
 20
6.0807098564
  0
LWPOLYLINE
  5
55F
100
AcDbEntity
  8
0
100
AcDbPolyline
 62
9
  6
CONTINUOUS
 90
4
 70
0
 10
13.4449766205
 20
5.9938662429
 10
13.4587532001
 20
5.9964164873
 10
13.5163979366
 20
6.010625508
 10
13.5651825358
 20
6.0254768127
  0
LWPOLYLINE
  5
560
100
AcDbEntity
  8
0
100
AcDbPolyline
 62
9
  6
CONTINUOUS
 90
4
 70
0
 10
13.6422898577
 20
5.6965901491
 10
13.64725324
 20
5.6946899002
 10
13.6531061699
 20
5.6940545195
 10
13.6589260212
 20
5.6947841528
  0
LWPOLYLINE
  5
561
100
AcDbEntity
  8
0
100
AcDbPolyline
 62
9
  6
CONTINUOUS
 90
5
 70
0
 10
13.9646406883
 20
5.6002923414
 10
13.9694294555
 20
5.5984337766
 10
13.9750791363
 20
5.5977564174
 10
13.9807536937
 20
5.5983604991
 10
13.9856134101
 20
5.60015663
  0
LWPOLYLINE
  5
562
100
AcDbEntity
  8
0
100
AcDbPolyline
 62
9
  6
CONTINUOUS
 90
6
 70
0
 10
12.2614900868
 20
6.3458884268
 10
12.266491057
 20
6.3437930268
 10
12.2723718397
 20
6.3426958546
 10
12.2785447012
 20
6.3427048033
 10
12.2844100072
 20
6.3438172723
 10
12.2893289364
 20
6.3458884937
  0
LINE
  5
563
100
AcDbEntity
  8
0
100
AcDbLine
 62
9
  6
CONTINUOUS
 10
13.0073269358
 20
5.9167804675
 11
12.9853031913
 21
5.9280041899
  0
LINE
  5
564
100
AcDbEntity
  8
0
100
AcDbLine
 62
9
  6
CONTINUOUS
 10
13.7290784024
 20
5.4913464475
 11
13.7160724312
 21
5.4988552786
  0
LINE
  5
565
100
AcDbEntity
  8
0
100
AcDbLine
 62
7
  6
CONTINUOUS
 10
12.9893802055
 20
5.9189926516
 11
12.5996346877
 21
6.1440072407
  0
LINE
  5
566
100
AcDbEntity
  8
0
100
AcDbLine
 62
7
  6
CONTINUOUS
 10
12.265567101
 20
6.3368768885
 11
11.8758215832
 21
6.5618914776
  0
LINE
  5
567
100
AcDbEntity
  8
0
100
AcDbLine
 62
9
  6
CONTINUOUS
 10
12.9853031913
 20
5.9280041899
 11
12.5955576735
 21
6.153018779
  0
LINE
  5
568
100
AcDbEntity
  8
0
100
AcDbLine
 62
9
  6
CONTINUOUS
 10
12.2614900868
 20
6.3458884268
 11
11.871744569
 21
6.5709030159
  0
LINE
  5
569
100
AcDbEntity
  8
0
100
AcDbLine
 62
7
  6
CONTINUOUS
 10
12.2753315321
 20
6.395531048
 11
12.5898702566
 21
6.213936139
  0
LINE
  5
56A
100
AcDbEntity
  8
0
100
AcDbLine
 62
9
  6
CONTINUOUS
 10
12.2614900868
 20
6.4101799557
 11
12.5955576735
 21
6.2173103079
  0
LINE
  5
56B
100
AcDbEntity
  8
0
100
AcDbLine
 62
7
  6
CONTINUOUS
 10
13.7168330812
 20
5.4933432628
 11
13.7168424342
 21
5.4933378542
  0
LINE
  5
56C
100
AcDbEntity
  8
0
100
AcDbLine
 62
9
  6
CONTINUOUS
 10
12.5996348976
 20
6.1440071195
 11
12.5995543785
 21
6.144054369
  0
LWPOLYLINE
  5
56D
100
AcDbEntity
  8
0
100
AcDbPolyline
 62
9
  6
CONTINUOUS
 90
4
 70
0
 10
12.5995543785
 20
6.144054369
 10
12.5982336165
 20
6.1450884448
 10
12.5962434422
 20
6.148431925
 10
12.5955576735
 20
6.153018779
  0
LWPOLYLINE
  5
56E
100
AcDbEntity
  8
0
100
AcDbPolyline
 62
9
  6
CONTINUOUS
 90
4
 70
0
 10
12.5955576735
 20
6.153018779
 10
12.5919282407
 20
6.1559060318
 10
12.5900278066
 20
6.1593012456
 10
12.5897926603
 20
6.1609620671
  0
LWPOLYLINE
  5
56F
100
AcDbEntity
  8
0
100
AcDbPolyline
 62
9
  6
CONTINUOUS
 90
3
 70
0
 10
12.9893800794
 20
5.9189927243
 10
12.98636274
 20
5.9224650912
 10
12.9853031913
 20
5.9280041899
  0
LINE
  5
570
100
AcDbEntity
  8
0
100
AcDbLine
 62
7
  6
CONTINUOUS
 10
13.2135626087
 20
5.5472828124
 11
13.1863926193
 21
5.5859368988
  0
LINE
  5
571
100
AcDbEntity
  8
0
100
AcDbLine
 62
7
  6
CONTINUOUS
 10
12.6623447727
 20
6.1078023752
 11
12.66324447
 21
6.1056474952
  0
LINE
  5
572
100
AcDbEntity
  8
0
100
AcDbLine
 62
7
  6
CONTINUOUS
 10
12.66324447
 20
6.1056474952
 11
12.6637610037
 21
6.1023195668
  0
LWPOLYLINE
  5
573
100
AcDbEntity
  8
AXIS_COSMETIC_THREADS
100
AcDbPolyline
 62
7
  6
CONTINUOUS
 90
16
 70
0
 10
12.5641677984
 20
6.9003976889
 10
12.5719235847
 20
6.8435041119
 10
12.5949991497
 20
6.7880129516
 10
12.6328262966
 20
6.7352890767
 10
12.6844735954
 20
6.6866307239
 10
12.7486693182
 20
6.6432360234
 10
12.8238327533
 20
6.6061734968
 10
12.9081131274
 20
6.5763557463
 10
12.9994351781
 20
6.5545169841
 10
13.0955502532
 20
6.541194953
 10
13.1940916808
 20
6.5367176854
 10
13.2926330438
 20
6.5411954267
 10
13.3887479269
 20
6.5545179199
 10
13.4800696625
 20
6.5763571212
 10
13.5643496066
 20
6.6061752767
 10
13.6395125071
 20
6.6432381647
  0
LWPOLYLINE
  5
574
100
AcDbEntity
  8
AXIS_COSMETIC_THREADS
100
AcDbPolyline
 62
7
  6
CONTINUOUS
 90
5
 70
0
 10
12.7097244062
 20
6.5548221101
 10
12.7095212368
 20
6.5508570032
 10
12.7045599875
 20
6.5352264514
 10
12.6932638392
 20
6.520735576
 10
12.6762892827
 20
6.5082265339
  0
LINE
  5
575
100
AcDbEntity
  8
0
100
AcDbLine
 62
9
  6
CONTINUOUS
 10
12.6637614589
 20
6.1023198296
 11
12.6505762001
 21
6.0368528444
  0
LINE
  5
576
100
AcDbEntity
  8
0
100
AcDbLine
 62
7
  6
CONTINUOUS
 10
12.6530525644
 20
6.0382825654
 11
12.6663948632
 21
6.1039891991
  0
LINE
  5
577
100
AcDbEntity
  8
0
100
AcDbLine
 62
7
  6
CONTINUOUS
 10
12.6663944806
 20
6.1039892544
 11
12.6663940421
 21
6.1039874866
  0
LWPOLYLINE
  5
578
100
AcDbEntity
  8
0
100
AcDbPolyline
 62
9
  6
CONTINUOUS
 90
4
 70
0
 10
12.2314553456
 20
5.5280371669
 10
12.2300447551
 20
5.5255195915
 10
12.2291793919
 20
5.5224464696
 10
12.2288883166
 20
5.5189255357
  0
LWPOLYLINE
  5
579
100
AcDbEntity
  8
0
100
AcDbPolyline
 62
9
  6
CONTINUOUS
 90
4
 70
0
 10
12.1840613244
 20
5.5112680518
 10
12.1796982839
 20
5.5036235764
 10
12.1757202729
 20
5.4951175677
 10
12.1723200097
 20
5.4862660034
  0
LINE
  5
57A
100
AcDbEntity
  8
0
100
AcDbLine
 62
9
  6
CONTINUOUS
 10
11.984936168
 20
5.6650059581
 11
11.8470509198
 21
5.4934738095
  0
LINE
  5
57B
100
AcDbEntity
  8
0
100
AcDbLine
 62
9
  6
CONTINUOUS
 10
12.0273625749
 20
5.6508638234
 11
11.8682642115
 21
5.4529421134
  0
LINE
  5
57C
100
AcDbEntity
  8
0
100
AcDbLine
 62
9
  6
CONTINUOUS
 10
12.3253226202
 20
6.3666693327
 11
12.2893289364
 21
6.3458884937
  0
LINE
  5
57D
100
AcDbEntity
  8
0
100
AcDbLine
 62
7
  6
CONTINUOUS
 10
12.3310884289
 20
6.3633405169
 11
12.2852519293
 21
6.3368769594
  0
LWPOLYLINE
  5
57E
100
AcDbEntity
  8
AXIS_COSMETIC_THREADS
100
AcDbPolyline
 62
7
  6
CONTINUOUS
 90
11
 70
0
 10
12.5148232825
 20
6.6014468636
 10
12.5364897474
 20
6.6112470924
 10
12.5615889447
 20
6.6177689542
 10
12.5886622002
 20
6.620633422
 10
12.6161361147
 20
6.6196740234
 10
12.6424140041
 20
6.6149465151
 10
12.6659686931
 20
6.6067256429
 10
12.6854312688
 20
6.5954891738
 10
12.6996706369
 20
6.5818901306
 10
12.7078592572
 20
6.5667188403
 10
12.7097244062
 20
6.5548221101
  0
LWPOLYLINE
  5
57F
100
AcDbEntity
  8
AXIS_COSMETIC_THREADS
100
AcDbPolyline
 62
7
  6
CONTINUOUS
 90
11
 70
0
 10
13.8733548339
 20
7.1993485266
 10
13.851688369
 20
7.1895482979
 10
13.8265891717
 20
7.1830264361
 10
13.7995159163
 20
7.1801619683
 10
13.7720420018
 20
7.1811213669
 10
13.7457641123
 20
7.1858488751
 10
13.7222094233
 20
7.1940697474
 10
13.7027468477
 20
7.2053062165
 10
13.6885074796
 20
7.2189052596
 10
13.6803188593
 20
7.2340765499
 10
13.6784537103
 20
7.2459732801
  0
LWPOLYLINE
  5
580
100
AcDbEntity
  8
0
100
AcDbPolyline
 62
7
  6
CONTINUOUS
 90
9
 70
0
 10
12.9853031913
 20
6.1369516588
 10
13.0210989459
 20
6.1199912969
 10
13.0619370676
 20
6.1073887986
 10
13.1062517573
 20
6.0996277292
 10
13.1523365772
 20
6.0970072821
 10
13.1984213594
 20
6.0996279507
 10
13.2427359371
 20
6.1073892332
 10
13.2835738771
 20
6.1199919278
 10
13.3193693871
 20
6.1369524618
  0
LINE
  5
581
100
AcDbEntity
  8
0
100
AcDbLine
 62
7
  6
CONTINUOUS
 10
13.6367332841
 20
5.7048713533
 11
13.6367027251
 21
5.7048889536
  0
LINE
  5
582
100
AcDbEntity
  8
0
100
AcDbLine
 62
9
  6
CONTINUOUS
 10
13.6422898577
 20
5.6965901491
 11
13.6269751115
 21
5.7054319219
  0
LINE
  5
583
100
AcDbEntity
  8
0
100
AcDbLine
 62
7
  6
CONTINUOUS
 10
11.871744569
 20
6.7798504849
 11
12.9853031913
 21
6.1369516588
  0
LINE
  5
584
100
AcDbEntity
  8
0
100
AcDbLine
 62
9
  6
CONTINUOUS
 10
13.9532725565
 20
5.582360828
 11
13.7687067485
 21
5.6889175363
  0
LINE
  5
585
100
AcDbEntity
  8
0
100
AcDbLine
 62
9
  6
CONTINUOUS
 10
13.9646406883
 20
5.6002923414
 11
13.779313306
 21
5.7072887348
  0
LWPOLYLINE
  5
586
100
AcDbEntity
  8
0
100
AcDbPolyline
 62
7
  6
CONTINUOUS
 90
4
 70
0
 10
13.7168419986
 20
5.4933386947
 10
13.7164597611
 20
5.4936297831
 10
13.7162419655
 20
5.4940262241
 10
13.7160723553
 20
5.4952663437
  0
LWPOLYLINE
  5
587
100
AcDbEntity
  8
0
100
AcDbPolyline
 62
9
  6
CONTINUOUS
 90
5
 70
0
 10
13.3364332423
 20
5.4077721345
 10
13.339004479
 20
5.4038768197
 10
13.3411842656
 20
5.398709957
 10
13.3426407511
 20
5.393058156
 10
13.3431522005
 20
5.3877818499
  0
LWPOLYLINE
  5
588
100
AcDbEntity
  8
0
100
AcDbPolyline
 62
9
  6
CONTINUOUS
 90
3
 70
0
 10
12.6663940421
 20
6.1039874866
 10
12.6657411586
 20
6.1030803862
 10
12.6637610038
 20
6.1023195677
  0
LINE
  5
589
100
AcDbEntity
  8
0
100
AcDbLine
 62
9
  6
CONTINUOUS
 10
12.2279010013
 20
5.5917199685
 11
12.2076753487
 21
5.5649305218
  0
LINE
  5
58A
100
AcDbEntity
  8
0
100
AcDbLine
 62
9
  6
CONTINUOUS
 10
12.2555268192
 20
5.575770556
 11
12.2404636588
 21
5.5558189756
  0
LINE
  5
58B
100
AcDbEntity
  8
0
100
AcDbLine
 62
9
  6
CONTINUOUS
 10
12.2638607655
 20
5.5709590586
 11
12.2314553456
 21
5.5280371669
  0
LINE
  5
58C
100
AcDbEntity
  8
0
100
AcDbLine
 62
7
  6
CONTINUOUS
 10
12.2649957339
 20
5.5703037992
 11
12.2362967808
 21
5.532291227
  0
LINE
  5
58D
100
AcDbEntity
  8
0
100
AcDbLine
 62
7
  6
CONTINUOUS
 10
12.0061506079
 20
5.3733351663
 11
12.1652489713
 21
5.5712568762
  0
LWPOLYLINE
  5
58E
100
AcDbEntity
  8
AXIS_COSMETIC_THREADS
100
AcDbPolyline
 62
7
  6
CONTINUOUS
 90
11
 70
0
 10
12.6762892827
 20
6.5082265339
 10
12.6546228178
 20
6.4984263051
 10
12.6295236206
 20
6.4919044434
 10
12.6024503651
 20
6.4890399756
 10
12.5749764506
 20
6.4899993741
 10
12.5486985611
 20
6.4947268824
 10
12.5251438721
 20
6.5029477546
 10
12.5056812965
 20
6.5141842237
 10
12.4914419284
 20
6.5277832669
 10
12.4832533081
 20
6.5429545572
 10
12.4813881591
 20
6.5548512874
  0
LWPOLYLINE
  5
58F
100
AcDbEntity
  8
0
100
AcDbPolyline
 62
7
  6
CONTINUOUS
 90
5
 70
0
 10
12.2852519293
 20
6.3368769594
 10
12.2795898661
 20
6.334688697
 10
12.2734158113
 20
6.334340905
 10
12.2673845769
 20
6.3359496872
 10
12.2655621777
 20
6.3368797337
  0
LWPOLYLINE
  5
590
100
AcDbEntity
  8
0
100
AcDbPolyline
 62
9
  6
CONTINUOUS
 90
4
 70
0
 10
14.3434923749
 20
6.2238095458
 10
14.3502654257
 20
6.2234219717
 10
14.3566378932
 20
6.2248023546
 10
14.3612977607
 20
6.2276664903
  0
LWPOLYLINE
  5
591
100
AcDbEntity
  8
0
100
AcDbPolyline
 62
9
  6
CONTINUOUS
 90
5
 70
0
 10
14.2917872365
 20
5.9163224791
 10
14.2973838144
 20
5.9146533456
 10
14.3021283594
 20
5.9113737462
 10
14.3052985603
 20
5.9069829725
 10
14.3064117862
 20
5.9021494796
  0
LWPOLYLINE
  5
592
100
AcDbEntity
  8
0
100
AcDbPolyline
 62
9
  6
CONTINUOUS
 90
5
 70
0
 10
13.9646406883
 20
5.820747994
 10
13.9694294548
 20
5.8188894294
 10
13.9750791347
 20
5.81821207
 10
13.9807536923
 20
5.8188161514
 10
13.9856134101
 20
5.8206122826
  0
LWPOLYLINE
  5
593
100
AcDbEntity
  8
0
100
AcDbPolyline
 62
9
  6
CONTINUOUS
 90
6
 70
0
 10
14.1925095981
 20
5.7789981146
 10
14.197186172
 20
5.7771671166
 10
14.2027042316
 20
5.7764649128
 10
14.2082807446
 20
5.7769911486
 10
14.2131243842
 20
5.7786711493
 10
14.2165478209
 20
5.7812665168
  0
LINE
  5
594
100
AcDbEntity
  8
0
100
AcDbLine
 62
9
  6
CONTINUOUS
 10
14.2406505234
 20
5.8169293603
 11
14.2435574339
 21
5.8157407047
  0
LWPOLYLINE
  5
595
100
AcDbEntity
  8
0
100
AcDbPolyline
 62
9
  6
CONTINUOUS
 90
5
 70
0
 10
14.1886958966
 20
5.7567051475
 10
14.1937617338
 20
5.7542142734
 10
14.1980563432
 20
5.7502380359
 10
14.2009259096
 20
5.7453817811
 10
14.2019335673
 20
5.7403848297
  0
LINE
  5
596
100
AcDbEntity
  8
0
100
AcDbLine
 62
9
  6
CONTINUOUS
 10
14.0310539786
 20
5.6272676849
 11
14.0256024377
 21
5.6304150623
  0
LWPOLYLINE
  5
597
100
AcDbEntity
  8
0
100
AcDbPolyline
 62
9
  6
CONTINUOUS
 90
5
 70
0
 10
13.0774221948
 20
5.5736463203
 10
13.0760765584
 20
5.5822347503
 10
13.0722445073
 20
5.5910694477
 10
13.0665094341
 20
5.5988054085
 10
13.0597444517
 20
5.6042648996
  0
LINE
  5
598
100
AcDbEntity
  8
0
100
AcDbLine
 62
9
  6
CONTINUOUS
 10
12.9853031913
 20
6.1369516588
 11
12.9853031913
 21
5.9280041899
  0
LWPOLYLINE
  5
599
100
AcDbEntity
  8
0
100
AcDbPolyline
 62
9
  6
CONTINUOUS
 90
8
 70
0
 10
12.2404636588
 20
5.5558189756
 10
12.2340067352
 20
5.5476435529
 10
12.2272912441
 20
5.539760609
 10
12.2204661518
 20
5.5322343258
 10
12.2135914379
 20
5.5250646702
 10
12.2067377146
 20
5.5182862937
 10
12.1999504772
 20
5.511921667
 10
12.1932356102
 20
5.505971124
  0
LWPOLYLINE
  5
59A
100
AcDbEntity
  8
0
100
AcDbPolyline
 62
9
  6
CONTINUOUS
 90
3
 70
0
 10
12.2237106012
 20
5.4682848315
 10
12.2275426786
 20
5.4726947699
 10
12.2288883166
 20
5.4797294317
  0
LWPOLYLINE
  5
59B
100
AcDbEntity
  8
0
100
AcDbPolyline
 62
7
  6
CONTINUOUS
 90
7
 70
0
 10
11.8470522445
 20
5.5722533524
 10
11.8656014941
 20
5.5857825769
 10
11.8894770911
 20
5.6109867281
 10
11.9099795311
 20
5.6409897882
 10
11.9257116066
 20
5.6737470982
 10
11.9356012027
 20
5.7070263017
 10
11.9359480606
 20
5.7102688223
  0
LINE
  5
59C
100
AcDbEntity
  8
0
100
AcDbLine
 62
7
  6
CONTINUOUS
 10
12.5955576735
 20
6.2173103079
 11
12.5897920553
 21
6.2139825544
  0
LWPOLYLINE
  5
59D
100
AcDbEntity
  8
0
100
AcDbPolyline
 62
9
  6
CONTINUOUS
 90
5
 70
0
 10
14.3377132326
 20
6.0054296272
 10
14.3434923753
 20
6.0033538932
 10
14.3502654265
 20
6.0029663192
 10
14.3566378939
 20
6.0043467023
 10
14.3612977607
 20
6.0072108376
  0
LWPOLYLINE
  5
59E
100
AcDbEntity
  8
0
100
AcDbPolyline
 62
9
  6
CONTINUOUS
 90
3
 70
0
 10
14.1945578606
 20
5.9986518254
 10
14.1971861817
 20
5.9976227772
 10
14.2027042512
 20
5.9969205812
  0
LWPOLYLINE
  5
59F
100
AcDbEntity
  8
0
100
AcDbPolyline
 62
7
  6
CONTINUOUS
 90
3
 70
0
 10
13.7384750354
 20
6.1107407506
 10
13.729160386
 20
6.1150432854
 10
13.7138689241
 20
6.11706208
  0
LINE
  5
5A0
100
AcDbEntity
  8
0
100
AcDbLine
 62
9
  6
CONTINUOUS
 10
13.9646406883
 20
5.820747994
 11
13.9574194477
 21
5.8249170849
  0
LINE
  5
5A1
100
AcDbEntity
  8
0
100
AcDbLine
 62
9
  6
CONTINUOUS
 10
14.1886958966
 20
5.7567051475
 11
14.0259436847
 21
5.8506680551
  0
LINE
  5
5A2
100
AcDbEntity
  8
0
100
AcDbLine
 62
9
  6
CONTINUOUS
 10
14.1925095981
 20
5.7789981146
 11
14.0360942166
 21
5.8693025343
  0
LWPOLYLINE
  5
5A3
100
AcDbEntity
  8
0
100
AcDbPolyline
 62
9
  6
CONTINUOUS
 90
5
 70
0
 10
14.0310539786
 20
5.6272676849
 10
14.0353082402
 20
5.624110442
 10
14.0389148313
 20
5.6195692835
 10
14.0413246796
 20
5.6143355588
 10
14.042170906
 20
5.6092060559
  0
LWPOLYLINE
  5
5A4
100
AcDbEntity
  8
0
100
AcDbPolyline
 62
9
  6
CONTINUOUS
 90
5
 70
0
 10
13.9532725565
 20
5.582360828
 10
13.9571263855
 20
5.5789723931
 10
13.960393504
 20
5.5742352403
 10
13.9625765228
 20
5.5688705581
 10
13.9633430971
 20
5.5636950708
  0
LWPOLYLINE
  5
5A5
100
AcDbEntity
  8
0
100
AcDbPolyline
 62
9
  6
CONTINUOUS
 90
5
 70
0
 10
13.7290784024
 20
5.4913464475
 10
13.7317780318
 20
5.4874894544
 10
13.7340666686
 20
5.482355076
 10
13.7355958877
 20
5.476724974
 10
13.7361328781
 20
5.4714562817
  0
LWPOLYLINE
  5
5A6
100
AcDbEntity
  8
0
100
AcDbPolyline
 62
9
  6
CONTINUOUS
 90
5
 70
0
 10
13.6230562138
 20
5.4627440359
 10
13.6252100154
 20
5.4587398129
 10
13.6270359243
 20
5.4534806194
 10
13.6282559626
 20
5.4477671006
 10
13.6286843821
 20
5.4424690842
  0
LWPOLYLINE
  5
5A7
100
AcDbEntity
  8
0
100
AcDbPolyline
 62
9
  6
CONTINUOUS
 90
5
 70
0
 10
13.2135626087
 20
5.6522465557
 10
13.2122169706
 20
5.6608349914
 10
13.2083849176
 20
5.6696696894
 10
13.202649845
 20
5.6774056471
 10
13.1958848656
 20
5.682865135
  0
LINE
  5
5A8
100
AcDbEntity
  8
0
100
AcDbLine
 62
9
  6
CONTINUOUS
 10
13.2135626087
 20
5.6522465557
 11
13.2135626087
 21
5.5472828124
  0
LINE
  5
5A9
100
AcDbEntity
  8
0
100
AcDbLine
 62
9
  6
CONTINUOUS
 10
13.2135626087
 20
5.3897842114
 11
13.2135626087
 21
5.284820468
  0
LINE
  5
5AA
100
AcDbEntity
  8
0
100
AcDbLine
 62
9
  6
CONTINUOUS
 10
12.2362967808
 20
5.532291227
 11
12.2314553456
 21
5.5280371669
  0
LWPOLYLINE
  5
5AB
100
AcDbEntity
  8
0
100
AcDbPolyline
 62
9
  6
CONTINUOUS
 90
4
 70
0
 10
12.1932356102
 20
5.505971124
 10
12.1859389869
 20
5.5000202566
 10
12.1788413962
 20
5.4933154818
 10
12.1723200097
 20
5.4862660034
  0
LINE
  5
5AC
100
AcDbEntity
  8
0
100
AcDbLine
 62
7
  6
CONTINUOUS
 10
12.4435424506
 20
5.9132977923
 11
12.478450048
 21
5.9374763573
  0
LWPOLYLINE
  5
5AD
100
AcDbEntity
  8
0
100
AcDbPolyline
 62
9
  6
CONTINUOUS
 90
9
 70
0
 10
12.4834500257
 20
5.9369811145
 10
12.4489657167
 20
5.9131501742
 10
12.4158049401
 20
5.8823902855
 10
12.3852182877
 20
5.8458503183
 10
12.3584228409
 20
5.8049780627
 10
12.3364593694
 20
5.7613852482
 10
12.3201369216
 20
5.7167010544
 10
12.3100741338
 20
5.6725999603
 10
12.3066740664
 20
5.6307945757
  0
LWPOLYLINE
  5
5AE
100
AcDbEntity
  8
AXIS_COSMETIC_THREADS
100
AcDbPolyline
 62
7
  6
CONTINUOUS
 90
6
 70
0
 10
13.6395125071
 20
6.6432381647
 10
13.7037076041
 20
6.6866331738
 10
13.7553542011
 20
6.7352917749
 10
13.7931805876
 20
6.7880158317
 10
13.8162553523
 20
6.8435071029
 10
13.8240103181
 20
6.9003977014
  0
LINE
  5
5AF
100
AcDbEntity
  8
0
100
AcDbLine
 62
9
  6
CONTINUOUS
 10
12.4162746018
 20
5.9757639862
 11
12.6536588967
 21
6.1128170547
  0
LINE
  5
5B0
100
AcDbEntity
  8
0
100
AcDbLine
 62
9
  6
CONTINUOUS
 10
12.423345699
 20
5.9635165545
 11
12.6637614589
 21
6.1023198296
  0
LINE
  5
5B1
100
AcDbEntity
  8
0
100
AcDbLine
 62
7
  6
CONTINUOUS
 10
12.717905412
 20
6.0757251509
 11
12.478450048
 21
5.9374763573
  0
LINE
  5
5B2
100
AcDbEntity
  8
0
100
AcDbLine
 62
9
  6
CONTINUOUS
 10
12.7208343206
 20
6.074034183
 11
12.4834500257
 21
5.9369811145
  0
LWPOLYLINE
  5
5B3
100
AcDbEntity
  8
0
100
AcDbPolyline
 62
7
  6
CONTINUOUS
 90
8
 70
0
 10
11.8470522445
 20
5.5557412723
 10
11.8598357121
 20
5.5631217667
 10
11.8846622912
 20
5.5845212392
 10
11.9073030341
 20
5.6113140061
 10
11.9264421431
 20
5.6419429693
 10
11.9409673228
 20
5.6746280846
 10
11.9500344225
 20
5.7074698121
 10
11.9523325307
 20
5.7306514477
  0
LWPOLYLINE
  5
5B4
100
AcDbEntity
  8
0
100
AcDbPolyline
 62
9
  6
CONTINUOUS
 90
5
 70
0
 10
14.3334496528
 20
5.9833963915
 10
14.3385818558
 20
5.9809796405
 10
14.3429327243
 20
5.9770662413
 10
14.3458398779
 20
5.9722519786
 10
14.3468607341
 20
5.9672697829
  0
LINE
  5
5B5
100
AcDbEntity
  8
0
100
AcDbLine
 62
9
  6
CONTINUOUS
 10
13.9629057867
 20
5.8264073771
 11
13.9617903244
 21
5.8274412045
  0
LWPOLYLINE
  5
5B6
100
AcDbEntity
  8
0
100
AcDbPolyline
 62
9
  6
CONTINUOUS
 90
5
 70
0
 10
13.4526099804
 20
5.4318261565
 10
13.4538862942
 20
5.4276627394
 10
13.4549683011
 20
5.4222685877
 10
13.4556912753
 20
5.4164649117
 10
13.4559451501
 20
5.4111352692
  0
LWPOLYLINE
  5
5B7
100
AcDbEntity
  8
0
100
AcDbPolyline
 62
9
  6
CONTINUOUS
 90
6
 70
0
 10
13.3163987122
 20
5.4039416918
 10
13.3176779889
 20
5.396794886
 10
13.3213509611
 20
5.3912466479
 10
13.327169906
 20
5.3876887473
 10
13.3347219108
 20
5.386489541
 10
13.3431522005
 20
5.3877818499
  0
LINE
  5
5B8
100
AcDbEntity
  8
0
100
AcDbLine
 62
7
  6
CONTINUOUS
 10
13.3238771487
 20
5.4114371622
 11
13.3238771494
 21
5.4114343834
  0
LINE
  5
5B9
100
AcDbEntity
  8
0
100
AcDbLine
 62
9
  6
CONTINUOUS
 10
13.3163987122
 20
5.6243973444
 11
13.3163987122
 21
5.4039416918
  0
LINE
  5
5BA
100
AcDbEntity
  8
0
100
AcDbLine
 62
9
  6
CONTINUOUS
 10
13.3193693871
 20
6.1369524618
 11
13.3193693871
 21
5.9280049929
  0
LINE
  5
5BB
100
AcDbEntity
  8
0
100
AcDbLine
 62
7
  6
CONTINUOUS
 10
13.3238771446
 20
5.6318970069
 11
13.3238771494
 21
5.4114343834
  0
LWPOLYLINE
  5
5BC
100
AcDbEntity
  8
0
100
AcDbPolyline
 62
7
  6
CONTINUOUS
 90
7
 70
0
 10
13.3238770069
 20
5.6318970071
 10
13.3238920389
 20
5.6323754004
 10
13.3247063937
 20
5.6359877685
 10
13.3269761072
 20
5.6403788545
 10
13.3307980327
 20
5.6448497057
 10
13.3358069509
 20
5.6485266932
 10
13.3405995205
 20
5.6505606432
  0
LWPOLYLINE
  5
5BD
100
AcDbEntity
  8
0
100
AcDbPolyline
 62
9
  6
CONTINUOUS
 90
3
 70
0
 10
13.0774221948
 20
5.2062202326
 10
13.0760765567
 20
5.1991855708
 10
13.0722445037
 20
5.1947756464
  0
LINE
  5
5BE
100
AcDbEntity
  8
0
100
AcDbLine
 62
9
  6
CONTINUOUS
 10
14.3402441425
 20
6.2249762356
 11
14.3434923749
 21
6.2238095458
  0
LINE
  5
5BF
100
AcDbEntity
  8
0
100
AcDbLine
 62
9
  6
CONTINUOUS
 10
14.3334496528
 20
5.9833963915
 11
14.2408665202
 21
6.0368480788
  0
LINE
  5
5C0
100
AcDbEntity
  8
0
100
AcDbLine
 62
9
  6
CONTINUOUS
 10
14.3377132326
 20
6.0054296272
 11
14.246236759
 21
6.058242399
  0
LWPOLYLINE
  5
5C1
100
AcDbEntity
  8
0
100
AcDbPolyline
 62
9
  6
CONTINUOUS
 90
4
 70
0
 10
14.2435574339
 20
5.8157407047
 10
14.2480682606
 20
5.8120316207
 10
14.2510822994
 20
5.8073538715
 10
14.2521406892
 20
5.8024196023
  0
LWPOLYLINE
  5
5C2
100
AcDbEntity
  8
0
100
AcDbPolyline
 62
9
  6
CONTINUOUS
 90
5
 70
0
 10
13.4559451501
 20
5.7295712119
 10
13.4555220276
 20
5.7384539246
 10
13.4543170748
 20
5.7481267036
 10
13.4525137306
 20
5.7571169674
 10
13.450386534
 20
5.764056024
  0
LWPOLYLINE
  5
5C3
100
AcDbEntity
  8
0
100
AcDbPolyline
 62
9
  6
CONTINUOUS
 90
6
 70
0
 10
13.4134124439
 20
5.6040971941
 10
13.4134330063
 20
5.5998409565
 10
13.4138864543
 20
5.5948825966
 10
13.4147191955
 20
5.5898081349
 10
13.4158328097
 20
5.5852173139
 10
13.4170956805
 20
5.5816527152
  0
LWPOLYLINE
  5
5C4
100
AcDbEntity
  8
0
100
AcDbPolyline
 62
9
  6
CONTINUOUS
 90
3
 70
0
 10
13.4354239269
 20
5.6711619582
 10
13.4354239269
 20
5.6688735091
 10
13.4277022391
 20
5.6000239131
  0
LINE
  5
5C5
100
AcDbEntity
  8
0
100
AcDbLine
 62
9
  6
CONTINUOUS
 10
13.4559451501
 20
5.7295712119
 11
13.4559451501
 21
5.6805810669
  0
LINE
  5
5C6
100
AcDbEntity
  8
0
100
AcDbLine
 62
9
  6
CONTINUOUS
 10
13.4559451501
 20
5.4111352692
 11
13.4559451501
 21
5.3621451242
  0
LWPOLYLINE
  5
5C7
100
AcDbEntity
  8
0
100
AcDbPolyline
 62
9
  6
CONTINUOUS
 90
4
 70
0
 10
13.4559451501
 20
5.3621451242
 10
13.4555220248
 20
5.3554047567
 10
13.4543170667
 20
5.3518329287
 10
13.4536499865
 20
5.3514312935
  0
LINE
  5
5C8
100
AcDbEntity
  8
0
100
AcDbLine
 62
9
  6
CONTINUOUS
 10
13.4206748289
 20
5.6688577654
 11
13.4133992508
 21
5.6040952392
  0
LWPOLYLINE
  5
5C9
100
AcDbEntity
  8
0
100
AcDbPolyline
 62
9
  6
CONTINUOUS
 90
4
 70
0
 10
13.3238771494
 20
5.6318900359
 10
13.323750447
 20
5.6307668097
 10
13.3213595722
 20
5.6270877051
 10
13.3163987122
 20
5.6243973444
  0
LWPOLYLINE
  5
5CA
100
AcDbEntity
  8
0
100
AcDbPolyline
 62
9
  6
CONTINUOUS
 90
3
 70
0
 10
13.3238771494
 20
5.4114343834
 10
13.3237504471
 20
5.4103111577
 10
13.3213595727
 20
5.406632053
  0
LWPOLYLINE
  5
5CB
100
AcDbEntity
  8
0
100
AcDbPolyline
 62
9
  6
CONTINUOUS
 90
3
 70
0
 10
13.2135626087
 20
5.284820468
 10
13.2122169777
 20
5.2777858219
 10
13.208384938
 20
5.2733758936
  0
LINE
  5
5CC
100
AcDbEntity
  8
0
100
AcDbLine
 62
7
  6
CONTINUOUS
 10
13.0533042307
 20
5.5090987405
 11
12.9867600364
 21
5.3375897674
  0
LINE
  5
5CD
100
AcDbEntity
  8
0
100
AcDbLine
 62
9
  6
CONTINUOUS
 10
12.2314553456
 20
5.5280371669
 11
12.1932356102
 21
5.505971124
  0
LINE
  5
5CE
100
AcDbEntity
  8
0
100
AcDbLine
 62
9
  6
CONTINUOUS
 10
12.1723200097
 20
5.4862660034
 11
12.2288883166
 21
5.5189255357
  0
LINE
  5
5CF
100
AcDbEntity
  8
0
100
AcDbLine
 62
7
  6
CONTINUOUS
 10
13.3193693871
 20
6.1369524618
 11
14.5164349383
 21
6.8280744546
  0
LINE
  5
5D0
100
AcDbEntity
  8
0
100
AcDbLine
 62
9
  6
CONTINUOUS
 10
11.9637243777
 20
5.326637874
 11
12.2288883166
 21
5.4797294317
  0
LINE
  5
5D1
100
AcDbEntity
  8
0
100
AcDbLine
 62
7
  6
CONTINUOUS
 10
11.9585465786
 20
5.3151932255
 11
12.2237105175
 21
5.4682847832
  0
LWPOLYLINE
  5
5D2
100
AcDbEntity
  8
0
100
AcDbPolyline
 62
9
  6
CONTINUOUS
 90
5
 70
0
 10
13.6422898577
 20
5.6965901491
 10
13.6416755405
 20
5.6996449751
 10
13.6399621506
 20
5.7023125706
 10
13.637464702
 20
5.7044218553
 10
13.6367332841
 20
5.7048713533
  0
LWPOLYLINE
  5
5D3
100
AcDbEntity
  8
0
100
AcDbPolyline
 62
9
  6
CONTINUOUS
 90
6
 70
0
 10
13.707750145
 20
5.4875137951
 10
13.7090643514
 20
5.4805646181
 10
13.7129104331
 20
5.4749821635
 10
13.7190940524
 20
5.4712779972
 10
13.7271503723
 20
5.4700026194
 10
13.7361328781
 20
5.4714562817
  0
LINE
  5
5D4
100
AcDbEntity
  8
0
100
AcDbLine
 62
9
  6
CONTINUOUS
 10
13.6422898577
 20
5.4761344965
 11
13.6422898577
 21
5.6965901491
  0
LINE
  5
5D5
100
AcDbEntity
  8
0
100
AcDbLine
 62
9
  6
CONTINUOUS
 10
13.6589260212
 20
5.4743285002
 11
13.6589260212
 21
5.6947841528
  0
LWPOLYLINE
  5
5D6
100
AcDbEntity
  8
AXIS_COSMETIC_THREADS
100
AcDbPolyline
 62
7
  6
CONTINUOUS
 90
5
 70
0
 10
13.6784537103
 20
7.2459732801
 10
13.6786568796
 20
7.2499383871
 10
13.6836181289
 20
7.2655689388
 10
13.6949142773
 20
7.2800598143
 10
13.7118888337
 20
7.2925688564
  0
LWPOLYLINE
  5
5D7
100
AcDbEntity
  8
0
100
AcDbPolyline
 62
9
  6
CONTINUOUS
 90
5
 70
0
 10
13.427702238
 20
5.6000239137
 10
13.4268948619
 20
5.5948708485
 10
13.4245956492
 20
5.5895700186
 10
13.4211546343
 20
5.5849284275
 10
13.4170956805
 20
5.5816527152
  0
LINE
  5
5D8
100
AcDbEntity
  8
0
100
AcDbLine
 62
7
  6
CONTINUOUS
 10
13.1863926193
 20
5.3197571108
 11
13.2135626087
 21
5.3897842114
  0
LWPOLYLINE
  5
5D9
100
AcDbEntity
  8
0
100
AcDbPolyline
 62
9
  6
CONTINUOUS
 90
3
 70
0
 10
13.3213497761
 20
5.6403613161
 10
13.31767673
 20
5.6323929172
 10
13.3163987122
 20
5.6243973444
  0
LWPOLYLINE
  5
5DA
100
AcDbEntity
  8
0
100
AcDbPolyline
 62
9
  6
CONTINUOUS
 90
3
 70
0
 10
13.3152923799
 20
5.9189934586
 10
13.3183098254
 20
5.92246588
 10
13.3193693871
 20
5.9280049929
  0
LWPOLYLINE
  5
5DB
100
AcDbEntity
  8
0
100
AcDbPolyline
 62
7
  6
CONTINUOUS
 90
5
 70
0
 10
14.5164349383
 20
6.8280744546
 10
14.5458115669
 20
6.8487408477
 10
14.5676400463
 20
6.8723184112
 10
14.581082805
 20
6.8979031435
 10
14.5856216174
 20
6.9245092822
  0
LINE
  5
5DC
100
AcDbEntity
  8
0
100
AcDbLine
 62
9
  6
CONTINUOUS
 10
14.5164349383
 20
6.6191269857
 11
13.3193693871
 21
5.9280049929
  0
LINE
  5
5DD
100
AcDbEntity
  8
0
100
AcDbLine
 62
7
  6
CONTINUOUS
 10
14.5123579311
 20
6.6101154514
 11
13.3152923799
 21
5.9189934586
  0
LWPOLYLINE
  5
5DE
100
AcDbEntity
  8
0
100
AcDbPolyline
 62
9
  6
CONTINUOUS
 90
10
 70
0
 10
13.3193693871
 20
5.9280049929
 10
13.2975963991
 20
5.9168938298
 10
13.2700961078
 20
5.9062149266
 10
13.236558007
 20
5.8970227796
 10
13.1971505488
 20
5.8905366261
 10
13.15300445
 20
5.8880603598
 10
13.108719471
 20
5.8904047413
 10
13.0689891911
 20
5.8968309195
 10
13.0351229951
 20
5.906033573
 10
13.0073269358
 20
5.9167804675
  0
LINE
  5
5DF
100
AcDbEntity
  8
0
100
AcDbLine
 62
9
  6
CONTINUOUS
 10
11.9393444109
 20
5.3147319915
 11
11.9637243777
 21
5.326637874
  0
LWPOLYLINE
  5
5E0
100
AcDbEntity
  8
0
100
AcDbPolyline
 62
7
  6
CONTINUOUS
 90
9
 70
0
 10
13.3152923799
 20
5.9189934586
 10
13.2796156752
 20
5.9020871174
 10
13.2395461826
 20
5.8897403299
 10
13.1965859667
 20
5.8822430144
 10
13.1521787796
 20
5.8797398052
 10
13.1077984188
 20
5.8822758771
 10
13.0649164044
 20
5.8897901302
 10
13.0249717799
 20
5.9021193956
 10
12.9893802055
 20
5.9189926516
  0
LWPOLYLINE
  5
5E1
100
AcDbEntity
  8
0
100
AcDbPolyline
 62
7
  6
CONTINUOUS
 90
4
 70
0
 10
13.6769595218
 20
6.0744647209
 10
13.5934534369
 20
6.0379081755
 10
13.5013486985
 20
6.0087553083
 10
13.4528239518
 20
5.9983968747
  0
LWPOLYLINE
  5
5E2
100
AcDbEntity
  8
0
100
AcDbPolyline
 62
9
  6
CONTINUOUS
 90
5
 70
0
 10
11.8046260143
 20
5.4184959832
 10
11.7965154823
 20
5.4153671703
 10
11.7869484126
 20
5.4142684517
 10
11.7773813035
 20
5.4153671121
 10
11.7692706752
 20
5.4184958983
  0
LWPOLYLINE
  5
5E3
100
AcDbEntity
  8
0
100
AcDbPolyline
 62
9
  6
CONTINUOUS
 90
7
 70
0
 10
13.5651825358
 20
6.0254768127
 10
13.6076574629
 20
6.0407904201
 10
13.6459047442
 20
6.0567445823
 10
13.6813193594
 20
6.0736280811
 10
13.714603485
 20
6.0916650932
 10
13.7458442185
 20
6.1108818471
 10
13.7750869816
 20
6.1313286385
  0
LINE
  5
5E4
100
AcDbEntity
  8
0
100
AcDbLine
 62
7
  6
CONTINUOUS
 10
14.6006002937
 20
6.1362454186
 11
14.4320075213
 21
6.2335802991
  0
LWPOLYLINE
  5
5E5
100
AcDbEntity
  8
0
100
AcDbPolyline
 62
9
  6
CONTINUOUS
 90
9
 70
0
 10
13.6589260212
 20
5.6947841528
 10
13.6579513084
 20
5.7007416592
 10
13.6552387201
 20
5.7056332477
 10
13.6512970019
 20
5.7091969419
 10
13.6467360723
 20
5.7114487597
 10
13.6419811442
 20
5.7126199053
 10
13.6372877364
 20
5.7129548232
 10
13.6328196155
 20
5.7126614496
 10
13.6286843821
 20
5.7119148818
  0
LWPOLYLINE
  5
5E6
100
AcDbEntity
  8
0
100
AcDbPolyline
 62
9
  6
CONTINUOUS
 90
6
 70
0
 10
13.7589262101
 20
5.7095019316
 10
13.758980812
 20
5.7052560783
 10
13.7601849067
 20
5.7005267157
 10
13.762396184
 20
5.6958727994
 10
13.7653532967
 20
5.6918443684
 10
13.7687067485
 20
5.6889175363
  0
LINE
  5
5E7
100
AcDbEntity
  8
0
100
AcDbLine
 62
9
  6
CONTINUOUS
 10
13.707750145
 20
5.7079694477
 11
13.707750145
 21
5.4875137951
  0
LINE
  5
5E8
100
AcDbEntity
  8
0
100
AcDbLine
 62
7
  6
CONTINUOUS
 10
13.7160724312
 20
5.7157240803
 11
13.7160724308
 21
5.4952663437
  0
LWPOLYLINE
  5
5E9
100
AcDbEntity
  8
0
100
AcDbPolyline
 62
7
  6
CONTINUOUS
 90
8
 70
0
 10
13.7160722651
 20
5.7157256448
 10
13.7160786237
 20
5.7160107175
 10
13.7166911386
 20
5.7189534447
 10
13.718511451
 20
5.7226838294
 10
13.7216829915
 20
5.7267296903
 10
13.7260931378
 20
5.7305140045
 10
13.7310638719
 20
5.7333096334
 10
13.7334860877
 20
5.7342069172
  0
LINE
  5
5EA
100
AcDbEntity
  8
0
100
AcDbLine
 62
7
  6
CONTINUOUS
 10
13.6621390728
 20
6.0807098564
 11
13.6534648936
 21
6.0641794531
  0
LWPOLYLINE
  5
5EB
100
AcDbEntity
  8
0
100
AcDbPolyline
 62
9
  6
CONTINUOUS
 90
6
 70
0
 10
13.7750869816
 20
6.1313286385
 10
13.8027201921
 20
6.153411009
 10
13.8292439342
 20
6.177934361
 10
13.8549666686
 20
6.2061005777
 10
13.8795762804
 20
6.2393817127
 10
13.8839894971
 20
6.2473289324
  0
LWPOLYLINE
  5
5EC
100
AcDbEntity
  8
0
100
AcDbPolyline
 62
7
  6
CONTINUOUS
 90
3
 70
0
 10
13.811307839
 20
6.1663397672
 10
13.7500522325
 20
6.1175678861
 10
13.6769595218
 20
6.0744647209
  0
LINE
  5
5ED
100
AcDbEntity
  8
0
100
AcDbLine
 62
7
  6
CONTINUOUS
 10
14.543975266
 20
6.6326669989
 11
14.5123579311
 21
6.6101154514
  0
LWPOLYLINE
  5
5EE
100
AcDbEntity
  8
0
100
AcDbPolyline
 62
9
  6
CONTINUOUS
 90
18
 70
0
 10
13.0597444517
 20
5.6042648996
 10
13.0465491553
 20
5.5960771741
 10
13.0326480527
 20
5.586208654
 10
13.0177543172
 20
5.5741798428
 10
13.0016852218
 20
5.5594211145
 10
12.9843780676
 20
5.5412713716
 10
12.9659531933
 20
5.5190150179
 10
12.9467884194
 20
5.491942929
 10
12.9276450845
 20
5.4595178072
 10
12.9099169752
 20
5.4219676442
 10
12.8954877161
 20
5.380756494
 10
12.8860864427
 20
5.3380475005
 10
12.8829730852
 20
5.2966094861
 10
12.8865705522
 20
5.25916084
 10
12.896367949
 20
5.2278574684
 10
12.9110411253
 20
5.2039091703
 10
12.9288377912
 20
5.1873820094
 10
12.9347465725
 20
5.1836317199
  0
LINE
  5
5EF
100
AcDbEntity
  8
0
100
AcDbLine
 62
9
  6
CONTINUOUS
 10
14.5588045865
 20
6.4697425058
 11
14.4226641726
 21
6.3911422703
  0
LINE
  5
5F0
100
AcDbEntity
  8
0
100
AcDbLine
 62
9
  6
CONTINUOUS
 10
13.1958848656
 20
5.682865135
 11
13.0597444517
 21
5.6042648996
  0
LWPOLYLINE
  5
5F1
100
AcDbEntity
  8
0
100
AcDbPolyline
 62
9
  6
CONTINUOUS
 90
5
 70
0
 10
12.2404636588
 20
5.5558189756
 10
12.2325485546
 20
5.5533837422
 10
12.2235379542
 20
5.5542601598
 10
12.2148036367
 20
5.5583148428
 10
12.2076753487
 20
5.5649305218
  0
LINE
  5
5F2
100
AcDbEntity
  8
0
100
AcDbLine
 62
7
  6
CONTINUOUS
 10
14.667144488
 20
6.3077543917
 11
14.5518836111
 21
6.3742987846
  0
LWPOLYLINE
  5
5F3
100
AcDbEntity
  8
0
100
AcDbPolyline
 62
7
  6
CONTINUOUS
 90
3
 70
0
 10
14.0258753067
 20
5.624524403
 10
14.0258322257
 20
5.6246685884
 10
14.0256024469
 20
5.626827568
  0
LWPOLYLINE
  5
5F4
100
AcDbEntity
  8
0
100
AcDbPolyline
 62
9
  6
CONTINUOUS
 90
5
 70
0
 10
13.9646406883
 20
5.820747994
 10
13.9645553023
 20
5.8222202246
 10
13.9642653786
 20
5.8237092802
 10
13.9637261231
 20
5.8251344975
 10
13.9629057867
 20
5.8264073771
  0
LWPOLYLINE
  5
5F5
100
AcDbEntity
  8
AXIS_COSMETIC_THREADS
100
AcDbPolyline
 62
7
  6
CONTINUOUS
 90
5
 70
0
 10
13.9067899574
 20
7.2459441029
 10
13.906586788
 20
7.2419789959
 10
13.9016255387
 20
7.2263484442
 10
13.8903293903
 20
7.2118575688
 10
13.8733548339
 20
7.1993485266
  0
LWPOLYLINE
  5
5F6
100
AcDbEntity
  8
0
100
AcDbPolyline
 62
9
  6
CONTINUOUS
 90
3
 70
0
 10
13.7630814006
 20
5.7442342251
 10
13.7629254445
 20
5.7420733806
 10
13.7589270416
 20
5.7095023535
  0
LWPOLYLINE
  5
5F7
100
AcDbEntity
  8
0
100
AcDbPolyline
 62
9
  6
CONTINUOUS
 90
3
 70
0
 10
13.7841734966
 20
5.751380599
 10
13.7833856684
 20
5.7404612763
 10
13.779313306
 20
5.7072887348
  0
LWPOLYLINE
  5
5F8
100
AcDbEntity
  8
0
100
AcDbPolyline
 62
9
  6
CONTINUOUS
 90
5
 70
0
 10
13.779313306
 20
5.7072887348
 10
13.7785059299
 20
5.7021356696
 10
13.7762067172
 20
5.6968348397
 10
13.7727657023
 20
5.6921932486
 10
13.7687067485
 20
5.6889175363
  0
LWPOLYLINE
  5
5F9
100
AcDbEntity
  8
0
100
AcDbPolyline
 62
9
  6
CONTINUOUS
 90
4
 70
0
 10
13.7160724312
 20
5.7157240803
 10
13.7151553369
 20
5.7127424138
 10
13.7122454891
 20
5.7099459632
 10
13.707750145
 20
5.7079694477
  0
LWPOLYLINE
  5
5FA
100
AcDbEntity
  8
0
100
AcDbPolyline
 62
7
  6
CONTINUOUS
 90
3
 70
0
 10
13.871520466
 20
6.2401299769
 10
13.8593759899
 20
6.2197177268
 10
13.811307839
 20
6.1663397672
  0
LWPOLYLINE
  5
5FB
100
AcDbEntity
  8
0
100
AcDbPolyline
 62
9
  6
CONTINUOUS
 90
3
 70
0
 10
13.3347406992
 20
5.653538575
 10
13.327179074
 20
5.6476637702
 10
13.3213497761
 20
5.6403613161
  0
LWPOLYLINE
  5
5FC
100
AcDbEntity
  8
0
100
AcDbPolyline
 62
9
  6
CONTINUOUS
 90
5
 70
0
 10
14.4226641726
 20
6.3911422703
 10
14.3747417517
 20
6.3593272948
 10
14.3343813521
 20
6.3234091093
 10
14.3031884048
 20
6.2845645821
 10
14.2820375366
 20
6.2442070881
  0
LWPOLYLINE
  5
5FD
100
AcDbEntity
  8
0
100
AcDbPolyline
 62
9
  6
CONTINUOUS
 90
5
 70
0
 10
14.4403419157
 20
6.3605236911
 10
14.3946877341
 20
6.3302131214
 10
14.3562640455
 20
6.2960169702
 10
14.3265650262
 20
6.2590355536
 10
14.3064117862
 20
6.2205854223
  0
LWPOLYLINE
  5
5FE
100
AcDbEntity
  8
0
100
AcDbPolyline
 62
9
  6
CONTINUOUS
 90
24
 70
0
 10
13.0774221948
 20
5.5736463203
 10
13.0655513876
 20
5.5662806568
 10
13.0530402821
 20
5.5573993382
 10
13.0396359306
 20
5.5465739195
 10
13.0251739095
 20
5.5332917877
 10
13.0095978267
 20
5.5169581169
 10
12.99301601
 20
5.4969290698
 10
12.9757686005
 20
5.4725669118
 10
12.9585405848
 20
5.4433883973
 10
12.9425852181
 20
5.4095972944
 10
12.9295970632
 20
5.3725090512
 10
12.921132806
 20
5.3340689491
 10
12.9183279185
 20
5.2967690113
 10
12.9215646575
 20
5.2630578948
 10
12.9303837617
 20
5.2348787018
 10
12.9435922933
 20
5.2133224138
 10
12.9596113136
 20
5.1984482031
 10
12.9767598642
 20
5.1895501581
 10
12.9938507866
 20
5.1853569392
 10
13.0102516916
 20
5.1846158092
 10
13.0256454325
 20
5.1863278643
 10
13.0399416177
 20
5.1897516164
 10
13.0532081146
 20
5.1943805144
 10
13.0656161358
 20
5.199910551
  0
LWPOLYLINE
  5
5FF
100
AcDbEntity
  8
0
100
AcDbPolyline
 62
9
  6
CONTINUOUS
 90
4
 70
0
 10
13.4545680519
 20
5.6741527685
 10
13.4549683034
 20
5.6743937533
 10
13.455691276
 20
5.6765368536
 10
13.4559451501
 20
5.6805810669
  0
LINE
  5
600
100
AcDbEntity
  8
0
100
AcDbLine
 62
9
  6
CONTINUOUS
 10
14.5764823297
 20
6.4391239265
 11
14.4403419157
 21
6.3605236911
  0
LINE
  5
601
100
AcDbEntity
  8
0
100
AcDbLine
 62
9
  6
CONTINUOUS
 10
13.2135626087
 20
5.6522465557
 11
13.0774221948
 21
5.5736463203
  0
LINE
  5
602
100
AcDbEntity
  8
0
100
AcDbLine
 62
7
  6
CONTINUOUS
 10
14.6006002937
 20
6.4024252066
 11
14.4675119051
 21
6.3255870483
  0
LINE
  5
603
100
AcDbEntity
  8
0
100
AcDbLine
 62
7
  6
CONTINUOUS
 10
13.1863926193
 20
5.5859368988
 11
13.0533042307
 21
5.5090987405
  0
LWPOLYLINE
  5
604
100
AcDbEntity
  8
0
100
AcDbPolyline
 62
9
  6
CONTINUOUS
 90
4
 70
0
 10
13.3406011418
 20
5.6505610721
 10
13.3411842716
 20
5.6508351339
 10
13.3426407554
 20
5.6531301064
 10
13.3431522005
 20
5.6572276475
  0
LINE
  5
605
100
AcDbEntity
  8
0
100
AcDbLine
 62
9
  6
CONTINUOUS
 10
13.3431522005
 20
5.6572276475
 11
13.3347406992
 21
5.653538575
  0
LWPOLYLINE
  5
606
100
AcDbEntity
  8
0
100
AcDbPolyline
 62
9
  6
CONTINUOUS
 90
9
 70
0
 10
14.6835537974
 20
6.4822674723
 10
14.6717606188
 20
6.4878501479
 10
14.6525958449
 20
6.4927927942
 10
14.6341709706
 20
6.4937740626
 10
14.6168638164
 20
6.4919393445
 10
14.600794721
 20
6.4881431905
 10
14.5859009855
 20
6.4829742998
 10
14.5719998829
 20
6.4767913051
 10
14.5588045865
 20
6.4697425058
  0
LINE
  5
607
100
AcDbEntity
  8
0
100
AcDbLine
 62
9
  6
CONTINUOUS
 10
14.4140127907
 20
6.553336197
 11
14.5588045865
 21
6.4697425058
  0
LINE
  5
608
100
AcDbEntity
  8
0
100
AcDbLine
 62
7
  6
CONTINUOUS
 10
14.4872344647
 20
6.5956104978
 11
14.6838024657
 21
6.4821244769
  0
LWPOLYLINE
  5
609
100
AcDbEntity
  8
AXIS_COSMETIC_THREADS
100
AcDbPolyline
 62
7
  6
CONTINUOUS
 90
15
 70
0
 10
13.8106686882
 20
6.8300720323
 10
13.8106030683
 20
6.8303759547
 10
13.7809171367
 20
6.8879437479
 10
13.735224065
 20
6.9419054155
 10
13.6747702408
 20
6.9907890236
 10
13.6012046871
 20
7.033261155
 10
13.5165340803
 20
7.0681632807
 10
13.4230680138
 20
7.0945433615
 10
13.3233559983
 20
7.1116818177
 10
13.2201179177
 20
7.1191111568
 10
13.1161698376
 20
7.1166287259
 10
13.0143471908
 20
7.1043022392
 10
12.9174274335
 20
7.0824679311
 10
12.8280542842
 20
7.0517213847
 10
12.7486656093
 20
7.0129012855
  0
LWPOLYLINE
  5
60A
100
AcDbEntity
  8
AXIS_COSMETIC_THREADS
100
AcDbPolyline
 62
7
  6
CONTINUOUS
 90
16
 70
0
 10
13.8240103181
 20
6.9003977014
 10
13.8162545318
 20
6.9572912784
 10
13.7931789667
 20
7.0127824387
 10
13.7553518198
 20
7.0655063136
 10
13.703704521
 20
7.1141646664
 10
13.6395087982
 20
7.1575593669
 10
13.5643453631
 20
7.1946218935
 10
13.480064989
 20
7.2244396439
 10
13.3887429384
 20
7.2462784061
 10
13.2926278632
 20
7.2596004373
 10
13.1940864356
 20
7.2640777049
 10
13.0955450726
 20
7.2595999636
 10
12.9994301896
 20
7.2462774704
 10
12.9081084539
 20
7.2244382691
 10
12.8238285098
 20
7.1946201135
 10
12.7486656093
 20
7.1575572255
  0
LWPOLYLINE
  5
60B
100
AcDbEntity
  8
0
100
AcDbPolyline
 62
9
  6
CONTINUOUS
 90
11
 70
0
 10
13.9856134101
 20
5.8206122826
 10
13.9854440881
 20
5.8235530374
 10
13.9848695114
 20
5.8265191747
 10
13.9838018417
 20
5.8293472039
 10
13.9821801159
 20
5.831857925
 10
13.9799795803
 20
5.8338756772
 10
13.9772154938
 20
5.8352456085
 10
13.9739693285
 20
5.8358448266
 10
13.9704190463
 20
5.8356269065
 10
13.9667971641
 20
5.8346649268
 10
13.9633430971
 20
5.8331408685
  0
LWPOLYLINE
  5
60C
100
AcDbEntity
  8
0
100
AcDbPolyline
 62
9
  6
CONTINUOUS
 90
11
 70
0
 10
14.0214442323
 20
5.6208434414
 10
14.0216060924
 20
5.6179069946
 10
14.0221548476
 20
5.614955765
 10
14.0231724881
 20
5.6121566196
 10
14.0247131471
 20
5.6096927013
 10
14.0267939498
 20
5.6077440754
 10
14.0293918811
 20
5.6064700717
 10
14.0324207157
 20
5.6059963267
 10
14.0357061494
 20
5.6063671536
 10
14.0390289431
 20
5.6075018083
 10
14.042170906
 20
5.6092060559
  0
LINE
  5
60D
100
AcDbEntity
  8
0
100
AcDbLine
 62
9
  6
CONTINUOUS
 10
13.9646406883
 20
5.6002923414
 11
13.9646406883
 21
5.820747994
  0
LINE
  5
60E
100
AcDbEntity
  8
0
100
AcDbLine
 62
9
  6
CONTINUOUS
 10
13.9856134101
 20
5.60015663
 11
13.9856134101
 21
5.8206122826
  0
LINE
  5
60F
100
AcDbEntity
  8
0
100
AcDbLine
 62
9
  6
CONTINUOUS
 10
14.0214442323
 20
5.841299094
 11
14.0214442323
 21
5.6208434414
  0
LINE
  5
610
100
AcDbEntity
  8
0
100
AcDbLine
 62
7
  6
CONTINUOUS
 10
14.025602437
 20
5.8472865152
 11
14.0256024377
 21
5.6268282114
  0
LWPOLYLINE
  5
611
100
AcDbEntity
  8
0
100
AcDbPolyline
 62
7
  6
CONTINUOUS
 90
7
 70
0
 10
14.0256024444
 20
5.8472865152
 10
14.0259154688
 20
5.8505650369
 10
14.0272996605
 20
5.8556188053
 10
14.02984508
 20
5.8611469977
 10
14.0332014454
 20
5.8661860632
 10
14.0366852629
 20
5.8699392865
 10
14.0391132411
 20
5.8718149272
  0
LWPOLYLINE
  5
612
100
AcDbEntity
  8
0
100
AcDbPolyline
 62
9
  6
CONTINUOUS
 90
4
 70
0
 10
13.7160724308
 20
5.4952663437
 10
13.715155329
 20
5.4922867326
 10
13.7122454776
 20
5.4894902926
 10
13.707750145
 20
5.4875137951
  0
LWPOLYLINE
  5
613
100
AcDbEntity
  8
0
100
AcDbPolyline
 62
9
  6
CONTINUOUS
 90
3
 70
0
 10
13.7129078315
 20
5.7234786005
 10
13.7090632879
 20
5.7156705817
 10
13.707750145
 20
5.7079694477
  0
LWPOLYLINE
  5
614
100
AcDbEntity
  8
0
100
AcDbPolyline
 62
9
  6
CONTINUOUS
 90
3
 70
0
 10
14.5123579311
 20
6.6101154514
 10
14.5153753808
 20
6.6135878819
 10
14.5164349383
 20
6.6191269857
  0
LWPOLYLINE
  5
615
100
AcDbEntity
  8
0
100
AcDbPolyline
 62
9
  6
CONTINUOUS
 90
3
 70
0
 10
13.7271577565
 20
5.7368926193
 10
13.7190963248
 20
5.7308116635
 10
13.7129078315
 20
5.7234786005
  0
LINE
  5
616
100
AcDbEntity
  8
0
100
AcDbLine
 62
7
  6
CONTINUOUS
 10
14.0391132408
 20
5.8718149276
 11
14.0391158727
 21
5.8718166039
  0
LINE
  5
617
100
AcDbEntity
  8
0
100
AcDbLine
 62
7
  6
CONTINUOUS
 10
13.9602242513
 20
5.8262672144
 11
13.9602293776
 21
5.8262698997
  0
LWPOLYLINE
  5
618
100
AcDbEntity
  8
0
100
AcDbPolyline
 62
9
  6
CONTINUOUS
 90
4
 70
0
 10
13.9633430971
 20
5.8331408685
 10
13.8920738557
 20
5.7988346894
 10
13.8161510527
 20
5.7680132251
 10
13.7361328781
 20
5.7409020793
  0
LWPOLYLINE
  5
619
100
AcDbEntity
  8
0
100
AcDbPolyline
 62
7
  6
CONTINUOUS
 90
3
 70
0
 10
13.9602242513
 20
5.8262672144
 10
13.8890076411
 20
5.7919861497
 10
13.813259412
 20
5.7612354198
  0
LWPOLYLINE
  5
61A
100
AcDbEntity
  8
0
100
AcDbPolyline
 62
9
  6
CONTINUOUS
 90
4
 70
0
 10
13.6264736223
 20
5.705336779
 10
13.6270359293
 20
5.7056057411
 10
13.6282559632
 20
5.7078390026
 10
13.6286843821
 20
5.7119148818
  0
LWPOLYLINE
  5
61B
100
AcDbEntity
  8
0
100
AcDbPolyline
 62
9
  6
CONTINUOUS
 90
4
 70
0
 10
13.7334894268
 20
5.7342079428
 10
13.7340666699
 20
5.7344802377
 10
13.7355958881
 20
5.7367969105
 10
13.7361328781
 20
5.7409020793
  0
LINE
  5
61C
100
AcDbEntity
  8
0
100
AcDbLine
 62
9
  6
CONTINUOUS
 10
13.7589262101
 20
5.7095019316
 11
13.7160724312
 21
5.690036801
  0
LINE
  5
61D
100
AcDbEntity
  8
0
100
AcDbLine
 62
9
  6
CONTINUOUS
 10
13.7687067485
 20
5.6889175363
 11
13.7160724312
 21
5.6650124586
  0
LINE
  5
61E
100
AcDbEntity
  8
0
100
AcDbLine
 62
9
  6
CONTINUOUS
 10
13.7361328781
 20
5.7409020793
 11
13.7271577565
 21
5.7368926193
  0
LWPOLYLINE
  5
61F
100
AcDbEntity
  8
0
100
AcDbPolyline
 62
7
  6
CONTINUOUS
 90
3
 70
0
 10
13.9602293782
 20
5.8262698987
 10
13.9623198992
 20
5.8271157706
 10
13.9628479879
 20
5.8272144752
  0
LINE
  5
620
100
AcDbEntity
  8
0
100
AcDbLine
 62
7
  6
CONTINUOUS
 10
13.813259412
 20
5.7612354198
 11
13.7334894268
 21
5.7342079428
  0
LWPOLYLINE
  5
621
100
AcDbEntity
  8
0
100
AcDbPolyline
 62
9
  6
CONTINUOUS
 90
5
 70
0
 10
13.7589262101
 20
5.7095019316
 10
13.76365297
 20
5.7109642013
 10
13.7692087425
 20
5.711086634
 10
13.774695314
 20
5.7097966336
 10
13.779313306
 20
5.7072887348
  0
LINE
  5
622
100
AcDbEntity
  8
0
100
AcDbLine
 62
7
  6
CONTINUOUS
 10
13.7334860874
 20
5.7342069182
 11
13.7334894268
 21
5.7342079428
  0
LINE
  5
623
100
AcDbEntity
  8
0
100
AcDbLine
 62
7
  6
CONTINUOUS
 10
14.4403419157
 20
6.0980613467
 11
14.4675119051
 21
6.0594072603
  0
LWPOLYLINE
  5
624
100
AcDbEntity
  8
0
100
AcDbPolyline
 62
7
  6
CONTINUOUS
 90
3
 70
0
 10
14.2409731638
 20
5.8092617501
 10
14.2409358024
 20
5.8094108894
 10
14.2407315591
 20
5.8108580923
  0
LWPOLYLINE
  5
625
100
AcDbEntity
  8
0
100
AcDbPolyline
 62
9
  6
CONTINUOUS
 90
6
 70
0
 10
14.2165478209
 20
6.0017221694
 10
14.2158933906
 20
6.0082904332
 10
14.2139659014
 20
6.0127652129
 10
14.2108283784
 20
6.0147107545
 10
14.2066686766
 20
6.0137364697
 10
14.2019335673
 20
6.0098306273
  0
LWPOLYLINE
  5
626
100
AcDbEntity
  8
0
100
AcDbPolyline
 62
9
  6
CONTINUOUS
 90
9
 70
0
 10
14.2393853416
 20
5.8094548446
 10
14.2398126881
 20
5.8038133531
 10
14.2409962233
 20
5.7998045439
 10
14.2427010032
 20
5.7975323174
 10
14.2446514572
 20
5.7967876242
 10
14.2466597302
 20
5.7972022249
 10
14.2486169914
 20
5.7984469862
 10
14.2504573273
 20
5.8002574779
 10
14.2521406892
 20
5.8024196023
  0
LINE
  5
627
100
AcDbEntity
  8
0
100
AcDbLine
 62
7
  6
CONTINUOUS
 10
14.2407315591
 20
5.8108580923
 11
14.2406505136
 21
5.8129342718
  0
LINE
  5
628
100
AcDbEntity
  8
0
100
AcDbLine
 62
9
  6
CONTINUOUS
 10
14.1925095981
 20
5.7789981146
 11
14.1925095981
 21
5.996636381
  0
LINE
  5
629
100
AcDbEntity
  8
0
100
AcDbLine
 62
9
  6
CONTINUOUS
 10
14.2165478209
 20
5.7812665168
 11
14.2165478209
 21
6.0017221694
  0
LWPOLYLINE
  5
62A
100
AcDbEntity
  8
0
100
AcDbPolyline
 62
9
  6
CONTINUOUS
 90
4
 70
0
 10
14.0232897932
 20
5.8524594171
 10
14.0222073796
 20
5.8483027722
 10
14.0216186306
 20
5.8445534987
 10
14.0214442323
 20
5.841299094
  0
LWPOLYLINE
  5
62B
100
AcDbEntity
  8
0
100
AcDbPolyline
 62
9
  6
CONTINUOUS
 90
3
 70
0
 10
14.0256024377
 20
5.847283864
 10
14.0245552263
 20
5.8441048274
 10
14.0214442323
 20
5.841299094
  0
LWPOLYLINE
  5
62C
100
AcDbEntity
  8
0
100
AcDbPolyline
 62
9
  6
CONTINUOUS
 90
5
 70
0
 10
14.0327344728
 20
5.8699821638
 10
14.029709874
 20
5.865855578
 10
14.0270642106
 20
5.8614163735
 10
14.0249086265
 20
5.8568867914
 10
14.0232897932
 20
5.8524594171
  0
LWPOLYLINE
  5
62D
100
AcDbEntity
  8
0
100
AcDbPolyline
 62
9
  6
CONTINUOUS
 90
4
 70
0
 10
14.3468607341
 20
6.2367155805
 10
14.330381652
 20
6.2156609132
 10
14.3168636779
 20
6.1938978101
 10
14.3064117862
 20
6.1715952772
  0
LWPOLYLINE
  5
62E
100
AcDbEntity
  8
0
100
AcDbPolyline
 62
9
  6
CONTINUOUS
 90
3
 70
0
 10
14.0391158727
 20
5.8718166039
 10
14.0413246803
 20
5.8744074957
 10
14.042170906
 20
5.8786518535
  0
LWPOLYLINE
  5
62F
100
AcDbEntity
  8
0
100
AcDbPolyline
 62
9
  6
CONTINUOUS
 90
3
 70
0
 10
13.9602293776
 20
5.8262698997
 10
13.9625765222
 20
5.8289424957
 10
13.9633430971
 20
5.8331408685
  0
LINE
  5
630
100
AcDbEntity
  8
0
100
AcDbLine
 62
7
  6
CONTINUOUS
 10
14.344778975
 20
6.2307637674
 11
14.3453891071
 21
6.2313982969
  0
LWPOLYLINE
  5
631
100
AcDbEntity
  8
0
100
AcDbPolyline
 62
9
  6
CONTINUOUS
 90
4
 70
0
 10
14.2019335673
 20
6.0098306273
 10
14.1549770707
 20
5.9636337949
 10
14.1015910618
 20
5.919798757
 10
14.042170906
 20
5.8786518535
  0
LWPOLYLINE
  5
632
100
AcDbEntity
  8
0
100
AcDbPolyline
 62
7
  6
CONTINUOUS
 90
3
 70
0
 10
14.2004922672
 20
6.0044934501
 10
14.1524399994
 20
5.957208794
 10
14.0987769942
 20
5.9131356366
  0
LWPOLYLINE
  5
633
100
AcDbEntity
  8
0
100
AcDbPolyline
 62
9
  6
CONTINUOUS
 90
4
 70
0
 10
14.042170906
 20
5.8786518535
 10
14.0391693013
 20
5.8764818534
 10
14.0359576024
 20
5.8735748016
 10
14.0327344728
 20
5.8699821638
  0
LINE
  5
634
100
AcDbEntity
  8
0
100
AcDbLine
 62
7
  6
CONTINUOUS
 10
14.0987769942
 20
5.9131356366
 11
14.0391158727
 21
5.8718166039
  0
LINE
  5
635
100
AcDbEntity
  8
0
100
AcDbLine
 62
9
  6
CONTINUOUS
 10
14.3946877341
 20
5.9627870337
 11
14.4403419157
 21
5.9930976033
  0
LWPOLYLINE
  5
636
100
AcDbEntity
  8
0
100
AcDbPolyline
 62
9
  6
CONTINUOUS
 90
25
 70
0
 10
14.5764823297
 20
6.0716978388
 10
14.5882883887
 20
6.0790205384
 10
14.6006964099
 20
6.0878179652
 10
14.6139629068
 20
6.0985078068
 10
14.6282590919
 20
6.111591769
 10
14.6436528328
 20
6.1276547686
 10
14.6600537379
 20
6.1473339195
 10
14.6771446603
 20
6.1712619179
 10
14.6942932108
 20
6.1999612852
 10
14.7103122312
 20
6.2333325569
 10
14.7235207627
 20
6.2701406523
 10
14.732339867
 20
6.308503209
 10
14.7355766059
 20
6.3459517674
 10
14.7327717184
 20
6.3800129195
 10
14.7243074612
 20
6.4086793975
 10
14.7113193064
 20
6.4307703009
 10
14.6953639397
 20
6.4461378432
 10
14.6781359239
 20
6.4554232774
 10
14.6608885144
 20
6.4598699612
 10
14.6443066978
 20
6.46075209
 10
14.6287306149
 20
6.4591001569
 10
14.6142685939
 20
6.4556830848
 10
14.6008642424
 20
6.4510305842
 10
14.5883531368
 20
6.4454654085
 10
14.5764823297
 20
6.4391239265
  0
LINE
  5
637
100
AcDbEntity
  8
0
100
AcDbLine
 62
7
  6
CONTINUOUS
 10
13.0533042307
 20
5.2429189525
 11
13.1863926193
 21
5.3197571108
  0
LINE
  5
638
100
AcDbEntity
  8
0
100
AcDbLine
 62
7
  6
CONTINUOUS
 10
14.4675119051
 20
6.0594072603
 11
14.6006002937
 21
6.1362454186
  0
LINE
  5
639
100
AcDbEntity
  8
0
100
AcDbLine
 62
9
  6
CONTINUOUS
 10
13.0774221948
 20
5.2062202326
 11
13.2135626087
 21
5.284820468
  0
LINE
  5
63A
100
AcDbEntity
  8
0
100
AcDbLine
 62
9
  6
CONTINUOUS
 10
14.4403419157
 20
5.9930976033
 11
14.5764823297
 21
6.0716978388
  0
LINE
  5
63B
100
AcDbEntity
  8
0
100
AcDbLine
 62
7
  6
CONTINUOUS
 10
13.0722443957
 20
5.194775584
 11
13.2083848096
 21
5.2733758195
  0
LINE
  5
63C
100
AcDbEntity
  8
0
100
AcDbLine
 62
7
  6
CONTINUOUS
 10
14.4351641167
 20
5.9816529548
 11
14.5713045306
 21
6.0602531903
  0
LINE
  5
63D
100
AcDbEntity
  8
0
100
AcDbLine
 62
9
  6
CONTINUOUS
 10
13.3213595727
 20
5.406632053
 11
13.3163987122
 21
5.4039416918
  0
LINE
  5
63E
100
AcDbEntity
  8
0
100
AcDbLine
 62
9
  6
CONTINUOUS
 10
13.0656161358
 20
5.199910551
 11
13.0774221948
 21
5.2062202326
  0
LWPOLYLINE
  5
63F
100
AcDbEntity
  8
0
100
AcDbPolyline
 62
9
  6
CONTINUOUS
 90
5
 70
0
 10
13.2135626087
 20
5.284820468
 10
13.2660678477
 20
5.3111811583
 10
13.3253009412
 20
5.3333654095
 10
13.3893531319
 20
5.3505108857
 10
13.4559451501
 20
5.3621451242
  0
LWPOLYLINE
  5
640
100
AcDbEntity
  8
0
100
AcDbPolyline
 62
7
  6
CONTINUOUS
 90
5
 70
0
 10
13.2083848096
 20
5.2733758195
 10
13.2613112283
 20
5.2999210224
 10
13.3206510945
 20
5.3221311242
 10
13.3852131411
 20
5.3394481628
 10
13.4536499865
 20
5.3514312935
  0
LWPOLYLINE
  5
641
100
AcDbEntity
  8
0
100
AcDbPolyline
 62
7
  6
CONTINUOUS
 90
6
 70
0
 10
13.0722443957
 20
5.194775584
 10
13.041815584
 20
5.180205428
 10
13.0118402869
 20
5.1718302969
 10
12.9834921609
 20
5.1698491439
 10
12.9576710935
 20
5.1739450162
 10
12.9347465725
 20
5.1836317199
  0
LWPOLYLINE
  5
642
100
AcDbEntity
  8
0
100
AcDbPolyline
 62
9
  6
CONTINUOUS
 90
3
 70
0
 10
14.0280158421
 20
5.6257884474
 10
14.0295810252
 20
5.626384443
 10
14.0310539786
 20
5.6272676849
  0
LWPOLYLINE
  5
643
100
AcDbEntity
  8
0
100
AcDbPolyline
 62
9
  6
CONTINUOUS
 90
6
 70
0
 10
13.6286843821
 20
5.4424690842
 10
13.638676278
 20
5.4461891304
 10
13.6472146445
 20
5.4519934545
 10
13.6536267691
 20
5.4590812571
 10
13.6575824839
 20
5.4667287692
 10
13.6589260212
 20
5.4743285002
  0
LWPOLYLINE
  5
644
100
AcDbEntity
  8
0
100
AcDbPolyline
 62
9
  6
CONTINUOUS
 90
4
 70
0
 10
13.7290784024
 20
5.4913464475
 10
13.8080282935
 20
5.5180954355
 10
13.8829533076
 20
5.5485117762
 10
13.9532725565
 20
5.582360828
  0
LWPOLYLINE
  5
645
100
AcDbEntity
  8
0
100
AcDbPolyline
 62
9
  6
CONTINUOUS
 90
4
 70
0
 10
13.7361328781
 20
5.4714562817
 10
13.8161507652
 20
5.4985673207
 10
13.8920739821
 20
5.5293889476
 10
13.9633430971
 20
5.5636950708
  0
LWPOLYLINE
  5
646
100
AcDbEntity
  8
0
100
AcDbPolyline
 62
9
  6
CONTINUOUS
 90
6
 70
0
 10
14.3612977607
 20
6.2276664903
 10
14.3605588677
 20
6.2345013124
 10
14.3584652629
 20
6.2391377229
 10
14.3552318506
 20
6.2412028993
 10
14.3511846632
 20
6.2403786442
 10
14.3468607341
 20
6.2367155805
  0
LINE
  5
647
100
AcDbEntity
  8
0
100
AcDbLine
 62
9
  6
CONTINUOUS
 10
14.2393853416
 20
6.0299104972
 11
14.2393853416
 21
5.8094548446
  0
LINE
  5
648
100
AcDbEntity
  8
0
100
AcDbLine
 62
7
  6
CONTINUOUS
 10
14.2406505234
 20
6.0333915761
 11
14.2406505234
 21
5.8129359319
  0
LINE
  5
649
100
AcDbEntity
  8
0
100
AcDbLine
 62
9
  6
CONTINUOUS
 10
14.3064117862
 20
6.2205854223
 11
14.3064117862
 21
6.1715952772
  0
LINE
  5
64A
100
AcDbEntity
  8
0
100
AcDbLine
 62
9
  6
CONTINUOUS
 10
14.3064117862
 20
5.9021494796
 11
14.3064117862
 21
5.8531593345
  0
LINE
  5
64B
100
AcDbEntity
  8
0
100
AcDbLine
 62
9
  6
CONTINUOUS
 10
14.3377132326
 20
6.0054296272
 11
14.3377132326
 21
6.2217461861
  0
LWPOLYLINE
  5
64C
100
AcDbEntity
  8
0
100
AcDbPolyline
 62
7
  6
CONTINUOUS
 90
7
 70
0
 10
14.2406505323
 20
6.0333902343
 10
14.2409561869
 20
6.0382835908
 10
14.2419970025
 20
6.0445547192
 10
14.2437740559
 20
6.0513894244
 10
14.2461272536
 20
6.0580074375
 10
14.2486387666
 20
6.0633962967
 10
14.2505187999
 20
6.0665037288
  0
LINE
  5
64D
100
AcDbEntity
  8
0
100
AcDbLine
 62
9
  6
CONTINUOUS
 10
14.2399741076
 20
6.0379459857
 11
14.2393853416
 21
6.0299104972
  0
LINE
  5
64E
100
AcDbEntity
  8
0
100
AcDbLine
 62
9
  6
CONTINUOUS
 10
14.3057383569
 20
6.1680101836
 11
14.3064117862
 21
6.1715952772
  0
LINE
  5
64F
100
AcDbEntity
  8
0
100
AcDbLine
 62
9
  6
CONTINUOUS
 10
14.2009259087
 20
6.0054537184
 11
14.2019335673
 21
6.0098306273
  0
LWPOLYLINE
  5
650
100
AcDbEntity
  8
0
100
AcDbPolyline
 62
9
  6
CONTINUOUS
 90
3
 70
0
 10
14.0256024376
 20
5.626827568
 10
14.0245552269
 20
5.6236491756
 10
14.0214442323
 20
5.6208434414
  0
LWPOLYLINE
  5
651
100
AcDbEntity
  8
0
100
AcDbPolyline
 62
9
  6
CONTINUOUS
 90
6
 70
0
 10
14.1886958966
 20
5.7567051475
 10
14.18998341
 20
5.7605046917
 10
14.1910742024
 20
5.7651948966
 10
14.1918716546
 20
5.7701519387
 10
14.1923492766
 20
5.7748682334
 10
14.1925095981
 20
5.7789981146
  0
LINE
  5
652
100
AcDbEntity
  8
0
100
AcDbLine
 62
9
  6
CONTINUOUS
 10
14.2406505232
 20
6.0333902344
 11
14.2393853416
 21
6.0299104972
  0
LWPOLYLINE
  5
653
100
AcDbEntity
  8
0
100
AcDbPolyline
 62
9
  6
CONTINUOUS
 90
4
 70
0
 10
14.2480405186
 20
6.0647438414
 10
14.2444479101
 20
6.0560841473
 10
14.2416955362
 20
6.0468834344
 10
14.2399741076
 20
6.0379459857
  0
LWPOLYLINE
  5
654
100
AcDbEntity
  8
0
100
AcDbPolyline
 62
9
  6
CONTINUOUS
 90
4
 70
0
 10
14.3064117862
 20
6.1715952772
 10
14.2914123228
 20
6.1378133561
 10
14.2733001757
 20
6.1045300319
 10
14.2521406892
 20
6.0718653999
  0
LWPOLYLINE
  5
655
100
AcDbEntity
  8
0
100
AcDbPolyline
 62
7
  6
CONTINUOUS
 90
3
 70
0
 10
14.3057383569
 20
6.1680101836
 10
14.2904875485
 20
6.1336493156
 10
14.2720661687
 20
6.0997769774
  0
LWPOLYLINE
  5
656
100
AcDbEntity
  8
0
100
AcDbPolyline
 62
7
  6
CONTINUOUS
 90
4
 70
0
 10
14.3057383569
 20
6.1680101836
 10
14.3158499247
 20
6.1895460392
 10
14.3288935659
 20
6.2104901712
 10
14.3447788774
 20
6.2307636473
  0
LWPOLYLINE
  5
657
100
AcDbEntity
  8
0
100
AcDbPolyline
 62
9
  6
CONTINUOUS
 90
10
 70
0
 10
14.2820375366
 20
6.2442070881
 10
14.2445894307
 20
6.1703011076
 10
14.1901910831
 20
6.097480294
 10
14.1193766151
 20
6.0281050223
 10
14.0337836384
 20
5.9642980662
 10
13.9351904491
 20
5.9073768091
 10
13.824670753
 20
5.8579611633
 10
13.7045099876
 20
5.8170788827
 10
13.5783874158
 20
5.7856750261
 10
13.450386534
 20
5.764056024
  0
LWPOLYLINE
  5
658
100
AcDbEntity
  8
0
100
AcDbPolyline
 62
9
  6
CONTINUOUS
 90
10
 70
0
 10
14.3064117862
 20
6.2205854223
 10
14.2681056041
 20
6.1449900533
 10
14.2124763813
 20
6.0705264791
 10
14.1400619723
 20
5.9995866945
 10
14.0525370404
 20
5.9343408352
 10
13.9517196886
 20
5.876135672
 10
13.8387074575
 20
5.8256048646
 10
13.7158367715
 20
5.7837991604
 10
13.5868690212
 20
5.7516849743
 10
13.4559451501
 20
5.7295712119
  0
LINE
  5
659
100
AcDbEntity
  8
0
100
AcDbLine
 62
9
  6
CONTINUOUS
 10
14.2521406892
 20
6.0718653999
 11
14.2480405186
 21
6.0647438414
  0
LWPOLYLINE
  5
65A
100
AcDbEntity
  8
0
100
AcDbPolyline
 62
9
  6
CONTINUOUS
 90
3
 70
0
 10
14.2505187282
 20
6.0665037789
 10
14.2510822848
 20
6.0674257823
 10
14.2521406892
 20
6.0718653999
  0
LINE
  5
65B
100
AcDbEntity
  8
0
100
AcDbLine
 62
7
  6
CONTINUOUS
 10
14.2720661687
 20
6.0997769774
 11
14.2505186693
 21
6.0665036949
  0
LWPOLYLINE
  5
65C
100
AcDbEntity
  8
0
100
AcDbPolyline
 62
9
  6
CONTINUOUS
 90
3
 70
0
 10
14.3447789787
 20
6.2307637641
 10
14.345839878
 20
6.2323239313
 10
14.3468607341
 20
6.2367155805
  0
LINE
  5
65D
100
AcDbEntity
  8
0
100
AcDbLine
 62
9
  6
CONTINUOUS
 10
14.1997182363
 20
6.0037295195
 11
14.2009259087
 21
6.0054537184
  0
LWPOLYLINE
  5
65E
100
AcDbEntity
  8
0
100
AcDbPolyline
 62
7
  6
CONTINUOUS
 90
13
 70
0
 10
14.5713045306
 20
6.0602531903
 10
14.6065861626
 20
6.0847441213
 10
14.6398472632
 20
6.1159846724
 10
14.6698948927
 20
6.1525793783
 10
14.6957968612
 20
6.1931659398
 10
14.7167228819
 20
6.2363475757
 10
14.7319287726
 20
6.2806735917
 10
14.740771187
 20
6.3246590099
 10
14.7427185361
 20
6.3667265941
 10
14.7374720647
 20
6.4050833008
 10
14.7253041322
 20
6.4377981681
 10
14.7070591517
 20
6.463662196
 10
14.6838024657
 20
6.4821244769
  0
LWPOLYLINE
  5
65F
100
AcDbEntity
  8
0
100
AcDbPolyline
 62
9
  6
CONTINUOUS
 90
4
 70
0
 10
14.0310539786
 20
5.6272676849
 10
14.0896817193
 20
5.6678656258
 10
14.1423655305
 20
5.711124059
 10
14.1886958966
 20
5.7567051475
  0
LWPOLYLINE
  5
660
100
AcDbEntity
  8
0
100
AcDbPolyline
 62
9
  6
CONTINUOUS
 90
4
 70
0
 10
14.042170906
 20
5.6092060559
 10
14.1015911685
 20
5.6503530398
 10
14.1549768885
 20
5.6941878338
 10
14.2019335673
 20
5.7403848297
  0
LWPOLYLINE
  5
661
100
AcDbEntity
  8
0
100
AcDbPolyline
 62
9
  6
CONTINUOUS
 90
11
 70
0
 10
13.9633430971
 20
5.5636950708
 10
13.9666434742
 20
5.5656925786
 10
13.9701460636
 20
5.5684316884
 10
13.9736315928
 20
5.5718728332
 10
13.976875883
 20
5.5758725829
 10
13.9796928998
 20
5.5802128587
 10
13.9819738905
 20
5.584670039
 10
13.9836785901
 20
5.5890478395
 10
13.9848144651
 20
5.5931736191
 10
13.9854309689
 20
5.5969068687
 10
13.9856134101
 20
5.60015663
  0
LWPOLYLINE
  5
662
100
AcDbEntity
  8
0
100
AcDbPolyline
 62
9
  6
CONTINUOUS
 90
11
 70
0
 10
13.9532725565
 20
5.582360828
 10
13.9549740089
 20
5.5833051718
 10
13.9567734136
 20
5.5846205446
 10
13.9585577158
 20
5.5862911138
 10
13.9602127858
 20
5.5882481796
 10
13.9616452207
 20
5.590384108
 10
13.9628017757
 20
5.5925869612
 10
13.9636641323
 20
5.5947577506
 10
13.9642377474
 20
5.5968090473
 10
13.9645487239
 20
5.5986694373
 10
13.9646406883
 20
5.6002923414
  0
LWPOLYLINE
  5
663
100
AcDbEntity
  8
0
100
AcDbPolyline
 62
7
  6
CONTINUOUS
 90
9
 70
0
 10
13.4028749252
 20
7.6638437314
 10
13.3670791706
 20
7.6808040934
 10
13.3262410488
 20
7.6934065917
 10
13.2819263591
 20
7.7011676611
 10
13.2358415392
 20
7.7037881082
 10
13.1897567571
 20
7.7011674396
 10
13.1454421793
 20
7.6934061571
 10
13.1046042393
 20
7.6808034625
 10
13.0688087293
 20
7.6638429284
  0
LINE
  5
664
100
AcDbEntity
  8
0
100
AcDbLine
 62
7
  6
CONTINUOUS
 10
14.5164335474
 20
7.0209449054
 11
13.4028749252
 21
7.6638437314
  0
LINE
  5
665
100
AcDbEntity
  8
0
100
AcDbLine
 62
7
  6
CONTINUOUS
 10
14.667144488
 20
6.3077543917
 11
14.6006002937
 21
6.4024252066
  0
LWPOLYLINE
  5
666
100
AcDbEntity
  8
0
100
AcDbPolyline
 62
9
  6
CONTINUOUS
 90
5
 70
0
 10
14.3064117862
 20
6.2205854223
 10
14.3045564029
 20
6.2286412582
 10
14.2992727222
 20
6.2359592186
 10
14.2913651454
 20
6.2414252091
 10
14.2820375366
 20
6.2442070881
  0
LINE
  5
667
100
AcDbEntity
  8
0
100
AcDbLine
 62
9
  6
CONTINUOUS
 10
14.3612977607
 20
6.0072108376
 11
14.3612977607
 21
6.2276664903
  0
LINE
  5
668
100
AcDbEntity
  8
0
100
AcDbLine
 62
9
  6
CONTINUOUS
 10
14.4403419157
 20
6.3605236911
 11
14.4403419157
 21
6.2555599477
  0
LINE
  5
669
100
AcDbEntity
  8
0
100
AcDbLine
 62
9
  6
CONTINUOUS
 10
14.4403419157
 20
6.0980613467
 11
14.4403419157
 21
5.9930976033
  0
LINE
  5
66A
100
AcDbEntity
  8
0
100
AcDbLine
 62
9
  6
CONTINUOUS
 10
14.3064117862
 20
5.8531593345
 11
14.3052894041
 21
5.8471841785
  0
LWPOLYLINE
  5
66B
100
AcDbEntity
  8
0
100
AcDbPolyline
 62
9
  6
CONTINUOUS
 90
6
 70
0
 10
14.3334496528
 20
5.9833963915
 10
14.3346169427
 20
5.9871062935
 10
14.335799192
 20
5.9916440182
 10
14.3368005132
 20
5.9964781279
 10
14.3374718828
 20
6.0011848055
 10
14.3377132326
 20
6.0054296272
  0
LINE
  5
66C
100
AcDbEntity
  8
0
100
AcDbLine
 62
9
  6
CONTINUOUS
 10
14.2406505231
 20
5.812934272
 11
14.2393853416
 21
5.8094548446
  0
LINE
  5
66D
100
AcDbEntity
  8
0
100
AcDbLine
 62
7
  6
CONTINUOUS
 10
14.4675119051
 20
6.3255870483
 11
14.4403419157
 21
6.2555599477
  0
LWPOLYLINE
  5
66E
100
AcDbEntity
  8
0
100
AcDbPolyline
 62
9
  6
CONTINUOUS
 90
4
 70
0
 10
14.2917872365
 20
5.9163224791
 10
14.3025509687
 20
5.9392909588
 10
14.3164781537
 20
5.9617128952
 10
14.3334496528
 20
5.9833963915
  0
LWPOLYLINE
  5
66F
100
AcDbEntity
  8
0
100
AcDbPolyline
 62
9
  6
CONTINUOUS
 90
4
 70
0
 10
14.3064117862
 20
5.9021494796
 10
14.3168636696
 20
5.9244519972
 10
14.3303815934
 20
5.9462150321
 10
14.3468607341
 20
5.9672697829
  0
LINE
  5
670
100
AcDbEntity
  8
0
100
AcDbLine
 62
9
  6
CONTINUOUS
 10
14.2681056041
 20
5.7775639656
 11
14.3064117862
 21
5.8531593345
  0
LWPOLYLINE
  5
671
100
AcDbEntity
  8
0
100
AcDbPolyline
 62
7
  6
CONTINUOUS
 90
10
 70
0
 10
14.3052894041
 20
5.8471841784
 10
14.2651527809
 20
5.7681925257
 10
14.2084002986
 20
5.6924908804
 10
14.1359199206
 20
5.6215179393
 10
14.0489605951
 20
5.5565171626
 10
13.9490006166
 20
5.4985182679
 10
13.8376742177
 20
5.4483719244
 10
13.7167485306
 20
5.4067839717
 10
13.5880879581
 20
5.3743232158
 10
13.4536499865
 20
5.3514312935
  0
LWPOLYLINE
  5
672
100
AcDbEntity
  8
0
100
AcDbPolyline
 62
9
  6
CONTINUOUS
 90
4
 70
0
 10
14.3064117862
 20
5.8531593345
 10
14.3265650262
 20
5.8916094659
 10
14.3562640455
 20
5.9285908825
 10
14.3946877341
 20
5.9627870337
  0
LWPOLYLINE
  5
673
100
AcDbEntity
  8
0
100
AcDbPolyline
 62
7
  6
CONTINUOUS
 90
5
 70
0
 10
14.3052894041
 20
5.8471841785
 10
14.3249203929
 20
5.8842607016
 10
14.3534097432
 20
5.9192904879
 10
14.3903292207
 20
5.9519363763
 10
14.4351641167
 20
5.9816529548
  0
LWPOLYLINE
  5
674
100
AcDbEntity
  8
0
100
AcDbPolyline
 62
9
  6
CONTINUOUS
 90
4
 70
0
 10
14.2406505234
 20
5.821642963
 10
14.2591141025
 20
5.850145695
 10
14.2769875709
 20
5.8829903814
 10
14.2917872365
 20
5.9163224791
  0
LWPOLYLINE
  5
675
100
AcDbEntity
  8
0
100
AcDbPolyline
 62
9
  6
CONTINUOUS
 90
4
 70
0
 10
14.2521406892
 20
5.8024196023
 10
14.2733001019
 20
5.8350841104
 10
14.2914124398
 20
5.8683677955
 10
14.3064117862
 20
5.9021494796
  0
LWPOLYLINE
  5
676
100
AcDbEntity
  8
0
100
AcDbPolyline
 62
9
  6
CONTINUOUS
 90
6
 70
0
 10
14.3468607341
 20
5.9672697829
 10
14.3511748011
 20
5.9733244566
 10
14.355226836
 20
5.9812254786
 10
14.3584659317
 20
5.9900233527
 10
14.3605595924
 20
5.9989035896
 10
14.3612977607
 20
6.0072108376
  0
LWPOLYLINE
  5
677
100
AcDbEntity
  8
0
100
AcDbPolyline
 62
9
  6
CONTINUOUS
 90
6
 70
0
 10
14.2019335673
 20
5.7403848297
 10
14.2066648263
 20
5.7468444295
 10
14.2108272166
 20
5.755176447
 10
14.2139672114
 20
5.7642695215
 10
14.215893921
 20
5.7731847773
 10
14.2165478209
 20
5.7812665168
  0
LWPOLYLINE
  5
678
100
AcDbEntity
  8
0
100
AcDbPolyline
 62
9
  6
CONTINUOUS
 90
5
 70
0
 10
14.4403419157
 20
6.3605236911
 10
14.4389962841
 20
6.3691121053
 10
14.4351642431
 20
6.3779467929
 10
14.4294291722
 20
6.3856827611
 10
14.4226641726
 20
6.3911422703
  0
LINE
  5
679
100
AcDbEntity
  8
0
100
AcDbLine
 62
9
  6
CONTINUOUS
 10
14.5164349383
 20
6.8280744546
 11
14.5164349383
 21
6.6191269857
  0
LINE
  5
67A
100
AcDbEntity
  8
0
100
AcDbLine
 62
7
  6
CONTINUOUS
 10
14.5856216174
 20
6.9245092785
 11
14.5856216174
 21
6.7155618096
  0
LWPOLYLINE
  5
67B
100
AcDbEntity
  8
0
100
AcDbPolyline
 62
7
  6
CONTINUOUS
 90
4
 70
0
 10
14.5856216174
 20
6.7155618096
 10
14.5810957507
 20
6.6868943226
 10
14.5672399339
 20
6.6588101297
 10
14.543975266
 20
6.6326669989
  0
LWPOLYLINE
  5
67C
100
AcDbEntity
  8
0
100
AcDbPolyline
 62
9
  6
CONTINUOUS
 90
6
 70
0
 10
14.5856216174
 20
6.7155618096
 10
14.5815600247
 20
6.6903803893
 10
14.5704293983
 20
6.6674424295
 10
14.5544897071
 20
6.6478900516
 10
14.5358752737
 20
6.6318422187
 10
14.5164349383
 20
6.6191269857
  0
LWPOLYLINE
  5
67D
100
AcDbEntity
  8
0
100
AcDbPolyline
 62
9
  6
CONTINUOUS
 90
3
 70
0
 10
14.4403419157
 20
5.9930976033
 10
14.4389962777
 20
5.9860629416
 10
14.4351641167
 20
5.9816529548
  0
LWPOLYLINE
  5
67E
100
AcDbEntity
  8
0
100
AcDbPolyline
 62
9
  6
CONTINUOUS
 90
3
 70
0
 10
14.5764823297
 20
6.0716978388
 10
14.5751366928
 20
6.0646631797
 10
14.5713045306
 20
6.0602531903
  0
LINE
  5
67F
100
AcDbEntity
  8
0
100
AcDbLine
 62
7
  6
CONTINUOUS
 10
14.6006002937
 20
6.1362454186
 11
14.667144488
 21
6.3077543917
  0
LWPOLYLINE
  5
680
100
AcDbEntity
  8
0
100
AcDbPolyline
 62
9
  6
CONTINUOUS
 90
5
 70
0
 10
14.5764823297
 20
6.4391239265
 10
14.5751366916
 20
6.4477123621
 10
14.5713046386
 20
6.4565470601
 10
14.565569566
 20
6.4642830178
 10
14.5588045865
 20
6.4697425058
  0
LWPOLYLINE
  5
681
100
AcDbEntity
  8
0
100
AcDbPolyline
 62
7
  6
CONTINUOUS
 90
5
 70
0
 10
14.5856216174
 20
6.9245092822
 10
14.5810824213
 20
6.9511165273
 10
14.5676392936
 20
6.976701195
 10
14.5458104741
 20
7.0002786535
 10
14.5164335474
 20
7.0209449054
  0
LWPOLYLINE
  5
682
100
AcDbEntity
  8
0
100
AcDbPolyline
 62
9
  6
CONTINUOUS
 90
9
 70
0
 10
4.8552058049
 20
3.8967026632
 10
4.8554470748
 20
3.8804188475
 10
4.8562744989
 20
3.8624829121
 10
4.8578683518
 20
3.8428470656
 10
4.8604574223
 20
3.8214270061
 10
4.8642825144
 20
3.798443663
 10
4.8691671604
 20
3.7759637552
 10
4.8745679401
 20
3.7559933925
 10
4.8802058049
 20
3.7385887802
  0
LINE
  5
683
100
AcDbEntity
  8
0
100
AcDbLine
 62
7
  6
CONTINUOUS
 10
4.8552058049
 20
3.8967026632
 11
4.8552058049
 21
3.2567026632
  0
LINE
  5
684
100
AcDbEntity
  8
0
100
AcDbLine
 62
9
  6
CONTINUOUS
 10
4.8802058049
 20
3.7385887802
 11
4.8802058049
 21
3.2567026632
  0
LINE
  5
685
100
AcDbEntity
  8
0
100
AcDbLine
 62
7
  6
CONTINUOUS
 10
4.9402058049
 20
3.4486064737
 11
4.9402058049
 21
3.1887988526
  0
LINE
  5
686
100
AcDbEntity
  8
0
100
AcDbLine
 62
9
  6
CONTINUOUS
 10
4.9702058049
 20
3.2061193607
 11
4.9702058049
 21
3.4312859657
  0
LINE
  5
687
100
AcDbEntity
  8
0
100
AcDbLine
 62
7
  6
CONTINUOUS
 10
4.9402058049
 20
3.1887988526
 11
5.1652058049
 21
3.058895042
  0
LINE
  5
688
100
AcDbEntity
  8
0
100
AcDbLine
 62
9
  6
CONTINUOUS
 10
5.1652058049
 20
3.0935360582
 11
4.9702058049
 21
3.2061193607
  0
LINE
  5
689
100
AcDbEntity
  8
0
100
AcDbLine
 62
7
  6
CONTINUOUS
 10
5.0825286395
 20
4.769143608
 11
5.0825286395
 21
4.5132380962
  0
LINE
  5
68A
100
AcDbEntity
  8
0
100
AcDbLine
 62
7
  6
CONTINUOUS
 10
5.1002058049
 20
3.9217026632
 11
5.1002058049
 21
3.8717026632
  0
LINE
  5
68B
100
AcDbEntity
  8
0
100
AcDbLine
 62
9
  6
CONTINUOUS
 10
5.1052058049
 20
3.0317026632
 11
5.1052058049
 21
3.0067026632
  0
LINE
  5
68C
100
AcDbEntity
  8
0
100
AcDbLine
 62
9
  6
CONTINUOUS
 10
5.1052058049
 20
3.6217026632
 11
5.1052058049
 21
3.6717026632
  0
LINE
  5
68D
100
AcDbEntity
  8
0
100
AcDbLine
 62
9
  6
CONTINUOUS
 10
5.1052058049
 20
4.1217026632
 11
5.1052058049
 21
4.1467026632
  0
LWPOLYLINE
  5
68E
100
AcDbEntity
  8
0
100
AcDbPolyline
 62
9
  6
CONTINUOUS
 90
4
 70
0
 10
5.4261547115
 20
3.092681852
 10
5.4214440306
 20
3.0965288988
 10
5.4170273779
 20
3.1009456579
 10
5.4131804254
 20
3.1056564541
  0
LINE
  5
68F
100
AcDbEntity
  8
0
100
AcDbLine
 62
7
  6
CONTINUOUS
 10
5.1317151441
 20
3.9217026632
 11
5.1317151441
 21
3.8717026632
  0
LINE
  5
690
100
AcDbEntity
  8
0
100
AcDbLine
 62
7
  6
CONTINUOUS
 10
5.1402058049
 20
3.8072095691
 11
5.1402058049
 21
3.8717026632
  0
LINE
  5
691
100
AcDbEntity
  8
0
100
AcDbLine
 62
7
  6
CONTINUOUS
 10
5.1402058049
 20
3.9217026632
 11
5.1402058049
 21
3.9861957572
  0
LINE
  5
692
100
AcDbEntity
  8
DEFAULT_1
100
AcDbLine
 62
7
  6
CENTER
 10
5.1652058049
 20
3.3187026632
 11
5.1652058049
 21
3.0935360582
  0
LINE
  5
693
100
AcDbEntity
  8
0
100
AcDbLine
 62
7
  6
CONTINUOUS
 10
5.1652058049
 20
3.0935360582
 11
5.1652058049
 21
3.058895042
  0
LINE
  5
694
100
AcDbEntity
  8
DEFAULT_1
100
AcDbLine
 62
7
  6
CENTER
 10
5.1652058049
 20
3.3187026632
 11
5.1652058049
 21
3.5438692681
  0
LINE
  5
695
100
AcDbEntity
  8
0
100
AcDbLine
 62
7
  6
CONTINUOUS
 10
5.1652058049
 20
3.5438692681
 11
5.1652058049
 21
3.5785102843
  0
LINE
  5
696
100
AcDbEntity
  8
0
100
AcDbLine
 62
7
  6
CONTINUOUS
 10
5.1902058049
 20
3.8072095691
 11
5.1902058049
 21
3.8717026632
  0
LINE
  5
697
100
AcDbEntity
  8
0
100
AcDbLine
 62
7
  6
CONTINUOUS
 10
5.1902058049
 20
3.9217026632
 11
5.1902058049
 21
3.9861957572
  0
LINE
  5
698
100
AcDbEntity
  8
0
100
AcDbLine
 62
7
  6
CONTINUOUS
 10
5.1986964657
 20
3.9217026632
 11
5.1986964657
 21
3.8717026632
  0
LINE
  5
699
100
AcDbEntity
  8
0
100
AcDbLine
 62
7
  6
CONTINUOUS
 10
5.2302058049
 20
3.9217026632
 11
5.2302058049
 21
3.8717026632
  0
LINE
  5
69A
100
AcDbEntity
  8
0
100
AcDbLine
 62
7
  6
CONTINUOUS
 10
5.071097711
 20
4.0597026632
 11
4.9769896171
 21
3.8967026632
  0
LINE
  5
69B
100
AcDbEntity
  8
0
100
AcDbLine
 62
7
  6
CONTINUOUS
 10
4.9702058049
 20
3.4312859657
 11
4.9402058049
 21
3.4486064737
  0
LINE
  5
69C
100
AcDbEntity
  8
0
100
AcDbLine
 62
7
  6
CONTINUOUS
 10
5.3602058049
 20
3.2061193607
 11
5.3902058049
 21
3.1887988526
  0
LINE
  5
69D
100
AcDbEntity
  8
0
100
AcDbLine
 62
7
  6
CONTINUOUS
 10
4.9769896171
 20
3.8967026632
 11
5.071097711
 21
3.7337026632
  0
LINE
  5
69E
100
AcDbEntity
  8
0
100
AcDbLine
 62
9
  6
CONTINUOUS
 10
5.2977382262
 20
3.8002555506
 11
5.2977382262
 21
3.6467026632
  0
LINE
  5
69F
100
AcDbEntity
  8
0
100
AcDbLine
 62
9
  6
CONTINUOUS
 10
5.2977382262
 20
3.9931497757
 11
5.2977382262
 21
4.1467026632
  0
LINE
  5
6A0
100
AcDbEntity
  8
0
100
AcDbLine
 62
9
  6
CONTINUOUS
 10
5.318749112
 20
4.4935530569
 11
5.318749112
 21
4.769143608
  0
LINE
  5
6A1
100
AcDbEntity
  8
0
100
AcDbLine
 62
7
  6
CONTINUOUS
 10
5.0865228784
 20
3.7604198368
 11
5.071097711
 21
3.7337026632
  0
LINE
  5
6A2
100
AcDbEntity
  8
0
100
AcDbLine
 62
7
  6
CONTINUOUS
 10
5.2438887314
 20
4.0329854895
 11
5.2593138987
 21
4.0597026632
  0
LINE
  5
6A3
100
AcDbEntity
  8
0
100
AcDbLine
 62
7
  6
CONTINUOUS
 10
5.1052058049
 20
3.0067026632
 11
7.2252058049
 21
3.0067026632
  0
LINE
  5
6A4
100
AcDbEntity
  8
0
100
AcDbLine
 62
9
  6
CONTINUOUS
 10
5.1052058049
 20
3.0317026632
 11
5.4802058049
 21
3.0317026632
  0
LINE
  5
6A5
100
AcDbEntity
  8
0
100
AcDbLine
 62
9
  6
CONTINUOUS
 10
5.5052058049
 20
3.0317026632
 11
7.2252058049
 21
3.0317026632
  0
LWPOLYLINE
  5
6A6
100
AcDbEntity
  8
0
100
AcDbPolyline
 62
9
  6
CONTINUOUS
 90
6
 70
0
 10
5.5052058049
 20
3.0317026632
 10
5.5040236465
 20
3.0317079725
 10
5.5005149888
 20
3.0316959921
 10
5.4949578324
 20
3.031708303
 10
5.4879674031
 20
3.0316983336
 10
5.4802058049
 20
3.0317026632
  0
LINE
  5
6A7
100
AcDbEntity
  8
0
100
AcDbLine
 62
7
  6
CONTINUOUS
 10
5.2439057974
 20
3.7603902775
 11
5.2593138987
 21
3.7337026632
  0
LINE
  5
6A8
100
AcDbEntity
  8
0
100
AcDbLine
 62
7
  6
CONTINUOUS
 10
5.0865058123
 20
4.0330150489
 11
5.071097711
 21
4.0597026632
  0
LINE
  5
6A9
100
AcDbEntity
  8
0
100
AcDbLine
 62
9
  6
CONTINUOUS
 10
5.3602058049
 20
3.4312859657
 11
5.3602058049
 21
3.2061193607
  0
LINE
  5
6AA
100
AcDbEntity
  8
0
100
AcDbLine
 62
7
  6
CONTINUOUS
 10
5.3902058049
 20
3.1887988526
 11
5.3902058049
 21
3.4486064737
  0
LINE
  5
6AB
100
AcDbEntity
  8
0
100
AcDbLine
 62
9
  6
CONTINUOUS
 10
5.4002058049
 20
3.0797075474
 11
5.4002058049
 21
3.6467026632
  0
LINE
  5
6AC
100
AcDbEntity
  8
0
100
AcDbLine
 62
7
  6
CONTINUOUS
 10
5.4252058049
 20
3.6217026632
 11
5.4252058049
 21
3.1760507201
  0
LINE
  5
6AD
100
AcDbEntity
  8
0
100
AcDbLine
 62
9
  6
CONTINUOUS
 10
5.4263475259
 20
4.0317026632
 11
5.4263475259
 21
3.7617026632
  0
LINE
  5
6AE
100
AcDbEntity
  8
0
100
AcDbLine
 62
7
  6
CONTINUOUS
 10
5.4613883412
 20
4.1467026632
 11
5.4623321239
 21
4.1504796443
  0
LINE
  5
6AF
100
AcDbEntity
  8
0
100
AcDbLine
 62
7
  6
CONTINUOUS
 10
5.4623321239
 20
4.1504796443
 11
5.4628694063
 21
4.152592939
  0
LWPOLYLINE
  5
6B0
100
AcDbEntity
  8
0
100
AcDbPolyline
 62
9
  6
CONTINUOUS
 90
5
 70
0
 10
6.8902058049
 20
3.1630762667
 10
6.8997728907
 20
3.1640638882
 10
6.9078834744
 20
3.1668763961
 10
6.9133027932
 20
3.1710856117
 10
6.9152058049
 20
3.1760507201
  0
LINE
  5
6B1
100
AcDbEntity
  8
0
100
AcDbLine
 62
9
  6
CONTINUOUS
 10
5.4002058049
 20
3.0797075474
 11
5.5052058049
 21
3.0797075474
  0
LINE
  5
6B2
100
AcDbEntity
  8
0
100
AcDbLine
 62
9
  6
CONTINUOUS
 10
6.8352058049
 20
3.0797075474
 11
6.9402058049
 21
3.0797075474
  0
LINE
  5
6B3
100
AcDbEntity
  8
0
100
AcDbLine
 62
9
  6
CONTINUOUS
 10
6.9142568982
 20
3.0926820008
 11
6.8602058049
 21
3.0926820008
  0
LINE
  5
6B4
100
AcDbEntity
  8
0
100
AcDbLine
 62
9
  6
CONTINUOUS
 10
5.4802058049
 20
3.0926820008
 11
5.4261547116
 21
3.0926820008
  0
LWPOLYLINE
  5
6B5
100
AcDbEntity
  8
0
100
AcDbPolyline
 62
9
  6
CONTINUOUS
 90
5
 70
0
 10
5.4502058049
 20
3.1630762667
 10
5.440638775
 20
3.1640638762
 10
5.432528188
 20
3.1668763688
 10
5.4271088356
 20
3.1710855879
 10
5.4252058049
 20
3.1760507201
  0
LINE
  5
6B6
100
AcDbEntity
  8
0
100
AcDbLine
 62
9
  6
CONTINUOUS
 10
5.1652058049
 20
3.5438692681
 11
5.3602058049
 21
3.4312859657
  0
LINE
  5
6B7
100
AcDbEntity
  8
0
100
AcDbLine
 62
7
  6
CONTINUOUS
 10
5.3902058049
 20
3.4486064737
 11
5.1652058049
 21
3.5785102843
  0
LWPOLYLINE
  5
6B8
100
AcDbEntity
  8
0
100
AcDbPolyline
 62
9
  6
CONTINUOUS
 90
3
 70
0
 10
5.4429451806
 20
3.6346771165
 10
5.4482968364
 20
3.6224179939
 10
5.4502058049
 20
3.6087282098
  0
LWPOLYLINE
  5
6B9
100
AcDbEntity
  8
0
100
AcDbPolyline
 62
7
  6
CONTINUOUS
 90
60
 70
0
 10
5.5667715666
 20
3.3173143182
 10
5.5689408835
 20
3.3120898125
 10
5.5714031417
 20
3.3078701017
 10
5.5742964701
 20
3.3039410006
 10
5.5775256093
 20
3.3002675948
 10
5.5809953005
 20
3.29681497
 10
5.587694727
 20
3.2910133768
 10
5.5948112546
 20
3.2857627
 10
5.6022816315
 20
3.2809993621
 10
5.6100426059
 20
3.2766597852
 10
5.6180309256
 20
3.2726803918
 10
5.626183339
 20
3.2689976042
 10
5.634436594
 20
3.2655478448
 10
5.6533382375
 20
3.2583509673
 10
5.6724151511
 20
3.2519281742
 10
5.691648778
 20
3.2461797992
 10
5.7110205611
 20
3.2410061765
 10
5.7305119436
 20
3.2363076401
 10
5.7571998022
 20
3.2305286744
 10
5.7840439622
 20
3.2253832047
 10
5.8110135801
 20
3.2208093967
 10
5.8380778125
 20
3.2167454162
 10
5.8652058161
 20
3.213129429
 10
5.904916599
 20
3.2085458686
 10
5.9446895656
 20
3.2047349351
 10
5.9845165744
 20
3.2016445169
 10
6.0243894836
 20
3.1992225024
 10
6.0653345114
 20
3.1973852632
 10
6.1063067491
 20
3.1961857947
 10
6.147293665
 20
3.1956132103
 10
6.1882827271
 20
3.1956566237
 10
6.2272124098
 20
3.1962623584
 10
6.2661274601
 20
3.1974280602
 10
6.3025219512
 20
3.1990397645
 10
6.3388900089
 20
3.2011743517
 10
6.3721922938
 20
3.203609916
 10
6.4054547585
 20
3.2065318137
 10
6.4362027736
 20
3.2096982135
 10
6.4652057936
 20
3.213129429
 10
6.4933024693
 20
3.2169037661
 10
6.521222389
 20
3.221140819
 10
6.5485297029
 20
3.2258116793
 10
6.5757321053
 20
3.2310620449
 10
6.6014269356
 20
3.2366582961
 10
6.6269569396
 20
3.2429620297
 10
6.6423832937
 20
3.2471978569
 10
6.6577055919
 20
3.2517955699
 10
6.6728980935
 20
3.2568114421
 10
6.6859445908
 20
3.2615533247
 10
6.6988180358
 20
3.2667419958
 10
6.7114624017
 20
3.2724672831
 10
6.721543497
 20
3.2776034005
 10
6.7313298541
 20
3.2832789484
 10
6.7407159874
 20
3.2896175255
 10
6.745835446
 20
3.2935898337
 10
6.7506649202
 20
3.2979013874
 10
6.7550791535
 20
3.3026351986
 10
6.7589528893
 20
3.3078742794
 10
6.7616703653
 20
3.3126830296
 10
6.763733157
 20
3.3177919046
  0
LINE
  5
6BA
100
AcDbEntity
  8
0
100
AcDbLine
 62
7
  6
CONTINUOUS
 10
5.4628694063
 20
3.6408123874
 11
5.4623321809
 21
3.6429254578
  0
LINE
  5
6BB
100
AcDbEntity
  8
0
100
AcDbLine
 62
7
  6
CONTINUOUS
 10
5.4623321809
 20
3.6429254578
 11
5.4613883415
 21
3.6467026632
  0
LWPOLYLINE
  5
6BC
100
AcDbEntity
  8
0
100
AcDbPolyline
 62
9
  6
CONTINUOUS
 90
6
 70
0
 10
5.4263475259
 20
3.7617026632
 10
5.4277745933
 20
3.7524272395
 10
5.431852196
 20
3.7441517199
 10
5.4382532058
 20
3.7375078775
 10
5.4464551074
 20
3.7331773894
 10
5.4554737395
 20
3.7317026632
  0
LWPOLYLINE
  5
6BD
100
AcDbEntity
  8
0
100
AcDbPolyline
 62
9
  6
CONTINUOUS
 90
5
 70
0
 10
5.5638325755
 20
3.6717026632
 10
5.5648453388
 20
3.6621355684
 10
5.5677294427
 20
3.6540249829
 10
5.5720458043
 20
3.64860567
 10
5.577137293
 20
3.6467026632
  0
LWPOLYLINE
  5
6BE
100
AcDbEntity
  8
0
100
AcDbPolyline
 62
9
  6
CONTINUOUS
 90
6
 70
0
 10
5.4724312384
 20
4.0293616227
 10
5.4723629873
 20
4.0345177399
 10
5.4708578985
 20
4.0393411477
 10
5.468093856
 20
4.0432617754
 10
5.4643975375
 20
4.0458162503
 10
5.4602058049
 20
4.0467026632
  0
LINE
  5
6BF
100
AcDbEntity
  8
0
100
AcDbLine
 62
7
  6
CONTINUOUS
 10
5.4452058049
 20
4.0317026632
 11
5.4452058049
 21
3.7617026632
  0
LINE
  5
6C0
100
AcDbEntity
  8
0
100
AcDbLine
 62
9
  6
CONTINUOUS
 10
5.4502058049
 20
3.6087282098
 11
5.4502058049
 21
3.1630762667
  0
LINE
  5
6C1
100
AcDbEntity
  8
0
100
AcDbLine
 62
9
  6
CONTINUOUS
 10
5.4724312528
 20
3.7640437036
 11
5.4724312528
 21
4.0293616227
  0
LINE
  5
6C2
100
AcDbEntity
  8
0
100
AcDbLine
 62
9
  6
CONTINUOUS
 10
5.4802058049
 20
3.0067026632
 11
5.4802058049
 21
3.598062969
  0
LINE
  5
6C3
100
AcDbEntity
  8
0
100
AcDbLine
 62
7
  6
CONTINUOUS
 10
5.5052058049
 20
3.5460063326
 11
5.5052058049
 21
3.0317026632
  0
LINE
  5
6C4
100
AcDbEntity
  8
0
100
AcDbLine
 62
9
  6
CONTINUOUS
 10
5.5302058049
 20
3.5027418604
 11
5.5302058049
 21
3.0067026632
  0
LINE
  5
6C5
100
AcDbEntity
  8
AXIS_COSMETIC_THREADS
100
AcDbLine
 62
7
  6
CONTINUOUS
 10
5.5451270647
 20
4.4935530569
 11
5.5451270647
 21
4.2967026632
  0
LWPOLYLINE
  5
6C6
100
AcDbEntity
  8
0
100
AcDbPolyline
 62
9
  6
CONTINUOUS
 90
6
 70
0
 10
5.4724312384
 20
3.7640437036
 10
5.4723629873
 20
3.7588875864
 10
5.4708578985
 20
3.7540641786
 10
5.468093856
 20
3.7501435509
 10
5.4643975375
 20
3.747589076
 10
5.4602058049
 20
3.7467026632
  0
LWPOLYLINE
  5
6C7
100
AcDbEntity
  8
0
100
AcDbPolyline
 62
9
  6
CONTINUOUS
 90
8
 70
0
 10
5.4252058049
 20
3.1760507201
 10
5.4248489503
 20
3.1621856802
 10
5.4238912764
 20
3.1496977852
 10
5.4224587013
 20
3.1385192287
 10
5.4206264046
 20
3.128541696
 10
5.4184501335
 20
3.1197461398
 10
5.4159657946
 20
3.1121210475
 10
5.4131802582
 20
3.1056564541
  0
LWPOLYLINE
  5
6C8
100
AcDbEntity
  8
0
100
AcDbPolyline
 62
9
  6
CONTINUOUS
 90
8
 70
0
 10
5.4502058049
 20
3.1630762667
 10
5.4494923283
 20
3.1492113911
 10
5.4475770401
 20
3.1367236762
 10
5.4447119178
 20
3.1255450889
 10
5.4410473918
 20
3.1155675728
 10
5.4366948996
 20
3.1067720611
 10
5.4317259661
 20
3.0991467206
 10
5.4261547116
 20
3.0926820008
  0
LWPOLYLINE
  5
6C9
100
AcDbEntity
  8
0
100
AcDbPolyline
 62
9
  6
CONTINUOUS
 90
5
 70
0
 10
5.5638325755
 20
4.1217026632
 10
5.5648453321
 20
4.1312697276
 10
5.5677294235
 20
4.1393803071
 10
5.5720457831
 20
4.1447996398
 10
5.577137293
 20
4.1467026632
  0
LINE
  5
6CA
100
AcDbEntity
  8
0
100
AcDbLine
 62
7
  6
CONTINUOUS
 10
5.2593138987
 20
3.7337026632
 11
5.3534219926
 21
3.8967026632
  0
LWPOLYLINE
  5
6CB
100
AcDbEntity
  8
0
100
AcDbPolyline
 62
7
  6
CONTINUOUS
 90
16
 70
0
 10
6.5017579182
 20
3.2181333319
 10
6.5361434323
 20
3.2236237128
 10
6.5672192258
 20
3.2293496382
 10
6.5953550129
 20
3.2352734671
 10
6.6208747583
 20
3.241385285
 10
6.6440291157
 20
3.2476717944
 10
6.664996374
 20
3.2541411484
 10
6.6839648838
 20
3.2608035798
 10
6.701030505
 20
3.2676946329
 10
6.7162865085
 20
3.2748503141
 10
6.7298070032
 20
3.2823409654
 10
6.7415913156
 20
3.2902649594
 10
6.7514515468
 20
3.2986775353
 10
6.7589021523
 20
3.3077958195
 10
6.763615025
 20
3.3174299263
 10
6.7652057824
 20
3.3267026632
  0
LWPOLYLINE
  5
6CC
100
AcDbEntity
  8
0
100
AcDbPolyline
 62
7
  6
CONTINUOUS
 90
7
 70
0
 10
6.1917360044
 20
3.1956880761
 10
6.2590087369
 20
3.1971722955
 10
6.3201653035
 20
3.2000085319
 10
6.3735615172
 20
3.203720322
 10
6.4211272186
 20
3.2080876166
 10
6.4636171796
 20
3.212929666
 10
6.5017579182
 20
3.2181333319
  0
LINE
  5
6CD
100
AcDbEntity
  8
0
100
AcDbLine
 62
9
  6
CONTINUOUS
 10
4.8802058049
 20
3.2567026632
 11
4.8552058049
 21
3.2567026632
  0
LINE
  5
6CE
100
AcDbEntity
  8
0
100
AcDbLine
 62
9
  6
CONTINUOUS
 10
7.4502058049
 20
3.2567026632
 11
7.4752058049
 21
3.2567026632
  0
LWPOLYLINE
  5
6CF
100
AcDbEntity
  8
0
100
AcDbPolyline
 62
7
  6
CONTINUOUS
 90
3
 70
0
 10
6.0669193848
 20
3.1973270625
 10
6.126426766
 20
3.1958270461
 10
6.1917360044
 20
3.1956880761
  0
LWPOLYLINE
  5
6D0
100
AcDbEntity
  8
0
100
AcDbPolyline
 62
7
  6
CONTINUOUS
 90
7
 70
0
 10
5.8030466468
 20
3.2221028247
 10
5.837811864
 20
3.2167830194
 10
5.875833239
 20
3.2118233201
 10
5.9173830391
 20
3.2072700651
 10
5.9628261259
 20
3.2032409109
 10
6.012521919
 20
3.1998763568
 10
6.0669193848
 20
3.1973270625
  0
LINE
  5
6D1
100
AcDbEntity
  8
0
100
AcDbLine
 62
7
  6
CONTINUOUS
 10
5.7987841219
 20
3.3246410008
 11
5.791474364
 21
3.3272221689
  0
LINE
  5
6D2
100
AcDbEntity
  8
0
100
AcDbLine
 62
7
  6
CONTINUOUS
 10
5.3534219926
 20
3.8967026632
 11
5.2593138987
 21
4.0597026632
  0
LWPOLYLINE
  5
6D3
100
AcDbEntity
  8
0
100
AcDbPolyline
 62
7
  6
CONTINUOUS
 90
15
 70
0
 10
5.5652058274
 20
3.3267026632
 10
5.5668524604
 20
3.317069704
 10
5.571799762
 20
3.3072809215
 10
5.5797028663
 20
3.2980558457
 10
5.5898663845
 20
3.2893242588
 10
5.6020787626
 20
3.2811203675
 10
5.6162269299
 20
3.2735428279
 10
5.6323151237
 20
3.2664133534
 10
5.6501895361
 20
3.2594887986
 10
5.6699435659
 20
3.2527171908
 10
5.6918055498
 20
3.2461356085
 10
5.7158612448
 20
3.2397962459
 10
5.7422824837
 20
3.2336721806
 10
5.7712785673
 20
3.2277516381
 10
5.8030466468
 20
3.2221028247
  0
LWPOLYLINE
  5
6D4
100
AcDbEntity
  8
0
100
AcDbPolyline
 62
7
  6
CONTINUOUS
 90
23
 70
0
 10
5.5652058274
 20
3.3267026632
 10
5.565209358
 20
3.3262700355
 10
5.5652198936
 20
3.325837481
 10
5.5652373496
 20
3.3254050727
 10
5.5652616417
 20
3.3249728836
 10
5.5652926853
 20
3.324540987
 10
5.5653303961
 20
3.3241094559
 10
5.5653746894
 20
3.3236783634
 10
5.5654254809
 20
3.3232477826
 10
5.565482686
 20
3.3228177866
 10
5.5655462204
 20
3.3223884486
 10
5.5656159996
 20
3.3219598415
 10
5.565691939
 20
3.3215320386
 10
5.5657739543
 20
3.3211051129
 10
5.5658619609
 20
3.3206791375
 10
5.5659558744
 20
3.3202541855
 10
5.5660556103
 20
3.3198303301
 10
5.5661610842
 20
3.3194076443
 10
5.5662722115
 20
3.3189862012
 10
5.5663889079
 20
3.318566074
 10
5.5665110889
 20
3.3181473356
 10
5.5666386699
 20
3.3177300593
 10
5.5667715666
 20
3.3173143182
  0
LINE
  5
6D5
100
AcDbEntity
  8
0
100
AcDbLine
 62
9
  6
CONTINUOUS
 10
5.5638325755
 20
4.1217026632
 11
5.5638325755
 21
4.0617026632
  0
LINE
  5
6D6
100
AcDbEntity
  8
0
100
AcDbLine
 62
9
  6
CONTINUOUS
 10
5.5638325755
 20
3.7317026632
 11
5.5638325755
 21
3.6717026632
  0
LINE
  5
6D7
100
AcDbEntity
  8
0
100
AcDbLine
 62
9
  6
CONTINUOUS
 10
4.8802058049
 20
3.7385887802
 11
4.9006603503
 21
3.7529627695
  0
LINE
  5
6D8
100
AcDbEntity
  8
0
100
AcDbLine
 62
7
  6
CONTINUOUS
 10
5.6567255876
 20
3.2909564042
 11
5.7850502761
 21
3.2909564042
  0
LINE
  5
6D9
100
AcDbEntity
  8
0
100
AcDbLine
 62
7
  6
CONTINUOUS
 10
5.8268952899
 20
3.2909564042
 11
5.8831685878
 21
3.2909564042
  0
LINE
  5
6DA
100
AcDbEntity
  8
0
100
AcDbLine
 62
7
  6
CONTINUOUS
 10
5.8979221877
 20
3.2909564042
 11
5.9744900682
 21
3.2909564042
  0
LINE
  5
6DB
100
AcDbEntity
  8
0
100
AcDbLine
 62
7
  6
CONTINUOUS
 10
5.996242276
 20
3.2909564042
 11
6.0512704568
 21
3.2909564042
  0
LINE
  5
6DC
100
AcDbEntity
  8
0
100
AcDbLine
 62
7
  6
CONTINUOUS
 10
6.0850018218
 20
3.2909564042
 11
6.138969778
 21
3.2909564042
  0
LINE
  5
6DD
100
AcDbEntity
  8
0
100
AcDbLine
 62
7
  6
CONTINUOUS
 10
6.1767897957
 20
3.2909564042
 11
6.2318179764
 21
3.2909564042
  0
LINE
  5
6DE
100
AcDbEntity
  8
0
100
AcDbLine
 62
7
  6
CONTINUOUS
 10
6.2655493415
 20
3.2909564042
 11
6.3195172976
 21
3.2909564042
  0
LINE
  5
6DF
100
AcDbEntity
  8
0
100
AcDbLine
 62
7
  6
CONTINUOUS
 10
6.3562247161
 20
3.2909564042
 11
6.5040155107
 21
3.2909564042
  0
LINE
  5
6E0
100
AcDbEntity
  8
0
100
AcDbLine
 62
7
  6
CONTINUOUS
 10
6.5250361086
 20
3.2909564042
 11
6.6076335591
 21
3.2909564042
  0
LINE
  5
6E1
100
AcDbEntity
  8
0
100
AcDbLine
 62
7
  6
CONTINUOUS
 10
6.6395539487
 20
3.2909564042
 11
6.6740006608
 21
3.2909564042
  0
LINE
  5
6E2
100
AcDbEntity
  8
0
100
AcDbLine
 62
7
  6
CONTINUOUS
 10
6.6076335591
 20
3.3089402038
 11
6.5896993807
 21
3.3089402038
  0
LINE
  5
6E3
100
AcDbEntity
  8
0
100
AcDbLine
 62
7
  6
CONTINUOUS
 10
6.5415788478
 20
3.3089564035
 11
6.5250361086
 21
3.3089564035
  0
LINE
  5
6E4
100
AcDbEntity
  8
0
100
AcDbLine
 62
7
  6
CONTINUOUS
 10
6.4696381277
 20
3.3089564035
 11
6.4223622512
 21
3.3089564035
  0
LINE
  5
6E5
100
AcDbEntity
  8
0
100
AcDbLine
 62
7
  6
CONTINUOUS
 10
6.3736233008
 20
3.3089564035
 11
6.3562247161
 21
3.3089564035
  0
LINE
  5
6E6
100
AcDbEntity
  8
0
100
AcDbLine
 62
7
  6
CONTINUOUS
 10
6.2318179764
 20
3.3089564035
 11
6.2170421442
 21
3.3089564035
  0
LINE
  5
6E7
100
AcDbEntity
  8
0
100
AcDbLine
 62
7
  6
CONTINUOUS
 10
6.1903508794
 20
3.3089564035
 11
6.1767897957
 21
3.3089564035
  0
LINE
  5
6E8
100
AcDbEntity
  8
0
100
AcDbLine
 62
7
  6
CONTINUOUS
 10
6.0512704568
 20
3.3089564035
 11
6.0364946245
 21
3.3089564035
  0
LINE
  5
6E9
100
AcDbEntity
  8
0
100
AcDbLine
 62
7
  6
CONTINUOUS
 10
6.0098033597
 20
3.3089564035
 11
5.996242276
 21
3.3089564035
  0
LINE
  5
6EA
100
AcDbEntity
  8
0
100
AcDbLine
 62
7
  6
CONTINUOUS
 10
5.9744900682
 20
3.3089564035
 11
5.9599334337
 21
3.3089564035
  0
LINE
  5
6EB
100
AcDbEntity
  8
0
100
AcDbLine
 62
7
  6
CONTINUOUS
 10
5.9084323191
 20
3.3089564035
 11
5.8979221877
 21
3.3089564035
  0
LINE
  5
6EC
100
AcDbEntity
  8
0
100
AcDbLine
 62
7
  6
CONTINUOUS
 10
5.8831685878
 20
3.3089564035
 11
5.874962622
 21
3.3089564035
  0
LINE
  5
6ED
100
AcDbEntity
  8
0
100
AcDbLine
 62
7
  6
CONTINUOUS
 10
5.8435213975
 20
3.3089564035
 11
5.8268952899
 21
3.3089564035
  0
LINE
  5
6EE
100
AcDbEntity
  8
0
100
AcDbLine
 62
7
  6
CONTINUOUS
 10
5.7518295766
 20
3.3089564035
 11
5.7217477627
 21
3.3089564035
  0
LINE
  5
6EF
100
AcDbEntity
  8
0
100
AcDbLine
 62
7
  6
CONTINUOUS
 10
5.6741379763
 20
3.3089564035
 11
5.6567255876
 21
3.3089564035
  0
LINE
  5
6F0
100
AcDbEntity
  8
0
100
AcDbLine
 62
7
  6
CONTINUOUS
 10
6.6755513604
 20
3.3092380586
 11
6.6747445153
 21
3.3092380586
  0
LINE
  5
6F1
100
AcDbEntity
  8
0
100
AcDbLine
 62
7
  6
CONTINUOUS
 10
6.5040155107
 20
3.3185564031
 11
6.4732381276
 21
3.3185564031
  0
LINE
  5
6F2
100
AcDbEntity
  8
DEFAULT_1
100
AcDbLine
 62
7
  6
CENTER
 10
7.1652058049
 20
3.3187026632
 11
6.9252058049
 21
3.3187026632
  0
LINE
  5
6F3
100
AcDbEntity
  8
DEFAULT_1
100
AcDbLine
 62
7
  6
CENTER
 10
5.1652058049
 20
3.3187026632
 11
4.9252058049
 21
3.3187026632
  0
LINE
  5
6F4
100
AcDbEntity
  8
DEFAULT_1
100
AcDbLine
 62
7
  6
CENTER
 10
5.1652058049
 20
3.3187026632
 11
5.4052058049
 21
3.3187026632
  0
LINE
  5
6F5
100
AcDbEntity
  8
DEFAULT_1
100
AcDbLine
 62
7
  6
CENTER
 10
7.1652058049
 20
3.3187026632
 11
7.4052058049
 21
3.3187026632
  0
LINE
  5
6F6
100
AcDbEntity
  8
0
100
AcDbLine
 62
7
  6
CONTINUOUS
 10
5.8789744987
 20
3.3188790553
 11
5.9043406785
 21
3.3188790553
  0
LINE
  5
6F7
100
AcDbEntity
  8
0
100
AcDbLine
 62
7
  6
CONTINUOUS
 10
6.6921800557
 20
3.3192379582
 11
6.683373056
 21
3.3192379582
  0
LINE
  5
6F8
100
AcDbEntity
  8
0
100
AcDbLine
 62
7
  6
CONTINUOUS
 10
6.5896993807
 20
3.3195941004
 11
6.6097773236
 21
3.3195941004
  0
LINE
  5
6F9
100
AcDbEntity
  8
0
100
AcDbLine
 62
7
  6
CONTINUOUS
 10
6.4223622512
 20
3.3209564031
 11
6.447938302
 21
3.3209564031
  0
LINE
  5
6FA
100
AcDbEntity
  8
0
100
AcDbLine
 62
7
  6
CONTINUOUS
 10
5.7217477627
 20
3.321556403
 11
5.7518295766
 21
3.321556403
  0
LINE
  5
6FB
100
AcDbEntity
  8
0
100
AcDbLine
 62
7
  6
CONTINUOUS
 10
6.6143808466
 20
3.3334146256
 11
6.5896993807
 21
3.3334146256
  0
LINE
  5
6FC
100
AcDbEntity
  8
0
100
AcDbLine
 62
7
  6
CONTINUOUS
 10
5.7518295766
 20
3.333669239
 11
5.7217477627
 21
3.333669239
  0
LINE
  5
6FD
100
AcDbEntity
  8
0
100
AcDbLine
 62
7
  6
CONTINUOUS
 10
5.9001183717
 20
3.3341158668
 11
5.8851679446
 21
3.3341158668
  0
LINE
  5
6FE
100
AcDbEntity
  8
0
100
AcDbLine
 62
7
  6
CONTINUOUS
 10
6.447938302
 20
3.334269239
 11
6.4223622512
 21
3.334269239
  0
LINE
  5
6FF
100
AcDbEntity
  8
0
100
AcDbLine
 62
7
  6
CONTINUOUS
 10
6.4725368864
 20
3.3366692389
 11
6.5029829745
 21
3.3366692389
  0
LINE
  5
700
100
AcDbEntity
  8
0
100
AcDbLine
 62
7
  6
CONTINUOUS
 10
5.8903440866
 20
3.3458733815
 11
5.894839318
 21
3.3458733815
  0
LINE
  5
701
100
AcDbEntity
  8
0
100
AcDbLine
 62
7
  6
CONTINUOUS
 10
5.6567255876
 20
3.3462692385
 11
5.6741379763
 21
3.3462692385
  0
LINE
  5
702
100
AcDbEntity
  8
0
100
AcDbLine
 62
7
  6
CONTINUOUS
 10
5.7217477627
 20
3.3462692385
 11
5.7518295766
 21
3.3462692385
  0
LINE
  5
703
100
AcDbEntity
  8
0
100
AcDbLine
 62
7
  6
CONTINUOUS
 10
5.996242276
 20
3.3462692385
 11
6.0098033597
 21
3.3462692385
  0
LINE
  5
704
100
AcDbEntity
  8
0
100
AcDbLine
 62
7
  6
CONTINUOUS
 10
6.1017928788
 20
3.3462692385
 11
6.1154478295
 21
3.3462692385
  0
LINE
  5
705
100
AcDbEntity
  8
0
100
AcDbLine
 62
7
  6
CONTINUOUS
 10
6.1425697778
 20
3.3462692385
 11
6.1556118326
 21
3.3462692385
  0
LINE
  5
706
100
AcDbEntity
  8
0
100
AcDbLine
 62
7
  6
CONTINUOUS
 10
6.1767897957
 20
3.3462692385
 11
6.1903508794
 21
3.3462692385
  0
LINE
  5
707
100
AcDbEntity
  8
0
100
AcDbLine
 62
7
  6
CONTINUOUS
 10
6.2823403985
 20
3.3462692385
 11
6.2959953491
 21
3.3462692385
  0
LINE
  5
708
100
AcDbEntity
  8
0
100
AcDbLine
 62
7
  6
CONTINUOUS
 10
6.3231172975
 20
3.3462692385
 11
6.3361593523
 21
3.3462692385
  0
LINE
  5
709
100
AcDbEntity
  8
0
100
AcDbLine
 62
7
  6
CONTINUOUS
 10
6.3562247161
 20
3.3462692385
 11
6.3736233008
 21
3.3462692385
  0
LINE
  5
70A
100
AcDbEntity
  8
0
100
AcDbLine
 62
7
  6
CONTINUOUS
 10
6.4223622512
 20
3.3462692385
 11
6.4689368866
 21
3.3462692385
  0
LINE
  5
70B
100
AcDbEntity
  8
0
100
AcDbLine
 62
7
  6
CONTINUOUS
 10
6.5250361086
 20
3.3462692385
 11
6.5415788478
 21
3.3462692385
  0
LINE
  5
70C
100
AcDbEntity
  8
0
100
AcDbLine
 62
7
  6
CONTINUOUS
 10
6.5896993807
 20
3.3462692385
 11
6.6164639878
 21
3.3462692385
  0
LINE
  5
70D
100
AcDbEntity
  8
0
100
AcDbLine
 62
7
  6
CONTINUOUS
 10
6.6338223962
 20
3.3642692379
 11
6.5250361086
 21
3.3642692379
  0
LINE
  5
70E
100
AcDbEntity
  8
0
100
AcDbLine
 62
7
  6
CONTINUOUS
 10
6.5029829745
 20
3.3642692379
 11
6.3562247161
 21
3.3642692379
  0
LINE
  5
70F
100
AcDbEntity
  8
0
100
AcDbLine
 62
7
  6
CONTINUOUS
 10
6.3361593523
 20
3.3642692379
 11
6.2823403985
 21
3.3642692379
  0
LINE
  5
710
100
AcDbEntity
  8
0
100
AcDbLine
 62
7
  6
CONTINUOUS
 10
6.2498498519
 20
3.3642692379
 11
6.1767897957
 21
3.3642692379
  0
LINE
  5
711
100
AcDbEntity
  8
0
100
AcDbLine
 62
7
  6
CONTINUOUS
 10
6.1556118326
 20
3.3642692379
 11
6.1017928788
 21
3.3642692379
  0
LINE
  5
712
100
AcDbEntity
  8
0
100
AcDbLine
 62
7
  6
CONTINUOUS
 10
6.0693023322
 20
3.3642692379
 11
5.996242276
 21
3.3642692379
  0
LINE
  5
713
100
AcDbEntity
  8
0
100
AcDbLine
 62
7
  6
CONTINUOUS
 10
5.9221799262
 20
3.3642692379
 11
5.880598014
 21
3.3642692379
  0
LINE
  5
714
100
AcDbEntity
  8
0
100
AcDbLine
 62
7
  6
CONTINUOUS
 10
5.7774992345
 20
3.3642692379
 11
5.6567255876
 21
3.3642692379
  0
LINE
  5
715
100
AcDbEntity
  8
0
100
AcDbLine
 62
7
  6
CONTINUOUS
 10
5.9058518488
 20
3.318056994
 11
5.9099434894
 21
3.3117343421
  0
LINE
  5
716
100
AcDbEntity
  8
0
100
AcDbLine
 62
7
  6
CONTINUOUS
 10
5.8963504884
 20
3.3450513203
 11
5.9016295421
 21
3.3368938054
  0
LWPOLYLINE
  5
717
100
AcDbEntity
  8
0
100
AcDbPolyline
 62
9
  6
CONTINUOUS
 90
6
 70
0
 10
5.7377491575
 20
4.0293616227
 10
5.7377092186
 20
4.0344833022
 10
5.7367892596
 20
4.0393088736
 10
5.7350807631
 20
4.0432479297
 10
5.7327990485
 20
4.0458116529
 10
5.7302058049
 20
4.0467026632
  0
LWPOLYLINE
  5
718
100
AcDbEntity
  8
0
100
AcDbPolyline
 62
9
  6
CONTINUOUS
 90
4
 70
0
 10
5.7377365351
 20
4.0293616227
 10
5.7377490319
 20
3.941132348
 10
5.737749032
 20
3.8522745963
 10
5.7377374344
 20
3.7640437036
  0
LINE
  5
719
100
AcDbEntity
  8
0
100
AcDbLine
 62
7
  6
CONTINUOUS
 10
5.6549255877
 20
3.3624692379
 11
5.6549255877
 21
3.3480692385
  0
LINE
  5
71A
100
AcDbEntity
  8
0
100
AcDbLine
 62
7
  6
CONTINUOUS
 10
5.6549255877
 20
3.3071564036
 11
5.6549255877
 21
3.2927564041
  0
LINE
  5
71B
100
AcDbEntity
  8
0
100
AcDbLine
 62
7
  6
CONTINUOUS
 10
5.6759379762
 20
3.3444692386
 11
5.6759379762
 21
3.3107564034
  0
LINE
  5
71C
100
AcDbEntity
  8
0
100
AcDbLine
 62
7
  6
CONTINUOUS
 10
5.7199477628
 20
3.3107564034
 11
5.7199477628
 21
3.3197564031
  0
LINE
  5
71D
100
AcDbEntity
  8
0
100
AcDbLine
 62
7
  6
CONTINUOUS
 10
5.7199477628
 20
3.3354692389
 11
5.7199477628
 21
3.3444692386
  0
LINE
  5
71E
100
AcDbEntity
  8
0
100
AcDbLine
 62
7
  6
CONTINUOUS
 10
5.7452058049
 20
3.7617026632
 11
5.7452058049
 21
4.0317026632
  0
LINE
  5
71F
100
AcDbEntity
  8
0
100
AcDbLine
 62
9
  6
CONTINUOUS
 10
5.7547573744
 20
3.7617026632
 11
5.7547573744
 21
4.0317026632
  0
LWPOLYLINE
  5
720
100
AcDbEntity
  8
0
100
AcDbPolyline
 62
9
  6
CONTINUOUS
 90
6
 70
0
 10
5.7377491575
 20
3.7640437036
 10
5.7377070451
 20
3.7588875864
 10
5.7367783733
 20
3.7540641786
 10
5.7350729003
 20
3.7501435509
 10
5.7327921931
 20
3.747589076
 10
5.7302058049
 20
3.7467026632
  0
LWPOLYLINE
  5
721
100
AcDbEntity
  8
0
100
AcDbPolyline
 62
7
  6
CONTINUOUS
 90
7
 70
0
 10
6.164431424
 20
3.4578482726
 10
6.096679902
 20
3.4569944943
 10
6.0318658644
 20
3.4545665124
 10
5.975285231
 20
3.4511062267
 10
5.9251866367
 20
3.446895635
 10
5.8804954278
 20
3.4421363993
 10
5.8404714524
 20
3.4369963808
  0
LINE
  5
722
100
AcDbEntity
  8
0
100
AcDbLine
 62
7
  6
CONTINUOUS
 10
6.2269663403
 20
3.4571485415
 11
6.164431424
 21
3.4578482726
  0
LINE
  5
723
100
AcDbEntity
  8
0
100
AcDbLine
 62
7
  6
CONTINUOUS
 10
6.0377371974
 20
3.3353650897
 11
6.083759249
 21
3.2914540936
  0
LINE
  5
724
100
AcDbEntity
  8
0
100
AcDbLine
 62
7
  6
CONTINUOUS
 10
6.1142052566
 20
3.32211392
 11
6.070544905
 21
3.3637715484
  0
LINE
  5
725
100
AcDbEntity
  8
0
100
AcDbLine
 62
7
  6
CONTINUOUS
 10
5.9584222634
 20
3.3097784648
 11
5.9236910965
 21
3.3634471766
  0
LWPOLYLINE
  5
726
100
AcDbEntity
  8
0
100
AcDbPolyline
 62
9
  6
CONTINUOUS
 90
6
 70
0
 10
5.845841643
 20
4.0293616227
 10
5.8458101798
 20
4.0345177399
 10
5.8451163445
 20
4.0393411477
 10
5.8438421405
 20
4.0432617754
 10
5.8421381639
 20
4.0458162503
 10
5.8402058049
 20
4.0467026632
  0
LINE
  5
727
100
AcDbEntity
  8
0
100
AcDbLine
 62
9
  6
CONTINUOUS
 10
5.8054300201
 20
4.0317026632
 11
5.8054300201
 21
3.7617026632
  0
LINE
  5
728
100
AcDbEntity
  8
0
100
AcDbLine
 62
7
  6
CONTINUOUS
 10
5.8250952899
 20
3.3071564036
 11
5.8250952899
 21
3.2927564041
  0
LINE
  5
729
100
AcDbEntity
  8
0
100
AcDbLine
 62
7
  6
CONTINUOUS
 10
5.8252058049
 20
4.0317026632
 11
5.8252058049
 21
3.7617026632
  0
LWPOLYLINE
  5
72A
100
AcDbEntity
  8
0
100
AcDbPolyline
 62
9
  6
CONTINUOUS
 90
4
 70
0
 10
5.845831511
 20
3.7640437036
 10
5.8458415629
 20
3.8522925977
 10
5.8458415629
 20
3.9411115202
 10
5.8458323202
 20
4.0293616227
  0
LWPOLYLINE
  5
72B
100
AcDbEntity
  8
0
100
AcDbPolyline
 62
9
  6
CONTINUOUS
 90
6
 70
0
 10
5.845841643
 20
3.7640437036
 10
5.8458101798
 20
3.7588875864
 10
5.8451163445
 20
3.7540641786
 10
5.8438421405
 20
3.7501435509
 10
5.8421381639
 20
3.747589076
 10
5.8402058049
 20
3.7467026632
  0
LWPOLYLINE
  5
72C
100
AcDbEntity
  8
0
100
AcDbPolyline
 62
7
  6
CONTINUOUS
 90
23
 70
0
 10
5.566772464
 20
3.3360937552
 10
5.5666394932
 20
3.3356778991
 10
5.5665118407
 20
3.3352605065
 10
5.566389591
 20
3.3348416505
 10
5.5662728287
 20
3.3344214044
 10
5.5661616383
 20
3.3339998412
 10
5.5660561044
 20
3.3335770342
 10
5.5659563115
 20
3.3331530565
 10
5.5658623442
 20
3.3327279813
 10
5.5657742869
 20
3.3323018818
 10
5.5656922243
 20
3.331874831
 10
5.5656162408
 20
3.3314469023
 10
5.5655464211
 20
3.3310181687
 10
5.5654828496
 20
3.3305887034
 10
5.5654256109
 20
3.3301585796
 10
5.5653747896
 20
3.3297278705
 10
5.5653304701
 20
3.3292966492
 10
5.5652927371
 20
3.3288649889
 10
5.565261675
 20
3.3284329628
 10
5.5652373685
 20
3.3280006439
 10
5.565219902
 20
3.3275681056
 10
5.5652093601
 20
3.327135421
 10
5.5652058274
 20
3.3267026632
  0
LWPOLYLINE
  5
72D
100
AcDbEntity
  8
0
100
AcDbPolyline
 62
9
  6
CONTINUOUS
 90
5
 70
0
 10
5.5052058049
 20
3.1056564541
 10
5.5033027996
 20
3.1006913538
 10
5.4978834888
 20
3.0964821377
 10
5.4897729031
 20
3.0936696249
 10
5.4802058049
 20
3.0926820008
  0
LINE
  5
72E
100
AcDbEntity
  8
0
100
AcDbLine
 62
9
  6
CONTINUOUS
 10
5.4131802582
 20
3.1056564541
 11
5.4002058049
 21
3.0797075474
  0
LWPOLYLINE
  5
72F
100
AcDbEntity
  8
0
100
AcDbPolyline
 62
9
  6
CONTINUOUS
 90
8
 70
0
 10
6.8579803713
 20
3.7640437036
 10
6.8616510033
 20
3.7650549293
 10
6.8665194265
 20
3.7656559765
 10
6.8719376789
 20
3.7657808033
 10
6.8771100516
 20
3.765346827
 10
6.8814056033
 20
3.7644375473
 10
6.8842247121
 20
3.7631683723
 10
6.8852058049
 20
3.7617026632
  0
LWPOLYLINE
  5
730
100
AcDbEntity
  8
0
100
AcDbPolyline
 62
7
  6
CONTINUOUS
 90
16
 70
0
 10
5.8404714524
 20
3.4369963808
 10
5.8044474344
 20
3.4315333069
 10
5.7719364295
 20
3.4257791424
 10
5.7425361534
 20
3.4197884052
 10
5.7159191216
 20
3.4136233642
 10
5.6917781055
 20
3.4072619847
 10
5.6698948686
 20
3.4006724668
 10
5.6501448639
 20
3.3939002164
 10
5.6322811709
 20
3.386978014
 10
5.6162065635
 20
3.3798526504
 10
5.602070013
 20
3.3722797303
 10
5.5898645824
 20
3.3640796997
 10
5.5797040291
 20
3.3553506188
 10
5.5718012191
 20
3.3461265341
 10
5.5668529969
 20
3.3363372248
 10
5.5652058274
 20
3.3267026632
  0
LWPOLYLINE
  5
731
100
AcDbEntity
  8
0
100
AcDbPolyline
 62
9
  6
CONTINUOUS
 90
5
 70
0
 10
6.8902058049
 20
3.6087282098
 10
6.8997729631
 20
3.6097158468
 10
6.9078835402
 20
3.6125283734
 10
6.9133028159
 20
3.6167375833
 10
6.9152058049
 20
3.6217026632
  0
LINE
  5
732
100
AcDbEntity
  8
0
100
AcDbLine
 62
7
  6
CONTINUOUS
 10
5.5337343091
 20
3.4967026632
 11
6.7966773007
 21
3.4967026632
  0
LWPOLYLINE
  5
733
100
AcDbEntity
  8
0
100
AcDbPolyline
 62
9
  6
CONTINUOUS
 90
5
 70
0
 10
5.4502058049
 20
3.6087282098
 10
5.4406387191
 20
3.6097158313
 10
5.4325281353
 20
3.6125283392
 10
5.4271088166
 20
3.6167375548
 10
5.4252058049
 20
3.6217026632
  0
LWPOLYLINE
  5
734
100
AcDbEntity
  8
0
100
AcDbPolyline
 62
7
  6
CONTINUOUS
 90
8
 70
0
 10
6.5372019455
 20
3.4295992628
 10
6.5038424325
 20
3.4349618772
 10
6.4673626559
 20
3.440002417
 10
6.4274804196
 20
3.4446528712
 10
6.383875836
 20
3.4488264627
 10
6.336204063
 20
3.4524070265
 10
6.2840382346
 20
3.4552482814
 10
6.2269663403
 20
3.4571485415
  0
LWPOLYLINE
  5
735
100
AcDbEntity
  8
0
100
AcDbPolyline
 62
9
  6
CONTINUOUS
 90
8
 70
0
 10
5.4724312384
 20
3.7640437036
 10
5.4687607587
 20
3.7650591369
 10
5.4638924185
 20
3.7656634503
 10
5.4584741565
 20
3.7657901803
 10
5.4533017507
 20
3.7653562606
 10
5.4490060946
 20
3.7644452608
 10
5.4461869143
 20
3.763172788
 10
5.4452058049
 20
3.7617026632
  0
LINE
  5
736
100
AcDbEntity
  8
0
100
AcDbLine
 62
9
  6
CONTINUOUS
 10
6.9402058049
 20
3.0797075474
 11
6.9142568982
 21
3.0926820008
  0
LINE
  5
737
100
AcDbEntity
  8
0
100
AcDbLine
 62
7
  6
CONTINUOUS
 10
6.218284717
 20
3.3353650897
 11
6.2643067687
 21
3.2914540936
  0
LINE
  5
738
100
AcDbEntity
  8
0
100
AcDbLine
 62
7
  6
CONTINUOUS
 10
6.2947527763
 20
3.32211392
 11
6.2510924247
 21
3.3637715484
  0
LWPOLYLINE
  5
739
100
AcDbEntity
  8
0
100
AcDbPolyline
 62
9
  6
CONTINUOUS
 90
6
 70
0
 10
5.8054300201
 20
3.7617026632
 10
5.8068220622
 20
3.7527290051
 10
5.8109046104
 20
3.7445290374
 10
5.8174956808
 20
3.7377738584
 10
5.8261337485
 20
3.7332705195
 10
5.8358336076
 20
3.7317026632
  0
LWPOLYLINE
  5
73A
100
AcDbEntity
  8
0
100
AcDbPolyline
 62
9
  6
CONTINUOUS
 90
9
 70
0
 10
5.7547573744
 20
4.0317026632
 10
5.7537659646
 20
4.0393012153
 10
5.7510109777
 20
4.0461290042
 10
5.747018284
 20
4.051699048
 10
5.7424140214
 20
4.0558361072
 10
5.7376316961
 20
4.0586905124
 10
5.7329289433
 20
4.0604846892
 10
5.7284681723
 20
4.0614266962
 10
5.7243537869
 20
4.0617026632
  0
LINE
  5
73B
100
AcDbEntity
  8
0
100
AcDbLine
 62
7
  6
CONTINUOUS
 10
5.8849685878
 20
3.2927564041
 11
5.8849685878
 21
3.3071564036
  0
LINE
  5
73C
100
AcDbEntity
  8
0
100
AcDbLine
 62
7
  6
CONTINUOUS
 10
5.8961221878
 20
3.3071564036
 11
5.8961221878
 21
3.2927564041
  0
LWPOLYLINE
  5
73D
100
AcDbEntity
  8
0
100
AcDbPolyline
 62
9
  6
CONTINUOUS
 90
5
 70
0
 10
5.4602058049
 20
3.7467026632
 10
5.45839492
 20
3.7455608537
 10
5.4568597276
 20
3.7423092594
 10
5.4558339459
 20
3.73744291
 10
5.4554737395
 20
3.7317026632
  0
LINE
  5
73E
100
AcDbEntity
  8
0
100
AcDbLine
 62
7
  6
CONTINUOUS
 10
5.1652058049
 20
3.5785102843
 11
4.9402058049
 21
3.4486064737
  0
LINE
  5
73F
100
AcDbEntity
  8
0
100
AcDbLine
 62
9
  6
CONTINUOUS
 10
4.9702058049
 20
3.4312859657
 11
5.1652058049
 21
3.5438692681
  0
LWPOLYLINE
  5
740
100
AcDbEntity
  8
0
100
AcDbPolyline
 62
9
  6
CONTINUOUS
 90
6
 70
0
 10
6.8749378703
 20
3.7317026632
 10
6.8839362433
 20
3.7331703134
 10
6.8921483753
 20
3.7375001946
 10
6.8985607246
 20
3.7441534021
 10
6.9026384191
 20
3.7524321565
 10
6.9040640839
 20
3.7617026632
  0
LWPOLYLINE
  5
741
100
AcDbEntity
  8
0
100
AcDbPolyline
 62
9
  6
CONTINUOUS
 90
6
 70
0
 10
6.4945780022
 20
3.7317026632
 10
6.5042699172
 20
3.7332677072
 10
6.5129135006
 20
3.7377720347
 10
6.5195097653
 20
3.7445328013
 10
6.5235906745
 20
3.7527331811
 10
6.5249815896
 20
3.7617026632
  0
LINE
  5
742
100
AcDbEntity
  8
0
100
AcDbLine
 62
9
  6
CONTINUOUS
 10
5.1052058049
 20
3.6217026632
 11
5.4252058049
 21
3.6217026632
  0
LINE
  5
743
100
AcDbEntity
  8
0
100
AcDbLine
 62
9
  6
CONTINUOUS
 10
6.9402058049
 20
3.6217026632
 11
7.2252058049
 21
3.6217026632
  0
LINE
  5
744
100
AcDbEntity
  8
0
100
AcDbLine
 62
9
  6
CONTINUOUS
 10
5.4429451806
 20
3.6346771165
 11
5.4654221004
 21
3.6346771165
  0
LINE
  5
745
100
AcDbEntity
  8
0
100
AcDbLine
 62
9
  6
CONTINUOUS
 10
6.8649895094
 20
3.6346771165
 11
6.8974664291
 21
3.6346771165
  0
LINE
  5
746
100
AcDbEntity
  8
0
100
AcDbLine
 62
7
  6
CONTINUOUS
 10
5.1052058049
 20
3.6467026632
 11
7.2252058049
 21
3.6467026632
  0
LINE
  5
747
100
AcDbEntity
  8
0
100
AcDbLine
 62
9
  6
CONTINUOUS
 10
5.1052058049
 20
3.6717026632
 11
7.2252058049
 21
3.6717026632
  0
LWPOLYLINE
  5
748
100
AcDbEntity
  8
0
100
AcDbPolyline
 62
9
  6
CONTINUOUS
 90
6
 70
0
 10
6.9402058049
 20
3.6217026632
 10
6.9324442066
 20
3.6217069928
 10
6.9254537773
 20
3.6216970234
 10
6.919896621
 20
3.6217093342
 10
6.9163879632
 20
3.6216973538
 10
6.9152058049
 20
3.6217026632
  0
LWPOLYLINE
  5
749
100
AcDbEntity
  8
0
100
AcDbPolyline
 62
9
  6
CONTINUOUS
 90
7
 70
0
 10
5.4002058049
 20
3.6467026632
 10
5.4095114494
 20
3.6462658438
 10
5.4179408179
 20
3.645077177
 10
5.4255034536
 20
3.6432670572
 10
5.4322137384
 20
3.6409089694
 10
5.4380535633
 20
3.6380377532
 10
5.4429451806
 20
3.6346771165
  0
LINE
  5
74A
100
AcDbEntity
  8
0
100
AcDbLine
 62
9
  6
CONTINUOUS
 10
6.8544406103
 20
3.6093233719
 11
6.8602058049
 21
3.6087282098
  0
LWPOLYLINE
  5
74B
100
AcDbEntity
  8
0
100
AcDbPolyline
 62
7
  6
CONTINUOUS
 90
3
 70
0
 10
6.1369876248
 20
3.6467026632
 10
6.1468201636
 20
3.6430308959
 10
6.1653473825
 20
3.6408125182
  0
LINE
  5
74C
100
AcDbEntity
  8
0
100
AcDbLine
 62
7
  6
CONTINUOUS
 10
6.9402058049
 20
3.1887988526
 11
7.1652058049
 21
3.058895042
  0
LWPOLYLINE
  5
74D
100
AcDbEntity
  8
0
100
AcDbPolyline
 62
9
  6
CONTINUOUS
 90
5
 70
0
 10
5.4602058049
 20
4.0467026632
 10
5.4583949234
 20
4.047844473
 10
5.4568597318
 20
4.0510960696
 10
5.455833949
 20
4.0559624207
 10
5.4554737395
 20
4.0617026632
  0
LINE
  5
74E
100
AcDbEntity
  8
0
100
AcDbLine
 62
7
  6
CONTINUOUS
 10
5.9762900682
 20
3.2927564041
 11
5.9762900682
 21
3.3071564036
  0
LINE
  5
74F
100
AcDbEntity
  8
0
100
AcDbLine
 62
7
  6
CONTINUOUS
 10
5.9944422761
 20
3.3624692379
 11
5.9944422761
 21
3.3480692385
  0
LINE
  5
750
100
AcDbEntity
  8
0
100
AcDbLine
 62
7
  6
CONTINUOUS
 10
5.9944422761
 20
3.3071564036
 11
5.9944422761
 21
3.2927564041
  0
LINE
  5
751
100
AcDbEntity
  8
0
100
AcDbLine
 62
7
  6
CONTINUOUS
 10
6.0116033597
 20
3.3444692386
 11
6.0116033597
 21
3.3107564034
  0
LINE
  5
752
100
AcDbEntity
  8
0
100
AcDbLine
 62
7
  6
CONTINUOUS
 10
6.0346946246
 20
3.3107564034
 11
6.0346946246
 21
3.3340627792
  0
LINE
  5
753
100
AcDbEntity
  8
0
100
AcDbLine
 62
7
  6
CONTINUOUS
 10
6.0530704567
 20
3.2927564041
 11
6.0530704567
 21
3.3071564036
  0
LWPOLYLINE
  5
754
100
AcDbEntity
  8
0
100
AcDbPolyline
 62
9
  6
CONTINUOUS
 90
4
 70
0
 10
6.5926624523
 20
3.7640437036
 10
6.5887352775
 20
3.763449129
 10
6.5861160047
 20
3.7626328623
 10
6.5852058049
 20
3.7617026632
  0
LWPOLYLINE
  5
755
100
AcDbEntity
  8
0
100
AcDbPolyline
 62
9
  6
CONTINUOUS
 90
11
 70
0
 10
6.1094658946
 20
3.7317026632
 10
6.1139220872
 20
3.7320266541
 10
6.1186698258
 20
3.7331103548
 10
6.1234135837
 20
3.7350457807
 10
6.127846376
 20
3.7378057311
 10
6.1317090903
 20
3.7412506806
 10
6.1348462355
 20
3.7451853414
 10
6.1371963379
 20
3.7494023183
 10
6.1387649114
 20
3.7536899372
 10
6.1396171573
 20
3.7578458799
 10
6.139869482
 20
3.7617026632
  0
LWPOLYLINE
  5
756
100
AcDbEntity
  8
0
100
AcDbPolyline
 62
9
  6
CONTINUOUS
 90
5
 70
0
 10
6.2192520476
 20
3.7640437036
 10
6.2139069826
 20
3.7638318955
 10
6.2093116261
 20
3.7633150124
 10
6.2062659019
 20
3.7625689322
 10
6.2052058049
 20
3.7617026632
  0
LWPOLYLINE
  5
757
100
AcDbEntity
  8
0
100
AcDbPolyline
 62
9
  6
CONTINUOUS
 90
6
 70
0
 10
6.4845699667
 20
3.7640437036
 10
6.4901410061
 20
3.7642310251
 10
6.4958901172
 20
3.7640427145
 10
6.5007756034
 20
3.7634978933
 10
6.5040539501
 20
3.7626751962
 10
6.5052058049
 20
3.7617026632
  0
LINE
  5
758
100
AcDbEntity
  8
0
100
AcDbLine
 62
9
  6
CONTINUOUS
 10
5.4554737395
 20
3.7317026632
 11
5.7243537869
 21
3.7317026632
  0
LINE
  5
759
100
AcDbEntity
  8
0
100
AcDbLine
 62
9
  6
CONTINUOUS
 10
5.8358336076
 20
3.7317026632
 11
6.1094658946
 21
3.7317026632
  0
LINE
  5
75A
100
AcDbEntity
  8
0
100
AcDbLine
 62
9
  6
CONTINUOUS
 10
6.2209457152
 20
3.7317026632
 11
6.4945780022
 21
3.7317026632
  0
LINE
  5
75B
100
AcDbEntity
  8
0
100
AcDbLine
 62
9
  6
CONTINUOUS
 10
6.6060578228
 20
3.7317026632
 11
6.8749378703
 21
3.7317026632
  0
LINE
  5
75C
100
AcDbEntity
  8
0
100
AcDbLine
 62
7
  6
CONTINUOUS
 10
5.071097711
 20
3.7337026632
 11
5.2593138987
 21
3.7337026632
  0
LINE
  5
75D
100
AcDbEntity
  8
0
100
AcDbLine
 62
7
  6
CONTINUOUS
 10
7.071097711
 20
3.7337026632
 11
7.2593138987
 21
3.7337026632
  0
LINE
  5
75E
100
AcDbEntity
  8
0
100
AcDbLine
 62
7
  6
CONTINUOUS
 10
6.1102058049
 20
3.7467026632
 11
5.8402058049
 21
3.7467026632
  0
LINE
  5
75F
100
AcDbEntity
  8
0
100
AcDbLine
 62
7
  6
CONTINUOUS
 10
5.4602058049
 20
3.7467026632
 11
5.7302058049
 21
3.7467026632
  0
LINE
  5
760
100
AcDbEntity
  8
0
100
AcDbLine
 62
7
  6
CONTINUOUS
 10
6.2202058049
 20
3.7467026632
 11
6.4902058049
 21
3.7467026632
  0
LINE
  5
761
100
AcDbEntity
  8
0
100
AcDbLine
 62
7
  6
CONTINUOUS
 10
6.6002058049
 20
3.7467026632
 11
6.8702058049
 21
3.7467026632
  0
LINE
  5
762
100
AcDbEntity
  8
0
100
AcDbLine
 62
9
  6
CONTINUOUS
 10
6.5852058049
 20
3.7617026632
 11
6.5756542354
 21
3.7617026632
  0
LINE
  5
763
100
AcDbEntity
  8
0
100
AcDbLine
 62
9
  6
CONTINUOUS
 10
6.2052058049
 20
3.7617026632
 11
6.1905421277
 21
3.7617026632
  0
LINE
  5
764
100
AcDbEntity
  8
0
100
AcDbLine
 62
9
  6
CONTINUOUS
 10
5.8252058049
 20
3.7617026632
 11
5.8054300201
 21
3.7617026632
  0
LINE
  5
765
100
AcDbEntity
  8
0
100
AcDbLine
 62
9
  6
CONTINUOUS
 10
5.4452058049
 20
3.7617026632
 11
5.4263475259
 21
3.7617026632
  0
LINE
  5
766
100
AcDbEntity
  8
0
100
AcDbLine
 62
9
  6
CONTINUOUS
 10
5.7452058049
 20
3.7617026632
 11
5.7547573744
 21
3.7617026632
  0
LINE
  5
767
100
AcDbEntity
  8
0
100
AcDbLine
 62
9
  6
CONTINUOUS
 10
6.1252058049
 20
3.7617026632
 11
6.139869482
 21
3.7617026632
  0
LINE
  5
768
100
AcDbEntity
  8
0
100
AcDbLine
 62
9
  6
CONTINUOUS
 10
6.5052058049
 20
3.7617026632
 11
6.5249815896
 21
3.7617026632
  0
LINE
  5
769
100
AcDbEntity
  8
0
100
AcDbLine
 62
9
  6
CONTINUOUS
 10
6.8852058049
 20
3.7617026632
 11
6.9040640839
 21
3.7617026632
  0
LINE
  5
76A
100
AcDbEntity
  8
0
100
AcDbLine
 62
9
  6
CONTINUOUS
 10
6.8579803713
 20
3.7640437036
 11
6.5926624523
 21
3.7640437036
  0
LINE
  5
76B
100
AcDbEntity
  8
0
100
AcDbLine
 62
9
  6
CONTINUOUS
 10
6.4845699667
 20
3.7640437036
 11
6.2192520476
 21
3.7640437036
  0
LINE
  5
76C
100
AcDbEntity
  8
0
100
AcDbLine
 62
9
  6
CONTINUOUS
 10
6.1111595621
 20
3.7640437036
 11
5.845841643
 21
3.7640437036
  0
LINE
  5
76D
100
AcDbEntity
  8
0
100
AcDbLine
 62
9
  6
CONTINUOUS
 10
5.7377491575
 20
3.7640437036
 11
5.4724312384
 21
3.7640437036
  0
LWPOLYLINE
  5
76E
100
AcDbEntity
  8
0
100
AcDbPolyline
 62
7
  6
CONTINUOUS
 90
4
 70
0
 10
5.1402058049
 20
3.8072095691
 10
5.1568493692
 20
3.806759236
 10
5.1735622405
 20
3.806759236
 10
5.1902058049
 20
3.8072095691
  0
LWPOLYLINE
  5
76F
100
AcDbEntity
  8
0
100
AcDbPolyline
 62
9
  6
CONTINUOUS
 90
6
 70
0
 10
5.845841643
 20
3.7640437036
 10
5.8402706224
 20
3.7642313316
 10
5.8345215084
 20
3.7640431955
 10
5.8296360167
 20
3.7634983785
 10
5.8263576625
 20
3.7626755122
 10
5.8252058049
 20
3.7617026632
  0
LWPOLYLINE
  5
770
100
AcDbEntity
  8
0
100
AcDbPolyline
 62
9
  6
CONTINUOUS
 90
5
 70
0
 10
6.1111595621
 20
3.7640437036
 10
6.1165046273
 20
3.7638318943
 10
6.1210999837
 20
3.7633150107
 10
6.1241457079
 20
3.7625689309
 10
6.1252058049
 20
3.7617026632
  0
LWPOLYLINE
  5
771
100
AcDbEntity
  8
0
100
AcDbPolyline
 62
9
  6
CONTINUOUS
 90
4
 70
0
 10
5.7377491575
 20
3.7640437036
 10
5.7416763365
 20
3.7634489875
 10
5.7442956062
 20
3.7626327198
 10
5.7452058049
 20
3.7617026632
  0
LINE
  5
772
100
AcDbEntity
  8
0
100
AcDbLine
 62
9
  6
CONTINUOUS
 10
7.1652058049
 20
3.0935360582
 11
6.9702058049
 21
3.2061193607
  0
LWPOLYLINE
  5
773
100
AcDbEntity
  8
0
100
AcDbPolyline
 62
9
  6
CONTINUOUS
 90
11
 70
0
 10
6.139869482
 20
4.0317026632
 10
6.1396352999
 20
4.0354187627
 10
6.138840981
 20
4.0394395218
 10
6.1373664379
 20
4.0436226825
 10
6.1351302848
 20
4.04778705
 10
6.132102909
 20
4.0517295951
 10
6.128311374
 20
4.0552443911
 10
6.1238742605
 20
4.0581199579
 10
6.1190406594
 20
4.0601761868
 10
6.1141300114
 20
4.0613475564
 10
6.1094658946
 20
4.0617026632
  0
LWPOLYLINE
  5
774
100
AcDbEntity
  8
0
100
AcDbPolyline
 62
9
  6
CONTINUOUS
 90
6
 70
0
 10
6.1111595621
 20
4.0293616227
 10
6.1111520617
 20
4.0344237151
 10
6.1110442697
 20
4.0392533408
 10
6.1108202797
 20
4.0432280654
 10
6.1105372411
 20
4.0458059789
 10
6.1102058049
 20
4.0467026632
  0
LINE
  5
775
100
AcDbEntity
  8
0
100
AcDbLine
 62
7
  6
CONTINUOUS
 10
6.0999928789
 20
3.3624692379
 11
6.0999928789
 21
3.3480692385
  0
LINE
  5
776
100
AcDbEntity
  8
0
100
AcDbLine
 62
9
  6
CONTINUOUS
 10
6.1111609363
 20
4.0293616227
 11
6.1111606668
 21
3.7640437036
  0
LINE
  5
777
100
AcDbEntity
  8
0
100
AcDbLine
 62
7
  6
CONTINUOUS
 10
6.1172478294
 20
3.3444692386
 11
6.1172478294
 21
3.3234162304
  0
LINE
  5
778
100
AcDbEntity
  8
0
100
AcDbLine
 62
7
  6
CONTINUOUS
 10
6.1252058049
 20
3.7617026632
 11
6.1252058049
 21
4.0317026632
  0
LINE
  5
779
100
AcDbEntity
  8
0
100
AcDbLine
 62
9
  6
CONTINUOUS
 10
6.139869482
 20
3.7617026632
 11
6.139869482
 21
4.0317026632
  0
LINE
  5
77A
100
AcDbEntity
  8
0
100
AcDbLine
 62
7
  6
CONTINUOUS
 10
6.1407697779
 20
3.2927564041
 11
6.1407697779
 21
3.3444692386
  0
LINE
  5
77B
100
AcDbEntity
  8
0
100
AcDbLine
 62
7
  6
CONTINUOUS
 10
6.1574118326
 20
3.3480692385
 11
6.1574118326
 21
3.3624692379
  0
LINE
  5
77C
100
AcDbEntity
  8
0
100
AcDbLine
 62
7
  6
CONTINUOUS
 10
6.1749897957
 20
3.3624692379
 11
6.1749897957
 21
3.3480692385
  0
LINE
  5
77D
100
AcDbEntity
  8
0
100
AcDbLine
 62
7
  6
CONTINUOUS
 10
6.1749897957
 20
3.3071564036
 11
6.1749897957
 21
3.2927564041
  0
LWPOLYLINE
  5
77E
100
AcDbEntity
  8
0
100
AcDbPolyline
 62
9
  6
CONTINUOUS
 90
6
 70
0
 10
6.1111595621
 20
3.7640437036
 10
6.1111542375
 20
3.7588875864
 10
6.1110368193
 20
3.7540641786
 10
6.1108211847
 20
3.7501435509
 10
6.1105328195
 20
3.747589076
 10
6.1102058049
 20
3.7467026632
  0
LWPOLYLINE
  5
77F
100
AcDbEntity
  8
0
100
AcDbPolyline
 62
9
  6
CONTINUOUS
 90
5
 70
0
 10
6.1102058049
 20
3.7467026632
 10
6.1099226535
 20
3.7455608562
 10
6.1096826093
 20
3.742309265
 10
6.1095222169
 20
3.7374429148
 10
6.1094658946
 20
3.7317026632
  0
LWPOLYLINE
  5
780
100
AcDbEntity
  8
0
100
AcDbPolyline
 62
9
  6
CONTINUOUS
 90
5
 70
0
 10
5.8402058049
 20
3.7467026632
 10
5.8385326384
 20
3.7455608575
 10
5.8371141954
 20
3.7423092679
 10
5.8361664216
 20
3.7374429172
 10
5.8358336076
 20
3.7317026632
  0
LINE
  5
781
100
AcDbEntity
  8
0
100
AcDbLine
 62
7
  6
CONTINUOUS
 10
4.9702058049
 20
3.2061193607
 11
4.9402058049
 21
3.1887988526
  0
LINE
  5
782
100
AcDbEntity
  8
0
100
AcDbLine
 62
7
  6
CONTINUOUS
 10
5.3602058049
 20
3.4312859657
 11
5.3902058049
 21
3.4486064737
  0
LWPOLYLINE
  5
783
100
AcDbEntity
  8
0
100
AcDbPolyline
 62
9
  6
CONTINUOUS
 90
5
 70
0
 10
5.7302058049
 20
3.7467026632
 10
5.7279663495
 20
3.7455608671
 10
5.7260678217
 20
3.7423092962
 10
5.7247992553
 20
3.7374429488
 10
5.7243537869
 20
3.7317026632
  0
LWPOLYLINE
  5
784
100
AcDbEntity
  8
0
100
AcDbPolyline
 62
9
  6
CONTINUOUS
 90
5
 70
0
 10
5.571815406
 20
3.7467026632
 10
5.56876051
 20
3.7455608569
 10
5.5661706933
 20
3.7423092666
 10
5.5644402326
 20
3.7374429161
 10
5.5638325755
 20
3.7317026632
  0
LWPOLYLINE
  5
785
100
AcDbEntity
  8
0
100
AcDbPolyline
 62
9
  6
CONTINUOUS
 90
5
 70
0
 10
5.4429451806
 20
3.6346768972
 10
5.4358698299
 20
3.6322153848
 10
5.4295330594
 20
3.6313653045
 10
5.4245963983
 20
3.6322154052
 10
5.4215752102
 20
3.634676945
  0
LWPOLYLINE
  5
786
100
AcDbEntity
  8
0
100
AcDbPolyline
 62
9
  6
CONTINUOUS
 90
6
 70
0
 10
5.7243537869
 20
3.7317026632
 10
5.7343184242
 20
3.7333594831
 10
5.7428963546
 20
3.7379278947
 10
5.7493766606
 20
3.7446623643
 10
5.7533910239
 20
3.7528113176
 10
5.7547573744
 20
3.7617026632
  0
LINE
  5
787
100
AcDbEntity
  8
0
100
AcDbLine
 62
7
  6
CONTINUOUS
 10
5.1402058049
 20
3.8691529823
 11
5.1902058049
 21
3.8691529823
  0
LINE
  5
788
100
AcDbEntity
  8
0
100
AcDbLine
 62
7
  6
CONTINUOUS
 10
7.1402058049
 20
3.8691529823
 11
7.1902058049
 21
3.8691529823
  0
LINE
  5
789
100
AcDbEntity
  8
0
100
AcDbLine
 62
7
  6
CONTINUOUS
 10
5.0097025895
 20
3.8717026632
 11
5.1402058049
 21
3.8717026632
  0
LINE
  5
78A
100
AcDbEntity
  8
0
100
AcDbLine
 62
7
  6
CONTINUOUS
 10
5.1902058049
 20
3.8717026632
 11
5.3207090203
 21
3.8717026632
  0
LINE
  5
78B
100
AcDbEntity
  8
0
100
AcDbLine
 62
7
  6
CONTINUOUS
 10
7.0097025895
 20
3.8717026632
 11
7.1402058049
 21
3.8717026632
  0
LINE
  5
78C
100
AcDbEntity
  8
0
100
AcDbLine
 62
7
  6
CONTINUOUS
 10
7.1902058049
 20
3.8717026632
 11
7.3207090203
 21
3.8717026632
  0
LINE
  5
78D
100
AcDbEntity
  8
0
100
AcDbLine
 62
7
  6
CONTINUOUS
 10
7.0077058049
 20
3.8967026632
 11
6.9769896171
 21
3.8967026632
  0
LINE
  5
78E
100
AcDbEntity
  8
0
100
AcDbLine
 62
7
  6
CONTINUOUS
 10
5.0077058049
 20
3.8967026632
 11
4.9769896171
 21
3.8967026632
  0
LINE
  5
78F
100
AcDbEntity
  8
0
100
AcDbLine
 62
7
  6
CONTINUOUS
 10
5.3227058049
 20
3.8967026632
 11
5.3534219926
 21
3.8967026632
  0
LINE
  5
790
100
AcDbEntity
  8
0
100
AcDbLine
 62
7
  6
CONTINUOUS
 10
7.3227058049
 20
3.8967026632
 11
7.3534219926
 21
3.8967026632
  0
LWPOLYLINE
  5
791
100
AcDbEntity
  8
0
100
AcDbPolyline
 62
7
  6
CONTINUOUS
 90
4
 70
0
 10
7.1402058049
 20
3.8072095691
 10
7.1568493692
 20
3.806759236
 10
7.1735622405
 20
3.806759236
 10
7.1902058049
 20
3.8072095691
  0
LWPOLYLINE
  5
792
100
AcDbEntity
  8
0
100
AcDbPolyline
 62
9
  6
CONTINUOUS
 90
5
 70
0
 10
6.8974664291
 20
3.6346771046
 10
6.9045418191
 20
3.632215602
 10
6.9108785626
 20
3.6313655035
 10
6.9158151382
 20
3.632215569
 10
6.918836196
 20
3.6346770686
  0
LWPOLYLINE
  5
793
100
AcDbEntity
  8
0
100
AcDbPolyline
 62
9
  6
CONTINUOUS
 90
5
 70
0
 10
5.571815406
 20
4.0467026632
 10
5.5687605041
 20
4.047844474
 10
5.5661706879
 20
4.0510960699
 10
5.5644402307
 20
4.0559624188
 10
5.5638325755
 20
4.0617026632
  0
LWPOLYLINE
  5
794
100
AcDbEntity
  8
0
100
AcDbPolyline
 62
9
  6
CONTINUOUS
 90
5
 70
0
 10
5.7302058049
 20
4.0467026632
 10
5.7279663351
 20
4.0478444696
 10
5.7260678038
 20
4.0510960602
 10
5.7247992454
 20
4.0559624107
 10
5.7243537869
 20
4.0617026632
  0
LINE
  5
795
100
AcDbEntity
  8
0
100
AcDbLine
 62
7
  6
CONTINUOUS
 10
6.9702058049
 20
3.4312859657
 11
6.9402058049
 21
3.4486064737
  0
LINE
  5
796
100
AcDbEntity
  8
0
100
AcDbLine
 62
7
  6
CONTINUOUS
 10
7.3602058049
 20
3.2061193607
 11
7.3902058049
 21
3.1887988526
  0
LWPOLYLINE
  5
797
100
AcDbEntity
  8
0
100
AcDbPolyline
 62
9
  6
CONTINUOUS
 90
5
 70
0
 10
5.8402058049
 20
4.0467026632
 10
5.8385326374
 20
4.0478444701
 10
5.8371141945
 20
4.0510960613
 10
5.8361664213
 20
4.0559624115
 10
5.8358336076
 20
4.0617026632
  0
LWPOLYLINE
  5
798
100
AcDbEntity
  8
0
100
AcDbPolyline
 62
9
  6
CONTINUOUS
 90
5
 70
0
 10
6.1102058049
 20
4.0467026632
 10
6.1099226536
 20
4.0478444689
 10
6.1096826094
 20
4.0510960586
 10
6.1095222169
 20
4.0559624093
 10
6.1094658946
 20
4.0617026632
  0
LWPOLYLINE
  5
799
100
AcDbEntity
  8
0
100
AcDbPolyline
 62
9
  6
CONTINUOUS
 90
11
 70
0
 10
6.1905421277
 20
3.7617026632
 10
6.1907763098
 20
3.7579865636
 10
6.1915706287
 20
3.7539658046
 10
6.1930451718
 20
3.7497826438
 10
6.1952813249
 20
3.7456182763
 10
6.1983087008
 20
3.7416757312
 10
6.2021002357
 20
3.7381609352
 10
6.2065373492
 20
3.7352853685
 10
6.2113709504
 20
3.7332291395
 10
6.2162815983
 20
3.7320577699
 10
6.2209457152
 20
3.7317026632
  0
LWPOLYLINE
  5
79A
100
AcDbEntity
  8
0
100
AcDbPolyline
 62
9
  6
CONTINUOUS
 90
6
 70
0
 10
6.2192520476
 20
3.7640437036
 10
6.2192573722
 20
3.7588875864
 10
6.2193747905
 20
3.7540641786
 10
6.219590425
 20
3.7501435509
 10
6.2198787903
 20
3.747589076
 10
6.2202058049
 20
3.7467026632
  0
LINE
  5
79B
100
AcDbEntity
  8
0
100
AcDbLine
 62
9
  6
CONTINUOUS
 10
6.1905421277
 20
4.0317026632
 11
6.1905421277
 21
3.7617026632
  0
LINE
  5
79C
100
AcDbEntity
  8
0
100
AcDbLine
 62
7
  6
CONTINUOUS
 10
6.1921508793
 20
3.3444692386
 11
6.1921508793
 21
3.3107564034
  0
LINE
  5
79D
100
AcDbEntity
  8
0
100
AcDbLine
 62
7
  6
CONTINUOUS
 10
6.2052058049
 20
4.0317026632
 11
6.2052058049
 21
3.7617026632
  0
LINE
  5
79E
100
AcDbEntity
  8
0
100
AcDbLine
 62
7
  6
CONTINUOUS
 10
6.2152421443
 20
3.3107564034
 11
6.2152421443
 21
3.3340627792
  0
LINE
  5
79F
100
AcDbEntity
  8
0
100
AcDbLine
 62
9
  6
CONTINUOUS
 10
6.2192506732
 20
3.7640437036
 11
6.2192509431
 21
4.0293616227
  0
LINE
  5
7A0
100
AcDbEntity
  8
0
100
AcDbLine
 62
7
  6
CONTINUOUS
 10
6.2336179763
 20
3.2927564041
 11
6.2336179763
 21
3.3071564036
  0
LINE
  5
7A1
100
AcDbEntity
  8
0
100
AcDbLine
 62
7
  6
CONTINUOUS
 10
6.2805403985
 20
3.3624692379
 11
6.2805403985
 21
3.3480692385
  0
LWPOLYLINE
  5
7A2
100
AcDbEntity
  8
0
100
AcDbPolyline
 62
9
  6
CONTINUOUS
 90
6
 70
0
 10
6.2192520476
 20
4.0293616227
 10
6.2192573722
 20
4.0345177399
 10
6.2193747905
 20
4.0393411477
 10
6.219590425
 20
4.0432617754
 10
6.2198787903
 20
4.0458162503
 10
6.2202058049
 20
4.0467026632
  0
LWPOLYLINE
  5
7A3
100
AcDbEntity
  8
0
100
AcDbPolyline
 62
9
  6
CONTINUOUS
 90
5
 70
0
 10
6.2202058049
 20
4.0467026632
 10
6.2204889563
 20
4.0478444701
 10
6.2207290005
 20
4.0510960613
 10
6.2208893929
 20
4.0559624115
 10
6.2209457152
 20
4.0617026632
  0
LINE
  5
7A4
100
AcDbEntity
  8
0
100
AcDbLine
 62
7
  6
CONTINUOUS
 10
5.8790781585
 20
3.3634336233
 11
5.8450412529
 21
3.3097920181
  0
LINE
  5
7A5
100
AcDbEntity
  8
0
100
AcDbLine
 62
7
  6
CONTINUOUS
 10
5.8836480891
 20
3.336880252
 11
5.8888242311
 21
3.3450377669
  0
LINE
  5
7A6
100
AcDbEntity
  8
0
100
AcDbLine
 62
7
  6
CONTINUOUS
 10
5.8734427665
 20
3.3117207888
 11
5.8774546432
 21
3.3180434407
  0
LWPOLYLINE
  5
7A7
100
AcDbEntity
  8
0
100
AcDbPolyline
 62
9
  6
CONTINUOUS
 90
5
 70
0
 10
6.4902058049
 20
4.0467026632
 10
6.4918789714
 20
4.0478444688
 10
6.4932974144
 20
4.0510960584
 10
6.4942451882
 20
4.0559624092
 10
6.4945780022
 20
4.0617026632
  0
LWPOLYLINE
  5
7A8
100
AcDbEntity
  8
0
100
AcDbPolyline
 62
9
  6
CONTINUOUS
 90
5
 70
0
 10
6.6002058049
 20
4.0467026632
 10
6.6024452603
 20
4.0478444593
 10
6.604343788
 20
4.0510960301
 10
6.6056123544
 20
4.0559623775
 10
6.6060578228
 20
4.0617026632
  0
LWPOLYLINE
  5
7A9
100
AcDbEntity
  8
0
100
AcDbPolyline
 62
9
  6
CONTINUOUS
 90
5
 70
0
 10
6.7585962038
 20
4.0467026632
 10
6.7616511002
 20
4.0478444697
 10
6.7642409168
 20
4.0510960605
 10
6.7659713773
 20
4.0559624109
 10
6.7665790342
 20
4.0617026632
  0
LWPOLYLINE
  5
7AA
100
AcDbEntity
  8
0
100
AcDbPolyline
 62
9
  6
CONTINUOUS
 90
6
 70
0
 10
6.6060578228
 20
4.0617026632
 10
6.5960931856
 20
4.0600458433
 10
6.5875152551
 20
4.0554774316
 10
6.5810349491
 20
4.048742962
 10
6.5770205858
 20
4.0405940087
 10
6.5756542354
 20
4.0317026632
  0
LINE
  5
7AB
100
AcDbEntity
  8
0
100
AcDbLine
 62
7
  6
CONTINUOUS
 10
5.0097025895
 20
3.9217026632
 11
5.1402058049
 21
3.9217026632
  0
LINE
  5
7AC
100
AcDbEntity
  8
0
100
AcDbLine
 62
7
  6
CONTINUOUS
 10
5.1902058049
 20
3.9217026632
 11
5.3207090203
 21
3.9217026632
  0
LINE
  5
7AD
100
AcDbEntity
  8
0
100
AcDbLine
 62
7
  6
CONTINUOUS
 10
7.0097025895
 20
3.9217026632
 11
7.1402058049
 21
3.9217026632
  0
LINE
  5
7AE
100
AcDbEntity
  8
0
100
AcDbLine
 62
7
  6
CONTINUOUS
 10
7.1902058049
 20
3.9217026632
 11
7.3207090203
 21
3.9217026632
  0
LINE
  5
7AF
100
AcDbEntity
  8
0
100
AcDbLine
 62
7
  6
CONTINUOUS
 10
5.1402058049
 20
3.924252344
 11
5.1902058049
 21
3.924252344
  0
LINE
  5
7B0
100
AcDbEntity
  8
0
100
AcDbLine
 62
7
  6
CONTINUOUS
 10
7.1402058049
 20
3.924252344
 11
7.1902058049
 21
3.924252344
  0
LWPOLYLINE
  5
7B1
100
AcDbEntity
  8
0
100
AcDbPolyline
 62
7
  6
CONTINUOUS
 90
4
 70
0
 10
5.1902058049
 20
3.9861957572
 10
5.1735622405
 20
3.9866460904
 10
5.1568493692
 20
3.9866460904
 10
5.1402058049
 20
3.9861957572
  0
LWPOLYLINE
  5
7B2
100
AcDbEntity
  8
0
100
AcDbPolyline
 62
9
  6
CONTINUOUS
 90
5
 70
0
 10
6.7585962038
 20
3.7467026632
 10
6.7616511035
 20
3.745560854
 10
6.7642409198
 20
3.7423092602
 10
6.7659713783
 20
3.7374429107
 10
6.7665790342
 20
3.7317026632
  0
LWPOLYLINE
  5
7B3
100
AcDbEntity
  8
0
100
AcDbPolyline
 62
9
  6
CONTINUOUS
 90
5
 70
0
 10
6.6002058049
 20
3.7467026632
 10
6.6024452747
 20
3.7455608567
 10
6.604343806
 20
3.7423092661
 10
6.6056123643
 20
3.7374429156
 10
6.6060578228
 20
3.7317026632
  0
LWPOLYLINE
  5
7B4
100
AcDbEntity
  8
0
100
AcDbPolyline
 62
9
  6
CONTINUOUS
 90
5
 70
0
 10
6.4902058049
 20
3.7467026632
 10
6.4918789723
 20
3.7455608562
 10
6.4932974152
 20
3.7423092651
 10
6.4942451885
 20
3.7374429149
 10
6.4945780022
 20
3.7317026632
  0
LWPOLYLINE
  5
7B5
100
AcDbEntity
  8
0
100
AcDbPolyline
 62
9
  6
CONTINUOUS
 90
8
 70
0
 10
6.9142568982
 20
3.0926820008
 10
6.9086490518
 20
3.0991953367
 10
6.9036662046
 20
3.1068607972
 10
6.8993156128
 20
3.1156810135
 10
6.8956624523
 20
3.1256650767
 10
6.8928124411
 20
3.1368318086
 10
6.8909122162
 20
3.1492797074
 10
6.8902058049
 20
3.1630762667
  0
LWPOLYLINE
  5
7B6
100
AcDbEntity
  8
0
100
AcDbPolyline
 62
9
  6
CONTINUOUS
 90
5
 70
0
 10
6.2202058049
 20
3.7467026632
 10
6.2204889561
 20
3.7455608574
 10
6.2207290003
 20
3.7423092677
 10
6.2208893928
 20
3.737442917
 10
6.2209457152
 20
3.7317026632
  0
LINE
  5
7B7
100
AcDbEntity
  8
0
100
AcDbLine
 62
7
  6
CONTINUOUS
 10
6.297795349
 20
3.3444692386
 11
6.297795349
 21
3.3234162304
  0
LINE
  5
7B8
100
AcDbEntity
  8
0
100
AcDbLine
 62
7
  6
CONTINUOUS
 10
6.3213172975
 20
3.2927564041
 11
6.3213172975
 21
3.3444692386
  0
LINE
  5
7B9
100
AcDbEntity
  8
0
100
AcDbLine
 62
7
  6
CONTINUOUS
 10
6.3379593522
 20
3.3480692385
 11
6.3379593522
 21
3.3624692379
  0
LINE
  5
7BA
100
AcDbEntity
  8
0
100
AcDbLine
 62
7
  6
CONTINUOUS
 10
6.3544247162
 20
3.3624692379
 11
6.3544247162
 21
3.3480692385
  0
LINE
  5
7BB
100
AcDbEntity
  8
0
100
AcDbLine
 62
7
  6
CONTINUOUS
 10
6.3544247162
 20
3.3071564036
 11
6.3544247162
 21
3.2927564041
  0
LINE
  5
7BC
100
AcDbEntity
  8
0
100
AcDbLine
 62
7
  6
CONTINUOUS
 10
6.3754233007
 20
3.3444692386
 11
6.3754233007
 21
3.3107564034
  0
LINE
  5
7BD
100
AcDbEntity
  8
0
100
AcDbLine
 62
9
  6
CONTINUOUS
 10
5.3602058049
 20
3.2061193607
 11
5.1652058049
 21
3.0935360582
  0
LINE
  5
7BE
100
AcDbEntity
  8
0
100
AcDbLine
 62
7
  6
CONTINUOUS
 10
5.1652058049
 20
3.058895042
 11
5.3902058049
 21
3.1887988526
  0
LWPOLYLINE
  5
7BF
100
AcDbEntity
  8
0
100
AcDbPolyline
 62
9
  6
CONTINUOUS
 90
6
 70
0
 10
5.8358336076
 20
4.0617026632
 10
5.8261416925
 20
4.0601376191
 10
5.8174981092
 20
4.0556332916
 10
5.8109018445
 20
4.048872525
 10
5.8068209352
 20
4.0406721452
 10
5.8054300201
 20
4.0317026632
  0
LWPOLYLINE
  5
7C0
100
AcDbEntity
  8
0
100
AcDbPolyline
 62
9
  6
CONTINUOUS
 90
4
 70
0
 10
5.7377491575
 20
4.0293616227
 10
5.7417179155
 20
4.029965209
 10
5.7443068981
 20
4.0307780292
 10
5.7452058049
 20
4.0317026631
  0
LWPOLYLINE
  5
7C1
100
AcDbEntity
  8
0
100
AcDbPolyline
 62
9
  6
CONTINUOUS
 90
11
 70
0
 10
6.2209457152
 20
4.0617026632
 10
6.2164895225
 20
4.0613786723
 10
6.211741784
 20
4.0602949715
 10
6.2069980261
 20
4.0583595456
 10
6.2025652338
 20
4.0555995952
 10
6.1987025195
 20
4.0521546457
 10
6.1955653742
 20
4.0482199849
 10
6.1932152718
 20
4.044003008
 10
6.1916466983
 20
4.0397153891
 10
6.1907944524
 20
4.0355594464
 10
6.1905421277
 20
4.0317026632
  0
LWPOLYLINE
  5
7C2
100
AcDbEntity
  8
0
100
AcDbPolyline
 62
9
  6
CONTINUOUS
 90
5
 70
0
 10
6.1111595621
 20
4.0293616227
 10
6.1166005821
 20
4.0295807198
 10
6.1211444116
 20
4.0300975308
 10
6.1241535479
 20
4.0308395469
 10
6.1252058049
 20
4.0317026632
  0
LWPOLYLINE
  5
7C3
100
AcDbEntity
  8
0
100
AcDbPolyline
 62
9
  6
CONTINUOUS
 90
6
 70
0
 10
5.845841643
 20
4.0293616227
 10
5.8402706036
 20
4.0291743012
 10
5.8345214925
 20
4.0293626118
 10
5.8296360063
 20
4.029907433
 10
5.8263576596
 20
4.0307301301
 10
5.8252058049
 20
4.0317026631
  0
LINE
  5
7C4
100
AcDbEntity
  8
0
100
AcDbLine
 62
9
  6
CONTINUOUS
 10
5.4724312384
 20
4.0293616227
 11
5.7377491575
 21
4.0293616227
  0
LINE
  5
7C5
100
AcDbEntity
  8
0
100
AcDbLine
 62
9
  6
CONTINUOUS
 10
5.845841643
 20
4.0293616227
 11
6.1111595621
 21
4.0293616227
  0
LINE
  5
7C6
100
AcDbEntity
  8
0
100
AcDbLine
 62
9
  6
CONTINUOUS
 10
6.2192520476
 20
4.0293616227
 11
6.4845699667
 21
4.0293616227
  0
LINE
  5
7C7
100
AcDbEntity
  8
0
100
AcDbLine
 62
9
  6
CONTINUOUS
 10
6.5926624523
 20
4.0293616227
 11
6.8579803713
 21
4.0293616227
  0
LINE
  5
7C8
100
AcDbEntity
  8
0
100
AcDbLine
 62
9
  6
CONTINUOUS
 10
6.5852058049
 20
4.0317026632
 11
6.5756542354
 21
4.0317026632
  0
LINE
  5
7C9
100
AcDbEntity
  8
0
100
AcDbLine
 62
9
  6
CONTINUOUS
 10
6.2052058049
 20
4.0317026632
 11
6.1905421277
 21
4.0317026632
  0
LINE
  5
7CA
100
AcDbEntity
  8
0
100
AcDbLine
 62
9
  6
CONTINUOUS
 10
5.8252058049
 20
4.0317026632
 11
5.8054300201
 21
4.0317026632
  0
LINE
  5
7CB
100
AcDbEntity
  8
0
100
AcDbLine
 62
9
  6
CONTINUOUS
 10
5.4452058049
 20
4.0317026632
 11
5.4263475259
 21
4.0317026632
  0
LINE
  5
7CC
100
AcDbEntity
  8
0
100
AcDbLine
 62
9
  6
CONTINUOUS
 10
5.7452058049
 20
4.0317026632
 11
5.7547573744
 21
4.0317026632
  0
LINE
  5
7CD
100
AcDbEntity
  8
0
100
AcDbLine
 62
9
  6
CONTINUOUS
 10
6.1252058049
 20
4.0317026632
 11
6.139869482
 21
4.0317026632
  0
LINE
  5
7CE
100
AcDbEntity
  8
0
100
AcDbLine
 62
9
  6
CONTINUOUS
 10
6.5052058049
 20
4.0317026632
 11
6.5249815896
 21
4.0317026632
  0
LINE
  5
7CF
100
AcDbEntity
  8
0
100
AcDbLine
 62
9
  6
CONTINUOUS
 10
6.8852058049
 20
4.0317026632
 11
6.9040640839
 21
4.0317026632
  0
LINE
  5
7D0
100
AcDbEntity
  8
0
100
AcDbLine
 62
7
  6
CONTINUOUS
 10
6.8702058049
 20
4.0467026632
 11
6.6002058049
 21
4.0467026632
  0
LINE
  5
7D1
100
AcDbEntity
  8
0
100
AcDbLine
 62
7
  6
CONTINUOUS
 10
6.4902058049
 20
4.0467026632
 11
6.2202058049
 21
4.0467026632
  0
LINE
  5
7D2
100
AcDbEntity
  8
0
100
AcDbLine
 62
7
  6
CONTINUOUS
 10
6.1102058049
 20
4.0467026632
 11
5.8402058049
 21
4.0467026632
  0
LINE
  5
7D3
100
AcDbEntity
  8
0
100
AcDbLine
 62
7
  6
CONTINUOUS
 10
5.7302058049
 20
4.0467026632
 11
5.4602058049
 21
4.0467026632
  0
LINE
  5
7D4
100
AcDbEntity
  8
0
100
AcDbLine
 62
7
  6
CONTINUOUS
 10
7.2593138987
 20
4.0597026632
 11
7.071097711
 21
4.0597026632
  0
LINE
  5
7D5
100
AcDbEntity
  8
0
100
AcDbLine
 62
7
  6
CONTINUOUS
 10
5.2593138987
 20
4.0597026632
 11
5.071097711
 21
4.0597026632
  0
LINE
  5
7D6
100
AcDbEntity
  8
0
100
AcDbLine
 62
9
  6
CONTINUOUS
 10
6.8749378703
 20
4.0617026632
 11
6.6060578228
 21
4.0617026632
  0
LINE
  5
7D7
100
AcDbEntity
  8
0
100
AcDbLine
 62
9
  6
CONTINUOUS
 10
6.4945780022
 20
4.0617026632
 11
6.2209457152
 21
4.0617026632
  0
LINE
  5
7D8
100
AcDbEntity
  8
0
100
AcDbLine
 62
9
  6
CONTINUOUS
 10
6.1094658946
 20
4.0617026632
 11
5.8358336076
 21
4.0617026632
  0
LINE
  5
7D9
100
AcDbEntity
  8
0
100
AcDbLine
 62
9
  6
CONTINUOUS
 10
5.7243537869
 20
4.0617026632
 11
5.4554737395
 21
4.0617026632
  0
LWPOLYLINE
  5
7DA
100
AcDbEntity
  8
0
100
AcDbPolyline
 62
7
  6
CONTINUOUS
 90
4
 70
0
 10
7.1902058049
 20
3.9861957572
 10
7.1735622405
 20
3.9866460904
 10
7.1568493692
 20
3.9866460904
 10
7.1402058049
 20
3.9861957572
  0
LWPOLYLINE
  5
7DB
100
AcDbEntity
  8
0
100
AcDbPolyline
 62
9
  6
CONTINUOUS
 90
6
 70
0
 10
6.4845699667
 20
4.0293616227
 10
6.4902960772
 20
4.0291745234
 10
6.4960085485
 20
4.0293700396
 10
6.5008442748
 20
4.0299186303
 10
6.5040726187
 20
4.0307374084
 10
6.5052058049
 20
4.0317026631
  0
LWPOLYLINE
  5
7DC
100
AcDbEntity
  8
0
100
AcDbPolyline
 62
9
  6
CONTINUOUS
 90
5
 70
0
 10
6.2192520476
 20
4.0293616227
 10
6.2139069825
 20
4.029573432
 10
6.209311626
 20
4.0300903156
 10
6.2062659019
 20
4.0308363954
 10
6.2052058049
 20
4.0317026632
  0
LWPOLYLINE
  5
7DD
100
AcDbEntity
  8
0
100
AcDbPolyline
 62
9
  6
CONTINUOUS
 90
4
 70
0
 10
6.5926624523
 20
4.0293616227
 10
6.5887352732
 20
4.0299563389
 10
6.5861160035
 20
4.0307726065
 10
6.5852058049
 20
4.0317026631
  0
LINE
  5
7DE
100
AcDbEntity
  8
0
100
AcDbLine
 62
9
  6
CONTINUOUS
 10
7.1652058049
 20
3.5438692681
 11
7.3602058049
 21
3.4312859657
  0
LWPOLYLINE
  5
7DF
100
AcDbEntity
  8
0
100
AcDbPolyline
 62
9
  6
CONTINUOUS
 90
6
 70
0
 10
6.4845699667
 20
3.7640437036
 10
6.48460143
 20
3.7588875864
 10
6.4852952652
 20
3.7540641786
 10
6.4865694692
 20
3.7501435509
 10
6.4882734459
 20
3.747589076
 10
6.4902058049
 20
3.7467026632
  0
LINE
  5
7E0
100
AcDbEntity
  8
0
100
AcDbLine
 62
7
  6
CONTINUOUS
 10
6.4205622512
 20
3.3107564034
 11
6.4205622512
 21
3.3191564031
  0
LINE
  5
7E1
100
AcDbEntity
  8
0
100
AcDbLine
 62
7
  6
CONTINUOUS
 10
6.4205622512
 20
3.3360692389
 11
6.4205622512
 21
3.3444692386
  0
LINE
  5
7E2
100
AcDbEntity
  8
0
100
AcDbLine
 62
7
  6
CONTINUOUS
 10
6.4497383019
 20
3.322756403
 11
6.4497383019
 21
3.3324692391
  0
LINE
  5
7E3
100
AcDbEntity
  8
0
100
AcDbLine
 62
7
  6
CONTINUOUS
 10
6.4707368865
 20
3.3444692386
 11
6.4707368865
 21
3.3384692388
  0
LINE
  5
7E4
100
AcDbEntity
  8
0
100
AcDbLine
 62
7
  6
CONTINUOUS
 10
6.4714381277
 20
3.3167564032
 11
6.4714381277
 21
3.3107564034
  0
LWPOLYLINE
  5
7E5
100
AcDbEntity
  8
0
100
AcDbPolyline
 62
9
  6
CONTINUOUS
 90
4
 70
0
 10
6.4845800987
 20
4.0293616227
 10
6.4845700469
 20
3.941112727
 10
6.4845700468
 20
3.8522938045
 10
6.4845792895
 20
3.7640437036
  0
LWPOLYLINE
  5
7E6
100
AcDbEntity
  8
0
100
AcDbPolyline
 62
9
  6
CONTINUOUS
 90
6
 70
0
 10
6.4845699667
 20
4.0293616227
 10
6.4845726173
 20
4.0341481648
 10
6.4851905657
 20
4.0388265196
 10
6.4864286672
 20
4.0429614826
 10
6.4882114925
 20
4.0457509087
 10
6.4902058049
 20
4.0467026632
  0
LWPOLYLINE
  5
7E7
100
AcDbEntity
  8
0
100
AcDbPolyline
 62
9
  6
CONTINUOUS
 90
5
 70
0
 10
6.8702058049
 20
4.0467026632
 10
6.8720166897
 20
4.0478444726
 10
6.8735518821
 20
4.0510960667
 10
6.8745776638
 20
4.0559624161
 10
6.8749378703
 20
4.0617026632
  0
LINE
  5
7E8
100
AcDbEntity
  8
0
100
AcDbLine
 62
7
  6
CONTINUOUS
 10
5.791474364
 20
3.3272221689
 11
5.7974668082
 21
3.3306953359
  0
LWPOLYLINE
  5
7E9
100
AcDbEntity
  8
0
100
AcDbPolyline
 62
7
  6
CONTINUOUS
 90
3
 70
0
 10
6.1937869674
 20
3.6467026632
 10
6.1823434207
 20
3.6427385886
 10
6.1653473825
 20
3.6408125182
  0
LWPOLYLINE
  5
7EA
100
AcDbEntity
  8
0
100
AcDbPolyline
 62
9
  6
CONTINUOUS
 90
8
 70
0
 10
5.4724312384
 20
4.0293616227
 10
5.4687606064
 20
4.0283503971
 10
5.4638921833
 20
4.0277493498
 10
5.4584739308
 20
4.0276245231
 10
5.4533015581
 20
4.0280584993
 10
5.4490060065
 20
4.0289677791
 10
5.4461868976
 20
4.030236954
 10
5.4452058049
 20
4.0317026631
  0
LWPOLYLINE
  5
7EB
100
AcDbEntity
  8
0
100
AcDbPolyline
 62
9
  6
CONTINUOUS
 90
6
 70
0
 10
5.4554737395
 20
4.0617026632
 10
5.4464753664
 20
4.060235013
 10
5.4382632344
 20
4.0559051317
 10
5.4318508851
 20
4.0492519242
 10
5.4277731906
 20
4.0409731698
 10
5.4263475259
 20
4.0317026632
  0
LINE
  5
7EC
100
AcDbEntity
  8
0
100
AcDbLine
 62
9
  6
CONTINUOUS
 10
7.2252058049
 20
4.1217026632
 11
5.1052058049
 21
4.1217026632
  0
LINE
  5
7ED
100
AcDbEntity
  8
0
100
AcDbLine
 62
7
  6
CONTINUOUS
 10
7.2252058049
 20
4.1467026632
 11
5.1052058049
 21
4.1467026632
  0
LWPOLYLINE
  5
7EE
100
AcDbEntity
  8
0
100
AcDbPolyline
 62
9
  6
CONTINUOUS
 90
8
 70
0
 10
6.8579803713
 20
4.0293616227
 10
6.8618319342
 20
4.0283192334
 10
6.8667603164
 20
4.0277149636
 10
6.8721316965
 20
4.0276280761
 10
6.8772554214
 20
4.0280686513
 10
6.8814728253
 20
4.0289800504
 10
6.8842416187
 20
4.0302461825
 10
6.8852058049
 20
4.0317026631
  0
LWPOLYLINE
  5
7EF
100
AcDbEntity
  8
0
100
AcDbPolyline
 62
7
  6
CONTINUOUS
 90
5
 70
0
 10
6.1944931485
 20
4.1467026632
 10
6.1776101875
 20
4.1515860077
 10
6.159155721
 20
4.1523538396
 10
6.1405623924
 20
4.1485902238
 10
6.1364935565
 20
4.1467026632
  0
LINE
  5
7F0
100
AcDbEntity
  8
0
100
AcDbLine
 62
7
  6
CONTINUOUS
 10
7.3902058049
 20
3.4486064737
 11
7.1652058049
 21
3.5785102843
  0
LWPOLYLINE
  5
7F1
100
AcDbEntity
  8
0
100
AcDbPolyline
 62
9
  6
CONTINUOUS
 90
5
 70
0
 10
6.8702058049
 20
3.7467026632
 10
6.8720166863
 20
3.7455608533
 10
6.873551878
 20
3.7423092567
 10
6.8745776607
 20
3.7374429057
 10
6.8749378703
 20
3.7317026632
  0
LINE
  5
7F2
100
AcDbEntity
  8
0
100
AcDbLine
 62
7
  6
CONTINUOUS
 10
6.6242028423
 20
3.3084948299
 11
6.6255146901
 21
3.3040804945
  0
LWPOLYLINE
  5
7F3
100
AcDbEntity
  8
0
100
AcDbPolyline
 62
9
  6
CONTINUOUS
 90
6
 70
0
 10
6.5926624523
 20
3.7640437036
 10
6.5927045646
 20
3.7588875864
 10
6.5936332364
 20
3.7540641786
 10
6.5953387095
 20
3.7501435509
 10
6.5976194167
 20
3.747589076
 10
6.6002058049
 20
3.7467026632
  0
LWPOLYLINE
  5
7F4
100
AcDbEntity
  8
0
100
AcDbPolyline
 62
9
  6
CONTINUOUS
 90
4
 70
0
 10
6.5926750745
 20
3.7640437036
 10
6.5926625778
 20
3.8522729721
 10
6.5926625777
 20
3.9411307238
 10
6.5926741754
 20
4.0293616227
  0
LINE
  5
7F5
100
AcDbEntity
  8
0
100
AcDbLine
 62
7
  6
CONTINUOUS
 10
6.5047829744
 20
3.3384692388
 11
6.5047829744
 21
3.3624692379
  0
LINE
  5
7F6
100
AcDbEntity
  8
0
100
AcDbLine
 62
7
  6
CONTINUOUS
 10
6.5052058049
 20
3.7617026632
 11
6.5052058049
 21
4.0317026632
  0
LINE
  5
7F7
100
AcDbEntity
  8
0
100
AcDbLine
 62
7
  6
CONTINUOUS
 10
6.5058155107
 20
3.2927564041
 11
6.5058155107
 21
3.3167564032
  0
LINE
  5
7F8
100
AcDbEntity
  8
0
100
AcDbLine
 62
7
  6
CONTINUOUS
 10
6.5232361087
 20
3.3624692379
 11
6.5232361087
 21
3.3480692385
  0
LINE
  5
7F9
100
AcDbEntity
  8
0
100
AcDbLine
 62
7
  6
CONTINUOUS
 10
6.5232361087
 20
3.3071564036
 11
6.5232361087
 21
3.2927564041
  0
LINE
  5
7FA
100
AcDbEntity
  8
0
100
AcDbLine
 62
9
  6
CONTINUOUS
 10
6.5249815896
 20
3.7617026632
 11
6.5249815896
 21
4.0317026632
  0
LINE
  5
7FB
100
AcDbEntity
  8
0
100
AcDbLine
 62
7
  6
CONTINUOUS
 10
6.5433788477
 20
3.3444692386
 11
6.5433788477
 21
3.3107564034
  0
LINE
  5
7FC
100
AcDbEntity
  8
0
100
AcDbLine
 62
9
  6
CONTINUOUS
 10
6.5756542354
 20
4.0317026632
 11
6.5756542354
 21
3.7617026632
  0
LINE
  5
7FD
100
AcDbEntity
  8
0
100
AcDbLine
 62
7
  6
CONTINUOUS
 10
6.5852058049
 20
4.0317026632
 11
6.5852058049
 21
3.7617026632
  0
LINE
  5
7FE
100
AcDbEntity
  8
0
100
AcDbLine
 62
7
  6
CONTINUOUS
 10
6.5878993808
 20
3.3107402037
 11
6.5878993808
 21
3.3177941005
  0
LINE
  5
7FF
100
AcDbEntity
  8
0
100
AcDbLine
 62
7
  6
CONTINUOUS
 10
6.5878993808
 20
3.3352146255
 11
6.5878993808
 21
3.3444692386
  0
LWPOLYLINE
  5
800
100
AcDbEntity
  8
0
100
AcDbPolyline
 62
9
  6
CONTINUOUS
 90
6
 70
0
 10
6.5926624523
 20
4.0293616227
 10
6.5927045646
 20
4.0345177399
 10
6.5936332364
 20
4.0393411477
 10
6.5953387095
 20
4.0432617754
 10
6.5976194167
 20
4.0458162503
 10
6.6002058049
 20
4.0467026632
  0
LINE
  5
801
100
AcDbEntity
  8
0
100
AcDbLine
 62
9
  6
CONTINUOUS
 10
5.4261547116
 20
3.0926820008
 11
5.4002058049
 21
3.0797075474
  0
LINE
  5
802
100
AcDbEntity
  8
0
100
AcDbLine
 62
7
  6
CONTINUOUS
 10
5.5337343091
 20
4.2967026632
 11
6.7966773007
 21
4.2967026632
  0
LINE
  5
803
100
AcDbEntity
  8
0
100
AcDbLine
 62
9
  6
CONTINUOUS
 10
6.9402058049
 20
3.0797075474
 11
6.9272313515
 21
3.1056564541
  0
LWPOLYLINE
  5
804
100
AcDbEntity
  8
0
100
AcDbPolyline
 62
9
  6
CONTINUOUS
 90
8
 70
0
 10
6.9272313515
 20
3.1056564541
 10
6.9244276987
 20
3.1121696476
 10
6.9219363096
 20
3.1198348469
 10
6.9197609467
 20
3.1286551356
 10
6.9179343091
 20
3.1386392082
 10
6.916509276
 20
3.1498059308
 10
6.915559128
 20
3.162254008
 10
6.9152058049
 20
3.1760507201
  0
LWPOLYLINE
  5
805
100
AcDbEntity
  8
0
100
AcDbPolyline
 62
7
  6
CONTINUOUS
 90
60
 70
0
 10
6.7637321647
 20
3.3356165184
 10
6.7616696472
 20
3.3407237728
 10
6.7589528893
 20
3.3455310469
 10
6.7550791535
 20
3.3507701277
 10
6.7506649202
 20
3.3555039389
 10
6.745835446
 20
3.3598154926
 10
6.7407159874
 20
3.3637878008
 10
6.7313298541
 20
3.3701263779
 10
6.721543497
 20
3.3758019258
 10
6.7114624017
 20
3.3809380432
 10
6.6988180358
 20
3.3866633305
 10
6.6859445908
 20
3.3918520016
 10
6.6728980935
 20
3.3965938842
 10
6.6577055919
 20
3.4016097564
 10
6.6423832937
 20
3.4062074694
 10
6.6269569396
 20
3.4104432966
 10
6.6014269356
 20
3.4167470302
 10
6.5757321053
 20
3.4223432814
 10
6.5485297029
 20
3.427593647
 10
6.521222389
 20
3.4322645074
 10
6.4933024693
 20
3.4365015602
 10
6.4652057936
 20
3.4402758973
 10
6.4362027736
 20
3.4437071129
 10
6.4054547585
 20
3.4468735126
 10
6.3721922938
 20
3.4497954103
 10
6.3388900089
 20
3.4522309746
 10
6.3025219512
 20
3.4543655619
 10
6.2661274601
 20
3.4559772661
 10
6.2272124098
 20
3.4571429679
 10
6.1882827271
 20
3.4577487026
 10
6.147293665
 20
3.457792116
 10
6.1063067491
 20
3.4572195316
 10
6.0653345114
 20
3.4560200631
 10
6.0243894836
 20
3.454182824
 10
5.9845165744
 20
3.4517608094
 10
5.9446895656
 20
3.4486703912
 10
5.904916599
 20
3.4448594577
 10
5.8652058161
 20
3.4402758973
 10
5.8380778125
 20
3.4366599101
 10
5.8110135801
 20
3.4325959296
 10
5.7840439622
 20
3.4280221216
 10
5.7571998022
 20
3.4228766519
 10
5.7305119436
 20
3.4170976863
 10
5.7110205611
 20
3.4123991498
 10
5.691648778
 20
3.4072255271
 10
5.6724151511
 20
3.4014771522
 10
5.6533382375
 20
3.395054359
 10
5.634436594
 20
3.3878574816
 10
5.626183339
 20
3.3844077221
 10
5.6180309256
 20
3.3807249345
 10
5.6100426059
 20
3.3767455411
 10
5.6022816315
 20
3.3724059643
 10
5.5948112546
 20
3.3676426263
 10
5.587694727
 20
3.3623919496
 10
5.5809953005
 20
3.3565903564
 10
5.5775256093
 20
3.3531377315
 10
5.5742964701
 20
3.3494643257
 10
5.5714031417
 20
3.3455352246
 10
5.5689408835
 20
3.3413155138
 10
5.566772464
 20
3.3360937552
  0
LWPOLYLINE
  5
806
100
AcDbEntity
  8
0
100
AcDbPolyline
 62
9
  6
CONTINUOUS
 90
5
 70
0
 10
6.8352058049
 20
3.1056564541
 10
6.8371088166
 20
3.1006913458
 10
6.8425281353
 20
3.0964821302
 10
6.8506387191
 20
3.0936696222
 10
6.8602058049
 20
3.0926820008
  0
LWPOLYLINE
  5
807
100
AcDbEntity
  8
0
100
AcDbPolyline
 62
9
  6
CONTINUOUS
 90
6
 70
0
 10
6.5249815896
 20
4.0317026632
 10
6.5235895475
 20
4.0406763212
 10
6.5195069994
 20
4.048876289
 10
6.512915929
 20
4.0556314679
 10
6.5042778612
 20
4.0601348069
 10
6.4945780022
 20
4.0617026632
  0
LWPOLYLINE
  5
808
100
AcDbEntity
  8
0
100
AcDbPolyline
 62
9
  6
CONTINUOUS
 90
9
 70
0
 10
6.5756542354
 20
3.7617026632
 10
6.5766456451
 20
3.754104111
 10
6.579400632
 20
3.7472763221
 10
6.5833933257
 20
3.7417062784
 10
6.5879975884
 20
3.7375692191
 10
6.5927799137
 20
3.7347148139
 10
6.5974826664
 20
3.7329206372
 10
6.6019434375
 20
3.7319786302
 10
6.6060578228
 20
3.7317026632
  0
LINE
  5
809
100
AcDbEntity
  8
0
100
AcDbLine
 62
7
  6
CONTINUOUS
 10
6.609433559
 20
3.2927564041
 11
6.609433559
 21
3.3071402039
  0
LINE
  5
80A
100
AcDbEntity
  8
0
100
AcDbLine
 62
7
  6
CONTINUOUS
 10
6.681573056
 20
3.3174379583
 11
6.681573056
 21
3.3155282208
  0
LINE
  5
80B
100
AcDbEntity
  8
0
100
AcDbLine
 62
7
  6
CONTINUOUS
 10
6.6939800556
 20
3.3090368315
 11
6.6939800556
 21
3.3174379583
  0
LWPOLYLINE
  5
80C
100
AcDbEntity
  8
0
100
AcDbPolyline
 62
7
  6
CONTINUOUS
 90
15
 70
0
 10
6.7652057824
 20
3.3267026632
 10
6.7636143801
 20
3.3359773405
 10
6.7589006704
 20
3.3456117935
 10
6.7514494647
 20
3.3547298787
 10
6.7415883212
 20
3.3631426009
 10
6.729801901
 20
3.3710674663
 10
6.7162771753
 20
3.3785597467
 10
6.7010153235
 20
3.3857172969
 10
6.6839437188
 20
3.3926096991
 10
6.6649708013
 20
3.399272598
 10
6.6440107084
 20
3.4057388577
 10
6.620908768
 20
3.412011361
 10
6.5955262287
 20
3.4180933666
 10
6.567690242
 20
3.4239626444
 10
6.5372019455
 20
3.4295992628
  0
LWPOLYLINE
  5
80D
100
AcDbEntity
  8
0
100
AcDbPolyline
 62
9
  6
CONTINUOUS
 90
5
 70
0
 10
6.7665790342
 20
4.1217026632
 10
6.7655662707
 20
4.1312697589
 10
6.7626821664
 20
4.1393803446
 10
6.7583658048
 20
4.1447996569
 10
6.7532743168
 20
4.1467026632
  0
LWPOLYLINE
  5
80E
100
AcDbEntity
  8
0
100
AcDbPolyline
 62
7
  6
CONTINUOUS
 90
23
 70
0
 10
6.7652057824
 20
3.3267026632
 10
6.7652024481
 20
3.3271118174
 10
6.7651925004
 20
3.3275209222
 10
6.7651760221
 20
3.3279299281
 10
6.7651530959
 20
3.3283387857
 10
6.7651238045
 20
3.3287474457
 10
6.7650882307
 20
3.3291558584
 10
6.7650464573
 20
3.3295639747
 10
6.7649985669
 20
3.3299717449
 10
6.7649446424
 20
3.3303791197
 10
6.7648847665
 20
3.3307860496
 10
6.7648190219
 20
3.3311924853
 10
6.7647474914
 20
3.3315983772
 10
6.7646702577
 20
3.332003676
 10
6.7645874035
 20
3.3324083323
 10
6.7644990117
 20
3.3328122965
 10
6.764405165
 20
3.3332155193
 10
6.764305946
 20
3.3336179513
 10
6.7642014377
 20
3.334019543
 10
6.7640917226
 20
3.334420245
 10
6.7639768836
 20
3.3348200078
 10
6.7638570034
 20
3.3352187821
 10
6.7637321647
 20
3.3356165184
  0
LINE
  5
80F
100
AcDbEntity
  8
0
100
AcDbLine
 62
9
  6
CONTINUOUS
 10
6.7665790342
 20
4.1217026632
 11
6.7665790342
 21
4.0617026632
  0
LINE
  5
810
100
AcDbEntity
  8
0
100
AcDbLine
 62
9
  6
CONTINUOUS
 10
6.7665790342
 20
3.7317026632
 11
6.7665790342
 21
3.6717026632
  0
LINE
  5
811
100
AcDbEntity
  8
AXIS_COSMETIC_THREADS
100
AcDbLine
 62
7
  6
CONTINUOUS
 10
6.785284545
 20
4.4935530569
 11
6.785284545
 21
4.2967026632
  0
LINE
  5
812
100
AcDbEntity
  8
0
100
AcDbLine
 62
9
  6
CONTINUOUS
 10
6.8102058049
 20
3.0067026632
 11
6.8102058049
 21
3.5198573202
  0
LWPOLYLINE
  5
813
100
AcDbEntity
  8
0
100
AcDbPolyline
 62
9
  6
CONTINUOUS
 90
5
 70
0
 10
6.7665790342
 20
3.6717026632
 10
6.7655662781
 20
3.662135601
 10
6.7626821878
 20
3.6540250219
 10
6.7583658283
 20
3.6486056878
 10
6.7532743168
 20
3.6467026632
  0
LWPOLYLINE
  5
814
100
AcDbEntity
  8
0
100
AcDbPolyline
 62
9
  6
CONTINUOUS
 90
7
 70
0
 10
6.8974664291
 20
3.6346771165
 10
6.9023922904
 20
3.6380575797
 10
6.908272822
 20
3.6409401477
 10
6.9150134631
 20
3.6432978505
 10
6.9225742608
 20
3.6450967349
 10
6.9309610317
 20
3.6462715907
 10
6.9402058049
 20
3.6467026632
  0
LINE
  5
815
100
AcDbEntity
  8
0
100
AcDbLine
 62
7
  6
CONTINUOUS
 10
7.2281979309
 20
4.4935530569
 11
5.1022136789
 21
4.4935530569
  0
LINE
  5
816
100
AcDbEntity
  8
0
100
AcDbLine
 62
9
  6
CONTINUOUS
 10
7.2478829702
 20
4.5132380962
 11
5.0825286395
 21
4.5132380962
  0
LINE
  5
817
100
AcDbEntity
  8
0
100
AcDbLine
 62
9
  6
CONTINUOUS
 10
7.4502058049
 20
3.7385887802
 11
7.4297512594
 21
3.7529627695
  0
LWPOLYLINE
  5
818
100
AcDbEntity
  8
0
100
AcDbPolyline
 62
9
  6
CONTINUOUS
 90
8
 70
0
 10
6.8579803713
 20
4.0293616227
 10
6.8578857044
 20
4.032250187
 10
6.8581640415
 20
4.0351173588
 10
6.8589909457
 20
4.0381101554
 10
6.8605627895
 20
4.0411117854
 10
6.8629324397
 20
4.0438337766
 10
6.8661502706
 20
4.0458754929
 10
6.8702058049
 20
4.0467026632
  0
LWPOLYLINE
  5
819
100
AcDbEntity
  8
0
100
AcDbPolyline
 62
9
  6
CONTINUOUS
 90
6
 70
0
 10
6.8579803713
 20
3.7640437036
 10
6.8580486224
 20
3.7588875864
 10
6.8595537112
 20
3.7540641786
 10
6.8623177537
 20
3.7501435509
 10
6.8660140722
 20
3.747589076
 10
6.8702058049
 20
3.7467026632
  0
LINE
  5
81A
100
AcDbEntity
  8
0
100
AcDbLine
 62
7
  6
CONTINUOUS
 10
6.8352058049
 20
3.0317026632
 11
6.8352058049
 21
3.5663421714
  0
LINE
  5
81B
100
AcDbEntity
  8
0
100
AcDbLine
 62
9
  6
CONTINUOUS
 10
6.8579803569
 20
4.0293616227
 11
6.857980357
 21
3.7640437036
  0
LINE
  5
81C
100
AcDbEntity
  8
0
100
AcDbLine
 62
9
  6
CONTINUOUS
 10
6.8602058049
 20
3.0067026632
 11
6.8602058049
 21
3.6087282098
  0
LINE
  5
81D
100
AcDbEntity
  8
0
100
AcDbLine
 62
7
  6
CONTINUOUS
 10
6.8852058049
 20
3.7617026632
 11
6.8852058049
 21
4.0317026632
  0
LINE
  5
81E
100
AcDbEntity
  8
0
100
AcDbLine
 62
9
  6
CONTINUOUS
 10
6.8902058049
 20
3.1630762667
 11
6.8902058049
 21
3.6087282098
  0
LINE
  5
81F
100
AcDbEntity
  8
0
100
AcDbLine
 62
9
  6
CONTINUOUS
 10
6.9040640839
 20
3.7617026632
 11
6.9040640839
 21
4.0317026632
  0
LINE
  5
820
100
AcDbEntity
  8
0
100
AcDbLine
 62
7
  6
CONTINUOUS
 10
6.9152058049
 20
3.1760507201
 11
6.9152058049
 21
3.6217026632
  0
LINE
  5
821
100
AcDbEntity
  8
0
100
AcDbLine
 62
7
  6
CONTINUOUS
 10
6.8690232685
 20
3.6467026632
 11
6.8680794907
 21
3.6429257011
  0
LINE
  5
822
100
AcDbEntity
  8
0
100
AcDbLine
 62
7
  6
CONTINUOUS
 10
6.8680794907
 20
3.6429257011
 11
6.8675422034
 21
3.6408123874
  0
LWPOLYLINE
  5
823
100
AcDbEntity
  8
0
100
AcDbPolyline
 62
7
  6
CONTINUOUS
 90
23
 70
0
 10
6.763733157
 20
3.3177919046
 10
6.7638579139
 20
3.3181895081
 10
6.7639777154
 20
3.3185881484
 10
6.7640924786
 20
3.3189877762
 10
6.7642021209
 20
3.3193883422
 10
6.7643065597
 20
3.3197897969
 10
6.7644057123
 20
3.3201920911
 10
6.7644994961
 20
3.3205951752
 10
6.7645878283
 20
3.320999
 10
6.7646706264
 20
3.321403516
 10
6.7647478077
 20
3.3218086739
 10
6.7648192894
 20
3.3222144243
 10
6.7648849891
 20
3.3226207179
 10
6.7649448239
 20
3.3230275052
 10
6.7649987113
 20
3.3234347369
 10
6.7650465685
 20
3.3238423636
 10
6.765088313
 20
3.324250336
 10
6.765123862
 20
3.3246586045
 10
6.7651531329
 20
3.32506712
 10
6.7651760431
 20
3.325475833
 10
6.7651925098
 20
3.3258846941
 10
6.7652024504
 20
3.3262936539
 10
6.7652057824
 20
3.3267026632
  0
LINE
  5
824
100
AcDbEntity
  8
0
100
AcDbLine
 62
7
  6
CONTINUOUS
 10
6.9769896171
 20
3.8967026632
 11
7.071097711
 21
4.0597026632
  0
LINE
  5
825
100
AcDbEntity
  8
0
100
AcDbLine
 62
7
  6
CONTINUOUS
 10
6.9769896171
 20
3.8967026632
 11
7.071097711
 21
3.7337026632
  0
LINE
  5
826
100
AcDbEntity
  8
0
100
AcDbLine
 62
7
  6
CONTINUOUS
 10
6.8675422034
 20
4.152592939
 11
6.868079424
 21
4.1504798874
  0
LINE
  5
827
100
AcDbEntity
  8
0
100
AcDbLine
 62
7
  6
CONTINUOUS
 10
6.868079424
 20
4.1504798874
 11
6.8690232683
 21
4.1467026632
  0
LINE
  5
828
100
AcDbEntity
  8
0
100
AcDbLine
 62
9
  6
CONTINUOUS
 10
6.8602058049
 20
3.6087282098
 11
6.8587567274
 21
3.6191484881
  0
LINE
  5
829
100
AcDbEntity
  8
0
100
AcDbLine
 62
9
  6
CONTINUOUS
 10
6.9402058049
 20
3.0797075474
 11
6.9402058049
 21
3.1887988526
  0
LINE
  5
82A
100
AcDbEntity
  8
0
100
AcDbLine
 62
7
  6
CONTINUOUS
 10
6.9402058049
 20
3.1887988526
 11
6.9402058049
 21
3.4486064737
  0
LINE
  5
82B
100
AcDbEntity
  8
0
100
AcDbLine
 62
9
  6
CONTINUOUS
 10
6.9402058049
 20
3.4486064737
 11
6.9402058049
 21
3.6467026632
  0
LINE
  5
82C
100
AcDbEntity
  8
0
100
AcDbLine
 62
9
  6
CONTINUOUS
 10
6.9702058049
 20
3.2061193607
 11
6.9702058049
 21
3.4312859657
  0
LINE
  5
82D
100
AcDbEntity
  8
0
100
AcDbLine
 62
9
  6
CONTINUOUS
 10
7.0116624978
 20
4.4935530569
 11
7.0116624978
 21
4.769143608
  0
LWPOLYLINE
  5
82E
100
AcDbEntity
  8
0
100
AcDbPolyline
 62
9
  6
CONTINUOUS
 90
3
 70
0
 10
6.8902058049
 20
3.6087282098
 10
6.8921147671
 20
3.6224186896
 10
6.8974664291
 20
3.6346771165
  0
LINE
  5
82F
100
AcDbEntity
  8
0
100
AcDbLine
 62
7
  6
CONTINUOUS
 10
7.1652058049
 20
3.5785102843
 11
6.9402058049
 21
3.4486064737
  0
LINE
  5
830
100
AcDbEntity
  8
0
100
AcDbLine
 62
9
  6
CONTINUOUS
 10
6.9702058049
 20
3.4312859657
 11
7.1652058049
 21
3.5438692681
  0
LWPOLYLINE
  5
831
100
AcDbEntity
  8
0
100
AcDbPolyline
 62
9
  6
CONTINUOUS
 90
6
 70
0
 10
6.9040640839
 20
4.0317026632
 10
6.9026370165
 20
4.0409780869
 10
6.8985594137
 20
4.0492536064
 10
6.892158404
 20
4.0558974488
 10
6.8839565023
 20
4.0602279369
 10
6.8749378703
 20
4.0617026632
  0
LINE
  5
832
100
AcDbEntity
  8
0
100
AcDbLine
 62
9
  6
CONTINUOUS
 10
7.0326733835
 20
3.8002555506
 11
7.0326733835
 21
3.6467026632
  0
LINE
  5
833
100
AcDbEntity
  8
0
100
AcDbLine
 62
9
  6
CONTINUOUS
 10
7.0326733835
 20
3.9931497757
 11
7.0326733835
 21
4.1467026632
  0
LINE
  5
834
100
AcDbEntity
  8
0
100
AcDbLine
 62
7
  6
CONTINUOUS
 10
7.1002058049
 20
3.9217026632
 11
7.1002058049
 21
3.8717026632
  0
LINE
  5
835
100
AcDbEntity
  8
0
100
AcDbLine
 62
7
  6
CONTINUOUS
 10
7.0865228784
 20
3.7604198368
 11
7.071097711
 21
3.7337026632
  0
LINE
  5
836
100
AcDbEntity
  8
0
100
AcDbLine
 62
7
  6
CONTINUOUS
 10
7.2438887314
 20
4.0329854895
 11
7.2593138987
 21
4.0597026632
  0
LINE
  5
837
100
AcDbEntity
  8
0
100
AcDbLine
 62
7
  6
CONTINUOUS
 10
5.0825286395
 20
4.769143608
 11
7.2478829702
 21
4.769143608
  0
LINE
  5
838
100
AcDbEntity
  8
0
100
AcDbLine
 62
7
  6
CONTINUOUS
 10
7.2439057974
 20
3.7603902775
 11
7.2593138987
 21
3.7337026632
  0
LINE
  5
839
100
AcDbEntity
  8
0
100
AcDbLine
 62
7
  6
CONTINUOUS
 10
7.0865058123
 20
4.0330150489
 11
7.071097711
 21
4.0597026632
  0
LINE
  5
83A
100
AcDbEntity
  8
0
100
AcDbLine
 62
7
  6
CONTINUOUS
 10
7.1317151441
 20
3.9217026632
 11
7.1317151441
 21
3.8717026632
  0
LINE
  5
83B
100
AcDbEntity
  8
0
100
AcDbLine
 62
7
  6
CONTINUOUS
 10
7.1402058049
 20
3.8072095691
 11
7.1402058049
 21
3.8717026632
  0
LINE
  5
83C
100
AcDbEntity
  8
0
100
AcDbLine
 62
7
  6
CONTINUOUS
 10
7.1402058049
 20
3.9217026632
 11
7.1402058049
 21
3.9861957572
  0
LINE
  5
83D
100
AcDbEntity
  8
DEFAULT_1
100
AcDbLine
 62
7
  6
CENTER
 10
7.1652058049
 20
3.3187026632
 11
7.1652058049
 21
3.0935360582
  0
LINE
  5
83E
100
AcDbEntity
  8
0
100
AcDbLine
 62
7
  6
CONTINUOUS
 10
7.1652058049
 20
3.0935360582
 11
7.1652058049
 21
3.058895042
  0
LINE
  5
83F
100
AcDbEntity
  8
DEFAULT_1
100
AcDbLine
 62
7
  6
CENTER
 10
7.1652058049
 20
3.3187026632
 11
7.1652058049
 21
3.5438692681
  0
LINE
  5
840
100
AcDbEntity
  8
0
100
AcDbLine
 62
7
  6
CONTINUOUS
 10
7.1652058049
 20
3.5438692681
 11
7.1652058049
 21
3.5785102843
  0
LINE
  5
841
100
AcDbEntity
  8
0
100
AcDbLine
 62
7
  6
CONTINUOUS
 10
7.1902058049
 20
3.8072095691
 11
7.1902058049
 21
3.8717026632
  0
LINE
  5
842
100
AcDbEntity
  8
0
100
AcDbLine
 62
7
  6
CONTINUOUS
 10
7.1902058049
 20
3.9217026632
 11
7.1902058049
 21
3.9861957572
  0
LINE
  5
843
100
AcDbEntity
  8
0
100
AcDbLine
 62
7
  6
CONTINUOUS
 10
7.1986964657
 20
3.9217026632
 11
7.1986964657
 21
3.8717026632
  0
LINE
  5
844
100
AcDbEntity
  8
0
100
AcDbLine
 62
9
  6
CONTINUOUS
 10
7.2252058049
 20
3.0317026632
 11
7.2252058049
 21
3.0067026632
  0
LINE
  5
845
100
AcDbEntity
  8
0
100
AcDbLine
 62
9
  6
CONTINUOUS
 10
7.2252058049
 20
3.6217026632
 11
7.2252058049
 21
3.6717026632
  0
LINE
  5
846
100
AcDbEntity
  8
0
100
AcDbLine
 62
9
  6
CONTINUOUS
 10
7.2252058049
 20
4.1217026632
 11
7.2252058049
 21
4.1467026632
  0
LINE
  5
847
100
AcDbEntity
  8
0
100
AcDbLine
 62
7
  6
CONTINUOUS
 10
7.2302058049
 20
3.9217026632
 11
7.2302058049
 21
3.8717026632
  0
LINE
  5
848
100
AcDbEntity
  8
0
100
AcDbLine
 62
7
  6
CONTINUOUS
 10
7.2593138987
 20
3.7337026632
 11
7.3534219926
 21
3.8967026632
  0
LINE
  5
849
100
AcDbEntity
  8
0
100
AcDbLine
 62
7
  6
CONTINUOUS
 10
6.9702058049
 20
3.2061193607
 11
6.9402058049
 21
3.1887988526
  0
LINE
  5
84A
100
AcDbEntity
  8
0
100
AcDbLine
 62
7
  6
CONTINUOUS
 10
7.3602058049
 20
3.4312859657
 11
7.3902058049
 21
3.4486064737
  0
LINE
  5
84B
100
AcDbEntity
  8
0
100
AcDbLine
 62
7
  6
CONTINUOUS
 10
7.3534219926
 20
3.8967026632
 11
7.2593138987
 21
4.0597026632
  0
LINE
  5
84C
100
AcDbEntity
  8
0
100
AcDbLine
 62
7
  6
CONTINUOUS
 10
7.2478829702
 20
4.769143608
 11
7.2478829702
 21
4.5132380962
  0
LWPOLYLINE
  5
84D
100
AcDbEntity
  8
0
100
AcDbPolyline
 62
9
  6
CONTINUOUS
 90
4
 70
0
 10
6.9142568981
 20
3.0926816467
 10
6.9189676496
 20
3.0965287468
 10
6.9233843459
 20
3.1009455806
 10
6.9272312999
 20
3.1056564541
  0
LINE
  5
84E
100
AcDbEntity
  8
0
100
AcDbLine
 62
9
  6
CONTINUOUS
 10
7.3602058049
 20
3.4312859657
 11
7.3602058049
 21
3.2061193607
  0
LINE
  5
84F
100
AcDbEntity
  8
0
100
AcDbLine
 62
7
  6
CONTINUOUS
 10
7.3902058049
 20
3.1887988526
 11
7.3902058049
 21
3.4486064737
  0
LWPOLYLINE
  5
850
100
AcDbEntity
  8
0
100
AcDbPolyline
 62
9
  6
CONTINUOUS
 90
8
 70
0
 10
7.4502058049
 20
3.7385887802
 10
7.455821638
 20
3.7559194331
 10
7.4611453747
 20
3.7755591225
 10
7.4660202785
 20
3.7978766443
 10
7.4699033063
 20
3.8210703697
 10
7.4725423883
 20
3.8428383626
 10
7.4741514333
 20
3.8627121
 10
7.4749723667
 20
3.8806850957
  0
LINE
  5
851
100
AcDbEntity
  8
0
100
AcDbLine
 62
9
  6
CONTINUOUS
 10
7.3602058049
 20
3.2061193607
 11
7.1652058049
 21
3.0935360582
  0
LINE
  5
852
100
AcDbEntity
  8
0
100
AcDbLine
 62
7
  6
CONTINUOUS
 10
7.1652058049
 20
3.058895042
 11
7.3902058049
 21
3.1887988526
  0
LINE
  5
853
100
AcDbEntity
  8
0
100
AcDbLine
 62
9
  6
CONTINUOUS
 10
7.4502058049
 20
3.2567026632
 11
7.4502058049
 21
3.7385887802
  0
LINE
  5
854
100
AcDbEntity
  8
0
100
AcDbLine
 62
7
  6
CONTINUOUS
 10
7.4752058049
 20
3.2567026632
 11
7.4752058049
 21
3.8967026632
  0
LINE
  5
855
100
AcDbEntity
  8
0
100
AcDbLine
 62
9
  6
CONTINUOUS
 10
7.4749723667
 20
3.8806850957
 11
7.4752058049
 21
3.8967026632
  0
LINE
  5
856
100
AcDbEntity
  8
0
100
AcDbLine
 62
7
  6
CONTINUOUS
 10
4.8552058049
 20
8.6744489098
 11
4.8552058049
 21
7.5344489098
  0
LINE
  5
857
100
AcDbEntity
  8
0
100
AcDbLine
 62
7
  6
CONTINUOUS
 10
4.8552058049
 20
6.6244489098
 11
4.8552058049
 21
7.4394489098
  0
LINE
  5
858
100
AcDbEntity
  8
AXIS_COSMETIC_THREADS
100
AcDbLine
 62
7
  6
CONTINUOUS
 10
4.8752058049
 20
7.4494489098
 11
4.8752058049
 21
7.4644489098
  0
LINE
  5
859
100
AcDbEntity
  8
0
100
AcDbLine
 62
7
  6
CONTINUOUS
 10
5.0152058049
 20
7.5244489098
 11
5.0152058049
 21
7.4644489098
  0
LINE
  5
85A
100
AcDbEntity
  8
0
100
AcDbLine
 62
7
  6
CONTINUOUS
 10
5.0825286395
 20
8.2818504846
 11
5.0825286395
 21
6.707047335
  0
LINE
  5
85B
100
AcDbEntity
  8
0
100
AcDbLine
 62
9
  6
CONTINUOUS
 10
5.1052058049
 20
8.6744489098
 11
5.1052058049
 21
8.3810336551
  0
LINE
  5
85C
100
AcDbEntity
  8
0
100
AcDbLine
 62
9
  6
CONTINUOUS
 10
5.1052058049
 20
6.5994489098
 11
5.1052058049
 21
6.6078641645
  0
LINE
  5
85D
100
AcDbEntity
  8
0
100
AcDbLine
 62
7
  6
CONTINUOUS
 10
5.318749112
 20
6.4708268625
 11
7.0116624978
 21
6.4708268625
  0
LINE
  5
85E
100
AcDbEntity
  8
0
100
AcDbLine
 62
7
  6
CONTINUOUS
 10
5.3152058049
 20
7.5244489098
 11
5.3152058049
 21
7.4644489098
  0
LINE
  5
85F
100
AcDbEntity
  8
AXIS_COSMETIC_THREADS
100
AcDbLine
 62
7
  6
CENTER
 10
5.318749112
 20
7.4944489098
 11
5.318749112
 21
7.2802756814
  0
LINE
  5
860
100
AcDbEntity
  8
AXIS_COSMETIC_THREADS
100
AcDbLine
 62
7
  6
CENTER
 10
5.318749112
 20
7.4944489098
 11
5.318749112
 21
7.7086221381
  0
LINE
  5
861
100
AcDbEntity
  8
0
100
AcDbLine
 62
7
  6
CONTINUOUS
 10
7.4502051309
 20
6.5994489098
 11
7.2207077575
 21
6.5994489098
  0
LINE
  5
862
100
AcDbEntity
  8
0
100
AcDbLine
 62
7
  6
CONTINUOUS
 10
5.1097038522
 20
6.5994489098
 11
4.8802064789
 21
6.5994489098
  0
LINE
  5
863
100
AcDbEntity
  8
0
100
AcDbLine
 62
9
  6
CONTINUOUS
 10
7.4752058049
 20
6.6244489098
 11
7.2322676298
 21
6.6244489098
  0
LINE
  5
864
100
AcDbEntity
  8
0
100
AcDbLine
 62
9
  6
CONTINUOUS
 10
5.0981439799
 20
6.6244489098
 11
4.8552058049
 21
6.6244489098
  0
LINE
  5
865
100
AcDbEntity
  8
AXIS_COSMETIC_THREADS
100
AcDbLine
 62
7
  6
CONTINUOUS
 10
5.3832058049
 20
7.4644489098
 11
5.3832058049
 21
7.4494489098
  0
LINE
  5
866
100
AcDbEntity
  8
DEFAULT_1
100
AcDbLine
 62
7
  6
CENTER
 10
6.1652058049
 20
7.4944489098
 11
6.1652058049
 21
7.1815969668
  0
LINE
  5
867
100
AcDbEntity
  8
DEFAULT_1
100
AcDbLine
 62
7
  6
CENTER
 10
6.1652058049
 20
7.4944489098
 11
6.1652058049
 21
7.8073008528
  0
LINE
  5
868
100
AcDbEntity
  8
0
100
AcDbLine
 62
9
  6
CONTINUOUS
 10
7.4752058049
 20
7.4394489098
 11
7.2478829702
 21
7.4394489098
  0
LINE
  5
869
100
AcDbEntity
  8
0
100
AcDbLine
 62
9
  6
CONTINUOUS
 10
7.1107989879
 20
7.4394489098
 11
6.9125260077
 21
7.4394489098
  0
LINE
  5
86A
100
AcDbEntity
  8
0
100
AcDbLine
 62
9
  6
CONTINUOUS
 10
5.417885602
 20
7.4394489098
 11
5.2196126219
 21
7.4394489098
  0
LINE
  5
86B
100
AcDbEntity
  8
0
100
AcDbLine
 62
9
  6
CONTINUOUS
 10
5.0825286395
 20
7.4394489098
 11
4.8552058049
 21
7.4394489098
  0
LINE
  5
86C
100
AcDbEntity
  8
0
100
AcDbLine
 62
7
  6
CONTINUOUS
 10
7.4652058046
 20
7.4494489098
 11
7.2478829702
 21
7.4494489098
  0
LINE
  5
86D
100
AcDbEntity
  8
0
100
AcDbLine
 62
7
  6
CONTINUOUS
 10
7.1160473927
 20
7.4494489098
 11
6.9072776028
 21
7.4494489098
  0
LINE
  5
86E
100
AcDbEntity
  8
0
100
AcDbLine
 62
7
  6
CONTINUOUS
 10
5.4231340069
 20
7.4494489098
 11
5.214364217
 21
7.4494489098
  0
LINE
  5
86F
100
AcDbEntity
  8
0
100
AcDbLine
 62
7
  6
CONTINUOUS
 10
5.0825286395
 20
7.4494489098
 11
4.8652058052
 21
7.4494489098
  0
LINE
  5
870
100
AcDbEntity
  8
AXIS_COSMETIC_THREADS
100
AcDbLine
 62
7
  6
CONTINUOUS
 10
7.1210009825
 20
7.4644489098
 11
6.9472058049
 21
7.4644489098
  0
LINE
  5
871
100
AcDbEntity
  8
AXIS_COSMETIC_THREADS
100
AcDbLine
 62
7
  6
CONTINUOUS
 10
5.3832058049
 20
7.4644489098
 11
5.2094106273
 21
7.4644489098
  0
LINE
  5
872
100
AcDbEntity
  8
AXIS_COSMETIC_THREADS
100
AcDbLine
 62
7
  6
CONTINUOUS
 10
4.8752058049
 20
7.4644489098
 11
5.0825286395
 21
7.4644489098
  0
LINE
  5
873
100
AcDbEntity
  8
AXIS_COSMETIC_THREADS
100
AcDbLine
 62
7
  6
CONTINUOUS
 10
7.2478829702
 20
7.4644489098
 11
7.4552058049
 21
7.4644489098
  0
LINE
  5
874
100
AcDbEntity
  8
AXIS_COSMETIC_THREADS
100
AcDbLine
 62
7
  6
CENTER
 10
7.0116624978
 20
7.4944489098
 11
6.7974892694
 21
7.4944489098
  0
LINE
  5
875
100
AcDbEntity
  8
DEFAULT_1
100
AcDbLine
 62
7
  6
CENTER
 10
6.1652058049
 20
7.4944489098
 11
5.8523538619
 21
7.4944489098
  0
LINE
  5
876
100
AcDbEntity
  8
AXIS_COSMETIC_THREADS
100
AcDbLine
 62
7
  6
CENTER
 10
5.318749112
 20
7.4944489098
 11
5.1045758836
 21
7.4944489098
  0
LINE
  5
877
100
AcDbEntity
  8
AXIS_COSMETIC_THREADS
100
AcDbLine
 62
7
  6
CENTER
 10
5.318749112
 20
7.4944489098
 11
5.5329223403
 21
7.4944489098
  0
LINE
  5
878
100
AcDbEntity
  8
DEFAULT_1
100
AcDbLine
 62
7
  6
CENTER
 10
6.1652058049
 20
7.4944489098
 11
6.4780577479
 21
7.4944489098
  0
LINE
  5
879
100
AcDbEntity
  8
AXIS_COSMETIC_THREADS
100
AcDbLine
 62
7
  6
CENTER
 10
7.0116624978
 20
7.4944489098
 11
7.2258357261
 21
7.4944489098
  0
LINE
  5
87A
100
AcDbEntity
  8
0
100
AcDbLine
 62
7
  6
CONTINUOUS
 10
7.4652057984
 20
7.5244489098
 11
7.2478829702
 21
7.5244489098
  0
LINE
  5
87B
100
AcDbEntity
  8
0
100
AcDbLine
 62
7
  6
CONTINUOUS
 10
7.1210009825
 20
7.5244489098
 11
6.9023240131
 21
7.5244489098
  0
LINE
  5
87C
100
AcDbEntity
  8
0
100
AcDbLine
 62
7
  6
CONTINUOUS
 10
5.0825286395
 20
7.5244489098
 11
4.8652058049
 21
7.5244489098
  0
LINE
  5
87D
100
AcDbEntity
  8
0
100
AcDbLine
 62
7
  6
CONTINUOUS
 10
5.2094106273
 20
7.5244489098
 11
5.4280875966
 21
7.5244489098
  0
LINE
  5
87E
100
AcDbEntity
  8
0
100
AcDbLine
 62
9
  6
CONTINUOUS
 10
7.4752058049
 20
7.5344489098
 11
7.2478829702
 21
7.5344489098
  0
LINE
  5
87F
100
AcDbEntity
  8
0
100
AcDbLine
 62
9
  6
CONTINUOUS
 10
7.1185362038
 20
7.5344489098
 11
6.9047887917
 21
7.5344489098
  0
LINE
  5
880
100
AcDbEntity
  8
0
100
AcDbLine
 62
9
  6
CONTINUOUS
 10
4.8552058049
 20
7.5344489098
 11
5.0825286395
 21
7.5344489098
  0
LINE
  5
881
100
AcDbEntity
  8
0
100
AcDbLine
 62
9
  6
CONTINUOUS
 10
5.2118754059
 20
7.5344489098
 11
5.425622818
 21
7.5344489098
  0
LINE
  5
882
100
AcDbEntity
  8
AXIS_COSMETIC_THREADS
100
AcDbLine
 62
7
  6
CONTINUOUS
 10
6.9472058049
 20
7.4644489098
 11
6.9472058049
 21
7.4494489098
  0
LINE
  5
883
100
AcDbEntity
  8
AXIS_COSMETIC_THREADS
100
AcDbLine
 62
7
  6
CENTER
 10
7.0116624978
 20
7.4944489098
 11
7.0116624978
 21
7.2802756814
  0
LINE
  5
884
100
AcDbEntity
  8
AXIS_COSMETIC_THREADS
100
AcDbLine
 62
7
  6
CENTER
 10
7.0116624978
 20
7.4944489098
 11
7.0116624978
 21
7.7086221381
  0
LINE
  5
885
100
AcDbEntity
  8
0
100
AcDbLine
 62
7
  6
CONTINUOUS
 10
7.0152058049
 20
7.5244489098
 11
7.0152058049
 21
7.4644489098
  0
LINE
  5
886
100
AcDbEntity
  8
0
100
AcDbLine
 62
9
  6
CONTINUOUS
 10
7.2252058049
 20
8.6744489098
 11
7.2252058049
 21
8.3810336551
  0
LINE
  5
887
100
AcDbEntity
  8
0
100
AcDbLine
 62
9
  6
CONTINUOUS
 10
7.2252058049
 20
6.5994489098
 11
7.2252058049
 21
6.6078641645
  0
LINE
  5
888
100
AcDbEntity
  8
0
100
AcDbLine
 62
7
  6
CONTINUOUS
 10
7.0116624978
 20
8.518070957
 11
5.318749112
 21
8.518070957
  0
LINE
  5
889
100
AcDbEntity
  8
0
100
AcDbLine
 62
7
  6
CONTINUOUS
 10
7.2478829702
 20
6.707047335
 11
7.2478829702
 21
8.2818504846
  0
LINE
  5
88A
100
AcDbEntity
  8
0
100
AcDbLine
 62
7
  6
CONTINUOUS
 10
7.3152058049
 20
7.5244489098
 11
7.3152058049
 21
7.4644489098
  0
LINE
  5
88B
100
AcDbEntity
  8
0
100
AcDbLine
 62
7
  6
CONTINUOUS
 10
7.4752058049
 20
8.6744489098
 11
4.8552058049
 21
8.6744489098
  0
LINE
  5
88C
100
AcDbEntity
  8
AXIS_COSMETIC_THREADS
100
AcDbLine
 62
7
  6
CONTINUOUS
 10
7.4552058049
 20
7.4494489098
 11
7.4552058049
 21
7.4644489098
  0
LINE
  5
88D
100
AcDbEntity
  8
0
100
AcDbLine
 62
7
  6
CONTINUOUS
 10
7.4752058049
 20
8.6744489098
 11
7.4752058049
 21
7.5344489098
  0
LINE
  5
88E
100
AcDbEntity
  8
0
100
AcDbLine
 62
7
  6
CONTINUOUS
 10
7.4752058049
 20
7.4394489098
 11
7.4752058049
 21
6.6244489098
  0
CIRCLE
  5
88F
100
AcDbEntity
  8
0
100
AcDbCircle
 62
7
  6
CONTINUOUS
 10
10.5342808475
 20
1.243294839
 40
0.252091
  0
CIRCLE
  5
890
100
AcDbEntity
  8
0
100
AcDbCircle
 62
7
  6
CONTINUOUS
 10
10.5342808475
 20
1.243294839
 40
0.182698
  0
ARC
  5
891
100
AcDbEntity
  8
0
100
AcDbCircle
 62
7
  6
CONTINUOUS
 10
12.2112105735
 20
5.4899354506
 40
0.025
100
AcDbArc
 50
300.0000841979
 51
359.4468869478
  0
ARC
  5
892
100
AcDbEntity
  8
0
100
AcDbCircle
 62
7
  6
CONTINUOUS
 10
12.6094770404
 20
6.1610550812
 40
0.0196850394
100
AcDbArc
 50
180.5451891619
 51
239.4550862863
  0
ARC
  5
893
100
AcDbEntity
  8
0
100
AcDbCircle
 62
7
  6
CONTINUOUS
 10
5.1052058049
 20
3.2567026632
 40
0.25
100
AcDbArc
 50
179.9999999973
 51
270.0000000046
  0
ARC
  5
894
100
AcDbEntity
  8
0
100
AcDbCircle
 62
9
  6
CONTINUOUS
 10
5.1052058049
 20
3.2567026632
 40
0.2249999503
100
AcDbArc
 50
180.0
 51
270.0
  0
CIRCLE
  5
895
100
AcDbEntity
  8
0
100
AcDbCircle
 62
7
  6
CONTINUOUS
 10
5.1652058049
 20
3.3187026632
 40
0.15
  0
CIRCLE
  5
896
100
AcDbEntity
  8
0
100
AcDbCircle
 62
7
  6
CONTINUOUS
 10
5.1652058049
 20
3.3187026632
 40
0.14
  0
ARC
  5
897
100
AcDbEntity
  8
0
100
AcDbCircle
 62
7
  6
CONTINUOUS
 10
5.4802058049
 20
3.0317026632
 40
0.025
100
AcDbArc
 50
270.0
 51
360.0
  0
ARC
  5
898
100
AcDbEntity
  8
0
100
AcDbCircle
 62
7
  6
CONTINUOUS
 10
5.4002058049
 20
3.6217026632
 40
0.025
100
AcDbArc
 50
0.0
 51
90.0
  0
ARC
  5
899
100
AcDbEntity
  8
0
100
AcDbCircle
 62
7
  6
CONTINUOUS
 10
5.4602058049
 20
3.7617026632
 40
0.015
100
AcDbArc
 50
180.0
 51
270.0
  0
ARC
  5
89A
100
AcDbEntity
  8
0
100
AcDbCircle
 62
7
  6
CONTINUOUS
 10
5.6567255876
 20
3.3071564036
 40
0.0017999999
100
AcDbArc
 50
90.0
 51
180.0
  0
ARC
  5
89B
100
AcDbEntity
  8
0
100
AcDbCircle
 62
7
  6
CONTINUOUS
 10
5.6567255876
 20
3.2927564041
 40
0.0017999999
100
AcDbArc
 50
180.0
 51
270.0
  0
ARC
  5
89C
100
AcDbEntity
  8
0
100
AcDbCircle
 62
7
  6
CONTINUOUS
 10
5.777503306
 20
3.319362597
 40
0.044906641
100
AcDbArc
 50
59.5385553127
 51
90.0051948792
  0
ARC
  5
89D
100
AcDbEntity
  8
0
100
AcDbCircle
 62
7
  6
CONTINUOUS
 10
5.7518295766
 20
3.3152564033
 40
0.0062999998
100
AcDbArc
 50
270.0
 51
90.0
  0
ARC
  5
89E
100
AcDbEntity
  8
0
100
AcDbCircle
 62
7
  6
CONTINUOUS
 10
5.7217477627
 20
3.3197564031
 40
0.0017999999
100
AcDbArc
 50
90.0
 51
180.0
  0
ARC
  5
89F
100
AcDbEntity
  8
0
100
AcDbCircle
 62
7
  6
CONTINUOUS
 10
5.7217477627
 20
3.3107564034
 40
0.0017999999
100
AcDbArc
 50
180.0
 51
270.0
  0
ARC
  5
8A0
100
AcDbEntity
  8
0
100
AcDbCircle
 62
7
  6
CONTINUOUS
 10
5.6741379763
 20
3.3107564034
 40
0.0017999999
100
AcDbArc
 50
270.0
 51
360.0
  0
ARC
  5
8A1
100
AcDbEntity
  8
0
100
AcDbCircle
 62
7
  6
CONTINUOUS
 10
5.8831685878
 20
3.3071564036
 40
0.0017999999
100
AcDbArc
 50
0.0
 51
90.0
  0
ARC
  5
8A2
100
AcDbEntity
  8
0
100
AcDbCircle
 62
7
  6
CONTINUOUS
 10
5.8979221877
 20
3.3071564036
 40
0.0017999999
100
AcDbArc
 50
90.0
 51
180.0
  0
ARC
  5
8A3
100
AcDbEntity
  8
0
100
AcDbCircle
 62
7
  6
CONTINUOUS
 10
5.8979221877
 20
3.2927564041
 40
0.0017999999
100
AcDbArc
 50
179.9999999999
 51
270.0
  0
ARC
  5
8A4
100
AcDbEntity
  8
0
100
AcDbCircle
 62
7
  6
CONTINUOUS
 10
5.8268952899
 20
3.3071564036
 40
0.0017999999
100
AcDbArc
 50
90.0
 51
180.0
  0
ARC
  5
8A5
100
AcDbEntity
  8
0
100
AcDbCircle
 62
7
  6
CONTINUOUS
 10
5.8268952899
 20
3.2927564041
 40
0.0017999999
100
AcDbArc
 50
180.0
 51
270.0
  0
ARC
  5
8A6
100
AcDbEntity
  8
0
100
AcDbCircle
 62
7
  6
CONTINUOUS
 10
5.8831685878
 20
3.2927564041
 40
0.0017999999
100
AcDbArc
 50
270.0
 51
360.0
  0
ARC
  5
8A7
100
AcDbEntity
  8
0
100
AcDbCircle
 62
7
  6
CONTINUOUS
 10
5.783071106
 20
3.3261619036
 40
0.0352610876
100
AcDbArc
 50
273.2176466491
 51
303.0748796921
  0
ARC
  5
8A8
100
AcDbEntity
  8
0
100
AcDbCircle
 62
7
  6
CONTINUOUS
 10
5.793213366
 20
3.3094732181
 40
0.0161584329
100
AcDbArc
 50
4.0780373209
 51
69.832950183
  0
ARC
  5
8A9
100
AcDbEntity
  8
0
100
AcDbCircle
 62
7
  6
CONTINUOUS
 10
5.7938631725
 20
3.3096035367
 40
0.0154962677
100
AcDbArc
 50
303.0496450698
 51
355.7270309678
  0
ARC
  5
8AA
100
AcDbEntity
  8
0
100
AcDbCircle
 62
7
  6
CONTINUOUS
 10
5.7981829389
 20
3.3096100653
 40
0.0111938123
100
AcDbArc
 50
354.0460265718
 51
5.1883702949
  0
ARC
  5
8AB
100
AcDbEntity
  8
0
100
AcDbCircle
 62
7
  6
CONTINUOUS
 10
5.874962622
 20
3.3107564034
 40
0.0017999999
100
AcDbArc
 50
147.6038776678
 51
270.0000000001
  0
ARC
  5
8AC
100
AcDbEntity
  8
0
100
AcDbCircle
 62
7
  6
CONTINUOUS
 10
5.8789744987
 20
3.3170790553
 40
0.0017999999
100
AcDbArc
 50
90.0000000001
 51
147.6038776679
  0
ARC
  5
8AD
100
AcDbEntity
  8
0
100
AcDbCircle
 62
7
  6
CONTINUOUS
 10
5.9043406785
 20
3.3170790553
 40
0.0017999999
100
AcDbArc
 50
32.9085187632
 51
90.0
  0
ARC
  5
8AE
100
AcDbEntity
  8
0
100
AcDbCircle
 62
7
  6
CONTINUOUS
 10
5.8435213975
 20
3.3107564034
 40
0.0017999999
100
AcDbArc
 50
269.9999999999
 51
327.6038776676
  0
ARC
  5
8AF
100
AcDbEntity
  8
0
100
AcDbCircle
 62
7
  6
CONTINUOUS
 10
5.7518295766
 20
3.3399692388
 40
0.0062999998
100
AcDbArc
 50
270.0
 51
90.0
  0
ARC
  5
8B0
100
AcDbEntity
  8
0
100
AcDbCircle
 62
7
  6
CONTINUOUS
 10
5.7217477627
 20
3.3354692389
 40
0.0017999999
100
AcDbArc
 50
180.0000000001
 51
270.0
  0
ARC
  5
8B1
100
AcDbEntity
  8
0
100
AcDbCircle
 62
7
  6
CONTINUOUS
 10
5.7217477627
 20
3.3444692386
 40
0.0017999999
100
AcDbArc
 50
89.9999999999
 51
180.0
  0
ARC
  5
8B2
100
AcDbEntity
  8
0
100
AcDbCircle
 62
7
  6
CONTINUOUS
 10
5.6567255876
 20
3.3480692385
 40
0.0017999999
100
AcDbArc
 50
180.0
 51
270.0
  0
ARC
  5
8B3
100
AcDbEntity
  8
0
100
AcDbCircle
 62
7
  6
CONTINUOUS
 10
5.6741379763
 20
3.3444692386
 40
0.0017999999
100
AcDbArc
 50
0.0
 51
90.0000000001
  0
ARC
  5
8B4
100
AcDbEntity
  8
0
100
AcDbCircle
 62
7
  6
CONTINUOUS
 10
5.6567255876
 20
3.3624692379
 40
0.0017999999
100
AcDbArc
 50
89.9999999999
 51
180.0000000001
  0
ARC
  5
8B5
100
AcDbEntity
  8
0
100
AcDbCircle
 62
7
  6
CONTINUOUS
 10
5.7925297367
 20
3.3433098526
 40
0.016666833
100
AcDbArc
 50
20.655955041
 51
62.3313466462
  0
ARC
  5
8B6
100
AcDbEntity
  8
0
100
AcDbCircle
 62
7
  6
CONTINUOUS
 10
5.7961310957
 20
3.3457485794
 40
0.0124777811
100
AcDbArc
 50
315.9155652891
 51
16.0059703614
  0
ARC
  5
8B7
100
AcDbEntity
  8
0
100
AcDbCircle
 62
7
  6
CONTINUOUS
 10
5.8851679446
 20
3.3359158667
 40
0.0017999999
100
AcDbArc
 50
147.6038776677
 51
270.0
  0
ARC
  5
8B8
100
AcDbEntity
  8
0
100
AcDbCircle
 62
7
  6
CONTINUOUS
 10
5.8903440866
 20
3.3440733816
 40
0.0017999999
100
AcDbArc
 50
90.0000000001
 51
147.6038776677
  0
ARC
  5
8B9
100
AcDbEntity
  8
0
100
AcDbCircle
 62
7
  6
CONTINUOUS
 10
5.894839318
 20
3.3440733816
 40
0.0017999999
100
AcDbArc
 50
32.908518763
 51
90.0
  0
ARC
  5
8BA
100
AcDbEntity
  8
0
100
AcDbCircle
 62
7
  6
CONTINUOUS
 10
5.9001183717
 20
3.3359158667
 40
0.0017999999
100
AcDbArc
 50
269.9999999999
 51
32.908518763
  0
ARC
  5
8BB
100
AcDbEntity
  8
0
100
AcDbCircle
 62
7
  6
CONTINUOUS
 10
5.7815652604
 20
3.3574796237
 40
0.0311489534
100
AcDbArc
 50
300.6971554233
 51
319.0572379472
  0
ARC
  5
8BC
100
AcDbEntity
  8
0
100
AcDbCircle
 62
7
  6
CONTINUOUS
 10
5.880598014
 20
3.3624692379
 40
0.0017999999
100
AcDbArc
 50
89.9999999999
 51
147.6038776676
  0
ARC
  5
8BD
100
AcDbEntity
  8
0
100
AcDbCircle
 62
7
  6
CONTINUOUS
 10
5.996242276
 20
3.3071564036
 40
0.0017999999
100
AcDbArc
 50
90.0
 51
180.0
  0
ARC
  5
8BE
100
AcDbEntity
  8
0
100
AcDbCircle
 62
7
  6
CONTINUOUS
 10
5.996242276
 20
3.2927564041
 40
0.0017999999
100
AcDbArc
 50
180.0
 51
270.0
  0
ARC
  5
8BF
100
AcDbEntity
  8
0
100
AcDbCircle
 62
7
  6
CONTINUOUS
 10
5.9744900682
 20
3.2927564041
 40
0.0017999999
100
AcDbArc
 50
270.0
 51
359.9999999999
  0
ARC
  5
8C0
100
AcDbEntity
  8
0
100
AcDbCircle
 62
7
  6
CONTINUOUS
 10
5.9744900682
 20
3.3071564036
 40
0.0017999999
100
AcDbArc
 50
0.0
 51
90.0000000001
  0
ARC
  5
8C1
100
AcDbEntity
  8
0
100
AcDbCircle
 62
7
  6
CONTINUOUS
 10
6.0098033597
 20
3.3107564034
 40
0.0017999999
100
AcDbArc
 50
270.0
 51
360.0
  0
ARC
  5
8C2
100
AcDbEntity
  8
0
100
AcDbCircle
 62
7
  6
CONTINUOUS
 10
5.9084323191
 20
3.3107564034
 40
0.0017999999
100
AcDbArc
 50
270.0000000001
 51
32.9085187633
  0
ARC
  5
8C3
100
AcDbEntity
  8
0
100
AcDbCircle
 62
7
  6
CONTINUOUS
 10
5.9599334337
 20
3.3107564034
 40
0.0017999999
100
AcDbArc
 50
212.9085187633
 51
270.0000000002
  0
ARC
  5
8C4
100
AcDbEntity
  8
0
100
AcDbCircle
 62
7
  6
CONTINUOUS
 10
6.0512704568
 20
3.2927564041
 40
0.0017999999
100
AcDbArc
 50
270.0
 51
360.0
  0
ARC
  5
8C5
100
AcDbEntity
  8
0
100
AcDbCircle
 62
7
  6
CONTINUOUS
 10
6.0512704568
 20
3.3071564036
 40
0.0017999999
100
AcDbArc
 50
0.0
 51
90.0
  0
ARC
  5
8C6
100
AcDbEntity
  8
0
100
AcDbCircle
 62
7
  6
CONTINUOUS
 10
6.0850018218
 20
3.2927564041
 40
0.0017999999
100
AcDbArc
 50
226.3446933011
 51
270.0000000001
  0
ARC
  5
8C7
100
AcDbEntity
  8
0
100
AcDbCircle
 62
7
  6
CONTINUOUS
 10
6.138969778
 20
3.2927564041
 40
0.0017999999
100
AcDbArc
 50
270.0
 51
360.0
  0
ARC
  5
8C8
100
AcDbEntity
  8
0
100
AcDbCircle
 62
7
  6
CONTINUOUS
 10
6.0364946245
 20
3.3107564034
 40
0.0017999999
100
AcDbArc
 50
180.0
 51
270.0
  0
ARC
  5
8C9
100
AcDbEntity
  8
0
100
AcDbCircle
 62
7
  6
CONTINUOUS
 10
6.1154478295
 20
3.3234162304
 40
0.0017999999
100
AcDbArc
 50
226.3446933011
 51
360.0
  0
ARC
  5
8CA
100
AcDbEntity
  8
0
100
AcDbCircle
 62
7
  6
CONTINUOUS
 10
6.0364946245
 20
3.3340627792
 40
0.0017999999
100
AcDbArc
 50
46.3446933011
 51
180.0
  0
ARC
  5
8CB
100
AcDbEntity
  8
0
100
AcDbCircle
 62
7
  6
CONTINUOUS
 10
5.996242276
 20
3.3480692385
 40
0.0017999999
100
AcDbArc
 50
180.0
 51
270.0
  0
ARC
  5
8CC
100
AcDbEntity
  8
0
100
AcDbCircle
 62
7
  6
CONTINUOUS
 10
6.0098033597
 20
3.3444692386
 40
0.0017999999
100
AcDbArc
 50
0.0
 51
90.0
  0
ARC
  5
8CD
100
AcDbEntity
  8
0
100
AcDbCircle
 62
7
  6
CONTINUOUS
 10
5.996242276
 20
3.3624692379
 40
0.0017999999
100
AcDbArc
 50
90.0
 51
180.0
  0
ARC
  5
8CE
100
AcDbEntity
  8
0
100
AcDbCircle
 62
7
  6
CONTINUOUS
 10
5.9221799262
 20
3.3624692379
 40
0.0017999999
100
AcDbArc
 50
32.9085187633
 51
90.0000000002
  0
ARC
  5
8CF
100
AcDbEntity
  8
0
100
AcDbCircle
 62
7
  6
CONTINUOUS
 10
6.1425697778
 20
3.3444692386
 40
0.0017999999
100
AcDbArc
 50
90.0
 51
180.0
  0
ARC
  5
8D0
100
AcDbEntity
  8
0
100
AcDbCircle
 62
7
  6
CONTINUOUS
 10
6.1556118326
 20
3.3480692385
 40
0.0017999999
100
AcDbArc
 50
270.0
 51
360.0
  0
ARC
  5
8D1
100
AcDbEntity
  8
0
100
AcDbCircle
 62
7
  6
CONTINUOUS
 10
6.1017928788
 20
3.3480692385
 40
0.0017999999
100
AcDbArc
 50
180.0
 51
270.0
  0
ARC
  5
8D2
100
AcDbEntity
  8
0
100
AcDbCircle
 62
7
  6
CONTINUOUS
 10
6.1154478295
 20
3.3444692386
 40
0.0017999999
100
AcDbArc
 50
0.0
 51
90.0
  0
ARC
  5
8D3
100
AcDbEntity
  8
0
100
AcDbCircle
 62
7
  6
CONTINUOUS
 10
6.1556118326
 20
3.3624692379
 40
0.0017999999
100
AcDbArc
 50
0.0
 51
90.0
  0
ARC
  5
8D4
100
AcDbEntity
  8
0
100
AcDbCircle
 62
7
  6
CONTINUOUS
 10
6.1017928788
 20
3.3624692379
 40
0.0017999999
100
AcDbArc
 50
90.0
 51
180.0
  0
ARC
  5
8D5
100
AcDbEntity
  8
0
100
AcDbCircle
 62
7
  6
CONTINUOUS
 10
6.0693023322
 20
3.3624692379
 40
0.0017999999
100
AcDbArc
 50
46.3446933012
 51
90.0000000001
  0
ARC
  5
8D6
100
AcDbEntity
  8
0
100
AcDbCircle
 62
7
  6
CONTINUOUS
 10
5.8402058049
 20
3.7617026632
 40
0.015
100
AcDbArc
 50
180.0
 51
270.0
  0
ARC
  5
8D7
100
AcDbEntity
  8
0
100
AcDbCircle
 62
7
  6
CONTINUOUS
 10
6.1102058049
 20
3.7617026632
 40
0.015
100
AcDbArc
 50
270.0
 51
360.0
  0
ARC
  5
8D8
100
AcDbEntity
  8
0
100
AcDbCircle
 62
7
  6
CONTINUOUS
 10
5.7302058049
 20
3.7617026632
 40
0.015
100
AcDbArc
 50
270.0
 51
360.0
  0
ARC
  5
8D9
100
AcDbEntity
  8
0
100
AcDbCircle
 62
9
  6
CONTINUOUS
 10
5.1052058049
 20
3.8967026632
 40
0.2749999948
100
AcDbArc
 50
215.0968012276
 51
270.0
  0
ARC
  5
8DA
100
AcDbEntity
  8
0
100
AcDbCircle
 62
7
  6
CONTINUOUS
 10
5.1052058049
 20
3.8967026632
 40
0.25
100
AcDbArc
 50
90.0
 51
270.0
  0
ARC
  5
8DB
100
AcDbEntity
  8
0
100
AcDbCircle
 62
9
  6
CONTINUOUS
 10
5.1052058049
 20
3.8967026632
 40
0.2249999456
100
AcDbArc
 50
90.0
 51
270.0
  0
CIRCLE
  5
8DC
100
AcDbEntity
  8
0
100
AcDbCircle
 62
7
  6
CONTINUOUS
 10
5.1652058049
 20
3.8967026632
 40
0.1575
  0
ARC
  5
8DD
100
AcDbEntity
  8
0
100
AcDbCircle
 62
9
  6
CONTINUOUS
 10
5.1652058049
 20
3.8967026632
 40
0.1514864865
100
AcDbArc
 50
9.4990482293
 51
170.5009517707
  0
ARC
  5
8DE
100
AcDbEntity
  8
0
100
AcDbCircle
 62
9
  6
CONTINUOUS
 10
5.1652058049
 20
3.8967026632
 40
0.1514864865
100
AcDbArc
 50
189.4990482293
 51
350.5009517707
  0
ARC
  5
8DF
100
AcDbEntity
  8
0
100
AcDbCircle
 62
7
  6
CONTINUOUS
 10
5.4602058049
 20
4.0317026632
 40
0.015
100
AcDbArc
 50
90.0
 51
180.0
  0
ARC
  5
8E0
100
AcDbEntity
  8
0
100
AcDbCircle
 62
7
  6
CONTINUOUS
 10
5.1022136789
 20
4.5132380962
 40
0.0196850394
100
AcDbArc
 50
180.0
 51
270.0
  0
ARC
  5
8E1
100
AcDbEntity
  8
0
100
AcDbCircle
 62
7
  6
CONTINUOUS
 10
5.8402058049
 20
4.0317026632
 40
0.015
100
AcDbArc
 50
90.0
 51
180.0
  0
ARC
  5
8E2
100
AcDbEntity
  8
0
100
AcDbCircle
 62
7
  6
CONTINUOUS
 10
6.1102058049
 20
4.0317026632
 40
0.015
100
AcDbArc
 50
0.0
 51
90.0
  0
ARC
  5
8E3
100
AcDbEntity
  8
0
100
AcDbCircle
 62
7
  6
CONTINUOUS
 10
5.7302058049
 20
4.0317026632
 40
0.015
100
AcDbArc
 50
0.0
 51
90.0
  0
ARC
  5
8E4
100
AcDbEntity
  8
0
100
AcDbCircle
 62
7
  6
CONTINUOUS
 10
6.3562247161
 20
3.2927564041
 40
0.0017999999
100
AcDbArc
 50
180.0
 51
270.0
  0
ARC
  5
8E5
100
AcDbEntity
  8
0
100
AcDbCircle
 62
7
  6
CONTINUOUS
 10
6.2318179764
 20
3.2927564041
 40
0.0017999999
100
AcDbArc
 50
270.0
 51
360.0
  0
ARC
  5
8E6
100
AcDbEntity
  8
0
100
AcDbCircle
 62
7
  6
CONTINUOUS
 10
6.2655493415
 20
3.2927564041
 40
0.0017999999
100
AcDbArc
 50
226.3446933012
 51
270.0000000001
  0
ARC
  5
8E7
100
AcDbEntity
  8
0
100
AcDbCircle
 62
7
  6
CONTINUOUS
 10
6.3195172976
 20
3.2927564041
 40
0.0017999999
100
AcDbArc
 50
270.0
 51
360.0
  0
ARC
  5
8E8
100
AcDbEntity
  8
0
100
AcDbCircle
 62
7
  6
CONTINUOUS
 10
6.1767897957
 20
3.2927564041
 40
0.0017999999
100
AcDbArc
 50
180.0
 51
270.0
  0
ARC
  5
8E9
100
AcDbEntity
  8
0
100
AcDbCircle
 62
7
  6
CONTINUOUS
 10
6.2318179764
 20
3.3071564036
 40
0.0017999999
100
AcDbArc
 50
0.0
 51
90.0
  0
ARC
  5
8EA
100
AcDbEntity
  8
0
100
AcDbCircle
 62
7
  6
CONTINUOUS
 10
6.2170421442
 20
3.3107564034
 40
0.0017999999
100
AcDbArc
 50
180.0
 51
270.0
  0
ARC
  5
8EB
100
AcDbEntity
  8
0
100
AcDbCircle
 62
7
  6
CONTINUOUS
 10
6.2170421442
 20
3.3340627792
 40
0.0017999999
100
AcDbArc
 50
46.3446933011
 51
180.0000000001
  0
ARC
  5
8EC
100
AcDbEntity
  8
0
100
AcDbCircle
 62
7
  6
CONTINUOUS
 10
6.2959953491
 20
3.3234162304
 40
0.0017999999
100
AcDbArc
 50
226.3446933011
 51
360.0
  0
ARC
  5
8ED
100
AcDbEntity
  8
0
100
AcDbCircle
 62
7
  6
CONTINUOUS
 10
6.1903508794
 20
3.3107564034
 40
0.0017999999
100
AcDbArc
 50
270.0
 51
360.0
  0
ARC
  5
8EE
100
AcDbEntity
  8
0
100
AcDbCircle
 62
7
  6
CONTINUOUS
 10
6.1767897957
 20
3.3071564036
 40
0.0017999999
100
AcDbArc
 50
90.0
 51
180.0
  0
ARC
  5
8EF
100
AcDbEntity
  8
0
100
AcDbCircle
 62
7
  6
CONTINUOUS
 10
6.2823403985
 20
3.3624692379
 40
0.0017999999
100
AcDbArc
 50
90.0
 51
180.0
  0
ARC
  5
8F0
100
AcDbEntity
  8
0
100
AcDbCircle
 62
7
  6
CONTINUOUS
 10
6.2823403985
 20
3.3480692385
 40
0.0017999999
100
AcDbArc
 50
180.0
 51
270.0
  0
ARC
  5
8F1
100
AcDbEntity
  8
0
100
AcDbCircle
 62
7
  6
CONTINUOUS
 10
6.2959953491
 20
3.3444692386
 40
0.0017999999
100
AcDbArc
 50
0.0
 51
90.0
  0
ARC
  5
8F2
100
AcDbEntity
  8
0
100
AcDbCircle
 62
7
  6
CONTINUOUS
 10
6.2498498519
 20
3.3624692379
 40
0.0017999999
100
AcDbArc
 50
46.3446933012
 51
90.0000000001
  0
ARC
  5
8F3
100
AcDbEntity
  8
0
100
AcDbCircle
 62
7
  6
CONTINUOUS
 10
6.1767897957
 20
3.3624692379
 40
0.0017999999
100
AcDbArc
 50
90.0
 51
180.0
  0
ARC
  5
8F4
100
AcDbEntity
  8
0
100
AcDbCircle
 62
7
  6
CONTINUOUS
 10
6.1767897957
 20
3.3480692385
 40
0.0017999999
100
AcDbArc
 50
180.0
 51
270.0
  0
ARC
  5
8F5
100
AcDbEntity
  8
0
100
AcDbCircle
 62
7
  6
CONTINUOUS
 10
6.1903508794
 20
3.3444692386
 40
0.0017999999
100
AcDbArc
 50
0.0
 51
90.0
  0
ARC
  5
8F6
100
AcDbEntity
  8
0
100
AcDbCircle
 62
7
  6
CONTINUOUS
 10
6.4223622512
 20
3.3107564034
 40
0.0017999999
100
AcDbArc
 50
180.0
 51
270.0
  0
ARC
  5
8F7
100
AcDbEntity
  8
0
100
AcDbCircle
 62
7
  6
CONTINUOUS
 10
6.4223622512
 20
3.3191564031
 40
0.0017999999
100
AcDbArc
 50
90.0
 51
180.0
  0
ARC
  5
8F8
100
AcDbEntity
  8
0
100
AcDbCircle
 62
7
  6
CONTINUOUS
 10
6.3736233008
 20
3.3107564034
 40
0.0017999999
100
AcDbArc
 50
270.0
 51
360.0
  0
ARC
  5
8F9
100
AcDbEntity
  8
0
100
AcDbCircle
 62
7
  6
CONTINUOUS
 10
6.3562247161
 20
3.3071564036
 40
0.0017999999
100
AcDbArc
 50
90.0
 51
180.0
  0
ARC
  5
8FA
100
AcDbEntity
  8
0
100
AcDbCircle
 62
7
  6
CONTINUOUS
 10
6.4223622512
 20
3.3360692389
 40
0.0017999999
100
AcDbArc
 50
179.9999999998
 51
269.9999999999
  0
ARC
  5
8FB
100
AcDbEntity
  8
0
100
AcDbCircle
 62
7
  6
CONTINUOUS
 10
6.4223622512
 20
3.3444692386
 40
0.0017999999
100
AcDbArc
 50
90.0000000001
 51
180.0
  0
ARC
  5
8FC
100
AcDbEntity
  8
0
100
AcDbCircle
 62
7
  6
CONTINUOUS
 10
6.3562247161
 20
3.3624692379
 40
0.0017999999
100
AcDbArc
 50
90.0
 51
180.0
  0
ARC
  5
8FD
100
AcDbEntity
  8
0
100
AcDbCircle
 62
7
  6
CONTINUOUS
 10
6.3562247161
 20
3.3480692385
 40
0.0017999999
100
AcDbArc
 50
180.0
 51
270.0
  0
ARC
  5
8FE
100
AcDbEntity
  8
0
100
AcDbCircle
 62
7
  6
CONTINUOUS
 10
6.3736233008
 20
3.3444692386
 40
0.0017999999
100
AcDbArc
 50
0.0
 51
90.0
  0
ARC
  5
8FF
100
AcDbEntity
  8
0
100
AcDbCircle
 62
7
  6
CONTINUOUS
 10
6.3231172975
 20
3.3444692386
 40
0.0017999999
100
AcDbArc
 50
90.0
 51
180.0
  0
ARC
  5
900
100
AcDbEntity
  8
0
100
AcDbCircle
 62
7
  6
CONTINUOUS
 10
6.3361593523
 20
3.3480692385
 40
0.0017999999
100
AcDbArc
 50
270.0
 51
360.0
  0
ARC
  5
901
100
AcDbEntity
  8
0
100
AcDbCircle
 62
7
  6
CONTINUOUS
 10
6.3361593523
 20
3.3624692379
 40
0.0017999999
100
AcDbArc
 50
0.0
 51
90.0
  0
ARC
  5
902
100
AcDbEntity
  8
0
100
AcDbCircle
 62
7
  6
CONTINUOUS
 10
6.5250361086
 20
3.2927564041
 40
0.0017999999
100
AcDbArc
 50
180.0
 51
270.0
  0
ARC
  5
903
100
AcDbEntity
  8
0
100
AcDbCircle
 62
7
  6
CONTINUOUS
 10
6.5040155107
 20
3.2927564041
 40
0.0017999999
100
AcDbArc
 50
270.0
 51
360.0
  0
ARC
  5
904
100
AcDbEntity
  8
0
100
AcDbCircle
 62
7
  6
CONTINUOUS
 10
6.6318831891
 20
3.2315136764
 40
0.1327697241
100
AcDbArc
 50
79.8609358137
 51
89.1631199464
  0
ARC
  5
905
100
AcDbEntity
  8
0
100
AcDbCircle
 62
7
  6
CONTINUOUS
 10
6.6187262816
 20
3.2526806597
 40
0.0853448489
100
AcDbArc
 50
58.6157714362
 51
62.374719829
  0
ARC
  5
906
100
AcDbEntity
  8
0
100
AcDbCircle
 62
7
  6
CONTINUOUS
 10
6.639721619
 20
3.30422289
 40
0.0333913979
100
AcDbArc
 50
15.6832017374
 51
21.0009676489
  0
ARC
  5
907
100
AcDbEntity
  8
0
100
AcDbCircle
 62
7
  6
CONTINUOUS
 10
6.5962916304
 20
3.3013678461
 40
0.0288067639
100
AcDbArc
 50
14.3241015618
 51
22.5025672078
  0
ARC
  5
908
100
AcDbEntity
  8
0
100
AcDbCircle
 62
7
  6
CONTINUOUS
 10
6.6098993653
 20
3.3018717162
 40
0.0177228044
100
AcDbArc
 50
63.3673738576
 51
90.3945496862
  0
ARC
  5
909
100
AcDbEntity
  8
0
100
AcDbCircle
 62
7
  6
CONTINUOUS
 10
6.6735324319
 20
3.3054099171
 40
0.0144610952
100
AcDbArc
 50
271.8554773465
 51
289.4100092169
  0
ARC
  5
90A
100
AcDbEntity
  8
0
100
AcDbCircle
 62
7
  6
CONTINUOUS
 10
6.6401395151
 20
3.3035544206
 40
0.0126116178
100
AcDbArc
 50
232.4719030418
 51
267.3387595649
  0
ARC
  5
90B
100
AcDbEntity
  8
0
100
AcDbCircle
 62
7
  6
CONTINUOUS
 10
6.6076335591
 20
3.2927564041
 40
0.0017999999
100
AcDbArc
 50
270.0
 51
360.0
  0
ARC
  5
90C
100
AcDbEntity
  8
0
100
AcDbCircle
 62
7
  6
CONTINUOUS
 10
6.5415788478
 20
3.3107564034
 40
0.0017999999
100
AcDbArc
 50
270.0
 51
360.0
  0
ARC
  5
90D
100
AcDbEntity
  8
0
100
AcDbCircle
 62
7
  6
CONTINUOUS
 10
6.5250361086
 20
3.3071564036
 40
0.0017999999
100
AcDbArc
 50
90.0
 51
180.0
  0
ARC
  5
90E
100
AcDbEntity
  8
0
100
AcDbCircle
 62
7
  6
CONTINUOUS
 10
6.5040155107
 20
3.3167564032
 40
0.0017999999
100
AcDbArc
 50
0.0
 51
90.0
  0
ARC
  5
90F
100
AcDbEntity
  8
0
100
AcDbCircle
 62
7
  6
CONTINUOUS
 10
6.4732381276
 20
3.3167564032
 40
0.0017999999
100
AcDbArc
 50
90.0000000001
 51
180.0000000002
  0
ARC
  5
910
100
AcDbEntity
  8
0
100
AcDbCircle
 62
7
  6
CONTINUOUS
 10
6.4696381277
 20
3.3107564034
 40
0.0017999999
100
AcDbArc
 50
269.9999999999
 51
360.0
  0
ARC
  5
911
100
AcDbEntity
  8
0
100
AcDbCircle
 62
7
  6
CONTINUOUS
 10
6.447938302
 20
3.322756403
 40
0.0017999999
100
AcDbArc
 50
270.0
 51
360.0
  0
ARC
  5
912
100
AcDbEntity
  8
0
100
AcDbCircle
 62
7
  6
CONTINUOUS
 10
6.447938302
 20
3.3324692391
 40
0.0017999999
100
AcDbArc
 50
0.0
 51
90.0
  0
ARC
  5
913
100
AcDbEntity
  8
0
100
AcDbCircle
 62
7
  6
CONTINUOUS
 10
6.4725368864
 20
3.3384692388
 40
0.0017999999
100
AcDbArc
 50
180.0
 51
269.9999999999
  0
ARC
  5
914
100
AcDbEntity
  8
0
100
AcDbCircle
 62
7
  6
CONTINUOUS
 10
6.5029829745
 20
3.3384692388
 40
0.0017999999
100
AcDbArc
 50
270.0
 51
360.0
  0
ARC
  5
915
100
AcDbEntity
  8
0
100
AcDbCircle
 62
7
  6
CONTINUOUS
 10
6.5250361086
 20
3.3624692379
 40
0.0017999999
100
AcDbArc
 50
90.0
 51
180.0
  0
ARC
  5
916
100
AcDbEntity
  8
0
100
AcDbCircle
 62
7
  6
CONTINUOUS
 10
6.5250361086
 20
3.3480692385
 40
0.0017999999
100
AcDbArc
 50
180.0
 51
270.0
  0
ARC
  5
917
100
AcDbEntity
  8
0
100
AcDbCircle
 62
7
  6
CONTINUOUS
 10
6.5415788478
 20
3.3444692386
 40
0.0017999999
100
AcDbArc
 50
0.0
 51
90.0
  0
ARC
  5
918
100
AcDbEntity
  8
0
100
AcDbCircle
 62
7
  6
CONTINUOUS
 10
6.4689368866
 20
3.3444692386
 40
0.0017999999
100
AcDbArc
 50
0.0
 51
89.9999999999
  0
ARC
  5
919
100
AcDbEntity
  8
0
100
AcDbCircle
 62
7
  6
CONTINUOUS
 10
6.5029829745
 20
3.3624692379
 40
0.0017999999
100
AcDbArc
 50
0.0
 51
90.0
  0
ARC
  5
91A
100
AcDbEntity
  8
0
100
AcDbCircle
 62
7
  6
CONTINUOUS
 10
6.6128484093
 20
3.3078951653
 40
0.0110166717
100
AcDbArc
 50
24.0960227125
 51
63.0346612482
  0
ARC
  5
91B
100
AcDbEntity
  8
0
100
AcDbCircle
 62
7
  6
CONTINUOUS
 10
6.6076335591
 20
3.3071402039
 40
0.0017999999
100
AcDbArc
 50
0.0
 51
90.0
  0
ARC
  5
91C
100
AcDbEntity
  8
0
100
AcDbCircle
 62
7
  6
CONTINUOUS
 10
6.5896993807
 20
3.3107402037
 40
0.0017999999
100
AcDbArc
 50
180.0
 51
270.0
  0
ARC
  5
91D
100
AcDbEntity
  8
0
100
AcDbCircle
 62
7
  6
CONTINUOUS
 10
6.5896993807
 20
3.3177941005
 40
0.0017999999
100
AcDbArc
 50
90.0
 51
180.0
  0
ARC
  5
91E
100
AcDbEntity
  8
0
100
AcDbCircle
 62
7
  6
CONTINUOUS
 10
6.6153401307
 20
3.3255757489
 40
0.0207239853
100
AcDbArc
 50
70.3825170161
 51
86.8913376447
  0
ARC
  5
91F
100
AcDbEntity
  8
0
100
AcDbCircle
 62
7
  6
CONTINUOUS
 10
6.618874629
 20
3.335059977
 40
0.0106045927
100
AcDbArc
 50
54.6751570843
 51
71.1665764279
  0
ARC
  5
920
100
AcDbEntity
  8
0
100
AcDbCircle
 62
7
  6
CONTINUOUS
 10
6.6196412701
 20
3.3430882625
 40
0.008057002
100
AcDbArc
 50
306.7634580113
 51
320.45524947
  0
ARC
  5
921
100
AcDbEntity
  8
0
100
AcDbCircle
 62
7
  6
CONTINUOUS
 10
6.6226057818
 20
3.3400441015
 40
0.0043837216
100
AcDbArc
 50
20.9174873137
 51
56.7971995794
  0
ARC
  5
922
100
AcDbEntity
  8
0
100
AcDbCircle
 62
7
  6
CONTINUOUS
 10
6.622672691
 20
3.340739285
 40
0.0042255084
100
AcDbArc
 50
318.8457153753
 51
353.6365306565
  0
ARC
  5
923
100
AcDbEntity
  8
0
100
AcDbCircle
 62
7
  6
CONTINUOUS
 10
6.6235511525
 20
3.3405252997
 40
0.0033307385
100
AcDbArc
 50
355.6203725614
 51
18.9910725098
  0
ARC
  5
924
100
AcDbEntity
  8
0
100
AcDbCircle
 62
7
  6
CONTINUOUS
 10
6.5896993807
 20
3.3352146255
 40
0.0017999999
100
AcDbArc
 50
180.0
 51
270.0
  0
ARC
  5
925
100
AcDbEntity
  8
0
100
AcDbCircle
 62
7
  6
CONTINUOUS
 10
6.6568485107
 20
3.3127925273
 40
0.0325224204
100
AcDbArc
 50
195.5380195352
 51
204.7688177534
  0
ARC
  5
926
100
AcDbEntity
  8
0
100
AcDbCircle
 62
7
  6
CONTINUOUS
 10
6.6527344611
 20
3.3094503186
 40
0.0193707277
100
AcDbArc
 50
20.3602753021
 51
37.9698944175
  0
ARC
  5
927
100
AcDbEntity
  8
0
100
AcDbCircle
 62
7
  6
CONTINUOUS
 10
6.6535496085
 20
3.3095028975
 40
0.0187014301
100
AcDbArc
 50
39.3795504987
 51
59.0351661822
  0
ARC
  5
928
100
AcDbEntity
  8
0
100
AcDbCircle
 62
7
  6
CONTINUOUS
 10
6.6423943441
 20
3.3078082576
 40
0.0173772377
100
AcDbArc
 50
209.8198479647
 51
235.1205555336
  0
ARC
  5
929
100
AcDbEntity
  8
0
100
AcDbCircle
 62
7
  6
CONTINUOUS
 10
6.6744443462
 20
3.312672552
 40
0.0204155663
100
AcDbArc
 50
308.5058710743
 51
332.2387470559
  0
ARC
  5
92A
100
AcDbEntity
  8
0
100
AcDbCircle
 62
7
  6
CONTINUOUS
 10
6.6812122545
 20
3.3091115993
 40
0.0127680201
100
AcDbArc
 50
332.2327371211
 51
359.6644817836
  0
ARC
  5
92B
100
AcDbEntity
  8
0
100
AcDbCircle
 62
7
  6
CONTINUOUS
 10
6.6761359055
 20
3.3125421089
 40
0.0038111449
100
AcDbArc
 50
205.5100453795
 51
227.4922203643
  0
ARC
  5
92C
100
AcDbEntity
  8
0
100
AcDbCircle
 62
7
  6
CONTINUOUS
 10
6.6748782044
 20
3.3112221357
 40
0.0019885761
100
AcDbArc
 50
228.5083761695
 51
266.1451793221
  0
ARC
  5
92D
100
AcDbEntity
  8
0
100
AcDbCircle
 62
7
  6
CONTINUOUS
 10
6.6693569909
 20
3.3182000876
 40
0.0279136866
100
AcDbArc
 50
288.76880968
 51
309.6136616964
  0
ARC
  5
92E
100
AcDbEntity
  8
0
100
AcDbCircle
 62
7
  6
CONTINUOUS
 10
6.6823134796
 20
3.3156047065
 40
0.0107059335
100
AcDbArc
 50
192.7101794463
 51
206.0641376302
  0
ARC
  5
92F
100
AcDbEntity
  8
0
100
AcDbCircle
 62
7
  6
CONTINUOUS
 10
6.6755068288
 20
3.3188738054
 40
0.0096358496
100
AcDbArc
 50
270.2647904686
 51
281.2389692517
  0
ARC
  5
930
100
AcDbEntity
  8
0
100
AcDbCircle
 62
7
  6
CONTINUOUS
 10
6.6728829307
 20
3.3153514794
 40
0.0086919224
100
AcDbArc
 50
340.7843143427
 51
1.1651316506
  0
ARC
  5
931
100
AcDbEntity
  8
0
100
AcDbCircle
 62
7
  6
CONTINUOUS
 10
6.6763755626
 20
3.3147012165
 40
0.005374102
100
AcDbArc
 50
280.8249804844
 51
305.0799066431
  0
ARC
  5
932
100
AcDbEntity
  8
0
100
AcDbCircle
 62
7
  6
CONTINUOUS
 10
6.6766670593
 20
3.31408143
 40
0.0047008431
100
AcDbArc
 50
306.5140940605
 51
340.2216676323
  0
ARC
  5
933
100
AcDbEntity
  8
0
100
AcDbCircle
 62
7
  6
CONTINUOUS
 10
6.6921800557
 20
3.3174379583
 40
0.0017999999
100
AcDbArc
 50
0.0
 51
90.0
  0
ARC
  5
934
100
AcDbEntity
  8
0
100
AcDbCircle
 62
7
  6
CONTINUOUS
 10
6.683373056
 20
3.3174379583
 40
0.0017999999
100
AcDbArc
 50
90.0
 51
180.0
  0
ARC
  5
935
100
AcDbEntity
  8
0
100
AcDbCircle
 62
7
  6
CONTINUOUS
 10
6.6510163758
 20
3.3339290715
 40
0.0285968881
100
AcDbArc
 50
59.1218999491
 51
81.4748183778
  0
ARC
  5
936
100
AcDbEntity
  8
0
100
AcDbCircle
 62
7
  6
CONTINUOUS
 10
6.6551324731
 20
3.3385379009
 40
0.0225590978
100
AcDbArc
 50
34.7542396155
 51
62.0881306495
  0
ARC
  5
937
100
AcDbEntity
  8
0
100
AcDbCircle
 62
7
  6
CONTINUOUS
 10
6.6359626152
 20
3.3811593246
 40
0.0573886631
100
AcDbArc
 50
292.9061348229
 51
305.2575093549
  0
ARC
  5
938
100
AcDbEntity
  8
0
100
AcDbCircle
 62
7
  6
CONTINUOUS
 10
6.6580232298
 20
3.349734423
 40
0.0189940401
100
AcDbArc
 50
305.6380401894
 51
329.973468123
  0
ARC
  5
939
100
AcDbEntity
  8
0
100
AcDbCircle
 62
7
  6
CONTINUOUS
 10
6.6141431719
 20
3.3519160436
 40
0.0185029446
100
AcDbArc
 50
270.7359981695
 51
290.4452189966
  0
ARC
  5
93A
100
AcDbEntity
  8
0
100
AcDbCircle
 62
7
  6
CONTINUOUS
 10
6.6155471683
 20
3.3487213885
 40
0.0150204259
100
AcDbArc
 50
289.6837274299
 51
306.4138214284
  0
ARC
  5
93B
100
AcDbEntity
  8
0
100
AcDbCircle
 62
7
  6
CONTINUOUS
 10
6.6636327617
 20
3.3447555757
 40
0.012033658
100
AcDbArc
 50
1.5478800801
 51
33.5027895713
  0
ARC
  5
93C
100
AcDbEntity
  8
0
100
AcDbCircle
 62
7
  6
CONTINUOUS
 10
6.6660304775
 20
3.3448787843
 40
0.009633666
100
AcDbArc
 50
331.1460738564
 51
1.2005713713
  0
ARC
  5
93D
100
AcDbEntity
  8
0
100
AcDbCircle
 62
7
  6
CONTINUOUS
 10
6.5896993807
 20
3.3444692386
 40
0.0017999999
100
AcDbArc
 50
89.9999999999
 51
180.0000000001
  0
ARC
  5
93E
100
AcDbEntity
  8
0
100
AcDbCircle
 62
7
  6
CONTINUOUS
 10
6.6002058049
 20
3.7617026632
 40
0.015
100
AcDbArc
 50
180.0
 51
270.0
  0
ARC
  5
93F
100
AcDbEntity
  8
0
100
AcDbCircle
 62
7
  6
CONTINUOUS
 10
6.2202058049
 20
3.7617026632
 40
0.015
100
AcDbArc
 50
180.0
 51
270.0
  0
ARC
  5
940
100
AcDbEntity
  8
0
100
AcDbCircle
 62
7
  6
CONTINUOUS
 10
6.4902058049
 20
3.7617026632
 40
0.015
100
AcDbArc
 50
270.0
 51
360.0
  0
ARC
  5
941
100
AcDbEntity
  8
0
100
AcDbCircle
 62
7
  6
CONTINUOUS
 10
7.2252058049
 20
3.2567026632
 40
0.25
100
AcDbArc
 50
270.0
 51
360.0
  0
ARC
  5
942
100
AcDbEntity
  8
0
100
AcDbCircle
 62
9
  6
CONTINUOUS
 10
7.2252058049
 20
3.2567026632
 40
0.2249999504
100
AcDbArc
 50
270.0
 51
360.0
  0
CIRCLE
  5
943
100
AcDbEntity
  8
0
100
AcDbCircle
 62
7
  6
CONTINUOUS
 10
7.1652058049
 20
3.3187026632
 40
0.15
  0
CIRCLE
  5
944
100
AcDbEntity
  8
0
100
AcDbCircle
 62
7
  6
CONTINUOUS
 10
7.1652058049
 20
3.3187026632
 40
0.14
  0
ARC
  5
945
100
AcDbEntity
  8
0
100
AcDbCircle
 62
7
  6
CONTINUOUS
 10
6.8602058049
 20
3.0317026632
 40
0.025
100
AcDbArc
 50
180.0
 51
270.0
  0
ARC
  5
946
100
AcDbEntity
  8
0
100
AcDbCircle
 62
7
  6
CONTINUOUS
 10
6.9402058049
 20
3.6217026632
 40
0.025
100
AcDbArc
 50
90.0
 51
180.0
  0
ARC
  5
947
100
AcDbEntity
  8
0
100
AcDbCircle
 62
7
  6
CONTINUOUS
 10
6.8702058049
 20
3.7617026632
 40
0.015
100
AcDbArc
 50
270.0
 51
360.0
  0
ARC
  5
948
100
AcDbEntity
  8
0
100
AcDbCircle
 62
7
  6
CONTINUOUS
 10
6.1652058049
 20
3.8967026632
 40
0.7475
100
AcDbArc
 50
200.0187798469
 51
212.3518502684
  0
ARC
  5
949
100
AcDbEntity
  8
0
100
AcDbCircle
 62
7
  6
CONTINUOUS
 10
6.1652058049
 20
3.8967026632
 40
0.7475
100
AcDbArc
 50
327.6481497316
 51
339.9812201531
  0
ARC
  5
94A
100
AcDbEntity
  8
0
100
AcDbCircle
 62
7
  6
CONTINUOUS
 10
6.1652058049
 20
3.8967026632
 40
0.7475
100
AcDbArc
 50
147.6481497316
 51
159.9812201531
  0
ARC
  5
94B
100
AcDbEntity
  8
0
100
AcDbCircle
 62
7
  6
CONTINUOUS
 10
6.1652058049
 20
3.8967026632
 40
0.7475
100
AcDbArc
 50
20.0187798469
 51
32.3518502684
  0
ARC
  5
94C
100
AcDbEntity
  8
0
100
AcDbCircle
 62
7
  6
CONTINUOUS
 10
6.6002058049
 20
4.0317026632
 40
0.015
100
AcDbArc
 50
90.0
 51
180.0
  0
ARC
  5
94D
100
AcDbEntity
  8
0
100
AcDbCircle
 62
7
  6
CONTINUOUS
 10
6.2202058049
 20
4.0317026632
 40
0.015
100
AcDbArc
 50
90.0
 51
180.0
  0
ARC
  5
94E
100
AcDbEntity
  8
0
100
AcDbCircle
 62
7
  6
CONTINUOUS
 10
6.4902058049
 20
4.0317026632
 40
0.015
100
AcDbArc
 50
0.0
 51
90.0
  0
ARC
  5
94F
100
AcDbEntity
  8
0
100
AcDbCircle
 62
7
  6
CONTINUOUS
 10
6.8702058049
 20
4.0317026632
 40
0.015
100
AcDbArc
 50
0.0
 51
90.0
  0
ARC
  5
950
100
AcDbEntity
  8
0
100
AcDbCircle
 62
9
  6
CONTINUOUS
 10
7.2252058049
 20
3.8967026632
 40
0.2749999998
100
AcDbArc
 50
270.0
 51
324.9031987724
  0
ARC
  5
951
100
AcDbEntity
  8
0
100
AcDbCircle
 62
7
  6
CONTINUOUS
 10
7.2252058049
 20
3.8967026632
 40
0.25
100
AcDbArc
 50
270.0
 51
90.0
  0
ARC
  5
952
100
AcDbEntity
  8
0
100
AcDbCircle
 62
9
  6
CONTINUOUS
 10
7.2252058049
 20
3.8967026632
 40
0.2249999456
100
AcDbArc
 50
270.0
 51
90.0
  0
CIRCLE
  5
953
100
AcDbEntity
  8
0
100
AcDbCircle
 62
7
  6
CONTINUOUS
 10
7.1652058049
 20
3.8967026632
 40
0.1575
  0
ARC
  5
954
100
AcDbEntity
  8
0
100
AcDbCircle
 62
9
  6
CONTINUOUS
 10
7.1652058049
 20
3.8967026632
 40
0.1514864865
100
AcDbArc
 50
9.4990482293
 51
170.5009517707
  0
ARC
  5
955
100
AcDbEntity
  8
0
100
AcDbCircle
 62
9
  6
CONTINUOUS
 10
7.1652058049
 20
3.8967026632
 40
0.1514864865
100
AcDbArc
 50
189.4990482293
 51
350.5009517707
  0
ARC
  5
956
100
AcDbEntity
  8
0
100
AcDbCircle
 62
7
  6
CONTINUOUS
 10
7.2281979309
 20
4.5132380962
 40
0.0196850394
100
AcDbArc
 50
270.0
 51
360.0
  0
ARC
  5
957
100
AcDbEntity
  8
0
100
AcDbCircle
 62
7
  6
CONTINUOUS
 10
5.318749112
 20
6.707047335
 40
0.2362204724
100
AcDbArc
 50
180.0
 51
270.0
  0
ARC
  5
958
100
AcDbEntity
  8
0
100
AcDbCircle
 62
7
  6
CONTINUOUS
 10
4.8802058049
 20
6.6244489098
 40
0.025
100
AcDbArc
 50
180.0
 51
270.0001077069
  0
ARC
  5
959
100
AcDbEntity
  8
0
100
AcDbCircle
 62
7
  6
CONTINUOUS
 10
4.8652058049
 20
7.4394489098
 40
0.01
100
AcDbArc
 50
89.9999982949
 51
180.0
  0
ARC
  5
95A
100
AcDbEntity
  8
0
100
AcDbCircle
 62
7
  6
CONTINUOUS
 10
5.318749112
 20
8.2818504846
 40
0.2362204724
100
AcDbArc
 50
90.0
 51
180.0
  0
CIRCLE
  5
95B
100
AcDbEntity
  8
AXIS_COSMETIC_THREADS
100
AcDbCircle
 62
7
  6
CONTINUOUS
 10
5.318749112
 20
7.4944489098
 40
0.1141732283
  0
ARC
  5
95C
100
AcDbEntity
  8
0
100
AcDbCircle
 62
7
  6
CONTINUOUS
 10
4.8652058049
 20
7.5344489098
 40
0.01
100
AcDbArc
 50
180.0
 51
270.0000016218
  0
ARC
  5
95D
100
AcDbEntity
  8
0
100
AcDbCircle
 62
7
  6
CONTINUOUS
 10
7.0116624978
 20
6.707047335
 40
0.2362204724
100
AcDbArc
 50
270.0
 51
360.0
  0
ARC
  5
95E
100
AcDbEntity
  8
0
100
AcDbCircle
 62
7
  6
CONTINUOUS
 10
7.4502058049
 20
6.6244489098
 40
0.025
100
AcDbArc
 50
269.9998922931
 51
360.0
  0
ARC
  5
95F
100
AcDbEntity
  8
0
100
AcDbCircle
 62
7
  6
CONTINUOUS
 10
7.4652058049
 20
7.4394489098
 40
0.01
100
AcDbArc
 50
0.0
 51
90.0000017051
  0
ARC
  5
960
100
AcDbEntity
  8
0
100
AcDbCircle
 62
7
  6
CONTINUOUS
 10
6.1652058049
 20
7.4794489098
 40
1.13
100
AcDbArc
 50
243.229791477
 51
296.7702254586
  0
ARC
  5
961
100
AcDbEntity
  8
0
100
AcDbCircle
 62
9
  6
CONTINUOUS
 10
6.1652058049
 20
7.4794489098
 40
1.1050000066
100
AcDbArc
 50
246.0245402892
 51
293.975488122
  0
CIRCLE
  5
962
100
AcDbEntity
  8
AXIS_COSMETIC_THREADS
100
AcDbCircle
 62
7
  6
CONTINUOUS
 10
6.1652058049
 20
7.4944489098
 40
0.6299212598
  0
CIRCLE
  5
963
100
AcDbEntity
  8
AXIS_COSMETIC_THREADS
100
AcDbCircle
 62
7
  6
CONTINUOUS
 10
7.0116624978
 20
7.4944489098
 40
0.1141732283
  0
ARC
  5
964
100
AcDbEntity
  8
0
100
AcDbCircle
 62
7
  6
CONTINUOUS
 10
7.4652058049
 20
7.5344489098
 40
0.01
100
AcDbArc
 50
269.9999628311
 51
360.0
  0
ARC
  5
965
100
AcDbEntity
  8
0
100
AcDbCircle
 62
7
  6
CONTINUOUS
 10
7.0116624978
 20
8.2818504846
 40
0.2362204724
100
AcDbArc
 50
0.0
 51
90.0
  0
ELLIPSE
  5
966
100
AcDbEntity
  8
0
100
AcDbEllipse
 62
7
  6
CONTINUOUS
 10
14.7938967783
 20
6.0514395705
 30
0.0
 11
0.3254069876
 21
0.9242006431
 31
0.0
 40
0.4107534628
 41
1.4940583674
 42
1.6056574048
  0
ELLIPSE
  5
967
100
AcDbEntity
  8
0
100
AcDbEllipse
 62
7
  6
CONTINUOUS
 10
14.7938967783
 20
5.8939409694
 30
0.0
 11
-0.488244801
 21
0.5338025075
 31
0.0
 40
0.2019141021
 41
0.8910648549
 42
1.0026638923
  0
ELLIPSE
  5
968
100
AcDbEntity
  8
0
100
AcDbEllipse
 62
7
  6
CONTINUOUS
 10
13.5671174713
 20
5.1856638341
 30
0.0
 11
0.3254069876
 21
0.9242006431
 31
0.0
 40
0.4107534628
 41
1.38245933
 42
1.4940583674
  0
ELLIPSE
  5
969
100
AcDbEntity
  8
0
100
AcDbEllipse
 62
7
  6
CONTINUOUS
 10
13.5671174713
 20
5.3431624352
 30
0.0
 11
-0.488244801
 21
0.5338025075
 31
0.0
 40
0.2019141021
 41
1.0026638923
 42
1.1142629297
  0
ENDSEC
  0
SECTION
  2
OBJECTS
  0
DICTIONARY
  5
C
100
AcDbDictionary
280
0
281
1
  3
ACAD_GROUP
350
D
  3
ACAD_MLINESTYLE
350
17
  3
ACAD_LAYOUT
350
1A
  3
ACAD_PLOTSETTINGS
350
19
  3
ACAD_PLOTSTYLENAME
350
E
  0
DICTIONARY
  5
D
102
{ACAD_REACTORS
330
C
102
}
100
AcDbDictionary
280
0
281
1
  0
ACDBDICTIONARYWDFLT
  5
E
102
{ACAD_REACTORS
330
C
102
}
100
AcDbDictionary
281
1
  3
Normal
350
F
100
AcDbDictionaryWithDefault
340
F
  0
DICTIONARY
  5
17
102
{ACAD_REACTORS
330
C
102
}
100
AcDbDictionary
280
0
281
1
  3
Standard
350
18
  0
DICTIONARY
  5
19
102
{ACAD_REACTORS
330
C
102
}
100
AcDbDictionary
281
1
  0
DICTIONARY
  5
1A
102
{ACAD_REACTORS
330
C
102
}
100
AcDbDictionary
281
1
  3
Model
350
96A
  3
Layout1
350
96B
  0
ACDBPLACEHOLDER
  5
F
102
{ACAD_REACTORS
330
E
102
}
  0
MLINESTYLE
  5
18
102
{ACAD_REACTORS
330
17
102
}
100
AcDbMlineStyle
  2
STANDARD
 70
0
  3

 62
256
 51
90.0
 52
90.0
 71
2
 49
0.5
 62
256
  6
BYLAYER
 49
-0.5
 62
256
  6
BYLAYER
  0
LAYOUT
  5
96A
102
{ACAD_REACTORS
330
1A
102
}
100
AcDbPlotSettings
  1

  2
none_device
  4
ANSI_B_(17.00_x_11.00_Inches)
  6

 40
0.0
 41
0.0
 42
0.0
 43
0.0
 44
431.8
 45
279.4
 46
0.0
 47
0.0
 48
0.0
 49
0.0
140
0.0
141
0.0
142
1.0
143
1.0
 70
1024
 72
0
 73
0
 74
0
  7

 75
0
147
1.0
148
0.0
149
0.0
100
AcDbLayout
  1
Model
 70
0
 71
0
 10
0.0
 20
0.0
 11
17.0
 21
11.0
 12
0.0
 22
0.0
 32
0.0
 14
0.0
 24
0.0
 34
0.0
 15
0.0
 25
0.0
 35
0.0
146
0.0
 13
0.0
 23
0.0
 33
0.0
 16
1.0
 26
0.0
 36
0.0
 17
0.0
 27
1.0
 37
0.0
 76
0
330
20D
345
0
346
0
  0
LAYOUT
  5
96B
102
{ACAD_REACTORS
330
1A
102
}
100
AcDbPlotSettings
  1

  2
none_device
  4
ANSI_B_(17.00_x_11.00_Inches)
  6

 40
0.0
 41
0.0
 42
0.0
 43
0.0
 44
431.8
 45
279.4
 46
0.0
 47
0.0
 48
0.0
 49
0.0
140
0.0
141
0.0
142
1.0
143
1.0
 70
0
 72
0
 73
0
 74
0
  7

 75
0
147
1.0
148
0.0
149
0.0
100
AcDbLayout
  1
Layout1
 70
0
 71
1
 10
0.0
 20
0.0
 11
17.0
 21
11.0
 12
0.0
 22
0.0
 32
0.0
 14
0.0
 24
0.0
 34
0.0
 15
0.0
 25
0.0
 35
0.0
146
0.0
 13
0.0
 23
0.0
 33
0.0
 16
1.0
 26
0.0
 36
0.0
 17
0.0
 27
1.0
 37
0.0
 76
0
330
20E
345
0
346
0
  0
ENDSEC
  0
EOF
