999
DXF file: 156622_1.dxf
999
Pro/ENGINEER 2009141 by Parametric Technology Corporation
  0
SECTION
  2
HEADER
  9
$ACADVER
  1
AC1015
  9
$DWGCODEPAGE
  3
ANSI_1252
  9
$EXTMAX
 10
17.0
 20
11.0
 30
0.0
  9
$EXTMIN
 10
0.0
 20
0.0
 30
0.0
  9
$LIMMIN
 10
0.0
 20
0.0
  9
$LIMMAX
 10
17.0
 20
11.0
  9
$VIEWCTR
 10
8.5
 20
5.5
  9
$VIEWSIZE
 40
11.0
  9
$CLAYER
  8
0
  9
$LTSCALE
 40
0.935
  9
$CELTYPE
  6
BYLAYER
  9
$DIMSCALE
 40
1.0
  9
$DIMASZ
 40
0.1875
  9
$DIMEXO
 40
0.10625
  9
$DIMDLI
 40
0.646
  9
$DIMEXE
 40
0.306
  9
$DIMCEN
 40
0.153
  9
$DIMLFAC
 40
1.0
  9
$DIMBLK
  1
_FILLED
  9
$DIMTXT
 40
0.1
  9
$DIMTOL
 70
1
  9
$DIMLIM
 70
0
  9
$DIMTFAC
 40
1.0
  9
$DIMTP
 40
0.005
  9
$DIMTM
 40
0.005
  9
$PDMODE
 70
3
  9
$PDSIZE
 40
0.3125
  9
$HANDSEED
  5
7A2
  9
$TILEMODE
 70
1
  9
$MEASUREMENT
 70
0
  9
$INSUNITS
 70
1
  0
ENDSEC
  0
SECTION
  2
CLASSES
  0
CLASS
  1
ACDBDICTIONARYWDFLT
  2
AcDbDictionaryWithDefault
  3
AutoCAD 2000
 90
0
280
0
281
0
  0
CLASS
  1
ACDBPLACEHOLDER
  2
AcDbPlaceHolder
  3
AutoCAD 2000
 90
0
280
0
281
0
  0
CLASS
  1
LAYOUT
  2
AcDbLayout
  3
AutoCAD 2000
 90
0
280
0
281
0
  0
ENDSEC
  0
SECTION
  2
TABLES
  0
TABLE
  2
VPORT
  5
8
100
AcDbSymbolTable
 70
2
  0
VPORT
  5
1F4
100
AcDbSymbolTableRecord
100
AcDbViewportTableRecord
  2
*ACTIVE
 70
0
 10
0.0
 20
0.0
 11
1.0
 21
1.0
 12
8.5
 22
5.5
 13
0.0
 23
0.0
 14
1.0
 24
1.0
 15
0.0
 25
0.0
 16
0.0
 26
0.0
 36
1.0
 17
0.0
 27
0.0
 37
0.0
 40
11.0
 41
1.5454545455
 42
50.0
 43
0.0
 44
0.0
 50
0.0
 51
0.0
 71
0
 72
100
 73
1
 74
1
 75
0
 76
0
 77
0
 78
0
  0
ENDTAB
  0
TABLE
  2
LTYPE
  5
5
100
AcDbSymbolTable
 70
6
  0
LTYPE
  5
14
100
AcDbSymbolTableRecord
100
AcDbLinetypeTableRecord
  2
BYBLOCK
 70
0
  3

 72
65
 73
0
 40
0.0
  0
LTYPE
  5
15
100
AcDbSymbolTableRecord
100
AcDbLinetypeTableRecord
  2
BYLAYER
 70
0
  3

 72
65
 73
0
 40
0.0
  0
LTYPE
  5
16
100
AcDbSymbolTableRecord
100
AcDbLinetypeTableRecord
  2
CONTINUOUS
 70
64
  3
Solid line
 72
65
 73
0
 40
0.0
  0
LTYPE
  5
1F5
100
AcDbSymbolTableRecord
100
AcDbLinetypeTableRecord
  2
CENTER
 70
64
  3
____ _ ____ _ ____ _ ____ _ ____ _ ____ _ ____
 72
65
 73
4
 40
0.6
 49
0.375
 74
0
 49
-0.075
 74
0
 49
0.075
 74
0
 49
-0.075
 74
0
  0
LTYPE
  5
1F6
100
AcDbSymbolTableRecord
100
AcDbLinetypeTableRecord
  2
HIDDEN
 70
64
  3
- - - - - - - - - - - - - - - - - - - -
 72
65
 73
2
 40
0.2
 49
0.1
 74
0
 49
-0.1
 74
0
  0
LTYPE
  5
1F7
100
AcDbSymbolTableRecord
100
AcDbLinetypeTableRecord
  2
PHANTOM
 70
64
  3
_____ _ _ _____ _ _ _____ _ _ _____
 72
65
 73
6
 40
0.8
 49
0.45
 74
0
 49
-0.05
 74
0
 49
0.1
 74
0
 49
-0.05
 74
0
 49
0.1
 74
0
 49
-0.05
 74
0
  0
LTYPE
  5
1F8
100
AcDbSymbolTableRecord
100
AcDbLinetypeTableRecord
  2
DOT
 70
64
  3
. . . . . . . . . . . . . . . . . . . .
 72
65
 73
2
 40
0.2
 49
0.1
 74
0
 49
-0.1
 74
0
  0
LTYPE
  5
1F9
100
AcDbSymbolTableRecord
100
AcDbLinetypeTableRecord
  2
DASHED
 70
64
  3
- - - - - - - - - - - - - - - - - - - -
 72
65
 73
2
 40
0.2
 49
0.1
 74
0
 49
-0.1
 74
0
  0
ENDTAB
  0
TABLE
  2
LAYER
  5
2
100
AcDbSymbolTable
 70
36
  0
LAYER
  5
10
100
AcDbSymbolTableRecord
100
AcDbLayerTableRecord
  2
0
 70
0
 62
7
  6
CONTINUOUS
370
-3
390
F
  0
LAYER
  5
1FA
100
AcDbSymbolTableRecord
100
AcDbLayerTableRecord
  2
DEFAULT_1
 70
0
 62
7
  6
CENTER
370
-3
390
F
  0
LAYER
  5
1FB
100
AcDbSymbolTableRecord
100
AcDbLayerTableRecord
  2
DEFAULT_2
 70
0
 62
8
  6
HIDDEN
370
-3
390
F
  0
LAYER
  5
1FC
100
AcDbSymbolTableRecord
100
AcDbLayerTableRecord
  2
DEFAULT_3
 70
0
 62
7
  6
PHANTOM
370
-3
390
F
  0
LAYER
  5
1FD
100
AcDbSymbolTableRecord
100
AcDbLayerTableRecord
  2
AXIS
 70
0
 62
7
  6
CONTINUOUS
370
-3
390
F
  0
LAYER
  5
1FE
100
AcDbSymbolTableRecord
100
AcDbLayerTableRecord
  2
AXIS_COSMETIC_THREADS
 70
0
 62
7
  6
CONTINUOUS
370
-3
390
F
  0
LAYER
  5
1FF
100
AcDbSymbolTableRecord
100
AcDbLayerTableRecord
  2
CURVES
 70
0
 62
7
  6
CONTINUOUS
370
-3
390
F
  0
LAYER
  5
200
100
AcDbSymbolTableRecord
100
AcDbLayerTableRecord
  2
DATUM_PLANES
 70
0
 62
7
  6
CONTINUOUS
370
-3
390
F
  0
LAYER
  5
201
100
AcDbSymbolTableRecord
100
AcDbLayerTableRecord
  2
DEF_CSY
 70
0
 62
7
  6
CONTINUOUS
370
-3
390
F
  0
LAYER
  5
202
100
AcDbSymbolTableRecord
100
AcDbLayerTableRecord
  2
GEOMTOL
 70
0
 62
7
  6
CONTINUOUS
370
-3
390
F
  0
LAYER
  5
203
100
AcDbSymbolTableRecord
100
AcDbLayerTableRecord
  2
NOTES
 70
0
 62
7
  6
CONTINUOUS
370
-3
390
F
  0
LAYER
  5
204
100
AcDbSymbolTableRecord
100
AcDbLayerTableRecord
  2
PNTS
 70
0
 62
7
  6
CONTINUOUS
370
-3
390
F
  0
LAYER
  5
205
100
AcDbSymbolTableRecord
100
AcDbLayerTableRecord
  2
QUILTS
 70
0
 62
7
  6
CONTINUOUS
370
-3
390
F
  0
LAYER
  5
206
100
AcDbSymbolTableRecord
100
AcDbLayerTableRecord
  2
SCHEME_DIMS
 70
0
 62
7
  6
CONTINUOUS
370
-3
390
F
  0
LAYER
  5
207
100
AcDbSymbolTableRecord
100
AcDbLayerTableRecord
  2
SKETCHED_ENT
 70
0
 62
7
  6
CONTINUOUS
370
-3
390
F
  0
LAYER
  5
208
100
AcDbSymbolTableRecord
100
AcDbLayerTableRecord
  2
SURFACES
 70
0
 62
7
  6
CONTINUOUS
370
-3
390
F
  0
LAYER
  5
209
100
AcDbSymbolTableRecord
100
AcDbLayerTableRecord
  2
SYMBOLS
 70
0
 62
7
  6
CONTINUOUS
370
-3
390
F
  0
ENDTAB
  0
TABLE
  2
STYLE
  5
3
100
AcDbSymbolTable
 70
1
  0
STYLE
  5
11
100
AcDbSymbolTableRecord
100
AcDbTextStyleTableRecord
  2
STANDARD
 70
0
 40
0.0
 41
1.0
 50
0.0
 71
0
 42
0.2
  3
txt
  4

  0
STYLE
  5
20A
100
AcDbSymbolTableRecord
100
AcDbTextStyleTableRecord
  2
TEXTSTYLE_1
 70
0
 40
0.0
 41
0.8
 50
0.0
 71
0
 42
0.2
  3
gdt
  4

  0
STYLE
  5
20B
100
AcDbSymbolTableRecord
100
AcDbTextStyleTableRecord
  2
TEXTSTYLE_2
 70
0
 40
0.0
 41
0.8
 50
0.0
 71
0
 42
0.2
  3
txt
  4

  0
STYLE
  5
20C
100
AcDbSymbolTableRecord
100
AcDbTextStyleTableRecord
  2
TEXTSTYLE_3
 70
0
 40
0.0
 41
0.85
 50
0.0
 71
0
 42
0.2
  3
txt
  4

  0
STYLE
  5
20D
100
AcDbSymbolTableRecord
100
AcDbTextStyleTableRecord
  2
TEXTSTYLE_4
 70
0
 40
0.0
 41
0.92
 50
0.0
 71
0
 42
0.2
  3
txt
  4

  0
STYLE
  5
20E
100
AcDbSymbolTableRecord
100
AcDbTextStyleTableRecord
  2
TEXTSTYLE_5
 70
0
 40
0.0
 41
1.0
 50
0.0
 71
0
 42
0.2
  3
gdt
  4

  0
ENDTAB
  0
TABLE
  2
VIEW
  5
6
100
AcDbSymbolTable
 70
0
  0
ENDTAB
  0
TABLE
  2
UCS
  5
7
100
AcDbSymbolTable
 70
0
  0
ENDTAB
  0
TABLE
  2
APPID
  5
9
100
AcDbSymbolTable
 70
1
  0
APPID
  5
20F
100
AcDbSymbolTableRecord
100
AcDbRegAppTableRecord
  2
ACAD
 70
0
  0
ENDTAB
  0
TABLE
  2
BLOCK_RECORD
  5
1
100
AcDbSymbolTable
 70
0
  0
BLOCK_RECORD
  5
210
100
AcDbSymbolTableRecord
100
AcDbBlockTableRecord
  2
*Model_Space
  0
BLOCK_RECORD
  5
211
100
AcDbSymbolTableRecord
100
AcDbBlockTableRecord
  2
*Paper_Space
  0
BLOCK_RECORD
  5
212
100
AcDbSymbolTableRecord
100
AcDbBlockTableRecord
  2
_FILLED
  0
BLOCK_RECORD
  5
213
100
AcDbSymbolTableRecord
100
AcDbBlockTableRecord
  2
*D0
  0
BLOCK_RECORD
  5
214
100
AcDbSymbolTableRecord
100
AcDbBlockTableRecord
  2
*D1
  0
BLOCK_RECORD
  5
215
100
AcDbSymbolTableRecord
100
AcDbBlockTableRecord
  2
*D2
  0
BLOCK_RECORD
  5
216
100
AcDbSymbolTableRecord
100
AcDbBlockTableRecord
  2
*D3
  0
BLOCK_RECORD
  5
217
100
AcDbSymbolTableRecord
100
AcDbBlockTableRecord
  2
*D4
  0
BLOCK_RECORD
  5
218
100
AcDbSymbolTableRecord
100
AcDbBlockTableRecord
  2
*D5
  0
BLOCK_RECORD
  5
219
100
AcDbSymbolTableRecord
100
AcDbBlockTableRecord
  2
*D6
  0
BLOCK_RECORD
  5
21A
100
AcDbSymbolTableRecord
100
AcDbBlockTableRecord
  2
*D7
  0
BLOCK_RECORD
  5
21B
100
AcDbSymbolTableRecord
100
AcDbBlockTableRecord
  2
*D8
  0
BLOCK_RECORD
  5
21C
100
AcDbSymbolTableRecord
100
AcDbBlockTableRecord
  2
*D9
  0
BLOCK_RECORD
  5
21D
100
AcDbSymbolTableRecord
100
AcDbBlockTableRecord
  2
BANNER_LOGO_TITLEBLOCK_BL0
  0
ENDTAB
  0
TABLE
  2
DIMSTYLE
  5
A
100
AcDbSymbolTable
 70
1
100
AcDbDimStyleTable
 71
0
  0
DIMSTYLE
105
21E
100
AcDbSymbolTableRecord
100
AcDbDimStyleTableRecord
  2
STANDARD
 70
0
  3

  4

 40
1.0
 41
0.1875
 42
0.0625
 43
0.38
 44
0.18
 45
0.0
 46
0.0
 47
0.005
 48
0.005
140
0.1
141
0.09
142
0.0
143
25.4
144
1.0
145
0.0
146
1.0
147
0.09
 71
1.0
 72
0.0
 73
1
 74
1
 75
0
 76
0
 77
0
 78
4
170
0
171
2
172
0
173
0
174
0
175
0
176
0
177
0
178
0
270
2
271
3
272
3
273
2
274
2
275
0
280
0
281
0
282
0
283
1
284
4
285
0
286
0
287
3
288
0
340
11
341
212
342
212
343
212
344
212
  0
DIMSTYLE
105
21F
100
AcDbSymbolTableRecord
100
AcDbDimStyleTableRecord
  2
DIMSTYLE_1
 70
0
  3

  4

 40
1.0
 41
0.1875
 42
0.0625
 43
0.38
 44
0.18
 45
0.0
 46
0.0
 47
0.1
 48
0.1
140
0.1
141
0.09
142
0.0
143
25.4
144
1.0
145
0.0
146
1.0
147
0.09
 71
0.0
 72
0.0
 73
1
 74
1
 75
0
 76
0
 77
0
 78
4
170
0
171
2
172
0
173
0
174
0
175
0
176
0
177
0
178
0
270
2
271
1
272
1
273
2
274
2
275
0
280
0
281
0
282
0
283
1
284
4
285
0
286
0
287
3
288
0
340
11
341
212
342
212
343
212
344
212
  0
DIMSTYLE
105
220
100
AcDbSymbolTableRecord
100
AcDbDimStyleTableRecord
  2
DIMSTYLE_2
 70
0
  3

  4

 40
1.0
 41
0.1875
 42
0.0625
 43
0.38
 44
0.18
 45
0.0
 46
0.0
 47
0.1
 48
0.1
140
0.1
141
0.09
142
0.0
143
25.4
144
1.0
145
0.0
146
1.0
147
0.09
 71
0.0
 72
0.0
 73
1
 74
1
 75
0
 76
0
 77
0
 78
4
170
0
171
2
172
0
173
0
174
0
175
0
176
0
177
0
178
0
270
2
271
1
272
1
273
2
274
2
275
0
280
0
281
0
282
0
283
1
284
4
285
0
286
0
287
3
288
0
340
11
341
212
342
212
343
212
344
212
  0
ENDTAB
  0
ENDSEC
  0
SECTION
  2
BLOCKS
  0
BLOCK
  5
20
100
AcDbEntity
  8
0
100
AcDbBlockBegin
  2
*Model_Space
 70
0
 10
0.0
 20
0.0
 30
0.0
  3
*Model_Space
  1

  0
ENDBLK
  5
21
100
AcDbEntity
  8
0
100
AcDbBlockEnd
  0
BLOCK
  5
1C
100
AcDbEntity
  8
0
100
AcDbBlockBegin
  2
*Paper_Space
 70
0
 10
0.0
 20
0.0
 30
0.0
  3
*Paper_Space
  1

  0
ENDBLK
  5
1D
100
AcDbEntity
  8
0
100
AcDbBlockEnd
  0
BLOCK
  5
221
100
AcDbEntity
  8
0
100
AcDbBlockBegin
 62
2
  6
CONTINUOUS
  2
BANNER_LOGO_TITLEBLOCK_BL0
 70
64
 10
12.9086867042
 20
2.5403783405
  3
BANNER_LOGO_TITLEBLOCK_BL0
  1

  0
ELLIPSE
  5
222
100
AcDbEntity
  8
0
100
AcDbEllipse
 62
2
  6
CONTINUOUS
 10
12.9046654608
 20
2.5403783405
 30
0.0
 11
-0.8250004575
 21
0.0
 31
0.0
 40
0.218572
 41
0.0
 42
6.2831853072
  0
ARC
  5
223
100
AcDbEntity
  8
0
100
AcDbCircle
 62
2
  6
CONTINUOUS
 10
12.400005721
 20
2.5168763464
 40
0.0153945295
100
AcDbArc
 50
354.0454548824
 51
5.1878013979
  0
ARC
  5
224
100
AcDbEntity
  8
0
100
AcDbCircle
 62
2
  6
CONTINUOUS
 10
12.3931760319
 20
2.5166878286
 40
0.0222174455
100
AcDbArc
 50
4.0793399388
 51
69.834329283
  0
LINE
  5
225
100
AcDbEntity
  8
0
100
AcDbLine
 62
2
  6
CONTINUOUS
 10
12.4008351814
 20
2.5375433389
 11
12.3907841758
 21
2.5410923409
  0
LINE
  5
226
100
AcDbEntity
  8
0
100
AcDbLine
 62
2
  6
CONTINUOUS
 10
12.3907841758
 20
2.5410923409
 11
12.3990241804
 21
2.5458683435
  0
ARC
  5
227
100
AcDbEntity
  8
0
100
AcDbCircle
 62
2
  6
CONTINUOUS
 10
12.3771587979
 20
2.5826952352
 40
0.0428289026
100
AcDbArc
 50
300.6990502959
 51
319.0591802498
  0
ARC
  5
228
100
AcDbEntity
  8
0
100
AcDbCircle
 62
2
  6
CONTINUOUS
 10
12.3971873948
 20
2.5665668817
 40
0.0171568255
100
AcDbArc
 50
315.9145124245
 51
16.0049121282
  0
ARC
  5
229
100
AcDbEntity
  8
0
100
AcDbCircle
 62
2
  6
CONTINUOUS
 10
12.3922357827
 20
2.5632132173
 40
0.0229166529
100
AcDbArc
 50
20.6563876465
 51
62.3316896973
  0
ARC
  5
22A
100
AcDbEntity
  8
0
100
AcDbCircle
 62
2
  6
CONTINUOUS
 10
12.371573659
 20
2.5302846524
 40
0.061747717
100
AcDbArc
 50
59.5385584989
 51
90.0050977555
  0
LINE
  5
22B
100
AcDbEntity
  8
0
100
AcDbLine
 62
2
  6
CONTINUOUS
 10
12.3715681652
 20
2.5920323691
 11
12.2055050731
 21
2.5920323691
  0
ARC
  5
22C
100
AcDbEntity
  8
0
100
AcDbCircle
 62
2
  6
CONTINUOUS
 10
12.2055050712
 20
2.5895573696
 40
0.0024749995
100
AcDbArc
 50
89.9999571957
 51
180.0000428043
  0
LINE
  5
22D
100
AcDbEntity
  8
0
100
AcDbLine
 62
2
  6
CONTINUOUS
 10
12.2030300717
 20
2.5895573678
 11
12.2030300717
 21
2.5697573568
  0
ARC
  5
22E
100
AcDbEntity
  8
0
100
AcDbCircle
 62
2
  6
CONTINUOUS
 10
12.2055050712
 20
2.5697573549
 40
0.0024749995
100
AcDbArc
 50
179.9999571957
 51
270.0000428043
  0
LINE
  5
22F
100
AcDbEntity
  8
0
100
AcDbLine
 62
2
  6
CONTINUOUS
 10
12.2055050731
 20
2.5672823554
 11
12.2294470864
 21
2.5672823554
  0
ARC
  5
230
100
AcDbEntity
  8
0
100
AcDbCircle
 62
2
  6
CONTINUOUS
 10
12.2294470882
 20
2.5648073559
 40
0.0024749995
100
AcDbArc
 50
359.9999571957
 51
90.0000428043
  0
LINE
  5
231
100
AcDbEntity
  8
0
100
AcDbLine
 62
2
  6
CONTINUOUS
 10
12.2319220877
 20
2.564807354
 11
12.2319220877
 21
2.5184523283
  0
ARC
  5
232
100
AcDbEntity
  8
0
100
AcDbCircle
 62
2
  6
CONTINUOUS
 10
12.2294470882
 20
2.5184523265
 40
0.0024749995
100
AcDbArc
 50
269.9999571957
 51
0.0000428043
  0
LINE
  5
233
100
AcDbEntity
  8
0
100
AcDbLine
 62
2
  6
CONTINUOUS
 10
12.2294470864
 20
2.515977327
 11
12.2055050731
 21
2.515977327
  0
ARC
  5
234
100
AcDbEntity
  8
0
100
AcDbCircle
 62
2
  6
CONTINUOUS
 10
12.2055050712
 20
2.5135023274
 40
0.0024749995
100
AcDbArc
 50
89.9999571957
 51
180.0000428043
  0
LINE
  5
235
100
AcDbEntity
  8
0
100
AcDbLine
 62
2
  6
CONTINUOUS
 10
12.2030300717
 20
2.5135023256
 11
12.2030300717
 21
2.4937023146
  0
ARC
  5
236
100
AcDbEntity
  8
0
100
AcDbCircle
 62
2
  6
CONTINUOUS
 10
12.2055050712
 20
2.4937023128
 40
0.0024749995
100
AcDbArc
 50
179.9999571957
 51
270.0000428043
  0
LINE
  5
237
100
AcDbEntity
  8
0
100
AcDbLine
 62
2
  6
CONTINUOUS
 10
12.2055050731
 20
2.4912273132
 11
12.3819511709
 21
2.4912273132
  0
ARC
  5
238
100
AcDbEntity
  8
0
100
AcDbCircle
 62
2
  6
CONTINUOUS
 10
12.3792298263
 20
2.539634765
 40
0.048483885
100
AcDbArc
 50
273.21763719
 51
303.0749121182
  0
ARC
  5
239
100
AcDbEntity
  8
0
100
AcDbCircle
 62
2
  6
CONTINUOUS
 10
12.3940692204
 20
2.5168671561
 40
0.0213072145
100
AcDbArc
 50
303.0488228549
 51
355.7263138674
  0
LINE
  5
23A
100
AcDbEntity
  8
0
100
AcDbLine
 62
2
  6
CONTINUOUS
 10
12.2949101227
 20
2.5499573458
 11
12.3362731456
 21
2.5499573458
  0
ARC
  5
23B
100
AcDbEntity
  8
0
100
AcDbCircle
 62
2
  6
CONTINUOUS
 10
12.3362731456
 20
2.5586198506
 40
0.0086625048
100
AcDbArc
 50
270.0
 51
90.0
  0
LINE
  5
23C
100
AcDbEntity
  8
0
100
AcDbLine
 62
2
  6
CONTINUOUS
 10
12.3362731456
 20
2.5672823554
 11
12.2949101227
 21
2.5672823554
  0
ARC
  5
23D
100
AcDbEntity
  8
0
100
AcDbCircle
 62
2
  6
CONTINUOUS
 10
12.2949101208
 20
2.5648073559
 40
0.0024749995
100
AcDbArc
 50
89.9999571957
 51
180.0000428043
  0
LINE
  5
23E
100
AcDbEntity
  8
0
100
AcDbLine
 62
2
  6
CONTINUOUS
 10
12.2924351213
 20
2.564807354
 11
12.2924351213
 21
2.5524323472
  0
ARC
  5
23F
100
AcDbEntity
  8
0
100
AcDbCircle
 62
2
  6
CONTINUOUS
 10
12.2949101208
 20
2.5524323453
 40
0.0024749995
100
AcDbArc
 50
179.9999571957
 51
270.0000428043
  0
LINE
  5
240
100
AcDbEntity
  8
0
100
AcDbLine
 62
2
  6
CONTINUOUS
 10
12.2924351213
 20
2.5184523283
 11
12.2924351213
 21
2.5308273352
  0
ARC
  5
241
100
AcDbEntity
  8
0
100
AcDbCircle
 62
2
  6
CONTINUOUS
 10
12.2949101208
 20
2.530827337
 40
0.0024749995
100
AcDbArc
 50
89.9999571957
 51
180.0000428043
  0
LINE
  5
242
100
AcDbEntity
  8
0
100
AcDbLine
 62
2
  6
CONTINUOUS
 10
12.2949101227
 20
2.5333023366
 11
12.3362731456
 21
2.5333023366
  0
ARC
  5
243
100
AcDbEntity
  8
0
100
AcDbCircle
 62
2
  6
CONTINUOUS
 10
12.3362731456
 20
2.5246398318
 40
0.0086625048
100
AcDbArc
 50
270.0
 51
90.0
  0
LINE
  5
244
100
AcDbEntity
  8
0
100
AcDbLine
 62
2
  6
CONTINUOUS
 10
12.3362731456
 20
2.515977327
 11
12.2949101227
 21
2.515977327
  0
ARC
  5
245
100
AcDbEntity
  8
0
100
AcDbCircle
 62
2
  6
CONTINUOUS
 10
12.2949101208
 20
2.5184523265
 40
0.0024749995
100
AcDbArc
 50
179.9999571957
 51
270.0000428043
  0
ARC
  5
246
100
AcDbEntity
  8
0
100
AcDbCircle
 62
2
  6
CONTINUOUS
 10
13.5806801742
 20
2.5212486481
 40
0.044722495
100
AcDbArc
 50
195.531588407
 51
204.7624440448
  0
LINE
  5
247
100
AcDbEntity
  8
0
100
AcDbLine
 62
2
  6
CONTINUOUS
 10
13.5375908118
 20
2.5092733232
 11
13.5357868108
 21
2.5153423266
  0
ARC
  5
248
100
AcDbEntity
  8
0
100
AcDbCircle
 62
2
  6
CONTINUOUS
 10
13.4974076135
 20
2.5055452462
 40
0.0396099176
100
AcDbArc
 50
14.3201081283
 51
22.4984722084
  0
ARC
  5
249
100
AcDbEntity
  8
0
100
AcDbCircle
 62
2
  6
CONTINUOUS
 10
13.5201739219
 20
2.5145168728
 40
0.0151491919
100
AcDbArc
 50
24.098260853
 51
63.0369451818
  0
ARC
  5
24A
100
AcDbEntity
  8
0
100
AcDbCircle
 62
2
  6
CONTINUOUS
 10
13.5161192671
 20
2.5062372524
 40
0.0243676582
100
AcDbArc
 50
63.3666028271
 51
90.3937697637
  0
LINE
  5
24B
100
AcDbEntity
  8
0
100
AcDbLine
 62
2
  6
CONTINUOUS
 10
13.5159517998
 20
2.5306043351
 11
13.4883447845
 21
2.5306043351
  0
ARC
  5
24C
100
AcDbEntity
  8
0
100
AcDbCircle
 62
2
  6
CONTINUOUS
 10
13.4883447827
 20
2.5281293355
 40
0.0024749995
100
AcDbArc
 50
89.9999571957
 51
180.0000428043
  0
LINE
  5
24D
100
AcDbEntity
  8
0
100
AcDbLine
 62
2
  6
CONTINUOUS
 10
13.4858697831
 20
2.5281293337
 11
13.4858697831
 21
2.5184303283
  0
ARC
  5
24E
100
AcDbEntity
  8
0
100
AcDbCircle
 62
2
  6
CONTINUOUS
 10
13.4883447827
 20
2.5184303265
 40
0.0024749995
100
AcDbArc
 50
179.9999571957
 51
270.0000428043
  0
LINE
  5
24F
100
AcDbEntity
  8
0
100
AcDbLine
 62
2
  6
CONTINUOUS
 10
13.4883447845
 20
2.5159553269
 11
13.5130037982
 21
2.5159553269
  0
ARC
  5
250
100
AcDbEntity
  8
0
100
AcDbCircle
 62
2
  6
CONTINUOUS
 10
13.5130038
 20
2.5134803274
 40
0.0024749995
100
AcDbArc
 50
359.9999571957
 51
90.0000428043
  0
LINE
  5
251
100
AcDbEntity
  8
0
100
AcDbLine
 62
2
  6
CONTINUOUS
 10
13.5154787995
 20
2.5134803256
 11
13.5154787995
 21
2.4937023146
  0
ARC
  5
252
100
AcDbEntity
  8
0
100
AcDbCircle
 62
2
  6
CONTINUOUS
 10
13.5130038
 20
2.4937023128
 40
0.0024749995
100
AcDbArc
 50
269.9999571957
 51
0.0000428043
  0
LINE
  5
253
100
AcDbEntity
  8
0
100
AcDbLine
 62
2
  6
CONTINUOUS
 10
13.5130037982
 20
2.4912273132
 11
13.3994327352
 21
2.4912273132
  0
ARC
  5
254
100
AcDbEntity
  8
0
100
AcDbCircle
 62
2
  6
CONTINUOUS
 10
13.3994327333
 20
2.4937023128
 40
0.0024749995
100
AcDbArc
 50
179.9999571957
 51
270.0000428043
  0
LINE
  5
255
100
AcDbEntity
  8
0
100
AcDbLine
 62
2
  6
CONTINUOUS
 10
13.3969577338
 20
2.4937023146
 11
13.3969577338
 21
2.5135023256
  0
ARC
  5
256
100
AcDbEntity
  8
0
100
AcDbCircle
 62
2
  6
CONTINUOUS
 10
13.3994327333
 20
2.5135023274
 40
0.0024749995
100
AcDbArc
 50
89.9999571957
 51
180.0000428043
  0
LINE
  5
257
100
AcDbEntity
  8
0
100
AcDbLine
 62
2
  6
CONTINUOUS
 10
13.3994327352
 20
2.515977327
 11
13.4221787478
 21
2.515977327
  0
ARC
  5
258
100
AcDbEntity
  8
0
100
AcDbCircle
 62
2
  6
CONTINUOUS
 10
13.4221787497
 20
2.5184523265
 40
0.0024749995
100
AcDbArc
 50
269.9999571957
 51
0.0000428042
  0
LINE
  5
259
100
AcDbEntity
  8
0
100
AcDbLine
 62
2
  6
CONTINUOUS
 10
13.4246537492
 20
2.5184523283
 11
13.4246537492
 21
2.564807354
  0
ARC
  5
25A
100
AcDbEntity
  8
0
100
AcDbCircle
 62
2
  6
CONTINUOUS
 10
13.4221787497
 20
2.5648073559
 40
0.0024749995
100
AcDbArc
 50
359.9999571957
 51
90.0000428043
  0
LINE
  5
25B
100
AcDbEntity
  8
0
100
AcDbLine
 62
2
  6
CONTINUOUS
 10
13.4221787478
 20
2.5672823554
 11
13.3994327352
 21
2.5672823554
  0
ARC
  5
25C
100
AcDbEntity
  8
0
100
AcDbCircle
 62
2
  6
CONTINUOUS
 10
13.3994327333
 20
2.5697573549
 40
0.0024749995
100
AcDbArc
 50
179.9999571957
 51
270.0000428043
  0
LINE
  5
25D
100
AcDbEntity
  8
0
100
AcDbLine
 62
2
  6
CONTINUOUS
 10
13.3969577338
 20
2.5697573568
 11
13.3969577338
 21
2.5895573678
  0
ARC
  5
25E
100
AcDbEntity
  8
0
100
AcDbCircle
 62
2
  6
CONTINUOUS
 10
13.3994327333
 20
2.5895573696
 40
0.0024749995
100
AcDbArc
 50
89.9999571957
 51
180.0000428043
  0
LINE
  5
25F
100
AcDbEntity
  8
0
100
AcDbLine
 62
2
  6
CONTINUOUS
 10
13.3994327352
 20
2.5920323691
 11
13.5490138181
 21
2.5920323691
  0
ARC
  5
260
100
AcDbEntity
  8
0
100
AcDbCircle
 62
2
  6
CONTINUOUS
 10
13.5463505148
 20
2.4094934586
 40
0.1825583387
100
AcDbArc
 50
79.8618509324
 51
89.1640948679
  0
ARC
  5
261
100
AcDbEntity
  8
0
100
AcDbCircle
 62
2
  6
CONTINUOUS
 10
13.5726548052
 20
2.5503169747
 40
0.039319019
100
AcDbArc
 50
59.1202086415
 51
81.4730239328
  0
ARC
  5
262
100
AcDbEntity
  8
0
100
AcDbCircle
 62
2
  6
CONTINUOUS
 10
13.5783142014
 20
2.5566516438
 40
0.0310192946
100
AcDbArc
 50
34.7540871
 51
62.0879016178
  0
ARC
  5
263
100
AcDbEntity
  8
0
100
AcDbCircle
 62
2
  6
CONTINUOUS
 10
13.5900029525
 20
2.565201245
 40
0.0165459396
100
AcDbArc
 50
1.548452892
 51
33.5033152417
  0
ARC
  5
264
100
AcDbEntity
  8
0
100
AcDbCircle
 62
2
  6
CONTINUOUS
 10
13.5932995477
 20
2.5653696972
 40
0.0132462337
100
AcDbArc
 50
331.1510006998
 51
1.205404301
  0
ARC
  5
265
100
AcDbEntity
  8
0
100
AcDbCircle
 62
2
  6
CONTINUOUS
 10
13.5822888914
 20
2.5720482849
 40
0.0261183659
100
AcDbArc
 50
305.6373831893
 51
329.9727629745
  0
ARC
  5
266
100
AcDbEntity
  8
0
100
AcDbCircle
 62
2
  6
CONTINUOUS
 10
13.5519569538
 20
2.6152551345
 40
0.0789082104
100
AcDbArc
 50
292.906155071
 51
305.2574666259
  0
ARC
  5
267
100
AcDbEntity
  8
0
100
AcDbCircle
 62
2
  6
CONTINUOUS
 10
13.5282557878
 20
2.4386010294
 40
0.117346916
100
AcDbArc
 50
58.614769177
 51
62.3737227606
  0
ARC
  5
268
100
AcDbEntity
  8
0
100
AcDbCircle
 62
2
  6
CONTINUOUS
 10
13.5761387404
 20
2.5167282896
 40
0.0257145923
100
AcDbArc
 50
39.3804255939
 51
59.0361096173
  0
ARC
  5
269
100
AcDbEntity
  8
0
100
AcDbCircle
 62
2
  6
CONTINUOUS
 10
13.5750183849
 20
2.5166552064
 40
0.0266349791
100
AcDbArc
 50
20.3630922153
 51
37.9727053099
  0
ARC
  5
26A
100
AcDbEntity
  8
0
100
AcDbCircle
 62
2
  6
CONTINUOUS
 10
13.5571178432
 20
2.509473798
 40
0.0459185159
100
AcDbArc
 50
15.6740290068
 51
20.9917271228
  0
ARC
  5
26B
100
AcDbEntity
  8
0
100
AcDbCircle
 62
2
  6
CONTINUOUS
 10
13.6156881783
 20
2.525116781
 40
0.0147197649
100
AcDbArc
 50
192.7054516565
 51
206.0594861022
  0
ARC
  5
26C
100
AcDbEntity
  8
0
100
AcDbCircle
 62
2
  6
CONTINUOUS
 10
13.6071938412
 20
2.5209082945
 40
0.0052403997
100
AcDbArc
 50
205.5232099488
 51
227.5054868079
  0
ARC
  5
26D
100
AcDbEntity
  8
0
100
AcDbCircle
 62
2
  6
CONTINUOUS
 10
13.6054655419
 20
2.5190929218
 40
0.0027347709
100
AcDbArc
 50
228.5117626737
 51
266.1485845754
  0
LINE
  5
26E
100
AcDbEntity
  8
0
100
AcDbLine
 62
2
  6
CONTINUOUS
 10
13.6052818493
 20
2.5163643272
 11
13.60639085
 21
2.5163643272
  0
ARC
  5
26F
100
AcDbEntity
  8
0
100
AcDbCircle
 62
2
  6
CONTINUOUS
 10
13.6063292954
 20
2.5296129864
 40
0.0132488022
100
AcDbArc
 50
270.266200055
 51
281.2404888597
  0
ARC
  5
270
100
AcDbEntity
  8
0
100
AcDbCircle
 62
2
  6
CONTINUOUS
 10
13.6075235364
 20
2.5238762928
 40
0.0073895522
100
AcDbArc
 50
280.8288201977
 51
305.0837508495
  0
ARC
  5
271
100
AcDbEntity
  8
0
100
AcDbCircle
 62
2
  6
CONTINUOUS
 10
13.607924718
 20
2.5230254464
 40
0.0064647042
100
AcDbArc
 50
306.5086174083
 51
340.2162360092
  0
ARC
  5
272
100
AcDbEntity
  8
0
100
AcDbCircle
 62
2
  6
CONTINUOUS
 10
13.6027235414
 20
2.524769508
 40
0.0119498009
100
AcDbArc
 50
340.7883861657
 51
1.1691452593
  0
LINE
  5
273
100
AcDbEntity
  8
0
100
AcDbLine
 62
2
  6
CONTINUOUS
 10
13.6146708546
 20
2.525013332
 11
13.6146708546
 21
2.5276393334
  0
ARC
  5
274
100
AcDbEntity
  8
0
100
AcDbCircle
 62
2
  6
CONTINUOUS
 10
13.6171458541
 20
2.5276393353
 40
0.0024749995
100
AcDbArc
 50
89.9999571957
 51
180.0000428043
  0
LINE
  5
275
100
AcDbEntity
  8
0
100
AcDbLine
 62
2
  6
CONTINUOUS
 10
13.6171458559
 20
2.5301143348
 11
13.6292558626
 21
2.5301143348
  0
ARC
  5
276
100
AcDbEntity
  8
0
100
AcDbCircle
 62
2
  6
CONTINUOUS
 10
13.6292558645
 20
2.5276393353
 40
0.0024749995
100
AcDbArc
 50
359.9999571957
 51
90.0000428043
  0
LINE
  5
277
100
AcDbEntity
  8
0
100
AcDbLine
 62
2
  6
CONTINUOUS
 10
13.631730864
 20
2.5276393334
 11
13.631730864
 21
2.516087327
  0
ARC
  5
278
100
AcDbEntity
  8
0
100
AcDbCircle
 62
2
  6
CONTINUOUS
 10
13.6141751675
 20
2.5161916447
 40
0.0175560065
100
AcDbArc
 50
332.2279060967
 51
359.6595469939
  0
ARC
  5
279
100
AcDbEntity
  8
0
100
AcDbCircle
 62
2
  6
CONTINUOUS
 10
13.6048681567
 20
2.5210861501
 40
0.0280715479
100
AcDbArc
 50
308.5071794988
 51
332.2400656899
  0
ARC
  5
27A
100
AcDbEntity
  8
0
100
AcDbCircle
 62
2
  6
CONTINUOUS
 10
13.5978759713
 20
2.5286873679
 40
0.0383802683
100
AcDbArc
 50
288.7656836787
 51
309.6104317088
  0
ARC
  5
27B
100
AcDbEntity
  8
0
100
AcDbCircle
 62
2
  6
CONTINUOUS
 10
13.6036139387
 20
2.5111006186
 40
0.0198837666
100
AcDbArc
 50
271.8586572978
 51
289.4131338543
  0
LINE
  5
27C
100
AcDbEntity
  8
0
100
AcDbLine
 62
2
  6
CONTINUOUS
 10
13.6042588488
 20
2.4912273132
 11
13.5568948225
 21
2.4912273132
  0
ARC
  5
27D
100
AcDbEntity
  8
0
100
AcDbCircle
 62
2
  6
CONTINUOUS
 10
13.5577001432
 20
2.5085494649
 40
0.0173408616
100
AcDbArc
 50
232.4713476722
 51
267.338189944
  0
ARC
  5
27E
100
AcDbEntity
  8
0
100
AcDbCircle
 62
2
  6
CONTINUOUS
 10
13.5607987082
 20
2.5143997688
 40
0.0238935861
100
AcDbArc
 50
209.8247607259
 51
235.1255079367
  0
ARC
  5
27F
100
AcDbEntity
  8
0
100
AcDbCircle
 62
2
  6
CONTINUOUS
 10
13.5295131508
 20
2.5629115009
 40
0.0110815393
100
AcDbArc
 50
306.758405961
 51
320.4502234234
  0
ARC
  5
280
100
AcDbEntity
  8
0
100
AcDbCircle
 62
2
  6
CONTINUOUS
 10
13.5238839599
 20
2.5706523294
 40
0.0206523367
100
AcDbArc
 50
289.6883413472
 51
306.4184925496
  0
ARC
  5
281
100
AcDbEntity
  8
0
100
AcDbCircle
 62
2
  6
CONTINUOUS
 10
13.5219564542
 20
2.5750459767
 40
0.0254407115
100
AcDbArc
 50
270.7327484175
 51
290.441894219
  0
LINE
  5
282
100
AcDbEntity
  8
0
100
AcDbLine
 62
2
  6
CONTINUOUS
 10
13.5222818033
 20
2.5496073456
 11
13.4883447845
 21
2.5496073456
  0
ARC
  5
283
100
AcDbEntity
  8
0
100
AcDbCircle
 62
2
  6
CONTINUOUS
 10
13.4883447827
 20
2.5520823451
 40
0.0024749995
100
AcDbArc
 50
179.9999571957
 51
270.0000428043
  0
LINE
  5
284
100
AcDbEntity
  8
0
100
AcDbLine
 62
2
  6
CONTINUOUS
 10
13.4858697831
 20
2.552082347
 11
13.4858697831
 21
2.564807354
  0
ARC
  5
285
100
AcDbEntity
  8
0
100
AcDbCircle
 62
2
  6
CONTINUOUS
 10
13.4883447827
 20
2.5648073559
 40
0.0024749995
100
AcDbArc
 50
89.9999571957
 51
180.0000428043
  0
LINE
  5
286
100
AcDbEntity
  8
0
100
AcDbLine
 62
2
  6
CONTINUOUS
 10
13.4883447845
 20
2.5672823554
 11
13.5251458049
 21
2.5672823554
  0
ARC
  5
287
100
AcDbEntity
  8
0
100
AcDbCircle
 62
2
  6
CONTINUOUS
 10
13.5236009174
 20
2.5388278764
 40
0.0284963867
100
AcDbArc
 50
70.3834917948
 51
86.8922743861
  0
ARC
  5
288
100
AcDbEntity
  8
0
100
AcDbCircle
 62
2
  6
CONTINUOUS
 10
13.5284605274
 20
2.5518696094
 40
0.0145814632
100
AcDbArc
 50
54.6746025112
 51
71.1660573124
  0
ARC
  5
289
100
AcDbEntity
  8
0
100
AcDbCircle
 62
2
  6
CONTINUOUS
 10
13.5335900184
 20
2.5587235346
 40
0.0060275915
100
AcDbArc
 50
20.9055592135
 51
56.7851676243
  0
ARC
  5
28A
100
AcDbEntity
  8
0
100
AcDbCircle
 62
2
  6
CONTINUOUS
 10
13.5348905773
 20
2.5593838168
 40
0.0045795888
100
AcDbArc
 50
355.6235353944
 51
18.9942678268
  0
ARC
  5
28B
100
AcDbEntity
  8
0
100
AcDbCircle
 62
2
  6
CONTINUOUS
 10
13.533683767
 20
2.559677593
 40
0.0058087709
100
AcDbArc
 50
318.8515287446
 51
353.6422345323
  0
LINE
  5
28C
100
AcDbEntity
  8
0
100
AcDbLine
 62
2
  6
CONTINUOUS
 10
12.672340332
 20
2.5920323691
 11
12.7727983877
 21
2.5920323691
  0
ARC
  5
28D
100
AcDbEntity
  8
0
100
AcDbCircle
 62
2
  6
CONTINUOUS
 10
12.7727985224
 20
2.5895582013
 40
0.0024741678
100
AcDbArc
 50
46.3477981899
 51
90.0031206038
  0
LINE
  5
28E
100
AcDbEntity
  8
0
100
AcDbLine
 62
2
  6
CONTINUOUS
 10
12.7745063886
 20
2.5913483688
 11
12.8345394219
 21
2.534068337
  0
ARC
  5
28F
100
AcDbEntity
  8
0
100
AcDbCircle
 62
2
  6
CONTINUOUS
 10
12.8362481229
 20
2.5358592748
 40
0.0024753014
100
AcDbArc
 50
226.3461263059
 51
0.0014637321
  0
LINE
  5
290
100
AcDbEntity
  8
0
100
AcDbLine
 62
2
  6
CONTINUOUS
 10
12.8387234242
 20
2.535859338
 11
12.8387234242
 21
2.564807354
  0
ARC
  5
291
100
AcDbEntity
  8
0
100
AcDbCircle
 62
2
  6
CONTINUOUS
 10
12.8362484247
 20
2.5648073559
 40
0.0024749995
100
AcDbArc
 50
359.9999571957
 51
90.0000428043
  0
LINE
  5
292
100
AcDbEntity
  8
0
100
AcDbLine
 62
2
  6
CONTINUOUS
 10
12.8362484229
 20
2.5672823554
 11
12.8174724125
 21
2.5672823554
  0
ARC
  5
293
100
AcDbEntity
  8
0
100
AcDbCircle
 62
2
  6
CONTINUOUS
 10
12.8174724106
 20
2.5697573549
 40
0.0024749995
100
AcDbArc
 50
179.9999571957
 51
270.0000428043
  0
LINE
  5
294
100
AcDbEntity
  8
0
100
AcDbLine
 62
2
  6
CONTINUOUS
 10
12.8149974111
 20
2.5697573568
 11
12.8149974111
 21
2.5895573678
  0
ARC
  5
295
100
AcDbEntity
  8
0
100
AcDbCircle
 62
2
  6
CONTINUOUS
 10
12.8174724106
 20
2.5895573696
 40
0.0024749995
100
AcDbArc
 50
89.9999571957
 51
180.0000428043
  0
LINE
  5
296
100
AcDbEntity
  8
0
100
AcDbLine
 62
2
  6
CONTINUOUS
 10
12.8174724125
 20
2.5920323691
 11
12.8914734535
 21
2.5920323691
  0
ARC
  5
297
100
AcDbEntity
  8
0
100
AcDbCircle
 62
2
  6
CONTINUOUS
 10
12.8914734553
 20
2.5895573696
 40
0.0024749995
100
AcDbArc
 50
359.9999571957
 51
90.0000428043
  0
LINE
  5
298
100
AcDbEntity
  8
0
100
AcDbLine
 62
2
  6
CONTINUOUS
 10
12.8939484549
 20
2.5895573678
 11
12.8939484549
 21
2.5697573568
  0
ARC
  5
299
100
AcDbEntity
  8
0
100
AcDbCircle
 62
2
  6
CONTINUOUS
 10
12.8914734553
 20
2.5697573549
 40
0.0024749995
100
AcDbArc
 50
269.9999571957
 51
0.0000428043
  0
LINE
  5
29A
100
AcDbEntity
  8
0
100
AcDbLine
 62
2
  6
CONTINUOUS
 10
12.8914734535
 20
2.5672823554
 11
12.8735404436
 21
2.5672823554
  0
ARC
  5
29B
100
AcDbEntity
  8
0
100
AcDbCircle
 62
2
  6
CONTINUOUS
 10
12.8735404417
 20
2.5648073559
 40
0.0024749995
100
AcDbArc
 50
89.9999571957
 51
180.0000428043
  0
LINE
  5
29C
100
AcDbEntity
  8
0
100
AcDbLine
 62
2
  6
CONTINUOUS
 10
12.8710654422
 20
2.564807354
 11
12.8710654422
 21
2.4937023146
  0
ARC
  5
29D
100
AcDbEntity
  8
0
100
AcDbCircle
 62
2
  6
CONTINUOUS
 10
12.8685904427
 20
2.4937023128
 40
0.0024749995
100
AcDbArc
 50
269.9999571957
 51
0.0000428043
  0
LINE
  5
29E
100
AcDbEntity
  8
0
100
AcDbLine
 62
2
  6
CONTINUOUS
 10
12.8685904408
 20
2.4912273132
 11
12.7943853997
 21
2.4912273132
  0
ARC
  5
29F
100
AcDbEntity
  8
0
100
AcDbCircle
 62
2
  6
CONTINUOUS
 10
12.7943847649
 20
2.4937027294
 40
0.0024754162
100
AcDbArc
 50
226.3593695813
 51
270.0146919953
  0
LINE
  5
2A0
100
AcDbEntity
  8
0
100
AcDbLine
 62
2
  6
CONTINUOUS
 10
12.7926763987
 20
2.4919113136
 11
12.7293963636
 21
2.5522893471
  0
ARC
  5
2A1
100
AcDbEntity
  8
0
100
AcDbCircle
 62
2
  6
CONTINUOUS
 10
12.7276876627
 20
2.5504984093
 40
0.0024753014
100
AcDbArc
 50
46.3461263059
 51
180.0014637321
  0
LINE
  5
2A2
100
AcDbEntity
  8
0
100
AcDbLine
 62
2
  6
CONTINUOUS
 10
12.7252123613
 20
2.5504983461
 11
12.7252123613
 21
2.5184523283
  0
ARC
  5
2A3
100
AcDbEntity
  8
0
100
AcDbCircle
 62
2
  6
CONTINUOUS
 10
12.7276873608
 20
2.5184523265
 40
0.0024749995
100
AcDbArc
 50
179.9999571957
 51
270.0000428043
  0
LINE
  5
2A4
100
AcDbEntity
  8
0
100
AcDbLine
 62
2
  6
CONTINUOUS
 10
12.7276873627
 20
2.515977327
 11
12.7480043739
 21
2.515977327
  0
ARC
  5
2A5
100
AcDbEntity
  8
0
100
AcDbCircle
 62
2
  6
CONTINUOUS
 10
12.7480043758
 20
2.5135023274
 40
0.0024749995
100
AcDbArc
 50
359.9999571957
 51
90.0000428043
  0
LINE
  5
2A6
100
AcDbEntity
  8
0
100
AcDbLine
 62
2
  6
CONTINUOUS
 10
12.7504793753
 20
2.5135023256
 11
12.7504793753
 21
2.4937023146
  0
ARC
  5
2A7
100
AcDbEntity
  8
0
100
AcDbCircle
 62
2
  6
CONTINUOUS
 10
12.7480043758
 20
2.4937023128
 40
0.0024749995
100
AcDbArc
 50
269.9999571957
 51
0.0000428043
  0
LINE
  5
2A8
100
AcDbEntity
  8
0
100
AcDbLine
 62
2
  6
CONTINUOUS
 10
12.7480043739
 20
2.4912273132
 11
12.672340332
 21
2.4912273132
  0
ARC
  5
2A9
100
AcDbEntity
  8
0
100
AcDbCircle
 62
2
  6
CONTINUOUS
 10
12.6723403301
 20
2.4937023128
 40
0.0024749995
100
AcDbArc
 50
179.9999571957
 51
270.0000428043
  0
LINE
  5
2AA
100
AcDbEntity
  8
0
100
AcDbLine
 62
2
  6
CONTINUOUS
 10
12.6698653306
 20
2.4937023146
 11
12.6698653306
 21
2.5135023256
  0
ARC
  5
2AB
100
AcDbEntity
  8
0
100
AcDbCircle
 62
2
  6
CONTINUOUS
 10
12.6723403301
 20
2.5135023274
 40
0.0024749995
100
AcDbArc
 50
89.9999571957
 51
180.0000428043
  0
LINE
  5
2AC
100
AcDbEntity
  8
0
100
AcDbLine
 62
2
  6
CONTINUOUS
 10
12.672340332
 20
2.515977327
 11
12.6909873423
 21
2.515977327
  0
ARC
  5
2AD
100
AcDbEntity
  8
0
100
AcDbCircle
 62
2
  6
CONTINUOUS
 10
12.6909873442
 20
2.5184523265
 40
0.0024749995
100
AcDbArc
 50
269.9999571957
 51
0.0000428043
  0
LINE
  5
2AE
100
AcDbEntity
  8
0
100
AcDbLine
 62
2
  6
CONTINUOUS
 10
12.6934623437
 20
2.5184523283
 11
12.6934623437
 21
2.564807354
  0
ARC
  5
2AF
100
AcDbEntity
  8
0
100
AcDbCircle
 62
2
  6
CONTINUOUS
 10
12.6909873442
 20
2.5648073559
 40
0.0024749995
100
AcDbArc
 50
359.9999571957
 51
90.0000428043
  0
LINE
  5
2B0
100
AcDbEntity
  8
0
100
AcDbLine
 62
2
  6
CONTINUOUS
 10
12.6909873423
 20
2.5672823554
 11
12.672340332
 21
2.5672823554
  0
ARC
  5
2B1
100
AcDbEntity
  8
0
100
AcDbCircle
 62
2
  6
CONTINUOUS
 10
12.6723403301
 20
2.5697573549
 40
0.0024749995
100
AcDbArc
 50
179.9999571957
 51
270.0000428043
  0
LINE
  5
2B2
100
AcDbEntity
  8
0
100
AcDbLine
 62
2
  6
CONTINUOUS
 10
12.6698653306
 20
2.5697573568
 11
12.6698653306
 21
2.5895573678
  0
ARC
  5
2B3
100
AcDbEntity
  8
0
100
AcDbCircle
 62
2
  6
CONTINUOUS
 10
12.6723403301
 20
2.5895573696
 40
0.0024749995
100
AcDbArc
 50
89.9999571957
 51
180.0000428043
  0
LINE
  5
2B4
100
AcDbEntity
  8
0
100
AcDbLine
 62
2
  6
CONTINUOUS
 10
12.5246402501
 20
2.5655893545
 11
12.5175232461
 21
2.5543723483
  0
ARC
  5
2B5
100
AcDbEntity
  8
0
100
AcDbCircle
 62
2
  6
CONTINUOUS
 10
12.519613138
 20
2.5530463862
 40
0.0024750401
100
AcDbArc
 50
147.6063258012
 51
270.0025305754
  0
LINE
  5
2B6
100
AcDbEntity
  8
0
100
AcDbLine
 62
2
  6
CONTINUOUS
 10
12.5196132473
 20
2.5505713461
 11
12.5401702587
 21
2.5505713461
  0
ARC
  5
2B7
100
AcDbEntity
  8
0
100
AcDbCircle
 62
2
  6
CONTINUOUS
 10
12.5401702375
 20
2.5530465533
 40
0.0024752071
100
AcDbArc
 50
270.0004896793
 51
32.9089806818
  0
LINE
  5
2B8
100
AcDbEntity
  8
0
100
AcDbLine
 62
2
  6
CONTINUOUS
 10
12.5422482598
 20
2.5543913483
 11
12.5349892558
 21
2.5656073545
  0
ARC
  5
2B9
100
AcDbEntity
  8
0
100
AcDbCircle
 62
2
  6
CONTINUOUS
 10
12.532910715
 20
2.564262895
 40
0.0024754602
100
AcDbArc
 50
32.8959418573
 51
89.9875097202
  0
LINE
  5
2BA
100
AcDbEntity
  8
0
100
AcDbLine
 62
2
  6
CONTINUOUS
 10
12.5329112547
 20
2.5667383551
 11
12.5267302512
 21
2.5667383551
  0
ARC
  5
2BB
100
AcDbEntity
  8
0
100
AcDbCircle
 62
2
  6
CONTINUOUS
 10
12.5267301809
 20
2.5642631548
 40
0.0024752003
100
AcDbArc
 50
89.998372645
 51
147.602165307
  0
LINE
  5
2BC
100
AcDbEntity
  8
0
100
AcDbLine
 62
2
  6
CONTINUOUS
 10
12.548053263
 20
2.5284903339
 11
12.5536792662
 21
2.5197973291
  0
ARC
  5
2BD
100
AcDbEntity
  8
0
100
AcDbCircle
 62
2
  6
CONTINUOUS
 10
12.5516012439
 20
2.5184525341
 40
0.0024752071
100
AcDbArc
 50
270.0004896794
 51
32.9089806818
  0
LINE
  5
2BE
100
AcDbEntity
  8
0
100
AcDbLine
 62
2
  6
CONTINUOUS
 10
12.551601265
 20
2.515977327
 11
12.537150257
 21
2.515977327
  0
ARC
  5
2BF
100
AcDbEntity
  8
0
100
AcDbCircle
 62
2
  6
CONTINUOUS
 10
12.5371502552
 20
2.5135023274
 40
0.0024749995
100
AcDbArc
 50
89.9999571957
 51
180.0000428043
  0
LINE
  5
2C0
100
AcDbEntity
  8
0
100
AcDbLine
 62
2
  6
CONTINUOUS
 10
12.5346752556
 20
2.5135023256
 11
12.5346752556
 21
2.4937023146
  0
ARC
  5
2C1
100
AcDbEntity
  8
0
100
AcDbCircle
 62
2
  6
CONTINUOUS
 10
12.5371502552
 20
2.4937023128
 40
0.0024749995
100
AcDbArc
 50
179.9999571957
 51
270.0000428043
  0
LINE
  5
2C2
100
AcDbEntity
  8
0
100
AcDbLine
 62
2
  6
CONTINUOUS
 10
12.537150257
 20
2.4912273132
 11
12.6424313154
 21
2.4912273132
  0
ARC
  5
2C3
100
AcDbEntity
  8
0
100
AcDbCircle
 62
2
  6
CONTINUOUS
 10
12.6424313172
 20
2.4937023128
 40
0.0024749995
100
AcDbArc
 50
269.9999571957
 51
0.0000428043
  0
LINE
  5
2C4
100
AcDbEntity
  8
0
100
AcDbLine
 62
2
  6
CONTINUOUS
 10
12.6449063168
 20
2.4937023146
 11
12.6449063168
 21
2.5135023256
  0
ARC
  5
2C5
100
AcDbEntity
  8
0
100
AcDbCircle
 62
2
  6
CONTINUOUS
 10
12.6424313172
 20
2.5135023274
 40
0.0024749995
100
AcDbArc
 50
359.9999571957
 51
90.0000428043
  0
LINE
  5
2C6
100
AcDbEntity
  8
0
100
AcDbLine
 62
2
  6
CONTINUOUS
 10
12.6424313154
 20
2.515977327
 11
12.6224153043
 21
2.515977327
  0
ARC
  5
2C7
100
AcDbEntity
  8
0
100
AcDbCircle
 62
2
  6
CONTINUOUS
 10
12.6224154248
 20
2.518451368
 40
0.002474041
100
AcDbArc
 50
212.9056413127
 51
269.9972091756
  0
LINE
  5
2C8
100
AcDbEntity
  8
0
100
AcDbLine
 62
2
  6
CONTINUOUS
 10
12.6203383031
 20
2.5171073276
 11
12.5725822767
 21
2.5909023685
  0
ARC
  5
2C9
100
AcDbEntity
  8
0
100
AcDbCircle
 62
2
  6
CONTINUOUS
 10
12.570504655
 20
2.589557409
 40
0.0024749602
100
AcDbArc
 50
32.9172174468
 51
90.0087853097
  0
LINE
  5
2CA
100
AcDbEntity
  8
0
100
AcDbLine
 62
2
  6
CONTINUOUS
 10
12.5705042755
 20
2.5920323691
 11
12.5133292438
 21
2.5920323691
  0
ARC
  5
2CB
100
AcDbEntity
  8
0
100
AcDbCircle
 62
2
  6
CONTINUOUS
 10
12.5133291735
 20
2.5895571688
 40
0.0024752003
100
AcDbArc
 50
89.9983726451
 51
147.602165307
  0
LINE
  5
2CC
100
AcDbEntity
  8
0
100
AcDbLine
 62
2
  6
CONTINUOUS
 10
12.5112392426
 20
2.5908833685
 11
12.4644392167
 21
2.5171263276
  0
ARC
  5
2CD
100
AcDbEntity
  8
0
100
AcDbCircle
 62
2
  6
CONTINUOUS
 10
12.4623492858
 20
2.5184525273
 40
0.0024752003
100
AcDbArc
 50
269.9983726451
 51
327.602165307
  0
LINE
  5
2CE
100
AcDbEntity
  8
0
100
AcDbLine
 62
2
  6
CONTINUOUS
 10
12.4623492155
 20
2.515977327
 11
12.4394882028
 21
2.515977327
  0
ARC
  5
2CF
100
AcDbEntity
  8
0
100
AcDbCircle
 62
2
  6
CONTINUOUS
 10
12.439488201
 20
2.5135023274
 40
0.0024749995
100
AcDbArc
 50
89.9999571957
 51
180.0000428043
  0
LINE
  5
2D0
100
AcDbEntity
  8
0
100
AcDbLine
 62
2
  6
CONTINUOUS
 10
12.4370132015
 20
2.5135023256
 11
12.4370132015
 21
2.4937023146
  0
ARC
  5
2D1
100
AcDbEntity
  8
0
100
AcDbCircle
 62
2
  6
CONTINUOUS
 10
12.439488201
 20
2.4937023128
 40
0.0024749995
100
AcDbArc
 50
179.9999571957
 51
270.0000428043
  0
LINE
  5
2D2
100
AcDbEntity
  8
0
100
AcDbLine
 62
2
  6
CONTINUOUS
 10
12.4394882028
 20
2.4912273132
 11
12.5168642458
 21
2.4912273132
  0
ARC
  5
2D3
100
AcDbEntity
  8
0
100
AcDbCircle
 62
2
  6
CONTINUOUS
 10
12.5168642476
 20
2.4937023128
 40
0.0024749995
100
AcDbArc
 50
269.9999571957
 51
0.0000428043
  0
LINE
  5
2D4
100
AcDbEntity
  8
0
100
AcDbLine
 62
2
  6
CONTINUOUS
 10
12.5193392471
 20
2.4937023146
 11
12.5193392471
 21
2.5135023256
  0
ARC
  5
2D5
100
AcDbEntity
  8
0
100
AcDbCircle
 62
2
  6
CONTINUOUS
 10
12.5168642476
 20
2.5135023274
 40
0.0024749995
100
AcDbArc
 50
359.9999571957
 51
90.0000428043
  0
LINE
  5
2D6
100
AcDbEntity
  8
0
100
AcDbLine
 62
2
  6
CONTINUOUS
 10
12.5168642458
 20
2.515977327
 11
12.5055812395
 21
2.515977327
  0
ARC
  5
2D7
100
AcDbEntity
  8
0
100
AcDbCircle
 62
2
  6
CONTINUOUS
 10
12.5055811302
 20
2.518452367
 40
0.0024750401
100
AcDbArc
 50
147.6063258011
 51
270.0025305754
  0
LINE
  5
2D8
100
AcDbEntity
  8
0
100
AcDbLine
 62
2
  6
CONTINUOUS
 10
12.5034912383
 20
2.5197783291
 11
12.5090072414
 21
2.5284723339
  0
ARC
  5
2D9
100
AcDbEntity
  8
0
100
AcDbCircle
 62
2
  6
CONTINUOUS
 10
12.5110971723
 20
2.5271461342
 40
0.0024752003
100
AcDbArc
 50
89.998372645
 51
147.602165307
  0
LINE
  5
2DA
100
AcDbEntity
  8
0
100
AcDbLine
 62
2
  6
CONTINUOUS
 10
12.5110972426
 20
2.5296213345
 11
12.5459752619
 21
2.5296213345
  0
ARC
  5
2DB
100
AcDbEntity
  8
0
100
AcDbCircle
 62
2
  6
CONTINUOUS
 10
12.5459747223
 20
2.5271458744
 40
0.0024754602
100
AcDbArc
 50
32.8959418573
 51
89.9875097202
  0
LINE
  5
2DC
100
AcDbEntity
  8
0
100
AcDbLine
 62
2
  6
CONTINUOUS
 10
12.9205934696
 20
2.5920323691
 11
13.0210515254
 21
2.5920323691
  0
ARC
  5
2DD
100
AcDbEntity
  8
0
100
AcDbCircle
 62
2
  6
CONTINUOUS
 10
13.0210516601
 20
2.5895582013
 40
0.0024741678
100
AcDbArc
 50
46.3477981899
 51
90.0031206038
  0
LINE
  5
2DE
100
AcDbEntity
  8
0
100
AcDbLine
 62
2
  6
CONTINUOUS
 10
13.0227595263
 20
2.5913483688
 11
13.0827925596
 21
2.534068337
  0
ARC
  5
2DF
100
AcDbEntity
  8
0
100
AcDbCircle
 62
2
  6
CONTINUOUS
 10
13.0845012605
 20
2.5358592748
 40
0.0024753014
100
AcDbArc
 50
226.3461263059
 51
0.0014637321
  0
LINE
  5
2E0
100
AcDbEntity
  8
0
100
AcDbLine
 62
2
  6
CONTINUOUS
 10
13.0869765619
 20
2.535859338
 11
13.0869765619
 21
2.564807354
  0
ARC
  5
2E1
100
AcDbEntity
  8
0
100
AcDbCircle
 62
2
  6
CONTINUOUS
 10
13.0845015624
 20
2.5648073559
 40
0.0024749995
100
AcDbArc
 50
359.9999571957
 51
90.0000428043
  0
LINE
  5
2E2
100
AcDbEntity
  8
0
100
AcDbLine
 62
2
  6
CONTINUOUS
 10
13.0845015605
 20
2.5672823554
 11
13.0657255501
 21
2.5672823554
  0
ARC
  5
2E3
100
AcDbEntity
  8
0
100
AcDbCircle
 62
2
  6
CONTINUOUS
 10
13.0657255483
 20
2.5697573549
 40
0.0024749995
100
AcDbArc
 50
179.9999571957
 51
270.0000428043
  0
LINE
  5
2E4
100
AcDbEntity
  8
0
100
AcDbLine
 62
2
  6
CONTINUOUS
 10
13.0632505488
 20
2.5697573568
 11
13.0632505488
 21
2.5895573678
  0
ARC
  5
2E5
100
AcDbEntity
  8
0
100
AcDbCircle
 62
2
  6
CONTINUOUS
 10
13.0657255483
 20
2.5895573696
 40
0.0024749995
100
AcDbArc
 50
89.9999571957
 51
180.0000428043
  0
LINE
  5
2E6
100
AcDbEntity
  8
0
100
AcDbLine
 62
2
  6
CONTINUOUS
 10
13.0657255501
 20
2.5920323691
 11
13.1397265912
 21
2.5920323691
  0
ARC
  5
2E7
100
AcDbEntity
  8
0
100
AcDbCircle
 62
2
  6
CONTINUOUS
 10
13.139726593
 20
2.5895573696
 40
0.0024749995
100
AcDbArc
 50
359.9999571957
 51
90.0000428043
  0
LINE
  5
2E8
100
AcDbEntity
  8
0
100
AcDbLine
 62
2
  6
CONTINUOUS
 10
13.1422015925
 20
2.5895573678
 11
13.1422015925
 21
2.5697573568
  0
ARC
  5
2E9
100
AcDbEntity
  8
0
100
AcDbCircle
 62
2
  6
CONTINUOUS
 10
13.139726593
 20
2.5697573549
 40
0.0024749995
100
AcDbArc
 50
269.9999571957
 51
0.0000428042
  0
LINE
  5
2EA
100
AcDbEntity
  8
0
100
AcDbLine
 62
2
  6
CONTINUOUS
 10
13.1397265912
 20
2.5672823554
 11
13.1217935812
 21
2.5672823554
  0
ARC
  5
2EB
100
AcDbEntity
  8
0
100
AcDbCircle
 62
2
  6
CONTINUOUS
 10
13.1217935794
 20
2.5648073559
 40
0.0024749995
100
AcDbArc
 50
89.9999571957
 51
180.0000428042
  0
LINE
  5
2EC
100
AcDbEntity
  8
0
100
AcDbLine
 62
2
  6
CONTINUOUS
 10
13.1193185799
 20
2.564807354
 11
13.1193185799
 21
2.4937023146
  0
ARC
  5
2ED
100
AcDbEntity
  8
0
100
AcDbCircle
 62
2
  6
CONTINUOUS
 10
13.1168435803
 20
2.4937023128
 40
0.0024749995
100
AcDbArc
 50
269.9999571957
 51
0.0000428043
  0
LINE
  5
2EE
100
AcDbEntity
  8
0
100
AcDbLine
 62
2
  6
CONTINUOUS
 10
13.1168435785
 20
2.4912273132
 11
13.0426375373
 21
2.4912273132
  0
ARC
  5
2EF
100
AcDbEntity
  8
0
100
AcDbCircle
 62
2
  6
CONTINUOUS
 10
13.0426374026
 20
2.493701481
 40
0.0024741678
100
AcDbArc
 50
226.3477981898
 51
270.0031206038
  0
LINE
  5
2F0
100
AcDbEntity
  8
0
100
AcDbLine
 62
2
  6
CONTINUOUS
 10
13.0409295364
 20
2.4919113136
 11
12.9776495013
 21
2.5522893471
  0
ARC
  5
2F1
100
AcDbEntity
  8
0
100
AcDbCircle
 62
2
  6
CONTINUOUS
 10
12.9759408003
 20
2.5504984093
 40
0.0024753014
100
AcDbArc
 50
46.3461263059
 51
180.0014637321
  0
LINE
  5
2F2
100
AcDbEntity
  8
0
100
AcDbLine
 62
2
  6
CONTINUOUS
 10
12.973465499
 20
2.5504983461
 11
12.973465499
 21
2.5184523283
  0
ARC
  5
2F3
100
AcDbEntity
  8
0
100
AcDbCircle
 62
2
  6
CONTINUOUS
 10
12.9759404985
 20
2.5184523265
 40
0.0024749995
100
AcDbArc
 50
179.9999571957
 51
270.0000428043
  0
LINE
  5
2F4
100
AcDbEntity
  8
0
100
AcDbLine
 62
2
  6
CONTINUOUS
 10
12.9759405003
 20
2.515977327
 11
12.9962575116
 21
2.515977327
  0
ARC
  5
2F5
100
AcDbEntity
  8
0
100
AcDbCircle
 62
2
  6
CONTINUOUS
 10
12.9962575135
 20
2.5135023274
 40
0.0024749995
100
AcDbArc
 50
359.9999571957
 51
90.0000428043
  0
LINE
  5
2F6
100
AcDbEntity
  8
0
100
AcDbLine
 62
2
  6
CONTINUOUS
 10
12.998732513
 20
2.5135023256
 11
12.998732513
 21
2.4937023146
  0
ARC
  5
2F7
100
AcDbEntity
  8
0
100
AcDbCircle
 62
2
  6
CONTINUOUS
 10
12.9962575135
 20
2.4937023128
 40
0.0024749995
100
AcDbArc
 50
269.9999571957
 51
0.0000428043
  0
LINE
  5
2F8
100
AcDbEntity
  8
0
100
AcDbLine
 62
2
  6
CONTINUOUS
 10
12.9962575116
 20
2.4912273132
 11
12.9205934696
 21
2.4912273132
  0
ARC
  5
2F9
100
AcDbEntity
  8
0
100
AcDbCircle
 62
2
  6
CONTINUOUS
 10
12.9205934678
 20
2.4937023128
 40
0.0024749995
100
AcDbArc
 50
179.9999571957
 51
270.0000428043
  0
LINE
  5
2FA
100
AcDbEntity
  8
0
100
AcDbLine
 62
2
  6
CONTINUOUS
 10
12.9181184683
 20
2.4937023146
 11
12.9181184683
 21
2.5135023256
  0
ARC
  5
2FB
100
AcDbEntity
  8
0
100
AcDbCircle
 62
2
  6
CONTINUOUS
 10
12.9205934678
 20
2.5135023274
 40
0.0024749995
100
AcDbArc
 50
89.9999571957
 51
180.0000428042
  0
LINE
  5
2FC
100
AcDbEntity
  8
0
100
AcDbLine
 62
2
  6
CONTINUOUS
 10
12.9205934696
 20
2.515977327
 11
12.93923948
 21
2.515977327
  0
ARC
  5
2FD
100
AcDbEntity
  8
0
100
AcDbCircle
 62
2
  6
CONTINUOUS
 10
12.9392394818
 20
2.5184523265
 40
0.0024749995
100
AcDbArc
 50
269.9999571957
 51
0.0000428043
  0
LINE
  5
2FE
100
AcDbEntity
  8
0
100
AcDbLine
 62
2
  6
CONTINUOUS
 10
12.9417144814
 20
2.5184523283
 11
12.9417144814
 21
2.564807354
  0
ARC
  5
2FF
100
AcDbEntity
  8
0
100
AcDbCircle
 62
2
  6
CONTINUOUS
 10
12.9392394818
 20
2.5648073559
 40
0.0024749995
100
AcDbArc
 50
359.9999571957
 51
90.0000428043
  0
LINE
  5
300
100
AcDbEntity
  8
0
100
AcDbLine
 62
2
  6
CONTINUOUS
 10
12.93923948
 20
2.5672823554
 11
12.9205934696
 21
2.5672823554
  0
ARC
  5
301
100
AcDbEntity
  8
0
100
AcDbCircle
 62
2
  6
CONTINUOUS
 10
12.9205934678
 20
2.5697573549
 40
0.0024749995
100
AcDbArc
 50
179.9999571957
 51
270.0000428043
  0
LINE
  5
302
100
AcDbEntity
  8
0
100
AcDbLine
 62
2
  6
CONTINUOUS
 10
12.9181184683
 20
2.5697573568
 11
12.9181184683
 21
2.5895573678
  0
ARC
  5
303
100
AcDbEntity
  8
0
100
AcDbCircle
 62
2
  6
CONTINUOUS
 10
12.9205934678
 20
2.5895573696
 40
0.0024749995
100
AcDbArc
 50
89.9999571957
 51
180.0000428042
  0
LINE
  5
304
100
AcDbEntity
  8
0
100
AcDbLine
 62
2
  6
CONTINUOUS
 10
13.2934226764
 20
2.5324773361
 11
13.2582556569
 21
2.5324773361
  0
ARC
  5
305
100
AcDbEntity
  8
0
100
AcDbCircle
 62
2
  6
CONTINUOUS
 10
13.2582556551
 20
2.5300023366
 40
0.0024749995
100
AcDbArc
 50
89.9999571957
 51
180.0000428043
  0
LINE
  5
306
100
AcDbEntity
  8
0
100
AcDbLine
 62
2
  6
CONTINUOUS
 10
13.2557806555
 20
2.5300023347
 11
13.2557806555
 21
2.5184523283
  0
ARC
  5
307
100
AcDbEntity
  8
0
100
AcDbCircle
 62
2
  6
CONTINUOUS
 10
13.2582556551
 20
2.5184523265
 40
0.0024749995
100
AcDbArc
 50
179.9999571957
 51
270.0000428043
  0
LINE
  5
308
100
AcDbEntity
  8
0
100
AcDbLine
 62
2
  6
CONTINUOUS
 10
13.2582556569
 20
2.515977327
 11
13.3232596929
 21
2.515977327
  0
ARC
  5
309
100
AcDbEntity
  8
0
100
AcDbCircle
 62
2
  6
CONTINUOUS
 10
13.3232596948
 20
2.5184523265
 40
0.0024749995
100
AcDbArc
 50
269.9999571957
 51
0.0000428043
  0
LINE
  5
30A
100
AcDbEntity
  8
0
100
AcDbLine
 62
2
  6
CONTINUOUS
 10
13.3257346943
 20
2.5184523283
 11
13.3257346943
 21
2.5267023329
  0
ARC
  5
30B
100
AcDbEntity
  8
0
100
AcDbCircle
 62
2
  6
CONTINUOUS
 10
13.3282096938
 20
2.5267023348
 40
0.0024749995
100
AcDbArc
 50
89.9999571957
 51
180.0000428043
  0
LINE
  5
30C
100
AcDbEntity
  8
0
100
AcDbLine
 62
2
  6
CONTINUOUS
 10
13.3282096957
 20
2.5291773343
 11
13.3705287192
 21
2.5291773343
  0
ARC
  5
30D
100
AcDbEntity
  8
0
100
AcDbCircle
 62
2
  6
CONTINUOUS
 10
13.370528721
 20
2.5267023348
 40
0.0024749995
100
AcDbArc
 50
359.9999571957
 51
90.0000428043
  0
LINE
  5
30E
100
AcDbEntity
  8
0
100
AcDbLine
 62
2
  6
CONTINUOUS
 10
13.3730037205
 20
2.5267023329
 11
13.3730037205
 21
2.4937023146
  0
ARC
  5
30F
100
AcDbEntity
  8
0
100
AcDbCircle
 62
2
  6
CONTINUOUS
 10
13.370528721
 20
2.4937023128
 40
0.0024749995
100
AcDbArc
 50
269.9999571957
 51
0.0000428043
  0
LINE
  5
310
100
AcDbEntity
  8
0
100
AcDbLine
 62
2
  6
CONTINUOUS
 10
13.3705287192
 20
2.4912273132
 11
13.1673166065
 21
2.4912273132
  0
ARC
  5
311
100
AcDbEntity
  8
0
100
AcDbCircle
 62
2
  6
CONTINUOUS
 10
13.1673166046
 20
2.4937023128
 40
0.0024749995
100
AcDbArc
 50
179.9999571957
 51
270.0000428043
  0
LINE
  5
312
100
AcDbEntity
  8
0
100
AcDbLine
 62
2
  6
CONTINUOUS
 10
13.1648416051
 20
2.4937023146
 11
13.1648416051
 21
2.5135023256
  0
ARC
  5
313
100
AcDbEntity
  8
0
100
AcDbCircle
 62
2
  6
CONTINUOUS
 10
13.1673166046
 20
2.5135023274
 40
0.0024749995
100
AcDbArc
 50
89.9999571957
 51
180.0000428043
  0
LINE
  5
314
100
AcDbEntity
  8
0
100
AcDbLine
 62
2
  6
CONTINUOUS
 10
13.1673166065
 20
2.515977327
 11
13.1912396197
 21
2.515977327
  0
ARC
  5
315
100
AcDbEntity
  8
0
100
AcDbCircle
 62
2
  6
CONTINUOUS
 10
13.1912396216
 20
2.5184523265
 40
0.0024749995
100
AcDbArc
 50
269.9999571957
 51
0.0000428042
  0
LINE
  5
316
100
AcDbEntity
  8
0
100
AcDbLine
 62
2
  6
CONTINUOUS
 10
13.1937146211
 20
2.5184523283
 11
13.1937146211
 21
2.564807354
  0
ARC
  5
317
100
AcDbEntity
  8
0
100
AcDbCircle
 62
2
  6
CONTINUOUS
 10
13.1912396216
 20
2.5648073559
 40
0.0024749995
100
AcDbArc
 50
359.9999571957
 51
90.0000428043
  0
LINE
  5
318
100
AcDbEntity
  8
0
100
AcDbLine
 62
2
  6
CONTINUOUS
 10
13.1912396197
 20
2.5672823554
 11
13.1673166065
 21
2.5672823554
  0
ARC
  5
319
100
AcDbEntity
  8
0
100
AcDbCircle
 62
2
  6
CONTINUOUS
 10
13.1673166046
 20
2.5697573549
 40
0.0024749995
100
AcDbArc
 50
179.9999571957
 51
270.0000428043
  0
LINE
  5
31A
100
AcDbEntity
  8
0
100
AcDbLine
 62
2
  6
CONTINUOUS
 10
13.1648416051
 20
2.5697573568
 11
13.1648416051
 21
2.5895573678
  0
ARC
  5
31B
100
AcDbEntity
  8
0
100
AcDbCircle
 62
2
  6
CONTINUOUS
 10
13.1673166046
 20
2.5895573696
 40
0.0024749995
100
AcDbArc
 50
89.9999571957
 51
180.0000428043
  0
LINE
  5
31C
100
AcDbEntity
  8
0
100
AcDbLine
 62
2
  6
CONTINUOUS
 10
13.1673166065
 20
2.5920323691
 11
13.3691097184
 21
2.5920323691
  0
ARC
  5
31D
100
AcDbEntity
  8
0
100
AcDbCircle
 62
2
  6
CONTINUOUS
 10
13.3691097202
 20
2.5895573696
 40
0.0024749995
100
AcDbArc
 50
359.9999571957
 51
90.0000428043
  0
LINE
  5
31E
100
AcDbEntity
  8
0
100
AcDbLine
 62
2
  6
CONTINUOUS
 10
13.3715847197
 20
2.5895573678
 11
13.3715847197
 21
2.5565573495
  0
ARC
  5
31F
100
AcDbEntity
  8
0
100
AcDbCircle
 62
2
  6
CONTINUOUS
 10
13.3691097202
 20
2.5565573476
 40
0.0024749995
100
AcDbArc
 50
269.9999571957
 51
0.0000428042
  0
LINE
  5
320
100
AcDbEntity
  8
0
100
AcDbLine
 62
2
  6
CONTINUOUS
 10
13.3691097184
 20
2.5540823481
 11
13.3272456952
 21
2.5540823481
  0
ARC
  5
321
100
AcDbEntity
  8
0
100
AcDbCircle
 62
2
  6
CONTINUOUS
 10
13.3272456933
 20
2.5565573476
 40
0.0024749995
100
AcDbArc
 50
179.9999571957
 51
270.0000428043
  0
LINE
  5
322
100
AcDbEntity
  8
0
100
AcDbLine
 62
2
  6
CONTINUOUS
 10
13.3247706938
 20
2.5565573495
 11
13.3247706938
 21
2.564807354
  0
ARC
  5
323
100
AcDbEntity
  8
0
100
AcDbCircle
 62
2
  6
CONTINUOUS
 10
13.3222956943
 20
2.5648073559
 40
0.0024749995
100
AcDbArc
 50
359.9999571957
 51
90.0000428043
  0
LINE
  5
324
100
AcDbEntity
  8
0
100
AcDbLine
 62
2
  6
CONTINUOUS
 10
13.3222956924
 20
2.5672823554
 11
13.2582556569
 21
2.5672823554
  0
ARC
  5
325
100
AcDbEntity
  8
0
100
AcDbCircle
 62
2
  6
CONTINUOUS
 10
13.2582556551
 20
2.5648073559
 40
0.0024749995
100
AcDbArc
 50
89.9999571957
 51
180.0000428043
  0
LINE
  5
326
100
AcDbEntity
  8
0
100
AcDbLine
 62
2
  6
CONTINUOUS
 10
13.2557806555
 20
2.564807354
 11
13.2557806555
 21
2.5532573476
  0
ARC
  5
327
100
AcDbEntity
  8
0
100
AcDbCircle
 62
2
  6
CONTINUOUS
 10
13.2582556551
 20
2.5532573458
 40
0.0024749995
100
AcDbArc
 50
179.9999571957
 51
270.0000428043
  0
LINE
  5
328
100
AcDbEntity
  8
0
100
AcDbLine
 62
2
  6
CONTINUOUS
 10
13.2582556569
 20
2.5507823463
 11
13.2934226764
 21
2.5507823463
  0
ARC
  5
329
100
AcDbEntity
  8
0
100
AcDbCircle
 62
2
  6
CONTINUOUS
 10
13.2934226783
 20
2.5483073467
 40
0.0024749995
100
AcDbArc
 50
359.9999571957
 51
90.0000428043
  0
LINE
  5
32A
100
AcDbEntity
  8
0
100
AcDbLine
 62
2
  6
CONTINUOUS
 10
13.2958976778
 20
2.5483073449
 11
13.2958976778
 21
2.5349523375
  0
ARC
  5
32B
100
AcDbEntity
  8
0
100
AcDbCircle
 62
2
  6
CONTINUOUS
 10
13.2934226783
 20
2.5349523356
 40
0.0024749995
100
AcDbArc
 50
269.9999571957
 51
0.0000428042
  0
LINE
  5
32C
100
AcDbEntity
  8
0
100
AcDbLine
 62
2
  6
CONTINUOUS
 10
13.7286871589
 20
2.5350697372
 11
13.7286871589
 21
2.5456869438
  0
LINE
  5
32D
100
AcDbEntity
  8
0
100
AcDbLine
 62
2
  6
CONTINUOUS
 10
13.7086871478
 20
2.5004302075
 11
13.7086871478
 21
2.5803264735
  0
LINE
  5
32E
100
AcDbEntity
  8
0
100
AcDbLine
 62
2
  6
CONTINUOUS
 10
13.6886871368
 20
2.4843919416
 11
13.6886871368
 21
2.5963647394
  0
LINE
  5
32F
100
AcDbEntity
  8
0
100
AcDbLine
 62
2
  6
CONTINUOUS
 10
13.6686871257
 20
2.4726017898
 11
13.6686871257
 21
2.6081548911
  0
LINE
  5
330
100
AcDbEntity
  8
0
100
AcDbLine
 62
2
  6
CONTINUOUS
 10
13.6486871146
 20
2.4628062688
 11
13.6486871146
 21
2.6179504122
  0
LINE
  5
331
100
AcDbEntity
  8
0
100
AcDbLine
 62
2
  6
CONTINUOUS
 10
13.6286871035
 20
2.4541253507
 11
13.6286871035
 21
2.5062483056
  0
LINE
  5
332
100
AcDbEntity
  8
0
100
AcDbLine
 62
2
  6
CONTINUOUS
 10
13.6286871035
 20
2.5301143348
 11
13.6286871035
 21
2.6266313303
  0
LINE
  5
333
100
AcDbEntity
  8
0
100
AcDbLine
 62
2
  6
CONTINUOUS
 10
13.6086870924
 20
2.4465537903
 11
13.6086870924
 21
2.4918774918
  0
LINE
  5
334
100
AcDbEntity
  8
0
100
AcDbLine
 62
2
  6
CONTINUOUS
 10
13.6086870924
 20
2.5165781173
 11
13.6086870924
 21
2.6342028907
  0
LINE
  5
335
100
AcDbEntity
  8
0
100
AcDbLine
 62
2
  6
CONTINUOUS
 10
13.5886870813
 20
2.4398033466
 11
13.5886870813
 21
2.4912273132
  0
LINE
  5
336
100
AcDbEntity
  8
0
100
AcDbLine
 62
2
  6
CONTINUOUS
 10
13.5886870813
 20
2.5391840845
 11
13.5886870813
 21
2.5454298327
  0
LINE
  5
337
100
AcDbEntity
  8
0
100
AcDbLine
 62
2
  6
CONTINUOUS
 10
13.5886870813
 20
2.5862063472
 11
13.5886870813
 21
2.6409533343
  0
LINE
  5
338
100
AcDbEntity
  8
0
100
AcDbLine
 62
2
  6
CONTINUOUS
 10
13.5686870702
 20
2.4334702189
 11
13.5686870702
 21
2.4912273132
  0
LINE
  5
339
100
AcDbEntity
  8
0
100
AcDbLine
 62
2
  6
CONTINUOUS
 10
13.5686870702
 20
2.5906587765
 11
13.5686870702
 21
2.647286462
  0
LINE
  5
33A
100
AcDbEntity
  8
0
100
AcDbLine
 62
2
  6
CONTINUOUS
 10
13.5486870591
 20
2.4278968124
 11
13.5486870591
 21
2.4937461006
  0
LINE
  5
33B
100
AcDbEntity
  8
0
100
AcDbLine
 62
2
  6
CONTINUOUS
 10
13.5486870591
 20
2.5920323691
 11
13.5486870591
 21
2.6528598686
  0
LINE
  5
33C
100
AcDbEntity
  8
0
100
AcDbLine
 62
2
  6
CONTINUOUS
 10
13.528687048
 20
2.4225427674
 11
13.528687048
 21
2.5270426993
  0
LINE
  5
33D
100
AcDbEntity
  8
0
100
AcDbLine
 62
2
  6
CONTINUOUS
 10
13.528687048
 20
2.5505166259
 11
13.528687048
 21
2.5668657091
  0
LINE
  5
33E
100
AcDbEntity
  8
0
100
AcDbLine
 62
2
  6
CONTINUOUS
 10
13.528687048
 20
2.5920323691
 11
13.528687048
 21
2.6582139136
  0
LINE
  5
33F
100
AcDbEntity
  8
0
100
AcDbLine
 62
2
  6
CONTINUOUS
 10
13.5086870369
 20
2.4177306791
 11
13.5086870369
 21
2.4912273132
  0
LINE
  5
340
100
AcDbEntity
  8
0
100
AcDbLine
 62
2
  6
CONTINUOUS
 10
13.5086870369
 20
2.5159553269
 11
13.5086870369
 21
2.5306043351
  0
LINE
  5
341
100
AcDbEntity
  8
0
100
AcDbLine
 62
2
  6
CONTINUOUS
 10
13.5086870369
 20
2.5496073456
 11
13.5086870369
 21
2.5672823554
  0
LINE
  5
342
100
AcDbEntity
  8
0
100
AcDbLine
 62
2
  6
CONTINUOUS
 10
13.5086870369
 20
2.5920323691
 11
13.5086870369
 21
2.6630260019
  0
LINE
  5
343
100
AcDbEntity
  8
0
100
AcDbLine
 62
2
  6
CONTINUOUS
 10
13.4886870258
 20
2.4131795254
 11
13.4886870258
 21
2.4912273132
  0
LINE
  5
344
100
AcDbEntity
  8
0
100
AcDbLine
 62
2
  6
CONTINUOUS
 10
13.4886870258
 20
2.5159553269
 11
13.4886870258
 21
2.5306043351
  0
LINE
  5
345
100
AcDbEntity
  8
0
100
AcDbLine
 62
2
  6
CONTINUOUS
 10
13.4886870258
 20
2.5496073456
 11
13.4886870258
 21
2.5672823554
  0
LINE
  5
346
100
AcDbEntity
  8
0
100
AcDbLine
 62
2
  6
CONTINUOUS
 10
13.4886870258
 20
2.5920323691
 11
13.4886870258
 21
2.6675771555
  0
LINE
  5
347
100
AcDbEntity
  8
0
100
AcDbLine
 62
2
  6
CONTINUOUS
 10
13.4686870147
 20
2.4088819672
 11
13.4686870147
 21
2.4912273132
  0
LINE
  5
348
100
AcDbEntity
  8
0
100
AcDbLine
 62
2
  6
CONTINUOUS
 10
13.4686870147
 20
2.5920323691
 11
13.4686870147
 21
2.6718747138
  0
LINE
  5
349
100
AcDbEntity
  8
0
100
AcDbLine
 62
2
  6
CONTINUOUS
 10
13.4486870037
 20
2.4050092072
 11
13.4486870037
 21
2.4912273132
  0
LINE
  5
34A
100
AcDbEntity
  8
0
100
AcDbLine
 62
2
  6
CONTINUOUS
 10
13.4486870037
 20
2.5920323691
 11
13.4486870037
 21
2.6757474738
  0
LINE
  5
34B
100
AcDbEntity
  8
0
100
AcDbLine
 62
2
  6
CONTINUOUS
 10
13.4286869926
 20
2.4011364471
 11
13.4286869926
 21
2.4912273132
  0
LINE
  5
34C
100
AcDbEntity
  8
0
100
AcDbLine
 62
2
  6
CONTINUOUS
 10
13.4286869926
 20
2.5920323691
 11
13.4286869926
 21
2.6796202339
  0
LINE
  5
34D
100
AcDbEntity
  8
0
100
AcDbLine
 62
2
  6
CONTINUOUS
 10
13.4086869815
 20
2.3980226662
 11
13.4086869815
 21
2.4912273132
  0
LINE
  5
34E
100
AcDbEntity
  8
0
100
AcDbLine
 62
2
  6
CONTINUOUS
 10
13.4086869815
 20
2.515977327
 11
13.4086869815
 21
2.5672823554
  0
LINE
  5
34F
100
AcDbEntity
  8
0
100
AcDbLine
 62
2
  6
CONTINUOUS
 10
13.4086869815
 20
2.5920323691
 11
13.4086869815
 21
2.6827340148
  0
LINE
  5
350
100
AcDbEntity
  8
0
100
AcDbLine
 62
2
  6
CONTINUOUS
 10
13.3886869704
 20
2.3950052774
 11
13.3886869704
 21
2.6857514036
  0
LINE
  5
351
100
AcDbEntity
  8
0
100
AcDbLine
 62
2
  6
CONTINUOUS
 10
13.3686869593
 20
2.3919878885
 11
13.3686869593
 21
2.4912273132
  0
LINE
  5
352
100
AcDbEntity
  8
0
100
AcDbLine
 62
2
  6
CONTINUOUS
 10
13.3686869593
 20
2.5291773343
 11
13.3686869593
 21
2.5540823481
  0
LINE
  5
353
100
AcDbEntity
  8
0
100
AcDbLine
 62
2
  6
CONTINUOUS
 10
13.3686869593
 20
2.5920323691
 11
13.3686869593
 21
2.6887687924
  0
LINE
  5
354
100
AcDbEntity
  8
0
100
AcDbLine
 62
2
  6
CONTINUOUS
 10
13.3486869482
 20
2.3889704997
 11
13.3486869482
 21
2.4912273132
  0
LINE
  5
355
100
AcDbEntity
  8
0
100
AcDbLine
 62
2
  6
CONTINUOUS
 10
13.3486869482
 20
2.5291773343
 11
13.3486869482
 21
2.5540823481
  0
LINE
  5
356
100
AcDbEntity
  8
0
100
AcDbLine
 62
2
  6
CONTINUOUS
 10
13.3486869482
 20
2.5920323691
 11
13.3486869482
 21
2.6917861813
  0
LINE
  5
357
100
AcDbEntity
  8
0
100
AcDbLine
 62
2
  6
CONTINUOUS
 10
13.3286869371
 20
2.3859531109
 11
13.3286869371
 21
2.4912273132
  0
LINE
  5
358
100
AcDbEntity
  8
0
100
AcDbLine
 62
2
  6
CONTINUOUS
 10
13.3286869371
 20
2.5291773343
 11
13.3286869371
 21
2.5540823481
  0
LINE
  5
359
100
AcDbEntity
  8
0
100
AcDbLine
 62
2
  6
CONTINUOUS
 10
13.3286869371
 20
2.5920323691
 11
13.3286869371
 21
2.6948035701
  0
LINE
  5
35A
100
AcDbEntity
  8
0
100
AcDbLine
 62
2
  6
CONTINUOUS
 10
13.308686926
 20
2.3833355437
 11
13.308686926
 21
2.4912273132
  0
LINE
  5
35B
100
AcDbEntity
  8
0
100
AcDbLine
 62
2
  6
CONTINUOUS
 10
13.308686926
 20
2.515977327
 11
13.308686926
 21
2.5672823554
  0
LINE
  5
35C
100
AcDbEntity
  8
0
100
AcDbLine
 62
2
  6
CONTINUOUS
 10
13.308686926
 20
2.5920323691
 11
13.308686926
 21
2.6974211373
  0
LINE
  5
35D
100
AcDbEntity
  8
0
100
AcDbLine
 62
2
  6
CONTINUOUS
 10
13.2886869149
 20
2.3812612684
 11
13.2886869149
 21
2.4912273132
  0
LINE
  5
35E
100
AcDbEntity
  8
0
100
AcDbLine
 62
2
  6
CONTINUOUS
 10
13.2886869149
 20
2.515977327
 11
13.2886869149
 21
2.5324773361
  0
LINE
  5
35F
100
AcDbEntity
  8
0
100
AcDbLine
 62
2
  6
CONTINUOUS
 10
13.2886869149
 20
2.5507823463
 11
13.2886869149
 21
2.5672823554
  0
LINE
  5
360
100
AcDbEntity
  8
0
100
AcDbLine
 62
2
  6
CONTINUOUS
 10
13.2886869149
 20
2.5920323691
 11
13.2886869149
 21
2.6994954125
  0
LINE
  5
361
100
AcDbEntity
  8
0
100
AcDbLine
 62
2
  6
CONTINUOUS
 10
13.2686869038
 20
2.3791869932
 11
13.2686869038
 21
2.4912273132
  0
LINE
  5
362
100
AcDbEntity
  8
0
100
AcDbLine
 62
2
  6
CONTINUOUS
 10
13.2686869038
 20
2.515977327
 11
13.2686869038
 21
2.5324773361
  0
LINE
  5
363
100
AcDbEntity
  8
0
100
AcDbLine
 62
2
  6
CONTINUOUS
 10
13.2686869038
 20
2.5507823463
 11
13.2686869038
 21
2.5672823554
  0
LINE
  5
364
100
AcDbEntity
  8
0
100
AcDbLine
 62
2
  6
CONTINUOUS
 10
13.2686869038
 20
2.5920323691
 11
13.2686869038
 21
2.7015696878
  0
LINE
  5
365
100
AcDbEntity
  8
0
100
AcDbLine
 62
2
  6
CONTINUOUS
 10
13.2486868927
 20
2.377112718
 11
13.2486868927
 21
2.4912273132
  0
LINE
  5
366
100
AcDbEntity
  8
0
100
AcDbLine
 62
2
  6
CONTINUOUS
 10
13.2486868927
 20
2.5920323691
 11
13.2486868927
 21
2.703643963
  0
LINE
  5
367
100
AcDbEntity
  8
0
100
AcDbLine
 62
2
  6
CONTINUOUS
 10
13.2286868817
 20
2.3750384428
 11
13.2286868817
 21
2.4912273132
  0
LINE
  5
368
100
AcDbEntity
  8
0
100
AcDbLine
 62
2
  6
CONTINUOUS
 10
13.2286868817
 20
2.5920323691
 11
13.2286868817
 21
2.7057182382
  0
LINE
  5
369
100
AcDbEntity
  8
0
100
AcDbLine
 62
2
  6
CONTINUOUS
 10
13.2086868706
 20
2.3729641676
 11
13.2086868706
 21
2.4912273132
  0
LINE
  5
36A
100
AcDbEntity
  8
0
100
AcDbLine
 62
2
  6
CONTINUOUS
 10
13.2086868706
 20
2.5920323691
 11
13.2086868706
 21
2.7077925134
  0
LINE
  5
36B
100
AcDbEntity
  8
0
100
AcDbLine
 62
2
  6
CONTINUOUS
 10
13.1886868595
 20
2.3712344456
 11
13.1886868595
 21
2.4912273132
  0
LINE
  5
36C
100
AcDbEntity
  8
0
100
AcDbLine
 62
2
  6
CONTINUOUS
 10
13.1886868595
 20
2.515977327
 11
13.1886868595
 21
2.5672823554
  0
LINE
  5
36D
100
AcDbEntity
  8
0
100
AcDbLine
 62
2
  6
CONTINUOUS
 10
13.1886868595
 20
2.5920323691
 11
13.1886868595
 21
2.7095222354
  0
LINE
  5
36E
100
AcDbEntity
  8
0
100
AcDbLine
 62
2
  6
CONTINUOUS
 10
13.1686868484
 20
2.3699682418
 11
13.1686868484
 21
2.4912273132
  0
LINE
  5
36F
100
AcDbEntity
  8
0
100
AcDbLine
 62
2
  6
CONTINUOUS
 10
13.1686868484
 20
2.515977327
 11
13.1686868484
 21
2.5672823554
  0
LINE
  5
370
100
AcDbEntity
  8
0
100
AcDbLine
 62
2
  6
CONTINUOUS
 10
13.1686868484
 20
2.5920323691
 11
13.1686868484
 21
2.7107884392
  0
LINE
  5
371
100
AcDbEntity
  8
0
100
AcDbLine
 62
2
  6
CONTINUOUS
 10
13.1486868373
 20
2.3687020381
 11
13.1486868373
 21
2.7120546429
  0
LINE
  5
372
100
AcDbEntity
  8
0
100
AcDbLine
 62
2
  6
CONTINUOUS
 10
13.1286868262
 20
2.3674358343
 11
13.1286868262
 21
2.5672823554
  0
LINE
  5
373
100
AcDbEntity
  8
0
100
AcDbLine
 62
2
  6
CONTINUOUS
 10
13.1286868262
 20
2.5920323691
 11
13.1286868262
 21
2.7133208466
  0
LINE
  5
374
100
AcDbEntity
  8
0
100
AcDbLine
 62
2
  6
CONTINUOUS
 10
13.1086868151
 20
2.3661696306
 11
13.1086868151
 21
2.4912273132
  0
LINE
  5
375
100
AcDbEntity
  8
0
100
AcDbLine
 62
2
  6
CONTINUOUS
 10
13.1086868151
 20
2.5920323691
 11
13.1086868151
 21
2.7145870504
  0
LINE
  5
376
100
AcDbEntity
  8
0
100
AcDbLine
 62
2
  6
CONTINUOUS
 10
13.088686804
 20
2.3649034269
 11
13.088686804
 21
2.4912273132
  0
LINE
  5
377
100
AcDbEntity
  8
0
100
AcDbLine
 62
2
  6
CONTINUOUS
 10
13.088686804
 20
2.5920323691
 11
13.088686804
 21
2.7158532541
  0
LINE
  5
378
100
AcDbEntity
  8
0
100
AcDbLine
 62
2
  6
CONTINUOUS
 10
13.0686867929
 20
2.3636739922
 11
13.0686867929
 21
2.4912273132
  0
LINE
  5
379
100
AcDbEntity
  8
0
100
AcDbLine
 62
2
  6
CONTINUOUS
 10
13.0686867929
 20
2.5475272398
 11
13.0686867929
 21
2.5672823554
  0
LINE
  5
37A
100
AcDbEntity
  8
0
100
AcDbLine
 62
2
  6
CONTINUOUS
 10
13.0686867929
 20
2.5920323691
 11
13.0686867929
 21
2.7170826887
  0
LINE
  5
37B
100
AcDbEntity
  8
0
100
AcDbLine
 62
2
  6
CONTINUOUS
 10
13.0486867818
 20
2.363143203
 11
13.0486867818
 21
2.4912273132
  0
LINE
  5
37C
100
AcDbEntity
  8
0
100
AcDbLine
 62
2
  6
CONTINUOUS
 10
13.0486867818
 20
2.5666100882
 11
13.0486867818
 21
2.717613478
  0
LINE
  5
37D
100
AcDbEntity
  8
0
100
AcDbLine
 62
2
  6
CONTINUOUS
 10
13.0286867707
 20
2.3626124138
 11
13.0286867707
 21
2.50359263
  0
LINE
  5
37E
100
AcDbEntity
  8
0
100
AcDbLine
 62
2
  6
CONTINUOUS
 10
13.0286867707
 20
2.5856929366
 11
13.0286867707
 21
2.7181442672
  0
LINE
  5
37F
100
AcDbEntity
  8
0
100
AcDbLine
 62
2
  6
CONTINUOUS
 10
13.0086867596
 20
2.3620816246
 11
13.0086867596
 21
2.5226754472
  0
LINE
  5
380
100
AcDbEntity
  8
0
100
AcDbLine
 62
2
  6
CONTINUOUS
 10
13.0086867596
 20
2.5920323691
 11
13.0086867596
 21
2.7186750564
  0
LINE
  5
381
100
AcDbEntity
  8
0
100
AcDbLine
 62
2
  6
CONTINUOUS
 10
12.9886867486
 20
2.3615508354
 11
12.9886867486
 21
2.4912273132
  0
LINE
  5
382
100
AcDbEntity
  8
0
100
AcDbLine
 62
2
  6
CONTINUOUS
 10
12.9886867486
 20
2.515977327
 11
12.9886867486
 21
2.5417582644
  0
LINE
  5
383
100
AcDbEntity
  8
0
100
AcDbLine
 62
2
  6
CONTINUOUS
 10
12.9886867486
 20
2.5920323691
 11
12.9886867486
 21
2.7192058456
  0
LINE
  5
384
100
AcDbEntity
  8
0
100
AcDbLine
 62
2
  6
CONTINUOUS
 10
12.9686867375
 20
2.3610200462
 11
12.9686867375
 21
2.4912273132
  0
LINE
  5
385
100
AcDbEntity
  8
0
100
AcDbLine
 62
2
  6
CONTINUOUS
 10
12.9686867375
 20
2.5920323691
 11
12.9686867375
 21
2.7197366348
  0
LINE
  5
386
100
AcDbEntity
  8
0
100
AcDbLine
 62
2
  6
CONTINUOUS
 10
12.9486867264
 20
2.360489257
 11
12.9486867264
 21
2.4912273132
  0
LINE
  5
387
100
AcDbEntity
  8
0
100
AcDbLine
 62
2
  6
CONTINUOUS
 10
12.9486867264
 20
2.5920323691
 11
12.9486867264
 21
2.720267424
  0
LINE
  5
388
100
AcDbEntity
  8
0
100
AcDbLine
 62
2
  6
CONTINUOUS
 10
12.9286867153
 20
2.3602836008
 11
12.9286867153
 21
2.4912273132
  0
LINE
  5
389
100
AcDbEntity
  8
0
100
AcDbLine
 62
2
  6
CONTINUOUS
 10
12.9286867153
 20
2.515977327
 11
12.9286867153
 21
2.5672823554
  0
LINE
  5
38A
100
AcDbEntity
  8
0
100
AcDbLine
 62
2
  6
CONTINUOUS
 10
12.9286867153
 20
2.5920323691
 11
12.9286867153
 21
2.7204730802
  0
LINE
  5
38B
100
AcDbEntity
  8
0
100
AcDbLine
 62
2
  6
CONTINUOUS
 10
12.9086867042
 20
2.3604597639
 11
12.9086867042
 21
2.7202969171
  0
LINE
  5
38C
100
AcDbEntity
  8
0
100
AcDbLine
 62
2
  6
CONTINUOUS
 10
12.8886866931
 20
2.360635927
 11
12.8886866931
 21
2.5672823554
  0
LINE
  5
38D
100
AcDbEntity
  8
0
100
AcDbLine
 62
2
  6
CONTINUOUS
 10
12.8886866931
 20
2.5920323691
 11
12.8886866931
 21
2.720120754
  0
LINE
  5
38E
100
AcDbEntity
  8
0
100
AcDbLine
 62
2
  6
CONTINUOUS
 10
12.868686682
 20
2.3608120901
 11
12.868686682
 21
2.491232357
  0
LINE
  5
38F
100
AcDbEntity
  8
0
100
AcDbLine
 62
2
  6
CONTINUOUS
 10
12.868686682
 20
2.5920323691
 11
12.868686682
 21
2.7199445909
  0
LINE
  5
390
100
AcDbEntity
  8
0
100
AcDbLine
 62
2
  6
CONTINUOUS
 10
12.8486866709
 20
2.3609882532
 11
12.8486866709
 21
2.4912273132
  0
LINE
  5
391
100
AcDbEntity
  8
0
100
AcDbLine
 62
2
  6
CONTINUOUS
 10
12.8486866709
 20
2.5920323691
 11
12.8486866709
 21
2.7197684278
  0
LINE
  5
392
100
AcDbEntity
  8
0
100
AcDbLine
 62
2
  6
CONTINUOUS
 10
12.8286866598
 20
2.3611644163
 11
12.8286866598
 21
2.4912273132
  0
LINE
  5
393
100
AcDbEntity
  8
0
100
AcDbLine
 62
2
  6
CONTINUOUS
 10
12.8286866598
 20
2.5396527025
 11
12.8286866598
 21
2.5672823554
  0
LINE
  5
394
100
AcDbEntity
  8
0
100
AcDbLine
 62
2
  6
CONTINUOUS
 10
12.8286866598
 20
2.5920323691
 11
12.8286866598
 21
2.7195922647
  0
LINE
  5
395
100
AcDbEntity
  8
0
100
AcDbLine
 62
2
  6
CONTINUOUS
 10
12.8086866487
 20
2.3613405794
 11
12.8086866487
 21
2.4912273132
  0
LINE
  5
396
100
AcDbEntity
  8
0
100
AcDbLine
 62
2
  6
CONTINUOUS
 10
12.8086866487
 20
2.5587355508
 11
12.8086866487
 21
2.7194161016
  0
LINE
  5
397
100
AcDbEntity
  8
0
100
AcDbLine
 62
2
  6
CONTINUOUS
 10
12.7886866376
 20
2.3621089572
 11
12.7886866376
 21
2.4957181055
  0
LINE
  5
398
100
AcDbEntity
  8
0
100
AcDbLine
 62
2
  6
CONTINUOUS
 10
12.7886866376
 20
2.5778183992
 11
12.7886866376
 21
2.7186477238
  0
LINE
  5
399
100
AcDbEntity
  8
0
100
AcDbLine
 62
2
  6
CONTINUOUS
 10
12.7686866266
 20
2.3630013935
 11
12.7686866266
 21
2.5148009227
  0
LINE
  5
39A
100
AcDbEntity
  8
0
100
AcDbLine
 62
2
  6
CONTINUOUS
 10
12.7686866266
 20
2.5920323691
 11
12.7686866266
 21
2.7177552874
  0
LINE
  5
39B
100
AcDbEntity
  8
0
100
AcDbLine
 62
2
  6
CONTINUOUS
 10
12.7486866155
 20
2.3638938299
 11
12.7486866155
 21
2.4913263218
  0
LINE
  5
39C
100
AcDbEntity
  8
0
100
AcDbLine
 62
2
  6
CONTINUOUS
 10
12.7486866155
 20
2.5158783184
 11
12.7486866155
 21
2.5338837399
  0
LINE
  5
39D
100
AcDbEntity
  8
0
100
AcDbLine
 62
2
  6
CONTINUOUS
 10
12.7486866155
 20
2.5920323691
 11
12.7486866155
 21
2.7168628511
  0
LINE
  5
39E
100
AcDbEntity
  8
0
100
AcDbLine
 62
2
  6
CONTINUOUS
 10
12.7286866044
 20
2.3647862663
 11
12.7286866044
 21
2.4912273132
  0
LINE
  5
39F
100
AcDbEntity
  8
0
100
AcDbLine
 62
2
  6
CONTINUOUS
 10
12.7286866044
 20
2.515977327
 11
12.7286866044
 21
2.5527601554
  0
LINE
  5
3A0
100
AcDbEntity
  8
0
100
AcDbLine
 62
2
  6
CONTINUOUS
 10
12.7286866044
 20
2.5920323691
 11
12.7286866044
 21
2.7159704147
  0
LINE
  5
3A1
100
AcDbEntity
  8
0
100
AcDbLine
 62
2
  6
CONTINUOUS
 10
12.7086865933
 20
2.3656787026
 11
12.7086865933
 21
2.4912273132
  0
LINE
  5
3A2
100
AcDbEntity
  8
0
100
AcDbLine
 62
2
  6
CONTINUOUS
 10
12.7086865933
 20
2.5920323691
 11
12.7086865933
 21
2.7150779784
  0
LINE
  5
3A3
100
AcDbEntity
  8
0
100
AcDbLine
 62
2
  6
CONTINUOUS
 10
12.6886865822
 20
2.366571139
 11
12.6886865822
 21
2.4912273132
  0
LINE
  5
3A4
100
AcDbEntity
  8
0
100
AcDbLine
 62
2
  6
CONTINUOUS
 10
12.6886865822
 20
2.515977327
 11
12.6886865822
 21
2.5672823554
  0
LINE
  5
3A5
100
AcDbEntity
  8
0
100
AcDbLine
 62
2
  6
CONTINUOUS
 10
12.6886865822
 20
2.5920323691
 11
12.6886865822
 21
2.714185542
  0
LINE
  5
3A6
100
AcDbEntity
  8
0
100
AcDbLine
 62
2
  6
CONTINUOUS
 10
12.6686865711
 20
2.3677104027
 11
12.6686865711
 21
2.7130462783
  0
LINE
  5
3A7
100
AcDbEntity
  8
0
100
AcDbLine
 62
2
  6
CONTINUOUS
 10
12.64868656
 20
2.3693682721
 11
12.64868656
 21
2.7113884089
  0
LINE
  5
3A8
100
AcDbEntity
  8
0
100
AcDbLine
 62
2
  6
CONTINUOUS
 10
12.6286865489
 20
2.3710261415
 11
12.6286865489
 21
2.4912273132
  0
LINE
  5
3A9
100
AcDbEntity
  8
0
100
AcDbLine
 62
2
  6
CONTINUOUS
 10
12.6286865489
 20
2.515977327
 11
12.6286865489
 21
2.7097305395
  0
LINE
  5
3AA
100
AcDbEntity
  8
0
100
AcDbLine
 62
2
  6
CONTINUOUS
 10
12.6086865378
 20
2.372684011
 11
12.6086865378
 21
2.4912273132
  0
LINE
  5
3AB
100
AcDbEntity
  8
0
100
AcDbLine
 62
2
  6
CONTINUOUS
 10
12.6086865378
 20
2.5351122279
 11
12.6086865378
 21
2.70807267
  0
LINE
  5
3AC
100
AcDbEntity
  8
0
100
AcDbLine
 62
2
  6
CONTINUOUS
 10
12.5886865267
 20
2.3743418804
 11
12.5886865267
 21
2.4912273132
  0
LINE
  5
3AD
100
AcDbEntity
  8
0
100
AcDbLine
 62
2
  6
CONTINUOUS
 10
12.5886865267
 20
2.5660172622
 11
12.5886865267
 21
2.7064148006
  0
LINE
  5
3AE
100
AcDbEntity
  8
0
100
AcDbLine
 62
2
  6
CONTINUOUS
 10
12.5686865156
 20
2.3759997498
 11
12.5686865156
 21
2.4912273132
  0
LINE
  5
3AF
100
AcDbEntity
  8
0
100
AcDbLine
 62
2
  6
CONTINUOUS
 10
12.5686865156
 20
2.5920323691
 11
12.5686865156
 21
2.7047569312
  0
LINE
  5
3B0
100
AcDbEntity
  8
0
100
AcDbLine
 62
2
  6
CONTINUOUS
 10
12.5486865045
 20
2.3777575277
 11
12.5486865045
 21
2.4912273132
  0
LINE
  5
3B1
100
AcDbEntity
  8
0
100
AcDbLine
 62
2
  6
CONTINUOUS
 10
12.5486865045
 20
2.515977327
 11
12.5486865045
 21
2.5275118824
  0
LINE
  5
3B2
100
AcDbEntity
  8
0
100
AcDbLine
 62
2
  6
CONTINUOUS
 10
12.5486865045
 20
2.5920323691
 11
12.5486865045
 21
2.7029991533
  0
LINE
  5
3B3
100
AcDbEntity
  8
0
100
AcDbLine
 62
2
  6
CONTINUOUS
 10
12.5286864935
 20
2.3802813811
 11
12.5286864935
 21
2.5296213345
  0
LINE
  5
3B4
100
AcDbEntity
  8
0
100
AcDbLine
 62
2
  6
CONTINUOUS
 10
12.5286864935
 20
2.5505713461
 11
12.5286864935
 21
2.5667383551
  0
LINE
  5
3B5
100
AcDbEntity
  8
0
100
AcDbLine
 62
2
  6
CONTINUOUS
 10
12.5286864935
 20
2.5920323691
 11
12.5286864935
 21
2.7004752999
  0
LINE
  5
3B6
100
AcDbEntity
  8
0
100
AcDbLine
 62
2
  6
CONTINUOUS
 10
12.5086864824
 20
2.3828052346
 11
12.5086864824
 21
2.4912273132
  0
LINE
  5
3B7
100
AcDbEntity
  8
0
100
AcDbLine
 62
2
  6
CONTINUOUS
 10
12.5086864824
 20
2.515977327
 11
12.5086864824
 21
2.5279667721
  0
LINE
  5
3B8
100
AcDbEntity
  8
0
100
AcDbLine
 62
2
  6
CONTINUOUS
 10
12.5086864824
 20
2.5868602074
 11
12.5086864824
 21
2.6979514464
  0
LINE
  5
3B9
100
AcDbEntity
  8
0
100
AcDbLine
 62
2
  6
CONTINUOUS
 10
12.4886864713
 20
2.385329088
 11
12.4886864713
 21
2.4912273132
  0
LINE
  5
3BA
100
AcDbEntity
  8
0
100
AcDbLine
 62
2
  6
CONTINUOUS
 10
12.4886864713
 20
2.5553401045
 11
12.4886864713
 21
2.695427593
  0
LINE
  5
3BB
100
AcDbEntity
  8
0
100
AcDbLine
 62
2
  6
CONTINUOUS
 10
12.4686864602
 20
2.3878529415
 11
12.4686864602
 21
2.4912273132
  0
LINE
  5
3BC
100
AcDbEntity
  8
0
100
AcDbLine
 62
2
  6
CONTINUOUS
 10
12.4686864602
 20
2.5238200015
 11
12.4686864602
 21
2.6929037395
  0
LINE
  5
3BD
100
AcDbEntity
  8
0
100
AcDbLine
 62
2
  6
CONTINUOUS
 10
12.4486864491
 20
2.390376795
 11
12.4486864491
 21
2.4912273132
  0
LINE
  5
3BE
100
AcDbEntity
  8
0
100
AcDbLine
 62
2
  6
CONTINUOUS
 10
12.4486864491
 20
2.515977327
 11
12.4486864491
 21
2.690379886
  0
LINE
  5
3BF
100
AcDbEntity
  8
0
100
AcDbLine
 62
2
  6
CONTINUOUS
 10
12.428686438
 20
2.3931794042
 11
12.428686438
 21
2.6875772768
  0
LINE
  5
3C0
100
AcDbEntity
  8
0
100
AcDbLine
 62
2
  6
CONTINUOUS
 10
12.4086864269
 20
2.3964643301
 11
12.4086864269
 21
2.5013773986
  0
LINE
  5
3C1
100
AcDbEntity
  8
0
100
AcDbLine
 62
2
  6
CONTINUOUS
 10
12.4086864269
 20
2.5325739971
 11
12.4086864269
 21
2.5537224311
  0
LINE
  5
3C2
100
AcDbEntity
  8
0
100
AcDbLine
 62
2
  6
CONTINUOUS
 10
12.4086864269
 20
2.5791473398
 11
12.4086864269
 21
2.6842923509
  0
LINE
  5
3C3
100
AcDbEntity
  8
0
100
AcDbLine
 62
2
  6
CONTINUOUS
 10
12.3886864158
 20
2.399749256
 11
12.3886864158
 21
2.4921022658
  0
LINE
  5
3C4
100
AcDbEntity
  8
0
100
AcDbLine
 62
2
  6
CONTINUOUS
 10
12.3886864158
 20
2.5895929958
 11
12.3886864158
 21
2.681007425
  0
LINE
  5
3C5
100
AcDbEntity
  8
0
100
AcDbLine
 62
2
  6
CONTINUOUS
 10
12.3686864047
 20
2.403451877
 11
12.3686864047
 21
2.4912273132
  0
LINE
  5
3C6
100
AcDbEntity
  8
0
100
AcDbLine
 62
2
  6
CONTINUOUS
 10
12.3686864047
 20
2.5920323691
 11
12.3686864047
 21
2.677304804
  0
LINE
  5
3C7
100
AcDbEntity
  8
0
100
AcDbLine
 62
2
  6
CONTINUOUS
 10
12.3486863936
 20
2.407324637
 11
12.3486863936
 21
2.4912273132
  0
LINE
  5
3C8
100
AcDbEntity
  8
0
100
AcDbLine
 62
2
  6
CONTINUOUS
 10
12.3486863936
 20
2.5920323691
 11
12.3486863936
 21
2.673432044
  0
LINE
  5
3C9
100
AcDbEntity
  8
0
100
AcDbLine
 62
2
  6
CONTINUOUS
 10
12.3286863825
 20
2.4113493968
 11
12.3286863825
 21
2.4912273132
  0
LINE
  5
3CA
100
AcDbEntity
  8
0
100
AcDbLine
 62
2
  6
CONTINUOUS
 10
12.3286863825
 20
2.515977327
 11
12.3286863825
 21
2.5333023366
  0
LINE
  5
3CB
100
AcDbEntity
  8
0
100
AcDbLine
 62
2
  6
CONTINUOUS
 10
12.3286863825
 20
2.5499573458
 11
12.3286863825
 21
2.5672823554
  0
LINE
  5
3CC
100
AcDbEntity
  8
0
100
AcDbLine
 62
2
  6
CONTINUOUS
 10
12.3286863825
 20
2.5920323691
 11
12.3286863825
 21
2.6694072842
  0
LINE
  5
3CD
100
AcDbEntity
  8
0
100
AcDbLine
 62
2
  6
CONTINUOUS
 10
12.3086863715
 20
2.4159005505
 11
12.3086863715
 21
2.4912273132
  0
LINE
  5
3CE
100
AcDbEntity
  8
0
100
AcDbLine
 62
2
  6
CONTINUOUS
 10
12.3086863715
 20
2.515977327
 11
12.3086863715
 21
2.5333023366
  0
LINE
  5
3CF
100
AcDbEntity
  8
0
100
AcDbLine
 62
2
  6
CONTINUOUS
 10
12.3086863715
 20
2.5499573458
 11
12.3086863715
 21
2.5672823554
  0
LINE
  5
3D0
100
AcDbEntity
  8
0
100
AcDbLine
 62
2
  6
CONTINUOUS
 10
12.3086863715
 20
2.5920323691
 11
12.3086863715
 21
2.6648561305
  0
LINE
  5
3D1
100
AcDbEntity
  8
0
100
AcDbLine
 62
2
  6
CONTINUOUS
 10
12.2886863604
 20
2.4204517041
 11
12.2886863604
 21
2.4912273132
  0
LINE
  5
3D2
100
AcDbEntity
  8
0
100
AcDbLine
 62
2
  6
CONTINUOUS
 10
12.2886863604
 20
2.5920323691
 11
12.2886863604
 21
2.6603049769
  0
LINE
  5
3D3
100
AcDbEntity
  8
0
100
AcDbLine
 62
2
  6
CONTINUOUS
 10
12.2686863493
 20
2.4257438218
 11
12.2686863493
 21
2.4912273132
  0
LINE
  5
3D4
100
AcDbEntity
  8
0
100
AcDbLine
 62
2
  6
CONTINUOUS
 10
12.2686863493
 20
2.5920323691
 11
12.2686863493
 21
2.6550128592
  0
LINE
  5
3D5
100
AcDbEntity
  8
0
100
AcDbLine
 62
2
  6
CONTINUOUS
 10
12.2486863382
 20
2.4310978667
 11
12.2486863382
 21
2.4912273132
  0
LINE
  5
3D6
100
AcDbEntity
  8
0
100
AcDbLine
 62
2
  6
CONTINUOUS
 10
12.2486863382
 20
2.5920323691
 11
12.2486863382
 21
2.6496588142
  0
LINE
  5
3D7
100
AcDbEntity
  8
0
100
AcDbLine
 62
2
  6
CONTINUOUS
 10
12.2286863271
 20
2.4372566433
 11
12.2286863271
 21
2.4912273132
  0
LINE
  5
3D8
100
AcDbEntity
  8
0
100
AcDbLine
 62
2
  6
CONTINUOUS
 10
12.2286863271
 20
2.515977327
 11
12.2286863271
 21
2.5672823554
  0
LINE
  5
3D9
100
AcDbEntity
  8
0
100
AcDbLine
 62
2
  6
CONTINUOUS
 10
12.2286863271
 20
2.5920323691
 11
12.2286863271
 21
2.6435000377
  0
LINE
  5
3DA
100
AcDbEntity
  8
0
100
AcDbLine
 62
2
  6
CONTINUOUS
 10
12.208686316
 20
2.443589771
 11
12.208686316
 21
2.4912273132
  0
LINE
  5
3DB
100
AcDbEntity
  8
0
100
AcDbLine
 62
2
  6
CONTINUOUS
 10
12.208686316
 20
2.515977327
 11
12.208686316
 21
2.5672823554
  0
LINE
  5
3DC
100
AcDbEntity
  8
0
100
AcDbLine
 62
2
  6
CONTINUOUS
 10
12.208686316
 20
2.5920323691
 11
12.208686316
 21
2.63716691
  0
LINE
  5
3DD
100
AcDbEntity
  8
0
100
AcDbLine
 62
2
  6
CONTINUOUS
 10
12.1886863049
 20
2.4510806436
 11
12.1886863049
 21
2.6296760373
  0
LINE
  5
3DE
100
AcDbEntity
  8
0
100
AcDbLine
 62
2
  6
CONTINUOUS
 10
12.1686862938
 20
2.4591016523
 11
12.1686862938
 21
2.6216550287
  0
LINE
  5
3DF
100
AcDbEntity
  8
0
100
AcDbLine
 62
2
  6
CONTINUOUS
 10
12.1486862827
 20
2.468314272
 11
12.1486862827
 21
2.612442409
  0
LINE
  5
3E0
100
AcDbEntity
  8
0
100
AcDbLine
 62
2
  6
CONTINUOUS
 10
12.1286862716
 20
2.4794932339
 11
12.1286862716
 21
2.601263447
  0
LINE
  5
3E1
100
AcDbEntity
  8
0
100
AcDbLine
 62
2
  6
CONTINUOUS
 10
12.1086862605
 20
2.4934150665
 11
12.1086862605
 21
2.5873416144
  0
LINE
  5
3E2
100
AcDbEntity
  8
0
100
AcDbLine
 62
2
  6
CONTINUOUS
 10
12.0886862494
 20
2.5144449553
 11
12.0886862494
 21
2.5663117257
  0
ENDBLK
  5
3E3
100
AcDbEntity
  8
0
  6
BYBLOCK
 62
0
100
AcDbBlockEnd
  0
BLOCK
  5
3E4
100
AcDbEntity
  8
0
100
AcDbBlockBegin
  2
_FILLED
 70
64
 10
0.0
 20
0.0
  3
_FILLED
  1

  0
SOLID
  5
3E5
100
AcDbEntity
  8
0
  6
BYBLOCK
 62
0
100
AcDbTrace
 10
0.0
 20
0.0
 11
-1.0
 21
0.1666666667
 12
-1.0
 22
-0.1666666667
 13
-1.0
 23
-0.1666666667
  0
ENDBLK
  5
3E6
100
AcDbEntity
  8
0
  6
BYBLOCK
 62
0
100
AcDbBlockEnd
  0
BLOCK
  5
3E7
100
AcDbEntity
  8
SCHEME_DIMS
100
AcDbBlockBegin
 62
2
  6
CONTINUOUS
  2
*D0
 70
65
 10
0.0
 20
0.0
  3
*D0
  1

  0
MTEXT
  5
3E8
100
AcDbEntity
  8
SCHEME_DIMS
100
AcDbMText
 62
2
  6
CONTINUOUS
  7
STANDARD
 71
2
 72
1
 10
5.5765970457
 20
5.7585506671
 30
0.0
 11
1.0
 21
0.0
 31
0.0
 44
0.9
  1
31,8\P[1.25]
 40
0.1
 41
0.6
  0
LINE
  5
3E9
100
AcDbEntity
  8
SCHEME_DIMS
100
AcDbLine
 62
2
  6
CONTINUOUS
 10
5.0515970457
 20
6.307896117
 11
5.0515970457
 21
5.5835506671
  0
LINE
  5
3EA
100
AcDbEntity
  8
SCHEME_DIMS
100
AcDbLine
 62
2
  6
CONTINUOUS
 10
6.3015970457
 20
7.1710506671
 11
6.3015970457
 21
5.5835506671
  0
LINE
  5
3EB
100
AcDbEntity
  8
SCHEME_DIMS
100
AcDbLine
 62
2
  6
CONTINUOUS
 10
5.0515970457
 20
5.7085506671
 11
5.2765970457
 21
5.7085506671
  0
LINE
  5
3EC
100
AcDbEntity
  8
SCHEME_DIMS
100
AcDbLine
 62
2
  6
CONTINUOUS
 10
6.3015970457
 20
5.7085506671
 11
6.0765970457
 21
5.7085506671
  0
INSERT
  5
3ED
100
AcDbEntity
  8
SCHEME_DIMS
100
AcDbBlockReference
 62
2
  6
CONTINUOUS
  2
_FILLED
 10
5.0515970457
 20
5.7085506671
 41
0.1875
 42
0.1875
 43
0.1875
 50
180.0
  0
INSERT
  5
3EE
100
AcDbEntity
  8
SCHEME_DIMS
100
AcDbBlockReference
 62
2
  6
CONTINUOUS
  2
_FILLED
 10
6.3015970457
 20
5.7085506671
 41
0.1875
 42
0.1875
 43
0.1875
  0
ENDBLK
  5
3EF
100
AcDbEntity
  8
0
  6
BYBLOCK
 62
0
100
AcDbBlockEnd
  0
BLOCK
  5
3F0
100
AcDbEntity
  8
SCHEME_DIMS
100
AcDbBlockBegin
 62
2
  6
CONTINUOUS
  2
*D1
 70
65
 10
0.0
 20
0.0
  3
*D1
  1

  0
MTEXT
  5
3F1
100
AcDbEntity
  8
SCHEME_DIMS
100
AcDbMText
 62
2
  6
CONTINUOUS
  7
STANDARD
 71
2
 72
1
 10
7.9515970457
 20
7.5835506671
 30
0.0
 11
1.0
 21
0.0
 31
0.0
 44
0.9
  1
50,8\P[2.00]
 40
0.1
 41
0.6
  0
LINE
  5
3F2
100
AcDbEntity
  8
SCHEME_DIMS
100
AcDbLine
 62
2
  6
CONTINUOUS
 10
7.7140970457
 20
6.4585506671
 11
8.1765970457
 21
6.4585506671
  0
LINE
  5
3F3
100
AcDbEntity
  8
SCHEME_DIMS
100
AcDbLine
 62
2
  6
CONTINUOUS
 10
7.7140970457
 20
8.4585506671
 11
8.1765970457
 21
8.4585506671
  0
LINE
  5
3F4
100
AcDbEntity
  8
SCHEME_DIMS
100
AcDbLine
 62
2
  6
CONTINUOUS
 10
8.0515970457
 20
6.4585506671
 11
8.0515970457
 21
7.2335506671
  0
LINE
  5
3F5
100
AcDbEntity
  8
SCHEME_DIMS
100
AcDbLine
 62
2
  6
CONTINUOUS
 10
8.0515970457
 20
8.4585506671
 11
8.0515970457
 21
7.6835506671
  0
INSERT
  5
3F6
100
AcDbEntity
  8
SCHEME_DIMS
100
AcDbBlockReference
 62
2
  6
CONTINUOUS
  2
_FILLED
 10
8.0515970457
 20
6.4585506671
 41
0.1875
 42
0.1875
 43
0.1875
 50
270.0
  0
INSERT
  5
3F7
100
AcDbEntity
  8
SCHEME_DIMS
100
AcDbBlockReference
 62
2
  6
CONTINUOUS
  2
_FILLED
 10
8.0515970457
 20
8.4585506671
 41
0.1875
 42
0.1875
 43
0.1875
 50
90.0
  0
ENDBLK
  5
3F8
100
AcDbEntity
  8
0
  6
BYBLOCK
 62
0
100
AcDbBlockEnd
  0
BLOCK
  5
3F9
100
AcDbEntity
  8
SCHEME_DIMS
100
AcDbBlockBegin
 62
2
  6
CONTINUOUS
  2
*D2
 70
65
 10
0.0
 20
0.0
  3
*D2
  1

  0
MTEXT
  5
3FA
100
AcDbEntity
  8
SCHEME_DIMS
100
AcDbMText
 62
2
  6
CONTINUOUS
  7
STANDARD
 71
2
 72
1
 10
4.5015970457
 20
3.4725262206
 30
0.0
 11
1.0
 21
0.0
 31
0.0
 44
0.9
  1
19,1\P[.75]
 40
0.1
 41
0.5
  0
LINE
  5
3FB
100
AcDbEntity
  8
SCHEME_DIMS
100
AcDbLine
 62
2
  6
CONTINUOUS
 10
5.0228969505
 20
2.9725262206
 11
4.4265970457
 21
2.9725262206
  0
LINE
  5
3FC
100
AcDbEntity
  8
SCHEME_DIMS
100
AcDbLine
 62
2
  6
CONTINUOUS
 10
6.1402037725
 20
3.7225262206
 11
4.4265970457
 21
3.7225262206
  0
LINE
  5
3FD
100
AcDbEntity
  8
SCHEME_DIMS
100
AcDbLine
 62
2
  6
CONTINUOUS
 10
4.5515970457
 20
2.9725262206
 11
4.5515970457
 21
2.5725262206
  0
LINE
  5
3FE
100
AcDbEntity
  8
SCHEME_DIMS
100
AcDbLine
 62
2
  6
CONTINUOUS
 10
4.5515970457
 20
3.7225262206
 11
4.5515970457
 21
4.1225262206
  0
INSERT
  5
3FF
100
AcDbEntity
  8
SCHEME_DIMS
100
AcDbBlockReference
 62
2
  6
CONTINUOUS
  2
_FILLED
 10
4.5515970457
 20
2.9725262206
 41
0.1875
 42
0.1875
 43
0.1875
 50
90.0
  0
INSERT
  5
400
100
AcDbEntity
  8
SCHEME_DIMS
100
AcDbBlockReference
 62
2
  6
CONTINUOUS
  2
_FILLED
 10
4.5515970457
 20
3.7225262206
 41
0.1875
 42
0.1875
 43
0.1875
 50
270.0
  0
ENDBLK
  5
401
100
AcDbEntity
  8
0
  6
BYBLOCK
 62
0
100
AcDbBlockEnd
  0
BLOCK
  5
402
100
AcDbEntity
  8
SCHEME_DIMS
100
AcDbBlockBegin
 62
2
  6
CONTINUOUS
  2
*D3
 70
65
 10
0.0
 20
0.0
  3
*D3
  1

  0
MTEXT
  5
403
100
AcDbEntity
  8
SCHEME_DIMS
100
AcDbMText
 62
2
  6
CONTINUOUS
  7
STANDARD
 71
2
 72
1
 10
6.2015970457
 20
5.3835506671
 30
0.0
 11
1.0
 21
0.0
 31
0.0
 44
0.9
  1
63,5\P[2.50]
 40
0.1
 41
0.6
  0
LINE
  5
404
100
AcDbEntity
  8
SCHEME_DIMS
100
AcDbLine
 62
2
  6
CONTINUOUS
 10
5.0515970457
 20
6.3410361489
 11
5.0515970457
 21
5.2085506671
  0
LINE
  5
405
100
AcDbEntity
  8
SCHEME_DIMS
100
AcDbLine
 62
2
  6
CONTINUOUS
 10
7.5515970457
 20
6.3395586241
 11
7.5515970457
 21
5.2085506671
  0
LINE
  5
406
100
AcDbEntity
  8
SCHEME_DIMS
100
AcDbLine
 62
2
  6
CONTINUOUS
 10
5.0515970457
 20
5.3335506671
 11
5.9015970457
 21
5.3335506671
  0
LINE
  5
407
100
AcDbEntity
  8
SCHEME_DIMS
100
AcDbLine
 62
2
  6
CONTINUOUS
 10
7.5515970457
 20
5.3335506671
 11
6.7015970457
 21
5.3335506671
  0
INSERT
  5
408
100
AcDbEntity
  8
SCHEME_DIMS
100
AcDbBlockReference
 62
2
  6
CONTINUOUS
  2
_FILLED
 10
5.0515970457
 20
5.3335506671
 41
0.1875
 42
0.1875
 43
0.1875
 50
180.0
  0
INSERT
  5
409
100
AcDbEntity
  8
SCHEME_DIMS
100
AcDbBlockReference
 62
2
  6
CONTINUOUS
  2
_FILLED
 10
7.5515970457
 20
5.3335506671
 41
0.1875
 42
0.1875
 43
0.1875
  0
ENDBLK
  5
40A
100
AcDbEntity
  8
0
  6
BYBLOCK
 62
0
100
AcDbBlockEnd
  0
BLOCK
  5
40B
100
AcDbEntity
  8
SCHEME_DIMS
100
AcDbBlockBegin
 62
2
  6
CONTINUOUS
  2
*D4
 70
65
 10
0.0
 20
0.0
  3
*D4
  1

  0
MTEXT
  5
40C
100
AcDbEntity
  8
SCHEME_DIMS
100
AcDbMText
 62
2
  6
CONTINUOUS
  7
STANDARD
 71
2
 72
1
 10
7.9515970457
 20
3.2514021022
 30
0.0
 11
1.0
 21
0.0
 31
0.0
 44
0.9
  1
7,6\P[.30]
 40
0.1
 41
0.5
  0
LINE
  5
40D
100
AcDbEntity
  8
SCHEME_DIMS
100
AcDbLine
 62
2
  6
CONTINUOUS
 10
7.5861896307
 20
2.9725262206
 11
8.1765970457
 21
2.9725262206
  0
LINE
  5
40E
100
AcDbEntity
  8
SCHEME_DIMS
100
AcDbLine
 62
2
  6
CONTINUOUS
 10
6.80122758
 20
3.2725262206
 11
8.1765970457
 21
3.2725262206
  0
LINE
  5
40F
100
AcDbEntity
  8
SCHEME_DIMS
100
AcDbLine
 62
2
  6
CONTINUOUS
 10
8.0515970457
 20
2.9725262206
 11
8.0515970457
 21
2.5725262206
  0
LINE
  5
410
100
AcDbEntity
  8
SCHEME_DIMS
100
AcDbLine
 62
2
  6
CONTINUOUS
 10
8.0515970457
 20
3.2725262206
 11
8.0515970457
 21
3.6725262206
  0
INSERT
  5
411
100
AcDbEntity
  8
SCHEME_DIMS
100
AcDbBlockReference
 62
2
  6
CONTINUOUS
  2
_FILLED
 10
8.0515970457
 20
2.9725262206
 41
0.1875
 42
0.1875
 43
0.1875
 50
90.0
  0
INSERT
  5
412
100
AcDbEntity
  8
SCHEME_DIMS
100
AcDbBlockReference
 62
2
  6
CONTINUOUS
  2
_FILLED
 10
8.0515970457
 20
3.2725262206
 41
0.1875
 42
0.1875
 43
0.1875
 50
270.0
  0
ENDBLK
  5
413
100
AcDbEntity
  8
0
  6
BYBLOCK
 62
0
100
AcDbBlockEnd
  0
BLOCK
  5
414
100
AcDbEntity
  8
SCHEME_DIMS
100
AcDbBlockBegin
 62
2
  6
CONTINUOUS
  2
*D5
 70
65
 10
0.0
 20
0.0
  3
*D5
  1

  0
MTEXT
  5
415
100
AcDbEntity
  8
SCHEME_DIMS
100
AcDbMText
 62
2
  6
CONTINUOUS
  7
STANDARD
 71
3
 72
1
 10
4.1015970457
 20
6.9851225782
 30
0.0
 11
1.0
 21
0.0
 31
0.0
 44
0.9
  1
4X \Fgdt;{\Fgdt;n}\Ftxt;5,5\P[.22]
 40
0.1
 41
0.7333333333
  0
LINE
  5
416
100
AcDbEntity
  8
SCHEME_DIMS
100
AcDbLine
 62
2
  6
CONTINUOUS
 10
5.2095990269
 20
6.517008896
 11
4.5515970457
 21
6.9351225782
  0
LINE
  5
417
100
AcDbEntity
  8
SCHEME_DIMS
100
AcDbLine
 62
2
  6
CONTINUOUS
 10
4.5515970457
 20
6.9351225782
 11
4.4015970457
 21
6.9351225782
  0
INSERT
  5
418
100
AcDbEntity
  8
SCHEME_DIMS
100
AcDbBlockReference
 62
2
  6
CONTINUOUS
  2
_FILLED
 10
5.2095990269
 20
6.517008896
 41
0.1875
 42
0.1875
 43
0.1875
 50
327.5669305892
  0
ENDBLK
  5
419
100
AcDbEntity
  8
0
  6
BYBLOCK
 62
0
100
AcDbBlockEnd
  0
BLOCK
  5
41A
100
AcDbEntity
  8
SCHEME_DIMS
100
AcDbBlockBegin
 62
2
  6
CONTINUOUS
  2
*D6
 70
65
 10
0.0
 20
0.0
  3
*D6
  1

  0
MTEXT
  5
41B
100
AcDbEntity
  8
SCHEME_DIMS
100
AcDbMText
 62
2
  6
CONTINUOUS
  7
STANDARD
 71
2
 72
1
 10
8.3748656979
 20
7.9296946568
 30
0.0
 11
1.0
 21
0.0
 31
0.0
 44
0.9
  1
63,5\P[2.50]
 40
0.1
 41
0.6
  0
LINE
  5
41C
100
AcDbEntity
  8
SCHEME_DIMS
100
AcDbLine
 62
2
  6
CONTINUOUS
 10
7.4363281304
 20
6.2085506671
 11
8.5998656979
 21
6.2085506671
  0
LINE
  5
41D
100
AcDbEntity
  8
SCHEME_DIMS
100
AcDbLine
 62
2
  6
CONTINUOUS
 10
7.41963898
 20
8.7085506671
 11
8.5998656979
 21
8.7085506671
  0
LINE
  5
41E
100
AcDbEntity
  8
SCHEME_DIMS
100
AcDbLine
 62
2
  6
CONTINUOUS
 10
8.4748656979
 20
6.2085506671
 11
8.4748656979
 21
7.5796946568
  0
LINE
  5
41F
100
AcDbEntity
  8
SCHEME_DIMS
100
AcDbLine
 62
2
  6
CONTINUOUS
 10
8.4748656979
 20
8.7085506671
 11
8.4748656979
 21
8.0296946568
  0
INSERT
  5
420
100
AcDbEntity
  8
SCHEME_DIMS
100
AcDbBlockReference
 62
2
  6
CONTINUOUS
  2
_FILLED
 10
8.4748656979
 20
6.2085506671
 41
0.1875
 42
0.1875
 43
0.1875
 50
270.0
  0
INSERT
  5
421
100
AcDbEntity
  8
SCHEME_DIMS
100
AcDbBlockReference
 62
2
  6
CONTINUOUS
  2
_FILLED
 10
8.4748656979
 20
8.7085506671
 41
0.1875
 42
0.1875
 43
0.1875
 50
90.0
  0
ENDBLK
  5
422
100
AcDbEntity
  8
0
  6
BYBLOCK
 62
0
100
AcDbBlockEnd
  0
BLOCK
  5
423
100
AcDbEntity
  8
SCHEME_DIMS
100
AcDbBlockBegin
 62
2
  6
CONTINUOUS
  2
*D7
 70
65
 10
0.0
 20
0.0
  3
*D7
  1

  0
MTEXT
  5
424
100
AcDbEntity
  8
SCHEME_DIMS
100
AcDbMText
 62
2
  6
CONTINUOUS
  7
STANDARD
 71
2
 72
1
 10
6.2015970457
 20
9.2585506671
 30
0.0
 11
1.0
 21
0.0
 31
0.0
 44
0.9
  1
50,8\P[2.00]
 40
0.1
 41
0.6
  0
LINE
  5
425
100
AcDbEntity
  8
SCHEME_DIMS
100
AcDbLine
 62
2
  6
CONTINUOUS
 10
5.3015970457
 20
8.6632441352
 11
5.3015970457
 21
9.3335506671
  0
LINE
  5
426
100
AcDbEntity
  8
SCHEME_DIMS
100
AcDbLine
 62
2
  6
CONTINUOUS
 10
7.3015970457
 20
8.6810607839
 11
7.3015970457
 21
9.3335506671
  0
LINE
  5
427
100
AcDbEntity
  8
SCHEME_DIMS
100
AcDbLine
 62
2
  6
CONTINUOUS
 10
5.3015970457
 20
9.2085506671
 11
5.9015970457
 21
9.2085506671
  0
LINE
  5
428
100
AcDbEntity
  8
SCHEME_DIMS
100
AcDbLine
 62
2
  6
CONTINUOUS
 10
7.3015970457
 20
9.2085506671
 11
6.7015970457
 21
9.2085506671
  0
INSERT
  5
429
100
AcDbEntity
  8
SCHEME_DIMS
100
AcDbBlockReference
 62
2
  6
CONTINUOUS
  2
_FILLED
 10
5.3015970457
 20
9.2085506671
 41
0.1875
 42
0.1875
 43
0.1875
 50
180.0
  0
INSERT
  5
42A
100
AcDbEntity
  8
SCHEME_DIMS
100
AcDbBlockReference
 62
2
  6
CONTINUOUS
  2
_FILLED
 10
7.3015970457
 20
9.2085506671
 41
0.1875
 42
0.1875
 43
0.1875
  0
ENDBLK
  5
42B
100
AcDbEntity
  8
0
  6
BYBLOCK
 62
0
100
AcDbBlockEnd
  0
BLOCK
  5
42C
100
AcDbEntity
  8
SCHEME_DIMS
100
AcDbBlockBegin
 62
2
  6
CONTINUOUS
  2
*D8
 70
65
 10
0.0
 20
0.0
  3
*D8
  1

  0
MTEXT
  5
42D
100
AcDbEntity
  8
SCHEME_DIMS
100
AcDbMText
 62
2
  6
CONTINUOUS
  7
STANDARD
 71
2
 72
1
 10
4.4515970457
 20
9.3534474455
 30
0.0
 11
1.0
 21
0.0
 31
0.0
 44
0.9
  1
6,4\P[.25]
 40
0.1
 41
0.5
  0
LINE
  5
42E
100
AcDbEntity
  8
SCHEME_DIMS
100
AcDbLine
 62
2
  6
CONTINUOUS
 10
5.0969035776
 20
8.4585506671
 11
4.4265970457
 21
8.4585506671
  0
LINE
  5
42F
100
AcDbEntity
  8
SCHEME_DIMS
100
AcDbLine
 62
2
  6
CONTINUOUS
 10
5.1719785454
 20
8.7085506671
 11
4.4265970457
 21
8.7085506671
  0
LINE
  5
430
100
AcDbEntity
  8
SCHEME_DIMS
100
AcDbLine
 62
2
  6
CONTINUOUS
 10
4.5515970457
 20
8.4585506671
 11
4.5515970457
 21
8.0585506671
  0
LINE
  5
431
100
AcDbEntity
  8
SCHEME_DIMS
100
AcDbLine
 62
2
  6
CONTINUOUS
 10
4.5515970457
 20
8.7085506671
 11
4.5515970457
 21
9.0034474455
  0
INSERT
  5
432
100
AcDbEntity
  8
SCHEME_DIMS
100
AcDbBlockReference
 62
2
  6
CONTINUOUS
  2
_FILLED
 10
4.5515970457
 20
8.4585506671
 41
0.1875
 42
0.1875
 43
0.1875
 50
90.0
  0
INSERT
  5
433
100
AcDbEntity
  8
SCHEME_DIMS
100
AcDbBlockReference
 62
2
  6
CONTINUOUS
  2
_FILLED
 10
4.5515970457
 20
8.7085506671
 41
0.1875
 42
0.1875
 43
0.1875
 50
270.0
  0
ENDBLK
  5
434
100
AcDbEntity
  8
0
  6
BYBLOCK
 62
0
100
AcDbBlockEnd
  0
BLOCK
  5
435
100
AcDbEntity
  8
SCHEME_DIMS
100
AcDbBlockBegin
 62
2
  6
CONTINUOUS
  2
*D9
 70
65
 10
0.0
 20
0.0
  3
*D9
  1

  0
MTEXT
  5
436
100
AcDbEntity
  8
SCHEME_DIMS
100
AcDbMText
 62
2
  6
CONTINUOUS
  7
STANDARD
 71
2
 72
1
 10
4.0765970457
 20
8.1335506671
 30
0.0
 11
1.0
 21
0.0
 31
0.0
 44
0.9
  1
31,8\P[1.25]
 40
0.1
 41
0.6
  0
LINE
  5
437
100
AcDbEntity
  8
SCHEME_DIMS
100
AcDbLine
 62
2
  6
CONTINUOUS
 10
6.0140970457
 20
7.4585506671
 11
4.0515970457
 21
7.4585506671
  0
LINE
  5
438
100
AcDbEntity
  8
SCHEME_DIMS
100
AcDbLine
 62
2
  6
CONTINUOUS
 10
5.0733508126
 20
8.7085506671
 11
4.0515970457
 21
8.7085506671
  0
LINE
  5
439
100
AcDbEntity
  8
SCHEME_DIMS
100
AcDbLine
 62
2
  6
CONTINUOUS
 10
4.1765970457
 20
7.4585506671
 11
4.1765970457
 21
7.7835506671
  0
LINE
  5
43A
100
AcDbEntity
  8
SCHEME_DIMS
100
AcDbLine
 62
2
  6
CONTINUOUS
 10
4.1765970457
 20
8.7085506671
 11
4.1765970457
 21
8.2335506671
  0
INSERT
  5
43B
100
AcDbEntity
  8
SCHEME_DIMS
100
AcDbBlockReference
 62
2
  6
CONTINUOUS
  2
_FILLED
 10
4.1765970457
 20
7.4585506671
 41
0.1875
 42
0.1875
 43
0.1875
 50
270.0
  0
INSERT
  5
43C
100
AcDbEntity
  8
SCHEME_DIMS
100
AcDbBlockReference
 62
2
  6
CONTINUOUS
  2
_FILLED
 10
4.1765970457
 20
8.7085506671
 41
0.1875
 42
0.1875
 43
0.1875
 50
90.0
  0
ENDBLK
  5
43D
100
AcDbEntity
  8
0
  6
BYBLOCK
 62
0
100
AcDbBlockEnd
  0
ENDSEC
  0
SECTION
  2
ENTITIES
  0
MTEXT
  5
43E
100
AcDbEntity
  8
0
100
AcDbMText
 62
2
  6
CONTINUOUS
  7
TEXTSTYLE_2
 71
2
 72
1
 10
11.0287658475
 20
1.794867839
 30
0.0
 11
1.0
 21
0.0
 31
0.0
 44
0.9
  1
THIRD ANGLE PROJECTION
 40
0.1
 41
1.76
  0
MTEXT
  5
43F
100
AcDbEntity
  8
0
100
AcDbMText
 62
2
  6
CONTINUOUS
  7
STANDARD
 71
1
 72
1
 10
12.88
 20
1.457
 30
0.0
 11
1.0
 21
0.0
 31
0.0
 44
0.9
  1
DRAWING NO.
 40
0.08
 41
0.88
  0
MTEXT
  5
440
100
AcDbEntity
  8
0
100
AcDbMText
 62
2
  6
CONTINUOUS
  7
TEXTSTYLE_3
 71
2
 72
1
 10
11.03
 20
2.516432
 30
0.0
 11
1.0
 21
0.0
 31
0.0
 44
0.9
  1
and is proprietary in general
 40
0.08
 41
1.972
  0
MTEXT
  5
441
100
AcDbEntity
  8
0
100
AcDbMText
 62
2
  6
CONTINUOUS
  7
TEXTSTYLE_3
 71
2
 72
1
 10
11.03
 20
2.396432
 30
0.0
 11
1.0
 21
0.0
 31
0.0
 44
0.9
  1
and in detail.  Its contents
 40
0.08
 41
1.904
  0
MTEXT
  5
442
100
AcDbEntity
  8
0
100
AcDbMText
 62
2
  6
CONTINUOUS
  7
TEXTSTYLE_3
 71
2
 72
1
 10
11.03
 20
2.276432
 30
0.0
 11
1.0
 21
0.0
 31
0.0
 44
0.9
  1
shall not be revealed to
 40
0.08
 41
1.632
  0
MTEXT
  5
443
100
AcDbEntity
  8
0
100
AcDbMText
 62
2
  6
CONTINUOUS
  7
TEXTSTYLE_3
 71
2
 72
1
 10
11.03
 20
2.156432
 30
0.0
 11
1.0
 21
0.0
 31
0.0
 44
0.9
  1
outside parties without
 40
0.08
 41
1.564
  0
MTEXT
  5
444
100
AcDbEntity
  8
0
100
AcDbMText
 62
2
  6
CONTINUOUS
  7
TEXTSTYLE_3
 71
2
 72
1
 10
11.03
 20
2.036432
 30
0.0
 11
1.0
 21
0.0
 31
0.0
 44
0.9
  1
written consent of BANNER.
 40
0.08
 41
1.768
  0
MTEXT
  5
445
100
AcDbEntity
  8
0
100
AcDbMText
 62
2
  6
CONTINUOUS
  7
TEXTSTYLE_2
 71
1
 72
1
 10
12.08
 20
2.217
 30
0.0
 11
1.0
 21
0.0
 31
0.0
 44
0.9
  1
TITLE
 40
0.1
 41
0.4
  0
MTEXT
  5
446
100
AcDbEntity
  8
0
100
AcDbMText
 62
2
  6
CONTINUOUS
  7
STANDARD
 71
1
 72
1
 10
12.08
 20
1.457
 30
0.0
 11
1.0
 21
0.0
 31
0.0
 44
0.9
  1
SIZE
 40
0.08
 41
0.32
  0
MTEXT
  5
447
100
AcDbEntity
  8
0
100
AcDbMText
 62
2
  6
CONTINUOUS
  7
STANDARD
 71
1
 72
1
 10
12.08
 20
1.087
 30
0.0
 11
1.0
 21
0.0
 31
0.0
 44
0.9
  1
SCALE
 40
0.08
 41
0.4
  0
MTEXT
  5
448
100
AcDbEntity
  8
0
100
AcDbMText
 62
2
  6
CONTINUOUS
  7
TEXTSTYLE_2
 71
2
 72
1
 10
12.5
 20
1.337
 30
0.0
 11
1.0
 21
0.0
 31
0.0
 44
0.9
  1
B
 40
0.1
 41
0.08
  0
MTEXT
  5
449
100
AcDbEntity
  8
0
100
AcDbMText
 62
2
  6
CONTINUOUS
  7
TEXTSTYLE_3
 71
2
 72
1
 10
11.03
 20
2.636432
 30
0.0
 11
1.0
 21
0.0
 31
0.0
 44
0.9
  1
of BANNER ENGINEERING CORP.
 40
0.08
 41
1.836
  0
MTEXT
  5
44A
100
AcDbEntity
  8
0
100
AcDbMText
 62
2
  6
CONTINUOUS
  7
TEXTSTYLE_3
 71
2
 72
1
 10
11.03
 20
2.756432
 30
0.0
 11
1.0
 21
0.0
 31
0.0
 44
0.9
  1
This drawing is the property
 40
0.08
 41
1.904
  0
MTEXT
  5
44B
100
AcDbEntity
  8
0
100
AcDbMText
 62
2
  6
CONTINUOUS
  7
TEXTSTYLE_2
 71
2
 72
1
 10
15.03
 20
2.4134
 30
0.0
 11
1.0
 21
0.0
 31
0.0
 44
0.9
  1
MINNEAPOLIS, MN 55440
 40
0.1
 41
1.68
  0
MTEXT
  5
44C
100
AcDbEntity
  8
0
100
AcDbMText
 62
2
  6
CONTINUOUS
  7
STANDARD
 71
1
 72
1
 10
14.255
 20
1.087
 30
0.0
 11
1.0
 21
0.0
 31
0.0
 44
0.9
  1
SHEET
 40
0.08
 41
0.4
  0
MTEXT
  5
44D
100
AcDbEntity
  8
0
100
AcDbMText
 62
2
  6
CONTINUOUS
  7
STANDARD
 71
1
 72
1
 10
15.63
 20
1.457
 30
0.0
 11
1.0
 21
0.0
 31
0.0
 44
0.9
  1
REV.
 40
0.08
 41
0.32
  0
MTEXT
  5
44E
100
AcDbEntity
  8
0
100
AcDbMText
 62
2
  6
CONTINUOUS
  7
STANDARD
 71
3
 72
1
 10
16.38
 20
0.835443
 30
0.0
 11
1.0
 21
0.0
 31
0.0
 44
0.9
  1
PRO/E
 40
0.07
 41
0.35
  0
MTEXT
  5
44F
100
AcDbEntity
  8
0
100
AcDbMText
 62
2
  6
CONTINUOUS
  7
TEXTSTYLE_4
 71
2
 72
1
 10
15.03
 20
2.751049
 30
0.0
 11
1.0
 21
0.0
 31
0.0
 44
0.9
  1
BANNER ENGINEERING CORP.
 40
0.12
 41
2.6496
  0
MTEXT
  5
450
100
AcDbEntity
  8
0
100
AcDbMText
 62
2
  6
CONTINUOUS
  7
TEXTSTYLE_2
 71
2
 72
1
 10
15.03
 20
2.5724
 30
0.0
 11
1.0
 21
0.0
 31
0.0
 44
0.9
  1
P.O. BOX 9414
 40
0.1
 41
1.04
  0
MTEXT
  5
451
100
AcDbEntity
  8
0
100
AcDbMText
 62
2
  6
CONTINUOUS
  7
TEXTSTYLE_2
 71
2
 72
1
 10
9.485
 20
10.312
 30
0.0
 11
1.0
 21
0.0
 31
0.0
 44
0.9
  1
4
 40
0.1
 41
0.08
  0
MTEXT
  5
452
100
AcDbEntity
  8
0
100
AcDbMText
 62
2
  6
CONTINUOUS
  7
TEXTSTYLE_2
 71
2
 72
1
 10
11.455
 20
10.312
 30
0.0
 11
1.0
 21
0.0
 31
0.0
 44
0.9
  1
3
 40
0.1
 41
0.08
  0
MTEXT
  5
453
100
AcDbEntity
  8
0
100
AcDbMText
 62
2
  6
CONTINUOUS
  7
TEXTSTYLE_2
 71
2
 72
1
 10
13.425
 20
10.312
 30
0.0
 11
1.0
 21
0.0
 31
0.0
 44
0.9
  1
2
 40
0.1
 41
0.08
  0
MTEXT
  5
454
100
AcDbEntity
  8
0
100
AcDbMText
 62
2
  6
CONTINUOUS
  7
TEXTSTYLE_2
 71
2
 72
1
 10
15.395
 20
10.312
 30
0.0
 11
1.0
 21
0.0
 31
0.0
 44
0.9
  1
1
 40
0.1
 41
0.08
  0
MTEXT
  5
455
100
AcDbEntity
  8
0
100
AcDbMText
 62
2
  6
CONTINUOUS
  7
TEXTSTYLE_2
 71
2
 72
1
 10
3.575
 20
10.312
 30
0.0
 11
1.0
 21
0.0
 31
0.0
 44
0.9
  1
7
 40
0.1
 41
0.08
  0
MTEXT
  5
456
100
AcDbEntity
  8
0
100
AcDbMText
 62
2
  6
CONTINUOUS
  7
TEXTSTYLE_2
 71
2
 72
1
 10
5.545
 20
10.312
 30
0.0
 11
1.0
 21
0.0
 31
0.0
 44
0.9
  1
6
 40
0.1
 41
0.08
  0
MTEXT
  5
457
100
AcDbEntity
  8
0
100
AcDbMText
 62
2
  6
CONTINUOUS
  7
TEXTSTYLE_2
 71
2
 72
1
 10
7.515
 20
10.312
 30
0.0
 11
1.0
 21
0.0
 31
0.0
 44
0.9
  1
5
 40
0.1
 41
0.08
  0
MTEXT
  5
458
100
AcDbEntity
  8
0
100
AcDbMText
 62
2
  6
CONTINUOUS
  7
TEXTSTYLE_2
 71
2
 72
1
 10
1.605
 20
10.312
 30
0.0
 11
1.0
 21
0.0
 31
0.0
 44
0.9
  1
8
 40
0.1
 41
0.08
  0
MTEXT
  5
459
100
AcDbEntity
  8
0
100
AcDbMText
 62
2
  6
CONTINUOUS
  7
TEXTSTYLE_2
 71
2
 72
1
 10
1.605
 20
0.787
 30
0.0
 11
1.0
 21
0.0
 31
0.0
 44
0.9
  1
8
 40
0.1
 41
0.08
  0
MTEXT
  5
45A
100
AcDbEntity
  8
0
100
AcDbMText
 62
2
  6
CONTINUOUS
  7
TEXTSTYLE_2
 71
2
 72
1
 10
3.575
 20
0.787
 30
0.0
 11
1.0
 21
0.0
 31
0.0
 44
0.9
  1
7
 40
0.1
 41
0.08
  0
MTEXT
  5
45B
100
AcDbEntity
  8
0
100
AcDbMText
 62
2
  6
CONTINUOUS
  7
TEXTSTYLE_2
 71
2
 72
1
 10
5.545
 20
0.787
 30
0.0
 11
1.0
 21
0.0
 31
0.0
 44
0.9
  1
6
 40
0.1
 41
0.08
  0
MTEXT
  5
45C
100
AcDbEntity
  8
0
100
AcDbMText
 62
2
  6
CONTINUOUS
  7
TEXTSTYLE_2
 71
2
 72
1
 10
7.515
 20
0.787
 30
0.0
 11
1.0
 21
0.0
 31
0.0
 44
0.9
  1
5
 40
0.1
 41
0.08
  0
MTEXT
  5
45D
100
AcDbEntity
  8
0
100
AcDbMText
 62
2
  6
CONTINUOUS
  7
TEXTSTYLE_2
 71
2
 72
1
 10
9.485
 20
0.787
 30
0.0
 11
1.0
 21
0.0
 31
0.0
 44
0.9
  1
4
 40
0.1
 41
0.08
  0
MTEXT
  5
45E
100
AcDbEntity
  8
0
100
AcDbMText
 62
2
  6
CONTINUOUS
  7
TEXTSTYLE_2
 71
2
 72
1
 10
11.455
 20
0.787
 30
0.0
 11
1.0
 21
0.0
 31
0.0
 44
0.9
  1
3
 40
0.1
 41
0.08
  0
MTEXT
  5
45F
100
AcDbEntity
  8
0
100
AcDbMText
 62
2
  6
CONTINUOUS
  7
TEXTSTYLE_2
 71
2
 72
1
 10
13.425
 20
0.787
 30
0.0
 11
1.0
 21
0.0
 31
0.0
 44
0.9
  1
2
 40
0.1
 41
0.08
  0
MTEXT
  5
460
100
AcDbEntity
  8
0
100
AcDbMText
 62
2
  6
CONTINUOUS
  7
TEXTSTYLE_2
 71
2
 72
1
 10
15.395
 20
0.787
 30
0.0
 11
1.0
 21
0.0
 31
0.0
 44
0.9
  1
1
 40
0.1
 41
0.08
  0
MTEXT
  5
461
100
AcDbEntity
  8
0
100
AcDbMText
 62
2
  6
CONTINUOUS
  7
TEXTSTYLE_2
 71
3
 72
1
 10
0.52
 20
4.3995
 30
0.0
 11
1.0
 21
0.0
 31
0.0
 44
0.9
  1
B
 40
0.1
 41
0.08
  0
MTEXT
  5
462
100
AcDbEntity
  8
0
100
AcDbMText
 62
2
  6
CONTINUOUS
  7
TEXTSTYLE_2
 71
3
 72
1
 10
0.52
 20
2.0995
 30
0.0
 11
1.0
 21
0.0
 31
0.0
 44
0.9
  1
A
 40
0.1
 41
0.08
  0
MTEXT
  5
463
100
AcDbEntity
  8
0
100
AcDbMText
 62
2
  6
CONTINUOUS
  7
TEXTSTYLE_2
 71
3
 72
1
 10
0.52
 20
8.9995
 30
0.0
 11
1.0
 21
0.0
 31
0.0
 44
0.9
  1
D
 40
0.1
 41
0.08
  0
MTEXT
  5
464
100
AcDbEntity
  8
0
100
AcDbMText
 62
2
  6
CONTINUOUS
  7
TEXTSTYLE_2
 71
3
 72
1
 10
0.52
 20
6.6995
 30
0.0
 11
1.0
 21
0.0
 31
0.0
 44
0.9
  1
C
 40
0.1
 41
0.08
  0
MTEXT
  5
465
100
AcDbEntity
  8
0
100
AcDbMText
 62
2
  6
CONTINUOUS
  7
TEXTSTYLE_2
 71
1
 72
1
 10
16.48
 20
8.9995
 30
0.0
 11
1.0
 21
0.0
 31
0.0
 44
0.9
  1
D
 40
0.1
 41
0.08
  0
MTEXT
  5
466
100
AcDbEntity
  8
0
100
AcDbMText
 62
2
  6
CONTINUOUS
  7
TEXTSTYLE_2
 71
1
 72
1
 10
16.48
 20
6.6995
 30
0.0
 11
1.0
 21
0.0
 31
0.0
 44
0.9
  1
C
 40
0.1
 41
0.08
  0
MTEXT
  5
467
100
AcDbEntity
  8
0
100
AcDbMText
 62
2
  6
CONTINUOUS
  7
TEXTSTYLE_2
 71
1
 72
1
 10
16.48
 20
4.3995
 30
0.0
 11
1.0
 21
0.0
 31
0.0
 44
0.9
  1
B
 40
0.1
 41
0.08
  0
MTEXT
  5
468
100
AcDbEntity
  8
0
100
AcDbMText
 62
2
  6
CONTINUOUS
  7
TEXTSTYLE_2
 71
1
 72
1
 10
16.48
 20
2.0995
 30
0.0
 11
1.0
 21
0.0
 31
0.0
 44
0.9
  1
A
 40
0.1
 41
0.08
  0
MTEXT
  5
469
100
AcDbEntity
  8
0
100
AcDbMText
 62
2
  6
CONTINUOUS
  7
STANDARD
 71
1
 72
1
 10
14.819264911
 20
1.0627941725
 30
0.0
 11
1.0
 21
0.0
 31
0.0
 44
0.9
  1
1 OF 1
 40
0.1
 41
0.6
  0
MTEXT
  5
46A
100
AcDbEntity
  8
0
100
AcDbMText
 62
7
  6
CONTINUOUS
  7
STANDARD
 71
1
 72
1
 10
13.8911999818
 20
1.3747321586
 30
0.0
 11
1.0
 21
0.0
 31
0.0
 44
0.9
  1
156622
 40
0.12
 41
0.72
  0
MTEXT
  5
46B
100
AcDbEntity
  8
0
100
AcDbMText
 62
2
  6
CONTINUOUS
  7
STANDARD
 71
1
 72
1
 10
12.644264911
 20
1.0627941725
 30
0.0
 11
1.0
 21
0.0
 31
0.0
 44
0.9
  1
1:1
 40
0.1
 41
0.3
  0
MTEXT
  5
46C
100
AcDbEntity
  8
0
100
AcDbMText
 62
2
  6
CONTINUOUS
  7
STANDARD
 71
1
 72
1
 10
1.0597007627
 20
1.6202922458
 30
0.0
 11
1.0
 21
0.0
 31
0.0
 44
0.9
  1
NOTES:\P1. ALL DIMENSIONS ARE MILLIMETERS [INCHES] UNLESS OTHERWISE NOTED.
 40
0.1
 41
6.6
  0
INSERT
  5
46D
100
AcDbEntity
  8
0
100
AcDbBlockReference
 62
2
  6
CONTINUOUS
  2
BANNER_LOGO_TITLEBLOCK_BL0
 10
12.9086867042
 20
2.5403783405
  0
DIMENSION
  5
46E
100
AcDbEntity
  8
SCHEME_DIMS
100
AcDbDimension
 62
2
  6
CONTINUOUS
  2
*D0
 10
6.3015970457
 20
5.7085506671
 11
5.5515970457
 21
5.6335506671
 70
160
 71
2
 42
31.75
  3
DIMSTYLE_1
100
AcDbAlignedDimension
 13
5.0515970457
 23
6.307896117
 14
6.3015970457
 24
7.1710506671
100
AcDbRotatedDimension
  0
DIMENSION
  5
46F
100
AcDbEntity
  8
SCHEME_DIMS
100
AcDbDimension
 62
2
  6
CONTINUOUS
  2
*D1
 10
8.0515970457
 20
8.4585506671
 11
7.9265970457
 21
7.4585506671
 70
160
 71
2
 42
50.8
  3
DIMSTYLE_1
100
AcDbAlignedDimension
 13
7.7140970457
 23
6.4585506671
 14
7.7140970457
 24
8.4585506671
 50
90.0
100
AcDbRotatedDimension
  0
DIMENSION
  5
470
100
AcDbEntity
  8
SCHEME_DIMS
100
AcDbDimension
 62
2
  6
CONTINUOUS
  2
*D2
 10
4.5515970457
 20
3.7225262206
 11
4.4265970457
 21
3.3475262206
 70
160
 71
2
 42
19.05
  3
DIMSTYLE_1
100
AcDbAlignedDimension
 13
5.0228969505
 23
2.9725262206
 14
6.1402037725
 24
3.7225262206
 50
90.0
100
AcDbRotatedDimension
  0
DIMENSION
  5
471
100
AcDbEntity
  8
SCHEME_DIMS
100
AcDbDimension
 62
2
  6
CONTINUOUS
  2
*D3
 10
7.5515970457
 20
5.3335506671
 11
6.1765970457
 21
5.2585506671
 70
160
 71
2
 42
63.5
  3
DIMSTYLE_1
100
AcDbAlignedDimension
 13
5.0515970457
 23
6.3410361489
 14
7.5515970457
 24
6.3395586241
100
AcDbRotatedDimension
  0
DIMENSION
  5
472
100
AcDbEntity
  8
SCHEME_DIMS
100
AcDbDimension
 62
2
  6
CONTINUOUS
  2
*D4
 10
8.0515970457
 20
3.2725262206
 11
7.9515970457
 21
3.1264021022
 70
160
 71
2
 42
7.62
  3
DIMSTYLE_1
100
AcDbAlignedDimension
 13
7.5861896307
 23
2.9725262206
 14
6.80122758
 24
3.2725262206
 50
90.0
100
AcDbRotatedDimension
  0
DIMENSION
  5
473
100
AcDbEntity
  8
SCHEME_DIMS
100
AcDbDimension
 62
2
  6
CONTINUOUS
  2
*D5
 10
5.2095990269
 20
6.517008896
 11
3.6349303791
 21
6.8601225782
 70
163
 71
3
 42
5.5372
  1
4X <>
  3
DIMSTYLE_2
100
AcDbDiametricDimension
 15
5.3935950646
 25
6.4000924382
  0
DIMENSION
  5
474
100
AcDbEntity
  8
SCHEME_DIMS
100
AcDbDimension
 62
2
  6
CONTINUOUS
  2
*D6
 10
8.4748656979
 20
8.7085506671
 11
8.3498656979
 21
7.8046946568
 70
160
 71
2
 42
63.5
  3
DIMSTYLE_1
100
AcDbAlignedDimension
 13
7.4363281304
 23
6.2085506671
 14
7.41963898
 24
8.7085506671
 50
90.0
100
AcDbRotatedDimension
  0
DIMENSION
  5
475
100
AcDbEntity
  8
SCHEME_DIMS
100
AcDbDimension
 62
2
  6
CONTINUOUS
  2
*D7
 10
7.3015970457
 20
9.2085506671
 11
6.1765970457
 21
9.1335506671
 70
160
 71
2
 42
50.8
  3
DIMSTYLE_1
100
AcDbAlignedDimension
 13
5.3015970457
 23
8.6632441352
 14
7.3015970457
 24
8.6810607839
100
AcDbRotatedDimension
  0
DIMENSION
  5
476
100
AcDbEntity
  8
SCHEME_DIMS
100
AcDbDimension
 62
2
  6
CONTINUOUS
  2
*D8
 10
4.5515970457
 20
8.7085506671
 11
4.4515970457
 21
9.2284474455
 70
160
 71
2
 42
6.35
  3
DIMSTYLE_1
100
AcDbAlignedDimension
 13
5.0969035776
 23
8.4585506671
 14
5.1719785454
 24
8.7085506671
 50
90.0
100
AcDbRotatedDimension
  0
DIMENSION
  5
477
100
AcDbEntity
  8
SCHEME_DIMS
100
AcDbDimension
 62
2
  6
CONTINUOUS
  2
*D9
 10
4.1765970457
 20
8.7085506671
 11
4.0515970457
 21
8.0085506671
 70
160
 71
2
 42
31.75
  3
DIMSTYLE_1
100
AcDbAlignedDimension
 13
6.0140970457
 23
7.4585506671
 14
5.0733508126
 24
8.7085506671
 50
90.0
100
AcDbRotatedDimension
  0
LINE
  5
478
100
AcDbEntity
  8
0
100
AcDbLine
 62
2
  6
CONTINUOUS
 10
16.38
 20
0.887
 11
12.03
 21
0.887
  0
LINE
  5
479
100
AcDbEntity
  8
0
100
AcDbLine
 62
2
  6
CONTINUOUS
 10
16.38
 20
0.887
 11
16.38
 21
2.807
  0
LINE
  5
47A
100
AcDbEntity
  8
0
100
AcDbLine
 62
2
  6
CONTINUOUS
 10
16.38
 20
2.807
 11
12.03
 21
2.807
  0
LINE
  5
47B
100
AcDbEntity
  8
0
100
AcDbLine
 62
2
  6
CONTINUOUS
 10
12.03
 20
0.887
 11
12.03
 21
2.807
  0
MTEXT
  5
47C
100
AcDbEntity
  8
NOTES
100
AcDbMText
 62
7
  6
CONTINUOUS
  7
STANDARD
 71
2
 72
1
 10
14.205
 20
1.967
 30
0.0
 11
1.0
 21
0.0
 31
0.0
 44
0.9
  1
SMBPPKB\PWEB CAD DRAWINGS 2D/3D
 40
0.1
 41
2.2
  0
MTEXT
  5
47D
100
AcDbEntity
  8
NOTES
100
AcDbMText
 62
2
  6
CONTINUOUS
  7
STANDARD
 71
2
 72
1
 10
13.1202549238
 20
5.446804674
 30
0.0
 11
1.0
 21
0.0
 31
0.0
 44
0.9
  1
ISOMETRIC VIEW\PSCALE  1:1
 40
0.1
 41
1.4
  0
LEADER
  5
47E
100
AcDbEntity
  8
NOTES
100
AcDbLeader
 62
2
  6
CONTINUOUS
  3
STANDARD
 71
1
 72
0
 73
0
 75
0
 40
0.1
 41
1.2
 76
3
 10
6.4265970457
 20
3.6608163838
 30
0.0
 10
6.9584406955
 20
4.1723226274
 30
0.0
 10
7.2084406955
 20
4.1723226274
 30
0.0
340
47F
1001
ACAD
1000
DSTYLE
1002
{
1070
77
1070
0
1002
}
  0
MTEXT
  5
47F
102
{ACAD_REACTORS
330
47E
102
}
100
AcDbEntity
  8
NOTES
100
AcDbMText
 62
2
  6
CONTINUOUS
  7
STANDARD
 71
1
 72
1
 10
7.2084406955
 20
4.2223226274
 30
0.0
 11
1.0
 21
0.0
 31
0.0
 44
0.9
  1
1/4-20UNC-2A
 40
0.1
 41
1.2
  0
LINE
  5
480
100
AcDbEntity
  8
0
100
AcDbLine
 62
2
  6
CONTINUOUS
 10
0.47
 20
5.586103
 11
0.47
 21
5.412897
  0
LINE
  5
481
100
AcDbEntity
  8
0
100
AcDbLine
 62
2
  6
CONTINUOUS
 10
0.62
 20
10.112
 11
0.62
 21
0.887
  0
LINE
  5
482
100
AcDbEntity
  8
0
100
AcDbLine
 62
2
  6
CONTINUOUS
 10
2.59
 20
0.887
 11
2.59
 21
0.637
  0
LINE
  5
483
100
AcDbEntity
  8
0
100
AcDbLine
 62
2
  6
CONTINUOUS
 10
2.59
 20
10.112
 11
2.59
 21
10.362
  0
LINE
  5
484
100
AcDbEntity
  8
0
100
AcDbLine
 62
2
  6
CONTINUOUS
 10
8.413397
 20
0.737
 11
8.586603
 21
0.737
  0
LINE
  5
485
100
AcDbEntity
  8
0
100
AcDbLine
 62
7
  6
CONTINUOUS
 10
11.1389508475
 20
1.425992839
 11
11.7453418475
 21
1.495385839
  0
LINE
  5
486
100
AcDbEntity
  8
0
100
AcDbLine
 62
2
  6
CONTINUOUS
 10
0.62
 20
0.887
 11
16.38
 21
0.887
  0
LINE
  5
487
100
AcDbEntity
  8
0
100
AcDbLine
 62
2
  6
CONTINUOUS
 10
12.03
 20
1.137
 11
16.38
 21
1.137
  0
LINE
  5
488
100
AcDbEntity
  8
0
100
AcDbLine
 62
7
  6
CONTINUOUS
 10
10.2121898475
 20
1.243294839
 11
10.4342808475
 21
1.243294839
  0
LINE
  5
489
100
AcDbEntity
  8
0
100
AcDbLine
 62
7
  6
CONTINUOUS
 10
10.4842808475
 20
1.243294839
 11
10.5842808475
 21
1.243294839
  0
LINE
  5
48A
100
AcDbEntity
  8
0
100
AcDbLine
 62
7
  6
CONTINUOUS
 10
10.6342808475
 20
1.243294839
 11
10.8563718475
 21
1.243294839
  0
LINE
  5
48B
100
AcDbEntity
  8
0
100
AcDbLine
 62
7
  6
CONTINUOUS
 10
11.0389508475
 20
1.243294839
 11
11.3171028475
 21
1.243294839
  0
LINE
  5
48C
100
AcDbEntity
  8
0
100
AcDbLine
 62
7
  6
CONTINUOUS
 10
11.3671028475
 20
1.243294839
 11
11.5171888475
 21
1.243294839
  0
LINE
  5
48D
100
AcDbEntity
  8
0
100
AcDbLine
 62
7
  6
CONTINUOUS
 10
11.5671888475
 20
1.243294839
 11
11.8453418475
 21
1.243294839
  0
LINE
  5
48E
100
AcDbEntity
  8
0
100
AcDbLine
 62
7
  6
CONTINUOUS
 10
11.7453418475
 20
0.991203839
 11
11.1389508475
 21
1.060596839
  0
LINE
  5
48F
100
AcDbEntity
  8
0
100
AcDbLine
 62
2
  6
CONTINUOUS
 10
4.56
 20
0.887
 11
4.56
 21
0.637
  0
LINE
  5
490
100
AcDbEntity
  8
0
100
AcDbLine
 62
2
  6
CONTINUOUS
 10
4.56
 20
10.112
 11
4.56
 21
10.362
  0
LINE
  5
491
100
AcDbEntity
  8
0
100
AcDbLine
 62
2
  6
CONTINUOUS
 10
0.47
 20
5.412897
 11
0.62
 21
5.4995
  0
LINE
  5
492
100
AcDbEntity
  8
0
100
AcDbLine
 62
2
  6
CONTINUOUS
 10
12.03
 20
1.507
 11
16.38
 21
1.507
  0
LINE
  5
493
100
AcDbEntity
  8
0
100
AcDbLine
 62
2
  6
CONTINUOUS
 10
10.03
 20
1.907
 11
12.03
 21
1.907
  0
LINE
  5
494
100
AcDbEntity
  8
0
100
AcDbLine
 62
2
  6
CONTINUOUS
 10
0.62
 20
5.4995
 11
0.47
 21
5.586103
  0
LINE
  5
495
100
AcDbEntity
  8
0
100
AcDbLine
 62
2
  6
CONTINUOUS
 10
12.03
 20
2.267
 11
16.38
 21
2.267
  0
LINE
  5
496
100
AcDbEntity
  8
0
100
AcDbLine
 62
2
  6
CONTINUOUS
 10
8.5
 20
10.112
 11
8.586603
 21
10.262
  0
LINE
  5
497
100
AcDbEntity
  8
0
100
AcDbLine
 62
2
  6
CONTINUOUS
 10
16.38
 20
2.807
 11
10.03
 21
2.807
  0
LINE
  5
498
100
AcDbEntity
  8
0
100
AcDbLine
 62
2
  6
CONTINUOUS
 10
0.62
 20
3.1995
 11
0.37
 21
3.1995
  0
LINE
  5
499
100
AcDbEntity
  8
0
100
AcDbLine
 62
2
  6
CONTINUOUS
 10
16.38
 20
3.1995
 11
16.63
 21
3.1995
  0
LINE
  5
49A
100
AcDbEntity
  8
0
100
AcDbLine
 62
2
  6
CONTINUOUS
 10
8.586603
 20
0.737
 11
8.5
 21
0.887
  0
LINE
  5
49B
100
AcDbEntity
  8
0
100
AcDbLine
 62
2
  6
CONTINUOUS
 10
6.53
 20
0.887
 11
6.53
 21
0.637
  0
LINE
  5
49C
100
AcDbEntity
  8
0
100
AcDbLine
 62
2
  6
CONTINUOUS
 10
6.53
 20
10.112
 11
6.53
 21
10.362
  0
LINE
  5
49D
100
AcDbEntity
  8
0
100
AcDbLine
 62
2
  6
CONTINUOUS
 10
8.5
 20
0.887
 11
8.5
 21
0.637
  0
LINE
  5
49E
100
AcDbEntity
  8
0
100
AcDbLine
 62
2
  6
CONTINUOUS
 10
8.5
 20
10.112
 11
8.5
 21
10.362
  0
LINE
  5
49F
100
AcDbEntity
  8
0
100
AcDbLine
 62
2
  6
CONTINUOUS
 10
0.62
 20
5.4995
 11
0.37
 21
5.4995
  0
LINE
  5
4A0
100
AcDbEntity
  8
0
100
AcDbLine
 62
2
  6
CONTINUOUS
 10
16.38
 20
5.4995
 11
16.63
 21
5.4995
  0
LINE
  5
4A1
100
AcDbEntity
  8
0
100
AcDbLine
 62
2
  6
CONTINUOUS
 10
10.03
 20
2.807
 11
10.03
 21
0.887
  0
LINE
  5
4A2
100
AcDbEntity
  8
0
100
AcDbLine
 62
2
  6
CONTINUOUS
 10
10.47
 20
0.887
 11
10.47
 21
0.637
  0
LINE
  5
4A3
100
AcDbEntity
  8
0
100
AcDbLine
 62
2
  6
CONTINUOUS
 10
10.47
 20
10.112
 11
10.47
 21
10.362
  0
LINE
  5
4A4
100
AcDbEntity
  8
0
100
AcDbLine
 62
7
  6
CONTINUOUS
 10
10.5342808475
 20
1.143294839
 11
10.5342808475
 21
0.921203839
  0
LINE
  5
4A5
100
AcDbEntity
  8
0
100
AcDbLine
 62
7
  6
CONTINUOUS
 10
10.5342808475
 20
1.193294839
 11
10.5342808475
 21
1.293294839
  0
LINE
  5
4A6
100
AcDbEntity
  8
0
100
AcDbLine
 62
7
  6
CONTINUOUS
 10
10.5342808475
 20
1.343294839
 11
10.5342808475
 21
1.565385839
  0
LINE
  5
4A7
100
AcDbEntity
  8
0
100
AcDbLine
 62
2
  6
CONTINUOUS
 10
8.5
 20
0.887
 11
8.413397
 21
0.737
  0
LINE
  5
4A8
100
AcDbEntity
  8
0
100
AcDbLine
 62
2
  6
CONTINUOUS
 10
0.62
 20
7.7995
 11
0.37
 21
7.7995
  0
LINE
  5
4A9
100
AcDbEntity
  8
0
100
AcDbLine
 62
2
  6
CONTINUOUS
 10
16.38
 20
7.7995
 11
16.63
 21
7.7995
  0
LINE
  5
4AA
100
AcDbEntity
  8
0
100
AcDbLine
 62
2
  6
CONTINUOUS
 10
8.413397
 20
10.262
 11
8.5
 21
10.112
  0
LINE
  5
4AB
100
AcDbEntity
  8
0
100
AcDbLine
 62
7
  6
CONTINUOUS
 10
11.1389508475
 20
1.060596839
 11
11.1389508475
 21
1.425992839
  0
LINE
  5
4AC
100
AcDbEntity
  8
0
100
AcDbLine
 62
7
  6
CONTINUOUS
 10
11.7453418475
 20
1.495385839
 11
11.7453418475
 21
0.991203839
  0
LINE
  5
4AD
100
AcDbEntity
  8
0
100
AcDbLine
 62
1
  6
CONTINUOUS
 10
12.03
 20
2.807
 11
12.03
 21
0.887
  0
LINE
  5
4AE
100
AcDbEntity
  8
0
100
AcDbLine
 62
2
  6
CONTINUOUS
 10
12.44
 20
0.887
 11
12.44
 21
0.637
  0
LINE
  5
4AF
100
AcDbEntity
  8
0
100
AcDbLine
 62
2
  6
CONTINUOUS
 10
12.44
 20
10.112
 11
12.44
 21
10.362
  0
LINE
  5
4B0
100
AcDbEntity
  8
0
100
AcDbLine
 62
2
  6
CONTINUOUS
 10
16.53
 20
5.586103
 11
16.38
 21
5.4995
  0
LINE
  5
4B1
100
AcDbEntity
  8
0
100
AcDbLine
 62
2
  6
CONTINUOUS
 10
16.38
 20
5.4995
 11
16.53
 21
5.412897
  0
LINE
  5
4B2
100
AcDbEntity
  8
0
100
AcDbLine
 62
2
  6
CONTINUOUS
 10
12.83
 20
1.507
 11
12.83
 21
1.137
  0
LINE
  5
4B3
100
AcDbEntity
  8
0
100
AcDbLine
 62
2
  6
CONTINUOUS
 10
16.38
 20
10.112
 11
0.62
 21
10.112
  0
LINE
  5
4B4
100
AcDbEntity
  8
0
100
AcDbLine
 62
2
  6
CONTINUOUS
 10
8.586603
 20
10.262
 11
8.413397
 21
10.262
  0
LINE
  5
4B5
100
AcDbEntity
  8
0
100
AcDbLine
 62
2
  6
CONTINUOUS
 10
14.205
 20
1.137
 11
14.205
 21
0.887
  0
LINE
  5
4B6
100
AcDbEntity
  8
0
100
AcDbLine
 62
2
  6
CONTINUOUS
 10
14.41
 20
0.887
 11
14.41
 21
0.637
  0
LINE
  5
4B7
100
AcDbEntity
  8
0
100
AcDbLine
 62
2
  6
CONTINUOUS
 10
14.41
 20
10.112
 11
14.41
 21
10.362
  0
LINE
  5
4B8
100
AcDbEntity
  8
0
100
AcDbLine
 62
2
  6
CONTINUOUS
 10
15.58
 20
1.507
 11
15.58
 21
1.137
  0
LINE
  5
4B9
100
AcDbEntity
  8
0
100
AcDbLine
 62
2
  6
CONTINUOUS
 10
16.38
 20
0.887
 11
16.38
 21
10.112
  0
LINE
  5
4BA
100
AcDbEntity
  8
0
100
AcDbLine
 62
2
  6
CONTINUOUS
 10
16.53
 20
5.412897
 11
16.53
 21
5.586103
  0
LWPOLYLINE
  5
4BB
100
AcDbEntity
  8
0
100
AcDbPolyline
 62
7
  6
CONTINUOUS
 90
5
 70
0
 10
11.4560561564
 20
6.5417142054
 10
11.4576134255
 20
6.5255531566
 10
11.4700708726
 20
6.4940426408
 10
11.4943608654
 20
6.4649225762
 10
11.5292654021
 20
6.4396531644
  0
LINE
  5
4BC
100
AcDbEntity
  8
0
100
AcDbLine
 62
7
  6
CONTINUOUS
 10
11.4560413614
 20
6.5417142028
 11
11.4560413614
 21
6.5907043479
  0
LWPOLYLINE
  5
4BD
100
AcDbEntity
  8
0
100
AcDbPolyline
 62
7
  6
CONTINUOUS
 90
5
 70
0
 10
11.4560561564
 20
6.5907043504
 10
11.4576134255
 20
6.5745433017
 10
11.4700708726
 20
6.5430327858
 10
11.4943608654
 20
6.5139127212
 10
11.5292654021
 20
6.4886433094
  0
LINE
  5
4BE
100
AcDbEntity
  8
0
100
AcDbLine
 62
9
  6
CONTINUOUS
 10
11.5292654021
 20
6.4396531644
 11
11.5292654021
 21
6.4886433094
  0
LWPOLYLINE
  5
4BF
100
AcDbEntity
  8
0
100
AcDbPolyline
 62
7
  6
CONTINUOUS
 90
11
 70
0
 10
11.5970462349
 20
6.5907182755
 10
11.5988268733
 20
6.5793605902
 10
11.6066444644
 20
6.5648767163
 10
11.6202386419
 20
6.5518938505
 10
11.6388193615
 20
6.5411665097
 10
11.6613067794
 20
6.533318128
 10
11.6863940087
 20
6.5288048248
 10
11.7126230706
 20
6.5278888969
 10
11.7384696275
 20
6.5306235747
 10
11.7624315715
 20
6.5368499286
 10
11.7831163214
 20
6.5462061056
  0
LWPOLYLINE
  5
4C0
100
AcDbEntity
  8
0
100
AcDbPolyline
 62
7
  6
CONTINUOUS
 90
11
 70
0
 10
11.8150364879
 20
6.5906904203
 10
11.8132558495
 20
6.6020481055
 10
11.8054382584
 20
6.6165319794
 10
11.7918440809
 20
6.6295148453
 10
11.7732633613
 20
6.6402421861
 10
11.7507759434
 20
6.6480905678
 10
11.7256887141
 20
6.652603871
 10
11.6994596522
 20
6.6535197989
 10
11.6736130953
 20
6.6507851211
 10
11.6496511513
 20
6.6445587671
 10
11.6289664014
 20
6.6352025901
  0
LINE
  5
4C1
100
AcDbEntity
  8
0
100
AcDbLine
 62
7
  6
CONTINUOUS
 10
11.956040741
 20
6.6767340549
 11
11.9560419818
 21
6.5046758415
  0
LWPOLYLINE
  5
4C2
100
AcDbEntity
  8
0
100
AcDbPolyline
 62
7
  6
CONTINUOUS
 90
6
 70
0
 10
11.956040741
 20
6.6767340549
 10
11.9596278783
 20
6.7004447735
 10
11.9705711974
 20
6.7236322161
 10
11.9881496684
 20
6.7452163822
 10
12.0113721439
 20
6.7650280656
 10
12.0387761074
 20
6.7828076963
  0
LWPOLYLINE
  5
4C3
100
AcDbEntity
  8
0
100
AcDbPolyline
 62
7
  6
CONTINUOUS
 90
10
 70
0
 10
11.805931675
 20
6.5666276674
 10
11.8054382584
 20
6.5675418344
 10
11.7918440809
 20
6.5805247002
 10
11.7732633613
 20
6.591252041
 10
11.7507759434
 20
6.5991004227
 10
11.7256887141
 20
6.6036137259
 10
11.6994596522
 20
6.6045296538
 10
11.6736130953
 20
6.6017949761
 10
11.6496511513
 20
6.5955686221
 10
11.6289664014
 20
6.5862124451
  0
LWPOLYLINE
  5
4C4
100
AcDbEntity
  8
0
100
AcDbPolyline
 62
7
  6
CONTINUOUS
 90
5
 70
0
 10
11.5292639301
 20
6.6927645365
 10
11.4943597578
 20
6.6674949569
 10
11.4700701851
 20
6.6383747755
 10
11.4576131924
 20
6.6068641998
 10
11.4560561564
 20
6.5907043504
  0
LWPOLYLINE
  5
4C5
100
AcDbEntity
  8
0
100
AcDbPolyline
 62
7
  6
CONTINUOUS
 90
5
 70
0
 10
11.6289664014
 20
6.6352025901
 10
11.6127609679
 20
6.623260337
 10
11.6019766519
 20
6.6094260481
 10
11.5972401986
 20
6.5945037221
 10
11.5970462349
 20
6.5907182755
  0
LWPOLYLINE
  5
4C6
100
AcDbEntity
  8
0
100
AcDbPolyline
 62
7
  6
CONTINUOUS
 90
3
 70
0
 10
11.6289664014
 20
6.5862124451
 10
11.6127609679
 20
6.574270192
 10
11.6061510478
 20
6.5657908833
  0
LINE
  5
4C7
100
AcDbEntity
  8
0
100
AcDbLine
 62
7
  6
CONTINUOUS
 10
12.9434716045
 20
7.5092528442
 11
11.5292639301
 21
6.6927645365
  0
LWPOLYLINE
  5
4C8
100
AcDbEntity
  8
0
100
AcDbPolyline
 62
7
  6
CONTINUOUS
 90
8
 70
0
 10
12.9434848524
 20
5.6231716553
 10
12.9872536739
 20
5.6030200102
 10
13.0376920286
 20
5.5889966193
 10
13.092270727
 20
5.581804674
 10
13.148252965
 20
5.5818048086
 10
13.2028315596
 20
5.5889970162
 10
13.2532697121
 20
5.6030206496
 10
13.297038243
 20
5.6231725052
  0
LWPOLYLINE
  5
4C9
100
AcDbEntity
  8
0
100
AcDbPolyline
 62
7
  6
CONTINUOUS
 90
8
 70
0
 10
12.9434848524
 20
5.6721618004
 10
12.9872536739
 20
5.6520101552
 10
13.0376920286
 20
5.6379867643
 10
13.092270727
 20
5.630794819
 10
13.148252965
 20
5.6307949536
 10
13.2028315596
 20
5.6379871612
 10
13.2532697121
 20
5.6520107946
 10
13.297038243
 20
5.6721626502
  0
LINE
  5
4CA
100
AcDbEntity
  8
0
100
AcDbLine
 62
7
  6
CONTINUOUS
 10
11.5292654021
 20
6.4396531644
 11
12.9434848524
 21
5.6231716553
  0
LWPOLYLINE
  5
4CB
100
AcDbEntity
  8
0
100
AcDbPolyline
 62
7
  6
CONTINUOUS
 90
5
 70
0
 10
11.7831163214
 20
6.5462061056
 10
11.7993217549
 20
6.5581483588
 10
11.8101060709
 20
6.5719826476
 10
11.8148425242
 20
6.5869049737
 10
11.8150364879
 20
6.5906904203
  0
LWPOLYLINE
  5
4CC
100
AcDbEntity
  8
0
100
AcDbPolyline
 62
7
  6
CONTINUOUS
 90
5
 70
0
 10
13.0431740758
 20
7.4516908979
 10
13.0269686424
 20
7.4397486447
 10
13.0161843264
 20
7.4259143559
 10
13.011447873
 20
7.4109920298
 10
13.0112539093
 20
7.4072065832
  0
LINE
  5
4CD
100
AcDbEntity
  8
0
100
AcDbLine
 62
7
  6
CONTINUOUS
 10
11.5292654021
 20
6.4886433094
 11
12.9434848524
 21
5.6721618004
  0
LWPOLYLINE
  5
4CE
100
AcDbEntity
  8
0
100
AcDbPolyline
 62
7
  6
CONTINUOUS
 90
3
 70
0
 10
13.0431740758
 20
7.4027007528
 10
13.0269686424
 20
7.3907584997
 10
13.0203587223
 20
7.3822791911
  0
LINE
  5
4CF
100
AcDbEntity
  8
0
100
AcDbLine
 62
7
  6
CONTINUOUS
 10
12.7875142959
 20
7.2150893107
 11
12.0387761074
 21
6.7828076963
  0
LWPOLYLINE
  5
4D0
100
AcDbEntity
  8
0
100
AcDbPolyline
 62
7
  6
CONTINUOUS
 90
6
 70
0
 10
12.7875142959
 20
7.2150893107
 10
12.818315637
 20
7.2309135924
 10
12.8526239696
 20
7.2443180943
 10
12.8900046607
 20
7.2544661897
 10
12.9301726705
 20
7.260785615
 10
12.9712411629
 20
7.2628567936
  0
LINE
  5
4D1
100
AcDbEntity
  8
0
100
AcDbLine
 62
7
  6
CONTINUOUS
 10
12.9712508568
 20
5.9185579845
 11
13.2692686858
 21
5.9185587009
  0
LWPOLYLINE
  5
4D2
100
AcDbEntity
  8
0
100
AcDbPolyline
 62
7
  6
CONTINUOUS
 90
5
 70
0
 10
12.9712508568
 20
5.9185579845
 10
12.9256672255
 20
5.9211189395
 10
12.8782794055
 20
5.929666985
 10
12.8313850365
 20
5.9449033337
 10
12.7875232521
 20
5.9663246125
  0
LINE
  5
4D3
100
AcDbEntity
  8
0
100
AcDbLine
 62
7
  6
CONTINUOUS
 10
12.0387789176
 20
6.3986025762
 11
12.7875232521
 21
5.9663246125
  0
LWPOLYLINE
  5
4D4
100
AcDbEntity
  8
0
100
AcDbPolyline
 62
7
  6
CONTINUOUS
 90
6
 70
0
 10
12.0387789176
 20
6.3986025762
 10
12.0113700499
 20
6.4163854843
 10
11.9881524306
 20
6.4361931306
 10
11.9705751511
 20
6.4577745817
 10
11.9596294211
 20
6.480965271
 10
11.9560419818
 20
6.5046758415
  0
LWPOLYLINE
  5
4D5
100
AcDbEntity
  8
0
100
AcDbPolyline
 62
9
  6
CONTINUOUS
 90
3
 70
0
 10
12.6118606148
 20
6.8009011753
 10
12.607729983
 20
6.7661464498
 10
12.6118614309
 20
6.7323493717
  0
LWPOLYLINE
  5
4D6
100
AcDbEntity
  8
0
100
AcDbPolyline
 62
9
  6
CONTINUOUS
 90
3
 70
0
 10
12.6217314231
 20
6.8377240659
 10
12.6159139138
 20
6.8196938906
 10
12.6118623486
 20
6.8009007617
  0
LINE
  5
4D7
100
AcDbEntity
  8
0
100
AcDbLine
 62
7
  6
CONTINUOUS
 10
13.03767015
 20
7.1871595596
 11
13.0245500004
 21
7.1752639312
  0
LWPOLYLINE
  5
4D8
100
AcDbEntity
  8
0
100
AcDbPolyline
 62
7
  6
CONTINUOUS
 90
5
 70
0
 10
13.1973239959
 20
7.3626944134
 10
13.2135294293
 20
7.3746366665
 10
13.2243137453
 20
7.3884709554
 10
13.2290501986
 20
7.4033932814
 10
13.2292441623
 20
7.407178728
  0
LWPOLYLINE
  5
4D9
100
AcDbEntity
  8
0
100
AcDbPolyline
 62
7
  6
CONTINUOUS
 90
5
 70
0
 10
13.0495717145
 20
7.2006499042
 10
13.0265582876
 20
7.189858036
 10
13.0092115054
 20
7.1761863271
 10
12.9985677024
 20
7.1605137224
 10
12.9952549238
 20
7.1449086741
  0
LWPOLYLINE
  5
4DA
100
AcDbEntity
  8
0
100
AcDbPolyline
 62
9
  6
CONTINUOUS
 90
3
 70
0
 10
12.7661256485
 20
6.8139699912
 10
12.7642888989
 20
6.7866749392
 10
12.7661258012
 20
6.7593645965
  0
LWPOLYLINE
  5
4DB
100
AcDbEntity
  8
0
100
AcDbPolyline
 62
9
  6
CONTINUOUS
 90
3
 70
0
 10
12.7710449045
 20
6.8265851206
 10
12.7677912913
 20
6.8203231525
 10
12.7661256485
 20
6.8139699912
  0
LWPOLYLINE
  5
4DC
100
AcDbEntity
  8
0
100
AcDbPolyline
 62
7
  6
CONTINUOUS
 90
8
 70
0
 10
13.0245500004
 20
7.1752639312
 10
13.0167192213
 20
7.1619716152
 10
13.0144257488
 20
7.1486065128
 10
13.0171619477
 20
7.1354697058
 10
13.024876422
 20
7.1226879445
 10
13.0372588933
 20
7.1110490285
 10
13.0535607916
 20
7.1012156599
 10
13.0729640797
 20
7.0935737247
  0
LWPOLYLINE
  5
4DD
100
AcDbEntity
  8
0
100
AcDbPolyline
 62
7
  6
CONTINUOUS
 90
9
 70
0
 10
13.215782068
 20
7.1093041222
 10
13.1968642043
 20
7.0966454954
 10
13.1734741449
 20
7.0868364018
 10
13.1468802591
 20
7.0804118025
 10
13.1185369817
 20
7.0777212308
 10
13.0899994613
 20
7.0789080746
 10
13.0628392817
 20
7.083902681
 10
13.0385604043
 20
7.0924255056
 10
13.0185136484
 20
7.104002621
  0
LWPOLYLINE
  5
4DE
100
AcDbEntity
  8
0
100
AcDbPolyline
 62
9
  6
CONTINUOUS
 90
12
 70
0
 10
12.6217350184
 20
6.6929266328
 10
12.5891485422
 20
6.6718213196
 10
12.5531333419
 20
6.6502660168
 10
12.5136134442
 20
6.6280444079
 10
12.4703492169
 20
6.6048723998
 10
12.4229999002
 20
6.5804653297
 10
12.3714400364
 20
6.5546900965
 10
12.315319932
 20
6.5273279673
 10
12.254377293
 20
6.4982265755
 10
12.1882565329
 20
6.4672043938
 10
12.1165404708
 20
6.4340639382
 10
12.0387783443
 20
6.3986029495
  0
LWPOLYLINE
  5
4DF
100
AcDbEntity
  8
0
100
AcDbPolyline
 62
7
  6
CONTINUOUS
 90
9
 70
0
 10
13.2086436394
 20
7.0785692482
 10
13.1848772194
 20
7.0668800861
 10
13.1568868521
 20
7.0586976821
 10
13.1271210004
 20
7.0546928908
 10
13.0975716582
 20
7.0548564881
 10
13.0692856204
 20
7.0590043226
 10
13.0437016392
 20
7.0669172237
 10
13.0225441385
 20
7.0780300597
 10
13.0066069167
 20
7.0920377389
  0
LWPOLYLINE
  5
4E0
100
AcDbEntity
  8
0
100
AcDbPolyline
 62
7
  6
CONTINUOUS
 90
9
 70
0
 10
13.2086436394
 20
7.0540741757
 10
13.1848531052
 20
7.0423757289
 10
13.156832746
 20
7.0341912777
 10
13.1270403886
 20
7.0301927552
 10
13.0974914605
 20
7.0303674316
 10
13.0691715247
 20
7.0345348078
 10
13.0435062915
 20
7.0425019902
 10
13.0223700575
 20
7.0536525272
 10
13.0065145463
 20
7.0676524512
  0
LWPOLYLINE
  5
4E1
100
AcDbEntity
  8
0
100
AcDbPolyline
 62
7
  6
CONTINUOUS
 90
9
 70
0
 10
13.2086436394
 20
7.0295791032
 10
13.1848373345
 20
7.0178745866
 10
13.1567972968
 20
7.0096887893
 10
13.1269885621
 20
7.0056944435
 10
13.0974463409
 20
7.0058757573
 10
13.0690418147
 20
7.0100688847
 10
13.0433066249
 20
7.01808888
 10
13.0221995794
 20
7.029273102
 10
13.0064290295
 20
7.0432594859
  0
LWPOLYLINE
  5
4E2
100
AcDbEntity
  8
0
100
AcDbPolyline
 62
9
  6
CONTINUOUS
 90
11
 70
0
 10
13.2456960682
 20
7.0531346748
 10
13.2666136587
 20
7.0627730026
 10
13.2863743827
 20
7.0736263958
 10
13.30549246
 20
7.0857556804
 10
13.3245100611
 20
7.0992638082
 10
13.343802009
 20
7.1142389551
 10
13.3636743841
 20
7.1307950649
 10
13.3843397611
 20
7.149028036
 10
13.4059902805
 20
7.1690558337
 10
13.4288109351
 20
7.1910211092
 10
13.4529865736
 20
7.2150908725
  0
LWPOLYLINE
  5
4E3
100
AcDbEntity
  8
0
100
AcDbPolyline
 62
9
  6
CONTINUOUS
 90
8
 70
0
 10
12.9950578782
 20
6.9726005812
 10
12.9628653456
 20
6.9612436856
 10
12.9223490328
 20
6.9434559528
 10
12.883899906
 20
6.923128996
 10
12.84868888
 20
6.9009288997
 10
12.8178790435
 20
6.877537126
 10
12.791964106
 20
6.8530512472
 10
12.7710449045
 20
6.8265851206
  0
LWPOLYLINE
  5
4E4
100
AcDbEntity
  8
0
100
AcDbPolyline
 62
9
  6
CONTINUOUS
 90
9
 70
0
 10
12.6217335501
 20
6.6929228653
 10
12.637953883
 20
6.6468585304
 10
12.6643163584
 20
6.6055939125
 10
12.7003452218
 20
6.5689799799
 10
12.7454029519
 20
6.5376290674
 10
12.7982450871
 20
6.5124577475
 10
12.8574981116
 20
6.4940608333
 10
12.9226956046
 20
6.4824674614
 10
12.9948580217
 20
6.4775040406
  0
LWPOLYLINE
  5
4E5
100
AcDbEntity
  8
0
100
AcDbPolyline
 62
9
  6
CONTINUOUS
 90
3
 70
0
 10
12.6118638372
 20
6.7323486779
 10
12.6159211542
 20
6.7130441786
 10
12.6217351536
 20
6.6929257411
  0
LINE
  5
4E6
100
AcDbEntity
  8
0
100
AcDbLine
 62
9
  6
CONTINUOUS
 10
13.2448814925
 20
7.0524476373
 11
13.2456605691
 21
7.0531406805
  0
LWPOLYLINE
  5
4E7
100
AcDbEntity
  8
0
100
AcDbPolyline
 62
7
  6
CONTINUOUS
 90
7
 70
0
 10
13.2057283816
 20
7.1096755048
 10
13.2222367046
 20
7.1234098064
 10
13.2322796677
 20
7.1390895556
 10
13.235220415
 20
7.1557208213
 10
13.2308722109
 20
7.1722491896
 10
13.21951043
 20
7.187626728
 10
13.2018551164
 20
7.2008783896
  0
LINE
  5
4E8
100
AcDbEntity
  8
0
100
AcDbLine
 62
7
  6
CONTINUOUS
 10
13.2086436394
 20
7.0785692482
 11
13.2275336676
 21
7.0935187612
  0
LWPOLYLINE
  5
4E9
100
AcDbEntity
  8
0
100
AcDbPolyline
 62
7
  6
CONTINUOUS
 90
3
 70
0
 10
13.2086436394
 20
6.9546977998
 10
13.2272034812
 20
6.9693104281
 10
13.2395998231
 20
6.9861513686
  0
LWPOLYLINE
  5
4EA
100
AcDbEntity
  8
0
100
AcDbPolyline
 62
7
  6
CONTINUOUS
 90
3
 70
0
 10
13.2086436394
 20
6.9791928723
 10
13.2271793355
 20
6.9937810154
 10
13.2395524796
 20
7.0105539262
  0
LWPOLYLINE
  5
4EB
100
AcDbEntity
  8
0
100
AcDbPolyline
 62
7
  6
CONTINUOUS
 90
3
 70
0
 10
13.2086436394
 20
7.0036879448
 10
13.2271482604
 20
7.0182446055
 10
13.2394993119
 20
7.0349455901
  0
LINE
  5
4EC
100
AcDbEntity
  8
0
100
AcDbLine
 62
7
  6
CONTINUOUS
 10
13.2270753558
 20
7.0916560943
 11
13.2086436394
 21
7.0771731623
  0
LWPOLYLINE
  5
4ED
100
AcDbEntity
  8
0
100
AcDbPolyline
 62
7
  6
CONTINUOUS
 90
3
 70
0
 10
13.2086436394
 20
7.0526780898
 10
13.2270518423
 20
7.0671372817
 10
13.2394421877
 20
7.0838251978
  0
LWPOLYLINE
  5
4EE
100
AcDbEntity
  8
0
100
AcDbPolyline
 62
7
  6
CONTINUOUS
 90
3
 70
0
 10
13.2086436394
 20
7.0281830173
 10
13.2259642894
 20
7.0415644331
 10
13.2380650674
 20
7.056823549
  0
LWPOLYLINE
  5
4EF
100
AcDbEntity
  8
0
100
AcDbPolyline
 62
7
  6
CONTINUOUS
 90
9
 70
0
 10
13.2086436394
 20
6.8826086681
 10
13.1850420674
 20
6.870983095
 10
13.1577051975
 20
6.8629104148
 10
13.1284346276
 20
6.8588190819
 10
13.0984130069
 20
6.8588346566
 10
13.0689748535
 20
6.8631135367
 10
13.0427627812
 20
6.8713435399
 10
13.021727231
 20
6.8826259228
 10
13.0062094751
 20
6.8965532945
  0
LWPOLYLINE
  5
4F0
100
AcDbEntity
  8
0
100
AcDbPolyline
 62
7
  6
CONTINUOUS
 90
9
 70
0
 10
13.2086436394
 20
6.9071037406
 10
13.1849953509
 20
6.895460126
 10
13.1575401713
 20
6.8873702467
 10
13.1282960928
 20
6.8833046242
 10
13.0982859623
 20
6.8833387604
 10
13.0688656661
 20
6.8876332677
 10
13.0426789097
 20
6.8958735689
 10
13.0216603695
 20
6.9071670924
 10
13.0062337346
 20
6.9210190195
  0
LWPOLYLINE
  5
4F1
100
AcDbEntity
  8
0
100
AcDbPolyline
 62
7
  6
CONTINUOUS
 90
9
 70
0
 10
13.2086436394
 20
6.9315988131
 10
13.1849205616
 20
6.91992635
 10
13.1571078248
 20
6.9117736902
 10
13.1276035341
 20
6.9077533952
 10
13.0977541434
 20
6.9078724791
 10
13.0685003209
 20
6.9122113657
 10
13.0424810762
 20
6.9204513539
 10
13.0215656728
 20
6.9317275984
 10
13.0062539688
 20
6.9454896428
  0
LWPOLYLINE
  5
4F2
100
AcDbEntity
  8
0
100
AcDbPolyline
 62
7
  6
CONTINUOUS
 90
9
 70
0
 10
13.2086436394
 20
6.9805889582
 10
13.1848706197
 20
6.9688972545
 10
13.1568730614
 20
6.9607145022
 10
13.1270934112
 20
6.9567108645
 10
13.097361507
 20
6.9568920282
 10
13.0682658123
 20
6.9612552243
 10
13.0423519074
 20
6.9694956997
 10
13.02147447
 20
6.9807809248
 10
13.0061295154
 20
6.9946305815
  0
LWPOLYLINE
  5
4F3
100
AcDbEntity
  8
0
100
AcDbPolyline
 62
7
  6
CONTINUOUS
 90
9
 70
0
 10
13.2086436394
 20
6.9560938856
 10
13.184896375
 20
6.9444121021
 10
13.1569659587
 20
6.9362389157
 10
13.1272740499
 20
6.9322272242
 10
13.0974474827
 20
6.9323904537
 10
13.0682475955
 20
6.9367643381
 10
13.0422969493
 20
6.9450237354
 10
13.021437675
 20
6.9563113875
 10
13.0061455904
 20
6.9701159758
  0
LWPOLYLINE
  5
4F4
100
AcDbEntity
  8
0
100
AcDbPolyline
 62
7
  6
CONTINUOUS
 90
9
 70
0
 10
13.2086436394
 20
7.0050840307
 10
13.1848485231
 20
6.9933838202
 10
13.1568226902
 20
6.9851990283
 10
13.1270259462
 20
6.9812017063
 10
13.0974156723
 20
6.9813830003
 10
13.0684624607
 20
6.9857052327
 10
13.0425691906
 20
6.9938996867
 10
13.0216275856
 20
7.0051700161
 10
13.0061827542
 20
7.0190610257
  0
LWPOLYLINE
  5
4F5
100
AcDbEntity
  8
0
100
AcDbPolyline
 62
7
  6
CONTINUOUS
 90
10
 70
0
 10
13.2201511252
 20
5.7501461584
 10
13.2196577087
 20
5.7510603254
 10
13.2060635312
 20
5.7640431912
 10
13.1874828116
 20
5.774770532
 10
13.1649953937
 20
5.7826189137
 10
13.1399081644
 20
5.7871322169
 10
13.1136791025
 20
5.7880481448
 10
13.0878325456
 20
5.785313467
 10
13.0638706016
 20
5.7790871131
 10
13.0431858517
 20
5.7697309361
  0
LWPOLYLINE
  5
4F6
100
AcDbEntity
  8
0
100
AcDbPolyline
 62
9
  6
CONTINUOUS
 90
3
 70
0
 10
12.7661258012
 20
6.7593645965
 10
12.7677905503
 20
6.753013436
 10
12.7710437002
 20
6.7467521489
  0
LINE
  5
4F7
100
AcDbEntity
  8
0
100
AcDbLine
 62
9
  6
CONTINUOUS
 10
12.9434848524
 20
5.6231716553
 11
12.9434848524
 21
5.6721618004
  0
LINE
  5
4F8
100
AcDbEntity
  8
AXIS
100
AcDbLine
 62
7
  6
CONTINUOUS
 10
12.9952549238
 20
6.7866683273
 11
12.9952549238
 21
6.8019777314
  0
LWPOLYLINE
  5
4F9
100
AcDbEntity
  8
0
100
AcDbPolyline
 62
7
  6
CONTINUOUS
 90
3
 70
0
 10
12.9952549277
 20
7.071406436
 10
12.9954366607
 20
7.0751034353
 10
12.9975733432
 20
7.0816868554
  0
LWPOLYLINE
  5
4FA
100
AcDbEntity
  8
0
100
AcDbPolyline
 62
7
  6
CONTINUOUS
 90
3
 70
0
 10
12.995254931
 20
7.0469052066
 10
12.995438434
 20
7.0506262579
 10
12.9975739691
 20
7.0571970581
  0
LWPOLYLINE
  5
4FB
100
AcDbEntity
  8
0
100
AcDbPolyline
 62
7
  6
CONTINUOUS
 90
3
 70
0
 10
12.9952549291
 20
6.9734232714
 10
12.9954389546
 20
6.9771462777
 10
12.9975703678
 20
6.98370062
  0
LWPOLYLINE
  5
4FC
100
AcDbEntity
  8
0
100
AcDbPolyline
 62
7
  6
CONTINUOUS
 90
3
 70
0
 10
12.9952549259
 20
7.095905975
 10
12.9954392515
 20
7.0996246241
 10
12.9975708521
 20
7.1061792929
  0
LWPOLYLINE
  5
4FD
100
AcDbEntity
  8
0
100
AcDbPolyline
 62
7
  6
CONTINUOUS
 90
3
 70
0
 10
12.995254931
 20
7.0224102126
 10
12.9954424277
 20
7.0261711745
 10
12.9975752432
 20
7.032714508
  0
LWPOLYLINE
  5
4FE
100
AcDbEntity
  8
0
100
AcDbPolyline
 62
7
  6
CONTINUOUS
 90
3
 70
0
 10
12.9952549304
 20
6.9979161281
 10
12.9954430012
 20
7.0016818089
 10
12.997574446
 20
7.0082180301
  0
LWPOLYLINE
  5
4FF
100
AcDbEntity
  8
0
100
AcDbPolyline
 62
7
  6
CONTINUOUS
 90
3
 70
0
 10
12.9952549244
 20
7.1204069065
 10
12.9954431646
 20
7.1241587963
 10
12.9977732178
 20
7.1313021612
  0
LWPOLYLINE
  5
500
100
AcDbEntity
  8
0
100
AcDbPolyline
 62
7
  6
CONTINUOUS
 90
3
 70
0
 10
12.9952549241
 20
6.9489430433
 10
12.9954883528
 20
6.9531182444
 10
12.9975817971
 20
6.9593149488
  0
LWPOLYLINE
  5
501
100
AcDbEntity
  8
0
100
AcDbPolyline
 62
7
  6
CONTINUOUS
 90
3
 70
0
 10
12.9952549238
 20
6.9244527697
 10
12.9955027049
 20
6.9287493235
 10
12.9975848342
 20
6.9348553554
  0
LWPOLYLINE
  5
502
100
AcDbEntity
  8
0
100
AcDbPolyline
 62
7
  6
CONTINUOUS
 90
3
 70
0
 10
12.9952549304
 20
6.8019999461
 10
12.9955059983
 20
6.8063023876
 10
12.9975719841
 20
6.8124037625
  0
LWPOLYLINE
  5
503
100
AcDbEntity
  8
0
100
AcDbPolyline
 62
7
  6
CONTINUOUS
 90
3
 70
0
 10
12.9952549241
 20
6.8999627346
 10
12.9955168949
 20
6.9043754223
 10
12.9975877596
 20
6.9103970102
  0
LWPOLYLINE
  5
504
100
AcDbEntity
  8
0
100
AcDbPolyline
 62
7
  6
CONTINUOUS
 90
3
 70
0
 10
12.9952549311
 20
6.8264961719
 10
12.9955161029
 20
6.8308835297
 10
12.9975752851
 20
6.8369218817
  0
LWPOLYLINE
  5
505
100
AcDbEntity
  8
0
100
AcDbPolyline
 62
7
  6
CONTINUOUS
 90
3
 70
0
 10
12.9952549303
 20
6.8509900348
 10
12.9955247332
 20
6.8554507992
 10
12.9975797521
 20
6.8614355593
  0
LWPOLYLINE
  5
506
100
AcDbEntity
  8
0
100
AcDbPolyline
 62
7
  6
CONTINUOUS
 90
3
 70
0
 10
12.995254934
 20
6.875490527
 10
12.9961371302
 20
6.8835584556
 10
12.9976844626
 20
6.8871641629
  0
LWPOLYLINE
  5
507
100
AcDbEntity
  8
0
100
AcDbPolyline
 62
9
  6
CONTINUOUS
 90
4
 70
0
 10
13.2228982633
 20
7.1835847643
 10
13.236327832
 20
7.2077636324
 10
13.2517734211
 20
7.234182596
 10
13.2692589905
 20
7.26285751
  0
LWPOLYLINE
  5
508
100
AcDbEntity
  8
0
100
AcDbPolyline
 62
7
  6
CONTINUOUS
 90
3
 70
0
 10
13.2275336676
 20
7.0935187612
 10
13.2399438703
 20
7.1107078926
 10
13.2451220203
 20
7.1291543972
  0
LWPOLYLINE
  5
509
100
AcDbEntity
  8
0
100
AcDbPolyline
 62
7
  6
CONTINUOUS
 90
3
 70
0
 10
13.2397344979
 20
6.938822761
 10
13.2272458091
 20
6.9217593412
 10
13.2086436394
 20
6.9071037406
  0
LWPOLYLINE
  5
50A
100
AcDbEntity
  8
0
100
AcDbPolyline
 62
7
  6
CONTINUOUS
 90
3
 70
0
 10
13.2395998231
 20
6.963052382
 10
13.2272034812
 20
6.9462114415
 10
13.2086436394
 20
6.9315988131
  0
LWPOLYLINE
  5
50B
100
AcDbEntity
  8
0
100
AcDbPolyline
 62
7
  6
CONTINUOUS
 90
3
 70
0
 10
13.2395524796
 20
6.9874549396
 10
13.2271793355
 20
6.9706820287
 10
13.2086436394
 20
6.9560938856
  0
LWPOLYLINE
  5
50C
100
AcDbEntity
  8
0
100
AcDbPolyline
 62
7
  6
CONTINUOUS
 90
3
 70
0
 10
13.2394993119
 20
7.0118466035
 10
13.2271482604
 20
6.9951456189
 10
13.2086436394
 20
6.9805889582
  0
LWPOLYLINE
  5
50D
100
AcDbEntity
  8
0
100
AcDbPolyline
 62
7
  6
CONTINUOUS
 90
3
 70
0
 10
13.239490491
 20
7.0853147141
 10
13.2270526999
 20
7.0685342331
 10
13.2086436394
 20
7.0540741757
  0
LINE
  5
50E
100
AcDbEntity
  8
0
100
AcDbLine
 62
7
  6
CONTINUOUS
 10
13.2394195191
 20
7.1082765666
 11
13.2270753558
 21
7.0916560943
  0
LWPOLYLINE
  5
50F
100
AcDbEntity
  8
0
100
AcDbPolyline
 62
7
  6
CONTINUOUS
 90
3
 70
0
 10
13.2394421877
 20
7.0607262112
 10
13.2270518423
 20
7.0440382951
 10
13.2086436394
 20
7.0295791032
  0
LWPOLYLINE
  5
510
100
AcDbEntity
  8
0
100
AcDbPolyline
 62
7
  6
CONTINUOUS
 90
3
 70
0
 10
13.2380650674
 20
7.0337245624
 10
13.2259642894
 20
7.0184654465
 10
13.2086436394
 20
7.0050840307
  0
LWPOLYLINE
  5
511
100
AcDbEntity
  8
0
100
AcDbPolyline
 62
7
  6
CONTINUOUS
 90
3
 70
0
 10
13.2086436394
 20
6.8567175097
 10
13.2272854271
 20
6.8714133882
 10
13.239797447
 20
6.8885617891
  0
LWPOLYLINE
  5
512
100
AcDbEntity
  8
0
100
AcDbPolyline
 62
7
  6
CONTINUOUS
 90
3
 70
0
 10
13.2086436394
 20
6.9057076547
 10
13.2272613554
 20
6.9203790541
 10
13.2397695147
 20
6.9374962588
  0
LWPOLYLINE
  5
513
100
AcDbEntity
  8
0
100
AcDbPolyline
 62
7
  6
CONTINUOUS
 90
3
 70
0
 10
13.2086436394
 20
6.8812125822
 10
13.2272759115
 20
6.8958987816
 10
13.2397864251
 20
6.9130348744
  0
LWPOLYLINE
  5
514
100
AcDbEntity
  8
0
100
AcDbPolyline
 62
7
  6
CONTINUOUS
 90
3
 70
0
 10
13.2086436394
 20
6.8322224372
 10
13.2272786765
 20
6.8469114488
 10
13.2397897222
 20
6.864051304
  0
LWPOLYLINE
  5
515
100
AcDbEntity
  8
0
100
AcDbPolyline
 62
7
  6
CONTINUOUS
 90
3
 70
0
 10
13.2086436394
 20
6.8077273647
 10
13.2272653399
 20
6.8224028146
 10
13.2397745376
 20
6.8395259693
  0
LWPOLYLINE
  5
516
100
AcDbEntity
  8
0
100
AcDbPolyline
 62
7
  6
CONTINUOUS
 90
3
 70
0
 10
13.2086436394
 20
6.7832322922
 10
13.2272631637
 20
6.7979055297
 10
13.239771999
 20
6.8150258417
  0
LWPOLYLINE
  5
517
100
AcDbEntity
  8
0
100
AcDbPolyline
 62
7
  6
CONTINUOUS
 90
3
 70
0
 10
13.2086436394
 20
6.9302027272
 10
13.2272458091
 20
6.9448583279
 10
13.2397344979
 20
6.9619217477
  0
LWPOLYLINE
  5
518
100
AcDbEntity
  8
0
100
AcDbPolyline
 62
7
  6
CONTINUOUS
 90
8
 70
0
 10
13.2086436394
 20
6.8336185231
 10
13.1869949911
 20
6.8227621427
 10
13.162105025
 20
6.8149147716
 10
13.1350896916
 20
6.810392752
 10
13.1073463178
 20
6.8094014976
 10
13.0795687188
 20
6.8120563445
 10
13.0537682453
 20
6.8182878274
 10
13.0318669441
 20
6.82749433
  0
LWPOLYLINE
  5
519
100
AcDbEntity
  8
0
100
AcDbPolyline
 62
7
  6
CONTINUOUS
 90
9
 70
0
 10
13.2086436394
 20
6.8091234506
 10
13.1852175078
 20
6.7975657791
 10
13.1578252925
 20
6.7894509354
 10
13.1281824888
 20
6.7853165858
 10
13.0982371012
 20
6.7853619643
 10
13.0691073038
 20
6.7895985024
 10
13.0433100332
 20
6.7976318252
 10
13.0221610995
 20
6.8088436274
 10
13.0062526621
 20
6.8230158584
  0
LWPOLYLINE
  5
51A
100
AcDbEntity
  8
0
100
AcDbPolyline
 62
7
  6
CONTINUOUS
 90
10
 70
0
 10
13.2086436394
 20
6.7846283781
 10
13.185202669
 20
6.7730649544
 10
13.1576559017
 20
6.7649195824
 10
13.1279537834
 20
6.7608060969
 10
13.0980461621
 20
6.7608806555
 10
13.0690468924
 20
6.7651170165
 10
13.0434004283
 20
6.7730996037
 10
13.0222300174
 20
6.7843016892
 10
13.0063021593
 20
6.7984610835
 10
12.9971971481
 20
6.8144885251
  0
LWPOLYLINE
  5
51B
100
AcDbEntity
  8
0
100
AcDbPolyline
 62
7
  6
CONTINUOUS
 90
11
 70
0
 10
13.2086436394
 20
6.7601333055
 10
13.1851562169
 20
6.7485518858
 10
13.157466911
 20
6.7403842144
 10
13.1277188645
 20
6.736295443
 10
13.0978630492
 20
6.736398947
 10
13.0690043942
 20
6.740631515
 10
13.0434683462
 20
6.7485766685
 10
13.0222889834
 20
6.7597665884
 10
13.0063505179
 20
6.7739078316
 10
12.9972212611
 20
6.7899199198
 10
12.9952549304
 20
6.8019999461
  0
LWPOLYLINE
  5
51C
100
AcDbEntity
  8
0
100
AcDbPolyline
 62
7
  6
CONTINUOUS
 90
7
 70
0
 10
13.2086436394
 20
6.8581135956
 10
13.1850985704
 20
6.8465098656
 10
13.1578788135
 20
6.838452576
 10
13.1285486796
 20
6.8343319226
 10
13.0985304817
 20
6.8343313019
 10
13.069087741
 20
6.8385930447
 10
13.0428603942
 20
6.8468078654
  0
LWPOLYLINE
  5
51D
100
AcDbEntity
  8
0
100
AcDbPolyline
 62
9
  6
CONTINUOUS
 90
9
 70
0
 10
12.7710437002
 20
6.7467521489
 10
12.7919643306
 20
6.7202846241
 10
12.8178760669
 20
6.6958016734
 10
12.8486862512
 20
6.6724093947
 10
12.8838947574
 20
6.6502106312
 10
12.9223478138
 20
6.6298814365
 10
12.9628650175
 20
6.6120933457
 10
13.0052773837
 20
6.5971314109
 10
13.051119918
 20
6.5850536917
  0
LWPOLYLINE
  5
51E
100
AcDbEntity
  8
0
100
AcDbPolyline
 62
7
  6
CONTINUOUS
 90
11
 70
0
 10
13.0112656852
 20
5.7742367664
 10
13.0130463236
 20
5.7628790812
 10
13.0208639147
 20
5.7483952073
 10
13.0344580922
 20
5.7354123414
 10
13.0530388118
 20
5.7246850007
 10
13.0755262297
 20
5.716836619
 10
13.1006134589
 20
5.7123233158
 10
13.1268425209
 20
5.7114073879
 10
13.1526890778
 20
5.7141420656
 10
13.1766510218
 20
5.7203684196
 10
13.1973357717
 20
5.7297245966
  0
LINE
  5
51F
100
AcDbEntity
  8
0
100
AcDbLine
 62
7
  6
CONTINUOUS
 10
12.9959251986
 20
6.8684032834
 11
12.995254934
 21
6.875490527
  0
LWPOLYLINE
  5
520
100
AcDbEntity
  8
0
100
AcDbPolyline
 62
9
  6
CONTINUOUS
 90
12
 70
0
 10
13.0608878802
 20
6.4731109388
 10
13.0610271188
 20
6.4417467151
 10
13.0591744803
 20
6.4070277489
 10
13.0556043991
 20
6.3689789406
 10
13.0504679773
 20
6.3274402748
 10
13.0438201384
 20
6.2821348591
 10
13.0356992504
 20
6.233001006
 10
13.0260665024
 20
6.1796713076
 10
13.0148918137
 20
6.121953867
 10
13.0020929392
 20
6.0594504087
 10
12.9875817727
 20
5.9917928623
 10
12.9712508558
 20
5.9185579847
  0
LWPOLYLINE
  5
521
100
AcDbEntity
  8
0
100
AcDbPolyline
 62
9
  6
CONTINUOUS
 90
4
 70
0
 10
13.0729657665
 20
6.5822144726
 10
13.0688802204
 20
6.5498431875
 10
13.0648395627
 20
6.5133411556
 10
13.0608881977
 20
6.4731095173
  0
LINE
  5
522
100
AcDbEntity
  8
0
100
AcDbLine
 62
7
  6
CONTINUOUS
 10
13.2397695147
 20
6.9374962588
 11
13.2450666829
 21
6.9556265375
  0
LINE
  5
523
100
AcDbEntity
  8
0
100
AcDbLine
 62
7
  6
CONTINUOUS
 10
13.2450666829
 20
6.9325275509
 11
13.2397695147
 21
6.9143972722
  0
LINE
  5
524
100
AcDbEntity
  8
0
100
AcDbLine
 62
7
  6
CONTINUOUS
 10
13.2397344979
 20
6.9619217477
 11
13.2450532108
 21
6.979974969
  0
LINE
  5
525
100
AcDbEntity
  8
0
100
AcDbLine
 62
7
  6
CONTINUOUS
 10
13.2450532108
 20
6.9568759824
 11
13.2397344979
 21
6.938822761
  0
LINE
  5
526
100
AcDbEntity
  8
0
100
AcDbLine
 62
7
  6
CONTINUOUS
 10
13.2395998231
 20
6.9861513686
 11
13.2450038492
 21
7.0039708372
  0
LINE
  5
527
100
AcDbEntity
  8
0
100
AcDbLine
 62
7
  6
CONTINUOUS
 10
13.2450038492
 20
6.9808718506
 11
13.2395998231
 21
6.963052382
  0
LINE
  5
528
100
AcDbEntity
  8
0
100
AcDbLine
 62
7
  6
CONTINUOUS
 10
13.2450071426
 20
7.1033788933
 11
13.239490491
 21
7.0853147141
  0
LINE
  5
529
100
AcDbEntity
  8
0
100
AcDbLine
 62
7
  6
CONTINUOUS
 10
13.2395524796
 20
7.0105539262
 11
13.2449937446
 21
7.0283699889
  0
LINE
  5
52A
100
AcDbEntity
  8
0
100
AcDbLine
 62
7
  6
CONTINUOUS
 10
13.2449937446
 20
7.0052710022
 11
13.2395524796
 21
6.9874549396
  0
LINE
  5
52B
100
AcDbEntity
  8
0
100
AcDbLine
 62
7
  6
CONTINUOUS
 10
13.2394993119
 20
7.0349455901
 11
13.2449851144
 21
7.0527846002
  0
LINE
  5
52C
100
AcDbEntity
  8
0
100
AcDbLine
 62
7
  6
CONTINUOUS
 10
13.2449851144
 20
7.0296856136
 11
13.2394993119
 21
7.0118466035
  0
LINE
  5
52D
100
AcDbEntity
  8
0
100
AcDbLine
 62
7
  6
CONTINUOUS
 10
13.2394421877
 20
7.0838251978
 11
13.2449929526
 21
7.1018477673
  0
LINE
  5
52E
100
AcDbEntity
  8
0
100
AcDbLine
 62
7
  6
CONTINUOUS
 10
13.2449929526
 20
7.0787487807
 11
13.2394421877
 21
7.0607262112
  0
LINE
  5
52F
100
AcDbEntity
  8
0
100
AcDbLine
 62
7
  6
CONTINUOUS
 10
13.2449708344
 20
7.1261394675
 11
13.2394195191
 21
7.1082765666
  0
LINE
  5
530
100
AcDbEntity
  8
0
100
AcDbLine
 62
7
  6
CONTINUOUS
 10
13.2380650674
 20
7.056823549
 11
13.2397656016
 21
7.0612527941
  0
LINE
  5
531
100
AcDbEntity
  8
0
100
AcDbLine
 62
7
  6
CONTINUOUS
 10
13.2443727173
 20
7.050153593
 11
13.2380650674
 21
7.0337245624
  0
LWPOLYLINE
  5
532
100
AcDbEntity
  8
0
100
AcDbPolyline
 62
9
  6
CONTINUOUS
 90
4
 70
0
 10
13.051119918
 20
6.5850536917
 10
13.0320702688
 20
6.5534748736
 10
13.0132430428
 20
6.5174855073
 10
12.9948587044
 20
6.4775070131
  0
LWPOLYLINE
  5
533
100
AcDbEntity
  8
0
100
AcDbPolyline
 62
9
  6
CONTINUOUS
 90
12
 70
0
 10
12.994862358
 20
6.4775065183
 10
12.976245948
 20
6.4484531245
 10
12.9585307264
 20
6.4164002007
 10
12.9413186811
 20
6.3813363875
 10
12.9242138483
 20
6.3430908096
 10
12.9068739499
 20
6.3013798665
 10
12.8891070625
 20
6.2561007969
 10
12.870695016
 20
6.2069614963
 10
12.8514848187
 20
6.1537388733
 10
12.8313205868
 20
6.0961308001
 10
12.8100492838
 20
6.0337858575
 10
12.7875239471
 20
5.9663242794
  0
LWPOLYLINE
  5
534
100
AcDbEntity
  8
0
100
AcDbPolyline
 62
7
  6
CONTINUOUS
 90
3
 70
0
 10
13.239797447
 20
6.8654628025
 10
13.2272854271
 20
6.8483144016
 10
13.2086436394
 20
6.8336185231
  0
LWPOLYLINE
  5
535
100
AcDbEntity
  8
0
100
AcDbPolyline
 62
7
  6
CONTINUOUS
 90
3
 70
0
 10
13.2397864251
 20
6.8899358878
 10
13.2272759115
 20
6.872799795
 10
13.2086436394
 20
6.8581135956
  0
LWPOLYLINE
  5
536
100
AcDbEntity
  8
0
100
AcDbPolyline
 62
7
  6
CONTINUOUS
 90
3
 70
0
 10
13.2397897222
 20
6.8409523174
 10
13.2272786765
 20
6.8238124622
 10
13.2086436394
 20
6.8091234506
  0
LWPOLYLINE
  5
537
100
AcDbEntity
  8
0
100
AcDbPolyline
 62
7
  6
CONTINUOUS
 90
3
 70
0
 10
13.2397745376
 20
6.8164269827
 10
13.2272653399
 20
6.799303828
 10
13.2086436394
 20
6.7846283781
  0
LWPOLYLINE
  5
538
100
AcDbEntity
  8
0
100
AcDbPolyline
 62
7
  6
CONTINUOUS
 90
3
 70
0
 10
13.2397695147
 20
6.9143972722
 10
13.2272613554
 20
6.8972800675
 10
13.2086436394
 20
6.8826086681
  0
LWPOLYLINE
  5
539
100
AcDbEntity
  8
0
100
AcDbPolyline
 62
7
  6
CONTINUOUS
 90
3
 70
0
 10
13.2086436394
 20
6.7587372196
 10
13.2272734766
 20
6.7734209429
 10
13.2397853041
 20
6.7905572768
  0
LWPOLYLINE
  5
53A
100
AcDbEntity
  8
0
100
AcDbPolyline
 62
7
  6
CONTINUOUS
 90
5
 70
0
 10
13.2086436394
 20
6.735638233
 10
13.227227852
 20
6.7493334774
 10
13.2395951869
 20
6.7651984876
 10
13.2450268995
 20
6.7823112468
 10
13.2452493349
 20
6.7866523553
  0
LWPOLYLINE
  5
53B
100
AcDbEntity
  8
0
100
AcDbPolyline
 62
9
  6
CONTINUOUS
 90
9
 70
0
 10
13.1893927613
 20
6.5850540157
 10
13.2352365143
 20
6.5971323746
 10
13.277642835
 20
6.6120923087
 10
13.3181600296
 20
6.6298803226
 10
13.3566099654
 20
6.6502076725
 10
13.391821667
 20
6.6724082376
 10
13.4226319844
 20
6.6958005216
 10
13.4485471862
 20
6.7202869626
 10
13.4694667086
 20
6.7467537838
  0
LWPOLYLINE
  5
53C
100
AcDbEntity
  8
0
100
AcDbPolyline
 62
9
  6
CONTINUOUS
 90
3
 70
0
 10
13.1675470489
 20
6.582214706
 10
13.1785477388
 20
6.5831758356
 10
13.1893927613
 20
6.5850540157
  0
LWPOLYLINE
  5
53D
100
AcDbEntity
  8
0
100
AcDbPolyline
 62
9
  6
CONTINUOUS
 90
9
 70
0
 10
13.245655757
 20
6.4775047005
 10
13.3178205667
 20
6.482468822
 10
13.3830099502
 20
6.4940609388
 10
13.442263738
 20
6.5124576841
 10
13.4951021802
 20
6.537626345
 10
13.5401642059
 20
6.5689792107
 10
13.576193083
 20
6.6055925416
 10
13.6025584619
 20
6.6468622627
 10
13.6187773398
 20
6.6929250769
  0
LWPOLYLINE
  5
53E
100
AcDbEntity
  8
0
100
AcDbPolyline
 62
9
  6
CONTINUOUS
 90
3
 70
0
 10
13.1796258186
 20
6.4731104554
 10
13.2126249016
 20
6.4752001727
 10
13.245655152
 20
6.4775081527
  0
LWPOLYLINE
  5
53F
100
AcDbEntity
  8
0
100
AcDbPolyline
 62
9
  6
CONTINUOUS
 90
3
 70
0
 10
13.0729657665
 20
6.5822144726
 10
13.1202431149
 20
6.5811541852
 10
13.1675470489
 20
6.582214706
  0
LWPOLYLINE
  5
540
100
AcDbEntity
  8
0
100
AcDbPolyline
 62
9
  6
CONTINUOUS
 90
3
 70
0
 10
13.0608881977
 20
6.4731095173
 10
13.1202422107
 20
6.4702372071
 10
13.179626007
 20
6.4731098687
  0
LWPOLYLINE
  5
541
100
AcDbEntity
  8
0
100
AcDbPolyline
 62
9
  6
CONTINUOUS
 90
3
 70
0
 10
12.9948587044
 20
6.4775070131
 10
13.02790302
 20
6.4751954164
 10
13.0608883603
 20
6.4731105857
  0
LWPOLYLINE
  5
542
100
AcDbEntity
  8
0
100
AcDbPolyline
 62
9
  6
CONTINUOUS
 90
3
 70
0
 10
13.051119918
 20
6.5850536917
 10
13.0619641349
 20
6.5831757027
 10
13.0729657665
 20
6.5822144726
  0
LWPOLYLINE
  5
543
100
AcDbEntity
  8
0
100
AcDbPolyline
 62
7
  6
CONTINUOUS
 90
10
 70
0
 10
12.9972212611
 20
6.8130189064
 10
13.0063505179
 20
6.7970068182
 10
13.0222889834
 20
6.782865575
 10
13.0434683462
 20
6.7716756551
 10
13.0690043942
 20
6.7637305016
 10
13.0978630492
 20
6.7594979336
 10
13.1277188645
 20
6.7593944296
 10
13.157466911
 20
6.763483201
 10
13.1851562169
 20
6.7716508724
 10
13.2086436394
 20
6.7832322922
  0
LINE
  5
544
100
AcDbEntity
  8
0
100
AcDbLine
 62
7
  6
CONTINUOUS
 10
13.0020683658
 20
6.8532550632
 11
12.9959251986
 21
6.8684032834
  0
LINE
  5
545
100
AcDbEntity
  8
0
100
AcDbLine
 62
7
  6
CONTINUOUS
 10
12.9959251986
 20
6.89150227
 11
13.0020683658
 21
6.8763540499
  0
LINE
  5
546
100
AcDbEntity
  8
0
100
AcDbLine
 62
7
  6
CONTINUOUS
 10
12.9952549238
 20
7.1449086741
 11
12.9995143302
 21
7.127250712
  0
LINE
  5
547
100
AcDbEntity
  8
0
100
AcDbLine
 62
7
  6
CONTINUOUS
 10
12.9973738533
 20
7.1079008919
 11
12.9952549244
 21
7.1204069065
  0
LINE
  5
548
100
AcDbEntity
  8
0
100
AcDbLine
 62
7
  6
CONTINUOUS
 10
12.9973627788
 20
6.9609628985
 11
12.9952549291
 21
6.9734232714
  0
LINE
  5
549
100
AcDbEntity
  8
0
100
AcDbLine
 62
7
  6
CONTINUOUS
 10
12.9952549291
 20
6.996522258
 11
12.9973627788
 21
6.9840618851
  0
LINE
  5
54A
100
AcDbEntity
  8
0
100
AcDbLine
 62
7
  6
CONTINUOUS
 10
12.9973619751
 20
7.0834406189
 11
12.9952549259
 21
7.095905975
  0
LINE
  5
54B
100
AcDbEntity
  8
0
100
AcDbLine
 62
7
  6
CONTINUOUS
 10
12.9952549259
 20
7.1190049616
 11
12.9973619751
 21
7.1065396055
  0
LINE
  5
54C
100
AcDbEntity
  8
0
100
AcDbLine
 62
7
  6
CONTINUOUS
 10
12.997355188
 20
7.0589654754
 11
12.9952549277
 21
7.071406436
  0
LINE
  5
54D
100
AcDbEntity
  8
0
100
AcDbLine
 62
7
  6
CONTINUOUS
 10
12.9952549277
 20
7.0945054226
 11
12.997355188
 21
7.082064462
  0
LINE
  5
54E
100
AcDbEntity
  8
0
100
AcDbLine
 62
7
  6
CONTINUOUS
 10
12.9973469744
 20
7.0344945652
 11
12.995254931
 21
7.0469052066
  0
LINE
  5
54F
100
AcDbEntity
  8
0
100
AcDbLine
 62
7
  6
CONTINUOUS
 10
12.995254931
 20
7.0700041932
 11
12.9973469744
 21
7.0575935518
  0
LINE
  5
550
100
AcDbEntity
  8
0
100
AcDbLine
 62
7
  6
CONTINUOUS
 10
12.997336297
 20
6.9855359032
 11
12.9952549304
 21
6.9979161281
  0
LINE
  5
551
100
AcDbEntity
  8
0
100
AcDbLine
 62
7
  6
CONTINUOUS
 10
12.9952549304
 20
7.0210151148
 11
12.997336297
 21
7.0086348899
  0
LINE
  5
552
100
AcDbEntity
  8
0
100
AcDbLine
 62
7
  6
CONTINUOUS
 10
12.997333701
 20
7.0100386428
 11
12.995254931
 21
7.0224102126
  0
LINE
  5
553
100
AcDbEntity
  8
0
100
AcDbLine
 62
7
  6
CONTINUOUS
 10
12.995254931
 20
7.0455091992
 11
12.997333701
 21
7.0331376294
  0
LINE
  5
554
100
AcDbEntity
  8
0
100
AcDbLine
 62
7
  6
CONTINUOUS
 10
12.9972536207
 20
6.9367923969
 11
12.9952549241
 21
6.9489430433
  0
LINE
  5
555
100
AcDbEntity
  8
0
100
AcDbLine
 62
7
  6
CONTINUOUS
 10
12.9952549241
 20
6.9720420299
 11
12.9972536207
 21
6.9598913835
  0
LINE
  5
556
100
AcDbEntity
  8
0
100
AcDbLine
 62
7
  6
CONTINUOUS
 10
12.9972197159
 20
6.9123999806
 11
12.9952549238
 21
6.9244527697
  0
LINE
  5
557
100
AcDbEntity
  8
0
100
AcDbLine
 62
7
  6
CONTINUOUS
 10
12.9952549238
 20
6.9475517564
 11
12.9972197159
 21
6.9354989673
  0
LINE
  5
558
100
AcDbEntity
  8
0
100
AcDbLine
 62
7
  6
CONTINUOUS
 10
12.9952549304
 20
6.8250989327
 11
12.9972212611
 21
6.8130189064
  0
LINE
  5
559
100
AcDbEntity
  8
0
100
AcDbLine
 62
7
  6
CONTINUOUS
 10
12.9971971481
 20
6.8144885251
 11
12.9952549311
 21
6.8264961719
  0
LINE
  5
55A
100
AcDbEntity
  8
0
100
AcDbLine
 62
7
  6
CONTINUOUS
 10
12.9952549311
 20
6.8495951585
 11
12.9971971481
 21
6.8375875117
  0
LINE
  5
55B
100
AcDbEntity
  8
0
100
AcDbLine
 62
7
  6
CONTINUOUS
 10
12.9971851578
 20
6.8880104815
 11
12.9952549241
 21
6.8999627346
  0
LINE
  5
55C
100
AcDbEntity
  8
0
100
AcDbLine
 62
7
  6
CONTINUOUS
 10
12.9952549241
 20
6.9230617213
 11
12.9971851578
 21
6.9111094681
  0
LINE
  5
55D
100
AcDbEntity
  8
0
100
AcDbLine
 62
7
  6
CONTINUOUS
 10
12.9971749879
 20
6.8390515894
 11
12.9952549303
 21
6.8509900348
  0
LINE
  5
55E
100
AcDbEntity
  8
0
100
AcDbLine
 62
7
  6
CONTINUOUS
 10
12.9952549303
 20
6.8740890214
 11
12.9971749879
 21
6.862150576
  0
LWPOLYLINE
  5
55F
100
AcDbEntity
  8
0
100
AcDbPolyline
 62
7
  6
CONTINUOUS
 90
11
 70
0
 10
12.9952605126
 20
6.7866842994
 10
12.9973025292
 20
6.7736594309
 10
13.0062676566
 20
6.7570494838
 10
13.0218573096
 20
6.7421608762
 10
13.0431654744
 20
6.7298588799
 10
13.0689537977
 20
6.7208584422
 10
13.0977235559
 20
6.7156826357
 10
13.1278027554
 20
6.7146322597
 10
13.1574433024
 20
6.7177683581
 10
13.1849225959
 20
6.7249086722
 10
13.2086436394
 20
6.735638233
  0
LWPOLYLINE
  5
560
100
AcDbEntity
  8
0
100
AcDbPolyline
 62
7
  6
CONTINUOUS
 90
11
 70
0
 10
13.2292559382
 20
5.7742089112
 10
13.2274752997
 20
5.7855665965
 10
13.2196577087
 20
5.8000504704
 10
13.2060635312
 20
5.8130333362
 10
13.1874828116
 20
5.823760677
 10
13.1649953937
 20
5.8316090587
 10
13.1399081644
 20
5.8361223619
 10
13.1136791025
 20
5.8370382898
 10
13.0878325456
 20
5.834303612
 10
13.0638706016
 20
5.8280772581
 10
13.0431858517
 20
5.8187210811
  0
LINE
  5
561
100
AcDbEntity
  8
0
100
AcDbLine
 62
7
  6
CONTINUOUS
 10
13.2086436394
 20
6.735638233
 11
13.2086436394
 21
6.7587372196
  0
LINE
  5
562
100
AcDbEntity
  8
AXIS
100
AcDbLine
 62
7
  6
CONTINUOUS
 10
13.2452549238
 20
6.8128291818
 11
13.2452549238
 21
6.8142252677
  0
LINE
  5
563
100
AcDbEntity
  8
AXIS
100
AcDbLine
 62
7
  6
CONTINUOUS
 10
13.2452549238
 20
6.8373242543
 11
13.2452549238
 21
6.8387203402
  0
LINE
  5
564
100
AcDbEntity
  8
AXIS
100
AcDbLine
 62
7
  6
CONTINUOUS
 10
13.2452549238
 20
6.8618193268
 11
13.2452549238
 21
6.8632154127
  0
LINE
  5
565
100
AcDbEntity
  8
AXIS
100
AcDbLine
 62
7
  6
CONTINUOUS
 10
13.2452549238
 20
6.8863143993
 11
13.2452549238
 21
6.8877104852
  0
LINE
  5
566
100
AcDbEntity
  8
AXIS
100
AcDbLine
 62
7
  6
CONTINUOUS
 10
13.2452549238
 20
6.9108094719
 11
13.2452549238
 21
6.9122055577
  0
LINE
  5
567
100
AcDbEntity
  8
AXIS
100
AcDbLine
 62
7
  6
CONTINUOUS
 10
13.2452549238
 20
6.9353045444
 11
13.2452549238
 21
6.9367006303
  0
LINE
  5
568
100
AcDbEntity
  8
AXIS
100
AcDbLine
 62
7
  6
CONTINUOUS
 10
13.2452549238
 20
6.9597996169
 11
13.2452549238
 21
6.9611957028
  0
LINE
  5
569
100
AcDbEntity
  8
AXIS
100
AcDbLine
 62
7
  6
CONTINUOUS
 10
13.2452549238
 20
6.9842946894
 11
13.2452549238
 21
6.9856907753
  0
LINE
  5
56A
100
AcDbEntity
  8
AXIS
100
AcDbLine
 62
7
  6
CONTINUOUS
 10
13.2452549238
 20
7.0087897619
 11
13.2452549238
 21
7.0101858478
  0
LINE
  5
56B
100
AcDbEntity
  8
AXIS
100
AcDbLine
 62
7
  6
CONTINUOUS
 10
13.2452549238
 20
7.0332848344
 11
13.2452549238
 21
7.0346809203
  0
LINE
  5
56C
100
AcDbEntity
  8
AXIS
100
AcDbLine
 62
7
  6
CONTINUOUS
 10
13.2452549238
 20
7.0577799069
 11
13.2452549238
 21
7.0591759928
  0
LINE
  5
56D
100
AcDbEntity
  8
AXIS
100
AcDbLine
 62
7
  6
CONTINUOUS
 10
13.2452549238
 20
7.0822749795
 11
13.2452549238
 21
7.0836710653
  0
LINE
  5
56E
100
AcDbEntity
  8
AXIS
100
AcDbLine
 62
7
  6
CONTINUOUS
 10
13.2452549238
 20
7.106770052
 11
13.2452549238
 21
7.1081661379
  0
LINE
  5
56F
100
AcDbEntity
  8
AXIS
100
AcDbLine
 62
7
  6
CONTINUOUS
 10
13.2452549238
 20
7.1312651245
 11
13.2452549238
 21
7.1326612104
  0
LWPOLYLINE
  5
570
100
AcDbEntity
  8
0
100
AcDbPolyline
 62
9
  6
CONTINUOUS
 90
12
 70
0
 10
13.1796262479
 20
6.4731113419
 10
13.1794895285
 20
6.4416657489
 10
13.1813508159
 20
6.4068882766
 10
13.1849299924
 20
6.3688039125
 10
13.1900756186
 20
6.3272341334
 10
13.1967318423
 20
6.2819051803
 10
13.2048586573
 20
6.232762229
 10
13.2144949173
 20
6.1794345941
 10
13.2256684856
 20
6.1217399458
 10
13.2384605192
 20
6.0592827044
 10
13.2529585279
 20
5.9916953654
 10
13.2692686868
 20
5.918558701
  0
LINE
  5
571
100
AcDbEntity
  8
0
100
AcDbLine
 62
7
  6
CONTINUOUS
 10
13.2451220203
 20
7.1291543972
 11
13.2452549238
 21
7.1326612446
  0
LINE
  5
572
100
AcDbEntity
  8
0
100
AcDbLine
 62
7
  6
CONTINUOUS
 10
13.2452549198
 20
6.8877295305
 11
13.2450731868
 21
6.8836100818
  0
LINE
  5
573
100
AcDbEntity
  8
0
100
AcDbLine
 62
7
  6
CONTINUOUS
 10
13.2452549165
 20
6.8632413181
 11
13.2450714136
 21
6.8590950672
  0
LWPOLYLINE
  5
574
100
AcDbEntity
  8
0
100
AcDbPolyline
 62
7
  6
CONTINUOUS
 90
5
 70
0
 10
13.2452549184
 20
6.7897524433
 10
13.245070893
 20
6.7856040133
 10
13.2397853041
 20
6.7674582902
 10
13.2272734766
 20
6.7503219562
 10
13.2086436394
 20
6.735638233
  0
LINE
  5
575
100
AcDbEntity
  8
0
100
AcDbLine
 62
7
  6
CONTINUOUS
 10
13.2452549216
 20
6.9122196264
 11
13.245070596
 21
6.9080760507
  0
LINE
  5
576
100
AcDbEntity
  8
0
100
AcDbLine
 62
7
  6
CONTINUOUS
 10
13.2452549166
 20
6.838746158
 11
13.2450674198
 21
6.8345554313
  0
LINE
  5
577
100
AcDbEntity
  8
0
100
AcDbLine
 62
7
  6
CONTINUOUS
 10
13.2452549172
 20
6.8142499846
 11
13.2450668463
 21
6.810053999
  0
LINE
  5
578
100
AcDbEntity
  8
0
100
AcDbLine
 62
7
  6
CONTINUOUS
 10
13.2452549231
 20
6.9367081708
 11
13.2450666829
 21
6.9325275509
  0
LINE
  5
579
100
AcDbEntity
  8
0
100
AcDbLine
 62
7
  6
CONTINUOUS
 10
13.2452549238
 20
6.9611951371
 11
13.2450532108
 21
6.9568759824
  0
LINE
  5
57A
100
AcDbEntity
  8
0
100
AcDbLine
 62
7
  6
CONTINUOUS
 10
13.2452549238
 20
7.1081664992
 11
13.2450071426
 21
7.1033788933
  0
LINE
  5
57B
100
AcDbEntity
  8
0
100
AcDbLine
 62
7
  6
CONTINUOUS
 10
13.2452549171
 20
6.9856660235
 11
13.2450038492
 21
6.9808718506
  0
LINE
  5
57C
100
AcDbEntity
  8
0
100
AcDbLine
 62
7
  6
CONTINUOUS
 10
13.2452549235
 20
7.0836658139
 11
13.2449929526
 21
7.0787487807
  0
LINE
  5
57D
100
AcDbEntity
  8
0
100
AcDbLine
 62
7
  6
CONTINUOUS
 10
13.2452549164
 20
7.010159811
 11
13.2449937446
 21
7.0052710022
  0
LINE
  5
57E
100
AcDbEntity
  8
0
100
AcDbLine
 62
7
  6
CONTINUOUS
 10
13.2452549172
 20
7.0346562313
 11
13.2449851144
 21
7.0296856136
  0
LINE
  5
57F
100
AcDbEntity
  8
0
100
AcDbLine
 62
7
  6
CONTINUOUS
 10
13.2452549136
 20
7.0591452651
 11
13.2443727173
 21
7.050153593
  0
LINE
  5
580
100
AcDbEntity
  8
0
100
AcDbLine
 62
7
  6
CONTINUOUS
 10
13.239797447
 20
6.8885617891
 11
13.2450731868
 21
6.9067090685
  0
LINE
  5
581
100
AcDbEntity
  8
0
100
AcDbLine
 62
7
  6
CONTINUOUS
 10
13.2450731868
 20
6.8836100818
 11
13.239797447
 21
6.8654628025
  0
LINE
  5
582
100
AcDbEntity
  8
0
100
AcDbLine
 62
7
  6
CONTINUOUS
 10
13.2397897222
 20
6.864051304
 11
13.2450714136
 21
6.8821940538
  0
LINE
  5
583
100
AcDbEntity
  8
0
100
AcDbLine
 62
7
  6
CONTINUOUS
 10
13.2450714136
 20
6.8590950672
 11
13.2397897222
 21
6.8409523174
  0
LINE
  5
584
100
AcDbEntity
  8
0
100
AcDbLine
 62
7
  6
CONTINUOUS
 10
13.2397864251
 20
6.9130348744
 11
13.245070596
 21
6.9311750373
  0
LINE
  5
585
100
AcDbEntity
  8
0
100
AcDbLine
 62
7
  6
CONTINUOUS
 10
13.245070596
 20
6.9080760507
 11
13.2397864251
 21
6.8899358878
  0
LINE
  5
586
100
AcDbEntity
  8
0
100
AcDbLine
 62
7
  6
CONTINUOUS
 10
13.2397853041
 20
6.7905572768
 11
13.245070893
 21
6.8087029999
  0
LINE
  5
587
100
AcDbEntity
  8
0
100
AcDbLine
 62
7
  6
CONTINUOUS
 10
13.2397745376
 20
6.8395259693
 11
13.2450674198
 21
6.8576544179
  0
LINE
  5
588
100
AcDbEntity
  8
0
100
AcDbLine
 62
7
  6
CONTINUOUS
 10
13.2450674198
 20
6.8345554313
 11
13.2397745376
 21
6.8164269827
  0
LINE
  5
589
100
AcDbEntity
  8
0
100
AcDbLine
 62
7
  6
CONTINUOUS
 10
13.239771999
 20
6.8150258417
 11
13.2450668463
 21
6.8331529856
  0
LWPOLYLINE
  5
58A
100
AcDbEntity
  8
0
100
AcDbPolyline
 62
7
  6
CONTINUOUS
 90
4
 70
0
 10
13.2450668463
 20
6.810053999
 10
13.239771999
 20
6.7919268551
 10
13.2272631637
 20
6.7748065431
 10
13.2086436394
 20
6.7601333055
  0
LINE
  5
58B
100
AcDbEntity
  8
0
100
AcDbLine
 62
7
  6
CONTINUOUS
 10
13.0144041136
 20
6.8392632992
 11
13.0020683658
 21
6.8532550632
  0
LWPOLYLINE
  5
58C
100
AcDbEntity
  8
0
100
AcDbPolyline
 62
7
  6
CONTINUOUS
 90
3
 70
0
 10
13.0020683658
 20
6.8763540499
 10
13.0144041136
 20
6.8623622858
 10
13.0318669441
 20
6.8505933167
  0
LWPOLYLINE
  5
58D
100
AcDbEntity
  8
0
100
AcDbPolyline
 62
9
  6
CONTINUOUS
 90
12
 70
0
 10
13.2456521086
 20
6.4775072094
 10
13.2643201834
 20
6.4483662182
 10
13.2820577645
 20
6.4162584779
 10
13.2992779092
 20
6.3811622846
 10
13.3163879996
 20
6.3428903945
 10
13.3337309712
 20
6.3011594005
 10
13.3514965404
 20
6.2558733012
 10
13.3699040351
 20
6.2067380979
 10
13.3891043517
 20
6.1535371096
 10
13.4092520801
 20
6.0959727651
 10
13.4305000842
 20
6.0336949797
 10
13.452994946
 20
5.9663258975
  0
LWPOLYLINE
  5
58E
100
AcDbEntity
  8
0
100
AcDbPolyline
 62
9
  6
CONTINUOUS
 90
4
 70
0
 10
13.1893927613
 20
6.5850540157
 10
13.2084435871
 20
6.5534747342
 10
13.2272714125
 20
6.5174844747
 10
13.245655757
 20
6.4775047005
  0
LINE
  5
58F
100
AcDbEntity
  8
0
100
AcDbLine
 62
7
  6
CONTINUOUS
 10
13.0064290295
 20
7.0432594859
 11
12.997355188
 21
7.0589654754
  0
LINE
  5
590
100
AcDbEntity
  8
0
100
AcDbLine
 62
7
  6
CONTINUOUS
 10
13.0062539688
 20
6.9454896428
 11
12.9973627788
 21
6.9609628985
  0
LWPOLYLINE
  5
591
100
AcDbEntity
  8
0
100
AcDbPolyline
 62
7
  6
CONTINUOUS
 90
10
 70
0
 10
12.9973627788
 20
6.9840618851
 10
13.0062539688
 20
6.9685886294
 10
13.0215656728
 20
6.954826585
 10
13.0424810762
 20
6.9435503405
 10
13.0685003209
 20
6.9353103524
 10
13.0977541434
 20
6.9309714657
 10
13.1276035341
 20
6.9308523818
 10
13.1571078248
 20
6.9348726768
 10
13.1849205616
 20
6.9430253366
 10
13.2086436394
 20
6.9546977998
  0
LINE
  5
592
100
AcDbEntity
  8
0
100
AcDbLine
 62
7
  6
CONTINUOUS
 10
13.0061827542
 20
7.0190610257
 11
12.9973469744
 21
7.0344945652
  0
LWPOLYLINE
  5
593
100
AcDbEntity
  8
0
100
AcDbPolyline
 62
7
  6
CONTINUOUS
 90
10
 70
0
 10
12.9973469744
 20
7.0575935518
 10
13.0061827542
 20
7.0421600123
 10
13.0216275856
 20
7.0282690027
 10
13.0425691906
 20
7.0169986733
 10
13.0684624607
 20
7.0088042194
 10
13.0974156723
 20
7.0044819869
 10
13.1270259462
 20
7.0043006929
 10
13.1568226902
 20
7.008298015
 10
13.1848485231
 20
7.0164828068
 10
13.2086436394
 20
7.0281830173
  0
LINE
  5
594
100
AcDbEntity
  8
0
100
AcDbLine
 62
7
  6
CONTINUOUS
 10
13.0061455904
 20
6.9701159758
 11
12.997336297
 21
6.9855359032
  0
LWPOLYLINE
  5
595
100
AcDbEntity
  8
0
100
AcDbPolyline
 62
7
  6
CONTINUOUS
 90
10
 70
0
 10
12.997336297
 20
7.0086348899
 10
13.0061455904
 20
6.9932149624
 10
13.021437675
 20
6.9794103741
 10
13.0422969493
 20
6.968122722
 10
13.0682475955
 20
6.9598633247
 10
13.0974474827
 20
6.9554894403
 10
13.1272740499
 20
6.9553262108
 10
13.1569659587
 20
6.9593379023
 10
13.184896375
 20
6.9675110887
 10
13.2086436394
 20
6.9791928723
  0
LINE
  5
596
100
AcDbEntity
  8
0
100
AcDbLine
 62
7
  6
CONTINUOUS
 10
13.0061295154
 20
6.9946305815
 11
12.997333701
 21
7.0100386428
  0
LWPOLYLINE
  5
597
100
AcDbEntity
  8
0
100
AcDbPolyline
 62
7
  6
CONTINUOUS
 90
10
 70
0
 10
12.997333701
 20
7.0331376294
 10
13.0061295154
 20
7.0177295682
 10
13.02147447
 20
7.0038799114
 10
13.0423519074
 20
6.9925946863
 10
13.0682658123
 20
6.9843542109
 10
13.097361507
 20
6.9799910149
 10
13.1270934112
 20
6.9798098511
 10
13.1568730614
 20
6.9838134888
 10
13.1848706197
 20
6.9919962412
 10
13.2086436394
 20
7.0036879448
  0
LINE
  5
598
100
AcDbEntity
  8
0
100
AcDbLine
 62
7
  6
CONTINUOUS
 10
13.0062337346
 20
6.9210190195
 11
12.9972536207
 21
6.9367923969
  0
LWPOLYLINE
  5
599
100
AcDbEntity
  8
0
100
AcDbPolyline
 62
7
  6
CONTINUOUS
 90
10
 70
0
 10
12.9972536207
 20
6.9598913835
 10
13.0062337346
 20
6.9441180062
 10
13.0216603695
 20
6.930266079
 10
13.0426789097
 20
6.9189725555
 10
13.0688656661
 20
6.9107322543
 10
13.0982859623
 20
6.906437747
 10
13.1282960928
 20
6.9064036108
 10
13.1575401713
 20
6.9104692334
 10
13.1849953509
 20
6.9185591127
 10
13.2086436394
 20
6.9302027272
  0
LWPOLYLINE
  5
59A
100
AcDbEntity
  8
0
100
AcDbPolyline
 62
7
  6
CONTINUOUS
 90
10
 70
0
 10
12.9971971481
 20
6.8375875117
 10
13.0063021593
 20
6.8215600701
 10
13.0222300174
 20
6.8074006758
 10
13.0434004283
 20
6.7961985904
 10
13.0690468924
 20
6.7882160032
 10
13.0980461621
 20
6.7839796422
 10
13.1279537834
 20
6.7839050835
 10
13.1576559017
 20
6.788018569
 10
13.185202669
 20
6.796163941
 10
13.2086436394
 20
6.8077273647
  0
LINE
  5
59B
100
AcDbEntity
  8
0
100
AcDbLine
 62
7
  6
CONTINUOUS
 10
13.0062094751
 20
6.8965532945
 11
12.9972197159
 21
6.9123999806
  0
LWPOLYLINE
  5
59C
100
AcDbEntity
  8
0
100
AcDbPolyline
 62
7
  6
CONTINUOUS
 90
10
 70
0
 10
12.9972197159
 20
6.9354989673
 10
13.0062094751
 20
6.9196522811
 10
13.021727231
 20
6.9057249095
 10
13.0427627812
 20
6.8944425265
 10
13.0689748535
 20
6.8862125234
 10
13.0984130069
 20
6.8819336432
 10
13.1284346276
 20
6.8819180686
 10
13.1577051975
 20
6.8860094014
 10
13.1850420674
 20
6.8940820817
 10
13.2086436394
 20
6.9057076547
  0
LINE
  5
59D
100
AcDbEntity
  8
0
100
AcDbLine
 62
7
  6
CONTINUOUS
 10
13.0062526621
 20
6.8230158584
 11
12.9971749879
 21
6.8390515894
  0
LWPOLYLINE
  5
59E
100
AcDbEntity
  8
0
100
AcDbPolyline
 62
7
  6
CONTINUOUS
 90
3
 70
0
 10
12.9971749879
 20
6.862150576
 10
13.0062526621
 20
6.846114845
 10
13.0221610995
 20
6.831942614
  0
LINE
  5
59F
100
AcDbEntity
  8
0
100
AcDbLine
 62
7
  6
CONTINUOUS
 10
13.006178152
 20
6.8720961702
 11
12.9971851578
 21
6.8880104815
  0
LWPOLYLINE
  5
5A0
100
AcDbEntity
  8
0
100
AcDbPolyline
 62
7
  6
CONTINUOUS
 90
10
 70
0
 10
12.9971851578
 20
6.9111094681
 10
13.006178152
 20
6.8951951568
 10
13.0218049185
 20
6.8811763825
 10
13.0428603942
 20
6.8699068521
 10
13.069087741
 20
6.8616920314
 10
13.0985304817
 20
6.8574302886
 10
13.1285486796
 20
6.8574309092
 10
13.1578788135
 20
6.8615515626
 10
13.1850985704
 20
6.8696088523
 10
13.2086436394
 20
6.8812125822
  0
LINE
  5
5A1
100
AcDbEntity
  8
0
100
AcDbLine
 62
7
  6
CONTINUOUS
 10
13.0042009415
 20
7.1181860224
 11
12.9965014387
 21
7.1338972993
  0
LWPOLYLINE
  5
5A2
100
AcDbEntity
  8
0
100
AcDbPolyline
 62
7
  6
CONTINUOUS
 90
11
 70
0
 10
13.0112539093
 20
7.4072065832
 10
13.0130345478
 20
7.395848898
 10
13.0208521389
 20
7.3813650241
 10
13.0344463163
 20
7.3683821582
 10
13.0530270359
 20
7.3576548174
 10
13.0755144539
 20
7.3498064357
 10
13.1006016831
 20
7.3452931325
 10
13.126830745
 20
7.3443772046
 10
13.152677302
 20
7.3471118824
 10
13.1766392459
 20
7.3533382363
 10
13.1973239959
 20
7.3626944134
  0
LWPOLYLINE
  5
5A3
100
AcDbEntity
  8
0
100
AcDbPolyline
 62
9
  6
CONTINUOUS
 90
4
 70
0
 10
13.1675470489
 20
6.582214706
 10
13.1716326849
 20
6.549843778
 10
13.1756737459
 20
6.5133419774
 10
13.1796258186
 20
6.4731104554
  0
LINE
  5
5A4
100
AcDbEntity
  8
0
100
AcDbLine
 62
9
  6
CONTINUOUS
 10
13.297038243
 20
5.6231725052
 11
13.297038243
 21
5.6721626502
  0
LWPOLYLINE
  5
5A5
100
AcDbEntity
  8
0
100
AcDbPolyline
 62
9
  6
CONTINUOUS
 90
3
 70
0
 10
13.4694667086
 20
6.7467537838
 10
13.4727195273
 20
6.7530146058
 10
13.4743844506
 20
6.75936631
  0
LWPOLYLINE
  5
5A6
100
AcDbEntity
  8
0
100
AcDbPolyline
 62
9
  6
CONTINUOUS
 90
4
 70
0
 10
12.7710437002
 20
6.7467521489
 10
12.7204865154
 20
6.7333628121
 10
12.6705214269
 20
6.7153494028
 10
12.6217335501
 20
6.6929228653
  0
LWPOLYLINE
  5
5A7
100
AcDbEntity
  8
0
100
AcDbPolyline
 62
9
  6
CONTINUOUS
 90
4
 70
0
 10
13.469464417
 20
6.8265867201
 10
13.5200225663
 20
6.8351958369
 10
13.5699885376
 20
6.8389231819
 10
13.6187771731
 20
6.8377251065
  0
LWPOLYLINE
  5
5A8
100
AcDbEntity
  8
0
100
AcDbPolyline
 62
9
  6
CONTINUOUS
 90
4
 70
0
 10
12.7661258012
 20
6.7593645965
 10
12.7139425654
 20
6.7547624338
 10
12.6623328488
 20
6.7457240166
 10
12.6118638372
 20
6.7323486779
  0
LWPOLYLINE
  5
5A9
100
AcDbEntity
  8
0
100
AcDbPolyline
 62
9
  6
CONTINUOUS
 90
11
 70
0
 10
13.6187726808
 20
6.8377387466
 10
13.6557122937
 20
6.8381154634
 10
13.6968286925
 20
6.8366285362
 10
13.7421143452
 20
6.8336401855
 10
13.7918707495
 20
6.8294018427
 10
13.846337696
 20
6.8240709469
 10
13.9058703503
 20
6.8177317102
 10
13.9707642703
 20
6.8104337592
 10
14.0413919802
 20
6.8021925296
 10
14.1182028446
 20
6.7929968011
 10
14.2017309469
 20
6.7828128864
  0
LWPOLYLINE
  5
5AA
100
AcDbEntity
  8
0
100
AcDbPolyline
 62
9
  6
CONTINUOUS
 90
4
 70
0
 10
13.4743838048
 20
6.8139717077
 10
13.5265673473
 20
6.8140870713
 10
13.5781773569
 20
6.809714679
 10
13.6286466384
 20
6.800902582
  0
LWPOLYLINE
  5
5AB
100
AcDbEntity
  8
0
100
AcDbPolyline
 62
9
  6
CONTINUOUS
 90
4
 70
0
 10
12.7661256485
 20
6.8139699912
 10
12.71394143
 20
6.8140854873
 10
12.6623306916
 20
6.8097131987
 10
12.6118606148
 20
6.8009011753
  0
LWPOLYLINE
  5
5AC
100
AcDbEntity
  8
0
100
AcDbPolyline
 62
9
  6
CONTINUOUS
 90
11
 70
0
 10
12.6217380772
 20
6.837742397
 10
12.584767216
 20
6.8381124972
 10
12.5436277253
 20
6.8366230302
 10
12.4983191808
 20
6.8336314576
 10
12.4485605993
 20
6.8293915258
 10
12.3940955905
 20
6.8240597868
 10
12.3345659277
 20
6.8177200782
 10
12.2696794113
 20
6.8104223276
 10
12.1990669884
 20
6.8021823613
 10
12.1222765914
 20
6.7929886369
 10
12.038776137
 20
6.7828076914
  0
LWPOLYLINE
  5
5AD
100
AcDbEntity
  8
0
100
AcDbPolyline
 62
9
  6
CONTINUOUS
 90
4
 70
0
 10
13.4743844506
 20
6.75936631
 10
13.5265685052
 20
6.7547643148
 10
13.5781790815
 20
6.7457263955
 10
13.628649003
 20
6.7323518744
  0
LWPOLYLINE
  5
5AE
100
AcDbEntity
  8
0
100
AcDbPolyline
 62
9
  6
CONTINUOUS
 90
4
 70
0
 10
12.7710449045
 20
6.8265851206
 10
12.7204865357
 20
6.8351941715
 10
12.6705203314
 20
6.8389217041
 10
12.6217314231
 20
6.8377240659
  0
LWPOLYLINE
  5
5AF
100
AcDbEntity
  8
0
100
AcDbPolyline
 62
9
  6
CONTINUOUS
 90
4
 70
0
 10
13.4694667086
 20
6.7467537838
 10
13.5200235754
 20
6.7333654063
 10
13.5699882033
 20
6.7153529704
 10
13.6187755281
 20
6.6929273975
  0
LWPOLYLINE
  5
5B0
100
AcDbEntity
  8
0
100
AcDbPolyline
 62
7
  6
CONTINUOUS
 90
8
 70
0
 10
13.0318669441
 20
6.8505933167
 10
13.0537682453
 20
6.841386814
 10
13.0795687188
 20
6.8351553312
 10
13.1073463178
 20
6.8325004843
 10
13.1350896916
 20
6.8334917386
 10
13.162105025
 20
6.8380137583
 10
13.1869949911
 20
6.8458611293
 10
13.2086436394
 20
6.8567175097
  0
LWPOLYLINE
  5
5B1
100
AcDbEntity
  8
0
100
AcDbPolyline
 62
7
  6
CONTINUOUS
 90
8
 70
0
 10
13.0221610995
 20
6.831942614
 10
13.0433100332
 20
6.8207308118
 10
13.0691073038
 20
6.812697489
 10
13.0982371012
 20
6.808460951
 10
13.1281824888
 20
6.8084155724
 10
13.1578252925
 20
6.8125499221
 10
13.1852175078
 20
6.8206647658
 10
13.2086436394
 20
6.8322224372
  0
LWPOLYLINE
  5
5B2
100
AcDbEntity
  8
0
100
AcDbPolyline
 62
7
  6
CONTINUOUS
 90
3
 70
0
 10
13.0428603942
 20
6.8468078654
 10
13.0218049185
 20
6.8580773959
 10
13.006178152
 20
6.8720961702
  0
LINE
  5
5B3
100
AcDbEntity
  8
0
100
AcDbLine
 62
7
  6
CONTINUOUS
 10
13.0318669441
 20
6.82749433
 11
13.0144041136
 21
6.8392632992
  0
LWPOLYLINE
  5
5B4
100
AcDbEntity
  8
0
100
AcDbPolyline
 62
7
  6
CONTINUOUS
 90
3
 70
0
 10
12.9995143302
 20
7.127250712
 10
13.0072066491
 20
7.1151343358
 10
13.0185136484
 20
7.104002621
  0
LINE
  5
5B5
100
AcDbEntity
  8
0
100
AcDbLine
 62
7
  6
CONTINUOUS
 10
13.0066069167
 20
7.0920377389
 11
12.9973738533
 21
7.1079008919
  0
LINE
  5
5B6
100
AcDbEntity
  8
0
100
AcDbLine
 62
7
  6
CONTINUOUS
 10
13.0065145463
 20
7.0676524512
 11
12.9973619751
 21
7.0834406189
  0
LWPOLYLINE
  5
5B7
100
AcDbEntity
  8
0
100
AcDbPolyline
 62
7
  6
CONTINUOUS
 90
10
 70
0
 10
12.9973619751
 20
7.1065396055
 10
13.0065145463
 20
7.0907514378
 10
13.0223700575
 20
7.0767515138
 10
13.0435062915
 20
7.0656009768
 10
13.0691715247
 20
7.0576337945
 10
13.0974914605
 20
7.0534664182
 10
13.1270403886
 20
7.0532917418
 10
13.156832746
 20
7.0572902643
 10
13.1848531052
 20
7.0654747155
 10
13.2086436394
 20
7.0771731623
  0
LWPOLYLINE
  5
5B8
100
AcDbEntity
  8
0
100
AcDbPolyline
 62
7
  6
CONTINUOUS
 90
10
 70
0
 10
12.997355188
 20
7.082064462
 10
13.0064290295
 20
7.0663584725
 10
13.0221995794
 20
7.0523720886
 10
13.0433066249
 20
7.0411878666
 10
13.0690418147
 20
7.0331678713
 10
13.0974463409
 20
7.028974744
 10
13.1269885621
 20
7.0287934301
 10
13.1567972968
 20
7.0327877759
 10
13.1848373345
 20
7.0409735733
 10
13.2086436394
 20
7.0526780898
  0
LWPOLYLINE
  5
5B9
100
AcDbEntity
  8
0
100
AcDbPolyline
 62
9
  6
CONTINUOUS
 90
5
 70
0
 10
13.017897769
 20
7.1830323269
 10
13.0177088335
 20
7.1833949043
 10
13.004183562
 20
7.2077459774
 10
12.9887334309
 20
7.234172048
 10
12.9712411617
 20
7.2628567937
  0
LWPOLYLINE
  5
5BA
100
AcDbEntity
  8
0
100
AcDbPolyline
 62
7
  6
CONTINUOUS
 90
3
 70
0
 10
13.2452549238
 20
7.1326612446
 10
13.2427557119
 20
7.147801055
 10
13.2360105613
 20
7.1600785705
  0
LWPOLYLINE
  5
5BB
100
AcDbEntity
  8
0
100
AcDbPolyline
 62
7
  6
CONTINUOUS
 90
11
 70
0
 10
13.2292441623
 20
7.407178728
 10
13.2274635239
 20
7.4185364133
 10
13.2196459328
 20
7.4330202872
 10
13.2060517553
 20
7.446003153
 10
13.1874710357
 20
7.4567304938
 10
13.1649836178
 20
7.4645788755
 10
13.1398963886
 20
7.4690921787
 10
13.1136673266
 20
7.4700081066
 10
13.0878207697
 20
7.4672734288
 10
13.0638588257
 20
7.4610470749
 10
13.0431740758
 20
7.4516908979
  0
LINE
  5
5BC
100
AcDbEntity
  8
0
100
AcDbLine
 62
7
  6
CONTINUOUS
 10
13.2432992084
 20
6.9495771155
 11
13.2452549231
 21
6.9367081708
  0
LINE
  5
5BD
100
AcDbEntity
  8
0
100
AcDbLine
 62
7
  6
CONTINUOUS
 10
13.2433013079
 20
6.8026279151
 11
13.2452549184
 21
6.7897524433
  0
LINE
  5
5BE
100
AcDbEntity
  8
0
100
AcDbLine
 62
7
  6
CONTINUOUS
 10
13.2433017018
 20
6.9251025561
 11
13.2452549216
 21
6.9122196264
  0
LINE
  5
5BF
100
AcDbEntity
  8
0
100
AcDbLine
 62
7
  6
CONTINUOUS
 10
13.2433030149
 20
6.9006201018
 11
13.2452549198
 21
6.8877295305
  0
LINE
  5
5C0
100
AcDbEntity
  8
0
100
AcDbLine
 62
7
  6
CONTINUOUS
 10
13.2433061371
 20
6.8761302826
 11
13.2452549165
 21
6.8632413181
  0
LINE
  5
5C1
100
AcDbEntity
  8
0
100
AcDbLine
 62
7
  6
CONTINUOUS
 10
13.2433109266
 20
6.8271415167
 11
13.2452549172
 21
6.8142499846
  0
LINE
  5
5C2
100
AcDbEntity
  8
0
100
AcDbLine
 62
7
  6
CONTINUOUS
 10
13.2433115663
 20
6.8516405112
 11
13.2452549166
 21
6.838746158
  0
LINE
  5
5C3
100
AcDbEntity
  8
0
100
AcDbLine
 62
7
  6
CONTINUOUS
 10
13.243314595
 20
6.9740736134
 11
13.2452549238
 21
6.9611951371
  0
LINE
  5
5C4
100
AcDbEntity
  8
0
100
AcDbLine
 62
7
  6
CONTINUOUS
 10
13.2433768574
 20
7.1210104031
 11
13.2452549238
 21
7.1081664992
  0
LINE
  5
5C5
100
AcDbEntity
  8
0
100
AcDbLine
 62
7
  6
CONTINUOUS
 10
13.2433692588
 20
6.9985808685
 11
13.2452549171
 21
6.9856660235
  0
LINE
  5
5C6
100
AcDbEntity
  8
0
100
AcDbLine
 62
7
  6
CONTINUOUS
 10
13.2433796403
 20
7.0230850078
 11
13.2452549164
 21
7.010159811
  0
LINE
  5
5C7
100
AcDbEntity
  8
0
100
AcDbLine
 62
7
  6
CONTINUOUS
 10
13.2433798084
 20
7.0966101103
 11
13.2452549235
 21
7.0836658139
  0
LINE
  5
5C8
100
AcDbEntity
  8
0
100
AcDbLine
 62
7
  6
CONTINUOUS
 10
13.2433886089
 20
7.047593003
 11
13.2452549172
 21
7.0346562313
  0
LWPOLYLINE
  5
5C9
100
AcDbEntity
  8
0
100
AcDbPolyline
 62
9
  6
CONTINUOUS
 90
3
 70
0
 10
13.4743844506
 20
6.75936631
 10
13.4762209484
 20
6.7866613371
 10
13.4743838048
 20
6.8139717077
  0
LWPOLYLINE
  5
5CA
100
AcDbEntity
  8
0
100
AcDbPolyline
 62
9
  6
CONTINUOUS
 90
11
 70
0
 10
12.6118622262
 20
6.8009013839
 10
12.569501396
 20
6.7896494588
 10
12.5224503611
 20
6.7785003115
 10
12.470837854
 20
6.7672854498
 10
12.4143975017
 20
6.7558300086
 10
12.3529011406
 20
6.7440260468
 10
12.285958219
 20
6.7317684985
 10
12.2132840847
 20
6.718993002
 10
12.1344277777
 20
6.7056179678
 10
12.0488741349
 20
6.6915606063
 10
11.9560407411
 20
6.6767340556
  0
LWPOLYLINE
  5
5CB
100
AcDbEntity
  8
0
100
AcDbPolyline
 62
9
  6
CONTINUOUS
 90
12
 70
0
 10
12.6118634414
 20
6.732349545
 10
12.5745526366
 20
6.722523981
 10
12.5333675676
 20
6.7104497801
 10
12.488310375
 20
6.6963124173
 10
12.4391545791
 20
6.6801515584
 10
12.3855673749
 20
6.6619178321
 10
12.3274779886
 20
6.6416203725
 10
12.2644439605
 20
6.6191215126
 10
12.1962464352
 20
6.5943491907
 10
12.1224150267
 20
6.5671325449
 10
12.0425128343
 20
6.5373057893
 10
11.9560419818
 20
6.504675841
  0
LWPOLYLINE
  5
5CC
100
AcDbEntity
  8
0
100
AcDbPolyline
 62
9
  6
CONTINUOUS
 90
12
 70
0
 10
13.6286470466
 20
6.732351983
 10
13.6658614116
 20
6.7225535642
 10
13.7069773692
 20
6.7105029618
 10
13.7519926325
 20
6.6963821985
 10
13.8011117313
 20
6.6802365799
 10
13.8546711721
 20
6.662015203
 10
13.9127498435
 20
6.6417240773
 10
13.975786336
 20
6.6192266044
 10
14.0440108209
 20
6.5944464081
 10
14.1178968807
 20
6.5672111486
 10
14.1978820973
 20
6.5373545222
 10
14.2844691065
 20
6.5046814384
  0
LWPOLYLINE
  5
5CD
100
AcDbEntity
  8
0
100
AcDbPolyline
 62
9
  6
CONTINUOUS
 90
11
 70
0
 10
13.6286470394
 20
6.8009038753
 10
13.6709651393
 20
6.7896628022
 10
13.7179911502
 20
6.7785185249
 10
13.7695792722
 20
6.7673078873
 10
13.8260210147
 20
6.7558512837
 10
13.8875192125
 20
6.7440463709
 10
13.9544660839
 20
6.7317877101
 10
14.02715037
 20
6.719010226
 10
14.1060257303
 20
6.705631947
 10
14.1916025112
 20
6.6915709563
 10
14.2844678657
 20
6.676739653
  0
LWPOLYLINE
  5
5CE
100
AcDbEntity
  8
0
100
AcDbPolyline
 62
9
  6
CONTINUOUS
 90
11
 70
0
 10
12.9948211703
 20
7.0531358171
 10
12.9739069894
 20
7.0627646892
 10
12.9541540345
 20
7.0736117757
 10
12.9350421327
 20
7.0857346311
 10
12.9160223683
 20
7.099241842
 10
12.8967274252
 20
7.1142172214
 10
12.8768522138
 20
7.1307738928
 10
12.8561829719
 20
7.1490087066
 10
12.8345265257
 20
7.169040645
 10
12.8116987655
 20
7.1910116308
 10
12.7875142758
 20
7.215089277
  0
LWPOLYLINE
  5
5CF
100
AcDbEntity
  8
0
100
AcDbPolyline
 62
9
  6
CONTINUOUS
 90
12
 70
0
 10
13.6187760406
 20
6.692929308
 10
13.6512644236
 20
6.6718847871
 10
13.6872177207
 20
6.6503614705
 10
13.7267004982
 20
6.6281554868
 10
13.7699342185
 20
6.6049952134
 10
13.8172599772
 20
6.5805963674
 10
13.868811042
 20
6.5548223228
 10
13.9249350875
 20
6.5274557437
 10
13.9859018693
 20
6.4983409514
 10
14.0520723659
 20
6.4672942277
 10
14.1238654654
 20
6.4341176405
 10
14.2017343094
 20
6.3986081725
  0
LINE
  5
5D0
100
AcDbEntity
  8
0
100
AcDbLine
 62
9
  6
CONTINUOUS
 10
12.9959389212
 20
7.0521662004
 11
12.9948454996
 21
7.0531388171
  0
LINE
  5
5D1
100
AcDbEntity
  8
0
100
AcDbLine
 62
7
  6
CONTINUOUS
 10
13.0119464336
 20
7.114987741
 11
12.9995143302
 21
7.127250712
  0
LINE
  5
5D2
100
AcDbEntity
  8
0
100
AcDbLine
 62
7
  6
CONTINUOUS
 10
13.0185136484
 20
7.104002621
 11
13.0042009415
 21
7.1181860224
  0
LWPOLYLINE
  5
5D3
100
AcDbEntity
  8
0
100
AcDbPolyline
 62
7
  6
CONTINUOUS
 90
3
 70
0
 10
13.2433232423
 20
7.070519096
 10
13.2445846489
 20
7.0670434691
 10
13.2452549136
 20
7.0591452651
  0
LWPOLYLINE
  5
5D4
100
AcDbEntity
  8
0
100
AcDbPolyline
 62
9
  6
CONTINUOUS
 90
3
 70
0
 10
13.628649003
 20
6.7323518744
 10
13.6327798641
 20
6.7661318054
 10
13.6286486814
 20
6.8009036849
  0
LWPOLYLINE
  5
5D5
100
AcDbEntity
  8
0
100
AcDbPolyline
 62
9
  6
CONTINUOUS
 90
3
 70
0
 10
13.6187755281
 20
6.6929273975
 10
13.6245955513
 20
6.7130538166
 10
13.6286469291
 20
6.7323518393
  0
LWPOLYLINE
  5
5D6
100
AcDbEntity
  8
0
100
AcDbPolyline
 62
9
  6
CONTINUOUS
 90
9
 70
0
 10
12.9948454996
 20
7.0531388171
 10
12.922683704
 20
7.0393727899
 10
12.8574965142
 20
7.0205247699
 10
12.7982446061
 20
6.9973200386
 10
12.7454077105
 20
6.9704619557
 10
12.7003468005
 20
6.9407997039
 10
12.6643185191
 20
6.9089954791
 10
12.6379531678
 20
6.8749838001
 10
12.6217316091
 20
6.8377228125
  0
LINE
  5
5D7
100
AcDbEntity
  8
0
100
AcDbLine
 62
9
  6
CONTINUOUS
 10
12.996319587
 20
7.0533374663
 11
12.9948453638
 21
7.0531408807
  0
LINE
  5
5D8
100
AcDbEntity
  8
0
100
AcDbLine
 62
9
  6
CONTINUOUS
 10
13.2456605691
 20
7.0531406805
 11
13.2450091588
 21
7.0532275741
  0
LWPOLYLINE
  5
5D9
100
AcDbEntity
  8
0
100
AcDbPolyline
 62
7
  6
CONTINUOUS
 90
6
 70
0
 10
13.0729640797
 20
7.0935737247
 10
13.1006325348
 20
7.0886737386
 10
13.1295443478
 20
7.08791705
 10
13.1578684593
 20
7.091351861
 10
13.1838106875
 20
7.0987608741
 10
13.2057283816
 20
7.1096755048
  0
LWPOLYLINE
  5
5DA
100
AcDbEntity
  8
0
100
AcDbPolyline
 62
7
  6
CONTINUOUS
 90
3
 70
0
 10
13.0729640797
 20
7.0935737247
 10
13.0497291
 20
7.097815595
 10
13.0290742986
 20
7.1050292539
  0
LINE
  5
5DB
100
AcDbEntity
  8
0
100
AcDbLine
 62
9
  6
CONTINUOUS
 10
13.2776465499
 20
6.9612426275
 11
13.2434290748
 21
6.9733137806
  0
LINE
  5
5DC
100
AcDbEntity
  8
0
100
AcDbLine
 62
7
  6
CONTINUOUS
 10
13.0290742986
 20
7.1050292539
 11
13.0119464336
 21
7.114987741
  0
LWPOLYLINE
  5
5DD
100
AcDbEntity
  8
0
100
AcDbPolyline
 62
9
  6
CONTINUOUS
 90
7
 70
0
 10
13.469464417
 20
6.8265867201
 10
13.4485441019
 20
6.8530535538
 10
13.4226326367
 20
6.8775359436
 10
13.3918229394
 20
6.9009277133
 10
13.3566151141
 20
6.9231260096
 10
13.3181628697
 20
6.9434548144
 10
13.2776465499
 20
6.9612426275
  0
LWPOLYLINE
  5
5DE
100
AcDbEntity
  8
0
100
AcDbPolyline
 62
7
  6
CONTINUOUS
 90
10
 70
0
 10
13.2201393494
 20
7.3831159752
 10
13.2196459328
 20
7.3840301421
 10
13.2060517553
 20
7.397013008
 10
13.1874710357
 20
7.4077403488
 10
13.1649836178
 20
7.4155887305
 10
13.1398963886
 20
7.4201020337
 10
13.1136673266
 20
7.4210179616
 10
13.0878207697
 20
7.4182832838
 10
13.0638588257
 20
7.4120569299
 10
13.0431740758
 20
7.4027007528
  0
LWPOLYLINE
  5
5DF
100
AcDbEntity
  8
0
100
AcDbPolyline
 62
9
  6
CONTINUOUS
 90
3
 70
0
 10
13.4743838048
 20
6.8139717077
 10
13.4727183634
 20
6.8203242912
 10
13.469464417
 20
6.8265867201
  0
LWPOLYLINE
  5
5E0
100
AcDbEntity
  8
0
100
AcDbPolyline
 62
7
  6
CONTINUOUS
 90
5
 70
0
 10
13.0431858517
 20
5.8187210811
 10
13.0269804182
 20
5.806778828
 10
13.0161961022
 20
5.7929445391
 10
13.0114596489
 20
5.778022213
 10
13.0112656852
 20
5.7742367664
  0
LWPOLYLINE
  5
5E1
100
AcDbEntity
  8
0
100
AcDbPolyline
 62
7
  6
CONTINUOUS
 90
3
 70
0
 10
13.0431858517
 20
5.7697309361
 10
13.0269804182
 20
5.7577886829
 10
13.0203704981
 20
5.7493093743
  0
LINE
  5
5E2
100
AcDbEntity
  8
0
100
AcDbLine
 62
7
  6
CONTINUOUS
 10
13.0644334973
 20
7.2045694469
 11
13.0495717145
 21
7.2006499042
  0
LWPOLYLINE
  5
5E3
100
AcDbEntity
  8
0
100
AcDbPolyline
 62
7
  6
CONTINUOUS
 90
9
 70
0
 10
13.2018551164
 20
7.2008783896
 10
13.1802293027
 20
7.2094539957
 10
13.1557801807
 20
7.2149097539
 10
13.1302328096
 20
7.2168952491
 10
13.1052517467
 20
7.2154439871
 10
13.0828734111
 20
7.2110399732
 10
13.0648133815
 20
7.2047698188
 10
13.0500265386
 20
7.1969704219
 10
13.03767015
 20
7.1871595596
  0
LWPOLYLINE
  5
5E4
100
AcDbEntity
  8
0
100
AcDbPolyline
 62
7
  6
CONTINUOUS
 90
7
 70
0
 10
13.2018551164
 20
7.2008783896
 10
13.2192929018
 20
7.188063602
 10
13.2312972213
 20
7.1731509783
 10
13.2371435809
 20
7.1569361507
 10
13.236453007
 20
7.1402933126
 10
13.2292136976
 20
7.1241226822
 10
13.215782068
 20
7.1093041222
  0
LWPOLYLINE
  5
5E5
100
AcDbEntity
  8
0
100
AcDbPolyline
 62
9
  6
CONTINUOUS
 90
9
 70
0
 10
13.6187771731
 20
6.8377251065
 10
13.6025542194
 20
6.8749873087
 10
13.5761917891
 20
6.9089947309
 10
13.5401635378
 20
6.9407992389
 10
13.4951069388
 20
6.9704591835
 10
13.4422663617
 20
6.9973195735
 10
13.3830152274
 20
7.0205241586
 10
13.3178199377
 20
7.0393742846
 10
13.245660499
 20
7.0531393602
  0
LWPOLYLINE
  5
5E6
100
AcDbEntity
  8
0
100
AcDbPolyline
 62
9
  6
CONTINUOUS
 90
3
 70
0
 10
13.6286466384
 20
6.800902582
 10
13.6245890943
 20
6.819705087
 10
13.6187775355
 20
6.8377270394
  0
LWPOLYLINE
  5
5E7
100
AcDbEntity
  8
0
100
AcDbPolyline
 62
7
  6
CONTINUOUS
 90
5
 70
0
 10
13.1973357717
 20
5.7297245966
 10
13.2135412051
 20
5.7416668497
 10
13.2243255212
 20
5.7555011386
 10
13.2290619745
 20
5.7704234646
 10
13.2292559382
 20
5.7742089112
  0
LWPOLYLINE
  5
5E8
100
AcDbEntity
  8
0
100
AcDbPolyline
 62
7
  6
CONTINUOUS
 90
5
 70
0
 10
14.4573935261
 20
6.6352093888
 10
14.4411880927
 20
6.6232671357
 10
14.4304037767
 20
6.6094328468
 10
14.4256673233
 20
6.5945105208
 10
14.4254733596
 20
6.5907250742
  0
LWPOLYLINE
  5
5E9
100
AcDbEntity
  8
0
100
AcDbPolyline
 62
7
  6
CONTINUOUS
 90
3
 70
0
 10
14.4573935261
 20
6.5862192438
 10
14.4411880927
 20
6.5742769907
 10
14.4345781726
 20
6.565797682
  0
LINE
  5
5EA
100
AcDbEntity
  8
0
100
AcDbLine
 62
7
  6
CONTINUOUS
 10
13.4529955972
 20
5.9663262101
 11
14.2017336972
 21
6.3986077733
  0
LWPOLYLINE
  5
5EB
100
AcDbEntity
  8
0
100
AcDbPolyline
 62
7
  6
CONTINUOUS
 90
5
 70
0
 10
13.4529955972
 20
5.9663262101
 10
13.4091298738
 20
5.9449030016
 10
13.3622286944
 20
5.9296653348
 10
13.3148353831
 20
5.9211179407
 10
13.2692686858
 20
5.9185587009
  0
LINE
  5
5EC
100
AcDbEntity
  8
0
100
AcDbLine
 62
7
  6
CONTINUOUS
 10
13.2692589895
 20
7.2628575099
 11
12.9712411629
 21
7.2628567936
  0
LWPOLYLINE
  5
5ED
100
AcDbEntity
  8
0
100
AcDbPolyline
 62
7
  6
CONTINUOUS
 90
6
 70
0
 10
13.2692589895
 20
7.2628575099
 10
13.310327746
 20
7.2607865049
 10
13.3504901488
 20
7.254468467
 10
13.3878755556
 20
7.2443196771
 10
13.4221908884
 20
7.2309123663
 10
13.4529865524
 20
7.2150909068
  0
LINE
  5
5EE
100
AcDbEntity
  8
0
100
AcDbLine
 62
7
  6
CONTINUOUS
 10
14.2017309756
 20
6.7828128919
 11
13.4529865524
 21
7.2150909068
  0
LWPOLYLINE
  5
5EF
100
AcDbEntity
  8
0
100
AcDbPolyline
 62
7
  6
CONTINUOUS
 90
6
 70
0
 10
14.2017309756
 20
6.7828128919
 10
14.2291398273
 20
6.7650299836
 10
14.2523574376
 20
6.7452223417
 10
14.2699347057
 20
6.7236408981
 10
14.280880428
 20
6.7004502184
 10
14.2844678657
 20
6.6767396522
  0
LWPOLYLINE
  5
5F0
100
AcDbEntity
  8
0
100
AcDbPolyline
 62
7
  6
CONTINUOUS
 90
5
 70
0
 10
14.6115434462
 20
6.5462129043
 10
14.6277488796
 20
6.5581551575
 10
14.6385331956
 20
6.5719894463
 10
14.6432696489
 20
6.5869117724
 10
14.6434636126
 20
6.590697219
  0
LINE
  5
5F1
100
AcDbEntity
  8
0
100
AcDbLine
 62
7
  6
CONTINUOUS
 10
13.297038243
 20
5.6721626502
 11
14.7112459174
 21
6.4886509579
  0
LINE
  5
5F2
100
AcDbEntity
  8
0
100
AcDbLine
 62
7
  6
CONTINUOUS
 10
13.297038243
 20
5.6231725052
 11
14.7112459174
 21
6.4396608129
  0
LINE
  5
5F3
100
AcDbEntity
  8
0
100
AcDbLine
 62
7
  6
CONTINUOUS
 10
14.7112444454
 20
6.692772185
 11
13.2970249951
 21
7.5092536941
  0
LWPOLYLINE
  5
5F4
100
AcDbEntity
  8
0
100
AcDbPolyline
 62
7
  6
CONTINUOUS
 90
5
 70
0
 10
14.7112459174
 20
6.4886509579
 10
14.7461500897
 20
6.5139205376
 10
14.7704396625
 20
6.543040719
 10
14.7828966551
 20
6.5745512947
 10
14.7844536911
 20
6.590711144
  0
LWPOLYLINE
  5
5F5
100
AcDbEntity
  8
0
100
AcDbPolyline
 62
7
  6
CONTINUOUS
 90
5
 70
0
 10
14.7112459174
 20
6.4396608129
 10
14.7461500897
 20
6.4649303925
 10
14.7704396625
 20
6.4940505739
 10
14.7828966551
 20
6.5255611496
 10
14.7844536911
 20
6.541720999
  0
LWPOLYLINE
  5
5F6
100
AcDbEntity
  8
0
100
AcDbPolyline
 62
7
  6
CONTINUOUS
 90
8
 70
0
 10
13.2970249951
 20
7.5092536941
 10
13.2532561736
 20
7.5294053393
 10
13.2028178189
 20
7.5434287302
 10
13.1482391205
 20
7.5506206754
 10
13.0922568825
 20
7.5506205408
 10
13.0376782879
 20
7.5434283332
 10
12.9872401354
 20
7.5294046998
 10
12.9434716045
 20
7.5092528442
  0
LINE
  5
5F7
100
AcDbEntity
  8
0
100
AcDbLine
 62
7
  6
CONTINUOUS
 10
14.2844691065
 20
6.5046814389
 11
14.2844678657
 21
6.6767396522
  0
LWPOLYLINE
  5
5F8
100
AcDbEntity
  8
0
100
AcDbPolyline
 62
7
  6
CONTINUOUS
 90
6
 70
0
 10
14.2844691065
 20
6.5046814389
 10
14.280881968
 20
6.4809707167
 10
14.2699386415
 20
6.4577832647
 10
14.2523601596
 20
6.4361990912
 10
14.2291376757
 20
6.4163874037
 10
14.2017336972
 20
6.3986077733
  0
LWPOLYLINE
  5
5F9
100
AcDbEntity
  8
0
100
AcDbPolyline
 62
7
  6
CONTINUOUS
 90
11
 70
0
 10
14.4254733596
 20
6.5907250742
 10
14.4272539981
 20
6.5793673889
 10
14.4350715892
 20
6.564883515
 10
14.4486657666
 20
6.5519006492
 10
14.4672464862
 20
6.5411733084
 10
14.4897339042
 20
6.5333249267
 10
14.5148211334
 20
6.5288116235
 10
14.5410501953
 20
6.5278956956
 10
14.5668967523
 20
6.5306303734
 10
14.5908586962
 20
6.5368567273
 10
14.6115434462
 20
6.5462129043
  0
LWPOLYLINE
  5
5FA
100
AcDbEntity
  8
0
100
AcDbPolyline
 62
7
  6
CONTINUOUS
 90
10
 70
0
 10
14.6343587997
 20
6.5666344661
 10
14.6338653831
 20
6.5675486331
 10
14.6202712056
 20
6.5805314989
 10
14.601690486
 20
6.5912588397
 10
14.5792030681
 20
6.5991072214
 10
14.5541158389
 20
6.6036205246
 10
14.5278867769
 20
6.6045364525
 10
14.50204022
 20
6.6018017748
 10
14.478078276
 20
6.5955754208
 10
14.4573935261
 20
6.5862192438
  0
LWPOLYLINE
  5
5FB
100
AcDbEntity
  8
0
100
AcDbPolyline
 62
7
  6
CONTINUOUS
 90
11
 70
0
 10
14.6434636126
 20
6.590697219
 10
14.6416829742
 20
6.6020549042
 10
14.6338653831
 20
6.6165387781
 10
14.6202712056
 20
6.629521644
 10
14.601690486
 20
6.6402489848
 10
14.5792030681
 20
6.6480973665
 10
14.5541158389
 20
6.6526106697
 10
14.5278867769
 20
6.6535265976
 10
14.50204022
 20
6.6507919198
 10
14.478078276
 20
6.6445655658
 10
14.4573935261
 20
6.6352093888
  0
LWPOLYLINE
  5
5FC
100
AcDbEntity
  8
0
100
AcDbPolyline
 62
7
  6
CONTINUOUS
 90
5
 70
0
 10
14.7844536911
 20
6.590711144
 10
14.7828964221
 20
6.6068721928
 10
14.7704389749
 20
6.6383827086
 10
14.7461489822
 20
6.6675027732
 10
14.7112444454
 20
6.692772185
  0
LINE
  5
5FD
100
AcDbEntity
  8
0
100
AcDbLine
 62
9
  6
CONTINUOUS
 10
14.7112459174
 20
6.4396608129
 11
14.7112459174
 21
6.4886509579
  0
LINE
  5
5FE
100
AcDbEntity
  8
0
100
AcDbLine
 62
7
  6
CONTINUOUS
 10
14.7844684861
 20
6.5417210016
 11
14.7844684861
 21
6.5907111466
  0
LINE
  5
5FF
100
AcDbEntity
  8
0
100
AcDbLine
 62
7
  6
CONTINUOUS
 10
5.0515970457
 20
2.9725262206
 11
5.0515970457
 21
3.0325262206
  0
LINE
  5
600
100
AcDbEntity
  8
0
100
AcDbLine
 62
9
  6
CONTINUOUS
 10
5.3015970457
 20
2.9725262206
 11
5.3015970457
 21
3.0325262206
  0
LINE
  5
601
100
AcDbEntity
  8
0
100
AcDbLine
 62
7
  6
CONTINUOUS
 10
6.2014355941
 20
3.7220633199
 11
6.1768696864
 21
3.7078416307
  0
LINE
  5
602
100
AcDbEntity
  8
0
100
AcDbLine
 62
7
  6
CONTINUOUS
 10
6.2014355941
 20
3.6920633199
 11
6.1768696864
 21
3.6778416307
  0
LINE
  5
603
100
AcDbEntity
  8
0
100
AcDbLine
 62
7
  6
CONTINUOUS
 10
6.179314837
 20
3.7068138529
 11
6.1765970457
 21
3.7058163925
  0
LINE
  5
604
100
AcDbEntity
  8
0
100
AcDbLine
 62
7
  6
CONTINUOUS
 10
6.2014355941
 20
3.7220633199
 11
6.2027037725
 21
3.7225262206
  0
LINE
  5
605
100
AcDbEntity
  8
0
100
AcDbLine
 62
7
  6
CONTINUOUS
 10
6.1765970457
 20
3.6758163838
 11
6.1802515978
 21
3.6769737806
  0
LINE
  5
606
100
AcDbEntity
  8
0
100
AcDbLine
 62
7
  6
CONTINUOUS
 10
5.0515970457
 20
2.9725262206
 11
7.5515970457
 21
2.9725262206
  0
LINE
  5
607
100
AcDbEntity
  8
0
100
AcDbLine
 62
7
  6
CONTINUOUS
 10
6.1768696864
 20
3.6778416307
 11
6.1765970457
 21
3.6775262206
  0
LINE
  5
608
100
AcDbEntity
  8
0
100
AcDbLine
 62
7
  6
CONTINUOUS
 10
6.1768696864
 20
3.6478416307
 11
6.1765970457
 21
3.6475262206
  0
LINE
  5
609
100
AcDbEntity
  8
0
100
AcDbLine
 62
7
  6
CONTINUOUS
 10
6.1768696864
 20
3.6178416307
 11
6.1765970457
 21
3.6175262206
  0
LINE
  5
60A
100
AcDbEntity
  8
0
100
AcDbLine
 62
7
  6
CONTINUOUS
 10
6.1768696864
 20
3.5878416307
 11
6.1765970457
 21
3.5875262206
  0
LINE
  5
60B
100
AcDbEntity
  8
0
100
AcDbLine
 62
7
  6
CONTINUOUS
 10
6.1765970457
 20
3.7075262571
 11
6.1768696864
 21
3.7078416307
  0
LINE
  5
60C
100
AcDbEntity
  8
0
100
AcDbLine
 62
7
  6
CONTINUOUS
 10
6.4017584962
 20
3.7062792838
 11
6.4212655999
 21
3.7175736177
  0
LINE
  5
60D
100
AcDbEntity
  8
0
100
AcDbLine
 62
7
  6
CONTINUOUS
 10
6.2014355941
 20
3.6620633199
 11
6.1768696864
 21
3.6478416307
  0
LINE
  5
60E
100
AcDbEntity
  8
0
100
AcDbLine
 62
7
  6
CONTINUOUS
 10
6.2014355941
 20
3.6320633199
 11
6.1768696864
 21
3.6178416307
  0
LINE
  5
60F
100
AcDbEntity
  8
0
100
AcDbLine
 62
7
  6
CONTINUOUS
 10
6.2014355941
 20
3.6020633199
 11
6.1768696864
 21
3.5878416307
  0
LWPOLYLINE
  5
610
100
AcDbEntity
  8
0
100
AcDbPolyline
 62
7
  6
CONTINUOUS
 90
14
 70
0
 10
6.2014355941
 20
3.6620633199
 10
6.2019229193
 20
3.6622838331
 10
6.2084832997
 20
3.6635132696
 10
6.2211833119
 20
3.664742706
 10
6.2391855565
 20
3.6659721425
 10
6.2613030212
 20
3.667201579
 10
6.2860773489
 20
3.6684310155
 10
6.3118749974
 20
3.669660452
 10
6.3369949496
 20
3.6708898884
 10
6.3597808737
 20
3.6721193249
 10
6.3787303366
 20
3.6733487614
 10
6.3925938694
 20
3.6745781979
 10
6.4004573537
 20
3.6758076344
 10
6.4017584962
 20
3.6762792838
  0
LWPOLYLINE
  5
611
100
AcDbEntity
  8
0
100
AcDbPolyline
 62
7
  6
CONTINUOUS
 90
9
 70
0
 10
6.4212655999
 20
3.7175736177
 10
6.4211028905
 20
3.7175000022
 10
6.415863567
 20
3.7167862708
 10
6.4042146456
 20
3.7160735821
 10
6.3867565286
 20
3.7153619873
 10
6.3644132467
 20
3.7146514714
 10
6.338381358
 20
3.7139420027
 10
6.3100667144
 20
3.7132335931
 10
6.2810049171
 20
3.7125262206
  0
LINE
  5
612
100
AcDbEntity
  8
0
100
AcDbLine
 62
7
  6
CONTINUOUS
 10
6.4265970457
 20
3.6925262206
 11
6.4229520743
 21
3.6913703494
  0
LINE
  5
613
100
AcDbEntity
  8
0
100
AcDbLine
 62
7
  6
CONTINUOUS
 10
6.1765970457
 20
3.5858163838
 11
6.180246689
 21
3.5869729992
  0
LINE
  5
614
100
AcDbEntity
  8
0
100
AcDbLine
 62
7
  6
CONTINUOUS
 10
6.4265970457
 20
3.6625262206
 11
6.4229453183
 21
3.6613692734
  0
LINE
  5
615
100
AcDbEntity
  8
0
100
AcDbLine
 62
7
  6
CONTINUOUS
 10
6.1765970457
 20
3.6158163838
 11
6.1802528825
 21
3.616973985
  0
LINE
  5
616
100
AcDbEntity
  8
0
100
AcDbLine
 62
7
  6
CONTINUOUS
 10
6.1765970457
 20
3.6458163838
 11
6.1802560202
 21
3.6469744841
  0
LWPOLYLINE
  5
617
100
AcDbEntity
  8
0
100
AcDbPolyline
 62
7
  6
CONTINUOUS
 90
13
 70
0
 10
6.2014355941
 20
3.6320633199
 10
6.2037815497
 20
3.6327773576
 10
6.2128821516
 20
3.634006794
 10
6.2278323386
 20
3.6352362305
 10
6.2476463417
 20
3.636465667
 10
6.2710176871
 20
3.6376951035
 10
6.2964053405
 20
3.63892454
 10
6.3221353189
 20
3.6401539764
 10
6.3465110672
 20
3.6413834129
 10
6.3679253242
 20
3.6426128494
 10
6.3849661001
 20
3.6438422859
 10
6.396509779
 20
3.6450717224
 10
6.4017584962
 20
3.6462792838
  0
LINE
  5
618
100
AcDbEntity
  8
0
100
AcDbLine
 62
7
  6
CONTINUOUS
 10
5.0515970457
 20
3.0325262206
 11
7.5515970457
 21
3.0325262206
  0
LINE
  5
619
100
AcDbEntity
  8
0
100
AcDbLine
 62
7
  6
CONTINUOUS
 10
6.1768696864
 20
3.5578416307
 11
6.1765970457
 21
3.5575262206
  0
LINE
  5
61A
100
AcDbEntity
  8
0
100
AcDbLine
 62
7
  6
CONTINUOUS
 10
6.1768696864
 20
3.5278416307
 11
6.1765970457
 21
3.5275262206
  0
LINE
  5
61B
100
AcDbEntity
  8
0
100
AcDbLine
 62
7
  6
CONTINUOUS
 10
6.1768696864
 20
3.4978416307
 11
6.1765970457
 21
3.4975262206
  0
LINE
  5
61C
100
AcDbEntity
  8
0
100
AcDbLine
 62
7
  6
CONTINUOUS
 10
6.1768696864
 20
3.4678416307
 11
6.1765970457
 21
3.4675262206
  0
LINE
  5
61D
100
AcDbEntity
  8
0
100
AcDbLine
 62
7
  6
CONTINUOUS
 10
6.2014355941
 20
3.5720633199
 11
6.1768696864
 21
3.5578416307
  0
LINE
  5
61E
100
AcDbEntity
  8
0
100
AcDbLine
 62
7
  6
CONTINUOUS
 10
6.4017584962
 20
3.6762792838
 11
6.4263244062
 21
3.6905009743
  0
LINE
  5
61F
100
AcDbEntity
  8
0
100
AcDbLine
 62
7
  6
CONTINUOUS
 10
6.2014355941
 20
3.5420633199
 11
6.1768696864
 21
3.5278416307
  0
LINE
  5
620
100
AcDbEntity
  8
0
100
AcDbLine
 62
7
  6
CONTINUOUS
 10
6.4017584962
 20
3.6462792838
 11
6.4263244062
 21
3.6605009743
  0
LINE
  5
621
100
AcDbEntity
  8
0
100
AcDbLine
 62
7
  6
CONTINUOUS
 10
6.2014355941
 20
3.5120633199
 11
6.1768696864
 21
3.4978416307
  0
LINE
  5
622
100
AcDbEntity
  8
0
100
AcDbLine
 62
7
  6
CONTINUOUS
 10
6.4017584962
 20
3.6162792838
 11
6.4263244062
 21
3.6305009743
  0
LINE
  5
623
100
AcDbEntity
  8
0
100
AcDbLine
 62
7
  6
CONTINUOUS
 10
6.2014355941
 20
3.4820633199
 11
6.1768696864
 21
3.4678416307
  0
LWPOLYLINE
  5
624
100
AcDbEntity
  8
0
100
AcDbPolyline
 62
7
  6
CONTINUOUS
 90
14
 70
0
 10
6.2014355941
 20
3.5720633199
 10
6.2018298039
 20
3.5722482253
 10
6.2082570436
 20
3.573484489
 10
6.2209069946
 20
3.5747207527
 10
6.2389363207
 20
3.5759570165
 10
6.2611430582
 20
3.5771932802
 10
6.2860467476
 20
3.578429544
 10
6.3119871309
 20
3.5796658077
 10
6.3372348369
 20
3.5809020714
 10
6.3601066732
 20
3.5821383352
 10
6.3790778398
 20
3.5833745989
 10
6.3928835833
 20
3.5846108626
 10
6.4006035141
 20
3.5858471264
 10
6.4017584962
 20
3.5862792838
  0
LWPOLYLINE
  5
625
100
AcDbEntity
  8
0
100
AcDbPolyline
 62
7
  6
CONTINUOUS
 90
13
 70
0
 10
6.2014355941
 20
3.5420633199
 10
6.2029032764
 20
3.5425778956
 10
6.2110496745
 20
3.5438141593
 10
6.2252326071
 20
3.5450504231
 10
6.2445065387
 20
3.5462866868
 10
6.2675865312
 20
3.5475229505
 10
6.2929339076
 20
3.5487592143
 10
6.3188588306
 20
3.549995478
 10
6.3436329597
 20
3.5512317418
 10
6.3656046746
 20
3.5524680055
 10
6.3833091837
 20
3.5537042692
 10
6.3955661781
 20
3.554940533
 10
6.4017584962
 20
3.5562792838
  0
LINE
  5
626
100
AcDbEntity
  8
0
100
AcDbLine
 62
7
  6
CONTINUOUS
 10
6.1765970457
 20
3.4958163838
 11
6.1801559049
 21
3.4969584535
  0
LINE
  5
627
100
AcDbEntity
  8
0
100
AcDbLine
 62
7
  6
CONTINUOUS
 10
6.4265970457
 20
3.5725262206
 11
6.4229502258
 21
3.5713700549
  0
LINE
  5
628
100
AcDbEntity
  8
0
100
AcDbLine
 62
7
  6
CONTINUOUS
 10
6.1765970457
 20
3.5558163838
 11
6.180245679
 21
3.5569728383
  0
LINE
  5
629
100
AcDbEntity
  8
0
100
AcDbLine
 62
7
  6
CONTINUOUS
 10
6.4265970457
 20
3.6325262206
 11
6.4229408971
 21
3.6313685698
  0
LINE
  5
62A
100
AcDbEntity
  8
0
100
AcDbLine
 62
7
  6
CONTINUOUS
 10
6.1765970457
 20
3.5258163838
 11
6.1802504668
 21
3.5269736006
  0
LINE
  5
62B
100
AcDbEntity
  8
0
100
AcDbLine
 62
7
  6
CONTINUOUS
 10
6.4265970457
 20
3.6025262206
 11
6.422944034
 21
3.6013690689
  0
LINE
  5
62C
100
AcDbEntity
  8
0
100
AcDbLine
 62
7
  6
CONTINUOUS
 10
6.1765970457
 20
3.2725262206
 11
6.1765970457
 21
3.2875262206
  0
LINE
  5
62D
100
AcDbEntity
  8
AXIS
100
AcDbLine
 62
7
  6
CONTINUOUS
 10
6.1765970457
 20
3.2725262206
 11
6.1765970457
 21
3.2875262206
  0
LINE
  5
62E
100
AcDbEntity
  8
0
100
AcDbLine
 62
7
  6
CONTINUOUS
 10
6.1765970457
 20
3.3158163838
 11
6.1765970457
 21
3.3175262206
  0
LINE
  5
62F
100
AcDbEntity
  8
AXIS
100
AcDbLine
 62
7
  6
CONTINUOUS
 10
6.1765970457
 20
3.3158163838
 11
6.1765970457
 21
3.3175262206
  0
LINE
  5
630
100
AcDbEntity
  8
0
100
AcDbLine
 62
7
  6
CONTINUOUS
 10
6.1765970457
 20
3.3458163838
 11
6.1765970457
 21
3.3475262206
  0
LINE
  5
631
100
AcDbEntity
  8
AXIS
100
AcDbLine
 62
7
  6
CONTINUOUS
 10
6.1765970457
 20
3.3458163838
 11
6.1765970457
 21
3.3475262206
  0
LINE
  5
632
100
AcDbEntity
  8
0
100
AcDbLine
 62
7
  6
CONTINUOUS
 10
6.1765970457
 20
3.3758163838
 11
6.1765970457
 21
3.3775262206
  0
LINE
  5
633
100
AcDbEntity
  8
AXIS
100
AcDbLine
 62
7
  6
CONTINUOUS
 10
6.1765970457
 20
3.3758163838
 11
6.1765970457
 21
3.3775262206
  0
LINE
  5
634
100
AcDbEntity
  8
0
100
AcDbLine
 62
7
  6
CONTINUOUS
 10
6.1765970457
 20
3.4058163838
 11
6.1765970457
 21
3.4075262206
  0
LINE
  5
635
100
AcDbEntity
  8
AXIS
100
AcDbLine
 62
7
  6
CONTINUOUS
 10
6.1765970457
 20
3.4058163838
 11
6.1765970457
 21
3.4075262206
  0
LINE
  5
636
100
AcDbEntity
  8
0
100
AcDbLine
 62
7
  6
CONTINUOUS
 10
6.1765970457
 20
3.4358163838
 11
6.1765970457
 21
3.4375262206
  0
LINE
  5
637
100
AcDbEntity
  8
AXIS
100
AcDbLine
 62
7
  6
CONTINUOUS
 10
6.1765970457
 20
3.4358163838
 11
6.1765970457
 21
3.4375262206
  0
LINE
  5
638
100
AcDbEntity
  8
0
100
AcDbLine
 62
7
  6
CONTINUOUS
 10
6.1765970457
 20
3.4658163838
 11
6.1765970457
 21
3.4675262206
  0
LINE
  5
639
100
AcDbEntity
  8
AXIS
100
AcDbLine
 62
7
  6
CONTINUOUS
 10
6.1765970457
 20
3.4658163838
 11
6.1765970457
 21
3.4675262206
  0
LINE
  5
63A
100
AcDbEntity
  8
0
100
AcDbLine
 62
7
  6
CONTINUOUS
 10
6.1765970457
 20
3.4958163838
 11
6.1765970457
 21
3.4975262206
  0
LINE
  5
63B
100
AcDbEntity
  8
AXIS
100
AcDbLine
 62
7
  6
CONTINUOUS
 10
6.1765970457
 20
3.4958163838
 11
6.1765970457
 21
3.4975262206
  0
LINE
  5
63C
100
AcDbEntity
  8
0
100
AcDbLine
 62
7
  6
CONTINUOUS
 10
6.1765970457
 20
3.5258163838
 11
6.1765970457
 21
3.5275262206
  0
LINE
  5
63D
100
AcDbEntity
  8
AXIS
100
AcDbLine
 62
7
  6
CONTINUOUS
 10
6.1765970457
 20
3.5258163838
 11
6.1765970457
 21
3.5275262206
  0
LINE
  5
63E
100
AcDbEntity
  8
0
100
AcDbLine
 62
7
  6
CONTINUOUS
 10
6.1765970457
 20
3.5558163838
 11
6.1765970457
 21
3.5575262206
  0
LINE
  5
63F
100
AcDbEntity
  8
AXIS
100
AcDbLine
 62
7
  6
CONTINUOUS
 10
6.1765970457
 20
3.5558163838
 11
6.1765970457
 21
3.5575262206
  0
LINE
  5
640
100
AcDbEntity
  8
0
100
AcDbLine
 62
7
  6
CONTINUOUS
 10
6.1765970457
 20
3.5858163838
 11
6.1765970457
 21
3.5875262206
  0
LINE
  5
641
100
AcDbEntity
  8
AXIS
100
AcDbLine
 62
7
  6
CONTINUOUS
 10
6.1765970457
 20
3.5858163838
 11
6.1765970457
 21
3.5875262206
  0
LINE
  5
642
100
AcDbEntity
  8
0
100
AcDbLine
 62
7
  6
CONTINUOUS
 10
6.1765970457
 20
3.6158163838
 11
6.1765970457
 21
3.6175262206
  0
LINE
  5
643
100
AcDbEntity
  8
AXIS
100
AcDbLine
 62
7
  6
CONTINUOUS
 10
6.1765970457
 20
3.6158163838
 11
6.1765970457
 21
3.6175262206
  0
LINE
  5
644
100
AcDbEntity
  8
0
100
AcDbLine
 62
7
  6
CONTINUOUS
 10
6.1765970457
 20
3.6458163838
 11
6.1765970457
 21
3.6475262206
  0
LINE
  5
645
100
AcDbEntity
  8
AXIS
100
AcDbLine
 62
7
  6
CONTINUOUS
 10
6.1765970457
 20
3.6458163838
 11
6.1765970457
 21
3.6475262206
  0
LINE
  5
646
100
AcDbEntity
  8
0
100
AcDbLine
 62
7
  6
CONTINUOUS
 10
6.1765970457
 20
3.6758163838
 11
6.1765970457
 21
3.6775262206
  0
LINE
  5
647
100
AcDbEntity
  8
AXIS
100
AcDbLine
 62
7
  6
CONTINUOUS
 10
6.1765970457
 20
3.6758163838
 11
6.1765970457
 21
3.6775262206
  0
LINE
  5
648
100
AcDbEntity
  8
AXIS
100
AcDbLine
 62
7
  6
CONTINUOUS
 10
6.1765970457
 20
3.7058163838
 11
6.1765970457
 21
3.7075262206
  0
LWPOLYLINE
  5
649
100
AcDbEntity
  8
0
100
AcDbPolyline
 62
9
  6
CONTINUOUS
 90
12
 70
0
 10
6.0377576031
 20
3.24638468
 10
6.0279156562
 20
3.2337362799
 10
6.0149912695
 20
3.219878817
 10
5.9992227958
 20
3.2048394299
 10
5.9807288505
 20
3.1885582362
 10
5.9595109699
 20
3.1709290857
 10
5.935614591
 20
3.1519231118
 10
5.9089475295
 20
3.1314275092
 10
5.8794310144
 20
3.1093623665
 10
5.8469229179
 20
3.08561467
 10
5.8112363383
 20
3.0600506428
 10
5.7721561896
 20
3.0325262215
  0
LINE
  5
64A
100
AcDbEntity
  8
0
100
AcDbLine
 62
7
  6
CONTINUOUS
 10
6.1768696864
 20
3.4378416307
 11
6.1765970457
 21
3.4375262206
  0
LINE
  5
64B
100
AcDbEntity
  8
0
100
AcDbLine
 62
7
  6
CONTINUOUS
 10
6.1768696864
 20
3.4078416307
 11
6.1765970457
 21
3.4075262206
  0
LINE
  5
64C
100
AcDbEntity
  8
0
100
AcDbLine
 62
7
  6
CONTINUOUS
 10
6.4263244062
 20
3.6905009743
 11
6.4265970457
 21
3.6908163838
  0
LINE
  5
64D
100
AcDbEntity
  8
0
100
AcDbLine
 62
7
  6
CONTINUOUS
 10
6.1768696864
 20
3.3778416307
 11
6.1765970457
 21
3.3775262206
  0
LINE
  5
64E
100
AcDbEntity
  8
0
100
AcDbLine
 62
7
  6
CONTINUOUS
 10
6.4263244062
 20
3.6605009743
 11
6.4265970457
 21
3.6608163838
  0
LINE
  5
64F
100
AcDbEntity
  8
0
100
AcDbLine
 62
7
  6
CONTINUOUS
 10
6.1768696864
 20
3.3478416307
 11
6.1765970457
 21
3.3475262206
  0
LINE
  5
650
100
AcDbEntity
  8
0
100
AcDbLine
 62
7
  6
CONTINUOUS
 10
6.4263244062
 20
3.6305009743
 11
6.4265970457
 21
3.6308163838
  0
LINE
  5
651
100
AcDbEntity
  8
0
100
AcDbLine
 62
7
  6
CONTINUOUS
 10
6.4017584962
 20
3.5862792838
 11
6.4263244062
 21
3.6005009743
  0
LINE
  5
652
100
AcDbEntity
  8
0
100
AcDbLine
 62
7
  6
CONTINUOUS
 10
6.2014355941
 20
3.4520633199
 11
6.1768696864
 21
3.4378416307
  0
LINE
  5
653
100
AcDbEntity
  8
0
100
AcDbLine
 62
7
  6
CONTINUOUS
 10
6.4017584962
 20
3.5562792838
 11
6.4263244062
 21
3.5705009743
  0
LINE
  5
654
100
AcDbEntity
  8
0
100
AcDbLine
 62
7
  6
CONTINUOUS
 10
6.2014355941
 20
3.4220633199
 11
6.1768696864
 21
3.4078416307
  0
LINE
  5
655
100
AcDbEntity
  8
0
100
AcDbLine
 62
7
  6
CONTINUOUS
 10
6.4017584962
 20
3.5262792838
 11
6.4263244062
 21
3.5405009743
  0
LINE
  5
656
100
AcDbEntity
  8
0
100
AcDbLine
 62
7
  6
CONTINUOUS
 10
6.2014355941
 20
3.3920633199
 11
6.1768696864
 21
3.3778416307
  0
LINE
  5
657
100
AcDbEntity
  8
0
100
AcDbLine
 62
7
  6
CONTINUOUS
 10
6.4017584962
 20
3.4962792838
 11
6.4263244062
 21
3.5105009743
  0
LWPOLYLINE
  5
658
100
AcDbEntity
  8
0
100
AcDbPolyline
 62
9
  6
CONTINUOUS
 90
11
 70
0
 10
5.9001295857
 20
3.247980645
 10
5.8701776432
 20
3.2342018184
 10
5.83516055
 20
3.2188002365
 10
5.7954552952
 20
3.2018554966
 10
5.7510197477
 20
3.1832996568
 10
5.7017608333
 20
3.1630687787
 10
5.6474096181
 20
3.1410414136
 10
5.5877549814
 20
3.1171288949
 10
5.5224334846
 20
3.0911867374
 10
5.4510160364
 20
3.0630487325
 10
5.3730085276
 20
3.0325262207
  0
LWPOLYLINE
  5
659
100
AcDbEntity
  8
0
100
AcDbPolyline
 62
7
  6
CONTINUOUS
 90
14
 70
0
 10
6.2014355941
 20
3.4520633199
 10
6.2020537611
 20
3.4523306429
 10
6.2089139847
 20
3.4535669066
 10
6.2219531231
 20
3.4548031703
 10
6.2403018943
 20
3.4560394341
 10
6.2627370381
 20
3.4572756978
 10
6.2877628675
 20
3.4585119615
 10
6.3137109821
 20
3.4597482253
 10
6.3388514952
 20
3.460984489
 10
6.3615083605
 20
3.4622207527
 10
6.3801711097
 20
3.4634570165
 10
6.3935955506
 20
3.4646932802
 10
6.400886714
 20
3.465929544
 10
6.4017584962
 20
3.4662792838
  0
LINE
  5
65A
100
AcDbEntity
  8
0
100
AcDbLine
 62
7
  6
CONTINUOUS
 10
5.7714799375
 20
3.232569493
 11
5.3015970457
 21
3.0325262206
  0
LINE
  5
65B
100
AcDbEntity
  8
0
100
AcDbLine
 62
7
  6
CONTINUOUS
 10
6.1765970457
 20
3.4058163838
 11
6.179676407
 21
3.4068783906
  0
LWPOLYLINE
  5
65C
100
AcDbEntity
  8
0
100
AcDbPolyline
 62
7
  6
CONTINUOUS
 90
13
 70
0
 10
6.2014355941
 20
3.4220633199
 10
6.2032453815
 20
3.4226603132
 10
6.2118158196
 20
3.4238965769
 10
6.2263717156
 20
3.4251328407
 10
6.2459426693
 20
3.4263691044
 10
6.2692239413
 20
3.4276053681
 10
6.2946634357
 20
3.4288416319
 10
6.3205651741
 20
3.4300778956
 10
6.3452023615
 20
3.4313141593
 10
6.3669325072
 20
3.4325504231
 10
6.3843069243
 20
3.4337866868
 10
6.3961673101
 20
3.4350229505
 10
6.4017584962
 20
3.4362792838
  0
LINE
  5
65D
100
AcDbEntity
  8
0
100
AcDbLine
 62
7
  6
CONTINUOUS
 10
6.1765970457
 20
3.4658163838
 11
6.1801489182
 21
3.4669573265
  0
LINE
  5
65E
100
AcDbEntity
  8
0
100
AcDbLine
 62
7
  6
CONTINUOUS
 10
6.1765970457
 20
3.4358163838
 11
6.1801485276
 21
3.4369572634
  0
LINE
  5
65F
100
AcDbEntity
  8
0
100
AcDbLine
 62
7
  6
CONTINUOUS
 10
6.4265970457
 20
3.4825262206
 11
6.4229850947
 21
3.4813756225
  0
LINE
  5
660
100
AcDbEntity
  8
0
100
AcDbLine
 62
7
  6
CONTINUOUS
 10
6.4265970457
 20
3.5125262206
 11
6.422964204
 21
3.5113722836
  0
LINE
  5
661
100
AcDbEntity
  8
0
100
AcDbLine
 62
7
  6
CONTINUOUS
 10
6.4265970457
 20
3.5425262206
 11
6.4229574372
 21
3.5413712042
  0
LWPOLYLINE
  5
662
100
AcDbEntity
  8
0
100
AcDbPolyline
 62
9
  6
CONTINUOUS
 90
3
 70
0
 10
6.5654339918
 20
3.2463849339
 10
6.5929153095
 20
3.2476691276
 10
6.6191043092
 20
3.2479804554
  0
LWPOLYLINE
  5
663
100
AcDbEntity
  8
0
100
AcDbPolyline
 62
9
  6
CONTINUOUS
 90
3
 70
0
 10
5.9840901518
 20
3.2479796462
 10
6.0102928983
 20
3.2476701036
 10
6.0377598507
 20
3.2463857398
  0
LWPOLYLINE
  5
664
100
AcDbEntity
  8
0
100
AcDbPolyline
 62
9
  6
CONTINUOUS
 90
3
 70
0
 10
6.6191056606
 20
3.2479806133
 10
6.6639964082
 20
3.2473836886
 10
6.7030659057
 20
3.2479806291
  0
LWPOLYLINE
  5
665
100
AcDbEntity
  8
0
100
AcDbPolyline
 62
9
  6
CONTINUOUS
 90
3
 70
0
 10
6.703064071
 20
3.2479796462
 10
6.7235290991
 20
3.2476701036
 10
6.7427740091
 20
3.2463857398
  0
LWPOLYLINE
  5
666
100
AcDbEntity
  8
0
100
AcDbPolyline
 62
9
  6
CONTINUOUS
 90
3
 70
0
 10
5.9001286159
 20
3.2479805592
 10
5.9391770281
 20
3.2473836885
 10
5.9840885836
 20
3.2479806291
  0
LWPOLYLINE
  5
667
100
AcDbEntity
  8
0
100
AcDbPolyline
 62
9
  6
CONTINUOUS
 90
9
 70
0
 10
6.0377591446
 20
3.2463826456
 10
6.1002567136
 20
3.240993123
 10
6.1649935395
 20
3.2365497218
 10
6.23236848
 20
3.2336051728
 10
6.3015915044
 20
3.2325701975
 10
6.3708202233
 20
3.2336049536
 10
6.4381947705
 20
3.2365493054
 10
6.5029396124
 20
3.2409932225
 10
6.5654347901
 20
3.2463825744
  0
LINE
  5
668
100
AcDbEntity
  8
0
100
AcDbLine
 62
7
  6
CONTINUOUS
 10
6.1768696853
 20
3.3155009743
 11
6.200758772
 21
3.3016713049
  0
LINE
  5
669
100
AcDbEntity
  8
0
100
AcDbLine
 62
7
  6
CONTINUOUS
 10
6.4213414206
 20
3.7177818457
 11
6.4212655999
 21
3.7175736177
  0
LINE
  5
66A
100
AcDbEntity
  8
0
100
AcDbLine
 62
7
  6
CONTINUOUS
 10
6.1768696864
 20
3.3178416307
 11
6.1765970457
 21
3.3175262206
  0
LINE
  5
66B
100
AcDbEntity
  8
0
100
AcDbLine
 62
7
  6
CONTINUOUS
 10
6.4263244062
 20
3.6005009743
 11
6.4265970457
 21
3.6008163838
  0
LINE
  5
66C
100
AcDbEntity
  8
0
100
AcDbLine
 62
7
  6
CONTINUOUS
 10
6.1768696864
 20
3.2878416307
 11
6.1765970457
 21
3.2875262206
  0
LINE
  5
66D
100
AcDbEntity
  8
0
100
AcDbLine
 62
7
  6
CONTINUOUS
 10
6.4263244062
 20
3.5705009743
 11
6.4265970457
 21
3.5708163838
  0
LINE
  5
66E
100
AcDbEntity
  8
0
100
AcDbLine
 62
7
  6
CONTINUOUS
 10
6.4263244062
 20
3.5405009743
 11
6.4265970457
 21
3.5408163838
  0
LINE
  5
66F
100
AcDbEntity
  8
0
100
AcDbLine
 62
7
  6
CONTINUOUS
 10
6.4263244062
 20
3.5105009743
 11
6.4265970457
 21
3.5108163838
  0
LINE
  5
670
100
AcDbEntity
  8
0
100
AcDbLine
 62
7
  6
CONTINUOUS
 10
6.4263244062
 20
3.4805009743
 11
6.4265970457
 21
3.4808163838
  0
LINE
  5
671
100
AcDbEntity
  8
0
100
AcDbLine
 62
7
  6
CONTINUOUS
 10
6.2014355941
 20
3.3020633199
 11
6.1768696864
 21
3.2878416307
  0
LINE
  5
672
100
AcDbEntity
  8
0
100
AcDbLine
 62
7
  6
CONTINUOUS
 10
6.2014355941
 20
3.3620633199
 11
6.1768696864
 21
3.3478416307
  0
LINE
  5
673
100
AcDbEntity
  8
0
100
AcDbLine
 62
7
  6
CONTINUOUS
 10
6.4017584962
 20
3.4662792838
 11
6.4263244062
 21
3.4805009743
  0
LINE
  5
674
100
AcDbEntity
  8
0
100
AcDbLine
 62
7
  6
CONTINUOUS
 10
6.2014355941
 20
3.3320633199
 11
6.1768696864
 21
3.3178416307
  0
LINE
  5
675
100
AcDbEntity
  8
0
100
AcDbLine
 62
7
  6
CONTINUOUS
 10
6.4017584962
 20
3.4362792838
 11
6.4263244062
 21
3.4505009743
  0
LINE
  5
676
100
AcDbEntity
  8
0
100
AcDbLine
 62
7
  6
CONTINUOUS
 10
6.4017584962
 20
3.4062792838
 11
6.4263244062
 21
3.4205009743
  0
LWPOLYLINE
  5
677
100
AcDbEntity
  8
0
100
AcDbPolyline
 62
9
  6
CONTINUOUS
 90
12
 70
0
 10
5.9840901755
 20
3.2479810117
 10
5.9576106678
 20
3.2358506155
 10
5.9298044284
 20
3.2223790062
 10
5.9004748988
 20
3.2075952731
 10
5.8693548495
 20
3.1914409147
 10
5.8361694576
 20
3.1738159716
 10
5.8008403897
 20
3.1547033424
 10
5.7630822518
 20
3.1339618948
 10
5.7227599914
 20
3.1115230739
 10
5.6795983805
 20
3.0872350046
 10
5.6333503607
 20
3.0609565201
 10
5.583738956
 20
3.0325262207
  0
LWPOLYLINE
  5
678
100
AcDbEntity
  8
0
100
AcDbPolyline
 62
7
  6
CONTINUOUS
 90
14
 70
0
 10
6.2014355941
 20
3.3320633199
 10
6.2023073775
 20
3.3324130604
 10
6.2095985409
 20
3.3336493242
 10
6.2230229818
 20
3.3348855879
 10
6.241685731
 20
3.3361218516
 10
6.2643425963
 20
3.3373581154
 10
6.2894831094
 20
3.3385943791
 10
6.315431224
 20
3.3398306429
 10
6.3404570534
 20
3.3410669066
 10
6.3628921972
 20
3.3423031703
 10
6.3812409684
 20
3.3435394341
 10
6.3942801068
 20
3.3447756978
 10
6.4011403304
 20
3.3460119615
 10
6.4017584962
 20
3.3462792838
  0
LWPOLYLINE
  5
679
100
AcDbEntity
  8
0
100
AcDbPolyline
 62
9
  6
CONTINUOUS
 90
11
 70
0
 10
5.8603910208
 20
3.2463800965
 10
5.8194576568
 20
3.2320427187
 10
5.7763946391
 20
3.2162458723
 10
5.7308380608
 20
3.1990637532
 10
5.6822058652
 20
3.1804237692
 10
5.6300517175
 20
3.1602526212
 10
5.5739058812
 20
3.1384365612
 10
5.5134114271
 20
3.1148864276
 10
5.4481715308
 20
3.0894857425
 10
5.3777357218
 20
3.0620895626
 10
5.3015970517
 20
3.0325261996
  0
LINE
  5
67A
100
AcDbEntity
  8
0
100
AcDbLine
 62
7
  6
CONTINUOUS
 10
6.4265970457
 20
3.3925262206
 11
6.4235246966
 21
3.3914654286
  0
LINE
  5
67B
100
AcDbEntity
  8
0
100
AcDbLine
 62
7
  6
CONTINUOUS
 10
6.4265970457
 20
3.4225262206
 11
6.4230138437
 21
3.4213802329
  0
LINE
  5
67C
100
AcDbEntity
  8
0
100
AcDbLine
 62
7
  6
CONTINUOUS
 10
6.1765970457
 20
3.3758163838
 11
6.1801926291
 21
3.3769643593
  0
LINE
  5
67D
100
AcDbEntity
  8
0
100
AcDbLine
 62
7
  6
CONTINUOUS
 10
6.4265970457
 20
3.4525262206
 11
6.4229981183
 21
3.4513777088
  0
LINE
  5
67E
100
AcDbEntity
  8
0
100
AcDbLine
 62
7
  6
CONTINUOUS
 10
6.1765970457
 20
3.3458163838
 11
6.1802069232
 21
3.34696665
  0
LINE
  5
67F
100
AcDbEntity
  8
0
100
AcDbLine
 62
7
  6
CONTINUOUS
 10
6.1765970457
 20
3.3158163838
 11
6.1802180569
 21
3.3169684311
  0
LINE
  5
680
100
AcDbEntity
  8
0
100
AcDbLine
 62
7
  6
CONTINUOUS
 10
6.4230468509
 20
3.3896757119
 11
6.4263244062
 21
3.3905009743
  0
LINE
  5
681
100
AcDbEntity
  8
0
100
AcDbLine
 62
7
  6
CONTINUOUS
 10
6.4230427398
 20
3.3596750485
 11
6.4263244062
 21
3.3605009743
  0
LINE
  5
682
100
AcDbEntity
  8
0
100
AcDbLine
 62
7
  6
CONTINUOUS
 10
6.4230298576
 20
3.3296729721
 11
6.4263244062
 21
3.3305009743
  0
LINE
  5
683
100
AcDbEntity
  8
0
100
AcDbLine
 62
7
  6
CONTINUOUS
 10
6.1802069232
 20
3.3186764868
 11
6.1768696864
 21
3.3178416307
  0
LINE
  5
684
100
AcDbEntity
  8
0
100
AcDbLine
 62
7
  6
CONTINUOUS
 10
6.1802180569
 20
3.2886782679
 11
6.1768696864
 21
3.2878416307
  0
LWPOLYLINE
  5
685
100
AcDbEntity
  8
0
100
AcDbPolyline
 62
9
  6
CONTINUOUS
 90
5
 70
0
 10
5.7714796376
 20
3.2325701975
 10
5.7769804047
 20
3.2336048954
 10
5.793401161
 20
3.2365490931
 10
5.8208578041
 20
3.2409928043
 10
5.8604115983
 20
3.2463812614
  0
LWPOLYLINE
  5
686
100
AcDbEntity
  8
0
100
AcDbPolyline
 62
9
  6
CONTINUOUS
 90
4
 70
0
 10
6.1035540236
 20
3.2725262206
 10
6.0812754587
 20
3.2695984955
 10
6.0592578863
 20
3.2608498201
 10
6.0377591446
 20
3.2463826456
  0
LWPOLYLINE
  5
687
100
AcDbEntity
  8
0
100
AcDbPolyline
 62
7
  6
CONTINUOUS
 90
12
 70
0
 10
6.4230468509
 20
3.3613855487
 10
6.4124645133
 20
3.3602338189
 10
6.3954127493
 20
3.3590792148
 10
6.3730340332
 20
3.357930771
 10
6.346079966
 20
3.3567634179
 10
6.3168463108
 20
3.3556101542
 10
6.2870178498
 20
3.354468066
 10
6.2572372651
 20
3.3532940554
 10
6.2299985473
 20
3.3521141481
 10
6.2075948496
 20
3.3509624331
 10
6.1907662556
 20
3.3498216536
 10
6.1801926291
 20
3.3486741961
  0
LWPOLYLINE
  5
688
100
AcDbEntity
  8
0
100
AcDbPolyline
 62
7
  6
CONTINUOUS
 90
12
 70
0
 10
6.4230427398
 20
3.3313848853
 10
6.4123823877
 20
3.3302270365
 10
6.3952611576
 20
3.3290704617
 10
6.3728747507
 20
3.3279233608
 10
6.3460180788
 20
3.3267608886
 10
6.3169601083
 20
3.3256145339
 10
6.2871282263
 20
3.3244723108
 10
6.2573499907
 20
3.3232986601
 10
6.2301023247
 20
3.3221189823
 10
6.2076822317
 20
3.3209674939
 10
6.1908485247
 20
3.3198284396
 10
6.1802069232
 20
3.3186764868
  0
LWPOLYLINE
  5
689
100
AcDbEntity
  8
0
100
AcDbPolyline
 62
7
  6
CONTINUOUS
 90
12
 70
0
 10
6.4230298576
 20
3.3013828089
 10
6.412290539
 20
3.3002194729
 10
6.3951051376
 20
3.2990614719
 10
6.3727217937
 20
3.2979162524
 10
6.3459745261
 20
3.296759109
 10
6.3170455474
 20
3.2956178225
 10
6.2872225749
 20
3.2944759389
 10
6.2574599305
 20
3.2933031494
 10
6.2302146643
 20
3.2921242115
 10
6.2077865337
 20
3.2909735265
 10
6.1909222871
 20
3.2898345083
 10
6.1802180569
 20
3.2886782679
  0
LWPOLYLINE
  5
68A
100
AcDbEntity
  8
0
100
AcDbPolyline
 62
7
  6
CONTINUOUS
 90
12
 70
0
 10
6.1802180569
 20
3.3169684311
 10
6.1909222871
 20
3.3181246715
 10
6.2077865337
 20
3.3192636897
 10
6.2302146643
 20
3.3204143746
 10
6.2574599305
 20
3.3215933126
 10
6.2872225749
 20
3.322766102
 10
6.3170455474
 20
3.3239079857
 10
6.3459745261
 20
3.3250492722
 10
6.3727217937
 20
3.3262064156
 10
6.3951051376
 20
3.3273516351
 10
6.412290539
 20
3.3285096361
 10
6.4230298576
 20
3.3296729721
  0
LWPOLYLINE
  5
68B
100
AcDbEntity
  8
0
100
AcDbPolyline
 62
9
  6
CONTINUOUS
 90
4
 70
0
 10
6.0846293424
 20
3.2725262206
 10
6.0506190377
 20
3.2697787046
 10
6.0169827549
 20
3.2615664291
 10
5.9840901518
 20
3.2479796462
  0
LWPOLYLINE
  5
68C
100
AcDbEntity
  8
0
100
AcDbPolyline
 62
9
  6
CONTINUOUS
 90
4
 70
0
 10
6.0177508796
 20
3.2725262206
 10
5.9779620495
 20
3.269778861
 10
5.9386104756
 20
3.2615668918
 10
5.9001286159
 20
3.2479805592
  0
LWPOLYLINE
  5
68D
100
AcDbEntity
  8
0
100
AcDbPolyline
 62
9
  6
CONTINUOUS
 90
3
 70
0
 10
5.8604114172
 20
3.2463827469
 10
5.8796659431
 20
3.2476682795
 10
5.9001299381
 20
3.2479801488
  0
LWPOLYLINE
  5
68E
100
AcDbEntity
  8
0
100
AcDbPolyline
 62
9
  6
CONTINUOUS
 90
4
 70
0
 10
6.0057788618
 20
3.2725262206
 10
5.9565568538
 20
3.2695985752
 10
5.9079111492
 20
3.2608499334
 10
5.8604114172
 20
3.2463827469
  0
LINE
  5
68F
100
AcDbEntity
  8
0
100
AcDbLine
 62
7
  6
CONTINUOUS
 10
5.9673369166
 20
3.2725262206
 11
6.6358571749
 21
3.2725262206
  0
LWPOLYLINE
  5
690
100
AcDbEntity
  8
0
100
AcDbPolyline
 62
9
  6
CONTINUOUS
 90
4
 70
0
 10
6.5974136792
 20
3.2725262206
 10
6.6466338828
 20
3.2695984955
 10
6.6952777271
 20
3.2608498201
 10
6.7427755708
 20
3.2463826456
  0
LWPOLYLINE
  5
691
100
AcDbEntity
  8
0
100
AcDbPolyline
 62
9
  6
CONTINUOUS
 90
4
 70
0
 10
6.5854438288
 20
3.2725262206
 10
6.625231788
 20
3.2697787046
 10
6.6645826902
 20
3.2615664291
 10
6.703064071
 20
3.2479796462
  0
LWPOLYLINE
  5
692
100
AcDbEntity
  8
0
100
AcDbPolyline
 62
9
  6
CONTINUOUS
 90
4
 70
0
 10
6.5185647701
 20
3.2725262206
 10
6.5525753859
 20
3.2697788462
 10
6.5862122341
 20
3.2615668953
 10
6.6191056606
 20
3.2479806133
  0
LWPOLYLINE
  5
693
100
AcDbEntity
  8
0
100
AcDbPolyline
 62
9
  6
CONTINUOUS
 90
4
 70
0
 10
6.4996400038
 20
3.2725262206
 10
6.5219187662
 20
3.2695988384
 10
6.5439360317
 20
3.2608509313
 10
6.5654339918
 20
3.2463849339
  0
LWPOLYLINE
  5
694
100
AcDbEntity
  8
0
100
AcDbPolyline
 62
9
  6
CONTINUOUS
 90
5
 70
0
 10
6.7427755708
 20
3.2463826456
 10
6.7823345499
 20
3.240993123
 10
6.8097895894
 20
3.2365497218
 10
6.8262123714
 20
3.2336051728
 10
6.8317144539
 20
3.2325701975
  0
LINE
  5
695
100
AcDbEntity
  8
0
100
AcDbLine
 62
7
  6
CONTINUOUS
 10
6.1768696853
 20
3.3455009743
 11
6.200758772
 21
3.3316713049
  0
LINE
  5
696
100
AcDbEntity
  8
0
100
AcDbLine
 62
7
  6
CONTINUOUS
 10
6.1768696853
 20
3.3755009743
 11
6.200758772
 21
3.3616713049
  0
LINE
  5
697
100
AcDbEntity
  8
0
100
AcDbLine
 62
7
  6
CONTINUOUS
 10
6.1768696853
 20
3.4055009743
 11
6.200758772
 21
3.3916713049
  0
LINE
  5
698
100
AcDbEntity
  8
0
100
AcDbLine
 62
7
  6
CONTINUOUS
 10
6.4263244062
 20
3.4505009743
 11
6.4265970457
 21
3.4508163838
  0
LINE
  5
699
100
AcDbEntity
  8
0
100
AcDbLine
 62
7
  6
CONTINUOUS
 10
6.4263244062
 20
3.4205009743
 11
6.4265970457
 21
3.4208163838
  0
LINE
  5
69A
100
AcDbEntity
  8
0
100
AcDbLine
 62
7
  6
CONTINUOUS
 10
6.4263244062
 20
3.3905009743
 11
6.4265970457
 21
3.3908163838
  0
LINE
  5
69B
100
AcDbEntity
  8
0
100
AcDbLine
 62
7
  6
CONTINUOUS
 10
6.4263244062
 20
3.3605009743
 11
6.4265970457
 21
3.3608163838
  0
LINE
  5
69C
100
AcDbEntity
  8
0
100
AcDbLine
 62
7
  6
CONTINUOUS
 10
6.4017584962
 20
3.3762792838
 11
6.4263244062
 21
3.3905009743
  0
LINE
  5
69D
100
AcDbEntity
  8
0
100
AcDbLine
 62
7
  6
CONTINUOUS
 10
6.4017584962
 20
3.3462792838
 11
6.4263244062
 21
3.3605009743
  0
LINE
  5
69E
100
AcDbEntity
  8
0
100
AcDbLine
 62
7
  6
CONTINUOUS
 10
6.4017584962
 20
3.3162792838
 11
6.4263244062
 21
3.3305009743
  0
LINE
  5
69F
100
AcDbEntity
  8
0
100
AcDbLine
 62
7
  6
CONTINUOUS
 10
6.4265970457
 20
3.3625262206
 11
6.4230468509
 21
3.3613855487
  0
LINE
  5
6A0
100
AcDbEntity
  8
0
100
AcDbLine
 62
7
  6
CONTINUOUS
 10
6.4265970457
 20
3.3325262206
 11
6.4230427398
 21
3.3313848853
  0
LINE
  5
6A1
100
AcDbEntity
  8
0
100
AcDbLine
 62
7
  6
CONTINUOUS
 10
6.4265970457
 20
3.3025262206
 11
6.4230298576
 21
3.3013828089
  0
LWPOLYLINE
  5
6A2
100
AcDbEntity
  8
0
100
AcDbPolyline
 62
7
  6
CONTINUOUS
 90
13
 70
0
 10
6.2014355941
 20
3.3020633199
 10
6.2036167906
 20
3.3027427308
 10
6.2126087152
 20
3.3039789945
 10
6.2275332375
 20
3.3052152582
 10
6.2473953823
 20
3.306451522
 10
6.2708709971
 20
3.3076877857
 10
6.2963950298
 20
3.3089240494
 10
6.322265866
 20
3.3101603132
 10
6.346758771
 20
3.3113965769
 10
6.3682408729
 20
3.3126328407
 10
6.3852800212
 20
3.3138691044
 10
6.3967402647
 20
3.3151053681
 10
6.4017584962
 20
3.3162792838
  0
LWPOLYLINE
  5
6A3
100
AcDbEntity
  8
0
100
AcDbPolyline
 62
7
  6
CONTINUOUS
 90
6
 70
0
 10
6.2014355941
 20
3.3920633199
 10
6.2049056922
 20
3.3929899835
 10
6.2151455029
 20
3.3942262472
 10
6.2311487909
 20
3.395462511
 10
6.2518486628
 20
3.3966987747
 10
6.2758651172
 20
3.3979350385
  0
LINE
  5
6A4
100
AcDbEntity
  8
0
100
AcDbLine
 62
7
  6
CONTINUOUS
 10
6.1801485276
 20
3.4086671002
 11
6.1768696864
 21
3.4078416307
  0
LINE
  5
6A5
100
AcDbEntity
  8
0
100
AcDbLine
 62
7
  6
CONTINUOUS
 10
6.4230138437
 20
3.4496703961
 11
6.4263244062
 21
3.4505009743
  0
LINE
  5
6A6
100
AcDbEntity
  8
0
100
AcDbLine
 62
7
  6
CONTINUOUS
 10
6.1801926291
 20
3.3486741961
 11
6.1768696864
 21
3.3478416307
  0
LWPOLYLINE
  5
6A7
100
AcDbEntity
  8
0
100
AcDbPolyline
 62
7
  6
CONTINUOUS
 90
13
 70
0
 10
6.2014355941
 20
3.3620633199
 10
6.2070267814
 20
3.3633196538
 10
6.2188871672
 20
3.3645559176
 10
6.2362615843
 20
3.3657921813
 10
6.25799173
 20
3.3670284451
 10
6.2826289174
 20
3.3682647088
 10
6.3085306558
 20
3.3695009725
 10
6.3339701501
 20
3.3707372363
 10
6.3572514222
 20
3.3719735
 10
6.3768223759
 20
3.3732097637
 10
6.3913782719
 20
3.3744460275
 10
6.39994871
 20
3.3756822912
 10
6.4017584962
 20
3.3762792838
  0
LWPOLYLINE
  5
6A8
100
AcDbEntity
  8
0
100
AcDbPolyline
 62
7
  6
CONTINUOUS
 90
6
 70
0
 10
6.4235246966
 20
3.3914654286
 10
6.4144766737
 20
3.3904062362
 10
6.3998501764
 20
3.3893441858
 10
6.3803846564
 20
3.3882822477
 10
6.3564023003
 20
3.3871932639
 10
6.3294316089
 20
3.3860984111
  0
LWPOLYLINE
  5
6A9
100
AcDbEntity
  8
0
100
AcDbPolyline
 62
7
  6
CONTINUOUS
 90
6
 70
0
 10
6.179676407
 20
3.4068783906
 10
6.1887478427
 20
3.407939072
 10
6.2033495066
 20
3.4089987641
 10
6.2228233508
 20
3.4100610413
 10
6.2468091946
 20
3.4111500801
 10
6.2737625723
 20
3.4122441968
  0
LWPOLYLINE
  5
6AA
100
AcDbEntity
  8
0
100
AcDbPolyline
 62
7
  6
CONTINUOUS
 90
12
 70
0
 10
6.4230138437
 20
3.4213802329
 10
6.4124904229
 20
3.4202359625
 10
6.3956548497
 20
3.4190932318
 10
6.3732783515
 20
3.4179421529
 10
6.3460599283
 20
3.4167625989
 10
6.3162788577
 20
3.415588322
 10
6.286445596
 20
3.4144460512
 10
6.2570671953
 20
3.413287105
 10
6.2300462378
 20
3.41211637
 10
6.2076741486
 20
3.410967026
 10
6.1906785245
 20
3.4098143966
 10
6.1801485276
 20
3.4086671002
  0
LWPOLYLINE
  5
6AB
100
AcDbEntity
  8
0
100
AcDbPolyline
 62
7
  6
CONTINUOUS
 90
12
 70
0
 10
6.1801926291
 20
3.3769643593
 10
6.1907662556
 20
3.3781118168
 10
6.2075948496
 20
3.3792525963
 10
6.2299985473
 20
3.3804043113
 10
6.2572372651
 20
3.3815842186
 10
6.2870178498
 20
3.3827582291
 10
6.3168463108
 20
3.3839003174
 10
6.346079966
 20
3.385053581
 10
6.3730340332
 20
3.3862209342
 10
6.3954127493
 20
3.387369378
 10
6.4124645133
 20
3.3885239821
 10
6.4230468509
 20
3.3896757119
  0
LWPOLYLINE
  5
6AC
100
AcDbEntity
  8
0
100
AcDbPolyline
 62
7
  6
CONTINUOUS
 90
12
 70
0
 10
6.4229981183
 20
3.4513777088
 10
6.412406307
 20
3.45022901
 10
6.3955795281
 20
3.4490888658
 10
6.3731805833
 20
3.447937596
 10
6.3459442445
 20
3.4467578718
 10
6.3161553569
 20
3.445583572
 10
6.2863203747
 20
3.4444412323
 10
6.2571387462
 20
3.4432900296
 10
6.2302074833
 20
3.4421238773
 10
6.2078210131
 20
3.4409755188
 10
6.190752664
 20
3.4398205307
 10
6.1801489182
 20
3.4386671633
  0
LWPOLYLINE
  5
6AD
100
AcDbEntity
  8
0
100
AcDbPolyline
 62
7
  6
CONTINUOUS
 90
12
 70
0
 10
6.1802069232
 20
3.34696665
 10
6.1908485247
 20
3.3481186028
 10
6.2076822317
 20
3.349257657
 10
6.2301023247
 20
3.3504091455
 10
6.2573499907
 20
3.3515888233
 10
6.2871282263
 20
3.352762474
 10
6.3169601083
 20
3.3539046971
 10
6.3460180788
 20
3.3550510518
 10
6.3728747507
 20
3.356213524
 10
6.3952611576
 20
3.3573606249
 10
6.4123823877
 20
3.3585171997
 10
6.4230427398
 20
3.3596750485
  0
LWPOLYLINE
  5
6AE
100
AcDbEntity
  8
0
100
AcDbPolyline
 62
7
  6
CONTINUOUS
 90
7
 70
0
 10
6.2758651172
 20
3.3979350385
 10
6.3273289743
 20
3.4004075659
 10
6.3513454287
 20
3.4016438297
 10
6.3720453006
 20
3.4028800934
 10
6.3880485886
 20
3.4041163571
 10
6.3982883992
 20
3.4053526209
 10
6.4017584962
 20
3.4062792838
  0
LWPOLYLINE
  5
6AF
100
AcDbEntity
  8
0
100
AcDbPolyline
 62
7
  6
CONTINUOUS
 90
8
 70
0
 10
6.3294316089
 20
3.3860984111
 10
6.2737625723
 20
3.3839540336
 10
6.2468091946
 20
3.382859917
 10
6.2228233508
 20
3.3817708782
 10
6.2033495066
 20
3.3807086009
 10
6.1887478427
 20
3.3796489088
 10
6.179676407
 20
3.3785882274
 10
6.1768696864
 20
3.3778416307
  0
LWPOLYLINE
  5
6B0
100
AcDbEntity
  8
0
100
AcDbPolyline
 62
7
  6
CONTINUOUS
 90
8
 70
0
 10
6.2737625723
 20
3.4122441968
 10
6.3294316089
 20
3.4143885743
 10
6.3564023003
 20
3.4154834271
 10
6.3803846564
 20
3.4165724109
 10
6.3998501764
 20
3.417634349
 10
6.4144766737
 20
3.4186963994
 10
6.4235246966
 20
3.4197555918
 10
6.4263244062
 20
3.4205009743
  0
LWPOLYLINE
  5
6B1
100
AcDbEntity
  8
0
100
AcDbPolyline
 62
9
  6
CONTINUOUS
 90
9
 70
0
 10
6.7427719526
 20
3.24638468
 10
6.7790143522
 20
3.2337362799
 10
6.8170232547
 20
3.219878817
 10
6.8571444578
 20
3.2048394299
 10
6.8998354703
 20
3.1885582362
 10
6.9455797376
 20
3.1709290857
 10
6.994600122
 20
3.1519231118
 10
7.0472989816
 20
3.1314275092
 10
7.1649693841
 20
3.08561467
  0
LWPOLYLINE
  5
6B2
100
AcDbEntity
  8
0
100
AcDbPolyline
 62
9
  6
CONTINUOUS
 90
3
 70
0
 10
7.1649693841
 20
3.08561467
 10
7.2307047567
 20
3.060050643
 10
7.3015969763
 20
3.0325262287
  0
LWPOLYLINE
  5
6B3
100
AcDbEntity
  8
0
100
AcDbPolyline
 62
9
  6
CONTINUOUS
 90
12
 70
0
 10
6.6191040528
 20
3.2479809709
 10
6.64551693
 20
3.2358820389
 10
6.6732801627
 20
3.2224332161
 10
6.702586189
 20
3.2076633818
 10
6.7336864784
 20
3.1915211804
 10
6.766857813
 20
3.1739054332
 10
6.8021831055
 20
3.1547963706
 10
6.8399450415
 20
3.1340541383
 10
6.8802851055
 20
3.1116064657
 10
6.9234800133
 20
3.0873004365
 10
6.9697768799
 20
3.060994672
 10
7.0194551362
 20
3.0325262207
  0
LWPOLYLINE
  5
6B4
100
AcDbEntity
  8
0
100
AcDbPolyline
 62
9
  6
CONTINUOUS
 90
12
 70
0
 10
6.7030646544
 20
3.2479810117
 10
6.729350592
 20
3.2358506155
 10
6.7597888467
 20
3.2223790063
 10
6.794179831
 20
3.2075952732
 10
6.8325766053
 20
3.1914409147
 10
6.8751750035
 20
3.1738159716
 10
6.9219967814
 20
3.1547033424
 10
6.9733822777
 20
3.1339618949
 10
7.0295059483
 20
3.1115230739
 10
7.0907577919
 20
3.0872350047
 10
7.1575086217
 20
3.0609565201
 10
7.2301855654
 20
3.0325262207
  0
LINE
  5
6B5
100
AcDbEntity
  8
0
100
AcDbLine
 62
7
  6
CONTINUOUS
 10
6.1768696853
 20
3.4355009743
 11
6.200758772
 21
3.4216713049
  0
LINE
  5
6B6
100
AcDbEntity
  8
0
100
AcDbLine
 62
7
  6
CONTINUOUS
 10
6.4263244051
 20
3.3028416307
 11
6.4024353195
 21
3.3166713049
  0
LINE
  5
6B7
100
AcDbEntity
  8
0
100
AcDbLine
 62
7
  6
CONTINUOUS
 10
6.1768696853
 20
3.4655009743
 11
6.200758772
 21
3.4516713049
  0
LINE
  5
6B8
100
AcDbEntity
  8
0
100
AcDbLine
 62
7
  6
CONTINUOUS
 10
6.4263244051
 20
3.3328416307
 11
6.4024353195
 21
3.3466713049
  0
LINE
  5
6B9
100
AcDbEntity
  8
0
100
AcDbLine
 62
7
  6
CONTINUOUS
 10
6.1768696853
 20
3.4955009743
 11
6.200758772
 21
3.4816713049
  0
LINE
  5
6BA
100
AcDbEntity
  8
0
100
AcDbLine
 62
7
  6
CONTINUOUS
 10
6.4263244051
 20
3.3628416307
 11
6.4024353195
 21
3.3766713049
  0
LINE
  5
6BB
100
AcDbEntity
  8
0
100
AcDbLine
 62
7
  6
CONTINUOUS
 10
6.1768696853
 20
3.5255009743
 11
6.200758772
 21
3.5116713049
  0
LINE
  5
6BC
100
AcDbEntity
  8
0
100
AcDbLine
 62
7
  6
CONTINUOUS
 10
6.1765970457
 20
3.7058163925
 11
6.1766546759
 21
3.7056713921
  0
LINE
  5
6BD
100
AcDbEntity
  8
0
100
AcDbLine
 62
7
  6
CONTINUOUS
 10
6.4265970457
 20
3.2725262206
 11
6.4265970457
 21
3.3008163838
  0
LINE
  5
6BE
100
AcDbEntity
  8
AXIS
100
AcDbLine
 62
7
  6
CONTINUOUS
 10
6.4265970457
 20
3.2725262206
 11
6.4265970457
 21
3.3025262206
  0
LINE
  5
6BF
100
AcDbEntity
  8
0
100
AcDbLine
 62
7
  6
CONTINUOUS
 10
6.4265970457
 20
3.3308163838
 11
6.4265970457
 21
3.3325262206
  0
LINE
  5
6C0
100
AcDbEntity
  8
AXIS
100
AcDbLine
 62
7
  6
CONTINUOUS
 10
6.4265970457
 20
3.3308163838
 11
6.4265970457
 21
3.3325262206
  0
LINE
  5
6C1
100
AcDbEntity
  8
0
100
AcDbLine
 62
7
  6
CONTINUOUS
 10
6.4265970457
 20
3.3608163838
 11
6.4265970457
 21
3.3625262206
  0
LINE
  5
6C2
100
AcDbEntity
  8
AXIS
100
AcDbLine
 62
7
  6
CONTINUOUS
 10
6.4265970457
 20
3.3608163838
 11
6.4265970457
 21
3.3625262206
  0
LINE
  5
6C3
100
AcDbEntity
  8
0
100
AcDbLine
 62
7
  6
CONTINUOUS
 10
6.4265970457
 20
3.3908163838
 11
6.4265970457
 21
3.3925262206
  0
LINE
  5
6C4
100
AcDbEntity
  8
AXIS
100
AcDbLine
 62
7
  6
CONTINUOUS
 10
6.4265970457
 20
3.3908163838
 11
6.4265970457
 21
3.3925262206
  0
LINE
  5
6C5
100
AcDbEntity
  8
0
100
AcDbLine
 62
7
  6
CONTINUOUS
 10
6.4265970457
 20
3.4208163838
 11
6.4265970457
 21
3.4225262206
  0
LINE
  5
6C6
100
AcDbEntity
  8
AXIS
100
AcDbLine
 62
7
  6
CONTINUOUS
 10
6.4265970457
 20
3.4208163838
 11
6.4265970457
 21
3.4225262206
  0
LINE
  5
6C7
100
AcDbEntity
  8
0
100
AcDbLine
 62
7
  6
CONTINUOUS
 10
6.4265970457
 20
3.4508163838
 11
6.4265970457
 21
3.4525262206
  0
LINE
  5
6C8
100
AcDbEntity
  8
AXIS
100
AcDbLine
 62
7
  6
CONTINUOUS
 10
6.4265970457
 20
3.4508163838
 11
6.4265970457
 21
3.4525262206
  0
LINE
  5
6C9
100
AcDbEntity
  8
0
100
AcDbLine
 62
7
  6
CONTINUOUS
 10
6.4265970457
 20
3.4808163838
 11
6.4265970457
 21
3.4825262206
  0
LINE
  5
6CA
100
AcDbEntity
  8
AXIS
100
AcDbLine
 62
7
  6
CONTINUOUS
 10
6.4265970457
 20
3.4808163838
 11
6.4265970457
 21
3.4825262206
  0
LINE
  5
6CB
100
AcDbEntity
  8
0
100
AcDbLine
 62
7
  6
CONTINUOUS
 10
6.4265970457
 20
3.5108163838
 11
6.4265970457
 21
3.5125262206
  0
LINE
  5
6CC
100
AcDbEntity
  8
AXIS
100
AcDbLine
 62
7
  6
CONTINUOUS
 10
6.4265970457
 20
3.5108163838
 11
6.4265970457
 21
3.5125262206
  0
LINE
  5
6CD
100
AcDbEntity
  8
0
100
AcDbLine
 62
7
  6
CONTINUOUS
 10
6.4265970457
 20
3.5408163838
 11
6.4265970457
 21
3.5425262206
  0
LINE
  5
6CE
100
AcDbEntity
  8
AXIS
100
AcDbLine
 62
7
  6
CONTINUOUS
 10
6.4265970457
 20
3.5408163838
 11
6.4265970457
 21
3.5425262206
  0
LINE
  5
6CF
100
AcDbEntity
  8
0
100
AcDbLine
 62
7
  6
CONTINUOUS
 10
6.4265970457
 20
3.5708163838
 11
6.4265970457
 21
3.5725262206
  0
LINE
  5
6D0
100
AcDbEntity
  8
AXIS
100
AcDbLine
 62
7
  6
CONTINUOUS
 10
6.4265970457
 20
3.5708163838
 11
6.4265970457
 21
3.5725262206
  0
LINE
  5
6D1
100
AcDbEntity
  8
0
100
AcDbLine
 62
7
  6
CONTINUOUS
 10
6.4265970457
 20
3.6008163838
 11
6.4265970457
 21
3.6025262206
  0
LINE
  5
6D2
100
AcDbEntity
  8
AXIS
100
AcDbLine
 62
7
  6
CONTINUOUS
 10
6.4265970457
 20
3.6008163838
 11
6.4265970457
 21
3.6025262206
  0
LINE
  5
6D3
100
AcDbEntity
  8
0
100
AcDbLine
 62
7
  6
CONTINUOUS
 10
6.4265970457
 20
3.6308163838
 11
6.4265970457
 21
3.6325262206
  0
LINE
  5
6D4
100
AcDbEntity
  8
AXIS
100
AcDbLine
 62
7
  6
CONTINUOUS
 10
6.4265970457
 20
3.6308163838
 11
6.4265970457
 21
3.6325262206
  0
LINE
  5
6D5
100
AcDbEntity
  8
0
100
AcDbLine
 62
7
  6
CONTINUOUS
 10
6.4265970457
 20
3.6608163838
 11
6.4265970457
 21
3.6625262206
  0
LINE
  5
6D6
100
AcDbEntity
  8
AXIS
100
AcDbLine
 62
7
  6
CONTINUOUS
 10
6.4265970457
 20
3.6608163838
 11
6.4265970457
 21
3.6625262206
  0
LINE
  5
6D7
100
AcDbEntity
  8
0
100
AcDbLine
 62
7
  6
CONTINUOUS
 10
6.4265970457
 20
3.6908163838
 11
6.4265970457
 21
3.6925262206
  0
LINE
  5
6D8
100
AcDbEntity
  8
AXIS
100
AcDbLine
 62
7
  6
CONTINUOUS
 10
6.4265970457
 20
3.6908163838
 11
6.4265970457
 21
3.6925262206
  0
LINE
  5
6D9
100
AcDbEntity
  8
0
100
AcDbLine
 62
7
  6
CONTINUOUS
 10
6.4263244062
 20
3.3305009743
 11
6.4265970457
 21
3.3308163838
  0
LWPOLYLINE
  5
6DA
100
AcDbEntity
  8
0
100
AcDbPolyline
 62
7
  6
CONTINUOUS
 90
13
 70
0
 10
6.2014355941
 20
3.5120633199
 10
6.2044470697
 20
3.5129075659
 10
6.2142738049
 20
3.5141438297
 10
6.2299221311
 20
3.5153800934
 10
6.250348819
 20
3.5166163571
 10
6.2741920798
 20
3.5178526209
 10
6.2998623513
 20
3.5190888846
 10
6.32564827
 20
3.5203251483
 10
6.3498307623
 20
3.5215614121
 10
6.3707976505
 20
3.5227976758
 10
6.3871511321
 20
3.5240339396
 10
6.3978009673
 20
3.5252702033
 10
6.4017584962
 20
3.5262792838
  0
LINE
  5
6DB
100
AcDbEntity
  8
0
100
AcDbLine
 62
7
  6
CONTINUOUS
 10
6.1801489182
 20
3.4386671633
 11
6.1768696864
 21
3.4378416307
  0
LINE
  5
6DC
100
AcDbEntity
  8
0
100
AcDbLine
 62
7
  6
CONTINUOUS
 10
6.1801559049
 20
3.4686682903
 11
6.1768696864
 21
3.4678416307
  0
LINE
  5
6DD
100
AcDbEntity
  8
0
100
AcDbLine
 62
7
  6
CONTINUOUS
 10
6.4229981183
 20
3.479667872
 11
6.4263244062
 21
3.4805009743
  0
LINE
  5
6DE
100
AcDbEntity
  8
0
100
AcDbLine
 62
7
  6
CONTINUOUS
 10
6.4229850947
 20
3.5096657857
 11
6.4263244062
 21
3.5105009743
  0
LINE
  5
6DF
100
AcDbEntity
  8
0
100
AcDbLine
 62
7
  6
CONTINUOUS
 10
6.422964204
 20
3.5396624468
 11
6.4263244062
 21
3.5405009743
  0
LINE
  5
6E0
100
AcDbEntity
  8
0
100
AcDbLine
 62
7
  6
CONTINUOUS
 10
6.1802504668
 20
3.4986834374
 11
6.1768696864
 21
3.4978416307
  0
LWPOLYLINE
  5
6E1
100
AcDbEntity
  8
0
100
AcDbPolyline
 62
7
  6
CONTINUOUS
 90
13
 70
0
 10
6.2014355941
 20
3.4820633199
 10
6.2064538268
 20
3.4832372363
 10
6.2179140703
 20
3.4844735
 10
6.2349532186
 20
3.4857097637
 10
6.2564353204
 20
3.4869460275
 10
6.2809282255
 20
3.4881822912
 10
6.3067990617
 20
3.4894185549
 10
6.3323230944
 20
3.4906548187
 10
6.3557987092
 20
3.4918910824
 10
6.375660854
 20
3.4931273461
 10
6.3905853763
 20
3.4943636099
 10
6.3995773009
 20
3.4955998736
 10
6.4017584962
 20
3.4962792838
  0
LWPOLYLINE
  5
6E2
100
AcDbEntity
  8
0
100
AcDbPolyline
 62
7
  6
CONTINUOUS
 90
12
 70
0
 10
6.1801485276
 20
3.4369572634
 10
6.1906785245
 20
3.4381045598
 10
6.2076741486
 20
3.4392571892
 10
6.2300462378
 20
3.4404065332
 10
6.2570671953
 20
3.4415772682
 10
6.286445596
 20
3.4427362144
 10
6.3162788577
 20
3.4438784852
 10
6.3460599283
 20
3.4450527621
 10
6.3732783515
 20
3.4462323161
 10
6.3956548497
 20
3.4473833949
 10
6.4124904229
 20
3.4485261257
 10
6.4230138437
 20
3.4496703961
  0
LWPOLYLINE
  5
6E3
100
AcDbEntity
  8
0
100
AcDbPolyline
 62
7
  6
CONTINUOUS
 90
12
 70
0
 10
6.1801489182
 20
3.4669573265
 10
6.190752664
 20
3.4681106939
 10
6.2078210131
 20
3.469265682
 10
6.2302074833
 20
3.4704140405
 10
6.2571387462
 20
3.4715801928
 10
6.2863203747
 20
3.4727313955
 10
6.3161553569
 20
3.4738737352
 10
6.3459442445
 20
3.475048035
 10
6.3731805833
 20
3.4762277592
 10
6.3955795281
 20
3.477379029
 10
6.412406307
 20
3.4785191732
 10
6.4229981183
 20
3.479667872
  0
LWPOLYLINE
  5
6E4
100
AcDbEntity
  8
0
100
AcDbPolyline
 62
7
  6
CONTINUOUS
 90
12
 70
0
 10
6.1801559049
 20
3.4969584535
 10
6.1908382683
 20
3.4981177578
 10
6.2079742107
 20
3.4992745229
 10
6.2303644889
 20
3.5004213425
 10
6.2571941062
 20
3.5015824551
 10
6.2862124862
 20
3.5027272431
 10
6.3160491531
 20
3.5038696509
 10
6.3458322622
 20
3.5050434608
 10
6.3730747586
 20
3.5062228302
 10
6.3954879381
 20
3.5073737262
 10
6.4123261708
 20
3.5085125676
 10
6.4229850947
 20
3.5096657857
  0
LWPOLYLINE
  5
6E5
100
AcDbEntity
  8
0
100
AcDbPolyline
 62
7
  6
CONTINUOUS
 90
12
 70
0
 10
6.4229850947
 20
3.4813756225
 10
6.4123261708
 20
3.4802224044
 10
6.3954879381
 20
3.479083563
 10
6.3730747586
 20
3.477932667
 10
6.3458322622
 20
3.4767532976
 10
6.3160491531
 20
3.4755794877
 10
6.2862124862
 20
3.4744370799
 10
6.2571941062
 20
3.4732922919
 10
6.2303644889
 20
3.4721311793
 10
6.2079742107
 20
3.4709843597
 10
6.1908382683
 20
3.4698275946
 10
6.1801559049
 20
3.4686682903
  0
LWPOLYLINE
  5
6E6
100
AcDbEntity
  8
0
100
AcDbPolyline
 62
7
  6
CONTINUOUS
 90
12
 70
0
 10
6.422964204
 20
3.5113722836
 10
6.4121153851
 20
3.5102051121
 10
6.3950284267
 20
3.5090570589
 10
6.3726307285
 20
3.5079120238
 10
6.3454569168
 20
3.5067379778
 10
6.3157983153
 20
3.5055698429
 10
6.286059496
 20
3.5044311909
 10
6.2572402436
 20
3.5032941771
 10
6.2308622976
 20
3.5021542804
 10
6.2085440126
 20
3.5010170813
 10
6.1912159722
 20
3.4998585266
 10
6.1802504668
 20
3.4986834374
  0
LWPOLYLINE
  5
6E7
100
AcDbEntity
  8
0
100
AcDbPolyline
 62
7
  6
CONTINUOUS
 90
12
 70
0
 10
6.4229574372
 20
3.5413712042
 10
6.4120459556
 20
3.5401994422
 10
6.394808857
 20
3.5390444527
 10
6.3723739252
 20
3.5379001129
 10
6.3451966884
 20
3.5367273673
 10
6.315564442
 20
3.5355608523
 10
6.2858523563
 20
3.5344232161
 10
6.2569927292
 20
3.5332840605
 10
6.2307425752
 20
3.5321487316
 10
6.2084944878
 20
3.5310142472
 10
6.1911946511
 20
3.5298567905
 10
6.180245679
 20
3.5286826752
  0
LINE
  5
6E8
100
AcDbEntity
  8
0
100
AcDbLine
 62
7
  6
CONTINUOUS
 10
7.3015970457
 20
3.0325262206
 11
6.831714154
 21
3.232569493
  0
LINE
  5
6E9
100
AcDbEntity
  8
0
100
AcDbLine
 62
7
  6
CONTINUOUS
 10
6.4263244051
 20
3.3928416307
 11
6.4024353195
 21
3.4066713049
  0
LINE
  5
6EA
100
AcDbEntity
  8
0
100
AcDbLine
 62
7
  6
CONTINUOUS
 10
6.1768696853
 20
3.5555009743
 11
6.200758772
 21
3.5416713049
  0
LINE
  5
6EB
100
AcDbEntity
  8
0
100
AcDbLine
 62
7
  6
CONTINUOUS
 10
6.4263244051
 20
3.4228416307
 11
6.4024353195
 21
3.4366713049
  0
LINE
  5
6EC
100
AcDbEntity
  8
0
100
AcDbLine
 62
7
  6
CONTINUOUS
 10
6.1768696853
 20
3.5855009743
 11
6.200758772
 21
3.5716713049
  0
LINE
  5
6ED
100
AcDbEntity
  8
0
100
AcDbLine
 62
7
  6
CONTINUOUS
 10
6.4263244051
 20
3.4528416307
 11
6.4024353195
 21
3.4666713049
  0
LINE
  5
6EE
100
AcDbEntity
  8
0
100
AcDbLine
 62
7
  6
CONTINUOUS
 10
6.1768696853
 20
3.6155009743
 11
6.200758772
 21
3.6016713049
  0
LINE
  5
6EF
100
AcDbEntity
  8
0
100
AcDbLine
 62
7
  6
CONTINUOUS
 10
6.4263244051
 20
3.4828416307
 11
6.4024353195
 21
3.4966713049
  0
LINE
  5
6F0
100
AcDbEntity
  8
0
100
AcDbLine
 62
7
  6
CONTINUOUS
 10
6.1768696853
 20
3.6455009743
 11
6.1765970457
 21
3.6458163838
  0
LINE
  5
6F1
100
AcDbEntity
  8
0
100
AcDbLine
 62
7
  6
CONTINUOUS
 10
6.1768696853
 20
3.6755009743
 11
6.1765970457
 21
3.6758163838
  0
LWPOLYLINE
  5
6F2
100
AcDbEntity
  8
0
100
AcDbPolyline
 62
9
  6
CONTINUOUS
 90
12
 70
0
 10
6.5654369377
 20
3.2463846903
 10
6.5752457534
 20
3.2337742129
 10
6.5881418622
 20
3.2199401145
 10
6.6038894811
 20
3.2049141371
 10
6.622365217
 20
3.1886435977
 10
6.6435682319
 20
3.1710223466
 10
6.6674570487
 20
3.1520187605
 10
6.6941232395
 20
3.1315209264
 10
6.7236493675
 20
3.1094463583
 10
6.7561804551
 20
3.0856802738
 10
6.7919044857
 20
3.0600884695
 10
6.8310379445
 20
3.0325262302
  0
LINE
  5
6F3
100
AcDbEntity
  8
0
100
AcDbLine
 62
7
  6
CONTINUOUS
 10
6.4229574372
 20
3.5696613674
 11
6.4263244062
 21
3.5705009743
  0
LINE
  5
6F4
100
AcDbEntity
  8
0
100
AcDbLine
 62
7
  6
CONTINUOUS
 10
6.180245679
 20
3.5286826752
 11
6.1768696864
 21
3.5278416307
  0
LINE
  5
6F5
100
AcDbEntity
  8
0
100
AcDbLine
 62
7
  6
CONTINUOUS
 10
6.4229502258
 20
3.5996602181
 11
6.4263244062
 21
3.6005009743
  0
LINE
  5
6F6
100
AcDbEntity
  8
0
100
AcDbLine
 62
7
  6
CONTINUOUS
 10
6.180246689
 20
3.558682836
 11
6.1768696864
 21
3.5578416307
  0
LINE
  5
6F7
100
AcDbEntity
  8
0
100
AcDbLine
 62
7
  6
CONTINUOUS
 10
6.422944034
 20
3.6296592321
 11
6.4263244062
 21
3.6305009743
  0
LINE
  5
6F8
100
AcDbEntity
  8
0
100
AcDbLine
 62
7
  6
CONTINUOUS
 10
6.1802528825
 20
3.5886838218
 11
6.1768696864
 21
3.5878416307
  0
LWPOLYLINE
  5
6F9
100
AcDbEntity
  8
0
100
AcDbPolyline
 62
7
  6
CONTINUOUS
 90
13
 70
0
 10
6.2014355941
 20
3.6020633199
 10
6.2059092203
 20
3.6031548187
 10
6.2169659068
 20
3.6043910824
 10
6.2336647095
 20
3.6056273461
 10
6.254892367
 20
3.6068636099
 10
6.2792336919
 20
3.6080998736
 10
6.3050659177
 20
3.6093361374
 10
6.3306668838
 20
3.6105724011
 10
6.3543298468
 20
3.6118086648
 10
6.3744772646
 20
3.6130449286
 10
6.3897659665
 20
3.6142811923
 10
6.3991766984
 20
3.615517456
 10
6.4017584962
 20
3.6162792838
  0
LWPOLYLINE
  5
6FA
100
AcDbEntity
  8
0
100
AcDbPolyline
 62
7
  6
CONTINUOUS
 90
12
 70
0
 10
6.4229502258
 20
3.5713700549
 10
6.4120004209
 20
3.5701957305
 10
6.3946882166
 20
3.5690375422
 10
6.3723018272
 20
3.5678967726
 10
6.3452154621
 20
3.5667281325
 10
6.3156342902
 20
3.5655635372
 10
6.2859119429
 20
3.5644255103
 10
6.2569559343
 20
3.563282556
 10
6.2307308035
 20
3.5621481858
 10
6.2085014717
 20
3.561014647
 10
6.1911987161
 20
3.5598571216
 10
6.180246689
 20
3.558682836
  0
LWPOLYLINE
  5
6FB
100
AcDbEntity
  8
0
100
AcDbPolyline
 62
7
  6
CONTINUOUS
 90
12
 70
0
 10
6.180245679
 20
3.5569728383
 10
6.1911946511
 20
3.5581469537
 10
6.2084944878
 20
3.5593044104
 10
6.2307425752
 20
3.5604388948
 10
6.2569927292
 20
3.5615742237
 10
6.2858523563
 20
3.5627133792
 10
6.315564442
 20
3.5638510155
 10
6.3451966884
 20
3.5650175305
 10
6.3723739252
 20
3.5661902761
 10
6.394808857
 20
3.5673346159
 10
6.4120459556
 20
3.5684896054
 10
6.4229574372
 20
3.5696613674
  0
LWPOLYLINE
  5
6FC
100
AcDbEntity
  8
0
100
AcDbPolyline
 62
7
  6
CONTINUOUS
 90
12
 70
0
 10
6.180246689
 20
3.5869729992
 10
6.1911987161
 20
3.5881472848
 10
6.2085014717
 20
3.5893048102
 10
6.2307308035
 20
3.590438349
 10
6.2569559343
 20
3.5915727191
 10
6.2859119429
 20
3.5927156735
 10
6.3156342902
 20
3.5938537004
 10
6.3452154621
 20
3.5950182957
 10
6.3723018272
 20
3.5961869358
 10
6.3946882166
 20
3.5973277054
 10
6.4120004209
 20
3.5984858937
 10
6.4229502258
 20
3.5996602181
  0
LWPOLYLINE
  5
6FD
100
AcDbEntity
  8
0
100
AcDbPolyline
 62
7
  6
CONTINUOUS
 90
12
 70
0
 10
6.1802504668
 20
3.5269736006
 10
6.1912159722
 20
3.5281486898
 10
6.2085440126
 20
3.5293072445
 10
6.2308622976
 20
3.5304444436
 10
6.2572402436
 20
3.5315843403
 10
6.286059496
 20
3.5327213541
 10
6.3157983153
 20
3.5338600061
 10
6.3454569168
 20
3.535028141
 10
6.3726307285
 20
3.536202187
 10
6.3950284267
 20
3.5373472221
 10
6.4121153851
 20
3.5384952753
 10
6.422964204
 20
3.5396624468
  0
LWPOLYLINE
  5
6FE
100
AcDbEntity
  8
0
100
AcDbPolyline
 62
7
  6
CONTINUOUS
 90
12
 70
0
 10
6.422944034
 20
3.6013690689
 10
6.4119757075
 20
3.6001937183
 10
6.3946431123
 20
3.5990349614
 10
6.3723472546
 20
3.5978988771
 10
6.3454179632
 20
3.5967363889
 10
6.3159100945
 20
3.5955741406
 10
6.2861595458
 20
3.5944350422
 10
6.2570777131
 20
3.593287535
 10
6.2307909259
 20
3.5921509731
 10
6.2085504258
 20
3.5910174482
 10
6.1912230609
 20
3.5898591035
 10
6.1802528825
 20
3.5886838218
  0
LWPOLYLINE
  5
6FF
100
AcDbEntity
  8
0
100
AcDbPolyline
 62
7
  6
CONTINUOUS
 90
12
 70
0
 10
6.4229408971
 20
3.6313685698
 10
6.4119632426
 20
3.630192704
 10
6.3946181077
 20
3.6290335313
 10
6.3723729681
 20
3.6279000686
 10
6.3460128758
 20
3.626760676
 10
6.3168420182
 20
3.625609989
 10
6.2870794918
 20
3.6244704366
 10
6.2576380185
 20
3.6233104181
 10
6.2308280472
 20
3.6221526935
 10
6.2085723427
 20
3.6210187017
 10
6.1912354659
 20
3.6198601128
 10
6.1802560202
 20
3.6186843209
  0
LINE
  5
700
100
AcDbEntity
  8
0
100
AcDbLine
 62
7
  6
CONTINUOUS
 10
6.1768696853
 20
3.6455009743
 11
6.200758772
 21
3.6316713049
  0
LINE
  5
701
100
AcDbEntity
  8
0
100
AcDbLine
 62
7
  6
CONTINUOUS
 10
6.4263244051
 20
3.5128416307
 11
6.4024353195
 21
3.5266713049
  0
LINE
  5
702
100
AcDbEntity
  8
0
100
AcDbLine
 62
7
  6
CONTINUOUS
 10
6.1768696853
 20
3.6755009743
 11
6.200758772
 21
3.6616713049
  0
LINE
  5
703
100
AcDbEntity
  8
0
100
AcDbLine
 62
7
  6
CONTINUOUS
 10
6.4263244051
 20
3.5428416307
 11
6.4024353195
 21
3.5566713049
  0
LINE
  5
704
100
AcDbEntity
  8
0
100
AcDbLine
 62
7
  6
CONTINUOUS
 10
6.1768696853
 20
3.7055009743
 11
6.200758772
 21
3.6916713049
  0
LINE
  5
705
100
AcDbEntity
  8
0
100
AcDbLine
 62
7
  6
CONTINUOUS
 10
6.4263244051
 20
3.5728416307
 11
6.4024353195
 21
3.5866713049
  0
LINE
  5
706
100
AcDbEntity
  8
0
100
AcDbLine
 62
7
  6
CONTINUOUS
 10
6.1766546759
 20
3.7056713921
 11
6.1768696853
 21
3.7055009743
  0
LINE
  5
707
100
AcDbEntity
  8
0
100
AcDbLine
 62
7
  6
CONTINUOUS
 10
6.4263244051
 20
3.5428416307
 11
6.4265970457
 21
3.5425262206
  0
LINE
  5
708
100
AcDbEntity
  8
0
100
AcDbLine
 62
7
  6
CONTINUOUS
 10
6.4263244051
 20
3.5728416307
 11
6.4265970457
 21
3.5725262206
  0
LINE
  5
709
100
AcDbEntity
  8
0
100
AcDbLine
 62
7
  6
CONTINUOUS
 10
6.4263244051
 20
3.6028416307
 11
6.4265970457
 21
3.6025262206
  0
LWPOLYLINE
  5
70A
100
AcDbEntity
  8
0
100
AcDbPolyline
 62
7
  6
CONTINUOUS
 90
6
 70
0
 10
6.2014355941
 20
3.6920633199
 10
6.2050783915
 20
3.6930197451
 10
6.2153926625
 20
3.6942491816
 10
6.2313909833
 20
3.695478618
 10
6.2520184743
 20
3.6967080545
 10
6.2759150225
 20
3.697937491
  0
LINE
  5
70B
100
AcDbEntity
  8
0
100
AcDbLine
 62
7
  6
CONTINUOUS
 10
6.18024484
 20
3.6786825415
 11
6.1768696864
 21
3.6778416307
  0
LINE
  5
70C
100
AcDbEntity
  8
0
100
AcDbLine
 62
7
  6
CONTINUOUS
 10
6.4229408971
 20
3.659658733
 11
6.4263244062
 21
3.6605009743
  0
LINE
  5
70D
100
AcDbEntity
  8
0
100
AcDbLine
 62
7
  6
CONTINUOUS
 10
6.4229453183
 20
3.6896594366
 11
6.4263244062
 21
3.6905009743
  0
LINE
  5
70E
100
AcDbEntity
  8
0
100
AcDbLine
 62
7
  6
CONTINUOUS
 10
6.1802515978
 20
3.6486836174
 11
6.1768696864
 21
3.6478416307
  0
LINE
  5
70F
100
AcDbEntity
  8
0
100
AcDbLine
 62
7
  6
CONTINUOUS
 10
6.1802560202
 20
3.6186843209
 11
6.1768696864
 21
3.6178416307
  0
LWPOLYLINE
  5
710
100
AcDbEntity
  8
0
100
AcDbPolyline
 62
7
  6
CONTINUOUS
 90
12
 70
0
 10
6.4229453183
 20
3.6613692734
 10
6.4119806424
 20
3.66019412
 10
6.3946527701
 20
3.6590355138
 10
6.3724107874
 20
3.6579018214
 10
6.3461457259
 20
3.6567661059
 10
6.3170932586
 20
3.655619659
 10
6.2873521635
 20
3.6544809215
 10
6.2578314346
 20
3.6533183078
 10
6.2308586737
 20
3.6521541125
 10
6.2085403591
 20
3.6510168723
 10
6.1912177705
 20
3.6498586729
 10
6.1802515978
 20
3.6486836174
  0
LWPOLYLINE
  5
711
100
AcDbEntity
  8
0
100
AcDbPolyline
 62
7
  6
CONTINUOUS
 90
12
 70
0
 10
6.4229520743
 20
3.6913703494
 10
6.412007184
 20
3.6901962815
 10
6.3947066542
 20
3.6890385976
 10
6.3724779795
 20
3.6879049366
 10
6.3462624802
 20
3.6867708799
 10
6.3173386206
 20
3.6856291052
 10
6.2876298926
 20
3.6844915982
 10
6.2580397004
 20
3.6833267977
 10
6.230912172
 20
3.6821565906
 10
6.2084924995
 20
3.6810141334
 10
6.1911906746
 20
3.6798564666
 10
6.18024484
 20
3.6786825415
  0
LWPOLYLINE
  5
712
100
AcDbEntity
  8
0
100
AcDbPolyline
 62
7
  6
CONTINUOUS
 90
12
 70
0
 10
6.1802528825
 20
3.616973985
 10
6.1912230609
 20
3.6181492667
 10
6.2085504258
 20
3.6193076114
 10
6.2307909259
 20
3.6204411363
 10
6.2570777131
 20
3.6215776982
 10
6.2861595458
 20
3.6227252054
 10
6.3159100945
 20
3.6238643038
 10
6.3454179632
 20
3.6250265521
 10
6.3723472546
 20
3.6261890403
 10
6.3946431123
 20
3.6273251246
 10
6.4119757075
 20
3.6284838815
 10
6.422944034
 20
3.6296592321
  0
LWPOLYLINE
  5
713
100
AcDbEntity
  8
0
100
AcDbPolyline
 62
7
  6
CONTINUOUS
 90
12
 70
0
 10
6.1802560202
 20
3.6469744841
 10
6.1912354659
 20
3.648150276
 10
6.2085723427
 20
3.6493088649
 10
6.2308280472
 20
3.6504428566
 10
6.2576380185
 20
3.6516005813
 10
6.2870794918
 20
3.6527605998
 10
6.3168420182
 20
3.6539001522
 10
6.3460128758
 20
3.6550508392
 10
6.3723729681
 20
3.6561902318
 10
6.3946181077
 20
3.6573236945
 10
6.4119632426
 20
3.6584828672
 10
6.4229408971
 20
3.659658733
  0
LWPOLYLINE
  5
714
100
AcDbEntity
  8
0
100
AcDbPolyline
 62
7
  6
CONTINUOUS
 90
12
 70
0
 10
6.1802515978
 20
3.6769737806
 10
6.1912177705
 20
3.6781488361
 10
6.2085403591
 20
3.6793070355
 10
6.2308586737
 20
3.6804442757
 10
6.2578314346
 20
3.6816084709
 10
6.2873521635
 20
3.6827710847
 10
6.3170932586
 20
3.6839098222
 10
6.3461457259
 20
3.6850562691
 10
6.3724107874
 20
3.6861919846
 10
6.3946527701
 20
3.687325677
 10
6.4119806424
 20
3.6884842832
 10
6.4229453183
 20
3.6896594366
  0
LWPOLYLINE
  5
715
100
AcDbEntity
  8
0
100
AcDbPolyline
 62
7
  6
CONTINUOUS
 90
7
 70
0
 10
6.2759150225
 20
3.697937491
 10
6.3271009767
 20
3.700396364
 10
6.3510153394
 20
3.7016258004
 10
6.371671213
 20
3.7028552369
 10
6.3877066133
 20
3.7040846734
 10
6.3980642156
 20
3.7053141099
 10
6.4017584962
 20
3.7062792838
  0
LINE
  5
716
100
AcDbEntity
  8
0
100
AcDbLine
 62
7
  6
CONTINUOUS
 10
6.1992829613
 20
3.7225262206
 11
6.2007588033
 21
3.721671323
  0
LINE
  5
717
100
AcDbEntity
  8
0
100
AcDbLine
 62
7
  6
CONTINUOUS
 10
6.4263244051
 20
3.6028416307
 11
6.4024353195
 21
3.6166713049
  0
LINE
  5
718
100
AcDbEntity
  8
0
100
AcDbLine
 62
7
  6
CONTINUOUS
 10
6.4263244051
 20
3.6328416307
 11
6.4024353195
 21
3.6466713049
  0
LINE
  5
719
100
AcDbEntity
  8
0
100
AcDbLine
 62
7
  6
CONTINUOUS
 10
6.4263244051
 20
3.6628416307
 11
6.4024353195
 21
3.6766713049
  0
LINE
  5
71A
100
AcDbEntity
  8
0
100
AcDbLine
 62
7
  6
CONTINUOUS
 10
6.4213412929
 20
3.7177819735
 11
6.4165970457
 21
3.7225262206
  0
LINE
  5
71B
100
AcDbEntity
  8
0
100
AcDbLine
 62
7
  6
CONTINUOUS
 10
6.4265970457
 20
3.6925262206
 11
6.4263244051
 21
3.6928416307
  0
LWPOLYLINE
  5
71C
100
AcDbEntity
  8
0
100
AcDbPolyline
 62
7
  6
CONTINUOUS
 90
5
 70
0
 10
6.1768696864
 20
3.7078416307
 10
6.182491873
 20
3.7089983927
 10
6.1953368063
 20
3.7101745056
 10
6.214593438
 20
3.7113504488
 10
6.2390970457
 20
3.7125262206
  0
LWPOLYLINE
  5
71D
100
AcDbEntity
  8
0
100
AcDbPolyline
 62
7
  6
CONTINUOUS
 90
5
 70
0
 10
6.3422803861
 20
3.7225262206
 10
6.3181693128
 20
3.7200401318
 10
6.2922490577
 20
3.7175601118
 10
6.2654361616
 20
3.7150552685
 10
6.2390970457
 20
3.7125262206
  0
LWPOLYLINE
  5
71E
100
AcDbEntity
  8
0
100
AcDbPolyline
 62
7
  6
CONTINUOUS
 90
6
 70
0
 10
6.2810049171
 20
3.7125262206
 10
6.2523705228
 20
3.7113837243
 10
6.2265411054
 20
3.7102412208
 10
6.2049913063
 20
3.709098872
 10
6.1889437421
 20
3.7079564049
 10
6.179314837
 20
3.7068138529
  0
LINE
  5
71F
100
AcDbEntity
  8
0
100
AcDbLine
 62
7
  6
CONTINUOUS
 10
6.2390970457
 20
3.7125262206
 11
6.2810049171
 21
3.7125262206
  0
LINE
  5
720
100
AcDbEntity
  8
0
100
AcDbLine
 62
7
  6
CONTINUOUS
 10
6.1992570163
 20
3.7225262206
 11
6.4165925356
 21
3.7225262206
  0
LINE
  5
721
100
AcDbEntity
  8
0
100
AcDbLine
 62
7
  6
CONTINUOUS
 10
6.4263244051
 20
3.6928416307
 11
6.4024353195
 21
3.7066713049
  0
LINE
  5
722
100
AcDbEntity
  8
0
100
AcDbLine
 62
9
  6
CONTINUOUS
 10
7.3015970457
 20
2.9725262206
 11
7.3015970457
 21
3.0325262206
  0
LINE
  5
723
100
AcDbEntity
  8
0
100
AcDbLine
 62
7
  6
CONTINUOUS
 10
7.5515970457
 20
2.9725262206
 11
7.5515970457
 21
3.0325262206
  0
LINE
  5
724
100
AcDbEntity
  8
0
100
AcDbLine
 62
7
  6
CONTINUOUS
 10
5.0515970457
 20
8.4585506671
 11
5.0515970457
 21
6.4585506671
  0
LINE
  5
725
100
AcDbEntity
  8
0
100
AcDbLine
 62
7
  6
CONTINUOUS
 10
5.5837389538
 20
8.3871391845
 11
5.3730085277
 21
8.1764087584
  0
LWPOLYLINE
  5
726
100
AcDbEntity
  8
0
100
AcDbPolyline
 62
7
  6
CONTINUOUS
 90
6
 70
0
 10
5.5837389538
 20
8.3871391845
 10
5.6153155494
 20
8.4136425602
 10
5.6514528379
 20
8.4343034219
 10
5.6903182269
 20
8.4483088787
 10
5.731003634
 20
8.456152544
 10
5.7721569953
 20
8.4585506671
  0
LINE
  5
727
100
AcDbEntity
  8
0
100
AcDbLine
 62
7
  6
CONTINUOUS
 10
5.3015970457
 20
6.2085506671
 11
7.3015970457
 21
6.2085506671
  0
LINE
  5
728
100
AcDbEntity
  8
0
100
AcDbLine
 62
7
  6
CONTINUOUS
 10
5.3730085283
 20
6.7406925751
 11
5.5837389553
 21
6.5299621482
  0
LWPOLYLINE
  5
729
100
AcDbEntity
  8
0
100
AcDbPolyline
 62
7
  6
CONTINUOUS
 90
6
 70
0
 10
5.3730085283
 20
6.7406925751
 10
5.3465051526
 20
6.7722691708
 10
5.3258442909
 20
6.8084064592
 10
5.3118388341
 20
6.8472718483
 10
5.3039951689
 20
6.8879572554
 10
5.3015970457
 20
6.9291106167
  0
LINE
  5
72A
100
AcDbEntity
  8
DEFAULT_1
100
AcDbLine
 62
7
  6
CENTER
 10
5.3015970457
 20
8.4585506671
 11
5.3015970457
 21
8.316357199
  0
LINE
  5
72B
100
AcDbEntity
  8
0
100
AcDbLine
 62
7
  6
CONTINUOUS
 10
5.3015970457
 20
7.9879907261
 11
5.3015970457
 21
6.9291106167
  0
LINE
  5
72C
100
AcDbEntity
  8
DEFAULT_1
100
AcDbLine
 62
7
  6
CENTER
 10
5.3015970457
 20
6.4585506671
 11
5.3015970457
 21
6.3083486773
  0
LINE
  5
72D
100
AcDbEntity
  8
DEFAULT_1
100
AcDbLine
 62
7
  6
CENTER
 10
5.3015970457
 20
6.4585506671
 11
5.3015970457
 21
6.6087526569
  0
LINE
  5
72E
100
AcDbEntity
  8
DEFAULT_1
100
AcDbLine
 62
7
  6
CENTER
 10
5.3015970457
 20
8.4585506671
 11
5.3015970457
 21
8.6007441352
  0
LWPOLYLINE
  5
72F
100
AcDbEntity
  8
0
100
AcDbPolyline
 62
7
  6
CONTINUOUS
 90
6
 70
0
 10
5.3015970457
 20
7.9879907261
 10
5.3039960693
 20
8.0291515382
 10
5.3118385636
 20
8.0698284898
 10
5.3258418601
 20
8.1086895772
 10
5.3465052883
 20
8.1448323577
 10
5.3730085277
 20
8.1764087584
  0
LINE
  5
730
100
AcDbEntity
  8
DEFAULT_1
100
AcDbLine
 62
7
  6
CENTER
 10
7.3015970457
 20
6.4585506671
 11
7.1609506544
 21
6.4585506671
  0
LINE
  5
731
100
AcDbEntity
  8
DEFAULT_1
100
AcDbLine
 62
7
  6
CENTER
 10
5.3015970457
 20
6.4585506671
 11
5.1513950559
 21
6.4585506671
  0
LINE
  5
732
100
AcDbEntity
  8
DEFAULT_1
100
AcDbLine
 62
7
  6
CENTER
 10
5.3015970457
 20
6.4585506671
 11
5.4517990356
 21
6.4585506671
  0
LINE
  5
733
100
AcDbEntity
  8
0
100
AcDbLine
 62
7
  6
CONTINUOUS
 10
5.7721570513
 20
6.4585506671
 11
6.8310370354
 21
6.4585506671
  0
LINE
  5
734
100
AcDbEntity
  8
DEFAULT_1
100
AcDbLine
 62
7
  6
CENTER
 10
7.3015970457
 20
6.4585506671
 11
7.4422434371
 21
6.4585506671
  0
LWPOLYLINE
  5
735
100
AcDbEntity
  8
0
100
AcDbPolyline
 62
7
  6
CONTINUOUS
 90
6
 70
0
 10
5.7721570513
 20
6.4585506671
 10
5.7309962282
 20
6.4609496791
 10
5.6903192647
 20
6.4687921725
 10
5.6514581601
 20
6.4827954702
 10
5.6153153623
 20
6.5034589046
 10
5.5837389553
 20
6.5299621482
  0
LWPOLYLINE
  5
736
100
AcDbEntity
  8
0
100
AcDbPolyline
 62
9
  6
CONTINUOUS
 90
9
 70
0
 10
5.8604118268
 20
7.7223831128
 10
5.8208568322
 20
7.6598858219
 10
5.793403312
 20
7.5951505789
 10
5.7769814263
 20
7.5277774005
 10
5.7714796376
 20
7.4585562695
 10
5.7769804047
 20
7.3893294412
 10
5.793401161
 20
7.3219566519
 10
5.8208578041
 20
7.2572133875
 10
5.8604115983
 20
7.1947184202
  0
LWPOLYLINE
  5
737
100
AcDbEntity
  8
0
100
AcDbPolyline
 62
9
  6
CONTINUOUS
 90
3
 70
0
 10
5.9001301386
 20
7.7760585673
 10
5.8796604707
 20
7.7498508599
 10
5.8604114746
 20
7.722383273
  0
LWPOLYLINE
  5
738
100
AcDbEntity
  8
0
100
AcDbPolyline
 62
9
  6
CONTINUOUS
 90
3
 70
0
 10
5.9840876983
 20
7.8600190969
 10
5.9391976401
 20
7.8209709836
 10
5.9001285808
 20
7.7760598989
  0
LWPOLYLINE
  5
739
100
AcDbEntity
  8
0
100
AcDbPolyline
 62
9
  6
CONTINUOUS
 90
3
 70
0
 10
6.0377647169
 20
7.8997362956
 10
6.0102827958
 20
7.8804817697
 10
5.9840888282
 20
7.8600177747
  0
LWPOLYLINE
  5
73A
100
AcDbEntity
  8
0
100
AcDbPolyline
 62
9
  6
CONTINUOUS
 90
9
 70
0
 10
6.0377591446
 20
7.0173721421
 10
6.1002567136
 20
6.9778131629
 10
6.1649935395
 20
6.9503581234
 10
6.23236848
 20
6.9339353414
 10
6.3015915044
 20
6.928433259
 10
6.3708202233
 20
6.9339343389
 10
6.4381947705
 20
6.9503560104
 10
6.5029396124
 20
6.9778141922
 10
6.5654347901
 20
7.0173719879
  0
LWPOLYLINE
  5
73B
100
AcDbEntity
  8
0
100
AcDbPolyline
 62
9
  6
CONTINUOUS
 90
3
 70
0
 10
5.9840901518
 20
7.0570836418
 10
6.0102928983
 20
7.0366186137
 10
6.0377598507
 20
7.0173737037
  0
LWPOLYLINE
  5
73C
100
AcDbEntity
  8
0
100
AcDbPolyline
 62
9
  6
CONTINUOUS
 90
3
 70
0
 10
5.9001286159
 20
7.1410413197
 10
5.9391770281
 20
7.0961509626
 10
5.9840885836
 20
7.0570818071
  0
LWPOLYLINE
  5
73D
100
AcDbEntity
  8
0
100
AcDbPolyline
 62
9
  6
CONTINUOUS
 90
3
 70
0
 10
5.8604114172
 20
7.1947183382
 10
5.8796659431
 20
7.1672364171
 10
5.9001299381
 20
7.1410424495
  0
LWPOLYLINE
  5
73E
100
AcDbEntity
  8
0
100
AcDbPolyline
 62
9
  6
CONTINUOUS
 90
9
 70
0
 10
6.0057789237
 20
7.6565897537
 10
5.9881560417
 20
7.6093813482
 10
5.9764929033
 20
7.5610741139
 10
5.9696290797
 20
7.5106390371
 10
5.9673369166
 20
7.4585557163
 10
5.9696285872
 20
7.4064679087
 10
5.9764918973
 20
7.3560326714
 10
5.9881564514
 20
7.3077186116
 10
6.0057788618
 20
7.2605117128
  0
LWPOLYLINE
  5
73F
100
AcDbEntity
  8
0
100
AcDbPolyline
 62
9
  6
CONTINUOUS
 90
3
 70
0
 10
6.0177508628
 20
7.675518629
 10
6.011148065
 20
7.6665606062
 10
6.0057789237
 20
7.6565897537
  0
LWPOLYLINE
  5
740
100
AcDbEntity
  8
0
100
AcDbPolyline
 62
9
  6
CONTINUOUS
 90
3
 70
0
 10
6.0846290664
 20
7.7423968332
 10
6.0499004129
 20
7.7102660142
 10
6.0177508628
 20
7.675518629
  0
LWPOLYLINE
  5
741
100
AcDbEntity
  8
0
100
AcDbPolyline
 62
9
  6
CONTINUOUS
 90
3
 70
0
 10
6.1035580914
 20
7.754368851
 10
6.0935879941
 20
7.7490001215
 10
6.0846290664
 20
7.7423968332
  0
LWPOLYLINE
  5
742
100
AcDbEntity
  8
0
100
AcDbPolyline
 62
9
  6
CONTINUOUS
 90
9
 70
0
 10
6.1035540236
 20
7.1627340336
 10
6.1507634986
 20
7.1451105281
 10
6.1990716114
 20
7.1334468944
 10
6.2495076561
 20
7.1265827917
 10
6.3015920304
 20
7.1242905379
 10
6.3536808898
 20
7.1265823051
 10
6.4041170922
 20
7.1334459002
 10
6.4524320275
 20
7.1451109559
 10
6.4996400038
 20
7.16273399
  0
LWPOLYLINE
  5
743
100
AcDbEntity
  8
0
100
AcDbPolyline
 62
9
  6
CONTINUOUS
 90
3
 70
0
 10
6.0846293424
 20
7.174703884
 10
6.0935851327
 20
7.1681023397
 10
6.1035540236
 20
7.1627340336
  0
LWPOLYLINE
  5
744
100
AcDbEntity
  8
0
100
AcDbPolyline
 62
9
  6
CONTINUOUS
 90
3
 70
0
 10
6.0177508796
 20
7.2415826878
 10
6.0498819099
 20
7.206853823
 10
6.0846293424
 20
7.174703884
  0
LWPOLYLINE
  5
745
100
AcDbEntity
  8
0
100
AcDbPolyline
 62
9
  6
CONTINUOUS
 90
3
 70
0
 10
6.0057788618
 20
7.2605117128
 10
6.0111475913
 20
7.2505416155
 10
6.0177508796
 20
7.2415826878
  0
LWPOLYLINE
  5
746
100
AcDbEntity
  8
0
100
AcDbPolyline
 62
9
  6
CONTINUOUS
 90
12
 70
0
 10
6.0377576031
 20
7.0173757602
 10
6.0279156562
 20
6.9811333606
 10
6.0149912695
 20
6.9431244581
 10
5.9992227958
 20
6.903003255
 10
5.9807288505
 20
6.8603122426
 10
5.9595109699
 20
6.8145679752
 10
5.935614591
 20
6.7655475909
 10
5.9089475295
 20
6.7128487312
 10
5.8794310144
 20
6.6561792267
 10
5.8469229179
 20
6.5951783288
 10
5.8112363383
 20
6.5294429557
 10
5.7721561896
 20
6.458550718
  0
LWPOLYLINE
  5
747
100
AcDbEntity
  8
0
100
AcDbPolyline
 62
9
  6
CONTINUOUS
 90
11
 70
0
 10
5.8603910208
 20
7.1947481451
 10
5.8194576568
 20
7.183396939
 10
5.7763946391
 20
7.1682800474
 10
5.7308380608
 20
7.1497607801
 10
5.6822058652
 20
7.1280238268
 10
5.6300517175
 20
7.1031529341
 10
5.5739058812
 20
7.0751112308
 10
5.5134114271
 20
7.0438424151
 10
5.4481715308
 20
7.0092213928
 10
5.3777357218
 20
6.9710593152
 10
5.3015970517
 20
6.9291106526
  0
LWPOLYLINE
  5
748
100
AcDbEntity
  8
0
100
AcDbPolyline
 62
7
  6
CONTINUOUS
 90
3
 70
0
 10
6.2922490577
 20
7.3389493194
 10
6.2654361616
 20
7.3415398788
 10
6.2390970457
 20
7.3502974916
  0
LWPOLYLINE
  5
749
100
AcDbEntity
  8
0
100
AcDbPolyline
 62
9
  6
CONTINUOUS
 90
12
 70
0
 10
6.7427719526
 20
7.1947112244
 10
6.7790143522
 20
7.1848692775
 10
6.8170232547
 20
7.1719448908
 10
6.8571444578
 20
7.1561764172
 10
6.8998354703
 20
7.1376824719
 10
6.9455797376
 20
7.1164645913
 10
6.994600122
 20
7.0925682123
 10
7.0472989816
 20
7.0659011508
 10
7.1039684861
 20
7.0363846357
 10
7.1649693841
 20
7.0038765392
 10
7.2307047567
 20
6.9681899599
 10
7.3015969763
 20
6.9291098211
  0
LWPOLYLINE
  5
74A
100
AcDbEntity
  8
0
100
AcDbPolyline
 62
9
  6
CONTINUOUS
 90
11
 70
0
 10
6.0377945238
 20
7.899756692
 10
6.0264433176
 20
7.940690056
 10
6.0113264261
 20
7.9837530737
 10
5.9928071587
 20
8.029309652
 10
5.9710702055
 20
8.0779418476
 10
5.9461993128
 20
8.1300959954
 10
5.9181576095
 20
8.1862418316
 10
5.8868887938
 20
8.2467362857
 10
5.8522677715
 20
8.3119761821
 10
5.8141056939
 20
8.382411991
 10
5.7721570312
 20
8.4585506611
  0
LINE
  5
74B
100
AcDbEntity
  8
AXIS
100
AcDbLine
 62
7
  6
CENTER
 10
6.3015970457
 20
7.4585506671
 11
6.3015970457
 21
7.2335506671
  0
LINE
  5
74C
100
AcDbEntity
  8
AXIS
100
AcDbLine
 62
7
  6
CENTER
 10
6.3015970457
 20
7.4585506671
 11
6.3015970457
 21
7.6835506671
  0
LINE
  5
74D
100
AcDbEntity
  8
0
100
AcDbLine
 62
9
  6
CONTINUOUS
 10
6.1035540236
 20
7.1627340336
 11
6.0377591446
 21
7.0173721421
  0
LINE
  5
74E
100
AcDbEntity
  8
0
100
AcDbLine
 62
9
  6
CONTINUOUS
 10
6.5185650077
 20
7.7423968501
 11
6.619104946
 21
7.8600175743
  0
LWPOLYLINE
  5
74F
100
AcDbEntity
  8
0
100
AcDbPolyline
 62
9
  6
CONTINUOUS
 90
11
 70
0
 10
5.9001295857
 20
7.1410426288
 10
5.8701776432
 20
7.1110873107
 10
5.83516055
 20
7.0795642067
 10
5.7954552952
 20
7.0462783808
 10
5.7510197477
 20
7.0108952542
 10
5.7017608333
 20
6.9731852288
 10
5.6474096181
 20
6.9328649149
 10
5.5877549814
 20
6.889742874
 10
5.5224334846
 20
6.8435447915
 10
5.4510160364
 20
6.7939712087
 10
5.3730085276
 20
6.7406925759
  0
LWPOLYLINE
  5
750
100
AcDbEntity
  8
0
100
AcDbPolyline
 62
9
  6
CONTINUOUS
 90
11
 70
0
 10
6.6191049925
 20
7.8600180948
 10
6.6490310088
 20
7.8899389094
 10
6.6805390031
 20
7.924935752
 10
6.7138107885
 20
7.964620615
 10
6.7491962454
 20
8.0090558736
 10
6.7869085292
 20
8.0583152232
 10
6.8272321265
 20
8.1126688578
 10
6.8703609015
 20
8.1723312548
 10
6.9165706646
 20
8.2376681757
 10
6.9661579916
 20
8.3091047838
 10
7.0194551362
 20
8.387139186
  0
LINE
  5
751
100
AcDbEntity
  8
0
100
AcDbLine
 62
9
  6
CONTINUOUS
 10
6.0177508796
 20
7.2415826878
 11
5.9001286159
 21
7.1410413197
  0
LINE
  5
752
100
AcDbEntity
  8
0
100
AcDbLine
 62
9
  6
CONTINUOUS
 10
6.5974137228
 20
7.6565936252
 11
6.7427739611
 21
7.7223876131
  0
LINE
  5
753
100
AcDbEntity
  8
AXIS
100
AcDbLine
 62
7
  6
CENTER
 10
6.3015970457
 20
7.4585506671
 11
6.0765970457
 21
7.4585506671
  0
LINE
  5
754
100
AcDbEntity
  8
AXIS
100
AcDbLine
 62
7
  6
CENTER
 10
6.3015970457
 20
7.4585506671
 11
6.5265970457
 21
7.4585506671
  0
LINE
  5
755
100
AcDbEntity
  8
0
100
AcDbLine
 62
9
  6
CONTINUOUS
 10
6.5974136792
 20
7.2605076449
 11
6.7427755708
 21
7.194712766
  0
LINE
  5
756
100
AcDbEntity
  8
0
100
AcDbLine
 62
9
  6
CONTINUOUS
 10
6.0177508628
 20
7.675518629
 11
5.9001301386
 21
7.7760585673
  0
LWPOLYLINE
  5
757
100
AcDbEntity
  8
0
100
AcDbPolyline
 62
9
  6
CONTINUOUS
 90
12
 70
0
 10
6.6191040528
 20
7.0570829885
 10
6.64551693
 20
7.0308668053
 10
6.6732801627
 20
7.000483304
 10
6.702586189
 20
6.9661281554
 10
6.7336864784
 20
6.9277635794
 10
6.766857813
 20
6.8851904655
 10
6.8021831055
 20
6.8383801611
 10
6.8399450415
 20
6.7869950912
 10
6.8802851055
 20
6.7308512291
 10
6.9234800133
 20
6.6695555444
 10
6.9697768799
 20
6.6027363184
 10
7.0194551362
 20
6.5299621482
  0
LWPOLYLINE
  5
758
100
AcDbEntity
  8
0
100
AcDbPolyline
 62
9
  6
CONTINUOUS
 90
11
 70
0
 10
5.900129618
 20
7.7760586139
 10
5.8702088034
 20
7.8059846302
 10
5.8352119608
 20
7.8374926246
 10
5.7955270977
 20
7.8707644099
 10
5.7510918391
 20
7.9061498668
 10
5.7018324896
 20
7.9438621506
 10
5.647478855
 20
7.9841857479
 10
5.587816458
 20
8.0273145229
 10
5.5224795371
 20
8.0735242859
 10
5.451042929
 20
8.1231116129
 10
5.3730085269
 20
8.1764087575
  0
LINE
  5
759
100
AcDbEntity
  8
0
100
AcDbLine
 62
9
  6
CONTINUOUS
 10
6.5185647701
 20
7.1747038902
 11
6.6191056606
 21
7.0570818297
  0
LINE
  5
75A
100
AcDbEntity
  8
0
100
AcDbLine
 62
9
  6
CONTINUOUS
 10
6.1035580914
 20
7.754368851
 11
6.0377647169
 21
7.8997362956
  0
LWPOLYLINE
  5
75B
100
AcDbEntity
  8
0
100
AcDbPolyline
 62
7
  6
CONTINUOUS
 90
9
 70
0
 10
6.2027037725
 20
7.4406517704
 10
6.2079956446
 20
7.4168050835
 10
6.2187382854
 20
7.3949879132
 10
6.2334855552
 20
7.3769970472
 10
6.2515097481
 20
7.3628422899
 10
6.2726192831
 20
7.3526425387
 10
6.2956298961
 20
7.3471432658
 10
6.3192006167
 20
7.3466268106
 10
6.3422803861
 20
7.3509873564
  0
LINE
  5
75C
100
AcDbEntity
  8
0
100
AcDbLine
 62
9
  6
CONTINUOUS
 10
6.4996361323
 20
7.7543687891
 11
6.5654294915
 21
7.899735886
  0
LINE
  5
75D
100
AcDbEntity
  8
0
100
AcDbLine
 62
9
  6
CONTINUOUS
 10
6.0846293424
 20
7.174703884
 11
5.9840901518
 21
7.0570836418
  0
LWPOLYLINE
  5
75E
100
AcDbEntity
  8
0
100
AcDbPolyline
 62
9
  6
CONTINUOUS
 90
12
 70
0
 10
6.7030647243
 20
7.7760576741
 10
6.7292809075
 20
7.8024705514
 10
6.7596644088
 20
7.830233784
 10
6.7940195574
 20
7.8595398104
 10
6.8323841334
 20
7.8906400997
 10
6.8749572473
 20
7.9238114343
 10
6.9217675517
 20
7.9591367268
 10
6.9731526217
 20
7.9968986628
 10
7.0292964837
 20
8.0372387268
 10
7.0905921684
 20
8.0804336346
 10
7.1574113945
 20
8.1267305012
 10
7.2301855647
 20
8.1764087575
  0
LWPOLYLINE
  5
75F
100
AcDbEntity
  8
0
100
AcDbPolyline
 62
9
  6
CONTINUOUS
 90
12
 70
0
 10
5.9840901755
 20
7.0570830585
 10
5.9576106678
 20
7.0307971207
 10
5.9298044284
 20
7.000358866
 10
5.9004748988
 20
6.9659678817
 10
5.8693548495
 20
6.9275711075
 10
5.8361694576
 20
6.8849727093
 10
5.8008403897
 20
6.8381509314
 10
5.7630822518
 20
6.7867654351
 10
5.7227599914
 20
6.7306417644
 10
5.6795983805
 20
6.6693899209
 10
5.6333503607
 20
6.6026390911
 10
5.583738956
 20
6.5299621475
  0
LINE
  5
760
100
AcDbEntity
  8
0
100
AcDbLine
 62
9
  6
CONTINUOUS
 10
6.5854438227
 20
7.6755183914
 11
6.7030658831
 21
7.776059282
  0
LWPOLYLINE
  5
761
100
AcDbEntity
  8
0
100
AcDbPolyline
 62
7
  6
CONTINUOUS
 90
4
 70
0
 10
6.3644132467
 20
7.3529460796
 10
6.338381358
 20
7.3405677307
 10
6.3100667144
 20
7.3345469496
 10
6.2810049171
 20
7.3352584766
  0
LINE
  5
762
100
AcDbEntity
  8
0
100
AcDbLine
 62
9
  6
CONTINUOUS
 10
6.0057788618
 20
7.2605117128
 11
5.8604114172
 21
7.1947183382
  0
LWPOLYLINE
  5
763
100
AcDbEntity
  8
0
100
AcDbPolyline
 62
7
  6
CONTINUOUS
 90
3
 70
0
 10
6.3422803861
 20
7.3509873564
 10
6.3181693128
 20
7.3422392703
 10
6.2922490577
 20
7.3389493194
  0
LWPOLYLINE
  5
764
100
AcDbEntity
  8
0
100
AcDbPolyline
 62
7
  6
CONTINUOUS
 90
9
 70
0
 10
6.3019983221
 20
7.573549967
 10
6.2762034629
 20
7.5687613946
 10
6.2522332714
 20
7.5581553619
 10
6.2317367271
 20
7.5425224878
 10
6.2158498182
 20
7.5230808238
 10
6.2054197276
 20
7.5018631238
 10
6.2003287223
 20
7.4814133264
 10
6.19942517
 20
7.4614050453
 10
6.2027037725
 20
7.4406517704
  0
LWPOLYLINE
  5
765
100
AcDbEntity
  8
0
100
AcDbPolyline
 62
7
  6
CONTINUOUS
 90
12
 70
0
 10
6.3019983221
 20
7.573549967
 10
6.3293024842
 20
7.5709064328
 10
6.3553349907
 20
7.5618504517
 10
6.3786090974
 20
7.5468441865
 10
6.3977861972
 20
7.5266903042
 10
6.4117553359
 20
7.5024830769
 10
6.4196909451
 20
7.4755521298
 10
6.4211028905
 20
7.4473861619
 10
6.415863567
 20
7.419546852
 10
6.4042146456
 20
7.3935862799
 10
6.3867565286
 20
7.370960928
 10
6.3644132467
 20
7.3529460796
  0
LINE
  5
766
100
AcDbEntity
  8
0
100
AcDbLine
 62
9
  6
CONTINUOUS
 10
6.0057789237
 20
7.6565897537
 11
5.8604118268
 21
7.7223831128
  0
LINE
  5
767
100
AcDbEntity
  8
0
100
AcDbLine
 62
9
  6
CONTINUOUS
 10
6.5854438288
 20
7.2415829637
 11
6.703064071
 21
7.1410437732
  0
LWPOLYLINE
  5
768
100
AcDbEntity
  8
0
100
AcDbPolyline
 62
9
  6
CONTINUOUS
 90
11
 70
0
 10
5.9840890074
 20
7.8600181271
 10
5.9541336894
 20
7.8899700697
 10
5.9226105854
 20
7.9249871628
 10
5.8893247594
 20
7.9646924176
 10
5.8539416328
 20
8.0091279651
 10
5.8162316075
 20
8.0583868796
 10
5.7759112935
 20
8.1127380947
 10
5.7327892526
 20
8.1723927314
 10
5.6865911702
 20
8.2377142282
 10
5.6370175873
 20
8.3091316764
 10
5.5837389545
 20
8.3871391852
  0
LWPOLYLINE
  5
769
100
AcDbEntity
  8
0
100
AcDbPolyline
 62
9
  6
CONTINUOUS
 90
12
 70
0
 10
6.7030646544
 20
7.1410437969
 10
6.729350592
 20
7.1145642892
 10
6.7597888467
 20
7.0867580498
 10
6.794179831
 20
7.0574285202
 10
6.8325766053
 20
7.0263084709
 10
6.8751750035
 20
6.993123079
 10
6.9219967814
 20
6.9577940111
 10
6.9733822777
 20
6.9200358731
 10
7.0295059483
 20
6.8797136128
 10
7.0907577919
 20
6.8365520019
 10
7.1575086217
 20
6.7903039821
 10
7.2301855654
 20
6.7406925774
  0
LINE
  5
76A
100
AcDbEntity
  8
0
100
AcDbLine
 62
9
  6
CONTINUOUS
 10
6.0846290664
 20
7.7423968332
 11
5.9840876983
 21
7.8600190969
  0
LINE
  5
76B
100
AcDbEntity
  8
0
100
AcDbLine
 62
9
  6
CONTINUOUS
 10
6.4996400038
 20
7.16273399
 11
6.5654339918
 21
7.0173737517
  0
LWPOLYLINE
  5
76C
100
AcDbEntity
  8
0
100
AcDbPolyline
 62
9
  6
CONTINUOUS
 90
11
 70
0
 10
6.5654091115
 20
7.899749913
 10
6.5767409735
 20
7.9406586757
 10
6.5918473887
 20
7.9836997455
 10
6.6103552151
 20
8.029235616
 10
6.6320895041
 20
8.0778676208
 10
6.6569600833
 20
8.1300250495
 10
6.6850023638
 20
8.1861747731
 10
6.7162741856
 20
8.2466769349
 10
6.7509023699
 20
8.3119315433
 10
6.7890744823
 20
8.3823865315
 10
6.8310370702
 20
8.458550661
  0
LWPOLYLINE
  5
76D
100
AcDbEntity
  8
0
100
AcDbPolyline
 62
9
  6
CONTINUOUS
 90
12
 70
0
 10
6.74277174
 20
7.722390559
 10
6.7789083266
 20
7.7321993748
 10
6.8168577538
 20
7.7450954836
 10
6.856947113
 20
7.7608431025
 10
6.8996129899
 20
7.7793188384
 10
6.9453386029
 20
7.8005218532
 10
6.9943538964
 20
7.8244106701
 10
7.0470589835
 20
7.8510768608
 10
7.1037527921
 20
7.8806029889
 10
7.1648007995
 20
7.9131340764
 10
7.2306074184
 20
7.9488581072
 10
7.3015969917
 20
7.9879915766
  0
LWPOLYLINE
  5
76E
100
AcDbEntity
  8
0
100
AcDbPolyline
 62
9
  6
CONTINUOUS
 90
11
 70
0
 10
5.8603977999
 20
7.7223627328
 10
5.8194890371
 20
7.7336945948
 10
5.7764479673
 20
7.7488010101
 10
5.7309120969
 20
7.7673088364
 10
5.682280092
 20
7.7890431254
 10
5.6301226633
 20
7.8139137046
 10
5.5739729397
 20
7.8419559852
 10
5.5134707779
 20
7.8732278069
 10
5.4482161696
 20
7.9078559912
 10
5.3777611814
 20
7.9460281036
 10
5.3015970518
 20
7.9879906916
  0
LWPOLYLINE
  5
76F
100
AcDbEntity
  8
0
100
AcDbPolyline
 62
9
  6
CONTINUOUS
 90
12
 70
0
 10
6.5654369377
 20
7.0173759728
 10
6.5752457534
 20
6.9812393863
 10
6.5881418622
 20
6.943289959
 10
6.6038894811
 20
6.9032005999
 10
6.622365217
 20
6.8605347229
 10
6.6435682319
 20
6.8148091099
 10
6.6674570487
 20
6.7657938164
 10
6.6941232395
 20
6.7130887293
 10
6.7236493675
 20
6.6563949207
 10
6.7561804551
 20
6.5953469133
 10
6.7919044857
 20
6.5295402948
 10
6.8310379445
 20
6.4585507409
  0
LWPOLYLINE
  5
770
100
AcDbEntity
  8
0
100
AcDbPolyline
 62
9
  6
CONTINUOUS
 90
9
 70
0
 10
6.5974136792
 20
7.2605076449
 10
6.6150371848
 20
7.3077171199
 10
6.6267008184
 20
7.3560252327
 10
6.6335649211
 20
7.4064612774
 10
6.6358571749
 20
7.4585456517
 10
6.6335654078
 20
7.5106345111
 10
6.6267018126
 20
7.5610707136
 10
6.615036757
 20
7.6093856489
 10
6.5974137228
 20
7.6565936252
  0
LWPOLYLINE
  5
771
100
AcDbEntity
  8
0
100
AcDbPolyline
 62
9
  6
CONTINUOUS
 90
3
 70
0
 10
6.5854438288
 20
7.2415829637
 10
6.5920453731
 20
7.250538754
 10
6.5974136792
 20
7.2605076449
  0
LWPOLYLINE
  5
772
100
AcDbEntity
  8
0
100
AcDbPolyline
 62
9
  6
CONTINUOUS
 90
3
 70
0
 10
6.5185647701
 20
7.1747038902
 10
6.5532936376
 20
7.2068352791
 10
6.5854438288
 20
7.2415829637
  0
LWPOLYLINE
  5
773
100
AcDbEntity
  8
0
100
AcDbPolyline
 62
9
  6
CONTINUOUS
 90
3
 70
0
 10
6.4996400038
 20
7.16273399
 10
6.5096081357
 20
7.1681018776
 10
6.5185647701
 20
7.1747038902
  0
LWPOLYLINE
  5
774
100
AcDbEntity
  8
0
100
AcDbPolyline
 62
9
  6
CONTINUOUS
 90
9
 70
0
 10
6.4996361323
 20
7.7543687891
 10
6.4524277268
 20
7.7719916711
 10
6.4041204925
 20
7.7836548096
 10
6.3536854157
 20
7.7905186332
 10
6.301602095
 20
7.7928107962
 10
6.2495142874
 20
7.7905191257
 10
6.19907905
 20
7.7836558155
 10
6.1507649902
 20
7.7719912615
 10
6.1035580914
 20
7.754368851
  0
LWPOLYLINE
  5
775
100
AcDbEntity
  8
0
100
AcDbPolyline
 62
9
  6
CONTINUOUS
 90
3
 70
0
 10
6.5185650077
 20
7.7423968501
 10
6.5096069848
 20
7.7489996478
 10
6.4996361323
 20
7.7543687891
  0
LWPOLYLINE
  5
776
100
AcDbEntity
  8
0
100
AcDbPolyline
 62
9
  6
CONTINUOUS
 90
3
 70
0
 10
6.5854438227
 20
7.6755183914
 10
6.553312645
 20
7.7102470476
 10
6.5185650077
 20
7.7423968501
  0
LWPOLYLINE
  5
777
100
AcDbEntity
  8
0
100
AcDbPolyline
 62
9
  6
CONTINUOUS
 90
3
 70
0
 10
6.5974137228
 20
7.6565936252
 10
6.5920458352
 20
7.666561757
 10
6.5854438227
 20
7.6755183914
  0
LWPOLYLINE
  5
778
100
AcDbEntity
  8
0
100
AcDbPolyline
 62
9
  6
CONTINUOUS
 90
9
 70
0
 10
6.7427755708
 20
7.194712766
 10
6.7823345499
 20
7.2572103349
 10
6.8097895894
 20
7.3219471609
 10
6.8262123714
 20
7.3893221013
 10
6.8317144539
 20
7.4585451257
 10
6.8262133739
 20
7.5277738447
 10
6.8097917024
 20
7.5951483918
 10
6.7823335207
 20
7.6598932338
 10
6.742775725
 20
7.7223884115
  0
LWPOLYLINE
  5
779
100
AcDbEntity
  8
0
100
AcDbPolyline
 62
9
  6
CONTINUOUS
 90
3
 70
0
 10
6.703064071
 20
7.1410437732
 10
6.7235290991
 20
7.1672465196
 10
6.7427740091
 20
7.1947134721
  0
LWPOLYLINE
  5
77A
100
AcDbEntity
  8
0
100
AcDbPolyline
 62
9
  6
CONTINUOUS
 90
3
 70
0
 10
6.6191056606
 20
7.0570818297
 10
6.6639964082
 20
7.0961303079
 10
6.7030659057
 20
7.1410422049
  0
LWPOLYLINE
  5
77B
100
AcDbEntity
  8
0
100
AcDbPolyline
 62
9
  6
CONTINUOUS
 90
3
 70
0
 10
6.5654339918
 20
7.0173737517
 10
6.5929153095
 20
7.0366241191
 10
6.6191043092
 20
7.0570834111
  0
LWPOLYLINE
  5
77C
100
AcDbEntity
  8
0
100
AcDbPolyline
 62
9
  6
CONTINUOUS
 90
9
 70
0
 10
6.5654294915
 20
7.899735886
 10
6.5029322006
 20
7.9392908806
 10
6.4381969576
 20
7.9667444009
 10
6.3708237791
 20
7.9831662866
 10
6.3016026482
 20
7.9886680752
 10
6.2323758199
 20
7.9831673082
 10
6.1650030306
 20
7.9667465518
 10
6.1002597661
 20
7.9392899087
 10
6.0377647988
 20
7.8997361146
  0
LWPOLYLINE
  5
77D
100
AcDbEntity
  8
0
100
AcDbPolyline
 62
9
  6
CONTINUOUS
 90
3
 70
0
 10
6.619104946
 20
7.8600175743
 10
6.5928972386
 20
7.8804872422
 10
6.5654296516
 20
7.8997362383
  0
LWPOLYLINE
  5
77E
100
AcDbEntity
  8
0
100
AcDbPolyline
 62
9
  6
CONTINUOUS
 90
3
 70
0
 10
6.7030658831
 20
7.776059282
 10
6.6640177038
 20
7.8209497307
 10
6.6191062775
 20
7.860019132
  0
LWPOLYLINE
  5
77F
100
AcDbEntity
  8
0
100
AcDbPolyline
 62
9
  6
CONTINUOUS
 90
3
 70
0
 10
6.7427739611
 20
7.7223876131
 10
6.7235235938
 20
7.7498689308
 10
6.7030643018
 20
7.7760579305
  0
LINE
  5
780
100
AcDbEntity
  8
DEFAULT_1
100
AcDbLine
 62
7
  6
CENTER
 10
7.3015970457
 20
8.4585506671
 11
7.3015970457
 21
8.2985405502
  0
LINE
  5
781
100
AcDbEntity
  8
DEFAULT_1
100
AcDbLine
 62
7
  6
CENTER
 10
7.3015970457
 20
6.4585506671
 11
7.3015970457
 21
6.3179042757
  0
LINE
  5
782
100
AcDbEntity
  8
DEFAULT_1
100
AcDbLine
 62
7
  6
CENTER
 10
7.3015970457
 20
6.4585506671
 11
7.3015970457
 21
6.5991970584
  0
LINE
  5
783
100
AcDbEntity
  8
0
100
AcDbLine
 62
7
  6
CONTINUOUS
 10
7.3015970457
 20
6.9291106726
 11
7.3015970457
 21
7.9879906567
  0
LINE
  5
784
100
AcDbEntity
  8
DEFAULT_1
100
AcDbLine
 62
7
  6
CENTER
 10
7.3015970457
 20
8.4585506671
 11
7.3015970457
 21
8.6185607839
  0
LWPOLYLINE
  5
785
100
AcDbEntity
  8
0
100
AcDbPolyline
 62
7
  6
CONTINUOUS
 90
5
 70
0
 10
7.3015970457
 20
6.9291106726
 10
7.2968173967
 20
6.8718546022
 10
7.28231556
 20
6.8200279994
 10
7.2592717718
 20
6.7760474368
 10
7.2301855647
 20
6.7406925766
  0
LINE
  5
786
100
AcDbEntity
  8
DEFAULT_1
100
AcDbLine
 62
7
  6
CENTER
 10
7.3015970457
 20
8.4585506671
 11
7.1415869289
 21
8.4585506671
  0
LINE
  5
787
100
AcDbEntity
  8
0
100
AcDbLine
 62
7
  6
CONTINUOUS
 10
6.8310371048
 20
8.4585506671
 11
5.7721569953
 21
8.4585506671
  0
LINE
  5
788
100
AcDbEntity
  8
DEFAULT_1
100
AcDbLine
 62
7
  6
CENTER
 10
5.3015970457
 20
8.4585506671
 11
5.1594035776
 21
8.4585506671
  0
LINE
  5
789
100
AcDbEntity
  8
DEFAULT_1
100
AcDbLine
 62
7
  6
CENTER
 10
5.3015970457
 20
8.4585506671
 11
5.4437905139
 21
8.4585506671
  0
LINE
  5
78A
100
AcDbEntity
  8
DEFAULT_1
100
AcDbLine
 62
7
  6
CENTER
 10
7.3015970457
 20
8.4585506671
 11
7.4616071626
 21
8.4585506671
  0
LWPOLYLINE
  5
78B
100
AcDbEntity
  8
0
100
AcDbPolyline
 62
7
  6
CONTINUOUS
 90
6
 70
0
 10
6.8310371048
 20
8.4585506671
 10
6.8721979169
 20
8.4561516435
 10
6.9128748684
 20
8.4483091492
 10
6.9517359559
 20
8.4343058527
 10
6.9878787363
 20
8.4136424246
 10
7.0194551371
 20
8.3871391852
  0
LINE
  5
78C
100
AcDbEntity
  8
0
100
AcDbLine
 62
7
  6
CONTINUOUS
 10
7.0194551368
 20
6.5299621488
 11
7.2301855647
 21
6.7406925766
  0
LWPOLYLINE
  5
78D
100
AcDbEntity
  8
0
100
AcDbPolyline
 62
7
  6
CONTINUOUS
 90
5
 70
0
 10
7.0194551368
 20
6.5299621488
 10
6.9840859596
 20
6.5008663626
 10
6.9401082902
 20
6.4778276214
 10
6.8882879969
 20
6.4633294176
 10
6.8310370354
 20
6.4585506671
  0
LINE
  5
78E
100
AcDbEntity
  8
0
100
AcDbLine
 62
7
  6
CONTINUOUS
 10
7.2301855641
 20
8.1764087582
 11
7.0194551371
 21
8.3871391852
  0
LWPOLYLINE
  5
78F
100
AcDbEntity
  8
0
100
AcDbPolyline
 62
7
  6
CONTINUOUS
 90
6
 70
0
 10
7.2301855641
 20
8.1764087582
 10
7.2566889431
 20
8.1448321574
 10
7.2773498112
 20
8.108694852
 10
7.2913552693
 20
8.0698294463
 10
7.2991989337
 20
8.0291440282
 10
7.3015970457
 20
7.9879906567
  0
LINE
  5
790
100
AcDbEntity
  8
0
100
AcDbLine
 62
7
  6
CONTINUOUS
 10
7.5515970457
 20
6.4585506671
 11
7.5515970457
 21
8.4585506671
  0
LINE
  5
791
100
AcDbEntity
  8
0
100
AcDbLine
 62
7
  6
CONTINUOUS
 10
7.3015970457
 20
8.7085506671
 11
5.3015970457
 21
8.7085506671
  0
CIRCLE
  5
792
100
AcDbEntity
  8
0
100
AcDbCircle
 62
7
  6
CONTINUOUS
 10
10.5342808475
 20
1.243294839
 40
0.252091
  0
CIRCLE
  5
793
100
AcDbEntity
  8
0
100
AcDbCircle
 62
7
  6
CONTINUOUS
 10
10.5342808475
 20
1.243294839
 40
0.182698
  0
ARC
  5
794
100
AcDbEntity
  8
0
100
AcDbCircle
 62
7
  6
CONTINUOUS
 10
5.9673369166
 20
2.7725262206
 40
0.5
100
AcDbArc
 50
89.9999999997
 51
113.061200282
  0
ARC
  5
795
100
AcDbEntity
  8
0
100
AcDbCircle
 62
7
  6
CONTINUOUS
 10
6.6358571749
 20
2.7725262206
 40
0.5
100
AcDbArc
 50
66.9387997177
 51
90.0000000004
  0
ARC
  5
796
100
AcDbEntity
  8
0
100
AcDbCircle
 62
7
  6
CONTINUOUS
 10
5.3015970457
 20
8.4585506671
 40
0.25
100
AcDbArc
 50
90.0
 51
180.0
  0
ARC
  5
797
100
AcDbEntity
  8
0
100
AcDbCircle
 62
7
  6
CONTINUOUS
 10
7.3015970457
 20
8.4585506671
 40
0.25
100
AcDbArc
 50
0.0
 51
90.0
  0
ARC
  5
798
100
AcDbEntity
  8
0
100
AcDbCircle
 62
7
  6
CONTINUOUS
 10
7.3015970457
 20
6.4585506671
 40
0.25
100
AcDbArc
 50
270.0
 51
360.0
  0
ARC
  5
799
100
AcDbEntity
  8
0
100
AcDbCircle
 62
7
  6
CONTINUOUS
 10
5.3015970457
 20
6.4585506671
 40
0.25
100
AcDbArc
 50
180.0
 51
270.0
  0
ARC
  5
79A
100
AcDbEntity
  8
0
100
AcDbCircle
 62
7
  6
CONTINUOUS
 10
6.3015970457
 20
7.4585506671
 40
0.125
100
AcDbArc
 50
263.5845313056
 51
260.5180417168
  0
ARC
  5
79B
100
AcDbEntity
  8
0
100
AcDbCircle
 62
7
  6
CONTINUOUS
 10
6.3015970457
 20
7.4585506671
 40
0.115
100
AcDbArc
 50
290.7179676974
 51
89.8000740196
  0
CIRCLE
  5
79C
100
AcDbEntity
  8
0
100
AcDbCircle
 62
7
  6
CONTINUOUS
 10
7.3015970457
 20
8.4585506671
 40
0.109
  0
CIRCLE
  5
79D
100
AcDbEntity
  8
0
100
AcDbCircle
 62
7
  6
CONTINUOUS
 10
5.3015970457
 20
8.4585506671
 40
0.109
  0
CIRCLE
  5
79E
100
AcDbEntity
  8
0
100
AcDbCircle
 62
7
  6
CONTINUOUS
 10
5.3015970457
 20
6.4585506671
 40
0.109
  0
CIRCLE
  5
79F
100
AcDbEntity
  8
0
100
AcDbCircle
 62
7
  6
CONTINUOUS
 10
7.3015970457
 20
6.4585506671
 40
0.109
  0
ENDSEC
  0
SECTION
  2
OBJECTS
  0
DICTIONARY
  5
C
100
AcDbDictionary
280
0
281
1
  3
ACAD_GROUP
350
D
  3
ACAD_MLINESTYLE
350
17
  3
ACAD_LAYOUT
350
1A
  3
ACAD_PLOTSETTINGS
350
19
  3
ACAD_PLOTSTYLENAME
350
E
  0
DICTIONARY
  5
D
102
{ACAD_REACTORS
330
C
102
}
100
AcDbDictionary
280
0
281
1
  0
ACDBDICTIONARYWDFLT
  5
E
102
{ACAD_REACTORS
330
C
102
}
100
AcDbDictionary
281
1
  3
Normal
350
F
100
AcDbDictionaryWithDefault
340
F
  0
DICTIONARY
  5
17
102
{ACAD_REACTORS
330
C
102
}
100
AcDbDictionary
280
0
281
1
  3
Standard
350
18
  0
DICTIONARY
  5
19
102
{ACAD_REACTORS
330
C
102
}
100
AcDbDictionary
281
1
  0
DICTIONARY
  5
1A
102
{ACAD_REACTORS
330
C
102
}
100
AcDbDictionary
281
1
  3
Model
350
7A0
  3
Layout1
350
7A1
  0
ACDBPLACEHOLDER
  5
F
102
{ACAD_REACTORS
330
E
102
}
  0
MLINESTYLE
  5
18
102
{ACAD_REACTORS
330
17
102
}
100
AcDbMlineStyle
  2
STANDARD
 70
0
  3

 62
256
 51
90.0
 52
90.0
 71
2
 49
0.5
 62
256
  6
BYLAYER
 49
-0.5
 62
256
  6
BYLAYER
  0
LAYOUT
  5
7A0
102
{ACAD_REACTORS
330
1A
102
}
100
AcDbPlotSettings
  1

  2
none_device
  4
ANSI_B_(17.00_x_11.00_Inches)
  6

 40
0.0
 41
0.0
 42
0.0
 43
0.0
 44
431.8
 45
279.4
 46
0.0
 47
0.0
 48
0.0
 49
0.0
140
0.0
141
0.0
142
1.0
143
1.0
 70
1024
 72
0
 73
0
 74
0
  7

 75
0
147
1.0
148
0.0
149
0.0
100
AcDbLayout
  1
Model
 70
0
 71
0
 10
0.0
 20
0.0
 11
17.0
 21
11.0
 12
0.0
 22
0.0
 32
0.0
 14
0.0
 24
0.0
 34
0.0
 15
0.0
 25
0.0
 35
0.0
146
0.0
 13
0.0
 23
0.0
 33
0.0
 16
1.0
 26
0.0
 36
0.0
 17
0.0
 27
1.0
 37
0.0
 76
0
330
210
345
0
346
0
  0
LAYOUT
  5
7A1
102
{ACAD_REACTORS
330
1A
102
}
100
AcDbPlotSettings
  1

  2
none_device
  4
ANSI_B_(17.00_x_11.00_Inches)
  6

 40
0.0
 41
0.0
 42
0.0
 43
0.0
 44
431.8
 45
279.4
 46
0.0
 47
0.0
 48
0.0
 49
0.0
140
0.0
141
0.0
142
1.0
143
1.0
 70
0
 72
0
 73
0
 74
0
  7

 75
0
147
1.0
148
0.0
149
0.0
100
AcDbLayout
  1
Layout1
 70
0
 71
1
 10
0.0
 20
0.0
 11
17.0
 21
11.0
 12
0.0
 22
0.0
 32
0.0
 14
0.0
 24
0.0
 34
0.0
 15
0.0
 25
0.0
 35
0.0
146
0.0
 13
0.0
 23
0.0
 33
0.0
 16
1.0
 26
0.0
 36
0.0
 17
0.0
 27
1.0
 37
0.0
 76
0
330
211
345
0
346
0
  0
ENDSEC
  0
EOF
