999
DXF file: 155378_1.dxf
999
Pro/ENGINEER 2009141 by Parametric Technology Corporation
  0
SECTION
  2
HEADER
  9
$ACADVER
  1
AC1015
  9
$DWGCODEPAGE
  3
ANSI_1252
  9
$EXTMAX
 10
17.0
 20
11.0
 30
0.0
  9
$EXTMIN
 10
0.0
 20
0.0
 30
0.0
  9
$LIMMIN
 10
0.0
 20
0.0
  9
$LIMMAX
 10
17.0
 20
11.0
  9
$VIEWCTR
 10
8.5
 20
5.5
  9
$VIEWSIZE
 40
11.0
  9
$CLAYER
  8
0
  9
$LTSCALE
 40
0.935
  9
$CELTYPE
  6
BYLAYER
  9
$DIMSCALE
 40
1.0
  9
$DIMASZ
 40
0.1875
  9
$DIMEXO
 40
0.10625
  9
$DIMDLI
 40
0.646
  9
$DIMEXE
 40
0.306
  9
$DIMCEN
 40
0.153
  9
$DIMLFAC
 40
1.0
  9
$DIMBLK
  1
_FILLED
  9
$DIMTXT
 40
0.1
  9
$DIMTOL
 70
1
  9
$DIMLIM
 70
0
  9
$DIMTFAC
 40
1.0
  9
$DIMTP
 40
0.005
  9
$DIMTM
 40
0.005
  9
$PDMODE
 70
3
  9
$PDSIZE
 40
0.3125
  9
$HANDSEED
  5
5E4
  9
$TILEMODE
 70
1
  9
$MEASUREMENT
 70
0
  9
$INSUNITS
 70
1
  0
ENDSEC
  0
SECTION
  2
CLASSES
  0
CLASS
  1
ACDBDICTIONARYWDFLT
  2
AcDbDictionaryWithDefault
  3
AutoCAD 2000
 90
0
280
0
281
0
  0
CLASS
  1
ACDBPLACEHOLDER
  2
AcDbPlaceHolder
  3
AutoCAD 2000
 90
0
280
0
281
0
  0
CLASS
  1
LAYOUT
  2
AcDbLayout
  3
AutoCAD 2000
 90
0
280
0
281
0
  0
ENDSEC
  0
SECTION
  2
TABLES
  0
TABLE
  2
VPORT
  5
8
100
AcDbSymbolTable
 70
2
  0
VPORT
  5
1F4
100
AcDbSymbolTableRecord
100
AcDbViewportTableRecord
  2
*ACTIVE
 70
0
 10
0.0
 20
0.0
 11
1.0
 21
1.0
 12
8.5
 22
5.5
 13
0.0
 23
0.0
 14
1.0
 24
1.0
 15
0.0
 25
0.0
 16
0.0
 26
0.0
 36
1.0
 17
0.0
 27
0.0
 37
0.0
 40
11.0
 41
1.5454545455
 42
50.0
 43
0.0
 44
0.0
 50
0.0
 51
0.0
 71
0
 72
100
 73
1
 74
1
 75
0
 76
0
 77
0
 78
0
  0
ENDTAB
  0
TABLE
  2
LTYPE
  5
5
100
AcDbSymbolTable
 70
6
  0
LTYPE
  5
14
100
AcDbSymbolTableRecord
100
AcDbLinetypeTableRecord
  2
BYBLOCK
 70
0
  3

 72
65
 73
0
 40
0.0
  0
LTYPE
  5
15
100
AcDbSymbolTableRecord
100
AcDbLinetypeTableRecord
  2
BYLAYER
 70
0
  3

 72
65
 73
0
 40
0.0
  0
LTYPE
  5
16
100
AcDbSymbolTableRecord
100
AcDbLinetypeTableRecord
  2
CONTINUOUS
 70
64
  3
Solid line
 72
65
 73
0
 40
0.0
  0
LTYPE
  5
1F5
100
AcDbSymbolTableRecord
100
AcDbLinetypeTableRecord
  2
CENTER
 70
64
  3
____ _ ____ _ ____ _ ____ _ ____ _ ____ _ ____
 72
65
 73
4
 40
0.6
 49
0.375
 74
0
 49
-0.075
 74
0
 49
0.075
 74
0
 49
-0.075
 74
0
  0
LTYPE
  5
1F6
100
AcDbSymbolTableRecord
100
AcDbLinetypeTableRecord
  2
HIDDEN
 70
64
  3
- - - - - - - - - - - - - - - - - - - -
 72
65
 73
2
 40
0.2
 49
0.1
 74
0
 49
-0.1
 74
0
  0
LTYPE
  5
1F7
100
AcDbSymbolTableRecord
100
AcDbLinetypeTableRecord
  2
PHANTOM
 70
64
  3
_____ _ _ _____ _ _ _____ _ _ _____
 72
65
 73
6
 40
0.8
 49
0.45
 74
0
 49
-0.05
 74
0
 49
0.1
 74
0
 49
-0.05
 74
0
 49
0.1
 74
0
 49
-0.05
 74
0
  0
LTYPE
  5
1F8
100
AcDbSymbolTableRecord
100
AcDbLinetypeTableRecord
  2
DOT
 70
64
  3
. . . . . . . . . . . . . . . . . . . .
 72
65
 73
2
 40
0.2
 49
0.1
 74
0
 49
-0.1
 74
0
  0
LTYPE
  5
1F9
100
AcDbSymbolTableRecord
100
AcDbLinetypeTableRecord
  2
DASHED
 70
64
  3
- - - - - - - - - - - - - - - - - - - -
 72
65
 73
2
 40
0.2
 49
0.1
 74
0
 49
-0.1
 74
0
  0
ENDTAB
  0
TABLE
  2
LAYER
  5
2
100
AcDbSymbolTable
 70
36
  0
LAYER
  5
10
100
AcDbSymbolTableRecord
100
AcDbLayerTableRecord
  2
0
 70
0
 62
7
  6
CONTINUOUS
370
-3
390
F
  0
LAYER
  5
1FA
100
AcDbSymbolTableRecord
100
AcDbLayerTableRecord
  2
DEFAULT_1
 70
0
 62
7
  6
CENTER
370
-3
390
F
  0
LAYER
  5
1FB
100
AcDbSymbolTableRecord
100
AcDbLayerTableRecord
  2
DEFAULT_2
 70
0
 62
8
  6
HIDDEN
370
-3
390
F
  0
LAYER
  5
1FC
100
AcDbSymbolTableRecord
100
AcDbLayerTableRecord
  2
DEFAULT_3
 70
0
 62
7
  6
PHANTOM
370
-3
390
F
  0
LAYER
  5
1FD
100
AcDbSymbolTableRecord
100
AcDbLayerTableRecord
  2
AXIS
 70
0
 62
7
  6
CONTINUOUS
370
-3
390
F
  0
LAYER
  5
1FE
100
AcDbSymbolTableRecord
100
AcDbLayerTableRecord
  2
CONSTRUCTION
 70
0
 62
7
  6
CONTINUOUS
370
-3
390
F
  0
LAYER
  5
1FF
100
AcDbSymbolTableRecord
100
AcDbLayerTableRecord
  2
COSMETIC_THREADS
 70
0
 62
7
  6
CONTINUOUS
370
-3
390
F
  0
LAYER
  5
200
100
AcDbSymbolTableRecord
100
AcDbLayerTableRecord
  2
DATUM_PLANES
 70
0
 62
7
  6
CONTINUOUS
370
-3
390
F
  0
LAYER
  5
201
100
AcDbSymbolTableRecord
100
AcDbLayerTableRecord
  2
DRIVEN_DIMS
 70
0
 62
7
  6
CONTINUOUS
370
-3
390
F
  0
LAYER
  5
202
100
AcDbSymbolTableRecord
100
AcDbLayerTableRecord
  2
NOTES
 70
0
 62
7
  6
CONTINUOUS
370
-3
390
F
  0
LAYER
  5
203
100
AcDbSymbolTableRecord
100
AcDbLayerTableRecord
  2
QUILTS
 70
0
 62
7
  6
CONTINUOUS
370
-3
390
F
  0
LAYER
  5
204
100
AcDbSymbolTableRecord
100
AcDbLayerTableRecord
  2
SCHEME_DIMS
 70
0
 62
7
  6
CONTINUOUS
370
-3
390
F
  0
LAYER
  5
205
100
AcDbSymbolTableRecord
100
AcDbLayerTableRecord
  2
SYMBOLS
 70
0
 62
7
  6
CONTINUOUS
370
-3
390
F
  0
ENDTAB
  0
TABLE
  2
STYLE
  5
3
100
AcDbSymbolTable
 70
1
  0
STYLE
  5
11
100
AcDbSymbolTableRecord
100
AcDbTextStyleTableRecord
  2
STANDARD
 70
0
 40
0.0
 41
1.0
 50
0.0
 71
0
 42
0.2
  3
txt
  4

  0
STYLE
  5
206
100
AcDbSymbolTableRecord
100
AcDbTextStyleTableRecord
  2
TEXTSTYLE_1
 70
0
 40
0.0
 41
0.8
 50
0.0
 71
0
 42
0.2
  3
gdt
  4

  0
STYLE
  5
207
100
AcDbSymbolTableRecord
100
AcDbTextStyleTableRecord
  2
TEXTSTYLE_2
 70
0
 40
0.0
 41
0.8
 50
0.0
 71
0
 42
0.2
  3
txt
  4

  0
STYLE
  5
208
100
AcDbSymbolTableRecord
100
AcDbTextStyleTableRecord
  2
TEXTSTYLE_3
 70
0
 40
0.0
 41
0.85
 50
0.0
 71
0
 42
0.2
  3
txt
  4

  0
STYLE
  5
209
100
AcDbSymbolTableRecord
100
AcDbTextStyleTableRecord
  2
TEXTSTYLE_4
 70
0
 40
0.0
 41
0.92
 50
0.0
 71
0
 42
0.2
  3
txt
  4

  0
STYLE
  5
20A
100
AcDbSymbolTableRecord
100
AcDbTextStyleTableRecord
  2
TEXTSTYLE_5
 70
0
 40
0.0
 41
1.0
 50
0.0
 71
0
 42
0.2
  3
gdt
  4

  0
ENDTAB
  0
TABLE
  2
VIEW
  5
6
100
AcDbSymbolTable
 70
0
  0
ENDTAB
  0
TABLE
  2
UCS
  5
7
100
AcDbSymbolTable
 70
0
  0
ENDTAB
  0
TABLE
  2
APPID
  5
9
100
AcDbSymbolTable
 70
1
  0
APPID
  5
20B
100
AcDbSymbolTableRecord
100
AcDbRegAppTableRecord
  2
ACAD
 70
0
  0
ENDTAB
  0
TABLE
  2
BLOCK_RECORD
  5
1
100
AcDbSymbolTable
 70
0
  0
BLOCK_RECORD
  5
20C
100
AcDbSymbolTableRecord
100
AcDbBlockTableRecord
  2
*Model_Space
  0
BLOCK_RECORD
  5
20D
100
AcDbSymbolTableRecord
100
AcDbBlockTableRecord
  2
*Paper_Space
  0
BLOCK_RECORD
  5
20E
100
AcDbSymbolTableRecord
100
AcDbBlockTableRecord
  2
_FILLED
  0
BLOCK_RECORD
  5
20F
100
AcDbSymbolTableRecord
100
AcDbBlockTableRecord
  2
*D0
  0
BLOCK_RECORD
  5
210
100
AcDbSymbolTableRecord
100
AcDbBlockTableRecord
  2
*D1
  0
BLOCK_RECORD
  5
211
100
AcDbSymbolTableRecord
100
AcDbBlockTableRecord
  2
*D2
  0
BLOCK_RECORD
  5
212
100
AcDbSymbolTableRecord
100
AcDbBlockTableRecord
  2
*D3
  0
BLOCK_RECORD
  5
213
100
AcDbSymbolTableRecord
100
AcDbBlockTableRecord
  2
*D4
  0
BLOCK_RECORD
  5
214
100
AcDbSymbolTableRecord
100
AcDbBlockTableRecord
  2
*D5
  0
BLOCK_RECORD
  5
215
100
AcDbSymbolTableRecord
100
AcDbBlockTableRecord
  2
*D6
  0
BLOCK_RECORD
  5
216
100
AcDbSymbolTableRecord
100
AcDbBlockTableRecord
  2
*D7
  0
BLOCK_RECORD
  5
217
100
AcDbSymbolTableRecord
100
AcDbBlockTableRecord
  2
*D8
  0
BLOCK_RECORD
  5
218
100
AcDbSymbolTableRecord
100
AcDbBlockTableRecord
  2
*D9
  0
BLOCK_RECORD
  5
219
100
AcDbSymbolTableRecord
100
AcDbBlockTableRecord
  2
*D10
  0
BLOCK_RECORD
  5
21A
100
AcDbSymbolTableRecord
100
AcDbBlockTableRecord
  2
*D11
  0
BLOCK_RECORD
  5
21B
100
AcDbSymbolTableRecord
100
AcDbBlockTableRecord
  2
*D12
  0
BLOCK_RECORD
  5
21C
100
AcDbSymbolTableRecord
100
AcDbBlockTableRecord
  2
*D13
  0
BLOCK_RECORD
  5
21D
100
AcDbSymbolTableRecord
100
AcDbBlockTableRecord
  2
*D14
  0
BLOCK_RECORD
  5
21E
100
AcDbSymbolTableRecord
100
AcDbBlockTableRecord
  2
*D15
  0
BLOCK_RECORD
  5
21F
100
AcDbSymbolTableRecord
100
AcDbBlockTableRecord
  2
BANNER_LOGO_TITLEBLOCK_BL0
  0
ENDTAB
  0
TABLE
  2
DIMSTYLE
  5
A
100
AcDbSymbolTable
 70
1
100
AcDbDimStyleTable
 71
0
  0
DIMSTYLE
105
220
100
AcDbSymbolTableRecord
100
AcDbDimStyleTableRecord
  2
STANDARD
 70
0
  3

  4

 40
1.0
 41
0.1875
 42
0.0625
 43
0.38
 44
0.18
 45
0.0
 46
0.0
 47
0.005
 48
0.005
140
0.1
141
0.09
142
0.0
143
25.4
144
1.0
145
0.0
146
1.0
147
0.09
 71
1.0
 72
0.0
 73
1
 74
1
 75
0
 76
0
 77
0
 78
4
170
0
171
2
172
0
173
0
174
0
175
0
176
0
177
0
178
0
270
2
271
3
272
3
273
2
274
2
275
0
280
0
281
0
282
0
283
1
284
4
285
0
286
0
287
3
288
0
340
11
341
20E
342
20E
343
20E
344
20E
  0
DIMSTYLE
105
221
100
AcDbSymbolTableRecord
100
AcDbDimStyleTableRecord
  2
DIMSTYLE_1
 70
0
  3

  4

 40
1.0
 41
0.1875
 42
0.0625
 43
0.38
 44
0.18
 45
0.0
 46
0.0
 47
0.1
 48
0.1
140
0.1
141
0.09
142
0.0
143
25.4
144
1.0
145
0.0
146
1.0
147
0.09
 71
0.0
 72
0.0
 73
1
 74
1
 75
0
 76
0
 77
0
 78
4
170
0
171
2
172
0
173
0
174
0
175
0
176
0
177
0
178
0
270
2
271
1
272
1
273
2
274
2
275
0
280
0
281
0
282
0
283
1
284
4
285
0
286
0
287
3
288
0
340
11
341
20E
342
20E
343
20E
344
20E
  0
DIMSTYLE
105
222
100
AcDbSymbolTableRecord
100
AcDbDimStyleTableRecord
  2
DIMSTYLE_2
 70
0
  3

  4

 40
1.0
 41
0.1875
 42
0.0625
 43
0.38
 44
0.18
 45
0.0
 46
0.0
 47
0.1
 48
0.1
140
0.1
141
0.09
142
0.0
143
25.4
144
1.0
145
0.0
146
1.0
147
0.09
 71
0.0
 72
0.0
 73
1
 74
1
 75
0
 76
0
 77
0
 78
4
170
0
171
2
172
0
173
0
174
0
175
0
176
0
177
0
178
0
270
2
271
1
272
1
273
2
274
2
275
0
280
0
281
0
282
0
283
1
284
4
285
0
286
0
287
3
288
0
340
11
341
20E
342
20E
343
20E
344
20E
  0
DIMSTYLE
105
223
100
AcDbSymbolTableRecord
100
AcDbDimStyleTableRecord
  2
DIMSTYLE_3
 70
0
  3

  4

 40
1.0
 41
0.1875
 42
0.0625
 43
0.38
 44
0.18
 45
0.0
 46
0.0
 47
0.1
 48
0.1
140
0.1
141
0.09
142
0.0
143
25.4
144
1.0
145
0.0
146
1.0
147
0.09
 71
0.0
 72
0.0
 73
1
 74
1
 75
0
 76
0
 77
0
 78
4
170
0
171
2
172
0
173
0
174
0
175
0
176
0
177
0
178
0
270
2
271
1
272
1
273
2
274
2
275
0
280
0
281
0
282
0
283
1
284
4
285
0
286
0
287
3
288
0
340
11
341
20E
342
20E
343
20E
344
20E
  0
DIMSTYLE
105
224
100
AcDbSymbolTableRecord
100
AcDbDimStyleTableRecord
  2
DIMSTYLE_4
 70
0
  3

  4

 40
1.0
 41
0.1875
 42
0.0625
 43
0.38
 44
0.18
 45
0.0
 46
0.0
 47
0.003
 48
0.003
140
0.1
141
0.09
142
0.0
143
25.4
144
1.0
145
0.0
146
1.0
147
0.09
 71
0.0
 72
0.0
 73
1
 74
1
 75
0
 76
0
 77
0
 78
4
170
0
171
2
172
0
173
0
174
0
175
0
176
0
177
0
178
0
270
2
271
3
272
3
273
2
274
2
275
0
280
0
281
0
282
0
283
1
284
4
285
0
286
0
287
3
288
0
340
11
341
20E
342
20E
343
20E
344
20E
  0
ENDTAB
  0
ENDSEC
  0
SECTION
  2
BLOCKS
  0
BLOCK
  5
20
100
AcDbEntity
  8
0
100
AcDbBlockBegin
  2
*Model_Space
 70
0
 10
0.0
 20
0.0
 30
0.0
  3
*Model_Space
  1

  0
ENDBLK
  5
21
100
AcDbEntity
  8
0
100
AcDbBlockEnd
  0
BLOCK
  5
1C
100
AcDbEntity
  8
0
100
AcDbBlockBegin
  2
*Paper_Space
 70
0
 10
0.0
 20
0.0
 30
0.0
  3
*Paper_Space
  1

  0
ENDBLK
  5
1D
100
AcDbEntity
  8
0
100
AcDbBlockEnd
  0
BLOCK
  5
225
100
AcDbEntity
  8
0
100
AcDbBlockBegin
 62
2
  6
CONTINUOUS
  2
BANNER_LOGO_TITLEBLOCK_BL0
 70
64
 10
12.9086867042
 20
2.5403783405
  3
BANNER_LOGO_TITLEBLOCK_BL0
  1

  0
ELLIPSE
  5
226
100
AcDbEntity
  8
0
100
AcDbEllipse
 62
2
  6
CONTINUOUS
 10
12.9046654608
 20
2.5403783405
 30
0.0
 11
-0.8250004575
 21
0.0
 31
0.0
 40
0.218572
 41
0.0
 42
6.2831853072
  0
ARC
  5
227
100
AcDbEntity
  8
0
100
AcDbCircle
 62
2
  6
CONTINUOUS
 10
12.400005721
 20
2.5168763464
 40
0.0153945295
100
AcDbArc
 50
354.0454548824
 51
5.1878013979
  0
ARC
  5
228
100
AcDbEntity
  8
0
100
AcDbCircle
 62
2
  6
CONTINUOUS
 10
12.3931760319
 20
2.5166878286
 40
0.0222174455
100
AcDbArc
 50
4.0793399388
 51
69.834329283
  0
LINE
  5
229
100
AcDbEntity
  8
0
100
AcDbLine
 62
2
  6
CONTINUOUS
 10
12.4008351814
 20
2.5375433389
 11
12.3907841758
 21
2.5410923409
  0
LINE
  5
22A
100
AcDbEntity
  8
0
100
AcDbLine
 62
2
  6
CONTINUOUS
 10
12.3907841758
 20
2.5410923409
 11
12.3990241804
 21
2.5458683435
  0
ARC
  5
22B
100
AcDbEntity
  8
0
100
AcDbCircle
 62
2
  6
CONTINUOUS
 10
12.3771587979
 20
2.5826952352
 40
0.0428289026
100
AcDbArc
 50
300.6990502959
 51
319.0591802498
  0
ARC
  5
22C
100
AcDbEntity
  8
0
100
AcDbCircle
 62
2
  6
CONTINUOUS
 10
12.3971873948
 20
2.5665668817
 40
0.0171568255
100
AcDbArc
 50
315.9145124245
 51
16.0049121282
  0
ARC
  5
22D
100
AcDbEntity
  8
0
100
AcDbCircle
 62
2
  6
CONTINUOUS
 10
12.3922357827
 20
2.5632132173
 40
0.0229166529
100
AcDbArc
 50
20.6563876465
 51
62.3316896973
  0
ARC
  5
22E
100
AcDbEntity
  8
0
100
AcDbCircle
 62
2
  6
CONTINUOUS
 10
12.371573659
 20
2.5302846524
 40
0.061747717
100
AcDbArc
 50
59.5385584989
 51
90.0050977555
  0
LINE
  5
22F
100
AcDbEntity
  8
0
100
AcDbLine
 62
2
  6
CONTINUOUS
 10
12.3715681652
 20
2.5920323691
 11
12.2055050731
 21
2.5920323691
  0
ARC
  5
230
100
AcDbEntity
  8
0
100
AcDbCircle
 62
2
  6
CONTINUOUS
 10
12.2055050712
 20
2.5895573696
 40
0.0024749995
100
AcDbArc
 50
89.9999571957
 51
180.0000428043
  0
LINE
  5
231
100
AcDbEntity
  8
0
100
AcDbLine
 62
2
  6
CONTINUOUS
 10
12.2030300717
 20
2.5895573678
 11
12.2030300717
 21
2.5697573568
  0
ARC
  5
232
100
AcDbEntity
  8
0
100
AcDbCircle
 62
2
  6
CONTINUOUS
 10
12.2055050712
 20
2.5697573549
 40
0.0024749995
100
AcDbArc
 50
179.9999571957
 51
270.0000428043
  0
LINE
  5
233
100
AcDbEntity
  8
0
100
AcDbLine
 62
2
  6
CONTINUOUS
 10
12.2055050731
 20
2.5672823554
 11
12.2294470864
 21
2.5672823554
  0
ARC
  5
234
100
AcDbEntity
  8
0
100
AcDbCircle
 62
2
  6
CONTINUOUS
 10
12.2294470882
 20
2.5648073559
 40
0.0024749995
100
AcDbArc
 50
359.9999571957
 51
90.0000428043
  0
LINE
  5
235
100
AcDbEntity
  8
0
100
AcDbLine
 62
2
  6
CONTINUOUS
 10
12.2319220877
 20
2.564807354
 11
12.2319220877
 21
2.5184523283
  0
ARC
  5
236
100
AcDbEntity
  8
0
100
AcDbCircle
 62
2
  6
CONTINUOUS
 10
12.2294470882
 20
2.5184523265
 40
0.0024749995
100
AcDbArc
 50
269.9999571957
 51
0.0000428043
  0
LINE
  5
237
100
AcDbEntity
  8
0
100
AcDbLine
 62
2
  6
CONTINUOUS
 10
12.2294470864
 20
2.515977327
 11
12.2055050731
 21
2.515977327
  0
ARC
  5
238
100
AcDbEntity
  8
0
100
AcDbCircle
 62
2
  6
CONTINUOUS
 10
12.2055050712
 20
2.5135023274
 40
0.0024749995
100
AcDbArc
 50
89.9999571957
 51
180.0000428043
  0
LINE
  5
239
100
AcDbEntity
  8
0
100
AcDbLine
 62
2
  6
CONTINUOUS
 10
12.2030300717
 20
2.5135023256
 11
12.2030300717
 21
2.4937023146
  0
ARC
  5
23A
100
AcDbEntity
  8
0
100
AcDbCircle
 62
2
  6
CONTINUOUS
 10
12.2055050712
 20
2.4937023128
 40
0.0024749995
100
AcDbArc
 50
179.9999571957
 51
270.0000428043
  0
LINE
  5
23B
100
AcDbEntity
  8
0
100
AcDbLine
 62
2
  6
CONTINUOUS
 10
12.2055050731
 20
2.4912273132
 11
12.3819511709
 21
2.4912273132
  0
ARC
  5
23C
100
AcDbEntity
  8
0
100
AcDbCircle
 62
2
  6
CONTINUOUS
 10
12.3792298263
 20
2.539634765
 40
0.048483885
100
AcDbArc
 50
273.21763719
 51
303.0749121182
  0
ARC
  5
23D
100
AcDbEntity
  8
0
100
AcDbCircle
 62
2
  6
CONTINUOUS
 10
12.3940692204
 20
2.5168671561
 40
0.0213072145
100
AcDbArc
 50
303.0488228549
 51
355.7263138674
  0
LINE
  5
23E
100
AcDbEntity
  8
0
100
AcDbLine
 62
2
  6
CONTINUOUS
 10
12.2949101227
 20
2.5499573458
 11
12.3362731456
 21
2.5499573458
  0
ARC
  5
23F
100
AcDbEntity
  8
0
100
AcDbCircle
 62
2
  6
CONTINUOUS
 10
12.3362731456
 20
2.5586198506
 40
0.0086625048
100
AcDbArc
 50
270.0
 51
90.0
  0
LINE
  5
240
100
AcDbEntity
  8
0
100
AcDbLine
 62
2
  6
CONTINUOUS
 10
12.3362731456
 20
2.5672823554
 11
12.2949101227
 21
2.5672823554
  0
ARC
  5
241
100
AcDbEntity
  8
0
100
AcDbCircle
 62
2
  6
CONTINUOUS
 10
12.2949101208
 20
2.5648073559
 40
0.0024749995
100
AcDbArc
 50
89.9999571957
 51
180.0000428043
  0
LINE
  5
242
100
AcDbEntity
  8
0
100
AcDbLine
 62
2
  6
CONTINUOUS
 10
12.2924351213
 20
2.564807354
 11
12.2924351213
 21
2.5524323472
  0
ARC
  5
243
100
AcDbEntity
  8
0
100
AcDbCircle
 62
2
  6
CONTINUOUS
 10
12.2949101208
 20
2.5524323453
 40
0.0024749995
100
AcDbArc
 50
179.9999571957
 51
270.0000428043
  0
LINE
  5
244
100
AcDbEntity
  8
0
100
AcDbLine
 62
2
  6
CONTINUOUS
 10
12.2924351213
 20
2.5184523283
 11
12.2924351213
 21
2.5308273352
  0
ARC
  5
245
100
AcDbEntity
  8
0
100
AcDbCircle
 62
2
  6
CONTINUOUS
 10
12.2949101208
 20
2.530827337
 40
0.0024749995
100
AcDbArc
 50
89.9999571957
 51
180.0000428043
  0
LINE
  5
246
100
AcDbEntity
  8
0
100
AcDbLine
 62
2
  6
CONTINUOUS
 10
12.2949101227
 20
2.5333023366
 11
12.3362731456
 21
2.5333023366
  0
ARC
  5
247
100
AcDbEntity
  8
0
100
AcDbCircle
 62
2
  6
CONTINUOUS
 10
12.3362731456
 20
2.5246398318
 40
0.0086625048
100
AcDbArc
 50
270.0
 51
90.0
  0
LINE
  5
248
100
AcDbEntity
  8
0
100
AcDbLine
 62
2
  6
CONTINUOUS
 10
12.3362731456
 20
2.515977327
 11
12.2949101227
 21
2.515977327
  0
ARC
  5
249
100
AcDbEntity
  8
0
100
AcDbCircle
 62
2
  6
CONTINUOUS
 10
12.2949101208
 20
2.5184523265
 40
0.0024749995
100
AcDbArc
 50
179.9999571957
 51
270.0000428043
  0
ARC
  5
24A
100
AcDbEntity
  8
0
100
AcDbCircle
 62
2
  6
CONTINUOUS
 10
13.5806801742
 20
2.5212486481
 40
0.044722495
100
AcDbArc
 50
195.531588407
 51
204.7624440448
  0
LINE
  5
24B
100
AcDbEntity
  8
0
100
AcDbLine
 62
2
  6
CONTINUOUS
 10
13.5375908118
 20
2.5092733232
 11
13.5357868108
 21
2.5153423266
  0
ARC
  5
24C
100
AcDbEntity
  8
0
100
AcDbCircle
 62
2
  6
CONTINUOUS
 10
13.4974076135
 20
2.5055452462
 40
0.0396099176
100
AcDbArc
 50
14.3201081283
 51
22.4984722084
  0
ARC
  5
24D
100
AcDbEntity
  8
0
100
AcDbCircle
 62
2
  6
CONTINUOUS
 10
13.5201739219
 20
2.5145168728
 40
0.0151491919
100
AcDbArc
 50
24.098260853
 51
63.0369451818
  0
ARC
  5
24E
100
AcDbEntity
  8
0
100
AcDbCircle
 62
2
  6
CONTINUOUS
 10
13.5161192671
 20
2.5062372524
 40
0.0243676582
100
AcDbArc
 50
63.3666028271
 51
90.3937697637
  0
LINE
  5
24F
100
AcDbEntity
  8
0
100
AcDbLine
 62
2
  6
CONTINUOUS
 10
13.5159517998
 20
2.5306043351
 11
13.4883447845
 21
2.5306043351
  0
ARC
  5
250
100
AcDbEntity
  8
0
100
AcDbCircle
 62
2
  6
CONTINUOUS
 10
13.4883447827
 20
2.5281293355
 40
0.0024749995
100
AcDbArc
 50
89.9999571957
 51
180.0000428043
  0
LINE
  5
251
100
AcDbEntity
  8
0
100
AcDbLine
 62
2
  6
CONTINUOUS
 10
13.4858697831
 20
2.5281293337
 11
13.4858697831
 21
2.5184303283
  0
ARC
  5
252
100
AcDbEntity
  8
0
100
AcDbCircle
 62
2
  6
CONTINUOUS
 10
13.4883447827
 20
2.5184303265
 40
0.0024749995
100
AcDbArc
 50
179.9999571957
 51
270.0000428043
  0
LINE
  5
253
100
AcDbEntity
  8
0
100
AcDbLine
 62
2
  6
CONTINUOUS
 10
13.4883447845
 20
2.5159553269
 11
13.5130037982
 21
2.5159553269
  0
ARC
  5
254
100
AcDbEntity
  8
0
100
AcDbCircle
 62
2
  6
CONTINUOUS
 10
13.5130038
 20
2.5134803274
 40
0.0024749995
100
AcDbArc
 50
359.9999571957
 51
90.0000428043
  0
LINE
  5
255
100
AcDbEntity
  8
0
100
AcDbLine
 62
2
  6
CONTINUOUS
 10
13.5154787995
 20
2.5134803256
 11
13.5154787995
 21
2.4937023146
  0
ARC
  5
256
100
AcDbEntity
  8
0
100
AcDbCircle
 62
2
  6
CONTINUOUS
 10
13.5130038
 20
2.4937023128
 40
0.0024749995
100
AcDbArc
 50
269.9999571957
 51
0.0000428043
  0
LINE
  5
257
100
AcDbEntity
  8
0
100
AcDbLine
 62
2
  6
CONTINUOUS
 10
13.5130037982
 20
2.4912273132
 11
13.3994327352
 21
2.4912273132
  0
ARC
  5
258
100
AcDbEntity
  8
0
100
AcDbCircle
 62
2
  6
CONTINUOUS
 10
13.3994327333
 20
2.4937023128
 40
0.0024749995
100
AcDbArc
 50
179.9999571957
 51
270.0000428043
  0
LINE
  5
259
100
AcDbEntity
  8
0
100
AcDbLine
 62
2
  6
CONTINUOUS
 10
13.3969577338
 20
2.4937023146
 11
13.3969577338
 21
2.5135023256
  0
ARC
  5
25A
100
AcDbEntity
  8
0
100
AcDbCircle
 62
2
  6
CONTINUOUS
 10
13.3994327333
 20
2.5135023274
 40
0.0024749995
100
AcDbArc
 50
89.9999571957
 51
180.0000428043
  0
LINE
  5
25B
100
AcDbEntity
  8
0
100
AcDbLine
 62
2
  6
CONTINUOUS
 10
13.3994327352
 20
2.515977327
 11
13.4221787478
 21
2.515977327
  0
ARC
  5
25C
100
AcDbEntity
  8
0
100
AcDbCircle
 62
2
  6
CONTINUOUS
 10
13.4221787497
 20
2.5184523265
 40
0.0024749995
100
AcDbArc
 50
269.9999571957
 51
0.0000428042
  0
LINE
  5
25D
100
AcDbEntity
  8
0
100
AcDbLine
 62
2
  6
CONTINUOUS
 10
13.4246537492
 20
2.5184523283
 11
13.4246537492
 21
2.564807354
  0
ARC
  5
25E
100
AcDbEntity
  8
0
100
AcDbCircle
 62
2
  6
CONTINUOUS
 10
13.4221787497
 20
2.5648073559
 40
0.0024749995
100
AcDbArc
 50
359.9999571957
 51
90.0000428043
  0
LINE
  5
25F
100
AcDbEntity
  8
0
100
AcDbLine
 62
2
  6
CONTINUOUS
 10
13.4221787478
 20
2.5672823554
 11
13.3994327352
 21
2.5672823554
  0
ARC
  5
260
100
AcDbEntity
  8
0
100
AcDbCircle
 62
2
  6
CONTINUOUS
 10
13.3994327333
 20
2.5697573549
 40
0.0024749995
100
AcDbArc
 50
179.9999571957
 51
270.0000428043
  0
LINE
  5
261
100
AcDbEntity
  8
0
100
AcDbLine
 62
2
  6
CONTINUOUS
 10
13.3969577338
 20
2.5697573568
 11
13.3969577338
 21
2.5895573678
  0
ARC
  5
262
100
AcDbEntity
  8
0
100
AcDbCircle
 62
2
  6
CONTINUOUS
 10
13.3994327333
 20
2.5895573696
 40
0.0024749995
100
AcDbArc
 50
89.9999571957
 51
180.0000428043
  0
LINE
  5
263
100
AcDbEntity
  8
0
100
AcDbLine
 62
2
  6
CONTINUOUS
 10
13.3994327352
 20
2.5920323691
 11
13.5490138181
 21
2.5920323691
  0
ARC
  5
264
100
AcDbEntity
  8
0
100
AcDbCircle
 62
2
  6
CONTINUOUS
 10
13.5463505148
 20
2.4094934586
 40
0.1825583387
100
AcDbArc
 50
79.8618509324
 51
89.1640948679
  0
ARC
  5
265
100
AcDbEntity
  8
0
100
AcDbCircle
 62
2
  6
CONTINUOUS
 10
13.5726548052
 20
2.5503169747
 40
0.039319019
100
AcDbArc
 50
59.1202086415
 51
81.4730239328
  0
ARC
  5
266
100
AcDbEntity
  8
0
100
AcDbCircle
 62
2
  6
CONTINUOUS
 10
13.5783142014
 20
2.5566516438
 40
0.0310192946
100
AcDbArc
 50
34.7540871
 51
62.0879016178
  0
ARC
  5
267
100
AcDbEntity
  8
0
100
AcDbCircle
 62
2
  6
CONTINUOUS
 10
13.5900029525
 20
2.565201245
 40
0.0165459396
100
AcDbArc
 50
1.548452892
 51
33.5033152417
  0
ARC
  5
268
100
AcDbEntity
  8
0
100
AcDbCircle
 62
2
  6
CONTINUOUS
 10
13.5932995477
 20
2.5653696972
 40
0.0132462337
100
AcDbArc
 50
331.1510006998
 51
1.205404301
  0
ARC
  5
269
100
AcDbEntity
  8
0
100
AcDbCircle
 62
2
  6
CONTINUOUS
 10
13.5822888914
 20
2.5720482849
 40
0.0261183659
100
AcDbArc
 50
305.6373831893
 51
329.9727629745
  0
ARC
  5
26A
100
AcDbEntity
  8
0
100
AcDbCircle
 62
2
  6
CONTINUOUS
 10
13.5519569538
 20
2.6152551345
 40
0.0789082104
100
AcDbArc
 50
292.906155071
 51
305.2574666259
  0
ARC
  5
26B
100
AcDbEntity
  8
0
100
AcDbCircle
 62
2
  6
CONTINUOUS
 10
13.5282557878
 20
2.4386010294
 40
0.117346916
100
AcDbArc
 50
58.614769177
 51
62.3737227606
  0
ARC
  5
26C
100
AcDbEntity
  8
0
100
AcDbCircle
 62
2
  6
CONTINUOUS
 10
13.5761387404
 20
2.5167282896
 40
0.0257145923
100
AcDbArc
 50
39.3804255939
 51
59.0361096173
  0
ARC
  5
26D
100
AcDbEntity
  8
0
100
AcDbCircle
 62
2
  6
CONTINUOUS
 10
13.5750183849
 20
2.5166552064
 40
0.0266349791
100
AcDbArc
 50
20.3630922153
 51
37.9727053099
  0
ARC
  5
26E
100
AcDbEntity
  8
0
100
AcDbCircle
 62
2
  6
CONTINUOUS
 10
13.5571178432
 20
2.509473798
 40
0.0459185159
100
AcDbArc
 50
15.6740290068
 51
20.9917271228
  0
ARC
  5
26F
100
AcDbEntity
  8
0
100
AcDbCircle
 62
2
  6
CONTINUOUS
 10
13.6156881783
 20
2.525116781
 40
0.0147197649
100
AcDbArc
 50
192.7054516565
 51
206.0594861022
  0
ARC
  5
270
100
AcDbEntity
  8
0
100
AcDbCircle
 62
2
  6
CONTINUOUS
 10
13.6071938412
 20
2.5209082945
 40
0.0052403997
100
AcDbArc
 50
205.5232099488
 51
227.5054868079
  0
ARC
  5
271
100
AcDbEntity
  8
0
100
AcDbCircle
 62
2
  6
CONTINUOUS
 10
13.6054655419
 20
2.5190929218
 40
0.0027347709
100
AcDbArc
 50
228.5117626737
 51
266.1485845754
  0
LINE
  5
272
100
AcDbEntity
  8
0
100
AcDbLine
 62
2
  6
CONTINUOUS
 10
13.6052818493
 20
2.5163643272
 11
13.60639085
 21
2.5163643272
  0
ARC
  5
273
100
AcDbEntity
  8
0
100
AcDbCircle
 62
2
  6
CONTINUOUS
 10
13.6063292954
 20
2.5296129864
 40
0.0132488022
100
AcDbArc
 50
270.266200055
 51
281.2404888597
  0
ARC
  5
274
100
AcDbEntity
  8
0
100
AcDbCircle
 62
2
  6
CONTINUOUS
 10
13.6075235364
 20
2.5238762928
 40
0.0073895522
100
AcDbArc
 50
280.8288201977
 51
305.0837508495
  0
ARC
  5
275
100
AcDbEntity
  8
0
100
AcDbCircle
 62
2
  6
CONTINUOUS
 10
13.607924718
 20
2.5230254464
 40
0.0064647042
100
AcDbArc
 50
306.5086174083
 51
340.2162360092
  0
ARC
  5
276
100
AcDbEntity
  8
0
100
AcDbCircle
 62
2
  6
CONTINUOUS
 10
13.6027235414
 20
2.524769508
 40
0.0119498009
100
AcDbArc
 50
340.7883861657
 51
1.1691452593
  0
LINE
  5
277
100
AcDbEntity
  8
0
100
AcDbLine
 62
2
  6
CONTINUOUS
 10
13.6146708546
 20
2.525013332
 11
13.6146708546
 21
2.5276393334
  0
ARC
  5
278
100
AcDbEntity
  8
0
100
AcDbCircle
 62
2
  6
CONTINUOUS
 10
13.6171458541
 20
2.5276393353
 40
0.0024749995
100
AcDbArc
 50
89.9999571957
 51
180.0000428043
  0
LINE
  5
279
100
AcDbEntity
  8
0
100
AcDbLine
 62
2
  6
CONTINUOUS
 10
13.6171458559
 20
2.5301143348
 11
13.6292558626
 21
2.5301143348
  0
ARC
  5
27A
100
AcDbEntity
  8
0
100
AcDbCircle
 62
2
  6
CONTINUOUS
 10
13.6292558645
 20
2.5276393353
 40
0.0024749995
100
AcDbArc
 50
359.9999571957
 51
90.0000428043
  0
LINE
  5
27B
100
AcDbEntity
  8
0
100
AcDbLine
 62
2
  6
CONTINUOUS
 10
13.631730864
 20
2.5276393334
 11
13.631730864
 21
2.516087327
  0
ARC
  5
27C
100
AcDbEntity
  8
0
100
AcDbCircle
 62
2
  6
CONTINUOUS
 10
13.6141751675
 20
2.5161916447
 40
0.0175560065
100
AcDbArc
 50
332.2279060967
 51
359.6595469939
  0
ARC
  5
27D
100
AcDbEntity
  8
0
100
AcDbCircle
 62
2
  6
CONTINUOUS
 10
13.6048681567
 20
2.5210861501
 40
0.0280715479
100
AcDbArc
 50
308.5071794988
 51
332.2400656899
  0
ARC
  5
27E
100
AcDbEntity
  8
0
100
AcDbCircle
 62
2
  6
CONTINUOUS
 10
13.5978759713
 20
2.5286873679
 40
0.0383802683
100
AcDbArc
 50
288.7656836787
 51
309.6104317088
  0
ARC
  5
27F
100
AcDbEntity
  8
0
100
AcDbCircle
 62
2
  6
CONTINUOUS
 10
13.6036139387
 20
2.5111006186
 40
0.0198837666
100
AcDbArc
 50
271.8586572978
 51
289.4131338543
  0
LINE
  5
280
100
AcDbEntity
  8
0
100
AcDbLine
 62
2
  6
CONTINUOUS
 10
13.6042588488
 20
2.4912273132
 11
13.5568948225
 21
2.4912273132
  0
ARC
  5
281
100
AcDbEntity
  8
0
100
AcDbCircle
 62
2
  6
CONTINUOUS
 10
13.5577001432
 20
2.5085494649
 40
0.0173408616
100
AcDbArc
 50
232.4713476722
 51
267.338189944
  0
ARC
  5
282
100
AcDbEntity
  8
0
100
AcDbCircle
 62
2
  6
CONTINUOUS
 10
13.5607987082
 20
2.5143997688
 40
0.0238935861
100
AcDbArc
 50
209.8247607259
 51
235.1255079367
  0
ARC
  5
283
100
AcDbEntity
  8
0
100
AcDbCircle
 62
2
  6
CONTINUOUS
 10
13.5295131508
 20
2.5629115009
 40
0.0110815393
100
AcDbArc
 50
306.758405961
 51
320.4502234234
  0
ARC
  5
284
100
AcDbEntity
  8
0
100
AcDbCircle
 62
2
  6
CONTINUOUS
 10
13.5238839599
 20
2.5706523294
 40
0.0206523367
100
AcDbArc
 50
289.6883413472
 51
306.4184925496
  0
ARC
  5
285
100
AcDbEntity
  8
0
100
AcDbCircle
 62
2
  6
CONTINUOUS
 10
13.5219564542
 20
2.5750459767
 40
0.0254407115
100
AcDbArc
 50
270.7327484175
 51
290.441894219
  0
LINE
  5
286
100
AcDbEntity
  8
0
100
AcDbLine
 62
2
  6
CONTINUOUS
 10
13.5222818033
 20
2.5496073456
 11
13.4883447845
 21
2.5496073456
  0
ARC
  5
287
100
AcDbEntity
  8
0
100
AcDbCircle
 62
2
  6
CONTINUOUS
 10
13.4883447827
 20
2.5520823451
 40
0.0024749995
100
AcDbArc
 50
179.9999571957
 51
270.0000428043
  0
LINE
  5
288
100
AcDbEntity
  8
0
100
AcDbLine
 62
2
  6
CONTINUOUS
 10
13.4858697831
 20
2.552082347
 11
13.4858697831
 21
2.564807354
  0
ARC
  5
289
100
AcDbEntity
  8
0
100
AcDbCircle
 62
2
  6
CONTINUOUS
 10
13.4883447827
 20
2.5648073559
 40
0.0024749995
100
AcDbArc
 50
89.9999571957
 51
180.0000428043
  0
LINE
  5
28A
100
AcDbEntity
  8
0
100
AcDbLine
 62
2
  6
CONTINUOUS
 10
13.4883447845
 20
2.5672823554
 11
13.5251458049
 21
2.5672823554
  0
ARC
  5
28B
100
AcDbEntity
  8
0
100
AcDbCircle
 62
2
  6
CONTINUOUS
 10
13.5236009174
 20
2.5388278764
 40
0.0284963867
100
AcDbArc
 50
70.3834917948
 51
86.8922743861
  0
ARC
  5
28C
100
AcDbEntity
  8
0
100
AcDbCircle
 62
2
  6
CONTINUOUS
 10
13.5284605274
 20
2.5518696094
 40
0.0145814632
100
AcDbArc
 50
54.6746025112
 51
71.1660573124
  0
ARC
  5
28D
100
AcDbEntity
  8
0
100
AcDbCircle
 62
2
  6
CONTINUOUS
 10
13.5335900184
 20
2.5587235346
 40
0.0060275915
100
AcDbArc
 50
20.9055592135
 51
56.7851676243
  0
ARC
  5
28E
100
AcDbEntity
  8
0
100
AcDbCircle
 62
2
  6
CONTINUOUS
 10
13.5348905773
 20
2.5593838168
 40
0.0045795888
100
AcDbArc
 50
355.6235353944
 51
18.9942678268
  0
ARC
  5
28F
100
AcDbEntity
  8
0
100
AcDbCircle
 62
2
  6
CONTINUOUS
 10
13.533683767
 20
2.559677593
 40
0.0058087709
100
AcDbArc
 50
318.8515287446
 51
353.6422345323
  0
LINE
  5
290
100
AcDbEntity
  8
0
100
AcDbLine
 62
2
  6
CONTINUOUS
 10
12.672340332
 20
2.5920323691
 11
12.7727983877
 21
2.5920323691
  0
ARC
  5
291
100
AcDbEntity
  8
0
100
AcDbCircle
 62
2
  6
CONTINUOUS
 10
12.7727985224
 20
2.5895582013
 40
0.0024741678
100
AcDbArc
 50
46.3477981899
 51
90.0031206038
  0
LINE
  5
292
100
AcDbEntity
  8
0
100
AcDbLine
 62
2
  6
CONTINUOUS
 10
12.7745063886
 20
2.5913483688
 11
12.8345394219
 21
2.534068337
  0
ARC
  5
293
100
AcDbEntity
  8
0
100
AcDbCircle
 62
2
  6
CONTINUOUS
 10
12.8362481229
 20
2.5358592748
 40
0.0024753014
100
AcDbArc
 50
226.3461263059
 51
0.0014637321
  0
LINE
  5
294
100
AcDbEntity
  8
0
100
AcDbLine
 62
2
  6
CONTINUOUS
 10
12.8387234242
 20
2.535859338
 11
12.8387234242
 21
2.564807354
  0
ARC
  5
295
100
AcDbEntity
  8
0
100
AcDbCircle
 62
2
  6
CONTINUOUS
 10
12.8362484247
 20
2.5648073559
 40
0.0024749995
100
AcDbArc
 50
359.9999571957
 51
90.0000428043
  0
LINE
  5
296
100
AcDbEntity
  8
0
100
AcDbLine
 62
2
  6
CONTINUOUS
 10
12.8362484229
 20
2.5672823554
 11
12.8174724125
 21
2.5672823554
  0
ARC
  5
297
100
AcDbEntity
  8
0
100
AcDbCircle
 62
2
  6
CONTINUOUS
 10
12.8174724106
 20
2.5697573549
 40
0.0024749995
100
AcDbArc
 50
179.9999571957
 51
270.0000428043
  0
LINE
  5
298
100
AcDbEntity
  8
0
100
AcDbLine
 62
2
  6
CONTINUOUS
 10
12.8149974111
 20
2.5697573568
 11
12.8149974111
 21
2.5895573678
  0
ARC
  5
299
100
AcDbEntity
  8
0
100
AcDbCircle
 62
2
  6
CONTINUOUS
 10
12.8174724106
 20
2.5895573696
 40
0.0024749995
100
AcDbArc
 50
89.9999571957
 51
180.0000428043
  0
LINE
  5
29A
100
AcDbEntity
  8
0
100
AcDbLine
 62
2
  6
CONTINUOUS
 10
12.8174724125
 20
2.5920323691
 11
12.8914734535
 21
2.5920323691
  0
ARC
  5
29B
100
AcDbEntity
  8
0
100
AcDbCircle
 62
2
  6
CONTINUOUS
 10
12.8914734553
 20
2.5895573696
 40
0.0024749995
100
AcDbArc
 50
359.9999571957
 51
90.0000428043
  0
LINE
  5
29C
100
AcDbEntity
  8
0
100
AcDbLine
 62
2
  6
CONTINUOUS
 10
12.8939484549
 20
2.5895573678
 11
12.8939484549
 21
2.5697573568
  0
ARC
  5
29D
100
AcDbEntity
  8
0
100
AcDbCircle
 62
2
  6
CONTINUOUS
 10
12.8914734553
 20
2.5697573549
 40
0.0024749995
100
AcDbArc
 50
269.9999571957
 51
0.0000428043
  0
LINE
  5
29E
100
AcDbEntity
  8
0
100
AcDbLine
 62
2
  6
CONTINUOUS
 10
12.8914734535
 20
2.5672823554
 11
12.8735404436
 21
2.5672823554
  0
ARC
  5
29F
100
AcDbEntity
  8
0
100
AcDbCircle
 62
2
  6
CONTINUOUS
 10
12.8735404417
 20
2.5648073559
 40
0.0024749995
100
AcDbArc
 50
89.9999571957
 51
180.0000428043
  0
LINE
  5
2A0
100
AcDbEntity
  8
0
100
AcDbLine
 62
2
  6
CONTINUOUS
 10
12.8710654422
 20
2.564807354
 11
12.8710654422
 21
2.4937023146
  0
ARC
  5
2A1
100
AcDbEntity
  8
0
100
AcDbCircle
 62
2
  6
CONTINUOUS
 10
12.8685904427
 20
2.4937023128
 40
0.0024749995
100
AcDbArc
 50
269.9999571957
 51
0.0000428043
  0
LINE
  5
2A2
100
AcDbEntity
  8
0
100
AcDbLine
 62
2
  6
CONTINUOUS
 10
12.8685904408
 20
2.4912273132
 11
12.7943853997
 21
2.4912273132
  0
ARC
  5
2A3
100
AcDbEntity
  8
0
100
AcDbCircle
 62
2
  6
CONTINUOUS
 10
12.7943847649
 20
2.4937027294
 40
0.0024754162
100
AcDbArc
 50
226.3593695813
 51
270.0146919953
  0
LINE
  5
2A4
100
AcDbEntity
  8
0
100
AcDbLine
 62
2
  6
CONTINUOUS
 10
12.7926763987
 20
2.4919113136
 11
12.7293963636
 21
2.5522893471
  0
ARC
  5
2A5
100
AcDbEntity
  8
0
100
AcDbCircle
 62
2
  6
CONTINUOUS
 10
12.7276876627
 20
2.5504984093
 40
0.0024753014
100
AcDbArc
 50
46.3461263059
 51
180.0014637321
  0
LINE
  5
2A6
100
AcDbEntity
  8
0
100
AcDbLine
 62
2
  6
CONTINUOUS
 10
12.7252123613
 20
2.5504983461
 11
12.7252123613
 21
2.5184523283
  0
ARC
  5
2A7
100
AcDbEntity
  8
0
100
AcDbCircle
 62
2
  6
CONTINUOUS
 10
12.7276873608
 20
2.5184523265
 40
0.0024749995
100
AcDbArc
 50
179.9999571957
 51
270.0000428043
  0
LINE
  5
2A8
100
AcDbEntity
  8
0
100
AcDbLine
 62
2
  6
CONTINUOUS
 10
12.7276873627
 20
2.515977327
 11
12.7480043739
 21
2.515977327
  0
ARC
  5
2A9
100
AcDbEntity
  8
0
100
AcDbCircle
 62
2
  6
CONTINUOUS
 10
12.7480043758
 20
2.5135023274
 40
0.0024749995
100
AcDbArc
 50
359.9999571957
 51
90.0000428043
  0
LINE
  5
2AA
100
AcDbEntity
  8
0
100
AcDbLine
 62
2
  6
CONTINUOUS
 10
12.7504793753
 20
2.5135023256
 11
12.7504793753
 21
2.4937023146
  0
ARC
  5
2AB
100
AcDbEntity
  8
0
100
AcDbCircle
 62
2
  6
CONTINUOUS
 10
12.7480043758
 20
2.4937023128
 40
0.0024749995
100
AcDbArc
 50
269.9999571957
 51
0.0000428043
  0
LINE
  5
2AC
100
AcDbEntity
  8
0
100
AcDbLine
 62
2
  6
CONTINUOUS
 10
12.7480043739
 20
2.4912273132
 11
12.672340332
 21
2.4912273132
  0
ARC
  5
2AD
100
AcDbEntity
  8
0
100
AcDbCircle
 62
2
  6
CONTINUOUS
 10
12.6723403301
 20
2.4937023128
 40
0.0024749995
100
AcDbArc
 50
179.9999571957
 51
270.0000428043
  0
LINE
  5
2AE
100
AcDbEntity
  8
0
100
AcDbLine
 62
2
  6
CONTINUOUS
 10
12.6698653306
 20
2.4937023146
 11
12.6698653306
 21
2.5135023256
  0
ARC
  5
2AF
100
AcDbEntity
  8
0
100
AcDbCircle
 62
2
  6
CONTINUOUS
 10
12.6723403301
 20
2.5135023274
 40
0.0024749995
100
AcDbArc
 50
89.9999571957
 51
180.0000428043
  0
LINE
  5
2B0
100
AcDbEntity
  8
0
100
AcDbLine
 62
2
  6
CONTINUOUS
 10
12.672340332
 20
2.515977327
 11
12.6909873423
 21
2.515977327
  0
ARC
  5
2B1
100
AcDbEntity
  8
0
100
AcDbCircle
 62
2
  6
CONTINUOUS
 10
12.6909873442
 20
2.5184523265
 40
0.0024749995
100
AcDbArc
 50
269.9999571957
 51
0.0000428043
  0
LINE
  5
2B2
100
AcDbEntity
  8
0
100
AcDbLine
 62
2
  6
CONTINUOUS
 10
12.6934623437
 20
2.5184523283
 11
12.6934623437
 21
2.564807354
  0
ARC
  5
2B3
100
AcDbEntity
  8
0
100
AcDbCircle
 62
2
  6
CONTINUOUS
 10
12.6909873442
 20
2.5648073559
 40
0.0024749995
100
AcDbArc
 50
359.9999571957
 51
90.0000428043
  0
LINE
  5
2B4
100
AcDbEntity
  8
0
100
AcDbLine
 62
2
  6
CONTINUOUS
 10
12.6909873423
 20
2.5672823554
 11
12.672340332
 21
2.5672823554
  0
ARC
  5
2B5
100
AcDbEntity
  8
0
100
AcDbCircle
 62
2
  6
CONTINUOUS
 10
12.6723403301
 20
2.5697573549
 40
0.0024749995
100
AcDbArc
 50
179.9999571957
 51
270.0000428043
  0
LINE
  5
2B6
100
AcDbEntity
  8
0
100
AcDbLine
 62
2
  6
CONTINUOUS
 10
12.6698653306
 20
2.5697573568
 11
12.6698653306
 21
2.5895573678
  0
ARC
  5
2B7
100
AcDbEntity
  8
0
100
AcDbCircle
 62
2
  6
CONTINUOUS
 10
12.6723403301
 20
2.5895573696
 40
0.0024749995
100
AcDbArc
 50
89.9999571957
 51
180.0000428043
  0
LINE
  5
2B8
100
AcDbEntity
  8
0
100
AcDbLine
 62
2
  6
CONTINUOUS
 10
12.5246402501
 20
2.5655893545
 11
12.5175232461
 21
2.5543723483
  0
ARC
  5
2B9
100
AcDbEntity
  8
0
100
AcDbCircle
 62
2
  6
CONTINUOUS
 10
12.519613138
 20
2.5530463862
 40
0.0024750401
100
AcDbArc
 50
147.6063258012
 51
270.0025305754
  0
LINE
  5
2BA
100
AcDbEntity
  8
0
100
AcDbLine
 62
2
  6
CONTINUOUS
 10
12.5196132473
 20
2.5505713461
 11
12.5401702587
 21
2.5505713461
  0
ARC
  5
2BB
100
AcDbEntity
  8
0
100
AcDbCircle
 62
2
  6
CONTINUOUS
 10
12.5401702375
 20
2.5530465533
 40
0.0024752071
100
AcDbArc
 50
270.0004896793
 51
32.9089806818
  0
LINE
  5
2BC
100
AcDbEntity
  8
0
100
AcDbLine
 62
2
  6
CONTINUOUS
 10
12.5422482598
 20
2.5543913483
 11
12.5349892558
 21
2.5656073545
  0
ARC
  5
2BD
100
AcDbEntity
  8
0
100
AcDbCircle
 62
2
  6
CONTINUOUS
 10
12.532910715
 20
2.564262895
 40
0.0024754602
100
AcDbArc
 50
32.8959418573
 51
89.9875097202
  0
LINE
  5
2BE
100
AcDbEntity
  8
0
100
AcDbLine
 62
2
  6
CONTINUOUS
 10
12.5329112547
 20
2.5667383551
 11
12.5267302512
 21
2.5667383551
  0
ARC
  5
2BF
100
AcDbEntity
  8
0
100
AcDbCircle
 62
2
  6
CONTINUOUS
 10
12.5267301809
 20
2.5642631548
 40
0.0024752003
100
AcDbArc
 50
89.998372645
 51
147.602165307
  0
LINE
  5
2C0
100
AcDbEntity
  8
0
100
AcDbLine
 62
2
  6
CONTINUOUS
 10
12.548053263
 20
2.5284903339
 11
12.5536792662
 21
2.5197973291
  0
ARC
  5
2C1
100
AcDbEntity
  8
0
100
AcDbCircle
 62
2
  6
CONTINUOUS
 10
12.5516012439
 20
2.5184525341
 40
0.0024752071
100
AcDbArc
 50
270.0004896794
 51
32.9089806818
  0
LINE
  5
2C2
100
AcDbEntity
  8
0
100
AcDbLine
 62
2
  6
CONTINUOUS
 10
12.551601265
 20
2.515977327
 11
12.537150257
 21
2.515977327
  0
ARC
  5
2C3
100
AcDbEntity
  8
0
100
AcDbCircle
 62
2
  6
CONTINUOUS
 10
12.5371502552
 20
2.5135023274
 40
0.0024749995
100
AcDbArc
 50
89.9999571957
 51
180.0000428043
  0
LINE
  5
2C4
100
AcDbEntity
  8
0
100
AcDbLine
 62
2
  6
CONTINUOUS
 10
12.5346752556
 20
2.5135023256
 11
12.5346752556
 21
2.4937023146
  0
ARC
  5
2C5
100
AcDbEntity
  8
0
100
AcDbCircle
 62
2
  6
CONTINUOUS
 10
12.5371502552
 20
2.4937023128
 40
0.0024749995
100
AcDbArc
 50
179.9999571957
 51
270.0000428043
  0
LINE
  5
2C6
100
AcDbEntity
  8
0
100
AcDbLine
 62
2
  6
CONTINUOUS
 10
12.537150257
 20
2.4912273132
 11
12.6424313154
 21
2.4912273132
  0
ARC
  5
2C7
100
AcDbEntity
  8
0
100
AcDbCircle
 62
2
  6
CONTINUOUS
 10
12.6424313172
 20
2.4937023128
 40
0.0024749995
100
AcDbArc
 50
269.9999571957
 51
0.0000428043
  0
LINE
  5
2C8
100
AcDbEntity
  8
0
100
AcDbLine
 62
2
  6
CONTINUOUS
 10
12.6449063168
 20
2.4937023146
 11
12.6449063168
 21
2.5135023256
  0
ARC
  5
2C9
100
AcDbEntity
  8
0
100
AcDbCircle
 62
2
  6
CONTINUOUS
 10
12.6424313172
 20
2.5135023274
 40
0.0024749995
100
AcDbArc
 50
359.9999571957
 51
90.0000428043
  0
LINE
  5
2CA
100
AcDbEntity
  8
0
100
AcDbLine
 62
2
  6
CONTINUOUS
 10
12.6424313154
 20
2.515977327
 11
12.6224153043
 21
2.515977327
  0
ARC
  5
2CB
100
AcDbEntity
  8
0
100
AcDbCircle
 62
2
  6
CONTINUOUS
 10
12.6224154248
 20
2.518451368
 40
0.002474041
100
AcDbArc
 50
212.9056413127
 51
269.9972091756
  0
LINE
  5
2CC
100
AcDbEntity
  8
0
100
AcDbLine
 62
2
  6
CONTINUOUS
 10
12.6203383031
 20
2.5171073276
 11
12.5725822767
 21
2.5909023685
  0
ARC
  5
2CD
100
AcDbEntity
  8
0
100
AcDbCircle
 62
2
  6
CONTINUOUS
 10
12.570504655
 20
2.589557409
 40
0.0024749602
100
AcDbArc
 50
32.9172174468
 51
90.0087853097
  0
LINE
  5
2CE
100
AcDbEntity
  8
0
100
AcDbLine
 62
2
  6
CONTINUOUS
 10
12.5705042755
 20
2.5920323691
 11
12.5133292438
 21
2.5920323691
  0
ARC
  5
2CF
100
AcDbEntity
  8
0
100
AcDbCircle
 62
2
  6
CONTINUOUS
 10
12.5133291735
 20
2.5895571688
 40
0.0024752003
100
AcDbArc
 50
89.9983726451
 51
147.602165307
  0
LINE
  5
2D0
100
AcDbEntity
  8
0
100
AcDbLine
 62
2
  6
CONTINUOUS
 10
12.5112392426
 20
2.5908833685
 11
12.4644392167
 21
2.5171263276
  0
ARC
  5
2D1
100
AcDbEntity
  8
0
100
AcDbCircle
 62
2
  6
CONTINUOUS
 10
12.4623492858
 20
2.5184525273
 40
0.0024752003
100
AcDbArc
 50
269.9983726451
 51
327.602165307
  0
LINE
  5
2D2
100
AcDbEntity
  8
0
100
AcDbLine
 62
2
  6
CONTINUOUS
 10
12.4623492155
 20
2.515977327
 11
12.4394882028
 21
2.515977327
  0
ARC
  5
2D3
100
AcDbEntity
  8
0
100
AcDbCircle
 62
2
  6
CONTINUOUS
 10
12.439488201
 20
2.5135023274
 40
0.0024749995
100
AcDbArc
 50
89.9999571957
 51
180.0000428043
  0
LINE
  5
2D4
100
AcDbEntity
  8
0
100
AcDbLine
 62
2
  6
CONTINUOUS
 10
12.4370132015
 20
2.5135023256
 11
12.4370132015
 21
2.4937023146
  0
ARC
  5
2D5
100
AcDbEntity
  8
0
100
AcDbCircle
 62
2
  6
CONTINUOUS
 10
12.439488201
 20
2.4937023128
 40
0.0024749995
100
AcDbArc
 50
179.9999571957
 51
270.0000428043
  0
LINE
  5
2D6
100
AcDbEntity
  8
0
100
AcDbLine
 62
2
  6
CONTINUOUS
 10
12.4394882028
 20
2.4912273132
 11
12.5168642458
 21
2.4912273132
  0
ARC
  5
2D7
100
AcDbEntity
  8
0
100
AcDbCircle
 62
2
  6
CONTINUOUS
 10
12.5168642476
 20
2.4937023128
 40
0.0024749995
100
AcDbArc
 50
269.9999571957
 51
0.0000428043
  0
LINE
  5
2D8
100
AcDbEntity
  8
0
100
AcDbLine
 62
2
  6
CONTINUOUS
 10
12.5193392471
 20
2.4937023146
 11
12.5193392471
 21
2.5135023256
  0
ARC
  5
2D9
100
AcDbEntity
  8
0
100
AcDbCircle
 62
2
  6
CONTINUOUS
 10
12.5168642476
 20
2.5135023274
 40
0.0024749995
100
AcDbArc
 50
359.9999571957
 51
90.0000428043
  0
LINE
  5
2DA
100
AcDbEntity
  8
0
100
AcDbLine
 62
2
  6
CONTINUOUS
 10
12.5168642458
 20
2.515977327
 11
12.5055812395
 21
2.515977327
  0
ARC
  5
2DB
100
AcDbEntity
  8
0
100
AcDbCircle
 62
2
  6
CONTINUOUS
 10
12.5055811302
 20
2.518452367
 40
0.0024750401
100
AcDbArc
 50
147.6063258011
 51
270.0025305754
  0
LINE
  5
2DC
100
AcDbEntity
  8
0
100
AcDbLine
 62
2
  6
CONTINUOUS
 10
12.5034912383
 20
2.5197783291
 11
12.5090072414
 21
2.5284723339
  0
ARC
  5
2DD
100
AcDbEntity
  8
0
100
AcDbCircle
 62
2
  6
CONTINUOUS
 10
12.5110971723
 20
2.5271461342
 40
0.0024752003
100
AcDbArc
 50
89.998372645
 51
147.602165307
  0
LINE
  5
2DE
100
AcDbEntity
  8
0
100
AcDbLine
 62
2
  6
CONTINUOUS
 10
12.5110972426
 20
2.5296213345
 11
12.5459752619
 21
2.5296213345
  0
ARC
  5
2DF
100
AcDbEntity
  8
0
100
AcDbCircle
 62
2
  6
CONTINUOUS
 10
12.5459747223
 20
2.5271458744
 40
0.0024754602
100
AcDbArc
 50
32.8959418573
 51
89.9875097202
  0
LINE
  5
2E0
100
AcDbEntity
  8
0
100
AcDbLine
 62
2
  6
CONTINUOUS
 10
12.9205934696
 20
2.5920323691
 11
13.0210515254
 21
2.5920323691
  0
ARC
  5
2E1
100
AcDbEntity
  8
0
100
AcDbCircle
 62
2
  6
CONTINUOUS
 10
13.0210516601
 20
2.5895582013
 40
0.0024741678
100
AcDbArc
 50
46.3477981899
 51
90.0031206038
  0
LINE
  5
2E2
100
AcDbEntity
  8
0
100
AcDbLine
 62
2
  6
CONTINUOUS
 10
13.0227595263
 20
2.5913483688
 11
13.0827925596
 21
2.534068337
  0
ARC
  5
2E3
100
AcDbEntity
  8
0
100
AcDbCircle
 62
2
  6
CONTINUOUS
 10
13.0845012605
 20
2.5358592748
 40
0.0024753014
100
AcDbArc
 50
226.3461263059
 51
0.0014637321
  0
LINE
  5
2E4
100
AcDbEntity
  8
0
100
AcDbLine
 62
2
  6
CONTINUOUS
 10
13.0869765619
 20
2.535859338
 11
13.0869765619
 21
2.564807354
  0
ARC
  5
2E5
100
AcDbEntity
  8
0
100
AcDbCircle
 62
2
  6
CONTINUOUS
 10
13.0845015624
 20
2.5648073559
 40
0.0024749995
100
AcDbArc
 50
359.9999571957
 51
90.0000428043
  0
LINE
  5
2E6
100
AcDbEntity
  8
0
100
AcDbLine
 62
2
  6
CONTINUOUS
 10
13.0845015605
 20
2.5672823554
 11
13.0657255501
 21
2.5672823554
  0
ARC
  5
2E7
100
AcDbEntity
  8
0
100
AcDbCircle
 62
2
  6
CONTINUOUS
 10
13.0657255483
 20
2.5697573549
 40
0.0024749995
100
AcDbArc
 50
179.9999571957
 51
270.0000428043
  0
LINE
  5
2E8
100
AcDbEntity
  8
0
100
AcDbLine
 62
2
  6
CONTINUOUS
 10
13.0632505488
 20
2.5697573568
 11
13.0632505488
 21
2.5895573678
  0
ARC
  5
2E9
100
AcDbEntity
  8
0
100
AcDbCircle
 62
2
  6
CONTINUOUS
 10
13.0657255483
 20
2.5895573696
 40
0.0024749995
100
AcDbArc
 50
89.9999571957
 51
180.0000428043
  0
LINE
  5
2EA
100
AcDbEntity
  8
0
100
AcDbLine
 62
2
  6
CONTINUOUS
 10
13.0657255501
 20
2.5920323691
 11
13.1397265912
 21
2.5920323691
  0
ARC
  5
2EB
100
AcDbEntity
  8
0
100
AcDbCircle
 62
2
  6
CONTINUOUS
 10
13.139726593
 20
2.5895573696
 40
0.0024749995
100
AcDbArc
 50
359.9999571957
 51
90.0000428043
  0
LINE
  5
2EC
100
AcDbEntity
  8
0
100
AcDbLine
 62
2
  6
CONTINUOUS
 10
13.1422015925
 20
2.5895573678
 11
13.1422015925
 21
2.5697573568
  0
ARC
  5
2ED
100
AcDbEntity
  8
0
100
AcDbCircle
 62
2
  6
CONTINUOUS
 10
13.139726593
 20
2.5697573549
 40
0.0024749995
100
AcDbArc
 50
269.9999571957
 51
0.0000428042
  0
LINE
  5
2EE
100
AcDbEntity
  8
0
100
AcDbLine
 62
2
  6
CONTINUOUS
 10
13.1397265912
 20
2.5672823554
 11
13.1217935812
 21
2.5672823554
  0
ARC
  5
2EF
100
AcDbEntity
  8
0
100
AcDbCircle
 62
2
  6
CONTINUOUS
 10
13.1217935794
 20
2.5648073559
 40
0.0024749995
100
AcDbArc
 50
89.9999571957
 51
180.0000428042
  0
LINE
  5
2F0
100
AcDbEntity
  8
0
100
AcDbLine
 62
2
  6
CONTINUOUS
 10
13.1193185799
 20
2.564807354
 11
13.1193185799
 21
2.4937023146
  0
ARC
  5
2F1
100
AcDbEntity
  8
0
100
AcDbCircle
 62
2
  6
CONTINUOUS
 10
13.1168435803
 20
2.4937023128
 40
0.0024749995
100
AcDbArc
 50
269.9999571957
 51
0.0000428043
  0
LINE
  5
2F2
100
AcDbEntity
  8
0
100
AcDbLine
 62
2
  6
CONTINUOUS
 10
13.1168435785
 20
2.4912273132
 11
13.0426375373
 21
2.4912273132
  0
ARC
  5
2F3
100
AcDbEntity
  8
0
100
AcDbCircle
 62
2
  6
CONTINUOUS
 10
13.0426374026
 20
2.493701481
 40
0.0024741678
100
AcDbArc
 50
226.3477981898
 51
270.0031206038
  0
LINE
  5
2F4
100
AcDbEntity
  8
0
100
AcDbLine
 62
2
  6
CONTINUOUS
 10
13.0409295364
 20
2.4919113136
 11
12.9776495013
 21
2.5522893471
  0
ARC
  5
2F5
100
AcDbEntity
  8
0
100
AcDbCircle
 62
2
  6
CONTINUOUS
 10
12.9759408003
 20
2.5504984093
 40
0.0024753014
100
AcDbArc
 50
46.3461263059
 51
180.0014637321
  0
LINE
  5
2F6
100
AcDbEntity
  8
0
100
AcDbLine
 62
2
  6
CONTINUOUS
 10
12.973465499
 20
2.5504983461
 11
12.973465499
 21
2.5184523283
  0
ARC
  5
2F7
100
AcDbEntity
  8
0
100
AcDbCircle
 62
2
  6
CONTINUOUS
 10
12.9759404985
 20
2.5184523265
 40
0.0024749995
100
AcDbArc
 50
179.9999571957
 51
270.0000428043
  0
LINE
  5
2F8
100
AcDbEntity
  8
0
100
AcDbLine
 62
2
  6
CONTINUOUS
 10
12.9759405003
 20
2.515977327
 11
12.9962575116
 21
2.515977327
  0
ARC
  5
2F9
100
AcDbEntity
  8
0
100
AcDbCircle
 62
2
  6
CONTINUOUS
 10
12.9962575135
 20
2.5135023274
 40
0.0024749995
100
AcDbArc
 50
359.9999571957
 51
90.0000428043
  0
LINE
  5
2FA
100
AcDbEntity
  8
0
100
AcDbLine
 62
2
  6
CONTINUOUS
 10
12.998732513
 20
2.5135023256
 11
12.998732513
 21
2.4937023146
  0
ARC
  5
2FB
100
AcDbEntity
  8
0
100
AcDbCircle
 62
2
  6
CONTINUOUS
 10
12.9962575135
 20
2.4937023128
 40
0.0024749995
100
AcDbArc
 50
269.9999571957
 51
0.0000428043
  0
LINE
  5
2FC
100
AcDbEntity
  8
0
100
AcDbLine
 62
2
  6
CONTINUOUS
 10
12.9962575116
 20
2.4912273132
 11
12.9205934696
 21
2.4912273132
  0
ARC
  5
2FD
100
AcDbEntity
  8
0
100
AcDbCircle
 62
2
  6
CONTINUOUS
 10
12.9205934678
 20
2.4937023128
 40
0.0024749995
100
AcDbArc
 50
179.9999571957
 51
270.0000428043
  0
LINE
  5
2FE
100
AcDbEntity
  8
0
100
AcDbLine
 62
2
  6
CONTINUOUS
 10
12.9181184683
 20
2.4937023146
 11
12.9181184683
 21
2.5135023256
  0
ARC
  5
2FF
100
AcDbEntity
  8
0
100
AcDbCircle
 62
2
  6
CONTINUOUS
 10
12.9205934678
 20
2.5135023274
 40
0.0024749995
100
AcDbArc
 50
89.9999571957
 51
180.0000428042
  0
LINE
  5
300
100
AcDbEntity
  8
0
100
AcDbLine
 62
2
  6
CONTINUOUS
 10
12.9205934696
 20
2.515977327
 11
12.93923948
 21
2.515977327
  0
ARC
  5
301
100
AcDbEntity
  8
0
100
AcDbCircle
 62
2
  6
CONTINUOUS
 10
12.9392394818
 20
2.5184523265
 40
0.0024749995
100
AcDbArc
 50
269.9999571957
 51
0.0000428043
  0
LINE
  5
302
100
AcDbEntity
  8
0
100
AcDbLine
 62
2
  6
CONTINUOUS
 10
12.9417144814
 20
2.5184523283
 11
12.9417144814
 21
2.564807354
  0
ARC
  5
303
100
AcDbEntity
  8
0
100
AcDbCircle
 62
2
  6
CONTINUOUS
 10
12.9392394818
 20
2.5648073559
 40
0.0024749995
100
AcDbArc
 50
359.9999571957
 51
90.0000428043
  0
LINE
  5
304
100
AcDbEntity
  8
0
100
AcDbLine
 62
2
  6
CONTINUOUS
 10
12.93923948
 20
2.5672823554
 11
12.9205934696
 21
2.5672823554
  0
ARC
  5
305
100
AcDbEntity
  8
0
100
AcDbCircle
 62
2
  6
CONTINUOUS
 10
12.9205934678
 20
2.5697573549
 40
0.0024749995
100
AcDbArc
 50
179.9999571957
 51
270.0000428043
  0
LINE
  5
306
100
AcDbEntity
  8
0
100
AcDbLine
 62
2
  6
CONTINUOUS
 10
12.9181184683
 20
2.5697573568
 11
12.9181184683
 21
2.5895573678
  0
ARC
  5
307
100
AcDbEntity
  8
0
100
AcDbCircle
 62
2
  6
CONTINUOUS
 10
12.9205934678
 20
2.5895573696
 40
0.0024749995
100
AcDbArc
 50
89.9999571957
 51
180.0000428042
  0
LINE
  5
308
100
AcDbEntity
  8
0
100
AcDbLine
 62
2
  6
CONTINUOUS
 10
13.2934226764
 20
2.5324773361
 11
13.2582556569
 21
2.5324773361
  0
ARC
  5
309
100
AcDbEntity
  8
0
100
AcDbCircle
 62
2
  6
CONTINUOUS
 10
13.2582556551
 20
2.5300023366
 40
0.0024749995
100
AcDbArc
 50
89.9999571957
 51
180.0000428043
  0
LINE
  5
30A
100
AcDbEntity
  8
0
100
AcDbLine
 62
2
  6
CONTINUOUS
 10
13.2557806555
 20
2.5300023347
 11
13.2557806555
 21
2.5184523283
  0
ARC
  5
30B
100
AcDbEntity
  8
0
100
AcDbCircle
 62
2
  6
CONTINUOUS
 10
13.2582556551
 20
2.5184523265
 40
0.0024749995
100
AcDbArc
 50
179.9999571957
 51
270.0000428043
  0
LINE
  5
30C
100
AcDbEntity
  8
0
100
AcDbLine
 62
2
  6
CONTINUOUS
 10
13.2582556569
 20
2.515977327
 11
13.3232596929
 21
2.515977327
  0
ARC
  5
30D
100
AcDbEntity
  8
0
100
AcDbCircle
 62
2
  6
CONTINUOUS
 10
13.3232596948
 20
2.5184523265
 40
0.0024749995
100
AcDbArc
 50
269.9999571957
 51
0.0000428043
  0
LINE
  5
30E
100
AcDbEntity
  8
0
100
AcDbLine
 62
2
  6
CONTINUOUS
 10
13.3257346943
 20
2.5184523283
 11
13.3257346943
 21
2.5267023329
  0
ARC
  5
30F
100
AcDbEntity
  8
0
100
AcDbCircle
 62
2
  6
CONTINUOUS
 10
13.3282096938
 20
2.5267023348
 40
0.0024749995
100
AcDbArc
 50
89.9999571957
 51
180.0000428043
  0
LINE
  5
310
100
AcDbEntity
  8
0
100
AcDbLine
 62
2
  6
CONTINUOUS
 10
13.3282096957
 20
2.5291773343
 11
13.3705287192
 21
2.5291773343
  0
ARC
  5
311
100
AcDbEntity
  8
0
100
AcDbCircle
 62
2
  6
CONTINUOUS
 10
13.370528721
 20
2.5267023348
 40
0.0024749995
100
AcDbArc
 50
359.9999571957
 51
90.0000428043
  0
LINE
  5
312
100
AcDbEntity
  8
0
100
AcDbLine
 62
2
  6
CONTINUOUS
 10
13.3730037205
 20
2.5267023329
 11
13.3730037205
 21
2.4937023146
  0
ARC
  5
313
100
AcDbEntity
  8
0
100
AcDbCircle
 62
2
  6
CONTINUOUS
 10
13.370528721
 20
2.4937023128
 40
0.0024749995
100
AcDbArc
 50
269.9999571957
 51
0.0000428043
  0
LINE
  5
314
100
AcDbEntity
  8
0
100
AcDbLine
 62
2
  6
CONTINUOUS
 10
13.3705287192
 20
2.4912273132
 11
13.1673166065
 21
2.4912273132
  0
ARC
  5
315
100
AcDbEntity
  8
0
100
AcDbCircle
 62
2
  6
CONTINUOUS
 10
13.1673166046
 20
2.4937023128
 40
0.0024749995
100
AcDbArc
 50
179.9999571957
 51
270.0000428043
  0
LINE
  5
316
100
AcDbEntity
  8
0
100
AcDbLine
 62
2
  6
CONTINUOUS
 10
13.1648416051
 20
2.4937023146
 11
13.1648416051
 21
2.5135023256
  0
ARC
  5
317
100
AcDbEntity
  8
0
100
AcDbCircle
 62
2
  6
CONTINUOUS
 10
13.1673166046
 20
2.5135023274
 40
0.0024749995
100
AcDbArc
 50
89.9999571957
 51
180.0000428043
  0
LINE
  5
318
100
AcDbEntity
  8
0
100
AcDbLine
 62
2
  6
CONTINUOUS
 10
13.1673166065
 20
2.515977327
 11
13.1912396197
 21
2.515977327
  0
ARC
  5
319
100
AcDbEntity
  8
0
100
AcDbCircle
 62
2
  6
CONTINUOUS
 10
13.1912396216
 20
2.5184523265
 40
0.0024749995
100
AcDbArc
 50
269.9999571957
 51
0.0000428042
  0
LINE
  5
31A
100
AcDbEntity
  8
0
100
AcDbLine
 62
2
  6
CONTINUOUS
 10
13.1937146211
 20
2.5184523283
 11
13.1937146211
 21
2.564807354
  0
ARC
  5
31B
100
AcDbEntity
  8
0
100
AcDbCircle
 62
2
  6
CONTINUOUS
 10
13.1912396216
 20
2.5648073559
 40
0.0024749995
100
AcDbArc
 50
359.9999571957
 51
90.0000428043
  0
LINE
  5
31C
100
AcDbEntity
  8
0
100
AcDbLine
 62
2
  6
CONTINUOUS
 10
13.1912396197
 20
2.5672823554
 11
13.1673166065
 21
2.5672823554
  0
ARC
  5
31D
100
AcDbEntity
  8
0
100
AcDbCircle
 62
2
  6
CONTINUOUS
 10
13.1673166046
 20
2.5697573549
 40
0.0024749995
100
AcDbArc
 50
179.9999571957
 51
270.0000428043
  0
LINE
  5
31E
100
AcDbEntity
  8
0
100
AcDbLine
 62
2
  6
CONTINUOUS
 10
13.1648416051
 20
2.5697573568
 11
13.1648416051
 21
2.5895573678
  0
ARC
  5
31F
100
AcDbEntity
  8
0
100
AcDbCircle
 62
2
  6
CONTINUOUS
 10
13.1673166046
 20
2.5895573696
 40
0.0024749995
100
AcDbArc
 50
89.9999571957
 51
180.0000428043
  0
LINE
  5
320
100
AcDbEntity
  8
0
100
AcDbLine
 62
2
  6
CONTINUOUS
 10
13.1673166065
 20
2.5920323691
 11
13.3691097184
 21
2.5920323691
  0
ARC
  5
321
100
AcDbEntity
  8
0
100
AcDbCircle
 62
2
  6
CONTINUOUS
 10
13.3691097202
 20
2.5895573696
 40
0.0024749995
100
AcDbArc
 50
359.9999571957
 51
90.0000428043
  0
LINE
  5
322
100
AcDbEntity
  8
0
100
AcDbLine
 62
2
  6
CONTINUOUS
 10
13.3715847197
 20
2.5895573678
 11
13.3715847197
 21
2.5565573495
  0
ARC
  5
323
100
AcDbEntity
  8
0
100
AcDbCircle
 62
2
  6
CONTINUOUS
 10
13.3691097202
 20
2.5565573476
 40
0.0024749995
100
AcDbArc
 50
269.9999571957
 51
0.0000428042
  0
LINE
  5
324
100
AcDbEntity
  8
0
100
AcDbLine
 62
2
  6
CONTINUOUS
 10
13.3691097184
 20
2.5540823481
 11
13.3272456952
 21
2.5540823481
  0
ARC
  5
325
100
AcDbEntity
  8
0
100
AcDbCircle
 62
2
  6
CONTINUOUS
 10
13.3272456933
 20
2.5565573476
 40
0.0024749995
100
AcDbArc
 50
179.9999571957
 51
270.0000428043
  0
LINE
  5
326
100
AcDbEntity
  8
0
100
AcDbLine
 62
2
  6
CONTINUOUS
 10
13.3247706938
 20
2.5565573495
 11
13.3247706938
 21
2.564807354
  0
ARC
  5
327
100
AcDbEntity
  8
0
100
AcDbCircle
 62
2
  6
CONTINUOUS
 10
13.3222956943
 20
2.5648073559
 40
0.0024749995
100
AcDbArc
 50
359.9999571957
 51
90.0000428043
  0
LINE
  5
328
100
AcDbEntity
  8
0
100
AcDbLine
 62
2
  6
CONTINUOUS
 10
13.3222956924
 20
2.5672823554
 11
13.2582556569
 21
2.5672823554
  0
ARC
  5
329
100
AcDbEntity
  8
0
100
AcDbCircle
 62
2
  6
CONTINUOUS
 10
13.2582556551
 20
2.5648073559
 40
0.0024749995
100
AcDbArc
 50
89.9999571957
 51
180.0000428043
  0
LINE
  5
32A
100
AcDbEntity
  8
0
100
AcDbLine
 62
2
  6
CONTINUOUS
 10
13.2557806555
 20
2.564807354
 11
13.2557806555
 21
2.5532573476
  0
ARC
  5
32B
100
AcDbEntity
  8
0
100
AcDbCircle
 62
2
  6
CONTINUOUS
 10
13.2582556551
 20
2.5532573458
 40
0.0024749995
100
AcDbArc
 50
179.9999571957
 51
270.0000428043
  0
LINE
  5
32C
100
AcDbEntity
  8
0
100
AcDbLine
 62
2
  6
CONTINUOUS
 10
13.2582556569
 20
2.5507823463
 11
13.2934226764
 21
2.5507823463
  0
ARC
  5
32D
100
AcDbEntity
  8
0
100
AcDbCircle
 62
2
  6
CONTINUOUS
 10
13.2934226783
 20
2.5483073467
 40
0.0024749995
100
AcDbArc
 50
359.9999571957
 51
90.0000428043
  0
LINE
  5
32E
100
AcDbEntity
  8
0
100
AcDbLine
 62
2
  6
CONTINUOUS
 10
13.2958976778
 20
2.5483073449
 11
13.2958976778
 21
2.5349523375
  0
ARC
  5
32F
100
AcDbEntity
  8
0
100
AcDbCircle
 62
2
  6
CONTINUOUS
 10
13.2934226783
 20
2.5349523356
 40
0.0024749995
100
AcDbArc
 50
269.9999571957
 51
0.0000428042
  0
LINE
  5
330
100
AcDbEntity
  8
0
100
AcDbLine
 62
2
  6
CONTINUOUS
 10
13.7286871589
 20
2.5350697372
 11
13.7286871589
 21
2.5456869438
  0
LINE
  5
331
100
AcDbEntity
  8
0
100
AcDbLine
 62
2
  6
CONTINUOUS
 10
13.7086871478
 20
2.5004302075
 11
13.7086871478
 21
2.5803264735
  0
LINE
  5
332
100
AcDbEntity
  8
0
100
AcDbLine
 62
2
  6
CONTINUOUS
 10
13.6886871368
 20
2.4843919416
 11
13.6886871368
 21
2.5963647394
  0
LINE
  5
333
100
AcDbEntity
  8
0
100
AcDbLine
 62
2
  6
CONTINUOUS
 10
13.6686871257
 20
2.4726017898
 11
13.6686871257
 21
2.6081548911
  0
LINE
  5
334
100
AcDbEntity
  8
0
100
AcDbLine
 62
2
  6
CONTINUOUS
 10
13.6486871146
 20
2.4628062688
 11
13.6486871146
 21
2.6179504122
  0
LINE
  5
335
100
AcDbEntity
  8
0
100
AcDbLine
 62
2
  6
CONTINUOUS
 10
13.6286871035
 20
2.4541253507
 11
13.6286871035
 21
2.5062483056
  0
LINE
  5
336
100
AcDbEntity
  8
0
100
AcDbLine
 62
2
  6
CONTINUOUS
 10
13.6286871035
 20
2.5301143348
 11
13.6286871035
 21
2.6266313303
  0
LINE
  5
337
100
AcDbEntity
  8
0
100
AcDbLine
 62
2
  6
CONTINUOUS
 10
13.6086870924
 20
2.4465537903
 11
13.6086870924
 21
2.4918774918
  0
LINE
  5
338
100
AcDbEntity
  8
0
100
AcDbLine
 62
2
  6
CONTINUOUS
 10
13.6086870924
 20
2.5165781173
 11
13.6086870924
 21
2.6342028907
  0
LINE
  5
339
100
AcDbEntity
  8
0
100
AcDbLine
 62
2
  6
CONTINUOUS
 10
13.5886870813
 20
2.4398033466
 11
13.5886870813
 21
2.4912273132
  0
LINE
  5
33A
100
AcDbEntity
  8
0
100
AcDbLine
 62
2
  6
CONTINUOUS
 10
13.5886870813
 20
2.5391840845
 11
13.5886870813
 21
2.5454298327
  0
LINE
  5
33B
100
AcDbEntity
  8
0
100
AcDbLine
 62
2
  6
CONTINUOUS
 10
13.5886870813
 20
2.5862063472
 11
13.5886870813
 21
2.6409533343
  0
LINE
  5
33C
100
AcDbEntity
  8
0
100
AcDbLine
 62
2
  6
CONTINUOUS
 10
13.5686870702
 20
2.4334702189
 11
13.5686870702
 21
2.4912273132
  0
LINE
  5
33D
100
AcDbEntity
  8
0
100
AcDbLine
 62
2
  6
CONTINUOUS
 10
13.5686870702
 20
2.5906587765
 11
13.5686870702
 21
2.647286462
  0
LINE
  5
33E
100
AcDbEntity
  8
0
100
AcDbLine
 62
2
  6
CONTINUOUS
 10
13.5486870591
 20
2.4278968124
 11
13.5486870591
 21
2.4937461006
  0
LINE
  5
33F
100
AcDbEntity
  8
0
100
AcDbLine
 62
2
  6
CONTINUOUS
 10
13.5486870591
 20
2.5920323691
 11
13.5486870591
 21
2.6528598686
  0
LINE
  5
340
100
AcDbEntity
  8
0
100
AcDbLine
 62
2
  6
CONTINUOUS
 10
13.528687048
 20
2.4225427674
 11
13.528687048
 21
2.5270426993
  0
LINE
  5
341
100
AcDbEntity
  8
0
100
AcDbLine
 62
2
  6
CONTINUOUS
 10
13.528687048
 20
2.5505166259
 11
13.528687048
 21
2.5668657091
  0
LINE
  5
342
100
AcDbEntity
  8
0
100
AcDbLine
 62
2
  6
CONTINUOUS
 10
13.528687048
 20
2.5920323691
 11
13.528687048
 21
2.6582139136
  0
LINE
  5
343
100
AcDbEntity
  8
0
100
AcDbLine
 62
2
  6
CONTINUOUS
 10
13.5086870369
 20
2.4177306791
 11
13.5086870369
 21
2.4912273132
  0
LINE
  5
344
100
AcDbEntity
  8
0
100
AcDbLine
 62
2
  6
CONTINUOUS
 10
13.5086870369
 20
2.5159553269
 11
13.5086870369
 21
2.5306043351
  0
LINE
  5
345
100
AcDbEntity
  8
0
100
AcDbLine
 62
2
  6
CONTINUOUS
 10
13.5086870369
 20
2.5496073456
 11
13.5086870369
 21
2.5672823554
  0
LINE
  5
346
100
AcDbEntity
  8
0
100
AcDbLine
 62
2
  6
CONTINUOUS
 10
13.5086870369
 20
2.5920323691
 11
13.5086870369
 21
2.6630260019
  0
LINE
  5
347
100
AcDbEntity
  8
0
100
AcDbLine
 62
2
  6
CONTINUOUS
 10
13.4886870258
 20
2.4131795254
 11
13.4886870258
 21
2.4912273132
  0
LINE
  5
348
100
AcDbEntity
  8
0
100
AcDbLine
 62
2
  6
CONTINUOUS
 10
13.4886870258
 20
2.5159553269
 11
13.4886870258
 21
2.5306043351
  0
LINE
  5
349
100
AcDbEntity
  8
0
100
AcDbLine
 62
2
  6
CONTINUOUS
 10
13.4886870258
 20
2.5496073456
 11
13.4886870258
 21
2.5672823554
  0
LINE
  5
34A
100
AcDbEntity
  8
0
100
AcDbLine
 62
2
  6
CONTINUOUS
 10
13.4886870258
 20
2.5920323691
 11
13.4886870258
 21
2.6675771555
  0
LINE
  5
34B
100
AcDbEntity
  8
0
100
AcDbLine
 62
2
  6
CONTINUOUS
 10
13.4686870147
 20
2.4088819672
 11
13.4686870147
 21
2.4912273132
  0
LINE
  5
34C
100
AcDbEntity
  8
0
100
AcDbLine
 62
2
  6
CONTINUOUS
 10
13.4686870147
 20
2.5920323691
 11
13.4686870147
 21
2.6718747138
  0
LINE
  5
34D
100
AcDbEntity
  8
0
100
AcDbLine
 62
2
  6
CONTINUOUS
 10
13.4486870037
 20
2.4050092072
 11
13.4486870037
 21
2.4912273132
  0
LINE
  5
34E
100
AcDbEntity
  8
0
100
AcDbLine
 62
2
  6
CONTINUOUS
 10
13.4486870037
 20
2.5920323691
 11
13.4486870037
 21
2.6757474738
  0
LINE
  5
34F
100
AcDbEntity
  8
0
100
AcDbLine
 62
2
  6
CONTINUOUS
 10
13.4286869926
 20
2.4011364471
 11
13.4286869926
 21
2.4912273132
  0
LINE
  5
350
100
AcDbEntity
  8
0
100
AcDbLine
 62
2
  6
CONTINUOUS
 10
13.4286869926
 20
2.5920323691
 11
13.4286869926
 21
2.6796202339
  0
LINE
  5
351
100
AcDbEntity
  8
0
100
AcDbLine
 62
2
  6
CONTINUOUS
 10
13.4086869815
 20
2.3980226662
 11
13.4086869815
 21
2.4912273132
  0
LINE
  5
352
100
AcDbEntity
  8
0
100
AcDbLine
 62
2
  6
CONTINUOUS
 10
13.4086869815
 20
2.515977327
 11
13.4086869815
 21
2.5672823554
  0
LINE
  5
353
100
AcDbEntity
  8
0
100
AcDbLine
 62
2
  6
CONTINUOUS
 10
13.4086869815
 20
2.5920323691
 11
13.4086869815
 21
2.6827340148
  0
LINE
  5
354
100
AcDbEntity
  8
0
100
AcDbLine
 62
2
  6
CONTINUOUS
 10
13.3886869704
 20
2.3950052774
 11
13.3886869704
 21
2.6857514036
  0
LINE
  5
355
100
AcDbEntity
  8
0
100
AcDbLine
 62
2
  6
CONTINUOUS
 10
13.3686869593
 20
2.3919878885
 11
13.3686869593
 21
2.4912273132
  0
LINE
  5
356
100
AcDbEntity
  8
0
100
AcDbLine
 62
2
  6
CONTINUOUS
 10
13.3686869593
 20
2.5291773343
 11
13.3686869593
 21
2.5540823481
  0
LINE
  5
357
100
AcDbEntity
  8
0
100
AcDbLine
 62
2
  6
CONTINUOUS
 10
13.3686869593
 20
2.5920323691
 11
13.3686869593
 21
2.6887687924
  0
LINE
  5
358
100
AcDbEntity
  8
0
100
AcDbLine
 62
2
  6
CONTINUOUS
 10
13.3486869482
 20
2.3889704997
 11
13.3486869482
 21
2.4912273132
  0
LINE
  5
359
100
AcDbEntity
  8
0
100
AcDbLine
 62
2
  6
CONTINUOUS
 10
13.3486869482
 20
2.5291773343
 11
13.3486869482
 21
2.5540823481
  0
LINE
  5
35A
100
AcDbEntity
  8
0
100
AcDbLine
 62
2
  6
CONTINUOUS
 10
13.3486869482
 20
2.5920323691
 11
13.3486869482
 21
2.6917861813
  0
LINE
  5
35B
100
AcDbEntity
  8
0
100
AcDbLine
 62
2
  6
CONTINUOUS
 10
13.3286869371
 20
2.3859531109
 11
13.3286869371
 21
2.4912273132
  0
LINE
  5
35C
100
AcDbEntity
  8
0
100
AcDbLine
 62
2
  6
CONTINUOUS
 10
13.3286869371
 20
2.5291773343
 11
13.3286869371
 21
2.5540823481
  0
LINE
  5
35D
100
AcDbEntity
  8
0
100
AcDbLine
 62
2
  6
CONTINUOUS
 10
13.3286869371
 20
2.5920323691
 11
13.3286869371
 21
2.6948035701
  0
LINE
  5
35E
100
AcDbEntity
  8
0
100
AcDbLine
 62
2
  6
CONTINUOUS
 10
13.308686926
 20
2.3833355437
 11
13.308686926
 21
2.4912273132
  0
LINE
  5
35F
100
AcDbEntity
  8
0
100
AcDbLine
 62
2
  6
CONTINUOUS
 10
13.308686926
 20
2.515977327
 11
13.308686926
 21
2.5672823554
  0
LINE
  5
360
100
AcDbEntity
  8
0
100
AcDbLine
 62
2
  6
CONTINUOUS
 10
13.308686926
 20
2.5920323691
 11
13.308686926
 21
2.6974211373
  0
LINE
  5
361
100
AcDbEntity
  8
0
100
AcDbLine
 62
2
  6
CONTINUOUS
 10
13.2886869149
 20
2.3812612684
 11
13.2886869149
 21
2.4912273132
  0
LINE
  5
362
100
AcDbEntity
  8
0
100
AcDbLine
 62
2
  6
CONTINUOUS
 10
13.2886869149
 20
2.515977327
 11
13.2886869149
 21
2.5324773361
  0
LINE
  5
363
100
AcDbEntity
  8
0
100
AcDbLine
 62
2
  6
CONTINUOUS
 10
13.2886869149
 20
2.5507823463
 11
13.2886869149
 21
2.5672823554
  0
LINE
  5
364
100
AcDbEntity
  8
0
100
AcDbLine
 62
2
  6
CONTINUOUS
 10
13.2886869149
 20
2.5920323691
 11
13.2886869149
 21
2.6994954125
  0
LINE
  5
365
100
AcDbEntity
  8
0
100
AcDbLine
 62
2
  6
CONTINUOUS
 10
13.2686869038
 20
2.3791869932
 11
13.2686869038
 21
2.4912273132
  0
LINE
  5
366
100
AcDbEntity
  8
0
100
AcDbLine
 62
2
  6
CONTINUOUS
 10
13.2686869038
 20
2.515977327
 11
13.2686869038
 21
2.5324773361
  0
LINE
  5
367
100
AcDbEntity
  8
0
100
AcDbLine
 62
2
  6
CONTINUOUS
 10
13.2686869038
 20
2.5507823463
 11
13.2686869038
 21
2.5672823554
  0
LINE
  5
368
100
AcDbEntity
  8
0
100
AcDbLine
 62
2
  6
CONTINUOUS
 10
13.2686869038
 20
2.5920323691
 11
13.2686869038
 21
2.7015696878
  0
LINE
  5
369
100
AcDbEntity
  8
0
100
AcDbLine
 62
2
  6
CONTINUOUS
 10
13.2486868927
 20
2.377112718
 11
13.2486868927
 21
2.4912273132
  0
LINE
  5
36A
100
AcDbEntity
  8
0
100
AcDbLine
 62
2
  6
CONTINUOUS
 10
13.2486868927
 20
2.5920323691
 11
13.2486868927
 21
2.703643963
  0
LINE
  5
36B
100
AcDbEntity
  8
0
100
AcDbLine
 62
2
  6
CONTINUOUS
 10
13.2286868817
 20
2.3750384428
 11
13.2286868817
 21
2.4912273132
  0
LINE
  5
36C
100
AcDbEntity
  8
0
100
AcDbLine
 62
2
  6
CONTINUOUS
 10
13.2286868817
 20
2.5920323691
 11
13.2286868817
 21
2.7057182382
  0
LINE
  5
36D
100
AcDbEntity
  8
0
100
AcDbLine
 62
2
  6
CONTINUOUS
 10
13.2086868706
 20
2.3729641676
 11
13.2086868706
 21
2.4912273132
  0
LINE
  5
36E
100
AcDbEntity
  8
0
100
AcDbLine
 62
2
  6
CONTINUOUS
 10
13.2086868706
 20
2.5920323691
 11
13.2086868706
 21
2.7077925134
  0
LINE
  5
36F
100
AcDbEntity
  8
0
100
AcDbLine
 62
2
  6
CONTINUOUS
 10
13.1886868595
 20
2.3712344456
 11
13.1886868595
 21
2.4912273132
  0
LINE
  5
370
100
AcDbEntity
  8
0
100
AcDbLine
 62
2
  6
CONTINUOUS
 10
13.1886868595
 20
2.515977327
 11
13.1886868595
 21
2.5672823554
  0
LINE
  5
371
100
AcDbEntity
  8
0
100
AcDbLine
 62
2
  6
CONTINUOUS
 10
13.1886868595
 20
2.5920323691
 11
13.1886868595
 21
2.7095222354
  0
LINE
  5
372
100
AcDbEntity
  8
0
100
AcDbLine
 62
2
  6
CONTINUOUS
 10
13.1686868484
 20
2.3699682418
 11
13.1686868484
 21
2.4912273132
  0
LINE
  5
373
100
AcDbEntity
  8
0
100
AcDbLine
 62
2
  6
CONTINUOUS
 10
13.1686868484
 20
2.515977327
 11
13.1686868484
 21
2.5672823554
  0
LINE
  5
374
100
AcDbEntity
  8
0
100
AcDbLine
 62
2
  6
CONTINUOUS
 10
13.1686868484
 20
2.5920323691
 11
13.1686868484
 21
2.7107884392
  0
LINE
  5
375
100
AcDbEntity
  8
0
100
AcDbLine
 62
2
  6
CONTINUOUS
 10
13.1486868373
 20
2.3687020381
 11
13.1486868373
 21
2.7120546429
  0
LINE
  5
376
100
AcDbEntity
  8
0
100
AcDbLine
 62
2
  6
CONTINUOUS
 10
13.1286868262
 20
2.3674358343
 11
13.1286868262
 21
2.5672823554
  0
LINE
  5
377
100
AcDbEntity
  8
0
100
AcDbLine
 62
2
  6
CONTINUOUS
 10
13.1286868262
 20
2.5920323691
 11
13.1286868262
 21
2.7133208466
  0
LINE
  5
378
100
AcDbEntity
  8
0
100
AcDbLine
 62
2
  6
CONTINUOUS
 10
13.1086868151
 20
2.3661696306
 11
13.1086868151
 21
2.4912273132
  0
LINE
  5
379
100
AcDbEntity
  8
0
100
AcDbLine
 62
2
  6
CONTINUOUS
 10
13.1086868151
 20
2.5920323691
 11
13.1086868151
 21
2.7145870504
  0
LINE
  5
37A
100
AcDbEntity
  8
0
100
AcDbLine
 62
2
  6
CONTINUOUS
 10
13.088686804
 20
2.3649034269
 11
13.088686804
 21
2.4912273132
  0
LINE
  5
37B
100
AcDbEntity
  8
0
100
AcDbLine
 62
2
  6
CONTINUOUS
 10
13.088686804
 20
2.5920323691
 11
13.088686804
 21
2.7158532541
  0
LINE
  5
37C
100
AcDbEntity
  8
0
100
AcDbLine
 62
2
  6
CONTINUOUS
 10
13.0686867929
 20
2.3636739922
 11
13.0686867929
 21
2.4912273132
  0
LINE
  5
37D
100
AcDbEntity
  8
0
100
AcDbLine
 62
2
  6
CONTINUOUS
 10
13.0686867929
 20
2.5475272398
 11
13.0686867929
 21
2.5672823554
  0
LINE
  5
37E
100
AcDbEntity
  8
0
100
AcDbLine
 62
2
  6
CONTINUOUS
 10
13.0686867929
 20
2.5920323691
 11
13.0686867929
 21
2.7170826887
  0
LINE
  5
37F
100
AcDbEntity
  8
0
100
AcDbLine
 62
2
  6
CONTINUOUS
 10
13.0486867818
 20
2.363143203
 11
13.0486867818
 21
2.4912273132
  0
LINE
  5
380
100
AcDbEntity
  8
0
100
AcDbLine
 62
2
  6
CONTINUOUS
 10
13.0486867818
 20
2.5666100882
 11
13.0486867818
 21
2.717613478
  0
LINE
  5
381
100
AcDbEntity
  8
0
100
AcDbLine
 62
2
  6
CONTINUOUS
 10
13.0286867707
 20
2.3626124138
 11
13.0286867707
 21
2.50359263
  0
LINE
  5
382
100
AcDbEntity
  8
0
100
AcDbLine
 62
2
  6
CONTINUOUS
 10
13.0286867707
 20
2.5856929366
 11
13.0286867707
 21
2.7181442672
  0
LINE
  5
383
100
AcDbEntity
  8
0
100
AcDbLine
 62
2
  6
CONTINUOUS
 10
13.0086867596
 20
2.3620816246
 11
13.0086867596
 21
2.5226754472
  0
LINE
  5
384
100
AcDbEntity
  8
0
100
AcDbLine
 62
2
  6
CONTINUOUS
 10
13.0086867596
 20
2.5920323691
 11
13.0086867596
 21
2.7186750564
  0
LINE
  5
385
100
AcDbEntity
  8
0
100
AcDbLine
 62
2
  6
CONTINUOUS
 10
12.9886867486
 20
2.3615508354
 11
12.9886867486
 21
2.4912273132
  0
LINE
  5
386
100
AcDbEntity
  8
0
100
AcDbLine
 62
2
  6
CONTINUOUS
 10
12.9886867486
 20
2.515977327
 11
12.9886867486
 21
2.5417582644
  0
LINE
  5
387
100
AcDbEntity
  8
0
100
AcDbLine
 62
2
  6
CONTINUOUS
 10
12.9886867486
 20
2.5920323691
 11
12.9886867486
 21
2.7192058456
  0
LINE
  5
388
100
AcDbEntity
  8
0
100
AcDbLine
 62
2
  6
CONTINUOUS
 10
12.9686867375
 20
2.3610200462
 11
12.9686867375
 21
2.4912273132
  0
LINE
  5
389
100
AcDbEntity
  8
0
100
AcDbLine
 62
2
  6
CONTINUOUS
 10
12.9686867375
 20
2.5920323691
 11
12.9686867375
 21
2.7197366348
  0
LINE
  5
38A
100
AcDbEntity
  8
0
100
AcDbLine
 62
2
  6
CONTINUOUS
 10
12.9486867264
 20
2.360489257
 11
12.9486867264
 21
2.4912273132
  0
LINE
  5
38B
100
AcDbEntity
  8
0
100
AcDbLine
 62
2
  6
CONTINUOUS
 10
12.9486867264
 20
2.5920323691
 11
12.9486867264
 21
2.720267424
  0
LINE
  5
38C
100
AcDbEntity
  8
0
100
AcDbLine
 62
2
  6
CONTINUOUS
 10
12.9286867153
 20
2.3602836008
 11
12.9286867153
 21
2.4912273132
  0
LINE
  5
38D
100
AcDbEntity
  8
0
100
AcDbLine
 62
2
  6
CONTINUOUS
 10
12.9286867153
 20
2.515977327
 11
12.9286867153
 21
2.5672823554
  0
LINE
  5
38E
100
AcDbEntity
  8
0
100
AcDbLine
 62
2
  6
CONTINUOUS
 10
12.9286867153
 20
2.5920323691
 11
12.9286867153
 21
2.7204730802
  0
LINE
  5
38F
100
AcDbEntity
  8
0
100
AcDbLine
 62
2
  6
CONTINUOUS
 10
12.9086867042
 20
2.3604597639
 11
12.9086867042
 21
2.7202969171
  0
LINE
  5
390
100
AcDbEntity
  8
0
100
AcDbLine
 62
2
  6
CONTINUOUS
 10
12.8886866931
 20
2.360635927
 11
12.8886866931
 21
2.5672823554
  0
LINE
  5
391
100
AcDbEntity
  8
0
100
AcDbLine
 62
2
  6
CONTINUOUS
 10
12.8886866931
 20
2.5920323691
 11
12.8886866931
 21
2.720120754
  0
LINE
  5
392
100
AcDbEntity
  8
0
100
AcDbLine
 62
2
  6
CONTINUOUS
 10
12.868686682
 20
2.3608120901
 11
12.868686682
 21
2.491232357
  0
LINE
  5
393
100
AcDbEntity
  8
0
100
AcDbLine
 62
2
  6
CONTINUOUS
 10
12.868686682
 20
2.5920323691
 11
12.868686682
 21
2.7199445909
  0
LINE
  5
394
100
AcDbEntity
  8
0
100
AcDbLine
 62
2
  6
CONTINUOUS
 10
12.8486866709
 20
2.3609882532
 11
12.8486866709
 21
2.4912273132
  0
LINE
  5
395
100
AcDbEntity
  8
0
100
AcDbLine
 62
2
  6
CONTINUOUS
 10
12.8486866709
 20
2.5920323691
 11
12.8486866709
 21
2.7197684278
  0
LINE
  5
396
100
AcDbEntity
  8
0
100
AcDbLine
 62
2
  6
CONTINUOUS
 10
12.8286866598
 20
2.3611644163
 11
12.8286866598
 21
2.4912273132
  0
LINE
  5
397
100
AcDbEntity
  8
0
100
AcDbLine
 62
2
  6
CONTINUOUS
 10
12.8286866598
 20
2.5396527025
 11
12.8286866598
 21
2.5672823554
  0
LINE
  5
398
100
AcDbEntity
  8
0
100
AcDbLine
 62
2
  6
CONTINUOUS
 10
12.8286866598
 20
2.5920323691
 11
12.8286866598
 21
2.7195922647
  0
LINE
  5
399
100
AcDbEntity
  8
0
100
AcDbLine
 62
2
  6
CONTINUOUS
 10
12.8086866487
 20
2.3613405794
 11
12.8086866487
 21
2.4912273132
  0
LINE
  5
39A
100
AcDbEntity
  8
0
100
AcDbLine
 62
2
  6
CONTINUOUS
 10
12.8086866487
 20
2.5587355508
 11
12.8086866487
 21
2.7194161016
  0
LINE
  5
39B
100
AcDbEntity
  8
0
100
AcDbLine
 62
2
  6
CONTINUOUS
 10
12.7886866376
 20
2.3621089572
 11
12.7886866376
 21
2.4957181055
  0
LINE
  5
39C
100
AcDbEntity
  8
0
100
AcDbLine
 62
2
  6
CONTINUOUS
 10
12.7886866376
 20
2.5778183992
 11
12.7886866376
 21
2.7186477238
  0
LINE
  5
39D
100
AcDbEntity
  8
0
100
AcDbLine
 62
2
  6
CONTINUOUS
 10
12.7686866266
 20
2.3630013935
 11
12.7686866266
 21
2.5148009227
  0
LINE
  5
39E
100
AcDbEntity
  8
0
100
AcDbLine
 62
2
  6
CONTINUOUS
 10
12.7686866266
 20
2.5920323691
 11
12.7686866266
 21
2.7177552874
  0
LINE
  5
39F
100
AcDbEntity
  8
0
100
AcDbLine
 62
2
  6
CONTINUOUS
 10
12.7486866155
 20
2.3638938299
 11
12.7486866155
 21
2.4913263218
  0
LINE
  5
3A0
100
AcDbEntity
  8
0
100
AcDbLine
 62
2
  6
CONTINUOUS
 10
12.7486866155
 20
2.5158783184
 11
12.7486866155
 21
2.5338837399
  0
LINE
  5
3A1
100
AcDbEntity
  8
0
100
AcDbLine
 62
2
  6
CONTINUOUS
 10
12.7486866155
 20
2.5920323691
 11
12.7486866155
 21
2.7168628511
  0
LINE
  5
3A2
100
AcDbEntity
  8
0
100
AcDbLine
 62
2
  6
CONTINUOUS
 10
12.7286866044
 20
2.3647862663
 11
12.7286866044
 21
2.4912273132
  0
LINE
  5
3A3
100
AcDbEntity
  8
0
100
AcDbLine
 62
2
  6
CONTINUOUS
 10
12.7286866044
 20
2.515977327
 11
12.7286866044
 21
2.5527601554
  0
LINE
  5
3A4
100
AcDbEntity
  8
0
100
AcDbLine
 62
2
  6
CONTINUOUS
 10
12.7286866044
 20
2.5920323691
 11
12.7286866044
 21
2.7159704147
  0
LINE
  5
3A5
100
AcDbEntity
  8
0
100
AcDbLine
 62
2
  6
CONTINUOUS
 10
12.7086865933
 20
2.3656787026
 11
12.7086865933
 21
2.4912273132
  0
LINE
  5
3A6
100
AcDbEntity
  8
0
100
AcDbLine
 62
2
  6
CONTINUOUS
 10
12.7086865933
 20
2.5920323691
 11
12.7086865933
 21
2.7150779784
  0
LINE
  5
3A7
100
AcDbEntity
  8
0
100
AcDbLine
 62
2
  6
CONTINUOUS
 10
12.6886865822
 20
2.366571139
 11
12.6886865822
 21
2.4912273132
  0
LINE
  5
3A8
100
AcDbEntity
  8
0
100
AcDbLine
 62
2
  6
CONTINUOUS
 10
12.6886865822
 20
2.515977327
 11
12.6886865822
 21
2.5672823554
  0
LINE
  5
3A9
100
AcDbEntity
  8
0
100
AcDbLine
 62
2
  6
CONTINUOUS
 10
12.6886865822
 20
2.5920323691
 11
12.6886865822
 21
2.714185542
  0
LINE
  5
3AA
100
AcDbEntity
  8
0
100
AcDbLine
 62
2
  6
CONTINUOUS
 10
12.6686865711
 20
2.3677104027
 11
12.6686865711
 21
2.7130462783
  0
LINE
  5
3AB
100
AcDbEntity
  8
0
100
AcDbLine
 62
2
  6
CONTINUOUS
 10
12.64868656
 20
2.3693682721
 11
12.64868656
 21
2.7113884089
  0
LINE
  5
3AC
100
AcDbEntity
  8
0
100
AcDbLine
 62
2
  6
CONTINUOUS
 10
12.6286865489
 20
2.3710261415
 11
12.6286865489
 21
2.4912273132
  0
LINE
  5
3AD
100
AcDbEntity
  8
0
100
AcDbLine
 62
2
  6
CONTINUOUS
 10
12.6286865489
 20
2.515977327
 11
12.6286865489
 21
2.7097305395
  0
LINE
  5
3AE
100
AcDbEntity
  8
0
100
AcDbLine
 62
2
  6
CONTINUOUS
 10
12.6086865378
 20
2.372684011
 11
12.6086865378
 21
2.4912273132
  0
LINE
  5
3AF
100
AcDbEntity
  8
0
100
AcDbLine
 62
2
  6
CONTINUOUS
 10
12.6086865378
 20
2.5351122279
 11
12.6086865378
 21
2.70807267
  0
LINE
  5
3B0
100
AcDbEntity
  8
0
100
AcDbLine
 62
2
  6
CONTINUOUS
 10
12.5886865267
 20
2.3743418804
 11
12.5886865267
 21
2.4912273132
  0
LINE
  5
3B1
100
AcDbEntity
  8
0
100
AcDbLine
 62
2
  6
CONTINUOUS
 10
12.5886865267
 20
2.5660172622
 11
12.5886865267
 21
2.7064148006
  0
LINE
  5
3B2
100
AcDbEntity
  8
0
100
AcDbLine
 62
2
  6
CONTINUOUS
 10
12.5686865156
 20
2.3759997498
 11
12.5686865156
 21
2.4912273132
  0
LINE
  5
3B3
100
AcDbEntity
  8
0
100
AcDbLine
 62
2
  6
CONTINUOUS
 10
12.5686865156
 20
2.5920323691
 11
12.5686865156
 21
2.7047569312
  0
LINE
  5
3B4
100
AcDbEntity
  8
0
100
AcDbLine
 62
2
  6
CONTINUOUS
 10
12.5486865045
 20
2.3777575277
 11
12.5486865045
 21
2.4912273132
  0
LINE
  5
3B5
100
AcDbEntity
  8
0
100
AcDbLine
 62
2
  6
CONTINUOUS
 10
12.5486865045
 20
2.515977327
 11
12.5486865045
 21
2.5275118824
  0
LINE
  5
3B6
100
AcDbEntity
  8
0
100
AcDbLine
 62
2
  6
CONTINUOUS
 10
12.5486865045
 20
2.5920323691
 11
12.5486865045
 21
2.7029991533
  0
LINE
  5
3B7
100
AcDbEntity
  8
0
100
AcDbLine
 62
2
  6
CONTINUOUS
 10
12.5286864935
 20
2.3802813811
 11
12.5286864935
 21
2.5296213345
  0
LINE
  5
3B8
100
AcDbEntity
  8
0
100
AcDbLine
 62
2
  6
CONTINUOUS
 10
12.5286864935
 20
2.5505713461
 11
12.5286864935
 21
2.5667383551
  0
LINE
  5
3B9
100
AcDbEntity
  8
0
100
AcDbLine
 62
2
  6
CONTINUOUS
 10
12.5286864935
 20
2.5920323691
 11
12.5286864935
 21
2.7004752999
  0
LINE
  5
3BA
100
AcDbEntity
  8
0
100
AcDbLine
 62
2
  6
CONTINUOUS
 10
12.5086864824
 20
2.3828052346
 11
12.5086864824
 21
2.4912273132
  0
LINE
  5
3BB
100
AcDbEntity
  8
0
100
AcDbLine
 62
2
  6
CONTINUOUS
 10
12.5086864824
 20
2.515977327
 11
12.5086864824
 21
2.5279667721
  0
LINE
  5
3BC
100
AcDbEntity
  8
0
100
AcDbLine
 62
2
  6
CONTINUOUS
 10
12.5086864824
 20
2.5868602074
 11
12.5086864824
 21
2.6979514464
  0
LINE
  5
3BD
100
AcDbEntity
  8
0
100
AcDbLine
 62
2
  6
CONTINUOUS
 10
12.4886864713
 20
2.385329088
 11
12.4886864713
 21
2.4912273132
  0
LINE
  5
3BE
100
AcDbEntity
  8
0
100
AcDbLine
 62
2
  6
CONTINUOUS
 10
12.4886864713
 20
2.5553401045
 11
12.4886864713
 21
2.695427593
  0
LINE
  5
3BF
100
AcDbEntity
  8
0
100
AcDbLine
 62
2
  6
CONTINUOUS
 10
12.4686864602
 20
2.3878529415
 11
12.4686864602
 21
2.4912273132
  0
LINE
  5
3C0
100
AcDbEntity
  8
0
100
AcDbLine
 62
2
  6
CONTINUOUS
 10
12.4686864602
 20
2.5238200015
 11
12.4686864602
 21
2.6929037395
  0
LINE
  5
3C1
100
AcDbEntity
  8
0
100
AcDbLine
 62
2
  6
CONTINUOUS
 10
12.4486864491
 20
2.390376795
 11
12.4486864491
 21
2.4912273132
  0
LINE
  5
3C2
100
AcDbEntity
  8
0
100
AcDbLine
 62
2
  6
CONTINUOUS
 10
12.4486864491
 20
2.515977327
 11
12.4486864491
 21
2.690379886
  0
LINE
  5
3C3
100
AcDbEntity
  8
0
100
AcDbLine
 62
2
  6
CONTINUOUS
 10
12.428686438
 20
2.3931794042
 11
12.428686438
 21
2.6875772768
  0
LINE
  5
3C4
100
AcDbEntity
  8
0
100
AcDbLine
 62
2
  6
CONTINUOUS
 10
12.4086864269
 20
2.3964643301
 11
12.4086864269
 21
2.5013773986
  0
LINE
  5
3C5
100
AcDbEntity
  8
0
100
AcDbLine
 62
2
  6
CONTINUOUS
 10
12.4086864269
 20
2.5325739971
 11
12.4086864269
 21
2.5537224311
  0
LINE
  5
3C6
100
AcDbEntity
  8
0
100
AcDbLine
 62
2
  6
CONTINUOUS
 10
12.4086864269
 20
2.5791473398
 11
12.4086864269
 21
2.6842923509
  0
LINE
  5
3C7
100
AcDbEntity
  8
0
100
AcDbLine
 62
2
  6
CONTINUOUS
 10
12.3886864158
 20
2.399749256
 11
12.3886864158
 21
2.4921022658
  0
LINE
  5
3C8
100
AcDbEntity
  8
0
100
AcDbLine
 62
2
  6
CONTINUOUS
 10
12.3886864158
 20
2.5895929958
 11
12.3886864158
 21
2.681007425
  0
LINE
  5
3C9
100
AcDbEntity
  8
0
100
AcDbLine
 62
2
  6
CONTINUOUS
 10
12.3686864047
 20
2.403451877
 11
12.3686864047
 21
2.4912273132
  0
LINE
  5
3CA
100
AcDbEntity
  8
0
100
AcDbLine
 62
2
  6
CONTINUOUS
 10
12.3686864047
 20
2.5920323691
 11
12.3686864047
 21
2.677304804
  0
LINE
  5
3CB
100
AcDbEntity
  8
0
100
AcDbLine
 62
2
  6
CONTINUOUS
 10
12.3486863936
 20
2.407324637
 11
12.3486863936
 21
2.4912273132
  0
LINE
  5
3CC
100
AcDbEntity
  8
0
100
AcDbLine
 62
2
  6
CONTINUOUS
 10
12.3486863936
 20
2.5920323691
 11
12.3486863936
 21
2.673432044
  0
LINE
  5
3CD
100
AcDbEntity
  8
0
100
AcDbLine
 62
2
  6
CONTINUOUS
 10
12.3286863825
 20
2.4113493968
 11
12.3286863825
 21
2.4912273132
  0
LINE
  5
3CE
100
AcDbEntity
  8
0
100
AcDbLine
 62
2
  6
CONTINUOUS
 10
12.3286863825
 20
2.515977327
 11
12.3286863825
 21
2.5333023366
  0
LINE
  5
3CF
100
AcDbEntity
  8
0
100
AcDbLine
 62
2
  6
CONTINUOUS
 10
12.3286863825
 20
2.5499573458
 11
12.3286863825
 21
2.5672823554
  0
LINE
  5
3D0
100
AcDbEntity
  8
0
100
AcDbLine
 62
2
  6
CONTINUOUS
 10
12.3286863825
 20
2.5920323691
 11
12.3286863825
 21
2.6694072842
  0
LINE
  5
3D1
100
AcDbEntity
  8
0
100
AcDbLine
 62
2
  6
CONTINUOUS
 10
12.3086863715
 20
2.4159005505
 11
12.3086863715
 21
2.4912273132
  0
LINE
  5
3D2
100
AcDbEntity
  8
0
100
AcDbLine
 62
2
  6
CONTINUOUS
 10
12.3086863715
 20
2.515977327
 11
12.3086863715
 21
2.5333023366
  0
LINE
  5
3D3
100
AcDbEntity
  8
0
100
AcDbLine
 62
2
  6
CONTINUOUS
 10
12.3086863715
 20
2.5499573458
 11
12.3086863715
 21
2.5672823554
  0
LINE
  5
3D4
100
AcDbEntity
  8
0
100
AcDbLine
 62
2
  6
CONTINUOUS
 10
12.3086863715
 20
2.5920323691
 11
12.3086863715
 21
2.6648561305
  0
LINE
  5
3D5
100
AcDbEntity
  8
0
100
AcDbLine
 62
2
  6
CONTINUOUS
 10
12.2886863604
 20
2.4204517041
 11
12.2886863604
 21
2.4912273132
  0
LINE
  5
3D6
100
AcDbEntity
  8
0
100
AcDbLine
 62
2
  6
CONTINUOUS
 10
12.2886863604
 20
2.5920323691
 11
12.2886863604
 21
2.6603049769
  0
LINE
  5
3D7
100
AcDbEntity
  8
0
100
AcDbLine
 62
2
  6
CONTINUOUS
 10
12.2686863493
 20
2.4257438218
 11
12.2686863493
 21
2.4912273132
  0
LINE
  5
3D8
100
AcDbEntity
  8
0
100
AcDbLine
 62
2
  6
CONTINUOUS
 10
12.2686863493
 20
2.5920323691
 11
12.2686863493
 21
2.6550128592
  0
LINE
  5
3D9
100
AcDbEntity
  8
0
100
AcDbLine
 62
2
  6
CONTINUOUS
 10
12.2486863382
 20
2.4310978667
 11
12.2486863382
 21
2.4912273132
  0
LINE
  5
3DA
100
AcDbEntity
  8
0
100
AcDbLine
 62
2
  6
CONTINUOUS
 10
12.2486863382
 20
2.5920323691
 11
12.2486863382
 21
2.6496588142
  0
LINE
  5
3DB
100
AcDbEntity
  8
0
100
AcDbLine
 62
2
  6
CONTINUOUS
 10
12.2286863271
 20
2.4372566433
 11
12.2286863271
 21
2.4912273132
  0
LINE
  5
3DC
100
AcDbEntity
  8
0
100
AcDbLine
 62
2
  6
CONTINUOUS
 10
12.2286863271
 20
2.515977327
 11
12.2286863271
 21
2.5672823554
  0
LINE
  5
3DD
100
AcDbEntity
  8
0
100
AcDbLine
 62
2
  6
CONTINUOUS
 10
12.2286863271
 20
2.5920323691
 11
12.2286863271
 21
2.6435000377
  0
LINE
  5
3DE
100
AcDbEntity
  8
0
100
AcDbLine
 62
2
  6
CONTINUOUS
 10
12.208686316
 20
2.443589771
 11
12.208686316
 21
2.4912273132
  0
LINE
  5
3DF
100
AcDbEntity
  8
0
100
AcDbLine
 62
2
  6
CONTINUOUS
 10
12.208686316
 20
2.515977327
 11
12.208686316
 21
2.5672823554
  0
LINE
  5
3E0
100
AcDbEntity
  8
0
100
AcDbLine
 62
2
  6
CONTINUOUS
 10
12.208686316
 20
2.5920323691
 11
12.208686316
 21
2.63716691
  0
LINE
  5
3E1
100
AcDbEntity
  8
0
100
AcDbLine
 62
2
  6
CONTINUOUS
 10
12.1886863049
 20
2.4510806436
 11
12.1886863049
 21
2.6296760373
  0
LINE
  5
3E2
100
AcDbEntity
  8
0
100
AcDbLine
 62
2
  6
CONTINUOUS
 10
12.1686862938
 20
2.4591016523
 11
12.1686862938
 21
2.6216550287
  0
LINE
  5
3E3
100
AcDbEntity
  8
0
100
AcDbLine
 62
2
  6
CONTINUOUS
 10
12.1486862827
 20
2.468314272
 11
12.1486862827
 21
2.612442409
  0
LINE
  5
3E4
100
AcDbEntity
  8
0
100
AcDbLine
 62
2
  6
CONTINUOUS
 10
12.1286862716
 20
2.4794932339
 11
12.1286862716
 21
2.601263447
  0
LINE
  5
3E5
100
AcDbEntity
  8
0
100
AcDbLine
 62
2
  6
CONTINUOUS
 10
12.1086862605
 20
2.4934150665
 11
12.1086862605
 21
2.5873416144
  0
LINE
  5
3E6
100
AcDbEntity
  8
0
100
AcDbLine
 62
2
  6
CONTINUOUS
 10
12.0886862494
 20
2.5144449553
 11
12.0886862494
 21
2.5663117257
  0
ENDBLK
  5
3E7
100
AcDbEntity
  8
0
  6
BYBLOCK
 62
0
100
AcDbBlockEnd
  0
BLOCK
  5
3E8
100
AcDbEntity
  8
0
100
AcDbBlockBegin
  2
_FILLED
 70
64
 10
0.0
 20
0.0
  3
_FILLED
  1

  0
SOLID
  5
3E9
100
AcDbEntity
  8
0
  6
BYBLOCK
 62
0
100
AcDbTrace
 10
0.0
 20
0.0
 11
-1.0
 21
0.1666666667
 12
-1.0
 22
-0.1666666667
 13
-1.0
 23
-0.1666666667
  0
ENDBLK
  5
3EA
100
AcDbEntity
  8
0
  6
BYBLOCK
 62
0
100
AcDbBlockEnd
  0
BLOCK
  5
3EB
100
AcDbEntity
  8
SCHEME_DIMS
100
AcDbBlockBegin
 62
2
  6
CONTINUOUS
  2
*D0
 70
65
 10
0.0
 20
0.0
  3
*D0
  1

  0
MTEXT
  5
3EC
100
AcDbEntity
  8
SCHEME_DIMS
100
AcDbMText
 62
2
  6
CONTINUOUS
  7
STANDARD
 71
2
 72
1
 10
1.5732615947
 20
8.6657611652
 30
0.0
 11
1.0
 21
0.0
 31
0.0
 44
0.9
  1
12\P[.47]
 40
0.1
 41
0.5
  0
LINE
  5
3ED
100
AcDbEntity
  8
SCHEME_DIMS
100
AcDbLine
 62
2
  6
CONTINUOUS
 10
1.4870411222
 20
8.1782611652
 11
1.4870411222
 21
8.7407611652
  0
LINE
  5
3EE
100
AcDbEntity
  8
SCHEME_DIMS
100
AcDbLine
 62
2
  6
CONTINUOUS
 10
1.9594820671
 20
8.0482948807
 11
1.9594820671
 21
8.1016522315
  0
LINE
  5
3EF
100
AcDbEntity
  8
SCHEME_DIMS
100
AcDbLine
 62
2
  6
CONTINUOUS
 10
1.9594820671
 20
8.1329640166
 11
1.9594820671
 21
8.7407611652
  0
LINE
  5
3F0
100
AcDbEntity
  8
SCHEME_DIMS
100
AcDbLine
 62
2
  6
CONTINUOUS
 10
1.4870411222
 20
8.6157611652
 11
1.0870411222
 21
8.6157611652
  0
LINE
  5
3F1
100
AcDbEntity
  8
SCHEME_DIMS
100
AcDbLine
 62
2
  6
CONTINUOUS
 10
1.9594820671
 20
8.6157611652
 11
2.3594820671
 21
8.6157611652
  0
INSERT
  5
3F2
100
AcDbEntity
  8
SCHEME_DIMS
100
AcDbBlockReference
 62
2
  6
CONTINUOUS
  2
_FILLED
 10
1.4870411222
 20
8.6157611652
 41
0.1875
 42
0.1875
 43
0.1875
  0
INSERT
  5
3F3
100
AcDbEntity
  8
SCHEME_DIMS
100
AcDbBlockReference
 62
2
  6
CONTINUOUS
  2
_FILLED
 10
1.9594820671
 20
8.6157611652
 41
0.1875
 42
0.1875
 43
0.1875
 50
180.0
  0
ENDBLK
  5
3F4
100
AcDbEntity
  8
0
  6
BYBLOCK
 62
0
100
AcDbBlockEnd
  0
BLOCK
  5
3F5
100
AcDbEntity
  8
SCHEME_DIMS
100
AcDbBlockBegin
 62
2
  6
CONTINUOUS
  2
*D1
 70
65
 10
0.0
 20
0.0
  3
*D1
  1

  0
MTEXT
  5
3F6
100
AcDbEntity
  8
SCHEME_DIMS
100
AcDbMText
 62
2
  6
CONTINUOUS
  7
STANDARD
 71
2
 72
1
 10
2.3094820671
 20
5.5045406927
 30
0.0
 11
1.0
 21
0.0
 31
0.0
 44
0.9
  1
139\P[5.47]
 40
0.1
 41
0.6
  0
LINE
  5
3F7
100
AcDbEntity
  8
SCHEME_DIMS
100
AcDbLine
 62
2
  6
CONTINUOUS
 10
1.878995153
 20
8.1157611652
 11
2.5844820671
 21
8.1157611652
  0
LINE
  5
3F8
100
AcDbEntity
  8
SCHEME_DIMS
100
AcDbLine
 62
2
  6
CONTINUOUS
 10
1.6223757679
 20
2.6433202203
 11
2.5844820671
 21
2.6433202203
  0
LINE
  5
3F9
100
AcDbEntity
  8
SCHEME_DIMS
100
AcDbLine
 62
2
  6
CONTINUOUS
 10
2.4594820671
 20
8.1157611652
 11
2.4594820671
 21
5.6045406927
  0
LINE
  5
3FA
100
AcDbEntity
  8
SCHEME_DIMS
100
AcDbLine
 62
2
  6
CONTINUOUS
 10
2.4594820671
 20
2.6433202203
 11
2.4594820671
 21
5.1545406927
  0
INSERT
  5
3FB
100
AcDbEntity
  8
SCHEME_DIMS
100
AcDbBlockReference
 62
2
  6
CONTINUOUS
  2
_FILLED
 10
2.4594820671
 20
8.1157611652
 41
0.1875
 42
0.1875
 43
0.1875
 50
90.0
  0
INSERT
  5
3FC
100
AcDbEntity
  8
SCHEME_DIMS
100
AcDbBlockReference
 62
2
  6
CONTINUOUS
  2
_FILLED
 10
2.4594820671
 20
2.6433202203
 41
0.1875
 42
0.1875
 43
0.1875
 50
270.0
  0
ENDBLK
  5
3FD
100
AcDbEntity
  8
0
  6
BYBLOCK
 62
0
100
AcDbBlockEnd
  0
BLOCK
  5
3FE
100
AcDbEntity
  8
SCHEME_DIMS
100
AcDbBlockBegin
 62
2
  6
CONTINUOUS
  2
*D2
 70
65
 10
0.0
 20
0.0
  3
*D2
  1

  0
MTEXT
  5
3FF
100
AcDbEntity
  8
SCHEME_DIMS
100
AcDbMText
 62
2
  6
CONTINUOUS
  7
STANDARD
 71
2
 72
1
 10
6.8988281357
 20
9.7907611652
 30
0.0
 11
1.0
 21
0.0
 31
0.0
 44
0.9
  1
95\P[3.74]
 40
0.1
 41
0.6
  0
LINE
  5
400
100
AcDbEntity
  8
SCHEME_DIMS
100
AcDbLine
 62
2
  6
CONTINUOUS
 10
5.417412616
 20
8.1782611652
 11
5.417412616
 21
9.8657611652
  0
LINE
  5
401
100
AcDbEntity
  8
SCHEME_DIMS
100
AcDbLine
 62
2
  6
CONTINUOUS
 10
9.1575700963
 20
8.1782611652
 11
9.1575700963
 21
9.8657611652
  0
LINE
  5
402
100
AcDbEntity
  8
SCHEME_DIMS
100
AcDbLine
 62
2
  6
CONTINUOUS
 10
5.417412616
 20
9.7407611652
 11
6.6988281357
 21
9.7407611652
  0
LINE
  5
403
100
AcDbEntity
  8
SCHEME_DIMS
100
AcDbLine
 62
2
  6
CONTINUOUS
 10
9.1575700963
 20
9.7407611652
 11
7.4988281357
 21
9.7407611652
  0
INSERT
  5
404
100
AcDbEntity
  8
SCHEME_DIMS
100
AcDbBlockReference
 62
2
  6
CONTINUOUS
  2
_FILLED
 10
5.417412616
 20
9.7407611652
 41
0.1875
 42
0.1875
 43
0.1875
 50
180.0
  0
INSERT
  5
405
100
AcDbEntity
  8
SCHEME_DIMS
100
AcDbBlockReference
 62
2
  6
CONTINUOUS
  2
_FILLED
 10
9.1575700963
 20
9.7407611652
 41
0.1875
 42
0.1875
 43
0.1875
  0
ENDBLK
  5
406
100
AcDbEntity
  8
0
  6
BYBLOCK
 62
0
100
AcDbBlockEnd
  0
BLOCK
  5
407
100
AcDbEntity
  8
SCHEME_DIMS
100
AcDbBlockBegin
 62
2
  6
CONTINUOUS
  2
*D3
 70
65
 10
0.0
 20
0.0
  3
*D3
  1

  0
MTEXT
  5
408
100
AcDbEntity
  8
SCHEME_DIMS
100
AcDbMText
 62
2
  6
CONTINUOUS
  7
STANDARD
 71
2
 72
1
 10
7.2427698314
 20
9.4157611652
 30
0.0
 11
1.0
 21
0.0
 31
0.0
 44
0.9
  1
77\P[3.03]
 40
0.1
 41
0.6
  0
LINE
  5
409
100
AcDbEntity
  8
SCHEME_DIMS
100
AcDbLine
 62
2
  6
CONTINUOUS
 10
5.7717433247
 20
8.0904658896
 11
5.7717433247
 21
9.4907611652
  0
LINE
  5
40A
100
AcDbEntity
  8
SCHEME_DIMS
100
AcDbLine
 62
2
  6
CONTINUOUS
 10
8.8032393877
 20
8.0904658896
 11
8.8032393877
 21
9.4907611652
  0
LINE
  5
40B
100
AcDbEntity
  8
SCHEME_DIMS
100
AcDbLine
 62
2
  6
CONTINUOUS
 10
5.7717433247
 20
9.3657611652
 11
7.0427698314
 21
9.3657611652
  0
LINE
  5
40C
100
AcDbEntity
  8
SCHEME_DIMS
100
AcDbLine
 62
2
  6
CONTINUOUS
 10
8.8032393877
 20
9.3657611652
 11
7.8427698314
 21
9.3657611652
  0
INSERT
  5
40D
100
AcDbEntity
  8
SCHEME_DIMS
100
AcDbBlockReference
 62
2
  6
CONTINUOUS
  2
_FILLED
 10
5.7717433247
 20
9.3657611652
 41
0.1875
 42
0.1875
 43
0.1875
 50
180.0
  0
INSERT
  5
40E
100
AcDbEntity
  8
SCHEME_DIMS
100
AcDbBlockReference
 62
2
  6
CONTINUOUS
  2
_FILLED
 10
8.8032393877
 20
9.3657611652
 41
0.1875
 42
0.1875
 43
0.1875
  0
ENDBLK
  5
40F
100
AcDbEntity
  8
0
  6
BYBLOCK
 62
0
100
AcDbBlockEnd
  0
BLOCK
  5
410
100
AcDbEntity
  8
SCHEME_DIMS
100
AcDbBlockBegin
 62
2
  6
CONTINUOUS
  2
*D4
 70
65
 10
0.0
 20
0.0
  3
*D4
  1

  0
MTEXT
  5
411
100
AcDbEntity
  8
SCHEME_DIMS
100
AcDbMText
 62
2
  6
CONTINUOUS
  7
STANDARD
 71
2
 72
1
 10
7.0874913562
 20
9.0407611652
 30
0.0
 11
1.0
 21
0.0
 31
0.0
 44
0.9
  1
30\P[1.18]
 40
0.1
 41
0.6
  0
LINE
  5
412
100
AcDbEntity
  8
SCHEME_DIMS
100
AcDbLine
 62
2
  6
CONTINUOUS
 10
7.8780425373
 20
5.9752836977
 11
7.8780425373
 21
6.595640232
  0
LINE
  5
413
100
AcDbEntity
  8
SCHEME_DIMS
100
AcDbLine
 62
2
  6
CONTINUOUS
 10
7.8780425373
 20
6.7294186107
 11
7.8780425373
 21
9.1157611652
  0
LINE
  5
414
100
AcDbEntity
  8
SCHEME_DIMS
100
AcDbLine
 62
2
  6
CONTINUOUS
 10
6.6969401751
 20
5.9841674182
 11
6.6969401751
 21
9.1157611652
  0
LINE
  5
415
100
AcDbEntity
  8
SCHEME_DIMS
100
AcDbLine
 62
2
  6
CONTINUOUS
 10
7.8780425373
 20
8.9907611652
 11
8.2780425373
 21
8.9907611652
  0
LINE
  5
416
100
AcDbEntity
  8
SCHEME_DIMS
100
AcDbLine
 62
2
  6
CONTINUOUS
 10
6.6969401751
 20
8.9907611652
 11
6.2969401751
 21
8.9907611652
  0
INSERT
  5
417
100
AcDbEntity
  8
SCHEME_DIMS
100
AcDbBlockReference
 62
2
  6
CONTINUOUS
  2
_FILLED
 10
7.8780425373
 20
8.9907611652
 41
0.1875
 42
0.1875
 43
0.1875
 50
180.0
  0
INSERT
  5
418
100
AcDbEntity
  8
SCHEME_DIMS
100
AcDbBlockReference
 62
2
  6
CONTINUOUS
  2
_FILLED
 10
6.6969401751
 20
8.9907611652
 41
0.1875
 42
0.1875
 43
0.1875
  0
ENDBLK
  5
419
100
AcDbEntity
  8
0
  6
BYBLOCK
 62
0
100
AcDbBlockEnd
  0
BLOCK
  5
41A
100
AcDbEntity
  8
SCHEME_DIMS
100
AcDbBlockBegin
 62
2
  6
CONTINUOUS
  2
*D5
 70
65
 10
0.0
 20
0.0
  3
*D5
  1

  0
MTEXT
  5
41B
100
AcDbEntity
  8
SCHEME_DIMS
100
AcDbMText
 62
2
  6
CONTINUOUS
  7
STANDARD
 71
2
 72
1
 10
9.5075700963
 20
6.2169223342
 30
0.0
 11
1.0
 21
0.0
 31
0.0
 44
0.9
  1
16\P[.63]
 40
0.1
 41
0.5
  0
LINE
  5
41C
100
AcDbEntity
  8
SCHEME_DIMS
100
AcDbLine
 62
2
  6
CONTINUOUS
 10
8.0639918575
 20
5.7535564408
 11
9.7825700963
 21
5.7535564408
  0
LINE
  5
41D
100
AcDbEntity
  8
SCHEME_DIMS
100
AcDbLine
 62
2
  6
CONTINUOUS
 10
7.496628198
 20
6.3834777006
 11
7.8227722207
 21
6.3834777006
  0
LINE
  5
41E
100
AcDbEntity
  8
SCHEME_DIMS
100
AcDbLine
 62
2
  6
CONTINUOUS
 10
7.9389682981
 20
6.3834777006
 11
9.7825700963
 21
6.3834777006
  0
LINE
  5
41F
100
AcDbEntity
  8
SCHEME_DIMS
100
AcDbLine
 62
2
  6
CONTINUOUS
 10
9.6575700963
 20
5.7535564408
 11
9.6575700963
 21
5.3535564408
  0
LINE
  5
420
100
AcDbEntity
  8
SCHEME_DIMS
100
AcDbLine
 62
2
  6
CONTINUOUS
 10
9.6575700963
 20
6.3834777006
 11
9.6575700963
 21
6.7834777006
  0
INSERT
  5
421
100
AcDbEntity
  8
SCHEME_DIMS
100
AcDbBlockReference
 62
2
  6
CONTINUOUS
  2
_FILLED
 10
9.6575700963
 20
5.7535564408
 41
0.1875
 42
0.1875
 43
0.1875
 50
90.0
  0
INSERT
  5
422
100
AcDbEntity
  8
SCHEME_DIMS
100
AcDbBlockReference
 62
2
  6
CONTINUOUS
  2
_FILLED
 10
9.6575700963
 20
6.3834777006
 41
0.1875
 42
0.1875
 43
0.1875
 50
270.0
  0
ENDBLK
  5
423
100
AcDbEntity
  8
0
  6
BYBLOCK
 62
0
100
AcDbBlockEnd
  0
BLOCK
  5
424
100
AcDbEntity
  8
SCHEME_DIMS
100
AcDbBlockBegin
 62
2
  6
CONTINUOUS
  2
*D6
 70
65
 10
0.0
 20
0.0
  3
*D6
  1

  0
MTEXT
  5
425
100
AcDbEntity
  8
SCHEME_DIMS
100
AcDbMText
 62
2
  6
CONTINUOUS
  7
STANDARD
 71
2
 72
1
 10
4.342412616
 20
6.7258069441
 30
0.0
 11
1.0
 21
0.0
 31
0.0
 44
0.9
  1
77\P[3.03]
 40
0.1
 41
0.6
  0
LINE
  5
426
100
AcDbEntity
  8
SCHEME_DIMS
100
AcDbLine
 62
2
  6
CONTINUOUS
 10
5.5812490949
 20
4.8480446298
 11
4.417412616
 21
4.8480446298
  0
LINE
  5
427
100
AcDbEntity
  8
SCHEME_DIMS
100
AcDbLine
 62
2
  6
CONTINUOUS
 10
5.5793391697
 20
7.8795406927
 11
4.417412616
 21
7.8795406927
  0
LINE
  5
428
100
AcDbEntity
  8
SCHEME_DIMS
100
AcDbLine
 62
2
  6
CONTINUOUS
 10
4.542412616
 20
4.8480446298
 11
4.542412616
 21
6.3758069441
  0
LINE
  5
429
100
AcDbEntity
  8
SCHEME_DIMS
100
AcDbLine
 62
2
  6
CONTINUOUS
 10
4.542412616
 20
7.8795406927
 11
4.542412616
 21
6.8258069441
  0
INSERT
  5
42A
100
AcDbEntity
  8
SCHEME_DIMS
100
AcDbBlockReference
 62
2
  6
CONTINUOUS
  2
_FILLED
 10
4.542412616
 20
4.8480446298
 41
0.1875
 42
0.1875
 43
0.1875
 50
270.0
  0
INSERT
  5
42B
100
AcDbEntity
  8
SCHEME_DIMS
100
AcDbBlockReference
 62
2
  6
CONTINUOUS
  2
_FILLED
 10
4.542412616
 20
7.8795406927
 41
0.1875
 42
0.1875
 43
0.1875
 50
90.0
  0
ENDBLK
  5
42C
100
AcDbEntity
  8
0
  6
BYBLOCK
 62
0
100
AcDbBlockEnd
  0
BLOCK
  5
42D
100
AcDbEntity
  8
SCHEME_DIMS
100
AcDbBlockBegin
 62
2
  6
CONTINUOUS
  2
*D7
 70
65
 10
0.0
 20
0.0
  3
*D7
  1

  0
MTEXT
  5
42E
100
AcDbEntity
  8
SCHEME_DIMS
100
AcDbMText
 62
2
  6
CONTINUOUS
  7
STANDARD
 71
1
 72
1
 10
8.9233181278
 20
4.2359540664
 30
0.0
 11
1.0
 21
0.0
 31
0.0
 44
0.9
  1
4X R3,5\P[.14]
 40
0.1
 41
0.7
  0
LINE
  5
42F
100
AcDbEntity
  8
SCHEME_DIMS
100
AcDbLine
 62
2
  6
CONTINUOUS
 10
7.1242465624
 20
3.9592181328
 11
8.6733181278
 21
4.1859540664
  0
LINE
  5
430
100
AcDbEntity
  8
SCHEME_DIMS
100
AcDbLine
 62
2
  6
CONTINUOUS
 10
8.6733181278
 20
4.1859540664
 11
8.8233181278
 21
4.1859540664
  0
INSERT
  5
431
100
AcDbEntity
  8
SCHEME_DIMS
100
AcDbBlockReference
 62
2
  6
CONTINUOUS
  2
_FILLED
 10
7.1242465624
 20
3.9592181328
 41
0.1875
 42
0.1875
 43
0.1875
 50
188.3271905419
  0
ENDBLK
  5
432
100
AcDbEntity
  8
0
  6
BYBLOCK
 62
0
100
AcDbBlockEnd
  0
BLOCK
  5
433
100
AcDbEntity
  8
SCHEME_DIMS
100
AcDbBlockBegin
 62
2
  6
CONTINUOUS
  2
*D8
 70
65
 10
0.0
 20
0.0
  3
*D8
  1

  0
MTEXT
  5
434
100
AcDbEntity
  8
SCHEME_DIMS
100
AcDbMText
 62
2
  6
CONTINUOUS
  7
TEXTSTYLE_5
 71
1
 72
1
 10
9.0843735493
 20
2.668082306
 30
0.0
 11
1.0
 21
0.0
 31
0.0
 44
0.9
  1
{\Fgdt;n}\Ftxt;6,5\P[.26]
 40
0.1
 41
0.5
  0
LINE
  5
435
100
AcDbEntity
  8
SCHEME_DIMS
100
AcDbLine
 62
2
  6
CONTINUOUS
 10
7.3942012447
 20
3.4771634783
 11
8.6733181278
 21
2.618082306
  0
LINE
  5
436
100
AcDbEntity
  8
SCHEME_DIMS
100
AcDbLine
 62
2
  6
CONTINUOUS
 10
8.6733181278
 20
2.618082306
 11
8.9843735493
 21
2.618082306
  0
INSERT
  5
437
100
AcDbEntity
  8
SCHEME_DIMS
100
AcDbBlockReference
 62
2
  6
CONTINUOUS
  2
_FILLED
 10
7.3942012447
 20
3.4771634783
 41
0.1875
 42
0.1875
 43
0.1875
 50
146.1138796091
  0
ENDBLK
  5
438
100
AcDbEntity
  8
0
  6
BYBLOCK
 62
0
100
AcDbBlockEnd
  0
BLOCK
  5
439
100
AcDbEntity
  8
SCHEME_DIMS
100
AcDbBlockBegin
 62
2
  6
CONTINUOUS
  2
*D9
 70
65
 10
0.0
 20
0.0
  3
*D9
  1

  0
MTEXT
  5
43A
100
AcDbEntity
  8
SCHEME_DIMS
100
AcDbMText
 62
2
  6
CONTINUOUS
  7
STANDARD
 71
1
 72
1
 10
9.6541655898
 20
7.4538401191
 30
0.0
 11
1.0
 21
0.0
 31
0.0
 44
0.9
  1
3X \Fgdt;{\Fgdt;n}\Ftxt;3,3\P[.13]
 40
0.1
 41
0.7333333333
  0
LINE
  5
43B
100
AcDbEntity
  8
SCHEME_DIMS
100
AcDbLine
 62
2
  6
CONTINUOUS
 10
7.3459586379
 20
6.4117877766
 11
9.3947911383
 21
7.4038401191
  0
LINE
  5
43C
100
AcDbEntity
  8
SCHEME_DIMS
100
AcDbLine
 62
2
  6
CONTINUOUS
 10
9.3947911383
 20
7.4038401191
 11
9.5541655898
 21
7.4038401191
  0
INSERT
  5
43D
100
AcDbEntity
  8
SCHEME_DIMS
100
AcDbBlockReference
 62
2
  6
CONTINUOUS
  2
_FILLED
 10
7.3459586379
 20
6.4117877766
 41
0.1875
 42
0.1875
 43
0.1875
 50
205.8364388642
  0
ENDBLK
  5
43E
100
AcDbEntity
  8
0
  6
BYBLOCK
 62
0
100
AcDbBlockEnd
  0
BLOCK
  5
43F
100
AcDbEntity
  8
SCHEME_DIMS
100
AcDbBlockBegin
 62
2
  6
CONTINUOUS
  2
*D10
 70
65
 10
0.0
 20
0.0
  3
*D10
  1

  0
MTEXT
  5
440
100
AcDbEntity
  8
SCHEME_DIMS
100
AcDbMText
 62
2
  6
CONTINUOUS
  7
STANDARD
 71
1
 72
1
 10
9.6567356364
 20
5.0701692203
 30
0.0
 11
1.0
 21
0.0
 31
0.0
 44
0.9
  1
4X \Fgdt;{\Fgdt;n}\Ftxt;2,5\P[.10]
 40
0.1
 41
0.7333333333
  0
LINE
  5
441
100
AcDbEntity
  8
SCHEME_DIMS
100
AcDbLine
 62
2
  6
CONTINUOUS
 10
8.8498075433
 20
4.8613264434
 11
9.4067356364
 21
5.0201692203
  0
LINE
  5
442
100
AcDbEntity
  8
SCHEME_DIMS
100
AcDbLine
 62
2
  6
CONTINUOUS
 10
9.4067356364
 20
5.0201692203
 11
9.5567356364
 21
5.0201692203
  0
INSERT
  5
443
100
AcDbEntity
  8
SCHEME_DIMS
100
AcDbBlockReference
 62
2
  6
CONTINUOUS
  2
_FILLED
 10
8.8498075433
 20
4.8613264434
 41
0.1875
 42
0.1875
 43
0.1875
 50
195.9188046889
  0
ENDBLK
  5
444
100
AcDbEntity
  8
0
  6
BYBLOCK
 62
0
100
AcDbBlockEnd
  0
BLOCK
  5
445
100
AcDbEntity
  8
SCHEME_DIMS
100
AcDbBlockBegin
 62
2
  6
CONTINUOUS
  2
*D11
 70
65
 10
0.0
 20
0.0
  3
*D11
  1

  0
MTEXT
  5
446
100
AcDbEntity
  8
SCHEME_DIMS
100
AcDbMText
 62
2
  6
CONTINUOUS
  7
STANDARD
 71
2
 72
1
 10
3.967412616
 20
6.3154088695
 30
0.0
 11
1.0
 21
0.0
 31
0.0
 44
0.9
  1
83\P[3.27]
 40
0.1
 41
0.6
  0
LINE
  5
447
100
AcDbEntity
  8
SCHEME_DIMS
100
AcDbLine
 62
2
  6
CONTINUOUS
 10
4.5743685169
 20
4.8480446298
 11
4.042412616
 21
4.8480446298
  0
LINE
  5
448
100
AcDbEntity
  8
SCHEME_DIMS
100
AcDbLine
 62
2
  6
CONTINUOUS
 10
5.3464214569
 20
8.1157611652
 11
4.042412616
 21
8.1157611652
  0
LINE
  5
449
100
AcDbEntity
  8
SCHEME_DIMS
100
AcDbLine
 62
2
  6
CONTINUOUS
 10
4.167412616
 20
4.8480446298
 11
4.167412616
 21
5.9654088695
  0
LINE
  5
44A
100
AcDbEntity
  8
SCHEME_DIMS
100
AcDbLine
 62
2
  6
CONTINUOUS
 10
4.167412616
 20
8.1157611652
 11
4.167412616
 21
6.4154088695
  0
INSERT
  5
44B
100
AcDbEntity
  8
SCHEME_DIMS
100
AcDbBlockReference
 62
2
  6
CONTINUOUS
  2
_FILLED
 10
4.167412616
 20
4.8480446298
 41
0.1875
 42
0.1875
 43
0.1875
 50
270.0
  0
INSERT
  5
44C
100
AcDbEntity
  8
SCHEME_DIMS
100
AcDbBlockReference
 62
2
  6
CONTINUOUS
  2
_FILLED
 10
4.167412616
 20
8.1157611652
 41
0.1875
 42
0.1875
 43
0.1875
 50
90.0
  0
ENDBLK
  5
44D
100
AcDbEntity
  8
0
  6
BYBLOCK
 62
0
100
AcDbBlockEnd
  0
BLOCK
  5
44E
100
AcDbEntity
  8
SCHEME_DIMS
100
AcDbBlockBegin
 62
2
  6
CONTINUOUS
  2
*D12
 70
65
 10
0.0
 20
0.0
  3
*D12
  1

  0
MTEXT
  5
44F
100
AcDbEntity
  8
SCHEME_DIMS
100
AcDbMText
 62
2
  6
CONTINUOUS
  7
STANDARD
 71
2
 72
1
 10
4.7158550496
 20
7.1989105502
 30
0.0
 11
1.0
 21
0.0
 31
0.0
 44
0.9
  1
54\P[2.13]
 40
0.1
 41
0.6
  0
LINE
  5
450
100
AcDbEntity
  8
SCHEME_DIMS
100
AcDbLine
 62
2
  6
CONTINUOUS
 10
5.495727683
 20
7.8795406927
 11
4.7908550496
 21
7.8795406927
  0
LINE
  5
451
100
AcDbEntity
  8
SCHEME_DIMS
100
AcDbLine
 62
2
  6
CONTINUOUS
 10
6.48134586
 20
5.7535564408
 11
4.7908550496
 21
5.7535564408
  0
LINE
  5
452
100
AcDbEntity
  8
SCHEME_DIMS
100
AcDbLine
 62
2
  6
CONTINUOUS
 10
4.9158550496
 20
7.8795406927
 11
4.9158550496
 21
7.2989105502
  0
LINE
  5
453
100
AcDbEntity
  8
SCHEME_DIMS
100
AcDbLine
 62
2
  6
CONTINUOUS
 10
4.9158550496
 20
5.7535564408
 11
4.9158550496
 21
6.8489105502
  0
INSERT
  5
454
100
AcDbEntity
  8
SCHEME_DIMS
100
AcDbBlockReference
 62
2
  6
CONTINUOUS
  2
_FILLED
 10
4.9158550496
 20
7.8795406927
 41
0.1875
 42
0.1875
 43
0.1875
 50
90.0
  0
INSERT
  5
455
100
AcDbEntity
  8
SCHEME_DIMS
100
AcDbBlockReference
 62
2
  6
CONTINUOUS
  2
_FILLED
 10
4.9158550496
 20
5.7535564408
 41
0.1875
 42
0.1875
 43
0.1875
 50
270.0
  0
ENDBLK
  5
456
100
AcDbEntity
  8
0
  6
BYBLOCK
 62
0
100
AcDbBlockEnd
  0
BLOCK
  5
457
100
AcDbEntity
  8
SCHEME_DIMS
100
AcDbBlockBegin
 62
2
  6
CONTINUOUS
  2
*D13
 70
65
 10
0.0
 20
0.0
  3
*D13
  1

  0
MTEXT
  5
458
100
AcDbEntity
  8
SCHEME_DIMS
100
AcDbMText
 62
2
  6
CONTINUOUS
  7
STANDARD
 71
2
 72
1
 10
3.642412616
 20
5.8822965983
 30
0.0
 11
1.0
 21
0.0
 31
0.0
 44
0.9
  1
116\P[4.57]
 40
0.1
 41
0.6
  0
LINE
  5
459
100
AcDbEntity
  8
SCHEME_DIMS
100
AcDbLine
 62
2
  6
CONTINUOUS
 10
7.0423535534
 20
3.5488320313
 11
3.667412616
 21
3.5488320313
  0
LINE
  5
45A
100
AcDbEntity
  8
SCHEME_DIMS
100
AcDbLine
 62
2
  6
CONTINUOUS
 10
4.4266951036
 20
8.1157611652
 11
3.667412616
 21
8.1157611652
  0
LINE
  5
45B
100
AcDbEntity
  8
SCHEME_DIMS
100
AcDbLine
 62
2
  6
CONTINUOUS
 10
3.792412616
 20
3.5488320313
 11
3.792412616
 21
5.5322965983
  0
LINE
  5
45C
100
AcDbEntity
  8
SCHEME_DIMS
100
AcDbLine
 62
2
  6
CONTINUOUS
 10
3.792412616
 20
8.1157611652
 11
3.792412616
 21
5.9822965983
  0
INSERT
  5
45D
100
AcDbEntity
  8
SCHEME_DIMS
100
AcDbBlockReference
 62
2
  6
CONTINUOUS
  2
_FILLED
 10
3.792412616
 20
3.5488320313
 41
0.1875
 42
0.1875
 43
0.1875
 50
270.0
  0
INSERT
  5
45E
100
AcDbEntity
  8
SCHEME_DIMS
100
AcDbBlockReference
 62
2
  6
CONTINUOUS
  2
_FILLED
 10
3.792412616
 20
8.1157611652
 41
0.1875
 42
0.1875
 43
0.1875
 50
90.0
  0
ENDBLK
  5
45F
100
AcDbEntity
  8
0
  6
BYBLOCK
 62
0
100
AcDbBlockEnd
  0
BLOCK
  5
460
100
AcDbEntity
  8
SCHEME_DIMS
100
AcDbBlockBegin
 62
2
  6
CONTINUOUS
  2
*D14
 70
65
 10
0.0
 20
0.0
  3
*D14
  1

  0
MTEXT
  5
461
100
AcDbEntity
  8
SCHEME_DIMS
100
AcDbMText
 62
2
  6
CONTINUOUS
  7
STANDARD
 71
2
 72
1
 10
6.2524519861
 20
2.5091482418
 30
0.0
 11
1.0
 21
0.0
 31
0.0
 44
0.9
  1
47,5\P[1.87]
 40
0.1
 41
0.6
  0
LINE
  5
462
100
AcDbEntity
  8
SCHEME_DIMS
100
AcDbLine
 62
2
  6
CONTINUOUS
 10
7.2874913562
 20
3.3088779958
 11
7.2874913562
 21
2.3341482418
  0
LINE
  5
463
100
AcDbEntity
  8
SCHEME_DIMS
100
AcDbLine
 62
2
  6
CONTINUOUS
 10
5.417412616
 20
4.5934983291
 11
5.417412616
 21
3.6807425995
  0
LINE
  5
464
100
AcDbEntity
  8
SCHEME_DIMS
100
AcDbLine
 62
2
  6
CONTINUOUS
 10
5.417412616
 20
3.4333657574
 11
5.417412616
 21
2.3341482418
  0
LINE
  5
465
100
AcDbEntity
  8
SCHEME_DIMS
100
AcDbLine
 62
2
  6
CONTINUOUS
 10
7.2874913562
 20
2.4591482418
 11
6.7524519861
 21
2.4591482418
  0
LINE
  5
466
100
AcDbEntity
  8
SCHEME_DIMS
100
AcDbLine
 62
2
  6
CONTINUOUS
 10
5.417412616
 20
2.4591482418
 11
5.9524519861
 21
2.4591482418
  0
INSERT
  5
467
100
AcDbEntity
  8
SCHEME_DIMS
100
AcDbBlockReference
 62
2
  6
CONTINUOUS
  2
_FILLED
 10
7.2874913562
 20
2.4591482418
 41
0.1875
 42
0.1875
 43
0.1875
  0
INSERT
  5
468
100
AcDbEntity
  8
SCHEME_DIMS
100
AcDbBlockReference
 62
2
  6
CONTINUOUS
  2
_FILLED
 10
5.417412616
 20
2.4591482418
 41
0.1875
 42
0.1875
 43
0.1875
 50
180.0
  0
ENDBLK
  5
469
100
AcDbEntity
  8
0
  6
BYBLOCK
 62
0
100
AcDbBlockEnd
  0
BLOCK
  5
46A
100
AcDbEntity
  8
0
100
AcDbBlockBegin
 62
2
  6
CONTINUOUS
  2
*D15
 70
65
 10
0.0
 20
0.0
  3
*D15
  1

  0
MTEXT
  5
46B
100
AcDbEntity
  8
0
100
AcDbMText
 62
2
  6
CONTINUOUS
  7
STANDARD
 71
2
 72
1
 10
7.3327669467
 20
8.6657611652
 30
0.0
 11
1.0
 21
0.0
 31
0.0
 44
0.9
  1
15\P[.5906]
 40
0.1
 41
0.7
  0
LINE
  5
46C
100
AcDbEntity
  8
0
100
AcDbLine
 62
2
  6
CONTINUOUS
 10
7.2874913562
 20
6.6024863484
 11
7.2874913562
 21
8.7407611652
  0
LINE
  5
46D
100
AcDbEntity
  8
0
100
AcDbLine
 62
2
  6
CONTINUOUS
 10
7.8780425373
 20
6.9257746926
 11
7.8780425373
 21
8.7407611652
  0
LINE
  5
46E
100
AcDbEntity
  8
0
100
AcDbLine
 62
2
  6
CONTINUOUS
 10
7.2874913562
 20
8.6157611652
 11
6.8874913562
 21
8.6157611652
  0
LINE
  5
46F
100
AcDbEntity
  8
0
100
AcDbLine
 62
2
  6
CONTINUOUS
 10
7.8780425373
 20
8.6157611652
 11
8.2780425373
 21
8.6157611652
  0
INSERT
  5
470
100
AcDbEntity
  8
0
100
AcDbBlockReference
 62
2
  6
CONTINUOUS
  2
_FILLED
 10
7.2874913562
 20
8.6157611652
 41
0.1875
 42
0.1875
 43
0.1875
  0
INSERT
  5
471
100
AcDbEntity
  8
0
100
AcDbBlockReference
 62
2
  6
CONTINUOUS
  2
_FILLED
 10
7.8780425373
 20
8.6157611652
 41
0.1875
 42
0.1875
 43
0.1875
 50
180.0
  0
ENDBLK
  5
472
100
AcDbEntity
  8
0
  6
BYBLOCK
 62
0
100
AcDbBlockEnd
  0
ENDSEC
  0
SECTION
  2
ENTITIES
  0
MTEXT
  5
473
100
AcDbEntity
  8
0
100
AcDbMText
 62
2
  6
CONTINUOUS
  7
TEXTSTYLE_2
 71
2
 72
1
 10
11.0287658475
 20
1.794867839
 30
0.0
 11
1.0
 21
0.0
 31
0.0
 44
0.9
  1
THIRD ANGLE PROJECTION
 40
0.1
 41
1.76
  0
MTEXT
  5
474
100
AcDbEntity
  8
0
100
AcDbMText
 62
2
  6
CONTINUOUS
  7
STANDARD
 71
1
 72
1
 10
12.88
 20
1.457
 30
0.0
 11
1.0
 21
0.0
 31
0.0
 44
0.9
  1
DRAWING NO.
 40
0.08
 41
0.88
  0
MTEXT
  5
475
100
AcDbEntity
  8
0
100
AcDbMText
 62
2
  6
CONTINUOUS
  7
TEXTSTYLE_3
 71
2
 72
1
 10
11.03
 20
2.516432
 30
0.0
 11
1.0
 21
0.0
 31
0.0
 44
0.9
  1
and is proprietary in general
 40
0.08
 41
1.972
  0
MTEXT
  5
476
100
AcDbEntity
  8
0
100
AcDbMText
 62
2
  6
CONTINUOUS
  7
TEXTSTYLE_3
 71
2
 72
1
 10
11.03
 20
2.396432
 30
0.0
 11
1.0
 21
0.0
 31
0.0
 44
0.9
  1
and in detail.  Its contents
 40
0.08
 41
1.904
  0
MTEXT
  5
477
100
AcDbEntity
  8
0
100
AcDbMText
 62
2
  6
CONTINUOUS
  7
TEXTSTYLE_3
 71
2
 72
1
 10
11.03
 20
2.276432
 30
0.0
 11
1.0
 21
0.0
 31
0.0
 44
0.9
  1
shall not be revealed to
 40
0.08
 41
1.632
  0
MTEXT
  5
478
100
AcDbEntity
  8
0
100
AcDbMText
 62
2
  6
CONTINUOUS
  7
TEXTSTYLE_3
 71
2
 72
1
 10
11.03
 20
2.156432
 30
0.0
 11
1.0
 21
0.0
 31
0.0
 44
0.9
  1
outside parties without
 40
0.08
 41
1.564
  0
MTEXT
  5
479
100
AcDbEntity
  8
0
100
AcDbMText
 62
2
  6
CONTINUOUS
  7
TEXTSTYLE_3
 71
2
 72
1
 10
11.03
 20
2.036432
 30
0.0
 11
1.0
 21
0.0
 31
0.0
 44
0.9
  1
written consent of BANNER.
 40
0.08
 41
1.768
  0
MTEXT
  5
47A
100
AcDbEntity
  8
0
100
AcDbMText
 62
2
  6
CONTINUOUS
  7
TEXTSTYLE_2
 71
1
 72
1
 10
12.08
 20
2.217
 30
0.0
 11
1.0
 21
0.0
 31
0.0
 44
0.9
  1
TITLE
 40
0.1
 41
0.4
  0
MTEXT
  5
47B
100
AcDbEntity
  8
0
100
AcDbMText
 62
2
  6
CONTINUOUS
  7
STANDARD
 71
1
 72
1
 10
12.08
 20
1.457
 30
0.0
 11
1.0
 21
0.0
 31
0.0
 44
0.9
  1
SIZE
 40
0.08
 41
0.32
  0
MTEXT
  5
47C
100
AcDbEntity
  8
0
100
AcDbMText
 62
2
  6
CONTINUOUS
  7
STANDARD
 71
1
 72
1
 10
12.08
 20
1.087
 30
0.0
 11
1.0
 21
0.0
 31
0.0
 44
0.9
  1
SCALE
 40
0.08
 41
0.4
  0
MTEXT
  5
47D
100
AcDbEntity
  8
0
100
AcDbMText
 62
2
  6
CONTINUOUS
  7
TEXTSTYLE_2
 71
2
 72
1
 10
12.5
 20
1.337
 30
0.0
 11
1.0
 21
0.0
 31
0.0
 44
0.9
  1
B
 40
0.1
 41
0.08
  0
MTEXT
  5
47E
100
AcDbEntity
  8
0
100
AcDbMText
 62
2
  6
CONTINUOUS
  7
TEXTSTYLE_3
 71
2
 72
1
 10
11.03
 20
2.636432
 30
0.0
 11
1.0
 21
0.0
 31
0.0
 44
0.9
  1
of BANNER ENGINEERING CORP.
 40
0.08
 41
1.836
  0
MTEXT
  5
47F
100
AcDbEntity
  8
0
100
AcDbMText
 62
2
  6
CONTINUOUS
  7
TEXTSTYLE_3
 71
2
 72
1
 10
11.03
 20
2.756432
 30
0.0
 11
1.0
 21
0.0
 31
0.0
 44
0.9
  1
This drawing is the property
 40
0.08
 41
1.904
  0
MTEXT
  5
480
100
AcDbEntity
  8
0
100
AcDbMText
 62
2
  6
CONTINUOUS
  7
TEXTSTYLE_2
 71
2
 72
1
 10
15.03
 20
2.4134
 30
0.0
 11
1.0
 21
0.0
 31
0.0
 44
0.9
  1
MINNEAPOLIS, MN 55440
 40
0.1
 41
1.68
  0
MTEXT
  5
481
100
AcDbEntity
  8
0
100
AcDbMText
 62
2
  6
CONTINUOUS
  7
STANDARD
 71
1
 72
1
 10
14.255
 20
1.087
 30
0.0
 11
1.0
 21
0.0
 31
0.0
 44
0.9
  1
SHEET
 40
0.08
 41
0.4
  0
MTEXT
  5
482
100
AcDbEntity
  8
0
100
AcDbMText
 62
2
  6
CONTINUOUS
  7
STANDARD
 71
1
 72
1
 10
15.63
 20
1.457
 30
0.0
 11
1.0
 21
0.0
 31
0.0
 44
0.9
  1
REV.
 40
0.08
 41
0.32
  0
MTEXT
  5
483
100
AcDbEntity
  8
0
100
AcDbMText
 62
2
  6
CONTINUOUS
  7
STANDARD
 71
3
 72
1
 10
16.38
 20
0.835443
 30
0.0
 11
1.0
 21
0.0
 31
0.0
 44
0.9
  1
PRO/E
 40
0.07
 41
0.35
  0
MTEXT
  5
484
100
AcDbEntity
  8
0
100
AcDbMText
 62
2
  6
CONTINUOUS
  7
TEXTSTYLE_4
 71
2
 72
1
 10
15.03
 20
2.751049
 30
0.0
 11
1.0
 21
0.0
 31
0.0
 44
0.9
  1
BANNER ENGINEERING CORP.
 40
0.12
 41
2.6496
  0
MTEXT
  5
485
100
AcDbEntity
  8
0
100
AcDbMText
 62
2
  6
CONTINUOUS
  7
TEXTSTYLE_2
 71
2
 72
1
 10
15.03
 20
2.5724
 30
0.0
 11
1.0
 21
0.0
 31
0.0
 44
0.9
  1
P.O. BOX 9414
 40
0.1
 41
1.04
  0
MTEXT
  5
486
100
AcDbEntity
  8
0
100
AcDbMText
 62
2
  6
CONTINUOUS
  7
TEXTSTYLE_2
 71
2
 72
1
 10
9.485
 20
10.312
 30
0.0
 11
1.0
 21
0.0
 31
0.0
 44
0.9
  1
4
 40
0.1
 41
0.08
  0
MTEXT
  5
487
100
AcDbEntity
  8
0
100
AcDbMText
 62
2
  6
CONTINUOUS
  7
TEXTSTYLE_2
 71
2
 72
1
 10
11.455
 20
10.312
 30
0.0
 11
1.0
 21
0.0
 31
0.0
 44
0.9
  1
3
 40
0.1
 41
0.08
  0
MTEXT
  5
488
100
AcDbEntity
  8
0
100
AcDbMText
 62
2
  6
CONTINUOUS
  7
TEXTSTYLE_2
 71
2
 72
1
 10
13.425
 20
10.312
 30
0.0
 11
1.0
 21
0.0
 31
0.0
 44
0.9
  1
2
 40
0.1
 41
0.08
  0
MTEXT
  5
489
100
AcDbEntity
  8
0
100
AcDbMText
 62
2
  6
CONTINUOUS
  7
TEXTSTYLE_2
 71
2
 72
1
 10
15.395
 20
10.312
 30
0.0
 11
1.0
 21
0.0
 31
0.0
 44
0.9
  1
1
 40
0.1
 41
0.08
  0
MTEXT
  5
48A
100
AcDbEntity
  8
0
100
AcDbMText
 62
2
  6
CONTINUOUS
  7
TEXTSTYLE_2
 71
2
 72
1
 10
3.575
 20
10.312
 30
0.0
 11
1.0
 21
0.0
 31
0.0
 44
0.9
  1
7
 40
0.1
 41
0.08
  0
MTEXT
  5
48B
100
AcDbEntity
  8
0
100
AcDbMText
 62
2
  6
CONTINUOUS
  7
TEXTSTYLE_2
 71
2
 72
1
 10
5.545
 20
10.312
 30
0.0
 11
1.0
 21
0.0
 31
0.0
 44
0.9
  1
6
 40
0.1
 41
0.08
  0
MTEXT
  5
48C
100
AcDbEntity
  8
0
100
AcDbMText
 62
2
  6
CONTINUOUS
  7
TEXTSTYLE_2
 71
2
 72
1
 10
7.515
 20
10.312
 30
0.0
 11
1.0
 21
0.0
 31
0.0
 44
0.9
  1
5
 40
0.1
 41
0.08
  0
MTEXT
  5
48D
100
AcDbEntity
  8
0
100
AcDbMText
 62
2
  6
CONTINUOUS
  7
TEXTSTYLE_2
 71
2
 72
1
 10
1.605
 20
10.312
 30
0.0
 11
1.0
 21
0.0
 31
0.0
 44
0.9
  1
8
 40
0.1
 41
0.08
  0
MTEXT
  5
48E
100
AcDbEntity
  8
0
100
AcDbMText
 62
2
  6
CONTINUOUS
  7
TEXTSTYLE_2
 71
2
 72
1
 10
1.605
 20
0.787
 30
0.0
 11
1.0
 21
0.0
 31
0.0
 44
0.9
  1
8
 40
0.1
 41
0.08
  0
MTEXT
  5
48F
100
AcDbEntity
  8
0
100
AcDbMText
 62
2
  6
CONTINUOUS
  7
TEXTSTYLE_2
 71
2
 72
1
 10
3.575
 20
0.787
 30
0.0
 11
1.0
 21
0.0
 31
0.0
 44
0.9
  1
7
 40
0.1
 41
0.08
  0
MTEXT
  5
490
100
AcDbEntity
  8
0
100
AcDbMText
 62
2
  6
CONTINUOUS
  7
TEXTSTYLE_2
 71
2
 72
1
 10
5.545
 20
0.787
 30
0.0
 11
1.0
 21
0.0
 31
0.0
 44
0.9
  1
6
 40
0.1
 41
0.08
  0
MTEXT
  5
491
100
AcDbEntity
  8
0
100
AcDbMText
 62
2
  6
CONTINUOUS
  7
TEXTSTYLE_2
 71
2
 72
1
 10
7.515
 20
0.787
 30
0.0
 11
1.0
 21
0.0
 31
0.0
 44
0.9
  1
5
 40
0.1
 41
0.08
  0
MTEXT
  5
492
100
AcDbEntity
  8
0
100
AcDbMText
 62
2
  6
CONTINUOUS
  7
TEXTSTYLE_2
 71
2
 72
1
 10
9.485
 20
0.787
 30
0.0
 11
1.0
 21
0.0
 31
0.0
 44
0.9
  1
4
 40
0.1
 41
0.08
  0
MTEXT
  5
493
100
AcDbEntity
  8
0
100
AcDbMText
 62
2
  6
CONTINUOUS
  7
TEXTSTYLE_2
 71
2
 72
1
 10
11.455
 20
0.787
 30
0.0
 11
1.0
 21
0.0
 31
0.0
 44
0.9
  1
3
 40
0.1
 41
0.08
  0
MTEXT
  5
494
100
AcDbEntity
  8
0
100
AcDbMText
 62
2
  6
CONTINUOUS
  7
TEXTSTYLE_2
 71
2
 72
1
 10
13.425
 20
0.787
 30
0.0
 11
1.0
 21
0.0
 31
0.0
 44
0.9
  1
2
 40
0.1
 41
0.08
  0
MTEXT
  5
495
100
AcDbEntity
  8
0
100
AcDbMText
 62
2
  6
CONTINUOUS
  7
TEXTSTYLE_2
 71
2
 72
1
 10
15.395
 20
0.787
 30
0.0
 11
1.0
 21
0.0
 31
0.0
 44
0.9
  1
1
 40
0.1
 41
0.08
  0
MTEXT
  5
496
100
AcDbEntity
  8
0
100
AcDbMText
 62
2
  6
CONTINUOUS
  7
TEXTSTYLE_2
 71
3
 72
1
 10
0.52
 20
4.3995
 30
0.0
 11
1.0
 21
0.0
 31
0.0
 44
0.9
  1
B
 40
0.1
 41
0.08
  0
MTEXT
  5
497
100
AcDbEntity
  8
0
100
AcDbMText
 62
2
  6
CONTINUOUS
  7
TEXTSTYLE_2
 71
3
 72
1
 10
0.52
 20
2.0995
 30
0.0
 11
1.0
 21
0.0
 31
0.0
 44
0.9
  1
A
 40
0.1
 41
0.08
  0
MTEXT
  5
498
100
AcDbEntity
  8
0
100
AcDbMText
 62
2
  6
CONTINUOUS
  7
TEXTSTYLE_2
 71
3
 72
1
 10
0.52
 20
8.9995
 30
0.0
 11
1.0
 21
0.0
 31
0.0
 44
0.9
  1
D
 40
0.1
 41
0.08
  0
MTEXT
  5
499
100
AcDbEntity
  8
0
100
AcDbMText
 62
2
  6
CONTINUOUS
  7
TEXTSTYLE_2
 71
3
 72
1
 10
0.52
 20
6.6995
 30
0.0
 11
1.0
 21
0.0
 31
0.0
 44
0.9
  1
C
 40
0.1
 41
0.08
  0
MTEXT
  5
49A
100
AcDbEntity
  8
0
100
AcDbMText
 62
2
  6
CONTINUOUS
  7
TEXTSTYLE_2
 71
1
 72
1
 10
16.48
 20
8.9995
 30
0.0
 11
1.0
 21
0.0
 31
0.0
 44
0.9
  1
D
 40
0.1
 41
0.08
  0
MTEXT
  5
49B
100
AcDbEntity
  8
0
100
AcDbMText
 62
2
  6
CONTINUOUS
  7
TEXTSTYLE_2
 71
1
 72
1
 10
16.48
 20
6.6995
 30
0.0
 11
1.0
 21
0.0
 31
0.0
 44
0.9
  1
C
 40
0.1
 41
0.08
  0
MTEXT
  5
49C
100
AcDbEntity
  8
0
100
AcDbMText
 62
2
  6
CONTINUOUS
  7
TEXTSTYLE_2
 71
1
 72
1
 10
16.48
 20
4.3995
 30
0.0
 11
1.0
 21
0.0
 31
0.0
 44
0.9
  1
B
 40
0.1
 41
0.08
  0
MTEXT
  5
49D
100
AcDbEntity
  8
0
100
AcDbMText
 62
2
  6
CONTINUOUS
  7
TEXTSTYLE_2
 71
1
 72
1
 10
16.48
 20
2.0995
 30
0.0
 11
1.0
 21
0.0
 31
0.0
 44
0.9
  1
A
 40
0.1
 41
0.08
  0
MTEXT
  5
49E
100
AcDbEntity
  8
0
100
AcDbMText
 62
2
  6
CONTINUOUS
  7
STANDARD
 71
1
 72
1
 10
14.819264911
 20
1.0627941725
 30
0.0
 11
1.0
 21
0.0
 31
0.0
 44
0.9
  1
1 OF 1
 40
0.1
 41
0.6
  0
MTEXT
  5
49F
100
AcDbEntity
  8
0
100
AcDbMText
 62
7
  6
CONTINUOUS
  7
STANDARD
 71
1
 72
1
 10
13.8911999818
 20
1.3747321586
 30
0.0
 11
1.0
 21
0.0
 31
0.0
 44
0.9
  1
155378
 40
0.12
 41
0.72
  0
MTEXT
  5
4A0
100
AcDbEntity
  8
0
100
AcDbMText
 62
2
  6
CONTINUOUS
  7
STANDARD
 71
1
 72
1
 10
12.644264911
 20
1.0627941725
 30
0.0
 11
1.0
 21
0.0
 31
0.0
 44
0.9
  1
1:1
 40
0.1
 41
0.3
  0
MTEXT
  5
4A1
100
AcDbEntity
  8
0
100
AcDbMText
 62
2
  6
CONTINUOUS
  7
STANDARD
 71
1
 72
1
 10
1.0597007627
 20
1.6202922458
 30
0.0
 11
1.0
 21
0.0
 31
0.0
 44
0.9
  1
NOTES:\P1. ALL DIMENSIONS ARE MILLIMETERS [INCHES] UNLESS OTHERWISE NOTED.
 40
0.1
 41
6.6
  0
INSERT
  5
4A2
100
AcDbEntity
  8
0
100
AcDbBlockReference
 62
2
  6
CONTINUOUS
  2
BANNER_LOGO_TITLEBLOCK_BL0
 10
12.9086867042
 20
2.5403783405
  0
DIMENSION
  5
4A3
100
AcDbEntity
  8
SCHEME_DIMS
100
AcDbDimension
 62
2
  6
CONTINUOUS
  2
*D0
 10
1.9594820671
 20
8.6157611652
 11
1.6482615947
 21
8.5407611652
 70
160
 71
2
 42
12.0
  3
DIMSTYLE_1
100
AcDbAlignedDimension
 13
1.4870411222
 23
8.1782611652
 14
1.9594820671
 24
8.0482948807
100
AcDbRotatedDimension
  0
DIMENSION
  5
4A4
100
AcDbEntity
  8
SCHEME_DIMS
100
AcDbDimension
 62
2
  6
CONTINUOUS
  2
*D1
 10
2.4594820671
 20
2.6433202203
 11
2.3594820671
 21
5.3795406927
 70
160
 71
2
 42
139.0
  3
DIMSTYLE_1
100
AcDbAlignedDimension
 13
1.878995153
 23
8.1157611652
 14
1.6223757679
 24
2.6433202203
 50
270.0
100
AcDbRotatedDimension
  0
DIMENSION
  5
4A5
100
AcDbEntity
  8
SCHEME_DIMS
100
AcDbDimension
 62
2
  6
CONTINUOUS
  2
*D2
 10
9.1575700963
 20
9.7407611652
 11
7.0238281357
 21
9.6657611652
 70
160
 71
2
 42
95.0
  3
DIMSTYLE_1
100
AcDbAlignedDimension
 13
5.417412616
 23
8.1782611652
 14
9.1575700963
 24
8.1782611652
100
AcDbRotatedDimension
  0
DIMENSION
  5
4A6
100
AcDbEntity
  8
SCHEME_DIMS
100
AcDbDimension
 62
2
  6
CONTINUOUS
  2
*D3
 10
8.8032393877
 20
9.3657611652
 11
7.3677698314
 21
9.2907611652
 70
160
 71
2
 42
77.0
  3
DIMSTYLE_1
100
AcDbAlignedDimension
 13
5.7717433247
 23
8.0904658896
 14
8.8032393877
 24
8.0904658896
100
AcDbRotatedDimension
  0
DIMENSION
  5
4A7
100
AcDbEntity
  8
SCHEME_DIMS
100
AcDbDimension
 62
2
  6
CONTINUOUS
  2
*D4
 10
6.6969401751
 20
8.9907611652
 11
7.2124913562
 21
8.9157611652
 70
160
 71
2
 42
30.0
  3
DIMSTYLE_1
100
AcDbAlignedDimension
 13
7.8780425373
 23
5.9752836977
 14
6.6969401751
 24
5.9841674182
 50
180.0
100
AcDbRotatedDimension
  0
DIMENSION
  5
4A8
100
AcDbEntity
  8
SCHEME_DIMS
100
AcDbDimension
 62
2
  6
CONTINUOUS
  2
*D5
 10
9.6575700963
 20
6.3834777006
 11
9.5825700963
 21
6.0919223342
 70
160
 71
2
 42
16.0
  3
DIMSTYLE_1
100
AcDbAlignedDimension
 13
8.0639918575
 23
5.7535564408
 14
7.496628198
 24
6.3834777006
 50
90.0
100
AcDbRotatedDimension
  0
DIMENSION
  5
4A9
100
AcDbEntity
  8
SCHEME_DIMS
100
AcDbDimension
 62
2
  6
CONTINUOUS
  2
*D6
 10
4.542412616
 20
7.8795406927
 11
4.467412616
 21
6.6008069441
 70
160
 71
2
 42
77.0
  3
DIMSTYLE_1
100
AcDbAlignedDimension
 13
5.5812490949
 23
4.8480446298
 14
5.5793391697
 24
7.8795406927
 50
90.0
100
AcDbRotatedDimension
  0
DIMENSION
  5
4AA
100
AcDbEntity
  8
SCHEME_DIMS
100
AcDbDimension
 62
2
  6
CONTINUOUS
  2
*D7
 10
6.9879040388
 20
3.9392618248
 11
9.3733181278
 21
4.1109540664
 70
164
 71
1
 42
3.5
  1
4X <>
  3
DIMSTYLE_2
100
AcDbRadialDimension
 15
7.1242465624
 25
3.9592181328
  0
DIMENSION
  5
4AB
100
AcDbEntity
  8
SCHEME_DIMS
100
AcDbDimension
 62
2
  6
CONTINUOUS
  2
*D8
 10
7.3942012447
 20
3.4771634783
 11
9.401040216
 21
2.543082306
 70
163
 71
1
 42
6.53
  1
<>
  3
DIMSTYLE_3
100
AcDbDiametricDimension
 15
7.1807814677
 25
3.6205005843
  0
DIMENSION
  5
4AC
100
AcDbEntity
  8
SCHEME_DIMS
100
AcDbDimension
 62
2
  6
CONTINUOUS
  2
*D9
 10
7.3459586379
 20
6.4117877766
 11
10.1208322565
 21
7.3288401191
 70
163
 71
1
 42
3.3
  1
3X <>
  3
DIMSTYLE_3
100
AcDbDiametricDimension
 15
7.2290240744
 25
6.3551676246
  0
DIMENSION
  5
4AD
100
AcDbEntity
  8
SCHEME_DIMS
100
AcDbDimension
 62
2
  6
CONTINUOUS
  2
*D10
 10
8.8498075433
 20
4.8613264434
 11
10.123402303
 21
4.9451692203
 70
163
 71
1
 42
2.46
  1
4X <>
  3
DIMSTYLE_3
100
AcDbDiametricDimension
 15
8.7566712321
 25
4.8347628161
  0
DIMENSION
  5
4AE
100
AcDbEntity
  8
SCHEME_DIMS
100
AcDbDimension
 62
2
  6
CONTINUOUS
  2
*D11
 10
4.167412616
 20
8.1157611652
 11
4.092412616
 21
6.1904088695
 70
160
 71
2
 42
83.0
  3
DIMSTYLE_1
100
AcDbAlignedDimension
 13
4.5743685169
 23
4.8480446298
 14
5.3464214569
 24
8.1157611652
 50
90.0
100
AcDbRotatedDimension
  0
DIMENSION
  5
4AF
100
AcDbEntity
  8
SCHEME_DIMS
100
AcDbDimension
 62
2
  6
CONTINUOUS
  2
*D12
 10
4.9158550496
 20
5.7535564408
 11
4.8408550496
 21
7.0739105502
 70
160
 71
2
 42
54.0
  3
DIMSTYLE_1
100
AcDbAlignedDimension
 13
5.495727683
 23
7.8795406927
 14
6.48134586
 24
5.7535564408
 50
270.0
100
AcDbRotatedDimension
  0
DIMENSION
  5
4B0
100
AcDbEntity
  8
SCHEME_DIMS
100
AcDbDimension
 62
2
  6
CONTINUOUS
  2
*D13
 10
3.792412616
 20
8.1157611652
 11
3.692412616
 21
5.7572965983
 70
160
 71
2
 42
116.0
  3
DIMSTYLE_1
100
AcDbAlignedDimension
 13
7.0423535534
 23
3.5488320313
 14
4.4266951036
 24
8.1157611652
 50
90.0
100
AcDbRotatedDimension
  0
DIMENSION
  5
4B1
100
AcDbEntity
  8
SCHEME_DIMS
100
AcDbDimension
 62
2
  6
CONTINUOUS
  2
*D14
 10
5.417412616
 20
2.4591482418
 11
6.2274519861
 21
2.3841482418
 70
160
 71
2
 42
47.5
  3
DIMSTYLE_1
100
AcDbAlignedDimension
 13
7.2874913562
 23
3.3088779958
 14
5.417412616
 24
4.5934983291
 50
180.0
100
AcDbRotatedDimension
  0
DIMENSION
  5
4B2
100
AcDbEntity
  8
0
100
AcDbDimension
 62
2
  6
CONTINUOUS
  2
*D15
 10
7.8780425373
 20
8.6157611652
 11
7.4827669467
 21
8.5407611652
 70
160
 71
2
 42
15.0
  3
DIMSTYLE_4
100
AcDbAlignedDimension
 13
7.2874913562
 23
6.6024863484
 14
7.8780425373
 24
6.9257746926
100
AcDbRotatedDimension
  0
LINE
  5
4B3
100
AcDbEntity
  8
0
100
AcDbLine
 62
2
  6
CONTINUOUS
 10
16.38
 20
0.887
 11
12.03
 21
0.887
  0
LINE
  5
4B4
100
AcDbEntity
  8
0
100
AcDbLine
 62
2
  6
CONTINUOUS
 10
16.38
 20
0.887
 11
16.38
 21
2.807
  0
LINE
  5
4B5
100
AcDbEntity
  8
0
100
AcDbLine
 62
2
  6
CONTINUOUS
 10
16.38
 20
2.807
 11
12.03
 21
2.807
  0
LINE
  5
4B6
100
AcDbEntity
  8
0
100
AcDbLine
 62
2
  6
CONTINUOUS
 10
12.03
 20
0.887
 11
12.03
 21
2.807
  0
MTEXT
  5
4B7
100
AcDbEntity
  8
NOTES
100
AcDbMText
 62
7
  6
CONTINUOUS
  7
STANDARD
 71
2
 72
1
 10
16.155
 20
1.367
 30
0.0
 11
1.0
 21
0.0
 31
0.0
 44
0.9
  1
-
 40
0.1
 41
0.1
  0
MTEXT
  5
4B8
100
AcDbEntity
  8
NOTES
100
AcDbMText
 62
7
  6
CONTINUOUS
  7
STANDARD
 71
2
 72
1
 10
14.205
 20
1.967
 30
0.0
 11
1.0
 21
0.0
 31
0.0
 44
0.9
  1
SMBAMSR85P\PWEB CAD DRAWINGS 2D/3D
 40
0.1
 41
2.2
  0
LEADER
  5
4B9
100
AcDbEntity
  8
NOTES
100
AcDbLeader
 62
2
  6
CONTINUOUS
  3
STANDARD
 71
1
 72
0
 73
0
 75
0
 40
0.1
 41
0.7
 76
3
 10
7.77277161
 20
3.6304268838
 30
0.0
 10
8.6733181278
 20
3.308342619
 30
0.0
 10
8.9233181278
 20
3.308342619
 30
0.0
340
4BA
1001
ACAD
1000
DSTYLE
1002
{
1070
77
1070
0
1002
}
  0
MTEXT
  5
4BA
102
{ACAD_REACTORS
330
4B9
102
}
100
AcDbEntity
  8
NOTES
100
AcDbMText
 62
2
  6
CONTINUOUS
  7
STANDARD
 71
1
 72
1
 10
8.9233181278
 20
3.358342619
 30
0.0
 11
1.0
 21
0.0
 31
0.0
 44
0.9
  1
R12.5  \P [.49]
 40
0.1
 41
0.7
  0
MTEXT
  5
4BB
100
AcDbEntity
  8
NOTES
100
AcDbMText
 62
2
  6
CONTINUOUS
  7
STANDARD
 71
2
 72
1
 10
13.2296100699
 20
3.6896842825
 30
0.0
 11
1.0
 21
0.0
 31
0.0
 44
0.9
  1
ISOMETRIC VIEW\PSCALE  1:1
 40
0.1
 41
1.4
  0
LINE
  5
4BC
100
AcDbEntity
  8
0
100
AcDbLine
 62
2
  6
CONTINUOUS
 10
0.47
 20
5.586103
 11
0.47
 21
5.412897
  0
LINE
  5
4BD
100
AcDbEntity
  8
0
100
AcDbLine
 62
2
  6
CONTINUOUS
 10
0.62
 20
10.112
 11
0.62
 21
0.887
  0
LINE
  5
4BE
100
AcDbEntity
  8
0
100
AcDbLine
 62
2
  6
CONTINUOUS
 10
2.59
 20
0.887
 11
2.59
 21
0.637
  0
LINE
  5
4BF
100
AcDbEntity
  8
0
100
AcDbLine
 62
2
  6
CONTINUOUS
 10
2.59
 20
10.112
 11
2.59
 21
10.362
  0
LINE
  5
4C0
100
AcDbEntity
  8
0
100
AcDbLine
 62
2
  6
CONTINUOUS
 10
8.413397
 20
0.737
 11
8.586603
 21
0.737
  0
LINE
  5
4C1
100
AcDbEntity
  8
0
100
AcDbLine
 62
7
  6
CONTINUOUS
 10
11.1389508475
 20
1.425992839
 11
11.7453418475
 21
1.495385839
  0
LINE
  5
4C2
100
AcDbEntity
  8
0
100
AcDbLine
 62
2
  6
CONTINUOUS
 10
0.62
 20
0.887
 11
16.38
 21
0.887
  0
LINE
  5
4C3
100
AcDbEntity
  8
0
100
AcDbLine
 62
2
  6
CONTINUOUS
 10
12.03
 20
1.137
 11
16.38
 21
1.137
  0
LINE
  5
4C4
100
AcDbEntity
  8
0
100
AcDbLine
 62
7
  6
CONTINUOUS
 10
10.2121898475
 20
1.243294839
 11
10.4342808475
 21
1.243294839
  0
LINE
  5
4C5
100
AcDbEntity
  8
0
100
AcDbLine
 62
7
  6
CONTINUOUS
 10
10.4842808475
 20
1.243294839
 11
10.5842808475
 21
1.243294839
  0
LINE
  5
4C6
100
AcDbEntity
  8
0
100
AcDbLine
 62
7
  6
CONTINUOUS
 10
10.6342808475
 20
1.243294839
 11
10.8563718475
 21
1.243294839
  0
LINE
  5
4C7
100
AcDbEntity
  8
0
100
AcDbLine
 62
7
  6
CONTINUOUS
 10
11.0389508475
 20
1.243294839
 11
11.3171028475
 21
1.243294839
  0
LINE
  5
4C8
100
AcDbEntity
  8
0
100
AcDbLine
 62
7
  6
CONTINUOUS
 10
11.3671028475
 20
1.243294839
 11
11.5171888475
 21
1.243294839
  0
LINE
  5
4C9
100
AcDbEntity
  8
0
100
AcDbLine
 62
7
  6
CONTINUOUS
 10
11.5671888475
 20
1.243294839
 11
11.8453418475
 21
1.243294839
  0
LINE
  5
4CA
100
AcDbEntity
  8
0
100
AcDbLine
 62
7
  6
CONTINUOUS
 10
11.7453418475
 20
0.991203839
 11
11.1389508475
 21
1.060596839
  0
LINE
  5
4CB
100
AcDbEntity
  8
0
100
AcDbLine
 62
2
  6
CONTINUOUS
 10
4.56
 20
0.887
 11
4.56
 21
0.637
  0
LINE
  5
4CC
100
AcDbEntity
  8
0
100
AcDbLine
 62
2
  6
CONTINUOUS
 10
4.56
 20
10.112
 11
4.56
 21
10.362
  0
LINE
  5
4CD
100
AcDbEntity
  8
0
100
AcDbLine
 62
2
  6
CONTINUOUS
 10
0.47
 20
5.412897
 11
0.62
 21
5.4995
  0
LINE
  5
4CE
100
AcDbEntity
  8
0
100
AcDbLine
 62
2
  6
CONTINUOUS
 10
12.03
 20
1.507
 11
16.38
 21
1.507
  0
LINE
  5
4CF
100
AcDbEntity
  8
0
100
AcDbLine
 62
2
  6
CONTINUOUS
 10
10.03
 20
1.907
 11
12.03
 21
1.907
  0
LINE
  5
4D0
100
AcDbEntity
  8
0
100
AcDbLine
 62
2
  6
CONTINUOUS
 10
0.62
 20
5.4995
 11
0.47
 21
5.586103
  0
LINE
  5
4D1
100
AcDbEntity
  8
0
100
AcDbLine
 62
2
  6
CONTINUOUS
 10
12.03
 20
2.267
 11
16.38
 21
2.267
  0
LINE
  5
4D2
100
AcDbEntity
  8
0
100
AcDbLine
 62
2
  6
CONTINUOUS
 10
8.5
 20
10.112
 11
8.586603
 21
10.262
  0
LINE
  5
4D3
100
AcDbEntity
  8
0
100
AcDbLine
 62
2
  6
CONTINUOUS
 10
16.38
 20
2.807
 11
10.03
 21
2.807
  0
LINE
  5
4D4
100
AcDbEntity
  8
0
100
AcDbLine
 62
2
  6
CONTINUOUS
 10
0.62
 20
3.1995
 11
0.37
 21
3.1995
  0
LINE
  5
4D5
100
AcDbEntity
  8
0
100
AcDbLine
 62
2
  6
CONTINUOUS
 10
16.38
 20
3.1995
 11
16.63
 21
3.1995
  0
LINE
  5
4D6
100
AcDbEntity
  8
0
100
AcDbLine
 62
2
  6
CONTINUOUS
 10
8.586603
 20
0.737
 11
8.5
 21
0.887
  0
LINE
  5
4D7
100
AcDbEntity
  8
0
100
AcDbLine
 62
2
  6
CONTINUOUS
 10
6.53
 20
0.887
 11
6.53
 21
0.637
  0
LINE
  5
4D8
100
AcDbEntity
  8
0
100
AcDbLine
 62
2
  6
CONTINUOUS
 10
6.53
 20
10.112
 11
6.53
 21
10.362
  0
LINE
  5
4D9
100
AcDbEntity
  8
0
100
AcDbLine
 62
2
  6
CONTINUOUS
 10
8.5
 20
0.887
 11
8.5
 21
0.637
  0
LINE
  5
4DA
100
AcDbEntity
  8
0
100
AcDbLine
 62
2
  6
CONTINUOUS
 10
8.5
 20
10.112
 11
8.5
 21
10.362
  0
LINE
  5
4DB
100
AcDbEntity
  8
0
100
AcDbLine
 62
2
  6
CONTINUOUS
 10
0.62
 20
5.4995
 11
0.37
 21
5.4995
  0
LINE
  5
4DC
100
AcDbEntity
  8
0
100
AcDbLine
 62
2
  6
CONTINUOUS
 10
16.38
 20
5.4995
 11
16.63
 21
5.4995
  0
LINE
  5
4DD
100
AcDbEntity
  8
0
100
AcDbLine
 62
2
  6
CONTINUOUS
 10
10.03
 20
2.807
 11
10.03
 21
0.887
  0
LINE
  5
4DE
100
AcDbEntity
  8
0
100
AcDbLine
 62
2
  6
CONTINUOUS
 10
10.47
 20
0.887
 11
10.47
 21
0.637
  0
LINE
  5
4DF
100
AcDbEntity
  8
0
100
AcDbLine
 62
2
  6
CONTINUOUS
 10
10.47
 20
10.112
 11
10.47
 21
10.362
  0
LINE
  5
4E0
100
AcDbEntity
  8
0
100
AcDbLine
 62
7
  6
CONTINUOUS
 10
10.5342808475
 20
1.143294839
 11
10.5342808475
 21
0.921203839
  0
LINE
  5
4E1
100
AcDbEntity
  8
0
100
AcDbLine
 62
7
  6
CONTINUOUS
 10
10.5342808475
 20
1.193294839
 11
10.5342808475
 21
1.293294839
  0
LINE
  5
4E2
100
AcDbEntity
  8
0
100
AcDbLine
 62
7
  6
CONTINUOUS
 10
10.5342808475
 20
1.343294839
 11
10.5342808475
 21
1.565385839
  0
LINE
  5
4E3
100
AcDbEntity
  8
0
100
AcDbLine
 62
2
  6
CONTINUOUS
 10
8.5
 20
0.887
 11
8.413397
 21
0.737
  0
LINE
  5
4E4
100
AcDbEntity
  8
0
100
AcDbLine
 62
2
  6
CONTINUOUS
 10
0.62
 20
7.7995
 11
0.37
 21
7.7995
  0
LINE
  5
4E5
100
AcDbEntity
  8
0
100
AcDbLine
 62
2
  6
CONTINUOUS
 10
16.38
 20
7.7995
 11
16.63
 21
7.7995
  0
LINE
  5
4E6
100
AcDbEntity
  8
0
100
AcDbLine
 62
2
  6
CONTINUOUS
 10
8.413397
 20
10.262
 11
8.5
 21
10.112
  0
LINE
  5
4E7
100
AcDbEntity
  8
0
100
AcDbLine
 62
7
  6
CONTINUOUS
 10
11.1389508475
 20
1.060596839
 11
11.1389508475
 21
1.425992839
  0
LINE
  5
4E8
100
AcDbEntity
  8
0
100
AcDbLine
 62
7
  6
CONTINUOUS
 10
11.7453418475
 20
1.495385839
 11
11.7453418475
 21
0.991203839
  0
LINE
  5
4E9
100
AcDbEntity
  8
0
100
AcDbLine
 62
1
  6
CONTINUOUS
 10
12.03
 20
2.807
 11
12.03
 21
0.887
  0
LINE
  5
4EA
100
AcDbEntity
  8
0
100
AcDbLine
 62
2
  6
CONTINUOUS
 10
12.44
 20
0.887
 11
12.44
 21
0.637
  0
LINE
  5
4EB
100
AcDbEntity
  8
0
100
AcDbLine
 62
2
  6
CONTINUOUS
 10
12.44
 20
10.112
 11
12.44
 21
10.362
  0
LINE
  5
4EC
100
AcDbEntity
  8
0
100
AcDbLine
 62
2
  6
CONTINUOUS
 10
16.53
 20
5.586103
 11
16.38
 21
5.4995
  0
LINE
  5
4ED
100
AcDbEntity
  8
0
100
AcDbLine
 62
2
  6
CONTINUOUS
 10
16.38
 20
5.4995
 11
16.53
 21
5.412897
  0
LINE
  5
4EE
100
AcDbEntity
  8
0
100
AcDbLine
 62
2
  6
CONTINUOUS
 10
12.83
 20
1.507
 11
12.83
 21
1.137
  0
LINE
  5
4EF
100
AcDbEntity
  8
0
100
AcDbLine
 62
2
  6
CONTINUOUS
 10
16.38
 20
10.112
 11
0.62
 21
10.112
  0
LINE
  5
4F0
100
AcDbEntity
  8
0
100
AcDbLine
 62
2
  6
CONTINUOUS
 10
8.586603
 20
10.262
 11
8.413397
 21
10.262
  0
LINE
  5
4F1
100
AcDbEntity
  8
0
100
AcDbLine
 62
2
  6
CONTINUOUS
 10
14.205
 20
1.137
 11
14.205
 21
0.887
  0
LINE
  5
4F2
100
AcDbEntity
  8
0
100
AcDbLine
 62
2
  6
CONTINUOUS
 10
14.41
 20
0.887
 11
14.41
 21
0.637
  0
LINE
  5
4F3
100
AcDbEntity
  8
0
100
AcDbLine
 62
2
  6
CONTINUOUS
 10
14.41
 20
10.112
 11
14.41
 21
10.362
  0
LINE
  5
4F4
100
AcDbEntity
  8
0
100
AcDbLine
 62
2
  6
CONTINUOUS
 10
15.58
 20
1.507
 11
15.58
 21
1.137
  0
LINE
  5
4F5
100
AcDbEntity
  8
0
100
AcDbLine
 62
2
  6
CONTINUOUS
 10
16.38
 20
0.887
 11
16.38
 21
10.112
  0
LINE
  5
4F6
100
AcDbEntity
  8
0
100
AcDbLine
 62
2
  6
CONTINUOUS
 10
16.53
 20
5.412897
 11
16.53
 21
5.586103
  0
LWPOLYLINE
  5
4F7
100
AcDbEntity
  8
0
100
AcDbPolyline
 62
7
  6
CONTINUOUS
 90
8
 70
0
 10
11.9344759943
 20
9.2585776281
 10
11.9099986368
 20
9.2413007977
 10
11.8861483616
 20
9.2179351243
 10
11.864891291
 20
9.190206394
 10
11.8475137125
 20
9.1600998332
 10
11.8341451326
 20
9.1278504942
 10
11.8258436514
 20
9.0955355243
 10
11.8231210593
 20
9.0657041523
  0
LINE
  5
4F8
100
AcDbEntity
  8
0
100
AcDbLine
 62
7
  6
CONTINUOUS
 10
11.9985046531
 20
9.3550130074
 11
11.882973908
 21
9.2883116988
  0
LINE
  5
4F9
100
AcDbEntity
  8
0
100
AcDbLine
 62
7
  6
CONTINUOUS
 10
12.0500067394
 20
9.3252789367
 11
11.9344759943
 21
9.2585776281
  0
LWPOLYLINE
  5
4FA
100
AcDbEntity
  8
0
100
AcDbPolyline
 62
7
  6
CONTINUOUS
 90
6
 70
0
 10
12.0500067394
 20
9.3252789367
 10
12.0698654384
 20
9.333617961
 10
12.0935225393
 20
9.3380484397
 10
12.1178461539
 20
9.3380484982
 10
12.1415033187
 20
9.3336181332
 10
12.161362138
 20
9.3252792043
  0
LWPOLYLINE
  5
4FB
100
AcDbEntity
  8
0
100
AcDbPolyline
 62
7
  6
CONTINUOUS
 90
4
 70
0
 10
12.2805087951
 20
9.0915514325
 10
12.2785019722
 20
9.0901907986
 10
12.2725559239
 20
9.0817315414
 10
12.270490883
 20
9.0694005327
  0
LWPOLYLINE
  5
4FC
100
AcDbEntity
  8
0
100
AcDbPolyline
 62
7
  6
CONTINUOUS
 90
4
 70
0
 10
12.3289568261
 20
9.007711355
 10
12.330963649
 20
9.0090719889
 10
12.3369096973
 20
9.0175312461
 10
12.3389747382
 20
9.0298622549
  0
LWPOLYLINE
  5
4FD
100
AcDbEntity
  8
AXIS
100
AcDbPolyline
 62
7
  6
CONTINUOUS
 90
13
 70
0
 10
13.6476895998
 20
4.3302111869
 10
13.6256613783
 20
4.328243374
 10
13.6010920898
 20
4.3348263514
 10
13.5756560906
 20
4.3495115001
 10
13.5510868021
 20
4.3712980516
 10
13.5290585806
 20
4.3987012883
 10
13.5110726131
 20
4.4298537249
 10
13.4983546135
 20
4.4626323744
 10
13.4917712925
 20
4.4948034259
 10
13.4917712925
 20
4.5241744755
 10
13.4983546135
 20
4.5487439347
 10
13.5110726131
 20
4.5668374354
 10
13.5194076945
 20
4.5729936533
  0
LWPOLYLINE
  5
4FE
100
AcDbEntity
  8
AXIS
100
AcDbPolyline
 62
7
  6
CONTINUOUS
 90
11
 70
0
 10
13.6991912572
 20
4.3599455052
 10
13.6771630358
 20
4.3579776923
 10
13.6525937472
 20
4.3645606697
 10
13.6271577481
 20
4.3792458184
 10
13.6025884595
 20
4.4010323699
 10
13.5805602381
 20
4.4284356066
 10
13.5625742705
 20
4.4595880432
 10
13.549856271
 20
4.4923666927
 10
13.5432729499
 20
4.5245377442
 10
13.5432729499
 20
4.5539087938
 10
13.549856271
 20
4.578478253
  0
LWPOLYLINE
  5
4FF
100
AcDbEntity
  8
0
100
AcDbPolyline
 62
7
  6
CONTINUOUS
 90
4
 70
0
 10
13.9333122957
 20
3.8340051883
 10
13.9511051907
 20
3.8264033419
 10
13.968143238
 20
3.8246842825
 10
13.9825248468
 20
3.8291308543
  0
LWPOLYLINE
  5
500
100
AcDbEntity
  8
AXIS
100
AcDbPolyline
 62
7
  6
CONTINUOUS
 90
6
 70
0
 10
13.2542601792
 20
4.6026548182
 10
13.2534808244
 20
4.6025851973
 10
13.2289115359
 20
4.6091681747
 10
13.2034755367
 20
4.6238533235
 10
13.1789062482
 20
4.6456398749
 10
13.1568780267
 20
4.6730431116
  0
LINE
  5
501
100
AcDbEntity
  8
0
100
AcDbLine
 62
7
  6
CONTINUOUS
 10
12.8197536734
 20
4.4769040144
 11
13.9333122957
 21
3.8340051883
  0
LWPOLYLINE
  5
502
100
AcDbEntity
  8
0
100
AcDbPolyline
 62
7
  6
CONTINUOUS
 90
8
 70
0
 10
11.771618973
 20
9.095438223
 10
11.7743415651
 20
9.125269595
 10
11.7826430463
 20
9.157584565
 10
11.7960116262
 20
9.1898339039
 10
11.8133892048
 20
9.2199404647
 10
11.8346462753
 20
9.247669195
 10
11.8584965505
 20
9.2710348684
 10
11.882973908
 20
9.2883116988
  0
LWPOLYLINE
  5
503
100
AcDbEntity
  8
AXIS
100
AcDbPolyline
 62
7
  6
CONTINUOUS
 90
9
 70
0
 10
13.4605892929
 20
4.8086856099
 10
13.4515597979
 20
4.8095799196
 10
13.428034642
 20
4.8195855811
 10
13.4045094861
 20
4.8367438152
 10
13.3825875307
 20
4.8598853166
 10
13.3637627208
 20
4.8874330302
 10
13.3493179362
 20
4.9175096248
 10
13.340237565
 20
4.9480654302
 10
13.3371404194
 20
4.9770181188
  0
LINE
  5
504
100
AcDbEntity
  8
0
100
AcDbLine
 62
7
  6
CONTINUOUS
 10
11.771618973
 20
9.095438223
 11
11.771618973
 21
6.5237770667
  0
LWPOLYLINE
  5
505
100
AcDbEntity
  8
0
100
AcDbPolyline
 62
7
  6
CONTINUOUS
 90
5
 70
0
 10
11.8231210593
 20
6.494042996
 10
11.8258436514
 20
6.4673553838
 10
11.8341451326
 20
6.4446260815
 10
11.8475137125
 20
6.4278133568
 10
11.8557252604
 20
6.4219320082
  0
LINE
  5
506
100
AcDbEntity
  8
0
100
AcDbLine
 62
7
  6
CONTINUOUS
 10
11.8231210593
 20
6.494042996
 11
11.8231210593
 21
9.0657041523
  0
LWPOLYLINE
  5
507
100
AcDbEntity
  8
0
100
AcDbPolyline
 62
7
  6
CONTINUOUS
 90
7
 70
0
 10
12.1655379828
 20
6.4458224151
 10
12.1678508301
 20
6.4239415955
 10
12.1748808908
 20
6.4002089788
 10
12.1859371465
 20
6.3772021992
 10
12.2003299917
 20
6.3561425382
 10
12.2173428964
 20
6.3382196332
 10
12.2351353967
 20
6.3252768273
  0
LINE
  5
508
100
AcDbEntity
  8
0
100
AcDbLine
 62
9
  6
CONTINUOUS
 10
12.0500067394
 20
6.4964516647
 11
12.0500067394
 21
9.3252789367
  0
LINE
  5
509
100
AcDbEntity
  8
0
100
AcDbLine
 62
9
  6
CONTINUOUS
 10
12.161362138
 20
6.4964519324
 11
12.161362138
 21
9.3252792043
  0
LINE
  5
50A
100
AcDbEntity
  8
0
100
AcDbLine
 62
7
  6
CONTINUOUS
 10
12.1655379828
 20
6.4940410618
 11
12.1655379828
 21
6.4458224151
  0
LWPOLYLINE
  5
50B
100
AcDbEntity
  8
AXIS
100
AcDbPolyline
 62
7
  6
CONTINUOUS
 90
13
 70
0
 10
13.1053763693
 20
5.4594031807
 10
13.1274045907
 20
5.4613709936
 10
13.1519738793
 20
5.4547880162
 10
13.1774098784
 20
5.4401028674
 10
13.201979167
 20
5.418316316
 10
13.2240073884
 20
5.3909130793
 10
13.241993356
 20
5.3597606427
 10
13.2547113555
 20
5.3269819932
 10
13.2612946766
 20
5.2948109417
 10
13.2612946766
 20
5.265439892
 10
13.2547113555
 20
5.2408704329
 10
13.241993356
 20
5.2227769321
 10
13.2336582746
 20
5.2166207143
  0
LWPOLYLINE
  5
50C
100
AcDbEntity
  8
0
100
AcDbPolyline
 62
7
  6
CONTINUOUS
 90
5
 70
0
 10
14.448924902
 20
4.9247813671
 10
14.4580909327
 20
4.9206219344
 10
14.4793480033
 20
4.9174386084
 10
14.5031982784
 20
4.9216126963
 10
14.5276756359
 20
4.932599715
  0
LWPOLYLINE
  5
50D
100
AcDbEntity
  8
AXIS
100
AcDbPolyline
 62
7
  6
CONTINUOUS
 90
11
 70
0
 10
13.1053763693
 20
4.6433087933
 10
13.0455188533
 20
4.7417585204
 10
12.9967470618
 20
4.8453338754
 10
12.9606943711
 20
4.9505661008
 10
12.9385681924
 20
5.0539309496
 10
12.9311095356
 20
5.1519667142
 10
12.9385681924
 20
5.2413901585
 10
12.9606943711
 20
5.319206475
 10
12.9967470618
 20
5.3828095807
 10
13.0455188533
 20
5.4300693959
 10
13.0614925145
 20
5.4402812281
  0
LWPOLYLINE
  5
50E
100
AcDbEntity
  8
AXIS
100
AcDbPolyline
 62
7
  6
CONTINUOUS
 90
9
 70
0
 10
13.1568780267
 20
4.6730431116
 10
13.0970205108
 20
4.7714928387
 10
13.0482487193
 20
4.8750681937
 10
13.0121960286
 20
4.9803004191
 10
12.9900698499
 20
5.0836652679
 10
12.9826111931
 20
5.1817010325
 10
12.9900698499
 20
5.2711244768
 10
13.0121960286
 20
5.3489407933
 10
13.0482487193
 20
5.412543899
  0
LINE
  5
50F
100
AcDbEntity
  8
0
100
AcDbLine
 62
7
  6
CONTINUOUS
 10
11.8042350865
 20
6.45168476
 11
11.8557371728
 21
6.4219506893
  0
LINE
  5
510
100
AcDbEntity
  8
0
100
AcDbLine
 62
7
  6
CONTINUOUS
 10
14.3974347282
 20
4.9545341189
 11
14.4489368144
 21
4.9248000482
  0
LWPOLYLINE
  5
511
100
AcDbEntity
  8
0
100
AcDbPolyline
 62
7
  6
CONTINUOUS
 90
5
 70
0
 10
11.8042231741
 20
6.4516660789
 10
11.7960116262
 20
6.4575474275
 10
11.7826430463
 20
6.4743601522
 10
11.7743415651
 20
6.4970894545
 10
11.771618973
 20
6.5237770667
  0
LWPOLYLINE
  5
512
100
AcDbEntity
  8
AXIS
100
AcDbPolyline
 62
7
  6
CONTINUOUS
 90
10
 70
0
 10
13.2240073884
 20
4.7533393391
 10
13.1869626286
 20
4.8150834789
 10
13.1577506802
 20
4.880121703
 10
13.1375785444
 20
4.9457667129
 10
13.1272797091
 20
5.0093061384
 10
13.1272797091
 20
5.0681146095
 10
13.1375785444
 20
5.1197622333
 10
13.1577506802
 20
5.1621149942
 10
13.1869626286
 20
5.1934229287
 10
13.1992952496
 20
5.2016150326
  0
LWPOLYLINE
  5
513
100
AcDbEntity
  8
AXIS
100
AcDbPolyline
 62
7
  6
CONTINUOUS
 90
8
 70
0
 10
13.2240073884
 20
4.7533393391
 10
13.241993356
 20
4.7221869025
 10
13.2547113555
 20
4.689408253
 10
13.2612946766
 20
4.6572372015
 10
13.2612946766
 20
4.6278661519
 10
13.2547113555
 20
4.6032966927
 10
13.241993356
 20
4.585203192
 10
13.2335816624
 20
4.5790027408
  0
LWPOLYLINE
  5
514
100
AcDbEntity
  8
0
100
AcDbPolyline
 62
7
  6
CONTINUOUS
 90
8
 70
0
 10
12.270490883
 20
6.5941766697
 10
12.2725559239
 20
6.579461211
 10
12.2785019722
 20
6.5641362039
 10
12.2876118468
 20
6.5500500704
 10
12.2987867623
 20
6.5389018061
 10
12.3106788589
 20
6.5320360562
 10
12.3218537744
 20
6.5302809315
 10
12.3289568261
 20
6.5324874921
  0
LWPOLYLINE
  5
515
100
AcDbEntity
  8
0
100
AcDbPolyline
 62
7
  6
CONTINUOUS
 90
8
 70
0
 10
12.3389747382
 20
6.5546383919
 10
12.3369096973
 20
6.5693538506
 10
12.330963649
 20
6.5846788577
 10
12.3218537744
 20
6.5987649912
 10
12.3106788589
 20
6.6099132555
 10
12.2987867623
 20
6.6167790054
 10
12.2876118468
 20
6.6185341301
 10
12.2805087951
 20
6.6163275695
  0
LWPOLYLINE
  5
516
100
AcDbEntity
  8
0
100
AcDbPolyline
 62
7
  6
CONTINUOUS
 90
7
 70
0
 10
12.7501562595
 20
4.5974496021
 10
12.7524691068
 20
4.5755687825
 10
12.7594991675
 20
4.5518361658
 10
12.7705554232
 20
4.5288293862
 10
12.7849482684
 20
4.5077697252
 10
12.8019611731
 20
4.4898468203
 10
12.8197536734
 20
4.4769040144
  0
LWPOLYLINE
  5
517
100
AcDbEntity
  8
0
100
AcDbPolyline
 62
7
  6
CONTINUOUS
 90
5
 70
0
 10
11.8557252604
 20
6.4219320082
 10
11.864891291
 20
6.4177725755
 10
11.8861483616
 20
6.4145892495
 10
11.9099986368
 20
6.4187633373
 10
11.9344759943
 20
6.4297503561
  0
LINE
  5
518
100
AcDbEntity
  8
0
100
AcDbLine
 62
9
  6
CONTINUOUS
 10
11.771618973
 20
6.5237770667
 11
11.8231210593
 21
6.494042996
  0
LINE
  5
519
100
AcDbEntity
  8
0
100
AcDbLine
 62
9
  6
CONTINUOUS
 10
14.3648186147
 20
5.0266264256
 11
14.4163207009
 21
4.9968923549
  0
LINE
  5
51A
100
AcDbEntity
  8
0
100
AcDbLine
 62
7
  6
CONTINUOUS
 10
12.2351353967
 20
6.3252768273
 11
12.6805588456
 21
6.0681172969
  0
LINE
  5
51B
100
AcDbEntity
  8
0
100
AcDbLine
 62
7
  6
CONTINUOUS
 10
14.0725071235
 20
5.2644937644
 11
14.3648186147
 21
5.0957314642
  0
LINE
  5
51C
100
AcDbEntity
  8
0
100
AcDbLine
 62
7
  6
CONTINUOUS
 10
12.161362138
 20
6.4964519324
 11
12.1655379828
 21
6.4940410618
  0
LWPOLYLINE
  5
51D
100
AcDbEntity
  8
0
100
AcDbPolyline
 62
7
  6
CONTINUOUS
 90
5
 70
0
 10
14.3974228158
 20
4.9545154378
 10
14.3892112678
 20
4.9603967864
 10
14.375842688
 20
4.9772095111
 10
14.3675412067
 20
4.9999388134
 10
14.3648186147
 20
5.0266264256
  0
LWPOLYLINE
  5
51E
100
AcDbEntity
  8
0
100
AcDbPolyline
 62
7
  6
CONTINUOUS
 90
7
 70
0
 10
12.6805588456
 20
6.0681172969
 10
12.6983517406
 20
6.0551741426
 10
12.7153897879
 20
6.0372198048
 10
12.7297861978
 20
6.0161415193
 10
12.7408281064
 20
5.9931471389
 10
12.7478435166
 20
5.9694520127
 10
12.7501562595
 20
5.9475717092
  0
LWPOLYLINE
  5
51F
100
AcDbEntity
  8
0
100
AcDbPolyline
 62
7
  6
CONTINUOUS
 90
8
 70
0
 10
12.270490883
 20
9.0694005327
 10
12.2725559239
 20
9.054685074
 10
12.2785019722
 20
9.0393600669
 10
12.2876118468
 20
9.0252739334
 10
12.2987867623
 20
9.0141256691
 10
12.3106788589
 20
9.0072599192
 10
12.3218537744
 20
9.0055047945
 10
12.3289568261
 20
9.007711355
  0
LINE
  5
520
100
AcDbEntity
  8
0
100
AcDbLine
 62
7
  6
CONTINUOUS
 10
12.7501562595
 20
5.9475717092
 11
12.7501562595
 21
4.5974496021
  0
LWPOLYLINE
  5
521
100
AcDbEntity
  8
AXIS
100
AcDbPolyline
 62
7
  6
CONTINUOUS
 90
4
 70
0
 10
12.9264756885
 20
6.9923019555
 10
12.9217868774
 20
6.9886882714
 10
12.9152623923
 20
6.9776690885
 10
12.913014208
 20
6.9625766295
  0
LWPOLYLINE
  5
522
100
AcDbEntity
  8
0
100
AcDbPolyline
 62
7
  6
CONTINUOUS
 90
4
 70
0
 10
13.3440601719
 20
7.265547127
 10
13.3393713607
 20
7.2619334429
 10
13.3328468757
 20
7.25091426
 10
13.3305986914
 20
7.235821801
  0
LWPOLYLINE
  5
523
100
AcDbEntity
  8
0
100
AcDbPolyline
 62
7
  6
CONTINUOUS
 90
4
 70
0
 10
12.2805087951
 20
6.6163275695
 10
12.2785019722
 20
6.6149669357
 10
12.2725559239
 20
6.6065076785
 10
12.270490883
 20
6.5941766697
  0
LWPOLYLINE
  5
524
100
AcDbEntity
  8
0
100
AcDbPolyline
 62
7
  6
CONTINUOUS
 90
4
 70
0
 10
12.3289568261
 20
6.5324874921
 10
12.330963649
 20
6.5338481259
 10
12.3369096973
 20
6.5423073831
 10
12.3389747382
 20
6.5546383919
  0
LINE
  5
525
100
AcDbEntity
  8
0
100
AcDbLine
 62
7
  6
CONTINUOUS
 10
12.0500067394
 20
6.4964516647
 11
11.9344759943
 21
6.4297503561
  0
LINE
  5
526
100
AcDbEntity
  8
0
100
AcDbLine
 62
7
  6
CONTINUOUS
 10
14.5917042947
 20
7.8578623663
 11
14.4761735497
 21
7.7911610577
  0
LWPOLYLINE
  5
527
100
AcDbEntity
  8
0
100
AcDbPolyline
 62
7
  6
CONTINUOUS
 90
6
 70
0
 10
12.161362138
 20
6.4964519324
 10
12.1415033187
 20
6.5047908613
 10
12.1178461539
 20
6.5092212262
 10
12.0935225393
 20
6.5092211677
 10
12.0698654384
 20
6.5047906891
 10
12.0500067394
 20
6.4964516647
  0
LWPOLYLINE
  5
528
100
AcDbEntity
  8
AXIS
100
AcDbPolyline
 62
7
  6
CONTINUOUS
 90
11
 70
0
 10
13.6476895998
 20
5.1463055743
 10
13.7075471157
 20
5.0478558472
 10
13.7563189072
 20
4.9442804921
 10
13.7923715979
 20
4.8390482668
 10
13.8144977766
 20
4.7356834179
 10
13.8219564334
 20
4.6376476534
 10
13.8144977766
 20
4.548224209
 10
13.7923715979
 20
4.4704078926
 10
13.7563189072
 20
4.4068047869
 10
13.7075471157
 20
4.3595449717
 10
13.6915734546
 20
4.3493331394
  0
LWPOLYLINE
  5
529
100
AcDbEntity
  8
AXIS
100
AcDbPolyline
 62
7
  6
CONTINUOUS
 90
8
 70
0
 10
13.5290585806
 20
5.0362750284
 10
13.5661033405
 20
4.9745308887
 10
13.5953152889
 20
4.9094926646
 10
13.6154874246
 20
4.8438476547
 10
13.62578626
 20
4.7803082292
 10
13.62578626
 20
4.7214997581
 10
13.6154874246
 20
4.6698521343
 10
13.5953152889
 20
4.6274993734
  0
LWPOLYLINE
  5
52A
100
AcDbEntity
  8
AXIS
100
AcDbPolyline
 62
7
  6
CONTINUOUS
 90
10
 70
0
 10
13.5805602381
 20
5.0660093467
 10
13.6176049979
 20
5.004265207
 10
13.6468169463
 20
4.9392269829
 10
13.6669890821
 20
4.873581973
 10
13.6772879174
 20
4.8100425475
 10
13.6772879174
 20
4.7512340764
 10
13.6669890821
 20
4.6995864526
 10
13.6468169463
 20
4.6572336917
 10
13.6176049979
 20
4.6259257571
 10
13.6052723769
 20
4.6177336533
  0
LWPOLYLINE
  5
52B
100
AcDbEntity
  8
AXIS
100
AcDbPolyline
 62
7
  6
CONTINUOUS
 90
8
 70
0
 10
13.5290585806
 20
5.0362750284
 10
13.5110726131
 20
5.0674274651
 10
13.4983546135
 20
5.1002061145
 10
13.4917712925
 20
5.1323771661
 10
13.4917712925
 20
5.1617482157
 10
13.4983546135
 20
5.1863176749
 10
13.5110726131
 20
5.2044111756
 10
13.5194843067
 20
5.2106116268
  0
LWPOLYLINE
  5
52C
100
AcDbEntity
  8
AXIS
100
AcDbPolyline
 62
7
  6
CONTINUOUS
 90
7
 70
0
 10
13.5805602381
 20
5.0660093467
 10
13.5625742705
 20
5.0971617833
 10
13.549856271
 20
5.1299404328
 10
13.5432729499
 20
5.1621114844
 10
13.5432729499
 20
5.191482534
 10
13.549856271
 20
5.2160519932
 10
13.5503074473
 20
5.2166938677
  0
LWPOLYLINE
  5
52D
100
AcDbEntity
  8
0
100
AcDbPolyline
 62
7
  6
CONTINUOUS
 90
8
 70
0
 10
12.3389747382
 20
9.0298622549
 10
12.3369096973
 20
9.0445777135
 10
12.330963649
 20
9.0599027206
 10
12.3218537744
 20
9.0739888541
 10
12.3106788589
 20
9.0851371184
 10
12.2987867623
 20
9.0920028683
 10
12.2876118468
 20
9.093757993
 10
12.2805087951
 20
9.0915514325
  0
LWPOLYLINE
  5
52E
100
AcDbEntity
  8
AXIS
100
AcDbPolyline
 62
7
  6
CONTINUOUS
 90
4
 70
0
 10
12.9914213138
 20
6.8798121505
 10
12.996110125
 20
6.8834258345
 10
13.00263461
 20
6.8944450175
 10
13.0048827943
 20
6.9095374764
  0
LWPOLYLINE
  5
52F
100
AcDbEntity
  8
0
100
AcDbPolyline
 62
7
  6
CONTINUOUS
 90
4
 70
0
 10
13.4090057972
 20
7.153057322
 10
13.4136946083
 20
7.156671006
 10
13.4202190934
 20
7.167690189
 10
13.4224672777
 20
7.1827826479
  0
LWPOLYLINE
  5
530
100
AcDbEntity
  8
0
100
AcDbPolyline
 62
7
  6
CONTINUOUS
 90
8
 70
0
 10
14.5276756359
 20
7.761426987
 10
14.5031982784
 20
7.7441501566
 10
14.4793480033
 20
7.7207844832
 10
14.4580909327
 20
7.6930557529
 10
14.4407133541
 20
7.6629491921
 10
14.4273447743
 20
7.6306998532
 10
14.419043293
 20
7.5983848832
 10
14.4163207009
 20
7.5685535112
  0
LWPOLYLINE
  5
531
100
AcDbEntity
  8
0
100
AcDbPolyline
 62
7
  6
CONTINUOUS
 90
4
 70
0
 10
14.424109143
 20
7.8539711924
 10
14.4221023201
 20
7.8526105586
 10
14.4161562718
 20
7.8441513014
 10
14.4140912308
 20
7.8318202926
  0
LINE
  5
532
100
AcDbEntity
  8
0
100
AcDbLine
 62
7
  6
CONTINUOUS
 10
14.643206381
 20
7.8281282956
 11
14.5276756359
 21
7.761426987
  0
LWPOLYLINE
  5
533
100
AcDbEntity
  8
AXIS
100
AcDbPolyline
 62
7
  6
CONTINUOUS
 90
9
 70
0
 10
12.913014208
 20
6.9625766295
 10
12.9152623923
 20
6.9448882497
 10
12.9217868774
 20
6.9263354107
 10
12.9319490011
 20
6.9087341939
 10
12.944754024
 20
6.8938075289
 10
12.9589485012
 20
6.8830165416
 10
12.9731429784
 20
6.8774175292
 10
12.9859480013
 20
6.8775585619
 10
12.9914213138
 20
6.8798121505
  0
LWPOLYLINE
  5
534
100
AcDbEntity
  8
AXIS
100
AcDbPolyline
 62
7
  6
CONTINUOUS
 90
5
 70
0
 10
12.9655634485
 20
6.9840687203
 10
12.9667640498
 20
6.974622568
 10
12.9732885348
 20
6.956069729
 10
12.9834506585
 20
6.9384685122
 10
12.9962556814
 20
6.9235418472
  0
LWPOLYLINE
  5
535
100
AcDbEntity
  8
AXIS
100
AcDbPolyline
 62
7
  6
CONTINUOUS
 90
9
 70
0
 10
13.0048827943
 20
6.9095374764
 10
13.00263461
 20
6.9272258563
 10
12.996110125
 20
6.9457786952
 10
12.9859480013
 20
6.963379912
 10
12.9731429784
 20
6.9783065771
 10
12.9589485012
 20
6.9890975643
 10
12.944754024
 20
6.9946965768
 10
12.9319490011
 20
6.994555544
 10
12.9264756885
 20
6.9923019555
  0
LWPOLYLINE
  5
536
100
AcDbEntity
  8
0
100
AcDbPolyline
 62
7
  6
CONTINUOUS
 90
4
 70
0
 10
14.643206381
 20
7.8281282956
 10
14.6672939539
 20
7.8462520166
 10
14.6824358191
 20
7.8673567132
 10
14.6876011667
 20
7.8900073117
  0
LINE
  5
537
100
AcDbEntity
  8
AXIS
100
AcDbLine
 62
7
  6
CONTINUOUS
 10
12.9962556814
 20
6.9235418472
 11
13.0038352113
 21
6.9177797039
  0
LINE
  5
538
100
AcDbEntity
  8
AXIS
100
AcDbLine
 62
7
  6
CONTINUOUS
 10
13.8314246481
 20
6.4413677276
 11
13.839004178
 21
6.4356055844
  0
LWPOLYLINE
  5
539
100
AcDbEntity
  8
0
100
AcDbPolyline
 62
7
  6
CONTINUOUS
 90
9
 70
0
 10
13.3305986914
 20
7.235821801
 10
13.3328468757
 20
7.2181334212
 10
13.3393713607
 20
7.1995805823
 10
13.3495334844
 20
7.1819793654
 10
13.3623385073
 20
7.1670527004
 10
13.3765329845
 20
7.1562617131
 10
13.3907274617
 20
7.1506627007
 10
13.4035324846
 20
7.1508037334
 10
13.4090057972
 20
7.153057322
  0
LWPOLYLINE
  5
53A
100
AcDbEntity
  8
0
100
AcDbPolyline
 62
7
  6
CONTINUOUS
 90
5
 70
0
 10
13.3831479318
 20
7.2573138918
 10
13.3843485331
 20
7.2478677395
 10
13.3908730182
 20
7.2293149006
 10
13.4010351419
 20
7.2117136837
 10
13.4138401648
 20
7.1967870187
  0
LWPOLYLINE
  5
53B
100
AcDbEntity
  8
AXIS
100
AcDbPolyline
 62
7
  6
CONTINUOUS
 90
4
 70
0
 10
13.285638762
 20
4.9472838005
 10
13.2887359075
 20
4.9726602943
 10
13.2978162788
 20
4.9927312274
 10
13.3122616124
 20
5.0061291157
  0
LWPOLYLINE
  5
53C
100
AcDbEntity
  8
AXIS
100
AcDbPolyline
 62
7
  6
CONTINUOUS
 90
3
 70
0
 10
13.3371404194
 20
4.9770181188
 10
13.340237565
 20
5.0023946126
 10
13.3439783336
 20
5.010663076
  0
LWPOLYLINE
  5
53D
100
AcDbEntity
  8
AXIS
100
AcDbPolyline
 62
7
  6
CONTINUOUS
 90
4
 70
0
 10
13.7616446552
 20
6.510127836
 10
13.7569558441
 20
6.5065141519
 10
13.750431359
 20
6.495494969
 10
13.7481831747
 20
6.48040251
  0
LWPOLYLINE
  5
53E
100
AcDbEntity
  8
0
100
AcDbPolyline
 62
7
  6
CONTINUOUS
 90
9
 70
0
 10
13.4224672777
 20
7.1827826479
 10
13.4202190934
 20
7.2004710278
 10
13.4136946083
 20
7.2190238667
 10
13.4035324846
 20
7.2366250835
 10
13.3907274617
 20
7.2515517486
 10
13.3765329845
 20
7.2623427358
 10
13.3623385073
 20
7.2679417483
 10
13.3495334844
 20
7.2678007155
 10
13.3440601719
 20
7.265547127
  0
LWPOLYLINE
  5
53F
100
AcDbEntity
  8
AXIS
100
AcDbPolyline
 62
7
  6
CONTINUOUS
 90
4
 70
0
 10
13.4674272071
 20
4.8423305671
 10
13.4643300615
 20
4.8169540732
 10
13.4552496903
 20
4.7968831402
 10
13.4408043567
 20
4.7834852519
  0
LWPOLYLINE
  5
540
100
AcDbEntity
  8
AXIS
100
AcDbPolyline
 62
7
  6
CONTINUOUS
 90
4
 70
0
 10
13.8265902805
 20
6.3976380309
 10
13.8312790917
 20
6.401251715
 10
13.8378035767
 20
6.4122708979
 10
13.8400517611
 20
6.4273633569
  0
LINE
  5
541
100
AcDbEntity
  8
0
100
AcDbLine
 62
7
  6
CONTINUOUS
 10
13.4138401648
 20
7.1967870187
 11
13.4214196947
 21
7.1910248755
  0
LWPOLYLINE
  5
542
100
AcDbEntity
  8
AXIS
100
AcDbPolyline
 62
7
  6
CONTINUOUS
 90
9
 70
0
 10
13.7481831747
 20
6.48040251
 10
13.750431359
 20
6.4627141302
 10
13.7569558441
 20
6.4441612912
 10
13.7671179678
 20
6.4265600744
 10
13.7799229907
 20
6.4116334094
 10
13.7941174679
 20
6.4008424221
 10
13.8083119451
 20
6.3952434097
 10
13.821116968
 20
6.3953844424
 10
13.8265902805
 20
6.3976380309
  0
LWPOLYLINE
  5
543
100
AcDbEntity
  8
AXIS
100
AcDbPolyline
 62
7
  6
CONTINUOUS
 90
5
 70
0
 10
13.8007324152
 20
6.5018946008
 10
13.8019330165
 20
6.4924484485
 10
13.8084575015
 20
6.4738956095
 10
13.8186196252
 20
6.4562943927
 10
13.8314246481
 20
6.4413677276
  0
LWPOLYLINE
  5
544
100
AcDbEntity
  8
AXIS
100
AcDbPolyline
 62
7
  6
CONTINUOUS
 90
9
 70
0
 10
13.8400517611
 20
6.4273633569
 10
13.8378035767
 20
6.4450517367
 10
13.8312790917
 20
6.4636045757
 10
13.821116968
 20
6.4812057925
 10
13.8083119451
 20
6.4961324576
 10
13.7941174679
 20
6.5069234448
 10
13.7799229907
 20
6.5125224572
 10
13.7671179678
 20
6.5123814245
 10
13.7616446552
 20
6.510127836
  0
LINE
  5
545
100
AcDbEntity
  8
0
100
AcDbLine
 62
7
  6
CONTINUOUS
 10
14.0029097096
 20
3.8741884228
 11
14.0029097096
 21
5.2243105299
  0
LINE
  5
546
100
AcDbEntity
  8
0
100
AcDbLine
 62
7
  6
CONTINUOUS
 10
14.054411367
 20
3.9039227411
 11
14.054411367
 21
5.2540448482
  0
LINE
  5
547
100
AcDbEntity
  8
AXIS
100
AcDbLine
 62
7
  6
CONTINUOUS
 10
13.0482487193
 20
5.412543899
 11
13.0894416116
 21
5.4524597688
  0
LWPOLYLINE
  5
548
100
AcDbEntity
  8
0
100
AcDbPolyline
 62
7
  6
CONTINUOUS
 90
5
 70
0
 10
14.4163207009
 20
4.9968923549
 10
14.419043293
 20
4.9702047427
 10
14.4273447743
 20
4.9474754404
 10
14.4407133541
 20
4.9306627157
 10
14.448924902
 20
4.9247813671
  0
LWPOLYLINE
  5
549
100
AcDbEntity
  8
0
100
AcDbPolyline
 62
7
  6
CONTINUOUS
 90
8
 70
0
 10
14.3648186147
 20
7.5982875819
 10
14.3675412067
 20
7.6281189539
 10
14.375842688
 20
7.6604339239
 10
14.3892112678
 20
7.6926832628
 10
14.4065888464
 20
7.7227898236
 10
14.427845917
 20
7.7505185539
 10
14.4516961921
 20
7.7738842273
 10
14.4761735497
 20
7.7911610577
  0
LWPOLYLINE
  5
54A
100
AcDbEntity
  8
0
100
AcDbPolyline
 62
7
  6
CONTINUOUS
 90
4
 70
0
 10
14.0029097096
 20
5.2243105299
 10
14.0052225568
 20
5.2435207639
 10
14.0122526176
 20
5.2591359494
 10
14.023294911
 20
5.2693682942
  0
LINE
  5
54B
100
AcDbEntity
  8
0
100
AcDbLine
 62
7
  6
CONTINUOUS
 10
14.0564931212
 20
5.2713356508
 11
14.054411367
 21
5.2540448482
  0
LINE
  5
54C
100
AcDbEntity
  8
AXIS
100
AcDbLine
 62
7
  6
CONTINUOUS
 10
13.0614925145
 20
5.4402812281
 11
13.1053763693
 21
5.4594031807
  0
LINE
  5
54D
100
AcDbEntity
  8
0
100
AcDbLine
 62
7
  6
CONTINUOUS
 10
14.3648186147
 20
7.5982875819
 11
14.3648186147
 21
5.0266264256
  0
LINE
  5
54E
100
AcDbEntity
  8
0
100
AcDbLine
 62
7
  6
CONTINUOUS
 10
14.4163207009
 20
4.9968923549
 11
14.4163207009
 21
7.5685535112
  0
LWPOLYLINE
  5
54F
100
AcDbEntity
  8
0
100
AcDbPolyline
 62
7
  6
CONTINUOUS
 90
4
 70
0
 10
14.054411367
 20
3.9039227411
 10
14.0520986241
 20
3.8847129026
 10
14.0450832139
 20
3.8691182911
 10
14.0340265043
 20
3.8588651726
  0
LWPOLYLINE
  5
550
100
AcDbEntity
  8
0
100
AcDbPolyline
 62
7
  6
CONTINUOUS
 90
4
 70
0
 10
14.6147808541
 20
7.8900073071
 10
14.6138216766
 20
7.8829859723
 10
14.6061479497
 20
7.8693276971
 10
14.5917042947
 20
7.8578623663
  0
LINE
  5
551
100
AcDbEntity
  8
AXIS
100
AcDbLine
 62
7
  6
CONTINUOUS
 10
13.1993684233
 20
5.2016670368
 11
13.2461331681
 21
5.2286665136
  0
LINE
  5
552
100
AcDbEntity
  8
AXIS
100
AcDbLine
 62
9
  6
CONTINUOUS
 10
13.2419911302
 20
5.2227752882
 11
13.2240073884
 21
5.212392432
  0
LINE
  5
553
100
AcDbEntity
  8
AXIS
100
AcDbLine
 62
7
  6
CONTINUOUS
 10
13.1992952496
 20
5.2016150326
 11
13.2336582746
 21
5.2166207143
  0
LINE
  5
554
100
AcDbEntity
  8
0
100
AcDbLine
 62
9
  6
CONTINUOUS
 10
14.5917038311
 20
7.9221525166
 11
14.5917038311
 21
7.8578623663
  0
LINE
  5
555
100
AcDbEntity
  8
0
100
AcDbLine
 62
9
  6
CONTINUOUS
 10
14.643206381
 20
7.8281282956
 11
14.643206381
 21
4.9993010236
  0
LINE
  5
556
100
AcDbEntity
  8
0
100
AcDbLine
 62
7
  6
CONTINUOUS
 10
14.6876011667
 20
7.8900073076
 11
14.6876011667
 21
5.0611800356
  0
LINE
  5
557
100
AcDbEntity
  8
AXIS
100
AcDbLine
 62
7
  6
CONTINUOUS
 10
13.549856271
 20
4.578478253
 11
13.5584344584
 21
4.5906821723
  0
LWPOLYLINE
  5
558
100
AcDbEntity
  8
AXIS
100
AcDbPolyline
 62
7
  6
CONTINUOUS
 90
7
 70
0
 10
13.5194843067
 20
5.2106116268
 10
13.5290585806
 20
5.2147956757
 10
13.5510868021
 20
5.2167634886
 10
13.5756560906
 20
5.2101805112
 10
13.6010920898
 20
5.1954953624
 10
13.6256613783
 20
5.173708811
 10
13.6476895998
 20
5.1463055743
  0
LINE
  5
559
100
AcDbEntity
  8
0
100
AcDbLine
 62
9
  6
CONTINUOUS
 10
14.4163207009
 20
7.5685535112
 11
14.3648186147
 21
7.5982875819
  0
LINE
  5
55A
100
AcDbEntity
  8
0
100
AcDbLine
 62
9
  6
CONTINUOUS
 10
11.8231210593
 20
9.0657041523
 11
11.771618973
 21
9.095438223
  0
LWPOLYLINE
  5
55B
100
AcDbEntity
  8
0
100
AcDbPolyline
 62
7
  6
CONTINUOUS
 90
6
 70
0
 10
14.4140912308
 20
7.8318202926
 10
14.4161562718
 20
7.8171048339
 10
14.4221023201
 20
7.8017798268
 10
14.4312121947
 20
7.7876936933
 10
14.4423871101
 20
7.776545429
 10
14.4499535813
 20
7.7721770237
  0
LINE
  5
55C
100
AcDbEntity
  8
0
100
AcDbLine
 62
7
  6
CONTINUOUS
 10
14.4822408219
 20
7.794663978
 11
14.4805100452
 21
7.8069974735
  0
LWPOLYLINE
  5
55D
100
AcDbEntity
  8
AXIS
100
AcDbPolyline
 62
7
  6
CONTINUOUS
 90
3
 70
0
 10
13.5953152889
 20
4.6274993734
 10
13.5661033405
 20
4.5961914388
 10
13.5537707194
 20
4.587999335
  0
LINE
  5
55E
100
AcDbEntity
  8
AXIS
100
AcDbLine
 62
9
  6
CONTINUOUS
 10
13.5805602381
 20
5.0660093467
 11
13.5290585806
 21
5.0362750284
  0
LINE
  5
55F
100
AcDbEntity
  8
0
100
AcDbLine
 62
9
  6
CONTINUOUS
 10
14.054411367
 20
5.2540448482
 11
14.0029097096
 21
5.2243105299
  0
LINE
  5
560
100
AcDbEntity
  8
AXIS
100
AcDbLine
 62
9
  6
CONTINUOUS
 10
13.1568780267
 20
4.6730431116
 11
13.1053763693
 21
4.6433087933
  0
LWPOLYLINE
  5
561
100
AcDbEntity
  8
0
100
AcDbPolyline
 62
7
  6
CONTINUOUS
 90
4
 70
0
 10
14.023294911
 20
5.2693682942
 10
14.0377017184
 20
5.2738169643
 10
14.0547146231
 20
5.2720955035
 10
14.0725071235
 20
5.2644937644
  0
LWPOLYLINE
  5
562
100
AcDbEntity
  8
AXIS
100
AcDbPolyline
 62
7
  6
CONTINUOUS
 90
10
 70
0
 10
13.3122616124
 20
5.0061291157
 10
13.3310858733
 20
5.0119399859
 10
13.3530078286
 20
5.0097687663
 10
13.3765329845
 20
4.9997631047
 10
13.4000581404
 20
4.9826048706
 10
13.4219800958
 20
4.9594633693
 10
13.4408049057
 20
4.9319156557
 10
13.4552496903
 20
4.9018390611
 10
13.4643300615
 20
4.8712832557
 10
13.4674272071
 20
4.8423305671
  0
LINE
  5
563
100
AcDbEntity
  8
0
100
AcDbLine
 62
9
  6
CONTINUOUS
 10
14.5276756359
 20
7.761426987
 11
14.4761735497
 21
7.7911610577
  0
LINE
  5
564
100
AcDbEntity
  8
0
100
AcDbLine
 62
9
  6
CONTINUOUS
 10
11.9344759943
 20
9.2585776281
 11
11.882973908
 21
9.2883116988
  0
LWPOLYLINE
  5
565
100
AcDbEntity
  8
0
100
AcDbPolyline
 62
7
  6
CONTINUOUS
 90
7
 70
0
 10
14.4805100452
 20
7.8069974735
 10
14.4745639969
 20
7.8223224806
 10
14.4654541223
 20
7.8364086141
 10
14.4542792068
 20
7.8475568783
 10
14.4423871101
 20
7.8544226282
 10
14.4312121947
 20
7.856177753
 10
14.424109143
 20
7.8539711924
  0
LWPOLYLINE
  5
566
100
AcDbEntity
  8
0
100
AcDbPolyline
 62
7
  6
CONTINUOUS
 90
4
 70
0
 10
14.6876011667
 20
5.0611800398
 10
14.6824358191
 20
5.0385294412
 10
14.6672939539
 20
5.0174247447
 10
14.643206381
 20
4.9993010236
  0
LINE
  5
567
100
AcDbEntity
  8
AXIS
100
AcDbLine
 62
7
  6
CONTINUOUS
 10
13.5536975457
 20
4.5879473308
 11
13.6051992031
 21
4.6176816491
  0
LWPOLYLINE
  5
568
100
AcDbEntity
  8
AXIS
100
AcDbPolyline
 62
7
  6
CONTINUOUS
 90
7
 70
0
 10
13.2335816624
 20
4.5790027408
 10
13.2240073884
 20
4.5748186919
 10
13.201979167
 20
4.572850879
 10
13.1774098784
 20
4.5794338564
 10
13.1519738793
 20
4.5941190052
 10
13.1274045907
 20
4.6159055566
 10
13.1053763693
 20
4.6433087933
  0
LWPOLYLINE
  5
569
100
AcDbEntity
  8
AXIS
100
AcDbPolyline
 62
7
  6
CONTINUOUS
 90
10
 70
0
 10
13.4408043567
 20
4.7834852519
 10
13.4219800958
 20
4.7776743816
 10
13.4000581404
 20
4.7798456013
 10
13.3765329845
 20
4.7898512628
 10
13.3530078286
 20
4.8070094969
 10
13.3310858733
 20
4.8301509983
 10
13.3122610634
 20
4.8576987119
 10
13.2978162788
 20
4.8877753065
 10
13.2887359075
 20
4.9183311119
 10
13.285638762
 20
4.9472838005
  0
LINE
  5
56A
100
AcDbEntity
  8
0
100
AcDbLine
 62
7
  6
CONTINUOUS
 10
14.5917038311
 20
7.9221525166
 11
12.161362138
 21
9.3252792043
  0
LINE
  5
56B
100
AcDbEntity
  8
0
100
AcDbLine
 62
7
  6
CONTINUOUS
 10
14.6432054885
 20
7.9518868348
 11
12.2128637954
 21
9.3550135226
  0
LWPOLYLINE
  5
56C
100
AcDbEntity
  8
0
100
AcDbPolyline
 62
7
  6
CONTINUOUS
 90
4
 70
0
 10
14.5917038311
 20
7.9221525166
 10
14.6061476515
 20
7.9106872552
 10
14.6138215753
 20
7.8970290169
 10
14.6147808541
 20
7.8900073071
  0
LWPOLYLINE
  5
56D
100
AcDbEntity
  8
0
100
AcDbPolyline
 62
7
  6
CONTINUOUS
 90
4
 70
0
 10
14.6876011667
 20
7.8900073117
 10
14.6824354924
 20
7.9126586059
 10
14.6672933228
 20
7.9337632296
 10
14.6432054885
 20
7.9518868348
  0
LINE
  5
56E
100
AcDbEntity
  8
0
100
AcDbLine
 62
7
  6
CONTINUOUS
 10
14.643206381
 20
4.9993010236
 11
14.5276756359
 21
4.932599715
  0
LINE
  5
56F
100
AcDbEntity
  8
AXIS
100
AcDbLine
 62
7
  6
CONTINUOUS
 10
13.5537707194
 20
4.587999335
 11
13.5194076945
 21
4.5729936533
  0
LWPOLYLINE
  5
570
100
AcDbEntity
  8
0
100
AcDbPolyline
 62
7
  6
CONTINUOUS
 90
7
 70
0
 10
12.2128637954
 20
9.3550135226
 10
12.181472141
 20
9.3689202905
 10
12.1449172117
 20
9.3776623255
 10
12.1056840394
 20
9.3806444977
 10
12.0664509101
 20
9.3776621369
 10
12.029896107
 20
9.3689199262
 10
11.9985046531
 20
9.3550130074
  0
LINE
  5
571
100
AcDbEntity
  8
AXIS
100
AcDbLine
 62
9
  6
CONTINUOUS
 10
13.6991912572
 20
4.3599455052
 11
13.6476895998
 21
4.3302111869
  0
LINE
  5
572
100
AcDbEntity
  8
AXIS
100
AcDbLine
 62
7
  6
CONTINUOUS
 10
13.7151260149
 20
4.3668889171
 11
13.6991912572
 21
4.3599455052
  0
LINE
  5
573
100
AcDbEntity
  8
AXIS
100
AcDbLine
 62
7
  6
CONTINUOUS
 10
13.6915734546
 20
4.3493331394
 11
13.6476895998
 21
4.3302111869
  0
LWPOLYLINE
  5
574
100
AcDbEntity
  8
0
100
AcDbPolyline
 62
7
  6
CONTINUOUS
 90
4
 70
0
 10
13.9825248468
 20
3.8291308543
 10
13.9935815565
 20
3.8393839728
 10
14.0005969667
 20
3.8549785843
 10
14.0029097096
 20
3.8741884228
  0
LINE
  5
575
100
AcDbEntity
  8
0
100
AcDbLine
 62
9
  6
CONTINUOUS
 10
14.0029097096
 20
3.8741884228
 11
14.054411367
 21
3.9039227411
  0
LINE
  5
576
100
AcDbEntity
  8
0
100
AcDbLine
 62
7
  6
CONTINUOUS
 10
13.9825246738
 20
3.8291307514
 11
14.0340263312
 21
3.8588650697
  0
LINE
  5
577
100
AcDbEntity
  8
0
100
AcDbLine
 62
7
  6
CONTINUOUS
 10
6.5000897814
 20
2.6433202203
 11
8.074892931
 21
2.6433202203
  0
LINE
  5
578
100
AcDbEntity
  8
AXIS
100
AcDbLine
 62
7
  6
CENTER
 10
7.5870786736
 20
3.1584022379
 11
7.349283398
 21
3.1584022379
  0
LINE
  5
579
100
AcDbEntity
  8
AXIS
100
AcDbLine
 62
7
  6
CENTER
 10
6.9879040388
 20
3.1584022379
 11
6.7501087632
 21
3.1584022379
  0
LINE
  5
57A
100
AcDbEntity
  8
AXIS
100
AcDbLine
 62
7
  6
CENTER
 10
6.9879040388
 20
3.1584022379
 11
7.2256993144
 21
3.1584022379
  0
LINE
  5
57B
100
AcDbEntity
  8
AXIS
100
AcDbLine
 62
7
  6
CENTER
 10
7.5870786736
 20
3.1584022379
 11
7.8248739492
 21
3.1584022379
  0
LINE
  5
57C
100
AcDbEntity
  8
0
100
AcDbLine
 62
7
  6
CONTINUOUS
 10
5.417412616
 20
4.6511942361
 11
5.417412616
 21
8.1157611652
  0
LINE
  5
57D
100
AcDbEntity
  8
0
100
AcDbLine
 62
7
  6
CONTINUOUS
 10
5.4902472617
 20
4.6511942361
 11
5.4902472617
 21
8.1157611652
  0
LINE
  5
57E
100
AcDbEntity
  8
AXIS
100
AcDbLine
 62
7
  6
CENTER
 10
7.2874913562
 20
3.5488320313
 11
7.1100373207
 21
3.5488320313
  0
LINE
  5
57F
100
AcDbEntity
  8
AXIS
100
AcDbLine
 62
7
  6
CENTER
 10
7.2874913562
 20
3.5488320313
 11
7.4649453917
 21
3.5488320313
  0
LINE
  5
580
100
AcDbEntity
  8
0
100
AcDbLine
 62
9
  6
CONTINUOUS
 10
5.5689874192
 20
4.6511942361
 11
5.5689874192
 21
8.1157611652
  0
LINE
  5
581
100
AcDbEntity
  8
0
100
AcDbLine
 62
7
  6
CONTINUOUS
 10
5.574892931
 20
4.6511942361
 11
5.574892931
 21
4.5921391179
  0
LINE
  5
582
100
AcDbEntity
  8
DEFAULT_1
100
AcDbLine
 62
7
  6
CENTER
 10
5.7717433247
 20
7.8795406927
 11
5.7717433247
 21
7.7311154959
  0
LINE
  5
583
100
AcDbEntity
  8
DEFAULT_1
100
AcDbLine
 62
7
  6
CENTER
 10
5.7717433247
 20
4.8480446298
 11
5.7717433247
 21
4.6996194329
  0
LINE
  5
584
100
AcDbEntity
  8
DEFAULT_1
100
AcDbLine
 62
7
  6
CENTER
 10
5.7717433247
 20
4.8480446298
 11
5.7717433247
 21
4.9964698266
  0
LINE
  5
585
100
AcDbEntity
  8
DEFAULT_1
100
AcDbLine
 62
7
  6
CENTER
 10
5.7717433247
 20
7.8795406927
 11
5.7717433247
 21
8.0279658896
  0
LINE
  5
586
100
AcDbEntity
  8
AXIS
100
AcDbLine
 62
7
  6
CENTER
 10
7.5870786736
 20
3.9392618248
 11
7.349283398
 21
3.9392618248
  0
LINE
  5
587
100
AcDbEntity
  8
AXIS
100
AcDbLine
 62
7
  6
CENTER
 10
6.9879040388
 20
3.9392618248
 11
6.7501087632
 21
3.9392618248
  0
LINE
  5
588
100
AcDbEntity
  8
AXIS
100
AcDbLine
 62
7
  6
CENTER
 10
6.9879040388
 20
3.9392618248
 11
7.2256993144
 21
3.9392618248
  0
LINE
  5
589
100
AcDbEntity
  8
AXIS
100
AcDbLine
 62
7
  6
CENTER
 10
7.5870786736
 20
3.9392618248
 11
7.8248739492
 21
3.9392618248
  0
LINE
  5
58A
100
AcDbEntity
  8
0
100
AcDbLine
 62
7
  6
CONTINUOUS
 10
6.4016645845
 20
4.3952887242
 11
6.4016645845
 21
2.7417454172
  0
LINE
  5
58B
100
AcDbEntity
  8
0
100
AcDbLine
 62
7
  6
CONTINUOUS
 10
5.6733181278
 20
4.4937139211
 11
6.3032393877
 21
4.4937139211
  0
LINE
  5
58C
100
AcDbEntity
  8
0
100
AcDbLine
 62
7
  6
CONTINUOUS
 10
8.2717433247
 20
4.4937139211
 11
8.9016645845
 21
4.4937139211
  0
LINE
  5
58D
100
AcDbEntity
  8
0
100
AcDbLine
 62
7
  6
CONTINUOUS
 10
5.417412616
 20
4.6511942361
 11
5.574892931
 21
4.6511942361
  0
LINE
  5
58E
100
AcDbEntity
  8
0
100
AcDbLine
 62
7
  6
CONTINUOUS
 10
9.0000897814
 20
4.6511942361
 11
9.1575700963
 21
4.6511942361
  0
LINE
  5
58F
100
AcDbEntity
  8
AXIS
100
AcDbLine
 62
7
  6
CENTER
 10
6.6969401751
 20
5.7535564408
 11
6.6969401751
 21
5.5885958109
  0
LINE
  5
590
100
AcDbEntity
  8
AXIS
100
AcDbLine
 62
7
  6
CENTER
 10
6.6969401751
 20
5.7535564408
 11
6.6969401751
 21
5.9185170707
  0
LINE
  5
591
100
AcDbEntity
  8
0
100
AcDbLine
 62
9
  6
CONTINUOUS
 10
5.417412616
 20
4.808674551
 11
5.4902472617
 21
4.808674551
  0
LINE
  5
592
100
AcDbEntity
  8
0
100
AcDbLine
 62
9
  6
CONTINUOUS
 10
9.0847354507
 20
4.808674551
 11
9.1575700963
 21
4.808674551
  0
LINE
  5
593
100
AcDbEntity
  8
DEFAULT_1
100
AcDbLine
 62
7
  6
CENTER
 10
8.8032393877
 20
4.8480446298
 11
8.6548141908
 21
4.8480446298
  0
LINE
  5
594
100
AcDbEntity
  8
DEFAULT_1
100
AcDbLine
 62
7
  6
CENTER
 10
5.7717433247
 20
4.8480446298
 11
5.6233181278
 21
4.8480446298
  0
LINE
  5
595
100
AcDbEntity
  8
DEFAULT_1
100
AcDbLine
 62
7
  6
CENTER
 10
5.7717433247
 20
4.8480446298
 11
5.9201685215
 21
4.8480446298
  0
LINE
  5
596
100
AcDbEntity
  8
DEFAULT_1
100
AcDbLine
 62
7
  6
CENTER
 10
8.8032393877
 20
4.8480446298
 11
8.9516645845
 21
4.8480446298
  0
LINE
  5
597
100
AcDbEntity
  8
AXIS
100
AcDbLine
 62
7
  6
CENTER
 10
6.9879040388
 20
3.9392618248
 11
6.9879040388
 21
3.7014665492
  0
LINE
  5
598
100
AcDbEntity
  8
AXIS
100
AcDbLine
 62
7
  6
CENTER
 10
6.9879040388
 20
3.1584022379
 11
6.9879040388
 21
2.9206069623
  0
LINE
  5
599
100
AcDbEntity
  8
AXIS
100
AcDbLine
 62
7
  6
CENTER
 10
6.9879040388
 20
3.1584022379
 11
6.9879040388
 21
3.3961975135
  0
LINE
  5
59A
100
AcDbEntity
  8
AXIS
100
AcDbLine
 62
7
  6
CENTER
 10
6.9879040388
 20
3.9392618248
 11
6.9879040388
 21
4.1770571004
  0
LINE
  5
59B
100
AcDbEntity
  8
DEFAULT_1
100
AcDbLine
 62
7
  6
CENTER
 10
7.2874913562
 20
6.3834777006
 11
7.2874913562
 21
6.2185170707
  0
LINE
  5
59C
100
AcDbEntity
  8
AXIS
100
AcDbLine
 62
7
  6
CENTER
 10
7.2874913562
 20
3.5488320313
 11
7.2874913562
 21
3.3713779958
  0
LINE
  5
59D
100
AcDbEntity
  8
AXIS
100
AcDbLine
 62
7
  6
CENTER
 10
7.2874913562
 20
3.5488320313
 11
7.2874913562
 21
3.7262860669
  0
LINE
  5
59E
100
AcDbEntity
  8
DEFAULT_1
100
AcDbLine
 62
7
  6
CENTER
 10
7.2874913562
 20
6.3834777006
 11
7.2874913562
 21
6.5484383305
  0
LINE
  5
59F
100
AcDbEntity
  8
AXIS
100
AcDbLine
 62
7
  6
CENTER
 10
7.5870786736
 20
3.9392618248
 11
7.5870786736
 21
3.7014665492
  0
LINE
  5
5A0
100
AcDbEntity
  8
AXIS
100
AcDbLine
 62
7
  6
CENTER
 10
7.5870786736
 20
3.1584022379
 11
7.5870786736
 21
2.9206069623
  0
LINE
  5
5A1
100
AcDbEntity
  8
AXIS
100
AcDbLine
 62
7
  6
CENTER
 10
7.5870786736
 20
3.1584022379
 11
7.5870786736
 21
3.3961975135
  0
LINE
  5
5A2
100
AcDbEntity
  8
AXIS
100
AcDbLine
 62
7
  6
CENTER
 10
7.5870786736
 20
3.9392618248
 11
7.5870786736
 21
4.1770571004
  0
LINE
  5
5A3
100
AcDbEntity
  8
AXIS
100
AcDbLine
 62
7
  6
CENTER
 10
7.8780425373
 20
5.7535564408
 11
7.7130819074
 21
5.7535564408
  0
LINE
  5
5A4
100
AcDbEntity
  8
AXIS
100
AcDbLine
 62
7
  6
CENTER
 10
6.6969401751
 20
5.7535564408
 11
6.5319795452
 21
5.7535564408
  0
LINE
  5
5A5
100
AcDbEntity
  8
AXIS
100
AcDbLine
 62
7
  6
CENTER
 10
6.6969401751
 20
5.7535564408
 11
6.861900805
 21
5.7535564408
  0
LINE
  5
5A6
100
AcDbEntity
  8
AXIS
100
AcDbLine
 62
7
  6
CENTER
 10
7.8780425373
 20
5.7535564408
 11
8.0430031672
 21
5.7535564408
  0
LINE
  5
5A7
100
AcDbEntity
  8
AXIS
100
AcDbLine
 62
7
  6
CENTER
 10
7.8780425373
 20
5.7535564408
 11
7.8780425373
 21
5.5885958109
  0
LINE
  5
5A8
100
AcDbEntity
  8
AXIS
100
AcDbLine
 62
7
  6
CENTER
 10
7.8780425373
 20
5.7535564408
 11
7.8780425373
 21
5.9185170707
  0
LINE
  5
5A9
100
AcDbEntity
  8
0
100
AcDbLine
 62
7
  6
CONTINUOUS
 10
8.1733181278
 20
2.7417454172
 11
8.1733181278
 21
4.3952887242
  0
LINE
  5
5AA
100
AcDbEntity
  8
DEFAULT_1
100
AcDbLine
 62
7
  6
CENTER
 10
7.2874913562
 20
6.3834777006
 11
7.1225307263
 21
6.3834777006
  0
LINE
  5
5AB
100
AcDbEntity
  8
DEFAULT_1
100
AcDbLine
 62
7
  6
CENTER
 10
7.2874913562
 20
6.3834777006
 11
7.4524519861
 21
6.3834777006
  0
LINE
  5
5AC
100
AcDbEntity
  8
DEFAULT_1
100
AcDbLine
 62
7
  6
CENTER
 10
8.8032393877
 20
7.8795406927
 11
8.8032393877
 21
7.7311154959
  0
LINE
  5
5AD
100
AcDbEntity
  8
DEFAULT_1
100
AcDbLine
 62
7
  6
CENTER
 10
8.8032393877
 20
4.8480446298
 11
8.8032393877
 21
4.6996194329
  0
LINE
  5
5AE
100
AcDbEntity
  8
DEFAULT_1
100
AcDbLine
 62
7
  6
CENTER
 10
8.8032393877
 20
4.8480446298
 11
8.8032393877
 21
4.9964698266
  0
LINE
  5
5AF
100
AcDbEntity
  8
DEFAULT_1
100
AcDbLine
 62
7
  6
CENTER
 10
8.8032393877
 20
7.8795406927
 11
8.8032393877
 21
8.0279658896
  0
LINE
  5
5B0
100
AcDbEntity
  8
0
100
AcDbLine
 62
7
  6
CONTINUOUS
 10
9.0000897814
 20
4.5921391179
 11
9.0000897814
 21
4.6511942361
  0
LINE
  5
5B1
100
AcDbEntity
  8
0
100
AcDbLine
 62
9
  6
CONTINUOUS
 10
9.0059952932
 20
8.1157611652
 11
9.0059952932
 21
4.6511942361
  0
LINE
  5
5B2
100
AcDbEntity
  8
0
100
AcDbLine
 62
7
  6
CONTINUOUS
 10
9.0847354507
 20
4.6511942361
 11
9.0847354507
 21
8.1157611652
  0
LINE
  5
5B3
100
AcDbEntity
  8
0
100
AcDbLine
 62
7
  6
CONTINUOUS
 10
9.1575700963
 20
4.6511942361
 11
9.1575700963
 21
8.1157611652
  0
LINE
  5
5B4
100
AcDbEntity
  8
DEFAULT_1
100
AcDbLine
 62
7
  6
CENTER
 10
8.8032393877
 20
7.8795406927
 11
8.6548141908
 21
7.8795406927
  0
LINE
  5
5B5
100
AcDbEntity
  8
DEFAULT_1
100
AcDbLine
 62
7
  6
CENTER
 10
5.7717433247
 20
7.8795406927
 11
5.6233181278
 21
7.8795406927
  0
LINE
  5
5B6
100
AcDbEntity
  8
DEFAULT_1
100
AcDbLine
 62
7
  6
CENTER
 10
5.7717433247
 20
7.8795406927
 11
5.9201685215
 21
7.8795406927
  0
LINE
  5
5B7
100
AcDbEntity
  8
DEFAULT_1
100
AcDbLine
 62
7
  6
CENTER
 10
8.8032393877
 20
7.8795406927
 11
8.9516645845
 21
7.8795406927
  0
LINE
  5
5B8
100
AcDbEntity
  8
0
100
AcDbLine
 62
9
  6
CONTINUOUS
 10
9.1575700963
 20
7.9582808502
 11
9.0847354507
 21
7.9582808502
  0
LINE
  5
5B9
100
AcDbEntity
  8
0
100
AcDbLine
 62
9
  6
CONTINUOUS
 10
5.4902472617
 20
7.9582808502
 11
5.417412616
 21
7.9582808502
  0
LINE
  5
5BA
100
AcDbEntity
  8
0
100
AcDbLine
 62
7
  6
CONTINUOUS
 10
5.417412616
 20
8.1157611652
 11
9.1575700963
 21
8.1157611652
  0
LINE
  5
5BB
100
AcDbEntity
  8
0
100
AcDbLine
 62
7
  6
CONTINUOUS
 10
1.5598757679
 20
2.6433202203
 11
1.4870411222
 21
2.6433202203
  0
LINE
  5
5BC
100
AcDbEntity
  8
0
100
AcDbLine
 62
9
  6
CONTINUOUS
 10
1.5598757679
 20
2.7417454172
 11
1.4870411222
 21
2.7417454172
  0
LINE
  5
5BD
100
AcDbEntity
  8
0
100
AcDbLine
 62
9
  6
CONTINUOUS
 10
1.4870411222
 20
4.3952887242
 11
1.5598757679
 21
4.3952887242
  0
LINE
  5
5BE
100
AcDbEntity
  8
0
100
AcDbLine
 62
7
  6
CONTINUOUS
 10
1.5598757679
 20
4.4937139211
 11
1.4870411222
 21
4.4937139211
  0
LINE
  5
5BF
100
AcDbEntity
  8
0
100
AcDbLine
 62
9
  6
CONTINUOUS
 10
1.5598757679
 20
4.5921391179
 11
1.4870411222
 21
4.5921391179
  0
LINE
  5
5C0
100
AcDbEntity
  8
0
100
AcDbLine
 62
7
  6
CONTINUOUS
 10
1.4870411222
 20
4.6511942361
 11
1.8020017521
 21
4.6511942361
  0
LINE
  5
5C1
100
AcDbEntity
  8
0
100
AcDbLine
 62
7
  6
CONTINUOUS
 10
1.4870411222
 20
2.6433202203
 11
1.4870411222
 21
8.1157611652
  0
LINE
  5
5C2
100
AcDbEntity
  8
0
100
AcDbLine
 62
7
  6
CONTINUOUS
 10
1.5598757679
 20
4.6511942361
 11
1.5598757679
 21
2.6433202203
  0
LINE
  5
5C3
100
AcDbEntity
  8
0
100
AcDbLine
 62
9
  6
CONTINUOUS
 10
1.6386159254
 20
4.6511942361
 11
1.6386159254
 21
8.1157611652
  0
LINE
  5
5C4
100
AcDbEntity
  8
0
100
AcDbLine
 62
7
  6
CONTINUOUS
 10
1.9594820671
 20
7.9582808502
 11
1.9594820671
 21
4.808674551
  0
LINE
  5
5C5
100
AcDbEntity
  8
0
100
AcDbLine
 62
7
  6
CONTINUOUS
 10
1.4870411222
 20
8.1157611652
 11
1.8020017521
 21
8.1157611652
  0
CIRCLE
  5
5C6
100
AcDbEntity
  8
CONSTRUCTION
100
AcDbCircle
 62
7
  6
PHANTOM
 10
7.2874639145
 20
3.5487919013
 40
0.492125827
  0
CIRCLE
  5
5C7
100
AcDbEntity
  8
0
100
AcDbCircle
 62
7
  6
CONTINUOUS
 10
10.5342808475
 20
1.243294839
 40
0.252091
  0
CIRCLE
  5
5C8
100
AcDbEntity
  8
0
100
AcDbCircle
 62
7
  6
CONTINUOUS
 10
10.5342808475
 20
1.243294839
 40
0.182698
  0
ARC
  5
5C9
100
AcDbEntity
  8
AXIS
100
AcDbCircle
 62
7
  6
CONTINUOUS
 10
7.2874913562
 20
3.5488320313
 40
0.6299212598
100
AcDbArc
 50
127.5
 51
232.5
  0
ARC
  5
5CA
100
AcDbEntity
  8
AXIS
100
AcDbCircle
 62
7
  6
CONTINUOUS
 10
7.2874913562
 20
3.5488320313
 40
0.6299212598
100
AcDbArc
 50
307.5
 51
52.5
  0
ARC
  5
5CB
100
AcDbEntity
  8
AXIS
100
AcDbCircle
 62
7
  6
CONTINUOUS
 10
7.2874913562
 20
3.5488320313
 40
0.3543307087
100
AcDbArc
 50
127.5
 51
232.5
  0
ARC
  5
5CC
100
AcDbEntity
  8
AXIS
100
AcDbCircle
 62
7
  6
CONTINUOUS
 10
7.2874913562
 20
3.5488320313
 40
0.3543307087
100
AcDbArc
 50
307.5
 51
52.5
  0
ARC
  5
5CD
100
AcDbEntity
  8
AXIS
100
AcDbCircle
 62
7
  6
CONTINUOUS
 10
6.9879040388
 20
3.1584022379
 40
0.1377952756
100
AcDbArc
 50
232.5
 51
52.5
  0
ARC
  5
5CE
100
AcDbEntity
  8
AXIS
100
AcDbCircle
 62
7
  6
CONTINUOUS
 10
6.9879040388
 20
3.9392618248
 40
0.1377952756
100
AcDbArc
 50
307.5
 51
127.5
  0
ARC
  5
5CF
100
AcDbEntity
  8
AXIS
100
AcDbCircle
 62
7
  6
CONTINUOUS
 10
7.5870786736
 20
3.9392618248
 40
0.1377952756
100
AcDbArc
 50
52.5
 51
232.5
  0
ARC
  5
5D0
100
AcDbEntity
  8
AXIS
100
AcDbCircle
 62
7
  6
CONTINUOUS
 10
7.5870786736
 20
3.1584022379
 40
0.1377952756
100
AcDbArc
 50
127.5
 51
307.5
  0
ARC
  5
5D1
100
AcDbEntity
  8
SCHEME_DIMS
100
AcDbCircle
 62
2
  6
CONTINUOUS
 10
6.9879040388
 20
3.9392618248
 40
0.1377952756
100
AcDbArc
 50
343.9295042141
 51
39.3085672263
  0
CIRCLE
  5
5D2
100
AcDbEntity
  8
AXIS
100
AcDbCircle
 62
7
  6
CONTINUOUS
 10
7.2874913562
 20
3.5488320313
 40
0.1285433071
  0
ARC
  5
5D3
100
AcDbEntity
  8
0
100
AcDbCircle
 62
7
  6
CONTINUOUS
 10
8.2717433247
 20
4.3952887242
 40
0.0984251969
100
AcDbArc
 50
90.0
 51
180.0
  0
ARC
  5
5D4
100
AcDbEntity
  8
0
100
AcDbCircle
 62
7
  6
CONTINUOUS
 10
6.3032393877
 20
4.3952887242
 40
0.0984251969
100
AcDbArc
 50
0.0
 51
90.0
  0
ARC
  5
5D5
100
AcDbEntity
  8
0
100
AcDbCircle
 62
7
  6
CONTINUOUS
 10
8.074892931
 20
2.7417454172
 40
0.0984251969
100
AcDbArc
 50
270.0
 51
360.0
  0
ARC
  5
5D6
100
AcDbEntity
  8
0
100
AcDbCircle
 62
7
  6
CONTINUOUS
 10
8.9016645845
 20
4.5921391179
 40
0.0984251969
100
AcDbArc
 50
270.0
 51
360.0
  0
ARC
  5
5D7
100
AcDbEntity
  8
0
100
AcDbCircle
 62
7
  6
CONTINUOUS
 10
5.6733181278
 20
4.5921391179
 40
0.0984251969
100
AcDbArc
 50
180.0
 51
270.0
  0
ARC
  5
5D8
100
AcDbEntity
  8
0
100
AcDbCircle
 62
7
  6
CONTINUOUS
 10
6.5000897814
 20
2.7417454172
 40
0.0984251969
100
AcDbArc
 50
180.0
 51
270.0
  0
CIRCLE
  5
5D9
100
AcDbEntity
  8
AXIS
100
AcDbCircle
 62
7
  6
CONTINUOUS
 10
6.6969401751
 20
5.7535564408
 40
0.0649606299
  0
CIRCLE
  5
5DA
100
AcDbEntity
  8
AXIS
100
AcDbCircle
 62
7
  6
CONTINUOUS
 10
7.8780425373
 20
5.7535564408
 40
0.0649606299
  0
CIRCLE
  5
5DB
100
AcDbEntity
  8
0
100
AcDbCircle
 62
7
  6
CONTINUOUS
 10
7.2874913562
 20
6.3834777006
 40
0.0649606299
  0
CIRCLE
  5
5DC
100
AcDbEntity
  8
0
100
AcDbCircle
 62
7
  6
CONTINUOUS
 10
5.7717433247
 20
4.8480446298
 40
0.0484251969
  0
CIRCLE
  5
5DD
100
AcDbEntity
  8
0
100
AcDbCircle
 62
7
  6
CONTINUOUS
 10
8.8032393877
 20
7.8795406927
 40
0.0484251969
  0
CIRCLE
  5
5DE
100
AcDbEntity
  8
0
100
AcDbCircle
 62
7
  6
CONTINUOUS
 10
8.8032393877
 20
4.8480446298
 40
0.0484251969
  0
CIRCLE
  5
5DF
100
AcDbEntity
  8
0
100
AcDbCircle
 62
7
  6
CONTINUOUS
 10
5.7717433247
 20
7.8795406927
 40
0.0484251969
  0
ARC
  5
5E0
100
AcDbEntity
  8
0
100
AcDbCircle
 62
7
  6
CONTINUOUS
 10
1.8020017521
 20
7.9582808502
 40
0.157480315
100
AcDbArc
 50
0.0
 51
90.0
  0
ARC
  5
5E1
100
AcDbEntity
  8
0
100
AcDbCircle
 62
7
  6
CONTINUOUS
 10
1.8020017521
 20
4.808674551
 40
0.157480315
100
AcDbArc
 50
270.0
 51
360.0
  0
ENDSEC
  0
SECTION
  2
OBJECTS
  0
DICTIONARY
  5
C
100
AcDbDictionary
280
0
281
1
  3
ACAD_GROUP
350
D
  3
ACAD_MLINESTYLE
350
17
  3
ACAD_LAYOUT
350
1A
  3
ACAD_PLOTSETTINGS
350
19
  3
ACAD_PLOTSTYLENAME
350
E
  0
DICTIONARY
  5
D
102
{ACAD_REACTORS
330
C
102
}
100
AcDbDictionary
280
0
281
1
  0
ACDBDICTIONARYWDFLT
  5
E
102
{ACAD_REACTORS
330
C
102
}
100
AcDbDictionary
281
1
  3
Normal
350
F
100
AcDbDictionaryWithDefault
340
F
  0
DICTIONARY
  5
17
102
{ACAD_REACTORS
330
C
102
}
100
AcDbDictionary
280
0
281
1
  3
Standard
350
18
  0
DICTIONARY
  5
19
102
{ACAD_REACTORS
330
C
102
}
100
AcDbDictionary
281
1
  0
DICTIONARY
  5
1A
102
{ACAD_REACTORS
330
C
102
}
100
AcDbDictionary
281
1
  3
Model
350
5E2
  3
Layout1
350
5E3
  0
ACDBPLACEHOLDER
  5
F
102
{ACAD_REACTORS
330
E
102
}
  0
MLINESTYLE
  5
18
102
{ACAD_REACTORS
330
17
102
}
100
AcDbMlineStyle
  2
STANDARD
 70
0
  3

 62
256
 51
90.0
 52
90.0
 71
2
 49
0.5
 62
256
  6
BYLAYER
 49
-0.5
 62
256
  6
BYLAYER
  0
LAYOUT
  5
5E2
102
{ACAD_REACTORS
330
1A
102
}
100
AcDbPlotSettings
  1

  2
none_device
  4
ANSI_B_(17.00_x_11.00_Inches)
  6

 40
0.0
 41
0.0
 42
0.0
 43
0.0
 44
431.8
 45
279.4
 46
0.0
 47
0.0
 48
0.0
 49
0.0
140
0.0
141
0.0
142
1.0
143
1.0
 70
1024
 72
0
 73
0
 74
0
  7

 75
0
147
1.0
148
0.0
149
0.0
100
AcDbLayout
  1
Model
 70
0
 71
0
 10
0.0
 20
0.0
 11
17.0
 21
11.0
 12
0.0
 22
0.0
 32
0.0
 14
0.0
 24
0.0
 34
0.0
 15
0.0
 25
0.0
 35
0.0
146
0.0
 13
0.0
 23
0.0
 33
0.0
 16
1.0
 26
0.0
 36
0.0
 17
0.0
 27
1.0
 37
0.0
 76
0
330
20C
345
0
346
0
  0
LAYOUT
  5
5E3
102
{ACAD_REACTORS
330
1A
102
}
100
AcDbPlotSettings
  1

  2
none_device
  4
ANSI_B_(17.00_x_11.00_Inches)
  6

 40
0.0
 41
0.0
 42
0.0
 43
0.0
 44
431.8
 45
279.4
 46
0.0
 47
0.0
 48
0.0
 49
0.0
140
0.0
141
0.0
142
1.0
143
1.0
 70
0
 72
0
 73
0
 74
0
  7

 75
0
147
1.0
148
0.0
149
0.0
100
AcDbLayout
  1
Layout1
 70
0
 71
1
 10
0.0
 20
0.0
 11
17.0
 21
11.0
 12
0.0
 22
0.0
 32
0.0
 14
0.0
 24
0.0
 34
0.0
 15
0.0
 25
0.0
 35
0.0
146
0.0
 13
0.0
 23
0.0
 33
0.0
 16
1.0
 26
0.0
 36
0.0
 17
0.0
 27
1.0
 37
0.0
 76
0
330
20D
345
0
346
0
  0
ENDSEC
  0
EOF
