999
DXF file: 155372_1.dxf
999
Pro/ENGINEER 2009141 by Parametric Technology Corporation
  0
SECTION
  2
HEADER
  9
$ACADVER
  1
AC1015
  9
$DWGCODEPAGE
  3
ANSI_1252
  9
$EXTMAX
 10
17.0
 20
11.0
 30
0.0
  9
$EXTMIN
 10
0.0
 20
0.0
 30
0.0
  9
$LIMMIN
 10
0.0
 20
0.0
  9
$LIMMAX
 10
17.0
 20
11.0
  9
$VIEWCTR
 10
8.5
 20
5.5
  9
$VIEWSIZE
 40
11.0
  9
$CLAYER
  8
0
  9
$LTSCALE
 40
0.935
  9
$CELTYPE
  6
BYLAYER
  9
$DIMSCALE
 40
1.0
  9
$DIMASZ
 40
0.1875
  9
$DIMEXO
 40
0.10625
  9
$DIMDLI
 40
0.646
  9
$DIMEXE
 40
0.306
  9
$DIMCEN
 40
0.153
  9
$DIMLFAC
 40
1.0
  9
$DIMBLK
  1
_FILLED
  9
$DIMTXT
 40
0.1
  9
$DIMTOL
 70
1
  9
$DIMLIM
 70
0
  9
$DIMTFAC
 40
1.0
  9
$DIMTP
 40
0.005
  9
$DIMTM
 40
0.005
  9
$PDMODE
 70
3
  9
$PDSIZE
 40
0.3125
  9
$HANDSEED
  5
77F
  9
$TILEMODE
 70
1
  9
$MEASUREMENT
 70
0
  9
$INSUNITS
 70
1
  0
ENDSEC
  0
SECTION
  2
CLASSES
  0
CLASS
  1
ACDBDICTIONARYWDFLT
  2
AcDbDictionaryWithDefault
  3
AutoCAD 2000
 90
0
280
0
281
0
  0
CLASS
  1
ACDBPLACEHOLDER
  2
AcDbPlaceHolder
  3
AutoCAD 2000
 90
0
280
0
281
0
  0
CLASS
  1
LAYOUT
  2
AcDbLayout
  3
AutoCAD 2000
 90
0
280
0
281
0
  0
ENDSEC
  0
SECTION
  2
TABLES
  0
TABLE
  2
VPORT
  5
8
100
AcDbSymbolTable
 70
2
  0
VPORT
  5
1F4
100
AcDbSymbolTableRecord
100
AcDbViewportTableRecord
  2
*ACTIVE
 70
0
 10
0.0
 20
0.0
 11
1.0
 21
1.0
 12
8.5
 22
5.5
 13
0.0
 23
0.0
 14
1.0
 24
1.0
 15
0.0
 25
0.0
 16
0.0
 26
0.0
 36
1.0
 17
0.0
 27
0.0
 37
0.0
 40
11.0
 41
1.5454545455
 42
50.0
 43
0.0
 44
0.0
 50
0.0
 51
0.0
 71
0
 72
100
 73
1
 74
1
 75
0
 76
0
 77
0
 78
0
  0
ENDTAB
  0
TABLE
  2
LTYPE
  5
5
100
AcDbSymbolTable
 70
6
  0
LTYPE
  5
14
100
AcDbSymbolTableRecord
100
AcDbLinetypeTableRecord
  2
BYBLOCK
 70
0
  3

 72
65
 73
0
 40
0.0
  0
LTYPE
  5
15
100
AcDbSymbolTableRecord
100
AcDbLinetypeTableRecord
  2
BYLAYER
 70
0
  3

 72
65
 73
0
 40
0.0
  0
LTYPE
  5
16
100
AcDbSymbolTableRecord
100
AcDbLinetypeTableRecord
  2
CONTINUOUS
 70
64
  3
Solid line
 72
65
 73
0
 40
0.0
  0
LTYPE
  5
1F5
100
AcDbSymbolTableRecord
100
AcDbLinetypeTableRecord
  2
CENTER
 70
64
  3
____ _ ____ _ ____ _ ____ _ ____ _ ____ _ ____
 72
65
 73
4
 40
0.6
 49
0.375
 74
0
 49
-0.075
 74
0
 49
0.075
 74
0
 49
-0.075
 74
0
  0
LTYPE
  5
1F6
100
AcDbSymbolTableRecord
100
AcDbLinetypeTableRecord
  2
HIDDEN
 70
64
  3
- - - - - - - - - - - - - - - - - - - -
 72
65
 73
2
 40
0.2
 49
0.1
 74
0
 49
-0.1
 74
0
  0
LTYPE
  5
1F7
100
AcDbSymbolTableRecord
100
AcDbLinetypeTableRecord
  2
PHANTOM
 70
64
  3
_____ _ _ _____ _ _ _____ _ _ _____
 72
65
 73
6
 40
0.8
 49
0.45
 74
0
 49
-0.05
 74
0
 49
0.1
 74
0
 49
-0.05
 74
0
 49
0.1
 74
0
 49
-0.05
 74
0
  0
LTYPE
  5
1F8
100
AcDbSymbolTableRecord
100
AcDbLinetypeTableRecord
  2
DOT
 70
64
  3
. . . . . . . . . . . . . . . . . . . .
 72
65
 73
2
 40
0.2
 49
0.1
 74
0
 49
-0.1
 74
0
  0
LTYPE
  5
1F9
100
AcDbSymbolTableRecord
100
AcDbLinetypeTableRecord
  2
DASHED
 70
64
  3
- - - - - - - - - - - - - - - - - - - -
 72
65
 73
2
 40
0.2
 49
0.1
 74
0
 49
-0.1
 74
0
  0
ENDTAB
  0
TABLE
  2
LAYER
  5
2
100
AcDbSymbolTable
 70
36
  0
LAYER
  5
10
100
AcDbSymbolTableRecord
100
AcDbLayerTableRecord
  2
0
 70
0
 62
7
  6
CONTINUOUS
370
-3
390
F
  0
LAYER
  5
1FA
100
AcDbSymbolTableRecord
100
AcDbLayerTableRecord
  2
DEFAULT_1
 70
0
 62
7
  6
CENTER
370
-3
390
F
  0
LAYER
  5
1FB
100
AcDbSymbolTableRecord
100
AcDbLayerTableRecord
  2
DEFAULT_2
 70
0
 62
8
  6
HIDDEN
370
-3
390
F
  0
LAYER
  5
1FC
100
AcDbSymbolTableRecord
100
AcDbLayerTableRecord
  2
DEFAULT_3
 70
0
 62
7
  6
PHANTOM
370
-3
390
F
  0
LAYER
  5
1FD
100
AcDbSymbolTableRecord
100
AcDbLayerTableRecord
  2
01___PRT_ALL_DTM_PLN
 70
0
 62
7
  6
CONTINUOUS
370
-3
390
F
  0
LAYER
  5
1FE
100
AcDbSymbolTableRecord
100
AcDbLayerTableRecord
  2
01___PRT_DEF_DTM_PLN
 70
0
 62
7
  6
CONTINUOUS
370
-3
390
F
  0
LAYER
  5
1FF
100
AcDbSymbolTableRecord
100
AcDbLayerTableRecord
  2
02___PRT_ALL_AXES
 70
0
 62
7
  6
CONTINUOUS
370
-3
390
F
  0
LAYER
  5
200
100
AcDbSymbolTableRecord
100
AcDbLayerTableRecord
  2
03___PRT_ALL_CURVES
 70
0
 62
7
  6
CONTINUOUS
370
-3
390
F
  0
LAYER
  5
201
100
AcDbSymbolTableRecord
100
AcDbLayerTableRecord
  2
04___PRT_ALL_DTM_PNT
 70
0
 62
7
  6
CONTINUOUS
370
-3
390
F
  0
LAYER
  5
202
100
AcDbSymbolTableRecord
100
AcDbLayerTableRecord
  2
05___PRT_ALL_DTM_CSYS
 70
0
 62
7
  6
CONTINUOUS
370
-3
390
F
  0
LAYER
  5
203
100
AcDbSymbolTableRecord
100
AcDbLayerTableRecord
  2
05___PRT_DEF_DTM_CSYS
 70
0
 62
7
  6
CONTINUOUS
370
-3
390
F
  0
LAYER
  5
204
100
AcDbSymbolTableRecord
100
AcDbLayerTableRecord
  2
06___PRT_ALL_SURFS
 70
0
 62
7
  6
CONTINUOUS
370
-3
390
F
  0
LAYER
  5
205
100
AcDbSymbolTableRecord
100
AcDbLayerTableRecord
  2
AXIS
 70
0
 62
7
  6
CONTINUOUS
370
-3
390
F
  0
LAYER
  5
206
100
AcDbSymbolTableRecord
100
AcDbLayerTableRecord
  2
AXIS_COSMETIC_THREADS
 70
0
 62
7
  6
CONTINUOUS
370
-3
390
F
  0
LAYER
  5
207
100
AcDbSymbolTableRecord
100
AcDbLayerTableRecord
  2
DATUM_CURVES
 70
0
 62
7
  6
CONTINUOUS
370
-3
390
F
  0
LAYER
  5
208
100
AcDbSymbolTableRecord
100
AcDbLayerTableRecord
  2
DATUM_PLANES
 70
0
 62
7
  6
CONTINUOUS
370
-3
390
F
  0
LAYER
  5
209
100
AcDbSymbolTableRecord
100
AcDbLayerTableRecord
  2
NOTES
 70
0
 62
7
  6
CONTINUOUS
370
-3
390
F
  0
LAYER
  5
20A
100
AcDbSymbolTableRecord
100
AcDbLayerTableRecord
  2
QUILTS
 70
0
 62
7
  6
CONTINUOUS
370
-3
390
F
  0
LAYER
  5
20B
100
AcDbSymbolTableRecord
100
AcDbLayerTableRecord
  2
SCHEME_DIMS
 70
0
 62
7
  6
CONTINUOUS
370
-3
390
F
  0
LAYER
  5
20C
100
AcDbSymbolTableRecord
100
AcDbLayerTableRecord
  2
SYMBOLS
 70
0
 62
7
  6
CONTINUOUS
370
-3
390
F
  0
ENDTAB
  0
TABLE
  2
STYLE
  5
3
100
AcDbSymbolTable
 70
1
  0
STYLE
  5
11
100
AcDbSymbolTableRecord
100
AcDbTextStyleTableRecord
  2
STANDARD
 70
0
 40
0.0
 41
1.0
 50
0.0
 71
0
 42
0.2
  3
txt
  4

  0
STYLE
  5
20D
100
AcDbSymbolTableRecord
100
AcDbTextStyleTableRecord
  2
TEXTSTYLE_1
 70
0
 40
0.0
 41
0.8
 50
0.0
 71
0
 42
0.2
  3
gdt
  4

  0
STYLE
  5
20E
100
AcDbSymbolTableRecord
100
AcDbTextStyleTableRecord
  2
TEXTSTYLE_2
 70
0
 40
0.0
 41
0.8
 50
0.0
 71
0
 42
0.2
  3
txt
  4

  0
STYLE
  5
20F
100
AcDbSymbolTableRecord
100
AcDbTextStyleTableRecord
  2
TEXTSTYLE_3
 70
0
 40
0.0
 41
0.85
 50
0.0
 71
0
 42
0.2
  3
txt
  4

  0
STYLE
  5
210
100
AcDbSymbolTableRecord
100
AcDbTextStyleTableRecord
  2
TEXTSTYLE_4
 70
0
 40
0.0
 41
0.92
 50
0.0
 71
0
 42
0.2
  3
txt
  4

  0
STYLE
  5
211
100
AcDbSymbolTableRecord
100
AcDbTextStyleTableRecord
  2
TEXTSTYLE_5
 70
0
 40
0.0
 41
1.0
 50
0.0
 71
0
 42
0.2
  3
gdt
  4

  0
ENDTAB
  0
TABLE
  2
VIEW
  5
6
100
AcDbSymbolTable
 70
0
  0
ENDTAB
  0
TABLE
  2
UCS
  5
7
100
AcDbSymbolTable
 70
0
  0
ENDTAB
  0
TABLE
  2
APPID
  5
9
100
AcDbSymbolTable
 70
1
  0
APPID
  5
212
100
AcDbSymbolTableRecord
100
AcDbRegAppTableRecord
  2
ACAD
 70
0
  0
ENDTAB
  0
TABLE
  2
BLOCK_RECORD
  5
1
100
AcDbSymbolTable
 70
0
  0
BLOCK_RECORD
  5
213
100
AcDbSymbolTableRecord
100
AcDbBlockTableRecord
  2
*Model_Space
  0
BLOCK_RECORD
  5
214
100
AcDbSymbolTableRecord
100
AcDbBlockTableRecord
  2
*Paper_Space
  0
BLOCK_RECORD
  5
215
100
AcDbSymbolTableRecord
100
AcDbBlockTableRecord
  2
_FILLED
  0
BLOCK_RECORD
  5
216
100
AcDbSymbolTableRecord
100
AcDbBlockTableRecord
  2
*D0
  0
BLOCK_RECORD
  5
217
100
AcDbSymbolTableRecord
100
AcDbBlockTableRecord
  2
*D1
  0
BLOCK_RECORD
  5
218
100
AcDbSymbolTableRecord
100
AcDbBlockTableRecord
  2
*D2
  0
BLOCK_RECORD
  5
219
100
AcDbSymbolTableRecord
100
AcDbBlockTableRecord
  2
*D3
  0
BLOCK_RECORD
  5
21A
100
AcDbSymbolTableRecord
100
AcDbBlockTableRecord
  2
*D4
  0
BLOCK_RECORD
  5
21B
100
AcDbSymbolTableRecord
100
AcDbBlockTableRecord
  2
*D5
  0
BLOCK_RECORD
  5
21C
100
AcDbSymbolTableRecord
100
AcDbBlockTableRecord
  2
*D6
  0
BLOCK_RECORD
  5
21D
100
AcDbSymbolTableRecord
100
AcDbBlockTableRecord
  2
*D7
  0
BLOCK_RECORD
  5
21E
100
AcDbSymbolTableRecord
100
AcDbBlockTableRecord
  2
*D8
  0
BLOCK_RECORD
  5
21F
100
AcDbSymbolTableRecord
100
AcDbBlockTableRecord
  2
BANNER_LOGO_TITLEBLOCK_BL0
  0
ENDTAB
  0
TABLE
  2
DIMSTYLE
  5
A
100
AcDbSymbolTable
 70
1
100
AcDbDimStyleTable
 71
0
  0
DIMSTYLE
105
220
100
AcDbSymbolTableRecord
100
AcDbDimStyleTableRecord
  2
STANDARD
 70
0
  3

  4

 40
1.0
 41
0.1875
 42
0.0625
 43
0.38
 44
0.18
 45
0.0
 46
0.0
 47
0.005
 48
0.005
140
0.1
141
0.09
142
0.0
143
25.4
144
1.0
145
0.0
146
1.0
147
0.09
 71
1.0
 72
0.0
 73
1
 74
1
 75
0
 76
0
 77
0
 78
4
170
0
171
2
172
0
173
0
174
0
175
0
176
0
177
0
178
0
270
2
271
3
272
3
273
2
274
2
275
0
280
0
281
0
282
0
283
1
284
4
285
0
286
0
287
3
288
0
340
11
341
215
342
215
343
215
344
215
  0
DIMSTYLE
105
221
100
AcDbSymbolTableRecord
100
AcDbDimStyleTableRecord
  2
DIMSTYLE_1
 70
0
  3

  4

 40
1.0
 41
0.1875
 42
0.0625
 43
0.38
 44
0.18
 45
0.0
 46
0.0
 47
0.1
 48
0.1
140
0.1
141
0.09
142
0.0
143
25.4
144
1.0
145
0.0
146
1.0
147
0.09
 71
0.0
 72
0.0
 73
1
 74
1
 75
0
 76
0
 77
0
 78
4
170
0
171
2
172
0
173
0
174
0
175
0
176
0
177
0
178
0
270
2
271
1
272
1
273
2
274
2
275
0
280
0
281
0
282
0
283
1
284
4
285
0
286
0
287
3
288
0
340
11
341
215
342
215
343
215
344
215
  0
DIMSTYLE
105
222
100
AcDbSymbolTableRecord
100
AcDbDimStyleTableRecord
  2
DIMSTYLE_2
 70
0
  3

  4

 40
1.0
 41
0.1875
 42
0.0625
 43
0.38
 44
0.18
 45
0.0
 46
0.0
 47
0.1
 48
0.1
140
0.1
141
0.09
142
0.0
143
25.4
144
1.0
145
0.0
146
1.0
147
0.09
 71
0.0
 72
0.0
 73
1
 74
1
 75
0
 76
0
 77
0
 78
4
170
0
171
2
172
0
173
0
174
0
175
0
176
0
177
0
178
0
270
2
271
1
272
1
273
2
274
2
275
0
280
0
281
0
282
0
283
1
284
4
285
0
286
0
287
3
288
0
340
11
341
215
342
215
343
215
344
215
  0
DIMSTYLE
105
223
100
AcDbSymbolTableRecord
100
AcDbDimStyleTableRecord
  2
DIMSTYLE_3
 70
0
  3

  4

 40
1.0
 41
0.1875
 42
0.0625
 43
0.38
 44
0.18
 45
0.0
 46
0.0
 47
0.1
 48
0.1
140
0.1
141
0.09
142
0.0
143
25.4
144
1.0
145
0.0
146
1.0
147
0.09
 71
0.0
 72
0.0
 73
1
 74
1
 75
0
 76
0
 77
0
 78
4
170
0
171
2
172
0
173
0
174
0
175
0
176
0
177
0
178
0
270
2
271
1
272
1
273
2
274
2
275
0
280
0
281
0
282
0
283
1
284
4
285
0
286
0
287
3
288
0
340
11
341
215
342
215
343
215
344
215
  0
ENDTAB
  0
ENDSEC
  0
SECTION
  2
BLOCKS
  0
BLOCK
  5
20
100
AcDbEntity
  8
0
100
AcDbBlockBegin
  2
*Model_Space
 70
0
 10
0.0
 20
0.0
 30
0.0
  3
*Model_Space
  1

  0
ENDBLK
  5
21
100
AcDbEntity
  8
0
100
AcDbBlockEnd
  0
BLOCK
  5
1C
100
AcDbEntity
  8
0
100
AcDbBlockBegin
  2
*Paper_Space
 70
0
 10
0.0
 20
0.0
 30
0.0
  3
*Paper_Space
  1

  0
ENDBLK
  5
1D
100
AcDbEntity
  8
0
100
AcDbBlockEnd
  0
BLOCK
  5
224
100
AcDbEntity
  8
0
100
AcDbBlockBegin
 62
2
  6
CONTINUOUS
  2
BANNER_LOGO_TITLEBLOCK_BL0
 70
64
 10
12.9086867042
 20
2.5403783405
  3
BANNER_LOGO_TITLEBLOCK_BL0
  1

  0
ELLIPSE
  5
225
100
AcDbEntity
  8
0
100
AcDbEllipse
 62
2
  6
CONTINUOUS
 10
12.9046654608
 20
2.5403783405
 30
0.0
 11
-0.8250004575
 21
0.0
 31
0.0
 40
0.218572
 41
0.0
 42
6.2831853072
  0
ARC
  5
226
100
AcDbEntity
  8
0
100
AcDbCircle
 62
2
  6
CONTINUOUS
 10
12.400005721
 20
2.5168763464
 40
0.0153945295
100
AcDbArc
 50
354.0454548824
 51
5.1878013979
  0
ARC
  5
227
100
AcDbEntity
  8
0
100
AcDbCircle
 62
2
  6
CONTINUOUS
 10
12.3931760319
 20
2.5166878286
 40
0.0222174455
100
AcDbArc
 50
4.0793399388
 51
69.834329283
  0
LINE
  5
228
100
AcDbEntity
  8
0
100
AcDbLine
 62
2
  6
CONTINUOUS
 10
12.4008351814
 20
2.5375433389
 11
12.3907841758
 21
2.5410923409
  0
LINE
  5
229
100
AcDbEntity
  8
0
100
AcDbLine
 62
2
  6
CONTINUOUS
 10
12.3907841758
 20
2.5410923409
 11
12.3990241804
 21
2.5458683435
  0
ARC
  5
22A
100
AcDbEntity
  8
0
100
AcDbCircle
 62
2
  6
CONTINUOUS
 10
12.3771587979
 20
2.5826952352
 40
0.0428289026
100
AcDbArc
 50
300.6990502959
 51
319.0591802498
  0
ARC
  5
22B
100
AcDbEntity
  8
0
100
AcDbCircle
 62
2
  6
CONTINUOUS
 10
12.3971873948
 20
2.5665668817
 40
0.0171568255
100
AcDbArc
 50
315.9145124245
 51
16.0049121282
  0
ARC
  5
22C
100
AcDbEntity
  8
0
100
AcDbCircle
 62
2
  6
CONTINUOUS
 10
12.3922357827
 20
2.5632132173
 40
0.0229166529
100
AcDbArc
 50
20.6563876465
 51
62.3316896973
  0
ARC
  5
22D
100
AcDbEntity
  8
0
100
AcDbCircle
 62
2
  6
CONTINUOUS
 10
12.371573659
 20
2.5302846524
 40
0.061747717
100
AcDbArc
 50
59.5385584989
 51
90.0050977555
  0
LINE
  5
22E
100
AcDbEntity
  8
0
100
AcDbLine
 62
2
  6
CONTINUOUS
 10
12.3715681652
 20
2.5920323691
 11
12.2055050731
 21
2.5920323691
  0
ARC
  5
22F
100
AcDbEntity
  8
0
100
AcDbCircle
 62
2
  6
CONTINUOUS
 10
12.2055050712
 20
2.5895573696
 40
0.0024749995
100
AcDbArc
 50
89.9999571957
 51
180.0000428043
  0
LINE
  5
230
100
AcDbEntity
  8
0
100
AcDbLine
 62
2
  6
CONTINUOUS
 10
12.2030300717
 20
2.5895573678
 11
12.2030300717
 21
2.5697573568
  0
ARC
  5
231
100
AcDbEntity
  8
0
100
AcDbCircle
 62
2
  6
CONTINUOUS
 10
12.2055050712
 20
2.5697573549
 40
0.0024749995
100
AcDbArc
 50
179.9999571957
 51
270.0000428043
  0
LINE
  5
232
100
AcDbEntity
  8
0
100
AcDbLine
 62
2
  6
CONTINUOUS
 10
12.2055050731
 20
2.5672823554
 11
12.2294470864
 21
2.5672823554
  0
ARC
  5
233
100
AcDbEntity
  8
0
100
AcDbCircle
 62
2
  6
CONTINUOUS
 10
12.2294470882
 20
2.5648073559
 40
0.0024749995
100
AcDbArc
 50
359.9999571957
 51
90.0000428043
  0
LINE
  5
234
100
AcDbEntity
  8
0
100
AcDbLine
 62
2
  6
CONTINUOUS
 10
12.2319220877
 20
2.564807354
 11
12.2319220877
 21
2.5184523283
  0
ARC
  5
235
100
AcDbEntity
  8
0
100
AcDbCircle
 62
2
  6
CONTINUOUS
 10
12.2294470882
 20
2.5184523265
 40
0.0024749995
100
AcDbArc
 50
269.9999571957
 51
0.0000428043
  0
LINE
  5
236
100
AcDbEntity
  8
0
100
AcDbLine
 62
2
  6
CONTINUOUS
 10
12.2294470864
 20
2.515977327
 11
12.2055050731
 21
2.515977327
  0
ARC
  5
237
100
AcDbEntity
  8
0
100
AcDbCircle
 62
2
  6
CONTINUOUS
 10
12.2055050712
 20
2.5135023274
 40
0.0024749995
100
AcDbArc
 50
89.9999571957
 51
180.0000428043
  0
LINE
  5
238
100
AcDbEntity
  8
0
100
AcDbLine
 62
2
  6
CONTINUOUS
 10
12.2030300717
 20
2.5135023256
 11
12.2030300717
 21
2.4937023146
  0
ARC
  5
239
100
AcDbEntity
  8
0
100
AcDbCircle
 62
2
  6
CONTINUOUS
 10
12.2055050712
 20
2.4937023128
 40
0.0024749995
100
AcDbArc
 50
179.9999571957
 51
270.0000428043
  0
LINE
  5
23A
100
AcDbEntity
  8
0
100
AcDbLine
 62
2
  6
CONTINUOUS
 10
12.2055050731
 20
2.4912273132
 11
12.3819511709
 21
2.4912273132
  0
ARC
  5
23B
100
AcDbEntity
  8
0
100
AcDbCircle
 62
2
  6
CONTINUOUS
 10
12.3792298263
 20
2.539634765
 40
0.048483885
100
AcDbArc
 50
273.21763719
 51
303.0749121182
  0
ARC
  5
23C
100
AcDbEntity
  8
0
100
AcDbCircle
 62
2
  6
CONTINUOUS
 10
12.3940692204
 20
2.5168671561
 40
0.0213072145
100
AcDbArc
 50
303.0488228549
 51
355.7263138674
  0
LINE
  5
23D
100
AcDbEntity
  8
0
100
AcDbLine
 62
2
  6
CONTINUOUS
 10
12.2949101227
 20
2.5499573458
 11
12.3362731456
 21
2.5499573458
  0
ARC
  5
23E
100
AcDbEntity
  8
0
100
AcDbCircle
 62
2
  6
CONTINUOUS
 10
12.3362731456
 20
2.5586198506
 40
0.0086625048
100
AcDbArc
 50
270.0
 51
90.0
  0
LINE
  5
23F
100
AcDbEntity
  8
0
100
AcDbLine
 62
2
  6
CONTINUOUS
 10
12.3362731456
 20
2.5672823554
 11
12.2949101227
 21
2.5672823554
  0
ARC
  5
240
100
AcDbEntity
  8
0
100
AcDbCircle
 62
2
  6
CONTINUOUS
 10
12.2949101208
 20
2.5648073559
 40
0.0024749995
100
AcDbArc
 50
89.9999571957
 51
180.0000428043
  0
LINE
  5
241
100
AcDbEntity
  8
0
100
AcDbLine
 62
2
  6
CONTINUOUS
 10
12.2924351213
 20
2.564807354
 11
12.2924351213
 21
2.5524323472
  0
ARC
  5
242
100
AcDbEntity
  8
0
100
AcDbCircle
 62
2
  6
CONTINUOUS
 10
12.2949101208
 20
2.5524323453
 40
0.0024749995
100
AcDbArc
 50
179.9999571957
 51
270.0000428043
  0
LINE
  5
243
100
AcDbEntity
  8
0
100
AcDbLine
 62
2
  6
CONTINUOUS
 10
12.2924351213
 20
2.5184523283
 11
12.2924351213
 21
2.5308273352
  0
ARC
  5
244
100
AcDbEntity
  8
0
100
AcDbCircle
 62
2
  6
CONTINUOUS
 10
12.2949101208
 20
2.530827337
 40
0.0024749995
100
AcDbArc
 50
89.9999571957
 51
180.0000428043
  0
LINE
  5
245
100
AcDbEntity
  8
0
100
AcDbLine
 62
2
  6
CONTINUOUS
 10
12.2949101227
 20
2.5333023366
 11
12.3362731456
 21
2.5333023366
  0
ARC
  5
246
100
AcDbEntity
  8
0
100
AcDbCircle
 62
2
  6
CONTINUOUS
 10
12.3362731456
 20
2.5246398318
 40
0.0086625048
100
AcDbArc
 50
270.0
 51
90.0
  0
LINE
  5
247
100
AcDbEntity
  8
0
100
AcDbLine
 62
2
  6
CONTINUOUS
 10
12.3362731456
 20
2.515977327
 11
12.2949101227
 21
2.515977327
  0
ARC
  5
248
100
AcDbEntity
  8
0
100
AcDbCircle
 62
2
  6
CONTINUOUS
 10
12.2949101208
 20
2.5184523265
 40
0.0024749995
100
AcDbArc
 50
179.9999571957
 51
270.0000428043
  0
ARC
  5
249
100
AcDbEntity
  8
0
100
AcDbCircle
 62
2
  6
CONTINUOUS
 10
13.5806801742
 20
2.5212486481
 40
0.044722495
100
AcDbArc
 50
195.531588407
 51
204.7624440448
  0
LINE
  5
24A
100
AcDbEntity
  8
0
100
AcDbLine
 62
2
  6
CONTINUOUS
 10
13.5375908118
 20
2.5092733232
 11
13.5357868108
 21
2.5153423266
  0
ARC
  5
24B
100
AcDbEntity
  8
0
100
AcDbCircle
 62
2
  6
CONTINUOUS
 10
13.4974076135
 20
2.5055452462
 40
0.0396099176
100
AcDbArc
 50
14.3201081283
 51
22.4984722084
  0
ARC
  5
24C
100
AcDbEntity
  8
0
100
AcDbCircle
 62
2
  6
CONTINUOUS
 10
13.5201739219
 20
2.5145168728
 40
0.0151491919
100
AcDbArc
 50
24.098260853
 51
63.0369451818
  0
ARC
  5
24D
100
AcDbEntity
  8
0
100
AcDbCircle
 62
2
  6
CONTINUOUS
 10
13.5161192671
 20
2.5062372524
 40
0.0243676582
100
AcDbArc
 50
63.3666028271
 51
90.3937697637
  0
LINE
  5
24E
100
AcDbEntity
  8
0
100
AcDbLine
 62
2
  6
CONTINUOUS
 10
13.5159517998
 20
2.5306043351
 11
13.4883447845
 21
2.5306043351
  0
ARC
  5
24F
100
AcDbEntity
  8
0
100
AcDbCircle
 62
2
  6
CONTINUOUS
 10
13.4883447827
 20
2.5281293355
 40
0.0024749995
100
AcDbArc
 50
89.9999571957
 51
180.0000428043
  0
LINE
  5
250
100
AcDbEntity
  8
0
100
AcDbLine
 62
2
  6
CONTINUOUS
 10
13.4858697831
 20
2.5281293337
 11
13.4858697831
 21
2.5184303283
  0
ARC
  5
251
100
AcDbEntity
  8
0
100
AcDbCircle
 62
2
  6
CONTINUOUS
 10
13.4883447827
 20
2.5184303265
 40
0.0024749995
100
AcDbArc
 50
179.9999571957
 51
270.0000428043
  0
LINE
  5
252
100
AcDbEntity
  8
0
100
AcDbLine
 62
2
  6
CONTINUOUS
 10
13.4883447845
 20
2.5159553269
 11
13.5130037982
 21
2.5159553269
  0
ARC
  5
253
100
AcDbEntity
  8
0
100
AcDbCircle
 62
2
  6
CONTINUOUS
 10
13.5130038
 20
2.5134803274
 40
0.0024749995
100
AcDbArc
 50
359.9999571957
 51
90.0000428043
  0
LINE
  5
254
100
AcDbEntity
  8
0
100
AcDbLine
 62
2
  6
CONTINUOUS
 10
13.5154787995
 20
2.5134803256
 11
13.5154787995
 21
2.4937023146
  0
ARC
  5
255
100
AcDbEntity
  8
0
100
AcDbCircle
 62
2
  6
CONTINUOUS
 10
13.5130038
 20
2.4937023128
 40
0.0024749995
100
AcDbArc
 50
269.9999571957
 51
0.0000428043
  0
LINE
  5
256
100
AcDbEntity
  8
0
100
AcDbLine
 62
2
  6
CONTINUOUS
 10
13.5130037982
 20
2.4912273132
 11
13.3994327352
 21
2.4912273132
  0
ARC
  5
257
100
AcDbEntity
  8
0
100
AcDbCircle
 62
2
  6
CONTINUOUS
 10
13.3994327333
 20
2.4937023128
 40
0.0024749995
100
AcDbArc
 50
179.9999571957
 51
270.0000428043
  0
LINE
  5
258
100
AcDbEntity
  8
0
100
AcDbLine
 62
2
  6
CONTINUOUS
 10
13.3969577338
 20
2.4937023146
 11
13.3969577338
 21
2.5135023256
  0
ARC
  5
259
100
AcDbEntity
  8
0
100
AcDbCircle
 62
2
  6
CONTINUOUS
 10
13.3994327333
 20
2.5135023274
 40
0.0024749995
100
AcDbArc
 50
89.9999571957
 51
180.0000428043
  0
LINE
  5
25A
100
AcDbEntity
  8
0
100
AcDbLine
 62
2
  6
CONTINUOUS
 10
13.3994327352
 20
2.515977327
 11
13.4221787478
 21
2.515977327
  0
ARC
  5
25B
100
AcDbEntity
  8
0
100
AcDbCircle
 62
2
  6
CONTINUOUS
 10
13.4221787497
 20
2.5184523265
 40
0.0024749995
100
AcDbArc
 50
269.9999571957
 51
0.0000428042
  0
LINE
  5
25C
100
AcDbEntity
  8
0
100
AcDbLine
 62
2
  6
CONTINUOUS
 10
13.4246537492
 20
2.5184523283
 11
13.4246537492
 21
2.564807354
  0
ARC
  5
25D
100
AcDbEntity
  8
0
100
AcDbCircle
 62
2
  6
CONTINUOUS
 10
13.4221787497
 20
2.5648073559
 40
0.0024749995
100
AcDbArc
 50
359.9999571957
 51
90.0000428043
  0
LINE
  5
25E
100
AcDbEntity
  8
0
100
AcDbLine
 62
2
  6
CONTINUOUS
 10
13.4221787478
 20
2.5672823554
 11
13.3994327352
 21
2.5672823554
  0
ARC
  5
25F
100
AcDbEntity
  8
0
100
AcDbCircle
 62
2
  6
CONTINUOUS
 10
13.3994327333
 20
2.5697573549
 40
0.0024749995
100
AcDbArc
 50
179.9999571957
 51
270.0000428043
  0
LINE
  5
260
100
AcDbEntity
  8
0
100
AcDbLine
 62
2
  6
CONTINUOUS
 10
13.3969577338
 20
2.5697573568
 11
13.3969577338
 21
2.5895573678
  0
ARC
  5
261
100
AcDbEntity
  8
0
100
AcDbCircle
 62
2
  6
CONTINUOUS
 10
13.3994327333
 20
2.5895573696
 40
0.0024749995
100
AcDbArc
 50
89.9999571957
 51
180.0000428043
  0
LINE
  5
262
100
AcDbEntity
  8
0
100
AcDbLine
 62
2
  6
CONTINUOUS
 10
13.3994327352
 20
2.5920323691
 11
13.5490138181
 21
2.5920323691
  0
ARC
  5
263
100
AcDbEntity
  8
0
100
AcDbCircle
 62
2
  6
CONTINUOUS
 10
13.5463505148
 20
2.4094934586
 40
0.1825583387
100
AcDbArc
 50
79.8618509324
 51
89.1640948679
  0
ARC
  5
264
100
AcDbEntity
  8
0
100
AcDbCircle
 62
2
  6
CONTINUOUS
 10
13.5726548052
 20
2.5503169747
 40
0.039319019
100
AcDbArc
 50
59.1202086415
 51
81.4730239328
  0
ARC
  5
265
100
AcDbEntity
  8
0
100
AcDbCircle
 62
2
  6
CONTINUOUS
 10
13.5783142014
 20
2.5566516438
 40
0.0310192946
100
AcDbArc
 50
34.7540871
 51
62.0879016178
  0
ARC
  5
266
100
AcDbEntity
  8
0
100
AcDbCircle
 62
2
  6
CONTINUOUS
 10
13.5900029525
 20
2.565201245
 40
0.0165459396
100
AcDbArc
 50
1.548452892
 51
33.5033152417
  0
ARC
  5
267
100
AcDbEntity
  8
0
100
AcDbCircle
 62
2
  6
CONTINUOUS
 10
13.5932995477
 20
2.5653696972
 40
0.0132462337
100
AcDbArc
 50
331.1510006998
 51
1.205404301
  0
ARC
  5
268
100
AcDbEntity
  8
0
100
AcDbCircle
 62
2
  6
CONTINUOUS
 10
13.5822888914
 20
2.5720482849
 40
0.0261183659
100
AcDbArc
 50
305.6373831893
 51
329.9727629745
  0
ARC
  5
269
100
AcDbEntity
  8
0
100
AcDbCircle
 62
2
  6
CONTINUOUS
 10
13.5519569538
 20
2.6152551345
 40
0.0789082104
100
AcDbArc
 50
292.906155071
 51
305.2574666259
  0
ARC
  5
26A
100
AcDbEntity
  8
0
100
AcDbCircle
 62
2
  6
CONTINUOUS
 10
13.5282557878
 20
2.4386010294
 40
0.117346916
100
AcDbArc
 50
58.614769177
 51
62.3737227606
  0
ARC
  5
26B
100
AcDbEntity
  8
0
100
AcDbCircle
 62
2
  6
CONTINUOUS
 10
13.5761387404
 20
2.5167282896
 40
0.0257145923
100
AcDbArc
 50
39.3804255939
 51
59.0361096173
  0
ARC
  5
26C
100
AcDbEntity
  8
0
100
AcDbCircle
 62
2
  6
CONTINUOUS
 10
13.5750183849
 20
2.5166552064
 40
0.0266349791
100
AcDbArc
 50
20.3630922153
 51
37.9727053099
  0
ARC
  5
26D
100
AcDbEntity
  8
0
100
AcDbCircle
 62
2
  6
CONTINUOUS
 10
13.5571178432
 20
2.509473798
 40
0.0459185159
100
AcDbArc
 50
15.6740290068
 51
20.9917271228
  0
ARC
  5
26E
100
AcDbEntity
  8
0
100
AcDbCircle
 62
2
  6
CONTINUOUS
 10
13.6156881783
 20
2.525116781
 40
0.0147197649
100
AcDbArc
 50
192.7054516565
 51
206.0594861022
  0
ARC
  5
26F
100
AcDbEntity
  8
0
100
AcDbCircle
 62
2
  6
CONTINUOUS
 10
13.6071938412
 20
2.5209082945
 40
0.0052403997
100
AcDbArc
 50
205.5232099488
 51
227.5054868079
  0
ARC
  5
270
100
AcDbEntity
  8
0
100
AcDbCircle
 62
2
  6
CONTINUOUS
 10
13.6054655419
 20
2.5190929218
 40
0.0027347709
100
AcDbArc
 50
228.5117626737
 51
266.1485845754
  0
LINE
  5
271
100
AcDbEntity
  8
0
100
AcDbLine
 62
2
  6
CONTINUOUS
 10
13.6052818493
 20
2.5163643272
 11
13.60639085
 21
2.5163643272
  0
ARC
  5
272
100
AcDbEntity
  8
0
100
AcDbCircle
 62
2
  6
CONTINUOUS
 10
13.6063292954
 20
2.5296129864
 40
0.0132488022
100
AcDbArc
 50
270.266200055
 51
281.2404888597
  0
ARC
  5
273
100
AcDbEntity
  8
0
100
AcDbCircle
 62
2
  6
CONTINUOUS
 10
13.6075235364
 20
2.5238762928
 40
0.0073895522
100
AcDbArc
 50
280.8288201977
 51
305.0837508495
  0
ARC
  5
274
100
AcDbEntity
  8
0
100
AcDbCircle
 62
2
  6
CONTINUOUS
 10
13.607924718
 20
2.5230254464
 40
0.0064647042
100
AcDbArc
 50
306.5086174083
 51
340.2162360092
  0
ARC
  5
275
100
AcDbEntity
  8
0
100
AcDbCircle
 62
2
  6
CONTINUOUS
 10
13.6027235414
 20
2.524769508
 40
0.0119498009
100
AcDbArc
 50
340.7883861657
 51
1.1691452593
  0
LINE
  5
276
100
AcDbEntity
  8
0
100
AcDbLine
 62
2
  6
CONTINUOUS
 10
13.6146708546
 20
2.525013332
 11
13.6146708546
 21
2.5276393334
  0
ARC
  5
277
100
AcDbEntity
  8
0
100
AcDbCircle
 62
2
  6
CONTINUOUS
 10
13.6171458541
 20
2.5276393353
 40
0.0024749995
100
AcDbArc
 50
89.9999571957
 51
180.0000428043
  0
LINE
  5
278
100
AcDbEntity
  8
0
100
AcDbLine
 62
2
  6
CONTINUOUS
 10
13.6171458559
 20
2.5301143348
 11
13.6292558626
 21
2.5301143348
  0
ARC
  5
279
100
AcDbEntity
  8
0
100
AcDbCircle
 62
2
  6
CONTINUOUS
 10
13.6292558645
 20
2.5276393353
 40
0.0024749995
100
AcDbArc
 50
359.9999571957
 51
90.0000428043
  0
LINE
  5
27A
100
AcDbEntity
  8
0
100
AcDbLine
 62
2
  6
CONTINUOUS
 10
13.631730864
 20
2.5276393334
 11
13.631730864
 21
2.516087327
  0
ARC
  5
27B
100
AcDbEntity
  8
0
100
AcDbCircle
 62
2
  6
CONTINUOUS
 10
13.6141751675
 20
2.5161916447
 40
0.0175560065
100
AcDbArc
 50
332.2279060967
 51
359.6595469939
  0
ARC
  5
27C
100
AcDbEntity
  8
0
100
AcDbCircle
 62
2
  6
CONTINUOUS
 10
13.6048681567
 20
2.5210861501
 40
0.0280715479
100
AcDbArc
 50
308.5071794988
 51
332.2400656899
  0
ARC
  5
27D
100
AcDbEntity
  8
0
100
AcDbCircle
 62
2
  6
CONTINUOUS
 10
13.5978759713
 20
2.5286873679
 40
0.0383802683
100
AcDbArc
 50
288.7656836787
 51
309.6104317088
  0
ARC
  5
27E
100
AcDbEntity
  8
0
100
AcDbCircle
 62
2
  6
CONTINUOUS
 10
13.6036139387
 20
2.5111006186
 40
0.0198837666
100
AcDbArc
 50
271.8586572978
 51
289.4131338543
  0
LINE
  5
27F
100
AcDbEntity
  8
0
100
AcDbLine
 62
2
  6
CONTINUOUS
 10
13.6042588488
 20
2.4912273132
 11
13.5568948225
 21
2.4912273132
  0
ARC
  5
280
100
AcDbEntity
  8
0
100
AcDbCircle
 62
2
  6
CONTINUOUS
 10
13.5577001432
 20
2.5085494649
 40
0.0173408616
100
AcDbArc
 50
232.4713476722
 51
267.338189944
  0
ARC
  5
281
100
AcDbEntity
  8
0
100
AcDbCircle
 62
2
  6
CONTINUOUS
 10
13.5607987082
 20
2.5143997688
 40
0.0238935861
100
AcDbArc
 50
209.8247607259
 51
235.1255079367
  0
ARC
  5
282
100
AcDbEntity
  8
0
100
AcDbCircle
 62
2
  6
CONTINUOUS
 10
13.5295131508
 20
2.5629115009
 40
0.0110815393
100
AcDbArc
 50
306.758405961
 51
320.4502234234
  0
ARC
  5
283
100
AcDbEntity
  8
0
100
AcDbCircle
 62
2
  6
CONTINUOUS
 10
13.5238839599
 20
2.5706523294
 40
0.0206523367
100
AcDbArc
 50
289.6883413472
 51
306.4184925496
  0
ARC
  5
284
100
AcDbEntity
  8
0
100
AcDbCircle
 62
2
  6
CONTINUOUS
 10
13.5219564542
 20
2.5750459767
 40
0.0254407115
100
AcDbArc
 50
270.7327484175
 51
290.441894219
  0
LINE
  5
285
100
AcDbEntity
  8
0
100
AcDbLine
 62
2
  6
CONTINUOUS
 10
13.5222818033
 20
2.5496073456
 11
13.4883447845
 21
2.5496073456
  0
ARC
  5
286
100
AcDbEntity
  8
0
100
AcDbCircle
 62
2
  6
CONTINUOUS
 10
13.4883447827
 20
2.5520823451
 40
0.0024749995
100
AcDbArc
 50
179.9999571957
 51
270.0000428043
  0
LINE
  5
287
100
AcDbEntity
  8
0
100
AcDbLine
 62
2
  6
CONTINUOUS
 10
13.4858697831
 20
2.552082347
 11
13.4858697831
 21
2.564807354
  0
ARC
  5
288
100
AcDbEntity
  8
0
100
AcDbCircle
 62
2
  6
CONTINUOUS
 10
13.4883447827
 20
2.5648073559
 40
0.0024749995
100
AcDbArc
 50
89.9999571957
 51
180.0000428043
  0
LINE
  5
289
100
AcDbEntity
  8
0
100
AcDbLine
 62
2
  6
CONTINUOUS
 10
13.4883447845
 20
2.5672823554
 11
13.5251458049
 21
2.5672823554
  0
ARC
  5
28A
100
AcDbEntity
  8
0
100
AcDbCircle
 62
2
  6
CONTINUOUS
 10
13.5236009174
 20
2.5388278764
 40
0.0284963867
100
AcDbArc
 50
70.3834917948
 51
86.8922743861
  0
ARC
  5
28B
100
AcDbEntity
  8
0
100
AcDbCircle
 62
2
  6
CONTINUOUS
 10
13.5284605274
 20
2.5518696094
 40
0.0145814632
100
AcDbArc
 50
54.6746025112
 51
71.1660573124
  0
ARC
  5
28C
100
AcDbEntity
  8
0
100
AcDbCircle
 62
2
  6
CONTINUOUS
 10
13.5335900184
 20
2.5587235346
 40
0.0060275915
100
AcDbArc
 50
20.9055592135
 51
56.7851676243
  0
ARC
  5
28D
100
AcDbEntity
  8
0
100
AcDbCircle
 62
2
  6
CONTINUOUS
 10
13.5348905773
 20
2.5593838168
 40
0.0045795888
100
AcDbArc
 50
355.6235353944
 51
18.9942678268
  0
ARC
  5
28E
100
AcDbEntity
  8
0
100
AcDbCircle
 62
2
  6
CONTINUOUS
 10
13.533683767
 20
2.559677593
 40
0.0058087709
100
AcDbArc
 50
318.8515287446
 51
353.6422345323
  0
LINE
  5
28F
100
AcDbEntity
  8
0
100
AcDbLine
 62
2
  6
CONTINUOUS
 10
12.672340332
 20
2.5920323691
 11
12.7727983877
 21
2.5920323691
  0
ARC
  5
290
100
AcDbEntity
  8
0
100
AcDbCircle
 62
2
  6
CONTINUOUS
 10
12.7727985224
 20
2.5895582013
 40
0.0024741678
100
AcDbArc
 50
46.3477981899
 51
90.0031206038
  0
LINE
  5
291
100
AcDbEntity
  8
0
100
AcDbLine
 62
2
  6
CONTINUOUS
 10
12.7745063886
 20
2.5913483688
 11
12.8345394219
 21
2.534068337
  0
ARC
  5
292
100
AcDbEntity
  8
0
100
AcDbCircle
 62
2
  6
CONTINUOUS
 10
12.8362481229
 20
2.5358592748
 40
0.0024753014
100
AcDbArc
 50
226.3461263059
 51
0.0014637321
  0
LINE
  5
293
100
AcDbEntity
  8
0
100
AcDbLine
 62
2
  6
CONTINUOUS
 10
12.8387234242
 20
2.535859338
 11
12.8387234242
 21
2.564807354
  0
ARC
  5
294
100
AcDbEntity
  8
0
100
AcDbCircle
 62
2
  6
CONTINUOUS
 10
12.8362484247
 20
2.5648073559
 40
0.0024749995
100
AcDbArc
 50
359.9999571957
 51
90.0000428043
  0
LINE
  5
295
100
AcDbEntity
  8
0
100
AcDbLine
 62
2
  6
CONTINUOUS
 10
12.8362484229
 20
2.5672823554
 11
12.8174724125
 21
2.5672823554
  0
ARC
  5
296
100
AcDbEntity
  8
0
100
AcDbCircle
 62
2
  6
CONTINUOUS
 10
12.8174724106
 20
2.5697573549
 40
0.0024749995
100
AcDbArc
 50
179.9999571957
 51
270.0000428043
  0
LINE
  5
297
100
AcDbEntity
  8
0
100
AcDbLine
 62
2
  6
CONTINUOUS
 10
12.8149974111
 20
2.5697573568
 11
12.8149974111
 21
2.5895573678
  0
ARC
  5
298
100
AcDbEntity
  8
0
100
AcDbCircle
 62
2
  6
CONTINUOUS
 10
12.8174724106
 20
2.5895573696
 40
0.0024749995
100
AcDbArc
 50
89.9999571957
 51
180.0000428043
  0
LINE
  5
299
100
AcDbEntity
  8
0
100
AcDbLine
 62
2
  6
CONTINUOUS
 10
12.8174724125
 20
2.5920323691
 11
12.8914734535
 21
2.5920323691
  0
ARC
  5
29A
100
AcDbEntity
  8
0
100
AcDbCircle
 62
2
  6
CONTINUOUS
 10
12.8914734553
 20
2.5895573696
 40
0.0024749995
100
AcDbArc
 50
359.9999571957
 51
90.0000428043
  0
LINE
  5
29B
100
AcDbEntity
  8
0
100
AcDbLine
 62
2
  6
CONTINUOUS
 10
12.8939484549
 20
2.5895573678
 11
12.8939484549
 21
2.5697573568
  0
ARC
  5
29C
100
AcDbEntity
  8
0
100
AcDbCircle
 62
2
  6
CONTINUOUS
 10
12.8914734553
 20
2.5697573549
 40
0.0024749995
100
AcDbArc
 50
269.9999571957
 51
0.0000428043
  0
LINE
  5
29D
100
AcDbEntity
  8
0
100
AcDbLine
 62
2
  6
CONTINUOUS
 10
12.8914734535
 20
2.5672823554
 11
12.8735404436
 21
2.5672823554
  0
ARC
  5
29E
100
AcDbEntity
  8
0
100
AcDbCircle
 62
2
  6
CONTINUOUS
 10
12.8735404417
 20
2.5648073559
 40
0.0024749995
100
AcDbArc
 50
89.9999571957
 51
180.0000428043
  0
LINE
  5
29F
100
AcDbEntity
  8
0
100
AcDbLine
 62
2
  6
CONTINUOUS
 10
12.8710654422
 20
2.564807354
 11
12.8710654422
 21
2.4937023146
  0
ARC
  5
2A0
100
AcDbEntity
  8
0
100
AcDbCircle
 62
2
  6
CONTINUOUS
 10
12.8685904427
 20
2.4937023128
 40
0.0024749995
100
AcDbArc
 50
269.9999571957
 51
0.0000428043
  0
LINE
  5
2A1
100
AcDbEntity
  8
0
100
AcDbLine
 62
2
  6
CONTINUOUS
 10
12.8685904408
 20
2.4912273132
 11
12.7943853997
 21
2.4912273132
  0
ARC
  5
2A2
100
AcDbEntity
  8
0
100
AcDbCircle
 62
2
  6
CONTINUOUS
 10
12.7943847649
 20
2.4937027294
 40
0.0024754162
100
AcDbArc
 50
226.3593695813
 51
270.0146919953
  0
LINE
  5
2A3
100
AcDbEntity
  8
0
100
AcDbLine
 62
2
  6
CONTINUOUS
 10
12.7926763987
 20
2.4919113136
 11
12.7293963636
 21
2.5522893471
  0
ARC
  5
2A4
100
AcDbEntity
  8
0
100
AcDbCircle
 62
2
  6
CONTINUOUS
 10
12.7276876627
 20
2.5504984093
 40
0.0024753014
100
AcDbArc
 50
46.3461263059
 51
180.0014637321
  0
LINE
  5
2A5
100
AcDbEntity
  8
0
100
AcDbLine
 62
2
  6
CONTINUOUS
 10
12.7252123613
 20
2.5504983461
 11
12.7252123613
 21
2.5184523283
  0
ARC
  5
2A6
100
AcDbEntity
  8
0
100
AcDbCircle
 62
2
  6
CONTINUOUS
 10
12.7276873608
 20
2.5184523265
 40
0.0024749995
100
AcDbArc
 50
179.9999571957
 51
270.0000428043
  0
LINE
  5
2A7
100
AcDbEntity
  8
0
100
AcDbLine
 62
2
  6
CONTINUOUS
 10
12.7276873627
 20
2.515977327
 11
12.7480043739
 21
2.515977327
  0
ARC
  5
2A8
100
AcDbEntity
  8
0
100
AcDbCircle
 62
2
  6
CONTINUOUS
 10
12.7480043758
 20
2.5135023274
 40
0.0024749995
100
AcDbArc
 50
359.9999571957
 51
90.0000428043
  0
LINE
  5
2A9
100
AcDbEntity
  8
0
100
AcDbLine
 62
2
  6
CONTINUOUS
 10
12.7504793753
 20
2.5135023256
 11
12.7504793753
 21
2.4937023146
  0
ARC
  5
2AA
100
AcDbEntity
  8
0
100
AcDbCircle
 62
2
  6
CONTINUOUS
 10
12.7480043758
 20
2.4937023128
 40
0.0024749995
100
AcDbArc
 50
269.9999571957
 51
0.0000428043
  0
LINE
  5
2AB
100
AcDbEntity
  8
0
100
AcDbLine
 62
2
  6
CONTINUOUS
 10
12.7480043739
 20
2.4912273132
 11
12.672340332
 21
2.4912273132
  0
ARC
  5
2AC
100
AcDbEntity
  8
0
100
AcDbCircle
 62
2
  6
CONTINUOUS
 10
12.6723403301
 20
2.4937023128
 40
0.0024749995
100
AcDbArc
 50
179.9999571957
 51
270.0000428043
  0
LINE
  5
2AD
100
AcDbEntity
  8
0
100
AcDbLine
 62
2
  6
CONTINUOUS
 10
12.6698653306
 20
2.4937023146
 11
12.6698653306
 21
2.5135023256
  0
ARC
  5
2AE
100
AcDbEntity
  8
0
100
AcDbCircle
 62
2
  6
CONTINUOUS
 10
12.6723403301
 20
2.5135023274
 40
0.0024749995
100
AcDbArc
 50
89.9999571957
 51
180.0000428043
  0
LINE
  5
2AF
100
AcDbEntity
  8
0
100
AcDbLine
 62
2
  6
CONTINUOUS
 10
12.672340332
 20
2.515977327
 11
12.6909873423
 21
2.515977327
  0
ARC
  5
2B0
100
AcDbEntity
  8
0
100
AcDbCircle
 62
2
  6
CONTINUOUS
 10
12.6909873442
 20
2.5184523265
 40
0.0024749995
100
AcDbArc
 50
269.9999571957
 51
0.0000428043
  0
LINE
  5
2B1
100
AcDbEntity
  8
0
100
AcDbLine
 62
2
  6
CONTINUOUS
 10
12.6934623437
 20
2.5184523283
 11
12.6934623437
 21
2.564807354
  0
ARC
  5
2B2
100
AcDbEntity
  8
0
100
AcDbCircle
 62
2
  6
CONTINUOUS
 10
12.6909873442
 20
2.5648073559
 40
0.0024749995
100
AcDbArc
 50
359.9999571957
 51
90.0000428043
  0
LINE
  5
2B3
100
AcDbEntity
  8
0
100
AcDbLine
 62
2
  6
CONTINUOUS
 10
12.6909873423
 20
2.5672823554
 11
12.672340332
 21
2.5672823554
  0
ARC
  5
2B4
100
AcDbEntity
  8
0
100
AcDbCircle
 62
2
  6
CONTINUOUS
 10
12.6723403301
 20
2.5697573549
 40
0.0024749995
100
AcDbArc
 50
179.9999571957
 51
270.0000428043
  0
LINE
  5
2B5
100
AcDbEntity
  8
0
100
AcDbLine
 62
2
  6
CONTINUOUS
 10
12.6698653306
 20
2.5697573568
 11
12.6698653306
 21
2.5895573678
  0
ARC
  5
2B6
100
AcDbEntity
  8
0
100
AcDbCircle
 62
2
  6
CONTINUOUS
 10
12.6723403301
 20
2.5895573696
 40
0.0024749995
100
AcDbArc
 50
89.9999571957
 51
180.0000428043
  0
LINE
  5
2B7
100
AcDbEntity
  8
0
100
AcDbLine
 62
2
  6
CONTINUOUS
 10
12.5246402501
 20
2.5655893545
 11
12.5175232461
 21
2.5543723483
  0
ARC
  5
2B8
100
AcDbEntity
  8
0
100
AcDbCircle
 62
2
  6
CONTINUOUS
 10
12.519613138
 20
2.5530463862
 40
0.0024750401
100
AcDbArc
 50
147.6063258012
 51
270.0025305754
  0
LINE
  5
2B9
100
AcDbEntity
  8
0
100
AcDbLine
 62
2
  6
CONTINUOUS
 10
12.5196132473
 20
2.5505713461
 11
12.5401702587
 21
2.5505713461
  0
ARC
  5
2BA
100
AcDbEntity
  8
0
100
AcDbCircle
 62
2
  6
CONTINUOUS
 10
12.5401702375
 20
2.5530465533
 40
0.0024752071
100
AcDbArc
 50
270.0004896793
 51
32.9089806818
  0
LINE
  5
2BB
100
AcDbEntity
  8
0
100
AcDbLine
 62
2
  6
CONTINUOUS
 10
12.5422482598
 20
2.5543913483
 11
12.5349892558
 21
2.5656073545
  0
ARC
  5
2BC
100
AcDbEntity
  8
0
100
AcDbCircle
 62
2
  6
CONTINUOUS
 10
12.532910715
 20
2.564262895
 40
0.0024754602
100
AcDbArc
 50
32.8959418573
 51
89.9875097202
  0
LINE
  5
2BD
100
AcDbEntity
  8
0
100
AcDbLine
 62
2
  6
CONTINUOUS
 10
12.5329112547
 20
2.5667383551
 11
12.5267302512
 21
2.5667383551
  0
ARC
  5
2BE
100
AcDbEntity
  8
0
100
AcDbCircle
 62
2
  6
CONTINUOUS
 10
12.5267301809
 20
2.5642631548
 40
0.0024752003
100
AcDbArc
 50
89.998372645
 51
147.602165307
  0
LINE
  5
2BF
100
AcDbEntity
  8
0
100
AcDbLine
 62
2
  6
CONTINUOUS
 10
12.548053263
 20
2.5284903339
 11
12.5536792662
 21
2.5197973291
  0
ARC
  5
2C0
100
AcDbEntity
  8
0
100
AcDbCircle
 62
2
  6
CONTINUOUS
 10
12.5516012439
 20
2.5184525341
 40
0.0024752071
100
AcDbArc
 50
270.0004896794
 51
32.9089806818
  0
LINE
  5
2C1
100
AcDbEntity
  8
0
100
AcDbLine
 62
2
  6
CONTINUOUS
 10
12.551601265
 20
2.515977327
 11
12.537150257
 21
2.515977327
  0
ARC
  5
2C2
100
AcDbEntity
  8
0
100
AcDbCircle
 62
2
  6
CONTINUOUS
 10
12.5371502552
 20
2.5135023274
 40
0.0024749995
100
AcDbArc
 50
89.9999571957
 51
180.0000428043
  0
LINE
  5
2C3
100
AcDbEntity
  8
0
100
AcDbLine
 62
2
  6
CONTINUOUS
 10
12.5346752556
 20
2.5135023256
 11
12.5346752556
 21
2.4937023146
  0
ARC
  5
2C4
100
AcDbEntity
  8
0
100
AcDbCircle
 62
2
  6
CONTINUOUS
 10
12.5371502552
 20
2.4937023128
 40
0.0024749995
100
AcDbArc
 50
179.9999571957
 51
270.0000428043
  0
LINE
  5
2C5
100
AcDbEntity
  8
0
100
AcDbLine
 62
2
  6
CONTINUOUS
 10
12.537150257
 20
2.4912273132
 11
12.6424313154
 21
2.4912273132
  0
ARC
  5
2C6
100
AcDbEntity
  8
0
100
AcDbCircle
 62
2
  6
CONTINUOUS
 10
12.6424313172
 20
2.4937023128
 40
0.0024749995
100
AcDbArc
 50
269.9999571957
 51
0.0000428043
  0
LINE
  5
2C7
100
AcDbEntity
  8
0
100
AcDbLine
 62
2
  6
CONTINUOUS
 10
12.6449063168
 20
2.4937023146
 11
12.6449063168
 21
2.5135023256
  0
ARC
  5
2C8
100
AcDbEntity
  8
0
100
AcDbCircle
 62
2
  6
CONTINUOUS
 10
12.6424313172
 20
2.5135023274
 40
0.0024749995
100
AcDbArc
 50
359.9999571957
 51
90.0000428043
  0
LINE
  5
2C9
100
AcDbEntity
  8
0
100
AcDbLine
 62
2
  6
CONTINUOUS
 10
12.6424313154
 20
2.515977327
 11
12.6224153043
 21
2.515977327
  0
ARC
  5
2CA
100
AcDbEntity
  8
0
100
AcDbCircle
 62
2
  6
CONTINUOUS
 10
12.6224154248
 20
2.518451368
 40
0.002474041
100
AcDbArc
 50
212.9056413127
 51
269.9972091756
  0
LINE
  5
2CB
100
AcDbEntity
  8
0
100
AcDbLine
 62
2
  6
CONTINUOUS
 10
12.6203383031
 20
2.5171073276
 11
12.5725822767
 21
2.5909023685
  0
ARC
  5
2CC
100
AcDbEntity
  8
0
100
AcDbCircle
 62
2
  6
CONTINUOUS
 10
12.570504655
 20
2.589557409
 40
0.0024749602
100
AcDbArc
 50
32.9172174468
 51
90.0087853097
  0
LINE
  5
2CD
100
AcDbEntity
  8
0
100
AcDbLine
 62
2
  6
CONTINUOUS
 10
12.5705042755
 20
2.5920323691
 11
12.5133292438
 21
2.5920323691
  0
ARC
  5
2CE
100
AcDbEntity
  8
0
100
AcDbCircle
 62
2
  6
CONTINUOUS
 10
12.5133291735
 20
2.5895571688
 40
0.0024752003
100
AcDbArc
 50
89.9983726451
 51
147.602165307
  0
LINE
  5
2CF
100
AcDbEntity
  8
0
100
AcDbLine
 62
2
  6
CONTINUOUS
 10
12.5112392426
 20
2.5908833685
 11
12.4644392167
 21
2.5171263276
  0
ARC
  5
2D0
100
AcDbEntity
  8
0
100
AcDbCircle
 62
2
  6
CONTINUOUS
 10
12.4623492858
 20
2.5184525273
 40
0.0024752003
100
AcDbArc
 50
269.9983726451
 51
327.602165307
  0
LINE
  5
2D1
100
AcDbEntity
  8
0
100
AcDbLine
 62
2
  6
CONTINUOUS
 10
12.4623492155
 20
2.515977327
 11
12.4394882028
 21
2.515977327
  0
ARC
  5
2D2
100
AcDbEntity
  8
0
100
AcDbCircle
 62
2
  6
CONTINUOUS
 10
12.439488201
 20
2.5135023274
 40
0.0024749995
100
AcDbArc
 50
89.9999571957
 51
180.0000428043
  0
LINE
  5
2D3
100
AcDbEntity
  8
0
100
AcDbLine
 62
2
  6
CONTINUOUS
 10
12.4370132015
 20
2.5135023256
 11
12.4370132015
 21
2.4937023146
  0
ARC
  5
2D4
100
AcDbEntity
  8
0
100
AcDbCircle
 62
2
  6
CONTINUOUS
 10
12.439488201
 20
2.4937023128
 40
0.0024749995
100
AcDbArc
 50
179.9999571957
 51
270.0000428043
  0
LINE
  5
2D5
100
AcDbEntity
  8
0
100
AcDbLine
 62
2
  6
CONTINUOUS
 10
12.4394882028
 20
2.4912273132
 11
12.5168642458
 21
2.4912273132
  0
ARC
  5
2D6
100
AcDbEntity
  8
0
100
AcDbCircle
 62
2
  6
CONTINUOUS
 10
12.5168642476
 20
2.4937023128
 40
0.0024749995
100
AcDbArc
 50
269.9999571957
 51
0.0000428043
  0
LINE
  5
2D7
100
AcDbEntity
  8
0
100
AcDbLine
 62
2
  6
CONTINUOUS
 10
12.5193392471
 20
2.4937023146
 11
12.5193392471
 21
2.5135023256
  0
ARC
  5
2D8
100
AcDbEntity
  8
0
100
AcDbCircle
 62
2
  6
CONTINUOUS
 10
12.5168642476
 20
2.5135023274
 40
0.0024749995
100
AcDbArc
 50
359.9999571957
 51
90.0000428043
  0
LINE
  5
2D9
100
AcDbEntity
  8
0
100
AcDbLine
 62
2
  6
CONTINUOUS
 10
12.5168642458
 20
2.515977327
 11
12.5055812395
 21
2.515977327
  0
ARC
  5
2DA
100
AcDbEntity
  8
0
100
AcDbCircle
 62
2
  6
CONTINUOUS
 10
12.5055811302
 20
2.518452367
 40
0.0024750401
100
AcDbArc
 50
147.6063258011
 51
270.0025305754
  0
LINE
  5
2DB
100
AcDbEntity
  8
0
100
AcDbLine
 62
2
  6
CONTINUOUS
 10
12.5034912383
 20
2.5197783291
 11
12.5090072414
 21
2.5284723339
  0
ARC
  5
2DC
100
AcDbEntity
  8
0
100
AcDbCircle
 62
2
  6
CONTINUOUS
 10
12.5110971723
 20
2.5271461342
 40
0.0024752003
100
AcDbArc
 50
89.998372645
 51
147.602165307
  0
LINE
  5
2DD
100
AcDbEntity
  8
0
100
AcDbLine
 62
2
  6
CONTINUOUS
 10
12.5110972426
 20
2.5296213345
 11
12.5459752619
 21
2.5296213345
  0
ARC
  5
2DE
100
AcDbEntity
  8
0
100
AcDbCircle
 62
2
  6
CONTINUOUS
 10
12.5459747223
 20
2.5271458744
 40
0.0024754602
100
AcDbArc
 50
32.8959418573
 51
89.9875097202
  0
LINE
  5
2DF
100
AcDbEntity
  8
0
100
AcDbLine
 62
2
  6
CONTINUOUS
 10
12.9205934696
 20
2.5920323691
 11
13.0210515254
 21
2.5920323691
  0
ARC
  5
2E0
100
AcDbEntity
  8
0
100
AcDbCircle
 62
2
  6
CONTINUOUS
 10
13.0210516601
 20
2.5895582013
 40
0.0024741678
100
AcDbArc
 50
46.3477981899
 51
90.0031206038
  0
LINE
  5
2E1
100
AcDbEntity
  8
0
100
AcDbLine
 62
2
  6
CONTINUOUS
 10
13.0227595263
 20
2.5913483688
 11
13.0827925596
 21
2.534068337
  0
ARC
  5
2E2
100
AcDbEntity
  8
0
100
AcDbCircle
 62
2
  6
CONTINUOUS
 10
13.0845012605
 20
2.5358592748
 40
0.0024753014
100
AcDbArc
 50
226.3461263059
 51
0.0014637321
  0
LINE
  5
2E3
100
AcDbEntity
  8
0
100
AcDbLine
 62
2
  6
CONTINUOUS
 10
13.0869765619
 20
2.535859338
 11
13.0869765619
 21
2.564807354
  0
ARC
  5
2E4
100
AcDbEntity
  8
0
100
AcDbCircle
 62
2
  6
CONTINUOUS
 10
13.0845015624
 20
2.5648073559
 40
0.0024749995
100
AcDbArc
 50
359.9999571957
 51
90.0000428043
  0
LINE
  5
2E5
100
AcDbEntity
  8
0
100
AcDbLine
 62
2
  6
CONTINUOUS
 10
13.0845015605
 20
2.5672823554
 11
13.0657255501
 21
2.5672823554
  0
ARC
  5
2E6
100
AcDbEntity
  8
0
100
AcDbCircle
 62
2
  6
CONTINUOUS
 10
13.0657255483
 20
2.5697573549
 40
0.0024749995
100
AcDbArc
 50
179.9999571957
 51
270.0000428043
  0
LINE
  5
2E7
100
AcDbEntity
  8
0
100
AcDbLine
 62
2
  6
CONTINUOUS
 10
13.0632505488
 20
2.5697573568
 11
13.0632505488
 21
2.5895573678
  0
ARC
  5
2E8
100
AcDbEntity
  8
0
100
AcDbCircle
 62
2
  6
CONTINUOUS
 10
13.0657255483
 20
2.5895573696
 40
0.0024749995
100
AcDbArc
 50
89.9999571957
 51
180.0000428043
  0
LINE
  5
2E9
100
AcDbEntity
  8
0
100
AcDbLine
 62
2
  6
CONTINUOUS
 10
13.0657255501
 20
2.5920323691
 11
13.1397265912
 21
2.5920323691
  0
ARC
  5
2EA
100
AcDbEntity
  8
0
100
AcDbCircle
 62
2
  6
CONTINUOUS
 10
13.139726593
 20
2.5895573696
 40
0.0024749995
100
AcDbArc
 50
359.9999571957
 51
90.0000428043
  0
LINE
  5
2EB
100
AcDbEntity
  8
0
100
AcDbLine
 62
2
  6
CONTINUOUS
 10
13.1422015925
 20
2.5895573678
 11
13.1422015925
 21
2.5697573568
  0
ARC
  5
2EC
100
AcDbEntity
  8
0
100
AcDbCircle
 62
2
  6
CONTINUOUS
 10
13.139726593
 20
2.5697573549
 40
0.0024749995
100
AcDbArc
 50
269.9999571957
 51
0.0000428042
  0
LINE
  5
2ED
100
AcDbEntity
  8
0
100
AcDbLine
 62
2
  6
CONTINUOUS
 10
13.1397265912
 20
2.5672823554
 11
13.1217935812
 21
2.5672823554
  0
ARC
  5
2EE
100
AcDbEntity
  8
0
100
AcDbCircle
 62
2
  6
CONTINUOUS
 10
13.1217935794
 20
2.5648073559
 40
0.0024749995
100
AcDbArc
 50
89.9999571957
 51
180.0000428042
  0
LINE
  5
2EF
100
AcDbEntity
  8
0
100
AcDbLine
 62
2
  6
CONTINUOUS
 10
13.1193185799
 20
2.564807354
 11
13.1193185799
 21
2.4937023146
  0
ARC
  5
2F0
100
AcDbEntity
  8
0
100
AcDbCircle
 62
2
  6
CONTINUOUS
 10
13.1168435803
 20
2.4937023128
 40
0.0024749995
100
AcDbArc
 50
269.9999571957
 51
0.0000428043
  0
LINE
  5
2F1
100
AcDbEntity
  8
0
100
AcDbLine
 62
2
  6
CONTINUOUS
 10
13.1168435785
 20
2.4912273132
 11
13.0426375373
 21
2.4912273132
  0
ARC
  5
2F2
100
AcDbEntity
  8
0
100
AcDbCircle
 62
2
  6
CONTINUOUS
 10
13.0426374026
 20
2.493701481
 40
0.0024741678
100
AcDbArc
 50
226.3477981898
 51
270.0031206038
  0
LINE
  5
2F3
100
AcDbEntity
  8
0
100
AcDbLine
 62
2
  6
CONTINUOUS
 10
13.0409295364
 20
2.4919113136
 11
12.9776495013
 21
2.5522893471
  0
ARC
  5
2F4
100
AcDbEntity
  8
0
100
AcDbCircle
 62
2
  6
CONTINUOUS
 10
12.9759408003
 20
2.5504984093
 40
0.0024753014
100
AcDbArc
 50
46.3461263059
 51
180.0014637321
  0
LINE
  5
2F5
100
AcDbEntity
  8
0
100
AcDbLine
 62
2
  6
CONTINUOUS
 10
12.973465499
 20
2.5504983461
 11
12.973465499
 21
2.5184523283
  0
ARC
  5
2F6
100
AcDbEntity
  8
0
100
AcDbCircle
 62
2
  6
CONTINUOUS
 10
12.9759404985
 20
2.5184523265
 40
0.0024749995
100
AcDbArc
 50
179.9999571957
 51
270.0000428043
  0
LINE
  5
2F7
100
AcDbEntity
  8
0
100
AcDbLine
 62
2
  6
CONTINUOUS
 10
12.9759405003
 20
2.515977327
 11
12.9962575116
 21
2.515977327
  0
ARC
  5
2F8
100
AcDbEntity
  8
0
100
AcDbCircle
 62
2
  6
CONTINUOUS
 10
12.9962575135
 20
2.5135023274
 40
0.0024749995
100
AcDbArc
 50
359.9999571957
 51
90.0000428043
  0
LINE
  5
2F9
100
AcDbEntity
  8
0
100
AcDbLine
 62
2
  6
CONTINUOUS
 10
12.998732513
 20
2.5135023256
 11
12.998732513
 21
2.4937023146
  0
ARC
  5
2FA
100
AcDbEntity
  8
0
100
AcDbCircle
 62
2
  6
CONTINUOUS
 10
12.9962575135
 20
2.4937023128
 40
0.0024749995
100
AcDbArc
 50
269.9999571957
 51
0.0000428043
  0
LINE
  5
2FB
100
AcDbEntity
  8
0
100
AcDbLine
 62
2
  6
CONTINUOUS
 10
12.9962575116
 20
2.4912273132
 11
12.9205934696
 21
2.4912273132
  0
ARC
  5
2FC
100
AcDbEntity
  8
0
100
AcDbCircle
 62
2
  6
CONTINUOUS
 10
12.9205934678
 20
2.4937023128
 40
0.0024749995
100
AcDbArc
 50
179.9999571957
 51
270.0000428043
  0
LINE
  5
2FD
100
AcDbEntity
  8
0
100
AcDbLine
 62
2
  6
CONTINUOUS
 10
12.9181184683
 20
2.4937023146
 11
12.9181184683
 21
2.5135023256
  0
ARC
  5
2FE
100
AcDbEntity
  8
0
100
AcDbCircle
 62
2
  6
CONTINUOUS
 10
12.9205934678
 20
2.5135023274
 40
0.0024749995
100
AcDbArc
 50
89.9999571957
 51
180.0000428042
  0
LINE
  5
2FF
100
AcDbEntity
  8
0
100
AcDbLine
 62
2
  6
CONTINUOUS
 10
12.9205934696
 20
2.515977327
 11
12.93923948
 21
2.515977327
  0
ARC
  5
300
100
AcDbEntity
  8
0
100
AcDbCircle
 62
2
  6
CONTINUOUS
 10
12.9392394818
 20
2.5184523265
 40
0.0024749995
100
AcDbArc
 50
269.9999571957
 51
0.0000428043
  0
LINE
  5
301
100
AcDbEntity
  8
0
100
AcDbLine
 62
2
  6
CONTINUOUS
 10
12.9417144814
 20
2.5184523283
 11
12.9417144814
 21
2.564807354
  0
ARC
  5
302
100
AcDbEntity
  8
0
100
AcDbCircle
 62
2
  6
CONTINUOUS
 10
12.9392394818
 20
2.5648073559
 40
0.0024749995
100
AcDbArc
 50
359.9999571957
 51
90.0000428043
  0
LINE
  5
303
100
AcDbEntity
  8
0
100
AcDbLine
 62
2
  6
CONTINUOUS
 10
12.93923948
 20
2.5672823554
 11
12.9205934696
 21
2.5672823554
  0
ARC
  5
304
100
AcDbEntity
  8
0
100
AcDbCircle
 62
2
  6
CONTINUOUS
 10
12.9205934678
 20
2.5697573549
 40
0.0024749995
100
AcDbArc
 50
179.9999571957
 51
270.0000428043
  0
LINE
  5
305
100
AcDbEntity
  8
0
100
AcDbLine
 62
2
  6
CONTINUOUS
 10
12.9181184683
 20
2.5697573568
 11
12.9181184683
 21
2.5895573678
  0
ARC
  5
306
100
AcDbEntity
  8
0
100
AcDbCircle
 62
2
  6
CONTINUOUS
 10
12.9205934678
 20
2.5895573696
 40
0.0024749995
100
AcDbArc
 50
89.9999571957
 51
180.0000428042
  0
LINE
  5
307
100
AcDbEntity
  8
0
100
AcDbLine
 62
2
  6
CONTINUOUS
 10
13.2934226764
 20
2.5324773361
 11
13.2582556569
 21
2.5324773361
  0
ARC
  5
308
100
AcDbEntity
  8
0
100
AcDbCircle
 62
2
  6
CONTINUOUS
 10
13.2582556551
 20
2.5300023366
 40
0.0024749995
100
AcDbArc
 50
89.9999571957
 51
180.0000428043
  0
LINE
  5
309
100
AcDbEntity
  8
0
100
AcDbLine
 62
2
  6
CONTINUOUS
 10
13.2557806555
 20
2.5300023347
 11
13.2557806555
 21
2.5184523283
  0
ARC
  5
30A
100
AcDbEntity
  8
0
100
AcDbCircle
 62
2
  6
CONTINUOUS
 10
13.2582556551
 20
2.5184523265
 40
0.0024749995
100
AcDbArc
 50
179.9999571957
 51
270.0000428043
  0
LINE
  5
30B
100
AcDbEntity
  8
0
100
AcDbLine
 62
2
  6
CONTINUOUS
 10
13.2582556569
 20
2.515977327
 11
13.3232596929
 21
2.515977327
  0
ARC
  5
30C
100
AcDbEntity
  8
0
100
AcDbCircle
 62
2
  6
CONTINUOUS
 10
13.3232596948
 20
2.5184523265
 40
0.0024749995
100
AcDbArc
 50
269.9999571957
 51
0.0000428043
  0
LINE
  5
30D
100
AcDbEntity
  8
0
100
AcDbLine
 62
2
  6
CONTINUOUS
 10
13.3257346943
 20
2.5184523283
 11
13.3257346943
 21
2.5267023329
  0
ARC
  5
30E
100
AcDbEntity
  8
0
100
AcDbCircle
 62
2
  6
CONTINUOUS
 10
13.3282096938
 20
2.5267023348
 40
0.0024749995
100
AcDbArc
 50
89.9999571957
 51
180.0000428043
  0
LINE
  5
30F
100
AcDbEntity
  8
0
100
AcDbLine
 62
2
  6
CONTINUOUS
 10
13.3282096957
 20
2.5291773343
 11
13.3705287192
 21
2.5291773343
  0
ARC
  5
310
100
AcDbEntity
  8
0
100
AcDbCircle
 62
2
  6
CONTINUOUS
 10
13.370528721
 20
2.5267023348
 40
0.0024749995
100
AcDbArc
 50
359.9999571957
 51
90.0000428043
  0
LINE
  5
311
100
AcDbEntity
  8
0
100
AcDbLine
 62
2
  6
CONTINUOUS
 10
13.3730037205
 20
2.5267023329
 11
13.3730037205
 21
2.4937023146
  0
ARC
  5
312
100
AcDbEntity
  8
0
100
AcDbCircle
 62
2
  6
CONTINUOUS
 10
13.370528721
 20
2.4937023128
 40
0.0024749995
100
AcDbArc
 50
269.9999571957
 51
0.0000428043
  0
LINE
  5
313
100
AcDbEntity
  8
0
100
AcDbLine
 62
2
  6
CONTINUOUS
 10
13.3705287192
 20
2.4912273132
 11
13.1673166065
 21
2.4912273132
  0
ARC
  5
314
100
AcDbEntity
  8
0
100
AcDbCircle
 62
2
  6
CONTINUOUS
 10
13.1673166046
 20
2.4937023128
 40
0.0024749995
100
AcDbArc
 50
179.9999571957
 51
270.0000428043
  0
LINE
  5
315
100
AcDbEntity
  8
0
100
AcDbLine
 62
2
  6
CONTINUOUS
 10
13.1648416051
 20
2.4937023146
 11
13.1648416051
 21
2.5135023256
  0
ARC
  5
316
100
AcDbEntity
  8
0
100
AcDbCircle
 62
2
  6
CONTINUOUS
 10
13.1673166046
 20
2.5135023274
 40
0.0024749995
100
AcDbArc
 50
89.9999571957
 51
180.0000428043
  0
LINE
  5
317
100
AcDbEntity
  8
0
100
AcDbLine
 62
2
  6
CONTINUOUS
 10
13.1673166065
 20
2.515977327
 11
13.1912396197
 21
2.515977327
  0
ARC
  5
318
100
AcDbEntity
  8
0
100
AcDbCircle
 62
2
  6
CONTINUOUS
 10
13.1912396216
 20
2.5184523265
 40
0.0024749995
100
AcDbArc
 50
269.9999571957
 51
0.0000428042
  0
LINE
  5
319
100
AcDbEntity
  8
0
100
AcDbLine
 62
2
  6
CONTINUOUS
 10
13.1937146211
 20
2.5184523283
 11
13.1937146211
 21
2.564807354
  0
ARC
  5
31A
100
AcDbEntity
  8
0
100
AcDbCircle
 62
2
  6
CONTINUOUS
 10
13.1912396216
 20
2.5648073559
 40
0.0024749995
100
AcDbArc
 50
359.9999571957
 51
90.0000428043
  0
LINE
  5
31B
100
AcDbEntity
  8
0
100
AcDbLine
 62
2
  6
CONTINUOUS
 10
13.1912396197
 20
2.5672823554
 11
13.1673166065
 21
2.5672823554
  0
ARC
  5
31C
100
AcDbEntity
  8
0
100
AcDbCircle
 62
2
  6
CONTINUOUS
 10
13.1673166046
 20
2.5697573549
 40
0.0024749995
100
AcDbArc
 50
179.9999571957
 51
270.0000428043
  0
LINE
  5
31D
100
AcDbEntity
  8
0
100
AcDbLine
 62
2
  6
CONTINUOUS
 10
13.1648416051
 20
2.5697573568
 11
13.1648416051
 21
2.5895573678
  0
ARC
  5
31E
100
AcDbEntity
  8
0
100
AcDbCircle
 62
2
  6
CONTINUOUS
 10
13.1673166046
 20
2.5895573696
 40
0.0024749995
100
AcDbArc
 50
89.9999571957
 51
180.0000428043
  0
LINE
  5
31F
100
AcDbEntity
  8
0
100
AcDbLine
 62
2
  6
CONTINUOUS
 10
13.1673166065
 20
2.5920323691
 11
13.3691097184
 21
2.5920323691
  0
ARC
  5
320
100
AcDbEntity
  8
0
100
AcDbCircle
 62
2
  6
CONTINUOUS
 10
13.3691097202
 20
2.5895573696
 40
0.0024749995
100
AcDbArc
 50
359.9999571957
 51
90.0000428043
  0
LINE
  5
321
100
AcDbEntity
  8
0
100
AcDbLine
 62
2
  6
CONTINUOUS
 10
13.3715847197
 20
2.5895573678
 11
13.3715847197
 21
2.5565573495
  0
ARC
  5
322
100
AcDbEntity
  8
0
100
AcDbCircle
 62
2
  6
CONTINUOUS
 10
13.3691097202
 20
2.5565573476
 40
0.0024749995
100
AcDbArc
 50
269.9999571957
 51
0.0000428042
  0
LINE
  5
323
100
AcDbEntity
  8
0
100
AcDbLine
 62
2
  6
CONTINUOUS
 10
13.3691097184
 20
2.5540823481
 11
13.3272456952
 21
2.5540823481
  0
ARC
  5
324
100
AcDbEntity
  8
0
100
AcDbCircle
 62
2
  6
CONTINUOUS
 10
13.3272456933
 20
2.5565573476
 40
0.0024749995
100
AcDbArc
 50
179.9999571957
 51
270.0000428043
  0
LINE
  5
325
100
AcDbEntity
  8
0
100
AcDbLine
 62
2
  6
CONTINUOUS
 10
13.3247706938
 20
2.5565573495
 11
13.3247706938
 21
2.564807354
  0
ARC
  5
326
100
AcDbEntity
  8
0
100
AcDbCircle
 62
2
  6
CONTINUOUS
 10
13.3222956943
 20
2.5648073559
 40
0.0024749995
100
AcDbArc
 50
359.9999571957
 51
90.0000428043
  0
LINE
  5
327
100
AcDbEntity
  8
0
100
AcDbLine
 62
2
  6
CONTINUOUS
 10
13.3222956924
 20
2.5672823554
 11
13.2582556569
 21
2.5672823554
  0
ARC
  5
328
100
AcDbEntity
  8
0
100
AcDbCircle
 62
2
  6
CONTINUOUS
 10
13.2582556551
 20
2.5648073559
 40
0.0024749995
100
AcDbArc
 50
89.9999571957
 51
180.0000428043
  0
LINE
  5
329
100
AcDbEntity
  8
0
100
AcDbLine
 62
2
  6
CONTINUOUS
 10
13.2557806555
 20
2.564807354
 11
13.2557806555
 21
2.5532573476
  0
ARC
  5
32A
100
AcDbEntity
  8
0
100
AcDbCircle
 62
2
  6
CONTINUOUS
 10
13.2582556551
 20
2.5532573458
 40
0.0024749995
100
AcDbArc
 50
179.9999571957
 51
270.0000428043
  0
LINE
  5
32B
100
AcDbEntity
  8
0
100
AcDbLine
 62
2
  6
CONTINUOUS
 10
13.2582556569
 20
2.5507823463
 11
13.2934226764
 21
2.5507823463
  0
ARC
  5
32C
100
AcDbEntity
  8
0
100
AcDbCircle
 62
2
  6
CONTINUOUS
 10
13.2934226783
 20
2.5483073467
 40
0.0024749995
100
AcDbArc
 50
359.9999571957
 51
90.0000428043
  0
LINE
  5
32D
100
AcDbEntity
  8
0
100
AcDbLine
 62
2
  6
CONTINUOUS
 10
13.2958976778
 20
2.5483073449
 11
13.2958976778
 21
2.5349523375
  0
ARC
  5
32E
100
AcDbEntity
  8
0
100
AcDbCircle
 62
2
  6
CONTINUOUS
 10
13.2934226783
 20
2.5349523356
 40
0.0024749995
100
AcDbArc
 50
269.9999571957
 51
0.0000428042
  0
LINE
  5
32F
100
AcDbEntity
  8
0
100
AcDbLine
 62
2
  6
CONTINUOUS
 10
13.7286871589
 20
2.5350697372
 11
13.7286871589
 21
2.5456869438
  0
LINE
  5
330
100
AcDbEntity
  8
0
100
AcDbLine
 62
2
  6
CONTINUOUS
 10
13.7086871478
 20
2.5004302075
 11
13.7086871478
 21
2.5803264735
  0
LINE
  5
331
100
AcDbEntity
  8
0
100
AcDbLine
 62
2
  6
CONTINUOUS
 10
13.6886871368
 20
2.4843919416
 11
13.6886871368
 21
2.5963647394
  0
LINE
  5
332
100
AcDbEntity
  8
0
100
AcDbLine
 62
2
  6
CONTINUOUS
 10
13.6686871257
 20
2.4726017898
 11
13.6686871257
 21
2.6081548911
  0
LINE
  5
333
100
AcDbEntity
  8
0
100
AcDbLine
 62
2
  6
CONTINUOUS
 10
13.6486871146
 20
2.4628062688
 11
13.6486871146
 21
2.6179504122
  0
LINE
  5
334
100
AcDbEntity
  8
0
100
AcDbLine
 62
2
  6
CONTINUOUS
 10
13.6286871035
 20
2.4541253507
 11
13.6286871035
 21
2.5062483056
  0
LINE
  5
335
100
AcDbEntity
  8
0
100
AcDbLine
 62
2
  6
CONTINUOUS
 10
13.6286871035
 20
2.5301143348
 11
13.6286871035
 21
2.6266313303
  0
LINE
  5
336
100
AcDbEntity
  8
0
100
AcDbLine
 62
2
  6
CONTINUOUS
 10
13.6086870924
 20
2.4465537903
 11
13.6086870924
 21
2.4918774918
  0
LINE
  5
337
100
AcDbEntity
  8
0
100
AcDbLine
 62
2
  6
CONTINUOUS
 10
13.6086870924
 20
2.5165781173
 11
13.6086870924
 21
2.6342028907
  0
LINE
  5
338
100
AcDbEntity
  8
0
100
AcDbLine
 62
2
  6
CONTINUOUS
 10
13.5886870813
 20
2.4398033466
 11
13.5886870813
 21
2.4912273132
  0
LINE
  5
339
100
AcDbEntity
  8
0
100
AcDbLine
 62
2
  6
CONTINUOUS
 10
13.5886870813
 20
2.5391840845
 11
13.5886870813
 21
2.5454298327
  0
LINE
  5
33A
100
AcDbEntity
  8
0
100
AcDbLine
 62
2
  6
CONTINUOUS
 10
13.5886870813
 20
2.5862063472
 11
13.5886870813
 21
2.6409533343
  0
LINE
  5
33B
100
AcDbEntity
  8
0
100
AcDbLine
 62
2
  6
CONTINUOUS
 10
13.5686870702
 20
2.4334702189
 11
13.5686870702
 21
2.4912273132
  0
LINE
  5
33C
100
AcDbEntity
  8
0
100
AcDbLine
 62
2
  6
CONTINUOUS
 10
13.5686870702
 20
2.5906587765
 11
13.5686870702
 21
2.647286462
  0
LINE
  5
33D
100
AcDbEntity
  8
0
100
AcDbLine
 62
2
  6
CONTINUOUS
 10
13.5486870591
 20
2.4278968124
 11
13.5486870591
 21
2.4937461006
  0
LINE
  5
33E
100
AcDbEntity
  8
0
100
AcDbLine
 62
2
  6
CONTINUOUS
 10
13.5486870591
 20
2.5920323691
 11
13.5486870591
 21
2.6528598686
  0
LINE
  5
33F
100
AcDbEntity
  8
0
100
AcDbLine
 62
2
  6
CONTINUOUS
 10
13.528687048
 20
2.4225427674
 11
13.528687048
 21
2.5270426993
  0
LINE
  5
340
100
AcDbEntity
  8
0
100
AcDbLine
 62
2
  6
CONTINUOUS
 10
13.528687048
 20
2.5505166259
 11
13.528687048
 21
2.5668657091
  0
LINE
  5
341
100
AcDbEntity
  8
0
100
AcDbLine
 62
2
  6
CONTINUOUS
 10
13.528687048
 20
2.5920323691
 11
13.528687048
 21
2.6582139136
  0
LINE
  5
342
100
AcDbEntity
  8
0
100
AcDbLine
 62
2
  6
CONTINUOUS
 10
13.5086870369
 20
2.4177306791
 11
13.5086870369
 21
2.4912273132
  0
LINE
  5
343
100
AcDbEntity
  8
0
100
AcDbLine
 62
2
  6
CONTINUOUS
 10
13.5086870369
 20
2.5159553269
 11
13.5086870369
 21
2.5306043351
  0
LINE
  5
344
100
AcDbEntity
  8
0
100
AcDbLine
 62
2
  6
CONTINUOUS
 10
13.5086870369
 20
2.5496073456
 11
13.5086870369
 21
2.5672823554
  0
LINE
  5
345
100
AcDbEntity
  8
0
100
AcDbLine
 62
2
  6
CONTINUOUS
 10
13.5086870369
 20
2.5920323691
 11
13.5086870369
 21
2.6630260019
  0
LINE
  5
346
100
AcDbEntity
  8
0
100
AcDbLine
 62
2
  6
CONTINUOUS
 10
13.4886870258
 20
2.4131795254
 11
13.4886870258
 21
2.4912273132
  0
LINE
  5
347
100
AcDbEntity
  8
0
100
AcDbLine
 62
2
  6
CONTINUOUS
 10
13.4886870258
 20
2.5159553269
 11
13.4886870258
 21
2.5306043351
  0
LINE
  5
348
100
AcDbEntity
  8
0
100
AcDbLine
 62
2
  6
CONTINUOUS
 10
13.4886870258
 20
2.5496073456
 11
13.4886870258
 21
2.5672823554
  0
LINE
  5
349
100
AcDbEntity
  8
0
100
AcDbLine
 62
2
  6
CONTINUOUS
 10
13.4886870258
 20
2.5920323691
 11
13.4886870258
 21
2.6675771555
  0
LINE
  5
34A
100
AcDbEntity
  8
0
100
AcDbLine
 62
2
  6
CONTINUOUS
 10
13.4686870147
 20
2.4088819672
 11
13.4686870147
 21
2.4912273132
  0
LINE
  5
34B
100
AcDbEntity
  8
0
100
AcDbLine
 62
2
  6
CONTINUOUS
 10
13.4686870147
 20
2.5920323691
 11
13.4686870147
 21
2.6718747138
  0
LINE
  5
34C
100
AcDbEntity
  8
0
100
AcDbLine
 62
2
  6
CONTINUOUS
 10
13.4486870037
 20
2.4050092072
 11
13.4486870037
 21
2.4912273132
  0
LINE
  5
34D
100
AcDbEntity
  8
0
100
AcDbLine
 62
2
  6
CONTINUOUS
 10
13.4486870037
 20
2.5920323691
 11
13.4486870037
 21
2.6757474738
  0
LINE
  5
34E
100
AcDbEntity
  8
0
100
AcDbLine
 62
2
  6
CONTINUOUS
 10
13.4286869926
 20
2.4011364471
 11
13.4286869926
 21
2.4912273132
  0
LINE
  5
34F
100
AcDbEntity
  8
0
100
AcDbLine
 62
2
  6
CONTINUOUS
 10
13.4286869926
 20
2.5920323691
 11
13.4286869926
 21
2.6796202339
  0
LINE
  5
350
100
AcDbEntity
  8
0
100
AcDbLine
 62
2
  6
CONTINUOUS
 10
13.4086869815
 20
2.3980226662
 11
13.4086869815
 21
2.4912273132
  0
LINE
  5
351
100
AcDbEntity
  8
0
100
AcDbLine
 62
2
  6
CONTINUOUS
 10
13.4086869815
 20
2.515977327
 11
13.4086869815
 21
2.5672823554
  0
LINE
  5
352
100
AcDbEntity
  8
0
100
AcDbLine
 62
2
  6
CONTINUOUS
 10
13.4086869815
 20
2.5920323691
 11
13.4086869815
 21
2.6827340148
  0
LINE
  5
353
100
AcDbEntity
  8
0
100
AcDbLine
 62
2
  6
CONTINUOUS
 10
13.3886869704
 20
2.3950052774
 11
13.3886869704
 21
2.6857514036
  0
LINE
  5
354
100
AcDbEntity
  8
0
100
AcDbLine
 62
2
  6
CONTINUOUS
 10
13.3686869593
 20
2.3919878885
 11
13.3686869593
 21
2.4912273132
  0
LINE
  5
355
100
AcDbEntity
  8
0
100
AcDbLine
 62
2
  6
CONTINUOUS
 10
13.3686869593
 20
2.5291773343
 11
13.3686869593
 21
2.5540823481
  0
LINE
  5
356
100
AcDbEntity
  8
0
100
AcDbLine
 62
2
  6
CONTINUOUS
 10
13.3686869593
 20
2.5920323691
 11
13.3686869593
 21
2.6887687924
  0
LINE
  5
357
100
AcDbEntity
  8
0
100
AcDbLine
 62
2
  6
CONTINUOUS
 10
13.3486869482
 20
2.3889704997
 11
13.3486869482
 21
2.4912273132
  0
LINE
  5
358
100
AcDbEntity
  8
0
100
AcDbLine
 62
2
  6
CONTINUOUS
 10
13.3486869482
 20
2.5291773343
 11
13.3486869482
 21
2.5540823481
  0
LINE
  5
359
100
AcDbEntity
  8
0
100
AcDbLine
 62
2
  6
CONTINUOUS
 10
13.3486869482
 20
2.5920323691
 11
13.3486869482
 21
2.6917861813
  0
LINE
  5
35A
100
AcDbEntity
  8
0
100
AcDbLine
 62
2
  6
CONTINUOUS
 10
13.3286869371
 20
2.3859531109
 11
13.3286869371
 21
2.4912273132
  0
LINE
  5
35B
100
AcDbEntity
  8
0
100
AcDbLine
 62
2
  6
CONTINUOUS
 10
13.3286869371
 20
2.5291773343
 11
13.3286869371
 21
2.5540823481
  0
LINE
  5
35C
100
AcDbEntity
  8
0
100
AcDbLine
 62
2
  6
CONTINUOUS
 10
13.3286869371
 20
2.5920323691
 11
13.3286869371
 21
2.6948035701
  0
LINE
  5
35D
100
AcDbEntity
  8
0
100
AcDbLine
 62
2
  6
CONTINUOUS
 10
13.308686926
 20
2.3833355437
 11
13.308686926
 21
2.4912273132
  0
LINE
  5
35E
100
AcDbEntity
  8
0
100
AcDbLine
 62
2
  6
CONTINUOUS
 10
13.308686926
 20
2.515977327
 11
13.308686926
 21
2.5672823554
  0
LINE
  5
35F
100
AcDbEntity
  8
0
100
AcDbLine
 62
2
  6
CONTINUOUS
 10
13.308686926
 20
2.5920323691
 11
13.308686926
 21
2.6974211373
  0
LINE
  5
360
100
AcDbEntity
  8
0
100
AcDbLine
 62
2
  6
CONTINUOUS
 10
13.2886869149
 20
2.3812612684
 11
13.2886869149
 21
2.4912273132
  0
LINE
  5
361
100
AcDbEntity
  8
0
100
AcDbLine
 62
2
  6
CONTINUOUS
 10
13.2886869149
 20
2.515977327
 11
13.2886869149
 21
2.5324773361
  0
LINE
  5
362
100
AcDbEntity
  8
0
100
AcDbLine
 62
2
  6
CONTINUOUS
 10
13.2886869149
 20
2.5507823463
 11
13.2886869149
 21
2.5672823554
  0
LINE
  5
363
100
AcDbEntity
  8
0
100
AcDbLine
 62
2
  6
CONTINUOUS
 10
13.2886869149
 20
2.5920323691
 11
13.2886869149
 21
2.6994954125
  0
LINE
  5
364
100
AcDbEntity
  8
0
100
AcDbLine
 62
2
  6
CONTINUOUS
 10
13.2686869038
 20
2.3791869932
 11
13.2686869038
 21
2.4912273132
  0
LINE
  5
365
100
AcDbEntity
  8
0
100
AcDbLine
 62
2
  6
CONTINUOUS
 10
13.2686869038
 20
2.515977327
 11
13.2686869038
 21
2.5324773361
  0
LINE
  5
366
100
AcDbEntity
  8
0
100
AcDbLine
 62
2
  6
CONTINUOUS
 10
13.2686869038
 20
2.5507823463
 11
13.2686869038
 21
2.5672823554
  0
LINE
  5
367
100
AcDbEntity
  8
0
100
AcDbLine
 62
2
  6
CONTINUOUS
 10
13.2686869038
 20
2.5920323691
 11
13.2686869038
 21
2.7015696878
  0
LINE
  5
368
100
AcDbEntity
  8
0
100
AcDbLine
 62
2
  6
CONTINUOUS
 10
13.2486868927
 20
2.377112718
 11
13.2486868927
 21
2.4912273132
  0
LINE
  5
369
100
AcDbEntity
  8
0
100
AcDbLine
 62
2
  6
CONTINUOUS
 10
13.2486868927
 20
2.5920323691
 11
13.2486868927
 21
2.703643963
  0
LINE
  5
36A
100
AcDbEntity
  8
0
100
AcDbLine
 62
2
  6
CONTINUOUS
 10
13.2286868817
 20
2.3750384428
 11
13.2286868817
 21
2.4912273132
  0
LINE
  5
36B
100
AcDbEntity
  8
0
100
AcDbLine
 62
2
  6
CONTINUOUS
 10
13.2286868817
 20
2.5920323691
 11
13.2286868817
 21
2.7057182382
  0
LINE
  5
36C
100
AcDbEntity
  8
0
100
AcDbLine
 62
2
  6
CONTINUOUS
 10
13.2086868706
 20
2.3729641676
 11
13.2086868706
 21
2.4912273132
  0
LINE
  5
36D
100
AcDbEntity
  8
0
100
AcDbLine
 62
2
  6
CONTINUOUS
 10
13.2086868706
 20
2.5920323691
 11
13.2086868706
 21
2.7077925134
  0
LINE
  5
36E
100
AcDbEntity
  8
0
100
AcDbLine
 62
2
  6
CONTINUOUS
 10
13.1886868595
 20
2.3712344456
 11
13.1886868595
 21
2.4912273132
  0
LINE
  5
36F
100
AcDbEntity
  8
0
100
AcDbLine
 62
2
  6
CONTINUOUS
 10
13.1886868595
 20
2.515977327
 11
13.1886868595
 21
2.5672823554
  0
LINE
  5
370
100
AcDbEntity
  8
0
100
AcDbLine
 62
2
  6
CONTINUOUS
 10
13.1886868595
 20
2.5920323691
 11
13.1886868595
 21
2.7095222354
  0
LINE
  5
371
100
AcDbEntity
  8
0
100
AcDbLine
 62
2
  6
CONTINUOUS
 10
13.1686868484
 20
2.3699682418
 11
13.1686868484
 21
2.4912273132
  0
LINE
  5
372
100
AcDbEntity
  8
0
100
AcDbLine
 62
2
  6
CONTINUOUS
 10
13.1686868484
 20
2.515977327
 11
13.1686868484
 21
2.5672823554
  0
LINE
  5
373
100
AcDbEntity
  8
0
100
AcDbLine
 62
2
  6
CONTINUOUS
 10
13.1686868484
 20
2.5920323691
 11
13.1686868484
 21
2.7107884392
  0
LINE
  5
374
100
AcDbEntity
  8
0
100
AcDbLine
 62
2
  6
CONTINUOUS
 10
13.1486868373
 20
2.3687020381
 11
13.1486868373
 21
2.7120546429
  0
LINE
  5
375
100
AcDbEntity
  8
0
100
AcDbLine
 62
2
  6
CONTINUOUS
 10
13.1286868262
 20
2.3674358343
 11
13.1286868262
 21
2.5672823554
  0
LINE
  5
376
100
AcDbEntity
  8
0
100
AcDbLine
 62
2
  6
CONTINUOUS
 10
13.1286868262
 20
2.5920323691
 11
13.1286868262
 21
2.7133208466
  0
LINE
  5
377
100
AcDbEntity
  8
0
100
AcDbLine
 62
2
  6
CONTINUOUS
 10
13.1086868151
 20
2.3661696306
 11
13.1086868151
 21
2.4912273132
  0
LINE
  5
378
100
AcDbEntity
  8
0
100
AcDbLine
 62
2
  6
CONTINUOUS
 10
13.1086868151
 20
2.5920323691
 11
13.1086868151
 21
2.7145870504
  0
LINE
  5
379
100
AcDbEntity
  8
0
100
AcDbLine
 62
2
  6
CONTINUOUS
 10
13.088686804
 20
2.3649034269
 11
13.088686804
 21
2.4912273132
  0
LINE
  5
37A
100
AcDbEntity
  8
0
100
AcDbLine
 62
2
  6
CONTINUOUS
 10
13.088686804
 20
2.5920323691
 11
13.088686804
 21
2.7158532541
  0
LINE
  5
37B
100
AcDbEntity
  8
0
100
AcDbLine
 62
2
  6
CONTINUOUS
 10
13.0686867929
 20
2.3636739922
 11
13.0686867929
 21
2.4912273132
  0
LINE
  5
37C
100
AcDbEntity
  8
0
100
AcDbLine
 62
2
  6
CONTINUOUS
 10
13.0686867929
 20
2.5475272398
 11
13.0686867929
 21
2.5672823554
  0
LINE
  5
37D
100
AcDbEntity
  8
0
100
AcDbLine
 62
2
  6
CONTINUOUS
 10
13.0686867929
 20
2.5920323691
 11
13.0686867929
 21
2.7170826887
  0
LINE
  5
37E
100
AcDbEntity
  8
0
100
AcDbLine
 62
2
  6
CONTINUOUS
 10
13.0486867818
 20
2.363143203
 11
13.0486867818
 21
2.4912273132
  0
LINE
  5
37F
100
AcDbEntity
  8
0
100
AcDbLine
 62
2
  6
CONTINUOUS
 10
13.0486867818
 20
2.5666100882
 11
13.0486867818
 21
2.717613478
  0
LINE
  5
380
100
AcDbEntity
  8
0
100
AcDbLine
 62
2
  6
CONTINUOUS
 10
13.0286867707
 20
2.3626124138
 11
13.0286867707
 21
2.50359263
  0
LINE
  5
381
100
AcDbEntity
  8
0
100
AcDbLine
 62
2
  6
CONTINUOUS
 10
13.0286867707
 20
2.5856929366
 11
13.0286867707
 21
2.7181442672
  0
LINE
  5
382
100
AcDbEntity
  8
0
100
AcDbLine
 62
2
  6
CONTINUOUS
 10
13.0086867596
 20
2.3620816246
 11
13.0086867596
 21
2.5226754472
  0
LINE
  5
383
100
AcDbEntity
  8
0
100
AcDbLine
 62
2
  6
CONTINUOUS
 10
13.0086867596
 20
2.5920323691
 11
13.0086867596
 21
2.7186750564
  0
LINE
  5
384
100
AcDbEntity
  8
0
100
AcDbLine
 62
2
  6
CONTINUOUS
 10
12.9886867486
 20
2.3615508354
 11
12.9886867486
 21
2.4912273132
  0
LINE
  5
385
100
AcDbEntity
  8
0
100
AcDbLine
 62
2
  6
CONTINUOUS
 10
12.9886867486
 20
2.515977327
 11
12.9886867486
 21
2.5417582644
  0
LINE
  5
386
100
AcDbEntity
  8
0
100
AcDbLine
 62
2
  6
CONTINUOUS
 10
12.9886867486
 20
2.5920323691
 11
12.9886867486
 21
2.7192058456
  0
LINE
  5
387
100
AcDbEntity
  8
0
100
AcDbLine
 62
2
  6
CONTINUOUS
 10
12.9686867375
 20
2.3610200462
 11
12.9686867375
 21
2.4912273132
  0
LINE
  5
388
100
AcDbEntity
  8
0
100
AcDbLine
 62
2
  6
CONTINUOUS
 10
12.9686867375
 20
2.5920323691
 11
12.9686867375
 21
2.7197366348
  0
LINE
  5
389
100
AcDbEntity
  8
0
100
AcDbLine
 62
2
  6
CONTINUOUS
 10
12.9486867264
 20
2.360489257
 11
12.9486867264
 21
2.4912273132
  0
LINE
  5
38A
100
AcDbEntity
  8
0
100
AcDbLine
 62
2
  6
CONTINUOUS
 10
12.9486867264
 20
2.5920323691
 11
12.9486867264
 21
2.720267424
  0
LINE
  5
38B
100
AcDbEntity
  8
0
100
AcDbLine
 62
2
  6
CONTINUOUS
 10
12.9286867153
 20
2.3602836008
 11
12.9286867153
 21
2.4912273132
  0
LINE
  5
38C
100
AcDbEntity
  8
0
100
AcDbLine
 62
2
  6
CONTINUOUS
 10
12.9286867153
 20
2.515977327
 11
12.9286867153
 21
2.5672823554
  0
LINE
  5
38D
100
AcDbEntity
  8
0
100
AcDbLine
 62
2
  6
CONTINUOUS
 10
12.9286867153
 20
2.5920323691
 11
12.9286867153
 21
2.7204730802
  0
LINE
  5
38E
100
AcDbEntity
  8
0
100
AcDbLine
 62
2
  6
CONTINUOUS
 10
12.9086867042
 20
2.3604597639
 11
12.9086867042
 21
2.7202969171
  0
LINE
  5
38F
100
AcDbEntity
  8
0
100
AcDbLine
 62
2
  6
CONTINUOUS
 10
12.8886866931
 20
2.360635927
 11
12.8886866931
 21
2.5672823554
  0
LINE
  5
390
100
AcDbEntity
  8
0
100
AcDbLine
 62
2
  6
CONTINUOUS
 10
12.8886866931
 20
2.5920323691
 11
12.8886866931
 21
2.720120754
  0
LINE
  5
391
100
AcDbEntity
  8
0
100
AcDbLine
 62
2
  6
CONTINUOUS
 10
12.868686682
 20
2.3608120901
 11
12.868686682
 21
2.491232357
  0
LINE
  5
392
100
AcDbEntity
  8
0
100
AcDbLine
 62
2
  6
CONTINUOUS
 10
12.868686682
 20
2.5920323691
 11
12.868686682
 21
2.7199445909
  0
LINE
  5
393
100
AcDbEntity
  8
0
100
AcDbLine
 62
2
  6
CONTINUOUS
 10
12.8486866709
 20
2.3609882532
 11
12.8486866709
 21
2.4912273132
  0
LINE
  5
394
100
AcDbEntity
  8
0
100
AcDbLine
 62
2
  6
CONTINUOUS
 10
12.8486866709
 20
2.5920323691
 11
12.8486866709
 21
2.7197684278
  0
LINE
  5
395
100
AcDbEntity
  8
0
100
AcDbLine
 62
2
  6
CONTINUOUS
 10
12.8286866598
 20
2.3611644163
 11
12.8286866598
 21
2.4912273132
  0
LINE
  5
396
100
AcDbEntity
  8
0
100
AcDbLine
 62
2
  6
CONTINUOUS
 10
12.8286866598
 20
2.5396527025
 11
12.8286866598
 21
2.5672823554
  0
LINE
  5
397
100
AcDbEntity
  8
0
100
AcDbLine
 62
2
  6
CONTINUOUS
 10
12.8286866598
 20
2.5920323691
 11
12.8286866598
 21
2.7195922647
  0
LINE
  5
398
100
AcDbEntity
  8
0
100
AcDbLine
 62
2
  6
CONTINUOUS
 10
12.8086866487
 20
2.3613405794
 11
12.8086866487
 21
2.4912273132
  0
LINE
  5
399
100
AcDbEntity
  8
0
100
AcDbLine
 62
2
  6
CONTINUOUS
 10
12.8086866487
 20
2.5587355508
 11
12.8086866487
 21
2.7194161016
  0
LINE
  5
39A
100
AcDbEntity
  8
0
100
AcDbLine
 62
2
  6
CONTINUOUS
 10
12.7886866376
 20
2.3621089572
 11
12.7886866376
 21
2.4957181055
  0
LINE
  5
39B
100
AcDbEntity
  8
0
100
AcDbLine
 62
2
  6
CONTINUOUS
 10
12.7886866376
 20
2.5778183992
 11
12.7886866376
 21
2.7186477238
  0
LINE
  5
39C
100
AcDbEntity
  8
0
100
AcDbLine
 62
2
  6
CONTINUOUS
 10
12.7686866266
 20
2.3630013935
 11
12.7686866266
 21
2.5148009227
  0
LINE
  5
39D
100
AcDbEntity
  8
0
100
AcDbLine
 62
2
  6
CONTINUOUS
 10
12.7686866266
 20
2.5920323691
 11
12.7686866266
 21
2.7177552874
  0
LINE
  5
39E
100
AcDbEntity
  8
0
100
AcDbLine
 62
2
  6
CONTINUOUS
 10
12.7486866155
 20
2.3638938299
 11
12.7486866155
 21
2.4913263218
  0
LINE
  5
39F
100
AcDbEntity
  8
0
100
AcDbLine
 62
2
  6
CONTINUOUS
 10
12.7486866155
 20
2.5158783184
 11
12.7486866155
 21
2.5338837399
  0
LINE
  5
3A0
100
AcDbEntity
  8
0
100
AcDbLine
 62
2
  6
CONTINUOUS
 10
12.7486866155
 20
2.5920323691
 11
12.7486866155
 21
2.7168628511
  0
LINE
  5
3A1
100
AcDbEntity
  8
0
100
AcDbLine
 62
2
  6
CONTINUOUS
 10
12.7286866044
 20
2.3647862663
 11
12.7286866044
 21
2.4912273132
  0
LINE
  5
3A2
100
AcDbEntity
  8
0
100
AcDbLine
 62
2
  6
CONTINUOUS
 10
12.7286866044
 20
2.515977327
 11
12.7286866044
 21
2.5527601554
  0
LINE
  5
3A3
100
AcDbEntity
  8
0
100
AcDbLine
 62
2
  6
CONTINUOUS
 10
12.7286866044
 20
2.5920323691
 11
12.7286866044
 21
2.7159704147
  0
LINE
  5
3A4
100
AcDbEntity
  8
0
100
AcDbLine
 62
2
  6
CONTINUOUS
 10
12.7086865933
 20
2.3656787026
 11
12.7086865933
 21
2.4912273132
  0
LINE
  5
3A5
100
AcDbEntity
  8
0
100
AcDbLine
 62
2
  6
CONTINUOUS
 10
12.7086865933
 20
2.5920323691
 11
12.7086865933
 21
2.7150779784
  0
LINE
  5
3A6
100
AcDbEntity
  8
0
100
AcDbLine
 62
2
  6
CONTINUOUS
 10
12.6886865822
 20
2.366571139
 11
12.6886865822
 21
2.4912273132
  0
LINE
  5
3A7
100
AcDbEntity
  8
0
100
AcDbLine
 62
2
  6
CONTINUOUS
 10
12.6886865822
 20
2.515977327
 11
12.6886865822
 21
2.5672823554
  0
LINE
  5
3A8
100
AcDbEntity
  8
0
100
AcDbLine
 62
2
  6
CONTINUOUS
 10
12.6886865822
 20
2.5920323691
 11
12.6886865822
 21
2.714185542
  0
LINE
  5
3A9
100
AcDbEntity
  8
0
100
AcDbLine
 62
2
  6
CONTINUOUS
 10
12.6686865711
 20
2.3677104027
 11
12.6686865711
 21
2.7130462783
  0
LINE
  5
3AA
100
AcDbEntity
  8
0
100
AcDbLine
 62
2
  6
CONTINUOUS
 10
12.64868656
 20
2.3693682721
 11
12.64868656
 21
2.7113884089
  0
LINE
  5
3AB
100
AcDbEntity
  8
0
100
AcDbLine
 62
2
  6
CONTINUOUS
 10
12.6286865489
 20
2.3710261415
 11
12.6286865489
 21
2.4912273132
  0
LINE
  5
3AC
100
AcDbEntity
  8
0
100
AcDbLine
 62
2
  6
CONTINUOUS
 10
12.6286865489
 20
2.515977327
 11
12.6286865489
 21
2.7097305395
  0
LINE
  5
3AD
100
AcDbEntity
  8
0
100
AcDbLine
 62
2
  6
CONTINUOUS
 10
12.6086865378
 20
2.372684011
 11
12.6086865378
 21
2.4912273132
  0
LINE
  5
3AE
100
AcDbEntity
  8
0
100
AcDbLine
 62
2
  6
CONTINUOUS
 10
12.6086865378
 20
2.5351122279
 11
12.6086865378
 21
2.70807267
  0
LINE
  5
3AF
100
AcDbEntity
  8
0
100
AcDbLine
 62
2
  6
CONTINUOUS
 10
12.5886865267
 20
2.3743418804
 11
12.5886865267
 21
2.4912273132
  0
LINE
  5
3B0
100
AcDbEntity
  8
0
100
AcDbLine
 62
2
  6
CONTINUOUS
 10
12.5886865267
 20
2.5660172622
 11
12.5886865267
 21
2.7064148006
  0
LINE
  5
3B1
100
AcDbEntity
  8
0
100
AcDbLine
 62
2
  6
CONTINUOUS
 10
12.5686865156
 20
2.3759997498
 11
12.5686865156
 21
2.4912273132
  0
LINE
  5
3B2
100
AcDbEntity
  8
0
100
AcDbLine
 62
2
  6
CONTINUOUS
 10
12.5686865156
 20
2.5920323691
 11
12.5686865156
 21
2.7047569312
  0
LINE
  5
3B3
100
AcDbEntity
  8
0
100
AcDbLine
 62
2
  6
CONTINUOUS
 10
12.5486865045
 20
2.3777575277
 11
12.5486865045
 21
2.4912273132
  0
LINE
  5
3B4
100
AcDbEntity
  8
0
100
AcDbLine
 62
2
  6
CONTINUOUS
 10
12.5486865045
 20
2.515977327
 11
12.5486865045
 21
2.5275118824
  0
LINE
  5
3B5
100
AcDbEntity
  8
0
100
AcDbLine
 62
2
  6
CONTINUOUS
 10
12.5486865045
 20
2.5920323691
 11
12.5486865045
 21
2.7029991533
  0
LINE
  5
3B6
100
AcDbEntity
  8
0
100
AcDbLine
 62
2
  6
CONTINUOUS
 10
12.5286864935
 20
2.3802813811
 11
12.5286864935
 21
2.5296213345
  0
LINE
  5
3B7
100
AcDbEntity
  8
0
100
AcDbLine
 62
2
  6
CONTINUOUS
 10
12.5286864935
 20
2.5505713461
 11
12.5286864935
 21
2.5667383551
  0
LINE
  5
3B8
100
AcDbEntity
  8
0
100
AcDbLine
 62
2
  6
CONTINUOUS
 10
12.5286864935
 20
2.5920323691
 11
12.5286864935
 21
2.7004752999
  0
LINE
  5
3B9
100
AcDbEntity
  8
0
100
AcDbLine
 62
2
  6
CONTINUOUS
 10
12.5086864824
 20
2.3828052346
 11
12.5086864824
 21
2.4912273132
  0
LINE
  5
3BA
100
AcDbEntity
  8
0
100
AcDbLine
 62
2
  6
CONTINUOUS
 10
12.5086864824
 20
2.515977327
 11
12.5086864824
 21
2.5279667721
  0
LINE
  5
3BB
100
AcDbEntity
  8
0
100
AcDbLine
 62
2
  6
CONTINUOUS
 10
12.5086864824
 20
2.5868602074
 11
12.5086864824
 21
2.6979514464
  0
LINE
  5
3BC
100
AcDbEntity
  8
0
100
AcDbLine
 62
2
  6
CONTINUOUS
 10
12.4886864713
 20
2.385329088
 11
12.4886864713
 21
2.4912273132
  0
LINE
  5
3BD
100
AcDbEntity
  8
0
100
AcDbLine
 62
2
  6
CONTINUOUS
 10
12.4886864713
 20
2.5553401045
 11
12.4886864713
 21
2.695427593
  0
LINE
  5
3BE
100
AcDbEntity
  8
0
100
AcDbLine
 62
2
  6
CONTINUOUS
 10
12.4686864602
 20
2.3878529415
 11
12.4686864602
 21
2.4912273132
  0
LINE
  5
3BF
100
AcDbEntity
  8
0
100
AcDbLine
 62
2
  6
CONTINUOUS
 10
12.4686864602
 20
2.5238200015
 11
12.4686864602
 21
2.6929037395
  0
LINE
  5
3C0
100
AcDbEntity
  8
0
100
AcDbLine
 62
2
  6
CONTINUOUS
 10
12.4486864491
 20
2.390376795
 11
12.4486864491
 21
2.4912273132
  0
LINE
  5
3C1
100
AcDbEntity
  8
0
100
AcDbLine
 62
2
  6
CONTINUOUS
 10
12.4486864491
 20
2.515977327
 11
12.4486864491
 21
2.690379886
  0
LINE
  5
3C2
100
AcDbEntity
  8
0
100
AcDbLine
 62
2
  6
CONTINUOUS
 10
12.428686438
 20
2.3931794042
 11
12.428686438
 21
2.6875772768
  0
LINE
  5
3C3
100
AcDbEntity
  8
0
100
AcDbLine
 62
2
  6
CONTINUOUS
 10
12.4086864269
 20
2.3964643301
 11
12.4086864269
 21
2.5013773986
  0
LINE
  5
3C4
100
AcDbEntity
  8
0
100
AcDbLine
 62
2
  6
CONTINUOUS
 10
12.4086864269
 20
2.5325739971
 11
12.4086864269
 21
2.5537224311
  0
LINE
  5
3C5
100
AcDbEntity
  8
0
100
AcDbLine
 62
2
  6
CONTINUOUS
 10
12.4086864269
 20
2.5791473398
 11
12.4086864269
 21
2.6842923509
  0
LINE
  5
3C6
100
AcDbEntity
  8
0
100
AcDbLine
 62
2
  6
CONTINUOUS
 10
12.3886864158
 20
2.399749256
 11
12.3886864158
 21
2.4921022658
  0
LINE
  5
3C7
100
AcDbEntity
  8
0
100
AcDbLine
 62
2
  6
CONTINUOUS
 10
12.3886864158
 20
2.5895929958
 11
12.3886864158
 21
2.681007425
  0
LINE
  5
3C8
100
AcDbEntity
  8
0
100
AcDbLine
 62
2
  6
CONTINUOUS
 10
12.3686864047
 20
2.403451877
 11
12.3686864047
 21
2.4912273132
  0
LINE
  5
3C9
100
AcDbEntity
  8
0
100
AcDbLine
 62
2
  6
CONTINUOUS
 10
12.3686864047
 20
2.5920323691
 11
12.3686864047
 21
2.677304804
  0
LINE
  5
3CA
100
AcDbEntity
  8
0
100
AcDbLine
 62
2
  6
CONTINUOUS
 10
12.3486863936
 20
2.407324637
 11
12.3486863936
 21
2.4912273132
  0
LINE
  5
3CB
100
AcDbEntity
  8
0
100
AcDbLine
 62
2
  6
CONTINUOUS
 10
12.3486863936
 20
2.5920323691
 11
12.3486863936
 21
2.673432044
  0
LINE
  5
3CC
100
AcDbEntity
  8
0
100
AcDbLine
 62
2
  6
CONTINUOUS
 10
12.3286863825
 20
2.4113493968
 11
12.3286863825
 21
2.4912273132
  0
LINE
  5
3CD
100
AcDbEntity
  8
0
100
AcDbLine
 62
2
  6
CONTINUOUS
 10
12.3286863825
 20
2.515977327
 11
12.3286863825
 21
2.5333023366
  0
LINE
  5
3CE
100
AcDbEntity
  8
0
100
AcDbLine
 62
2
  6
CONTINUOUS
 10
12.3286863825
 20
2.5499573458
 11
12.3286863825
 21
2.5672823554
  0
LINE
  5
3CF
100
AcDbEntity
  8
0
100
AcDbLine
 62
2
  6
CONTINUOUS
 10
12.3286863825
 20
2.5920323691
 11
12.3286863825
 21
2.6694072842
  0
LINE
  5
3D0
100
AcDbEntity
  8
0
100
AcDbLine
 62
2
  6
CONTINUOUS
 10
12.3086863715
 20
2.4159005505
 11
12.3086863715
 21
2.4912273132
  0
LINE
  5
3D1
100
AcDbEntity
  8
0
100
AcDbLine
 62
2
  6
CONTINUOUS
 10
12.3086863715
 20
2.515977327
 11
12.3086863715
 21
2.5333023366
  0
LINE
  5
3D2
100
AcDbEntity
  8
0
100
AcDbLine
 62
2
  6
CONTINUOUS
 10
12.3086863715
 20
2.5499573458
 11
12.3086863715
 21
2.5672823554
  0
LINE
  5
3D3
100
AcDbEntity
  8
0
100
AcDbLine
 62
2
  6
CONTINUOUS
 10
12.3086863715
 20
2.5920323691
 11
12.3086863715
 21
2.6648561305
  0
LINE
  5
3D4
100
AcDbEntity
  8
0
100
AcDbLine
 62
2
  6
CONTINUOUS
 10
12.2886863604
 20
2.4204517041
 11
12.2886863604
 21
2.4912273132
  0
LINE
  5
3D5
100
AcDbEntity
  8
0
100
AcDbLine
 62
2
  6
CONTINUOUS
 10
12.2886863604
 20
2.5920323691
 11
12.2886863604
 21
2.6603049769
  0
LINE
  5
3D6
100
AcDbEntity
  8
0
100
AcDbLine
 62
2
  6
CONTINUOUS
 10
12.2686863493
 20
2.4257438218
 11
12.2686863493
 21
2.4912273132
  0
LINE
  5
3D7
100
AcDbEntity
  8
0
100
AcDbLine
 62
2
  6
CONTINUOUS
 10
12.2686863493
 20
2.5920323691
 11
12.2686863493
 21
2.6550128592
  0
LINE
  5
3D8
100
AcDbEntity
  8
0
100
AcDbLine
 62
2
  6
CONTINUOUS
 10
12.2486863382
 20
2.4310978667
 11
12.2486863382
 21
2.4912273132
  0
LINE
  5
3D9
100
AcDbEntity
  8
0
100
AcDbLine
 62
2
  6
CONTINUOUS
 10
12.2486863382
 20
2.5920323691
 11
12.2486863382
 21
2.6496588142
  0
LINE
  5
3DA
100
AcDbEntity
  8
0
100
AcDbLine
 62
2
  6
CONTINUOUS
 10
12.2286863271
 20
2.4372566433
 11
12.2286863271
 21
2.4912273132
  0
LINE
  5
3DB
100
AcDbEntity
  8
0
100
AcDbLine
 62
2
  6
CONTINUOUS
 10
12.2286863271
 20
2.515977327
 11
12.2286863271
 21
2.5672823554
  0
LINE
  5
3DC
100
AcDbEntity
  8
0
100
AcDbLine
 62
2
  6
CONTINUOUS
 10
12.2286863271
 20
2.5920323691
 11
12.2286863271
 21
2.6435000377
  0
LINE
  5
3DD
100
AcDbEntity
  8
0
100
AcDbLine
 62
2
  6
CONTINUOUS
 10
12.208686316
 20
2.443589771
 11
12.208686316
 21
2.4912273132
  0
LINE
  5
3DE
100
AcDbEntity
  8
0
100
AcDbLine
 62
2
  6
CONTINUOUS
 10
12.208686316
 20
2.515977327
 11
12.208686316
 21
2.5672823554
  0
LINE
  5
3DF
100
AcDbEntity
  8
0
100
AcDbLine
 62
2
  6
CONTINUOUS
 10
12.208686316
 20
2.5920323691
 11
12.208686316
 21
2.63716691
  0
LINE
  5
3E0
100
AcDbEntity
  8
0
100
AcDbLine
 62
2
  6
CONTINUOUS
 10
12.1886863049
 20
2.4510806436
 11
12.1886863049
 21
2.6296760373
  0
LINE
  5
3E1
100
AcDbEntity
  8
0
100
AcDbLine
 62
2
  6
CONTINUOUS
 10
12.1686862938
 20
2.4591016523
 11
12.1686862938
 21
2.6216550287
  0
LINE
  5
3E2
100
AcDbEntity
  8
0
100
AcDbLine
 62
2
  6
CONTINUOUS
 10
12.1486862827
 20
2.468314272
 11
12.1486862827
 21
2.612442409
  0
LINE
  5
3E3
100
AcDbEntity
  8
0
100
AcDbLine
 62
2
  6
CONTINUOUS
 10
12.1286862716
 20
2.4794932339
 11
12.1286862716
 21
2.601263447
  0
LINE
  5
3E4
100
AcDbEntity
  8
0
100
AcDbLine
 62
2
  6
CONTINUOUS
 10
12.1086862605
 20
2.4934150665
 11
12.1086862605
 21
2.5873416144
  0
LINE
  5
3E5
100
AcDbEntity
  8
0
100
AcDbLine
 62
2
  6
CONTINUOUS
 10
12.0886862494
 20
2.5144449553
 11
12.0886862494
 21
2.5663117257
  0
ENDBLK
  5
3E6
100
AcDbEntity
  8
0
  6
BYBLOCK
 62
0
100
AcDbBlockEnd
  0
BLOCK
  5
3E7
100
AcDbEntity
  8
0
100
AcDbBlockBegin
  2
_FILLED
 70
64
 10
0.0
 20
0.0
  3
_FILLED
  1

  0
SOLID
  5
3E8
100
AcDbEntity
  8
0
  6
BYBLOCK
 62
0
100
AcDbTrace
 10
0.0
 20
0.0
 11
-1.0
 21
0.1666666667
 12
-1.0
 22
-0.1666666667
 13
-1.0
 23
-0.1666666667
  0
ENDBLK
  5
3E9
100
AcDbEntity
  8
0
  6
BYBLOCK
 62
0
100
AcDbBlockEnd
  0
BLOCK
  5
3EA
100
AcDbEntity
  8
SCHEME_DIMS
100
AcDbBlockBegin
 62
2
  6
CONTINUOUS
  2
*D0
 70
65
 10
0.0
 20
0.0
  3
*D0
  1

  0
MTEXT
  5
3EB
100
AcDbEntity
  8
SCHEME_DIMS
100
AcDbMText
 62
2
  6
CONTINUOUS
  7
TEXTSTYLE_5
 71
1
 72
1
 10
5.6979902985
 20
9.0422054958
 30
0.0
 11
1.0
 21
0.0
 31
0.0
 44
0.9
  1
{\Fgdt;n}\Ftxt;5,4\P[.21]
 40
0.1
 41
0.5
  0
LINE
  5
3EC
100
AcDbEntity
  8
SCHEME_DIMS
100
AcDbLine
 62
2
  6
CONTINUOUS
 10
4.4252553182
 20
8.0566660415
 11
5.4479902985
 21
8.9922054958
  0
LINE
  5
3ED
100
AcDbEntity
  8
SCHEME_DIMS
100
AcDbLine
 62
2
  6
CONTINUOUS
 10
5.4479902985
 20
8.9922054958
 11
5.5979902985
 21
8.9922054958
  0
INSERT
  5
3EE
100
AcDbEntity
  8
SCHEME_DIMS
100
AcDbBlockReference
 62
2
  6
CONTINUOUS
  2
_FILLED
 10
4.4252553182
 20
8.0566660415
 41
0.1875
 42
0.1875
 43
0.1875
 50
222.4504912192
  0
ENDBLK
  5
3EF
100
AcDbEntity
  8
0
  6
BYBLOCK
 62
0
100
AcDbBlockEnd
  0
BLOCK
  5
3F0
100
AcDbEntity
  8
SCHEME_DIMS
100
AcDbBlockBegin
 62
2
  6
CONTINUOUS
  2
*D1
 70
65
 10
0.0
 20
0.0
  3
*D1
  1

  0
MTEXT
  5
3F1
100
AcDbEntity
  8
SCHEME_DIMS
100
AcDbMText
 62
2
  6
CONTINUOUS
  7
STANDARD
 71
2
 72
1
 10
3.679771943
 20
9.5394684161
 30
0.0
 11
1.0
 21
0.0
 31
0.0
 44
0.9
  1
28,8\P[1.14]
 40
0.1
 41
0.6
  0
LINE
  5
3F2
100
AcDbEntity
  8
SCHEME_DIMS
100
AcDbLine
 62
2
  6
CONTINUOUS
 10
3.2119963525
 20
8.559250712
 11
3.2119963525
 21
9.6144684161
  0
LINE
  5
3F3
100
AcDbEntity
  8
SCHEME_DIMS
100
AcDbLine
 62
2
  6
CONTINUOUS
 10
4.3475475336
 20
9.1734053242
 11
4.3475475336
 21
9.6144684161
  0
LINE
  5
3F4
100
AcDbEntity
  8
SCHEME_DIMS
100
AcDbLine
 62
2
  6
CONTINUOUS
 10
3.2119963525
 20
9.4894684161
 11
2.8119963525
 21
9.4894684161
  0
LINE
  5
3F5
100
AcDbEntity
  8
SCHEME_DIMS
100
AcDbLine
 62
2
  6
CONTINUOUS
 10
4.3475475336
 20
9.4894684161
 11
4.7475475336
 21
9.4894684161
  0
INSERT
  5
3F6
100
AcDbEntity
  8
SCHEME_DIMS
100
AcDbBlockReference
 62
2
  6
CONTINUOUS
  2
_FILLED
 10
3.2119963525
 20
9.4894684161
 41
0.1875
 42
0.1875
 43
0.1875
  0
INSERT
  5
3F7
100
AcDbEntity
  8
SCHEME_DIMS
100
AcDbBlockReference
 62
2
  6
CONTINUOUS
  2
_FILLED
 10
4.3475475336
 20
9.4894684161
 41
0.1875
 42
0.1875
 43
0.1875
 50
180.0
  0
ENDBLK
  5
3F8
100
AcDbEntity
  8
0
  6
BYBLOCK
 62
0
100
AcDbBlockEnd
  0
BLOCK
  5
3F9
100
AcDbEntity
  8
SCHEME_DIMS
100
AcDbBlockBegin
 62
2
  6
CONTINUOUS
  2
*D2
 70
65
 10
0.0
 20
0.0
  3
*D2
  1

  0
MTEXT
  5
3FA
100
AcDbEntity
  8
SCHEME_DIMS
100
AcDbMText
 62
2
  6
CONTINUOUS
  7
STANDARD
 71
1
 72
1
 10
5.9701444319
 20
7.2695973913
 30
0.0
 11
1.0
 21
0.0
 31
0.0
 44
0.9
  1
R25,5\P[1.00]
 40
0.1
 41
0.6
  0
LINE
  5
3FB
100
AcDbEntity
  8
SCHEME_DIMS
100
AcDbLine
 62
2
  6
CONTINUOUS
 10
5.2242141637
 20
7.4963542818
 11
5.7201444319
 21
7.2195973913
  0
LINE
  5
3FC
100
AcDbEntity
  8
SCHEME_DIMS
100
AcDbLine
 62
2
  6
CONTINUOUS
 10
5.7201444319
 20
7.2195973913
 11
5.8701444319
 21
7.2195973913
  0
INSERT
  5
3FD
100
AcDbEntity
  8
SCHEME_DIMS
100
AcDbBlockReference
 62
2
  6
CONTINUOUS
  2
_FILLED
 10
5.2242141637
 20
7.4963542818
 41
0.1875
 42
0.1875
 43
0.1875
 50
150.83603357
  0
ENDBLK
  5
3FE
100
AcDbEntity
  8
0
  6
BYBLOCK
 62
0
100
AcDbBlockEnd
  0
BLOCK
  5
3FF
100
AcDbEntity
  8
SCHEME_DIMS
100
AcDbBlockBegin
 62
2
  6
CONTINUOUS
  2
*D3
 70
65
 10
0.0
 20
0.0
  3
*D3
  1

  0
MTEXT
  5
400
100
AcDbEntity
  8
SCHEME_DIMS
100
AcDbMText
 62
2
  6
CONTINUOUS
  7
STANDARD
 71
2
 72
1
 10
5.7514845415
 20
3.9597443636
 30
0.0
 11
1.0
 21
0.0
 31
0.0
 44
0.9
  1
35,8\P[1.41]
 40
0.1
 41
0.6
  0
LINE
  5
401
100
AcDbEntity
  8
SCHEME_DIMS
100
AcDbLine
 62
2
  6
CONTINUOUS
 10
5.4139845415
 20
3.1300199541
 11
5.9764845415
 21
3.1300199541
  0
LINE
  5
402
100
AcDbEntity
  8
SCHEME_DIMS
100
AcDbLine
 62
2
  6
CONTINUOUS
 10
3.2411649096
 20
4.539468773
 11
5.9764845415
 21
4.539468773
  0
LINE
  5
403
100
AcDbEntity
  8
SCHEME_DIMS
100
AcDbLine
 62
2
  6
CONTINUOUS
 10
5.8514845415
 20
3.1300199541
 11
5.8514845415
 21
3.6097443636
  0
LINE
  5
404
100
AcDbEntity
  8
SCHEME_DIMS
100
AcDbLine
 62
2
  6
CONTINUOUS
 10
5.8514845415
 20
4.539468773
 11
5.8514845415
 21
4.0597443636
  0
INSERT
  5
405
100
AcDbEntity
  8
SCHEME_DIMS
100
AcDbBlockReference
 62
2
  6
CONTINUOUS
  2
_FILLED
 10
5.8514845415
 20
3.1300199541
 41
0.1875
 42
0.1875
 43
0.1875
 50
270.0
  0
INSERT
  5
406
100
AcDbEntity
  8
SCHEME_DIMS
100
AcDbBlockReference
 62
2
  6
CONTINUOUS
  2
_FILLED
 10
5.8514845415
 20
4.539468773
 41
0.1875
 42
0.1875
 43
0.1875
 50
90.0
  0
ENDBLK
  5
407
100
AcDbEntity
  8
0
  6
BYBLOCK
 62
0
100
AcDbBlockEnd
  0
BLOCK
  5
408
100
AcDbEntity
  8
SCHEME_DIMS
100
AcDbBlockBegin
 62
2
  6
CONTINUOUS
  2
*D4
 70
65
 10
0.0
 20
0.0
  3
*D4
  1

  0
MTEXT
  5
409
100
AcDbEntity
  8
SCHEME_DIMS
100
AcDbMText
 62
2
  6
CONTINUOUS
  7
STANDARD
 71
2
 72
1
 10
3.4002032448
 20
2.3050199541
 30
0.0
 11
1.0
 21
0.0
 31
0.0
 44
0.9
  1
89\P[3.50]
 40
0.1
 41
0.6
  0
LINE
  5
40A
100
AcDbEntity
  8
SCHEME_DIMS
100
AcDbLine
 62
2
  6
CONTINUOUS
 10
1.8489219482
 20
3.627068887
 11
1.8489219482
 21
2.1300199541
  0
LINE
  5
40B
100
AcDbEntity
  8
SCHEME_DIMS
100
AcDbLine
 62
2
  6
CONTINUOUS
 10
5.3514845415
 20
3.0507962857
 11
5.3514845415
 21
2.1300199541
  0
LINE
  5
40C
100
AcDbEntity
  8
SCHEME_DIMS
100
AcDbLine
 62
2
  6
CONTINUOUS
 10
1.8489219482
 20
2.2550199541
 11
3.2002032448
 21
2.2550199541
  0
LINE
  5
40D
100
AcDbEntity
  8
SCHEME_DIMS
100
AcDbLine
 62
2
  6
CONTINUOUS
 10
5.3514845415
 20
2.2550199541
 11
4.0002032448
 21
2.2550199541
  0
INSERT
  5
40E
100
AcDbEntity
  8
SCHEME_DIMS
100
AcDbBlockReference
 62
2
  6
CONTINUOUS
  2
_FILLED
 10
1.8489219482
 20
2.2550199541
 41
0.1875
 42
0.1875
 43
0.1875
 50
180.0
  0
INSERT
  5
40F
100
AcDbEntity
  8
SCHEME_DIMS
100
AcDbBlockReference
 62
2
  6
CONTINUOUS
  2
_FILLED
 10
5.3514845415
 20
2.2550199541
 41
0.1875
 42
0.1875
 43
0.1875
  0
ENDBLK
  5
410
100
AcDbEntity
  8
0
  6
BYBLOCK
 62
0
100
AcDbBlockEnd
  0
BLOCK
  5
411
100
AcDbEntity
  8
SCHEME_DIMS
100
AcDbBlockBegin
 62
2
  6
CONTINUOUS
  2
*D5
 70
65
 10
0.0
 20
0.0
  3
*D5
  1

  0
MTEXT
  5
412
100
AcDbEntity
  8
SCHEME_DIMS
100
AcDbMText
 62
2
  6
CONTINUOUS
  7
STANDARD
 71
2
 72
1
 10
7.9744933838
 20
7.2890978698
 30
0.0
 11
1.0
 21
0.0
 31
0.0
 44
0.9
  1
68\P[2.68]
 40
0.1
 41
0.6
  0
LINE
  5
413
100
AcDbEntity
  8
SCHEME_DIMS
100
AcDbLine
 62
2
  6
CONTINUOUS
 10
9.2296154311
 20
5.8266070275
 11
8.0494933838
 21
5.8266070275
  0
LINE
  5
414
100
AcDbEntity
  8
SCHEME_DIMS
100
AcDbLine
 62
2
  6
CONTINUOUS
 10
9.4318752736
 20
8.5032512874
 11
8.0494933838
 21
8.5032512874
  0
LINE
  5
415
100
AcDbEntity
  8
SCHEME_DIMS
100
AcDbLine
 62
2
  6
CONTINUOUS
 10
8.1744933838
 20
5.8266070275
 11
8.1744933838
 21
6.9390978698
  0
LINE
  5
416
100
AcDbEntity
  8
SCHEME_DIMS
100
AcDbLine
 62
2
  6
CONTINUOUS
 10
8.1744933838
 20
8.5032512874
 11
8.1744933838
 21
7.3890978698
  0
INSERT
  5
417
100
AcDbEntity
  8
SCHEME_DIMS
100
AcDbBlockReference
 62
2
  6
CONTINUOUS
  2
_FILLED
 10
8.1744933838
 20
5.8266070275
 41
0.1875
 42
0.1875
 43
0.1875
 50
270.0
  0
INSERT
  5
418
100
AcDbEntity
  8
SCHEME_DIMS
100
AcDbBlockReference
 62
2
  6
CONTINUOUS
  2
_FILLED
 10
8.1744933838
 20
8.5032512874
 41
0.1875
 42
0.1875
 43
0.1875
 50
90.0
  0
ENDBLK
  5
419
100
AcDbEntity
  8
0
  6
BYBLOCK
 62
0
100
AcDbBlockEnd
  0
BLOCK
  5
41A
100
AcDbEntity
  8
SCHEME_DIMS
100
AcDbBlockBegin
 62
2
  6
CONTINUOUS
  2
*D6
 70
65
 10
0.0
 20
0.0
  3
*D6
  1

  0
MTEXT
  5
41B
100
AcDbEntity
  8
SCHEME_DIMS
100
AcDbMText
 62
2
  6
CONTINUOUS
  7
STANDARD
 71
2
 72
1
 10
8.4994933838
 20
8.3694173464
 30
0.0
 11
1.0
 21
0.0
 31
0.0
 44
0.9
  1
13,1\P[.52]
 40
0.1
 41
0.5
  0
LINE
  5
41C
100
AcDbEntity
  8
SCHEME_DIMS
100
AcDbLine
 62
2
  6
CONTINUOUS
 10
8.9615382555
 20
7.9855834055
 11
8.4244933838
 21
7.9855834055
  0
LINE
  5
41D
100
AcDbEntity
  8
SCHEME_DIMS
100
AcDbLine
 62
2
  6
CONTINUOUS
 10
9.4318752736
 20
8.5032512874
 11
8.4244933838
 21
8.5032512874
  0
LINE
  5
41E
100
AcDbEntity
  8
SCHEME_DIMS
100
AcDbLine
 62
2
  6
CONTINUOUS
 10
8.5494933838
 20
7.9855834055
 11
8.5494933838
 21
7.5855834055
  0
LINE
  5
41F
100
AcDbEntity
  8
SCHEME_DIMS
100
AcDbLine
 62
2
  6
CONTINUOUS
 10
8.5494933838
 20
8.5032512874
 11
8.5494933838
 21
8.9032512874
  0
INSERT
  5
420
100
AcDbEntity
  8
SCHEME_DIMS
100
AcDbBlockReference
 62
2
  6
CONTINUOUS
  2
_FILLED
 10
8.5494933838
 20
7.9855834055
 41
0.1875
 42
0.1875
 43
0.1875
 50
90.0
  0
INSERT
  5
421
100
AcDbEntity
  8
SCHEME_DIMS
100
AcDbBlockReference
 62
2
  6
CONTINUOUS
  2
_FILLED
 10
8.5494933838
 20
8.5032512874
 41
0.1875
 42
0.1875
 43
0.1875
 50
270.0
  0
ENDBLK
  5
422
100
AcDbEntity
  8
0
  6
BYBLOCK
 62
0
100
AcDbBlockEnd
  0
BLOCK
  5
423
100
AcDbEntity
  8
SCHEME_DIMS
100
AcDbBlockBegin
 62
2
  6
CONTINUOUS
  2
*D7
 70
65
 10
0.0
 20
0.0
  3
*D7
  1

  0
MTEXT
  5
424
100
AcDbEntity
  8
SCHEME_DIMS
100
AcDbMText
 62
2
  6
CONTINUOUS
  7
STANDARD
 71
2
 72
1
 10
2.0919355283
 20
2.6800199541
 30
0.0
 11
1.0
 21
0.0
 31
0.0
 44
0.9
  1
20\P[.79]
 40
0.1
 41
0.5
  0
LINE
  5
425
100
AcDbEntity
  8
SCHEME_DIMS
100
AcDbLine
 62
2
  6
CONTINUOUS
 10
2.6349491084
 20
3.4473467258
 11
2.6349491084
 21
2.5050199541
  0
LINE
  5
426
100
AcDbEntity
  8
SCHEME_DIMS
100
AcDbLine
 62
2
  6
CONTINUOUS
 10
1.8489219482
 20
3.6683061675
 11
1.8489219482
 21
2.5050199541
  0
LINE
  5
427
100
AcDbEntity
  8
SCHEME_DIMS
100
AcDbLine
 62
2
  6
CONTINUOUS
 10
2.6349491084
 20
2.6300199541
 11
3.0349491084
 21
2.6300199541
  0
LINE
  5
428
100
AcDbEntity
  8
SCHEME_DIMS
100
AcDbLine
 62
2
  6
CONTINUOUS
 10
1.8489219482
 20
2.6300199541
 11
1.4489219482
 21
2.6300199541
  0
INSERT
  5
429
100
AcDbEntity
  8
SCHEME_DIMS
100
AcDbBlockReference
 62
2
  6
CONTINUOUS
  2
_FILLED
 10
2.6349491084
 20
2.6300199541
 41
0.1875
 42
0.1875
 43
0.1875
 50
180.0
  0
INSERT
  5
42A
100
AcDbEntity
  8
SCHEME_DIMS
100
AcDbBlockReference
 62
2
  6
CONTINUOUS
  2
_FILLED
 10
1.8489219482
 20
2.6300199541
 41
0.1875
 42
0.1875
 43
0.1875
  0
ENDBLK
  5
42B
100
AcDbEntity
  8
0
  6
BYBLOCK
 62
0
100
AcDbBlockEnd
  0
BLOCK
  5
42C
100
AcDbEntity
  8
SCHEME_DIMS
100
AcDbBlockBegin
 62
2
  6
CONTINUOUS
  2
*D8
 70
65
 10
0.0
 20
0.0
  3
*D8
  1

  0
MTEXT
  5
42D
100
AcDbEntity
  8
SCHEME_DIMS
100
AcDbMText
 62
2
  6
CONTINUOUS
  7
STANDARD
 71
3
 72
1
 10
1.2207952482
 20
8.9895714136
 30
0.0
 11
1.0
 21
0.0
 31
0.0
 44
0.9
  1
7,4\P[.29]
 40
0.1
 41
0.5
  0
LINE
  5
42E
100
AcDbEntity
  8
SCHEME_DIMS
100
AcDbLine
 62
2
  6
CONTINUOUS
 10
2.1388861163
 20
8.256351122
 11
2.1388861163
 21
9.0645714136
  0
LINE
  5
42F
100
AcDbEntity
  8
SCHEME_DIMS
100
AcDbLine
 62
2
  6
CONTINUOUS
 10
1.8489219482
 20
8.3448274506
 11
1.8489219482
 21
9.0645714136
  0
LINE
  5
430
100
AcDbEntity
  8
SCHEME_DIMS
100
AcDbLine
 62
2
  6
CONTINUOUS
 10
2.1388861163
 20
8.9395714136
 11
2.5388861163
 21
8.9395714136
  0
LINE
  5
431
100
AcDbEntity
  8
SCHEME_DIMS
100
AcDbLine
 62
2
  6
CONTINUOUS
 10
1.8489219482
 20
8.9395714136
 11
1.5207952482
 21
8.9395714136
  0
INSERT
  5
432
100
AcDbEntity
  8
SCHEME_DIMS
100
AcDbBlockReference
 62
2
  6
CONTINUOUS
  2
_FILLED
 10
2.1388861163
 20
8.9395714136
 41
0.1875
 42
0.1875
 43
0.1875
 50
180.0
  0
INSERT
  5
433
100
AcDbEntity
  8
SCHEME_DIMS
100
AcDbBlockReference
 62
2
  6
CONTINUOUS
  2
_FILLED
 10
1.8489219482
 20
8.9395714136
 41
0.1875
 42
0.1875
 43
0.1875
  0
ENDBLK
  5
434
100
AcDbEntity
  8
0
  6
BYBLOCK
 62
0
100
AcDbBlockEnd
  0
ENDSEC
  0
SECTION
  2
ENTITIES
  0
MTEXT
  5
435
100
AcDbEntity
  8
0
100
AcDbMText
 62
2
  6
CONTINUOUS
  7
TEXTSTYLE_2
 71
2
 72
1
 10
11.0287658475
 20
1.794867839
 30
0.0
 11
1.0
 21
0.0
 31
0.0
 44
0.9
  1
THIRD ANGLE PROJECTION
 40
0.1
 41
1.76
  0
MTEXT
  5
436
100
AcDbEntity
  8
0
100
AcDbMText
 62
2
  6
CONTINUOUS
  7
STANDARD
 71
1
 72
1
 10
12.88
 20
1.457
 30
0.0
 11
1.0
 21
0.0
 31
0.0
 44
0.9
  1
DRAWING NO.
 40
0.08
 41
0.88
  0
MTEXT
  5
437
100
AcDbEntity
  8
0
100
AcDbMText
 62
2
  6
CONTINUOUS
  7
TEXTSTYLE_3
 71
2
 72
1
 10
11.03
 20
2.516432
 30
0.0
 11
1.0
 21
0.0
 31
0.0
 44
0.9
  1
and is proprietary in general
 40
0.08
 41
1.972
  0
MTEXT
  5
438
100
AcDbEntity
  8
0
100
AcDbMText
 62
2
  6
CONTINUOUS
  7
TEXTSTYLE_3
 71
2
 72
1
 10
11.03
 20
2.396432
 30
0.0
 11
1.0
 21
0.0
 31
0.0
 44
0.9
  1
and in detail.  Its contents
 40
0.08
 41
1.904
  0
MTEXT
  5
439
100
AcDbEntity
  8
0
100
AcDbMText
 62
2
  6
CONTINUOUS
  7
TEXTSTYLE_3
 71
2
 72
1
 10
11.03
 20
2.276432
 30
0.0
 11
1.0
 21
0.0
 31
0.0
 44
0.9
  1
shall not be revealed to
 40
0.08
 41
1.632
  0
MTEXT
  5
43A
100
AcDbEntity
  8
0
100
AcDbMText
 62
2
  6
CONTINUOUS
  7
TEXTSTYLE_3
 71
2
 72
1
 10
11.03
 20
2.156432
 30
0.0
 11
1.0
 21
0.0
 31
0.0
 44
0.9
  1
outside parties without
 40
0.08
 41
1.564
  0
MTEXT
  5
43B
100
AcDbEntity
  8
0
100
AcDbMText
 62
2
  6
CONTINUOUS
  7
TEXTSTYLE_3
 71
2
 72
1
 10
11.03
 20
2.036432
 30
0.0
 11
1.0
 21
0.0
 31
0.0
 44
0.9
  1
written consent of BANNER.
 40
0.08
 41
1.768
  0
MTEXT
  5
43C
100
AcDbEntity
  8
0
100
AcDbMText
 62
2
  6
CONTINUOUS
  7
TEXTSTYLE_2
 71
1
 72
1
 10
12.08
 20
2.217
 30
0.0
 11
1.0
 21
0.0
 31
0.0
 44
0.9
  1
TITLE
 40
0.1
 41
0.4
  0
MTEXT
  5
43D
100
AcDbEntity
  8
0
100
AcDbMText
 62
2
  6
CONTINUOUS
  7
STANDARD
 71
1
 72
1
 10
12.08
 20
1.457
 30
0.0
 11
1.0
 21
0.0
 31
0.0
 44
0.9
  1
SIZE
 40
0.08
 41
0.32
  0
MTEXT
  5
43E
100
AcDbEntity
  8
0
100
AcDbMText
 62
2
  6
CONTINUOUS
  7
STANDARD
 71
1
 72
1
 10
12.08
 20
1.087
 30
0.0
 11
1.0
 21
0.0
 31
0.0
 44
0.9
  1
SCALE
 40
0.08
 41
0.4
  0
MTEXT
  5
43F
100
AcDbEntity
  8
0
100
AcDbMText
 62
2
  6
CONTINUOUS
  7
TEXTSTYLE_2
 71
2
 72
1
 10
12.5
 20
1.337
 30
0.0
 11
1.0
 21
0.0
 31
0.0
 44
0.9
  1
B
 40
0.1
 41
0.08
  0
MTEXT
  5
440
100
AcDbEntity
  8
0
100
AcDbMText
 62
2
  6
CONTINUOUS
  7
TEXTSTYLE_3
 71
2
 72
1
 10
11.03
 20
2.636432
 30
0.0
 11
1.0
 21
0.0
 31
0.0
 44
0.9
  1
of BANNER ENGINEERING CORP.
 40
0.08
 41
1.836
  0
MTEXT
  5
441
100
AcDbEntity
  8
0
100
AcDbMText
 62
2
  6
CONTINUOUS
  7
TEXTSTYLE_3
 71
2
 72
1
 10
11.03
 20
2.756432
 30
0.0
 11
1.0
 21
0.0
 31
0.0
 44
0.9
  1
This drawing is the property
 40
0.08
 41
1.904
  0
MTEXT
  5
442
100
AcDbEntity
  8
0
100
AcDbMText
 62
2
  6
CONTINUOUS
  7
TEXTSTYLE_2
 71
2
 72
1
 10
15.03
 20
2.4134
 30
0.0
 11
1.0
 21
0.0
 31
0.0
 44
0.9
  1
MINNEAPOLIS, MN 55440
 40
0.1
 41
1.68
  0
MTEXT
  5
443
100
AcDbEntity
  8
0
100
AcDbMText
 62
2
  6
CONTINUOUS
  7
STANDARD
 71
1
 72
1
 10
14.255
 20
1.087
 30
0.0
 11
1.0
 21
0.0
 31
0.0
 44
0.9
  1
SHEET
 40
0.08
 41
0.4
  0
MTEXT
  5
444
100
AcDbEntity
  8
0
100
AcDbMText
 62
2
  6
CONTINUOUS
  7
STANDARD
 71
1
 72
1
 10
15.63
 20
1.457
 30
0.0
 11
1.0
 21
0.0
 31
0.0
 44
0.9
  1
REV.
 40
0.08
 41
0.32
  0
MTEXT
  5
445
100
AcDbEntity
  8
0
100
AcDbMText
 62
2
  6
CONTINUOUS
  7
STANDARD
 71
3
 72
1
 10
16.38
 20
0.835443
 30
0.0
 11
1.0
 21
0.0
 31
0.0
 44
0.9
  1
PRO/E
 40
0.07
 41
0.35
  0
MTEXT
  5
446
100
AcDbEntity
  8
0
100
AcDbMText
 62
2
  6
CONTINUOUS
  7
TEXTSTYLE_4
 71
2
 72
1
 10
15.03
 20
2.751049
 30
0.0
 11
1.0
 21
0.0
 31
0.0
 44
0.9
  1
BANNER ENGINEERING CORP.
 40
0.12
 41
2.6496
  0
MTEXT
  5
447
100
AcDbEntity
  8
0
100
AcDbMText
 62
2
  6
CONTINUOUS
  7
TEXTSTYLE_2
 71
2
 72
1
 10
15.03
 20
2.5724
 30
0.0
 11
1.0
 21
0.0
 31
0.0
 44
0.9
  1
P.O. BOX 9414
 40
0.1
 41
1.04
  0
MTEXT
  5
448
100
AcDbEntity
  8
0
100
AcDbMText
 62
2
  6
CONTINUOUS
  7
TEXTSTYLE_2
 71
2
 72
1
 10
9.485
 20
10.312
 30
0.0
 11
1.0
 21
0.0
 31
0.0
 44
0.9
  1
4
 40
0.1
 41
0.08
  0
MTEXT
  5
449
100
AcDbEntity
  8
0
100
AcDbMText
 62
2
  6
CONTINUOUS
  7
TEXTSTYLE_2
 71
2
 72
1
 10
11.455
 20
10.312
 30
0.0
 11
1.0
 21
0.0
 31
0.0
 44
0.9
  1
3
 40
0.1
 41
0.08
  0
MTEXT
  5
44A
100
AcDbEntity
  8
0
100
AcDbMText
 62
2
  6
CONTINUOUS
  7
TEXTSTYLE_2
 71
2
 72
1
 10
13.425
 20
10.312
 30
0.0
 11
1.0
 21
0.0
 31
0.0
 44
0.9
  1
2
 40
0.1
 41
0.08
  0
MTEXT
  5
44B
100
AcDbEntity
  8
0
100
AcDbMText
 62
2
  6
CONTINUOUS
  7
TEXTSTYLE_2
 71
2
 72
1
 10
15.395
 20
10.312
 30
0.0
 11
1.0
 21
0.0
 31
0.0
 44
0.9
  1
1
 40
0.1
 41
0.08
  0
MTEXT
  5
44C
100
AcDbEntity
  8
0
100
AcDbMText
 62
2
  6
CONTINUOUS
  7
TEXTSTYLE_2
 71
2
 72
1
 10
3.575
 20
10.312
 30
0.0
 11
1.0
 21
0.0
 31
0.0
 44
0.9
  1
7
 40
0.1
 41
0.08
  0
MTEXT
  5
44D
100
AcDbEntity
  8
0
100
AcDbMText
 62
2
  6
CONTINUOUS
  7
TEXTSTYLE_2
 71
2
 72
1
 10
5.545
 20
10.312
 30
0.0
 11
1.0
 21
0.0
 31
0.0
 44
0.9
  1
6
 40
0.1
 41
0.08
  0
MTEXT
  5
44E
100
AcDbEntity
  8
0
100
AcDbMText
 62
2
  6
CONTINUOUS
  7
TEXTSTYLE_2
 71
2
 72
1
 10
7.515
 20
10.312
 30
0.0
 11
1.0
 21
0.0
 31
0.0
 44
0.9
  1
5
 40
0.1
 41
0.08
  0
MTEXT
  5
44F
100
AcDbEntity
  8
0
100
AcDbMText
 62
2
  6
CONTINUOUS
  7
TEXTSTYLE_2
 71
2
 72
1
 10
1.605
 20
10.312
 30
0.0
 11
1.0
 21
0.0
 31
0.0
 44
0.9
  1
8
 40
0.1
 41
0.08
  0
MTEXT
  5
450
100
AcDbEntity
  8
0
100
AcDbMText
 62
2
  6
CONTINUOUS
  7
TEXTSTYLE_2
 71
2
 72
1
 10
1.605
 20
0.787
 30
0.0
 11
1.0
 21
0.0
 31
0.0
 44
0.9
  1
8
 40
0.1
 41
0.08
  0
MTEXT
  5
451
100
AcDbEntity
  8
0
100
AcDbMText
 62
2
  6
CONTINUOUS
  7
TEXTSTYLE_2
 71
2
 72
1
 10
3.575
 20
0.787
 30
0.0
 11
1.0
 21
0.0
 31
0.0
 44
0.9
  1
7
 40
0.1
 41
0.08
  0
MTEXT
  5
452
100
AcDbEntity
  8
0
100
AcDbMText
 62
2
  6
CONTINUOUS
  7
TEXTSTYLE_2
 71
2
 72
1
 10
5.545
 20
0.787
 30
0.0
 11
1.0
 21
0.0
 31
0.0
 44
0.9
  1
6
 40
0.1
 41
0.08
  0
MTEXT
  5
453
100
AcDbEntity
  8
0
100
AcDbMText
 62
2
  6
CONTINUOUS
  7
TEXTSTYLE_2
 71
2
 72
1
 10
7.515
 20
0.787
 30
0.0
 11
1.0
 21
0.0
 31
0.0
 44
0.9
  1
5
 40
0.1
 41
0.08
  0
MTEXT
  5
454
100
AcDbEntity
  8
0
100
AcDbMText
 62
2
  6
CONTINUOUS
  7
TEXTSTYLE_2
 71
2
 72
1
 10
9.485
 20
0.787
 30
0.0
 11
1.0
 21
0.0
 31
0.0
 44
0.9
  1
4
 40
0.1
 41
0.08
  0
MTEXT
  5
455
100
AcDbEntity
  8
0
100
AcDbMText
 62
2
  6
CONTINUOUS
  7
TEXTSTYLE_2
 71
2
 72
1
 10
11.455
 20
0.787
 30
0.0
 11
1.0
 21
0.0
 31
0.0
 44
0.9
  1
3
 40
0.1
 41
0.08
  0
MTEXT
  5
456
100
AcDbEntity
  8
0
100
AcDbMText
 62
2
  6
CONTINUOUS
  7
TEXTSTYLE_2
 71
2
 72
1
 10
13.425
 20
0.787
 30
0.0
 11
1.0
 21
0.0
 31
0.0
 44
0.9
  1
2
 40
0.1
 41
0.08
  0
MTEXT
  5
457
100
AcDbEntity
  8
0
100
AcDbMText
 62
2
  6
CONTINUOUS
  7
TEXTSTYLE_2
 71
2
 72
1
 10
15.395
 20
0.787
 30
0.0
 11
1.0
 21
0.0
 31
0.0
 44
0.9
  1
1
 40
0.1
 41
0.08
  0
MTEXT
  5
458
100
AcDbEntity
  8
0
100
AcDbMText
 62
2
  6
CONTINUOUS
  7
TEXTSTYLE_2
 71
3
 72
1
 10
0.52
 20
4.3995
 30
0.0
 11
1.0
 21
0.0
 31
0.0
 44
0.9
  1
B
 40
0.1
 41
0.08
  0
MTEXT
  5
459
100
AcDbEntity
  8
0
100
AcDbMText
 62
2
  6
CONTINUOUS
  7
TEXTSTYLE_2
 71
3
 72
1
 10
0.52
 20
2.0995
 30
0.0
 11
1.0
 21
0.0
 31
0.0
 44
0.9
  1
A
 40
0.1
 41
0.08
  0
MTEXT
  5
45A
100
AcDbEntity
  8
0
100
AcDbMText
 62
2
  6
CONTINUOUS
  7
TEXTSTYLE_2
 71
3
 72
1
 10
0.52
 20
8.9995
 30
0.0
 11
1.0
 21
0.0
 31
0.0
 44
0.9
  1
D
 40
0.1
 41
0.08
  0
MTEXT
  5
45B
100
AcDbEntity
  8
0
100
AcDbMText
 62
2
  6
CONTINUOUS
  7
TEXTSTYLE_2
 71
3
 72
1
 10
0.52
 20
6.6995
 30
0.0
 11
1.0
 21
0.0
 31
0.0
 44
0.9
  1
C
 40
0.1
 41
0.08
  0
MTEXT
  5
45C
100
AcDbEntity
  8
0
100
AcDbMText
 62
2
  6
CONTINUOUS
  7
TEXTSTYLE_2
 71
1
 72
1
 10
16.48
 20
8.9995
 30
0.0
 11
1.0
 21
0.0
 31
0.0
 44
0.9
  1
D
 40
0.1
 41
0.08
  0
MTEXT
  5
45D
100
AcDbEntity
  8
0
100
AcDbMText
 62
2
  6
CONTINUOUS
  7
TEXTSTYLE_2
 71
1
 72
1
 10
16.48
 20
6.6995
 30
0.0
 11
1.0
 21
0.0
 31
0.0
 44
0.9
  1
C
 40
0.1
 41
0.08
  0
MTEXT
  5
45E
100
AcDbEntity
  8
0
100
AcDbMText
 62
2
  6
CONTINUOUS
  7
TEXTSTYLE_2
 71
1
 72
1
 10
16.48
 20
4.3995
 30
0.0
 11
1.0
 21
0.0
 31
0.0
 44
0.9
  1
B
 40
0.1
 41
0.08
  0
MTEXT
  5
45F
100
AcDbEntity
  8
0
100
AcDbMText
 62
2
  6
CONTINUOUS
  7
TEXTSTYLE_2
 71
1
 72
1
 10
16.48
 20
2.0995
 30
0.0
 11
1.0
 21
0.0
 31
0.0
 44
0.9
  1
A
 40
0.1
 41
0.08
  0
MTEXT
  5
460
100
AcDbEntity
  8
0
100
AcDbMText
 62
2
  6
CONTINUOUS
  7
STANDARD
 71
1
 72
1
 10
14.819264911
 20
1.0627941725
 30
0.0
 11
1.0
 21
0.0
 31
0.0
 44
0.9
  1
1 OF 1
 40
0.1
 41
0.6
  0
MTEXT
  5
461
100
AcDbEntity
  8
0
100
AcDbMText
 62
7
  6
CONTINUOUS
  7
STANDARD
 71
1
 72
1
 10
13.8911999818
 20
1.3747321586
 30
0.0
 11
1.0
 21
0.0
 31
0.0
 44
0.9
  1
155372
 40
0.12
 41
0.72
  0
MTEXT
  5
462
100
AcDbEntity
  8
0
100
AcDbMText
 62
2
  6
CONTINUOUS
  7
STANDARD
 71
1
 72
1
 10
12.644264911
 20
1.0627941725
 30
0.0
 11
1.0
 21
0.0
 31
0.0
 44
0.9
  1
1:1
 40
0.1
 41
0.3
  0
MTEXT
  5
463
100
AcDbEntity
  8
0
100
AcDbMText
 62
2
  6
CONTINUOUS
  7
STANDARD
 71
1
 72
1
 10
1.0597007627
 20
1.6202922458
 30
0.0
 11
1.0
 21
0.0
 31
0.0
 44
0.9
  1
NOTES:\P1. ALL DIMENSIONS ARE MILLIMETERS [INCHES] UNLESS OTHERWISE NOTED.
 40
0.1
 41
6.6
  0
INSERT
  5
464
100
AcDbEntity
  8
0
100
AcDbBlockReference
 62
2
  6
CONTINUOUS
  2
BANNER_LOGO_TITLEBLOCK_BL0
 10
12.9086867042
 20
2.5403783405
  0
DIMENSION
  5
465
100
AcDbEntity
  8
SCHEME_DIMS
100
AcDbDimension
 62
2
  6
CONTINUOUS
  2
*D0
 10
4.4252553182
 20
8.0566660415
 11
6.0146569652
 21
8.9172054958
 70
163
 71
1
 42
5.35
  1
<>
  3
DIMSTYLE_1
100
AcDbDiametricDimension
 15
4.269839749
 25
7.9145007694
  0
DIMENSION
  5
466
100
AcDbEntity
  8
SCHEME_DIMS
100
AcDbDimension
 62
2
  6
CONTINUOUS
  2
*D1
 10
4.3475475336
 20
9.4894684161
 11
3.654771943
 21
9.4144684161
 70
160
 71
2
 42
28.843
  3
DIMSTYLE_2
100
AcDbAlignedDimension
 13
3.2119963525
 23
8.559250712
 14
4.3475475336
 24
9.1734053242
100
AcDbRotatedDimension
  0
DIMENSION
  5
467
100
AcDbEntity
  8
SCHEME_DIMS
100
AcDbDimension
 62
2
  6
CONTINUOUS
  2
*D2
 10
4.3475475336
 20
7.9855834055
 11
6.3201444319
 21
7.1445973913
 70
164
 71
1
 42
25.5
  1
<>
  3
DIMSTYLE_3
100
AcDbRadialDimension
 15
5.2242141637
 25
7.4963542818
  0
DIMENSION
  5
468
100
AcDbEntity
  8
SCHEME_DIMS
100
AcDbDimension
 62
2
  6
CONTINUOUS
  2
*D3
 10
5.8514845415
 20
4.539468773
 11
5.7264845415
 21
3.8347443636
 70
160
 71
2
 42
35.8
  3
DIMSTYLE_2
100
AcDbAlignedDimension
 13
5.4139845415
 23
3.1300199541
 14
3.2411649096
 24
4.539468773
 50
90.0
100
AcDbRotatedDimension
  0
DIMENSION
  5
469
100
AcDbEntity
  8
SCHEME_DIMS
100
AcDbDimension
 62
2
  6
CONTINUOUS
  2
*D4
 10
5.3514845415
 20
2.2550199541
 11
3.5252032448
 21
2.1800199541
 70
160
 71
2
 42
88.9650898701
  3
DIMSTYLE_2
100
AcDbAlignedDimension
 13
1.8489219482
 23
3.627068887
 14
5.3514845415
 24
3.0507962857
100
AcDbRotatedDimension
  0
DIMENSION
  5
46A
100
AcDbEntity
  8
SCHEME_DIMS
100
AcDbDimension
 62
2
  6
CONTINUOUS
  2
*D5
 10
8.1744933838
 20
8.5032512874
 11
8.0994933838
 21
7.1640978698
 70
160
 71
2
 42
67.9867642005
  3
DIMSTYLE_2
100
AcDbAlignedDimension
 13
9.2296154311
 23
5.8266070275
 14
9.4318752736
 24
8.5032512874
 50
90.0
100
AcDbRotatedDimension
  0
DIMENSION
  5
46B
100
AcDbEntity
  8
SCHEME_DIMS
100
AcDbDimension
 62
2
  6
CONTINUOUS
  2
*D6
 10
8.5494933838
 20
8.5032512874
 11
8.4244933838
 21
8.2444173464
 70
160
 71
2
 42
13.1487642005
  3
DIMSTYLE_2
100
AcDbAlignedDimension
 13
8.9615382555
 23
7.9855834055
 14
9.4318752736
 24
8.5032512874
 50
90.0
100
AcDbRotatedDimension
  0
DIMENSION
  5
46C
100
AcDbEntity
  8
SCHEME_DIMS
100
AcDbDimension
 62
2
  6
CONTINUOUS
  2
*D7
 10
1.8489219482
 20
2.6300199541
 11
2.1669355283
 21
2.5550199541
 70
160
 71
2
 42
19.9650898701
  3
DIMSTYLE_2
100
AcDbAlignedDimension
 13
2.6349491084
 23
3.4473467258
 14
1.8489219482
 24
3.6683061675
 50
180.0
100
AcDbRotatedDimension
  0
DIMENSION
  5
46D
100
AcDbEntity
  8
SCHEME_DIMS
100
AcDbDimension
 62
2
  6
CONTINUOUS
  2
*D8
 10
1.8489219482
 20
8.9395714136
 11
0.9707952482
 21
8.8645714136
 70
160
 71
3
 42
7.3650898701
  3
DIMSTYLE_2
100
AcDbAlignedDimension
 13
2.1388861163
 23
8.256351122
 14
1.8489219482
 24
8.3448274506
 50
180.0
100
AcDbRotatedDimension
  0
LINE
  5
46E
100
AcDbEntity
  8
0
100
AcDbLine
 62
2
  6
CONTINUOUS
 10
16.38
 20
0.887
 11
12.03
 21
0.887
  0
LINE
  5
46F
100
AcDbEntity
  8
0
100
AcDbLine
 62
2
  6
CONTINUOUS
 10
16.38
 20
0.887
 11
16.38
 21
2.807
  0
LINE
  5
470
100
AcDbEntity
  8
0
100
AcDbLine
 62
2
  6
CONTINUOUS
 10
16.38
 20
2.807
 11
12.03
 21
2.807
  0
LINE
  5
471
100
AcDbEntity
  8
0
100
AcDbLine
 62
2
  6
CONTINUOUS
 10
12.03
 20
0.887
 11
12.03
 21
2.807
  0
MTEXT
  5
472
100
AcDbEntity
  8
NOTES
100
AcDbMText
 62
7
  6
CONTINUOUS
  7
STANDARD
 71
2
 72
1
 10
14.205
 20
1.967
 30
0.0
 11
1.0
 21
0.0
 31
0.0
 44
0.9
  1
SMB50RFAM10\PWEB CAD DRAWINGS 2D/3D
 40
0.1
 41
2.2
  0
MTEXT
  5
473
100
AcDbEntity
  8
NOTES
100
AcDbMText
 62
2
  6
CONTINUOUS
  7
STANDARD
 71
2
 72
1
 10
13.5187370954
 20
4.8351712137
 30
0.0
 11
1.0
 21
0.0
 31
0.0
 44
0.9
  1
ISOMETRIC VIEW\P\H0.1;SCALE  1:1
 40
0.12
 41
1.68
  0
LEADER
  5
474
100
AcDbEntity
  8
NOTES
100
AcDbLeader
 62
2
  6
CONTINUOUS
  3
STANDARD
 71
1
 72
0
 73
0
 75
0
 40
0.1
 41
2.8
 76
3
 10
2.8319491084
 20
7.1458923113
 30
0.0
 10
3.6110426309
 20
6.4737840907
 30
0.0
 10
3.8610426309
 20
6.4737840907
 30
0.0
340
475
1001
ACAD
1000
DSTYLE
1002
{
1070
77
1070
0
1002
}
  0
MTEXT
  5
475
102
{ACAD_REACTORS
330
474
102
}
100
AcDbEntity
  8
NOTES
100
AcDbMText
 62
2
  6
CONTINUOUS
  7
STANDARD
 71
1
 72
1
 10
3.8610426309
 20
6.5237840907
 30
0.0
 11
1.0
 21
0.0
 31
0.0
 44
0.9
  1
M10 X 1.5 X 50mm LENGTH SHCS
 40
0.1
 41
2.8
  0
LEADER
  5
476
100
AcDbEntity
  8
NOTES
100
AcDbLeader
 62
2
  6
CONTINUOUS
  3
STANDARD
 71
1
 72
0
 73
0
 75
0
 40
0.1
 41
2.6
 76
3
 10
2.0300229346
 20
4.4490671982
 30
0.0
 10
2.3600330595
 20
5.1002984314
 30
0.0
 10
2.6100330595
 20
5.1002984314
 30
0.0
340
477
1001
ACAD
1000
DSTYLE
1002
{
1070
77
1070
0
1002
}
  0
MTEXT
  5
477
102
{ACAD_REACTORS
330
476
102
}
100
AcDbEntity
  8
NOTES
100
AcDbMText
 62
2
  6
CONTINUOUS
  7
STANDARD
 71
1
 72
1
 10
2.6100330595
 20
5.1502984314
 30
0.0
 11
1.0
 21
0.0
 31
0.0
 44
0.9
  1
M5 X .8 X 18mm LENGTH SHCS
 40
0.1
 41
2.6
  0
LINE
  5
478
100
AcDbEntity
  8
0
100
AcDbLine
 62
2
  6
CONTINUOUS
 10
0.47
 20
5.586103
 11
0.47
 21
5.412897
  0
LINE
  5
479
100
AcDbEntity
  8
0
100
AcDbLine
 62
2
  6
CONTINUOUS
 10
0.62
 20
10.112
 11
0.62
 21
0.887
  0
LINE
  5
47A
100
AcDbEntity
  8
0
100
AcDbLine
 62
2
  6
CONTINUOUS
 10
2.59
 20
0.887
 11
2.59
 21
0.637
  0
LINE
  5
47B
100
AcDbEntity
  8
0
100
AcDbLine
 62
2
  6
CONTINUOUS
 10
2.59
 20
10.112
 11
2.59
 21
10.362
  0
LINE
  5
47C
100
AcDbEntity
  8
0
100
AcDbLine
 62
2
  6
CONTINUOUS
 10
8.413397
 20
0.737
 11
8.586603
 21
0.737
  0
LINE
  5
47D
100
AcDbEntity
  8
0
100
AcDbLine
 62
7
  6
CONTINUOUS
 10
11.1389508475
 20
1.425992839
 11
11.7453418475
 21
1.495385839
  0
LINE
  5
47E
100
AcDbEntity
  8
0
100
AcDbLine
 62
2
  6
CONTINUOUS
 10
0.62
 20
0.887
 11
16.38
 21
0.887
  0
LINE
  5
47F
100
AcDbEntity
  8
0
100
AcDbLine
 62
2
  6
CONTINUOUS
 10
12.03
 20
1.137
 11
16.38
 21
1.137
  0
LINE
  5
480
100
AcDbEntity
  8
0
100
AcDbLine
 62
7
  6
CONTINUOUS
 10
10.2121898475
 20
1.243294839
 11
10.4342808475
 21
1.243294839
  0
LINE
  5
481
100
AcDbEntity
  8
0
100
AcDbLine
 62
7
  6
CONTINUOUS
 10
10.4842808475
 20
1.243294839
 11
10.5842808475
 21
1.243294839
  0
LINE
  5
482
100
AcDbEntity
  8
0
100
AcDbLine
 62
7
  6
CONTINUOUS
 10
10.6342808475
 20
1.243294839
 11
10.8563718475
 21
1.243294839
  0
LINE
  5
483
100
AcDbEntity
  8
0
100
AcDbLine
 62
7
  6
CONTINUOUS
 10
11.0389508475
 20
1.243294839
 11
11.3171028475
 21
1.243294839
  0
LINE
  5
484
100
AcDbEntity
  8
0
100
AcDbLine
 62
7
  6
CONTINUOUS
 10
11.3671028475
 20
1.243294839
 11
11.5171888475
 21
1.243294839
  0
LINE
  5
485
100
AcDbEntity
  8
0
100
AcDbLine
 62
7
  6
CONTINUOUS
 10
11.5671888475
 20
1.243294839
 11
11.8453418475
 21
1.243294839
  0
LINE
  5
486
100
AcDbEntity
  8
0
100
AcDbLine
 62
7
  6
CONTINUOUS
 10
11.7453418475
 20
0.991203839
 11
11.1389508475
 21
1.060596839
  0
LINE
  5
487
100
AcDbEntity
  8
0
100
AcDbLine
 62
2
  6
CONTINUOUS
 10
4.56
 20
0.887
 11
4.56
 21
0.637
  0
LINE
  5
488
100
AcDbEntity
  8
0
100
AcDbLine
 62
2
  6
CONTINUOUS
 10
4.56
 20
10.112
 11
4.56
 21
10.362
  0
LINE
  5
489
100
AcDbEntity
  8
0
100
AcDbLine
 62
2
  6
CONTINUOUS
 10
0.47
 20
5.412897
 11
0.62
 21
5.4995
  0
LINE
  5
48A
100
AcDbEntity
  8
0
100
AcDbLine
 62
2
  6
CONTINUOUS
 10
12.03
 20
1.507
 11
16.38
 21
1.507
  0
LINE
  5
48B
100
AcDbEntity
  8
0
100
AcDbLine
 62
2
  6
CONTINUOUS
 10
10.03
 20
1.907
 11
12.03
 21
1.907
  0
LINE
  5
48C
100
AcDbEntity
  8
0
100
AcDbLine
 62
2
  6
CONTINUOUS
 10
0.62
 20
5.4995
 11
0.47
 21
5.586103
  0
LINE
  5
48D
100
AcDbEntity
  8
0
100
AcDbLine
 62
2
  6
CONTINUOUS
 10
12.03
 20
2.267
 11
16.38
 21
2.267
  0
LINE
  5
48E
100
AcDbEntity
  8
0
100
AcDbLine
 62
2
  6
CONTINUOUS
 10
8.5
 20
10.112
 11
8.586603
 21
10.262
  0
LINE
  5
48F
100
AcDbEntity
  8
0
100
AcDbLine
 62
2
  6
CONTINUOUS
 10
16.38
 20
2.807
 11
10.03
 21
2.807
  0
LINE
  5
490
100
AcDbEntity
  8
0
100
AcDbLine
 62
2
  6
CONTINUOUS
 10
0.62
 20
3.1995
 11
0.37
 21
3.1995
  0
LINE
  5
491
100
AcDbEntity
  8
0
100
AcDbLine
 62
2
  6
CONTINUOUS
 10
16.38
 20
3.1995
 11
16.63
 21
3.1995
  0
LINE
  5
492
100
AcDbEntity
  8
0
100
AcDbLine
 62
2
  6
CONTINUOUS
 10
8.586603
 20
0.737
 11
8.5
 21
0.887
  0
LINE
  5
493
100
AcDbEntity
  8
0
100
AcDbLine
 62
2
  6
CONTINUOUS
 10
6.53
 20
0.887
 11
6.53
 21
0.637
  0
LINE
  5
494
100
AcDbEntity
  8
0
100
AcDbLine
 62
2
  6
CONTINUOUS
 10
6.53
 20
10.112
 11
6.53
 21
10.362
  0
LINE
  5
495
100
AcDbEntity
  8
0
100
AcDbLine
 62
2
  6
CONTINUOUS
 10
8.5
 20
0.887
 11
8.5
 21
0.637
  0
LINE
  5
496
100
AcDbEntity
  8
0
100
AcDbLine
 62
2
  6
CONTINUOUS
 10
8.5
 20
10.112
 11
8.5
 21
10.362
  0
LINE
  5
497
100
AcDbEntity
  8
0
100
AcDbLine
 62
2
  6
CONTINUOUS
 10
0.62
 20
5.4995
 11
0.37
 21
5.4995
  0
LINE
  5
498
100
AcDbEntity
  8
0
100
AcDbLine
 62
2
  6
CONTINUOUS
 10
16.38
 20
5.4995
 11
16.63
 21
5.4995
  0
LINE
  5
499
100
AcDbEntity
  8
0
100
AcDbLine
 62
2
  6
CONTINUOUS
 10
10.03
 20
2.807
 11
10.03
 21
0.887
  0
LINE
  5
49A
100
AcDbEntity
  8
0
100
AcDbLine
 62
2
  6
CONTINUOUS
 10
10.47
 20
0.887
 11
10.47
 21
0.637
  0
LINE
  5
49B
100
AcDbEntity
  8
0
100
AcDbLine
 62
2
  6
CONTINUOUS
 10
10.47
 20
10.112
 11
10.47
 21
10.362
  0
LINE
  5
49C
100
AcDbEntity
  8
0
100
AcDbLine
 62
7
  6
CONTINUOUS
 10
10.5342808475
 20
1.143294839
 11
10.5342808475
 21
0.921203839
  0
LINE
  5
49D
100
AcDbEntity
  8
0
100
AcDbLine
 62
7
  6
CONTINUOUS
 10
10.5342808475
 20
1.193294839
 11
10.5342808475
 21
1.293294839
  0
LINE
  5
49E
100
AcDbEntity
  8
0
100
AcDbLine
 62
7
  6
CONTINUOUS
 10
10.5342808475
 20
1.343294839
 11
10.5342808475
 21
1.565385839
  0
LINE
  5
49F
100
AcDbEntity
  8
0
100
AcDbLine
 62
2
  6
CONTINUOUS
 10
8.5
 20
0.887
 11
8.413397
 21
0.737
  0
LINE
  5
4A0
100
AcDbEntity
  8
0
100
AcDbLine
 62
2
  6
CONTINUOUS
 10
0.62
 20
7.7995
 11
0.37
 21
7.7995
  0
LINE
  5
4A1
100
AcDbEntity
  8
0
100
AcDbLine
 62
2
  6
CONTINUOUS
 10
16.38
 20
7.7995
 11
16.63
 21
7.7995
  0
LINE
  5
4A2
100
AcDbEntity
  8
0
100
AcDbLine
 62
2
  6
CONTINUOUS
 10
8.413397
 20
10.262
 11
8.5
 21
10.112
  0
LINE
  5
4A3
100
AcDbEntity
  8
0
100
AcDbLine
 62
7
  6
CONTINUOUS
 10
11.1389508475
 20
1.060596839
 11
11.1389508475
 21
1.425992839
  0
LINE
  5
4A4
100
AcDbEntity
  8
0
100
AcDbLine
 62
7
  6
CONTINUOUS
 10
11.7453418475
 20
1.495385839
 11
11.7453418475
 21
0.991203839
  0
LINE
  5
4A5
100
AcDbEntity
  8
0
100
AcDbLine
 62
1
  6
CONTINUOUS
 10
12.03
 20
2.807
 11
12.03
 21
0.887
  0
LINE
  5
4A6
100
AcDbEntity
  8
0
100
AcDbLine
 62
2
  6
CONTINUOUS
 10
12.44
 20
0.887
 11
12.44
 21
0.637
  0
LINE
  5
4A7
100
AcDbEntity
  8
0
100
AcDbLine
 62
2
  6
CONTINUOUS
 10
12.44
 20
10.112
 11
12.44
 21
10.362
  0
LINE
  5
4A8
100
AcDbEntity
  8
0
100
AcDbLine
 62
2
  6
CONTINUOUS
 10
16.53
 20
5.586103
 11
16.38
 21
5.4995
  0
LINE
  5
4A9
100
AcDbEntity
  8
0
100
AcDbLine
 62
2
  6
CONTINUOUS
 10
16.38
 20
5.4995
 11
16.53
 21
5.412897
  0
LINE
  5
4AA
100
AcDbEntity
  8
0
100
AcDbLine
 62
2
  6
CONTINUOUS
 10
12.83
 20
1.507
 11
12.83
 21
1.137
  0
LINE
  5
4AB
100
AcDbEntity
  8
0
100
AcDbLine
 62
2
  6
CONTINUOUS
 10
16.38
 20
10.112
 11
0.62
 21
10.112
  0
LINE
  5
4AC
100
AcDbEntity
  8
0
100
AcDbLine
 62
2
  6
CONTINUOUS
 10
8.586603
 20
10.262
 11
8.413397
 21
10.262
  0
LINE
  5
4AD
100
AcDbEntity
  8
0
100
AcDbLine
 62
2
  6
CONTINUOUS
 10
14.205
 20
1.137
 11
14.205
 21
0.887
  0
LINE
  5
4AE
100
AcDbEntity
  8
0
100
AcDbLine
 62
2
  6
CONTINUOUS
 10
14.41
 20
0.887
 11
14.41
 21
0.637
  0
LINE
  5
4AF
100
AcDbEntity
  8
0
100
AcDbLine
 62
2
  6
CONTINUOUS
 10
14.41
 20
10.112
 11
14.41
 21
10.362
  0
LINE
  5
4B0
100
AcDbEntity
  8
0
100
AcDbLine
 62
2
  6
CONTINUOUS
 10
15.58
 20
1.507
 11
15.58
 21
1.137
  0
LINE
  5
4B1
100
AcDbEntity
  8
0
100
AcDbLine
 62
2
  6
CONTINUOUS
 10
16.38
 20
0.887
 11
16.38
 21
10.112
  0
LINE
  5
4B2
100
AcDbEntity
  8
0
100
AcDbLine
 62
2
  6
CONTINUOUS
 10
16.53
 20
5.412897
 11
16.53
 21
5.586103
  0
LWPOLYLINE
  5
4B3
100
AcDbEntity
  8
0
100
AcDbPolyline
 62
7
  6
CONTINUOUS
 90
12
 70
0
 10
12.2921576581
 20
7.6624093987
 10
12.261210583
 20
7.6317891554
 10
12.2299967272
 20
7.5941752577
 10
12.2018435882
 20
7.5528070275
 10
12.1774216962
 20
7.5086979049
 10
12.1573288961
 20
7.4629260569
 10
12.1420729607
 20
7.4166078795
 10
12.1320557831
 20
7.370850718
 10
12.1275827775
 20
7.3268047919
 10
12.1288218153
 20
7.2856612651
 10
12.1357672297
 20
7.2484898128
 10
12.1410642725
 20
7.2347997487
  0
LWPOLYLINE
  5
4B4
100
AcDbEntity
  8
0
100
AcDbPolyline
 62
9
  6
CONTINUOUS
 90
17
 70
0
 10
12.295952971
 20
7.6633636614
 10
12.2799559872
 20
7.6483609273
 10
12.264033107
 20
7.6318440853
 10
12.2485822481
 20
7.6141703545
 10
12.2338653111
 20
7.5956569209
 10
12.2198875589
 20
7.5763467217
 10
12.206252533
 20
7.555617746
 10
12.1924721375
 20
7.5323720821
 10
12.1783272836
 20
7.5054490313
 10
12.1641286377
 20
7.4740904897
 10
12.1507125136
 20
7.4381294972
 10
12.139307724
 20
7.3979950886
 10
12.1314394752
 20
7.3550312495
 10
12.1285823858
 20
7.3117666535
 10
12.1314291569
 20
7.2719206458
 10
12.1392860652
 20
7.2383516932
 10
12.1410250108
 20
7.2343042263
  0
LWPOLYLINE
  5
4B5
100
AcDbEntity
  8
02___PRT_ALL_AXES
100
AcDbPolyline
 62
7
  6
CONTINUOUS
 90
6
 70
0
 10
12.140531544
 20
7.2280761873
 10
12.1423255558
 20
7.2507183917
 10
12.147653081
 20
7.2706011247
 10
12.1563522456
 20
7.2871202595
 10
12.1681587297
 20
7.2997738704
 10
12.1751192419
 20
7.3045264396
  0
LWPOLYLINE
  5
4B6
100
AcDbEntity
  8
02___PRT_ALL_AXES
100
AcDbPolyline
 62
7
  6
CONTINUOUS
 90
19
 70
0
 10
12.14053166
 20
7.2119914346
 10
12.1421140428
 20
7.2319626724
 10
12.1468131115
 20
7.2494999572
 10
12.1544860872
 20
7.2640704276
 10
12.1648998303
 20
7.2752313671
 10
12.1777379247
 20
7.2826436563
 10
12.1926102912
 20
7.2860820764
 10
12.2090650406
 20
7.2854421529
 10
12.2266022037
 20
7.2807433295
 10
12.2446889225
 20
7.2721283775
 10
12.2627756413
 20
7.259859058
 10
12.2803128043
 20
7.2443081679
 10
12.2967675537
 20
7.2259482133
 10
12.3116399203
 20
7.205337052
 10
12.3244780147
 20
7.1831009437
 10
12.3348917578
 20
7.1599155214
 10
12.3425647335
 20
7.1364852623
 10
12.3472638021
 20
7.1135220831
 10
12.348846185
 20
7.0917237083
  0
LWPOLYLINE
  5
4B7
100
AcDbEntity
  8
0
100
AcDbPolyline
 62
7
  6
CONTINUOUS
 90
3
 70
0
 10
12.1818914258
 20
7.3084363384
 10
12.1839133021
 20
7.3214796246
 10
12.1886956104
 20
7.3439725943
  0
LWPOLYLINE
  5
4B8
100
AcDbEntity
  8
02___PRT_ALL_AXES
100
AcDbPolyline
 62
7
  6
CONTINUOUS
 90
10
 70
0
 10
12.1405316611
 20
7.2119904224
 10
12.1421140428
 20
7.1901930598
 10
12.1468131115
 20
7.1672298806
 10
12.1544860872
 20
7.1437996216
 10
12.1648998303
 20
7.1206141992
 10
12.1777379247
 20
7.098378091
 10
12.1926102912
 20
7.0777669297
 10
12.2090650406
 20
7.059406975
 10
12.2266022037
 20
7.043856085
 10
12.2446862688
 20
7.0315882975
  0
LINE
  5
4B9
100
AcDbEntity
  8
02___PRT_ALL_AXES
100
AcDbLine
 62
7
  6
CONTINUOUS
 10
12.140531544
 20
7.2280750519
 11
12.14053166
 21
7.2119904331
  0
LINE
  5
4BA
100
AcDbEntity
  8
0
100
AcDbLine
 62
7
  6
CONTINUOUS
 10
12.1753921694
 20
7.2380631387
 11
12.1753921694
 21
7.1456671922
  0
LINE
  5
4BB
100
AcDbEntity
  8
0
100
AcDbLine
 62
7
  6
CONTINUOUS
 10
12.2682584734
 20
7.2149328584
 11
12.2682584734
 21
7.1992832577
  0
LINE
  5
4BC
100
AcDbEntity
  8
0
100
AcDbLine
 62
7
  6
CONTINUOUS
 10
12.4335587991
 20
7.1583801651
 11
12.4320871281
 21
7.1560455435
  0
LINE
  5
4BD
100
AcDbEntity
  8
02___PRT_ALL_AXES
100
AcDbLine
 62
7
  6
CONTINUOUS
 10
12.2488383572
 20
7.3470879366
 11
12.1751192419
 21
7.3045264396
  0
LWPOLYLINE
  5
4BE
100
AcDbEntity
  8
AXIS
100
AcDbPolyline
 62
7
  6
CONTINUOUS
 90
4
 70
0
 10
12.8178138159
 20
5.2031013025
 10
12.8262156167
 20
5.199239965
 10
12.8364393894
 20
5.1964276516
 10
12.8476900681
 20
5.1947338343
  0
LWPOLYLINE
  5
4BF
100
AcDbEntity
  8
AXIS
100
AcDbPolyline
 62
7
  6
CONTINUOUS
 90
11
 70
0
 10
12.703071863
 20
5.2486918142
 10
12.7170450222
 20
5.2406284954
 10
12.730601751
 20
5.2328564588
 10
12.7431804499
 20
5.225798149
 10
12.754357448
 20
5.2197799016
 10
12.7641266593
 20
5.2148371327
 10
12.7728527968
 20
5.2107821984
 10
12.7809056317
 20
5.2074473173
 10
12.7886456372
 20
5.2047275835
 10
12.7963758427
 20
5.2026416903
 10
12.7973583296
 20
5.2024362082
  0
LWPOLYLINE
  5
4C0
100
AcDbEntity
  8
AXIS
100
AcDbPolyline
 62
7
  6
CONTINUOUS
 90
13
 70
0
 10
12.5883773214
 20
5.3355635276
 10
12.5947477011
 20
5.3265716351
 10
12.6022780439
 20
5.3178528269
 10
12.6100173499
 20
5.3101615058
 10
12.6177367972
 20
5.3033495378
 10
12.6254507174
 20
5.2971655507
 10
12.6334674627
 20
5.2912369529
 10
12.6421396524
 20
5.2852579452
 10
12.6518254254
 20
5.2789758996
 10
12.6628868965
 20
5.2721578409
 10
12.6753765254
 20
5.2647418662
 10
12.6889269053
 20
5.2568623816
 10
12.703071863
 20
5.2486918142
  0
LINE
  5
4C1
100
AcDbEntity
  8
0
100
AcDbLine
 62
7
  6
CONTINUOUS
 10
12.3139856756
 20
7.0656520043
 11
12.3139856756
 21
7.1580479508
  0
LINE
  5
4C2
100
AcDbEntity
  8
0
100
AcDbLine
 62
7
  6
CONTINUOUS
 10
12.4016617652
 20
7.7215299201
 11
12.4016617652
 21
7.6419234808
  0
LWPOLYLINE
  5
4C3
100
AcDbEntity
  8
0
100
AcDbPolyline
 62
7
  6
CONTINUOUS
 90
6
 70
0
 10
12.4016617652
 20
7.7215299227
 10
12.4018401241
 20
7.7234728923
 10
12.402365329
 20
7.7251193334
 10
12.4032143641
 20
7.7264055167
 10
12.4043524703
 20
7.7272790644
 10
12.4051391008
 20
7.7275840941
  0
LWPOLYLINE
  5
4C4
100
AcDbEntity
  8
0
100
AcDbPolyline
 62
7
  6
CONTINUOUS
 90
9
 70
0
 10
12.3751955279
 20
7.1642623566
 10
12.3715625552
 20
7.140554462
 10
12.368956875
 20
7.1173059557
 10
12.3673893911
 20
7.0946093976
 10
12.3668661106
 20
7.0725499316
 10
12.3673890484
 20
7.0512101472
 10
12.3689562586
 20
7.0306696924
 10
12.3715618896
 20
7.0110050451
 10
12.3751955279
 20
6.9922924285
  0
LWPOLYLINE
  5
4C5
100
AcDbEntity
  8
0
100
AcDbPolyline
 62
7
  6
CONTINUOUS
 90
7
 70
0
 10
12.4231912927
 20
7.147230703
 10
12.4160709724
 20
7.1088682135
 10
12.4117617357
 20
7.0714310718
 10
12.4103204867
 20
7.0353260497
 10
12.4117617357
 20
7.0008852286
 10
12.4160709724
 20
6.9684239351
 10
12.4231912927
 20
6.9382832341
  0
LWPOLYLINE
  5
4C6
100
AcDbEntity
  8
0
100
AcDbPolyline
 62
7
  6
CONTINUOUS
 90
8
 70
0
 10
12.4305679385
 20
7.1514895861
 10
12.4241417795
 20
7.1184512694
 10
12.4198311804
 20
7.0861103338
 10
12.4176685059
 20
7.0547005792
 10
12.4176685059
 20
7.0244362311
 10
12.4198311804
 20
6.9955237031
 10
12.4241417795
 20
6.9681601889
 10
12.4305679385
 20
6.9425421171
  0
LWPOLYLINE
  5
4C7
100
AcDbEntity
  8
0
100
AcDbPolyline
 62
7
  6
CONTINUOUS
 90
4
 70
0
 10
12.4231912927
 20
7.147230703
 10
12.4246646548
 20
7.151728627
 10
12.4268271595
 20
7.1552284933
 10
12.4295088483
 20
7.1575358109
  0
LINE
  5
4C8
100
AcDbEntity
  8
0
100
AcDbLine
 62
7
  6
CONTINUOUS
 10
12.4320871281
 20
7.1560455435
 11
12.4305679385
 21
7.1514895861
  0
LINE
  5
4C9
100
AcDbEntity
  8
02___PRT_ALL_AXES
100
AcDbLine
 62
7
  6
CONTINUOUS
 10
12.6908653608
 20
7.3948288114
 11
12.7069089029
 21
7.4061156289
  0
LINE
  5
4CA
100
AcDbEntity
  8
0
100
AcDbLine
 62
7
  6
CONTINUOUS
 10
12.1753921694
 20
7.1456671922
 11
12.2682584734
 21
7.1992832577
  0
LWPOLYLINE
  5
4CB
100
AcDbEntity
  8
02___PRT_ALL_AXES
100
AcDbPolyline
 62
7
  6
CONTINUOUS
 90
14
 70
0
 10
12.1751192419
 20
7.3045264396
 10
12.1827137993
 20
7.3081774841
 10
12.199575206
 20
7.3120757608
 10
12.2182306246
 20
7.3113502535
 10
12.2381132195
 20
7.3060230063
 10
12.2586188681
 20
7.296255885
 10
12.2791245167
 20
7.2823456585
 10
12.2990071116
 20
7.264714982
 10
12.3176625301
 20
7.2438995548
 10
12.3345239369
 20
7.2205318431
 10
12.3490790065
 20
7.1953218629
 10
12.3608854906
 20
7.1690356068
 10
12.3695846552
 20
7.1424717693
 10
12.3710014572
 20
7.1355482104
  0
LWPOLYLINE
  5
4CC
100
AcDbEntity
  8
AXIS
100
AcDbPolyline
 62
7
  6
CONTINUOUS
 90
4
 70
0
 10
12.7973583296
 20
5.2024362082
 10
12.8040870151
 20
5.2014260637
 10
12.8115315122
 20
5.2014753465
 10
12.8178138159
 20
5.2031013025
  0
LWPOLYLINE
  5
4CD
100
AcDbEntity
  8
AXIS
100
AcDbPolyline
 62
7
  6
CONTINUOUS
 90
3
 70
0
 10
12.7973593005
 20
5.2024321791
 10
12.807215768
 20
5.2005095544
 10
12.8476898869
 20
5.194733304
  0
LWPOLYLINE
  5
4CE
100
AcDbEntity
  8
AXIS
100
AcDbPolyline
 62
7
  6
CONTINUOUS
 90
3
 70
0
 10
12.6476505516
 20
5.5081582044
 10
12.6191839321
 20
5.5294203525
 10
12.5960140675
 20
5.5527279681
  0
LWPOLYLINE
  5
4CF
100
AcDbEntity
  8
AXIS
100
AcDbPolyline
 62
7
  6
CONTINUOUS
 90
3
 70
0
 10
12.6053537682
 20
5.6200839676
 10
12.6191839321
 20
5.6061715797
 10
12.6476505516
 20
5.5849094316
  0
LWPOLYLINE
  5
4D0
100
AcDbEntity
  8
AXIS
100
AcDbPolyline
 62
7
  6
CONTINUOUS
 90
3
 70
0
 10
12.8178138159
 20
5.4369540432
 10
12.8116703379
 20
5.4456570365
 10
12.807702448
 20
5.4502877268
  0
LWPOLYLINE
  5
4D1
100
AcDbEntity
  8
AXIS
100
AcDbPolyline
 62
7
  6
CONTINUOUS
 90
5
 70
0
 10
12.5960140675
 20
5.5527279681
 10
12.5785752174
 20
5.5776442099
 10
12.567194228
 20
5.6037020874
 10
12.5620844068
 20
5.6304132127
 10
12.5617937463
 20
5.6385490351
  0
LWPOLYLINE
  5
4D2
100
AcDbEntity
  8
02___PRT_ALL_AXES
100
AcDbPolyline
 62
7
  6
CONTINUOUS
 90
8
 70
0
 10
12.495795697
 20
5.7795988077
 10
12.496826309
 20
5.7628758669
 10
12.5050704787
 20
5.7297723661
 10
12.5213907493
 20
5.697683188
 10
12.5454548873
 20
5.6672615757
 10
12.5767730161
 20
5.6391268254
 10
12.614707589
 20
5.6138516796
 10
12.6584863675
 20
5.5919506673
  0
LWPOLYLINE
  5
4D3
100
AcDbEntity
  8
02___PRT_ALL_AXES
100
AcDbPolyline
 62
7
  6
CONTINUOUS
 90
9
 70
0
 10
12.495795697
 20
5.8326714648
 10
12.496826309
 20
5.815948524
 10
12.5050704787
 20
5.7828450233
 10
12.5213907493
 20
5.7507558452
 10
12.5454548873
 20
5.7203342328
 10
12.5767730161
 20
5.6921994825
 10
12.614707589
 20
5.6669243367
 10
12.6584863675
 20
5.6450233244
 10
12.7072181419
 20
5.626942287
  0
LWPOLYLINE
  5
4D4
100
AcDbEntity
  8
02___PRT_ALL_AXES
100
AcDbPolyline
 62
7
  6
CONTINUOUS
 90
18
 70
0
 10
12.495795697
 20
5.8969629937
 10
12.496826309
 20
5.8802400529
 10
12.5050704787
 20
5.8471365522
 10
12.5213907493
 20
5.8150473741
 10
12.5454548873
 20
5.7846257617
 10
12.5767730161
 20
5.7564910114
 10
12.614707589
 20
5.7312158656
 10
12.6584863675
 20
5.7093148533
 10
12.7072181419
 20
5.6912338159
 10
12.7599108738
 20
5.6773408313
 10
12.8154918911
 20
5.6679187206
 10
12.8728297246
 20
5.6631592907
 10
12.9307571413
 20
5.6631594299
 10
12.9880949062
 20
5.6679191355
 10
13.0436757876
 20
5.6773415134
 10
13.0963683191
 20
5.6912347513
 10
13.1450998327
 20
5.7093160229
 10
13.1888782953
 20
5.7312172457
  0
LWPOLYLINE
  5
4D5
100
AcDbEntity
  8
02___PRT_ALL_AXES
100
AcDbPolyline
 62
7
  6
CONTINUOUS
 90
18
 70
0
 10
12.495795697
 20
5.9500356508
 10
12.496826309
 20
5.93331271
 10
12.5050704787
 20
5.9002092093
 10
12.5213907493
 20
5.8681200312
 10
12.5454548873
 20
5.8376984188
 10
12.5767730161
 20
5.8095636686
 10
12.614707589
 20
5.7842885227
 10
12.6584863675
 20
5.7623875104
 10
12.7072181419
 20
5.744306473
 10
12.7599108738
 20
5.7304134884
 10
12.8154918911
 20
5.7209913777
 10
12.8728297246
 20
5.7162319478
 10
12.9307571413
 20
5.716232087
 10
12.9880949062
 20
5.7209917926
 10
13.0436757876
 20
5.7304141705
 10
13.0963683191
 20
5.7443074084
 10
13.1450998327
 20
5.7623886801
 10
13.1888782953
 20
5.7842899028
  0
LINE
  5
4D6
100
AcDbEntity
  8
02___PRT_ALL_AXES
100
AcDbLine
 62
7
  6
CONTINUOUS
 10
12.4957917469
 20
5.779598806
 11
12.4957917469
 21
5.8326714632
  0
LINE
  5
4D7
100
AcDbEntity
  8
02___PRT_ALL_AXES
100
AcDbLine
 62
7
  6
CONTINUOUS
 10
12.4957917469
 20
5.8969629921
 11
12.4957917469
 21
5.9500356492
  0
LWPOLYLINE
  5
4D8
100
AcDbEntity
  8
0
100
AcDbPolyline
 62
7
  6
CONTINUOUS
 90
4
 70
0
 10
12.6517917469
 20
7.4811721446
 10
12.6545679847
 20
7.5075553908
 10
12.6634378735
 20
7.5345821052
 10
12.678333982
 20
7.5598378055
  0
LWPOLYLINE
  5
4D9
100
AcDbEntity
  8
02___PRT_ALL_AXES
100
AcDbPolyline
 62
7
  6
CONTINUOUS
 90
4
 70
0
 10
12.3421184943
 20
7.015273523
 10
12.3490790065
 20
7.0200260922
 10
12.3608854906
 20
7.0326797031
 10
12.3678009438
 20
7.0458116887
  0
LINE
  5
4DA
100
AcDbEntity
  8
02___PRT_ALL_AXES
100
AcDbLine
 62
7
  6
CONTINUOUS
 10
12.7069089029
 20
7.4061156289
 11
12.7069123067
 21
7.4061176014
  0
LINE
  5
4DB
100
AcDbEntity
  8
0
100
AcDbLine
 62
7
  6
CONTINUOUS
 10
12.2446889225
 20
7.059461625
 11
12.3139856756
 21
7.0994698852
  0
LINE
  5
4DC
100
AcDbEntity
  8
0
100
AcDbLine
 62
7
  6
CONTINUOUS
 10
12.8494906984
 20
7.4062960591
 11
12.7725380303
 21
7.3618676807
  0
LINE
  5
4DD
100
AcDbEntity
  8
0
100
AcDbLine
 62
9
  6
CONTINUOUS
 10
12.4231912927
 20
7.147230703
 11
12.4305679385
 21
7.1514895861
  0
LWPOLYLINE
  5
4DE
100
AcDbEntity
  8
AXIS
100
AcDbPolyline
 62
7
  6
CONTINUOUS
 90
8
 70
0
 10
12.8476900681
 20
5.1947338343
 10
12.8617722763
 20
5.1939422947
 10
12.8767472974
 20
5.1942001398
 10
12.893431448
 20
5.1953939594
 10
12.9119136464
 20
5.197451304
 10
12.9321540015
 20
5.2002301876
 10
12.9533844598
 20
5.2034258263
 10
12.9744823603
 20
5.2066837808
  0
LWPOLYLINE
  5
4DF
100
AcDbEntity
  8
AXIS
100
AcDbPolyline
 62
7
  6
CONTINUOUS
 90
3
 70
0
 10
13.1312282414
 20
5.2515867971
 10
13.1335314732
 20
5.2512894174
 10
13.1351782055
 20
5.25204002
  0
LINE
  5
4E0
100
AcDbEntity
  8
AXIS
100
AcDbLine
 62
7
  6
CONTINUOUS
 10
12.6759349407
 20
5.5685798015
 11
12.7127632066
 21
5.5521448556
  0
LWPOLYLINE
  5
4E1
100
AcDbEntity
  8
AXIS
100
AcDbPolyline
 62
7
  6
CONTINUOUS
 90
13
 70
0
 10
12.5883773214
 20
5.9543502059
 10
12.5947477011
 20
5.9453583134
 10
12.6022780439
 20
5.9366395051
 10
12.6100173499
 20
5.9289481841
 10
12.6177367972
 20
5.9221362161
 10
12.6254507174
 20
5.915952229
 10
12.6334674627
 20
5.9100236312
 10
12.6421396524
 20
5.9040446235
 10
12.6518254254
 20
5.8977625779
 10
12.6628868965
 20
5.8909445192
 10
12.6753765254
 20
5.8835285445
 10
12.6889269053
 20
5.8756490599
 10
12.703071863
 20
5.8674784925
  0
LINE
  5
4E2
100
AcDbEntity
  8
AXIS
100
AcDbLine
 62
7
  6
CONTINUOUS
 10
12.5617917469
 20
5.6385560499
 11
12.5617917469
 21
5.6525853008
  0
LINE
  5
4E3
100
AcDbEntity
  8
AXIS
100
AcDbLine
 62
7
  6
CONTINUOUS
 10
12.5883773214
 20
5.3355635276
 11
12.5883773214
 21
5.5636391813
  0
LINE
  5
4E4
100
AcDbEntity
  8
AXIS
100
AcDbLine
 62
7
  6
CONTINUOUS
 10
12.5883773214
 20
5.9543502059
 11
12.5883773214
 21
6.1882029466
  0
LINE
  5
4E5
100
AcDbEntity
  8
AXIS
100
AcDbLine
 62
7
  6
CONTINUOUS
 10
12.6476505516
 20
5.5081582044
 11
12.6476505516
 21
5.5849094316
  0
LINE
  5
4E6
100
AcDbEntity
  8
AXIS
100
AcDbLine
 62
7
  6
CONTINUOUS
 10
12.6759349407
 20
5.4918285742
 11
12.6759349407
 21
5.5685798015
  0
LINE
  5
4E7
100
AcDbEntity
  8
0
100
AcDbLine
 62
7
  6
CONTINUOUS
 10
12.678333982
 20
7.4068475893
 11
12.678333982
 21
7.5598378055
  0
LWPOLYLINE
  5
4E8
100
AcDbEntity
  8
AXIS
100
AcDbPolyline
 62
7
  6
CONTINUOUS
 90
13
 70
0
 10
12.5883773214
 20
6.1882029466
 10
12.5906947543
 20
6.1984834212
 10
12.5934585301
 20
6.2088278173
 10
12.5963226744
 20
6.2182551564
 10
12.599188882
 20
6.2268088229
 10
12.6020445429
 20
6.2346966225
 10
12.604993859
 20
6.2423425918
 10
12.6081660666
 20
6.2501356743
 10
12.6116930778
 20
6.258411783
 10
12.6157092257
 20
6.2674879728
 10
12.6202488569
 20
6.2774711752
 10
12.6251852601
 20
6.2881633648
 10
12.6303564707
 20
6.2993099424
  0
LWPOLYLINE
  5
4E9
100
AcDbEntity
  8
02___PRT_ALL_AXES
100
AcDbPolyline
 62
7
  6
CONTINUOUS
 90
3
 70
0
 10
12.5006672521
 20
5.8648171943
 10
12.4968260678
 20
5.8493924555
 10
12.495795697
 20
5.8326714648
  0
LINE
  5
4EA
100
AcDbEntity
  8
02___PRT_ALL_AXES
100
AcDbLine
 62
7
  6
CONTINUOUS
 10
12.3689490582
 20
7.0307640639
 11
12.3421184943
 21
7.015273523
  0
LWPOLYLINE
  5
4EB
100
AcDbEntity
  8
0
100
AcDbPolyline
 62
7
  6
CONTINUOUS
 90
14
 70
0
 10
13.0138945768
 20
7.4140197927
 10
12.978712299
 20
7.3994969981
 10
12.9412603866
 20
7.3861590038
 10
12.9018393284
 20
7.3745876406
 10
12.8617634614
 20
7.3657895299
 10
12.8226947156
 20
7.3607520112
 10
12.786345462
 20
7.3601547555
 10
12.7538096643
 20
7.3641910881
 10
12.7250471954
 20
7.372923631
 10
12.7000661805
 20
7.3865597935
 10
12.6796350274
 20
7.4049218066
 10
12.6644840662
 20
7.4273479719
 10
12.6550910793
 20
7.4529018738
 10
12.6517917469
 20
7.4811721446
  0
LWPOLYLINE
  5
4EC
100
AcDbEntity
  8
AXIS
100
AcDbPolyline
 62
7
  6
CONTINUOUS
 90
11
 70
0
 10
12.9744823603
 20
5.2066837808
 10
12.9943842473
 20
5.2097672315
 10
13.0127897207
 20
5.2126730798
 10
13.0294873475
 20
5.2154596325
 10
13.0443540258
 20
5.2181826081
 10
13.0575558434
 20
5.2209076899
 10
13.0695168324
 20
5.2237339735
 10
13.0806677177
 20
5.2267824531
 10
13.0914286624
 20
5.2302247738
 10
13.1021312956
 20
5.234298138
 10
13.1130336203
 20
5.2393755742
  0
LWPOLYLINE
  5
4ED
100
AcDbEntity
  8
AXIS
100
AcDbPolyline
 62
7
  6
CONTINUOUS
 90
7
 70
0
 10
12.7127632066
 20
5.5521448556
 10
12.7531343938
 20
5.5387680294
 10
12.7962918336
 20
5.5287000414
 10
12.8414266352
 20
5.5221295936
 10
12.8876928467
 20
5.5191798343
 10
12.9342233106
 20
5.5199060501
 10
12.9801459164
 20
5.5242946297
  0
LWPOLYLINE
  5
4EE
100
AcDbEntity
  8
02___PRT_ALL_AXES
100
AcDbPolyline
 62
7
  6
CONTINUOUS
 90
11
 70
0
 10
12.6584863675
 20
5.5919506673
 10
12.7072181419
 20
5.5738696299
 10
12.7599108738
 20
5.5599766453
 10
12.8154918911
 20
5.5505545346
 10
12.8728297246
 20
5.5457951047
 10
12.9307571413
 20
5.5457952439
 10
12.9880949062
 20
5.5505549494
 10
13.0436757876
 20
5.5599773274
 10
13.0963683191
 20
5.5738705653
 10
13.1450998327
 20
5.5919518369
 10
13.1888782953
 20
5.6138530597
  0
LWPOLYLINE
  5
4EF
100
AcDbEntity
  8
AXIS
100
AcDbPolyline
 62
7
  6
CONTINUOUS
 90
3
 70
0
 10
13.1312282414
 20
5.4854395379
 10
13.1227404251
 20
5.4893315581
 10
13.1219247209
 20
5.4895573232
  0
LWPOLYLINE
  5
4F0
100
AcDbEntity
  8
0
100
AcDbPolyline
 62
7
  6
CONTINUOUS
 90
7
 70
0
 10
12.3055618367
 20
7.3520497087
 10
12.3145121322
 20
7.3205925357
 10
12.3246747841
 20
7.288992732
 10
12.3359382955
 20
7.2574174994
 10
12.3481930846
 20
7.2260065153
 10
12.3613191008
 20
7.1949097682
 10
12.3751955279
 20
7.1642623566
  0
LINE
  5
4F1
100
AcDbEntity
  8
02___PRT_ALL_AXES
100
AcDbLine
 62
7
  6
CONTINUOUS
 10
12.7047917469
 20
5.9236882543
 11
12.7047917469
 21
6.6588161341
  0
LINE
  5
4F2
100
AcDbEntity
  8
0
100
AcDbLine
 62
7
  6
CONTINUOUS
 10
12.7707197562
 20
7.4204664557
 11
12.7707197562
 21
7.3620932525
  0
LINE
  5
4F3
100
AcDbEntity
  8
0
100
AcDbLine
 62
7
  6
CONTINUOUS
 10
12.789688917
 20
7.6241282234
 11
12.789688917
 21
7.4095148533
  0
LINE
  5
4F4
100
AcDbEntity
  8
AXIS
100
AcDbLine
 62
7
  6
CONTINUOUS
 10
12.8178138159
 20
5.2031013025
 11
12.8178138159
 21
5.4369540432
  0
LINE
  5
4F5
100
AcDbEntity
  8
AXIS
100
AcDbLine
 62
7
  6
CONTINUOUS
 10
12.8178138159
 20
5.8218879807
 11
12.8178138159
 21
6.0557407215
  0
LWPOLYLINE
  5
4F6
100
AcDbEntity
  8
0
100
AcDbPolyline
 62
7
  6
CONTINUOUS
 90
6
 70
0
 10
12.8217293523
 20
6.8630020421
 10
12.8145565322
 20
6.817551227
 10
12.8109403052
 20
6.7734267603
 10
12.8109403052
 20
6.7311718108
 10
12.8145565322
 20
6.6912229785
 10
12.8217293523
 20
6.6540545731
  0
LWPOLYLINE
  5
4F7
100
AcDbEntity
  8
AXIS
100
AcDbPolyline
 62
9
  6
CONTINUOUS
 90
9
 70
0
 10
12.6303698595
 20
6.2993414624
 10
12.6231962901
 20
6.2785208063
 10
12.6207917471
 20
6.2573488101
 10
12.623193541
 20
6.2361767079
 10
12.6303608383
 20
6.215366105
 10
12.6421717694
 20
6.1952725078
 10
12.6584254617
 20
6.176239323
 10
12.6788453915
 20
6.1585920554
 10
12.7030894027
 20
6.1426292428
  0
LWPOLYLINE
  5
4F8
100
AcDbEntity
  8
AXIS
100
AcDbPolyline
 62
7
  6
CONTINUOUS
 90
12
 70
0
 10
12.6303564707
 20
6.2993099424
 10
12.6354406092
 20
6.3102609535
 10
12.6403870793
 20
6.320865361
 10
12.6449815596
 20
6.3305641848
 10
12.6490683273
 20
6.3389402398
 10
12.652651884
 20
6.3459685687
 10
12.655869071
 20
6.3519156087
 10
12.6588581004
 20
6.3570244641
 10
12.6617509382
 20
6.3614633573
 10
12.664637059
 20
6.3652305104
 10
12.6674471292
 20
6.3680184959
 10
12.6684040758
 20
6.3686962241
  0
LWPOLYLINE
  5
4F9
100
AcDbEntity
  8
0
100
AcDbPolyline
 62
7
  6
CONTINUOUS
 90
17
 70
0
 10
13.1801818661
 20
7.3238663866
 10
13.1289439232
 20
7.2809332294
 10
13.0798577013
 20
7.2310043658
 10
13.0339111017
 20
7.1750846392
 10
12.9920288411
 20
7.1142994668
 10
12.9550538415
 20
7.0498721902
 10
12.9237302645
 20
6.9830994549
 10
12.8986885347
 20
6.915325115
 10
12.880432651
 20
6.8479131868
 10
12.8693300429
 20
6.7822203975
 10
12.8656041748
 20
6.7195688791
 10
12.8693300429
 20
6.6612195969
 10
12.880432651
 20
6.6083469186
 10
12.8986885347
 20
6.5620149433
 10
12.9237302645
 20
6.5231561297
 10
12.9550538415
 20
6.4925525297
 10
12.974055222
 20
6.4798662369
  0
LWPOLYLINE
  5
4FA
100
AcDbEntity
  8
0
100
AcDbPolyline
 62
3
  6
CONTINUOUS
 90
15
 70
0
 10
13.2358593336
 20
7.3512294566
 10
13.1730154436
 20
7.3085979732
 10
13.1120810334
 20
7.2545642997
 10
13.0549075643
 20
7.1907702219
 10
13.003232223
 20
7.1191540904
 10
12.9586251388
 20
7.0418919254
 10
12.9224416754
 20
6.9613312984
 10
12.8957812488
 20
6.8799200034
 10
12.8794539228
 20
6.8001316815
 10
12.8739557949
 20
6.7243906604
 10
12.8794539228
 20
6.6549982927
 10
12.8957812488
 20
6.5940630303
 10
12.9224416754
 20
6.5434363605
 10
12.9586251388
 20
6.5046565489
 10
12.9799637234
 20
6.4901002739
  0
LWPOLYLINE
  5
4FB
100
AcDbEntity
  8
0
100
AcDbPolyline
 62
7
  6
CONTINUOUS
 90
3
 70
0
 10
13.3098274651
 20
7.3085249021
 10
13.2469835751
 20
7.2658934187
 10
13.1860491649
 20
7.2118597452
  0
LINE
  5
4FC
100
AcDbEntity
  8
0
100
AcDbLine
 62
9
  6
CONTINUOUS
 10
12.4231912927
 20
6.9382832341
 11
12.4305679385
 21
6.9425421171
  0
LINE
  5
4FD
100
AcDbEntity
  8
0
100
AcDbLine
 62
9
  6
CONTINUOUS
 10
12.4388236097
 20
6.9151630159
 11
12.4462942591
 21
6.9194761717
  0
LINE
  5
4FE
100
AcDbEntity
  8
0
100
AcDbLine
 62
3
  6
CONTINUOUS
 10
13.7743439605
 20
7.6621218451
 11
13.2358593336
 21
7.3512294566
  0
LINE
  5
4FF
100
AcDbEntity
  8
0
100
AcDbLine
 62
7
  6
CONTINUOUS
 10
13.848312092
 20
7.6194172906
 11
13.3098274651
 21
7.3085249021
  0
LWPOLYLINE
  5
500
100
AcDbEntity
  8
0
100
AcDbPolyline
 62
3
  6
CONTINUOUS
 90
8
 70
0
 10
13.7743439605
 20
7.6621218451
 10
13.7961041577
 20
7.6721406495
 10
13.8211802596
 20
7.6791127142
 10
13.8483148459
 20
7.6826884306
 10
13.8761472752
 20
7.6826884975
 10
13.9032819131
 20
7.6791129115
 10
13.9283581156
 20
7.6721409674
 10
13.9501184572
 20
7.6621222676
  0
LWPOLYLINE
  5
501
100
AcDbEntity
  8
0
100
AcDbPolyline
 62
7
  6
CONTINUOUS
 90
8
 70
0
 10
13.848312092
 20
7.6194172906
 10
13.851758433
 20
7.6210040509
 10
13.8557299411
 20
7.622108274
 10
13.8600274682
 20
7.6226745895
 10
13.8644355185
 20
7.6226746001
 10
13.8687330538
 20
7.6221083052
 10
13.8727045778
 20
7.6210041012
 10
13.8761509417
 20
7.6194173575
  0
LWPOLYLINE
  5
502
100
AcDbEntity
  8
0
100
AcDbPolyline
 62
7
  6
CONTINUOUS
 90
4
 70
0
 10
12.4295088483
 20
7.1575358109
 10
12.4324993573
 20
7.158519446
 10
12.4357370239
 20
7.1580938018
 10
12.4388236097
 20
7.1562562493
  0
LINE
  5
503
100
AcDbEntity
  8
0
100
AcDbLine
 62
7
  6
CONTINUOUS
 10
13.3098893773
 20
7.3939704671
 11
13.2915368011
 21
7.3881568045
  0
LWPOLYLINE
  5
504
100
AcDbEntity
  8
02___PRT_ALL_AXES
100
AcDbPolyline
 62
7
  6
CONTINUOUS
 90
10
 70
0
 10
12.7072181419
 20
5.626942287
 10
12.7599108738
 20
5.6130493024
 10
12.8154918911
 20
5.6036271917
 10
12.8728297246
 20
5.5988677618
 10
12.9307571413
 20
5.598867901
 10
12.9880949062
 20
5.6036276066
 10
13.0436757876
 20
5.6130499845
 10
13.0963683191
 20
5.6269432224
 10
13.1450998327
 20
5.645024494
 10
13.1888782953
 20
5.6669257168
  0
LWPOLYLINE
  5
505
100
AcDbEntity
  8
AXIS
100
AcDbPolyline
 62
7
  6
CONTINUOUS
 90
4
 70
0
 10
12.8178138159
 20
5.8218879807
 10
12.8262156167
 20
5.8180266433
 10
12.8364393894
 20
5.8152143299
 10
12.8476900681
 20
5.8135205126
  0
LWPOLYLINE
  5
506
100
AcDbEntity
  8
AXIS
100
AcDbPolyline
 62
7
  6
CONTINUOUS
 90
11
 70
0
 10
12.703071863
 20
5.8674784925
 10
12.7170450222
 20
5.8594151737
 10
12.730601751
 20
5.851643137
 10
12.7431804499
 20
5.8445848273
 10
12.754357448
 20
5.8385665798
 10
12.7641266593
 20
5.833623811
 10
12.7728527968
 20
5.8295688766
 10
12.7809056317
 20
5.8262339956
 10
12.7886456372
 20
5.8235142618
 10
12.7963758427
 20
5.8214283686
 10
12.7973583296
 20
5.8212228865
  0
LWPOLYLINE
  5
507
100
AcDbEntity
  8
AXIS
100
AcDbPolyline
 62
7
  6
CONTINUOUS
 90
13
 70
0
 10
12.8178138159
 20
6.0557407215
 10
12.8116703379
 20
6.0644437148
 10
12.8043777533
 20
6.0729544603
 10
12.7966820988
 20
6.0806673418
 10
12.7888483912
 20
6.0876236383
 10
12.7809900626
 20
6.093946628
 10
12.772850748
 20
6.0999766267
 10
12.7640821836
 20
6.1060257962
 10
12.7543243301
 20
6.1123544739
 10
12.7432102151
 20
6.1192031533
 10
12.7306990683
 20
6.126630089
 10
12.7171646478
 20
6.1344994767
 10
12.7047917469
 20
6.1416463718
  0
LWPOLYLINE
  5
508
100
AcDbEntity
  8
0
100
AcDbPolyline
 62
7
  6
CONTINUOUS
 90
6
 70
0
 10
12.7126784966
 20
6.2098206325
 10
12.7024998524
 20
6.2266739621
 10
12.6968046883
 20
6.2441854266
 10
12.6956974356
 20
6.261968702
 10
12.6992108048
 20
6.2797035274
 10
12.7047917469
 20
6.2916100359
  0
LWPOLYLINE
  5
509
100
AcDbEntity
  8
0
100
AcDbPolyline
 62
7
  6
CONTINUOUS
 90
7
 70
0
 10
12.4305679385
 20
6.9425421171
 10
12.4320719865
 20
6.9386287234
 10
12.4342669856
 20
6.9343991645
 10
12.4369223536
 20
6.9302068936
 10
12.4399699824
 20
6.9261174465
 10
12.4432072154
 20
6.9224142362
 10
12.4462942591
 20
6.9194761717
  0
LINE
  5
50A
100
AcDbEntity
  8
0
100
AcDbLine
 62
7
  6
CONTINUOUS
 10
12.8494906984
 20
7.4062960591
 11
12.8494906984
 21
7.3642070815
  0
LWPOLYLINE
  5
50B
100
AcDbEntity
  8
0
100
AcDbPolyline
 62
7
  6
CONTINUOUS
 90
4
 70
0
 10
13.1517917469
 20
7.5189114043
 10
13.1486505041
 20
7.5058850513
 10
13.1396597592
 20
7.492416579
 10
13.1252495118
 20
7.4783102106
  0
LWPOLYLINE
  5
50C
100
AcDbEntity
  8
0
100
AcDbPolyline
 62
7
  6
CONTINUOUS
 90
8
 70
0
 10
13.0895549341
 20
6.9512095263
 10
13.0655310458
 20
6.8988417659
 10
13.0467676337
 20
6.8456452369
 10
13.0337022497
 20
6.7927286716
 10
13.0266825333
 20
6.7412086151
 10
13.0259559673
 20
6.6922137977
 10
13.0316355514
 20
6.6469077231
 10
13.0436181952
 20
6.6064754238
  0
LWPOLYLINE
  5
50D
100
AcDbEntity
  8
0
100
AcDbPolyline
 62
7
  6
CONTINUOUS
 90
3
 70
0
 10
13.1498332562
 20
7.0472968923
 10
13.1183149293
 20
7.0016528703
 10
13.0895549341
 20
6.9512095263
  0
LWPOLYLINE
  5
50E
100
AcDbEntity
  8
02___PRT_ALL_AXES
100
AcDbPolyline
 62
7
  6
CONTINUOUS
 90
5
 70
0
 10
13.172025733
 20
7.0866771535
 10
13.1326729732
 20
7.032138715
 10
13.0987029629
 20
6.9733006046
 10
13.0711478638
 20
6.9119505887
 10
13.0701577619
 20
6.9089271759
  0
LWPOLYLINE
  5
50F
100
AcDbEntity
  8
0
100
AcDbPolyline
 62
7
  6
CONTINUOUS
 90
4
 70
0
 10
13.1794216066
 20
7.0747328777
 10
13.1953280265
 20
7.0940784025
 10
13.2117857192
 20
7.1124967174
 10
13.2287227862
 20
7.1299070636
  0
LWPOLYLINE
  5
510
100
AcDbEntity
  8
0
100
AcDbPolyline
 62
7
  6
CONTINUOUS
 90
13
 70
0
 10
13.1860491649
 20
7.2118597452
 10
13.1288756957
 20
7.1480656674
 10
13.0772003545
 20
7.0764495359
 10
13.0325932703
 20
6.9991873708
 10
12.9964098068
 20
6.9186267439
 10
12.9697493803
 20
6.8372154489
 10
12.9534220543
 20
6.757427127
 10
12.9479239264
 20
6.6816861059
 10
12.9534220543
 20
6.6122937382
 10
12.9697493803
 20
6.5513584758
 10
12.9964098068
 20
6.500731806
 10
13.0325932703
 20
6.4619519944
 10
13.0539318548
 20
6.4473957194
  0
LINE
  5
511
100
AcDbEntity
  8
0
100
AcDbLine
 62
7
  6
CONTINUOUS
 10
13.1506987553
 20
7.0480736585
 11
13.1498337218
 21
7.0472971937
  0
LWPOLYLINE
  5
512
100
AcDbEntity
  8
02___PRT_ALL_AXES
100
AcDbPolyline
 62
7
  6
CONTINUOUS
 90
3
 70
0
 10
13.2619694258
 20
7.176407518
 10
13.2155655288
 20
7.1352587974
 10
13.172025733
 20
7.0866771535
  0
LINE
  5
513
100
AcDbEntity
  8
02___PRT_ALL_AXES
100
AcDbLine
 62
7
  6
CONTINUOUS
 10
13.3098274651
 20
7.2088730323
 11
13.2619694258
 21
7.176407518
  0
LINE
  5
514
100
AcDbEntity
  8
0
100
AcDbLine
 62
7
  6
CONTINUOUS
 10
13.2287227862
 20
7.1299070636
 11
13.2636987628
 21
7.1508052944
  0
LINE
  5
515
100
AcDbEntity
  8
0
100
AcDbLine
 62
7
  6
CONTINUOUS
 10
13.1794216066
 20
7.0747328777
 11
13.2636987628
 21
7.1250886828
  0
LINE
  5
516
100
AcDbEntity
  8
0
100
AcDbLine
 62
7
  6
CONTINUOUS
 10
13.1507362081
 20
7.0480960392
 11
13.1764575831
 21
7.0634646231
  0
LINE
  5
517
100
AcDbEntity
  8
0
100
AcDbLine
 62
9
  6
CONTINUOUS
 10
13.1593766749
 20
7.0464028224
 11
13.1933410894
 21
7.0666966424
  0
LWPOLYLINE
  5
518
100
AcDbEntity
  8
0
100
AcDbPolyline
 62
7
  6
CONTINUOUS
 90
6
 70
0
 10
13.1764860644
 20
7.0634816407
 10
13.1772018373
 20
7.0639003771
 10
13.1818723566
 20
7.0661752636
 10
13.1862796676
 20
7.0674807928
 10
13.1901872441
 20
7.0676783421
 10
13.1933410894
 20
7.0666966424
  0
LINE
  5
519
100
AcDbEntity
  8
0
100
AcDbLine
 62
9
  6
CONTINUOUS
 10
13.9501184572
 20
7.6621222676
 11
13.8761509417
 21
7.6194173575
  0
LINE
  5
51A
100
AcDbEntity
  8
0
100
AcDbLine
 62
9
  6
CONTINUOUS
 10
13.9610355154
 20
7.6558194437
 11
13.8870679998
 21
7.6131145336
  0
LINE
  5
51B
100
AcDbEntity
  8
0
100
AcDbLine
 62
7
  6
CONTINUOUS
 10
13.4100296744
 20
7.2345840195
 11
13.3750536978
 21
7.2150957123
  0
LINE
  5
51C
100
AcDbEntity
  8
0
100
AcDbLine
 62
7
  6
CONTINUOUS
 10
13.3750536978
 20
7.1893791007
 11
13.459330854
 21
7.2363375924
  0
LINE
  5
51D
100
AcDbEntity
  8
0
100
AcDbLine
 62
7
  6
CONTINUOUS
 10
13.4701600714
 20
7.2330386882
 11
13.4962262086
 21
7.247562511
  0
LINE
  5
51E
100
AcDbEntity
  8
0
100
AcDbLine
 62
9
  6
CONTINUOUS
 10
13.4732503368
 20
7.2283013571
 11
13.5072147512
 21
7.2472260306
  0
LWPOLYLINE
  5
51F
100
AcDbEntity
  8
0
100
AcDbPolyline
 62
3
  6
CONTINUOUS
 90
24
 70
0
 10
14.2372891882
 20
7.6581640099
 10
14.2822698617
 20
7.6798433926
 10
14.3636859239
 20
7.7011333581
 10
14.4526469557
 20
7.7040880367
 10
14.5473653201
 20
7.6886480554
 10
14.6459376886
 20
7.6551236744
 10
14.7463832879
 20
7.6041885531
 10
14.8466837031
 20
7.5368662129
 10
14.9448234365
 20
7.4545094699
 10
15.0388304086
 20
7.3587732505
 10
15.1268155861
 20
7.2515813366
 10
15.2070109413
 20
7.1350877079
 10
15.2778049798
 20
7.0116332582
 10
15.3377751232
 20
6.8836987563
 10
15.3857162948
 20
6.7538549962
 10
15.4206651356
 20
6.6247111372
 10
15.4419193624
 20
6.4988622747
 10
15.4490518797
 20
6.3788372925
 10
15.4419193624
 20
6.2670480455
 10
15.4206651356
 20
6.1657408949
 10
15.3857162948
 20
6.0769515683
 10
15.3377751232
 20
6.0024642525
 10
15.2778049798
 20
5.943775741
 10
15.2411155268
 20
5.919254731
  0
LWPOLYLINE
  5
520
100
AcDbEntity
  8
0
100
AcDbPolyline
 62
7
  6
CONTINUOUS
 90
24
 70
0
 10
14.1633216727
 20
7.6154590998
 10
14.2083023461
 20
7.6371384825
 10
14.2897184083
 20
7.658428448
 10
14.3786794402
 20
7.6613831266
 10
14.4733978046
 20
7.6459431453
 10
14.571970173
 20
7.6124187643
 10
14.6724157724
 20
7.561483643
 10
14.7727161875
 20
7.4941613028
 10
14.870855921
 20
7.4118045598
 10
14.9648628931
 20
7.3160683404
 10
15.0528480706
 20
7.2088764265
 10
15.1330434257
 20
7.0923827978
 10
15.2038374642
 20
6.9689283481
 10
15.2638076076
 20
6.8409938462
 10
15.3117487792
 20
6.711150086
 10
15.3466976201
 20
6.5820062271
 10
15.3679518468
 20
6.4561573646
 10
15.3750843641
 20
6.3361323824
 10
15.3679518468
 20
6.2243431354
 10
15.3466976201
 20
6.1230359848
 10
15.3117487792
 20
6.0342466582
 10
15.2638076076
 20
5.9597593424
 10
15.2038374642
 20
5.9010708308
 10
15.1671480112
 20
5.8765498209
  0
LINE
  5
521
100
AcDbEntity
  8
0
100
AcDbLine
 62
3
  6
CONTINUOUS
 10
14.158065974
 20
7.6163019102
 11
14.1622635968
 21
7.6180296875
  0
LWPOLYLINE
  5
522
100
AcDbEntity
  8
AXIS
100
AcDbPolyline
 62
7
  6
CONTINUOUS
 90
3
 70
0
 10
12.7973593005
 20
5.8212188574
 10
12.807215768
 20
5.8192962327
 10
12.8476898869
 20
5.8135199823
  0
LWPOLYLINE
  5
523
100
AcDbEntity
  8
AXIS
100
AcDbPolyline
 62
7
  6
CONTINUOUS
 90
12
 70
0
 10
12.6889881782
 20
6.1507667568
 10
12.6754108928
 20
6.1585493097
 10
12.6628951536
 20
6.1655697829
 10
12.6518352384
 20
6.1715235369
 10
12.6421714903
 20
6.1764150428
 10
12.6335117222
 20
6.1804455407
 10
12.6254738292
 20
6.183784292
 10
12.6176864209
 20
6.1865322342
 10
12.6098615715
 20
6.1886523547
 10
12.6020744365
 20
6.1898807411
 10
12.5946121907
 20
6.1898232818
 10
12.5883773214
 20
6.1882029466
  0
LINE
  5
524
100
AcDbEntity
  8
AXIS
100
AcDbLine
 62
7
  6
CONTINUOUS
 10
12.7047917469
 20
6.1416463718
 11
12.6889881782
 21
6.1507667568
  0
LINE
  5
525
100
AcDbEntity
  8
0
100
AcDbLine
 62
7
  6
CONTINUOUS
 10
12.1753921694
 20
7.1456671922
 11
12.2446889225
 21
7.059461625
  0
LWPOLYLINE
  5
526
100
AcDbEntity
  8
0
100
AcDbPolyline
 62
7
  6
CONTINUOUS
 90
4
 70
0
 10
12.8217293523
 20
6.6540545731
 10
12.8221936133
 20
6.6506928573
 10
12.8217126513
 20
6.6481284568
 10
12.820370161
 20
6.6466121613
  0
LINE
  5
527
100
AcDbEntity
  8
02___PRT_ALL_AXES
100
AcDbLine
 62
7
  6
CONTINUOUS
 10
13.0987917469
 20
6.3720588657
 11
13.0987917469
 21
6.4312055813
  0
LWPOLYLINE
  5
528
100
AcDbEntity
  8
0
100
AcDbPolyline
 62
9
  6
CONTINUOUS
 90
11
 70
0
 10
13.0336077702
 20
6.7457407447
 10
13.0378005129
 20
6.7756494798
 10
13.0440529314
 20
6.8062217591
 10
13.0523175843
 20
6.8372245419
 10
13.0625306266
 20
6.8684186699
 10
13.0746129447
 20
6.8995642695
 10
13.0884768692
 20
6.930434871
 10
13.1040226072
 20
6.9608038156
 10
13.121123357
 20
6.9904211767
 10
13.1396295466
 20
7.0190340235
 10
13.1593766749
 20
7.0464028224
  0
LINE
  5
529
100
AcDbEntity
  8
0
100
AcDbLine
 62
7
  6
CONTINUOUS
 10
14.1360672775
 20
7.5979410437
 11
14.1633216727
 21
7.6154590998
  0
LINE
  5
52A
100
AcDbEntity
  8
0
100
AcDbLine
 62
7
  6
CONTINUOUS
 10
14.1231506684
 20
7.5896712224
 11
14.1360672775
 21
7.5979410437
  0
LINE
  5
52B
100
AcDbEntity
  8
0
100
AcDbLine
 62
7
  6
CONTINUOUS
 10
14.1813769797
 20
7.6258969187
 11
14.2371920013
 21
7.6581215441
  0
LINE
  5
52C
100
AcDbEntity
  8
0
100
AcDbLine
 62
9
  6
CONTINUOUS
 10
13.5181005595
 20
7.2409412472
 11
13.4019229214
 21
7.1738664982
  0
LINE
  5
52D
100
AcDbEntity
  8
0
100
AcDbLine
 62
9
  6
CONTINUOUS
 10
13.2905679864
 20
7.1095760802
 11
13.1702624859
 21
7.0401180405
  0
LINE
  5
52E
100
AcDbEntity
  8
0
100
AcDbLine
 62
9
  6
CONTINUOUS
 10
13.5281064825
 20
7.2145775457
 11
13.4158402842
 21
7.1497610526
  0
LINE
  5
52F
100
AcDbEntity
  8
0
100
AcDbLine
 62
9
  6
CONTINUOUS
 10
13.3044853492
 20
7.0854706346
 11
13.1882302639
 21
7.0183510906
  0
LWPOLYLINE
  5
530
100
AcDbEntity
  8
AXIS
100
AcDbPolyline
 62
7
  6
CONTINUOUS
 90
6
 70
0
 10
12.9801459164
 20
5.5242946297
 10
13.0245999466
 20
5.5322633187
 10
13.0667522091
 20
5.543662762
 10
13.1058126517
 20
5.5582793016
 10
13.1410491765
 20
5.5758389846
 10
13.1718010821
 20
5.5960124907
  0
LWPOLYLINE
  5
531
100
AcDbEntity
  8
AXIS
100
AcDbPolyline
 62
7
  6
CONTINUOUS
 90
8
 70
0
 10
12.8476900681
 20
5.8135205126
 10
12.8617722763
 20
5.812728973
 10
12.8767472974
 20
5.8129868181
 10
12.893431448
 20
5.8141806377
 10
12.9119136464
 20
5.8162379823
 10
12.9321540015
 20
5.8190168659
 10
12.9533844598
 20
5.8222125046
 10
12.9744823603
 20
5.8254704591
  0
LWPOLYLINE
  5
532
100
AcDbEntity
  8
AXIS
100
AcDbPolyline
 62
7
  6
CONTINUOUS
 90
4
 70
0
 10
12.7973583296
 20
5.8212228865
 10
12.8040870151
 20
5.820212742
 10
12.8115315122
 20
5.8202620248
 10
12.8178138159
 20
5.8218879807
  0
LWPOLYLINE
  5
533
100
AcDbEntity
  8
AXIS
100
AcDbPolyline
 62
9
  6
CONTINUOUS
 90
9
 70
0
 10
12.7030894027
 20
6.1426292428
 10
12.7307364703
 20
6.12863159
 10
12.7613012329
 20
6.116841575
 10
12.7942666533
 20
6.1074567413
 10
12.8290689795
 20
6.100636748
 10
12.8651134494
 20
6.0964975818
 10
12.9017843399
 20
6.0951096219
 10
12.9384553596
 20
6.0964964659
 10
12.9745107852
 20
6.1006357493
  0
LWPOLYLINE
  5
534
100
AcDbEntity
  8
0
100
AcDbPolyline
 62
7
  6
CONTINUOUS
 90
4
 70
0
 10
12.7559495015
 20
6.1731453594
 10
12.7454369119
 20
6.1796859829
 10
12.7271027673
 20
6.1940379648
 10
12.7126784966
 20
6.2098206325
  0
LWPOLYLINE
  5
535
100
AcDbEntity
  8
AXIS
100
AcDbPolyline
 62
7
  6
CONTINUOUS
 90
6
 70
0
 10
12.3186114786
 20
7.0079435941
 10
12.368912565
 20
6.9523193045
 10
12.5042196469
 20
6.8214062166
 10
12.6512858441
 20
6.6977491013
 10
12.8083438435
 20
6.5834676179
 10
12.9740527521
 20
6.4798619591
  0
LINE
  5
536
100
AcDbEntity
  8
0
100
AcDbLine
 62
7
  6
CONTINUOUS
 10
12.2682584734
 20
7.1992832577
 11
12.3139856756
 21
7.14239835
  0
LINE
  5
537
100
AcDbEntity
  8
0
100
AcDbLine
 62
7
  6
CONTINUOUS
 10
12.3139856756
 20
7.1580479508
 11
12.2446889225
 21
7.244253518
  0
LWPOLYLINE
  5
538
100
AcDbEntity
  8
0
100
AcDbPolyline
 62
7
  6
CONTINUOUS
 90
5
 70
0
 10
13.0987917469
 20
6.2918063076
 10
13.1010836415
 20
6.2880114943
 10
13.1067788056
 20
6.2705000298
 10
13.1078860583
 20
6.2527167544
 10
13.1043726891
 20
6.2349819291
  0
LWPOLYLINE
  5
539
100
AcDbEntity
  8
0
100
AcDbPolyline
 62
9
  6
CONTINUOUS
 90
15
 70
0
 10
13.0440526914
 20
6.6465716364
 10
13.0411003388
 20
6.6716183102
 10
13.0401336503
 20
6.6979628955
 10
13.0411596752
 20
6.7254174751
 10
13.0441709702
 20
6.7537866442
 10
13.0491463436
 20
6.782871394
 10
13.0560519697
 20
6.8124707566
 10
13.0648385277
 20
6.842370884
 10
13.0754363854
 20
6.8723403198
 10
13.0877723579
 20
6.9021787286
 10
13.1017948228
 20
6.931748243
 10
13.1174040179
 20
6.960816623
 10
13.1343209721
 20
6.9888991708
 10
13.152135204
 20
7.0154558668
 10
13.1703888212
 20
7.0400451036
  0
LINE
  5
53A
100
AcDbEntity
  8
0
100
AcDbLine
 62
7
  6
CONTINUOUS
 10
13.1252495118
 20
7.4783102106
 11
13.1252495118
 21
7.3545989694
  0
LINE
  5
53B
100
AcDbEntity
  8
AXIS
100
AcDbLine
 62
7
  6
CONTINUOUS
 10
13.1312282414
 20
5.2515867971
 11
13.1312282414
 21
5.4854395379
  0
LINE
  5
53C
100
AcDbEntity
  8
AXIS
100
AcDbLine
 62
7
  6
CONTINUOUS
 10
13.1312282414
 20
5.8703734754
 11
13.1312282414
 21
6.1042262162
  0
LINE
  5
53D
100
AcDbEntity
  8
0
100
AcDbLine
 62
7
  6
CONTINUOUS
 10
13.1801818661
 20
7.3238663866
 11
13.1801818661
 21
7.3134594677
  0
LINE
  5
53E
100
AcDbEntity
  8
AXIS
100
AcDbLine
 62
7
  6
CONTINUOUS
 10
13.2152061724
 20
5.4325345169
 11
13.2152061724
 21
5.5629679313
  0
LINE
  5
53F
100
AcDbEntity
  8
AXIS
100
AcDbLine
 62
7
  6
CONTINUOUS
 10
13.2152061724
 20
6.0513211952
 11
13.2152061724
 21
6.285173936
  0
LINE
  5
540
100
AcDbEntity
  8
AXIS
100
AcDbLine
 62
7
  6
CONTINUOUS
 10
13.2417917469
 20
5.6385560499
 11
13.2417917469
 21
5.6525852897
  0
LWPOLYLINE
  5
541
100
AcDbEntity
  8
0
100
AcDbPolyline
 62
7
  6
CONTINUOUS
 90
4
 70
0
 10
13.1882302639
 20
6.5108643728
 10
13.1862945494
 20
6.5057096283
 10
13.1832295613
 20
6.5017448222
 10
13.1809602743
 20
6.500132939
  0
LINE
  5
542
100
AcDbEntity
  8
0
100
AcDbLine
 62
9
  6
CONTINUOUS
 10
12.811942683
 20
6.648403993
 11
12.8192065372
 21
6.6525977561
  0
LWPOLYLINE
  5
543
100
AcDbEntity
  8
AXIS
100
AcDbPolyline
 62
7
  6
CONTINUOUS
 90
3
 70
0
 10
13.1312282414
 20
5.8703734754
 10
13.1335314732
 20
5.8700760957
 10
13.1351782055
 20
5.8708266983
  0
LWPOLYLINE
  5
544
100
AcDbEntity
  8
AXIS
100
AcDbPolyline
 62
7
  6
CONTINUOUS
 90
13
 70
0
 10
13.1312282414
 20
6.1042262162
 10
13.1227404251
 20
6.1081182364
 10
13.112955677
 20
6.110826393
 10
13.1024978946
 20
6.1124720388
 10
13.0917548983
 20
6.113261509
 10
13.0809825189
 20
6.1133913935
 10
13.0698497273
 20
6.1130037705
 10
13.0578633037
 20
6.1121381743
 10
13.0445057149
 20
6.1107688651
 10
13.0292693135
 20
6.1088450104
 10
13.0121241003
 20
6.1063961303
 10
12.9936252695
 20
6.1035892528
 10
12.9745133981
 20
6.1006365768
  0
LWPOLYLINE
  5
545
100
AcDbEntity
  8
0
100
AcDbPolyline
 62
7
  6
CONTINUOUS
 90
7
 70
0
 10
12.4388236097
 20
6.9151630159
 10
12.4358002166
 20
6.9180350366
 10
12.4326491553
 20
6.9216341225
 10
12.4296186941
 20
6.9256988334
 10
12.4269104591
 20
6.9299889688
 10
12.4246826182
 20
6.9343253735
 10
12.4231912927
 20
6.9382832341
  0
LWPOLYLINE
  5
546
100
AcDbEntity
  8
0
100
AcDbPolyline
 62
7
  6
CONTINUOUS
 90
4
 70
0
 10
13.0436181952
 20
6.6064754238
 10
13.0614936129
 20
6.5719973096
 10
13.084631945
 20
6.5441756492
 10
13.1123780342
 20
6.5233634997
  0
LWPOLYLINE
  5
547
100
AcDbEntity
  8
02___PRT_ALL_AXES
100
AcDbPolyline
 62
7
  6
CONTINUOUS
 90
3
 70
0
 10
13.3077877968
 20
5.8326714615
 10
13.3067571849
 20
5.8493944024
 10
13.3029162418
 20
5.864817261
  0
LWPOLYLINE
  5
548
100
AcDbEntity
  8
02___PRT_ALL_AXES
100
AcDbPolyline
 62
7
  6
CONTINUOUS
 90
7
 70
0
 10
13.3077877968
 20
5.9500356475
 10
13.3067571849
 20
5.9667585884
 10
13.2985130152
 20
5.9998620891
 10
13.2821927446
 20
6.0319512672
 10
13.2581286066
 20
6.0623728795
 10
13.2268104778
 20
6.0905076298
 10
13.2152061724
 20
6.0982393765
  0
LINE
  5
549
100
AcDbEntity
  8
0
100
AcDbLine
 62
7
  6
CONTINUOUS
 10
13.2636987628
 20
7.1250886828
 11
13.2636987628
 21
7.1508052944
  0
LINE
  5
54A
100
AcDbEntity
  8
0
100
AcDbLine
 62
7
  6
CONTINUOUS
 10
13.2915368011
 20
7.3833746655
 11
13.2915368011
 21
7.3881568045
  0
LINE
  5
54B
100
AcDbEntity
  8
0
100
AcDbLine
 62
7
  6
CONTINUOUS
 10
13.3044853492
 20
6.573377933
 11
13.3044853492
 21
7.0854706346
  0
LINE
  5
54C
100
AcDbEntity
  8
02___PRT_ALL_AXES
100
AcDbLine
 62
7
  6
CONTINUOUS
 10
13.3077917469
 20
5.779598806
 11
13.3077917469
 21
5.8326714632
  0
LINE
  5
54D
100
AcDbEntity
  8
02___PRT_ALL_AXES
100
AcDbLine
 62
7
  6
CONTINUOUS
 10
13.3077917469
 20
5.8969629921
 11
13.3077917469
 21
5.9500356492
  0
LINE
  5
54E
100
AcDbEntity
  8
0
100
AcDbLine
 62
7
  6
CONTINUOUS
 10
13.3750536978
 20
7.2150957123
 11
13.3750536978
 21
7.1893791007
  0
LINE
  5
54F
100
AcDbEntity
  8
0
100
AcDbLine
 62
7
  6
CONTINUOUS
 10
13.3750536978
 20
6.6451455306
 11
13.3750536978
 21
6.6194289191
  0
LWPOLYLINE
  5
550
100
AcDbEntity
  8
AXIS
100
AcDbPolyline
 62
7
  6
CONTINUOUS
 90
18
 70
0
 10
13.241790319
 20
5.6385640915
 10
13.2399136495
 20
5.6179523077
 10
13.2318708054
 20
5.5914829681
 10
13.2176414763
 20
5.5658958921
 10
13.1974923541
 20
5.5416706438
 10
13.1718010821
 20
5.5192612635
 10
13.1410491765
 20
5.4990877573
 10
13.1058126517
 20
5.4815280744
 10
13.0667522091
 20
5.4669115347
 10
13.0245999466
 20
5.4555120915
 10
12.9801459164
 20
5.4475434025
 10
12.9342233106
 20
5.4431548229
 10
12.8876928467
 20
5.4424286071
 10
12.8414266352
 20
5.4453783664
 10
12.7962918336
 20
5.4519488142
 10
12.7531343938
 20
5.4620168022
 10
12.7127632066
 20
5.4753936284
 10
12.6759349407
 20
5.4918285742
  0
LINE
  5
551
100
AcDbEntity
  8
AXIS
100
AcDbLine
 62
7
  6
CONTINUOUS
 10
13.1334477025
 20
5.4952996575
 11
13.1312282414
 21
5.4854395379
  0
LWPOLYLINE
  5
552
100
AcDbEntity
  8
AXIS
100
AcDbPolyline
 62
9
  6
CONTINUOUS
 90
9
 70
0
 10
13.1732145766
 20
6.2153467287
 10
13.1803871376
 20
6.2361643599
 10
13.1827917467
 20
6.2573360609
 10
13.1803901512
 20
6.2785078779
 10
13.1732231801
 20
6.299318221
 10
13.1614126932
 20
6.319411598
 10
13.1451595496
 20
6.3384446156
 10
13.1247402552
 20
6.3560917809
 10
13.1004956132
 20
6.372055443
  0
LWPOLYLINE
  5
553
100
AcDbEntity
  8
AXIS
100
AcDbPolyline
 62
7
  6
CONTINUOUS
 90
13
 70
0
 10
13.1732223893
 20
6.2153655298
 10
13.1681412091
 20
6.2044132662
 10
13.1631949629
 20
6.1937017541
 10
13.1586007539
 20
6.1836016077
 10
13.1545142533
 20
6.1743666251
 10
13.1509309014
 20
6.1659523346
 10
13.1477138682
 20
6.1580354928
 10
13.1447249539
 20
6.150263614
 10
13.1418322068
 20
6.1422362541
 10
13.1389461773
 20
6.1335661199
 10
13.136136201
 20
6.124244592
 10
13.133507373
 20
6.1143514262
 10
13.1312282414
 20
6.1042262162
  0
LWPOLYLINE
  5
554
100
AcDbEntity
  8
0
100
AcDbPolyline
 62
7
  6
CONTINUOUS
 90
5
 70
0
 10
13.1043726891
 20
6.2349819291
 10
13.0962583046
 20
6.2176705171
 10
13.0837606327
 20
6.2012887164
 10
13.0673336587
 20
6.1863163077
 10
13.047635568
 20
6.1731444763
  0
LINE
  5
555
100
AcDbEntity
  8
AXIS
100
AcDbLine
 62
7
  6
CONTINUOUS
 10
12.6905474181
 20
6.3813625975
 11
12.6684047211
 21
6.3687018343
  0
LWPOLYLINE
  5
556
100
AcDbEntity
  8
AXIS
100
AcDbPolyline
 62
9
  6
CONTINUOUS
 90
6
 70
0
 10
12.7047917469
 20
6.3729187524
 10
12.70310691
 20
6.3720658828
 10
12.6788532426
 20
6.356099309
 10
12.65842433
 20
6.3384450014
 10
12.6421572665
 20
6.319392725
 10
12.6303698595
 20
6.2993414624
  0
LWPOLYLINE
  5
557
100
AcDbEntity
  8
AXIS
100
AcDbPolyline
 62
7
  6
CONTINUOUS
 90
11
 70
0
 10
12.9744823603
 20
5.8254704591
 10
12.9943842473
 20
5.8285539098
 10
13.0127897207
 20
5.831459758
 10
13.0294873475
 20
5.8342463108
 10
13.0443540258
 20
5.8369692864
 10
13.0575558434
 20
5.8396943682
 10
13.0695168324
 20
5.8425206518
 10
13.0806677177
 20
5.8455691313
 10
13.0914286624
 20
5.8490114521
 10
13.1021312956
 20
5.8530848163
 10
13.1130336203
 20
5.8581622525
  0
LWPOLYLINE
  5
558
100
AcDbEntity
  8
AXIS
100
AcDbPolyline
 62
7
  6
CONTINUOUS
 90
13
 70
0
 10
13.0987917469
 20
6.3730381199
 10
13.1145953159
 20
6.3639105283
 10
13.1281726012
 20
6.3560157371
 10
13.1406883404
 20
6.3485846065
 10
13.1517482556
 20
6.3417677593
 10
13.1614120036
 20
6.3355007827
 10
13.1700717718
 20
6.3295320678
 10
13.1781096647
 20
6.3235896698
 10
13.185897073
 20
6.3173456909
 10
13.1937219224
 20
6.3104306579
 10
13.2015090574
 20
6.3026674388
 10
13.2089713032
 20
6.2939935152
 10
13.2152061724
 20
6.285173936
  0
LWPOLYLINE
  5
559
100
AcDbEntity
  8
0
100
AcDbPolyline
 62
7
  6
CONTINUOUS
 90
4
 70
0
 10
12.4462942591
 20
6.9194761717
 10
12.5613840082
 20
6.8273435488
 10
12.6859941073
 20
6.7381416028
 10
12.8192065372
 20
6.6525977561
  0
LINE
  5
55A
100
AcDbEntity
  8
0
100
AcDbLine
 62
9
  6
CONTINUOUS
 10
13.1218748885
 20
6.544420206
 11
13.1087234345
 21
6.5587161165
  0
LWPOLYLINE
  5
55B
100
AcDbEntity
  8
0
100
AcDbPolyline
 62
9
  6
CONTINUOUS
 90
19
 70
0
 10
13.1087234345
 20
6.5587161165
 10
13.0972856698
 20
6.5751379255
 10
13.0876207752
 20
6.5935917575
 10
13.079803772
 20
6.6139389709
 10
13.0738958811
 20
6.6360211403
 10
13.0699401969
 20
6.6596753661
 10
13.0679660673
 20
6.6847272373
 10
13.0679886081
 20
6.7109887972
 10
13.0700076375
 20
6.7382624806
 10
13.0740078869
 20
6.7663445025
 10
13.0799602965
 20
6.7950293239
 10
13.0878219015
 20
6.8241056999
 10
13.0975290984
 20
6.8533399458
 10
13.1090021394
 20
6.8825012355
 10
13.1221820724
 20
6.9114355797
 10
13.1370037077
 20
6.9399730083
 10
13.1532280674
 20
6.9676648988
 10
13.1704574253
 20
6.9939499916
 10
13.1882302639
 20
7.0183510906
  0
LINE
  5
55C
100
AcDbEntity
  8
0
100
AcDbLine
 62
7
  6
CONTINUOUS
 10
13.4158402842
 20
7.1497610526
 11
13.4158402842
 21
6.637668351
  0
LWPOLYLINE
  5
55D
100
AcDbEntity
  8
0
100
AcDbPolyline
 62
7
  6
CONTINUOUS
 90
6
 70
0
 10
13.5281064825
 20
7.2145775457
 10
13.528710289
 20
7.2205012503
 10
13.5279179151
 20
7.2266930549
 10
13.5257522163
 20
7.2325522422
 10
13.5223922639
 20
7.2374676772
 10
13.5181005606
 20
7.2409412478
  0
LWPOLYLINE
  5
55E
100
AcDbEntity
  8
0
100
AcDbPolyline
 62
7
  6
CONTINUOUS
 90
3
 70
0
 10
13.5279209237
 20
6.7007536004
 10
13.5287102876
 20
6.7034022665
 10
13.5281064825
 20
6.7070908278
  0
LWPOLYLINE
  5
55F
100
AcDbEntity
  8
AXIS
100
AcDbPolyline
 62
7
  6
CONTINUOUS
 90
13
 70
0
 10
13.1732175138
 20
5.9401937012
 10
13.1784811001
 20
5.9515396007
 10
13.1835176665
 20
5.9624517711
 10
13.188142821
 20
5.9726343802
 10
13.1922070557
 20
5.9818418559
 10
13.1957413496
 20
5.990167189
 10
13.1988886867
 20
5.9979373727
 10
13.2017897013
 20
6.0054991146
 10
13.2045827572
 20
6.0132551902
 10
13.2073852182
 20
6.0216579365
 10
13.2101903985
 20
6.0309248336
 10
13.2129041673
 20
6.0411032137
 10
13.2152061724
 20
6.0513211952
  0
LWPOLYLINE
  5
560
100
AcDbEntity
  8
0
100
AcDbPolyline
 62
7
  6
CONTINUOUS
 90
14
 70
0
 10
13.5279208879
 20
6.7007535765
 10
13.5568769138
 20
6.7434727638
 10
13.5849915883
 20
6.7932191796
 10
13.608667768
 20
6.8449327982
 10
13.6273692431
 20
6.8975068585
 10
13.6406625008
 20
6.9498201675
 10
13.6482234625
 20
7.0007702944
 10
13.6498359511
 20
7.0493096643
 10
13.6453897952
 20
7.09438985
 10
13.6349333996
 20
7.1349418556
 10
13.6187088823
 20
7.1700295887
 10
13.5971302844
 20
7.19891197
 10
13.5707576436
 20
7.2210197471
 10
13.5643430078
 20
7.224949934
  0
LINE
  5
561
100
AcDbEntity
  8
0
100
AcDbLine
 62
7
  6
CONTINUOUS
 10
13.5270293206
 20
6.699931183
 11
13.5279209237
 21
6.7007536004
  0
LWPOLYLINE
  5
562
100
AcDbEntity
  8
02___PRT_ALL_AXES
100
AcDbPolyline
 62
7
  6
CONTINUOUS
 90
3
 70
0
 10
13.3098274651
 20
6.5723868961
 10
13.3576855044
 20
6.6048524103
 10
13.374644278
 20
6.6198906266
  0
LWPOLYLINE
  5
563
100
AcDbEntity
  8
02___PRT_ALL_AXES
100
AcDbPolyline
 62
7
  6
CONTINUOUS
 90
7
 70
0
 10
12.5883773214
 20
6.098239294
 10
12.5767709901
 20
6.0905060673
 10
12.5454532671
 20
6.0623711665
 10
12.5213895679
 20
6.0319494384
 10
12.50506976
 20
5.9998601819
 10
12.4968260678
 20
5.9667566415
 10
12.495795697
 20
5.9500356508
  0
LINE
  5
564
100
AcDbEntity
  8
0
100
AcDbLine
 62
9
  6
CONTINUOUS
 10
13.4158402842
 20
6.637668351
 11
13.5281064825
 21
6.7070908278
  0
LINE
  5
565
100
AcDbEntity
  8
0
100
AcDbLine
 62
7
  6
CONTINUOUS
 10
13.4119384867
 20
6.6287620229
 11
13.5269928299
 21
6.6999086156
  0
LINE
  5
566
100
AcDbEntity
  8
0
100
AcDbLine
 62
7
  6
CONTINUOUS
 10
13.3969431633
 20
6.6325079278
 11
13.3750536978
 21
6.6194289191
  0
LINE
  5
567
100
AcDbEntity
  8
0
100
AcDbLine
 62
9
  6
CONTINUOUS
 10
13.1882302639
 20
6.5108643728
 11
13.3044853492
 21
6.573377933
  0
LINE
  5
568
100
AcDbEntity
  8
0
100
AcDbLine
 62
7
  6
CONTINUOUS
 10
13.1809891804
 20
6.5001484805
 11
13.3002317456
 21
6.5642684909
  0
LINE
  5
569
100
AcDbEntity
  8
02___PRT_ALL_AXES
100
AcDbLine
 62
7
  6
CONTINUOUS
 10
13.3039185184
 20
6.569572332
 11
13.3098274651
 21
6.5723868961
  0
LWPOLYLINE
  5
56A
100
AcDbEntity
  8
AXIS
100
AcDbPolyline
 62
7
  6
CONTINUOUS
 90
3
 70
0
 10
12.6905475839
 20
6.3813623035
 10
12.7010833979
 20
6.3862847847
 10
12.7047917469
 20
6.3877047332
  0
LWPOLYLINE
  5
56B
100
AcDbEntity
  8
0
100
AcDbPolyline
 62
7
  6
CONTINUOUS
 90
8
 70
0
 10
13.848312092
 20
6.7836274148
 10
13.851758433
 20
6.7852141751
 10
13.8557299411
 20
6.7863183982
 10
13.8600274682
 20
6.7868847137
 10
13.8644355185
 20
6.7868847243
 10
13.8687330538
 20
6.7863184294
 10
13.8727045778
 20
6.7852142254
 10
13.8761509417
 20
6.7836274817
  0
LWPOLYLINE
  5
56C
100
AcDbEntity
  8
0
100
AcDbPolyline
 62
7
  6
CONTINUOUS
 90
3
 70
0
 10
13.1809602743
 20
6.500132939
 10
13.1792870555
 20
6.4994121287
 10
13.1744867021
 20
6.4990590241
  0
LWPOLYLINE
  5
56D
100
AcDbEntity
  8
0
100
AcDbPolyline
 62
7
  6
CONTINUOUS
 90
6
 70
0
 10
13.0539318548
 20
6.4473957194
 10
13.0772003545
 20
6.436197346
 10
13.1288756957
 20
6.4242504027
 10
13.1860491649
 20
6.4264741664
 10
13.2469835751
 20
6.4428010691
 10
13.3098274651
 20
6.4727350263
  0
LINE
  5
56E
100
AcDbEntity
  8
0
100
AcDbLine
 62
7
  6
CONTINUOUS
 10
12.8192065372
 20
6.6525977561
 11
12.822131732
 21
6.6511409402
  0
LWPOLYLINE
  5
56F
100
AcDbEntity
  8
0
100
AcDbPolyline
 62
7
  6
CONTINUOUS
 90
4
 70
0
 10
12.974055222
 20
6.4798662369
 10
12.9920288411
 20
6.4708200502
 10
13.0339111017
 20
6.4583960579
 10
13.0349705132
 20
6.4583299873
  0
LINE
  5
570
100
AcDbEntity
  8
AXIS
100
AcDbLine
 62
9
  6
CONTINUOUS
 10
13.1004956132
 20
6.372055443
 11
13.0987917469
 21
6.3729181127
  0
LINE
  5
571
100
AcDbEntity
  8
0
100
AcDbLine
 62
7
  6
CONTINUOUS
 10
13.1226321236
 20
6.517443435
 11
13.1226267837
 21
6.5174465167
  0
LINE
  5
572
100
AcDbEntity
  8
0
100
AcDbLine
 62
7
  6
CONTINUOUS
 10
12.9799581638
 20
6.4900906635
 11
13.0539262952
 21
6.447386109
  0
LINE
  5
573
100
AcDbEntity
  8
0
100
AcDbLine
 62
7
  6
CONTINUOUS
 10
13.1123780342
 20
6.5233634997
 11
13.1226135859
 21
6.5174541349
  0
LINE
  5
574
100
AcDbEntity
  8
02___PRT_ALL_AXES
100
AcDbLine
 62
7
  6
CONTINUOUS
 10
12.2586158442
 20
7.0235458235
 11
12.2446862553
 21
7.0315883053
  0
LINE
  5
575
100
AcDbEntity
  8
0
100
AcDbLine
 62
9
  6
CONTINUOUS
 10
13.1226267837
 20
6.5174465167
 11
13.1169413248
 21
6.5209177728
  0
LWPOLYLINE
  5
576
100
AcDbEntity
  8
0
100
AcDbPolyline
 62
9
  6
CONTINUOUS
 90
12
 70
0
 10
13.1123780342
 20
6.5233634997
 10
13.1041288355
 20
6.5285452781
 10
13.0885619374
 20
6.5409572603
 10
13.0746810294
 20
6.5558140665
 10
13.0625871447
 20
6.5729996493
 10
13.0523652186
 20
6.5923882897
 10
13.0440916005
 20
6.613833929
 10
13.0378289762
 20
6.6371740524
 10
13.0336250833
 20
6.662231419
 10
13.0315121257
 20
6.6888153483
 10
13.0315063444
 20
6.7167226065
 10
13.0336077702
 20
6.7457407447
  0
LWPOLYLINE
  5
577
100
AcDbEntity
  8
0
100
AcDbPolyline
 62
7
  6
CONTINUOUS
 90
4
 70
0
 10
12.811942683
 20
6.648403993
 10
12.679120898
 20
6.7336432818
 10
12.5542492018
 20
6.8229207853
 10
12.4388236097
 20
6.9151630159
  0
LWPOLYLINE
  5
578
100
AcDbEntity
  8
0
100
AcDbPolyline
 62
9
  6
CONTINUOUS
 90
8
 70
0
 10
13.1169413248
 20
6.5209177728
 10
13.1013661472
 20
6.5326241483
 10
13.0873814212
 20
6.5466053906
 10
13.0750906535
 20
6.5627352857
 10
13.0645459642
 20
6.5809282992
 10
13.0558168449
 20
6.6010662442
 10
13.0489695541
 20
6.6229996267
 10
13.0440526914
 20
6.6465716364
  0
LWPOLYLINE
  5
579
100
AcDbEntity
  8
0
100
AcDbPolyline
 62
7
  6
CONTINUOUS
 90
4
 70
0
 10
12.4388236097
 20
7.1562562493
 10
12.5542540018
 20
7.0640103922
 10
12.6791317691
 20
6.9747291543
 10
12.811942683
 20
6.8894972264
  0
LWPOLYLINE
  5
57A
100
AcDbEntity
  8
0
100
AcDbPolyline
 62
7
  6
CONTINUOUS
 90
7
 70
0
 10
12.811942683
 20
6.8894972264
 10
12.8152441517
 20
6.8868090519
 10
12.8181352941
 20
6.8829940869
 10
12.8203308983
 20
6.8783966725
 10
12.821710924
 20
6.8733176476
 10
12.8221936134
 20
6.8680078386
 10
12.8217293523
 20
6.8630020421
  0
LINE
  5
57B
100
AcDbEntity
  8
0
100
AcDbLine
 62
7
  6
CONTINUOUS
 10
13.3098274651
 20
6.4727350263
 11
13.848312092
 21
6.7836274148
  0
LWPOLYLINE
  5
57C
100
AcDbEntity
  8
AXIS
100
AcDbPolyline
 62
9
  6
CONTINUOUS
 90
4
 70
0
 10
12.9745107852
 20
6.1006357493
 10
13.0092364117
 20
6.1074375177
 10
13.0422393402
 20
6.1168272725
 10
13.0728212035
 20
6.1286201535
  0
LWPOLYLINE
  5
57D
100
AcDbEntity
  8
AXIS
100
AcDbPolyline
 62
7
  6
CONTINUOUS
 90
13
 70
0
 10
12.9745133981
 20
6.1006365768
 10
12.9549086616
 20
6.0975993223
 10
12.9361919743
 20
6.0946447032
 10
12.919050294
 20
6.0917800013
 10
12.9040216996
 20
6.0890153269
 10
12.8909246986
 20
6.0862956426
 10
12.8792142287
 20
6.0835144782
 10
12.8683559039
 20
6.0805396279
 10
12.8578258909
 20
6.0771764225
 10
12.847216267
 20
6.0731566038
 10
12.8366019546
 20
6.0682608131
 10
12.8263901293
 20
6.0623176868
 10
12.8178138159
 20
6.0557407215
  0
LWPOLYLINE
  5
57E
100
AcDbEntity
  8
AXIS
100
AcDbPolyline
 62
7
  6
CONTINUOUS
 90
13
 70
0
 10
13.2152061724
 20
6.285173936
 10
13.212888654
 20
6.2854676171
 10
13.2101247765
 20
6.2839016349
 10
13.2072605336
 20
6.2809860125
 10
13.2043942312
 20
6.2771878007
 10
13.2015384694
 20
6.2727691452
 10
13.1985890268
 20
6.2677049997
 10
13.1954166518
 20
6.261827341
 10
13.1918894197
 20
6.2549035878
 10
13.1878729913
 20
6.2466718861
 10
13.183333053
 20
6.2370912358
 10
13.1783963747
 20
6.2265098098
 10
13.1732223893
 20
6.2153655298
  0
LWPOLYLINE
  5
57F
100
AcDbEntity
  8
0
100
AcDbPolyline
 62
7
  6
CONTINUOUS
 90
3
 70
0
 10
13.1226280214
 20
6.5174458448
 10
13.1483052998
 20
6.5057122662
 10
13.1744860286
 20
6.4990586196
  0
LWPOLYLINE
  5
580
100
AcDbEntity
  8
02___PRT_ALL_AXES
100
AcDbPolyline
 62
7
  6
CONTINUOUS
 90
4
 70
0
 10
12.2586158442
 20
7.0235458235
 10
12.2791245167
 20
7.0137769563
 10
12.2990071116
 20
7.0084497091
 10
12.3176625301
 20
7.0077242018
  0
LWPOLYLINE
  5
581
100
AcDbEntity
  8
02___PRT_ALL_AXES
100
AcDbPolyline
 62
7
  6
CONTINUOUS
 90
4
 70
0
 10
12.2446862688
 20
7.0315882975
 10
12.2627756413
 20
7.0229718135
 10
12.2803128043
 20
7.01827299
 10
12.2967675537
 20
7.0176330665
  0
LWPOLYLINE
  5
582
100
AcDbEntity
  8
AXIS
100
AcDbPolyline
 62
7
  6
CONTINUOUS
 90
13
 70
0
 10
13.1732175138
 20
5.3214070229
 10
13.1784811001
 20
5.3327529224
 10
13.1835176665
 20
5.3436650928
 10
13.188142821
 20
5.3538477019
 10
13.1922070557
 20
5.3630551777
 10
13.1957413496
 20
5.3713805107
 10
13.1988886867
 20
5.3791506944
 10
13.2017897013
 20
5.3867124363
 10
13.2045827572
 20
5.3944685119
 10
13.2073852182
 20
5.4028712582
 10
13.2101903985
 20
5.4121381553
 10
13.2129041673
 20
5.4223165354
 10
13.2152061724
 20
5.4325345169
  0
LINE
  5
583
100
AcDbEntity
  8
0
100
AcDbLine
 62
7
  6
CONTINUOUS
 10
13.047635568
 20
6.1731444763
 11
13.0476331277
 21
6.1731430726
  0
LWPOLYLINE
  5
584
100
AcDbEntity
  8
AXIS
100
AcDbPolyline
 62
9
  6
CONTINUOUS
 90
6
 70
0
 10
13.0728212035
 20
6.1286201535
 10
13.100480011
 20
6.142621552
 10
13.1247339353
 20
6.1585889196
 10
13.1451627922
 20
6.1762440842
 10
13.161429464
 20
6.1952972459
 10
13.1732145766
 20
6.2153467287
  0
LWPOLYLINE
  5
585
100
AcDbEntity
  8
0
100
AcDbPolyline
 62
7
  6
CONTINUOUS
 90
12
 70
0
 10
13.0476331277
 20
6.1731430726
 10
13.0248091009
 20
6.1617661368
 10
12.998865415
 20
6.152279464
 10
12.9704853712
 20
6.1450646407
 10
12.9405016116
 20
6.1403819201
 10
12.9097866551
 20
6.1383554225
 10
12.8789854695
 20
6.1389961872
 10
12.848653615
 20
6.1422858526
 10
12.81946285
 20
6.1481639762
 10
12.7921278186
 20
6.1564929867
 10
12.7672710636
 20
6.1670791337
 10
12.7559495015
 20
6.1731453594
  0
LWPOLYLINE
  5
586
100
AcDbEntity
  8
0
100
AcDbPolyline
 62
9
  6
CONTINUOUS
 90
5
 70
0
 10
13.1882302639
 20
6.5108643728
 10
13.1701445197
 20
6.5155512471
 10
13.1528786087
 20
6.5226947232
 10
13.1366706877
 20
6.5323534255
 10
13.1218748885
 20
6.544420206
  0
LINE
  5
587
100
AcDbEntity
  8
0
100
AcDbLine
 62
7
  6
CONTINUOUS
 10
13.3750536978
 20
6.6194289191
 11
13.3044853492
 21
6.6601706524
  0
LINE
  5
588
100
AcDbEntity
  8
0
100
AcDbLine
 62
7
  6
CONTINUOUS
 10
13.4019229214
 20
6.6296329281
 11
13.3750536978
 21
6.6451455306
  0
LINE
  5
589
100
AcDbEntity
  8
0
100
AcDbLine
 62
9
  6
CONTINUOUS
 10
13.848312092
 20
6.7836274148
 11
13.848312092
 21
7.6194172906
  0
LINE
  5
58A
100
AcDbEntity
  8
0
100
AcDbLine
 62
9
  6
CONTINUOUS
 10
13.8761509417
 20
6.7836274817
 11
13.8761509417
 21
7.6194173575
  0
LWPOLYLINE
  5
58B
100
AcDbEntity
  8
AXIS
100
AcDbPolyline
 62
7
  6
CONTINUOUS
 90
12
 70
0
 10
13.1351782055
 20
5.8708266983
 10
13.1361629014
 20
5.871526797
 10
13.1389550783
 20
5.8743037057
 10
13.1418004201
 20
5.878014834
 10
13.1446519032
 20
5.8823801629
 10
13.1476129162
 20
5.8874277899
 10
13.1508156665
 20
5.8933345837
 10
13.1543965932
 20
5.900345902
 10
13.1584896425
 20
5.908725984
 10
13.1630966999
 20
5.9184462425
 10
13.1680698214
 20
5.9291059826
 10
13.1732175138
 20
5.9401937012
  0
LWPOLYLINE
  5
58C
100
AcDbEntity
  8
0
100
AcDbPolyline
 62
7
  6
CONTINUOUS
 90
5
 70
0
 10
14.6125241995
 20
6.8371751443
 10
14.6094497212
 20
6.8351836138
 10
14.5992515115
 20
6.8240110638
 10
14.5928854501
 20
6.8083036543
 10
14.5907215096
 20
6.7889742429
  0
LWPOLYLINE
  5
58D
100
AcDbEntity
  8
0
100
AcDbPolyline
 62
7
  6
CONTINUOUS
 90
6
 70
0
 10
13.1702624843
 20
7.0401180396
 10
13.1748362799
 20
7.0368073346
 10
13.1792870569
 20
7.0325216839
 10
13.1832295624
 20
7.0276883303
 10
13.1862945505
 20
7.0228086122
 10
13.1882302639
 20
7.0183510906
  0
LWPOLYLINE
  5
58E
100
AcDbEntity
  8
AXIS
100
AcDbPolyline
 62
7
  6
CONTINUOUS
 90
3
 70
0
 10
13.1718010821
 20
5.5960124907
 10
13.1974923541
 20
5.6184218711
 10
13.1996764468
 20
5.6210478012
  0
LWPOLYLINE
  5
58F
100
AcDbEntity
  8
02___PRT_ALL_AXES
100
AcDbPolyline
 62
7
  6
CONTINUOUS
 90
7
 70
0
 10
13.1888782953
 20
5.7842899028
 10
13.2268125037
 20
5.8095652311
 10
13.2581302268
 20
5.8377001319
 10
13.282193926
 20
5.8681218599
 10
13.2985137338
 20
5.9002111165
 10
13.306757426
 20
5.9333146568
 10
13.3077877968
 20
5.9500356475
  0
LWPOLYLINE
  5
590
100
AcDbEntity
  8
02___PRT_ALL_AXES
100
AcDbPolyline
 62
7
  6
CONTINUOUS
 90
7
 70
0
 10
13.1888782953
 20
5.7312172457
 10
13.2268125037
 20
5.7564925739
 10
13.2581302268
 20
5.7846274748
 10
13.282193926
 20
5.8150492028
 10
13.2985137338
 20
5.8471384594
 10
13.306757426
 20
5.8802419997
 10
13.3077877968
 20
5.8969629904
  0
LWPOLYLINE
  5
591
100
AcDbEntity
  8
AXIS
100
AcDbPolyline
 62
7
  6
CONTINUOUS
 90
3
 70
0
 10
13.1130336203
 20
5.8581622525
 10
13.1225207242
 20
5.863709613
 10
13.1312282414
 20
5.8703734754
  0
LINE
  5
592
100
AcDbEntity
  8
AXIS
100
AcDbLine
 62
7
  6
CONTINUOUS
 10
12.6593143193
 20
5.5916434708
 11
12.6476505516
 21
5.5849094316
  0
LINE
  5
593
100
AcDbEntity
  8
AXIS
100
AcDbLine
 62
7
  6
CONTINUOUS
 10
12.6759349407
 20
5.5685798015
 11
12.6937515493
 21
5.5788661638
  0
LINE
  5
594
100
AcDbEntity
  8
AXIS
100
AcDbLine
 62
7
  6
CONTINUOUS
 10
12.6759349407
 20
5.5244881066
 11
12.6476505516
 21
5.5081582044
  0
LWPOLYLINE
  5
595
100
AcDbEntity
  8
AXIS
100
AcDbPolyline
 62
7
  6
CONTINUOUS
 90
3
 70
0
 10
13.113034485
 20
5.8581607164
 10
13.1247279422
 20
5.8645512966
 10
13.1351776175
 20
5.8708215826
  0
LWPOLYLINE
  5
596
100
AcDbEntity
  8
0
100
AcDbPolyline
 62
7
  6
CONTINUOUS
 90
5
 70
0
 10
12.3751955279
 20
6.9922924285
 10
12.3612990857
 20
6.9958061961
 10
12.348168415
 20
6.9998747467
 10
12.3359185043
 20
7.0045140195
 10
12.3252280295
 20
7.0094733091
  0
LWPOLYLINE
  5
597
100
AcDbEntity
  8
0
100
AcDbPolyline
 62
7
  6
CONTINUOUS
 90
4
 70
0
 10
13.1593766749
 20
7.0464028224
 10
13.1551944551
 20
7.0482455668
 10
13.1518990254
 20
7.048516383
 10
13.1506987553
 20
7.0480736585
  0
LINE
  5
598
100
AcDbEntity
  8
0
100
AcDbLine
 62
7
  6
CONTINUOUS
 10
13.1593766749
 20
7.0464028224
 11
13.1702624859
 21
7.0401180405
  0
LINE
  5
599
100
AcDbEntity
  8
0
100
AcDbLine
 62
7
  6
CONTINUOUS
 10
13.1933410894
 20
7.0666966424
 11
13.1794216066
 21
7.0747328777
  0
LINE
  5
59A
100
AcDbEntity
  8
0
100
AcDbLine
 62
7
  6
CONTINUOUS
 10
13.2170985237
 20
7.1366181828
 11
13.2287227862
 21
7.1299070636
  0
LWPOLYLINE
  5
59B
100
AcDbEntity
  8
02___PRT_ALL_AXES
100
AcDbPolyline
 62
7
  6
CONTINUOUS
 90
7
 70
0
 10
13.1888782953
 20
5.6669257168
 10
13.2268125037
 20
5.692201045
 10
13.2581302268
 20
5.7203359459
 10
13.282193926
 20
5.7507576739
 10
13.2985137338
 20
5.7828469305
 10
13.306757426
 20
5.8159504708
 10
13.3077877968
 20
5.8326714615
  0
LWPOLYLINE
  5
59C
100
AcDbEntity
  8
02___PRT_ALL_AXES
100
AcDbPolyline
 62
7
  6
CONTINUOUS
 90
7
 70
0
 10
13.1888782953
 20
5.6138530597
 10
13.2268125037
 20
5.6391283879
 10
13.2581302268
 20
5.6672632888
 10
13.282193926
 20
5.6976850168
 10
13.2985137338
 20
5.7297742733
 10
13.306757426
 20
5.7628778137
 10
13.3077877968
 20
5.7795988044
  0
LWPOLYLINE
  5
59D
100
AcDbEntity
  8
0
100
AcDbPolyline
 62
7
  6
CONTINUOUS
 90
5
 70
0
 10
14.7178572854
 20
6.6547856236
 10
14.7209317636
 20
6.6567771541
 10
14.7311299734
 20
6.6679497041
 10
14.7374960347
 20
6.6836571136
 10
14.7396599753
 20
6.702986525
  0
LWPOLYLINE
  5
59E
100
AcDbEntity
  8
AXIS
100
AcDbPolyline
 62
7
  6
CONTINUOUS
 90
3
 70
0
 10
12.8319378339
 20
5.4467596879
 10
12.8263901293
 20
5.4435310086
 10
12.8178138159
 20
5.4369540432
  0
LWPOLYLINE
  5
59F
100
AcDbEntity
  8
0
100
AcDbPolyline
 62
7
  6
CONTINUOUS
 90
4
 70
0
 10
12.820370161
 20
6.6466121613
 10
12.8181386628
 20
6.646126328
 10
12.8152421691
 20
6.6467644452
 10
12.811942683
 20
6.648403993
  0
LINE
  5
5A0
100
AcDbEntity
  8
0
100
AcDbLine
 62
7
  6
CONTINUOUS
 10
13.2905679864
 20
7.1095760802
 11
13.2636987628
 21
7.1250886828
  0
LINE
  5
5A1
100
AcDbEntity
  8
0
100
AcDbLine
 62
7
  6
CONTINUOUS
 10
12.789688917
 20
7.4095148533
 11
12.7707197562
 21
7.4204664557
  0
LINE
  5
5A2
100
AcDbEntity
  8
0
100
AcDbLine
 62
7
  6
CONTINUOUS
 10
13.8870679998
 20
6.7773246578
 11
13.8761509417
 21
6.7836274817
  0
LINE
  5
5A3
100
AcDbEntity
  8
0
100
AcDbLine
 62
7
  6
CONTINUOUS
 10
13.2636987628
 20
7.1508052944
 11
13.2451645597
 21
7.1615057795
  0
LINE
  5
5A4
100
AcDbEntity
  8
0
100
AcDbLine
 62
7
  6
CONTINUOUS
 10
13.3750536978
 20
7.1893791007
 11
13.4019229214
 21
7.1738664982
  0
LWPOLYLINE
  5
5A5
100
AcDbEntity
  8
0
100
AcDbPolyline
 62
7
  6
CONTINUOUS
 90
5
 70
0
 10
14.1360672775
 20
6.5049850522
 10
14.0840984584
 20
6.5893361616
 10
14.023450521
 20
6.6649759868
 10
13.9567949843
 20
6.7285726215
 10
13.8870679998
 20
6.7773246578
  0
LINE
  5
5A6
100
AcDbEntity
  8
0
100
AcDbLine
 62
9
  6
CONTINUOUS
 10
13.5535858284
 20
7.2304789677
 11
13.5643442056
 21
7.2249492838
  0
LWPOLYLINE
  5
5A7
100
AcDbEntity
  8
0
100
AcDbPolyline
 62
7
  6
CONTINUOUS
 90
3
 70
0
 10
13.1801818661
 20
7.3238663866
 10
13.095631289
 20
7.3711692492
 10
13.0138945768
 20
7.4140197927
  0
LINE
  5
5A8
100
AcDbEntity
  8
0
100
AcDbLine
 62
7
  6
CONTINUOUS
 10
13.3514729906
 20
7.228709732
 11
13.3750536978
 21
7.2150957123
  0
LINE
  5
5A9
100
AcDbEntity
  8
0
100
AcDbLine
 62
7
  6
CONTINUOUS
 10
13.3968859893
 20
7.2421723579
 11
13.4100296744
 21
7.2345840195
  0
LINE
  5
5AA
100
AcDbEntity
  8
0
100
AcDbLine
 62
9
  6
CONTINUOUS
 10
13.2358593336
 20
7.3512294566
 11
13.3098274651
 21
7.3085249021
  0
LINE
  5
5AB
100
AcDbEntity
  8
0
100
AcDbLine
 62
7
  6
CONTINUOUS
 10
13.4732503368
 20
7.2283013571
 11
13.459330854
 21
7.2363375924
  0
LINE
  5
5AC
100
AcDbEntity
  8
0
100
AcDbLine
 62
7
  6
CONTINUOUS
 10
13.4787948201
 20
7.2385906845
 11
13.4794477699
 21
7.2382137123
  0
LINE
  5
5AD
100
AcDbEntity
  8
0
100
AcDbLine
 62
7
  6
CONTINUOUS
 10
13.5072147512
 20
7.2472260306
 11
13.5181005595
 21
7.2409412472
  0
LINE
  5
5AE
100
AcDbEntity
  8
0
100
AcDbLine
 62
7
  6
CONTINUOUS
 10
13.5542133919
 20
7.2307982431
 11
13.5644489436
 21
7.2248888782
  0
LINE
  5
5AF
100
AcDbEntity
  8
0
100
AcDbLine
 62
9
  6
CONTINUOUS
 10
13.5542094784
 20
7.2308005024
 11
13.5542133919
 21
7.2307982431
  0
LWPOLYLINE
  5
5B0
100
AcDbEntity
  8
0
100
AcDbPolyline
 62
7
  6
CONTINUOUS
 90
5
 70
0
 10
13.4732503368
 20
7.2283013571
 10
13.4710051449
 20
7.2298081396
 10
13.4697466656
 20
7.2311405711
 10
13.4694712851
 20
7.2322199566
 10
13.4701476688
 20
7.2330317776
  0
LWPOLYLINE
  5
5B1
100
AcDbEntity
  8
AXIS
100
AcDbPolyline
 62
7
  6
CONTINUOUS
 90
12
 70
0
 10
13.1351782055
 20
5.25204002
 10
13.1361629014
 20
5.2527401188
 10
13.1389550783
 20
5.2555170274
 10
13.1418004201
 20
5.2592281557
 10
13.1446519032
 20
5.2635934846
 10
13.1476129162
 20
5.2686411117
 10
13.1508156665
 20
5.2745479054
 10
13.1543965932
 20
5.2815592238
 10
13.1584896425
 20
5.2899393057
 10
13.1630966999
 20
5.2996595642
 10
13.1680698214
 20
5.3103193043
 10
13.1732175138
 20
5.3214070229
  0
LWPOLYLINE
  5
5B2
100
AcDbEntity
  8
0
100
AcDbPolyline
 62
9
  6
CONTINUOUS
 90
3
 70
0
 10
13.5182268948
 20
7.2408683099
 10
13.5362831623
 20
7.2368969941
 10
13.5535858284
 20
7.2304789677
  0
LINE
  5
5B3
100
AcDbEntity
  8
0
100
AcDbLine
 62
7
  6
CONTINUOUS
 10
13.5210007196
 20
7.244800164
 11
13.5029724133
 21
7.2487700958
  0
LINE
  5
5B4
100
AcDbEntity
  8
0
100
AcDbLine
 62
9
  6
CONTINUOUS
 10
13.5072147512
 20
7.2472260306
 11
13.5268706018
 21
7.2426872479
  0
LWPOLYLINE
  5
5B5
100
AcDbEntity
  8
02___PRT_ALL_AXES
100
AcDbPolyline
 62
7
  6
CONTINUOUS
 90
5
 70
0
 10
13.4797344517
 20
7.2383734489
 10
13.4476291972
 20
7.2457959379
 10
13.4040894014
 20
7.2441024563
 10
13.3576855044
 20
7.2316688919
 10
13.3098274651
 20
7.2088730323
  0
LWPOLYLINE
  5
5B6
100
AcDbEntity
  8
0
100
AcDbPolyline
 62
9
  6
CONTINUOUS
 90
24
 70
0
 10
13.5281064825
 20
7.2145775457
 10
13.5455716776
 20
7.2102489375
 10
13.5622451692
 20
7.2034474872
 10
13.5778969719
 20
7.1941098526
 10
13.592185105
 20
7.1823361667
 10
13.6048853128
 20
7.1683007773
 10
13.6159306306
 20
7.1521055426
 10
13.6252639081
 20
7.1338431654
 10
13.6328126981
 20
7.1136508014
 10
13.6385178805
 20
7.0916856633
 10
13.6423378391
 20
7.0681097969
 10
13.6442442334
 20
7.0430970318
 10
13.644222466
 20
7.0168350254
 10
13.6422727125
 20
6.9895213464
 10
13.6384097177
 20
6.9613600823
 10
13.6326615443
 20
6.9325573478
 10
13.6250696827
 20
6.9033252389
 10
13.6156955544
 20
6.8738987001
 10
13.6046161707
 20
6.8445101374
 10
13.5918884611
 20
6.8153147078
 10
13.5775753784
 20
6.7864836729
 10
13.5619077009
 20
6.758470389
 10
13.5452695083
 20
6.7318439946
 10
13.5281064825
 20
6.7070908278
  0
LWPOLYLINE
  5
5B7
100
AcDbEntity
  8
0
100
AcDbPolyline
 62
7
  6
CONTINUOUS
 90
8
 70
0
 10
12.678333982
 20
7.5598378055
 10
12.61759326
 20
7.5809218319
 10
12.5619427146
 20
7.5987564848
 10
12.5085303344
 20
7.6145145506
 10
12.4551466952
 20
7.6289046555
 10
12.4015997591
 20
7.6419385738
 10
12.3483893714
 20
7.6534589794
 10
12.2959530697
 20
7.6633636439
  0
LINE
  5
5B8
100
AcDbEntity
  8
0
100
AcDbLine
 62
7
  6
CONTINUOUS
 10
13.5072147512
 20
7.2472260306
 11
13.5029718271
 21
7.2487697308
  0
LWPOLYLINE
  5
5B9
100
AcDbEntity
  8
0
100
AcDbPolyline
 62
9
  6
CONTINUOUS
 90
3
 70
0
 10
13.5268706018
 20
7.2426872479
 10
13.5453514362
 20
7.2354712273
 10
13.5542094784
 20
7.2308005024
  0
LWPOLYLINE
  5
5BA
100
AcDbEntity
  8
0
100
AcDbPolyline
 62
7
  6
CONTINUOUS
 90
3
 70
0
 10
13.5542133919
 20
7.2307982431
 10
13.5381478399
 20
7.238783233
 10
13.5210007196
 20
7.244800164
  0
LWPOLYLINE
  5
5BB
100
AcDbEntity
  8
0
100
AcDbPolyline
 62
7
  6
CONTINUOUS
 90
3
 70
0
 10
13.1252495118
 20
7.4783102106
 10
13.2069816379
 20
7.4354621509
 10
13.2915368011
 20
7.3881568045
  0
LWPOLYLINE
  5
5BC
100
AcDbEntity
  8
AXIS
100
AcDbPolyline
 62
7
  6
CONTINUOUS
 90
7
 70
0
 10
13.3934613692
 20
7.4422204911
 10
13.3267223533
 20
7.4777106572
 10
13.150141704
 20
7.5563487563
 10
12.969654772
 20
7.6220380127
 10
12.787904585
 20
7.6741400516
 10
12.6199709449
 20
7.7102943828
 10
12.4693721816
 20
7.7331530763
  0
LWPOLYLINE
  5
5BD
100
AcDbEntity
  8
0
100
AcDbPolyline
 62
7
  6
CONTINUOUS
 90
11
 70
0
 10
14.5907215096
 20
6.7889742429
 10
14.5928854501
 20
6.7671461847
 10
14.5992515115
 20
6.7440880471
 10
14.6094497212
 20
6.7211398852
 10
14.6228873965
 20
6.6996353628
 10
14.6387835885
 20
6.6808242446
 10
14.6562144683
 20
6.6657997644
 10
14.6741670165
 20
6.6554350903
 10
14.6915978963
 20
6.6503325796
 10
14.7074940883
 20
6.6507887716
 10
14.7178572854
 20
6.6547856236
  0
LWPOLYLINE
  5
5BE
100
AcDbEntity
  8
AXIS
100
AcDbPolyline
 62
7
  6
CONTINUOUS
 90
3
 70
0
 10
13.1130336203
 20
5.2393755742
 10
13.1225207242
 20
5.2449229348
 10
13.1312282414
 20
5.2515867971
  0
LWPOLYLINE
  5
5BF
100
AcDbEntity
  8
AXIS
100
AcDbPolyline
 62
7
  6
CONTINUOUS
 90
3
 70
0
 10
13.113034485
 20
5.2393740381
 10
13.1247279422
 20
5.2457646184
 10
13.1351776175
 20
5.2520349043
  0
LWPOLYLINE
  5
5C0
100
AcDbEntity
  8
0
100
AcDbPolyline
 62
7
  6
CONTINUOUS
 90
4
 70
0
 10
13.4100296744
 20
7.2345840195
 10
13.4269667414
 20
7.2367307969
 10
13.4434244341
 20
7.2373160753
 10
13.459330854
 20
7.2363375924
  0
LINE
  5
5C1
100
AcDbEntity
  8
0
100
AcDbLine
 62
7
  6
CONTINUOUS
 10
12.2446889225
 20
7.059461625
 11
12.3139856756
 21
7.0656520043
  0
LWPOLYLINE
  5
5C2
100
AcDbEntity
  8
0
100
AcDbPolyline
 62
7
  6
CONTINUOUS
 90
3
 70
0
 10
13.5029718271
 20
7.2487697308
 10
13.4980872518
 20
7.2483870556
 10
13.4962547787
 20
7.2475784278
  0
LINE
  5
5C3
100
AcDbEntity
  8
0
100
AcDbLine
 62
7
  6
CONTINUOUS
 10
12.9528897896
 20
7.3903006591
 11
12.8494906984
 21
7.4062960591
  0
LWPOLYLINE
  5
5C4
100
AcDbEntity
  8
0
100
AcDbPolyline
 62
7
  6
CONTINUOUS
 90
5
 70
0
 10
14.6741670165
 20
6.8261610035
 10
14.6562144683
 20
6.8365256776
 10
14.6387835885
 20
6.8416281883
 10
14.6228873965
 20
6.8411719963
 10
14.6125241995
 20
6.8371751443
  0
LWPOLYLINE
  5
5C5
100
AcDbEntity
  8
0
100
AcDbPolyline
 62
3
  6
CONTINUOUS
 90
8
 70
0
 10
14.6646890251
 20
6.8316791531
 10
14.6668529657
 20
6.8098510948
 10
14.673219027
 20
6.7867929572
 10
14.6834172368
 20
6.7638447953
 10
14.6968549121
 20
6.742340273
 10
14.7127511041
 20
6.7235291547
 10
14.7301819839
 20
6.7085046745
 10
14.7396799597
 20
6.7030211397
  0
LWPOLYLINE
  5
5C6
100
AcDbEntity
  8
0
100
AcDbPolyline
 62
7
  6
CONTINUOUS
 90
7
 70
0
 10
14.7396599753
 20
6.702986525
 10
14.7374960347
 20
6.7248145832
 10
14.7311299734
 20
6.7478727208
 10
14.7209317636
 20
6.7708208827
 10
14.7074940883
 20
6.792325405
 10
14.6915978963
 20
6.8111365233
 10
14.6741670165
 20
6.8261610035
  0
LWPOLYLINE
  5
5C7
100
AcDbEntity
  8
02___PRT_ALL_AXES
100
AcDbPolyline
 62
7
  6
CONTINUOUS
 90
3
 70
0
 10
12.3176625301
 20
7.0077242018
 10
12.3345239369
 20
7.0116224785
 10
12.3421184943
 20
7.015273523
  0
LWPOLYLINE
  5
5C8
100
AcDbEntity
  8
02___PRT_ALL_AXES
100
AcDbPolyline
 62
7
  6
CONTINUOUS
 90
7
 70
0
 10
12.2967675537
 20
7.0176330665
 10
12.3116399203
 20
7.0210714867
 10
12.3244780147
 20
7.0284837758
 10
12.3348917578
 20
7.0396447153
 10
12.3425647335
 20
7.0542151857
 10
12.3472638021
 20
7.0717524705
 10
12.348846185
 20
7.0917237083
  0
LINE
  5
5C9
100
AcDbEntity
  8
0
100
AcDbLine
 62
7
  6
CONTINUOUS
 10
12.2446889225
 20
7.244253518
 11
12.1753921694
 21
7.2380631387
  0
LWPOLYLINE
  5
5CA
100
AcDbEntity
  8
0
100
AcDbPolyline
 62
7
  6
CONTINUOUS
 90
4
 70
0
 10
12.2317819814
 20
7.3459139542
 10
12.2557177475
 20
7.3475614418
 10
12.2805341381
 20
7.3496304586
 10
12.3055618367
 20
7.3520497087
  0
LWPOLYLINE
  5
5CB
100
AcDbEntity
  8
0
100
AcDbPolyline
 62
7
  6
CONTINUOUS
 90
3
 70
0
 10
12.1886956104
 20
7.3439725943
 10
12.2092743964
 20
7.3447190213
 10
12.2317819814
 20
7.3459139542
  0
LWPOLYLINE
  5
5CC
100
AcDbEntity
  8
0
100
AcDbPolyline
 62
7
  6
CONTINUOUS
 90
8
 70
0
 10
12.4073080346
 20
7.727654056
 10
12.4597462799
 20
7.7177489972
 10
12.5129133592
 20
7.706238501
 10
12.5664174155
 20
7.6932166832
 10
12.6198033024
 20
7.6788281134
 10
12.6732904426
 20
7.6630491194
 10
12.7290020652
 20
7.6451942946
 10
12.789688917
 20
7.6241282234
  0
LINE
  5
5CD
100
AcDbEntity
  8
0
100
AcDbLine
 62
7
  6
CONTINUOUS
 10
12.4693722048
 20
7.7331530735
 11
12.4693575405
 21
7.733154861
  0
LWPOLYLINE
  5
5CE
100
AcDbEntity
  8
0
100
AcDbPolyline
 62
7
  6
CONTINUOUS
 90
5
 70
0
 10
13.8870679998
 20
7.6131145336
 10
13.9567949843
 20
7.5813546048
 10
14.023450521
 20
7.5679857967
 10
14.0840984584
 20
7.5735970001
 10
14.1231506684
 20
7.5896712224
  0
LINE
  5
5CF
100
AcDbEntity
  8
0
100
AcDbLine
 62
9
  6
CONTINUOUS
 10
13.7743439605
 20
7.6621218451
 11
13.848312092
 21
7.6194172906
  0
LINE
  5
5D0
100
AcDbEntity
  8
0
100
AcDbLine
 62
7
  6
CONTINUOUS
 10
13.8761509417
 20
7.6194173575
 11
13.8870679998
 21
7.6131145336
  0
LINE
  5
5D1
100
AcDbEntity
  8
0
100
AcDbLine
 62
3
  6
CONTINUOUS
 10
13.9501184572
 20
7.6621222676
 11
13.9610355154
 21
7.6558194437
  0
LINE
  5
5D2
100
AcDbEntity
  8
0
100
AcDbLine
 62
7
  6
CONTINUOUS
 10
15.1671569991
 20
5.8765441339
 11
15.2411245147
 21
5.919249044
  0
LWPOLYLINE
  5
5D3
100
AcDbEntity
  8
0
100
AcDbPolyline
 62
7
  6
CONTINUOUS
 90
13
 70
0
 10
15.1671480112
 20
5.8765498209
 10
15.1330434257
 20
5.8593604462
 10
15.0528480706
 20
5.8354663424
 10
14.9648628931
 20
5.829868662
 10
14.870855921
 20
5.8426798882
 10
14.7727161875
 20
5.8736425845
 10
14.6724157724
 20
5.9221345677
 10
14.571970173
 20
5.9871814102
 10
14.4733978046
 20
6.0674760212
 10
14.3786794402
 20
6.1614049119
 10
14.2897184083
 20
6.2670806181
 10
14.2083023461
 20
6.3823796277
 10
14.1360672775
 20
6.5049850522
  0
LWPOLYLINE
  5
5D4
100
AcDbEntity
  8
0
100
AcDbPolyline
 62
7
  6
CONTINUOUS
 90
7
 70
0
 10
12.789688917
 20
7.4095148533
 10
12.825845335
 20
7.4180181023
 10
12.8638513273
 20
7.4231675182
 10
12.9027802416
 20
7.4248382115
 10
12.9416832243
 20
7.4229900089
 10
12.979612279
 20
7.4176683976
 10
13.0068594725
 20
7.4111157915
  0
LWPOLYLINE
  5
5D5
100
AcDbEntity
  8
0
100
AcDbPolyline
 62
7
  6
CONTINUOUS
 90
4
 70
0
 10
12.2959530697
 20
7.6633636439
 10
12.2943663393
 20
7.6634104621
 10
12.2929750566
 20
7.6629769796
 10
12.292157948
 20
7.6624089684
  0
LINE
  5
5D6
100
AcDbEntity
  8
0
100
AcDbLine
 62
7
  6
CONTINUOUS
 10
12.4057347746
 20
7.7277026196
 11
12.4073080346
 21
7.727654056
  0
LWPOLYLINE
  5
5D7
100
AcDbEntity
  8
0
100
AcDbPolyline
 62
9
  6
CONTINUOUS
 90
5
 70
0
 10
12.4693575405
 20
7.733154861
 10
12.4563799671
 20
7.734097566
 10
12.4404314205
 20
7.7336342391
 10
12.4239922856
 20
7.7314653434
 10
12.4073079087
 20
7.7276540813
  0
LWPOLYLINE
  5
5D8
100
AcDbEntity
  8
0
100
AcDbPolyline
 62
7
  6
CONTINUOUS
 90
4
 70
0
 10
12.4693570953
 20
7.7331548911
 10
12.4591630778
 20
7.7340201719
 10
12.4317385825
 20
7.7329133509
 10
12.4051389619
 20
7.7275843918
  0
LWPOLYLINE
  5
5D9
100
AcDbEntity
  8
0
100
AcDbPolyline
 62
3
  6
CONTINUOUS
 90
4
 70
0
 10
13.9610355154
 20
7.6558194437
 10
14.0307624998
 20
7.624059515
 10
14.0974180366
 20
7.6106907068
 10
14.158065974
 20
7.6163019102
  0
LWPOLYLINE
  5
5DA
100
AcDbEntity
  8
0
100
AcDbPolyline
 62
7
  6
CONTINUOUS
 90
14
 70
0
 10
12.789688917
 20
7.6241282234
 10
12.8263751999
 20
7.6286531964
 10
12.8646356513
 20
7.6288373838
 10
12.9034639071
 20
7.6252921756
 10
12.9422749284
 20
7.6187039147
 10
12.9804476869
 20
7.6097578624
 10
13.0164699946
 20
7.5993724769
 10
13.049489648
 20
7.5882717501
 10
13.0786297779
 20
7.5770329924
 10
13.1033182803
 20
7.5659465832
 10
13.1235677334
 20
7.5548140303
 10
13.1389735964
 20
7.5433169597
 10
13.1485798242
 20
7.5313481204
 10
13.1517917469
 20
7.5189114043
  0
LWPOLYLINE
  5
5DB
100
AcDbEntity
  8
AXIS
100
AcDbPolyline
 62
7
  6
CONTINUOUS
 90
13
 70
0
 10
2.4727136828
 20
5.8519030787
 10
2.4817227226
 20
5.8453947878
 10
2.4923721911
 20
5.8400411463
 10
2.5033171771
 20
5.8360936604
 10
2.5142340787
 20
5.8332091083
 10
2.5251431638
 20
5.8310897588
 10
2.5364805065
 20
5.8294973172
 10
2.5487447837
 20
5.8283065921
 10
2.5624424783
 20
5.8274614159
 10
2.5780856956
 20
5.8269325015
 10
2.5957486246
 20
5.8266811278
 10
2.614911676
 20
5.8266121187
 10
2.6349155837
 20
5.8266070275
  0
LWPOLYLINE
  5
5DC
100
AcDbEntity
  8
AXIS
100
AcDbPolyline
 62
7
  6
CONTINUOUS
 90
8
 70
0
 10
2.3104782571
 20
5.8519030787
 10
2.314928074
 20
5.8454604677
 10
2.320011973
 20
5.8402928319
 10
2.3254064288
 20
5.8363253453
 10
2.3309035844
 20
5.8333618004
 10
2.3364126113
 20
5.8311833064
 10
2.3421333218
 20
5.8295514126
 10
2.3483211684
 20
5.8283338551
  0
LWPOLYLINE
  5
5DD
100
AcDbEntity
  8
0
100
AcDbPolyline
 62
7
  6
CONTINUOUS
 90
7
 70
0
 10
1.8489219482
 20
7.6888393651
 10
1.8491741847
 20
7.6863336249
 10
1.8499169334
 20
7.6839458042
 10
1.8511176454
 20
7.6817702285
 10
1.852727164
 20
7.6798956244
 10
1.8546820294
 20
7.6783994734
 10
1.8569069457
 20
7.6773465213
  0
LINE
  5
5DE
100
AcDbEntity
  8
0
100
AcDbLine
 62
7
  6
CONTINUOUS
 10
1.8489219482
 20
7.6888393683
 11
1.8489219482
 21
8.2823274506
  0
LINE
  5
5DF
100
AcDbEntity
  8
AXIS
100
AcDbLine
 62
7
  6
CONTINUOUS
 10
2.3483211684
 20
5.8283338551
 11
2.3552397756
 21
5.827471084
  0
LWPOLYLINE
  5
5E0
100
AcDbEntity
  8
0
100
AcDbPolyline
 62
9
  6
CONTINUOUS
 90
27
 70
0
 10
1.8489219482
 20
8.2823274506
 10
1.8493064397
 20
8.2757415109
 10
1.8496880791
 20
8.2673553973
 10
1.850057632
 20
8.2573184776
 10
1.8504094205
 20
8.2458114343
 10
1.8507439136
 20
8.2328581991
 10
1.8510713213
 20
8.2179602391
 10
1.8514027648
 20
8.200172201
 10
1.8517429473
 20
8.1782961036
 10
1.8520837141
 20
8.1512671475
 10
1.8524049482
 20
8.1183286236
 10
1.8526773643
 20
8.079148885
 10
1.8528648534
 20
8.03425509
 10
1.8529327364
 20
7.9855697927
 10
1.8528648345
 20
7.9369051664
 10
1.8526774166
 20
7.892027362
 10
1.8524051792
 20
7.8528658091
 10
1.8520841389
 20
7.8199375807
 10
1.851743607
 20
7.7929174799
 10
1.8514037853
 20
7.7710542658
 10
1.8510726125
 20
7.7532702232
 10
1.8507453655
 20
7.738369562
 10
1.850410608
 20
7.7253977341
 10
1.8500586586
 20
7.7138790389
 10
1.8496897008
 20
7.703851209
 10
1.8493089477
 20
7.6954742468
 10
1.8489219482
 20
7.6888393683
  0
LWPOLYLINE
  5
5E1
100
AcDbEntity
  8
0
100
AcDbPolyline
 62
9
  6
CONTINUOUS
 90
27
 70
0
 10
1.8569067659
 20
8.2938202294
 10
1.8572955112
 20
8.2871460051
 10
1.8576824669
 20
8.27856321
 10
1.8580579622
 20
8.2682183062
 10
1.8584156308
 20
8.2563082072
 10
1.8587553436
 20
8.2428816495
 10
1.859086732
 20
8.2274667998
 10
1.8594216592
 20
8.2090760003
 10
1.8597654455
 20
8.1864479388
 10
1.8601105403
 20
8.1584269165
 10
1.8604366112
 20
8.1241967633
 10
1.8607137841
 20
8.0833841698
 10
1.860904994
 20
8.0365196302
 10
1.8609743965
 20
7.9856215589
 10
1.8609052364
 20
7.9347386105
 10
1.8607143033
 20
7.8878789718
 10
1.8604374303
 20
7.8470709299
 10
1.8601116174
 20
7.8128386582
 10
1.8597667633
 20
7.784814727
 10
1.8594233332
 20
7.7621910591
 10
1.8590886697
 20
7.7437977734
 10
1.8587574445
 20
7.7283753011
 10
1.8584174832
 20
7.7149259915
 10
1.8580596831
 20
7.7030008455
 10
1.8576849714
 20
7.6926658263
 10
1.8572987433
 20
7.6840843015
 10
1.8569067649
 20
7.6773465821
  0
LWPOLYLINE
  5
5E2
100
AcDbEntity
  8
0
100
AcDbPolyline
 62
7
  6
CONTINUOUS
 90
9
 70
0
 10
1.9646154072
 20
7.8849681647
 10
1.9640714425
 20
7.9096712849
 10
1.9636807478
 20
7.9347614097
 10
1.9634455128
 20
7.9601056988
 10
1.9633669425
 20
7.9855774396
 10
1.9634454411
 20
8.0110494939
 10
1.9636806192
 20
8.036395033
 10
1.9640713042
 20
8.0614881586
 10
1.9646154072
 20
8.0861986463
  0
LINE
  5
5E3
100
AcDbEntity
  8
0
100
AcDbLine
 62
7
  6
CONTINUOUS
 10
1.9735317856
 20
8.0810507728
 11
1.9735317856
 21
8.0043934916
  0
LINE
  5
5E4
100
AcDbEntity
  8
0
100
AcDbLine
 62
7
  6
CONTINUOUS
 10
1.9735317856
 20
7.9667733194
 11
1.9735317856
 21
7.8901160381
  0
LINE
  5
5E5
100
AcDbEntity
  8
0
100
AcDbLine
 62
7
  6
CONTINUOUS
 10
2.0408861163
 20
8.0421637319
 11
2.0408861163
 21
7.9290030791
  0
LWPOLYLINE
  5
5E6
100
AcDbEntity
  8
AXIS
100
AcDbPolyline
 62
7
  6
CONTINUOUS
 90
5
 70
0
 10
2.8782822306
 20
5.8266070275
 10
2.8885842169
 20
5.8266126745
 10
2.8981116016
 20
5.8266843276
 10
2.9067549389
 20
5.826933457
 10
2.9144505064
 20
5.827451627
  0
LWPOLYLINE
  5
5E7
100
AcDbEntity
  8
AXIS
100
AcDbPolyline
 62
7
  6
CONTINUOUS
 90
13
 70
0
 10
2.3915969052
 20
5.8266070231
 10
2.4017603544
 20
5.8266124209
 10
2.4114911156
 20
5.8266856698
 10
2.4204271827
 20
5.8269510549
 10
2.4282795521
 20
5.8275023969
 10
2.4351079766
 20
5.8283718524
 10
2.4411886991
 20
5.8295825751
 10
2.4467934433
 20
5.831188056
 10
2.4521895524
 20
5.8333164498
 10
2.4576038115
 20
5.8362120462
 10
2.4630233325
 20
5.8401588747
 10
2.4682662656
 20
5.8454633549
 10
2.4727136828
 20
5.8519030787
  0
LWPOLYLINE
  5
5E8
100
AcDbEntity
  8
AXIS
100
AcDbPolyline
 62
7
  6
CONTINUOUS
 90
13
 70
0
 10
2.6349155837
 20
5.8266070275
 10
2.6546765326
 20
5.8266118112
 10
2.6738485625
 20
5.8266788867
 10
2.6916374551
 20
5.8269285383
 10
2.7074440516
 20
5.8274608692
 10
2.7212597451
 20
5.8283149515
 10
2.7336003158
 20
5.8295188543
 10
2.7449886967
 20
5.8311285497
 10
2.7559346719
 20
5.8332704409
 10
2.7668667878
 20
5.8361816901
 10
2.7777719869
 20
5.8401453283
 10
2.788300052
 20
5.8454695844
 10
2.797184534
 20
5.8519030787
  0
LINE
  5
5E9
100
AcDbEntity
  8
AXIS
100
AcDbLine
 62
7
  6
CONTINUOUS
 10
2.3539491084
 20
5.8266070275
 11
2.9159491084
 21
5.8266070275
  0
LWPOLYLINE
  5
5EA
100
AcDbEntity
  8
AXIS
100
AcDbPolyline
 62
7
  6
CONTINUOUS
 90
5
 70
0
 10
2.3552397756
 20
5.827471084
 10
2.3631479447
 20
5.8269332444
 10
2.3720491352
 20
5.8266803267
 10
2.3816573789
 20
5.826611958
 10
2.3915969052
 20
5.8266070231
  0
LWPOLYLINE
  5
5EB
100
AcDbEntity
  8
AXIS
100
AcDbPolyline
 62
7
  6
CONTINUOUS
 90
13
 70
0
 10
2.4727136828
 20
6.1383109764
 10
2.4682366767
 20
6.1447862652
 10
2.4628973889
 20
6.1501619662
 10
2.457364201
 20
6.1541496474
 10
2.4518270271
 20
6.1570618651
 10
2.4463102282
 20
6.159186404
 10
2.4406124984
 20
6.1607676132
 10
2.4344841686
 20
6.1619407989
 10
2.4276704004
 20
6.1627692568
 10
2.4199116779
 20
6.1632867978
 10
2.4111416476
 20
6.1635337457
 10
2.4016051007
 20
6.1636019558
 10
2.3916149339
 20
6.1636070277
  0
LINE
  5
5EC
100
AcDbEntity
  8
AXIS
100
AcDbLine
 62
7
  6
CENTER
 10
2.1388861163
 20
7.9855834055
 11
2.1388861163
 21
7.777315689
  0
LINE
  5
5ED
100
AcDbEntity
  8
0
100
AcDbLine
 62
7
  6
CONTINUOUS
 10
2.1388861163
 20
7.7946486708
 11
2.1388861163
 21
7.7834439505
  0
LINE
  5
5EE
100
AcDbEntity
  8
0
100
AcDbLine
 62
7
  6
CONTINUOUS
 10
2.1388861163
 20
8.1765181402
 11
2.1388861163
 21
8.1877228605
  0
LINE
  5
5EF
100
AcDbEntity
  8
AXIS
100
AcDbLine
 62
7
  6
CENTER
 10
2.1388861163
 20
7.9855834055
 11
2.1388861163
 21
8.193851122
  0
LWPOLYLINE
  5
5F0
100
AcDbEntity
  8
0
100
AcDbPolyline
 62
7
  6
CONTINUOUS
 90
6
 70
0
 10
1.9646154072
 20
8.0861986463
 10
1.9978762355
 20
8.1058218677
 10
2.0328129593
 20
8.1263064081
 10
2.068531878
 20
8.1471175266
 10
2.1041905105
 20
8.1677619345
 10
2.1388861163
 20
8.1877228605
  0
LINE
  5
5F1
100
AcDbEntity
  8
0
100
AcDbLine
 62
7
  6
CONTINUOUS
 10
2.1388861163
 20
8.1765181402
 11
2.0724989633
 21
8.1381894995
  0
LINE
  5
5F2
100
AcDbEntity
  8
0
100
AcDbLine
 62
7
  6
CONTINUOUS
 10
2.0399189385
 20
8.1193794135
 11
1.9735317856
 21
8.0810507728
  0
LWPOLYLINE
  5
5F3
100
AcDbEntity
  8
0
100
AcDbPolyline
 62
7
  6
CONTINUOUS
 90
7
 70
0
 10
1.8569069034
 20
8.2938202757
 10
1.8546629371
 20
8.2927556612
 10
1.8526953745
 20
8.2912410034
 10
1.8510880801
 20
8.2893537771
 10
1.8499002543
 20
8.2871816701
 10
1.8491699573
 20
8.2848123471
 10
1.8489219482
 20
8.2823274554
  0
LWPOLYLINE
  5
5F4
100
AcDbEntity
  8
AXIS
100
AcDbPolyline
 62
7
  6
CONTINUOUS
 90
7
 70
0
 10
2.9144505064
 20
5.827451627
 10
2.9212842777
 20
5.828287814
 10
2.9274757482
 20
5.8294830435
 10
2.9332478775
 20
5.831103893
 10
2.9388181586
 20
5.8332809752
 10
2.9443582554
 20
5.8362419673
 10
2.9497879107
 20
5.8402085856
  0
LWPOLYLINE
  5
5F5
100
AcDbEntity
  8
AXIS
100
AcDbPolyline
 62
7
  6
CONTINUOUS
 90
12
 70
0
 10
2.797184534
 20
6.1383109764
 10
2.7884963803
 20
6.1446258809
 10
2.7781831511
 20
6.1498928158
 10
2.7672998975
 20
6.1538975729
 10
2.7562214082
 20
6.1568780977
 10
2.7451080995
 20
6.1590655794
 10
2.7335974183
 20
6.1606955435
 10
2.7211968473
 20
6.161904053
 10
2.7073972159
 20
6.1627553742
 10
2.6916795493
 20
6.1632845672
 10
2.6739861894
 20
6.1635341502
 10
2.6549490895
 20
6.163601711
  0
LWPOLYLINE
  5
5F6
100
AcDbEntity
  8
AXIS
100
AcDbPolyline
 62
7
  6
CONTINUOUS
 90
8
 70
0
 10
2.3104782571
 20
6.6097534724
 10
2.314928074
 20
6.6033108614
 10
2.320011973
 20
6.5981432256
 10
2.3254064288
 20
6.594175739
 10
2.3309035844
 20
6.5912121941
 10
2.3364126113
 20
6.5890337001
 10
2.3421333218
 20
6.5874018063
 10
2.3483211684
 20
6.5861842488
  0
LWPOLYLINE
  5
5F7
100
AcDbEntity
  8
AXIS
100
AcDbPolyline
 62
7
  6
CONTINUOUS
 90
11
 70
0
 10
2.797184534
 20
5.8519030787
 10
2.801533631
 20
5.8455820887
 10
2.8068258511
 20
5.8402006713
 10
2.8130007308
 20
5.8357825135
 10
2.8199391329
 20
5.8323569991
 10
2.8276907829
 20
5.8298355072
 10
2.8363271444
 20
5.8281365121
 10
2.8458942449
 20
5.8271544352
 10
2.8563714354
 20
5.8267229391
 10
2.8673611415
 20
5.8266142654
 10
2.8782822306
 20
5.8266070275
  0
LWPOLYLINE
  5
5F8
100
AcDbEntity
  8
0
100
AcDbPolyline
 62
7
  6
CONTINUOUS
 90
9
 70
0
 10
2.321286466
 20
8.0908922965
 10
2.3217790642
 20
8.0649178372
 10
2.3221323708
 20
8.0386403224
 10
2.3223449074
 20
8.0121639249
 10
2.3224158595
 20
7.9855878613
 10
2.3223449539
 20
7.9590115842
 10
2.3221324544
 20
7.9325342812
 10
2.3217791544
 20
7.9062545483
 10
2.321286466
 20
7.8802745145
  0
LINE
  5
5F9
100
AcDbEntity
  8
02___PRT_ALL_AXES
100
AcDbLine
 62
7
  6
CONTINUOUS
 10
2.2289491084
 20
6.336347185
 11
2.2289491084
 21
6.401347185
  0
LINE
  5
5FA
100
AcDbEntity
  8
02___PRT_ALL_AXES
100
AcDbLine
 62
7
  6
CONTINUOUS
 10
2.2289491084
 20
6.4800873425
 11
2.2289491084
 21
6.5450873425
  0
LINE
  5
5FB
100
AcDbEntity
  8
0
100
AcDbLine
 62
7
  6
CONTINUOUS
 10
2.2368861163
 20
7.9290030791
 11
2.2368861163
 21
8.0421637319
  0
LINE
  5
5FC
100
AcDbEntity
  8
AXIS
100
AcDbLine
 62
7
  6
CONTINUOUS
 10
2.2949491084
 20
6.1636070275
 11
2.2949491084
 21
6.2576070275
  0
LINE
  5
5FD
100
AcDbEntity
  8
0
100
AcDbLine
 62
7
  6
CONTINUOUS
 10
2.304240447
 20
7.8901160381
 11
2.304240447
 21
7.9667733194
  0
LINE
  5
5FE
100
AcDbEntity
  8
0
100
AcDbLine
 62
7
  6
CONTINUOUS
 10
2.304240447
 20
8.0043934916
 11
2.304240447
 21
8.0810507728
  0
LINE
  5
5FF
100
AcDbEntity
  8
AXIS
100
AcDbLine
 62
7
  6
CONTINUOUS
 10
2.3104782571
 20
5.8519030787
 11
2.3104782571
 21
6.1383109764
  0
LINE
  5
600
100
AcDbEntity
  8
AXIS
100
AcDbLine
 62
7
  6
CONTINUOUS
 10
2.3104782571
 20
6.6097534724
 11
2.3104782571
 21
6.8961613701
  0
LINE
  5
601
100
AcDbEntity
  8
0
100
AcDbLine
 62
7
  6
CONTINUOUS
 10
2.1388861163
 20
8.0987440583
 11
2.0408861163
 21
8.0421637319
  0
LWPOLYLINE
  5
602
100
AcDbEntity
  8
0
100
AcDbPolyline
 62
7
  6
CONTINUOUS
 90
17
 70
0
 10
2.8722252926
 20
8.4960860506
 10
2.8575407913
 20
8.4884925129
 10
2.8374168104
 20
8.4785155102
 10
2.8117587098
 20
8.4665605186
 10
2.7811400325
 20
8.453504552
 10
2.7467137765
 20
8.4405346725
 10
2.710114747
 20
8.4289072615
 10
2.6727893006
 20
8.4195318836
 10
2.6349935215
 20
8.4127696884
 10
2.5967259008
 20
8.408867443
 10
2.5589348428
 20
8.4080124762
 10
2.5227568495
 20
8.4100144495
 10
2.4891295421
 20
8.4143262674
 10
2.4593601677
 20
8.420065418
 10
2.4338631251
 20
8.4263668205
 10
2.4130804893
 20
8.4324132608
 10
2.3976729242
 20
8.437404529
  0
LWPOLYLINE
  5
603
100
AcDbEntity
  8
AXIS
100
AcDbPolyline
 62
7
  6
CONTINUOUS
 90
12
 70
0
 10
2.6149983285
 20
6.1636020238
 10
2.5957972273
 20
6.1635332926
 10
2.5780973728
 20
6.1632818191
 10
2.5624563559
 20
6.1627532884
 10
2.5487898093
 20
6.161910994
 10
2.5365430986
 20
6.1607240919
 10
2.5251758487
 20
6.1591297018
 10
2.5141628362
 20
6.1569888406
 10
2.5030968741
 20
6.1540525893
 10
2.492084248
 20
6.1500508665
 10
2.4815310827
 20
6.1447040465
 10
2.4727136828
 20
6.1383109764
  0
LWPOLYLINE
  5
604
100
AcDbEntity
  8
AXIS
100
AcDbPolyline
 62
7
  6
CONTINUOUS
 90
13
 70
0
 10
2.878298297
 20
6.1636070295
 10
2.8681501273
 20
6.1636016601
 10
2.8584616462
 20
6.1635292407
 10
2.8495884497
 20
6.1632685329
 10
2.8418090681
 20
6.1627299708
 10
2.835029554
 20
6.1618805349
 10
2.8289677619
 20
6.1606930992
 10
2.8233470731
 20
6.1591069953
 10
2.8178963312
 20
6.1569830545
 10
2.8124043796
 20
6.1540700193
 10
2.8069100011
 20
6.1500850378
 10
2.8016239655
 20
6.1447410883
 10
2.797184534
 20
6.1383109764
  0
LINE
  5
605
100
AcDbEntity
  8
AXIS
100
AcDbLine
 62
7
  6
CONTINUOUS
 10
2.6349479449
 20
6.1636070346
 11
2.6149983285
 21
6.1636020238
  0
LINE
  5
606
100
AcDbEntity
  8
AXIS
100
AcDbLine
 62
7
  6
CONTINUOUS
 10
2.2949491602
 20
6.1636070275
 11
2.9749490579
 21
6.1636070275
  0
LINE
  5
607
100
AcDbEntity
  8
AXIS
100
AcDbLine
 62
7
  6
CONTINUOUS
 10
2.6549490895
 20
6.163601711
 11
2.6349479449
 21
6.1636070346
  0
LINE
  5
608
100
AcDbEntity
  8
AXIS
100
AcDbLine
 62
7
  6
CONTINUOUS
 10
2.9214434311
 20
6.1619013293
 11
2.9145290266
 21
6.1627551197
  0
LWPOLYLINE
  5
609
100
AcDbEntity
  8
AXIS
100
AcDbPolyline
 62
7
  6
CONTINUOUS
 90
13
 70
0
 10
2.4727136828
 20
6.6097534724
 10
2.4817227226
 20
6.6032451815
 10
2.4923721911
 20
6.59789154
 10
2.5033171771
 20
6.5939440541
 10
2.5142340787
 20
6.591059502
 10
2.5251431638
 20
6.5889401525
 10
2.5364805065
 20
6.5873477109
 10
2.5487447837
 20
6.5861569858
 10
2.5624424783
 20
6.5853118096
 10
2.5780856956
 20
6.5847828952
 10
2.5957486246
 20
6.5845315215
 10
2.614911676
 20
6.5844625124
 10
2.6349155837
 20
6.5844574212
  0
LWPOLYLINE
  5
60A
100
AcDbEntity
  8
AXIS
100
AcDbPolyline
 62
7
  6
CONTINUOUS
 90
7
 70
0
 10
2.9550263378
 20
6.1446858418
 10
2.9499613738
 20
6.1498565137
 10
2.9445480212
 20
6.1538534084
 10
2.9389870309
 20
6.1568557527
 10
2.9334108309
 20
6.1590558457
 10
2.9276480674
 20
6.1606904153
 10
2.9214434311
 20
6.1619013293
  0
LINE
  5
60B
100
AcDbEntity
  8
AXIS
100
AcDbLine
 62
7
  6
CONTINUOUS
 10
2.9594199597
 20
6.1383109764
 11
2.9550263378
 21
6.1446858418
  0
LINE
  5
60C
100
AcDbEntity
  8
0
100
AcDbLine
 62
7
  6
CONTINUOUS
 10
2.398728636
 20
8.1135361614
 11
2.398728636
 21
7.8576306496
  0
LINE
  5
60D
100
AcDbEntity
  8
02___PRT_ALL_AXES
100
AcDbLine
 62
7
  6
CONTINUOUS
 10
2.4379491084
 20
6.2576070275
 11
2.4379491084
 21
6.336347185
  0
LINE
  5
60E
100
AcDbEntity
  8
02___PRT_ALL_AXES
100
AcDbLine
 62
7
  6
CONTINUOUS
 10
2.4379491084
 20
6.401347185
 11
2.4379491084
 21
6.4800873425
  0
LINE
  5
60F
100
AcDbEntity
  8
02___PRT_ALL_AXES
100
AcDbLine
 62
7
  6
CONTINUOUS
 10
2.4379491084
 20
6.5450873425
 11
2.4379491084
 21
6.5844574212
  0
LINE
  5
610
100
AcDbEntity
  8
02___PRT_ALL_AXES
100
AcDbLine
 62
7
  6
CONTINUOUS
 10
2.4379491084
 20
6.9214574212
 11
2.4379491084
 21
7.5458098113
  0
LINE
  5
611
100
AcDbEntity
  8
AXIS
100
AcDbLine
 62
7
  6
CONTINUOUS
 10
2.4727136828
 20
5.8519030787
 11
2.4727136828
 21
6.1383109764
  0
LINE
  5
612
100
AcDbEntity
  8
AXIS
100
AcDbLine
 62
7
  6
CONTINUOUS
 10
2.4727136828
 20
6.6097534724
 11
2.4727136828
 21
6.8961613701
  0
LINE
  5
613
100
AcDbEntity
  8
0
100
AcDbLine
 62
7
  6
CONTINUOUS
 10
1.9735317856
 20
7.8901160381
 11
1.9646154072
 21
7.8849681647
  0
LINE
  5
614
100
AcDbEntity
  8
0
100
AcDbLine
 62
7
  6
CONTINUOUS
 10
2.304240447
 20
8.0810507728
 11
2.321286466
 21
8.0908922965
  0
LINE
  5
615
100
AcDbEntity
  8
0
100
AcDbLine
 62
7
  6
CONTINUOUS
 10
2.1388861163
 20
7.8724227527
 11
2.2368861163
 21
7.9290030791
  0
LWPOLYLINE
  5
616
100
AcDbEntity
  8
AXIS
100
AcDbPolyline
 62
7
  6
CONTINUOUS
 90
9
 70
0
 10
2.355465841
 20
6.1627641089
 10
2.3485428335
 20
6.1619151454
 10
2.3423276089
 20
6.1607087179
 10
2.3365531578
 20
6.1590778311
 10
2.3309645375
 20
6.1568802619
 10
2.3253888935
 20
6.1538777138
 10
2.3199601704
 20
6.1498766374
 10
2.314881413
 20
6.1446973551
 10
2.3104782571
 20
6.1383109764
  0
LINE
  5
617
100
AcDbEntity
  8
AXIS
100
AcDbLine
 62
7
  6
CONTINUOUS
 10
2.3566629782
 20
6.1628439116
 11
2.355465841
 21
6.1627641089
  0
LINE
  5
618
100
AcDbEntity
  8
AXIS
100
AcDbLine
 62
7
  6
CONTINUOUS
 10
2.2949491602
 20
6.2576070275
 11
2.6149491084
 21
6.2576070275
  0
LINE
  5
619
100
AcDbEntity
  8
AXIS
100
AcDbLine
 62
7
  6
CONTINUOUS
 10
2.6549491084
 20
6.2576070275
 11
2.9749490579
 21
6.2576070275
  0
LWPOLYLINE
  5
61A
100
AcDbEntity
  8
AXIS
100
AcDbPolyline
 62
7
  6
CONTINUOUS
 90
13
 70
0
 10
2.4727136828
 20
6.8961613701
 10
2.4682366767
 20
6.9026366589
 10
2.4628973889
 20
6.9080123599
 10
2.457364201
 20
6.9120000411
 10
2.4518270271
 20
6.9149122588
 10
2.4463102282
 20
6.9170367977
 10
2.4406124984
 20
6.9186180069
 10
2.4344841686
 20
6.9197911926
 10
2.4276704004
 20
6.9206196505
 10
2.4199116779
 20
6.9211371915
 10
2.4111416476
 20
6.9213841394
 10
2.4016051007
 20
6.9214523495
 10
2.3916149339
 20
6.9214574214
  0
LWPOLYLINE
  5
61B
100
AcDbEntity
  8
AXIS
100
AcDbPolyline
 62
7
  6
CONTINUOUS
 90
11
 70
0
 10
2.797184534
 20
6.6097534724
 10
2.801533631
 20
6.6034324824
 10
2.8068258511
 20
6.598051065
 10
2.8130007308
 20
6.5936329072
 10
2.8199391329
 20
6.5902073928
 10
2.8276907829
 20
6.5876859009
 10
2.8363271444
 20
6.5859869058
 10
2.8458942449
 20
6.5850048289
 10
2.8563714354
 20
6.5845733328
 10
2.8673611415
 20
6.5844646591
 10
2.8782822306
 20
6.5844574212
  0
LINE
  5
61C
100
AcDbEntity
  8
AXIS
100
AcDbLine
 62
7
  6
CONTINUOUS
 10
2.6149491084
 20
6.1636070275
 11
2.6149491084
 21
6.2576070275
  0
LINE
  5
61D
100
AcDbEntity
  8
02___PRT_ALL_AXES
100
AcDbLine
 62
7
  6
CENTER
 10
2.6349491084
 20
8.2906070275
 11
2.6349491084
 21
5.7266070275
  0
LINE
  5
61E
100
AcDbEntity
  8
AXIS
100
AcDbLine
 62
7
  6
CONTINUOUS
 10
2.6549491084
 20
6.1636070275
 11
2.6549491084
 21
6.2576070275
  0
LINE
  5
61F
100
AcDbEntity
  8
0
100
AcDbLine
 62
7
  6
CONTINUOUS
 10
2.1388861163
 20
7.7946486708
 11
2.2052732692
 21
7.8329773114
  0
LINE
  5
620
100
AcDbEntity
  8
0
100
AcDbLine
 62
7
  6
CONTINUOUS
 10
2.237853294
 20
7.8517873975
 11
2.304240447
 21
7.8901160381
  0
LWPOLYLINE
  5
621
100
AcDbEntity
  8
0
100
AcDbPolyline
 62
7
  6
CONTINUOUS
 90
7
 70
0
 10
2.321286466
 20
7.8802745145
 10
2.2905125744
 20
7.8636307324
 10
2.2596841001
 20
7.8470703562
 10
2.2289504063
 20
7.8306809597
 10
2.1984705128
 20
7.8145545903
 10
2.1683926918
 20
7.7987769311
 10
2.1388861163
 20
7.7834439505
  0
LINE
  5
622
100
AcDbEntity
  8
02___PRT_ALL_AXES
100
AcDbLine
 62
7
  6
CONTINUOUS
 10
2.2289491084
 20
6.336347185
 11
3.0409491084
 21
6.336347185
  0
LINE
  5
623
100
AcDbEntity
  8
02___PRT_ALL_AXES
100
AcDbLine
 62
7
  6
CONTINUOUS
 10
2.2289491084
 20
6.401347185
 11
3.0409491084
 21
6.401347185
  0
LINE
  5
624
100
AcDbEntity
  8
02___PRT_ALL_AXES
100
AcDbLine
 62
7
  6
CONTINUOUS
 10
2.2289491084
 20
6.4800873425
 11
3.0409491084
 21
6.4800873425
  0
LINE
  5
625
100
AcDbEntity
  8
AXIS
100
AcDbLine
 62
7
  6
CONTINUOUS
 10
2.3483211684
 20
6.5861842488
 11
2.3552397756
 21
6.5853214777
  0
LINE
  5
626
100
AcDbEntity
  8
AXIS
100
AcDbLine
 62
7
  6
CONTINUOUS
 10
2.797184534
 20
5.8519030787
 11
2.797184534
 21
6.1383109764
  0
LINE
  5
627
100
AcDbEntity
  8
AXIS
100
AcDbLine
 62
7
  6
CONTINUOUS
 10
2.797184534
 20
6.6097534724
 11
2.797184534
 21
6.8961613701
  0
LINE
  5
628
100
AcDbEntity
  8
02___PRT_ALL_AXES
100
AcDbLine
 62
7
  6
CONTINUOUS
 10
2.8319491084
 20
6.2576070275
 11
2.8319491084
 21
6.336347185
  0
LINE
  5
629
100
AcDbEntity
  8
02___PRT_ALL_AXES
100
AcDbLine
 62
7
  6
CONTINUOUS
 10
2.8319491084
 20
6.401347185
 11
2.8319491084
 21
6.4800873425
  0
LINE
  5
62A
100
AcDbEntity
  8
02___PRT_ALL_AXES
100
AcDbLine
 62
7
  6
CONTINUOUS
 10
2.8319491084
 20
6.5450873425
 11
2.8319491084
 21
6.5844574212
  0
LINE
  5
62B
100
AcDbEntity
  8
02___PRT_ALL_AXES
100
AcDbLine
 62
7
  6
CONTINUOUS
 10
2.8319491084
 20
6.9214574212
 11
2.8319491084
 21
7.4951987539
  0
LINE
  5
62C
100
AcDbEntity
  8
0
100
AcDbLine
 62
9
  6
CONTINUOUS
 10
3.2634989518
 20
8.3188546602
 11
3.2605801241
 21
8.3159358325
  0
LINE
  5
62D
100
AcDbEntity
  8
0
100
AcDbLine
 62
9
  6
CONTINUOUS
 10
3.283180993
 20
8.299172619
 11
3.2803604357
 21
8.2963520616
  0
LWPOLYLINE
  5
62E
100
AcDbEntity
  8
AXIS
100
AcDbPolyline
 62
7
  6
CONTINUOUS
 90
5
 70
0
 10
2.8782822306
 20
6.5844574212
 10
2.8885842169
 20
6.5844630682
 10
2.8981116016
 20
6.5845347213
 10
2.9067549389
 20
6.5847838507
 10
2.9144505064
 20
6.5853020207
  0
LWPOLYLINE
  5
62F
100
AcDbEntity
  8
AXIS
100
AcDbPolyline
 62
7
  6
CONTINUOUS
 90
13
 70
0
 10
2.3915969052
 20
6.5844574168
 10
2.4017603544
 20
6.5844628146
 10
2.4114911156
 20
6.5845360635
 10
2.4204271827
 20
6.5848014486
 10
2.4282795521
 20
6.5853527906
 10
2.4351079766
 20
6.5862222461
 10
2.4411886991
 20
6.5874329688
 10
2.4467934433
 20
6.5890384497
 10
2.4521895524
 20
6.5911668435
 10
2.4576038115
 20
6.5940624399
 10
2.4630233325
 20
6.5980092684
 10
2.4682662656
 20
6.6033137486
 10
2.4727136828
 20
6.6097534724
  0
LWPOLYLINE
  5
630
100
AcDbEntity
  8
AXIS
100
AcDbPolyline
 62
7
  6
CONTINUOUS
 90
13
 70
0
 10
2.6349155837
 20
6.5844574212
 10
2.6546765326
 20
6.5844622049
 10
2.6738485625
 20
6.5845292804
 10
2.6916374551
 20
6.584778932
 10
2.7074440516
 20
6.5853112629
 10
2.7212597451
 20
6.5861653452
 10
2.7336003158
 20
6.587369248
 10
2.7449886967
 20
6.5889789434
 10
2.7559346719
 20
6.5911208346
 10
2.7668667878
 20
6.5940320838
 10
2.7777719869
 20
6.597995722
 10
2.788300052
 20
6.6033199781
 10
2.797184534
 20
6.6097534724
  0
LINE
  5
631
100
AcDbEntity
  8
02___PRT_ALL_AXES
100
AcDbLine
 62
7
  6
CONTINUOUS
 10
2.2289491084
 20
6.5450873425
 11
3.0409491084
 21
6.5450873425
  0
LINE
  5
632
100
AcDbEntity
  8
AXIS
100
AcDbLine
 62
7
  6
CONTINUOUS
 10
2.3539491084
 20
6.5844574212
 11
2.9159491084
 21
6.5844574212
  0
LWPOLYLINE
  5
633
100
AcDbEntity
  8
AXIS
100
AcDbPolyline
 62
7
  6
CONTINUOUS
 90
5
 70
0
 10
2.3552397756
 20
6.5853214777
 10
2.3631479447
 20
6.5847836381
 10
2.3720491352
 20
6.5845307204
 10
2.3816573789
 20
6.5844623517
 10
2.3915969052
 20
6.5844574168
  0
LWPOLYLINE
  5
634
100
AcDbEntity
  8
AXIS
100
AcDbPolyline
 62
7
  6
CONTINUOUS
 90
13
 70
0
 10
2.797184534
 20
6.8961613701
 10
2.7884963803
 20
6.9024762746
 10
2.7781831511
 20
6.9077432095
 10
2.7672998975
 20
6.9117479666
 10
2.7562214082
 20
6.9147284914
 10
2.7451080995
 20
6.9169159731
 10
2.7335974183
 20
6.9185459372
 10
2.7211968473
 20
6.9197544467
 10
2.7073972159
 20
6.9206057679
 10
2.6916795493
 20
6.9211349609
 10
2.6739861894
 20
6.9213845439
 10
2.6548457081
 20
6.9214524716
 10
2.6349479449
 20
6.9214574283
  0
LWPOLYLINE
  5
635
100
AcDbEntity
  8
AXIS
100
AcDbPolyline
 62
7
  6
CONTINUOUS
 90
7
 70
0
 10
2.9550263378
 20
6.9025362355
 10
2.9499613738
 20
6.9077069074
 10
2.9445480212
 20
6.9117038021
 10
2.9389870309
 20
6.9147061464
 10
2.9334108309
 20
6.9169062394
 10
2.9276480674
 20
6.918540809
 10
2.9214434311
 20
6.919751723
  0
LINE
  5
636
100
AcDbEntity
  8
AXIS
100
AcDbLine
 62
7
  6
CONTINUOUS
 10
2.9594199597
 20
6.8961613701
 11
2.9550263378
 21
6.9025362355
  0
LINE
  5
637
100
AcDbEntity
  8
AXIS
100
AcDbLine
 62
7
  6
CONTINUOUS
 10
2.9594199597
 20
5.8519030787
 11
2.9594199597
 21
6.1383109764
  0
LINE
  5
638
100
AcDbEntity
  8
AXIS
100
AcDbLine
 62
7
  6
CONTINUOUS
 10
2.9594199597
 20
6.6097534724
 11
2.9594199597
 21
6.8961613701
  0
LINE
  5
639
100
AcDbEntity
  8
AXIS
100
AcDbLine
 62
7
  6
CONTINUOUS
 10
2.9749491084
 20
6.1636070275
 11
2.9749491084
 21
6.2576070275
  0
LWPOLYLINE
  5
63A
100
AcDbEntity
  8
AXIS
100
AcDbPolyline
 62
7
  6
CONTINUOUS
 90
7
 70
0
 10
2.9144505064
 20
6.5853020207
 10
2.9212842777
 20
6.5861382077
 10
2.9274757482
 20
6.5873334372
 10
2.9332478775
 20
6.5889542867
 10
2.9388181586
 20
6.5911313689
 10
2.9443582554
 20
6.594092361
 10
2.9497879107
 20
6.5980589793
  0
LINE
  5
63B
100
AcDbEntity
  8
0
100
AcDbLine
 62
7
  6
CONTINUOUS
 10
3.0286498958
 20
8.1135361614
 11
3.0286498958
 21
7.8576306496
  0
LINE
  5
63C
100
AcDbEntity
  8
02___PRT_ALL_AXES
100
AcDbLine
 62
7
  6
CONTINUOUS
 10
3.0409491084
 20
6.336347185
 11
3.0409491084
 21
6.401347185
  0
LINE
  5
63D
100
AcDbEntity
  8
02___PRT_ALL_AXES
100
AcDbLine
 62
7
  6
CONTINUOUS
 10
3.0409491084
 20
6.4800873425
 11
3.0409491084
 21
6.5450873425
  0
LINE
  5
63E
100
AcDbEntity
  8
0
100
AcDbLine
 62
7
  6
CONTINUOUS
 10
3.1073900533
 20
8.5032512874
 11
3.1073900533
 21
7.4679155236
  0
LWPOLYLINE
  5
63F
100
AcDbEntity
  8
0
100
AcDbPolyline
 62
7
  6
CONTINUOUS
 90
9
 70
0
 10
3.2255002895
 20
8.2965545802
 10
3.2260007683
 20
8.3010755974
 10
3.2272925412
 20
8.3049706364
 10
3.2291659298
 20
8.3082917349
 10
3.2315379282
 20
8.3111144269
 10
3.2344035028
 20
8.3134635751
 10
3.2377150372
 20
8.3152575825
 10
3.2413678902
 20
8.3163892805
 10
3.2451853289
 20
8.316774254
  0
LWPOLYLINE
  5
640
100
AcDbEntity
  8
0
100
AcDbPolyline
 62
7
  6
CONTINUOUS
 90
17
 70
0
 10
2.3976729242
 20
7.5337622819
 10
2.4130807291
 20
7.5387536245
 10
2.4338630355
 20
7.5447999661
 10
2.4593595042
 20
7.5511012454
 10
2.4891323249
 20
7.5568409966
 10
2.5227688381
 20
7.5611534803
 10
2.5589588373
 20
7.5631547471
 10
2.5967606098
 20
7.5622972035
 10
2.635036906
 20
7.5583909943
 10
2.6728395961
 20
7.5516240618
 10
2.7101746386
 20
7.5422424419
 10
2.7467846269
 20
7.530607411
 10
2.7812097245
 20
7.5176341178
 10
2.811806808
 20
7.5045847218
 10
2.8374404488
 20
7.4926398831
 10
2.8575480745
 20
7.482670596
 10
2.8722252926
 20
7.4750807604
  0
LWPOLYLINE
  5
641
100
AcDbEntity
  8
AXIS
100
AcDbPolyline
 62
7
  6
CONTINUOUS
 90
13
 70
0
 10
2.878298297
 20
6.9214574232
 10
2.8681501273
 20
6.9214520538
 10
2.8584616462
 20
6.9213796344
 10
2.8495884497
 20
6.9211189266
 10
2.8418090681
 20
6.9205803645
 10
2.835029554
 20
6.9197309286
 10
2.8289677619
 20
6.9185434929
 10
2.8233470731
 20
6.916957389
 10
2.8178963312
 20
6.9148334482
 10
2.8124043796
 20
6.911920413
 10
2.8069100011
 20
6.9079354315
 10
2.8016239655
 20
6.902591482
 10
2.797184534
 20
6.8961613701
  0
LWPOLYLINE
  5
642
100
AcDbEntity
  8
AXIS
100
AcDbPolyline
 62
7
  6
CONTINUOUS
 90
4
 70
0
 10
2.3916149339
 20
6.9214574214
 10
2.3817929797
 20
6.9214527541
 10
2.3722369848
 20
6.9213868885
 10
2.3633609925
 20
6.9211408039
  0
LWPOLYLINE
  5
643
100
AcDbEntity
  8
AXIS
100
AcDbPolyline
 62
7
  6
CONTINUOUS
 90
13
 70
0
 10
2.6349479449
 20
6.9214574283
 10
2.6149983285
 20
6.9214524175
 10
2.5957972273
 20
6.9213836863
 10
2.5780973728
 20
6.9211322128
 10
2.5624563559
 20
6.9206036821
 10
2.5487898093
 20
6.9197613877
 10
2.5365430986
 20
6.9185744856
 10
2.5251758487
 20
6.9169800955
 10
2.5141628362
 20
6.9148392343
 10
2.5030968741
 20
6.911902983
 10
2.492084248
 20
6.9079012602
 10
2.4815310827
 20
6.9025544402
 10
2.4727136828
 20
6.8961613701
  0
LINE
  5
644
100
AcDbEntity
  8
AXIS
100
AcDbLine
 62
7
  6
CONTINUOUS
 10
2.3539491084
 20
6.9214574212
 11
2.878297461
 21
6.9214574212
  0
LINE
  5
645
100
AcDbEntity
  8
AXIS
100
AcDbLine
 62
7
  6
CONTINUOUS
 10
2.8783229011
 20
6.9214574212
 11
2.9159491084
 21
6.9214574212
  0
LWPOLYLINE
  5
646
100
AcDbEntity
  8
AXIS
100
AcDbPolyline
 62
7
  6
CONTINUOUS
 90
5
 70
0
 10
2.9145290266
 20
6.9206055134
 10
2.9066420761
 20
6.9211361062
 10
2.8977670507
 20
6.9213853399
 10
2.8881913406
 20
6.9214525882
 10
2.878298297
 20
6.9214574232
  0
LINE
  5
647
100
AcDbEntity
  8
AXIS
100
AcDbLine
 62
7
  6
CONTINUOUS
 10
2.9214434311
 20
6.919751723
 11
2.9145290266
 21
6.9206055134
  0
LINE
  5
648
100
AcDbEntity
  8
0
100
AcDbLine
 62
7
  6
CONTINUOUS
 10
1.8569069034
 20
7.6773465353
 11
1.854673029
 21
7.6784063618
  0
LWPOLYLINE
  5
649
100
AcDbEntity
  8
0
100
AcDbPolyline
 62
9
  6
CONTINUOUS
 90
24
 70
0
 10
3.2803604357
 20
7.6748147493
 10
3.279921643
 20
7.6929045331
 10
3.279502741
 20
7.7134431941
 10
3.2791095077
 20
7.7363399096
 10
3.278750535
 20
7.7612216377
 10
3.2784314571
 20
7.7877106436
 10
3.2781539564
 20
7.8156331451
 10
3.2779194687
 20
7.8448337589
 10
3.2777298141
 20
7.8750914583
 10
3.2775864781
 20
7.90617041
 10
3.277490506
 20
7.9378416786
 10
3.2774426101
 20
7.9698716172
 10
3.277443157
 20
8.0020197064
 10
3.2774921423
 20
8.0340441053
 10
3.2775891955
 20
8.065705657
 10
3.2777336117
 20
8.0967724735
 10
3.2779243483
 20
8.1270151733
 10
3.2781598624
 20
8.1561909855
 10
3.278438219
 20
8.1840716633
 10
3.2787579878
 20
8.2105088653
 10
3.2791175874
 20
8.2353389366
 10
3.2795112195
 20
8.2581756161
 10
3.2799292347
 20
8.2786030906
 10
3.2803604357
 20
8.2963520616
  0
LWPOLYLINE
  5
64A
100
AcDbEntity
  8
0
100
AcDbPolyline
 62
9
  6
CONTINUOUS
 90
25
 70
0
 10
3.2607587885
 20
7.6552309775
 10
3.2603283268
 20
7.6732927874
 10
3.2599158304
 20
7.6938003373
 10
3.2595261568
 20
7.7167018235
 10
3.2591669544
 20
7.7416930174
 10
3.2588444318
 20
7.7683823978
 10
3.258560976
 20
7.796544583
 10
3.2583177891
 20
7.8260391646
 10
3.2581164736
 20
7.8566738596
 10
3.2579585578
 20
7.8882202546
 10
3.2578451625
 20
7.9204530542
 10
3.2577770737
 20
7.9531481338
 10
3.2577547794
 20
7.986074548
 10
3.2577784422
 20
8.0189973259
 10
3.2578478904
 20
8.0516822397
 10
3.2579626351
 20
8.0839000519
 10
3.2581218963
 20
8.1154277677
 10
3.2583245364
 20
8.146037217
 10
3.2585689495
 20
8.1754925576
 10
3.2588534478
 20
8.2035984924
 10
3.2591768408
 20
8.2302214822
 10
3.2595368276
 20
8.2551453348
 10
3.2599269745
 20
8.2779672493
 10
3.260337815
 20
8.2983066285
 10
3.2607587885
 20
8.3159358339
  0
LINE
  5
64B
100
AcDbEntity
  8
0
100
AcDbLine
 62
7
  6
CONTINUOUS
 10
3.2119963525
 20
8.4973944291
 11
3.2119963525
 21
7.4737723819
  0
LINE
  5
64C
100
AcDbEntity
  8
0
100
AcDbLine
 62
7
  6
CONTINUOUS
 10
3.2255002895
 20
7.6208160878
 11
3.2255002895
 21
7.654392557
  0
LINE
  5
64D
100
AcDbEntity
  8
0
100
AcDbLine
 62
7
  6
CONTINUOUS
 10
3.2255002895
 20
7.6748147493
 11
3.2255002895
 21
8.2965545802
  0
LINE
  5
64E
100
AcDbEntity
  8
0
100
AcDbLine
 62
7
  6
CONTINUOUS
 10
3.2255002895
 20
8.316774254
 11
3.2255002895
 21
8.3503507232
  0
LINE
  5
64F
100
AcDbEntity
  8
0
100
AcDbLine
 62
9
  6
CONTINUOUS
 10
3.2316813919
 20
7.4737723819
 11
3.2316813919
 21
7.6523121508
  0
LINE
  5
650
100
AcDbEntity
  8
0
100
AcDbLine
 62
9
  6
CONTINUOUS
 10
3.2316813919
 20
8.3188546602
 11
3.2316813919
 21
8.4973944291
  0
LINE
  5
651
100
AcDbEntity
  8
0
100
AcDbLine
 62
9
  6
CONTINUOUS
 10
3.2451853289
 20
7.654392557
 11
3.2451853289
 21
8.316774254
  0
LINE
  5
652
100
AcDbEntity
  8
0
100
AcDbLine
 62
7
  6
CONTINUOUS
 10
3.283180993
 20
7.671994192
 11
3.283180993
 21
8.299172619
  0
LWPOLYLINE
  5
653
100
AcDbEntity
  8
0
100
AcDbPolyline
 62
7
  6
CONTINUOUS
 90
6
 70
0
 10
3.2803604357
 20
7.6748147493
 10
3.2794186384
 20
7.6689285054
 10
3.276691083
 20
7.6635124013
 10
3.2723719481
 20
7.6591241431
 10
3.2668489511
 20
7.65625112
 10
3.2605801241
 20
7.6552309785
  0
LWPOLYLINE
  5
654
100
AcDbEntity
  8
AXIS
100
AcDbPolyline
 62
7
  6
CONTINUOUS
 90
9
 70
0
 10
2.355465841
 20
6.9206145026
 10
2.3485428335
 20
6.9197655391
 10
2.3423276089
 20
6.9185591116
 10
2.3365531578
 20
6.9169282248
 10
2.3309645375
 20
6.9147306556
 10
2.3253888935
 20
6.9117281075
 10
2.3199601704
 20
6.9077270311
 10
2.314881413
 20
6.9025477489
 10
2.3104782571
 20
6.8961613701
  0
LINE
  5
655
100
AcDbEntity
  8
AXIS
100
AcDbLine
 62
7
  6
CONTINUOUS
 10
2.3633609925
 20
6.9211408039
 11
2.355465841
 21
6.9206145026
  0
LWPOLYLINE
  5
656
100
AcDbEntity
  8
0
100
AcDbPolyline
 62
7
  6
CONTINUOUS
 90
8
 70
0
 10
1.8569069457
 20
7.6773465213
 10
1.9310655147
 20
7.6523992696
 10
2.0062548062
 20
7.6289029069
 10
2.0819206532
 20
7.6070192427
 10
2.1574193842
 20
7.5868930449
 10
2.2330613083
 20
7.5683981553
 10
2.3118491125
 20
7.5508727107
 10
2.3976729242
 20
7.5337622819
  0
LWPOLYLINE
  5
657
100
AcDbEntity
  8
0
100
AcDbPolyline
 62
7
  6
CONTINUOUS
 90
6
 70
0
 10
2.1388861163
 20
7.7834439505
 10
2.1041965356
 20
7.8034013993
 10
2.0685018388
 20
7.8240667308
 10
2.032745625
 20
7.8448997597
 10
1.9978104705
 20
7.8653836255
 10
1.9646154072
 20
7.8849681647
  0
LINE
  5
658
100
AcDbEntity
  8
0
100
AcDbLine
 62
7
  6
CONTINUOUS
 10
1.9735317856
 20
7.8901160381
 11
2.0399189385
 21
7.8517873975
  0
LINE
  5
659
100
AcDbEntity
  8
0
100
AcDbLine
 62
7
  6
CONTINUOUS
 10
2.0724989633
 20
7.8329773114
 11
2.1388861163
 21
7.7946486708
  0
LINE
  5
65A
100
AcDbEntity
  8
0
100
AcDbLine
 62
7
  6
CONTINUOUS
 10
2.0408861163
 20
7.9290030791
 11
2.1388861163
 21
7.8724227527
  0
LINE
  5
65B
100
AcDbEntity
  8
0
100
AcDbLine
 62
7
  6
CONTINUOUS
 10
2.304240447
 20
7.8901160381
 11
2.321286466
 21
7.8802745145
  0
LINE
  5
65C
100
AcDbEntity
  8
0
100
AcDbLine
 62
7
  6
CONTINUOUS
 10
1.9735317856
 20
8.0810507728
 11
1.9646154072
 21
8.0861986463
  0
LWPOLYLINE
  5
65D
100
AcDbEntity
  8
0
100
AcDbPolyline
 62
7
  6
CONTINUOUS
 90
7
 70
0
 10
2.1388861163
 20
8.1877228605
 10
2.16840348
 20
8.1723842466
 10
2.198502518
 20
8.1565953578
 10
2.229001908
 20
8.1404584922
 10
2.2597438936
 20
8.1240644491
 10
2.2905581634
 20
8.1075115038
 10
2.321286466
 20
8.0908922965
  0
LINE
  5
65E
100
AcDbEntity
  8
0
100
AcDbLine
 62
7
  6
CONTINUOUS
 10
2.2368861163
 20
8.0421637319
 11
2.1388861163
 21
8.0987440583
  0
LINE
  5
65F
100
AcDbEntity
  8
0
100
AcDbLine
 62
7
  6
CONTINUOUS
 10
2.304240447
 20
8.0810507728
 11
2.237853294
 21
8.1193794135
  0
LINE
  5
660
100
AcDbEntity
  8
0
100
AcDbLine
 62
7
  6
CONTINUOUS
 10
2.2052732692
 20
8.1381894995
 11
2.1388861163
 21
8.1765181402
  0
LINE
  5
661
100
AcDbEntity
  8
0
100
AcDbLine
 62
9
  6
CONTINUOUS
 10
3.2605801241
 20
7.6552309785
 11
3.2634989518
 21
7.6523121508
  0
LINE
  5
662
100
AcDbEntity
  8
0
100
AcDbLine
 62
9
  6
CONTINUOUS
 10
3.2803604357
 20
7.6748147493
 11
3.283180993
 21
7.671994192
  0
LWPOLYLINE
  5
663
100
AcDbEntity
  8
AXIS
100
AcDbPolyline
 62
7
  6
CONTINUOUS
 90
3
 70
0
 10
2.9497879107
 20
6.5980589793
 10
2.9549126121
 20
6.6032417935
 10
2.9594199597
 20
6.6097534724
  0
LINE
  5
664
100
AcDbEntity
  8
0
100
AcDbLine
 62
7
  6
CONTINUOUS
 10
3.1073900533
 20
7.4737723819
 11
3.2471203793
 21
7.4737723819
  0
LWPOLYLINE
  5
665
100
AcDbEntity
  8
0
100
AcDbPolyline
 62
7
  6
CONTINUOUS
 90
3
 70
0
 10
2.8722252926
 20
7.4750807604
 10
2.9878114925
 20
7.4697667067
 10
3.1073900533
 20
7.4679155236
  0
LINE
  5
666
100
AcDbEntity
  8
0
100
AcDbLine
 62
7
  6
CONTINUOUS
 10
3.2119963525
 20
7.6208160878
 11
3.2255002895
 21
7.6208160878
  0
LINE
  5
667
100
AcDbEntity
  8
0
100
AcDbLine
 62
7
  6
CONTINUOUS
 10
3.2119963525
 20
7.62167948
 11
3.2255002895
 21
7.62167948
  0
LINE
  5
668
100
AcDbEntity
  8
0
100
AcDbLine
 62
7
  6
CONTINUOUS
 10
3.2255002895
 20
7.6523121508
 11
3.2634989518
 21
7.6523121508
  0
LINE
  5
669
100
AcDbEntity
  8
0
100
AcDbLine
 62
7
  6
CONTINUOUS
 10
3.2451853289
 20
7.654392557
 11
3.2255002895
 21
7.654392557
  0
LINE
  5
66A
100
AcDbEntity
  8
0
100
AcDbLine
 62
7
  6
CONTINUOUS
 10
3.2451853289
 20
7.6552309785
 11
3.2605801241
 21
7.6552309785
  0
LWPOLYLINE
  5
66B
100
AcDbEntity
  8
0
100
AcDbPolyline
 62
7
  6
CONTINUOUS
 90
9
 70
0
 10
3.2451853289
 20
7.654392557
 10
3.2413671601
 20
7.6547776792
 10
3.2377129005
 20
7.6559101311
 10
3.2344021307
 20
7.6577041604
 10
3.2315371711
 20
7.6600531332
 10
3.2291651274
 20
7.6628762306
 10
3.2272919547
 20
7.6661974875
 10
3.2260005603
 20
7.6700921416
 10
3.2255002895
 20
7.6746122307
  0
LWPOLYLINE
  5
66C
100
AcDbEntity
  8
0
100
AcDbPolyline
 62
7
  6
CONTINUOUS
 90
6
 70
0
 10
3.2451853289
 20
7.6552309785
 10
3.2389688911
 20
7.6562331961
 10
3.2334437643
 20
7.6590963589
 10
3.2291362612
 20
7.6634751167
 10
3.2264214817
 20
7.6688942857
 10
3.2255002895
 20
7.6748147493
  0
LINE
  5
66D
100
AcDbEntity
  8
0
100
AcDbLine
 62
7
  6
CONTINUOUS
 10
3.0089648564
 20
7.8379456102
 11
2.4184136753
 21
7.8379456102
  0
LWPOLYLINE
  5
66E
100
AcDbEntity
  8
AXIS
100
AcDbPolyline
 62
7
  6
CONTINUOUS
 90
3
 70
0
 10
2.9497879107
 20
5.8402085856
 10
2.9549126121
 20
5.8453913998
 10
2.9594199597
 20
5.8519030787
  0
LINE
  5
66F
100
AcDbEntity
  8
02___PRT_ALL_AXES
100
AcDbLine
 62
7
  6
CENTER
 10
4.3475475336
 20
7.9855834055
 11
3.2317708106
 21
7.9855834055
  0
LINE
  5
670
100
AcDbEntity
  8
AXIS
100
AcDbLine
 62
7
  6
CENTER
 10
2.1388861163
 20
7.9855834055
 11
1.9306183997
 21
7.9855834055
  0
LINE
  5
671
100
AcDbEntity
  8
AXIS
100
AcDbLine
 62
7
  6
CENTER
 10
2.1388861163
 20
7.9855834055
 11
2.3471538328
 21
7.9855834055
  0
LINE
  5
672
100
AcDbEntity
  8
02___PRT_ALL_AXES
100
AcDbLine
 62
7
  6
CENTER
 10
4.3475475336
 20
7.9855834055
 11
5.4633242565
 21
7.9855834055
  0
LINE
  5
673
100
AcDbEntity
  8
02___PRT_ALL_AXES
100
AcDbLine
 62
7
  6
CENTER
 10
4.3475475336
 20
7.9855834055
 11
4.3475475336
 21
6.8698066825
  0
LINE
  5
674
100
AcDbEntity
  8
02___PRT_ALL_AXES
100
AcDbLine
 62
7
  6
CENTER
 10
4.3475475336
 20
7.9855834055
 11
4.3475475336
 21
9.1013601284
  0
LINE
  5
675
100
AcDbEntity
  8
0
100
AcDbLine
 62
7
  6
CONTINUOUS
 10
2.4184136753
 20
8.1332212008
 11
3.0089648564
 21
8.1332212008
  0
LWPOLYLINE
  5
676
100
AcDbEntity
  8
0
100
AcDbPolyline
 62
7
  6
CONTINUOUS
 90
6
 70
0
 10
3.2451853289
 20
8.3159358325
 10
3.2389688911
 20
8.3149336149
 10
3.2334437643
 20
8.3120704521
 10
3.2291362612
 20
8.3076916942
 10
3.2264214817
 20
8.3022725253
 10
3.2255002895
 20
8.2963520616
  0
LINE
  5
677
100
AcDbEntity
  8
0
100
AcDbLine
 62
7
  6
CONTINUOUS
 10
3.2451853289
 20
8.3159358325
 11
3.2605801241
 21
8.3159358325
  0
LINE
  5
678
100
AcDbEntity
  8
0
100
AcDbLine
 62
7
  6
CONTINUOUS
 10
3.2451853289
 20
8.316774254
 11
3.2255002895
 21
8.316774254
  0
LINE
  5
679
100
AcDbEntity
  8
0
100
AcDbLine
 62
7
  6
CONTINUOUS
 10
3.2634989518
 20
8.3188546602
 11
3.2255002895
 21
8.3188546602
  0
LINE
  5
67A
100
AcDbEntity
  8
0
100
AcDbLine
 62
7
  6
CONTINUOUS
 10
3.2119963525
 20
8.349487331
 11
3.2255002895
 21
8.349487331
  0
LINE
  5
67B
100
AcDbEntity
  8
0
100
AcDbLine
 62
7
  6
CONTINUOUS
 10
3.2255002895
 20
8.3503507232
 11
3.2119963525
 21
8.3503507232
  0
LWPOLYLINE
  5
67C
100
AcDbEntity
  8
0
100
AcDbPolyline
 62
7
  6
CONTINUOUS
 90
6
 70
0
 10
3.2605801241
 20
8.3159358325
 10
3.2668489506
 20
8.3149156912
 10
3.2723719476
 20
8.3120426683
 10
3.2766910826
 20
8.3076544102
 10
3.2794186383
 20
8.3022383062
 10
3.2803604357
 20
8.2963520616
  0
LWPOLYLINE
  5
67D
100
AcDbEntity
  8
0
100
AcDbPolyline
 62
7
  6
CONTINUOUS
 90
3
 70
0
 10
3.1073900533
 20
8.5032512874
 10
2.9878179783
 20
8.5014003052
 10
2.8722252926
 20
8.4960860506
  0
LINE
  5
67E
100
AcDbEntity
  8
0
100
AcDbLine
 62
7
  6
CONTINUOUS
 10
3.1073900533
 20
8.4973944291
 11
3.2471203793
 21
8.4973944291
  0
LWPOLYLINE
  5
67F
100
AcDbEntity
  8
0
100
AcDbPolyline
 62
7
  6
CONTINUOUS
 90
8
 70
0
 10
2.3976729242
 20
8.437404529
 10
2.3117729289
 20
8.4202779999
 10
2.2330715005
 20
8.4027710368
 10
2.1575353025
 20
8.3843033774
 10
2.0820397503
 20
8.3641806489
 10
2.0063132623
 20
8.3422814851
 10
1.9310627237
 20
8.3187666361
 10
1.8569069034
 20
8.2938202757
  0
LWPOLYLINE
  5
680
100
AcDbEntity
  8
AXIS
100
AcDbPolyline
 62
7
  6
CONTINUOUS
 90
13
 70
0
 10
9.713616458
 20
5.8266070171
 10
9.7312290346
 20
5.8266124312
 10
9.7480819761
 20
5.8266857347
 10
9.7635582853
 20
5.8269512117
 10
9.7771576908
 20
5.8275026449
 10
9.7889838525
 20
5.8283721708
 10
9.7995152112
 20
5.8295829436
 10
9.8092223462
 20
5.8311884616
 10
9.8185682387
 20
5.8333168843
 10
9.8279456016
 20
5.8362124886
 10
9.8373320636
 20
5.8401592735
 10
9.8464126521
 20
5.8454636144
 10
9.8541154311
 20
5.8519030787
  0
LWPOLYLINE
  5
681
100
AcDbEntity
  8
AXIS
100
AcDbPolyline
 62
7
  6
CONTINUOUS
 90
13
 70
0
 10
9.432580762
 20
5.8266070275
 10
9.4504243255
 20
5.8266126745
 10
9.46692624
 20
5.8266843276
 10
9.4818969393
 20
5.826933457
 10
9.4952260533
 20
5.827451627
 10
9.5070624924
 20
5.828287814
 10
9.5177864337
 20
5.8294830435
 10
9.5277840551
 20
5.831103893
 10
9.5374320649
 20
5.8332809752
 10
9.5470277941
 20
5.8362419673
 10
9.5564322328
 20
5.8402085856
 10
9.565308476
 20
5.8453913998
 10
9.5731154311
 20
5.8519030787
  0
LINE
  5
682
100
AcDbEntity
  8
AXIS
100
AcDbLine
 62
7
  6
CONTINUOUS
 10
9.2921142688
 20
5.8266070275
 11
9.3668676204
 21
5.8266070275
  0
LINE
  5
683
100
AcDbEntity
  8
AXIS
100
AcDbLine
 62
7
  6
CONTINUOUS
 10
9.4155154311
 20
5.8266070275
 11
9.7135976933
 21
5.8266070275
  0
LINE
  5
684
100
AcDbEntity
  8
AXIS
100
AcDbLine
 62
7
  6
CONTINUOUS
 10
9.7307154311
 20
5.8266070275
 11
9.8541165947
 21
5.8266070275
  0
LWPOLYLINE
  5
685
100
AcDbEntity
  8
AXIS
100
AcDbPolyline
 62
7
  6
CONTINUOUS
 90
11
 70
0
 10
9.2921154311
 20
5.8519030787
 10
9.299648288
 20
5.8455820887
 10
9.3088146821
 20
5.8402006713
 10
9.3195098874
 20
5.8357825135
 10
9.3315275524
 20
5.8323569991
 10
9.344953804
 20
5.8298355072
 10
9.3599124209
 20
5.8281365121
 10
9.3764831251
 20
5.8271544352
 10
9.3946301513
 20
5.8267229391
 10
9.4136648807
 20
5.8266142654
 10
9.432580762
 20
5.8266070275
  0
LWPOLYLINE
  5
686
100
AcDbEntity
  8
AXIS
100
AcDbPolyline
 62
7
  6
CONTINUOUS
 90
13
 70
0
 10
9.5731154311
 20
5.8519030787
 10
9.5808223145
 20
5.8454607632
 10
9.5896273817
 20
5.8402932932
 10
9.598970333
 20
5.8363258699
 10
9.60849118
 20
5.8333623201
 10
9.6180325768
 20
5.8311837867
 10
9.6279404735
 20
5.8295518449
 10
9.6386572511
 20
5.8283342244
 10
9.6506394517
 20
5.8274713676
 10
9.6643352743
 20
5.8269334215
 10
9.6797510286
 20
5.8266803982
 10
9.6963916759
 20
5.826611969
 10
9.713616458
 20
5.8266070171
  0
LWPOLYLINE
  5
687
100
AcDbEntity
  8
AXIS
100
AcDbPolyline
 62
7
  6
CONTINUOUS
 90
13
 70
0
 10
9.4326085897
 20
6.1636070295
 10
9.4150314442
 20
6.1636016601
 10
9.3982505027
 20
6.1635292407
 10
9.3828816755
 20
6.1632685329
 10
9.3694073913
 20
6.1627299708
 10
9.3576649284
 20
6.1618805349
 10
9.3471655966
 20
6.1606930992
 10
9.337430278
 20
6.1591069953
 10
9.3279893161
 20
6.1569830545
 10
9.3184769769
 20
6.1540700193
 10
9.3089604341
 20
6.1500850378
 10
9.2998047519
 20
6.1447410883
 10
9.2921154311
 20
6.1383109764
  0
LWPOLYLINE
  5
688
100
AcDbEntity
  8
AXIS
100
AcDbPolyline
 62
7
  6
CONTINUOUS
 90
13
 70
0
 10
9.7136327721
 20
6.1636070278
 10
9.6966305474
 20
6.1636023543
 10
9.6800798279
 20
6.1635364541
 10
9.6647070661
 20
6.1632903086
 10
9.6510331561
 20
6.1627639454
 10
9.6390428407
 20
6.1619149313
 10
9.6282782707
 20
6.1607084653
 10
9.6182770129
 20
6.1590775477
 10
9.6085975422
 20
6.1568799527
 10
9.5989405493
 20
6.1538774017
 10
9.5895380392
 20
6.1498763649
 10
9.5807416725
 20
6.1446971821
 10
9.5731154311
 20
6.1383109764
  0
LINE
  5
689
100
AcDbEntity
  8
AXIS
100
AcDbLine
 62
7
  6
CONTINUOUS
 10
9.9131126274
 20
6.1636070275
 11
9.2337041761
 21
6.1636070275
  0
LINE
  5
68A
100
AcDbEntity
  8
AXIS
100
AcDbLine
 62
7
  6
CONTINUOUS
 10
9.2337041761
 20
6.2576070275
 11
9.9131126274
 21
6.2576070275
  0
LINE
  5
68B
100
AcDbEntity
  8
02___PRT_ALL_AXES
100
AcDbLine
 62
7
  6
CONTINUOUS
 10
9.1671154311
 20
6.336347185
 11
9.9791154311
 21
6.336347185
  0
LWPOLYLINE
  5
68C
100
AcDbEntity
  8
AXIS
100
AcDbPolyline
 62
7
  6
CONTINUOUS
 90
13
 70
0
 10
9.5731154311
 20
6.1383109764
 10
9.5655054547
 20
6.1446858418
 10
9.5567326797
 20
6.1498565137
 10
9.5473564781
 20
6.1538534084
 10
9.5377245603
 20
6.1568557527
 10
9.5280662985
 20
6.1590558457
 10
9.5180848994
 20
6.1606904153
 10
9.5073381541
 20
6.1619013293
 10
9.4953620542
 20
6.1627551197
 10
9.4817014552
 20
6.1632857125
 10
9.4663294604
 20
6.1635349462
 10
9.4497438439
 20
6.1636021945
 10
9.4326085897
 20
6.1636070295
  0
LINE
  5
68D
100
AcDbEntity
  8
02___PRT_ALL_AXES
100
AcDbLine
 62
7
  6
CONTINUOUS
 10
9.1671154311
 20
6.401347185
 11
9.9791154311
 21
6.401347185
  0
LINE
  5
68E
100
AcDbEntity
  8
02___PRT_ALL_AXES
100
AcDbLine
 62
7
  6
CONTINUOUS
 10
9.1671154311
 20
6.4800873425
 11
9.9791154311
 21
6.4800873425
  0
LWPOLYLINE
  5
68F
100
AcDbEntity
  8
AXIS
100
AcDbPolyline
 62
7
  6
CONTINUOUS
 90
13
 70
0
 10
9.8541154311
 20
6.1383109764
 10
9.8463607429
 20
6.1447864637
 10
9.8371124846
 20
6.1501622719
 10
9.8275283924
 20
6.1541499853
 10
9.8179374086
 20
6.1570621949
 10
9.8083816949
 20
6.1591867085
 10
9.7985125141
 20
6.1607678857
 10
9.7878973757
 20
6.1619410305
 10
9.7760948435
 20
6.1627694343
 10
9.7626554034
 20
6.1632869086
 10
9.7474642376
 20
6.1635337914
 10
9.7309455336
 20
6.1636019631
 10
9.7136327721
 20
6.1636070278
  0
LWPOLYLINE
  5
690
100
AcDbEntity
  8
AXIS
100
AcDbPolyline
 62
7
  6
CONTINUOUS
 90
11
 70
0
 10
9.2921154311
 20
6.6097534724
 10
9.299648288
 20
6.6034324824
 10
9.3088146821
 20
6.598051065
 10
9.3195098874
 20
6.5936329072
 10
9.3315275524
 20
6.5902073928
 10
9.344953804
 20
6.5876859009
 10
9.3599124209
 20
6.5859869058
 10
9.3764831251
 20
6.5850048289
 10
9.3946301513
 20
6.5845733328
 10
9.4136648807
 20
6.5844646591
 10
9.432580762
 20
6.5844574212
  0
LWPOLYLINE
  5
691
100
AcDbEntity
  8
AXIS
100
AcDbPolyline
 62
7
  6
CONTINUOUS
 90
13
 70
0
 10
9.713616458
 20
6.5844574108
 10
9.7312290346
 20
6.5844628249
 10
9.7480819761
 20
6.5845361284
 10
9.7635582853
 20
6.5848016054
 10
9.7771576908
 20
6.5853530386
 10
9.7889838525
 20
6.5862225645
 10
9.7995152112
 20
6.5874333373
 10
9.8092223462
 20
6.5890388553
 10
9.8185682387
 20
6.5911672781
 10
9.8279456016
 20
6.5940628823
 10
9.8373320636
 20
6.5980096672
 10
9.8464126521
 20
6.6033140081
 10
9.8541154311
 20
6.6097534724
  0
LWPOLYLINE
  5
692
100
AcDbEntity
  8
AXIS
100
AcDbPolyline
 62
7
  6
CONTINUOUS
 90
13
 70
0
 10
9.432580762
 20
6.5844574212
 10
9.4504243255
 20
6.5844630682
 10
9.46692624
 20
6.5845347213
 10
9.4818969393
 20
6.5847838507
 10
9.4952260533
 20
6.5853020207
 10
9.5070624924
 20
6.5861382077
 10
9.5177864337
 20
6.5873334372
 10
9.5277840551
 20
6.5889542867
 10
9.5374320649
 20
6.5911313689
 10
9.5470277941
 20
6.594092361
 10
9.5564322328
 20
6.5980589793
 10
9.565308476
 20
6.6032417935
 10
9.5731154311
 20
6.6097534724
  0
LINE
  5
693
100
AcDbEntity
  8
02___PRT_ALL_AXES
100
AcDbLine
 62
7
  6
CONTINUOUS
 10
9.1671154311
 20
6.5450873425
 11
9.9791154311
 21
6.5450873425
  0
LINE
  5
694
100
AcDbEntity
  8
AXIS
100
AcDbLine
 62
7
  6
CONTINUOUS
 10
9.7135976933
 20
6.5844574212
 11
9.4325973302
 21
6.5844574212
  0
LINE
  5
695
100
AcDbEntity
  8
AXIS
100
AcDbLine
 62
7
  6
CONTINUOUS
 10
9.2921142688
 20
6.5844574212
 11
9.3761154311
 21
6.5844574212
  0
LINE
  5
696
100
AcDbEntity
  8
AXIS
100
AcDbLine
 62
7
  6
CONTINUOUS
 10
9.7136303869
 20
6.5844574212
 11
9.8541165947
 21
6.5844574212
  0
LWPOLYLINE
  5
697
100
AcDbEntity
  8
AXIS
100
AcDbPolyline
 62
7
  6
CONTINUOUS
 90
13
 70
0
 10
9.5731154311
 20
6.6097534724
 10
9.5808223145
 20
6.6033111569
 10
9.5896273817
 20
6.5981436869
 10
9.598970333
 20
6.5941762636
 10
9.60849118
 20
6.5912127138
 10
9.6180325768
 20
6.5890341804
 10
9.6279404735
 20
6.5874022386
 10
9.6386572511
 20
6.5861846181
 10
9.6506394517
 20
6.5853217613
 10
9.6643352743
 20
6.5847838152
 10
9.6797510286
 20
6.5845307919
 10
9.6963916759
 20
6.5844623627
 10
9.713616458
 20
6.5844574108
  0
LINE
  5
698
100
AcDbEntity
  8
02___PRT_ALL_AXES
100
AcDbLine
 62
7
  6
CONTINUOUS
 10
9.1671154311
 20
6.336347185
 11
9.1671154311
 21
6.401347185
  0
LINE
  5
699
100
AcDbEntity
  8
02___PRT_ALL_AXES
100
AcDbLine
 62
7
  6
CONTINUOUS
 10
9.1671154311
 20
6.4800873425
 11
9.1671154311
 21
6.5450873425
  0
LINE
  5
69A
100
AcDbEntity
  8
AXIS
100
AcDbLine
 62
7
  6
CONTINUOUS
 10
9.2337041761
 20
6.1636070275
 11
9.2337041761
 21
6.2576070275
  0
LINE
  5
69B
100
AcDbEntity
  8
AXIS
100
AcDbLine
 62
7
  6
CONTINUOUS
 10
9.2921154311
 20
5.8266070085
 11
9.2921154311
 21
6.1636070346
  0
LINE
  5
69C
100
AcDbEntity
  8
AXIS
100
AcDbLine
 62
7
  6
CONTINUOUS
 10
9.2921154311
 20
6.5844574022
 11
9.2921154311
 21
6.9214574283
  0
LWPOLYLINE
  5
69D
100
AcDbEntity
  8
0
100
AcDbPolyline
 62
7
  6
CONTINUOUS
 90
6
 70
0
 10
9.3327856515
 20
7.6748147493
 10
9.3309899315
 20
7.6689285054
 10
9.3293829439
 20
7.6635124013
 10
9.3281265465
 20
7.6591241431
 10
9.3273552134
 20
7.65625112
 10
9.3271557446
 20
7.6552309785
  0
LWPOLYLINE
  5
69E
100
AcDbEntity
  8
AXIS
100
AcDbPolyline
 62
7
  6
CONTINUOUS
 90
13
 70
0
 10
9.4326085897
 20
6.9214574232
 10
9.4150314442
 20
6.9214520538
 10
9.3982505027
 20
6.9213796344
 10
9.3828816755
 20
6.9211189266
 10
9.3694073913
 20
6.9205803645
 10
9.3576649284
 20
6.9197309286
 10
9.3471655966
 20
6.9185434929
 10
9.337430278
 20
6.916957389
 10
9.3279893161
 20
6.9148334482
 10
9.3184769769
 20
6.911920413
 10
9.3089604341
 20
6.9079354315
 10
9.2998047519
 20
6.902591482
 10
9.2921154311
 20
6.8961613701
  0
LWPOLYLINE
  5
69F
100
AcDbEntity
  8
AXIS
100
AcDbPolyline
 62
7
  6
CONTINUOUS
 90
13
 70
0
 10
9.7136327721
 20
6.9214574215
 10
9.6966305474
 20
6.921452748
 10
9.6800798279
 20
6.9213868478
 10
9.6647070661
 20
6.9211407023
 10
9.6510331561
 20
6.9206143391
 10
9.6390428407
 20
6.919765325
 10
9.6282782707
 20
6.918558859
 10
9.6182770129
 20
6.9169279414
 10
9.6085975422
 20
6.9147303464
 10
9.5989405493
 20
6.9117277954
 10
9.5895380392
 20
6.9077267586
 10
9.5807416725
 20
6.9025475758
 10
9.5731154311
 20
6.8961613701
  0
LINE
  5
6A0
100
AcDbEntity
  8
AXIS
100
AcDbLine
 62
7
  6
CONTINUOUS
 10
9.2921148946
 20
6.9214574212
 11
9.3761154311
 21
6.9214574212
  0
LINE
  5
6A1
100
AcDbEntity
  8
AXIS
100
AcDbLine
 62
7
  6
CONTINUOUS
 10
9.4326057305
 20
6.9214574212
 11
9.713604221
 21
6.9214574212
  0
LINE
  5
6A2
100
AcDbEntity
  8
AXIS
100
AcDbLine
 62
7
  6
CONTINUOUS
 10
9.713650529
 20
6.9214574212
 11
9.8541161
 21
6.9214574212
  0
LWPOLYLINE
  5
6A3
100
AcDbEntity
  8
AXIS
100
AcDbPolyline
 62
7
  6
CONTINUOUS
 90
13
 70
0
 10
9.5731154311
 20
6.8961613701
 10
9.5655054547
 20
6.9025362355
 10
9.5567326797
 20
6.9077069074
 10
9.5473564781
 20
6.9117038021
 10
9.5377245603
 20
6.9147061464
 10
9.5280662985
 20
6.9169062394
 10
9.5180848994
 20
6.918540809
 10
9.5073381541
 20
6.919751723
 10
9.4953620542
 20
6.9206055134
 10
9.4817014552
 20
6.9211361062
 10
9.4663294604
 20
6.9213853399
 10
9.4497438439
 20
6.9214525882
 10
9.4326085897
 20
6.9214574232
  0
LINE
  5
6A4
100
AcDbEntity
  8
02___PRT_ALL_AXES
100
AcDbLine
 62
7
  6
CONTINUOUS
 10
9.3761154311
 20
6.2576070275
 11
9.3761154311
 21
6.336347185
  0
LINE
  5
6A5
100
AcDbEntity
  8
02___PRT_ALL_AXES
100
AcDbLine
 62
7
  6
CONTINUOUS
 10
9.3761154311
 20
6.401347185
 11
9.3761154311
 21
6.4800873425
  0
LINE
  5
6A6
100
AcDbEntity
  8
02___PRT_ALL_AXES
100
AcDbLine
 62
7
  6
CONTINUOUS
 10
9.3761154311
 20
6.5450873425
 11
9.3761154311
 21
6.5844574212
  0
LINE
  5
6A7
100
AcDbEntity
  8
02___PRT_ALL_AXES
100
AcDbLine
 62
7
  6
CONTINUOUS
 10
9.3761154311
 20
6.9214574212
 11
9.3761154311
 21
7.5017111812
  0
LINE
  5
6A8
100
AcDbEntity
  8
0
100
AcDbLine
 62
7
  6
CONTINUOUS
 10
10.3543359035
 20
6.9816463976
 11
10.4589422027
 21
6.9816463976
  0
LINE
  5
6A9
100
AcDbEntity
  8
0
100
AcDbLine
 62
7
  6
CONTINUOUS
 10
9.4943752736
 20
8.5032512874
 11
9.4943752736
 21
8.490505558
  0
LINE
  5
6AA
100
AcDbEntity
  8
0
100
AcDbLine
 62
7
  6
CONTINUOUS
 10
9.4943752736
 20
7.480661253
 11
9.4943752736
 21
7.4679155236
  0
LINE
  5
6AB
100
AcDbEntity
  8
0
100
AcDbLine
 62
7
  6
CONTINUOUS
 10
9.4943752736
 20
7.6047040996
 11
9.4943752736
 21
8.3664627114
  0
LWPOLYLINE
  5
6AC
100
AcDbEntity
  8
AXIS
100
AcDbPolyline
 62
7
  6
CONTINUOUS
 90
13
 70
0
 10
9.8541154311
 20
6.8961613701
 10
9.8463607429
 20
6.9026368574
 10
9.8371124846
 20
6.9080126656
 10
9.8275283924
 20
6.912000379
 10
9.8179374086
 20
6.9149125886
 10
9.8083816949
 20
6.9170371022
 10
9.7985125141
 20
6.9186182795
 10
9.7878973757
 20
6.9197914242
 10
9.7760948435
 20
6.920619828
 10
9.7626554034
 20
6.9211373023
 10
9.7474642376
 20
6.9213841851
 10
9.7309455336
 20
6.9214523568
 10
9.7136327721
 20
6.9214574215
  0
LWPOLYLINE
  5
6AD
100
AcDbEntity
  8
0
100
AcDbPolyline
 62
7
  6
CONTINUOUS
 90
6
 70
0
 10
9.3271557446
 20
8.3159358325
 10
9.3273552165
 20
8.3149156912
 10
9.3281265489
 20
8.3120426683
 10
9.3293829458
 20
8.3076544102
 10
9.3309899333
 20
8.3022383062
 10
9.3327856515
 20
8.2963520616
  0
LINE
  5
6AE
100
AcDbEntity
  8
AXIS
100
AcDbLine
 62
7
  6
CENTER
 10
9.5731154311
 20
8.5960860506
 11
9.5731154311
 21
8.5456204617
  0
LINE
  5
6AF
100
AcDbEntity
  8
AXIS
100
AcDbLine
 62
7
  6
CENTER
 10
9.5731154311
 20
7.4255463493
 11
9.5731154311
 21
7.3750807604
  0
LINE
  5
6B0
100
AcDbEntity
  8
02___PRT_ALL_AXES
100
AcDbLine
 62
7
  6
CENTER
 10
9.5731154311
 20
8.2906070275
 11
9.5731154311
 21
5.7266070275
  0
LINE
  5
6B1
100
AcDbEntity
  8
AXIS
100
AcDbLine
 62
2
  6
CENTER
 10
9.5731154311
 20
7.9855834055
 11
9.5731154311
 21
7.4255463493
  0
LINE
  5
6B2
100
AcDbEntity
  8
AXIS
100
AcDbLine
 62
7
  6
CONTINUOUS
 10
9.5731154311
 20
5.8519030787
 11
9.5731154311
 21
6.1383109764
  0
LINE
  5
6B3
100
AcDbEntity
  8
AXIS
100
AcDbLine
 62
7
  6
CONTINUOUS
 10
9.5731154311
 20
6.6097534724
 11
9.5731154311
 21
6.8961613701
  0
LINE
  5
6B4
100
AcDbEntity
  8
AXIS
100
AcDbLine
 62
2
  6
CENTER
 10
9.5731154311
 20
7.9855834055
 11
9.5731154311
 21
8.5456204617
  0
LINE
  5
6B5
100
AcDbEntity
  8
0
100
AcDbLine
 62
7
  6
CONTINUOUS
 10
9.6518555886
 20
7.4679155236
 11
9.6518555886
 21
7.4737723819
  0
LINE
  5
6B6
100
AcDbEntity
  8
0
100
AcDbLine
 62
7
  6
CONTINUOUS
 10
9.6518555886
 20
7.6047040996
 11
9.6518555886
 21
8.3664627114
  0
LINE
  5
6B7
100
AcDbEntity
  8
0
100
AcDbLine
 62
7
  6
CONTINUOUS
 10
9.6518555886
 20
8.4973944291
 11
9.6518555886
 21
8.5032512874
  0
LWPOLYLINE
  5
6B8
100
AcDbEntity
  8
0
100
AcDbPolyline
 62
7
  6
CONTINUOUS
 90
6
 70
0
 10
9.8134452106
 20
8.2963520616
 10
9.8152409306
 20
8.3022383056
 10
9.8168479182
 20
8.3076544096
 10
9.8181043157
 20
8.3120426679
 10
9.8188756487
 20
8.314915691
 10
9.8190751176
 20
8.3159358325
  0
LWPOLYLINE
  5
6B9
100
AcDbEntity
  8
0
100
AcDbPolyline
 62
9
  6
CONTINUOUS
 90
24
 70
0
 10
9.3327856515
 20
7.6748147493
 10
9.3076472367
 20
7.6929045331
 10
9.283648355
 20
7.7134431941
 10
9.2611200345
 20
7.7363399096
 10
9.2405545032
 20
7.7612216377
 10
9.2222745417
 20
7.7877106436
 10
9.2063765353
 20
7.8156331451
 10
9.1929427432
 20
7.8448337589
 10
9.1820774413
 20
7.8750914583
 10
9.1738657242
 20
7.90617041
 10
9.1683674916
 20
7.9378416786
 10
9.1656235354
 20
7.9698716172
 10
9.1656548662
 20
8.0020197064
 10
9.1684612312
 20
8.0340441053
 10
9.1740214077
 20
8.065705657
 10
9.1822950036
 20
8.0967724735
 10
9.1932223001
 20
8.1270151733
 10
9.2067148908
 20
8.1561909855
 10
9.2226619296
 20
8.1840716633
 10
9.2409814756
 20
8.2105088653
 10
9.2615829182
 20
8.2353389366
 10
9.2841340878
 20
8.2581756161
 10
9.3080821621
 20
8.2786030906
 10
9.3327856515
 20
8.2963520616
  0
LINE
  5
6BA
100
AcDbEntity
  8
02___PRT_ALL_AXES
100
AcDbLine
 62
7
  6
CONTINUOUS
 10
9.7701154311
 20
6.2576070275
 11
9.7701154311
 21
6.336347185
  0
LINE
  5
6BB
100
AcDbEntity
  8
02___PRT_ALL_AXES
100
AcDbLine
 62
7
  6
CONTINUOUS
 10
9.7701154311
 20
6.401347185
 11
9.7701154311
 21
6.4800873425
  0
LINE
  5
6BC
100
AcDbEntity
  8
02___PRT_ALL_AXES
100
AcDbLine
 62
7
  6
CONTINUOUS
 10
9.7701154311
 20
6.5450873425
 11
9.7701154311
 21
6.5844574212
  0
LINE
  5
6BD
100
AcDbEntity
  8
02___PRT_ALL_AXES
100
AcDbLine
 62
7
  6
CONTINUOUS
 10
9.7701154311
 20
6.9214574212
 11
9.7701154311
 21
7.4737723819
  0
LINE
  5
6BE
100
AcDbEntity
  8
AXIS
100
AcDbLine
 62
7
  6
CONTINUOUS
 10
9.8541154311
 20
5.8266070275
 11
9.8541154311
 21
6.1627532884
  0
LINE
  5
6BF
100
AcDbEntity
  8
AXIS
100
AcDbLine
 62
7
  6
CONTINUOUS
 10
9.8541154311
 20
6.5844574212
 11
9.8541154311
 21
6.9214574283
  0
LINE
  5
6C0
100
AcDbEntity
  8
0
100
AcDbLine
 62
7
  6
CONTINUOUS
 10
9.5731154311
 20
7.4737723819
 11
10.3543359035
 21
7.4737723819
  0
LWPOLYLINE
  5
6C1
100
AcDbEntity
  8
0
100
AcDbPolyline
 62
7
  6
CONTINUOUS
 90
6
 70
0
 10
9.8190751176
 20
7.6552309785
 10
9.8188756457
 20
7.6562511198
 10
9.8181043132
 20
7.6591241426
 10
9.8168479164
 20
7.6635124008
 10
9.8152409289
 20
7.6689285048
 10
9.8134452106
 20
7.6748147493
  0
LINE
  5
6C2
100
AcDbEntity
  8
AXIS
100
AcDbLine
 62
7
  6
CONTINUOUS
 10
9.9131154311
 20
6.1636070275
 11
9.9131154311
 21
6.2576070275
  0
LINE
  5
6C3
100
AcDbEntity
  8
02___PRT_ALL_AXES
100
AcDbLine
 62
7
  6
CONTINUOUS
 10
9.9791154311
 20
6.336347185
 11
9.9791154311
 21
6.401347185
  0
LINE
  5
6C4
100
AcDbEntity
  8
02___PRT_ALL_AXES
100
AcDbLine
 62
7
  6
CONTINUOUS
 10
9.9791154311
 20
6.4800873425
 11
9.9791154311
 21
6.5450873425
  0
LINE
  5
6C5
100
AcDbEntity
  8
0
100
AcDbLine
 62
7
  6
CONTINUOUS
 10
9.701319295
 20
7.62167948
 11
9.6518555886
 21
7.6208160878
  0
LINE
  5
6C6
100
AcDbEntity
  8
0
100
AcDbLine
 62
7
  6
CONTINUOUS
 10
9.6518555886
 20
7.6523121508
 11
9.8190751176
 21
7.6552309785
  0
LINE
  5
6C7
100
AcDbEntity
  8
0
100
AcDbLine
 62
7
  6
CONTINUOUS
 10
9.4449115672
 20
7.62167948
 11
9.4943752736
 21
7.6208160878
  0
LINE
  5
6C8
100
AcDbEntity
  8
0
100
AcDbLine
 62
7
  6
CONTINUOUS
 10
9.3271557462
 20
7.6552309785
 11
9.4943752736
 21
7.6523121508
  0
LINE
  5
6C9
100
AcDbEntity
  8
0
100
AcDbLine
 62
9
  6
CONTINUOUS
 10
9.6518555886
 20
7.671994192
 11
9.8134452106
 21
7.6748147493
  0
LINE
  5
6CA
100
AcDbEntity
  8
0
100
AcDbLine
 62
9
  6
CONTINUOUS
 10
9.3327856515
 20
7.6748147493
 11
9.4943752736
 21
7.671994192
  0
LINE
  5
6CB
100
AcDbEntity
  8
02___PRT_ALL_AXES
100
AcDbLine
 62
7
  6
CONTINUOUS
 10
9.4943752736
 20
7.7966070275
 11
9.6518555886
 21
7.7966070275
  0
LINE
  5
6CC
100
AcDbEntity
  8
0
100
AcDbLine
 62
9
  6
CONTINUOUS
 10
10.3346508642
 20
7.4737723819
 11
10.3346508642
 21
8.4973944291
  0
LINE
  5
6CD
100
AcDbEntity
  8
AXIS
100
AcDbLine
 62
2
  6
CENTER
 10
9.5731154311
 20
7.9855834055
 11
9.0130783749
 21
7.9855834055
  0
LINE
  5
6CE
100
AcDbEntity
  8
AXIS
100
AcDbLine
 62
2
  6
CENTER
 10
9.5731154311
 20
7.9855834055
 11
10.1331524873
 21
7.9855834055
  0
LINE
  5
6CF
100
AcDbEntity
  8
0
100
AcDbLine
 62
7
  6
CONTINUOUS
 10
10.3543359035
 20
8.9895197386
 11
10.3543359035
 21
6.9816470724
  0
LINE
  5
6D0
100
AcDbEntity
  8
0
100
AcDbLine
 62
3
  6
CONTINUOUS
 10
10.4589422027
 20
8.9895197386
 11
10.4589422027
 21
6.9816470724
  0
LINE
  5
6D1
100
AcDbEntity
  8
02___PRT_ALL_AXES
100
AcDbLine
 62
7
  6
CONTINUOUS
 10
9.4943752736
 20
8.1512070275
 11
9.6518555886
 21
8.1512070275
  0
LINE
  5
6D2
100
AcDbEntity
  8
02___PRT_ALL_AXES
100
AcDbLine
 62
7
  6
CONTINUOUS
 10
9.4943752736
 20
8.1906070275
 11
9.6518555886
 21
8.1906070275
  0
LWPOLYLINE
  5
6D3
100
AcDbEntity
  8
0
100
AcDbPolyline
 62
9
  6
CONTINUOUS
 90
24
 70
0
 10
9.8134452106
 20
8.2963520616
 10
9.8385836255
 20
8.2782622779
 10
9.8625825072
 20
8.2577236169
 10
9.8851108276
 20
8.2348269014
 10
9.905676359
 20
8.2099451733
 10
9.9239563205
 20
8.1834561674
 10
9.9398543268
 20
8.1555336659
 10
9.953288119
 20
8.1263330521
 10
9.9641534208
 20
8.0960753527
 10
9.9723651379
 20
8.0649964009
 10
9.9778633705
 20
8.0333251323
 10
9.9806073267
 20
8.0012951938
 10
9.980575996
 20
7.9691471046
 10
9.977769631
 20
7.9371227057
 10
9.9722094545
 20
7.905461154
 10
9.9639358585
 20
7.8743943375
 10
9.953008562
 20
7.8441516376
 10
9.9395159714
 20
7.8149758255
 10
9.9235689325
 20
7.7870951477
 10
9.9052493865
 20
7.7606579457
 10
9.884647944
 20
7.7358278744
 10
9.8620967743
 20
7.7129911948
 10
9.8381487001
 20
7.6925637204
 10
9.8134452106
 20
7.6748147493
  0
LINE
  5
6D4
100
AcDbEntity
  8
0
100
AcDbLine
 62
9
  6
CONTINUOUS
 10
9.4943752736
 20
8.299172619
 11
9.3327856515
 21
8.2963520616
  0
LINE
  5
6D5
100
AcDbEntity
  8
0
100
AcDbLine
 62
7
  6
CONTINUOUS
 10
9.4943752736
 20
8.3188546602
 11
9.3271557446
 21
8.3159358325
  0
LINE
  5
6D6
100
AcDbEntity
  8
0
100
AcDbLine
 62
9
  6
CONTINUOUS
 10
9.8134452106
 20
8.2963520616
 11
9.6518555886
 21
8.299172619
  0
LINE
  5
6D7
100
AcDbEntity
  8
0
100
AcDbLine
 62
7
  6
CONTINUOUS
 10
9.819075116
 20
8.3159358325
 11
9.6518555886
 21
8.3188546602
  0
LINE
  5
6D8
100
AcDbEntity
  8
0
100
AcDbLine
 62
7
  6
CONTINUOUS
 10
9.4449115672
 20
8.349487331
 11
9.4943752736
 21
8.3503507232
  0
LINE
  5
6D9
100
AcDbEntity
  8
0
100
AcDbLine
 62
7
  6
CONTINUOUS
 10
9.701319295
 20
8.349487331
 11
9.6518555886
 21
8.3503507232
  0
LINE
  5
6DA
100
AcDbEntity
  8
0
100
AcDbLine
 62
7
  6
CONTINUOUS
 10
9.5731154311
 20
8.4973944291
 11
10.3543359035
 21
8.4973944291
  0
LINE
  5
6DB
100
AcDbEntity
  8
0
100
AcDbLine
 62
7
  6
CONTINUOUS
 10
10.3543359035
 20
8.9895204134
 11
10.4589422027
 21
8.9895204134
  0
LINE
  5
6DC
100
AcDbEntity
  8
0
100
AcDbLine
 62
7
  6
CONTINUOUS
 10
1.8489219482
 20
3.9371065683
 11
1.8529327364
 21
3.7073286643
  0
LINE
  5
6DD
100
AcDbEntity
  8
0
100
AcDbLine
 62
9
  6
CONTINUOUS
 10
1.8609743966
 20
4.3353532891
 11
1.8569067649
 21
4.094586886
  0
LINE
  5
6DE
100
AcDbEntity
  8
0
100
AcDbLine
 62
7
  6
CONTINUOUS
 10
1.8529327364
 20
4.3243647872
 11
1.8489219482
 21
4.0945868833
  0
LINE
  5
6DF
100
AcDbEntity
  8
0
100
AcDbLine
 62
9
  6
CONTINUOUS
 10
1.8569067659
 20
3.9371065662
 11
1.8609743966
 21
3.6963401624
  0
LINE
  5
6E0
100
AcDbEntity
  8
02___PRT_ALL_AXES
100
AcDbLine
 62
7
  6
CONTINUOUS
 10
1.9718861163
 20
4.3548910905
 11
1.9718861163
 21
4.4293671982
  0
LINE
  5
6E1
100
AcDbEntity
  8
0
100
AcDbLine
 62
7
  6
CONTINUOUS
 10
1.9646154072
 20
4.3539818691
 11
1.9633669424
 21
4.3682518867
  0
LINE
  5
6E2
100
AcDbEntity
  8
AXIS
100
AcDbLine
 62
7
  6
CONTINUOUS
 10
1.9823861163
 20
3.6697295285
 11
1.9823861163
 21
3.6754899328
  0
LINE
  5
6E3
100
AcDbEntity
  8
02___PRT_ALL_AXES
100
AcDbLine
 62
7
  6
CONTINUOUS
 10
2.0403861163
 20
3.5627671982
 11
2.0403861163
 21
3.6656262533
  0
LINE
  5
6E4
100
AcDbEntity
  8
02___PRT_ALL_AXES
100
AcDbLine
 62
7
  6
CONTINUOUS
 10
2.0403861163
 20
3.9371065683
 11
2.0403861163
 21
4.0945868833
  0
LINE
  5
6E5
100
AcDbEntity
  8
0
100
AcDbLine
 62
7
  6
CONTINUOUS
 10
1.9633669424
 20
3.6634415649
 11
1.9646154072
 21
3.6777115825
  0
LINE
  5
6E6
100
AcDbEntity
  8
02___PRT_ALL_AXES
100
AcDbLine
 62
7
  6
CONTINUOUS
 10
1.9718861163
 20
4.4293671982
 11
1.9915861163
 21
4.4490671982
  0
LINE
  5
6E7
100
AcDbEntity
  8
0
100
AcDbLine
 62
7
  6
CONTINUOUS
 10
2.321286466
 20
3.5847893645
 11
2.3224158595
 21
3.5718803377
  0
LINE
  5
6E8
100
AcDbEntity
  8
02___PRT_ALL_AXES
100
AcDbLine
 62
7
  6
CONTINUOUS
 10
2.2373861163
 20
3.5627671982
 11
2.2373861163
 21
3.6178987142
  0
LINE
  5
6E9
100
AcDbEntity
  8
02___PRT_ALL_AXES
100
AcDbLine
 62
7
  6
CONTINUOUS
 10
2.2373861163
 20
3.9371065683
 11
2.2373861163
 21
3.9382793733
  0
LINE
  5
6EA
100
AcDbEntity
  8
02___PRT_ALL_AXES
100
AcDbLine
 62
7
  6
CONTINUOUS
 10
2.2373861163
 20
4.0934140783
 11
2.2373861163
 21
4.0945868833
  0
LINE
  5
6EB
100
AcDbEntity
  8
0
100
AcDbLine
 62
7
  6
CONTINUOUS
 10
2.3224158595
 20
4.4598131138
 11
2.321286466
 21
4.4469040871
  0
LINE
  5
6EC
100
AcDbEntity
  8
02___PRT_ALL_AXES
100
AcDbLine
 62
7
  6
CONTINUOUS
 10
2.0600861163
 20
3.5430671982
 11
2.0403861163
 21
3.5627671982
  0
LINE
  5
6ED
100
AcDbEntity
  8
0
100
AcDbLine
 62
7
  6
CONTINUOUS
 10
2.398728636
 20
4.4746725019
 11
2.398728636
 21
4.4564703578
  0
LINE
  5
6EE
100
AcDbEntity
  8
0
100
AcDbLine
 62
7
  6
CONTINUOUS
 10
2.398728636
 20
3.5752230938
 11
2.398728636
 21
3.5570209497
  0
LINE
  5
6EF
100
AcDbEntity
  8
AXIS
100
AcDbLine
 62
7
  6
CONTINUOUS
 10
2.3104782571
 20
4.0158467258
 11
2.4727136828
 21
4.2968467258
  0
LWPOLYLINE
  5
6F0
100
AcDbEntity
  8
0
100
AcDbPolyline
 62
7
  6
CONTINUOUS
 90
7
 70
0
 10
2.321286466
 20
4.4469040871
 10
2.2905125744
 20
4.4357825581
 10
2.2596841001
 20
4.4235234769
 10
2.2289504063
 20
4.4101135891
 10
2.1984705128
 20
4.3955505455
 10
2.1683926918
 20
4.3798335736
 10
2.1388861163
 20
4.362979539
  0
LINE
  5
6F1
100
AcDbEntity
  8
AXIS
100
AcDbLine
 62
7
  6
CONTINUOUS
 10
1.8609743449
 20
4.3353532717
 11
1.9633669608
 21
4.3682518923
  0
LINE
  5
6F2
100
AcDbEntity
  8
AXIS
100
AcDbLine
 62
7
  6
CONTINUOUS
 10
2.4727136828
 20
3.7348467258
 11
2.3104782571
 21
4.0158467258
  0
LINE
  5
6F3
100
AcDbEntity
  8
AXIS
100
AcDbLine
 62
7
  6
CONTINUOUS
 10
2.6149491084
 20
4.2968467258
 11
2.6149491084
 21
4.3552579808
  0
LINE
  5
6F4
100
AcDbEntity
  8
02___PRT_ALL_AXES
100
AcDbLine
 62
7
  6
CENTER
 10
2.6349491084
 20
4.0158467258
 11
2.6349491084
 21
3.5098467258
  0
LINE
  5
6F5
100
AcDbEntity
  8
02___PRT_ALL_AXES
100
AcDbLine
 62
7
  6
CENTER
 10
2.6349491084
 20
4.0158467258
 11
2.6349491084
 21
4.5218467258
  0
LINE
  5
6F6
100
AcDbEntity
  8
AXIS
100
AcDbLine
 62
7
  6
CONTINUOUS
 10
2.6549491084
 20
4.3552579808
 11
2.6549491084
 21
4.2968467258
  0
LWPOLYLINE
  5
6F7
100
AcDbEntity
  8
0
100
AcDbPolyline
 62
7
  6
CONTINUOUS
 90
7
 70
0
 10
2.398728636
 20
3.5752230938
 10
2.3994151989
 20
3.5766201825
 10
2.401392074
 20
3.5777015472
 10
2.4044356351
 20
3.5783848159
 10
2.4084789697
 20
3.5786363249
 10
2.4133064978
 20
3.5783875277
 10
2.4184136753
 20
3.5776454173
  0
LWPOLYLINE
  5
6F8
100
AcDbEntity
  8
0
100
AcDbPolyline
 62
7
  6
CONTINUOUS
 90
6
 70
0
 10
2.1388861163
 20
3.6687139126
 10
2.16840348
 20
3.6518539851
 10
2.198502518
 20
3.6361269164
 10
2.229001908
 20
3.6215563494
 10
2.2597438936
 20
3.6081450689
 10
2.2905358399
 20
3.5959024854
  0
LWPOLYLINE
  5
6F9
100
AcDbEntity
  8
0
100
AcDbPolyline
 62
7
  6
CONTINUOUS
 90
7
 70
0
 10
3.0286498958
 20
4.5227765872
 10
3.0279712898
 20
4.5214414085
 10
3.0259559174
 20
4.5201062052
 10
3.02281219
 20
4.518911479
 10
3.0187266912
 20
4.517931323
 10
3.0139468919
 20
4.5172477616
 10
3.0089648564
 20
4.516931882
  0
LINE
  5
6FA
100
AcDbEntity
  8
02___PRT_ALL_AXES
100
AcDbLine
 62
7
  6
CONTINUOUS
 10
2.2176861163
 20
3.5430671982
 11
2.2373861163
 21
3.5627671982
  0
LINE
  5
6FB
100
AcDbEntity
  8
AXIS
100
AcDbLine
 62
7
  6
CONTINUOUS
 10
2.9594199597
 20
4.0158467258
 11
2.797184534
 21
3.7348467258
  0
LINE
  5
6FC
100
AcDbEntity
  8
0
100
AcDbLine
 62
3
  6
CONTINUOUS
 10
5.3514845415
 20
3.1300199541
 11
3.2316813919
 21
3.1300199541
  0
LINE
  5
6FD
100
AcDbEntity
  8
AXIS
100
AcDbLine
 62
7
  6
CONTINUOUS
 10
1.8609743449
 20
3.6963401798
 11
1.9633669608
 21
3.6634415593
  0
LINE
  5
6FE
100
AcDbEntity
  8
0
100
AcDbLine
 62
7
  6
CONTINUOUS
 10
2.2905358399
 20
3.5959024854
 11
2.321286466
 21
3.5847893645
  0
LINE
  5
6FF
100
AcDbEntity
  8
0
100
AcDbLine
 62
7
  6
CONTINUOUS
 10
3.0286498958
 20
4.5386739348
 11
3.0286498958
 21
4.5227765872
  0
LINE
  5
700
100
AcDbEntity
  8
0
100
AcDbLine
 62
7
  6
CONTINUOUS
 10
3.0286498958
 20
3.5089168643
 11
3.0286498958
 21
3.4930195167
  0
LINE
  5
701
100
AcDbEntity
  8
0
100
AcDbLine
 62
7
  6
CONTINUOUS
 10
3.1073900533
 20
4.539468773
 11
3.1073900533
 21
4.0945868833
  0
LINE
  5
702
100
AcDbEntity
  8
0
100
AcDbLine
 62
3
  6
CONTINUOUS
 10
3.1073900533
 20
4.0945868833
 11
3.1073900533
 21
3.9371065683
  0
LINE
  5
703
100
AcDbEntity
  8
0
100
AcDbLine
 62
7
  6
CONTINUOUS
 10
3.1073900533
 20
3.9371065683
 11
3.1073900533
 21
3.9111519982
  0
LINE
  5
704
100
AcDbEntity
  8
0
100
AcDbLine
 62
3
  6
CONTINUOUS
 10
3.1073900533
 20
3.9111519982
 11
3.1073900533
 21
3.2543112927
  0
LINE
  5
705
100
AcDbEntity
  8
0
100
AcDbLine
 62
7
  6
CONTINUOUS
 10
5.3514845415
 20
3.2346262533
 11
3.2316813919
 21
3.2346262533
  0
LINE
  5
706
100
AcDbEntity
  8
0
100
AcDbLine
 62
9
  6
CONTINUOUS
 10
3.1073900533
 20
3.2543112927
 11
3.2119963525
 21
3.2543112927
  0
LINE
  5
707
100
AcDbEntity
  8
AXIS
100
AcDbLine
 62
7
  6
CONTINUOUS
 10
2.3224158476
 20
3.5718803402
 11
2.398728636
 21
3.5570209497
  0
LINE
  5
708
100
AcDbEntity
  8
AXIS
100
AcDbLine
 62
7
  6
CONTINUOUS
 10
1.997575482
 20
3.6656262533
 11
1.982068917
 21
3.6698202831
  0
LINE
  5
709
100
AcDbEntity
  8
02___PRT_ALL_AXES
100
AcDbLine
 62
7
  6
CONTINUOUS
 10
2.2970927237
 20
4.4381605908
 11
2.2861861163
 21
4.4490671982
  0
LINE
  5
70A
100
AcDbEntity
  8
0
100
AcDbLine
 62
7
  6
CONTINUOUS
 10
3.2119963525
 20
4.5276577494
 11
3.2119963525
 21
3.2543112927
  0
LINE
  5
70B
100
AcDbEntity
  8
0
100
AcDbLine
 62
7
  6
CONTINUOUS
 10
3.2255002895
 20
3.6083664108
 11
3.2255002895
 21
3.7874627811
  0
LINE
  5
70C
100
AcDbEntity
  8
0
100
AcDbLine
 62
7
  6
CONTINUOUS
 10
3.2255002895
 20
3.8179201748
 11
3.2255002895
 21
3.9371065683
  0
LINE
  5
70D
100
AcDbEntity
  8
0
100
AcDbLine
 62
7
  6
CONTINUOUS
 10
3.2255002895
 20
4.0945868833
 11
3.2255002895
 21
4.2137732768
  0
LINE
  5
70E
100
AcDbEntity
  8
0
100
AcDbLine
 62
7
  6
CONTINUOUS
 10
3.2255002895
 20
4.2442306705
 11
3.2255002895
 21
4.4233270407
  0
LINE
  5
70F
100
AcDbEntity
  8
0
100
AcDbLine
 62
9
  6
CONTINUOUS
 10
3.2316813919
 20
3.1300199541
 11
3.2316813919
 21
3.2346262533
  0
LWPOLYLINE
  5
710
100
AcDbEntity
  8
0
100
AcDbPolyline
 62
7
  6
CONTINUOUS
 90
9
 70
0
 10
3.2255002895
 20
3.7874627811
 10
3.2260007683
 20
3.7937499572
 10
3.2272925412
 20
3.7993886595
 10
3.2291659298
 20
3.8043718292
 10
3.2315379282
 20
3.8087432449
 10
3.2344035028
 20
3.8124827857
 10
3.2377150372
 20
3.8154041287
 10
3.2413678902
 20
3.817277416
 10
3.2451853289
 20
3.8179201748
  0
LWPOLYLINE
  5
711
100
AcDbEntity
  8
0
100
AcDbPolyline
 62
7
  6
CONTINUOUS
 90
4
 70
0
 10
2.4184136753
 20
3.5776454173
 10
2.6130144135
 20
3.5462869645
 10
2.8106645433
 20
3.5252397563
 10
3.0089648564
 20
3.5147615696
  0
LINE
  5
712
100
AcDbEntity
  8
AXIS
100
AcDbLine
 62
7
  6
CONTINUOUS
 10
2.797184534
 20
4.2968467258
 11
2.9594199597
 21
4.0158467258
  0
LINE
  5
713
100
AcDbEntity
  8
0
100
AcDbLine
 62
9
  6
CONTINUOUS
 10
3.2605801241
 20
4.2618064107
 11
3.2634989518
 21
4.0945868833
  0
LINE
  5
714
100
AcDbEntity
  8
0
100
AcDbLine
 62
7
  6
CONTINUOUS
 10
3.283180993
 20
4.0945868833
 11
3.2774368254
 21
4.4236700284
  0
LINE
  5
715
100
AcDbEntity
  8
0
100
AcDbLine
 62
9
  6
CONTINUOUS
 10
3.2607587885
 20
4.2618064107
 11
3.2577547743
 21
4.4430120801
  0
LINE
  5
716
100
AcDbEntity
  8
0
100
AcDbLine
 62
9
  6
CONTINUOUS
 10
3.2451853289
 20
3.5886813715
 11
3.2451853289
 21
3.8179201748
  0
LINE
  5
717
100
AcDbEntity
  8
0
100
AcDbLine
 62
9
  6
CONTINUOUS
 10
3.2451853289
 20
4.2137732768
 11
3.2451853289
 21
4.4430120801
  0
LINE
  5
718
100
AcDbEntity
  8
0
100
AcDbLine
 62
9
  6
CONTINUOUS
 10
3.2471203793
 20
3.1300199541
 11
3.2471203793
 21
3.2346262533
  0
LINE
  5
719
100
AcDbEntity
  8
0
100
AcDbLine
 62
9
  6
CONTINUOUS
 10
3.2577547743
 20
3.5886813715
 11
3.2607587885
 21
3.7698870415
  0
LINE
  5
71A
100
AcDbEntity
  8
0
100
AcDbLine
 62
9
  6
CONTINUOUS
 10
3.2634989518
 20
3.9371065683
 11
3.2605801241
 21
3.7698870415
  0
LINE
  5
71B
100
AcDbEntity
  8
0
100
AcDbLine
 62
7
  6
CONTINUOUS
 10
3.2774368254
 20
3.6080234232
 11
3.283180993
 21
3.9371065683
  0
LINE
  5
71C
100
AcDbEntity
  8
02___PRT_ALL_AXES
100
AcDbLine
 62
7
  6
CONTINUOUS
 10
2.2176861163
 20
3.5430671982
 11
2.0600861163
 21
3.5430671982
  0
LINE
  5
71D
100
AcDbEntity
  8
02___PRT_ALL_AXES
100
AcDbLine
 62
7
  6
CONTINUOUS
 10
2.2373861163
 20
3.5627671982
 11
2.0403861163
 21
3.5627671982
  0
LINE
  5
71E
100
AcDbEntity
  8
0
100
AcDbLine
 62
7
  6
CONTINUOUS
 10
3.2451853289
 20
3.5886813715
 11
3.2577551116
 21
3.5886813715
  0
LINE
  5
71F
100
AcDbEntity
  8
AXIS
100
AcDbLine
 62
7
  6
CONTINUOUS
 10
3.0286498958
 20
3.4930180806
 11
3.1073900533
 21
3.4922246785
  0
LWPOLYLINE
  5
720
100
AcDbEntity
  8
0
100
AcDbPolyline
 62
7
  6
CONTINUOUS
 90
7
 70
0
 10
3.0089648564
 20
3.5147615696
 10
3.0139500129
 20
3.5144453728
 10
3.0187208203
 20
3.5137632354
 10
3.0228049239
 20
3.5127841641
 10
3.0259511389
 20
3.5115895821
 10
3.0279713278
 20
3.5102520051
 10
3.0286498958
 20
3.5089168643
  0
LWPOLYLINE
  5
721
100
AcDbEntity
  8
0
100
AcDbPolyline
 62
7
  6
CONTINUOUS
 90
6
 70
0
 10
1.9646154072
 20
3.6777115825
 10
1.9978762355
 20
3.6735533967
 10
2.0328129593
 20
3.6704470464
 10
2.068531878
 20
3.6685782562
 10
2.1041905105
 20
3.6680151492
 10
2.1388861163
 20
3.6687139126
  0
LINE
  5
722
100
AcDbEntity
  8
0
100
AcDbLine
 62
7
  6
CONTINUOUS
 10
3.2119963525
 20
3.6300199541
 11
3.2255002895
 21
3.6300199541
  0
LINE
  5
723
100
AcDbEntity
  8
AXIS
100
AcDbLine
 62
7
  6
CONTINUOUS
 10
1.997575482
 20
3.6656262533
 11
2.1442918075
 21
3.6656262533
  0
LINE
  5
724
100
AcDbEntity
  8
0
100
AcDbLine
 62
9
  6
CONTINUOUS
 10
3.5992570687
 20
3.1300199541
 11
3.5992570687
 21
3.2346262533
  0
LWPOLYLINE
  5
725
100
AcDbEntity
  8
0
100
AcDbPolyline
 62
7
  6
CONTINUOUS
 90
6
 70
0
 10
3.2605801241
 20
3.7698870393
 10
3.2668489506
 20
3.7700865112
 10
3.2723719476
 20
3.7708578436
 10
3.2766910826
 20
3.7721142405
 10
3.2794186383
 20
3.773721228
 10
3.2803604357
 20
3.7755169462
  0
LINE
  5
726
100
AcDbEntity
  8
AXIS
100
AcDbLine
 62
7
  6
CONTINUOUS
 10
2.797184534
 20
3.7348467258
 11
2.4727136828
 21
3.7348467258
  0
LINE
  5
727
100
AcDbEntity
  8
0
100
AcDbLine
 62
7
  6
CONTINUOUS
 10
3.2451853289
 20
3.7698870393
 11
3.2605801241
 21
3.7698870415
  0
LINE
  5
728
100
AcDbEntity
  8
0
100
AcDbLine
 62
7
  6
CONTINUOUS
 10
3.2451853289
 20
3.8179201748
 11
3.2255002895
 21
3.8179201748
  0
LWPOLYLINE
  5
729
100
AcDbEntity
  8
0
100
AcDbPolyline
 62
7
  6
CONTINUOUS
 90
6
 70
0
 10
3.2451853289
 20
3.7698870393
 10
3.2389688911
 20
3.7701889521
 10
3.2334437643
 20
3.7710536642
 10
3.2291362612
 20
3.77238248
 10
3.2264214817
 20
3.7740378952
 10
3.2255002895
 20
3.7758604975
  0
LWPOLYLINE
  5
72A
100
AcDbEntity
  8
0
100
AcDbPolyline
 62
7
  6
CONTINUOUS
 90
6
 70
0
 10
3.2803604357
 20
4.2561765053
 10
3.2794186384
 20
4.2579722253
 10
3.276691083
 20
4.2595792129
 10
3.2723719481
 20
4.2608356104
 10
3.2668489511
 20
4.2616069434
 10
3.2605801241
 20
4.2618064123
  0
LINE
  5
72B
100
AcDbEntity
  8
0
100
AcDbLine
 62
7
  6
CONTINUOUS
 10
3.2119963525
 20
3.8876428619
 11
3.2255002895
 21
3.8876428619
  0
LINE
  5
72C
100
AcDbEntity
  8
0
100
AcDbLine
 62
7
  6
CONTINUOUS
 10
3.283180993
 20
3.9371065683
 11
3.2119963525
 21
3.9371065683
  0
LINE
  5
72D
100
AcDbEntity
  8
0
100
AcDbLine
 62
7
  6
CONTINUOUS
 10
3.1073900533
 20
3.9371065683
 11
3.0322569724
 21
3.9371065683
  0
LINE
  5
72E
100
AcDbEntity
  8
0
100
AcDbLine
 62
7
  6
CONTINUOUS
 10
2.2376412444
 20
3.9371065683
 11
1.8489219482
 21
3.9371065683
  0
LINE
  5
72F
100
AcDbEntity
  8
02___PRT_ALL_AXES
100
AcDbLine
 62
7
  6
CENTER
 10
2.6349491084
 20
4.0158467258
 11
2.1289491084
 21
4.0158467258
  0
LINE
  5
730
100
AcDbEntity
  8
02___PRT_ALL_AXES
100
AcDbLine
 62
7
  6
CENTER
 10
2.6349491084
 20
4.0158467258
 11
3.1409491084
 21
4.0158467258
  0
LINE
  5
731
100
AcDbEntity
  8
0
100
AcDbLine
 62
9
  6
CONTINUOUS
 10
3.1073900533
 20
4.0158467258
 11
3.2119963525
 21
4.0158467258
  0
LINE
  5
732
100
AcDbEntity
  8
0
100
AcDbLine
 62
7
  6
CONTINUOUS
 10
1.8489219482
 20
4.0945868833
 11
2.2376412444
 21
4.0945868833
  0
LINE
  5
733
100
AcDbEntity
  8
0
100
AcDbLine
 62
7
  6
CONTINUOUS
 10
3.0322569724
 20
4.0945868833
 11
3.1073900533
 21
4.0945868833
  0
LINE
  5
734
100
AcDbEntity
  8
0
100
AcDbLine
 62
7
  6
CONTINUOUS
 10
3.2119963525
 20
4.0945868833
 11
3.283180993
 21
4.0945868833
  0
LINE
  5
735
100
AcDbEntity
  8
0
100
AcDbLine
 62
7
  6
CONTINUOUS
 10
3.2119963525
 20
4.1440505897
 11
3.2255002895
 21
4.1440505897
  0
LINE
  5
736
100
AcDbEntity
  8
0
100
AcDbLine
 62
7
  6
CONTINUOUS
 10
3.2451853289
 20
4.2137732768
 11
3.2255002895
 21
4.2137732768
  0
LWPOLYLINE
  5
737
100
AcDbEntity
  8
0
100
AcDbPolyline
 62
7
  6
CONTINUOUS
 90
9
 70
0
 10
3.2451853289
 20
4.2137732768
 10
3.2413671601
 20
4.2144162833
 10
3.2377129005
 20
4.2162908075
 10
3.2344021307
 20
4.2192121564
 10
3.2315371711
 20
4.2229513842
 10
3.2291651274
 20
4.2273233841
 10
3.2272919547
 20
4.2323067293
 10
3.2260005603
 20
4.2379448126
 10
3.2255002895
 20
4.2442306705
  0
LWPOLYLINE
  5
738
100
AcDbEntity
  8
0
100
AcDbPolyline
 62
7
  6
CONTINUOUS
 90
6
 70
0
 10
3.2451853289
 20
4.2618064123
 10
3.2389688911
 20
4.2615044994
 10
3.2334437643
 20
4.2606397874
 10
3.2291362612
 20
4.2593109716
 10
3.2264214817
 20
4.2576555564
 10
3.2255002895
 20
4.255832954
  0
LINE
  5
739
100
AcDbEntity
  8
0
100
AcDbLine
 62
7
  6
CONTINUOUS
 10
3.2451853289
 20
4.2618064123
 11
3.2605801241
 21
4.2618064107
  0
LINE
  5
73A
100
AcDbEntity
  8
AXIS
100
AcDbLine
 62
7
  6
CONTINUOUS
 10
2.4727136828
 20
4.2968467258
 11
2.797184534
 21
4.2968467258
  0
LWPOLYLINE
  5
73B
100
AcDbEntity
  8
0
100
AcDbPolyline
 62
7
  6
CONTINUOUS
 90
5
 70
0
 10
2.1388861163
 20
4.362979539
 10
2.1041965356
 20
4.3636782879
 10
2.0685018388
 20
4.3631141736
 10
2.032745625
 20
4.3612416413
 10
1.9978428382
 20
4.3581358796
  0
LINE
  5
73C
100
AcDbEntity
  8
0
100
AcDbLine
 62
7
  6
CONTINUOUS
 10
3.2119963525
 20
4.4016734974
 11
3.2255002895
 21
4.4016734974
  0
LINE
  5
73D
100
AcDbEntity
  8
02___PRT_ALL_AXES
100
AcDbLine
 62
7
  6
CONTINUOUS
 10
1.9718861163
 20
4.4293671982
 11
2.2743795745
 21
4.4293671982
  0
LINE
  5
73E
100
AcDbEntity
  8
0
100
AcDbLine
 62
7
  6
CONTINUOUS
 10
3.2451853289
 20
4.4430120801
 11
3.2577551116
 21
4.4430120801
  0
LINE
  5
73F
100
AcDbEntity
  8
02___PRT_ALL_AXES
100
AcDbLine
 62
7
  6
CONTINUOUS
 10
1.9915861163
 20
4.4490671982
 11
2.2861861163
 21
4.4490671982
  0
LINE
  5
740
100
AcDbEntity
  8
0
100
AcDbLine
 62
7
  6
CONTINUOUS
 10
1.9978428382
 20
4.3581358796
 11
1.9646154072
 21
4.3539818691
  0
LWPOLYLINE
  5
741
100
AcDbEntity
  8
0
100
AcDbPolyline
 62
7
  6
CONTINUOUS
 90
4
 70
0
 10
3.0089648564
 20
4.516931882
 10
2.8106478409
 20
4.5064523669
 10
2.6130065777
 20
4.4854054394
 10
2.4184136753
 20
4.4540480343
  0
LINE
  5
742
100
AcDbEntity
  8
AXIS
100
AcDbLine
 62
7
  6
CONTINUOUS
 10
3.0286498958
 20
4.5386753709
 11
3.1073900533
 21
4.539468773
  0
LINE
  5
743
100
AcDbEntity
  8
0
100
AcDbLine
 62
7
  6
CONTINUOUS
 10
3.1073900533
 20
4.5276577494
 11
3.2119963525
 21
4.5276577494
  0
LINE
  5
744
100
AcDbEntity
  8
AXIS
100
AcDbLine
 62
7
  6
CONTINUOUS
 10
2.3224158476
 20
4.4598131114
 11
2.398728636
 21
4.4746725019
  0
LWPOLYLINE
  5
745
100
AcDbEntity
  8
0
100
AcDbPolyline
 62
7
  6
CONTINUOUS
 90
7
 70
0
 10
2.4184136753
 20
4.4540480343
 10
2.4134059139
 20
4.4533159724
 10
2.4086908919
 20
4.4530572034
 10
2.4046311331
 20
4.4532831479
 10
2.401479733
 20
4.4539617602
 10
2.3994284352
 20
4.4550611012
 10
2.398728636
 20
4.4564703578
  0
LINE
  5
746
100
AcDbEntity
  8
0
100
AcDbLine
 62
7
  6
CONTINUOUS
 10
5.3514845415
 20
3.2346262533
 11
5.3514845415
 21
3.1300199541
  0
CIRCLE
  5
747
100
AcDbEntity
  8
0
100
AcDbCircle
 62
7
  6
CONTINUOUS
 10
10.5342808475
 20
1.243294839
 40
0.252091
  0
CIRCLE
  5
748
100
AcDbEntity
  8
0
100
AcDbCircle
 62
7
  6
CONTINUOUS
 10
10.5342808475
 20
1.243294839
 40
0.182698
  0
ARC
  5
749
100
AcDbEntity
  8
0
100
AcDbCircle
 62
7
  6
CONTINUOUS
 10
4.3475475336
 20
7.9855834055
 40
1.0039370079
100
AcDbArc
 50
221.8103148958
 51
138.1896851042
  0
ARC
  5
74A
100
AcDbEntity
  8
0
100
AcDbCircle
 62
7
  6
CONTINUOUS
 10
3.2471203793
 20
8.969835374
 40
0.4724409449
100
AcDbArc
 50
270.0
 51
318.1896851042
  0
ARC
  5
74B
100
AcDbEntity
  8
0
100
AcDbCircle
 62
7
  6
CONTINUOUS
 10
3.2471203793
 20
7.001331437
 40
0.4724409449
100
AcDbArc
 50
41.8103148958
 51
90.0
  0
CIRCLE
  5
74C
100
AcDbEntity
  8
02___PRT_ALL_AXES
100
AcDbCircle
 62
7
  6
CONTINUOUS
 10
2.1388861163
 20
7.9855834055
 40
0.167
  0
CIRCLE
  5
74D
100
AcDbEntity
  8
02___PRT_ALL_AXES
100
AcDbCircle
 62
7
  6
CONTINUOUS
 10
2.1388861163
 20
7.9855834055
 40
0.1473
  0
CIRCLE
  5
74E
100
AcDbEntity
  8
0
100
AcDbCircle
 62
7
  6
CONTINUOUS
 10
4.3475475336
 20
7.9855834055
 40
0.1053149606
  0
ARC
  5
74F
100
AcDbEntity
  8
AXIS
100
AcDbCircle
 62
7
  6
CONTINUOUS
 10
2.3539491084
 20
6.8714574212
 40
0.05
100
AcDbArc
 50
90.0
 51
150.3909646446
  0
ARC
  5
750
100
AcDbEntity
  8
AXIS
100
AcDbCircle
 62
7
  6
CONTINUOUS
 10
2.3539491084
 20
6.6344574212
 40
0.05
100
AcDbArc
 50
209.6090353554
 51
270.0
  0
ARC
  5
751
100
AcDbEntity
  8
AXIS
100
AcDbCircle
 62
7
  6
CONTINUOUS
 10
2.9159491084
 20
6.6344574212
 40
0.05
100
AcDbArc
 50
270.0
 51
330.3909646446
  0
ARC
  5
752
100
AcDbEntity
  8
AXIS
100
AcDbCircle
 62
7
  6
CONTINUOUS
 10
2.9159491084
 20
6.8714574212
 40
0.05
100
AcDbArc
 50
29.6090353554
 51
90.0
  0
ARC
  5
753
100
AcDbEntity
  8
AXIS
100
AcDbCircle
 62
7
  6
CONTINUOUS
 10
2.3539491084
 20
6.1136070275
 40
0.05
100
AcDbArc
 50
90.0
 51
150.3909646446
  0
ARC
  5
754
100
AcDbEntity
  8
AXIS
100
AcDbCircle
 62
7
  6
CONTINUOUS
 10
2.3539491084
 20
5.8766070275
 40
0.05
100
AcDbArc
 50
209.6090353554
 51
270.0
  0
ARC
  5
755
100
AcDbEntity
  8
AXIS
100
AcDbCircle
 62
7
  6
CONTINUOUS
 10
2.9159491084
 20
5.8766070275
 40
0.05
100
AcDbArc
 50
270.0
 51
330.3909646446
  0
ARC
  5
756
100
AcDbEntity
  8
AXIS
100
AcDbCircle
 62
7
  6
CONTINUOUS
 10
2.9159491084
 20
6.1136070275
 40
0.05
100
AcDbArc
 50
29.6090353554
 51
90.0
  0
ARC
  5
757
100
AcDbEntity
  8
0
100
AcDbCircle
 62
7
  6
CONTINUOUS
 10
3.0089648564
 20
7.8576306496
 40
0.0196850394
100
AcDbArc
 50
270.0
 51
360.0
  0
ARC
  5
758
100
AcDbEntity
  8
0
100
AcDbCircle
 62
7
  6
CONTINUOUS
 10
3.0089648564
 20
8.1135361614
 40
0.0196850394
100
AcDbArc
 50
0.0
 51
90.0
  0
ARC
  5
759
100
AcDbEntity
  8
0
100
AcDbCircle
 62
7
  6
CONTINUOUS
 10
2.4184136753
 20
8.1135361614
 40
0.0196850394
100
AcDbArc
 50
90.0
 51
180.0
  0
ARC
  5
75A
100
AcDbEntity
  8
0
100
AcDbCircle
 62
7
  6
CONTINUOUS
 10
2.4184136753
 20
7.8576306496
 40
0.0196850394
100
AcDbArc
 50
180.0
 51
270.0
  0
ARC
  5
75B
100
AcDbEntity
  8
0
100
AcDbCircle
 62
7
  6
CONTINUOUS
 10
9.5731154311
 20
7.9855834055
 40
0.5236220472
100
AcDbArc
 50
98.6487134442
 51
261.3512865558
  0
ARC
  5
75C
100
AcDbEntity
  8
0
100
AcDbCircle
 62
7
  6
CONTINUOUS
 10
9.5731154311
 20
7.9855834055
 40
0.5236220472
100
AcDbArc
 50
278.6487134442
 51
281.5728527078
  0
ARC
  5
75D
100
AcDbEntity
  8
0
100
AcDbCircle
 62
7
  6
CONTINUOUS
 10
9.5731154311
 20
7.9855834055
 40
0.5236220472
100
AcDbArc
 50
78.4271472922
 51
81.3512865558
  0
ARC
  5
75E
100
AcDbEntity
  8
0
100
AcDbCircle
 62
7
  6
CONTINUOUS
 10
9.5731154311
 20
7.9855834055
 40
0.5118110236
100
AcDbArc
 50
90.0
 51
270.0
  0
ARC
  5
75F
100
AcDbEntity
  8
0
100
AcDbCircle
 62
7
  6
CONTINUOUS
 10
9.5376823602
 20
7.9855834055
 40
0.3917322835
100
AcDbArc
 50
122.5085003572
 51
237.4914996428
  0
ARC
  5
760
100
AcDbEntity
  8
0
100
AcDbCircle
 62
7
  6
CONTINUOUS
 10
9.6085485019
 20
7.9855834055
 40
0.3917322835
100
AcDbArc
 50
302.5085003572
 51
57.4914996428
  0
ARC
  5
761
100
AcDbEntity
  8
02___PRT_ALL_AXES
100
AcDbCircle
 62
7
  6
CONTINUOUS
 10
9.5731154311
 20
7.9855834055
 40
0.3897637795
100
AcDbArc
 50
58.3463426806
 51
121.6536573194
  0
ARC
  5
762
100
AcDbEntity
  8
02___PRT_ALL_AXES
100
AcDbCircle
 62
7
  6
CONTINUOUS
 10
9.5731154311
 20
7.9855834055
 40
0.3897637795
100
AcDbArc
 50
238.3463426806
 51
301.6536573194
  0
ARC
  5
763
100
AcDbEntity
  8
0
100
AcDbCircle
 62
7
  6
CONTINUOUS
 10
9.5731154311
 20
7.9855834055
 40
0.3858267717
100
AcDbArc
 50
239.13658117
 51
250.5925675879
  0
ARC
  5
764
100
AcDbEntity
  8
0
100
AcDbCircle
 62
7
  6
CONTINUOUS
 10
9.5731154311
 20
7.9855834055
 40
0.3858267717
100
AcDbArc
 50
109.4074324121
 51
120.86341883
  0
ARC
  5
765
100
AcDbEntity
  8
0
100
AcDbCircle
 62
7
  6
CONTINUOUS
 10
9.5731154311
 20
7.9855834055
 40
0.3858267717
100
AcDbArc
 50
59.13658117
 51
70.5925675879
  0
ARC
  5
766
100
AcDbEntity
  8
0
100
AcDbCircle
 62
7
  6
CONTINUOUS
 10
9.5731154311
 20
7.9855834055
 40
0.3858267717
100
AcDbArc
 50
289.4074324121
 51
300.86341883
  0
ARC
  5
767
100
AcDbEntity
  8
0
100
AcDbCircle
 62
7
  6
CONTINUOUS
 10
3.1073900533
 20
0.6318398917
 40
3.8977863616
100
AcDbArc
 50
91.1575251151
 51
100.4752779006
  0
ARC
  5
768
100
AcDbEntity
  8
0
100
AcDbCircle
 62
7
  6
CONTINUOUS
 10
3.1073900533
 20
7.3998535598
 40
3.8977863616
100
AcDbArc
 50
259.5247220994
 51
268.8424748849
  0
CIRCLE
  5
769
100
AcDbEntity
  8
02___PRT_ALL_AXES
100
AcDbCircle
 62
7
  6
CONTINUOUS
 10
2.6349491084
 20
4.0158467258
 40
0.406
  0
ARC
  5
76A
100
AcDbEntity
  8
AXIS
100
AcDbCircle
 62
7
  6
CONTINUOUS
 10
2.6349491084
 20
4.0158467258
 40
0.34
100
AcDbArc
 50
93.3722866834
 51
86.6277133166
  0
CIRCLE
  5
76B
100
AcDbEntity
  8
AXIS
100
AcDbCircle
 62
9
  6
CONTINUOUS
 10
2.6349491084
 20
4.0158467258
 40
0.281
  0
CIRCLE
  5
76C
100
AcDbEntity
  8
0
100
AcDbCircle
 62
7
  6
CONTINUOUS
 10
2.6349491084
 20
4.0158467258
 40
0.2062500241
  0
ARC
  5
76D
100
AcDbEntity
  8
0
100
AcDbCircle
 62
7
  6
CONTINUOUS
 10
2.6349491084
 20
4.0158467258
 40
0.1887259526
100
AcDbArc
 50
259.0608830513
 51
331.0608830513
  0
CIRCLE
  5
76E
100
AcDbEntity
  8
02___PRT_ALL_AXES
100
AcDbCircle
 62
7
  6
CONTINUOUS
 10
2.6349491084
 20
4.0158467258
 40
0.1576
  0
ARC
  5
76F
100
AcDbEntity
  8
0
100
AcDbCircle
 62
3
  6
CONTINUOUS
 10
3.2316813919
 20
3.2543112927
 40
0.1242913386
100
AcDbArc
 50
180.0
 51
270.0
  0
ARC
  5
770
100
AcDbEntity
  8
0
100
AcDbCircle
 62
7
  6
CONTINUOUS
 10
3.2577547743
 20
4.4233270401
 40
0.0196850394
100
AcDbArc
 50
1.0
 51
89.9999999964
  0
ARC
  5
771
100
AcDbEntity
  8
0
100
AcDbCircle
 62
7
  6
CONTINUOUS
 10
3.2451853289
 20
4.4233270407
 40
0.0196850394
100
AcDbArc
 50
90.0
 51
180.0
  0
ARC
  5
772
100
AcDbEntity
  8
0
100
AcDbCircle
 62
7
  6
CONTINUOUS
 10
3.2577547743
 20
3.6083664115
 40
0.0196850394
100
AcDbArc
 50
270.0000000036
 51
359.0
  0
ARC
  5
773
100
AcDbEntity
  8
0
100
AcDbCircle
 62
7
  6
CONTINUOUS
 10
3.2451853289
 20
3.6083664108
 40
0.0196850394
100
AcDbArc
 50
180.0
 51
270.0
  0
ARC
  5
774
100
AcDbEntity
  8
0
100
AcDbCircle
 62
7
  6
CONTINUOUS
 10
3.2316813919
 20
3.2543112927
 40
0.0196850394
100
AcDbArc
 50
180.0
 51
270.0
  0
ARC
  5
775
100
AcDbEntity
  8
0
100
AcDbCircle
 62
7
  6
CONTINUOUS
 10
1.8647419611
 20
4.3241586568
 40
0.0118110236
100
AcDbArc
 50
108.6007098905
 51
179.0000000007
  0
ARC
  5
776
100
AcDbEntity
  8
0
100
AcDbCircle
 62
7
  6
CONTINUOUS
 10
1.8647419611
 20
3.7075347948
 40
0.0118110236
100
AcDbArc
 50
181.0
 51
251.3992901102
  0
ELLIPSE
  5
777
100
AcDbEntity
  8
0
100
AcDbEllipse
 62
7
  6
CONTINUOUS
 10
13.4019186811
 20
6.6457107068
 30
0.0
 11
-0.009845474
 21
0.0170529629
 31
0.0
 40
0.5771809715
 41
2.3563554184
 42
3.9268468578
  0
ELLIPSE
  5
778
100
AcDbEntity
  8
0
100
AcDbEllipse
 62
7
  6
CONTINUOUS
 10
13.4019186811
 20
7.1577936157
 30
0.0
 11
-0.0098424755
 21
0.0170477697
 31
0.0
 40
0.5775326816
 41
-2.3560332506
 42
-0.7855418112
  0
ELLIPSE
  5
779
100
AcDbEntity
  8
0
100
AcDbEllipse
 62
7
  6
CONTINUOUS
 10
13.2905637461
 20
7.0935031978
 30
0.0
 11
-0.0098424755
 21
0.0170477697
 31
0.0
 40
0.5775326816
 41
-2.3560332506
 42
-0.7855418112
  0
ELLIPSE
  5
77A
100
AcDbEntity
  8
0
100
AcDbEllipse
 62
7
  6
CONTINUOUS
 10
13.2905637461
 20
6.5814202888
 30
0.0
 11
-0.009845474
 21
0.0170529629
 31
0.0
 40
0.5771809715
 41
-3.1591839172
 42
-2.3563384494
  0
ELLIPSE
  5
77B
100
AcDbEntity
  8
0
100
AcDbEllipse
 62
7
  6
CONTINUOUS
 10
3.2634929551
 20
7.6720001887
 30
0.0
 11
0.0139236651
 21
-0.0139236651
 31
0.0
 40
0.9996954599
 41
-0.7852458702
 42
0.7852455692
  0
ELLIPSE
  5
77C
100
AcDbEntity
  8
0
100
AcDbEllipse
 62
7
  6
CONTINUOUS
 10
3.2634929551
 20
8.2991666223
 30
0.0
 11
-0.0139236651
 21
-0.0139236651
 31
0.0
 40
0.9996954599
 41
2.3563470843
 42
3.9268385237
  0
ENDSEC
  0
SECTION
  2
OBJECTS
  0
DICTIONARY
  5
C
100
AcDbDictionary
280
0
281
1
  3
ACAD_GROUP
350
D
  3
ACAD_MLINESTYLE
350
17
  3
ACAD_LAYOUT
350
1A
  3
ACAD_PLOTSETTINGS
350
19
  3
ACAD_PLOTSTYLENAME
350
E
  0
DICTIONARY
  5
D
102
{ACAD_REACTORS
330
C
102
}
100
AcDbDictionary
280
0
281
1
  0
ACDBDICTIONARYWDFLT
  5
E
102
{ACAD_REACTORS
330
C
102
}
100
AcDbDictionary
281
1
  3
Normal
350
F
100
AcDbDictionaryWithDefault
340
F
  0
DICTIONARY
  5
17
102
{ACAD_REACTORS
330
C
102
}
100
AcDbDictionary
280
0
281
1
  3
Standard
350
18
  0
DICTIONARY
  5
19
102
{ACAD_REACTORS
330
C
102
}
100
AcDbDictionary
281
1
  0
DICTIONARY
  5
1A
102
{ACAD_REACTORS
330
C
102
}
100
AcDbDictionary
281
1
  3
Model
350
77D
  3
Layout1
350
77E
  0
ACDBPLACEHOLDER
  5
F
102
{ACAD_REACTORS
330
E
102
}
  0
MLINESTYLE
  5
18
102
{ACAD_REACTORS
330
17
102
}
100
AcDbMlineStyle
  2
STANDARD
 70
0
  3

 62
256
 51
90.0
 52
90.0
 71
2
 49
0.5
 62
256
  6
BYLAYER
 49
-0.5
 62
256
  6
BYLAYER
  0
LAYOUT
  5
77D
102
{ACAD_REACTORS
330
1A
102
}
100
AcDbPlotSettings
  1

  2
none_device
  4
ANSI_B_(17.00_x_11.00_Inches)
  6

 40
0.0
 41
0.0
 42
0.0
 43
0.0
 44
431.8
 45
279.4
 46
0.0
 47
0.0
 48
0.0
 49
0.0
140
0.0
141
0.0
142
1.0
143
1.0
 70
1024
 72
0
 73
0
 74
0
  7

 75
0
147
1.0
148
0.0
149
0.0
100
AcDbLayout
  1
Model
 70
0
 71
0
 10
0.0
 20
0.0
 11
17.0
 21
11.0
 12
0.0
 22
0.0
 32
0.0
 14
0.0
 24
0.0
 34
0.0
 15
0.0
 25
0.0
 35
0.0
146
0.0
 13
0.0
 23
0.0
 33
0.0
 16
1.0
 26
0.0
 36
0.0
 17
0.0
 27
1.0
 37
0.0
 76
0
330
213
345
0
346
0
  0
LAYOUT
  5
77E
102
{ACAD_REACTORS
330
1A
102
}
100
AcDbPlotSettings
  1

  2
none_device
  4
ANSI_B_(17.00_x_11.00_Inches)
  6

 40
0.0
 41
0.0
 42
0.0
 43
0.0
 44
431.8
 45
279.4
 46
0.0
 47
0.0
 48
0.0
 49
0.0
140
0.0
141
0.0
142
1.0
143
1.0
 70
0
 72
0
 73
0
 74
0
  7

 75
0
147
1.0
148
0.0
149
0.0
100
AcDbLayout
  1
Layout1
 70
0
 71
1
 10
0.0
 20
0.0
 11
17.0
 21
11.0
 12
0.0
 22
0.0
 32
0.0
 14
0.0
 24
0.0
 34
0.0
 15
0.0
 25
0.0
 35
0.0
146
0.0
 13
0.0
 23
0.0
 33
0.0
 16
1.0
 26
0.0
 36
0.0
 17
0.0
 27
1.0
 37
0.0
 76
0
330
214
345
0
346
0
  0
ENDSEC
  0
EOF
