999
DXF file: 155348_1.dxf
999
Pro/ENGINEER 2009141 by Parametric Technology Corporation
  0
SECTION
  2
HEADER
  9
$ACADVER
  1
AC1015
  9
$DWGCODEPAGE
  3
ANSI_1252
  9
$EXTMAX
 10
17.0
 20
11.0
 30
0.0
  9
$EXTMIN
 10
0.0
 20
0.0
 30
0.0
  9
$LIMMIN
 10
0.0
 20
0.0
  9
$LIMMAX
 10
17.0
 20
11.0
  9
$VIEWCTR
 10
8.5
 20
5.5
  9
$VIEWSIZE
 40
11.0
  9
$CLAYER
  8
0
  9
$LTSCALE
 40
0.935
  9
$CELTYPE
  6
BYLAYER
  9
$DIMSCALE
 40
1.0
  9
$DIMASZ
 40
0.1875
  9
$DIMEXO
 40
0.10625
  9
$DIMDLI
 40
0.646
  9
$DIMEXE
 40
0.306
  9
$DIMCEN
 40
0.153
  9
$DIMLFAC
 40
1.0
  9
$DIMBLK
  1
_FILLED
  9
$DIMTXT
 40
0.1
  9
$DIMTOL
 70
1
  9
$DIMLIM
 70
0
  9
$DIMTFAC
 40
1.0
  9
$DIMTP
 40
0.005
  9
$DIMTM
 40
0.005
  9
$PDMODE
 70
3
  9
$PDSIZE
 40
0.3125
  9
$HANDSEED
  5
87A
  9
$TILEMODE
 70
1
  9
$MEASUREMENT
 70
0
  9
$INSUNITS
 70
1
  0
ENDSEC
  0
SECTION
  2
CLASSES
  0
CLASS
  1
ACDBDICTIONARYWDFLT
  2
AcDbDictionaryWithDefault
  3
AutoCAD 2000
 90
0
280
0
281
0
  0
CLASS
  1
ACDBPLACEHOLDER
  2
AcDbPlaceHolder
  3
AutoCAD 2000
 90
0
280
0
281
0
  0
CLASS
  1
LAYOUT
  2
AcDbLayout
  3
AutoCAD 2000
 90
0
280
0
281
0
  0
ENDSEC
  0
SECTION
  2
TABLES
  0
TABLE
  2
VPORT
  5
8
100
AcDbSymbolTable
 70
2
  0
VPORT
  5
1F4
100
AcDbSymbolTableRecord
100
AcDbViewportTableRecord
  2
*ACTIVE
 70
0
 10
0.0
 20
0.0
 11
1.0
 21
1.0
 12
8.5
 22
5.5
 13
0.0
 23
0.0
 14
1.0
 24
1.0
 15
0.0
 25
0.0
 16
0.0
 26
0.0
 36
1.0
 17
0.0
 27
0.0
 37
0.0
 40
11.0
 41
1.5454545455
 42
50.0
 43
0.0
 44
0.0
 50
0.0
 51
0.0
 71
0
 72
100
 73
1
 74
1
 75
0
 76
0
 77
0
 78
0
  0
ENDTAB
  0
TABLE
  2
LTYPE
  5
5
100
AcDbSymbolTable
 70
6
  0
LTYPE
  5
14
100
AcDbSymbolTableRecord
100
AcDbLinetypeTableRecord
  2
BYBLOCK
 70
0
  3

 72
65
 73
0
 40
0.0
  0
LTYPE
  5
15
100
AcDbSymbolTableRecord
100
AcDbLinetypeTableRecord
  2
BYLAYER
 70
0
  3

 72
65
 73
0
 40
0.0
  0
LTYPE
  5
16
100
AcDbSymbolTableRecord
100
AcDbLinetypeTableRecord
  2
CONTINUOUS
 70
64
  3
Solid line
 72
65
 73
0
 40
0.0
  0
LTYPE
  5
1F5
100
AcDbSymbolTableRecord
100
AcDbLinetypeTableRecord
  2
CENTER
 70
64
  3
____ _ ____ _ ____ _ ____ _ ____ _ ____ _ ____
 72
65
 73
4
 40
0.6
 49
0.375
 74
0
 49
-0.075
 74
0
 49
0.075
 74
0
 49
-0.075
 74
0
  0
LTYPE
  5
1F6
100
AcDbSymbolTableRecord
100
AcDbLinetypeTableRecord
  2
HIDDEN
 70
64
  3
- - - - - - - - - - - - - - - - - - - -
 72
65
 73
2
 40
0.2
 49
0.1
 74
0
 49
-0.1
 74
0
  0
LTYPE
  5
1F7
100
AcDbSymbolTableRecord
100
AcDbLinetypeTableRecord
  2
PHANTOM
 70
64
  3
_____ _ _ _____ _ _ _____ _ _ _____
 72
65
 73
6
 40
0.8
 49
0.45
 74
0
 49
-0.05
 74
0
 49
0.1
 74
0
 49
-0.05
 74
0
 49
0.1
 74
0
 49
-0.05
 74
0
  0
LTYPE
  5
1F8
100
AcDbSymbolTableRecord
100
AcDbLinetypeTableRecord
  2
DOT
 70
64
  3
. . . . . . . . . . . . . . . . . . . .
 72
65
 73
2
 40
0.2
 49
0.1
 74
0
 49
-0.1
 74
0
  0
LTYPE
  5
1F9
100
AcDbSymbolTableRecord
100
AcDbLinetypeTableRecord
  2
DASHED
 70
64
  3
- - - - - - - - - - - - - - - - - - - -
 72
65
 73
2
 40
0.2
 49
0.1
 74
0
 49
-0.1
 74
0
  0
ENDTAB
  0
TABLE
  2
LAYER
  5
2
100
AcDbSymbolTable
 70
36
  0
LAYER
  5
10
100
AcDbSymbolTableRecord
100
AcDbLayerTableRecord
  2
0
 70
0
 62
7
  6
CONTINUOUS
370
-3
390
F
  0
LAYER
  5
1FA
100
AcDbSymbolTableRecord
100
AcDbLayerTableRecord
  2
DEFAULT_1
 70
0
 62
7
  6
CENTER
370
-3
390
F
  0
LAYER
  5
1FB
100
AcDbSymbolTableRecord
100
AcDbLayerTableRecord
  2
DEFAULT_2
 70
0
 62
8
  6
HIDDEN
370
-3
390
F
  0
LAYER
  5
1FC
100
AcDbSymbolTableRecord
100
AcDbLayerTableRecord
  2
DEFAULT_3
 70
0
 62
7
  6
PHANTOM
370
-3
390
F
  0
LAYER
  5
1FD
100
AcDbSymbolTableRecord
100
AcDbLayerTableRecord
  2
1
 70
0
 62
7
  6
CONTINUOUS
370
-3
390
F
  0
LAYER
  5
1FE
100
AcDbSymbolTableRecord
100
AcDbLayerTableRecord
  2
10
 70
0
 62
7
  6
CONTINUOUS
370
-3
390
F
  0
LAYER
  5
1FF
100
AcDbSymbolTableRecord
100
AcDbLayerTableRecord
  2
11
 70
0
 62
7
  6
CONTINUOUS
370
-3
390
F
  0
LAYER
  5
200
100
AcDbSymbolTableRecord
100
AcDbLayerTableRecord
  2
12
 70
0
 62
7
  6
CONTINUOUS
370
-3
390
F
  0
LAYER
  5
201
100
AcDbSymbolTableRecord
100
AcDbLayerTableRecord
  2
13
 70
0
 62
7
  6
CONTINUOUS
370
-3
390
F
  0
LAYER
  5
202
100
AcDbSymbolTableRecord
100
AcDbLayerTableRecord
  2
14
 70
0
 62
7
  6
CONTINUOUS
370
-3
390
F
  0
LAYER
  5
203
100
AcDbSymbolTableRecord
100
AcDbLayerTableRecord
  2
15
 70
0
 62
7
  6
CONTINUOUS
370
-3
390
F
  0
LAYER
  5
204
100
AcDbSymbolTableRecord
100
AcDbLayerTableRecord
  2
16
 70
0
 62
7
  6
CONTINUOUS
370
-3
390
F
  0
LAYER
  5
205
100
AcDbSymbolTableRecord
100
AcDbLayerTableRecord
  2
17
 70
0
 62
7
  6
CONTINUOUS
370
-3
390
F
  0
LAYER
  5
206
100
AcDbSymbolTableRecord
100
AcDbLayerTableRecord
  2
18
 70
0
 62
7
  6
CONTINUOUS
370
-3
390
F
  0
LAYER
  5
207
100
AcDbSymbolTableRecord
100
AcDbLayerTableRecord
  2
19
 70
0
 62
7
  6
CONTINUOUS
370
-3
390
F
  0
LAYER
  5
208
100
AcDbSymbolTableRecord
100
AcDbLayerTableRecord
  2
2
 70
0
 62
7
  6
CONTINUOUS
370
-3
390
F
  0
LAYER
  5
209
100
AcDbSymbolTableRecord
100
AcDbLayerTableRecord
  2
20
 70
0
 62
7
  6
CONTINUOUS
370
-3
390
F
  0
LAYER
  5
20A
100
AcDbSymbolTableRecord
100
AcDbLayerTableRecord
  2
21
 70
0
 62
7
  6
CONTINUOUS
370
-3
390
F
  0
LAYER
  5
20B
100
AcDbSymbolTableRecord
100
AcDbLayerTableRecord
  2
22
 70
0
 62
7
  6
CONTINUOUS
370
-3
390
F
  0
LAYER
  5
20C
100
AcDbSymbolTableRecord
100
AcDbLayerTableRecord
  2
23
 70
0
 62
7
  6
CONTINUOUS
370
-3
390
F
  0
LAYER
  5
20D
100
AcDbSymbolTableRecord
100
AcDbLayerTableRecord
  2
24
 70
0
 62
7
  6
CONTINUOUS
370
-3
390
F
  0
LAYER
  5
20E
100
AcDbSymbolTableRecord
100
AcDbLayerTableRecord
  2
25
 70
0
 62
7
  6
CONTINUOUS
370
-3
390
F
  0
LAYER
  5
20F
100
AcDbSymbolTableRecord
100
AcDbLayerTableRecord
  2
26
 70
0
 62
7
  6
CONTINUOUS
370
-3
390
F
  0
LAYER
  5
210
100
AcDbSymbolTableRecord
100
AcDbLayerTableRecord
  2
27
 70
0
 62
7
  6
CONTINUOUS
370
-3
390
F
  0
LAYER
  5
211
100
AcDbSymbolTableRecord
100
AcDbLayerTableRecord
  2
28
 70
0
 62
7
  6
CONTINUOUS
370
-3
390
F
  0
LAYER
  5
212
100
AcDbSymbolTableRecord
100
AcDbLayerTableRecord
  2
29
 70
0
 62
7
  6
CONTINUOUS
370
-3
390
F
  0
LAYER
  5
213
100
AcDbSymbolTableRecord
100
AcDbLayerTableRecord
  2
3
 70
0
 62
7
  6
CONTINUOUS
370
-3
390
F
  0
LAYER
  5
214
100
AcDbSymbolTableRecord
100
AcDbLayerTableRecord
  2
30
 70
0
 62
7
  6
CONTINUOUS
370
-3
390
F
  0
LAYER
  5
215
100
AcDbSymbolTableRecord
100
AcDbLayerTableRecord
  2
31
 70
0
 62
7
  6
CONTINUOUS
370
-3
390
F
  0
LAYER
  5
216
100
AcDbSymbolTableRecord
100
AcDbLayerTableRecord
  2
32
 70
0
 62
7
  6
CONTINUOUS
370
-3
390
F
  0
LAYER
  5
217
100
AcDbSymbolTableRecord
100
AcDbLayerTableRecord
  2
4
 70
0
 62
7
  6
CONTINUOUS
370
-3
390
F
  0
LAYER
  5
218
100
AcDbSymbolTableRecord
100
AcDbLayerTableRecord
  2
5
 70
0
 62
7
  6
CONTINUOUS
370
-3
390
F
  0
LAYER
  5
219
100
AcDbSymbolTableRecord
100
AcDbLayerTableRecord
  2
6
 70
0
 62
7
  6
CONTINUOUS
370
-3
390
F
  0
LAYER
  5
21A
100
AcDbSymbolTableRecord
100
AcDbLayerTableRecord
  2
7
 70
0
 62
7
  6
CONTINUOUS
370
-3
390
F
  0
LAYER
  5
21B
100
AcDbSymbolTableRecord
100
AcDbLayerTableRecord
  2
8
 70
0
 62
7
  6
CONTINUOUS
370
-3
390
F
  0
LAYER
  5
21C
100
AcDbSymbolTableRecord
100
AcDbLayerTableRecord
  2
9
 70
0
 62
7
  6
CONTINUOUS
370
-3
390
F
  0
LAYER
  5
21D
100
AcDbSymbolTableRecord
100
AcDbLayerTableRecord
  2
AXIS
 70
0
 62
7
  6
CONTINUOUS
370
-3
390
F
  0
LAYER
  5
21E
100
AcDbSymbolTableRecord
100
AcDbLayerTableRecord
  2
AXIS_COSMETIC_THREADS
 70
0
 62
7
  6
CONTINUOUS
370
-3
390
F
  0
LAYER
  5
21F
100
AcDbSymbolTableRecord
100
AcDbLayerTableRecord
  2
CURVES
 70
0
 62
7
  6
CONTINUOUS
370
-3
390
F
  0
LAYER
  5
220
100
AcDbSymbolTableRecord
100
AcDbLayerTableRecord
  2
DATUM_CURVES
 70
0
 62
7
  6
CONTINUOUS
370
-3
390
F
  0
LAYER
  5
221
100
AcDbSymbolTableRecord
100
AcDbLayerTableRecord
  2
DATUM_PLANES
 70
0
 62
7
  6
CONTINUOUS
370
-3
390
F
  0
LAYER
  5
222
100
AcDbSymbolTableRecord
100
AcDbLayerTableRecord
  2
DEF_CSY
 70
0
 62
7
  6
CONTINUOUS
370
-3
390
F
  0
LAYER
  5
223
100
AcDbSymbolTableRecord
100
AcDbLayerTableRecord
  2
DRIVEN_DIMS
 70
0
 62
7
  6
CONTINUOUS
370
-3
390
F
  0
LAYER
  5
224
100
AcDbSymbolTableRecord
100
AcDbLayerTableRecord
  2
GEOMTOL
 70
0
 62
7
  6
CONTINUOUS
370
-3
390
F
  0
LAYER
  5
225
100
AcDbSymbolTableRecord
100
AcDbLayerTableRecord
  2
NOTES
 70
0
 62
7
  6
CONTINUOUS
370
-3
390
F
  0
LAYER
  5
226
100
AcDbSymbolTableRecord
100
AcDbLayerTableRecord
  2
PNTS
 70
0
 62
7
  6
CONTINUOUS
370
-3
390
F
  0
LAYER
  5
227
100
AcDbSymbolTableRecord
100
AcDbLayerTableRecord
  2
QUILTS
 70
0
 62
7
  6
CONTINUOUS
370
-3
390
F
  0
LAYER
  5
228
100
AcDbSymbolTableRecord
100
AcDbLayerTableRecord
  2
SCHEME_DIMS
 70
0
 62
7
  6
CONTINUOUS
370
-3
390
F
  0
LAYER
  5
229
100
AcDbSymbolTableRecord
100
AcDbLayerTableRecord
  2
SKETCHED_ENT
 70
0
 62
7
  6
CONTINUOUS
370
-3
390
F
  0
LAYER
  5
22A
100
AcDbSymbolTableRecord
100
AcDbLayerTableRecord
  2
SURFACES
 70
0
 62
7
  6
CONTINUOUS
370
-3
390
F
  0
LAYER
  5
22B
100
AcDbSymbolTableRecord
100
AcDbLayerTableRecord
  2
SYMBOLS
 70
0
 62
7
  6
CONTINUOUS
370
-3
390
F
  0
ENDTAB
  0
TABLE
  2
STYLE
  5
3
100
AcDbSymbolTable
 70
1
  0
STYLE
  5
11
100
AcDbSymbolTableRecord
100
AcDbTextStyleTableRecord
  2
STANDARD
 70
0
 40
0.0
 41
1.0
 50
0.0
 71
0
 42
0.2
  3
txt
  4

  0
STYLE
  5
22C
100
AcDbSymbolTableRecord
100
AcDbTextStyleTableRecord
  2
TEXTSTYLE_1
 70
0
 40
0.0
 41
0.8
 50
0.0
 71
0
 42
0.2
  3
gdt
  4

  0
STYLE
  5
22D
100
AcDbSymbolTableRecord
100
AcDbTextStyleTableRecord
  2
TEXTSTYLE_2
 70
0
 40
0.0
 41
0.8
 50
0.0
 71
0
 42
0.2
  3
txt
  4

  0
STYLE
  5
22E
100
AcDbSymbolTableRecord
100
AcDbTextStyleTableRecord
  2
TEXTSTYLE_3
 70
0
 40
0.0
 41
0.85
 50
0.0
 71
0
 42
0.2
  3
txt
  4

  0
STYLE
  5
22F
100
AcDbSymbolTableRecord
100
AcDbTextStyleTableRecord
  2
TEXTSTYLE_4
 70
0
 40
0.0
 41
0.92
 50
0.0
 71
0
 42
0.2
  3
txt
  4

  0
STYLE
  5
230
100
AcDbSymbolTableRecord
100
AcDbTextStyleTableRecord
  2
TEXTSTYLE_5
 70
0
 40
0.0
 41
1.0
 50
0.0
 71
0
 42
0.2
  3
gdt
  4

  0
ENDTAB
  0
TABLE
  2
VIEW
  5
6
100
AcDbSymbolTable
 70
0
  0
ENDTAB
  0
TABLE
  2
UCS
  5
7
100
AcDbSymbolTable
 70
0
  0
ENDTAB
  0
TABLE
  2
APPID
  5
9
100
AcDbSymbolTable
 70
1
  0
APPID
  5
231
100
AcDbSymbolTableRecord
100
AcDbRegAppTableRecord
  2
ACAD
 70
0
  0
ENDTAB
  0
TABLE
  2
BLOCK_RECORD
  5
1
100
AcDbSymbolTable
 70
0
  0
BLOCK_RECORD
  5
232
100
AcDbSymbolTableRecord
100
AcDbBlockTableRecord
  2
*Model_Space
  0
BLOCK_RECORD
  5
233
100
AcDbSymbolTableRecord
100
AcDbBlockTableRecord
  2
*Paper_Space
  0
BLOCK_RECORD
  5
234
100
AcDbSymbolTableRecord
100
AcDbBlockTableRecord
  2
_FILLED
  0
BLOCK_RECORD
  5
235
100
AcDbSymbolTableRecord
100
AcDbBlockTableRecord
  2
*D0
  0
BLOCK_RECORD
  5
236
100
AcDbSymbolTableRecord
100
AcDbBlockTableRecord
  2
*D1
  0
BLOCK_RECORD
  5
237
100
AcDbSymbolTableRecord
100
AcDbBlockTableRecord
  2
*D2
  0
BLOCK_RECORD
  5
238
100
AcDbSymbolTableRecord
100
AcDbBlockTableRecord
  2
BANNER_LOGO_TITLEBLOCK_BL0
  0
ENDTAB
  0
TABLE
  2
DIMSTYLE
  5
A
100
AcDbSymbolTable
 70
1
100
AcDbDimStyleTable
 71
0
  0
DIMSTYLE
105
239
100
AcDbSymbolTableRecord
100
AcDbDimStyleTableRecord
  2
STANDARD
 70
0
  3

  4

 40
1.0
 41
0.1875
 42
0.0625
 43
0.38
 44
0.18
 45
0.0
 46
0.0
 47
0.005
 48
0.005
140
0.1
141
0.09
142
0.0
143
25.4
144
1.0
145
0.0
146
1.0
147
0.09
 71
1.0
 72
0.0
 73
1
 74
1
 75
0
 76
0
 77
0
 78
4
170
0
171
2
172
0
173
0
174
0
175
0
176
0
177
0
178
0
270
2
271
3
272
3
273
2
274
2
275
0
280
0
281
0
282
0
283
1
284
4
285
0
286
0
287
3
288
0
340
11
341
234
342
234
343
234
344
234
  0
DIMSTYLE
105
23A
100
AcDbSymbolTableRecord
100
AcDbDimStyleTableRecord
  2
DIMSTYLE_1
 70
0
  3

  4

 40
1.0
 41
0.1875
 42
0.0625
 43
0.38
 44
0.18
 45
0.0
 46
0.0
 47
0.0
 48
0.0
140
0.1
141
0.09
142
0.0
143
25.4
144
1.0
145
0.0
146
1.0
147
0.09
 71
0.0
 72
0.0
 73
1
 74
1
 75
0
 76
0
 77
0
 78
4
170
0
171
2
172
0
173
0
174
0
175
0
176
0
177
0
178
0
270
2
271
1
272
1
273
2
274
2
275
0
280
0
281
0
282
0
283
1
284
4
285
0
286
0
287
3
288
0
340
11
341
234
342
234
343
234
344
234
  0
DIMSTYLE
105
23B
100
AcDbSymbolTableRecord
100
AcDbDimStyleTableRecord
  2
DIMSTYLE_2
 70
0
  3

  4

 40
1.0
 41
0.1875
 42
0.0625
 43
0.38
 44
0.18
 45
0.0
 46
0.0
 47
0.1
 48
0.1
140
0.1
141
0.09
142
0.0
143
25.4
144
1.0
145
0.0
146
1.0
147
0.09
 71
0.0
 72
0.0
 73
1
 74
1
 75
0
 76
0
 77
0
 78
4
170
0
171
2
172
0
173
0
174
0
175
0
176
0
177
0
178
0
270
2
271
1
272
1
273
2
274
2
275
0
280
0
281
0
282
0
283
1
284
4
285
0
286
0
287
3
288
0
340
11
341
234
342
234
343
234
344
234
  0
ENDTAB
  0
ENDSEC
  0
SECTION
  2
BLOCKS
  0
BLOCK
  5
20
100
AcDbEntity
  8
0
100
AcDbBlockBegin
  2
*Model_Space
 70
0
 10
0.0
 20
0.0
 30
0.0
  3
*Model_Space
  1

  0
ENDBLK
  5
21
100
AcDbEntity
  8
0
100
AcDbBlockEnd
  0
BLOCK
  5
1C
100
AcDbEntity
  8
0
100
AcDbBlockBegin
  2
*Paper_Space
 70
0
 10
0.0
 20
0.0
 30
0.0
  3
*Paper_Space
  1

  0
ENDBLK
  5
1D
100
AcDbEntity
  8
0
100
AcDbBlockEnd
  0
BLOCK
  5
23C
100
AcDbEntity
  8
0
100
AcDbBlockBegin
 62
2
  6
CONTINUOUS
  2
BANNER_LOGO_TITLEBLOCK_BL0
 70
64
 10
12.9086867042
 20
2.5403783405
  3
BANNER_LOGO_TITLEBLOCK_BL0
  1

  0
ELLIPSE
  5
23D
100
AcDbEntity
  8
0
100
AcDbEllipse
 62
2
  6
CONTINUOUS
 10
12.9046654608
 20
2.5403783405
 30
0.0
 11
-0.8250004575
 21
0.0
 31
0.0
 40
0.218572
 41
0.0
 42
6.2831853072
  0
ARC
  5
23E
100
AcDbEntity
  8
0
100
AcDbCircle
 62
2
  6
CONTINUOUS
 10
12.400005721
 20
2.5168763464
 40
0.0153945295
100
AcDbArc
 50
354.0454548824
 51
5.1878013979
  0
ARC
  5
23F
100
AcDbEntity
  8
0
100
AcDbCircle
 62
2
  6
CONTINUOUS
 10
12.3931760319
 20
2.5166878286
 40
0.0222174455
100
AcDbArc
 50
4.0793399388
 51
69.834329283
  0
LINE
  5
240
100
AcDbEntity
  8
0
100
AcDbLine
 62
2
  6
CONTINUOUS
 10
12.4008351814
 20
2.5375433389
 11
12.3907841758
 21
2.5410923409
  0
LINE
  5
241
100
AcDbEntity
  8
0
100
AcDbLine
 62
2
  6
CONTINUOUS
 10
12.3907841758
 20
2.5410923409
 11
12.3990241804
 21
2.5458683435
  0
ARC
  5
242
100
AcDbEntity
  8
0
100
AcDbCircle
 62
2
  6
CONTINUOUS
 10
12.3771587979
 20
2.5826952352
 40
0.0428289026
100
AcDbArc
 50
300.6990502959
 51
319.0591802498
  0
ARC
  5
243
100
AcDbEntity
  8
0
100
AcDbCircle
 62
2
  6
CONTINUOUS
 10
12.3971873948
 20
2.5665668817
 40
0.0171568255
100
AcDbArc
 50
315.9145124245
 51
16.0049121282
  0
ARC
  5
244
100
AcDbEntity
  8
0
100
AcDbCircle
 62
2
  6
CONTINUOUS
 10
12.3922357827
 20
2.5632132173
 40
0.0229166529
100
AcDbArc
 50
20.6563876465
 51
62.3316896973
  0
ARC
  5
245
100
AcDbEntity
  8
0
100
AcDbCircle
 62
2
  6
CONTINUOUS
 10
12.371573659
 20
2.5302846524
 40
0.061747717
100
AcDbArc
 50
59.5385584989
 51
90.0050977555
  0
LINE
  5
246
100
AcDbEntity
  8
0
100
AcDbLine
 62
2
  6
CONTINUOUS
 10
12.3715681652
 20
2.5920323691
 11
12.2055050731
 21
2.5920323691
  0
ARC
  5
247
100
AcDbEntity
  8
0
100
AcDbCircle
 62
2
  6
CONTINUOUS
 10
12.2055050712
 20
2.5895573696
 40
0.0024749995
100
AcDbArc
 50
89.9999571957
 51
180.0000428043
  0
LINE
  5
248
100
AcDbEntity
  8
0
100
AcDbLine
 62
2
  6
CONTINUOUS
 10
12.2030300717
 20
2.5895573678
 11
12.2030300717
 21
2.5697573568
  0
ARC
  5
249
100
AcDbEntity
  8
0
100
AcDbCircle
 62
2
  6
CONTINUOUS
 10
12.2055050712
 20
2.5697573549
 40
0.0024749995
100
AcDbArc
 50
179.9999571957
 51
270.0000428043
  0
LINE
  5
24A
100
AcDbEntity
  8
0
100
AcDbLine
 62
2
  6
CONTINUOUS
 10
12.2055050731
 20
2.5672823554
 11
12.2294470864
 21
2.5672823554
  0
ARC
  5
24B
100
AcDbEntity
  8
0
100
AcDbCircle
 62
2
  6
CONTINUOUS
 10
12.2294470882
 20
2.5648073559
 40
0.0024749995
100
AcDbArc
 50
359.9999571957
 51
90.0000428043
  0
LINE
  5
24C
100
AcDbEntity
  8
0
100
AcDbLine
 62
2
  6
CONTINUOUS
 10
12.2319220877
 20
2.564807354
 11
12.2319220877
 21
2.5184523283
  0
ARC
  5
24D
100
AcDbEntity
  8
0
100
AcDbCircle
 62
2
  6
CONTINUOUS
 10
12.2294470882
 20
2.5184523265
 40
0.0024749995
100
AcDbArc
 50
269.9999571957
 51
0.0000428043
  0
LINE
  5
24E
100
AcDbEntity
  8
0
100
AcDbLine
 62
2
  6
CONTINUOUS
 10
12.2294470864
 20
2.515977327
 11
12.2055050731
 21
2.515977327
  0
ARC
  5
24F
100
AcDbEntity
  8
0
100
AcDbCircle
 62
2
  6
CONTINUOUS
 10
12.2055050712
 20
2.5135023274
 40
0.0024749995
100
AcDbArc
 50
89.9999571957
 51
180.0000428043
  0
LINE
  5
250
100
AcDbEntity
  8
0
100
AcDbLine
 62
2
  6
CONTINUOUS
 10
12.2030300717
 20
2.5135023256
 11
12.2030300717
 21
2.4937023146
  0
ARC
  5
251
100
AcDbEntity
  8
0
100
AcDbCircle
 62
2
  6
CONTINUOUS
 10
12.2055050712
 20
2.4937023128
 40
0.0024749995
100
AcDbArc
 50
179.9999571957
 51
270.0000428043
  0
LINE
  5
252
100
AcDbEntity
  8
0
100
AcDbLine
 62
2
  6
CONTINUOUS
 10
12.2055050731
 20
2.4912273132
 11
12.3819511709
 21
2.4912273132
  0
ARC
  5
253
100
AcDbEntity
  8
0
100
AcDbCircle
 62
2
  6
CONTINUOUS
 10
12.3792298263
 20
2.539634765
 40
0.048483885
100
AcDbArc
 50
273.21763719
 51
303.0749121182
  0
ARC
  5
254
100
AcDbEntity
  8
0
100
AcDbCircle
 62
2
  6
CONTINUOUS
 10
12.3940692204
 20
2.5168671561
 40
0.0213072145
100
AcDbArc
 50
303.0488228549
 51
355.7263138674
  0
LINE
  5
255
100
AcDbEntity
  8
0
100
AcDbLine
 62
2
  6
CONTINUOUS
 10
12.2949101227
 20
2.5499573458
 11
12.3362731456
 21
2.5499573458
  0
ARC
  5
256
100
AcDbEntity
  8
0
100
AcDbCircle
 62
2
  6
CONTINUOUS
 10
12.3362731456
 20
2.5586198506
 40
0.0086625048
100
AcDbArc
 50
270.0
 51
90.0
  0
LINE
  5
257
100
AcDbEntity
  8
0
100
AcDbLine
 62
2
  6
CONTINUOUS
 10
12.3362731456
 20
2.5672823554
 11
12.2949101227
 21
2.5672823554
  0
ARC
  5
258
100
AcDbEntity
  8
0
100
AcDbCircle
 62
2
  6
CONTINUOUS
 10
12.2949101208
 20
2.5648073559
 40
0.0024749995
100
AcDbArc
 50
89.9999571957
 51
180.0000428043
  0
LINE
  5
259
100
AcDbEntity
  8
0
100
AcDbLine
 62
2
  6
CONTINUOUS
 10
12.2924351213
 20
2.564807354
 11
12.2924351213
 21
2.5524323472
  0
ARC
  5
25A
100
AcDbEntity
  8
0
100
AcDbCircle
 62
2
  6
CONTINUOUS
 10
12.2949101208
 20
2.5524323453
 40
0.0024749995
100
AcDbArc
 50
179.9999571957
 51
270.0000428043
  0
LINE
  5
25B
100
AcDbEntity
  8
0
100
AcDbLine
 62
2
  6
CONTINUOUS
 10
12.2924351213
 20
2.5184523283
 11
12.2924351213
 21
2.5308273352
  0
ARC
  5
25C
100
AcDbEntity
  8
0
100
AcDbCircle
 62
2
  6
CONTINUOUS
 10
12.2949101208
 20
2.530827337
 40
0.0024749995
100
AcDbArc
 50
89.9999571957
 51
180.0000428043
  0
LINE
  5
25D
100
AcDbEntity
  8
0
100
AcDbLine
 62
2
  6
CONTINUOUS
 10
12.2949101227
 20
2.5333023366
 11
12.3362731456
 21
2.5333023366
  0
ARC
  5
25E
100
AcDbEntity
  8
0
100
AcDbCircle
 62
2
  6
CONTINUOUS
 10
12.3362731456
 20
2.5246398318
 40
0.0086625048
100
AcDbArc
 50
270.0
 51
90.0
  0
LINE
  5
25F
100
AcDbEntity
  8
0
100
AcDbLine
 62
2
  6
CONTINUOUS
 10
12.3362731456
 20
2.515977327
 11
12.2949101227
 21
2.515977327
  0
ARC
  5
260
100
AcDbEntity
  8
0
100
AcDbCircle
 62
2
  6
CONTINUOUS
 10
12.2949101208
 20
2.5184523265
 40
0.0024749995
100
AcDbArc
 50
179.9999571957
 51
270.0000428043
  0
ARC
  5
261
100
AcDbEntity
  8
0
100
AcDbCircle
 62
2
  6
CONTINUOUS
 10
13.5806801742
 20
2.5212486481
 40
0.044722495
100
AcDbArc
 50
195.531588407
 51
204.7624440448
  0
LINE
  5
262
100
AcDbEntity
  8
0
100
AcDbLine
 62
2
  6
CONTINUOUS
 10
13.5375908118
 20
2.5092733232
 11
13.5357868108
 21
2.5153423266
  0
ARC
  5
263
100
AcDbEntity
  8
0
100
AcDbCircle
 62
2
  6
CONTINUOUS
 10
13.4974076135
 20
2.5055452462
 40
0.0396099176
100
AcDbArc
 50
14.3201081283
 51
22.4984722084
  0
ARC
  5
264
100
AcDbEntity
  8
0
100
AcDbCircle
 62
2
  6
CONTINUOUS
 10
13.5201739219
 20
2.5145168728
 40
0.0151491919
100
AcDbArc
 50
24.098260853
 51
63.0369451818
  0
ARC
  5
265
100
AcDbEntity
  8
0
100
AcDbCircle
 62
2
  6
CONTINUOUS
 10
13.5161192671
 20
2.5062372524
 40
0.0243676582
100
AcDbArc
 50
63.3666028271
 51
90.3937697637
  0
LINE
  5
266
100
AcDbEntity
  8
0
100
AcDbLine
 62
2
  6
CONTINUOUS
 10
13.5159517998
 20
2.5306043351
 11
13.4883447845
 21
2.5306043351
  0
ARC
  5
267
100
AcDbEntity
  8
0
100
AcDbCircle
 62
2
  6
CONTINUOUS
 10
13.4883447827
 20
2.5281293355
 40
0.0024749995
100
AcDbArc
 50
89.9999571957
 51
180.0000428043
  0
LINE
  5
268
100
AcDbEntity
  8
0
100
AcDbLine
 62
2
  6
CONTINUOUS
 10
13.4858697831
 20
2.5281293337
 11
13.4858697831
 21
2.5184303283
  0
ARC
  5
269
100
AcDbEntity
  8
0
100
AcDbCircle
 62
2
  6
CONTINUOUS
 10
13.4883447827
 20
2.5184303265
 40
0.0024749995
100
AcDbArc
 50
179.9999571957
 51
270.0000428043
  0
LINE
  5
26A
100
AcDbEntity
  8
0
100
AcDbLine
 62
2
  6
CONTINUOUS
 10
13.4883447845
 20
2.5159553269
 11
13.5130037982
 21
2.5159553269
  0
ARC
  5
26B
100
AcDbEntity
  8
0
100
AcDbCircle
 62
2
  6
CONTINUOUS
 10
13.5130038
 20
2.5134803274
 40
0.0024749995
100
AcDbArc
 50
359.9999571957
 51
90.0000428043
  0
LINE
  5
26C
100
AcDbEntity
  8
0
100
AcDbLine
 62
2
  6
CONTINUOUS
 10
13.5154787995
 20
2.5134803256
 11
13.5154787995
 21
2.4937023146
  0
ARC
  5
26D
100
AcDbEntity
  8
0
100
AcDbCircle
 62
2
  6
CONTINUOUS
 10
13.5130038
 20
2.4937023128
 40
0.0024749995
100
AcDbArc
 50
269.9999571957
 51
0.0000428043
  0
LINE
  5
26E
100
AcDbEntity
  8
0
100
AcDbLine
 62
2
  6
CONTINUOUS
 10
13.5130037982
 20
2.4912273132
 11
13.3994327352
 21
2.4912273132
  0
ARC
  5
26F
100
AcDbEntity
  8
0
100
AcDbCircle
 62
2
  6
CONTINUOUS
 10
13.3994327333
 20
2.4937023128
 40
0.0024749995
100
AcDbArc
 50
179.9999571957
 51
270.0000428043
  0
LINE
  5
270
100
AcDbEntity
  8
0
100
AcDbLine
 62
2
  6
CONTINUOUS
 10
13.3969577338
 20
2.4937023146
 11
13.3969577338
 21
2.5135023256
  0
ARC
  5
271
100
AcDbEntity
  8
0
100
AcDbCircle
 62
2
  6
CONTINUOUS
 10
13.3994327333
 20
2.5135023274
 40
0.0024749995
100
AcDbArc
 50
89.9999571957
 51
180.0000428043
  0
LINE
  5
272
100
AcDbEntity
  8
0
100
AcDbLine
 62
2
  6
CONTINUOUS
 10
13.3994327352
 20
2.515977327
 11
13.4221787478
 21
2.515977327
  0
ARC
  5
273
100
AcDbEntity
  8
0
100
AcDbCircle
 62
2
  6
CONTINUOUS
 10
13.4221787497
 20
2.5184523265
 40
0.0024749995
100
AcDbArc
 50
269.9999571957
 51
0.0000428042
  0
LINE
  5
274
100
AcDbEntity
  8
0
100
AcDbLine
 62
2
  6
CONTINUOUS
 10
13.4246537492
 20
2.5184523283
 11
13.4246537492
 21
2.564807354
  0
ARC
  5
275
100
AcDbEntity
  8
0
100
AcDbCircle
 62
2
  6
CONTINUOUS
 10
13.4221787497
 20
2.5648073559
 40
0.0024749995
100
AcDbArc
 50
359.9999571957
 51
90.0000428043
  0
LINE
  5
276
100
AcDbEntity
  8
0
100
AcDbLine
 62
2
  6
CONTINUOUS
 10
13.4221787478
 20
2.5672823554
 11
13.3994327352
 21
2.5672823554
  0
ARC
  5
277
100
AcDbEntity
  8
0
100
AcDbCircle
 62
2
  6
CONTINUOUS
 10
13.3994327333
 20
2.5697573549
 40
0.0024749995
100
AcDbArc
 50
179.9999571957
 51
270.0000428043
  0
LINE
  5
278
100
AcDbEntity
  8
0
100
AcDbLine
 62
2
  6
CONTINUOUS
 10
13.3969577338
 20
2.5697573568
 11
13.3969577338
 21
2.5895573678
  0
ARC
  5
279
100
AcDbEntity
  8
0
100
AcDbCircle
 62
2
  6
CONTINUOUS
 10
13.3994327333
 20
2.5895573696
 40
0.0024749995
100
AcDbArc
 50
89.9999571957
 51
180.0000428043
  0
LINE
  5
27A
100
AcDbEntity
  8
0
100
AcDbLine
 62
2
  6
CONTINUOUS
 10
13.3994327352
 20
2.5920323691
 11
13.5490138181
 21
2.5920323691
  0
ARC
  5
27B
100
AcDbEntity
  8
0
100
AcDbCircle
 62
2
  6
CONTINUOUS
 10
13.5463505148
 20
2.4094934586
 40
0.1825583387
100
AcDbArc
 50
79.8618509324
 51
89.1640948679
  0
ARC
  5
27C
100
AcDbEntity
  8
0
100
AcDbCircle
 62
2
  6
CONTINUOUS
 10
13.5726548052
 20
2.5503169747
 40
0.039319019
100
AcDbArc
 50
59.1202086415
 51
81.4730239328
  0
ARC
  5
27D
100
AcDbEntity
  8
0
100
AcDbCircle
 62
2
  6
CONTINUOUS
 10
13.5783142014
 20
2.5566516438
 40
0.0310192946
100
AcDbArc
 50
34.7540871
 51
62.0879016178
  0
ARC
  5
27E
100
AcDbEntity
  8
0
100
AcDbCircle
 62
2
  6
CONTINUOUS
 10
13.5900029525
 20
2.565201245
 40
0.0165459396
100
AcDbArc
 50
1.548452892
 51
33.5033152417
  0
ARC
  5
27F
100
AcDbEntity
  8
0
100
AcDbCircle
 62
2
  6
CONTINUOUS
 10
13.5932995477
 20
2.5653696972
 40
0.0132462337
100
AcDbArc
 50
331.1510006998
 51
1.205404301
  0
ARC
  5
280
100
AcDbEntity
  8
0
100
AcDbCircle
 62
2
  6
CONTINUOUS
 10
13.5822888914
 20
2.5720482849
 40
0.0261183659
100
AcDbArc
 50
305.6373831893
 51
329.9727629745
  0
ARC
  5
281
100
AcDbEntity
  8
0
100
AcDbCircle
 62
2
  6
CONTINUOUS
 10
13.5519569538
 20
2.6152551345
 40
0.0789082104
100
AcDbArc
 50
292.906155071
 51
305.2574666259
  0
ARC
  5
282
100
AcDbEntity
  8
0
100
AcDbCircle
 62
2
  6
CONTINUOUS
 10
13.5282557878
 20
2.4386010294
 40
0.117346916
100
AcDbArc
 50
58.614769177
 51
62.3737227606
  0
ARC
  5
283
100
AcDbEntity
  8
0
100
AcDbCircle
 62
2
  6
CONTINUOUS
 10
13.5761387404
 20
2.5167282896
 40
0.0257145923
100
AcDbArc
 50
39.3804255939
 51
59.0361096173
  0
ARC
  5
284
100
AcDbEntity
  8
0
100
AcDbCircle
 62
2
  6
CONTINUOUS
 10
13.5750183849
 20
2.5166552064
 40
0.0266349791
100
AcDbArc
 50
20.3630922153
 51
37.9727053099
  0
ARC
  5
285
100
AcDbEntity
  8
0
100
AcDbCircle
 62
2
  6
CONTINUOUS
 10
13.5571178432
 20
2.509473798
 40
0.0459185159
100
AcDbArc
 50
15.6740290068
 51
20.9917271228
  0
ARC
  5
286
100
AcDbEntity
  8
0
100
AcDbCircle
 62
2
  6
CONTINUOUS
 10
13.6156881783
 20
2.525116781
 40
0.0147197649
100
AcDbArc
 50
192.7054516565
 51
206.0594861022
  0
ARC
  5
287
100
AcDbEntity
  8
0
100
AcDbCircle
 62
2
  6
CONTINUOUS
 10
13.6071938412
 20
2.5209082945
 40
0.0052403997
100
AcDbArc
 50
205.5232099488
 51
227.5054868079
  0
ARC
  5
288
100
AcDbEntity
  8
0
100
AcDbCircle
 62
2
  6
CONTINUOUS
 10
13.6054655419
 20
2.5190929218
 40
0.0027347709
100
AcDbArc
 50
228.5117626737
 51
266.1485845754
  0
LINE
  5
289
100
AcDbEntity
  8
0
100
AcDbLine
 62
2
  6
CONTINUOUS
 10
13.6052818493
 20
2.5163643272
 11
13.60639085
 21
2.5163643272
  0
ARC
  5
28A
100
AcDbEntity
  8
0
100
AcDbCircle
 62
2
  6
CONTINUOUS
 10
13.6063292954
 20
2.5296129864
 40
0.0132488022
100
AcDbArc
 50
270.266200055
 51
281.2404888597
  0
ARC
  5
28B
100
AcDbEntity
  8
0
100
AcDbCircle
 62
2
  6
CONTINUOUS
 10
13.6075235364
 20
2.5238762928
 40
0.0073895522
100
AcDbArc
 50
280.8288201977
 51
305.0837508495
  0
ARC
  5
28C
100
AcDbEntity
  8
0
100
AcDbCircle
 62
2
  6
CONTINUOUS
 10
13.607924718
 20
2.5230254464
 40
0.0064647042
100
AcDbArc
 50
306.5086174083
 51
340.2162360092
  0
ARC
  5
28D
100
AcDbEntity
  8
0
100
AcDbCircle
 62
2
  6
CONTINUOUS
 10
13.6027235414
 20
2.524769508
 40
0.0119498009
100
AcDbArc
 50
340.7883861657
 51
1.1691452593
  0
LINE
  5
28E
100
AcDbEntity
  8
0
100
AcDbLine
 62
2
  6
CONTINUOUS
 10
13.6146708546
 20
2.525013332
 11
13.6146708546
 21
2.5276393334
  0
ARC
  5
28F
100
AcDbEntity
  8
0
100
AcDbCircle
 62
2
  6
CONTINUOUS
 10
13.6171458541
 20
2.5276393353
 40
0.0024749995
100
AcDbArc
 50
89.9999571957
 51
180.0000428043
  0
LINE
  5
290
100
AcDbEntity
  8
0
100
AcDbLine
 62
2
  6
CONTINUOUS
 10
13.6171458559
 20
2.5301143348
 11
13.6292558626
 21
2.5301143348
  0
ARC
  5
291
100
AcDbEntity
  8
0
100
AcDbCircle
 62
2
  6
CONTINUOUS
 10
13.6292558645
 20
2.5276393353
 40
0.0024749995
100
AcDbArc
 50
359.9999571957
 51
90.0000428043
  0
LINE
  5
292
100
AcDbEntity
  8
0
100
AcDbLine
 62
2
  6
CONTINUOUS
 10
13.631730864
 20
2.5276393334
 11
13.631730864
 21
2.516087327
  0
ARC
  5
293
100
AcDbEntity
  8
0
100
AcDbCircle
 62
2
  6
CONTINUOUS
 10
13.6141751675
 20
2.5161916447
 40
0.0175560065
100
AcDbArc
 50
332.2279060967
 51
359.6595469939
  0
ARC
  5
294
100
AcDbEntity
  8
0
100
AcDbCircle
 62
2
  6
CONTINUOUS
 10
13.6048681567
 20
2.5210861501
 40
0.0280715479
100
AcDbArc
 50
308.5071794988
 51
332.2400656899
  0
ARC
  5
295
100
AcDbEntity
  8
0
100
AcDbCircle
 62
2
  6
CONTINUOUS
 10
13.5978759713
 20
2.5286873679
 40
0.0383802683
100
AcDbArc
 50
288.7656836787
 51
309.6104317088
  0
ARC
  5
296
100
AcDbEntity
  8
0
100
AcDbCircle
 62
2
  6
CONTINUOUS
 10
13.6036139387
 20
2.5111006186
 40
0.0198837666
100
AcDbArc
 50
271.8586572978
 51
289.4131338543
  0
LINE
  5
297
100
AcDbEntity
  8
0
100
AcDbLine
 62
2
  6
CONTINUOUS
 10
13.6042588488
 20
2.4912273132
 11
13.5568948225
 21
2.4912273132
  0
ARC
  5
298
100
AcDbEntity
  8
0
100
AcDbCircle
 62
2
  6
CONTINUOUS
 10
13.5577001432
 20
2.5085494649
 40
0.0173408616
100
AcDbArc
 50
232.4713476722
 51
267.338189944
  0
ARC
  5
299
100
AcDbEntity
  8
0
100
AcDbCircle
 62
2
  6
CONTINUOUS
 10
13.5607987082
 20
2.5143997688
 40
0.0238935861
100
AcDbArc
 50
209.8247607259
 51
235.1255079367
  0
ARC
  5
29A
100
AcDbEntity
  8
0
100
AcDbCircle
 62
2
  6
CONTINUOUS
 10
13.5295131508
 20
2.5629115009
 40
0.0110815393
100
AcDbArc
 50
306.758405961
 51
320.4502234234
  0
ARC
  5
29B
100
AcDbEntity
  8
0
100
AcDbCircle
 62
2
  6
CONTINUOUS
 10
13.5238839599
 20
2.5706523294
 40
0.0206523367
100
AcDbArc
 50
289.6883413472
 51
306.4184925496
  0
ARC
  5
29C
100
AcDbEntity
  8
0
100
AcDbCircle
 62
2
  6
CONTINUOUS
 10
13.5219564542
 20
2.5750459767
 40
0.0254407115
100
AcDbArc
 50
270.7327484175
 51
290.441894219
  0
LINE
  5
29D
100
AcDbEntity
  8
0
100
AcDbLine
 62
2
  6
CONTINUOUS
 10
13.5222818033
 20
2.5496073456
 11
13.4883447845
 21
2.5496073456
  0
ARC
  5
29E
100
AcDbEntity
  8
0
100
AcDbCircle
 62
2
  6
CONTINUOUS
 10
13.4883447827
 20
2.5520823451
 40
0.0024749995
100
AcDbArc
 50
179.9999571957
 51
270.0000428043
  0
LINE
  5
29F
100
AcDbEntity
  8
0
100
AcDbLine
 62
2
  6
CONTINUOUS
 10
13.4858697831
 20
2.552082347
 11
13.4858697831
 21
2.564807354
  0
ARC
  5
2A0
100
AcDbEntity
  8
0
100
AcDbCircle
 62
2
  6
CONTINUOUS
 10
13.4883447827
 20
2.5648073559
 40
0.0024749995
100
AcDbArc
 50
89.9999571957
 51
180.0000428043
  0
LINE
  5
2A1
100
AcDbEntity
  8
0
100
AcDbLine
 62
2
  6
CONTINUOUS
 10
13.4883447845
 20
2.5672823554
 11
13.5251458049
 21
2.5672823554
  0
ARC
  5
2A2
100
AcDbEntity
  8
0
100
AcDbCircle
 62
2
  6
CONTINUOUS
 10
13.5236009174
 20
2.5388278764
 40
0.0284963867
100
AcDbArc
 50
70.3834917948
 51
86.8922743861
  0
ARC
  5
2A3
100
AcDbEntity
  8
0
100
AcDbCircle
 62
2
  6
CONTINUOUS
 10
13.5284605274
 20
2.5518696094
 40
0.0145814632
100
AcDbArc
 50
54.6746025112
 51
71.1660573124
  0
ARC
  5
2A4
100
AcDbEntity
  8
0
100
AcDbCircle
 62
2
  6
CONTINUOUS
 10
13.5335900184
 20
2.5587235346
 40
0.0060275915
100
AcDbArc
 50
20.9055592135
 51
56.7851676243
  0
ARC
  5
2A5
100
AcDbEntity
  8
0
100
AcDbCircle
 62
2
  6
CONTINUOUS
 10
13.5348905773
 20
2.5593838168
 40
0.0045795888
100
AcDbArc
 50
355.6235353944
 51
18.9942678268
  0
ARC
  5
2A6
100
AcDbEntity
  8
0
100
AcDbCircle
 62
2
  6
CONTINUOUS
 10
13.533683767
 20
2.559677593
 40
0.0058087709
100
AcDbArc
 50
318.8515287446
 51
353.6422345323
  0
LINE
  5
2A7
100
AcDbEntity
  8
0
100
AcDbLine
 62
2
  6
CONTINUOUS
 10
12.672340332
 20
2.5920323691
 11
12.7727983877
 21
2.5920323691
  0
ARC
  5
2A8
100
AcDbEntity
  8
0
100
AcDbCircle
 62
2
  6
CONTINUOUS
 10
12.7727985224
 20
2.5895582013
 40
0.0024741678
100
AcDbArc
 50
46.3477981899
 51
90.0031206038
  0
LINE
  5
2A9
100
AcDbEntity
  8
0
100
AcDbLine
 62
2
  6
CONTINUOUS
 10
12.7745063886
 20
2.5913483688
 11
12.8345394219
 21
2.534068337
  0
ARC
  5
2AA
100
AcDbEntity
  8
0
100
AcDbCircle
 62
2
  6
CONTINUOUS
 10
12.8362481229
 20
2.5358592748
 40
0.0024753014
100
AcDbArc
 50
226.3461263059
 51
0.0014637321
  0
LINE
  5
2AB
100
AcDbEntity
  8
0
100
AcDbLine
 62
2
  6
CONTINUOUS
 10
12.8387234242
 20
2.535859338
 11
12.8387234242
 21
2.564807354
  0
ARC
  5
2AC
100
AcDbEntity
  8
0
100
AcDbCircle
 62
2
  6
CONTINUOUS
 10
12.8362484247
 20
2.5648073559
 40
0.0024749995
100
AcDbArc
 50
359.9999571957
 51
90.0000428043
  0
LINE
  5
2AD
100
AcDbEntity
  8
0
100
AcDbLine
 62
2
  6
CONTINUOUS
 10
12.8362484229
 20
2.5672823554
 11
12.8174724125
 21
2.5672823554
  0
ARC
  5
2AE
100
AcDbEntity
  8
0
100
AcDbCircle
 62
2
  6
CONTINUOUS
 10
12.8174724106
 20
2.5697573549
 40
0.0024749995
100
AcDbArc
 50
179.9999571957
 51
270.0000428043
  0
LINE
  5
2AF
100
AcDbEntity
  8
0
100
AcDbLine
 62
2
  6
CONTINUOUS
 10
12.8149974111
 20
2.5697573568
 11
12.8149974111
 21
2.5895573678
  0
ARC
  5
2B0
100
AcDbEntity
  8
0
100
AcDbCircle
 62
2
  6
CONTINUOUS
 10
12.8174724106
 20
2.5895573696
 40
0.0024749995
100
AcDbArc
 50
89.9999571957
 51
180.0000428043
  0
LINE
  5
2B1
100
AcDbEntity
  8
0
100
AcDbLine
 62
2
  6
CONTINUOUS
 10
12.8174724125
 20
2.5920323691
 11
12.8914734535
 21
2.5920323691
  0
ARC
  5
2B2
100
AcDbEntity
  8
0
100
AcDbCircle
 62
2
  6
CONTINUOUS
 10
12.8914734553
 20
2.5895573696
 40
0.0024749995
100
AcDbArc
 50
359.9999571957
 51
90.0000428043
  0
LINE
  5
2B3
100
AcDbEntity
  8
0
100
AcDbLine
 62
2
  6
CONTINUOUS
 10
12.8939484549
 20
2.5895573678
 11
12.8939484549
 21
2.5697573568
  0
ARC
  5
2B4
100
AcDbEntity
  8
0
100
AcDbCircle
 62
2
  6
CONTINUOUS
 10
12.8914734553
 20
2.5697573549
 40
0.0024749995
100
AcDbArc
 50
269.9999571957
 51
0.0000428043
  0
LINE
  5
2B5
100
AcDbEntity
  8
0
100
AcDbLine
 62
2
  6
CONTINUOUS
 10
12.8914734535
 20
2.5672823554
 11
12.8735404436
 21
2.5672823554
  0
ARC
  5
2B6
100
AcDbEntity
  8
0
100
AcDbCircle
 62
2
  6
CONTINUOUS
 10
12.8735404417
 20
2.5648073559
 40
0.0024749995
100
AcDbArc
 50
89.9999571957
 51
180.0000428043
  0
LINE
  5
2B7
100
AcDbEntity
  8
0
100
AcDbLine
 62
2
  6
CONTINUOUS
 10
12.8710654422
 20
2.564807354
 11
12.8710654422
 21
2.4937023146
  0
ARC
  5
2B8
100
AcDbEntity
  8
0
100
AcDbCircle
 62
2
  6
CONTINUOUS
 10
12.8685904427
 20
2.4937023128
 40
0.0024749995
100
AcDbArc
 50
269.9999571957
 51
0.0000428043
  0
LINE
  5
2B9
100
AcDbEntity
  8
0
100
AcDbLine
 62
2
  6
CONTINUOUS
 10
12.8685904408
 20
2.4912273132
 11
12.7943853997
 21
2.4912273132
  0
ARC
  5
2BA
100
AcDbEntity
  8
0
100
AcDbCircle
 62
2
  6
CONTINUOUS
 10
12.7943847649
 20
2.4937027294
 40
0.0024754162
100
AcDbArc
 50
226.3593695813
 51
270.0146919953
  0
LINE
  5
2BB
100
AcDbEntity
  8
0
100
AcDbLine
 62
2
  6
CONTINUOUS
 10
12.7926763987
 20
2.4919113136
 11
12.7293963636
 21
2.5522893471
  0
ARC
  5
2BC
100
AcDbEntity
  8
0
100
AcDbCircle
 62
2
  6
CONTINUOUS
 10
12.7276876627
 20
2.5504984093
 40
0.0024753014
100
AcDbArc
 50
46.3461263059
 51
180.0014637321
  0
LINE
  5
2BD
100
AcDbEntity
  8
0
100
AcDbLine
 62
2
  6
CONTINUOUS
 10
12.7252123613
 20
2.5504983461
 11
12.7252123613
 21
2.5184523283
  0
ARC
  5
2BE
100
AcDbEntity
  8
0
100
AcDbCircle
 62
2
  6
CONTINUOUS
 10
12.7276873608
 20
2.5184523265
 40
0.0024749995
100
AcDbArc
 50
179.9999571957
 51
270.0000428043
  0
LINE
  5
2BF
100
AcDbEntity
  8
0
100
AcDbLine
 62
2
  6
CONTINUOUS
 10
12.7276873627
 20
2.515977327
 11
12.7480043739
 21
2.515977327
  0
ARC
  5
2C0
100
AcDbEntity
  8
0
100
AcDbCircle
 62
2
  6
CONTINUOUS
 10
12.7480043758
 20
2.5135023274
 40
0.0024749995
100
AcDbArc
 50
359.9999571957
 51
90.0000428043
  0
LINE
  5
2C1
100
AcDbEntity
  8
0
100
AcDbLine
 62
2
  6
CONTINUOUS
 10
12.7504793753
 20
2.5135023256
 11
12.7504793753
 21
2.4937023146
  0
ARC
  5
2C2
100
AcDbEntity
  8
0
100
AcDbCircle
 62
2
  6
CONTINUOUS
 10
12.7480043758
 20
2.4937023128
 40
0.0024749995
100
AcDbArc
 50
269.9999571957
 51
0.0000428043
  0
LINE
  5
2C3
100
AcDbEntity
  8
0
100
AcDbLine
 62
2
  6
CONTINUOUS
 10
12.7480043739
 20
2.4912273132
 11
12.672340332
 21
2.4912273132
  0
ARC
  5
2C4
100
AcDbEntity
  8
0
100
AcDbCircle
 62
2
  6
CONTINUOUS
 10
12.6723403301
 20
2.4937023128
 40
0.0024749995
100
AcDbArc
 50
179.9999571957
 51
270.0000428043
  0
LINE
  5
2C5
100
AcDbEntity
  8
0
100
AcDbLine
 62
2
  6
CONTINUOUS
 10
12.6698653306
 20
2.4937023146
 11
12.6698653306
 21
2.5135023256
  0
ARC
  5
2C6
100
AcDbEntity
  8
0
100
AcDbCircle
 62
2
  6
CONTINUOUS
 10
12.6723403301
 20
2.5135023274
 40
0.0024749995
100
AcDbArc
 50
89.9999571957
 51
180.0000428043
  0
LINE
  5
2C7
100
AcDbEntity
  8
0
100
AcDbLine
 62
2
  6
CONTINUOUS
 10
12.672340332
 20
2.515977327
 11
12.6909873423
 21
2.515977327
  0
ARC
  5
2C8
100
AcDbEntity
  8
0
100
AcDbCircle
 62
2
  6
CONTINUOUS
 10
12.6909873442
 20
2.5184523265
 40
0.0024749995
100
AcDbArc
 50
269.9999571957
 51
0.0000428043
  0
LINE
  5
2C9
100
AcDbEntity
  8
0
100
AcDbLine
 62
2
  6
CONTINUOUS
 10
12.6934623437
 20
2.5184523283
 11
12.6934623437
 21
2.564807354
  0
ARC
  5
2CA
100
AcDbEntity
  8
0
100
AcDbCircle
 62
2
  6
CONTINUOUS
 10
12.6909873442
 20
2.5648073559
 40
0.0024749995
100
AcDbArc
 50
359.9999571957
 51
90.0000428043
  0
LINE
  5
2CB
100
AcDbEntity
  8
0
100
AcDbLine
 62
2
  6
CONTINUOUS
 10
12.6909873423
 20
2.5672823554
 11
12.672340332
 21
2.5672823554
  0
ARC
  5
2CC
100
AcDbEntity
  8
0
100
AcDbCircle
 62
2
  6
CONTINUOUS
 10
12.6723403301
 20
2.5697573549
 40
0.0024749995
100
AcDbArc
 50
179.9999571957
 51
270.0000428043
  0
LINE
  5
2CD
100
AcDbEntity
  8
0
100
AcDbLine
 62
2
  6
CONTINUOUS
 10
12.6698653306
 20
2.5697573568
 11
12.6698653306
 21
2.5895573678
  0
ARC
  5
2CE
100
AcDbEntity
  8
0
100
AcDbCircle
 62
2
  6
CONTINUOUS
 10
12.6723403301
 20
2.5895573696
 40
0.0024749995
100
AcDbArc
 50
89.9999571957
 51
180.0000428043
  0
LINE
  5
2CF
100
AcDbEntity
  8
0
100
AcDbLine
 62
2
  6
CONTINUOUS
 10
12.5246402501
 20
2.5655893545
 11
12.5175232461
 21
2.5543723483
  0
ARC
  5
2D0
100
AcDbEntity
  8
0
100
AcDbCircle
 62
2
  6
CONTINUOUS
 10
12.519613138
 20
2.5530463862
 40
0.0024750401
100
AcDbArc
 50
147.6063258012
 51
270.0025305754
  0
LINE
  5
2D1
100
AcDbEntity
  8
0
100
AcDbLine
 62
2
  6
CONTINUOUS
 10
12.5196132473
 20
2.5505713461
 11
12.5401702587
 21
2.5505713461
  0
ARC
  5
2D2
100
AcDbEntity
  8
0
100
AcDbCircle
 62
2
  6
CONTINUOUS
 10
12.5401702375
 20
2.5530465533
 40
0.0024752071
100
AcDbArc
 50
270.0004896793
 51
32.9089806818
  0
LINE
  5
2D3
100
AcDbEntity
  8
0
100
AcDbLine
 62
2
  6
CONTINUOUS
 10
12.5422482598
 20
2.5543913483
 11
12.5349892558
 21
2.5656073545
  0
ARC
  5
2D4
100
AcDbEntity
  8
0
100
AcDbCircle
 62
2
  6
CONTINUOUS
 10
12.532910715
 20
2.564262895
 40
0.0024754602
100
AcDbArc
 50
32.8959418573
 51
89.9875097202
  0
LINE
  5
2D5
100
AcDbEntity
  8
0
100
AcDbLine
 62
2
  6
CONTINUOUS
 10
12.5329112547
 20
2.5667383551
 11
12.5267302512
 21
2.5667383551
  0
ARC
  5
2D6
100
AcDbEntity
  8
0
100
AcDbCircle
 62
2
  6
CONTINUOUS
 10
12.5267301809
 20
2.5642631548
 40
0.0024752003
100
AcDbArc
 50
89.998372645
 51
147.602165307
  0
LINE
  5
2D7
100
AcDbEntity
  8
0
100
AcDbLine
 62
2
  6
CONTINUOUS
 10
12.548053263
 20
2.5284903339
 11
12.5536792662
 21
2.5197973291
  0
ARC
  5
2D8
100
AcDbEntity
  8
0
100
AcDbCircle
 62
2
  6
CONTINUOUS
 10
12.5516012439
 20
2.5184525341
 40
0.0024752071
100
AcDbArc
 50
270.0004896794
 51
32.9089806818
  0
LINE
  5
2D9
100
AcDbEntity
  8
0
100
AcDbLine
 62
2
  6
CONTINUOUS
 10
12.551601265
 20
2.515977327
 11
12.537150257
 21
2.515977327
  0
ARC
  5
2DA
100
AcDbEntity
  8
0
100
AcDbCircle
 62
2
  6
CONTINUOUS
 10
12.5371502552
 20
2.5135023274
 40
0.0024749995
100
AcDbArc
 50
89.9999571957
 51
180.0000428043
  0
LINE
  5
2DB
100
AcDbEntity
  8
0
100
AcDbLine
 62
2
  6
CONTINUOUS
 10
12.5346752556
 20
2.5135023256
 11
12.5346752556
 21
2.4937023146
  0
ARC
  5
2DC
100
AcDbEntity
  8
0
100
AcDbCircle
 62
2
  6
CONTINUOUS
 10
12.5371502552
 20
2.4937023128
 40
0.0024749995
100
AcDbArc
 50
179.9999571957
 51
270.0000428043
  0
LINE
  5
2DD
100
AcDbEntity
  8
0
100
AcDbLine
 62
2
  6
CONTINUOUS
 10
12.537150257
 20
2.4912273132
 11
12.6424313154
 21
2.4912273132
  0
ARC
  5
2DE
100
AcDbEntity
  8
0
100
AcDbCircle
 62
2
  6
CONTINUOUS
 10
12.6424313172
 20
2.4937023128
 40
0.0024749995
100
AcDbArc
 50
269.9999571957
 51
0.0000428043
  0
LINE
  5
2DF
100
AcDbEntity
  8
0
100
AcDbLine
 62
2
  6
CONTINUOUS
 10
12.6449063168
 20
2.4937023146
 11
12.6449063168
 21
2.5135023256
  0
ARC
  5
2E0
100
AcDbEntity
  8
0
100
AcDbCircle
 62
2
  6
CONTINUOUS
 10
12.6424313172
 20
2.5135023274
 40
0.0024749995
100
AcDbArc
 50
359.9999571957
 51
90.0000428043
  0
LINE
  5
2E1
100
AcDbEntity
  8
0
100
AcDbLine
 62
2
  6
CONTINUOUS
 10
12.6424313154
 20
2.515977327
 11
12.6224153043
 21
2.515977327
  0
ARC
  5
2E2
100
AcDbEntity
  8
0
100
AcDbCircle
 62
2
  6
CONTINUOUS
 10
12.6224154248
 20
2.518451368
 40
0.002474041
100
AcDbArc
 50
212.9056413127
 51
269.9972091756
  0
LINE
  5
2E3
100
AcDbEntity
  8
0
100
AcDbLine
 62
2
  6
CONTINUOUS
 10
12.6203383031
 20
2.5171073276
 11
12.5725822767
 21
2.5909023685
  0
ARC
  5
2E4
100
AcDbEntity
  8
0
100
AcDbCircle
 62
2
  6
CONTINUOUS
 10
12.570504655
 20
2.589557409
 40
0.0024749602
100
AcDbArc
 50
32.9172174468
 51
90.0087853097
  0
LINE
  5
2E5
100
AcDbEntity
  8
0
100
AcDbLine
 62
2
  6
CONTINUOUS
 10
12.5705042755
 20
2.5920323691
 11
12.5133292438
 21
2.5920323691
  0
ARC
  5
2E6
100
AcDbEntity
  8
0
100
AcDbCircle
 62
2
  6
CONTINUOUS
 10
12.5133291735
 20
2.5895571688
 40
0.0024752003
100
AcDbArc
 50
89.9983726451
 51
147.602165307
  0
LINE
  5
2E7
100
AcDbEntity
  8
0
100
AcDbLine
 62
2
  6
CONTINUOUS
 10
12.5112392426
 20
2.5908833685
 11
12.4644392167
 21
2.5171263276
  0
ARC
  5
2E8
100
AcDbEntity
  8
0
100
AcDbCircle
 62
2
  6
CONTINUOUS
 10
12.4623492858
 20
2.5184525273
 40
0.0024752003
100
AcDbArc
 50
269.9983726451
 51
327.602165307
  0
LINE
  5
2E9
100
AcDbEntity
  8
0
100
AcDbLine
 62
2
  6
CONTINUOUS
 10
12.4623492155
 20
2.515977327
 11
12.4394882028
 21
2.515977327
  0
ARC
  5
2EA
100
AcDbEntity
  8
0
100
AcDbCircle
 62
2
  6
CONTINUOUS
 10
12.439488201
 20
2.5135023274
 40
0.0024749995
100
AcDbArc
 50
89.9999571957
 51
180.0000428043
  0
LINE
  5
2EB
100
AcDbEntity
  8
0
100
AcDbLine
 62
2
  6
CONTINUOUS
 10
12.4370132015
 20
2.5135023256
 11
12.4370132015
 21
2.4937023146
  0
ARC
  5
2EC
100
AcDbEntity
  8
0
100
AcDbCircle
 62
2
  6
CONTINUOUS
 10
12.439488201
 20
2.4937023128
 40
0.0024749995
100
AcDbArc
 50
179.9999571957
 51
270.0000428043
  0
LINE
  5
2ED
100
AcDbEntity
  8
0
100
AcDbLine
 62
2
  6
CONTINUOUS
 10
12.4394882028
 20
2.4912273132
 11
12.5168642458
 21
2.4912273132
  0
ARC
  5
2EE
100
AcDbEntity
  8
0
100
AcDbCircle
 62
2
  6
CONTINUOUS
 10
12.5168642476
 20
2.4937023128
 40
0.0024749995
100
AcDbArc
 50
269.9999571957
 51
0.0000428043
  0
LINE
  5
2EF
100
AcDbEntity
  8
0
100
AcDbLine
 62
2
  6
CONTINUOUS
 10
12.5193392471
 20
2.4937023146
 11
12.5193392471
 21
2.5135023256
  0
ARC
  5
2F0
100
AcDbEntity
  8
0
100
AcDbCircle
 62
2
  6
CONTINUOUS
 10
12.5168642476
 20
2.5135023274
 40
0.0024749995
100
AcDbArc
 50
359.9999571957
 51
90.0000428043
  0
LINE
  5
2F1
100
AcDbEntity
  8
0
100
AcDbLine
 62
2
  6
CONTINUOUS
 10
12.5168642458
 20
2.515977327
 11
12.5055812395
 21
2.515977327
  0
ARC
  5
2F2
100
AcDbEntity
  8
0
100
AcDbCircle
 62
2
  6
CONTINUOUS
 10
12.5055811302
 20
2.518452367
 40
0.0024750401
100
AcDbArc
 50
147.6063258011
 51
270.0025305754
  0
LINE
  5
2F3
100
AcDbEntity
  8
0
100
AcDbLine
 62
2
  6
CONTINUOUS
 10
12.5034912383
 20
2.5197783291
 11
12.5090072414
 21
2.5284723339
  0
ARC
  5
2F4
100
AcDbEntity
  8
0
100
AcDbCircle
 62
2
  6
CONTINUOUS
 10
12.5110971723
 20
2.5271461342
 40
0.0024752003
100
AcDbArc
 50
89.998372645
 51
147.602165307
  0
LINE
  5
2F5
100
AcDbEntity
  8
0
100
AcDbLine
 62
2
  6
CONTINUOUS
 10
12.5110972426
 20
2.5296213345
 11
12.5459752619
 21
2.5296213345
  0
ARC
  5
2F6
100
AcDbEntity
  8
0
100
AcDbCircle
 62
2
  6
CONTINUOUS
 10
12.5459747223
 20
2.5271458744
 40
0.0024754602
100
AcDbArc
 50
32.8959418573
 51
89.9875097202
  0
LINE
  5
2F7
100
AcDbEntity
  8
0
100
AcDbLine
 62
2
  6
CONTINUOUS
 10
12.9205934696
 20
2.5920323691
 11
13.0210515254
 21
2.5920323691
  0
ARC
  5
2F8
100
AcDbEntity
  8
0
100
AcDbCircle
 62
2
  6
CONTINUOUS
 10
13.0210516601
 20
2.5895582013
 40
0.0024741678
100
AcDbArc
 50
46.3477981899
 51
90.0031206038
  0
LINE
  5
2F9
100
AcDbEntity
  8
0
100
AcDbLine
 62
2
  6
CONTINUOUS
 10
13.0227595263
 20
2.5913483688
 11
13.0827925596
 21
2.534068337
  0
ARC
  5
2FA
100
AcDbEntity
  8
0
100
AcDbCircle
 62
2
  6
CONTINUOUS
 10
13.0845012605
 20
2.5358592748
 40
0.0024753014
100
AcDbArc
 50
226.3461263059
 51
0.0014637321
  0
LINE
  5
2FB
100
AcDbEntity
  8
0
100
AcDbLine
 62
2
  6
CONTINUOUS
 10
13.0869765619
 20
2.535859338
 11
13.0869765619
 21
2.564807354
  0
ARC
  5
2FC
100
AcDbEntity
  8
0
100
AcDbCircle
 62
2
  6
CONTINUOUS
 10
13.0845015624
 20
2.5648073559
 40
0.0024749995
100
AcDbArc
 50
359.9999571957
 51
90.0000428043
  0
LINE
  5
2FD
100
AcDbEntity
  8
0
100
AcDbLine
 62
2
  6
CONTINUOUS
 10
13.0845015605
 20
2.5672823554
 11
13.0657255501
 21
2.5672823554
  0
ARC
  5
2FE
100
AcDbEntity
  8
0
100
AcDbCircle
 62
2
  6
CONTINUOUS
 10
13.0657255483
 20
2.5697573549
 40
0.0024749995
100
AcDbArc
 50
179.9999571957
 51
270.0000428043
  0
LINE
  5
2FF
100
AcDbEntity
  8
0
100
AcDbLine
 62
2
  6
CONTINUOUS
 10
13.0632505488
 20
2.5697573568
 11
13.0632505488
 21
2.5895573678
  0
ARC
  5
300
100
AcDbEntity
  8
0
100
AcDbCircle
 62
2
  6
CONTINUOUS
 10
13.0657255483
 20
2.5895573696
 40
0.0024749995
100
AcDbArc
 50
89.9999571957
 51
180.0000428043
  0
LINE
  5
301
100
AcDbEntity
  8
0
100
AcDbLine
 62
2
  6
CONTINUOUS
 10
13.0657255501
 20
2.5920323691
 11
13.1397265912
 21
2.5920323691
  0
ARC
  5
302
100
AcDbEntity
  8
0
100
AcDbCircle
 62
2
  6
CONTINUOUS
 10
13.139726593
 20
2.5895573696
 40
0.0024749995
100
AcDbArc
 50
359.9999571957
 51
90.0000428043
  0
LINE
  5
303
100
AcDbEntity
  8
0
100
AcDbLine
 62
2
  6
CONTINUOUS
 10
13.1422015925
 20
2.5895573678
 11
13.1422015925
 21
2.5697573568
  0
ARC
  5
304
100
AcDbEntity
  8
0
100
AcDbCircle
 62
2
  6
CONTINUOUS
 10
13.139726593
 20
2.5697573549
 40
0.0024749995
100
AcDbArc
 50
269.9999571957
 51
0.0000428042
  0
LINE
  5
305
100
AcDbEntity
  8
0
100
AcDbLine
 62
2
  6
CONTINUOUS
 10
13.1397265912
 20
2.5672823554
 11
13.1217935812
 21
2.5672823554
  0
ARC
  5
306
100
AcDbEntity
  8
0
100
AcDbCircle
 62
2
  6
CONTINUOUS
 10
13.1217935794
 20
2.5648073559
 40
0.0024749995
100
AcDbArc
 50
89.9999571957
 51
180.0000428042
  0
LINE
  5
307
100
AcDbEntity
  8
0
100
AcDbLine
 62
2
  6
CONTINUOUS
 10
13.1193185799
 20
2.564807354
 11
13.1193185799
 21
2.4937023146
  0
ARC
  5
308
100
AcDbEntity
  8
0
100
AcDbCircle
 62
2
  6
CONTINUOUS
 10
13.1168435803
 20
2.4937023128
 40
0.0024749995
100
AcDbArc
 50
269.9999571957
 51
0.0000428043
  0
LINE
  5
309
100
AcDbEntity
  8
0
100
AcDbLine
 62
2
  6
CONTINUOUS
 10
13.1168435785
 20
2.4912273132
 11
13.0426375373
 21
2.4912273132
  0
ARC
  5
30A
100
AcDbEntity
  8
0
100
AcDbCircle
 62
2
  6
CONTINUOUS
 10
13.0426374026
 20
2.493701481
 40
0.0024741678
100
AcDbArc
 50
226.3477981898
 51
270.0031206038
  0
LINE
  5
30B
100
AcDbEntity
  8
0
100
AcDbLine
 62
2
  6
CONTINUOUS
 10
13.0409295364
 20
2.4919113136
 11
12.9776495013
 21
2.5522893471
  0
ARC
  5
30C
100
AcDbEntity
  8
0
100
AcDbCircle
 62
2
  6
CONTINUOUS
 10
12.9759408003
 20
2.5504984093
 40
0.0024753014
100
AcDbArc
 50
46.3461263059
 51
180.0014637321
  0
LINE
  5
30D
100
AcDbEntity
  8
0
100
AcDbLine
 62
2
  6
CONTINUOUS
 10
12.973465499
 20
2.5504983461
 11
12.973465499
 21
2.5184523283
  0
ARC
  5
30E
100
AcDbEntity
  8
0
100
AcDbCircle
 62
2
  6
CONTINUOUS
 10
12.9759404985
 20
2.5184523265
 40
0.0024749995
100
AcDbArc
 50
179.9999571957
 51
270.0000428043
  0
LINE
  5
30F
100
AcDbEntity
  8
0
100
AcDbLine
 62
2
  6
CONTINUOUS
 10
12.9759405003
 20
2.515977327
 11
12.9962575116
 21
2.515977327
  0
ARC
  5
310
100
AcDbEntity
  8
0
100
AcDbCircle
 62
2
  6
CONTINUOUS
 10
12.9962575135
 20
2.5135023274
 40
0.0024749995
100
AcDbArc
 50
359.9999571957
 51
90.0000428043
  0
LINE
  5
311
100
AcDbEntity
  8
0
100
AcDbLine
 62
2
  6
CONTINUOUS
 10
12.998732513
 20
2.5135023256
 11
12.998732513
 21
2.4937023146
  0
ARC
  5
312
100
AcDbEntity
  8
0
100
AcDbCircle
 62
2
  6
CONTINUOUS
 10
12.9962575135
 20
2.4937023128
 40
0.0024749995
100
AcDbArc
 50
269.9999571957
 51
0.0000428043
  0
LINE
  5
313
100
AcDbEntity
  8
0
100
AcDbLine
 62
2
  6
CONTINUOUS
 10
12.9962575116
 20
2.4912273132
 11
12.9205934696
 21
2.4912273132
  0
ARC
  5
314
100
AcDbEntity
  8
0
100
AcDbCircle
 62
2
  6
CONTINUOUS
 10
12.9205934678
 20
2.4937023128
 40
0.0024749995
100
AcDbArc
 50
179.9999571957
 51
270.0000428043
  0
LINE
  5
315
100
AcDbEntity
  8
0
100
AcDbLine
 62
2
  6
CONTINUOUS
 10
12.9181184683
 20
2.4937023146
 11
12.9181184683
 21
2.5135023256
  0
ARC
  5
316
100
AcDbEntity
  8
0
100
AcDbCircle
 62
2
  6
CONTINUOUS
 10
12.9205934678
 20
2.5135023274
 40
0.0024749995
100
AcDbArc
 50
89.9999571957
 51
180.0000428042
  0
LINE
  5
317
100
AcDbEntity
  8
0
100
AcDbLine
 62
2
  6
CONTINUOUS
 10
12.9205934696
 20
2.515977327
 11
12.93923948
 21
2.515977327
  0
ARC
  5
318
100
AcDbEntity
  8
0
100
AcDbCircle
 62
2
  6
CONTINUOUS
 10
12.9392394818
 20
2.5184523265
 40
0.0024749995
100
AcDbArc
 50
269.9999571957
 51
0.0000428043
  0
LINE
  5
319
100
AcDbEntity
  8
0
100
AcDbLine
 62
2
  6
CONTINUOUS
 10
12.9417144814
 20
2.5184523283
 11
12.9417144814
 21
2.564807354
  0
ARC
  5
31A
100
AcDbEntity
  8
0
100
AcDbCircle
 62
2
  6
CONTINUOUS
 10
12.9392394818
 20
2.5648073559
 40
0.0024749995
100
AcDbArc
 50
359.9999571957
 51
90.0000428043
  0
LINE
  5
31B
100
AcDbEntity
  8
0
100
AcDbLine
 62
2
  6
CONTINUOUS
 10
12.93923948
 20
2.5672823554
 11
12.9205934696
 21
2.5672823554
  0
ARC
  5
31C
100
AcDbEntity
  8
0
100
AcDbCircle
 62
2
  6
CONTINUOUS
 10
12.9205934678
 20
2.5697573549
 40
0.0024749995
100
AcDbArc
 50
179.9999571957
 51
270.0000428043
  0
LINE
  5
31D
100
AcDbEntity
  8
0
100
AcDbLine
 62
2
  6
CONTINUOUS
 10
12.9181184683
 20
2.5697573568
 11
12.9181184683
 21
2.5895573678
  0
ARC
  5
31E
100
AcDbEntity
  8
0
100
AcDbCircle
 62
2
  6
CONTINUOUS
 10
12.9205934678
 20
2.5895573696
 40
0.0024749995
100
AcDbArc
 50
89.9999571957
 51
180.0000428042
  0
LINE
  5
31F
100
AcDbEntity
  8
0
100
AcDbLine
 62
2
  6
CONTINUOUS
 10
13.2934226764
 20
2.5324773361
 11
13.2582556569
 21
2.5324773361
  0
ARC
  5
320
100
AcDbEntity
  8
0
100
AcDbCircle
 62
2
  6
CONTINUOUS
 10
13.2582556551
 20
2.5300023366
 40
0.0024749995
100
AcDbArc
 50
89.9999571957
 51
180.0000428043
  0
LINE
  5
321
100
AcDbEntity
  8
0
100
AcDbLine
 62
2
  6
CONTINUOUS
 10
13.2557806555
 20
2.5300023347
 11
13.2557806555
 21
2.5184523283
  0
ARC
  5
322
100
AcDbEntity
  8
0
100
AcDbCircle
 62
2
  6
CONTINUOUS
 10
13.2582556551
 20
2.5184523265
 40
0.0024749995
100
AcDbArc
 50
179.9999571957
 51
270.0000428043
  0
LINE
  5
323
100
AcDbEntity
  8
0
100
AcDbLine
 62
2
  6
CONTINUOUS
 10
13.2582556569
 20
2.515977327
 11
13.3232596929
 21
2.515977327
  0
ARC
  5
324
100
AcDbEntity
  8
0
100
AcDbCircle
 62
2
  6
CONTINUOUS
 10
13.3232596948
 20
2.5184523265
 40
0.0024749995
100
AcDbArc
 50
269.9999571957
 51
0.0000428043
  0
LINE
  5
325
100
AcDbEntity
  8
0
100
AcDbLine
 62
2
  6
CONTINUOUS
 10
13.3257346943
 20
2.5184523283
 11
13.3257346943
 21
2.5267023329
  0
ARC
  5
326
100
AcDbEntity
  8
0
100
AcDbCircle
 62
2
  6
CONTINUOUS
 10
13.3282096938
 20
2.5267023348
 40
0.0024749995
100
AcDbArc
 50
89.9999571957
 51
180.0000428043
  0
LINE
  5
327
100
AcDbEntity
  8
0
100
AcDbLine
 62
2
  6
CONTINUOUS
 10
13.3282096957
 20
2.5291773343
 11
13.3705287192
 21
2.5291773343
  0
ARC
  5
328
100
AcDbEntity
  8
0
100
AcDbCircle
 62
2
  6
CONTINUOUS
 10
13.370528721
 20
2.5267023348
 40
0.0024749995
100
AcDbArc
 50
359.9999571957
 51
90.0000428043
  0
LINE
  5
329
100
AcDbEntity
  8
0
100
AcDbLine
 62
2
  6
CONTINUOUS
 10
13.3730037205
 20
2.5267023329
 11
13.3730037205
 21
2.4937023146
  0
ARC
  5
32A
100
AcDbEntity
  8
0
100
AcDbCircle
 62
2
  6
CONTINUOUS
 10
13.370528721
 20
2.4937023128
 40
0.0024749995
100
AcDbArc
 50
269.9999571957
 51
0.0000428043
  0
LINE
  5
32B
100
AcDbEntity
  8
0
100
AcDbLine
 62
2
  6
CONTINUOUS
 10
13.3705287192
 20
2.4912273132
 11
13.1673166065
 21
2.4912273132
  0
ARC
  5
32C
100
AcDbEntity
  8
0
100
AcDbCircle
 62
2
  6
CONTINUOUS
 10
13.1673166046
 20
2.4937023128
 40
0.0024749995
100
AcDbArc
 50
179.9999571957
 51
270.0000428043
  0
LINE
  5
32D
100
AcDbEntity
  8
0
100
AcDbLine
 62
2
  6
CONTINUOUS
 10
13.1648416051
 20
2.4937023146
 11
13.1648416051
 21
2.5135023256
  0
ARC
  5
32E
100
AcDbEntity
  8
0
100
AcDbCircle
 62
2
  6
CONTINUOUS
 10
13.1673166046
 20
2.5135023274
 40
0.0024749995
100
AcDbArc
 50
89.9999571957
 51
180.0000428043
  0
LINE
  5
32F
100
AcDbEntity
  8
0
100
AcDbLine
 62
2
  6
CONTINUOUS
 10
13.1673166065
 20
2.515977327
 11
13.1912396197
 21
2.515977327
  0
ARC
  5
330
100
AcDbEntity
  8
0
100
AcDbCircle
 62
2
  6
CONTINUOUS
 10
13.1912396216
 20
2.5184523265
 40
0.0024749995
100
AcDbArc
 50
269.9999571957
 51
0.0000428042
  0
LINE
  5
331
100
AcDbEntity
  8
0
100
AcDbLine
 62
2
  6
CONTINUOUS
 10
13.1937146211
 20
2.5184523283
 11
13.1937146211
 21
2.564807354
  0
ARC
  5
332
100
AcDbEntity
  8
0
100
AcDbCircle
 62
2
  6
CONTINUOUS
 10
13.1912396216
 20
2.5648073559
 40
0.0024749995
100
AcDbArc
 50
359.9999571957
 51
90.0000428043
  0
LINE
  5
333
100
AcDbEntity
  8
0
100
AcDbLine
 62
2
  6
CONTINUOUS
 10
13.1912396197
 20
2.5672823554
 11
13.1673166065
 21
2.5672823554
  0
ARC
  5
334
100
AcDbEntity
  8
0
100
AcDbCircle
 62
2
  6
CONTINUOUS
 10
13.1673166046
 20
2.5697573549
 40
0.0024749995
100
AcDbArc
 50
179.9999571957
 51
270.0000428043
  0
LINE
  5
335
100
AcDbEntity
  8
0
100
AcDbLine
 62
2
  6
CONTINUOUS
 10
13.1648416051
 20
2.5697573568
 11
13.1648416051
 21
2.5895573678
  0
ARC
  5
336
100
AcDbEntity
  8
0
100
AcDbCircle
 62
2
  6
CONTINUOUS
 10
13.1673166046
 20
2.5895573696
 40
0.0024749995
100
AcDbArc
 50
89.9999571957
 51
180.0000428043
  0
LINE
  5
337
100
AcDbEntity
  8
0
100
AcDbLine
 62
2
  6
CONTINUOUS
 10
13.1673166065
 20
2.5920323691
 11
13.3691097184
 21
2.5920323691
  0
ARC
  5
338
100
AcDbEntity
  8
0
100
AcDbCircle
 62
2
  6
CONTINUOUS
 10
13.3691097202
 20
2.5895573696
 40
0.0024749995
100
AcDbArc
 50
359.9999571957
 51
90.0000428043
  0
LINE
  5
339
100
AcDbEntity
  8
0
100
AcDbLine
 62
2
  6
CONTINUOUS
 10
13.3715847197
 20
2.5895573678
 11
13.3715847197
 21
2.5565573495
  0
ARC
  5
33A
100
AcDbEntity
  8
0
100
AcDbCircle
 62
2
  6
CONTINUOUS
 10
13.3691097202
 20
2.5565573476
 40
0.0024749995
100
AcDbArc
 50
269.9999571957
 51
0.0000428042
  0
LINE
  5
33B
100
AcDbEntity
  8
0
100
AcDbLine
 62
2
  6
CONTINUOUS
 10
13.3691097184
 20
2.5540823481
 11
13.3272456952
 21
2.5540823481
  0
ARC
  5
33C
100
AcDbEntity
  8
0
100
AcDbCircle
 62
2
  6
CONTINUOUS
 10
13.3272456933
 20
2.5565573476
 40
0.0024749995
100
AcDbArc
 50
179.9999571957
 51
270.0000428043
  0
LINE
  5
33D
100
AcDbEntity
  8
0
100
AcDbLine
 62
2
  6
CONTINUOUS
 10
13.3247706938
 20
2.5565573495
 11
13.3247706938
 21
2.564807354
  0
ARC
  5
33E
100
AcDbEntity
  8
0
100
AcDbCircle
 62
2
  6
CONTINUOUS
 10
13.3222956943
 20
2.5648073559
 40
0.0024749995
100
AcDbArc
 50
359.9999571957
 51
90.0000428043
  0
LINE
  5
33F
100
AcDbEntity
  8
0
100
AcDbLine
 62
2
  6
CONTINUOUS
 10
13.3222956924
 20
2.5672823554
 11
13.2582556569
 21
2.5672823554
  0
ARC
  5
340
100
AcDbEntity
  8
0
100
AcDbCircle
 62
2
  6
CONTINUOUS
 10
13.2582556551
 20
2.5648073559
 40
0.0024749995
100
AcDbArc
 50
89.9999571957
 51
180.0000428043
  0
LINE
  5
341
100
AcDbEntity
  8
0
100
AcDbLine
 62
2
  6
CONTINUOUS
 10
13.2557806555
 20
2.564807354
 11
13.2557806555
 21
2.5532573476
  0
ARC
  5
342
100
AcDbEntity
  8
0
100
AcDbCircle
 62
2
  6
CONTINUOUS
 10
13.2582556551
 20
2.5532573458
 40
0.0024749995
100
AcDbArc
 50
179.9999571957
 51
270.0000428043
  0
LINE
  5
343
100
AcDbEntity
  8
0
100
AcDbLine
 62
2
  6
CONTINUOUS
 10
13.2582556569
 20
2.5507823463
 11
13.2934226764
 21
2.5507823463
  0
ARC
  5
344
100
AcDbEntity
  8
0
100
AcDbCircle
 62
2
  6
CONTINUOUS
 10
13.2934226783
 20
2.5483073467
 40
0.0024749995
100
AcDbArc
 50
359.9999571957
 51
90.0000428043
  0
LINE
  5
345
100
AcDbEntity
  8
0
100
AcDbLine
 62
2
  6
CONTINUOUS
 10
13.2958976778
 20
2.5483073449
 11
13.2958976778
 21
2.5349523375
  0
ARC
  5
346
100
AcDbEntity
  8
0
100
AcDbCircle
 62
2
  6
CONTINUOUS
 10
13.2934226783
 20
2.5349523356
 40
0.0024749995
100
AcDbArc
 50
269.9999571957
 51
0.0000428042
  0
LINE
  5
347
100
AcDbEntity
  8
0
100
AcDbLine
 62
2
  6
CONTINUOUS
 10
13.7286871589
 20
2.5350697372
 11
13.7286871589
 21
2.5456869438
  0
LINE
  5
348
100
AcDbEntity
  8
0
100
AcDbLine
 62
2
  6
CONTINUOUS
 10
13.7086871478
 20
2.5004302075
 11
13.7086871478
 21
2.5803264735
  0
LINE
  5
349
100
AcDbEntity
  8
0
100
AcDbLine
 62
2
  6
CONTINUOUS
 10
13.6886871368
 20
2.4843919416
 11
13.6886871368
 21
2.5963647394
  0
LINE
  5
34A
100
AcDbEntity
  8
0
100
AcDbLine
 62
2
  6
CONTINUOUS
 10
13.6686871257
 20
2.4726017898
 11
13.6686871257
 21
2.6081548911
  0
LINE
  5
34B
100
AcDbEntity
  8
0
100
AcDbLine
 62
2
  6
CONTINUOUS
 10
13.6486871146
 20
2.4628062688
 11
13.6486871146
 21
2.6179504122
  0
LINE
  5
34C
100
AcDbEntity
  8
0
100
AcDbLine
 62
2
  6
CONTINUOUS
 10
13.6286871035
 20
2.4541253507
 11
13.6286871035
 21
2.5062483056
  0
LINE
  5
34D
100
AcDbEntity
  8
0
100
AcDbLine
 62
2
  6
CONTINUOUS
 10
13.6286871035
 20
2.5301143348
 11
13.6286871035
 21
2.6266313303
  0
LINE
  5
34E
100
AcDbEntity
  8
0
100
AcDbLine
 62
2
  6
CONTINUOUS
 10
13.6086870924
 20
2.4465537903
 11
13.6086870924
 21
2.4918774918
  0
LINE
  5
34F
100
AcDbEntity
  8
0
100
AcDbLine
 62
2
  6
CONTINUOUS
 10
13.6086870924
 20
2.5165781173
 11
13.6086870924
 21
2.6342028907
  0
LINE
  5
350
100
AcDbEntity
  8
0
100
AcDbLine
 62
2
  6
CONTINUOUS
 10
13.5886870813
 20
2.4398033466
 11
13.5886870813
 21
2.4912273132
  0
LINE
  5
351
100
AcDbEntity
  8
0
100
AcDbLine
 62
2
  6
CONTINUOUS
 10
13.5886870813
 20
2.5391840845
 11
13.5886870813
 21
2.5454298327
  0
LINE
  5
352
100
AcDbEntity
  8
0
100
AcDbLine
 62
2
  6
CONTINUOUS
 10
13.5886870813
 20
2.5862063472
 11
13.5886870813
 21
2.6409533343
  0
LINE
  5
353
100
AcDbEntity
  8
0
100
AcDbLine
 62
2
  6
CONTINUOUS
 10
13.5686870702
 20
2.4334702189
 11
13.5686870702
 21
2.4912273132
  0
LINE
  5
354
100
AcDbEntity
  8
0
100
AcDbLine
 62
2
  6
CONTINUOUS
 10
13.5686870702
 20
2.5906587765
 11
13.5686870702
 21
2.647286462
  0
LINE
  5
355
100
AcDbEntity
  8
0
100
AcDbLine
 62
2
  6
CONTINUOUS
 10
13.5486870591
 20
2.4278968124
 11
13.5486870591
 21
2.4937461006
  0
LINE
  5
356
100
AcDbEntity
  8
0
100
AcDbLine
 62
2
  6
CONTINUOUS
 10
13.5486870591
 20
2.5920323691
 11
13.5486870591
 21
2.6528598686
  0
LINE
  5
357
100
AcDbEntity
  8
0
100
AcDbLine
 62
2
  6
CONTINUOUS
 10
13.528687048
 20
2.4225427674
 11
13.528687048
 21
2.5270426993
  0
LINE
  5
358
100
AcDbEntity
  8
0
100
AcDbLine
 62
2
  6
CONTINUOUS
 10
13.528687048
 20
2.5505166259
 11
13.528687048
 21
2.5668657091
  0
LINE
  5
359
100
AcDbEntity
  8
0
100
AcDbLine
 62
2
  6
CONTINUOUS
 10
13.528687048
 20
2.5920323691
 11
13.528687048
 21
2.6582139136
  0
LINE
  5
35A
100
AcDbEntity
  8
0
100
AcDbLine
 62
2
  6
CONTINUOUS
 10
13.5086870369
 20
2.4177306791
 11
13.5086870369
 21
2.4912273132
  0
LINE
  5
35B
100
AcDbEntity
  8
0
100
AcDbLine
 62
2
  6
CONTINUOUS
 10
13.5086870369
 20
2.5159553269
 11
13.5086870369
 21
2.5306043351
  0
LINE
  5
35C
100
AcDbEntity
  8
0
100
AcDbLine
 62
2
  6
CONTINUOUS
 10
13.5086870369
 20
2.5496073456
 11
13.5086870369
 21
2.5672823554
  0
LINE
  5
35D
100
AcDbEntity
  8
0
100
AcDbLine
 62
2
  6
CONTINUOUS
 10
13.5086870369
 20
2.5920323691
 11
13.5086870369
 21
2.6630260019
  0
LINE
  5
35E
100
AcDbEntity
  8
0
100
AcDbLine
 62
2
  6
CONTINUOUS
 10
13.4886870258
 20
2.4131795254
 11
13.4886870258
 21
2.4912273132
  0
LINE
  5
35F
100
AcDbEntity
  8
0
100
AcDbLine
 62
2
  6
CONTINUOUS
 10
13.4886870258
 20
2.5159553269
 11
13.4886870258
 21
2.5306043351
  0
LINE
  5
360
100
AcDbEntity
  8
0
100
AcDbLine
 62
2
  6
CONTINUOUS
 10
13.4886870258
 20
2.5496073456
 11
13.4886870258
 21
2.5672823554
  0
LINE
  5
361
100
AcDbEntity
  8
0
100
AcDbLine
 62
2
  6
CONTINUOUS
 10
13.4886870258
 20
2.5920323691
 11
13.4886870258
 21
2.6675771555
  0
LINE
  5
362
100
AcDbEntity
  8
0
100
AcDbLine
 62
2
  6
CONTINUOUS
 10
13.4686870147
 20
2.4088819672
 11
13.4686870147
 21
2.4912273132
  0
LINE
  5
363
100
AcDbEntity
  8
0
100
AcDbLine
 62
2
  6
CONTINUOUS
 10
13.4686870147
 20
2.5920323691
 11
13.4686870147
 21
2.6718747138
  0
LINE
  5
364
100
AcDbEntity
  8
0
100
AcDbLine
 62
2
  6
CONTINUOUS
 10
13.4486870037
 20
2.4050092072
 11
13.4486870037
 21
2.4912273132
  0
LINE
  5
365
100
AcDbEntity
  8
0
100
AcDbLine
 62
2
  6
CONTINUOUS
 10
13.4486870037
 20
2.5920323691
 11
13.4486870037
 21
2.6757474738
  0
LINE
  5
366
100
AcDbEntity
  8
0
100
AcDbLine
 62
2
  6
CONTINUOUS
 10
13.4286869926
 20
2.4011364471
 11
13.4286869926
 21
2.4912273132
  0
LINE
  5
367
100
AcDbEntity
  8
0
100
AcDbLine
 62
2
  6
CONTINUOUS
 10
13.4286869926
 20
2.5920323691
 11
13.4286869926
 21
2.6796202339
  0
LINE
  5
368
100
AcDbEntity
  8
0
100
AcDbLine
 62
2
  6
CONTINUOUS
 10
13.4086869815
 20
2.3980226662
 11
13.4086869815
 21
2.4912273132
  0
LINE
  5
369
100
AcDbEntity
  8
0
100
AcDbLine
 62
2
  6
CONTINUOUS
 10
13.4086869815
 20
2.515977327
 11
13.4086869815
 21
2.5672823554
  0
LINE
  5
36A
100
AcDbEntity
  8
0
100
AcDbLine
 62
2
  6
CONTINUOUS
 10
13.4086869815
 20
2.5920323691
 11
13.4086869815
 21
2.6827340148
  0
LINE
  5
36B
100
AcDbEntity
  8
0
100
AcDbLine
 62
2
  6
CONTINUOUS
 10
13.3886869704
 20
2.3950052774
 11
13.3886869704
 21
2.6857514036
  0
LINE
  5
36C
100
AcDbEntity
  8
0
100
AcDbLine
 62
2
  6
CONTINUOUS
 10
13.3686869593
 20
2.3919878885
 11
13.3686869593
 21
2.4912273132
  0
LINE
  5
36D
100
AcDbEntity
  8
0
100
AcDbLine
 62
2
  6
CONTINUOUS
 10
13.3686869593
 20
2.5291773343
 11
13.3686869593
 21
2.5540823481
  0
LINE
  5
36E
100
AcDbEntity
  8
0
100
AcDbLine
 62
2
  6
CONTINUOUS
 10
13.3686869593
 20
2.5920323691
 11
13.3686869593
 21
2.6887687924
  0
LINE
  5
36F
100
AcDbEntity
  8
0
100
AcDbLine
 62
2
  6
CONTINUOUS
 10
13.3486869482
 20
2.3889704997
 11
13.3486869482
 21
2.4912273132
  0
LINE
  5
370
100
AcDbEntity
  8
0
100
AcDbLine
 62
2
  6
CONTINUOUS
 10
13.3486869482
 20
2.5291773343
 11
13.3486869482
 21
2.5540823481
  0
LINE
  5
371
100
AcDbEntity
  8
0
100
AcDbLine
 62
2
  6
CONTINUOUS
 10
13.3486869482
 20
2.5920323691
 11
13.3486869482
 21
2.6917861813
  0
LINE
  5
372
100
AcDbEntity
  8
0
100
AcDbLine
 62
2
  6
CONTINUOUS
 10
13.3286869371
 20
2.3859531109
 11
13.3286869371
 21
2.4912273132
  0
LINE
  5
373
100
AcDbEntity
  8
0
100
AcDbLine
 62
2
  6
CONTINUOUS
 10
13.3286869371
 20
2.5291773343
 11
13.3286869371
 21
2.5540823481
  0
LINE
  5
374
100
AcDbEntity
  8
0
100
AcDbLine
 62
2
  6
CONTINUOUS
 10
13.3286869371
 20
2.5920323691
 11
13.3286869371
 21
2.6948035701
  0
LINE
  5
375
100
AcDbEntity
  8
0
100
AcDbLine
 62
2
  6
CONTINUOUS
 10
13.308686926
 20
2.3833355437
 11
13.308686926
 21
2.4912273132
  0
LINE
  5
376
100
AcDbEntity
  8
0
100
AcDbLine
 62
2
  6
CONTINUOUS
 10
13.308686926
 20
2.515977327
 11
13.308686926
 21
2.5672823554
  0
LINE
  5
377
100
AcDbEntity
  8
0
100
AcDbLine
 62
2
  6
CONTINUOUS
 10
13.308686926
 20
2.5920323691
 11
13.308686926
 21
2.6974211373
  0
LINE
  5
378
100
AcDbEntity
  8
0
100
AcDbLine
 62
2
  6
CONTINUOUS
 10
13.2886869149
 20
2.3812612684
 11
13.2886869149
 21
2.4912273132
  0
LINE
  5
379
100
AcDbEntity
  8
0
100
AcDbLine
 62
2
  6
CONTINUOUS
 10
13.2886869149
 20
2.515977327
 11
13.2886869149
 21
2.5324773361
  0
LINE
  5
37A
100
AcDbEntity
  8
0
100
AcDbLine
 62
2
  6
CONTINUOUS
 10
13.2886869149
 20
2.5507823463
 11
13.2886869149
 21
2.5672823554
  0
LINE
  5
37B
100
AcDbEntity
  8
0
100
AcDbLine
 62
2
  6
CONTINUOUS
 10
13.2886869149
 20
2.5920323691
 11
13.2886869149
 21
2.6994954125
  0
LINE
  5
37C
100
AcDbEntity
  8
0
100
AcDbLine
 62
2
  6
CONTINUOUS
 10
13.2686869038
 20
2.3791869932
 11
13.2686869038
 21
2.4912273132
  0
LINE
  5
37D
100
AcDbEntity
  8
0
100
AcDbLine
 62
2
  6
CONTINUOUS
 10
13.2686869038
 20
2.515977327
 11
13.2686869038
 21
2.5324773361
  0
LINE
  5
37E
100
AcDbEntity
  8
0
100
AcDbLine
 62
2
  6
CONTINUOUS
 10
13.2686869038
 20
2.5507823463
 11
13.2686869038
 21
2.5672823554
  0
LINE
  5
37F
100
AcDbEntity
  8
0
100
AcDbLine
 62
2
  6
CONTINUOUS
 10
13.2686869038
 20
2.5920323691
 11
13.2686869038
 21
2.7015696878
  0
LINE
  5
380
100
AcDbEntity
  8
0
100
AcDbLine
 62
2
  6
CONTINUOUS
 10
13.2486868927
 20
2.377112718
 11
13.2486868927
 21
2.4912273132
  0
LINE
  5
381
100
AcDbEntity
  8
0
100
AcDbLine
 62
2
  6
CONTINUOUS
 10
13.2486868927
 20
2.5920323691
 11
13.2486868927
 21
2.703643963
  0
LINE
  5
382
100
AcDbEntity
  8
0
100
AcDbLine
 62
2
  6
CONTINUOUS
 10
13.2286868817
 20
2.3750384428
 11
13.2286868817
 21
2.4912273132
  0
LINE
  5
383
100
AcDbEntity
  8
0
100
AcDbLine
 62
2
  6
CONTINUOUS
 10
13.2286868817
 20
2.5920323691
 11
13.2286868817
 21
2.7057182382
  0
LINE
  5
384
100
AcDbEntity
  8
0
100
AcDbLine
 62
2
  6
CONTINUOUS
 10
13.2086868706
 20
2.3729641676
 11
13.2086868706
 21
2.4912273132
  0
LINE
  5
385
100
AcDbEntity
  8
0
100
AcDbLine
 62
2
  6
CONTINUOUS
 10
13.2086868706
 20
2.5920323691
 11
13.2086868706
 21
2.7077925134
  0
LINE
  5
386
100
AcDbEntity
  8
0
100
AcDbLine
 62
2
  6
CONTINUOUS
 10
13.1886868595
 20
2.3712344456
 11
13.1886868595
 21
2.4912273132
  0
LINE
  5
387
100
AcDbEntity
  8
0
100
AcDbLine
 62
2
  6
CONTINUOUS
 10
13.1886868595
 20
2.515977327
 11
13.1886868595
 21
2.5672823554
  0
LINE
  5
388
100
AcDbEntity
  8
0
100
AcDbLine
 62
2
  6
CONTINUOUS
 10
13.1886868595
 20
2.5920323691
 11
13.1886868595
 21
2.7095222354
  0
LINE
  5
389
100
AcDbEntity
  8
0
100
AcDbLine
 62
2
  6
CONTINUOUS
 10
13.1686868484
 20
2.3699682418
 11
13.1686868484
 21
2.4912273132
  0
LINE
  5
38A
100
AcDbEntity
  8
0
100
AcDbLine
 62
2
  6
CONTINUOUS
 10
13.1686868484
 20
2.515977327
 11
13.1686868484
 21
2.5672823554
  0
LINE
  5
38B
100
AcDbEntity
  8
0
100
AcDbLine
 62
2
  6
CONTINUOUS
 10
13.1686868484
 20
2.5920323691
 11
13.1686868484
 21
2.7107884392
  0
LINE
  5
38C
100
AcDbEntity
  8
0
100
AcDbLine
 62
2
  6
CONTINUOUS
 10
13.1486868373
 20
2.3687020381
 11
13.1486868373
 21
2.7120546429
  0
LINE
  5
38D
100
AcDbEntity
  8
0
100
AcDbLine
 62
2
  6
CONTINUOUS
 10
13.1286868262
 20
2.3674358343
 11
13.1286868262
 21
2.5672823554
  0
LINE
  5
38E
100
AcDbEntity
  8
0
100
AcDbLine
 62
2
  6
CONTINUOUS
 10
13.1286868262
 20
2.5920323691
 11
13.1286868262
 21
2.7133208466
  0
LINE
  5
38F
100
AcDbEntity
  8
0
100
AcDbLine
 62
2
  6
CONTINUOUS
 10
13.1086868151
 20
2.3661696306
 11
13.1086868151
 21
2.4912273132
  0
LINE
  5
390
100
AcDbEntity
  8
0
100
AcDbLine
 62
2
  6
CONTINUOUS
 10
13.1086868151
 20
2.5920323691
 11
13.1086868151
 21
2.7145870504
  0
LINE
  5
391
100
AcDbEntity
  8
0
100
AcDbLine
 62
2
  6
CONTINUOUS
 10
13.088686804
 20
2.3649034269
 11
13.088686804
 21
2.4912273132
  0
LINE
  5
392
100
AcDbEntity
  8
0
100
AcDbLine
 62
2
  6
CONTINUOUS
 10
13.088686804
 20
2.5920323691
 11
13.088686804
 21
2.7158532541
  0
LINE
  5
393
100
AcDbEntity
  8
0
100
AcDbLine
 62
2
  6
CONTINUOUS
 10
13.0686867929
 20
2.3636739922
 11
13.0686867929
 21
2.4912273132
  0
LINE
  5
394
100
AcDbEntity
  8
0
100
AcDbLine
 62
2
  6
CONTINUOUS
 10
13.0686867929
 20
2.5475272398
 11
13.0686867929
 21
2.5672823554
  0
LINE
  5
395
100
AcDbEntity
  8
0
100
AcDbLine
 62
2
  6
CONTINUOUS
 10
13.0686867929
 20
2.5920323691
 11
13.0686867929
 21
2.7170826887
  0
LINE
  5
396
100
AcDbEntity
  8
0
100
AcDbLine
 62
2
  6
CONTINUOUS
 10
13.0486867818
 20
2.363143203
 11
13.0486867818
 21
2.4912273132
  0
LINE
  5
397
100
AcDbEntity
  8
0
100
AcDbLine
 62
2
  6
CONTINUOUS
 10
13.0486867818
 20
2.5666100882
 11
13.0486867818
 21
2.717613478
  0
LINE
  5
398
100
AcDbEntity
  8
0
100
AcDbLine
 62
2
  6
CONTINUOUS
 10
13.0286867707
 20
2.3626124138
 11
13.0286867707
 21
2.50359263
  0
LINE
  5
399
100
AcDbEntity
  8
0
100
AcDbLine
 62
2
  6
CONTINUOUS
 10
13.0286867707
 20
2.5856929366
 11
13.0286867707
 21
2.7181442672
  0
LINE
  5
39A
100
AcDbEntity
  8
0
100
AcDbLine
 62
2
  6
CONTINUOUS
 10
13.0086867596
 20
2.3620816246
 11
13.0086867596
 21
2.5226754472
  0
LINE
  5
39B
100
AcDbEntity
  8
0
100
AcDbLine
 62
2
  6
CONTINUOUS
 10
13.0086867596
 20
2.5920323691
 11
13.0086867596
 21
2.7186750564
  0
LINE
  5
39C
100
AcDbEntity
  8
0
100
AcDbLine
 62
2
  6
CONTINUOUS
 10
12.9886867486
 20
2.3615508354
 11
12.9886867486
 21
2.4912273132
  0
LINE
  5
39D
100
AcDbEntity
  8
0
100
AcDbLine
 62
2
  6
CONTINUOUS
 10
12.9886867486
 20
2.515977327
 11
12.9886867486
 21
2.5417582644
  0
LINE
  5
39E
100
AcDbEntity
  8
0
100
AcDbLine
 62
2
  6
CONTINUOUS
 10
12.9886867486
 20
2.5920323691
 11
12.9886867486
 21
2.7192058456
  0
LINE
  5
39F
100
AcDbEntity
  8
0
100
AcDbLine
 62
2
  6
CONTINUOUS
 10
12.9686867375
 20
2.3610200462
 11
12.9686867375
 21
2.4912273132
  0
LINE
  5
3A0
100
AcDbEntity
  8
0
100
AcDbLine
 62
2
  6
CONTINUOUS
 10
12.9686867375
 20
2.5920323691
 11
12.9686867375
 21
2.7197366348
  0
LINE
  5
3A1
100
AcDbEntity
  8
0
100
AcDbLine
 62
2
  6
CONTINUOUS
 10
12.9486867264
 20
2.360489257
 11
12.9486867264
 21
2.4912273132
  0
LINE
  5
3A2
100
AcDbEntity
  8
0
100
AcDbLine
 62
2
  6
CONTINUOUS
 10
12.9486867264
 20
2.5920323691
 11
12.9486867264
 21
2.720267424
  0
LINE
  5
3A3
100
AcDbEntity
  8
0
100
AcDbLine
 62
2
  6
CONTINUOUS
 10
12.9286867153
 20
2.3602836008
 11
12.9286867153
 21
2.4912273132
  0
LINE
  5
3A4
100
AcDbEntity
  8
0
100
AcDbLine
 62
2
  6
CONTINUOUS
 10
12.9286867153
 20
2.515977327
 11
12.9286867153
 21
2.5672823554
  0
LINE
  5
3A5
100
AcDbEntity
  8
0
100
AcDbLine
 62
2
  6
CONTINUOUS
 10
12.9286867153
 20
2.5920323691
 11
12.9286867153
 21
2.7204730802
  0
LINE
  5
3A6
100
AcDbEntity
  8
0
100
AcDbLine
 62
2
  6
CONTINUOUS
 10
12.9086867042
 20
2.3604597639
 11
12.9086867042
 21
2.7202969171
  0
LINE
  5
3A7
100
AcDbEntity
  8
0
100
AcDbLine
 62
2
  6
CONTINUOUS
 10
12.8886866931
 20
2.360635927
 11
12.8886866931
 21
2.5672823554
  0
LINE
  5
3A8
100
AcDbEntity
  8
0
100
AcDbLine
 62
2
  6
CONTINUOUS
 10
12.8886866931
 20
2.5920323691
 11
12.8886866931
 21
2.720120754
  0
LINE
  5
3A9
100
AcDbEntity
  8
0
100
AcDbLine
 62
2
  6
CONTINUOUS
 10
12.868686682
 20
2.3608120901
 11
12.868686682
 21
2.491232357
  0
LINE
  5
3AA
100
AcDbEntity
  8
0
100
AcDbLine
 62
2
  6
CONTINUOUS
 10
12.868686682
 20
2.5920323691
 11
12.868686682
 21
2.7199445909
  0
LINE
  5
3AB
100
AcDbEntity
  8
0
100
AcDbLine
 62
2
  6
CONTINUOUS
 10
12.8486866709
 20
2.3609882532
 11
12.8486866709
 21
2.4912273132
  0
LINE
  5
3AC
100
AcDbEntity
  8
0
100
AcDbLine
 62
2
  6
CONTINUOUS
 10
12.8486866709
 20
2.5920323691
 11
12.8486866709
 21
2.7197684278
  0
LINE
  5
3AD
100
AcDbEntity
  8
0
100
AcDbLine
 62
2
  6
CONTINUOUS
 10
12.8286866598
 20
2.3611644163
 11
12.8286866598
 21
2.4912273132
  0
LINE
  5
3AE
100
AcDbEntity
  8
0
100
AcDbLine
 62
2
  6
CONTINUOUS
 10
12.8286866598
 20
2.5396527025
 11
12.8286866598
 21
2.5672823554
  0
LINE
  5
3AF
100
AcDbEntity
  8
0
100
AcDbLine
 62
2
  6
CONTINUOUS
 10
12.8286866598
 20
2.5920323691
 11
12.8286866598
 21
2.7195922647
  0
LINE
  5
3B0
100
AcDbEntity
  8
0
100
AcDbLine
 62
2
  6
CONTINUOUS
 10
12.8086866487
 20
2.3613405794
 11
12.8086866487
 21
2.4912273132
  0
LINE
  5
3B1
100
AcDbEntity
  8
0
100
AcDbLine
 62
2
  6
CONTINUOUS
 10
12.8086866487
 20
2.5587355508
 11
12.8086866487
 21
2.7194161016
  0
LINE
  5
3B2
100
AcDbEntity
  8
0
100
AcDbLine
 62
2
  6
CONTINUOUS
 10
12.7886866376
 20
2.3621089572
 11
12.7886866376
 21
2.4957181055
  0
LINE
  5
3B3
100
AcDbEntity
  8
0
100
AcDbLine
 62
2
  6
CONTINUOUS
 10
12.7886866376
 20
2.5778183992
 11
12.7886866376
 21
2.7186477238
  0
LINE
  5
3B4
100
AcDbEntity
  8
0
100
AcDbLine
 62
2
  6
CONTINUOUS
 10
12.7686866266
 20
2.3630013935
 11
12.7686866266
 21
2.5148009227
  0
LINE
  5
3B5
100
AcDbEntity
  8
0
100
AcDbLine
 62
2
  6
CONTINUOUS
 10
12.7686866266
 20
2.5920323691
 11
12.7686866266
 21
2.7177552874
  0
LINE
  5
3B6
100
AcDbEntity
  8
0
100
AcDbLine
 62
2
  6
CONTINUOUS
 10
12.7486866155
 20
2.3638938299
 11
12.7486866155
 21
2.4913263218
  0
LINE
  5
3B7
100
AcDbEntity
  8
0
100
AcDbLine
 62
2
  6
CONTINUOUS
 10
12.7486866155
 20
2.5158783184
 11
12.7486866155
 21
2.5338837399
  0
LINE
  5
3B8
100
AcDbEntity
  8
0
100
AcDbLine
 62
2
  6
CONTINUOUS
 10
12.7486866155
 20
2.5920323691
 11
12.7486866155
 21
2.7168628511
  0
LINE
  5
3B9
100
AcDbEntity
  8
0
100
AcDbLine
 62
2
  6
CONTINUOUS
 10
12.7286866044
 20
2.3647862663
 11
12.7286866044
 21
2.4912273132
  0
LINE
  5
3BA
100
AcDbEntity
  8
0
100
AcDbLine
 62
2
  6
CONTINUOUS
 10
12.7286866044
 20
2.515977327
 11
12.7286866044
 21
2.5527601554
  0
LINE
  5
3BB
100
AcDbEntity
  8
0
100
AcDbLine
 62
2
  6
CONTINUOUS
 10
12.7286866044
 20
2.5920323691
 11
12.7286866044
 21
2.7159704147
  0
LINE
  5
3BC
100
AcDbEntity
  8
0
100
AcDbLine
 62
2
  6
CONTINUOUS
 10
12.7086865933
 20
2.3656787026
 11
12.7086865933
 21
2.4912273132
  0
LINE
  5
3BD
100
AcDbEntity
  8
0
100
AcDbLine
 62
2
  6
CONTINUOUS
 10
12.7086865933
 20
2.5920323691
 11
12.7086865933
 21
2.7150779784
  0
LINE
  5
3BE
100
AcDbEntity
  8
0
100
AcDbLine
 62
2
  6
CONTINUOUS
 10
12.6886865822
 20
2.366571139
 11
12.6886865822
 21
2.4912273132
  0
LINE
  5
3BF
100
AcDbEntity
  8
0
100
AcDbLine
 62
2
  6
CONTINUOUS
 10
12.6886865822
 20
2.515977327
 11
12.6886865822
 21
2.5672823554
  0
LINE
  5
3C0
100
AcDbEntity
  8
0
100
AcDbLine
 62
2
  6
CONTINUOUS
 10
12.6886865822
 20
2.5920323691
 11
12.6886865822
 21
2.714185542
  0
LINE
  5
3C1
100
AcDbEntity
  8
0
100
AcDbLine
 62
2
  6
CONTINUOUS
 10
12.6686865711
 20
2.3677104027
 11
12.6686865711
 21
2.7130462783
  0
LINE
  5
3C2
100
AcDbEntity
  8
0
100
AcDbLine
 62
2
  6
CONTINUOUS
 10
12.64868656
 20
2.3693682721
 11
12.64868656
 21
2.7113884089
  0
LINE
  5
3C3
100
AcDbEntity
  8
0
100
AcDbLine
 62
2
  6
CONTINUOUS
 10
12.6286865489
 20
2.3710261415
 11
12.6286865489
 21
2.4912273132
  0
LINE
  5
3C4
100
AcDbEntity
  8
0
100
AcDbLine
 62
2
  6
CONTINUOUS
 10
12.6286865489
 20
2.515977327
 11
12.6286865489
 21
2.7097305395
  0
LINE
  5
3C5
100
AcDbEntity
  8
0
100
AcDbLine
 62
2
  6
CONTINUOUS
 10
12.6086865378
 20
2.372684011
 11
12.6086865378
 21
2.4912273132
  0
LINE
  5
3C6
100
AcDbEntity
  8
0
100
AcDbLine
 62
2
  6
CONTINUOUS
 10
12.6086865378
 20
2.5351122279
 11
12.6086865378
 21
2.70807267
  0
LINE
  5
3C7
100
AcDbEntity
  8
0
100
AcDbLine
 62
2
  6
CONTINUOUS
 10
12.5886865267
 20
2.3743418804
 11
12.5886865267
 21
2.4912273132
  0
LINE
  5
3C8
100
AcDbEntity
  8
0
100
AcDbLine
 62
2
  6
CONTINUOUS
 10
12.5886865267
 20
2.5660172622
 11
12.5886865267
 21
2.7064148006
  0
LINE
  5
3C9
100
AcDbEntity
  8
0
100
AcDbLine
 62
2
  6
CONTINUOUS
 10
12.5686865156
 20
2.3759997498
 11
12.5686865156
 21
2.4912273132
  0
LINE
  5
3CA
100
AcDbEntity
  8
0
100
AcDbLine
 62
2
  6
CONTINUOUS
 10
12.5686865156
 20
2.5920323691
 11
12.5686865156
 21
2.7047569312
  0
LINE
  5
3CB
100
AcDbEntity
  8
0
100
AcDbLine
 62
2
  6
CONTINUOUS
 10
12.5486865045
 20
2.3777575277
 11
12.5486865045
 21
2.4912273132
  0
LINE
  5
3CC
100
AcDbEntity
  8
0
100
AcDbLine
 62
2
  6
CONTINUOUS
 10
12.5486865045
 20
2.515977327
 11
12.5486865045
 21
2.5275118824
  0
LINE
  5
3CD
100
AcDbEntity
  8
0
100
AcDbLine
 62
2
  6
CONTINUOUS
 10
12.5486865045
 20
2.5920323691
 11
12.5486865045
 21
2.7029991533
  0
LINE
  5
3CE
100
AcDbEntity
  8
0
100
AcDbLine
 62
2
  6
CONTINUOUS
 10
12.5286864935
 20
2.3802813811
 11
12.5286864935
 21
2.5296213345
  0
LINE
  5
3CF
100
AcDbEntity
  8
0
100
AcDbLine
 62
2
  6
CONTINUOUS
 10
12.5286864935
 20
2.5505713461
 11
12.5286864935
 21
2.5667383551
  0
LINE
  5
3D0
100
AcDbEntity
  8
0
100
AcDbLine
 62
2
  6
CONTINUOUS
 10
12.5286864935
 20
2.5920323691
 11
12.5286864935
 21
2.7004752999
  0
LINE
  5
3D1
100
AcDbEntity
  8
0
100
AcDbLine
 62
2
  6
CONTINUOUS
 10
12.5086864824
 20
2.3828052346
 11
12.5086864824
 21
2.4912273132
  0
LINE
  5
3D2
100
AcDbEntity
  8
0
100
AcDbLine
 62
2
  6
CONTINUOUS
 10
12.5086864824
 20
2.515977327
 11
12.5086864824
 21
2.5279667721
  0
LINE
  5
3D3
100
AcDbEntity
  8
0
100
AcDbLine
 62
2
  6
CONTINUOUS
 10
12.5086864824
 20
2.5868602074
 11
12.5086864824
 21
2.6979514464
  0
LINE
  5
3D4
100
AcDbEntity
  8
0
100
AcDbLine
 62
2
  6
CONTINUOUS
 10
12.4886864713
 20
2.385329088
 11
12.4886864713
 21
2.4912273132
  0
LINE
  5
3D5
100
AcDbEntity
  8
0
100
AcDbLine
 62
2
  6
CONTINUOUS
 10
12.4886864713
 20
2.5553401045
 11
12.4886864713
 21
2.695427593
  0
LINE
  5
3D6
100
AcDbEntity
  8
0
100
AcDbLine
 62
2
  6
CONTINUOUS
 10
12.4686864602
 20
2.3878529415
 11
12.4686864602
 21
2.4912273132
  0
LINE
  5
3D7
100
AcDbEntity
  8
0
100
AcDbLine
 62
2
  6
CONTINUOUS
 10
12.4686864602
 20
2.5238200015
 11
12.4686864602
 21
2.6929037395
  0
LINE
  5
3D8
100
AcDbEntity
  8
0
100
AcDbLine
 62
2
  6
CONTINUOUS
 10
12.4486864491
 20
2.390376795
 11
12.4486864491
 21
2.4912273132
  0
LINE
  5
3D9
100
AcDbEntity
  8
0
100
AcDbLine
 62
2
  6
CONTINUOUS
 10
12.4486864491
 20
2.515977327
 11
12.4486864491
 21
2.690379886
  0
LINE
  5
3DA
100
AcDbEntity
  8
0
100
AcDbLine
 62
2
  6
CONTINUOUS
 10
12.428686438
 20
2.3931794042
 11
12.428686438
 21
2.6875772768
  0
LINE
  5
3DB
100
AcDbEntity
  8
0
100
AcDbLine
 62
2
  6
CONTINUOUS
 10
12.4086864269
 20
2.3964643301
 11
12.4086864269
 21
2.5013773986
  0
LINE
  5
3DC
100
AcDbEntity
  8
0
100
AcDbLine
 62
2
  6
CONTINUOUS
 10
12.4086864269
 20
2.5325739971
 11
12.4086864269
 21
2.5537224311
  0
LINE
  5
3DD
100
AcDbEntity
  8
0
100
AcDbLine
 62
2
  6
CONTINUOUS
 10
12.4086864269
 20
2.5791473398
 11
12.4086864269
 21
2.6842923509
  0
LINE
  5
3DE
100
AcDbEntity
  8
0
100
AcDbLine
 62
2
  6
CONTINUOUS
 10
12.3886864158
 20
2.399749256
 11
12.3886864158
 21
2.4921022658
  0
LINE
  5
3DF
100
AcDbEntity
  8
0
100
AcDbLine
 62
2
  6
CONTINUOUS
 10
12.3886864158
 20
2.5895929958
 11
12.3886864158
 21
2.681007425
  0
LINE
  5
3E0
100
AcDbEntity
  8
0
100
AcDbLine
 62
2
  6
CONTINUOUS
 10
12.3686864047
 20
2.403451877
 11
12.3686864047
 21
2.4912273132
  0
LINE
  5
3E1
100
AcDbEntity
  8
0
100
AcDbLine
 62
2
  6
CONTINUOUS
 10
12.3686864047
 20
2.5920323691
 11
12.3686864047
 21
2.677304804
  0
LINE
  5
3E2
100
AcDbEntity
  8
0
100
AcDbLine
 62
2
  6
CONTINUOUS
 10
12.3486863936
 20
2.407324637
 11
12.3486863936
 21
2.4912273132
  0
LINE
  5
3E3
100
AcDbEntity
  8
0
100
AcDbLine
 62
2
  6
CONTINUOUS
 10
12.3486863936
 20
2.5920323691
 11
12.3486863936
 21
2.673432044
  0
LINE
  5
3E4
100
AcDbEntity
  8
0
100
AcDbLine
 62
2
  6
CONTINUOUS
 10
12.3286863825
 20
2.4113493968
 11
12.3286863825
 21
2.4912273132
  0
LINE
  5
3E5
100
AcDbEntity
  8
0
100
AcDbLine
 62
2
  6
CONTINUOUS
 10
12.3286863825
 20
2.515977327
 11
12.3286863825
 21
2.5333023366
  0
LINE
  5
3E6
100
AcDbEntity
  8
0
100
AcDbLine
 62
2
  6
CONTINUOUS
 10
12.3286863825
 20
2.5499573458
 11
12.3286863825
 21
2.5672823554
  0
LINE
  5
3E7
100
AcDbEntity
  8
0
100
AcDbLine
 62
2
  6
CONTINUOUS
 10
12.3286863825
 20
2.5920323691
 11
12.3286863825
 21
2.6694072842
  0
LINE
  5
3E8
100
AcDbEntity
  8
0
100
AcDbLine
 62
2
  6
CONTINUOUS
 10
12.3086863715
 20
2.4159005505
 11
12.3086863715
 21
2.4912273132
  0
LINE
  5
3E9
100
AcDbEntity
  8
0
100
AcDbLine
 62
2
  6
CONTINUOUS
 10
12.3086863715
 20
2.515977327
 11
12.3086863715
 21
2.5333023366
  0
LINE
  5
3EA
100
AcDbEntity
  8
0
100
AcDbLine
 62
2
  6
CONTINUOUS
 10
12.3086863715
 20
2.5499573458
 11
12.3086863715
 21
2.5672823554
  0
LINE
  5
3EB
100
AcDbEntity
  8
0
100
AcDbLine
 62
2
  6
CONTINUOUS
 10
12.3086863715
 20
2.5920323691
 11
12.3086863715
 21
2.6648561305
  0
LINE
  5
3EC
100
AcDbEntity
  8
0
100
AcDbLine
 62
2
  6
CONTINUOUS
 10
12.2886863604
 20
2.4204517041
 11
12.2886863604
 21
2.4912273132
  0
LINE
  5
3ED
100
AcDbEntity
  8
0
100
AcDbLine
 62
2
  6
CONTINUOUS
 10
12.2886863604
 20
2.5920323691
 11
12.2886863604
 21
2.6603049769
  0
LINE
  5
3EE
100
AcDbEntity
  8
0
100
AcDbLine
 62
2
  6
CONTINUOUS
 10
12.2686863493
 20
2.4257438218
 11
12.2686863493
 21
2.4912273132
  0
LINE
  5
3EF
100
AcDbEntity
  8
0
100
AcDbLine
 62
2
  6
CONTINUOUS
 10
12.2686863493
 20
2.5920323691
 11
12.2686863493
 21
2.6550128592
  0
LINE
  5
3F0
100
AcDbEntity
  8
0
100
AcDbLine
 62
2
  6
CONTINUOUS
 10
12.2486863382
 20
2.4310978667
 11
12.2486863382
 21
2.4912273132
  0
LINE
  5
3F1
100
AcDbEntity
  8
0
100
AcDbLine
 62
2
  6
CONTINUOUS
 10
12.2486863382
 20
2.5920323691
 11
12.2486863382
 21
2.6496588142
  0
LINE
  5
3F2
100
AcDbEntity
  8
0
100
AcDbLine
 62
2
  6
CONTINUOUS
 10
12.2286863271
 20
2.4372566433
 11
12.2286863271
 21
2.4912273132
  0
LINE
  5
3F3
100
AcDbEntity
  8
0
100
AcDbLine
 62
2
  6
CONTINUOUS
 10
12.2286863271
 20
2.515977327
 11
12.2286863271
 21
2.5672823554
  0
LINE
  5
3F4
100
AcDbEntity
  8
0
100
AcDbLine
 62
2
  6
CONTINUOUS
 10
12.2286863271
 20
2.5920323691
 11
12.2286863271
 21
2.6435000377
  0
LINE
  5
3F5
100
AcDbEntity
  8
0
100
AcDbLine
 62
2
  6
CONTINUOUS
 10
12.208686316
 20
2.443589771
 11
12.208686316
 21
2.4912273132
  0
LINE
  5
3F6
100
AcDbEntity
  8
0
100
AcDbLine
 62
2
  6
CONTINUOUS
 10
12.208686316
 20
2.515977327
 11
12.208686316
 21
2.5672823554
  0
LINE
  5
3F7
100
AcDbEntity
  8
0
100
AcDbLine
 62
2
  6
CONTINUOUS
 10
12.208686316
 20
2.5920323691
 11
12.208686316
 21
2.63716691
  0
LINE
  5
3F8
100
AcDbEntity
  8
0
100
AcDbLine
 62
2
  6
CONTINUOUS
 10
12.1886863049
 20
2.4510806436
 11
12.1886863049
 21
2.6296760373
  0
LINE
  5
3F9
100
AcDbEntity
  8
0
100
AcDbLine
 62
2
  6
CONTINUOUS
 10
12.1686862938
 20
2.4591016523
 11
12.1686862938
 21
2.6216550287
  0
LINE
  5
3FA
100
AcDbEntity
  8
0
100
AcDbLine
 62
2
  6
CONTINUOUS
 10
12.1486862827
 20
2.468314272
 11
12.1486862827
 21
2.612442409
  0
LINE
  5
3FB
100
AcDbEntity
  8
0
100
AcDbLine
 62
2
  6
CONTINUOUS
 10
12.1286862716
 20
2.4794932339
 11
12.1286862716
 21
2.601263447
  0
LINE
  5
3FC
100
AcDbEntity
  8
0
100
AcDbLine
 62
2
  6
CONTINUOUS
 10
12.1086862605
 20
2.4934150665
 11
12.1086862605
 21
2.5873416144
  0
LINE
  5
3FD
100
AcDbEntity
  8
0
100
AcDbLine
 62
2
  6
CONTINUOUS
 10
12.0886862494
 20
2.5144449553
 11
12.0886862494
 21
2.5663117257
  0
ENDBLK
  5
3FE
100
AcDbEntity
  8
0
  6
BYBLOCK
 62
0
100
AcDbBlockEnd
  0
BLOCK
  5
3FF
100
AcDbEntity
  8
0
100
AcDbBlockBegin
  2
_FILLED
 70
64
 10
0.0
 20
0.0
  3
_FILLED
  1

  0
SOLID
  5
400
100
AcDbEntity
  8
0
  6
BYBLOCK
 62
0
100
AcDbTrace
 10
0.0
 20
0.0
 11
-1.0
 21
0.1666666667
 12
-1.0
 22
-0.1666666667
 13
-1.0
 23
-0.1666666667
  0
ENDBLK
  5
401
100
AcDbEntity
  8
0
  6
BYBLOCK
 62
0
100
AcDbBlockEnd
  0
BLOCK
  5
402
100
AcDbEntity
  8
DRIVEN_DIMS
100
AcDbBlockBegin
 62
2
  6
CONTINUOUS
  2
*D0
 70
65
 10
0.0
 20
0.0
  3
*D0
  1

  0
MTEXT
  5
403
100
AcDbEntity
  8
DRIVEN_DIMS
100
AcDbMText
 62
2
  6
CONTINUOUS
  7
STANDARD
 71
2
 72
1
 10
7.4926925516
 20
5.9163145947
 30
0.0
 11
1.0
 21
0.0
 31
0.0
 44
0.9
  1
42,1\P[1.66]
 40
0.1
 41
0.6
  0
LINE
  5
404
100
AcDbEntity
  8
DRIVEN_DIMS
100
AcDbLine
 62
2
  6
CONTINUOUS
 10
8.0413831502
 20
6.6193143042
 11
7.4676925516
 21
6.6193143042
  0
LINE
  5
405
100
AcDbEntity
  8
DRIVEN_DIMS
100
AcDbLine
 62
2
  6
CONTINUOUS
 10
8.3914655911
 20
4.9633148853
 11
7.4676925516
 21
4.9633148853
  0
LINE
  5
406
100
AcDbEntity
  8
DRIVEN_DIMS
100
AcDbLine
 62
2
  6
CONTINUOUS
 10
7.5926925516
 20
6.6193143042
 11
7.5926925516
 21
6.0163145947
  0
LINE
  5
407
100
AcDbEntity
  8
DRIVEN_DIMS
100
AcDbLine
 62
2
  6
CONTINUOUS
 10
7.5926925516
 20
4.9633148853
 11
7.5926925516
 21
5.5663145947
  0
INSERT
  5
408
100
AcDbEntity
  8
DRIVEN_DIMS
100
AcDbBlockReference
 62
2
  6
CONTINUOUS
  2
_FILLED
 10
7.5926925516
 20
6.6193143042
 41
0.1875
 42
0.1875
 43
0.1875
 50
90.0
  0
INSERT
  5
409
100
AcDbEntity
  8
DRIVEN_DIMS
100
AcDbBlockReference
 62
2
  6
CONTINUOUS
  2
_FILLED
 10
7.5926925516
 20
4.9633148853
 41
0.1875
 42
0.1875
 43
0.1875
 50
270.0
  0
ENDBLK
  5
40A
100
AcDbEntity
  8
0
  6
BYBLOCK
 62
0
100
AcDbBlockEnd
  0
BLOCK
  5
40B
100
AcDbEntity
  8
SCHEME_DIMS
100
AcDbBlockBegin
 62
2
  6
CONTINUOUS
  2
*D1
 70
65
 10
0.0
 20
0.0
  3
*D1
  1

  0
MTEXT
  5
40C
100
AcDbEntity
  8
SCHEME_DIMS
100
AcDbMText
 62
2
  6
CONTINUOUS
  7
STANDARD
 71
2
 72
1
 10
7.1176925516
 20
5.4113143042
 30
0.0
 11
1.0
 21
0.0
 31
0.0
 44
0.9
  1
63,9\P[2.52]
 40
0.1
 41
0.6
  0
LINE
  5
40D
100
AcDbEntity
  8
SCHEME_DIMS
100
AcDbLine
 62
2
  6
CONTINUOUS
 10
8.2060196699
 20
4.1033143042
 11
7.0926925516
 21
4.1033143042
  0
LINE
  5
40E
100
AcDbEntity
  8
SCHEME_DIMS
100
AcDbLine
 62
2
  6
CONTINUOUS
 10
8.0413831502
 20
6.6193143042
 11
7.0926925516
 21
6.6193143042
  0
LINE
  5
40F
100
AcDbEntity
  8
SCHEME_DIMS
100
AcDbLine
 62
2
  6
CONTINUOUS
 10
7.2176925516
 20
4.1033143042
 11
7.2176925516
 21
5.0613143042
  0
LINE
  5
410
100
AcDbEntity
  8
SCHEME_DIMS
100
AcDbLine
 62
2
  6
CONTINUOUS
 10
7.2176925516
 20
6.6193143042
 11
7.2176925516
 21
5.5113143042
  0
INSERT
  5
411
100
AcDbEntity
  8
SCHEME_DIMS
100
AcDbBlockReference
 62
2
  6
CONTINUOUS
  2
_FILLED
 10
7.2176925516
 20
4.1033143042
 41
0.1875
 42
0.1875
 43
0.1875
 50
270.0
  0
INSERT
  5
412
100
AcDbEntity
  8
SCHEME_DIMS
100
AcDbBlockReference
 62
2
  6
CONTINUOUS
  2
_FILLED
 10
7.2176925516
 20
6.6193143042
 41
0.1875
 42
0.1875
 43
0.1875
 50
90.0
  0
ENDBLK
  5
413
100
AcDbEntity
  8
0
  6
BYBLOCK
 62
0
100
AcDbBlockEnd
  0
BLOCK
  5
414
100
AcDbEntity
  8
SCHEME_DIMS
100
AcDbBlockBegin
 62
2
  6
CONTINUOUS
  2
*D2
 70
65
 10
0.0
 20
0.0
  3
*D2
  1

  0
MTEXT
  5
415
100
AcDbEntity
  8
SCHEME_DIMS
100
AcDbMText
 62
2
  6
CONTINUOUS
  7
TEXTSTYLE_5
 71
2
 72
1
 10
8.4039674953
 20
7.2093143042
 30
0.0
 11
1.0
 21
0.0
 31
0.0
 44
0.9
  1
{\Fgdt;n}\Ftxt;16,6\P[.66]
 40
0.1
 41
0.5333333333
  0
LINE
  5
416
100
AcDbEntity
  8
SCHEME_DIMS
100
AcDbLine
 62
2
  6
CONTINUOUS
 10
8.1264674953
 20
6.6818143042
 11
8.1264674953
 21
7.2843143042
  0
LINE
  5
417
100
AcDbEntity
  8
SCHEME_DIMS
100
AcDbLine
 62
2
  6
CONTINUOUS
 10
8.7814674953
 20
6.6928580604
 11
8.7814674953
 21
7.2843143042
  0
LINE
  5
418
100
AcDbEntity
  8
SCHEME_DIMS
100
AcDbLine
 62
2
  6
CONTINUOUS
 10
8.1264674953
 20
7.1593143042
 11
7.7264674953
 21
7.1593143042
  0
LINE
  5
419
100
AcDbEntity
  8
SCHEME_DIMS
100
AcDbLine
 62
2
  6
CONTINUOUS
 10
8.7814674953
 20
7.1593143042
 11
9.1814674953
 21
7.1593143042
  0
INSERT
  5
41A
100
AcDbEntity
  8
SCHEME_DIMS
100
AcDbBlockReference
 62
2
  6
CONTINUOUS
  2
_FILLED
 10
8.1264674953
 20
7.1593143042
 41
0.1875
 42
0.1875
 43
0.1875
  0
INSERT
  5
41B
100
AcDbEntity
  8
SCHEME_DIMS
100
AcDbBlockReference
 62
2
  6
CONTINUOUS
  2
_FILLED
 10
8.7814674953
 20
7.1593143042
 41
0.1875
 42
0.1875
 43
0.1875
 50
180.0
  0
ENDBLK
  5
41C
100
AcDbEntity
  8
0
  6
BYBLOCK
 62
0
100
AcDbBlockEnd
  0
ENDSEC
  0
SECTION
  2
ENTITIES
  0
MTEXT
  5
41D
100
AcDbEntity
  8
0
100
AcDbMText
 62
2
  6
CONTINUOUS
  7
TEXTSTYLE_2
 71
2
 72
1
 10
11.0287658475
 20
1.794867839
 30
0.0
 11
1.0
 21
0.0
 31
0.0
 44
0.9
  1
THIRD ANGLE PROJECTION
 40
0.1
 41
1.76
  0
MTEXT
  5
41E
100
AcDbEntity
  8
0
100
AcDbMText
 62
2
  6
CONTINUOUS
  7
STANDARD
 71
1
 72
1
 10
12.88
 20
1.457
 30
0.0
 11
1.0
 21
0.0
 31
0.0
 44
0.9
  1
DRAWING NO.
 40
0.08
 41
0.88
  0
MTEXT
  5
41F
100
AcDbEntity
  8
0
100
AcDbMText
 62
2
  6
CONTINUOUS
  7
TEXTSTYLE_3
 71
2
 72
1
 10
11.03
 20
2.516432
 30
0.0
 11
1.0
 21
0.0
 31
0.0
 44
0.9
  1
and is proprietary in general
 40
0.08
 41
1.972
  0
MTEXT
  5
420
100
AcDbEntity
  8
0
100
AcDbMText
 62
2
  6
CONTINUOUS
  7
TEXTSTYLE_3
 71
2
 72
1
 10
11.03
 20
2.396432
 30
0.0
 11
1.0
 21
0.0
 31
0.0
 44
0.9
  1
and in detail.  Its contents
 40
0.08
 41
1.904
  0
MTEXT
  5
421
100
AcDbEntity
  8
0
100
AcDbMText
 62
2
  6
CONTINUOUS
  7
TEXTSTYLE_3
 71
2
 72
1
 10
11.03
 20
2.276432
 30
0.0
 11
1.0
 21
0.0
 31
0.0
 44
0.9
  1
shall not be revealed to
 40
0.08
 41
1.632
  0
MTEXT
  5
422
100
AcDbEntity
  8
0
100
AcDbMText
 62
2
  6
CONTINUOUS
  7
TEXTSTYLE_3
 71
2
 72
1
 10
11.03
 20
2.156432
 30
0.0
 11
1.0
 21
0.0
 31
0.0
 44
0.9
  1
outside parties without
 40
0.08
 41
1.564
  0
MTEXT
  5
423
100
AcDbEntity
  8
0
100
AcDbMText
 62
2
  6
CONTINUOUS
  7
TEXTSTYLE_3
 71
2
 72
1
 10
11.03
 20
2.036432
 30
0.0
 11
1.0
 21
0.0
 31
0.0
 44
0.9
  1
written consent of BANNER.
 40
0.08
 41
1.768
  0
MTEXT
  5
424
100
AcDbEntity
  8
0
100
AcDbMText
 62
2
  6
CONTINUOUS
  7
TEXTSTYLE_2
 71
1
 72
1
 10
12.08
 20
2.217
 30
0.0
 11
1.0
 21
0.0
 31
0.0
 44
0.9
  1
TITLE
 40
0.1
 41
0.4
  0
MTEXT
  5
425
100
AcDbEntity
  8
0
100
AcDbMText
 62
2
  6
CONTINUOUS
  7
STANDARD
 71
1
 72
1
 10
12.08
 20
1.457
 30
0.0
 11
1.0
 21
0.0
 31
0.0
 44
0.9
  1
SIZE
 40
0.08
 41
0.32
  0
MTEXT
  5
426
100
AcDbEntity
  8
0
100
AcDbMText
 62
2
  6
CONTINUOUS
  7
STANDARD
 71
1
 72
1
 10
12.08
 20
1.087
 30
0.0
 11
1.0
 21
0.0
 31
0.0
 44
0.9
  1
SCALE
 40
0.08
 41
0.4
  0
MTEXT
  5
427
100
AcDbEntity
  8
0
100
AcDbMText
 62
2
  6
CONTINUOUS
  7
TEXTSTYLE_2
 71
2
 72
1
 10
12.5
 20
1.337
 30
0.0
 11
1.0
 21
0.0
 31
0.0
 44
0.9
  1
B
 40
0.1
 41
0.08
  0
MTEXT
  5
428
100
AcDbEntity
  8
0
100
AcDbMText
 62
2
  6
CONTINUOUS
  7
TEXTSTYLE_3
 71
2
 72
1
 10
11.03
 20
2.636432
 30
0.0
 11
1.0
 21
0.0
 31
0.0
 44
0.9
  1
of BANNER ENGINEERING CORP.
 40
0.08
 41
1.836
  0
MTEXT
  5
429
100
AcDbEntity
  8
0
100
AcDbMText
 62
2
  6
CONTINUOUS
  7
TEXTSTYLE_3
 71
2
 72
1
 10
11.03
 20
2.756432
 30
0.0
 11
1.0
 21
0.0
 31
0.0
 44
0.9
  1
This drawing is the property
 40
0.08
 41
1.904
  0
MTEXT
  5
42A
100
AcDbEntity
  8
0
100
AcDbMText
 62
2
  6
CONTINUOUS
  7
TEXTSTYLE_2
 71
2
 72
1
 10
15.03
 20
2.4134
 30
0.0
 11
1.0
 21
0.0
 31
0.0
 44
0.9
  1
MINNEAPOLIS, MN 55440
 40
0.1
 41
1.68
  0
MTEXT
  5
42B
100
AcDbEntity
  8
0
100
AcDbMText
 62
2
  6
CONTINUOUS
  7
STANDARD
 71
1
 72
1
 10
14.255
 20
1.087
 30
0.0
 11
1.0
 21
0.0
 31
0.0
 44
0.9
  1
SHEET
 40
0.08
 41
0.4
  0
MTEXT
  5
42C
100
AcDbEntity
  8
0
100
AcDbMText
 62
2
  6
CONTINUOUS
  7
STANDARD
 71
1
 72
1
 10
15.63
 20
1.457
 30
0.0
 11
1.0
 21
0.0
 31
0.0
 44
0.9
  1
REV.
 40
0.08
 41
0.32
  0
MTEXT
  5
42D
100
AcDbEntity
  8
0
100
AcDbMText
 62
2
  6
CONTINUOUS
  7
STANDARD
 71
3
 72
1
 10
16.38
 20
0.835443
 30
0.0
 11
1.0
 21
0.0
 31
0.0
 44
0.9
  1
PRO/E
 40
0.07
 41
0.35
  0
MTEXT
  5
42E
100
AcDbEntity
  8
0
100
AcDbMText
 62
2
  6
CONTINUOUS
  7
TEXTSTYLE_4
 71
2
 72
1
 10
15.03
 20
2.751049
 30
0.0
 11
1.0
 21
0.0
 31
0.0
 44
0.9
  1
BANNER ENGINEERING CORP.
 40
0.12
 41
2.6496
  0
MTEXT
  5
42F
100
AcDbEntity
  8
0
100
AcDbMText
 62
2
  6
CONTINUOUS
  7
TEXTSTYLE_2
 71
2
 72
1
 10
15.03
 20
2.5724
 30
0.0
 11
1.0
 21
0.0
 31
0.0
 44
0.9
  1
P.O. BOX 9414
 40
0.1
 41
1.04
  0
MTEXT
  5
430
100
AcDbEntity
  8
0
100
AcDbMText
 62
2
  6
CONTINUOUS
  7
TEXTSTYLE_2
 71
2
 72
1
 10
9.485
 20
10.312
 30
0.0
 11
1.0
 21
0.0
 31
0.0
 44
0.9
  1
4
 40
0.1
 41
0.08
  0
MTEXT
  5
431
100
AcDbEntity
  8
0
100
AcDbMText
 62
2
  6
CONTINUOUS
  7
TEXTSTYLE_2
 71
2
 72
1
 10
11.455
 20
10.312
 30
0.0
 11
1.0
 21
0.0
 31
0.0
 44
0.9
  1
3
 40
0.1
 41
0.08
  0
MTEXT
  5
432
100
AcDbEntity
  8
0
100
AcDbMText
 62
2
  6
CONTINUOUS
  7
TEXTSTYLE_2
 71
2
 72
1
 10
13.425
 20
10.312
 30
0.0
 11
1.0
 21
0.0
 31
0.0
 44
0.9
  1
2
 40
0.1
 41
0.08
  0
MTEXT
  5
433
100
AcDbEntity
  8
0
100
AcDbMText
 62
2
  6
CONTINUOUS
  7
TEXTSTYLE_2
 71
2
 72
1
 10
15.395
 20
10.312
 30
0.0
 11
1.0
 21
0.0
 31
0.0
 44
0.9
  1
1
 40
0.1
 41
0.08
  0
MTEXT
  5
434
100
AcDbEntity
  8
0
100
AcDbMText
 62
2
  6
CONTINUOUS
  7
TEXTSTYLE_2
 71
2
 72
1
 10
3.575
 20
10.312
 30
0.0
 11
1.0
 21
0.0
 31
0.0
 44
0.9
  1
7
 40
0.1
 41
0.08
  0
MTEXT
  5
435
100
AcDbEntity
  8
0
100
AcDbMText
 62
2
  6
CONTINUOUS
  7
TEXTSTYLE_2
 71
2
 72
1
 10
5.545
 20
10.312
 30
0.0
 11
1.0
 21
0.0
 31
0.0
 44
0.9
  1
6
 40
0.1
 41
0.08
  0
MTEXT
  5
436
100
AcDbEntity
  8
0
100
AcDbMText
 62
2
  6
CONTINUOUS
  7
TEXTSTYLE_2
 71
2
 72
1
 10
7.515
 20
10.312
 30
0.0
 11
1.0
 21
0.0
 31
0.0
 44
0.9
  1
5
 40
0.1
 41
0.08
  0
MTEXT
  5
437
100
AcDbEntity
  8
0
100
AcDbMText
 62
2
  6
CONTINUOUS
  7
TEXTSTYLE_2
 71
2
 72
1
 10
1.605
 20
10.312
 30
0.0
 11
1.0
 21
0.0
 31
0.0
 44
0.9
  1
8
 40
0.1
 41
0.08
  0
MTEXT
  5
438
100
AcDbEntity
  8
0
100
AcDbMText
 62
2
  6
CONTINUOUS
  7
TEXTSTYLE_2
 71
2
 72
1
 10
1.605
 20
0.787
 30
0.0
 11
1.0
 21
0.0
 31
0.0
 44
0.9
  1
8
 40
0.1
 41
0.08
  0
MTEXT
  5
439
100
AcDbEntity
  8
0
100
AcDbMText
 62
2
  6
CONTINUOUS
  7
TEXTSTYLE_2
 71
2
 72
1
 10
3.575
 20
0.787
 30
0.0
 11
1.0
 21
0.0
 31
0.0
 44
0.9
  1
7
 40
0.1
 41
0.08
  0
MTEXT
  5
43A
100
AcDbEntity
  8
0
100
AcDbMText
 62
2
  6
CONTINUOUS
  7
TEXTSTYLE_2
 71
2
 72
1
 10
5.545
 20
0.787
 30
0.0
 11
1.0
 21
0.0
 31
0.0
 44
0.9
  1
6
 40
0.1
 41
0.08
  0
MTEXT
  5
43B
100
AcDbEntity
  8
0
100
AcDbMText
 62
2
  6
CONTINUOUS
  7
TEXTSTYLE_2
 71
2
 72
1
 10
7.515
 20
0.787
 30
0.0
 11
1.0
 21
0.0
 31
0.0
 44
0.9
  1
5
 40
0.1
 41
0.08
  0
MTEXT
  5
43C
100
AcDbEntity
  8
0
100
AcDbMText
 62
2
  6
CONTINUOUS
  7
TEXTSTYLE_2
 71
2
 72
1
 10
9.485
 20
0.787
 30
0.0
 11
1.0
 21
0.0
 31
0.0
 44
0.9
  1
4
 40
0.1
 41
0.08
  0
MTEXT
  5
43D
100
AcDbEntity
  8
0
100
AcDbMText
 62
2
  6
CONTINUOUS
  7
TEXTSTYLE_2
 71
2
 72
1
 10
11.455
 20
0.787
 30
0.0
 11
1.0
 21
0.0
 31
0.0
 44
0.9
  1
3
 40
0.1
 41
0.08
  0
MTEXT
  5
43E
100
AcDbEntity
  8
0
100
AcDbMText
 62
2
  6
CONTINUOUS
  7
TEXTSTYLE_2
 71
2
 72
1
 10
13.425
 20
0.787
 30
0.0
 11
1.0
 21
0.0
 31
0.0
 44
0.9
  1
2
 40
0.1
 41
0.08
  0
MTEXT
  5
43F
100
AcDbEntity
  8
0
100
AcDbMText
 62
2
  6
CONTINUOUS
  7
TEXTSTYLE_2
 71
2
 72
1
 10
15.395
 20
0.787
 30
0.0
 11
1.0
 21
0.0
 31
0.0
 44
0.9
  1
1
 40
0.1
 41
0.08
  0
MTEXT
  5
440
100
AcDbEntity
  8
0
100
AcDbMText
 62
2
  6
CONTINUOUS
  7
TEXTSTYLE_2
 71
3
 72
1
 10
0.52
 20
4.3995
 30
0.0
 11
1.0
 21
0.0
 31
0.0
 44
0.9
  1
B
 40
0.1
 41
0.08
  0
MTEXT
  5
441
100
AcDbEntity
  8
0
100
AcDbMText
 62
2
  6
CONTINUOUS
  7
TEXTSTYLE_2
 71
3
 72
1
 10
0.52
 20
2.0995
 30
0.0
 11
1.0
 21
0.0
 31
0.0
 44
0.9
  1
A
 40
0.1
 41
0.08
  0
MTEXT
  5
442
100
AcDbEntity
  8
0
100
AcDbMText
 62
2
  6
CONTINUOUS
  7
TEXTSTYLE_2
 71
3
 72
1
 10
0.52
 20
8.9995
 30
0.0
 11
1.0
 21
0.0
 31
0.0
 44
0.9
  1
D
 40
0.1
 41
0.08
  0
MTEXT
  5
443
100
AcDbEntity
  8
0
100
AcDbMText
 62
2
  6
CONTINUOUS
  7
TEXTSTYLE_2
 71
3
 72
1
 10
0.52
 20
6.6995
 30
0.0
 11
1.0
 21
0.0
 31
0.0
 44
0.9
  1
C
 40
0.1
 41
0.08
  0
MTEXT
  5
444
100
AcDbEntity
  8
0
100
AcDbMText
 62
2
  6
CONTINUOUS
  7
TEXTSTYLE_2
 71
1
 72
1
 10
16.48
 20
8.9995
 30
0.0
 11
1.0
 21
0.0
 31
0.0
 44
0.9
  1
D
 40
0.1
 41
0.08
  0
MTEXT
  5
445
100
AcDbEntity
  8
0
100
AcDbMText
 62
2
  6
CONTINUOUS
  7
TEXTSTYLE_2
 71
1
 72
1
 10
16.48
 20
6.6995
 30
0.0
 11
1.0
 21
0.0
 31
0.0
 44
0.9
  1
C
 40
0.1
 41
0.08
  0
MTEXT
  5
446
100
AcDbEntity
  8
0
100
AcDbMText
 62
2
  6
CONTINUOUS
  7
TEXTSTYLE_2
 71
1
 72
1
 10
16.48
 20
4.3995
 30
0.0
 11
1.0
 21
0.0
 31
0.0
 44
0.9
  1
B
 40
0.1
 41
0.08
  0
MTEXT
  5
447
100
AcDbEntity
  8
0
100
AcDbMText
 62
2
  6
CONTINUOUS
  7
TEXTSTYLE_2
 71
1
 72
1
 10
16.48
 20
2.0995
 30
0.0
 11
1.0
 21
0.0
 31
0.0
 44
0.9
  1
A
 40
0.1
 41
0.08
  0
MTEXT
  5
448
100
AcDbEntity
  8
0
100
AcDbMText
 62
2
  6
CONTINUOUS
  7
STANDARD
 71
1
 72
1
 10
14.819264911
 20
1.0627941725
 30
0.0
 11
1.0
 21
0.0
 31
0.0
 44
0.9
  1
1 OF 1
 40
0.1
 41
0.6
  0
MTEXT
  5
449
100
AcDbEntity
  8
0
100
AcDbMText
 62
7
  6
CONTINUOUS
  7
STANDARD
 71
1
 72
1
 10
13.8911999818
 20
1.3747321586
 30
0.0
 11
1.0
 21
0.0
 31
0.0
 44
0.9
  1
155348
 40
0.12
 41
0.72
  0
MTEXT
  5
44A
100
AcDbEntity
  8
0
100
AcDbMText
 62
2
  6
CONTINUOUS
  7
STANDARD
 71
1
 72
1
 10
12.644264911
 20
1.0627941725
 30
0.0
 11
1.0
 21
0.0
 31
0.0
 44
0.9
  1
1:1
 40
0.1
 41
0.3
  0
MTEXT
  5
44B
100
AcDbEntity
  8
0
100
AcDbMText
 62
2
  6
CONTINUOUS
  7
STANDARD
 71
1
 72
1
 10
1.0597007627
 20
1.6202922458
 30
0.0
 11
1.0
 21
0.0
 31
0.0
 44
0.9
  1
NOTES:\P1. ALL DIMENSIONS ARE MILLIMETERS [INCHES] UNLESS OTHERWISE NOTED.
 40
0.1
 41
6.6
  0
INSERT
  5
44C
100
AcDbEntity
  8
0
100
AcDbBlockReference
 62
2
  6
CONTINUOUS
  2
BANNER_LOGO_TITLEBLOCK_BL0
 10
12.9086867042
 20
2.5403783405
  0
DIMENSION
  5
44D
100
AcDbEntity
  8
DRIVEN_DIMS
100
AcDbDimension
 62
2
  6
CONTINUOUS
  2
*D0
 10
7.5926925516
 20
4.9633148853
 11
7.4676925516
 21
5.7913145947
 70
160
 71
2
 42
42.0623852412
  3
DIMSTYLE_1
100
AcDbAlignedDimension
 13
8.0413831502
 23
6.6193143042
 14
8.3914655911
 24
4.9633148853
 50
270.0
100
AcDbRotatedDimension
  0
DIMENSION
  5
44E
100
AcDbEntity
  8
SCHEME_DIMS
100
AcDbDimension
 62
2
  6
CONTINUOUS
  2
*D1
 10
7.2176925516
 20
6.6193143042
 11
7.0926925516
 21
5.2863143042
 70
160
 71
2
 42
63.9064
  3
DIMSTYLE_2
100
AcDbAlignedDimension
 13
8.2060196699
 23
4.1033143042
 14
8.0413831502
 24
6.6193143042
 50
90.0
100
AcDbRotatedDimension
  0
DIMENSION
  5
44F
100
AcDbEntity
  8
SCHEME_DIMS
100
AcDbDimension
 62
2
  6
CONTINUOUS
  2
*D2
 10
8.7814674953
 20
7.1593143042
 11
8.395634162
 21
7.0843143042
 70
160
 71
2
 42
16.637
  1
%%c<>
  3
DIMSTYLE_2
100
AcDbAlignedDimension
 13
8.1264674953
 23
6.6818143042
 14
8.7814674953
 24
6.6928580604
100
AcDbRotatedDimension
  0
LINE
  5
450
100
AcDbEntity
  8
0
100
AcDbLine
 62
2
  6
CONTINUOUS
 10
16.38
 20
0.887
 11
12.03
 21
0.887
  0
LINE
  5
451
100
AcDbEntity
  8
0
100
AcDbLine
 62
2
  6
CONTINUOUS
 10
16.38
 20
0.887
 11
16.38
 21
2.807
  0
LINE
  5
452
100
AcDbEntity
  8
0
100
AcDbLine
 62
2
  6
CONTINUOUS
 10
16.38
 20
2.807
 11
12.03
 21
2.807
  0
LINE
  5
453
100
AcDbEntity
  8
0
100
AcDbLine
 62
2
  6
CONTINUOUS
 10
12.03
 20
0.887
 11
12.03
 21
2.807
  0
MTEXT
  5
454
100
AcDbEntity
  8
NOTES
100
AcDbMText
 62
7
  6
CONTINUOUS
  7
STANDARD
 71
2
 72
1
 10
16.155
 20
1.367
 30
0.0
 11
1.0
 21
0.0
 31
0.0
 44
0.9
  1
-
 40
0.1
 41
0.1
  0
MTEXT
  5
455
100
AcDbEntity
  8
NOTES
100
AcDbMText
 62
7
  6
CONTINUOUS
  7
STANDARD
 71
2
 72
1
 10
14.205
 20
1.967
 30
0.0
 11
1.0
 21
0.0
 31
0.0
 44
0.9
  1
S18 6FF CABLE/PIGTAIL\PWEB CAD DRAWINGS 2D/3D
 40
0.1
 41
2.2
  0
MTEXT
  5
456
100
AcDbEntity
  8
NOTES
100
AcDbMText
 62
2
  6
CONTINUOUS
  7
STANDARD
 71
2
 72
1
 10
14.0569563851
 20
7.2858352173
 30
0.0
 11
1.0
 21
0.0
 31
0.0
 44
0.9
  1
ISOMETRIC VIEW\PSCALE  1:1
 40
0.1
 41
1.4
  0
LEADER
  5
457
100
AcDbEntity
  8
NOTES
100
AcDbLeader
 62
2
  6
CONTINUOUS
  3
STANDARD
 71
1
 72
0
 73
0
 75
0
 40
0.1
 41
1.0
 76
3
 10
8.8152408186
 20
5.9528336466
 30
0.0
 10
9.3152423008
 20
5.3804205358
 30
0.0
 10
9.5652423008
 20
5.3804205358
 30
0.0
340
458
1001
ACAD
1000
DSTYLE
1002
{
1070
77
1070
0
1002
}
  0
MTEXT
  5
458
102
{ACAD_REACTORS
330
457
102
}
100
AcDbEntity
  8
NOTES
100
AcDbMText
 62
2
  6
CONTINUOUS
  7
STANDARD
 71
1
 72
1
 10
9.5652423008
 20
5.4304205358
 30
0.0
 11
1.0
 21
0.0
 31
0.0
 44
0.9
  1
M18 X 1-6g
 40
0.1
 41
1.0
  0
LINE
  5
459
100
AcDbEntity
  8
0
100
AcDbLine
 62
2
  6
CONTINUOUS
 10
0.47
 20
5.586103
 11
0.47
 21
5.412897
  0
LINE
  5
45A
100
AcDbEntity
  8
0
100
AcDbLine
 62
2
  6
CONTINUOUS
 10
0.62
 20
10.112
 11
0.62
 21
0.887
  0
LINE
  5
45B
100
AcDbEntity
  8
0
100
AcDbLine
 62
2
  6
CONTINUOUS
 10
2.59
 20
0.887
 11
2.59
 21
0.637
  0
LINE
  5
45C
100
AcDbEntity
  8
0
100
AcDbLine
 62
2
  6
CONTINUOUS
 10
2.59
 20
10.112
 11
2.59
 21
10.362
  0
LINE
  5
45D
100
AcDbEntity
  8
0
100
AcDbLine
 62
2
  6
CONTINUOUS
 10
8.413397
 20
0.737
 11
8.586603
 21
0.737
  0
LINE
  5
45E
100
AcDbEntity
  8
0
100
AcDbLine
 62
7
  6
CONTINUOUS
 10
11.1389508475
 20
1.425992839
 11
11.7453418475
 21
1.495385839
  0
LINE
  5
45F
100
AcDbEntity
  8
0
100
AcDbLine
 62
2
  6
CONTINUOUS
 10
0.62
 20
0.887
 11
16.38
 21
0.887
  0
LINE
  5
460
100
AcDbEntity
  8
0
100
AcDbLine
 62
2
  6
CONTINUOUS
 10
12.03
 20
1.137
 11
16.38
 21
1.137
  0
LINE
  5
461
100
AcDbEntity
  8
0
100
AcDbLine
 62
7
  6
CONTINUOUS
 10
10.2121898475
 20
1.243294839
 11
10.4342808475
 21
1.243294839
  0
LINE
  5
462
100
AcDbEntity
  8
0
100
AcDbLine
 62
7
  6
CONTINUOUS
 10
10.4842808475
 20
1.243294839
 11
10.5842808475
 21
1.243294839
  0
LINE
  5
463
100
AcDbEntity
  8
0
100
AcDbLine
 62
7
  6
CONTINUOUS
 10
10.6342808475
 20
1.243294839
 11
10.8563718475
 21
1.243294839
  0
LINE
  5
464
100
AcDbEntity
  8
0
100
AcDbLine
 62
7
  6
CONTINUOUS
 10
11.0389508475
 20
1.243294839
 11
11.3171028475
 21
1.243294839
  0
LINE
  5
465
100
AcDbEntity
  8
0
100
AcDbLine
 62
7
  6
CONTINUOUS
 10
11.3671028475
 20
1.243294839
 11
11.5171888475
 21
1.243294839
  0
LINE
  5
466
100
AcDbEntity
  8
0
100
AcDbLine
 62
7
  6
CONTINUOUS
 10
11.5671888475
 20
1.243294839
 11
11.8453418475
 21
1.243294839
  0
LINE
  5
467
100
AcDbEntity
  8
0
100
AcDbLine
 62
7
  6
CONTINUOUS
 10
11.7453418475
 20
0.991203839
 11
11.1389508475
 21
1.060596839
  0
LINE
  5
468
100
AcDbEntity
  8
0
100
AcDbLine
 62
2
  6
CONTINUOUS
 10
4.56
 20
0.887
 11
4.56
 21
0.637
  0
LINE
  5
469
100
AcDbEntity
  8
0
100
AcDbLine
 62
2
  6
CONTINUOUS
 10
4.56
 20
10.112
 11
4.56
 21
10.362
  0
LINE
  5
46A
100
AcDbEntity
  8
0
100
AcDbLine
 62
2
  6
CONTINUOUS
 10
0.47
 20
5.412897
 11
0.62
 21
5.4995
  0
LINE
  5
46B
100
AcDbEntity
  8
0
100
AcDbLine
 62
2
  6
CONTINUOUS
 10
12.03
 20
1.507
 11
16.38
 21
1.507
  0
LINE
  5
46C
100
AcDbEntity
  8
0
100
AcDbLine
 62
2
  6
CONTINUOUS
 10
10.03
 20
1.907
 11
12.03
 21
1.907
  0
LINE
  5
46D
100
AcDbEntity
  8
0
100
AcDbLine
 62
2
  6
CONTINUOUS
 10
0.62
 20
5.4995
 11
0.47
 21
5.586103
  0
LINE
  5
46E
100
AcDbEntity
  8
0
100
AcDbLine
 62
2
  6
CONTINUOUS
 10
12.03
 20
2.267
 11
16.38
 21
2.267
  0
LINE
  5
46F
100
AcDbEntity
  8
0
100
AcDbLine
 62
2
  6
CONTINUOUS
 10
8.5
 20
10.112
 11
8.586603
 21
10.262
  0
LINE
  5
470
100
AcDbEntity
  8
0
100
AcDbLine
 62
2
  6
CONTINUOUS
 10
16.38
 20
2.807
 11
10.03
 21
2.807
  0
LINE
  5
471
100
AcDbEntity
  8
0
100
AcDbLine
 62
2
  6
CONTINUOUS
 10
0.62
 20
3.1995
 11
0.37
 21
3.1995
  0
LINE
  5
472
100
AcDbEntity
  8
0
100
AcDbLine
 62
2
  6
CONTINUOUS
 10
16.38
 20
3.1995
 11
16.63
 21
3.1995
  0
LINE
  5
473
100
AcDbEntity
  8
0
100
AcDbLine
 62
2
  6
CONTINUOUS
 10
8.586603
 20
0.737
 11
8.5
 21
0.887
  0
LINE
  5
474
100
AcDbEntity
  8
0
100
AcDbLine
 62
2
  6
CONTINUOUS
 10
6.53
 20
0.887
 11
6.53
 21
0.637
  0
LINE
  5
475
100
AcDbEntity
  8
0
100
AcDbLine
 62
2
  6
CONTINUOUS
 10
6.53
 20
10.112
 11
6.53
 21
10.362
  0
LINE
  5
476
100
AcDbEntity
  8
SKETCHED_ENT
100
AcDbLine
 62
7
  6
CONTINUOUS
 10
8.4539655911
 20
4.9633148853
 11
8.4539088088
 21
4.9633148853
  0
LINE
  5
477
100
AcDbEntity
  8
0
100
AcDbLine
 62
2
  6
CONTINUOUS
 10
8.5
 20
0.887
 11
8.5
 21
0.637
  0
LINE
  5
478
100
AcDbEntity
  8
0
100
AcDbLine
 62
2
  6
CONTINUOUS
 10
8.5
 20
10.112
 11
8.5
 21
10.362
  0
LINE
  5
479
100
AcDbEntity
  8
0
100
AcDbLine
 62
2
  6
CONTINUOUS
 10
0.62
 20
5.4995
 11
0.37
 21
5.4995
  0
LINE
  5
47A
100
AcDbEntity
  8
0
100
AcDbLine
 62
2
  6
CONTINUOUS
 10
16.38
 20
5.4995
 11
16.63
 21
5.4995
  0
LINE
  5
47B
100
AcDbEntity
  8
0
100
AcDbLine
 62
2
  6
CONTINUOUS
 10
10.03
 20
2.807
 11
10.03
 21
0.887
  0
LINE
  5
47C
100
AcDbEntity
  8
0
100
AcDbLine
 62
2
  6
CONTINUOUS
 10
10.47
 20
0.887
 11
10.47
 21
0.637
  0
LINE
  5
47D
100
AcDbEntity
  8
0
100
AcDbLine
 62
2
  6
CONTINUOUS
 10
10.47
 20
10.112
 11
10.47
 21
10.362
  0
LINE
  5
47E
100
AcDbEntity
  8
0
100
AcDbLine
 62
7
  6
CONTINUOUS
 10
10.5342808475
 20
1.143294839
 11
10.5342808475
 21
0.921203839
  0
LINE
  5
47F
100
AcDbEntity
  8
0
100
AcDbLine
 62
7
  6
CONTINUOUS
 10
10.5342808475
 20
1.193294839
 11
10.5342808475
 21
1.293294839
  0
LINE
  5
480
100
AcDbEntity
  8
0
100
AcDbLine
 62
7
  6
CONTINUOUS
 10
10.5342808475
 20
1.343294839
 11
10.5342808475
 21
1.565385839
  0
LINE
  5
481
100
AcDbEntity
  8
0
100
AcDbLine
 62
2
  6
CONTINUOUS
 10
8.5
 20
0.887
 11
8.413397
 21
0.737
  0
LINE
  5
482
100
AcDbEntity
  8
0
100
AcDbLine
 62
2
  6
CONTINUOUS
 10
0.62
 20
7.7995
 11
0.37
 21
7.7995
  0
LINE
  5
483
100
AcDbEntity
  8
0
100
AcDbLine
 62
2
  6
CONTINUOUS
 10
16.38
 20
7.7995
 11
16.63
 21
7.7995
  0
LINE
  5
484
100
AcDbEntity
  8
0
100
AcDbLine
 62
2
  6
CONTINUOUS
 10
8.413397
 20
10.262
 11
8.5
 21
10.112
  0
LINE
  5
485
100
AcDbEntity
  8
0
100
AcDbLine
 62
7
  6
CONTINUOUS
 10
11.1389508475
 20
1.060596839
 11
11.1389508475
 21
1.425992839
  0
LINE
  5
486
100
AcDbEntity
  8
0
100
AcDbLine
 62
7
  6
CONTINUOUS
 10
11.7453418475
 20
1.495385839
 11
11.7453418475
 21
0.991203839
  0
LINE
  5
487
100
AcDbEntity
  8
0
100
AcDbLine
 62
1
  6
CONTINUOUS
 10
12.03
 20
2.807
 11
12.03
 21
0.887
  0
LINE
  5
488
100
AcDbEntity
  8
0
100
AcDbLine
 62
2
  6
CONTINUOUS
 10
12.44
 20
0.887
 11
12.44
 21
0.637
  0
LINE
  5
489
100
AcDbEntity
  8
0
100
AcDbLine
 62
2
  6
CONTINUOUS
 10
12.44
 20
10.112
 11
12.44
 21
10.362
  0
LINE
  5
48A
100
AcDbEntity
  8
0
100
AcDbLine
 62
2
  6
CONTINUOUS
 10
16.53
 20
5.586103
 11
16.38
 21
5.4995
  0
LINE
  5
48B
100
AcDbEntity
  8
0
100
AcDbLine
 62
2
  6
CONTINUOUS
 10
16.38
 20
5.4995
 11
16.53
 21
5.412897
  0
LINE
  5
48C
100
AcDbEntity
  8
0
100
AcDbLine
 62
2
  6
CONTINUOUS
 10
12.83
 20
1.507
 11
12.83
 21
1.137
  0
LINE
  5
48D
100
AcDbEntity
  8
0
100
AcDbLine
 62
2
  6
CONTINUOUS
 10
16.38
 20
10.112
 11
0.62
 21
10.112
  0
LINE
  5
48E
100
AcDbEntity
  8
0
100
AcDbLine
 62
2
  6
CONTINUOUS
 10
8.586603
 20
10.262
 11
8.413397
 21
10.262
  0
LINE
  5
48F
100
AcDbEntity
  8
0
100
AcDbLine
 62
2
  6
CONTINUOUS
 10
14.205
 20
1.137
 11
14.205
 21
0.887
  0
LINE
  5
490
100
AcDbEntity
  8
0
100
AcDbLine
 62
2
  6
CONTINUOUS
 10
14.41
 20
0.887
 11
14.41
 21
0.637
  0
LINE
  5
491
100
AcDbEntity
  8
0
100
AcDbLine
 62
2
  6
CONTINUOUS
 10
14.41
 20
10.112
 11
14.41
 21
10.362
  0
LINE
  5
492
100
AcDbEntity
  8
0
100
AcDbLine
 62
2
  6
CONTINUOUS
 10
15.58
 20
1.507
 11
15.58
 21
1.137
  0
LINE
  5
493
100
AcDbEntity
  8
0
100
AcDbLine
 62
2
  6
CONTINUOUS
 10
16.38
 20
0.887
 11
16.38
 21
10.112
  0
LINE
  5
494
100
AcDbEntity
  8
0
100
AcDbLine
 62
2
  6
CONTINUOUS
 10
16.53
 20
5.412897
 11
16.53
 21
5.586103
  0
LWPOLYLINE
  5
495
100
AcDbEntity
  8
0
100
AcDbPolyline
 62
7
  6
CONTINUOUS
 90
4
 70
0
 10
12.9652386436
 20
7.5657559961
 10
12.931403035
 20
7.6159091968
 10
12.9028461139
 20
7.6686766411
 10
12.8864989821
 20
7.7075941279
  0
LWPOLYLINE
  5
496
100
AcDbEntity
  8
0
100
AcDbPolyline
 62
7
  6
CONTINUOUS
 90
4
 70
0
 10
12.8857283912
 20
7.7080390187
 10
12.901691646
 20
7.6701282351
 10
12.9310295868
 20
7.6161419349
 10
12.9652386436
 20
7.5657559961
  0
LWPOLYLINE
  5
497
100
AcDbEntity
  8
0
100
AcDbPolyline
 62
7
  6
CONTINUOUS
 90
8
 70
0
 10
12.8705567339
 20
7.716798181
 10
12.8577583448
 20
7.7574425455
 10
12.8490856092
 20
7.7974357898
 10
12.8447067689
 20
7.8360020874
 10
12.8447067689
 20
7.8723932929
 10
12.8490856092
 20
7.9059034557
 10
12.8577583448
 20
7.9358825141
 10
12.8705567339
 20
7.9617489061
  0
LWPOLYLINE
  5
498
100
AcDbEntity
  8
0
100
AcDbPolyline
 62
7
  6
CONTINUOUS
 90
7
 70
0
 10
13.0987166805
 20
7.4838258184
 10
13.0611250569
 20
7.5092317635
 10
13.0238198102
 20
7.542093239
 10
12.988387074
 20
7.5814161746
 10
12.9563393872
 20
7.6256760766
 10
12.9288591502
 20
7.6731587697
 10
12.9211007115
 20
7.6903885484
  0
LWPOLYLINE
  5
499
100
AcDbEntity
  8
0
100
AcDbPolyline
 62
7
  6
CONTINUOUS
 90
5
 70
0
 10
12.9537591868
 20
7.6932565453
 10
12.9523194034
 20
7.6954649213
 10
12.9506054145
 20
7.6975365715
 10
12.9486559825
 20
7.699359124
 10
12.9466937456
 20
7.7007191659
  0
LWPOLYLINE
  5
49A
100
AcDbEntity
  8
0
100
AcDbPolyline
 62
7
  6
CONTINUOUS
 90
24
 70
0
 10
12.9275666919
 20
7.6944642989
 10
12.9289674215
 20
7.6913058163
 10
12.939770755
 20
7.6697521976
 10
12.9516076465
 20
7.6486570055
 10
12.9644011116
 20
7.6281573707
 10
12.9780679559
 20
7.6083865495
 10
12.9925193153
 20
7.5894730601
 10
13.0076612324
 20
7.5715398489
 10
13.0233952661
 20
7.5547034939
 10
13.0396191297
 20
7.5390734481
 10
13.0562273548
 20
7.5247513304
 10
13.0731119746
 20
7.5118302659
 10
13.0901632245
 20
7.5003942821
 10
13.1072702107
 20
7.4905177859
 10
13.1243214601
 20
7.4822651349
 10
13.1412060791
 20
7.4756899683
 10
13.1578143028
 20
7.4708350009
 10
13.1740381647
 20
7.467731774
 10
13.1897721962
 20
7.4664004507
 10
13.2049141107
 20
7.4668496853
 10
13.219365467
 20
7.4690765676
 10
13.2330323079
 20
7.4730666412
 10
13.2458257691
 20
7.4787939969
 10
13.2487146725
 20
7.4803989776
  0
LINE
  5
49B
100
AcDbEntity
  8
0
100
AcDbLine
 62
7
  6
CONTINUOUS
 10
12.9184039361
 20
7.934124936
 11
12.9184039361
 21
7.6891742109
  0
LINE
  5
49C
100
AcDbEntity
  8
0
100
AcDbLine
 62
9
  6
CONTINUOUS
 10
12.9396170512
 20
7.7014215355
 11
12.9396170512
 21
7.9463722606
  0
LINE
  5
49D
100
AcDbEntity
  8
0
100
AcDbLine
 62
9
  6
CONTINUOUS
 10
12.9537591868
 20
7.6932565453
 11
12.9537591868
 21
7.9545373188
  0
LINE
  5
49E
100
AcDbEntity
  8
0
100
AcDbLine
 62
7
  6
CONTINUOUS
 10
12.8593540235
 20
7.9391074864
 11
12.8658301015
 21
7.9626457613
  0
LWPOLYLINE
  5
49F
100
AcDbEntity
  8
0
100
AcDbPolyline
 62
7
  6
CONTINUOUS
 90
3
 70
0
 10
12.8640978231
 20
7.9813975228
 10
12.8523361536
 20
7.9387749759
 10
12.8493781058
 20
7.9069145291
  0
LINE
  5
4A0
100
AcDbEntity
  8
0
100
AcDbLine
 62
7
  6
CONTINUOUS
 10
12.9184039361
 20
7.6891742109
 11
12.8705567339
 21
7.716798181
  0
LINE
  5
4A1
100
AcDbEntity
  8
0
100
AcDbLine
 62
7
  6
CONTINUOUS
 10
13.2224611179
 20
7.5136306864
 11
13.2703083201
 21
7.4860067163
  0
LINE
  5
4A2
100
AcDbEntity
  8
0
100
AcDbLine
 62
9
  6
CONTINUOUS
 10
12.9396169607
 20
7.7014213787
 11
12.9537591868
 21
7.6932565453
  0
LWPOLYLINE
  5
4A3
100
AcDbEntity
  8
0
100
AcDbPolyline
 62
7
  6
CONTINUOUS
 90
12
 70
0
 10
12.8658301015
 20
7.9626457613
 10
12.8819937698
 20
7.9942502075
 10
12.9035442863
 20
8.0191626484
 10
12.9299407113
 20
8.0367695716
 10
12.9598830363
 20
8.0465020355
 10
12.9927297343
 20
8.0485427583
 10
13.0279371154
 20
8.0429861816
 10
13.0646620795
 20
8.0299699484
 10
13.1011523853
 20
8.0103407526
 10
13.1368350475
 20
7.9847648063
 10
13.1712315424
 20
7.95376243
 10
13.2038510899
 20
7.9177687621
  0
LWPOLYLINE
  5
4A4
100
AcDbEntity
  8
0
100
AcDbPolyline
 62
7
  6
CONTINUOUS
 90
6
 70
0
 10
12.9041461106
 20
7.9750157695
 10
12.9065903274
 20
7.9796380601
 10
12.9288322289
 20
8.0033651136
 10
12.9563027001
 20
8.0191244965
 10
12.9883413034
 20
8.0263897132
 10
13.0195282599
 20
8.0254419349
  0
LWPOLYLINE
  5
4A5
100
AcDbEntity
  8
0
100
AcDbPolyline
 62
7
  6
CONTINUOUS
 90
6
 70
0
 10
13.2316598822
 20
7.4245935197
 10
13.2348588723
 20
7.424137402
 10
13.2713377765
 20
7.4280091697
 10
13.3034899145
 20
7.4412925346
 10
13.3303633912
 20
7.4635905907
 10
13.3511589527
 20
7.4942457571
  0
LWPOLYLINE
  5
4A6
100
AcDbEntity
  8
0
100
AcDbPolyline
 62
7
  6
CONTINUOUS
 90
4
 70
0
 10
12.9466937456
 20
7.7007191659
 10
12.9442236324
 20
7.7017877847
 10
12.9418683326
 20
7.7020740707
 10
12.9396170512
 20
7.7014215355
  0
LINE
  5
4A7
100
AcDbEntity
  8
0
100
AcDbLine
 62
7
  6
CONTINUOUS
 10
13.2038510899
 20
7.9177687621
 11
13.2391659413
 21
7.8733430666
  0
LWPOLYLINE
  5
4A8
100
AcDbEntity
  8
0
100
AcDbPolyline
 62
7
  6
CONTINUOUS
 90
3
 70
0
 10
13.2348350693
 20
7.8779561853
 10
13.2197232882
 20
7.8983407121
 10
13.2038510899
 20
7.9177687621
  0
LWPOLYLINE
  5
4A9
100
AcDbEntity
  8
0
100
AcDbPolyline
 62
7
  6
CONTINUOUS
 90
6
 70
0
 10
13.2348350693
 20
7.8779561853
 10
13.2612862709
 20
7.8386178906
 10
13.2838181846
 20
7.7982708385
 10
13.3025934892
 20
7.7571664266
 10
13.3179585515
 20
7.7144039915
 10
13.3296070236
 20
7.6693250157
  0
LINE
  5
4AA
100
AcDbEntity
  8
0
100
AcDbLine
 62
7
  6
CONTINUOUS
 10
13.2391659413
 20
7.8733430666
 11
13.2701624704
 21
7.8248113565
  0
LWPOLYLINE
  5
4AB
100
AcDbEntity
  8
0
100
AcDbPolyline
 62
7
  6
CONTINUOUS
 90
5
 70
0
 10
13.2436741741
 20
7.7871586094
 10
13.2448668028
 20
7.7848075394
 10
13.2458039198
 20
7.7822873647
 10
13.2464075892
 20
7.7796878405
 10
13.2466031341
 20
7.7773079067
  0
LINE
  5
4AC
100
AcDbEntity
  8
0
100
AcDbLine
 62
7
  6
CONTINUOUS
 10
13.2701624704
 20
7.8248113565
 11
13.2959055618
 21
7.7736889733
  0
LINE
  5
4AD
100
AcDbEntity
  8
0
100
AcDbLine
 62
7
  6
CONTINUOUS
 10
13.2959055618
 20
7.7736889733
 11
13.3108540426
 21
7.7341765181
  0
LWPOLYLINE
  5
4AE
100
AcDbEntity
  8
0
100
AcDbPolyline
 62
7
  6
CONTINUOUS
 90
6
 70
0
 10
13.278161012
 20
7.7672480747
 10
13.2792078653
 20
7.7635341904
 10
13.2793437164
 20
7.7599195252
 10
13.2786512278
 20
7.7567340024
 10
13.2772447532
 20
7.7541874528
 10
13.2753581377
 20
7.7525364391
  0
LINE
  5
4AF
100
AcDbEntity
  8
0
100
AcDbLine
 62
7
  6
CONTINUOUS
 10
13.2224611179
 20
7.7585814116
 11
13.2224611179
 21
7.5136306864
  0
LINE
  5
4B0
100
AcDbEntity
  8
0
100
AcDbLine
 62
9
  6
CONTINUOUS
 10
13.2436741741
 20
7.7871586094
 11
13.2436741741
 21
7.7708287362
  0
LINE
  5
4B1
100
AcDbEntity
  8
0
100
AcDbLine
 62
7
  6
CONTINUOUS
 10
13.2703083201
 20
7.7309574415
 11
13.2224611179
 21
7.7585814116
  0
LINE
  5
4B2
100
AcDbEntity
  8
0
100
AcDbLine
 62
7
  6
CONTINUOUS
 10
12.8705567339
 20
7.9617489061
 11
12.9184039361
 21
7.934124936
  0
LINE
  5
4B3
100
AcDbEntity
  8
0
100
AcDbLine
 62
9
  6
CONTINUOUS
 10
13.2753581377
 20
7.7525364391
 11
13.243674233
 21
7.7708287362
  0
LINE
  5
4B4
100
AcDbEntity
  8
0
100
AcDbLine
 62
9
  6
CONTINUOUS
 10
12.9396170512
 20
7.9463722606
 11
12.9079331465
 21
7.9646645577
  0
LINE
  5
4B5
100
AcDbEntity
  8
0
100
AcDbLine
 62
7
  6
CONTINUOUS
 10
13.2985924735
 20
7.7472872076
 11
13.282429176
 21
7.7566188807
  0
LINE
  5
4B6
100
AcDbEntity
  8
0
100
AcDbLine
 62
7
  6
CONTINUOUS
 10
12.8988408874
 20
7.9780786723
 11
12.9141224369
 21
7.9692560651
  0
LINE
  5
4B7
100
AcDbEntity
  8
0
100
AcDbLine
 62
9
  6
CONTINUOUS
 10
13.278161012
 20
7.7672480747
 11
13.2436741741
 21
7.7871586094
  0
LINE
  5
4B8
100
AcDbEntity
  8
0
100
AcDbLine
 62
9
  6
CONTINUOUS
 10
12.9537591868
 20
7.9545373188
 11
12.9192723489
 21
7.9744478535
  0
LWPOLYLINE
  5
4B9
100
AcDbEntity
  8
0
100
AcDbPolyline
 62
7
  6
CONTINUOUS
 90
6
 70
0
 10
13.1736135508
 20
7.9383219157
 10
13.209046287
 20
7.8989989802
 10
13.2410939738
 20
7.8547390781
 10
13.2685742108
 20
7.8072563851
 10
13.2908220691
 20
7.7578488052
 10
13.2932845358
 20
7.7503516776
  0
LWPOLYLINE
  5
4BA
100
AcDbEntity
  8
0
100
AcDbPolyline
 62
7
  6
CONTINUOUS
 90
6
 70
0
 10
13.3915514712
 20
7.805394758
 10
13.3652592515
 20
7.8609682707
 10
13.3332183577
 20
7.9142023411
 10
13.2963532991
 20
7.9635096442
 10
13.2557312323
 20
8.0074189667
 10
13.2125304059
 20
8.0446187099
  0
LWPOLYLINE
  5
4BB
100
AcDbEntity
  8
0
100
AcDbPolyline
 62
7
  6
CONTINUOUS
 90
5
 70
0
 10
13.3296070236
 20
7.6693250157
 10
13.3365404039
 20
7.6218584533
 10
13.3372184188
 20
7.5747533864
 10
13.3311713234
 20
7.5325087753
 10
13.3188055148
 20
7.4961474201
  0
LWPOLYLINE
  5
4BC
100
AcDbEntity
  8
0
100
AcDbPolyline
 62
7
  6
CONTINUOUS
 90
4
 70
0
 10
13.2466031341
 20
7.7773079067
 10
13.2462947073
 20
7.7746350044
 10
13.2453649894
 20
7.7724521239
 10
13.243674233
 20
7.7708287362
  0
LWPOLYLINE
  5
4BD
100
AcDbEntity
  8
0
100
AcDbPolyline
 62
7
  6
CONTINUOUS
 90
3
 70
0
 10
13.0987166805
 20
7.9965893364
 10
13.1363083041
 20
7.9711833913
 10
13.1736135508
 20
7.9383219157
  0
LWPOLYLINE
  5
4BE
100
AcDbEntity
  8
0
100
AcDbPolyline
 62
7
  6
CONTINUOUS
 90
9
 70
0
 10
13.4306993313
 20
7.793245433
 10
13.4076142677
 20
7.8493738967
 10
13.378376058
 20
7.9039953085
 10
13.3438263381
 20
7.9554813208
 10
13.3049638016
 20
8.0022962975
 10
13.2629146691
 20
8.0430427216
 10
13.2188993865
 20
8.0765025191
 10
13.1741965373
 20
8.1016730761
 10
13.1301050361
 20
8.117796886
  0
LWPOLYLINE
  5
4BF
100
AcDbEntity
  8
0
100
AcDbPolyline
 62
7
  6
CONTINUOUS
 90
6
 70
0
 10
13.4681004619
 20
7.7811386321
 10
13.4483916916
 20
7.8373931328
 10
13.4221719513
 20
7.8929843974
 10
13.3901936231
 20
7.9462554004
 10
13.3533793662
 20
7.9956177248
 10
13.3127948351
 20
8.0395985303
  0
LWPOLYLINE
  5
4C0
100
AcDbEntity
  8
0
100
AcDbPolyline
 62
7
  6
CONTINUOUS
 90
4
 70
0
 10
12.9192723489
 20
7.9744478535
 10
12.9289674215
 20
7.985114465
 10
12.939770755
 20
7.9941937509
 10
12.9487186891
 20
8.0000161781
  0
LINE
  5
4C1
100
AcDbEntity
  8
0
100
AcDbLine
 62
7
  6
CONTINUOUS
 10
12.9477842151
 20
7.9994081152
 11
12.9500152982
 21
8.0017884607
  0
LWPOLYLINE
  5
4C2
100
AcDbEntity
  8
0
100
AcDbPolyline
 62
7
  6
CONTINUOUS
 90
3
 70
0
 10
13.1446680515
 20
8.0202432143
 10
13.1005089723
 20
8.0472162814
 10
13.0566304972
 20
8.0655036046
  0
LWPOLYLINE
  5
4C3
100
AcDbEntity
  8
0
100
AcDbPolyline
 62
7
  6
CONTINUOUS
 90
4
 70
0
 10
13.1771318464
 20
8.0335742494
 10
13.1330117125
 20
8.0613379486
 10
13.0890523086
 20
8.080480975
 10
13.0465026324
 20
8.0904369806
  0
LWPOLYLINE
  5
4C4
100
AcDbEntity
  8
0
100
AcDbPolyline
 62
7
  6
CONTINUOUS
 90
4
 70
0
 10
13.2125304059
 20
8.0446187099
 10
13.1680053207
 20
8.0739956726
 10
13.1234496346
 20
8.0946679674
 10
13.0801579107
 20
8.1060110982
  0
LINE
  5
4C5
100
AcDbEntity
  8
0
100
AcDbLine
 62
7
  6
CONTINUOUS
 10
13.3127948351
 20
8.0395985303
 11
13.2696171685
 21
8.0768841045
  0
LINE
  5
4C6
100
AcDbEntity
  8
0
100
AcDbLine
 62
7
  6
CONTINUOUS
 10
13.3698580782
 20
8.071777165
 11
13.3267037453
 21
8.1091484153
  0
LINE
  5
4C7
100
AcDbEntity
  8
0
100
AcDbLine
 62
7
  6
CONTINUOUS
 10
13.5041421393
 20
8.0103598946
 11
13.4674299293
 21
8.0598316483
  0
LWPOLYLINE
  5
4C8
100
AcDbEntity
  8
0
100
AcDbPolyline
 62
7
  6
CONTINUOUS
 90
3
 70
0
 10
13.4922652722
 20
7.9680589431
 10
13.4578296178
 20
8.0196368247
 10
13.4190560594
 20
8.0665783877
  0
LWPOLYLINE
  5
4C9
100
AcDbEntity
  8
0
100
AcDbPolyline
 62
7
  6
CONTINUOUS
 90
4
 70
0
 10
13.4790838521
 20
7.9250002022
 10
13.4471682175
 20
7.9783079174
 10
13.4104049102
 20
8.0277250587
 10
13.3698580782
 20
8.071777165
  0
LWPOLYLINE
  5
4CA
100
AcDbEntity
  8
0
100
AcDbPolyline
 62
7
  6
CONTINUOUS
 90
10
 70
0
 10
13.5036887179
 20
7.769291655
 10
13.4874997814
 20
7.8252423232
 10
13.4644914122
 20
7.8813785992
 10
13.4353210344
 20
7.936027342
 10
13.4008282781
 20
7.9875593956
 10
13.3620101526
 20
8.0344377626
 10
13.3199915652
 20
8.0752630515
 10
13.2759920587
 20
8.1088148562
 10
13.2312897503
 20
8.1340878426
 10
13.1871835383
 20
8.150321475
  0
LWPOLYLINE
  5
4CB
100
AcDbEntity
  8
0
100
AcDbPolyline
 62
7
  6
CONTINUOUS
 90
7
 70
0
 10
13.3113908627
 20
7.5282028745
 10
13.3200635983
 20
7.5581819329
 10
13.3244424385
 20
7.5916920957
 10
13.3244424385
 20
7.6280833012
 10
13.3200635983
 20
7.6666495988
 10
13.3113908627
 20
7.7066428431
 10
13.2985924735
 20
7.7472872076
  0
LWPOLYLINE
  5
4CC
100
AcDbEntity
  8
0
100
AcDbPolyline
 62
7
  6
CONTINUOUS
 90
4
 70
0
 10
12.912689343
 20
7.9680174152
 10
12.9151762902
 20
7.9701669303
 10
12.9174521763
 20
7.9723892098
 10
12.9192723489
 20
7.9744478535
  0
LWPOLYLINE
  5
4CD
100
AcDbEntity
  8
0
100
AcDbPolyline
 62
7
  6
CONTINUOUS
 90
6
 70
0
 10
14.6870065192
 20
9.0324787823
 10
14.7115795274
 20
9.0429061636
 10
14.7389178841
 20
9.0474850359
 10
14.7684723637
 20
9.0461228617
 10
14.7996506831
 20
9.0388469553
 10
14.8318280383
 20
9.0258031435
  0
LINE
  5
4CE
100
AcDbEntity
  8
0
100
AcDbLine
 62
7
  6
CONTINUOUS
 10
13.3414093562
 20
7.465735219
 11
13.3476396205
 21
7.4674655729
  0
LWPOLYLINE
  5
4CF
100
AcDbEntity
  8
0
100
AcDbPolyline
 62
7
  6
CONTINUOUS
 90
4
 70
0
 10
13.3984778211
 20
7.4984903388
 10
13.4038301349
 20
7.4999570134
 10
13.4333046955
 20
7.518827044
 10
13.4568748182
 20
7.5465462308
  0
LWPOLYLINE
  5
4D0
100
AcDbEntity
  8
0
100
AcDbPolyline
 62
7
  6
CONTINUOUS
 90
4
 70
0
 10
13.4549126785
 20
7.5310691095
 10
13.4600199542
 20
7.5324497609
 10
13.4895589734
 20
7.5512117515
 10
13.51320311
 20
7.5788311802
  0
LWPOLYLINE
  5
4D1
100
AcDbEntity
  8
0
100
AcDbPolyline
 62
7
  6
CONTINUOUS
 90
4
 70
0
 10
13.5113476981
 20
7.5636475502
 10
13.5162090799
 20
7.5649438162
 10
13.5458124334
 20
7.5835976879
 10
13.5695304837
 20
7.6111172435
  0
LINE
  5
4D2
100
AcDbEntity
  8
0
100
AcDbLine
 62
7
  6
CONTINUOUS
 10
13.5677828775
 20
7.5962256595
 11
13.5723975137
 21
7.59743918
  0
LWPOLYLINE
  5
4D3
100
AcDbEntity
  8
0
100
AcDbPolyline
 62
7
  6
CONTINUOUS
 90
4
 70
0
 10
13.6242182144
 20
7.6288034364
 10
13.6285852571
 20
7.629935853
 10
13.658316905
 20
7.6483732523
 10
13.6821824809
 20
7.6756927176
  0
LINE
  5
4D4
100
AcDbEntity
  8
0
100
AcDbLine
 62
7
  6
CONTINUOUS
 10
13.2503938039
 20
7.4804391411
 11
13.2476776753
 21
7.4798228557
  0
LWPOLYLINE
  5
4D5
100
AcDbEntity
  8
0
100
AcDbPolyline
 62
7
  6
CONTINUOUS
 90
4
 70
0
 10
13.2696171685
 20
8.0768841045
 10
13.2251001823
 20
8.1063587081
 10
13.180537295
 20
8.1271375669
 10
13.1372232826
 20
8.1385930333
  0
LWPOLYLINE
  5
4D6
100
AcDbEntity
  8
0
100
AcDbPolyline
 62
7
  6
CONTINUOUS
 90
4
 70
0
 10
13.3267037453
 20
8.1091484153
 10
13.2821950375
 20
8.1387205372
 10
13.2376251287
 20
8.1596058727
 10
13.1942890023
 20
8.1711736261
  0
LWPOLYLINE
  5
4D7
100
AcDbEntity
  8
0
100
AcDbPolyline
 62
7
  6
CONTINUOUS
 90
3
 70
0
 10
13.4190560594
 20
8.0665783877
 10
13.3770681865
 20
8.1074823721
 10
13.3330846335
 20
8.1411260447
  0
LWPOLYLINE
  5
4D8
100
AcDbEntity
  8
0
100
AcDbPolyline
 62
7
  6
CONTINUOUS
 90
3
 70
0
 10
13.4674299293
 20
8.0598316483
 10
13.4269209594
 20
8.1039548726
 10
13.3837901341
 20
8.141411644
  0
LWPOLYLINE
  5
4D9
100
AcDbEntity
  8
0
100
AcDbPolyline
 62
7
  6
CONTINUOUS
 90
6
 70
0
 10
13.5148303557
 20
8.0517136105
 10
13.4761015203
 20
8.0987181752
 10
13.4341445308
 20
8.1397006853
 10
13.3901771087
 20
8.1734360859
 10
13.3454764222
 20
8.198913614
 10
13.301341322
 20
8.2153666857
  0
LWPOLYLINE
  5
4DA
100
AcDbEntity
  8
0
100
AcDbPolyline
 62
7
  6
CONTINUOUS
 90
12
 70
0
 10
13.3511589527
 20
7.4942457571
 10
13.3652530986
 20
7.5323587929
 10
13.3722161107
 20
7.5768148006
 10
13.3718244798
 20
7.6263154649
 10
13.3640673686
 20
7.6794165957
 10
13.3491469247
 20
7.7345698896
 10
13.3274724359
 20
7.7901677013
 10
13.2996484942
 20
7.8445895316
 10
13.2664575135
 20
7.8962488866
 10
13.2288371048
 20
7.9436391542
 10
13.187852963
 20
7.9853771701
 10
13.1446680515
 20
8.0202432143
  0
LINE
  5
4DB
100
AcDbEntity
  8
0
100
AcDbLine
 62
7
  6
CONTINUOUS
 10
13.7100087214
 20
8.5098751527
 11
13.7047900319
 21
8.5050822888
  0
LINE
  5
4DC
100
AcDbEntity
  8
0
100
AcDbLine
 62
7
  6
CONTINUOUS
 10
13.2987451623
 20
8.2727181757
 11
13.2834101887
 21
8.2616493556
  0
LINE
  5
4DD
100
AcDbEntity
  8
0
100
AcDbLine
 62
7
  6
CONTINUOUS
 10
12.9500152982
 20
8.0017884607
 11
12.9624000842
 21
8.0102246642
  0
LINE
  5
4DE
100
AcDbEntity
  8
0
100
AcDbLine
 62
7
  6
CONTINUOUS
 10
14.0391898865
 20
8.6997834918
 11
14.0149529561
 21
8.6838729446
  0
LWPOLYLINE
  5
4DF
100
AcDbEntity
  8
0
100
AcDbPolyline
 62
7
  6
CONTINUOUS
 90
3
 70
0
 10
12.9079331465
 20
7.9646645577
 10
12.9101763564
 20
7.9661096961
 10
12.912689343
 20
7.9680174152
  0
LINE
  5
4E0
100
AcDbEntity
  8
0
100
AcDbLine
 62
7
  6
CONTINUOUS
 10
12.9703896935
 20
8.0818595233
 11
12.9411291824
 21
8.064799767
  0
LINE
  5
4E1
100
AcDbEntity
  8
AXIS
100
AcDbLine
 62
7
  6
CONTINUOUS
 10
14.1512733811
 20
8.7260617064
 11
14.600904054
 21
8.9856545469
  0
LWPOLYLINE
  5
4E2
100
AcDbEntity
  8
0
100
AcDbPolyline
 62
7
  6
CONTINUOUS
 90
3
 70
0
 10
13.2302388982
 20
8.2308357998
 10
13.1977021191
 20
8.213684656
 10
13.1943032747
 20
8.210371742
  0
LWPOLYLINE
  5
4E3
100
AcDbEntity
  8
AXIS
100
AcDbPolyline
 62
7
  6
CONTINUOUS
 90
6
 70
0
 10
14.600922746
 20
8.9856595443
 10
14.6086399381
 20
8.9897174755
 10
14.6427429845
 20
8.9997661006
 10
14.6809975412
 20
8.9996757073
 10
14.7221008952
 20
8.9894493737
 10
14.764653321
 20
8.9694353455
  0
LWPOLYLINE
  5
4E4
100
AcDbEntity
  8
0
100
AcDbPolyline
 62
7
  6
CONTINUOUS
 90
3
 70
0
 10
13.2872201287
 20
8.2636410761
 10
13.2546219476
 20
8.2465997408
 10
13.2510246622
 20
8.2431163867
  0
LWPOLYLINE
  5
4E5
100
AcDbEntity
  8
0
100
AcDbPolyline
 62
7
  6
CONTINUOUS
 90
3
 70
0
 10
13.8000804581
 20
8.5588289553
 10
13.766935565
 20
8.5427789059
 10
13.7615100168
 20
8.5378291389
  0
LWPOLYLINE
  5
4E6
100
AcDbEntity
  8
0
100
AcDbPolyline
 62
7
  6
CONTINUOUS
 90
3
 70
0
 10
13.9710454727
 20
8.6572010294
 10
13.9377207239
 20
8.6414825772
 10
13.931669105
 20
8.6360712014
  0
LWPOLYLINE
  5
4E7
100
AcDbEntity
  8
0
100
AcDbPolyline
 62
7
  6
CONTINUOUS
 90
3
 70
0
 10
14.0280350821
 20
8.6899890623
 10
13.9946506481
 20
8.6743812683
 10
13.9883885192
 20
8.6688190636
  0
LWPOLYLINE
  5
4E8
100
AcDbEntity
  8
0
100
AcDbPolyline
 62
7
  6
CONTINUOUS
 90
3
 70
0
 10
13.7899403823
 20
8.5469144551
 10
13.7543892367
 20
8.5355535952
 10
13.7336291837
 20
8.5214127423
  0
LWPOLYLINE
  5
4E9
100
AcDbEntity
  8
0
100
AcDbPolyline
 62
7
  6
CONTINUOUS
 90
3
 70
0
 10
13.9609811022
 20
8.6451179322
 10
13.9252675112
 20
8.6340954406
 10
13.9024291713
 20
8.6188788278
  0
LWPOLYLINE
  5
4EA
100
AcDbEntity
  8
0
100
AcDbPolyline
 62
7
  6
CONTINUOUS
 90
4
 70
0
 10
13.6806537062
 20
7.6613808799
 10
13.6847723118
 20
7.6624338359
 10
13.7145679193
 20
7.6807628825
 10
13.7385071064
 20
7.7079821317
  0
LWPOLYLINE
  5
4EB
100
AcDbEntity
  8
0
100
AcDbPolyline
 62
7
  6
CONTINUOUS
 90
4
 70
0
 10
13.7370893506
 20
7.693957989
 10
13.7409586793
 20
7.6949331293
 10
13.7708181209
 20
7.7131537462
 10
13.794830818
 20
7.7402726657
  0
LWPOLYLINE
  5
4EC
100
AcDbEntity
  8
0
100
AcDbPolyline
 62
7
  6
CONTINUOUS
 90
4
 70
0
 10
13.7935251449
 20
7.7265347625
 10
13.7971443613
 20
7.727433734
 10
13.8270675113
 20
7.7455458446
 10
13.8511536167
 20
7.7725643213
  0
LWPOLYLINE
  5
4ED
100
AcDbEntity
  8
0
100
AcDbPolyline
 62
7
  6
CONTINUOUS
 90
4
 70
0
 10
13.9063971739
 20
7.791687299
 10
13.909513675
 20
7.7924388797
 10
13.9395638639
 20
7.8103337497
 10
13.9637964793
 20
7.8371510032
  0
LWPOLYLINE
  5
4EE
100
AcDbEntity
  8
0
100
AcDbPolyline
 62
7
  6
CONTINUOUS
 90
4
 70
0
 10
13.9628334035
 20
7.82426306
 10
13.9656973099
 20
7.8249434221
 10
13.9958108287
 20
7.8427295587
 10
14.0201165454
 20
7.8694460326
  0
LWPOLYLINE
  5
4EF
100
AcDbEntity
  8
0
100
AcDbPolyline
 62
7
  6
CONTINUOUS
 90
3
 70
0
 10
13.3330846335
 20
8.1411260447
 10
13.288383046
 20
8.1665013549
 10
13.2442623009
 20
8.1828447414
  0
LWPOLYLINE
  5
4F0
100
AcDbEntity
  8
0
100
AcDbPolyline
 62
7
  6
CONTINUOUS
 90
4
 70
0
 10
13.3837901341
 20
8.141411644
 10
13.3392898843
 20
8.171081161
 10
13.2947131335
 20
8.1920728857
 10
13.2513550678
 20
8.2037528767
  0
LWPOLYLINE
  5
4F1
100
AcDbEntity
  8
0
100
AcDbPolyline
 62
7
  6
CONTINUOUS
 90
4
 70
0
 10
13.440876333
 20
8.1736737922
 10
13.3963847204
 20
8.2034405807
 10
13.3518013075
 20
8.2245386067
 10
13.308421477
 20
8.2363307855
  0
LINE
  5
4F2
100
AcDbEntity
  8
0
100
AcDbLine
 62
7
  6
CONTINUOUS
 10
13.76886807
 20
7.8336380574
 11
13.7640945631
 21
7.8860127714
  0
LWPOLYLINE
  5
4F3
100
AcDbEntity
  8
0
100
AcDbPolyline
 62
7
  6
CONTINUOUS
 90
7
 70
0
 10
13.5302303064
 20
7.614478129
 10
13.5401141632
 20
7.6570853115
 10
13.5425395046
 20
7.7053796324
 10
13.5374116977
 20
7.7579198315
 10
13.5248594511
 20
7.8131391012
 10
13.5052310086
 20
7.8693914155
 10
13.4790838521
 20
7.9250002022
  0
LWPOLYLINE
  5
4F4
100
AcDbEntity
  8
0
100
AcDbPolyline
 62
7
  6
CONTINUOUS
 90
8
 70
0
 10
13.5866389876
 20
7.6466755179
 10
13.5966091416
 20
7.689207847
 10
13.599123218
 20
7.7374433488
 10
13.5940839603
 20
7.7899425023
 10
13.5816174585
 20
7.8451397136
 10
13.5620694211
 20
7.901389609
 10
13.5359949525
 20
7.9570156876
 10
13.5041421393
 20
8.0103598946
  0
LWPOLYLINE
  5
4F5
100
AcDbEntity
  8
0
100
AcDbPolyline
 62
7
  6
CONTINUOUS
 90
6
 70
0
 10
13.4380288528
 20
7.5473544201
 10
13.4514109907
 20
7.5867513716
 10
13.4574595303
 20
7.6324729895
 10
13.4559727032
 20
7.6831540866
 10
13.4469715568
 20
7.7372828277
 10
13.4306993313
 20
7.793245433
  0
LWPOLYLINE
  5
4F6
100
AcDbEntity
  8
0
100
AcDbPolyline
 62
7
  6
CONTINUOUS
 90
5
 70
0
 10
13.4943975395
 20
7.579593009
 10
13.5078638791
 20
7.6189081372
 10
13.5140003027
 20
7.664562954
 10
13.5126024435
 20
7.7151942475
 10
13.5036887179
 20
7.769291655
  0
LWPOLYLINE
  5
4F7
100
AcDbEntity
  8
0
100
AcDbPolyline
 62
7
  6
CONTINUOUS
 90
12
 70
0
 10
13.3777407357
 20
7.5073147963
 10
13.392495606
 20
7.5447615873
 10
13.4001515768
 20
7.5886661253
 10
13.4004651009
 20
7.6377460417
 10
13.39340495
 20
7.690569313
 10
13.3791531181
 20
7.7455956705
 10
13.358099559
 20
7.8012211396
 10
13.3308309093
 20
7.8558244212
 10
13.298113526
 20
7.9078137746
 10
13.2608713248
 20
7.9556730452
 10
13.2201590645
 20
7.9980055065
 10
13.1771318464
 20
8.0335742494
  0
LWPOLYLINE
  5
4F8
100
AcDbEntity
  8
0
100
AcDbPolyline
 62
7
  6
CONTINUOUS
 90
7
 70
0
 10
13.4005456073
 20
7.5142623936
 10
13.4174099698
 20
7.5500862464
 10
13.4271211014
 20
7.5928426055
 10
13.4293689337
 20
7.6412539644
 10
13.4240640826
 20
7.6938756024
 10
13.4113404916
 20
7.7491383037
 10
13.3915514712
 20
7.805394758
  0
LWPOLYLINE
  5
4F9
100
AcDbEntity
  8
0
100
AcDbPolyline
 62
7
  6
CONTINUOUS
 90
8
 70
0
 10
13.2703083201
 20
7.4860067163
 10
13.2831067092
 20
7.5118731084
 10
13.2917794448
 20
7.5418521667
 10
13.296158285
 20
7.5753623295
 10
13.296158285
 20
7.6117535351
 10
13.2917794448
 20
7.6503198326
 10
13.2831067092
 20
7.6903130769
 10
13.2703083201
 20
7.7309574415
  0
LINE
  5
4FA
100
AcDbEntity
  8
0
100
AcDbLine
 62
7
  6
CONTINUOUS
 10
13.2985924735
 20
7.5023364825
 11
13.3113908627
 21
7.5282028745
  0
LINE
  5
4FB
100
AcDbEntity
  8
0
100
AcDbLine
 62
7
  6
CONTINUOUS
 10
14.6870051049
 20
9.032477968
 11
14.6174247182
 21
8.9923059528
  0
LINE
  5
4FC
100
AcDbEntity
  8
0
100
AcDbLine
 62
7
  6
CONTINUOUS
 10
12.8988408874
 20
7.9780786723
 11
12.8705567339
 21
7.9617489061
  0
LINE
  5
4FD
100
AcDbEntity
  8
0
100
AcDbLine
 62
7
  6
CONTINUOUS
 10
12.948717352
 20
8.0000155862
 11
12.9720517786
 21
8.0134876433
  0
LINE
  5
4FE
100
AcDbEntity
  8
0
100
AcDbLine
 62
7
  6
CONTINUOUS
 10
12.9537591868
 20
7.9545373188
 11
12.9396170512
 21
7.9463722606
  0
LINE
  5
4FF
100
AcDbEntity
  8
0
100
AcDbLine
 62
7
  6
CONTINUOUS
 10
12.9396170512
 20
7.9463722606
 11
12.9184039361
 21
7.934124936
  0
LWPOLYLINE
  5
500
100
AcDbEntity
  8
0
100
AcDbPolyline
 62
7
  6
CONTINUOUS
 90
3
 70
0
 10
12.9487186891
 20
8.0000161781
 10
12.9516076465
 20
8.0016211871
 10
12.9644011116
 20
8.0073485351
  0
LWPOLYLINE
  5
501
100
AcDbEntity
  8
0
100
AcDbPolyline
 62
7
  6
CONTINUOUS
 90
3
 70
0
 10
12.9720536029
 20
8.0134884004
 10
12.9754539712
 20
8.0153647416
 10
12.9820997628
 20
8.0182323827
  0
LINE
  5
502
100
AcDbEntity
  8
0
100
AcDbLine
 62
7
  6
CONTINUOUS
 10
12.9811554201
 20
8.0180181357
 11
12.9720532402
 21
8.0134851168
  0
LWPOLYLINE
  5
503
100
AcDbEntity
  8
AXIS
100
AcDbPolyline
 62
7
  6
CONTINUOUS
 90
11
 70
0
 10
15.1285676931
 20
9.0466520061
 10
15.1400315198
 20
9.0510733462
 10
15.1576159765
 20
9.0515779884
 10
15.1768981135
 20
9.0459335624
 10
15.196757323
 20
9.0344681018
 10
15.21603946
 20
9.0178479376
 10
15.2336239167
 20
8.9970389731
 10
15.2484887485
 20
8.9732505499
 10
15.2597700653
 20
8.9478651645
 10
15.266812238
 20
8.9223581234
 10
15.2692060012
 20
8.898211803
  0
LWPOLYLINE
  5
504
100
AcDbEntity
  8
0
100
AcDbPolyline
 62
7
  6
CONTINUOUS
 90
3
 70
0
 10
13.7329279399
 20
8.5141772719
 10
13.6974312284
 20
8.5027037114
 10
13.6773586683
 20
8.4889307168
  0
LWPOLYLINE
  5
505
100
AcDbEntity
  8
0
100
AcDbPolyline
 62
7
  6
CONTINUOUS
 90
4
 70
0
 10
14.0192697731
 20
7.8568384817
 10
14.0218802658
 20
7.8574492784
 10
14.0520569876
 20
7.8751266068
 10
14.0764357028
 20
7.9017421896
  0
LWPOLYLINE
  5
506
100
AcDbEntity
  8
0
100
AcDbPolyline
 62
7
  6
CONTINUOUS
 90
4
 70
0
 10
14.1321429222
 20
7.9219883034
 10
14.1342441466
 20
7.9224649352
 10
14.1645468935
 20
7.9399244247
 10
14.1890712956
 20
7.9663378926
  0
LWPOLYLINE
  5
507
100
AcDbEntity
  8
0
100
AcDbPolyline
 62
7
  6
CONTINUOUS
 90
4
 70
0
 10
14.1885796967
 20
7.9545627016
 10
14.1904250749
 20
7.9549747371
 10
14.2207906431
 20
7.9723251966
 10
14.2453877331
 20
7.9986374417
  0
LWPOLYLINE
  5
508
100
AcDbEntity
  8
0
100
AcDbPolyline
 62
7
  6
CONTINUOUS
 90
4
 70
0
 10
14.2450166011
 20
7.987136757
 10
14.2466053305
 20
7.9874858555
 10
14.2770335923
 20
8.004727212
 10
14.3017032661
 20
8.0309381243
  0
LWPOLYLINE
  5
509
100
AcDbEntity
  8
0
100
AcDbPolyline
 62
7
  6
CONTINUOUS
 90
4
 70
0
 10
13.0195282599
 20
8.0254419349
 10
13.0237763674
 20
8.0248105554
 10
13.061099659
 20
8.014598404
 10
13.0987166805
 20
7.9965893364
  0
LINE
  5
50A
100
AcDbEntity
  8
0
100
AcDbLine
 62
7
  6
CONTINUOUS
 10
13.0566304972
 20
8.0655036046
 11
13.0142792838
 21
8.0745635802
  0
LWPOLYLINE
  5
50B
100
AcDbEntity
  8
0
100
AcDbPolyline
 62
7
  6
CONTINUOUS
 90
3
 70
0
 10
13.4472694821
 20
8.2057449814
 10
13.402569877
 20
8.2313246209
 10
13.3584205995
 20
8.2478873085
  0
LWPOLYLINE
  5
50C
100
AcDbEntity
  8
0
100
AcDbPolyline
 62
7
  6
CONTINUOUS
 90
4
 70
0
 10
13.4979623397
 20
8.2059348615
 10
13.4534795438
 20
8.2357987976
 10
13.4088896484
 20
8.2570030365
 10
13.3654882281
 20
8.2689073529
  0
LWPOLYLINE
  5
50D
100
AcDbEntity
  8
0
100
AcDbPolyline
 62
7
  6
CONTINUOUS
 90
8
 70
0
 10
13.7640945631
 20
7.8860127714
 10
13.7518855822
 20
7.941142438
 10
13.732579221
 20
7.9973836809
 10
13.7067234378
 20
8.0530602551
 10
13.6750598527
 20
8.1065126124
 10
13.6385018182
 20
8.1561469734
 10
13.5981074124
 20
8.2004824538
 10
13.5550481523
 20
8.2381948537
  0
LWPOLYLINE
  5
50E
100
AcDbEntity
  8
0
100
AcDbPolyline
 62
7
  6
CONTINUOUS
 90
9
 70
0
 10
13.7957354981
 20
7.875402317
 10
13.7872593708
 20
7.9293397021
 10
13.7714878212
 20
7.985227215
 10
13.7488642856
 20
8.0413990703
 10
13.7200348087
 20
8.0961810748
 10
13.6858289408
 20
8.1479401323
 10
13.6472352078
 20
8.1951325327
 10
13.605371882
 20
8.2363495991
 10
13.5614539152
 20
8.2703593408
  0
LWPOLYLINE
  5
50F
100
AcDbEntity
  8
0
100
AcDbPolyline
 62
7
  6
CONTINUOUS
 90
10
 70
0
 10
13.8225787132
 20
7.8177059245
 10
13.8254475912
 20
7.8657041549
 10
13.8207627012
 20
7.9180369554
 10
13.8086396549
 20
7.973143651
 10
13.7894140049
 20
8.0293815446
 10
13.7636313231
 20
8.0850744901
 10
13.7320310677
 20
8.1385624555
 10
13.695524719
 20
8.1882506082
 10
13.6551688266
 20
8.2326564736
 10
13.6121337685
 20
8.2704537703
  0
LWPOLYLINE
  5
510
100
AcDbEntity
  8
0
100
AcDbPolyline
 62
7
  6
CONTINUOUS
 90
3
 70
0
 10
13.7901130757
 20
7.7797052015
 10
13.796688487
 20
7.8250231813
 10
13.7957354981
 20
7.875402317
  0
LWPOLYLINE
  5
511
100
AcDbEntity
  8
0
100
AcDbPolyline
 62
7
  6
CONTINUOUS
 90
11
 70
0
 10
13.6430466784
 20
7.6788738745
 10
13.6531030854
 20
7.7213311739
 10
13.6557058834
 20
7.7695076568
 10
13.6507551923
 20
7.8219655475
 10
13.6383744833
 20
7.877140472
 10
13.618906928
 20
7.9333877159
 10
13.5929052512
 20
7.9890308565
 10
13.5611153868
 20
8.0424113345
 10
13.5244544215
 20
8.0919374957
 10
13.4839834769
 20
8.1361316553
 10
13.440876333
 20
8.1736737922
  0
LWPOLYLINE
  5
512
100
AcDbEntity
  8
0
100
AcDbPolyline
 62
7
  6
CONTINUOUS
 90
11
 70
0
 10
13.6994533794
 20
7.7110732006
 10
13.7095959951
 20
7.7534552943
 10
13.7122875007
 20
7.8015725588
 10
13.7074253933
 20
7.8539889696
 10
13.6951305248
 20
7.9091413793
 10
13.6757435284
 20
7.9653857389
 10
13.6498147468
 20
8.0210457114
 10
13.6180879585
 20
8.0744622396
 10
13.5814783851
 20
8.1240426033
 10
13.5410456285
 20
8.168307515
 10
13.4979623397
 20
8.2059348615
  0
LWPOLYLINE
  5
513
100
AcDbEntity
  8
0
100
AcDbPolyline
 62
7
  6
CONTINUOUS
 90
8
 70
0
 10
13.5507652677
 20
7.6118326405
 10
13.5643157504
 20
7.6510657825
 10
13.5705400297
 20
7.6966536091
 10
13.5692311409
 20
7.7472348893
 10
13.5604048696
 20
7.8013007394
 10
13.5442992854
 20
7.8572392391
 10
13.5213677018
 20
7.9133830954
 10
13.4922652722
 20
7.9680589431
  0
LWPOLYLINE
  5
514
100
AcDbEntity
  8
0
100
AcDbPolyline
 62
7
  6
CONTINUOUS
 90
9
 70
0
 10
13.6071320381
 20
7.6440733166
 10
13.6207666052
 20
7.6832243095
 10
13.6270787115
 20
7.728744957
 10
13.6258587952
 20
7.7792760146
 10
13.6171200114
 20
7.8333100836
 10
13.6010978423
 20
7.8892361835
 10
13.5782431351
 20
7.9453873879
 10
13.5492087701
 20
8.0000901143
 10
13.5148303557
 20
8.0517136105
  0
LWPOLYLINE
  5
515
100
AcDbEntity
  8
0
100
AcDbPolyline
 62
7
  6
CONTINUOUS
 90
12
 70
0
 10
13.6634978516
 20
7.676315039
 10
13.677216444
 20
7.7153837203
 10
13.6836163482
 20
7.7608370001
 10
13.6824854064
 20
7.811317626
 10
13.6738341425
 20
7.8653196903
 10
13.6578954511
 20
7.9212331591
 10
13.635117711
 20
7.9773914794
 10
13.6061515265
 20
8.0321208582
 10
13.57183049
 20
8.0837897554
 10
13.5331465332
 20
8.130857127
 10
13.4912205962
 20
8.171917993
 10
13.4472694821
 20
8.2057449814
  0
LWPOLYLINE
  5
516
100
AcDbEntity
  8
0
100
AcDbPolyline
 62
7
  6
CONTINUOUS
 90
6
 70
0
 10
13.4568748182
 20
7.5465462308
 10
13.473820634
 20
7.5822817058
 10
13.4836181499
 20
7.6249635651
 10
13.4859547431
 20
7.6733165051
 10
13.480738405
 20
7.7258975324
 10
13.4681004619
 20
7.7811386321
  0
LINE
  5
517
100
AcDbEntity
  8
0
100
AcDbLine
 62
7
  6
CONTINUOUS
 10
13.51320311
 20
7.5788311802
 11
13.5302303064
 21
7.614478129
  0
LWPOLYLINE
  5
518
100
AcDbEntity
  8
0
100
AcDbPolyline
 62
7
  6
CONTINUOUS
 90
11
 70
0
 10
13.3188055148
 20
7.4961474201
 10
13.3003749472
 20
7.4660487879
 10
13.2761340907
 20
7.442919069
 10
13.2467708403
 20
7.4276729914
 10
13.2132179043
 20
7.4208352173
 10
13.1765615593
 20
7.4225298509
 10
13.136770824
 20
7.4329453949
 10
13.0938818807
 20
7.452847262
 10
13.0492517182
 20
7.4826043036
 10
13.0058897906
 20
7.5206811163
 10
12.9652386436
 20
7.5657559961
  0
LINE
  5
519
100
AcDbEntity
  8
0
100
AcDbLine
 62
7
  6
CONTINUOUS
 10
14.8671835245
 20
9.0053911057
 11
14.8276278195
 21
8.9825537451
  0
LINE
  5
51A
100
AcDbEntity
  8
0
100
AcDbLine
 62
9
  6
CONTINUOUS
 10
14.8759419114
 20
8.9622438509
 11
14.8569742874
 21
8.9512929534
  0
LINE
  5
51B
100
AcDbEntity
  8
0
100
AcDbLine
 62
7
  6
CONTINUOUS
 10
12.9624000842
 20
8.0102246642
 11
12.9764344717
 21
8.0169470742
  0
LWPOLYLINE
  5
51C
100
AcDbEntity
  8
0
100
AcDbPolyline
 62
7
  6
CONTINUOUS
 90
3
 70
0
 10
13.2198417508
 20
8.2194821366
 10
13.1848413301
 20
8.2069963624
 10
13.1708355745
 20
8.1967414881
  0
LWPOLYLINE
  5
51D
100
AcDbEntity
  8
0
100
AcDbPolyline
 62
7
  6
CONTINUOUS
 90
3
 70
0
 10
14.3014536327
 20
8.0197104687
 10
14.3027849151
 20
8.0199982909
 10
14.3332757425
 20
8.0371304719
  0
LWPOLYLINE
  5
51E
100
AcDbEntity
  8
0
100
AcDbPolyline
 62
7
  6
CONTINUOUS
 90
4
 70
0
 10
14.357890789
 20
8.0522838359
 10
14.3589638304
 20
8.0525120441
 10
14.3895170951
 20
8.0695349774
 10
14.4143316231
 20
8.0955428967
  0
LWPOLYLINE
  5
51F
100
AcDbEntity
  8
0
100
AcDbPolyline
 62
7
  6
CONTINUOUS
 90
17
 70
0
 10
14.4143280674
 20
8.0848568578
 10
14.415142078
 20
8.0850271156
 10
14.4457576515
 20
8.1019407296
 10
14.4706444492
 20
8.1278469893
 10
14.4890436691
 20
8.1619666336
 10
14.5003883418
 20
8.2032775377
 10
14.5043200964
 20
8.2505449362
 10
14.5006997565
 20
8.3023579343
 10
14.4896114556
 20
8.3571712272
 10
14.47136015
 20
8.4133507934
 10
14.4464626005
 20
8.4692222117
 10
14.415632093
 20
8.5231201725
 10
14.3797573465
 20
8.5734377202
 10
14.3398762348
 20
8.6186737692
 10
14.297145097
 20
8.6574774904
 10
14.2528045454
 20
8.688688254
 10
14.2081427815
 20
8.7113699487
  0
LINE
  5
520
100
AcDbEntity
  8
0
100
AcDbLine
 62
7
  6
CONTINUOUS
 10
13.0072449914
 20
8.0239371865
 11
13.0294074883
 21
8.0232698055
  0
LWPOLYLINE
  5
521
100
AcDbEntity
  8
0
100
AcDbPolyline
 62
7
  6
CONTINUOUS
 90
5
 70
0
 10
13.1301050361
 20
8.117796886
 10
13.0879057202
 20
8.1243839479
 10
13.0488234763
 20
8.121226256
 10
13.0139910217
 20
8.1084039497
 10
13.0019584673
 20
8.0994042305
  0
LWPOLYLINE
  5
522
100
AcDbEntity
  8
0
100
AcDbPolyline
 62
7
  6
CONTINUOUS
 90
5
 70
0
 10
13.1871835383
 20
8.150321475
 10
13.1449546951
 20
8.1570225053
 10
13.1058289805
 20
8.1539795576
 10
13.0709403971
 20
8.1412693785
 10
13.0582528728
 20
8.1318467186
  0
LWPOLYLINE
  5
523
100
AcDbEntity
  8
0
100
AcDbPolyline
 62
7
  6
CONTINUOUS
 90
5
 70
0
 10
13.2442623009
 20
8.1828447414
 10
13.2020041005
 20
8.1896597108
 10
13.1628350726
 20
8.186731518
 10
13.1278905004
 20
8.1741335164
 10
13.114545239
 20
8.1642924691
  0
LWPOLYLINE
  5
524
100
AcDbEntity
  8
0
100
AcDbPolyline
 62
7
  6
CONTINUOUS
 90
3
 70
0
 10
13.5043617516
 20
8.2380527325
 10
13.4596634081
 20
8.2637343767
 10
13.4155001312
 20
8.2804066104
  0
LWPOLYLINE
  5
525
100
AcDbEntity
  8
0
100
AcDbPolyline
 62
7
  6
CONTINUOUS
 90
3
 70
0
 10
13.5614539152
 20
8.2703593408
 10
13.5167570134
 20
8.2961428825
 10
13.4725799152
 20
8.3129245921
  0
LWPOLYLINE
  5
526
100
AcDbEntity
  8
0
100
AcDbPolyline
 62
7
  6
CONTINUOUS
 90
4
 70
0
 10
13.5550481523
 20
8.2381948537
 10
13.5105743523
 20
8.2681558129
 10
13.4659781543
 20
8.289466176
 10
13.422555319
 20
8.3014825793
  0
LWPOLYLINE
  5
527
100
AcDbEntity
  8
0
100
AcDbPolyline
 62
7
  6
CONTINUOUS
 90
4
 70
0
 10
13.6121337685
 20
8.2704537703
 10
13.5676691439
 20
8.300511628
 10
13.523066823
 20
8.3219280259
 10
13.4796227477
 20
8.334056465
  0
LWPOLYLINE
  5
528
100
AcDbEntity
  8
0
100
AcDbPolyline
 62
7
  6
CONTINUOUS
 90
3
 70
0
 10
13.7613220677
 20
8.2594046221
 10
13.7195220275
 20
8.3007772052
 10
13.675637916
 20
8.3349691346
  0
LWPOLYLINE
  5
529
100
AcDbEntity
  8
0
100
AcDbPolyline
 62
7
  6
CONTINUOUS
 90
5
 70
0
 10
13.8205384011
 20
8.1170884192
 10
13.7890016021
 20
8.1706117714
 10
13.7525470857
 20
8.2203535102
 10
13.712229869
 20
8.2648295764
 10
13.6692191865
 20
8.3027116131
  0
LWPOLYLINE
  5
52A
100
AcDbEntity
  8
0
100
AcDbPolyline
 62
7
  6
CONTINUOUS
 90
4
 70
0
 10
13.8626074158
 20
8.1054058899
 10
13.8339151071
 20
8.1602396137
 10
13.7998249562
 20
8.2120879746
 10
13.7613220677
 20
8.2594046221
  0
LWPOLYLINE
  5
52B
100
AcDbEntity
  8
0
100
AcDbPolyline
 62
7
  6
CONTINUOUS
 90
6
 70
0
 10
13.9030808424
 20
8.0933770478
 10
13.8774446706
 20
8.149102045
 10
13.8459714541
 20
8.2026605625
 10
13.8095689165
 20
8.2524556815
 10
13.7692905377
 20
8.2970017644
 10
13.726304404
 20
8.3349683838
  0
LINE
  5
52C
100
AcDbEntity
  8
0
100
AcDbLine
 62
7
  6
CONTINUOUS
 10
13.9221448431
 20
8.0371465506
 11
13.9030808424
 21
8.0933770478
  0
LWPOLYLINE
  5
52D
100
AcDbEntity
  8
0
100
AcDbPolyline
 62
7
  6
CONTINUOUS
 90
3
 70
0
 10
13.7558590914
 20
7.7432734983
 10
13.7660878709
 20
7.7855802104
 10
13.76886807
 20
7.8336380574
  0
LINE
  5
52E
100
AcDbEntity
  8
0
100
AcDbLine
 62
7
  6
CONTINUOUS
 10
13.812263815
 20
7.7754747693
 11
13.8225787132
 21
7.8177059245
  0
LWPOLYLINE
  5
52F
100
AcDbEntity
  8
0
100
AcDbPolyline
 62
7
  6
CONTINUOUS
 90
12
 70
0
 10
13.7198627092
 20
7.7085578094
 10
13.7336652673
 20
7.7475440169
 10
13.74015294
 20
7.7929297408
 10
13.739110974
 20
7.8433597259
 10
13.7305472625
 20
7.8973295623
 10
13.7146921111
 20
7.9532301687
 10
13.6919914282
 20
8.0093953726
 10
13.6630935398
 20
8.0641511776
 10
13.6288300189
 20
8.1158652619
 10
13.5901910964
 20
8.1629952455
 10
13.5482963806
 20
8.204134297
 10
13.5043617516
 20
8.2380527325
  0
LINE
  5
530
100
AcDbEntity
  8
0
100
AcDbLine
 62
7
  6
CONTINUOUS
 10
13.7762266116
 20
7.7408016294
 11
13.7901130757
 21
7.7797052015
  0
LINE
  5
531
100
AcDbEntity
  8
0
100
AcDbLine
 62
7
  6
CONTINUOUS
 10
13.5695304837
 20
7.6111172435
 11
13.5866389876
 21
7.6466755179
  0
LINE
  5
532
100
AcDbEntity
  8
0
100
AcDbLine
 62
7
  6
CONTINUOUS
 10
13.6258569403
 20
7.6434044221
 11
13.6430466784
 21
7.6788738745
  0
LINE
  5
533
100
AcDbEntity
  8
0
100
AcDbLine
 62
7
  6
CONTINUOUS
 10
13.6821824809
 20
7.6756927176
 11
13.6994533794
 21
7.7110732006
  0
LINE
  5
534
100
AcDbEntity
  8
0
100
AcDbLine
 62
7
  6
CONTINUOUS
 10
13.3563357899
 20
7.4774213842
 11
13.3777407357
 21
7.5073147963
  0
LINE
  5
535
100
AcDbEntity
  8
AXIS_COSMETIC_THREADS
100
AcDbLine
 62
7
  6
CONTINUOUS
 10
14.8921700979
 20
8.9101746219
 11
15.128577979
 21
9.046663961
  0
LINE
  5
536
100
AcDbEntity
  8
0
100
AcDbLine
 62
7
  6
CONTINUOUS
 10
12.9396170512
 20
7.7014215355
 11
12.9184039361
 21
7.6891742109
  0
LWPOLYLINE
  5
537
100
AcDbEntity
  8
0
100
AcDbPolyline
 62
7
  6
CONTINUOUS
 90
22
 70
0
 10
12.9644011116
 20
8.0073485351
 10
12.9780679559
 20
8.0113386008
 10
12.9925193153
 20
8.0135654753
 10
13.0076612324
 20
8.0140147021
 10
13.0233952661
 20
8.0126833711
 10
13.0396191297
 20
8.0095801365
 10
13.0562273548
 20
8.0047251616
 10
13.0731119746
 20
7.9981499876
 10
13.0901632245
 20
7.9898973295
 10
13.1072702107
 20
7.9800208264
 10
13.1243214601
 20
7.9685848358
 10
13.1412060791
 20
7.955663765
 10
13.1578143028
 20
7.9413416413
 10
13.1740381647
 20
7.9257115899
 10
13.1897721962
 20
7.9088752296
 10
13.2049141107
 20
7.8909420137
 10
13.219365467
 20
7.87202852
 10
13.2330323079
 20
7.852257695
 10
13.2458257691
 20
7.8317580568
 10
13.2576626616
 20
7.8106628523
 10
13.2684659426
 20
7.7891093318
 10
13.278161012
 20
7.7672480747
  0
LWPOLYLINE
  5
538
100
AcDbEntity
  8
0
100
AcDbPolyline
 62
7
  6
CONTINUOUS
 90
6
 70
0
 10
13.0142792838
 20
8.0745635802
 10
12.9746578267
 20
8.0741214285
 10
12.9388896844
 20
8.0641771399
 10
12.907986991
 20
8.0450054749
 10
12.8828211874
 20
8.0171480193
 10
12.8640978231
 20
7.9813975228
  0
LWPOLYLINE
  5
539
100
AcDbEntity
  8
0
100
AcDbPolyline
 62
7
  6
CONTINUOUS
 90
3
 70
0
 10
13.0465026324
 20
8.0904369806
 10
13.0065709172
 20
8.0909052756
 10
12.9703896935
 20
8.0818595233
  0
LWPOLYLINE
  5
53A
100
AcDbEntity
  8
0
100
AcDbPolyline
 62
7
  6
CONTINUOUS
 90
4
 70
0
 10
13.0801579107
 20
8.1060110982
 10
13.0393873375
 20
8.1076764253
 10
13.0023205547
 20
8.0996014752
 10
12.9700306838
 20
8.0820117871
  0
LWPOLYLINE
  5
53B
100
AcDbEntity
  8
0
100
AcDbPolyline
 62
7
  6
CONTINUOUS
 90
5
 70
0
 10
13.1372232826
 20
8.1385930333
 10
13.0964159926
 20
8.1403731464
 10
13.0592991505
 20
8.1324120381
 10
13.026947358
 20
8.1149318817
 10
13.0241381105
 20
8.1121392328
  0
LWPOLYLINE
  5
53C
100
AcDbEntity
  8
0
100
AcDbPolyline
 62
7
  6
CONTINUOUS
 90
5
 70
0
 10
13.1942890023
 20
8.1711736261
 10
13.1534451597
 20
8.1730685158
 10
13.1162784075
 20
8.1652212803
 10
13.0838648228
 20
8.1478507254
 10
13.0808600008
 20
8.1448831664
  0
LWPOLYLINE
  5
53D
100
AcDbEntity
  8
0
100
AcDbPolyline
 62
7
  6
CONTINUOUS
 90
3
 70
0
 10
13.301341322
 20
8.2153666857
 10
13.2590539345
 20
8.2222955643
 10
13.2198417508
 20
8.2194821366
  0
LWPOLYLINE
  5
53E
100
AcDbEntity
  8
0
100
AcDbPolyline
 62
7
  6
CONTINUOUS
 90
5
 70
0
 10
13.3584205995
 20
8.2478873085
 10
13.3161041953
 20
8.2549300661
 10
13.2768490134
 20
8.2522314132
 10
13.2417928846
 20
8.2398579158
 10
13.2271238882
 20
8.2291937816
  0
LWPOLYLINE
  5
53F
100
AcDbEntity
  8
0
100
AcDbPolyline
 62
7
  6
CONTINUOUS
 90
3
 70
0
 10
13.6185459707
 20
8.3026648077
 10
13.5738506909
 20
8.3285501393
 10
13.5296599494
 20
8.345441254
  0
LINE
  5
540
100
AcDbEntity
  8
0
100
AcDbLine
 62
7
  6
CONTINUOUS
 10
13.675637916
 20
8.3349691346
 11
13.6309444383
 21
8.3609561481
  0
LWPOLYLINE
  5
541
100
AcDbEntity
  8
0
100
AcDbPolyline
 62
7
  6
CONTINUOUS
 90
4
 70
0
 10
13.6692191865
 20
8.3027116131
 10
13.6247639163
 20
8.3328662441
 10
13.5801556523
 20
8.3543885871
 10
13.5366905121
 20
8.3666290104
  0
LWPOLYLINE
  5
542
100
AcDbEntity
  8
0
100
AcDbPolyline
 62
7
  6
CONTINUOUS
 90
4
 70
0
 10
13.726304404
 20
8.3349683838
 10
13.6818586676
 20
8.3652196625
 10
13.6372446403
 20
8.3868478604
 10
13.5937586103
 20
8.3992002158
  0
LWPOLYLINE
  5
543
100
AcDbEntity
  8
0
100
AcDbPolyline
 62
7
  6
CONTINUOUS
 90
5
 70
0
 10
13.9343501302
 20
8.1811153703
 10
13.9029406222
 20
8.2347088315
 10
13.8665902094
 20
8.2845571245
 10
13.8263508308
 20
8.3291730394
 10
13.783389419
 20
8.3672240839
  0
LWPOLYLINE
  5
544
100
AcDbEntity
  8
0
100
AcDbPolyline
 62
7
  6
CONTINUOUS
 90
6
 70
0
 10
13.9194776864
 20
8.1374090171
 10
13.8908541336
 20
8.1922682605
 10
13.8568220464
 20
8.2441609514
 10
13.8183648124
 20
8.2915394286
 10
13.7765966675
 20
8.3329895128
 10
13.732729749
 20
8.3672723231
  0
LINE
  5
545
100
AcDbEntity
  8
0
100
AcDbLine
 62
7
  6
CONTINUOUS
 10
13.9599128938
 20
8.1253746928
 11
13.9343501302
 21
8.1811153703
  0
LINE
  5
546
100
AcDbEntity
  8
0
100
AcDbLine
 62
7
  6
CONTINUOUS
 10
13.9418692436
 20
8.0812186016
 11
13.9194776864
 21
8.1374090171
  0
LWPOLYLINE
  5
547
100
AcDbEntity
  8
0
100
AcDbPolyline
 62
7
  6
CONTINUOUS
 90
7
 70
0
 10
13.8686675509
 20
7.8076770156
 10
13.8790685224
 20
7.8498324388
 10
13.8820260643
 20
7.8977708538
 10
13.8774298073
 20
7.9500615243
 10
13.8653927421
 20
8.005145021
 10
13.8462478791
 20
8.0613793326
 10
13.8205384011
 20
8.1170884192
  0
LWPOLYLINE
  5
548
100
AcDbEntity
  8
0
100
AcDbPolyline
 62
7
  6
CONTINUOUS
 90
5
 70
0
 10
13.9250703
 20
7.8398802391
 10
13.9355572987
 20
7.8819597555
 10
13.9386034894
 20
7.9298381566
 10
13.9340958809
 20
7.9820864807
 10
13.9221448431
 20
8.0371465506
  0
LWPOLYLINE
  5
549
100
AcDbEntity
  8
0
100
AcDbPolyline
 62
7
  6
CONTINUOUS
 90
12
 70
0
 10
13.8325895597
 20
7.773046501
 10
13.8465598697
 20
7.8118672761
 10
13.8532229895
 20
7.8571173241
 10
13.8523589782
 20
7.9074454019
 10
13.8439704669
 20
7.9613501125
 10
13.8282825806
 20
8.0172243008
 10
13.8057362818
 20
8.0734025751
 10
13.7769753317
 20
8.1282105527
 10
13.7428272538
 20
8.1800143691
 10
13.7042788655
 20
8.2272689909
 10
13.6624470983
 20
8.2685639012
 10
13.6185459707
 20
8.3026648077
  0
LWPOLYLINE
  5
54A
100
AcDbEntity
  8
0
100
AcDbPolyline
 62
7
  6
CONTINUOUS
 90
7
 70
0
 10
13.8889515544
 20
7.8052924257
 10
13.9030056498
 20
7.8440302428
 10
13.9097564476
 20
7.8892121715
 10
13.9089814144
 20
7.9394889829
 10
13.9006805501
 20
7.9933607962
 10
13.8850763883
 20
8.0492214287
 10
13.8626074158
 20
8.1054058899
  0
LINE
  5
54B
100
AcDbEntity
  8
0
100
AcDbLine
 62
7
  6
CONTINUOUS
 10
13.7385071064
 20
7.7079821317
 11
13.7558590914
 21
7.7432734983
  0
LINE
  5
54C
100
AcDbEntity
  8
0
100
AcDbLine
 62
7
  6
CONTINUOUS
 10
13.794830818
 20
7.7402726657
 11
13.812263815
 21
7.7754747693
  0
LINE
  5
54D
100
AcDbEntity
  8
0
100
AcDbLine
 62
7
  6
CONTINUOUS
 10
13.5866010919
 20
7.6124628768
 11
13.6071320381
 21
7.6440733166
  0
LWPOLYLINE
  5
54E
100
AcDbEntity
  8
0
100
AcDbPolyline
 62
7
  6
CONTINUOUS
 90
7
 70
0
 10
13.284887634
 20
7.4944240369
 10
13.2686011321
 20
7.4770500412
 10
13.2411306609
 20
7.4612906583
 10
13.2090920576
 20
7.4540254416
 10
13.1736569935
 20
7.4556045993
 10
13.1363337019
 20
7.4658167507
 10
13.0987166805
 20
7.4838258184
  0
LINE
  5
54F
100
AcDbEntity
  8
0
100
AcDbLine
 62
7
  6
CONTINUOUS
 10
13.243674233
 20
7.7708287362
 11
13.2224611179
 21
7.7585814116
  0
LWPOLYLINE
  5
550
100
AcDbEntity
  8
0
100
AcDbPolyline
 62
7
  6
CONTINUOUS
 90
5
 70
0
 10
13.2513550678
 20
8.2037528767
 10
13.2104748371
 20
8.2057625335
 10
13.1732583239
 20
8.198029201
 10
13.140783077
 20
8.1807683172
 10
13.1375817216
 20
8.1776273357
  0
LWPOLYLINE
  5
551
100
AcDbEntity
  8
0
100
AcDbPolyline
 62
7
  6
CONTINUOUS
 90
3
 70
0
 10
13.308421477
 20
8.2363307855
 10
13.2675050228
 20
8.2384551994
 10
13.2302388982
 20
8.2308357998
  0
LWPOLYLINE
  5
552
100
AcDbEntity
  8
0
100
AcDbPolyline
 62
7
  6
CONTINUOUS
 90
3
 70
0
 10
13.3654882281
 20
8.2689073529
 10
13.324535715
 20
8.2711465133
 10
13.2872201287
 20
8.2636410761
  0
LINE
  5
553
100
AcDbEntity
  8
0
100
AcDbLine
 62
7
  6
CONTINUOUS
 10
13.4155001312
 20
8.2804066104
 11
13.3731548807
 21
8.2875632163
  0
LWPOLYLINE
  5
554
100
AcDbEntity
  8
0
100
AcDbPolyline
 62
7
  6
CONTINUOUS
 90
5
 70
0
 10
13.4725799152
 20
8.3129245921
 10
13.430205989
 20
8.320195015
 10
13.3908652847
 20
8.3177259389
 10
13.3556981618
 20
8.3055771413
 10
13.3396944849
 20
8.2941082161
  0
LINE
  5
555
100
AcDbEntity
  8
0
100
AcDbLine
 62
7
  6
CONTINUOUS
 10
13.6309444383
 20
8.3609561481
 11
13.5867402318
 21
8.3779565968
  0
LWPOLYLINE
  5
556
100
AcDbEntity
  8
0
100
AcDbPolyline
 62
7
  6
CONTINUOUS
 90
3
 70
0
 10
13.732729749
 20
8.3672723231
 10
13.6880382537
 20
8.39336091
 10
13.6438207602
 20
8.4104706212
  0
LWPOLYLINE
  5
557
100
AcDbEntity
  8
0
100
AcDbPolyline
 62
7
  6
CONTINUOUS
 90
3
 70
0
 10
13.7898214677
 20
8.3995743747
 10
13.7451321348
 20
8.4257644261
 10
13.7009015326
 20
8.4429833277
  0
LWPOLYLINE
  5
558
100
AcDbEntity
  8
0
100
AcDbPolyline
 62
7
  6
CONTINUOUS
 90
4
 70
0
 10
13.783389419
 20
8.3672240839
 10
13.7389533954
 20
8.3975718844
 10
13.6943337848
 20
8.4193058467
 10
13.6508270402
 20
8.4317700817
  0
LINE
  5
559
100
AcDbEntity
  8
0
100
AcDbLine
 62
7
  6
CONTINUOUS
 10
13.8404742293
 20
8.3994787152
 11
13.7960480978
 21
8.4299229111
  0
LINE
  5
55A
100
AcDbEntity
  8
0
100
AcDbLine
 62
7
  6
CONTINUOUS
 10
13.8834107461
 20
8.3613434035
 11
13.8404742293
 21
8.3994787152
  0
LWPOLYLINE
  5
55B
100
AcDbEntity
  8
0
100
AcDbPolyline
 62
7
  6
CONTINUOUS
 90
3
 70
0
 10
13.9599091047
 20
8.2667565808
 10
13.9236109628
 20
8.3166578415
 10
13.8834107461
 20
8.3613434035
  0
LWPOLYLINE
  5
55C
100
AcDbEntity
  8
0
100
AcDbPolyline
 62
7
  6
CONTINUOUS
 90
9
 70
0
 10
14.0793505573
 20
7.9855009644
 10
14.0788424569
 20
8.0356227292
 10
14.0708047178
 20
8.0893945137
 10
14.0554520932
 20
8.1452130931
 10
14.0332156321
 20
8.2014147203
 10
14.0047299338
 20
8.2563243219
 10
13.9708143831
 20
8.3083050284
 10
13.9324489216
 20
8.355806576
 10
13.8907450718
 20
8.3974111465
  0
LWPOLYLINE
  5
55D
100
AcDbEntity
  8
0
100
AcDbPolyline
 62
7
  6
CONTINUOUS
 90
6
 70
0
 10
13.9814720628
 20
7.8720844416
 10
13.9920450427
 20
7.9140878768
 10
13.9951798663
 20
7.9619060658
 10
13.9907609218
 20
8.0141118272
 10
13.9788959571
 20
8.0691482426
 10
13.9599128938
 20
8.1253746928
  0
LWPOLYLINE
  5
55E
100
AcDbEntity
  8
0
100
AcDbPolyline
 62
7
  6
CONTINUOUS
 90
8
 70
0
 10
14.0378728402
 20
7.9042896252
 10
14.0485317546
 20
7.9462168049
 10
14.0517551951
 20
7.9939745837
 10
14.0474249295
 20
8.0461375665
 10
14.0356460835
 20
8.1011500997
 10
14.0167440322
 20
8.1573722704
 10
13.9912547786
 20
8.2131283976
 10
13.9599091047
 20
8.2667565808
  0
LWPOLYLINE
  5
55F
100
AcDbEntity
  8
0
100
AcDbPolyline
 62
7
  6
CONTINUOUS
 90
6
 70
0
 10
13.9453125967
 20
7.8375394053
 10
13.9594504166
 20
7.8761941036
 10
13.9662888615
 20
7.9213077258
 10
13.9656028063
 20
7.9715330628
 10
13.9573896201
 20
8.0253717558
 10
13.9418692436
 20
8.0812186016
  0
LWPOLYLINE
  5
560
100
AcDbEntity
  8
0
100
AcDbPolyline
 62
7
  6
CONTINUOUS
 90
12
 70
0
 10
14.0016726873
 20
7.8697874415
 10
14.0158941705
 20
7.9083588605
 10
14.0228202313
 20
7.9534039893
 10
14.0222231539
 20
8.0035776441
 10
14.0140976761
 20
8.0573829941
 10
13.9986611455
 20
8.1132158221
 10
13.9763470922
 20
8.1694119597
 10
13.9477924097
 20
8.2242964957
 10
13.9138185226
 20
8.2762333019
 10
13.8754070977
 20
8.3236734125
 10
13.8336710162
 20
8.3652008259
 10
13.7898214677
 20
8.3995743747
  0
LINE
  5
561
100
AcDbEntity
  8
0
100
AcDbLine
 62
7
  6
CONTINUOUS
 10
13.8511536167
 20
7.7725643213
 11
13.8686675509
 21
7.8076770156
  0
LINE
  5
562
100
AcDbEntity
  8
0
100
AcDbLine
 62
7
  6
CONTINUOUS
 10
13.9074755034
 20
7.8048570999
 11
13.9250703
 21
7.8398802391
  0
LINE
  5
563
100
AcDbEntity
  8
0
100
AcDbLine
 62
7
  6
CONTINUOUS
 10
13.9637964793
 20
7.8371510032
 11
13.9814720628
 21
7.8720844416
  0
LINE
  5
564
100
AcDbEntity
  8
0
100
AcDbLine
 62
7
  6
CONTINUOUS
 10
13.8680326484
 20
7.7741574012
 11
13.8889515544
 21
7.8052924257
  0
LINE
  5
565
100
AcDbEntity
  8
0
100
AcDbLine
 62
7
  6
CONTINUOUS
 10
13.6020650769
 20
7.6159848545
 11
13.6258569403
 21
7.6434044221
  0
LINE
  5
566
100
AcDbEntity
  8
0
100
AcDbLine
 62
7
  6
CONTINUOUS
 10
13.2576626616
 20
7.4862214445
 11
13.2626607684
 21
7.4904219325
  0
LINE
  5
567
100
AcDbEntity
  8
0
100
AcDbLine
 62
7
  6
CONTINUOUS
 10
13.2753581377
 20
7.7525364391
 11
13.282429176
 21
7.7566188807
  0
LINE
  5
568
100
AcDbEntity
  8
0
100
AcDbLine
 62
7
  6
CONTINUOUS
 10
13.2985924735
 20
7.7472872076
 11
13.2703083201
 21
7.7309574415
  0
LINE
  5
569
100
AcDbEntity
  8
AXIS_COSMETIC_THREADS
100
AcDbLine
 62
7
  6
CONTINUOUS
 10
15.0086708921
 20
8.7083911613
 11
15.2450774575
 21
8.8448797408
  0
LINE
  5
56A
100
AcDbEntity
  8
0
100
AcDbLine
 62
7
  6
CONTINUOUS
 10
12.9764344717
 20
8.0169470742
 11
13.0072449914
 21
8.0239371865
  0
LWPOLYLINE
  5
56B
100
AcDbEntity
  8
0
100
AcDbPolyline
 62
7
  6
CONTINUOUS
 90
3
 70
0
 10
13.3731548807
 20
8.2875632163
 10
13.3338568586
 20
8.2849793474
 10
13.2987451623
 20
8.2727181757
  0
LWPOLYLINE
  5
56C
100
AcDbEntity
  8
0
100
AcDbPolyline
 62
7
  6
CONTINUOUS
 90
5
 70
0
 10
13.422555319
 20
8.3014825793
 10
13.3815669118
 20
8.3038364751
 10
13.3442020138
 20
8.2964450293
 10
13.3115425613
 20
8.2795135705
 10
13.3077458859
 20
8.2758612713
  0
LWPOLYLINE
  5
56D
100
AcDbEntity
  8
0
100
AcDbPolyline
 62
7
  6
CONTINUOUS
 90
5
 70
0
 10
13.4796227477
 20
8.334056465
 10
13.4385986114
 20
8.3365250848
 10
13.4011845517
 20
8.3292476588
 10
13.3684639587
 20
8.3124261442
 10
13.3644669477
 20
8.308606397
  0
LWPOLYLINE
  5
56E
100
AcDbEntity
  8
0
100
AcDbPolyline
 62
7
  6
CONTINUOUS
 90
5
 70
0
 10
13.5366905121
 20
8.3666290104
 10
13.4956308119
 20
8.3692123422
 10
13.4581677409
 20
8.362048964
 10
13.4253861384
 20
8.3453374608
 10
13.4211878498
 20
8.3413517652
  0
LWPOLYLINE
  5
56F
100
AcDbEntity
  8
0
100
AcDbPolyline
 62
7
  6
CONTINUOUS
 90
5
 70
0
 10
13.5296599494
 20
8.345441254
 10
13.4872575182
 20
8.3528254623
 10
13.4478742898
 20
8.3504711873
 10
13.4126518814
 20
8.3384348119
 10
13.3959767856
 20
8.3265703689
  0
LWPOLYLINE
  5
570
100
AcDbEntity
  8
0
100
AcDbPolyline
 62
7
  6
CONTINUOUS
 90
5
 70
0
 10
13.5867402318
 20
8.3779565968
 10
13.5443094662
 20
8.3854545584
 10
13.5048838723
 20
8.3832150923
 10
13.4696063197
 20
8.3712911866
 10
13.4522570996
 20
8.3590358197
  0
LWPOLYLINE
  5
571
100
AcDbEntity
  8
0
100
AcDbPolyline
 62
7
  6
CONTINUOUS
 90
5
 70
0
 10
13.6438207602
 20
8.4104706212
 10
13.6013618313
 20
8.4180823034
 10
13.5618940303
 20
8.4159576535
 10
13.5265614751
 20
8.4041462647
 10
13.5085354359
 20
8.3915045743
  0
LWPOLYLINE
  5
572
100
AcDbEntity
  8
0
100
AcDbPolyline
 62
7
  6
CONTINUOUS
 90
3
 70
0
 10
13.7960480978
 20
8.4299229111
 10
13.7514230837
 20
8.4517625468
 10
13.7078957998
 20
8.4643386085
  0
LINE
  5
573
100
AcDbEntity
  8
0
100
AcDbLine
 62
7
  6
CONTINUOUS
 10
13.8469130697
 20
8.4318752908
 11
13.8022260796
 21
8.4581666974
  0
LWPOLYLINE
  5
574
100
AcDbEntity
  8
0
100
AcDbPolyline
 62
7
  6
CONTINUOUS
 90
4
 70
0
 10
13.897558833
 20
8.4317322793
 10
13.8531427726
 20
8.4622727439
 10
13.8085125349
 20
8.4842179616
 10
13.7649648872
 20
8.4969057965
  0
LINE
  5
575
100
AcDbEntity
  8
0
100
AcDbLine
 62
7
  6
CONTINUOUS
 10
13.8907450718
 20
8.3974111465
 11
13.8469130697
 21
8.4318752908
  0
LWPOLYLINE
  5
576
100
AcDbEntity
  8
0
100
AcDbPolyline
 62
7
  6
CONTINUOUS
 90
7
 70
0
 10
14.1690311222
 20
8.2092077972
 10
14.1469501095
 20
8.2654197065
 10
14.1186027204
 20
8.3203787577
 10
14.0848042501
 20
8.3724466194
 10
14.0465311781
 20
8.4200704507
 10
14.004892295
 20
8.4618288172
 10
13.9610959159
 20
8.4964737226
  0
LWPOLYLINE
  5
577
100
AcDbEntity
  8
0
100
AcDbPolyline
 62
7
  6
CONTINUOUS
 90
11
 70
0
 10
14.0942726327
 20
7.9364957915
 10
14.1050174349
 20
7.9783465421
 10
14.1083294759
 20
8.0260437129
 10
14.1040879037
 20
8.0781637012
 10
14.0923952216
 20
8.1331521247
 10
14.0735742567
 20
8.1893697833
 10
14.0481586144
 20
8.2451411296
 10
14.0168769001
 20
8.298803813
 10
13.9806311747
 20
8.3487578349
 10
13.9404702817
 20
8.3935128588
 10
13.897558833
 20
8.4317322793
  0
LWPOLYLINE
  5
578
100
AcDbEntity
  8
0
100
AcDbPolyline
 62
7
  6
CONTINUOUS
 90
11
 70
0
 10
14.1506714413
 20
7.9687029427
 10
14.1615020838
 20
8.0104770903
 10
14.1649027085
 20
8.0581134557
 10
14.1607498441
 20
8.1101902339
 10
14.1491433706
 20
8.1651543202
 10
14.1304035661
 20
8.2213672344
 10
14.1050616362
 20
8.2771535691
 10
14.0738440067
 20
8.3308505307
 10
14.0376508435
 20
8.3808571068
 10
13.9975294357
 20
8.4256814073
 10
13.9546432279
 20
8.463984778
  0
LWPOLYLINE
  5
579
100
AcDbEntity
  8
0
100
AcDbPolyline
 62
7
  6
CONTINUOUS
 90
5
 70
0
 10
14.2070692665
 20
8.0009110804
 10
14.2179857019
 20
8.042608452
 10
14.2214748932
 20
8.0901838146
 10
14.2174107503
 20
8.1422171671
 10
14.2058905299
 20
8.197156689
  0
LWPOLYLINE
  5
57A
100
AcDbEntity
  8
0
100
AcDbPolyline
 62
7
  6
CONTINUOUS
 90
3
 70
0
 10
14.0580318273
 20
7.902036536
 10
14.0723369122
 20
7.9405245157
 10
14.0793505573
 20
7.9855009644
  0
LWPOLYLINE
  5
57B
100
AcDbEntity
  8
0
100
AcDbPolyline
 62
7
  6
CONTINUOUS
 90
12
 70
0
 10
14.1143900174
 20
7.9342866905
 10
14.1287786423
 20
7.9726910712
 10
14.1358798397
 20
8.0175986535
 10
14.1354607151
 20
8.0676683208
 10
14.1275107445
 20
8.1214063173
 10
14.1122420857
 20
8.1772104172
 10
14.0900833049
 20
8.2334173017
 10
14.0616667046
 20
8.2883517417
 10
14.0278096262
 20
8.3403761334
 10
13.9894902824
 20
8.3879389214
 10
13.947818832
 20
8.4296204763
 10
13.9040045532
 20
8.4641750729
  0
LWPOLYLINE
  5
57C
100
AcDbEntity
  8
0
100
AcDbPolyline
 62
7
  6
CONTINUOUS
 90
6
 70
0
 10
14.1707472585
 20
7.9665379068
 10
14.1852193612
 20
8.004858529
 10
14.1924080786
 20
8.0496970588
 10
14.1920779284
 20
8.0997144214
 10
14.1842157557
 20
8.1534184075
 10
14.1690311222
 20
8.2092077972
  0
LINE
  5
57D
100
AcDbEntity
  8
0
100
AcDbLine
 62
7
  6
CONTINUOUS
 10
14.0201165454
 20
7.8694460326
 11
14.0378728402
 21
7.9042896252
  0
LINE
  5
57E
100
AcDbEntity
  8
0
100
AcDbLine
 62
7
  6
CONTINUOUS
 10
14.0764357028
 20
7.9017421896
 11
14.0942726327
 21
7.9364957915
  0
LINE
  5
57F
100
AcDbEntity
  8
0
100
AcDbLine
 62
7
  6
CONTINUOUS
 10
14.1327539525
 20
7.9340394758
 11
14.1506714413
 21
7.9687029427
  0
LWPOLYLINE
  5
580
100
AcDbEntity
  8
0
100
AcDbPolyline
 62
7
  6
CONTINUOUS
 90
3
 70
0
 10
13.6160226034
 20
7.6217819912
 10
13.6428891373
 20
7.6447994207
 10
13.6634978516
 20
7.676315039
  0
LINE
  5
581
100
AcDbEntity
  8
0
100
AcDbLine
 62
7
  6
CONTINUOUS
 10
13.2662080078
 20
7.4883739792
 11
13.2644277045
 21
7.48716127
  0
LINE
  5
582
100
AcDbEntity
  8
0
100
AcDbLine
 62
7
  6
CONTINUOUS
 10
13.2487146725
 20
7.4803989776
 11
13.2576626616
 21
7.4862214445
  0
LINE
  5
583
100
AcDbEntity
  8
0
100
AcDbLine
 62
9
  6
CONTINUOUS
 10
15.0456482454
 20
8.6683054897
 11
15.0266804329
 21
8.6573544834
  0
LINE
  5
584
100
AcDbEntity
  8
0
100
AcDbLine
 62
7
  6
CONTINUOUS
 10
15.0786355201
 20
8.6391475392
 11
15.0390798151
 21
8.6163101785
  0
LWPOLYLINE
  5
585
100
AcDbEntity
  8
0
100
AcDbPolyline
 62
7
  6
CONTINUOUS
 90
5
 70
0
 10
13.5937586103
 20
8.3992002158
 10
13.5526635114
 20
8.4018982472
 10
13.5151515796
 20
8.3948489445
 10
13.4823090989
 20
8.3782475194
 10
13.4779085939
 20
8.3740973772
  0
LINE
  5
586
100
AcDbEntity
  8
0
100
AcDbLine
 62
7
  6
CONTINUOUS
 10
13.6508270402
 20
8.4317700817
 11
13.6096967081
 21
8.4345827998
  0
LWPOLYLINE
  5
587
100
AcDbEntity
  8
0
100
AcDbPolyline
 62
7
  6
CONTINUOUS
 90
5
 70
0
 10
13.7078957998
 20
8.4643386085
 10
13.6667304001
 20
8.4672659998
 10
13.629121199
 20
8.4604449287
 10
13.596157357
 20
8.4440638582
 10
13.5913496167
 20
8.4395893378
  0
LINE
  5
588
100
AcDbEntity
  8
0
100
AcDbLine
 62
7
  6
CONTINUOUS
 10
13.7009015326
 20
8.4429833277
 11
13.6584146113
 21
8.4507086975
  0
LWPOLYLINE
  5
589
100
AcDbEntity
  8
0
100
AcDbPolyline
 62
7
  6
CONTINUOUS
 90
5
 70
0
 10
13.7579825469
 20
8.4754947169
 10
13.7154678044
 20
8.4833337409
 10
13.6759160659
 20
8.4814387437
 10
13.640473931
 20
8.4698525279
 10
13.6210862113
 20
8.4564520173
  0
LINE
  5
58A
100
AcDbEntity
  8
0
100
AcDbLine
 62
7
  6
CONTINUOUS
 10
13.8022260796
 20
8.4581666974
 11
13.7579825469
 21
8.4754947169
  0
LWPOLYLINE
  5
58B
100
AcDbEntity
  8
0
100
AcDbPolyline
 62
7
  6
CONTINUOUS
 90
3
 70
0
 10
13.9040045532
 20
8.4641750729
 10
13.8593200859
 20
8.4905677251
 10
13.8150638011
 20
8.5080047896
  0
LWPOLYLINE
  5
58C
100
AcDbEntity
  8
0
100
AcDbPolyline
 62
7
  6
CONTINUOUS
 90
3
 70
0
 10
13.9610959159
 20
8.4964737226
 10
13.9164141516
 20
8.5229675102
 10
13.8721452931
 20
8.5405135463
  0
LWPOLYLINE
  5
58D
100
AcDbEntity
  8
0
100
AcDbPolyline
 62
7
  6
CONTINUOUS
 90
4
 70
0
 10
13.9546432279
 20
8.463984778
 10
13.9102374177
 20
8.4946213841
 10
13.8656021363
 20
8.5166720919
 10
13.8220343002
 20
8.5294716461
  0
LWPOLYLINE
  5
58E
100
AcDbEntity
  8
0
100
AcDbPolyline
 62
7
  6
CONTINUOUS
 90
4
 70
0
 10
14.011727412
 20
8.4962362129
 10
13.967332031
 20
8.5269688331
 10
13.9226918858
 20
8.5491249386
 10
13.879104037
 20
8.5620361578
  0
LWPOLYLINE
  5
58F
100
AcDbEntity
  8
0
100
AcDbPolyline
 62
7
  6
CONTINUOUS
 90
7
 70
0
 10
14.2058905299
 20
8.197156689
 10
14.1872319596
 20
8.2533646262
 10
14.1619638428
 20
8.3091657186
 10
14.1308104229
 20
8.3628967363
 10
14.0946699672
 20
8.4129556598
 10
14.0545882061
 20
8.457849051
 10
14.011727412
 20
8.4962362129
  0
LWPOLYLINE
  5
590
100
AcDbEntity
  8
0
100
AcDbPolyline
 62
7
  6
CONTINUOUS
 90
8
 70
0
 10
14.2409197509
 20
8.1854307871
 10
14.2258192018
 20
8.2412052358
 10
14.2038160446
 20
8.2974219374
 10
14.17553798
 20
8.3524053726
 10
14.1417982532
 20
8.4045164888
 10
14.1035716068
 20
8.4522011661
 10
14.0619654586
 20
8.4940361712
 10
14.0181871558
 20
8.5287712412
  0
LWPOLYLINE
  5
591
100
AcDbEntity
  8
0
100
AcDbPolyline
 62
7
  6
CONTINUOUS
 90
9
 70
0
 10
14.2780460298
 20
8.1222547921
 10
14.2740706219
 20
8.1742445037
 10
14.2626366987
 20
8.2291592338
 10
14.2440594359
 20
8.2853619616
 10
14.2188652329
 20
8.341177581
 10
14.1877761472
 20
8.3949424324
 10
14.151688544
 20
8.445053496
 10
14.1116465909
 20
8.4900157919
 10
14.0688113832
 20
8.5284865857
  0
LWPOLYLINE
  5
592
100
AcDbEntity
  8
0
100
AcDbPolyline
 62
7
  6
CONTINUOUS
 90
8
 70
0
 10
14.2980977678
 20
8.0691961597
 10
14.3054614269
 20
8.1138960274
 10
14.3053092197
 20
8.1638081596
 10
14.2976227296
 20
8.2174434588
 10
14.2826063236
 20
8.2732027358
 10
14.260681109
 20
8.3294239973
 10
14.2324724817
 20
8.3844315889
 10
14.1987916337
 20
8.436585744
  0
LWPOLYLINE
  5
593
100
AcDbEntity
  8
0
100
AcDbPolyline
 62
7
  6
CONTINUOUS
 90
3
 70
0
 10
14.2634661092
 20
8.0331202066
 10
14.2744682894
 20
8.0747406293
 10
14.2780460298
 20
8.1222547921
  0
LWPOLYLINE
  5
594
100
AcDbEntity
  8
0
100
AcDbPolyline
 62
7
  6
CONTINUOUS
 90
8
 70
0
 10
14.31986197
 20
8.0653303232
 10
14.3309498467
 20
8.1068736243
 10
14.3346161183
 20
8.1543263906
 10
14.3307294587
 20
8.206272246
 10
14.3193818764
 20
8.2611619573
 10
14.3008859941
 20
8.3173592433
 10
14.2757658049
 20
8.3731891588
 10
14.2447411779
 20
8.4269876215
  0
LWPOLYLINE
  5
595
100
AcDbEntity
  8
0
100
AcDbPolyline
 62
7
  6
CONTINUOUS
 90
5
 70
0
 10
14.2271035517
 20
7.9987901865
 10
14.2416590695
 20
8.0370268911
 10
14.2489352743
 20
8.0817961826
 10
14.2486940967
 20
8.1317610334
 10
14.2409197509
 20
8.1854307871
  0
LINE
  5
596
100
AcDbEntity
  8
0
100
AcDbLine
 62
7
  6
CONTINUOUS
 10
14.2834588977
 20
8.0310435313
 11
14.2980977678
 21
8.0691961597
  0
LINE
  5
597
100
AcDbEntity
  8
0
100
AcDbLine
 62
7
  6
CONTINUOUS
 10
14.1890712956
 20
7.9663378926
 11
14.2070692665
 21
8.0009110804
  0
LINE
  5
598
100
AcDbEntity
  8
0
100
AcDbLine
 62
7
  6
CONTINUOUS
 10
14.2453877331
 20
7.9986374417
 11
14.2634661092
 21
8.0331202066
  0
LINE
  5
599
100
AcDbEntity
  8
0
100
AcDbLine
 62
7
  6
CONTINUOUS
 10
14.0931623436
 20
7.903534333
 11
14.1143900174
 21
7.9342866905
  0
LINE
  5
59A
100
AcDbEntity
  8
0
100
AcDbLine
 62
7
  6
CONTINUOUS
 10
13.8408904061
 20
7.7515590411
 11
13.8680326484
 21
7.7741574012
  0
LINE
  5
59B
100
AcDbEntity
  8
0
100
AcDbLine
 62
7
  6
CONTINUOUS
 10
14.0657462255
 20
7.8813565553
 11
14.0931623436
 21
7.903534333
  0
LWPOLYLINE
  5
59C
100
AcDbEntity
  8
0
100
AcDbPolyline
 62
7
  6
CONTINUOUS
 90
3
 70
0
 10
13.3476396205
 20
7.4674655729
 10
13.3770495983
 20
7.4864435644
 10
13.4005456073
 20
7.5142623936
  0
LINE
  5
59D
100
AcDbEntity
  8
0
100
AcDbLine
 62
7
  6
CONTINUOUS
 10
13.5723975137
 20
7.59743918
 11
13.6020650769
 21
7.6159848545
  0
LWPOLYLINE
  5
59E
100
AcDbEntity
  8
0
100
AcDbPolyline
 62
7
  6
CONTINUOUS
 90
3
 70
0
 10
13.8663128131
 20
7.7677306971
 10
13.8833160919
 20
7.7779391787
 10
13.9074755034
 20
7.8048570999
  0
LINE
  5
59F
100
AcDbEntity
  8
0
100
AcDbLine
 62
7
  6
CONTINUOUS
 10
13.2487160089
 20
7.4803995685
 11
13.2643680765
 21
7.48943624
  0
LINE
  5
5A0
100
AcDbEntity
  8
0
100
AcDbLine
 62
7
  6
CONTINUOUS
 10
13.2985924735
 20
7.5023364825
 11
13.2703083201
 21
7.4860067163
  0
LINE
  5
5A1
100
AcDbEntity
  8
0
100
AcDbLine
 62
7
  6
CONTINUOUS
 10
15.012006458
 20
8.4695622367
 11
14.9451496783
 21
8.4309626874
  0
LINE
  5
5A2
100
AcDbEntity
  8
AXIS
100
AcDbLine
 62
7
  6
CONTINUOUS
 10
14.4899502847
 20
8.1652680167
 11
14.9284025879
 21
8.4184070609
  0
LWPOLYLINE
  5
5A3
100
AcDbEntity
  8
0
100
AcDbPolyline
 62
7
  6
CONTINUOUS
 90
4
 70
0
 10
14.2225301866
 20
7.9741860385
 10
14.2343802835
 20
7.9787181547
 10
14.262000595
 20
8.0005795194
 10
14.2834588977
 20
8.0310435313
  0
LWPOLYLINE
  5
5A4
100
AcDbEntity
  8
0
100
AcDbPolyline
 62
7
  6
CONTINUOUS
 90
3
 70
0
 10
14.2789595679
 20
8.006773513
 10
14.2905901572
 20
8.0111745903
 10
14.3182783005
 20
8.0329303004
  0
LINE
  5
5A5
100
AcDbEntity
  8
0
100
AcDbLine
 62
7
  6
CONTINUOUS
 10
14.3353891742
 20
8.0393606974
 11
14.346799294
 21
8.0436323119
  0
LWPOLYLINE
  5
5A6
100
AcDbEntity
  8
0
100
AcDbPolyline
 62
7
  6
CONTINUOUS
 90
15
 70
0
 10
14.3918190033
 20
8.07194759
 10
14.4030076952
 20
8.0760913204
 10
14.4308311515
 20
8.0976354484
 10
14.4525192624
 20
8.1278099732
 10
14.4674078084
 20
8.1657094241
 10
14.4750336286
 20
8.2101999101
 10
14.4751483158
 20
8.2599526477
 10
14.4677255616
 20
8.3134832526
 10
14.4529619342
 20
8.3691956314
 10
14.4312710667
 20
8.4254291772
 10
14.4032714254
 20
8.4805078729
 10
14.3697680227
 20
8.532789849
 10
14.3317286134
 20
8.5807159335
 10
14.2902550787
 20
8.6228557545
 10
14.2465508446
 20
8.6579500364
  0
LWPOLYLINE
  5
5A7
100
AcDbEntity
  8
0
100
AcDbPolyline
 62
7
  6
CONTINUOUS
 90
4
 70
0
 10
13.6096967081
 20
8.4345827998
 10
13.5721360662
 20
8.4276475995
 10
13.5392328389
 20
8.4111563188
 10
13.5346291822
 20
8.4068432343
  0
LWPOLYLINE
  5
5A8
100
AcDbEntity
  8
0
100
AcDbPolyline
 62
7
  6
CONTINUOUS
 90
4
 70
0
 10
13.6584146113
 20
8.4507086975
 10
13.6189047621
 20
8.4486988708
 10
13.5835173461
 20
8.4370000454
 10
13.5648118035
 20
8.4239766383
  0
LWPOLYLINE
  5
5A9
100
AcDbEntity
  8
0
100
AcDbPolyline
 62
7
  6
CONTINUOUS
 90
5
 70
0
 10
13.7649648872
 20
8.4969057965
 10
13.7237645855
 20
8.4999478473
 10
13.6861069764
 20
8.4932409314
 10
13.6530826516
 20
8.4769701365
 10
13.6480698992
 20
8.4723356889
  0
LWPOLYLINE
  5
5AA
100
AcDbEntity
  8
0
100
AcDbPolyline
 62
7
  6
CONTINUOUS
 90
4
 70
0
 10
13.8220343002
 20
8.5294716461
 10
13.7807992624
 20
8.532628342
 10
13.7430933966
 20
8.5260356071
 10
13.7100087214
 20
8.5098751527
  0
LWPOLYLINE
  5
5AB
100
AcDbEntity
  8
0
100
AcDbPolyline
 62
7
  6
CONTINUOUS
 90
3
 70
0
 10
13.8150638011
 20
8.5080047896
 10
13.7725214087
 20
8.5159574336
 10
13.7329279399
 20
8.5141772719
  0
LWPOLYLINE
  5
5AC
100
AcDbEntity
  8
0
100
AcDbPolyline
 62
7
  6
CONTINUOUS
 90
3
 70
0
 10
13.8721452931
 20
8.5405135463
 10
13.8295754221
 20
8.5485797759
 10
13.7899403823
 20
8.5469144551
  0
LWPOLYLINE
  5
5AD
100
AcDbEntity
  8
0
100
AcDbPolyline
 62
7
  6
CONTINUOUS
 90
3
 70
0
 10
14.0181871558
 20
8.5287712412
 10
13.9735082746
 20
8.5553660537
 10
13.9292270209
 20
8.5730209877
  0
LWPOLYLINE
  5
5AE
100
AcDbEntity
  8
0
100
AcDbPolyline
 62
7
  6
CONTINUOUS
 90
3
 70
0
 10
14.0752782707
 20
8.5610676305
 10
14.0306024528
 20
8.5877633569
 10
13.9863089823
 20
8.6055271143
  0
LWPOLYLINE
  5
5AF
100
AcDbEntity
  8
0
100
AcDbPolyline
 62
7
  6
CONTINUOUS
 90
4
 70
0
 10
14.0688113832
 20
8.5284865857
 10
14.0244266103
 20
8.559315092
 10
13.9797817814
 20
8.5815765026
 10
13.9361740954
 20
8.594599332
  0
LWPOLYLINE
  5
5B0
100
AcDbEntity
  8
0
100
AcDbPolyline
 62
7
  6
CONTINUOUS
 90
4
 70
0
 10
14.1987916337
 20
8.436585744
 10
14.1606115665
 20
8.4843310699
 10
14.1190383208
 20
8.52624254
 10
14.0752782707
 20
8.5610676305
  0
LWPOLYLINE
  5
5B1
100
AcDbEntity
  8
0
100
AcDbPolyline
 62
7
  6
CONTINUOUS
 90
4
 70
0
 10
14.2447411779
 20
8.4269876215
 10
14.2087065721
 20
8.4771506178
 10
14.1687045882
 20
8.5221816322
 10
14.1258951393
 20
8.5607358982
  0
LWPOLYLINE
  5
5B2
100
AcDbEntity
  8
0
100
AcDbPolyline
 62
7
  6
CONTINUOUS
 90
5
 70
0
 10
14.2894062242
 20
8.4164574093
 10
14.2557843899
 20
8.4686543875
 10
14.2176510555
 20
8.5164601643
 10
14.1761108796
 20
8.5584479256
 10
14.1323692585
 20
8.5933628917
  0
LWPOLYLINE
  5
5B3
100
AcDbEntity
  8
0
100
AcDbPolyline
 62
7
  6
CONTINUOUS
 90
7
 70
0
 10
14.3762568498
 20
8.097541432
 10
14.3874303743
 20
8.1390074393
 10
14.391185159
 20
8.1863986124
 10
14.3873872603
 20
8.2383003968
 10
14.3761260622
 20
8.2931648622
 10
14.3577116332
 20
8.349356474
 10
14.3326655578
 20
8.4052004547
  0
LWPOLYLINE
  5
5B4
100
AcDbEntity
  8
0
100
AcDbPolyline
 62
7
  6
CONTINUOUS
 90
11
 70
0
 10
14.4326507492
 20
8.1297535348
 10
14.4439098725
 20
8.1711420764
 10
14.4477531516
 20
8.2184714602
 10
14.4440440263
 20
8.2703289587
 10
14.4328692555
 20
8.3251679513
 10
14.4145363522
 20
8.3813536564
 10
14.3895644901
 20
8.4372114714
 10
14.3586691524
 20
8.491076489
 10
14.3227409752
 20
8.5413427275
 10
14.2828194121
 20
8.5865106187
 10
14.2400619983
 20
8.6252313488
  0
LWPOLYLINE
  5
5B5
100
AcDbEntity
  8
0
100
AcDbPolyline
 62
7
  6
CONTINUOUS
 90
8
 70
0
 10
14.3398132976
 20
8.0632979429
 10
14.3545354567
 20
8.1013663367
 10
14.3619865367
 20
8.1459965953
 10
14.3619232973
 20
8.1958558023
 10
14.3543246913
 20
8.2494564251
 10
14.3393924869
 20
8.3052002999
 10
14.3175453017
 20
8.3614258887
 10
14.2894062242
 20
8.4164574093
  0
LWPOLYLINE
  5
5B6
100
AcDbEntity
  8
0
100
AcDbPolyline
 62
7
  6
CONTINUOUS
 90
12
 70
0
 10
14.3961667522
 20
8.0955534229
 10
14.4109721367
 20
8.1335374242
 10
14.4185106039
 20
8.1780978888
 10
14.4185363294
 20
8.2279039642
 10
14.4110256355
 20
8.2814696888
 10
14.3961776907
 20
8.3371979309
 10
14.3744086213
 20
8.3934276144
 10
14.3463392059
 20
8.4484828364
 10
14.3127765201
 20
8.5007224217
 10
14.2746900718
 20
8.5485884514
 10
14.2331831329
 20
8.5906523298
 10
14.1894601172
 20
8.6256570265
  0
LINE
  5
5B7
100
AcDbEntity
  8
0
100
AcDbLine
 62
7
  6
CONTINUOUS
 10
14.3017032661
 20
8.0309381243
 11
14.31986197
 21
8.0653303232
  0
LINE
  5
5B8
100
AcDbEntity
  8
0
100
AcDbLine
 62
7
  6
CONTINUOUS
 10
14.3580178958
 20
8.0632399422
 11
14.3762568498
 21
8.097541432
  0
LINE
  5
5B9
100
AcDbEntity
  8
0
100
AcDbLine
 62
7
  6
CONTINUOUS
 10
14.4143316231
 20
8.0955428967
 11
14.4326507492
 21
8.1297535348
  0
LINE
  5
5BA
100
AcDbEntity
  8
0
100
AcDbLine
 62
7
  6
CONTINUOUS
 10
14.3182783005
 20
8.0329303004
 11
14.3398132976
 21
8.0632979429
  0
LINE
  5
5BB
100
AcDbEntity
  8
0
100
AcDbLine
 62
7
  6
CONTINUOUS
 10
14.3332757425
 20
8.0371304719
 11
14.3580178958
 21
8.0632399422
  0
LWPOLYLINE
  5
5BC
100
AcDbEntity
  8
0
100
AcDbPolyline
 62
7
  6
CONTINUOUS
 90
3
 70
0
 10
14.346799294
 20
8.0436323119
 10
14.3745551523
 20
8.0652822763
 10
14.3961667522
 20
8.0955534229
  0
LWPOLYLINE
  5
5BD
100
AcDbEntity
  8
AXIS
100
AcDbPolyline
 62
7
  6
CONTINUOUS
 90
14
 70
0
 10
14.9283838959
 20
8.4184020635
 10
14.9494569015
 20
8.4341895819
 10
14.971953835
 20
8.4631560432
 10
14.9873913981
 20
8.5002570979
 10
14.9952438832
 20
8.5442293141
 10
14.9952438832
 20
8.5935752709
 10
14.9873913981
 20
8.6466145507
 10
14.971953835
 20
8.7015409646
 10
14.9494569015
 20
8.7564840593
 10
14.9206667038
 20
8.8095728138
 10
14.8865636574
 20
8.8589993541
 10
14.8483091007
 20
8.9030805187
 10
14.8072057467
 20
8.9403151763
 10
14.764653321
 20
8.9694353455
  0
LWPOLYLINE
  5
5BE
100
AcDbEntity
  8
0
100
AcDbPolyline
 62
7
  6
CONTINUOUS
 90
3
 70
0
 10
14.0780625441
 20
7.8899564492
 10
14.1083023421
 20
7.9075248951
 10
14.1327539525
 20
7.9340394758
  0
LINE
  5
5BF
100
AcDbEntity
  8
0
100
AcDbLine
 62
7
  6
CONTINUOUS
 10
13.2644277045
 20
7.48716127
 11
13.2503938039
 21
7.4804391411
  0
LWPOLYLINE
  5
5C0
100
AcDbEntity
  8
0
100
AcDbPolyline
 62
7
  6
CONTINUOUS
 90
4
 70
0
 10
13.4873892205
 20
7.5498336122
 10
13.5035841788
 20
7.5569011222
 10
13.5303121769
 20
7.5801275106
 10
13.5507652677
 20
7.6118326405
  0
LWPOLYLINE
  5
5C1
100
AcDbEntity
  8
0
100
AcDbPolyline
 62
7
  6
CONTINUOUS
 90
3
 70
0
 10
13.544280362
 20
7.5826322883
 10
13.5598037693
 20
7.5893409194
 10
13.5866010919
 20
7.6124628768
  0
LINE
  5
5C2
100
AcDbEntity
  8
0
100
AcDbLine
 62
7
  6
CONTINUOUS
 10
13.6011733938
 20
7.6154274489
 11
13.6160226034
 21
7.6217819912
  0
LWPOLYLINE
  5
5C3
100
AcDbEntity
  8
0
100
AcDbPolyline
 62
7
  6
CONTINUOUS
 90
4
 70
0
 10
13.6580683058
 20
7.6482190892
 10
13.6722406827
 20
7.6542243383
 10
13.6991763145
 20
7.6771371438
 10
13.7198627092
 20
7.7085578094
  0
LWPOLYLINE
  5
5C4
100
AcDbEntity
  8
0
100
AcDbPolyline
 62
7
  6
CONTINUOUS
 90
4
 70
0
 10
13.7146762088
 20
7.6808860095
 10
13.7284580086
 20
7.6866679617
 10
13.7554626246
 20
7.7094760473
 10
13.7762266116
 20
7.7408016294
  0
LWPOLYLINE
  5
5C5
100
AcDbEntity
  8
0
100
AcDbPolyline
 62
7
  6
CONTINUOUS
 90
4
 70
0
 10
13.7711034755
 20
7.7134760135
 10
13.7846745826
 20
7.7191128624
 10
13.8117480689
 20
7.7418161327
 10
13.8325895597
 20
7.773046501
  0
LINE
  5
5C6
100
AcDbEntity
  8
0
100
AcDbLine
 62
7
  6
CONTINUOUS
 10
13.827530985
 20
7.746065744
 11
13.8408904061
 21
7.7515590411
  0
LWPOLYLINE
  5
5C7
100
AcDbEntity
  8
0
100
AcDbPolyline
 62
7
  6
CONTINUOUS
 90
4
 70
0
 10
13.8839587354
 20
7.778655199
 10
13.8971054807
 20
7.7840064989
 10
13.9243163644
 20
7.8064998541
 10
13.9453125967
 20
7.8375394053
  0
LWPOLYLINE
  5
5C8
100
AcDbEntity
  8
0
100
AcDbPolyline
 62
7
  6
CONTINUOUS
 90
4
 70
0
 10
13.9403867248
 20
7.8112443766
 10
13.9533198078
 20
7.8164552366
 10
13.9805992182
 20
7.8388434929
 10
14.0016726873
 20
7.8697874415
  0
LWPOLYLINE
  5
5C9
100
AcDbEntity
  8
0
100
AcDbPolyline
 62
7
  6
CONTINUOUS
 90
4
 70
0
 10
13.9968149511
 20
7.8438332748
 10
14.0095333889
 20
7.8489052552
 10
14.0368812108
 20
7.8711883188
 10
14.0580318273
 20
7.902036536
  0
LINE
  5
5CA
100
AcDbEntity
  8
0
100
AcDbLine
 62
7
  6
CONTINUOUS
 10
14.0532434124
 20
7.876421892
 11
14.0657462255
 21
7.8813565553
  0
LWPOLYLINE
  5
5CB
100
AcDbEntity
  8
0
100
AcDbPolyline
 62
7
  6
CONTINUOUS
 90
4
 70
0
 10
14.1096721068
 20
7.9090102262
 10
14.1219583192
 20
7.9138091381
 10
14.1494426178
 20
7.935881537
 10
14.1707472585
 20
7.9665379068
  0
LWPOLYLINE
  5
5CC
100
AcDbEntity
  8
0
100
AcDbPolyline
 62
7
  6
CONTINUOUS
 90
4
 70
0
 10
14.1661010322
 20
7.9415982756
 10
14.1781696714
 20
7.9462630042
 10
14.2057220345
 20
7.9682299321
 10
14.2271035517
 20
7.9987901865
  0
LWPOLYLINE
  5
5CD
100
AcDbEntity
  8
0
100
AcDbPolyline
 62
7
  6
CONTINUOUS
 90
3
 70
0
 10
13.879104037
 20
8.5620361578
 10
13.8378344291
 20
8.5653074841
 10
13.8000804581
 20
8.5588289553
  0
LWPOLYLINE
  5
5CE
100
AcDbEntity
  8
0
100
AcDbPolyline
 62
7
  6
CONTINUOUS
 90
5
 70
0
 10
13.9361740954
 20
8.594599332
 10
13.8948700835
 20
8.5979852733
 10
13.857068159
 20
8.5916209754
 10
13.8238631809
 20
8.575681395
 10
13.8182298559
 20
8.5705762402
  0
LWPOLYLINE
  5
5CF
100
AcDbEntity
  8
0
100
AcDbPolyline
 62
7
  6
CONTINUOUS
 90
5
 70
0
 10
13.9932444734
 20
8.627161169
 10
13.9519062239
 20
8.6306617097
 10
13.9140564978
 20
8.624411667
 10
13.8807915677
 20
8.6085826191
 10
13.8749495513
 20
8.603323594
  0
LWPOLYLINE
  5
5D0
100
AcDbEntity
  8
0
100
AcDbPolyline
 62
7
  6
CONTINUOUS
 90
5
 70
0
 10
13.9292270209
 20
8.5730209877
 10
13.8866298427
 20
8.581200768
 10
13.8469533914
 20
8.5796502931
 10
13.8113479543
 20
8.5684021785
 10
13.7898977666
 20
8.5538980991
  0
LWPOLYLINE
  5
5D1
100
AcDbEntity
  8
0
100
AcDbPolyline
 62
7
  6
CONTINUOUS
 90
5
 70
0
 10
13.9863089823
 20
8.6055271143
 10
13.9436846686
 20
8.6138204099
 10
13.9039669653
 20
8.6123847856
 10
13.8683073796
 20
8.6012494605
 10
13.846164426
 20
8.5863867925
  0
LWPOLYLINE
  5
5D2
100
AcDbEntity
  8
0
100
AcDbPolyline
 62
7
  6
CONTINUOUS
 90
3
 70
0
 10
14.0433911753
 20
8.638031927
 10
14.0007398977
 20
8.646438702
 10
13.9609811022
 20
8.6451179322
  0
LWPOLYLINE
  5
5D3
100
AcDbEntity
  8
0
100
AcDbPolyline
 62
7
  6
CONTINUOUS
 90
3
 70
0
 10
14.1323692585
 20
8.5933628917
 10
14.087696684
 20
8.6201594207
 10
14.0433911753
 20
8.638031927
  0
LWPOLYLINE
  5
5D4
100
AcDbEntity
  8
0
100
AcDbPolyline
 62
7
  6
CONTINUOUS
 90
3
 70
0
 10
14.1894601172
 20
8.6256570265
 10
14.1447909662
 20
8.6525542463
 10
14.1004735978
 20
8.6705354263
  0
LWPOLYLINE
  5
5D5
100
AcDbEntity
  8
0
100
AcDbPolyline
 62
7
  6
CONTINUOUS
 90
4
 70
0
 10
14.1258951393
 20
8.5607358982
 10
14.0815211535
 20
8.5916601623
 10
14.0368718208
 20
8.6140267847
 10
13.9932444734
 20
8.627161169
  0
LWPOLYLINE
  5
5D6
100
AcDbEntity
  8
0
100
AcDbPolyline
 62
7
  6
CONTINUOUS
 90
4
 70
0
 10
14.1829786784
 20
8.592984152
 10
14.1386156585
 20
8.6240040451
 10
14.0939620021
 20
8.6464757858
 10
14.050315169
 20
8.6597216693
  0
LWPOLYLINE
  5
5D7
100
AcDbEntity
  8
0
100
AcDbPolyline
 62
7
  6
CONTINUOUS
 90
5
 70
0
 10
14.3326655578
 20
8.4052004547
 10
14.3017055135
 20
8.4590323062
 10
14.2657240498
 20
8.5092470275
 10
14.2257621959
 20
8.5543465737
 10
14.1829786784
 20
8.592984152
  0
LWPOLYLINE
  5
5D8
100
AcDbEntity
  8
0
100
AcDbPolyline
 62
7
  6
CONTINUOUS
 90
4
 70
0
 10
13.3736126494
 20
7.4842257325
 10
13.3911427229
 20
7.4920253475
 10
13.417731734
 20
7.5154603062
 10
13.4380288528
 20
7.5473544201
  0
LWPOLYLINE
  5
5D9
100
AcDbEntity
  8
0
100
AcDbPolyline
 62
7
  6
CONTINUOUS
 90
4
 70
0
 10
13.4304999796
 20
7.5170314253
 10
13.4473638305
 20
7.5244625985
 10
13.4740223914
 20
7.5477933209
 10
13.4943975395
 20
7.579593009
  0
LWPOLYLINE
  5
5DA
100
AcDbEntity
  8
0
100
AcDbPolyline
 62
7
  6
CONTINUOUS
 90
3
 70
0
 10
13.3146039887
 20
7.4505143503
 10
13.3289218906
 20
7.4559585645
 10
13.3563357899
 20
7.4774213842
  0
LWPOLYLINE
  5
5DB
100
AcDbEntity
  8
0
100
AcDbPolyline
 62
7
  6
CONTINUOUS
 90
3
 70
0
 10
14.1148515581
 20
8.7116712372
 10
14.0750110582
 20
8.7105801867
 10
14.0391898865
 20
8.6997834918
  0
LWPOLYLINE
  5
5DC
100
AcDbEntity
  8
0
100
AcDbPolyline
 62
7
  6
CONTINUOUS
 90
3
 70
0
 10
14.050315169
 20
8.6597216693
 10
14.0089428482
 20
8.6633367931
 10
13.9710454727
 20
8.6572010294
  0
LWPOLYLINE
  5
5DD
100
AcDbEntity
  8
0
100
AcDbPolyline
 62
7
  6
CONTINUOUS
 90
3
 70
0
 10
14.1073861803
 20
8.6922808334
 10
14.0659799548
 20
8.6960105237
 10
14.0280350821
 20
8.6899890623
  0
LWPOLYLINE
  5
5DE
100
AcDbEntity
  8
0
100
AcDbPolyline
 62
7
  6
CONTINUOUS
 90
5
 70
0
 10
14.1004735978
 20
8.6705354263
 10
14.0577955282
 20
8.6790556444
 10
14.0179958005
 20
8.6778497327
 10
13.9822283473
 20
8.6669401179
 10
13.9586920116
 20
8.6513742101
  0
LWPOLYLINE
  5
5DF
100
AcDbEntity
  8
0
100
AcDbPolyline
 62
7
  6
CONTINUOUS
 90
6
 70
0
 10
14.2081427815
 20
8.7113699487
 10
14.1644575051
 20
8.7248386616
 10
14.1230175416
 20
8.7286829012
 10
14.0850253242
 20
8.722775765
 10
14.0515813389
 20
8.7072786916
 10
14.0451077959
 20
8.7015671817
  0
LWPOLYLINE
  5
5E0
100
AcDbEntity
  8
0
100
AcDbPolyline
 62
7
  6
CONTINUOUS
 90
4
 70
0
 10
14.2465508446
 20
8.6579500364
 10
14.2018852971
 20
8.6849478348
 10
14.1575562478
 20
8.7030376128
 10
14.1148515581
 20
8.7116712372
  0
LWPOLYLINE
  5
5E1
100
AcDbEntity
  8
0
100
AcDbPolyline
 62
7
  6
CONTINUOUS
 90
4
 70
0
 10
14.2400619983
 20
8.6252313488
 10
14.1957101231
 20
8.6563467419
 10
14.151052323
 20
8.6789235069
 10
14.1073861803
 20
8.6922808334
  0
LWPOLYLINE
  5
5E2
100
AcDbEntity
  8
0
100
AcDbPolyline
 62
7
  6
CONTINUOUS
 90
6
 70
0
 10
15.0786355201
 20
8.5983224183
 10
15.0738434932
 20
8.5639337135
 10
15.0645558337
 20
8.5332940952
 10
15.0509586462
 20
8.5070175822
 10
15.03332441
 20
8.4856307734
 10
15.012006458
 20
8.4695622367
  0
LINE
  5
5E3
100
AcDbEntity
  8
0
100
AcDbLine
 62
7
  6
CONTINUOUS
 10
15.0456482454
 20
8.6683054897
 11
15.0786355201
 21
8.6391475392
  0
LWPOLYLINE
  5
5E4
100
AcDbEntity
  8
0
100
AcDbPolyline
 62
7
  6
CONTINUOUS
 90
4
 70
0
 10
14.8759419114
 20
8.9622438509
 10
14.8817329304
 20
8.9393746702
 10
14.8900273321
 20
8.9152529982
 10
14.8945997358
 20
8.9044163562
  0
LINE
  5
5E5
100
AcDbEntity
  8
0
100
AcDbLine
 62
7
  6
CONTINUOUS
 10
14.8671835245
 20
9.0053911057
 11
14.8759419114
 21
8.9622438509
  0
LWPOLYLINE
  5
5E6
100
AcDbEntity
  8
0
100
AcDbPolyline
 62
7
  6
CONTINUOUS
 90
3
 70
0
 10
15.0786355201
 20
8.6391475392
 10
15.0793164421
 20
8.6183418571
 10
15.0786355201
 20
8.5983224183
  0
LWPOLYLINE
  5
5E7
100
AcDbEntity
  8
0
100
AcDbPolyline
 62
7
  6
CONTINUOUS
 90
4
 70
0
 10
14.8671835245
 20
9.0053911057
 10
14.8554035821
 20
9.012890966
 10
14.8436079807
 20
9.0197010055
 10
14.8318280383
 20
9.0258031435
  0
LWPOLYLINE
  5
5E8
100
AcDbEntity
  8
0
100
AcDbPolyline
 62
7
  6
CONTINUOUS
 90
4
 70
0
 10
15.0048964346
 20
8.7133776287
 10
15.0119957753
 20
8.7039986304
 10
15.0287385253
 20
8.6847549244
 10
15.0456482454
 20
8.6683054897
  0
LWPOLYLINE
  5
5E9
100
AcDbEntity
  8
AXIS
100
AcDbPolyline
 62
7
  6
CONTINUOUS
 90
5
 70
0
 10
15.2692060012
 20
8.898211803
 10
15.266812238
 20
8.8768294997
 10
15.2597700653
 20
8.8594538753
 10
15.2484887485
 20
8.8470947378
 10
15.2450877434
 20
8.8448916956
  0
LWPOLYLINE
  5
5EA
100
AcDbEntity
  8
0
100
AcDbPolyline
 62
7
  6
CONTINUOUS
 90
9
 70
0
 10
8.1134967832
 20
8.6865970334
 10
8.0979472053
 20
8.6271629988
 10
8.0926925516
 20
8.5659536658
 10
8.0978847692
 20
8.5047390048
 10
8.1133737165
 20
8.4452891406
 10
8.1387115045
 20
8.3893231658
 10
8.1731654486
 20
8.3384594305
 10
8.2157392552
 20
8.2941687448
 10
8.2652018312
 20
8.2577318485
  0
LINE
  5
5EB
100
AcDbEntity
  8
0
100
AcDbLine
 62
7
  6
CONTINUOUS
 10
8.1388916433
 20
8.7425371346
 11
8.1134967832
 21
8.6865970334
  0
LINE
  5
5EC
100
AcDbEntity
  8
0
100
AcDbLine
 62
7
  6
CONTINUOUS
 10
8.1733974503
 20
8.7933657006
 11
8.1388916433
 21
8.7425371346
  0
LWPOLYLINE
  5
5ED
100
AcDbEntity
  8
0
100
AcDbPolyline
 62
7
  6
CONTINUOUS
 90
9
 70
0
 10
8.2734829114
 20
8.2539202509
 10
8.3146928429
 20
8.2324194645
 10
8.3731870972
 20
8.2136413906
 10
8.4340172522
 20
8.2050456896
 10
8.495424302
 20
8.2068809205
 10
8.5556325587
 20
8.2190940147
 10
8.6129009994
 20
8.2413318099
 10
8.6655736111
 20
8.272951263
 10
8.7121272769
 20
8.3130380444
  0
LWPOLYLINE
  5
5EE
100
AcDbEntity
  8
0
100
AcDbPolyline
 62
7
  6
CONTINUOUS
 90
20
 70
0
 10
8.2652018312
 20
8.2577318485
 10
8.2173512539
 20
8.2952316087
 10
8.1769658369
 20
8.3396656122
 10
8.1446009505
 20
8.3902113586
 10
8.1210106311
 20
8.4460614644
 10
8.1073391569
 20
8.5048915069
 10
8.1038831502
 20
8.5633564315
 10
8.1098759242
 20
8.619754184
 10
8.1246175081
 20
8.6735267168
 10
8.1474762919
 20
8.7236629227
 10
8.1779531977
 20
8.7694121515
 10
8.2152832244
 20
8.8096405218
 10
8.2576278902
 20
8.8427320125
 10
8.3040799427
 20
8.868456791
 10
8.3538704912
 20
8.8865460875
 10
8.4058072174
 20
8.8965723348
 10
8.4574120877
 20
8.8983335242
 10
8.5078747825
 20
8.8922404403
 10
8.5565185696
 20
8.8785919811
 10
8.602649384
 20
8.8575740526
  0
LINE
  5
5EF
100
AcDbEntity
  8
0
100
AcDbLine
 62
7
  6
CONTINUOUS
 10
8.2489674953
 20
8.7257694159
 11
8.2389674953
 21
8.7157694159
  0
LINE
  5
5F0
100
AcDbEntity
  8
0
100
AcDbLine
 62
7
  6
CONTINUOUS
 10
8.2489674953
 20
8.4057694159
 11
8.2389674953
 21
8.4157694159
  0
LINE
  5
5F1
100
AcDbEntity
  8
0
100
AcDbLine
 62
7
  6
CONTINUOUS
 10
8.2389674953
 20
8.7157694159
 11
8.2389674953
 21
8.4157694159
  0
LINE
  5
5F2
100
AcDbEntity
  8
0
100
AcDbLine
 62
9
  6
CONTINUOUS
 10
8.2489674953
 20
8.4057694159
 11
8.2489674953
 21
8.7257694159
  0
LINE
  5
5F3
100
AcDbEntity
  8
0
100
AcDbLine
 62
9
  6
CONTINUOUS
 10
8.2001959445
 20
8.4057694159
 11
8.2489674953
 21
8.4057694159
  0
LINE
  5
5F4
100
AcDbEntity
  8
0
100
AcDbLine
 62
9
  6
CONTINUOUS
 10
8.6589674953
 20
8.4057694159
 11
8.7077390461
 21
8.4057694159
  0
LINE
  5
5F5
100
AcDbEntity
  8
0
100
AcDbLine
 62
7
  6
CONTINUOUS
 10
8.2389674953
 20
8.4157694159
 11
8.1713016148
 21
8.4157694159
  0
LINE
  5
5F6
100
AcDbEntity
  8
0
100
AcDbLine
 62
7
  6
CONTINUOUS
 10
8.6689674953
 20
8.4157694159
 11
8.7366333758
 21
8.4157694159
  0
LINE
  5
5F7
100
AcDbEntity
  8
AXIS
100
AcDbLine
 62
7
  6
CENTER
 10
8.4539674953
 20
8.5657694159
 11
8.4539674953
 21
8.1382694159
  0
LINE
  5
5F8
100
AcDbEntity
  8
DATUM_CURVES
100
AcDbLine
 62
40
  6
CONTINUOUS
 10
8.4539674953
 20
8.2660133872
 11
8.4539674953
 21
8.2637694159
  0
LINE
  5
5F9
100
AcDbEntity
  8
DATUM_CURVES
100
AcDbLine
 62
40
  6
CONTINUOUS
 10
8.4539674953
 20
8.205641929
 11
8.4539674953
 21
8.1657694159
  0
LINE
  5
5FA
100
AcDbEntity
  8
DATUM_CURVES
100
AcDbLine
 62
40
  6
CONTINUOUS
 10
8.4539674953
 20
8.8655254446
 11
8.4539674953
 21
8.8677694159
  0
LINE
  5
5FB
100
AcDbEntity
  8
DATUM_CURVES
100
AcDbLine
 62
40
  6
CONTINUOUS
 10
8.4539674953
 20
8.9264600992
 11
8.4539674953
 21
8.9657694159
  0
LINE
  5
5FC
100
AcDbEntity
  8
AXIS
100
AcDbLine
 62
7
  6
CENTER
 10
8.4539674953
 20
8.5657694159
 11
8.4539674953
 21
8.9932694159
  0
LINE
  5
5FD
100
AcDbEntity
  8
AXIS
100
AcDbLine
 62
7
  6
CENTER
 10
8.4539674953
 20
8.5657694159
 11
8.0264674953
 21
8.5657694159
  0
LINE
  5
5FE
100
AcDbEntity
  8
AXIS
100
AcDbLine
 62
7
  6
CENTER
 10
8.4539674953
 20
8.5657694159
 11
8.8814674953
 21
8.5657694159
  0
LINE
  5
5FF
100
AcDbEntity
  8
0
100
AcDbLine
 62
7
  6
CONTINUOUS
 10
8.7366333758
 20
8.7157694159
 11
8.6689674953
 21
8.7157694159
  0
LINE
  5
600
100
AcDbEntity
  8
0
100
AcDbLine
 62
7
  6
CONTINUOUS
 10
8.1713016148
 20
8.7157694159
 11
8.2389674953
 21
8.7157694159
  0
LINE
  5
601
100
AcDbEntity
  8
0
100
AcDbLine
 62
9
  6
CONTINUOUS
 10
8.7077390461
 20
8.7257694159
 11
8.6589674953
 21
8.7257694159
  0
LINE
  5
602
100
AcDbEntity
  8
0
100
AcDbLine
 62
9
  6
CONTINUOUS
 10
8.2489674953
 20
8.7257694159
 11
8.2001959445
 21
8.7257694159
  0
LINE
  5
603
100
AcDbEntity
  8
0
100
AcDbLine
 62
9
  6
CONTINUOUS
 10
8.6589674953
 20
8.7257694159
 11
8.6589674953
 21
8.4057694159
  0
LINE
  5
604
100
AcDbEntity
  8
0
100
AcDbLine
 62
7
  6
CONTINUOUS
 10
8.6689674953
 20
8.7157694159
 11
8.6689674953
 21
8.4157694159
  0
LINE
  5
605
100
AcDbEntity
  8
0
100
AcDbLine
 62
7
  6
CONTINUOUS
 10
8.6589674953
 20
8.4057694159
 11
8.6689674953
 21
8.4157694159
  0
LINE
  5
606
100
AcDbEntity
  8
0
100
AcDbLine
 62
7
  6
CONTINUOUS
 10
8.6589674953
 20
8.7257694159
 11
8.6689674953
 21
8.7157694159
  0
LWPOLYLINE
  5
607
100
AcDbEntity
  8
0
100
AcDbPolyline
 62
7
  6
CONTINUOUS
 90
20
 70
0
 10
8.6464671655
 20
8.8307224815
 10
8.6838746578
 20
8.8012467185
 10
8.715739463
 20
8.7677642212
 10
8.7422916428
 20
8.7306979133
 10
8.7640210319
 20
8.6891896309
 10
8.7804943905
 20
8.6422162494
 10
8.7902996302
 20
8.5889847304
 10
8.7912584841
 20
8.5317728684
 10
8.7827066353
 20
8.4757585525
 10
8.7652188139
 20
8.4224818008
 10
8.7391541638
 20
8.3725869275
 10
8.7048725584
 20
8.3271187616
 10
8.6633468244
 20
8.2876840044
 10
8.6158960048
 20
8.2555847332
 10
8.5640563203
 20
8.2317410337
 10
8.5077839571
 20
8.2163618654
 10
8.4471300844
 20
8.2104102412
 10
8.384013766
 20
8.2152974136
 10
8.3226909953
 20
8.2312708611
 10
8.2652018312
 20
8.2577318485
  0
LWPOLYLINE
  5
608
100
AcDbEntity
  8
0
100
AcDbPolyline
 62
7
  6
CONTINUOUS
 90
18
 70
0
 10
8.7817089274
 20
8.4137655586
 10
8.802724842
 20
8.4714935862
 10
8.8136558526
 20
8.5319477577
 10
8.8141858707
 20
8.5933799392
 10
8.8042995699
 20
8.654013716
 10
8.7842828291
 20
8.7120957608
 10
8.7547144661
 20
8.7659465338
 10
8.7164494997
 20
8.8140088494
 10
8.6705944255
 20
8.8548929052
 10
8.6184752202
 20
8.88741647
 10
8.5615989978
 20
8.9106390704
 10
8.5016104299
 20
8.923889186
 10
8.4402441866
 20
8.9267836674
 10
8.3792747758
 20
8.9192388157
 10
8.3204652304
 20
8.9014728031
 10
8.265516127
 20
8.8739993637
 10
8.2160164112
 20
8.837612938
 10
8.1733974503
 20
8.7933657006
  0
LINE
  5
609
100
AcDbEntity
  8
0
100
AcDbLine
 62
7
  6
CONTINUOUS
 10
8.7512158192
 20
8.3604329776
 11
8.7817089274
 21
8.4137655586
  0
LINE
  5
60A
100
AcDbEntity
  8
0
100
AcDbLine
 62
7
  6
CONTINUOUS
 10
8.7121272769
 20
8.3130380444
 11
8.7512158192
 21
8.3604329776
  0
LINE
  5
60B
100
AcDbEntity
  8
0
100
AcDbLine
 62
7
  6
CONTINUOUS
 10
8.1037773073
 20
6.6193143042
 11
8.0928606596
 21
6.6130085483
  0
LINE
  5
60C
100
AcDbEntity
  8
AXIS
100
AcDbLine
 62
7
  6
CONTINUOUS
 10
8.5704674953
 20
3.6662670601
 11
8.3374674953
 21
3.6662670601
  0
LINE
  5
60D
100
AcDbEntity
  8
0
100
AcDbLine
 62
7
  6
CONTINUOUS
 10
8.1266529641
 20
6.5925285663
 11
8.0928606596
 21
6.5730085483
  0
LINE
  5
60E
100
AcDbEntity
  8
0
100
AcDbLine
 62
7
  6
CONTINUOUS
 10
8.1266529641
 20
6.5525285663
 11
8.0928606596
 21
6.5330085483
  0
LINE
  5
60F
100
AcDbEntity
  8
0
100
AcDbLine
 62
7
  6
CONTINUOUS
 10
8.1266529641
 20
6.5125285663
 11
8.0928606596
 21
6.4930085483
  0
LWPOLYLINE
  5
610
100
AcDbEntity
  8
0
100
AcDbPolyline
 62
7
  6
CONTINUOUS
 90
20
 70
0
 10
8.0928606596
 20
6.4930085483
 10
8.0933372657
 20
6.493194704
 10
8.1023651996
 20
6.494290771
 10
8.1217897647
 20
6.4953868381
 10
8.1510365904
 20
6.4964829051
 10
8.1892408688
 20
6.4975789722
 10
8.2352729264
 20
6.4986750392
 10
8.2877716278
 20
6.4997711063
 10
8.3451846235
 20
6.5008671733
 10
8.4058142518
 20
6.5019632404
 10
8.4678677374
 20
6.5030593074
 10
8.5295102027
 20
6.5041553745
 10
8.5889189236
 20
6.5052514415
 10
8.6443372262
 20
6.5063475086
 10
8.6941264304
 20
6.5074435756
 10
8.7368143047
 20
6.5085396427
 10
8.7711385988
 20
6.5096357098
 10
8.7960843676
 20
6.5107317768
 10
8.8109139825
 20
6.5118278439
 10
8.8150743311
 20
6.5126200601
  0
LINE
  5
611
100
AcDbEntity
  8
0
100
AcDbLine
 62
7
  6
CONTINUOUS
 10
8.1266529641
 20
6.4725285663
 11
8.0928606596
 21
6.4530085483
  0
LINE
  5
612
100
AcDbEntity
  8
0
100
AcDbLine
 62
7
  6
CONTINUOUS
 10
8.1266529641
 20
6.4325285663
 11
8.0928606596
 21
6.4130085483
  0
LINE
  5
613
100
AcDbEntity
  8
0
100
AcDbLine
 62
7
  6
CONTINUOUS
 10
8.1266529641
 20
6.3925285663
 11
8.0928606596
 21
6.3730085483
  0
LWPOLYLINE
  5
614
100
AcDbEntity
  8
0
100
AcDbPolyline
 62
7
  6
CONTINUOUS
 90
20
 70
0
 10
8.0928606596
 20
6.3330085483
 10
8.0932528259
 20
6.3331689141
 10
8.1020316908
 20
6.3342649812
 10
8.1212170486
 20
6.3353610482
 10
8.1502416019
 20
6.3364571153
 10
8.188247115
 20
6.3375531824
 10
8.234109792
 20
6.3386492494
 10
8.2864735058
 20
6.3397453165
 10
8.3437898984
 20
6.3408413835
 10
8.4043641647
 20
6.3419374506
 10
8.4664051664
 20
6.3430335176
 10
8.528078395
 20
6.3441295847
 10
8.5875602166
 20
6.3452256517
 10
8.643091796
 20
6.3463217188
 10
8.6930311035
 20
6.3474177858
 10
8.7359014691
 20
6.3485138529
 10
8.7704352464
 20
6.3496099199
 10
8.7956112961
 20
6.350705987
 10
8.8106851802
 20
6.3518020541
 10
8.8150743311
 20
6.3526200601
  0
LWPOLYLINE
  5
615
100
AcDbEntity
  8
0
100
AcDbPolyline
 62
7
  6
CONTINUOUS
 90
20
 70
0
 10
8.0928606596
 20
6.4130085483
 10
8.0932943059
 20
6.413181809
 10
8.1021977236
 20
6.4142778761
 10
8.1215027246
 20
6.4153739432
 10
8.1506384739
 20
6.4164700102
 10
8.1887434479
 20
6.4175660773
 10
8.2346909094
 20
6.4186621443
 10
8.2871222245
 20
6.4197582114
 10
8.3444870364
 20
6.4208542784
 10
8.405089108
 20
6.4219503455
 10
8.4671364789
 20
6.4230464125
 10
8.5287944524
 20
6.4241424796
 10
8.5882398456
 20
6.4252385466
 10
8.6437149003
 20
6.4263346137
 10
8.6935792584
 20
6.4274306807
 10
8.7363584662
 20
6.4285267478
 10
8.7707875725
 20
6.4296228148
 10
8.7958485332
 20
6.4307188819
 10
8.8108003133
 20
6.431814949
 10
8.8150743311
 20
6.4326200601
  0
LWPOLYLINE
  5
616
100
AcDbEntity
  8
0
100
AcDbPolyline
 62
7
  6
CONTINUOUS
 90
19
 70
0
 10
8.7814674953
 20
6.6123143057
 10
8.7785666022
 20
6.6114663421
 10
8.7659255394
 20
6.6103451717
 10
8.7436335388
 20
6.6092239891
 10
8.7123796976
 20
6.6081027869
 10
8.6731314547
 20
6.6069815905
 10
8.6271042237
 20
6.6058604242
 10
8.5757217366
 20
6.604739275
 10
8.5205728921
 20
6.603618127
 10
8.4633644589
 20
6.6024969947
 10
8.4058587664
 20
6.6013757332
 10
8.3498395798
 20
6.6002544304
 10
8.297042933
 20
6.599133139
 10
8.2491037933
 20
6.5980118945
 10
8.2075032589
 20
6.5968906548
 10
8.1735282959
 20
6.5957694183
 10
8.1482298144
 20
6.594648175
 10
8.1323907366
 20
6.5935269276
 10
8.1266529641
 20
6.5925285663
  0
LINE
  5
617
100
AcDbEntity
  8
0
100
AcDbLine
 62
7
  6
CONTINUOUS
 10
8.1266529641
 20
6.3525285663
 11
8.0928606596
 21
6.3330085483
  0
LINE
  5
618
100
AcDbEntity
  8
0
100
AcDbLine
 62
7
  6
CONTINUOUS
 10
8.1266529641
 20
6.3125285663
 11
8.0928606596
 21
6.2930085483
  0
LINE
  5
619
100
AcDbEntity
  8
0
100
AcDbLine
 62
7
  6
CONTINUOUS
 10
8.1266529641
 20
6.2725285663
 11
8.0928606596
 21
6.2530085483
  0
LWPOLYLINE
  5
61A
100
AcDbEntity
  8
0
100
AcDbPolyline
 62
7
  6
CONTINUOUS
 90
20
 70
0
 10
8.0928606596
 20
6.2530085483
 10
8.0932128258
 20
6.2531560192
 10
8.1018671019
 20
6.2542520863
 10
8.1209327378
 20
6.2553481533
 10
8.149845976
 20
6.2564442204
 10
8.1877518724
 20
6.2575402874
 10
8.2335295766
 20
6.2586363545
 10
8.2858254742
 20
6.2597324216
 10
8.3430932125
 20
6.2608284886
 10
8.403639425
 20
6.2619245557
 10
8.4656738029
 20
6.2630206227
 10
8.5273620335
 20
6.2641166898
 10
8.5868800396
 20
6.2652127568
 10
8.6424679157
 20
6.2663088239
 10
8.6924819677
 20
6.2674048909
 10
8.7354433153
 20
6.268500958
 10
8.7700816219
 20
6.269597025
 10
8.7953726574
 20
6.2706930921
 10
8.8105685835
 20
6.2717891591
 10
8.8150743311
 20
6.2726200601
  0
LINE
  5
61B
100
AcDbEntity
  8
0
100
AcDbLine
 62
7
  6
CONTINUOUS
 10
8.7812820266
 20
6.6131000421
 11
8.7920395423
 21
6.6193143042
  0
LINE
  5
61C
100
AcDbEntity
  8
0
100
AcDbLine
 62
7
  6
CONTINUOUS
 10
8.1266529641
 20
6.2325285663
 11
8.0928606596
 21
6.2130085483
  0
LINE
  5
61D
100
AcDbEntity
  8
0
100
AcDbLine
 62
7
  6
CONTINUOUS
 10
8.7812820266
 20
6.5731000421
 11
8.8150743311
 21
6.5926200601
  0
LINE
  5
61E
100
AcDbEntity
  8
0
100
AcDbLine
 62
7
  6
CONTINUOUS
 10
8.1266529641
 20
6.1925285663
 11
8.0928606596
 21
6.1730085483
  0
LINE
  5
61F
100
AcDbEntity
  8
0
100
AcDbLine
 62
7
  6
CONTINUOUS
 10
8.7812820266
 20
6.5331000421
 11
8.8150743311
 21
6.5526200601
  0
LINE
  5
620
100
AcDbEntity
  8
0
100
AcDbLine
 62
7
  6
CONTINUOUS
 10
8.1266529641
 20
6.1525285663
 11
8.0928606596
 21
6.1330085483
  0
LWPOLYLINE
  5
621
100
AcDbEntity
  8
0
100
AcDbPolyline
 62
7
  6
CONTINUOUS
 90
20
 70
0
 10
8.0928606596
 20
6.1730085483
 10
8.0931743058
 20
6.1731431243
 10
8.1017039577
 20
6.1742391914
 10
8.1206497933
 20
6.1753352584
 10
8.1494515978
 20
6.1764313255
 10
8.187257722
 20
6.1775273925
 10
8.2329502657
 20
6.1786234596
 10
8.2851781325
 20
6.1797195266
 10
8.3423969815
 20
6.1808155937
 10
8.4029148917
 20
6.1819116608
 10
8.4649423913
 20
6.1830077278
 10
8.526645371
 20
6.1841037949
 10
8.5861993173
 20
6.1851998619
 10
8.6418432621
 20
6.186295929
 10
8.6919318533
 20
6.187391996
 10
8.7349840067
 20
6.1884880631
 10
8.7697267005
 20
6.1895841301
 10
8.7951326179
 20
6.1906801972
 10
8.8104505238
 20
6.1917762642
 10
8.8150743311
 20
6.1926200601
  0
LINE
  5
622
100
AcDbEntity
  8
0
100
AcDbLine
 62
7
  6
CONTINUOUS
 10
8.7780454141
 20
4.143120144
 11
8.5890045303
 21
4.1033143042
  0
LWPOLYLINE
  5
623
100
AcDbEntity
  8
0
100
AcDbPolyline
 62
7
  6
CONTINUOUS
 90
4
 70
0
 10
8.7780045303
 20
4.1433143042
 10
8.7578465156
 20
4.1390830912
 10
8.7381657496
 20
4.1349538788
 10
8.7189674953
 20
4.1309280232
  0
LWPOLYLINE
  5
624
100
AcDbEntity
  8
0
100
AcDbPolyline
 62
7
  6
CONTINUOUS
 90
7
 70
0
 10
8.5541638085
 20
4.1033143042
 10
8.5774249306
 20
4.1048874313
 10
8.6029356392
 20
4.1083110399
 10
8.6302904836
 20
4.1130457357
 10
8.6590547034
 20
4.1186067102
 10
8.6887711386
 20
4.1246454702
 10
8.7189674953
 20
4.1309280232
  0
LINE
  5
625
100
AcDbEntity
  8
0
100
AcDbLine
 62
7
  6
CONTINUOUS
 10
8.3189326986
 20
4.1033143042
 11
8.5890022921
 21
4.1033143042
  0
LINE
  5
626
100
AcDbEntity
  8
0
100
AcDbLine
 62
7
  6
CONTINUOUS
 10
8.1299304604
 20
4.1433143042
 11
8.1289674953
 21
4.1433143042
  0
LINE
  5
627
100
AcDbEntity
  8
0
100
AcDbLine
 62
7
  6
CONTINUOUS
 10
8.4289674953
 20
4.1433143042
 11
8.7789674953
 21
4.1433143042
  0
LWPOLYLINE
  5
628
100
AcDbEntity
  8
0
100
AcDbPolyline
 62
7
  6
CONTINUOUS
 90
7
 70
0
 10
8.3537711822
 20
4.1033143042
 10
8.3305100601
 20
4.1048874313
 10
8.3049993515
 20
4.1083110399
 10
8.2776445071
 20
4.1130457357
 10
8.2488802873
 20
4.1186067102
 10
8.2191638521
 20
4.1246454702
 10
8.1889674953
 20
4.1309280232
  0
LWPOLYLINE
  5
629
100
AcDbEntity
  8
0
100
AcDbPolyline
 62
7
  6
CONTINUOUS
 90
4
 70
0
 10
8.1889674953
 20
4.1309280232
 10
8.1697835107
 20
4.1349508856
 10
8.1501029351
 20
4.1390800567
 10
8.1299304604
 20
4.1433143042
  0
LINE
  5
62A
100
AcDbEntity
  8
0
100
AcDbLine
 62
7
  6
CONTINUOUS
 10
8.1289674953
 20
4.1433143042
 11
8.3189304604
 21
4.1033143042
  0
LINE
  5
62B
100
AcDbEntity
  8
0
100
AcDbLine
 62
7
  6
CONTINUOUS
 10
8.1264674953
 20
6.593314304
 11
8.1265309643
 21
6.5934396406
  0
LINE
  5
62C
100
AcDbEntity
  8
0
100
AcDbLine
 62
7
  6
CONTINUOUS
 10
8.7812820266
 20
6.4931000421
 11
8.8150743311
 21
6.5126200601
  0
LINE
  5
62D
100
AcDbEntity
  8
0
100
AcDbLine
 62
7
  6
CONTINUOUS
 10
8.1266529641
 20
6.1125285663
 11
8.0928606596
 21
6.0930085483
  0
LINE
  5
62E
100
AcDbEntity
  8
0
100
AcDbLine
 62
7
  6
CONTINUOUS
 10
8.7812820266
 20
6.4531000421
 11
8.8150743311
 21
6.4726200601
  0
LINE
  5
62F
100
AcDbEntity
  8
0
100
AcDbLine
 62
7
  6
CONTINUOUS
 10
8.1266529641
 20
6.0725285663
 11
8.0928606596
 21
6.0530085483
  0
LINE
  5
630
100
AcDbEntity
  8
0
100
AcDbLine
 62
7
  6
CONTINUOUS
 10
8.7812820266
 20
6.4131000421
 11
8.8150743311
 21
6.4326200601
  0
LINE
  5
631
100
AcDbEntity
  8
0
100
AcDbLine
 62
7
  6
CONTINUOUS
 10
8.1266529641
 20
6.0325285663
 11
8.0928606596
 21
6.0130085483
  0
LWPOLYLINE
  5
632
100
AcDbEntity
  8
0
100
AcDbPolyline
 62
7
  6
CONTINUOUS
 90
20
 70
0
 10
8.0928606596
 20
6.0930085483
 10
8.093137266
 20
6.0931302294
 10
8.1015422587
 20
6.0942262965
 10
8.1203682164
 20
6.0953223635
 10
8.149058469
 20
6.0964184306
 10
8.1867646658
 20
6.0975144976
 10
8.2323718615
 20
6.0986105647
 10
8.2845314833
 20
6.0997066317
 10
8.3417012083
 20
6.1008026988
 10
8.4021905679
 20
6.1018987658
 10
8.4642109347
 20
6.1029948329
 10
8.5259284103
 20
6.1040909
 10
8.5855180524
 20
6.105186967
 10
8.6412178376
 20
6.1062830341
 10
8.6913807626
 20
6.1073791011
 10
8.7345235451
 20
6.1084751682
 10
8.7693704836
 20
6.1095712352
 10
8.7948911787
 20
6.1106673023
 10
8.8103310016
 20
6.1117633693
 10
8.8150743311
 20
6.1126200601
  0
LINE
  5
633
100
AcDbEntity
  8
0
100
AcDbLine
 62
7
  6
CONTINUOUS
 10
8.1299304604
 20
4.1992547517
 11
8.1889674953
 21
4.1864099862
  0
LINE
  5
634
100
AcDbEntity
  8
0
100
AcDbLine
 62
7
  6
CONTINUOUS
 10
8.7812820266
 20
6.3731000421
 11
8.8150743311
 21
6.3926200601
  0
LINE
  5
635
100
AcDbEntity
  8
0
100
AcDbLine
 62
7
  6
CONTINUOUS
 10
8.1266529641
 20
5.9925285663
 11
8.0928606596
 21
5.9730085483
  0
LINE
  5
636
100
AcDbEntity
  8
0
100
AcDbLine
 62
7
  6
CONTINUOUS
 10
8.7812820266
 20
6.3331000421
 11
8.8150743311
 21
6.3526200601
  0
LINE
  5
637
100
AcDbEntity
  8
0
100
AcDbLine
 62
7
  6
CONTINUOUS
 10
8.1266529641
 20
5.9525285663
 11
8.0928606596
 21
5.9330085483
  0
LINE
  5
638
100
AcDbEntity
  8
0
100
AcDbLine
 62
7
  6
CONTINUOUS
 10
8.7812820266
 20
6.2931000421
 11
8.8150743311
 21
6.3126200601
  0
LINE
  5
639
100
AcDbEntity
  8
0
100
AcDbLine
 62
7
  6
CONTINUOUS
 10
8.1266529641
 20
5.9125285663
 11
8.0928606596
 21
5.8930085483
  0
LINE
  5
63A
100
AcDbEntity
  8
AXIS
100
AcDbLine
 62
7
  6
CONTINUOUS
 10
8.126476422
 20
4.2633143042
 11
8.7814585686
 21
4.2633143042
  0
LINE
  5
63B
100
AcDbEntity
  8
0
100
AcDbLine
 62
7
  6
CONTINUOUS
 10
8.7812820266
 20
6.2531000421
 11
8.8150743311
 21
6.2726200601
  0
LINE
  5
63C
100
AcDbEntity
  8
0
100
AcDbLine
 62
7
  6
CONTINUOUS
 10
8.1266529641
 20
5.8725285663
 11
8.0928606596
 21
5.8530085483
  0
LINE
  5
63D
100
AcDbEntity
  8
0
100
AcDbLine
 62
7
  6
CONTINUOUS
 10
8.7812820266
 20
6.2131000421
 11
8.8150743311
 21
6.2326200601
  0
LINE
  5
63E
100
AcDbEntity
  8
0
100
AcDbLine
 62
7
  6
CONTINUOUS
 10
8.1266529641
 20
5.8325285663
 11
8.0928606596
 21
5.8130085483
  0
LINE
  5
63F
100
AcDbEntity
  8
0
100
AcDbLine
 62
7
  6
CONTINUOUS
 10
8.7812820266
 20
6.1731000421
 11
8.8150743311
 21
6.1926200601
  0
LINE
  5
640
100
AcDbEntity
  8
0
100
AcDbLine
 62
7
  6
CONTINUOUS
 10
8.1266529641
 20
5.7925285663
 11
8.0928606596
 21
5.7730085483
  0
LINE
  5
641
100
AcDbEntity
  8
0
100
AcDbLine
 62
7
  6
CONTINUOUS
 10
8.7814674952
 20
6.0923141104
 11
8.7795718523
 21
6.0916290094
  0
LINE
  5
642
100
AcDbEntity
  8
0
100
AcDbLine
 62
7
  6
CONTINUOUS
 10
8.7812820266
 20
6.1331000421
 11
8.8150743311
 21
6.1526200601
  0
LINE
  5
643
100
AcDbEntity
  8
0
100
AcDbLine
 62
7
  6
CONTINUOUS
 10
8.1266529641
 20
5.7525285663
 11
8.0928606596
 21
5.7330085483
  0
LINE
  5
644
100
AcDbEntity
  8
0
100
AcDbLine
 62
7
  6
CONTINUOUS
 10
8.7812820266
 20
6.0931000421
 11
8.8150743311
 21
6.1126200601
  0
LINE
  5
645
100
AcDbEntity
  8
0
100
AcDbLine
 62
7
  6
CONTINUOUS
 10
8.1266529641
 20
5.7125285663
 11
8.0928606596
 21
5.6930085483
  0
LINE
  5
646
100
AcDbEntity
  8
0
100
AcDbLine
 62
7
  6
CONTINUOUS
 10
8.7812820266
 20
6.0531000421
 11
8.8150743311
 21
6.0726200601
  0
LINE
  5
647
100
AcDbEntity
  8
0
100
AcDbLine
 62
7
  6
CONTINUOUS
 10
8.1266529641
 20
5.6725285663
 11
8.0928606596
 21
5.6530085483
  0
LINE
  5
648
100
AcDbEntity
  8
0
100
AcDbLine
 62
7
  6
CONTINUOUS
 10
8.7812820266
 20
6.0131000421
 11
8.8150743311
 21
6.0326200601
  0
LINE
  5
649
100
AcDbEntity
  8
0
100
AcDbLine
 62
7
  6
CONTINUOUS
 10
8.1266529641
 20
5.6325285663
 11
8.0928606596
 21
5.6130085483
  0
LINE
  5
64A
100
AcDbEntity
  8
0
100
AcDbLine
 62
7
  6
CONTINUOUS
 10
8.7812820266
 20
5.9731000421
 11
8.8150743311
 21
5.9926200601
  0
LINE
  5
64B
100
AcDbEntity
  8
0
100
AcDbLine
 62
7
  6
CONTINUOUS
 10
8.1266529641
 20
5.5925285663
 11
8.0928606596
 21
5.5730085483
  0
LINE
  5
64C
100
AcDbEntity
  8
0
100
AcDbLine
 62
7
  6
CONTINUOUS
 10
8.7812820266
 20
5.9331000421
 11
8.8150743311
 21
5.9526200601
  0
LINE
  5
64D
100
AcDbEntity
  8
0
100
AcDbLine
 62
7
  6
CONTINUOUS
 10
8.1266529641
 20
5.5525285663
 11
8.0928606596
 21
5.5330085483
  0
LINE
  5
64E
100
AcDbEntity
  8
0
100
AcDbLine
 62
7
  6
CONTINUOUS
 10
8.7814674953
 20
5.9323142837
 11
8.7799384383
 21
5.9316988859
  0
LINE
  5
64F
100
AcDbEntity
  8
0
100
AcDbLine
 62
7
  6
CONTINUOUS
 10
8.1264674954
 20
5.4333144519
 11
8.1266058183
 21
5.4334993384
  0
LINE
  5
650
100
AcDbEntity
  8
0
100
AcDbLine
 62
7
  6
CONTINUOUS
 10
8.7812820266
 20
5.8931000421
 11
8.8150743311
 21
5.9126200601
  0
LINE
  5
651
100
AcDbEntity
  8
0
100
AcDbLine
 62
7
  6
CONTINUOUS
 10
8.1266529641
 20
5.5125285663
 11
8.0928606596
 21
5.4930085483
  0
LINE
  5
652
100
AcDbEntity
  8
0
100
AcDbLine
 62
7
  6
CONTINUOUS
 10
8.7812820266
 20
5.8531000421
 11
8.8150743311
 21
5.8726200601
  0
LINE
  5
653
100
AcDbEntity
  8
0
100
AcDbLine
 62
7
  6
CONTINUOUS
 10
8.1266529641
 20
5.4725285663
 11
8.0928606596
 21
5.4530085483
  0
LINE
  5
654
100
AcDbEntity
  8
0
100
AcDbLine
 62
7
  6
CONTINUOUS
 10
8.7812820266
 20
5.8131000421
 11
8.8150743311
 21
5.8326200601
  0
LINE
  5
655
100
AcDbEntity
  8
0
100
AcDbLine
 62
7
  6
CONTINUOUS
 10
8.1266529641
 20
5.4325285663
 11
8.0928606596
 21
5.4130085483
  0
LINE
  5
656
100
AcDbEntity
  8
0
100
AcDbLine
 62
7
  6
CONTINUOUS
 10
8.0928606596
 20
5.0126200601
 11
8.0928606596
 21
5.0130085483
  0
LINE
  5
657
100
AcDbEntity
  8
0
100
AcDbLine
 62
7
  6
CONTINUOUS
 10
8.0928606596
 20
5.0526200601
 11
8.0928606596
 21
5.0530085483
  0
LINE
  5
658
100
AcDbEntity
  8
0
100
AcDbLine
 62
7
  6
CONTINUOUS
 10
8.0928606596
 20
5.0926200601
 11
8.0928606596
 21
5.0930085483
  0
LINE
  5
659
100
AcDbEntity
  8
0
100
AcDbLine
 62
7
  6
CONTINUOUS
 10
8.0928606596
 20
5.1326200601
 11
8.0928606596
 21
5.1330085483
  0
LINE
  5
65A
100
AcDbEntity
  8
0
100
AcDbLine
 62
7
  6
CONTINUOUS
 10
8.0928606596
 20
5.1726200601
 11
8.0928606596
 21
5.1730085483
  0
LINE
  5
65B
100
AcDbEntity
  8
0
100
AcDbLine
 62
7
  6
CONTINUOUS
 10
8.0928606596
 20
5.2126200601
 11
8.0928606596
 21
5.2130085483
  0
LINE
  5
65C
100
AcDbEntity
  8
0
100
AcDbLine
 62
7
  6
CONTINUOUS
 10
8.0928606596
 20
5.2526200601
 11
8.0928606596
 21
5.2530085483
  0
LINE
  5
65D
100
AcDbEntity
  8
0
100
AcDbLine
 62
7
  6
CONTINUOUS
 10
8.0928606596
 20
5.2926200601
 11
8.0928606596
 21
5.2930085483
  0
LINE
  5
65E
100
AcDbEntity
  8
0
100
AcDbLine
 62
7
  6
CONTINUOUS
 10
8.0928606596
 20
5.3326200601
 11
8.0928606596
 21
5.3330085483
  0
LINE
  5
65F
100
AcDbEntity
  8
0
100
AcDbLine
 62
7
  6
CONTINUOUS
 10
8.0928606596
 20
5.3726200601
 11
8.0928606596
 21
5.3730085483
  0
LINE
  5
660
100
AcDbEntity
  8
0
100
AcDbLine
 62
7
  6
CONTINUOUS
 10
8.0928606596
 20
5.4126200601
 11
8.0928606596
 21
5.4130085483
  0
LINE
  5
661
100
AcDbEntity
  8
0
100
AcDbLine
 62
7
  6
CONTINUOUS
 10
8.0928606596
 20
5.4526200601
 11
8.0928606596
 21
5.4530085483
  0
LINE
  5
662
100
AcDbEntity
  8
0
100
AcDbLine
 62
7
  6
CONTINUOUS
 10
8.0928606596
 20
5.4926200601
 11
8.0928606596
 21
5.4930085483
  0
LINE
  5
663
100
AcDbEntity
  8
0
100
AcDbLine
 62
7
  6
CONTINUOUS
 10
8.0928606596
 20
5.5326200601
 11
8.0928606596
 21
5.5330085483
  0
LINE
  5
664
100
AcDbEntity
  8
0
100
AcDbLine
 62
7
  6
CONTINUOUS
 10
8.0928606596
 20
5.5726200601
 11
8.0928606596
 21
5.5730085483
  0
LINE
  5
665
100
AcDbEntity
  8
0
100
AcDbLine
 62
7
  6
CONTINUOUS
 10
8.0928606596
 20
5.6126200601
 11
8.0928606596
 21
5.6130085483
  0
LINE
  5
666
100
AcDbEntity
  8
0
100
AcDbLine
 62
7
  6
CONTINUOUS
 10
8.0928606596
 20
5.6526200601
 11
8.0928606596
 21
5.6530085483
  0
LINE
  5
667
100
AcDbEntity
  8
0
100
AcDbLine
 62
7
  6
CONTINUOUS
 10
8.0928606596
 20
5.6926200601
 11
8.0928606596
 21
5.6930085483
  0
LINE
  5
668
100
AcDbEntity
  8
0
100
AcDbLine
 62
7
  6
CONTINUOUS
 10
8.0928606596
 20
5.7326200601
 11
8.0928606596
 21
5.7330085483
  0
LINE
  5
669
100
AcDbEntity
  8
0
100
AcDbLine
 62
7
  6
CONTINUOUS
 10
8.0928606596
 20
5.7726200601
 11
8.0928606596
 21
5.7730085483
  0
LINE
  5
66A
100
AcDbEntity
  8
0
100
AcDbLine
 62
7
  6
CONTINUOUS
 10
8.0928606596
 20
5.8126200601
 11
8.0928606596
 21
5.8130085483
  0
LINE
  5
66B
100
AcDbEntity
  8
0
100
AcDbLine
 62
7
  6
CONTINUOUS
 10
8.0928606596
 20
5.8526200601
 11
8.0928606596
 21
5.8530085483
  0
LINE
  5
66C
100
AcDbEntity
  8
0
100
AcDbLine
 62
7
  6
CONTINUOUS
 10
8.0928606596
 20
5.8926200601
 11
8.0928606596
 21
5.8930085483
  0
LINE
  5
66D
100
AcDbEntity
  8
0
100
AcDbLine
 62
7
  6
CONTINUOUS
 10
8.0928606596
 20
5.9326200601
 11
8.0928606596
 21
5.9330085483
  0
LINE
  5
66E
100
AcDbEntity
  8
0
100
AcDbLine
 62
7
  6
CONTINUOUS
 10
8.0928606596
 20
5.9726200601
 11
8.0928606596
 21
5.9730085483
  0
LINE
  5
66F
100
AcDbEntity
  8
0
100
AcDbLine
 62
7
  6
CONTINUOUS
 10
8.0928606596
 20
6.0126200601
 11
8.0928606596
 21
6.0130085483
  0
LINE
  5
670
100
AcDbEntity
  8
0
100
AcDbLine
 62
7
  6
CONTINUOUS
 10
8.0928606596
 20
6.0526200601
 11
8.0928606596
 21
6.0530085483
  0
LINE
  5
671
100
AcDbEntity
  8
0
100
AcDbLine
 62
7
  6
CONTINUOUS
 10
8.0928606596
 20
6.0926200601
 11
8.0928606596
 21
6.0930085483
  0
LINE
  5
672
100
AcDbEntity
  8
0
100
AcDbLine
 62
7
  6
CONTINUOUS
 10
8.0928606596
 20
6.1326200601
 11
8.0928606596
 21
6.1330085483
  0
LINE
  5
673
100
AcDbEntity
  8
0
100
AcDbLine
 62
7
  6
CONTINUOUS
 10
8.0928606596
 20
6.1726200601
 11
8.0928606596
 21
6.1730085483
  0
LINE
  5
674
100
AcDbEntity
  8
0
100
AcDbLine
 62
7
  6
CONTINUOUS
 10
8.0928606596
 20
6.2126200601
 11
8.0928606596
 21
6.2130085483
  0
LINE
  5
675
100
AcDbEntity
  8
0
100
AcDbLine
 62
7
  6
CONTINUOUS
 10
8.0928606596
 20
6.2526200601
 11
8.0928606596
 21
6.2530085483
  0
LINE
  5
676
100
AcDbEntity
  8
0
100
AcDbLine
 62
7
  6
CONTINUOUS
 10
8.0928606596
 20
6.2926200601
 11
8.0928606596
 21
6.2930085483
  0
LINE
  5
677
100
AcDbEntity
  8
0
100
AcDbLine
 62
7
  6
CONTINUOUS
 10
8.0928606596
 20
6.3326200601
 11
8.0928606596
 21
6.3330085483
  0
LINE
  5
678
100
AcDbEntity
  8
0
100
AcDbLine
 62
7
  6
CONTINUOUS
 10
8.0928606596
 20
6.3726200601
 11
8.0928606596
 21
6.3730085483
  0
LINE
  5
679
100
AcDbEntity
  8
0
100
AcDbLine
 62
7
  6
CONTINUOUS
 10
8.0928606596
 20
6.4126200601
 11
8.0928606596
 21
6.4130085483
  0
LINE
  5
67A
100
AcDbEntity
  8
0
100
AcDbLine
 62
7
  6
CONTINUOUS
 10
8.0928606596
 20
6.4526200601
 11
8.0928606596
 21
6.4530085483
  0
LINE
  5
67B
100
AcDbEntity
  8
0
100
AcDbLine
 62
7
  6
CONTINUOUS
 10
8.0928606596
 20
6.4926200601
 11
8.0928606596
 21
6.4930085483
  0
LINE
  5
67C
100
AcDbEntity
  8
0
100
AcDbLine
 62
7
  6
CONTINUOUS
 10
8.0928606596
 20
6.5326200601
 11
8.0928606596
 21
6.5330085483
  0
LINE
  5
67D
100
AcDbEntity
  8
0
100
AcDbLine
 62
7
  6
CONTINUOUS
 10
8.0928606596
 20
6.5726200601
 11
8.0928606596
 21
6.5730085483
  0
LINE
  5
67E
100
AcDbEntity
  8
AXIS
100
AcDbLine
 62
7
  6
CONTINUOUS
 10
8.1264674953
 20
6.5933143042
 11
8.1264674953
 21
6.5923143042
  0
LINE
  5
67F
100
AcDbEntity
  8
AXIS
100
AcDbLine
 62
7
  6
CONTINUOUS
 10
8.1264674953
 20
6.5533143042
 11
8.1264674953
 21
6.5523143042
  0
LINE
  5
680
100
AcDbEntity
  8
AXIS
100
AcDbLine
 62
7
  6
CONTINUOUS
 10
8.1264674953
 20
6.5133143042
 11
8.1264674953
 21
6.5123143042
  0
LINE
  5
681
100
AcDbEntity
  8
AXIS
100
AcDbLine
 62
7
  6
CONTINUOUS
 10
8.1264674953
 20
6.4733143042
 11
8.1264674953
 21
6.4723143042
  0
LINE
  5
682
100
AcDbEntity
  8
AXIS
100
AcDbLine
 62
7
  6
CONTINUOUS
 10
8.1264674953
 20
6.4333143042
 11
8.1264674953
 21
6.4323143042
  0
LINE
  5
683
100
AcDbEntity
  8
AXIS
100
AcDbLine
 62
7
  6
CONTINUOUS
 10
8.1264674953
 20
6.3933143042
 11
8.1264674953
 21
6.3923143042
  0
LINE
  5
684
100
AcDbEntity
  8
AXIS
100
AcDbLine
 62
7
  6
CONTINUOUS
 10
8.1264674953
 20
6.3533143042
 11
8.1264674953
 21
6.3523143042
  0
LINE
  5
685
100
AcDbEntity
  8
AXIS
100
AcDbLine
 62
7
  6
CONTINUOUS
 10
8.1264674953
 20
6.3133143042
 11
8.1264674953
 21
6.3123143042
  0
LINE
  5
686
100
AcDbEntity
  8
AXIS
100
AcDbLine
 62
7
  6
CONTINUOUS
 10
8.1264674953
 20
6.2733143042
 11
8.1264674953
 21
6.2723143042
  0
LINE
  5
687
100
AcDbEntity
  8
AXIS
100
AcDbLine
 62
7
  6
CONTINUOUS
 10
8.1264674953
 20
6.2333143042
 11
8.1264674953
 21
6.2323143042
  0
LINE
  5
688
100
AcDbEntity
  8
AXIS
100
AcDbLine
 62
7
  6
CONTINUOUS
 10
8.1264674953
 20
6.1933143042
 11
8.1264674953
 21
6.1923143042
  0
LINE
  5
689
100
AcDbEntity
  8
AXIS
100
AcDbLine
 62
7
  6
CONTINUOUS
 10
8.1264674953
 20
6.1533143042
 11
8.1264674953
 21
6.1523143042
  0
LINE
  5
68A
100
AcDbEntity
  8
AXIS
100
AcDbLine
 62
7
  6
CONTINUOUS
 10
8.1264674953
 20
6.1133143042
 11
8.1264674953
 21
6.1123143042
  0
LINE
  5
68B
100
AcDbEntity
  8
AXIS
100
AcDbLine
 62
7
  6
CONTINUOUS
 10
8.1264674953
 20
6.0733143042
 11
8.1264674953
 21
6.0723143042
  0
LINE
  5
68C
100
AcDbEntity
  8
AXIS
100
AcDbLine
 62
7
  6
CONTINUOUS
 10
8.1264674953
 20
6.0333143042
 11
8.1264674953
 21
6.0323143042
  0
LINE
  5
68D
100
AcDbEntity
  8
AXIS
100
AcDbLine
 62
7
  6
CONTINUOUS
 10
8.1264674953
 20
5.9933143042
 11
8.1264674953
 21
5.9923143042
  0
LINE
  5
68E
100
AcDbEntity
  8
AXIS
100
AcDbLine
 62
7
  6
CONTINUOUS
 10
8.1264674953
 20
5.9533143042
 11
8.1264674953
 21
5.9523143042
  0
LINE
  5
68F
100
AcDbEntity
  8
AXIS
100
AcDbLine
 62
7
  6
CONTINUOUS
 10
8.1264674953
 20
5.9133143042
 11
8.1264674953
 21
5.9123143042
  0
LINE
  5
690
100
AcDbEntity
  8
AXIS
100
AcDbLine
 62
7
  6
CONTINUOUS
 10
8.1264674953
 20
5.8733143042
 11
8.1264674953
 21
5.8723143042
  0
LINE
  5
691
100
AcDbEntity
  8
AXIS
100
AcDbLine
 62
7
  6
CONTINUOUS
 10
8.1264674953
 20
5.8333143042
 11
8.1264674953
 21
5.8323143042
  0
LINE
  5
692
100
AcDbEntity
  8
AXIS
100
AcDbLine
 62
7
  6
CONTINUOUS
 10
8.1264674953
 20
5.7933143042
 11
8.1264674953
 21
5.7923143042
  0
LINE
  5
693
100
AcDbEntity
  8
AXIS
100
AcDbLine
 62
7
  6
CONTINUOUS
 10
8.1264674953
 20
5.7533143042
 11
8.1264674953
 21
5.7523143042
  0
LINE
  5
694
100
AcDbEntity
  8
AXIS
100
AcDbLine
 62
7
  6
CONTINUOUS
 10
8.1264674953
 20
5.7133143042
 11
8.1264674953
 21
5.7123143042
  0
LINE
  5
695
100
AcDbEntity
  8
AXIS
100
AcDbLine
 62
7
  6
CONTINUOUS
 10
8.1264674953
 20
5.6733143042
 11
8.1264674953
 21
5.6723143042
  0
LINE
  5
696
100
AcDbEntity
  8
AXIS
100
AcDbLine
 62
7
  6
CONTINUOUS
 10
8.1264674953
 20
5.6333143042
 11
8.1264674953
 21
5.6323143042
  0
LINE
  5
697
100
AcDbEntity
  8
AXIS
100
AcDbLine
 62
7
  6
CONTINUOUS
 10
8.1264674953
 20
5.5933143042
 11
8.1264674953
 21
5.5923143042
  0
LINE
  5
698
100
AcDbEntity
  8
AXIS
100
AcDbLine
 62
7
  6
CONTINUOUS
 10
8.1264674953
 20
5.5533143042
 11
8.1264674953
 21
5.5523143042
  0
LINE
  5
699
100
AcDbEntity
  8
AXIS
100
AcDbLine
 62
7
  6
CONTINUOUS
 10
8.1264674953
 20
5.5133143042
 11
8.1264674953
 21
5.5123143042
  0
LINE
  5
69A
100
AcDbEntity
  8
AXIS
100
AcDbLine
 62
7
  6
CONTINUOUS
 10
8.1264674953
 20
5.4733143042
 11
8.1264674953
 21
5.4723143042
  0
LINE
  5
69B
100
AcDbEntity
  8
AXIS
100
AcDbLine
 62
7
  6
CONTINUOUS
 10
8.1264674953
 20
5.4333143042
 11
8.1264674953
 21
5.4323143042
  0
LINE
  5
69C
100
AcDbEntity
  8
AXIS
100
AcDbLine
 62
7
  6
CONTINUOUS
 10
8.1264674953
 20
5.3933143042
 11
8.1264674953
 21
5.3923143042
  0
LINE
  5
69D
100
AcDbEntity
  8
AXIS
100
AcDbLine
 62
7
  6
CONTINUOUS
 10
8.1264674953
 20
5.3533143042
 11
8.1264674953
 21
5.3523143042
  0
LINE
  5
69E
100
AcDbEntity
  8
AXIS
100
AcDbLine
 62
7
  6
CONTINUOUS
 10
8.1264674953
 20
5.3133143042
 11
8.1264674953
 21
5.3123143042
  0
LINE
  5
69F
100
AcDbEntity
  8
AXIS
100
AcDbLine
 62
7
  6
CONTINUOUS
 10
8.1264674953
 20
5.2733143042
 11
8.1264674953
 21
5.2723143042
  0
LINE
  5
6A0
100
AcDbEntity
  8
AXIS
100
AcDbLine
 62
7
  6
CONTINUOUS
 10
8.1264674953
 20
5.2333143042
 11
8.1264674953
 21
5.2323143042
  0
LINE
  5
6A1
100
AcDbEntity
  8
AXIS
100
AcDbLine
 62
7
  6
CONTINUOUS
 10
8.1264674953
 20
5.1933143042
 11
8.1264674953
 21
5.1923143042
  0
LINE
  5
6A2
100
AcDbEntity
  8
AXIS
100
AcDbLine
 62
7
  6
CONTINUOUS
 10
8.1264674953
 20
5.1533143042
 11
8.1264674953
 21
5.1523143042
  0
LINE
  5
6A3
100
AcDbEntity
  8
AXIS
100
AcDbLine
 62
7
  6
CONTINUOUS
 10
8.1264674953
 20
5.1133143042
 11
8.1264674953
 21
5.1123143042
  0
LINE
  5
6A4
100
AcDbEntity
  8
AXIS
100
AcDbLine
 62
7
  6
CONTINUOUS
 10
8.1264674953
 20
5.0733143042
 11
8.1264674953
 21
5.0723143042
  0
LINE
  5
6A5
100
AcDbEntity
  8
AXIS
100
AcDbLine
 62
7
  6
CONTINUOUS
 10
8.1264674953
 20
5.0333143042
 11
8.1264674953
 21
5.0323143042
  0
LINE
  5
6A6
100
AcDbEntity
  8
AXIS
100
AcDbLine
 62
7
  6
CONTINUOUS
 10
8.1264674953
 20
4.9933143042
 11
8.1264674953
 21
4.2633143042
  0
LINE
  5
6A7
100
AcDbEntity
  8
0
100
AcDbLine
 62
7
  6
CONTINUOUS
 10
8.1289674953
 20
4.2633143042
 11
8.1289674953
 21
4.1433143042
  0
LINE
  5
6A8
100
AcDbEntity
  8
0
100
AcDbLine
 62
7
  6
CONTINUOUS
 10
8.1299304604
 20
4.1433143042
 11
8.1299304604
 21
4.1992547517
  0
LINE
  5
6A9
100
AcDbEntity
  8
0
100
AcDbLine
 62
7
  6
CONTINUOUS
 10
8.1339674953
 20
6.6593143042
 11
8.1339674953
 21
6.6193143042
  0
LINE
  5
6AA
100
AcDbEntity
  8
0
100
AcDbLine
 62
7
  6
CONTINUOUS
 10
8.1264674959
 20
5.2733139304
 11
8.1265961161
 21
5.2734927307
  0
LINE
  5
6AB
100
AcDbEntity
  8
0
100
AcDbLine
 62
7
  6
CONTINUOUS
 10
8.7812820266
 20
5.7731000421
 11
8.8150743311
 21
5.7926200601
  0
LINE
  5
6AC
100
AcDbEntity
  8
0
100
AcDbLine
 62
7
  6
CONTINUOUS
 10
8.1266529641
 20
5.3925285663
 11
8.0928606596
 21
5.3730085483
  0
LINE
  5
6AD
100
AcDbEntity
  8
0
100
AcDbLine
 62
7
  6
CONTINUOUS
 10
8.7812820266
 20
5.7331000421
 11
8.8150743311
 21
5.7526200601
  0
LINE
  5
6AE
100
AcDbEntity
  8
0
100
AcDbLine
 62
7
  6
CONTINUOUS
 10
8.1266529641
 20
5.3525285663
 11
8.0928606596
 21
5.3330085483
  0
LINE
  5
6AF
100
AcDbEntity
  8
0
100
AcDbLine
 62
7
  6
CONTINUOUS
 10
8.7812820266
 20
5.6931000421
 11
8.8150743311
 21
5.7126200601
  0
LINE
  5
6B0
100
AcDbEntity
  8
0
100
AcDbLine
 62
7
  6
CONTINUOUS
 10
8.7814674953
 20
5.7723143281
 11
8.7806228631
 21
5.7718569879
  0
LINE
  5
6B1
100
AcDbEntity
  8
0
100
AcDbLine
 62
7
  6
CONTINUOUS
 10
8.0928606596
 20
5.0126200601
 11
8.1266529641
 21
4.9931000421
  0
LINE
  5
6B2
100
AcDbEntity
  8
0
100
AcDbLine
 62
7
  6
CONTINUOUS
 10
8.1713016148
 20
6.6193143042
 11
8.1713016148
 21
6.6593143042
  0
LINE
  5
6B3
100
AcDbEntity
  8
0
100
AcDbLine
 62
9
  6
CONTINUOUS
 10
8.1889674953
 20
4.1309280232
 11
8.1889674953
 21
4.1864099862
  0
LINE
  5
6B4
100
AcDbEntity
  8
0
100
AcDbLine
 62
7
  6
CONTINUOUS
 10
8.1941598742
 20
6.6293143042
 11
8.1941598742
 21
6.6193143042
  0
LINE
  5
6B5
100
AcDbEntity
  8
0
100
AcDbLine
 62
7
  6
CONTINUOUS
 10
8.2389674953
 20
6.6293143042
 11
8.2389674953
 21
6.6593143042
  0
LWPOLYLINE
  5
6B6
100
AcDbEntity
  8
0
100
AcDbPolyline
 62
7
  6
CONTINUOUS
 90
3
 70
0
 10
8.8150743311
 20
6.3526200601
 10
8.8152111745
 20
6.3528981211
 10
8.8150743311
 20
6.3530085483
  0
LWPOLYLINE
  5
6B7
100
AcDbEntity
  8
0
100
AcDbPolyline
 62
7
  6
CONTINUOUS
 90
3
 70
0
 10
8.8150743311
 20
6.2726200601
 10
8.8152200677
 20
6.2728852262
 10
8.8150743311
 20
6.2730085483
  0
LWPOLYLINE
  5
6B8
100
AcDbEntity
  8
0
100
AcDbPolyline
 62
7
  6
CONTINUOUS
 90
3
 70
0
 10
8.8150743311
 20
6.1926200601
 10
8.8152274787
 20
6.1928723313
 10
8.8150743311
 20
6.1930085483
  0
LWPOLYLINE
  5
6B9
100
AcDbEntity
  8
0
100
AcDbPolyline
 62
7
  6
CONTINUOUS
 90
3
 70
0
 10
8.8150743311
 20
6.1126200601
 10
8.8152334075
 20
6.1128594364
 10
8.8150743311
 20
6.1130085483
  0
LWPOLYLINE
  5
6BA
100
AcDbEntity
  8
0
100
AcDbPolyline
 62
7
  6
CONTINUOUS
 90
3
 70
0
 10
8.8150743311
 20
6.0326200601
 10
8.8152378541
 20
6.0328465415
 10
8.8150743311
 20
6.0330085483
  0
LWPOLYLINE
  5
6BB
100
AcDbEntity
  8
0
100
AcDbPolyline
 62
7
  6
CONTINUOUS
 90
3
 70
0
 10
8.8150743311
 20
5.9526200601
 10
8.8152408186
 20
5.9528336466
 10
8.8150743311
 20
5.9530085483
  0
LINE
  5
6BC
100
AcDbEntity
  8
0
100
AcDbLine
 62
7
  6
CONTINUOUS
 10
8.7814674951
 20
5.6123145332
 11
8.7808947652
 21
5.6119377498
  0
LINE
  5
6BD
100
AcDbEntity
  8
0
100
AcDbLine
 62
7
  6
CONTINUOUS
 10
8.1266529641
 20
5.3125285663
 11
8.0928606596
 21
5.2930085483
  0
LINE
  5
6BE
100
AcDbEntity
  8
0
100
AcDbLine
 62
7
  6
CONTINUOUS
 10
8.7812820266
 20
5.6531000421
 11
8.8150743311
 21
5.6726200601
  0
LINE
  5
6BF
100
AcDbEntity
  8
0
100
AcDbLine
 62
7
  6
CONTINUOUS
 10
8.1266529641
 20
5.2725285663
 11
8.0928606596
 21
5.2530085483
  0
LINE
  5
6C0
100
AcDbEntity
  8
0
100
AcDbLine
 62
7
  6
CONTINUOUS
 10
8.7812820266
 20
5.6131000421
 11
8.8150743311
 21
5.6326200601
  0
LINE
  5
6C1
100
AcDbEntity
  8
0
100
AcDbLine
 62
7
  6
CONTINUOUS
 10
8.1266529641
 20
5.2325285663
 11
8.0928606596
 21
5.2130085483
  0
LINE
  5
6C2
100
AcDbEntity
  8
0
100
AcDbLine
 62
7
  6
CONTINUOUS
 10
8.7812820266
 20
5.5731000421
 11
8.8150743311
 21
5.5926200601
  0
LWPOLYLINE
  5
6C3
100
AcDbEntity
  8
0
100
AcDbPolyline
 62
7
  6
CONTINUOUS
 90
10
 70
0
 10
8.7814674953
 20
5.0123143033
 10
8.7764680647
 20
5.011200513
 10
8.7618537675
 20
5.010099878
 10
8.7378290984
 20
5.0089902465
 10
8.704854452
 20
5.0078700836
 10
8.6643850633
 20
5.0067563289
 10
8.6180879733
 20
5.0056559564
 10
8.5661697756
 20
5.0045404714
 10
8.5106058372
 20
5.0034208474
 10
8.4539674953
 20
5.0023143042
  0
LWPOLYLINE
  5
6C4
100
AcDbEntity
  8
0
100
AcDbPolyline
 62
7
  6
CONTINUOUS
 90
10
 70
0
 10
8.4539674953
 20
4.9633143042
 10
8.5106058372
 20
4.9644208474
 10
8.5661697756
 20
4.9655404714
 10
8.6180879733
 20
4.9666559564
 10
8.6643850633
 20
4.9677563289
 10
8.704854452
 20
4.9688700836
 10
8.7378290984
 20
4.9699902465
 10
8.7618537675
 20
4.971099878
 10
8.7764680647
 20
4.972200513
 10
8.7812820266
 20
4.9731000421
  0
LINE
  5
6C5
100
AcDbEntity
  8
0
100
AcDbLine
 62
7
  6
CONTINUOUS
 10
8.0928606596
 20
5.0526200601
 11
8.1266529641
 21
5.0331000421
  0
LINE
  5
6C6
100
AcDbEntity
  8
0
100
AcDbLine
 62
7
  6
CONTINUOUS
 10
8.0928606596
 20
5.0926200601
 11
8.1266529641
 21
5.0731000421
  0
LINE
  5
6C7
100
AcDbEntity
  8
0
100
AcDbLine
 62
7
  6
CONTINUOUS
 10
8.0928606596
 20
5.1326200601
 11
8.1266529641
 21
5.1131000421
  0
LWPOLYLINE
  5
6C8
100
AcDbEntity
  8
0
100
AcDbPolyline
 62
7
  6
CONTINUOUS
 90
7
 70
0
 10
8.4789674953
 20
4.1309280232
 10
8.4808746982
 20
4.1246454702
 10
8.486565995
 20
4.1186067102
 10
8.4959509319
 20
4.1130457357
 10
8.5088803507
 20
4.1083110399
 10
8.5251487595
 20
4.1048874313
 10
8.5444975988
 20
4.1033143042
  0
LINE
  5
6C9
100
AcDbEntity
  8
AXIS
100
AcDbLine
 62
7
  6
CONTINUOUS
 10
8.3374674953
 20
4.1033143042
 11
8.3374674953
 21
3.6662670601
  0
LINE
  5
6CA
100
AcDbEntity
  8
AXIS_COSMETIC_THREADS
100
AcDbLine
 62
7
  6
CONTINUOUS
 10
8.3374674953
 20
4.1033143042
 11
8.3374674953
 21
3.6662670601
  0
LWPOLYLINE
  5
6CB
100
AcDbEntity
  8
0
100
AcDbPolyline
 62
7
  6
CONTINUOUS
 90
3
 70
0
 10
8.8150743311
 20
5.8726200601
 10
8.8152423008
 20
5.8728207517
 10
8.8150743311
 20
5.8730085483
  0
LWPOLYLINE
  5
6CC
100
AcDbEntity
  8
0
100
AcDbPolyline
 62
7
  6
CONTINUOUS
 90
3
 70
0
 10
8.8150743311
 20
5.7926200601
 10
8.8152423008
 20
5.7928078568
 10
8.8150743311
 20
5.7930085483
  0
LWPOLYLINE
  5
6CD
100
AcDbEntity
  8
0
100
AcDbPolyline
 62
7
  6
CONTINUOUS
 90
3
 70
0
 10
8.8150743311
 20
5.7126200601
 10
8.8152408186
 20
5.7127949619
 10
8.8150743311
 20
5.7130085483
  0
LINE
  5
6CE
100
AcDbEntity
  8
0
100
AcDbLine
 62
7
  6
CONTINUOUS
 10
8.1266529641
 20
5.1925285663
 11
8.0928606596
 21
5.1730085483
  0
LINE
  5
6CF
100
AcDbEntity
  8
0
100
AcDbLine
 62
7
  6
CONTINUOUS
 10
8.7812820266
 20
5.5331000421
 11
8.8150743311
 21
5.5526200601
  0
LINE
  5
6D0
100
AcDbEntity
  8
0
100
AcDbLine
 62
7
  6
CONTINUOUS
 10
8.1266529641
 20
5.1525285663
 11
8.0928606596
 21
5.1330085483
  0
LINE
  5
6D1
100
AcDbEntity
  8
0
100
AcDbLine
 62
7
  6
CONTINUOUS
 10
8.7812820266
 20
5.4931000421
 11
8.8150743311
 21
5.5126200601
  0
LINE
  5
6D2
100
AcDbEntity
  8
0
100
AcDbLine
 62
7
  6
CONTINUOUS
 10
8.1266529641
 20
5.1125285663
 11
8.0928606596
 21
5.0930085483
  0
LWPOLYLINE
  5
6D3
100
AcDbEntity
  8
0
100
AcDbPolyline
 62
7
  6
CONTINUOUS
 90
9
 70
0
 10
8.7814674953
 20
5.1323143076
 10
8.776538774
 20
5.1312084375
 10
8.7619101411
 20
5.1301030951
 10
8.7377148856
 20
5.1289857976
 10
8.7044520801
 20
5.1278579286
 10
8.6636117769
 20
5.1267367378
 10
8.6169970041
 20
5.1256314773
 10
8.5654753234
 20
5.1245261084
 10
8.510585135
 20
5.1234204388
  0
LWPOLYLINE
  5
6D4
100
AcDbEntity
  8
0
100
AcDbPolyline
 62
7
  6
CONTINUOUS
 90
9
 70
0
 10
8.7814674953
 20
5.0923142934
 10
8.7765300472
 20
5.0912074565
 10
8.7619316508
 20
5.0901043238
 10
8.7377578539
 20
5.0889874707
 10
8.7045213036
 20
5.0878600178
 10
8.6637100239
 20
5.0867392241
 10
8.6170843846
 20
5.0856334359
 10
8.5652937421
 20
5.0845223548
 10
8.510433057
 20
5.0834174375
  0
LWPOLYLINE
  5
6D5
100
AcDbEntity
  8
0
100
AcDbPolyline
 62
7
  6
CONTINUOUS
 90
9
 70
0
 10
8.7814674953
 20
5.052314295
 10
8.7764851781
 20
5.0512024258
 10
8.7619168988
 20
5.0501034811
 10
8.7378026031
 20
5.0489892139
 10
8.7046650342
 20
5.0478643582
 10
8.6639808182
 20
5.0467460811
 10
8.6174627648
 20
5.0456419214
 10
8.5655441761
 20
5.0445275319
 10
8.5102973045
 20
5.0434147586
  0
LWPOLYLINE
  5
6D6
100
AcDbEntity
  8
0
100
AcDbPolyline
 62
7
  6
CONTINUOUS
 90
10
 70
0
 10
8.1264674953
 20
4.9933143042
 10
8.1315339748
 20
4.9944355584
 10
8.1462581691
 20
4.9955387991
 10
8.1701488554
 20
4.9966400361
 10
8.2029446791
 20
4.9977544145
 10
8.2433095788
 20
4.9988661801
 10
8.2896258965
 20
4.9999676839
 10
8.3415964442
 20
5.0010846446
 10
8.397238806
 20
5.0022059779
 10
8.5102973045
 20
5.0044147586
  0
LWPOLYLINE
  5
6D7
100
AcDbEntity
  8
0
100
AcDbPolyline
 62
7
  6
CONTINUOUS
 90
9
 70
0
 10
8.5102973045
 20
5.0044147586
 10
8.5655441761
 20
5.0055275319
 10
8.6174627648
 20
5.0066419214
 10
8.6639808182
 20
5.0077460811
 10
8.7046650342
 20
5.0088643582
 10
8.7378026031
 20
5.0099892139
 10
8.7619168988
 20
5.0111034811
 10
8.7764851781
 20
5.0122024258
 10
8.7812820266
 20
5.0131000421
  0
LWPOLYLINE
  5
6D8
100
AcDbEntity
  8
0
100
AcDbPolyline
 62
7
  6
CONTINUOUS
 90
10
 70
0
 10
8.5102973045
 20
5.0434147586
 10
8.397238806
 20
5.0412059779
 10
8.3415964442
 20
5.0400846446
 10
8.2896258965
 20
5.0389676839
 10
8.2433095788
 20
5.0378661801
 10
8.2029446791
 20
5.0367544145
 10
8.1701488554
 20
5.0356400361
 10
8.1462581691
 20
5.0345387991
 10
8.1315339748
 20
5.0334355584
 10
8.1266529641
 20
5.0325285663
  0
LWPOLYLINE
  5
6D9
100
AcDbEntity
  8
0
100
AcDbPolyline
 62
7
  6
CONTINUOUS
 90
10
 70
0
 10
8.3971159611
 20
5.0422035532
 10
8.510433057
 20
5.0444174375
 10
8.5652937421
 20
5.0455223548
 10
8.6170843846
 20
5.0466334359
 10
8.6637100239
 20
5.0477392241
 10
8.7045213036
 20
5.0488600178
 10
8.7377578539
 20
5.0499874707
 10
8.7619316508
 20
5.0511043238
 10
8.7765300472
 20
5.0522074565
 10
8.7812820266
 20
5.0531000421
  0
LWPOLYLINE
  5
6DA
100
AcDbEntity
  8
0
100
AcDbPolyline
 62
7
  6
CONTINUOUS
 90
10
 70
0
 10
8.4539674953
 20
4.9828143042
 10
8.5158613005
 20
4.9839103713
 10
8.5759249496
 20
4.9850064383
 10
8.6323824031
 20
4.9861025054
 10
8.6835642538
 20
4.9871985724
 10
8.7279570907
 20
4.9882946395
 10
8.764248249
 20
4.9893907065
 10
8.7913646248
 20
4.9904867736
 10
8.8085044061
 20
4.9915828406
 10
8.8150743311
 20
4.9926200601
  0
LWPOLYLINE
  5
6DB
100
AcDbEntity
  8
0
100
AcDbPolyline
 62
7
  6
CONTINUOUS
 90
10
 70
0
 10
8.3927947699
 20
5.0617311321
 10
8.5165821264
 20
5.0639232662
 10
8.5766135152
 20
5.0650193332
 10
8.633018348
 20
5.0661154003
 10
8.6841287736
 20
5.0672114673
 10
8.728433493
 20
5.0683075344
 10
8.7646224469
 20
5.0694036014
 10
8.7916255535
 20
5.0704996685
 10
8.80864435
 20
5.0715957355
 10
8.8150743311
 20
5.0726200601
  0
LINE
  5
6DC
100
AcDbEntity
  8
0
100
AcDbLine
 62
7
  6
CONTINUOUS
 10
8.0928606596
 20
5.1726200601
 11
8.1266529641
 21
5.1531000421
  0
LINE
  5
6DD
100
AcDbEntity
  8
0
100
AcDbLine
 62
7
  6
CONTINUOUS
 10
8.0928606596
 20
5.2126200601
 11
8.1266529641
 21
5.1931000421
  0
LINE
  5
6DE
100
AcDbEntity
  8
0
100
AcDbLine
 62
7
  6
CONTINUOUS
 10
8.0928606596
 20
5.2526200601
 11
8.1266529641
 21
5.2331000421
  0
LINE
  5
6DF
100
AcDbEntity
  8
0
100
AcDbLine
 62
7
  6
CONTINUOUS
 10
8.4289674953
 20
4.1309280232
 11
8.4289674953
 21
4.1992547517
  0
LINE
  5
6E0
100
AcDbEntity
  8
0
100
AcDbLine
 62
7
  6
CONTINUOUS
 10
8.4539674953
 20
5.0023143042
 11
8.4539674953
 21
4.9633143042
  0
LWPOLYLINE
  5
6E1
100
AcDbEntity
  8
0
100
AcDbPolyline
 62
7
  6
CONTINUOUS
 90
3
 70
0
 10
8.8150743311
 20
5.6326200601
 10
8.8152378541
 20
5.6327820669
 10
8.8150743311
 20
5.6330085483
  0
LWPOLYLINE
  5
6E2
100
AcDbEntity
  8
0
100
AcDbPolyline
 62
7
  6
CONTINUOUS
 90
3
 70
0
 10
8.8150743311
 20
5.5526200601
 10
8.8152334075
 20
5.552769172
 10
8.8150743311
 20
5.5530085483
  0
LWPOLYLINE
  5
6E3
100
AcDbEntity
  8
0
100
AcDbPolyline
 62
7
  6
CONTINUOUS
 90
3
 70
0
 10
8.8150743311
 20
5.4726200601
 10
8.8152274787
 20
5.4727562771
 10
8.8150743311
 20
5.4730085483
  0
LINE
  5
6E4
100
AcDbEntity
  8
0
100
AcDbLine
 62
7
  6
CONTINUOUS
 10
8.7812820266
 20
5.4531000421
 11
8.8150743311
 21
5.4726200601
  0
LINE
  5
6E5
100
AcDbEntity
  8
0
100
AcDbLine
 62
7
  6
CONTINUOUS
 10
8.1266529641
 20
5.0725285663
 11
8.0928606596
 21
5.0530085483
  0
LINE
  5
6E6
100
AcDbEntity
  8
0
100
AcDbLine
 62
7
  6
CONTINUOUS
 10
8.7812820266
 20
5.4131000421
 11
8.8150743311
 21
5.4326200601
  0
LINE
  5
6E7
100
AcDbEntity
  8
0
100
AcDbLine
 62
7
  6
CONTINUOUS
 10
8.1266529641
 20
5.0325285663
 11
8.0928606596
 21
5.0130085483
  0
LINE
  5
6E8
100
AcDbEntity
  8
0
100
AcDbLine
 62
7
  6
CONTINUOUS
 10
8.7812820266
 20
5.3731000421
 11
8.8150743311
 21
5.3926200601
  0
LWPOLYLINE
  5
6E9
100
AcDbEntity
  8
0
100
AcDbPolyline
 62
7
  6
CONTINUOUS
 90
20
 70
0
 10
8.0928606596
 20
5.0130085483
 10
8.0948116784
 20
5.0135041817
 10
8.1068157165
 20
5.0146002488
 10
8.1290847872
 20
5.0156963158
 10
8.1609604099
 20
5.0167923829
 10
8.201500045
 20
5.0178884499
 10
8.2495049641
 20
5.018984517
 10
8.3035556956
 20
5.020080584
 10
8.3620539978
 20
5.0211766511
 10
8.423270117
 20
5.0222727181
 10
8.4853939361
 20
5.0233687852
 10
8.5465884975
 20
5.0244648522
 10
8.6050443213
 20
5.0255609193
 10
8.6590329103
 20
5.0266569864
 10
8.7069578599
 20
5.0277530534
 10
8.7474020633
 20
5.0288491205
 10
8.7791696139
 20
5.0299451875
 10
8.8013211679
 20
5.0310412546
 10
8.8132017194
 20
5.0321373216
 10
8.8150743311
 20
5.0326200601
  0
LWPOLYLINE
  5
6EA
100
AcDbEntity
  8
0
100
AcDbPolyline
 62
7
  6
CONTINUOUS
 90
10
 70
0
 10
8.7814674953
 20
5.1723143191
 10
8.7765201425
 20
5.171206344
 10
8.7618692916
 20
5.1701007635
 10
8.7376831802
 20
5.1689845636
 10
8.7044491369
 20
5.1678578398
 10
8.6636524823
 20
5.1667377678
 10
8.6171260607
 20
5.1656343702
 10
8.5657678516
 20
5.1645321572
 10
8.5106469537
 20
5.1634216589
 10
8.3981644268
 20
5.1612242424
  0
LWPOLYLINE
  5
6EB
100
AcDbEntity
  8
0
100
AcDbPolyline
 62
7
  6
CONTINUOUS
 90
9
 70
0
 10
8.7814674953
 20
5.2123143071
 10
8.776463329
 20
5.2111999843
 10
8.7617850847
 20
5.2100959646
 10
8.7376445933
 20
5.2089830622
 10
8.7045118557
 20
5.2078597326
 10
8.6638578783
 20
5.2067429673
 10
8.6175547007
 20
5.2056439841
 10
8.5660000384
 20
5.2045369597
 10
8.5106357104
 20
5.203421437
  0
LWPOLYLINE
  5
6EC
100
AcDbEntity
  8
0
100
AcDbPolyline
 62
7
  6
CONTINUOUS
 90
9
 70
0
 10
8.1264674953
 20
5.0333143042
 10
8.1315492713
 20
5.0344372542
 10
8.1463323203
 20
5.0355430056
 10
8.1701958833
 20
5.0366418678
 10
8.2027386849
 20
5.0377481762
 10
8.2429559774
 20
5.0388571976
 10
8.2893048319
 20
5.0399604662
 10
8.3413611709
 20
5.0410797749
 10
8.3971159611
 20
5.0422035532
  0
LWPOLYLINE
  5
6ED
100
AcDbEntity
  8
0
100
AcDbPolyline
 62
7
  6
CONTINUOUS
 90
9
 70
0
 10
8.1264674953
 20
5.0733143042
 10
8.1315516264
 20
5.074437515
 10
8.1463555139
 20
5.0755443197
 10
8.1703494849
 20
5.076647844
 10
8.2027661264
 20
5.0777490077
 10
8.2428263971
 20
5.0788539032
 10
8.2891741523
 20
5.0799575271
 10
8.3412651961
 20
5.0810777881
 10
8.3970658518
 20
5.0822025641
  0
LWPOLYLINE
  5
6EE
100
AcDbEntity
  8
0
100
AcDbPolyline
 62
7
  6
CONTINUOUS
 90
9
 70
0
 10
8.0928606596
 20
5.0530085483
 10
8.0995719831
 20
5.0540586627
 10
8.1168326787
 20
5.0551547297
 10
8.1440622125
 20
5.0562507968
 10
8.1804554263
 20
5.0573468639
 10
8.2249361987
 20
5.0584429309
 10
8.2761892645
 20
5.059538998
 10
8.332699107
 20
5.060635065
 10
8.3927947699
 20
5.0617311321
  0
LWPOLYLINE
  5
6EF
100
AcDbEntity
  8
0
100
AcDbPolyline
 62
7
  6
CONTINUOUS
 90
5
 70
0
 10
8.2064595097
 20
5.1568597588
 10
8.1729223593
 20
5.1557465442
 10
8.1479096591
 20
5.1546307506
 10
8.1322990603
 20
5.1535174786
 10
8.1266529641
 20
5.1525285663
  0
LWPOLYLINE
  5
6F0
100
AcDbEntity
  8
0
100
AcDbPolyline
 62
7
  6
CONTINUOUS
 90
5
 70
0
 10
8.2064595097
 20
5.1178597588
 10
8.2462215375
 20
5.1189397529
 10
8.2920541294
 20
5.1200221194
 10
8.3433690482
 20
5.1211212906
 10
8.3981644268
 20
5.1222242424
  0
LWPOLYLINE
  5
6F1
100
AcDbEntity
  8
0
100
AcDbPolyline
 62
7
  6
CONTINUOUS
 90
6
 70
0
 10
8.1809340749
 20
5.1373597588
 10
8.2255026001
 20
5.1384558258
 10
8.2768266708
 20
5.1395518929
 10
8.3333886705
 20
5.1406479599
 10
8.3935161007
 20
5.141744027
 10
8.5173026953
 20
5.1439361611
  0
LWPOLYLINE
  5
6F2
100
AcDbEntity
  8
0
100
AcDbPolyline
 62
7
  6
CONTINUOUS
 90
5
 70
0
 10
8.3981644268
 20
5.1612242424
 10
8.3433690482
 20
5.1601212906
 10
8.2920541294
 20
5.1590221194
 10
8.2462215375
 20
5.1579397529
 10
8.2064595097
 20
5.1568597588
  0
LWPOLYLINE
  5
6F3
100
AcDbEntity
  8
0
100
AcDbPolyline
 62
7
  6
CONTINUOUS
 90
10
 70
0
 10
8.510433057
 20
5.0834174375
 10
8.3971159611
 20
5.0812035532
 10
8.3413611709
 20
5.0800797749
 10
8.2893048319
 20
5.0789604662
 10
8.2429559774
 20
5.0778571976
 10
8.2027386849
 20
5.0767481762
 10
8.1701958833
 20
5.0756418678
 10
8.1463323203
 20
5.0745430056
 10
8.1315492713
 20
5.0734372542
 10
8.1266529641
 20
5.0725285663
  0
LWPOLYLINE
  5
6F4
100
AcDbEntity
  8
0
100
AcDbPolyline
 62
7
  6
CONTINUOUS
 90
10
 70
0
 10
8.3970658518
 20
5.0822025641
 10
8.510585135
 20
5.0844204388
 10
8.5654753234
 20
5.0855261084
 10
8.6169970041
 20
5.0866314773
 10
8.6636117769
 20
5.0877367378
 10
8.7044520801
 20
5.0888579286
 10
8.7377148856
 20
5.0899857976
 10
8.7619101411
 20
5.0911030951
 10
8.776538774
 20
5.0922084375
 10
8.7812820266
 20
5.0931000421
  0
LWPOLYLINE
  5
6F5
100
AcDbEntity
  8
0
100
AcDbPolyline
 62
7
  6
CONTINUOUS
 90
10
 70
0
 10
8.510585135
 20
5.1234204388
 10
8.3970658518
 20
5.1212025641
 10
8.3412651961
 20
5.1200777881
 10
8.2891741523
 20
5.1189575271
 10
8.2428263971
 20
5.1178539032
 10
8.2027661264
 20
5.1167490077
 10
8.1703494849
 20
5.115647844
 10
8.1463555139
 20
5.1145443197
 10
8.1315516264
 20
5.113437515
 10
8.1266529641
 20
5.1125285663
  0
LWPOLYLINE
  5
6F6
100
AcDbEntity
  8
0
100
AcDbPolyline
 62
7
  6
CONTINUOUS
 90
10
 70
0
 10
8.3981644268
 20
5.1222242424
 10
8.5106469537
 20
5.1244216589
 10
8.5657678516
 20
5.1255321572
 10
8.6171260607
 20
5.1266343702
 10
8.6636524823
 20
5.1277377678
 10
8.7044491369
 20
5.1288578398
 10
8.7376831802
 20
5.1299845636
 10
8.7618692916
 20
5.1311007635
 10
8.7765201425
 20
5.132206344
 10
8.7812820266
 20
5.1331000421
  0
LWPOLYLINE
  5
6F7
100
AcDbEntity
  8
0
100
AcDbPolyline
 62
7
  6
CONTINUOUS
 90
10
 70
0
 10
8.397154006
 20
5.1622043042
 10
8.5106357104
 20
5.164421437
 10
8.5660000384
 20
5.1655369597
 10
8.6175547007
 20
5.1666439841
 10
8.6638578783
 20
5.1677429673
 10
8.7045118557
 20
5.1688597326
 10
8.7376445933
 20
5.1699830622
 10
8.7617850847
 20
5.1710959646
 10
8.776463329
 20
5.1721999843
 10
8.7812820266
 20
5.1731000421
  0
LWPOLYLINE
  5
6F8
100
AcDbEntity
  8
0
100
AcDbPolyline
 62
7
  6
CONTINUOUS
 90
9
 70
0
 10
8.5173026953
 20
5.1439361611
 10
8.5773015776
 20
5.1450322281
 10
8.6336535583
 20
5.1461282952
 10
8.6846923491
 20
5.1472243622
 10
8.7289087692
 20
5.1483204293
 10
8.7649953702
 20
5.1494164963
 10
8.7918850968
 20
5.1505125634
 10
8.8087828388
 20
5.1516086305
 10
8.8150743311
 20
5.1526200601
  0
LINE
  5
6F9
100
AcDbEntity
  8
0
100
AcDbLine
 62
7
  6
CONTINUOUS
 10
8.0928606596
 20
5.2926200601
 11
8.1266529641
 21
5.2731000421
  0
LINE
  5
6FA
100
AcDbEntity
  8
0
100
AcDbLine
 62
7
  6
CONTINUOUS
 10
8.0928606596
 20
5.3326200601
 11
8.1266529641
 21
5.3131000421
  0
LINE
  5
6FB
100
AcDbEntity
  8
0
100
AcDbLine
 62
7
  6
CONTINUOUS
 10
8.0928606596
 20
5.3726200601
 11
8.1266529641
 21
5.3531000421
  0
LINE
  5
6FC
100
AcDbEntity
  8
0
100
AcDbLine
 62
7
  6
CONTINUOUS
 10
8.4789674953
 20
4.1309280232
 11
8.4789674953
 21
4.1433143042
  0
LWPOLYLINE
  5
6FD
100
AcDbEntity
  8
0
100
AcDbPolyline
 62
7
  6
CONTINUOUS
 90
3
 70
0
 10
8.8150743311
 20
5.3926200601
 10
8.8152200677
 20
5.3927433822
 10
8.8150743311
 20
5.3930085483
  0
LWPOLYLINE
  5
6FE
100
AcDbEntity
  8
0
100
AcDbPolyline
 62
7
  6
CONTINUOUS
 90
3
 70
0
 10
8.8150743311
 20
5.3126200601
 10
8.8152111745
 20
5.3127304873
 10
8.8150743311
 20
5.3130085483
  0
LINE
  5
6FF
100
AcDbEntity
  8
0
100
AcDbLine
 62
7
  6
CONTINUOUS
 10
8.7812820266
 20
5.3331000421
 11
8.8150743311
 21
5.3526200601
  0
LINE
  5
700
100
AcDbEntity
  8
0
100
AcDbLine
 62
7
  6
CONTINUOUS
 10
8.7812820266
 20
5.2931000421
 11
8.8150743311
 21
5.3126200601
  0
LINE
  5
701
100
AcDbEntity
  8
0
100
AcDbLine
 62
7
  6
CONTINUOUS
 10
8.7812820266
 20
5.2531000421
 11
8.8150743311
 21
5.2726200601
  0
LWPOLYLINE
  5
702
100
AcDbEntity
  8
0
100
AcDbPolyline
 62
7
  6
CONTINUOUS
 90
20
 70
0
 10
8.0928606596
 20
5.0930085483
 10
8.094891559
 20
5.0935170766
 10
8.1070190345
 20
5.0946131437
 10
8.1294055306
 20
5.0957092107
 10
8.1613890946
 20
5.0968052778
 10
8.202023995
 20
5.0979013448
 10
8.2501086866
 20
5.0989974119
 10
8.304221339
 20
5.1000934789
 10
8.3627618794
 20
5.101189546
 10
8.4239993054
 20
5.102285613
 10
8.4861228696
 20
5.1033816801
 10
8.547295622
 20
5.1044777472
 10
8.6057087278
 20
5.1055738142
 10
8.6596349526
 20
5.1066698813
 10
8.7074797361
 20
5.1077659483
 10
8.7478283419
 20
5.1088620154
 10
8.7794876902
 20
5.1099580824
 10
8.8015216365
 20
5.1110541495
 10
8.8132786526
 20
5.1121502165
 10
8.8150743311
 20
5.1126200601
  0
LWPOLYLINE
  5
703
100
AcDbEntity
  8
0
100
AcDbPolyline
 62
7
  6
CONTINUOUS
 90
20
 70
0
 10
8.0928606596
 20
5.1730085483
 10
8.0949729128
 20
5.1735299715
 10
8.1072237759
 20
5.1746260386
 10
8.1297276056
 20
5.1757221056
 10
8.1618189796
 20
5.1768181727
 10
8.2025489787
 20
5.1779142397
 10
8.2507132455
 20
5.1790103068
 10
8.3048875968
 20
5.1801063738
 10
8.3634701353
 20
5.1812024409
 10
8.4247286167
 20
5.182298508
 10
8.4868516711
 20
5.183394575
 10
8.5480023637
 20
5.1844906421
 10
8.6063725117
 20
5.1855867091
 10
8.6602361511
 20
5.1866827762
 10
8.7080005722
 20
5.1877788432
 10
8.7482534149
 20
5.1888749103
 10
8.7798044309
 20
5.1899709773
 10
8.8017206792
 20
5.1910670444
 10
8.8133541117
 20
5.1921631114
 10
8.8150743311
 20
5.1926200601
  0
LWPOLYLINE
  5
704
100
AcDbEntity
  8
0
100
AcDbPolyline
 62
7
  6
CONTINUOUS
 90
9
 70
0
 10
8.7814674953
 20
5.2523143042
 10
8.7764450729
 20
5.2511979483
 10
8.7617799726
 20
5.2500956736
 10
8.737730992
 20
5.2489864247
 10
8.7047700117
 20
5.2478675305
 10
8.664368172
 20
5.2467559004
 10
8.6181095074
 20
5.2456564401
 10
8.5661889433
 20
5.244540868
 10
8.5106163545
 20
5.2434210549
  0
LWPOLYLINE
  5
705
100
AcDbEntity
  8
0
100
AcDbPolyline
 62
7
  6
CONTINUOUS
 90
9
 70
0
 10
8.1264674953
 20
5.1933143042
 10
8.1314913945
 20
5.1944308246
 10
8.1461616691
 20
5.1955333134
 10
8.1702123884
 20
5.1966425104
 10
8.2031659827
 20
5.1977611082
 10
8.2435475485
 20
5.1988722192
 10
8.2897986854
 20
5.1999715663
 10
8.3417219093
 20
5.2010872409
 10
8.3973043502
 20
5.2022072715
  0
LWPOLYLINE
  5
706
100
AcDbEntity
  8
0
100
AcDbPolyline
 62
7
  6
CONTINUOUS
 90
9
 70
0
 10
8.7814674953
 20
5.2923143042
 10
8.776411321
 20
5.2911941938
 10
8.7616636876
 20
5.2900890637
 10
8.7375797318
 20
5.28898054
 10
8.7047809214
 20
5.2878678603
 10
8.6647853832
 20
5.2867664908
 10
8.6185121202
 20
5.2856654881
 10
8.5664841453
 20
5.2845469772
 10
8.5107704481
 20
5.2834240963
  0
LWPOLYLINE
  5
707
100
AcDbEntity
  8
0
100
AcDbPolyline
 62
7
  6
CONTINUOUS
 90
9
 70
0
 10
8.1264674953
 20
5.1533143042
 10
8.131524496
 20
5.1544345064
 10
8.1462756094
 20
5.1555397892
 10
8.1703589592
 20
5.1566482123
 10
8.2031474082
 20
5.1577605467
 10
8.2431312504
 20
5.1588616514
 10
8.2894055914
 20
5.1599627318
 10
8.3414339192
 20
5.1610812808
 10
8.397154006
 20
5.1622043042
  0
LWPOLYLINE
  5
708
100
AcDbEntity
  8
0
100
AcDbPolyline
 62
7
  6
CONTINUOUS
 90
9
 70
0
 10
8.7814674953
 20
5.3323143042
 10
8.7763942951
 20
5.3311923046
 10
8.7616087369
 20
5.3300859467
 10
8.7375385137
 20
5.3289789381
 10
8.7049163472
 20
5.3278719558
 10
8.6650055201
 20
5.3267720846
 10
8.6186910131
 20
5.3256695108
 10
8.5666147431
 20
5.3245496807
 10
8.5108386617
 20
5.3234254427
  0
LWPOLYLINE
  5
709
100
AcDbEntity
  8
0
100
AcDbPolyline
 62
7
  6
CONTINUOUS
 90
5
 70
0
 10
8.1264674953
 20
5.1133143059
 10
8.1322990603
 20
5.1145174786
 10
8.1479096591
 20
5.1156307506
 10
8.1729223593
 20
5.1167465442
 10
8.2064595097
 20
5.1178597588
  0
LWPOLYLINE
  5
70A
100
AcDbEntity
  8
0
100
AcDbPolyline
 62
7
  6
CONTINUOUS
 90
5
 70
0
 10
8.0928606596
 20
5.1330085483
 10
8.0997148357
 20
5.1340715576
 10
8.1170963748
 20
5.1351676247
 10
8.1444389548
 20
5.1362636917
 10
8.1809340749
 20
5.1373597588
  0
LWPOLYLINE
  5
70B
100
AcDbEntity
  8
0
100
AcDbPolyline
 62
7
  6
CONTINUOUS
 90
10
 70
0
 10
8.0928606596
 20
5.2130085483
 10
8.0998591416
 20
5.2140844525
 10
8.117361453
 20
5.2151805196
 10
8.144816967
 20
5.2162765866
 10
8.1814138436
 20
5.2173726537
 10
8.2260699389
 20
5.2184687207
 10
8.2774648039
 20
5.2195647878
 10
8.3340787287
 20
5.2206608548
 10
8.3942376795
 20
5.2217569219
 10
8.5180230044
 20
5.223949056
  0
LWPOLYLINE
  5
70C
100
AcDbEntity
  8
0
100
AcDbPolyline
 62
7
  6
CONTINUOUS
 90
10
 70
0
 10
8.5106357104
 20
5.203421437
 10
8.397154006
 20
5.2012043042
 10
8.3414339192
 20
5.2000812808
 10
8.2894055914
 20
5.1989627318
 10
8.2431312504
 20
5.1978616514
 10
8.2031474082
 20
5.1967605467
 10
8.1703589592
 20
5.1956482123
 10
8.1462756094
 20
5.1945397892
 10
8.131524496
 20
5.1934345064
 10
8.1266529641
 20
5.1925285663
  0
LWPOLYLINE
  5
70D
100
AcDbEntity
  8
0
100
AcDbPolyline
 62
7
  6
CONTINUOUS
 90
10
 70
0
 10
8.3973043502
 20
5.2022072715
 10
8.5106163545
 20
5.2044210549
 10
8.5661889433
 20
5.205540868
 10
8.6181095074
 20
5.2066564401
 10
8.664368172
 20
5.2077559004
 10
8.7047700117
 20
5.2088675305
 10
8.737730992
 20
5.2099864247
 10
8.7617799726
 20
5.2110956736
 10
8.7764450729
 20
5.2121979483
 10
8.7812820266
 20
5.2131000421
  0
LWPOLYLINE
  5
70E
100
AcDbEntity
  8
0
100
AcDbPolyline
 62
7
  6
CONTINUOUS
 90
10
 70
0
 10
8.5106163545
 20
5.2434210549
 10
8.3973043502
 20
5.2412072715
 10
8.3417219093
 20
5.2400872409
 10
8.2897986854
 20
5.2389715663
 10
8.2435475485
 20
5.2378722192
 10
8.2031659827
 20
5.2367611082
 10
8.1702123884
 20
5.2356425104
 10
8.1461616691
 20
5.2345333134
 10
8.1314913945
 20
5.2334308246
 10
8.1266529641
 20
5.2325285663
  0
LWPOLYLINE
  5
70F
100
AcDbEntity
  8
0
100
AcDbPolyline
 62
7
  6
CONTINUOUS
 90
10
 70
0
 10
8.3972993857
 20
5.2422071735
 10
8.5107704481
 20
5.2444240963
 10
8.5664841453
 20
5.2455469772
 10
8.6185121202
 20
5.2466654881
 10
8.6647853832
 20
5.2477664908
 10
8.7047809214
 20
5.2488678603
 10
8.7375797318
 20
5.24998054
 10
8.7616636876
 20
5.2510890637
 10
8.776411321
 20
5.2521941938
 10
8.7812820266
 20
5.2531000421
  0
LWPOLYLINE
  5
710
100
AcDbEntity
  8
0
100
AcDbPolyline
 62
7
  6
CONTINUOUS
 90
9
 70
0
 10
8.5180230044
 20
5.223949056
 10
8.577989134
 20
5.225045123
 10
8.6342880314
 20
5.2261411901
 10
8.6852549781
 20
5.2272372571
 10
8.7293829174
 20
5.2283333242
 10
8.7653670174
 20
5.2294293913
 10
8.7921432537
 20
5.2305254583
 10
8.8089198719
 20
5.2316215254
 10
8.8150743311
 20
5.2326200601
  0
LINE
  5
711
100
AcDbEntity
  8
0
100
AcDbLine
 62
7
  6
CONTINUOUS
 10
8.8150743311
 20
4.9930085483
 11
8.7812820266
 21
5.0125285663
  0
LINE
  5
712
100
AcDbEntity
  8
0
100
AcDbLine
 62
7
  6
CONTINUOUS
 10
8.0928606596
 20
5.4126200601
 11
8.1266529641
 21
5.3931000421
  0
LINE
  5
713
100
AcDbEntity
  8
0
100
AcDbLine
 62
7
  6
CONTINUOUS
 10
8.8150743311
 20
5.0330085483
 11
8.7812820266
 21
5.0525285663
  0
LINE
  5
714
100
AcDbEntity
  8
0
100
AcDbLine
 62
7
  6
CONTINUOUS
 10
8.0928606596
 20
5.4526200601
 11
8.1266529641
 21
5.4331000421
  0
LINE
  5
715
100
AcDbEntity
  8
0
100
AcDbLine
 62
7
  6
CONTINUOUS
 10
8.8150743311
 20
5.0730085483
 11
8.7812820266
 21
5.0925285663
  0
LINE
  5
716
100
AcDbEntity
  8
0
100
AcDbLine
 62
7
  6
CONTINUOUS
 10
8.0928606596
 20
5.4926200601
 11
8.1266529641
 21
5.4731000421
  0
LINE
  5
717
100
AcDbEntity
  8
AXIS
100
AcDbLine
 62
7
  6
CONTINUOUS
 10
8.5704674953
 20
4.1033143042
 11
8.5704674953
 21
3.6662670601
  0
LINE
  5
718
100
AcDbEntity
  8
AXIS_COSMETIC_THREADS
100
AcDbLine
 62
7
  6
CONTINUOUS
 10
8.5704674953
 20
4.1033143042
 11
8.5704674953
 21
3.6662670601
  0
LINE
  5
719
100
AcDbEntity
  8
0
100
AcDbLine
 62
7
  6
CONTINUOUS
 10
8.6689674953
 20
6.6293143042
 11
8.6689674953
 21
6.6593143042
  0
LWPOLYLINE
  5
71A
100
AcDbEntity
  8
0
100
AcDbPolyline
 62
7
  6
CONTINUOUS
 90
6
 70
0
 10
8.7137751165
 20
6.6293143042
 10
8.7135229672
 20
6.6263940645
 10
8.7127405483
 20
6.6236225754
 10
8.7114716798
 20
6.6213743654
 10
8.7097663311
 20
6.6198611259
 10
8.7077390461
 20
6.6193143042
  0
LINE
  5
71B
100
AcDbEntity
  8
0
100
AcDbLine
 62
7
  6
CONTINUOUS
 10
8.7812820266
 20
5.2131000421
 11
8.8150743311
 21
5.2326200601
  0
LINE
  5
71C
100
AcDbEntity
  8
0
100
AcDbLine
 62
7
  6
CONTINUOUS
 10
8.7812820266
 20
5.1731000421
 11
8.8150743311
 21
5.1926200601
  0
LINE
  5
71D
100
AcDbEntity
  8
0
100
AcDbLine
 62
7
  6
CONTINUOUS
 10
8.7812820266
 20
5.1331000421
 11
8.8150743311
 21
5.1526200601
  0
LWPOLYLINE
  5
71E
100
AcDbEntity
  8
0
100
AcDbPolyline
 62
7
  6
CONTINUOUS
 90
20
 70
0
 10
8.0928606596
 20
5.2530085483
 10
8.0950557395
 20
5.2535428664
 10
8.10742994
 20
5.2546389335
 10
8.1300510109
 20
5.2557350005
 10
8.1622500633
 20
5.2568310676
 10
8.2030749939
 20
5.2579271346
 10
8.2513186383
 20
5.2590232017
 10
8.3055544662
 20
5.2601192688
 10
8.3641787624
 20
5.2612153358
 10
8.425458048
 20
5.2623114029
 10
8.4875803378
 20
5.2634074699
 10
8.5487087195
 20
5.264503537
 10
8.6070356703
 20
5.265599604
 10
8.6608365034
 20
5.2666956711
 10
8.7085203661
 20
5.2677917381
 10
8.7486772805
 20
5.2688878052
 10
8.7801198348
 20
5.2699838722
 10
8.8019182951
 20
5.2710799393
 10
8.8134280963
 20
5.2721760063
 10
8.8150743311
 20
5.2726200601
  0
LWPOLYLINE
  5
71F
100
AcDbEntity
  8
0
100
AcDbPolyline
 62
7
  6
CONTINUOUS
 90
9
 70
0
 10
8.1264674953
 20
5.3133142998
 10
8.1313967047
 20
5.3144202258
 10
8.1460263544
 20
5.3155255992
 10
8.170219609
 20
5.3166427915
 10
8.2034804808
 20
5.3177706065
 10
8.2443215739
 20
5.3188918291
 10
8.2909349336
 20
5.3199970627
 10
8.3424385834
 20
5.3211020641
 10
8.3973438122
 20
5.3222080504
  0
LWPOLYLINE
  5
720
100
AcDbEntity
  8
0
100
AcDbPolyline
 62
7
  6
CONTINUOUS
 90
9
 70
0
 10
8.1264674953
 20
5.2333143018
 10
8.1314748823
 20
5.2344289836
 10
8.1461540904
 20
5.235532882
 10
8.170289226
 20
5.2366455006
 10
8.2034134844
 20
5.2377685845
 10
8.2440596432
 20
5.2388851987
 10
8.2903528533
 20
5.2399840087
 10
8.3419249447
 20
5.2410914417
 10
8.3972993857
 20
5.2422071735
  0
LWPOLYLINE
  5
721
100
AcDbEntity
  8
0
100
AcDbPolyline
 62
7
  6
CONTINUOUS
 90
9
 70
0
 10
8.7814674953
 20
5.4523143042
 10
8.7763993441
 20
5.4511928645
 10
8.7616716893
 20
5.4500895179
 10
8.7377881637
 20
5.4489886513
 10
8.7050044405
 20
5.4478746216
 10
8.6646478607
 20
5.4467629983
 10
8.6183286661
 20
5.4456613644
 10
8.5663487085
 20
5.4445441741
 10
8.5106997845
 20
5.4434227016
  0
LWPOLYLINE
  5
722
100
AcDbEntity
  8
0
100
AcDbPolyline
 62
7
  6
CONTINUOUS
 90
9
 70
0
 10
8.7814674953
 20
5.3723143042
 10
8.7763830273
 20
5.3711910561
 10
8.7615796172
 20
5.3700842966
 10
8.7375806784
 20
5.3689805768
 10
8.7051617387
 20
5.3678793849
 10
8.6651092987
 20
5.3667747232
 10
8.6187607841
 20
5.3656710801
 10
8.5666655543
 20
5.3645507326
 10
8.5108652149
 20
5.3634259669
  0
LWPOLYLINE
  5
723
100
AcDbEntity
  8
0
100
AcDbPolyline
 62
7
  6
CONTINUOUS
 90
9
 70
0
 10
8.7814674953
 20
5.4123143042
 10
8.7763847141
 20
5.4111912429
 10
8.7616004098
 20
5.4100854747
 10
8.7377311338
 20
5.4089864302
 10
8.705199806
 20
5.4078805383
 10
8.6649905532
 20
5.4067717042
 10
8.6186399323
 20
5.405668362
 10
8.5665767976
 20
5.4045488951
 10
8.5108188748
 20
5.4034250522
  0
LWPOLYLINE
  5
724
100
AcDbEntity
  8
0
100
AcDbPolyline
 62
7
  6
CONTINUOUS
 90
10
 70
0
 10
8.1265961161
 20
5.2734927307
 10
8.1329768575
 20
5.2745856997
 10
8.1486409043
 20
5.2756703679
 10
8.1734716038
 20
5.276767284
 10
8.206901082
 20
5.2778728508
 10
8.2474528133
 20
5.2789706524
 10
8.2934058683
 20
5.2800523077
 10
8.3440345533
 20
5.2811350293
 10
8.3983055753
 20
5.2822270268
 10
8.5108386617
 20
5.2844254427
  0
LWPOLYLINE
  5
725
100
AcDbEntity
  8
0
100
AcDbPolyline
 62
7
  6
CONTINUOUS
 90
10
 70
0
 10
8.0928606596
 20
5.2930085483
 10
8.1000049004
 20
5.2940973474
 10
8.1176279121
 20
5.2951934145
 10
8.1451962476
 20
5.2962894815
 10
8.1818947305
 20
5.2973855486
 10
8.2266382127
 20
5.2984816156
 10
8.2781036611
 20
5.2995776827
 10
8.3347692787
 20
5.3006737497
 10
8.3949595034
 20
5.3017698168
 10
8.5187430508
 20
5.3039619509
  0
LWPOLYLINE
  5
726
100
AcDbEntity
  8
0
100
AcDbPolyline
 62
7
  6
CONTINUOUS
 90
9
 70
0
 10
8.5108386617
 20
5.2844254427
 10
8.5666147431
 20
5.2855496807
 10
8.6186910131
 20
5.2866695108
 10
8.6650055201
 20
5.2877720846
 10
8.7049163472
 20
5.2888719558
 10
8.7375385137
 20
5.2899789381
 10
8.7616087369
 20
5.2910859467
 10
8.7763942951
 20
5.2921923046
 10
8.7812820266
 20
5.2931000421
  0
LWPOLYLINE
  5
727
100
AcDbEntity
  8
0
100
AcDbPolyline
 62
7
  6
CONTINUOUS
 90
10
 70
0
 10
8.5107704481
 20
5.2834240963
 10
8.3972993857
 20
5.2812071735
 10
8.3419249447
 20
5.2800914417
 10
8.2903528533
 20
5.2789840087
 10
8.2440596432
 20
5.2778851987
 10
8.2034134844
 20
5.2767685845
 10
8.170289226
 20
5.2756455006
 10
8.1461540904
 20
5.274532882
 10
8.1314748823
 20
5.2734289836
 10
8.1266529641
 20
5.2725285663
  0
LWPOLYLINE
  5
728
100
AcDbEntity
  8
0
100
AcDbPolyline
 62
7
  6
CONTINUOUS
 90
10
 70
0
 10
8.5108386617
 20
5.3234254427
 10
8.3983055753
 20
5.3212270268
 10
8.3440345533
 20
5.3201350293
 10
8.2934058683
 20
5.3190523077
 10
8.2474528133
 20
5.3179706524
 10
8.206901082
 20
5.3168728508
 10
8.1734716038
 20
5.315767284
 10
8.1486409043
 20
5.3146703679
 10
8.1329768575
 20
5.3135856997
 10
8.1266529641
 20
5.3125285663
  0
LWPOLYLINE
  5
729
100
AcDbEntity
  8
0
100
AcDbPolyline
 62
7
  6
CONTINUOUS
 90
10
 70
0
 10
8.3973438122
 20
5.3222080504
 10
8.5108652149
 20
5.3244259669
 10
8.5666655543
 20
5.3255507326
 10
8.6187607841
 20
5.3266710801
 10
8.6651092987
 20
5.3277747232
 10
8.7051617387
 20
5.3288793849
 10
8.7375806784
 20
5.3299805768
 10
8.7615796172
 20
5.3310842966
 10
8.7763830273
 20
5.3321910561
 10
8.7812820266
 20
5.3331000421
  0
LWPOLYLINE
  5
72A
100
AcDbEntity
  8
0
100
AcDbPolyline
 62
7
  6
CONTINUOUS
 90
10
 70
0
 10
8.5108652149
 20
5.3634259669
 10
8.3973438122
 20
5.3612080504
 10
8.3424385834
 20
5.3601020641
 10
8.2909349336
 20
5.3589970627
 10
8.2443215739
 20
5.3578918291
 10
8.2034804808
 20
5.3567706065
 10
8.170219609
 20
5.3556427915
 10
8.1460263544
 20
5.3545255992
 10
8.1313967047
 20
5.3534202258
 10
8.1266529641
 20
5.3525285663
  0
LWPOLYLINE
  5
72B
100
AcDbEntity
  8
0
100
AcDbPolyline
 62
7
  6
CONTINUOUS
 90
10
 70
0
 10
8.3974922458
 20
5.3622109797
 10
8.5108188748
 20
5.3644250522
 10
8.5665767976
 20
5.3655488951
 10
8.6186399323
 20
5.366668362
 10
8.6649905532
 20
5.3677717042
 10
8.705199806
 20
5.3688805383
 10
8.7377311338
 20
5.3699864302
 10
8.7616004098
 20
5.3710854747
 10
8.7763847141
 20
5.3721912429
 10
8.7812820266
 20
5.3731000421
  0
LWPOLYLINE
  5
72C
100
AcDbEntity
  8
0
100
AcDbPolyline
 62
7
  6
CONTINUOUS
 90
9
 70
0
 10
8.5187430508
 20
5.3039619509
 10
8.5786761816
 20
5.3050580179
 10
8.6349217647
 20
5.306154085
 10
8.6858166581
 20
5.3072501521
 10
8.7298559356
 20
5.3083462191
 10
8.765737387
 20
5.3094422862
 10
8.7924000231
 20
5.3105383532
 10
8.8090554487
 20
5.3116344203
 10
8.8150743311
 20
5.3126200601
  0
LINE
  5
72D
100
AcDbEntity
  8
0
100
AcDbLine
 62
7
  6
CONTINUOUS
 10
8.8150743311
 20
5.1130085483
 11
8.7812820266
 21
5.1325285663
  0
LINE
  5
72E
100
AcDbEntity
  8
0
100
AcDbLine
 62
7
  6
CONTINUOUS
 10
8.0928606596
 20
5.5326200601
 11
8.1266529641
 21
5.5131000421
  0
LINE
  5
72F
100
AcDbEntity
  8
0
100
AcDbLine
 62
7
  6
CONTINUOUS
 10
8.8150743311
 20
5.1530085483
 11
8.7812820266
 21
5.1725285663
  0
LINE
  5
730
100
AcDbEntity
  8
0
100
AcDbLine
 62
7
  6
CONTINUOUS
 10
8.0928606596
 20
5.5726200601
 11
8.1266529641
 21
5.5531000421
  0
LINE
  5
731
100
AcDbEntity
  8
0
100
AcDbLine
 62
7
  6
CONTINUOUS
 10
8.8150743311
 20
5.1930085483
 11
8.7812820266
 21
5.2125285663
  0
LINE
  5
732
100
AcDbEntity
  8
0
100
AcDbLine
 62
7
  6
CONTINUOUS
 10
8.0928606596
 20
5.6126200601
 11
8.1266529641
 21
5.5931000421
  0
LINE
  5
733
100
AcDbEntity
  8
0
100
AcDbLine
 62
7
  6
CONTINUOUS
 10
8.7137751165
 20
6.6293143042
 11
8.7137751165
 21
6.6193143042
  0
LINE
  5
734
100
AcDbEntity
  8
0
100
AcDbLine
 62
9
  6
CONTINUOUS
 10
8.7189674953
 20
4.1309280232
 11
8.7189674953
 21
4.1433143042
  0
LINE
  5
735
100
AcDbEntity
  8
0
100
AcDbLine
 62
7
  6
CONTINUOUS
 10
8.7366333758
 20
6.6193143042
 11
8.7366333758
 21
6.6593143042
  0
LINE
  5
736
100
AcDbEntity
  8
0
100
AcDbLine
 62
7
  6
CONTINUOUS
 10
8.7739674953
 20
6.6193143042
 11
8.7739674953
 21
6.6593143042
  0
LWPOLYLINE
  5
737
100
AcDbEntity
  8
0
100
AcDbPolyline
 62
7
  6
CONTINUOUS
 90
7
 70
0
 10
8.4289674953
 20
4.1309280232
 10
8.4270602925
 20
4.1246454702
 10
8.4213689957
 20
4.1186067102
 10
8.4119840588
 20
4.1130457357
 10
8.39905464
 20
4.1083110399
 10
8.3827862312
 20
4.1048874313
 10
8.3634373919
 20
4.1033143042
  0
LINE
  5
738
100
AcDbEntity
  8
0
100
AcDbLine
 62
7
  6
CONTINUOUS
 10
8.7812820266
 20
5.0931000421
 11
8.8150743311
 21
5.1126200601
  0
LINE
  5
739
100
AcDbEntity
  8
0
100
AcDbLine
 62
7
  6
CONTINUOUS
 10
8.7812820266
 20
5.0531000421
 11
8.8150743311
 21
5.0726200601
  0
LINE
  5
73A
100
AcDbEntity
  8
0
100
AcDbLine
 62
7
  6
CONTINUOUS
 10
8.7812820266
 20
5.0131000421
 11
8.8150743311
 21
5.0326200601
  0
LWPOLYLINE
  5
73B
100
AcDbEntity
  8
0
100
AcDbPolyline
 62
7
  6
CONTINUOUS
 90
20
 70
0
 10
8.0928606596
 20
5.3330085483
 10
8.0951400387
 20
5.3335557613
 10
8.1076375258
 20
5.3346518284
 10
8.1303757451
 20
5.3357478954
 10
8.1626823438
 20
5.3368439625
 10
8.2036020384
 20
5.3379400296
 10
8.2519248625
 20
5.3390360966
 10
8.3062219445
 20
5.3401321637
 10
8.3648877579
 20
5.3412282307
 10
8.4261875962
 20
5.3423242978
 10
8.4883088665
 20
5.3434203648
 10
8.5494146867
 20
5.3445164319
 10
8.6076982009
 20
5.3456124989
 10
8.6614360069
 20
5.346708566
 10
8.7090391157
 20
5.347804633
 10
8.749099937
 20
5.3489007001
 10
8.7804339006
 20
5.3499967671
 10
8.8021144835
 20
5.3510928342
 10
8.8135006061
 20
5.3521889012
 10
8.8150743311
 20
5.3526200601
  0
LWPOLYLINE
  5
73C
100
AcDbEntity
  8
0
100
AcDbPolyline
 62
7
  6
CONTINUOUS
 90
9
 70
0
 10
8.1264674953
 20
5.353314314
 10
8.1314036519
 20
5.3544210068
 10
8.1460029869
 20
5.3555242645
 10
8.1701766002
 20
5.3566411168
 10
8.2034149304
 20
5.3577686282
 10
8.2442319142
 20
5.3588895602
 10
8.290861411
 20
5.3599954147
 10
8.342641047
 20
5.3611062495
 10
8.3974922458
 20
5.3622109797
  0
LWPOLYLINE
  5
73D
100
AcDbEntity
  8
0
100
AcDbPolyline
 62
7
  6
CONTINUOUS
 90
9
 70
0
 10
8.1264674953
 20
5.393314314
 10
8.1314467154
 20
5.3944258361
 10
8.1460153027
 20
5.3955249681
 10
8.1701308124
 20
5.3966393331
 10
8.203273442
 20
5.3977643555
 10
8.2439678501
 20
5.3988828738
 10
8.290494744
 20
5.3999871922
 10
8.3424075855
 20
5.4011014232
 10
8.3976359235
 20
5.402213815
  0
LWPOLYLINE
  5
73E
100
AcDbEntity
  8
0
100
AcDbPolyline
 62
7
  6
CONTINUOUS
 90
9
 70
0
 10
8.7814674953
 20
5.5323142968
 10
8.7764799078
 20
5.5312018364
 10
8.7619125026
 20
5.53010323
 10
8.7378064247
 20
5.5289893628
 10
8.7046833869
 20
5.5278649126
 10
8.664018246
 20
5.5267470294
 10
8.6175184909
 20
5.5256431716
 10
8.56559379
 20
5.5245285578
 10
8.510305933
 20
5.5234149289
  0
LWPOLYLINE
  5
73F
100
AcDbEntity
  8
0
100
AcDbPolyline
 62
7
  6
CONTINUOUS
 90
9
 70
0
 10
8.7814674953
 20
5.4923143041
 10
8.7764537427
 20
5.4911989147
 10
8.7618093084
 20
5.4900973441
 10
8.73777265
 20
5.488988047
 10
8.7047962624
 20
5.4878683241
 10
8.6643353914
 20
5.4867550689
 10
8.6180490024
 20
5.4856550811
 10
8.5661439264
 20
5.4845399366
 10
8.5105928851
 20
5.4834205917
  0
LWPOLYLINE
  5
740
100
AcDbEntity
  8
0
100
AcDbPolyline
 62
7
  6
CONTINUOUS
 90
19
 70
0
 10
8.0928606596
 20
5.3730085483
 10
8.1001521113
 20
5.3741102423
 10
8.1178957512
 20
5.3752063094
 10
8.145576795
 20
5.3763023764
 10
8.1823767337
 20
5.3773984435
 10
8.2272074192
 20
5.3784945105
 10
8.2787432399
 20
5.3795905776
 10
8.3354603178
 20
5.3806866446
 10
8.3956815693
 20
5.3817827117
 10
8.4576262943
 20
5.3828787787
 10
8.5194628313
 20
5.3839748458
 10
8.5793627175
 20
5.3850709129
 10
8.6355547556
 20
5.3861669799
 10
8.6863773868
 20
5.387263047
 10
8.7303278219
 20
5.388359114
 10
8.7661064775
 20
5.3894551811
 10
8.7926554041
 20
5.3905512481
 10
8.8091895686
 20
5.3916473152
 10
8.8150743311
 20
5.3926200601
  0
LWPOLYLINE
  5
741
100
AcDbEntity
  8
0
100
AcDbPolyline
 62
7
  6
CONTINUOUS
 90
9
 70
0
 10
8.5105928851
 20
5.4444205917
 10
8.5661439264
 20
5.4455399366
 10
8.6180490024
 20
5.4466550811
 10
8.6643353914
 20
5.4477550689
 10
8.7047962624
 20
5.4488683241
 10
8.73777265
 20
5.449988047
 10
8.7618093084
 20
5.4510973441
 10
8.7764537427
 20
5.4521989147
 10
8.7812820266
 20
5.4531000421
  0
LWPOLYLINE
  5
742
100
AcDbEntity
  8
0
100
AcDbPolyline
 62
7
  6
CONTINUOUS
 90
10
 70
0
 10
8.5108188748
 20
5.4034250522
 10
8.3974922458
 20
5.4012109797
 10
8.342641047
 20
5.4001062495
 10
8.290861411
 20
5.3989954147
 10
8.2442319142
 20
5.3978895602
 10
8.2034149304
 20
5.3967686282
 10
8.1701766002
 20
5.3956411168
 10
8.1460029869
 20
5.3945242645
 10
8.1314036519
 20
5.3934210068
 10
8.1266529641
 20
5.3925285663
  0
LWPOLYLINE
  5
743
100
AcDbEntity
  8
0
100
AcDbPolyline
 62
7
  6
CONTINUOUS
 90
10
 70
0
 10
8.3976359235
 20
5.402213815
 10
8.5106997845
 20
5.4044227016
 10
8.5663487085
 20
5.4055441741
 10
8.6183286661
 20
5.4066613644
 10
8.6646478607
 20
5.4077629983
 10
8.7050044405
 20
5.4088746216
 10
8.7377881637
 20
5.4099886513
 10
8.7616716893
 20
5.4110895179
 10
8.7763993441
 20
5.4121928645
 10
8.7812820266
 20
5.4131000421
  0
LWPOLYLINE
  5
744
100
AcDbEntity
  8
0
100
AcDbPolyline
 62
7
  6
CONTINUOUS
 90
10
 70
0
 10
8.5106997845
 20
5.4434227016
 10
8.3976359235
 20
5.441213815
 10
8.3424075855
 20
5.4401014232
 10
8.290494744
 20
5.4389871922
 10
8.2439678501
 20
5.4378828738
 10
8.203273442
 20
5.4367643555
 10
8.1701308124
 20
5.4356393331
 10
8.1460153027
 20
5.4345249681
 10
8.1314467154
 20
5.4334258361
 10
8.1266529641
 20
5.4325285663
  0
LWPOLYLINE
  5
745
100
AcDbEntity
  8
0
100
AcDbPolyline
 62
7
  6
CONTINUOUS
 90
10
 70
0
 10
8.5105928851
 20
5.4834205917
 10
8.3985106844
 20
5.4812310725
 10
8.3439817714
 20
5.48013394
 10
8.2927960114
 20
5.4790386978
 10
8.2469124125
 20
5.4779571058
 10
8.2065879795
 20
5.4768635709
 10
8.1733399119
 20
5.4757623215
 10
8.148625548
 20
5.4746695425
 10
8.133035764
 20
5.4735914588
 10
8.1266529641
 20
5.4725285663
  0
LWPOLYLINE
  5
746
100
AcDbEntity
  8
0
100
AcDbPolyline
 62
7
  6
CONTINUOUS
 90
10
 70
0
 10
8.3972563702
 20
5.4822063246
 10
8.510305933
 20
5.4844149289
 10
8.56559379
 20
5.4855285578
 10
8.6175184909
 20
5.4866431716
 10
8.664018246
 20
5.4877470294
 10
8.7046833869
 20
5.4888649126
 10
8.7378064247
 20
5.4899893628
 10
8.7619125026
 20
5.49110323
 10
8.7764799078
 20
5.4922018364
 10
8.7812820266
 20
5.4931000421
  0
LINE
  5
747
100
AcDbEntity
  8
0
100
AcDbLine
 62
7
  6
CONTINUOUS
 10
8.8150743311
 20
5.2330085483
 11
8.7812820266
 21
5.2525285663
  0
LINE
  5
748
100
AcDbEntity
  8
0
100
AcDbLine
 62
7
  6
CONTINUOUS
 10
8.0928606596
 20
5.6526200601
 11
8.1266529641
 21
5.6331000421
  0
LINE
  5
749
100
AcDbEntity
  8
0
100
AcDbLine
 62
7
  6
CONTINUOUS
 10
8.8150743311
 20
5.2730085483
 11
8.7812820266
 21
5.2925285663
  0
LINE
  5
74A
100
AcDbEntity
  8
0
100
AcDbLine
 62
7
  6
CONTINUOUS
 10
8.0928606596
 20
5.6926200601
 11
8.1266529641
 21
5.6731000421
  0
LINE
  5
74B
100
AcDbEntity
  8
0
100
AcDbLine
 62
7
  6
CONTINUOUS
 10
8.8150743311
 20
5.3130085483
 11
8.7812820266
 21
5.3325285663
  0
LINE
  5
74C
100
AcDbEntity
  8
0
100
AcDbLine
 62
7
  6
CONTINUOUS
 10
8.0928606596
 20
5.7326200601
 11
8.1266529641
 21
5.7131000421
  0
LINE
  5
74D
100
AcDbEntity
  8
0
100
AcDbLine
 62
7
  6
CONTINUOUS
 10
8.7789674953
 20
4.2633143042
 11
8.7789674953
 21
4.1433143042
  0
LINE
  5
74E
100
AcDbEntity
  8
AXIS
100
AcDbLine
 62
7
  6
CONTINUOUS
 10
8.7814674953
 20
6.6133143042
 11
8.7814674953
 21
6.6123143042
  0
LINE
  5
74F
100
AcDbEntity
  8
AXIS
100
AcDbLine
 62
7
  6
CONTINUOUS
 10
8.7814674953
 20
6.5733143042
 11
8.7814674953
 21
6.5723143042
  0
LINE
  5
750
100
AcDbEntity
  8
AXIS
100
AcDbLine
 62
7
  6
CONTINUOUS
 10
8.7814674953
 20
6.5333143042
 11
8.7814674953
 21
6.5323143042
  0
LINE
  5
751
100
AcDbEntity
  8
AXIS
100
AcDbLine
 62
7
  6
CONTINUOUS
 10
8.7814674953
 20
6.4933143042
 11
8.7814674953
 21
6.4923143042
  0
LINE
  5
752
100
AcDbEntity
  8
AXIS
100
AcDbLine
 62
7
  6
CONTINUOUS
 10
8.7814674953
 20
6.4533143042
 11
8.7814674953
 21
6.4523143042
  0
LINE
  5
753
100
AcDbEntity
  8
AXIS
100
AcDbLine
 62
7
  6
CONTINUOUS
 10
8.7814674953
 20
6.4133143042
 11
8.7814674953
 21
6.4123143042
  0
LINE
  5
754
100
AcDbEntity
  8
AXIS
100
AcDbLine
 62
7
  6
CONTINUOUS
 10
8.7814674953
 20
6.3733143042
 11
8.7814674953
 21
6.3723143042
  0
LINE
  5
755
100
AcDbEntity
  8
AXIS
100
AcDbLine
 62
7
  6
CONTINUOUS
 10
8.7814674953
 20
6.3333143042
 11
8.7814674953
 21
6.3323143042
  0
LINE
  5
756
100
AcDbEntity
  8
AXIS
100
AcDbLine
 62
7
  6
CONTINUOUS
 10
8.7814674953
 20
6.2933143042
 11
8.7814674953
 21
6.2923143042
  0
LINE
  5
757
100
AcDbEntity
  8
AXIS
100
AcDbLine
 62
7
  6
CONTINUOUS
 10
8.7814674953
 20
6.2533143042
 11
8.7814674953
 21
6.2523143042
  0
LINE
  5
758
100
AcDbEntity
  8
AXIS
100
AcDbLine
 62
7
  6
CONTINUOUS
 10
8.7814674953
 20
6.2133143042
 11
8.7814674953
 21
6.2123143042
  0
LINE
  5
759
100
AcDbEntity
  8
AXIS
100
AcDbLine
 62
7
  6
CONTINUOUS
 10
8.7814674953
 20
6.1733143042
 11
8.7814674953
 21
6.1723143042
  0
LINE
  5
75A
100
AcDbEntity
  8
AXIS
100
AcDbLine
 62
7
  6
CONTINUOUS
 10
8.7814674953
 20
6.1333143042
 11
8.7814674953
 21
6.1323143042
  0
LINE
  5
75B
100
AcDbEntity
  8
AXIS
100
AcDbLine
 62
7
  6
CONTINUOUS
 10
8.7814674953
 20
6.0933143042
 11
8.7814674953
 21
6.0923143042
  0
LINE
  5
75C
100
AcDbEntity
  8
AXIS
100
AcDbLine
 62
7
  6
CONTINUOUS
 10
8.7814674953
 20
6.0533143042
 11
8.7814674953
 21
6.0523143042
  0
LINE
  5
75D
100
AcDbEntity
  8
AXIS
100
AcDbLine
 62
7
  6
CONTINUOUS
 10
8.7814674953
 20
6.0133143042
 11
8.7814674953
 21
6.0123143042
  0
LINE
  5
75E
100
AcDbEntity
  8
AXIS
100
AcDbLine
 62
7
  6
CONTINUOUS
 10
8.7814674953
 20
5.9733143042
 11
8.7814674953
 21
5.9723143042
  0
LINE
  5
75F
100
AcDbEntity
  8
AXIS
100
AcDbLine
 62
7
  6
CONTINUOUS
 10
8.7814674953
 20
5.9333143042
 11
8.7814674953
 21
5.9323143042
  0
LINE
  5
760
100
AcDbEntity
  8
AXIS
100
AcDbLine
 62
7
  6
CONTINUOUS
 10
8.7814674953
 20
5.8933143042
 11
8.7814674953
 21
5.8923143042
  0
LINE
  5
761
100
AcDbEntity
  8
AXIS
100
AcDbLine
 62
7
  6
CONTINUOUS
 10
8.7814674953
 20
5.8533143042
 11
8.7814674953
 21
5.8523143042
  0
LINE
  5
762
100
AcDbEntity
  8
AXIS
100
AcDbLine
 62
7
  6
CONTINUOUS
 10
8.7814674953
 20
5.8133143042
 11
8.7814674953
 21
5.8123143042
  0
LINE
  5
763
100
AcDbEntity
  8
AXIS
100
AcDbLine
 62
7
  6
CONTINUOUS
 10
8.7814674953
 20
5.7733143042
 11
8.7814674953
 21
5.7723143042
  0
LINE
  5
764
100
AcDbEntity
  8
AXIS
100
AcDbLine
 62
7
  6
CONTINUOUS
 10
8.7814674953
 20
5.7333143042
 11
8.7814674953
 21
5.7323143042
  0
LINE
  5
765
100
AcDbEntity
  8
AXIS
100
AcDbLine
 62
7
  6
CONTINUOUS
 10
8.7814674953
 20
5.6933143042
 11
8.7814674953
 21
5.6923143042
  0
LINE
  5
766
100
AcDbEntity
  8
AXIS
100
AcDbLine
 62
7
  6
CONTINUOUS
 10
8.7814674953
 20
5.6533143042
 11
8.7814674953
 21
5.6523143042
  0
LINE
  5
767
100
AcDbEntity
  8
AXIS
100
AcDbLine
 62
7
  6
CONTINUOUS
 10
8.7814674953
 20
5.6133143042
 11
8.7814674953
 21
5.6123143042
  0
LINE
  5
768
100
AcDbEntity
  8
AXIS
100
AcDbLine
 62
7
  6
CONTINUOUS
 10
8.7814674953
 20
5.5733143042
 11
8.7814674953
 21
5.5723143042
  0
LINE
  5
769
100
AcDbEntity
  8
AXIS
100
AcDbLine
 62
7
  6
CONTINUOUS
 10
8.7814674953
 20
5.5333143042
 11
8.7814674953
 21
5.5323143042
  0
LINE
  5
76A
100
AcDbEntity
  8
AXIS
100
AcDbLine
 62
7
  6
CONTINUOUS
 10
8.7814674953
 20
5.4933143042
 11
8.7814674953
 21
5.4923143042
  0
LINE
  5
76B
100
AcDbEntity
  8
AXIS
100
AcDbLine
 62
7
  6
CONTINUOUS
 10
8.7814674953
 20
5.4533143042
 11
8.7814674953
 21
5.4523143042
  0
LINE
  5
76C
100
AcDbEntity
  8
AXIS
100
AcDbLine
 62
7
  6
CONTINUOUS
 10
8.7814674953
 20
5.4133143042
 11
8.7814674953
 21
5.4123143042
  0
LINE
  5
76D
100
AcDbEntity
  8
AXIS
100
AcDbLine
 62
7
  6
CONTINUOUS
 10
8.7814674953
 20
5.3733143042
 11
8.7814674953
 21
5.3723143042
  0
LINE
  5
76E
100
AcDbEntity
  8
AXIS
100
AcDbLine
 62
7
  6
CONTINUOUS
 10
8.7814674953
 20
5.3333143042
 11
8.7814674953
 21
5.3323143042
  0
LINE
  5
76F
100
AcDbEntity
  8
AXIS
100
AcDbLine
 62
7
  6
CONTINUOUS
 10
8.7814674953
 20
5.2933143042
 11
8.7814674953
 21
5.2923143042
  0
LINE
  5
770
100
AcDbEntity
  8
AXIS
100
AcDbLine
 62
7
  6
CONTINUOUS
 10
8.7814674953
 20
5.2533143042
 11
8.7814674953
 21
5.2523143042
  0
LINE
  5
771
100
AcDbEntity
  8
AXIS
100
AcDbLine
 62
7
  6
CONTINUOUS
 10
8.7814674953
 20
5.2133143042
 11
8.7814674953
 21
5.2123143042
  0
LINE
  5
772
100
AcDbEntity
  8
AXIS
100
AcDbLine
 62
7
  6
CONTINUOUS
 10
8.7814674953
 20
5.1733143042
 11
8.7814674953
 21
5.1723143042
  0
LINE
  5
773
100
AcDbEntity
  8
AXIS
100
AcDbLine
 62
7
  6
CONTINUOUS
 10
8.7814674953
 20
5.1333143042
 11
8.7814674953
 21
5.1323143042
  0
LINE
  5
774
100
AcDbEntity
  8
AXIS
100
AcDbLine
 62
7
  6
CONTINUOUS
 10
8.7814674953
 20
5.0933143042
 11
8.7814674953
 21
5.0923143042
  0
LINE
  5
775
100
AcDbEntity
  8
AXIS
100
AcDbLine
 62
7
  6
CONTINUOUS
 10
8.7814674953
 20
5.0533143042
 11
8.7814674953
 21
5.0523143042
  0
LINE
  5
776
100
AcDbEntity
  8
AXIS
100
AcDbLine
 62
7
  6
CONTINUOUS
 10
8.7814674953
 20
5.0133143042
 11
8.7814674953
 21
5.0123143042
  0
LINE
  5
777
100
AcDbEntity
  8
AXIS
100
AcDbLine
 62
7
  6
CONTINUOUS
 10
8.7814674953
 20
4.9733143042
 11
8.7814674953
 21
4.2633143042
  0
LINE
  5
778
100
AcDbEntity
  8
0
100
AcDbLine
 62
7
  6
CONTINUOUS
 10
8.8150743311
 20
4.9926200601
 11
8.8150743311
 21
4.9930085483
  0
LINE
  5
779
100
AcDbEntity
  8
0
100
AcDbLine
 62
7
  6
CONTINUOUS
 10
8.8150743311
 20
5.0326200601
 11
8.8150743311
 21
5.0330085483
  0
LINE
  5
77A
100
AcDbEntity
  8
0
100
AcDbLine
 62
7
  6
CONTINUOUS
 10
8.8150743311
 20
5.0726200601
 11
8.8150743311
 21
5.0730085483
  0
LINE
  5
77B
100
AcDbEntity
  8
0
100
AcDbLine
 62
7
  6
CONTINUOUS
 10
8.8150743311
 20
5.1126200601
 11
8.8150743311
 21
5.1130085483
  0
LINE
  5
77C
100
AcDbEntity
  8
0
100
AcDbLine
 62
7
  6
CONTINUOUS
 10
8.8150743311
 20
5.1526200601
 11
8.8150743311
 21
5.1530085483
  0
LINE
  5
77D
100
AcDbEntity
  8
0
100
AcDbLine
 62
7
  6
CONTINUOUS
 10
8.8150743311
 20
5.1926200601
 11
8.8150743311
 21
5.1930085483
  0
LINE
  5
77E
100
AcDbEntity
  8
0
100
AcDbLine
 62
7
  6
CONTINUOUS
 10
8.8150743311
 20
5.2326200601
 11
8.8150743311
 21
5.2330085483
  0
LINE
  5
77F
100
AcDbEntity
  8
0
100
AcDbLine
 62
7
  6
CONTINUOUS
 10
8.8150743311
 20
5.2726200601
 11
8.8150743311
 21
5.2730085483
  0
LINE
  5
780
100
AcDbEntity
  8
0
100
AcDbLine
 62
7
  6
CONTINUOUS
 10
8.8150743311
 20
5.3526200601
 11
8.8150743311
 21
5.3530085483
  0
LINE
  5
781
100
AcDbEntity
  8
0
100
AcDbLine
 62
7
  6
CONTINUOUS
 10
8.8150743311
 20
5.4326200601
 11
8.8150743311
 21
5.4330085483
  0
LINE
  5
782
100
AcDbEntity
  8
0
100
AcDbLine
 62
7
  6
CONTINUOUS
 10
8.8150743311
 20
5.5126200601
 11
8.8150743311
 21
5.5130085483
  0
LINE
  5
783
100
AcDbEntity
  8
0
100
AcDbLine
 62
7
  6
CONTINUOUS
 10
8.8150743311
 20
5.5926200601
 11
8.8150743311
 21
5.5930085483
  0
LINE
  5
784
100
AcDbEntity
  8
0
100
AcDbLine
 62
7
  6
CONTINUOUS
 10
8.8150743311
 20
5.6726200601
 11
8.8150743311
 21
5.6730085483
  0
LINE
  5
785
100
AcDbEntity
  8
0
100
AcDbLine
 62
7
  6
CONTINUOUS
 10
8.8150743311
 20
5.7526200601
 11
8.8150743311
 21
5.7530085483
  0
LINE
  5
786
100
AcDbEntity
  8
0
100
AcDbLine
 62
7
  6
CONTINUOUS
 10
8.8150743311
 20
5.8326200601
 11
8.8150743311
 21
5.8330085483
  0
LINE
  5
787
100
AcDbEntity
  8
0
100
AcDbLine
 62
7
  6
CONTINUOUS
 10
8.8150743311
 20
5.9126200601
 11
8.8150743311
 21
5.9130085483
  0
LINE
  5
788
100
AcDbEntity
  8
0
100
AcDbLine
 62
7
  6
CONTINUOUS
 10
8.8150743311
 20
5.9926200601
 11
8.8150743311
 21
5.9930085483
  0
LINE
  5
789
100
AcDbEntity
  8
0
100
AcDbLine
 62
7
  6
CONTINUOUS
 10
8.8150743311
 20
6.0726200601
 11
8.8150743311
 21
6.0730085483
  0
LINE
  5
78A
100
AcDbEntity
  8
0
100
AcDbLine
 62
7
  6
CONTINUOUS
 10
8.8150743311
 20
6.1526200601
 11
8.8150743311
 21
6.1530085483
  0
LINE
  5
78B
100
AcDbEntity
  8
0
100
AcDbLine
 62
7
  6
CONTINUOUS
 10
8.8150743311
 20
6.2326200601
 11
8.8150743311
 21
6.2330085483
  0
LINE
  5
78C
100
AcDbEntity
  8
0
100
AcDbLine
 62
7
  6
CONTINUOUS
 10
8.8150743311
 20
6.3126200601
 11
8.8150743311
 21
6.3130085483
  0
LINE
  5
78D
100
AcDbEntity
  8
0
100
AcDbLine
 62
7
  6
CONTINUOUS
 10
8.8150743311
 20
6.3926200601
 11
8.8150743311
 21
6.3930085483
  0
LINE
  5
78E
100
AcDbEntity
  8
0
100
AcDbLine
 62
7
  6
CONTINUOUS
 10
8.8150743311
 20
6.4326200601
 11
8.8150743311
 21
6.4330085483
  0
LINE
  5
78F
100
AcDbEntity
  8
0
100
AcDbLine
 62
7
  6
CONTINUOUS
 10
8.8150743311
 20
6.4726200601
 11
8.8150743311
 21
6.4730085483
  0
LINE
  5
790
100
AcDbEntity
  8
0
100
AcDbLine
 62
7
  6
CONTINUOUS
 10
8.8150743311
 20
6.5126200601
 11
8.8150743311
 21
6.5130085483
  0
LINE
  5
791
100
AcDbEntity
  8
0
100
AcDbLine
 62
7
  6
CONTINUOUS
 10
8.8150743311
 20
6.5526200601
 11
8.8150743311
 21
6.5530085483
  0
LINE
  5
792
100
AcDbEntity
  8
0
100
AcDbLine
 62
7
  6
CONTINUOUS
 10
8.8150743311
 20
6.5926200601
 11
8.8150743311
 21
6.5930085483
  0
LINE
  5
793
100
AcDbEntity
  8
0
100
AcDbLine
 62
7
  6
CONTINUOUS
 10
8.7812820266
 20
4.9731000421
 11
8.8150743311
 21
4.9926200601
  0
LWPOLYLINE
  5
794
100
AcDbEntity
  8
0
100
AcDbPolyline
 62
7
  6
CONTINUOUS
 90
20
 70
0
 10
8.0928606596
 20
5.4130085483
 10
8.0952258101
 20
5.4135686562
 10
8.1078465325
 20
5.4146647233
 10
8.130701807
 20
5.4157607904
 10
8.1631158193
 20
5.4168568574
 10
8.2041301101
 20
5.4179529245
 10
8.2525319157
 20
5.4190489915
 10
8.306890029
 20
5.4201450586
 10
8.3655971189
 20
5.4212411256
 10
8.4269172584
 20
5.4223371927
 10
8.4890372543
 20
5.4234332597
 10
8.5501202623
 20
5.4245293268
 10
8.6083601008
 20
5.4256253938
 10
8.6620346592
 20
5.4267214609
 10
8.7095568187
 20
5.4278175279
 10
8.7495213826
 20
5.428913595
 10
8.780746627
 20
5.430009662
 10
8.8023092435
 20
5.4311057291
 10
8.8135716408
 20
5.4322017962
 10
8.8150743311
 20
5.4326200601
  0
LWPOLYLINE
  5
795
100
AcDbEntity
  8
0
100
AcDbPolyline
 62
7
  6
CONTINUOUS
 90
20
 70
0
 10
8.0928606596
 20
5.4930085483
 10
8.0953130534
 20
5.4935815511
 10
8.1080569593
 20
5.4946776182
 10
8.1310291951
 20
5.4957736853
 10
8.1635504882
 20
5.4968697523
 10
8.2046592068
 20
5.4979658194
 10
8.2531397953
 20
5.4990618864
 10
8.3075587169
 20
5.5001579535
 10
8.3663068425
 20
5.5012540205
 10
8.4276470317
 20
5.5023500876
 10
8.4897654983
 20
5.5034461546
 10
8.5508254433
 20
5.5045422217
 10
8.6090213673
 20
5.5056382887
 10
8.6626324579
 20
5.5067343558
 10
8.7100734731
 20
5.5078304228
 10
8.7499416156
 20
5.5089264899
 10
8.7810580127
 20
5.510022557
 10
8.8025025744
 20
5.511118624
 10
8.8136412002
 20
5.5122146911
 10
8.8150743311
 20
5.5126200601
  0
LWPOLYLINE
  5
796
100
AcDbEntity
  8
0
100
AcDbPolyline
 62
7
  6
CONTINUOUS
 90
10
 70
0
 10
8.7814674953
 20
5.5723142916
 10
8.7765269437
 20
5.5712071078
 10
8.7619319182
 20
5.5701043391
 10
8.7377627908
 20
5.568987663
 10
8.7045335105
 20
5.5678603863
 10
8.6637313131
 20
5.566739763
 10
8.6171116357
 20
5.5656340468
 10
8.5653005356
 20
5.5645224952
 10
8.510412806
 20
5.5634170379
 10
8.3971257064
 20
5.5612037456
  0
LWPOLYLINE
  5
797
100
AcDbEntity
  8
0
100
AcDbPolyline
 62
7
  6
CONTINUOUS
 90
10
 70
0
 10
8.7814674953
 20
5.6523143185
 10
8.7765241914
 20
5.6512067987
 10
8.7618765274
 20
5.6501011763
 10
8.7376878355
 20
5.6489847447
 10
8.7044471906
 20
5.6478577811
 10
8.6636409111
 20
5.646737475
 10
8.6170974967
 20
5.6456337298
 10
8.5657321
 20
5.6445314178
 10
8.5106418853
 20
5.6434215588
 10
8.397072251
 20
5.6412026904
  0
LWPOLYLINE
  5
798
100
AcDbEntity
  8
0
100
AcDbPolyline
 62
7
  6
CONTINUOUS
 90
9
 70
0
 10
8.1264674953
 20
5.4733143042
 10
8.1315315578
 20
5.4744352903
 10
8.1462471205
 20
5.4755381717
 10
8.1701566839
 20
5.4766403411
 10
8.2029811165
 20
5.4777555172
 10
8.2433610822
 20
5.4788674875
 10
8.2896718356
 20
5.4799687162
 10
8.3416300868
 20
5.4810853408
 10
8.3972563702
 20
5.4822063246
  0
LWPOLYLINE
  5
799
100
AcDbEntity
  8
0
100
AcDbPolyline
 62
7
  6
CONTINUOUS
 90
9
 70
0
 10
8.1264674953
 20
5.5133143042
 10
8.131548244
 20
5.5144371404
 10
8.1463268037
 20
5.5155426929
 10
8.1701804946
 20
5.5166412685
 10
8.2027494694
 20
5.517748503
 10
8.2429832989
 20
5.518857892
 10
8.2893302825
 20
5.5199610385
 10
8.3413798342
 20
5.5210801613
 10
8.3971257064
 20
5.5222037456
  0
LWPOLYLINE
  5
79A
100
AcDbEntity
  8
0
100
AcDbPolyline
 62
7
  6
CONTINUOUS
 90
10
 70
0
 10
8.1266058183
 20
5.4334993384
 10
8.133035764
 20
5.4345914588
 10
8.148625548
 20
5.4356695425
 10
8.1733399119
 20
5.4367623215
 10
8.2065879795
 20
5.4378635709
 10
8.2469124125
 20
5.4389571058
 10
8.2927960114
 20
5.4400386978
 10
8.3439817714
 20
5.44113394
 10
8.3985106844
 20
5.4422310725
 10
8.5105928851
 20
5.4444205917
  0
LWPOLYLINE
  5
79B
100
AcDbEntity
  8
0
100
AcDbPolyline
 62
7
  6
CONTINUOUS
 90
19
 70
0
 10
8.0928606596
 20
5.4530085483
 10
8.100300774
 20
5.4541231372
 10
8.1181649692
 20
5.4552192043
 10
8.1459586076
 20
5.4563152713
 10
8.1828598512
 20
5.4574113384
 10
8.227777556
 20
5.4585074054
 10
8.2793835375
 20
5.4596034725
 10
8.3361518432
 20
5.4606995395
 10
8.3964038744
 20
5.4617956066
 10
8.4583580211
 20
5.4628916737
 10
8.5201823431
 20
5.4639877407
 10
8.5800487389
 20
5.4650838078
 10
8.6361870015
 20
5.4661798748
 10
8.6869371621
 20
5.4672759419
 10
8.7307985744
 20
5.4683720089
 10
8.7664742873
 20
5.469468076
 10
8.7929093954
 20
5.470564143
 10
8.8093222312
 20
5.4716602101
 10
8.8150743311
 20
5.4726200601
  0
LWPOLYLINE
  5
79C
100
AcDbEntity
  8
0
100
AcDbPolyline
 62
7
  6
CONTINUOUS
 90
19
 70
0
 10
8.0928606596
 20
5.5330085483
 10
8.1004508876
 20
5.5341360321
 10
8.1184355648
 20
5.5352320992
 10
8.146341684
 20
5.5363281662
 10
8.1833440809
 20
5.5374242333
 10
8.2283486209
 20
5.5385203003
 10
8.2800245514
 20
5.5396163674
 10
8.3368438519
 20
5.5407124344
 10
8.3971264156
 20
5.5418085015
 10
8.4590897299
 20
5.5429045686
 10
8.5209015833
 20
5.5440006356
 10
8.5807342431
 20
5.5450967027
 10
8.6368184998
 20
5.5461927697
 10
8.6874959815
 20
5.5472888368
 10
8.7312681911
 20
5.5483849038
 10
8.7668408151
 20
5.5494809709
 10
8.7931619962
 20
5.5505770379
 10
8.8094534358
 20
5.551673105
 10
8.8150743311
 20
5.5526200601
  0
LWPOLYLINE
  5
79D
100
AcDbEntity
  8
0
100
AcDbPolyline
 62
7
  6
CONTINUOUS
 90
10
 70
0
 10
8.7808947652
 20
5.6119377498
 10
8.773094899
 20
5.6108716935
 10
8.7564150031
 20
5.6098080617
 10
8.730893091
 20
5.6087291402
 10
8.6972208922
 20
5.6076439628
 10
8.6568711136
 20
5.6065680266
 10
8.6113298801
 20
5.6055051698
 10
8.5613726033
 20
5.6044414898
 10
8.5084382854
 20
5.6033780931
 10
8.3970677482
 20
5.6012026015
  0
LWPOLYLINE
  5
79E
100
AcDbEntity
  8
0
100
AcDbPolyline
 62
7
  6
CONTINUOUS
 90
9
 70
0
 10
8.3971257064
 20
5.5612037456
 10
8.3413798342
 20
5.5600801613
 10
8.2893302825
 20
5.5589610385
 10
8.2429832989
 20
5.557857892
 10
8.2027494694
 20
5.556748503
 10
8.1701804946
 20
5.5556412685
 10
8.1463268037
 20
5.5545426929
 10
8.131548244
 20
5.5534371404
 10
8.1266529641
 20
5.5525285663
  0
LWPOLYLINE
  5
79F
100
AcDbEntity
  8
0
100
AcDbPolyline
 62
7
  6
CONTINUOUS
 90
10
 70
0
 10
8.510305933
 20
5.5234149289
 10
8.3972563702
 20
5.5212063246
 10
8.3416300868
 20
5.5200853408
 10
8.2896718356
 20
5.5189687162
 10
8.2433610822
 20
5.5178674875
 10
8.2029811165
 20
5.5167555172
 10
8.1701566839
 20
5.5156403411
 10
8.1462471205
 20
5.5145381717
 10
8.1315315578
 20
5.5134352903
 10
8.1266529641
 20
5.5125285663
  0
LWPOLYLINE
  5
7A0
100
AcDbEntity
  8
0
100
AcDbPolyline
 62
7
  6
CONTINUOUS
 90
10
 70
0
 10
8.3971257064
 20
5.5222037456
 10
8.510412806
 20
5.5244170379
 10
8.5653005356
 20
5.5255224952
 10
8.6171116357
 20
5.5266340468
 10
8.6637313131
 20
5.527739763
 10
8.7045335105
 20
5.5288603863
 10
8.7377627908
 20
5.529987663
 10
8.7619319182
 20
5.5311043391
 10
8.7765269437
 20
5.5322071078
 10
8.7812820266
 20
5.5331000421
  0
LWPOLYLINE
  5
7A1
100
AcDbEntity
  8
0
100
AcDbPolyline
 62
7
  6
CONTINUOUS
 90
11
 70
0
 10
8.3970677482
 20
5.5622026015
 10
8.5084382854
 20
5.5643780931
 10
8.5613726033
 20
5.5654414898
 10
8.6113298801
 20
5.5665051698
 10
8.6568711136
 20
5.5675680266
 10
8.6972208922
 20
5.5686439628
 10
8.730893091
 20
5.5697291402
 10
8.7564150031
 20
5.5708080617
 10
8.773094899
 20
5.5718716935
 10
8.7808947652
 20
5.5729377498
 10
8.7812820266
 20
5.5731000421
  0
LINE
  5
7A2
100
AcDbEntity
  8
0
100
AcDbLine
 62
7
  6
CONTINUOUS
 10
8.8150743311
 20
5.3530085483
 11
8.7812820266
 21
5.3725285663
  0
LINE
  5
7A3
100
AcDbEntity
  8
0
100
AcDbLine
 62
7
  6
CONTINUOUS
 10
8.0928606596
 20
5.7726200601
 11
8.1266529641
 21
5.7531000421
  0
LINE
  5
7A4
100
AcDbEntity
  8
0
100
AcDbLine
 62
7
  6
CONTINUOUS
 10
8.8150743311
 20
5.3930085483
 11
8.7812820266
 21
5.4125285663
  0
LINE
  5
7A5
100
AcDbEntity
  8
0
100
AcDbLine
 62
7
  6
CONTINUOUS
 10
8.0928606596
 20
5.8126200601
 11
8.1266529641
 21
5.7931000421
  0
LINE
  5
7A6
100
AcDbEntity
  8
0
100
AcDbLine
 62
7
  6
CONTINUOUS
 10
8.8150743311
 20
5.4330085483
 11
8.7812820266
 21
5.4525285663
  0
LINE
  5
7A7
100
AcDbEntity
  8
0
100
AcDbLine
 62
7
  6
CONTINUOUS
 10
8.0928606596
 20
5.8526200601
 11
8.1266529641
 21
5.8331000421
  0
LWPOLYLINE
  5
7A8
100
AcDbEntity
  8
0
100
AcDbPolyline
 62
7
  6
CONTINUOUS
 90
20
 70
0
 10
8.0928606596
 20
5.5730085483
 10
8.0954017681
 20
5.5735944461
 10
8.1082688052
 20
5.5746905131
 10
8.1313579082
 20
5.5757865802
 10
8.1639863486
 20
5.5768826472
 10
8.2051893264
 20
5.5779787143
 10
8.2537484989
 20
5.5790747813
 10
8.3082280055
 20
5.5801708484
 10
8.3670169257
 20
5.5812669154
 10
8.4283769128
 20
5.5823629825
 10
8.4904935954
 20
5.5834590495
 10
8.551530227
 20
5.5845551166
 10
8.6096819976
 20
5.5856511836
 10
8.6632294005
 20
5.5867472507
 10
8.7105890768
 20
5.5878433178
 10
8.7503606343
 20
5.5889393848
 10
8.7813680564
 20
5.5900354519
 10
8.8026944752
 20
5.5911315189
 10
8.8137092839
 20
5.592227586
 10
8.8150743311
 20
5.5926200601
  0
LWPOLYLINE
  5
7A9
100
AcDbEntity
  8
0
100
AcDbPolyline
 62
7
  6
CONTINUOUS
 90
9
 70
0
 10
8.7814674953
 20
5.6923143087
 10
8.7764710444
 20
5.6912008459
 10
8.7617954884
 20
5.690096557
 10
8.7376481598
 20
5.688983201
 10
8.7045010231
 20
5.6878594057
 10
8.6638270389
 20
5.6867421864
 10
8.6174958149
 20
5.6856426628
 10
8.5659836295
 20
5.6845366203
 10
8.5106419203
 20
5.6834215595
  0
LWPOLYLINE
  5
7AA
100
AcDbEntity
  8
0
100
AcDbPolyline
 62
7
  6
CONTINUOUS
 90
9
 70
0
 10
8.7814674953
 20
5.7323143042
 10
8.7764494624
 20
5.7311984375
 10
8.7617954349
 20
5.7300965539
 10
8.737753872
 20
5.7289873156
 10
8.7047802014
 20
5.7278678385
 10
8.6643332895
 20
5.7267550156
 10
8.6180554364
 20
5.7256552256
 10
8.5661488263
 20
5.724540038
 10
8.5105954352
 20
5.7234206421
  0
LWPOLYLINE
  5
7AB
100
AcDbEntity
  8
0
100
AcDbPolyline
 62
7
  6
CONTINUOUS
 90
9
 70
0
 10
8.1264674953
 20
5.5533143042
 10
8.131551996
 20
5.554437556
 10
8.1463554149
 20
5.5555443141
 10
8.1703376888
 20
5.5566473853
 10
8.2027522962
 20
5.5577485887
 10
8.242829611
 20
5.5588539849
 10
8.2891790726
 20
5.5599576377
 10
8.3412688307
 20
5.5610778633
 10
8.3970677482
 20
5.5622026015
  0
LWPOLYLINE
  5
7AC
100
AcDbEntity
  8
0
100
AcDbPolyline
 62
7
  6
CONTINUOUS
 90
9
 70
0
 10
8.1264674953
 20
5.5933143042
 10
8.1315462497
 20
5.5944369194
 10
8.1463439315
 20
5.5955436636
 10
8.1703928195
 20
5.5966495282
 10
8.2029037509
 20
5.5977531756
 10
8.2428614709
 20
5.598854795
 10
8.2891911059
 20
5.5999579084
 10
8.3412774237
 20
5.6010780412
 10
8.397072251
 20
5.6022026904
  0
LWPOLYLINE
  5
7AD
100
AcDbEntity
  8
0
100
AcDbPolyline
 62
7
  6
CONTINUOUS
 90
19
 70
0
 10
8.0928606596
 20
5.6130085483
 10
8.1006024516
 20
5.614148927
 10
8.1187075371
 20
5.6152449941
 10
8.1467260225
 20
5.6163410611
 10
8.183829421
 20
5.6174371282
 10
8.2289206114
 20
5.6185331952
 10
8.280666279
 20
5.6196292623
 10
8.3375363411
 20
5.6207253294
 10
8.39784919
 20
5.6218213964
 10
8.4598214176
 20
5.6229174635
 10
8.5216205489
 20
5.6240135305
 10
8.5814192272
 20
5.6251095976
 10
8.6374492479
 20
5.6262056646
 10
8.6880538429
 20
5.6273017317
 10
8.7317366701
 20
5.6283977987
 10
8.7672060592
 20
5.6294938658
 10
8.7934132054
 20
5.6305899328
 10
8.809583182
 20
5.6316859999
 10
8.8150743311
 20
5.6326200601
  0
LWPOLYLINE
  5
7AE
100
AcDbEntity
  8
0
100
AcDbPolyline
 62
7
  6
CONTINUOUS
 90
9
 70
0
 10
8.3970677482
 20
5.6012026015
 10
8.3412688307
 20
5.6000778633
 10
8.2891790726
 20
5.5989576377
 10
8.242829611
 20
5.5978539849
 10
8.2027522962
 20
5.5967485887
 10
8.1703376888
 20
5.5956473853
 10
8.1463554149
 20
5.5945443141
 10
8.131551996
 20
5.593437556
 10
8.1266529641
 20
5.5925285663
  0
LWPOLYLINE
  5
7AF
100
AcDbEntity
  8
0
100
AcDbPolyline
 62
7
  6
CONTINUOUS
 90
9
 70
0
 10
8.397072251
 20
5.6412026904
 10
8.3412774237
 20
5.6400780412
 10
8.2891911059
 20
5.6389579084
 10
8.2428614709
 20
5.637854795
 10
8.2029037509
 20
5.6367531756
 10
8.1703928195
 20
5.6356495282
 10
8.1463439315
 20
5.6345436636
 10
8.1315462497
 20
5.6334369194
 10
8.1266529641
 20
5.6325285663
  0
LINE
  5
7B0
100
AcDbEntity
  8
0
100
AcDbLine
 62
7
  6
CONTINUOUS
 10
8.3414111896
 20
5.6410808103
 11
8.3971421338
 21
5.6422040698
  0
LWPOLYLINE
  5
7B1
100
AcDbEntity
  8
0
100
AcDbPolyline
 62
7
  6
CONTINUOUS
 90
10
 70
0
 10
8.397072251
 20
5.6022026904
 10
8.5106418853
 20
5.6044215588
 10
8.5657321
 20
5.6055314178
 10
8.6170974967
 20
5.6066337298
 10
8.6636409111
 20
5.607737475
 10
8.7044471906
 20
5.6088577811
 10
8.7376878355
 20
5.6099847447
 10
8.7618765274
 20
5.6111011763
 10
8.7765241914
 20
5.6122067987
 10
8.7812820266
 20
5.6131000421
  0
LWPOLYLINE
  5
7B2
100
AcDbEntity
  8
0
100
AcDbPolyline
 62
7
  6
CONTINUOUS
 90
10
 70
0
 10
8.3971421338
 20
5.6422040698
 10
8.5106419203
 20
5.6444215595
 10
8.5659836295
 20
5.6455366203
 10
8.6174958149
 20
5.6466426628
 10
8.6638270389
 20
5.6477421864
 10
8.7045010231
 20
5.6488594057
 10
8.7376481598
 20
5.649983201
 10
8.7617954884
 20
5.651096557
 10
8.7764710444
 20
5.6522008459
 10
8.7812820266
 20
5.6531000421
  0
LWPOLYLINE
  5
7B3
100
AcDbEntity
  8
0
100
AcDbPolyline
 62
7
  6
CONTINUOUS
 90
10
 70
0
 10
8.5106419203
 20
5.6834215595
 10
8.3971421338
 20
5.6812040698
 10
8.3414111896
 20
5.6800808103
 10
8.289374438
 20
5.6789620314
 10
8.243093733
 20
5.6778606982
 10
8.2031338573
 20
5.6767601371
 10
8.1703681742
 20
5.6756485704
 10
8.1462849364
 20
5.6745403185
 10
8.1315273039
 20
5.6734348181
 10
8.1266529641
 20
5.6725285663
  0
LWPOLYLINE
  5
7B4
100
AcDbEntity
  8
0
100
AcDbPolyline
 62
7
  6
CONTINUOUS
 90
10
 70
0
 10
8.3972846714
 20
5.6822068831
 10
8.5105954352
 20
5.6844206421
 10
8.5661488263
 20
5.685540038
 10
8.6180554364
 20
5.6866552256
 10
8.6643332895
 20
5.6877550156
 10
8.7047802014
 20
5.6888678385
 10
8.737753872
 20
5.6899873156
 10
8.7617954349
 20
5.6910965539
 10
8.7764494624
 20
5.6921984375
 10
8.7812820266
 20
5.6931000421
  0
LINE
  5
7B5
100
AcDbEntity
  8
0
100
AcDbLine
 62
7
  6
CONTINUOUS
 10
8.8150743311
 20
5.4730085483
 11
8.7812820266
 21
5.4925285663
  0
LINE
  5
7B6
100
AcDbEntity
  8
0
100
AcDbLine
 62
7
  6
CONTINUOUS
 10
8.0928606596
 20
5.8926200601
 11
8.1266529641
 21
5.8731000421
  0
LINE
  5
7B7
100
AcDbEntity
  8
0
100
AcDbLine
 62
7
  6
CONTINUOUS
 10
8.8150743311
 20
5.5130085483
 11
8.7812820266
 21
5.5325285663
  0
LINE
  5
7B8
100
AcDbEntity
  8
0
100
AcDbLine
 62
7
  6
CONTINUOUS
 10
8.0928606596
 20
5.9326200601
 11
8.1266529641
 21
5.9131000421
  0
LINE
  5
7B9
100
AcDbEntity
  8
0
100
AcDbLine
 62
7
  6
CONTINUOUS
 10
8.8150743311
 20
5.5530085483
 11
8.7812820266
 21
5.5725285663
  0
LINE
  5
7BA
100
AcDbEntity
  8
0
100
AcDbLine
 62
7
  6
CONTINUOUS
 10
8.0928606596
 20
5.9726200601
 11
8.1266529641
 21
5.9531000421
  0
LWPOLYLINE
  5
7BB
100
AcDbEntity
  8
0
100
AcDbPolyline
 62
7
  6
CONTINUOUS
 90
20
 70
0
 10
8.0928606596
 20
5.6530085483
 10
8.0954919539
 20
5.653607341
 10
8.1084820695
 20
5.654703408
 10
8.1316879449
 20
5.6557994751
 10
8.1644233987
 20
5.6568955421
 10
8.2057204667
 20
5.6579916092
 10
8.2543580239
 20
5.6590876762
 10
8.308897892
 20
5.6601837433
 10
8.3677273656
 20
5.6612798103
 10
8.429106899
 20
5.6623758774
 10
8.4912215426
 20
5.6634719444
 10
8.5522346104
 20
5.6645680115
 10
8.6103419891
 20
5.6656640786
 10
8.6638254845
 20
5.6667601456
 10
8.7111036276
 20
5.6678562127
 10
8.750778437
 20
5.6689522797
 10
8.7816767568
 20
5.6700483468
 10
8.8028849454
 20
5.6711444138
 10
8.8137758917
 20
5.6722404809
 10
8.8150743311
 20
5.6726200601
  0
LWPOLYLINE
  5
7BC
100
AcDbEntity
  8
0
100
AcDbPolyline
 62
7
  6
CONTINUOUS
 90
9
 70
0
 10
8.1264674953
 20
5.7133143031
 10
8.1314831709
 20
5.7144299081
 10
8.1461650042
 20
5.7155335032
 10
8.1702926386
 20
5.7166456334
 10
8.2034012615
 20
5.7177682155
 10
8.2440256132
 20
5.7188843369
 10
8.2902980865
 20
5.7199827797
 10
8.3419115781
 20
5.7210911651
 10
8.397307201
 20
5.7222073278
  0
LWPOLYLINE
  5
7BD
100
AcDbEntity
  8
0
100
AcDbPolyline
 62
7
  6
CONTINUOUS
 90
9
 70
0
 10
8.1264674953
 20
5.6733143042
 10
8.131495569
 20
5.6744312896
 10
8.1461763127
 20
5.6755341467
 10
8.1702334829
 20
5.6766433316
 10
8.2031731742
 20
5.6777613256
 10
8.243508017
 20
5.6788712163
 10
8.2897476965
 20
5.6799704207
 10
8.3416841799
 20
5.6810864602
 10
8.3972846714
 20
5.6822068831
  0
LWPOLYLINE
  5
7BE
100
AcDbEntity
  8
0
100
AcDbPolyline
 62
7
  6
CONTINUOUS
 90
8
 70
0
 10
8.1264674953
 20
5.6333143042
 10
8.1315273039
 20
5.6344348181
 10
8.1462849364
 20
5.6355403185
 10
8.1703681742
 20
5.6366485704
 10
8.2031338573
 20
5.6377601371
 10
8.243093733
 20
5.6388606982
 10
8.289374438
 20
5.6399620314
 10
8.3414111896
 20
5.6410808103
  0
LWPOLYLINE
  5
7BF
100
AcDbEntity
  8
0
100
AcDbPolyline
 62
7
  6
CONTINUOUS
 90
9
 70
0
 10
8.7814674953
 20
5.8123143042
 10
8.7763962799
 20
5.8111925247
 10
8.7616148533
 20
5.8100862934
 10
8.7375405751
 20
5.8089790182
 10
8.704890339
 20
5.807871169
 10
8.6649814234
 20
5.8067714721
 10
8.6186721058
 20
5.8056690856
 10
8.5666009404
 20
5.8045493949
 10
8.5108314514
 20
5.8034253004
  0
LWPOLYLINE
  5
7C0
100
AcDbEntity
  8
0
100
AcDbPolyline
 62
7
  6
CONTINUOUS
 90
9
 70
0
 10
8.7814674953
 20
5.8523143042
 10
8.7763836193
 20
5.8511911216
 10
8.7615803545
 20
5.8500843384
 10
8.7375707664
 20
5.8489801915
 10
8.7051440837
 20
5.84787885
 10
8.6651087633
 20
5.8467747096
 10
8.618762431
 20
5.8456711172
 10
8.5666667892
 20
5.8445507581
 10
8.5108658582
 20
5.8434259796
  0
LWPOLYLINE
  5
7C1
100
AcDbEntity
  8
0
100
AcDbPolyline
 62
7
  6
CONTINUOUS
 90
19
 70
0
 10
8.0928606596
 20
5.6930085483
 10
8.1007554654
 20
5.6941618219
 10
8.1189808848
 20
5.695257889
 10
8.1471116214
 20
5.696353956
 10
8.1843158693
 20
5.6974500231
 10
8.2294935252
 20
5.6985460902
 10
8.2813087176
 20
5.6996421572
 10
8.338229308
 20
5.7007382243
 10
8.3985721947
 20
5.7018342913
 10
8.4605530814
 20
5.7029303584
 10
8.5223392369
 20
5.7040264254
 10
8.5821036883
 20
5.7051224925
 10
8.6380792432
 20
5.7062185595
 10
8.6886107438
 20
5.7073146266
 10
8.7322040094
 20
5.7084106936
 10
8.7675700181
 20
5.7095067607
 10
8.7936630219
 20
5.7106028277
 10
8.8097114691
 20
5.7116988948
 10
8.8150743311
 20
5.7126200601
  0
LWPOLYLINE
  5
7C2
100
AcDbEntity
  8
0
100
AcDbPolyline
 62
7
  6
CONTINUOUS
 90
10
 70
0
 10
8.7806228631
 20
5.7718569879
 10
8.7721368587
 20
5.7707910175
 10
8.7550355602
 20
5.7697390561
 10
8.7294737504
 20
5.7686777868
 10
8.6962592078
 20
5.7676161105
 10
8.656801096
 20
5.7665662929
 10
8.6117030369
 20
5.7655134439
 10
8.5615230988
 20
5.7644445868
 10
8.5081863568
 20
5.7633731271
 10
8.397307201
 20
5.7612073278
  0
LWPOLYLINE
  5
7C3
100
AcDbEntity
  8
0
100
AcDbPolyline
 62
7
  6
CONTINUOUS
 90
9
 70
0
 10
8.397307201
 20
5.7612073278
 10
8.3419115781
 20
5.7600911651
 10
8.2902980865
 20
5.7589827797
 10
8.2440256132
 20
5.7578843369
 10
8.2034012615
 20
5.7567682155
 10
8.1702926386
 20
5.7556456334
 10
8.1461650042
 20
5.7545335032
 10
8.1314831709
 20
5.7534299081
 10
8.1266529641
 20
5.7525285663
  0
LWPOLYLINE
  5
7C4
100
AcDbEntity
  8
0
100
AcDbPolyline
 62
7
  6
CONTINUOUS
 90
10
 70
0
 10
8.5105954352
 20
5.7234206421
 10
8.3972846714
 20
5.7212068831
 10
8.3416841799
 20
5.7200864602
 10
8.2897476965
 20
5.7189704207
 10
8.243508017
 20
5.7178712163
 10
8.2031731742
 20
5.7167613256
 10
8.1702334829
 20
5.7156433316
 10
8.1461763127
 20
5.7145341467
 10
8.131495569
 20
5.7134312896
 10
8.1266529641
 20
5.7125285663
  0
LWPOLYLINE
  5
7C5
100
AcDbEntity
  8
0
100
AcDbPolyline
 62
7
  6
CONTINUOUS
 90
11
 70
0
 10
8.397307201
 20
5.7222073278
 10
8.5081863568
 20
5.7243731271
 10
8.5615230988
 20
5.7254445868
 10
8.6117030369
 20
5.7265134439
 10
8.656801096
 20
5.7275662929
 10
8.6962592078
 20
5.7286161105
 10
8.7294737504
 20
5.7296777868
 10
8.7550355602
 20
5.7307390561
 10
8.7721368587
 20
5.7317910175
 10
8.7806228631
 20
5.7328569879
 10
8.7812820266
 20
5.7331000421
  0
LWPOLYLINE
  5
7C6
100
AcDbEntity
  8
0
100
AcDbPolyline
 62
7
  6
CONTINUOUS
 90
10
 70
0
 10
8.3972778428
 20
5.7622067484
 10
8.5108314514
 20
5.7644253004
 10
8.5666009404
 20
5.7655493949
 10
8.6186721058
 20
5.7666690856
 10
8.6649814234
 20
5.7677714721
 10
8.704890339
 20
5.768871169
 10
8.7375405751
 20
5.7699790182
 10
8.7616148533
 20
5.7710862934
 10
8.7763962799
 20
5.7721925247
 10
8.7812820266
 20
5.7731000421
  0
LINE
  5
7C7
100
AcDbEntity
  8
0
100
AcDbLine
 62
7
  6
CONTINUOUS
 10
8.8150743311
 20
5.5930085483
 11
8.7812820266
 21
5.6125285663
  0
LINE
  5
7C8
100
AcDbEntity
  8
0
100
AcDbLine
 62
7
  6
CONTINUOUS
 10
8.0928606596
 20
6.0126200601
 11
8.1266529641
 21
5.9931000421
  0
LINE
  5
7C9
100
AcDbEntity
  8
0
100
AcDbLine
 62
7
  6
CONTINUOUS
 10
8.8150743311
 20
5.6330085483
 11
8.7812820266
 21
5.6525285663
  0
LINE
  5
7CA
100
AcDbEntity
  8
0
100
AcDbLine
 62
7
  6
CONTINUOUS
 10
8.0928606596
 20
6.0526200601
 11
8.1266529641
 21
6.0331000421
  0
LINE
  5
7CB
100
AcDbEntity
  8
0
100
AcDbLine
 62
7
  6
CONTINUOUS
 10
8.8150743311
 20
5.6730085483
 11
8.7812820266
 21
5.6925285663
  0
LINE
  5
7CC
100
AcDbEntity
  8
0
100
AcDbLine
 62
7
  6
CONTINUOUS
 10
8.0928606596
 20
6.0926200601
 11
8.1266529641
 21
6.0731000421
  0
LWPOLYLINE
  5
7CD
100
AcDbEntity
  8
0
100
AcDbPolyline
 62
7
  6
CONTINUOUS
 90
20
 70
0
 10
8.0928606596
 20
5.7330085483
 10
8.0955836105
 20
5.7336202359
 10
8.1086967512
 20
5.7347163029
 10
8.1320193038
 20
5.73581237
 10
8.1648616367
 20
5.736908437
 10
8.2062526255
 20
5.7380045041
 10
8.2549683678
 20
5.7391005711
 10
8.3095683737
 20
5.7401966382
 10
8.3684381594
 20
5.7412927052
 10
8.4298369872
 20
5.7423887723
 10
8.491949337
 20
5.7434848394
 10
8.5529385906
 20
5.7445809064
 10
8.611001339
 20
5.7456769735
 10
8.6644207075
 20
5.7467730405
 10
8.7116171234
 20
5.7478691076
 10
8.751195022
 20
5.7489651746
 10
8.7819841127
 20
5.7500612417
 10
8.803073984
 20
5.7511573087
 10
8.8138410233
 20
5.7522533758
 10
8.8150743311
 20
5.7526200601
  0
LWPOLYLINE
  5
7CE
100
AcDbEntity
  8
0
100
AcDbPolyline
 62
7
  6
CONTINUOUS
 90
9
 70
0
 10
8.1264674953
 20
5.7933142976
 10
8.1313981653
 20
5.79442039
 10
8.146030985
 20
5.7955258637
 10
8.1702240094
 20
5.7966429628
 10
8.203482866
 20
5.7977706784
 10
8.2443205863
 20
5.7988918041
 10
8.2909250933
 20
5.7999968422
 10
8.3423916466
 20
5.8011010937
 10
8.3973315955
 20
5.8022078092
  0
LWPOLYLINE
  5
7CF
100
AcDbEntity
  8
0
100
AcDbPolyline
 62
7
  6
CONTINUOUS
 90
9
 70
0
 10
8.1264674953
 20
5.8333143119
 10
8.1314011688
 20
5.8344207277
 10
8.1460038479
 20
5.8355243137
 10
8.170181482
 20
5.836641307
 10
8.2034258278
 20
5.8377689571
 10
8.2442502192
 20
5.8388900234
 10
8.2908837232
 20
5.8399959149
 10
8.3426405355
 20
5.8411062389
 10
8.39747332
 20
5.8422106062
  0
LWPOLYLINE
  5
7D0
100
AcDbEntity
  8
0
100
AcDbPolyline
 62
7
  6
CONTINUOUS
 90
9
 70
0
 10
8.1264674953
 20
5.7533142915
 10
8.1314333622
 20
5.7544243408
 10
8.1460955039
 20
5.7555295446
 10
8.1702659387
 20
5.7566445946
 10
8.2034663864
 20
5.7577701812
 10
8.2442189634
 20
5.7588892324
 10
8.290671178
 20
5.7599911495
 10
8.3420505602
 20
5.7610940401
 10
8.3972778428
 20
5.7622067484
  0
LWPOLYLINE
  5
7D1
100
AcDbEntity
  8
0
100
AcDbPolyline
 62
7
  6
CONTINUOUS
 90
20
 70
0
 10
8.0928606596
 20
5.8130085483
 10
8.0956767374
 20
5.8136331308
 10
8.1089128495
 20
5.8147291978
 10
8.1323519835
 20
5.8158252649
 10
8.1653010609
 20
5.8169213319
 10
8.2067858006
 20
5.818017399
 10
8.2555795282
 20
5.819113466
 10
8.3102394478
 20
5.8202095331
 10
8.3691493041
 20
5.8213056002
 10
8.4305671744
 20
5.8224016672
 10
8.4926769756
 20
5.8234977343
 10
8.5536421648
 20
5.8245938013
 10
8.6116600446
 20
5.8256898684
 10
8.6650150671
 20
5.8267859354
 10
8.7121295622
 20
5.8278820025
 10
8.7516103875
 20
5.8289780695
 10
8.7822901229
 20
5.8300741366
 10
8.8032615903
 20
5.8311702036
 10
8.8139046784
 20
5.8322662707
 10
8.8150743311
 20
5.8326200601
  0
LWPOLYLINE
  5
7D2
100
AcDbEntity
  8
0
100
AcDbPolyline
 62
7
  6
CONTINUOUS
 90
9
 70
0
 10
8.7814674953
 20
5.9723143042
 10
8.7764225753
 20
5.9711954444
 10
8.761750648
 20
5.9700940049
 10
8.7377238867
 20
5.968986148
 10
8.7047669127
 20
5.9678674368
 10
8.6643217901
 20
5.966754724
 10
8.6180391015
 20
5.9656548587
 10
8.566136707
 20
5.9645397872
 10
8.5105891152
 20
5.9634205173
  0
LWPOLYLINE
  5
7D3
100
AcDbEntity
  8
0
100
AcDbPolyline
 62
7
  6
CONTINUOUS
 90
9
 70
0
 10
8.7814674953
 20
5.8923143042
 10
8.7763839092
 20
5.8911911537
 10
8.7615957654
 20
5.8900852115
 10
8.7377121348
 20
5.8889856905
 10
8.7052067186
 20
5.8878807477
 10
8.6650141024
 20
5.8867723028
 10
8.6186621142
 20
5.8856688609
 10
8.5665930666
 20
5.8845492319
 10
8.5108273698
 20
5.8834252198
  0
LWPOLYLINE
  5
7D4
100
AcDbEntity
  8
0
100
AcDbPolyline
 62
7
  6
CONTINUOUS
 90
19
 70
0
 10
8.0928606596
 20
5.7730085483
 10
8.1009099283
 20
5.7741747168
 10
8.1192556069
 20
5.7752707839
 10
8.1474984794
 20
5.776366851
 10
8.184803424
 20
5.777462918
 10
8.2300673599
 20
5.7785589851
 10
8.2819518645
 20
5.7796550521
 10
8.3389227497
 20
5.7807511192
 10
8.3992954267
 20
5.7818471862
 10
8.4612847181
 20
5.7829432533
 10
8.5230576444
 20
5.7840393203
 10
8.5827876238
 20
5.7851353874
 10
8.6387084831
 20
5.7862314544
 10
8.689166682
 20
5.7873275215
 10
8.7326702073
 20
5.7884235885
 10
8.7679326904
 20
5.7895196556
 10
8.7939114447
 20
5.7906157227
 10
8.8098382967
 20
5.7917117897
 10
8.8150743311
 20
5.7926200601
  0
LWPOLYLINE
  5
7D5
100
AcDbEntity
  8
0
100
AcDbPolyline
 62
7
  6
CONTINUOUS
 90
3
 70
0
 10
8.7799384383
 20
5.9316988859
 10
8.7701463119
 20
5.9306355216
 10
8.7518719738
 20
5.9295870315
  0
LWPOLYLINE
  5
7D6
100
AcDbEntity
  8
0
100
AcDbPolyline
 62
7
  6
CONTINUOUS
 90
4
 70
0
 10
8.7518719738
 20
5.8905870315
 10
8.7701463119
 20
5.8916355216
 10
8.7799384383
 20
5.8926988859
 10
8.7812820266
 20
5.8931000421
  0
LWPOLYLINE
  5
7D7
100
AcDbEntity
  8
0
100
AcDbPolyline
 62
7
  6
CONTINUOUS
 90
4
 70
0
 10
8.782594786
 20
5.9100870315
 10
8.8034477636
 20
5.9111830985
 10
8.8139668567
 20
5.9122791656
 10
8.8150743311
 20
5.9126200601
  0
LWPOLYLINE
  5
7D8
100
AcDbEntity
  8
0
100
AcDbPolyline
 62
7
  6
CONTINUOUS
 90
10
 70
0
 10
8.5108314514
 20
5.8034253004
 10
8.3972778428
 20
5.8012067484
 10
8.3420505602
 20
5.8000940401
 10
8.290671178
 20
5.7989911495
 10
8.2442189634
 20
5.7978892324
 10
8.2034663864
 20
5.7967701812
 10
8.1702659387
 20
5.7956445946
 10
8.1460955039
 20
5.7945295446
 10
8.1314333622
 20
5.7934243408
 10
8.1266529641
 20
5.7925285663
  0
LWPOLYLINE
  5
7D9
100
AcDbEntity
  8
0
100
AcDbPolyline
 62
7
  6
CONTINUOUS
 90
10
 70
0
 10
8.3973315955
 20
5.8022078092
 10
8.5108658582
 20
5.8044259796
 10
8.5666667892
 20
5.8055507581
 10
8.618762431
 20
5.8066711172
 10
8.6651087633
 20
5.8077747096
 10
8.7051440837
 20
5.80887885
 10
8.7375707664
 20
5.8099801915
 10
8.7615803545
 20
5.8110843384
 10
8.7763836193
 20
5.8121911216
 10
8.7812820266
 20
5.8131000421
  0
LWPOLYLINE
  5
7DA
100
AcDbEntity
  8
0
100
AcDbPolyline
 62
7
  6
CONTINUOUS
 90
10
 70
0
 10
8.5108658582
 20
5.8434259796
 10
8.3973315955
 20
5.8412078092
 10
8.3423916466
 20
5.8401010937
 10
8.2909250933
 20
5.8389968422
 10
8.2443205863
 20
5.8378918041
 10
8.203482866
 20
5.8367706784
 10
8.1702240094
 20
5.8356429628
 10
8.146030985
 20
5.8345258637
 10
8.1313981653
 20
5.83342039
 10
8.1266529641
 20
5.8325285663
  0
LWPOLYLINE
  5
7DB
100
AcDbEntity
  8
0
100
AcDbPolyline
 62
7
  6
CONTINUOUS
 90
10
 70
0
 10
8.39747332
 20
5.8422106062
 10
8.5108273698
 20
5.8444252198
 10
8.5665930666
 20
5.8455492319
 10
8.6186621142
 20
5.8466688609
 10
8.6650141024
 20
5.8477723028
 10
8.7052067186
 20
5.8488807477
 10
8.7377121348
 20
5.8499856905
 10
8.7615957654
 20
5.8510852115
 10
8.7763839092
 20
5.8521911537
 10
8.7812820266
 20
5.8531000421
  0
LWPOLYLINE
  5
7DC
100
AcDbEntity
  8
0
100
AcDbPolyline
 62
7
  6
CONTINUOUS
 90
10
 70
0
 10
8.5108273698
 20
5.8834252198
 10
8.39747332
 20
5.8812106062
 10
8.3426405355
 20
5.8801062389
 10
8.2908837232
 20
5.8789959149
 10
8.2442502192
 20
5.8778900234
 10
8.2034258278
 20
5.8767689571
 10
8.170181482
 20
5.875641307
 10
8.1460038479
 20
5.8745243137
 10
8.1314011688
 20
5.8734207277
 10
8.1266529641
 20
5.8725285663
  0
LWPOLYLINE
  5
7DD
100
AcDbEntity
  8
0
100
AcDbPolyline
 62
7
  6
CONTINUOUS
 90
8
 70
0
 10
8.3976362608
 20
5.8822138217
 10
8.5070141999
 20
5.88435003
 10
8.5592650009
 20
5.8853981729
 10
8.6085825488
 20
5.8864444326
 10
8.6531228681
 20
5.8874757292
 10
8.6926083276
 20
5.8885115676
 10
8.7259598646
 20
5.8895533343
 10
8.7518719738
 20
5.8905870315
  0
LINE
  5
7DE
100
AcDbEntity
  8
0
100
AcDbLine
 62
7
  6
CONTINUOUS
 10
8.8150743311
 20
5.7130085483
 11
8.7812820266
 21
5.7325285663
  0
LINE
  5
7DF
100
AcDbEntity
  8
0
100
AcDbLine
 62
7
  6
CONTINUOUS
 10
8.0928606596
 20
6.1326200601
 11
8.1266529641
 21
6.1131000421
  0
LINE
  5
7E0
100
AcDbEntity
  8
0
100
AcDbLine
 62
7
  6
CONTINUOUS
 10
8.8150743311
 20
5.7530085483
 11
8.7812820266
 21
5.7725285663
  0
LINE
  5
7E1
100
AcDbEntity
  8
0
100
AcDbLine
 62
7
  6
CONTINUOUS
 10
8.0928606596
 20
6.1726200601
 11
8.1266529641
 21
6.1531000421
  0
LINE
  5
7E2
100
AcDbEntity
  8
0
100
AcDbLine
 62
7
  6
CONTINUOUS
 10
8.8150743311
 20
5.7930085483
 11
8.7812820266
 21
5.8125285663
  0
LINE
  5
7E3
100
AcDbEntity
  8
0
100
AcDbLine
 62
7
  6
CONTINUOUS
 10
8.0928606596
 20
6.2126200601
 11
8.1266529641
 21
6.1931000421
  0
LWPOLYLINE
  5
7E4
100
AcDbEntity
  8
0
100
AcDbPolyline
 62
7
  6
CONTINUOUS
 90
3
 70
0
 10
8.0928606596
 20
6.6126200601
 10
8.0926925516
 20
6.6128110575
 10
8.0928606596
 20
6.6130085483
  0
LWPOLYLINE
  5
7E5
100
AcDbEntity
  8
0
100
AcDbPolyline
 62
7
  6
CONTINUOUS
 90
10
 70
0
 10
8.7814674953
 20
6.0523142903
 10
8.7765234303
 20
6.0512067132
 10
8.7619318037
 20
6.0501043325
 10
8.7377678086
 20
6.0489878584
 10
8.7045466631
 20
6.0478607834
 10
8.6637547044
 20
6.0467403551
 10
8.6171423834
 20
6.0456347361
 10
8.5653125095
 20
6.0445227427
 10
8.5103918222
 20
6.0434166238
 10
8.3971362962
 20
6.0412039546
  0
LWPOLYLINE
  5
7E6
100
AcDbEntity
  8
0
100
AcDbPolyline
 62
7
  6
CONTINUOUS
 90
9
 70
0
 10
8.1264674953
 20
5.8733143158
 10
8.1314403581
 20
5.8744251244
 10
8.1460117548
 20
5.8755247654
 10
8.1701350357
 20
5.8766394977
 10
8.2032911303
 20
5.8777648899
 10
8.2440031226
 20
5.8788837673
 10
8.2905465008
 20
5.8799883533
 10
8.342451269
 20
5.8811023264
 10
8.3976362608
 20
5.8822138217
  0
LWPOLYLINE
  5
7E7
100
AcDbEntity
  8
0
100
AcDbPolyline
 62
7
  6
CONTINUOUS
 90
9
 70
0
 10
8.7814674953
 20
6.0123142986
 10
8.7764754508
 20
6.0112013382
 10
8.7619075295
 20
6.010102946
 10
8.737809981
 20
6.0089895014
 10
8.7047021963
 20
6.007865481
 10
8.6640571474
 20
6.006748015
 10
8.617576974
 20
6.0056444839
 10
8.5656476185
 20
6.0045296708
 10
8.5103203961
 20
6.0034152143
  0
LWPOLYLINE
  5
7E8
100
AcDbEntity
  8
0
100
AcDbPolyline
 62
7
  6
CONTINUOUS
 90
9
 70
0
 10
8.1264674953
 20
5.9133143046
 10
8.1314682739
 20
5.9144282459
 10
8.1460488267
 20
5.9155268822
 10
8.1701115353
 20
5.9166385819
 10
8.2031583948
 20
5.9177608789
 10
8.2437261319
 20
5.9188767481
 10
8.2901273446
 20
5.9199789472
 10
8.34205817
 20
5.9210941975
 10
8.3975122802
 20
5.9222113751
  0
LWPOLYLINE
  5
7E9
100
AcDbEntity
  8
0
100
AcDbPolyline
 62
7
  6
CONTINUOUS
 90
17
 70
0
 10
8.0928606596
 20
5.8930085483
 10
8.0957713343
 20
5.8936460257
 10
8.1091303635
 20
5.8947420927
 10
8.1326859828
 20
5.8958381598
 10
8.1657416694
 20
5.8969342268
 10
8.2073199898
 20
5.8980302939
 10
8.2561915026
 20
5.8991263609
 10
8.3109111116
 20
5.900222428
 10
8.3698607968
 20
5.9013184951
 10
8.4312974576
 20
5.9024145621
 10
8.4934044553
 20
5.9035106292
 10
8.5543453301
 20
5.9046066962
 10
8.6123181032
 20
5.9057027633
 10
8.6656085608
 20
5.9067988303
 10
8.7126409418
 20
5.9078948974
 10
8.7520245318
 20
5.9089909644
 10
8.782594786
 20
5.9100870315
  0
LWPOLYLINE
  5
7EA
100
AcDbEntity
  8
0
100
AcDbPolyline
 62
7
  6
CONTINUOUS
 90
19
 70
0
 10
8.0928606596
 20
5.8530085483
 10
8.1010658397
 20
5.8541876118
 10
8.1195317023
 20
5.8552836788
 10
8.1478865947
 20
5.8563797459
 10
8.185292083
 20
5.8574758129
 10
8.2306421133
 20
5.85857188
 10
8.2825957172
 20
5.859667947
 10
8.3396166635
 20
5.8607640141
 10
8.400018883
 20
5.8618600811
 10
8.4620163248
 20
5.8629561482
 10
8.5237757684
 20
5.8640522152
 10
8.5834710307
 20
5.8651482823
 10
8.6393369651
 20
5.8662443493
 10
8.6897216553
 20
5.8673404164
 10
8.7331352617
 20
5.8684364835
 10
8.7682940746
 20
5.8695325505
 10
8.7941584728
 20
5.8706286176
 10
8.8099636643
 20
5.8717246846
 10
8.8150743311
 20
5.8726200601
  0
LWPOLYLINE
  5
7EB
100
AcDbEntity
  8
0
100
AcDbPolyline
 62
7
  6
CONTINUOUS
 90
19
 70
0
 10
8.0928606596
 20
5.9330085483
 10
8.101223199
 20
5.9342005067
 10
8.1198091697
 20
5.9352965737
 10
8.1482759658
 20
5.9363926408
 10
8.1857818443
 20
5.9374887078
 10
8.2312177829
 20
5.9385847749
 10
8.283240273
 20
5.9396808419
 10
8.3403110464
 20
5.940776909
 10
8.4007425606
 20
5.941872976
 10
8.4627478985
 20
5.9429690431
 10
8.524493606
 20
5.9440651101
 10
8.5841539064
 20
5.9451611772
 10
8.6399646866
 20
5.9462572443
 10
8.6902756613
 20
5.9473533113
 10
8.7335991707
 20
5.9484493784
 10
8.7686541692
 20
5.9495454454
 10
8.7944041052
 20
5.9506415125
 10
8.8100875713
 20
5.9517375795
 10
8.8150743311
 20
5.9526200601
  0
LWPOLYLINE
  5
7EC
100
AcDbEntity
  8
0
100
AcDbPolyline
 62
7
  6
CONTINUOUS
 90
8
 70
0
 10
8.7518719738
 20
5.9295870315
 10
8.7259598646
 20
5.9285533343
 10
8.6926083276
 20
5.9275115676
 10
8.6531228681
 20
5.9264757292
 10
8.6085825488
 20
5.9254444326
 10
8.5592650009
 20
5.9243981729
 10
8.5070141999
 20
5.92335003
 10
8.3976362608
 20
5.9212138217
  0
LWPOLYLINE
  5
7ED
100
AcDbEntity
  8
0
100
AcDbPolyline
 62
7
  6
CONTINUOUS
 90
9
 70
0
 10
8.3976362608
 20
5.9212138217
 10
8.342451269
 20
5.9201023264
 10
8.2905465008
 20
5.9189883533
 10
8.2440031226
 20
5.9178837673
 10
8.2032911303
 20
5.9167648899
 10
8.1701350357
 20
5.9156394977
 10
8.1460117548
 20
5.9145247654
 10
8.1314403581
 20
5.9134251244
 10
8.1266529641
 20
5.9125285663
  0
LWPOLYLINE
  5
7EE
100
AcDbEntity
  8
0
100
AcDbPolyline
 62
7
  6
CONTINUOUS
 90
10
 70
0
 10
8.3975122802
 20
5.9222113751
 10
8.5105891152
 20
5.9244205173
 10
8.566136707
 20
5.9255397872
 10
8.6180391015
 20
5.9266548587
 10
8.6643217901
 20
5.927754724
 10
8.7047669127
 20
5.9288674368
 10
8.7377238867
 20
5.929986148
 10
8.761750648
 20
5.9310940049
 10
8.7764225753
 20
5.9321954444
 10
8.7812820266
 20
5.9331000421
  0
LWPOLYLINE
  5
7EF
100
AcDbEntity
  8
0
100
AcDbPolyline
 62
7
  6
CONTINUOUS
 90
10
 70
0
 10
8.5105891152
 20
5.9634205173
 10
8.3975122802
 20
5.9612113751
 10
8.34205817
 20
5.9600941975
 10
8.2901273446
 20
5.9589789472
 10
8.2437261319
 20
5.9578767481
 10
8.2031583948
 20
5.9567608789
 10
8.1701115353
 20
5.9556385819
 10
8.1460488267
 20
5.9545268822
 10
8.1314682739
 20
5.9534282459
 10
8.1266529641
 20
5.9525285663
  0
LWPOLYLINE
  5
7F0
100
AcDbEntity
  8
0
100
AcDbPolyline
 62
7
  6
CONTINUOUS
 90
10
 70
0
 10
8.3972747741
 20
5.9622066878
 10
8.5103203961
 20
5.9644152143
 10
8.5656476185
 20
5.9655296708
 10
8.617576974
 20
5.9666444839
 10
8.6640571474
 20
5.967748015
 10
8.7047021963
 20
5.968865481
 10
8.737809981
 20
5.9699895014
 10
8.7619075295
 20
5.971102946
 10
8.7764754508
 20
5.9722013382
 10
8.7812820266
 20
5.9731000421
  0
LINE
  5
7F1
100
AcDbEntity
  8
0
100
AcDbLine
 62
7
  6
CONTINUOUS
 10
8.8150743311
 20
5.8330085483
 11
8.7812820266
 21
5.8525285663
  0
LINE
  5
7F2
100
AcDbEntity
  8
0
100
AcDbLine
 62
7
  6
CONTINUOUS
 10
8.0928606596
 20
6.2526200601
 11
8.1266529641
 21
6.2331000421
  0
LINE
  5
7F3
100
AcDbEntity
  8
0
100
AcDbLine
 62
7
  6
CONTINUOUS
 10
8.8150743311
 20
5.8730085483
 11
8.7812820266
 21
5.8925285663
  0
LINE
  5
7F4
100
AcDbEntity
  8
0
100
AcDbLine
 62
7
  6
CONTINUOUS
 10
8.0928606596
 20
6.2926200601
 11
8.1266529641
 21
6.2731000421
  0
LINE
  5
7F5
100
AcDbEntity
  8
0
100
AcDbLine
 62
7
  6
CONTINUOUS
 10
8.8150743311
 20
5.9130085483
 11
8.7812820266
 21
5.9325285663
  0
LINE
  5
7F6
100
AcDbEntity
  8
0
100
AcDbLine
 62
7
  6
CONTINUOUS
 10
8.0928606596
 20
6.3326200601
 11
8.1266529641
 21
6.3131000421
  0
LWPOLYLINE
  5
7F7
100
AcDbEntity
  8
0
100
AcDbPolyline
 62
7
  6
CONTINUOUS
 90
9
 70
0
 10
8.7814674953
 20
6.1323143174
 10
8.776527776
 20
6.1312072013
 10
8.7618832952
 20
6.1301015625
 10
8.7376924471
 20
6.1289849242
 10
8.7044460304
 20
6.1278577461
 10
8.6636312547
 20
6.1267372307
 10
8.6170723008
 20
6.125633165
 10
8.565694185
 20
6.1245306337
 10
8.5106355514
 20
6.1234214338
  0
LWPOLYLINE
  5
7F8
100
AcDbEntity
  8
0
100
AcDbPolyline
 62
7
  6
CONTINUOUS
 90
9
 70
0
 10
8.7814674953
 20
6.1723143104
 10
8.7764783739
 20
6.1712016649
 10
8.7618055732
 20
6.1700971313
 10
8.737651872
 20
6.1689833454
 10
8.7044911761
 20
6.1678591085
 10
8.6637983249
 20
6.1667414594
 10
8.617438433
 20
6.1656413755
 10
8.5659650853
 20
6.1645362367
 10
8.510646926
 20
6.1634216583
  0
LWPOLYLINE
  5
7F9
100
AcDbEntity
  8
0
100
AcDbPolyline
 62
7
  6
CONTINUOUS
 90
9
 70
0
 10
8.1264674953
 20
5.9533143042
 10
8.1315289918
 20
5.9544350055
 10
8.1462354801
 20
5.9555375105
 10
8.1701670415
 20
5.9566407445
 10
8.2030203418
 20
5.957756704
 10
8.2434151964
 20
5.958868861
 10
8.2897199783
 20
5.959969798
 10
8.3416653388
 20
5.9610860704
 10
8.3972747741
 20
5.9622066878
  0
LWPOLYLINE
  5
7FA
100
AcDbEntity
  8
0
100
AcDbPolyline
 62
7
  6
CONTINUOUS
 90
9
 70
0
 10
8.1264674953
 20
5.9933143042
 10
8.1315470665
 20
5.9944370099
 10
8.1463206881
 20
5.9955423462
 10
8.170167587
 20
5.9966407658
 10
8.2027629994
 20
5.9977489129
 10
8.2430132213
 20
5.9988586525
 10
8.2893579434
 20
5.9999616605
 10
8.3414001146
 20
6.0010805811
 10
8.3971362962
 20
6.0022039546
  0
LWPOLYLINE
  5
7FB
100
AcDbEntity
  8
0
100
AcDbPolyline
 62
7
  6
CONTINUOUS
 90
10
 70
0
 10
8.1264674953
 20
6.0333143042
 10
8.131552215
 20
6.0344375802
 10
8.1463547364
 20
6.0355442757
 10
8.1703245914
 20
6.0366468761
 10
8.2027410787
 20
6.0377482488
 10
8.2428354177
 20
6.0388541326
 10
8.2891862059
 20
6.0399577982
 10
8.3412740858
 20
6.0410779721
 10
8.3970704911
 20
6.0422026557
 10
8.4539674953
 20
6.0433143042
  0
LWPOLYLINE
  5
7FC
100
AcDbEntity
  8
0
100
AcDbPolyline
 62
7
  6
CONTINUOUS
 90
20
 70
0
 10
8.0928606596
 20
5.9730085483
 10
8.0958674008
 20
5.9736589206
 10
8.1093492922
 20
5.9747549876
 10
8.1330213002
 20
5.9758510547
 10
8.1661834604
 20
5.9769471217
 10
8.2078551909
 20
5.9780431888
 10
8.2568042883
 20
5.9791392559
 10
8.3115833623
 20
5.9802353229
 10
8.3705726345
 20
5.98133139
 10
8.4320278338
 20
5.982427457
 10
8.4941317733
 20
5.9835235241
 10
8.5550480835
 20
5.9846195911
 10
8.6129755122
 20
5.9857156582
 10
8.6662011862
 20
5.9868117252
 10
8.7131512601
 20
5.9879077923
 10
8.7524374533
 20
5.9890038593
 10
8.7828981009
 20
5.9900999264
 10
8.803632503
 20
5.9911959934
 10
8.8140275581
 20
5.9922920605
 10
8.8150743311
 20
5.9926200601
  0
LWPOLYLINE
  5
7FD
100
AcDbEntity
  8
0
100
AcDbPolyline
 62
7
  6
CONTINUOUS
 90
19
 70
0
 10
8.0928606596
 20
6.0130085483
 10
8.1013820056
 20
6.0142134016
 10
8.1200880081
 20
6.0153094686
 10
8.1486665911
 20
6.0164055357
 10
8.1862727059
 20
6.0175016027
 10
8.2317943664
 20
6.0185976698
 10
8.2838855293
 20
6.0196937368
 10
8.3410058956
 20
6.0207898039
 10
8.4014664565
 20
6.0218858709
 10
8.4634794361
 20
6.022981938
 10
8.5252111543
 20
6.0240780051
 10
8.5848362479
 20
6.0251740721
 10
8.6405916449
 20
6.0262701392
 10
8.6908286979
 20
6.0273662062
 10
8.7340619325
 20
6.0284622733
 10
8.7690129727
 20
6.0295583403
 10
8.7946483408
 20
6.0306544074
 10
8.8102100172
 20
6.0317504744
 10
8.8150743311
 20
6.0326200601
  0
LWPOLYLINE
  5
7FE
100
AcDbEntity
  8
0
100
AcDbPolyline
 62
7
  6
CONTINUOUS
 90
8
 70
0
 10
8.7795718523
 20
6.0916290094
 10
8.7691789145
 20
6.0905648292
 10
8.7499468252
 20
6.089498298
 10
8.7219605363
 20
6.0884159613
 10
8.6861806171
 20
6.0873318027
 10
8.6442661788
 20
6.0862615777
 10
8.5972372966
 20
6.0851967767
 10
8.5462349077
 20
6.084132486
  0
LWPOLYLINE
  5
7FF
100
AcDbEntity
  8
0
100
AcDbPolyline
 62
7
  6
CONTINUOUS
 90
9
 70
0
 10
8.5462349077
 20
6.045132486
 10
8.5972372966
 20
6.0461967767
 10
8.6442661788
 20
6.0472615777
 10
8.6861806171
 20
6.0483318027
 10
8.7219605363
 20
6.0494159613
 10
8.7499468252
 20
6.050498298
 10
8.7691789145
 20
6.0515648292
 10
8.7795718523
 20
6.0526290094
 10
8.7812820266
 20
6.0531000421
  0
LWPOLYLINE
  5
800
100
AcDbEntity
  8
0
100
AcDbPolyline
 62
7
  6
CONTINUOUS
 90
9
 70
0
 10
8.3971362962
 20
6.0412039546
 10
8.3414001146
 20
6.0400805811
 10
8.2893579434
 20
6.0389616605
 10
8.2430132213
 20
6.0378586525
 10
8.2027629994
 20
6.0367489129
 10
8.170167587
 20
6.0356407658
 10
8.1463206881
 20
6.0345423462
 10
8.1315470665
 20
6.0334370099
 10
8.1266529641
 20
6.0325285663
  0
LWPOLYLINE
  5
801
100
AcDbEntity
  8
0
100
AcDbPolyline
 62
7
  6
CONTINUOUS
 90
4
 70
0
 10
8.5462349077
 20
6.084132486
 10
8.5159442693
 20
6.0835263659
 10
8.4851020353
 20
6.0829204368
 10
8.4539674953
 20
6.0823143042
  0
LWPOLYLINE
  5
802
100
AcDbEntity
  8
0
100
AcDbPolyline
 62
7
  6
CONTINUOUS
 90
10
 70
0
 10
8.5103203961
 20
6.0034152143
 10
8.3972747741
 20
6.0012066878
 10
8.3416653388
 20
6.0000860704
 10
8.2897199783
 20
5.998969798
 10
8.2434151964
 20
5.997868861
 10
8.2030203418
 20
5.996756704
 10
8.1701670415
 20
5.9956407445
 10
8.1462354801
 20
5.9945375105
 10
8.1315289918
 20
5.9934350055
 10
8.1266529641
 20
5.9925285663
  0
LWPOLYLINE
  5
803
100
AcDbEntity
  8
0
100
AcDbPolyline
 62
7
  6
CONTINUOUS
 90
10
 70
0
 10
8.3971362962
 20
6.0022039546
 10
8.5103918222
 20
6.0044166238
 10
8.5653125095
 20
6.0055227427
 10
8.6171423834
 20
6.0066347361
 10
8.6637547044
 20
6.0077403551
 10
8.7045466631
 20
6.0088607834
 10
8.7377678086
 20
6.0099878584
 10
8.7619318037
 20
6.0111043325
 10
8.7765234303
 20
6.0122067132
 10
8.7812820266
 20
6.0131000421
  0
LWPOLYLINE
  5
804
100
AcDbEntity
  8
0
100
AcDbPolyline
 62
7
  6
CONTINUOUS
 90
10
 70
0
 10
8.4539674953
 20
6.0823143042
 10
8.3970704911
 20
6.0812026557
 10
8.3412740858
 20
6.0800779721
 10
8.2891862059
 20
6.0789577982
 10
8.2428354177
 20
6.0778541326
 10
8.2027410787
 20
6.0767482488
 10
8.1703245914
 20
6.0756468761
 10
8.1463547364
 20
6.0745442757
 10
8.131552215
 20
6.0734375802
 10
8.1266529641
 20
6.0725285663
  0
LWPOLYLINE
  5
805
100
AcDbEntity
  8
0
100
AcDbPolyline
 62
7
  6
CONTINUOUS
 90
10
 70
0
 10
8.3970690682
 20
6.0822026276
 10
8.5106355514
 20
6.0844214338
 10
8.565694185
 20
6.0855306337
 10
8.6170723008
 20
6.086633165
 10
8.6636312547
 20
6.0877372307
 10
8.7044460304
 20
6.0888577461
 10
8.7376924471
 20
6.0899849242
 10
8.7618832952
 20
6.0911015625
 10
8.776527776
 20
6.0922072013
 10
8.7812820266
 20
6.0931000421
  0
LWPOLYLINE
  5
806
100
AcDbEntity
  8
0
100
AcDbPolyline
 62
7
  6
CONTINUOUS
 90
4
 70
0
 10
8.4539674953
 20
6.0433143042
 10
8.4851020353
 20
6.0439204368
 10
8.5159442693
 20
6.0445263659
 10
8.5462349077
 20
6.045132486
  0
LWPOLYLINE
  5
807
100
AcDbEntity
  8
0
100
AcDbPolyline
 62
7
  6
CONTINUOUS
 90
9
 70
0
 10
8.5557504222
 20
6.064632486
 10
8.6136322688
 20
6.0657285531
 10
8.6667929409
 20
6.0668246201
 10
8.7136605151
 20
6.0679206872
 10
8.7528491503
 20
6.0690167542
 10
8.7832000662
 20
6.0701128213
 10
8.8038158079
 20
6.0712088884
 10
8.8140867822
 20
6.0723049554
 10
8.8150743311
 20
6.0726200601
  0
LINE
  5
808
100
AcDbEntity
  8
0
100
AcDbLine
 62
7
  6
CONTINUOUS
 10
8.8150743311
 20
5.9530085483
 11
8.7812820266
 21
5.9725285663
  0
LINE
  5
809
100
AcDbEntity
  8
0
100
AcDbLine
 62
7
  6
CONTINUOUS
 10
8.0928606596
 20
6.3726200601
 11
8.1266529641
 21
6.3531000421
  0
LINE
  5
80A
100
AcDbEntity
  8
0
100
AcDbLine
 62
7
  6
CONTINUOUS
 10
8.8150743311
 20
5.9930085483
 11
8.7812820266
 21
6.0125285663
  0
LINE
  5
80B
100
AcDbEntity
  8
0
100
AcDbLine
 62
7
  6
CONTINUOUS
 10
8.0928606596
 20
6.4126200601
 11
8.1266529641
 21
6.3931000421
  0
LINE
  5
80C
100
AcDbEntity
  8
0
100
AcDbLine
 62
7
  6
CONTINUOUS
 10
8.8150743311
 20
6.0330085483
 11
8.7812820266
 21
6.0525285663
  0
LINE
  5
80D
100
AcDbEntity
  8
0
100
AcDbLine
 62
7
  6
CONTINUOUS
 10
8.0928606596
 20
6.4526200601
 11
8.1266529641
 21
6.4331000421
  0
LWPOLYLINE
  5
80E
100
AcDbEntity
  8
0
100
AcDbPolyline
 62
7
  6
CONTINUOUS
 90
9
 70
0
 10
8.1264674953
 20
6.1533143042
 10
8.1314995974
 20
6.1544317381
 10
8.146190387
 20
6.1555349473
 10
8.1702532972
 20
6.1566441027
 10
8.2031781658
 20
6.1577614765
 10
8.2434651501
 20
6.1588701287
 10
8.2896987202
 20
6.1599693203
 10
8.3416480696
 20
6.161085713
 10
8.3972658313
 20
6.1622065113
  0
LWPOLYLINE
  5
80F
100
AcDbEntity
  8
0
100
AcDbPolyline
 62
7
  6
CONTINUOUS
 90
10
 70
0
 10
8.7814674953
 20
6.2123143042
 10
8.7764266745
 20
6.2111959002
 10
8.7617534943
 20
6.2100941668
 10
8.7376915204
 20
6.2089848881
 10
8.7046940089
 20
6.2078652336
 10
8.6642175417
 20
6.2067520805
 10
8.6179533895
 20
6.2056529337
 10
8.5660934265
 20
6.2045388917
 10
8.5105768958
 20
6.2034202762
 10
8.3972658313
 20
6.2012065113
  0
LWPOLYLINE
  5
810
100
AcDbEntity
  8
0
100
AcDbPolyline
 62
7
  6
CONTINUOUS
 90
9
 70
0
 10
8.7814674953
 20
6.2523143042
 10
8.7764253151
 20
6.251195749
 10
8.761711198
 20
6.250091762
 10
8.7376357963
 20
6.2489827201
 10
8.7047520688
 20
6.2478669882
 10
8.6645917786
 20
6.2467615745
 10
8.6183492743
 20
6.2456618276
 10
8.5663652753
 20
6.244544517
 10
8.5107083723
 20
6.2434228711
  0
LWPOLYLINE
  5
811
100
AcDbEntity
  8
0
100
AcDbPolyline
 62
7
  6
CONTINUOUS
 90
9
 70
0
 10
8.1264674953
 20
6.1133143042
 10
8.1315299632
 20
6.1144351133
 10
8.1462936869
 20
6.1155408149
 10
8.1703761111
 20
6.1166488789
 10
8.2031180601
 20
6.1177596594
 10
8.2430586386
 20
6.1188598066
 10
8.2893455008
 20
6.1199613807
 10
8.3413900763
 20
6.1210803733
 10
8.3971311053
 20
6.1222038521
  0
LWPOLYLINE
  5
812
100
AcDbEntity
  8
0
100
AcDbPolyline
 62
7
  6
CONTINUOUS
 90
9
 70
0
 10
8.7814674953
 20
6.2923143042
 10
8.7763984143
 20
6.2911927614
 10
8.7616215482
 20
6.290086673
 10
8.7375439105
 20
6.2889791478
 10
8.7048665437
 20
6.2878704493
 10
8.6649548729
 20
6.2867707973
 10
8.6186509813
 20
6.2856686105
 10
8.5665855188
 20
6.2845490757
 10
8.5108233957
 20
6.2834251414
  0
LWPOLYLINE
  5
813
100
AcDbEntity
  8
0
100
AcDbPolyline
 62
7
  6
CONTINUOUS
 90
9
 70
0
 10
8.1264674953
 20
6.0733143042
 10
8.1315475216
 20
6.0744370603
 10
8.1463473117
 20
6.0755438551
 10
8.1703888736
 20
6.0766493749
 10
8.2028743281
 20
6.0777522848
 10
8.2428491624
 20
6.0788544821
 10
8.2891827479
 20
6.0799577204
 10
8.3412713342
 20
6.0810779151
 10
8.3970690682
 20
6.0822026276
  0
LWPOLYLINE
  5
814
100
AcDbEntity
  8
0
100
AcDbPolyline
 62
7
  6
CONTINUOUS
 90
12
 70
0
 10
8.0928606596
 20
6.0530085483
 10
8.0959649364
 20
6.0536718155
 10
8.1095696348
 20
6.0547678825
 10
8.1333579344
 20
6.0558639496
 10
8.1666264321
 20
6.0569600167
 10
8.2083914018
 20
6.0580560837
 10
8.257417883
 20
6.0591521508
 10
8.3122561972
 20
6.0602482178
 10
8.3712848144
 20
6.0613442849
 10
8.4327583
 20
6.0624403519
 10
8.4948589264
 20
6.063536419
 10
8.5557504222
 20
6.064632486
  0
LWPOLYLINE
  5
815
100
AcDbEntity
  8
0
100
AcDbPolyline
 62
7
  6
CONTINUOUS
 90
20
 70
0
 10
8.0928606596
 20
6.1330085483
 10
8.0960639409
 20
6.1336847104
 10
8.1097913904
 20
6.1347807775
 10
8.133695884
 20
6.1358768445
 10
8.1670705827
 20
6.1369729116
 10
8.2089286202
 20
6.1380689786
 10
8.2580322841
 20
6.1391650457
 10
8.3129296136
 20
6.1402611127
 10
8.3719973335
 20
6.1413571798
 10
8.4334888532
 20
6.1424532468
 10
8.4955859118
 20
6.1435493139
 10
8.5564523433
 20
6.1446453809
 10
8.6142883703
 20
6.145741448
 10
8.6673838224
 20
6.146837515
 10
8.7141687046
 20
6.1479335821
 10
8.753259621
 20
6.1490296492
 10
8.7835006808
 20
6.1501257162
 10
8.8039976773
 20
6.1512217833
 10
8.8141445289
 20
6.1523178503
 10
8.8150743311
 20
6.1526200601
  0
LWPOLYLINE
  5
816
100
AcDbEntity
  8
0
100
AcDbPolyline
 62
7
  6
CONTINUOUS
 90
9
 70
0
 10
8.3972658313
 20
6.2012065113
 10
8.3416480696
 20
6.200085713
 10
8.2896987202
 20
6.1989693203
 10
8.2434651501
 20
6.1978701287
 10
8.2031781658
 20
6.1967614765
 10
8.1702532972
 20
6.1956441027
 10
8.146190387
 20
6.1945349473
 10
8.1314995974
 20
6.1934317381
 10
8.1266529641
 20
6.1925285663
  0
LWPOLYLINE
  5
817
100
AcDbEntity
  8
0
100
AcDbPolyline
 62
7
  6
CONTINUOUS
 90
10
 70
0
 10
8.5106355514
 20
6.1234214338
 10
8.3970690682
 20
6.1212026276
 10
8.3412713342
 20
6.1200779151
 10
8.2891827479
 20
6.1189577204
 10
8.2428491624
 20
6.1178544821
 10
8.2028743281
 20
6.1167522848
 10
8.1703888736
 20
6.1156493749
 10
8.1463473117
 20
6.1145438551
 10
8.1315475216
 20
6.1134370603
 10
8.1266529641
 20
6.1125285663
  0
LWPOLYLINE
  5
818
100
AcDbEntity
  8
0
100
AcDbPolyline
 62
7
  6
CONTINUOUS
 90
10
 70
0
 10
8.3971311053
 20
6.1222038521
 10
8.510646926
 20
6.1244216583
 10
8.5659650853
 20
6.1255362367
 10
8.617438433
 20
6.1266413755
 10
8.6637983249
 20
6.1277414594
 10
8.7044911761
 20
6.1288591085
 10
8.737651872
 20
6.1299833454
 10
8.7618055732
 20
6.1310971313
 10
8.7764783739
 20
6.1322016649
 10
8.7812820266
 20
6.1331000421
  0
LWPOLYLINE
  5
819
100
AcDbEntity
  8
0
100
AcDbPolyline
 62
7
  6
CONTINUOUS
 90
10
 70
0
 10
8.510646926
 20
6.1634216583
 10
8.3971311053
 20
6.1612038521
 10
8.3413900763
 20
6.1600803733
 10
8.2893455008
 20
6.1589613807
 10
8.2430586386
 20
6.1578598066
 10
8.2031180601
 20
6.1567596594
 10
8.1703761111
 20
6.1556488789
 10
8.1462936869
 20
6.1545408149
 10
8.1315299632
 20
6.1534351133
 10
8.1266529641
 20
6.1525285663
  0
LWPOLYLINE
  5
81A
100
AcDbEntity
  8
0
100
AcDbPolyline
 62
7
  6
CONTINUOUS
 90
10
 70
0
 10
8.3972658313
 20
6.1622065113
 10
8.5105768958
 20
6.1644202762
 10
8.5660934265
 20
6.1655388917
 10
8.6179533895
 20
6.1666529337
 10
8.6642175417
 20
6.1677520805
 10
8.7046940089
 20
6.1688652336
 10
8.7376915204
 20
6.1699848881
 10
8.7617534943
 20
6.1710941668
 10
8.7764266745
 20
6.1721959002
 10
8.7812820266
 20
6.1731000421
  0
LINE
  5
81B
100
AcDbEntity
  8
0
100
AcDbLine
 62
7
  6
CONTINUOUS
 10
8.8150743311
 20
6.0730085483
 11
8.7812820266
 21
6.0925285663
  0
LINE
  5
81C
100
AcDbEntity
  8
0
100
AcDbLine
 62
7
  6
CONTINUOUS
 10
8.0928606596
 20
6.4926200601
 11
8.1266529641
 21
6.4731000421
  0
LINE
  5
81D
100
AcDbEntity
  8
0
100
AcDbLine
 62
7
  6
CONTINUOUS
 10
8.8150743311
 20
6.1130085483
 11
8.7812820266
 21
6.1325285663
  0
LINE
  5
81E
100
AcDbEntity
  8
0
100
AcDbLine
 62
7
  6
CONTINUOUS
 10
8.0928606596
 20
6.5326200601
 11
8.1266529641
 21
6.5131000421
  0
LINE
  5
81F
100
AcDbEntity
  8
0
100
AcDbLine
 62
7
  6
CONTINUOUS
 10
8.8150743311
 20
6.1530085483
 11
8.7812820266
 21
6.1725285663
  0
LWPOLYLINE
  5
820
100
AcDbEntity
  8
0
100
AcDbPolyline
 62
7
  6
CONTINUOUS
 90
7
 70
0
 10
8.1264674954
 20
6.1933141389
 10
8.1298134104
 20
6.1942250924
 10
8.1424350785
 20
6.1953104377
 10
8.1641381717
 20
6.1963978099
 10
8.1946835989
 20
6.1974981621
 10
8.2328720993
 20
6.1985963097
 10
8.2769076276
 20
6.1996779406
  0
LWPOLYLINE
  5
821
100
AcDbEntity
  8
0
100
AcDbPolyline
 62
7
  6
CONTINUOUS
 90
9
 70
0
 10
8.1264674953
 20
6.2333142932
 10
8.1314393086
 20
6.2344250069
 10
8.146104446
 20
6.2355300543
 10
8.1702701529
 20
6.2366447586
 10
8.2034600037
 20
6.2377699885
 10
8.2441976422
 20
6.2388886927
 10
8.2906260185
 20
6.2399901368
 10
8.3420244827
 20
6.2410935007
 10
8.3972784011
 20
6.2422067594
  0
LWPOLYLINE
  5
822
100
AcDbEntity
  8
0
100
AcDbPolyline
 62
7
  6
CONTINUOUS
 90
9
 70
0
 10
8.7814674953
 20
6.3323143042
 10
8.7763843618
 20
6.3311912039
 10
8.7615816716
 20
6.330084413
 10
8.7375621504
 20
6.3289798566
 10
8.7051238084
 20
6.3278782359
 10
8.6651056401
 20
6.3267746301
 10
8.6187618646
 20
6.3256711044
 10
8.5666664032
 20
6.3245507502
 10
8.5108656549
 20
6.3234259755
  0
LWPOLYLINE
  5
823
100
AcDbEntity
  8
0
100
AcDbPolyline
 62
7
  6
CONTINUOUS
 90
9
 70
0
 10
8.7814674953
 20
6.3723143042
 10
8.7763832547
 20
6.3711910813
 10
8.7615917096
 20
6.3700849817
 10
8.7376917
 20
6.3689848951
 10
8.7052109182
 20
6.367880875
 10
8.6650350528
 20
6.3667728354
 10
8.6186820844
 20
6.36566931
 10
8.5666077171
 20
6.3645495352
 10
8.5108350195
 20
6.3634253708
  0
LWPOLYLINE
  5
824
100
AcDbEntity
  8
0
100
AcDbPolyline
 62
7
  6
CONTINUOUS
 90
7
 70
0
 10
8.0928606596
 20
6.2130085483
 10
8.0961644138
 20
6.2136976053
 10
8.1100145581
 20
6.2147936724
 10
8.1340351476
 20
6.2158897394
 10
8.1675159104
 20
6.2169858065
 10
8.209466844
 20
6.2180818735
 10
8.258647489
 20
6.2191779406
  0
LWPOLYLINE
  5
825
100
AcDbEntity
  8
0
100
AcDbPolyline
 62
7
  6
CONTINUOUS
 90
7
 70
0
 10
8.2769076276
 20
6.2386779406
 10
8.2328720993
 20
6.2375963097
 10
8.1946835989
 20
6.2364981621
 10
8.1641381717
 20
6.2353978099
 10
8.1424350785
 20
6.2343104377
 10
8.1298134104
 20
6.2332250924
 10
8.1266529641
 20
6.2325285663
  0
LWPOLYLINE
  5
826
100
AcDbEntity
  8
0
100
AcDbPolyline
 62
7
  6
CONTINUOUS
 90
5
 70
0
 10
8.2769076276
 20
6.1996779406
 10
8.3179190786
 20
6.2005870315
 10
8.361700083
 20
6.2014961224
 10
8.4073593858
 20
6.2024052133
 10
8.5107083723
 20
6.2044228711
  0
LWPOLYLINE
  5
827
100
AcDbEntity
  8
0
100
AcDbPolyline
 62
7
  6
CONTINUOUS
 90
9
 70
0
 10
8.5107083723
 20
6.2044228711
 10
8.5663652753
 20
6.205544517
 10
8.6183492743
 20
6.2066618276
 10
8.6645917786
 20
6.2077615745
 10
8.7047520688
 20
6.2088669882
 10
8.7376357963
 20
6.2099827201
 10
8.761711198
 20
6.211091762
 10
8.7764253151
 20
6.212195749
 10
8.7812820266
 20
6.2131000421
  0
LWPOLYLINE
  5
828
100
AcDbEntity
  8
0
100
AcDbPolyline
 62
7
  6
CONTINUOUS
 90
9
 70
0
 10
8.5108656549
 20
6.2844259755
 10
8.5666664032
 20
6.2855507502
 10
8.6187618646
 20
6.2866711044
 10
8.6651056401
 20
6.2877746301
 10
8.7051238084
 20
6.2888782359
 10
8.7375621504
 20
6.2899798566
 10
8.7615816716
 20
6.291084413
 10
8.7763843618
 20
6.2921912039
 10
8.7812820266
 20
6.2931000421
  0
LWPOLYLINE
  5
829
100
AcDbEntity
  8
0
100
AcDbPolyline
 62
7
  6
CONTINUOUS
 90
14
 70
0
 10
8.258647489
 20
6.2191779406
 10
8.3136036085
 20
6.2202740076
 10
8.3727101889
 20
6.2213700747
 10
8.4342194904
 20
6.2224661417
 10
8.4963127265
 20
6.2235622088
 10
8.557153844
 20
6.2246582758
 10
8.6149438141
 20
6.2257543429
 10
8.6679738283
 20
6.22685041
 10
8.7146758265
 20
6.227946477
 10
8.7536688637
 20
6.2290425441
 10
8.7837999434
 20
6.2301386111
 10
8.8041781107
 20
6.2312346782
 10
8.8142007978
 20
6.2323307452
 10
8.8150743311
 20
6.2326200601
  0
LWPOLYLINE
  5
82A
100
AcDbEntity
  8
0
100
AcDbPolyline
 62
7
  6
CONTINUOUS
 90
5
 70
0
 10
8.5107083723
 20
6.2434228711
 10
8.4073593858
 20
6.2414052133
 10
8.361700083
 20
6.2404961224
 10
8.3179190786
 20
6.2395870315
 10
8.2769076276
 20
6.2386779406
  0
LWPOLYLINE
  5
82B
100
AcDbEntity
  8
0
100
AcDbPolyline
 62
7
  6
CONTINUOUS
 90
10
 70
0
 10
8.3972784011
 20
6.2422067594
 10
8.5108233957
 20
6.2444251414
 10
8.5665855188
 20
6.2455490757
 10
8.6186509813
 20
6.2466686105
 10
8.6649548729
 20
6.2477707973
 10
8.7048665437
 20
6.2488704493
 10
8.7375439105
 20
6.2499791478
 10
8.7616215482
 20
6.251086673
 10
8.7763984143
 20
6.2521927614
 10
8.7812820266
 20
6.2531000421
  0
LWPOLYLINE
  5
82C
100
AcDbEntity
  8
0
100
AcDbPolyline
 62
7
  6
CONTINUOUS
 90
10
 70
0
 10
8.5108233957
 20
6.2834251414
 10
8.3972784011
 20
6.2812067594
 10
8.3420244827
 20
6.2800935007
 10
8.2906260185
 20
6.2789901368
 10
8.2441976422
 20
6.2778886927
 10
8.2034600037
 20
6.2767699885
 10
8.1702701529
 20
6.2756447586
 10
8.146104446
 20
6.2745300543
 10
8.1314393086
 20
6.2734250069
 10
8.1266529641
 20
6.2725285663
  0
LINE
  5
82D
100
AcDbEntity
  8
0
100
AcDbLine
 62
7
  6
CONTINUOUS
 10
8.0928606596
 20
6.5726200601
 11
8.1266529641
 21
6.5531000421
  0
LINE
  5
82E
100
AcDbEntity
  8
0
100
AcDbLine
 62
7
  6
CONTINUOUS
 10
8.8150743311
 20
6.1930085483
 11
8.7812820266
 21
6.2125285663
  0
LINE
  5
82F
100
AcDbEntity
  8
0
100
AcDbLine
 62
7
  6
CONTINUOUS
 10
8.0928606596
 20
6.6126200601
 11
8.1266529641
 21
6.5931000421
  0
LINE
  5
830
100
AcDbEntity
  8
0
100
AcDbLine
 62
7
  6
CONTINUOUS
 10
8.8150743311
 20
6.2330085483
 11
8.7812820266
 21
6.2525285663
  0
LINE
  5
831
100
AcDbEntity
  8
0
100
AcDbLine
 62
7
  6
CONTINUOUS
 10
8.8150743311
 20
6.2730085483
 11
8.7812820266
 21
6.2925285663
  0
LINE
  5
832
100
AcDbEntity
  8
0
100
AcDbLine
 62
7
  6
CONTINUOUS
 10
8.1264674959
 20
6.3533146672
 11
8.1298009731
 21
6.3542233951
  0
LWPOLYLINE
  5
833
100
AcDbEntity
  8
0
100
AcDbPolyline
 62
7
  6
CONTINUOUS
 90
10
 70
0
 10
8.1264674953
 20
6.2733142954
 10
8.1314000826
 20
6.2744206056
 10
8.1460360749
 20
6.2755261543
 10
8.1702284414
 20
6.2766431353
 10
8.2034844484
 20
6.2777707262
 10
8.2443176629
 20
6.2788917301
 10
8.2909118439
 20
6.2799965452
 10
8.342346127
 20
6.2811001525
 10
8.3973205893
 20
6.282207592
 10
8.5108656549
 20
6.2844259755
  0
LWPOLYLINE
  5
834
100
AcDbEntity
  8
0
100
AcDbPolyline
 62
7
  6
CONTINUOUS
 90
10
 70
0
 10
8.1264674953
 20
6.3133143097
 10
8.1313990904
 20
6.314420494
 10
8.1460050875
 20
6.3155243845
 10
8.1701862767
 20
6.3166414937
 10
8.2034357702
 20
6.3177692572
 10
8.2442664094
 20
6.3188904332
 10
8.2909025301
 20
6.3199963365
 10
8.3426348352
 20
6.3211061211
 10
8.3974550867
 20
6.3222102464
 10
8.5108350195
 20
6.3244253708
  0
LWPOLYLINE
  5
835
100
AcDbEntity
  8
0
100
AcDbPolyline
 62
7
  6
CONTINUOUS
 90
9
 70
0
 10
8.7814674953
 20
6.4923143003
 10
8.7764718097
 20
6.4912009314
 10
8.7619019793
 20
6.4901026291
 10
8.7378132713
 20
6.4889896296
 10
8.704721461
 20
6.4878660631
 10
8.6640975198
 20
6.4867490381
 10
8.6176382123
 20
6.4856458581
 10
8.5657056647
 20
6.4845308711
 10
8.5103407067
 20
6.4834156151
  0
LWPOLYLINE
  5
836
100
AcDbEntity
  8
0
100
AcDbPolyline
 62
7
  6
CONTINUOUS
 90
9
 70
0
 10
8.7814674953
 20
6.4523143042
 10
8.7764125616
 20
6.4511943316
 10
8.761729505
 20
6.4500928026
 10
8.7377286489
 20
6.4489863334
 10
8.7048001612
 20
6.447868442
 10
8.6643701241
 20
6.4467559499
 10
8.6180822062
 20
6.4456558269
 10
8.5661682619
 20
6.4445404401
 10
8.5106055858
 20
6.4434208424
  0
LWPOLYLINE
  5
837
100
AcDbEntity
  8
0
100
AcDbPolyline
 62
7
  6
CONTINUOUS
 90
9
 70
0
 10
8.7814674953
 20
6.4123143042
 10
8.7763909925
 20
6.4111919385
 10
8.7616325067
 20
6.4100872945
 10
8.7377887242
 20
6.4089886732
 10
8.7051240791
 20
6.4078782441
 10
8.6648337951
 20
6.4067677206
 10
8.6184958649
 20
6.4056651227
 10
8.5664711923
 20
6.4045467091
 10
8.5107637336
 20
6.4034239638
  0
LWPOLYLINE
  5
838
100
AcDbEntity
  8
0
100
AcDbPolyline
 62
7
  6
CONTINUOUS
 90
20
 70
0
 10
8.0928606596
 20
6.2930085483
 10
8.0962663547
 20
6.2937105002
 10
8.1102391369
 20
6.2948065673
 10
8.1343757237
 20
6.2959026343
 10
8.1679624133
 20
6.2969987014
 10
8.2100060709
 20
6.2980947684
 10
8.2592634953
 20
6.2991908355
 10
8.3142781794
 20
6.3002869025
 10
8.3734233777
 20
6.3013829696
 10
8.4349502087
 20
6.3024790366
 10
8.4970393674
 20
6.3035751037
 10
8.5578549213
 20
6.3046711707
 10
8.6155985974
 20
6.3057672378
 10
8.6685629562
 20
6.3068633049
 10
8.7151818788
 20
6.3079593719
 10
8.7540768769
 20
6.309055439
 10
8.7840978527
 20
6.310151506
 10
8.8043571073
 20
6.3112475731
 10
8.8142555888
 20
6.3123436401
 10
8.8150743311
 20
6.3126200601
  0
LWPOLYLINE
  5
839
100
AcDbEntity
  8
0
100
AcDbPolyline
 62
7
  6
CONTINUOUS
 90
10
 70
0
 10
8.1298009731
 20
6.3542233951
 10
8.1411032596
 20
6.3552247202
 10
8.1602777081
 20
6.3562325543
 10
8.1872188522
 20
6.3572545352
 10
8.2210628291
 20
6.3582777135
 10
8.260417776
 20
6.3592890375
 10
8.3043976155
 20
6.3602949162
 10
8.3524164517
 20
6.3613071906
 10
8.4026803359
 20
6.3623132243
 10
8.5107637336
 20
6.3644239638
  0
LWPOLYLINE
  5
83A
100
AcDbEntity
  8
0
100
AcDbPolyline
 62
7
  6
CONTINUOUS
 90
19
 70
0
 10
8.0963697631
 20
6.3737233951
 10
8.110465126
 20
6.3748194622
 10
8.1347176111
 20
6.3759155292
 10
8.1684100896
 20
6.3770115963
 10
8.2105462987
 20
6.3781076633
 10
8.2598803004
 20
6.3792037304
 10
8.3149533233
 20
6.3802997974
 10
8.374136897
 20
6.3813958645
 10
8.435681005
 20
6.3824919315
 10
8.4977658316
 20
6.3835879986
 10
8.5585555723
 20
6.3846840657
 10
8.6162527176
 20
6.3857801327
 10
8.6691512036
 20
6.3868761998
 10
8.7156868595
 20
6.3879722668
 10
8.7544836588
 20
6.3890683339
 10
8.7843944076
 20
6.3901644009
 10
8.8045346663
 20
6.391260468
 10
8.8143089016
 20
6.392356535
 10
8.8150743311
 20
6.3926200601
  0
LWPOLYLINE
  5
83B
100
AcDbEntity
  8
0
100
AcDbPolyline
 62
7
  6
CONTINUOUS
 90
9
 70
0
 10
8.5108350195
 20
6.3244253708
 10
8.5666077171
 20
6.3255495352
 10
8.6186820844
 20
6.32666931
 10
8.6650350528
 20
6.3277728354
 10
8.7052109182
 20
6.328880875
 10
8.7376917
 20
6.3299848951
 10
8.7615917096
 20
6.3310849817
 10
8.7763832547
 20
6.3321910813
 10
8.7812820266
 20
6.3331000421
  0
LWPOLYLINE
  5
83C
100
AcDbEntity
  8
0
100
AcDbPolyline
 62
7
  6
CONTINUOUS
 90
9
 70
0
 10
8.5107637336
 20
6.3644239638
 10
8.5664711923
 20
6.3655467091
 10
8.6184958649
 20
6.3666651227
 10
8.6648337951
 20
6.3677677206
 10
8.7051240791
 20
6.3688782441
 10
8.7377887242
 20
6.3699886732
 10
8.7616325067
 20
6.3710872945
 10
8.7763909925
 20
6.3721919385
 10
8.7812820266
 20
6.3731000421
  0
LWPOLYLINE
  5
83D
100
AcDbEntity
  8
0
100
AcDbPolyline
 62
7
  6
CONTINUOUS
 90
10
 70
0
 10
8.5108656549
 20
6.3234259755
 10
8.3973205893
 20
6.321207592
 10
8.342346127
 20
6.3201001525
 10
8.2909118439
 20
6.3189965452
 10
8.2443176629
 20
6.3178917301
 10
8.2034844484
 20
6.3167707262
 10
8.1702284414
 20
6.3156431353
 10
8.1460360749
 20
6.3145261543
 10
8.1314000826
 20
6.3134206056
 10
8.1266529641
 20
6.3125285663
  0
LWPOLYLINE
  5
83E
100
AcDbEntity
  8
0
100
AcDbPolyline
 62
7
  6
CONTINUOUS
 90
10
 70
0
 10
8.5108350195
 20
6.3634253708
 10
8.3974550867
 20
6.3612102464
 10
8.3426348352
 20
6.3601061211
 10
8.2909025301
 20
6.3589963365
 10
8.2442664094
 20
6.3578904332
 10
8.2034357702
 20
6.3567692572
 10
8.1701862767
 20
6.3556414937
 10
8.1460050875
 20
6.3545243845
 10
8.1313990904
 20
6.353420494
 10
8.1266529641
 20
6.3525285663
  0
LWPOLYLINE
  5
83F
100
AcDbEntity
  8
0
100
AcDbPolyline
 62
7
  6
CONTINUOUS
 90
10
 70
0
 10
8.5107637336
 20
6.4034239638
 10
8.4026803359
 20
6.4013132243
 10
8.3524164517
 20
6.4003071906
 10
8.3043976155
 20
6.3992949162
 10
8.260417776
 20
6.3982890375
 10
8.2210628291
 20
6.3972777135
 10
8.1872188522
 20
6.3962545352
 10
8.1602777081
 20
6.3952325543
 10
8.1411032596
 20
6.3942247202
 10
8.1298009731
 20
6.3932233951
  0
LWPOLYLINE
  5
840
100
AcDbEntity
  8
0
100
AcDbPolyline
 62
7
  6
CONTINUOUS
 90
10
 70
0
 10
8.3975474293
 20
6.4022120687
 10
8.5106055858
 20
6.4044208424
 10
8.5661682619
 20
6.4055404401
 10
8.6180822062
 20
6.4066558269
 10
8.6643701241
 20
6.4077559499
 10
8.7048001612
 20
6.408868442
 10
8.7377286489
 20
6.4099863334
 10
8.761729505
 20
6.4110928026
 10
8.7764125616
 20
6.4121943316
 10
8.7812820266
 20
6.4131000421
  0
LINE
  5
841
100
AcDbEntity
  8
0
100
AcDbLine
 62
7
  6
CONTINUOUS
 10
8.8150743311
 20
6.3130085483
 11
8.7812820266
 21
6.3325285663
  0
LINE
  5
842
100
AcDbEntity
  8
0
100
AcDbLine
 62
7
  6
CONTINUOUS
 10
8.8150743311
 20
6.3530085483
 11
8.7812820266
 21
6.3725285663
  0
LINE
  5
843
100
AcDbEntity
  8
0
100
AcDbLine
 62
7
  6
CONTINUOUS
 10
8.7792001953
 20
6.6125647642
 11
8.7812820266
 21
6.6131000421
  0
LWPOLYLINE
  5
844
100
AcDbEntity
  8
0
100
AcDbPolyline
 62
7
  6
CONTINUOUS
 90
9
 70
0
 10
8.7814674953
 20
6.5723143018
 10
8.7765383346
 20
6.5712083881
 10
8.7619267208
 20
6.5701040421
 10
8.7377388656
 20
6.5689867312
 10
8.7044818847
 20
6.567858828
 10
8.6636458479
 20
6.5667376
 10
8.6170102614
 20
6.5656317744
 10
8.5653181361
 20
6.564522859
 10
8.5105066453
 20
6.5634188898
  0
LWPOLYLINE
  5
845
100
AcDbEntity
  8
0
100
AcDbPolyline
 62
7
  6
CONTINUOUS
 90
9
 70
0
 10
8.7814674953
 20
6.5323142894
 10
8.7765195073
 20
6.5312062727
 10
8.7619313076
 20
6.5301043042
 10
8.7377729076
 20
6.528988057
 10
8.7045607615
 20
6.527861209
 10
8.6637801973
 20
6.5267410004
 10
8.6171766297
 20
6.525635504
 10
8.5653296743
 20
6.5245230975
 10
8.5103701098
 20
6.5234161953
  0
LWPOLYLINE
  5
846
100
AcDbEntity
  8
0
100
AcDbPolyline
 62
7
  6
CONTINUOUS
 90
9
 70
0
 10
8.1264674953
 20
6.3933143057
 10
8.1314667218
 20
6.3944280726
 10
8.1460417822
 20
6.3955264801
 10
8.1701140246
 20
6.3966386789
 10
8.2031786249
 20
6.3977614904
 10
8.2437699872
 20
6.3988778599
 10
8.2901953375
 20
6.3999804735
 10
8.3421268164
 20
6.4010956173
 10
8.3975474293
 20
6.4022120687
  0
LWPOLYLINE
  5
847
100
AcDbEntity
  8
0
100
AcDbPolyline
 62
7
  6
CONTINUOUS
 90
9
 70
0
 10
8.1264674953
 20
6.4333143042
 10
8.1315262771
 20
6.4344347041
 10
8.1462232491
 20
6.4355368155
 10
8.1701799341
 20
6.4366412467
 10
8.2030623596
 20
6.437757975
 10
8.2434719223
 20
6.4388703005
 10
8.2897703237
 20
6.4399709291
 10
8.3417021993
 20
6.4410868331
 10
8.3972940171
 20
6.4422070676
  0
LINE
  5
848
100
AcDbEntity
  8
0
100
AcDbLine
 62
7
  6
CONTINUOUS
 10
8.1298009731
 20
6.3932233951
 11
8.1266529641
 21
6.3925285663
  0
LINE
  5
849
100
AcDbEntity
  8
0
100
AcDbLine
 62
7
  6
CONTINUOUS
 10
8.0928606596
 20
6.3730085483
 11
8.0963697631
 21
6.3737233951
  0
LWPOLYLINE
  5
84A
100
AcDbEntity
  8
0
100
AcDbPolyline
 62
7
  6
CONTINUOUS
 90
20
 70
0
 10
8.0928606596
 20
6.4530085483
 10
8.0964746386
 20
6.45373629
 10
8.1106925244
 20
6.4548323571
 10
8.1350608083
 20
6.4559284241
 10
8.1688589375
 20
6.4570244912
 10
8.2110875252
 20
6.4581205582
 10
8.2604979018
 20
6.4592166253
 10
8.3156290376
 20
6.4603126923
 10
8.3748507437
 20
6.4614087594
 10
8.4364118763
 20
6.4625048265
 10
8.4984921161
 20
6.4636008935
 10
8.5592557943
 20
6.4646969606
 10
8.616906172
 20
6.4657930276
 10
8.6697385682
 20
6.4668890947
 10
8.7161907663
 20
6.4679851617
 10
8.7548892078
 20
6.4690812288
 10
8.7846896069
 20
6.4701772958
 10
8.804710787
 20
6.4712733629
 10
8.814360736
 20
6.4723694299
 10
8.8150743311
 20
6.4726200601
  0
LWPOLYLINE
  5
84B
100
AcDbEntity
  8
0
100
AcDbPolyline
 62
7
  6
CONTINUOUS
 90
10
 70
0
 10
8.5106055858
 20
6.4434208424
 10
8.3975474293
 20
6.4412120687
 10
8.3421268164
 20
6.4400956173
 10
8.2901953375
 20
6.4389804735
 10
8.2437699872
 20
6.4378778599
 10
8.2031786249
 20
6.4367614904
 10
8.1701140246
 20
6.4356386789
 10
8.1460417822
 20
6.4345264801
 10
8.1314667218
 20
6.4334280726
 10
8.1266529641
 20
6.4325285663
  0
LWPOLYLINE
  5
84C
100
AcDbEntity
  8
0
100
AcDbPolyline
 62
7
  6
CONTINUOUS
 90
10
 70
0
 10
8.3972940171
 20
6.4422070676
 10
8.5103407067
 20
6.4444156151
 10
8.5657056647
 20
6.4455308711
 10
8.6176382123
 20
6.4466458581
 10
8.6640975198
 20
6.4477490381
 10
8.704721461
 20
6.4488660631
 10
8.7378132713
 20
6.4499896296
 10
8.7619019793
 20
6.4511026291
 10
8.7764718097
 20
6.4522009314
 10
8.7812820266
 20
6.4531000421
  0
LWPOLYLINE
  5
84D
100
AcDbEntity
  8
0
100
AcDbPolyline
 62
7
  6
CONTINUOUS
 90
10
 70
0
 10
8.5103407067
 20
6.4834156151
 10
8.3972940171
 20
6.4812070676
 10
8.3417021993
 20
6.4800868331
 10
8.2897703237
 20
6.4789709291
 10
8.2434719223
 20
6.4778703005
 10
8.2030623596
 20
6.476757975
 10
8.1701799341
 20
6.4756412467
 10
8.1462232491
 20
6.4745368155
 10
8.1315262771
 20
6.4734347041
 10
8.1266529641
 20
6.4725285663
  0
LWPOLYLINE
  5
84E
100
AcDbEntity
  8
0
100
AcDbPolyline
 62
7
  6
CONTINUOUS
 90
10
 70
0
 10
8.3971477299
 20
6.4822041803
 10
8.5103701098
 20
6.4844161953
 10
8.5653296743
 20
6.4855230975
 10
8.6171766297
 20
6.486635504
 10
8.6637801973
 20
6.4877410004
 10
8.7045607615
 20
6.488861209
 10
8.7377729076
 20
6.489988057
 10
8.7619313076
 20
6.4911043042
 10
8.7765195073
 20
6.4922062727
 10
8.7812820266
 20
6.4931000421
  0
LWPOLYLINE
  5
84F
100
AcDbEntity
  8
0
100
AcDbPolyline
 62
7
  6
CONTINUOUS
 90
6
 70
0
 10
8.2001959445
 20
6.6193143042
 10
8.1981686595
 20
6.6198611259
 10
8.1964633109
 20
6.6213743654
 10
8.1951944423
 20
6.6236225754
 10
8.1944120234
 20
6.6263940645
 10
8.1941598742
 20
6.6293143042
  0
LINE
  5
850
100
AcDbEntity
  8
0
100
AcDbLine
 62
7
  6
CONTINUOUS
 10
8.8150743311
 20
6.3930085483
 11
8.7812820266
 21
6.4125285663
  0
LINE
  5
851
100
AcDbEntity
  8
0
100
AcDbLine
 62
7
  6
CONTINUOUS
 10
8.8150743311
 20
6.4330085483
 11
8.7812820266
 21
6.4525285663
  0
LINE
  5
852
100
AcDbEntity
  8
0
100
AcDbLine
 62
7
  6
CONTINUOUS
 10
8.8150743311
 20
6.4730085483
 11
8.7812820266
 21
6.4925285663
  0
LWPOLYLINE
  5
853
100
AcDbEntity
  8
0
100
AcDbPolyline
 62
7
  6
CONTINUOUS
 90
9
 70
0
 10
8.1264674953
 20
6.513314301
 10
8.1309800947
 20
6.5143723459
 10
8.1453715743
 20
6.5154878998
 10
8.1690458638
 20
6.5165968104
 10
8.2013951143
 20
6.5177073071
 10
8.2416099943
 20
6.5188229074
 10
8.2881450166
 20
6.5199343531
 10
8.3405111211
 20
6.5210621692
 10
8.3966719079
 20
6.5221947872
  0
LWPOLYLINE
  5
854
100
AcDbEntity
  8
0
100
AcDbPolyline
 62
7
  6
CONTINUOUS
 90
9
 70
0
 10
8.1264674953
 20
6.4733143042
 10
8.1315457388
 20
6.4744368628
 10
8.1463139739
 20
6.4755419655
 10
8.1701571651
 20
6.4766403598
 10
8.2027792795
 20
6.4777494062
 10
8.243045746
 20
6.478859479
 10
8.2893878142
 20
6.4799623321
 10
8.3414220116
 20
6.4810810343
 10
8.3971477299
 20
6.4822041803
  0
LWPOLYLINE
  5
855
100
AcDbEntity
  8
0
100
AcDbPolyline
 62
7
  6
CONTINUOUS
 90
9
 70
0
 10
8.1264674953
 20
6.5533143042
 10
8.1315486433
 20
6.5544371846
 10
8.146350112
 20
6.5555440137
 10
8.1703836147
 20
6.5566491705
 10
8.2028474942
 20
6.5577514723
 10
8.2428394368
 20
6.5588542348
 10
8.2891766027
 20
6.5599575822
 10
8.3412668651
 20
6.5610778226
 10
8.3970667319
 20
6.5622025815
  0
LWPOLYLINE
  5
856
100
AcDbEntity
  8
0
100
AcDbPolyline
 62
7
  6
CONTINUOUS
 90
20
 70
0
 10
8.0928606596
 20
6.5330085483
 10
8.0960911564
 20
6.533688222
 10
8.109641946
 20
6.5347720964
 10
8.1331494868
 20
6.5358559709
 10
8.1659340187
 20
6.5369398453
 10
8.2070475221
 20
6.5380237198
 10
8.2553011309
 20
6.5391075943
 10
8.309299511
 20
6.5401914687
 10
8.3674812088
 20
6.5412753432
 10
8.4281638026
 20
6.5423592176
 10
8.4895925535
 20
6.5434430921
 10
8.5499911461
 20
6.5445269665
 10
8.6076130537
 20
6.545610841
 10
8.6607920421
 20
6.5466947155
 10
8.7079903515
 20
6.5477785899
 10
8.7478431638
 20
6.5488624644
 10
8.7791980679
 20
6.5499463388
 10
8.8011483841
 20
6.5510302133
 10
8.8130593822
 20
6.5521140878
 10
8.8150743311
 20
6.5526200601
  0
LWPOLYLINE
  5
857
100
AcDbEntity
  8
0
100
AcDbPolyline
 62
7
  6
CONTINUOUS
 90
20
 70
0
 10
8.0928606596
 20
6.5730085483
 10
8.0969409124
 20
6.5737915769
 10
8.1114626945
 20
6.5748754514
 10
8.1358885779
 20
6.5759593259
 10
8.169512247
 20
6.5770432003
 10
8.211361417
 20
6.5781270748
 10
8.260225949
 20
6.5792109492
 10
8.3146928429
 20
6.5802948237
 10
8.3731870972
 20
6.5813786982
 10
8.4340172522
 20
6.5824625726
 10
8.495424302
 20
6.5835464471
 10
8.5556325587
 20
6.5846303215
 10
8.6129009994
 20
6.585714196
 10
8.6655736111
 20
6.5867980704
 10
8.7121272769
 20
6.5878819449
 10
8.7512158192
 20
6.5889658194
 10
8.7817089274
 20
6.5900496938
 10
8.802724842
 20
6.5911335683
 10
8.8136558526
 20
6.5922174427
 10
8.8150743311
 20
6.5926200601
  0
LWPOLYLINE
  5
858
100
AcDbEntity
  8
0
100
AcDbPolyline
 62
7
  6
CONTINUOUS
 90
18
 70
0
 10
8.1265309643
 20
6.5934396406
 10
8.1327644502
 20
6.5945647161
 10
8.1490028539
 20
6.5956897442
 10
8.1747406233
 20
6.5968147797
 10
8.2091761897
 20
6.5979398213
 10
8.2512358037
 20
6.5990648383
 10
8.2996105255
 20
6.6001898654
 10
8.3527953638
 20
6.6013149365
 10
8.4091322384
 20
6.6024400163
 10
8.466863716
 20
6.6035650557
 10
8.5241885513
 20
6.6046899969
 10
8.5793273337
 20
6.6058149568
 10
8.6305613785
 20
6.6069399062
 10
8.6762959392
 20
6.6080648654
 10
8.7151070321
 20
6.6091898525
 10
8.7457846429
 20
6.6103148399
 10
8.7673729154
 20
6.6114398038
 10
8.7792001953
 20
6.6125647642
  0
LWPOLYLINE
  5
859
100
AcDbEntity
  8
0
100
AcDbPolyline
 62
7
  6
CONTINUOUS
 90
6
 70
0
 10
8.0928606596
 20
6.6130085483
 10
8.0978847692
 20
6.6138949319
 10
8.1133737165
 20
6.6149788064
 10
8.1387115045
 20
6.6160626808
 10
8.1731654486
 20
6.6171465553
 10
8.2157392552
 20
6.6182304298
  0
LINE
  5
85A
100
AcDbEntity
  8
0
100
AcDbLine
 62
7
  6
CONTINUOUS
 10
8.2157392552
 20
6.6182304298
 11
8.2652018312
 21
6.6193143042
  0
LWPOLYLINE
  5
85B
100
AcDbEntity
  8
0
100
AcDbPolyline
 62
7
  6
CONTINUOUS
 90
10
 70
0
 10
8.5103701098
 20
6.5234161953
 10
8.3971477299
 20
6.5212041803
 10
8.3414220116
 20
6.5200810343
 10
8.2893878142
 20
6.5189623321
 10
8.243045746
 20
6.517859479
 10
8.2027792795
 20
6.5167494062
 10
8.1701571651
 20
6.5156403598
 10
8.1463139739
 20
6.5145419655
 10
8.1315457388
 20
6.5134368628
 10
8.1266529641
 20
6.5125285663
  0
LWPOLYLINE
  5
85C
100
AcDbEntity
  8
0
100
AcDbPolyline
 62
7
  6
CONTINUOUS
 90
10
 70
0
 10
8.3966719079
 20
6.5221947872
 10
8.5105066453
 20
6.5244188898
 10
8.5653181361
 20
6.525522859
 10
8.6170102614
 20
6.5266317744
 10
8.6636458479
 20
6.5277376
 10
8.7044818847
 20
6.528858828
 10
8.7377388656
 20
6.5299867312
 10
8.7619267208
 20
6.5311040421
 10
8.7765383346
 20
6.5322083881
 10
8.7812820266
 20
6.5331000421
  0
LWPOLYLINE
  5
85D
100
AcDbEntity
  8
0
100
AcDbPolyline
 62
7
  6
CONTINUOUS
 90
10
 70
0
 10
8.5105066453
 20
6.5634188898
 10
8.3966719079
 20
6.5611947872
 10
8.3405111211
 20
6.5600621692
 10
8.2881450166
 20
6.5589343531
 10
8.2416099943
 20
6.5578229074
 10
8.2013951143
 20
6.5567073071
 10
8.1690458638
 20
6.5555968104
 10
8.1453715743
 20
6.5544878998
 10
8.1309800947
 20
6.5533723459
 10
8.1266529641
 20
6.5525285663
  0
LWPOLYLINE
  5
85E
100
AcDbEntity
  8
0
100
AcDbPolyline
 62
7
  6
CONTINUOUS
 90
10
 70
0
 10
8.3970667319
 20
6.5622025815
 10
8.5106279529
 20
6.5644212839
 10
8.5656541097
 20
6.565529805
 10
8.6170504772
 20
6.5666326758
 10
8.6636235138
 20
6.5677370348
 10
8.7044456568
 20
6.5688577348
 10
8.737697015
 20
6.569985102
 10
8.7618895951
 20
6.5711019221
 10
8.7765308972
 20
6.572207552
 10
8.7812820266
 20
6.5731000421
  0
LINE
  5
85F
100
AcDbEntity
  8
0
100
AcDbLine
 62
7
  6
CONTINUOUS
 10
8.7919843667
 20
6.6193143042
 11
8.1037918153
 21
6.6193143042
  0
LINE
  5
860
100
AcDbEntity
  8
0
100
AcDbLine
 62
9
  6
CONTINUOUS
 10
8.1941598742
 20
6.6293143042
 11
8.2389674953
 21
6.6293143042
  0
LINE
  5
861
100
AcDbEntity
  8
0
100
AcDbLine
 62
9
  6
CONTINUOUS
 10
8.6689674953
 20
6.6293143042
 11
8.7137751165
 21
6.6293143042
  0
LINE
  5
862
100
AcDbEntity
  8
0
100
AcDbLine
 62
7
  6
CONTINUOUS
 10
8.2389674953
 20
6.6593143042
 11
8.1339703223
 21
6.6593143042
  0
LINE
  5
863
100
AcDbEntity
  8
0
100
AcDbLine
 62
7
  6
CONTINUOUS
 10
8.6689674953
 20
6.6593143042
 11
8.7739646684
 21
6.6593143042
  0
LINE
  5
864
100
AcDbEntity
  8
0
100
AcDbLine
 62
7
  6
CONTINUOUS
 10
8.8150743311
 20
6.5130085483
 11
8.7812820266
 21
6.5325285663
  0
LINE
  5
865
100
AcDbEntity
  8
0
100
AcDbLine
 62
7
  6
CONTINUOUS
 10
8.8150743311
 20
6.5530085483
 11
8.7812820266
 21
6.5725285663
  0
LINE
  5
866
100
AcDbEntity
  8
0
100
AcDbLine
 62
7
  6
CONTINUOUS
 10
8.8150743311
 20
6.5930085483
 11
8.7812820266
 21
6.6125285663
  0
CIRCLE
  5
867
100
AcDbEntity
  8
0
100
AcDbCircle
 62
7
  6
CONTINUOUS
 10
10.5342808475
 20
1.243294839
 40
0.252091
  0
CIRCLE
  5
868
100
AcDbEntity
  8
0
100
AcDbCircle
 62
7
  6
CONTINUOUS
 10
10.5342808475
 20
1.243294839
 40
0.182698
  0
ARC
  5
869
100
AcDbEntity
  8
0
100
AcDbCircle
 62
7
  6
CONTINUOUS
 10
8.4539674953
 20
8.5657694159
 40
0.3275
100
AcDbArc
 50
53.9999999881
 51
62.9999999978
  0
ARC
  5
86A
100
AcDbEntity
  8
0
100
AcDbCircle
 62
7
  6
CONTINUOUS
 10
8.4539674953
 20
8.5657694159
 40
0.32
100
AcDbArc
 50
152.0468131166
 51
207.9531868834
  0
ARC
  5
86B
100
AcDbEntity
  8
0
100
AcDbCircle
 62
7
  6
CONTINUOUS
 10
8.4539674953
 20
8.5657694159
 40
0.32
100
AcDbArc
 50
332.0468131166
 51
27.9531868834
  0
ARC
  5
86C
100
AcDbEntity
  8
0
100
AcDbCircle
 62
7
  6
CONTINUOUS
 10
8.4539674953
 20
8.5657694159
 40
0.3139989124
100
AcDbArc
 50
28.5979995669
 51
151.402325968
  0
ARC
  5
86D
100
AcDbEntity
  8
0
100
AcDbCircle
 62
7
  6
CONTINUOUS
 10
8.4539674953
 20
8.5657694159
 40
0.3139989124
100
AcDbArc
 50
208.5979995669
 51
331.402325968
  0
ARC
  5
86E
100
AcDbEntity
  8
0
100
AcDbCircle
 62
7
  6
CONTINUOUS
 10
8.4539674953
 20
8.5657694159
 40
0.302
100
AcDbArc
 50
29.7946004905
 51
150.2059102843
  0
ARC
  5
86F
100
AcDbEntity
  8
0
100
AcDbCircle
 62
7
  6
CONTINUOUS
 10
8.4539674953
 20
8.5657694159
 40
0.302
100
AcDbArc
 50
209.7946004905
 51
330.2059102843
  0
ARC
  5
870
100
AcDbEntity
  8
0
100
AcDbCircle
 62
7
  6
CONTINUOUS
 10
8.4539674953
 20
8.5657694159
 40
0.3
100
AcDbArc
 50
30.0
 51
150.0
  0
ARC
  5
871
100
AcDbEntity
  8
0
100
AcDbCircle
 62
7
  6
CONTINUOUS
 10
8.4539674953
 20
8.5657694159
 40
0.3
100
AcDbArc
 50
210.0
 51
330.0
  0
ARC
  5
872
100
AcDbEntity
  8
0
100
AcDbCircle
 62
7
  6
CONTINUOUS
 10
8.6589674953
 20
6.6293143042
 40
0.01
100
AcDbArc
 50
270.0
 51
360.0
  0
ARC
  5
873
100
AcDbEntity
  8
0
100
AcDbCircle
 62
7
  6
CONTINUOUS
 10
8.2489674953
 20
6.6293143042
 40
0.01
100
AcDbArc
 50
180.0
 51
270.0
  0
ELLIPSE
  5
874
100
AcDbEntity
  8
0
100
AcDbEllipse
 62
7
  6
CONTINUOUS
 10
14.8636478582
 20
8.7591849854
 30
0.0
 11
-0.1624999562
 21
0.2814582815
 31
0.0
 40
0.3261285034
 41
-2.2791875015
 42
-0.862389456
  0
ELLIPSE
  5
875
100
AcDbEntity
  8
0
100
AcDbEllipse
 62
7
  6
CONTINUOUS
 10
8.1889674953
 20
4.2386271024
 30
0.0
 11
0.2397327473
 21
-0.0546225252
 31
0.0
 40
0.2072950592
 41
-1.5235997252
 42
0.0471966016
  0
ELLIPSE
  5
876
100
AcDbEntity
  8
0
100
AcDbEllipse
 62
7
  6
CONTINUOUS
 10
8.3075963916
 20
4.1870066119
 30
0.0
 11
0.0599331868
 21
-0.0136556313
 31
0.0
 40
0.2072950592
 41
0.0
 42
6.2831853072
  0
ELLIPSE
  5
877
100
AcDbEntity
  8
0
100
AcDbEllipse
 62
7
  6
CONTINUOUS
 10
8.4539674953
 20
4.1233143042
 30
0.0
 11
0.3246380953
 21
-0.0739680029
 31
0.0
 40
0.2072950592
 41
1.694992069
 42
3.1117901145
  0
ENDSEC
  0
SECTION
  2
OBJECTS
  0
DICTIONARY
  5
C
100
AcDbDictionary
280
0
281
1
  3
ACAD_GROUP
350
D
  3
ACAD_MLINESTYLE
350
17
  3
ACAD_LAYOUT
350
1A
  3
ACAD_PLOTSETTINGS
350
19
  3
ACAD_PLOTSTYLENAME
350
E
  0
DICTIONARY
  5
D
102
{ACAD_REACTORS
330
C
102
}
100
AcDbDictionary
280
0
281
1
  0
ACDBDICTIONARYWDFLT
  5
E
102
{ACAD_REACTORS
330
C
102
}
100
AcDbDictionary
281
1
  3
Normal
350
F
100
AcDbDictionaryWithDefault
340
F
  0
DICTIONARY
  5
17
102
{ACAD_REACTORS
330
C
102
}
100
AcDbDictionary
280
0
281
1
  3
Standard
350
18
  0
DICTIONARY
  5
19
102
{ACAD_REACTORS
330
C
102
}
100
AcDbDictionary
281
1
  0
DICTIONARY
  5
1A
102
{ACAD_REACTORS
330
C
102
}
100
AcDbDictionary
281
1
  3
Model
350
878
  3
Layout1
350
879
  0
ACDBPLACEHOLDER
  5
F
102
{ACAD_REACTORS
330
E
102
}
  0
MLINESTYLE
  5
18
102
{ACAD_REACTORS
330
17
102
}
100
AcDbMlineStyle
  2
STANDARD
 70
0
  3

 62
256
 51
90.0
 52
90.0
 71
2
 49
0.5
 62
256
  6
BYLAYER
 49
-0.5
 62
256
  6
BYLAYER
  0
LAYOUT
  5
878
102
{ACAD_REACTORS
330
1A
102
}
100
AcDbPlotSettings
  1

  2
none_device
  4
ANSI_B_(17.00_x_11.00_Inches)
  6

 40
0.0
 41
0.0
 42
0.0
 43
0.0
 44
431.8
 45
279.4
 46
0.0
 47
0.0
 48
0.0
 49
0.0
140
0.0
141
0.0
142
1.0
143
1.0
 70
1024
 72
0
 73
0
 74
0
  7

 75
0
147
1.0
148
0.0
149
0.0
100
AcDbLayout
  1
Model
 70
0
 71
0
 10
0.0
 20
0.0
 11
17.0
 21
11.0
 12
0.0
 22
0.0
 32
0.0
 14
0.0
 24
0.0
 34
0.0
 15
0.0
 25
0.0
 35
0.0
146
0.0
 13
0.0
 23
0.0
 33
0.0
 16
1.0
 26
0.0
 36
0.0
 17
0.0
 27
1.0
 37
0.0
 76
0
330
232
345
0
346
0
  0
LAYOUT
  5
879
102
{ACAD_REACTORS
330
1A
102
}
100
AcDbPlotSettings
  1

  2
none_device
  4
ANSI_B_(17.00_x_11.00_Inches)
  6

 40
0.0
 41
0.0
 42
0.0
 43
0.0
 44
431.8
 45
279.4
 46
0.0
 47
0.0
 48
0.0
 49
0.0
140
0.0
141
0.0
142
1.0
143
1.0
 70
0
 72
0
 73
0
 74
0
  7

 75
0
147
1.0
148
0.0
149
0.0
100
AcDbLayout
  1
Layout1
 70
0
 71
1
 10
0.0
 20
0.0
 11
17.0
 21
11.0
 12
0.0
 22
0.0
 32
0.0
 14
0.0
 24
0.0
 34
0.0
 15
0.0
 25
0.0
 35
0.0
146
0.0
 13
0.0
 23
0.0
 33
0.0
 16
1.0
 26
0.0
 36
0.0
 17
0.0
 27
1.0
 37
0.0
 76
0
330
233
345
0
346
0
  0
ENDSEC
  0
EOF
