999
DXF file: 155346_1.dxf
999
Pro/ENGINEER 2009141 by Parametric Technology Corporation
  0
SECTION
  2
HEADER
  9
$ACADVER
  1
AC1015
  9
$DWGCODEPAGE
  3
ANSI_1252
  9
$EXTMAX
 10
17.0
 20
11.0
 30
0.0
  9
$EXTMIN
 10
0.0
 20
0.0
 30
0.0
  9
$LIMMIN
 10
0.0
 20
0.0
  9
$LIMMAX
 10
17.0
 20
11.0
  9
$VIEWCTR
 10
8.5
 20
5.5
  9
$VIEWSIZE
 40
11.0
  9
$CLAYER
  8
0
  9
$LTSCALE
 40
0.935
  9
$CELTYPE
  6
BYLAYER
  9
$DIMSCALE
 40
1.0
  9
$DIMASZ
 40
0.1875
  9
$DIMEXO
 40
0.10625
  9
$DIMDLI
 40
0.646
  9
$DIMEXE
 40
0.306
  9
$DIMCEN
 40
0.153
  9
$DIMLFAC
 40
1.0
  9
$DIMBLK
  1
_FILLED
  9
$DIMTXT
 40
0.1
  9
$DIMTOL
 70
1
  9
$DIMLIM
 70
0
  9
$DIMTFAC
 40
1.0
  9
$DIMTP
 40
0.005
  9
$DIMTM
 40
0.005
  9
$PDMODE
 70
3
  9
$PDSIZE
 40
0.3125
  9
$HANDSEED
  5
82B
  9
$TILEMODE
 70
1
  9
$MEASUREMENT
 70
0
  9
$INSUNITS
 70
1
  0
ENDSEC
  0
SECTION
  2
CLASSES
  0
CLASS
  1
ACDBDICTIONARYWDFLT
  2
AcDbDictionaryWithDefault
  3
AutoCAD 2000
 90
0
280
0
281
0
  0
CLASS
  1
ACDBPLACEHOLDER
  2
AcDbPlaceHolder
  3
AutoCAD 2000
 90
0
280
0
281
0
  0
CLASS
  1
LAYOUT
  2
AcDbLayout
  3
AutoCAD 2000
 90
0
280
0
281
0
  0
ENDSEC
  0
SECTION
  2
TABLES
  0
TABLE
  2
VPORT
  5
8
100
AcDbSymbolTable
 70
2
  0
VPORT
  5
1F4
100
AcDbSymbolTableRecord
100
AcDbViewportTableRecord
  2
*ACTIVE
 70
0
 10
0.0
 20
0.0
 11
1.0
 21
1.0
 12
8.5
 22
5.5
 13
0.0
 23
0.0
 14
1.0
 24
1.0
 15
0.0
 25
0.0
 16
0.0
 26
0.0
 36
1.0
 17
0.0
 27
0.0
 37
0.0
 40
11.0
 41
1.5454545455
 42
50.0
 43
0.0
 44
0.0
 50
0.0
 51
0.0
 71
0
 72
100
 73
1
 74
1
 75
0
 76
0
 77
0
 78
0
  0
ENDTAB
  0
TABLE
  2
LTYPE
  5
5
100
AcDbSymbolTable
 70
6
  0
LTYPE
  5
14
100
AcDbSymbolTableRecord
100
AcDbLinetypeTableRecord
  2
BYBLOCK
 70
0
  3

 72
65
 73
0
 40
0.0
  0
LTYPE
  5
15
100
AcDbSymbolTableRecord
100
AcDbLinetypeTableRecord
  2
BYLAYER
 70
0
  3

 72
65
 73
0
 40
0.0
  0
LTYPE
  5
16
100
AcDbSymbolTableRecord
100
AcDbLinetypeTableRecord
  2
CONTINUOUS
 70
64
  3
Solid line
 72
65
 73
0
 40
0.0
  0
LTYPE
  5
1F5
100
AcDbSymbolTableRecord
100
AcDbLinetypeTableRecord
  2
CENTER
 70
64
  3
____ _ ____ _ ____ _ ____ _ ____ _ ____ _ ____
 72
65
 73
4
 40
0.6
 49
0.375
 74
0
 49
-0.075
 74
0
 49
0.075
 74
0
 49
-0.075
 74
0
  0
LTYPE
  5
1F6
100
AcDbSymbolTableRecord
100
AcDbLinetypeTableRecord
  2
HIDDEN
 70
64
  3
- - - - - - - - - - - - - - - - - - - -
 72
65
 73
2
 40
0.2
 49
0.1
 74
0
 49
-0.1
 74
0
  0
LTYPE
  5
1F7
100
AcDbSymbolTableRecord
100
AcDbLinetypeTableRecord
  2
PHANTOM
 70
64
  3
_____ _ _ _____ _ _ _____ _ _ _____
 72
65
 73
6
 40
0.8
 49
0.45
 74
0
 49
-0.05
 74
0
 49
0.1
 74
0
 49
-0.05
 74
0
 49
0.1
 74
0
 49
-0.05
 74
0
  0
LTYPE
  5
1F8
100
AcDbSymbolTableRecord
100
AcDbLinetypeTableRecord
  2
DOT
 70
64
  3
. . . . . . . . . . . . . . . . . . . .
 72
65
 73
2
 40
0.2
 49
0.1
 74
0
 49
-0.1
 74
0
  0
LTYPE
  5
1F9
100
AcDbSymbolTableRecord
100
AcDbLinetypeTableRecord
  2
DASHED
 70
64
  3
- - - - - - - - - - - - - - - - - - - -
 72
65
 73
2
 40
0.2
 49
0.1
 74
0
 49
-0.1
 74
0
  0
ENDTAB
  0
TABLE
  2
LAYER
  5
2
100
AcDbSymbolTable
 70
36
  0
LAYER
  5
10
100
AcDbSymbolTableRecord
100
AcDbLayerTableRecord
  2
0
 70
0
 62
7
  6
CONTINUOUS
370
-3
390
F
  0
LAYER
  5
1FA
100
AcDbSymbolTableRecord
100
AcDbLayerTableRecord
  2
DEFAULT_1
 70
0
 62
7
  6
CENTER
370
-3
390
F
  0
LAYER
  5
1FB
100
AcDbSymbolTableRecord
100
AcDbLayerTableRecord
  2
DEFAULT_2
 70
0
 62
8
  6
HIDDEN
370
-3
390
F
  0
LAYER
  5
1FC
100
AcDbSymbolTableRecord
100
AcDbLayerTableRecord
  2
DEFAULT_3
 70
0
 62
7
  6
PHANTOM
370
-3
390
F
  0
LAYER
  5
1FD
100
AcDbSymbolTableRecord
100
AcDbLayerTableRecord
  2
1
 70
0
 62
7
  6
CONTINUOUS
370
-3
390
F
  0
LAYER
  5
1FE
100
AcDbSymbolTableRecord
100
AcDbLayerTableRecord
  2
10
 70
0
 62
7
  6
CONTINUOUS
370
-3
390
F
  0
LAYER
  5
1FF
100
AcDbSymbolTableRecord
100
AcDbLayerTableRecord
  2
11
 70
0
 62
7
  6
CONTINUOUS
370
-3
390
F
  0
LAYER
  5
200
100
AcDbSymbolTableRecord
100
AcDbLayerTableRecord
  2
12
 70
0
 62
7
  6
CONTINUOUS
370
-3
390
F
  0
LAYER
  5
201
100
AcDbSymbolTableRecord
100
AcDbLayerTableRecord
  2
13
 70
0
 62
7
  6
CONTINUOUS
370
-3
390
F
  0
LAYER
  5
202
100
AcDbSymbolTableRecord
100
AcDbLayerTableRecord
  2
14
 70
0
 62
7
  6
CONTINUOUS
370
-3
390
F
  0
LAYER
  5
203
100
AcDbSymbolTableRecord
100
AcDbLayerTableRecord
  2
15
 70
0
 62
7
  6
CONTINUOUS
370
-3
390
F
  0
LAYER
  5
204
100
AcDbSymbolTableRecord
100
AcDbLayerTableRecord
  2
16
 70
0
 62
7
  6
CONTINUOUS
370
-3
390
F
  0
LAYER
  5
205
100
AcDbSymbolTableRecord
100
AcDbLayerTableRecord
  2
17
 70
0
 62
7
  6
CONTINUOUS
370
-3
390
F
  0
LAYER
  5
206
100
AcDbSymbolTableRecord
100
AcDbLayerTableRecord
  2
18
 70
0
 62
7
  6
CONTINUOUS
370
-3
390
F
  0
LAYER
  5
207
100
AcDbSymbolTableRecord
100
AcDbLayerTableRecord
  2
19
 70
0
 62
7
  6
CONTINUOUS
370
-3
390
F
  0
LAYER
  5
208
100
AcDbSymbolTableRecord
100
AcDbLayerTableRecord
  2
2
 70
0
 62
7
  6
CONTINUOUS
370
-3
390
F
  0
LAYER
  5
209
100
AcDbSymbolTableRecord
100
AcDbLayerTableRecord
  2
20
 70
0
 62
7
  6
CONTINUOUS
370
-3
390
F
  0
LAYER
  5
20A
100
AcDbSymbolTableRecord
100
AcDbLayerTableRecord
  2
21
 70
0
 62
7
  6
CONTINUOUS
370
-3
390
F
  0
LAYER
  5
20B
100
AcDbSymbolTableRecord
100
AcDbLayerTableRecord
  2
22
 70
0
 62
7
  6
CONTINUOUS
370
-3
390
F
  0
LAYER
  5
20C
100
AcDbSymbolTableRecord
100
AcDbLayerTableRecord
  2
23
 70
0
 62
7
  6
CONTINUOUS
370
-3
390
F
  0
LAYER
  5
20D
100
AcDbSymbolTableRecord
100
AcDbLayerTableRecord
  2
24
 70
0
 62
7
  6
CONTINUOUS
370
-3
390
F
  0
LAYER
  5
20E
100
AcDbSymbolTableRecord
100
AcDbLayerTableRecord
  2
25
 70
0
 62
7
  6
CONTINUOUS
370
-3
390
F
  0
LAYER
  5
20F
100
AcDbSymbolTableRecord
100
AcDbLayerTableRecord
  2
26
 70
0
 62
7
  6
CONTINUOUS
370
-3
390
F
  0
LAYER
  5
210
100
AcDbSymbolTableRecord
100
AcDbLayerTableRecord
  2
27
 70
0
 62
7
  6
CONTINUOUS
370
-3
390
F
  0
LAYER
  5
211
100
AcDbSymbolTableRecord
100
AcDbLayerTableRecord
  2
28
 70
0
 62
7
  6
CONTINUOUS
370
-3
390
F
  0
LAYER
  5
212
100
AcDbSymbolTableRecord
100
AcDbLayerTableRecord
  2
29
 70
0
 62
7
  6
CONTINUOUS
370
-3
390
F
  0
LAYER
  5
213
100
AcDbSymbolTableRecord
100
AcDbLayerTableRecord
  2
3
 70
0
 62
7
  6
CONTINUOUS
370
-3
390
F
  0
LAYER
  5
214
100
AcDbSymbolTableRecord
100
AcDbLayerTableRecord
  2
30
 70
0
 62
7
  6
CONTINUOUS
370
-3
390
F
  0
LAYER
  5
215
100
AcDbSymbolTableRecord
100
AcDbLayerTableRecord
  2
31
 70
0
 62
7
  6
CONTINUOUS
370
-3
390
F
  0
LAYER
  5
216
100
AcDbSymbolTableRecord
100
AcDbLayerTableRecord
  2
32
 70
0
 62
7
  6
CONTINUOUS
370
-3
390
F
  0
LAYER
  5
217
100
AcDbSymbolTableRecord
100
AcDbLayerTableRecord
  2
4
 70
0
 62
7
  6
CONTINUOUS
370
-3
390
F
  0
LAYER
  5
218
100
AcDbSymbolTableRecord
100
AcDbLayerTableRecord
  2
5
 70
0
 62
7
  6
CONTINUOUS
370
-3
390
F
  0
LAYER
  5
219
100
AcDbSymbolTableRecord
100
AcDbLayerTableRecord
  2
6
 70
0
 62
7
  6
CONTINUOUS
370
-3
390
F
  0
LAYER
  5
21A
100
AcDbSymbolTableRecord
100
AcDbLayerTableRecord
  2
7
 70
0
 62
7
  6
CONTINUOUS
370
-3
390
F
  0
LAYER
  5
21B
100
AcDbSymbolTableRecord
100
AcDbLayerTableRecord
  2
8
 70
0
 62
7
  6
CONTINUOUS
370
-3
390
F
  0
LAYER
  5
21C
100
AcDbSymbolTableRecord
100
AcDbLayerTableRecord
  2
9
 70
0
 62
7
  6
CONTINUOUS
370
-3
390
F
  0
LAYER
  5
21D
100
AcDbSymbolTableRecord
100
AcDbLayerTableRecord
  2
AXIS
 70
0
 62
7
  6
CONTINUOUS
370
-3
390
F
  0
LAYER
  5
21E
100
AcDbSymbolTableRecord
100
AcDbLayerTableRecord
  2
AXIS_COSMETIC_THREADS
 70
0
 62
7
  6
CONTINUOUS
370
-3
390
F
  0
LAYER
  5
21F
100
AcDbSymbolTableRecord
100
AcDbLayerTableRecord
  2
CURVES
 70
0
 62
7
  6
CONTINUOUS
370
-3
390
F
  0
LAYER
  5
220
100
AcDbSymbolTableRecord
100
AcDbLayerTableRecord
  2
DATUM_CURVES
 70
0
 62
7
  6
CONTINUOUS
370
-3
390
F
  0
LAYER
  5
221
100
AcDbSymbolTableRecord
100
AcDbLayerTableRecord
  2
DATUM_PLANES
 70
0
 62
7
  6
CONTINUOUS
370
-3
390
F
  0
LAYER
  5
222
100
AcDbSymbolTableRecord
100
AcDbLayerTableRecord
  2
DEF_CSY
 70
0
 62
7
  6
CONTINUOUS
370
-3
390
F
  0
LAYER
  5
223
100
AcDbSymbolTableRecord
100
AcDbLayerTableRecord
  2
DRIVEN_DIMS
 70
0
 62
7
  6
CONTINUOUS
370
-3
390
F
  0
LAYER
  5
224
100
AcDbSymbolTableRecord
100
AcDbLayerTableRecord
  2
GEOMTOL
 70
0
 62
7
  6
CONTINUOUS
370
-3
390
F
  0
LAYER
  5
225
100
AcDbSymbolTableRecord
100
AcDbLayerTableRecord
  2
MATTE_OUTLINE
 70
0
 62
7
  6
CONTINUOUS
370
-3
390
F
  0
LAYER
  5
226
100
AcDbSymbolTableRecord
100
AcDbLayerTableRecord
  2
NOTES
 70
0
 62
7
  6
CONTINUOUS
370
-3
390
F
  0
LAYER
  5
227
100
AcDbSymbolTableRecord
100
AcDbLayerTableRecord
  2
PNTS
 70
0
 62
7
  6
CONTINUOUS
370
-3
390
F
  0
LAYER
  5
228
100
AcDbSymbolTableRecord
100
AcDbLayerTableRecord
  2
QUILTS
 70
0
 62
7
  6
CONTINUOUS
370
-3
390
F
  0
LAYER
  5
229
100
AcDbSymbolTableRecord
100
AcDbLayerTableRecord
  2
SCHEME_DIMS
 70
0
 62
7
  6
CONTINUOUS
370
-3
390
F
  0
LAYER
  5
22A
100
AcDbSymbolTableRecord
100
AcDbLayerTableRecord
  2
SKETCHED_ENT
 70
0
 62
7
  6
CONTINUOUS
370
-3
390
F
  0
LAYER
  5
22B
100
AcDbSymbolTableRecord
100
AcDbLayerTableRecord
  2
SURFACES
 70
0
 62
7
  6
CONTINUOUS
370
-3
390
F
  0
LAYER
  5
22C
100
AcDbSymbolTableRecord
100
AcDbLayerTableRecord
  2
SYMBOLS
 70
0
 62
7
  6
CONTINUOUS
370
-3
390
F
  0
ENDTAB
  0
TABLE
  2
STYLE
  5
3
100
AcDbSymbolTable
 70
1
  0
STYLE
  5
11
100
AcDbSymbolTableRecord
100
AcDbTextStyleTableRecord
  2
STANDARD
 70
0
 40
0.0
 41
1.0
 50
0.0
 71
0
 42
0.2
  3
txt
  4

  0
STYLE
  5
22D
100
AcDbSymbolTableRecord
100
AcDbTextStyleTableRecord
  2
TEXTSTYLE_1
 70
0
 40
0.0
 41
0.8
 50
0.0
 71
0
 42
0.2
  3
gdt
  4

  0
STYLE
  5
22E
100
AcDbSymbolTableRecord
100
AcDbTextStyleTableRecord
  2
TEXTSTYLE_2
 70
0
 40
0.0
 41
0.8
 50
0.0
 71
0
 42
0.2
  3
txt
  4

  0
STYLE
  5
22F
100
AcDbSymbolTableRecord
100
AcDbTextStyleTableRecord
  2
TEXTSTYLE_3
 70
0
 40
0.0
 41
0.85
 50
0.0
 71
0
 42
0.2
  3
txt
  4

  0
STYLE
  5
230
100
AcDbSymbolTableRecord
100
AcDbTextStyleTableRecord
  2
TEXTSTYLE_4
 70
0
 40
0.0
 41
0.92
 50
0.0
 71
0
 42
0.2
  3
txt
  4

  0
STYLE
  5
231
100
AcDbSymbolTableRecord
100
AcDbTextStyleTableRecord
  2
TEXTSTYLE_5
 70
0
 40
0.0
 41
1.0
 50
0.0
 71
0
 42
0.2
  3
gdt
  4

  0
ENDTAB
  0
TABLE
  2
VIEW
  5
6
100
AcDbSymbolTable
 70
0
  0
ENDTAB
  0
TABLE
  2
UCS
  5
7
100
AcDbSymbolTable
 70
0
  0
ENDTAB
  0
TABLE
  2
APPID
  5
9
100
AcDbSymbolTable
 70
1
  0
APPID
  5
232
100
AcDbSymbolTableRecord
100
AcDbRegAppTableRecord
  2
ACAD
 70
0
  0
ENDTAB
  0
TABLE
  2
BLOCK_RECORD
  5
1
100
AcDbSymbolTable
 70
0
  0
BLOCK_RECORD
  5
233
100
AcDbSymbolTableRecord
100
AcDbBlockTableRecord
  2
*Model_Space
  0
BLOCK_RECORD
  5
234
100
AcDbSymbolTableRecord
100
AcDbBlockTableRecord
  2
*Paper_Space
  0
BLOCK_RECORD
  5
235
100
AcDbSymbolTableRecord
100
AcDbBlockTableRecord
  2
_FILLED
  0
BLOCK_RECORD
  5
236
100
AcDbSymbolTableRecord
100
AcDbBlockTableRecord
  2
*D0
  0
BLOCK_RECORD
  5
237
100
AcDbSymbolTableRecord
100
AcDbBlockTableRecord
  2
*D1
  0
BLOCK_RECORD
  5
238
100
AcDbSymbolTableRecord
100
AcDbBlockTableRecord
  2
*D2
  0
BLOCK_RECORD
  5
239
100
AcDbSymbolTableRecord
100
AcDbBlockTableRecord
  2
BANNER_LOGO_TITLEBLOCK_BL0
  0
ENDTAB
  0
TABLE
  2
DIMSTYLE
  5
A
100
AcDbSymbolTable
 70
1
100
AcDbDimStyleTable
 71
0
  0
DIMSTYLE
105
23A
100
AcDbSymbolTableRecord
100
AcDbDimStyleTableRecord
  2
STANDARD
 70
0
  3

  4

 40
1.0
 41
0.1875
 42
0.0625
 43
0.38
 44
0.18
 45
0.0
 46
0.0
 47
0.005
 48
0.005
140
0.1
141
0.09
142
0.0
143
25.4
144
1.0
145
0.0
146
1.0
147
0.09
 71
1.0
 72
0.0
 73
1
 74
1
 75
0
 76
0
 77
0
 78
4
170
0
171
2
172
0
173
0
174
0
175
0
176
0
177
0
178
0
270
2
271
3
272
3
273
2
274
2
275
0
280
0
281
0
282
0
283
1
284
4
285
0
286
0
287
3
288
0
340
11
341
235
342
235
343
235
344
235
  0
DIMSTYLE
105
23B
100
AcDbSymbolTableRecord
100
AcDbDimStyleTableRecord
  2
DIMSTYLE_1
 70
0
  3

  4

 40
1.0
 41
0.1875
 42
0.0625
 43
0.38
 44
0.18
 45
0.0
 46
0.0
 47
0.0
 48
0.0
140
0.1
141
0.09
142
0.0
143
25.4
144
1.0
145
0.0
146
1.0
147
0.09
 71
0.0
 72
0.0
 73
1
 74
1
 75
0
 76
0
 77
0
 78
4
170
0
171
2
172
0
173
0
174
0
175
0
176
0
177
0
178
0
270
2
271
1
272
1
273
2
274
2
275
0
280
0
281
0
282
0
283
1
284
4
285
0
286
0
287
3
288
0
340
11
341
235
342
235
343
235
344
235
  0
DIMSTYLE
105
23C
100
AcDbSymbolTableRecord
100
AcDbDimStyleTableRecord
  2
DIMSTYLE_2
 70
0
  3

  4

 40
1.0
 41
0.1875
 42
0.0625
 43
0.38
 44
0.18
 45
0.0
 46
0.0
 47
0.1
 48
0.1
140
0.1
141
0.09
142
0.0
143
25.4
144
1.0
145
0.0
146
1.0
147
0.09
 71
0.0
 72
0.0
 73
1
 74
1
 75
0
 76
0
 77
0
 78
4
170
0
171
2
172
0
173
0
174
0
175
0
176
0
177
0
178
0
270
2
271
1
272
1
273
2
274
2
275
0
280
0
281
0
282
0
283
1
284
4
285
0
286
0
287
3
288
0
340
11
341
235
342
235
343
235
344
235
  0
ENDTAB
  0
ENDSEC
  0
SECTION
  2
BLOCKS
  0
BLOCK
  5
20
100
AcDbEntity
  8
0
100
AcDbBlockBegin
  2
*Model_Space
 70
0
 10
0.0
 20
0.0
 30
0.0
  3
*Model_Space
  1

  0
ENDBLK
  5
21
100
AcDbEntity
  8
0
100
AcDbBlockEnd
  0
BLOCK
  5
1C
100
AcDbEntity
  8
0
100
AcDbBlockBegin
  2
*Paper_Space
 70
0
 10
0.0
 20
0.0
 30
0.0
  3
*Paper_Space
  1

  0
ENDBLK
  5
1D
100
AcDbEntity
  8
0
100
AcDbBlockEnd
  0
BLOCK
  5
23D
100
AcDbEntity
  8
0
100
AcDbBlockBegin
 62
2
  6
CONTINUOUS
  2
BANNER_LOGO_TITLEBLOCK_BL0
 70
64
 10
12.9086867042
 20
2.5403783405
  3
BANNER_LOGO_TITLEBLOCK_BL0
  1

  0
ELLIPSE
  5
23E
100
AcDbEntity
  8
0
100
AcDbEllipse
 62
2
  6
CONTINUOUS
 10
12.9046654608
 20
2.5403783405
 30
0.0
 11
-0.8250004575
 21
0.0
 31
0.0
 40
0.218572
 41
0.0
 42
6.2831853072
  0
ARC
  5
23F
100
AcDbEntity
  8
0
100
AcDbCircle
 62
2
  6
CONTINUOUS
 10
12.400005721
 20
2.5168763464
 40
0.0153945295
100
AcDbArc
 50
354.0454548824
 51
5.1878013979
  0
ARC
  5
240
100
AcDbEntity
  8
0
100
AcDbCircle
 62
2
  6
CONTINUOUS
 10
12.3931760319
 20
2.5166878286
 40
0.0222174455
100
AcDbArc
 50
4.0793399388
 51
69.834329283
  0
LINE
  5
241
100
AcDbEntity
  8
0
100
AcDbLine
 62
2
  6
CONTINUOUS
 10
12.4008351814
 20
2.5375433389
 11
12.3907841758
 21
2.5410923409
  0
LINE
  5
242
100
AcDbEntity
  8
0
100
AcDbLine
 62
2
  6
CONTINUOUS
 10
12.3907841758
 20
2.5410923409
 11
12.3990241804
 21
2.5458683435
  0
ARC
  5
243
100
AcDbEntity
  8
0
100
AcDbCircle
 62
2
  6
CONTINUOUS
 10
12.3771587979
 20
2.5826952352
 40
0.0428289026
100
AcDbArc
 50
300.6990502959
 51
319.0591802498
  0
ARC
  5
244
100
AcDbEntity
  8
0
100
AcDbCircle
 62
2
  6
CONTINUOUS
 10
12.3971873948
 20
2.5665668817
 40
0.0171568255
100
AcDbArc
 50
315.9145124245
 51
16.0049121282
  0
ARC
  5
245
100
AcDbEntity
  8
0
100
AcDbCircle
 62
2
  6
CONTINUOUS
 10
12.3922357827
 20
2.5632132173
 40
0.0229166529
100
AcDbArc
 50
20.6563876465
 51
62.3316896973
  0
ARC
  5
246
100
AcDbEntity
  8
0
100
AcDbCircle
 62
2
  6
CONTINUOUS
 10
12.371573659
 20
2.5302846524
 40
0.061747717
100
AcDbArc
 50
59.5385584989
 51
90.0050977555
  0
LINE
  5
247
100
AcDbEntity
  8
0
100
AcDbLine
 62
2
  6
CONTINUOUS
 10
12.3715681652
 20
2.5920323691
 11
12.2055050731
 21
2.5920323691
  0
ARC
  5
248
100
AcDbEntity
  8
0
100
AcDbCircle
 62
2
  6
CONTINUOUS
 10
12.2055050712
 20
2.5895573696
 40
0.0024749995
100
AcDbArc
 50
89.9999571957
 51
180.0000428043
  0
LINE
  5
249
100
AcDbEntity
  8
0
100
AcDbLine
 62
2
  6
CONTINUOUS
 10
12.2030300717
 20
2.5895573678
 11
12.2030300717
 21
2.5697573568
  0
ARC
  5
24A
100
AcDbEntity
  8
0
100
AcDbCircle
 62
2
  6
CONTINUOUS
 10
12.2055050712
 20
2.5697573549
 40
0.0024749995
100
AcDbArc
 50
179.9999571957
 51
270.0000428043
  0
LINE
  5
24B
100
AcDbEntity
  8
0
100
AcDbLine
 62
2
  6
CONTINUOUS
 10
12.2055050731
 20
2.5672823554
 11
12.2294470864
 21
2.5672823554
  0
ARC
  5
24C
100
AcDbEntity
  8
0
100
AcDbCircle
 62
2
  6
CONTINUOUS
 10
12.2294470882
 20
2.5648073559
 40
0.0024749995
100
AcDbArc
 50
359.9999571957
 51
90.0000428043
  0
LINE
  5
24D
100
AcDbEntity
  8
0
100
AcDbLine
 62
2
  6
CONTINUOUS
 10
12.2319220877
 20
2.564807354
 11
12.2319220877
 21
2.5184523283
  0
ARC
  5
24E
100
AcDbEntity
  8
0
100
AcDbCircle
 62
2
  6
CONTINUOUS
 10
12.2294470882
 20
2.5184523265
 40
0.0024749995
100
AcDbArc
 50
269.9999571957
 51
0.0000428043
  0
LINE
  5
24F
100
AcDbEntity
  8
0
100
AcDbLine
 62
2
  6
CONTINUOUS
 10
12.2294470864
 20
2.515977327
 11
12.2055050731
 21
2.515977327
  0
ARC
  5
250
100
AcDbEntity
  8
0
100
AcDbCircle
 62
2
  6
CONTINUOUS
 10
12.2055050712
 20
2.5135023274
 40
0.0024749995
100
AcDbArc
 50
89.9999571957
 51
180.0000428043
  0
LINE
  5
251
100
AcDbEntity
  8
0
100
AcDbLine
 62
2
  6
CONTINUOUS
 10
12.2030300717
 20
2.5135023256
 11
12.2030300717
 21
2.4937023146
  0
ARC
  5
252
100
AcDbEntity
  8
0
100
AcDbCircle
 62
2
  6
CONTINUOUS
 10
12.2055050712
 20
2.4937023128
 40
0.0024749995
100
AcDbArc
 50
179.9999571957
 51
270.0000428043
  0
LINE
  5
253
100
AcDbEntity
  8
0
100
AcDbLine
 62
2
  6
CONTINUOUS
 10
12.2055050731
 20
2.4912273132
 11
12.3819511709
 21
2.4912273132
  0
ARC
  5
254
100
AcDbEntity
  8
0
100
AcDbCircle
 62
2
  6
CONTINUOUS
 10
12.3792298263
 20
2.539634765
 40
0.048483885
100
AcDbArc
 50
273.21763719
 51
303.0749121182
  0
ARC
  5
255
100
AcDbEntity
  8
0
100
AcDbCircle
 62
2
  6
CONTINUOUS
 10
12.3940692204
 20
2.5168671561
 40
0.0213072145
100
AcDbArc
 50
303.0488228549
 51
355.7263138674
  0
LINE
  5
256
100
AcDbEntity
  8
0
100
AcDbLine
 62
2
  6
CONTINUOUS
 10
12.2949101227
 20
2.5499573458
 11
12.3362731456
 21
2.5499573458
  0
ARC
  5
257
100
AcDbEntity
  8
0
100
AcDbCircle
 62
2
  6
CONTINUOUS
 10
12.3362731456
 20
2.5586198506
 40
0.0086625048
100
AcDbArc
 50
270.0
 51
90.0
  0
LINE
  5
258
100
AcDbEntity
  8
0
100
AcDbLine
 62
2
  6
CONTINUOUS
 10
12.3362731456
 20
2.5672823554
 11
12.2949101227
 21
2.5672823554
  0
ARC
  5
259
100
AcDbEntity
  8
0
100
AcDbCircle
 62
2
  6
CONTINUOUS
 10
12.2949101208
 20
2.5648073559
 40
0.0024749995
100
AcDbArc
 50
89.9999571957
 51
180.0000428043
  0
LINE
  5
25A
100
AcDbEntity
  8
0
100
AcDbLine
 62
2
  6
CONTINUOUS
 10
12.2924351213
 20
2.564807354
 11
12.2924351213
 21
2.5524323472
  0
ARC
  5
25B
100
AcDbEntity
  8
0
100
AcDbCircle
 62
2
  6
CONTINUOUS
 10
12.2949101208
 20
2.5524323453
 40
0.0024749995
100
AcDbArc
 50
179.9999571957
 51
270.0000428043
  0
LINE
  5
25C
100
AcDbEntity
  8
0
100
AcDbLine
 62
2
  6
CONTINUOUS
 10
12.2924351213
 20
2.5184523283
 11
12.2924351213
 21
2.5308273352
  0
ARC
  5
25D
100
AcDbEntity
  8
0
100
AcDbCircle
 62
2
  6
CONTINUOUS
 10
12.2949101208
 20
2.530827337
 40
0.0024749995
100
AcDbArc
 50
89.9999571957
 51
180.0000428043
  0
LINE
  5
25E
100
AcDbEntity
  8
0
100
AcDbLine
 62
2
  6
CONTINUOUS
 10
12.2949101227
 20
2.5333023366
 11
12.3362731456
 21
2.5333023366
  0
ARC
  5
25F
100
AcDbEntity
  8
0
100
AcDbCircle
 62
2
  6
CONTINUOUS
 10
12.3362731456
 20
2.5246398318
 40
0.0086625048
100
AcDbArc
 50
270.0
 51
90.0
  0
LINE
  5
260
100
AcDbEntity
  8
0
100
AcDbLine
 62
2
  6
CONTINUOUS
 10
12.3362731456
 20
2.515977327
 11
12.2949101227
 21
2.515977327
  0
ARC
  5
261
100
AcDbEntity
  8
0
100
AcDbCircle
 62
2
  6
CONTINUOUS
 10
12.2949101208
 20
2.5184523265
 40
0.0024749995
100
AcDbArc
 50
179.9999571957
 51
270.0000428043
  0
ARC
  5
262
100
AcDbEntity
  8
0
100
AcDbCircle
 62
2
  6
CONTINUOUS
 10
13.5806801742
 20
2.5212486481
 40
0.044722495
100
AcDbArc
 50
195.531588407
 51
204.7624440448
  0
LINE
  5
263
100
AcDbEntity
  8
0
100
AcDbLine
 62
2
  6
CONTINUOUS
 10
13.5375908118
 20
2.5092733232
 11
13.5357868108
 21
2.5153423266
  0
ARC
  5
264
100
AcDbEntity
  8
0
100
AcDbCircle
 62
2
  6
CONTINUOUS
 10
13.4974076135
 20
2.5055452462
 40
0.0396099176
100
AcDbArc
 50
14.3201081283
 51
22.4984722084
  0
ARC
  5
265
100
AcDbEntity
  8
0
100
AcDbCircle
 62
2
  6
CONTINUOUS
 10
13.5201739219
 20
2.5145168728
 40
0.0151491919
100
AcDbArc
 50
24.098260853
 51
63.0369451818
  0
ARC
  5
266
100
AcDbEntity
  8
0
100
AcDbCircle
 62
2
  6
CONTINUOUS
 10
13.5161192671
 20
2.5062372524
 40
0.0243676582
100
AcDbArc
 50
63.3666028271
 51
90.3937697637
  0
LINE
  5
267
100
AcDbEntity
  8
0
100
AcDbLine
 62
2
  6
CONTINUOUS
 10
13.5159517998
 20
2.5306043351
 11
13.4883447845
 21
2.5306043351
  0
ARC
  5
268
100
AcDbEntity
  8
0
100
AcDbCircle
 62
2
  6
CONTINUOUS
 10
13.4883447827
 20
2.5281293355
 40
0.0024749995
100
AcDbArc
 50
89.9999571957
 51
180.0000428043
  0
LINE
  5
269
100
AcDbEntity
  8
0
100
AcDbLine
 62
2
  6
CONTINUOUS
 10
13.4858697831
 20
2.5281293337
 11
13.4858697831
 21
2.5184303283
  0
ARC
  5
26A
100
AcDbEntity
  8
0
100
AcDbCircle
 62
2
  6
CONTINUOUS
 10
13.4883447827
 20
2.5184303265
 40
0.0024749995
100
AcDbArc
 50
179.9999571957
 51
270.0000428043
  0
LINE
  5
26B
100
AcDbEntity
  8
0
100
AcDbLine
 62
2
  6
CONTINUOUS
 10
13.4883447845
 20
2.5159553269
 11
13.5130037982
 21
2.5159553269
  0
ARC
  5
26C
100
AcDbEntity
  8
0
100
AcDbCircle
 62
2
  6
CONTINUOUS
 10
13.5130038
 20
2.5134803274
 40
0.0024749995
100
AcDbArc
 50
359.9999571957
 51
90.0000428043
  0
LINE
  5
26D
100
AcDbEntity
  8
0
100
AcDbLine
 62
2
  6
CONTINUOUS
 10
13.5154787995
 20
2.5134803256
 11
13.5154787995
 21
2.4937023146
  0
ARC
  5
26E
100
AcDbEntity
  8
0
100
AcDbCircle
 62
2
  6
CONTINUOUS
 10
13.5130038
 20
2.4937023128
 40
0.0024749995
100
AcDbArc
 50
269.9999571957
 51
0.0000428043
  0
LINE
  5
26F
100
AcDbEntity
  8
0
100
AcDbLine
 62
2
  6
CONTINUOUS
 10
13.5130037982
 20
2.4912273132
 11
13.3994327352
 21
2.4912273132
  0
ARC
  5
270
100
AcDbEntity
  8
0
100
AcDbCircle
 62
2
  6
CONTINUOUS
 10
13.3994327333
 20
2.4937023128
 40
0.0024749995
100
AcDbArc
 50
179.9999571957
 51
270.0000428043
  0
LINE
  5
271
100
AcDbEntity
  8
0
100
AcDbLine
 62
2
  6
CONTINUOUS
 10
13.3969577338
 20
2.4937023146
 11
13.3969577338
 21
2.5135023256
  0
ARC
  5
272
100
AcDbEntity
  8
0
100
AcDbCircle
 62
2
  6
CONTINUOUS
 10
13.3994327333
 20
2.5135023274
 40
0.0024749995
100
AcDbArc
 50
89.9999571957
 51
180.0000428043
  0
LINE
  5
273
100
AcDbEntity
  8
0
100
AcDbLine
 62
2
  6
CONTINUOUS
 10
13.3994327352
 20
2.515977327
 11
13.4221787478
 21
2.515977327
  0
ARC
  5
274
100
AcDbEntity
  8
0
100
AcDbCircle
 62
2
  6
CONTINUOUS
 10
13.4221787497
 20
2.5184523265
 40
0.0024749995
100
AcDbArc
 50
269.9999571957
 51
0.0000428042
  0
LINE
  5
275
100
AcDbEntity
  8
0
100
AcDbLine
 62
2
  6
CONTINUOUS
 10
13.4246537492
 20
2.5184523283
 11
13.4246537492
 21
2.564807354
  0
ARC
  5
276
100
AcDbEntity
  8
0
100
AcDbCircle
 62
2
  6
CONTINUOUS
 10
13.4221787497
 20
2.5648073559
 40
0.0024749995
100
AcDbArc
 50
359.9999571957
 51
90.0000428043
  0
LINE
  5
277
100
AcDbEntity
  8
0
100
AcDbLine
 62
2
  6
CONTINUOUS
 10
13.4221787478
 20
2.5672823554
 11
13.3994327352
 21
2.5672823554
  0
ARC
  5
278
100
AcDbEntity
  8
0
100
AcDbCircle
 62
2
  6
CONTINUOUS
 10
13.3994327333
 20
2.5697573549
 40
0.0024749995
100
AcDbArc
 50
179.9999571957
 51
270.0000428043
  0
LINE
  5
279
100
AcDbEntity
  8
0
100
AcDbLine
 62
2
  6
CONTINUOUS
 10
13.3969577338
 20
2.5697573568
 11
13.3969577338
 21
2.5895573678
  0
ARC
  5
27A
100
AcDbEntity
  8
0
100
AcDbCircle
 62
2
  6
CONTINUOUS
 10
13.3994327333
 20
2.5895573696
 40
0.0024749995
100
AcDbArc
 50
89.9999571957
 51
180.0000428043
  0
LINE
  5
27B
100
AcDbEntity
  8
0
100
AcDbLine
 62
2
  6
CONTINUOUS
 10
13.3994327352
 20
2.5920323691
 11
13.5490138181
 21
2.5920323691
  0
ARC
  5
27C
100
AcDbEntity
  8
0
100
AcDbCircle
 62
2
  6
CONTINUOUS
 10
13.5463505148
 20
2.4094934586
 40
0.1825583387
100
AcDbArc
 50
79.8618509324
 51
89.1640948679
  0
ARC
  5
27D
100
AcDbEntity
  8
0
100
AcDbCircle
 62
2
  6
CONTINUOUS
 10
13.5726548052
 20
2.5503169747
 40
0.039319019
100
AcDbArc
 50
59.1202086415
 51
81.4730239328
  0
ARC
  5
27E
100
AcDbEntity
  8
0
100
AcDbCircle
 62
2
  6
CONTINUOUS
 10
13.5783142014
 20
2.5566516438
 40
0.0310192946
100
AcDbArc
 50
34.7540871
 51
62.0879016178
  0
ARC
  5
27F
100
AcDbEntity
  8
0
100
AcDbCircle
 62
2
  6
CONTINUOUS
 10
13.5900029525
 20
2.565201245
 40
0.0165459396
100
AcDbArc
 50
1.548452892
 51
33.5033152417
  0
ARC
  5
280
100
AcDbEntity
  8
0
100
AcDbCircle
 62
2
  6
CONTINUOUS
 10
13.5932995477
 20
2.5653696972
 40
0.0132462337
100
AcDbArc
 50
331.1510006998
 51
1.205404301
  0
ARC
  5
281
100
AcDbEntity
  8
0
100
AcDbCircle
 62
2
  6
CONTINUOUS
 10
13.5822888914
 20
2.5720482849
 40
0.0261183659
100
AcDbArc
 50
305.6373831893
 51
329.9727629745
  0
ARC
  5
282
100
AcDbEntity
  8
0
100
AcDbCircle
 62
2
  6
CONTINUOUS
 10
13.5519569538
 20
2.6152551345
 40
0.0789082104
100
AcDbArc
 50
292.906155071
 51
305.2574666259
  0
ARC
  5
283
100
AcDbEntity
  8
0
100
AcDbCircle
 62
2
  6
CONTINUOUS
 10
13.5282557878
 20
2.4386010294
 40
0.117346916
100
AcDbArc
 50
58.614769177
 51
62.3737227606
  0
ARC
  5
284
100
AcDbEntity
  8
0
100
AcDbCircle
 62
2
  6
CONTINUOUS
 10
13.5761387404
 20
2.5167282896
 40
0.0257145923
100
AcDbArc
 50
39.3804255939
 51
59.0361096173
  0
ARC
  5
285
100
AcDbEntity
  8
0
100
AcDbCircle
 62
2
  6
CONTINUOUS
 10
13.5750183849
 20
2.5166552064
 40
0.0266349791
100
AcDbArc
 50
20.3630922153
 51
37.9727053099
  0
ARC
  5
286
100
AcDbEntity
  8
0
100
AcDbCircle
 62
2
  6
CONTINUOUS
 10
13.5571178432
 20
2.509473798
 40
0.0459185159
100
AcDbArc
 50
15.6740290068
 51
20.9917271228
  0
ARC
  5
287
100
AcDbEntity
  8
0
100
AcDbCircle
 62
2
  6
CONTINUOUS
 10
13.6156881783
 20
2.525116781
 40
0.0147197649
100
AcDbArc
 50
192.7054516565
 51
206.0594861022
  0
ARC
  5
288
100
AcDbEntity
  8
0
100
AcDbCircle
 62
2
  6
CONTINUOUS
 10
13.6071938412
 20
2.5209082945
 40
0.0052403997
100
AcDbArc
 50
205.5232099488
 51
227.5054868079
  0
ARC
  5
289
100
AcDbEntity
  8
0
100
AcDbCircle
 62
2
  6
CONTINUOUS
 10
13.6054655419
 20
2.5190929218
 40
0.0027347709
100
AcDbArc
 50
228.5117626737
 51
266.1485845754
  0
LINE
  5
28A
100
AcDbEntity
  8
0
100
AcDbLine
 62
2
  6
CONTINUOUS
 10
13.6052818493
 20
2.5163643272
 11
13.60639085
 21
2.5163643272
  0
ARC
  5
28B
100
AcDbEntity
  8
0
100
AcDbCircle
 62
2
  6
CONTINUOUS
 10
13.6063292954
 20
2.5296129864
 40
0.0132488022
100
AcDbArc
 50
270.266200055
 51
281.2404888597
  0
ARC
  5
28C
100
AcDbEntity
  8
0
100
AcDbCircle
 62
2
  6
CONTINUOUS
 10
13.6075235364
 20
2.5238762928
 40
0.0073895522
100
AcDbArc
 50
280.8288201977
 51
305.0837508495
  0
ARC
  5
28D
100
AcDbEntity
  8
0
100
AcDbCircle
 62
2
  6
CONTINUOUS
 10
13.607924718
 20
2.5230254464
 40
0.0064647042
100
AcDbArc
 50
306.5086174083
 51
340.2162360092
  0
ARC
  5
28E
100
AcDbEntity
  8
0
100
AcDbCircle
 62
2
  6
CONTINUOUS
 10
13.6027235414
 20
2.524769508
 40
0.0119498009
100
AcDbArc
 50
340.7883861657
 51
1.1691452593
  0
LINE
  5
28F
100
AcDbEntity
  8
0
100
AcDbLine
 62
2
  6
CONTINUOUS
 10
13.6146708546
 20
2.525013332
 11
13.6146708546
 21
2.5276393334
  0
ARC
  5
290
100
AcDbEntity
  8
0
100
AcDbCircle
 62
2
  6
CONTINUOUS
 10
13.6171458541
 20
2.5276393353
 40
0.0024749995
100
AcDbArc
 50
89.9999571957
 51
180.0000428043
  0
LINE
  5
291
100
AcDbEntity
  8
0
100
AcDbLine
 62
2
  6
CONTINUOUS
 10
13.6171458559
 20
2.5301143348
 11
13.6292558626
 21
2.5301143348
  0
ARC
  5
292
100
AcDbEntity
  8
0
100
AcDbCircle
 62
2
  6
CONTINUOUS
 10
13.6292558645
 20
2.5276393353
 40
0.0024749995
100
AcDbArc
 50
359.9999571957
 51
90.0000428043
  0
LINE
  5
293
100
AcDbEntity
  8
0
100
AcDbLine
 62
2
  6
CONTINUOUS
 10
13.631730864
 20
2.5276393334
 11
13.631730864
 21
2.516087327
  0
ARC
  5
294
100
AcDbEntity
  8
0
100
AcDbCircle
 62
2
  6
CONTINUOUS
 10
13.6141751675
 20
2.5161916447
 40
0.0175560065
100
AcDbArc
 50
332.2279060967
 51
359.6595469939
  0
ARC
  5
295
100
AcDbEntity
  8
0
100
AcDbCircle
 62
2
  6
CONTINUOUS
 10
13.6048681567
 20
2.5210861501
 40
0.0280715479
100
AcDbArc
 50
308.5071794988
 51
332.2400656899
  0
ARC
  5
296
100
AcDbEntity
  8
0
100
AcDbCircle
 62
2
  6
CONTINUOUS
 10
13.5978759713
 20
2.5286873679
 40
0.0383802683
100
AcDbArc
 50
288.7656836787
 51
309.6104317088
  0
ARC
  5
297
100
AcDbEntity
  8
0
100
AcDbCircle
 62
2
  6
CONTINUOUS
 10
13.6036139387
 20
2.5111006186
 40
0.0198837666
100
AcDbArc
 50
271.8586572978
 51
289.4131338543
  0
LINE
  5
298
100
AcDbEntity
  8
0
100
AcDbLine
 62
2
  6
CONTINUOUS
 10
13.6042588488
 20
2.4912273132
 11
13.5568948225
 21
2.4912273132
  0
ARC
  5
299
100
AcDbEntity
  8
0
100
AcDbCircle
 62
2
  6
CONTINUOUS
 10
13.5577001432
 20
2.5085494649
 40
0.0173408616
100
AcDbArc
 50
232.4713476722
 51
267.338189944
  0
ARC
  5
29A
100
AcDbEntity
  8
0
100
AcDbCircle
 62
2
  6
CONTINUOUS
 10
13.5607987082
 20
2.5143997688
 40
0.0238935861
100
AcDbArc
 50
209.8247607259
 51
235.1255079367
  0
ARC
  5
29B
100
AcDbEntity
  8
0
100
AcDbCircle
 62
2
  6
CONTINUOUS
 10
13.5295131508
 20
2.5629115009
 40
0.0110815393
100
AcDbArc
 50
306.758405961
 51
320.4502234234
  0
ARC
  5
29C
100
AcDbEntity
  8
0
100
AcDbCircle
 62
2
  6
CONTINUOUS
 10
13.5238839599
 20
2.5706523294
 40
0.0206523367
100
AcDbArc
 50
289.6883413472
 51
306.4184925496
  0
ARC
  5
29D
100
AcDbEntity
  8
0
100
AcDbCircle
 62
2
  6
CONTINUOUS
 10
13.5219564542
 20
2.5750459767
 40
0.0254407115
100
AcDbArc
 50
270.7327484175
 51
290.441894219
  0
LINE
  5
29E
100
AcDbEntity
  8
0
100
AcDbLine
 62
2
  6
CONTINUOUS
 10
13.5222818033
 20
2.5496073456
 11
13.4883447845
 21
2.5496073456
  0
ARC
  5
29F
100
AcDbEntity
  8
0
100
AcDbCircle
 62
2
  6
CONTINUOUS
 10
13.4883447827
 20
2.5520823451
 40
0.0024749995
100
AcDbArc
 50
179.9999571957
 51
270.0000428043
  0
LINE
  5
2A0
100
AcDbEntity
  8
0
100
AcDbLine
 62
2
  6
CONTINUOUS
 10
13.4858697831
 20
2.552082347
 11
13.4858697831
 21
2.564807354
  0
ARC
  5
2A1
100
AcDbEntity
  8
0
100
AcDbCircle
 62
2
  6
CONTINUOUS
 10
13.4883447827
 20
2.5648073559
 40
0.0024749995
100
AcDbArc
 50
89.9999571957
 51
180.0000428043
  0
LINE
  5
2A2
100
AcDbEntity
  8
0
100
AcDbLine
 62
2
  6
CONTINUOUS
 10
13.4883447845
 20
2.5672823554
 11
13.5251458049
 21
2.5672823554
  0
ARC
  5
2A3
100
AcDbEntity
  8
0
100
AcDbCircle
 62
2
  6
CONTINUOUS
 10
13.5236009174
 20
2.5388278764
 40
0.0284963867
100
AcDbArc
 50
70.3834917948
 51
86.8922743861
  0
ARC
  5
2A4
100
AcDbEntity
  8
0
100
AcDbCircle
 62
2
  6
CONTINUOUS
 10
13.5284605274
 20
2.5518696094
 40
0.0145814632
100
AcDbArc
 50
54.6746025112
 51
71.1660573124
  0
ARC
  5
2A5
100
AcDbEntity
  8
0
100
AcDbCircle
 62
2
  6
CONTINUOUS
 10
13.5335900184
 20
2.5587235346
 40
0.0060275915
100
AcDbArc
 50
20.9055592135
 51
56.7851676243
  0
ARC
  5
2A6
100
AcDbEntity
  8
0
100
AcDbCircle
 62
2
  6
CONTINUOUS
 10
13.5348905773
 20
2.5593838168
 40
0.0045795888
100
AcDbArc
 50
355.6235353944
 51
18.9942678268
  0
ARC
  5
2A7
100
AcDbEntity
  8
0
100
AcDbCircle
 62
2
  6
CONTINUOUS
 10
13.533683767
 20
2.559677593
 40
0.0058087709
100
AcDbArc
 50
318.8515287446
 51
353.6422345323
  0
LINE
  5
2A8
100
AcDbEntity
  8
0
100
AcDbLine
 62
2
  6
CONTINUOUS
 10
12.672340332
 20
2.5920323691
 11
12.7727983877
 21
2.5920323691
  0
ARC
  5
2A9
100
AcDbEntity
  8
0
100
AcDbCircle
 62
2
  6
CONTINUOUS
 10
12.7727985224
 20
2.5895582013
 40
0.0024741678
100
AcDbArc
 50
46.3477981899
 51
90.0031206038
  0
LINE
  5
2AA
100
AcDbEntity
  8
0
100
AcDbLine
 62
2
  6
CONTINUOUS
 10
12.7745063886
 20
2.5913483688
 11
12.8345394219
 21
2.534068337
  0
ARC
  5
2AB
100
AcDbEntity
  8
0
100
AcDbCircle
 62
2
  6
CONTINUOUS
 10
12.8362481229
 20
2.5358592748
 40
0.0024753014
100
AcDbArc
 50
226.3461263059
 51
0.0014637321
  0
LINE
  5
2AC
100
AcDbEntity
  8
0
100
AcDbLine
 62
2
  6
CONTINUOUS
 10
12.8387234242
 20
2.535859338
 11
12.8387234242
 21
2.564807354
  0
ARC
  5
2AD
100
AcDbEntity
  8
0
100
AcDbCircle
 62
2
  6
CONTINUOUS
 10
12.8362484247
 20
2.5648073559
 40
0.0024749995
100
AcDbArc
 50
359.9999571957
 51
90.0000428043
  0
LINE
  5
2AE
100
AcDbEntity
  8
0
100
AcDbLine
 62
2
  6
CONTINUOUS
 10
12.8362484229
 20
2.5672823554
 11
12.8174724125
 21
2.5672823554
  0
ARC
  5
2AF
100
AcDbEntity
  8
0
100
AcDbCircle
 62
2
  6
CONTINUOUS
 10
12.8174724106
 20
2.5697573549
 40
0.0024749995
100
AcDbArc
 50
179.9999571957
 51
270.0000428043
  0
LINE
  5
2B0
100
AcDbEntity
  8
0
100
AcDbLine
 62
2
  6
CONTINUOUS
 10
12.8149974111
 20
2.5697573568
 11
12.8149974111
 21
2.5895573678
  0
ARC
  5
2B1
100
AcDbEntity
  8
0
100
AcDbCircle
 62
2
  6
CONTINUOUS
 10
12.8174724106
 20
2.5895573696
 40
0.0024749995
100
AcDbArc
 50
89.9999571957
 51
180.0000428043
  0
LINE
  5
2B2
100
AcDbEntity
  8
0
100
AcDbLine
 62
2
  6
CONTINUOUS
 10
12.8174724125
 20
2.5920323691
 11
12.8914734535
 21
2.5920323691
  0
ARC
  5
2B3
100
AcDbEntity
  8
0
100
AcDbCircle
 62
2
  6
CONTINUOUS
 10
12.8914734553
 20
2.5895573696
 40
0.0024749995
100
AcDbArc
 50
359.9999571957
 51
90.0000428043
  0
LINE
  5
2B4
100
AcDbEntity
  8
0
100
AcDbLine
 62
2
  6
CONTINUOUS
 10
12.8939484549
 20
2.5895573678
 11
12.8939484549
 21
2.5697573568
  0
ARC
  5
2B5
100
AcDbEntity
  8
0
100
AcDbCircle
 62
2
  6
CONTINUOUS
 10
12.8914734553
 20
2.5697573549
 40
0.0024749995
100
AcDbArc
 50
269.9999571957
 51
0.0000428043
  0
LINE
  5
2B6
100
AcDbEntity
  8
0
100
AcDbLine
 62
2
  6
CONTINUOUS
 10
12.8914734535
 20
2.5672823554
 11
12.8735404436
 21
2.5672823554
  0
ARC
  5
2B7
100
AcDbEntity
  8
0
100
AcDbCircle
 62
2
  6
CONTINUOUS
 10
12.8735404417
 20
2.5648073559
 40
0.0024749995
100
AcDbArc
 50
89.9999571957
 51
180.0000428043
  0
LINE
  5
2B8
100
AcDbEntity
  8
0
100
AcDbLine
 62
2
  6
CONTINUOUS
 10
12.8710654422
 20
2.564807354
 11
12.8710654422
 21
2.4937023146
  0
ARC
  5
2B9
100
AcDbEntity
  8
0
100
AcDbCircle
 62
2
  6
CONTINUOUS
 10
12.8685904427
 20
2.4937023128
 40
0.0024749995
100
AcDbArc
 50
269.9999571957
 51
0.0000428043
  0
LINE
  5
2BA
100
AcDbEntity
  8
0
100
AcDbLine
 62
2
  6
CONTINUOUS
 10
12.8685904408
 20
2.4912273132
 11
12.7943853997
 21
2.4912273132
  0
ARC
  5
2BB
100
AcDbEntity
  8
0
100
AcDbCircle
 62
2
  6
CONTINUOUS
 10
12.7943847649
 20
2.4937027294
 40
0.0024754162
100
AcDbArc
 50
226.3593695813
 51
270.0146919953
  0
LINE
  5
2BC
100
AcDbEntity
  8
0
100
AcDbLine
 62
2
  6
CONTINUOUS
 10
12.7926763987
 20
2.4919113136
 11
12.7293963636
 21
2.5522893471
  0
ARC
  5
2BD
100
AcDbEntity
  8
0
100
AcDbCircle
 62
2
  6
CONTINUOUS
 10
12.7276876627
 20
2.5504984093
 40
0.0024753014
100
AcDbArc
 50
46.3461263059
 51
180.0014637321
  0
LINE
  5
2BE
100
AcDbEntity
  8
0
100
AcDbLine
 62
2
  6
CONTINUOUS
 10
12.7252123613
 20
2.5504983461
 11
12.7252123613
 21
2.5184523283
  0
ARC
  5
2BF
100
AcDbEntity
  8
0
100
AcDbCircle
 62
2
  6
CONTINUOUS
 10
12.7276873608
 20
2.5184523265
 40
0.0024749995
100
AcDbArc
 50
179.9999571957
 51
270.0000428043
  0
LINE
  5
2C0
100
AcDbEntity
  8
0
100
AcDbLine
 62
2
  6
CONTINUOUS
 10
12.7276873627
 20
2.515977327
 11
12.7480043739
 21
2.515977327
  0
ARC
  5
2C1
100
AcDbEntity
  8
0
100
AcDbCircle
 62
2
  6
CONTINUOUS
 10
12.7480043758
 20
2.5135023274
 40
0.0024749995
100
AcDbArc
 50
359.9999571957
 51
90.0000428043
  0
LINE
  5
2C2
100
AcDbEntity
  8
0
100
AcDbLine
 62
2
  6
CONTINUOUS
 10
12.7504793753
 20
2.5135023256
 11
12.7504793753
 21
2.4937023146
  0
ARC
  5
2C3
100
AcDbEntity
  8
0
100
AcDbCircle
 62
2
  6
CONTINUOUS
 10
12.7480043758
 20
2.4937023128
 40
0.0024749995
100
AcDbArc
 50
269.9999571957
 51
0.0000428043
  0
LINE
  5
2C4
100
AcDbEntity
  8
0
100
AcDbLine
 62
2
  6
CONTINUOUS
 10
12.7480043739
 20
2.4912273132
 11
12.672340332
 21
2.4912273132
  0
ARC
  5
2C5
100
AcDbEntity
  8
0
100
AcDbCircle
 62
2
  6
CONTINUOUS
 10
12.6723403301
 20
2.4937023128
 40
0.0024749995
100
AcDbArc
 50
179.9999571957
 51
270.0000428043
  0
LINE
  5
2C6
100
AcDbEntity
  8
0
100
AcDbLine
 62
2
  6
CONTINUOUS
 10
12.6698653306
 20
2.4937023146
 11
12.6698653306
 21
2.5135023256
  0
ARC
  5
2C7
100
AcDbEntity
  8
0
100
AcDbCircle
 62
2
  6
CONTINUOUS
 10
12.6723403301
 20
2.5135023274
 40
0.0024749995
100
AcDbArc
 50
89.9999571957
 51
180.0000428043
  0
LINE
  5
2C8
100
AcDbEntity
  8
0
100
AcDbLine
 62
2
  6
CONTINUOUS
 10
12.672340332
 20
2.515977327
 11
12.6909873423
 21
2.515977327
  0
ARC
  5
2C9
100
AcDbEntity
  8
0
100
AcDbCircle
 62
2
  6
CONTINUOUS
 10
12.6909873442
 20
2.5184523265
 40
0.0024749995
100
AcDbArc
 50
269.9999571957
 51
0.0000428043
  0
LINE
  5
2CA
100
AcDbEntity
  8
0
100
AcDbLine
 62
2
  6
CONTINUOUS
 10
12.6934623437
 20
2.5184523283
 11
12.6934623437
 21
2.564807354
  0
ARC
  5
2CB
100
AcDbEntity
  8
0
100
AcDbCircle
 62
2
  6
CONTINUOUS
 10
12.6909873442
 20
2.5648073559
 40
0.0024749995
100
AcDbArc
 50
359.9999571957
 51
90.0000428043
  0
LINE
  5
2CC
100
AcDbEntity
  8
0
100
AcDbLine
 62
2
  6
CONTINUOUS
 10
12.6909873423
 20
2.5672823554
 11
12.672340332
 21
2.5672823554
  0
ARC
  5
2CD
100
AcDbEntity
  8
0
100
AcDbCircle
 62
2
  6
CONTINUOUS
 10
12.6723403301
 20
2.5697573549
 40
0.0024749995
100
AcDbArc
 50
179.9999571957
 51
270.0000428043
  0
LINE
  5
2CE
100
AcDbEntity
  8
0
100
AcDbLine
 62
2
  6
CONTINUOUS
 10
12.6698653306
 20
2.5697573568
 11
12.6698653306
 21
2.5895573678
  0
ARC
  5
2CF
100
AcDbEntity
  8
0
100
AcDbCircle
 62
2
  6
CONTINUOUS
 10
12.6723403301
 20
2.5895573696
 40
0.0024749995
100
AcDbArc
 50
89.9999571957
 51
180.0000428043
  0
LINE
  5
2D0
100
AcDbEntity
  8
0
100
AcDbLine
 62
2
  6
CONTINUOUS
 10
12.5246402501
 20
2.5655893545
 11
12.5175232461
 21
2.5543723483
  0
ARC
  5
2D1
100
AcDbEntity
  8
0
100
AcDbCircle
 62
2
  6
CONTINUOUS
 10
12.519613138
 20
2.5530463862
 40
0.0024750401
100
AcDbArc
 50
147.6063258012
 51
270.0025305754
  0
LINE
  5
2D2
100
AcDbEntity
  8
0
100
AcDbLine
 62
2
  6
CONTINUOUS
 10
12.5196132473
 20
2.5505713461
 11
12.5401702587
 21
2.5505713461
  0
ARC
  5
2D3
100
AcDbEntity
  8
0
100
AcDbCircle
 62
2
  6
CONTINUOUS
 10
12.5401702375
 20
2.5530465533
 40
0.0024752071
100
AcDbArc
 50
270.0004896793
 51
32.9089806818
  0
LINE
  5
2D4
100
AcDbEntity
  8
0
100
AcDbLine
 62
2
  6
CONTINUOUS
 10
12.5422482598
 20
2.5543913483
 11
12.5349892558
 21
2.5656073545
  0
ARC
  5
2D5
100
AcDbEntity
  8
0
100
AcDbCircle
 62
2
  6
CONTINUOUS
 10
12.532910715
 20
2.564262895
 40
0.0024754602
100
AcDbArc
 50
32.8959418573
 51
89.9875097202
  0
LINE
  5
2D6
100
AcDbEntity
  8
0
100
AcDbLine
 62
2
  6
CONTINUOUS
 10
12.5329112547
 20
2.5667383551
 11
12.5267302512
 21
2.5667383551
  0
ARC
  5
2D7
100
AcDbEntity
  8
0
100
AcDbCircle
 62
2
  6
CONTINUOUS
 10
12.5267301809
 20
2.5642631548
 40
0.0024752003
100
AcDbArc
 50
89.998372645
 51
147.602165307
  0
LINE
  5
2D8
100
AcDbEntity
  8
0
100
AcDbLine
 62
2
  6
CONTINUOUS
 10
12.548053263
 20
2.5284903339
 11
12.5536792662
 21
2.5197973291
  0
ARC
  5
2D9
100
AcDbEntity
  8
0
100
AcDbCircle
 62
2
  6
CONTINUOUS
 10
12.5516012439
 20
2.5184525341
 40
0.0024752071
100
AcDbArc
 50
270.0004896794
 51
32.9089806818
  0
LINE
  5
2DA
100
AcDbEntity
  8
0
100
AcDbLine
 62
2
  6
CONTINUOUS
 10
12.551601265
 20
2.515977327
 11
12.537150257
 21
2.515977327
  0
ARC
  5
2DB
100
AcDbEntity
  8
0
100
AcDbCircle
 62
2
  6
CONTINUOUS
 10
12.5371502552
 20
2.5135023274
 40
0.0024749995
100
AcDbArc
 50
89.9999571957
 51
180.0000428043
  0
LINE
  5
2DC
100
AcDbEntity
  8
0
100
AcDbLine
 62
2
  6
CONTINUOUS
 10
12.5346752556
 20
2.5135023256
 11
12.5346752556
 21
2.4937023146
  0
ARC
  5
2DD
100
AcDbEntity
  8
0
100
AcDbCircle
 62
2
  6
CONTINUOUS
 10
12.5371502552
 20
2.4937023128
 40
0.0024749995
100
AcDbArc
 50
179.9999571957
 51
270.0000428043
  0
LINE
  5
2DE
100
AcDbEntity
  8
0
100
AcDbLine
 62
2
  6
CONTINUOUS
 10
12.537150257
 20
2.4912273132
 11
12.6424313154
 21
2.4912273132
  0
ARC
  5
2DF
100
AcDbEntity
  8
0
100
AcDbCircle
 62
2
  6
CONTINUOUS
 10
12.6424313172
 20
2.4937023128
 40
0.0024749995
100
AcDbArc
 50
269.9999571957
 51
0.0000428043
  0
LINE
  5
2E0
100
AcDbEntity
  8
0
100
AcDbLine
 62
2
  6
CONTINUOUS
 10
12.6449063168
 20
2.4937023146
 11
12.6449063168
 21
2.5135023256
  0
ARC
  5
2E1
100
AcDbEntity
  8
0
100
AcDbCircle
 62
2
  6
CONTINUOUS
 10
12.6424313172
 20
2.5135023274
 40
0.0024749995
100
AcDbArc
 50
359.9999571957
 51
90.0000428043
  0
LINE
  5
2E2
100
AcDbEntity
  8
0
100
AcDbLine
 62
2
  6
CONTINUOUS
 10
12.6424313154
 20
2.515977327
 11
12.6224153043
 21
2.515977327
  0
ARC
  5
2E3
100
AcDbEntity
  8
0
100
AcDbCircle
 62
2
  6
CONTINUOUS
 10
12.6224154248
 20
2.518451368
 40
0.002474041
100
AcDbArc
 50
212.9056413127
 51
269.9972091756
  0
LINE
  5
2E4
100
AcDbEntity
  8
0
100
AcDbLine
 62
2
  6
CONTINUOUS
 10
12.6203383031
 20
2.5171073276
 11
12.5725822767
 21
2.5909023685
  0
ARC
  5
2E5
100
AcDbEntity
  8
0
100
AcDbCircle
 62
2
  6
CONTINUOUS
 10
12.570504655
 20
2.589557409
 40
0.0024749602
100
AcDbArc
 50
32.9172174468
 51
90.0087853097
  0
LINE
  5
2E6
100
AcDbEntity
  8
0
100
AcDbLine
 62
2
  6
CONTINUOUS
 10
12.5705042755
 20
2.5920323691
 11
12.5133292438
 21
2.5920323691
  0
ARC
  5
2E7
100
AcDbEntity
  8
0
100
AcDbCircle
 62
2
  6
CONTINUOUS
 10
12.5133291735
 20
2.5895571688
 40
0.0024752003
100
AcDbArc
 50
89.9983726451
 51
147.602165307
  0
LINE
  5
2E8
100
AcDbEntity
  8
0
100
AcDbLine
 62
2
  6
CONTINUOUS
 10
12.5112392426
 20
2.5908833685
 11
12.4644392167
 21
2.5171263276
  0
ARC
  5
2E9
100
AcDbEntity
  8
0
100
AcDbCircle
 62
2
  6
CONTINUOUS
 10
12.4623492858
 20
2.5184525273
 40
0.0024752003
100
AcDbArc
 50
269.9983726451
 51
327.602165307
  0
LINE
  5
2EA
100
AcDbEntity
  8
0
100
AcDbLine
 62
2
  6
CONTINUOUS
 10
12.4623492155
 20
2.515977327
 11
12.4394882028
 21
2.515977327
  0
ARC
  5
2EB
100
AcDbEntity
  8
0
100
AcDbCircle
 62
2
  6
CONTINUOUS
 10
12.439488201
 20
2.5135023274
 40
0.0024749995
100
AcDbArc
 50
89.9999571957
 51
180.0000428043
  0
LINE
  5
2EC
100
AcDbEntity
  8
0
100
AcDbLine
 62
2
  6
CONTINUOUS
 10
12.4370132015
 20
2.5135023256
 11
12.4370132015
 21
2.4937023146
  0
ARC
  5
2ED
100
AcDbEntity
  8
0
100
AcDbCircle
 62
2
  6
CONTINUOUS
 10
12.439488201
 20
2.4937023128
 40
0.0024749995
100
AcDbArc
 50
179.9999571957
 51
270.0000428043
  0
LINE
  5
2EE
100
AcDbEntity
  8
0
100
AcDbLine
 62
2
  6
CONTINUOUS
 10
12.4394882028
 20
2.4912273132
 11
12.5168642458
 21
2.4912273132
  0
ARC
  5
2EF
100
AcDbEntity
  8
0
100
AcDbCircle
 62
2
  6
CONTINUOUS
 10
12.5168642476
 20
2.4937023128
 40
0.0024749995
100
AcDbArc
 50
269.9999571957
 51
0.0000428043
  0
LINE
  5
2F0
100
AcDbEntity
  8
0
100
AcDbLine
 62
2
  6
CONTINUOUS
 10
12.5193392471
 20
2.4937023146
 11
12.5193392471
 21
2.5135023256
  0
ARC
  5
2F1
100
AcDbEntity
  8
0
100
AcDbCircle
 62
2
  6
CONTINUOUS
 10
12.5168642476
 20
2.5135023274
 40
0.0024749995
100
AcDbArc
 50
359.9999571957
 51
90.0000428043
  0
LINE
  5
2F2
100
AcDbEntity
  8
0
100
AcDbLine
 62
2
  6
CONTINUOUS
 10
12.5168642458
 20
2.515977327
 11
12.5055812395
 21
2.515977327
  0
ARC
  5
2F3
100
AcDbEntity
  8
0
100
AcDbCircle
 62
2
  6
CONTINUOUS
 10
12.5055811302
 20
2.518452367
 40
0.0024750401
100
AcDbArc
 50
147.6063258011
 51
270.0025305754
  0
LINE
  5
2F4
100
AcDbEntity
  8
0
100
AcDbLine
 62
2
  6
CONTINUOUS
 10
12.5034912383
 20
2.5197783291
 11
12.5090072414
 21
2.5284723339
  0
ARC
  5
2F5
100
AcDbEntity
  8
0
100
AcDbCircle
 62
2
  6
CONTINUOUS
 10
12.5110971723
 20
2.5271461342
 40
0.0024752003
100
AcDbArc
 50
89.998372645
 51
147.602165307
  0
LINE
  5
2F6
100
AcDbEntity
  8
0
100
AcDbLine
 62
2
  6
CONTINUOUS
 10
12.5110972426
 20
2.5296213345
 11
12.5459752619
 21
2.5296213345
  0
ARC
  5
2F7
100
AcDbEntity
  8
0
100
AcDbCircle
 62
2
  6
CONTINUOUS
 10
12.5459747223
 20
2.5271458744
 40
0.0024754602
100
AcDbArc
 50
32.8959418573
 51
89.9875097202
  0
LINE
  5
2F8
100
AcDbEntity
  8
0
100
AcDbLine
 62
2
  6
CONTINUOUS
 10
12.9205934696
 20
2.5920323691
 11
13.0210515254
 21
2.5920323691
  0
ARC
  5
2F9
100
AcDbEntity
  8
0
100
AcDbCircle
 62
2
  6
CONTINUOUS
 10
13.0210516601
 20
2.5895582013
 40
0.0024741678
100
AcDbArc
 50
46.3477981899
 51
90.0031206038
  0
LINE
  5
2FA
100
AcDbEntity
  8
0
100
AcDbLine
 62
2
  6
CONTINUOUS
 10
13.0227595263
 20
2.5913483688
 11
13.0827925596
 21
2.534068337
  0
ARC
  5
2FB
100
AcDbEntity
  8
0
100
AcDbCircle
 62
2
  6
CONTINUOUS
 10
13.0845012605
 20
2.5358592748
 40
0.0024753014
100
AcDbArc
 50
226.3461263059
 51
0.0014637321
  0
LINE
  5
2FC
100
AcDbEntity
  8
0
100
AcDbLine
 62
2
  6
CONTINUOUS
 10
13.0869765619
 20
2.535859338
 11
13.0869765619
 21
2.564807354
  0
ARC
  5
2FD
100
AcDbEntity
  8
0
100
AcDbCircle
 62
2
  6
CONTINUOUS
 10
13.0845015624
 20
2.5648073559
 40
0.0024749995
100
AcDbArc
 50
359.9999571957
 51
90.0000428043
  0
LINE
  5
2FE
100
AcDbEntity
  8
0
100
AcDbLine
 62
2
  6
CONTINUOUS
 10
13.0845015605
 20
2.5672823554
 11
13.0657255501
 21
2.5672823554
  0
ARC
  5
2FF
100
AcDbEntity
  8
0
100
AcDbCircle
 62
2
  6
CONTINUOUS
 10
13.0657255483
 20
2.5697573549
 40
0.0024749995
100
AcDbArc
 50
179.9999571957
 51
270.0000428043
  0
LINE
  5
300
100
AcDbEntity
  8
0
100
AcDbLine
 62
2
  6
CONTINUOUS
 10
13.0632505488
 20
2.5697573568
 11
13.0632505488
 21
2.5895573678
  0
ARC
  5
301
100
AcDbEntity
  8
0
100
AcDbCircle
 62
2
  6
CONTINUOUS
 10
13.0657255483
 20
2.5895573696
 40
0.0024749995
100
AcDbArc
 50
89.9999571957
 51
180.0000428043
  0
LINE
  5
302
100
AcDbEntity
  8
0
100
AcDbLine
 62
2
  6
CONTINUOUS
 10
13.0657255501
 20
2.5920323691
 11
13.1397265912
 21
2.5920323691
  0
ARC
  5
303
100
AcDbEntity
  8
0
100
AcDbCircle
 62
2
  6
CONTINUOUS
 10
13.139726593
 20
2.5895573696
 40
0.0024749995
100
AcDbArc
 50
359.9999571957
 51
90.0000428043
  0
LINE
  5
304
100
AcDbEntity
  8
0
100
AcDbLine
 62
2
  6
CONTINUOUS
 10
13.1422015925
 20
2.5895573678
 11
13.1422015925
 21
2.5697573568
  0
ARC
  5
305
100
AcDbEntity
  8
0
100
AcDbCircle
 62
2
  6
CONTINUOUS
 10
13.139726593
 20
2.5697573549
 40
0.0024749995
100
AcDbArc
 50
269.9999571957
 51
0.0000428042
  0
LINE
  5
306
100
AcDbEntity
  8
0
100
AcDbLine
 62
2
  6
CONTINUOUS
 10
13.1397265912
 20
2.5672823554
 11
13.1217935812
 21
2.5672823554
  0
ARC
  5
307
100
AcDbEntity
  8
0
100
AcDbCircle
 62
2
  6
CONTINUOUS
 10
13.1217935794
 20
2.5648073559
 40
0.0024749995
100
AcDbArc
 50
89.9999571957
 51
180.0000428042
  0
LINE
  5
308
100
AcDbEntity
  8
0
100
AcDbLine
 62
2
  6
CONTINUOUS
 10
13.1193185799
 20
2.564807354
 11
13.1193185799
 21
2.4937023146
  0
ARC
  5
309
100
AcDbEntity
  8
0
100
AcDbCircle
 62
2
  6
CONTINUOUS
 10
13.1168435803
 20
2.4937023128
 40
0.0024749995
100
AcDbArc
 50
269.9999571957
 51
0.0000428043
  0
LINE
  5
30A
100
AcDbEntity
  8
0
100
AcDbLine
 62
2
  6
CONTINUOUS
 10
13.1168435785
 20
2.4912273132
 11
13.0426375373
 21
2.4912273132
  0
ARC
  5
30B
100
AcDbEntity
  8
0
100
AcDbCircle
 62
2
  6
CONTINUOUS
 10
13.0426374026
 20
2.493701481
 40
0.0024741678
100
AcDbArc
 50
226.3477981898
 51
270.0031206038
  0
LINE
  5
30C
100
AcDbEntity
  8
0
100
AcDbLine
 62
2
  6
CONTINUOUS
 10
13.0409295364
 20
2.4919113136
 11
12.9776495013
 21
2.5522893471
  0
ARC
  5
30D
100
AcDbEntity
  8
0
100
AcDbCircle
 62
2
  6
CONTINUOUS
 10
12.9759408003
 20
2.5504984093
 40
0.0024753014
100
AcDbArc
 50
46.3461263059
 51
180.0014637321
  0
LINE
  5
30E
100
AcDbEntity
  8
0
100
AcDbLine
 62
2
  6
CONTINUOUS
 10
12.973465499
 20
2.5504983461
 11
12.973465499
 21
2.5184523283
  0
ARC
  5
30F
100
AcDbEntity
  8
0
100
AcDbCircle
 62
2
  6
CONTINUOUS
 10
12.9759404985
 20
2.5184523265
 40
0.0024749995
100
AcDbArc
 50
179.9999571957
 51
270.0000428043
  0
LINE
  5
310
100
AcDbEntity
  8
0
100
AcDbLine
 62
2
  6
CONTINUOUS
 10
12.9759405003
 20
2.515977327
 11
12.9962575116
 21
2.515977327
  0
ARC
  5
311
100
AcDbEntity
  8
0
100
AcDbCircle
 62
2
  6
CONTINUOUS
 10
12.9962575135
 20
2.5135023274
 40
0.0024749995
100
AcDbArc
 50
359.9999571957
 51
90.0000428043
  0
LINE
  5
312
100
AcDbEntity
  8
0
100
AcDbLine
 62
2
  6
CONTINUOUS
 10
12.998732513
 20
2.5135023256
 11
12.998732513
 21
2.4937023146
  0
ARC
  5
313
100
AcDbEntity
  8
0
100
AcDbCircle
 62
2
  6
CONTINUOUS
 10
12.9962575135
 20
2.4937023128
 40
0.0024749995
100
AcDbArc
 50
269.9999571957
 51
0.0000428043
  0
LINE
  5
314
100
AcDbEntity
  8
0
100
AcDbLine
 62
2
  6
CONTINUOUS
 10
12.9962575116
 20
2.4912273132
 11
12.9205934696
 21
2.4912273132
  0
ARC
  5
315
100
AcDbEntity
  8
0
100
AcDbCircle
 62
2
  6
CONTINUOUS
 10
12.9205934678
 20
2.4937023128
 40
0.0024749995
100
AcDbArc
 50
179.9999571957
 51
270.0000428043
  0
LINE
  5
316
100
AcDbEntity
  8
0
100
AcDbLine
 62
2
  6
CONTINUOUS
 10
12.9181184683
 20
2.4937023146
 11
12.9181184683
 21
2.5135023256
  0
ARC
  5
317
100
AcDbEntity
  8
0
100
AcDbCircle
 62
2
  6
CONTINUOUS
 10
12.9205934678
 20
2.5135023274
 40
0.0024749995
100
AcDbArc
 50
89.9999571957
 51
180.0000428042
  0
LINE
  5
318
100
AcDbEntity
  8
0
100
AcDbLine
 62
2
  6
CONTINUOUS
 10
12.9205934696
 20
2.515977327
 11
12.93923948
 21
2.515977327
  0
ARC
  5
319
100
AcDbEntity
  8
0
100
AcDbCircle
 62
2
  6
CONTINUOUS
 10
12.9392394818
 20
2.5184523265
 40
0.0024749995
100
AcDbArc
 50
269.9999571957
 51
0.0000428043
  0
LINE
  5
31A
100
AcDbEntity
  8
0
100
AcDbLine
 62
2
  6
CONTINUOUS
 10
12.9417144814
 20
2.5184523283
 11
12.9417144814
 21
2.564807354
  0
ARC
  5
31B
100
AcDbEntity
  8
0
100
AcDbCircle
 62
2
  6
CONTINUOUS
 10
12.9392394818
 20
2.5648073559
 40
0.0024749995
100
AcDbArc
 50
359.9999571957
 51
90.0000428043
  0
LINE
  5
31C
100
AcDbEntity
  8
0
100
AcDbLine
 62
2
  6
CONTINUOUS
 10
12.93923948
 20
2.5672823554
 11
12.9205934696
 21
2.5672823554
  0
ARC
  5
31D
100
AcDbEntity
  8
0
100
AcDbCircle
 62
2
  6
CONTINUOUS
 10
12.9205934678
 20
2.5697573549
 40
0.0024749995
100
AcDbArc
 50
179.9999571957
 51
270.0000428043
  0
LINE
  5
31E
100
AcDbEntity
  8
0
100
AcDbLine
 62
2
  6
CONTINUOUS
 10
12.9181184683
 20
2.5697573568
 11
12.9181184683
 21
2.5895573678
  0
ARC
  5
31F
100
AcDbEntity
  8
0
100
AcDbCircle
 62
2
  6
CONTINUOUS
 10
12.9205934678
 20
2.5895573696
 40
0.0024749995
100
AcDbArc
 50
89.9999571957
 51
180.0000428042
  0
LINE
  5
320
100
AcDbEntity
  8
0
100
AcDbLine
 62
2
  6
CONTINUOUS
 10
13.2934226764
 20
2.5324773361
 11
13.2582556569
 21
2.5324773361
  0
ARC
  5
321
100
AcDbEntity
  8
0
100
AcDbCircle
 62
2
  6
CONTINUOUS
 10
13.2582556551
 20
2.5300023366
 40
0.0024749995
100
AcDbArc
 50
89.9999571957
 51
180.0000428043
  0
LINE
  5
322
100
AcDbEntity
  8
0
100
AcDbLine
 62
2
  6
CONTINUOUS
 10
13.2557806555
 20
2.5300023347
 11
13.2557806555
 21
2.5184523283
  0
ARC
  5
323
100
AcDbEntity
  8
0
100
AcDbCircle
 62
2
  6
CONTINUOUS
 10
13.2582556551
 20
2.5184523265
 40
0.0024749995
100
AcDbArc
 50
179.9999571957
 51
270.0000428043
  0
LINE
  5
324
100
AcDbEntity
  8
0
100
AcDbLine
 62
2
  6
CONTINUOUS
 10
13.2582556569
 20
2.515977327
 11
13.3232596929
 21
2.515977327
  0
ARC
  5
325
100
AcDbEntity
  8
0
100
AcDbCircle
 62
2
  6
CONTINUOUS
 10
13.3232596948
 20
2.5184523265
 40
0.0024749995
100
AcDbArc
 50
269.9999571957
 51
0.0000428043
  0
LINE
  5
326
100
AcDbEntity
  8
0
100
AcDbLine
 62
2
  6
CONTINUOUS
 10
13.3257346943
 20
2.5184523283
 11
13.3257346943
 21
2.5267023329
  0
ARC
  5
327
100
AcDbEntity
  8
0
100
AcDbCircle
 62
2
  6
CONTINUOUS
 10
13.3282096938
 20
2.5267023348
 40
0.0024749995
100
AcDbArc
 50
89.9999571957
 51
180.0000428043
  0
LINE
  5
328
100
AcDbEntity
  8
0
100
AcDbLine
 62
2
  6
CONTINUOUS
 10
13.3282096957
 20
2.5291773343
 11
13.3705287192
 21
2.5291773343
  0
ARC
  5
329
100
AcDbEntity
  8
0
100
AcDbCircle
 62
2
  6
CONTINUOUS
 10
13.370528721
 20
2.5267023348
 40
0.0024749995
100
AcDbArc
 50
359.9999571957
 51
90.0000428043
  0
LINE
  5
32A
100
AcDbEntity
  8
0
100
AcDbLine
 62
2
  6
CONTINUOUS
 10
13.3730037205
 20
2.5267023329
 11
13.3730037205
 21
2.4937023146
  0
ARC
  5
32B
100
AcDbEntity
  8
0
100
AcDbCircle
 62
2
  6
CONTINUOUS
 10
13.370528721
 20
2.4937023128
 40
0.0024749995
100
AcDbArc
 50
269.9999571957
 51
0.0000428043
  0
LINE
  5
32C
100
AcDbEntity
  8
0
100
AcDbLine
 62
2
  6
CONTINUOUS
 10
13.3705287192
 20
2.4912273132
 11
13.1673166065
 21
2.4912273132
  0
ARC
  5
32D
100
AcDbEntity
  8
0
100
AcDbCircle
 62
2
  6
CONTINUOUS
 10
13.1673166046
 20
2.4937023128
 40
0.0024749995
100
AcDbArc
 50
179.9999571957
 51
270.0000428043
  0
LINE
  5
32E
100
AcDbEntity
  8
0
100
AcDbLine
 62
2
  6
CONTINUOUS
 10
13.1648416051
 20
2.4937023146
 11
13.1648416051
 21
2.5135023256
  0
ARC
  5
32F
100
AcDbEntity
  8
0
100
AcDbCircle
 62
2
  6
CONTINUOUS
 10
13.1673166046
 20
2.5135023274
 40
0.0024749995
100
AcDbArc
 50
89.9999571957
 51
180.0000428043
  0
LINE
  5
330
100
AcDbEntity
  8
0
100
AcDbLine
 62
2
  6
CONTINUOUS
 10
13.1673166065
 20
2.515977327
 11
13.1912396197
 21
2.515977327
  0
ARC
  5
331
100
AcDbEntity
  8
0
100
AcDbCircle
 62
2
  6
CONTINUOUS
 10
13.1912396216
 20
2.5184523265
 40
0.0024749995
100
AcDbArc
 50
269.9999571957
 51
0.0000428042
  0
LINE
  5
332
100
AcDbEntity
  8
0
100
AcDbLine
 62
2
  6
CONTINUOUS
 10
13.1937146211
 20
2.5184523283
 11
13.1937146211
 21
2.564807354
  0
ARC
  5
333
100
AcDbEntity
  8
0
100
AcDbCircle
 62
2
  6
CONTINUOUS
 10
13.1912396216
 20
2.5648073559
 40
0.0024749995
100
AcDbArc
 50
359.9999571957
 51
90.0000428043
  0
LINE
  5
334
100
AcDbEntity
  8
0
100
AcDbLine
 62
2
  6
CONTINUOUS
 10
13.1912396197
 20
2.5672823554
 11
13.1673166065
 21
2.5672823554
  0
ARC
  5
335
100
AcDbEntity
  8
0
100
AcDbCircle
 62
2
  6
CONTINUOUS
 10
13.1673166046
 20
2.5697573549
 40
0.0024749995
100
AcDbArc
 50
179.9999571957
 51
270.0000428043
  0
LINE
  5
336
100
AcDbEntity
  8
0
100
AcDbLine
 62
2
  6
CONTINUOUS
 10
13.1648416051
 20
2.5697573568
 11
13.1648416051
 21
2.5895573678
  0
ARC
  5
337
100
AcDbEntity
  8
0
100
AcDbCircle
 62
2
  6
CONTINUOUS
 10
13.1673166046
 20
2.5895573696
 40
0.0024749995
100
AcDbArc
 50
89.9999571957
 51
180.0000428043
  0
LINE
  5
338
100
AcDbEntity
  8
0
100
AcDbLine
 62
2
  6
CONTINUOUS
 10
13.1673166065
 20
2.5920323691
 11
13.3691097184
 21
2.5920323691
  0
ARC
  5
339
100
AcDbEntity
  8
0
100
AcDbCircle
 62
2
  6
CONTINUOUS
 10
13.3691097202
 20
2.5895573696
 40
0.0024749995
100
AcDbArc
 50
359.9999571957
 51
90.0000428043
  0
LINE
  5
33A
100
AcDbEntity
  8
0
100
AcDbLine
 62
2
  6
CONTINUOUS
 10
13.3715847197
 20
2.5895573678
 11
13.3715847197
 21
2.5565573495
  0
ARC
  5
33B
100
AcDbEntity
  8
0
100
AcDbCircle
 62
2
  6
CONTINUOUS
 10
13.3691097202
 20
2.5565573476
 40
0.0024749995
100
AcDbArc
 50
269.9999571957
 51
0.0000428042
  0
LINE
  5
33C
100
AcDbEntity
  8
0
100
AcDbLine
 62
2
  6
CONTINUOUS
 10
13.3691097184
 20
2.5540823481
 11
13.3272456952
 21
2.5540823481
  0
ARC
  5
33D
100
AcDbEntity
  8
0
100
AcDbCircle
 62
2
  6
CONTINUOUS
 10
13.3272456933
 20
2.5565573476
 40
0.0024749995
100
AcDbArc
 50
179.9999571957
 51
270.0000428043
  0
LINE
  5
33E
100
AcDbEntity
  8
0
100
AcDbLine
 62
2
  6
CONTINUOUS
 10
13.3247706938
 20
2.5565573495
 11
13.3247706938
 21
2.564807354
  0
ARC
  5
33F
100
AcDbEntity
  8
0
100
AcDbCircle
 62
2
  6
CONTINUOUS
 10
13.3222956943
 20
2.5648073559
 40
0.0024749995
100
AcDbArc
 50
359.9999571957
 51
90.0000428043
  0
LINE
  5
340
100
AcDbEntity
  8
0
100
AcDbLine
 62
2
  6
CONTINUOUS
 10
13.3222956924
 20
2.5672823554
 11
13.2582556569
 21
2.5672823554
  0
ARC
  5
341
100
AcDbEntity
  8
0
100
AcDbCircle
 62
2
  6
CONTINUOUS
 10
13.2582556551
 20
2.5648073559
 40
0.0024749995
100
AcDbArc
 50
89.9999571957
 51
180.0000428043
  0
LINE
  5
342
100
AcDbEntity
  8
0
100
AcDbLine
 62
2
  6
CONTINUOUS
 10
13.2557806555
 20
2.564807354
 11
13.2557806555
 21
2.5532573476
  0
ARC
  5
343
100
AcDbEntity
  8
0
100
AcDbCircle
 62
2
  6
CONTINUOUS
 10
13.2582556551
 20
2.5532573458
 40
0.0024749995
100
AcDbArc
 50
179.9999571957
 51
270.0000428043
  0
LINE
  5
344
100
AcDbEntity
  8
0
100
AcDbLine
 62
2
  6
CONTINUOUS
 10
13.2582556569
 20
2.5507823463
 11
13.2934226764
 21
2.5507823463
  0
ARC
  5
345
100
AcDbEntity
  8
0
100
AcDbCircle
 62
2
  6
CONTINUOUS
 10
13.2934226783
 20
2.5483073467
 40
0.0024749995
100
AcDbArc
 50
359.9999571957
 51
90.0000428043
  0
LINE
  5
346
100
AcDbEntity
  8
0
100
AcDbLine
 62
2
  6
CONTINUOUS
 10
13.2958976778
 20
2.5483073449
 11
13.2958976778
 21
2.5349523375
  0
ARC
  5
347
100
AcDbEntity
  8
0
100
AcDbCircle
 62
2
  6
CONTINUOUS
 10
13.2934226783
 20
2.5349523356
 40
0.0024749995
100
AcDbArc
 50
269.9999571957
 51
0.0000428042
  0
LINE
  5
348
100
AcDbEntity
  8
0
100
AcDbLine
 62
2
  6
CONTINUOUS
 10
13.7286871589
 20
2.5350697372
 11
13.7286871589
 21
2.5456869438
  0
LINE
  5
349
100
AcDbEntity
  8
0
100
AcDbLine
 62
2
  6
CONTINUOUS
 10
13.7086871478
 20
2.5004302075
 11
13.7086871478
 21
2.5803264735
  0
LINE
  5
34A
100
AcDbEntity
  8
0
100
AcDbLine
 62
2
  6
CONTINUOUS
 10
13.6886871368
 20
2.4843919416
 11
13.6886871368
 21
2.5963647394
  0
LINE
  5
34B
100
AcDbEntity
  8
0
100
AcDbLine
 62
2
  6
CONTINUOUS
 10
13.6686871257
 20
2.4726017898
 11
13.6686871257
 21
2.6081548911
  0
LINE
  5
34C
100
AcDbEntity
  8
0
100
AcDbLine
 62
2
  6
CONTINUOUS
 10
13.6486871146
 20
2.4628062688
 11
13.6486871146
 21
2.6179504122
  0
LINE
  5
34D
100
AcDbEntity
  8
0
100
AcDbLine
 62
2
  6
CONTINUOUS
 10
13.6286871035
 20
2.4541253507
 11
13.6286871035
 21
2.5062483056
  0
LINE
  5
34E
100
AcDbEntity
  8
0
100
AcDbLine
 62
2
  6
CONTINUOUS
 10
13.6286871035
 20
2.5301143348
 11
13.6286871035
 21
2.6266313303
  0
LINE
  5
34F
100
AcDbEntity
  8
0
100
AcDbLine
 62
2
  6
CONTINUOUS
 10
13.6086870924
 20
2.4465537903
 11
13.6086870924
 21
2.4918774918
  0
LINE
  5
350
100
AcDbEntity
  8
0
100
AcDbLine
 62
2
  6
CONTINUOUS
 10
13.6086870924
 20
2.5165781173
 11
13.6086870924
 21
2.6342028907
  0
LINE
  5
351
100
AcDbEntity
  8
0
100
AcDbLine
 62
2
  6
CONTINUOUS
 10
13.5886870813
 20
2.4398033466
 11
13.5886870813
 21
2.4912273132
  0
LINE
  5
352
100
AcDbEntity
  8
0
100
AcDbLine
 62
2
  6
CONTINUOUS
 10
13.5886870813
 20
2.5391840845
 11
13.5886870813
 21
2.5454298327
  0
LINE
  5
353
100
AcDbEntity
  8
0
100
AcDbLine
 62
2
  6
CONTINUOUS
 10
13.5886870813
 20
2.5862063472
 11
13.5886870813
 21
2.6409533343
  0
LINE
  5
354
100
AcDbEntity
  8
0
100
AcDbLine
 62
2
  6
CONTINUOUS
 10
13.5686870702
 20
2.4334702189
 11
13.5686870702
 21
2.4912273132
  0
LINE
  5
355
100
AcDbEntity
  8
0
100
AcDbLine
 62
2
  6
CONTINUOUS
 10
13.5686870702
 20
2.5906587765
 11
13.5686870702
 21
2.647286462
  0
LINE
  5
356
100
AcDbEntity
  8
0
100
AcDbLine
 62
2
  6
CONTINUOUS
 10
13.5486870591
 20
2.4278968124
 11
13.5486870591
 21
2.4937461006
  0
LINE
  5
357
100
AcDbEntity
  8
0
100
AcDbLine
 62
2
  6
CONTINUOUS
 10
13.5486870591
 20
2.5920323691
 11
13.5486870591
 21
2.6528598686
  0
LINE
  5
358
100
AcDbEntity
  8
0
100
AcDbLine
 62
2
  6
CONTINUOUS
 10
13.528687048
 20
2.4225427674
 11
13.528687048
 21
2.5270426993
  0
LINE
  5
359
100
AcDbEntity
  8
0
100
AcDbLine
 62
2
  6
CONTINUOUS
 10
13.528687048
 20
2.5505166259
 11
13.528687048
 21
2.5668657091
  0
LINE
  5
35A
100
AcDbEntity
  8
0
100
AcDbLine
 62
2
  6
CONTINUOUS
 10
13.528687048
 20
2.5920323691
 11
13.528687048
 21
2.6582139136
  0
LINE
  5
35B
100
AcDbEntity
  8
0
100
AcDbLine
 62
2
  6
CONTINUOUS
 10
13.5086870369
 20
2.4177306791
 11
13.5086870369
 21
2.4912273132
  0
LINE
  5
35C
100
AcDbEntity
  8
0
100
AcDbLine
 62
2
  6
CONTINUOUS
 10
13.5086870369
 20
2.5159553269
 11
13.5086870369
 21
2.5306043351
  0
LINE
  5
35D
100
AcDbEntity
  8
0
100
AcDbLine
 62
2
  6
CONTINUOUS
 10
13.5086870369
 20
2.5496073456
 11
13.5086870369
 21
2.5672823554
  0
LINE
  5
35E
100
AcDbEntity
  8
0
100
AcDbLine
 62
2
  6
CONTINUOUS
 10
13.5086870369
 20
2.5920323691
 11
13.5086870369
 21
2.6630260019
  0
LINE
  5
35F
100
AcDbEntity
  8
0
100
AcDbLine
 62
2
  6
CONTINUOUS
 10
13.4886870258
 20
2.4131795254
 11
13.4886870258
 21
2.4912273132
  0
LINE
  5
360
100
AcDbEntity
  8
0
100
AcDbLine
 62
2
  6
CONTINUOUS
 10
13.4886870258
 20
2.5159553269
 11
13.4886870258
 21
2.5306043351
  0
LINE
  5
361
100
AcDbEntity
  8
0
100
AcDbLine
 62
2
  6
CONTINUOUS
 10
13.4886870258
 20
2.5496073456
 11
13.4886870258
 21
2.5672823554
  0
LINE
  5
362
100
AcDbEntity
  8
0
100
AcDbLine
 62
2
  6
CONTINUOUS
 10
13.4886870258
 20
2.5920323691
 11
13.4886870258
 21
2.6675771555
  0
LINE
  5
363
100
AcDbEntity
  8
0
100
AcDbLine
 62
2
  6
CONTINUOUS
 10
13.4686870147
 20
2.4088819672
 11
13.4686870147
 21
2.4912273132
  0
LINE
  5
364
100
AcDbEntity
  8
0
100
AcDbLine
 62
2
  6
CONTINUOUS
 10
13.4686870147
 20
2.5920323691
 11
13.4686870147
 21
2.6718747138
  0
LINE
  5
365
100
AcDbEntity
  8
0
100
AcDbLine
 62
2
  6
CONTINUOUS
 10
13.4486870037
 20
2.4050092072
 11
13.4486870037
 21
2.4912273132
  0
LINE
  5
366
100
AcDbEntity
  8
0
100
AcDbLine
 62
2
  6
CONTINUOUS
 10
13.4486870037
 20
2.5920323691
 11
13.4486870037
 21
2.6757474738
  0
LINE
  5
367
100
AcDbEntity
  8
0
100
AcDbLine
 62
2
  6
CONTINUOUS
 10
13.4286869926
 20
2.4011364471
 11
13.4286869926
 21
2.4912273132
  0
LINE
  5
368
100
AcDbEntity
  8
0
100
AcDbLine
 62
2
  6
CONTINUOUS
 10
13.4286869926
 20
2.5920323691
 11
13.4286869926
 21
2.6796202339
  0
LINE
  5
369
100
AcDbEntity
  8
0
100
AcDbLine
 62
2
  6
CONTINUOUS
 10
13.4086869815
 20
2.3980226662
 11
13.4086869815
 21
2.4912273132
  0
LINE
  5
36A
100
AcDbEntity
  8
0
100
AcDbLine
 62
2
  6
CONTINUOUS
 10
13.4086869815
 20
2.515977327
 11
13.4086869815
 21
2.5672823554
  0
LINE
  5
36B
100
AcDbEntity
  8
0
100
AcDbLine
 62
2
  6
CONTINUOUS
 10
13.4086869815
 20
2.5920323691
 11
13.4086869815
 21
2.6827340148
  0
LINE
  5
36C
100
AcDbEntity
  8
0
100
AcDbLine
 62
2
  6
CONTINUOUS
 10
13.3886869704
 20
2.3950052774
 11
13.3886869704
 21
2.6857514036
  0
LINE
  5
36D
100
AcDbEntity
  8
0
100
AcDbLine
 62
2
  6
CONTINUOUS
 10
13.3686869593
 20
2.3919878885
 11
13.3686869593
 21
2.4912273132
  0
LINE
  5
36E
100
AcDbEntity
  8
0
100
AcDbLine
 62
2
  6
CONTINUOUS
 10
13.3686869593
 20
2.5291773343
 11
13.3686869593
 21
2.5540823481
  0
LINE
  5
36F
100
AcDbEntity
  8
0
100
AcDbLine
 62
2
  6
CONTINUOUS
 10
13.3686869593
 20
2.5920323691
 11
13.3686869593
 21
2.6887687924
  0
LINE
  5
370
100
AcDbEntity
  8
0
100
AcDbLine
 62
2
  6
CONTINUOUS
 10
13.3486869482
 20
2.3889704997
 11
13.3486869482
 21
2.4912273132
  0
LINE
  5
371
100
AcDbEntity
  8
0
100
AcDbLine
 62
2
  6
CONTINUOUS
 10
13.3486869482
 20
2.5291773343
 11
13.3486869482
 21
2.5540823481
  0
LINE
  5
372
100
AcDbEntity
  8
0
100
AcDbLine
 62
2
  6
CONTINUOUS
 10
13.3486869482
 20
2.5920323691
 11
13.3486869482
 21
2.6917861813
  0
LINE
  5
373
100
AcDbEntity
  8
0
100
AcDbLine
 62
2
  6
CONTINUOUS
 10
13.3286869371
 20
2.3859531109
 11
13.3286869371
 21
2.4912273132
  0
LINE
  5
374
100
AcDbEntity
  8
0
100
AcDbLine
 62
2
  6
CONTINUOUS
 10
13.3286869371
 20
2.5291773343
 11
13.3286869371
 21
2.5540823481
  0
LINE
  5
375
100
AcDbEntity
  8
0
100
AcDbLine
 62
2
  6
CONTINUOUS
 10
13.3286869371
 20
2.5920323691
 11
13.3286869371
 21
2.6948035701
  0
LINE
  5
376
100
AcDbEntity
  8
0
100
AcDbLine
 62
2
  6
CONTINUOUS
 10
13.308686926
 20
2.3833355437
 11
13.308686926
 21
2.4912273132
  0
LINE
  5
377
100
AcDbEntity
  8
0
100
AcDbLine
 62
2
  6
CONTINUOUS
 10
13.308686926
 20
2.515977327
 11
13.308686926
 21
2.5672823554
  0
LINE
  5
378
100
AcDbEntity
  8
0
100
AcDbLine
 62
2
  6
CONTINUOUS
 10
13.308686926
 20
2.5920323691
 11
13.308686926
 21
2.6974211373
  0
LINE
  5
379
100
AcDbEntity
  8
0
100
AcDbLine
 62
2
  6
CONTINUOUS
 10
13.2886869149
 20
2.3812612684
 11
13.2886869149
 21
2.4912273132
  0
LINE
  5
37A
100
AcDbEntity
  8
0
100
AcDbLine
 62
2
  6
CONTINUOUS
 10
13.2886869149
 20
2.515977327
 11
13.2886869149
 21
2.5324773361
  0
LINE
  5
37B
100
AcDbEntity
  8
0
100
AcDbLine
 62
2
  6
CONTINUOUS
 10
13.2886869149
 20
2.5507823463
 11
13.2886869149
 21
2.5672823554
  0
LINE
  5
37C
100
AcDbEntity
  8
0
100
AcDbLine
 62
2
  6
CONTINUOUS
 10
13.2886869149
 20
2.5920323691
 11
13.2886869149
 21
2.6994954125
  0
LINE
  5
37D
100
AcDbEntity
  8
0
100
AcDbLine
 62
2
  6
CONTINUOUS
 10
13.2686869038
 20
2.3791869932
 11
13.2686869038
 21
2.4912273132
  0
LINE
  5
37E
100
AcDbEntity
  8
0
100
AcDbLine
 62
2
  6
CONTINUOUS
 10
13.2686869038
 20
2.515977327
 11
13.2686869038
 21
2.5324773361
  0
LINE
  5
37F
100
AcDbEntity
  8
0
100
AcDbLine
 62
2
  6
CONTINUOUS
 10
13.2686869038
 20
2.5507823463
 11
13.2686869038
 21
2.5672823554
  0
LINE
  5
380
100
AcDbEntity
  8
0
100
AcDbLine
 62
2
  6
CONTINUOUS
 10
13.2686869038
 20
2.5920323691
 11
13.2686869038
 21
2.7015696878
  0
LINE
  5
381
100
AcDbEntity
  8
0
100
AcDbLine
 62
2
  6
CONTINUOUS
 10
13.2486868927
 20
2.377112718
 11
13.2486868927
 21
2.4912273132
  0
LINE
  5
382
100
AcDbEntity
  8
0
100
AcDbLine
 62
2
  6
CONTINUOUS
 10
13.2486868927
 20
2.5920323691
 11
13.2486868927
 21
2.703643963
  0
LINE
  5
383
100
AcDbEntity
  8
0
100
AcDbLine
 62
2
  6
CONTINUOUS
 10
13.2286868817
 20
2.3750384428
 11
13.2286868817
 21
2.4912273132
  0
LINE
  5
384
100
AcDbEntity
  8
0
100
AcDbLine
 62
2
  6
CONTINUOUS
 10
13.2286868817
 20
2.5920323691
 11
13.2286868817
 21
2.7057182382
  0
LINE
  5
385
100
AcDbEntity
  8
0
100
AcDbLine
 62
2
  6
CONTINUOUS
 10
13.2086868706
 20
2.3729641676
 11
13.2086868706
 21
2.4912273132
  0
LINE
  5
386
100
AcDbEntity
  8
0
100
AcDbLine
 62
2
  6
CONTINUOUS
 10
13.2086868706
 20
2.5920323691
 11
13.2086868706
 21
2.7077925134
  0
LINE
  5
387
100
AcDbEntity
  8
0
100
AcDbLine
 62
2
  6
CONTINUOUS
 10
13.1886868595
 20
2.3712344456
 11
13.1886868595
 21
2.4912273132
  0
LINE
  5
388
100
AcDbEntity
  8
0
100
AcDbLine
 62
2
  6
CONTINUOUS
 10
13.1886868595
 20
2.515977327
 11
13.1886868595
 21
2.5672823554
  0
LINE
  5
389
100
AcDbEntity
  8
0
100
AcDbLine
 62
2
  6
CONTINUOUS
 10
13.1886868595
 20
2.5920323691
 11
13.1886868595
 21
2.7095222354
  0
LINE
  5
38A
100
AcDbEntity
  8
0
100
AcDbLine
 62
2
  6
CONTINUOUS
 10
13.1686868484
 20
2.3699682418
 11
13.1686868484
 21
2.4912273132
  0
LINE
  5
38B
100
AcDbEntity
  8
0
100
AcDbLine
 62
2
  6
CONTINUOUS
 10
13.1686868484
 20
2.515977327
 11
13.1686868484
 21
2.5672823554
  0
LINE
  5
38C
100
AcDbEntity
  8
0
100
AcDbLine
 62
2
  6
CONTINUOUS
 10
13.1686868484
 20
2.5920323691
 11
13.1686868484
 21
2.7107884392
  0
LINE
  5
38D
100
AcDbEntity
  8
0
100
AcDbLine
 62
2
  6
CONTINUOUS
 10
13.1486868373
 20
2.3687020381
 11
13.1486868373
 21
2.7120546429
  0
LINE
  5
38E
100
AcDbEntity
  8
0
100
AcDbLine
 62
2
  6
CONTINUOUS
 10
13.1286868262
 20
2.3674358343
 11
13.1286868262
 21
2.5672823554
  0
LINE
  5
38F
100
AcDbEntity
  8
0
100
AcDbLine
 62
2
  6
CONTINUOUS
 10
13.1286868262
 20
2.5920323691
 11
13.1286868262
 21
2.7133208466
  0
LINE
  5
390
100
AcDbEntity
  8
0
100
AcDbLine
 62
2
  6
CONTINUOUS
 10
13.1086868151
 20
2.3661696306
 11
13.1086868151
 21
2.4912273132
  0
LINE
  5
391
100
AcDbEntity
  8
0
100
AcDbLine
 62
2
  6
CONTINUOUS
 10
13.1086868151
 20
2.5920323691
 11
13.1086868151
 21
2.7145870504
  0
LINE
  5
392
100
AcDbEntity
  8
0
100
AcDbLine
 62
2
  6
CONTINUOUS
 10
13.088686804
 20
2.3649034269
 11
13.088686804
 21
2.4912273132
  0
LINE
  5
393
100
AcDbEntity
  8
0
100
AcDbLine
 62
2
  6
CONTINUOUS
 10
13.088686804
 20
2.5920323691
 11
13.088686804
 21
2.7158532541
  0
LINE
  5
394
100
AcDbEntity
  8
0
100
AcDbLine
 62
2
  6
CONTINUOUS
 10
13.0686867929
 20
2.3636739922
 11
13.0686867929
 21
2.4912273132
  0
LINE
  5
395
100
AcDbEntity
  8
0
100
AcDbLine
 62
2
  6
CONTINUOUS
 10
13.0686867929
 20
2.5475272398
 11
13.0686867929
 21
2.5672823554
  0
LINE
  5
396
100
AcDbEntity
  8
0
100
AcDbLine
 62
2
  6
CONTINUOUS
 10
13.0686867929
 20
2.5920323691
 11
13.0686867929
 21
2.7170826887
  0
LINE
  5
397
100
AcDbEntity
  8
0
100
AcDbLine
 62
2
  6
CONTINUOUS
 10
13.0486867818
 20
2.363143203
 11
13.0486867818
 21
2.4912273132
  0
LINE
  5
398
100
AcDbEntity
  8
0
100
AcDbLine
 62
2
  6
CONTINUOUS
 10
13.0486867818
 20
2.5666100882
 11
13.0486867818
 21
2.717613478
  0
LINE
  5
399
100
AcDbEntity
  8
0
100
AcDbLine
 62
2
  6
CONTINUOUS
 10
13.0286867707
 20
2.3626124138
 11
13.0286867707
 21
2.50359263
  0
LINE
  5
39A
100
AcDbEntity
  8
0
100
AcDbLine
 62
2
  6
CONTINUOUS
 10
13.0286867707
 20
2.5856929366
 11
13.0286867707
 21
2.7181442672
  0
LINE
  5
39B
100
AcDbEntity
  8
0
100
AcDbLine
 62
2
  6
CONTINUOUS
 10
13.0086867596
 20
2.3620816246
 11
13.0086867596
 21
2.5226754472
  0
LINE
  5
39C
100
AcDbEntity
  8
0
100
AcDbLine
 62
2
  6
CONTINUOUS
 10
13.0086867596
 20
2.5920323691
 11
13.0086867596
 21
2.7186750564
  0
LINE
  5
39D
100
AcDbEntity
  8
0
100
AcDbLine
 62
2
  6
CONTINUOUS
 10
12.9886867486
 20
2.3615508354
 11
12.9886867486
 21
2.4912273132
  0
LINE
  5
39E
100
AcDbEntity
  8
0
100
AcDbLine
 62
2
  6
CONTINUOUS
 10
12.9886867486
 20
2.515977327
 11
12.9886867486
 21
2.5417582644
  0
LINE
  5
39F
100
AcDbEntity
  8
0
100
AcDbLine
 62
2
  6
CONTINUOUS
 10
12.9886867486
 20
2.5920323691
 11
12.9886867486
 21
2.7192058456
  0
LINE
  5
3A0
100
AcDbEntity
  8
0
100
AcDbLine
 62
2
  6
CONTINUOUS
 10
12.9686867375
 20
2.3610200462
 11
12.9686867375
 21
2.4912273132
  0
LINE
  5
3A1
100
AcDbEntity
  8
0
100
AcDbLine
 62
2
  6
CONTINUOUS
 10
12.9686867375
 20
2.5920323691
 11
12.9686867375
 21
2.7197366348
  0
LINE
  5
3A2
100
AcDbEntity
  8
0
100
AcDbLine
 62
2
  6
CONTINUOUS
 10
12.9486867264
 20
2.360489257
 11
12.9486867264
 21
2.4912273132
  0
LINE
  5
3A3
100
AcDbEntity
  8
0
100
AcDbLine
 62
2
  6
CONTINUOUS
 10
12.9486867264
 20
2.5920323691
 11
12.9486867264
 21
2.720267424
  0
LINE
  5
3A4
100
AcDbEntity
  8
0
100
AcDbLine
 62
2
  6
CONTINUOUS
 10
12.9286867153
 20
2.3602836008
 11
12.9286867153
 21
2.4912273132
  0
LINE
  5
3A5
100
AcDbEntity
  8
0
100
AcDbLine
 62
2
  6
CONTINUOUS
 10
12.9286867153
 20
2.515977327
 11
12.9286867153
 21
2.5672823554
  0
LINE
  5
3A6
100
AcDbEntity
  8
0
100
AcDbLine
 62
2
  6
CONTINUOUS
 10
12.9286867153
 20
2.5920323691
 11
12.9286867153
 21
2.7204730802
  0
LINE
  5
3A7
100
AcDbEntity
  8
0
100
AcDbLine
 62
2
  6
CONTINUOUS
 10
12.9086867042
 20
2.3604597639
 11
12.9086867042
 21
2.7202969171
  0
LINE
  5
3A8
100
AcDbEntity
  8
0
100
AcDbLine
 62
2
  6
CONTINUOUS
 10
12.8886866931
 20
2.360635927
 11
12.8886866931
 21
2.5672823554
  0
LINE
  5
3A9
100
AcDbEntity
  8
0
100
AcDbLine
 62
2
  6
CONTINUOUS
 10
12.8886866931
 20
2.5920323691
 11
12.8886866931
 21
2.720120754
  0
LINE
  5
3AA
100
AcDbEntity
  8
0
100
AcDbLine
 62
2
  6
CONTINUOUS
 10
12.868686682
 20
2.3608120901
 11
12.868686682
 21
2.491232357
  0
LINE
  5
3AB
100
AcDbEntity
  8
0
100
AcDbLine
 62
2
  6
CONTINUOUS
 10
12.868686682
 20
2.5920323691
 11
12.868686682
 21
2.7199445909
  0
LINE
  5
3AC
100
AcDbEntity
  8
0
100
AcDbLine
 62
2
  6
CONTINUOUS
 10
12.8486866709
 20
2.3609882532
 11
12.8486866709
 21
2.4912273132
  0
LINE
  5
3AD
100
AcDbEntity
  8
0
100
AcDbLine
 62
2
  6
CONTINUOUS
 10
12.8486866709
 20
2.5920323691
 11
12.8486866709
 21
2.7197684278
  0
LINE
  5
3AE
100
AcDbEntity
  8
0
100
AcDbLine
 62
2
  6
CONTINUOUS
 10
12.8286866598
 20
2.3611644163
 11
12.8286866598
 21
2.4912273132
  0
LINE
  5
3AF
100
AcDbEntity
  8
0
100
AcDbLine
 62
2
  6
CONTINUOUS
 10
12.8286866598
 20
2.5396527025
 11
12.8286866598
 21
2.5672823554
  0
LINE
  5
3B0
100
AcDbEntity
  8
0
100
AcDbLine
 62
2
  6
CONTINUOUS
 10
12.8286866598
 20
2.5920323691
 11
12.8286866598
 21
2.7195922647
  0
LINE
  5
3B1
100
AcDbEntity
  8
0
100
AcDbLine
 62
2
  6
CONTINUOUS
 10
12.8086866487
 20
2.3613405794
 11
12.8086866487
 21
2.4912273132
  0
LINE
  5
3B2
100
AcDbEntity
  8
0
100
AcDbLine
 62
2
  6
CONTINUOUS
 10
12.8086866487
 20
2.5587355508
 11
12.8086866487
 21
2.7194161016
  0
LINE
  5
3B3
100
AcDbEntity
  8
0
100
AcDbLine
 62
2
  6
CONTINUOUS
 10
12.7886866376
 20
2.3621089572
 11
12.7886866376
 21
2.4957181055
  0
LINE
  5
3B4
100
AcDbEntity
  8
0
100
AcDbLine
 62
2
  6
CONTINUOUS
 10
12.7886866376
 20
2.5778183992
 11
12.7886866376
 21
2.7186477238
  0
LINE
  5
3B5
100
AcDbEntity
  8
0
100
AcDbLine
 62
2
  6
CONTINUOUS
 10
12.7686866266
 20
2.3630013935
 11
12.7686866266
 21
2.5148009227
  0
LINE
  5
3B6
100
AcDbEntity
  8
0
100
AcDbLine
 62
2
  6
CONTINUOUS
 10
12.7686866266
 20
2.5920323691
 11
12.7686866266
 21
2.7177552874
  0
LINE
  5
3B7
100
AcDbEntity
  8
0
100
AcDbLine
 62
2
  6
CONTINUOUS
 10
12.7486866155
 20
2.3638938299
 11
12.7486866155
 21
2.4913263218
  0
LINE
  5
3B8
100
AcDbEntity
  8
0
100
AcDbLine
 62
2
  6
CONTINUOUS
 10
12.7486866155
 20
2.5158783184
 11
12.7486866155
 21
2.5338837399
  0
LINE
  5
3B9
100
AcDbEntity
  8
0
100
AcDbLine
 62
2
  6
CONTINUOUS
 10
12.7486866155
 20
2.5920323691
 11
12.7486866155
 21
2.7168628511
  0
LINE
  5
3BA
100
AcDbEntity
  8
0
100
AcDbLine
 62
2
  6
CONTINUOUS
 10
12.7286866044
 20
2.3647862663
 11
12.7286866044
 21
2.4912273132
  0
LINE
  5
3BB
100
AcDbEntity
  8
0
100
AcDbLine
 62
2
  6
CONTINUOUS
 10
12.7286866044
 20
2.515977327
 11
12.7286866044
 21
2.5527601554
  0
LINE
  5
3BC
100
AcDbEntity
  8
0
100
AcDbLine
 62
2
  6
CONTINUOUS
 10
12.7286866044
 20
2.5920323691
 11
12.7286866044
 21
2.7159704147
  0
LINE
  5
3BD
100
AcDbEntity
  8
0
100
AcDbLine
 62
2
  6
CONTINUOUS
 10
12.7086865933
 20
2.3656787026
 11
12.7086865933
 21
2.4912273132
  0
LINE
  5
3BE
100
AcDbEntity
  8
0
100
AcDbLine
 62
2
  6
CONTINUOUS
 10
12.7086865933
 20
2.5920323691
 11
12.7086865933
 21
2.7150779784
  0
LINE
  5
3BF
100
AcDbEntity
  8
0
100
AcDbLine
 62
2
  6
CONTINUOUS
 10
12.6886865822
 20
2.366571139
 11
12.6886865822
 21
2.4912273132
  0
LINE
  5
3C0
100
AcDbEntity
  8
0
100
AcDbLine
 62
2
  6
CONTINUOUS
 10
12.6886865822
 20
2.515977327
 11
12.6886865822
 21
2.5672823554
  0
LINE
  5
3C1
100
AcDbEntity
  8
0
100
AcDbLine
 62
2
  6
CONTINUOUS
 10
12.6886865822
 20
2.5920323691
 11
12.6886865822
 21
2.714185542
  0
LINE
  5
3C2
100
AcDbEntity
  8
0
100
AcDbLine
 62
2
  6
CONTINUOUS
 10
12.6686865711
 20
2.3677104027
 11
12.6686865711
 21
2.7130462783
  0
LINE
  5
3C3
100
AcDbEntity
  8
0
100
AcDbLine
 62
2
  6
CONTINUOUS
 10
12.64868656
 20
2.3693682721
 11
12.64868656
 21
2.7113884089
  0
LINE
  5
3C4
100
AcDbEntity
  8
0
100
AcDbLine
 62
2
  6
CONTINUOUS
 10
12.6286865489
 20
2.3710261415
 11
12.6286865489
 21
2.4912273132
  0
LINE
  5
3C5
100
AcDbEntity
  8
0
100
AcDbLine
 62
2
  6
CONTINUOUS
 10
12.6286865489
 20
2.515977327
 11
12.6286865489
 21
2.7097305395
  0
LINE
  5
3C6
100
AcDbEntity
  8
0
100
AcDbLine
 62
2
  6
CONTINUOUS
 10
12.6086865378
 20
2.372684011
 11
12.6086865378
 21
2.4912273132
  0
LINE
  5
3C7
100
AcDbEntity
  8
0
100
AcDbLine
 62
2
  6
CONTINUOUS
 10
12.6086865378
 20
2.5351122279
 11
12.6086865378
 21
2.70807267
  0
LINE
  5
3C8
100
AcDbEntity
  8
0
100
AcDbLine
 62
2
  6
CONTINUOUS
 10
12.5886865267
 20
2.3743418804
 11
12.5886865267
 21
2.4912273132
  0
LINE
  5
3C9
100
AcDbEntity
  8
0
100
AcDbLine
 62
2
  6
CONTINUOUS
 10
12.5886865267
 20
2.5660172622
 11
12.5886865267
 21
2.7064148006
  0
LINE
  5
3CA
100
AcDbEntity
  8
0
100
AcDbLine
 62
2
  6
CONTINUOUS
 10
12.5686865156
 20
2.3759997498
 11
12.5686865156
 21
2.4912273132
  0
LINE
  5
3CB
100
AcDbEntity
  8
0
100
AcDbLine
 62
2
  6
CONTINUOUS
 10
12.5686865156
 20
2.5920323691
 11
12.5686865156
 21
2.7047569312
  0
LINE
  5
3CC
100
AcDbEntity
  8
0
100
AcDbLine
 62
2
  6
CONTINUOUS
 10
12.5486865045
 20
2.3777575277
 11
12.5486865045
 21
2.4912273132
  0
LINE
  5
3CD
100
AcDbEntity
  8
0
100
AcDbLine
 62
2
  6
CONTINUOUS
 10
12.5486865045
 20
2.515977327
 11
12.5486865045
 21
2.5275118824
  0
LINE
  5
3CE
100
AcDbEntity
  8
0
100
AcDbLine
 62
2
  6
CONTINUOUS
 10
12.5486865045
 20
2.5920323691
 11
12.5486865045
 21
2.7029991533
  0
LINE
  5
3CF
100
AcDbEntity
  8
0
100
AcDbLine
 62
2
  6
CONTINUOUS
 10
12.5286864935
 20
2.3802813811
 11
12.5286864935
 21
2.5296213345
  0
LINE
  5
3D0
100
AcDbEntity
  8
0
100
AcDbLine
 62
2
  6
CONTINUOUS
 10
12.5286864935
 20
2.5505713461
 11
12.5286864935
 21
2.5667383551
  0
LINE
  5
3D1
100
AcDbEntity
  8
0
100
AcDbLine
 62
2
  6
CONTINUOUS
 10
12.5286864935
 20
2.5920323691
 11
12.5286864935
 21
2.7004752999
  0
LINE
  5
3D2
100
AcDbEntity
  8
0
100
AcDbLine
 62
2
  6
CONTINUOUS
 10
12.5086864824
 20
2.3828052346
 11
12.5086864824
 21
2.4912273132
  0
LINE
  5
3D3
100
AcDbEntity
  8
0
100
AcDbLine
 62
2
  6
CONTINUOUS
 10
12.5086864824
 20
2.515977327
 11
12.5086864824
 21
2.5279667721
  0
LINE
  5
3D4
100
AcDbEntity
  8
0
100
AcDbLine
 62
2
  6
CONTINUOUS
 10
12.5086864824
 20
2.5868602074
 11
12.5086864824
 21
2.6979514464
  0
LINE
  5
3D5
100
AcDbEntity
  8
0
100
AcDbLine
 62
2
  6
CONTINUOUS
 10
12.4886864713
 20
2.385329088
 11
12.4886864713
 21
2.4912273132
  0
LINE
  5
3D6
100
AcDbEntity
  8
0
100
AcDbLine
 62
2
  6
CONTINUOUS
 10
12.4886864713
 20
2.5553401045
 11
12.4886864713
 21
2.695427593
  0
LINE
  5
3D7
100
AcDbEntity
  8
0
100
AcDbLine
 62
2
  6
CONTINUOUS
 10
12.4686864602
 20
2.3878529415
 11
12.4686864602
 21
2.4912273132
  0
LINE
  5
3D8
100
AcDbEntity
  8
0
100
AcDbLine
 62
2
  6
CONTINUOUS
 10
12.4686864602
 20
2.5238200015
 11
12.4686864602
 21
2.6929037395
  0
LINE
  5
3D9
100
AcDbEntity
  8
0
100
AcDbLine
 62
2
  6
CONTINUOUS
 10
12.4486864491
 20
2.390376795
 11
12.4486864491
 21
2.4912273132
  0
LINE
  5
3DA
100
AcDbEntity
  8
0
100
AcDbLine
 62
2
  6
CONTINUOUS
 10
12.4486864491
 20
2.515977327
 11
12.4486864491
 21
2.690379886
  0
LINE
  5
3DB
100
AcDbEntity
  8
0
100
AcDbLine
 62
2
  6
CONTINUOUS
 10
12.428686438
 20
2.3931794042
 11
12.428686438
 21
2.6875772768
  0
LINE
  5
3DC
100
AcDbEntity
  8
0
100
AcDbLine
 62
2
  6
CONTINUOUS
 10
12.4086864269
 20
2.3964643301
 11
12.4086864269
 21
2.5013773986
  0
LINE
  5
3DD
100
AcDbEntity
  8
0
100
AcDbLine
 62
2
  6
CONTINUOUS
 10
12.4086864269
 20
2.5325739971
 11
12.4086864269
 21
2.5537224311
  0
LINE
  5
3DE
100
AcDbEntity
  8
0
100
AcDbLine
 62
2
  6
CONTINUOUS
 10
12.4086864269
 20
2.5791473398
 11
12.4086864269
 21
2.6842923509
  0
LINE
  5
3DF
100
AcDbEntity
  8
0
100
AcDbLine
 62
2
  6
CONTINUOUS
 10
12.3886864158
 20
2.399749256
 11
12.3886864158
 21
2.4921022658
  0
LINE
  5
3E0
100
AcDbEntity
  8
0
100
AcDbLine
 62
2
  6
CONTINUOUS
 10
12.3886864158
 20
2.5895929958
 11
12.3886864158
 21
2.681007425
  0
LINE
  5
3E1
100
AcDbEntity
  8
0
100
AcDbLine
 62
2
  6
CONTINUOUS
 10
12.3686864047
 20
2.403451877
 11
12.3686864047
 21
2.4912273132
  0
LINE
  5
3E2
100
AcDbEntity
  8
0
100
AcDbLine
 62
2
  6
CONTINUOUS
 10
12.3686864047
 20
2.5920323691
 11
12.3686864047
 21
2.677304804
  0
LINE
  5
3E3
100
AcDbEntity
  8
0
100
AcDbLine
 62
2
  6
CONTINUOUS
 10
12.3486863936
 20
2.407324637
 11
12.3486863936
 21
2.4912273132
  0
LINE
  5
3E4
100
AcDbEntity
  8
0
100
AcDbLine
 62
2
  6
CONTINUOUS
 10
12.3486863936
 20
2.5920323691
 11
12.3486863936
 21
2.673432044
  0
LINE
  5
3E5
100
AcDbEntity
  8
0
100
AcDbLine
 62
2
  6
CONTINUOUS
 10
12.3286863825
 20
2.4113493968
 11
12.3286863825
 21
2.4912273132
  0
LINE
  5
3E6
100
AcDbEntity
  8
0
100
AcDbLine
 62
2
  6
CONTINUOUS
 10
12.3286863825
 20
2.515977327
 11
12.3286863825
 21
2.5333023366
  0
LINE
  5
3E7
100
AcDbEntity
  8
0
100
AcDbLine
 62
2
  6
CONTINUOUS
 10
12.3286863825
 20
2.5499573458
 11
12.3286863825
 21
2.5672823554
  0
LINE
  5
3E8
100
AcDbEntity
  8
0
100
AcDbLine
 62
2
  6
CONTINUOUS
 10
12.3286863825
 20
2.5920323691
 11
12.3286863825
 21
2.6694072842
  0
LINE
  5
3E9
100
AcDbEntity
  8
0
100
AcDbLine
 62
2
  6
CONTINUOUS
 10
12.3086863715
 20
2.4159005505
 11
12.3086863715
 21
2.4912273132
  0
LINE
  5
3EA
100
AcDbEntity
  8
0
100
AcDbLine
 62
2
  6
CONTINUOUS
 10
12.3086863715
 20
2.515977327
 11
12.3086863715
 21
2.5333023366
  0
LINE
  5
3EB
100
AcDbEntity
  8
0
100
AcDbLine
 62
2
  6
CONTINUOUS
 10
12.3086863715
 20
2.5499573458
 11
12.3086863715
 21
2.5672823554
  0
LINE
  5
3EC
100
AcDbEntity
  8
0
100
AcDbLine
 62
2
  6
CONTINUOUS
 10
12.3086863715
 20
2.5920323691
 11
12.3086863715
 21
2.6648561305
  0
LINE
  5
3ED
100
AcDbEntity
  8
0
100
AcDbLine
 62
2
  6
CONTINUOUS
 10
12.2886863604
 20
2.4204517041
 11
12.2886863604
 21
2.4912273132
  0
LINE
  5
3EE
100
AcDbEntity
  8
0
100
AcDbLine
 62
2
  6
CONTINUOUS
 10
12.2886863604
 20
2.5920323691
 11
12.2886863604
 21
2.6603049769
  0
LINE
  5
3EF
100
AcDbEntity
  8
0
100
AcDbLine
 62
2
  6
CONTINUOUS
 10
12.2686863493
 20
2.4257438218
 11
12.2686863493
 21
2.4912273132
  0
LINE
  5
3F0
100
AcDbEntity
  8
0
100
AcDbLine
 62
2
  6
CONTINUOUS
 10
12.2686863493
 20
2.5920323691
 11
12.2686863493
 21
2.6550128592
  0
LINE
  5
3F1
100
AcDbEntity
  8
0
100
AcDbLine
 62
2
  6
CONTINUOUS
 10
12.2486863382
 20
2.4310978667
 11
12.2486863382
 21
2.4912273132
  0
LINE
  5
3F2
100
AcDbEntity
  8
0
100
AcDbLine
 62
2
  6
CONTINUOUS
 10
12.2486863382
 20
2.5920323691
 11
12.2486863382
 21
2.6496588142
  0
LINE
  5
3F3
100
AcDbEntity
  8
0
100
AcDbLine
 62
2
  6
CONTINUOUS
 10
12.2286863271
 20
2.4372566433
 11
12.2286863271
 21
2.4912273132
  0
LINE
  5
3F4
100
AcDbEntity
  8
0
100
AcDbLine
 62
2
  6
CONTINUOUS
 10
12.2286863271
 20
2.515977327
 11
12.2286863271
 21
2.5672823554
  0
LINE
  5
3F5
100
AcDbEntity
  8
0
100
AcDbLine
 62
2
  6
CONTINUOUS
 10
12.2286863271
 20
2.5920323691
 11
12.2286863271
 21
2.6435000377
  0
LINE
  5
3F6
100
AcDbEntity
  8
0
100
AcDbLine
 62
2
  6
CONTINUOUS
 10
12.208686316
 20
2.443589771
 11
12.208686316
 21
2.4912273132
  0
LINE
  5
3F7
100
AcDbEntity
  8
0
100
AcDbLine
 62
2
  6
CONTINUOUS
 10
12.208686316
 20
2.515977327
 11
12.208686316
 21
2.5672823554
  0
LINE
  5
3F8
100
AcDbEntity
  8
0
100
AcDbLine
 62
2
  6
CONTINUOUS
 10
12.208686316
 20
2.5920323691
 11
12.208686316
 21
2.63716691
  0
LINE
  5
3F9
100
AcDbEntity
  8
0
100
AcDbLine
 62
2
  6
CONTINUOUS
 10
12.1886863049
 20
2.4510806436
 11
12.1886863049
 21
2.6296760373
  0
LINE
  5
3FA
100
AcDbEntity
  8
0
100
AcDbLine
 62
2
  6
CONTINUOUS
 10
12.1686862938
 20
2.4591016523
 11
12.1686862938
 21
2.6216550287
  0
LINE
  5
3FB
100
AcDbEntity
  8
0
100
AcDbLine
 62
2
  6
CONTINUOUS
 10
12.1486862827
 20
2.468314272
 11
12.1486862827
 21
2.612442409
  0
LINE
  5
3FC
100
AcDbEntity
  8
0
100
AcDbLine
 62
2
  6
CONTINUOUS
 10
12.1286862716
 20
2.4794932339
 11
12.1286862716
 21
2.601263447
  0
LINE
  5
3FD
100
AcDbEntity
  8
0
100
AcDbLine
 62
2
  6
CONTINUOUS
 10
12.1086862605
 20
2.4934150665
 11
12.1086862605
 21
2.5873416144
  0
LINE
  5
3FE
100
AcDbEntity
  8
0
100
AcDbLine
 62
2
  6
CONTINUOUS
 10
12.0886862494
 20
2.5144449553
 11
12.0886862494
 21
2.5663117257
  0
ENDBLK
  5
3FF
100
AcDbEntity
  8
0
  6
BYBLOCK
 62
0
100
AcDbBlockEnd
  0
BLOCK
  5
400
100
AcDbEntity
  8
0
100
AcDbBlockBegin
  2
_FILLED
 70
64
 10
0.0
 20
0.0
  3
_FILLED
  1

  0
SOLID
  5
401
100
AcDbEntity
  8
0
  6
BYBLOCK
 62
0
100
AcDbTrace
 10
0.0
 20
0.0
 11
-1.0
 21
0.1666666667
 12
-1.0
 22
-0.1666666667
 13
-1.0
 23
-0.1666666667
  0
ENDBLK
  5
402
100
AcDbEntity
  8
0
  6
BYBLOCK
 62
0
100
AcDbBlockEnd
  0
BLOCK
  5
403
100
AcDbEntity
  8
DRIVEN_DIMS
100
AcDbBlockBegin
 62
2
  6
CONTINUOUS
  2
*D0
 70
65
 10
0.0
 20
0.0
  3
*D0
  1

  0
MTEXT
  5
404
100
AcDbEntity
  8
DRIVEN_DIMS
100
AcDbMText
 62
2
  6
CONTINUOUS
  7
STANDARD
 71
2
 72
1
 10
7.4384829081
 20
5.8437825608
 30
0.0
 11
1.0
 21
0.0
 31
0.0
 44
0.9
  1
42,1\P[1.66]
 40
0.1
 41
0.6
  0
LINE
  5
405
100
AcDbEntity
  8
DRIVEN_DIMS
100
AcDbLine
 62
2
  6
CONTINUOUS
 10
7.9187870605
 20
6.5467744095
 11
7.4134829081
 21
6.5467744095
  0
LINE
  5
406
100
AcDbEntity
  8
DRIVEN_DIMS
100
AcDbLine
 62
2
  6
CONTINUOUS
 10
8.3370949468
 20
4.890790712
 11
7.4134829081
 21
4.890790712
  0
LINE
  5
407
100
AcDbEntity
  8
DRIVEN_DIMS
100
AcDbLine
 62
2
  6
CONTINUOUS
 10
7.5384829081
 20
6.5467744095
 11
7.5384829081
 21
5.9437825608
  0
LINE
  5
408
100
AcDbEntity
  8
DRIVEN_DIMS
100
AcDbLine
 62
2
  6
CONTINUOUS
 10
7.5384829081
 20
4.890790712
 11
7.5384829081
 21
5.4937825608
  0
INSERT
  5
409
100
AcDbEntity
  8
DRIVEN_DIMS
100
AcDbBlockReference
 62
2
  6
CONTINUOUS
  2
_FILLED
 10
7.5384829081
 20
6.5467744095
 41
0.1875
 42
0.1875
 43
0.1875
 50
90.0
  0
INSERT
  5
40A
100
AcDbEntity
  8
DRIVEN_DIMS
100
AcDbBlockReference
 62
2
  6
CONTINUOUS
  2
_FILLED
 10
7.5384829081
 20
4.890790712
 41
0.1875
 42
0.1875
 43
0.1875
 50
270.0
  0
ENDBLK
  5
40B
100
AcDbEntity
  8
0
  6
BYBLOCK
 62
0
100
AcDbBlockEnd
  0
BLOCK
  5
40C
100
AcDbEntity
  8
SCHEME_DIMS
100
AcDbBlockBegin
 62
2
  6
CONTINUOUS
  2
*D1
 70
65
 10
0.0
 20
0.0
  3
*D1
  1

  0
MTEXT
  5
40D
100
AcDbEntity
  8
SCHEME_DIMS
100
AcDbMText
 62
2
  6
CONTINUOUS
  7
STANDARD
 71
2
 72
1
 10
7.0634829081
 20
5.4137744095
 30
0.0
 11
1.0
 21
0.0
 31
0.0
 44
0.9
  1
63,9\P[2.52]
 40
0.1
 41
0.6
  0
LINE
  5
40E
100
AcDbEntity
  8
SCHEME_DIMS
100
AcDbLine
 62
2
  6
CONTINUOUS
 10
8.1528992231
 20
4.0307744095
 11
7.0384829081
 21
4.0307744095
  0
LINE
  5
40F
100
AcDbEntity
  8
SCHEME_DIMS
100
AcDbLine
 62
2
  6
CONTINUOUS
 10
7.9808984505
 20
6.5467744095
 11
7.0384829081
 21
6.5467744095
  0
LINE
  5
410
100
AcDbEntity
  8
SCHEME_DIMS
100
AcDbLine
 62
2
  6
CONTINUOUS
 10
7.1634829081
 20
4.0307744095
 11
7.1634829081
 21
5.0637744095
  0
LINE
  5
411
100
AcDbEntity
  8
SCHEME_DIMS
100
AcDbLine
 62
2
  6
CONTINUOUS
 10
7.1634829081
 20
6.5467744095
 11
7.1634829081
 21
5.5137744095
  0
INSERT
  5
412
100
AcDbEntity
  8
SCHEME_DIMS
100
AcDbBlockReference
 62
2
  6
CONTINUOUS
  2
_FILLED
 10
7.1634829081
 20
4.0307744095
 41
0.1875
 42
0.1875
 43
0.1875
 50
270.0
  0
INSERT
  5
413
100
AcDbEntity
  8
SCHEME_DIMS
100
AcDbBlockReference
 62
2
  6
CONTINUOUS
  2
_FILLED
 10
7.1634829081
 20
6.5467744095
 41
0.1875
 42
0.1875
 43
0.1875
 50
90.0
  0
ENDBLK
  5
414
100
AcDbEntity
  8
0
  6
BYBLOCK
 62
0
100
AcDbBlockEnd
  0
BLOCK
  5
415
100
AcDbEntity
  8
SCHEME_DIMS
100
AcDbBlockBegin
 62
2
  6
CONTINUOUS
  2
*D2
 70
65
 10
0.0
 20
0.0
  3
*D2
  1

  0
MTEXT
  5
416
100
AcDbEntity
  8
SCHEME_DIMS
100
AcDbMText
 62
2
  6
CONTINUOUS
  7
TEXTSTYLE_5
 71
2
 72
1
 10
8.3497578519
 20
7.172560954
 30
0.0
 11
1.0
 21
0.0
 31
0.0
 44
0.9
  1
{\Fgdt;n}\Ftxt;16,6\P[.66]
 40
0.1
 41
0.5333333333
  0
LINE
  5
417
100
AcDbEntity
  8
SCHEME_DIMS
100
AcDbLine
 62
2
  6
CONTINUOUS
 10
8.0722578519
 20
6.6092744095
 11
8.0722578519
 21
7.247560954
  0
LINE
  5
418
100
AcDbEntity
  8
SCHEME_DIMS
100
AcDbLine
 62
2
  6
CONTINUOUS
 10
8.7272578519
 20
6.6031992896
 11
8.7272578519
 21
7.247560954
  0
LINE
  5
419
100
AcDbEntity
  8
SCHEME_DIMS
100
AcDbLine
 62
2
  6
CONTINUOUS
 10
8.0722578519
 20
7.122560954
 11
7.6722578519
 21
7.122560954
  0
LINE
  5
41A
100
AcDbEntity
  8
SCHEME_DIMS
100
AcDbLine
 62
2
  6
CONTINUOUS
 10
8.7272578519
 20
7.122560954
 11
9.1272578519
 21
7.122560954
  0
INSERT
  5
41B
100
AcDbEntity
  8
SCHEME_DIMS
100
AcDbBlockReference
 62
2
  6
CONTINUOUS
  2
_FILLED
 10
8.0722578519
 20
7.122560954
 41
0.1875
 42
0.1875
 43
0.1875
  0
INSERT
  5
41C
100
AcDbEntity
  8
SCHEME_DIMS
100
AcDbBlockReference
 62
2
  6
CONTINUOUS
  2
_FILLED
 10
8.7272578519
 20
7.122560954
 41
0.1875
 42
0.1875
 43
0.1875
 50
180.0
  0
ENDBLK
  5
41D
100
AcDbEntity
  8
0
  6
BYBLOCK
 62
0
100
AcDbBlockEnd
  0
ENDSEC
  0
SECTION
  2
ENTITIES
  0
MTEXT
  5
41E
100
AcDbEntity
  8
0
100
AcDbMText
 62
2
  6
CONTINUOUS
  7
TEXTSTYLE_2
 71
2
 72
1
 10
11.0287658475
 20
1.794867839
 30
0.0
 11
1.0
 21
0.0
 31
0.0
 44
0.9
  1
THIRD ANGLE PROJECTION
 40
0.1
 41
1.76
  0
MTEXT
  5
41F
100
AcDbEntity
  8
0
100
AcDbMText
 62
2
  6
CONTINUOUS
  7
STANDARD
 71
1
 72
1
 10
12.88
 20
1.457
 30
0.0
 11
1.0
 21
0.0
 31
0.0
 44
0.9
  1
DRAWING NO.
 40
0.08
 41
0.88
  0
MTEXT
  5
420
100
AcDbEntity
  8
0
100
AcDbMText
 62
2
  6
CONTINUOUS
  7
TEXTSTYLE_3
 71
2
 72
1
 10
11.03
 20
2.516432
 30
0.0
 11
1.0
 21
0.0
 31
0.0
 44
0.9
  1
and is proprietary in general
 40
0.08
 41
1.972
  0
MTEXT
  5
421
100
AcDbEntity
  8
0
100
AcDbMText
 62
2
  6
CONTINUOUS
  7
TEXTSTYLE_3
 71
2
 72
1
 10
11.03
 20
2.396432
 30
0.0
 11
1.0
 21
0.0
 31
0.0
 44
0.9
  1
and in detail.  Its contents
 40
0.08
 41
1.904
  0
MTEXT
  5
422
100
AcDbEntity
  8
0
100
AcDbMText
 62
2
  6
CONTINUOUS
  7
TEXTSTYLE_3
 71
2
 72
1
 10
11.03
 20
2.276432
 30
0.0
 11
1.0
 21
0.0
 31
0.0
 44
0.9
  1
shall not be revealed to
 40
0.08
 41
1.632
  0
MTEXT
  5
423
100
AcDbEntity
  8
0
100
AcDbMText
 62
2
  6
CONTINUOUS
  7
TEXTSTYLE_3
 71
2
 72
1
 10
11.03
 20
2.156432
 30
0.0
 11
1.0
 21
0.0
 31
0.0
 44
0.9
  1
outside parties without
 40
0.08
 41
1.564
  0
MTEXT
  5
424
100
AcDbEntity
  8
0
100
AcDbMText
 62
2
  6
CONTINUOUS
  7
TEXTSTYLE_3
 71
2
 72
1
 10
11.03
 20
2.036432
 30
0.0
 11
1.0
 21
0.0
 31
0.0
 44
0.9
  1
written consent of BANNER.
 40
0.08
 41
1.768
  0
MTEXT
  5
425
100
AcDbEntity
  8
0
100
AcDbMText
 62
2
  6
CONTINUOUS
  7
TEXTSTYLE_2
 71
1
 72
1
 10
12.08
 20
2.217
 30
0.0
 11
1.0
 21
0.0
 31
0.0
 44
0.9
  1
TITLE
 40
0.1
 41
0.4
  0
MTEXT
  5
426
100
AcDbEntity
  8
0
100
AcDbMText
 62
2
  6
CONTINUOUS
  7
STANDARD
 71
1
 72
1
 10
12.08
 20
1.457
 30
0.0
 11
1.0
 21
0.0
 31
0.0
 44
0.9
  1
SIZE
 40
0.08
 41
0.32
  0
MTEXT
  5
427
100
AcDbEntity
  8
0
100
AcDbMText
 62
2
  6
CONTINUOUS
  7
STANDARD
 71
1
 72
1
 10
12.08
 20
1.087
 30
0.0
 11
1.0
 21
0.0
 31
0.0
 44
0.9
  1
SCALE
 40
0.08
 41
0.4
  0
MTEXT
  5
428
100
AcDbEntity
  8
0
100
AcDbMText
 62
2
  6
CONTINUOUS
  7
TEXTSTYLE_2
 71
2
 72
1
 10
12.5
 20
1.337
 30
0.0
 11
1.0
 21
0.0
 31
0.0
 44
0.9
  1
B
 40
0.1
 41
0.08
  0
MTEXT
  5
429
100
AcDbEntity
  8
0
100
AcDbMText
 62
2
  6
CONTINUOUS
  7
TEXTSTYLE_3
 71
2
 72
1
 10
11.03
 20
2.636432
 30
0.0
 11
1.0
 21
0.0
 31
0.0
 44
0.9
  1
of BANNER ENGINEERING CORP.
 40
0.08
 41
1.836
  0
MTEXT
  5
42A
100
AcDbEntity
  8
0
100
AcDbMText
 62
2
  6
CONTINUOUS
  7
TEXTSTYLE_3
 71
2
 72
1
 10
11.03
 20
2.756432
 30
0.0
 11
1.0
 21
0.0
 31
0.0
 44
0.9
  1
This drawing is the property
 40
0.08
 41
1.904
  0
MTEXT
  5
42B
100
AcDbEntity
  8
0
100
AcDbMText
 62
2
  6
CONTINUOUS
  7
TEXTSTYLE_2
 71
2
 72
1
 10
15.03
 20
2.4134
 30
0.0
 11
1.0
 21
0.0
 31
0.0
 44
0.9
  1
MINNEAPOLIS, MN 55440
 40
0.1
 41
1.68
  0
MTEXT
  5
42C
100
AcDbEntity
  8
0
100
AcDbMText
 62
2
  6
CONTINUOUS
  7
STANDARD
 71
1
 72
1
 10
14.255
 20
1.087
 30
0.0
 11
1.0
 21
0.0
 31
0.0
 44
0.9
  1
SHEET
 40
0.08
 41
0.4
  0
MTEXT
  5
42D
100
AcDbEntity
  8
0
100
AcDbMText
 62
2
  6
CONTINUOUS
  7
STANDARD
 71
1
 72
1
 10
15.63
 20
1.457
 30
0.0
 11
1.0
 21
0.0
 31
0.0
 44
0.9
  1
REV.
 40
0.08
 41
0.32
  0
MTEXT
  5
42E
100
AcDbEntity
  8
0
100
AcDbMText
 62
2
  6
CONTINUOUS
  7
STANDARD
 71
3
 72
1
 10
16.38
 20
0.835443
 30
0.0
 11
1.0
 21
0.0
 31
0.0
 44
0.9
  1
PRO/E
 40
0.07
 41
0.35
  0
MTEXT
  5
42F
100
AcDbEntity
  8
0
100
AcDbMText
 62
2
  6
CONTINUOUS
  7
TEXTSTYLE_4
 71
2
 72
1
 10
15.03
 20
2.751049
 30
0.0
 11
1.0
 21
0.0
 31
0.0
 44
0.9
  1
BANNER ENGINEERING CORP.
 40
0.12
 41
2.6496
  0
MTEXT
  5
430
100
AcDbEntity
  8
0
100
AcDbMText
 62
2
  6
CONTINUOUS
  7
TEXTSTYLE_2
 71
2
 72
1
 10
15.03
 20
2.5724
 30
0.0
 11
1.0
 21
0.0
 31
0.0
 44
0.9
  1
P.O. BOX 9414
 40
0.1
 41
1.04
  0
MTEXT
  5
431
100
AcDbEntity
  8
0
100
AcDbMText
 62
2
  6
CONTINUOUS
  7
TEXTSTYLE_2
 71
2
 72
1
 10
9.485
 20
10.312
 30
0.0
 11
1.0
 21
0.0
 31
0.0
 44
0.9
  1
4
 40
0.1
 41
0.08
  0
MTEXT
  5
432
100
AcDbEntity
  8
0
100
AcDbMText
 62
2
  6
CONTINUOUS
  7
TEXTSTYLE_2
 71
2
 72
1
 10
11.455
 20
10.312
 30
0.0
 11
1.0
 21
0.0
 31
0.0
 44
0.9
  1
3
 40
0.1
 41
0.08
  0
MTEXT
  5
433
100
AcDbEntity
  8
0
100
AcDbMText
 62
2
  6
CONTINUOUS
  7
TEXTSTYLE_2
 71
2
 72
1
 10
13.425
 20
10.312
 30
0.0
 11
1.0
 21
0.0
 31
0.0
 44
0.9
  1
2
 40
0.1
 41
0.08
  0
MTEXT
  5
434
100
AcDbEntity
  8
0
100
AcDbMText
 62
2
  6
CONTINUOUS
  7
TEXTSTYLE_2
 71
2
 72
1
 10
15.395
 20
10.312
 30
0.0
 11
1.0
 21
0.0
 31
0.0
 44
0.9
  1
1
 40
0.1
 41
0.08
  0
MTEXT
  5
435
100
AcDbEntity
  8
0
100
AcDbMText
 62
2
  6
CONTINUOUS
  7
TEXTSTYLE_2
 71
2
 72
1
 10
3.575
 20
10.312
 30
0.0
 11
1.0
 21
0.0
 31
0.0
 44
0.9
  1
7
 40
0.1
 41
0.08
  0
MTEXT
  5
436
100
AcDbEntity
  8
0
100
AcDbMText
 62
2
  6
CONTINUOUS
  7
TEXTSTYLE_2
 71
2
 72
1
 10
5.545
 20
10.312
 30
0.0
 11
1.0
 21
0.0
 31
0.0
 44
0.9
  1
6
 40
0.1
 41
0.08
  0
MTEXT
  5
437
100
AcDbEntity
  8
0
100
AcDbMText
 62
2
  6
CONTINUOUS
  7
TEXTSTYLE_2
 71
2
 72
1
 10
7.515
 20
10.312
 30
0.0
 11
1.0
 21
0.0
 31
0.0
 44
0.9
  1
5
 40
0.1
 41
0.08
  0
MTEXT
  5
438
100
AcDbEntity
  8
0
100
AcDbMText
 62
2
  6
CONTINUOUS
  7
TEXTSTYLE_2
 71
2
 72
1
 10
1.605
 20
10.312
 30
0.0
 11
1.0
 21
0.0
 31
0.0
 44
0.9
  1
8
 40
0.1
 41
0.08
  0
MTEXT
  5
439
100
AcDbEntity
  8
0
100
AcDbMText
 62
2
  6
CONTINUOUS
  7
TEXTSTYLE_2
 71
2
 72
1
 10
1.605
 20
0.787
 30
0.0
 11
1.0
 21
0.0
 31
0.0
 44
0.9
  1
8
 40
0.1
 41
0.08
  0
MTEXT
  5
43A
100
AcDbEntity
  8
0
100
AcDbMText
 62
2
  6
CONTINUOUS
  7
TEXTSTYLE_2
 71
2
 72
1
 10
3.575
 20
0.787
 30
0.0
 11
1.0
 21
0.0
 31
0.0
 44
0.9
  1
7
 40
0.1
 41
0.08
  0
MTEXT
  5
43B
100
AcDbEntity
  8
0
100
AcDbMText
 62
2
  6
CONTINUOUS
  7
TEXTSTYLE_2
 71
2
 72
1
 10
5.545
 20
0.787
 30
0.0
 11
1.0
 21
0.0
 31
0.0
 44
0.9
  1
6
 40
0.1
 41
0.08
  0
MTEXT
  5
43C
100
AcDbEntity
  8
0
100
AcDbMText
 62
2
  6
CONTINUOUS
  7
TEXTSTYLE_2
 71
2
 72
1
 10
7.515
 20
0.787
 30
0.0
 11
1.0
 21
0.0
 31
0.0
 44
0.9
  1
5
 40
0.1
 41
0.08
  0
MTEXT
  5
43D
100
AcDbEntity
  8
0
100
AcDbMText
 62
2
  6
CONTINUOUS
  7
TEXTSTYLE_2
 71
2
 72
1
 10
9.485
 20
0.787
 30
0.0
 11
1.0
 21
0.0
 31
0.0
 44
0.9
  1
4
 40
0.1
 41
0.08
  0
MTEXT
  5
43E
100
AcDbEntity
  8
0
100
AcDbMText
 62
2
  6
CONTINUOUS
  7
TEXTSTYLE_2
 71
2
 72
1
 10
11.455
 20
0.787
 30
0.0
 11
1.0
 21
0.0
 31
0.0
 44
0.9
  1
3
 40
0.1
 41
0.08
  0
MTEXT
  5
43F
100
AcDbEntity
  8
0
100
AcDbMText
 62
2
  6
CONTINUOUS
  7
TEXTSTYLE_2
 71
2
 72
1
 10
13.425
 20
0.787
 30
0.0
 11
1.0
 21
0.0
 31
0.0
 44
0.9
  1
2
 40
0.1
 41
0.08
  0
MTEXT
  5
440
100
AcDbEntity
  8
0
100
AcDbMText
 62
2
  6
CONTINUOUS
  7
TEXTSTYLE_2
 71
2
 72
1
 10
15.395
 20
0.787
 30
0.0
 11
1.0
 21
0.0
 31
0.0
 44
0.9
  1
1
 40
0.1
 41
0.08
  0
MTEXT
  5
441
100
AcDbEntity
  8
0
100
AcDbMText
 62
2
  6
CONTINUOUS
  7
TEXTSTYLE_2
 71
3
 72
1
 10
0.52
 20
4.3995
 30
0.0
 11
1.0
 21
0.0
 31
0.0
 44
0.9
  1
B
 40
0.1
 41
0.08
  0
MTEXT
  5
442
100
AcDbEntity
  8
0
100
AcDbMText
 62
2
  6
CONTINUOUS
  7
TEXTSTYLE_2
 71
3
 72
1
 10
0.52
 20
2.0995
 30
0.0
 11
1.0
 21
0.0
 31
0.0
 44
0.9
  1
A
 40
0.1
 41
0.08
  0
MTEXT
  5
443
100
AcDbEntity
  8
0
100
AcDbMText
 62
2
  6
CONTINUOUS
  7
TEXTSTYLE_2
 71
3
 72
1
 10
0.52
 20
8.9995
 30
0.0
 11
1.0
 21
0.0
 31
0.0
 44
0.9
  1
D
 40
0.1
 41
0.08
  0
MTEXT
  5
444
100
AcDbEntity
  8
0
100
AcDbMText
 62
2
  6
CONTINUOUS
  7
TEXTSTYLE_2
 71
3
 72
1
 10
0.52
 20
6.6995
 30
0.0
 11
1.0
 21
0.0
 31
0.0
 44
0.9
  1
C
 40
0.1
 41
0.08
  0
MTEXT
  5
445
100
AcDbEntity
  8
0
100
AcDbMText
 62
2
  6
CONTINUOUS
  7
TEXTSTYLE_2
 71
1
 72
1
 10
16.48
 20
8.9995
 30
0.0
 11
1.0
 21
0.0
 31
0.0
 44
0.9
  1
D
 40
0.1
 41
0.08
  0
MTEXT
  5
446
100
AcDbEntity
  8
0
100
AcDbMText
 62
2
  6
CONTINUOUS
  7
TEXTSTYLE_2
 71
1
 72
1
 10
16.48
 20
6.6995
 30
0.0
 11
1.0
 21
0.0
 31
0.0
 44
0.9
  1
C
 40
0.1
 41
0.08
  0
MTEXT
  5
447
100
AcDbEntity
  8
0
100
AcDbMText
 62
2
  6
CONTINUOUS
  7
TEXTSTYLE_2
 71
1
 72
1
 10
16.48
 20
4.3995
 30
0.0
 11
1.0
 21
0.0
 31
0.0
 44
0.9
  1
B
 40
0.1
 41
0.08
  0
MTEXT
  5
448
100
AcDbEntity
  8
0
100
AcDbMText
 62
2
  6
CONTINUOUS
  7
TEXTSTYLE_2
 71
1
 72
1
 10
16.48
 20
2.0995
 30
0.0
 11
1.0
 21
0.0
 31
0.0
 44
0.9
  1
A
 40
0.1
 41
0.08
  0
MTEXT
  5
449
100
AcDbEntity
  8
0
100
AcDbMText
 62
2
  6
CONTINUOUS
  7
STANDARD
 71
1
 72
1
 10
14.819264911
 20
1.0627941725
 30
0.0
 11
1.0
 21
0.0
 31
0.0
 44
0.9
  1
1 OF 1
 40
0.1
 41
0.6
  0
MTEXT
  5
44A
100
AcDbEntity
  8
0
100
AcDbMText
 62
7
  6
CONTINUOUS
  7
STANDARD
 71
1
 72
1
 10
13.8911999818
 20
1.3747321586
 30
0.0
 11
1.0
 21
0.0
 31
0.0
 44
0.9
  1
155346
 40
0.12
 41
0.72
  0
MTEXT
  5
44B
100
AcDbEntity
  8
0
100
AcDbMText
 62
2
  6
CONTINUOUS
  7
STANDARD
 71
1
 72
1
 10
12.644264911
 20
1.0627941725
 30
0.0
 11
1.0
 21
0.0
 31
0.0
 44
0.9
  1
1:1
 40
0.1
 41
0.3
  0
MTEXT
  5
44C
100
AcDbEntity
  8
0
100
AcDbMText
 62
2
  6
CONTINUOUS
  7
STANDARD
 71
1
 72
1
 10
1.0597007627
 20
1.6202922458
 30
0.0
 11
1.0
 21
0.0
 31
0.0
 44
0.9
  1
NOTES:\P1. ALL DIMENSIONS ARE MILLIMETERS [INCHES] UNLESS OTHERWISE NOTED.
 40
0.1
 41
6.6
  0
INSERT
  5
44D
100
AcDbEntity
  8
0
100
AcDbBlockReference
 62
2
  6
CONTINUOUS
  2
BANNER_LOGO_TITLEBLOCK_BL0
 10
12.9086867042
 20
2.5403783405
  0
DIMENSION
  5
44E
100
AcDbEntity
  8
DRIVEN_DIMS
100
AcDbDimension
 62
2
  6
CONTINUOUS
  2
*D0
 10
7.5384829081
 20
4.890790712
 11
7.4134829081
 21
5.7187825608
 70
160
 71
2
 42
42.0619859163
  3
DIMSTYLE_1
100
AcDbAlignedDimension
 13
7.9187870605
 23
6.5467744095
 14
8.3370949468
 24
4.890790712
 50
270.0
100
AcDbRotatedDimension
  0
DIMENSION
  5
44F
100
AcDbEntity
  8
SCHEME_DIMS
100
AcDbDimension
 62
2
  6
CONTINUOUS
  2
*D1
 10
7.1634829081
 20
6.5467744095
 11
7.0384829081
 21
5.2887744095
 70
160
 71
2
 42
63.9064
  3
DIMSTYLE_2
100
AcDbAlignedDimension
 13
8.1528992231
 23
4.0307744095
 14
7.9808984505
 24
6.5467744095
 50
90.0
100
AcDbRotatedDimension
  0
DIMENSION
  5
450
100
AcDbEntity
  8
SCHEME_DIMS
100
AcDbDimension
 62
2
  6
CONTINUOUS
  2
*D2
 10
8.7272578519
 20
7.122560954
 11
8.3414245185
 21
7.047560954
 70
160
 71
2
 42
16.637
  1
%%c<>
  3
DIMSTYLE_2
100
AcDbAlignedDimension
 13
8.0722578519
 23
6.6092744095
 14
8.7272578519
 24
6.6031992896
100
AcDbRotatedDimension
  0
LINE
  5
451
100
AcDbEntity
  8
0
100
AcDbLine
 62
2
  6
CONTINUOUS
 10
16.38
 20
0.887
 11
12.03
 21
0.887
  0
LINE
  5
452
100
AcDbEntity
  8
0
100
AcDbLine
 62
2
  6
CONTINUOUS
 10
16.38
 20
0.887
 11
16.38
 21
2.807
  0
LINE
  5
453
100
AcDbEntity
  8
0
100
AcDbLine
 62
2
  6
CONTINUOUS
 10
16.38
 20
2.807
 11
12.03
 21
2.807
  0
LINE
  5
454
100
AcDbEntity
  8
0
100
AcDbLine
 62
2
  6
CONTINUOUS
 10
12.03
 20
0.887
 11
12.03
 21
2.807
  0
MTEXT
  5
455
100
AcDbEntity
  8
NOTES
100
AcDbMText
 62
7
  6
CONTINUOUS
  7
STANDARD
 71
2
 72
1
 10
16.155
 20
1.367
 30
0.0
 11
1.0
 21
0.0
 31
0.0
 44
0.9
  1
-
 40
0.1
 41
0.1
  0
MTEXT
  5
456
100
AcDbEntity
  8
NOTES
100
AcDbMText
 62
7
  6
CONTINUOUS
  7
STANDARD
 71
2
 72
1
 10
14.205
 20
1.967
 30
0.0
 11
1.0
 21
0.0
 31
0.0
 44
0.9
  1
S18 6LP CABLE/PIGTAIL\PWEB CAD DRAWINGS 2D/3D
 40
0.1
 41
2.2
  0
MTEXT
  5
457
100
AcDbEntity
  8
NOTES
100
AcDbMText
 62
2
  6
CONTINUOUS
  7
STANDARD
 71
2
 72
1
 10
14.0353638471
 20
7.4999393276
 30
0.0
 11
1.0
 21
0.0
 31
0.0
 44
0.9
  1
ISOMETRIC VIEW\PSCALE  1:1
 40
0.1
 41
1.4
  0
LEADER
  5
458
100
AcDbEntity
  8
NOTES
100
AcDbLeader
 62
2
  6
CONTINUOUS
  3
STANDARD
 71
1
 72
0
 73
0
 75
0
 40
0.1
 41
1.0
 76
3
 10
8.7496061644
 20
5.9986689937
 30
0.0
 10
9.2610326573
 20
5.442030108
 30
0.0
 10
9.5110326573
 20
5.442030108
 30
0.0
340
459
1001
ACAD
1000
DSTYLE
1002
{
1070
77
1070
0
1002
}
  0
MTEXT
  5
459
102
{ACAD_REACTORS
330
458
102
}
100
AcDbEntity
  8
NOTES
100
AcDbMText
 62
2
  6
CONTINUOUS
  7
STANDARD
 71
1
 72
1
 10
9.5110326573
 20
5.492030108
 30
0.0
 11
1.0
 21
0.0
 31
0.0
 44
0.9
  1
M18 X 1-6g
 40
0.1
 41
1.0
  0
LINE
  5
45A
100
AcDbEntity
  8
0
100
AcDbLine
 62
2
  6
CONTINUOUS
 10
0.47
 20
5.586103
 11
0.47
 21
5.412897
  0
LINE
  5
45B
100
AcDbEntity
  8
0
100
AcDbLine
 62
2
  6
CONTINUOUS
 10
0.62
 20
10.112
 11
0.62
 21
0.887
  0
LINE
  5
45C
100
AcDbEntity
  8
0
100
AcDbLine
 62
2
  6
CONTINUOUS
 10
2.59
 20
0.887
 11
2.59
 21
0.637
  0
LINE
  5
45D
100
AcDbEntity
  8
0
100
AcDbLine
 62
2
  6
CONTINUOUS
 10
2.59
 20
10.112
 11
2.59
 21
10.362
  0
LINE
  5
45E
100
AcDbEntity
  8
0
100
AcDbLine
 62
2
  6
CONTINUOUS
 10
8.413397
 20
0.737
 11
8.586603
 21
0.737
  0
LINE
  5
45F
100
AcDbEntity
  8
0
100
AcDbLine
 62
7
  6
CONTINUOUS
 10
11.1389508475
 20
1.425992839
 11
11.7453418475
 21
1.495385839
  0
LINE
  5
460
100
AcDbEntity
  8
0
100
AcDbLine
 62
2
  6
CONTINUOUS
 10
0.62
 20
0.887
 11
16.38
 21
0.887
  0
LINE
  5
461
100
AcDbEntity
  8
0
100
AcDbLine
 62
2
  6
CONTINUOUS
 10
12.03
 20
1.137
 11
16.38
 21
1.137
  0
LINE
  5
462
100
AcDbEntity
  8
0
100
AcDbLine
 62
7
  6
CONTINUOUS
 10
10.2121898475
 20
1.243294839
 11
10.4342808475
 21
1.243294839
  0
LINE
  5
463
100
AcDbEntity
  8
0
100
AcDbLine
 62
7
  6
CONTINUOUS
 10
10.4842808475
 20
1.243294839
 11
10.5842808475
 21
1.243294839
  0
LINE
  5
464
100
AcDbEntity
  8
0
100
AcDbLine
 62
7
  6
CONTINUOUS
 10
10.6342808475
 20
1.243294839
 11
10.8563718475
 21
1.243294839
  0
LINE
  5
465
100
AcDbEntity
  8
0
100
AcDbLine
 62
7
  6
CONTINUOUS
 10
11.0389508475
 20
1.243294839
 11
11.3171028475
 21
1.243294839
  0
LINE
  5
466
100
AcDbEntity
  8
0
100
AcDbLine
 62
7
  6
CONTINUOUS
 10
11.3671028475
 20
1.243294839
 11
11.5171888475
 21
1.243294839
  0
LINE
  5
467
100
AcDbEntity
  8
0
100
AcDbLine
 62
7
  6
CONTINUOUS
 10
11.5671888475
 20
1.243294839
 11
11.8453418475
 21
1.243294839
  0
LINE
  5
468
100
AcDbEntity
  8
0
100
AcDbLine
 62
7
  6
CONTINUOUS
 10
11.7453418475
 20
0.991203839
 11
11.1389508475
 21
1.060596839
  0
LINE
  5
469
100
AcDbEntity
  8
0
100
AcDbLine
 62
2
  6
CONTINUOUS
 10
4.56
 20
0.887
 11
4.56
 21
0.637
  0
LINE
  5
46A
100
AcDbEntity
  8
0
100
AcDbLine
 62
2
  6
CONTINUOUS
 10
4.56
 20
10.112
 11
4.56
 21
10.362
  0
LINE
  5
46B
100
AcDbEntity
  8
0
100
AcDbLine
 62
2
  6
CONTINUOUS
 10
0.47
 20
5.412897
 11
0.62
 21
5.4995
  0
LINE
  5
46C
100
AcDbEntity
  8
0
100
AcDbLine
 62
2
  6
CONTINUOUS
 10
12.03
 20
1.507
 11
16.38
 21
1.507
  0
LINE
  5
46D
100
AcDbEntity
  8
0
100
AcDbLine
 62
2
  6
CONTINUOUS
 10
10.03
 20
1.907
 11
12.03
 21
1.907
  0
LINE
  5
46E
100
AcDbEntity
  8
0
100
AcDbLine
 62
2
  6
CONTINUOUS
 10
0.62
 20
5.4995
 11
0.47
 21
5.586103
  0
LINE
  5
46F
100
AcDbEntity
  8
0
100
AcDbLine
 62
2
  6
CONTINUOUS
 10
12.03
 20
2.267
 11
16.38
 21
2.267
  0
LINE
  5
470
100
AcDbEntity
  8
0
100
AcDbLine
 62
2
  6
CONTINUOUS
 10
8.5
 20
10.112
 11
8.586603
 21
10.262
  0
LINE
  5
471
100
AcDbEntity
  8
0
100
AcDbLine
 62
2
  6
CONTINUOUS
 10
16.38
 20
2.807
 11
10.03
 21
2.807
  0
LINE
  5
472
100
AcDbEntity
  8
0
100
AcDbLine
 62
2
  6
CONTINUOUS
 10
0.62
 20
3.1995
 11
0.37
 21
3.1995
  0
LINE
  5
473
100
AcDbEntity
  8
0
100
AcDbLine
 62
2
  6
CONTINUOUS
 10
16.38
 20
3.1995
 11
16.63
 21
3.1995
  0
LINE
  5
474
100
AcDbEntity
  8
0
100
AcDbLine
 62
2
  6
CONTINUOUS
 10
8.586603
 20
0.737
 11
8.5
 21
0.887
  0
LINE
  5
475
100
AcDbEntity
  8
0
100
AcDbLine
 62
2
  6
CONTINUOUS
 10
6.53
 20
0.887
 11
6.53
 21
0.637
  0
LINE
  5
476
100
AcDbEntity
  8
0
100
AcDbLine
 62
2
  6
CONTINUOUS
 10
6.53
 20
10.112
 11
6.53
 21
10.362
  0
LINE
  5
477
100
AcDbEntity
  8
SKETCHED_ENT
100
AcDbLine
 62
7
  6
CONTINUOUS
 10
8.3995949468
 20
4.890790712
 11
8.3990083214
 21
4.8907681495
  0
LINE
  5
478
100
AcDbEntity
  8
0
100
AcDbLine
 62
2
  6
CONTINUOUS
 10
8.5
 20
0.887
 11
8.5
 21
0.637
  0
LINE
  5
479
100
AcDbEntity
  8
0
100
AcDbLine
 62
2
  6
CONTINUOUS
 10
8.5
 20
10.112
 11
8.5
 21
10.362
  0
LINE
  5
47A
100
AcDbEntity
  8
0
100
AcDbLine
 62
2
  6
CONTINUOUS
 10
0.62
 20
5.4995
 11
0.37
 21
5.4995
  0
LINE
  5
47B
100
AcDbEntity
  8
0
100
AcDbLine
 62
2
  6
CONTINUOUS
 10
16.38
 20
5.4995
 11
16.63
 21
5.4995
  0
LINE
  5
47C
100
AcDbEntity
  8
0
100
AcDbLine
 62
2
  6
CONTINUOUS
 10
10.03
 20
2.807
 11
10.03
 21
0.887
  0
LINE
  5
47D
100
AcDbEntity
  8
0
100
AcDbLine
 62
2
  6
CONTINUOUS
 10
10.47
 20
0.887
 11
10.47
 21
0.637
  0
LINE
  5
47E
100
AcDbEntity
  8
0
100
AcDbLine
 62
2
  6
CONTINUOUS
 10
10.47
 20
10.112
 11
10.47
 21
10.362
  0
LINE
  5
47F
100
AcDbEntity
  8
0
100
AcDbLine
 62
7
  6
CONTINUOUS
 10
10.5342808475
 20
1.143294839
 11
10.5342808475
 21
0.921203839
  0
LINE
  5
480
100
AcDbEntity
  8
0
100
AcDbLine
 62
7
  6
CONTINUOUS
 10
10.5342808475
 20
1.193294839
 11
10.5342808475
 21
1.293294839
  0
LINE
  5
481
100
AcDbEntity
  8
0
100
AcDbLine
 62
7
  6
CONTINUOUS
 10
10.5342808475
 20
1.343294839
 11
10.5342808475
 21
1.565385839
  0
LINE
  5
482
100
AcDbEntity
  8
0
100
AcDbLine
 62
2
  6
CONTINUOUS
 10
8.5
 20
0.887
 11
8.413397
 21
0.737
  0
LINE
  5
483
100
AcDbEntity
  8
0
100
AcDbLine
 62
2
  6
CONTINUOUS
 10
0.62
 20
7.7995
 11
0.37
 21
7.7995
  0
LINE
  5
484
100
AcDbEntity
  8
0
100
AcDbLine
 62
2
  6
CONTINUOUS
 10
16.38
 20
7.7995
 11
16.63
 21
7.7995
  0
LINE
  5
485
100
AcDbEntity
  8
0
100
AcDbLine
 62
2
  6
CONTINUOUS
 10
8.413397
 20
10.262
 11
8.5
 21
10.112
  0
LINE
  5
486
100
AcDbEntity
  8
0
100
AcDbLine
 62
7
  6
CONTINUOUS
 10
11.1389508475
 20
1.060596839
 11
11.1389508475
 21
1.425992839
  0
LINE
  5
487
100
AcDbEntity
  8
0
100
AcDbLine
 62
7
  6
CONTINUOUS
 10
11.7453418475
 20
1.495385839
 11
11.7453418475
 21
0.991203839
  0
LINE
  5
488
100
AcDbEntity
  8
0
100
AcDbLine
 62
1
  6
CONTINUOUS
 10
12.03
 20
2.807
 11
12.03
 21
0.887
  0
LINE
  5
489
100
AcDbEntity
  8
0
100
AcDbLine
 62
2
  6
CONTINUOUS
 10
12.44
 20
0.887
 11
12.44
 21
0.637
  0
LINE
  5
48A
100
AcDbEntity
  8
0
100
AcDbLine
 62
2
  6
CONTINUOUS
 10
12.44
 20
10.112
 11
12.44
 21
10.362
  0
LINE
  5
48B
100
AcDbEntity
  8
0
100
AcDbLine
 62
2
  6
CONTINUOUS
 10
16.53
 20
5.586103
 11
16.38
 21
5.4995
  0
LINE
  5
48C
100
AcDbEntity
  8
0
100
AcDbLine
 62
2
  6
CONTINUOUS
 10
16.38
 20
5.4995
 11
16.53
 21
5.412897
  0
LINE
  5
48D
100
AcDbEntity
  8
0
100
AcDbLine
 62
2
  6
CONTINUOUS
 10
12.83
 20
1.507
 11
12.83
 21
1.137
  0
LINE
  5
48E
100
AcDbEntity
  8
0
100
AcDbLine
 62
2
  6
CONTINUOUS
 10
16.38
 20
10.112
 11
0.62
 21
10.112
  0
LINE
  5
48F
100
AcDbEntity
  8
0
100
AcDbLine
 62
2
  6
CONTINUOUS
 10
8.586603
 20
10.262
 11
8.413397
 21
10.262
  0
LINE
  5
490
100
AcDbEntity
  8
0
100
AcDbLine
 62
2
  6
CONTINUOUS
 10
14.205
 20
1.137
 11
14.205
 21
0.887
  0
LINE
  5
491
100
AcDbEntity
  8
0
100
AcDbLine
 62
2
  6
CONTINUOUS
 10
14.41
 20
0.887
 11
14.41
 21
0.637
  0
LINE
  5
492
100
AcDbEntity
  8
0
100
AcDbLine
 62
2
  6
CONTINUOUS
 10
14.41
 20
10.112
 11
14.41
 21
10.362
  0
LINE
  5
493
100
AcDbEntity
  8
0
100
AcDbLine
 62
2
  6
CONTINUOUS
 10
15.58
 20
1.507
 11
15.58
 21
1.137
  0
LINE
  5
494
100
AcDbEntity
  8
0
100
AcDbLine
 62
2
  6
CONTINUOUS
 10
16.38
 20
0.887
 11
16.38
 21
10.112
  0
LINE
  5
495
100
AcDbEntity
  8
0
100
AcDbLine
 62
2
  6
CONTINUOUS
 10
16.53
 20
5.412897
 11
16.53
 21
5.586103
  0
LWPOLYLINE
  5
496
100
AcDbEntity
  8
0
100
AcDbPolyline
 62
7
  6
CONTINUOUS
 90
20
 70
0
 10
12.9420724275
 20
7.7798601065
 10
12.908236819
 20
7.8300133071
 10
12.8796798979
 20
7.8827807514
 10
12.8567943719
 20
7.9372641412
 10
12.8401134277
 20
7.9924964174
 10
12.8304461953
 20
8.0461125422
 10
12.8280024194
 20
8.0952601773
 10
12.8322399682
 20
8.1388625839
 10
12.8426638855
 20
8.1767498716
 10
12.8588275538
 20
8.2083543178
 10
12.8803780703
 20
8.2332667587
 10
12.9067744952
 20
8.2508736819
 10
12.9367168202
 20
8.2606061458
 10
12.9695635183
 20
8.2626468686
 10
13.0047708993
 20
8.2570902919
 10
13.0414958635
 20
8.2440740587
 10
13.0779861692
 20
8.2244448629
 10
13.1136688314
 20
8.1988689166
 10
13.1480653264
 20
8.1678665403
 10
13.1806848739
 20
8.1318728724
  0
LINE
  5
497
100
AcDbEntity
  8
AXIS_COSMETIC_THREADS
100
AcDbLine
 62
7
  6
CONTINUOUS
 10
12.8740241928
 20
7.9878698162
 11
12.8740241928
 21
8.1534507892
  0
LWPOLYLINE
  5
498
100
AcDbEntity
  8
0
100
AcDbPolyline
 62
7
  6
CONTINUOUS
 90
17
 70
0
 10
13.0755504644
 20
7.6979299287
 10
13.0379588409
 20
7.7233358738
 10
13.0006535941
 20
7.7561973493
 10
12.9652208579
 20
7.7955202849
 10
12.9331731711
 20
7.8397801869
 10
12.9056929341
 20
7.88726288
 10
12.8834450758
 20
7.9366704598
 10
12.8669981936
 20
7.9867439809
 10
12.8569122067
 20
8.0358820604
 10
12.8535180132
 20
8.082474654
 10
12.8569046014
 20
8.1251522982
 10
12.8669831417
 20
8.1626504365
 10
12.8834241113
 20
8.1937421704
 10
12.9056660128
 20
8.2174692239
 10
12.933136484
 20
8.2332286068
 10
12.9651750874
 20
8.2404938235
 10
12.9963620438
 20
8.2395460452
  0
LWPOLYLINE
  5
499
100
AcDbEntity
  8
AXIS_COSMETIC_THREADS
100
AcDbPolyline
 62
7
  6
CONTINUOUS
 90
10
 70
0
 10
12.8740241928
 20
7.9878698162
 10
12.8856604943
 20
7.9502446042
 10
12.9008321633
 20
7.9126951129
 10
12.919256734
 20
7.8759204382
 10
12.9405911782
 20
7.84060525
 10
12.9644382916
 20
7.8074070459
 10
12.9903540892
 20
7.7769439093
 10
13.0178560712
 20
7.7497830024
 10
13.0464322062
 20
7.7264300062
 10
13.0755504644
 20
7.7073197065
  0
LWPOLYLINE
  5
49A
100
AcDbEntity
  8
0
100
AcDbPolyline
 62
7
  6
CONTINUOUS
 90
9
 70
0
 10
12.8409316071
 20
8.1955016331
 10
12.8291699375
 20
8.1528790862
 10
12.824687909
 20
8.1046041962
 10
12.8275929648
 20
8.0520601174
 10
12.8377789382
 20
7.9967534546
 10
12.8549291228
 20
7.9402706978
 10
12.8785254299
 20
7.8842323454
 10
12.9078633708
 20
7.8302460452
 10
12.9420724275
 20
7.7798601065
  0
LWPOLYLINE
  5
49B
100
AcDbEntity
  8
0
100
AcDbPolyline
 62
7
  6
CONTINUOUS
 90
6
 70
0
 10
13.2084936662
 20
7.63869763
 10
13.2116926563
 20
7.6382415123
 10
13.2481715605
 20
7.64211328
 10
13.2803236985
 20
7.6553966449
 10
13.3071971751
 20
7.677694701
 10
13.3279927367
 20
7.7083498674
  0
LINE
  5
49C
100
AcDbEntity
  8
0
100
AcDbLine
 62
7
  6
CONTINUOUS
 10
13.1806848739
 20
8.1318728724
 11
13.2159997253
 21
8.0874471769
  0
LWPOLYLINE
  5
49D
100
AcDbEntity
  8
0
100
AcDbPolyline
 62
7
  6
CONTINUOUS
 90
3
 70
0
 10
13.2116688533
 20
8.0920602956
 10
13.1965570722
 20
8.1124448224
 10
13.1806848739
 20
8.1318728724
  0
LINE
  5
49E
100
AcDbEntity
  8
0
100
AcDbLine
 62
7
  6
CONTINUOUS
 10
13.2116688533
 20
8.0920602956
 11
13.2381200549
 21
8.0527220009
  0
LINE
  5
49F
100
AcDbEntity
  8
0
100
AcDbLine
 62
7
  6
CONTINUOUS
 10
13.2159997253
 20
8.0874471769
 11
13.2469962544
 21
8.0389154668
  0
LWPOLYLINE
  5
4A0
100
AcDbEntity
  8
0
100
AcDbPolyline
 62
7
  6
CONTINUOUS
 90
9
 70
0
 10
13.2381200549
 20
8.0527220009
 10
13.2606519686
 20
8.0123749488
 10
13.2794272731
 20
7.9712705369
 10
13.2947923355
 20
7.9285081018
 10
13.3064408075
 20
7.883429126
 10
13.3133741879
 20
7.8359625636
 10
13.3140522028
 20
7.7888574968
 10
13.3080051073
 20
7.7466128856
 10
13.2956392988
 20
7.7102515304
  0
LINE
  5
4A1
100
AcDbEntity
  8
0
100
AcDbLine
 62
7
  6
CONTINUOUS
 10
13.2469962544
 20
8.0389154668
 11
13.2727393457
 21
7.9877930836
  0
LINE
  5
4A2
100
AcDbEntity
  8
0
100
AcDbLine
 62
7
  6
CONTINUOUS
 10
13.2727393457
 20
7.9877930836
 11
13.2876878265
 21
7.9482806284
  0
LWPOLYLINE
  5
4A3
100
AcDbEntity
  8
0
100
AcDbPolyline
 62
7
  6
CONTINUOUS
 90
10
 70
0
 10
13.1504473347
 20
8.152426026
 10
13.1858800709
 20
8.1131030905
 10
13.2179277577
 20
8.0688431885
 10
13.2454079948
 20
8.0213604954
 10
13.2676558531
 20
7.9719529155
 10
13.2841027353
 20
7.9218793945
 10
13.2941887222
 20
7.8727413149
 10
13.2975829157
 20
7.8261487213
 10
13.2941963275
 20
7.7834710772
 10
13.2829704331
 20
7.743089001
  0
LWPOLYLINE
  5
4A4
100
AcDbEntity
  8
0
100
AcDbPolyline
 62
7
  6
CONTINUOUS
 90
6
 70
0
 10
13.3683852552
 20
8.0194988683
 10
13.3420930355
 20
8.075072381
 10
13.3100521416
 20
8.1283064514
 10
13.2731870831
 20
8.1776137545
 10
13.2325650163
 20
8.221523077
 10
13.1893641899
 20
8.2587228202
  0
LINE
  5
4A5
100
AcDbEntity
  8
AXIS_COSMETIC_THREADS
100
AcDbLine
 62
7
  6
CONTINUOUS
 10
13.2770767361
 20
7.9207535591
 11
13.2770767361
 21
7.7551725862
  0
LWPOLYLINE
  5
4A6
100
AcDbEntity
  8
AXIS_COSMETIC_THREADS
100
AcDbPolyline
 62
7
  6
CONTINUOUS
 90
10
 70
0
 10
13.0755504644
 20
8.2013036689
 10
13.1046687227
 20
8.1821933691
 10
13.1332448577
 20
8.158840373
 10
13.1607468397
 20
8.131679466
 10
13.1866626372
 20
8.1012163294
 10
13.2105097506
 20
8.0680181253
 10
13.2318441948
 20
8.0327029372
 10
13.2502687656
 20
7.9959282624
 10
13.2654404346
 20
7.9583787712
 10
13.2770767361
 20
7.9207535591
  0
LWPOLYLINE
  5
4A7
100
AcDbEntity
  8
0
100
AcDbPolyline
 62
7
  6
CONTINUOUS
 90
3
 70
0
 10
13.0755504644
 20
8.2106934467
 10
13.113142088
 20
8.1852875016
 10
13.1504473347
 20
8.152426026
  0
LWPOLYLINE
  5
4A8
100
AcDbEntity
  8
0
100
AcDbPolyline
 62
7
  6
CONTINUOUS
 90
9
 70
0
 10
13.4075331152
 20
8.0073495434
 10
13.3844480517
 20
8.063478007
 10
13.355209842
 20
8.1180994188
 10
13.3206601221
 20
8.1695854312
 10
13.2817975856
 20
8.2164004078
 10
13.2397484531
 20
8.257146832
 10
13.1957331704
 20
8.2906066294
 10
13.1510303213
 20
8.3157771864
 10
13.1069388201
 20
8.3319009963
  0
LWPOLYLINE
  5
4A9
100
AcDbEntity
  8
0
100
AcDbPolyline
 62
7
  6
CONTINUOUS
 90
6
 70
0
 10
13.4449342459
 20
7.9952427424
 10
13.4252254756
 20
8.0514972431
 10
13.3990057353
 20
8.1070885077
 10
13.367027407
 20
8.1603595107
 10
13.3302131502
 20
8.2097218351
 10
13.2896286191
 20
8.2537026406
  0
LWPOLYLINE
  5
4AA
100
AcDbEntity
  8
AXIS_COSMETIC_THREADS
100
AcDbPolyline
 62
7
  6
CONTINUOUS
 90
6
 70
0
 10
13.0755504644
 20
8.2013036689
 10
13.0464322062
 20
8.2158154769
 10
13.0178560712
 20
8.2254586128
 10
12.9903540892
 20
8.2300535408
 10
12.9644382916
 20
8.2295147127
 10
12.9405911782
 20
8.2238521603
  0
LWPOLYLINE
  5
4AB
100
AcDbEntity
  8
0
100
AcDbPolyline
 62
7
  6
CONTINUOUS
 90
3
 70
0
 10
13.1215018354
 20
8.2343473246
 10
13.0773427562
 20
8.2613203917
 10
13.0334642811
 20
8.2796077149
  0
LWPOLYLINE
  5
4AC
100
AcDbEntity
  8
0
100
AcDbPolyline
 62
7
  6
CONTINUOUS
 90
4
 70
0
 10
13.1539656304
 20
8.2476783597
 10
13.1098454965
 20
8.2754420589
 10
13.0658860925
 20
8.2945850853
 10
13.0233364164
 20
8.3045410909
  0
LWPOLYLINE
  5
4AD
100
AcDbEntity
  8
0
100
AcDbPolyline
 62
7
  6
CONTINUOUS
 90
4
 70
0
 10
13.1893641899
 20
8.2587228202
 10
13.1448391046
 20
8.2880997829
 10
13.1002834186
 20
8.3087720777
 10
13.0569916947
 20
8.3201152085
  0
LINE
  5
4AE
100
AcDbEntity
  8
0
100
AcDbLine
 62
7
  6
CONTINUOUS
 10
13.2896286191
 20
8.2537026406
 11
13.2464509525
 21
8.2909882148
  0
LINE
  5
4AF
100
AcDbEntity
  8
0
100
AcDbLine
 62
7
  6
CONTINUOUS
 10
13.3466918621
 20
8.2858812753
 11
13.3035375292
 21
8.3232525256
  0
LINE
  5
4B0
100
AcDbEntity
  8
0
100
AcDbLine
 62
7
  6
CONTINUOUS
 10
13.4809759232
 20
8.2244640049
 11
13.4442637132
 21
8.2739357586
  0
LWPOLYLINE
  5
4B1
100
AcDbEntity
  8
0
100
AcDbPolyline
 62
7
  6
CONTINUOUS
 90
3
 70
0
 10
13.4690990562
 20
8.1821630534
 10
13.4346634018
 20
8.233740935
 10
13.3958898434
 20
8.280682498
  0
LWPOLYLINE
  5
4B2
100
AcDbEntity
  8
0
100
AcDbPolyline
 62
7
  6
CONTINUOUS
 90
4
 70
0
 10
13.4559176361
 20
8.1391043125
 10
13.4240020014
 20
8.1924120277
 10
13.3872386942
 20
8.241829169
 10
13.3466918621
 20
8.2858812753
  0
LWPOLYLINE
  5
4B3
100
AcDbEntity
  8
0
100
AcDbPolyline
 62
7
  6
CONTINUOUS
 90
10
 70
0
 10
13.4805225019
 20
7.9833957653
 10
13.4643335654
 20
8.0393464335
 10
13.4413251962
 20
8.0954827095
 10
13.4121548183
 20
8.1501314523
 10
13.377662062
 20
8.2016635059
 10
13.3388439365
 20
8.2485418729
 10
13.2968253492
 20
8.2893671618
 10
13.2528258427
 20
8.3229189665
 10
13.2081235342
 20
8.3481919529
 10
13.1640173222
 20
8.3644255853
  0
LINE
  5
4B4
100
AcDbEntity
  8
0
100
AcDbLine
 62
7
  6
CONTINUOUS
 10
13.2755789463
 20
8.486822286
 11
13.2602439727
 21
8.4757534659
  0
LWPOLYLINE
  5
4B5
100
AcDbEntity
  8
0
100
AcDbPolyline
 62
7
  6
CONTINUOUS
 90
6
 70
0
 10
14.6638403032
 20
9.2465828926
 10
14.6884133113
 20
9.2570102739
 10
14.7157516681
 20
9.2615891462
 10
14.7453061476
 20
9.260226972
 10
14.776484467
 20
9.2529510656
 10
14.8086618222
 20
9.2399072538
  0
LINE
  5
4B6
100
AcDbEntity
  8
0
100
AcDbLine
 62
7
  6
CONTINUOUS
 10
13.3182431401
 20
7.6798393293
 11
13.3244734044
 21
7.6815696832
  0
LWPOLYLINE
  5
4B7
100
AcDbEntity
  8
0
100
AcDbPolyline
 62
7
  6
CONTINUOUS
 90
4
 70
0
 10
13.3753116051
 20
7.7125944491
 10
13.3806639188
 20
7.7140611237
 10
13.4101384794
 20
7.7329311543
 10
13.4337086022
 20
7.7606503411
  0
LWPOLYLINE
  5
4B8
100
AcDbEntity
  8
0
100
AcDbPolyline
 62
7
  6
CONTINUOUS
 90
4
 70
0
 10
13.4317464624
 20
7.7451732199
 10
13.4368537381
 20
7.7465538712
 10
13.4663927574
 20
7.7653158618
 10
13.490036894
 20
7.7929352905
  0
LWPOLYLINE
  5
4B9
100
AcDbEntity
  8
0
100
AcDbPolyline
 62
7
  6
CONTINUOUS
 90
4
 70
0
 10
13.488181482
 20
7.7777516605
 10
13.4930428639
 20
7.7790479265
 10
13.5226462174
 20
7.7977017982
 10
13.5463642677
 20
7.8252213538
  0
LINE
  5
4BA
100
AcDbEntity
  8
0
100
AcDbLine
 62
7
  6
CONTINUOUS
 10
13.5446166615
 20
7.8103297698
 11
13.5492312977
 21
7.8115432903
  0
LWPOLYLINE
  5
4BB
100
AcDbEntity
  8
0
100
AcDbPolyline
 62
7
  6
CONTINUOUS
 90
4
 70
0
 10
13.6010519983
 20
7.8429075467
 10
13.6054190411
 20
7.8440399633
 10
13.635150689
 20
7.8624773626
 10
13.6590162649
 20
7.8897968279
  0
LWPOLYLINE
  5
4BC
100
AcDbEntity
  8
0
100
AcDbPolyline
 62
7
  6
CONTINUOUS
 90
4
 70
0
 10
13.2464509525
 20
8.2909882148
 10
13.2019339662
 20
8.3204628185
 10
13.1573710789
 20
8.3412416772
 10
13.1140570665
 20
8.3526971437
  0
LWPOLYLINE
  5
4BD
100
AcDbEntity
  8
0
100
AcDbPolyline
 62
7
  6
CONTINUOUS
 90
4
 70
0
 10
13.3035375292
 20
8.3232525256
 10
13.2590288215
 20
8.3528246475
 10
13.2144589126
 20
8.373709983
 10
13.1711227862
 20
8.3852777364
  0
LWPOLYLINE
  5
4BE
100
AcDbEntity
  8
0
100
AcDbPolyline
 62
7
  6
CONTINUOUS
 90
3
 70
0
 10
13.3958898434
 20
8.280682498
 10
13.3539019704
 20
8.3215864824
 10
13.3099184175
 20
8.355230155
  0
LWPOLYLINE
  5
4BF
100
AcDbEntity
  8
0
100
AcDbPolyline
 62
7
  6
CONTINUOUS
 90
3
 70
0
 10
13.4442637132
 20
8.2739357586
 10
13.4037547434
 20
8.3180589829
 10
13.3606239181
 20
8.3555157543
  0
LWPOLYLINE
  5
4C0
100
AcDbEntity
  8
0
100
AcDbPolyline
 62
7
  6
CONTINUOUS
 90
6
 70
0
 10
13.4916641397
 20
8.2658177208
 10
13.4529353042
 20
8.3128222855
 10
13.4109783148
 20
8.3538047956
 10
13.3670108926
 20
8.3875401963
 10
13.3223102062
 20
8.4130177243
 10
13.278175106
 20
8.429470796
  0
LWPOLYLINE
  5
4C1
100
AcDbEntity
  8
0
100
AcDbPolyline
 62
7
  6
CONTINUOUS
 90
12
 70
0
 10
13.3279927367
 20
7.7083498674
 10
13.3420868825
 20
7.7464629032
 10
13.3490498946
 20
7.7909189109
 10
13.3486582638
 20
7.8404195752
 10
13.3409011525
 20
7.893520706
 10
13.3259807087
 20
7.9486739999
 10
13.3043062198
 20
8.0042718116
 10
13.2764822782
 20
8.0586936419
 10
13.2432912975
 20
8.1103529969
 10
13.2056708887
 20
8.1577432645
 10
13.164686747
 20
8.1994812804
 10
13.1215018354
 20
8.2343473246
  0
LWPOLYLINE
  5
4C2
100
AcDbEntity
  8
AXIS_COSMETIC_THREADS
100
AcDbPolyline
 62
7
  6
CONTINUOUS
 90
3
 70
0
 10
13.2770767361
 20
7.7551725862
 10
13.2654404346
 20
7.7309835138
 10
13.2502687656
 20
7.7109523606
  0
LINE
  5
4C3
100
AcDbEntity
  8
0
100
AcDbLine
 62
7
  6
CONTINUOUS
 10
13.6868425054
 20
8.723979263
 11
13.6816238159
 21
8.7191863991
  0
LINE
  5
4C4
100
AcDbEntity
  8
0
100
AcDbLine
 62
7
  6
CONTINUOUS
 10
14.0160236705
 20
8.9138876021
 11
13.9917867401
 21
8.8979770549
  0
LWPOLYLINE
  5
4C5
100
AcDbEntity
  8
AXIS_COSMETIC_THREADS
100
AcDbPolyline
 62
7
  6
CONTINUOUS
 90
5
 70
0
 10
12.9242957916
 20
8.2162800889
 10
12.919256734
 20
8.2131713091
 10
12.9008321633
 20
8.1976710148
 10
12.8856604943
 20
8.1776398616
 10
12.8740241928
 20
8.1534507892
  0
LINE
  5
4C6
100
AcDbEntity
  8
0
100
AcDbLine
 62
7
  6
CONTINUOUS
 10
12.9472234775
 20
8.2959636336
 11
12.9179629664
 21
8.2789038773
  0
LINE
  5
4C7
100
AcDbEntity
  8
AXIS
100
AcDbLine
 62
7
  6
CONTINUOUS
 10
14.1281071651
 20
8.9401658167
 11
14.577737838
 21
9.1997586572
  0
LWPOLYLINE
  5
4C8
100
AcDbEntity
  8
0
100
AcDbPolyline
 62
7
  6
CONTINUOUS
 90
3
 70
0
 10
13.2070726822
 20
8.4449399102
 10
13.174535903
 20
8.4277887663
 10
13.1711370587
 20
8.4244758523
  0
LWPOLYLINE
  5
4C9
100
AcDbEntity
  8
AXIS
100
AcDbPolyline
 62
7
  6
CONTINUOUS
 90
6
 70
0
 10
14.5777565299
 20
9.1997636546
 10
14.5854737221
 20
9.2038215858
 10
14.6195767685
 20
9.2138702109
 10
14.6578313252
 20
9.2137798176
 10
14.6989346791
 20
9.203553484
 10
14.7414871049
 20
9.1835394558
  0
LWPOLYLINE
  5
4CA
100
AcDbEntity
  8
0
100
AcDbPolyline
 62
7
  6
CONTINUOUS
 90
3
 70
0
 10
13.2640539127
 20
8.4777451864
 10
13.2314557316
 20
8.4607038511
 10
13.2278584461
 20
8.457220497
  0
LWPOLYLINE
  5
4CB
100
AcDbEntity
  8
0
100
AcDbPolyline
 62
7
  6
CONTINUOUS
 90
3
 70
0
 10
13.776914242
 20
8.7729330656
 10
13.743769349
 20
8.7568830162
 10
13.7383438008
 20
8.7519332492
  0
LWPOLYLINE
  5
4CC
100
AcDbEntity
  8
0
100
AcDbPolyline
 62
7
  6
CONTINUOUS
 90
3
 70
0
 10
13.9478792567
 20
8.8713051397
 10
13.9145545079
 20
8.8555866875
 10
13.908502889
 20
8.8501753118
  0
LWPOLYLINE
  5
4CD
100
AcDbEntity
  8
0
100
AcDbPolyline
 62
7
  6
CONTINUOUS
 90
3
 70
0
 10
14.004868866
 20
8.9040931726
 10
13.9714844321
 20
8.8884853786
 10
13.9652223032
 20
8.8829231739
  0
LWPOLYLINE
  5
4CE
100
AcDbEntity
  8
0
100
AcDbPolyline
 62
7
  6
CONTINUOUS
 90
3
 70
0
 10
13.7667741662
 20
8.7610185655
 10
13.7312230206
 20
8.7496577055
 10
13.7104629677
 20
8.7355168526
  0
LWPOLYLINE
  5
4CF
100
AcDbEntity
  8
0
100
AcDbPolyline
 62
7
  6
CONTINUOUS
 90
3
 70
0
 10
13.9378148862
 20
8.8592220425
 10
13.9021012951
 20
8.8481995509
 10
13.8792629552
 20
8.8329829381
  0
LWPOLYLINE
  5
4D0
100
AcDbEntity
  8
0
100
AcDbPolyline
 62
7
  6
CONTINUOUS
 90
4
 70
0
 10
13.6574874902
 20
7.8754849903
 10
13.6616060958
 20
7.8765379462
 10
13.6914017032
 20
7.8948669928
 10
13.7153408904
 20
7.922086242
  0
LWPOLYLINE
  5
4D1
100
AcDbEntity
  8
0
100
AcDbPolyline
 62
7
  6
CONTINUOUS
 90
4
 70
0
 10
13.7139231345
 20
7.9080620993
 10
13.7177924633
 20
7.9090372396
 10
13.7476519049
 20
7.9272578565
 10
13.771664602
 20
7.954376776
  0
LWPOLYLINE
  5
4D2
100
AcDbEntity
  8
0
100
AcDbPolyline
 62
7
  6
CONTINUOUS
 90
4
 70
0
 10
13.7703589289
 20
7.9406388728
 10
13.7739781453
 20
7.9415378443
 10
13.8039012953
 20
7.9596499549
 10
13.8279874006
 20
7.9866684316
  0
LWPOLYLINE
  5
4D3
100
AcDbEntity
  8
0
100
AcDbPolyline
 62
7
  6
CONTINUOUS
 90
4
 70
0
 10
13.8832309578
 20
8.0057914093
 10
13.8863474589
 20
8.00654299
 10
13.9163976478
 20
8.02443786
 10
13.9406302633
 20
8.0512551135
  0
LWPOLYLINE
  5
4D4
100
AcDbEntity
  8
0
100
AcDbPolyline
 62
7
  6
CONTINUOUS
 90
4
 70
0
 10
13.9396671874
 20
8.0383671703
 10
13.9425310939
 20
8.0390475324
 10
13.9726446126
 20
8.0568336691
 10
13.9969503294
 20
8.0835501429
  0
LINE
  5
4D5
100
AcDbEntity
  8
0
100
AcDbLine
 62
7
  6
CONTINUOUS
 10
13.0334642811
 20
8.2796077149
 11
12.9911130678
 21
8.2886676905
  0
LWPOLYLINE
  5
4D6
100
AcDbEntity
  8
0
100
AcDbPolyline
 62
7
  6
CONTINUOUS
 90
3
 70
0
 10
13.3099184175
 20
8.355230155
 10
13.2652168299
 20
8.3806054652
 10
13.2210960849
 20
8.3969488517
  0
LWPOLYLINE
  5
4D7
100
AcDbEntity
  8
0
100
AcDbPolyline
 62
7
  6
CONTINUOUS
 90
4
 70
0
 10
13.3606239181
 20
8.3555157543
 10
13.3161236682
 20
8.3851852713
 10
13.2715469175
 20
8.406176996
 10
13.2281888517
 20
8.417856987
  0
LWPOLYLINE
  5
4D8
100
AcDbEntity
  8
0
100
AcDbPolyline
 62
7
  6
CONTINUOUS
 90
4
 70
0
 10
13.4177101169
 20
8.3877779025
 10
13.3732185043
 20
8.417544691
 10
13.3286350914
 20
8.438642717
 10
13.285255261
 20
8.4504348958
  0
LINE
  5
4D9
100
AcDbEntity
  8
0
100
AcDbLine
 62
7
  6
CONTINUOUS
 10
13.745701854
 20
8.0477421677
 11
13.7409283471
 21
8.1001168817
  0
LWPOLYLINE
  5
4DA
100
AcDbEntity
  8
0
100
AcDbPolyline
 62
7
  6
CONTINUOUS
 90
7
 70
0
 10
13.5070640903
 20
7.8285822393
 10
13.5169479471
 20
7.8711894218
 10
13.5193732885
 20
7.9194837427
 10
13.5142454817
 20
7.9720239418
 10
13.5016932351
 20
8.0272432115
 10
13.4820647925
 20
8.0834955258
 10
13.4559176361
 20
8.1391043125
  0
LWPOLYLINE
  5
4DB
100
AcDbEntity
  8
0
100
AcDbPolyline
 62
7
  6
CONTINUOUS
 90
8
 70
0
 10
13.5634727716
 20
7.8607796282
 10
13.5734429255
 20
7.9033119573
 10
13.575957002
 20
7.9515474591
 10
13.5709177442
 20
8.0040466126
 10
13.5584512424
 20
8.0592438239
 10
13.538903205
 20
8.1154937193
 10
13.5128287365
 20
8.1711197979
 10
13.4809759232
 20
8.2244640049
  0
LWPOLYLINE
  5
4DC
100
AcDbEntity
  8
0
100
AcDbPolyline
 62
7
  6
CONTINUOUS
 90
6
 70
0
 10
13.4148626367
 20
7.7614585305
 10
13.4282447747
 20
7.8008554819
 10
13.4342933143
 20
7.8465770998
 10
13.4328064872
 20
7.8972581969
 10
13.4238053407
 20
7.9513869381
 10
13.4075331152
 20
8.0073495434
  0
LWPOLYLINE
  5
4DD
100
AcDbEntity
  8
0
100
AcDbPolyline
 62
7
  6
CONTINUOUS
 90
5
 70
0
 10
13.4712313235
 20
7.7936971193
 10
13.484697663
 20
7.8330122475
 10
13.4908340867
 20
7.8786670643
 10
13.4894362274
 20
7.9292983578
 10
13.4805225019
 20
7.9833957653
  0
LWPOLYLINE
  5
4DE
100
AcDbEntity
  8
0
100
AcDbPolyline
 62
7
  6
CONTINUOUS
 90
12
 70
0
 10
13.3545745197
 20
7.7214189066
 10
13.36932939
 20
7.7588656976
 10
13.3769853608
 20
7.8027702356
 10
13.3772988848
 20
7.851850152
 10
13.3702387339
 20
7.9046734233
 10
13.3559869021
 20
7.9596997808
 10
13.3349333429
 20
8.0153252499
 10
13.3076646933
 20
8.0699285315
 10
13.2749473099
 20
8.1219178849
 10
13.2377051088
 20
8.1697771555
 10
13.1969928485
 20
8.2121096169
 10
13.1539656304
 20
8.2476783597
  0
LWPOLYLINE
  5
4DF
100
AcDbEntity
  8
0
100
AcDbPolyline
 62
7
  6
CONTINUOUS
 90
7
 70
0
 10
13.3773793912
 20
7.7283665039
 10
13.3942437538
 20
7.7641903567
 10
13.4039548854
 20
7.8069467158
 10
13.4062027177
 20
7.8553580747
 10
13.4008978666
 20
7.9079797127
 10
13.3881742756
 20
7.963242414
 10
13.3683852552
 20
8.0194988683
  0
LWPOLYLINE
  5
4E0
100
AcDbEntity
  8
0
100
AcDbPolyline
 62
7
  6
CONTINUOUS
 90
8
 70
0
 10
13.2829704331
 20
7.743089001
 10
13.2676768176
 20
7.714881205
 10
13.245434916
 20
7.6911541515
 10
13.2179644448
 20
7.6753947686
 10
13.1859258415
 20
7.6681295519
 10
13.1504907775
 20
7.6697087096
 10
13.1131674859
 20
7.679920861
 10
13.0755504644
 20
7.6979299287
  0
LINE
  5
4E1
100
AcDbEntity
  8
0
100
AcDbLine
 62
7
  6
CONTINUOUS
 10
14.6638388888
 20
9.2465820783
 11
14.5942585022
 21
9.2064100631
  0
LINE
  5
4E2
100
AcDbEntity
  8
AXIS_COSMETIC_THREADS
100
AcDbLine
 62
7
  6
CONTINUOUS
 10
12.9389838686
 20
8.2247617891
 11
12.9243011416
 21
8.2162847633
  0
LWPOLYLINE
  5
4E3
100
AcDbEntity
  8
AXIS
100
AcDbPolyline
 62
7
  6
CONTINUOUS
 90
11
 70
0
 10
15.1054014771
 20
9.2607561164
 10
15.1168653038
 20
9.2651774565
 10
15.1344497605
 20
9.2656820987
 10
15.1537318975
 20
9.2600376727
 10
15.173591107
 20
9.2485722121
 10
15.1928732439
 20
9.2319520479
 10
15.2104577007
 20
9.2111430834
 10
15.2253225324
 20
9.1873546602
 10
15.2366038493
 20
9.1619692748
 10
15.243646022
 20
9.1364622337
 10
15.2460397852
 20
9.1123159133
  0
LWPOLYLINE
  5
4E4
100
AcDbEntity
  8
0
100
AcDbPolyline
 62
7
  6
CONTINUOUS
 90
3
 70
0
 10
13.7097617238
 20
8.7282813822
 10
13.6742650124
 20
8.7168078217
 10
13.6541924523
 20
8.7030348271
  0
LWPOLYLINE
  5
4E5
100
AcDbEntity
  8
0
100
AcDbPolyline
 62
7
  6
CONTINUOUS
 90
4
 70
0
 10
13.996103557
 20
8.070942592
 10
13.9987140497
 20
8.0715533887
 10
14.0288907716
 20
8.0892307171
 10
14.0532694867
 20
8.1158462999
  0
LWPOLYLINE
  5
4E6
100
AcDbEntity
  8
0
100
AcDbPolyline
 62
7
  6
CONTINUOUS
 90
4
 70
0
 10
14.1089767062
 20
8.1360924137
 10
14.1110779306
 20
8.1365690455
 10
14.1413806774
 20
8.154028535
 10
14.1659050795
 20
8.1804420029
  0
LWPOLYLINE
  5
4E7
100
AcDbEntity
  8
0
100
AcDbPolyline
 62
7
  6
CONTINUOUS
 90
4
 70
0
 10
14.1654134807
 20
8.1686668119
 10
14.1672588588
 20
8.1690788474
 10
14.197624427
 20
8.1864293069
 10
14.222221517
 20
8.212741552
  0
LWPOLYLINE
  5
4E8
100
AcDbEntity
  8
0
100
AcDbPolyline
 62
7
  6
CONTINUOUS
 90
4
 70
0
 10
14.221850385
 20
8.2012408673
 10
14.2234391145
 20
8.2015899658
 10
14.2538673763
 20
8.2188313223
 10
14.2785370501
 20
8.2450422346
  0
LWPOLYLINE
  5
4E9
100
AcDbEntity
  8
0
100
AcDbPolyline
 62
7
  6
CONTINUOUS
 90
4
 70
0
 10
12.9963620438
 20
8.2395460452
 10
13.0006101514
 20
8.2389146657
 10
13.037933443
 20
8.2287025143
 10
13.0755504644
 20
8.2106934467
  0
LWPOLYLINE
  5
4EA
100
AcDbEntity
  8
0
100
AcDbPolyline
 62
7
  6
CONTINUOUS
 90
3
 70
0
 10
13.424103266
 20
8.4198490917
 10
13.3794036609
 20
8.4454287312
 10
13.3352543834
 20
8.4619914188
  0
LWPOLYLINE
  5
4EB
100
AcDbEntity
  8
0
100
AcDbPolyline
 62
7
  6
CONTINUOUS
 90
4
 70
0
 10
13.4747961237
 20
8.4200389718
 10
13.4303133278
 20
8.4499029079
 10
13.3857234324
 20
8.4711071468
 10
13.3423220121
 20
8.4830114632
  0
LWPOLYLINE
  5
4EC
100
AcDbEntity
  8
0
100
AcDbPolyline
 62
7
  6
CONTINUOUS
 90
4
 70
0
 10
13.5318819362
 20
8.452298964
 10
13.4874081363
 20
8.4822599232
 10
13.4428119382
 20
8.5035702863
 10
13.399389103
 20
8.5155866896
  0
LWPOLYLINE
  5
4ED
100
AcDbEntity
  8
0
100
AcDbPolyline
 62
7
  6
CONTINUOUS
 90
8
 70
0
 10
13.7409283471
 20
8.1001168817
 10
13.7287193662
 20
8.1552465483
 10
13.709413005
 20
8.2114877912
 10
13.6835572218
 20
8.2671643654
 10
13.6518936366
 20
8.3206167227
 10
13.6153356022
 20
8.3702510837
 10
13.5749411964
 20
8.4145865641
 10
13.5318819362
 20
8.452298964
  0
LWPOLYLINE
  5
4EE
100
AcDbEntity
  8
0
100
AcDbPolyline
 62
7
  6
CONTINUOUS
 90
9
 70
0
 10
13.772569282
 20
8.0895064274
 10
13.7640931548
 20
8.1434438124
 10
13.7483216051
 20
8.1993313253
 10
13.7256980695
 20
8.2555031806
 10
13.6968685927
 20
8.3102851851
 10
13.6626627247
 20
8.3620442426
 10
13.6240689917
 20
8.409236643
 10
13.582205666
 20
8.4504537094
 10
13.5382876992
 20
8.4844634511
  0
LWPOLYLINE
  5
4EF
100
AcDbEntity
  8
0
100
AcDbPolyline
 62
7
  6
CONTINUOUS
 90
10
 70
0
 10
13.7994124971
 20
8.0318100348
 10
13.8022813752
 20
8.0798082652
 10
13.7975964852
 20
8.1321410657
 10
13.7854734389
 20
8.1872477613
 10
13.7662477889
 20
8.2434856549
 10
13.740465107
 20
8.2991786004
 10
13.7088648517
 20
8.3526665658
 10
13.672358503
 20
8.4023547185
 10
13.6320026106
 20
8.4467605839
 10
13.5889675525
 20
8.4845578807
  0
LWPOLYLINE
  5
4F0
100
AcDbEntity
  8
0
100
AcDbPolyline
 62
7
  6
CONTINUOUS
 90
3
 70
0
 10
13.7669468597
 20
7.9938093118
 10
13.773522271
 20
8.0391272916
 10
13.772569282
 20
8.0895064274
  0
LWPOLYLINE
  5
4F1
100
AcDbEntity
  8
0
100
AcDbPolyline
 62
7
  6
CONTINUOUS
 90
11
 70
0
 10
13.6198804623
 20
7.8929779848
 10
13.6299368694
 20
7.9354352842
 10
13.6325396674
 20
7.9836117671
 10
13.6275889762
 20
8.0360696578
 10
13.6152082672
 20
8.0912445824
 10
13.595740712
 20
8.1474918262
 10
13.5697390352
 20
8.2031349668
 10
13.5379491708
 20
8.2565154448
 10
13.5012882054
 20
8.306041606
 10
13.4608172608
 20
8.3502357656
 10
13.4177101169
 20
8.3877779025
  0
LWPOLYLINE
  5
4F2
100
AcDbEntity
  8
0
100
AcDbPolyline
 62
7
  6
CONTINUOUS
 90
11
 70
0
 10
13.6762871633
 20
7.9251773109
 10
13.686429779
 20
7.9675594046
 10
13.6891212847
 20
8.0156766691
 10
13.6842591773
 20
8.0680930799
 10
13.6719643087
 20
8.1232454896
 10
13.6525773123
 20
8.1794898492
 10
13.6266485307
 20
8.2351498218
 10
13.5949217424
 20
8.2885663499
 10
13.558312169
 20
8.3381467136
 10
13.5178794125
 20
8.3824116253
 10
13.4747961237
 20
8.4200389718
  0
LWPOLYLINE
  5
4F3
100
AcDbEntity
  8
0
100
AcDbPolyline
 62
7
  6
CONTINUOUS
 90
8
 70
0
 10
13.5275990516
 20
7.8259367509
 10
13.5411495344
 20
7.8651698928
 10
13.5473738137
 20
7.9107577194
 10
13.5460649248
 20
7.9613389996
 10
13.5372386536
 20
8.0154048497
 10
13.5211330694
 20
8.0713433494
 10
13.4982014857
 20
8.1274872057
 10
13.4690990562
 20
8.1821630534
  0
LWPOLYLINE
  5
4F4
100
AcDbEntity
  8
0
100
AcDbPolyline
 62
7
  6
CONTINUOUS
 90
9
 70
0
 10
13.5839658221
 20
7.858177427
 10
13.5976003892
 20
7.8973284198
 10
13.6039124954
 20
7.9428490673
 10
13.6026925792
 20
7.9933801249
 10
13.5939537953
 20
8.0474141939
 10
13.5779316262
 20
8.1033402938
 10
13.555076919
 20
8.1594914982
 10
13.526042554
 20
8.2141942246
 10
13.4916641397
 20
8.2658177208
  0
LWPOLYLINE
  5
4F5
100
AcDbEntity
  8
0
100
AcDbPolyline
 62
7
  6
CONTINUOUS
 90
12
 70
0
 10
13.6403316356
 20
7.8904191493
 10
13.654050228
 20
7.9294878306
 10
13.6604501322
 20
7.9749411104
 10
13.6593191903
 20
8.0254217363
 10
13.6506679264
 20
8.0794238006
 10
13.6347292351
 20
8.1353372694
 10
13.6119514949
 20
8.1914955897
 10
13.5829853104
 20
8.2462249685
 10
13.548664274
 20
8.2978938657
 10
13.5099803172
 20
8.3449612373
 10
13.4680543802
 20
8.3860221033
 10
13.424103266
 20
8.4198490917
  0
LWPOLYLINE
  5
4F6
100
AcDbEntity
  8
0
100
AcDbPolyline
 62
7
  6
CONTINUOUS
 90
6
 70
0
 10
13.4337086022
 20
7.7606503411
 10
13.450654418
 20
7.7963858161
 10
13.4604519339
 20
7.8390676754
 10
13.4627885271
 20
7.8874206154
 10
13.457572189
 20
7.9400016427
 10
13.4449342459
 20
7.9952427424
  0
LINE
  5
4F7
100
AcDbEntity
  8
0
100
AcDbLine
 62
7
  6
CONTINUOUS
 10
13.490036894
 20
7.7929352905
 11
13.5070640903
 21
7.8285822393
  0
LWPOLYLINE
  5
4F8
100
AcDbEntity
  8
0
100
AcDbPolyline
 62
7
  6
CONTINUOUS
 90
11
 70
0
 10
13.2956392988
 20
7.7102515304
 10
13.2772087312
 20
7.6801528982
 10
13.2529678746
 20
7.6570231793
 10
13.2236046243
 20
7.6417771017
 10
13.1900516883
 20
7.6349393276
 10
13.1533953432
 20
7.6366339612
 10
13.1136046079
 20
7.6470495052
 10
13.0707156647
 20
7.6669513724
 10
13.0260855021
 20
7.6967084139
 10
12.9827235746
 20
7.7347852266
 10
12.9420724275
 20
7.7798601065
  0
LINE
  5
4F9
100
AcDbEntity
  8
0
100
AcDbLine
 62
7
  6
CONTINUOUS
 10
14.8440173085
 20
9.2194952161
 11
14.8044616034
 21
9.1966578554
  0
LINE
  5
4FA
100
AcDbEntity
  8
0
100
AcDbLine
 62
9
  6
CONTINUOUS
 10
14.8527756954
 20
9.1763479612
 11
14.8338080714
 21
9.1653970637
  0
LINE
  5
4FB
100
AcDbEntity
  8
AXIS_COSMETIC_THREADS
100
AcDbLine
 62
7
  6
CONTINUOUS
 10
12.9405911782
 20
8.2238521603
 11
12.9242957916
 21
8.2162800889
  0
LWPOLYLINE
  5
4FC
100
AcDbEntity
  8
0
100
AcDbPolyline
 62
7
  6
CONTINUOUS
 90
3
 70
0
 10
13.1966755347
 20
8.4335862469
 10
13.1616751141
 20
8.4211004727
 10
13.1476693585
 20
8.4108455984
  0
LWPOLYLINE
  5
4FD
100
AcDbEntity
  8
0
100
AcDbPolyline
 62
7
  6
CONTINUOUS
 90
3
 70
0
 10
14.2782874167
 20
8.233814579
 10
14.2796186991
 20
8.2341024012
 10
14.3101095265
 20
8.2512345822
  0
LWPOLYLINE
  5
4FE
100
AcDbEntity
  8
0
100
AcDbPolyline
 62
7
  6
CONTINUOUS
 90
4
 70
0
 10
14.334724573
 20
8.2663879462
 10
14.3357976144
 20
8.2666161544
 10
14.3663508791
 20
8.2836390878
 10
14.3911654071
 20
8.309647007
  0
LWPOLYLINE
  5
4FF
100
AcDbEntity
  8
0
100
AcDbPolyline
 62
7
  6
CONTINUOUS
 90
17
 70
0
 10
14.3911618514
 20
8.2989609681
 10
14.3919758619
 20
8.2991312259
 10
14.4225914354
 20
8.3160448399
 10
14.4474782332
 20
8.3419510996
 10
14.465877453
 20
8.3760707439
 10
14.4772221258
 20
8.417381648
 10
14.4811538804
 20
8.4646490465
 10
14.4775335404
 20
8.5164620446
 10
14.4664452396
 20
8.5712753375
 10
14.4481939339
 20
8.6274549037
 10
14.4232963844
 20
8.683326322
 10
14.3924658769
 20
8.7372242828
 10
14.3565911305
 20
8.7875418305
 10
14.3167100188
 20
8.8327778795
 10
14.2739788809
 20
8.8715816007
 10
14.2296383293
 20
8.9027923643
 10
14.1849765655
 20
8.925474059
  0
LWPOLYLINE
  5
500
100
AcDbEntity
  8
0
100
AcDbPolyline
 62
7
  6
CONTINUOUS
 90
5
 70
0
 10
13.1069388201
 20
8.3319009963
 10
13.0647395042
 20
8.3384880582
 10
13.0256572603
 20
8.3353303663
 10
12.9908248056
 20
8.32250806
 10
12.9787922513
 20
8.3135083408
  0
LWPOLYLINE
  5
501
100
AcDbEntity
  8
0
100
AcDbPolyline
 62
7
  6
CONTINUOUS
 90
5
 70
0
 10
13.1640173222
 20
8.3644255853
 10
13.121788479
 20
8.3711266156
 10
13.0826627645
 20
8.3680836679
 10
13.0477741811
 20
8.3553734889
 10
13.0350866567
 20
8.3459508289
  0
LWPOLYLINE
  5
502
100
AcDbEntity
  8
0
100
AcDbPolyline
 62
7
  6
CONTINUOUS
 90
5
 70
0
 10
13.2210960849
 20
8.3969488517
 10
13.1788378845
 20
8.4037638211
 10
13.1396688565
 20
8.4008356283
 10
13.1047242844
 20
8.3882376267
 10
13.0913790229
 20
8.3783965794
  0
LWPOLYLINE
  5
503
100
AcDbEntity
  8
0
100
AcDbPolyline
 62
7
  6
CONTINUOUS
 90
3
 70
0
 10
13.4811955356
 20
8.4521568428
 10
13.436497192
 20
8.4778384871
 10
13.3923339152
 20
8.4945107208
  0
LWPOLYLINE
  5
504
100
AcDbEntity
  8
0
100
AcDbPolyline
 62
7
  6
CONTINUOUS
 90
3
 70
0
 10
13.5382876992
 20
8.4844634511
 10
13.4935907974
 20
8.5102469928
 10
13.4494136992
 20
8.5270287024
  0
LWPOLYLINE
  5
505
100
AcDbEntity
  8
0
100
AcDbPolyline
 62
7
  6
CONTINUOUS
 90
4
 70
0
 10
13.5889675525
 20
8.4845578807
 10
13.5445029278
 20
8.5146157383
 10
13.4999006069
 20
8.5360321362
 10
13.4564565316
 20
8.5481605753
  0
LWPOLYLINE
  5
506
100
AcDbEntity
  8
0
100
AcDbPolyline
 62
7
  6
CONTINUOUS
 90
3
 70
0
 10
13.7381558516
 20
8.4735087324
 10
13.6963558114
 20
8.5148813155
 10
13.6524717
 20
8.5490732449
  0
LWPOLYLINE
  5
507
100
AcDbEntity
  8
0
100
AcDbPolyline
 62
7
  6
CONTINUOUS
 90
5
 70
0
 10
13.7973721851
 20
8.3311925295
 10
13.7658353861
 20
8.3847158817
 10
13.7293808697
 20
8.4344576205
 10
13.689063653
 20
8.4789336867
 10
13.6460529704
 20
8.5168157235
  0
LWPOLYLINE
  5
508
100
AcDbEntity
  8
0
100
AcDbPolyline
 62
7
  6
CONTINUOUS
 90
4
 70
0
 10
13.8394411998
 20
8.3195100002
 10
13.8107488911
 20
8.374343724
 10
13.7766587402
 20
8.4261920849
 10
13.7381558516
 20
8.4735087324
  0
LWPOLYLINE
  5
509
100
AcDbEntity
  8
0
100
AcDbPolyline
 62
7
  6
CONTINUOUS
 90
6
 70
0
 10
13.8799146263
 20
8.3074811581
 10
13.8542784546
 20
8.3632061554
 10
13.8228052381
 20
8.4167646728
 10
13.7864027004
 20
8.4665597918
 10
13.7461243217
 20
8.5111058747
 10
13.7031381879
 20
8.5490724941
  0
LINE
  5
50A
100
AcDbEntity
  8
0
100
AcDbLine
 62
7
  6
CONTINUOUS
 10
13.898978627
 20
8.2512506609
 11
13.8799146263
 21
8.3074811581
  0
LWPOLYLINE
  5
50B
100
AcDbEntity
  8
0
100
AcDbPolyline
 62
7
  6
CONTINUOUS
 90
3
 70
0
 10
13.7326928753
 20
7.9573776086
 10
13.7429216548
 20
7.9996843207
 10
13.745701854
 20
8.0477421677
  0
LINE
  5
50C
100
AcDbEntity
  8
0
100
AcDbLine
 62
7
  6
CONTINUOUS
 10
13.7890975989
 20
7.9895788796
 11
13.7994124971
 21
8.0318100348
  0
LWPOLYLINE
  5
50D
100
AcDbEntity
  8
0
100
AcDbPolyline
 62
7
  6
CONTINUOUS
 90
12
 70
0
 10
13.6966964931
 20
7.9226619197
 10
13.7104990513
 20
7.9616481272
 10
13.7169867239
 20
8.0070338511
 10
13.715944758
 20
8.0574638362
 10
13.7073810464
 20
8.1114336726
 10
13.691525895
 20
8.167334279
 10
13.6688252122
 20
8.2234994829
 10
13.6399273238
 20
8.2782552879
 10
13.6056638029
 20
8.3299693722
 10
13.5670248803
 20
8.3770993558
 10
13.5251301646
 20
8.4182384073
 10
13.4811955356
 20
8.4521568428
  0
LINE
  5
50E
100
AcDbEntity
  8
0
100
AcDbLine
 62
7
  6
CONTINUOUS
 10
13.7530603955
 20
7.9549057397
 11
13.7669468597
 21
7.9938093118
  0
LINE
  5
50F
100
AcDbEntity
  8
0
100
AcDbLine
 62
7
  6
CONTINUOUS
 10
13.5463642677
 20
7.8252213538
 11
13.5634727716
 21
7.8607796282
  0
LINE
  5
510
100
AcDbEntity
  8
0
100
AcDbLine
 62
7
  6
CONTINUOUS
 10
13.6026907243
 20
7.8575085324
 11
13.6198804623
 21
7.8929779848
  0
LINE
  5
511
100
AcDbEntity
  8
0
100
AcDbLine
 62
7
  6
CONTINUOUS
 10
13.6590162649
 20
7.8897968279
 11
13.6762871633
 21
7.9251773109
  0
LINE
  5
512
100
AcDbEntity
  8
0
100
AcDbLine
 62
7
  6
CONTINUOUS
 10
13.3331695739
 20
7.6915254945
 11
13.3545745197
 21
7.7214189066
  0
LINE
  5
513
100
AcDbEntity
  8
AXIS_COSMETIC_THREADS
100
AcDbLine
 62
7
  6
CONTINUOUS
 10
14.8690038819
 20
9.1242787322
 11
15.105411763
 21
9.2607680713
  0
LWPOLYLINE
  5
514
100
AcDbEntity
  8
0
100
AcDbPolyline
 62
7
  6
CONTINUOUS
 90
6
 70
0
 10
12.9911130678
 20
8.2886676905
 10
12.9514916106
 20
8.2882255388
 10
12.9157234684
 20
8.2782812502
 10
12.8848207749
 20
8.2591095852
 10
12.8596549714
 20
8.2312521296
 10
12.8409316071
 20
8.1955016331
  0
LWPOLYLINE
  5
515
100
AcDbEntity
  8
0
100
AcDbPolyline
 62
7
  6
CONTINUOUS
 90
3
 70
0
 10
13.0233364164
 20
8.3045410909
 10
12.9834047012
 20
8.3050093859
 10
12.9472234775
 20
8.2959636336
  0
LWPOLYLINE
  5
516
100
AcDbEntity
  8
0
100
AcDbPolyline
 62
7
  6
CONTINUOUS
 90
4
 70
0
 10
13.0569916947
 20
8.3201152085
 10
13.0162211214
 20
8.3217805356
 10
12.9791543387
 20
8.3137055855
 10
12.9468644678
 20
8.2961158974
  0
LWPOLYLINE
  5
517
100
AcDbEntity
  8
0
100
AcDbPolyline
 62
7
  6
CONTINUOUS
 90
5
 70
0
 10
13.1140570665
 20
8.3526971437
 10
13.0732497765
 20
8.3544772567
 10
13.0361329345
 20
8.3465161484
 10
13.0037811419
 20
8.329035992
 10
13.0009718944
 20
8.3262433431
  0
LWPOLYLINE
  5
518
100
AcDbEntity
  8
0
100
AcDbPolyline
 62
7
  6
CONTINUOUS
 90
5
 70
0
 10
13.1711227862
 20
8.3852777364
 10
13.1302789437
 20
8.3871726261
 10
13.0931121914
 20
8.3793253906
 10
13.0606986068
 20
8.3619548357
 10
13.0576937848
 20
8.3589872767
  0
LWPOLYLINE
  5
519
100
AcDbEntity
  8
0
100
AcDbPolyline
 62
7
  6
CONTINUOUS
 90
3
 70
0
 10
13.278175106
 20
8.429470796
 10
13.2358877185
 20
8.4363996746
 10
13.1966755347
 20
8.4335862469
  0
LWPOLYLINE
  5
51A
100
AcDbEntity
  8
0
100
AcDbPolyline
 62
7
  6
CONTINUOUS
 90
5
 70
0
 10
13.3352543834
 20
8.4619914188
 10
13.2929379792
 20
8.4690341764
 10
13.2536827973
 20
8.4663355235
 10
13.2186266685
 20
8.4539620261
 10
13.2039576722
 20
8.4432978919
  0
LWPOLYLINE
  5
51B
100
AcDbEntity
  8
0
100
AcDbPolyline
 62
7
  6
CONTINUOUS
 90
3
 70
0
 10
13.5953797547
 20
8.516768918
 10
13.5506844748
 20
8.5426542496
 10
13.5064937334
 20
8.5595453643
  0
LINE
  5
51C
100
AcDbEntity
  8
0
100
AcDbLine
 62
7
  6
CONTINUOUS
 10
13.6524717
 20
8.5490732449
 11
13.6077782223
 21
8.5750602584
  0
LWPOLYLINE
  5
51D
100
AcDbEntity
  8
0
100
AcDbPolyline
 62
7
  6
CONTINUOUS
 90
4
 70
0
 10
13.6460529704
 20
8.5168157235
 10
13.6015977003
 20
8.5469703544
 10
13.5569894363
 20
8.5684926974
 10
13.513524296
 20
8.5807331207
  0
LWPOLYLINE
  5
51E
100
AcDbEntity
  8
0
100
AcDbPolyline
 62
7
  6
CONTINUOUS
 90
4
 70
0
 10
13.7031381879
 20
8.5490724941
 10
13.6586924515
 20
8.5793237728
 10
13.6140784243
 20
8.6009519707
 10
13.5705923942
 20
8.6133043261
  0
LWPOLYLINE
  5
51F
100
AcDbEntity
  8
0
100
AcDbPolyline
 62
7
  6
CONTINUOUS
 90
5
 70
0
 10
13.9111839142
 20
8.3952194806
 10
13.8797744061
 20
8.4488129418
 10
13.8434239934
 20
8.4986612348
 10
13.8031846147
 20
8.5432771497
 10
13.7602232029
 20
8.5813281942
  0
LWPOLYLINE
  5
520
100
AcDbEntity
  8
0
100
AcDbPolyline
 62
7
  6
CONTINUOUS
 90
6
 70
0
 10
13.8963114703
 20
8.3515131275
 10
13.8676879176
 20
8.4063723708
 10
13.8336558304
 20
8.4582650617
 10
13.7951985963
 20
8.5056435389
 10
13.7534304514
 20
8.5470936231
 10
13.709563533
 20
8.5813764334
  0
LINE
  5
521
100
AcDbEntity
  8
0
100
AcDbLine
 62
7
  6
CONTINUOUS
 10
13.9367466777
 20
8.3394788031
 11
13.9111839142
 21
8.3952194806
  0
LINE
  5
522
100
AcDbEntity
  8
0
100
AcDbLine
 62
7
  6
CONTINUOUS
 10
13.9187030276
 20
8.2953227119
 11
13.8963114703
 21
8.3515131275
  0
LWPOLYLINE
  5
523
100
AcDbEntity
  8
0
100
AcDbPolyline
 62
7
  6
CONTINUOUS
 90
7
 70
0
 10
13.8455013349
 20
8.0217811259
 10
13.8559023063
 20
8.0639365492
 10
13.8588598483
 20
8.1118749641
 10
13.8542635912
 20
8.1641656346
 10
13.8422265261
 20
8.2192491313
 10
13.823081663
 20
8.2754834429
 10
13.7973721851
 20
8.3311925295
  0
LWPOLYLINE
  5
524
100
AcDbEntity
  8
0
100
AcDbPolyline
 62
7
  6
CONTINUOUS
 90
5
 70
0
 10
13.9019040839
 20
8.0539843494
 10
13.9123910827
 20
8.0960638658
 10
13.9154372733
 20
8.1439422669
 10
13.9109296649
 20
8.196190591
 10
13.898978627
 20
8.2512506609
  0
LWPOLYLINE
  5
525
100
AcDbEntity
  8
0
100
AcDbPolyline
 62
7
  6
CONTINUOUS
 90
12
 70
0
 10
13.8094233436
 20
7.9871506113
 10
13.8233936537
 20
8.0259713864
 10
13.8300567735
 20
8.0712214344
 10
13.8291927622
 20
8.1215495122
 10
13.8208042508
 20
8.1754542228
 10
13.8051163645
 20
8.2313284111
 10
13.7825700658
 20
8.2875066855
 10
13.7538091156
 20
8.342314663
 10
13.7196610377
 20
8.3941184794
 10
13.6811126495
 20
8.4413731012
 10
13.6392808823
 20
8.4826680115
 10
13.5953797547
 20
8.516768918
  0
LWPOLYLINE
  5
526
100
AcDbEntity
  8
0
100
AcDbPolyline
 62
7
  6
CONTINUOUS
 90
7
 70
0
 10
13.8657853384
 20
8.019396536
 10
13.8798394338
 20
8.0581343531
 10
13.8865902316
 20
8.1033162818
 10
13.8858151984
 20
8.1535930932
 10
13.8775143341
 20
8.2074649065
 10
13.8619101723
 20
8.263325539
 10
13.8394411998
 20
8.3195100002
  0
LINE
  5
527
100
AcDbEntity
  8
0
100
AcDbLine
 62
7
  6
CONTINUOUS
 10
13.7153408904
 20
7.922086242
 11
13.7326928753
 21
7.9573776086
  0
LINE
  5
528
100
AcDbEntity
  8
0
100
AcDbLine
 62
7
  6
CONTINUOUS
 10
13.771664602
 20
7.954376776
 11
13.7890975989
 21
7.9895788796
  0
LINE
  5
529
100
AcDbEntity
  8
0
100
AcDbLine
 62
7
  6
CONTINUOUS
 10
13.5634348758
 20
7.8265669871
 11
13.5839658221
 21
7.858177427
  0
LWPOLYLINE
  5
52A
100
AcDbEntity
  8
0
100
AcDbPolyline
 62
7
  6
CONTINUOUS
 90
5
 70
0
 10
13.2281888517
 20
8.417856987
 10
13.1873086211
 20
8.4198666438
 10
13.1500921079
 20
8.4121333113
 10
13.1176168609
 20
8.3948724275
 10
13.1144155055
 20
8.391731446
  0
LWPOLYLINE
  5
52B
100
AcDbEntity
  8
0
100
AcDbPolyline
 62
7
  6
CONTINUOUS
 90
3
 70
0
 10
13.285255261
 20
8.4504348958
 10
13.2443388068
 20
8.4525593097
 10
13.2070726822
 20
8.4449399102
  0
LWPOLYLINE
  5
52C
100
AcDbEntity
  8
0
100
AcDbPolyline
 62
7
  6
CONTINUOUS
 90
3
 70
0
 10
13.3423220121
 20
8.4830114632
 10
13.301369499
 20
8.4852506236
 10
13.2640539127
 20
8.4777451864
  0
LINE
  5
52D
100
AcDbEntity
  8
0
100
AcDbLine
 62
7
  6
CONTINUOUS
 10
13.3923339152
 20
8.4945107208
 11
13.3499886647
 21
8.5016673266
  0
LWPOLYLINE
  5
52E
100
AcDbEntity
  8
0
100
AcDbPolyline
 62
7
  6
CONTINUOUS
 90
5
 70
0
 10
13.4494136992
 20
8.5270287024
 10
13.407039773
 20
8.5342991253
 10
13.3676990686
 20
8.5318300492
 10
13.3325319457
 20
8.5196812516
 10
13.3165282689
 20
8.5082123264
  0
LINE
  5
52F
100
AcDbEntity
  8
0
100
AcDbLine
 62
7
  6
CONTINUOUS
 10
13.6077782223
 20
8.5750602584
 11
13.5635740157
 21
8.5920607071
  0
LWPOLYLINE
  5
530
100
AcDbEntity
  8
0
100
AcDbPolyline
 62
7
  6
CONTINUOUS
 90
3
 70
0
 10
13.709563533
 20
8.5813764334
 10
13.6648720377
 20
8.6074650203
 10
13.6206545441
 20
8.6245747315
  0
LWPOLYLINE
  5
531
100
AcDbEntity
  8
0
100
AcDbPolyline
 62
7
  6
CONTINUOUS
 90
3
 70
0
 10
13.7666552516
 20
8.613678485
 10
13.7219659188
 20
8.6398685364
 10
13.6777353165
 20
8.657087438
  0
LWPOLYLINE
  5
532
100
AcDbEntity
  8
0
100
AcDbPolyline
 62
7
  6
CONTINUOUS
 90
4
 70
0
 10
13.7602232029
 20
8.5813281942
 10
13.7157871794
 20
8.6116759947
 10
13.6711675687
 20
8.633409957
 10
13.6276608241
 20
8.645874192
  0
LINE
  5
533
100
AcDbEntity
  8
0
100
AcDbLine
 62
7
  6
CONTINUOUS
 10
13.8173080133
 20
8.6135828255
 11
13.7728818818
 21
8.6440270214
  0
LINE
  5
534
100
AcDbEntity
  8
0
100
AcDbLine
 62
7
  6
CONTINUOUS
 10
13.86024453
 20
8.5754475138
 11
13.8173080133
 21
8.6135828255
  0
LWPOLYLINE
  5
535
100
AcDbEntity
  8
0
100
AcDbPolyline
 62
7
  6
CONTINUOUS
 90
3
 70
0
 10
13.9367428887
 20
8.4808606911
 10
13.9004447468
 20
8.5307619518
 10
13.86024453
 20
8.5754475138
  0
LWPOLYLINE
  5
536
100
AcDbEntity
  8
0
100
AcDbPolyline
 62
7
  6
CONTINUOUS
 90
9
 70
0
 10
14.0561843413
 20
8.1996050748
 10
14.0556762408
 20
8.2497268395
 10
14.0476385017
 20
8.303498624
 10
14.0322858771
 20
8.3593172034
 10
14.010049416
 20
8.4155188307
 10
13.9815637178
 20
8.4704284322
 10
13.9476481671
 20
8.5224091387
 10
13.9092827056
 20
8.5699106864
 10
13.8675788557
 20
8.6115152568
  0
LWPOLYLINE
  5
537
100
AcDbEntity
  8
0
100
AcDbPolyline
 62
7
  6
CONTINUOUS
 90
6
 70
0
 10
13.9583058468
 20
8.0861885519
 10
13.9688788267
 20
8.1281919871
 10
13.9720136502
 20
8.1760101761
 10
13.9675947057
 20
8.2282159375
 10
13.9557297411
 20
8.2832523529
 10
13.9367466777
 20
8.3394788031
  0
LWPOLYLINE
  5
538
100
AcDbEntity
  8
0
100
AcDbPolyline
 62
7
  6
CONTINUOUS
 90
8
 70
0
 10
14.0147066241
 20
8.1183937355
 10
14.0253655386
 20
8.1603209153
 10
14.0285889791
 20
8.208078694
 10
14.0242587135
 20
8.2602416768
 10
14.0124798675
 20
8.31525421
 10
13.9935778162
 20
8.3714763807
 10
13.9680885625
 20
8.4272325079
 10
13.9367428887
 20
8.4808606911
  0
LWPOLYLINE
  5
539
100
AcDbEntity
  8
0
100
AcDbPolyline
 62
7
  6
CONTINUOUS
 90
11
 70
0
 10
14.0711064167
 20
8.1505999019
 10
14.0818512189
 20
8.1924506524
 10
14.0851632598
 20
8.2401478232
 10
14.0809216877
 20
8.2922678115
 10
14.0692290056
 20
8.347256235
 10
14.0504080406
 20
8.4034738937
 10
14.0249923983
 20
8.4592452399
 10
13.993710684
 20
8.5129079234
 10
13.9574649587
 20
8.5628619452
 10
13.9173040657
 20
8.6076169691
 10
13.874392617
 20
8.6458363896
  0
LWPOLYLINE
  5
53A
100
AcDbEntity
  8
0
100
AcDbPolyline
 62
7
  6
CONTINUOUS
 90
6
 70
0
 10
13.9221463806
 20
8.0516435156
 10
13.9362842005
 20
8.0902982139
 10
13.9431226455
 20
8.1354118361
 10
13.9424365903
 20
8.1856371731
 10
13.934223404
 20
8.2394758662
 10
13.9187030276
 20
8.2953227119
  0
LWPOLYLINE
  5
53B
100
AcDbEntity
  8
0
100
AcDbPolyline
 62
7
  6
CONTINUOUS
 90
12
 70
0
 10
13.9785064713
 20
8.0838915518
 10
13.9927279545
 20
8.1224629708
 10
13.9996540153
 20
8.1675080996
 10
13.9990569378
 20
8.2176817544
 10
13.9909314601
 20
8.2714871044
 10
13.9754949295
 20
8.3273199324
 10
13.9531808761
 20
8.38351607
 10
13.9246261936
 20
8.438400606
 10
13.8906523066
 20
8.4903374122
 10
13.8522408816
 20
8.5377775228
 10
13.8105048002
 20
8.5793049362
 10
13.7666552516
 20
8.613678485
  0
LINE
  5
53C
100
AcDbEntity
  8
0
100
AcDbLine
 62
7
  6
CONTINUOUS
 10
13.8279874006
 20
7.9866684316
 11
13.8455013349
 21
8.0217811259
  0
LINE
  5
53D
100
AcDbEntity
  8
0
100
AcDbLine
 62
7
  6
CONTINUOUS
 10
13.8843092874
 20
8.0189612102
 11
13.9019040839
 21
8.0539843494
  0
LINE
  5
53E
100
AcDbEntity
  8
0
100
AcDbLine
 62
7
  6
CONTINUOUS
 10
13.9406302633
 20
8.0512551135
 11
13.9583058468
 21
8.0861885519
  0
LINE
  5
53F
100
AcDbEntity
  8
0
100
AcDbLine
 62
7
  6
CONTINUOUS
 10
13.8448664323
 20
7.9882615115
 11
13.8657853384
 21
8.019396536
  0
LINE
  5
540
100
AcDbEntity
  8
0
100
AcDbLine
 62
7
  6
CONTINUOUS
 10
13.5788988608
 20
7.8300889648
 11
13.6026907243
 21
7.8575085324
  0
LWPOLYLINE
  5
541
100
AcDbEntity
  8
AXIS_COSMETIC_THREADS
100
AcDbPolyline
 62
7
  6
CONTINUOUS
 90
3
 70
0
 10
13.2502687656
 20
7.7109523606
 10
13.2318441948
 20
7.6954520663
 10
13.2268051373
 20
7.6923432864
  0
LINE
  5
542
100
AcDbEntity
  8
AXIS_COSMETIC_THREADS
100
AcDbLine
 62
7
  6
CONTINUOUS
 10
14.985504676
 20
8.9224952717
 11
15.2219112414
 21
9.0589838511
  0
LINE
  5
543
100
AcDbEntity
  8
AXIS_COSMETIC_THREADS
100
AcDbLine
 62
7
  6
CONTINUOUS
 10
13.2832936027
 20
7.9243428473
 11
13.2770767361
 21
7.9207535591
  0
LWPOLYLINE
  5
544
100
AcDbEntity
  8
0
100
AcDbPolyline
 62
7
  6
CONTINUOUS
 90
3
 70
0
 10
13.3499886647
 20
8.5016673266
 10
13.3106906426
 20
8.4990834577
 10
13.2755789463
 20
8.486822286
  0
LWPOLYLINE
  5
545
100
AcDbEntity
  8
0
100
AcDbPolyline
 62
7
  6
CONTINUOUS
 90
5
 70
0
 10
13.399389103
 20
8.5155866896
 10
13.3584006958
 20
8.5179405854
 10
13.3210357977
 20
8.5105491396
 10
13.2883763453
 20
8.4936176808
 10
13.2845796698
 20
8.4899653816
  0
LWPOLYLINE
  5
546
100
AcDbEntity
  8
0
100
AcDbPolyline
 62
7
  6
CONTINUOUS
 90
5
 70
0
 10
13.4564565316
 20
8.5481605753
 10
13.4154323954
 20
8.5506291951
 10
13.3780183357
 20
8.5433517691
 10
13.3452977427
 20
8.5265302545
 10
13.3413007317
 20
8.5227105073
  0
LWPOLYLINE
  5
547
100
AcDbEntity
  8
0
100
AcDbPolyline
 62
7
  6
CONTINUOUS
 90
5
 70
0
 10
13.513524296
 20
8.5807331207
 10
13.4724645959
 20
8.5833164525
 10
13.4350015248
 20
8.5761530743
 10
13.4022199223
 20
8.5594415711
 10
13.3980216337
 20
8.5554558755
  0
LWPOLYLINE
  5
548
100
AcDbEntity
  8
0
100
AcDbPolyline
 62
7
  6
CONTINUOUS
 90
5
 70
0
 10
13.5064937334
 20
8.5595453643
 10
13.4640913021
 20
8.5669295726
 10
13.4247080738
 20
8.5645752976
 10
13.3894856654
 20
8.5525389222
 10
13.3728105695
 20
8.5406744792
  0
LWPOLYLINE
  5
549
100
AcDbEntity
  8
0
100
AcDbPolyline
 62
7
  6
CONTINUOUS
 90
5
 70
0
 10
13.5635740157
 20
8.5920607071
 10
13.5211432502
 20
8.5995586687
 10
13.4817176563
 20
8.5973192026
 10
13.4464401037
 20
8.5853952969
 10
13.4290908836
 20
8.57313993
  0
LWPOLYLINE
  5
54A
100
AcDbEntity
  8
0
100
AcDbPolyline
 62
7
  6
CONTINUOUS
 90
5
 70
0
 10
13.6206545441
 20
8.6245747315
 10
13.5781956152
 20
8.6321864137
 10
13.5387278143
 20
8.6300617638
 10
13.5033952591
 20
8.618250375
 10
13.4853692199
 20
8.6056086846
  0
LWPOLYLINE
  5
54B
100
AcDbEntity
  8
0
100
AcDbPolyline
 62
7
  6
CONTINUOUS
 90
3
 70
0
 10
13.7728818818
 20
8.6440270214
 10
13.7282568676
 20
8.6658666571
 10
13.6847295838
 20
8.6784427188
  0
LINE
  5
54C
100
AcDbEntity
  8
0
100
AcDbLine
 62
7
  6
CONTINUOUS
 10
13.8237468537
 20
8.6459794011
 11
13.7790598636
 21
8.6722708077
  0
LWPOLYLINE
  5
54D
100
AcDbEntity
  8
0
100
AcDbPolyline
 62
7
  6
CONTINUOUS
 90
4
 70
0
 10
13.874392617
 20
8.6458363896
 10
13.8299765566
 20
8.6763768542
 10
13.7853463188
 20
8.6983220719
 10
13.7417986711
 20
8.7110099068
  0
LINE
  5
54E
100
AcDbEntity
  8
0
100
AcDbLine
 62
7
  6
CONTINUOUS
 10
13.8675788557
 20
8.6115152568
 11
13.8237468537
 21
8.6459794011
  0
LWPOLYLINE
  5
54F
100
AcDbEntity
  8
0
100
AcDbPolyline
 62
7
  6
CONTINUOUS
 90
7
 70
0
 10
14.1458649061
 20
8.4233119075
 10
14.1237838934
 20
8.4795238168
 10
14.0954365044
 20
8.534482868
 10
14.061638034
 20
8.5865507297
 10
14.0233649621
 20
8.634174561
 10
13.981726079
 20
8.6759329275
 10
13.9379296999
 20
8.7105778329
  0
LWPOLYLINE
  5
550
100
AcDbEntity
  8
0
100
AcDbPolyline
 62
7
  6
CONTINUOUS
 90
11
 70
0
 10
14.1275052252
 20
8.182807053
 10
14.1383358678
 20
8.2245812007
 10
14.1417364925
 20
8.272217566
 10
14.1375836281
 20
8.3242943442
 10
14.1259771546
 20
8.3792584305
 10
14.1072373501
 20
8.4354713447
 10
14.0818954202
 20
8.4912576794
 10
14.0506777906
 20
8.544954641
 10
14.0144846274
 20
8.5949612171
 10
13.9743632197
 20
8.6397855176
 10
13.9314770119
 20
8.6780888883
  0
LWPOLYLINE
  5
551
100
AcDbEntity
  8
0
100
AcDbPolyline
 62
7
  6
CONTINUOUS
 90
5
 70
0
 10
14.1839030505
 20
8.2150151907
 10
14.1948194858
 20
8.2567125623
 10
14.1983086771
 20
8.3042879249
 10
14.1942445342
 20
8.3563212774
 10
14.1827243138
 20
8.4112607993
  0
LWPOLYLINE
  5
552
100
AcDbEntity
  8
0
100
AcDbPolyline
 62
7
  6
CONTINUOUS
 90
3
 70
0
 10
14.0348656112
 20
8.1161406463
 10
14.0491706962
 20
8.154628626
 10
14.0561843413
 20
8.1996050748
  0
LWPOLYLINE
  5
553
100
AcDbEntity
  8
0
100
AcDbPolyline
 62
7
  6
CONTINUOUS
 90
12
 70
0
 10
14.0912238013
 20
8.1483908008
 10
14.1056124262
 20
8.1867951815
 10
14.1127136237
 20
8.2317027638
 10
14.1122944991
 20
8.2817724311
 10
14.1043445284
 20
8.3355104276
 10
14.0890758696
 20
8.3913145275
 10
14.0669170889
 20
8.447521412
 10
14.0385004885
 20
8.502455852
 10
14.0046434101
 20
8.5544802437
 10
13.9663240664
 20
8.6020430317
 10
13.924652616
 20
8.6437245866
 10
13.8808383371
 20
8.6782791832
  0
LWPOLYLINE
  5
554
100
AcDbEntity
  8
0
100
AcDbPolyline
 62
7
  6
CONTINUOUS
 90
6
 70
0
 10
14.1475810425
 20
8.1806420171
 10
14.1620531451
 20
8.2189626393
 10
14.1692418626
 20
8.2638011691
 10
14.1689117124
 20
8.3138185317
 10
14.1610495397
 20
8.3675225178
 10
14.1458649061
 20
8.4233119075
  0
LINE
  5
555
100
AcDbEntity
  8
0
100
AcDbLine
 62
7
  6
CONTINUOUS
 10
13.9969503294
 20
8.0835501429
 11
14.0147066241
 21
8.1183937355
  0
LINE
  5
556
100
AcDbEntity
  8
0
100
AcDbLine
 62
7
  6
CONTINUOUS
 10
14.0532694867
 20
8.1158462999
 11
14.0711064167
 21
8.1505999019
  0
LINE
  5
557
100
AcDbEntity
  8
0
100
AcDbLine
 62
7
  6
CONTINUOUS
 10
14.1095877364
 20
8.1481435861
 11
14.1275052252
 21
8.182807053
  0
LWPOLYLINE
  5
558
100
AcDbEntity
  8
0
100
AcDbPolyline
 62
7
  6
CONTINUOUS
 90
3
 70
0
 10
13.5928563874
 20
7.8358861015
 10
13.6197229213
 20
7.858903531
 10
13.6403316356
 20
7.8904191493
  0
LINE
  5
559
100
AcDbEntity
  8
0
100
AcDbLine
 62
9
  6
CONTINUOUS
 10
15.0224820294
 20
8.8824096
 11
15.0035142169
 21
8.8714585937
  0
LINE
  5
55A
100
AcDbEntity
  8
0
100
AcDbLine
 62
7
  6
CONTINUOUS
 10
15.0554693041
 20
8.8532516495
 11
15.015913599
 21
8.8304142888
  0
LWPOLYLINE
  5
55B
100
AcDbEntity
  8
0
100
AcDbPolyline
 62
7
  6
CONTINUOUS
 90
5
 70
0
 10
13.5705923942
 20
8.6133043261
 10
13.5294972954
 20
8.6160023575
 10
13.4919853636
 20
8.6089530548
 10
13.4591428829
 20
8.5923516297
 10
13.4547423779
 20
8.5882014875
  0
LINE
  5
55C
100
AcDbEntity
  8
0
100
AcDbLine
 62
7
  6
CONTINUOUS
 10
13.6276608241
 20
8.645874192
 11
13.5865304921
 21
8.6486869101
  0
LWPOLYLINE
  5
55D
100
AcDbEntity
  8
0
100
AcDbPolyline
 62
7
  6
CONTINUOUS
 90
5
 70
0
 10
13.6847295838
 20
8.6784427188
 10
13.643564184
 20
8.6813701101
 10
13.605954983
 20
8.674549039
 10
13.5729911409
 20
8.6581679685
 10
13.5681834006
 20
8.6536934481
  0
LINE
  5
55E
100
AcDbEntity
  8
0
100
AcDbLine
 62
7
  6
CONTINUOUS
 10
13.6777353165
 20
8.657087438
 11
13.6352483953
 21
8.6648128078
  0
LWPOLYLINE
  5
55F
100
AcDbEntity
  8
0
100
AcDbPolyline
 62
7
  6
CONTINUOUS
 90
5
 70
0
 10
13.7348163309
 20
8.6895988273
 10
13.6923015884
 20
8.6974378512
 10
13.6527498498
 20
8.695542854
 10
13.617307715
 20
8.6839566382
 10
13.5979199952
 20
8.6705561276
  0
LINE
  5
560
100
AcDbEntity
  8
0
100
AcDbLine
 62
7
  6
CONTINUOUS
 10
13.7790598636
 20
8.6722708077
 11
13.7348163309
 21
8.6895988273
  0
LWPOLYLINE
  5
561
100
AcDbEntity
  8
0
100
AcDbPolyline
 62
7
  6
CONTINUOUS
 90
3
 70
0
 10
13.8808383371
 20
8.6782791832
 10
13.8361538699
 20
8.7046718354
 10
13.7918975851
 20
8.7221088999
  0
LWPOLYLINE
  5
562
100
AcDbEntity
  8
0
100
AcDbPolyline
 62
7
  6
CONTINUOUS
 90
3
 70
0
 10
13.9379296999
 20
8.7105778329
 10
13.8932479356
 20
8.7370716205
 10
13.8489790771
 20
8.7546176566
  0
LWPOLYLINE
  5
563
100
AcDbEntity
  8
0
100
AcDbPolyline
 62
7
  6
CONTINUOUS
 90
4
 70
0
 10
13.9314770119
 20
8.6780888883
 10
13.8870712017
 20
8.7087254945
 10
13.8424359203
 20
8.7307762022
 10
13.7988680842
 20
8.7435757565
  0
LWPOLYLINE
  5
564
100
AcDbEntity
  8
0
100
AcDbPolyline
 62
7
  6
CONTINUOUS
 90
4
 70
0
 10
13.988561196
 20
8.7103403232
 10
13.9441658149
 20
8.7410729434
 10
13.8995256698
 20
8.7632290489
 10
13.8559378209
 20
8.7761402681
  0
LWPOLYLINE
  5
565
100
AcDbEntity
  8
0
100
AcDbPolyline
 62
7
  6
CONTINUOUS
 90
7
 70
0
 10
14.1827243138
 20
8.4112607993
 10
14.1640657435
 20
8.4674687365
 10
14.1387976268
 20
8.5232698289
 10
14.1076442069
 20
8.5770008466
 10
14.0715037511
 20
8.6270597701
 10
14.0314219901
 20
8.6719531613
 10
13.988561196
 20
8.7103403232
  0
LWPOLYLINE
  5
566
100
AcDbEntity
  8
0
100
AcDbPolyline
 62
7
  6
CONTINUOUS
 90
8
 70
0
 10
14.2177535349
 20
8.3995348974
 10
14.2026529857
 20
8.4553093462
 10
14.1806498285
 20
8.5115260477
 10
14.1523717639
 20
8.5665094829
 10
14.1186320371
 20
8.6186205991
 10
14.0804053907
 20
8.6663052764
 10
14.0387992425
 20
8.7081402815
 10
13.9950209397
 20
8.7428753515
  0
LWPOLYLINE
  5
567
100
AcDbEntity
  8
0
100
AcDbPolyline
 62
7
  6
CONTINUOUS
 90
9
 70
0
 10
14.2548798137
 20
8.3363589024
 10
14.2509044059
 20
8.388348614
 10
14.2394704826
 20
8.4432633441
 10
14.2208932198
 20
8.4994660719
 10
14.1956990168
 20
8.5552816913
 10
14.1646099311
 20
8.6090465427
 10
14.1285223279
 20
8.6591576063
 10
14.0884803749
 20
8.7041199022
 10
14.0456451671
 20
8.742590696
  0
LWPOLYLINE
  5
568
100
AcDbEntity
  8
0
100
AcDbPolyline
 62
7
  6
CONTINUOUS
 90
8
 70
0
 10
14.2749315517
 20
8.28330027
 10
14.2822952109
 20
8.3280001377
 10
14.2821430036
 20
8.3779122699
 10
14.2744565136
 20
8.4315475691
 10
14.2594401076
 20
8.4873068461
 10
14.237514893
 20
8.5435281076
 10
14.2093062657
 20
8.5985356992
 10
14.1756254176
 20
8.6506898543
  0
LWPOLYLINE
  5
569
100
AcDbEntity
  8
0
100
AcDbPolyline
 62
7
  6
CONTINUOUS
 90
3
 70
0
 10
14.2402998931
 20
8.2472243169
 10
14.2513020733
 20
8.2888447396
 10
14.2548798137
 20
8.3363589024
  0
LWPOLYLINE
  5
56A
100
AcDbEntity
  8
0
100
AcDbPolyline
 62
7
  6
CONTINUOUS
 90
8
 70
0
 10
14.296695754
 20
8.2794344335
 10
14.3077836307
 20
8.3209777346
 10
14.3114499023
 20
8.3684305009
 10
14.3075632427
 20
8.4203763563
 10
14.2962156603
 20
8.4752660676
 10
14.2777197781
 20
8.5314633536
 10
14.2525995889
 20
8.5872932691
 10
14.2215749619
 20
8.6410917318
  0
LWPOLYLINE
  5
56B
100
AcDbEntity
  8
0
100
AcDbPolyline
 62
7
  6
CONTINUOUS
 90
5
 70
0
 10
14.2039373357
 20
8.2128942968
 10
14.2184928534
 20
8.2511310015
 10
14.2257690582
 20
8.2959002929
 10
14.2255278806
 20
8.3458651438
 10
14.2177535349
 20
8.3995348974
  0
LINE
  5
56C
100
AcDbEntity
  8
0
100
AcDbLine
 62
7
  6
CONTINUOUS
 10
14.2602926817
 20
8.2451476416
 11
14.2749315517
 21
8.28330027
  0
LINE
  5
56D
100
AcDbEntity
  8
0
100
AcDbLine
 62
7
  6
CONTINUOUS
 10
14.1659050795
 20
8.1804420029
 11
14.1839030505
 21
8.2150151907
  0
LINE
  5
56E
100
AcDbEntity
  8
0
100
AcDbLine
 62
7
  6
CONTINUOUS
 10
14.222221517
 20
8.212741552
 11
14.2402998931
 21
8.2472243169
  0
LINE
  5
56F
100
AcDbEntity
  8
0
100
AcDbLine
 62
7
  6
CONTINUOUS
 10
14.0699961276
 20
8.1176384433
 11
14.0912238013
 21
8.1483908008
  0
LINE
  5
570
100
AcDbEntity
  8
0
100
AcDbLine
 62
7
  6
CONTINUOUS
 10
13.81772419
 20
7.9656631515
 11
13.8448664323
 21
7.9882615115
  0
LINE
  5
571
100
AcDbEntity
  8
0
100
AcDbLine
 62
7
  6
CONTINUOUS
 10
14.0425800095
 20
8.0954606656
 11
14.0699961276
 21
8.1176384433
  0
LWPOLYLINE
  5
572
100
AcDbEntity
  8
0
100
AcDbPolyline
 62
7
  6
CONTINUOUS
 90
3
 70
0
 10
13.3244734044
 20
7.6815696832
 10
13.3538833823
 20
7.7005476747
 10
13.3773793912
 20
7.7283665039
  0
LINE
  5
573
100
AcDbEntity
  8
0
100
AcDbLine
 62
7
  6
CONTINUOUS
 10
13.5492312977
 20
7.8115432903
 11
13.5788988608
 21
7.8300889648
  0
LWPOLYLINE
  5
574
100
AcDbEntity
  8
0
100
AcDbPolyline
 62
7
  6
CONTINUOUS
 90
3
 70
0
 10
13.843146597
 20
7.9818348074
 10
13.8601498758
 20
7.992043289
 10
13.8843092874
 20
8.0189612102
  0
LINE
  5
575
100
AcDbEntity
  8
AXIS_COSMETIC_THREADS
100
AcDbLine
 62
7
  6
CONTINUOUS
 10
13.2885038586
 20
7.761769999
 11
13.2770767361
 21
7.7551725862
  0
LINE
  5
576
100
AcDbEntity
  8
AXIS_COSMETIC_THREADS
100
AcDbLine
 62
7
  6
CONTINUOUS
 10
13.241511488
 20
7.7008323658
 11
13.2267997873
 21
7.6923386121
  0
LINE
  5
577
100
AcDbEntity
  8
0
100
AcDbLine
 62
7
  6
CONTINUOUS
 10
14.9888402419
 20
8.6836663471
 11
14.9219834622
 21
8.6450667977
  0
LINE
  5
578
100
AcDbEntity
  8
AXIS
100
AcDbLine
 62
7
  6
CONTINUOUS
 10
14.4667840686
 20
8.379372127
 11
14.9052363718
 21
8.6325111712
  0
LWPOLYLINE
  5
579
100
AcDbEntity
  8
0
100
AcDbPolyline
 62
7
  6
CONTINUOUS
 90
4
 70
0
 10
14.1993639705
 20
8.1882901488
 10
14.2112140675
 20
8.192822265
 10
14.2388343789
 20
8.2146836297
 10
14.2602926817
 20
8.2451476416
  0
LWPOLYLINE
  5
57A
100
AcDbEntity
  8
0
100
AcDbPolyline
 62
7
  6
CONTINUOUS
 90
3
 70
0
 10
14.2557933519
 20
8.2208776233
 10
14.2674239412
 20
8.2252787006
 10
14.2951120845
 20
8.2470344107
  0
LINE
  5
57B
100
AcDbEntity
  8
0
100
AcDbLine
 62
7
  6
CONTINUOUS
 10
14.3122229581
 20
8.2534648077
 11
14.3236330779
 21
8.2577364222
  0
LWPOLYLINE
  5
57C
100
AcDbEntity
  8
0
100
AcDbPolyline
 62
7
  6
CONTINUOUS
 90
15
 70
0
 10
14.3686527873
 20
8.2860517003
 10
14.3798414792
 20
8.2901954307
 10
14.4076649355
 20
8.3117395587
 10
14.4293530463
 20
8.3419140835
 10
14.4442415923
 20
8.3798135344
 10
14.4518674126
 20
8.4243040204
 10
14.4519820998
 20
8.474056758
 10
14.4445593455
 20
8.5275873629
 10
14.4297957182
 20
8.5832997417
 10
14.4081048507
 20
8.6395332876
 10
14.3801052094
 20
8.6946119832
 10
14.3466018067
 20
8.7468939593
 10
14.3085623974
 20
8.7948200438
 10
14.2670888627
 20
8.8369598648
 10
14.2233846286
 20
8.8720541467
  0
LWPOLYLINE
  5
57D
100
AcDbEntity
  8
0
100
AcDbPolyline
 62
7
  6
CONTINUOUS
 90
4
 70
0
 10
13.5865304921
 20
8.6486869101
 10
13.5489698502
 20
8.6417517099
 10
13.5160666229
 20
8.6252604292
 10
13.5114629662
 20
8.6209473446
  0
LWPOLYLINE
  5
57E
100
AcDbEntity
  8
0
100
AcDbPolyline
 62
7
  6
CONTINUOUS
 90
4
 70
0
 10
13.6352483953
 20
8.6648128078
 10
13.5957385461
 20
8.6628029811
 10
13.5603511301
 20
8.6511041557
 10
13.5416455875
 20
8.6380807486
  0
LWPOLYLINE
  5
57F
100
AcDbEntity
  8
0
100
AcDbPolyline
 62
7
  6
CONTINUOUS
 90
5
 70
0
 10
13.7417986711
 20
8.7110099068
 10
13.7005983694
 20
8.7140519576
 10
13.6629407604
 20
8.7073450417
 10
13.6299164356
 20
8.6910742468
 10
13.6249036832
 20
8.6864397992
  0
LWPOLYLINE
  5
580
100
AcDbEntity
  8
0
100
AcDbPolyline
 62
7
  6
CONTINUOUS
 90
4
 70
0
 10
13.7988680842
 20
8.7435757565
 10
13.7576330464
 20
8.7467324523
 10
13.7199271806
 20
8.7401397174
 10
13.6868425054
 20
8.723979263
  0
LWPOLYLINE
  5
581
100
AcDbEntity
  8
0
100
AcDbPolyline
 62
7
  6
CONTINUOUS
 90
3
 70
0
 10
13.7918975851
 20
8.7221088999
 10
13.7493551926
 20
8.7300615439
 10
13.7097617238
 20
8.7282813822
  0
LWPOLYLINE
  5
582
100
AcDbEntity
  8
0
100
AcDbPolyline
 62
7
  6
CONTINUOUS
 90
3
 70
0
 10
13.8489790771
 20
8.7546176566
 10
13.806409206
 20
8.7626838862
 10
13.7667741662
 20
8.7610185655
  0
LWPOLYLINE
  5
583
100
AcDbEntity
  8
0
100
AcDbPolyline
 62
7
  6
CONTINUOUS
 90
3
 70
0
 10
13.9950209397
 20
8.7428753515
 10
13.9503420586
 20
8.769470164
 10
13.9060608048
 20
8.787125098
  0
LWPOLYLINE
  5
584
100
AcDbEntity
  8
0
100
AcDbPolyline
 62
7
  6
CONTINUOUS
 90
3
 70
0
 10
14.0521120546
 20
8.7751717408
 10
14.0074362368
 20
8.8018674672
 10
13.9631427662
 20
8.8196312246
  0
LWPOLYLINE
  5
585
100
AcDbEntity
  8
0
100
AcDbPolyline
 62
7
  6
CONTINUOUS
 90
4
 70
0
 10
14.0456451671
 20
8.742590696
 10
14.0012603942
 20
8.7734192023
 10
13.9566155653
 20
8.7956806129
 10
13.9130078793
 20
8.8087034423
  0
LWPOLYLINE
  5
586
100
AcDbEntity
  8
0
100
AcDbPolyline
 62
7
  6
CONTINUOUS
 90
4
 70
0
 10
14.1027289233
 20
8.7748400085
 10
14.0583549374
 20
8.8057642726
 10
14.0137056048
 20
8.828130895
 10
13.9700782574
 20
8.8412652793
  0
LWPOLYLINE
  5
587
100
AcDbEntity
  8
0
100
AcDbPolyline
 62
7
  6
CONTINUOUS
 90
4
 70
0
 10
14.1756254176
 20
8.6506898543
 10
14.1374453505
 20
8.6984351802
 10
14.0958721047
 20
8.7403466503
 10
14.0521120546
 20
8.7751717408
  0
LWPOLYLINE
  5
588
100
AcDbEntity
  8
0
100
AcDbPolyline
 62
7
  6
CONTINUOUS
 90
4
 70
0
 10
14.2215749619
 20
8.6410917318
 10
14.1855403561
 20
8.6912547281
 10
14.1455383721
 20
8.7362857425
 10
14.1027289233
 20
8.7748400085
  0
LWPOLYLINE
  5
589
100
AcDbEntity
  8
0
100
AcDbPolyline
 62
7
  6
CONTINUOUS
 90
5
 70
0
 10
14.2662400081
 20
8.6305615196
 10
14.2326181738
 20
8.6827584978
 10
14.1944848395
 20
8.7305642746
 10
14.1529446635
 20
8.7725520359
 10
14.1092030425
 20
8.807467002
  0
LWPOLYLINE
  5
58A
100
AcDbEntity
  8
0
100
AcDbPolyline
 62
7
  6
CONTINUOUS
 90
7
 70
0
 10
14.3530906337
 20
8.3116455423
 10
14.3642641583
 20
8.3531115496
 10
14.3680189429
 20
8.4005027228
 10
14.3642210442
 20
8.4524045072
 10
14.3529598461
 20
8.5072689725
 10
14.3345454172
 20
8.5634605843
 10
14.3094993418
 20
8.619304565
  0
LWPOLYLINE
  5
58B
100
AcDbEntity
  8
0
100
AcDbPolyline
 62
7
  6
CONTINUOUS
 90
11
 70
0
 10
14.4094845332
 20
8.3438576451
 10
14.4207436565
 20
8.3852461867
 10
14.4245869356
 20
8.4325755705
 10
14.4208778102
 20
8.484433069
 10
14.4097030395
 20
8.5392720616
 10
14.3913701361
 20
8.5954577667
 10
14.366398274
 20
8.6513155817
 10
14.3355029364
 20
8.7051805993
 10
14.2995747591
 20
8.7554468379
 10
14.259653196
 20
8.800614729
 10
14.2168957823
 20
8.8393354591
  0
LWPOLYLINE
  5
58C
100
AcDbEntity
  8
0
100
AcDbPolyline
 62
7
  6
CONTINUOUS
 90
8
 70
0
 10
14.3166470816
 20
8.2774020532
 10
14.3313692406
 20
8.315470447
 10
14.3388203206
 20
8.3601007056
 10
14.3387570813
 20
8.4099599126
 10
14.3311584753
 20
8.4635605354
 10
14.3162262709
 20
8.5193044102
 10
14.2943790856
 20
8.575529999
 10
14.2662400081
 20
8.6305615196
  0
LWPOLYLINE
  5
58D
100
AcDbEntity
  8
0
100
AcDbPolyline
 62
7
  6
CONTINUOUS
 90
12
 70
0
 10
14.3730005361
 20
8.3096575332
 10
14.3878059206
 20
8.3476415345
 10
14.3953443878
 20
8.3922019991
 10
14.3953701134
 20
8.4420080745
 10
14.3878594194
 20
8.4955737991
 10
14.3730114747
 20
8.5513020412
 10
14.3512424052
 20
8.6075317248
 10
14.3231729898
 20
8.6625869467
 10
14.2896103041
 20
8.714826532
 10
14.2515238557
 20
8.7626925617
 10
14.2100169169
 20
8.8047564401
 10
14.1662939012
 20
8.8397611368
  0
LINE
  5
58E
100
AcDbEntity
  8
0
100
AcDbLine
 62
7
  6
CONTINUOUS
 10
14.2785370501
 20
8.2450422346
 11
14.296695754
 21
8.2794344335
  0
LINE
  5
58F
100
AcDbEntity
  8
0
100
AcDbLine
 62
7
  6
CONTINUOUS
 10
14.3348516798
 20
8.2773440525
 11
14.3530906337
 21
8.3116455423
  0
LINE
  5
590
100
AcDbEntity
  8
0
100
AcDbLine
 62
7
  6
CONTINUOUS
 10
14.3911654071
 20
8.309647007
 11
14.4094845332
 21
8.3438576451
  0
LINE
  5
591
100
AcDbEntity
  8
0
100
AcDbLine
 62
7
  6
CONTINUOUS
 10
14.2951120845
 20
8.2470344107
 11
14.3166470816
 21
8.2774020532
  0
LINE
  5
592
100
AcDbEntity
  8
0
100
AcDbLine
 62
7
  6
CONTINUOUS
 10
14.3101095265
 20
8.2512345822
 11
14.3348516798
 21
8.2773440525
  0
LWPOLYLINE
  5
593
100
AcDbEntity
  8
0
100
AcDbPolyline
 62
7
  6
CONTINUOUS
 90
3
 70
0
 10
14.3236330779
 20
8.2577364222
 10
14.3513889362
 20
8.2793863866
 10
14.3730005361
 20
8.3096575332
  0
LWPOLYLINE
  5
594
100
AcDbEntity
  8
AXIS
100
AcDbPolyline
 62
7
  6
CONTINUOUS
 90
14
 70
0
 10
14.9052176799
 20
8.6325061738
 10
14.9262906855
 20
8.6482936922
 10
14.948787619
 20
8.6772601535
 10
14.9642251821
 20
8.7143612082
 10
14.9720776671
 20
8.7583334244
 10
14.9720776671
 20
8.8076793812
 10
14.9642251821
 20
8.860718661
 10
14.948787619
 20
8.9156450749
 10
14.9262906855
 20
8.9705881696
 10
14.8975004877
 20
9.0236769241
 10
14.8633974413
 20
9.0731034644
 10
14.8251428846
 20
9.117184629
 10
14.7840395307
 20
9.1544192866
 10
14.7414871049
 20
9.1835394558
  0
LWPOLYLINE
  5
595
100
AcDbEntity
  8
0
100
AcDbPolyline
 62
7
  6
CONTINUOUS
 90
3
 70
0
 10
14.0548963281
 20
8.1040605595
 10
14.085136126
 20
8.1216290054
 10
14.1095877364
 20
8.1481435861
  0
LWPOLYLINE
  5
596
100
AcDbEntity
  8
AXIS_COSMETIC_THREADS
100
AcDbPolyline
 62
7
  6
CONTINUOUS
 90
7
 70
0
 10
13.2268051373
 20
7.6923432864
 10
13.2105097506
 20
7.684771215
 10
13.1866626372
 20
7.6791086627
 10
13.1607468397
 20
7.6785698345
 10
13.1332448577
 20
7.6831647625
 10
13.1046687227
 20
7.6928078984
 10
13.0755504644
 20
7.7073197065
  0
LWPOLYLINE
  5
597
100
AcDbEntity
  8
0
100
AcDbPolyline
 62
7
  6
CONTINUOUS
 90
4
 70
0
 10
13.4642230045
 20
7.7639377225
 10
13.4804179627
 20
7.7710052325
 10
13.5071459609
 20
7.7942316209
 10
13.5275990516
 20
7.8259367509
  0
LWPOLYLINE
  5
598
100
AcDbEntity
  8
0
100
AcDbPolyline
 62
7
  6
CONTINUOUS
 90
3
 70
0
 10
13.5211141459
 20
7.7967363987
 10
13.5366375532
 20
7.8034450297
 10
13.5634348758
 20
7.8265669871
  0
LINE
  5
599
100
AcDbEntity
  8
0
100
AcDbLine
 62
7
  6
CONTINUOUS
 10
13.5780071777
 20
7.8295315592
 11
13.5928563874
 21
7.8358861015
  0
LWPOLYLINE
  5
59A
100
AcDbEntity
  8
0
100
AcDbPolyline
 62
7
  6
CONTINUOUS
 90
4
 70
0
 10
13.6349020898
 20
7.8623231995
 10
13.6490744667
 20
7.8683284486
 10
13.6760100985
 20
7.8912412541
 10
13.6966964931
 20
7.9226619197
  0
LWPOLYLINE
  5
59B
100
AcDbEntity
  8
0
100
AcDbPolyline
 62
7
  6
CONTINUOUS
 90
4
 70
0
 10
13.6915099928
 20
7.8949901198
 10
13.7052917925
 20
7.900772072
 10
13.7322964086
 20
7.9235801576
 10
13.7530603955
 20
7.9549057397
  0
LWPOLYLINE
  5
59C
100
AcDbEntity
  8
0
100
AcDbPolyline
 62
7
  6
CONTINUOUS
 90
4
 70
0
 10
13.7479372595
 20
7.9275801239
 10
13.7615083665
 20
7.9332169727
 10
13.7885818528
 20
7.955920243
 10
13.8094233436
 20
7.9871506113
  0
LINE
  5
59D
100
AcDbEntity
  8
0
100
AcDbLine
 62
7
  6
CONTINUOUS
 10
13.804364769
 20
7.9601698543
 11
13.81772419
 21
7.9656631515
  0
LWPOLYLINE
  5
59E
100
AcDbEntity
  8
0
100
AcDbPolyline
 62
7
  6
CONTINUOUS
 90
4
 70
0
 10
13.8607925194
 20
7.9927593093
 10
13.8739392646
 20
7.9981106093
 10
13.9011501484
 20
8.0206039644
 10
13.9221463806
 20
8.0516435156
  0
LWPOLYLINE
  5
59F
100
AcDbEntity
  8
0
100
AcDbPolyline
 62
7
  6
CONTINUOUS
 90
4
 70
0
 10
13.9172205087
 20
8.0253484869
 10
13.9301535917
 20
8.030559347
 10
13.9574330021
 20
8.0529476032
 10
13.9785064713
 20
8.0838915518
  0
LWPOLYLINE
  5
5A0
100
AcDbEntity
  8
0
100
AcDbPolyline
 62
7
  6
CONTINUOUS
 90
4
 70
0
 10
13.9736487351
 20
8.0579373852
 10
13.9863671729
 20
8.0630093655
 10
14.0137149948
 20
8.0852924291
 10
14.0348656112
 20
8.1161406463
  0
LINE
  5
5A1
100
AcDbEntity
  8
0
100
AcDbLine
 62
7
  6
CONTINUOUS
 10
14.0300771964
 20
8.0905260023
 11
14.0425800095
 21
8.0954606656
  0
LWPOLYLINE
  5
5A2
100
AcDbEntity
  8
0
100
AcDbPolyline
 62
7
  6
CONTINUOUS
 90
4
 70
0
 10
14.0865058908
 20
8.1231143365
 10
14.0987921032
 20
8.1279132484
 10
14.1262764017
 20
8.1499856473
 10
14.1475810425
 20
8.1806420171
  0
LWPOLYLINE
  5
5A3
100
AcDbEntity
  8
0
100
AcDbPolyline
 62
7
  6
CONTINUOUS
 90
4
 70
0
 10
14.1429348161
 20
8.1557023859
 10
14.1550034553
 20
8.1603671145
 10
14.1825558184
 20
8.1823340424
 10
14.2039373357
 20
8.2128942968
  0
LWPOLYLINE
  5
5A4
100
AcDbEntity
  8
0
100
AcDbPolyline
 62
7
  6
CONTINUOUS
 90
3
 70
0
 10
13.8559378209
 20
8.7761402681
 10
13.814668213
 20
8.7794115944
 10
13.776914242
 20
8.7729330656
  0
LWPOLYLINE
  5
5A5
100
AcDbEntity
  8
0
100
AcDbPolyline
 62
7
  6
CONTINUOUS
 90
5
 70
0
 10
13.9130078793
 20
8.8087034423
 10
13.8717038675
 20
8.8120893836
 10
13.833901943
 20
8.8057250857
 10
13.8006969649
 20
8.7897855053
 10
13.7950636399
 20
8.7846803505
  0
LWPOLYLINE
  5
5A6
100
AcDbEntity
  8
0
100
AcDbPolyline
 62
7
  6
CONTINUOUS
 90
5
 70
0
 10
13.9700782574
 20
8.8412652793
 10
13.9287400078
 20
8.84476582
 10
13.8908902818
 20
8.8385157773
 10
13.8576253516
 20
8.8226867294
 10
13.8517833353
 20
8.8174277043
  0
LWPOLYLINE
  5
5A7
100
AcDbEntity
  8
0
100
AcDbPolyline
 62
7
  6
CONTINUOUS
 90
5
 70
0
 10
13.9060608048
 20
8.787125098
 10
13.8634636266
 20
8.7953048783
 10
13.8237871753
 20
8.7937544034
 10
13.7881817382
 20
8.7825062888
 10
13.7667315505
 20
8.7680022094
  0
LWPOLYLINE
  5
5A8
100
AcDbEntity
  8
0
100
AcDbPolyline
 62
7
  6
CONTINUOUS
 90
5
 70
0
 10
13.9631427662
 20
8.8196312246
 10
13.9205184525
 20
8.8279245202
 10
13.8808007492
 20
8.8264888959
 10
13.8451411636
 20
8.8153535709
 10
13.82299821
 20
8.8004909028
  0
LWPOLYLINE
  5
5A9
100
AcDbEntity
  8
0
100
AcDbPolyline
 62
7
  6
CONTINUOUS
 90
3
 70
0
 10
14.0202249592
 20
8.8521360373
 10
13.9775736817
 20
8.8605428123
 10
13.9378148862
 20
8.8592220425
  0
LWPOLYLINE
  5
5AA
100
AcDbEntity
  8
0
100
AcDbPolyline
 62
7
  6
CONTINUOUS
 90
3
 70
0
 10
14.1092030425
 20
8.807467002
 10
14.064530468
 20
8.834263531
 10
14.0202249592
 20
8.8521360373
  0
LWPOLYLINE
  5
5AB
100
AcDbEntity
  8
0
100
AcDbPolyline
 62
7
  6
CONTINUOUS
 90
3
 70
0
 10
14.1662939012
 20
8.8397611368
 10
14.1216247501
 20
8.8666583566
 10
14.0773073818
 20
8.8846395366
  0
LWPOLYLINE
  5
5AC
100
AcDbEntity
  8
0
100
AcDbPolyline
 62
7
  6
CONTINUOUS
 90
4
 70
0
 10
14.1598124623
 20
8.8070882623
 10
14.1154494424
 20
8.8381081554
 10
14.070795786
 20
8.8605798961
 10
14.027148953
 20
8.8738257796
  0
LWPOLYLINE
  5
5AD
100
AcDbEntity
  8
0
100
AcDbPolyline
 62
7
  6
CONTINUOUS
 90
5
 70
0
 10
14.3094993418
 20
8.619304565
 10
14.2785392975
 20
8.6731364165
 10
14.2425578338
 20
8.7233511378
 10
14.2025959798
 20
8.768450684
 10
14.1598124623
 20
8.8070882623
  0
LWPOLYLINE
  5
5AE
100
AcDbEntity
  8
0
100
AcDbPolyline
 62
7
  6
CONTINUOUS
 90
4
 70
0
 10
13.3504464334
 20
7.6983298428
 10
13.3679765069
 20
7.7061294578
 10
13.3945655179
 20
7.7295644166
 10
13.4148626367
 20
7.7614585305
  0
LWPOLYLINE
  5
5AF
100
AcDbEntity
  8
0
100
AcDbPolyline
 62
7
  6
CONTINUOUS
 90
4
 70
0
 10
13.4073337636
 20
7.7311355356
 10
13.4241976144
 20
7.7385667088
 10
13.4508561753
 20
7.7618974312
 10
13.4712313235
 20
7.7936971193
  0
LWPOLYLINE
  5
5B0
100
AcDbEntity
  8
0
100
AcDbPolyline
 62
7
  6
CONTINUOUS
 90
3
 70
0
 10
13.2914377727
 20
7.6646184606
 10
13.3057556745
 20
7.6700626748
 10
13.3331695739
 20
7.6915254945
  0
LWPOLYLINE
  5
5B1
100
AcDbEntity
  8
0
100
AcDbPolyline
 62
7
  6
CONTINUOUS
 90
3
 70
0
 10
14.091685342
 20
8.9257753475
 10
14.0518448422
 20
8.9246842971
 10
14.0160236705
 20
8.9138876021
  0
LWPOLYLINE
  5
5B2
100
AcDbEntity
  8
0
100
AcDbPolyline
 62
7
  6
CONTINUOUS
 90
3
 70
0
 10
14.027148953
 20
8.8738257796
 10
13.9857766322
 20
8.8774409035
 10
13.9478792567
 20
8.8713051397
  0
LWPOLYLINE
  5
5B3
100
AcDbEntity
  8
0
100
AcDbPolyline
 62
7
  6
CONTINUOUS
 90
3
 70
0
 10
14.0842199642
 20
8.9063849437
 10
14.0428137387
 20
8.910114634
 10
14.004868866
 20
8.9040931726
  0
LWPOLYLINE
  5
5B4
100
AcDbEntity
  8
0
100
AcDbPolyline
 62
7
  6
CONTINUOUS
 90
5
 70
0
 10
14.0773073818
 20
8.8846395366
 10
14.0346293122
 20
8.8931597547
 10
13.9948295845
 20
8.891953843
 10
13.9590621313
 20
8.8810442283
 10
13.9355257955
 20
8.8654783204
  0
LWPOLYLINE
  5
5B5
100
AcDbEntity
  8
0
100
AcDbPolyline
 62
7
  6
CONTINUOUS
 90
6
 70
0
 10
14.1849765655
 20
8.925474059
 10
14.141291289
 20
8.9389427719
 10
14.0998513255
 20
8.9427870115
 10
14.0618591082
 20
8.9368798753
 10
14.0284151228
 20
8.9213828019
 10
14.0219415798
 20
8.915671292
  0
LWPOLYLINE
  5
5B6
100
AcDbEntity
  8
0
100
AcDbPolyline
 62
7
  6
CONTINUOUS
 90
4
 70
0
 10
14.2233846286
 20
8.8720541467
 10
14.1787190811
 20
8.8990519451
 10
14.1343900318
 20
8.9171417231
 10
14.091685342
 20
8.9257753475
  0
LWPOLYLINE
  5
5B7
100
AcDbEntity
  8
0
100
AcDbPolyline
 62
7
  6
CONTINUOUS
 90
4
 70
0
 10
14.2168957823
 20
8.8393354591
 10
14.1725439071
 20
8.8704508522
 10
14.127886107
 20
8.8930276172
 10
14.0842199642
 20
8.9063849437
  0
LWPOLYLINE
  5
5B8
100
AcDbEntity
  8
0
100
AcDbPolyline
 62
7
  6
CONTINUOUS
 90
6
 70
0
 10
15.0554693041
 20
8.8124265286
 10
15.0506772772
 20
8.7780378238
 10
15.0413896176
 20
8.7473982056
 10
15.0277924301
 20
8.7211216925
 10
15.0101581939
 20
8.6997348837
 10
14.9888402419
 20
8.6836663471
  0
LINE
  5
5B9
100
AcDbEntity
  8
0
100
AcDbLine
 62
7
  6
CONTINUOUS
 10
15.0224820294
 20
8.8824096
 11
15.0554693041
 21
8.8532516495
  0
LWPOLYLINE
  5
5BA
100
AcDbEntity
  8
0
100
AcDbPolyline
 62
7
  6
CONTINUOUS
 90
4
 70
0
 10
14.8527756954
 20
9.1763479612
 10
14.8585667144
 20
9.1534787805
 10
14.866861116
 20
9.1293571085
 10
14.8714335197
 20
9.1185204665
  0
LINE
  5
5BB
100
AcDbEntity
  8
0
100
AcDbLine
 62
7
  6
CONTINUOUS
 10
14.8440173085
 20
9.2194952161
 11
14.8527756954
 21
9.1763479612
  0
LWPOLYLINE
  5
5BC
100
AcDbEntity
  8
0
100
AcDbPolyline
 62
7
  6
CONTINUOUS
 90
3
 70
0
 10
15.0554693041
 20
8.8532516495
 10
15.0561502261
 20
8.8324459674
 10
15.0554693041
 20
8.8124265286
  0
LWPOLYLINE
  5
5BD
100
AcDbEntity
  8
0
100
AcDbPolyline
 62
7
  6
CONTINUOUS
 90
4
 70
0
 10
14.8440173085
 20
9.2194952161
 10
14.832237366
 20
9.2269950763
 10
14.8204417647
 20
9.2338051158
 10
14.8086618222
 20
9.2399072538
  0
LWPOLYLINE
  5
5BE
100
AcDbEntity
  8
0
100
AcDbPolyline
 62
7
  6
CONTINUOUS
 90
4
 70
0
 10
14.9817302185
 20
8.927481739
 10
14.9888295592
 20
8.9181027407
 10
15.0055723092
 20
8.8988590347
 10
15.0224820294
 20
8.8824096
  0
LWPOLYLINE
  5
5BF
100
AcDbEntity
  8
AXIS
100
AcDbPolyline
 62
7
  6
CONTINUOUS
 90
5
 70
0
 10
15.2460397852
 20
9.1123159133
 10
15.243646022
 20
9.09093361
 10
15.2366038493
 20
9.0735579856
 10
15.2253225324
 20
9.0611988481
 10
15.2219215273
 20
9.0589958059
  0
LWPOLYLINE
  5
5C0
100
AcDbEntity
  8
0
100
AcDbPolyline
 62
7
  6
CONTINUOUS
 90
9
 70
0
 10
8.2192732679
 20
8.1949528263
 10
8.2604831994
 20
8.1734520399
 10
8.3189774537
 20
8.154673966
 10
8.3798076087
 20
8.146078265
 10
8.4412146585
 20
8.147913496
 10
8.5014229152
 20
8.1601265901
 10
8.558691356
 20
8.1823643853
 10
8.6113639677
 20
8.2139838384
 10
8.6579176334
 20
8.2540706199
  0
LWPOLYLINE
  5
5C1
100
AcDbEntity
  8
0
100
AcDbPolyline
 62
7
  6
CONTINUOUS
 90
20
 70
0
 10
8.2109921877
 20
8.1987644239
 10
8.1631416104
 20
8.2362641841
 10
8.1227561935
 20
8.2806981876
 10
8.090391307
 20
8.331243934
 10
8.0668009876
 20
8.3870940399
 10
8.0531295134
 20
8.4459240823
 10
8.0496735067
 20
8.504389007
 10
8.0556662808
 20
8.5607867594
 10
8.0704078646
 20
8.6145592922
 10
8.0932666484
 20
8.6646954981
 10
8.1237435542
 20
8.710444727
 10
8.161073581
 20
8.7506730972
 10
8.2034182468
 20
8.783764588
 10
8.2498702992
 20
8.8094893664
 10
8.2996608477
 20
8.8275786629
 10
8.3515975739
 20
8.8376049102
 10
8.4032024443
 20
8.8393660996
 10
8.453665139
 20
8.8332730157
 10
8.5023089262
 20
8.8196245566
 10
8.5484397405
 20
8.798606628
  0
LWPOLYLINE
  5
5C2
100
AcDbEntity
  8
0
100
AcDbPolyline
 62
7
  6
CONTINUOUS
 90
9
 70
0
 10
8.0592871398
 20
8.6276296088
 10
8.0437375618
 20
8.5681955743
 10
8.0384829081
 20
8.5069862412
 10
8.0436751257
 20
8.4457715803
 10
8.059164073
 20
8.3863217161
 10
8.084501861
 20
8.3303557412
 10
8.1189558051
 20
8.2794920059
 10
8.1615296117
 20
8.2352013203
 10
8.2109921877
 20
8.1987644239
  0
LINE
  5
5C3
100
AcDbEntity
  8
0
100
AcDbLine
 62
7
  6
CONTINUOUS
 10
8.0846819998
 20
8.6835697101
 11
8.0592871398
 21
8.6276296088
  0
LINE
  5
5C4
100
AcDbEntity
  8
0
100
AcDbLine
 62
7
  6
CONTINUOUS
 10
8.1191878069
 20
8.734398276
 11
8.0846819998
 21
8.6835697101
  0
LINE
  5
5C5
100
AcDbEntity
  8
AXIS_COSMETIC_THREADS
100
AcDbLine
 62
7
  6
CONTINUOUS
 10
8.1147578519
 20
8.4054054924
 11
8.1147578519
 21
8.6081984903
  0
LINE
  5
5C6
100
AcDbEntity
  8
AXIS
100
AcDbLine
 62
7
  6
CENTER
 10
8.3997578519
 20
8.5068019914
 11
7.9722578519
 21
8.5068019914
  0
LINE
  5
5C7
100
AcDbEntity
  8
AXIS
100
AcDbLine
 62
7
  6
CENTER
 10
8.3997578519
 20
8.5068019914
 11
8.8272578519
 21
8.5068019914
  0
LINE
  5
5C8
100
AcDbEntity
  8
AXIS
100
AcDbLine
 62
7
  6
CENTER
 10
8.3997578519
 20
8.5068019914
 11
8.3997578519
 21
8.0793019914
  0
LINE
  5
5C9
100
AcDbEntity
  8
AXIS
100
AcDbLine
 62
7
  6
CENTER
 10
8.3997578519
 20
8.5068019914
 11
8.3997578519
 21
8.9343019914
  0
LINE
  5
5CA
100
AcDbEntity
  8
AXIS_COSMETIC_THREADS
100
AcDbLine
 62
7
  6
CONTINUOUS
 10
8.6847578519
 20
8.6081984903
 11
8.6847578519
 21
8.4054054924
  0
LWPOLYLINE
  5
5CB
100
AcDbEntity
  8
0
100
AcDbPolyline
 62
7
  6
CONTINUOUS
 90
20
 70
0
 10
8.592257522
 20
8.771755057
 10
8.6296650143
 20
8.7422792939
 10
8.6615298196
 20
8.7087967966
 10
8.6880819994
 20
8.6717304887
 10
8.7098113885
 20
8.6302222064
 10
8.726284747
 20
8.5832488248
 10
8.7360899868
 20
8.5300173059
 10
8.7370488406
 20
8.4728054439
 10
8.7284969918
 20
8.4167911279
 10
8.7110091705
 20
8.3635143762
 10
8.6849445203
 20
8.3136195029
 10
8.6506629149
 20
8.268151337
 10
8.609137181
 20
8.2287165798
 10
8.5616863613
 20
8.1966173086
 10
8.5098466769
 20
8.1727736091
 10
8.4535743136
 20
8.1573944408
 10
8.392920441
 20
8.1514428166
 10
8.3298041226
 20
8.156329989
 10
8.2684813519
 20
8.1723034366
 10
8.2109921877
 20
8.1987644239
  0
LWPOLYLINE
  5
5CC
100
AcDbEntity
  8
0
100
AcDbPolyline
 62
7
  6
CONTINUOUS
 90
18
 70
0
 10
8.7274992839
 20
8.354798134
 10
8.7485151986
 20
8.4125261617
 10
8.7594462092
 20
8.4729803331
 10
8.7599762272
 20
8.5344125146
 10
8.7500899264
 20
8.5950462914
 10
8.7300731856
 20
8.6531283363
 10
8.7005048226
 20
8.7069791092
 10
8.6622398562
 20
8.7550414248
 10
8.6163847821
 20
8.7959254806
 10
8.5642655767
 20
8.8284490455
 10
8.5073893543
 20
8.8516716459
 10
8.4474007865
 20
8.8649217614
 10
8.3860345432
 20
8.8678162428
 10
8.3250651324
 20
8.8602713911
 10
8.2662555869
 20
8.8425053786
 10
8.2113064835
 20
8.8150319391
 10
8.1618067677
 20
8.7786455134
 10
8.1191878069
 20
8.734398276
  0
LINE
  5
5CD
100
AcDbEntity
  8
0
100
AcDbLine
 62
7
  6
CONTINUOUS
 10
8.6970061758
 20
8.3014655531
 11
8.7274992839
 21
8.354798134
  0
LINE
  5
5CE
100
AcDbEntity
  8
0
100
AcDbLine
 62
7
  6
CONTINUOUS
 10
8.6579176334
 20
8.2540706199
 11
8.6970061758
 21
8.3014655531
  0
LINE
  5
5CF
100
AcDbEntity
  8
AXIS
100
AcDbLine
 62
7
  6
CONTINUOUS
 10
8.5162578519
 20
3.5937271654
 11
8.2832578519
 21
3.5937271654
  0
LINE
  5
5D0
100
AcDbEntity
  8
0
100
AcDbLine
 62
7
  6
CONTINUOUS
 10
8.0495676639
 20
6.5467744095
 11
8.0386510161
 21
6.5404686537
  0
LINE
  5
5D1
100
AcDbEntity
  8
0
100
AcDbLine
 62
7
  6
CONTINUOUS
 10
8.0724433206
 20
6.5199886716
 11
8.0386510161
 21
6.5004686537
  0
LINE
  5
5D2
100
AcDbEntity
  8
0
100
AcDbLine
 62
7
  6
CONTINUOUS
 10
8.0724433206
 20
6.4799886716
 11
8.0386510161
 21
6.4604686537
  0
LWPOLYLINE
  5
5D3
100
AcDbEntity
  8
0
100
AcDbPolyline
 62
7
  6
CONTINUOUS
 90
20
 70
0
 10
8.0386510161
 20
6.4204686537
 10
8.0391276223
 20
6.4206548093
 10
8.0481555561
 20
6.4217508763
 10
8.0675801212
 20
6.4228469434
 10
8.0968269469
 20
6.4239430104
 10
8.1350312254
 20
6.4250390775
 10
8.181063283
 20
6.4261351445
 10
8.2335619843
 20
6.4272312116
 10
8.29097498
 20
6.4283272786
 10
8.3516046083
 20
6.4294233457
 10
8.4136580939
 20
6.4305194127
 10
8.4753005593
 20
6.4316154798
 10
8.5347092801
 20
6.4327115469
 10
8.5901275827
 20
6.4338076139
 10
8.6399167869
 20
6.434903681
 10
8.6826046612
 20
6.435999748
 10
8.7169289553
 20
6.4370958151
 10
8.7418747242
 20
6.4381918821
 10
8.756704339
 20
6.4392879492
 10
8.7608646876
 20
6.4400801654
  0
LINE
  5
5D4
100
AcDbEntity
  8
0
100
AcDbLine
 62
7
  6
CONTINUOUS
 10
8.0724433206
 20
6.4399886716
 11
8.0386510161
 21
6.4204686537
  0
LINE
  5
5D5
100
AcDbEntity
  8
0
100
AcDbLine
 62
7
  6
CONTINUOUS
 10
8.0724433206
 20
6.3999886716
 11
8.0386510161
 21
6.3804686537
  0
LINE
  5
5D6
100
AcDbEntity
  8
0
100
AcDbLine
 62
7
  6
CONTINUOUS
 10
8.0724433206
 20
6.3599886716
 11
8.0386510161
 21
6.3404686537
  0
LWPOLYLINE
  5
5D7
100
AcDbEntity
  8
0
100
AcDbPolyline
 62
7
  6
CONTINUOUS
 90
20
 70
0
 10
8.0386510161
 20
6.3404686537
 10
8.0390846625
 20
6.3406419144
 10
8.0479880801
 20
6.3417379814
 10
8.0672930812
 20
6.3428340485
 10
8.0964288304
 20
6.3439301155
 10
8.1345338044
 20
6.3450261826
 10
8.1804812659
 20
6.3461222496
 10
8.2329125811
 20
6.3472183167
 10
8.2902773929
 20
6.3483143837
 10
8.3508794645
 20
6.3494104508
 10
8.4129268355
 20
6.3505065178
 10
8.4745848089
 20
6.3516025849
 10
8.5340302021
 20
6.3526986519
 10
8.5895052568
 20
6.353794719
 10
8.639369615
 20
6.3548907861
 10
8.6821488227
 20
6.3559868531
 10
8.7165779291
 20
6.3570829202
 10
8.7416388898
 20
6.3581789872
 10
8.7565906699
 20
6.3592750543
 10
8.7608646876
 20
6.3600801654
  0
LWPOLYLINE
  5
5D8
100
AcDbEntity
  8
0
100
AcDbPolyline
 62
7
  6
CONTINUOUS
 90
19
 70
0
 10
8.7272578519
 20
6.539774411
 10
8.7243569588
 20
6.5389264475
 10
8.7117158959
 20
6.537805277
 10
8.6894238954
 20
6.5366840944
 10
8.6581700541
 20
6.5355628923
 10
8.6189218113
 20
6.5344416958
 10
8.5728945802
 20
6.5333205296
 10
8.5215120932
 20
6.5321993804
 10
8.4663632486
 20
6.5310782323
 10
8.4091548154
 20
6.5299571
 10
8.3516491229
 20
6.5288358385
 10
8.2956299364
 20
6.5277145358
 10
8.2428332896
 20
6.5265932443
 10
8.1948941498
 20
6.5254719998
 10
8.1532936155
 20
6.5243507601
 10
8.1193186524
 20
6.5232295236
 10
8.0940201709
 20
6.5221082803
 10
8.0781810932
 20
6.5209870329
 10
8.0724433206
 20
6.5199886716
  0
LINE
  5
5D9
100
AcDbEntity
  8
0
100
AcDbLine
 62
7
  6
CONTINUOUS
 10
8.0724433206
 20
6.3199886716
 11
8.0386510161
 21
6.3004686537
  0
LINE
  5
5DA
100
AcDbEntity
  8
0
100
AcDbLine
 62
7
  6
CONTINUOUS
 10
8.0724433206
 20
6.2799886716
 11
8.0386510161
 21
6.2604686537
  0
LINE
  5
5DB
100
AcDbEntity
  8
0
100
AcDbLine
 62
7
  6
CONTINUOUS
 10
8.0724433206
 20
6.2399886716
 11
8.0386510161
 21
6.2204686537
  0
LWPOLYLINE
  5
5DC
100
AcDbEntity
  8
0
100
AcDbPolyline
 62
7
  6
CONTINUOUS
 90
20
 70
0
 10
8.0386510161
 20
6.1804686537
 10
8.0390031823
 20
6.1806161245
 10
8.0476574585
 20
6.1817121916
 10
8.0667230943
 20
6.1828082587
 10
8.0956363325
 20
6.1839043257
 10
8.1335422289
 20
6.1850003928
 10
8.1793199332
 20
6.1860964598
 10
8.2316158308
 20
6.1871925269
 10
8.2888835691
 20
6.1882885939
 10
8.3494297815
 20
6.189384661
 10
8.4114641594
 20
6.190480728
 10
8.4731523901
 20
6.1915767951
 10
8.5326703961
 20
6.1926728621
 10
8.5882582722
 20
6.1937689292
 10
8.6382723242
 20
6.1948649962
 10
8.6812336718
 20
6.1959610633
 10
8.7158719785
 20
6.1970571303
 10
8.7411630139
 20
6.1981531974
 10
8.7563589401
 20
6.1992492645
 10
8.7608646876
 20
6.2000801654
  0
LWPOLYLINE
  5
5DD
100
AcDbEntity
  8
0
100
AcDbPolyline
 62
7
  6
CONTINUOUS
 90
20
 70
0
 10
8.0386510161
 20
6.2604686537
 10
8.0390431824
 20
6.2606290195
 10
8.0478220473
 20
6.2617250865
 10
8.0670074051
 20
6.2628211536
 10
8.0960319584
 20
6.2639172206
 10
8.1340374716
 20
6.2650132877
 10
8.1799001485
 20
6.2661093547
 10
8.2322638623
 20
6.2672054218
 10
8.289580255
 20
6.2683014888
 10
8.3501545213
 20
6.2693975559
 10
8.412195523
 20
6.2704936229
 10
8.4738687515
 20
6.27158969
 10
8.5333505732
 20
6.272685757
 10
8.5888821525
 20
6.2737818241
 10
8.63882146
 20
6.2748778911
 10
8.6816918256
 20
6.2759739582
 10
8.716225603
 20
6.2770700253
 10
8.7414016527
 20
6.2781660923
 10
8.7564755367
 20
6.2792621594
 10
8.7608646876
 20
6.2800801654
  0
LINE
  5
5DE
100
AcDbEntity
  8
0
100
AcDbLine
 62
7
  6
CONTINUOUS
 10
8.0724433206
 20
6.1999886716
 11
8.0386510161
 21
6.1804686537
  0
LINE
  5
5DF
100
AcDbEntity
  8
0
100
AcDbLine
 62
7
  6
CONTINUOUS
 10
8.7270723831
 20
6.5405601474
 11
8.7378298989
 21
6.5467744095
  0
LINE
  5
5E0
100
AcDbEntity
  8
0
100
AcDbLine
 62
7
  6
CONTINUOUS
 10
8.0724433206
 20
6.1599886716
 11
8.0386510161
 21
6.1404686537
  0
LINE
  5
5E1
100
AcDbEntity
  8
0
100
AcDbLine
 62
7
  6
CONTINUOUS
 10
8.7270723831
 20
6.5005601474
 11
8.7608646876
 21
6.5200801654
  0
LINE
  5
5E2
100
AcDbEntity
  8
0
100
AcDbLine
 62
7
  6
CONTINUOUS
 10
8.0724433206
 20
6.1199886716
 11
8.0386510161
 21
6.1004686537
  0
LWPOLYLINE
  5
5E3
100
AcDbEntity
  8
0
100
AcDbPolyline
 62
7
  6
CONTINUOUS
 90
20
 70
0
 10
8.0386510161
 20
6.1004686537
 10
8.0389646623
 20
6.1006032296
 10
8.0474943142
 20
6.1016992967
 10
8.0664401499
 20
6.1027953637
 10
8.0952419543
 20
6.1038914308
 10
8.1330480785
 20
6.1049874979
 10
8.1787406222
 20
6.1060835649
 10
8.2309684891
 20
6.107179632
 10
8.2881873381
 20
6.108275699
 10
8.3487052483
 20
6.1093717661
 10
8.4107327478
 20
6.1104678331
 10
8.4724357275
 20
6.1115639002
 10
8.5319896738
 20
6.1126599672
 10
8.5876336186
 20
6.1137560343
 10
8.6377222098
 20
6.1148521013
 10
8.6807743632
 20
6.1159481684
 10
8.715517057
 20
6.1170442354
 10
8.7409229744
 20
6.1181403025
 10
8.7562408804
 20
6.1192363695
 10
8.7608646876
 20
6.1200801654
  0
LINE
  5
5E4
100
AcDbEntity
  8
0
100
AcDbLine
 62
7
  6
CONTINUOUS
 10
8.7238357706
 20
4.0705802493
 11
8.5347948868
 21
4.0307744095
  0
LWPOLYLINE
  5
5E5
100
AcDbEntity
  8
0
100
AcDbPolyline
 62
7
  6
CONTINUOUS
 90
4
 70
0
 10
8.7237948868
 20
4.0707744095
 10
8.7036368721
 20
4.0665431965
 10
8.6839561061
 20
4.0624139841
 10
8.6647578519
 20
4.0583881285
  0
LWPOLYLINE
  5
5E6
100
AcDbEntity
  8
0
100
AcDbPolyline
 62
7
  6
CONTINUOUS
 90
7
 70
0
 10
8.499954165
 20
4.0307744095
 10
8.5232152871
 20
4.0323475366
 10
8.5487259957
 20
4.0357711452
 10
8.5760808401
 20
4.040505841
 10
8.6048450599
 20
4.0460668155
 10
8.6345614952
 20
4.0521055755
 10
8.6647578519
 20
4.0583881285
  0
LINE
  5
5E7
100
AcDbEntity
  8
0
100
AcDbLine
 62
7
  6
CONTINUOUS
 10
8.2647230551
 20
4.0307744095
 11
8.5347926486
 21
4.0307744095
  0
LINE
  5
5E8
100
AcDbEntity
  8
0
100
AcDbLine
 62
7
  6
CONTINUOUS
 10
8.0757208169
 20
4.0707744095
 11
8.0747578519
 21
4.0707744095
  0
LINE
  5
5E9
100
AcDbEntity
  8
0
100
AcDbLine
 62
7
  6
CONTINUOUS
 10
8.3747578519
 20
4.0707744095
 11
8.7247578519
 21
4.0707744095
  0
LWPOLYLINE
  5
5EA
100
AcDbEntity
  8
0
100
AcDbPolyline
 62
7
  6
CONTINUOUS
 90
7
 70
0
 10
8.2995615387
 20
4.0307744095
 10
8.2763004166
 20
4.0323475366
 10
8.250789708
 20
4.0357711452
 10
8.2234348636
 20
4.040505841
 10
8.1946706438
 20
4.0460668155
 10
8.1649542086
 20
4.0521055755
 10
8.1347578519
 20
4.0583881285
  0
LWPOLYLINE
  5
5EB
100
AcDbEntity
  8
0
100
AcDbPolyline
 62
7
  6
CONTINUOUS
 90
4
 70
0
 10
8.1347578519
 20
4.0583881285
 10
8.1155738672
 20
4.0624109909
 10
8.0958932916
 20
4.066540162
 10
8.0757208169
 20
4.0707744095
  0
LINE
  5
5EC
100
AcDbEntity
  8
0
100
AcDbLine
 62
7
  6
CONTINUOUS
 10
8.0747578519
 20
4.0707744095
 11
8.2647208169
 21
4.0307744095
  0
LINE
  5
5ED
100
AcDbEntity
  8
0
100
AcDbLine
 62
7
  6
CONTINUOUS
 10
8.0757208169
 20
4.126714857
 11
8.1347578519
 21
4.1138700915
  0
LINE
  5
5EE
100
AcDbEntity
  8
0
100
AcDbLine
 62
7
  6
CONTINUOUS
 10
8.0722578519
 20
6.5207744093
 11
8.0723213209
 21
6.5208997459
  0
LINE
  5
5EF
100
AcDbEntity
  8
0
100
AcDbLine
 62
7
  6
CONTINUOUS
 10
8.7270723831
 20
6.4605601474
 11
8.7608646876
 21
6.4800801654
  0
LINE
  5
5F0
100
AcDbEntity
  8
0
100
AcDbLine
 62
7
  6
CONTINUOUS
 10
8.0724433206
 20
6.0799886716
 11
8.0386510161
 21
6.0604686537
  0
LINE
  5
5F1
100
AcDbEntity
  8
0
100
AcDbLine
 62
7
  6
CONTINUOUS
 10
8.7270723831
 20
6.4205601474
 11
8.7608646876
 21
6.4400801654
  0
LINE
  5
5F2
100
AcDbEntity
  8
0
100
AcDbLine
 62
7
  6
CONTINUOUS
 10
8.0724433206
 20
6.0399886716
 11
8.0386510161
 21
6.0204686537
  0
LINE
  5
5F3
100
AcDbEntity
  8
0
100
AcDbLine
 62
7
  6
CONTINUOUS
 10
8.7270723831
 20
6.3805601474
 11
8.7608646876
 21
6.4000801654
  0
LINE
  5
5F4
100
AcDbEntity
  8
0
100
AcDbLine
 62
7
  6
CONTINUOUS
 10
8.0724433206
 20
5.9999886716
 11
8.0386510161
 21
5.9804686537
  0
LWPOLYLINE
  5
5F5
100
AcDbEntity
  8
0
100
AcDbPolyline
 62
7
  6
CONTINUOUS
 90
20
 70
0
 10
8.0386510161
 20
6.0204686537
 10
8.0389276225
 20
6.0205903347
 10
8.0473326152
 20
6.0216864018
 10
8.0661585729
 20
6.0227824688
 10
8.0948488255
 20
6.0238785359
 10
8.1325550224
 20
6.0249746029
 10
8.178162218
 20
6.02607067
 10
8.2303218399
 20
6.0271667371
 10
8.2874915648
 20
6.0282628041
 10
8.3479809245
 20
6.0293588712
 10
8.4100012913
 20
6.0304549382
 10
8.4717187668
 20
6.0315510053
 10
8.531308409
 20
6.0326470723
 10
8.5870081942
 20
6.0337431394
 10
8.6371711191
 20
6.0348392064
 10
8.6803139016
 20
6.0359352735
 10
8.7151608401
 20
6.0370313405
 10
8.7406815352
 20
6.0381274076
 10
8.7561213581
 20
6.0392234746
 10
8.7608646876
 20
6.0400801654
  0
LINE
  5
5F6
100
AcDbEntity
  8
0
100
AcDbLine
 62
7
  6
CONTINUOUS
 10
8.7270723831
 20
6.3405601474
 11
8.7608646876
 21
6.3600801654
  0
LINE
  5
5F7
100
AcDbEntity
  8
0
100
AcDbLine
 62
7
  6
CONTINUOUS
 10
8.0724433206
 20
5.9599886716
 11
8.0386510161
 21
5.9404686537
  0
LINE
  5
5F8
100
AcDbEntity
  8
0
100
AcDbLine
 62
7
  6
CONTINUOUS
 10
8.7270723831
 20
6.3005601474
 11
8.7608646876
 21
6.3200801654
  0
LINE
  5
5F9
100
AcDbEntity
  8
0
100
AcDbLine
 62
7
  6
CONTINUOUS
 10
8.0724433206
 20
5.9199886716
 11
8.0386510161
 21
5.9004686537
  0
LINE
  5
5FA
100
AcDbEntity
  8
0
100
AcDbLine
 62
7
  6
CONTINUOUS
 10
8.7270723831
 20
6.2605601474
 11
8.7608646876
 21
6.2800801654
  0
LINE
  5
5FB
100
AcDbEntity
  8
0
100
AcDbLine
 62
7
  6
CONTINUOUS
 10
8.0724433206
 20
5.8799886716
 11
8.0386510161
 21
5.8604686537
  0
LINE
  5
5FC
100
AcDbEntity
  8
AXIS
100
AcDbLine
 62
7
  6
CONTINUOUS
 10
8.0722667786
 20
4.1907744095
 11
8.7272489252
 21
4.1907744095
  0
LINE
  5
5FD
100
AcDbEntity
  8
0
100
AcDbLine
 62
7
  6
CONTINUOUS
 10
8.7270723831
 20
6.2205601474
 11
8.7608646876
 21
6.2400801654
  0
LINE
  5
5FE
100
AcDbEntity
  8
0
100
AcDbLine
 62
7
  6
CONTINUOUS
 10
8.0724433206
 20
5.8399886716
 11
8.0386510161
 21
5.8204686537
  0
LINE
  5
5FF
100
AcDbEntity
  8
0
100
AcDbLine
 62
7
  6
CONTINUOUS
 10
8.7270723831
 20
6.1805601474
 11
8.7608646876
 21
6.2000801654
  0
LINE
  5
600
100
AcDbEntity
  8
0
100
AcDbLine
 62
7
  6
CONTINUOUS
 10
8.0724433206
 20
5.7999886716
 11
8.0386510161
 21
5.7804686537
  0
LINE
  5
601
100
AcDbEntity
  8
0
100
AcDbLine
 62
7
  6
CONTINUOUS
 10
8.7270723831
 20
6.1405601474
 11
8.7608646876
 21
6.1600801654
  0
LINE
  5
602
100
AcDbEntity
  8
0
100
AcDbLine
 62
7
  6
CONTINUOUS
 10
8.0724433206
 20
5.7599886716
 11
8.0386510161
 21
5.7404686537
  0
LINE
  5
603
100
AcDbEntity
  8
0
100
AcDbLine
 62
7
  6
CONTINUOUS
 10
8.7272578517
 20
6.0197742157
 11
8.7253622088
 21
6.0190891147
  0
LINE
  5
604
100
AcDbEntity
  8
0
100
AcDbLine
 62
7
  6
CONTINUOUS
 10
8.7270723831
 20
6.1005601474
 11
8.7608646876
 21
6.1200801654
  0
LINE
  5
605
100
AcDbEntity
  8
0
100
AcDbLine
 62
7
  6
CONTINUOUS
 10
8.0724433206
 20
5.7199886716
 11
8.0386510161
 21
5.7004686537
  0
LINE
  5
606
100
AcDbEntity
  8
0
100
AcDbLine
 62
7
  6
CONTINUOUS
 10
8.7270723831
 20
6.0605601474
 11
8.7608646876
 21
6.0800801654
  0
LINE
  5
607
100
AcDbEntity
  8
0
100
AcDbLine
 62
7
  6
CONTINUOUS
 10
8.0724433206
 20
5.6799886716
 11
8.0386510161
 21
5.6604686537
  0
LINE
  5
608
100
AcDbEntity
  8
0
100
AcDbLine
 62
7
  6
CONTINUOUS
 10
8.7270723831
 20
6.0205601474
 11
8.7608646876
 21
6.0400801654
  0
LINE
  5
609
100
AcDbEntity
  8
0
100
AcDbLine
 62
7
  6
CONTINUOUS
 10
8.0724433206
 20
5.6399886716
 11
8.0386510161
 21
5.6204686537
  0
LINE
  5
60A
100
AcDbEntity
  8
0
100
AcDbLine
 62
7
  6
CONTINUOUS
 10
8.7270723831
 20
5.9805601474
 11
8.7608646876
 21
6.0000801654
  0
LINE
  5
60B
100
AcDbEntity
  8
0
100
AcDbLine
 62
7
  6
CONTINUOUS
 10
8.0724433206
 20
5.5999886716
 11
8.0386510161
 21
5.5804686537
  0
LINE
  5
60C
100
AcDbEntity
  8
0
100
AcDbLine
 62
7
  6
CONTINUOUS
 10
8.7270723831
 20
5.9405601474
 11
8.7608646876
 21
5.9600801654
  0
LINE
  5
60D
100
AcDbEntity
  8
0
100
AcDbLine
 62
7
  6
CONTINUOUS
 10
8.0724433206
 20
5.5599886716
 11
8.0386510161
 21
5.5404686537
  0
LINE
  5
60E
100
AcDbEntity
  8
0
100
AcDbLine
 62
7
  6
CONTINUOUS
 10
8.7270723831
 20
5.9005601474
 11
8.7608646876
 21
5.9200801654
  0
LINE
  5
60F
100
AcDbEntity
  8
0
100
AcDbLine
 62
7
  6
CONTINUOUS
 10
8.0724433206
 20
5.5199886716
 11
8.0386510161
 21
5.5004686537
  0
LINE
  5
610
100
AcDbEntity
  8
0
100
AcDbLine
 62
7
  6
CONTINUOUS
 10
8.7272578519
 20
5.859774389
 11
8.7257287948
 21
5.8591589912
  0
LINE
  5
611
100
AcDbEntity
  8
0
100
AcDbLine
 62
7
  6
CONTINUOUS
 10
8.072257852
 20
5.3607745572
 11
8.0723961748
 21
5.3609594437
  0
LINE
  5
612
100
AcDbEntity
  8
0
100
AcDbLine
 62
7
  6
CONTINUOUS
 10
8.7270723831
 20
5.8605601474
 11
8.7608646876
 21
5.8800801654
  0
LINE
  5
613
100
AcDbEntity
  8
0
100
AcDbLine
 62
7
  6
CONTINUOUS
 10
8.0724433206
 20
5.4799886716
 11
8.0386510161
 21
5.4604686537
  0
LINE
  5
614
100
AcDbEntity
  8
0
100
AcDbLine
 62
7
  6
CONTINUOUS
 10
8.7270723831
 20
5.8205601474
 11
8.7608646876
 21
5.8400801654
  0
LINE
  5
615
100
AcDbEntity
  8
0
100
AcDbLine
 62
7
  6
CONTINUOUS
 10
8.0724433206
 20
5.4399886716
 11
8.0386510161
 21
5.4204686537
  0
LINE
  5
616
100
AcDbEntity
  8
0
100
AcDbLine
 62
7
  6
CONTINUOUS
 10
8.7270723831
 20
5.7805601474
 11
8.7608646876
 21
5.8000801654
  0
LINE
  5
617
100
AcDbEntity
  8
0
100
AcDbLine
 62
7
  6
CONTINUOUS
 10
8.0724433206
 20
5.3999886716
 11
8.0386510161
 21
5.3804686537
  0
LINE
  5
618
100
AcDbEntity
  8
0
100
AcDbLine
 62
7
  6
CONTINUOUS
 10
8.0386510161
 20
4.9400801654
 11
8.0386510161
 21
4.9404686537
  0
LINE
  5
619
100
AcDbEntity
  8
0
100
AcDbLine
 62
7
  6
CONTINUOUS
 10
8.0386510161
 20
4.9800801654
 11
8.0386510161
 21
4.9804686537
  0
LINE
  5
61A
100
AcDbEntity
  8
0
100
AcDbLine
 62
7
  6
CONTINUOUS
 10
8.0386510161
 20
5.0200801654
 11
8.0386510161
 21
5.0204686537
  0
LINE
  5
61B
100
AcDbEntity
  8
0
100
AcDbLine
 62
7
  6
CONTINUOUS
 10
8.0386510161
 20
5.0600801654
 11
8.0386510161
 21
5.0604686537
  0
LINE
  5
61C
100
AcDbEntity
  8
0
100
AcDbLine
 62
7
  6
CONTINUOUS
 10
8.0386510161
 20
5.1000801654
 11
8.0386510161
 21
5.1004686537
  0
LINE
  5
61D
100
AcDbEntity
  8
0
100
AcDbLine
 62
7
  6
CONTINUOUS
 10
8.0386510161
 20
5.1400801654
 11
8.0386510161
 21
5.1404686537
  0
LINE
  5
61E
100
AcDbEntity
  8
0
100
AcDbLine
 62
7
  6
CONTINUOUS
 10
8.0386510161
 20
5.1800801654
 11
8.0386510161
 21
5.1804686537
  0
LINE
  5
61F
100
AcDbEntity
  8
0
100
AcDbLine
 62
7
  6
CONTINUOUS
 10
8.0386510161
 20
5.2200801654
 11
8.0386510161
 21
5.2204686537
  0
LINE
  5
620
100
AcDbEntity
  8
0
100
AcDbLine
 62
7
  6
CONTINUOUS
 10
8.0386510161
 20
5.2600801654
 11
8.0386510161
 21
5.2604686537
  0
LINE
  5
621
100
AcDbEntity
  8
0
100
AcDbLine
 62
7
  6
CONTINUOUS
 10
8.0386510161
 20
5.3000801654
 11
8.0386510161
 21
5.3004686537
  0
LINE
  5
622
100
AcDbEntity
  8
0
100
AcDbLine
 62
7
  6
CONTINUOUS
 10
8.0386510161
 20
5.3400801654
 11
8.0386510161
 21
5.3404686537
  0
LINE
  5
623
100
AcDbEntity
  8
0
100
AcDbLine
 62
7
  6
CONTINUOUS
 10
8.0386510161
 20
5.3800801654
 11
8.0386510161
 21
5.3804686537
  0
LINE
  5
624
100
AcDbEntity
  8
0
100
AcDbLine
 62
7
  6
CONTINUOUS
 10
8.0386510161
 20
5.4200801654
 11
8.0386510161
 21
5.4204686537
  0
LINE
  5
625
100
AcDbEntity
  8
0
100
AcDbLine
 62
7
  6
CONTINUOUS
 10
8.0386510161
 20
5.4600801654
 11
8.0386510161
 21
5.4604686537
  0
LINE
  5
626
100
AcDbEntity
  8
0
100
AcDbLine
 62
7
  6
CONTINUOUS
 10
8.0386510161
 20
5.5000801654
 11
8.0386510161
 21
5.5004686537
  0
LINE
  5
627
100
AcDbEntity
  8
0
100
AcDbLine
 62
7
  6
CONTINUOUS
 10
8.0386510161
 20
5.5400801654
 11
8.0386510161
 21
5.5404686537
  0
LINE
  5
628
100
AcDbEntity
  8
0
100
AcDbLine
 62
7
  6
CONTINUOUS
 10
8.0386510161
 20
5.5800801654
 11
8.0386510161
 21
5.5804686537
  0
LINE
  5
629
100
AcDbEntity
  8
0
100
AcDbLine
 62
7
  6
CONTINUOUS
 10
8.0386510161
 20
5.6200801654
 11
8.0386510161
 21
5.6204686537
  0
LINE
  5
62A
100
AcDbEntity
  8
0
100
AcDbLine
 62
7
  6
CONTINUOUS
 10
8.0386510161
 20
5.6600801654
 11
8.0386510161
 21
5.6604686537
  0
LINE
  5
62B
100
AcDbEntity
  8
0
100
AcDbLine
 62
7
  6
CONTINUOUS
 10
8.0386510161
 20
5.7000801654
 11
8.0386510161
 21
5.7004686537
  0
LINE
  5
62C
100
AcDbEntity
  8
0
100
AcDbLine
 62
7
  6
CONTINUOUS
 10
8.0386510161
 20
5.7400801654
 11
8.0386510161
 21
5.7404686537
  0
LINE
  5
62D
100
AcDbEntity
  8
0
100
AcDbLine
 62
7
  6
CONTINUOUS
 10
8.0386510161
 20
5.7800801654
 11
8.0386510161
 21
5.7804686537
  0
LINE
  5
62E
100
AcDbEntity
  8
0
100
AcDbLine
 62
7
  6
CONTINUOUS
 10
8.0386510161
 20
5.8200801654
 11
8.0386510161
 21
5.8204686537
  0
LINE
  5
62F
100
AcDbEntity
  8
0
100
AcDbLine
 62
7
  6
CONTINUOUS
 10
8.0386510161
 20
5.8600801654
 11
8.0386510161
 21
5.8604686537
  0
LINE
  5
630
100
AcDbEntity
  8
0
100
AcDbLine
 62
7
  6
CONTINUOUS
 10
8.0386510161
 20
5.9000801654
 11
8.0386510161
 21
5.9004686537
  0
LINE
  5
631
100
AcDbEntity
  8
0
100
AcDbLine
 62
7
  6
CONTINUOUS
 10
8.0386510161
 20
5.9400801654
 11
8.0386510161
 21
5.9404686537
  0
LINE
  5
632
100
AcDbEntity
  8
0
100
AcDbLine
 62
7
  6
CONTINUOUS
 10
8.0386510161
 20
5.9800801654
 11
8.0386510161
 21
5.9804686537
  0
LINE
  5
633
100
AcDbEntity
  8
0
100
AcDbLine
 62
7
  6
CONTINUOUS
 10
8.0386510161
 20
6.0200801654
 11
8.0386510161
 21
6.0204686537
  0
LINE
  5
634
100
AcDbEntity
  8
0
100
AcDbLine
 62
7
  6
CONTINUOUS
 10
8.0386510161
 20
6.0600801654
 11
8.0386510161
 21
6.0604686537
  0
LINE
  5
635
100
AcDbEntity
  8
0
100
AcDbLine
 62
7
  6
CONTINUOUS
 10
8.0386510161
 20
6.1000801654
 11
8.0386510161
 21
6.1004686537
  0
LINE
  5
636
100
AcDbEntity
  8
0
100
AcDbLine
 62
7
  6
CONTINUOUS
 10
8.0386510161
 20
6.1400801654
 11
8.0386510161
 21
6.1404686537
  0
LINE
  5
637
100
AcDbEntity
  8
0
100
AcDbLine
 62
7
  6
CONTINUOUS
 10
8.0386510161
 20
6.1800801654
 11
8.0386510161
 21
6.1804686537
  0
LINE
  5
638
100
AcDbEntity
  8
0
100
AcDbLine
 62
7
  6
CONTINUOUS
 10
8.0386510161
 20
6.2200801654
 11
8.0386510161
 21
6.2204686537
  0
LINE
  5
639
100
AcDbEntity
  8
0
100
AcDbLine
 62
7
  6
CONTINUOUS
 10
8.0386510161
 20
6.2600801654
 11
8.0386510161
 21
6.2604686537
  0
LINE
  5
63A
100
AcDbEntity
  8
0
100
AcDbLine
 62
7
  6
CONTINUOUS
 10
8.0386510161
 20
6.3000801654
 11
8.0386510161
 21
6.3004686537
  0
LINE
  5
63B
100
AcDbEntity
  8
0
100
AcDbLine
 62
7
  6
CONTINUOUS
 10
8.0386510161
 20
6.3400801654
 11
8.0386510161
 21
6.3404686537
  0
LINE
  5
63C
100
AcDbEntity
  8
0
100
AcDbLine
 62
7
  6
CONTINUOUS
 10
8.0386510161
 20
6.3800801654
 11
8.0386510161
 21
6.3804686537
  0
LINE
  5
63D
100
AcDbEntity
  8
0
100
AcDbLine
 62
7
  6
CONTINUOUS
 10
8.0386510161
 20
6.4200801654
 11
8.0386510161
 21
6.4204686537
  0
LINE
  5
63E
100
AcDbEntity
  8
0
100
AcDbLine
 62
7
  6
CONTINUOUS
 10
8.0386510161
 20
6.4600801654
 11
8.0386510161
 21
6.4604686537
  0
LINE
  5
63F
100
AcDbEntity
  8
0
100
AcDbLine
 62
7
  6
CONTINUOUS
 10
8.0386510161
 20
6.5000801654
 11
8.0386510161
 21
6.5004686537
  0
LINE
  5
640
100
AcDbEntity
  8
AXIS
100
AcDbLine
 62
7
  6
CONTINUOUS
 10
8.0722578519
 20
6.5207744095
 11
8.0722578519
 21
6.5197744095
  0
LINE
  5
641
100
AcDbEntity
  8
AXIS
100
AcDbLine
 62
7
  6
CONTINUOUS
 10
8.0722578519
 20
6.4807744095
 11
8.0722578519
 21
6.4797744095
  0
LINE
  5
642
100
AcDbEntity
  8
AXIS
100
AcDbLine
 62
7
  6
CONTINUOUS
 10
8.0722578519
 20
6.4407744095
 11
8.0722578519
 21
6.4397744095
  0
LINE
  5
643
100
AcDbEntity
  8
AXIS
100
AcDbLine
 62
7
  6
CONTINUOUS
 10
8.0722578519
 20
6.4007744095
 11
8.0722578519
 21
6.3997744095
  0
LINE
  5
644
100
AcDbEntity
  8
AXIS
100
AcDbLine
 62
7
  6
CONTINUOUS
 10
8.0722578519
 20
6.3607744095
 11
8.0722578519
 21
6.3597744095
  0
LINE
  5
645
100
AcDbEntity
  8
AXIS
100
AcDbLine
 62
7
  6
CONTINUOUS
 10
8.0722578519
 20
6.3207744095
 11
8.0722578519
 21
6.3197744095
  0
LINE
  5
646
100
AcDbEntity
  8
AXIS
100
AcDbLine
 62
7
  6
CONTINUOUS
 10
8.0722578519
 20
6.2807744095
 11
8.0722578519
 21
6.2797744095
  0
LINE
  5
647
100
AcDbEntity
  8
AXIS
100
AcDbLine
 62
7
  6
CONTINUOUS
 10
8.0722578519
 20
6.2407744095
 11
8.0722578519
 21
6.2397744095
  0
LINE
  5
648
100
AcDbEntity
  8
AXIS
100
AcDbLine
 62
7
  6
CONTINUOUS
 10
8.0722578519
 20
6.2007744095
 11
8.0722578519
 21
6.1997744095
  0
LINE
  5
649
100
AcDbEntity
  8
AXIS
100
AcDbLine
 62
7
  6
CONTINUOUS
 10
8.0722578519
 20
6.1607744095
 11
8.0722578519
 21
6.1597744095
  0
LINE
  5
64A
100
AcDbEntity
  8
AXIS
100
AcDbLine
 62
7
  6
CONTINUOUS
 10
8.0722578519
 20
6.1207744095
 11
8.0722578519
 21
6.1197744095
  0
LINE
  5
64B
100
AcDbEntity
  8
AXIS
100
AcDbLine
 62
7
  6
CONTINUOUS
 10
8.0722578519
 20
6.0807744095
 11
8.0722578519
 21
6.0797744095
  0
LINE
  5
64C
100
AcDbEntity
  8
AXIS
100
AcDbLine
 62
7
  6
CONTINUOUS
 10
8.0722578519
 20
6.0407744095
 11
8.0722578519
 21
6.0397744095
  0
LINE
  5
64D
100
AcDbEntity
  8
AXIS
100
AcDbLine
 62
7
  6
CONTINUOUS
 10
8.0722578519
 20
6.0007744095
 11
8.0722578519
 21
5.9997744095
  0
LINE
  5
64E
100
AcDbEntity
  8
AXIS
100
AcDbLine
 62
7
  6
CONTINUOUS
 10
8.0722578519
 20
5.9607744095
 11
8.0722578519
 21
5.9597744095
  0
LINE
  5
64F
100
AcDbEntity
  8
AXIS
100
AcDbLine
 62
7
  6
CONTINUOUS
 10
8.0722578519
 20
5.9207744095
 11
8.0722578519
 21
5.9197744095
  0
LINE
  5
650
100
AcDbEntity
  8
AXIS
100
AcDbLine
 62
7
  6
CONTINUOUS
 10
8.0722578519
 20
5.8807744095
 11
8.0722578519
 21
5.8797744095
  0
LINE
  5
651
100
AcDbEntity
  8
AXIS
100
AcDbLine
 62
7
  6
CONTINUOUS
 10
8.0722578519
 20
5.8407744095
 11
8.0722578519
 21
5.8397744095
  0
LINE
  5
652
100
AcDbEntity
  8
AXIS
100
AcDbLine
 62
7
  6
CONTINUOUS
 10
8.0722578519
 20
5.8007744095
 11
8.0722578519
 21
5.7997744095
  0
LINE
  5
653
100
AcDbEntity
  8
AXIS
100
AcDbLine
 62
7
  6
CONTINUOUS
 10
8.0722578519
 20
5.7607744095
 11
8.0722578519
 21
5.7597744095
  0
LINE
  5
654
100
AcDbEntity
  8
AXIS
100
AcDbLine
 62
7
  6
CONTINUOUS
 10
8.0722578519
 20
5.7207744095
 11
8.0722578519
 21
5.7197744095
  0
LINE
  5
655
100
AcDbEntity
  8
AXIS
100
AcDbLine
 62
7
  6
CONTINUOUS
 10
8.0722578519
 20
5.6807744095
 11
8.0722578519
 21
5.6797744095
  0
LINE
  5
656
100
AcDbEntity
  8
AXIS
100
AcDbLine
 62
7
  6
CONTINUOUS
 10
8.0722578519
 20
5.6407744095
 11
8.0722578519
 21
5.6397744095
  0
LINE
  5
657
100
AcDbEntity
  8
AXIS
100
AcDbLine
 62
7
  6
CONTINUOUS
 10
8.0722578519
 20
5.6007744095
 11
8.0722578519
 21
5.5997744095
  0
LINE
  5
658
100
AcDbEntity
  8
AXIS
100
AcDbLine
 62
7
  6
CONTINUOUS
 10
8.0722578519
 20
5.5607744095
 11
8.0722578519
 21
5.5597744095
  0
LINE
  5
659
100
AcDbEntity
  8
AXIS
100
AcDbLine
 62
7
  6
CONTINUOUS
 10
8.0722578519
 20
5.5207744095
 11
8.0722578519
 21
5.5197744095
  0
LINE
  5
65A
100
AcDbEntity
  8
AXIS
100
AcDbLine
 62
7
  6
CONTINUOUS
 10
8.0722578519
 20
5.4807744095
 11
8.0722578519
 21
5.4797744095
  0
LINE
  5
65B
100
AcDbEntity
  8
AXIS
100
AcDbLine
 62
7
  6
CONTINUOUS
 10
8.0722578519
 20
5.4407744095
 11
8.0722578519
 21
5.4397744095
  0
LINE
  5
65C
100
AcDbEntity
  8
AXIS
100
AcDbLine
 62
7
  6
CONTINUOUS
 10
8.0722578519
 20
5.4007744095
 11
8.0722578519
 21
5.3997744095
  0
LINE
  5
65D
100
AcDbEntity
  8
AXIS
100
AcDbLine
 62
7
  6
CONTINUOUS
 10
8.0722578519
 20
5.3607744095
 11
8.0722578519
 21
5.3597744095
  0
LINE
  5
65E
100
AcDbEntity
  8
AXIS
100
AcDbLine
 62
7
  6
CONTINUOUS
 10
8.0722578519
 20
5.3207744095
 11
8.0722578519
 21
5.3197744095
  0
LINE
  5
65F
100
AcDbEntity
  8
AXIS
100
AcDbLine
 62
7
  6
CONTINUOUS
 10
8.0722578519
 20
5.2807744095
 11
8.0722578519
 21
5.2797744095
  0
LINE
  5
660
100
AcDbEntity
  8
AXIS
100
AcDbLine
 62
7
  6
CONTINUOUS
 10
8.0722578519
 20
5.2407744095
 11
8.0722578519
 21
5.2397744095
  0
LINE
  5
661
100
AcDbEntity
  8
AXIS
100
AcDbLine
 62
7
  6
CONTINUOUS
 10
8.0722578519
 20
5.2007744095
 11
8.0722578519
 21
5.1997744095
  0
LINE
  5
662
100
AcDbEntity
  8
AXIS
100
AcDbLine
 62
7
  6
CONTINUOUS
 10
8.0722578519
 20
5.1607744095
 11
8.0722578519
 21
5.1597744095
  0
LINE
  5
663
100
AcDbEntity
  8
AXIS
100
AcDbLine
 62
7
  6
CONTINUOUS
 10
8.0722578519
 20
5.1207744095
 11
8.0722578519
 21
5.1197744095
  0
LINE
  5
664
100
AcDbEntity
  8
AXIS
100
AcDbLine
 62
7
  6
CONTINUOUS
 10
8.0722578519
 20
5.0807744095
 11
8.0722578519
 21
5.0797744095
  0
LINE
  5
665
100
AcDbEntity
  8
AXIS
100
AcDbLine
 62
7
  6
CONTINUOUS
 10
8.0722578519
 20
5.0407744095
 11
8.0722578519
 21
5.0397744095
  0
LINE
  5
666
100
AcDbEntity
  8
AXIS
100
AcDbLine
 62
7
  6
CONTINUOUS
 10
8.0722578519
 20
5.0007744095
 11
8.0722578519
 21
4.9997744095
  0
LINE
  5
667
100
AcDbEntity
  8
AXIS
100
AcDbLine
 62
7
  6
CONTINUOUS
 10
8.0722578519
 20
4.9607744095
 11
8.0722578519
 21
4.9597744095
  0
LINE
  5
668
100
AcDbEntity
  8
AXIS
100
AcDbLine
 62
7
  6
CONTINUOUS
 10
8.0722578519
 20
4.9207744095
 11
8.0722578519
 21
4.1907744095
  0
LINE
  5
669
100
AcDbEntity
  8
0
100
AcDbLine
 62
7
  6
CONTINUOUS
 10
8.0747578519
 20
4.1907744095
 11
8.0747578519
 21
4.0707744095
  0
LINE
  5
66A
100
AcDbEntity
  8
0
100
AcDbLine
 62
7
  6
CONTINUOUS
 10
8.0757208169
 20
4.0707744095
 11
8.0757208169
 21
4.126714857
  0
LINE
  5
66B
100
AcDbEntity
  8
0
100
AcDbLine
 62
7
  6
CONTINUOUS
 10
8.0722578524
 20
5.2007740357
 11
8.0723864727
 21
5.200952836
  0
LINE
  5
66C
100
AcDbEntity
  8
0
100
AcDbLine
 62
7
  6
CONTINUOUS
 10
8.7270723831
 20
5.7405601474
 11
8.7608646876
 21
5.7600801654
  0
LINE
  5
66D
100
AcDbEntity
  8
0
100
AcDbLine
 62
7
  6
CONTINUOUS
 10
8.0724433206
 20
5.3599886716
 11
8.0386510161
 21
5.3404686537
  0
LINE
  5
66E
100
AcDbEntity
  8
0
100
AcDbLine
 62
7
  6
CONTINUOUS
 10
8.7270723831
 20
5.7005601474
 11
8.7608646876
 21
5.7200801654
  0
LINE
  5
66F
100
AcDbEntity
  8
0
100
AcDbLine
 62
7
  6
CONTINUOUS
 10
8.0724433206
 20
5.3199886716
 11
8.0386510161
 21
5.3004686537
  0
LINE
  5
670
100
AcDbEntity
  8
0
100
AcDbLine
 62
7
  6
CONTINUOUS
 10
8.7270723831
 20
5.6605601474
 11
8.7608646876
 21
5.6800801654
  0
LINE
  5
671
100
AcDbEntity
  8
0
100
AcDbLine
 62
7
  6
CONTINUOUS
 10
8.0724433206
 20
5.2799886716
 11
8.0386510161
 21
5.2604686537
  0
LINE
  5
672
100
AcDbEntity
  8
0
100
AcDbLine
 62
7
  6
CONTINUOUS
 10
8.7272578519
 20
5.6997744334
 11
8.7264132196
 21
5.6993170932
  0
LINE
  5
673
100
AcDbEntity
  8
0
100
AcDbLine
 62
7
  6
CONTINUOUS
 10
8.0386510161
 20
4.9400801654
 11
8.0724433206
 21
4.9205601474
  0
LINE
  5
674
100
AcDbEntity
  8
0
100
AcDbLine
 62
9
  6
CONTINUOUS
 10
8.1347578519
 20
4.0583881285
 11
8.1347578519
 21
4.1138700915
  0
LWPOLYLINE
  5
675
100
AcDbEntity
  8
0
100
AcDbPolyline
 62
7
  6
CONTINUOUS
 90
3
 70
0
 10
8.7608646876
 20
6.2000801654
 10
8.7610104242
 20
6.2003453315
 10
8.7608646876
 20
6.2004686537
  0
LWPOLYLINE
  5
676
100
AcDbEntity
  8
0
100
AcDbPolyline
 62
7
  6
CONTINUOUS
 90
3
 70
0
 10
8.7608646876
 20
6.1200801654
 10
8.7610178352
 20
6.1203324366
 10
8.7608646876
 20
6.1204686537
  0
LWPOLYLINE
  5
677
100
AcDbEntity
  8
0
100
AcDbPolyline
 62
7
  6
CONTINUOUS
 90
3
 70
0
 10
8.7608646876
 20
6.0400801654
 10
8.761023764
 20
6.0403195417
 10
8.7608646876
 20
6.0404686537
  0
LWPOLYLINE
  5
678
100
AcDbEntity
  8
0
100
AcDbPolyline
 62
7
  6
CONTINUOUS
 90
3
 70
0
 10
8.7608646876
 20
5.9600801654
 10
8.7610282107
 20
5.9603066468
 10
8.7608646876
 20
5.9604686537
  0
LINE
  5
679
100
AcDbEntity
  8
0
100
AcDbLine
 62
7
  6
CONTINUOUS
 10
8.7270723831
 20
5.6205601474
 11
8.7608646876
 21
5.6400801654
  0
LINE
  5
67A
100
AcDbEntity
  8
0
100
AcDbLine
 62
7
  6
CONTINUOUS
 10
8.0724433206
 20
5.2399886716
 11
8.0386510161
 21
5.2204686537
  0
LINE
  5
67B
100
AcDbEntity
  8
0
100
AcDbLine
 62
7
  6
CONTINUOUS
 10
8.7270723831
 20
5.5805601474
 11
8.7608646876
 21
5.6000801654
  0
LINE
  5
67C
100
AcDbEntity
  8
0
100
AcDbLine
 62
7
  6
CONTINUOUS
 10
8.0724433206
 20
5.1999886716
 11
8.0386510161
 21
5.1804686537
  0
LINE
  5
67D
100
AcDbEntity
  8
0
100
AcDbLine
 62
7
  6
CONTINUOUS
 10
8.7270723831
 20
5.5405601474
 11
8.7608646876
 21
5.5600801654
  0
LINE
  5
67E
100
AcDbEntity
  8
0
100
AcDbLine
 62
7
  6
CONTINUOUS
 10
8.0724433206
 20
5.1599886716
 11
8.0386510161
 21
5.1404686537
  0
LWPOLYLINE
  5
67F
100
AcDbEntity
  8
0
100
AcDbPolyline
 62
7
  6
CONTINUOUS
 90
9
 70
0
 10
8.7272578519
 20
4.9797744003
 10
8.7222755347
 20
4.9786625312
 10
8.7077072553
 20
4.9775635864
 10
8.6835929596
 20
4.9764493192
 10
8.6504553907
 20
4.9753244635
 10
8.6097711748
 20
4.9742061864
 10
8.5632531213
 20
4.9731020267
 10
8.5113345327
 20
4.9719876372
 10
8.4560876611
 20
4.9708748639
  0
LWPOLYLINE
  5
680
100
AcDbEntity
  8
0
100
AcDbPolyline
 62
7
  6
CONTINUOUS
 90
10
 70
0
 10
8.7272578519
 20
4.9397744086
 10
8.7222584213
 20
4.9386606184
 10
8.707644124
 20
4.9375599834
 10
8.6836194549
 20
4.9364503518
 10
8.6506448086
 20
4.9353301889
 10
8.6101754199
 20
4.9342164342
 10
8.5638783299
 20
4.9331160617
 10
8.5119601322
 20
4.9320005767
 10
8.4563961937
 20
4.9308809527
 10
8.3997578519
 20
4.9297744095
  0
LWPOLYLINE
  5
681
100
AcDbEntity
  8
0
100
AcDbPolyline
 62
7
  6
CONTINUOUS
 90
10
 70
0
 10
8.3997578519
 20
4.8907744095
 10
8.4563961937
 20
4.8918809527
 10
8.5119601322
 20
4.8930005767
 10
8.5638783299
 20
4.8941160617
 10
8.6101754199
 20
4.8952164342
 10
8.6506448086
 20
4.8963301889
 10
8.6836194549
 20
4.8974503518
 10
8.707644124
 20
4.8985599834
 10
8.7222584213
 20
4.8996606184
 10
8.7270723831
 20
4.9005601474
  0
LWPOLYLINE
  5
682
100
AcDbEntity
  8
0
100
AcDbPolyline
 62
7
  6
CONTINUOUS
 90
10
 70
0
 10
8.3997578519
 20
4.9102744095
 10
8.461651657
 20
4.9113704766
 10
8.5217153062
 20
4.9124665436
 10
8.5781727596
 20
4.9135626107
 10
8.6293546103
 20
4.9146586777
 10
8.6737474473
 20
4.9157547448
 10
8.7100386056
 20
4.9168508118
 10
8.7371549814
 20
4.9179468789
 10
8.7542947626
 20
4.919042946
 10
8.7608646876
 20
4.9200801654
  0
LINE
  5
683
100
AcDbEntity
  8
0
100
AcDbLine
 62
7
  6
CONTINUOUS
 10
8.0386510161
 20
4.9800801654
 11
8.0724433206
 21
4.9605601474
  0
LINE
  5
684
100
AcDbEntity
  8
0
100
AcDbLine
 62
7
  6
CONTINUOUS
 10
8.0386510161
 20
5.0200801654
 11
8.0724433206
 21
5.0005601474
  0
LINE
  5
685
100
AcDbEntity
  8
0
100
AcDbLine
 62
7
  6
CONTINUOUS
 10
8.0386510161
 20
5.0600801654
 11
8.0724433206
 21
5.0405601474
  0
LWPOLYLINE
  5
686
100
AcDbEntity
  8
0
100
AcDbPolyline
 62
7
  6
CONTINUOUS
 90
7
 70
0
 10
8.4247578519
 20
4.0583881285
 10
8.4266650547
 20
4.0521055755
 10
8.4323563515
 20
4.0460668155
 10
8.4417412884
 20
4.040505841
 10
8.4546707072
 20
4.0357711452
 10
8.470939116
 20
4.0323475366
 10
8.4902879553
 20
4.0307744095
  0
LINE
  5
687
100
AcDbEntity
  8
AXIS
100
AcDbLine
 62
7
  6
CONTINUOUS
 10
8.2832578519
 20
4.0307744095
 11
8.2832578519
 21
3.5937271654
  0
LINE
  5
688
100
AcDbEntity
  8
AXIS_COSMETIC_THREADS
100
AcDbLine
 62
7
  6
CONTINUOUS
 10
8.2832578519
 20
4.0307744095
 11
8.2832578519
 21
3.5937271654
  0
LWPOLYLINE
  5
689
100
AcDbEntity
  8
0
100
AcDbPolyline
 62
7
  6
CONTINUOUS
 90
3
 70
0
 10
8.7608646876
 20
6.2800801654
 10
8.7610015311
 20
6.2803582264
 10
8.7608646876
 20
6.2804686537
  0
LWPOLYLINE
  5
68A
100
AcDbEntity
  8
0
100
AcDbPolyline
 62
7
  6
CONTINUOUS
 90
3
 70
0
 10
8.7608646876
 20
5.8800801654
 10
8.7610311751
 20
5.8802937519
 10
8.7608646876
 20
5.8804686537
  0
LWPOLYLINE
  5
68B
100
AcDbEntity
  8
0
100
AcDbPolyline
 62
7
  6
CONTINUOUS
 90
3
 70
0
 10
8.7608646876
 20
5.8000801654
 10
8.7610326573
 20
5.800280857
 10
8.7608646876
 20
5.8004686537
  0
LWPOLYLINE
  5
68C
100
AcDbEntity
  8
0
100
AcDbPolyline
 62
7
  6
CONTINUOUS
 90
3
 70
0
 10
8.7608646876
 20
5.7200801654
 10
8.7610326573
 20
5.7202679621
 10
8.7608646876
 20
5.7204686537
  0
LWPOLYLINE
  5
68D
100
AcDbEntity
  8
0
100
AcDbPolyline
 62
7
  6
CONTINUOUS
 90
3
 70
0
 10
8.7608646876
 20
5.6400801654
 10
8.7610311751
 20
5.6402550672
 10
8.7608646876
 20
5.6404686537
  0
LINE
  5
68E
100
AcDbEntity
  8
0
100
AcDbLine
 62
7
  6
CONTINUOUS
 10
8.7272578517
 20
5.5397746385
 11
8.7266851218
 21
5.5393978551
  0
LINE
  5
68F
100
AcDbEntity
  8
0
100
AcDbLine
 62
7
  6
CONTINUOUS
 10
8.7270723831
 20
5.5005601474
 11
8.7608646876
 21
5.5200801654
  0
LINE
  5
690
100
AcDbEntity
  8
0
100
AcDbLine
 62
7
  6
CONTINUOUS
 10
8.0724433206
 20
5.1199886716
 11
8.0386510161
 21
5.1004686537
  0
LINE
  5
691
100
AcDbEntity
  8
0
100
AcDbLine
 62
7
  6
CONTINUOUS
 10
8.7270723831
 20
5.4605601474
 11
8.7608646876
 21
5.4800801654
  0
LINE
  5
692
100
AcDbEntity
  8
0
100
AcDbLine
 62
7
  6
CONTINUOUS
 10
8.0724433206
 20
5.0799886716
 11
8.0386510161
 21
5.0604686537
  0
LINE
  5
693
100
AcDbEntity
  8
0
100
AcDbLine
 62
7
  6
CONTINUOUS
 10
8.7270723831
 20
5.4205601474
 11
8.7608646876
 21
5.4400801654
  0
LINE
  5
694
100
AcDbEntity
  8
0
100
AcDbLine
 62
7
  6
CONTINUOUS
 10
8.0724433206
 20
5.0399886716
 11
8.0386510161
 21
5.0204686537
  0
LWPOLYLINE
  5
695
100
AcDbEntity
  8
0
100
AcDbPolyline
 62
7
  6
CONTINUOUS
 90
9
 70
0
 10
8.7272578519
 20
5.0597744129
 10
8.7223291305
 20
5.0586685428
 10
8.7077004976
 20
5.0575632004
 10
8.6835052421
 20
5.0564459029
 10
8.6502424366
 20
5.055318034
 10
8.6094021335
 20
5.0541968431
 10
8.5627873607
 20
5.0530915826
 10
8.5112656799
 20
5.0519862137
 10
8.4563754915
 20
5.0508805441
  0
LWPOLYLINE
  5
696
100
AcDbEntity
  8
0
100
AcDbPolyline
 62
7
  6
CONTINUOUS
 90
9
 70
0
 10
8.7272578519
 20
5.0197743987
 10
8.7223204037
 20
5.0186675618
 10
8.7077220073
 20
5.0175644291
 10
8.6835482104
 20
5.016447576
 10
8.6503116601
 20
5.0153201231
 10
8.6095003804
 20
5.0141993294
 10
8.5628747412
 20
5.0130935412
 10
8.5110840987
 20
5.0119824601
 10
8.4562234135
 20
5.0108775428
  0
LWPOLYLINE
  5
697
100
AcDbEntity
  8
0
100
AcDbPolyline
 62
7
  6
CONTINUOUS
 90
9
 70
0
 10
8.0722578519
 20
4.9207744095
 10
8.0773243313
 20
4.9218956637
 10
8.0920485257
 20
4.9229989044
 10
8.115939212
 20
4.9241001414
 10
8.1487350356
 20
4.9252145198
 10
8.1890999353
 20
4.9263262854
 10
8.2354162531
 20
4.9274277892
 10
8.2873868008
 20
4.9285447499
 10
8.3430291625
 20
4.9296660832
  0
LWPOLYLINE
  5
698
100
AcDbEntity
  8
0
100
AcDbPolyline
 62
7
  6
CONTINUOUS
 90
10
 70
0
 10
8.3430291625
 20
4.9296660832
 10
8.4560876611
 20
4.9318748639
 10
8.5113345327
 20
4.9329876372
 10
8.5632531213
 20
4.9341020267
 10
8.6097711748
 20
4.9352061864
 10
8.6504553907
 20
4.9363244635
 10
8.6835929596
 20
4.9374493192
 10
8.7077072553
 20
4.9385635864
 10
8.7222755347
 20
4.9396625312
 10
8.7270723831
 20
4.9405601474
  0
LWPOLYLINE
  5
699
100
AcDbEntity
  8
0
100
AcDbPolyline
 62
7
  6
CONTINUOUS
 90
10
 70
0
 10
8.4560876611
 20
4.9708748639
 10
8.3430291625
 20
4.9686660832
 10
8.2873868008
 20
4.9675447499
 10
8.2354162531
 20
4.9664277892
 10
8.1890999353
 20
4.9653262854
 10
8.1487350356
 20
4.9642145198
 10
8.115939212
 20
4.9631001414
 10
8.0920485257
 20
4.9619989044
 10
8.0773243313
 20
4.9608956637
 10
8.0724433206
 20
4.9599886716
  0
LWPOLYLINE
  5
69A
100
AcDbEntity
  8
0
100
AcDbPolyline
 62
7
  6
CONTINUOUS
 90
10
 70
0
 10
8.3429063176
 20
4.9696636585
 10
8.4562234135
 20
4.9718775428
 10
8.5110840987
 20
4.9729824601
 10
8.5628747412
 20
4.9740935412
 10
8.6095003804
 20
4.9751993294
 10
8.6503116601
 20
4.9763201231
 10
8.6835482104
 20
4.977447576
 10
8.7077220073
 20
4.9785644291
 10
8.7223204037
 20
4.9796675618
 10
8.7270723831
 20
4.9805601474
  0
LWPOLYLINE
  5
69B
100
AcDbEntity
  8
0
100
AcDbPolyline
 62
7
  6
CONTINUOUS
 90
10
 70
0
 10
8.4562234135
 20
5.0108775428
 10
8.3429063176
 20
5.0086636585
 10
8.2871515275
 20
5.0075398802
 10
8.2350951885
 20
5.0064205715
 10
8.188746334
 20
5.0053173029
 10
8.1485290414
 20
5.0042082815
 10
8.1159862398
 20
5.0031019731
 10
8.0921226769
 20
5.0020031109
 10
8.0773396278
 20
5.0008973595
 10
8.0724433206
 20
4.9999886716
  0
LWPOLYLINE
  5
69C
100
AcDbEntity
  8
0
100
AcDbPolyline
 62
7
  6
CONTINUOUS
 90
10
 70
0
 10
8.3428562084
 20
5.0096626694
 10
8.4563754915
 20
5.0118805441
 10
8.5112656799
 20
5.0129862137
 10
8.5627873607
 20
5.0140915826
 10
8.6094021335
 20
5.0151968431
 10
8.6502424366
 20
5.016318034
 10
8.6835052421
 20
5.0174459029
 10
8.7077004976
 20
5.0185632004
 10
8.7223291305
 20
5.0196685428
 10
8.7270723831
 20
5.0205601474
  0
LWPOLYLINE
  5
69D
100
AcDbEntity
  8
0
100
AcDbPolyline
 62
7
  6
CONTINUOUS
 90
10
 70
0
 10
8.3385851265
 20
4.9891912374
 10
8.4623724829
 20
4.9913833715
 10
8.5224038717
 20
4.9924794385
 10
8.5788087045
 20
4.9935755056
 10
8.6299191301
 20
4.9946715726
 10
8.6742238495
 20
4.9957676397
 10
8.7104128034
 20
4.9968637068
 10
8.73741591
 20
4.9979597738
 10
8.7544347066
 20
4.9990558409
 10
8.7608646876
 20
5.0000801654
  0
LINE
  5
69E
100
AcDbEntity
  8
0
100
AcDbLine
 62
7
  6
CONTINUOUS
 10
8.0386510161
 20
5.1000801654
 11
8.0724433206
 21
5.0805601474
  0
LINE
  5
69F
100
AcDbEntity
  8
0
100
AcDbLine
 62
7
  6
CONTINUOUS
 10
8.0386510161
 20
5.1400801654
 11
8.0724433206
 21
5.1205601474
  0
LINE
  5
6A0
100
AcDbEntity
  8
0
100
AcDbLine
 62
7
  6
CONTINUOUS
 10
8.0386510161
 20
5.1800801654
 11
8.0724433206
 21
5.1605601474
  0
LINE
  5
6A1
100
AcDbEntity
  8
0
100
AcDbLine
 62
7
  6
CONTINUOUS
 10
8.3747578519
 20
4.0583881285
 11
8.3747578519
 21
4.126714857
  0
LINE
  5
6A2
100
AcDbEntity
  8
0
100
AcDbLine
 62
7
  6
CONTINUOUS
 10
8.3997578519
 20
4.9297744095
 11
8.3997578519
 21
4.8907744095
  0
LWPOLYLINE
  5
6A3
100
AcDbEntity
  8
0
100
AcDbPolyline
 62
7
  6
CONTINUOUS
 90
3
 70
0
 10
8.7608646876
 20
5.5600801654
 10
8.7610282107
 20
5.5602421723
 10
8.7608646876
 20
5.5604686537
  0
LWPOLYLINE
  5
6A4
100
AcDbEntity
  8
0
100
AcDbPolyline
 62
7
  6
CONTINUOUS
 90
3
 70
0
 10
8.7608646876
 20
5.4800801654
 10
8.761023764
 20
5.4802292774
 10
8.7608646876
 20
5.4804686537
  0
LINE
  5
6A5
100
AcDbEntity
  8
0
100
AcDbLine
 62
7
  6
CONTINUOUS
 10
8.7270723831
 20
5.3805601474
 11
8.7608646876
 21
5.4000801654
  0
LINE
  5
6A6
100
AcDbEntity
  8
0
100
AcDbLine
 62
7
  6
CONTINUOUS
 10
8.0724433206
 20
4.9999886716
 11
8.0386510161
 21
4.9804686537
  0
LINE
  5
6A7
100
AcDbEntity
  8
0
100
AcDbLine
 62
7
  6
CONTINUOUS
 10
8.7270723831
 20
5.3405601474
 11
8.7608646876
 21
5.3600801654
  0
LINE
  5
6A8
100
AcDbEntity
  8
0
100
AcDbLine
 62
7
  6
CONTINUOUS
 10
8.0724433206
 20
4.9599886716
 11
8.0386510161
 21
4.9404686537
  0
LINE
  5
6A9
100
AcDbEntity
  8
0
100
AcDbLine
 62
7
  6
CONTINUOUS
 10
8.7270723831
 20
5.3005601474
 11
8.7608646876
 21
5.3200801654
  0
LWPOLYLINE
  5
6AA
100
AcDbEntity
  8
0
100
AcDbPolyline
 62
7
  6
CONTINUOUS
 90
20
 70
0
 10
8.0386510161
 20
4.9404686537
 10
8.0406020349
 20
4.940964287
 10
8.052606073
 20
4.9420603541
 10
8.0748751437
 20
4.9431564211
 10
8.1067507665
 20
4.9442524882
 10
8.1472904015
 20
4.9453485552
 10
8.1952953206
 20
4.9464446223
 10
8.2493460522
 20
4.9475406893
 10
8.3078443543
 20
4.9486367564
 10
8.3690604736
 20
4.9497328235
 10
8.4311842926
 20
4.9508288905
 10
8.492378854
 20
4.9519249576
 10
8.5508346779
 20
4.9530210246
 10
8.6048232668
 20
4.9541170917
 10
8.6527482164
 20
4.9552131587
 10
8.6931924198
 20
4.9563092258
 10
8.7249599705
 20
4.9574052928
 10
8.7471115244
 20
4.9585013599
 10
8.7589920759
 20
4.9595974269
 10
8.7608646876
 20
4.9600801654
  0
LWPOLYLINE
  5
6AB
100
AcDbEntity
  8
0
100
AcDbPolyline
 62
7
  6
CONTINUOUS
 90
20
 70
0
 10
8.0386510161
 20
5.0204686537
 10
8.0406819155
 20
5.0209771819
 10
8.052809391
 20
5.022073249
 10
8.0751958872
 20
5.023169316
 10
8.1071794511
 20
5.0242653831
 10
8.1478143515
 20
5.0253614501
 10
8.1958990431
 20
5.0264575172
 10
8.2500116956
 20
5.0275535843
 10
8.3085522359
 20
5.0286496513
 10
8.3697896619
 20
5.0297457184
 10
8.4319132261
 20
5.0308417854
 10
8.4930859786
 20
5.0319378525
 10
8.5514990843
 20
5.0330339195
 10
8.6054253091
 20
5.0341299866
 10
8.6532700926
 20
5.0352260536
 10
8.6936186984
 20
5.0363221207
 10
8.7252780467
 20
5.0374181877
 10
8.7473119931
 20
5.0385142548
 10
8.7590690091
 20
5.0396103218
 10
8.7608646876
 20
5.0400801654
  0
LWPOLYLINE
  5
6AC
100
AcDbEntity
  8
0
100
AcDbPolyline
 62
7
  6
CONTINUOUS
 90
9
 70
0
 10
8.7272578519
 20
5.0997744244
 10
8.722310499
 20
5.0986664493
 10
8.7076596481
 20
5.0975608688
 10
8.6834735367
 20
5.0964446689
 10
8.6502394934
 20
5.0953179451
 10
8.6094428389
 20
5.0941978732
 10
8.5629164172
 20
5.0930944755
 10
8.5115582081
 20
5.0919922625
 10
8.4564373103
 20
5.0908817642
  0
LWPOLYLINE
  5
6AD
100
AcDbEntity
  8
0
100
AcDbPolyline
 62
7
  6
CONTINUOUS
 90
10
 70
0
 10
8.7272578519
 20
5.1397744124
 10
8.7222536856
 20
5.1386600896
 10
8.7075754412
 20
5.1375560699
 10
8.6834349498
 20
5.1364431675
 10
8.6503022123
 20
5.1353198379
 10
8.6096482349
 20
5.1342030726
 10
8.5633450572
 20
5.1331040894
 10
8.5117903949
 20
5.131997065
 10
8.4564260669
 20
5.1308815423
 10
8.3429443626
 20
5.1286644095
  0
LWPOLYLINE
  5
6AE
100
AcDbEntity
  8
0
100
AcDbPolyline
 62
7
  6
CONTINUOUS
 90
9
 70
0
 10
8.7272578519
 20
5.1797744095
 10
8.7222354295
 20
5.1786580536
 10
8.7075703291
 20
5.1775557789
 10
8.6835213486
 20
5.17644653
 10
8.6505603682
 20
5.1753276358
 10
8.6101585285
 20
5.1742160057
 10
8.563899864
 20
5.1731165455
 10
8.5119792998
 20
5.1720009733
 10
8.456406711
 20
5.1708811603
  0
LWPOLYLINE
  5
6AF
100
AcDbEntity
  8
0
100
AcDbPolyline
 62
7
  6
CONTINUOUS
 90
9
 70
0
 10
8.0722578519
 20
4.9607744095
 10
8.0773396278
 20
4.9618973595
 10
8.0921226769
 20
4.9630031109
 10
8.1159862398
 20
4.9641019731
 10
8.1485290414
 20
4.9652082815
 10
8.188746334
 20
4.9663173029
 10
8.2350951885
 20
4.9674205715
 10
8.2871515275
 20
4.9685398802
 10
8.3429063176
 20
4.9696636585
  0
LWPOLYLINE
  5
6B0
100
AcDbEntity
  8
0
100
AcDbPolyline
 62
7
  6
CONTINUOUS
 90
9
 70
0
 10
8.0722578519
 20
5.0007744095
 10
8.0773419829
 20
5.0018976203
 10
8.0921458705
 20
5.0030044251
 10
8.1161398414
 20
5.0041079493
 10
8.1485564829
 20
5.005209113
 10
8.1886167536
 20
5.0063140085
 10
8.2349645088
 20
5.0074176324
 10
8.2870555526
 20
5.0085378934
 10
8.3428562084
 20
5.0096626694
  0
LWPOLYLINE
  5
6B1
100
AcDbEntity
  8
0
100
AcDbPolyline
 62
7
  6
CONTINUOUS
 90
5
 70
0
 10
8.0722578519
 20
5.0407744112
 10
8.0780894168
 20
5.0419775839
 10
8.0937000156
 20
5.0430908559
 10
8.1187127159
 20
5.0442066495
 10
8.1522498663
 20
5.0453198641
  0
LWPOLYLINE
  5
6B2
100
AcDbEntity
  8
0
100
AcDbPolyline
 62
7
  6
CONTINUOUS
 90
9
 70
0
 10
8.0386510161
 20
4.9804686537
 10
8.0453623397
 20
4.981518768
 10
8.0626230352
 20
4.9826148351
 10
8.089852569
 20
4.9837109021
 10
8.1262457829
 20
4.9848069692
 10
8.1707265552
 20
4.9859030362
 10
8.2219796211
 20
4.9869991033
 10
8.2784894635
 20
4.9880951703
 10
8.3385851265
 20
4.9891912374
  0
LWPOLYLINE
  5
6B3
100
AcDbEntity
  8
0
100
AcDbPolyline
 62
7
  6
CONTINUOUS
 90
5
 70
0
 10
8.0386510161
 20
5.0604686537
 10
8.0455051922
 20
5.0615316629
 10
8.0628867313
 20
5.06262773
 10
8.0902293113
 20
5.063723797
 10
8.1267244314
 20
5.0648198641
  0
LWPOLYLINE
  5
6B4
100
AcDbEntity
  8
0
100
AcDbPolyline
 62
7
  6
CONTINUOUS
 90
5
 70
0
 10
8.1522498663
 20
5.0843198641
 10
8.1187127159
 20
5.0832066495
 10
8.0937000156
 20
5.0820908559
 10
8.0780894168
 20
5.0809775839
 10
8.0724433206
 20
5.0799886716
  0
LWPOLYLINE
  5
6B5
100
AcDbEntity
  8
0
100
AcDbPolyline
 62
7
  6
CONTINUOUS
 90
5
 70
0
 10
8.1522498663
 20
5.0453198641
 10
8.1920118941
 20
5.0463998582
 10
8.2378444859
 20
5.0474822247
 10
8.2891594048
 20
5.0485813959
 10
8.3439547833
 20
5.0496843477
  0
LWPOLYLINE
  5
6B6
100
AcDbEntity
  8
0
100
AcDbPolyline
 62
7
  6
CONTINUOUS
 90
6
 70
0
 10
8.1267244314
 20
5.0648198641
 10
8.1712929567
 20
5.0659159311
 10
8.2226170274
 20
5.0670119982
 10
8.279179027
 20
5.0681080652
 10
8.3393064573
 20
5.0692041323
 10
8.4630930519
 20
5.0713962664
  0
LWPOLYLINE
  5
6B7
100
AcDbEntity
  8
0
100
AcDbPolyline
 62
7
  6
CONTINUOUS
 90
10
 70
0
 10
8.4563754915
 20
5.0508805441
 10
8.3428562084
 20
5.0486626694
 10
8.2870555526
 20
5.0475378934
 10
8.2349645088
 20
5.0464176324
 10
8.1886167536
 20
5.0453140085
 10
8.1485564829
 20
5.044209113
 10
8.1161398414
 20
5.0431079493
 10
8.0921458705
 20
5.0420044251
 10
8.0773419829
 20
5.0408976203
 10
8.0724433206
 20
5.0399886716
  0
LWPOLYLINE
  5
6B8
100
AcDbEntity
  8
0
100
AcDbPolyline
 62
7
  6
CONTINUOUS
 90
10
 70
0
 10
8.3439547833
 20
5.0496843477
 10
8.4564373103
 20
5.0518817642
 10
8.5115582081
 20
5.0529922625
 10
8.5629164172
 20
5.0540944755
 10
8.6094428389
 20
5.0551978732
 10
8.6502394934
 20
5.0563179451
 10
8.6834735367
 20
5.0574446689
 10
8.7076596481
 20
5.0585608688
 10
8.722310499
 20
5.0596664493
 10
8.7270723831
 20
5.0605601474
  0
LWPOLYLINE
  5
6B9
100
AcDbEntity
  8
0
100
AcDbPolyline
 62
7
  6
CONTINUOUS
 90
6
 70
0
 10
8.4564373103
 20
5.0908817642
 10
8.3439547833
 20
5.0886843477
 10
8.2891594048
 20
5.0875813959
 10
8.2378444859
 20
5.0864822247
 10
8.1920118941
 20
5.0853998582
 10
8.1522498663
 20
5.0843198641
  0
LWPOLYLINE
  5
6BA
100
AcDbEntity
  8
0
100
AcDbPolyline
 62
7
  6
CONTINUOUS
 90
10
 70
0
 10
8.3429443626
 20
5.0896644095
 10
8.4564260669
 20
5.0918815423
 10
8.5117903949
 20
5.092997065
 10
8.5633450572
 20
5.0941040894
 10
8.6096482349
 20
5.0952030726
 10
8.6503022123
 20
5.0963198379
 10
8.6834349498
 20
5.0974431675
 10
8.7075754412
 20
5.0985560699
 10
8.7222536856
 20
5.0996600896
 10
8.7270723831
 20
5.1005601474
  0
LWPOLYLINE
  5
6BB
100
AcDbEntity
  8
0
100
AcDbPolyline
 62
7
  6
CONTINUOUS
 90
9
 70
0
 10
8.4630930519
 20
5.0713962664
 10
8.5230919342
 20
5.0724923334
 10
8.5794439148
 20
5.0735884005
 10
8.6304827057
 20
5.0746844676
 10
8.6746991257
 20
5.0757805346
 10
8.7107857267
 20
5.0768766017
 10
8.7376754533
 20
5.0779726687
 10
8.7545731954
 20
5.0790687358
 10
8.7608646876
 20
5.0800801654
  0
LINE
  5
6BC
100
AcDbEntity
  8
0
100
AcDbLine
 62
7
  6
CONTINUOUS
 10
8.0386510161
 20
5.2200801654
 11
8.0724433206
 21
5.2005601474
  0
LINE
  5
6BD
100
AcDbEntity
  8
0
100
AcDbLine
 62
7
  6
CONTINUOUS
 10
8.0386510161
 20
5.2600801654
 11
8.0724433206
 21
5.2405601474
  0
LINE
  5
6BE
100
AcDbEntity
  8
0
100
AcDbLine
 62
7
  6
CONTINUOUS
 10
8.0386510161
 20
5.3000801654
 11
8.0724433206
 21
5.2805601474
  0
LINE
  5
6BF
100
AcDbEntity
  8
0
100
AcDbLine
 62
7
  6
CONTINUOUS
 10
8.4247578519
 20
4.0583881285
 11
8.4247578519
 21
4.0707744095
  0
LINE
  5
6C0
100
AcDbEntity
  8
AXIS
100
AcDbLine
 62
7
  6
CONTINUOUS
 10
8.5162578519
 20
4.0307744095
 11
8.5162578519
 21
3.5937271654
  0
LINE
  5
6C1
100
AcDbEntity
  8
AXIS_COSMETIC_THREADS
100
AcDbLine
 62
7
  6
CONTINUOUS
 10
8.5162578519
 20
4.0307744095
 11
8.5162578519
 21
3.5937271654
  0
LWPOLYLINE
  5
6C2
100
AcDbEntity
  8
0
100
AcDbPolyline
 62
7
  6
CONTINUOUS
 90
3
 70
0
 10
8.7608646876
 20
5.4000801654
 10
8.7610178352
 20
5.4002163824
 10
8.7608646876
 20
5.4004686537
  0
LWPOLYLINE
  5
6C3
100
AcDbEntity
  8
0
100
AcDbPolyline
 62
7
  6
CONTINUOUS
 90
3
 70
0
 10
8.7608646876
 20
5.3200801654
 10
8.7610104242
 20
5.3202034875
 10
8.7608646876
 20
5.3204686537
  0
LINE
  5
6C4
100
AcDbEntity
  8
0
100
AcDbLine
 62
7
  6
CONTINUOUS
 10
8.7270723831
 20
5.2605601474
 11
8.7608646876
 21
5.2800801654
  0
LINE
  5
6C5
100
AcDbEntity
  8
0
100
AcDbLine
 62
7
  6
CONTINUOUS
 10
8.7270723831
 20
5.2205601474
 11
8.7608646876
 21
5.2400801654
  0
LINE
  5
6C6
100
AcDbEntity
  8
0
100
AcDbLine
 62
7
  6
CONTINUOUS
 10
8.7270723831
 20
5.1805601474
 11
8.7608646876
 21
5.2000801654
  0
LWPOLYLINE
  5
6C7
100
AcDbEntity
  8
0
100
AcDbPolyline
 62
7
  6
CONTINUOUS
 90
20
 70
0
 10
8.0386510161
 20
5.1004686537
 10
8.0407632694
 20
5.1009900768
 10
8.0530141325
 20
5.1020861439
 10
8.0755179622
 20
5.1031822109
 10
8.1076093362
 20
5.104278278
 10
8.1483393352
 20
5.105374345
 10
8.196503602
 20
5.1064704121
 10
8.2506779533
 20
5.1075664792
 10
8.3092604918
 20
5.1086625462
 10
8.3705189732
 20
5.1097586133
 10
8.4326420276
 20
5.1108546803
 10
8.4937927202
 20
5.1119507474
 10
8.5521628682
 20
5.1130468144
 10
8.6060265077
 20
5.1141428815
 10
8.6537909288
 20
5.1152389485
 10
8.6940437714
 20
5.1163350156
 10
8.7255947875
 20
5.1174310826
 10
8.7475110357
 20
5.1185271497
 10
8.7591444682
 20
5.1196232167
 10
8.7608646876
 20
5.1200801654
  0
LWPOLYLINE
  5
6C8
100
AcDbEntity
  8
0
100
AcDbPolyline
 62
7
  6
CONTINUOUS
 90
9
 70
0
 10
8.0722578519
 20
5.1207744095
 10
8.077281751
 20
5.1218909299
 10
8.0919520256
 20
5.1229934187
 10
8.1160027449
 20
5.1241026157
 10
8.1489563392
 20
5.1252212136
 10
8.1893379051
 20
5.1263323245
 10
8.2355890419
 20
5.1274316716
 10
8.2875122658
 20
5.1285473463
 10
8.3430947067
 20
5.1296673768
  0
LWPOLYLINE
  5
6C9
100
AcDbEntity
  8
0
100
AcDbPolyline
 62
7
  6
CONTINUOUS
 90
9
 70
0
 10
8.7272578519
 20
5.2197744095
 10
8.7222016775
 20
5.2186542991
 10
8.7074540441
 20
5.217549169
 10
8.6833700883
 20
5.2164406453
 10
8.6505712779
 20
5.2153279656
 10
8.6105757397
 20
5.2142265961
 10
8.5643024767
 20
5.2131255934
 10
8.5122745018
 20
5.2120070826
 10
8.4565608047
 20
5.2108842016
  0
LWPOLYLINE
  5
6CA
100
AcDbEntity
  8
0
100
AcDbPolyline
 62
7
  6
CONTINUOUS
 90
9
 70
0
 10
8.0722578519
 20
5.0807744095
 10
8.0773148525
 20
5.0818946117
 10
8.0920659659
 20
5.0829998945
 10
8.1161493157
 20
5.0841083176
 10
8.1489377647
 20
5.0852206521
 10
8.1889216069
 20
5.0863217567
 10
8.2351959479
 20
5.0874228371
 10
8.2872242757
 20
5.0885413861
 10
8.3429443626
 20
5.0896644095
  0
LWPOLYLINE
  5
6CB
100
AcDbEntity
  8
0
100
AcDbPolyline
 62
7
  6
CONTINUOUS
 90
9
 70
0
 10
8.7272578519
 20
5.2597744095
 10
8.7221846516
 20
5.2586524099
 10
8.7073990935
 20
5.257546052
 10
8.6833288702
 20
5.2564390434
 10
8.6507067037
 20
5.2553320611
 10
8.6107958766
 20
5.2542321899
 10
8.5644813697
 20
5.2531296161
 10
8.5124050997
 20
5.252009786
 10
8.4566290182
 20
5.250885548
  0
LWPOLYLINE
  5
6CC
100
AcDbEntity
  8
0
100
AcDbPolyline
 62
7
  6
CONTINUOUS
 90
9
 70
0
 10
8.7272578519
 20
5.2997744095
 10
8.7221733838
 20
5.2986511614
 10
8.7073699737
 20
5.2975444019
 10
8.6833710349
 20
5.2964406821
 10
8.6509520953
 20
5.2953394902
 10
8.6108996553
 20
5.2942348285
 10
8.5645511406
 20
5.2931311854
 10
8.5124559109
 20
5.2920108379
 10
8.4566555714
 20
5.2908860722
  0
LWPOLYLINE
  5
6CD
100
AcDbEntity
  8
0
100
AcDbPolyline
 62
7
  6
CONTINUOUS
 90
10
 70
0
 10
8.0386510161
 20
5.1404686537
 10
8.0456494981
 20
5.1415445578
 10
8.0631518095
 20
5.1426406249
 10
8.0906073235
 20
5.1437366919
 10
8.1272042001
 20
5.144832759
 10
8.1718602955
 20
5.145928826
 10
8.2232551604
 20
5.1470248931
 10
8.2798690852
 20
5.1481209601
 10
8.340028036
 20
5.1492170272
 10
8.463813361
 20
5.1514091613
  0
LWPOLYLINE
  5
6CE
100
AcDbEntity
  8
0
100
AcDbPolyline
 62
7
  6
CONTINUOUS
 90
9
 70
0
 10
8.3429443626
 20
5.1286644095
 10
8.2872242757
 20
5.1275413861
 10
8.2351959479
 20
5.1264228371
 10
8.1889216069
 20
5.1253217567
 10
8.1489377647
 20
5.1242206521
 10
8.1161493157
 20
5.1231083176
 10
8.0920659659
 20
5.1219998945
 10
8.0773148525
 20
5.1208946117
 10
8.0724433206
 20
5.1199886716
  0
LWPOLYLINE
  5
6CF
100
AcDbEntity
  8
0
100
AcDbPolyline
 62
7
  6
CONTINUOUS
 90
9
 70
0
 10
8.4566290182
 20
5.211885548
 10
8.5124050997
 20
5.213009786
 10
8.5644813697
 20
5.2141296161
 10
8.6107958766
 20
5.2152321899
 10
8.6507067037
 20
5.2163320611
 10
8.6833288702
 20
5.2174390434
 10
8.7073990935
 20
5.218546052
 10
8.7221846516
 20
5.2196524099
 10
8.7270723831
 20
5.2205601474
  0
LWPOLYLINE
  5
6D0
100
AcDbEntity
  8
0
100
AcDbPolyline
 62
7
  6
CONTINUOUS
 90
10
 70
0
 10
8.3430947067
 20
5.1296673768
 10
8.456406711
 20
5.1318811603
 10
8.5119792998
 20
5.1330009733
 10
8.563899864
 20
5.1341165455
 10
8.6101585285
 20
5.1352160057
 10
8.6505603682
 20
5.1363276358
 10
8.6835213486
 20
5.13744653
 10
8.7075703291
 20
5.1385557789
 10
8.7222354295
 20
5.1396580536
 10
8.7270723831
 20
5.1405601474
  0
LWPOLYLINE
  5
6D1
100
AcDbEntity
  8
0
100
AcDbPolyline
 62
7
  6
CONTINUOUS
 90
10
 70
0
 10
8.456406711
 20
5.1708811603
 10
8.3430947067
 20
5.1686673768
 10
8.2875122658
 20
5.1675473463
 10
8.2355890419
 20
5.1664316716
 10
8.1893379051
 20
5.1653323245
 10
8.1489563392
 20
5.1642212136
 10
8.1160027449
 20
5.1631026157
 10
8.0919520256
 20
5.1619934187
 10
8.077281751
 20
5.1608909299
 10
8.0724433206
 20
5.1599886716
  0
LWPOLYLINE
  5
6D2
100
AcDbEntity
  8
0
100
AcDbPolyline
 62
7
  6
CONTINUOUS
 90
10
 70
0
 10
8.3430897422
 20
5.1696672789
 10
8.4565608047
 20
5.1718842016
 10
8.5122745018
 20
5.1730070826
 10
8.5643024767
 20
5.1741255934
 10
8.6105757397
 20
5.1752265961
 10
8.6505712779
 20
5.1763279656
 10
8.6833700883
 20
5.1774406453
 10
8.7074540441
 20
5.178549169
 10
8.7222016775
 20
5.1796542991
 10
8.7270723831
 20
5.1805601474
  0
LWPOLYLINE
  5
6D3
100
AcDbEntity
  8
0
100
AcDbPolyline
 62
7
  6
CONTINUOUS
 90
10
 70
0
 10
8.4565608047
 20
5.2108842016
 10
8.3430897422
 20
5.2086672789
 10
8.2877153012
 20
5.207551547
 10
8.2361432098
 20
5.206444114
 10
8.1898499997
 20
5.2053453041
 10
8.1492038409
 20
5.2042286898
 10
8.1160795825
 20
5.2031056059
 10
8.091944447
 20
5.2019929874
 10
8.0772652388
 20
5.2008890889
 10
8.0724433206
 20
5.1999886716
  0
LWPOLYLINE
  5
6D4
100
AcDbEntity
  8
0
100
AcDbPolyline
 62
7
  6
CONTINUOUS
 90
9
 70
0
 10
8.463813361
 20
5.1514091613
 10
8.5237794905
 20
5.1525052284
 10
8.5800783879
 20
5.1536012954
 10
8.6310453346
 20
5.1546973625
 10
8.6751732739
 20
5.1557934295
 10
8.7111573739
 20
5.1568894966
 10
8.7379336102
 20
5.1579855636
 10
8.7547102284
 20
5.1590816307
 10
8.7608646876
 20
5.1600801654
  0
LINE
  5
6D5
100
AcDbEntity
  8
0
100
AcDbLine
 62
7
  6
CONTINUOUS
 10
8.7608646876
 20
4.9204686537
 11
8.7270723831
 21
4.9399886716
  0
LINE
  5
6D6
100
AcDbEntity
  8
0
100
AcDbLine
 62
7
  6
CONTINUOUS
 10
8.0386510161
 20
5.3400801654
 11
8.0724433206
 21
5.3205601474
  0
LINE
  5
6D7
100
AcDbEntity
  8
0
100
AcDbLine
 62
7
  6
CONTINUOUS
 10
8.7608646876
 20
4.9604686537
 11
8.7270723831
 21
4.9799886716
  0
LINE
  5
6D8
100
AcDbEntity
  8
0
100
AcDbLine
 62
7
  6
CONTINUOUS
 10
8.0386510161
 20
5.3800801654
 11
8.0724433206
 21
5.3605601474
  0
LINE
  5
6D9
100
AcDbEntity
  8
0
100
AcDbLine
 62
7
  6
CONTINUOUS
 10
8.7608646876
 20
5.0004686537
 11
8.7270723831
 21
5.0199886716
  0
LINE
  5
6DA
100
AcDbEntity
  8
0
100
AcDbLine
 62
7
  6
CONTINUOUS
 10
8.0386510161
 20
5.4200801654
 11
8.0724433206
 21
5.4005601474
  0
LWPOLYLINE
  5
6DB
100
AcDbEntity
  8
0
100
AcDbPolyline
 62
7
  6
CONTINUOUS
 90
3
 70
0
 10
8.7608646876
 20
5.2400801654
 10
8.7610015311
 20
5.2401905926
 10
8.7608646876
 20
5.2404686537
  0
LINE
  5
6DC
100
AcDbEntity
  8
0
100
AcDbLine
 62
7
  6
CONTINUOUS
 10
8.7270723831
 20
5.1405601474
 11
8.7608646876
 21
5.1600801654
  0
LINE
  5
6DD
100
AcDbEntity
  8
0
100
AcDbLine
 62
7
  6
CONTINUOUS
 10
8.7270723831
 20
5.1005601474
 11
8.7608646876
 21
5.1200801654
  0
LINE
  5
6DE
100
AcDbEntity
  8
0
100
AcDbLine
 62
7
  6
CONTINUOUS
 10
8.7270723831
 20
5.0605601474
 11
8.7608646876
 21
5.0800801654
  0
LWPOLYLINE
  5
6DF
100
AcDbEntity
  8
0
100
AcDbPolyline
 62
7
  6
CONTINUOUS
 90
20
 70
0
 10
8.0386510161
 20
5.1804686537
 10
8.0408460961
 20
5.1810029717
 10
8.0532202965
 20
5.1820990388
 10
8.0758413674
 20
5.1831951058
 10
8.1080404198
 20
5.1842911729
 10
8.1488653504
 20
5.18538724
 10
8.1971089948
 20
5.186483307
 10
8.2513448227
 20
5.1875793741
 10
8.3099691189
 20
5.1886754411
 10
8.3712484045
 20
5.1897715082
 10
8.4333706943
 20
5.1908675752
 10
8.4944990761
 20
5.1919636423
 10
8.5528260269
 20
5.1930597093
 10
8.6066268599
 20
5.1941557764
 10
8.6543107227
 20
5.1952518434
 10
8.694467637
 20
5.1963479105
 10
8.7259101914
 20
5.1974439775
 10
8.7477086517
 20
5.1985400446
 10
8.7592184528
 20
5.1996361117
 10
8.7608646876
 20
5.2000801654
  0
LWPOLYLINE
  5
6E0
100
AcDbEntity
  8
0
100
AcDbPolyline
 62
7
  6
CONTINUOUS
 90
10
 70
0
 10
8.0722578519
 20
5.2407744051
 10
8.0771870612
 20
5.2418803311
 10
8.0918167109
 20
5.2429857046
 10
8.1160099656
 20
5.2441028968
 10
8.1492708374
 20
5.2452307118
 10
8.1901119305
 20
5.2463519344
 10
8.2367252901
 20
5.2474571681
 10
8.2882289399
 20
5.2485621694
 10
8.3431341687
 20
5.2496681557
 10
8.4566555714
 20
5.2518860722
  0
LWPOLYLINE
  5
6E1
100
AcDbEntity
  8
0
100
AcDbPolyline
 62
7
  6
CONTINUOUS
 90
9
 70
0
 10
8.0722578519
 20
5.1607744071
 10
8.0772652388
 20
5.1618890889
 10
8.091944447
 20
5.1629929874
 10
8.1160795825
 20
5.1641056059
 10
8.1492038409
 20
5.1652286898
 10
8.1898499997
 20
5.1663453041
 10
8.2361432098
 20
5.167444114
 10
8.2877153012
 20
5.168551547
 10
8.3430897422
 20
5.1696672789
  0
LWPOLYLINE
  5
6E2
100
AcDbEntity
  8
0
100
AcDbPolyline
 62
7
  6
CONTINUOUS
 90
9
 70
0
 10
8.7272578519
 20
5.3797744095
 10
8.7221897006
 20
5.3786529698
 10
8.7074620458
 20
5.3775496232
 10
8.6835785202
 20
5.3764487566
 10
8.6507947971
 20
5.3753347269
 10
8.6104382172
 20
5.3742231036
 10
8.5641190226
 20
5.3731214697
 10
8.512139065
 20
5.3720042794
 10
8.4564901411
 20
5.3708828069
  0
LWPOLYLINE
  5
6E3
100
AcDbEntity
  8
0
100
AcDbPolyline
 62
7
  6
CONTINUOUS
 90
9
 70
0
 10
8.7272578519
 20
5.3397744095
 10
8.7221750706
 20
5.3386513482
 10
8.7073907664
 20
5.33754558
 10
8.6835214903
 20
5.3364465355
 10
8.6509901625
 20
5.3353406436
 10
8.6107809097
 20
5.3342318095
 10
8.5644302888
 20
5.3331284674
 10
8.5123671541
 20
5.3320090004
 10
8.4566092314
 20
5.3308851575
  0
LWPOLYLINE
  5
6E4
100
AcDbEntity
  8
0
100
AcDbPolyline
 62
7
  6
CONTINUOUS
 90
10
 70
0
 10
8.0723864727
 20
5.200952836
 10
8.0787672141
 20
5.202045805
 10
8.0944312608
 20
5.2031304732
 10
8.1192619604
 20
5.2042273893
 10
8.1526914386
 20
5.2053329561
 10
8.1932431698
 20
5.2064307577
 10
8.2391962248
 20
5.207512413
 10
8.2898249098
 20
5.2085951346
 10
8.3440959318
 20
5.2096871321
 10
8.4566290182
 20
5.211885548
  0
LWPOLYLINE
  5
6E5
100
AcDbEntity
  8
0
100
AcDbPolyline
 62
7
  6
CONTINUOUS
 90
10
 70
0
 10
8.0386510161
 20
5.2204686537
 10
8.0457952569
 20
5.2215574527
 10
8.0634182687
 20
5.2226535198
 10
8.0909866041
 20
5.2237495868
 10
8.127685087
 20
5.2248456539
 10
8.1724285693
 20
5.2259417209
 10
8.2238940177
 20
5.227037788
 10
8.2805596353
 20
5.228133855
 10
8.3407498599
 20
5.2292299221
 10
8.4645334073
 20
5.2314220562
  0
LWPOLYLINE
  5
6E6
100
AcDbEntity
  8
0
100
AcDbPolyline
 62
7
  6
CONTINUOUS
 90
9
 70
0
 10
8.4566555714
 20
5.2518860722
 10
8.5124559109
 20
5.2530108379
 10
8.5645511406
 20
5.2541311854
 10
8.6108996553
 20
5.2552348285
 10
8.6509520953
 20
5.2563394902
 10
8.6833710349
 20
5.2574406821
 10
8.7073699737
 20
5.2585444019
 10
8.7221733838
 20
5.2596511614
 10
8.7270723831
 20
5.2605601474
  0
LWPOLYLINE
  5
6E7
100
AcDbEntity
  8
0
100
AcDbPolyline
 62
7
  6
CONTINUOUS
 90
9
 70
0
 10
8.4566092314
 20
5.2918851575
 10
8.5123671541
 20
5.2930090004
 10
8.5644302888
 20
5.2941284674
 10
8.6107809097
 20
5.2952318095
 10
8.6509901625
 20
5.2963406436
 10
8.6835214903
 20
5.2974465355
 10
8.7073907664
 20
5.29854558
 10
8.7221750706
 20
5.2996513482
 10
8.7270723831
 20
5.3005601474
  0
LWPOLYLINE
  5
6E8
100
AcDbEntity
  8
0
100
AcDbPolyline
 62
7
  6
CONTINUOUS
 90
10
 70
0
 10
8.4566290182
 20
5.250885548
 10
8.3440959318
 20
5.2486871321
 10
8.2898249098
 20
5.2475951346
 10
8.2391962248
 20
5.246512413
 10
8.1932431698
 20
5.2454307577
 10
8.1526914386
 20
5.2443329561
 10
8.1192619604
 20
5.2432273893
 10
8.0944312608
 20
5.2421304732
 10
8.0787672141
 20
5.241045805
 10
8.0724433206
 20
5.2399886716
  0
LWPOLYLINE
  5
6E9
100
AcDbEntity
  8
0
100
AcDbPolyline
 62
7
  6
CONTINUOUS
 90
10
 70
0
 10
8.4566555714
 20
5.2908860722
 10
8.3431341687
 20
5.2886681557
 10
8.2882289399
 20
5.2875621694
 10
8.2367252901
 20
5.2864571681
 10
8.1901119305
 20
5.2853519344
 10
8.1492708374
 20
5.2842307118
 10
8.1160099656
 20
5.2831028968
 10
8.0918167109
 20
5.2819857046
 10
8.0771870612
 20
5.2808803311
 10
8.0724433206
 20
5.2799886716
  0
LWPOLYLINE
  5
6EA
100
AcDbEntity
  8
0
100
AcDbPolyline
 62
7
  6
CONTINUOUS
 90
9
 70
0
 10
8.4645334073
 20
5.2314220562
 10
8.5244665381
 20
5.2325181233
 10
8.5807121213
 20
5.2336141903
 10
8.6316070146
 20
5.2347102574
 10
8.6756462921
 20
5.2358063244
 10
8.7115277435
 20
5.2369023915
 10
8.7381903796
 20
5.2379984585
 10
8.7548458052
 20
5.2390945256
 10
8.7608646876
 20
5.2400801654
  0
LINE
  5
6EB
100
AcDbEntity
  8
0
100
AcDbLine
 62
7
  6
CONTINUOUS
 10
8.7608646876
 20
5.0404686537
 11
8.7270723831
 21
5.0599886716
  0
LINE
  5
6EC
100
AcDbEntity
  8
0
100
AcDbLine
 62
7
  6
CONTINUOUS
 10
8.0386510161
 20
5.4600801654
 11
8.0724433206
 21
5.4405601474
  0
LINE
  5
6ED
100
AcDbEntity
  8
0
100
AcDbLine
 62
7
  6
CONTINUOUS
 10
8.7608646876
 20
5.0804686537
 11
8.7270723831
 21
5.0999886716
  0
LINE
  5
6EE
100
AcDbEntity
  8
0
100
AcDbLine
 62
7
  6
CONTINUOUS
 10
8.0386510161
 20
5.5000801654
 11
8.0724433206
 21
5.4805601474
  0
LINE
  5
6EF
100
AcDbEntity
  8
0
100
AcDbLine
 62
7
  6
CONTINUOUS
 10
8.7608646876
 20
5.1204686537
 11
8.7270723831
 21
5.1399886716
  0
LINE
  5
6F0
100
AcDbEntity
  8
0
100
AcDbLine
 62
7
  6
CONTINUOUS
 10
8.0386510161
 20
5.5400801654
 11
8.0724433206
 21
5.5205601474
  0
LINE
  5
6F1
100
AcDbEntity
  8
0
100
AcDbLine
 62
9
  6
CONTINUOUS
 10
8.6647578519
 20
4.0583881285
 11
8.6647578519
 21
4.0707744095
  0
LINE
  5
6F2
100
AcDbEntity
  8
0
100
AcDbLine
 62
7
  6
CONTINUOUS
 10
8.7247578519
 20
4.1907744095
 11
8.7247578519
 21
4.0707744095
  0
LWPOLYLINE
  5
6F3
100
AcDbEntity
  8
0
100
AcDbPolyline
 62
7
  6
CONTINUOUS
 90
7
 70
0
 10
8.3747578519
 20
4.0583881285
 10
8.372850649
 20
4.0521055755
 10
8.3671593522
 20
4.0460668155
 10
8.3577744153
 20
4.040505841
 10
8.3448449965
 20
4.0357711452
 10
8.3285765877
 20
4.0323475366
 10
8.3092277484
 20
4.0307744095
  0
LINE
  5
6F4
100
AcDbEntity
  8
0
100
AcDbLine
 62
7
  6
CONTINUOUS
 10
8.7270723831
 20
5.0205601474
 11
8.7608646876
 21
5.0400801654
  0
LINE
  5
6F5
100
AcDbEntity
  8
0
100
AcDbLine
 62
7
  6
CONTINUOUS
 10
8.7270723831
 20
4.9805601474
 11
8.7608646876
 21
5.0000801654
  0
LINE
  5
6F6
100
AcDbEntity
  8
0
100
AcDbLine
 62
7
  6
CONTINUOUS
 10
8.7270723831
 20
4.9405601474
 11
8.7608646876
 21
4.9600801654
  0
LWPOLYLINE
  5
6F7
100
AcDbEntity
  8
0
100
AcDbPolyline
 62
7
  6
CONTINUOUS
 90
20
 70
0
 10
8.0386510161
 20
5.2604686537
 10
8.0409303953
 20
5.2610158666
 10
8.0534278823
 20
5.2621119337
 10
8.0761661017
 20
5.2632080008
 10
8.1084727003
 20
5.2643040678
 10
8.1493923949
 20
5.2654001349
 10
8.1977152191
 20
5.2664962019
 10
8.252012301
 20
5.267592269
 10
8.3106781145
 20
5.268688336
 10
8.3719779528
 20
5.2697844031
 10
8.434099223
 20
5.2708804701
 10
8.4952050432
 20
5.2719765372
 10
8.5534885575
 20
5.2730726042
 10
8.6072263634
 20
5.2741686713
 10
8.6548294722
 20
5.2752647383
 10
8.6948902935
 20
5.2763608054
 10
8.7262242572
 20
5.2774568725
 10
8.74790484
 20
5.2785529395
 10
8.7592909626
 20
5.2796490066
 10
8.7608646876
 20
5.2800801654
  0
LWPOLYLINE
  5
6F8
100
AcDbEntity
  8
0
100
AcDbPolyline
 62
7
  6
CONTINUOUS
 90
20
 70
0
 10
8.0386510161
 20
5.3404686537
 10
8.0410161667
 20
5.3410287616
 10
8.053636889
 20
5.3421248286
 10
8.0764921635
 20
5.3432208957
 10
8.1089061759
 20
5.3443169627
 10
8.1499204666
 20
5.3454130298
 10
8.1983222722
 20
5.3465090968
 10
8.2526803855
 20
5.3476051639
 10
8.3113874755
 20
5.3487012309
 10
8.372707615
 20
5.349797298
 10
8.4348276109
 20
5.350893365
 10
8.4959106188
 20
5.3519894321
 10
8.5541504574
 20
5.3530854991
 10
8.6078250158
 20
5.3541815662
 10
8.6553471752
 20
5.3552776333
 10
8.6953117391
 20
5.3563737003
 10
8.7265369835
 20
5.3574697674
 10
8.7480996
 20
5.3585658344
 10
8.7593619974
 20
5.3596619015
 10
8.7608646876
 20
5.3600801654
  0
LWPOLYLINE
  5
6F9
100
AcDbEntity
  8
0
100
AcDbPolyline
 62
7
  6
CONTINUOUS
 90
10
 70
0
 10
8.0722578519
 20
5.2807744194
 10
8.0771940085
 20
5.2818811121
 10
8.0917933435
 20
5.2829843698
 10
8.1159669567
 20
5.2841012222
 10
8.1492052869
 20
5.2852287335
 10
8.1900222707
 20
5.2863496655
 10
8.2366517675
 20
5.28745552
 10
8.2884314036
 20
5.2885663548
 10
8.3432826023
 20
5.289671085
 10
8.4566092314
 20
5.2918851575
  0
LWPOLYLINE
  5
6FA
100
AcDbEntity
  8
0
100
AcDbPolyline
 62
7
  6
CONTINUOUS
 90
9
 70
0
 10
8.7272578519
 20
5.4997743969
 10
8.7223173003
 20
5.4986672131
 10
8.7077222748
 20
5.4975644444
 10
8.6835531473
 20
5.4964477683
 10
8.650323867
 20
5.4953204916
 10
8.6095216696
 20
5.4941998683
 10
8.5629019923
 20
5.4930941521
 10
8.5110908921
 20
5.4919826005
 10
8.4562031625
 20
5.4908771432
  0
LWPOLYLINE
  5
6FB
100
AcDbEntity
  8
0
100
AcDbPolyline
 62
7
  6
CONTINUOUS
 90
10
 70
0
 10
8.0722578519
 20
5.3207744193
 10
8.077237072
 20
5.3218859414
 10
8.0918056592
 20
5.3229850734
 10
8.1159211689
 20
5.3240994384
 10
8.1490637985
 20
5.3252244609
 10
8.1897582067
 20
5.3263429791
 10
8.2362851006
 20
5.3274472976
 10
8.288197942
 20
5.3285615286
 10
8.3434262801
 20
5.3296739203
 10
8.4564901411
 20
5.3318828069
  0
LWPOLYLINE
  5
6FC
100
AcDbEntity
  8
0
100
AcDbPolyline
 62
7
  6
CONTINUOUS
 90
10
 70
0
 10
8.7272578519
 20
5.4597744021
 10
8.7222702644
 20
5.4586619417
 10
8.7077028591
 20
5.4575633353
 10
8.6835967813
 20
5.4564494681
 10
8.6504737434
 20
5.455325018
 10
8.6098086026
 20
5.4542071347
 10
8.5633088474
 20
5.4531032769
 10
8.5113841466
 20
5.4519886631
 10
8.4560962895
 20
5.4508750342
 10
8.3430467267
 20
5.4486664299
  0
LWPOLYLINE
  5
6FD
100
AcDbEntity
  8
0
100
AcDbPolyline
 62
7
  6
CONTINUOUS
 90
9
 70
0
 10
8.7272578519
 20
5.4197744094
 10
8.7222440993
 20
5.4186590201
 10
8.7075996649
 20
5.4175574494
 10
8.6835630065
 20
5.4164481523
 10
8.6505866189
 20
5.4153284294
 10
8.610125748
 20
5.4142151742
 10
8.563839359
 20
5.4131151864
 10
8.511934283
 20
5.4120000419
 10
8.4563832417
 20
5.4108806971
  0
LWPOLYLINE
  5
6FE
100
AcDbEntity
  8
0
100
AcDbPolyline
 62
7
  6
CONTINUOUS
 90
10
 70
0
 10
8.0723961748
 20
5.3609594437
 10
8.0788261206
 20
5.3620515641
 10
8.0944159046
 20
5.3631296478
 10
8.1191302685
 20
5.3642224268
 10
8.152378336
 20
5.3653236762
 10
8.192702769
 20
5.3664172111
 10
8.2385863679
 20
5.3674988031
 10
8.289772128
 20
5.3685940454
 10
8.3443010409
 20
5.3696911778
 10
8.4563832417
 20
5.3718806971
  0
LWPOLYLINE
  5
6FF
100
AcDbEntity
  8
0
100
AcDbPolyline
 62
7
  6
CONTINUOUS
 90
19
 70
0
 10
8.0386510161
 20
5.3004686537
 10
8.0459424679
 20
5.3015703476
 10
8.0636861078
 20
5.3026664147
 10
8.0913671515
 20
5.3037624817
 10
8.1281670902
 20
5.3048585488
 10
8.1729977758
 20
5.3059546158
 10
8.2245335964
 20
5.3070506829
 10
8.2812506744
 20
5.3081467499
 10
8.3414719258
 20
5.309242817
 10
8.4034166509
 20
5.3103388841
 10
8.4652531878
 20
5.3114349511
 10
8.525153074
 20
5.3125310182
 10
8.5813451121
 20
5.3136270852
 10
8.6321677434
 20
5.3147231523
 10
8.6761181784
 20
5.3158192193
 10
8.711896834
 20
5.3169152864
 10
8.7384457606
 20
5.3180113534
 10
8.7549799252
 20
5.3191074205
 10
8.7608646876
 20
5.3200801654
  0
LWPOLYLINE
  5
700
100
AcDbEntity
  8
0
100
AcDbPolyline
 62
7
  6
CONTINUOUS
 90
19
 70
0
 10
8.0386510161
 20
5.3804686537
 10
8.0460911305
 20
5.3815832425
 10
8.0639553257
 20
5.3826793096
 10
8.0917489642
 20
5.3837753766
 10
8.1286502077
 20
5.3848714437
 10
8.1735679126
 20
5.3859675107
 10
8.225173894
 20
5.3870635778
 10
8.2819421997
 20
5.3881596449
 10
8.3421942309
 20
5.3892557119
 10
8.4041483777
 20
5.390351779
 10
8.4659726997
 20
5.391447846
 10
8.5258390955
 20
5.3925439131
 10
8.581977358
 20
5.3936399801
 10
8.6327275186
 20
5.3947360472
 10
8.6765889309
 20
5.3958321142
 10
8.7122646439
 20
5.3969281813
 10
8.738699752
 20
5.3980242483
 10
8.7551125877
 20
5.3991203154
 10
8.7608646876
 20
5.4000801654
  0
LWPOLYLINE
  5
701
100
AcDbEntity
  8
0
100
AcDbPolyline
 62
7
  6
CONTINUOUS
 90
9
 70
0
 10
8.4564901411
 20
5.3318828069
 10
8.512139065
 20
5.3330042794
 10
8.5641190226
 20
5.3341214697
 10
8.6104382172
 20
5.3352231036
 10
8.6507947971
 20
5.3363347269
 10
8.6835785202
 20
5.3374487566
 10
8.7074620458
 20
5.3385496232
 10
8.7221897006
 20
5.3396529698
 10
8.7270723831
 20
5.3405601474
  0
LWPOLYLINE
  5
702
100
AcDbEntity
  8
0
100
AcDbPolyline
 62
7
  6
CONTINUOUS
 90
9
 70
0
 10
8.4563832417
 20
5.3718806971
 10
8.511934283
 20
5.3730000419
 10
8.563839359
 20
5.3741151864
 10
8.610125748
 20
5.3752151742
 10
8.6505866189
 20
5.3763284294
 10
8.6835630065
 20
5.3774481523
 10
8.7075996649
 20
5.3785574494
 10
8.7222440993
 20
5.3796590201
 10
8.7270723831
 20
5.3805601474
  0
LWPOLYLINE
  5
703
100
AcDbEntity
  8
0
100
AcDbPolyline
 62
7
  6
CONTINUOUS
 90
10
 70
0
 10
8.4566092314
 20
5.3308851575
 10
8.3432826023
 20
5.328671085
 10
8.2884314036
 20
5.3275663548
 10
8.2366517675
 20
5.32645552
 10
8.1900222707
 20
5.3253496655
 10
8.1492052869
 20
5.3242287335
 10
8.1159669567
 20
5.3231012222
 10
8.0917933435
 20
5.3219843698
 10
8.0771940085
 20
5.3208811121
 10
8.0724433206
 20
5.3199886716
  0
LWPOLYLINE
  5
704
100
AcDbEntity
  8
0
100
AcDbPolyline
 62
7
  6
CONTINUOUS
 90
10
 70
0
 10
8.4564901411
 20
5.3708828069
 10
8.3434262801
 20
5.3686739203
 10
8.288197942
 20
5.3675615286
 10
8.2362851006
 20
5.3664472976
 10
8.1897582067
 20
5.3653429791
 10
8.1490637985
 20
5.3642244609
 10
8.1159211689
 20
5.3630994384
 10
8.0918056592
 20
5.3619850734
 10
8.077237072
 20
5.3608859414
 10
8.0724433206
 20
5.3599886716
  0
LWPOLYLINE
  5
705
100
AcDbEntity
  8
0
100
AcDbPolyline
 62
7
  6
CONTINUOUS
 90
10
 70
0
 10
8.4563832417
 20
5.4108806971
 10
8.3443010409
 20
5.4086911778
 10
8.289772128
 20
5.4075940454
 10
8.2385863679
 20
5.4064988031
 10
8.192702769
 20
5.4054172111
 10
8.152378336
 20
5.4043236762
 10
8.1191302685
 20
5.4032224268
 10
8.0944159046
 20
5.4021296478
 10
8.0788261206
 20
5.4010515641
 10
8.0724433206
 20
5.3999886716
  0
LWPOLYLINE
  5
706
100
AcDbEntity
  8
0
100
AcDbPolyline
 62
7
  6
CONTINUOUS
 90
10
 70
0
 10
8.3430467267
 20
5.4096664299
 10
8.4560962895
 20
5.4118750342
 10
8.5113841466
 20
5.4129886631
 10
8.5633088474
 20
5.4141032769
 10
8.6098086026
 20
5.4152071347
 10
8.6504737434
 20
5.416325018
 10
8.6835967813
 20
5.4174494681
 10
8.7077028591
 20
5.4185633353
 10
8.7222702644
 20
5.4196619417
 10
8.7270723831
 20
5.4205601474
  0
LINE
  5
707
100
AcDbEntity
  8
0
100
AcDbLine
 62
7
  6
CONTINUOUS
 10
8.7608646876
 20
5.1604686537
 11
8.7270723831
 21
5.1799886716
  0
LINE
  5
708
100
AcDbEntity
  8
0
100
AcDbLine
 62
7
  6
CONTINUOUS
 10
8.0386510161
 20
5.5800801654
 11
8.0724433206
 21
5.5605601474
  0
LINE
  5
709
100
AcDbEntity
  8
0
100
AcDbLine
 62
7
  6
CONTINUOUS
 10
8.7608646876
 20
5.2004686537
 11
8.7270723831
 21
5.2199886716
  0
LINE
  5
70A
100
AcDbEntity
  8
0
100
AcDbLine
 62
7
  6
CONTINUOUS
 10
8.0386510161
 20
5.6200801654
 11
8.0724433206
 21
5.6005601474
  0
LINE
  5
70B
100
AcDbEntity
  8
0
100
AcDbLine
 62
7
  6
CONTINUOUS
 10
8.7608646876
 20
5.2404686537
 11
8.7270723831
 21
5.2599886716
  0
LINE
  5
70C
100
AcDbEntity
  8
0
100
AcDbLine
 62
7
  6
CONTINUOUS
 10
8.0386510161
 20
5.6600801654
 11
8.0724433206
 21
5.6405601474
  0
LINE
  5
70D
100
AcDbEntity
  8
AXIS
100
AcDbLine
 62
7
  6
CONTINUOUS
 10
8.7272578519
 20
6.5407744095
 11
8.7272578519
 21
6.5397744095
  0
LINE
  5
70E
100
AcDbEntity
  8
AXIS
100
AcDbLine
 62
7
  6
CONTINUOUS
 10
8.7272578519
 20
6.5007744095
 11
8.7272578519
 21
6.4997744095
  0
LINE
  5
70F
100
AcDbEntity
  8
AXIS
100
AcDbLine
 62
7
  6
CONTINUOUS
 10
8.7272578519
 20
6.4607744095
 11
8.7272578519
 21
6.4597744095
  0
LINE
  5
710
100
AcDbEntity
  8
AXIS
100
AcDbLine
 62
7
  6
CONTINUOUS
 10
8.7272578519
 20
6.4207744095
 11
8.7272578519
 21
6.4197744095
  0
LINE
  5
711
100
AcDbEntity
  8
AXIS
100
AcDbLine
 62
7
  6
CONTINUOUS
 10
8.7272578519
 20
6.3807744095
 11
8.7272578519
 21
6.3797744095
  0
LINE
  5
712
100
AcDbEntity
  8
AXIS
100
AcDbLine
 62
7
  6
CONTINUOUS
 10
8.7272578519
 20
6.3407744095
 11
8.7272578519
 21
6.3397744095
  0
LINE
  5
713
100
AcDbEntity
  8
AXIS
100
AcDbLine
 62
7
  6
CONTINUOUS
 10
8.7272578519
 20
6.3007744095
 11
8.7272578519
 21
6.2997744095
  0
LINE
  5
714
100
AcDbEntity
  8
AXIS
100
AcDbLine
 62
7
  6
CONTINUOUS
 10
8.7272578519
 20
6.2607744095
 11
8.7272578519
 21
6.2597744095
  0
LINE
  5
715
100
AcDbEntity
  8
AXIS
100
AcDbLine
 62
7
  6
CONTINUOUS
 10
8.7272578519
 20
6.2207744095
 11
8.7272578519
 21
6.2197744095
  0
LINE
  5
716
100
AcDbEntity
  8
AXIS
100
AcDbLine
 62
7
  6
CONTINUOUS
 10
8.7272578519
 20
6.1807744095
 11
8.7272578519
 21
6.1797744095
  0
LINE
  5
717
100
AcDbEntity
  8
AXIS
100
AcDbLine
 62
7
  6
CONTINUOUS
 10
8.7272578519
 20
6.1407744095
 11
8.7272578519
 21
6.1397744095
  0
LINE
  5
718
100
AcDbEntity
  8
AXIS
100
AcDbLine
 62
7
  6
CONTINUOUS
 10
8.7272578519
 20
6.1007744095
 11
8.7272578519
 21
6.0997744095
  0
LINE
  5
719
100
AcDbEntity
  8
AXIS
100
AcDbLine
 62
7
  6
CONTINUOUS
 10
8.7272578519
 20
6.0607744095
 11
8.7272578519
 21
6.0597744095
  0
LINE
  5
71A
100
AcDbEntity
  8
AXIS
100
AcDbLine
 62
7
  6
CONTINUOUS
 10
8.7272578519
 20
6.0207744095
 11
8.7272578519
 21
6.0197744095
  0
LINE
  5
71B
100
AcDbEntity
  8
AXIS
100
AcDbLine
 62
7
  6
CONTINUOUS
 10
8.7272578519
 20
5.9807744095
 11
8.7272578519
 21
5.9797744095
  0
LINE
  5
71C
100
AcDbEntity
  8
AXIS
100
AcDbLine
 62
7
  6
CONTINUOUS
 10
8.7272578519
 20
5.9407744095
 11
8.7272578519
 21
5.9397744095
  0
LINE
  5
71D
100
AcDbEntity
  8
AXIS
100
AcDbLine
 62
7
  6
CONTINUOUS
 10
8.7272578519
 20
5.9007744095
 11
8.7272578519
 21
5.8997744095
  0
LINE
  5
71E
100
AcDbEntity
  8
AXIS
100
AcDbLine
 62
7
  6
CONTINUOUS
 10
8.7272578519
 20
5.8607744095
 11
8.7272578519
 21
5.8597744095
  0
LINE
  5
71F
100
AcDbEntity
  8
AXIS
100
AcDbLine
 62
7
  6
CONTINUOUS
 10
8.7272578519
 20
5.8207744095
 11
8.7272578519
 21
5.8197744095
  0
LINE
  5
720
100
AcDbEntity
  8
AXIS
100
AcDbLine
 62
7
  6
CONTINUOUS
 10
8.7272578519
 20
5.7807744095
 11
8.7272578519
 21
5.7797744095
  0
LINE
  5
721
100
AcDbEntity
  8
AXIS
100
AcDbLine
 62
7
  6
CONTINUOUS
 10
8.7272578519
 20
5.7407744095
 11
8.7272578519
 21
5.7397744095
  0
LINE
  5
722
100
AcDbEntity
  8
AXIS
100
AcDbLine
 62
7
  6
CONTINUOUS
 10
8.7272578519
 20
5.7007744095
 11
8.7272578519
 21
5.6997744095
  0
LINE
  5
723
100
AcDbEntity
  8
AXIS
100
AcDbLine
 62
7
  6
CONTINUOUS
 10
8.7272578519
 20
5.6607744095
 11
8.7272578519
 21
5.6597744095
  0
LINE
  5
724
100
AcDbEntity
  8
AXIS
100
AcDbLine
 62
7
  6
CONTINUOUS
 10
8.7272578519
 20
5.6207744095
 11
8.7272578519
 21
5.6197744095
  0
LINE
  5
725
100
AcDbEntity
  8
AXIS
100
AcDbLine
 62
7
  6
CONTINUOUS
 10
8.7272578519
 20
5.5807744095
 11
8.7272578519
 21
5.5797744095
  0
LINE
  5
726
100
AcDbEntity
  8
AXIS
100
AcDbLine
 62
7
  6
CONTINUOUS
 10
8.7272578519
 20
5.5407744095
 11
8.7272578519
 21
5.5397744095
  0
LINE
  5
727
100
AcDbEntity
  8
AXIS
100
AcDbLine
 62
7
  6
CONTINUOUS
 10
8.7272578519
 20
5.5007744095
 11
8.7272578519
 21
5.4997744095
  0
LINE
  5
728
100
AcDbEntity
  8
AXIS
100
AcDbLine
 62
7
  6
CONTINUOUS
 10
8.7272578519
 20
5.4607744095
 11
8.7272578519
 21
5.4597744095
  0
LINE
  5
729
100
AcDbEntity
  8
AXIS
100
AcDbLine
 62
7
  6
CONTINUOUS
 10
8.7272578519
 20
5.4207744095
 11
8.7272578519
 21
5.4197744095
  0
LINE
  5
72A
100
AcDbEntity
  8
AXIS
100
AcDbLine
 62
7
  6
CONTINUOUS
 10
8.7272578519
 20
5.3807744095
 11
8.7272578519
 21
5.3797744095
  0
LINE
  5
72B
100
AcDbEntity
  8
AXIS
100
AcDbLine
 62
7
  6
CONTINUOUS
 10
8.7272578519
 20
5.3407744095
 11
8.7272578519
 21
5.3397744095
  0
LINE
  5
72C
100
AcDbEntity
  8
AXIS
100
AcDbLine
 62
7
  6
CONTINUOUS
 10
8.7272578519
 20
5.3007744095
 11
8.7272578519
 21
5.2997744095
  0
LINE
  5
72D
100
AcDbEntity
  8
AXIS
100
AcDbLine
 62
7
  6
CONTINUOUS
 10
8.7272578519
 20
5.2607744095
 11
8.7272578519
 21
5.2597744095
  0
LINE
  5
72E
100
AcDbEntity
  8
AXIS
100
AcDbLine
 62
7
  6
CONTINUOUS
 10
8.7272578519
 20
5.2207744095
 11
8.7272578519
 21
5.2197744095
  0
LINE
  5
72F
100
AcDbEntity
  8
AXIS
100
AcDbLine
 62
7
  6
CONTINUOUS
 10
8.7272578519
 20
5.1807744095
 11
8.7272578519
 21
5.1797744095
  0
LINE
  5
730
100
AcDbEntity
  8
AXIS
100
AcDbLine
 62
7
  6
CONTINUOUS
 10
8.7272578519
 20
5.1407744095
 11
8.7272578519
 21
5.1397744095
  0
LINE
  5
731
100
AcDbEntity
  8
AXIS
100
AcDbLine
 62
7
  6
CONTINUOUS
 10
8.7272578519
 20
5.1007744095
 11
8.7272578519
 21
5.0997744095
  0
LINE
  5
732
100
AcDbEntity
  8
AXIS
100
AcDbLine
 62
7
  6
CONTINUOUS
 10
8.7272578519
 20
5.0607744095
 11
8.7272578519
 21
5.0597744095
  0
LINE
  5
733
100
AcDbEntity
  8
AXIS
100
AcDbLine
 62
7
  6
CONTINUOUS
 10
8.7272578519
 20
5.0207744095
 11
8.7272578519
 21
5.0197744095
  0
LINE
  5
734
100
AcDbEntity
  8
AXIS
100
AcDbLine
 62
7
  6
CONTINUOUS
 10
8.7272578519
 20
4.9807744095
 11
8.7272578519
 21
4.9797744095
  0
LINE
  5
735
100
AcDbEntity
  8
AXIS
100
AcDbLine
 62
7
  6
CONTINUOUS
 10
8.7272578519
 20
4.9407744095
 11
8.7272578519
 21
4.9397744095
  0
LINE
  5
736
100
AcDbEntity
  8
AXIS
100
AcDbLine
 62
7
  6
CONTINUOUS
 10
8.7272578519
 20
4.9007744095
 11
8.7272578519
 21
4.1907744095
  0
LINE
  5
737
100
AcDbEntity
  8
0
100
AcDbLine
 62
7
  6
CONTINUOUS
 10
8.7608646876
 20
4.9200801654
 11
8.7608646876
 21
4.9204686537
  0
LINE
  5
738
100
AcDbEntity
  8
0
100
AcDbLine
 62
7
  6
CONTINUOUS
 10
8.7608646876
 20
4.9600801654
 11
8.7608646876
 21
4.9604686537
  0
LINE
  5
739
100
AcDbEntity
  8
0
100
AcDbLine
 62
7
  6
CONTINUOUS
 10
8.7608646876
 20
5.0000801654
 11
8.7608646876
 21
5.0004686537
  0
LINE
  5
73A
100
AcDbEntity
  8
0
100
AcDbLine
 62
7
  6
CONTINUOUS
 10
8.7608646876
 20
5.0400801654
 11
8.7608646876
 21
5.0404686537
  0
LINE
  5
73B
100
AcDbEntity
  8
0
100
AcDbLine
 62
7
  6
CONTINUOUS
 10
8.7608646876
 20
5.0800801654
 11
8.7608646876
 21
5.0804686537
  0
LINE
  5
73C
100
AcDbEntity
  8
0
100
AcDbLine
 62
7
  6
CONTINUOUS
 10
8.7608646876
 20
5.1200801654
 11
8.7608646876
 21
5.1204686537
  0
LINE
  5
73D
100
AcDbEntity
  8
0
100
AcDbLine
 62
7
  6
CONTINUOUS
 10
8.7608646876
 20
5.1600801654
 11
8.7608646876
 21
5.1604686537
  0
LINE
  5
73E
100
AcDbEntity
  8
0
100
AcDbLine
 62
7
  6
CONTINUOUS
 10
8.7608646876
 20
5.2000801654
 11
8.7608646876
 21
5.2004686537
  0
LINE
  5
73F
100
AcDbEntity
  8
0
100
AcDbLine
 62
7
  6
CONTINUOUS
 10
8.7608646876
 20
5.2800801654
 11
8.7608646876
 21
5.2804686537
  0
LINE
  5
740
100
AcDbEntity
  8
0
100
AcDbLine
 62
7
  6
CONTINUOUS
 10
8.7608646876
 20
5.3600801654
 11
8.7608646876
 21
5.3604686537
  0
LINE
  5
741
100
AcDbEntity
  8
0
100
AcDbLine
 62
7
  6
CONTINUOUS
 10
8.7608646876
 20
5.4400801654
 11
8.7608646876
 21
5.4404686537
  0
LINE
  5
742
100
AcDbEntity
  8
0
100
AcDbLine
 62
7
  6
CONTINUOUS
 10
8.7608646876
 20
5.5200801654
 11
8.7608646876
 21
5.5204686537
  0
LINE
  5
743
100
AcDbEntity
  8
0
100
AcDbLine
 62
7
  6
CONTINUOUS
 10
8.7608646876
 20
5.6000801654
 11
8.7608646876
 21
5.6004686537
  0
LINE
  5
744
100
AcDbEntity
  8
0
100
AcDbLine
 62
7
  6
CONTINUOUS
 10
8.7608646876
 20
5.6800801654
 11
8.7608646876
 21
5.6804686537
  0
LINE
  5
745
100
AcDbEntity
  8
0
100
AcDbLine
 62
7
  6
CONTINUOUS
 10
8.7608646876
 20
5.7600801654
 11
8.7608646876
 21
5.7604686537
  0
LINE
  5
746
100
AcDbEntity
  8
0
100
AcDbLine
 62
7
  6
CONTINUOUS
 10
8.7608646876
 20
5.8400801654
 11
8.7608646876
 21
5.8404686537
  0
LINE
  5
747
100
AcDbEntity
  8
0
100
AcDbLine
 62
7
  6
CONTINUOUS
 10
8.7608646876
 20
5.9200801654
 11
8.7608646876
 21
5.9204686537
  0
LINE
  5
748
100
AcDbEntity
  8
0
100
AcDbLine
 62
7
  6
CONTINUOUS
 10
8.7608646876
 20
6.0000801654
 11
8.7608646876
 21
6.0004686537
  0
LINE
  5
749
100
AcDbEntity
  8
0
100
AcDbLine
 62
7
  6
CONTINUOUS
 10
8.7608646876
 20
6.0800801654
 11
8.7608646876
 21
6.0804686537
  0
LINE
  5
74A
100
AcDbEntity
  8
0
100
AcDbLine
 62
7
  6
CONTINUOUS
 10
8.7608646876
 20
6.1600801654
 11
8.7608646876
 21
6.1604686537
  0
LINE
  5
74B
100
AcDbEntity
  8
0
100
AcDbLine
 62
7
  6
CONTINUOUS
 10
8.7608646876
 20
6.2400801654
 11
8.7608646876
 21
6.2404686537
  0
LINE
  5
74C
100
AcDbEntity
  8
0
100
AcDbLine
 62
7
  6
CONTINUOUS
 10
8.7608646876
 20
6.3200801654
 11
8.7608646876
 21
6.3204686537
  0
LINE
  5
74D
100
AcDbEntity
  8
0
100
AcDbLine
 62
7
  6
CONTINUOUS
 10
8.7608646876
 20
6.3600801654
 11
8.7608646876
 21
6.3604686537
  0
LINE
  5
74E
100
AcDbEntity
  8
0
100
AcDbLine
 62
7
  6
CONTINUOUS
 10
8.7608646876
 20
6.4000801654
 11
8.7608646876
 21
6.4004686537
  0
LINE
  5
74F
100
AcDbEntity
  8
0
100
AcDbLine
 62
7
  6
CONTINUOUS
 10
8.7608646876
 20
6.4400801654
 11
8.7608646876
 21
6.4404686537
  0
LINE
  5
750
100
AcDbEntity
  8
0
100
AcDbLine
 62
7
  6
CONTINUOUS
 10
8.7608646876
 20
6.4800801654
 11
8.7608646876
 21
6.4804686537
  0
LINE
  5
751
100
AcDbEntity
  8
0
100
AcDbLine
 62
7
  6
CONTINUOUS
 10
8.7608646876
 20
6.5200801654
 11
8.7608646876
 21
6.5204686537
  0
LINE
  5
752
100
AcDbEntity
  8
0
100
AcDbLine
 62
7
  6
CONTINUOUS
 10
8.7270723831
 20
4.9005601474
 11
8.7608646876
 21
4.9200801654
  0
LWPOLYLINE
  5
753
100
AcDbEntity
  8
0
100
AcDbPolyline
 62
7
  6
CONTINUOUS
 90
20
 70
0
 10
8.0386510161
 20
5.4204686537
 10
8.0411034099
 20
5.4210416565
 10
8.0538473158
 20
5.4221377235
 10
8.0768195517
 20
5.4232337906
 10
8.1093408447
 20
5.4243298576
 10
8.1504495634
 20
5.4254259247
 10
8.1989301518
 20
5.4265219917
 10
8.2533490734
 20
5.4276180588
 10
8.312097199
 20
5.4287141258
 10
8.3734373882
 20
5.4298101929
 10
8.4355558548
 20
5.4309062599
 10
8.4966157999
 20
5.432002327
 10
8.5548117238
 20
5.433098394
 10
8.6084228144
 20
5.4341944611
 10
8.6558638296
 20
5.4352905282
 10
8.6957319722
 20
5.4363865952
 10
8.7268483692
 20
5.4374826623
 10
8.7482929309
 20
5.4385787293
 10
8.7594315567
 20
5.4396747964
 10
8.7608646876
 20
5.4400801654
  0
LWPOLYLINE
  5
754
100
AcDbEntity
  8
0
100
AcDbPolyline
 62
7
  6
CONTINUOUS
 90
9
 70
0
 10
8.7272578519
 20
5.5797744238
 10
8.722314548
 20
5.578666904
 10
8.707666884
 20
5.5775612817
 10
8.6834781921
 20
5.57644485
 10
8.6502375471
 20
5.5753178864
 10
8.6094312677
 20
5.5741975803
 10
8.5628878533
 20
5.5730938352
 10
8.5115224565
 20
5.5719915231
 10
8.4564322419
 20
5.5708816641
  0
LWPOLYLINE
  5
755
100
AcDbEntity
  8
0
100
AcDbPolyline
 62
7
  6
CONTINUOUS
 90
9
 70
0
 10
8.7272578519
 20
5.619774414
 10
8.7222614009
 20
5.6186609512
 10
8.707585845
 20
5.6175566623
 10
8.6834385164
 20
5.6164433063
 10
8.6502913796
 20
5.615319511
 10
8.6096173955
 20
5.6142022917
 10
8.5632861714
 20
5.6131027681
 10
8.5117739861
 20
5.6119967256
 10
8.4564322768
 20
5.6108816648
  0
LWPOLYLINE
  5
756
100
AcDbEntity
  8
0
100
AcDbPolyline
 62
7
  6
CONTINUOUS
 90
9
 70
0
 10
8.0722578519
 20
5.4007744095
 10
8.0773219143
 20
5.4018953956
 10
8.092037477
 20
5.402998277
 10
8.1159470404
 20
5.4041004464
 10
8.148771473
 20
5.4052156225
 10
8.1891514387
 20
5.4063275928
 10
8.2354621921
 20
5.4074288215
 10
8.2874204433
 20
5.4085454462
 10
8.3430467267
 20
5.4096664299
  0
LWPOLYLINE
  5
757
100
AcDbEntity
  8
0
100
AcDbPolyline
 62
7
  6
CONTINUOUS
 90
9
 70
0
 10
8.0722578519
 20
5.4407744095
 10
8.0773386006
 20
5.4418972457
 10
8.0921171603
 20
5.4430027982
 10
8.1159708512
 20
5.4441013738
 10
8.1485398259
 20
5.4452086083
 10
8.1887736554
 20
5.4463179973
 10
8.235120639
 20
5.4474211438
 10
8.2871701907
 20
5.4485402666
 10
8.342916063
 20
5.4496638509
  0
LWPOLYLINE
  5
758
100
AcDbEntity
  8
0
100
AcDbPolyline
 62
7
  6
CONTINUOUS
 90
19
 70
0
 10
8.0386510161
 20
5.4604686537
 10
8.0462412441
 20
5.4615961374
 10
8.0642259213
 20
5.4626922045
 10
8.0921320405
 20
5.4637882715
 10
8.1291344375
 20
5.4648843386
 10
8.1741389774
 20
5.4659804057
 10
8.225814908
 20
5.4670764727
 10
8.2826342084
 20
5.4681725398
 10
8.3429167721
 20
5.4692686068
 10
8.4048800864
 20
5.4703646739
 10
8.4666919399
 20
5.4714607409
 10
8.5265245996
 20
5.472556808
 10
8.5826088563
 20
5.473652875
 10
8.6332863381
 20
5.4747489421
 10
8.6770585476
 20
5.4758450091
 10
8.7126311716
 20
5.4769410762
 10
8.7389523528
 20
5.4780371432
 10
8.7552437924
 20
5.4791332103
 10
8.7608646876
 20
5.4800801654
  0
LWPOLYLINE
  5
759
100
AcDbEntity
  8
0
100
AcDbPolyline
 62
7
  6
CONTINUOUS
 90
10
 70
0
 10
8.7266851218
 20
5.5393978551
 10
8.7188852556
 20
5.5383317988
 10
8.7022053596
 20
5.537268167
 10
8.6766834476
 20
5.5361892455
 10
8.6430112487
 20
5.5351040681
 10
8.6026614701
 20
5.534028132
 10
8.5571202366
 20
5.5329652751
 10
8.5071629598
 20
5.5319015951
 10
8.454228642
 20
5.5308381984
 10
8.3428581048
 20
5.5286627069
  0
LWPOLYLINE
  5
75A
100
AcDbEntity
  8
0
100
AcDbPolyline
 62
7
  6
CONTINUOUS
 90
9
 70
0
 10
8.3430467267
 20
5.4486664299
 10
8.2874204433
 20
5.4475454462
 10
8.2354621921
 20
5.4464288215
 10
8.1891514387
 20
5.4453275928
 10
8.148771473
 20
5.4442156225
 10
8.1159470404
 20
5.4431004464
 10
8.092037477
 20
5.441998277
 10
8.0773219143
 20
5.4408953956
 10
8.0724433206
 20
5.4399886716
  0
LWPOLYLINE
  5
75B
100
AcDbEntity
  8
0
100
AcDbPolyline
 62
7
  6
CONTINUOUS
 90
9
 70
0
 10
8.3428581048
 20
5.5286627069
 10
8.2870591872
 20
5.5275379686
 10
8.2349694291
 20
5.5264177431
 10
8.1886199675
 20
5.5253140902
 10
8.1485426527
 20
5.524208694
 10
8.1161280453
 20
5.5231074907
 10
8.0921457714
 20
5.5220044195
 10
8.0773423525
 20
5.5208976613
 10
8.0724433206
 20
5.5199886716
  0
LWPOLYLINE
  5
75C
100
AcDbEntity
  8
0
100
AcDbPolyline
 62
7
  6
CONTINUOUS
 90
10
 70
0
 10
8.342916063
 20
5.4496638509
 10
8.4562031625
 20
5.4518771432
 10
8.5110908921
 20
5.4529826005
 10
8.5629019923
 20
5.4540941521
 10
8.6095216696
 20
5.4551998683
 10
8.650323867
 20
5.4563204916
 10
8.6835531473
 20
5.4574477683
 10
8.7077222748
 20
5.4585644444
 10
8.7223173003
 20
5.4596672131
 10
8.7270723831
 20
5.4605601474
  0
LWPOLYLINE
  5
75D
100
AcDbEntity
  8
0
100
AcDbPolyline
 62
7
  6
CONTINUOUS
 90
10
 70
0
 10
8.4562031625
 20
5.4908771432
 10
8.342916063
 20
5.4886638509
 10
8.2871701907
 20
5.4875402666
 10
8.235120639
 20
5.4864211438
 10
8.1887736554
 20
5.4853179973
 10
8.1485398259
 20
5.4842086083
 10
8.1159708512
 20
5.4831013738
 10
8.0921171603
 20
5.4820027982
 10
8.0773386006
 20
5.4808972457
 10
8.0724433206
 20
5.4799886716
  0
LWPOLYLINE
  5
75E
100
AcDbEntity
  8
0
100
AcDbPolyline
 62
7
  6
CONTINUOUS
 90
11
 70
0
 10
8.3428581048
 20
5.4896627069
 10
8.454228642
 20
5.4918381984
 10
8.5071629598
 20
5.4929015951
 10
8.5571202366
 20
5.4939652751
 10
8.6026614701
 20
5.495028132
 10
8.6430112487
 20
5.4961040681
 10
8.6766834476
 20
5.4971892455
 10
8.7022053596
 20
5.498268167
 10
8.7188852556
 20
5.4993317988
 10
8.7266851218
 20
5.5003978551
 10
8.7270723831
 20
5.5005601474
  0
LWPOLYLINE
  5
75F
100
AcDbEntity
  8
0
100
AcDbPolyline
 62
7
  6
CONTINUOUS
 90
10
 70
0
 10
8.3428626075
 20
5.5296627957
 10
8.4564322419
 20
5.5318816641
 10
8.5115224565
 20
5.5329915231
 10
8.5628878533
 20
5.5340938352
 10
8.6094312677
 20
5.5351975803
 10
8.6502375471
 20
5.5363178864
 10
8.6834781921
 20
5.53744485
 10
8.707666884
 20
5.5385612817
 10
8.722314548
 20
5.539666904
 10
8.7270723831
 20
5.5405601474
  0
LINE
  5
760
100
AcDbEntity
  8
0
100
AcDbLine
 62
7
  6
CONTINUOUS
 10
8.7608646876
 20
5.2804686537
 11
8.7270723831
 21
5.2999886716
  0
LINE
  5
761
100
AcDbEntity
  8
0
100
AcDbLine
 62
7
  6
CONTINUOUS
 10
8.0386510161
 20
5.7000801654
 11
8.0724433206
 21
5.6805601474
  0
LINE
  5
762
100
AcDbEntity
  8
0
100
AcDbLine
 62
7
  6
CONTINUOUS
 10
8.7608646876
 20
5.3204686537
 11
8.7270723831
 21
5.3399886716
  0
LINE
  5
763
100
AcDbEntity
  8
0
100
AcDbLine
 62
7
  6
CONTINUOUS
 10
8.0386510161
 20
5.7400801654
 11
8.0724433206
 21
5.7205601474
  0
LINE
  5
764
100
AcDbEntity
  8
0
100
AcDbLine
 62
7
  6
CONTINUOUS
 10
8.7608646876
 20
5.3604686537
 11
8.7270723831
 21
5.3799886716
  0
LINE
  5
765
100
AcDbEntity
  8
0
100
AcDbLine
 62
7
  6
CONTINUOUS
 10
8.0386510161
 20
5.7800801654
 11
8.0724433206
 21
5.7605601474
  0
LWPOLYLINE
  5
766
100
AcDbEntity
  8
0
100
AcDbPolyline
 62
7
  6
CONTINUOUS
 90
20
 70
0
 10
8.0386510161
 20
5.5004686537
 10
8.0411921246
 20
5.5010545514
 10
8.0540591618
 20
5.5021506184
 10
8.0771482647
 20
5.5032466855
 10
8.1097767051
 20
5.5043427525
 10
8.150979683
 20
5.5054388196
 10
8.1995388554
 20
5.5065348866
 10
8.254018362
 20
5.5076309537
 10
8.3128072822
 20
5.5087270207
 10
8.3741672694
 20
5.5098230878
 10
8.4362839519
 20
5.5109191548
 10
8.4973205835
 20
5.5120152219
 10
8.5554723542
 20
5.513111289
 10
8.609019757
 20
5.514207356
 10
8.6563794333
 20
5.5153034231
 10
8.6961509909
 20
5.5163994901
 10
8.7271584129
 20
5.5174955572
 10
8.7484848318
 20
5.5185916242
 10
8.7594996404
 20
5.5196876913
 10
8.7608646876
 20
5.5200801654
  0
LWPOLYLINE
  5
767
100
AcDbEntity
  8
0
100
AcDbPolyline
 62
7
  6
CONTINUOUS
 90
9
 70
0
 10
8.7272578519
 20
5.6597744095
 10
8.7222398189
 20
5.6586585428
 10
8.7075857915
 20
5.6575566592
 10
8.6835442285
 20
5.6564474209
 10
8.650570558
 20
5.6553279439
 10
8.6101236461
 20
5.6542151209
 10
8.563845793
 20
5.6531153309
 10
8.5119391828
 20
5.6520001433
 10
8.4563857917
 20
5.6508807474
  0
LWPOLYLINE
  5
768
100
AcDbEntity
  8
0
100
AcDbPolyline
 62
7
  6
CONTINUOUS
 90
8
 70
0
 10
8.0722578519
 20
5.5607744095
 10
8.0773176604
 20
5.5618949234
 10
8.092075293
 20
5.5630004238
 10
8.1161585308
 20
5.5641086757
 10
8.1489242138
 20
5.5652202424
 10
8.1888840895
 20
5.5663208035
 10
8.2351647946
 20
5.5674221367
 10
8.2872015461
 20
5.5685409157
  0
LWPOLYLINE
  5
769
100
AcDbEntity
  8
0
100
AcDbPolyline
 62
7
  6
CONTINUOUS
 90
9
 70
0
 10
8.0722578519
 20
5.4807744095
 10
8.0773423525
 20
5.4818976613
 10
8.0921457714
 20
5.4830044195
 10
8.1161280453
 20
5.4841074907
 10
8.1485426527
 20
5.485208694
 10
8.1886199675
 20
5.4863140902
 10
8.2349694291
 20
5.4874177431
 10
8.2870591872
 20
5.4885379686
 10
8.3428581048
 20
5.4896627069
  0
LWPOLYLINE
  5
76A
100
AcDbEntity
  8
0
100
AcDbPolyline
 62
7
  6
CONTINUOUS
 90
9
 70
0
 10
8.0722578519
 20
5.5207744095
 10
8.0773366063
 20
5.5218970247
 10
8.0921342881
 20
5.5230037689
 10
8.116183176
 20
5.5241096335
 10
8.1486941074
 20
5.5252132809
 10
8.1886518275
 20
5.5263149003
 10
8.2349814624
 20
5.5274180137
 10
8.2870677802
 20
5.5285381465
 10
8.3428626075
 20
5.5296627957
  0
LWPOLYLINE
  5
76B
100
AcDbEntity
  8
0
100
AcDbPolyline
 62
7
  6
CONTINUOUS
 90
19
 70
0
 10
8.0386510161
 20
5.5404686537
 10
8.0463928081
 20
5.5416090323
 10
8.0644978936
 20
5.5427050994
 10
8.092516379
 20
5.5438011665
 10
8.1296197775
 20
5.5448972335
 10
8.1747109679
 20
5.5459933006
 10
8.2264566355
 20
5.5470893676
 10
8.2833266976
 20
5.5481854347
 10
8.3436395466
 20
5.5492815017
 10
8.4056117742
 20
5.5503775688
 10
8.4674109054
 20
5.5514736358
 10
8.5272095837
 20
5.5525697029
 10
8.5832396044
 20
5.5536657699
 10
8.6338441994
 20
5.554761837
 10
8.6775270266
 20
5.555857904
 10
8.7129964157
 20
5.5569539711
 10
8.7392035619
 20
5.5580500382
 10
8.7553735385
 20
5.5591461052
 10
8.7608646876
 20
5.5600801654
  0
LWPOLYLINE
  5
76C
100
AcDbEntity
  8
0
100
AcDbPolyline
 62
7
  6
CONTINUOUS
 90
9
 70
0
 10
8.3428626075
 20
5.5686627957
 10
8.2870677802
 20
5.5675381465
 10
8.2349814624
 20
5.5664180137
 10
8.1886518275
 20
5.5653149003
 10
8.1486941074
 20
5.5642132809
 10
8.116183176
 20
5.5631096335
 10
8.0921342881
 20
5.5620037689
 10
8.0773366063
 20
5.5608970247
 10
8.0724433206
 20
5.5599886716
  0
LINE
  5
76D
100
AcDbEntity
  8
0
100
AcDbLine
 62
7
  6
CONTINUOUS
 10
8.2872015461
 20
5.5685409157
 11
8.3429324903
 21
5.5696641751
  0
LINE
  5
76E
100
AcDbEntity
  8
0
100
AcDbLine
 62
7
  6
CONTINUOUS
 10
8.4564322419
 20
5.5708816641
 11
8.3428626075
 21
5.5686627957
  0
LWPOLYLINE
  5
76F
100
AcDbEntity
  8
0
100
AcDbPolyline
 62
7
  6
CONTINUOUS
 90
10
 70
0
 10
8.3429324903
 20
5.5696641751
 10
8.4564322768
 20
5.5718816648
 10
8.5117739861
 20
5.5729967256
 10
8.5632861714
 20
5.5741027681
 10
8.6096173955
 20
5.5752022917
 10
8.6502913796
 20
5.576319511
 10
8.6834385164
 20
5.5774433063
 10
8.707585845
 20
5.5785566623
 10
8.7222614009
 20
5.5796609512
 10
8.7270723831
 20
5.5805601474
  0
LWPOLYLINE
  5
770
100
AcDbEntity
  8
0
100
AcDbPolyline
 62
7
  6
CONTINUOUS
 90
10
 70
0
 10
8.4564322768
 20
5.6108816648
 10
8.3429324903
 20
5.6086641751
 10
8.2872015461
 20
5.6075409157
 10
8.2351647946
 20
5.6064221367
 10
8.1888840895
 20
5.6053208035
 10
8.1489242138
 20
5.6042202424
 10
8.1161585308
 20
5.6031086757
 10
8.092075293
 20
5.6020004238
 10
8.0773176604
 20
5.6008949234
 10
8.0724433206
 20
5.5999886716
  0
LWPOLYLINE
  5
771
100
AcDbEntity
  8
0
100
AcDbPolyline
 62
7
  6
CONTINUOUS
 90
10
 70
0
 10
8.3430750279
 20
5.6096669884
 10
8.4563857917
 20
5.6118807474
 10
8.5119391828
 20
5.6130001433
 10
8.563845793
 20
5.6141153309
 10
8.6101236461
 20
5.6152151209
 10
8.650570558
 20
5.6163279439
 10
8.6835442285
 20
5.6174474209
 10
8.7075857915
 20
5.6185566592
 10
8.7222398189
 20
5.6196585428
 10
8.7270723831
 20
5.6205601474
  0
LINE
  5
772
100
AcDbEntity
  8
0
100
AcDbLine
 62
7
  6
CONTINUOUS
 10
8.7608646876
 20
5.4004686537
 11
8.7270723831
 21
5.4199886716
  0
LINE
  5
773
100
AcDbEntity
  8
0
100
AcDbLine
 62
7
  6
CONTINUOUS
 10
8.0386510161
 20
5.8200801654
 11
8.0724433206
 21
5.8005601474
  0
LINE
  5
774
100
AcDbEntity
  8
0
100
AcDbLine
 62
7
  6
CONTINUOUS
 10
8.7608646876
 20
5.4404686537
 11
8.7270723831
 21
5.4599886716
  0
LINE
  5
775
100
AcDbEntity
  8
0
100
AcDbLine
 62
7
  6
CONTINUOUS
 10
8.0386510161
 20
5.8600801654
 11
8.0724433206
 21
5.8405601474
  0
LINE
  5
776
100
AcDbEntity
  8
0
100
AcDbLine
 62
7
  6
CONTINUOUS
 10
8.7608646876
 20
5.4804686537
 11
8.7270723831
 21
5.4999886716
  0
LINE
  5
777
100
AcDbEntity
  8
0
100
AcDbLine
 62
7
  6
CONTINUOUS
 10
8.0386510161
 20
5.9000801654
 11
8.0724433206
 21
5.8805601474
  0
LWPOLYLINE
  5
778
100
AcDbEntity
  8
0
100
AcDbPolyline
 62
7
  6
CONTINUOUS
 90
20
 70
0
 10
8.0386510161
 20
5.5804686537
 10
8.0412823104
 20
5.5810674463
 10
8.054272426
 20
5.5821635133
 10
8.0774783014
 20
5.5832595804
 10
8.1102137552
 20
5.5843556474
 10
8.1515108232
 20
5.5854517145
 10
8.2001483804
 20
5.5865477815
 10
8.2546882485
 20
5.5876438486
 10
8.3135177222
 20
5.5887399156
 10
8.3748972555
 20
5.5898359827
 10
8.4370118992
 20
5.5909320498
 10
8.4980249669
 20
5.5920281168
 10
8.5561323456
 20
5.5931241839
 10
8.609615841
 20
5.5942202509
 10
8.6568939841
 20
5.595316318
 10
8.6965687936
 20
5.596412385
 10
8.7274671133
 20
5.5975084521
 10
8.7486753019
 20
5.5986045191
 10
8.7595662482
 20
5.5997005862
 10
8.7608646876
 20
5.6000801654
  0
LWPOLYLINE
  5
779
100
AcDbEntity
  8
0
100
AcDbPolyline
 62
7
  6
CONTINUOUS
 90
20
 70
0
 10
8.0386510161
 20
5.6604686537
 10
8.041373967
 20
5.6610803412
 10
8.0544871077
 20
5.6621764082
 10
8.0778096603
 20
5.6632724753
 10
8.1106519932
 20
5.6643685423
 10
8.152042982
 20
5.6654646094
 10
8.2007587243
 20
5.6665606764
 10
8.2553587302
 20
5.6676567435
 10
8.314228516
 20
5.6687528106
 10
8.3756273437
 20
5.6698488776
 10
8.4377396936
 20
5.6709449447
 10
8.4987289472
 20
5.6720410117
 10
8.5567916955
 20
5.6731370788
 10
8.6102110641
 20
5.6742331458
 10
8.65740748
 20
5.6753292129
 10
8.6969853785
 20
5.6764252799
 10
8.7277744693
 20
5.677521347
 10
8.7488643406
 20
5.678617414
 10
8.7596313798
 20
5.6797134811
 10
8.7608646876
 20
5.6800801654
  0
LWPOLYLINE
  5
77A
100
AcDbEntity
  8
0
100
AcDbPolyline
 62
7
  6
CONTINUOUS
 90
9
 70
0
 10
8.0722578519
 20
5.6807743968
 10
8.0772237187
 20
5.6818844461
 10
8.0918858604
 20
5.6829896499
 10
8.1160562952
 20
5.6841046999
 10
8.149256743
 20
5.6852302865
 10
8.19000932
 20
5.6863493377
 10
8.2364615346
 20
5.6874512548
 10
8.2878409168
 20
5.6885541454
 10
8.3430681994
 20
5.6896668537
  0
LWPOLYLINE
  5
77B
100
AcDbEntity
  8
0
100
AcDbPolyline
 62
7
  6
CONTINUOUS
 90
9
 70
0
 10
8.0722578519
 20
5.6407744084
 10
8.0772735274
 20
5.6418900134
 10
8.0919553607
 20
5.6429936085
 10
8.1160829951
 20
5.6441057387
 10
8.149191618
 20
5.6452283208
 10
8.1898159698
 20
5.6463444422
 10
8.236088443
 20
5.647442885
 10
8.2877019346
 20
5.6485512705
 10
8.3430975576
 20
5.6496674331
  0
LWPOLYLINE
  5
77C
100
AcDbEntity
  8
0
100
AcDbPolyline
 62
7
  6
CONTINUOUS
 90
9
 70
0
 10
8.0722578519
 20
5.6007744095
 10
8.0772859255
 20
5.6018913949
 10
8.0919666692
 20
5.602994252
 10
8.1160238395
 20
5.6041034369
 10
8.1489635308
 20
5.6052214309
 10
8.1892983736
 20
5.6063313216
 10
8.235538053
 20
5.6074305261
 10
8.2874745364
 20
5.6085465655
 10
8.3430750279
 20
5.6096669884
  0
LWPOLYLINE
  5
77D
100
AcDbEntity
  8
0
100
AcDbPolyline
 62
7
  6
CONTINUOUS
 90
9
 70
0
 10
8.7272578519
 20
5.7397744095
 10
8.7221866365
 20
5.73865263
 10
8.7074052098
 20
5.7375463987
 10
8.6833309316
 20
5.7364391235
 10
8.6506806955
 20
5.7353312743
 10
8.6107717799
 20
5.7342315774
 10
8.5644624623
 20
5.7331291909
 10
8.5123912969
 20
5.7320095002
 10
8.4566218079
 20
5.7308854057
  0
LWPOLYLINE
  5
77E
100
AcDbEntity
  8
0
100
AcDbPolyline
 62
7
  6
CONTINUOUS
 90
9
 70
0
 10
8.7272578519
 20
5.7797744095
 10
8.7221739758
 20
5.778651227
 10
8.707370711
 20
5.7775444437
 10
8.6833611229
 20
5.7764402968
 10
8.6509344402
 20
5.7753389553
 10
8.6108991198
 20
5.7742348149
 10
8.5645527876
 20
5.7731312225
 10
8.5124571457
 20
5.7720108635
 10
8.4566562148
 20
5.7708860849
  0
LWPOLYLINE
  5
77F
100
AcDbEntity
  8
0
100
AcDbPolyline
 62
7
  6
CONTINUOUS
 90
9
 70
0
 10
8.7272578519
 20
5.8197744095
 10
8.7221742657
 20
5.8186512591
 10
8.707386122
 20
5.8175453168
 10
8.6835024913
 20
5.8164457958
 10
8.6509970751
 20
5.815340853
 10
8.6108044589
 20
5.8142324081
 10
8.5644524707
 20
5.8131289662
 10
8.5123834232
 20
5.8120093372
 10
8.4566177263
 20
5.8108853251
  0
LWPOLYLINE
  5
780
100
AcDbEntity
  8
0
100
AcDbPolyline
 62
7
  6
CONTINUOUS
 90
19
 70
0
 10
8.0386510161
 20
5.6204686537
 10
8.0465458219
 20
5.6216219273
 10
8.0647712413
 20
5.6227179943
 10
8.092901978
 20
5.6238140614
 10
8.1301062259
 20
5.6249101284
 10
8.1752838817
 20
5.6260061955
 10
8.2270990741
 20
5.6271022625
 10
8.2840196645
 20
5.6281983296
 10
8.3443625513
 20
5.6292943966
 10
8.4063434379
 20
5.6303904637
 10
8.4681295934
 20
5.6314865307
 10
8.5278940449
 20
5.6325825978
 10
8.5838695997
 20
5.6336786648
 10
8.6344011003
 20
5.6347747319
 10
8.677994366
 20
5.635870799
 10
8.7133603746
 20
5.636966866
 10
8.7394533784
 20
5.6380629331
 10
8.7555018257
 20
5.6391590001
 10
8.7608646876
 20
5.6400801654
  0
LWPOLYLINE
  5
781
100
AcDbEntity
  8
0
100
AcDbPolyline
 62
7
  6
CONTINUOUS
 90
10
 70
0
 10
8.7264132196
 20
5.6993170932
 10
8.7179272153
 20
5.6982511229
 10
8.7008259167
 20
5.6971991614
 10
8.6752641069
 20
5.6961378921
 10
8.6420495643
 20
5.6950762158
 10
8.6025914525
 20
5.6940263982
 10
8.5574933935
 20
5.6929735492
 10
8.5073134554
 20
5.6919046921
 10
8.4539767133
 20
5.6908332324
 10
8.3430975576
 20
5.6886674331
  0
LWPOLYLINE
  5
782
100
AcDbEntity
  8
0
100
AcDbPolyline
 62
7
  6
CONTINUOUS
 90
9
 70
0
 10
8.3430975576
 20
5.6886674331
 10
8.2877019346
 20
5.6875512705
 10
8.236088443
 20
5.686442885
 10
8.1898159698
 20
5.6853444422
 10
8.149191618
 20
5.6842283208
 10
8.1160829951
 20
5.6831057387
 10
8.0919553607
 20
5.6819936085
 10
8.0772735274
 20
5.6808900134
 10
8.0724433206
 20
5.6799886716
  0
LWPOLYLINE
  5
783
100
AcDbEntity
  8
0
100
AcDbPolyline
 62
7
  6
CONTINUOUS
 90
9
 70
0
 10
8.4566562148
 20
5.7318860849
 10
8.5124571457
 20
5.7330108635
 10
8.5645527876
 20
5.7341312225
 10
8.6108991198
 20
5.7352348149
 10
8.6509344402
 20
5.7363389553
 10
8.6833611229
 20
5.7374402968
 10
8.707370711
 20
5.7385444437
 10
8.7221739758
 20
5.739651227
 10
8.7270723831
 20
5.7405601474
  0
LWPOLYLINE
  5
784
100
AcDbEntity
  8
0
100
AcDbPolyline
 62
7
  6
CONTINUOUS
 90
10
 70
0
 10
8.4563857917
 20
5.6508807474
 10
8.3430750279
 20
5.6486669884
 10
8.2874745364
 20
5.6475465655
 10
8.235538053
 20
5.6464305261
 10
8.1892983736
 20
5.6453313216
 10
8.1489635308
 20
5.6442214309
 10
8.1160238395
 20
5.6431034369
 10
8.0919666692
 20
5.641994252
 10
8.0772859255
 20
5.6408913949
 10
8.0724433206
 20
5.6399886716
  0
LWPOLYLINE
  5
785
100
AcDbEntity
  8
0
100
AcDbPolyline
 62
7
  6
CONTINUOUS
 90
11
 70
0
 10
8.3430975576
 20
5.6496674331
 10
8.4539767133
 20
5.6518332324
 10
8.5073134554
 20
5.6529046921
 10
8.5574933935
 20
5.6539735492
 10
8.6025914525
 20
5.6550263982
 10
8.6420495643
 20
5.6560762158
 10
8.6752641069
 20
5.6571378921
 10
8.7008259167
 20
5.6581991614
 10
8.7179272153
 20
5.6592511229
 10
8.7264132196
 20
5.6603170932
 10
8.7270723831
 20
5.6605601474
  0
LWPOLYLINE
  5
786
100
AcDbEntity
  8
0
100
AcDbPolyline
 62
7
  6
CONTINUOUS
 90
10
 70
0
 10
8.3430681994
 20
5.6896668537
 10
8.4566218079
 20
5.6918854057
 10
8.5123912969
 20
5.6930095002
 10
8.5644624623
 20
5.6941291909
 10
8.6107717799
 20
5.6952315774
 10
8.6506806955
 20
5.6963312743
 10
8.6833309316
 20
5.6974391235
 10
8.7074052098
 20
5.6985463987
 10
8.7221866365
 20
5.69965263
 10
8.7270723831
 20
5.7005601474
  0
LWPOLYLINE
  5
787
100
AcDbEntity
  8
0
100
AcDbPolyline
 62
7
  6
CONTINUOUS
 90
10
 70
0
 10
8.4566218079
 20
5.7308854057
 10
8.3430681994
 20
5.7286668537
 10
8.2878409168
 20
5.7275541454
 10
8.2364615346
 20
5.7264512548
 10
8.19000932
 20
5.7253493377
 10
8.149256743
 20
5.7242302865
 10
8.1160562952
 20
5.7231046999
 10
8.0918858604
 20
5.7219896499
 10
8.0772237187
 20
5.7208844461
 10
8.0724433206
 20
5.7199886716
  0
LINE
  5
788
100
AcDbEntity
  8
0
100
AcDbLine
 62
7
  6
CONTINUOUS
 10
8.7608646876
 20
5.5204686537
 11
8.7270723831
 21
5.5399886716
  0
LINE
  5
789
100
AcDbEntity
  8
0
100
AcDbLine
 62
7
  6
CONTINUOUS
 10
8.0386510161
 20
5.9400801654
 11
8.0724433206
 21
5.9205601474
  0
LINE
  5
78A
100
AcDbEntity
  8
0
100
AcDbLine
 62
7
  6
CONTINUOUS
 10
8.7608646876
 20
5.5604686537
 11
8.7270723831
 21
5.5799886716
  0
LINE
  5
78B
100
AcDbEntity
  8
0
100
AcDbLine
 62
7
  6
CONTINUOUS
 10
8.0386510161
 20
5.9800801654
 11
8.0724433206
 21
5.9605601474
  0
LINE
  5
78C
100
AcDbEntity
  8
0
100
AcDbLine
 62
7
  6
CONTINUOUS
 10
8.7608646876
 20
5.6004686537
 11
8.7270723831
 21
5.6199886716
  0
LINE
  5
78D
100
AcDbEntity
  8
0
100
AcDbLine
 62
7
  6
CONTINUOUS
 10
8.0386510161
 20
6.0200801654
 11
8.0724433206
 21
6.0005601474
  0
LWPOLYLINE
  5
78E
100
AcDbEntity
  8
0
100
AcDbPolyline
 62
7
  6
CONTINUOUS
 90
10
 70
0
 10
8.0722578519
 20
5.7207744029
 10
8.0771885218
 20
5.7218804953
 10
8.0918213415
 20
5.722985969
 10
8.1160143659
 20
5.7241030681
 10
8.1492732225
 20
5.7252307837
 10
8.1901109428
 20
5.7263519094
 10
8.2367154498
 20
5.7274569475
 10
8.2881820031
 20
5.728561199
 10
8.3431219521
 20
5.7296679146
 10
8.4566562148
 20
5.7318860849
  0
LWPOLYLINE
  5
78F
100
AcDbEntity
  8
0
100
AcDbPolyline
 62
7
  6
CONTINUOUS
 90
9
 70
0
 10
8.0722578519
 20
5.7607744172
 10
8.0771915254
 20
5.761880833
 10
8.0917942044
 20
5.762984419
 10
8.1159718385
 20
5.7641014123
 10
8.1492161844
 20
5.7652290624
 10
8.1900405757
 20
5.7663501288
 10
8.2366740797
 20
5.7674560202
 10
8.288430892
 20
5.7685663442
 10
8.3432636766
 20
5.7696707115
  0
LWPOLYLINE
  5
790
100
AcDbEntity
  8
0
100
AcDbPolyline
 62
7
  6
CONTINUOUS
 90
9
 70
0
 10
8.7272578519
 20
5.9397744039
 10
8.7222658073
 20
5.9386614435
 10
8.7076978861
 20
5.9375630513
 10
8.6836003375
 20
5.9364496067
 10
8.6504925528
 20
5.9353255863
 10
8.609847504
 20
5.9342081204
 10
8.5633673306
 20
5.9331045892
 10
8.5114379751
 20
5.9319897761
 10
8.4561107526
 20
5.9308753196
  0
LWPOLYLINE
  5
791
100
AcDbEntity
  8
0
100
AcDbPolyline
 62
7
  6
CONTINUOUS
 90
20
 70
0
 10
8.0386510161
 20
5.7404686537
 10
8.0414670939
 20
5.7410932361
 10
8.054703206
 20
5.7421893031
 10
8.0781423401
 20
5.7432853702
 10
8.1110914174
 20
5.7443814372
 10
8.1525761571
 20
5.7454775043
 10
8.2013698847
 20
5.7465735714
 10
8.2560298043
 20
5.7476696384
 10
8.3149396606
 20
5.7487657055
 10
8.3763575309
 20
5.7498617725
 10
8.4384673321
 20
5.7509578396
 10
8.4994325214
 20
5.7520539066
 10
8.5574504011
 20
5.7531499737
 10
8.6108054237
 20
5.7542460407
 10
8.6579199187
 20
5.7553421078
 10
8.697400744
 20
5.7564381748
 10
8.7280804794
 20
5.7575342419
 10
8.7490519469
 20
5.7586303089
 10
8.7596950349
 20
5.759726376
 10
8.7608646876
 20
5.7600801654
  0
LWPOLYLINE
  5
792
100
AcDbEntity
  8
0
100
AcDbPolyline
 62
7
  6
CONTINUOUS
 90
9
 70
0
 10
8.7272578519
 20
5.8997744095
 10
8.7222129319
 20
5.8986555497
 10
8.7075410045
 20
5.8975541102
 10
8.6835142433
 20
5.8964462533
 10
8.6505572692
 20
5.8953275422
 10
8.6101121466
 20
5.8942148293
 10
8.5638294581
 20
5.893114964
 10
8.5119270636
 20
5.8919998925
 10
8.4563794717
 20
5.8908806227
  0
LWPOLYLINE
  5
793
100
AcDbEntity
  8
0
100
AcDbPolyline
 62
7
  6
CONTINUOUS
 90
19
 70
0
 10
8.0386510161
 20
5.7004686537
 10
8.0467002848
 20
5.7016348222
 10
8.0650459634
 20
5.7027308892
 10
8.0932888359
 20
5.7038269563
 10
8.1305937806
 20
5.7049230233
 10
8.1758577165
 20
5.7060190904
 10
8.2277422211
 20
5.7071151574
 10
8.2847131063
 20
5.7082112245
 10
8.3450857832
 20
5.7093072915
 10
8.4070750746
 20
5.7104033586
 10
8.4688480009
 20
5.7114994256
 10
8.5285779803
 20
5.7125954927
 10
8.5844988396
 20
5.7136915597
 10
8.6349570386
 20
5.7147876268
 10
8.6784605638
 20
5.7158836939
 10
8.7137230469
 20
5.7169797609
 10
8.7397018012
 20
5.718075828
 10
8.7556286533
 20
5.719171895
 10
8.7608646876
 20
5.7200801654
  0
LWPOLYLINE
  5
794
100
AcDbEntity
  8
0
100
AcDbPolyline
 62
7
  6
CONTINUOUS
 90
19
 70
0
 10
8.0386510161
 20
5.7804686537
 10
8.0468561963
 20
5.7816477171
 10
8.0653220588
 20
5.7827437841
 10
8.0936769513
 20
5.7838398512
 10
8.1310824396
 20
5.7849359182
 10
8.1764324698
 20
5.7860319853
 10
8.2283860738
 20
5.7871280523
 10
8.28540702
 20
5.7882241194
 10
8.3458092395
 20
5.7893201864
 10
8.4078066813
 20
5.7904162535
 10
8.4695661249
 20
5.7915123205
 10
8.5292613873
 20
5.7926083876
 10
8.5851273216
 20
5.7937044547
 10
8.6355120118
 20
5.7948005217
 10
8.6789256182
 20
5.7958965888
 10
8.7140844311
 20
5.7969926558
 10
8.7399488293
 20
5.7980887229
 10
8.7557540208
 20
5.7991847899
 10
8.7608646876
 20
5.8000801654
  0
LWPOLYLINE
  5
795
100
AcDbEntity
  8
0
100
AcDbPolyline
 62
7
  6
CONTINUOUS
 90
3
 70
0
 10
8.7257287948
 20
5.8591589912
 10
8.7159366684
 20
5.8580956269
 10
8.6976623303
 20
5.8570471368
  0
LWPOLYLINE
  5
796
100
AcDbEntity
  8
0
100
AcDbPolyline
 62
7
  6
CONTINUOUS
 90
4
 70
0
 10
8.6976623303
 20
5.8180471368
 10
8.7159366684
 20
5.8190956269
 10
8.7257287948
 20
5.8201589912
 10
8.7270723831
 20
5.8205601474
  0
LWPOLYLINE
  5
797
100
AcDbEntity
  8
0
100
AcDbPolyline
 62
7
  6
CONTINUOUS
 90
4
 70
0
 10
8.7283851426
 20
5.8375471368
 10
8.7492381201
 20
5.8386432039
 10
8.7597572133
 20
5.8397392709
 10
8.7608646876
 20
5.8400801654
  0
LWPOLYLINE
  5
798
100
AcDbEntity
  8
0
100
AcDbPolyline
 62
7
  6
CONTINUOUS
 90
8
 70
0
 10
8.6976623303
 20
5.8570471368
 10
8.6717502212
 20
5.8560134397
 10
8.6383986842
 20
5.8549716729
 10
8.5989132247
 20
5.8539358345
 10
8.5543729053
 20
5.8529045379
 10
8.5050553575
 20
5.8518582783
 10
8.4528045565
 20
5.8508101353
 10
8.3434266174
 20
5.848673927
  0
LWPOLYLINE
  5
799
100
AcDbEntity
  8
0
100
AcDbPolyline
 62
7
  6
CONTINUOUS
 90
10
 70
0
 10
8.4566562148
 20
5.7708860849
 10
8.3431219521
 20
5.7686679146
 10
8.2881820031
 20
5.767561199
 10
8.2367154498
 20
5.7664569475
 10
8.1901109428
 20
5.7653519094
 10
8.1492732225
 20
5.7642307837
 10
8.1160143659
 20
5.7631030681
 10
8.0918213415
 20
5.761985969
 10
8.0771885218
 20
5.7608804953
 10
8.0724433206
 20
5.7599886716
  0
LWPOLYLINE
  5
79A
100
AcDbEntity
  8
0
100
AcDbPolyline
 62
7
  6
CONTINUOUS
 90
10
 70
0
 10
8.3432636766
 20
5.7696707115
 10
8.4566177263
 20
5.7718853251
 10
8.5123834232
 20
5.7730093372
 10
8.5644524707
 20
5.7741289662
 10
8.6108044589
 20
5.7752324081
 10
8.6509970751
 20
5.776340853
 10
8.6835024913
 20
5.7774457958
 10
8.707386122
 20
5.7785453168
 10
8.7221742657
 20
5.7796512591
 10
8.7270723831
 20
5.7805601474
  0
LWPOLYLINE
  5
79B
100
AcDbEntity
  8
0
100
AcDbPolyline
 62
7
  6
CONTINUOUS
 90
10
 70
0
 10
8.4566177263
 20
5.8108853251
 10
8.3432636766
 20
5.8086707115
 10
8.288430892
 20
5.8075663442
 10
8.2366740797
 20
5.8064560202
 10
8.1900405757
 20
5.8053501288
 10
8.1492161844
 20
5.8042290624
 10
8.1159718385
 20
5.8031014123
 10
8.0917942044
 20
5.801984419
 10
8.0771915254
 20
5.800880833
 10
8.0724433206
 20
5.7999886716
  0
LWPOLYLINE
  5
79C
100
AcDbEntity
  8
0
100
AcDbPolyline
 62
7
  6
CONTINUOUS
 90
8
 70
0
 10
8.3434266174
 20
5.809673927
 10
8.4528045565
 20
5.8118101353
 10
8.5050553575
 20
5.8128582783
 10
8.5543729053
 20
5.8139045379
 10
8.5989132247
 20
5.8149358345
 10
8.6383986842
 20
5.8159716729
 10
8.6717502212
 20
5.8170134397
 10
8.6976623303
 20
5.8180471368
  0
LINE
  5
79D
100
AcDbEntity
  8
0
100
AcDbLine
 62
7
  6
CONTINUOUS
 10
8.7608646876
 20
5.6404686537
 11
8.7270723831
 21
5.6599886716
  0
LINE
  5
79E
100
AcDbEntity
  8
0
100
AcDbLine
 62
7
  6
CONTINUOUS
 10
8.0386510161
 20
6.0600801654
 11
8.0724433206
 21
6.0405601474
  0
LINE
  5
79F
100
AcDbEntity
  8
0
100
AcDbLine
 62
7
  6
CONTINUOUS
 10
8.7608646876
 20
5.6804686537
 11
8.7270723831
 21
5.6999886716
  0
LINE
  5
7A0
100
AcDbEntity
  8
0
100
AcDbLine
 62
7
  6
CONTINUOUS
 10
8.0386510161
 20
6.1000801654
 11
8.0724433206
 21
6.0805601474
  0
LINE
  5
7A1
100
AcDbEntity
  8
0
100
AcDbLine
 62
7
  6
CONTINUOUS
 10
8.7608646876
 20
5.7204686537
 11
8.7270723831
 21
5.7399886716
  0
LINE
  5
7A2
100
AcDbEntity
  8
0
100
AcDbLine
 62
7
  6
CONTINUOUS
 10
8.0386510161
 20
6.1400801654
 11
8.0724433206
 21
6.1205601474
  0
LWPOLYLINE
  5
7A3
100
AcDbEntity
  8
0
100
AcDbPolyline
 62
7
  6
CONTINUOUS
 90
3
 70
0
 10
8.0386510161
 20
6.5400801654
 10
8.0384829081
 20
6.5402711628
 10
8.0386510161
 20
6.5404686537
  0
LWPOLYLINE
  5
7A4
100
AcDbEntity
  8
0
100
AcDbPolyline
 62
7
  6
CONTINUOUS
 90
9
 70
0
 10
8.7272578519
 20
5.9797743956
 10
8.7223137869
 20
5.9786668185
 10
8.7077221603
 20
5.9775644378
 10
8.6835581651
 20
5.9764479637
 10
8.6503370196
 20
5.9753208887
 10
8.6095450609
 20
5.9742004604
 10
8.5629327399
 20
5.9730948415
 10
8.5111028661
 20
5.971982848
 10
8.4561821787
 20
5.9708767291
  0
LWPOLYLINE
  5
7A5
100
AcDbEntity
  8
0
100
AcDbPolyline
 62
7
  6
CONTINUOUS
 90
9
 70
0
 10
8.0722578519
 20
5.8007744211
 10
8.0772307146
 20
5.8018852298
 10
8.0918021113
 20
5.8029848707
 10
8.1159253922
 20
5.804099603
 10
8.1490814869
 20
5.8052249952
 10
8.1897934791
 20
5.8063438726
 10
8.2363368573
 20
5.8074484586
 10
8.2882416256
 20
5.8085624317
 10
8.3434266174
 20
5.809673927
  0
LWPOLYLINE
  5
7A6
100
AcDbEntity
  8
0
100
AcDbPolyline
 62
7
  6
CONTINUOUS
 90
9
 70
0
 10
8.0722578519
 20
5.8407744099
 10
8.0772586304
 20
5.8418883512
 10
8.0918391832
 20
5.8429869875
 10
8.1159018918
 20
5.8440986872
 10
8.1489487514
 20
5.8452209842
 10
8.1895164885
 20
5.8463368534
 10
8.2359177011
 20
5.8474390525
 10
8.2878485265
 20
5.8485543028
 10
8.3433026367
 20
5.8496714804
  0
LWPOLYLINE
  5
7A7
100
AcDbEntity
  8
0
100
AcDbPolyline
 62
7
  6
CONTINUOUS
 90
9
 70
0
 10
8.0722578519
 20
5.8807744095
 10
8.0773193483
 20
5.8818951108
 10
8.0920258366
 20
5.8829976158
 10
8.115957398
 20
5.8841008499
 10
8.1488106983
 20
5.8852168093
 10
8.189205553
 20
5.8863289663
 10
8.2355103348
 20
5.8874299033
 10
8.2874556954
 20
5.8885461757
 10
8.3430651307
 20
5.8896667931
  0
LWPOLYLINE
  5
7A8
100
AcDbEntity
  8
0
100
AcDbPolyline
 62
7
  6
CONTINUOUS
 90
17
 70
0
 10
8.0386510161
 20
5.8204686537
 10
8.0415616908
 20
5.821106131
 10
8.05492072
 20
5.822202198
 10
8.0784763393
 20
5.8232982651
 10
8.1115320259
 20
5.8243943322
 10
8.1531103463
 20
5.8254903992
 10
8.2019818591
 20
5.8265864663
 10
8.2567014681
 20
5.8276825333
 10
8.3156511533
 20
5.8287786004
 10
8.3770878141
 20
5.8298746674
 10
8.4391948119
 20
5.8309707345
 10
8.5001356866
 20
5.8320668015
 10
8.5581084598
 20
5.8331628686
 10
8.6113989174
 20
5.8342589356
 10
8.6584312983
 20
5.8353550027
 10
8.6978148884
 20
5.8364510697
 10
8.7283851426
 20
5.8375471368
  0
LWPOLYLINE
  5
7A9
100
AcDbEntity
  8
0
100
AcDbPolyline
 62
7
  6
CONTINUOUS
 90
19
 70
0
 10
8.0386510161
 20
5.8604686537
 10
8.0470135556
 20
5.861660612
 10
8.0655995262
 20
5.862756679
 10
8.0940663224
 20
5.8638527461
 10
8.1315722009
 20
5.8649488131
 10
8.1770081395
 20
5.8660448802
 10
8.2290306296
 20
5.8671409472
 10
8.2861014029
 20
5.8682370143
 10
8.3465329171
 20
5.8693330813
 10
8.408538255
 20
5.8704291484
 10
8.4702839626
 20
5.8715252155
 10
8.5299442629
 20
5.8726212825
 10
8.5857550431
 20
5.8737173496
 10
8.6360660179
 20
5.8748134166
 10
8.6793895273
 20
5.8759094837
 10
8.7144445257
 20
5.8770055507
 10
8.7401944617
 20
5.8781016178
 10
8.7558779278
 20
5.8791976848
 10
8.7608646876
 20
5.8800801654
  0
LWPOLYLINE
  5
7AA
100
AcDbEntity
  8
0
100
AcDbPolyline
 62
7
  6
CONTINUOUS
 90
9
 70
0
 10
8.3434266174
 20
5.848673927
 10
8.2882416256
 20
5.8475624317
 10
8.2363368573
 20
5.8464484586
 10
8.1897934791
 20
5.8453438726
 10
8.1490814869
 20
5.8442249952
 10
8.1159253922
 20
5.843099603
 10
8.0918021113
 20
5.8419848707
 10
8.0772307146
 20
5.8408852298
 10
8.0724433206
 20
5.8399886716
  0
LWPOLYLINE
  5
7AB
100
AcDbEntity
  8
0
100
AcDbPolyline
 62
7
  6
CONTINUOUS
 90
10
 70
0
 10
8.3433026367
 20
5.8496714804
 10
8.4563794717
 20
5.8518806227
 10
8.5119270636
 20
5.8529998925
 10
8.5638294581
 20
5.854114964
 10
8.6101121466
 20
5.8552148293
 10
8.6505572692
 20
5.8563275422
 10
8.6835142433
 20
5.8574462533
 10
8.7075410045
 20
5.8585541102
 10
8.7222129319
 20
5.8596555497
 10
8.7270723831
 20
5.8605601474
  0
LWPOLYLINE
  5
7AC
100
AcDbEntity
  8
0
100
AcDbPolyline
 62
7
  6
CONTINUOUS
 90
10
 70
0
 10
8.4563794717
 20
5.8908806227
 10
8.3433026367
 20
5.8886714804
 10
8.2878485265
 20
5.8875543028
 10
8.2359177011
 20
5.8864390525
 10
8.1895164885
 20
5.8853368534
 10
8.1489487514
 20
5.8842209842
 10
8.1159018918
 20
5.8830986872
 10
8.0918391832
 20
5.8819869875
 10
8.0772586304
 20
5.8808883512
 10
8.0724433206
 20
5.8799886716
  0
LWPOLYLINE
  5
7AD
100
AcDbEntity
  8
0
100
AcDbPolyline
 62
7
  6
CONTINUOUS
 90
10
 70
0
 10
8.3430651307
 20
5.8896667931
 10
8.4561107526
 20
5.8918753196
 10
8.5114379751
 20
5.8929897761
 10
8.5633673306
 20
5.8941045892
 10
8.609847504
 20
5.8952081204
 10
8.6504925528
 20
5.8963255863
 10
8.6836003375
 20
5.8974496067
 10
8.7076978861
 20
5.8985630513
 10
8.7222658073
 20
5.8996614435
 10
8.7270723831
 20
5.9005601474
  0
LWPOLYLINE
  5
7AE
100
AcDbEntity
  8
0
100
AcDbPolyline
 62
7
  6
CONTINUOUS
 90
10
 70
0
 10
8.4561107526
 20
5.9308753196
 10
8.3430651307
 20
5.9286667931
 10
8.2874556954
 20
5.9275461757
 10
8.2355103348
 20
5.9264299033
 10
8.189205553
 20
5.9253289663
 10
8.1488106983
 20
5.9242168093
 10
8.115957398
 20
5.9231008499
 10
8.0920258366
 20
5.9219976158
 10
8.0773193483
 20
5.9208951108
 10
8.0724433206
 20
5.9199886716
  0
LWPOLYLINE
  5
7AF
100
AcDbEntity
  8
0
100
AcDbPolyline
 62
7
  6
CONTINUOUS
 90
10
 70
0
 10
8.3429266527
 20
5.9296640599
 10
8.4561821787
 20
5.9318767291
 10
8.5111028661
 20
5.932982848
 10
8.5629327399
 20
5.9340948415
 10
8.6095450609
 20
5.9352004604
 10
8.6503370196
 20
5.9363208887
 10
8.6835581651
 20
5.9374479637
 10
8.7077221603
 20
5.9385644378
 10
8.7223137869
 20
5.9396668185
 10
8.7270723831
 20
5.9405601474
  0
LINE
  5
7B0
100
AcDbEntity
  8
0
100
AcDbLine
 62
7
  6
CONTINUOUS
 10
8.7608646876
 20
5.7604686537
 11
8.7270723831
 21
5.7799886716
  0
LINE
  5
7B1
100
AcDbEntity
  8
0
100
AcDbLine
 62
7
  6
CONTINUOUS
 10
8.0386510161
 20
6.1800801654
 11
8.0724433206
 21
6.1605601474
  0
LINE
  5
7B2
100
AcDbEntity
  8
0
100
AcDbLine
 62
7
  6
CONTINUOUS
 10
8.7608646876
 20
5.8004686537
 11
8.7270723831
 21
5.8199886716
  0
LINE
  5
7B3
100
AcDbEntity
  8
0
100
AcDbLine
 62
7
  6
CONTINUOUS
 10
8.0386510161
 20
6.2200801654
 11
8.0724433206
 21
6.2005601474
  0
LINE
  5
7B4
100
AcDbEntity
  8
0
100
AcDbLine
 62
7
  6
CONTINUOUS
 10
8.7608646876
 20
5.8404686537
 11
8.7270723831
 21
5.8599886716
  0
LINE
  5
7B5
100
AcDbEntity
  8
0
100
AcDbLine
 62
7
  6
CONTINUOUS
 10
8.0386510161
 20
6.2600801654
 11
8.0724433206
 21
6.2405601474
  0
LWPOLYLINE
  5
7B6
100
AcDbEntity
  8
0
100
AcDbPolyline
 62
7
  6
CONTINUOUS
 90
9
 70
0
 10
8.7272578519
 20
6.0597744228
 10
8.7223181325
 20
6.0586673066
 10
8.7076736517
 20
6.0575616679
 10
8.6834828037
 20
6.0564450295
 10
8.650236387
 20
6.0553178514
 10
8.6094216112
 20
6.054197336
 10
8.5628626573
 20
6.0530932703
 10
8.5114845415
 20
6.0519907391
 10
8.456425908
 20
6.0508815391
  0
LWPOLYLINE
  5
7B7
100
AcDbEntity
  8
0
100
AcDbPolyline
 62
7
  6
CONTINUOUS
 90
9
 70
0
 10
8.7272578519
 20
6.0997744157
 10
8.7222687304
 20
6.0986617702
 10
8.7075959297
 20
6.0975572366
 10
8.6834422285
 20
6.0964434507
 10
8.6502815326
 20
6.0953192138
 10
8.6095886814
 20
6.0942015647
 10
8.5632287895
 20
6.0931014808
 10
8.5117554419
 20
6.091996342
 10
8.4564372825
 20
6.0908817636
  0
LWPOLYLINE
  5
7B8
100
AcDbEntity
  8
0
100
AcDbPolyline
 62
7
  6
CONTINUOUS
 90
9
 70
0
 10
8.7272578519
 20
6.1397744095
 10
8.722217031
 20
6.1386560055
 10
8.7075438508
 20
6.1375542721
 10
8.6834818769
 20
6.1364449935
 10
8.6504843654
 20
6.1353253389
 10
8.6100078982
 20
6.1342121858
 10
8.563743746
 20
6.133113039
 10
8.5118837831
 20
6.1319989971
 10
8.4563672523
 20
6.1308803815
  0
LWPOLYLINE
  5
7B9
100
AcDbEntity
  8
0
100
AcDbPolyline
 62
7
  6
CONTINUOUS
 90
9
 70
0
 10
8.0722578519
 20
5.9207744095
 10
8.077337423
 20
5.9218971152
 10
8.0921110446
 20
5.9230024515
 10
8.1159579435
 20
5.9241008711
 10
8.1485533559
 20
5.9252090183
 10
8.1888035779
 20
5.9263187578
 10
8.2351482999
 20
5.9274217658
 10
8.2871904712
 20
5.9285406864
 10
8.3429266527
 20
5.9296640599
  0
LWPOLYLINE
  5
7BA
100
AcDbEntity
  8
0
100
AcDbPolyline
 62
7
  6
CONTINUOUS
 90
9
 70
0
 10
8.0722578519
 20
6.0007744095
 10
8.0773378781
 20
6.0018971656
 10
8.0921376682
 20
6.0030039604
 10
8.1161792301
 20
6.0041094802
 10
8.1486646846
 20
6.0052123901
 10
8.188639519
 20
6.0063145874
 10
8.2349731045
 20
6.0074178257
 10
8.2870616907
 20
6.0085380204
 10
8.3428594248
 20
6.0096627329
  0
LWPOLYLINE
  5
7BB
100
AcDbEntity
  8
0
100
AcDbPolyline
 62
7
  6
CONTINUOUS
 90
10
 70
0
 10
8.0722578519
 20
5.9607744095
 10
8.0773425715
 20
5.9618976855
 10
8.0921450929
 20
5.963004381
 10
8.116114948
 20
5.9641069814
 10
8.1485314352
 20
5.9652083541
 10
8.1886257742
 20
5.9663142379
 10
8.2349765625
 20
5.9674179035
 10
8.2870644423
 20
5.9685380774
 10
8.3428608476
 20
5.969662761
 10
8.3997578519
 20
5.9707744095
  0
LWPOLYLINE
  5
7BC
100
AcDbEntity
  8
0
100
AcDbPolyline
 62
7
  6
CONTINUOUS
 90
20
 70
0
 10
8.0386510161
 20
5.9004686537
 10
8.0416577573
 20
5.9011190259
 10
8.0551396487
 20
5.902215093
 10
8.0788116568
 20
5.90331116
 10
8.1119738169
 20
5.9044072271
 10
8.1536455475
 20
5.9055032941
 10
8.2025946448
 20
5.9065993612
 10
8.2573737189
 20
5.9076954282
 10
8.316362991
 20
5.9087914953
 10
8.3778181903
 20
5.9098875623
 10
8.4399221298
 20
5.9109836294
 10
8.50083844
 20
5.9120796964
 10
8.5587658687
 20
5.9131757635
 10
8.6119915428
 20
5.9142718305
 10
8.6589416167
 20
5.9153678976
 10
8.6982278099
 20
5.9164639646
 10
8.7286884574
 20
5.9175600317
 10
8.7494228596
 20
5.9186560988
 10
8.7598179146
 20
5.9197521658
 10
8.7608646876
 20
5.9200801654
  0
LWPOLYLINE
  5
7BD
100
AcDbEntity
  8
0
100
AcDbPolyline
 62
7
  6
CONTINUOUS
 90
12
 70
0
 10
8.0386510161
 20
5.9804686537
 10
8.041755293
 20
5.9811319208
 10
8.0553599913
 20
5.9822279879
 10
8.079148291
 20
5.9833240549
 10
8.1124167886
 20
5.984420122
 10
8.1541817583
 20
5.985516189
 10
8.2032082395
 20
5.9866122561
 10
8.2580465538
 20
5.9877083231
 10
8.3170751709
 20
5.9888043902
 10
8.3785486565
 20
5.9899004572
 10
8.440649283
 20
5.9909965243
 10
8.5015407787
 20
5.9920925913
  0
LWPOLYLINE
  5
7BE
100
AcDbEntity
  8
0
100
AcDbPolyline
 62
7
  6
CONTINUOUS
 90
19
 70
0
 10
8.0386510161
 20
5.9404686537
 10
8.0471723621
 20
5.9416735069
 10
8.0658783647
 20
5.9427695739
 10
8.0944569476
 20
5.943865641
 10
8.1320630625
 20
5.944961708
 10
8.177584723
 20
5.9460577751
 10
8.2296758858
 20
5.9471538421
 10
8.2867962521
 20
5.9482499092
 10
8.3472568131
 20
5.9493459763
 10
8.4092697926
 20
5.9504420433
 10
8.4710015108
 20
5.9515381104
 10
8.5306266044
 20
5.9526341774
 10
8.5863820015
 20
5.9537302445
 10
8.6366190544
 20
5.9548263115
 10
8.679852289
 20
5.9559223786
 10
8.7148033292
 20
5.9570184456
 10
8.7404386973
 20
5.9581145127
 10
8.7560003738
 20
5.9592105797
 10
8.7608646876
 20
5.9600801654
  0
LWPOLYLINE
  5
7BF
100
AcDbEntity
  8
0
100
AcDbPolyline
 62
7
  6
CONTINUOUS
 90
8
 70
0
 10
8.7253622088
 20
6.0190891147
 10
8.7149692711
 20
6.0180249345
 10
8.6957371818
 20
6.0169584033
 10
8.6677508929
 20
6.0158760666
 10
8.6319709737
 20
6.014791908
 10
8.5900565353
 20
6.013721683
 10
8.5430276532
 20
6.012656882
 10
8.4920252642
 20
6.0115925913
  0
LWPOLYLINE
  5
7C0
100
AcDbEntity
  8
0
100
AcDbPolyline
 62
7
  6
CONTINUOUS
 90
9
 70
0
 10
8.4920252642
 20
5.9725925913
 10
8.5430276532
 20
5.973656882
 10
8.5900565353
 20
5.974721683
 10
8.6319709737
 20
5.975791908
 10
8.6677508929
 20
5.9768760666
 10
8.6957371818
 20
5.9779584033
 10
8.7149692711
 20
5.9790249345
 10
8.7253622088
 20
5.9800891147
 10
8.7270723831
 20
5.9805601474
  0
LWPOLYLINE
  5
7C1
100
AcDbEntity
  8
0
100
AcDbPolyline
 62
7
  6
CONTINUOUS
 90
4
 70
0
 10
8.4920252642
 20
6.0115925913
 10
8.4617346259
 20
6.0109864712
 10
8.4308923919
 20
6.0103805421
 10
8.3997578519
 20
6.0097744095
  0
LWPOLYLINE
  5
7C2
100
AcDbEntity
  8
0
100
AcDbPolyline
 62
7
  6
CONTINUOUS
 90
10
 70
0
 10
8.4561821787
 20
5.9708767291
 10
8.3429266527
 20
5.9686640599
 10
8.2871904712
 20
5.9675406864
 10
8.2351482999
 20
5.9664217658
 10
8.1888035779
 20
5.9653187578
 10
8.1485533559
 20
5.9642090183
 10
8.1159579435
 20
5.9631008711
 10
8.0921110446
 20
5.9620024515
 10
8.077337423
 20
5.9608971152
 10
8.0724433206
 20
5.9599886716
  0
LWPOLYLINE
  5
7C3
100
AcDbEntity
  8
0
100
AcDbPolyline
 62
7
  6
CONTINUOUS
 90
10
 70
0
 10
8.3997578519
 20
6.0097744095
 10
8.3428608476
 20
6.008662761
 10
8.2870644423
 20
6.0075380774
 10
8.2349765625
 20
6.0064179035
 10
8.1886257742
 20
6.0053142379
 10
8.1485314352
 20
6.0042083541
 10
8.116114948
 20
6.0031069814
 10
8.0921450929
 20
6.002004381
 10
8.0773425715
 20
6.0008976855
 10
8.0724433206
 20
5.9999886716
  0
LWPOLYLINE
  5
7C4
100
AcDbEntity
  8
0
100
AcDbPolyline
 62
7
  6
CONTINUOUS
 90
10
 70
0
 10
8.3428594248
 20
6.0096627329
 10
8.456425908
 20
6.0118815391
 10
8.5114845415
 20
6.0129907391
 10
8.5628626573
 20
6.0140932703
 10
8.6094216112
 20
6.015197336
 10
8.650236387
 20
6.0163178514
 10
8.6834828037
 20
6.0174450295
 10
8.7076736517
 20
6.0185616679
 10
8.7223181325
 20
6.0196673066
 10
8.7270723831
 20
6.0205601474
  0
LWPOLYLINE
  5
7C5
100
AcDbEntity
  8
0
100
AcDbPolyline
 62
7
  6
CONTINUOUS
 90
10
 70
0
 10
8.456425908
 20
6.0508815391
 10
8.3428594248
 20
6.0486627329
 10
8.2870616907
 20
6.0475380204
 10
8.2349731045
 20
6.0464178257
 10
8.188639519
 20
6.0453145874
 10
8.1486646846
 20
6.0442123901
 10
8.1161792301
 20
6.0431094802
 10
8.0921376682
 20
6.0420039604
 10
8.0773378781
 20
6.0408971656
 10
8.0724433206
 20
6.0399886716
  0
LWPOLYLINE
  5
7C6
100
AcDbEntity
  8
0
100
AcDbPolyline
 62
7
  6
CONTINUOUS
 90
10
 70
0
 10
8.3429214618
 20
6.0496639574
 10
8.4564372825
 20
6.0518817636
 10
8.5117554419
 20
6.052996342
 10
8.5632287895
 20
6.0541014808
 10
8.6095886814
 20
6.0552015647
 10
8.6502815326
 20
6.0563192138
 10
8.6834422285
 20
6.0574434507
 10
8.7075959297
 20
6.0585572366
 10
8.7222687304
 20
6.0596617702
 10
8.7270723831
 20
6.0605601474
  0
LWPOLYLINE
  5
7C7
100
AcDbEntity
  8
0
100
AcDbPolyline
 62
7
  6
CONTINUOUS
 90
4
 70
0
 10
8.3997578519
 20
5.9707744095
 10
8.4308923919
 20
5.9713805421
 10
8.4617346259
 20
5.9719864712
 10
8.4920252642
 20
5.9725925913
  0
LWPOLYLINE
  5
7C8
100
AcDbEntity
  8
0
100
AcDbPolyline
 62
7
  6
CONTINUOUS
 90
9
 70
0
 10
8.5015407787
 20
5.9920925913
 10
8.5594226253
 20
5.9931886584
 10
8.6125832974
 20
5.9942847254
 10
8.6594508716
 20
5.9953807925
 10
8.6986395068
 20
5.9964768596
 10
8.7289904228
 20
5.9975729266
 10
8.7496061644
 20
5.9986689937
 10
8.7598771388
 20
5.9997650607
 10
8.7608646876
 20
6.0000801654
  0
LINE
  5
7C9
100
AcDbEntity
  8
0
100
AcDbLine
 62
7
  6
CONTINUOUS
 10
8.7608646876
 20
5.8804686537
 11
8.7270723831
 21
5.8999886716
  0
LINE
  5
7CA
100
AcDbEntity
  8
0
100
AcDbLine
 62
7
  6
CONTINUOUS
 10
8.0386510161
 20
6.3000801654
 11
8.0724433206
 21
6.2805601474
  0
LINE
  5
7CB
100
AcDbEntity
  8
0
100
AcDbLine
 62
7
  6
CONTINUOUS
 10
8.7608646876
 20
5.9204686537
 11
8.7270723831
 21
5.9399886716
  0
LINE
  5
7CC
100
AcDbEntity
  8
0
100
AcDbLine
 62
7
  6
CONTINUOUS
 10
8.0386510161
 20
6.3400801654
 11
8.0724433206
 21
6.3205601474
  0
LINE
  5
7CD
100
AcDbEntity
  8
0
100
AcDbLine
 62
7
  6
CONTINUOUS
 10
8.7608646876
 20
5.9604686537
 11
8.7270723831
 21
5.9799886716
  0
LINE
  5
7CE
100
AcDbEntity
  8
0
100
AcDbLine
 62
7
  6
CONTINUOUS
 10
8.0386510161
 20
6.3800801654
 11
8.0724433206
 21
6.3605601474
  0
LWPOLYLINE
  5
7CF
100
AcDbEntity
  8
0
100
AcDbPolyline
 62
7
  6
CONTINUOUS
 90
9
 70
0
 10
8.0722578519
 20
6.0807744095
 10
8.077289954
 20
6.0818918434
 10
8.0919807435
 20
6.0829950526
 10
8.1160436537
 20
6.084104208
 10
8.1489685224
 20
6.0852215818
 10
8.1892555066
 20
6.086330234
 10
8.2354890767
 20
6.0874294256
 10
8.2874384261
 20
6.0885458183
 10
8.3430561878
 20
6.0896666166
  0
LWPOLYLINE
  5
7D0
100
AcDbEntity
  8
0
100
AcDbPolyline
 62
7
  6
CONTINUOUS
 90
9
 70
0
 10
8.7272578519
 20
6.1797744095
 10
8.7222156716
 20
6.1786558543
 10
8.7075015545
 20
6.1775518673
 10
8.6834261529
 20
6.1764428254
 10
8.6505424254
 20
6.1753270935
 10
8.6103821352
 20
6.1742216798
 10
8.5641396308
 20
6.1731219329
 10
8.5121556319
 20
6.1720046223
 10
8.4564987288
 20
6.1708829764
  0
LWPOLYLINE
  5
7D1
100
AcDbEntity
  8
0
100
AcDbPolyline
 62
7
  6
CONTINUOUS
 90
9
 70
0
 10
8.0722578519
 20
6.0407744095
 10
8.0773203198
 20
6.0418952186
 10
8.0920840435
 20
6.0430009202
 10
8.1161664677
 20
6.0441089842
 10
8.1489084167
 20
6.0452197648
 10
8.1888489952
 20
6.0463199119
 10
8.2351358573
 20
6.047421486
 10
8.2871804329
 20
6.0485404786
 10
8.3429214618
 20
6.0496639574
  0
LWPOLYLINE
  5
7D2
100
AcDbEntity
  8
0
100
AcDbPolyline
 62
7
  6
CONTINUOUS
 90
9
 70
0
 10
8.7272578519
 20
6.2197744095
 10
8.7221887708
 20
6.2186528667
 10
8.7074119048
 20
6.2175467783
 10
8.683334267
 20
6.2164392531
 10
8.6506569002
 20
6.2153305546
 10
8.6107452295
 20
6.2142309026
 10
8.5644413378
 20
6.2131287158
 10
8.5123758753
 20
6.212009181
 10
8.4566137523
 20
6.2108852467
  0
LWPOLYLINE
  5
7D3
100
AcDbEntity
  8
0
100
AcDbPolyline
 62
7
  6
CONTINUOUS
 90
20
 70
0
 10
8.0386510161
 20
6.0604686537
 10
8.0418542975
 20
6.0611448157
 10
8.055581747
 20
6.0622408828
 10
8.0794862405
 20
6.0633369498
 10
8.1128609392
 20
6.0644330169
 10
8.1547189768
 20
6.0655290839
 10
8.2038226406
 20
6.066625151
 10
8.2587199701
 20
6.067721218
 10
8.31778769
 20
6.0688172851
 10
8.3792792097
 20
6.0699133521
 10
8.4413762684
 20
6.0710094192
 10
8.5022426998
 20
6.0721054862
 10
8.5600787268
 20
6.0732015533
 10
8.6131741789
 20
6.0742976204
 10
8.6599590611
 20
6.0753936874
 10
8.6990499775
 20
6.0764897545
 10
8.7292910373
 20
6.0775858215
 10
8.7497880339
 20
6.0786818886
 10
8.7599348854
 20
6.0797779556
 10
8.7608646876
 20
6.0800801654
  0
LWPOLYLINE
  5
7D4
100
AcDbEntity
  8
0
100
AcDbPolyline
 62
7
  6
CONTINUOUS
 90
5
 70
0
 10
8.2226979841
 20
6.1271380459
 10
8.2637094351
 20
6.1280471368
 10
8.3074904395
 20
6.1289562277
 10
8.3531497423
 20
6.1298653186
 10
8.4564987288
 20
6.1318829764
  0
LWPOLYLINE
  5
7D5
100
AcDbEntity
  8
0
100
AcDbPolyline
 62
7
  6
CONTINUOUS
 90
9
 70
0
 10
8.4564987288
 20
6.1318829764
 10
8.5121556319
 20
6.1330046223
 10
8.5641396308
 20
6.1341219329
 10
8.6103821352
 20
6.1352216798
 10
8.6505424254
 20
6.1363270935
 10
8.6834261529
 20
6.1374428254
 10
8.7075015545
 20
6.1385518673
 10
8.7222156716
 20
6.1396558543
 10
8.7270723831
 20
6.1405601474
  0
LWPOLYLINE
  5
7D6
100
AcDbEntity
  8
0
100
AcDbPolyline
 62
7
  6
CONTINUOUS
 90
14
 70
0
 10
8.2044378455
 20
6.1466380459
 10
8.2593939651
 20
6.1477341129
 10
8.3185005455
 20
6.14883018
 10
8.380009847
 20
6.149926247
 10
8.442103083
 20
6.1510223141
 10
8.5029442005
 20
6.1521183812
 10
8.5607341706
 20
6.1532144482
 10
8.6137641848
 20
6.1543105153
 10
8.6604661831
 20
6.1554065823
 10
8.6994592203
 20
6.1565026494
 10
8.7295902999
 20
6.1575987164
 10
8.7499684673
 20
6.1586947835
 10
8.7599911543
 20
6.1597908505
 10
8.7608646876
 20
6.1600801654
  0
LWPOLYLINE
  5
7D7
100
AcDbEntity
  8
0
100
AcDbPolyline
 62
7
  6
CONTINUOUS
 90
10
 70
0
 10
8.4564372825
 20
6.0908817636
 10
8.3429214618
 20
6.0886639574
 10
8.2871804329
 20
6.0875404786
 10
8.2351358573
 20
6.086421486
 10
8.1888489952
 20
6.0853199119
 10
8.1489084167
 20
6.0842197648
 10
8.1161664677
 20
6.0831089842
 10
8.0920840435
 20
6.0820009202
 10
8.0773203198
 20
6.0808952186
 10
8.0724433206
 20
6.0799886716
  0
LWPOLYLINE
  5
7D8
100
AcDbEntity
  8
0
100
AcDbPolyline
 62
7
  6
CONTINUOUS
 90
10
 70
0
 10
8.3430561878
 20
6.0896666166
 10
8.4563672523
 20
6.0918803815
 10
8.5118837831
 20
6.0929989971
 10
8.563743746
 20
6.094113039
 10
8.6100078982
 20
6.0952121858
 10
8.6504843654
 20
6.0963253389
 10
8.6834818769
 20
6.0974449935
 10
8.7075438508
 20
6.0985542721
 10
8.722217031
 20
6.0996560055
 10
8.7270723831
 20
6.1005601474
  0
LWPOLYLINE
  5
7D9
100
AcDbEntity
  8
0
100
AcDbPolyline
 62
7
  6
CONTINUOUS
 90
10
 70
0
 10
8.4563672523
 20
6.1308803815
 10
8.3430561878
 20
6.1286666166
 10
8.2874384261
 20
6.1275458183
 10
8.2354890767
 20
6.1264294256
 10
8.1892555066
 20
6.125330234
 10
8.1489685224
 20
6.1242215818
 10
8.1160436537
 20
6.123104208
 10
8.0919807435
 20
6.1219950526
 10
8.077289954
 20
6.1208918434
 10
8.0724433206
 20
6.1199886716
  0
LINE
  5
7DA
100
AcDbEntity
  8
0
100
AcDbLine
 62
7
  6
CONTINUOUS
 10
8.7608646876
 20
6.0004686537
 11
8.7270723831
 21
6.0199886716
  0
LINE
  5
7DB
100
AcDbEntity
  8
0
100
AcDbLine
 62
7
  6
CONTINUOUS
 10
8.0386510161
 20
6.4200801654
 11
8.0724433206
 21
6.4005601474
  0
LINE
  5
7DC
100
AcDbEntity
  8
0
100
AcDbLine
 62
7
  6
CONTINUOUS
 10
8.7608646876
 20
6.0404686537
 11
8.7270723831
 21
6.0599886716
  0
LINE
  5
7DD
100
AcDbEntity
  8
0
100
AcDbLine
 62
7
  6
CONTINUOUS
 10
8.0386510161
 20
6.4600801654
 11
8.0724433206
 21
6.4405601474
  0
LINE
  5
7DE
100
AcDbEntity
  8
0
100
AcDbLine
 62
7
  6
CONTINUOUS
 10
8.7608646876
 20
6.0804686537
 11
8.7270723831
 21
6.0999886716
  0
LINE
  5
7DF
100
AcDbEntity
  8
0
100
AcDbLine
 62
7
  6
CONTINUOUS
 10
8.0386510161
 20
6.5000801654
 11
8.0724433206
 21
6.4805601474
  0
LWPOLYLINE
  5
7E0
100
AcDbEntity
  8
0
100
AcDbPolyline
 62
7
  6
CONTINUOUS
 90
7
 70
0
 10
8.072257852
 20
6.1207742443
 10
8.0756037669
 20
6.1216851977
 10
8.088225435
 20
6.122770543
 10
8.1099285283
 20
6.1238579152
 10
8.1404739554
 20
6.1249582674
 10
8.1786624558
 20
6.126056415
 10
8.2226979841
 20
6.1271380459
  0
LWPOLYLINE
  5
7E1
100
AcDbEntity
  8
0
100
AcDbPolyline
 62
7
  6
CONTINUOUS
 90
9
 70
0
 10
8.0722578519
 20
6.2007744007
 10
8.0771904391
 20
6.2018807109
 10
8.0918264314
 20
6.2029862596
 10
8.1160187979
 20
6.2041032406
 10
8.1492748049
 20
6.2052308315
 10
8.1901080194
 20
6.2063518355
 10
8.2367022004
 20
6.2074566505
 10
8.2881364836
 20
6.2085602578
 10
8.3431109458
 20
6.2096676973
  0
LWPOLYLINE
  5
7E2
100
AcDbEntity
  8
0
100
AcDbPolyline
 62
7
  6
CONTINUOUS
 90
10
 70
0
 10
8.0722578519
 20
6.1607743985
 10
8.0772296651
 20
6.1618851122
 10
8.0918948025
 20
6.1629901596
 10
8.1160605094
 20
6.1641048639
 10
8.1492503602
 20
6.1652300939
 10
8.1899879987
 20
6.166348798
 10
8.2364163751
 20
6.1674502421
 10
8.2878148392
 20
6.168553606
 10
8.3430687576
 20
6.1696668647
 10
8.4566137523
 20
6.1718852467
  0
LWPOLYLINE
  5
7E3
100
AcDbEntity
  8
0
100
AcDbPolyline
 62
7
  6
CONTINUOUS
 90
9
 70
0
 10
8.7272578519
 20
6.2597744095
 10
8.7221747183
 20
6.2586513092
 10
8.7073720281
 20
6.2575445183
 10
8.6833525069
 20
6.2564399619
 10
8.6509141649
 20
6.2553383412
 10
8.6108959967
 20
6.2542347354
 10
8.5645522211
 20
6.2531312098
 10
8.5124567597
 20
6.2520108555
 10
8.4566560115
 20
6.2508860809
  0
LWPOLYLINE
  5
7E4
100
AcDbEntity
  8
0
100
AcDbPolyline
 62
7
  6
CONTINUOUS
 90
9
 70
0
 10
8.7272578519
 20
6.2997744095
 10
8.7221736112
 20
6.2986511866
 10
8.7073820661
 20
6.297545087
 10
8.6834820565
 20
6.2964450004
 10
8.6510012748
 20
6.2953409803
 10
8.6108254094
 20
6.2942329407
 10
8.564472441
 20
6.2931294153
 10
8.5123980736
 20
6.2920096405
 10
8.4566253761
 20
6.2908854761
  0
LWPOLYLINE
  5
7E5
100
AcDbEntity
  8
0
100
AcDbPolyline
 62
7
  6
CONTINUOUS
 90
9
 70
0
 10
8.7272578519
 20
6.3397744095
 10
8.722181349
 20
6.3386520438
 10
8.7074228632
 20
6.3375473998
 10
8.6835790807
 20
6.3364487785
 10
8.6509144356
 20
6.3353383494
 10
8.6106241516
 20
6.3342278259
 10
8.5642862214
 20
6.333125228
 10
8.5122615488
 20
6.3320068144
 10
8.4565540901
 20
6.3308840691
  0
LWPOLYLINE
  5
7E6
100
AcDbEntity
  8
0
100
AcDbPolyline
 62
7
  6
CONTINUOUS
 90
7
 70
0
 10
8.0386510161
 20
6.1404686537
 10
8.0419547703
 20
6.1411577106
 10
8.0558049146
 20
6.1422537777
 10
8.0798255041
 20
6.1433498447
 10
8.1133062669
 20
6.1444459118
 10
8.1552572005
 20
6.1455419788
 10
8.2044378455
 20
6.1466380459
  0
LWPOLYLINE
  5
7E7
100
AcDbEntity
  8
0
100
AcDbPolyline
 62
7
  6
CONTINUOUS
 90
7
 70
0
 10
8.2226979841
 20
6.1661380459
 10
8.1786624558
 20
6.165056415
 10
8.1404739554
 20
6.1639582674
 10
8.1099285283
 20
6.1628579152
 10
8.088225435
 20
6.161770543
 10
8.0756037669
 20
6.1606851977
 10
8.0724433206
 20
6.1599886716
  0
LWPOLYLINE
  5
7E8
100
AcDbEntity
  8
0
100
AcDbPolyline
 62
7
  6
CONTINUOUS
 90
9
 70
0
 10
8.4566137523
 20
6.1718852467
 10
8.5123758753
 20
6.173009181
 10
8.5644413378
 20
6.1741287158
 10
8.6107452295
 20
6.1752309026
 10
8.6506569002
 20
6.1763305546
 10
8.683334267
 20
6.1774392531
 10
8.7074119048
 20
6.1785467783
 10
8.7221887708
 20
6.1796528667
 10
8.7270723831
 20
6.1805601474
  0
LWPOLYLINE
  5
7E9
100
AcDbEntity
  8
0
100
AcDbPolyline
 62
7
  6
CONTINUOUS
 90
9
 70
0
 10
8.4566253761
 20
6.2518854761
 10
8.5123980736
 20
6.2530096405
 10
8.564472441
 20
6.2541294153
 10
8.6108254094
 20
6.2552329407
 10
8.6510012748
 20
6.2563409803
 10
8.6834820565
 20
6.2574450004
 10
8.7073820661
 20
6.258545087
 10
8.7221736112
 20
6.2596511866
 10
8.7270723831
 20
6.2605601474
  0
LWPOLYLINE
  5
7EA
100
AcDbEntity
  8
0
100
AcDbPolyline
 62
7
  6
CONTINUOUS
 90
5
 70
0
 10
8.4564987288
 20
6.1708829764
 10
8.3531497423
 20
6.1688653186
 10
8.3074904395
 20
6.1679562277
 10
8.2637094351
 20
6.1670471368
 10
8.2226979841
 20
6.1661380459
  0
LWPOLYLINE
  5
7EB
100
AcDbEntity
  8
0
100
AcDbPolyline
 62
7
  6
CONTINUOUS
 90
10
 70
0
 10
8.4566137523
 20
6.2108852467
 10
8.3430687576
 20
6.2086668647
 10
8.2878148392
 20
6.207553606
 10
8.2364163751
 20
6.2064502421
 10
8.1899879987
 20
6.205348798
 10
8.1492503602
 20
6.2042300939
 10
8.1160605094
 20
6.2031048639
 10
8.0918948025
 20
6.2019901596
 10
8.0772296651
 20
6.2008851122
 10
8.0724433206
 20
6.1999886716
  0
LWPOLYLINE
  5
7EC
100
AcDbEntity
  8
0
100
AcDbPolyline
 62
7
  6
CONTINUOUS
 90
10
 70
0
 10
8.3431109458
 20
6.2096676973
 10
8.4566560115
 20
6.2118860809
 10
8.5124567597
 20
6.2130108555
 10
8.5645522211
 20
6.2141312098
 10
8.6108959967
 20
6.2152347354
 10
8.6509141649
 20
6.2163383412
 10
8.6833525069
 20
6.2174399619
 10
8.7073720281
 20
6.2185445183
 10
8.7221747183
 20
6.2196513092
 10
8.7270723831
 20
6.2205601474
  0
LWPOLYLINE
  5
7ED
100
AcDbEntity
  8
0
100
AcDbPolyline
 62
7
  6
CONTINUOUS
 90
10
 70
0
 10
8.4566560115
 20
6.2508860809
 10
8.3431109458
 20
6.2486676973
 10
8.2881364836
 20
6.2475602578
 10
8.2367022004
 20
6.2464566505
 10
8.1901080194
 20
6.2453518355
 10
8.1492748049
 20
6.2442308315
 10
8.1160187979
 20
6.2431032406
 10
8.0918264314
 20
6.2419862596
 10
8.0771904391
 20
6.2408807109
 10
8.0724433206
 20
6.2399886716
  0
LINE
  5
7EE
100
AcDbEntity
  8
0
100
AcDbLine
 62
7
  6
CONTINUOUS
 10
8.7608646876
 20
6.1204686537
 11
8.7270723831
 21
6.1399886716
  0
LINE
  5
7EF
100
AcDbEntity
  8
0
100
AcDbLine
 62
7
  6
CONTINUOUS
 10
8.0386510161
 20
6.5400801654
 11
8.0724433206
 21
6.5205601474
  0
LINE
  5
7F0
100
AcDbEntity
  8
0
100
AcDbLine
 62
7
  6
CONTINUOUS
 10
8.7608646876
 20
6.1604686537
 11
8.7270723831
 21
6.1799886716
  0
LINE
  5
7F1
100
AcDbEntity
  8
0
100
AcDbLine
 62
7
  6
CONTINUOUS
 10
8.7608646876
 20
6.2004686537
 11
8.7270723831
 21
6.2199886716
  0
LINE
  5
7F2
100
AcDbEntity
  8
0
100
AcDbLine
 62
7
  6
CONTINUOUS
 10
8.0722578524
 20
6.2807747725
 11
8.0755913297
 21
6.2816835004
  0
LWPOLYLINE
  5
7F3
100
AcDbEntity
  8
0
100
AcDbPolyline
 62
7
  6
CONTINUOUS
 90
10
 70
0
 10
8.0722578519
 20
6.240774415
 10
8.0771894469
 20
6.2418805994
 10
8.091795444
 20
6.2429844898
 10
8.1159766332
 20
6.244101599
 10
8.1492261267
 20
6.2452293625
 10
8.1900567659
 20
6.2463505385
 10
8.2366928867
 20
6.2474564418
 10
8.2884251918
 20
6.2485662264
 10
8.3432454433
 20
6.2496703517
 10
8.4566253761
 20
6.2518854761
  0
LWPOLYLINE
  5
7F4
100
AcDbEntity
  8
0
100
AcDbPolyline
 62
7
  6
CONTINUOUS
 90
9
 70
0
 10
8.7272578519
 20
6.4597743947
 10
8.7223098638
 20
6.458666378
 10
8.7077216641
 20
6.4575644095
 10
8.6835632641
 20
6.4564481623
 10
8.650351118
 20
6.4553213143
 10
8.6095705538
 20
6.4542011057
 10
8.5629669863
 20
6.4530956093
 10
8.5111200308
 20
6.4519832028
 10
8.4561604663
 20
6.4508763006
  0
LWPOLYLINE
  5
7F5
100
AcDbEntity
  8
0
100
AcDbPolyline
 62
7
  6
CONTINUOUS
 90
10
 70
0
 10
8.7272578519
 20
6.4197744056
 10
8.7222621663
 20
6.4186610367
 10
8.7076923358
 20
6.4175627344
 10
8.6836036278
 20
6.4164497349
 10
8.6505118176
 20
6.4153261684
 10
8.6098878763
 20
6.4142091434
 10
8.5634285688
 20
6.4131059634
 10
8.5114960213
 20
6.4119909765
 10
8.4561310632
 20
6.4108757204
 10
8.3430843737
 20
6.4086671729
  0
LWPOLYLINE
  5
7F6
100
AcDbEntity
  8
0
100
AcDbPolyline
 62
7
  6
CONTINUOUS
 90
9
 70
0
 10
8.0722578519
 20
6.3207744111
 10
8.0772570783
 20
6.3218881779
 10
8.0918321388
 20
6.3229865854
 10
8.1159043811
 20
6.3240987842
 10
8.1489689814
 20
6.3252215957
 10
8.1895603438
 20
6.3263379652
 10
8.235985694
 20
6.3274405788
 10
8.287917173
 20
6.3285557226
 10
8.3433377859
 20
6.329672174
  0
LWPOLYLINE
  5
7F7
100
AcDbEntity
  8
0
100
AcDbPolyline
 62
7
  6
CONTINUOUS
 90
9
 70
0
 10
8.7272578519
 20
6.3797744095
 10
8.7222029181
 20
6.3786544369
 10
8.7075198615
 20
6.3775529079
 10
8.6835190054
 20
6.3764464387
 10
8.6505905178
 20
6.3753285473
 10
8.6101604806
 20
6.3742160552
 10
8.5638725628
 20
6.3731159322
 10
8.5119586185
 20
6.3720005454
 10
8.4563959423
 20
6.3708809477
  0
LINE
  5
7F8
100
AcDbEntity
  8
0
100
AcDbLine
 62
7
  6
CONTINUOUS
 10
8.0755913297
 20
6.3206835004
 11
8.0724433206
 21
6.3199886716
  0
LWPOLYLINE
  5
7F9
100
AcDbEntity
  8
0
100
AcDbPolyline
 62
7
  6
CONTINUOUS
 90
20
 70
0
 10
8.0386510161
 20
6.2204686537
 10
8.0420567112
 20
6.2211706055
 10
8.0560294935
 20
6.2222666726
 10
8.0801660803
 20
6.2233627396
 10
8.1137527698
 20
6.2244588067
 10
8.1557964274
 20
6.2255548737
 10
8.2050538518
 20
6.2266509408
 10
8.2600685359
 20
6.2277470078
 10
8.3192137342
 20
6.2288430749
 10
8.3807405652
 20
6.229939142
 10
8.4428297239
 20
6.231035209
 10
8.5036452778
 20
6.2321312761
 10
8.5613889539
 20
6.2332273431
 10
8.6143533127
 20
6.2343234102
 10
8.6609722354
 20
6.2354194772
 10
8.6998672334
 20
6.2365155443
 10
8.7298882093
 20
6.2376116113
 10
8.7501474638
 20
6.2387076784
 10
8.7600459453
 20
6.2398037454
 10
8.7608646876
 20
6.2400801654
  0
LINE
  5
7FA
100
AcDbEntity
  8
0
100
AcDbLine
 62
7
  6
CONTINUOUS
 10
8.0386510161
 20
6.3004686537
 11
8.0421601196
 21
6.3011835004
  0
LWPOLYLINE
  5
7FB
100
AcDbEntity
  8
0
100
AcDbPolyline
 62
7
  6
CONTINUOUS
 90
10
 70
0
 10
8.0755913297
 20
6.2816835004
 10
8.0868936161
 20
6.2826848255
 10
8.1060680646
 20
6.2836926596
 10
8.1330092087
 20
6.2847146406
 10
8.1668531856
 20
6.2857378188
 10
8.2062081325
 20
6.2867491428
 10
8.250187972
 20
6.2877550215
 10
8.2982068083
 20
6.2887672959
 10
8.3484706924
 20
6.2897733296
 10
8.4565540901
 20
6.2918840691
  0
LWPOLYLINE
  5
7FC
100
AcDbEntity
  8
0
100
AcDbPolyline
 62
7
  6
CONTINUOUS
 90
19
 70
0
 10
8.0421601196
 20
6.3011835004
 10
8.0562554825
 20
6.3022795675
 10
8.0805079677
 20
6.3033756345
 10
8.1142004461
 20
6.3044717016
 10
8.1563366552
 20
6.3055677686
 10
8.205670657
 20
6.3066638357
 10
8.2607436798
 20
6.3077599028
 10
8.3199272535
 20
6.3088559698
 10
8.3814713615
 20
6.3099520369
 10
8.4435561881
 20
6.3110481039
 10
8.5043459289
 20
6.312144171
 10
8.5620430741
 20
6.313240238
 10
8.6149415601
 20
6.3143363051
 10
8.661477216
 20
6.3154323721
 10
8.7002740153
 20
6.3165284392
 10
8.7301847642
 20
6.3176245062
 10
8.7503250228
 20
6.3187205733
 10
8.7600992581
 20
6.3198166403
 10
8.7608646876
 20
6.3200801654
  0
LWPOLYLINE
  5
7FD
100
AcDbEntity
  8
0
100
AcDbPolyline
 62
7
  6
CONTINUOUS
 90
9
 70
0
 10
8.4565540901
 20
6.2918840691
 10
8.5122615488
 20
6.2930068144
 10
8.5642862214
 20
6.294125228
 10
8.6106241516
 20
6.2952278259
 10
8.6509144356
 20
6.2963383494
 10
8.6835790807
 20
6.2974487785
 10
8.7074228632
 20
6.2985473998
 10
8.722181349
 20
6.2996520438
 10
8.7270723831
 20
6.3005601474
  0
LWPOLYLINE
  5
7FE
100
AcDbEntity
  8
0
100
AcDbPolyline
 62
7
  6
CONTINUOUS
 90
10
 70
0
 10
8.4566253761
 20
6.2908854761
 10
8.3432454433
 20
6.2886703517
 10
8.2884251918
 20
6.2875662264
 10
8.2366928867
 20
6.2864564418
 10
8.1900567659
 20
6.2853505385
 10
8.1492261267
 20
6.2842293625
 10
8.1159766332
 20
6.283101599
 10
8.091795444
 20
6.2819844898
 10
8.0771894469
 20
6.2808805994
 10
8.0724433206
 20
6.2799886716
  0
LWPOLYLINE
  5
7FF
100
AcDbEntity
  8
0
100
AcDbPolyline
 62
7
  6
CONTINUOUS
 90
10
 70
0
 10
8.4565540901
 20
6.3308840691
 10
8.3484706924
 20
6.3287733296
 10
8.2982068083
 20
6.3277672959
 10
8.250187972
 20
6.3267550215
 10
8.2062081325
 20
6.3257491428
 10
8.1668531856
 20
6.3247378188
 10
8.1330092087
 20
6.3237146406
 10
8.1060680646
 20
6.3226926596
 10
8.0868936161
 20
6.3216848255
 10
8.0755913297
 20
6.3206835004
  0
LWPOLYLINE
  5
800
100
AcDbEntity
  8
0
100
AcDbPolyline
 62
7
  6
CONTINUOUS
 90
10
 70
0
 10
8.3433377859
 20
6.329672174
 10
8.4563959423
 20
6.3318809477
 10
8.5119586185
 20
6.3330005454
 10
8.5638725628
 20
6.3341159322
 10
8.6101604806
 20
6.3352160552
 10
8.6505905178
 20
6.3363285473
 10
8.6835190054
 20
6.3374464387
 10
8.7075198615
 20
6.3385529079
 10
8.7222029181
 20
6.3396544369
 10
8.7270723831
 20
6.3405601474
  0
LINE
  5
801
100
AcDbEntity
  8
0
100
AcDbLine
 62
7
  6
CONTINUOUS
 10
8.7608646876
 20
6.2404686537
 11
8.7270723831
 21
6.2599886716
  0
LINE
  5
802
100
AcDbEntity
  8
0
100
AcDbLine
 62
7
  6
CONTINUOUS
 10
8.7608646876
 20
6.2804686537
 11
8.7270723831
 21
6.2999886716
  0
LINE
  5
803
100
AcDbEntity
  8
0
100
AcDbLine
 62
7
  6
CONTINUOUS
 10
8.7608646876
 20
6.3204686537
 11
8.7270723831
 21
6.3399886716
  0
LINE
  5
804
100
AcDbEntity
  8
0
100
AcDbLine
 62
7
  6
CONTINUOUS
 10
8.7249905518
 20
6.5400248695
 11
8.7270723831
 21
6.5405601474
  0
LWPOLYLINE
  5
805
100
AcDbEntity
  8
0
100
AcDbPolyline
 62
7
  6
CONTINUOUS
 90
9
 70
0
 10
8.7272578519
 20
6.4997744071
 10
8.7223286911
 20
6.4986684934
 10
8.7077170773
 20
6.4975641474
 10
8.6835292221
 20
6.4964468365
 10
8.6502722412
 20
6.4953189334
 10
8.6094362045
 20
6.4941977053
 10
8.5628006179
 20
6.4930918797
 10
8.5111084926
 20
6.4919829643
 10
8.4562970018
 20
6.4908789951
  0
LWPOLYLINE
  5
806
100
AcDbEntity
  8
0
100
AcDbPolyline
 62
7
  6
CONTINUOUS
 90
9
 70
0
 10
8.0722578519
 20
6.3607744095
 10
8.0773166336
 20
6.3618948094
 10
8.0920136056
 20
6.3629969209
 10
8.1159702907
 20
6.364101352
 10
8.1488527161
 20
6.3652180803
 10
8.1892622789
 20
6.3663304058
 10
8.2355606802
 20
6.3674310344
 10
8.2874925558
 20
6.3685469384
 10
8.3430843737
 20
6.3696671729
  0
LWPOLYLINE
  5
807
100
AcDbEntity
  8
0
100
AcDbPolyline
 62
7
  6
CONTINUOUS
 90
9
 70
0
 10
8.0722578519
 20
6.4007744095
 10
8.0773360953
 20
6.4018969681
 10
8.0921043304
 20
6.4030020708
 10
8.1159475216
 20
6.4041004651
 10
8.148569636
 20
6.4052095115
 10
8.1888361025
 20
6.4063195843
 10
8.2351781707
 20
6.4074224374
 10
8.2872123681
 20
6.4085411397
 10
8.3429380864
 20
6.4096642856
  0
LWPOLYLINE
  5
808
100
AcDbEntity
  8
0
100
AcDbPolyline
 62
7
  6
CONTINUOUS
 90
20
 70
0
 10
8.0386510161
 20
6.3804686537
 10
8.0422649952
 20
6.3811963953
 10
8.0564828809
 20
6.3822924624
 10
8.0808511649
 20
6.3833885294
 10
8.114649294
 20
6.3844845965
 10
8.1568778817
 20
6.3855806636
 10
8.2062882584
 20
6.3866767306
 10
8.2614193941
 20
6.3877727977
 10
8.3206411003
 20
6.3888688647
 10
8.3822022328
 20
6.3899649318
 10
8.4442824726
 20
6.3910609988
 10
8.5050461508
 20
6.3921570659
 10
8.5626965285
 20
6.3932531329
 10
8.6155289247
 20
6.3943492
 10
8.6619811229
 20
6.395445267
 10
8.7006795643
 20
6.3965413341
 10
8.7304799634
 20
6.3976374011
 10
8.7505011436
 20
6.3987334682
 10
8.7601510925
 20
6.3998295352
 10
8.7608646876
 20
6.4000801654
  0
LWPOLYLINE
  5
809
100
AcDbEntity
  8
0
100
AcDbPolyline
 62
7
  6
CONTINUOUS
 90
9
 70
0
 10
8.3430843737
 20
6.4086671729
 10
8.2874925558
 20
6.4075469384
 10
8.2355606802
 20
6.4064310344
 10
8.1892622789
 20
6.4053304058
 10
8.1488527161
 20
6.4042180803
 10
8.1159702907
 20
6.403101352
 10
8.0920136056
 20
6.4019969209
 10
8.0773166336
 20
6.4008948094
 10
8.0724433206
 20
6.3999886716
  0
LWPOLYLINE
  5
80A
100
AcDbEntity
  8
0
100
AcDbPolyline
 62
7
  6
CONTINUOUS
 90
10
 70
0
 10
8.4563959423
 20
6.3708809477
 10
8.3433377859
 20
6.368672174
 10
8.287917173
 20
6.3675557226
 10
8.235985694
 20
6.3664405788
 10
8.1895603438
 20
6.3653379652
 10
8.1489689814
 20
6.3642215957
 10
8.1159043811
 20
6.3630987842
 10
8.0918321388
 20
6.3619865854
 10
8.0772570783
 20
6.3608881779
 10
8.0724433206
 20
6.3599886716
  0
LWPOLYLINE
  5
80B
100
AcDbEntity
  8
0
100
AcDbPolyline
 62
7
  6
CONTINUOUS
 90
10
 70
0
 10
8.3430843737
 20
6.3696671729
 10
8.4561310632
 20
6.3718757204
 10
8.5114960213
 20
6.3729909765
 10
8.5634285688
 20
6.3741059634
 10
8.6098878763
 20
6.3752091434
 10
8.6505118176
 20
6.3763261684
 10
8.6836036278
 20
6.3774497349
 10
8.7076923358
 20
6.3785627344
 10
8.7222621663
 20
6.3796610367
 10
8.7270723831
 20
6.3805601474
  0
LWPOLYLINE
  5
80C
100
AcDbEntity
  8
0
100
AcDbPolyline
 62
7
  6
CONTINUOUS
 90
10
 70
0
 10
8.3429380864
 20
6.4096642856
 10
8.4561604663
 20
6.4118763006
 10
8.5111200308
 20
6.4129832028
 10
8.5629669863
 20
6.4140956093
 10
8.6095705538
 20
6.4152011057
 10
8.650351118
 20
6.4163213143
 10
8.6835632641
 20
6.4174481623
 10
8.7077216641
 20
6.4185644095
 10
8.7223098638
 20
6.419666378
 10
8.7270723831
 20
6.4205601474
  0
LWPOLYLINE
  5
80D
100
AcDbEntity
  8
0
100
AcDbPolyline
 62
7
  6
CONTINUOUS
 90
10
 70
0
 10
8.4561604663
 20
6.4508763006
 10
8.3429380864
 20
6.4486642856
 10
8.2872123681
 20
6.4475411397
 10
8.2351781707
 20
6.4464224374
 10
8.1888361025
 20
6.4453195843
 10
8.148569636
 20
6.4442095115
 10
8.1159475216
 20
6.4431004651
 10
8.0921043304
 20
6.4420020708
 10
8.0773360953
 20
6.4408969681
 10
8.0724433206
 20
6.4399886716
  0
LWPOLYLINE
  5
80E
100
AcDbEntity
  8
0
100
AcDbPolyline
 62
7
  6
CONTINUOUS
 90
10
 70
0
 10
8.3424622644
 20
6.4496548925
 10
8.4562970018
 20
6.4518789951
 10
8.5111084926
 20
6.4529829643
 10
8.5628006179
 20
6.4540918797
 10
8.6094362045
 20
6.4551977053
 10
8.6502722412
 20
6.4563189334
 10
8.6835292221
 20
6.4574468365
 10
8.7077170773
 20
6.4585641474
 10
8.7223286911
 20
6.4596684934
 10
8.7270723831
 20
6.4605601474
  0
LINE
  5
80F
100
AcDbEntity
  8
0
100
AcDbLine
 62
7
  6
CONTINUOUS
 10
8.7608646876
 20
6.3604686537
 11
8.7270723831
 21
6.3799886716
  0
LINE
  5
810
100
AcDbEntity
  8
0
100
AcDbLine
 62
7
  6
CONTINUOUS
 10
8.7608646876
 20
6.4004686537
 11
8.7270723831
 21
6.4199886716
  0
LINE
  5
811
100
AcDbEntity
  8
0
100
AcDbLine
 62
7
  6
CONTINUOUS
 10
8.7608646876
 20
6.4404686537
 11
8.7270723831
 21
6.4599886716
  0
LWPOLYLINE
  5
812
100
AcDbEntity
  8
0
100
AcDbPolyline
 62
7
  6
CONTINUOUS
 90
9
 70
0
 10
8.0722578519
 20
6.4407744063
 10
8.0767704512
 20
6.4418324513
 10
8.0911619309
 20
6.4429480051
 10
8.1148362203
 20
6.4440569157
 10
8.1471854708
 20
6.4451674124
 10
8.1874003509
 20
6.4462830127
 10
8.2339353731
 20
6.4473944585
 10
8.2863014776
 20
6.4485222745
 10
8.3424622644
 20
6.4496548925
  0
LWPOLYLINE
  5
813
100
AcDbEntity
  8
0
100
AcDbPolyline
 62
7
  6
CONTINUOUS
 90
9
 70
0
 10
8.0722578519
 20
6.4807744095
 10
8.0773389998
 20
6.4818972899
 10
8.0921404685
 20
6.483004119
 10
8.1161739712
 20
6.4841092758
 10
8.1486378507
 20
6.4852115776
 10
8.1886297933
 20
6.4863143401
 10
8.2349669593
 20
6.4874176875
 10
8.2870572217
 20
6.4885379279
 10
8.3428570884
 20
6.4896626868
  0
LWPOLYLINE
  5
814
100
AcDbEntity
  8
0
100
AcDbPolyline
 62
7
  6
CONTINUOUS
 90
20
 70
0
 10
8.0386510161
 20
6.4604686537
 10
8.0418815129
 20
6.4611483273
 10
8.0554323025
 20
6.4622322017
 10
8.0789398433
 20
6.4633160762
 10
8.1117243753
 20
6.4643999506
 10
8.1528378786
 20
6.4654838251
 10
8.2010914874
 20
6.4665676996
 10
8.2550898676
 20
6.467651574
 10
8.3132715653
 20
6.4687354485
 10
8.3739541591
 20
6.4698193229
 10
8.4353829101
 20
6.4709031974
 10
8.4957815027
 20
6.4719870719
 10
8.5534034102
 20
6.4730709463
 10
8.6065823986
 20
6.4741548208
 10
8.6537807081
 20
6.4752386952
 10
8.6936335203
 20
6.4763225697
 10
8.7249884244
 20
6.4774064442
 10
8.7469387406
 20
6.4784903186
 10
8.7588497387
 20
6.4795741931
 10
8.7608646876
 20
6.4800801654
  0
LWPOLYLINE
  5
815
100
AcDbEntity
  8
0
100
AcDbPolyline
 62
7
  6
CONTINUOUS
 90
20
 70
0
 10
8.0386510161
 20
6.5004686537
 10
8.0427312689
 20
6.5012516823
 10
8.0572530511
 20
6.5023355567
 10
8.0816789344
 20
6.5034194312
 10
8.1153026035
 20
6.5045033056
 10
8.1571517735
 20
6.5055871801
 10
8.2060163055
 20
6.5066710545
 10
8.2604831994
 20
6.507754929
 10
8.3189774537
 20
6.5088388035
 10
8.3798076087
 20
6.5099226779
 10
8.4412146585
 20
6.5110065524
 10
8.5014229152
 20
6.5120904268
 10
8.558691356
 20
6.5131743013
 10
8.6113639677
 20
6.5142581758
 10
8.6579176334
 20
6.5153420502
 10
8.6970061758
 20
6.5164259247
 10
8.7274992839
 20
6.5175097991
 10
8.7485151986
 20
6.5185936736
 10
8.7594462092
 20
6.5196775481
 10
8.7608646876
 20
6.5200801654
  0
LWPOLYLINE
  5
816
100
AcDbEntity
  8
0
100
AcDbPolyline
 62
7
  6
CONTINUOUS
 90
18
 70
0
 10
8.0723213209
 20
6.5208997459
 10
8.0785548067
 20
6.5220248214
 10
8.0947932104
 20
6.5231498495
 10
8.1205309798
 20
6.524274885
 10
8.1549665462
 20
6.5253999266
 10
8.1970261603
 20
6.5265249436
 10
8.245400882
 20
6.5276499707
 10
8.2985857203
 20
6.5287750418
 10
8.3549225949
 20
6.5299001216
 10
8.4126540725
 20
6.531025161
 10
8.4699789078
 20
6.5321501023
 10
8.5251176902
 20
6.5332750621
 10
8.5763517351
 20
6.5344000115
 10
8.6220862957
 20
6.5355249707
 10
8.6608973887
 20
6.5366499578
 10
8.6915749994
 20
6.5377749453
 10
8.7131632719
 20
6.5388999091
 10
8.7249905518
 20
6.5400248695
  0
LWPOLYLINE
  5
817
100
AcDbEntity
  8
0
100
AcDbPolyline
 62
7
  6
CONTINUOUS
 90
7
 70
0
 10
8.0386510161
 20
6.5404686537
 10
8.0436751257
 20
6.5413550372
 10
8.059164073
 20
6.5424389117
 10
8.084501861
 20
6.5435227861
 10
8.1189558051
 20
6.5446066606
 10
8.1615296117
 20
6.5456905351
 10
8.2109921877
 20
6.5467744095
  0
LWPOLYLINE
  5
818
100
AcDbEntity
  8
0
100
AcDbPolyline
 62
7
  6
CONTINUOUS
 90
10
 70
0
 10
8.4562970018
 20
6.4908789951
 10
8.3424622644
 20
6.4886548925
 10
8.2863014776
 20
6.4875222745
 10
8.2339353731
 20
6.4863944585
 10
8.1874003509
 20
6.4852830127
 10
8.1471854708
 20
6.4841674124
 10
8.1148362203
 20
6.4830569157
 10
8.0911619309
 20
6.4819480051
 10
8.0767704512
 20
6.4808324513
 10
8.0724433206
 20
6.4799886716
  0
LWPOLYLINE
  5
819
100
AcDbEntity
  8
0
100
AcDbPolyline
 62
7
  6
CONTINUOUS
 90
10
 70
0
 10
8.3428570884
 20
6.4896626868
 10
8.4564183094
 20
6.4918813892
 10
8.5114444662
 20
6.4929899103
 10
8.5628408338
 20
6.4940927811
 10
8.6094138704
 20
6.4951971401
 10
8.6502360133
 20
6.4963178401
 10
8.6834873716
 20
6.4974452073
 10
8.7076799516
 20
6.4985620274
 10
8.7223212537
 20
6.4996676573
 10
8.7270723831
 20
6.5005601474
  0
LINE
  5
81A
100
AcDbEntity
  8
0
100
AcDbLine
 62
7
  6
CONTINUOUS
 10
8.7377747232
 20
6.5467744095
 11
8.0495821718
 21
6.5467744095
  0
LINE
  5
81B
100
AcDbEntity
  8
0
100
AcDbLine
 62
7
  6
CONTINUOUS
 10
8.7608646876
 20
6.4804686537
 11
8.7270723831
 21
6.4999886716
  0
LINE
  5
81C
100
AcDbEntity
  8
0
100
AcDbLine
 62
7
  6
CONTINUOUS
 10
8.7608646876
 20
6.5204686537
 11
8.7270723831
 21
6.5399886716
  0
CIRCLE
  5
81D
100
AcDbEntity
  8
0
100
AcDbCircle
 62
7
  6
CONTINUOUS
 10
10.5342808475
 20
1.243294839
 40
0.252091
  0
CIRCLE
  5
81E
100
AcDbEntity
  8
0
100
AcDbCircle
 62
7
  6
CONTINUOUS
 10
10.5342808475
 20
1.243294839
 40
0.182698
  0
ARC
  5
81F
100
AcDbEntity
  8
0
100
AcDbCircle
 62
7
  6
CONTINUOUS
 10
8.3997578519
 20
8.5068019914
 40
0.3275
100
AcDbArc
 50
53.9999999881
 51
62.9999999978
  0
CIRCLE
  5
820
100
AcDbEntity
  8
0
100
AcDbCircle
 62
7
  6
CONTINUOUS
 10
8.3997578519
 20
8.5068019914
 40
0.3139989124
  0
ARC
  5
821
100
AcDbEntity
  8
AXIS_COSMETIC_THREADS
100
AcDbCircle
 62
7
  6
CONTINUOUS
 10
8.3997578519
 20
8.5068019914
 40
0.3025
100
AcDbArc
 50
199.5843985289
 51
340.4156014711
  0
ARC
  5
822
100
AcDbEntity
  8
AXIS_COSMETIC_THREADS
100
AcDbCircle
 62
7
  6
CONTINUOUS
 10
8.3997578519
 20
8.5068019914
 40
0.3025
100
AcDbArc
 50
19.5843985289
 51
160.4156014711
  0
ARC
  5
823
100
AcDbEntity
  8
0
100
AcDbCircle
 62
7
  6
CONTINUOUS
 10
8.3997578519
 20
8.5068019914
 40
0.302
100
AcDbArc
 50
160.9052708742
 51
199.0914109211
  0
ARC
  5
824
100
AcDbEntity
  8
0
100
AcDbCircle
 62
7
  6
CONTINUOUS
 10
8.3997578519
 20
8.5068019914
 40
0.302
100
AcDbArc
 50
340.9052708742
 51
19.0914109211
  0
ELLIPSE
  5
825
100
AcDbEntity
  8
0
100
AcDbEllipse
 62
7
  6
CONTINUOUS
 10
14.8404816421
 20
8.9732890957
 30
0.0
 11
-0.1624999562
 21
0.2814582815
 31
0.0
 40
0.3261285034
 41
-2.2791875015
 42
-0.862389456
  0
ELLIPSE
  5
826
100
AcDbEntity
  8
0
100
AcDbEllipse
 62
7
  6
CONTINUOUS
 10
8.1347578519
 20
4.1660872077
 30
0.0
 11
0.2397327473
 21
-0.0546225252
 31
0.0
 40
0.2072950592
 41
-1.5235997252
 42
0.0471966016
  0
ELLIPSE
  5
827
100
AcDbEntity
  8
0
100
AcDbEllipse
 62
7
  6
CONTINUOUS
 10
8.2533867482
 20
4.1144667172
 30
0.0
 11
0.0599331868
 21
-0.0136556313
 31
0.0
 40
0.2072950592
 41
0.0
 42
6.2831853072
  0
ELLIPSE
  5
828
100
AcDbEntity
  8
0
100
AcDbEllipse
 62
7
  6
CONTINUOUS
 10
8.3997578519
 20
4.0507744095
 30
0.0
 11
0.3246380953
 21
-0.0739680029
 31
0.0
 40
0.2072950592
 41
1.694992069
 42
3.1117901145
  0
ENDSEC
  0
SECTION
  2
OBJECTS
  0
DICTIONARY
  5
C
100
AcDbDictionary
280
0
281
1
  3
ACAD_GROUP
350
D
  3
ACAD_MLINESTYLE
350
17
  3
ACAD_LAYOUT
350
1A
  3
ACAD_PLOTSETTINGS
350
19
  3
ACAD_PLOTSTYLENAME
350
E
  0
DICTIONARY
  5
D
102
{ACAD_REACTORS
330
C
102
}
100
AcDbDictionary
280
0
281
1
  0
ACDBDICTIONARYWDFLT
  5
E
102
{ACAD_REACTORS
330
C
102
}
100
AcDbDictionary
281
1
  3
Normal
350
F
100
AcDbDictionaryWithDefault
340
F
  0
DICTIONARY
  5
17
102
{ACAD_REACTORS
330
C
102
}
100
AcDbDictionary
280
0
281
1
  3
Standard
350
18
  0
DICTIONARY
  5
19
102
{ACAD_REACTORS
330
C
102
}
100
AcDbDictionary
281
1
  0
DICTIONARY
  5
1A
102
{ACAD_REACTORS
330
C
102
}
100
AcDbDictionary
281
1
  3
Model
350
829
  3
Layout1
350
82A
  0
ACDBPLACEHOLDER
  5
F
102
{ACAD_REACTORS
330
E
102
}
  0
MLINESTYLE
  5
18
102
{ACAD_REACTORS
330
17
102
}
100
AcDbMlineStyle
  2
STANDARD
 70
0
  3

 62
256
 51
90.0
 52
90.0
 71
2
 49
0.5
 62
256
  6
BYLAYER
 49
-0.5
 62
256
  6
BYLAYER
  0
LAYOUT
  5
829
102
{ACAD_REACTORS
330
1A
102
}
100
AcDbPlotSettings
  1

  2
none_device
  4
ANSI_B_(17.00_x_11.00_Inches)
  6

 40
0.0
 41
0.0
 42
0.0
 43
0.0
 44
431.8
 45
279.4
 46
0.0
 47
0.0
 48
0.0
 49
0.0
140
0.0
141
0.0
142
1.0
143
1.0
 70
1024
 72
0
 73
0
 74
0
  7

 75
0
147
1.0
148
0.0
149
0.0
100
AcDbLayout
  1
Model
 70
0
 71
0
 10
0.0
 20
0.0
 11
17.0
 21
11.0
 12
0.0
 22
0.0
 32
0.0
 14
0.0
 24
0.0
 34
0.0
 15
0.0
 25
0.0
 35
0.0
146
0.0
 13
0.0
 23
0.0
 33
0.0
 16
1.0
 26
0.0
 36
0.0
 17
0.0
 27
1.0
 37
0.0
 76
0
330
233
345
0
346
0
  0
LAYOUT
  5
82A
102
{ACAD_REACTORS
330
1A
102
}
100
AcDbPlotSettings
  1

  2
none_device
  4
ANSI_B_(17.00_x_11.00_Inches)
  6

 40
0.0
 41
0.0
 42
0.0
 43
0.0
 44
431.8
 45
279.4
 46
0.0
 47
0.0
 48
0.0
 49
0.0
140
0.0
141
0.0
142
1.0
143
1.0
 70
0
 72
0
 73
0
 74
0
  7

 75
0
147
1.0
148
0.0
149
0.0
100
AcDbLayout
  1
Layout1
 70
0
 71
1
 10
0.0
 20
0.0
 11
17.0
 21
11.0
 12
0.0
 22
0.0
 32
0.0
 14
0.0
 24
0.0
 34
0.0
 15
0.0
 25
0.0
 35
0.0
146
0.0
 13
0.0
 23
0.0
 33
0.0
 16
1.0
 26
0.0
 36
0.0
 17
0.0
 27
1.0
 37
0.0
 76
0
330
234
345
0
346
0
  0
ENDSEC
  0
EOF
