999
DXF file: 155344_1.dxf
999
Pro/ENGINEER 2009141 by Parametric Technology Corporation
  0
SECTION
  2
HEADER
  9
$ACADVER
  1
AC1015
  9
$DWGCODEPAGE
  3
ANSI_1252
  9
$EXTMAX
 10
17.0
 20
11.0
 30
0.0
  9
$EXTMIN
 10
0.0
 20
0.0
 30
0.0
  9
$LIMMIN
 10
0.0
 20
0.0
  9
$LIMMAX
 10
17.0
 20
11.0
  9
$VIEWCTR
 10
8.5
 20
5.5
  9
$VIEWSIZE
 40
11.0
  9
$CLAYER
  8
0
  9
$LTSCALE
 40
0.935
  9
$CELTYPE
  6
BYLAYER
  9
$DIMSCALE
 40
1.0
  9
$DIMASZ
 40
0.1875
  9
$DIMEXO
 40
0.10625
  9
$DIMDLI
 40
0.646
  9
$DIMEXE
 40
0.306
  9
$DIMCEN
 40
0.153
  9
$DIMLFAC
 40
1.0
  9
$DIMBLK
  1
_FILLED
  9
$DIMTXT
 40
0.1
  9
$DIMTOL
 70
1
  9
$DIMLIM
 70
0
  9
$DIMTFAC
 40
1.0
  9
$DIMTP
 40
0.005
  9
$DIMTM
 40
0.005
  9
$PDMODE
 70
3
  9
$PDSIZE
 40
0.3125
  9
$HANDSEED
  5
800
  9
$TILEMODE
 70
1
  9
$MEASUREMENT
 70
0
  9
$INSUNITS
 70
1
  0
ENDSEC
  0
SECTION
  2
CLASSES
  0
CLASS
  1
ACDBDICTIONARYWDFLT
  2
AcDbDictionaryWithDefault
  3
AutoCAD 2000
 90
0
280
0
281
0
  0
CLASS
  1
ACDBPLACEHOLDER
  2
AcDbPlaceHolder
  3
AutoCAD 2000
 90
0
280
0
281
0
  0
CLASS
  1
LAYOUT
  2
AcDbLayout
  3
AutoCAD 2000
 90
0
280
0
281
0
  0
ENDSEC
  0
SECTION
  2
TABLES
  0
TABLE
  2
VPORT
  5
8
100
AcDbSymbolTable
 70
2
  0
VPORT
  5
1F4
100
AcDbSymbolTableRecord
100
AcDbViewportTableRecord
  2
*ACTIVE
 70
0
 10
0.0
 20
0.0
 11
1.0
 21
1.0
 12
8.5
 22
5.5
 13
0.0
 23
0.0
 14
1.0
 24
1.0
 15
0.0
 25
0.0
 16
0.0
 26
0.0
 36
1.0
 17
0.0
 27
0.0
 37
0.0
 40
11.0
 41
1.5454545455
 42
50.0
 43
0.0
 44
0.0
 50
0.0
 51
0.0
 71
0
 72
100
 73
1
 74
1
 75
0
 76
0
 77
0
 78
0
  0
ENDTAB
  0
TABLE
  2
LTYPE
  5
5
100
AcDbSymbolTable
 70
6
  0
LTYPE
  5
14
100
AcDbSymbolTableRecord
100
AcDbLinetypeTableRecord
  2
BYBLOCK
 70
0
  3

 72
65
 73
0
 40
0.0
  0
LTYPE
  5
15
100
AcDbSymbolTableRecord
100
AcDbLinetypeTableRecord
  2
BYLAYER
 70
0
  3

 72
65
 73
0
 40
0.0
  0
LTYPE
  5
16
100
AcDbSymbolTableRecord
100
AcDbLinetypeTableRecord
  2
CONTINUOUS
 70
64
  3
Solid line
 72
65
 73
0
 40
0.0
  0
LTYPE
  5
1F5
100
AcDbSymbolTableRecord
100
AcDbLinetypeTableRecord
  2
CENTER
 70
64
  3
____ _ ____ _ ____ _ ____ _ ____ _ ____ _ ____
 72
65
 73
4
 40
0.6
 49
0.375
 74
0
 49
-0.075
 74
0
 49
0.075
 74
0
 49
-0.075
 74
0
  0
LTYPE
  5
1F6
100
AcDbSymbolTableRecord
100
AcDbLinetypeTableRecord
  2
HIDDEN
 70
64
  3
- - - - - - - - - - - - - - - - - - - -
 72
65
 73
2
 40
0.2
 49
0.1
 74
0
 49
-0.1
 74
0
  0
LTYPE
  5
1F7
100
AcDbSymbolTableRecord
100
AcDbLinetypeTableRecord
  2
PHANTOM
 70
64
  3
_____ _ _ _____ _ _ _____ _ _ _____
 72
65
 73
6
 40
0.8
 49
0.45
 74
0
 49
-0.05
 74
0
 49
0.1
 74
0
 49
-0.05
 74
0
 49
0.1
 74
0
 49
-0.05
 74
0
  0
LTYPE
  5
1F8
100
AcDbSymbolTableRecord
100
AcDbLinetypeTableRecord
  2
DOT
 70
64
  3
. . . . . . . . . . . . . . . . . . . .
 72
65
 73
2
 40
0.2
 49
0.1
 74
0
 49
-0.1
 74
0
  0
LTYPE
  5
1F9
100
AcDbSymbolTableRecord
100
AcDbLinetypeTableRecord
  2
DASHED
 70
64
  3
- - - - - - - - - - - - - - - - - - - -
 72
65
 73
2
 40
0.2
 49
0.1
 74
0
 49
-0.1
 74
0
  0
ENDTAB
  0
TABLE
  2
LAYER
  5
2
100
AcDbSymbolTable
 70
36
  0
LAYER
  5
10
100
AcDbSymbolTableRecord
100
AcDbLayerTableRecord
  2
0
 70
0
 62
7
  6
CONTINUOUS
370
-3
390
F
  0
LAYER
  5
1FA
100
AcDbSymbolTableRecord
100
AcDbLayerTableRecord
  2
DEFAULT_1
 70
0
 62
7
  6
CENTER
370
-3
390
F
  0
LAYER
  5
1FB
100
AcDbSymbolTableRecord
100
AcDbLayerTableRecord
  2
DEFAULT_2
 70
0
 62
8
  6
HIDDEN
370
-3
390
F
  0
LAYER
  5
1FC
100
AcDbSymbolTableRecord
100
AcDbLayerTableRecord
  2
DEFAULT_3
 70
0
 62
7
  6
PHANTOM
370
-3
390
F
  0
LAYER
  5
1FD
100
AcDbSymbolTableRecord
100
AcDbLayerTableRecord
  2
1
 70
0
 62
7
  6
CONTINUOUS
370
-3
390
F
  0
LAYER
  5
1FE
100
AcDbSymbolTableRecord
100
AcDbLayerTableRecord
  2
10
 70
0
 62
7
  6
CONTINUOUS
370
-3
390
F
  0
LAYER
  5
1FF
100
AcDbSymbolTableRecord
100
AcDbLayerTableRecord
  2
11
 70
0
 62
7
  6
CONTINUOUS
370
-3
390
F
  0
LAYER
  5
200
100
AcDbSymbolTableRecord
100
AcDbLayerTableRecord
  2
12
 70
0
 62
7
  6
CONTINUOUS
370
-3
390
F
  0
LAYER
  5
201
100
AcDbSymbolTableRecord
100
AcDbLayerTableRecord
  2
13
 70
0
 62
7
  6
CONTINUOUS
370
-3
390
F
  0
LAYER
  5
202
100
AcDbSymbolTableRecord
100
AcDbLayerTableRecord
  2
14
 70
0
 62
7
  6
CONTINUOUS
370
-3
390
F
  0
LAYER
  5
203
100
AcDbSymbolTableRecord
100
AcDbLayerTableRecord
  2
15
 70
0
 62
7
  6
CONTINUOUS
370
-3
390
F
  0
LAYER
  5
204
100
AcDbSymbolTableRecord
100
AcDbLayerTableRecord
  2
16
 70
0
 62
7
  6
CONTINUOUS
370
-3
390
F
  0
LAYER
  5
205
100
AcDbSymbolTableRecord
100
AcDbLayerTableRecord
  2
17
 70
0
 62
7
  6
CONTINUOUS
370
-3
390
F
  0
LAYER
  5
206
100
AcDbSymbolTableRecord
100
AcDbLayerTableRecord
  2
18
 70
0
 62
7
  6
CONTINUOUS
370
-3
390
F
  0
LAYER
  5
207
100
AcDbSymbolTableRecord
100
AcDbLayerTableRecord
  2
19
 70
0
 62
7
  6
CONTINUOUS
370
-3
390
F
  0
LAYER
  5
208
100
AcDbSymbolTableRecord
100
AcDbLayerTableRecord
  2
2
 70
0
 62
7
  6
CONTINUOUS
370
-3
390
F
  0
LAYER
  5
209
100
AcDbSymbolTableRecord
100
AcDbLayerTableRecord
  2
20
 70
0
 62
7
  6
CONTINUOUS
370
-3
390
F
  0
LAYER
  5
20A
100
AcDbSymbolTableRecord
100
AcDbLayerTableRecord
  2
21
 70
0
 62
7
  6
CONTINUOUS
370
-3
390
F
  0
LAYER
  5
20B
100
AcDbSymbolTableRecord
100
AcDbLayerTableRecord
  2
22
 70
0
 62
7
  6
CONTINUOUS
370
-3
390
F
  0
LAYER
  5
20C
100
AcDbSymbolTableRecord
100
AcDbLayerTableRecord
  2
23
 70
0
 62
7
  6
CONTINUOUS
370
-3
390
F
  0
LAYER
  5
20D
100
AcDbSymbolTableRecord
100
AcDbLayerTableRecord
  2
24
 70
0
 62
7
  6
CONTINUOUS
370
-3
390
F
  0
LAYER
  5
20E
100
AcDbSymbolTableRecord
100
AcDbLayerTableRecord
  2
25
 70
0
 62
7
  6
CONTINUOUS
370
-3
390
F
  0
LAYER
  5
20F
100
AcDbSymbolTableRecord
100
AcDbLayerTableRecord
  2
26
 70
0
 62
7
  6
CONTINUOUS
370
-3
390
F
  0
LAYER
  5
210
100
AcDbSymbolTableRecord
100
AcDbLayerTableRecord
  2
27
 70
0
 62
7
  6
CONTINUOUS
370
-3
390
F
  0
LAYER
  5
211
100
AcDbSymbolTableRecord
100
AcDbLayerTableRecord
  2
28
 70
0
 62
7
  6
CONTINUOUS
370
-3
390
F
  0
LAYER
  5
212
100
AcDbSymbolTableRecord
100
AcDbLayerTableRecord
  2
29
 70
0
 62
7
  6
CONTINUOUS
370
-3
390
F
  0
LAYER
  5
213
100
AcDbSymbolTableRecord
100
AcDbLayerTableRecord
  2
3
 70
0
 62
7
  6
CONTINUOUS
370
-3
390
F
  0
LAYER
  5
214
100
AcDbSymbolTableRecord
100
AcDbLayerTableRecord
  2
30
 70
0
 62
7
  6
CONTINUOUS
370
-3
390
F
  0
LAYER
  5
215
100
AcDbSymbolTableRecord
100
AcDbLayerTableRecord
  2
31
 70
0
 62
7
  6
CONTINUOUS
370
-3
390
F
  0
LAYER
  5
216
100
AcDbSymbolTableRecord
100
AcDbLayerTableRecord
  2
32
 70
0
 62
7
  6
CONTINUOUS
370
-3
390
F
  0
LAYER
  5
217
100
AcDbSymbolTableRecord
100
AcDbLayerTableRecord
  2
4
 70
0
 62
7
  6
CONTINUOUS
370
-3
390
F
  0
LAYER
  5
218
100
AcDbSymbolTableRecord
100
AcDbLayerTableRecord
  2
5
 70
0
 62
7
  6
CONTINUOUS
370
-3
390
F
  0
LAYER
  5
219
100
AcDbSymbolTableRecord
100
AcDbLayerTableRecord
  2
6
 70
0
 62
7
  6
CONTINUOUS
370
-3
390
F
  0
LAYER
  5
21A
100
AcDbSymbolTableRecord
100
AcDbLayerTableRecord
  2
7
 70
0
 62
7
  6
CONTINUOUS
370
-3
390
F
  0
LAYER
  5
21B
100
AcDbSymbolTableRecord
100
AcDbLayerTableRecord
  2
8
 70
0
 62
7
  6
CONTINUOUS
370
-3
390
F
  0
LAYER
  5
21C
100
AcDbSymbolTableRecord
100
AcDbLayerTableRecord
  2
9
 70
0
 62
7
  6
CONTINUOUS
370
-3
390
F
  0
LAYER
  5
21D
100
AcDbSymbolTableRecord
100
AcDbLayerTableRecord
  2
AXIS
 70
0
 62
7
  6
CONTINUOUS
370
-3
390
F
  0
LAYER
  5
21E
100
AcDbSymbolTableRecord
100
AcDbLayerTableRecord
  2
AXIS_COSMETIC_THREADS
 70
0
 62
7
  6
CONTINUOUS
370
-3
390
F
  0
LAYER
  5
21F
100
AcDbSymbolTableRecord
100
AcDbLayerTableRecord
  2
CURVES
 70
0
 62
7
  6
CONTINUOUS
370
-3
390
F
  0
LAYER
  5
220
100
AcDbSymbolTableRecord
100
AcDbLayerTableRecord
  2
DATUM_CURVES
 70
0
 62
7
  6
CONTINUOUS
370
-3
390
F
  0
LAYER
  5
221
100
AcDbSymbolTableRecord
100
AcDbLayerTableRecord
  2
DATUM_PLANES
 70
0
 62
7
  6
CONTINUOUS
370
-3
390
F
  0
LAYER
  5
222
100
AcDbSymbolTableRecord
100
AcDbLayerTableRecord
  2
DEF_CSY
 70
0
 62
7
  6
CONTINUOUS
370
-3
390
F
  0
LAYER
  5
223
100
AcDbSymbolTableRecord
100
AcDbLayerTableRecord
  2
DRIVEN_DIMS
 70
0
 62
7
  6
CONTINUOUS
370
-3
390
F
  0
LAYER
  5
224
100
AcDbSymbolTableRecord
100
AcDbLayerTableRecord
  2
GEOMTOL
 70
0
 62
7
  6
CONTINUOUS
370
-3
390
F
  0
LAYER
  5
225
100
AcDbSymbolTableRecord
100
AcDbLayerTableRecord
  2
MATTE_OUTLINE
 70
0
 62
7
  6
CONTINUOUS
370
-3
390
F
  0
LAYER
  5
226
100
AcDbSymbolTableRecord
100
AcDbLayerTableRecord
  2
NOTES
 70
0
 62
7
  6
CONTINUOUS
370
-3
390
F
  0
LAYER
  5
227
100
AcDbSymbolTableRecord
100
AcDbLayerTableRecord
  2
PNTS
 70
0
 62
7
  6
CONTINUOUS
370
-3
390
F
  0
LAYER
  5
228
100
AcDbSymbolTableRecord
100
AcDbLayerTableRecord
  2
QUILTS
 70
0
 62
7
  6
CONTINUOUS
370
-3
390
F
  0
LAYER
  5
229
100
AcDbSymbolTableRecord
100
AcDbLayerTableRecord
  2
SCHEME_DIMS
 70
0
 62
7
  6
CONTINUOUS
370
-3
390
F
  0
LAYER
  5
22A
100
AcDbSymbolTableRecord
100
AcDbLayerTableRecord
  2
SKETCHED_ENT
 70
0
 62
7
  6
CONTINUOUS
370
-3
390
F
  0
LAYER
  5
22B
100
AcDbSymbolTableRecord
100
AcDbLayerTableRecord
  2
SURFACES
 70
0
 62
7
  6
CONTINUOUS
370
-3
390
F
  0
LAYER
  5
22C
100
AcDbSymbolTableRecord
100
AcDbLayerTableRecord
  2
SYMBOLS
 70
0
 62
7
  6
CONTINUOUS
370
-3
390
F
  0
ENDTAB
  0
TABLE
  2
STYLE
  5
3
100
AcDbSymbolTable
 70
1
  0
STYLE
  5
11
100
AcDbSymbolTableRecord
100
AcDbTextStyleTableRecord
  2
STANDARD
 70
0
 40
0.0
 41
1.0
 50
0.0
 71
0
 42
0.2
  3
txt
  4

  0
STYLE
  5
22D
100
AcDbSymbolTableRecord
100
AcDbTextStyleTableRecord
  2
TEXTSTYLE_1
 70
0
 40
0.0
 41
0.8
 50
0.0
 71
0
 42
0.2
  3
gdt
  4

  0
STYLE
  5
22E
100
AcDbSymbolTableRecord
100
AcDbTextStyleTableRecord
  2
TEXTSTYLE_2
 70
0
 40
0.0
 41
0.8
 50
0.0
 71
0
 42
0.2
  3
txt
  4

  0
STYLE
  5
22F
100
AcDbSymbolTableRecord
100
AcDbTextStyleTableRecord
  2
TEXTSTYLE_3
 70
0
 40
0.0
 41
0.85
 50
0.0
 71
0
 42
0.2
  3
txt
  4

  0
STYLE
  5
230
100
AcDbSymbolTableRecord
100
AcDbTextStyleTableRecord
  2
TEXTSTYLE_4
 70
0
 40
0.0
 41
0.92
 50
0.0
 71
0
 42
0.2
  3
txt
  4

  0
STYLE
  5
231
100
AcDbSymbolTableRecord
100
AcDbTextStyleTableRecord
  2
TEXTSTYLE_5
 70
0
 40
0.0
 41
1.0
 50
0.0
 71
0
 42
0.2
  3
gdt
  4

  0
ENDTAB
  0
TABLE
  2
VIEW
  5
6
100
AcDbSymbolTable
 70
0
  0
ENDTAB
  0
TABLE
  2
UCS
  5
7
100
AcDbSymbolTable
 70
0
  0
ENDTAB
  0
TABLE
  2
APPID
  5
9
100
AcDbSymbolTable
 70
1
  0
APPID
  5
232
100
AcDbSymbolTableRecord
100
AcDbRegAppTableRecord
  2
ACAD
 70
0
  0
ENDTAB
  0
TABLE
  2
BLOCK_RECORD
  5
1
100
AcDbSymbolTable
 70
0
  0
BLOCK_RECORD
  5
233
100
AcDbSymbolTableRecord
100
AcDbBlockTableRecord
  2
*Model_Space
  0
BLOCK_RECORD
  5
234
100
AcDbSymbolTableRecord
100
AcDbBlockTableRecord
  2
*Paper_Space
  0
BLOCK_RECORD
  5
235
100
AcDbSymbolTableRecord
100
AcDbBlockTableRecord
  2
_FILLED
  0
BLOCK_RECORD
  5
236
100
AcDbSymbolTableRecord
100
AcDbBlockTableRecord
  2
*D0
  0
BLOCK_RECORD
  5
237
100
AcDbSymbolTableRecord
100
AcDbBlockTableRecord
  2
*D1
  0
BLOCK_RECORD
  5
238
100
AcDbSymbolTableRecord
100
AcDbBlockTableRecord
  2
*D2
  0
BLOCK_RECORD
  5
239
100
AcDbSymbolTableRecord
100
AcDbBlockTableRecord
  2
BANNER_LOGO_TITLEBLOCK_BL0
  0
ENDTAB
  0
TABLE
  2
DIMSTYLE
  5
A
100
AcDbSymbolTable
 70
1
100
AcDbDimStyleTable
 71
0
  0
DIMSTYLE
105
23A
100
AcDbSymbolTableRecord
100
AcDbDimStyleTableRecord
  2
STANDARD
 70
0
  3

  4

 40
1.0
 41
0.1875
 42
0.0625
 43
0.38
 44
0.18
 45
0.0
 46
0.0
 47
0.005
 48
0.005
140
0.1
141
0.09
142
0.0
143
25.4
144
1.0
145
0.0
146
1.0
147
0.09
 71
1.0
 72
0.0
 73
1
 74
1
 75
0
 76
0
 77
0
 78
4
170
0
171
2
172
0
173
0
174
0
175
0
176
0
177
0
178
0
270
2
271
3
272
3
273
2
274
2
275
0
280
0
281
0
282
0
283
1
284
4
285
0
286
0
287
3
288
0
340
11
341
235
342
235
343
235
344
235
  0
DIMSTYLE
105
23B
100
AcDbSymbolTableRecord
100
AcDbDimStyleTableRecord
  2
DIMSTYLE_1
 70
0
  3

  4

 40
1.0
 41
0.1875
 42
0.0625
 43
0.38
 44
0.18
 45
0.0
 46
0.0
 47
0.0
 48
0.0
140
0.1
141
0.09
142
0.0
143
25.4
144
1.0
145
0.0
146
1.0
147
0.09
 71
0.0
 72
0.0
 73
1
 74
1
 75
0
 76
0
 77
0
 78
4
170
0
171
2
172
0
173
0
174
0
175
0
176
0
177
0
178
0
270
2
271
1
272
1
273
2
274
2
275
0
280
0
281
0
282
0
283
1
284
4
285
0
286
0
287
3
288
0
340
11
341
235
342
235
343
235
344
235
  0
DIMSTYLE
105
23C
100
AcDbSymbolTableRecord
100
AcDbDimStyleTableRecord
  2
DIMSTYLE_2
 70
0
  3

  4

 40
1.0
 41
0.1875
 42
0.0625
 43
0.38
 44
0.18
 45
0.0
 46
0.0
 47
0.1
 48
0.1
140
0.1
141
0.09
142
0.0
143
25.4
144
1.0
145
0.0
146
1.0
147
0.09
 71
0.0
 72
0.0
 73
1
 74
1
 75
0
 76
0
 77
0
 78
4
170
0
171
2
172
0
173
0
174
0
175
0
176
0
177
0
178
0
270
2
271
1
272
1
273
2
274
2
275
0
280
0
281
0
282
0
283
1
284
4
285
0
286
0
287
3
288
0
340
11
341
235
342
235
343
235
344
235
  0
ENDTAB
  0
ENDSEC
  0
SECTION
  2
BLOCKS
  0
BLOCK
  5
20
100
AcDbEntity
  8
0
100
AcDbBlockBegin
  2
*Model_Space
 70
0
 10
0.0
 20
0.0
 30
0.0
  3
*Model_Space
  1

  0
ENDBLK
  5
21
100
AcDbEntity
  8
0
100
AcDbBlockEnd
  0
BLOCK
  5
1C
100
AcDbEntity
  8
0
100
AcDbBlockBegin
  2
*Paper_Space
 70
0
 10
0.0
 20
0.0
 30
0.0
  3
*Paper_Space
  1

  0
ENDBLK
  5
1D
100
AcDbEntity
  8
0
100
AcDbBlockEnd
  0
BLOCK
  5
23D
100
AcDbEntity
  8
0
100
AcDbBlockBegin
 62
2
  6
CONTINUOUS
  2
BANNER_LOGO_TITLEBLOCK_BL0
 70
64
 10
12.9086867042
 20
2.5403783405
  3
BANNER_LOGO_TITLEBLOCK_BL0
  1

  0
ELLIPSE
  5
23E
100
AcDbEntity
  8
0
100
AcDbEllipse
 62
2
  6
CONTINUOUS
 10
12.9046654608
 20
2.5403783405
 30
0.0
 11
-0.8250004575
 21
0.0
 31
0.0
 40
0.218572
 41
0.0
 42
6.2831853072
  0
ARC
  5
23F
100
AcDbEntity
  8
0
100
AcDbCircle
 62
2
  6
CONTINUOUS
 10
12.400005721
 20
2.5168763464
 40
0.0153945295
100
AcDbArc
 50
354.0454548824
 51
5.1878013979
  0
ARC
  5
240
100
AcDbEntity
  8
0
100
AcDbCircle
 62
2
  6
CONTINUOUS
 10
12.3931760319
 20
2.5166878286
 40
0.0222174455
100
AcDbArc
 50
4.0793399388
 51
69.834329283
  0
LINE
  5
241
100
AcDbEntity
  8
0
100
AcDbLine
 62
2
  6
CONTINUOUS
 10
12.4008351814
 20
2.5375433389
 11
12.3907841758
 21
2.5410923409
  0
LINE
  5
242
100
AcDbEntity
  8
0
100
AcDbLine
 62
2
  6
CONTINUOUS
 10
12.3907841758
 20
2.5410923409
 11
12.3990241804
 21
2.5458683435
  0
ARC
  5
243
100
AcDbEntity
  8
0
100
AcDbCircle
 62
2
  6
CONTINUOUS
 10
12.3771587979
 20
2.5826952352
 40
0.0428289026
100
AcDbArc
 50
300.6990502959
 51
319.0591802498
  0
ARC
  5
244
100
AcDbEntity
  8
0
100
AcDbCircle
 62
2
  6
CONTINUOUS
 10
12.3971873948
 20
2.5665668817
 40
0.0171568255
100
AcDbArc
 50
315.9145124245
 51
16.0049121282
  0
ARC
  5
245
100
AcDbEntity
  8
0
100
AcDbCircle
 62
2
  6
CONTINUOUS
 10
12.3922357827
 20
2.5632132173
 40
0.0229166529
100
AcDbArc
 50
20.6563876465
 51
62.3316896973
  0
ARC
  5
246
100
AcDbEntity
  8
0
100
AcDbCircle
 62
2
  6
CONTINUOUS
 10
12.371573659
 20
2.5302846524
 40
0.061747717
100
AcDbArc
 50
59.5385584989
 51
90.0050977555
  0
LINE
  5
247
100
AcDbEntity
  8
0
100
AcDbLine
 62
2
  6
CONTINUOUS
 10
12.3715681652
 20
2.5920323691
 11
12.2055050731
 21
2.5920323691
  0
ARC
  5
248
100
AcDbEntity
  8
0
100
AcDbCircle
 62
2
  6
CONTINUOUS
 10
12.2055050712
 20
2.5895573696
 40
0.0024749995
100
AcDbArc
 50
89.9999571957
 51
180.0000428043
  0
LINE
  5
249
100
AcDbEntity
  8
0
100
AcDbLine
 62
2
  6
CONTINUOUS
 10
12.2030300717
 20
2.5895573678
 11
12.2030300717
 21
2.5697573568
  0
ARC
  5
24A
100
AcDbEntity
  8
0
100
AcDbCircle
 62
2
  6
CONTINUOUS
 10
12.2055050712
 20
2.5697573549
 40
0.0024749995
100
AcDbArc
 50
179.9999571957
 51
270.0000428043
  0
LINE
  5
24B
100
AcDbEntity
  8
0
100
AcDbLine
 62
2
  6
CONTINUOUS
 10
12.2055050731
 20
2.5672823554
 11
12.2294470864
 21
2.5672823554
  0
ARC
  5
24C
100
AcDbEntity
  8
0
100
AcDbCircle
 62
2
  6
CONTINUOUS
 10
12.2294470882
 20
2.5648073559
 40
0.0024749995
100
AcDbArc
 50
359.9999571957
 51
90.0000428043
  0
LINE
  5
24D
100
AcDbEntity
  8
0
100
AcDbLine
 62
2
  6
CONTINUOUS
 10
12.2319220877
 20
2.564807354
 11
12.2319220877
 21
2.5184523283
  0
ARC
  5
24E
100
AcDbEntity
  8
0
100
AcDbCircle
 62
2
  6
CONTINUOUS
 10
12.2294470882
 20
2.5184523265
 40
0.0024749995
100
AcDbArc
 50
269.9999571957
 51
0.0000428043
  0
LINE
  5
24F
100
AcDbEntity
  8
0
100
AcDbLine
 62
2
  6
CONTINUOUS
 10
12.2294470864
 20
2.515977327
 11
12.2055050731
 21
2.515977327
  0
ARC
  5
250
100
AcDbEntity
  8
0
100
AcDbCircle
 62
2
  6
CONTINUOUS
 10
12.2055050712
 20
2.5135023274
 40
0.0024749995
100
AcDbArc
 50
89.9999571957
 51
180.0000428043
  0
LINE
  5
251
100
AcDbEntity
  8
0
100
AcDbLine
 62
2
  6
CONTINUOUS
 10
12.2030300717
 20
2.5135023256
 11
12.2030300717
 21
2.4937023146
  0
ARC
  5
252
100
AcDbEntity
  8
0
100
AcDbCircle
 62
2
  6
CONTINUOUS
 10
12.2055050712
 20
2.4937023128
 40
0.0024749995
100
AcDbArc
 50
179.9999571957
 51
270.0000428043
  0
LINE
  5
253
100
AcDbEntity
  8
0
100
AcDbLine
 62
2
  6
CONTINUOUS
 10
12.2055050731
 20
2.4912273132
 11
12.3819511709
 21
2.4912273132
  0
ARC
  5
254
100
AcDbEntity
  8
0
100
AcDbCircle
 62
2
  6
CONTINUOUS
 10
12.3792298263
 20
2.539634765
 40
0.048483885
100
AcDbArc
 50
273.21763719
 51
303.0749121182
  0
ARC
  5
255
100
AcDbEntity
  8
0
100
AcDbCircle
 62
2
  6
CONTINUOUS
 10
12.3940692204
 20
2.5168671561
 40
0.0213072145
100
AcDbArc
 50
303.0488228549
 51
355.7263138674
  0
LINE
  5
256
100
AcDbEntity
  8
0
100
AcDbLine
 62
2
  6
CONTINUOUS
 10
12.2949101227
 20
2.5499573458
 11
12.3362731456
 21
2.5499573458
  0
ARC
  5
257
100
AcDbEntity
  8
0
100
AcDbCircle
 62
2
  6
CONTINUOUS
 10
12.3362731456
 20
2.5586198506
 40
0.0086625048
100
AcDbArc
 50
270.0
 51
90.0
  0
LINE
  5
258
100
AcDbEntity
  8
0
100
AcDbLine
 62
2
  6
CONTINUOUS
 10
12.3362731456
 20
2.5672823554
 11
12.2949101227
 21
2.5672823554
  0
ARC
  5
259
100
AcDbEntity
  8
0
100
AcDbCircle
 62
2
  6
CONTINUOUS
 10
12.2949101208
 20
2.5648073559
 40
0.0024749995
100
AcDbArc
 50
89.9999571957
 51
180.0000428043
  0
LINE
  5
25A
100
AcDbEntity
  8
0
100
AcDbLine
 62
2
  6
CONTINUOUS
 10
12.2924351213
 20
2.564807354
 11
12.2924351213
 21
2.5524323472
  0
ARC
  5
25B
100
AcDbEntity
  8
0
100
AcDbCircle
 62
2
  6
CONTINUOUS
 10
12.2949101208
 20
2.5524323453
 40
0.0024749995
100
AcDbArc
 50
179.9999571957
 51
270.0000428043
  0
LINE
  5
25C
100
AcDbEntity
  8
0
100
AcDbLine
 62
2
  6
CONTINUOUS
 10
12.2924351213
 20
2.5184523283
 11
12.2924351213
 21
2.5308273352
  0
ARC
  5
25D
100
AcDbEntity
  8
0
100
AcDbCircle
 62
2
  6
CONTINUOUS
 10
12.2949101208
 20
2.530827337
 40
0.0024749995
100
AcDbArc
 50
89.9999571957
 51
180.0000428043
  0
LINE
  5
25E
100
AcDbEntity
  8
0
100
AcDbLine
 62
2
  6
CONTINUOUS
 10
12.2949101227
 20
2.5333023366
 11
12.3362731456
 21
2.5333023366
  0
ARC
  5
25F
100
AcDbEntity
  8
0
100
AcDbCircle
 62
2
  6
CONTINUOUS
 10
12.3362731456
 20
2.5246398318
 40
0.0086625048
100
AcDbArc
 50
270.0
 51
90.0
  0
LINE
  5
260
100
AcDbEntity
  8
0
100
AcDbLine
 62
2
  6
CONTINUOUS
 10
12.3362731456
 20
2.515977327
 11
12.2949101227
 21
2.515977327
  0
ARC
  5
261
100
AcDbEntity
  8
0
100
AcDbCircle
 62
2
  6
CONTINUOUS
 10
12.2949101208
 20
2.5184523265
 40
0.0024749995
100
AcDbArc
 50
179.9999571957
 51
270.0000428043
  0
ARC
  5
262
100
AcDbEntity
  8
0
100
AcDbCircle
 62
2
  6
CONTINUOUS
 10
13.5806801742
 20
2.5212486481
 40
0.044722495
100
AcDbArc
 50
195.531588407
 51
204.7624440448
  0
LINE
  5
263
100
AcDbEntity
  8
0
100
AcDbLine
 62
2
  6
CONTINUOUS
 10
13.5375908118
 20
2.5092733232
 11
13.5357868108
 21
2.5153423266
  0
ARC
  5
264
100
AcDbEntity
  8
0
100
AcDbCircle
 62
2
  6
CONTINUOUS
 10
13.4974076135
 20
2.5055452462
 40
0.0396099176
100
AcDbArc
 50
14.3201081283
 51
22.4984722084
  0
ARC
  5
265
100
AcDbEntity
  8
0
100
AcDbCircle
 62
2
  6
CONTINUOUS
 10
13.5201739219
 20
2.5145168728
 40
0.0151491919
100
AcDbArc
 50
24.098260853
 51
63.0369451818
  0
ARC
  5
266
100
AcDbEntity
  8
0
100
AcDbCircle
 62
2
  6
CONTINUOUS
 10
13.5161192671
 20
2.5062372524
 40
0.0243676582
100
AcDbArc
 50
63.3666028271
 51
90.3937697637
  0
LINE
  5
267
100
AcDbEntity
  8
0
100
AcDbLine
 62
2
  6
CONTINUOUS
 10
13.5159517998
 20
2.5306043351
 11
13.4883447845
 21
2.5306043351
  0
ARC
  5
268
100
AcDbEntity
  8
0
100
AcDbCircle
 62
2
  6
CONTINUOUS
 10
13.4883447827
 20
2.5281293355
 40
0.0024749995
100
AcDbArc
 50
89.9999571957
 51
180.0000428043
  0
LINE
  5
269
100
AcDbEntity
  8
0
100
AcDbLine
 62
2
  6
CONTINUOUS
 10
13.4858697831
 20
2.5281293337
 11
13.4858697831
 21
2.5184303283
  0
ARC
  5
26A
100
AcDbEntity
  8
0
100
AcDbCircle
 62
2
  6
CONTINUOUS
 10
13.4883447827
 20
2.5184303265
 40
0.0024749995
100
AcDbArc
 50
179.9999571957
 51
270.0000428043
  0
LINE
  5
26B
100
AcDbEntity
  8
0
100
AcDbLine
 62
2
  6
CONTINUOUS
 10
13.4883447845
 20
2.5159553269
 11
13.5130037982
 21
2.5159553269
  0
ARC
  5
26C
100
AcDbEntity
  8
0
100
AcDbCircle
 62
2
  6
CONTINUOUS
 10
13.5130038
 20
2.5134803274
 40
0.0024749995
100
AcDbArc
 50
359.9999571957
 51
90.0000428043
  0
LINE
  5
26D
100
AcDbEntity
  8
0
100
AcDbLine
 62
2
  6
CONTINUOUS
 10
13.5154787995
 20
2.5134803256
 11
13.5154787995
 21
2.4937023146
  0
ARC
  5
26E
100
AcDbEntity
  8
0
100
AcDbCircle
 62
2
  6
CONTINUOUS
 10
13.5130038
 20
2.4937023128
 40
0.0024749995
100
AcDbArc
 50
269.9999571957
 51
0.0000428043
  0
LINE
  5
26F
100
AcDbEntity
  8
0
100
AcDbLine
 62
2
  6
CONTINUOUS
 10
13.5130037982
 20
2.4912273132
 11
13.3994327352
 21
2.4912273132
  0
ARC
  5
270
100
AcDbEntity
  8
0
100
AcDbCircle
 62
2
  6
CONTINUOUS
 10
13.3994327333
 20
2.4937023128
 40
0.0024749995
100
AcDbArc
 50
179.9999571957
 51
270.0000428043
  0
LINE
  5
271
100
AcDbEntity
  8
0
100
AcDbLine
 62
2
  6
CONTINUOUS
 10
13.3969577338
 20
2.4937023146
 11
13.3969577338
 21
2.5135023256
  0
ARC
  5
272
100
AcDbEntity
  8
0
100
AcDbCircle
 62
2
  6
CONTINUOUS
 10
13.3994327333
 20
2.5135023274
 40
0.0024749995
100
AcDbArc
 50
89.9999571957
 51
180.0000428043
  0
LINE
  5
273
100
AcDbEntity
  8
0
100
AcDbLine
 62
2
  6
CONTINUOUS
 10
13.3994327352
 20
2.515977327
 11
13.4221787478
 21
2.515977327
  0
ARC
  5
274
100
AcDbEntity
  8
0
100
AcDbCircle
 62
2
  6
CONTINUOUS
 10
13.4221787497
 20
2.5184523265
 40
0.0024749995
100
AcDbArc
 50
269.9999571957
 51
0.0000428042
  0
LINE
  5
275
100
AcDbEntity
  8
0
100
AcDbLine
 62
2
  6
CONTINUOUS
 10
13.4246537492
 20
2.5184523283
 11
13.4246537492
 21
2.564807354
  0
ARC
  5
276
100
AcDbEntity
  8
0
100
AcDbCircle
 62
2
  6
CONTINUOUS
 10
13.4221787497
 20
2.5648073559
 40
0.0024749995
100
AcDbArc
 50
359.9999571957
 51
90.0000428043
  0
LINE
  5
277
100
AcDbEntity
  8
0
100
AcDbLine
 62
2
  6
CONTINUOUS
 10
13.4221787478
 20
2.5672823554
 11
13.3994327352
 21
2.5672823554
  0
ARC
  5
278
100
AcDbEntity
  8
0
100
AcDbCircle
 62
2
  6
CONTINUOUS
 10
13.3994327333
 20
2.5697573549
 40
0.0024749995
100
AcDbArc
 50
179.9999571957
 51
270.0000428043
  0
LINE
  5
279
100
AcDbEntity
  8
0
100
AcDbLine
 62
2
  6
CONTINUOUS
 10
13.3969577338
 20
2.5697573568
 11
13.3969577338
 21
2.5895573678
  0
ARC
  5
27A
100
AcDbEntity
  8
0
100
AcDbCircle
 62
2
  6
CONTINUOUS
 10
13.3994327333
 20
2.5895573696
 40
0.0024749995
100
AcDbArc
 50
89.9999571957
 51
180.0000428043
  0
LINE
  5
27B
100
AcDbEntity
  8
0
100
AcDbLine
 62
2
  6
CONTINUOUS
 10
13.3994327352
 20
2.5920323691
 11
13.5490138181
 21
2.5920323691
  0
ARC
  5
27C
100
AcDbEntity
  8
0
100
AcDbCircle
 62
2
  6
CONTINUOUS
 10
13.5463505148
 20
2.4094934586
 40
0.1825583387
100
AcDbArc
 50
79.8618509324
 51
89.1640948679
  0
ARC
  5
27D
100
AcDbEntity
  8
0
100
AcDbCircle
 62
2
  6
CONTINUOUS
 10
13.5726548052
 20
2.5503169747
 40
0.039319019
100
AcDbArc
 50
59.1202086415
 51
81.4730239328
  0
ARC
  5
27E
100
AcDbEntity
  8
0
100
AcDbCircle
 62
2
  6
CONTINUOUS
 10
13.5783142014
 20
2.5566516438
 40
0.0310192946
100
AcDbArc
 50
34.7540871
 51
62.0879016178
  0
ARC
  5
27F
100
AcDbEntity
  8
0
100
AcDbCircle
 62
2
  6
CONTINUOUS
 10
13.5900029525
 20
2.565201245
 40
0.0165459396
100
AcDbArc
 50
1.548452892
 51
33.5033152417
  0
ARC
  5
280
100
AcDbEntity
  8
0
100
AcDbCircle
 62
2
  6
CONTINUOUS
 10
13.5932995477
 20
2.5653696972
 40
0.0132462337
100
AcDbArc
 50
331.1510006998
 51
1.205404301
  0
ARC
  5
281
100
AcDbEntity
  8
0
100
AcDbCircle
 62
2
  6
CONTINUOUS
 10
13.5822888914
 20
2.5720482849
 40
0.0261183659
100
AcDbArc
 50
305.6373831893
 51
329.9727629745
  0
ARC
  5
282
100
AcDbEntity
  8
0
100
AcDbCircle
 62
2
  6
CONTINUOUS
 10
13.5519569538
 20
2.6152551345
 40
0.0789082104
100
AcDbArc
 50
292.906155071
 51
305.2574666259
  0
ARC
  5
283
100
AcDbEntity
  8
0
100
AcDbCircle
 62
2
  6
CONTINUOUS
 10
13.5282557878
 20
2.4386010294
 40
0.117346916
100
AcDbArc
 50
58.614769177
 51
62.3737227606
  0
ARC
  5
284
100
AcDbEntity
  8
0
100
AcDbCircle
 62
2
  6
CONTINUOUS
 10
13.5761387404
 20
2.5167282896
 40
0.0257145923
100
AcDbArc
 50
39.3804255939
 51
59.0361096173
  0
ARC
  5
285
100
AcDbEntity
  8
0
100
AcDbCircle
 62
2
  6
CONTINUOUS
 10
13.5750183849
 20
2.5166552064
 40
0.0266349791
100
AcDbArc
 50
20.3630922153
 51
37.9727053099
  0
ARC
  5
286
100
AcDbEntity
  8
0
100
AcDbCircle
 62
2
  6
CONTINUOUS
 10
13.5571178432
 20
2.509473798
 40
0.0459185159
100
AcDbArc
 50
15.6740290068
 51
20.9917271228
  0
ARC
  5
287
100
AcDbEntity
  8
0
100
AcDbCircle
 62
2
  6
CONTINUOUS
 10
13.6156881783
 20
2.525116781
 40
0.0147197649
100
AcDbArc
 50
192.7054516565
 51
206.0594861022
  0
ARC
  5
288
100
AcDbEntity
  8
0
100
AcDbCircle
 62
2
  6
CONTINUOUS
 10
13.6071938412
 20
2.5209082945
 40
0.0052403997
100
AcDbArc
 50
205.5232099488
 51
227.5054868079
  0
ARC
  5
289
100
AcDbEntity
  8
0
100
AcDbCircle
 62
2
  6
CONTINUOUS
 10
13.6054655419
 20
2.5190929218
 40
0.0027347709
100
AcDbArc
 50
228.5117626737
 51
266.1485845754
  0
LINE
  5
28A
100
AcDbEntity
  8
0
100
AcDbLine
 62
2
  6
CONTINUOUS
 10
13.6052818493
 20
2.5163643272
 11
13.60639085
 21
2.5163643272
  0
ARC
  5
28B
100
AcDbEntity
  8
0
100
AcDbCircle
 62
2
  6
CONTINUOUS
 10
13.6063292954
 20
2.5296129864
 40
0.0132488022
100
AcDbArc
 50
270.266200055
 51
281.2404888597
  0
ARC
  5
28C
100
AcDbEntity
  8
0
100
AcDbCircle
 62
2
  6
CONTINUOUS
 10
13.6075235364
 20
2.5238762928
 40
0.0073895522
100
AcDbArc
 50
280.8288201977
 51
305.0837508495
  0
ARC
  5
28D
100
AcDbEntity
  8
0
100
AcDbCircle
 62
2
  6
CONTINUOUS
 10
13.607924718
 20
2.5230254464
 40
0.0064647042
100
AcDbArc
 50
306.5086174083
 51
340.2162360092
  0
ARC
  5
28E
100
AcDbEntity
  8
0
100
AcDbCircle
 62
2
  6
CONTINUOUS
 10
13.6027235414
 20
2.524769508
 40
0.0119498009
100
AcDbArc
 50
340.7883861657
 51
1.1691452593
  0
LINE
  5
28F
100
AcDbEntity
  8
0
100
AcDbLine
 62
2
  6
CONTINUOUS
 10
13.6146708546
 20
2.525013332
 11
13.6146708546
 21
2.5276393334
  0
ARC
  5
290
100
AcDbEntity
  8
0
100
AcDbCircle
 62
2
  6
CONTINUOUS
 10
13.6171458541
 20
2.5276393353
 40
0.0024749995
100
AcDbArc
 50
89.9999571957
 51
180.0000428043
  0
LINE
  5
291
100
AcDbEntity
  8
0
100
AcDbLine
 62
2
  6
CONTINUOUS
 10
13.6171458559
 20
2.5301143348
 11
13.6292558626
 21
2.5301143348
  0
ARC
  5
292
100
AcDbEntity
  8
0
100
AcDbCircle
 62
2
  6
CONTINUOUS
 10
13.6292558645
 20
2.5276393353
 40
0.0024749995
100
AcDbArc
 50
359.9999571957
 51
90.0000428043
  0
LINE
  5
293
100
AcDbEntity
  8
0
100
AcDbLine
 62
2
  6
CONTINUOUS
 10
13.631730864
 20
2.5276393334
 11
13.631730864
 21
2.516087327
  0
ARC
  5
294
100
AcDbEntity
  8
0
100
AcDbCircle
 62
2
  6
CONTINUOUS
 10
13.6141751675
 20
2.5161916447
 40
0.0175560065
100
AcDbArc
 50
332.2279060967
 51
359.6595469939
  0
ARC
  5
295
100
AcDbEntity
  8
0
100
AcDbCircle
 62
2
  6
CONTINUOUS
 10
13.6048681567
 20
2.5210861501
 40
0.0280715479
100
AcDbArc
 50
308.5071794988
 51
332.2400656899
  0
ARC
  5
296
100
AcDbEntity
  8
0
100
AcDbCircle
 62
2
  6
CONTINUOUS
 10
13.5978759713
 20
2.5286873679
 40
0.0383802683
100
AcDbArc
 50
288.7656836787
 51
309.6104317088
  0
ARC
  5
297
100
AcDbEntity
  8
0
100
AcDbCircle
 62
2
  6
CONTINUOUS
 10
13.6036139387
 20
2.5111006186
 40
0.0198837666
100
AcDbArc
 50
271.8586572978
 51
289.4131338543
  0
LINE
  5
298
100
AcDbEntity
  8
0
100
AcDbLine
 62
2
  6
CONTINUOUS
 10
13.6042588488
 20
2.4912273132
 11
13.5568948225
 21
2.4912273132
  0
ARC
  5
299
100
AcDbEntity
  8
0
100
AcDbCircle
 62
2
  6
CONTINUOUS
 10
13.5577001432
 20
2.5085494649
 40
0.0173408616
100
AcDbArc
 50
232.4713476722
 51
267.338189944
  0
ARC
  5
29A
100
AcDbEntity
  8
0
100
AcDbCircle
 62
2
  6
CONTINUOUS
 10
13.5607987082
 20
2.5143997688
 40
0.0238935861
100
AcDbArc
 50
209.8247607259
 51
235.1255079367
  0
ARC
  5
29B
100
AcDbEntity
  8
0
100
AcDbCircle
 62
2
  6
CONTINUOUS
 10
13.5295131508
 20
2.5629115009
 40
0.0110815393
100
AcDbArc
 50
306.758405961
 51
320.4502234234
  0
ARC
  5
29C
100
AcDbEntity
  8
0
100
AcDbCircle
 62
2
  6
CONTINUOUS
 10
13.5238839599
 20
2.5706523294
 40
0.0206523367
100
AcDbArc
 50
289.6883413472
 51
306.4184925496
  0
ARC
  5
29D
100
AcDbEntity
  8
0
100
AcDbCircle
 62
2
  6
CONTINUOUS
 10
13.5219564542
 20
2.5750459767
 40
0.0254407115
100
AcDbArc
 50
270.7327484175
 51
290.441894219
  0
LINE
  5
29E
100
AcDbEntity
  8
0
100
AcDbLine
 62
2
  6
CONTINUOUS
 10
13.5222818033
 20
2.5496073456
 11
13.4883447845
 21
2.5496073456
  0
ARC
  5
29F
100
AcDbEntity
  8
0
100
AcDbCircle
 62
2
  6
CONTINUOUS
 10
13.4883447827
 20
2.5520823451
 40
0.0024749995
100
AcDbArc
 50
179.9999571957
 51
270.0000428043
  0
LINE
  5
2A0
100
AcDbEntity
  8
0
100
AcDbLine
 62
2
  6
CONTINUOUS
 10
13.4858697831
 20
2.552082347
 11
13.4858697831
 21
2.564807354
  0
ARC
  5
2A1
100
AcDbEntity
  8
0
100
AcDbCircle
 62
2
  6
CONTINUOUS
 10
13.4883447827
 20
2.5648073559
 40
0.0024749995
100
AcDbArc
 50
89.9999571957
 51
180.0000428043
  0
LINE
  5
2A2
100
AcDbEntity
  8
0
100
AcDbLine
 62
2
  6
CONTINUOUS
 10
13.4883447845
 20
2.5672823554
 11
13.5251458049
 21
2.5672823554
  0
ARC
  5
2A3
100
AcDbEntity
  8
0
100
AcDbCircle
 62
2
  6
CONTINUOUS
 10
13.5236009174
 20
2.5388278764
 40
0.0284963867
100
AcDbArc
 50
70.3834917948
 51
86.8922743861
  0
ARC
  5
2A4
100
AcDbEntity
  8
0
100
AcDbCircle
 62
2
  6
CONTINUOUS
 10
13.5284605274
 20
2.5518696094
 40
0.0145814632
100
AcDbArc
 50
54.6746025112
 51
71.1660573124
  0
ARC
  5
2A5
100
AcDbEntity
  8
0
100
AcDbCircle
 62
2
  6
CONTINUOUS
 10
13.5335900184
 20
2.5587235346
 40
0.0060275915
100
AcDbArc
 50
20.9055592135
 51
56.7851676243
  0
ARC
  5
2A6
100
AcDbEntity
  8
0
100
AcDbCircle
 62
2
  6
CONTINUOUS
 10
13.5348905773
 20
2.5593838168
 40
0.0045795888
100
AcDbArc
 50
355.6235353944
 51
18.9942678268
  0
ARC
  5
2A7
100
AcDbEntity
  8
0
100
AcDbCircle
 62
2
  6
CONTINUOUS
 10
13.533683767
 20
2.559677593
 40
0.0058087709
100
AcDbArc
 50
318.8515287446
 51
353.6422345323
  0
LINE
  5
2A8
100
AcDbEntity
  8
0
100
AcDbLine
 62
2
  6
CONTINUOUS
 10
12.672340332
 20
2.5920323691
 11
12.7727983877
 21
2.5920323691
  0
ARC
  5
2A9
100
AcDbEntity
  8
0
100
AcDbCircle
 62
2
  6
CONTINUOUS
 10
12.7727985224
 20
2.5895582013
 40
0.0024741678
100
AcDbArc
 50
46.3477981899
 51
90.0031206038
  0
LINE
  5
2AA
100
AcDbEntity
  8
0
100
AcDbLine
 62
2
  6
CONTINUOUS
 10
12.7745063886
 20
2.5913483688
 11
12.8345394219
 21
2.534068337
  0
ARC
  5
2AB
100
AcDbEntity
  8
0
100
AcDbCircle
 62
2
  6
CONTINUOUS
 10
12.8362481229
 20
2.5358592748
 40
0.0024753014
100
AcDbArc
 50
226.3461263059
 51
0.0014637321
  0
LINE
  5
2AC
100
AcDbEntity
  8
0
100
AcDbLine
 62
2
  6
CONTINUOUS
 10
12.8387234242
 20
2.535859338
 11
12.8387234242
 21
2.564807354
  0
ARC
  5
2AD
100
AcDbEntity
  8
0
100
AcDbCircle
 62
2
  6
CONTINUOUS
 10
12.8362484247
 20
2.5648073559
 40
0.0024749995
100
AcDbArc
 50
359.9999571957
 51
90.0000428043
  0
LINE
  5
2AE
100
AcDbEntity
  8
0
100
AcDbLine
 62
2
  6
CONTINUOUS
 10
12.8362484229
 20
2.5672823554
 11
12.8174724125
 21
2.5672823554
  0
ARC
  5
2AF
100
AcDbEntity
  8
0
100
AcDbCircle
 62
2
  6
CONTINUOUS
 10
12.8174724106
 20
2.5697573549
 40
0.0024749995
100
AcDbArc
 50
179.9999571957
 51
270.0000428043
  0
LINE
  5
2B0
100
AcDbEntity
  8
0
100
AcDbLine
 62
2
  6
CONTINUOUS
 10
12.8149974111
 20
2.5697573568
 11
12.8149974111
 21
2.5895573678
  0
ARC
  5
2B1
100
AcDbEntity
  8
0
100
AcDbCircle
 62
2
  6
CONTINUOUS
 10
12.8174724106
 20
2.5895573696
 40
0.0024749995
100
AcDbArc
 50
89.9999571957
 51
180.0000428043
  0
LINE
  5
2B2
100
AcDbEntity
  8
0
100
AcDbLine
 62
2
  6
CONTINUOUS
 10
12.8174724125
 20
2.5920323691
 11
12.8914734535
 21
2.5920323691
  0
ARC
  5
2B3
100
AcDbEntity
  8
0
100
AcDbCircle
 62
2
  6
CONTINUOUS
 10
12.8914734553
 20
2.5895573696
 40
0.0024749995
100
AcDbArc
 50
359.9999571957
 51
90.0000428043
  0
LINE
  5
2B4
100
AcDbEntity
  8
0
100
AcDbLine
 62
2
  6
CONTINUOUS
 10
12.8939484549
 20
2.5895573678
 11
12.8939484549
 21
2.5697573568
  0
ARC
  5
2B5
100
AcDbEntity
  8
0
100
AcDbCircle
 62
2
  6
CONTINUOUS
 10
12.8914734553
 20
2.5697573549
 40
0.0024749995
100
AcDbArc
 50
269.9999571957
 51
0.0000428043
  0
LINE
  5
2B6
100
AcDbEntity
  8
0
100
AcDbLine
 62
2
  6
CONTINUOUS
 10
12.8914734535
 20
2.5672823554
 11
12.8735404436
 21
2.5672823554
  0
ARC
  5
2B7
100
AcDbEntity
  8
0
100
AcDbCircle
 62
2
  6
CONTINUOUS
 10
12.8735404417
 20
2.5648073559
 40
0.0024749995
100
AcDbArc
 50
89.9999571957
 51
180.0000428043
  0
LINE
  5
2B8
100
AcDbEntity
  8
0
100
AcDbLine
 62
2
  6
CONTINUOUS
 10
12.8710654422
 20
2.564807354
 11
12.8710654422
 21
2.4937023146
  0
ARC
  5
2B9
100
AcDbEntity
  8
0
100
AcDbCircle
 62
2
  6
CONTINUOUS
 10
12.8685904427
 20
2.4937023128
 40
0.0024749995
100
AcDbArc
 50
269.9999571957
 51
0.0000428043
  0
LINE
  5
2BA
100
AcDbEntity
  8
0
100
AcDbLine
 62
2
  6
CONTINUOUS
 10
12.8685904408
 20
2.4912273132
 11
12.7943853997
 21
2.4912273132
  0
ARC
  5
2BB
100
AcDbEntity
  8
0
100
AcDbCircle
 62
2
  6
CONTINUOUS
 10
12.7943847649
 20
2.4937027294
 40
0.0024754162
100
AcDbArc
 50
226.3593695813
 51
270.0146919953
  0
LINE
  5
2BC
100
AcDbEntity
  8
0
100
AcDbLine
 62
2
  6
CONTINUOUS
 10
12.7926763987
 20
2.4919113136
 11
12.7293963636
 21
2.5522893471
  0
ARC
  5
2BD
100
AcDbEntity
  8
0
100
AcDbCircle
 62
2
  6
CONTINUOUS
 10
12.7276876627
 20
2.5504984093
 40
0.0024753014
100
AcDbArc
 50
46.3461263059
 51
180.0014637321
  0
LINE
  5
2BE
100
AcDbEntity
  8
0
100
AcDbLine
 62
2
  6
CONTINUOUS
 10
12.7252123613
 20
2.5504983461
 11
12.7252123613
 21
2.5184523283
  0
ARC
  5
2BF
100
AcDbEntity
  8
0
100
AcDbCircle
 62
2
  6
CONTINUOUS
 10
12.7276873608
 20
2.5184523265
 40
0.0024749995
100
AcDbArc
 50
179.9999571957
 51
270.0000428043
  0
LINE
  5
2C0
100
AcDbEntity
  8
0
100
AcDbLine
 62
2
  6
CONTINUOUS
 10
12.7276873627
 20
2.515977327
 11
12.7480043739
 21
2.515977327
  0
ARC
  5
2C1
100
AcDbEntity
  8
0
100
AcDbCircle
 62
2
  6
CONTINUOUS
 10
12.7480043758
 20
2.5135023274
 40
0.0024749995
100
AcDbArc
 50
359.9999571957
 51
90.0000428043
  0
LINE
  5
2C2
100
AcDbEntity
  8
0
100
AcDbLine
 62
2
  6
CONTINUOUS
 10
12.7504793753
 20
2.5135023256
 11
12.7504793753
 21
2.4937023146
  0
ARC
  5
2C3
100
AcDbEntity
  8
0
100
AcDbCircle
 62
2
  6
CONTINUOUS
 10
12.7480043758
 20
2.4937023128
 40
0.0024749995
100
AcDbArc
 50
269.9999571957
 51
0.0000428043
  0
LINE
  5
2C4
100
AcDbEntity
  8
0
100
AcDbLine
 62
2
  6
CONTINUOUS
 10
12.7480043739
 20
2.4912273132
 11
12.672340332
 21
2.4912273132
  0
ARC
  5
2C5
100
AcDbEntity
  8
0
100
AcDbCircle
 62
2
  6
CONTINUOUS
 10
12.6723403301
 20
2.4937023128
 40
0.0024749995
100
AcDbArc
 50
179.9999571957
 51
270.0000428043
  0
LINE
  5
2C6
100
AcDbEntity
  8
0
100
AcDbLine
 62
2
  6
CONTINUOUS
 10
12.6698653306
 20
2.4937023146
 11
12.6698653306
 21
2.5135023256
  0
ARC
  5
2C7
100
AcDbEntity
  8
0
100
AcDbCircle
 62
2
  6
CONTINUOUS
 10
12.6723403301
 20
2.5135023274
 40
0.0024749995
100
AcDbArc
 50
89.9999571957
 51
180.0000428043
  0
LINE
  5
2C8
100
AcDbEntity
  8
0
100
AcDbLine
 62
2
  6
CONTINUOUS
 10
12.672340332
 20
2.515977327
 11
12.6909873423
 21
2.515977327
  0
ARC
  5
2C9
100
AcDbEntity
  8
0
100
AcDbCircle
 62
2
  6
CONTINUOUS
 10
12.6909873442
 20
2.5184523265
 40
0.0024749995
100
AcDbArc
 50
269.9999571957
 51
0.0000428043
  0
LINE
  5
2CA
100
AcDbEntity
  8
0
100
AcDbLine
 62
2
  6
CONTINUOUS
 10
12.6934623437
 20
2.5184523283
 11
12.6934623437
 21
2.564807354
  0
ARC
  5
2CB
100
AcDbEntity
  8
0
100
AcDbCircle
 62
2
  6
CONTINUOUS
 10
12.6909873442
 20
2.5648073559
 40
0.0024749995
100
AcDbArc
 50
359.9999571957
 51
90.0000428043
  0
LINE
  5
2CC
100
AcDbEntity
  8
0
100
AcDbLine
 62
2
  6
CONTINUOUS
 10
12.6909873423
 20
2.5672823554
 11
12.672340332
 21
2.5672823554
  0
ARC
  5
2CD
100
AcDbEntity
  8
0
100
AcDbCircle
 62
2
  6
CONTINUOUS
 10
12.6723403301
 20
2.5697573549
 40
0.0024749995
100
AcDbArc
 50
179.9999571957
 51
270.0000428043
  0
LINE
  5
2CE
100
AcDbEntity
  8
0
100
AcDbLine
 62
2
  6
CONTINUOUS
 10
12.6698653306
 20
2.5697573568
 11
12.6698653306
 21
2.5895573678
  0
ARC
  5
2CF
100
AcDbEntity
  8
0
100
AcDbCircle
 62
2
  6
CONTINUOUS
 10
12.6723403301
 20
2.5895573696
 40
0.0024749995
100
AcDbArc
 50
89.9999571957
 51
180.0000428043
  0
LINE
  5
2D0
100
AcDbEntity
  8
0
100
AcDbLine
 62
2
  6
CONTINUOUS
 10
12.5246402501
 20
2.5655893545
 11
12.5175232461
 21
2.5543723483
  0
ARC
  5
2D1
100
AcDbEntity
  8
0
100
AcDbCircle
 62
2
  6
CONTINUOUS
 10
12.519613138
 20
2.5530463862
 40
0.0024750401
100
AcDbArc
 50
147.6063258012
 51
270.0025305754
  0
LINE
  5
2D2
100
AcDbEntity
  8
0
100
AcDbLine
 62
2
  6
CONTINUOUS
 10
12.5196132473
 20
2.5505713461
 11
12.5401702587
 21
2.5505713461
  0
ARC
  5
2D3
100
AcDbEntity
  8
0
100
AcDbCircle
 62
2
  6
CONTINUOUS
 10
12.5401702375
 20
2.5530465533
 40
0.0024752071
100
AcDbArc
 50
270.0004896793
 51
32.9089806818
  0
LINE
  5
2D4
100
AcDbEntity
  8
0
100
AcDbLine
 62
2
  6
CONTINUOUS
 10
12.5422482598
 20
2.5543913483
 11
12.5349892558
 21
2.5656073545
  0
ARC
  5
2D5
100
AcDbEntity
  8
0
100
AcDbCircle
 62
2
  6
CONTINUOUS
 10
12.532910715
 20
2.564262895
 40
0.0024754602
100
AcDbArc
 50
32.8959418573
 51
89.9875097202
  0
LINE
  5
2D6
100
AcDbEntity
  8
0
100
AcDbLine
 62
2
  6
CONTINUOUS
 10
12.5329112547
 20
2.5667383551
 11
12.5267302512
 21
2.5667383551
  0
ARC
  5
2D7
100
AcDbEntity
  8
0
100
AcDbCircle
 62
2
  6
CONTINUOUS
 10
12.5267301809
 20
2.5642631548
 40
0.0024752003
100
AcDbArc
 50
89.998372645
 51
147.602165307
  0
LINE
  5
2D8
100
AcDbEntity
  8
0
100
AcDbLine
 62
2
  6
CONTINUOUS
 10
12.548053263
 20
2.5284903339
 11
12.5536792662
 21
2.5197973291
  0
ARC
  5
2D9
100
AcDbEntity
  8
0
100
AcDbCircle
 62
2
  6
CONTINUOUS
 10
12.5516012439
 20
2.5184525341
 40
0.0024752071
100
AcDbArc
 50
270.0004896794
 51
32.9089806818
  0
LINE
  5
2DA
100
AcDbEntity
  8
0
100
AcDbLine
 62
2
  6
CONTINUOUS
 10
12.551601265
 20
2.515977327
 11
12.537150257
 21
2.515977327
  0
ARC
  5
2DB
100
AcDbEntity
  8
0
100
AcDbCircle
 62
2
  6
CONTINUOUS
 10
12.5371502552
 20
2.5135023274
 40
0.0024749995
100
AcDbArc
 50
89.9999571957
 51
180.0000428043
  0
LINE
  5
2DC
100
AcDbEntity
  8
0
100
AcDbLine
 62
2
  6
CONTINUOUS
 10
12.5346752556
 20
2.5135023256
 11
12.5346752556
 21
2.4937023146
  0
ARC
  5
2DD
100
AcDbEntity
  8
0
100
AcDbCircle
 62
2
  6
CONTINUOUS
 10
12.5371502552
 20
2.4937023128
 40
0.0024749995
100
AcDbArc
 50
179.9999571957
 51
270.0000428043
  0
LINE
  5
2DE
100
AcDbEntity
  8
0
100
AcDbLine
 62
2
  6
CONTINUOUS
 10
12.537150257
 20
2.4912273132
 11
12.6424313154
 21
2.4912273132
  0
ARC
  5
2DF
100
AcDbEntity
  8
0
100
AcDbCircle
 62
2
  6
CONTINUOUS
 10
12.6424313172
 20
2.4937023128
 40
0.0024749995
100
AcDbArc
 50
269.9999571957
 51
0.0000428043
  0
LINE
  5
2E0
100
AcDbEntity
  8
0
100
AcDbLine
 62
2
  6
CONTINUOUS
 10
12.6449063168
 20
2.4937023146
 11
12.6449063168
 21
2.5135023256
  0
ARC
  5
2E1
100
AcDbEntity
  8
0
100
AcDbCircle
 62
2
  6
CONTINUOUS
 10
12.6424313172
 20
2.5135023274
 40
0.0024749995
100
AcDbArc
 50
359.9999571957
 51
90.0000428043
  0
LINE
  5
2E2
100
AcDbEntity
  8
0
100
AcDbLine
 62
2
  6
CONTINUOUS
 10
12.6424313154
 20
2.515977327
 11
12.6224153043
 21
2.515977327
  0
ARC
  5
2E3
100
AcDbEntity
  8
0
100
AcDbCircle
 62
2
  6
CONTINUOUS
 10
12.6224154248
 20
2.518451368
 40
0.002474041
100
AcDbArc
 50
212.9056413127
 51
269.9972091756
  0
LINE
  5
2E4
100
AcDbEntity
  8
0
100
AcDbLine
 62
2
  6
CONTINUOUS
 10
12.6203383031
 20
2.5171073276
 11
12.5725822767
 21
2.5909023685
  0
ARC
  5
2E5
100
AcDbEntity
  8
0
100
AcDbCircle
 62
2
  6
CONTINUOUS
 10
12.570504655
 20
2.589557409
 40
0.0024749602
100
AcDbArc
 50
32.9172174468
 51
90.0087853097
  0
LINE
  5
2E6
100
AcDbEntity
  8
0
100
AcDbLine
 62
2
  6
CONTINUOUS
 10
12.5705042755
 20
2.5920323691
 11
12.5133292438
 21
2.5920323691
  0
ARC
  5
2E7
100
AcDbEntity
  8
0
100
AcDbCircle
 62
2
  6
CONTINUOUS
 10
12.5133291735
 20
2.5895571688
 40
0.0024752003
100
AcDbArc
 50
89.9983726451
 51
147.602165307
  0
LINE
  5
2E8
100
AcDbEntity
  8
0
100
AcDbLine
 62
2
  6
CONTINUOUS
 10
12.5112392426
 20
2.5908833685
 11
12.4644392167
 21
2.5171263276
  0
ARC
  5
2E9
100
AcDbEntity
  8
0
100
AcDbCircle
 62
2
  6
CONTINUOUS
 10
12.4623492858
 20
2.5184525273
 40
0.0024752003
100
AcDbArc
 50
269.9983726451
 51
327.602165307
  0
LINE
  5
2EA
100
AcDbEntity
  8
0
100
AcDbLine
 62
2
  6
CONTINUOUS
 10
12.4623492155
 20
2.515977327
 11
12.4394882028
 21
2.515977327
  0
ARC
  5
2EB
100
AcDbEntity
  8
0
100
AcDbCircle
 62
2
  6
CONTINUOUS
 10
12.439488201
 20
2.5135023274
 40
0.0024749995
100
AcDbArc
 50
89.9999571957
 51
180.0000428043
  0
LINE
  5
2EC
100
AcDbEntity
  8
0
100
AcDbLine
 62
2
  6
CONTINUOUS
 10
12.4370132015
 20
2.5135023256
 11
12.4370132015
 21
2.4937023146
  0
ARC
  5
2ED
100
AcDbEntity
  8
0
100
AcDbCircle
 62
2
  6
CONTINUOUS
 10
12.439488201
 20
2.4937023128
 40
0.0024749995
100
AcDbArc
 50
179.9999571957
 51
270.0000428043
  0
LINE
  5
2EE
100
AcDbEntity
  8
0
100
AcDbLine
 62
2
  6
CONTINUOUS
 10
12.4394882028
 20
2.4912273132
 11
12.5168642458
 21
2.4912273132
  0
ARC
  5
2EF
100
AcDbEntity
  8
0
100
AcDbCircle
 62
2
  6
CONTINUOUS
 10
12.5168642476
 20
2.4937023128
 40
0.0024749995
100
AcDbArc
 50
269.9999571957
 51
0.0000428043
  0
LINE
  5
2F0
100
AcDbEntity
  8
0
100
AcDbLine
 62
2
  6
CONTINUOUS
 10
12.5193392471
 20
2.4937023146
 11
12.5193392471
 21
2.5135023256
  0
ARC
  5
2F1
100
AcDbEntity
  8
0
100
AcDbCircle
 62
2
  6
CONTINUOUS
 10
12.5168642476
 20
2.5135023274
 40
0.0024749995
100
AcDbArc
 50
359.9999571957
 51
90.0000428043
  0
LINE
  5
2F2
100
AcDbEntity
  8
0
100
AcDbLine
 62
2
  6
CONTINUOUS
 10
12.5168642458
 20
2.515977327
 11
12.5055812395
 21
2.515977327
  0
ARC
  5
2F3
100
AcDbEntity
  8
0
100
AcDbCircle
 62
2
  6
CONTINUOUS
 10
12.5055811302
 20
2.518452367
 40
0.0024750401
100
AcDbArc
 50
147.6063258011
 51
270.0025305754
  0
LINE
  5
2F4
100
AcDbEntity
  8
0
100
AcDbLine
 62
2
  6
CONTINUOUS
 10
12.5034912383
 20
2.5197783291
 11
12.5090072414
 21
2.5284723339
  0
ARC
  5
2F5
100
AcDbEntity
  8
0
100
AcDbCircle
 62
2
  6
CONTINUOUS
 10
12.5110971723
 20
2.5271461342
 40
0.0024752003
100
AcDbArc
 50
89.998372645
 51
147.602165307
  0
LINE
  5
2F6
100
AcDbEntity
  8
0
100
AcDbLine
 62
2
  6
CONTINUOUS
 10
12.5110972426
 20
2.5296213345
 11
12.5459752619
 21
2.5296213345
  0
ARC
  5
2F7
100
AcDbEntity
  8
0
100
AcDbCircle
 62
2
  6
CONTINUOUS
 10
12.5459747223
 20
2.5271458744
 40
0.0024754602
100
AcDbArc
 50
32.8959418573
 51
89.9875097202
  0
LINE
  5
2F8
100
AcDbEntity
  8
0
100
AcDbLine
 62
2
  6
CONTINUOUS
 10
12.9205934696
 20
2.5920323691
 11
13.0210515254
 21
2.5920323691
  0
ARC
  5
2F9
100
AcDbEntity
  8
0
100
AcDbCircle
 62
2
  6
CONTINUOUS
 10
13.0210516601
 20
2.5895582013
 40
0.0024741678
100
AcDbArc
 50
46.3477981899
 51
90.0031206038
  0
LINE
  5
2FA
100
AcDbEntity
  8
0
100
AcDbLine
 62
2
  6
CONTINUOUS
 10
13.0227595263
 20
2.5913483688
 11
13.0827925596
 21
2.534068337
  0
ARC
  5
2FB
100
AcDbEntity
  8
0
100
AcDbCircle
 62
2
  6
CONTINUOUS
 10
13.0845012605
 20
2.5358592748
 40
0.0024753014
100
AcDbArc
 50
226.3461263059
 51
0.0014637321
  0
LINE
  5
2FC
100
AcDbEntity
  8
0
100
AcDbLine
 62
2
  6
CONTINUOUS
 10
13.0869765619
 20
2.535859338
 11
13.0869765619
 21
2.564807354
  0
ARC
  5
2FD
100
AcDbEntity
  8
0
100
AcDbCircle
 62
2
  6
CONTINUOUS
 10
13.0845015624
 20
2.5648073559
 40
0.0024749995
100
AcDbArc
 50
359.9999571957
 51
90.0000428043
  0
LINE
  5
2FE
100
AcDbEntity
  8
0
100
AcDbLine
 62
2
  6
CONTINUOUS
 10
13.0845015605
 20
2.5672823554
 11
13.0657255501
 21
2.5672823554
  0
ARC
  5
2FF
100
AcDbEntity
  8
0
100
AcDbCircle
 62
2
  6
CONTINUOUS
 10
13.0657255483
 20
2.5697573549
 40
0.0024749995
100
AcDbArc
 50
179.9999571957
 51
270.0000428043
  0
LINE
  5
300
100
AcDbEntity
  8
0
100
AcDbLine
 62
2
  6
CONTINUOUS
 10
13.0632505488
 20
2.5697573568
 11
13.0632505488
 21
2.5895573678
  0
ARC
  5
301
100
AcDbEntity
  8
0
100
AcDbCircle
 62
2
  6
CONTINUOUS
 10
13.0657255483
 20
2.5895573696
 40
0.0024749995
100
AcDbArc
 50
89.9999571957
 51
180.0000428043
  0
LINE
  5
302
100
AcDbEntity
  8
0
100
AcDbLine
 62
2
  6
CONTINUOUS
 10
13.0657255501
 20
2.5920323691
 11
13.1397265912
 21
2.5920323691
  0
ARC
  5
303
100
AcDbEntity
  8
0
100
AcDbCircle
 62
2
  6
CONTINUOUS
 10
13.139726593
 20
2.5895573696
 40
0.0024749995
100
AcDbArc
 50
359.9999571957
 51
90.0000428043
  0
LINE
  5
304
100
AcDbEntity
  8
0
100
AcDbLine
 62
2
  6
CONTINUOUS
 10
13.1422015925
 20
2.5895573678
 11
13.1422015925
 21
2.5697573568
  0
ARC
  5
305
100
AcDbEntity
  8
0
100
AcDbCircle
 62
2
  6
CONTINUOUS
 10
13.139726593
 20
2.5697573549
 40
0.0024749995
100
AcDbArc
 50
269.9999571957
 51
0.0000428042
  0
LINE
  5
306
100
AcDbEntity
  8
0
100
AcDbLine
 62
2
  6
CONTINUOUS
 10
13.1397265912
 20
2.5672823554
 11
13.1217935812
 21
2.5672823554
  0
ARC
  5
307
100
AcDbEntity
  8
0
100
AcDbCircle
 62
2
  6
CONTINUOUS
 10
13.1217935794
 20
2.5648073559
 40
0.0024749995
100
AcDbArc
 50
89.9999571957
 51
180.0000428042
  0
LINE
  5
308
100
AcDbEntity
  8
0
100
AcDbLine
 62
2
  6
CONTINUOUS
 10
13.1193185799
 20
2.564807354
 11
13.1193185799
 21
2.4937023146
  0
ARC
  5
309
100
AcDbEntity
  8
0
100
AcDbCircle
 62
2
  6
CONTINUOUS
 10
13.1168435803
 20
2.4937023128
 40
0.0024749995
100
AcDbArc
 50
269.9999571957
 51
0.0000428043
  0
LINE
  5
30A
100
AcDbEntity
  8
0
100
AcDbLine
 62
2
  6
CONTINUOUS
 10
13.1168435785
 20
2.4912273132
 11
13.0426375373
 21
2.4912273132
  0
ARC
  5
30B
100
AcDbEntity
  8
0
100
AcDbCircle
 62
2
  6
CONTINUOUS
 10
13.0426374026
 20
2.493701481
 40
0.0024741678
100
AcDbArc
 50
226.3477981898
 51
270.0031206038
  0
LINE
  5
30C
100
AcDbEntity
  8
0
100
AcDbLine
 62
2
  6
CONTINUOUS
 10
13.0409295364
 20
2.4919113136
 11
12.9776495013
 21
2.5522893471
  0
ARC
  5
30D
100
AcDbEntity
  8
0
100
AcDbCircle
 62
2
  6
CONTINUOUS
 10
12.9759408003
 20
2.5504984093
 40
0.0024753014
100
AcDbArc
 50
46.3461263059
 51
180.0014637321
  0
LINE
  5
30E
100
AcDbEntity
  8
0
100
AcDbLine
 62
2
  6
CONTINUOUS
 10
12.973465499
 20
2.5504983461
 11
12.973465499
 21
2.5184523283
  0
ARC
  5
30F
100
AcDbEntity
  8
0
100
AcDbCircle
 62
2
  6
CONTINUOUS
 10
12.9759404985
 20
2.5184523265
 40
0.0024749995
100
AcDbArc
 50
179.9999571957
 51
270.0000428043
  0
LINE
  5
310
100
AcDbEntity
  8
0
100
AcDbLine
 62
2
  6
CONTINUOUS
 10
12.9759405003
 20
2.515977327
 11
12.9962575116
 21
2.515977327
  0
ARC
  5
311
100
AcDbEntity
  8
0
100
AcDbCircle
 62
2
  6
CONTINUOUS
 10
12.9962575135
 20
2.5135023274
 40
0.0024749995
100
AcDbArc
 50
359.9999571957
 51
90.0000428043
  0
LINE
  5
312
100
AcDbEntity
  8
0
100
AcDbLine
 62
2
  6
CONTINUOUS
 10
12.998732513
 20
2.5135023256
 11
12.998732513
 21
2.4937023146
  0
ARC
  5
313
100
AcDbEntity
  8
0
100
AcDbCircle
 62
2
  6
CONTINUOUS
 10
12.9962575135
 20
2.4937023128
 40
0.0024749995
100
AcDbArc
 50
269.9999571957
 51
0.0000428043
  0
LINE
  5
314
100
AcDbEntity
  8
0
100
AcDbLine
 62
2
  6
CONTINUOUS
 10
12.9962575116
 20
2.4912273132
 11
12.9205934696
 21
2.4912273132
  0
ARC
  5
315
100
AcDbEntity
  8
0
100
AcDbCircle
 62
2
  6
CONTINUOUS
 10
12.9205934678
 20
2.4937023128
 40
0.0024749995
100
AcDbArc
 50
179.9999571957
 51
270.0000428043
  0
LINE
  5
316
100
AcDbEntity
  8
0
100
AcDbLine
 62
2
  6
CONTINUOUS
 10
12.9181184683
 20
2.4937023146
 11
12.9181184683
 21
2.5135023256
  0
ARC
  5
317
100
AcDbEntity
  8
0
100
AcDbCircle
 62
2
  6
CONTINUOUS
 10
12.9205934678
 20
2.5135023274
 40
0.0024749995
100
AcDbArc
 50
89.9999571957
 51
180.0000428042
  0
LINE
  5
318
100
AcDbEntity
  8
0
100
AcDbLine
 62
2
  6
CONTINUOUS
 10
12.9205934696
 20
2.515977327
 11
12.93923948
 21
2.515977327
  0
ARC
  5
319
100
AcDbEntity
  8
0
100
AcDbCircle
 62
2
  6
CONTINUOUS
 10
12.9392394818
 20
2.5184523265
 40
0.0024749995
100
AcDbArc
 50
269.9999571957
 51
0.0000428043
  0
LINE
  5
31A
100
AcDbEntity
  8
0
100
AcDbLine
 62
2
  6
CONTINUOUS
 10
12.9417144814
 20
2.5184523283
 11
12.9417144814
 21
2.564807354
  0
ARC
  5
31B
100
AcDbEntity
  8
0
100
AcDbCircle
 62
2
  6
CONTINUOUS
 10
12.9392394818
 20
2.5648073559
 40
0.0024749995
100
AcDbArc
 50
359.9999571957
 51
90.0000428043
  0
LINE
  5
31C
100
AcDbEntity
  8
0
100
AcDbLine
 62
2
  6
CONTINUOUS
 10
12.93923948
 20
2.5672823554
 11
12.9205934696
 21
2.5672823554
  0
ARC
  5
31D
100
AcDbEntity
  8
0
100
AcDbCircle
 62
2
  6
CONTINUOUS
 10
12.9205934678
 20
2.5697573549
 40
0.0024749995
100
AcDbArc
 50
179.9999571957
 51
270.0000428043
  0
LINE
  5
31E
100
AcDbEntity
  8
0
100
AcDbLine
 62
2
  6
CONTINUOUS
 10
12.9181184683
 20
2.5697573568
 11
12.9181184683
 21
2.5895573678
  0
ARC
  5
31F
100
AcDbEntity
  8
0
100
AcDbCircle
 62
2
  6
CONTINUOUS
 10
12.9205934678
 20
2.5895573696
 40
0.0024749995
100
AcDbArc
 50
89.9999571957
 51
180.0000428042
  0
LINE
  5
320
100
AcDbEntity
  8
0
100
AcDbLine
 62
2
  6
CONTINUOUS
 10
13.2934226764
 20
2.5324773361
 11
13.2582556569
 21
2.5324773361
  0
ARC
  5
321
100
AcDbEntity
  8
0
100
AcDbCircle
 62
2
  6
CONTINUOUS
 10
13.2582556551
 20
2.5300023366
 40
0.0024749995
100
AcDbArc
 50
89.9999571957
 51
180.0000428043
  0
LINE
  5
322
100
AcDbEntity
  8
0
100
AcDbLine
 62
2
  6
CONTINUOUS
 10
13.2557806555
 20
2.5300023347
 11
13.2557806555
 21
2.5184523283
  0
ARC
  5
323
100
AcDbEntity
  8
0
100
AcDbCircle
 62
2
  6
CONTINUOUS
 10
13.2582556551
 20
2.5184523265
 40
0.0024749995
100
AcDbArc
 50
179.9999571957
 51
270.0000428043
  0
LINE
  5
324
100
AcDbEntity
  8
0
100
AcDbLine
 62
2
  6
CONTINUOUS
 10
13.2582556569
 20
2.515977327
 11
13.3232596929
 21
2.515977327
  0
ARC
  5
325
100
AcDbEntity
  8
0
100
AcDbCircle
 62
2
  6
CONTINUOUS
 10
13.3232596948
 20
2.5184523265
 40
0.0024749995
100
AcDbArc
 50
269.9999571957
 51
0.0000428043
  0
LINE
  5
326
100
AcDbEntity
  8
0
100
AcDbLine
 62
2
  6
CONTINUOUS
 10
13.3257346943
 20
2.5184523283
 11
13.3257346943
 21
2.5267023329
  0
ARC
  5
327
100
AcDbEntity
  8
0
100
AcDbCircle
 62
2
  6
CONTINUOUS
 10
13.3282096938
 20
2.5267023348
 40
0.0024749995
100
AcDbArc
 50
89.9999571957
 51
180.0000428043
  0
LINE
  5
328
100
AcDbEntity
  8
0
100
AcDbLine
 62
2
  6
CONTINUOUS
 10
13.3282096957
 20
2.5291773343
 11
13.3705287192
 21
2.5291773343
  0
ARC
  5
329
100
AcDbEntity
  8
0
100
AcDbCircle
 62
2
  6
CONTINUOUS
 10
13.370528721
 20
2.5267023348
 40
0.0024749995
100
AcDbArc
 50
359.9999571957
 51
90.0000428043
  0
LINE
  5
32A
100
AcDbEntity
  8
0
100
AcDbLine
 62
2
  6
CONTINUOUS
 10
13.3730037205
 20
2.5267023329
 11
13.3730037205
 21
2.4937023146
  0
ARC
  5
32B
100
AcDbEntity
  8
0
100
AcDbCircle
 62
2
  6
CONTINUOUS
 10
13.370528721
 20
2.4937023128
 40
0.0024749995
100
AcDbArc
 50
269.9999571957
 51
0.0000428043
  0
LINE
  5
32C
100
AcDbEntity
  8
0
100
AcDbLine
 62
2
  6
CONTINUOUS
 10
13.3705287192
 20
2.4912273132
 11
13.1673166065
 21
2.4912273132
  0
ARC
  5
32D
100
AcDbEntity
  8
0
100
AcDbCircle
 62
2
  6
CONTINUOUS
 10
13.1673166046
 20
2.4937023128
 40
0.0024749995
100
AcDbArc
 50
179.9999571957
 51
270.0000428043
  0
LINE
  5
32E
100
AcDbEntity
  8
0
100
AcDbLine
 62
2
  6
CONTINUOUS
 10
13.1648416051
 20
2.4937023146
 11
13.1648416051
 21
2.5135023256
  0
ARC
  5
32F
100
AcDbEntity
  8
0
100
AcDbCircle
 62
2
  6
CONTINUOUS
 10
13.1673166046
 20
2.5135023274
 40
0.0024749995
100
AcDbArc
 50
89.9999571957
 51
180.0000428043
  0
LINE
  5
330
100
AcDbEntity
  8
0
100
AcDbLine
 62
2
  6
CONTINUOUS
 10
13.1673166065
 20
2.515977327
 11
13.1912396197
 21
2.515977327
  0
ARC
  5
331
100
AcDbEntity
  8
0
100
AcDbCircle
 62
2
  6
CONTINUOUS
 10
13.1912396216
 20
2.5184523265
 40
0.0024749995
100
AcDbArc
 50
269.9999571957
 51
0.0000428042
  0
LINE
  5
332
100
AcDbEntity
  8
0
100
AcDbLine
 62
2
  6
CONTINUOUS
 10
13.1937146211
 20
2.5184523283
 11
13.1937146211
 21
2.564807354
  0
ARC
  5
333
100
AcDbEntity
  8
0
100
AcDbCircle
 62
2
  6
CONTINUOUS
 10
13.1912396216
 20
2.5648073559
 40
0.0024749995
100
AcDbArc
 50
359.9999571957
 51
90.0000428043
  0
LINE
  5
334
100
AcDbEntity
  8
0
100
AcDbLine
 62
2
  6
CONTINUOUS
 10
13.1912396197
 20
2.5672823554
 11
13.1673166065
 21
2.5672823554
  0
ARC
  5
335
100
AcDbEntity
  8
0
100
AcDbCircle
 62
2
  6
CONTINUOUS
 10
13.1673166046
 20
2.5697573549
 40
0.0024749995
100
AcDbArc
 50
179.9999571957
 51
270.0000428043
  0
LINE
  5
336
100
AcDbEntity
  8
0
100
AcDbLine
 62
2
  6
CONTINUOUS
 10
13.1648416051
 20
2.5697573568
 11
13.1648416051
 21
2.5895573678
  0
ARC
  5
337
100
AcDbEntity
  8
0
100
AcDbCircle
 62
2
  6
CONTINUOUS
 10
13.1673166046
 20
2.5895573696
 40
0.0024749995
100
AcDbArc
 50
89.9999571957
 51
180.0000428043
  0
LINE
  5
338
100
AcDbEntity
  8
0
100
AcDbLine
 62
2
  6
CONTINUOUS
 10
13.1673166065
 20
2.5920323691
 11
13.3691097184
 21
2.5920323691
  0
ARC
  5
339
100
AcDbEntity
  8
0
100
AcDbCircle
 62
2
  6
CONTINUOUS
 10
13.3691097202
 20
2.5895573696
 40
0.0024749995
100
AcDbArc
 50
359.9999571957
 51
90.0000428043
  0
LINE
  5
33A
100
AcDbEntity
  8
0
100
AcDbLine
 62
2
  6
CONTINUOUS
 10
13.3715847197
 20
2.5895573678
 11
13.3715847197
 21
2.5565573495
  0
ARC
  5
33B
100
AcDbEntity
  8
0
100
AcDbCircle
 62
2
  6
CONTINUOUS
 10
13.3691097202
 20
2.5565573476
 40
0.0024749995
100
AcDbArc
 50
269.9999571957
 51
0.0000428042
  0
LINE
  5
33C
100
AcDbEntity
  8
0
100
AcDbLine
 62
2
  6
CONTINUOUS
 10
13.3691097184
 20
2.5540823481
 11
13.3272456952
 21
2.5540823481
  0
ARC
  5
33D
100
AcDbEntity
  8
0
100
AcDbCircle
 62
2
  6
CONTINUOUS
 10
13.3272456933
 20
2.5565573476
 40
0.0024749995
100
AcDbArc
 50
179.9999571957
 51
270.0000428043
  0
LINE
  5
33E
100
AcDbEntity
  8
0
100
AcDbLine
 62
2
  6
CONTINUOUS
 10
13.3247706938
 20
2.5565573495
 11
13.3247706938
 21
2.564807354
  0
ARC
  5
33F
100
AcDbEntity
  8
0
100
AcDbCircle
 62
2
  6
CONTINUOUS
 10
13.3222956943
 20
2.5648073559
 40
0.0024749995
100
AcDbArc
 50
359.9999571957
 51
90.0000428043
  0
LINE
  5
340
100
AcDbEntity
  8
0
100
AcDbLine
 62
2
  6
CONTINUOUS
 10
13.3222956924
 20
2.5672823554
 11
13.2582556569
 21
2.5672823554
  0
ARC
  5
341
100
AcDbEntity
  8
0
100
AcDbCircle
 62
2
  6
CONTINUOUS
 10
13.2582556551
 20
2.5648073559
 40
0.0024749995
100
AcDbArc
 50
89.9999571957
 51
180.0000428043
  0
LINE
  5
342
100
AcDbEntity
  8
0
100
AcDbLine
 62
2
  6
CONTINUOUS
 10
13.2557806555
 20
2.564807354
 11
13.2557806555
 21
2.5532573476
  0
ARC
  5
343
100
AcDbEntity
  8
0
100
AcDbCircle
 62
2
  6
CONTINUOUS
 10
13.2582556551
 20
2.5532573458
 40
0.0024749995
100
AcDbArc
 50
179.9999571957
 51
270.0000428043
  0
LINE
  5
344
100
AcDbEntity
  8
0
100
AcDbLine
 62
2
  6
CONTINUOUS
 10
13.2582556569
 20
2.5507823463
 11
13.2934226764
 21
2.5507823463
  0
ARC
  5
345
100
AcDbEntity
  8
0
100
AcDbCircle
 62
2
  6
CONTINUOUS
 10
13.2934226783
 20
2.5483073467
 40
0.0024749995
100
AcDbArc
 50
359.9999571957
 51
90.0000428043
  0
LINE
  5
346
100
AcDbEntity
  8
0
100
AcDbLine
 62
2
  6
CONTINUOUS
 10
13.2958976778
 20
2.5483073449
 11
13.2958976778
 21
2.5349523375
  0
ARC
  5
347
100
AcDbEntity
  8
0
100
AcDbCircle
 62
2
  6
CONTINUOUS
 10
13.2934226783
 20
2.5349523356
 40
0.0024749995
100
AcDbArc
 50
269.9999571957
 51
0.0000428042
  0
LINE
  5
348
100
AcDbEntity
  8
0
100
AcDbLine
 62
2
  6
CONTINUOUS
 10
13.7286871589
 20
2.5350697372
 11
13.7286871589
 21
2.5456869438
  0
LINE
  5
349
100
AcDbEntity
  8
0
100
AcDbLine
 62
2
  6
CONTINUOUS
 10
13.7086871478
 20
2.5004302075
 11
13.7086871478
 21
2.5803264735
  0
LINE
  5
34A
100
AcDbEntity
  8
0
100
AcDbLine
 62
2
  6
CONTINUOUS
 10
13.6886871368
 20
2.4843919416
 11
13.6886871368
 21
2.5963647394
  0
LINE
  5
34B
100
AcDbEntity
  8
0
100
AcDbLine
 62
2
  6
CONTINUOUS
 10
13.6686871257
 20
2.4726017898
 11
13.6686871257
 21
2.6081548911
  0
LINE
  5
34C
100
AcDbEntity
  8
0
100
AcDbLine
 62
2
  6
CONTINUOUS
 10
13.6486871146
 20
2.4628062688
 11
13.6486871146
 21
2.6179504122
  0
LINE
  5
34D
100
AcDbEntity
  8
0
100
AcDbLine
 62
2
  6
CONTINUOUS
 10
13.6286871035
 20
2.4541253507
 11
13.6286871035
 21
2.5062483056
  0
LINE
  5
34E
100
AcDbEntity
  8
0
100
AcDbLine
 62
2
  6
CONTINUOUS
 10
13.6286871035
 20
2.5301143348
 11
13.6286871035
 21
2.6266313303
  0
LINE
  5
34F
100
AcDbEntity
  8
0
100
AcDbLine
 62
2
  6
CONTINUOUS
 10
13.6086870924
 20
2.4465537903
 11
13.6086870924
 21
2.4918774918
  0
LINE
  5
350
100
AcDbEntity
  8
0
100
AcDbLine
 62
2
  6
CONTINUOUS
 10
13.6086870924
 20
2.5165781173
 11
13.6086870924
 21
2.6342028907
  0
LINE
  5
351
100
AcDbEntity
  8
0
100
AcDbLine
 62
2
  6
CONTINUOUS
 10
13.5886870813
 20
2.4398033466
 11
13.5886870813
 21
2.4912273132
  0
LINE
  5
352
100
AcDbEntity
  8
0
100
AcDbLine
 62
2
  6
CONTINUOUS
 10
13.5886870813
 20
2.5391840845
 11
13.5886870813
 21
2.5454298327
  0
LINE
  5
353
100
AcDbEntity
  8
0
100
AcDbLine
 62
2
  6
CONTINUOUS
 10
13.5886870813
 20
2.5862063472
 11
13.5886870813
 21
2.6409533343
  0
LINE
  5
354
100
AcDbEntity
  8
0
100
AcDbLine
 62
2
  6
CONTINUOUS
 10
13.5686870702
 20
2.4334702189
 11
13.5686870702
 21
2.4912273132
  0
LINE
  5
355
100
AcDbEntity
  8
0
100
AcDbLine
 62
2
  6
CONTINUOUS
 10
13.5686870702
 20
2.5906587765
 11
13.5686870702
 21
2.647286462
  0
LINE
  5
356
100
AcDbEntity
  8
0
100
AcDbLine
 62
2
  6
CONTINUOUS
 10
13.5486870591
 20
2.4278968124
 11
13.5486870591
 21
2.4937461006
  0
LINE
  5
357
100
AcDbEntity
  8
0
100
AcDbLine
 62
2
  6
CONTINUOUS
 10
13.5486870591
 20
2.5920323691
 11
13.5486870591
 21
2.6528598686
  0
LINE
  5
358
100
AcDbEntity
  8
0
100
AcDbLine
 62
2
  6
CONTINUOUS
 10
13.528687048
 20
2.4225427674
 11
13.528687048
 21
2.5270426993
  0
LINE
  5
359
100
AcDbEntity
  8
0
100
AcDbLine
 62
2
  6
CONTINUOUS
 10
13.528687048
 20
2.5505166259
 11
13.528687048
 21
2.5668657091
  0
LINE
  5
35A
100
AcDbEntity
  8
0
100
AcDbLine
 62
2
  6
CONTINUOUS
 10
13.528687048
 20
2.5920323691
 11
13.528687048
 21
2.6582139136
  0
LINE
  5
35B
100
AcDbEntity
  8
0
100
AcDbLine
 62
2
  6
CONTINUOUS
 10
13.5086870369
 20
2.4177306791
 11
13.5086870369
 21
2.4912273132
  0
LINE
  5
35C
100
AcDbEntity
  8
0
100
AcDbLine
 62
2
  6
CONTINUOUS
 10
13.5086870369
 20
2.5159553269
 11
13.5086870369
 21
2.5306043351
  0
LINE
  5
35D
100
AcDbEntity
  8
0
100
AcDbLine
 62
2
  6
CONTINUOUS
 10
13.5086870369
 20
2.5496073456
 11
13.5086870369
 21
2.5672823554
  0
LINE
  5
35E
100
AcDbEntity
  8
0
100
AcDbLine
 62
2
  6
CONTINUOUS
 10
13.5086870369
 20
2.5920323691
 11
13.5086870369
 21
2.6630260019
  0
LINE
  5
35F
100
AcDbEntity
  8
0
100
AcDbLine
 62
2
  6
CONTINUOUS
 10
13.4886870258
 20
2.4131795254
 11
13.4886870258
 21
2.4912273132
  0
LINE
  5
360
100
AcDbEntity
  8
0
100
AcDbLine
 62
2
  6
CONTINUOUS
 10
13.4886870258
 20
2.5159553269
 11
13.4886870258
 21
2.5306043351
  0
LINE
  5
361
100
AcDbEntity
  8
0
100
AcDbLine
 62
2
  6
CONTINUOUS
 10
13.4886870258
 20
2.5496073456
 11
13.4886870258
 21
2.5672823554
  0
LINE
  5
362
100
AcDbEntity
  8
0
100
AcDbLine
 62
2
  6
CONTINUOUS
 10
13.4886870258
 20
2.5920323691
 11
13.4886870258
 21
2.6675771555
  0
LINE
  5
363
100
AcDbEntity
  8
0
100
AcDbLine
 62
2
  6
CONTINUOUS
 10
13.4686870147
 20
2.4088819672
 11
13.4686870147
 21
2.4912273132
  0
LINE
  5
364
100
AcDbEntity
  8
0
100
AcDbLine
 62
2
  6
CONTINUOUS
 10
13.4686870147
 20
2.5920323691
 11
13.4686870147
 21
2.6718747138
  0
LINE
  5
365
100
AcDbEntity
  8
0
100
AcDbLine
 62
2
  6
CONTINUOUS
 10
13.4486870037
 20
2.4050092072
 11
13.4486870037
 21
2.4912273132
  0
LINE
  5
366
100
AcDbEntity
  8
0
100
AcDbLine
 62
2
  6
CONTINUOUS
 10
13.4486870037
 20
2.5920323691
 11
13.4486870037
 21
2.6757474738
  0
LINE
  5
367
100
AcDbEntity
  8
0
100
AcDbLine
 62
2
  6
CONTINUOUS
 10
13.4286869926
 20
2.4011364471
 11
13.4286869926
 21
2.4912273132
  0
LINE
  5
368
100
AcDbEntity
  8
0
100
AcDbLine
 62
2
  6
CONTINUOUS
 10
13.4286869926
 20
2.5920323691
 11
13.4286869926
 21
2.6796202339
  0
LINE
  5
369
100
AcDbEntity
  8
0
100
AcDbLine
 62
2
  6
CONTINUOUS
 10
13.4086869815
 20
2.3980226662
 11
13.4086869815
 21
2.4912273132
  0
LINE
  5
36A
100
AcDbEntity
  8
0
100
AcDbLine
 62
2
  6
CONTINUOUS
 10
13.4086869815
 20
2.515977327
 11
13.4086869815
 21
2.5672823554
  0
LINE
  5
36B
100
AcDbEntity
  8
0
100
AcDbLine
 62
2
  6
CONTINUOUS
 10
13.4086869815
 20
2.5920323691
 11
13.4086869815
 21
2.6827340148
  0
LINE
  5
36C
100
AcDbEntity
  8
0
100
AcDbLine
 62
2
  6
CONTINUOUS
 10
13.3886869704
 20
2.3950052774
 11
13.3886869704
 21
2.6857514036
  0
LINE
  5
36D
100
AcDbEntity
  8
0
100
AcDbLine
 62
2
  6
CONTINUOUS
 10
13.3686869593
 20
2.3919878885
 11
13.3686869593
 21
2.4912273132
  0
LINE
  5
36E
100
AcDbEntity
  8
0
100
AcDbLine
 62
2
  6
CONTINUOUS
 10
13.3686869593
 20
2.5291773343
 11
13.3686869593
 21
2.5540823481
  0
LINE
  5
36F
100
AcDbEntity
  8
0
100
AcDbLine
 62
2
  6
CONTINUOUS
 10
13.3686869593
 20
2.5920323691
 11
13.3686869593
 21
2.6887687924
  0
LINE
  5
370
100
AcDbEntity
  8
0
100
AcDbLine
 62
2
  6
CONTINUOUS
 10
13.3486869482
 20
2.3889704997
 11
13.3486869482
 21
2.4912273132
  0
LINE
  5
371
100
AcDbEntity
  8
0
100
AcDbLine
 62
2
  6
CONTINUOUS
 10
13.3486869482
 20
2.5291773343
 11
13.3486869482
 21
2.5540823481
  0
LINE
  5
372
100
AcDbEntity
  8
0
100
AcDbLine
 62
2
  6
CONTINUOUS
 10
13.3486869482
 20
2.5920323691
 11
13.3486869482
 21
2.6917861813
  0
LINE
  5
373
100
AcDbEntity
  8
0
100
AcDbLine
 62
2
  6
CONTINUOUS
 10
13.3286869371
 20
2.3859531109
 11
13.3286869371
 21
2.4912273132
  0
LINE
  5
374
100
AcDbEntity
  8
0
100
AcDbLine
 62
2
  6
CONTINUOUS
 10
13.3286869371
 20
2.5291773343
 11
13.3286869371
 21
2.5540823481
  0
LINE
  5
375
100
AcDbEntity
  8
0
100
AcDbLine
 62
2
  6
CONTINUOUS
 10
13.3286869371
 20
2.5920323691
 11
13.3286869371
 21
2.6948035701
  0
LINE
  5
376
100
AcDbEntity
  8
0
100
AcDbLine
 62
2
  6
CONTINUOUS
 10
13.308686926
 20
2.3833355437
 11
13.308686926
 21
2.4912273132
  0
LINE
  5
377
100
AcDbEntity
  8
0
100
AcDbLine
 62
2
  6
CONTINUOUS
 10
13.308686926
 20
2.515977327
 11
13.308686926
 21
2.5672823554
  0
LINE
  5
378
100
AcDbEntity
  8
0
100
AcDbLine
 62
2
  6
CONTINUOUS
 10
13.308686926
 20
2.5920323691
 11
13.308686926
 21
2.6974211373
  0
LINE
  5
379
100
AcDbEntity
  8
0
100
AcDbLine
 62
2
  6
CONTINUOUS
 10
13.2886869149
 20
2.3812612684
 11
13.2886869149
 21
2.4912273132
  0
LINE
  5
37A
100
AcDbEntity
  8
0
100
AcDbLine
 62
2
  6
CONTINUOUS
 10
13.2886869149
 20
2.515977327
 11
13.2886869149
 21
2.5324773361
  0
LINE
  5
37B
100
AcDbEntity
  8
0
100
AcDbLine
 62
2
  6
CONTINUOUS
 10
13.2886869149
 20
2.5507823463
 11
13.2886869149
 21
2.5672823554
  0
LINE
  5
37C
100
AcDbEntity
  8
0
100
AcDbLine
 62
2
  6
CONTINUOUS
 10
13.2886869149
 20
2.5920323691
 11
13.2886869149
 21
2.6994954125
  0
LINE
  5
37D
100
AcDbEntity
  8
0
100
AcDbLine
 62
2
  6
CONTINUOUS
 10
13.2686869038
 20
2.3791869932
 11
13.2686869038
 21
2.4912273132
  0
LINE
  5
37E
100
AcDbEntity
  8
0
100
AcDbLine
 62
2
  6
CONTINUOUS
 10
13.2686869038
 20
2.515977327
 11
13.2686869038
 21
2.5324773361
  0
LINE
  5
37F
100
AcDbEntity
  8
0
100
AcDbLine
 62
2
  6
CONTINUOUS
 10
13.2686869038
 20
2.5507823463
 11
13.2686869038
 21
2.5672823554
  0
LINE
  5
380
100
AcDbEntity
  8
0
100
AcDbLine
 62
2
  6
CONTINUOUS
 10
13.2686869038
 20
2.5920323691
 11
13.2686869038
 21
2.7015696878
  0
LINE
  5
381
100
AcDbEntity
  8
0
100
AcDbLine
 62
2
  6
CONTINUOUS
 10
13.2486868927
 20
2.377112718
 11
13.2486868927
 21
2.4912273132
  0
LINE
  5
382
100
AcDbEntity
  8
0
100
AcDbLine
 62
2
  6
CONTINUOUS
 10
13.2486868927
 20
2.5920323691
 11
13.2486868927
 21
2.703643963
  0
LINE
  5
383
100
AcDbEntity
  8
0
100
AcDbLine
 62
2
  6
CONTINUOUS
 10
13.2286868817
 20
2.3750384428
 11
13.2286868817
 21
2.4912273132
  0
LINE
  5
384
100
AcDbEntity
  8
0
100
AcDbLine
 62
2
  6
CONTINUOUS
 10
13.2286868817
 20
2.5920323691
 11
13.2286868817
 21
2.7057182382
  0
LINE
  5
385
100
AcDbEntity
  8
0
100
AcDbLine
 62
2
  6
CONTINUOUS
 10
13.2086868706
 20
2.3729641676
 11
13.2086868706
 21
2.4912273132
  0
LINE
  5
386
100
AcDbEntity
  8
0
100
AcDbLine
 62
2
  6
CONTINUOUS
 10
13.2086868706
 20
2.5920323691
 11
13.2086868706
 21
2.7077925134
  0
LINE
  5
387
100
AcDbEntity
  8
0
100
AcDbLine
 62
2
  6
CONTINUOUS
 10
13.1886868595
 20
2.3712344456
 11
13.1886868595
 21
2.4912273132
  0
LINE
  5
388
100
AcDbEntity
  8
0
100
AcDbLine
 62
2
  6
CONTINUOUS
 10
13.1886868595
 20
2.515977327
 11
13.1886868595
 21
2.5672823554
  0
LINE
  5
389
100
AcDbEntity
  8
0
100
AcDbLine
 62
2
  6
CONTINUOUS
 10
13.1886868595
 20
2.5920323691
 11
13.1886868595
 21
2.7095222354
  0
LINE
  5
38A
100
AcDbEntity
  8
0
100
AcDbLine
 62
2
  6
CONTINUOUS
 10
13.1686868484
 20
2.3699682418
 11
13.1686868484
 21
2.4912273132
  0
LINE
  5
38B
100
AcDbEntity
  8
0
100
AcDbLine
 62
2
  6
CONTINUOUS
 10
13.1686868484
 20
2.515977327
 11
13.1686868484
 21
2.5672823554
  0
LINE
  5
38C
100
AcDbEntity
  8
0
100
AcDbLine
 62
2
  6
CONTINUOUS
 10
13.1686868484
 20
2.5920323691
 11
13.1686868484
 21
2.7107884392
  0
LINE
  5
38D
100
AcDbEntity
  8
0
100
AcDbLine
 62
2
  6
CONTINUOUS
 10
13.1486868373
 20
2.3687020381
 11
13.1486868373
 21
2.7120546429
  0
LINE
  5
38E
100
AcDbEntity
  8
0
100
AcDbLine
 62
2
  6
CONTINUOUS
 10
13.1286868262
 20
2.3674358343
 11
13.1286868262
 21
2.5672823554
  0
LINE
  5
38F
100
AcDbEntity
  8
0
100
AcDbLine
 62
2
  6
CONTINUOUS
 10
13.1286868262
 20
2.5920323691
 11
13.1286868262
 21
2.7133208466
  0
LINE
  5
390
100
AcDbEntity
  8
0
100
AcDbLine
 62
2
  6
CONTINUOUS
 10
13.1086868151
 20
2.3661696306
 11
13.1086868151
 21
2.4912273132
  0
LINE
  5
391
100
AcDbEntity
  8
0
100
AcDbLine
 62
2
  6
CONTINUOUS
 10
13.1086868151
 20
2.5920323691
 11
13.1086868151
 21
2.7145870504
  0
LINE
  5
392
100
AcDbEntity
  8
0
100
AcDbLine
 62
2
  6
CONTINUOUS
 10
13.088686804
 20
2.3649034269
 11
13.088686804
 21
2.4912273132
  0
LINE
  5
393
100
AcDbEntity
  8
0
100
AcDbLine
 62
2
  6
CONTINUOUS
 10
13.088686804
 20
2.5920323691
 11
13.088686804
 21
2.7158532541
  0
LINE
  5
394
100
AcDbEntity
  8
0
100
AcDbLine
 62
2
  6
CONTINUOUS
 10
13.0686867929
 20
2.3636739922
 11
13.0686867929
 21
2.4912273132
  0
LINE
  5
395
100
AcDbEntity
  8
0
100
AcDbLine
 62
2
  6
CONTINUOUS
 10
13.0686867929
 20
2.5475272398
 11
13.0686867929
 21
2.5672823554
  0
LINE
  5
396
100
AcDbEntity
  8
0
100
AcDbLine
 62
2
  6
CONTINUOUS
 10
13.0686867929
 20
2.5920323691
 11
13.0686867929
 21
2.7170826887
  0
LINE
  5
397
100
AcDbEntity
  8
0
100
AcDbLine
 62
2
  6
CONTINUOUS
 10
13.0486867818
 20
2.363143203
 11
13.0486867818
 21
2.4912273132
  0
LINE
  5
398
100
AcDbEntity
  8
0
100
AcDbLine
 62
2
  6
CONTINUOUS
 10
13.0486867818
 20
2.5666100882
 11
13.0486867818
 21
2.717613478
  0
LINE
  5
399
100
AcDbEntity
  8
0
100
AcDbLine
 62
2
  6
CONTINUOUS
 10
13.0286867707
 20
2.3626124138
 11
13.0286867707
 21
2.50359263
  0
LINE
  5
39A
100
AcDbEntity
  8
0
100
AcDbLine
 62
2
  6
CONTINUOUS
 10
13.0286867707
 20
2.5856929366
 11
13.0286867707
 21
2.7181442672
  0
LINE
  5
39B
100
AcDbEntity
  8
0
100
AcDbLine
 62
2
  6
CONTINUOUS
 10
13.0086867596
 20
2.3620816246
 11
13.0086867596
 21
2.5226754472
  0
LINE
  5
39C
100
AcDbEntity
  8
0
100
AcDbLine
 62
2
  6
CONTINUOUS
 10
13.0086867596
 20
2.5920323691
 11
13.0086867596
 21
2.7186750564
  0
LINE
  5
39D
100
AcDbEntity
  8
0
100
AcDbLine
 62
2
  6
CONTINUOUS
 10
12.9886867486
 20
2.3615508354
 11
12.9886867486
 21
2.4912273132
  0
LINE
  5
39E
100
AcDbEntity
  8
0
100
AcDbLine
 62
2
  6
CONTINUOUS
 10
12.9886867486
 20
2.515977327
 11
12.9886867486
 21
2.5417582644
  0
LINE
  5
39F
100
AcDbEntity
  8
0
100
AcDbLine
 62
2
  6
CONTINUOUS
 10
12.9886867486
 20
2.5920323691
 11
12.9886867486
 21
2.7192058456
  0
LINE
  5
3A0
100
AcDbEntity
  8
0
100
AcDbLine
 62
2
  6
CONTINUOUS
 10
12.9686867375
 20
2.3610200462
 11
12.9686867375
 21
2.4912273132
  0
LINE
  5
3A1
100
AcDbEntity
  8
0
100
AcDbLine
 62
2
  6
CONTINUOUS
 10
12.9686867375
 20
2.5920323691
 11
12.9686867375
 21
2.7197366348
  0
LINE
  5
3A2
100
AcDbEntity
  8
0
100
AcDbLine
 62
2
  6
CONTINUOUS
 10
12.9486867264
 20
2.360489257
 11
12.9486867264
 21
2.4912273132
  0
LINE
  5
3A3
100
AcDbEntity
  8
0
100
AcDbLine
 62
2
  6
CONTINUOUS
 10
12.9486867264
 20
2.5920323691
 11
12.9486867264
 21
2.720267424
  0
LINE
  5
3A4
100
AcDbEntity
  8
0
100
AcDbLine
 62
2
  6
CONTINUOUS
 10
12.9286867153
 20
2.3602836008
 11
12.9286867153
 21
2.4912273132
  0
LINE
  5
3A5
100
AcDbEntity
  8
0
100
AcDbLine
 62
2
  6
CONTINUOUS
 10
12.9286867153
 20
2.515977327
 11
12.9286867153
 21
2.5672823554
  0
LINE
  5
3A6
100
AcDbEntity
  8
0
100
AcDbLine
 62
2
  6
CONTINUOUS
 10
12.9286867153
 20
2.5920323691
 11
12.9286867153
 21
2.7204730802
  0
LINE
  5
3A7
100
AcDbEntity
  8
0
100
AcDbLine
 62
2
  6
CONTINUOUS
 10
12.9086867042
 20
2.3604597639
 11
12.9086867042
 21
2.7202969171
  0
LINE
  5
3A8
100
AcDbEntity
  8
0
100
AcDbLine
 62
2
  6
CONTINUOUS
 10
12.8886866931
 20
2.360635927
 11
12.8886866931
 21
2.5672823554
  0
LINE
  5
3A9
100
AcDbEntity
  8
0
100
AcDbLine
 62
2
  6
CONTINUOUS
 10
12.8886866931
 20
2.5920323691
 11
12.8886866931
 21
2.720120754
  0
LINE
  5
3AA
100
AcDbEntity
  8
0
100
AcDbLine
 62
2
  6
CONTINUOUS
 10
12.868686682
 20
2.3608120901
 11
12.868686682
 21
2.491232357
  0
LINE
  5
3AB
100
AcDbEntity
  8
0
100
AcDbLine
 62
2
  6
CONTINUOUS
 10
12.868686682
 20
2.5920323691
 11
12.868686682
 21
2.7199445909
  0
LINE
  5
3AC
100
AcDbEntity
  8
0
100
AcDbLine
 62
2
  6
CONTINUOUS
 10
12.8486866709
 20
2.3609882532
 11
12.8486866709
 21
2.4912273132
  0
LINE
  5
3AD
100
AcDbEntity
  8
0
100
AcDbLine
 62
2
  6
CONTINUOUS
 10
12.8486866709
 20
2.5920323691
 11
12.8486866709
 21
2.7197684278
  0
LINE
  5
3AE
100
AcDbEntity
  8
0
100
AcDbLine
 62
2
  6
CONTINUOUS
 10
12.8286866598
 20
2.3611644163
 11
12.8286866598
 21
2.4912273132
  0
LINE
  5
3AF
100
AcDbEntity
  8
0
100
AcDbLine
 62
2
  6
CONTINUOUS
 10
12.8286866598
 20
2.5396527025
 11
12.8286866598
 21
2.5672823554
  0
LINE
  5
3B0
100
AcDbEntity
  8
0
100
AcDbLine
 62
2
  6
CONTINUOUS
 10
12.8286866598
 20
2.5920323691
 11
12.8286866598
 21
2.7195922647
  0
LINE
  5
3B1
100
AcDbEntity
  8
0
100
AcDbLine
 62
2
  6
CONTINUOUS
 10
12.8086866487
 20
2.3613405794
 11
12.8086866487
 21
2.4912273132
  0
LINE
  5
3B2
100
AcDbEntity
  8
0
100
AcDbLine
 62
2
  6
CONTINUOUS
 10
12.8086866487
 20
2.5587355508
 11
12.8086866487
 21
2.7194161016
  0
LINE
  5
3B3
100
AcDbEntity
  8
0
100
AcDbLine
 62
2
  6
CONTINUOUS
 10
12.7886866376
 20
2.3621089572
 11
12.7886866376
 21
2.4957181055
  0
LINE
  5
3B4
100
AcDbEntity
  8
0
100
AcDbLine
 62
2
  6
CONTINUOUS
 10
12.7886866376
 20
2.5778183992
 11
12.7886866376
 21
2.7186477238
  0
LINE
  5
3B5
100
AcDbEntity
  8
0
100
AcDbLine
 62
2
  6
CONTINUOUS
 10
12.7686866266
 20
2.3630013935
 11
12.7686866266
 21
2.5148009227
  0
LINE
  5
3B6
100
AcDbEntity
  8
0
100
AcDbLine
 62
2
  6
CONTINUOUS
 10
12.7686866266
 20
2.5920323691
 11
12.7686866266
 21
2.7177552874
  0
LINE
  5
3B7
100
AcDbEntity
  8
0
100
AcDbLine
 62
2
  6
CONTINUOUS
 10
12.7486866155
 20
2.3638938299
 11
12.7486866155
 21
2.4913263218
  0
LINE
  5
3B8
100
AcDbEntity
  8
0
100
AcDbLine
 62
2
  6
CONTINUOUS
 10
12.7486866155
 20
2.5158783184
 11
12.7486866155
 21
2.5338837399
  0
LINE
  5
3B9
100
AcDbEntity
  8
0
100
AcDbLine
 62
2
  6
CONTINUOUS
 10
12.7486866155
 20
2.5920323691
 11
12.7486866155
 21
2.7168628511
  0
LINE
  5
3BA
100
AcDbEntity
  8
0
100
AcDbLine
 62
2
  6
CONTINUOUS
 10
12.7286866044
 20
2.3647862663
 11
12.7286866044
 21
2.4912273132
  0
LINE
  5
3BB
100
AcDbEntity
  8
0
100
AcDbLine
 62
2
  6
CONTINUOUS
 10
12.7286866044
 20
2.515977327
 11
12.7286866044
 21
2.5527601554
  0
LINE
  5
3BC
100
AcDbEntity
  8
0
100
AcDbLine
 62
2
  6
CONTINUOUS
 10
12.7286866044
 20
2.5920323691
 11
12.7286866044
 21
2.7159704147
  0
LINE
  5
3BD
100
AcDbEntity
  8
0
100
AcDbLine
 62
2
  6
CONTINUOUS
 10
12.7086865933
 20
2.3656787026
 11
12.7086865933
 21
2.4912273132
  0
LINE
  5
3BE
100
AcDbEntity
  8
0
100
AcDbLine
 62
2
  6
CONTINUOUS
 10
12.7086865933
 20
2.5920323691
 11
12.7086865933
 21
2.7150779784
  0
LINE
  5
3BF
100
AcDbEntity
  8
0
100
AcDbLine
 62
2
  6
CONTINUOUS
 10
12.6886865822
 20
2.366571139
 11
12.6886865822
 21
2.4912273132
  0
LINE
  5
3C0
100
AcDbEntity
  8
0
100
AcDbLine
 62
2
  6
CONTINUOUS
 10
12.6886865822
 20
2.515977327
 11
12.6886865822
 21
2.5672823554
  0
LINE
  5
3C1
100
AcDbEntity
  8
0
100
AcDbLine
 62
2
  6
CONTINUOUS
 10
12.6886865822
 20
2.5920323691
 11
12.6886865822
 21
2.714185542
  0
LINE
  5
3C2
100
AcDbEntity
  8
0
100
AcDbLine
 62
2
  6
CONTINUOUS
 10
12.6686865711
 20
2.3677104027
 11
12.6686865711
 21
2.7130462783
  0
LINE
  5
3C3
100
AcDbEntity
  8
0
100
AcDbLine
 62
2
  6
CONTINUOUS
 10
12.64868656
 20
2.3693682721
 11
12.64868656
 21
2.7113884089
  0
LINE
  5
3C4
100
AcDbEntity
  8
0
100
AcDbLine
 62
2
  6
CONTINUOUS
 10
12.6286865489
 20
2.3710261415
 11
12.6286865489
 21
2.4912273132
  0
LINE
  5
3C5
100
AcDbEntity
  8
0
100
AcDbLine
 62
2
  6
CONTINUOUS
 10
12.6286865489
 20
2.515977327
 11
12.6286865489
 21
2.7097305395
  0
LINE
  5
3C6
100
AcDbEntity
  8
0
100
AcDbLine
 62
2
  6
CONTINUOUS
 10
12.6086865378
 20
2.372684011
 11
12.6086865378
 21
2.4912273132
  0
LINE
  5
3C7
100
AcDbEntity
  8
0
100
AcDbLine
 62
2
  6
CONTINUOUS
 10
12.6086865378
 20
2.5351122279
 11
12.6086865378
 21
2.70807267
  0
LINE
  5
3C8
100
AcDbEntity
  8
0
100
AcDbLine
 62
2
  6
CONTINUOUS
 10
12.5886865267
 20
2.3743418804
 11
12.5886865267
 21
2.4912273132
  0
LINE
  5
3C9
100
AcDbEntity
  8
0
100
AcDbLine
 62
2
  6
CONTINUOUS
 10
12.5886865267
 20
2.5660172622
 11
12.5886865267
 21
2.7064148006
  0
LINE
  5
3CA
100
AcDbEntity
  8
0
100
AcDbLine
 62
2
  6
CONTINUOUS
 10
12.5686865156
 20
2.3759997498
 11
12.5686865156
 21
2.4912273132
  0
LINE
  5
3CB
100
AcDbEntity
  8
0
100
AcDbLine
 62
2
  6
CONTINUOUS
 10
12.5686865156
 20
2.5920323691
 11
12.5686865156
 21
2.7047569312
  0
LINE
  5
3CC
100
AcDbEntity
  8
0
100
AcDbLine
 62
2
  6
CONTINUOUS
 10
12.5486865045
 20
2.3777575277
 11
12.5486865045
 21
2.4912273132
  0
LINE
  5
3CD
100
AcDbEntity
  8
0
100
AcDbLine
 62
2
  6
CONTINUOUS
 10
12.5486865045
 20
2.515977327
 11
12.5486865045
 21
2.5275118824
  0
LINE
  5
3CE
100
AcDbEntity
  8
0
100
AcDbLine
 62
2
  6
CONTINUOUS
 10
12.5486865045
 20
2.5920323691
 11
12.5486865045
 21
2.7029991533
  0
LINE
  5
3CF
100
AcDbEntity
  8
0
100
AcDbLine
 62
2
  6
CONTINUOUS
 10
12.5286864935
 20
2.3802813811
 11
12.5286864935
 21
2.5296213345
  0
LINE
  5
3D0
100
AcDbEntity
  8
0
100
AcDbLine
 62
2
  6
CONTINUOUS
 10
12.5286864935
 20
2.5505713461
 11
12.5286864935
 21
2.5667383551
  0
LINE
  5
3D1
100
AcDbEntity
  8
0
100
AcDbLine
 62
2
  6
CONTINUOUS
 10
12.5286864935
 20
2.5920323691
 11
12.5286864935
 21
2.7004752999
  0
LINE
  5
3D2
100
AcDbEntity
  8
0
100
AcDbLine
 62
2
  6
CONTINUOUS
 10
12.5086864824
 20
2.3828052346
 11
12.5086864824
 21
2.4912273132
  0
LINE
  5
3D3
100
AcDbEntity
  8
0
100
AcDbLine
 62
2
  6
CONTINUOUS
 10
12.5086864824
 20
2.515977327
 11
12.5086864824
 21
2.5279667721
  0
LINE
  5
3D4
100
AcDbEntity
  8
0
100
AcDbLine
 62
2
  6
CONTINUOUS
 10
12.5086864824
 20
2.5868602074
 11
12.5086864824
 21
2.6979514464
  0
LINE
  5
3D5
100
AcDbEntity
  8
0
100
AcDbLine
 62
2
  6
CONTINUOUS
 10
12.4886864713
 20
2.385329088
 11
12.4886864713
 21
2.4912273132
  0
LINE
  5
3D6
100
AcDbEntity
  8
0
100
AcDbLine
 62
2
  6
CONTINUOUS
 10
12.4886864713
 20
2.5553401045
 11
12.4886864713
 21
2.695427593
  0
LINE
  5
3D7
100
AcDbEntity
  8
0
100
AcDbLine
 62
2
  6
CONTINUOUS
 10
12.4686864602
 20
2.3878529415
 11
12.4686864602
 21
2.4912273132
  0
LINE
  5
3D8
100
AcDbEntity
  8
0
100
AcDbLine
 62
2
  6
CONTINUOUS
 10
12.4686864602
 20
2.5238200015
 11
12.4686864602
 21
2.6929037395
  0
LINE
  5
3D9
100
AcDbEntity
  8
0
100
AcDbLine
 62
2
  6
CONTINUOUS
 10
12.4486864491
 20
2.390376795
 11
12.4486864491
 21
2.4912273132
  0
LINE
  5
3DA
100
AcDbEntity
  8
0
100
AcDbLine
 62
2
  6
CONTINUOUS
 10
12.4486864491
 20
2.515977327
 11
12.4486864491
 21
2.690379886
  0
LINE
  5
3DB
100
AcDbEntity
  8
0
100
AcDbLine
 62
2
  6
CONTINUOUS
 10
12.428686438
 20
2.3931794042
 11
12.428686438
 21
2.6875772768
  0
LINE
  5
3DC
100
AcDbEntity
  8
0
100
AcDbLine
 62
2
  6
CONTINUOUS
 10
12.4086864269
 20
2.3964643301
 11
12.4086864269
 21
2.5013773986
  0
LINE
  5
3DD
100
AcDbEntity
  8
0
100
AcDbLine
 62
2
  6
CONTINUOUS
 10
12.4086864269
 20
2.5325739971
 11
12.4086864269
 21
2.5537224311
  0
LINE
  5
3DE
100
AcDbEntity
  8
0
100
AcDbLine
 62
2
  6
CONTINUOUS
 10
12.4086864269
 20
2.5791473398
 11
12.4086864269
 21
2.6842923509
  0
LINE
  5
3DF
100
AcDbEntity
  8
0
100
AcDbLine
 62
2
  6
CONTINUOUS
 10
12.3886864158
 20
2.399749256
 11
12.3886864158
 21
2.4921022658
  0
LINE
  5
3E0
100
AcDbEntity
  8
0
100
AcDbLine
 62
2
  6
CONTINUOUS
 10
12.3886864158
 20
2.5895929958
 11
12.3886864158
 21
2.681007425
  0
LINE
  5
3E1
100
AcDbEntity
  8
0
100
AcDbLine
 62
2
  6
CONTINUOUS
 10
12.3686864047
 20
2.403451877
 11
12.3686864047
 21
2.4912273132
  0
LINE
  5
3E2
100
AcDbEntity
  8
0
100
AcDbLine
 62
2
  6
CONTINUOUS
 10
12.3686864047
 20
2.5920323691
 11
12.3686864047
 21
2.677304804
  0
LINE
  5
3E3
100
AcDbEntity
  8
0
100
AcDbLine
 62
2
  6
CONTINUOUS
 10
12.3486863936
 20
2.407324637
 11
12.3486863936
 21
2.4912273132
  0
LINE
  5
3E4
100
AcDbEntity
  8
0
100
AcDbLine
 62
2
  6
CONTINUOUS
 10
12.3486863936
 20
2.5920323691
 11
12.3486863936
 21
2.673432044
  0
LINE
  5
3E5
100
AcDbEntity
  8
0
100
AcDbLine
 62
2
  6
CONTINUOUS
 10
12.3286863825
 20
2.4113493968
 11
12.3286863825
 21
2.4912273132
  0
LINE
  5
3E6
100
AcDbEntity
  8
0
100
AcDbLine
 62
2
  6
CONTINUOUS
 10
12.3286863825
 20
2.515977327
 11
12.3286863825
 21
2.5333023366
  0
LINE
  5
3E7
100
AcDbEntity
  8
0
100
AcDbLine
 62
2
  6
CONTINUOUS
 10
12.3286863825
 20
2.5499573458
 11
12.3286863825
 21
2.5672823554
  0
LINE
  5
3E8
100
AcDbEntity
  8
0
100
AcDbLine
 62
2
  6
CONTINUOUS
 10
12.3286863825
 20
2.5920323691
 11
12.3286863825
 21
2.6694072842
  0
LINE
  5
3E9
100
AcDbEntity
  8
0
100
AcDbLine
 62
2
  6
CONTINUOUS
 10
12.3086863715
 20
2.4159005505
 11
12.3086863715
 21
2.4912273132
  0
LINE
  5
3EA
100
AcDbEntity
  8
0
100
AcDbLine
 62
2
  6
CONTINUOUS
 10
12.3086863715
 20
2.515977327
 11
12.3086863715
 21
2.5333023366
  0
LINE
  5
3EB
100
AcDbEntity
  8
0
100
AcDbLine
 62
2
  6
CONTINUOUS
 10
12.3086863715
 20
2.5499573458
 11
12.3086863715
 21
2.5672823554
  0
LINE
  5
3EC
100
AcDbEntity
  8
0
100
AcDbLine
 62
2
  6
CONTINUOUS
 10
12.3086863715
 20
2.5920323691
 11
12.3086863715
 21
2.6648561305
  0
LINE
  5
3ED
100
AcDbEntity
  8
0
100
AcDbLine
 62
2
  6
CONTINUOUS
 10
12.2886863604
 20
2.4204517041
 11
12.2886863604
 21
2.4912273132
  0
LINE
  5
3EE
100
AcDbEntity
  8
0
100
AcDbLine
 62
2
  6
CONTINUOUS
 10
12.2886863604
 20
2.5920323691
 11
12.2886863604
 21
2.6603049769
  0
LINE
  5
3EF
100
AcDbEntity
  8
0
100
AcDbLine
 62
2
  6
CONTINUOUS
 10
12.2686863493
 20
2.4257438218
 11
12.2686863493
 21
2.4912273132
  0
LINE
  5
3F0
100
AcDbEntity
  8
0
100
AcDbLine
 62
2
  6
CONTINUOUS
 10
12.2686863493
 20
2.5920323691
 11
12.2686863493
 21
2.6550128592
  0
LINE
  5
3F1
100
AcDbEntity
  8
0
100
AcDbLine
 62
2
  6
CONTINUOUS
 10
12.2486863382
 20
2.4310978667
 11
12.2486863382
 21
2.4912273132
  0
LINE
  5
3F2
100
AcDbEntity
  8
0
100
AcDbLine
 62
2
  6
CONTINUOUS
 10
12.2486863382
 20
2.5920323691
 11
12.2486863382
 21
2.6496588142
  0
LINE
  5
3F3
100
AcDbEntity
  8
0
100
AcDbLine
 62
2
  6
CONTINUOUS
 10
12.2286863271
 20
2.4372566433
 11
12.2286863271
 21
2.4912273132
  0
LINE
  5
3F4
100
AcDbEntity
  8
0
100
AcDbLine
 62
2
  6
CONTINUOUS
 10
12.2286863271
 20
2.515977327
 11
12.2286863271
 21
2.5672823554
  0
LINE
  5
3F5
100
AcDbEntity
  8
0
100
AcDbLine
 62
2
  6
CONTINUOUS
 10
12.2286863271
 20
2.5920323691
 11
12.2286863271
 21
2.6435000377
  0
LINE
  5
3F6
100
AcDbEntity
  8
0
100
AcDbLine
 62
2
  6
CONTINUOUS
 10
12.208686316
 20
2.443589771
 11
12.208686316
 21
2.4912273132
  0
LINE
  5
3F7
100
AcDbEntity
  8
0
100
AcDbLine
 62
2
  6
CONTINUOUS
 10
12.208686316
 20
2.515977327
 11
12.208686316
 21
2.5672823554
  0
LINE
  5
3F8
100
AcDbEntity
  8
0
100
AcDbLine
 62
2
  6
CONTINUOUS
 10
12.208686316
 20
2.5920323691
 11
12.208686316
 21
2.63716691
  0
LINE
  5
3F9
100
AcDbEntity
  8
0
100
AcDbLine
 62
2
  6
CONTINUOUS
 10
12.1886863049
 20
2.4510806436
 11
12.1886863049
 21
2.6296760373
  0
LINE
  5
3FA
100
AcDbEntity
  8
0
100
AcDbLine
 62
2
  6
CONTINUOUS
 10
12.1686862938
 20
2.4591016523
 11
12.1686862938
 21
2.6216550287
  0
LINE
  5
3FB
100
AcDbEntity
  8
0
100
AcDbLine
 62
2
  6
CONTINUOUS
 10
12.1486862827
 20
2.468314272
 11
12.1486862827
 21
2.612442409
  0
LINE
  5
3FC
100
AcDbEntity
  8
0
100
AcDbLine
 62
2
  6
CONTINUOUS
 10
12.1286862716
 20
2.4794932339
 11
12.1286862716
 21
2.601263447
  0
LINE
  5
3FD
100
AcDbEntity
  8
0
100
AcDbLine
 62
2
  6
CONTINUOUS
 10
12.1086862605
 20
2.4934150665
 11
12.1086862605
 21
2.5873416144
  0
LINE
  5
3FE
100
AcDbEntity
  8
0
100
AcDbLine
 62
2
  6
CONTINUOUS
 10
12.0886862494
 20
2.5144449553
 11
12.0886862494
 21
2.5663117257
  0
ENDBLK
  5
3FF
100
AcDbEntity
  8
0
  6
BYBLOCK
 62
0
100
AcDbBlockEnd
  0
BLOCK
  5
400
100
AcDbEntity
  8
0
100
AcDbBlockBegin
  2
_FILLED
 70
64
 10
0.0
 20
0.0
  3
_FILLED
  1

  0
SOLID
  5
401
100
AcDbEntity
  8
0
  6
BYBLOCK
 62
0
100
AcDbTrace
 10
0.0
 20
0.0
 11
-1.0
 21
0.1666666667
 12
-1.0
 22
-0.1666666667
 13
-1.0
 23
-0.1666666667
  0
ENDBLK
  5
402
100
AcDbEntity
  8
0
  6
BYBLOCK
 62
0
100
AcDbBlockEnd
  0
BLOCK
  5
403
100
AcDbEntity
  8
DRIVEN_DIMS
100
AcDbBlockBegin
 62
2
  6
CONTINUOUS
  2
*D0
 70
65
 10
0.0
 20
0.0
  3
*D0
  1

  0
MTEXT
  5
404
100
AcDbEntity
  8
DRIVEN_DIMS
100
AcDbMText
 62
2
  6
CONTINUOUS
  7
STANDARD
 71
2
 72
1
 10
7.4517341728
 20
5.918720567
 30
0.0
 11
1.0
 21
0.0
 31
0.0
 44
0.9
  1
37\P[1.46]
 40
0.1
 41
0.6
  0
LINE
  5
405
100
AcDbEntity
  8
DRIVEN_DIMS
100
AcDbLine
 62
2
  6
CONTINUOUS
 10
8.0992922049
 20
6.4399482572
 11
7.5267341728
 21
6.4399482572
  0
LINE
  5
406
100
AcDbEntity
  8
DRIVEN_DIMS
100
AcDbLine
 62
2
  6
CONTINUOUS
 10
8.4375138962
 20
4.9839498018
 11
7.5267341728
 21
4.9839498018
  0
LINE
  5
407
100
AcDbEntity
  8
DRIVEN_DIMS
100
AcDbLine
 62
2
  6
CONTINUOUS
 10
7.6517341728
 20
6.4399482572
 11
7.6517341728
 21
6.018720567
  0
LINE
  5
408
100
AcDbEntity
  8
DRIVEN_DIMS
100
AcDbLine
 62
2
  6
CONTINUOUS
 10
7.6517341728
 20
4.9839498018
 11
7.6517341728
 21
5.568720567
  0
INSERT
  5
409
100
AcDbEntity
  8
DRIVEN_DIMS
100
AcDbBlockReference
 62
2
  6
CONTINUOUS
  2
_FILLED
 10
7.6517341728
 20
6.4399482572
 41
0.1875
 42
0.1875
 43
0.1875
 50
90.0
  0
INSERT
  5
40A
100
AcDbEntity
  8
DRIVEN_DIMS
100
AcDbBlockReference
 62
2
  6
CONTINUOUS
  2
_FILLED
 10
7.6517341728
 20
4.9839498018
 41
0.1875
 42
0.1875
 43
0.1875
 50
270.0
  0
ENDBLK
  5
40B
100
AcDbEntity
  8
0
  6
BYBLOCK
 62
0
100
AcDbBlockEnd
  0
BLOCK
  5
40C
100
AcDbEntity
  8
SCHEME_DIMS
100
AcDbBlockBegin
 62
2
  6
CONTINUOUS
  2
*D1
 70
65
 10
0.0
 20
0.0
  3
*D1
  1

  0
MTEXT
  5
40D
100
AcDbEntity
  8
SCHEME_DIMS
100
AcDbMText
 62
2
  6
CONTINUOUS
  7
STANDARD
 71
2
 72
1
 10
7.1630352992
 20
5.4663238607
 30
0.0
 11
1.0
 21
0.0
 31
0.0
 44
0.9
  1
58,8\P[2.32]
 40
0.1
 41
0.6
  0
LINE
  5
40E
100
AcDbEntity
  8
SCHEME_DIMS
100
AcDbLine
 62
2
  6
CONTINUOUS
 10
8.302636432
 20
4.1239482572
 11
7.1380352992
 21
4.1239482572
  0
LINE
  5
40F
100
AcDbEntity
  8
SCHEME_DIMS
100
AcDbLine
 62
2
  6
CONTINUOUS
 10
8.0268837019
 20
6.4399482572
 11
7.1380352992
 21
6.4399482572
  0
LINE
  5
410
100
AcDbEntity
  8
SCHEME_DIMS
100
AcDbLine
 62
2
  6
CONTINUOUS
 10
7.2630352992
 20
4.1239482572
 11
7.2630352992
 21
5.1163238607
  0
LINE
  5
411
100
AcDbEntity
  8
SCHEME_DIMS
100
AcDbLine
 62
2
  6
CONTINUOUS
 10
7.2630352992
 20
6.4399482572
 11
7.2630352992
 21
5.5663238607
  0
INSERT
  5
412
100
AcDbEntity
  8
SCHEME_DIMS
100
AcDbBlockReference
 62
2
  6
CONTINUOUS
  2
_FILLED
 10
7.2630352992
 20
4.1239482572
 41
0.1875
 42
0.1875
 43
0.1875
 50
270.0
  0
INSERT
  5
413
100
AcDbEntity
  8
SCHEME_DIMS
100
AcDbBlockReference
 62
2
  6
CONTINUOUS
  2
_FILLED
 10
7.2630352992
 20
6.4399482572
 41
0.1875
 42
0.1875
 43
0.1875
 50
90.0
  0
ENDBLK
  5
414
100
AcDbEntity
  8
0
  6
BYBLOCK
 62
0
100
AcDbBlockEnd
  0
BLOCK
  5
415
100
AcDbEntity
  8
SCHEME_DIMS
100
AcDbBlockBegin
 62
2
  6
CONTINUOUS
  2
*D2
 70
65
 10
0.0
 20
0.0
  3
*D2
  1

  0
MTEXT
  5
416
100
AcDbEntity
  8
SCHEME_DIMS
100
AcDbMText
 62
2
  6
CONTINUOUS
  7
TEXTSTYLE_5
 71
2
 72
1
 10
8.4500003746
 20
7.0657348017
 30
0.0
 11
1.0
 21
0.0
 31
0.0
 44
0.9
  1
{\Fgdt;n}\Ftxt;16,7\P[.66]
 40
0.1
 41
0.5333333333
  0
LINE
  5
417
100
AcDbEntity
  8
SCHEME_DIMS
100
AcDbLine
 62
2
  6
CONTINUOUS
 10
8.1705003746
 20
6.4894482572
 11
8.1705003746
 21
7.1407348017
  0
LINE
  5
418
100
AcDbEntity
  8
SCHEME_DIMS
100
AcDbLine
 62
2
  6
CONTINUOUS
 10
8.8295003746
 20
6.5024482572
 11
8.8295003746
 21
7.1407348017
  0
LINE
  5
419
100
AcDbEntity
  8
SCHEME_DIMS
100
AcDbLine
 62
2
  6
CONTINUOUS
 10
8.1705003746
 20
7.0157348017
 11
7.7705003746
 21
7.0157348017
  0
LINE
  5
41A
100
AcDbEntity
  8
SCHEME_DIMS
100
AcDbLine
 62
2
  6
CONTINUOUS
 10
8.8295003746
 20
7.0157348017
 11
9.2295003746
 21
7.0157348017
  0
INSERT
  5
41B
100
AcDbEntity
  8
SCHEME_DIMS
100
AcDbBlockReference
 62
2
  6
CONTINUOUS
  2
_FILLED
 10
8.1705003746
 20
7.0157348017
 41
0.1875
 42
0.1875
 43
0.1875
  0
INSERT
  5
41C
100
AcDbEntity
  8
SCHEME_DIMS
100
AcDbBlockReference
 62
2
  6
CONTINUOUS
  2
_FILLED
 10
8.8295003746
 20
7.0157348017
 41
0.1875
 42
0.1875
 43
0.1875
 50
180.0
  0
ENDBLK
  5
41D
100
AcDbEntity
  8
0
  6
BYBLOCK
 62
0
100
AcDbBlockEnd
  0
ENDSEC
  0
SECTION
  2
ENTITIES
  0
MTEXT
  5
41E
100
AcDbEntity
  8
0
100
AcDbMText
 62
2
  6
CONTINUOUS
  7
TEXTSTYLE_2
 71
2
 72
1
 10
11.0287658475
 20
1.794867839
 30
0.0
 11
1.0
 21
0.0
 31
0.0
 44
0.9
  1
THIRD ANGLE PROJECTION
 40
0.1
 41
1.76
  0
MTEXT
  5
41F
100
AcDbEntity
  8
0
100
AcDbMText
 62
2
  6
CONTINUOUS
  7
STANDARD
 71
1
 72
1
 10
12.88
 20
1.457
 30
0.0
 11
1.0
 21
0.0
 31
0.0
 44
0.9
  1
DRAWING NO.
 40
0.08
 41
0.88
  0
MTEXT
  5
420
100
AcDbEntity
  8
0
100
AcDbMText
 62
2
  6
CONTINUOUS
  7
TEXTSTYLE_3
 71
2
 72
1
 10
11.03
 20
2.516432
 30
0.0
 11
1.0
 21
0.0
 31
0.0
 44
0.9
  1
and is proprietary in general
 40
0.08
 41
1.972
  0
MTEXT
  5
421
100
AcDbEntity
  8
0
100
AcDbMText
 62
2
  6
CONTINUOUS
  7
TEXTSTYLE_3
 71
2
 72
1
 10
11.03
 20
2.396432
 30
0.0
 11
1.0
 21
0.0
 31
0.0
 44
0.9
  1
and in detail.  Its contents
 40
0.08
 41
1.904
  0
MTEXT
  5
422
100
AcDbEntity
  8
0
100
AcDbMText
 62
2
  6
CONTINUOUS
  7
TEXTSTYLE_3
 71
2
 72
1
 10
11.03
 20
2.276432
 30
0.0
 11
1.0
 21
0.0
 31
0.0
 44
0.9
  1
shall not be revealed to
 40
0.08
 41
1.632
  0
MTEXT
  5
423
100
AcDbEntity
  8
0
100
AcDbMText
 62
2
  6
CONTINUOUS
  7
TEXTSTYLE_3
 71
2
 72
1
 10
11.03
 20
2.156432
 30
0.0
 11
1.0
 21
0.0
 31
0.0
 44
0.9
  1
outside parties without
 40
0.08
 41
1.564
  0
MTEXT
  5
424
100
AcDbEntity
  8
0
100
AcDbMText
 62
2
  6
CONTINUOUS
  7
TEXTSTYLE_3
 71
2
 72
1
 10
11.03
 20
2.036432
 30
0.0
 11
1.0
 21
0.0
 31
0.0
 44
0.9
  1
written consent of BANNER.
 40
0.08
 41
1.768
  0
MTEXT
  5
425
100
AcDbEntity
  8
0
100
AcDbMText
 62
2
  6
CONTINUOUS
  7
TEXTSTYLE_2
 71
1
 72
1
 10
12.08
 20
2.217
 30
0.0
 11
1.0
 21
0.0
 31
0.0
 44
0.9
  1
TITLE
 40
0.1
 41
0.4
  0
MTEXT
  5
426
100
AcDbEntity
  8
0
100
AcDbMText
 62
2
  6
CONTINUOUS
  7
STANDARD
 71
1
 72
1
 10
12.08
 20
1.457
 30
0.0
 11
1.0
 21
0.0
 31
0.0
 44
0.9
  1
SIZE
 40
0.08
 41
0.32
  0
MTEXT
  5
427
100
AcDbEntity
  8
0
100
AcDbMText
 62
2
  6
CONTINUOUS
  7
STANDARD
 71
1
 72
1
 10
12.08
 20
1.087
 30
0.0
 11
1.0
 21
0.0
 31
0.0
 44
0.9
  1
SCALE
 40
0.08
 41
0.4
  0
MTEXT
  5
428
100
AcDbEntity
  8
0
100
AcDbMText
 62
2
  6
CONTINUOUS
  7
TEXTSTYLE_2
 71
2
 72
1
 10
12.5
 20
1.337
 30
0.0
 11
1.0
 21
0.0
 31
0.0
 44
0.9
  1
B
 40
0.1
 41
0.08
  0
MTEXT
  5
429
100
AcDbEntity
  8
0
100
AcDbMText
 62
2
  6
CONTINUOUS
  7
TEXTSTYLE_3
 71
2
 72
1
 10
11.03
 20
2.636432
 30
0.0
 11
1.0
 21
0.0
 31
0.0
 44
0.9
  1
of BANNER ENGINEERING CORP.
 40
0.08
 41
1.836
  0
MTEXT
  5
42A
100
AcDbEntity
  8
0
100
AcDbMText
 62
2
  6
CONTINUOUS
  7
TEXTSTYLE_3
 71
2
 72
1
 10
11.03
 20
2.756432
 30
0.0
 11
1.0
 21
0.0
 31
0.0
 44
0.9
  1
This drawing is the property
 40
0.08
 41
1.904
  0
MTEXT
  5
42B
100
AcDbEntity
  8
0
100
AcDbMText
 62
2
  6
CONTINUOUS
  7
TEXTSTYLE_2
 71
2
 72
1
 10
15.03
 20
2.4134
 30
0.0
 11
1.0
 21
0.0
 31
0.0
 44
0.9
  1
MINNEAPOLIS, MN 55440
 40
0.1
 41
1.68
  0
MTEXT
  5
42C
100
AcDbEntity
  8
0
100
AcDbMText
 62
2
  6
CONTINUOUS
  7
STANDARD
 71
1
 72
1
 10
14.255
 20
1.087
 30
0.0
 11
1.0
 21
0.0
 31
0.0
 44
0.9
  1
SHEET
 40
0.08
 41
0.4
  0
MTEXT
  5
42D
100
AcDbEntity
  8
0
100
AcDbMText
 62
2
  6
CONTINUOUS
  7
STANDARD
 71
1
 72
1
 10
15.63
 20
1.457
 30
0.0
 11
1.0
 21
0.0
 31
0.0
 44
0.9
  1
REV.
 40
0.08
 41
0.32
  0
MTEXT
  5
42E
100
AcDbEntity
  8
0
100
AcDbMText
 62
2
  6
CONTINUOUS
  7
STANDARD
 71
3
 72
1
 10
16.38
 20
0.835443
 30
0.0
 11
1.0
 21
0.0
 31
0.0
 44
0.9
  1
PRO/E
 40
0.07
 41
0.35
  0
MTEXT
  5
42F
100
AcDbEntity
  8
0
100
AcDbMText
 62
2
  6
CONTINUOUS
  7
TEXTSTYLE_4
 71
2
 72
1
 10
15.03
 20
2.751049
 30
0.0
 11
1.0
 21
0.0
 31
0.0
 44
0.9
  1
BANNER ENGINEERING CORP.
 40
0.12
 41
2.6496
  0
MTEXT
  5
430
100
AcDbEntity
  8
0
100
AcDbMText
 62
2
  6
CONTINUOUS
  7
TEXTSTYLE_2
 71
2
 72
1
 10
15.03
 20
2.5724
 30
0.0
 11
1.0
 21
0.0
 31
0.0
 44
0.9
  1
P.O. BOX 9414
 40
0.1
 41
1.04
  0
MTEXT
  5
431
100
AcDbEntity
  8
0
100
AcDbMText
 62
2
  6
CONTINUOUS
  7
TEXTSTYLE_2
 71
2
 72
1
 10
9.485
 20
10.312
 30
0.0
 11
1.0
 21
0.0
 31
0.0
 44
0.9
  1
4
 40
0.1
 41
0.08
  0
MTEXT
  5
432
100
AcDbEntity
  8
0
100
AcDbMText
 62
2
  6
CONTINUOUS
  7
TEXTSTYLE_2
 71
2
 72
1
 10
11.455
 20
10.312
 30
0.0
 11
1.0
 21
0.0
 31
0.0
 44
0.9
  1
3
 40
0.1
 41
0.08
  0
MTEXT
  5
433
100
AcDbEntity
  8
0
100
AcDbMText
 62
2
  6
CONTINUOUS
  7
TEXTSTYLE_2
 71
2
 72
1
 10
13.425
 20
10.312
 30
0.0
 11
1.0
 21
0.0
 31
0.0
 44
0.9
  1
2
 40
0.1
 41
0.08
  0
MTEXT
  5
434
100
AcDbEntity
  8
0
100
AcDbMText
 62
2
  6
CONTINUOUS
  7
TEXTSTYLE_2
 71
2
 72
1
 10
15.395
 20
10.312
 30
0.0
 11
1.0
 21
0.0
 31
0.0
 44
0.9
  1
1
 40
0.1
 41
0.08
  0
MTEXT
  5
435
100
AcDbEntity
  8
0
100
AcDbMText
 62
2
  6
CONTINUOUS
  7
TEXTSTYLE_2
 71
2
 72
1
 10
3.575
 20
10.312
 30
0.0
 11
1.0
 21
0.0
 31
0.0
 44
0.9
  1
7
 40
0.1
 41
0.08
  0
MTEXT
  5
436
100
AcDbEntity
  8
0
100
AcDbMText
 62
2
  6
CONTINUOUS
  7
TEXTSTYLE_2
 71
2
 72
1
 10
5.545
 20
10.312
 30
0.0
 11
1.0
 21
0.0
 31
0.0
 44
0.9
  1
6
 40
0.1
 41
0.08
  0
MTEXT
  5
437
100
AcDbEntity
  8
0
100
AcDbMText
 62
2
  6
CONTINUOUS
  7
TEXTSTYLE_2
 71
2
 72
1
 10
7.515
 20
10.312
 30
0.0
 11
1.0
 21
0.0
 31
0.0
 44
0.9
  1
5
 40
0.1
 41
0.08
  0
MTEXT
  5
438
100
AcDbEntity
  8
0
100
AcDbMText
 62
2
  6
CONTINUOUS
  7
TEXTSTYLE_2
 71
2
 72
1
 10
1.605
 20
10.312
 30
0.0
 11
1.0
 21
0.0
 31
0.0
 44
0.9
  1
8
 40
0.1
 41
0.08
  0
MTEXT
  5
439
100
AcDbEntity
  8
0
100
AcDbMText
 62
2
  6
CONTINUOUS
  7
TEXTSTYLE_2
 71
2
 72
1
 10
1.605
 20
0.787
 30
0.0
 11
1.0
 21
0.0
 31
0.0
 44
0.9
  1
8
 40
0.1
 41
0.08
  0
MTEXT
  5
43A
100
AcDbEntity
  8
0
100
AcDbMText
 62
2
  6
CONTINUOUS
  7
TEXTSTYLE_2
 71
2
 72
1
 10
3.575
 20
0.787
 30
0.0
 11
1.0
 21
0.0
 31
0.0
 44
0.9
  1
7
 40
0.1
 41
0.08
  0
MTEXT
  5
43B
100
AcDbEntity
  8
0
100
AcDbMText
 62
2
  6
CONTINUOUS
  7
TEXTSTYLE_2
 71
2
 72
1
 10
5.545
 20
0.787
 30
0.0
 11
1.0
 21
0.0
 31
0.0
 44
0.9
  1
6
 40
0.1
 41
0.08
  0
MTEXT
  5
43C
100
AcDbEntity
  8
0
100
AcDbMText
 62
2
  6
CONTINUOUS
  7
TEXTSTYLE_2
 71
2
 72
1
 10
7.515
 20
0.787
 30
0.0
 11
1.0
 21
0.0
 31
0.0
 44
0.9
  1
5
 40
0.1
 41
0.08
  0
MTEXT
  5
43D
100
AcDbEntity
  8
0
100
AcDbMText
 62
2
  6
CONTINUOUS
  7
TEXTSTYLE_2
 71
2
 72
1
 10
9.485
 20
0.787
 30
0.0
 11
1.0
 21
0.0
 31
0.0
 44
0.9
  1
4
 40
0.1
 41
0.08
  0
MTEXT
  5
43E
100
AcDbEntity
  8
0
100
AcDbMText
 62
2
  6
CONTINUOUS
  7
TEXTSTYLE_2
 71
2
 72
1
 10
11.455
 20
0.787
 30
0.0
 11
1.0
 21
0.0
 31
0.0
 44
0.9
  1
3
 40
0.1
 41
0.08
  0
MTEXT
  5
43F
100
AcDbEntity
  8
0
100
AcDbMText
 62
2
  6
CONTINUOUS
  7
TEXTSTYLE_2
 71
2
 72
1
 10
13.425
 20
0.787
 30
0.0
 11
1.0
 21
0.0
 31
0.0
 44
0.9
  1
2
 40
0.1
 41
0.08
  0
MTEXT
  5
440
100
AcDbEntity
  8
0
100
AcDbMText
 62
2
  6
CONTINUOUS
  7
TEXTSTYLE_2
 71
2
 72
1
 10
15.395
 20
0.787
 30
0.0
 11
1.0
 21
0.0
 31
0.0
 44
0.9
  1
1
 40
0.1
 41
0.08
  0
MTEXT
  5
441
100
AcDbEntity
  8
0
100
AcDbMText
 62
2
  6
CONTINUOUS
  7
TEXTSTYLE_2
 71
3
 72
1
 10
0.52
 20
4.3995
 30
0.0
 11
1.0
 21
0.0
 31
0.0
 44
0.9
  1
B
 40
0.1
 41
0.08
  0
MTEXT
  5
442
100
AcDbEntity
  8
0
100
AcDbMText
 62
2
  6
CONTINUOUS
  7
TEXTSTYLE_2
 71
3
 72
1
 10
0.52
 20
2.0995
 30
0.0
 11
1.0
 21
0.0
 31
0.0
 44
0.9
  1
A
 40
0.1
 41
0.08
  0
MTEXT
  5
443
100
AcDbEntity
  8
0
100
AcDbMText
 62
2
  6
CONTINUOUS
  7
TEXTSTYLE_2
 71
3
 72
1
 10
0.52
 20
8.9995
 30
0.0
 11
1.0
 21
0.0
 31
0.0
 44
0.9
  1
D
 40
0.1
 41
0.08
  0
MTEXT
  5
444
100
AcDbEntity
  8
0
100
AcDbMText
 62
2
  6
CONTINUOUS
  7
TEXTSTYLE_2
 71
3
 72
1
 10
0.52
 20
6.6995
 30
0.0
 11
1.0
 21
0.0
 31
0.0
 44
0.9
  1
C
 40
0.1
 41
0.08
  0
MTEXT
  5
445
100
AcDbEntity
  8
0
100
AcDbMText
 62
2
  6
CONTINUOUS
  7
TEXTSTYLE_2
 71
1
 72
1
 10
16.48
 20
8.9995
 30
0.0
 11
1.0
 21
0.0
 31
0.0
 44
0.9
  1
D
 40
0.1
 41
0.08
  0
MTEXT
  5
446
100
AcDbEntity
  8
0
100
AcDbMText
 62
2
  6
CONTINUOUS
  7
TEXTSTYLE_2
 71
1
 72
1
 10
16.48
 20
6.6995
 30
0.0
 11
1.0
 21
0.0
 31
0.0
 44
0.9
  1
C
 40
0.1
 41
0.08
  0
MTEXT
  5
447
100
AcDbEntity
  8
0
100
AcDbMText
 62
2
  6
CONTINUOUS
  7
TEXTSTYLE_2
 71
1
 72
1
 10
16.48
 20
4.3995
 30
0.0
 11
1.0
 21
0.0
 31
0.0
 44
0.9
  1
B
 40
0.1
 41
0.08
  0
MTEXT
  5
448
100
AcDbEntity
  8
0
100
AcDbMText
 62
2
  6
CONTINUOUS
  7
TEXTSTYLE_2
 71
1
 72
1
 10
16.48
 20
2.0995
 30
0.0
 11
1.0
 21
0.0
 31
0.0
 44
0.9
  1
A
 40
0.1
 41
0.08
  0
MTEXT
  5
449
100
AcDbEntity
  8
0
100
AcDbMText
 62
2
  6
CONTINUOUS
  7
STANDARD
 71
1
 72
1
 10
14.819264911
 20
1.0627941725
 30
0.0
 11
1.0
 21
0.0
 31
0.0
 44
0.9
  1
1 OF 1
 40
0.1
 41
0.6
  0
MTEXT
  5
44A
100
AcDbEntity
  8
0
100
AcDbMText
 62
7
  6
CONTINUOUS
  7
STANDARD
 71
1
 72
1
 10
13.8911999818
 20
1.3747321586
 30
0.0
 11
1.0
 21
0.0
 31
0.0
 44
0.9
  1
155344
 40
0.12
 41
0.72
  0
MTEXT
  5
44B
100
AcDbEntity
  8
0
100
AcDbMText
 62
2
  6
CONTINUOUS
  7
STANDARD
 71
1
 72
1
 10
12.644264911
 20
1.0627941725
 30
0.0
 11
1.0
 21
0.0
 31
0.0
 44
0.9
  1
1:1
 40
0.1
 41
0.3
  0
MTEXT
  5
44C
100
AcDbEntity
  8
0
100
AcDbMText
 62
2
  6
CONTINUOUS
  7
STANDARD
 71
1
 72
1
 10
1.0597007627
 20
1.6202922458
 30
0.0
 11
1.0
 21
0.0
 31
0.0
 44
0.9
  1
NOTES:\P1. ALL DIMENSIONS ARE MILLIMETERS [INCHES] UNLESS OTHERWISE NOTED.
 40
0.1
 41
6.6
  0
INSERT
  5
44D
100
AcDbEntity
  8
0
100
AcDbBlockReference
 62
2
  6
CONTINUOUS
  2
BANNER_LOGO_TITLEBLOCK_BL0
 10
12.9086867042
 20
2.5403783405
  0
DIMENSION
  5
44E
100
AcDbEntity
  8
DRIVEN_DIMS
100
AcDbDimension
 62
2
  6
CONTINUOUS
  2
*D0
 10
7.6517341728
 20
4.9839498018
 11
7.5767341728
 21
5.793720567
 70
160
 71
2
 42
36.9823607674
  3
DIMSTYLE_1
100
AcDbAlignedDimension
 13
8.0992922049
 23
6.4399482572
 14
8.4375138962
 24
4.9839498018
 50
270.0
100
AcDbRotatedDimension
  0
DIMENSION
  5
44F
100
AcDbEntity
  8
SCHEME_DIMS
100
AcDbDimension
 62
2
  6
CONTINUOUS
  2
*D1
 10
7.2630352992
 20
6.4399482572
 11
7.1380352992
 21
5.3413238607
 70
160
 71
2
 42
58.8264
  3
DIMSTYLE_2
100
AcDbAlignedDimension
 13
8.302636432
 23
4.1239482572
 14
8.0268837019
 24
6.4399482572
 50
90.0
100
AcDbRotatedDimension
  0
DIMENSION
  5
450
100
AcDbEntity
  8
SCHEME_DIMS
100
AcDbDimension
 62
2
  6
CONTINUOUS
  2
*D2
 10
8.8295003746
 20
7.0157348017
 11
8.4416670412
 21
6.9407348017
 70
160
 71
2
 42
16.7386
  1
%%c<>
  3
DIMSTYLE_2
100
AcDbAlignedDimension
 13
8.1705003746
 23
6.4894482572
 14
8.8295003746
 24
6.5024482572
100
AcDbRotatedDimension
  0
LINE
  5
451
100
AcDbEntity
  8
0
100
AcDbLine
 62
2
  6
CONTINUOUS
 10
16.38
 20
0.887
 11
12.03
 21
0.887
  0
LINE
  5
452
100
AcDbEntity
  8
0
100
AcDbLine
 62
2
  6
CONTINUOUS
 10
16.38
 20
0.887
 11
16.38
 21
2.807
  0
LINE
  5
453
100
AcDbEntity
  8
0
100
AcDbLine
 62
2
  6
CONTINUOUS
 10
16.38
 20
2.807
 11
12.03
 21
2.807
  0
LINE
  5
454
100
AcDbEntity
  8
0
100
AcDbLine
 62
2
  6
CONTINUOUS
 10
12.03
 20
0.887
 11
12.03
 21
2.807
  0
MTEXT
  5
455
100
AcDbEntity
  8
NOTES
100
AcDbMText
 62
7
  6
CONTINUOUS
  7
STANDARD
 71
2
 72
1
 10
16.155
 20
1.367
 30
0.0
 11
1.0
 21
0.0
 31
0.0
 44
0.9
  1
-
 40
0.1
 41
0.1
  0
MTEXT
  5
456
100
AcDbEntity
  8
NOTES
100
AcDbMText
 62
7
  6
CONTINUOUS
  7
STANDARD
 71
2
 72
1
 10
14.205
 20
1.967
 30
0.0
 11
1.0
 21
0.0
 31
0.0
 44
0.9
  1
S18 6D/DL/L CABLE/PIGTAIL\PWEB CAD DRAWINGS 2D/3D
 40
0.1
 41
2.5
  0
MTEXT
  5
457
100
AcDbEntity
  8
NOTES
100
AcDbMText
 62
2
  6
CONTINUOUS
  7
STANDARD
 71
2
 72
1
 10
14.2046934562
 20
7.3893360762
 30
0.0
 11
1.0
 21
0.0
 31
0.0
 44
0.9
  1
ISOMETRIC VIEW\PSCALE  1:1
 40
0.1
 41
1.4
  0
LEADER
  5
458
100
AcDbEntity
  8
NOTES
100
AcDbLeader
 62
2
  6
CONTINUOUS
  3
STANDARD
 71
1
 72
0
 73
0
 75
0
 40
0.1
 41
1.0
 76
3
 10
8.8542085626
 20
5.7488801459
 30
0.0
 10
9.3544993895
 20
5.2466974083
 30
0.0
 10
9.6044993895
 20
5.2466974083
 30
0.0
340
459
1001
ACAD
1000
DSTYLE
1002
{
1070
77
1070
0
1002
}
  0
MTEXT
  5
459
102
{ACAD_REACTORS
330
458
102
}
100
AcDbEntity
  8
NOTES
100
AcDbMText
 62
2
  6
CONTINUOUS
  7
STANDARD
 71
1
 72
1
 10
9.6044993895
 20
5.2966974083
 30
0.0
 11
1.0
 21
0.0
 31
0.0
 44
0.9
  1
M18 X 1-6g
 40
0.1
 41
1.0
  0
LINE
  5
45A
100
AcDbEntity
  8
0
100
AcDbLine
 62
2
  6
CONTINUOUS
 10
0.47
 20
5.586103
 11
0.47
 21
5.412897
  0
LINE
  5
45B
100
AcDbEntity
  8
0
100
AcDbLine
 62
2
  6
CONTINUOUS
 10
0.62
 20
10.112
 11
0.62
 21
0.887
  0
LINE
  5
45C
100
AcDbEntity
  8
0
100
AcDbLine
 62
2
  6
CONTINUOUS
 10
2.59
 20
0.887
 11
2.59
 21
0.637
  0
LINE
  5
45D
100
AcDbEntity
  8
0
100
AcDbLine
 62
2
  6
CONTINUOUS
 10
2.59
 20
10.112
 11
2.59
 21
10.362
  0
LINE
  5
45E
100
AcDbEntity
  8
0
100
AcDbLine
 62
2
  6
CONTINUOUS
 10
8.413397
 20
0.737
 11
8.586603
 21
0.737
  0
LINE
  5
45F
100
AcDbEntity
  8
0
100
AcDbLine
 62
7
  6
CONTINUOUS
 10
11.1389508475
 20
1.425992839
 11
11.7453418475
 21
1.495385839
  0
LINE
  5
460
100
AcDbEntity
  8
0
100
AcDbLine
 62
2
  6
CONTINUOUS
 10
0.62
 20
0.887
 11
16.38
 21
0.887
  0
LINE
  5
461
100
AcDbEntity
  8
0
100
AcDbLine
 62
2
  6
CONTINUOUS
 10
12.03
 20
1.137
 11
16.38
 21
1.137
  0
LINE
  5
462
100
AcDbEntity
  8
0
100
AcDbLine
 62
7
  6
CONTINUOUS
 10
10.2121898475
 20
1.243294839
 11
10.4342808475
 21
1.243294839
  0
LINE
  5
463
100
AcDbEntity
  8
0
100
AcDbLine
 62
7
  6
CONTINUOUS
 10
10.4842808475
 20
1.243294839
 11
10.5842808475
 21
1.243294839
  0
LINE
  5
464
100
AcDbEntity
  8
0
100
AcDbLine
 62
7
  6
CONTINUOUS
 10
10.6342808475
 20
1.243294839
 11
10.8563718475
 21
1.243294839
  0
LINE
  5
465
100
AcDbEntity
  8
0
100
AcDbLine
 62
7
  6
CONTINUOUS
 10
11.0389508475
 20
1.243294839
 11
11.3171028475
 21
1.243294839
  0
LINE
  5
466
100
AcDbEntity
  8
0
100
AcDbLine
 62
7
  6
CONTINUOUS
 10
11.3671028475
 20
1.243294839
 11
11.5171888475
 21
1.243294839
  0
LINE
  5
467
100
AcDbEntity
  8
0
100
AcDbLine
 62
7
  6
CONTINUOUS
 10
11.5671888475
 20
1.243294839
 11
11.8453418475
 21
1.243294839
  0
LINE
  5
468
100
AcDbEntity
  8
0
100
AcDbLine
 62
7
  6
CONTINUOUS
 10
11.7453418475
 20
0.991203839
 11
11.1389508475
 21
1.060596839
  0
LINE
  5
469
100
AcDbEntity
  8
0
100
AcDbLine
 62
2
  6
CONTINUOUS
 10
4.56
 20
0.887
 11
4.56
 21
0.637
  0
LINE
  5
46A
100
AcDbEntity
  8
0
100
AcDbLine
 62
2
  6
CONTINUOUS
 10
4.56
 20
10.112
 11
4.56
 21
10.362
  0
LINE
  5
46B
100
AcDbEntity
  8
0
100
AcDbLine
 62
2
  6
CONTINUOUS
 10
0.47
 20
5.412897
 11
0.62
 21
5.4995
  0
LINE
  5
46C
100
AcDbEntity
  8
0
100
AcDbLine
 62
2
  6
CONTINUOUS
 10
12.03
 20
1.507
 11
16.38
 21
1.507
  0
LINE
  5
46D
100
AcDbEntity
  8
0
100
AcDbLine
 62
2
  6
CONTINUOUS
 10
10.03
 20
1.907
 11
12.03
 21
1.907
  0
LINE
  5
46E
100
AcDbEntity
  8
0
100
AcDbLine
 62
2
  6
CONTINUOUS
 10
0.62
 20
5.4995
 11
0.47
 21
5.586103
  0
LINE
  5
46F
100
AcDbEntity
  8
0
100
AcDbLine
 62
2
  6
CONTINUOUS
 10
12.03
 20
2.267
 11
16.38
 21
2.267
  0
LINE
  5
470
100
AcDbEntity
  8
0
100
AcDbLine
 62
2
  6
CONTINUOUS
 10
8.5
 20
10.112
 11
8.586603
 21
10.262
  0
LINE
  5
471
100
AcDbEntity
  8
0
100
AcDbLine
 62
2
  6
CONTINUOUS
 10
16.38
 20
2.807
 11
10.03
 21
2.807
  0
LINE
  5
472
100
AcDbEntity
  8
0
100
AcDbLine
 62
2
  6
CONTINUOUS
 10
0.62
 20
3.1995
 11
0.37
 21
3.1995
  0
LINE
  5
473
100
AcDbEntity
  8
0
100
AcDbLine
 62
2
  6
CONTINUOUS
 10
16.38
 20
3.1995
 11
16.63
 21
3.1995
  0
LINE
  5
474
100
AcDbEntity
  8
0
100
AcDbLine
 62
2
  6
CONTINUOUS
 10
8.586603
 20
0.737
 11
8.5
 21
0.887
  0
LINE
  5
475
100
AcDbEntity
  8
0
100
AcDbLine
 62
2
  6
CONTINUOUS
 10
6.53
 20
0.887
 11
6.53
 21
0.637
  0
LINE
  5
476
100
AcDbEntity
  8
0
100
AcDbLine
 62
2
  6
CONTINUOUS
 10
6.53
 20
10.112
 11
6.53
 21
10.362
  0
LINE
  5
477
100
AcDbEntity
  8
SKETCHED_ENT
100
AcDbLine
 62
7
  6
CONTINUOUS
 10
8.5000138962
 20
4.9839498018
 11
8.4999014861
 21
4.9839478637
  0
LINE
  5
478
100
AcDbEntity
  8
0
100
AcDbLine
 62
2
  6
CONTINUOUS
 10
8.5
 20
0.887
 11
8.5
 21
0.637
  0
LINE
  5
479
100
AcDbEntity
  8
0
100
AcDbLine
 62
2
  6
CONTINUOUS
 10
8.5
 20
10.112
 11
8.5
 21
10.362
  0
LINE
  5
47A
100
AcDbEntity
  8
0
100
AcDbLine
 62
2
  6
CONTINUOUS
 10
0.62
 20
5.4995
 11
0.37
 21
5.4995
  0
LINE
  5
47B
100
AcDbEntity
  8
0
100
AcDbLine
 62
2
  6
CONTINUOUS
 10
16.38
 20
5.4995
 11
16.63
 21
5.4995
  0
LINE
  5
47C
100
AcDbEntity
  8
0
100
AcDbLine
 62
2
  6
CONTINUOUS
 10
10.03
 20
2.807
 11
10.03
 21
0.887
  0
LINE
  5
47D
100
AcDbEntity
  8
0
100
AcDbLine
 62
2
  6
CONTINUOUS
 10
10.47
 20
0.887
 11
10.47
 21
0.637
  0
LINE
  5
47E
100
AcDbEntity
  8
0
100
AcDbLine
 62
2
  6
CONTINUOUS
 10
10.47
 20
10.112
 11
10.47
 21
10.362
  0
LINE
  5
47F
100
AcDbEntity
  8
0
100
AcDbLine
 62
7
  6
CONTINUOUS
 10
10.5342808475
 20
1.143294839
 11
10.5342808475
 21
0.921203839
  0
LINE
  5
480
100
AcDbEntity
  8
0
100
AcDbLine
 62
7
  6
CONTINUOUS
 10
10.5342808475
 20
1.193294839
 11
10.5342808475
 21
1.293294839
  0
LINE
  5
481
100
AcDbEntity
  8
0
100
AcDbLine
 62
7
  6
CONTINUOUS
 10
10.5342808475
 20
1.343294839
 11
10.5342808475
 21
1.565385839
  0
LINE
  5
482
100
AcDbEntity
  8
0
100
AcDbLine
 62
2
  6
CONTINUOUS
 10
8.5
 20
0.887
 11
8.413397
 21
0.737
  0
LINE
  5
483
100
AcDbEntity
  8
0
100
AcDbLine
 62
2
  6
CONTINUOUS
 10
0.62
 20
7.7995
 11
0.37
 21
7.7995
  0
LINE
  5
484
100
AcDbEntity
  8
0
100
AcDbLine
 62
2
  6
CONTINUOUS
 10
16.38
 20
7.7995
 11
16.63
 21
7.7995
  0
LINE
  5
485
100
AcDbEntity
  8
0
100
AcDbLine
 62
2
  6
CONTINUOUS
 10
8.413397
 20
10.262
 11
8.5
 21
10.112
  0
LINE
  5
486
100
AcDbEntity
  8
0
100
AcDbLine
 62
7
  6
CONTINUOUS
 10
11.1389508475
 20
1.060596839
 11
11.1389508475
 21
1.425992839
  0
LINE
  5
487
100
AcDbEntity
  8
0
100
AcDbLine
 62
7
  6
CONTINUOUS
 10
11.7453418475
 20
1.495385839
 11
11.7453418475
 21
0.991203839
  0
LINE
  5
488
100
AcDbEntity
  8
0
100
AcDbLine
 62
1
  6
CONTINUOUS
 10
12.03
 20
2.807
 11
12.03
 21
0.887
  0
LINE
  5
489
100
AcDbEntity
  8
0
100
AcDbLine
 62
2
  6
CONTINUOUS
 10
12.44
 20
0.887
 11
12.44
 21
0.637
  0
LINE
  5
48A
100
AcDbEntity
  8
0
100
AcDbLine
 62
2
  6
CONTINUOUS
 10
12.44
 20
10.112
 11
12.44
 21
10.362
  0
LINE
  5
48B
100
AcDbEntity
  8
0
100
AcDbLine
 62
2
  6
CONTINUOUS
 10
16.53
 20
5.586103
 11
16.38
 21
5.4995
  0
LINE
  5
48C
100
AcDbEntity
  8
0
100
AcDbLine
 62
2
  6
CONTINUOUS
 10
16.38
 20
5.4995
 11
16.53
 21
5.412897
  0
LINE
  5
48D
100
AcDbEntity
  8
0
100
AcDbLine
 62
2
  6
CONTINUOUS
 10
12.83
 20
1.507
 11
12.83
 21
1.137
  0
LINE
  5
48E
100
AcDbEntity
  8
0
100
AcDbLine
 62
2
  6
CONTINUOUS
 10
16.38
 20
10.112
 11
0.62
 21
10.112
  0
LINE
  5
48F
100
AcDbEntity
  8
0
100
AcDbLine
 62
2
  6
CONTINUOUS
 10
8.586603
 20
10.262
 11
8.413397
 21
10.262
  0
LINE
  5
490
100
AcDbEntity
  8
0
100
AcDbLine
 62
2
  6
CONTINUOUS
 10
14.205
 20
1.137
 11
14.205
 21
0.887
  0
LINE
  5
491
100
AcDbEntity
  8
0
100
AcDbLine
 62
2
  6
CONTINUOUS
 10
14.41
 20
0.887
 11
14.41
 21
0.637
  0
LINE
  5
492
100
AcDbEntity
  8
0
100
AcDbLine
 62
2
  6
CONTINUOUS
 10
14.41
 20
10.112
 11
14.41
 21
10.362
  0
LINE
  5
493
100
AcDbEntity
  8
0
100
AcDbLine
 62
2
  6
CONTINUOUS
 10
15.58
 20
1.507
 11
15.58
 21
1.137
  0
LINE
  5
494
100
AcDbEntity
  8
0
100
AcDbLine
 62
2
  6
CONTINUOUS
 10
16.38
 20
0.887
 11
16.38
 21
10.112
  0
LINE
  5
495
100
AcDbEntity
  8
0
100
AcDbLine
 62
2
  6
CONTINUOUS
 10
16.53
 20
5.412897
 11
16.53
 21
5.586103
  0
LINE
  5
496
100
AcDbEntity
  8
AXIS_COSMETIC_THREADS
100
AcDbLine
 62
7
  6
CONTINUOUS
 10
13.1109570423
 20
7.8748387821
 11
13.1109570423
 21
8.0404197551
  0
LWPOLYLINE
  5
497
100
AcDbEntity
  8
0
100
AcDbPolyline
 62
7
  6
CONTINUOUS
 90
18
 70
0
 10
13.3124833139
 20
7.5816328849
 10
13.2764232853
 20
7.6058134044
 10
13.2405502128
 20
7.6368065393
 10
13.2062263675
 20
7.6737976821
 10
13.1747747057
 20
7.7155241122
 10
13.1472965742
 20
7.7604828619
 10
13.124439698
 20
7.8074743746
 10
13.1066882981
 20
7.8554618638
 10
13.0945472721
 20
7.9031624323
 10
13.0883957365
 20
7.9491395138
 10
13.088392388
 20
7.9921254718
 10
13.094537076
 20
8.0310037333
 10
13.1066719158
 20
8.0646920321
 10
13.1244184538
 20
8.0921907995
 10
13.1472693313
 20
8.1127970474
 10
13.1747382113
 20
8.1260343551
 10
13.2061830149
 20
8.1314538144
 10
13.2322983532
 20
8.1301431223
  0
LWPOLYLINE
  5
498
100
AcDbEntity
  8
0
100
AcDbPolyline
 62
7
  6
CONTINUOUS
 90
15
 70
0
 10
13.2550948146
 20
7.5926507075
 10
13.2176710398
 20
7.6295797387
 10
13.1830008789
 20
7.6714538182
 10
13.1518620448
 20
7.71727214
 10
13.124973076
 20
7.7659690802
 10
13.1029180903
 20
7.8166051414
 10
13.086598953
 20
7.8670476923
 10
13.0762264784
 20
7.9162728989
 10
13.0719589951
 20
7.9641696661
 10
13.074360207
 20
8.0097570609
 10
13.0831921999
 20
8.0489383562
 10
13.0968159806
 20
8.0798737851
 10
13.1139453518
 20
8.1035207692
 10
13.1340543371
 20
8.1210530829
 10
13.1572647286
 20
8.1331790878
  0
LWPOLYLINE
  5
499
100
AcDbEntity
  8
AXIS_COSMETIC_THREADS
100
AcDbPolyline
 62
7
  6
CONTINUOUS
 90
10
 70
0
 10
13.1109570423
 20
7.8748387821
 10
13.1225933438
 20
7.8372135701
 10
13.1377650128
 20
7.7996640788
 10
13.1561895835
 20
7.7628894041
 10
13.1775240277
 20
7.7275742159
 10
13.2013711411
 20
7.6943760118
 10
13.2272869387
 20
7.6639128752
 10
13.2547889207
 20
7.6367519683
 10
13.2833650557
 20
7.6133989721
 10
13.3124833139
 20
7.5942886724
  0
LWPOLYLINE
  5
49A
100
AcDbEntity
  8
0
100
AcDbPolyline
 62
7
  6
CONTINUOUS
 90
11
 70
0
 10
13.0853839405
 20
8.0830981448
 10
13.0730602638
 20
8.0420494794
 10
13.0678350451
 20
7.9953226297
 10
13.0698374542
 20
7.9442527352
 10
13.0789882223
 20
7.8903001852
 10
13.0950019272
 20
7.8350085026
 10
13.1173952256
 20
7.7799598297
 10
13.1455007916
 20
7.7267293005
 10
13.1784865623
 20
7.6768396154
 10
13.2153797334
 20
7.6317171274
 10
13.2550948146
 20
7.5926507075
  0
LWPOLYLINE
  5
49B
100
AcDbEntity
  8
0
100
AcDbPolyline
 62
7
  6
CONTINUOUS
 90
3
 70
0
 10
13.4453607305
 20
8.037202525
 10
13.4054874143
 20
8.0787245108
 10
13.3633408372
 20
8.1136348857
  0
LWPOLYLINE
  5
49C
100
AcDbEntity
  8
0
100
AcDbPolyline
 62
7
  6
CONTINUOUS
 90
6
 70
0
 10
13.5700781165
 20
7.8972852878
 10
13.5437569639
 20
7.9510982042
 10
13.5120040883
 20
8.002462947
 10
13.475719003
 20
8.0498767615
 10
13.435932712
 20
8.0919515191
 10
13.3937777976
 20
8.1274539905
  0
LWPOLYLINE
  5
49D
100
AcDbEntity
  8
0
100
AcDbPolyline
 62
7
  6
CONTINUOUS
 90
11
 70
0
 10
13.5142608716
 20
7.859305735
 10
13.4926406736
 20
7.9078720883
 10
13.4662291794
 20
7.9546658022
 10
13.4357291354
 20
7.9984426375
 10
13.4019518697
 20
8.0380386966
 10
13.3657957311
 20
8.0724013167
 10
13.3282222046
 20
8.100617023
 10
13.2902378463
 20
8.1219322717
 10
13.2528492891
 20
8.1357856426
 10
13.2170468346
 20
8.1418118882
 10
13.1837821523
 20
8.1398517647
  0
LWPOLYLINE
  5
49E
100
AcDbEntity
  8
0
100
AcDbPolyline
 62
7
  6
CONTINUOUS
 90
8
 70
0
 10
13.5072255259
 20
7.8954137384
 10
13.5284695619
 20
7.8451226159
 10
13.543742231
 20
7.7948452515
 10
13.5526278853
 20
7.7460332953
 10
13.5548936806
 20
7.7000944802
 10
13.5504956352
 20
7.6583574463
 10
13.5395812165
 20
7.6220305758
 10
13.5379373794
 20
7.6191591231
  0
LINE
  5
49F
100
AcDbEntity
  8
0
100
AcDbLine
 62
7
  6
CONTINUOUS
 10
13.5902256205
 20
7.84259798
 11
13.5700781165
 21
7.8972852878
  0
LWPOLYLINE
  5
4A0
100
AcDbEntity
  8
0
100
AcDbPolyline
 62
7
  6
CONTINUOUS
 90
7
 70
0
 10
13.5142608716
 20
7.859305735
 10
13.5320473663
 20
7.8088369382
 10
13.5438132286
 20
7.7588850826
 10
13.5492327818
 20
7.7105918158
 10
13.5480341919
 20
7.665301909
 10
13.5402169763
 20
7.6247408707
 10
13.5259721683
 20
7.589861493
  0
LINE
  5
4A1
100
AcDbEntity
  8
0
100
AcDbLine
 62
7
  6
CONTINUOUS
 10
13.5764576741
 20
7.8955855494
 11
13.5944241075
 21
7.8436167244
  0
LINE
  5
4A2
100
AcDbEntity
  8
AXIS_COSMETIC_THREADS
100
AcDbLine
 62
7
  6
CONTINUOUS
 10
13.5140095856
 20
7.807722525
 11
13.5140095856
 21
7.6421415521
  0
LWPOLYLINE
  5
4A3
100
AcDbEntity
  8
0
100
AcDbPolyline
 62
7
  6
CONTINUOUS
 90
5
 70
0
 10
13.4613336164
 20
7.5333987077
 10
13.4802457715
 20
7.5349793124
 10
13.5121571212
 20
7.547224224
 10
13.5389771957
 20
7.5683346662
 10
13.5599110045
 20
7.5976894056
  0
LWPOLYLINE
  5
4A4
100
AcDbEntity
  8
AXIS_COSMETIC_THREADS
100
AcDbPolyline
 62
7
  6
CONTINUOUS
 90
10
 70
0
 10
13.3124833139
 20
8.0882726348
 10
13.3416015722
 20
8.069162335
 10
13.3701777072
 20
8.0458093389
 10
13.3976796891
 20
8.0186484319
 10
13.4235954867
 20
7.9881852953
 10
13.4474426001
 20
7.9549870912
 10
13.4687770443
 20
7.9196719031
 10
13.4872016151
 20
7.8828972283
 10
13.5023732841
 20
7.8453477371
 10
13.5140095856
 20
7.807722525
  0
LWPOLYLINE
  5
4A5
100
AcDbEntity
  8
0
100
AcDbPolyline
 62
7
  6
CONTINUOUS
 90
13
 70
0
 10
13.3124833139
 20
8.1009284222
 10
13.3485433426
 20
8.0767479027
 10
13.3844164151
 20
8.0457547679
 10
13.4187402604
 20
8.008763625
 10
13.4501919221
 20
7.967037195
 10
13.4776700537
 20
7.9220784452
 10
13.5005269298
 20
7.8750869325
 10
13.5182783298
 20
7.8270994433
 10
13.5304193558
 20
7.7793988748
 10
13.5365708914
 20
7.7334217933
 10
13.5365742398
 20
7.6904358354
 10
13.5304295518
 20
7.6515575738
 10
13.5225311192
 20
7.6273446326
  0
LWPOLYLINE
  5
4A6
100
AcDbEntity
  8
0
100
AcDbPolyline
 62
7
  6
CONTINUOUS
 90
10
 70
0
 10
13.3814726638
 20
8.102503958
 10
13.4192661099
 20
8.0707461972
 10
13.4551849956
 20
8.0331283578
 10
13.4880211877
 20
7.9909287607
 10
13.517287842
 20
7.9447121901
 10
13.5420492549
 20
7.8957089585
 10
13.5612566928
 20
7.8459573348
 10
13.5743665108
 20
7.7973567482
 10
13.5813699616
 20
7.7504670254
 10
13.5817359862
 20
7.7282709222
  0
LWPOLYLINE
  5
4A7
100
AcDbEntity
  8
0
100
AcDbPolyline
 62
7
  6
CONTINUOUS
 90
8
 70
0
 10
13.5447413281
 20
8.0728036226
 10
13.5784677332
 20
8.0274314364
 10
13.6078670636
 20
7.9781847243
 10
13.631826053
 20
7.9269009761
 10
13.6495559919
 20
7.8755378302
 10
13.660839726
 20
7.8248774598
 10
13.6652440876
 20
7.7760871031
 10
13.6645935966
 20
7.7657382219
  0
LWPOLYLINE
  5
4A8
100
AcDbEntity
  8
0
100
AcDbPolyline
 62
7
  6
CONTINUOUS
 90
4
 70
0
 10
13.5776273901
 20
8.018587773
 10
13.5426554069
 20
8.0673934535
 10
13.50384718
 20
8.1112796433
 10
13.4623069158
 20
8.1489605587
  0
LWPOLYLINE
  5
4A9
100
AcDbEntity
  8
0
100
AcDbPolyline
 62
7
  6
CONTINUOUS
 90
8
 70
0
 10
13.6326759713
 20
7.7962823004
 10
13.6203573737
 20
7.8499874924
 10
13.601231594
 20
7.9046669398
 10
13.5758318025
 20
7.9587217202
 10
13.5448731939
 20
8.0105710342
 10
13.5092322381
 20
8.0586980687
 10
13.469921251
 20
8.1016940027
 10
13.4280590253
 20
8.1382988812
  0
LWPOLYLINE
  5
4AA
100
AcDbEntity
  8
0
100
AcDbPolyline
 62
7
  6
CONTINUOUS
 90
4
 70
0
 10
13.5944241075
 20
7.8436167244
 10
13.6056821116
 20
7.7930565699
 10
13.6100864767
 20
7.7444463745
 10
13.6097324653
 20
7.7387073057
  0
LWPOLYLINE
  5
4AB
100
AcDbEntity
  8
0
100
AcDbPolyline
 62
7
  6
CONTINUOUS
 90
3
 70
0
 10
13.6333003721
 20
7.8087178395
 10
13.6376715762
 20
7.7598919352
 10
13.6371627653
 20
7.7519319847
  0
LWPOLYLINE
  5
4AC
100
AcDbEntity
  8
0
100
AcDbPolyline
 62
7
  6
CONTINUOUS
 90
6
 70
0
 10
13.6655811027
 20
7.7533674643
 10
13.6615399869
 20
7.803991624
 10
13.6503220717
 20
7.8574009139
 10
13.6322311008
 20
7.9120332618
 10
13.607770222
 20
7.9662911118
 10
13.5776273901
 20
8.018587773
  0
LWPOLYLINE
  5
4AD
100
AcDbEntity
  8
0
100
AcDbPolyline
 62
7
  6
CONTINUOUS
 90
3
 70
0
 10
13.1551189843
 20
8.0992395971
 10
13.1681952153
 20
8.1110325773
 10
13.1741710985
 20
8.1147643722
  0
LWPOLYLINE
  5
4AE
100
AcDbEntity
  8
0
100
AcDbPolyline
 62
7
  6
CONTINUOUS
 90
4
 70
0
 10
13.5788039288
 20
7.5879336545
 10
13.5820635794
 20
7.5887428378
 10
13.6112057265
 20
7.6062592463
 10
13.6347399724
 20
7.6323601737
  0
LINE
  5
4AF
100
AcDbEntity
  8
0
100
AcDbLine
 62
7
  6
CONTINUOUS
 10
13.4597350638
 20
7.5757604402
 11
13.4539457427
 21
7.5747620337
  0
LWPOLYLINE
  5
4B0
100
AcDbEntity
  8
AXIS_COSMETIC_THREADS
100
AcDbPolyline
 62
7
  6
CONTINUOUS
 90
6
 70
0
 10
13.3124833139
 20
8.0882726348
 10
13.2833650557
 20
8.1027844428
 10
13.2547889207
 20
8.1124275787
 10
13.2272869387
 20
8.1170225067
 10
13.2013711411
 20
8.1164836786
 10
13.1775240277
 20
8.1108211262
  0
LWPOLYLINE
  5
4B1
100
AcDbEntity
  8
0
100
AcDbPolyline
 62
7
  6
CONTINUOUS
 90
4
 70
0
 10
13.3633408372
 20
8.1136348857
 10
13.3201149511
 20
8.1409144377
 10
13.2770348347
 20
8.1597640214
 10
13.2353213624
 20
8.1696276046
  0
LWPOLYLINE
  5
4B2
100
AcDbEntity
  8
0
100
AcDbPolyline
 62
7
  6
CONTINUOUS
 90
4
 70
0
 10
13.3937777976
 20
8.1274539905
 10
13.3504555618
 20
8.1553416242
 10
13.3072011735
 20
8.1747927943
 10
13.2652478332
 20
8.1852306369
  0
LINE
  5
4B3
100
AcDbEntity
  8
0
100
AcDbLine
 62
7
  6
CONTINUOUS
 10
13.3426289088
 20
8.1277226634
 11
13.3814726638
 21
8.102503958
  0
LWPOLYLINE
  5
4B4
100
AcDbEntity
  8
0
100
AcDbPolyline
 62
7
  6
CONTINUOUS
 90
7
 70
0
 10
13.3702059584
 20
8.1436441854
 10
13.4112273598
 20
8.1167943618
 10
13.451355904
 20
8.0823647494
 10
13.4887968124
 20
8.0419143066
 10
13.522451754
 20
7.996875803
 10
13.5521152169
 20
7.94746522
 10
13.5764576741
 20
7.8955855494
  0
LWPOLYLINE
  5
4B5
100
AcDbEntity
  8
0
100
AcDbPolyline
 62
7
  6
CONTINUOUS
 90
9
 70
0
 10
13.3977830081
 20
8.1595657074
 10
13.4390067971
 20
8.1325630932
 10
13.4794601123
 20
8.0977761064
 10
13.5172782842
 20
8.0567441672
 10
13.5509846777
 20
8.0113690514
 10
13.5801380418
 20
7.9625494302
 10
13.6041415258
 20
7.9112442964
 10
13.6220296867
 20
7.8594379207
 10
13.6333003721
 20
7.8087178395
  0
LWPOLYLINE
  5
4B6
100
AcDbEntity
  8
0
100
AcDbPolyline
 62
7
  6
CONTINUOUS
 90
4
 70
0
 10
13.4280590253
 20
8.1382988812
 10
13.3848383714
 20
8.1674381693
 10
13.3414915111
 20
8.1882539275
 10
13.2992543276
 20
8.200129702
  0
LWPOLYLINE
  5
4B7
100
AcDbEntity
  8
0
100
AcDbPolyline
 62
7
  6
CONTINUOUS
 90
4
 70
0
 10
13.4623069158
 20
8.1489605587
 10
13.4192180838
 20
8.1793304466
 10
13.3758090813
 20
8.2014956645
 10
13.3333175944
 20
8.2148006076
  0
LWPOLYLINE
  5
4B8
100
AcDbEntity
  8
0
100
AcDbPolyline
 62
7
  6
CONTINUOUS
 90
3
 70
0
 10
13.5714935079
 20
8.129998741
 10
13.5306840474
 20
8.1697495746
 10
13.4879491822
 20
8.2025140087
  0
LWPOLYLINE
  5
4B9
100
AcDbEntity
  8
0
100
AcDbPolyline
 62
7
  6
CONTINUOUS
 90
4
 70
0
 10
13.6712258159
 20
7.9812915355
 10
13.6427767272
 20
8.0343699713
 10
13.6092152965
 20
8.0844273144
 10
13.5714935079
 20
8.129998741
  0
LWPOLYLINE
  5
4BA
100
AcDbEntity
  8
0
100
AcDbPolyline
 62
7
  6
CONTINUOUS
 90
7
 70
0
 10
13.6551270218
 20
8.0244009027
 10
13.6798934893
 20
7.9754087362
 10
13.6991093084
 20
7.925664506
 10
13.7122313661
 20
7.8770611329
 10
13.7192528312
 20
7.8301026184
 10
13.7199757182
 20
7.7863401306
 10
13.719937231
 20
7.7860653169
  0
LWPOLYLINE
  5
4BB
100
AcDbEntity
  8
0
100
AcDbPolyline
 62
7
  6
CONTINUOUS
 90
7
 70
0
 10
13.724282822
 20
7.9341016705
 10
13.7027372464
 20
7.9887346557
 10
13.6751649184
 20
8.0421469623
 10
13.6423440633
 20
8.0927764308
 10
13.6052051791
 20
8.1391416386
 10
13.5648040405
 20
8.1798848797
 10
13.5222910682
 20
8.2138115554
  0
LWPOLYLINE
  5
4BC
100
AcDbEntity
  8
0
100
AcDbPolyline
 62
7
  6
CONTINUOUS
 90
5
 70
0
 10
13.7144205375
 20
7.9750022356
 10
13.7323480315
 20
7.9230883085
 10
13.7435846924
 20
7.8725548604
 10
13.7479743951
 20
7.8239008542
 10
13.7472652289
 20
7.8125448524
  0
LWPOLYLINE
  5
4BD
100
AcDbEntity
  8
0
100
AcDbPolyline
 62
7
  6
CONTINUOUS
 90
6
 70
0
 10
13.8032059164
 20
7.8436796043
 10
13.7975873788
 20
7.8950395264
 10
13.784840636
 20
7.9488499388
 10
13.765313787
 20
8.003537132
 10
13.739551638
 20
8.0575019589
 10
13.7082798965
 20
8.1091662299
  0
LWPOLYLINE
  5
4BE
100
AcDbEntity
  8
0
100
AcDbPolyline
 62
7
  6
CONTINUOUS
 90
3
 70
0
 10
13.7711760655
 20
7.8883858905
 10
13.7755561585
 20
7.8395406322
 10
13.7752134057
 20
7.8341685417
  0
LWPOLYLINE
  5
4BF
100
AcDbEntity
  8
0
100
AcDbPolyline
 62
7
  6
CONTINUOUS
 90
11
 70
0
 10
13.6887680033
 20
7.7161539462
 10
13.6931320253
 20
7.7617176096
 10
13.6902278766
 20
7.8117692976
 10
13.680118098
 20
7.8648443505
 10
13.6630742836
 20
7.9193903933
 10
13.6395692007
 20
7.9738123739
 10
13.6102630739
 20
8.0265188396
 10
13.5759844303
 20
8.075968109
 10
13.537706062
 20
8.1207130001
 10
13.4965168029
 20
8.1594428162
 10
13.4535899389
 20
8.1910213729
  0
LWPOLYLINE
  5
4C0
100
AcDbEntity
  8
0
100
AcDbPolyline
 62
7
  6
CONTINUOUS
 90
3
 70
0
 10
14.7723325075
 20
9.0582853771
 10
14.7635748682
 20
9.0542173461
 10
14.7593523749
 20
9.051903024
  0
LWPOLYLINE
  5
4C1
100
AcDbEntity
  8
0
100
AcDbPolyline
 62
7
  6
CONTINUOUS
 90
4
 70
0
 10
13.7445446092
 20
7.6837749535
 10
13.749454371
 20
7.6850860989
 10
13.7782768122
 20
7.7031452513
 10
13.8014433488
 20
7.7297487894
  0
LWPOLYLINE
  5
4C2
100
AcDbEntity
  8
0
100
AcDbPolyline
 62
7
  6
CONTINUOUS
 90
4
 70
0
 10
13.7714276804
 20
7.6988538204
 10
13.7720635783
 20
7.698993409
 10
13.8016972352
 20
7.7156605198
 10
13.8257989793
 20
7.7409728019
  0
LWPOLYLINE
  5
4C3
100
AcDbEntity
  8
0
100
AcDbPolyline
 62
7
  6
CONTINUOUS
 90
3
 70
0
 10
13.4535899389
 20
8.1910213729
 10
13.4101491682
 20
8.2145199614
 10
13.3674330986
 20
8.2292442923
  0
LWPOLYLINE
  5
4C4
100
AcDbEntity
  8
0
100
AcDbPolyline
 62
7
  6
CONTINUOUS
 90
6
 70
0
 10
13.480514157
 20
8.2073302734
 10
13.5193858313
 20
8.1820908046
 10
13.5572108758
 20
8.1502977998
 10
13.5930407796
 20
8.1127701841
 10
13.625858523
 20
8.0706045116
 10
13.6551270218
 20
8.0244009027
  0
LWPOLYLINE
  5
4C5
100
AcDbEntity
  8
0
100
AcDbPolyline
 62
7
  6
CONTINUOUS
 90
11
 70
0
 10
13.454080894
 20
8.1906602086
 10
13.4939218149
 20
8.1645866076
 10
13.5341992642
 20
8.1300208541
 10
13.5719482231
 20
8.0891723397
 10
13.6057323364
 20
8.0438205476
 10
13.6353621435
 20
7.9942606791
 10
13.6596292473
 20
7.942263904
 10
13.6774811173
 20
7.8902303131
 10
13.6885562662
 20
7.8399131259
 10
13.6928280432
 20
7.7915860422
 10
13.6920787851
 20
7.7798697269
  0
LWPOLYLINE
  5
4C6
100
AcDbEntity
  8
0
100
AcDbPolyline
 62
7
  6
CONTINUOUS
 90
4
 70
0
 10
13.4253600577
 20
8.1754872294
 10
13.4665401338
 20
8.1485176332
 10
13.5069533297
 20
8.1137788641
 10
13.5447413281
 20
8.0728036226
  0
LWPOLYLINE
  5
4C7
100
AcDbEntity
  8
0
100
AcDbPolyline
 62
7
  6
CONTINUOUS
 90
4
 70
0
 10
13.7082798965
 20
8.1091662299
 10
13.6723841171
 20
8.1570185002
 10
13.6328840089
 20
8.1996579206
 10
13.5909038514
 20
8.2358348794
  0
LWPOLYLINE
  5
4C8
100
AcDbEntity
  8
0
100
AcDbPolyline
 62
7
  6
CONTINUOUS
 90
4
 70
0
 10
13.7410794532
 20
8.1172180116
 10
13.705842989
 20
8.1657625045
 10
13.6668349478
 20
8.2093043466
 10
13.625165333
 20
8.2465677447
  0
LWPOLYLINE
  5
4C9
100
AcDbEntity
  8
0
100
AcDbPolyline
 62
7
  6
CONTINUOUS
 90
7
 70
0
 10
13.7434836255
 20
8.1236283259
 10
13.7731686029
 20
8.0740166207
 10
13.7974807085
 20
8.0219550861
 10
13.8153621051
 20
7.9698530439
 10
13.8264436661
 20
7.9195069677
 10
13.8307113535
 20
7.8713158865
 10
13.8301172674
 20
7.8619490586
  0
LWPOLYLINE
  5
4CA
100
AcDbEntity
  8
0
100
AcDbPolyline
 62
7
  6
CONTINUOUS
 90
5
 70
0
 10
13.8033976099
 20
8.0726311639
 10
13.7737618962
 20
8.1251818943
 10
13.7392093026
 20
8.1743837386
 10
13.7007205689
 20
8.2187966931
 10
13.6593906324
 20
8.2571196916
  0
LWPOLYLINE
  5
4CB
100
AcDbEntity
  8
0
100
AcDbPolyline
 62
7
  6
CONTINUOUS
 90
6
 70
0
 10
13.7929761513
 20
8.1040720777
 10
13.8177399352
 20
8.0551035021
 10
13.8369592335
 20
8.0053798059
 10
13.8500918239
 20
7.9567862359
 10
13.8571330019
 20
7.9097698718
 10
13.8577310871
 20
7.8736269538
  0
LWPOLYLINE
  5
4CC
100
AcDbEntity
  8
0
100
AcDbPolyline
 62
7
  6
CONTINUOUS
 90
8
 70
0
 10
13.7684797882
 20
7.887415463
 10
13.7546440335
 20
7.9414681103
 10
13.7341007743
 20
7.9961478192
 10
13.7074243055
 20
8.0498556596
 10
13.6753668613
 20
8.1010208979
 10
13.6388367913
 20
8.1481465674
 10
13.5988722071
 20
8.1898528994
 10
13.5566108637
 20
8.2249173533
  0
LINE
  5
4CD
100
AcDbEntity
  8
0
100
AcDbLine
 62
7
  6
CONTINUOUS
 10
14.0735426337
 20
8.6895305059
 11
14.0698202247
 21
8.6860795351
  0
LWPOLYLINE
  5
4CE
100
AcDbEntity
  8
AXIS_COSMETIC_THREADS
100
AcDbPolyline
 62
7
  6
CONTINUOUS
 90
5
 70
0
 10
13.1612286411
 20
8.1032490548
 10
13.1561895835
 20
8.100140275
 10
13.1377650128
 20
8.0846399807
 10
13.1225933438
 20
8.0646088275
 10
13.1109570423
 20
8.0404197551
  0
LINE
  5
4CF
100
AcDbEntity
  8
AXIS
100
AcDbLine
 62
7
  6
CONTINUOUS
 10
14.2159147034
 20
8.7433471556
 11
14.6722499245
 21
9.0068108457
  0
LINE
  5
4D0
100
AcDbEntity
  8
0
100
AcDbLine
 62
7
  6
CONTINUOUS
 10
14.696978422
 20
9.0158916205
 11
14.7593523749
 21
9.051903024
  0
LINE
  5
4D1
100
AcDbEntity
  8
0
100
AcDbLine
 62
7
  6
CONTINUOUS
 10
14.7723325075
 20
9.0582853771
 11
14.7327768024
 21
9.0354480164
  0
LWPOLYLINE
  5
4D2
100
AcDbEntity
  8
0
100
AcDbPolyline
 62
7
  6
CONTINUOUS
 90
3
 70
0
 10
14.0726571133
 20
8.6876550472
 10
14.0414213337
 20
8.6703077498
 10
14.0410590844
 20
8.6699414894
  0
LWPOLYLINE
  5
4D3
100
AcDbEntity
  8
AXIS
100
AcDbPolyline
 62
7
  6
CONTINUOUS
 90
6
 70
0
 10
14.6722687306
 20
9.0068158736
 10
14.6800330507
 20
9.0108985861
 10
14.71434436
 20
9.0210085768
 10
14.7528325323
 20
9.0209176315
 10
14.7941868991
 20
9.0106288471
 10
14.836999187
 20
8.9904925958
  0
LWPOLYLINE
  5
4D4
100
AcDbEntity
  8
AXIS
100
AcDbPolyline
 62
7
  6
CONTINUOUS
 90
11
 70
0
 10
15.2009135591
 20
9.0660762516
 10
15.2123773858
 20
9.0704975917
 10
15.2299618425
 20
9.0710022338
 10
15.2492439795
 20
9.0653578078
 10
15.269103189
 20
9.0538923473
 10
15.288385326
 20
9.037272183
 10
15.3059697827
 20
9.0164632185
 10
15.3208346145
 20
8.9926747953
 10
15.3321159313
 20
8.9672894099
 10
15.3391581041
 20
8.9417823688
 10
15.3415518672
 20
8.9176360484
  0
LWPOLYLINE
  5
4D5
100
AcDbEntity
  8
0
100
AcDbPolyline
 62
7
  6
CONTINUOUS
 90
4
 70
0
 10
14.1028898425
 20
7.8905833732
 10
14.1068827167
 20
7.8916076437
 10
14.1358838546
 20
7.9093643564
 10
14.1592557835
 20
7.9356879518
  0
LWPOLYLINE
  5
4D6
100
AcDbEntity
  8
0
100
AcDbPolyline
 62
7
  6
CONTINUOUS
 90
4
 70
0
 10
13.9371543326
 20
7.794729723
 10
13.9394819798
 20
7.795283422
 10
13.9688010135
 20
7.812496294
 10
13.9925391826
 20
7.8383156614
  0
LWPOLYLINE
  5
4D7
100
AcDbEntity
  8
0
100
AcDbPolyline
 62
7
  6
CONTINUOUS
 90
3
 70
0
 10
13.4879491822
 20
8.2025140087
 10
13.44450704
 20
8.2273289291
 10
13.4015962686
 20
8.2434618566
  0
LWPOLYLINE
  5
4D8
100
AcDbEntity
  8
0
100
AcDbPolyline
 62
7
  6
CONTINUOUS
 90
4
 70
0
 10
13.5222910682
 20
8.2138115554
 10
13.4788779522
 20
8.2399248319
 10
13.4358024982
 20
8.2574545617
 10
13.3942927152
 20
8.2658796269
  0
LWPOLYLINE
  5
4D9
100
AcDbEntity
  8
0
100
AcDbPolyline
 62
7
  6
CONTINUOUS
 90
4
 70
0
 10
13.5566108637
 20
8.2249173533
 10
13.513257151
 20
8.2523100858
 10
13.4700471509
 20
8.2712238292
 10
13.4282127762
 20
8.2810973118
  0
LWPOLYLINE
  5
4DA
100
AcDbEntity
  8
0
100
AcDbPolyline
 62
7
  6
CONTINUOUS
 90
5
 70
0
 10
13.5908223556
 20
8.2710163614
 10
13.6317208432
 20
8.2442592309
 10
13.6719044337
 20
8.2098024902
 10
13.7096460579
 20
8.1690059925
 10
13.7434836255
 20
8.1236283259
  0
LWPOLYLINE
  5
4DB
100
AcDbEntity
  8
0
100
AcDbPolyline
 62
7
  6
CONTINUOUS
 90
7
 70
0
 10
13.5080912067
 20
8.2232517954
 10
13.5491145027
 20
8.1964005424
 10
13.5893147181
 20
8.1619012601
 10
13.6268745401
 20
8.121290083
 10
13.660517398
 20
8.076214581
 10
13.6901269049
 20
8.0268356779
 10
13.7144205375
 20
7.9750022356
  0
LWPOLYLINE
  5
4DC
100
AcDbEntity
  8
0
100
AcDbPolyline
 62
7
  6
CONTINUOUS
 90
11
 70
0
 10
13.563245306
 20
8.2550948394
 10
13.6044132077
 20
8.2281344372
 10
13.6448152402
 20
8.1934090819
 10
13.6825946758
 20
8.1524498117
 10
13.7163177991
 20
8.1070917485
 10
13.7457322342
 20
8.0578301717
 10
13.7697172407
 20
8.0064939386
 10
13.7874452603
 20
7.9551313176
 10
13.7987246748
 20
7.9044869575
 10
13.8031290678
 20
7.8557104328
 10
13.8026772167
 20
7.8485125306
  0
LWPOLYLINE
  5
4DD
100
AcDbEntity
  8
0
100
AcDbPolyline
 62
7
  6
CONTINUOUS
 90
9
 70
0
 10
13.5356682563
 20
8.2391733174
 10
13.5769057222
 20
8.2121603707
 10
13.6173715632
 20
8.1773583171
 10
13.655199516
 20
8.1363082219
 10
13.6889173194
 20
8.0909056013
 10
13.7180819789
 20
8.0420465511
 10
13.7420144045
 20
7.990882361
 10
13.7598929444
 20
7.9391228691
 10
13.7711760655
 20
7.8883858905
  0
LWPOLYLINE
  5
4DE
100
AcDbEntity
  8
0
100
AcDbPolyline
 62
7
  6
CONTINUOUS
 90
4
 70
0
 10
13.5909038514
 20
8.2358348794
 10
13.5476398766
 20
8.2644872568
 10
13.5043255629
 20
8.2847712395
 10
13.4621958495
 20
8.296085802
  0
LWPOLYLINE
  5
4DF
100
AcDbEntity
  8
0
100
AcDbPolyline
 62
7
  6
CONTINUOUS
 90
4
 70
0
 10
13.625165333
 20
8.2465677447
 10
13.5820213668
 20
8.2764590589
 10
13.5386330462
 20
8.2980985312
 10
13.4962374573
 20
8.31084581
  0
LWPOLYLINE
  5
4E0
100
AcDbEntity
  8
0
100
AcDbPolyline
 62
7
  6
CONTINUOUS
 90
7
 70
0
 10
13.8580252266
 20
8.0256232559
 10
13.8351102275
 20
8.080126066
 10
13.8063236741
 20
8.1330635919
 10
13.7724790193
 20
8.1828874485
 10
13.7345364641
 20
8.228139586
 10
13.6935750997
 20
8.2674945914
 10
13.6507616001
 20
8.2997981419
  0
LINE
  5
4E1
100
AcDbEntity
  8
0
100
AcDbLine
 62
7
  6
CONTINUOUS
 10
13.8525395831
 20
8.0540334492
 11
13.8703931357
 21
8.002132037
  0
LINE
  5
4E2
100
AcDbEntity
  8
0
100
AcDbLine
 62
7
  6
CONTINUOUS
 10
13.8744255664
 20
7.9711489593
 11
13.8580252266
 21
8.0256232559
  0
LWPOLYLINE
  5
4E3
100
AcDbEntity
  8
0
100
AcDbPolyline
 62
7
  6
CONTINUOUS
 90
8
 70
0
 10
13.9039471065
 20
7.9786534514
 10
13.8886122225
 20
8.032978501
 10
13.8666787513
 20
8.0875825545
 10
13.838761321
 20
8.1408688769
 10
13.8056481694
 20
8.1912789638
 10
13.7682782747
 20
8.2373377573
 10
13.7277141136
 20
8.2776964413
 10
13.6851108367
 20
8.3111715739
  0
LWPOLYLINE
  5
4E4
100
AcDbEntity
  8
0
100
AcDbPolyline
 62
7
  6
CONTINUOUS
 90
4
 70
0
 10
13.8977710973
 20
8.018755422
 10
13.9090580096
 20
7.9680143874
 10
13.9134411497
 20
7.9191640173
 10
13.9126760805
 20
7.9071634981
  0
LWPOLYLINE
  5
4E5
100
AcDbEntity
  8
0
100
AcDbPolyline
 62
7
  6
CONTINUOUS
 90
4
 70
0
 10
13.8703931357
 20
8.002132037
 10
13.8815567509
 20
7.9516119131
 10
13.8858680952
 20
7.9029914874
 10
13.8850821451
 20
7.8907669624
  0
LINE
  5
4E6
100
AcDbEntity
  8
0
100
AcDbLine
 62
7
  6
CONTINUOUS
 10
13.6772841372
 20
7.6764127586
 11
13.6887680033
 21
7.7161539462
  0
LWPOLYLINE
  5
4E7
100
AcDbEntity
  8
0
100
AcDbPolyline
 62
7
  6
CONTINUOUS
 90
7
 70
0
 10
13.7024404403
 20
7.6867211791
 10
13.7150113867
 20
7.7254410786
 10
13.7205045797
 20
7.7701778955
 10
13.7187389328
 20
7.8196211676
 10
13.7097439561
 20
7.8723238867
 10
13.6937589004
 20
7.9267444801
 10
13.6712258159
 20
7.9812915355
  0
LWPOLYLINE
  5
4E8
100
AcDbEntity
  8
0
100
AcDbPolyline
 62
7
  6
CONTINUOUS
 90
10
 70
0
 10
13.5599110045
 20
7.5976894056
 10
13.5743333124
 20
7.63442945
 10
13.5818066704
 20
7.6774828212
 10
13.5820940317
 20
7.7255954694
 10
13.575165588
 20
7.7773674395
 10
13.5611996288
 20
7.8312932446
 10
13.5405773999
 20
7.8858052827
 10
13.5138721085
 20
7.9393190456
 10
13.4818323926
 20
7.9902788143
 10
13.4453607305
 20
8.037202525
  0
LWPOLYLINE
  5
4E9
100
AcDbEntity
  8
0
100
AcDbPolyline
 62
7
  6
CONTINUOUS
 90
6
 70
0
 10
13.5856822341
 20
7.6103332425
 10
13.6008124797
 20
7.6464996667
 10
13.6089859752
 20
7.6891302932
 10
13.6099438717
 20
7.7369757654
 10
13.6036366628
 20
7.7886354314
 10
13.5902256205
 20
7.84259798
  0
LWPOLYLINE
  5
4EA
100
AcDbEntity
  8
0
100
AcDbPolyline
 62
7
  6
CONTINUOUS
 90
9
 70
0
 10
13.5225311192
 20
7.6273446326
 10
13.5182947121
 20
7.6178692751
 10
13.5005481741
 20
7.5903705077
 10
13.4776972966
 20
7.5697642597
 10
13.4502284165
 20
7.5565269521
 10
13.418783613
 20
7.5511074928
 10
13.384455863
 20
7.5537397935
 10
13.3485659495
 20
7.5641675471
 10
13.3124833139
 20
7.5816328849
  0
LWPOLYLINE
  5
4EB
100
AcDbEntity
  8
AXIS_COSMETIC_THREADS
100
AcDbPolyline
 62
7
  6
CONTINUOUS
 90
3
 70
0
 10
13.5140095856
 20
7.6421415521
 10
13.5023732841
 20
7.6179524796
 10
13.4872016151
 20
7.5979213265
  0
LINE
  5
4EC
100
AcDbEntity
  8
AXIS_COSMETIC_THREADS
100
AcDbLine
 62
7
  6
CONTINUOUS
 10
13.1976863849
 20
8.1242994029
 11
13.1612339911
 21
8.1032537292
  0
LINE
  5
4ED
100
AcDbEntity
  8
AXIS_COSMETIC_THREADS
100
AcDbLine
 62
7
  6
CONTINUOUS
 10
13.1775240277
 20
8.1108211262
 11
13.1612286411
 21
8.1032490548
  0
LWPOLYLINE
  5
4EE
100
AcDbEntity
  8
0
100
AcDbPolyline
 62
7
  6
CONTINUOUS
 90
4
 70
0
 10
14.2686347396
 20
7.9864149096
 10
14.2742655731
 20
7.9879659847
 10
14.3029455771
 20
8.0062645584
 10
14.3259486404
 20
8.0330894697
  0
LWPOLYLINE
  5
4EF
100
AcDbEntity
  8
0
100
AcDbPolyline
 62
7
  6
CONTINUOUS
 90
4
 70
0
 10
14.2955074916
 20
8.0015188702
 10
14.2968948861
 20
8.0018346458
 10
14.3263897886
 20
8.0187433841
 10
14.3503310519
 20
8.0442803028
  0
LWPOLYLINE
  5
4F0
100
AcDbEntity
  8
0
100
AcDbPolyline
 62
7
  6
CONTINUOUS
 90
4
 70
0
 10
13.2322983532
 20
8.1301431223
 10
13.2405107649
 20
8.1288215136
 10
13.2764006783
 20
8.11839376
 10
13.3124833139
 20
8.1009284222
  0
LWPOLYLINE
  5
4F1
100
AcDbEntity
  8
0
100
AcDbPolyline
 62
7
  6
CONTINUOUS
 90
3
 70
0
 10
13.6163968604
 20
8.2882283524
 10
13.5729648921
 20
8.3112075994
 10
13.5303330802
 20
8.3253782109
  0
LWPOLYLINE
  5
4F2
100
AcDbEntity
  8
0
100
AcDbPolyline
 62
7
  6
CONTINUOUS
 90
3
 70
0
 10
13.6507616001
 20
8.2997981419
 10
13.6073163747
 20
8.3241004949
 10
13.5644781605
 20
8.3396840419
  0
LWPOLYLINE
  5
4F3
100
AcDbEntity
  8
0
100
AcDbPolyline
 62
7
  6
CONTINUOUS
 90
6
 70
0
 10
13.6183994053
 20
8.2869378834
 10
13.6572924017
 20
8.2616825548
 10
13.6951877993
 20
8.2298191031
 10
13.730927752
 20
8.192375792
 10
13.763715455
 20
8.1502523822
 10
13.7929761513
 20
8.1040720777
  0
LWPOLYLINE
  5
4F4
100
AcDbEntity
  8
0
100
AcDbPolyline
 62
7
  6
CONTINUOUS
 90
7
 70
0
 10
13.6500133051
 20
8.3002167225
 10
13.6870420916
 20
8.2759762042
 10
13.727350318
 20
8.2413634636
 10
13.7650577474
 20
8.2005382871
 10
13.7987547124
 20
8.1552965716
 10
13.8283115449
 20
8.1058806614
 10
13.8525395831
 20
8.0540334492
  0
LWPOLYLINE
  5
4F5
100
AcDbEntity
  8
0
100
AcDbPolyline
 62
7
  6
CONTINUOUS
 90
8
 70
0
 10
13.6735535046
 20
8.3187809274
 10
13.7147943202
 20
8.2917654499
 10
13.7552632276
 20
8.2569597071
 10
13.7930935808
 20
8.2159051587
 10
13.8268152202
 20
8.1704942367
 10
13.8559945979
 20
8.121602612
 10
13.8798978205
 20
8.0704944816
 10
13.8977710973
 20
8.018755422
  0
LINE
  5
4F6
100
AcDbEntity
  8
0
100
AcDbLine
 62
7
  6
CONTINUOUS
 10
13.6593906324
 20
8.2571196916
 11
13.6163968604
 21
8.2882283524
  0
LWPOLYLINE
  5
4F7
100
AcDbEntity
  8
0
100
AcDbPolyline
 62
7
  6
CONTINUOUS
 90
3
 70
0
 10
13.8019416947
 20
8.2463960421
 10
13.7618030857
 20
8.2877293619
 10
13.7194398317
 20
8.3223519348
  0
LWPOLYLINE
  5
4F8
100
AcDbEntity
  8
0
100
AcDbPolyline
 62
7
  6
CONTINUOUS
 90
9
 70
0
 10
13.7826302252
 20
8.2730847387
 10
13.8203838506
 20
8.232173564
 10
13.854096047
 20
8.1868595633
 10
13.883548833
 20
8.1375671031
 10
13.9076030232
 20
8.0861002309
 10
13.9253446104
 20
8.0346893747
 10
13.9366101058
 20
7.9840934153
 10
13.9410136146
 20
7.9353589502
 10
13.9404752311
 20
7.9267524036
  0
LWPOLYLINE
  5
4F9
100
AcDbEntity
  8
0
100
AcDbPolyline
 62
7
  6
CONTINUOUS
 90
4
 70
0
 10
13.8716692515
 20
8.2077471244
 10
13.8355224741
 20
8.2553193752
 10
13.7958374626
 20
8.297597594
 10
13.7537438612
 20
8.3333426484
  0
LWPOLYLINE
  5
4FA
100
AcDbEntity
  8
0
100
AcDbPolyline
 62
7
  6
CONTINUOUS
 90
7
 70
0
 10
13.8744421052
 20
8.2133427415
 10
13.9036199847
 20
8.1671667544
 10
13.9282971384
 20
8.1182295758
 10
13.9474322779
 20
8.0685626146
 10
13.9604831043
 20
8.0200779137
 10
13.9674424165
 20
7.973441687
 10
13.9678553415
 20
7.9480149908
  0
LWPOLYLINE
  5
4FB
100
AcDbEntity
  8
0
100
AcDbPolyline
 62
7
  6
CONTINUOUS
 90
5
 70
0
 10
13.9352961593
 20
8.1638847722
 10
13.904513613
 20
8.2158348129
 10
13.8690164217
 20
8.2641127874
 10
13.8298127304
 20
8.3073054956
 10
13.7880182189
 20
8.3441472736
  0
LWPOLYLINE
  5
4FC
100
AcDbEntity
  8
0
100
AcDbPolyline
 62
7
  6
CONTINUOUS
 90
6
 70
0
 10
13.9308347036
 20
8.1837266572
 10
13.9555882501
 20
8.1347940319
 10
13.9748062725
 20
8.0851038115
 10
13.98794778
 20
8.0365324647
 10
13.9950104143
 20
7.9894692887
 10
13.9955061255
 20
7.9596960245
  0
LWPOLYLINE
  5
4FD
100
AcDbEntity
  8
0
100
AcDbPolyline
 62
7
  6
CONTINUOUS
 90
6
 70
0
 10
13.9914583167
 20
8.1171461952
 10
13.9672044286
 20
8.1714431571
 10
13.9372422723
 20
8.2238323852
 10
13.902419408
 20
8.272781402
 10
13.8637244168
 20
8.316857539
 10
13.8222582199
 20
8.3547695016
  0
LWPOLYLINE
  5
4FE
100
AcDbEntity
  8
0
100
AcDbPolyline
 62
7
  6
CONTINUOUS
 90
7
 70
0
 10
13.8436478444
 20
7.7741833463
 10
13.8547042755
 20
7.8143160962
 10
13.8586257827
 20
7.8601941646
 10
13.8552768781
 20
7.9104739787
 10
13.8447330059
 20
7.9636842601
 10
13.8272783543
 20
8.0182687106
 10
13.8033976099
 20
8.0726311639
  0
LWPOLYLINE
  5
4FF
100
AcDbEntity
  8
0
100
AcDbPolyline
 62
7
  6
CONTINUOUS
 90
6
 70
0
 10
13.7274325314
 20
7.697205137
 10
13.7410810748
 20
7.7348758722
 10
13.7476989948
 20
7.7787536826
 10
13.7470725739
 20
7.8275530277
 10
13.7391982705
 20
7.8798455813
 10
13.724282822
 20
7.9341016705
  0
LWPOLYLINE
  5
500
100
AcDbEntity
  8
0
100
AcDbPolyline
 62
7
  6
CONTINUOUS
 90
5
 70
0
 10
13.7522623346
 20
7.7078685518
 10
13.7669782242
 20
7.7444629938
 10
13.7747156265
 20
7.7874502492
 10
13.7752283447
 20
7.8355706147
 10
13.7684797882
 20
7.887415463
  0
LWPOLYLINE
  5
501
100
AcDbEntity
  8
0
100
AcDbPolyline
 62
7
  6
CONTINUOUS
 90
5
 70
0
 10
13.6102897145
 20
7.6212525553
 10
13.626471786
 20
7.6563062287
 10
13.6357561436
 20
7.6980034761
 10
13.6378517098
 20
7.7451220207
 10
13.6326759713
 20
7.7962823004
  0
LWPOLYLINE
  5
502
100
AcDbEntity
  8
0
100
AcDbPolyline
 62
7
  6
CONTINUOUS
 90
4
 70
0
 10
13.6347399724
 20
7.6323601737
 10
13.6519618154
 20
7.6662758307
 10
13.6623498918
 20
7.7070097032
 10
13.6655811027
 20
7.7533674643
  0
LWPOLYLINE
  5
503
100
AcDbEntity
  8
0
100
AcDbPolyline
 62
7
  6
CONTINUOUS
 90
4
 70
0
 10
13.5246861743
 20
7.6339510347
 10
13.5081520542
 20
7.6083284032
 10
13.4861653001
 20
7.5884991974
 10
13.4801896084
 20
7.5847675132
  0
LWPOLYLINE
  5
504
100
AcDbEntity
  8
0
100
AcDbPolyline
 62
7
  6
CONTINUOUS
 90
3
 70
0
 10
13.1741710985
 20
8.1147643722
 10
13.1946260905
 20
8.1237717035
 10
13.2248814682
 20
8.1289887657
  0
LWPOLYLINE
  5
505
100
AcDbEntity
  8
0
100
AcDbPolyline
 62
7
  6
CONTINUOUS
 90
15
 70
0
 10
14.4612379957
 20
8.0973849147
 10
14.4643055012
 20
8.0981398003
 10
14.4934843287
 20
8.1155934577
 10
14.5170608333
 20
8.1416362047
 10
14.5343292872
 20
8.1754999398
 10
14.5447669744
 20
8.2161896557
 10
14.5480493566
 20
8.2625123062
 10
14.5440594882
 20
8.3131114202
 10
14.5328914094
 20
8.3665064557
 10
14.5148474183
 20
8.4211357542
 10
14.4904292995
 20
8.4754018483
 10
14.4603237673
 20
8.5277178078
 10
14.4253825414
 20
8.576553281
 10
14.386597637
 20
8.6204788935
 10
14.3450725838
 20
8.6582077179
  0
LINE
  5
506
100
AcDbEntity
  8
0
100
AcDbLine
 62
7
  6
CONTINUOUS
 10
13.2248814682
 20
8.1289887657
 11
13.2430440998
 21
8.1280854575
  0
LWPOLYLINE
  5
507
100
AcDbEntity
  8
0
100
AcDbPolyline
 62
7
  6
CONTINUOUS
 90
5
 70
0
 10
13.3674330986
 20
8.2292442923
 10
13.3266593128
 20
8.2347546394
 10
13.2889890426
 20
8.2308785966
 10
13.2554934797
 20
8.2177160799
 10
13.2423349755
 20
8.2074754326
  0
LINE
  5
508
100
AcDbEntity
  8
0
100
AcDbLine
 62
7
  6
CONTINUOUS
 10
13.4015962686
 20
8.2434618566
 11
13.3604400991
 21
8.250432198
  0
LWPOLYLINE
  5
509
100
AcDbEntity
  8
0
100
AcDbPolyline
 62
7
  6
CONTINUOUS
 90
4
 70
0
 10
13.6851108367
 20
8.3111715739
 10
13.6416827539
 20
8.336779422
 10
13.5986681051
 20
8.3537645015
 10
13.5572931352
 20
8.3616214962
  0
LWPOLYLINE
  5
50A
100
AcDbEntity
  8
0
100
AcDbPolyline
 62
7
  6
CONTINUOUS
 90
4
 70
0
 10
13.7194398317
 20
8.3223519348
 10
13.6760592793
 20
8.3492467376
 10
13.6328982891
 20
8.3676209486
 10
13.591187352
 20
8.3769289494
  0
LWPOLYLINE
  5
50B
100
AcDbEntity
  8
0
100
AcDbPolyline
 62
7
  6
CONTINUOUS
 90
5
 70
0
 10
13.7287076039
 20
8.3506239714
 10
13.7674295896
 20
8.3254957804
 10
13.8055068966
 20
8.2934949275
 10
13.8416366553
 20
8.2555960326
 10
13.8744421052
 20
8.2133427415
  0
LWPOLYLINE
  5
50C
100
AcDbEntity
  8
0
100
AcDbPolyline
 62
7
  6
CONTINUOUS
 90
6
 70
0
 10
13.7562846535
 20
8.3665454934
 10
13.7951891823
 20
8.3412815859
 10
13.8331518539
 20
8.3093524841
 10
13.8688457649
 20
8.2719453523
 10
13.9015912543
 20
8.2298734254
 10
13.9308347036
 20
8.1837266572
  0
LWPOLYLINE
  5
50D
100
AcDbEntity
  8
0
100
AcDbPolyline
 62
7
  6
CONTINUOUS
 90
4
 70
0
 10
13.7537438612
 20
8.3333426484
 10
13.7104411929
 20
8.3615049493
 10
13.6671640589
 20
8.3812549018
 10
13.6251463196
 20
8.3920069738
  0
LWPOLYLINE
  5
50E
100
AcDbEntity
  8
0
100
AcDbPolyline
 62
7
  6
CONTINUOUS
 90
3
 70
0
 10
13.7011305542
 20
8.3347024494
 10
13.7422618043
 20
8.307769722
 10
13.7826302252
 20
8.2730847387
  0
LWPOLYLINE
  5
50F
100
AcDbEntity
  8
0
100
AcDbPolyline
 62
7
  6
CONTINUOUS
 90
4
 70
0
 10
13.7880182189
 20
8.3441472736
 10
13.7448237331
 20
8.3735567135
 10
13.7014607355
 20
8.3946680379
 10
13.6591655775
 20
8.406856218
  0
LINE
  5
510
100
AcDbEntity
  8
0
100
AcDbLine
 62
7
  6
CONTINUOUS
 10
13.8222582199
 20
8.3547695016
 11
13.7792021379
 21
8.3854048335
  0
LWPOLYLINE
  5
511
100
AcDbEntity
  8
0
100
AcDbPolyline
 62
7
  6
CONTINUOUS
 90
10
 70
0
 10
13.8526833478
 20
8.3713702045
 10
13.8931557102
 20
8.3365603036
 10
13.9309888237
 20
8.2955006687
 10
13.9647183751
 20
8.2500749897
 10
13.9939403316
 20
8.2010962606
 10
14.017786082
 20
8.1500946736
 10
14.0356413629
 20
8.0984156851
 10
14.0469355962
 20
8.0476704018
 10
14.0513257239
 20
7.998812748
 10
14.0505574928
 20
7.9867362863
  0
LWPOLYLINE
  5
512
100
AcDbEntity
  8
0
100
AcDbPolyline
 62
7
  6
CONTINUOUS
 90
9
 70
0
 10
13.9204315768
 20
8.3527735619
 10
13.9581543364
 20
8.3119198217
 10
13.9918521327
 20
8.2666604033
 10
14.0213417257
 20
8.2173485647
 10
14.0454670823
 20
8.1657600917
 10
14.0632491876
 20
8.1142290307
 10
14.0744969287
 20
8.0636910987
 10
14.0788981577
 20
8.0150073712
 10
14.0781118806
 20
8.0023907681
  0
LINE
  5
513
100
AcDbEntity
  8
0
100
AcDbLine
 62
7
  6
CONTINUOUS
 10
13.9903972953
 20
8.1337090464
 11
14.0082590778
 21
8.0818078907
  0
LINE
  5
514
100
AcDbEntity
  8
0
100
AcDbLine
 62
7
  6
CONTINUOUS
 10
14.0093219872
 20
8.0625293251
 11
13.9914583167
 21
8.1171461952
  0
LWPOLYLINE
  5
515
100
AcDbEntity
  8
0
100
AcDbPolyline
 62
7
  6
CONTINUOUS
 90
4
 70
0
 10
14.0082590778
 20
8.0818078907
 10
14.0194351221
 20
8.0312633237
 10
14.0237530455
 20
7.9826182735
 10
14.0230806504
 20
7.9721551663
  0
LINE
  5
516
100
AcDbEntity
  8
0
100
AcDbLine
 62
7
  6
CONTINUOUS
 10
14.0202988869
 20
8.0091896537
 11
14.0093219872
 21
8.0625293251
  0
LWPOLYLINE
  5
517
100
AcDbEntity
  8
0
100
AcDbPolyline
 62
7
  6
CONTINUOUS
 90
5
 70
0
 10
13.8688688484
 20
7.7844242287
 10
13.8810158574
 20
7.8235467883
 10
13.8860680548
 20
7.8686107454
 10
13.8838571484
 20
7.9182961467
 10
13.8744255664
 20
7.9711489593
  0
LWPOLYLINE
  5
518
100
AcDbEntity
  8
0
100
AcDbPolyline
 62
7
  6
CONTINUOUS
 90
5
 70
0
 10
13.8939249201
 20
7.7948390819
 10
13.9071533256
 20
7.8329232882
 10
13.913332083
 20
7.8771407412
 10
13.912260216
 20
7.9261960463
 10
13.9039471065
 20
7.9786534514
  0
LWPOLYLINE
  5
519
100
AcDbEntity
  8
0
100
AcDbPolyline
 62
7
  6
CONTINUOUS
 90
10
 70
0
 10
13.9188179378
 20
7.8054318745
 10
13.9331177882
 20
7.8424503043
 10
13.9404181735
 20
7.8857894627
 10
13.9404855762
 20
7.9341794368
 10
13.9332963251
 20
7.9862037774
 10
13.9190372825
 20
8.040340593
 10
13.8981004227
 20
8.0950067045
 10
13.8710714597
 20
8.1486035762
 10
13.8387128547
 20
8.1995636939
 10
13.8019416947
 20
8.2463960421
  0
LWPOLYLINE
  5
51A
100
AcDbEntity
  8
0
100
AcDbPolyline
 62
7
  6
CONTINUOUS
 90
4
 70
0
 10
13.7769318892
 20
7.7187152154
 10
13.7927041146
 20
7.7542070015
 10
13.8015549571
 20
7.7962727875
 10
13.8032059164
 20
7.8436796043
  0
LWPOLYLINE
  5
51B
100
AcDbEntity
  8
0
100
AcDbPolyline
 62
7
  6
CONTINUOUS
 90
9
 70
0
 10
13.8014433488
 20
7.7297487894
 10
13.8182601472
 20
7.7641123418
 10
13.8282175953
 20
7.8052264001
 10
13.8310050874
 20
7.8518856071
 10
13.826520036
 20
7.9027237272
 10
13.8148708479
 20
7.9562532844
 10
13.7963737791
 20
8.0109087173
 10
13.7715437595
 20
8.0650918003
 10
13.7410794532
 20
8.1172180116
  0
LINE
  5
51C
100
AcDbEntity
  8
0
100
AcDbLine
 62
7
  6
CONTINUOUS
 10
13.6590353176
 20
7.6436595736
 11
13.6772841372
 21
7.6764127586
  0
LWPOLYLINE
  5
51D
100
AcDbEntity
  8
0
100
AcDbPolyline
 62
7
  6
CONTINUOUS
 90
9
 70
0
 10
13.5259721683
 20
7.589861493
 10
13.505542133
 20
7.5615408977
 10
13.4796426969
 20
7.5408751567
 10
13.4490671328
 20
7.528389732
 10
13.4144459697
 20
7.5243360762
 10
13.3766254404
 20
7.5289213952
 10
13.3367684986
 20
7.5420732096
 10
13.2957365008
 20
7.5635868476
 10
13.2550948146
 20
7.5926507075
  0
LINE
  5
51E
100
AcDbEntity
  8
AXIS_COSMETIC_THREADS
100
AcDbLine
 62
7
  6
CONTINUOUS
 10
14.9648133418
 20
8.9297705575
 11
15.200923845
 21
9.0660882064
  0
LWPOLYLINE
  5
51F
100
AcDbEntity
  8
0
100
AcDbPolyline
 62
7
  6
CONTINUOUS
 90
10
 70
0
 10
13.1837821523
 20
8.1398517647
 10
13.2190971956
 20
8.1421584679
 10
13.2571086613
 20
8.1358696983
 10
13.2967483099
 20
8.1211763904
 10
13.3369088835
 20
8.0985067476
 10
13.3764607563
 20
8.0685191689
 10
13.4142876452
 20
8.0320867431
 10
13.4493271016
 20
7.9902655807
 10
13.4805974923
 20
7.9442652261
 10
13.5072255259
 20
7.8954137384
  0
LWPOLYLINE
  5
520
100
AcDbEntity
  8
0
100
AcDbPolyline
 62
7
  6
CONTINUOUS
 90
6
 70
0
 10
13.2353213624
 20
8.1696276046
 10
13.1961559961
 20
8.1702083045
 10
13.160646712
 20
8.1614769491
 10
13.1297960481
 20
8.1436729183
 10
13.1044721915
 20
8.1172972408
 10
13.0853839405
 20
8.0830981448
  0
LWPOLYLINE
  5
521
100
AcDbEntity
  8
0
100
AcDbPolyline
 62
7
  6
CONTINUOUS
 90
5
 70
0
 10
13.2652478332
 20
8.1852306369
 10
13.2257909947
 20
8.1863397875
 10
13.1899536822
 20
8.1780755292
 10
13.1587539086
 20
8.1606650912
 10
13.1581133832
 20
8.1600149558
  0
LWPOLYLINE
  5
522
100
AcDbEntity
  8
0
100
AcDbPolyline
 62
7
  6
CONTINUOUS
 90
5
 70
0
 10
13.2992543276
 20
8.200129702
 10
13.2593305098
 20
8.20270841
 10
13.2228566301
 20
8.1959026995
 10
13.1908691697
 20
8.1798974834
 10
13.1873515046
 20
8.1766234336
  0
LWPOLYLINE
  5
523
100
AcDbEntity
  8
0
100
AcDbPolyline
 62
7
  6
CONTINUOUS
 90
5
 70
0
 10
13.3333175944
 20
8.2148006076
 10
13.2929546899
 20
8.2188467294
 10
13.2558696792
 20
8.2135041046
 10
13.2231167741
 20
8.1989151984
 10
13.2149208537
 20
8.1919319618
  0
LWPOLYLINE
  5
524
100
AcDbEntity
  8
0
100
AcDbPolyline
 62
7
  6
CONTINUOUS
 90
3
 70
0
 10
13.7792021379
 20
8.3854048335
 10
13.7357836179
 20
8.4078621909
 10
13.6932406223
 20
8.4214774935
  0
LWPOLYLINE
  5
525
100
AcDbEntity
  8
0
100
AcDbPolyline
 62
7
  6
CONTINUOUS
 90
3
 70
0
 10
13.8135716481
 20
8.3970522577
 10
13.7701279867
 20
8.4208393511
 10
13.7273669108
 20
8.4358717744
  0
LWPOLYLINE
  5
526
100
AcDbEntity
  8
0
100
AcDbPolyline
 62
7
  6
CONTINUOUS
 90
4
 70
0
 10
13.8479275109
 20
8.4085020775
 10
13.8044891067
 20
8.4336016627
 10
13.7615398635
 20
8.4500401962
 10
13.7203041286
 20
8.4573282182
  0
LWPOLYLINE
  5
527
100
AcDbEntity
  8
0
100
AcDbPolyline
 62
7
  6
CONTINUOUS
 90
7
 70
0
 10
13.7838617032
 20
8.3824670154
 10
13.8249465146
 20
8.355569343
 10
13.8652723742
 20
8.3209354567
 10
13.9029925814
 20
8.2800860234
 10
13.9366692458
 20
8.2348604029
 10
13.9661814756
 20
8.1855170938
 10
13.9903972953
 20
8.1337090464
  0
LWPOLYLINE
  5
528
100
AcDbEntity
  8
0
100
AcDbPolyline
 62
7
  6
CONTINUOUS
 90
3
 70
0
 10
13.8390158025
 20
8.4143100594
 10
13.8801032932
 20
8.3874103648
 10
13.9204315768
 20
8.3527735619
  0
LINE
  5
529
100
AcDbEntity
  8
0
100
AcDbLine
 62
7
  6
CONTINUOUS
 10
13.8142694868
 20
8.3965341923
 11
13.8526833478
 21
8.3713702045
  0
LINE
  5
52A
100
AcDbEntity
  8
0
100
AcDbLine
 62
7
  6
CONTINUOUS
 10
13.8564592035
 20
8.3652131538
 11
13.8135716481
 21
8.3970522577
  0
LWPOLYLINE
  5
52B
100
AcDbEntity
  8
0
100
AcDbPolyline
 62
7
  6
CONTINUOUS
 90
3
 70
0
 10
13.9313393866
 20
8.3355124914
 10
13.8906165368
 20
8.3754821784
 10
13.8479275109
 20
8.4085020775
  0
LWPOLYLINE
  5
52C
100
AcDbEntity
  8
0
100
AcDbPolyline
 62
7
  6
CONTINUOUS
 90
3
 70
0
 10
14.032175949
 20
8.3624439924
 10
13.9927807933
 20
8.4052828184
 10
13.9508658527
 20
8.4416989191
  0
LWPOLYLINE
  5
52D
100
AcDbEntity
  8
0
100
AcDbPolyline
 62
7
  6
CONTINUOUS
 90
4
 70
0
 10
14.002042294
 20
8.2980910042
 10
13.9650339647
 20
8.3446248865
 10
13.9247256182
 20
8.3855806483
 10
13.8822649832
 20
8.4197575247
  0
LWPOLYLINE
  5
52E
100
AcDbEntity
  8
0
100
AcDbPolyline
 62
7
  6
CONTINUOUS
 90
8
 70
0
 10
13.979380297
 20
8.3353683963
 10
14.012209302
 20
8.2931185818
 10
14.0414238869
 20
8.2469178525
 10
14.0661339774
 20
8.1979461913
 10
14.0852950541
 20
8.1482389396
 10
14.0983638849
 20
8.0997067801
 10
14.1053283511
 20
8.0530412378
 10
14.1056531193
 20
8.0332292647
  0
LWPOLYLINE
  5
52F
100
AcDbEntity
  8
0
100
AcDbPolyline
 62
7
  6
CONTINUOUS
 90
5
 70
0
 10
14.0669294863
 20
8.2550361883
 10
14.0350414795
 20
8.3063133828
 10
13.998647557
 20
8.353600389
 10
13.9587818803
 20
8.3955127574
 10
13.916579335
 20
8.4308219698
  0
LWPOLYLINE
  5
530
100
AcDbEntity
  8
0
100
AcDbPolyline
 62
7
  6
CONTINUOUS
 90
6
 70
0
 10
14.0687124753
 20
8.2633474199
 10
14.0934600858
 20
8.2144317457
 10
14.1126763191
 20
8.1647577026
 10
14.1258207518
 20
8.1161981026
 10
14.132891985
 20
8.0691198879
 10
14.1332930047
 20
8.0451320306
  0
LWPOLYLINE
  5
531
100
AcDbEntity
  8
0
100
AcDbPolyline
 62
7
  6
CONTINUOUS
 90
5
 70
0
 10
14.1438914259
 20
8.1539703319
 10
14.1245880008
 20
8.2086539452
 10
14.0990276025
 20
8.2626696694
 10
14.0679300853
 20
8.3144378381
 10
14.032175949
 20
8.3624439924
  0
LWPOLYLINE
  5
532
100
AcDbEntity
  8
0
100
AcDbPolyline
 62
7
  6
CONTINUOUS
 90
9
 70
0
 10
14.1895314649
 20
8.0571964901
 10
14.1852939459
 20
8.107915973
 10
14.1738851321
 20
8.1613791816
 10
14.1556143055
 20
8.2160224795
 10
14.1309898322
 20
8.2702479932
 10
14.100704413
 20
8.3224699698
 10
14.0656149867
 20
8.3711607844
 10
14.0267178681
 20
8.4148952592
 10
13.9851198427
 20
8.4523920125
  0
LWPOLYLINE
  5
533
100
AcDbEntity
  8
0
100
AcDbPolyline
 62
7
  6
CONTINUOUS
 90
11
 70
0
 10
14.0352720432
 20
7.8821538735
 10
14.0469937113
 20
7.9216747878
 10
14.0516042816
 20
7.9670609332
 10
14.0489482749
 20
8.0169830088
 10
14.0390810326
 20
8.0699801151
 10
14.0222671123
 20
8.1245021387
 10
13.9989726114
 20
8.1789547243
 10
13.969851645
 20
8.2317455312
 10
13.9357273684
 20
8.2813304313
 10
13.897568095
 20
8.3262583072
 10
13.8564592035
 20
8.3652131538
  0
LWPOLYLINE
  5
534
100
AcDbEntity
  8
0
100
AcDbPolyline
 62
7
  6
CONTINUOUS
 90
10
 70
0
 10
14.0603923825
 20
7.8925002285
 10
14.0731991288
 20
7.9309937138
 10
14.0789379697
 20
7.9755459494
 10
14.0774206918
 20
8.0248518282
 10
14.0686695995
 20
8.0774683282
 10
14.0529168678
 20
8.1318563781
 10
14.0305978067
 20
8.1864255097
 10
14.0023382314
 20
8.239580001
 10
13.9689363059
 20
8.2897651724
 10
13.9313393866
 20
8.3355124914
  0
LWPOLYLINE
  5
535
100
AcDbEntity
  8
0
100
AcDbPolyline
 62
7
  6
CONTINUOUS
 90
9
 70
0
 10
13.9435498958
 20
7.8162064488
 10
13.9589104768
 20
7.8521324374
 10
13.9673267594
 20
7.8945621363
 10
13.9685328508
 20
7.9422520184
 10
13.9624720439
 20
7.9938059456
 10
13.9492984621
 20
8.0477156746
 10
13.9293725877
 20
8.1024046143
 10
13.9032508036
 20
8.1562735669
 10
13.8716692515
 20
8.2077471244
  0
LWPOLYLINE
  5
536
100
AcDbEntity
  8
0
100
AcDbPolyline
 62
7
  6
CONTINUOUS
 90
8
 70
0
 10
13.9681229034
 20
7.8271665175
 10
13.9845327454
 20
7.8619741782
 10
13.9940583998
 20
7.9034639002
 10
13.9964017883
 20
7.9504194275
 10
13.9914732081
 20
8.0014659276
 10
13.9793939336
 20
8.0551098787
 10
13.9604926987
 20
8.1097824008
 10
13.9352961593
 20
8.1638847722
  0
LINE
  5
537
100
AcDbEntity
  8
0
100
AcDbLine
 62
7
  6
CONTINUOUS
 10
13.8257989793
 20
7.7409728019
 11
13.8436478444
 21
7.7741833463
  0
LINE
  5
538
100
AcDbEntity
  8
0
100
AcDbLine
 62
7
  6
CONTINUOUS
 10
13.8500011579
 20
7.7523906458
 11
13.8688688484
 21
7.7844242287
  0
LINE
  5
539
100
AcDbEntity
  8
0
100
AcDbLine
 62
7
  6
CONTINUOUS
 10
15.0713707874
 20
8.8856394514
 11
15.0318150823
 21
8.8628020908
  0
LWPOLYLINE
  5
53A
100
AcDbEntity
  8
0
100
AcDbPolyline
 62
7
  6
CONTINUOUS
 90
4
 70
0
 10
13.3604400991
 20
8.250432198
 10
13.3222108576
 20
8.2480251891
 10
13.2879959526
 20
8.2362981258
 10
13.2696040143
 20
8.2232609978
  0
LWPOLYLINE
  5
53B
100
AcDbEntity
  8
0
100
AcDbPolyline
 62
7
  6
CONTINUOUS
 90
4
 70
0
 10
13.3942927152
 20
8.2658796269
 10
13.3555311884
 20
8.2649430581
 10
13.3206207693
 20
8.2546594902
 10
13.2967387711
 20
8.2392947025
  0
LWPOLYLINE
  5
53C
100
AcDbEntity
  8
0
100
AcDbPolyline
 62
7
  6
CONTINUOUS
 90
4
 70
0
 10
13.4282127762
 20
8.2810973118
 10
13.3889460293
 20
8.2816315423
 10
13.3533644192
 20
8.2727984839
 10
13.3237506677
 20
8.2555814649
  0
LWPOLYLINE
  5
53D
100
AcDbEntity
  8
0
100
AcDbPolyline
 62
7
  6
CONTINUOUS
 90
5
 70
0
 10
13.4621958495
 20
8.296085802
 10
13.4224513072
 20
8.2980901437
 10
13.3862233071
 20
8.2907135762
 10
13.354541197
 20
8.2741575746
 10
13.3527725314
 20
8.2724543686
  0
LWPOLYLINE
  5
53E
100
AcDbEntity
  8
0
100
AcDbPolyline
 62
7
  6
CONTINUOUS
 90
5
 70
0
 10
13.4962374573
 20
8.31084581
 10
13.4560428845
 20
8.3143185281
 10
13.4191937557
 20
8.308403396
 10
13.386737439
 20
8.2932594887
 10
13.3804051808
 20
8.2876732198
  0
LWPOLYLINE
  5
53F
100
AcDbEntity
  8
0
100
AcDbPolyline
 62
7
  6
CONTINUOUS
 90
5
 70
0
 10
13.5303330802
 20
8.3253782109
 10
13.4897165625
 20
8.3303165252
 10
13.4522720084
 20
8.3258667323
 10
13.4190640608
 20
8.3121453941
 10
13.4078788226
 20
8.3031239215
  0
LINE
  5
540
100
AcDbEntity
  8
0
100
AcDbLine
 62
7
  6
CONTINUOUS
 10
13.5644781605
 20
8.3396840419
 11
13.5234680837
 21
8.3460841286
  0
LWPOLYLINE
  5
541
100
AcDbEntity
  8
0
100
AcDbPolyline
 62
7
  6
CONTINUOUS
 90
4
 70
0
 10
13.8822649832
 20
8.4197575247
 10
13.8388622313
 20
8.4461514234
 10
13.7957548673
 20
8.4639840551
 10
13.7541718263
 20
8.472725514
  0
LWPOLYLINE
  5
542
100
AcDbEntity
  8
0
100
AcDbPolyline
 62
7
  6
CONTINUOUS
 90
4
 70
0
 10
13.916579335
 20
8.4308219698
 10
13.873242605
 20
8.458491082
 10
13.8300072796
 20
8.4777048075
 10
13.7881060063
 20
8.4878931717
  0
LWPOLYLINE
  5
543
100
AcDbEntity
  8
0
100
AcDbPolyline
 62
7
  6
CONTINUOUS
 90
4
 70
0
 10
13.8665928521
 20
8.4302315814
 10
13.9053350556
 20
8.405088367
 10
13.9432906435
 20
8.3731980984
 10
13.979380297
 20
8.3353683963
  0
LWPOLYLINE
  5
544
100
AcDbEntity
  8
0
100
AcDbPolyline
 62
7
  6
CONTINUOUS
 90
6
 70
0
 10
13.8941699018
 20
8.4461531034
 10
13.9330762544
 20
8.4208878391
 10
13.9710629633
 20
8.3889357275
 10
14.0067520105
 20
8.3515285741
 10
14.0394781225
 20
8.3094787324
 10
14.0687124753
 20
8.2633474199
  0
LWPOLYLINE
  5
545
100
AcDbEntity
  8
0
100
AcDbPolyline
 62
7
  6
CONTINUOUS
 90
11
 70
0
 10
13.9217469514
 20
8.4620746254
 10
13.9628759226
 20
8.4351436185
 10
14.0032423381
 20
8.4004610629
 10
14.0409928429
 20
8.359554689
 10
14.0746504988
 20
8.3143244325
 10
14.1040437025
 20
8.2651680145
 10
14.1282230845
 20
8.2134633699
 10
14.1461009173
 20
8.1615687986
 10
14.157305081
 20
8.1109681983
 10
14.1616376562
 20
8.0622666534
 10
14.161158906
 20
8.0548103752
  0
LINE
  5
546
100
AcDbEntity
  8
0
100
AcDbLine
 62
7
  6
CONTINUOUS
 10
13.9493240011
 20
8.4779961474
 11
13.9905652202
 21
8.4509803651
  0
LINE
  5
547
100
AcDbEntity
  8
0
100
AcDbLine
 62
7
  6
CONTINUOUS
 10
13.9508658527
 20
8.4416989191
 11
13.9076254672
 21
8.4706232368
  0
LWPOLYLINE
  5
548
100
AcDbEntity
  8
0
100
AcDbPolyline
 62
7
  6
CONTINUOUS
 90
4
 70
0
 10
13.9851198427
 20
8.4523920125
 10
13.9420060557
 20
8.482550634
 10
13.8986056284
 20
8.5044836105
 10
13.8561559981
 20
8.5175420752
  0
LWPOLYLINE
  5
549
100
AcDbEntity
  8
0
100
AcDbPolyline
 62
7
  6
CONTINUOUS
 90
10
 70
0
 10
13.9905652202
 20
8.4509803651
 10
14.0310344812
 20
8.4161741932
 10
14.0688653112
 20
8.375118885
 10
14.1025995467
 20
8.3296887143
 10
14.1318637897
 20
8.2806318467
 10
14.1556856245
 20
8.2296670893
 10
14.1735167038
 20
8.1780580992
 10
14.1848145592
 20
8.127317691
 10
14.1892102926
 20
8.0784614822
 10
14.1885819947
 20
8.0685608378
  0
LINE
  5
54A
100
AcDbEntity
  8
0
100
AcDbLine
 62
7
  6
CONTINUOUS
 10
14.06058866
 20
8.42435462
 11
14.0193366344
 21
8.4629050207
  0
LWPOLYLINE
  5
54B
100
AcDbEntity
  8
0
100
AcDbPolyline
 62
7
  6
CONTINUOUS
 90
9
 70
0
 10
14.0582764475
 20
8.4324202437
 10
14.0959843899
 20
8.3915940803
 10
14.1296783053
 20
8.3463563346
 10
14.1592092443
 20
8.2969895325
 10
14.183401479
 20
8.2452464814
 10
14.2012316014
 20
8.1934944514
 10
14.2124311158
 20
8.1429893638
 10
14.2167879128
 20
8.0943485002
 10
14.2160514714
 20
8.0827010656
  0
LWPOLYLINE
  5
54C
100
AcDbEntity
  8
0
100
AcDbPolyline
 62
7
  6
CONTINUOUS
 90
4
 70
0
 10
14.1322087044
 20
8.388234732
 10
14.0943887712
 20
8.43366555
 10
14.0535115837
 20
8.4732418427
 10
14.0107413737
 20
8.5058028671
  0
LWPOLYLINE
  5
54D
100
AcDbEntity
  8
0
100
AcDbPolyline
 62
7
  6
CONTINUOUS
 90
9
 70
0
 10
14.1172183495
 20
8.4150308861
 10
14.1500534784
 20
8.3727846909
 10
14.1792797973
 20
8.3265771885
 10
14.2040006871
 20
8.2775955286
 10
14.2231706168
 20
8.2278761554
 10
14.2362461142
 20
8.1793287503
 10
14.2432147961
 20
8.1326347912
 10
14.2439351166
 20
8.0887707145
 10
14.2439314133
 20
8.0887444086
  0
LWPOLYLINE
  5
54E
100
AcDbEntity
  8
0
100
AcDbPolyline
 62
7
  6
CONTINUOUS
 90
10
 70
0
 10
14.2016499172
 20
7.9799098709
 10
14.212944887
 20
8.0198247913
 10
14.2171132471
 20
8.065528138
 10
14.2140123476
 20
8.1156814071
 10
14.2037104376
 20
8.1688169918
 10
14.1864846853
 20
8.2233807609
 10
14.1628131365
 20
8.2777771481
 10
14.1333608454
 20
8.3304154433
 10
14.0989605797
 20
8.3797559427
 10
14.06058866
 20
8.42435462
  0
LWPOLYLINE
  5
54F
100
AcDbEntity
  8
0
100
AcDbPolyline
 62
7
  6
CONTINUOUS
 90
9
 70
0
 10
14.0853489196
 20
7.9030229863
 10
14.0992310928
 20
7.9404613277
 10
14.1060935853
 20
7.9841476248
 10
14.1057155836
 20
8.0328018936
 10
14.098086339
 20
8.0850000169
 10
14.083405479
 20
8.1392150615
 10
14.0620772158
 20
8.1938615785
 10
14.0346986193
 20
8.2473416007
 10
14.002042294
 20
8.2980910042
  0
LWPOLYLINE
  5
550
100
AcDbEntity
  8
0
100
AcDbPolyline
 62
7
  6
CONTINUOUS
 90
8
 70
0
 10
14.1101436035
 20
7.9137260389
 10
14.1250907868
 20
7.9500822727
 10
14.1330715118
 20
7.9928712193
 10
14.1338325226
 20
8.0408389289
 10
14.1273300247
 20
8.0925812029
 10
14.1137309562
 20
8.1465843337
 10
14.0934081437
 20
8.2012690203
 10
14.0669294863
 20
8.2550361883
  0
LWPOLYLINE
  5
551
100
AcDbEntity
  8
0
100
AcDbPolyline
 62
7
  6
CONTINUOUS
 90
6
 70
0
 10
14.1347784988
 20
7.9246131498
 10
14.1507795168
 20
7.959861083
 10
14.1598722593
 20
8.0017219059
 10
14.1617712077
 20
8.0489685957
 10
14.1563995535
 20
8.1002178726
 10
14.1438914259
 20
8.1539703319
  0
LWPOLYLINE
  5
552
100
AcDbEntity
  8
0
100
AcDbPolyline
 62
7
  6
CONTINUOUS
 90
5
 70
0
 10
13.9925391826
 20
7.8383156614
 10
14.009986069
 20
7.8719799035
 10
14.0206137801
 20
7.9124998004
 10
14.0240922644
 20
7.9586872333
 10
14.0202988869
 20
8.0091896537
  0
LINE
  5
553
100
AcDbEntity
  8
0
100
AcDbLine
 62
7
  6
CONTINUOUS
 10
14.0168010674
 20
7.8496573264
 11
14.0352720432
 21
7.8821538735
  0
LWPOLYLINE
  5
554
100
AcDbEntity
  8
AXIS_COSMETIC_THREADS
100
AcDbPolyline
 62
7
  6
CONTINUOUS
 90
3
 70
0
 10
13.4872016151
 20
7.5979213265
 10
13.4687770443
 20
7.5824210322
 10
13.4637379868
 20
7.5793122523
  0
LINE
  5
555
100
AcDbEntity
  8
AXIS_COSMETIC_THREADS
100
AcDbLine
 62
7
  6
CONTINUOUS
 10
15.131728436
 20
8.7570936329
 11
15.3174233235
 21
8.8643039862
  0
LINE
  5
556
100
AcDbEntity
  8
AXIS_COSMETIC_THREADS
100
AcDbLine
 62
7
  6
CONTINUOUS
 10
13.5220314459
 20
7.8123539206
 11
13.5140095856
 21
7.807722525
  0
LINE
  5
557
100
AcDbEntity
  8
0
100
AcDbLine
 62
7
  6
CONTINUOUS
 10
13.1572647286
 20
8.1331790878
 11
13.1837821523
 21
8.1398517647
  0
LWPOLYLINE
  5
558
100
AcDbEntity
  8
0
100
AcDbPolyline
 62
7
  6
CONTINUOUS
 90
4
 70
0
 10
13.5234680837
 20
8.3460841286
 10
13.4854542317
 20
8.3431025354
 10
13.4515177643
 20
8.3308132283
 10
13.4352033352
 20
8.318814052
  0
LWPOLYLINE
  5
559
100
AcDbEntity
  8
0
100
AcDbPolyline
 62
7
  6
CONTINUOUS
 90
4
 70
0
 10
13.5572931352
 20
8.3616214962
 10
13.5187365182
 20
8.3601099179
 10
13.4840951605
 20
8.3492610839
 10
13.4623892668
 20
8.3347500916
  0
LWPOLYLINE
  5
55A
100
AcDbEntity
  8
0
100
AcDbPolyline
 62
7
  6
CONTINUOUS
 90
4
 70
0
 10
13.591187352
 20
8.3769289494
 10
13.552114889
 20
8.3768881547
 10
13.5167927727
 20
8.3674872105
 10
13.489447801
 20
8.3509374013
  0
LWPOLYLINE
  5
55B
100
AcDbEntity
  8
0
100
AcDbPolyline
 62
7
  6
CONTINUOUS
 90
5
 70
0
 10
13.6251463196
 20
8.3920069738
 10
13.5855852972
 20
8.3934366839
 10
13.5496070385
 20
8.3854900153
 10
13.5182336456
 20
8.368384983
 10
13.5175291192
 20
8.3676831884
  0
LWPOLYLINE
  5
55C
100
AcDbEntity
  8
0
100
AcDbPolyline
 62
7
  6
CONTINUOUS
 90
5
 70
0
 10
13.6591655775
 20
8.406856218
 10
13.61914363
 20
8.4097551073
 10
13.5825343124
 20
8.4032680646
 10
13.5503780352
 20
8.3875707576
 10
13.5458651939
 20
8.3834499308
  0
LWPOLYLINE
  5
55D
100
AcDbEntity
  8
0
100
AcDbPolyline
 62
7
  6
CONTINUOUS
 90
5
 70
0
 10
13.6932406223
 20
8.4214774935
 10
13.6527857122
 20
8.4258431905
 10
13.6155708683
 20
8.4208200847
 10
13.5826540691
 20
8.4065413716
 10
13.5733998661
 20
8.3988090221
  0
LWPOLYLINE
  5
55E
100
AcDbEntity
  8
0
100
AcDbPolyline
 62
7
  6
CONTINUOUS
 90
5
 70
0
 10
13.7273669108
 20
8.4358717744
 10
13.6865073089
 20
8.4417008629
 10
13.6487129026
 20
8.4381449629
 10
13.615058485
 20
8.4252947023
 10
13.6007814652
 20
8.4144047087
  0
LWPOLYLINE
  5
55F
100
AcDbEntity
  8
0
100
AcDbPolyline
 62
7
  6
CONTINUOUS
 90
3
 70
0
 10
13.9076254672
 20
8.4706232368
 10
13.8642924309
 20
8.4912040684
 10
13.822102226
 20
8.5028317761
  0
LWPOLYLINE
  5
560
100
AcDbEntity
  8
0
100
AcDbPolyline
 62
7
  6
CONTINUOUS
 90
3
 70
0
 10
13.9763796098
 20
8.4942761655
 10
13.9329421594
 20
8.5175453632
 10
13.8902627948
 20
8.5320249796
  0
LWPOLYLINE
  5
561
100
AcDbEntity
  8
0
100
AcDbPolyline
 62
7
  6
CONTINUOUS
 90
3
 70
0
 10
14.0107413737
 20
8.5058028671
 10
13.9672972946
 20
8.5303914106
 10
13.9244180503
 20
8.5462815617
  0
LWPOLYLINE
  5
562
100
AcDbEntity
  8
0
100
AcDbPolyline
 62
7
  6
CONTINUOUS
 90
4
 70
0
 10
14.0103955194
 20
8.5059986143
 10
14.0432373359
 20
8.4846833194
 10
14.0811473184
 20
8.4528325991
 10
14.1172183495
 20
8.4150308861
  0
LWPOLYLINE
  5
563
100
AcDbEntity
  8
0
100
AcDbPolyline
 62
7
  6
CONTINUOUS
 90
3
 70
0
 10
13.9769010507
 20
8.4939176694
 10
14.017967485
 20
8.4670338663
 10
14.0582764475
 20
8.4324202437
  0
LWPOLYLINE
  5
564
100
AcDbEntity
  8
0
100
AcDbPolyline
 62
7
  6
CONTINUOUS
 90
11
 70
0
 10
14.03205515
 20
8.5257607134
 10
14.0731086287
 20
8.498886687
 10
14.113110103
 20
8.4645730397
 10
14.1503860299
 20
8.42434354
 10
14.1841897652
 20
8.3791578505
 10
14.2139549276
 20
8.3295995198
 10
14.2383665262
 20
8.2775553388
 10
14.2563597927
 20
8.2254288324
 10
14.2675922178
 20
8.1747880126
 10
14.2719400791
 20
8.1263075142
 10
14.2712043231
 20
8.1144528751
  0
LINE
  5
565
100
AcDbEntity
  8
0
100
AcDbLine
 62
7
  6
CONTINUOUS
 10
14.0193366344
 20
8.4629050207
 11
13.9763796098
 21
8.4942761655
  0
LWPOLYLINE
  5
566
100
AcDbEntity
  8
0
100
AcDbPolyline
 62
7
  6
CONTINUOUS
 90
10
 70
0
 10
14.3425856721
 20
8.0676499245
 10
14.3523522754
 20
8.108930702
 10
14.3549433817
 20
8.1557216078
 10
14.3502621011
 20
8.2066525856
 10
14.3384225334
 20
8.2602334653
 10
14.319746458
 20
8.3148971965
 10
14.2947539981
 20
8.3690453128
 10
14.2641485308
 20
8.4210943069
 10
14.2287962804
 20
8.4695215724
 10
14.1897011867
 20
8.512909578
  0
LWPOLYLINE
  5
567
100
AcDbEntity
  8
0
100
AcDbPolyline
 62
7
  6
CONTINUOUS
 90
9
 70
0
 10
14.2268348043
 20
7.9901883421
 10
14.2392184161
 20
8.0290868694
 10
14.2445166343
 20
8.0739689915
 10
14.2425540291
 20
8.1235200303
 10
14.233365825
 20
8.1762898512
 10
14.2171968787
 20
8.2307349347
 10
14.1944945756
 20
8.2852631578
 10
14.1658958496
 20
8.3382799854
 10
14.1322087044
 20
8.388234732
  0
LWPOLYLINE
  5
568
100
AcDbEntity
  8
0
100
AcDbPolyline
 62
7
  6
CONTINUOUS
 90
12
 70
0
 10
14.2518551587
 20
8.00064166
 10
14.2653180624
 20
8.0384957909
 10
14.2717418335
 20
8.0825244249
 10
14.2709183872
 20
8.1314376456
 10
14.2628498979
 20
8.1838038232
 10
14.247748737
 20
8.2380911487
 10
14.2260313105
 20
8.2927120762
 10
14.1983059788
 20
8.346069381
 10
14.1653554062
 20
8.3966024994
 10
14.1281138543
 20
8.4428328041
 10
14.0876400762
 20
8.4834065029
 10
14.0450866002
 20
8.517133916
  0
LWPOLYLINE
  5
569
100
AcDbEntity
  8
0
100
AcDbPolyline
 62
7
  6
CONTINUOUS
 90
12
 70
0
 10
14.2767128841
 20
8.0112737662
 10
14.2912449613
 20
8.048056241
 10
14.2987891787
 20
8.091199731
 10
14.2991049445
 20
8.13944
 10
14.292161382
 20
8.1913649421
 10
14.2781382254
 20
8.2454555497
 10
14.2574206053
 20
8.3001299841
 10
14.2305878753
 20
8.3537894683
 10
14.1983968031
 20
8.4048646715
 10
14.1617596153
 20
8.4518612393
 10
14.1217175309
 20
8.4934031484
 10
14.0794105538
 20
8.5282726286
  0
LWPOLYLINE
  5
56A
100
AcDbEntity
  8
0
100
AcDbPolyline
 62
7
  6
CONTINUOUS
 90
4
 70
0
 10
14.1592557835
 20
7.9356879518
 10
14.1762987108
 20
7.9698021804
 10
14.1864964637
 20
8.0107047671
 10
14.1895314649
 20
8.0571964901
  0
LINE
  5
56B
100
AcDbEntity
  8
0
100
AcDbLine
 62
7
  6
CONTINUOUS
 10
14.1835777481
 20
7.9469539438
 11
14.2016499172
 21
7.9799098709
  0
LINE
  5
56C
100
AcDbEntity
  8
0
100
AcDbLine
 62
7
  6
CONTINUOUS
 10
14.2077467937
 20
7.9584144887
 11
14.2268348043
 21
7.9901883421
  0
LWPOLYLINE
  5
56D
100
AcDbEntity
  8
0
100
AcDbPolyline
 62
7
  6
CONTINUOUS
 90
4
 70
0
 10
13.7203041286
 20
8.4573282182
 10
13.6819565365
 20
8.455241748
 10
13.6475879293
 20
8.4438287817
 10
13.6280202816
 20
8.4302439029
  0
LWPOLYLINE
  5
56E
100
AcDbEntity
  8
0
100
AcDbPolyline
 62
7
  6
CONTINUOUS
 90
4
 70
0
 10
13.7541718263
 20
8.472725514
 10
13.7152978186
 20
8.4721096514
 10
13.6802389592
 20
8.4621417977
 10
13.6551272549
 20
8.4463324057
  0
LWPOLYLINE
  5
56F
100
AcDbEntity
  8
0
100
AcDbPolyline
 62
7
  6
CONTINUOUS
 90
4
 70
0
 10
13.7881060063
 20
8.4878931717
 10
13.7487327283
 20
8.4887480476
 10
13.7130080456
 20
8.4802320958
 10
13.6821139371
 20
8.4626748871
  0
LWPOLYLINE
  5
570
100
AcDbEntity
  8
0
100
AcDbPolyline
 62
7
  6
CONTINUOUS
 90
5
 70
0
 10
13.822102226
 20
8.5028317761
 10
13.7822571783
 20
8.5051564742
 10
13.745891575
 20
8.49809818
 10
13.714038756
 20
8.4818491346
 10
13.7113003313
 20
8.479261597
  0
LWPOLYLINE
  5
571
100
AcDbEntity
  8
0
100
AcDbPolyline
 62
7
  6
CONTINUOUS
 90
5
 70
0
 10
13.8561559981
 20
8.5175420752
 10
13.8158670174
 20
8.5213346326
 10
13.7788858528
 20
8.5157387138
 10
13.7462637032
 20
8.5009041327
 10
13.7388975029
 20
8.4945303012
  0
LWPOLYLINE
  5
572
100
AcDbEntity
  8
0
100
AcDbPolyline
 62
7
  6
CONTINUOUS
 90
5
 70
0
 10
13.8902627948
 20
8.5320249796
 10
13.8495580336
 20
8.5372823883
 10
13.8119871052
 20
8.5331525215
 10
13.778618319
 20
8.5197426592
 10
13.766337762
 20
8.5100326008
  0
LWPOLYLINE
  5
573
100
AcDbEntity
  8
0
100
AcDbPolyline
 62
7
  6
CONTINUOUS
 90
3
 70
0
 10
14.0360443975
 20
8.5554454933
 10
13.9928555052
 20
8.5741208536
 10
13.9510751771
 20
8.5837443539
  0
LWPOLYLINE
  5
574
100
AcDbEntity
  8
0
100
AcDbPolyline
 62
7
  6
CONTINUOUS
 90
3
 70
0
 10
14.0450866002
 20
8.517133916
 10
14.0016662915
 20
8.5430239907
 10
13.9586171642
 20
8.5603130551
  0
LINE
  5
575
100
AcDbEntity
  8
0
100
AcDbLine
 62
7
  6
CONTINUOUS
 10
14.0794105538
 20
8.5282726286
 11
14.0360443975
 21
8.5554454933
  0
LINE
  5
576
100
AcDbEntity
  8
0
100
AcDbLine
 62
7
  6
CONTINUOUS
 10
14.114786299
 20
8.5735252794
 11
14.1558522355
 21
8.546641852
  0
LWPOLYLINE
  5
577
100
AcDbEntity
  8
0
100
AcDbPolyline
 62
7
  6
CONTINUOUS
 90
11
 70
0
 10
14.0596321997
 20
8.5416822354
 10
14.1007982238
 20
8.5147232511
 10
14.1411986086
 20
8.4799998927
 10
14.1789755136
 20
8.4390445306
 10
14.2126485803
 20
8.393763173
 10
14.2419248471
 20
8.3447833437
 10
14.2660598925
 20
8.2931904125
 10
14.2839477213
 20
8.24131201
 10
14.2951763622
 20
8.1906645221
 10
14.2995222599
 20
8.1419151362
 10
14.2990755564
 20
8.1349503127
  0
LWPOLYLINE
  5
578
100
AcDbEntity
  8
0
100
AcDbPolyline
 62
7
  6
CONTINUOUS
 90
11
 70
0
 10
14.0872092493
 20
8.5576037574
 10
14.128439939
 20
8.5305959301
 10
14.1688995428
 20
8.4958013721
 10
14.2067230443
 20
8.4547598029
 10
14.2404586892
 20
8.4093354764
 10
14.2697648547
 20
8.3602096354
 10
14.2935963971
 20
8.3092118374
 10
14.3113971242
 20
8.2576826658
 10
14.3226949043
 20
8.2069562373
 10
14.327094856
 20
8.158110202
 10
14.326672358
 20
8.1514348475
  0
LWPOLYLINE
  5
579
100
AcDbEntity
  8
0
100
AcDbPolyline
 62
7
  6
CONTINUOUS
 90
4
 70
0
 10
14.113708514
 20
8.5392224585
 10
14.0704268537
 20
8.5676584586
 10
14.0271284137
 20
8.5877065102
 10
13.9850476725
 20
8.5987724329
  0
LWPOLYLINE
  5
57A
100
AcDbEntity
  8
0
100
AcDbPolyline
 62
7
  6
CONTINUOUS
 90
4
 70
0
 10
14.147975779
 20
8.5499869936
 10
14.1048088982
 20
8.5796655751
 10
14.0614312059
 20
8.6010717364
 10
14.0190794799
 20
8.6135718949
  0
LWPOLYLINE
  5
57B
100
AcDbEntity
  8
0
100
AcDbPolyline
 62
7
  6
CONTINUOUS
 90
10
 70
0
 10
14.1558522355
 20
8.546641852
 10
14.1961607383
 20
8.5120287801
 10
14.2338683633
 20
8.4712032294
 10
14.2675643568
 20
8.425962744
 10
14.297112788
 20
8.37656272
 10
14.3213291975
 20
8.3247492734
 10
14.3391751327
 20
8.2728963326
 10
14.3503499675
 20
8.2223836339
 10
14.3546763879
 20
8.1737563684
 10
14.3541058653
 20
8.1648335443
  0
LINE
  5
57C
100
AcDbEntity
  8
0
100
AcDbLine
 62
7
  6
CONTINUOUS
 10
14.1897011867
 20
8.512909578
 11
14.147975779
 21
8.5499869936
  0
LWPOLYLINE
  5
57D
100
AcDbEntity
  8
0
100
AcDbPolyline
 62
7
  6
CONTINUOUS
 90
11
 70
0
 10
14.3680023658
 20
8.0776919757
 10
14.3788693265
 20
8.1179965108
 10
14.3825949411
 20
8.1640120371
 10
14.3790494049
 20
8.2143909939
 10
14.368313867
 20
8.2676592265
 10
14.3506780763
 20
8.3222587552
 10
14.3266319746
 20
8.3765929763
 10
14.296851483
 20
8.4290729833
 10
14.262178891
 20
8.4781636647
 10
14.22359842
 20
8.5224282421
 10
14.1822076688
 20
8.5605699539
  0
LWPOLYLINE
  5
57E
100
AcDbEntity
  8
0
100
AcDbPolyline
 62
7
  6
CONTINUOUS
 90
12
 70
0
 10
14.3932520739
 20
8.0879031846
 10
14.4052111217
 20
8.1272024731
 10
14.4100680591
 20
8.1724095495
 10
14.4076602588
 20
8.222200308
 10
14.3980358615
 20
8.2751176591
 10
14.3814523791
 20
8.3296138031
 10
14.3583692234
 20
8.3840951356
 10
14.3294343781
 20
8.4369684821
 10
14.2954655983
 20
8.4866873195
 10
14.2574266862
 20
8.5317966448
 10
14.2163995286
 20
8.5709751884
 10
14.1735527084
 20
8.6030737471
  0
LWPOLYLINE
  5
57F
100
AcDbEntity
  8
0
100
AcDbPolyline
 62
7
  6
CONTINUOUS
 90
12
 70
0
 10
14.4183365366
 20
8.0982876653
 10
14.4313786239
 20
8.1365534186
 10
14.437362893
 20
8.18091955
 10
14.4360940101
 20
8.2300863518
 10
14.4275870731
 20
8.2826148368
 10
14.4120671734
 20
8.3369684874
 10
14.3899628659
 20
8.3915578333
 10
14.3618937353
 20
8.4447865661
 10
14.3286524204
 20
8.4950978522
 10
14.2911816178
 20
8.5410195002
 10
14.250546732
 20
8.581206673
 10
14.2079049652
 20
8.6144809046
  0
LWPOLYLINE
  5
580
100
AcDbEntity
  8
0
100
AcDbPolyline
 62
7
  6
CONTINUOUS
 90
12
 70
0
 10
14.3014100001
 20
8.0220884746
 10
14.3170003711
 20
8.0577727969
 10
14.3256591304
 20
8.1000001172
 10
14.3271133506
 20
8.14753278
 10
14.3212991256
 20
8.1989792086
 10
14.3083634249
 20
8.2528342783
 10
14.2886598292
 20
8.307522984
 10
14.2627382727
 20
8.3614461346
 10
14.2313290878
 20
8.4130267497
 10
14.1953218166
 20
8.4607558116
 10
14.1557394029
 20
8.5032360456
 10
14.113708514
 20
8.5392224585
  0
LINE
  5
581
100
AcDbEntity
  8
0
100
AcDbLine
 62
7
  6
CONTINUOUS
 10
14.3259486404
 20
8.0330894697
 11
14.3425856721
 21
8.0676499245
  0
LINE
  5
582
100
AcDbEntity
  8
0
100
AcDbLine
 62
7
  6
CONTINUOUS
 10
14.3503310519
 20
8.0442803028
 11
14.3680023658
 21
8.0776919757
  0
LINE
  5
583
100
AcDbEntity
  8
0
100
AcDbLine
 62
7
  6
CONTINUOUS
 10
14.3745595925
 20
8.0556643903
 11
14.3932520739
 21
8.0879031846
  0
LINE
  5
584
100
AcDbEntity
  8
AXIS_COSMETIC_THREADS
100
AcDbLine
 62
7
  6
CONTINUOUS
 10
13.5304406816
 20
7.6516279931
 11
13.5140095856
 21
7.6421415521
  0
LINE
  5
585
100
AcDbEntity
  8
AXIS_COSMETIC_THREADS
100
AcDbLine
 62
7
  6
CONTINUOUS
 10
13.497750917
 20
7.598947924
 11
13.4637326368
 21
7.579307578
  0
LINE
  5
586
100
AcDbEntity
  8
0
100
AcDbLine
 62
7
  6
CONTINUOUS
 10
15.0251096792
 20
8.4547829294
 11
15.0843509199
 21
8.4889856715
  0
LINE
  5
587
100
AcDbEntity
  8
AXIS
100
AcDbLine
 62
7
  6
CONTINUOUS
 10
14.5556832508
 20
8.1785649277
 11
15.0017484494
 21
8.4360992529
  0
LWPOLYLINE
  5
588
100
AcDbEntity
  8
0
100
AcDbPolyline
 62
7
  6
CONTINUOUS
 90
4
 70
0
 10
14.407609186
 20
8.0669217081
 10
14.4188354167
 20
8.0707988514
 10
14.4463472012
 20
8.0910082653
 10
14.468017275
 20
8.1195922773
  0
LWPOLYLINE
  5
589
100
AcDbEntity
  8
0
100
AcDbPolyline
 62
7
  6
CONTINUOUS
 90
4
 70
0
 10
14.4343895428
 20
8.0822244924
 10
14.441630335
 20
8.084358352
 10
14.469986002
 20
8.1031967479
 10
14.4926176145
 20
8.1305200083
  0
LWPOLYLINE
  5
58A
100
AcDbEntity
  8
0
100
AcDbPolyline
 62
7
  6
CONTINUOUS
 90
4
 70
0
 10
13.8833259572
 20
8.5529997708
 10
13.8451914824
 20
8.5503385887
 10
13.811099285
 20
8.5383626853
 10
13.7936311358
 20
8.5257758366
  0
LWPOLYLINE
  5
58B
100
AcDbEntity
  8
0
100
AcDbPolyline
 62
7
  6
CONTINUOUS
 90
4
 70
0
 10
13.9171664638
 20
8.5684869736
 10
13.8784950611
 20
8.5672960632
 10
13.8437031931
 20
8.5567623378
 10
13.8207883144
 20
8.5417662465
  0
LWPOLYLINE
  5
58C
100
AcDbEntity
  8
0
100
AcDbPolyline
 62
7
  6
CONTINUOUS
 90
4
 70
0
 10
13.9510751771
 20
8.5837443539
 10
13.9118938476
 20
8.5840242556
 10
13.8764265477
 20
8.5749399005
 10
13.8478206148
 20
8.5580089449
  0
LINE
  5
58D
100
AcDbEntity
  8
0
100
AcDbLine
 62
7
  6
CONTINUOUS
 10
13.9244180503
 20
8.5462815617
 11
13.8833259572
 21
8.5529997708
  0
LINE
  5
58E
100
AcDbEntity
  8
0
100
AcDbLine
 62
7
  6
CONTINUOUS
 10
13.9586171642
 20
8.5603130551
 11
13.9171664638
 21
8.5684869736
  0
LWPOLYLINE
  5
58F
100
AcDbEntity
  8
0
100
AcDbPolyline
 62
7
  6
CONTINUOUS
 90
3
 70
0
 10
14.1391857691
 20
8.591469678
 10
14.0957591762
 20
8.6142184002
 10
14.0531660867
 20
8.6281435867
  0
LWPOLYLINE
  5
590
100
AcDbEntity
  8
0
100
AcDbPolyline
 62
7
  6
CONTINUOUS
 90
3
 70
0
 10
14.1735527084
 20
8.6030737471
 10
14.1301076016
 20
8.6271485255
 10
14.0873029418
 20
8.6424885178
  0
LINE
  5
591
100
AcDbEntity
  8
0
100
AcDbLine
 62
7
  6
CONTINUOUS
 10
14.2079049652
 20
8.6144809046
 11
14.1644717442
 21
8.6398642904
  0
LWPOLYLINE
  5
592
100
AcDbEntity
  8
0
100
AcDbPolyline
 62
7
  6
CONTINUOUS
 90
11
 70
0
 10
14.1423633486
 20
8.5894468014
 10
14.1811632546
 20
8.5642606987
 10
14.2189896628
 20
8.5324805779
 10
14.2550025863
 20
8.494755902
 10
14.2878455982
 20
8.4525248863
 10
14.317095816
 20
8.4063068084
 10
14.3418394707
 20
8.3573076815
 10
14.3610290321
 20
8.3075657535
 10
14.3741207123
 20
8.2589870012
 10
14.3811035827
 20
8.2122007985
 10
14.3816833541
 20
8.1769648881
  0
LWPOLYLINE
  5
593
100
AcDbEntity
  8
0
100
AcDbPolyline
 62
7
  6
CONTINUOUS
 90
11
 70
0
 10
14.174292833
 20
8.6025192852
 10
14.2109835051
 20
8.5785021233
 10
14.2510430575
 20
8.5441345722
 10
14.2883634592
 20
8.5038403271
 10
14.3221036532
 20
8.4587228352
 10
14.3518296108
 20
8.4092269318
 10
14.3762160042
 20
8.3572509429
 10
14.3942018571
 20
8.3051885281
 10
14.4054486837
 20
8.2545778854
 10
14.409823281
 20
8.2060351354
 10
14.4090479273
 20
8.1935047939
  0
LWPOLYLINE
  5
594
100
AcDbEntity
  8
0
100
AcDbPolyline
 62
7
  6
CONTINUOUS
 90
11
 70
0
 10
14.1975174479
 20
8.6212898454
 10
14.2387134028
 20
8.5943082565
 10
14.2791412171
 20
8.5595519322
 10
14.3169395036
 20
8.5185569042
 10
14.3506284496
 20
8.4732290692
 10
14.3798252599
 20
8.4243624265
 10
14.4039077225
 20
8.372890223
 10
14.4217995202
 20
8.3210374774
 10
14.433048978
 20
8.2703522554
 10
14.4374068568
 20
8.2215637044
 10
14.4366278412
 20
8.2094014137
  0
LINE
  5
595
100
AcDbEntity
  8
0
100
AcDbLine
 62
7
  6
CONTINUOUS
 10
14.1822076688
 20
8.5605699539
 11
14.1391857691
 21
8.591469678
  0
LWPOLYLINE
  5
596
100
AcDbEntity
  8
0
100
AcDbPolyline
 62
7
  6
CONTINUOUS
 90
12
 70
0
 10
14.4432576122
 20
8.1088494081
 10
14.4573729201
 20
8.1460540734
 10
14.4644797273
 20
8.1895473638
 10
14.4643501323
 20
8.2380548947
 10
14.4569661794
 20
8.290156806
 10
14.4425203796
 20
8.344328956
 10
14.4214101255
 20
8.3989871402
 10
14.3942261619
 20
8.452533053
 10
14.3617354466
 20
8.5034006588
 10
14.3248588997
 20
8.5501016258
 10
14.2846446846
 20
8.591268507
 10
14.2422377989
 20
8.6256944126
  0
LWPOLYLINE
  5
597
100
AcDbEntity
  8
0
100
AcDbPolyline
 62
7
  6
CONTINUOUS
 90
12
 70
0
 10
14.468017275
 20
8.1195922773
 10
14.4831952207
 20
8.1557090575
 10
14.491418973
 20
8.1982982322
 10
14.4924282252
 20
8.2461116473
 10
14.4861719808
 20
8.2977495809
 10
14.4728100334
 20
8.3517013523
 10
14.4527083301
 20
8.4063891508
 10
14.4264283554
 20
8.4602138116
 10
14.3947108401
 20
8.5116012118
 10
14.3584542717
 20
8.5590479393
 10
14.3186888268
 20
8.6011649106
 10
14.2765464828
 20
8.6367176716
  0
LWPOLYLINE
  5
598
100
AcDbEntity
  8
0
100
AcDbPolyline
 62
7
  6
CONTINUOUS
 90
12
 70
0
 10
14.4926176145
 20
8.1305200083
 10
14.5088468582
 20
8.1655228807
 10
14.5181811675
 20
8.2071773087
 10
14.5203280154
 20
8.2542622575
 10
14.5152034011
 20
8.3053991397
 10
14.5029342867
 20
8.3590918114
 10
14.4838549138
 20
8.4137699791
 10
14.4584971062
 20
8.4678347573
 10
14.4275748406
 20
8.5197050567
 10
14.3919635324
 20
8.5678634552
 10
14.3526746374
 20
8.6109002219
 10
14.3108263075
 20
8.6475542172
  0
LWPOLYLINE
  5
599
100
AcDbEntity
  8
0
100
AcDbPolyline
 62
7
  6
CONTINUOUS
 90
3
 70
0
 10
14.3728724586
 20
8.0443386168
 10
14.3986367298
 20
8.067245011
 10
14.4183365366
 20
8.0982876653
  0
LWPOLYLINE
  5
59A
100
AcDbEntity
  8
AXIS
100
AcDbPolyline
 62
7
  6
CONTINUOUS
 90
14
 70
0
 10
15.0017296433
 20
8.436094225
 10
15.022931339
 20
8.4519781558
 10
15.0455656584
 20
8.4811215114
 10
15.0610974967
 20
8.5184491375
 10
15.0689979358
 20
8.5626898863
 10
15.0689979358
 20
8.6123371924
 10
15.0610974967
 20
8.6657003763
 10
15.0455656584
 20
8.7209622186
 10
15.022931339
 20
8.7762408437
 10
14.9939653233
 20
8.8296538043
 10
14.959654014
 20
8.8793821861
 10
14.9211658417
 20
8.9237325486
 10
14.8798114749
 20
8.9611945935
 10
14.836999187
 20
8.9904925958
  0
LWPOLYLINE
  5
59B
100
AcDbEntity
  8
0
100
AcDbPolyline
 62
7
  6
CONTINUOUS
 90
3
 70
0
 10
15.0843509199
 20
8.4889856715
 10
15.0884691763
 20
8.4914870213
 10
15.0963708915
 20
8.497037548
  0
LWPOLYLINE
  5
59C
100
AcDbEntity
  8
0
100
AcDbPolyline
 62
7
  6
CONTINUOUS
 90
3
 70
0
 10
14.1314939934
 20
7.9066765479
 10
14.1592744133
 20
7.92192568
 10
14.1835777481
 20
7.9469539438
  0
LWPOLYLINE
  5
59D
100
AcDbEntity
  8
0
100
AcDbPolyline
 62
7
  6
CONTINUOUS
 90
3
 70
0
 10
13.6112397228
 20
7.6062969504
 10
13.6345727032
 20
7.618857179
 10
13.6590353176
 20
7.6436595736
  0
LWPOLYLINE
  5
59E
100
AcDbEntity
  8
0
100
AcDbPolyline
 62
7
  6
CONTINUOUS
 90
16
 70
0
 10
14.4936540357
 20
8.1157809171
 10
14.5168451688
 20
8.1282009524
 10
14.5413492462
 20
8.1529443361
 10
14.5596440822
 20
8.1856445154
 10
14.5711771829
 20
8.2253402406
 10
14.5755922294
 20
8.2708673037
 10
14.5727394147
 20
8.3208923154
 10
14.5626797903
 20
8.37395139
 10
14.5456834952
 20
8.4284926159
 10
14.522221918
 20
8.482921081
 10
14.4929540211
 20
8.5356451443
 10
14.4587072226
 20
8.5851226139
 10
14.4204533905
 20
8.6299054896
 10
14.3792806469
 20
8.6686819728
 10
14.3363617986
 20
8.700314525
 10
14.2929203113
 20
8.7238728709
  0
LWPOLYLINE
  5
59F
100
AcDbEntity
  8
0
100
AcDbPolyline
 62
7
  6
CONTINUOUS
 90
3
 70
0
 10
13.9694954164
 20
7.8132515774
 10
13.9921383879
 20
7.8251404887
 10
14.0168010674
 20
7.8496573264
  0
LWPOLYLINE
  5
5A0
100
AcDbEntity
  8
0
100
AcDbPolyline
 62
7
  6
CONTINUOUS
 90
3
 70
0
 10
14.3277558175
 20
8.0202004572
 10
14.3496977081
 20
8.031433954
 10
14.3745595925
 20
8.0556643903
  0
LWPOLYLINE
  5
5A1
100
AcDbEntity
  8
0
100
AcDbPolyline
 62
7
  6
CONTINUOUS
 90
3
 70
0
 10
13.8036038471
 20
7.7176628936
 10
13.8249818994
 20
7.7283879496
 10
13.8500011579
 20
7.7523906458
  0
LWPOLYLINE
  5
5A2
100
AcDbEntity
  8
0
100
AcDbPolyline
 62
7
  6
CONTINUOUS
 90
3
 70
0
 10
14.1618725272
 20
7.9246012914
 10
14.1825298897
 20
7.9346996842
 10
14.2077467937
 20
7.9584144887
  0
LWPOLYLINE
  5
5A3
100
AcDbEntity
  8
0
100
AcDbPolyline
 62
7
  6
CONTINUOUS
 90
4
 70
0
 10
13.6377270386
 20
7.6220553273
 10
13.6578051373
 20
7.6316681989
 10
13.68317817
 20
7.6551540939
 10
13.7024404403
 20
7.6867211791
  0
LWPOLYLINE
  5
5A4
100
AcDbEntity
  8
0
100
AcDbPolyline
 62
7
  6
CONTINUOUS
 90
4
 70
0
 10
13.9960037831
 20
7.828983026
 10
14.0153419042
 20
7.837998277
 10
14.0409110016
 20
7.8611948216
 10
14.0603923825
 20
7.8925002285
  0
LWPOLYLINE
  5
5A5
100
AcDbEntity
  8
AXIS_COSMETIC_THREADS
100
AcDbPolyline
 62
7
  6
CONTINUOUS
 90
7
 70
0
 10
13.4637379868
 20
7.5793122523
 10
13.4474426001
 20
7.5717401809
 10
13.4235954867
 20
7.5660776286
 10
13.3976796891
 20
7.5655388004
 10
13.3701777072
 20
7.5701337284
 10
13.3416015722
 20
7.5797768643
 10
13.3124833139
 20
7.5942886724
  0
LINE
  5
5A6
100
AcDbEntity
  8
0
100
AcDbLine
 62
7
  6
CONTINUOUS
 10
14.3542849291
 20
8.0359046677
 11
14.3728724586
 21
8.0443386168
  0
LWPOLYLINE
  5
5A7
100
AcDbEntity
  8
0
100
AcDbPolyline
 62
7
  6
CONTINUOUS
 90
4
 70
0
 10
13.8301491901
 20
7.7333452871
 10
13.8481339445
 20
7.741329863
 10
13.8740523707
 20
7.7640055757
 10
13.8939249201
 20
7.7948390819
  0
LINE
  5
5A8
100
AcDbEntity
  8
0
100
AcDbLine
 62
7
  6
CONTINUOUS
 10
13.4801896084
 20
7.5847675132
 11
13.4597350638
 21
7.5757604402
  0
LWPOLYLINE
  5
5A9
100
AcDbEntity
  8
0
100
AcDbPolyline
 62
7
  6
CONTINUOUS
 90
4
 70
0
 10
14.1884380514
 20
7.9402559135
 10
14.205653444
 20
7.9476886581
 10
14.23176543
 20
7.9700728108
 10
14.2518551587
 20
8.00064166
  0
LWPOLYLINE
  5
5AA
100
AcDbEntity
  8
0
100
AcDbPolyline
 62
7
  6
CONTINUOUS
 90
4
 70
0
 10
14.0226046825
 20
7.8445871432
 10
14.0384147598
 20
7.8510718886
 10
14.064871537
 20
7.8729313164
 10
14.0853489196
 20
7.9030229863
  0
LWPOLYLINE
  5
5AB
100
AcDbEntity
  8
0
100
AcDbPolyline
 62
7
  6
CONTINUOUS
 90
4
 70
0
 10
14.3809050939
 20
8.0514802397
 10
14.395917258
 20
8.0574595685
 10
14.4225650389
 20
8.0790253038
 10
14.4432576122
 20
8.1088494081
  0
LWPOLYLINE
  5
5AC
100
AcDbEntity
  8
0
100
AcDbPolyline
 62
7
  6
CONTINUOUS
 90
4
 70
0
 10
14.2150919085
 20
7.9557796563
 10
14.2286483306
 20
7.9608947378
 10
14.255636274
 20
7.9819319936
 10
14.2767128841
 20
8.0112737662
  0
LWPOLYLINE
  5
5AD
100
AcDbEntity
  8
0
100
AcDbPolyline
 62
7
  6
CONTINUOUS
 90
4
 70
0
 10
14.0492911098
 20
7.8600582736
 10
14.061360245
 20
7.8643633992
 10
14.088685332
 20
7.8848698388
 10
14.1101436035
 20
7.9137260389
  0
LWPOLYLINE
  5
5AE
100
AcDbEntity
  8
0
100
AcDbPolyline
 62
7
  6
CONTINUOUS
 90
4
 70
0
 10
14.2418267593
 20
7.9711673982
 10
14.2515178952
 20
7.9743199048
 10
14.2793620479
 20
7.9939949777
 10
14.3014100001
 20
8.0220884746
  0
LWPOLYLINE
  5
5AF
100
AcDbEntity
  8
0
100
AcDbPolyline
 62
7
  6
CONTINUOUS
 90
4
 70
0
 10
14.0760555168
 20
7.8753916423
 10
14.0841817409
 20
7.8778747295
 10
14.1123551495
 20
7.8970132728
 10
14.1347784988
 20
7.9246131498
  0
LWPOLYLINE
  5
5B0
100
AcDbEntity
  8
0
100
AcDbPolyline
 62
7
  6
CONTINUOUS
 90
4
 70
0
 10
14.0126205151
 20
8.6328286964
 10
13.9752770725
 20
8.6281252651
 10
13.9421974682
 20
8.6141572137
 10
13.9318715982
 20
8.6056973352
  0
LWPOLYLINE
  5
5B1
100
AcDbEntity
  8
0
100
AcDbPolyline
 62
7
  6
CONTINUOUS
 90
4
 70
0
 10
14.0801715281
 20
8.6642132999
 10
14.0417068582
 20
8.6624474243
 10
14.0071856869
 20
8.6513489268
 10
13.9864302783
 20
8.6372386653
  0
LWPOLYLINE
  5
5B2
100
AcDbEntity
  8
0
100
AcDbPolyline
 62
7
  6
CONTINUOUS
 90
5
 70
0
 10
13.9850476725
 20
8.5987724329
 10
13.9453837802
 20
8.6005226397
 10
13.909265768
 20
8.5928938152
 10
13.8777197926
 20
8.576094753
 10
13.8765781086
 20
8.5749787203
  0
LWPOLYLINE
  5
5B3
100
AcDbEntity
  8
0
100
AcDbPolyline
 62
7
  6
CONTINUOUS
 90
5
 70
0
 10
14.0190794799
 20
8.6135718949
 10
13.9789607322
 20
8.6167908528
 10
13.9422171906
 20
8.610622683
 10
13.9098931599
 20
8.5952338016
 10
13.9043711461
 20
8.5902873002
  0
LINE
  5
5B4
100
AcDbEntity
  8
0
100
AcDbLine
 62
7
  6
CONTINUOUS
 10
14.0531660867
 20
8.6281435867
 11
14.0126205151
 21
8.6328286964
  0
LWPOLYLINE
  5
5B5
100
AcDbEntity
  8
0
100
AcDbPolyline
 62
7
  6
CONTINUOUS
 90
5
 70
0
 10
14.0873029418
 20
8.6424885178
 10
14.0463588816
 20
8.6486361356
 10
14.0084415933
 20
8.6454004842
 10
13.974629435
 20
8.6328629002
 10
13.959221164
 20
8.6213455663
  0
LWPOLYLINE
  5
5B6
100
AcDbEntity
  8
0
100
AcDbPolyline
 62
7
  6
CONTINUOUS
 90
3
 70
0
 10
14.1644717442
 20
8.6398642904
 10
14.1214854578
 20
8.6566078586
 10
14.0801715281
 20
8.6642132999
  0
LWPOLYLINE
  5
5B7
100
AcDbEntity
  8
0
100
AcDbPolyline
 62
7
  6
CONTINUOUS
 90
4
 70
0
 10
14.2422377989
 20
8.6256944126
 10
14.198846855
 20
8.6523680253
 10
14.1557090151
 20
8.6705029406
 10
14.1140540983
 20
8.6795604827
  0
LWPOLYLINE
  5
5B8
100
AcDbEntity
  8
0
100
AcDbPolyline
 62
7
  6
CONTINUOUS
 90
4
 70
0
 10
14.2765464828
 20
8.6367176716
 10
14.2332281773
 20
8.664662212
 10
14.1899689649
 20
8.6841752547
 10
14.1480021862
 20
8.6946781409
  0
LWPOLYLINE
  5
5B9
100
AcDbEntity
  8
0
100
AcDbPolyline
 62
7
  6
CONTINUOUS
 90
11
 70
0
 10
14.2802485969
 20
8.6690544114
 10
14.3190836382
 20
8.6438421856
 10
14.3568772345
 20
8.612086002
 10
14.3928183452
 20
8.574444239
 10
14.4256576105
 20
8.532236704
 10
14.454922046
 20
8.4860183768
 10
14.4796806899
 20
8.4370143002
 10
14.4988849405
 20
8.387262956
 10
14.511991071
 20
8.3386653597
 10
14.518989838
 20
8.2917965569
 10
14.5194668668
 20
8.2628553835
  0
LWPOLYLINE
  5
5BA
100
AcDbEntity
  8
0
100
AcDbPolyline
 62
7
  6
CONTINUOUS
 90
11
 70
0
 10
14.2526715472
 20
8.6531328894
 10
14.2937757202
 20
8.6262206029
 10
14.3341192906
 20
8.5915654501
 10
14.3718540029
 20
8.5506895999
 10
14.4055691678
 20
8.505391563
 10
14.4351340631
 20
8.4559142189
 10
14.4593540292
 20
8.4040119351
 10
14.4771828575
 20
8.3520704556
 10
14.4882838729
 20
8.3016809683
 10
14.4925643728
 20
8.253187921
 10
14.4922192712
 20
8.2478363159
  0
LWPOLYLINE
  5
5BB
100
AcDbEntity
  8
0
100
AcDbPolyline
 62
7
  6
CONTINUOUS
 90
11
 70
0
 10
14.2250944976
 20
8.6372113674
 10
14.2663192482
 20
8.6102080269
 10
14.3067734061
 20
8.5754200176
 10
14.3445927556
 20
8.5343862184
 10
14.3783280617
 20
8.4889668926
 10
14.4076502021
 20
8.4398170585
 10
14.4314944092
 20
8.3887880037
 10
14.4492818684
 20
8.3372920461
 10
14.4605786389
 20
8.2865733945
 10
14.4649798401
 20
8.2377335801
 10
14.4643764866
 20
8.2281904567
  0
LWPOLYLINE
  5
5BC
100
AcDbEntity
  8
0
100
AcDbPolyline
 62
7
  6
CONTINUOUS
 90
4
 70
0
 10
14.3108263075
 20
8.6475542172
 10
14.2676109497
 20
8.6767494813
 10
14.2242606323
 20
8.6976264504
 10
14.1820113388
 20
8.709566895
  0
LWPOLYLINE
  5
5BD
100
AcDbEntity
  8
0
100
AcDbPolyline
 62
7
  6
CONTINUOUS
 90
4
 70
0
 10
14.3450725838
 20
8.6582077179
 10
14.3019904102
 20
8.6886326111
 10
14.25857932
 20
8.7108583347
 10
14.2160770601
 20
8.7242275286
  0
LWPOLYLINE
  5
5BE
100
AcDbEntity
  8
0
100
AcDbPolyline
 62
7
  6
CONTINUOUS
 90
4
 70
0
 10
13.6643083395
 20
7.6376877207
 10
13.6809062055
 20
7.6446945689
 10
13.7071710581
 20
7.6668469347
 10
13.7274325314
 20
7.697205137
  0
LWPOLYLINE
  5
5BF
100
AcDbEntity
  8
0
100
AcDbPolyline
 62
7
  6
CONTINUOUS
 90
4
 70
0
 10
13.8567843936
 20
7.7488980346
 10
13.8711566043
 20
7.7544884295
 10
13.8979552117
 20
7.7758207062
 10
13.9188179378
 20
7.8054318745
  0
LWPOLYLINE
  5
5C0
100
AcDbEntity
  8
0
100
AcDbPolyline
 62
7
  6
CONTINUOUS
 90
4
 70
0
 10
13.6909767429
 20
7.6531882861
 10
13.7038791781
 20
7.6579383986
 10
13.7310166172
 20
7.6787411551
 10
13.7522623346
 20
7.7078685518
  0
LWPOLYLINE
  5
5C1
100
AcDbEntity
  8
0
100
AcDbPolyline
 62
7
  6
CONTINUOUS
 90
4
 70
0
 10
13.8835022368
 20
7.7643158226
 10
13.8940532051
 20
7.7678656646
 10
13.9217123801
 20
7.787839009
 10
13.9435498958
 20
7.8162064488
  0
LWPOLYLINE
  5
5C2
100
AcDbEntity
  8
0
100
AcDbPolyline
 62
7
  6
CONTINUOUS
 90
4
 70
0
 10
13.7177248168
 20
7.6685520548
 10
13.7267274165
 20
7.6714016424
 10
13.7547175875
 20
7.6908396706
 10
13.7769318892
 20
7.7187152154
  0
LWPOLYLINE
  5
5C3
100
AcDbEntity
  8
0
100
AcDbPolyline
 62
7
  6
CONTINUOUS
 90
4
 70
0
 10
13.9102949675
 20
7.7795942253
 10
13.9168271625
 20
7.7814634279
 10
13.9453266791
 20
7.8000633115
 10
13.9681229034
 20
7.8271665175
  0
LWPOLYLINE
  5
5C4
100
AcDbEntity
  8
0
100
AcDbPolyline
 62
7
  6
CONTINUOUS
 90
3
 70
0
 10
14.1420671094
 20
8.7122118562
 10
14.1055651087
 20
8.7054720596
 10
14.0735426337
 20
8.6895305059
  0
LWPOLYLINE
  5
5C5
100
AcDbEntity
  8
0
100
AcDbPolyline
 62
7
  6
CONTINUOUS
 90
4
 70
0
 10
14.1140540983
 20
8.6795604827
 10
14.0750689005
 20
8.6792653326
 10
14.0398627623
 20
8.6696135159
 10
14.0135100173
 20
8.6533821882
  0
LWPOLYLINE
  5
5C6
100
AcDbEntity
  8
0
100
AcDbPolyline
 62
7
  6
CONTINUOUS
 90
3
 70
0
 10
14.1480021862
 20
8.6946781409
 10
14.1085236847
 20
8.6958536187
 10
14.0726571133
 20
8.6876550472
  0
LINE
  5
5C7
100
AcDbEntity
  8
0
100
AcDbLine
 62
7
  6
CONTINUOUS
 10
14.1820113388
 20
8.709566895
 11
14.1420671094
 21
8.7122118562
  0
LWPOLYLINE
  5
5C8
100
AcDbEntity
  8
0
100
AcDbPolyline
 62
7
  6
CONTINUOUS
 90
5
 70
0
 10
14.2160770601
 20
8.7242275286
 10
14.1756950099
 20
8.7283397822
 10
14.1385830361
 20
8.7230632516
 10
14.1057961327
 20
8.7085384843
 10
14.0973823622
 20
8.7013984928
  0
LWPOLYLINE
  5
5C9
100
AcDbEntity
  8
0
100
AcDbPolyline
 62
7
  6
CONTINUOUS
 90
6
 70
0
 10
14.2929203113
 20
8.7238728709
 10
14.2501948135
 20
8.7386609876
 10
14.2094031613
 20
8.744237298
 10
14.1717071051
 20
8.7404274824
 10
14.1381785846
 20
8.7273295354
 10
14.1247897154
 20
8.7169527393
  0
LWPOLYLINE
  5
5CA
100
AcDbEntity
  8
0
100
AcDbPolyline
 62
7
  6
CONTINUOUS
 90
11
 70
0
 10
14.3078256465
 20
8.6849759334
 10
14.3488480106
 20
8.6581253836
 10
14.3889580834
 20
8.6237134147
 10
14.4263676832
 20
8.5833048108
 10
14.4600351206
 20
8.5382616385
 10
14.4897122026
 20
8.4888395205
 10
14.5140661954
 20
8.4369447491
 10
14.5320410084
 20
8.3849582696
 10
14.543301253
 20
8.3343917632
 10
14.5477058193
 20
8.2857976285
 10
14.5470515267
 20
8.2751666849
  0
LWPOLYLINE
  5
5CB
100
AcDbEntity
  8
0
100
AcDbPolyline
 62
7
  6
CONTINUOUS
 90
4
 70
0
 10
13.5251400951
 20
7.5574432977
 10
13.5365826836
 20
7.5614219097
 10
13.5640559194
 20
7.5816928349
 10
13.5856822341
 20
7.6103332425
  0
LWPOLYLINE
  5
5CC
100
AcDbEntity
  8
0
100
AcDbPolyline
 62
7
  6
CONTINUOUS
 90
4
 70
0
 10
13.5519583652
 20
7.5727667434
 10
13.5593830872
 20
7.5749714372
 10
13.5877011262
 20
7.5938719865
 10
13.6102897145
 20
7.6212525553
  0
LWPOLYLINE
  5
5CD
100
AcDbEntity
  8
0
100
AcDbPolyline
 62
7
  6
CONTINUOUS
 90
3
 70
0
 10
15.0268315837
 20
8.8680791773
 10
15.0390011046
 20
8.8691522726
 10
15.0506098072
 20
8.8736525765
  0
LWPOLYLINE
  5
5CE
100
AcDbEntity
  8
0
100
AcDbPolyline
 62
7
  6
CONTINUOUS
 90
6
 70
0
 10
15.1516623081
 20
8.6377661026
 10
15.1493596357
 20
8.6016244423
 10
15.1424977863
 20
8.5688659653
 10
15.1312142769
 20
8.5401470614
 10
15.1157352428
 20
8.5160432517
 10
15.0963708915
 20
8.497037548
  0
LINE
  5
5CF
100
AcDbEntity
  8
0
100
AcDbLine
 62
7
  6
CONTINUOUS
 10
14.7723325075
 20
9.0582853771
 11
14.7924596663
 21
9.0340625108
  0
LWPOLYLINE
  5
5D0
100
AcDbEntity
  8
AXIS
100
AcDbPolyline
 62
7
  6
CONTINUOUS
 90
5
 70
0
 10
15.3415518672
 20
8.9176360484
 10
15.3391581041
 20
8.8962537451
 10
15.3321159313
 20
8.8788781207
 10
15.3208346145
 20
8.8665189833
 10
15.3174336094
 20
8.8643159411
  0
LWPOLYLINE
  5
5D1
100
AcDbEntity
  8
0
100
AcDbPolyline
 62
7
  6
CONTINUOUS
 90
3
 70
0
 10
15.0713707874
 20
8.8856394514
 10
15.084352324
 20
8.8642668396
 10
15.0963708915
 20
8.8423382414
  0
LWPOLYLINE
  5
5D2
100
AcDbEntity
  8
0
100
AcDbPolyline
 62
7
  6
CONTINUOUS
 90
6
 70
0
 10
15.0963708915
 20
8.8423382414
 10
15.1157352428
 20
8.8009730166
 10
15.1312142769
 20
8.7589959623
 10
15.1424977863
 20
8.7172482787
 10
15.1493596357
 20
8.6765665997
 10
15.1516623081
 20
8.6377661026
  0
LWPOLYLINE
  5
5D3
100
AcDbEntity
  8
0
100
AcDbPolyline
 62
7
  6
CONTINUOUS
 90
9
 70
0
 10
8.4251779892
 20
8.2487029621
 10
8.4756541436
 20
8.2408807936
 10
8.5358477308
 20
8.2418608999
 10
8.5950075092
 20
8.2530120957
 10
8.6514273585
 20
8.2740127897
 10
8.7034801759
 20
8.3042573389
 10
8.7496648001
 20
8.3428735147
 10
8.7886493038
 20
8.388747658
 10
8.8193094054
 20
8.4405567953
  0
LWPOLYLINE
  5
5D4
100
AcDbEntity
  8
0
100
AcDbPolyline
 62
7
  6
CONTINUOUS
 90
16
 70
0
 10
8.4188411184
 20
8.2494591207
 10
8.3659161289
 20
8.2682256218
 10
8.3168853212
 20
8.2949955433
 10
8.2728485431
 20
8.3290930716
 10
8.2348219571
 20
8.3697211669
 10
8.203631627
 20
8.4161422142
 10
8.1805529779
 20
8.466381999
 10
8.1658841447
 20
8.5193356586
 10
8.159849037
 20
8.5749790828
 10
8.1632448493
 20
8.6325094743
 10
8.1757351215
 20
8.686741198
 10
8.1950019766
 20
8.7342621159
 10
8.2192264649
 20
8.7753353654
 10
8.2476647462
 20
8.8110265997
 10
8.2804890599
 20
8.8422894926
 10
8.317990204
 20
8.8692118529
  0
LWPOLYLINE
  5
5D5
100
AcDbEntity
  8
0
100
AcDbPolyline
 62
7
  6
CONTINUOUS
 90
11
 70
0
 10
8.1682812123
 20
8.7195743702
 10
8.1519083227
 20
8.6616420214
 10
8.1455741268
 20
8.6017746137
 10
8.1494612978
 20
8.5416986747
 10
8.1634577327
 20
8.4831467459
 10
8.1871597857
 20
8.4278074178
 10
8.2198839087
 20
8.377276632
 10
8.2606863644
 20
8.3330116553
 10
8.308390443
 20
8.2962890542
 10
8.3616203973
 20
8.2681678786
 10
8.4188411184
 20
8.2494591207
  0
LINE
  5
5D6
100
AcDbEntity
  8
0
100
AcDbLine
 62
7
  6
CONTINUOUS
 10
8.1942206148
 20
8.7739009378
 11
8.1682812123
 21
8.7195743702
  0
LINE
  5
5D7
100
AcDbEntity
  8
0
100
AcDbLine
 62
7
  6
CONTINUOUS
 10
8.2289784586
 20
8.8230549899
 11
8.1942206148
 21
8.7739009378
  0
LINE
  5
5D8
100
AcDbEntity
  8
AXIS_COSMETIC_THREADS
100
AcDbLine
 62
7
  6
CONTINUOUS
 10
8.2150003746
 20
8.4931472855
 11
8.2150003746
 21
8.6959402834
  0
LINE
  5
5D9
100
AcDbEntity
  8
AXIS
100
AcDbLine
 62
7
  6
CENTER
 10
8.5000003746
 20
8.5945437844
 11
8.0705003746
 21
8.5945437844
  0
LINE
  5
5DA
100
AcDbEntity
  8
AXIS
100
AcDbLine
 62
7
  6
CENTER
 10
8.5000003746
 20
8.5945437844
 11
8.9295003746
 21
8.5945437844
  0
LINE
  5
5DB
100
AcDbEntity
  8
AXIS
100
AcDbLine
 62
7
  6
CENTER
 10
8.5000003746
 20
8.5945437844
 11
8.5000003746
 21
8.1650437844
  0
LINE
  5
5DC
100
AcDbEntity
  8
AXIS
100
AcDbLine
 62
7
  6
CENTER
 10
8.5000003746
 20
8.5945437844
 11
8.5000003746
 21
9.0240437844
  0
LINE
  5
5DD
100
AcDbEntity
  8
AXIS_COSMETIC_THREADS
100
AcDbLine
 62
7
  6
CONTINUOUS
 10
8.7850003746
 20
8.6959402834
 11
8.7850003746
 21
8.4931472855
  0
LWPOLYLINE
  5
5DE
100
AcDbEntity
  8
0
100
AcDbPolyline
 62
7
  6
CONTINUOUS
 90
15
 70
0
 10
8.7853557451
 20
8.7592937844
 10
8.8105095424
 20
8.7100594028
 10
8.8271489152
 20
8.6572010345
 10
8.834813289
 20
8.6018866151
 10
8.833118234
 20
8.5455709247
 10
8.8220630676
 20
8.4903669145
 10
8.8019179509
 20
8.4375765805
 10
8.7730256382
 20
8.3884455381
 10
8.7363984569
 20
8.344822337
 10
8.6931582594
 20
8.3079114414
 10
8.6441967449
 20
8.2784666524
 10
8.5907106621
 20
8.2573401015
 10
8.5343446692
 20
8.2452653288
 10
8.476316903
 20
8.2426007181
 10
8.4188411184
 20
8.2494591207
  0
LWPOLYLINE
  5
5DF
100
AcDbEntity
  8
0
100
AcDbPolyline
 62
7
  6
CONTINUOUS
 90
18
 70
0
 10
8.8193094054
 20
8.4405567953
 10
8.8407608924
 20
8.4968067931
 10
8.8523851212
 20
8.5558754469
 10
8.8538468584
 20
8.6160592642
 10
8.8451039487
 20
8.6756225925
 10
8.8264085305
 20
8.7328476735
 10
8.7982997647
 20
8.7860841819
 10
8.7615882852
 20
8.8337968199
 10
8.7173328217
 20
8.8746095935
 10
8.6668096658
 20
8.9073454954
 10
8.6114758646
 20
8.9310604484
 10
8.5529272003
 20
8.9450705325
 10
8.4928521691
 20
8.9489717082
 10
8.4329832863
 20
8.9426514687
 10
8.3750471223
 20
8.9262920847
 10
8.3207145092
 20
8.9003653475
 10
8.2715523557
 20
8.8656189634
 10
8.2289784586
 20
8.8230549899
  0
LINE
  5
5E0
100
AcDbEntity
  8
AXIS
100
AcDbLine
 62
7
  6
CONTINUOUS
 10
8.6165003746
 20
3.6869010131
 11
8.3835003746
 21
3.6869010131
  0
LINE
  5
5E1
100
AcDbEntity
  8
0
100
AcDbLine
 62
7
  6
CONTINUOUS
 10
8.15973476
 20
6.4399482572
 11
8.1456632835
 21
6.431820197
  0
LINE
  5
5E2
100
AcDbEntity
  8
0
100
AcDbLine
 62
7
  6
CONTINUOUS
 10
8.1706756248
 20
6.4072682219
 11
8.1456632835
 21
6.392820197
  0
LINE
  5
5E3
100
AcDbEntity
  8
0
100
AcDbLine
 62
7
  6
CONTINUOUS
 10
8.1706756248
 20
6.3682682219
 11
8.1456632835
 21
6.353820197
  0
LWPOLYLINE
  5
5E4
100
AcDbEntity
  8
0
100
AcDbPolyline
 62
7
  6
CONTINUOUS
 90
11
 70
0
 10
8.1705003746
 20
6.3781982472
 10
8.1725369569
 20
6.3788887306
 10
8.1827929471
 20
6.3798990559
 10
8.2011965836
 20
6.3808987628
 10
8.2275428299
 20
6.3819054519
 10
8.2608682021
 20
6.3829074362
 10
8.3001744071
 20
6.3839038048
 10
8.3449056816
 20
6.3849063053
 10
8.3943937154
 20
6.3859231263
 10
8.4468018252
 20
6.3869417099
 10
8.556951919
 20
6.3890265117
  0
LWPOLYLINE
  5
5E5
100
AcDbEntity
  8
0
100
AcDbPolyline
 62
7
  6
CONTINUOUS
 90
20
 70
0
 10
8.1456632835
 20
6.314820197
 10
8.1469522302
 20
6.3151939691
 10
8.1575130299
 20
6.3162524996
 10
8.1780102283
 20
6.3173110301
 10
8.2078491514
 20
6.3183695606
 10
8.2461640988
 20
6.3194280911
 10
8.2918434599
 20
6.3204866216
 10
8.3435619641
 20
6.3215451521
 10
8.3998191307
 20
6.3226036826
 10
8.4589828011
 20
6.3236622132
 10
8.5193364921
 20
6.3247207437
 10
8.5791291948
 20
6.3257792742
 10
8.6366261762
 20
6.3268378047
 10
8.6901593076
 20
6.3278963352
 10
8.7381754615
 20
6.3289548657
 10
8.7792815713
 20
6.3300133962
 10
8.8122850479
 20
6.3310719267
 10
8.8362283793
 20
6.3321304572
 10
8.8504169108
 20
6.3331889878
 10
8.8543374657
 20
6.3339438308
  0
LINE
  5
5E6
100
AcDbEntity
  8
0
100
AcDbLine
 62
7
  6
CONTINUOUS
 10
8.1706756248
 20
6.3292682219
 11
8.1456632835
 21
6.314820197
  0
LINE
  5
5E7
100
AcDbEntity
  8
0
100
AcDbLine
 62
7
  6
CONTINUOUS
 10
8.1706756248
 20
6.2902682219
 11
8.1456632835
 21
6.275820197
  0
LINE
  5
5E8
100
AcDbEntity
  8
0
100
AcDbLine
 62
7
  6
CONTINUOUS
 10
8.1706756248
 20
6.2512682219
 11
8.1456632835
 21
6.236820197
  0
LWPOLYLINE
  5
5E9
100
AcDbEntity
  8
0
100
AcDbPolyline
 62
7
  6
CONTINUOUS
 90
11
 70
0
 10
8.1705003747
 20
6.2611980743
 10
8.1716130499
 20
6.2617085019
 10
8.1805138811
 20
6.2627324189
 10
8.1980461667
 20
6.2637543267
 10
8.2241825834
 20
6.2647913461
 10
8.2581653937
 20
6.2658329553
 10
8.2985259992
 20
6.2668646568
 10
8.3439227293
 20
6.2678852994
 10
8.3935972821
 20
6.2689072809
 10
8.446055493
 20
6.2699274611
 10
8.5572119443
 20
6.2720314852
  0
LWPOLYLINE
  5
5EA
100
AcDbEntity
  8
0
100
AcDbPolyline
 62
7
  6
CONTINUOUS
 90
20
 70
0
 10
8.1456632835
 20
6.275820197
 10
8.1462227699
 20
6.2760283402
 10
8.1551935948
 20
6.2770868707
 10
8.174168111
 20
6.2781454012
 10
8.2025958211
 20
6.2792039317
 10
8.2396519676
 20
6.2802624622
 10
8.2842614605
 20
6.2813209927
 10
8.3351300691
 20
6.2823795232
 10
8.39078197
 20
6.2834380538
 10
8.449602565
 20
6.2844965843
 10
8.5098853242
 20
6.2855551148
 10
8.5698812967
 20
6.2866136453
 10
8.6278498522
 20
6.2876721758
 10
8.6821091803
 20
6.2887307063
 10
8.7310850849
 20
6.2897892368
 10
8.7733566547
 20
6.2908477673
 10
8.8076974876
 20
6.2919062978
 10
8.8331112717
 20
6.2929648283
 10
8.8488606909
 20
6.2940233589
 10
8.8543374657
 20
6.2949438308
  0
LINE
  5
5EB
100
AcDbEntity
  8
0
100
AcDbLine
 62
7
  6
CONTINUOUS
 10
8.1706756248
 20
6.2122682219
 11
8.1456632835
 21
6.197820197
  0
LINE
  5
5EC
100
AcDbEntity
  8
0
100
AcDbLine
 62
7
  6
CONTINUOUS
 10
8.1706756248
 20
6.1732682219
 11
8.1456632835
 21
6.158820197
  0
LINE
  5
5ED
100
AcDbEntity
  8
0
100
AcDbLine
 62
7
  6
CONTINUOUS
 10
8.1706756248
 20
6.1342682219
 11
8.1456632835
 21
6.119820197
  0
LWPOLYLINE
  5
5EE
100
AcDbEntity
  8
0
100
AcDbPolyline
 62
7
  6
CONTINUOUS
 90
11
 70
0
 10
8.1705003746
 20
6.2221982336
 10
8.1707341089
 20
6.2224320649
 10
8.1776675603
 20
6.2234952475
 10
8.1937439367
 20
6.22454362
 10
8.2188468729
 20
6.2256032302
 10
8.2523899066
 20
6.2266704559
 10
8.2929091518
 20
6.2277297954
 10
8.3387690612
 20
6.2287745269
 10
8.3898408914
 20
6.2298323571
 10
8.4443803585
 20
6.2308954598
 10
8.5571512844
 20
6.2330303249
  0
LINE
  5
5EF
100
AcDbEntity
  8
0
100
AcDbLine
 62
7
  6
CONTINUOUS
 10
8.1706756248
 20
6.0952682219
 11
8.1456632835
 21
6.080820197
  0
LINE
  5
5F0
100
AcDbEntity
  8
0
100
AcDbLine
 62
7
  6
CONTINUOUS
 10
8.1706756248
 20
6.0562682219
 11
8.1456632835
 21
6.041820197
  0
LINE
  5
5F1
100
AcDbEntity
  8
0
100
AcDbLine
 62
7
  6
CONTINUOUS
 10
8.8293251244
 20
6.4364958059
 11
8.8353018215
 21
6.4399482572
  0
LWPOLYLINE
  5
5F2
100
AcDbEntity
  8
0
100
AcDbPolyline
 62
7
  6
CONTINUOUS
 90
11
 70
0
 10
8.8295003746
 20
6.3875657492
 10
8.8283898517
 20
6.3870560199
 10
8.8195130577
 20
6.3860336267
 10
8.8019980673
 20
6.3850117484
 10
8.7758732048
 20
6.3839745773
 10
8.7418998933
 20
6.3829328628
 10
8.7015470313
 20
6.381901092
 10
8.6561286694
 20
6.3808798119
 10
8.6063310651
 20
6.3798553059
 10
8.5539040664
 20
6.3788357802
 10
8.4428145204
 20
6.3767330345
  0
LWPOLYLINE
  5
5F3
100
AcDbEntity
  8
0
100
AcDbPolyline
 62
7
  6
CONTINUOUS
 90
20
 70
0
 10
8.1456632835
 20
6.002820197
 10
8.1459019028
 20
6.0029274684
 10
8.1539011952
 20
6.003985999
 10
8.1719416746
 20
6.0050445295
 10
8.1994999423
 20
6.00610306
 10
8.2357764654
 20
6.0071615905
 10
8.2797187728
 20
6.008220121
 10
8.3300519904
 20
6.0092786515
 10
8.3853158278
 20
6.010337182
 10
8.4439069456
 20
6.0113957125
 10
8.5041254714
 20
6.012454243
 10
8.5642243181
 20
6.0135127736
 10
8.6224598704
 20
6.0145713041
 10
8.6771425721
 20
6.0156298346
 10
8.7266859438
 20
6.0166883651
 10
8.7696526104
 20
6.0177468956
 10
8.8047960037
 20
6.0188054261
 10
8.8310965274
 20
6.0198639566
 10
8.8477911387
 20
6.0209224871
 10
8.8543374657
 20
6.0219438308
  0
LWPOLYLINE
  5
5F4
100
AcDbEntity
  8
0
100
AcDbPolyline
 62
7
  6
CONTINUOUS
 90
11
 70
0
 10
8.170500375
 20
6.0661979444
 10
8.1719514419
 20
6.0667809978
 10
8.1813849905
 20
6.0677981151
 10
8.19929038
 20
6.0688122658
 10
8.2256460692
 20
6.06984143
 10
8.2596686957
 20
6.0708744992
 10
8.2999038233
 20
6.0718973917
 10
8.3450356101
 20
6.072909079
 10
8.3942657729
 20
6.0739205817
 10
8.4464377774
 20
6.0749347602
 10
8.5572309235
 20
6.0770318482
  0
LWPOLYLINE
  5
5F5
100
AcDbEntity
  8
0
100
AcDbPolyline
 62
7
  6
CONTINUOUS
 90
20
 70
0
 10
8.1456632835
 20
6.041820197
 10
8.1464780081
 20
6.0420930973
 10
8.1560713003
 20
6.0431516279
 10
8.1756428194
 20
6.0442101584
 10
8.2046247475
 20
6.0452686889
 10
8.2421762478
 20
6.0463272194
 10
8.2872078591
 20
6.0473857499
 10
8.3384131037
 20
6.0484442804
 10
8.3943063918
 20
6.0495028109
 10
8.4532661218
 20
6.0505613414
 10
8.5135817272
 20
6.0516198719
 10
8.5735033043
 20
6.0526784024
 10
8.6312923809
 20
6.053736933
 10
8.685272354
 20
6.0547954635
 10
8.7338771321
 20
6.055853994
 10
8.7756965713
 20
6.0569125245
 10
8.8095173868
 20
6.057971055
 10
8.8343583539
 20
6.0590295855
 10
8.8494987751
 20
6.060088116
 10
8.8543374657
 20
6.0609438308
  0
LWPOLYLINE
  5
5F6
100
AcDbEntity
  8
0
100
AcDbPolyline
 62
7
  6
CONTINUOUS
 90
7
 70
0
 10
8.6697060021
 20
4.1515619761
 10
8.6470053574
 20
4.1452794232
 10
8.62196831
 20
4.1392406632
 10
8.5949927826
 20
4.1336796887
 10
8.5665075069
 20
4.1289449929
 10
8.5369652096
 20
4.1255213842
 10
8.506835417
 20
4.1239482572
  0
LINE
  5
5F7
100
AcDbEntity
  8
0
100
AcDbLine
 62
7
  6
CONTINUOUS
 10
8.365136432
 20
4.1239482572
 11
8.6348643171
 21
4.1239482572
  0
LWPOLYLINE
  5
5F8
100
AcDbEntity
  8
0
100
AcDbPolyline
 62
7
  6
CONTINUOUS
 90
7
 70
0
 10
8.4931653322
 20
4.1239482572
 10
8.4630355395
 20
4.1255213842
 10
8.4334932423
 20
4.1289449929
 10
8.4050079666
 20
4.1336796887
 10
8.3780324392
 20
4.1392406632
 10
8.3529953918
 20
4.1452794232
 10
8.3302947471
 20
4.1515619761
  0
LWPOLYLINE
  5
5F9
100
AcDbEntity
  8
0
100
AcDbPolyline
 62
7
  6
CONTINUOUS
 90
4
 70
0
 10
8.2531939203
 20
4.1639482572
 10
8.2674477892
 20
4.1597170442
 10
8.2813641923
 20
4.1555878317
 10
8.294939408
 20
4.1515619761
  0
LINE
  5
5FA
100
AcDbEntity
  8
0
100
AcDbLine
 62
7
  6
CONTINUOUS
 10
8.1706756248
 20
6.0172682219
 11
8.1456632835
 21
6.002820197
  0
LINE
  5
5FB
100
AcDbEntity
  8
0
100
AcDbLine
 62
7
  6
CONTINUOUS
 10
8.8293251244
 20
6.3974958059
 11
8.8543374657
 21
6.4119438308
  0
LINE
  5
5FC
100
AcDbEntity
  8
0
100
AcDbLine
 62
7
  6
CONTINUOUS
 10
8.1706756248
 20
5.9782682219
 11
8.1456632835
 21
5.963820197
  0
LINE
  5
5FD
100
AcDbEntity
  8
0
100
AcDbLine
 62
7
  6
CONTINUOUS
 10
8.8293251244
 20
6.3584958059
 11
8.8543374657
 21
6.3729438308
  0
LINE
  5
5FE
100
AcDbEntity
  8
0
100
AcDbLine
 62
7
  6
CONTINUOUS
 10
8.1706756248
 20
5.9392682219
 11
8.1456632835
 21
5.924820197
  0
LINE
  5
5FF
100
AcDbEntity
  8
0
100
AcDbLine
 62
7
  6
CONTINUOUS
 10
8.8293251244
 20
6.3194958059
 11
8.8543374657
 21
6.3339438308
  0
LINE
  5
600
100
AcDbEntity
  8
0
100
AcDbLine
 62
7
  6
CONTINUOUS
 10
8.2885492594
 20
4.1639482572
 11
8.1750003746
 21
4.1639482572
  0
LINE
  5
601
100
AcDbEntity
  8
0
100
AcDbLine
 62
7
  6
CONTINUOUS
 10
8.7114514898
 20
4.1639482572
 11
8.8250003746
 21
4.1639482572
  0
LWPOLYLINE
  5
602
100
AcDbEntity
  8
0
100
AcDbPolyline
 62
7
  6
CONTINUOUS
 90
4
 70
0
 10
8.3302947471
 20
4.1515619761
 10
8.3167296215
 20
4.1555848386
 10
8.302813353
 20
4.1597140096
 10
8.2885492594
 20
4.1639482572
  0
LINE
  5
603
100
AcDbEntity
  8
0
100
AcDbLine
 62
7
  6
CONTINUOUS
 10
8.2885492594
 20
4.2198887046
 11
8.3302947471
 21
4.2070439392
  0
LWPOLYLINE
  5
604
100
AcDbEntity
  8
0
100
AcDbPolyline
 62
7
  6
CONTINUOUS
 90
7
 70
0
 10
8.365136432
 20
4.1239482572
 10
8.3623700304
 20
4.1255213842
 10
8.3558347375
 20
4.1289449929
 10
8.3456344213
 20
4.1336796887
 10
8.3319311989
 20
4.1392406632
 10
8.3149428605
 20
4.1452794232
 10
8.294939408
 20
4.1515619761
  0
LWPOLYLINE
  5
605
100
AcDbEntity
  8
0
100
AcDbPolyline
 62
7
  6
CONTINUOUS
 90
10
 70
0
 10
8.8295003746
 20
6.426565772
 10
8.8291505618
 20
6.4262797296
 10
8.8218792768
 20
6.4252281855
 10
8.8053925091
 20
6.4241766637
 10
8.7801615216
 20
6.4231251167
 10
8.7469078613
 20
6.422073537
 10
8.7065848146
 20
6.4210219684
 10
8.6603488334
 20
6.4199704473
 10
8.6095209829
 20
6.4189189056
 10
8.5555555151
 20
6.4178673281
  0
LINE
  5
606
100
AcDbEntity
  8
0
100
AcDbLine
 62
7
  6
CONTINUOUS
 10
8.1706756248
 20
5.9002682219
 11
8.1456632835
 21
5.885820197
  0
LINE
  5
607
100
AcDbEntity
  8
0
100
AcDbLine
 62
7
  6
CONTINUOUS
 10
8.8293251244
 20
6.2804958059
 11
8.8543374657
 21
6.2949438308
  0
LINE
  5
608
100
AcDbEntity
  8
0
100
AcDbLine
 62
7
  6
CONTINUOUS
 10
8.1706756248
 20
5.8612682219
 11
8.1456632835
 21
5.846820197
  0
LINE
  5
609
100
AcDbEntity
  8
0
100
AcDbLine
 62
7
  6
CONTINUOUS
 10
8.8293251244
 20
6.2414958059
 11
8.8543374657
 21
6.2559438308
  0
LINE
  5
60A
100
AcDbEntity
  8
0
100
AcDbLine
 62
7
  6
CONTINUOUS
 10
8.1706756248
 20
5.8222682219
 11
8.1456632835
 21
5.807820197
  0
LINE
  5
60B
100
AcDbEntity
  8
0
100
AcDbLine
 62
7
  6
CONTINUOUS
 10
8.8293251244
 20
6.2024958059
 11
8.8543374657
 21
6.2169438308
  0
LWPOLYLINE
  5
60C
100
AcDbEntity
  8
0
100
AcDbPolyline
 62
7
  6
CONTINUOUS
 90
11
 70
0
 10
8.8295003744
 20
6.1925655495
 10
8.828388859
 20
6.192055792
 10
8.8195329492
 20
6.191035161
 10
8.802037805
 20
6.1900136207
 10
8.7759330652
 20
6.18897664
 10
8.7419800982
 20
6.1879350884
 10
8.7016463019
 20
6.1869034562
 10
8.6562217225
 20
6.1858818026
 10
8.6063233749
 20
6.1848551529
 10
8.5538552523
 20
6.1838348481
 10
8.4428535977
 20
6.181733782
  0
LWPOLYLINE
  5
60D
100
AcDbEntity
  8
0
100
AcDbPolyline
 62
7
  6
CONTINUOUS
 90
11
 70
0
 10
8.1705003755
 20
5.8711978025
 10
8.1716211453
 20
5.8717103558
 10
8.1805589561
 20
5.8727358857
 10
8.1981122316
 20
5.8737574342
 10
8.2242560575
 20
5.8747938752
 10
8.2582342591
 20
5.8758348649
 10
8.2985802363
 20
5.8768659479
 10
8.3439194604
 20
5.8778852295
 10
8.3934267608
 20
5.8789038865
 10
8.4460149376
 20
5.8799266866
 10
8.5572355718
 20
5.8820319372
  0
LWPOLYLINE
  5
60E
100
AcDbEntity
  8
0
100
AcDbPolyline
 62
7
  6
CONTINUOUS
 90
20
 70
0
 10
8.1456632835
 20
5.807820197
 10
8.1467717249
 20
5.8081578545
 10
8.1569864402
 20
5.809216385
 10
8.177152832
 20
5.8102749155
 10
8.2066858236
 20
5.811333446
 10
8.2447285906
 20
5.8123919765
 10
8.2901774187
 20
5.8134505071
 10
8.341713726
 20
5.8145090376
 10
8.3978423176
 20
5.8155675681
 10
8.4569347653
 20
5.8166260986
 10
8.517276652
 20
5.8176846291
 10
8.5771173115
 20
5.8187431596
 10
8.6347206193
 20
5.8198016901
 10
8.6884153621
 20
5.8208602206
 10
8.7366437234
 20
5.8219187511
 10
8.7780064802
 20
5.8229772816
 10
8.8113035972
 20
5.8240358122
 10
8.8355690434
 20
5.8250943427
 10
8.8500988187
 20
5.8261528732
 10
8.8543374657
 20
5.8269438308
  0
LINE
  5
60F
100
AcDbEntity
  8
AXIS
100
AcDbLine
 62
7
  6
CONTINUOUS
 10
8.1705093558
 20
4.2839482572
 11
8.8294913934
 21
4.2839482572
  0
LINE
  5
610
100
AcDbEntity
  8
0
100
AcDbLine
 62
7
  6
CONTINUOUS
 10
8.1706756248
 20
5.7832682219
 11
8.1456632835
 21
5.768820197
  0
LINE
  5
611
100
AcDbEntity
  8
0
100
AcDbLine
 62
7
  6
CONTINUOUS
 10
8.8293251244
 20
6.1634958059
 11
8.8543374657
 21
6.1779438308
  0
LINE
  5
612
100
AcDbEntity
  8
0
100
AcDbLine
 62
7
  6
CONTINUOUS
 10
8.1706756248
 20
5.7442682219
 11
8.1456632835
 21
5.729820197
  0
LINE
  5
613
100
AcDbEntity
  8
0
100
AcDbLine
 62
7
  6
CONTINUOUS
 10
8.8293251244
 20
6.1244958059
 11
8.8543374657
 21
6.1389438308
  0
LINE
  5
614
100
AcDbEntity
  8
0
100
AcDbLine
 62
7
  6
CONTINUOUS
 10
8.1706756248
 20
5.7052682219
 11
8.1456632835
 21
5.690820197
  0
LINE
  5
615
100
AcDbEntity
  8
0
100
AcDbLine
 62
7
  6
CONTINUOUS
 10
8.8293251244
 20
6.0854958059
 11
8.8543374657
 21
6.0999438308
  0
LWPOLYLINE
  5
616
100
AcDbEntity
  8
0
100
AcDbPolyline
 62
7
  6
CONTINUOUS
 90
4
 70
0
 10
8.1705003746
 20
5.7541982766
 10
8.1713551591
 20
5.7546454494
 10
8.1796943148
 20
5.7556679883
 10
8.1963962834
 20
5.7566755299
  0
LWPOLYLINE
  5
617
100
AcDbEntity
  8
0
100
AcDbPolyline
 62
7
  6
CONTINUOUS
 90
11
 70
0
 10
8.8295003738
 20
5.9975653502
 10
8.8283848546
 20
5.9970548737
 10
8.8195472113
 20
5.996036262
 10
8.8020740565
 20
5.9950153298
 10
8.7759961191
 20
5.9939788139
 10
8.7420741874
 20
5.9929377003
 10
8.7017728612
 20
5.9919064712
 10
8.6563582066
 20
5.9908847231
 10
8.6063779508
 20
5.9898562391
 10
8.5537981729
 20
5.9888337582
 10
8.4429025629
 20
5.9867347185
  0
LWPOLYLINE
  5
618
100
AcDbEntity
  8
0
100
AcDbPolyline
 62
7
  6
CONTINUOUS
 90
11
 70
0
 10
8.170500376
 20
5.7151988295
 10
8.1716184077
 20
5.7157097296
 10
8.1804435152
 20
5.7167269916
 10
8.1978853041
 20
5.7177467453
 10
8.2239183406
 20
5.7187822371
 10
8.2577864342
 20
5.7198224352
 10
8.2980305057
 20
5.720852852
 10
8.3434103191
 20
5.7218743339
 10
8.3934653754
 20
5.7229046552
 10
8.4462563359
 20
5.723931296
 10
8.5570190869
 20
5.7260277964
  0
LWPOLYLINE
  5
619
100
AcDbEntity
  8
0
100
AcDbPolyline
 62
7
  6
CONTINUOUS
 90
4
 70
0
 10
8.1456632835
 20
5.768820197
 10
8.1460971494
 20
5.7689922256
 10
8.1547204006
 20
5.7700507561
 10
8.1733610716
 20
5.7711092866
  0
LWPOLYLINE
  5
61A
100
AcDbEntity
  8
0
100
AcDbPolyline
 62
7
  6
CONTINUOUS
 90
3
 70
0
 10
8.8543374657
 20
6.2949438308
 10
8.8544888157
 20
6.2950818894
 10
8.8543374657
 20
6.295320197
  0
LINE
  5
61B
100
AcDbEntity
  8
0
100
AcDbLine
 62
7
  6
CONTINUOUS
 10
8.1706756248
 20
5.6662682219
 11
8.1456632835
 21
5.651820197
  0
LINE
  5
61C
100
AcDbEntity
  8
0
100
AcDbLine
 62
7
  6
CONTINUOUS
 10
8.8293251244
 20
6.0464958059
 11
8.8543374657
 21
6.0609438308
  0
LINE
  5
61D
100
AcDbEntity
  8
0
100
AcDbLine
 62
7
  6
CONTINUOUS
 10
8.1706756248
 20
5.6272682219
 11
8.1456632835
 21
5.612820197
  0
LINE
  5
61E
100
AcDbEntity
  8
0
100
AcDbLine
 62
7
  6
CONTINUOUS
 10
8.8293251244
 20
6.0074958059
 11
8.8543374657
 21
6.0219438308
  0
LINE
  5
61F
100
AcDbEntity
  8
0
100
AcDbLine
 62
7
  6
CONTINUOUS
 10
8.1706756248
 20
5.5882682219
 11
8.1456632835
 21
5.573820197
  0
LINE
  5
620
100
AcDbEntity
  8
0
100
AcDbLine
 62
7
  6
CONTINUOUS
 10
8.8293251244
 20
5.9684958059
 11
8.8543374657
 21
5.9829438308
  0
LWPOLYLINE
  5
621
100
AcDbEntity
  8
0
100
AcDbPolyline
 62
7
  6
CONTINUOUS
 90
11
 70
0
 10
8.170500376
 20
5.6761976862
 10
8.1716307426
 20
5.6767125449
 10
8.1805984569
 20
5.6777389175
 10
8.1981644351
 20
5.6787598872
 10
8.2243058795
 20
5.6797955894
 10
8.2582683232
 20
5.6808358093
 10
8.2985881261
 20
5.6818661357
 10
8.3438657202
 20
5.6828840799
 10
8.3933219172
 20
5.6839017991
 10
8.4460015655
 20
5.6849264313
 10
8.5572408163
 20
5.6870320375
  0
LINE
  5
622
100
AcDbEntity
  8
0
100
AcDbLine
 62
7
  6
CONTINUOUS
 10
8.1706756248
 20
5.5492682219
 11
8.1456632835
 21
5.534820197
  0
LINE
  5
623
100
AcDbEntity
  8
0
100
AcDbLine
 62
7
  6
CONTINUOUS
 10
8.8293251244
 20
5.9294958059
 11
8.8543374657
 21
5.9439438308
  0
LINE
  5
624
100
AcDbEntity
  8
0
100
AcDbLine
 62
7
  6
CONTINUOUS
 10
8.1706756248
 20
5.5102682219
 11
8.1456632835
 21
5.495820197
  0
LINE
  5
625
100
AcDbEntity
  8
0
100
AcDbLine
 62
7
  6
CONTINUOUS
 10
8.8293251244
 20
5.8904958059
 11
8.8543374657
 21
5.9049438308
  0
LINE
  5
626
100
AcDbEntity
  8
0
100
AcDbLine
 62
7
  6
CONTINUOUS
 10
8.1706756248
 20
5.4712682219
 11
8.1456632835
 21
5.456820197
  0
LINE
  5
627
100
AcDbEntity
  8
0
100
AcDbLine
 62
7
  6
CONTINUOUS
 10
8.8293251244
 20
5.8514958059
 11
8.8543374657
 21
5.8659438308
  0
LWPOLYLINE
  5
628
100
AcDbEntity
  8
0
100
AcDbPolyline
 62
7
  6
CONTINUOUS
 90
11
 70
0
 10
8.1705003755
 20
5.5201987204
 10
8.1716168588
 20
5.520709375
 10
8.1804506773
 20
5.5217275448
 10
8.1979167973
 20
5.5227482313
 10
8.2239846437
 20
5.5237845246
 10
8.2578967162
 20
5.5248254987
 10
8.2981896174
 20
5.5258566446
 10
8.3435995515
 20
5.5268783847
 10
8.3935961462
 20
5.5279072583
 10
8.4462163882
 20
5.5289305333
 10
8.5570803668
 20
5.5310289684
  0
LWPOLYLINE
  5
629
100
AcDbEntity
  8
0
100
AcDbPolyline
 62
7
  6
CONTINUOUS
 90
10
 70
0
 10
8.8295003733
 20
5.8025652139
 10
8.8283822256
 20
5.8020542717
 10
8.8195558788
 20
5.8010369316
 10
8.8021066709
 20
5.8000168684
 10
8.7760620265
 20
5.7989810873
 10
8.7421815794
 20
5.7979406831
 10
8.7019258608
 20
5.7969101177
 10
8.6565371372
 20
5.795888553
 10
8.606493542
 20
5.7948585399
 10
8.5537455288
 20
5.7938327531
  0
LWPOLYLINE
  5
62A
100
AcDbEntity
  8
0
100
AcDbPolyline
 62
7
  6
CONTINUOUS
 90
11
 70
0
 10
8.8295003731
 20
5.841566352
 10
8.8283669053
 20
5.8410507775
 10
8.8193911412
 20
5.8400242555
 10
8.8018215979
 20
5.8390034495
 10
8.7756796008
 20
5.8379679133
 10
8.7417224442
 20
5.8369279418
 10
8.7014134853
 20
5.8358979127
 10
8.6561556595
 20
5.8348803892
 10
8.6067008254
 20
5.8338626666
 10
8.5539989744
 20
5.8328375925
 10
8.4427560387
 20
5.8307319158
  0
LWPOLYLINE
  5
62B
100
AcDbEntity
  8
0
100
AcDbPolyline
 62
7
  6
CONTINUOUS
 90
20
 70
0
 10
8.1456632835
 20
5.534820197
 10
8.1463309161
 20
5.5350569828
 10
8.1555771875
 20
5.5361155133
 10
8.1748160212
 20
5.5371740438
 10
8.2034892514
 20
5.5382325743
 10
8.2407649974
 20
5.5392911048
 10
8.2855617981
 20
5.5403496353
 10
8.3365799884
 20
5.5414081658
 10
8.3923394054
 20
5.5424666963
 10
8.4512223314
 20
5.5435252269
 10
8.5115204283
 20
5.5445837574
 10
8.5714843
 20
5.5456422879
 10
8.6293742476
 20
5.5467008184
 10
8.6835107415
 20
5.5477593489
 10
8.7323231491
 20
5.5488178794
 10
8.7743953026
 20
5.5498764099
 10
8.8085065854
 20
5.5509349404
 10
8.8336673457
 20
5.5519934709
 10
8.8491476078
 20
5.5530520014
 10
8.8543374657
 20
5.5539438308
  0
LWPOLYLINE
  5
62C
100
AcDbEntity
  8
0
100
AcDbPolyline
 62
7
  6
CONTINUOUS
 90
5
 70
0
 10
8.1705003746
 20
5.5981982719
 10
8.1731474744
 20
5.5989855719
 10
8.1848908484
 20
5.6000394657
 10
8.2054925316
 20
5.6010847994
 10
8.2344255797
 20
5.6021300754
  0
LINE
  5
62D
100
AcDbEntity
  8
0
100
AcDbLine
 62
7
  6
CONTINUOUS
 10
8.1706756248
 20
5.4322682219
 11
8.1456632835
 21
5.417820197
  0
LINE
  5
62E
100
AcDbEntity
  8
0
100
AcDbLine
 62
7
  6
CONTINUOUS
 10
8.8293251244
 20
5.8124958059
 11
8.8543374657
 21
5.8269438308
  0
LINE
  5
62F
100
AcDbEntity
  8
0
100
AcDbLine
 62
7
  6
CONTINUOUS
 10
8.1706756248
 20
5.3932682219
 11
8.1456632835
 21
5.378820197
  0
LINE
  5
630
100
AcDbEntity
  8
0
100
AcDbLine
 62
7
  6
CONTINUOUS
 10
8.8293251244
 20
5.7734958059
 11
8.8543374657
 21
5.7879438308
  0
LINE
  5
631
100
AcDbEntity
  8
0
100
AcDbLine
 62
7
  6
CONTINUOUS
 10
8.1706756248
 20
5.3542682219
 11
8.1456632835
 21
5.339820197
  0
LINE
  5
632
100
AcDbEntity
  8
0
100
AcDbLine
 62
7
  6
CONTINUOUS
 10
8.8293251244
 20
5.7344958059
 11
8.8543374657
 21
5.7489438308
  0
LINE
  5
633
100
AcDbEntity
  8
0
100
AcDbLine
 62
7
  6
CONTINUOUS
 10
8.1456632835
 20
5.0274438308
 11
8.1456632835
 21
5.027820197
  0
LINE
  5
634
100
AcDbEntity
  8
0
100
AcDbLine
 62
7
  6
CONTINUOUS
 10
8.1456632835
 20
5.0664438308
 11
8.1456632835
 21
5.066820197
  0
LINE
  5
635
100
AcDbEntity
  8
0
100
AcDbLine
 62
7
  6
CONTINUOUS
 10
8.1456632835
 20
5.1054438308
 11
8.1456632835
 21
5.105820197
  0
LINE
  5
636
100
AcDbEntity
  8
0
100
AcDbLine
 62
7
  6
CONTINUOUS
 10
8.1456632835
 20
5.1444438308
 11
8.1456632835
 21
5.144820197
  0
LINE
  5
637
100
AcDbEntity
  8
0
100
AcDbLine
 62
7
  6
CONTINUOUS
 10
8.1456632835
 20
5.2224438308
 11
8.1456632835
 21
5.222820197
  0
LINE
  5
638
100
AcDbEntity
  8
0
100
AcDbLine
 62
7
  6
CONTINUOUS
 10
8.1456632835
 20
5.2614438308
 11
8.1456632835
 21
5.261820197
  0
LINE
  5
639
100
AcDbEntity
  8
0
100
AcDbLine
 62
7
  6
CONTINUOUS
 10
8.1456632835
 20
5.3004438308
 11
8.1456632835
 21
5.300820197
  0
LINE
  5
63A
100
AcDbEntity
  8
0
100
AcDbLine
 62
7
  6
CONTINUOUS
 10
8.1456632835
 20
5.3394438308
 11
8.1456632835
 21
5.339820197
  0
LINE
  5
63B
100
AcDbEntity
  8
0
100
AcDbLine
 62
7
  6
CONTINUOUS
 10
8.1456632835
 20
5.3784438308
 11
8.1456632835
 21
5.378820197
  0
LINE
  5
63C
100
AcDbEntity
  8
0
100
AcDbLine
 62
7
  6
CONTINUOUS
 10
8.1456632835
 20
5.4564438308
 11
8.1456632835
 21
5.456820197
  0
LINE
  5
63D
100
AcDbEntity
  8
0
100
AcDbLine
 62
7
  6
CONTINUOUS
 10
8.1456632835
 20
5.4954438308
 11
8.1456632835
 21
5.495820197
  0
LINE
  5
63E
100
AcDbEntity
  8
0
100
AcDbLine
 62
7
  6
CONTINUOUS
 10
8.1456632835
 20
5.5344438308
 11
8.1456632835
 21
5.534820197
  0
LINE
  5
63F
100
AcDbEntity
  8
0
100
AcDbLine
 62
7
  6
CONTINUOUS
 10
8.1456632835
 20
5.5734438308
 11
8.1456632835
 21
5.573820197
  0
LINE
  5
640
100
AcDbEntity
  8
0
100
AcDbLine
 62
7
  6
CONTINUOUS
 10
8.1456632835
 20
5.6124438308
 11
8.1456632835
 21
5.612820197
  0
LINE
  5
641
100
AcDbEntity
  8
0
100
AcDbLine
 62
7
  6
CONTINUOUS
 10
8.1456632835
 20
5.6514438308
 11
8.1456632835
 21
5.651820197
  0
LINE
  5
642
100
AcDbEntity
  8
0
100
AcDbLine
 62
7
  6
CONTINUOUS
 10
8.1456632835
 20
5.7294438308
 11
8.1456632835
 21
5.729820197
  0
LINE
  5
643
100
AcDbEntity
  8
0
100
AcDbLine
 62
7
  6
CONTINUOUS
 10
8.1456632835
 20
5.7684438308
 11
8.1456632835
 21
5.768820197
  0
LINE
  5
644
100
AcDbEntity
  8
0
100
AcDbLine
 62
7
  6
CONTINUOUS
 10
8.1456632835
 20
5.8074438308
 11
8.1456632835
 21
5.807820197
  0
LINE
  5
645
100
AcDbEntity
  8
0
100
AcDbLine
 62
7
  6
CONTINUOUS
 10
8.1456632835
 20
5.8464438308
 11
8.1456632835
 21
5.846820197
  0
LINE
  5
646
100
AcDbEntity
  8
0
100
AcDbLine
 62
7
  6
CONTINUOUS
 10
8.1456632835
 20
5.8854438308
 11
8.1456632835
 21
5.885820197
  0
LINE
  5
647
100
AcDbEntity
  8
0
100
AcDbLine
 62
7
  6
CONTINUOUS
 10
8.1456632835
 20
5.9634438308
 11
8.1456632835
 21
5.963820197
  0
LINE
  5
648
100
AcDbEntity
  8
0
100
AcDbLine
 62
7
  6
CONTINUOUS
 10
8.1456632835
 20
6.0024438308
 11
8.1456632835
 21
6.002820197
  0
LINE
  5
649
100
AcDbEntity
  8
0
100
AcDbLine
 62
7
  6
CONTINUOUS
 10
8.1456632835
 20
6.0414438308
 11
8.1456632835
 21
6.041820197
  0
LINE
  5
64A
100
AcDbEntity
  8
0
100
AcDbLine
 62
7
  6
CONTINUOUS
 10
8.1456632835
 20
6.0804438308
 11
8.1456632835
 21
6.080820197
  0
LINE
  5
64B
100
AcDbEntity
  8
0
100
AcDbLine
 62
7
  6
CONTINUOUS
 10
8.1456632835
 20
6.1194438308
 11
8.1456632835
 21
6.119820197
  0
LINE
  5
64C
100
AcDbEntity
  8
0
100
AcDbLine
 62
7
  6
CONTINUOUS
 10
8.1456632835
 20
6.1584438308
 11
8.1456632835
 21
6.158820197
  0
LINE
  5
64D
100
AcDbEntity
  8
0
100
AcDbLine
 62
7
  6
CONTINUOUS
 10
8.1456632835
 20
6.2364438308
 11
8.1456632835
 21
6.236820197
  0
LINE
  5
64E
100
AcDbEntity
  8
0
100
AcDbLine
 62
7
  6
CONTINUOUS
 10
8.1456632835
 20
6.2754438308
 11
8.1456632835
 21
6.275820197
  0
LINE
  5
64F
100
AcDbEntity
  8
0
100
AcDbLine
 62
7
  6
CONTINUOUS
 10
8.1456632835
 20
6.3144438308
 11
8.1456632835
 21
6.314820197
  0
LINE
  5
650
100
AcDbEntity
  8
0
100
AcDbLine
 62
7
  6
CONTINUOUS
 10
8.1456632835
 20
6.3534438308
 11
8.1456632835
 21
6.353820197
  0
LINE
  5
651
100
AcDbEntity
  8
0
100
AcDbLine
 62
7
  6
CONTINUOUS
 10
8.1456632835
 20
6.3924438308
 11
8.1456632835
 21
6.392820197
  0
LINE
  5
652
100
AcDbEntity
  8
0
100
AcDbLine
 62
7
  6
CONTINUOUS
 10
8.1456632835
 20
6.4314438308
 11
8.1456632835
 21
6.431820197
  0
LINE
  5
653
100
AcDbEntity
  8
AXIS
100
AcDbLine
 62
7
  6
CONTINUOUS
 10
8.1705003746
 20
6.4171982572
 11
8.1705003746
 21
6.4070657706
  0
LINE
  5
654
100
AcDbEntity
  8
AXIS
100
AcDbLine
 62
7
  6
CONTINUOUS
 10
8.1705003746
 20
6.3781982572
 11
8.1705003746
 21
6.3680657706
  0
LINE
  5
655
100
AcDbEntity
  8
AXIS
100
AcDbLine
 62
7
  6
CONTINUOUS
 10
8.1705003746
 20
6.3391982572
 11
8.1705003746
 21
6.3290657706
  0
LINE
  5
656
100
AcDbEntity
  8
AXIS
100
AcDbLine
 62
7
  6
CONTINUOUS
 10
8.1705003746
 20
6.3001982572
 11
8.1705003746
 21
6.2900657706
  0
LINE
  5
657
100
AcDbEntity
  8
AXIS
100
AcDbLine
 62
7
  6
CONTINUOUS
 10
8.1705003746
 20
6.2611982572
 11
8.1705003746
 21
6.2510657706
  0
LINE
  5
658
100
AcDbEntity
  8
AXIS
100
AcDbLine
 62
7
  6
CONTINUOUS
 10
8.1705003746
 20
6.2221982572
 11
8.1705003746
 21
6.2120657706
  0
LINE
  5
659
100
AcDbEntity
  8
AXIS
100
AcDbLine
 62
7
  6
CONTINUOUS
 10
8.1705003746
 20
6.1831982572
 11
8.1705003746
 21
6.1730657706
  0
LINE
  5
65A
100
AcDbEntity
  8
AXIS
100
AcDbLine
 62
7
  6
CONTINUOUS
 10
8.1705003746
 20
6.1441982572
 11
8.1705003746
 21
6.1340657706
  0
LINE
  5
65B
100
AcDbEntity
  8
AXIS
100
AcDbLine
 62
7
  6
CONTINUOUS
 10
8.1705003746
 20
6.1051982572
 11
8.1705003746
 21
6.0950657706
  0
LINE
  5
65C
100
AcDbEntity
  8
AXIS
100
AcDbLine
 62
7
  6
CONTINUOUS
 10
8.1705003746
 20
6.0661982572
 11
8.1705003746
 21
6.0560657706
  0
LINE
  5
65D
100
AcDbEntity
  8
AXIS
100
AcDbLine
 62
7
  6
CONTINUOUS
 10
8.1705003746
 20
6.0271982572
 11
8.1705003746
 21
6.0170657706
  0
LINE
  5
65E
100
AcDbEntity
  8
AXIS
100
AcDbLine
 62
7
  6
CONTINUOUS
 10
8.1705003746
 20
5.9881982572
 11
8.1705003746
 21
5.9780657706
  0
LINE
  5
65F
100
AcDbEntity
  8
AXIS
100
AcDbLine
 62
7
  6
CONTINUOUS
 10
8.1705003746
 20
5.9491982572
 11
8.1705003746
 21
5.9390657706
  0
LINE
  5
660
100
AcDbEntity
  8
AXIS
100
AcDbLine
 62
7
  6
CONTINUOUS
 10
8.1705003746
 20
5.9101982572
 11
8.1705003746
 21
5.9000657706
  0
LINE
  5
661
100
AcDbEntity
  8
AXIS
100
AcDbLine
 62
7
  6
CONTINUOUS
 10
8.1705003746
 20
5.8711982572
 11
8.1705003746
 21
5.8610657706
  0
LINE
  5
662
100
AcDbEntity
  8
AXIS
100
AcDbLine
 62
7
  6
CONTINUOUS
 10
8.1705003746
 20
5.8321982572
 11
8.1705003746
 21
5.8220657706
  0
LINE
  5
663
100
AcDbEntity
  8
AXIS
100
AcDbLine
 62
7
  6
CONTINUOUS
 10
8.1705003746
 20
5.7931982572
 11
8.1705003746
 21
5.7830657706
  0
LINE
  5
664
100
AcDbEntity
  8
AXIS
100
AcDbLine
 62
7
  6
CONTINUOUS
 10
8.1705003746
 20
5.7541982572
 11
8.1705003746
 21
5.7440657706
  0
LINE
  5
665
100
AcDbEntity
  8
AXIS
100
AcDbLine
 62
7
  6
CONTINUOUS
 10
8.1705003746
 20
5.7151982572
 11
8.1705003746
 21
5.7050657706
  0
LINE
  5
666
100
AcDbEntity
  8
AXIS
100
AcDbLine
 62
7
  6
CONTINUOUS
 10
8.1705003746
 20
5.6761982572
 11
8.1705003746
 21
5.6660657706
  0
LINE
  5
667
100
AcDbEntity
  8
AXIS
100
AcDbLine
 62
7
  6
CONTINUOUS
 10
8.1705003746
 20
5.6371982572
 11
8.1705003746
 21
5.6270657706
  0
LINE
  5
668
100
AcDbEntity
  8
AXIS
100
AcDbLine
 62
7
  6
CONTINUOUS
 10
8.1705003746
 20
5.5981982572
 11
8.1705003746
 21
5.5880657706
  0
LINE
  5
669
100
AcDbEntity
  8
AXIS
100
AcDbLine
 62
7
  6
CONTINUOUS
 10
8.1705003746
 20
5.5591982572
 11
8.1705003746
 21
5.5490657706
  0
LINE
  5
66A
100
AcDbEntity
  8
AXIS
100
AcDbLine
 62
7
  6
CONTINUOUS
 10
8.1705003746
 20
5.5201982572
 11
8.1705003746
 21
5.5100657706
  0
LINE
  5
66B
100
AcDbEntity
  8
AXIS
100
AcDbLine
 62
7
  6
CONTINUOUS
 10
8.1705003746
 20
5.4811982572
 11
8.1705003746
 21
5.4710657706
  0
LINE
  5
66C
100
AcDbEntity
  8
AXIS
100
AcDbLine
 62
7
  6
CONTINUOUS
 10
8.1705003746
 20
5.4421982572
 11
8.1705003746
 21
5.4320657706
  0
LINE
  5
66D
100
AcDbEntity
  8
AXIS
100
AcDbLine
 62
7
  6
CONTINUOUS
 10
8.1705003746
 20
5.4031982572
 11
8.1705003746
 21
5.3930657706
  0
LINE
  5
66E
100
AcDbEntity
  8
AXIS
100
AcDbLine
 62
7
  6
CONTINUOUS
 10
8.1705003746
 20
5.3641982572
 11
8.1705003746
 21
5.3540657706
  0
LINE
  5
66F
100
AcDbEntity
  8
AXIS
100
AcDbLine
 62
7
  6
CONTINUOUS
 10
8.1705003746
 20
5.3251982572
 11
8.1705003746
 21
5.3150657706
  0
LINE
  5
670
100
AcDbEntity
  8
AXIS
100
AcDbLine
 62
7
  6
CONTINUOUS
 10
8.1705003746
 20
5.2861982572
 11
8.1705003746
 21
5.2760657706
  0
LINE
  5
671
100
AcDbEntity
  8
AXIS
100
AcDbLine
 62
7
  6
CONTINUOUS
 10
8.1705003746
 20
5.2471982572
 11
8.1705003746
 21
5.2370657706
  0
LINE
  5
672
100
AcDbEntity
  8
AXIS
100
AcDbLine
 62
7
  6
CONTINUOUS
 10
8.1705003746
 20
5.2081982572
 11
8.1705003746
 21
5.1980657706
  0
LINE
  5
673
100
AcDbEntity
  8
AXIS
100
AcDbLine
 62
7
  6
CONTINUOUS
 10
8.1705003746
 20
5.1691982572
 11
8.1705003746
 21
5.1590657706
  0
LINE
  5
674
100
AcDbEntity
  8
AXIS
100
AcDbLine
 62
7
  6
CONTINUOUS
 10
8.1705003746
 20
5.1301982572
 11
8.1705003746
 21
5.1200657706
  0
LINE
  5
675
100
AcDbEntity
  8
AXIS
100
AcDbLine
 62
7
  6
CONTINUOUS
 10
8.1705003746
 20
5.0911982572
 11
8.1705003746
 21
5.0810657706
  0
LINE
  5
676
100
AcDbEntity
  8
AXIS
100
AcDbLine
 62
7
  6
CONTINUOUS
 10
8.1705003746
 20
5.0521982572
 11
8.1705003746
 21
5.0420657706
  0
LINE
  5
677
100
AcDbEntity
  8
AXIS
100
AcDbLine
 62
7
  6
CONTINUOUS
 10
8.1705003746
 20
5.0131982572
 11
8.1705003746
 21
4.2839482572
  0
LINE
  5
678
100
AcDbEntity
  8
0
100
AcDbLine
 62
7
  6
CONTINUOUS
 10
8.1750003746
 20
4.2839482572
 11
8.1750003746
 21
4.1639482572
  0
LWPOLYLINE
  5
679
100
AcDbEntity
  8
0
100
AcDbPolyline
 62
7
  6
CONTINUOUS
 90
3
 70
0
 10
8.8543374657
 20
6.0609438308
 10
8.8544993895
 20
6.0611466465
 10
8.8543374657
 20
6.061320197
  0
LINE
  5
67A
100
AcDbEntity
  8
0
100
AcDbLine
 62
7
  6
CONTINUOUS
 10
8.1706756248
 20
5.3152682219
 11
8.1456632835
 21
5.300820197
  0
LINE
  5
67B
100
AcDbEntity
  8
0
100
AcDbLine
 62
7
  6
CONTINUOUS
 10
8.8293251244
 20
5.6954958059
 11
8.8543374657
 21
5.7099438308
  0
LINE
  5
67C
100
AcDbEntity
  8
0
100
AcDbLine
 62
7
  6
CONTINUOUS
 10
8.1706756248
 20
5.2762682219
 11
8.1456632835
 21
5.261820197
  0
LINE
  5
67D
100
AcDbEntity
  8
0
100
AcDbLine
 62
7
  6
CONTINUOUS
 10
8.8293251244
 20
5.6564958059
 11
8.8543374657
 21
5.6709438308
  0
LINE
  5
67E
100
AcDbEntity
  8
0
100
AcDbLine
 62
7
  6
CONTINUOUS
 10
8.1706756248
 20
5.2372682219
 11
8.1456632835
 21
5.222820197
  0
LINE
  5
67F
100
AcDbEntity
  8
0
100
AcDbLine
 62
7
  6
CONTINUOUS
 10
8.8293251244
 20
5.6174958059
 11
8.8543374657
 21
5.6319438308
  0
LWPOLYLINE
  5
680
100
AcDbEntity
  8
0
100
AcDbPolyline
 62
7
  6
CONTINUOUS
 90
11
 70
0
 10
8.1705003749
 20
5.3251985283
 10
8.1716125879
 20
5.3257083959
 10
8.1804636303
 20
5.326728545
 10
8.1979524283
 20
5.3277499115
 10
8.2240488511
 20
5.3287867386
 10
8.2579947202
 20
5.3298282197
 10
8.29832357
 20
5.3308598361
 10
8.3437478347
 20
5.3318815578
 10
8.3936677481
 20
5.3329086834
 10
8.4461585076
 20
5.3339294281
 10
8.5571317847
 20
5.3360299519
  0
LWPOLYLINE
  5
681
100
AcDbEntity
  8
0
100
AcDbPolyline
 62
7
  6
CONTINUOUS
 90
11
 70
0
 10
8.8295003731
 20
5.6075651893
 10
8.8283822749
 20
5.607054283
 10
8.8195574372
 20
5.606037052
 10
8.8021176847
 20
5.6050173882
 10
8.7760872668
 20
5.6039819584
 10
8.7422252358
 20
5.602941896
 10
8.7019902434
 20
5.6019116527
 10
8.6566154936
 20
5.6008902305
 10
8.6065519876
 20
5.5998597034
 10
8.5537409218
 20
5.5988326651
 10
8.4429865871
 20
5.5967363256
  0
LWPOLYLINE
  5
682
100
AcDbEntity
  8
0
100
AcDbPolyline
 62
7
  6
CONTINUOUS
 90
10
 70
0
 10
8.8295003735
 20
5.6465662629
 10
8.8283773114
 20
5.6460531483
 10
8.8194320321
 20
5.6450273924
 10
8.8018745594
 20
5.6440059375
 10
8.7757285286
 20
5.6429695964
 10
8.7417530189
 20
5.6419287894
 10
8.7014145969
 20
5.6408979391
 10
8.6560909872
 20
5.6398790058
 10
8.6066020563
 20
5.6388607001
 10
8.5539896118
 20
5.6378374138
  0
LWPOLYLINE
  5
683
100
AcDbEntity
  8
0
100
AcDbPolyline
 62
7
  6
CONTINUOUS
 90
20
 70
0
 10
8.1456632835
 20
5.261820197
 10
8.1459835096
 20
5.261956111
 10
8.1542588951
 20
5.2630146415
 10
8.1725650899
 20
5.2640731721
 10
8.2003709863
 20
5.2651317026
 10
8.2368698669
 20
5.2661902331
 10
8.2810028096
 20
5.2672487636
 10
8.3314894093
 20
5.2683072941
 10
8.3868649259
 20
5.2693658246
 10
8.4455227796
 20
5.2704243551
 10
8.5057611621
 20
5.2714828856
 10
8.56583241
 20
5.2725414161
 10
8.623993709
 20
5.2735999467
 10
8.6785576568
 20
5.2746584772
 10
8.7279412195
 20
5.2757170077
 10
8.7707116587
 20
5.2767755382
 10
8.8056280988
 20
5.2778340687
 10
8.8316775282
 20
5.2788925992
 10
8.848104189
 20
5.2799511297
 10
8.8543374657
 20
5.2809438308
  0
LWPOLYLINE
  5
684
100
AcDbEntity
  8
0
100
AcDbPolyline
 62
7
  6
CONTINUOUS
 90
8
 70
0
 10
8.1705003759
 20
5.2861976994
 10
8.172135167
 20
5.2868168189
 10
8.1821355208
 20
5.2878526715
 10
8.2008558463
 20
5.2888834931
 10
8.2282496871
 20
5.2899290634
 10
8.2634387287
 20
5.2909774073
 10
8.3048274709
 20
5.2920133128
 10
8.3511634789
 20
5.2930391663
  0
LWPOLYLINE
  5
685
100
AcDbEntity
  8
0
100
AcDbPolyline
 62
7
  6
CONTINUOUS
 90
8
 70
0
 10
8.1456632835
 20
5.300820197
 10
8.1466031773
 20
5.3011217399
 10
8.1564714625
 20
5.3021802704
 10
8.176306365
 20
5.303238801
 10
8.2055324253
 20
5.3042973315
 10
8.243301724
 20
5.305355862
 10
8.2885184807
 20
5.3064143925
 10
8.3398708464
 20
5.307472923
  0
LINE
  5
686
100
AcDbEntity
  8
0
100
AcDbLine
 62
7
  6
CONTINUOUS
 10
8.2885492594
 20
4.1639482572
 11
8.2885492594
 21
4.2198887046
  0
LINE
  5
687
100
AcDbEntity
  8
0
100
AcDbLine
 62
7
  6
CONTINUOUS
 10
8.1706756248
 20
5.1982682219
 11
8.1456632835
 21
5.183820197
  0
LINE
  5
688
100
AcDbEntity
  8
0
100
AcDbLine
 62
7
  6
CONTINUOUS
 10
8.8293251244
 20
5.5784958059
 11
8.8543374657
 21
5.5929438308
  0
LINE
  5
689
100
AcDbEntity
  8
0
100
AcDbLine
 62
7
  6
CONTINUOUS
 10
8.1706756248
 20
5.1592682219
 11
8.1456632835
 21
5.144820197
  0
LINE
  5
68A
100
AcDbEntity
  8
0
100
AcDbLine
 62
7
  6
CONTINUOUS
 10
8.8293251244
 20
5.5394958059
 11
8.8543374657
 21
5.5539438308
  0
LWPOLYLINE
  5
68B
100
AcDbEntity
  8
0
100
AcDbPolyline
 62
7
  6
CONTINUOUS
 90
11
 70
0
 10
8.8295003738
 20
5.451566201
 10
8.8283805212
 20
5.4510538818
 10
8.8194463347
 20
5.450028491
 10
8.8018941139
 20
5.4490068567
 10
8.7757482953
 20
5.4479702766
 10
8.7417685106
 20
5.4469292189
 10
8.7014222244
 20
5.4458981207
 10
8.6560777536
 20
5.4448787227
 10
8.606557973
 20
5.4438598225
 10
8.5539824023
 20
5.4428372761
 10
8.4427625207
 20
5.4407320398
  0
LINE
  5
68C
100
AcDbEntity
  8
0
100
AcDbLine
 62
7
  6
CONTINUOUS
 10
8.1456632835
 20
5.0274438308
 11
8.1706756248
 21
5.0129958059
  0
LINE
  5
68D
100
AcDbEntity
  8
0
100
AcDbLine
 62
7
  6
CONTINUOUS
 10
8.1456632835
 20
5.0664438308
 11
8.1706756248
 21
5.0519958059
  0
LWPOLYLINE
  5
68E
100
AcDbEntity
  8
0
100
AcDbPolyline
 62
7
  6
CONTINUOUS
 90
3
 70
0
 10
8.1456632835
 20
5.1834438308
 10
8.1455006105
 20
5.1836248533
 10
8.1456632835
 20
5.183820197
  0
LINE
  5
68F
100
AcDbEntity
  8
0
100
AcDbLine
 62
9
  6
CONTINUOUS
 10
8.3302947471
 20
4.1515619761
 11
8.3302947471
 21
4.2070439392
  0
LINE
  5
690
100
AcDbEntity
  8
AXIS
100
AcDbLine
 62
7
  6
CONTINUOUS
 10
8.3835003746
 20
4.1239482572
 11
8.3835003746
 21
3.6869010131
  0
LINE
  5
691
100
AcDbEntity
  8
AXIS_COSMETIC_THREADS
100
AcDbLine
 62
7
  6
CONTINUOUS
 10
8.3835003746
 20
4.1239482572
 11
8.3835003746
 21
3.6869010131
  0
LINE
  5
692
100
AcDbEntity
  8
0
100
AcDbLine
 62
7
  6
CONTINUOUS
 10
8.1706756248
 20
5.1202682219
 11
8.1456632835
 21
5.105820197
  0
LINE
  5
693
100
AcDbEntity
  8
0
100
AcDbLine
 62
7
  6
CONTINUOUS
 10
8.8293251244
 20
5.5004958059
 11
8.8543374657
 21
5.5149438308
  0
LINE
  5
694
100
AcDbEntity
  8
0
100
AcDbLine
 62
7
  6
CONTINUOUS
 10
8.1706756248
 20
5.0812682219
 11
8.1456632835
 21
5.066820197
  0
LINE
  5
695
100
AcDbEntity
  8
0
100
AcDbLine
 62
7
  6
CONTINUOUS
 10
8.8293251244
 20
5.4614958059
 11
8.8543374657
 21
5.4759438308
  0
LINE
  5
696
100
AcDbEntity
  8
0
100
AcDbLine
 62
7
  6
CONTINUOUS
 10
8.1706756248
 20
5.0422682219
 11
8.1456632835
 21
5.027820197
  0
LINE
  5
697
100
AcDbEntity
  8
0
100
AcDbLine
 62
7
  6
CONTINUOUS
 10
8.8293251244
 20
5.4224958059
 11
8.8543374657
 21
5.4369438308
  0
LWPOLYLINE
  5
698
100
AcDbEntity
  8
0
100
AcDbPolyline
 62
7
  6
CONTINUOUS
 90
10
 70
0
 10
8.8295003746
 20
5.0225657613
 10
8.8245491737
 20
5.0214883814
 10
8.8099500631
 20
5.0204168521
 10
8.7858290357
 20
5.0193336467
 10
8.7526711156
 20
5.018240036
 10
8.7119412095
 20
5.0171526045
 10
8.6653248312
 20
5.0160782735
 10
8.6130328139
 20
5.0149891904
 10
8.5570592945
 20
5.0138960789
 10
8.5000003746
 20
5.0128157706
  0
LWPOLYLINE
  5
699
100
AcDbEntity
  8
0
100
AcDbPolyline
 62
7
  6
CONTINUOUS
 90
10
 70
0
 10
8.5000003746
 20
4.9839482572
 10
8.5570592945
 20
4.9850285654
 10
8.6130328139
 20
4.986121677
 10
8.6653248312
 20
4.98721076
 10
8.7119412095
 20
4.9882850911
 10
8.7526711156
 20
4.9893725226
 10
8.7858290357
 20
4.9904661333
 10
8.8099500631
 20
4.9915493386
 10
8.8245491737
 20
4.992620868
 10
8.8293251244
 20
4.9934958059
  0
LWPOLYLINE
  5
69A
100
AcDbEntity
  8
0
100
AcDbPolyline
 62
7
  6
CONTINUOUS
 90
10
 70
0
 10
8.5000003746
 20
4.9983820139
 10
8.5601631341
 20
4.9994405444
 10
8.6185804243
 20
5.0004990749
 10
8.6735574161
 20
5.0015576054
 10
8.723499092
 20
5.0026161359
 10
8.7669565213
 20
5.0036746665
 10
8.8026688974
 20
5.004733197
 10
8.8296001165
 20
5.0057917275
 10
8.8469688378
 20
5.006850258
 10
8.8543374657
 20
5.0079438308
  0
LINE
  5
69B
100
AcDbEntity
  8
0
100
AcDbLine
 62
7
  6
CONTINUOUS
 10
8.1456632835
 20
5.1054438308
 11
8.1706756248
 21
5.0909958059
  0
LINE
  5
69C
100
AcDbEntity
  8
0
100
AcDbLine
 62
7
  6
CONTINUOUS
 10
8.1456632835
 20
5.1444438308
 11
8.1706756248
 21
5.1299958059
  0
LINE
  5
69D
100
AcDbEntity
  8
0
100
AcDbLine
 62
7
  6
CONTINUOUS
 10
8.1456632835
 20
5.1834438308
 11
8.1706756248
 21
5.1689958059
  0
LINE
  5
69E
100
AcDbEntity
  8
0
100
AcDbLine
 62
7
  6
CONTINUOUS
 10
8.5000003746
 20
5.0128157706
 11
8.5000003746
 21
4.9839482572
  0
LWPOLYLINE
  5
69F
100
AcDbEntity
  8
0
100
AcDbPolyline
 62
7
  6
CONTINUOUS
 90
3
 70
0
 10
8.8543374657
 20
5.8269438308
 10
8.8544713784
 20
5.8272114037
 10
8.8543374657
 20
5.827320197
  0
LWPOLYLINE
  5
6A0
100
AcDbEntity
  8
0
100
AcDbPolyline
 62
7
  6
CONTINUOUS
 90
3
 70
0
 10
8.8543374657
 20
5.5539438308
 10
8.8544982515
 20
5.554110532
 10
8.8543374657
 20
5.554320197
  0
LINE
  5
6A1
100
AcDbEntity
  8
0
100
AcDbLine
 62
7
  6
CONTINUOUS
 10
8.8293251244
 20
5.3834958059
 11
8.8543374657
 21
5.3979438308
  0
LINE
  5
6A2
100
AcDbEntity
  8
0
100
AcDbLine
 62
7
  6
CONTINUOUS
 10
8.8293251244
 20
5.3444958059
 11
8.8543374657
 21
5.3589438308
  0
LINE
  5
6A3
100
AcDbEntity
  8
0
100
AcDbLine
 62
7
  6
CONTINUOUS
 10
8.8293251244
 20
5.3054958059
 11
8.8543374657
 21
5.3199438308
  0
LWPOLYLINE
  5
6A4
100
AcDbEntity
  8
0
100
AcDbPolyline
 62
7
  6
CONTINUOUS
 90
11
 70
0
 10
8.8295003743
 20
5.2565660036
 10
8.8283866274
 20
5.25605528
 10
8.8194793662
 20
5.2550310314
 10
8.801942157
 20
5.2540091163
 10
8.7758013167
 20
5.2529721016
 10
8.741817586
 20
5.2519305797
 10
8.7014598872
 20
5.2508990172
 10
8.656072694
 20
5.2498786145
 10
8.6064305346
 20
5.2488572857
 10
8.5539541438
 20
5.2478367365
 10
8.4427790362
 20
5.2457323557
  0
LWPOLYLINE
  5
6A5
100
AcDbEntity
  8
0
100
AcDbPolyline
 62
7
  6
CONTINUOUS
 90
20
 70
0
 10
8.1456632835
 20
5.027820197
 10
8.1461957967
 20
5.0280208682
 10
8.1550947343
 20
5.0290793987
 10
8.1740002314
 20
5.0301379292
 10
8.2023637931
 20
5.0311964597
 10
8.2393625227
 20
5.0322549902
 10
8.2839229964
 20
5.0333135208
 10
8.3347524054
 20
5.0343720513
 10
8.3903760636
 20
5.0354305818
 10
8.4491801923
 20
5.0364891123
 10
8.5094587393
 20
5.0375476428
 10
8.5694628759
 20
5.0386061733
 10
8.6274517347
 20
5.0396647038
 10
8.6817429167
 20
5.0407232343
 10
8.7307613013
 20
5.0417817648
 10
8.7730847448
 20
5.0428402953
 10
8.8074853403
 20
5.0438988259
 10
8.8329650419
 20
5.0449573564
 10
8.848784621
 20
5.0460158869
 10
8.8543374657
 20
5.0469438308
  0
LWPOLYLINE
  5
6A6
100
AcDbEntity
  8
0
100
AcDbPolyline
 62
7
  6
CONTINUOUS
 90
20
 70
0
 10
8.1456632835
 20
5.066820197
 10
8.1469139035
 20
5.0671864971
 10
8.1574031284
 20
5.0682450276
 10
8.1778319407
 20
5.0693035581
 10
8.2076076502
 20
5.0703620886
 10
8.2458663905
 20
5.0714206191
 10
8.2914981817
 20
5.0724791496
 10
8.3431791334
 20
5.0735376802
 10
8.3994098544
 20
5.0745962107
 10
8.4585589534
 20
5.0756547412
 10
8.5189103697
 20
5.0767132717
 10
8.5787131606
 20
5.0777718022
 10
8.6362323004
 20
5.0788303327
 10
8.6897990175
 20
5.0798888632
 10
8.73785921
 20
5.0809473937
 10
8.7790185336
 20
5.0820059242
 10
8.8120828554
 20
5.0830644548
 10
8.8360928981
 20
5.0841229853
 10
8.8503520716
 20
5.0851815158
 10
8.8543374657
 20
5.0859438308
  0
LWPOLYLINE
  5
6A7
100
AcDbEntity
  8
0
100
AcDbPolyline
 62
7
  6
CONTINUOUS
 90
9
 70
0
 10
8.8295003746
 20
5.1395657706
 10
8.8244117863
 20
5.1384734977
 10
8.8095505968
 20
5.1373947847
 10
8.7853331279
 20
5.1363149186
 10
8.7524737434
 20
5.1352342465
 10
8.7123185968
 20
5.1341618951
 10
8.6657224059
 20
5.1330869351
 10
8.6133269894
 20
5.131995091
 10
8.5572132786
 20
5.1308990242
  0
LWPOLYLINE
  5
6A8
100
AcDbEntity
  8
0
100
AcDbPolyline
 62
7
  6
CONTINUOUS
 90
10
 70
0
 10
8.1705003746
 20
5.0131982571
 10
8.1756333468
 20
5.0142952957
 10
8.1905257182
 20
5.0153733934
 10
8.2145654351
 20
5.0164452581
 10
8.2472697555
 20
5.0175222341
 10
8.2877041667
 20
5.018602675
 10
8.3343339843
 20
5.0196783053
 10
8.386711221
 20
5.0207696883
 10
8.4428054708
 20
5.0218653479
 10
8.553916073
 20
5.023968496
  0
LWPOLYLINE
  5
6A9
100
AcDbEntity
  8
0
100
AcDbPolyline
 62
7
  6
CONTINUOUS
 90
10
 70
0
 10
8.8295003746
 20
5.1785657706
 10
8.8243654138
 20
5.177468519
 10
8.8094788119
 20
5.1763908419
 10
8.7854621456
 20
5.1753197816
 10
8.7527096735
 20
5.1742411678
 10
8.7122457832
 20
5.1731601016
 10
8.6656186144
 20
5.1720846732
 10
8.6132504173
 20
5.1709935549
 10
8.5571733192
 20
5.1698982598
 10
8.5000003746
 20
5.1688157706
  0
LWPOLYLINE
  5
6AA
100
AcDbEntity
  8
0
100
AcDbPolyline
 62
7
  6
CONTINUOUS
 90
9
 70
0
 10
8.8295003746
 20
5.1005657767
 10
8.8243604127
 20
5.0994679834
 10
8.8095153049
 20
5.0983928454
 10
8.7851911382
 20
5.0973095743
 10
8.7518614645
 20
5.0962163275
 10
8.7110040394
 20
5.0951295835
 10
8.6644828525
 20
5.0940599531
 10
8.6126009697
 20
5.0929805321
 10
8.5569320648
 20
5.0918936455
  0
LWPOLYLINE
  5
6AB
100
AcDbEntity
  8
0
100
AcDbPolyline
 62
7
  6
CONTINUOUS
 90
9
 70
0
 10
8.5569320648
 20
5.063026132
 10
8.6126009697
 20
5.0641130187
 10
8.6644828525
 20
5.0651924396
 10
8.7110040394
 20
5.06626207
 10
8.7518614645
 20
5.067348814
 10
8.7851911382
 20
5.0684420609
 10
8.8095153049
 20
5.069525332
 10
8.8243604127
 20
5.07060047
 10
8.8293251244
 20
5.0714958059
  0
LWPOLYLINE
  5
6AC
100
AcDbEntity
  8
0
100
AcDbPolyline
 62
7
  6
CONTINUOUS
 90
10
 70
0
 10
8.553916073
 20
5.023968496
 10
8.6063440964
 20
5.0249880518
 10
8.6561105909
 20
5.0260119117
 10
8.7015244065
 20
5.0270330398
 10
8.7418801696
 20
5.0280648021
 10
8.7758572152
 20
5.0291065131
 10
8.8019864597
 20
5.0301436883
 10
8.8195065565
 20
5.0311656121
 10
8.8283895821
 20
5.0321884446
 10
8.8293251244
 20
5.0324958059
  0
LWPOLYLINE
  5
6AD
100
AcDbEntity
  8
0
100
AcDbPolyline
 62
7
  6
CONTINUOUS
 90
10
 70
0
 10
8.553916073
 20
5.0528360095
 10
8.4428054708
 20
5.0507328614
 10
8.386711221
 20
5.0496372017
 10
8.3343339843
 20
5.0485458188
 10
8.2877041667
 20
5.0474701885
 10
8.2472697555
 20
5.0463897476
 10
8.2145654351
 20
5.0453127716
 10
8.1905257182
 20
5.0442409069
 10
8.1756333468
 20
5.0431628092
 10
8.1706756248
 20
5.0422682219
  0
LWPOLYLINE
  5
6AE
100
AcDbEntity
  8
0
100
AcDbPolyline
 62
7
  6
CONTINUOUS
 90
10
 70
0
 10
8.5569320648
 20
5.0918936455
 10
8.4428164608
 20
5.0897330716
 10
8.3867321905
 20
5.0886376224
 10
8.3343637323
 20
5.0875464671
 10
8.2877907072
 20
5.0864723198
 10
8.2475886675
 20
5.0853991021
 10
8.2146305272
 20
5.0843152252
 10
8.1904084564
 20
5.0832344633
 10
8.1755725141
 20
5.0821562722
 10
8.1706756248
 20
5.0812682219
  0
LWPOLYLINE
  5
6AF
100
AcDbEntity
  8
0
100
AcDbPolyline
 62
7
  6
CONTINUOUS
 90
10
 70
0
 10
8.4430397933
 20
5.0998698298
 10
8.5572132786
 20
5.1020315107
 10
8.6133269894
 20
5.1031275776
 10
8.6657224059
 20
5.1042194216
 10
8.7123185968
 20
5.1052943816
 10
8.7524737434
 20
5.1063667331
 10
8.7853331279
 20
5.1074474052
 10
8.8095505968
 20
5.1085272712
 10
8.8244117863
 20
5.1096059842
 10
8.8293251244
 20
5.1104958059
  0
LINE
  5
6B0
100
AcDbEntity
  8
0
100
AcDbLine
 62
7
  6
CONTINUOUS
 10
8.1456632835
 20
5.2224438308
 11
8.1706756248
 21
5.2079958059
  0
LINE
  5
6B1
100
AcDbEntity
  8
0
100
AcDbLine
 62
7
  6
CONTINUOUS
 10
8.1456632835
 20
5.2614438308
 11
8.1706756248
 21
5.2469958059
  0
LINE
  5
6B2
100
AcDbEntity
  8
0
100
AcDbLine
 62
7
  6
CONTINUOUS
 10
8.1456632835
 20
5.3004438308
 11
8.1706756248
 21
5.2859958059
  0
LINE
  5
6B3
100
AcDbEntity
  8
0
100
AcDbLine
 62
7
  6
CONTINUOUS
 10
8.8293251244
 20
5.2664958059
 11
8.8543374657
 21
5.2809438308
  0
LINE
  5
6B4
100
AcDbEntity
  8
0
100
AcDbLine
 62
7
  6
CONTINUOUS
 10
8.8293251244
 20
5.2274958059
 11
8.8543374657
 21
5.2419438308
  0
LINE
  5
6B5
100
AcDbEntity
  8
0
100
AcDbLine
 62
7
  6
CONTINUOUS
 10
8.8293251244
 20
5.1884958059
 11
8.8543374657
 21
5.2029438308
  0
LWPOLYLINE
  5
6B6
100
AcDbEntity
  8
0
100
AcDbPolyline
 62
7
  6
CONTINUOUS
 90
20
 70
0
 10
8.1456632835
 20
5.105820197
 10
8.1478834061
 20
5.106352126
 10
8.1599554501
 20
5.1074106565
 10
8.1818930322
 20
5.108469187
 10
8.2130596894
 20
5.1095277175
 10
8.2525512004
 20
5.110586248
 10
8.2992218195
 20
5.1116447785
 10
8.3517175174
 20
5.112703309
 10
8.4085152651
 20
5.1137618396
 10
8.4679672205
 20
5.1148203701
 10
8.5283485363
 20
5.1158789006
 10
8.5879074023
 20
5.1169374311
 10
8.6449158696
 20
5.1179959616
 10
8.6977199826
 20
5.1190544921
 10
8.7447877643
 20
5.1201130226
 10
8.7847536628
 20
5.1211715531
 10
8.8164581693
 20
5.1222300836
 10
8.8389814582
 20
5.1232886142
 10
8.8516700735
 20
5.1243471447
 10
8.8543374657
 20
5.1249438308
  0
LWPOLYLINE
  5
6B7
100
AcDbEntity
  8
0
100
AcDbPolyline
 62
7
  6
CONTINUOUS
 90
9
 70
0
 10
8.8295003746
 20
5.21756576
 10
8.8245425557
 20
5.2164876598
 10
8.8099504358
 20
5.2154168728
 10
8.7857843658
 20
5.2143319557
 10
8.7525557364
 20
5.2132366508
 10
8.7117387423
 20
5.212147625
 10
8.6650321565
 20
5.2110719017
 10
8.6127330966
 20
5.2099831807
 10
8.5568713309
 20
5.2088924839
  0
LWPOLYLINE
  5
6B8
100
AcDbEntity
  8
0
100
AcDbPolyline
 62
7
  6
CONTINUOUS
 90
10
 70
0
 10
8.1705003746
 20
5.0521982571
 10
8.1755725141
 20
5.0532887588
 10
8.1904084564
 20
5.0543669498
 10
8.2146305272
 20
5.0554477117
 10
8.2475886675
 20
5.0565315887
 10
8.2877907072
 20
5.0576048063
 10
8.3343637323
 20
5.0586789536
 10
8.3867321905
 20
5.0597701089
 10
8.4428164608
 20
5.0608655581
 10
8.5569320648
 20
5.063026132
  0
LWPOLYLINE
  5
6B9
100
AcDbEntity
  8
0
100
AcDbPolyline
 62
7
  6
CONTINUOUS
 90
9
 70
0
 10
8.1705003746
 20
5.0911982464
 10
8.1756068886
 20
5.0922924573
 10
8.1904398146
 20
5.0933686748
 10
8.214787924
 20
5.0944536377
 10
8.2481723275
 20
5.0955486656
 10
8.2891102863
 20
5.0966372294
 10
8.3357351973
 20
5.0977087979
 10
8.3874578523
 20
5.0987846597
 10
8.4430397933
 20
5.0998698298
  0
LWPOLYLINE
  5
6BA
100
AcDbEntity
  8
0
100
AcDbPolyline
 62
7
  6
CONTINUOUS
 90
9
 70
0
 10
8.4234907889
 20
5.1673612252
 10
8.3702490907
 20
5.1663035148
 10
8.3206617096
 20
5.1652434633
 10
8.2763726118
 20
5.1641854719
 10
8.2380519182
 20
5.1631115768
 10
8.2075101888
 20
5.1620359448
 10
8.1859477044
 20
5.1609739105
 10
8.1736116897
 20
5.1599194334
 10
8.1706756248
 20
5.1592682219
  0
LWPOLYLINE
  5
6BB
100
AcDbEntity
  8
0
100
AcDbPolyline
 62
7
  6
CONTINUOUS
 90
4
 70
0
 10
8.4234907889
 20
5.1384937117
 10
8.4487351994
 20
5.1389785968
 10
8.4742866651
 20
5.1394633754
 10
8.5000003746
 20
5.1399482572
  0
LWPOLYLINE
  5
6BC
100
AcDbEntity
  8
0
100
AcDbPolyline
 62
7
  6
CONTINUOUS
 90
10
 70
0
 10
8.5572132786
 20
5.1308990242
 10
8.4430397933
 20
5.1287373433
 10
8.3874578523
 20
5.1276521731
 10
8.3357351973
 20
5.1265763113
 10
8.2891102863
 20
5.1255047429
 10
8.2481723275
 20
5.1244161791
 10
8.214787924
 20
5.1233211512
 10
8.1904398146
 20
5.1222361882
 10
8.1756068886
 20
5.1211599708
 10
8.1706756248
 20
5.1202682219
  0
LWPOLYLINE
  5
6BD
100
AcDbEntity
  8
0
100
AcDbPolyline
 62
7
  6
CONTINUOUS
 90
10
 70
0
 10
8.5000003746
 20
5.1399482572
 10
8.5571733192
 20
5.1410307464
 10
8.6132504173
 20
5.1421260415
 10
8.6656186144
 20
5.1432171598
 10
8.7122457832
 20
5.1442925882
 10
8.7527096735
 20
5.1453736543
 10
8.7854621456
 20
5.1464522681
 10
8.8094788119
 20
5.1475233284
 10
8.8243654138
 20
5.1486010056
 10
8.8293251244
 20
5.1494958059
  0
LWPOLYLINE
  5
6BE
100
AcDbEntity
  8
0
100
AcDbPolyline
 62
7
  6
CONTINUOUS
 90
4
 70
0
 10
8.5000003746
 20
5.1688157706
 10
8.4742866651
 20
5.1683308889
 10
8.4487351994
 20
5.1678461102
 10
8.4234907889
 20
5.1673612252
  0
LWPOLYLINE
  5
6BF
100
AcDbEntity
  8
0
100
AcDbPolyline
 62
7
  6
CONTINUOUS
 90
10
 70
0
 10
8.4429627492
 20
5.1778683562
 10
8.5568713309
 20
5.1800249705
 10
8.6127330966
 20
5.1811156673
 10
8.6650321565
 20
5.1822043882
 10
8.7117387423
 20
5.1832801115
 10
8.7525557364
 20
5.1843691374
 10
8.7857843658
 20
5.1854644422
 10
8.8099504358
 20
5.1865493593
 10
8.8245425557
 20
5.1876201463
 10
8.8293251244
 20
5.1884958059
  0
LWPOLYLINE
  5
6C0
100
AcDbEntity
  8
0
100
AcDbPolyline
 62
7
  6
CONTINUOUS
 90
10
 70
0
 10
8.5568713309
 20
5.2088924839
 10
8.4429627492
 20
5.2067358697
 10
8.3870124768
 20
5.2056432441
 10
8.3347449404
 20
5.2045547708
 10
8.2881442524
 20
5.2034810206
 10
8.2474226959
 20
5.2023942358
 10
8.2142609953
 20
5.2013012736
 10
8.1901220436
 20
5.2002186471
 10
8.1754763451
 20
5.1991458583
 10
8.1706756248
 20
5.1982682219
  0
LWPOLYLINE
  5
6C1
100
AcDbEntity
  8
0
100
AcDbPolyline
 62
7
  6
CONTINUOUS
 90
12
 70
0
 10
8.4176858128
 20
5.1529274684
 10
8.477398295
 20
5.153985999
 10
8.5377665191
 20
5.1550445295
 10
8.5970390546
 20
5.15610306
 10
8.6534962597
 20
5.1571615905
 10
8.7055001724
 20
5.158220121
 10
8.7515420313
 20
5.1592786515
 10
8.7902860492
 20
5.160337182
 10
8.8206081669
 20
5.1613957125
 10
8.8416286653
 20
5.162454243
 10
8.8527376883
 20
5.1635127736
 10
8.8543374657
 20
5.1639438308
  0
LINE
  5
6C2
100
AcDbEntity
  8
0
100
AcDbLine
 62
7
  6
CONTINUOUS
 10
8.1456632835
 20
5.3394438308
 11
8.1706756248
 21
5.3249958059
  0
LINE
  5
6C3
100
AcDbEntity
  8
0
100
AcDbLine
 62
7
  6
CONTINUOUS
 10
8.1456632835
 20
5.3784438308
 11
8.1706756248
 21
5.3639958059
  0
LINE
  5
6C4
100
AcDbEntity
  8
0
100
AcDbLine
 62
7
  6
CONTINUOUS
 10
8.1456632835
 20
5.4174438308
 11
8.1706756248
 21
5.4029958059
  0
LINE
  5
6C5
100
AcDbEntity
  8
0
100
AcDbLine
 62
7
  6
CONTINUOUS
 10
8.8543374657
 20
5.008320197
 11
8.8293251244
 21
5.0227682219
  0
LWPOLYLINE
  5
6C6
100
AcDbEntity
  8
0
100
AcDbPolyline
 62
7
  6
CONTINUOUS
 90
3
 70
0
 10
8.1456632835
 20
5.4174438308
 10
8.1455241695
 20
5.4175600961
 10
8.1456632835
 20
5.417820197
  0
LWPOLYLINE
  5
6C7
100
AcDbEntity
  8
0
100
AcDbPolyline
 62
7
  6
CONTINUOUS
 90
3
 70
0
 10
8.1456632835
 20
5.6904438308
 10
8.1455042314
 20
5.6906609678
 10
8.1456632835
 20
5.690820197
  0
LINE
  5
6C8
100
AcDbEntity
  8
AXIS
100
AcDbLine
 62
7
  6
CONTINUOUS
 10
8.6165003746
 20
4.1239482572
 11
8.6165003746
 21
3.6869010131
  0
LINE
  5
6C9
100
AcDbEntity
  8
AXIS_COSMETIC_THREADS
100
AcDbLine
 62
7
  6
CONTINUOUS
 10
8.6165003746
 20
4.1239482572
 11
8.6165003746
 21
3.6869010131
  0
LINE
  5
6CA
100
AcDbEntity
  8
0
100
AcDbLine
 62
9
  6
CONTINUOUS
 10
8.6697060021
 20
4.1515619761
 11
8.6697060021
 21
4.2070439392
  0
LWPOLYLINE
  5
6CB
100
AcDbEntity
  8
0
100
AcDbPolyline
 62
7
  6
CONTINUOUS
 90
3
 70
0
 10
8.8543374657
 20
5.3199438308
 10
8.8544917588
 20
5.3201752891
 10
8.8543374657
 20
5.320320197
  0
LINE
  5
6CC
100
AcDbEntity
  8
0
100
AcDbLine
 62
7
  6
CONTINUOUS
 10
8.8293251244
 20
5.1494958059
 11
8.8543374657
 21
5.1639438308
  0
LINE
  5
6CD
100
AcDbEntity
  8
0
100
AcDbLine
 62
7
  6
CONTINUOUS
 10
8.8293251244
 20
5.1104958059
 11
8.8543374657
 21
5.1249438308
  0
LINE
  5
6CE
100
AcDbEntity
  8
0
100
AcDbLine
 62
7
  6
CONTINUOUS
 10
8.8293251244
 20
5.0714958059
 11
8.8543374657
 21
5.0859438308
  0
LWPOLYLINE
  5
6CF
100
AcDbEntity
  8
0
100
AcDbPolyline
 62
7
  6
CONTINUOUS
 90
10
 70
0
 10
8.8295003746
 20
5.0615658043
 10
8.8283895821
 20
5.061055958
 10
8.8195065565
 20
5.0600331256
 10
8.8019864597
 20
5.0590112017
 10
8.7758572152
 20
5.0579740265
 10
8.7418801696
 20
5.0569323156
 10
8.7015244065
 20
5.0559005533
 10
8.6561105909
 20
5.0548794251
 10
8.6063440964
 20
5.0538555653
 10
8.553916073
 20
5.0528360095
  0
LWPOLYLINE
  5
6D0
100
AcDbEntity
  8
0
100
AcDbPolyline
 62
7
  6
CONTINUOUS
 90
9
 70
0
 10
8.1705003749
 20
5.1301985443
 10
8.1736116897
 20
5.13105192
 10
8.1859477044
 20
5.132106397
 10
8.2075101888
 20
5.1331684313
 10
8.2380519182
 20
5.1342440634
 10
8.2763726118
 20
5.1353179584
 10
8.3206617096
 20
5.1363759499
 10
8.3702490907
 20
5.1374360013
 10
8.4234907889
 20
5.1384937117
  0
LWPOLYLINE
  5
6D1
100
AcDbEntity
  8
0
100
AcDbPolyline
 62
7
  6
CONTINUOUS
 90
9
 70
0
 10
8.1705003746
 20
5.1691982615
 10
8.1754763451
 20
5.1702783448
 10
8.1901220436
 20
5.1713511336
 10
8.2142609953
 20
5.1724337601
 10
8.2474226959
 20
5.1735267224
 10
8.2881442524
 20
5.1746135071
 10
8.3347449404
 20
5.1756872573
 10
8.3870124768
 20
5.1767757306
 10
8.4429627492
 20
5.1778683562
  0
LWPOLYLINE
  5
6D2
100
AcDbEntity
  8
0
100
AcDbPolyline
 62
7
  6
CONTINUOUS
 90
9
 70
0
 10
8.8295003746
 20
5.3345657706
 10
8.824406937
 20
5.333472976
 10
8.8095386566
 20
5.3323941284
 10
8.7853253442
 20
5.3313146254
 10
8.7525023055
 20
5.330235084
 10
8.7123464559
 20
5.3291625814
 10
8.6657440224
 20
5.3280874062
 10
8.6133427668
 20
5.3269954076
 10
8.5572215202
 20
5.3258991818
  0
LWPOLYLINE
  5
6D3
100
AcDbEntity
  8
0
100
AcDbPolyline
 62
7
  6
CONTINUOUS
 90
9
 70
0
 10
8.8295003746
 20
5.2955657705
 10
8.8243882993
 20
5.2944709733
 10
8.8095777363
 20
5.2933962771
 10
8.7853108086
 20
5.292314078
 10
8.7520506605
 20
5.291221858
 10
8.711268265
 20
5.2901360668
 10
8.6647583571
 20
5.2890659443
 10
8.612708927
 20
5.2879826962
 10
8.5569378363
 20
5.2868937558
  0
LWPOLYLINE
  5
6D4
100
AcDbEntity
  8
0
100
AcDbPolyline
 62
7
  6
CONTINUOUS
 90
9
 70
0
 10
8.1705003746
 20
5.2081982571
 10
8.1756291949
 20
5.2092948508
 10
8.1905273607
 20
5.2103734835
 10
8.2146183034
 20
5.2114472511
 10
8.2472546025
 20
5.2125217892
 10
8.2876318199
 20
5.2136008928
 10
8.3342649754
 20
5.2146768013
 10
8.3866605947
 20
5.2157686727
 10
8.4427790362
 20
5.2168648423
  0
LWPOLYLINE
  5
6D5
100
AcDbEntity
  8
0
100
AcDbPolyline
 62
7
  6
CONTINUOUS
 90
9
 70
0
 10
8.8295003746
 20
5.3735657705
 10
8.8243639701
 20
5.3724683644
 10
8.8094910657
 20
5.3713915144
 10
8.7854903231
 20
5.3703208445
 10
8.7526453567
 20
5.3692392801
 10
8.7121266912
 20
5.3681571693
 10
8.6655100645
 20
5.3670823081
 10
8.6131708684
 20
5.3659919593
 10
8.5571317847
 20
5.3648974654
  0
LWPOLYLINE
  5
6D6
100
AcDbEntity
  8
0
100
AcDbPolyline
 62
7
  6
CONTINUOUS
 90
9
 70
0
 10
8.1456632835
 20
5.144820197
 10
8.1491036142
 20
5.1455177549
 10
8.162749882
 20
5.1465762854
 10
8.1861806146
 20
5.1476348159
 10
8.218716029
 20
5.1486933464
 10
8.2594121929
 20
5.1497518769
 10
8.3070884106
 20
5.1508104074
 10
8.3603614781
 20
5.1518689379
 10
8.4176858128
 20
5.1529274684
  0
LWPOLYLINE
  5
6D7
100
AcDbEntity
  8
0
100
AcDbPolyline
 62
7
  6
CONTINUOUS
 90
20
 70
0
 10
8.1456632835
 20
5.183820197
 10
8.150573659
 20
5.1846833838
 10
8.1657844346
 20
5.1857419143
 10
8.1906916351
 20
5.1868004448
 10
8.2245726416
 20
5.1878589753
 10
8.2664444829
 20
5.1889175058
 10
8.3150923541
 20
5.1899760363
 10
8.3691048609
 20
5.1910345668
 10
8.426914968
 20
5.1920930973
 10
8.4868454622
 20
5.1931516279
 10
8.5471576126
 20
5.1942101584
 10
8.6061016159
 20
5.1952686889
 10
8.6619673616
 20
5.1963272194
 10
8.7131340473
 20
5.1973857499
 10
8.7581172019
 20
5.1984442804
 10
8.7956117535
 20
5.1995028109
 10
8.8245298933
 20
5.2005613414
 10
8.8440326349
 20
5.2016198719
 10
8.8535541559
 20
5.2026784024
 10
8.8543374657
 20
5.2029438308
  0
LWPOLYLINE
  5
6D8
100
AcDbEntity
  8
0
100
AcDbPolyline
 62
7
  6
CONTINUOUS
 90
19
 70
0
 10
8.1456632835
 20
5.222820197
 10
8.152292494
 20
5.2238490127
 10
8.1690569472
 20
5.2249075432
 10
8.1954228819
 20
5.2259660737
 10
8.2306253574
 20
5.2270246042
 10
8.2736430636
 20
5.2280831347
 10
8.3232279511
 20
5.2291416652
 10
8.3779414407
 20
5.2302001957
 10
8.4361961597
 20
5.2312587262
 10
8.4963019955
 20
5.2323172567
 10
8.5565151304
 20
5.2333757873
 10
8.6150886335
 20
5.2344343178
 10
8.6703231437
 20
5.2354928483
 10
8.7206161721
 20
5.2365513788
 10
8.7645085945
 20
5.2376099093
 10
8.8007269841
 20
5.2386684398
 10
8.8282205563
 20
5.2397269703
 10
8.8461916552
 20
5.2407855008
 10
8.8543374657
 20
5.2419438308
  0
LWPOLYLINE
  5
6D9
100
AcDbEntity
  8
0
100
AcDbPolyline
 62
7
  6
CONTINUOUS
 90
4
 70
0
 10
8.3511634789
 20
5.2930391663
 10
8.3987284709
 20
5.2940091321
 10
8.4487198182
 20
5.2949783034
 10
8.5572215202
 20
5.2970316684
  0
LWPOLYLINE
  5
6DA
100
AcDbEntity
  8
0
100
AcDbPolyline
 62
7
  6
CONTINUOUS
 90
9
 70
0
 10
8.4427790362
 20
5.2457323557
 10
8.3866605947
 20
5.2446361861
 10
8.3342649754
 20
5.2435443148
 10
8.2876318199
 20
5.2424684062
 10
8.2472546025
 20
5.2413893027
 10
8.2146183034
 20
5.2403147645
 10
8.1905273607
 20
5.239240997
 10
8.1756291949
 20
5.2381623643
 10
8.1706756248
 20
5.2372682219
  0
LWPOLYLINE
  5
6DB
100
AcDbEntity
  8
0
100
AcDbPolyline
 62
7
  6
CONTINUOUS
 90
9
 70
0
 10
8.5572215202
 20
5.2970316684
 10
8.6133427668
 20
5.2981278941
 10
8.6657440224
 20
5.2992198928
 10
8.7123464559
 20
5.3002950679
 10
8.7525023055
 20
5.3013675705
 10
8.7853253442
 20
5.302447112
 10
8.8095386566
 20
5.3035266149
 10
8.824406937
 20
5.3046054625
 10
8.8293251244
 20
5.3054958059
  0
LWPOLYLINE
  5
6DC
100
AcDbEntity
  8
0
100
AcDbPolyline
 62
7
  6
CONTINUOUS
 90
11
 70
0
 10
8.4427790362
 20
5.2168648423
 10
8.5539541438
 20
5.218969223
 10
8.6064305346
 20
5.2199897722
 10
8.656072694
 20
5.221011101
 10
8.7014598872
 20
5.2220315038
 10
8.741817586
 20
5.2230630663
 10
8.7758013167
 20
5.2241045881
 10
8.801942157
 20
5.2251416029
 10
8.8194793662
 20
5.2261635179
 10
8.8283866274
 20
5.2271877666
 10
8.8293251244
 20
5.2274958059
  0
LWPOLYLINE
  5
6DD
100
AcDbEntity
  8
0
100
AcDbPolyline
 62
7
  6
CONTINUOUS
 90
10
 70
0
 10
8.4428560962
 20
5.2558663163
 10
8.5569378363
 20
5.2580262424
 10
8.612708927
 20
5.2591151827
 10
8.6647583571
 20
5.2601984308
 10
8.711268265
 20
5.2612685534
 10
8.7520506605
 20
5.2623543445
 10
8.7853108086
 20
5.2634465646
 10
8.8095777363
 20
5.2645287636
 10
8.8243882993
 20
5.2656034598
 10
8.8293251244
 20
5.2664958059
  0
LWPOLYLINE
  5
6DE
100
AcDbEntity
  8
0
100
AcDbPolyline
 62
7
  6
CONTINUOUS
 90
10
 70
0
 10
8.5569378363
 20
5.2868937558
 10
8.4428560962
 20
5.2847338297
 10
8.386808078
 20
5.2836391447
 10
8.334467731
 20
5.2825487331
 10
8.2879158272
 20
5.2814754002
 10
8.2476145747
 20
5.2803998613
 10
8.2145824135
 20
5.2793134117
 10
8.1903649095
 20
5.2782320657
 10
8.1755567171
 20
5.2771545684
 10
8.1706756248
 20
5.2762682219
  0
LINE
  5
6DF
100
AcDbEntity
  8
0
100
AcDbLine
 62
7
  6
CONTINUOUS
 10
8.1456632835
 20
5.4564438308
 11
8.1706756248
 21
5.4419958059
  0
LINE
  5
6E0
100
AcDbEntity
  8
0
100
AcDbLine
 62
7
  6
CONTINUOUS
 10
8.8543374657
 20
5.047320197
 11
8.8293251244
 21
5.0617682219
  0
LINE
  5
6E1
100
AcDbEntity
  8
0
100
AcDbLine
 62
7
  6
CONTINUOUS
 10
8.1456632835
 20
5.4954438308
 11
8.1706756248
 21
5.4809958059
  0
LINE
  5
6E2
100
AcDbEntity
  8
0
100
AcDbLine
 62
7
  6
CONTINUOUS
 10
8.8543374657
 20
5.086320197
 11
8.8293251244
 21
5.1007682219
  0
LINE
  5
6E3
100
AcDbEntity
  8
0
100
AcDbLine
 62
7
  6
CONTINUOUS
 10
8.1456632835
 20
5.5344438308
 11
8.1706756248
 21
5.5199958059
  0
LINE
  5
6E4
100
AcDbEntity
  8
0
100
AcDbLine
 62
7
  6
CONTINUOUS
 10
8.8543374657
 20
5.125320197
 11
8.8293251244
 21
5.1397682219
  0
LINE
  5
6E5
100
AcDbEntity
  8
0
100
AcDbLine
 62
7
  6
CONTINUOUS
 10
8.7114514898
 20
4.1639482572
 11
8.7114514898
 21
4.2198887046
  0
LWPOLYLINE
  5
6E6
100
AcDbEntity
  8
0
100
AcDbPolyline
 62
7
  6
CONTINUOUS
 90
3
 70
0
 10
8.8543374657
 20
5.0469438308
 10
8.8544851128
 20
5.0470744174
 10
8.8543374657
 20
5.047320197
  0
LINE
  5
6E7
100
AcDbEntity
  8
0
100
AcDbLine
 62
7
  6
CONTINUOUS
 10
8.8293251244
 20
5.0324958059
 11
8.8543374657
 21
5.0469438308
  0
LINE
  5
6E8
100
AcDbEntity
  8
0
100
AcDbLine
 62
7
  6
CONTINUOUS
 10
8.8293251244
 20
4.9934958059
 11
8.8543374657
 21
5.0079438308
  0
LWPOLYLINE
  5
6E9
100
AcDbEntity
  8
0
100
AcDbPolyline
 62
7
  6
CONTINUOUS
 90
9
 70
0
 10
8.8295003746
 20
5.4125657628
 10
8.8245458837
 20
5.4114880226
 10
8.8099441677
 20
5.4104165248
 10
8.7857378016
 20
5.4093301938
 10
8.7524473097
 20
5.4082334717
 10
8.7115542461
 20
5.4071430903
 10
8.6647741446
 20
5.4060662877
 10
8.6124862506
 20
5.4049782328
 10
8.5567558441
 20
5.4038902753
  0
LWPOLYLINE
  5
6EA
100
AcDbEntity
  8
0
100
AcDbPolyline
 62
7
  6
CONTINUOUS
 90
9
 70
0
 10
8.1705003746
 20
5.2471982571
 10
8.1755567171
 20
5.2482870549
 10
8.1903649095
 20
5.2493645522
 10
8.2145824135
 20
5.2504458983
 10
8.2476145747
 20
5.2515323479
 10
8.2879158272
 20
5.2526078867
 10
8.334467731
 20
5.2536812196
 10
8.386808078
 20
5.2547716312
 10
8.4428560962
 20
5.2558663163
  0
LWPOLYLINE
  5
6EB
100
AcDbEntity
  8
0
100
AcDbPolyline
 62
7
  6
CONTINUOUS
 90
8
 70
0
 10
8.3511634789
 20
5.3219066797
 10
8.3048274709
 20
5.3208808263
 10
8.2634387287
 20
5.3198449208
 10
8.2282496871
 20
5.3187965768
 10
8.2008558463
 20
5.3177510066
 10
8.1821355208
 20
5.3167201849
 10
8.172135167
 20
5.3156843324
 10
8.1706756248
 20
5.3152682219
  0
LWPOLYLINE
  5
6EC
100
AcDbEntity
  8
0
100
AcDbPolyline
 62
7
  6
CONTINUOUS
 90
9
 70
0
 10
8.5571317847
 20
5.3360299519
 10
8.6131708684
 20
5.3371244458
 10
8.6655100645
 20
5.3382147947
 10
8.7121266912
 20
5.3392896558
 10
8.7526453567
 20
5.3403717666
 10
8.7854903231
 20
5.3414533311
 10
8.8094910657
 20
5.342524001
 10
8.8243639701
 20
5.343600851
 10
8.8293251244
 20
5.3444958059
  0
LWPOLYLINE
  5
6ED
100
AcDbEntity
  8
0
100
AcDbPolyline
 62
7
  6
CONTINUOUS
 90
13
 70
0
 10
8.3398708464
 20
5.307472923
 10
8.3958689629
 20
5.3085314535
 10
8.4548881873
 20
5.309589984
 10
8.515216227
 20
5.3106485145
 10
8.5751028175
 20
5.311707045
 10
8.6328105018
 20
5.3127655755
 10
8.6866650381
 20
5.3138241061
 10
8.7351039743
 20
5.3148826366
 10
8.7767219777
 20
5.3159411671
 10
8.8103116081
 20
5.3169996976
 10
8.8348983476
 20
5.3180582281
 10
8.8497688747
 20
5.3191167586
 10
8.8543374657
 20
5.3199438308
  0
LWPOLYLINE
  5
6EE
100
AcDbEntity
  8
0
100
AcDbPolyline
 62
7
  6
CONTINUOUS
 90
4
 70
0
 10
8.5572215202
 20
5.3258991818
 10
8.4487198182
 20
5.3238458169
 10
8.3987284709
 20
5.3228766456
 10
8.3511634789
 20
5.3219066797
  0
LWPOLYLINE
  5
6EF
100
AcDbEntity
  8
0
100
AcDbPolyline
 62
7
  6
CONTINUOUS
 90
11
 70
0
 10
8.5571317847
 20
5.3648974654
 10
8.4461585076
 20
5.3627969416
 10
8.3936677481
 20
5.3617761968
 10
8.3437478347
 20
5.3607490713
 10
8.29832357
 20
5.3597273496
 10
8.2579947202
 20
5.3586957332
 10
8.2240488511
 20
5.3576542521
 10
8.1979524283
 20
5.3566174249
 10
8.1804636303
 20
5.3555960584
 10
8.1716125879
 20
5.3545759094
 10
8.1706756248
 20
5.3542682219
  0
LWPOLYLINE
  5
6F0
100
AcDbEntity
  8
0
100
AcDbPolyline
 62
7
  6
CONTINUOUS
 90
10
 70
0
 10
8.4430031941
 20
5.3728691298
 10
8.5567558441
 20
5.3750227619
 10
8.6124862506
 20
5.3761107193
 10
8.6647741446
 20
5.3771987742
 10
8.7115542461
 20
5.3782755769
 10
8.7524473097
 20
5.3793659582
 10
8.7857378016
 20
5.3804626804
 10
8.8099441677
 20
5.3815490114
 10
8.8245458837
 20
5.3826205091
 10
8.8293251244
 20
5.3834958059
  0
LWPOLYLINE
  5
6F1
100
AcDbEntity
  8
0
100
AcDbPolyline
 62
7
  6
CONTINUOUS
 90
10
 70
0
 10
8.5567558441
 20
5.4038902753
 10
8.4430031941
 20
5.4017366433
 10
8.3870899427
 20
5.4006447975
 10
8.3348508861
 20
5.3995570775
 10
8.2882720429
 20
5.398484163
 10
8.247582012
 20
5.3973989071
 10
8.2144428709
 20
5.396308147
 10
8.1902961667
 20
5.3952282757
 10
8.1755500521
 20
5.3941538487
 10
8.1706756248
 20
5.3932682219
  0
LINE
  5
6F2
100
AcDbEntity
  8
0
100
AcDbLine
 62
7
  6
CONTINUOUS
 10
8.1456632835
 20
5.5734438308
 11
8.1706756248
 21
5.5589958059
  0
LINE
  5
6F3
100
AcDbEntity
  8
0
100
AcDbLine
 62
7
  6
CONTINUOUS
 10
8.8543374657
 20
5.164320197
 11
8.8293251244
 21
5.1787682219
  0
LINE
  5
6F4
100
AcDbEntity
  8
0
100
AcDbLine
 62
7
  6
CONTINUOUS
 10
8.1456632835
 20
5.6124438308
 11
8.1706756248
 21
5.5979958059
  0
LINE
  5
6F5
100
AcDbEntity
  8
0
100
AcDbLine
 62
7
  6
CONTINUOUS
 10
8.8543374657
 20
5.203320197
 11
8.8293251244
 21
5.2177682219
  0
LINE
  5
6F6
100
AcDbEntity
  8
0
100
AcDbLine
 62
7
  6
CONTINUOUS
 10
8.1456632835
 20
5.6514438308
 11
8.1706756248
 21
5.6369958059
  0
LINE
  5
6F7
100
AcDbEntity
  8
0
100
AcDbLine
 62
7
  6
CONTINUOUS
 10
8.8543374657
 20
5.242320197
 11
8.8293251244
 21
5.2567682219
  0
LWPOLYLINE
  5
6F8
100
AcDbEntity
  8
0
100
AcDbPolyline
 62
7
  6
CONTINUOUS
 90
3
 70
0
 10
8.1456632835
 20
6.1974438308
 10
8.145519853
 20
6.1976970824
 10
8.1456632835
 20
6.197820197
  0
LINE
  5
6F9
100
AcDbEntity
  8
0
100
AcDbLine
 62
7
  6
CONTINUOUS
 10
8.8250003746
 20
4.2839482572
 11
8.8250003746
 21
4.1639482572
  0
LINE
  5
6FA
100
AcDbEntity
  8
AXIS
100
AcDbLine
 62
7
  6
CONTINUOUS
 10
8.8295003746
 20
6.4366982572
 11
8.8295003746
 21
6.4265657706
  0
LINE
  5
6FB
100
AcDbEntity
  8
AXIS
100
AcDbLine
 62
7
  6
CONTINUOUS
 10
8.8295003746
 20
6.3976982572
 11
8.8295003746
 21
6.3875657706
  0
LINE
  5
6FC
100
AcDbEntity
  8
AXIS
100
AcDbLine
 62
7
  6
CONTINUOUS
 10
8.8295003746
 20
6.3586982572
 11
8.8295003746
 21
6.3485657706
  0
LINE
  5
6FD
100
AcDbEntity
  8
AXIS
100
AcDbLine
 62
7
  6
CONTINUOUS
 10
8.8295003746
 20
6.3196982572
 11
8.8295003746
 21
6.3095657706
  0
LINE
  5
6FE
100
AcDbEntity
  8
AXIS
100
AcDbLine
 62
7
  6
CONTINUOUS
 10
8.8295003746
 20
6.2806982572
 11
8.8295003746
 21
6.2705657706
  0
LINE
  5
6FF
100
AcDbEntity
  8
AXIS
100
AcDbLine
 62
7
  6
CONTINUOUS
 10
8.8295003746
 20
6.2416982572
 11
8.8295003746
 21
6.2315657706
  0
LINE
  5
700
100
AcDbEntity
  8
AXIS
100
AcDbLine
 62
7
  6
CONTINUOUS
 10
8.8295003746
 20
6.2026982572
 11
8.8295003746
 21
6.1925657706
  0
LINE
  5
701
100
AcDbEntity
  8
AXIS
100
AcDbLine
 62
7
  6
CONTINUOUS
 10
8.8295003746
 20
6.1636982572
 11
8.8295003746
 21
6.1535657706
  0
LINE
  5
702
100
AcDbEntity
  8
AXIS
100
AcDbLine
 62
7
  6
CONTINUOUS
 10
8.8295003746
 20
6.1246982572
 11
8.8295003746
 21
6.1145657706
  0
LINE
  5
703
100
AcDbEntity
  8
AXIS
100
AcDbLine
 62
7
  6
CONTINUOUS
 10
8.8295003746
 20
6.0856982572
 11
8.8295003746
 21
6.0755657706
  0
LINE
  5
704
100
AcDbEntity
  8
AXIS
100
AcDbLine
 62
7
  6
CONTINUOUS
 10
8.8295003746
 20
6.0466982572
 11
8.8295003746
 21
6.0365657706
  0
LINE
  5
705
100
AcDbEntity
  8
AXIS
100
AcDbLine
 62
7
  6
CONTINUOUS
 10
8.8295003746
 20
6.0076982572
 11
8.8295003746
 21
5.9975657706
  0
LINE
  5
706
100
AcDbEntity
  8
AXIS
100
AcDbLine
 62
7
  6
CONTINUOUS
 10
8.8295003746
 20
5.9686982572
 11
8.8295003746
 21
5.9585657706
  0
LINE
  5
707
100
AcDbEntity
  8
AXIS
100
AcDbLine
 62
7
  6
CONTINUOUS
 10
8.8295003746
 20
5.9296982572
 11
8.8295003746
 21
5.9195657706
  0
LINE
  5
708
100
AcDbEntity
  8
AXIS
100
AcDbLine
 62
7
  6
CONTINUOUS
 10
8.8295003746
 20
5.8906982572
 11
8.8295003746
 21
5.8805657706
  0
LINE
  5
709
100
AcDbEntity
  8
AXIS
100
AcDbLine
 62
7
  6
CONTINUOUS
 10
8.8295003746
 20
5.8516982572
 11
8.8295003746
 21
5.8415657706
  0
LINE
  5
70A
100
AcDbEntity
  8
AXIS
100
AcDbLine
 62
7
  6
CONTINUOUS
 10
8.8295003746
 20
5.8126982572
 11
8.8295003746
 21
5.8025657706
  0
LINE
  5
70B
100
AcDbEntity
  8
AXIS
100
AcDbLine
 62
7
  6
CONTINUOUS
 10
8.8295003746
 20
5.7736982572
 11
8.8295003746
 21
5.7635657706
  0
LINE
  5
70C
100
AcDbEntity
  8
AXIS
100
AcDbLine
 62
7
  6
CONTINUOUS
 10
8.8295003746
 20
5.7346982572
 11
8.8295003746
 21
5.7245657706
  0
LINE
  5
70D
100
AcDbEntity
  8
AXIS
100
AcDbLine
 62
7
  6
CONTINUOUS
 10
8.8295003746
 20
5.6956982572
 11
8.8295003746
 21
5.6855657706
  0
LINE
  5
70E
100
AcDbEntity
  8
AXIS
100
AcDbLine
 62
7
  6
CONTINUOUS
 10
8.8295003746
 20
5.6566982572
 11
8.8295003746
 21
5.6465657706
  0
LINE
  5
70F
100
AcDbEntity
  8
AXIS
100
AcDbLine
 62
7
  6
CONTINUOUS
 10
8.8295003746
 20
5.6176982572
 11
8.8295003746
 21
5.6075657706
  0
LINE
  5
710
100
AcDbEntity
  8
AXIS
100
AcDbLine
 62
7
  6
CONTINUOUS
 10
8.8295003746
 20
5.5786982572
 11
8.8295003746
 21
5.5685657706
  0
LINE
  5
711
100
AcDbEntity
  8
AXIS
100
AcDbLine
 62
7
  6
CONTINUOUS
 10
8.8295003746
 20
5.5396982572
 11
8.8295003746
 21
5.5295657706
  0
LINE
  5
712
100
AcDbEntity
  8
AXIS
100
AcDbLine
 62
7
  6
CONTINUOUS
 10
8.8295003746
 20
5.5006982572
 11
8.8295003746
 21
5.4905657706
  0
LINE
  5
713
100
AcDbEntity
  8
AXIS
100
AcDbLine
 62
7
  6
CONTINUOUS
 10
8.8295003746
 20
5.4616982572
 11
8.8295003746
 21
5.4515657706
  0
LINE
  5
714
100
AcDbEntity
  8
AXIS
100
AcDbLine
 62
7
  6
CONTINUOUS
 10
8.8295003746
 20
5.4226982572
 11
8.8295003746
 21
5.4125657706
  0
LINE
  5
715
100
AcDbEntity
  8
AXIS
100
AcDbLine
 62
7
  6
CONTINUOUS
 10
8.8295003746
 20
5.3836982572
 11
8.8295003746
 21
5.3735657706
  0
LINE
  5
716
100
AcDbEntity
  8
AXIS
100
AcDbLine
 62
7
  6
CONTINUOUS
 10
8.8295003746
 20
5.3446982572
 11
8.8295003746
 21
5.3345657706
  0
LINE
  5
717
100
AcDbEntity
  8
AXIS
100
AcDbLine
 62
7
  6
CONTINUOUS
 10
8.8295003746
 20
5.3056982572
 11
8.8295003746
 21
5.2955657706
  0
LINE
  5
718
100
AcDbEntity
  8
AXIS
100
AcDbLine
 62
7
  6
CONTINUOUS
 10
8.8295003746
 20
5.2666982572
 11
8.8295003746
 21
5.2565657706
  0
LINE
  5
719
100
AcDbEntity
  8
AXIS
100
AcDbLine
 62
7
  6
CONTINUOUS
 10
8.8295003746
 20
5.2276982572
 11
8.8295003746
 21
5.2175657706
  0
LINE
  5
71A
100
AcDbEntity
  8
AXIS
100
AcDbLine
 62
7
  6
CONTINUOUS
 10
8.8295003746
 20
5.1886982572
 11
8.8295003746
 21
5.1785657706
  0
LINE
  5
71B
100
AcDbEntity
  8
AXIS
100
AcDbLine
 62
7
  6
CONTINUOUS
 10
8.8295003746
 20
5.1496982572
 11
8.8295003746
 21
5.1395657706
  0
LINE
  5
71C
100
AcDbEntity
  8
AXIS
100
AcDbLine
 62
7
  6
CONTINUOUS
 10
8.8295003746
 20
5.1106982572
 11
8.8295003746
 21
5.1005657706
  0
LINE
  5
71D
100
AcDbEntity
  8
AXIS
100
AcDbLine
 62
7
  6
CONTINUOUS
 10
8.8295003746
 20
5.0716982572
 11
8.8295003746
 21
5.0615657706
  0
LINE
  5
71E
100
AcDbEntity
  8
AXIS
100
AcDbLine
 62
7
  6
CONTINUOUS
 10
8.8295003746
 20
5.0326982572
 11
8.8295003746
 21
5.0225657706
  0
LINE
  5
71F
100
AcDbEntity
  8
AXIS
100
AcDbLine
 62
7
  6
CONTINUOUS
 10
8.8295003746
 20
4.9936982572
 11
8.8295003746
 21
4.2839482572
  0
LINE
  5
720
100
AcDbEntity
  8
0
100
AcDbLine
 62
7
  6
CONTINUOUS
 10
8.8543374657
 20
5.0079438308
 11
8.8543374657
 21
5.008320197
  0
LINE
  5
721
100
AcDbEntity
  8
0
100
AcDbLine
 62
7
  6
CONTINUOUS
 10
8.8543374657
 20
5.0859438308
 11
8.8543374657
 21
5.086320197
  0
LINE
  5
722
100
AcDbEntity
  8
0
100
AcDbLine
 62
7
  6
CONTINUOUS
 10
8.8543374657
 20
5.1249438308
 11
8.8543374657
 21
5.125320197
  0
LINE
  5
723
100
AcDbEntity
  8
0
100
AcDbLine
 62
7
  6
CONTINUOUS
 10
8.8543374657
 20
5.1639438308
 11
8.8543374657
 21
5.164320197
  0
LINE
  5
724
100
AcDbEntity
  8
0
100
AcDbLine
 62
7
  6
CONTINUOUS
 10
8.8543374657
 20
5.2029438308
 11
8.8543374657
 21
5.203320197
  0
LINE
  5
725
100
AcDbEntity
  8
0
100
AcDbLine
 62
7
  6
CONTINUOUS
 10
8.8543374657
 20
5.2419438308
 11
8.8543374657
 21
5.242320197
  0
LINE
  5
726
100
AcDbEntity
  8
0
100
AcDbLine
 62
7
  6
CONTINUOUS
 10
8.8543374657
 20
5.2809438308
 11
8.8543374657
 21
5.281320197
  0
LINE
  5
727
100
AcDbEntity
  8
0
100
AcDbLine
 62
7
  6
CONTINUOUS
 10
8.8543374657
 20
5.3589438308
 11
8.8543374657
 21
5.359320197
  0
LINE
  5
728
100
AcDbEntity
  8
0
100
AcDbLine
 62
7
  6
CONTINUOUS
 10
8.8543374657
 20
5.3979438308
 11
8.8543374657
 21
5.398320197
  0
LINE
  5
729
100
AcDbEntity
  8
0
100
AcDbLine
 62
7
  6
CONTINUOUS
 10
8.8543374657
 20
5.4369438308
 11
8.8543374657
 21
5.437320197
  0
LINE
  5
72A
100
AcDbEntity
  8
0
100
AcDbLine
 62
7
  6
CONTINUOUS
 10
8.8543374657
 20
5.4759438308
 11
8.8543374657
 21
5.476320197
  0
LINE
  5
72B
100
AcDbEntity
  8
0
100
AcDbLine
 62
7
  6
CONTINUOUS
 10
8.8543374657
 20
5.5149438308
 11
8.8543374657
 21
5.515320197
  0
LINE
  5
72C
100
AcDbEntity
  8
0
100
AcDbLine
 62
7
  6
CONTINUOUS
 10
8.8543374657
 20
5.5929438308
 11
8.8543374657
 21
5.593320197
  0
LINE
  5
72D
100
AcDbEntity
  8
0
100
AcDbLine
 62
7
  6
CONTINUOUS
 10
8.8543374657
 20
5.6319438308
 11
8.8543374657
 21
5.632320197
  0
LINE
  5
72E
100
AcDbEntity
  8
0
100
AcDbLine
 62
7
  6
CONTINUOUS
 10
8.8543374657
 20
5.6709438308
 11
8.8543374657
 21
5.671320197
  0
LINE
  5
72F
100
AcDbEntity
  8
0
100
AcDbLine
 62
7
  6
CONTINUOUS
 10
8.8543374657
 20
5.7099438308
 11
8.8543374657
 21
5.710320197
  0
LINE
  5
730
100
AcDbEntity
  8
0
100
AcDbLine
 62
7
  6
CONTINUOUS
 10
8.8543374657
 20
5.7489438308
 11
8.8543374657
 21
5.749320197
  0
LINE
  5
731
100
AcDbEntity
  8
0
100
AcDbLine
 62
7
  6
CONTINUOUS
 10
8.8543374657
 20
5.7879438308
 11
8.8543374657
 21
5.788320197
  0
LINE
  5
732
100
AcDbEntity
  8
0
100
AcDbLine
 62
7
  6
CONTINUOUS
 10
8.8543374657
 20
5.8659438308
 11
8.8543374657
 21
5.866320197
  0
LINE
  5
733
100
AcDbEntity
  8
0
100
AcDbLine
 62
7
  6
CONTINUOUS
 10
8.8543374657
 20
5.9049438308
 11
8.8543374657
 21
5.905320197
  0
LINE
  5
734
100
AcDbEntity
  8
0
100
AcDbLine
 62
7
  6
CONTINUOUS
 10
8.8543374657
 20
5.9439438308
 11
8.8543374657
 21
5.944320197
  0
LINE
  5
735
100
AcDbEntity
  8
0
100
AcDbLine
 62
7
  6
CONTINUOUS
 10
8.8543374657
 20
5.9829438308
 11
8.8543374657
 21
5.983320197
  0
LINE
  5
736
100
AcDbEntity
  8
0
100
AcDbLine
 62
7
  6
CONTINUOUS
 10
8.8543374657
 20
6.0219438308
 11
8.8543374657
 21
6.022320197
  0
LINE
  5
737
100
AcDbEntity
  8
0
100
AcDbLine
 62
7
  6
CONTINUOUS
 10
8.8543374657
 20
6.0999438308
 11
8.8543374657
 21
6.100320197
  0
LINE
  5
738
100
AcDbEntity
  8
0
100
AcDbLine
 62
7
  6
CONTINUOUS
 10
8.8543374657
 20
6.1389438308
 11
8.8543374657
 21
6.139320197
  0
LINE
  5
739
100
AcDbEntity
  8
0
100
AcDbLine
 62
7
  6
CONTINUOUS
 10
8.8543374657
 20
6.1779438308
 11
8.8543374657
 21
6.178320197
  0
LINE
  5
73A
100
AcDbEntity
  8
0
100
AcDbLine
 62
7
  6
CONTINUOUS
 10
8.8543374657
 20
6.2169438308
 11
8.8543374657
 21
6.217320197
  0
LINE
  5
73B
100
AcDbEntity
  8
0
100
AcDbLine
 62
7
  6
CONTINUOUS
 10
8.8543374657
 20
6.2559438308
 11
8.8543374657
 21
6.256320197
  0
LINE
  5
73C
100
AcDbEntity
  8
0
100
AcDbLine
 62
7
  6
CONTINUOUS
 10
8.8543374657
 20
6.3339438308
 11
8.8543374657
 21
6.334320197
  0
LINE
  5
73D
100
AcDbEntity
  8
0
100
AcDbLine
 62
7
  6
CONTINUOUS
 10
8.8543374657
 20
6.3729438308
 11
8.8543374657
 21
6.373320197
  0
LINE
  5
73E
100
AcDbEntity
  8
0
100
AcDbLine
 62
7
  6
CONTINUOUS
 10
8.8543374657
 20
6.4119438308
 11
8.8543374657
 21
6.412320197
  0
LWPOLYLINE
  5
73F
100
AcDbEntity
  8
0
100
AcDbPolyline
 62
7
  6
CONTINUOUS
 90
20
 70
0
 10
8.1456632835
 20
5.339820197
 10
8.1474744621
 20
5.3402873688
 10
8.1589286208
 20
5.3413458993
 10
8.1802781085
 20
5.3424044298
 10
8.2109035241
 20
5.3434629604
 10
8.2499163492
 20
5.3445214909
 10
8.2961847259
 20
5.3455800214
 10
8.3483662949
 20
5.3466385519
 10
8.404947141
 20
5.3476970824
 10
8.4642857147
 20
5.3487556129
 10
8.5246604584
 20
5.3498141434
 10
8.5843197525
 20
5.3508726739
 10
8.6415327344
 20
5.3519312044
 10
8.6946395151
 20
5.3529897349
 10
8.7420993364
 20
5.3540482655
 10
8.7825352724
 20
5.355106796
 10
8.8147741773
 20
5.3561653265
 10
8.8378807214
 20
5.357223857
 10
8.851184527
 20
5.3582823875
 10
8.8543374657
 20
5.3589438308
  0
LWPOLYLINE
  5
740
100
AcDbEntity
  8
0
100
AcDbPolyline
 62
7
  6
CONTINUOUS
 90
20
 70
0
 10
8.1456632835
 20
5.378820197
 10
8.1485967436
 20
5.3794529977
 10
8.1616286204
 20
5.3805115282
 10
8.1844774927
 20
5.3815700587
 10
8.2164804584
 20
5.3826285892
 10
8.256709033
 20
5.3836871198
 10
8.3039960868
 20
5.3847456503
 10
8.3569697062
 20
5.3858041808
 10
8.4140929964
 20
5.3868627113
 10
8.4737086707
 20
5.3879212418
 10
8.5340871318
 20
5.3889797723
 10
8.5934766524
 20
5.3900383028
 10
8.6501541967
 20
5.3910968333
 10
8.70247541
 20
5.3921553638
 10
8.7489223253
 20
5.3932138944
 10
8.7881474036
 20
5.3942724249
 10
8.8190126292
 20
5.3953309554
 10
8.840622526
 20
5.3963894859
 10
8.8523501378
 20
5.3974480164
 10
8.8543374657
 20
5.3979438308
  0
LWPOLYLINE
  5
741
100
AcDbEntity
  8
0
100
AcDbPolyline
 62
7
  6
CONTINUOUS
 90
9
 70
0
 10
8.1705003746
 20
5.3641982571
 10
8.1755500521
 20
5.3652863352
 10
8.1902961667
 20
5.3663607622
 10
8.2144428709
 20
5.3674406336
 10
8.247582012
 20
5.3685313936
 10
8.2882720429
 20
5.3696166496
 10
8.3348508861
 20
5.370689564
 10
8.3870899427
 20
5.371777284
 10
8.4430031941
 20
5.3728691298
  0
LWPOLYLINE
  5
742
100
AcDbEntity
  8
0
100
AcDbPolyline
 62
7
  6
CONTINUOUS
 90
9
 70
0
 10
8.8295003746
 20
5.4905657706
 10
8.8244310978
 20
5.4894755776
 10
8.8096601204
 20
5.4884008135
 10
8.7854328783
 20
5.4873186778
 10
8.7522076956
 20
5.4862264528
 10
8.7114529468
 20
5.4851406017
 10
8.6649198611
 20
5.4840694579
 10
8.6127908248
 20
5.4829843381
 10
8.5569611652
 20
5.481894202
  0
LWPOLYLINE
  5
743
100
AcDbEntity
  8
0
100
AcDbPolyline
 62
7
  6
CONTINUOUS
 90
9
 70
0
 10
8.8295003746
 20
5.5295657706
 10
8.8243955043
 20
5.5284717471
 10
8.8095122314
 20
5.5273926766
 10
8.7853154137
 20
5.5263142514
 10
8.7525940268
 20
5.525237774
 10
8.7123990018
 20
5.524163876
 10
8.6657823606
 20
5.5230882419
 10
8.6133707353
 20
5.5219959687
 10
8.5572361318
 20
5.5208994613
  0
LWPOLYLINE
  5
744
100
AcDbEntity
  8
0
100
AcDbPolyline
 62
7
  6
CONTINUOUS
 90
9
 70
0
 10
8.1705003746
 20
5.4031982572
 10
8.1756232716
 20
5.4042942157
 10
8.1905221948
 20
5.4053732
 10
8.2146560169
 20
5.4064486721
 10
8.2472704111
 20
5.4075222534
 10
8.287589948
 20
5.4085998611
 10
8.3342219136
 20
5.4096758627
 10
8.3866289622
 20
5.410768038
 10
8.4427625207
 20
5.4118645264
  0
LWPOLYLINE
  5
745
100
AcDbEntity
  8
0
100
AcDbPolyline
 62
7
  6
CONTINUOUS
 90
9
 70
0
 10
8.8295003746
 20
5.5685657705
 10
8.8243643044
 20
5.5674684002
 10
8.8095102665
 20
5.5663925687
 10
8.7854889556
 20
5.5653207929
 10
8.7525486477
 20
5.5642364429
 10
8.7119770466
 20
5.5631534863
 10
8.6653756167
 20
5.5620793795
 10
8.6130723832
 20
5.560989984
 10
8.5570803668
 20
5.5598964819
  0
LWPOLYLINE
  5
746
100
AcDbEntity
  8
0
100
AcDbPolyline
 62
7
  6
CONTINUOUS
 90
20
 70
0
 10
8.1456632835
 20
5.417820197
 10
8.1499692227
 20
5.4186186266
 10
8.1645695391
 20
5.4196771571
 10
8.1889015275
 20
5.4207356876
 10
8.2222592574
 20
5.4217942181
 10
8.263674939
 20
5.4228527486
 10
8.3119470017
 20
5.4239112792
 10
8.3656749545
 20
5.4249698097
 10
8.4233000176
 20
5.4260283402
 10
8.4831503463
 20
5.4270868707
 10
8.5434895357
 20
5.4281454012
 10
8.6025669978
 20
5.4292039317
 10
8.6586687503
 20
5.4302624622
 10
8.7101671436
 20
5.4313209927
 10
8.755568083
 20
5.4323795232
 10
8.7935543756
 20
5.4334380538
 10
8.8230239459
 20
5.4344965843
 10
8.8431218093
 20
5.4355551148
 10
8.8532648774
 20
5.4366136453
 10
8.8543374657
 20
5.4369438308
  0
LWPOLYLINE
  5
747
100
AcDbEntity
  8
0
100
AcDbPolyline
 62
7
  6
CONTINUOUS
 90
6
 70
0
 10
8.2869721024
 20
5.4764521343
 10
8.2467550008
 20
5.4753746127
 10
8.2139045671
 20
5.4742877648
 10
8.1899289246
 20
5.4732079195
 10
8.1753612497
 20
5.4721332626
 10
8.1706756248
 20
5.4712682219
  0
LWPOLYLINE
  5
748
100
AcDbEntity
  8
0
100
AcDbPolyline
 62
7
  6
CONTINUOUS
 90
6
 70
0
 10
8.2869721024
 20
5.4475846208
 10
8.3238063835
 20
5.4484463067
 10
8.3645926967
 20
5.4493196073
 10
8.4084275295
 20
5.4502002146
 10
8.4540284128
 20
5.4510794138
 10
8.5569611652
 20
5.4530266886
  0
LWPOLYLINE
  5
749
100
AcDbEntity
  8
0
100
AcDbPolyline
 62
7
  6
CONTINUOUS
 90
15
 70
0
 10
8.2708091076
 20
5.4620183775
 10
8.3200318098
 20
5.463076908
 10
8.3744758419
 20
5.4641354386
 10
8.432561649
 20
5.4651939691
 10
8.492604019
 20
5.4662524996
 10
8.5528609755
 20
5.4673110301
 10
8.6115843162
 20
5.4683695606
 10
8.6670703327
 20
5.4694280911
 10
8.7177092396
 20
5.4704866216
 10
8.7620318777
 20
5.4715451521
 10
8.7987523386
 20
5.4726036826
 10
8.8268052715
 20
5.4736622132
 10
8.8453767919
 20
5.4747207437
 10
8.8539280945
 20
5.4757792742
 10
8.8543374657
 20
5.4759438308
  0
LWPOLYLINE
  5
74A
100
AcDbEntity
  8
0
100
AcDbPolyline
 62
7
  6
CONTINUOUS
 90
9
 70
0
 10
8.4427625207
 20
5.4407320398
 10
8.3866289622
 20
5.4396355515
 10
8.3342219136
 20
5.4385433762
 10
8.287589948
 20
5.4374673745
 10
8.2472704111
 20
5.4363897668
 10
8.2146560169
 20
5.4353161855
 10
8.1905221948
 20
5.4342407135
 10
8.1756232716
 20
5.4331617292
 10
8.1706756248
 20
5.4322682219
  0
LWPOLYLINE
  5
74B
100
AcDbEntity
  8
0
100
AcDbPolyline
 62
7
  6
CONTINUOUS
 90
9
 70
0
 10
8.5569611652
 20
5.4530266886
 10
8.6127908248
 20
5.4541168246
 10
8.6649198611
 20
5.4552019445
 10
8.7114529468
 20
5.4562730883
 10
8.7522076956
 20
5.4573589393
 10
8.7854328783
 20
5.4584511644
 10
8.8096601204
 20
5.4595333001
 10
8.8244310978
 20
5.4606080642
 10
8.8293251244
 20
5.4614958059
  0
LWPOLYLINE
  5
74C
100
AcDbEntity
  8
0
100
AcDbPolyline
 62
7
  6
CONTINUOUS
 90
11
 70
0
 10
8.4427625207
 20
5.4118645264
 10
8.5539824023
 20
5.4139697626
 10
8.606557973
 20
5.4149923091
 10
8.6560777536
 20
5.4160112093
 10
8.7014222244
 20
5.4170306072
 10
8.7417685106
 20
5.4180617054
 10
8.7757482953
 20
5.4191027631
 10
8.8018941139
 20
5.4201393432
 10
8.8194463347
 20
5.4211609776
 10
8.8283805212
 20
5.4221863683
 10
8.8293251244
 20
5.4224958059
  0
LWPOLYLINE
  5
74D
100
AcDbEntity
  8
0
100
AcDbPolyline
 62
7
  6
CONTINUOUS
 90
6
 70
0
 10
8.5569611652
 20
5.481894202
 10
8.4540284128
 20
5.4799469272
 10
8.4084275295
 20
5.479067728
 10
8.3645926967
 20
5.4781871208
 10
8.3238063835
 20
5.4773138202
 10
8.2869721024
 20
5.4764521343
  0
LWPOLYLINE
  5
74E
100
AcDbEntity
  8
0
100
AcDbPolyline
 62
7
  6
CONTINUOUS
 90
10
 70
0
 10
8.4430198768
 20
5.4898694489
 10
8.5572361318
 20
5.4920319479
 10
8.6133707353
 20
5.4931284552
 10
8.6657823606
 20
5.4942207284
 10
8.7123990018
 20
5.4952963625
 10
8.7525940268
 20
5.4963702606
 10
8.7853154137
 20
5.497446738
 10
8.8095122314
 20
5.4985251631
 10
8.8243955043
 20
5.4996042336
 10
8.8293251244
 20
5.5004958059
  0
LINE
  5
74F
100
AcDbEntity
  8
0
100
AcDbLine
 62
7
  6
CONTINUOUS
 10
8.1456632835
 20
5.6904438308
 11
8.1706756248
 21
5.6759958059
  0
LINE
  5
750
100
AcDbEntity
  8
0
100
AcDbLine
 62
7
  6
CONTINUOUS
 10
8.8543374657
 20
5.281320197
 11
8.8293251244
 21
5.2957682219
  0
LINE
  5
751
100
AcDbEntity
  8
0
100
AcDbLine
 62
7
  6
CONTINUOUS
 10
8.1456632835
 20
5.7294438308
 11
8.1706756248
 21
5.7149958059
  0
LINE
  5
752
100
AcDbEntity
  8
0
100
AcDbLine
 62
7
  6
CONTINUOUS
 10
8.8543374657
 20
5.320320197
 11
8.8293251244
 21
5.3347682219
  0
LINE
  5
753
100
AcDbEntity
  8
0
100
AcDbLine
 62
7
  6
CONTINUOUS
 10
8.1456632835
 20
5.7684438308
 11
8.1706756248
 21
5.7539958059
  0
LINE
  5
754
100
AcDbEntity
  8
0
100
AcDbLine
 62
7
  6
CONTINUOUS
 10
8.8543374657
 20
5.359320197
 11
8.8293251244
 21
5.3737682219
  0
LWPOLYLINE
  5
755
100
AcDbEntity
  8
0
100
AcDbPolyline
 62
7
  6
CONTINUOUS
 90
3
 70
0
 10
8.1456632835
 20
5.9244438308
 10
8.145506272
 20
5.9245962107
 10
8.1456632835
 20
5.924820197
  0
LWPOLYLINE
  5
756
100
AcDbEntity
  8
0
100
AcDbPolyline
 62
7
  6
CONTINUOUS
 90
6
 70
0
 10
8.1705003746
 20
5.442198257
 10
8.1753612497
 20
5.4432657491
 10
8.1899289246
 20
5.444340406
 10
8.2139045671
 20
5.4454202513
 10
8.2467550008
 20
5.4465070993
 10
8.2869721024
 20
5.4475846208
  0
LWPOLYLINE
  5
757
100
AcDbEntity
  8
0
100
AcDbPolyline
 62
7
  6
CONTINUOUS
 90
9
 70
0
 10
8.1705003746
 20
5.4811982502
 10
8.1755560377
 20
5.4822869816
 10
8.1903597169
 20
5.4833642662
 10
8.2147204648
 20
5.4844510991
 10
8.2481522396
 20
5.4855480788
 10
8.2891649886
 20
5.4866385704
 10
8.3359117407
 20
5.4877126336
 10
8.3875493701
 20
5.4887864939
 10
8.4430198768
 20
5.4898694489
  0
LWPOLYLINE
  5
758
100
AcDbEntity
  8
0
100
AcDbPolyline
 62
7
  6
CONTINUOUS
 90
6
 70
0
 10
8.1456632835
 20
5.456820197
 10
8.1515909223
 20
5.4577842555
 10
8.1677492828
 20
5.458842786
 10
8.1935470633
 20
5.4599013165
 10
8.2282358067
 20
5.460959847
 10
8.2708091076
 20
5.4620183775
  0
LWPOLYLINE
  5
759
100
AcDbEntity
  8
0
100
AcDbPolyline
 62
7
  6
CONTINUOUS
 90
10
 70
0
 10
8.1456632835
 20
5.495820197
 10
8.1534606876
 20
5.4969498844
 10
8.1711655876
 20
5.4980084149
 10
8.1984107922
 20
5.4990669454
 10
8.2344058511
 20
5.5001254759
 10
8.2781064591
 20
5.5011840064
 10
8.3282447545
 20
5.5022425369
 10
8.3833661022
 20
5.5033010675
 10
8.4418712964
 20
5.504359598
 10
8.5621947788
 20
5.506476659
  0
LWPOLYLINE
  5
75A
100
AcDbEntity
  8
0
100
AcDbPolyline
 62
7
  6
CONTINUOUS
 90
9
 70
0
 10
8.5570803668
 20
5.5310289684
 10
8.6130723832
 20
5.5321224705
 10
8.6653756167
 20
5.533211866
 10
8.7119770466
 20
5.5342859728
 10
8.7525486477
 20
5.5353689295
 10
8.7854889556
 20
5.5364532795
 10
8.8095102665
 20
5.5375250552
 10
8.8243643044
 20
5.5386008868
 10
8.8293251244
 20
5.5394958059
  0
LWPOLYLINE
  5
75B
100
AcDbEntity
  8
0
100
AcDbPolyline
 62
7
  6
CONTINUOUS
 90
9
 70
0
 10
8.4429865871
 20
5.5967363256
 10
8.3870581209
 20
5.5956441594
 10
8.334807515
 20
5.5945561332
 10
8.2882293196
 20
5.5934831126
 10
8.2475988881
 20
5.5923994016
 10
8.2145482645
 20
5.5913121241
 10
8.1904601161
 20
5.5902373043
 10
8.1756333911
 20
5.5891628139
 10
8.1706756248
 20
5.5882682219
  0
LWPOLYLINE
  5
75C
100
AcDbEntity
  8
0
100
AcDbPolyline
 62
7
  6
CONTINUOUS
 90
10
 70
0
 10
8.5572361318
 20
5.5208994613
 10
8.4430198768
 20
5.5187369623
 10
8.3875493701
 20
5.5176540073
 10
8.3359117407
 20
5.5165801471
 10
8.2891649886
 20
5.5155060839
 10
8.2481522396
 20
5.5144155923
 10
8.2147204648
 20
5.5133186125
 10
8.1903597169
 20
5.5122317796
 10
8.1755560377
 20
5.511154495
 10
8.1706756248
 20
5.5102682219
  0
LWPOLYLINE
  5
75D
100
AcDbEntity
  8
0
100
AcDbPolyline
 62
7
  6
CONTINUOUS
 90
11
 70
0
 10
8.5570803668
 20
5.5598964819
 10
8.4462163882
 20
5.5577980467
 10
8.3935961462
 20
5.5567747717
 10
8.3435995515
 20
5.5557458981
 10
8.2981896174
 20
5.5547241581
 10
8.2578967162
 20
5.5536930121
 10
8.2239846437
 20
5.5526520381
 10
8.1979167973
 20
5.5516157447
 10
8.1804506773
 20
5.5505950583
 10
8.1716168588
 20
5.5495768885
 10
8.1706756248
 20
5.5492682219
  0
LWPOLYLINE
  5
75E
100
AcDbEntity
  8
0
100
AcDbPolyline
 62
7
  6
CONTINUOUS
 90
11
 70
0
 10
8.4429865871
 20
5.5678688122
 10
8.5537409218
 20
5.5699651517
 10
8.6065519876
 20
5.5709921899
 10
8.6566154936
 20
5.5720227171
 10
8.7019902434
 20
5.5730441392
 10
8.7422252358
 20
5.5740743826
 10
8.7760872668
 20
5.5751144449
 10
8.8021176847
 20
5.5761498747
 10
8.8195574372
 20
5.5771695385
 10
8.8283822749
 20
5.5781867695
 10
8.8293251244
 20
5.5784958059
  0
LWPOLYLINE
  5
75F
100
AcDbEntity
  8
0
100
AcDbPolyline
 62
7
  6
CONTINUOUS
 90
9
 70
0
 10
8.5621947788
 20
5.506476659
 10
8.6205221874
 20
5.5075351895
 10
8.6753529622
 20
5.50859372
 10
8.7250963279
 20
5.5096522505
 10
8.7683091074
 20
5.510710781
 10
8.8037375917
 20
5.5117693115
 10
8.8303539136
 20
5.512827842
 10
8.8473858683
 20
5.5138863726
 10
8.8543374657
 20
5.5149438308
  0
LINE
  5
760
100
AcDbEntity
  8
0
100
AcDbLine
 62
7
  6
CONTINUOUS
 10
8.1456632835
 20
5.8074438308
 11
8.1706756248
 21
5.7929958059
  0
LINE
  5
761
100
AcDbEntity
  8
0
100
AcDbLine
 62
7
  6
CONTINUOUS
 10
8.8543374657
 20
5.398320197
 11
8.8293251244
 21
5.4127682219
  0
LINE
  5
762
100
AcDbEntity
  8
0
100
AcDbLine
 62
7
  6
CONTINUOUS
 10
8.1456632835
 20
5.8464438308
 11
8.1706756248
 21
5.8319958059
  0
LINE
  5
763
100
AcDbEntity
  8
0
100
AcDbLine
 62
7
  6
CONTINUOUS
 10
8.8543374657
 20
5.437320197
 11
8.8293251244
 21
5.4517682219
  0
LWPOLYLINE
  5
764
100
AcDbEntity
  8
0
100
AcDbPolyline
 62
7
  6
CONTINUOUS
 90
20
 70
0
 10
8.1456632835
 20
5.573820197
 10
8.1471038883
 20
5.5742226117
 10
8.1579389149
 20
5.5752811422
 10
8.1786979844
 20
5.5763396727
 10
8.2087788251
 20
5.5773982032
 10
8.247308718
 20
5.5784567337
 10
8.2931698162
 20
5.5795152642
 10
8.3450315768
 20
5.5805737947
 10
8.4013893627
 20
5.5816323252
 10
8.4606080962
 20
5.5826908557
 10
8.5209696964
 20
5.5837493863
 10
8.5807229251
 20
5.5848079168
 10
8.6381341943
 20
5.5858664473
 10
8.6915378624
 20
5.5869249778
 10
8.7393845576
 20
5.5879835083
 10
8.7802861299
 20
5.5890420388
 10
8.8130559243
 20
5.5901005693
 10
8.8367432085
 20
5.5911590998
 10
8.8506607563
 20
5.5922176303
 10
8.8543374657
 20
5.5929438308
  0
LWPOLYLINE
  5
765
100
AcDbEntity
  8
0
100
AcDbPolyline
 62
7
  6
CONTINUOUS
 90
5
 70
0
 10
8.1456632835
 20
5.612820197
 10
8.148128121
 20
5.6133882406
 10
8.1605441884
 20
5.6144467711
 10
8.1828087133
 20
5.6155053016
 10
8.214275747
 20
5.6165638321
  0
LWPOLYLINE
  5
766
100
AcDbEntity
  8
0
100
AcDbPolyline
 62
7
  6
CONTINUOUS
 90
9
 70
0
 10
8.8295003746
 20
5.6855657705
 10
8.8244829158
 20
5.6844811782
 10
8.8097506696
 20
5.6834058101
 10
8.7855693653
 20
5.6823238279
 10
8.7524161213
 20
5.6812325575
 10
8.7117745418
 20
5.6801485052
 10
8.6652241803
 20
5.6790760818
 10
8.6129621627
 20
5.6779877736
 10
8.5570228049
 20
5.6768953809
  0
LWPOLYLINE
  5
767
100
AcDbEntity
  8
0
100
AcDbPolyline
 62
7
  6
CONTINUOUS
 90
9
 70
0
 10
8.1705003746
 20
5.6371982571
 10
8.1755320515
 20
5.6382843892
 10
8.1902936111
 20
5.6393606212
 10
8.2144910665
 20
5.6404424528
 10
8.2476068169
 20
5.6415321205
 10
8.2881272897
 20
5.6426130899
 10
8.3346541878
 20
5.6436852811
 10
8.3869443333
 20
5.6447743641
 10
8.4429272431
 20
5.6458676771
  0
LWPOLYLINE
  5
768
100
AcDbEntity
  8
0
100
AcDbPolyline
 62
7
  6
CONTINUOUS
 90
9
 70
0
 10
8.8295003746
 20
5.7245657706
 10
8.82438582
 20
5.7234707071
 10
8.8094925985
 20
5.7223915986
 10
8.7853206561
 20
5.7213144489
 10
8.7526754971
 20
5.7202401646
 10
8.7124217312
 20
5.7191644361
 10
8.6657947216
 20
5.7180885113
 10
8.6133796957
 20
5.7169961484
 10
8.5572408163
 20
5.7158995509
  0
LWPOLYLINE
  5
769
100
AcDbEntity
  8
0
100
AcDbPolyline
 62
7
  6
CONTINUOUS
 90
9
 70
0
 10
8.1705003746
 20
5.5591982571
 10
8.1756333911
 20
5.5602953005
 10
8.1904601161
 20
5.5613697908
 10
8.2145482645
 20
5.5624446106
 10
8.2475988881
 20
5.5635318882
 10
8.2882293196
 20
5.5646155991
 10
8.334807515
 20
5.5656886198
 10
8.3870581209
 20
5.5667766459
 10
8.4429865871
 20
5.5678688122
  0
LWPOLYLINE
  5
76A
100
AcDbEntity
  8
0
100
AcDbPolyline
 62
7
  6
CONTINUOUS
 90
9
 70
0
 10
8.8295003746
 20
5.7635657705
 10
8.8243664163
 20
5.7624686264
 10
8.8095363909
 20
5.7613940039
 10
8.7854578287
 20
5.7603196188
 10
8.7524193637
 20
5.7592326526
 10
8.7117968094
 20
5.7581490528
 10
8.6652153025
 20
5.7570758885
 10
8.6129549971
 20
5.7559876299
 10
8.5570190869
 20
5.7548953098
  0
LWPOLYLINE
  5
76B
100
AcDbEntity
  8
0
100
AcDbPolyline
 62
7
  6
CONTINUOUS
 90
5
 70
0
 10
8.2344255797
 20
5.6309975888
 10
8.2054925316
 20
5.6299523128
 10
8.1848908484
 20
5.6289069792
 10
8.1731474744
 20
5.6278530853
 10
8.1706756248
 20
5.6272682219
  0
LWPOLYLINE
  5
76C
100
AcDbEntity
  8
0
100
AcDbPolyline
 62
7
  6
CONTINUOUS
 90
7
 70
0
 10
8.2344255797
 20
5.6021300754
 10
8.2677026247
 20
5.6030917166
 10
8.3065598521
 20
5.6040537208
 10
8.3502750426
 20
5.6050203929
 10
8.3982553162
 20
5.6059997633
 10
8.4487995329
 20
5.6069798236
 10
8.5539896118
 20
5.6089699003
  0
LWPOLYLINE
  5
76D
100
AcDbEntity
  8
0
100
AcDbPolyline
 62
7
  6
CONTINUOUS
 90
16
 70
0
 10
8.214275747
 20
5.6165638321
 10
8.2540323538
 20
5.6176223626
 10
8.3009250967
 20
5.6186808931
 10
8.3535935022
 20
5.6197394236
 10
8.4105095306
 20
5.6207979541
 10
8.4700219081
 20
5.6218564846
 10
8.5304040344
 20
5.6229150151
 10
8.589904076
 20
5.6239735457
 10
8.6467957905
 20
5.6250320762
 10
8.6994286095
 20
5.6260906067
 10
8.7462755258
 20
5.6271491372
 10
8.7859773952
 20
5.6282076677
 10
8.8173823691
 20
5.6292661982
 10
8.8395793121
 20
5.6303247287
 10
8.8519242364
 20
5.6313832592
 10
8.8543374657
 20
5.6319438308
  0
LWPOLYLINE
  5
76E
100
AcDbEntity
  8
0
100
AcDbPolyline
 62
7
  6
CONTINUOUS
 90
9
 70
0
 10
8.5572408163
 20
5.6870320375
 10
8.6133796957
 20
5.688128635
 10
8.6657947216
 20
5.6892209979
 10
8.7124217312
 20
5.6902969226
 10
8.7526754971
 20
5.6913726512
 10
8.7853206561
 20
5.6924469354
 10
8.8094925985
 20
5.6935240851
 10
8.82438582
 20
5.6946031937
 10
8.8293251244
 20
5.6954958059
  0
LWPOLYLINE
  5
76F
100
AcDbEntity
  8
0
100
AcDbPolyline
 62
7
  6
CONTINUOUS
 90
10
 70
0
 10
8.5539896118
 20
5.6089699003
 10
8.6066020563
 20
5.6099931867
 10
8.6560909872
 20
5.6110114923
 10
8.7014145969
 20
5.6120304257
 10
8.7417530189
 20
5.6130612759
 10
8.7757285286
 20
5.6141020829
 10
8.8018745594
 20
5.615138424
 10
8.8194320321
 20
5.6161598789
 10
8.8283773114
 20
5.6171856348
 10
8.8293251244
 20
5.6174958059
  0
LWPOLYLINE
  5
770
100
AcDbEntity
  8
0
100
AcDbPolyline
 62
7
  6
CONTINUOUS
 90
7
 70
0
 10
8.5539896118
 20
5.6378374138
 10
8.4487995329
 20
5.6358473371
 10
8.3982553162
 20
5.6348672767
 10
8.3502750426
 20
5.6338879063
 10
8.3065598521
 20
5.6329212342
 10
8.2677026247
 20
5.6319592301
 10
8.2344255797
 20
5.6309975888
  0
LWPOLYLINE
  5
771
100
AcDbEntity
  8
0
100
AcDbPolyline
 62
7
  6
CONTINUOUS
 90
10
 70
0
 10
8.4429272431
 20
5.6458676771
 10
8.5570228049
 20
5.6480278675
 10
8.6129621627
 20
5.6491202601
 10
8.6652241803
 20
5.6502085683
 10
8.7117745418
 20
5.6512809917
 10
8.7524161213
 20
5.6523650441
 10
8.7855693653
 20
5.6534563145
 10
8.8097506696
 20
5.6545382966
 10
8.8244829158
 20
5.6556136647
 10
8.8293251244
 20
5.6564958059
  0
LWPOLYLINE
  5
772
100
AcDbEntity
  8
0
100
AcDbPolyline
 62
7
  6
CONTINUOUS
 90
10
 70
0
 10
8.5570228049
 20
5.6768953809
 10
8.4429272431
 20
5.6747351906
 10
8.3869443333
 20
5.6736418775
 10
8.3346541878
 20
5.6725527946
 10
8.2881272897
 20
5.6714806034
 10
8.2476068169
 20
5.670399634
 10
8.2144910665
 20
5.6693099663
 10
8.1902936111
 20
5.6682281346
 10
8.1755320515
 20
5.6671519027
 10
8.1706756248
 20
5.6662682219
  0
LINE
  5
773
100
AcDbEntity
  8
0
100
AcDbLine
 62
7
  6
CONTINUOUS
 10
8.1456632835
 20
5.8854438308
 11
8.1706756248
 21
5.8709958059
  0
LINE
  5
774
100
AcDbEntity
  8
0
100
AcDbLine
 62
7
  6
CONTINUOUS
 10
8.8543374657
 20
5.476320197
 11
8.8293251244
 21
5.4907682219
  0
LINE
  5
775
100
AcDbEntity
  8
0
100
AcDbLine
 62
7
  6
CONTINUOUS
 10
8.1456632835
 20
5.9244438308
 11
8.1706756248
 21
5.9099958059
  0
LINE
  5
776
100
AcDbEntity
  8
0
100
AcDbLine
 62
7
  6
CONTINUOUS
 10
8.8543374657
 20
5.515320197
 11
8.8293251244
 21
5.5297682219
  0
LINE
  5
777
100
AcDbEntity
  8
0
100
AcDbLine
 62
7
  6
CONTINUOUS
 10
8.1456632835
 20
5.9634438308
 11
8.1706756248
 21
5.9489958059
  0
LINE
  5
778
100
AcDbEntity
  8
0
100
AcDbLine
 62
7
  6
CONTINUOUS
 10
8.8543374657
 20
5.554320197
 11
8.8293251244
 21
5.5687682219
  0
LWPOLYLINE
  5
779
100
AcDbEntity
  8
0
100
AcDbPolyline
 62
7
  6
CONTINUOUS
 90
9
 70
0
 10
8.8295003746
 20
5.8805657705
 10
8.8244635019
 20
5.8794790765
 10
8.8096929352
 20
5.878402623
 10
8.7854895241
 20
5.8773208144
 10
8.7523867688
 20
5.8762316974
 10
8.711910078
 20
5.8751518386
 10
8.6653821578
 20
5.874079522
 10
8.6130785359
 20
5.8729901074
 10
8.5570835292
 20
5.8718965424
  0
LWPOLYLINE
  5
77A
100
AcDbEntity
  8
0
100
AcDbPolyline
 62
7
  6
CONTINUOUS
 90
20
 70
0
 10
8.1456632835
 20
5.651820197
 10
8.149402885
 20
5.6525538694
 10
8.163391153
 20
5.6536124
 10
8.1871452811
 20
5.6546709305
 10
8.2199761035
 20
5.655729461
 10
8.2609311176
 20
5.6567879915
 10
8.3088221178
 20
5.657846522
 10
8.3622596686
 20
5.6589050525
 10
8.4196934155
 20
5.659963583
 10
8.4794570644
 20
5.6610221135
 10
8.5398167253
 20
5.662080644
 10
8.599021216
 20
5.6631391746
 10
8.655352869
 20
5.6641977051
 10
8.7071773647
 20
5.6652562356
 10
8.7529911472
 20
5.6663147661
 10
8.7914650463
 20
5.6673732966
 10
8.8214828396
 20
5.6684318271
 10
8.8421736373
 20
5.6694903576
 10
8.8529371484
 20
5.6705488881
 10
8.8543374657
 20
5.6709438308
  0
LWPOLYLINE
  5
77B
100
AcDbEntity
  8
0
100
AcDbPolyline
 62
7
  6
CONTINUOUS
 90
20
 70
0
 10
8.1456632835
 20
5.690820197
 10
8.1509272727
 20
5.6917194983
 10
8.1664777817
 20
5.6927780288
 10
8.1917046001
 20
5.6938365594
 10
8.2258758358
 20
5.6948950899
 10
8.2680000975
 20
5.6959536204
 10
8.3168552568
 20
5.6970121509
 10
8.3710239056
 20
5.6980706814
 10
8.4289344785
 20
5.6991292119
 10
8.4889068476
 20
5.7001877424
 10
8.549201067
 20
5.7012462729
 10
8.6080678536
 20
5.7023048034
 10
8.6637993373
 20
5.703363334
 10
8.7147786109
 20
5.7044218645
 10
8.7595266405
 20
5.705480395
 10
8.796745176
 20
5.7065389255
 10
8.8253544161
 20
5.707597456
 10
8.8445243367
 20
5.7086559865
 10
8.8536987713
 20
5.709714517
 10
8.8543374657
 20
5.7099438308
  0
LWPOLYLINE
  5
77C
100
AcDbEntity
  8
0
100
AcDbPolyline
 62
7
  6
CONTINUOUS
 90
9
 70
0
 10
8.1456632835
 20
5.729820197
 10
8.1527001987
 20
5.7308851272
 10
8.1698018768
 20
5.7319436577
 10
8.1964834242
 20
5.7330021882
 10
8.2319707434
 20
5.7340607188
 10
8.2752342604
 20
5.7351192493
 10
8.3250187942
 20
5.7361777798
 10
8.3798799733
 20
5.7372363103
 10
8.4382261401
 20
5.7382948408
  0
LWPOLYLINE
  5
77D
100
AcDbEntity
  8
0
100
AcDbPolyline
 62
7
  6
CONTINUOUS
 90
7
 70
0
 10
8.1963962834
 20
5.7566755299
 10
8.2218176435
 20
5.7577090769
 10
8.2552645303
 20
5.7587519264
 10
8.2953764784
 20
5.7597893219
 10
8.3408589765
 20
5.7608195785
 10
8.3914666448
 20
5.7618648225
 10
8.4452832109
 20
5.7629127111
  0
LWPOLYLINE
  5
77E
100
AcDbEntity
  8
0
100
AcDbPolyline
 62
7
  6
CONTINUOUS
 90
17
 70
0
 10
8.1733610716
 20
5.7711092866
 10
8.2014783508
 20
5.7721678171
 10
8.2382564868
 20
5.7732263477
 10
8.2826284557
 20
5.7742848782
 10
8.3333069177
 20
5.7753434087
 10
8.3888215661
 20
5.7764019392
 10
8.4475617847
 20
5.7774604697
 10
8.5078233756
 20
5.7785190002
 10
8.567858002
 20
5.7795775307
 10
8.625923912
 20
5.7806360612
 10
8.680336471
 20
5.7816945917
 10
8.7295170371
 20
5.7827531222
 10
8.7720387613
 20
5.7838116528
 10
8.8066679839
 20
5.7848701833
 10
8.8324000263
 20
5.7859287138
 10
8.8484883386
 20
5.7869872443
 10
8.8543374657
 20
5.7879438308
  0
LWPOLYLINE
  5
77F
100
AcDbEntity
  8
0
100
AcDbPolyline
 62
7
  6
CONTINUOUS
 90
9
 70
0
 10
8.5570190869
 20
5.7260277964
 10
8.6129549971
 20
5.7271201164
 10
8.6652153025
 20
5.728208375
 10
8.7117968094
 20
5.7292815393
 10
8.7524193637
 20
5.7303651391
 10
8.7854578287
 20
5.7314521053
 10
8.8095363909
 20
5.7325264904
 10
8.8243664163
 20
5.733601113
 10
8.8293251244
 20
5.7344958059
  0
LWPOLYLINE
  5
780
100
AcDbEntity
  8
0
100
AcDbPolyline
 62
7
  6
CONTINUOUS
 90
11
 70
0
 10
8.5572408163
 20
5.7158995509
 10
8.4460015655
 20
5.7137939447
 10
8.3933219172
 20
5.7127693126
 10
8.3438657202
 20
5.7117515934
 10
8.2985881261
 20
5.7107336491
 10
8.2582683232
 20
5.7097033228
 10
8.2243058795
 20
5.7086631028
 10
8.1981644351
 20
5.7076274006
 10
8.1805984569
 20
5.706606431
 10
8.1716307426
 20
5.7055800584
 10
8.1706756248
 20
5.7052682219
  0
LWPOLYLINE
  5
781
100
AcDbEntity
  8
0
100
AcDbPolyline
 62
7
  6
CONTINUOUS
 90
11
 70
0
 10
8.5570190869
 20
5.7548953098
 10
8.4462563359
 20
5.7527988095
 10
8.3934653754
 20
5.7517721686
 10
8.3434103191
 20
5.7507418474
 10
8.2980305057
 20
5.7497203655
 10
8.2577864342
 20
5.7486899487
 10
8.2239183406
 20
5.7476497506
 10
8.1978853041
 20
5.7466142588
 10
8.1804435152
 20
5.745594505
 10
8.1716184077
 20
5.7445772431
 10
8.1706756248
 20
5.7442682219
  0
LWPOLYLINE
  5
782
100
AcDbEntity
  8
0
100
AcDbPolyline
 62
7
  6
CONTINUOUS
 90
11
 70
0
 10
8.4452832109
 20
5.7629127111
 10
8.5537455288
 20
5.7649652396
 10
8.606493542
 20
5.7659910264
 10
8.6565371372
 20
5.7670210395
 10
8.7019258608
 20
5.7680426043
 10
8.7421815794
 20
5.7690731696
 10
8.7760620265
 20
5.7701135739
 10
8.8021066709
 20
5.7711493549
 10
8.8195558788
 20
5.7721694181
 10
8.8283822256
 20
5.7731867582
 10
8.8293251244
 20
5.7734958059
  0
LWPOLYLINE
  5
783
100
AcDbEntity
  8
0
100
AcDbPolyline
 62
7
  6
CONTINUOUS
 90
8
 70
0
 10
8.5537455288
 20
5.7938327531
 10
8.4452832109
 20
5.7917802245
 10
8.3914666448
 20
5.790732336
 10
8.3408589765
 20
5.789687092
 10
8.2953764784
 20
5.7886568353
 10
8.2552645303
 20
5.7876194398
 10
8.2218176435
 20
5.7865765904
 10
8.1963962834
 20
5.7855430434
  0
LWPOLYLINE
  5
784
100
AcDbEntity
  8
0
100
AcDbPolyline
 62
7
  6
CONTINUOUS
 90
10
 70
0
 10
8.4382261401
 20
5.7382948408
 10
8.5585503782
 20
5.7404119018
 10
8.6170375477
 20
5.7414704323
 10
8.6721291816
 20
5.7425289628
 10
8.7222269361
 20
5.7435874934
 10
8.7658773525
 20
5.7446460239
 10
8.8018140249
 20
5.7457045544
 10
8.8289943422
 20
5.7467630849
 10
8.8466297369
 20
5.7478216154
 10
8.8543374657
 20
5.7489438308
  0
LINE
  5
785
100
AcDbEntity
  8
0
100
AcDbLine
 62
7
  6
CONTINUOUS
 10
8.1456632835
 20
6.0024438308
 11
8.1706756248
 21
5.9879958059
  0
LINE
  5
786
100
AcDbEntity
  8
0
100
AcDbLine
 62
7
  6
CONTINUOUS
 10
8.8543374657
 20
5.593320197
 11
8.8293251244
 21
5.6077682219
  0
LINE
  5
787
100
AcDbEntity
  8
0
100
AcDbLine
 62
7
  6
CONTINUOUS
 10
8.1456632835
 20
6.0414438308
 11
8.1706756248
 21
6.0269958059
  0
LINE
  5
788
100
AcDbEntity
  8
0
100
AcDbLine
 62
7
  6
CONTINUOUS
 10
8.8543374657
 20
5.632320197
 11
8.8293251244
 21
5.6467682219
  0
LINE
  5
789
100
AcDbEntity
  8
0
100
AcDbLine
 62
7
  6
CONTINUOUS
 10
8.1456632835
 20
6.0804438308
 11
8.1706756248
 21
6.0659958059
  0
LINE
  5
78A
100
AcDbEntity
  8
0
100
AcDbLine
 62
7
  6
CONTINUOUS
 10
8.8543374657
 20
5.671320197
 11
8.8293251244
 21
5.6857682219
  0
LWPOLYLINE
  5
78B
100
AcDbEntity
  8
0
100
AcDbPolyline
 62
7
  6
CONTINUOUS
 90
9
 70
0
 10
8.1705003746
 20
5.832198257
 10
8.1755122204
 20
5.8332822413
 10
8.1902341635
 20
5.8343573383
 10
8.2144071588
 20
5.835439285
 10
8.2475702258
 20
5.8365310482
 10
8.2882522934
 20
5.837616164
 10
8.3348179477
 20
5.8386888469
 10
8.3870654266
 20
5.8397767924
 10
8.4429904114
 20
5.8408688853
  0
LWPOLYLINE
  5
78C
100
AcDbEntity
  8
0
100
AcDbPolyline
 62
7
  6
CONTINUOUS
 90
9
 70
0
 10
8.1705003746
 20
5.7931982572
 10
8.1756121643
 20
5.7942930239
 10
8.1905038163
 20
5.7953721913
 10
8.2146829703
 20
5.7964496873
 10
8.2473430431
 20
5.7975243853
 10
8.2875821589
 20
5.7985996691
 10
8.3342051354
 20
5.799675497
 10
8.3866165362
 20
5.8007677887
 10
8.4427560387
 20
5.8018644024
  0
LWPOLYLINE
  5
78D
100
AcDbEntity
  8
0
100
AcDbPolyline
 62
7
  6
CONTINUOUS
 90
9
 70
0
 10
8.8295003746
 20
5.9195657706
 10
8.8243778932
 20
5.9184698566
 10
8.8094797695
 20
5.9173908944
 10
8.7853411565
 20
5.916315221
 10
8.7527261683
 20
5.915241652
 10
8.7124141264
 20
5.9141642487
 10
8.6657811224
 20
5.9130882149
 10
8.613369645
 20
5.9119959468
 10
8.5572355718
 20
5.9108994506
  0
LWPOLYLINE
  5
78E
100
AcDbEntity
  8
0
100
AcDbPolyline
 62
7
  6
CONTINUOUS
 90
9
 70
0
 10
8.8295003746
 20
5.9585657705
 10
8.8243670149
 20
5.9574686906
 10
8.8095471027
 20
5.9563945926
 10
8.7854364787
 20
5.9553188136
 10
8.7523594964
 20
5.9542308983
 10
8.711718038
 20
5.953147116
 10
8.665145667
 20
5.9520743725
 10
8.6129040225
 20
5.9509866077
 10
8.5569924785
 20
5.9498948009
  0
LWPOLYLINE
  5
78F
100
AcDbEntity
  8
0
100
AcDbPolyline
 62
7
  6
CONTINUOUS
 90
4
 70
0
 10
8.1963962834
 20
5.7855430434
 10
8.1796943148
 20
5.7845355018
 10
8.1713551591
 20
5.7835129629
 10
8.1706756248
 20
5.7832682219
  0
LWPOLYLINE
  5
790
100
AcDbEntity
  8
0
100
AcDbPolyline
 62
7
  6
CONTINUOUS
 90
9
 70
0
 10
8.4427560387
 20
5.8307319158
 10
8.3866165362
 20
5.8296353022
 10
8.3342051354
 20
5.8285430105
 10
8.2875821589
 20
5.8274671826
 10
8.2473430431
 20
5.8263918988
 10
8.2146829703
 20
5.8253172007
 10
8.1905038163
 20
5.8242397047
 10
8.1756121643
 20
5.8231605373
 10
8.1706756248
 20
5.8222682219
  0
LWPOLYLINE
  5
791
100
AcDbEntity
  8
0
100
AcDbPolyline
 62
7
  6
CONTINUOUS
 90
9
 70
0
 10
8.5572355718
 20
5.8820319372
 10
8.613369645
 20
5.8831284333
 10
8.6657811224
 20
5.8842207015
 10
8.7124141264
 20
5.8852967352
 10
8.7527261683
 20
5.8863741386
 10
8.7853411565
 20
5.8874477076
 10
8.8094797695
 20
5.888523381
 10
8.8243778932
 20
5.8896023432
 10
8.8293251244
 20
5.8904958059
  0
LWPOLYLINE
  5
792
100
AcDbEntity
  8
0
100
AcDbPolyline
 62
7
  6
CONTINUOUS
 90
11
 70
0
 10
8.4427560387
 20
5.8018644024
 10
8.5539989744
 20
5.8039700791
 10
8.6067008254
 20
5.8049951531
 10
8.6561556595
 20
5.8060128758
 10
8.7014134853
 20
5.8070303992
 10
8.7417224442
 20
5.8080604284
 10
8.7756796008
 20
5.8091003998
 10
8.8018215979
 20
5.8101359361
 10
8.8193911412
 20
5.811156742
 10
8.8283669053
 20
5.812183264
 10
8.8293251244
 20
5.8124958059
  0
LWPOLYLINE
  5
793
100
AcDbEntity
  8
0
100
AcDbPolyline
 62
7
  6
CONTINUOUS
 90
10
 70
0
 10
8.4429904114
 20
5.8408688853
 10
8.5570835292
 20
5.8430290289
 10
8.6130785359
 20
5.8441225939
 10
8.6653821578
 20
5.8452120085
 10
8.711910078
 20
5.8462843252
 10
8.7523867688
 20
5.8473641839
 10
8.7854895241
 20
5.8484533009
 10
8.8096929352
 20
5.8495351095
 10
8.8244635019
 20
5.8506115631
 10
8.8293251244
 20
5.8514958059
  0
LWPOLYLINE
  5
794
100
AcDbEntity
  8
0
100
AcDbPolyline
 62
7
  6
CONTINUOUS
 90
10
 70
0
 10
8.5570835292
 20
5.8718965424
 10
8.4429904114
 20
5.8697363988
 10
8.3870654266
 20
5.8686443059
 10
8.3348179477
 20
5.8675563604
 10
8.2882522934
 20
5.8664836775
 10
8.2475702258
 20
5.8653985616
 10
8.2144071588
 20
5.8643067985
 10
8.1902341635
 20
5.8632248518
 10
8.1755122204
 20
5.8621497547
 10
8.1706756248
 20
5.8612682219
  0
LINE
  5
795
100
AcDbEntity
  8
0
100
AcDbLine
 62
7
  6
CONTINUOUS
 10
8.1456632835
 20
6.1194438308
 11
8.1706756248
 21
6.1049958059
  0
LINE
  5
796
100
AcDbEntity
  8
0
100
AcDbLine
 62
7
  6
CONTINUOUS
 10
8.8543374657
 20
5.710320197
 11
8.8293251244
 21
5.7247682219
  0
LINE
  5
797
100
AcDbEntity
  8
0
100
AcDbLine
 62
7
  6
CONTINUOUS
 10
8.1456632835
 20
6.1584438308
 11
8.1706756248
 21
6.1439958059
  0
LINE
  5
798
100
AcDbEntity
  8
0
100
AcDbLine
 62
7
  6
CONTINUOUS
 10
8.8543374657
 20
5.749320197
 11
8.8293251244
 21
5.7637682219
  0
LINE
  5
799
100
AcDbEntity
  8
0
100
AcDbLine
 62
7
  6
CONTINUOUS
 10
8.1456632835
 20
6.1974438308
 11
8.1706756248
 21
6.1829958059
  0
LINE
  5
79A
100
AcDbEntity
  8
0
100
AcDbLine
 62
7
  6
CONTINUOUS
 10
8.8543374657
 20
5.788320197
 11
8.8293251244
 21
5.8027682219
  0
LWPOLYLINE
  5
79B
100
AcDbEntity
  8
0
100
AcDbPolyline
 62
7
  6
CONTINUOUS
 90
20
 70
0
 10
8.1456632835
 20
5.846820197
 10
8.1476977974
 20
5.8473234834
 10
8.159496704
 20
5.8483820139
 10
8.1811744582
 20
5.8494405444
 10
8.2121021349
 20
5.8504990749
 10
8.2513824465
 20
5.8515576054
 10
8.2978757746
 20
5.8526161359
 10
8.3502332337
 20
5.8536746665
 10
8.4069358052
 20
5.854733197
 10
8.4663384084
 20
5.8557917275
 10
8.5267176278
 20
5.856850258
 10
8.5863217142
 20
5.8579087885
 10
8.6434214065
 20
5.858967319
 10
8.6963601026
 20
5.8600258495
 10
8.7436019208
 20
5.86108438
 10
8.7837762601
 20
5.8621429105
 10
8.8157175641
 20
5.8632014411
 10
8.8384991374
 20
5.8642599716
 10
8.8514600304
 20
5.8653185021
 10
8.8543374657
 20
5.8659438308
  0
LINE
  5
79C
100
AcDbEntity
  8
0
100
AcDbLine
 62
7
  6
CONTINUOUS
 10
8.1705003746
 20
5.9101983834
 11
8.1749630248
 21
5.9112209844
  0
LWPOLYLINE
  5
79D
100
AcDbEntity
  8
0
100
AcDbPolyline
 62
7
  6
CONTINUOUS
 90
9
 70
0
 10
8.8295003746
 20
6.0755657706
 10
8.8244457731
 20
6.0744771608
 10
8.8096418535
 20
6.0733998069
 10
8.7854246982
 20
6.0723183694
 10
8.7523833947
 20
6.0712315985
 10
8.7120659384
 20
6.0701556738
 10
8.6655155119
 20
6.0690824268
 10
8.6131759407
 20
6.067992061
 10
8.5571343902
 20
6.0668975152
  0
LWPOLYLINE
  5
79E
100
AcDbEntity
  8
0
100
AcDbPolyline
 62
7
  6
CONTINUOUS
 90
10
 70
0
 10
8.8295003746
 20
6.0365657788
 10
8.8244357519
 20
6.0354760795
 10
8.8096263383
 20
6.0343989522
 10
8.7852652701
 20
6.0333123636
 10
8.7518394543
 20
6.0322156844
 10
8.7108402637
 20
6.0311255678
 10
8.6641153282
 20
6.030051966
 10
8.6124704494
 20
6.0289779161
 10
8.5569774703
 20
6.0278945139
 10
8.442763188
 20
6.0257320526
  0
LWPOLYLINE
  5
79F
100
AcDbEntity
  8
0
100
AcDbPolyline
 62
7
  6
CONTINUOUS
 90
20
 70
0
 10
8.1456632835
 20
5.885820197
 10
8.1488747075
 20
5.8864891123
 10
8.1622494047
 20
5.8875476428
 10
8.1854230868
 20
5.8886061733
 10
8.2177234284
 20
5.8896647038
 10
8.2582133172
 20
5.8907232343
 10
8.3057180423
 20
5.8917817648
 10
8.3588593748
 20
5.8928402953
 10
8.4160955543
 20
5.8938988259
 10
8.4757660186
 20
5.8949573564
 10
8.5361395811
 20
5.8960158869
 10
8.5954646564
 20
5.8970744174
 10
8.6520200786
 20
5.8981329479
 10
8.7041650359
 20
5.8991914784
 10
8.7503866751
 20
5.9002500089
 10
8.789343993
 20
5.9013085394
 10
8.819906742
 20
5.9023670699
 10
8.8411882219
 20
5.9034256005
 10
8.8525710046
 20
5.904484131
 10
8.8543374657
 20
5.9049438308
  0
LINE
  5
7A0
100
AcDbEntity
  8
0
100
AcDbLine
 62
7
  6
CONTINUOUS
 10
8.1749630248
 20
5.9400884979
 11
8.1706756248
 21
5.9392682219
  0
LINE
  5
7A1
100
AcDbEntity
  8
0
100
AcDbLine
 62
7
  6
CONTINUOUS
 10
8.1456632835
 20
5.924820197
 11
8.1503016174
 21
5.9256547412
  0
LWPOLYLINE
  5
7A2
100
AcDbEntity
  8
0
100
AcDbPolyline
 62
7
  6
CONTINUOUS
 90
10
 70
0
 10
8.1749630248
 20
5.9112209844
 10
8.1871648943
 20
5.9121807701
 10
8.2070384468
 20
5.9131490739
 10
8.2344119679
 20
5.9141296421
 10
8.2683997765
 20
5.9151102068
 10
8.3076330195
 20
5.916078657
 10
8.3514264632
 20
5.9170447178
 10
8.3992016867
 20
5.9180184976
 10
8.4492415915
 20
5.9189882525
 10
8.5569924779
 20
5.9210272874
  0
LWPOLYLINE
  5
7A3
100
AcDbEntity
  8
0
100
AcDbPolyline
 62
7
  6
CONTINUOUS
 90
19
 70
0
 10
8.1503016174
 20
5.9256547412
 10
8.1652425824
 20
5.9267132717
 10
8.1898956929
 20
5.9277718022
 10
8.2235457016
 20
5.9288303327
 10
8.2652163391
 20
5.9298888632
 10
8.3136986379
 20
5.9309473937
 10
8.3675860076
 20
5.9320059242
 10
8.4253150431
 20
5.9330644547
 10
8.4852108835
 20
5.9341229853
 10
8.5455358034
 20
5.9351815158
 10
8.6045396286
 20
5.9362400463
 10
8.6605105135
 20
5.9372985768
 10
8.711824605
 20
5.9383571073
 10
8.7569931556
 20
5.9394156378
 10
8.7947057146
 20
5.9404741683
 10
8.8238681481
 20
5.9415326988
 10
8.8436343823
 20
5.9425912293
 10
8.8534309503
 20
5.9436497599
 10
8.8543374657
 20
5.9439438308
  0
LWPOLYLINE
  5
7A4
100
AcDbEntity
  8
0
100
AcDbPolyline
 62
7
  6
CONTINUOUS
 90
9
 70
0
 10
8.5569924779
 20
5.9210272874
 10
8.6129040214
 20
5.9221190943
 10
8.6651456656
 20
5.923206859
 10
8.7117180364
 20
5.9242796025
 10
8.7523594947
 20
5.9253633848
 10
8.785436477
 20
5.9264513001
 10
8.8095471014
 20
5.9275270791
 10
8.8243670142
 20
5.928601177
 10
8.8293251244
 20
5.9294958059
  0
LWPOLYLINE
  5
7A5
100
AcDbEntity
  8
0
100
AcDbPolyline
 62
7
  6
CONTINUOUS
 90
9
 70
0
 10
8.4429025629
 20
5.9867347185
 10
8.3868971737
 20
5.9856409317
 10
8.3345877249
 20
5.984551347
 10
8.2879826282
 20
5.9834770443
 10
8.2474232958
 20
5.9823942534
 10
8.2145082947
 20
5.9813106163
 10
8.1904959697
 20
5.9802392739
 10
8.1756361742
 20
5.9791631121
 10
8.1706756248
 20
5.9782682219
  0
LWPOLYLINE
  5
7A6
100
AcDbEntity
  8
0
100
AcDbPolyline
 62
7
  6
CONTINUOUS
 90
11
 70
0
 10
8.5572355718
 20
5.9108994506
 10
8.4460149376
 20
5.9087942001
 10
8.3934267608
 20
5.9077713999
 10
8.3439194604
 20
5.9067527429
 10
8.2985802363
 20
5.9057334613
 10
8.2582342591
 20
5.9047023784
 10
8.2242560575
 20
5.9036613887
 10
8.1981122316
 20
5.9026249477
 10
8.1805589561
 20
5.9016033992
 10
8.1716211453
 20
5.9005778692
 10
8.1706756248
 20
5.9002682219
  0
LWPOLYLINE
  5
7A7
100
AcDbEntity
  8
0
100
AcDbPolyline
 62
7
  6
CONTINUOUS
 90
10
 70
0
 10
8.5569924785
 20
5.9498948009
 10
8.4492415915
 20
5.9478557659
 10
8.3992016867
 20
5.9468860111
 10
8.3514264632
 20
5.9459122313
 10
8.3076330195
 20
5.9449461705
 10
8.2683997765
 20
5.9439777203
 10
8.2344119679
 20
5.9429971556
 10
8.2070384468
 20
5.9420165874
 10
8.1871648943
 20
5.9410482835
 10
8.1749630248
 20
5.9400884979
  0
LWPOLYLINE
  5
7A8
100
AcDbEntity
  8
0
100
AcDbPolyline
 62
7
  6
CONTINUOUS
 90
11
 70
0
 10
8.4429025629
 20
5.9578672051
 10
8.5537981729
 20
5.9599662448
 10
8.6063779508
 20
5.9609887256
 10
8.6563582066
 20
5.9620172096
 10
8.7017728612
 20
5.9630389578
 10
8.7420741874
 20
5.9640701869
 10
8.7759961191
 20
5.9651113004
 10
8.8020740565
 20
5.9661478163
 10
8.8195472113
 20
5.9671687486
 10
8.8283848546
 20
5.9681873602
 10
8.8293251244
 20
5.9684958059
  0
LINE
  5
7A9
100
AcDbEntity
  8
0
100
AcDbLine
 62
7
  6
CONTINUOUS
 10
8.1456632835
 20
6.2364438308
 11
8.1706756248
 21
6.2219958059
  0
LINE
  5
7AA
100
AcDbEntity
  8
0
100
AcDbLine
 62
7
  6
CONTINUOUS
 10
8.8543374657
 20
5.827320197
 11
8.8293251244
 21
5.8417682219
  0
LINE
  5
7AB
100
AcDbEntity
  8
0
100
AcDbLine
 62
7
  6
CONTINUOUS
 10
8.1456632835
 20
6.2754438308
 11
8.1706756248
 21
6.2609958059
  0
LINE
  5
7AC
100
AcDbEntity
  8
0
100
AcDbLine
 62
7
  6
CONTINUOUS
 10
8.8543374657
 20
5.866320197
 11
8.8293251244
 21
5.8807682219
  0
LINE
  5
7AD
100
AcDbEntity
  8
0
100
AcDbLine
 62
7
  6
CONTINUOUS
 10
8.1456632835
 20
6.3144438308
 11
8.1706756248
 21
6.2999958059
  0
LINE
  5
7AE
100
AcDbEntity
  8
0
100
AcDbLine
 62
7
  6
CONTINUOUS
 10
8.8543374657
 20
5.905320197
 11
8.8293251244
 21
5.9197682219
  0
LWPOLYLINE
  5
7AF
100
AcDbEntity
  8
0
100
AcDbPolyline
 62
7
  6
CONTINUOUS
 90
7
 70
0
 10
8.7050613411
 20
4.1515619761
 10
8.6850578886
 20
4.1452794232
 10
8.6680695503
 20
4.1392406632
 10
8.6543663279
 20
4.1336796887
 10
8.6441660117
 20
4.1289449929
 10
8.6376307188
 20
4.1255213842
 10
8.6348643171
 20
4.1239482572
  0
LINE
  5
7B0
100
AcDbEntity
  8
0
100
AcDbLine
 62
7
  6
CONTINUOUS
 10
8.6697060021
 20
4.2070439392
 11
8.7114514898
 21
4.2198887046
  0
LWPOLYLINE
  5
7B1
100
AcDbEntity
  8
0
100
AcDbPolyline
 62
7
  6
CONTINUOUS
 90
4
 70
0
 10
8.7114514898
 20
4.1639482572
 10
8.6971976209
 20
4.1597170442
 10
8.6832812178
 20
4.1555878317
 10
8.6697060021
 20
4.1515619761
  0
LWPOLYLINE
  5
7B2
100
AcDbEntity
  8
0
100
AcDbPolyline
 62
7
  6
CONTINUOUS
 90
4
 70
0
 10
8.7050613411
 20
4.1515619761
 10
8.7186264667
 20
4.1555848386
 10
8.7325427352
 20
4.1597140096
 10
8.7468068289
 20
4.1639482572
  0
LWPOLYLINE
  5
7B3
100
AcDbEntity
  8
0
100
AcDbPolyline
 62
7
  6
CONTINUOUS
 90
9
 70
0
 10
8.8295003746
 20
6.1535657705
 10
8.8244779292
 20
6.152480638
 10
8.8097538844
 20
6.1514059877
 10
8.7855923676
 20
6.1503246966
 10
8.752430813
 20
6.1492329881
 10
8.7117267972
 20
6.1481473313
 10
8.6651462719
 20
6.1470743856
 10
8.6129043776
 20
6.1459866149
 10
8.5569926685
 20
6.1448948045
  0
LWPOLYLINE
  5
7B4
100
AcDbEntity
  8
0
100
AcDbPolyline
 62
7
  6
CONTINUOUS
 90
9
 70
0
 10
8.1705003746
 20
5.9881982571
 10
8.1756020437
 20
5.9892919368
 10
8.1904824263
 20
5.9903710166
 10
8.2146841226
 20
5.9914497307
 10
8.2474317242
 20
5.9925269872
 10
8.2876126806
 20
5.9936004212
 10
8.334223949
 20
5.9946759071
 10
8.3866302131
 20
5.9957680631
 10
8.442763188
 20
5.9968645391
  0
LWPOLYLINE
  5
7B5
100
AcDbEntity
  8
0
100
AcDbPolyline
 62
7
  6
CONTINUOUS
 90
9
 70
0
 10
8.1705003746
 20
6.0271982571
 10
8.1755968119
 20
6.0282913744
 10
8.1903934389
 20
6.0293661233
 10
8.2146448985
 20
6.0304482532
 10
8.2478917799
 20
6.0315404642
 10
8.2886664589
 20
6.03262634
 10
8.3351841688
 20
6.033696817
 10
8.3872585329
 20
6.0347806642
 10
8.4430508456
 20
6.0358700412
  0
LWPOLYLINE
  5
7B6
100
AcDbEntity
  8
0
100
AcDbPolyline
 62
7
  6
CONTINUOUS
 90
9
 70
0
 10
8.8295003746
 20
6.1145657706
 10
8.8243753196
 20
6.1134695807
 10
8.8094766542
 20
6.1123907235
 10
8.7853530597
 20
6.1113156695
 10
8.752737402
 20
6.1102419819
 10
8.7124031411
 20
6.109163978
 10
8.6657690116
 20
6.1080879509
 10
8.6133607412
 20
6.1069957682
 10
8.5572309235
 20
6.1058993617
  0
LWPOLYLINE
  5
7B7
100
AcDbEntity
  8
0
100
AcDbPolyline
 62
7
  6
CONTINUOUS
 90
9
 70
0
 10
8.1705003746
 20
5.9491982571
 10
8.1756361742
 20
5.9502955986
 10
8.1904959697
 20
5.9513717604
 10
8.2145082947
 20
5.9524431029
 10
8.2474232958
 20
5.95352674
 10
8.2879826282
 20
5.9546095308
 10
8.3345877249
 20
5.9556838335
 10
8.3868971737
 20
5.9567734182
 10
8.4429025629
 20
5.9578672051
  0
LWPOLYLINE
  5
7B8
100
AcDbEntity
  8
0
100
AcDbPolyline
 62
7
  6
CONTINUOUS
 90
20
 70
0
 10
8.1456632835
 20
5.963820197
 10
8.1519775111
 20
5.9648203701
 10
8.168474106
 20
5.9658789006
 10
8.194589092
 20
5.9669374311
 10
8.2295648091
 20
5.9679959616
 10
8.272386526
 20
5.9690544921
 10
8.3218118795
 20
5.9701130226
 10
8.3764069188
 20
5.9711715531
 10
8.4345877076
 20
5.9722300836
 10
8.4946662786
 20
5.9732886142
 10
8.5548996047
 20
5.9743471447
 10
8.6135401694
 20
5.9754056752
 10
8.6688866659
 20
5.9764642057
 10
8.7193333564
 20
5.9775227362
 10
8.7634166586
 20
5.9785812667
 10
8.7998576076
 20
5.9796397972
 10
8.827598962
 20
5.9806983277
 10
8.8458358771
 20
5.9817568582
 10
8.8540392551
 20
5.9828153887
 10
8.8543374657
 20
5.9829438308
  0
LWPOLYLINE
  5
7B9
100
AcDbEntity
  8
0
100
AcDbPolyline
 62
7
  6
CONTINUOUS
 90
9
 70
0
 10
8.442763188
 20
6.0257320526
 10
8.3866302131
 20
6.0246355766
 10
8.334223949
 20
6.0235434206
 10
8.2876126806
 20
6.0224679347
 10
8.2474317242
 20
6.0213945006
 10
8.2146841226
 20
6.0203172441
 10
8.1904824263
 20
6.0192385301
 10
8.1756020437
 20
6.0181594503
 10
8.1706756248
 20
6.0172682219
  0
LWPOLYLINE
  5
7BA
100
AcDbEntity
  8
0
100
AcDbPolyline
 62
7
  6
CONTINUOUS
 90
9
 70
0
 10
8.5572309235
 20
6.0770318482
 10
8.6133607412
 20
6.0781282547
 10
8.6657690116
 20
6.0792204375
 10
8.7124031411
 20
6.0802964645
 10
8.752737402
 20
6.0813744684
 10
8.7853530597
 20
6.082448156
 10
8.8094766542
 20
6.08352321
 10
8.8243753196
 20
6.0846020672
 10
8.8293251244
 20
6.0854958059
  0
LWPOLYLINE
  5
7BB
100
AcDbEntity
  8
0
100
AcDbPolyline
 62
7
  6
CONTINUOUS
 90
10
 70
0
 10
8.442763188
 20
5.9968645391
 10
8.5569774703
 20
5.9990270004
 10
8.6124704494
 20
6.0001104027
 10
8.6641153282
 20
6.0011844525
 10
8.7108402637
 20
6.0022580543
 10
8.7518394543
 20
6.003348171
 10
8.7852652701
 20
6.0044448501
 10
8.8096263383
 20
6.0055314388
 10
8.8244357519
 20
6.006608566
 10
8.8293251244
 20
6.0074958059
  0
LWPOLYLINE
  5
7BC
100
AcDbEntity
  8
0
100
AcDbPolyline
 62
7
  6
CONTINUOUS
 90
10
 70
0
 10
8.4430508456
 20
6.0358700412
 10
8.5571343902
 20
6.0380300018
 10
8.6131759407
 20
6.0391245476
 10
8.6655155119
 20
6.0402149133
 10
8.7120659384
 20
6.0412881604
 10
8.7523833947
 20
6.042364085
 10
8.7854246982
 20
6.043450856
 10
8.8096418535
 20
6.0445322934
 10
8.8244457731
 20
6.0456096474
 10
8.8293251244
 20
6.0464958059
  0
LWPOLYLINE
  5
7BD
100
AcDbEntity
  8
0
100
AcDbPolyline
 62
7
  6
CONTINUOUS
 90
10
 70
0
 10
8.5571343902
 20
6.0668975152
 10
8.4430508456
 20
6.0647375546
 10
8.3872585329
 20
6.0636481777
 10
8.3351841688
 20
6.0625643304
 10
8.2886664589
 20
6.0614938535
 10
8.2478917799
 20
6.0604079777
 10
8.2146448985
 20
6.0593157667
 10
8.1903934389
 20
6.0582336367
 10
8.1755968119
 20
6.0571588879
 10
8.1706756248
 20
6.0562682219
  0
LINE
  5
7BE
100
AcDbEntity
  8
0
100
AcDbLine
 62
7
  6
CONTINUOUS
 10
8.1456632835
 20
6.3534438308
 11
8.1706756248
 21
6.3389958059
  0
LINE
  5
7BF
100
AcDbEntity
  8
0
100
AcDbLine
 62
7
  6
CONTINUOUS
 10
8.8543374657
 20
5.944320197
 11
8.8293251244
 21
5.9587682219
  0
LINE
  5
7C0
100
AcDbEntity
  8
0
100
AcDbLine
 62
7
  6
CONTINUOUS
 10
8.1456632835
 20
6.3924438308
 11
8.1706756248
 21
6.3779958059
  0
LINE
  5
7C1
100
AcDbEntity
  8
0
100
AcDbLine
 62
7
  6
CONTINUOUS
 10
8.8543374657
 20
5.983320197
 11
8.8293251244
 21
5.9977682219
  0
LINE
  5
7C2
100
AcDbEntity
  8
0
100
AcDbLine
 62
7
  6
CONTINUOUS
 10
8.1456632835
 20
6.4314438308
 11
8.1706756248
 21
6.4169958059
  0
LINE
  5
7C3
100
AcDbEntity
  8
0
100
AcDbLine
 62
7
  6
CONTINUOUS
 10
8.8543374657
 20
6.022320197
 11
8.8293251244
 21
6.0367682219
  0
LWPOLYLINE
  5
7C4
100
AcDbEntity
  8
0
100
AcDbPolyline
 62
7
  6
CONTINUOUS
 90
20
 70
0
 10
8.1456632835
 20
6.080820197
 10
8.1473058196
 20
6.0812587262
 10
8.1584862812
 20
6.0823172567
 10
8.1795749051
 20
6.0833757873
 10
8.2099598587
 20
6.0844343178
 10
8.2487595997
 20
6.0854928483
 10
8.2948484525
 20
6.0865513788
 10
8.3468892663
 20
6.0876099093
 10
8.4033722093
 20
6.0886684398
 10
8.4626585725
 20
6.0897269703
 10
8.5230283132
 20
6.0907855008
 10
8.5827299568
 20
6.0918440313
 10
8.6400314121
 20
6.0929025618
 10
8.6932702232
 20
6.0939610924
 10
8.7409018014
 20
6.0950196229
 10
8.7815442378
 20
6.0960781534
 10
8.8140183954
 20
6.0971366839
 10
8.8373821192
 20
6.0981952144
 10
8.8509575703
 20
6.0992537449
 10
8.8543374657
 20
6.0999438308
  0
LWPOLYLINE
  5
7C5
100
AcDbEntity
  8
0
100
AcDbPolyline
 62
7
  6
CONTINUOUS
 90
20
 70
0
 10
8.1456632835
 20
6.119820197
 10
8.1483847478
 20
6.1204243551
 10
8.1611444183
 20
6.1214828856
 10
8.1837351322
 20
6.1225414161
 10
8.2155014772
 20
6.1235999467
 10
8.2555218338
 20
6.1246584772
 10
8.3026351131
 20
6.1257170077
 10
8.3554744433
 20
6.1267755382
 10
8.4125068255
 20
6.1278340687
 10
8.4720776105
 20
6.1288925992
 10
8.5324585034
 20
6.1299511297
 10
8.5918977062
 20
6.1310096602
 10
8.6486707419
 20
6.1320681907
 10
8.7011304851
 20
6.1331267213
 10
8.7477549501
 20
6.1341852518
 10
8.7871914465
 20
6.1352437823
 10
8.8182958247
 20
6.1363023128
 10
8.8401656705
 20
6.1373608433
 10
8.8521664858
 20
6.1384193738
 10
8.8543374657
 20
6.1389438308
  0
LWPOLYLINE
  5
7C6
100
AcDbEntity
  8
0
100
AcDbPolyline
 62
7
  6
CONTINUOUS
 90
9
 70
0
 10
8.1705003746
 20
6.1051982661
 10
8.1754563417
 20
6.1062761661
 10
8.1900536844
 20
6.1073473422
 10
8.2142480532
 20
6.1084332705
 10
8.2475225127
 20
6.1095296495
 10
8.2883990946
 20
6.1106197725
 10
8.3351625692
 20
6.1116963471
 10
8.3874522343
 20
6.1127845471
 10
8.4432184806
 20
6.1138732472
  0
LWPOLYLINE
  5
7C7
100
AcDbEntity
  8
0
100
AcDbPolyline
 62
7
  6
CONTINUOUS
 90
9
 70
0
 10
8.8295003746
 20
6.2705657706
 10
8.8244394207
 20
6.2694764752
 10
8.8096240266
 20
6.2683988249
 10
8.7854038098
 20
6.267317582
 10
8.752389098
 20
6.2662317656
 10
8.7121189952
 20
6.2651569798
 10
8.6655598213
 20
6.2640833922
 10
8.6132082913
 20
6.2629927099
 10
8.5571512844
 20
6.2618978384
  0
LWPOLYLINE
  5
7C8
100
AcDbEntity
  8
0
100
AcDbPolyline
 62
7
  6
CONTINUOUS
 90
9
 70
0
 10
8.8295003746
 20
6.2315657813
 10
8.8243987367
 20
6.2304720944
 10
8.8095683426
 20
6.2293957604
 10
8.7852167866
 20
6.2283105391
 10
8.7518257846
 20
6.2272152851
 10
8.7108814124
 20
6.2261265765
 10
8.6642451476
 20
6.2250547866
 10
8.6125344801
 20
6.2239791994
 10
8.5569617307
 20
6.2228942128
  0
LWPOLYLINE
  5
7C9
100
AcDbEntity
  8
0
100
AcDbPolyline
 62
7
  6
CONTINUOUS
 90
9
 70
0
 10
8.4428535977
 20
6.181733782
 10
8.3868033916
 20
6.1806390507
 10
8.3344597205
 20
6.1795485585
 10
8.2878408075
 20
6.1784735534
 10
8.2473352068
 20
6.1773916688
 10
8.2145146783
 20
6.1763108572
 10
8.1905135275
 20
6.1752402378
 10
8.1756360665
 20
6.1741631005
 10
8.1706756248
 20
6.1732682219
  0
LWPOLYLINE
  5
7CA
100
AcDbEntity
  8
0
100
AcDbPolyline
 62
7
  6
CONTINUOUS
 90
11
 70
0
 10
8.5572309235
 20
6.1058993617
 10
8.4464377774
 20
6.1038022737
 10
8.3942657729
 20
6.1027880952
 10
8.3450356101
 20
6.1017765925
 10
8.2999038233
 20
6.1007649051
 10
8.2596686957
 20
6.0997420127
 10
8.2256460692
 20
6.0987089435
 10
8.19929038
 20
6.0976797792
 10
8.1813849905
 20
6.0966656286
 10
8.1719514419
 20
6.0956485113
 10
8.1706756248
 20
6.0952682219
  0
LWPOLYLINE
  5
7CB
100
AcDbEntity
  8
0
100
AcDbPolyline
 62
7
  6
CONTINUOUS
 90
10
 70
0
 10
8.4432184806
 20
6.1138732472
 10
8.5569926685
 20
6.1160272911
 10
8.6129043776
 20
6.1171191014
 10
8.6651462719
 20
6.1182068722
 10
8.7117267972
 20
6.1192798178
 10
8.752430813
 20
6.1203654747
 10
8.7855923676
 20
6.1214571832
 10
8.8097538844
 20
6.1225384742
 10
8.8244779292
 20
6.1236131245
 10
8.8293251244
 20
6.1244958059
  0
LWPOLYLINE
  5
7CC
100
AcDbEntity
  8
0
100
AcDbPolyline
 62
7
  6
CONTINUOUS
 90
10
 70
0
 10
8.5569926685
 20
6.1448948045
 10
8.4432184806
 20
6.1427407606
 10
8.3874522343
 20
6.1416520605
 10
8.3351625692
 20
6.1405638605
 10
8.2883990946
 20
6.139487286
 10
8.2475225127
 20
6.138397163
 10
8.2142480532
 20
6.137300784
 10
8.1900536844
 20
6.1362148556
 10
8.1754563417
 20
6.1351436796
 10
8.1706756248
 20
6.1342682219
  0
LWPOLYLINE
  5
7CD
100
AcDbEntity
  8
0
100
AcDbPolyline
 62
7
  6
CONTINUOUS
 90
11
 70
0
 10
8.4428535977
 20
6.1528662685
 10
8.5538552523
 20
6.1549673347
 10
8.6063233749
 20
6.1559876394
 10
8.6562217225
 20
6.1570142891
 10
8.7016463019
 20
6.1580359427
 10
8.7419800982
 20
6.1590675749
 10
8.7759330652
 20
6.1601091266
 10
8.802037805
 20
6.1611461072
 10
8.8195329492
 20
6.1621676476
 10
8.828388859
 20
6.1631882786
 10
8.8293251244
 20
6.1634958059
  0
LINE
  5
7CE
100
AcDbEntity
  8
0
100
AcDbLine
 62
7
  6
CONTINUOUS
 10
8.8543374657
 20
6.061320197
 11
8.8293251244
 21
6.0757682219
  0
LINE
  5
7CF
100
AcDbEntity
  8
0
100
AcDbLine
 62
7
  6
CONTINUOUS
 10
8.8543374657
 20
6.100320197
 11
8.8293251244
 21
6.1147682219
  0
LINE
  5
7D0
100
AcDbEntity
  8
0
100
AcDbLine
 62
7
  6
CONTINUOUS
 10
8.8543374657
 20
6.139320197
 11
8.8293251244
 21
6.1537682219
  0
LWPOLYLINE
  5
7D1
100
AcDbEntity
  8
0
100
AcDbPolyline
 62
7
  6
CONTINUOUS
 90
9
 70
0
 10
8.8295003746
 20
6.3485657638
 10
8.8245367789
 20
6.3474870303
 10
8.8099152224
 20
6.3464149187
 10
8.7857849218
 20
6.3453319768
 10
8.7526257238
 20
6.344238704
 10
8.711902726
 20
6.3431516578
 10
8.6652949209
 20
6.3420776221
 10
8.6130131123
 20
6.3409887953
 10
8.5570494337
 20
6.3398958903
  0
LWPOLYLINE
  5
7D2
100
AcDbEntity
  8
0
100
AcDbPolyline
 62
7
  6
CONTINUOUS
 90
9
 70
0
 10
8.1705003746
 20
6.1831982571
 10
8.1755901771
 20
6.1842906608
 10
8.1904542477
 20
6.1853694682
 10
8.2146701349
 20
6.1864492039
 10
8.2475173575
 20
6.1875294984
 10
8.2876725804
 20
6.1886018969
 10
8.334268759
 20
6.1896768838
 10
8.3866628948
 20
6.1907687188
 10
8.4427802632
 20
6.1918648657
  0
LWPOLYLINE
  5
7D3
100
AcDbEntity
  8
0
100
AcDbPolyline
 62
7
  6
CONTINUOUS
 90
9
 70
0
 10
8.1705003746
 20
6.1441982571
 10
8.1756360665
 20
6.1452955871
 10
8.1905135275
 20
6.1463727244
 10
8.2145146783
 20
6.1474433437
 10
8.2473352068
 20
6.1485241553
 10
8.2878408075
 20
6.1496060399
 10
8.3344597205
 20
6.1506810451
 10
8.3868033916
 20
6.1517715372
 10
8.4428535977
 20
6.1528662685
  0
LWPOLYLINE
  5
7D4
100
AcDbEntity
  8
0
100
AcDbPolyline
 62
7
  6
CONTINUOUS
 90
9
 70
0
 10
8.8295003746
 20
6.3095657706
 10
8.8243698365
 20
6.3084689929
 10
8.8094732473
 20
6.3073905365
 10
8.7853945532
 20
6.306317233
 10
8.7527451896
 20
6.3052422105
 10
8.7123534591
 20
6.3041627539
 10
8.6657194945
 20
6.3030868717
 10
8.6133243913
 20
6.3019950389
 10
8.5572119443
 20
6.3008989987
  0
LWPOLYLINE
  5
7D5
100
AcDbEntity
  8
0
100
AcDbPolyline
 62
7
  6
CONTINUOUS
 90
20
 70
0
 10
8.1456632835
 20
6.158820197
 10
8.1497140245
 20
6.159589984
 10
8.1640438193
 20
6.1606485145
 10
8.1881205385
 20
6.161707045
 10
8.2212456576
 20
6.1627655755
 10
8.2624581354
 20
6.1638241061
 10
8.3105622968
 20
6.1648826366
 10
8.364162522
 20
6.1659411671
 10
8.4217037368
 20
6.1669996976
 10
8.4815165293
 20
6.1680582281
 10
8.5418655835
 20
6.1691167586
 10
8.6010000252
 20
6.1701752891
 10
8.6572042191
 20
6.1712338196
 10
8.7088475435
 20
6.1722923501
 10
8.7544316987
 20
6.1733508807
 10
8.7926341765
 20
6.1744094112
 10
8.8223466293
 20
6.1754679417
 10
8.8427070257
 20
6.1765264722
 10
8.8531246607
 20
6.1775850027
 10
8.8543374657
 20
6.1779438308
  0
LWPOLYLINE
  5
7D6
100
AcDbEntity
  8
0
100
AcDbPolyline
 62
7
  6
CONTINUOUS
 90
20
 70
0
 10
8.1456632835
 20
6.197820197
 10
8.1512927034
 20
6.1987556129
 10
8.1671824196
 20
6.1998141434
 10
8.1927280017
 20
6.2008726739
 10
8.2271883099
 20
6.2019312044
 10
8.2695635659
 20
6.2029897349
 10
8.3186243594
 20
6.2040482655
 10
8.3729473166
 20
6.205106796
 10
8.4309563948
 20
6.2061653265
 10
8.4909686085
 20
6.207223857
 10
8.5512428558
 20
6.2082823875
 10
8.610030433
 20
6.209340918
 10
8.665625768
 20
6.2103994485
 10
8.7164159037
 20
6.211457979
 10
8.7609272936
 20
6.2125165095
 10
8.7978685528
 20
6.2135750401
 10
8.8261679249
 20
6.2146335706
 10
8.8450043755
 20
6.2156921011
 10
8.8538314129
 20
6.2167506316
 10
8.8543374657
 20
6.2169438308
  0
LWPOLYLINE
  5
7D7
100
AcDbEntity
  8
0
100
AcDbPolyline
 62
7
  6
CONTINUOUS
 90
10
 70
0
 10
8.1456632835
 20
6.236820197
 10
8.1531196605
 20
6.2379212418
 10
8.1705579846
 20
6.2389797723
 10
8.1975542414
 20
6.2400383028
 10
8.233325203
 20
6.2410968333
 10
8.2768330662
 20
6.2421553638
 10
8.3268155609
 20
6.2432138944
 10
8.3818225723
 20
6.2442724249
 10
8.4402582119
 20
6.2453309554
 10
8.5605836438
 20
6.2474480164
  0
LWPOLYLINE
  5
7D8
100
AcDbEntity
  8
0
100
AcDbPolyline
 62
7
  6
CONTINUOUS
 90
9
 70
0
 10
8.5571512844
 20
6.2330303249
 10
8.6132082913
 20
6.2341251965
 10
8.6655598213
 20
6.2352158787
 10
8.7121189952
 20
6.2362894663
 10
8.752389098
 20
6.2373642522
 10
8.7854038098
 20
6.2384500685
 10
8.8096240266
 20
6.2395313115
 10
8.8244394207
 20
6.2406089618
 10
8.8293251244
 20
6.2414958059
  0
LWPOLYLINE
  5
7D9
100
AcDbEntity
  8
0
100
AcDbPolyline
 62
7
  6
CONTINUOUS
 90
9
 70
0
 10
8.5572119443
 20
6.2720314852
 10
8.6133243913
 20
6.2731275255
 10
8.6657194945
 20
6.2742193582
 10
8.7123534591
 20
6.2752952404
 10
8.7527451896
 20
6.276374697
 10
8.7853945532
 20
6.2774497196
 10
8.8094732473
 20
6.2785230231
 10
8.8243698365
 20
6.2796014794
 10
8.8293251244
 20
6.2804958059
  0
LWPOLYLINE
  5
7DA
100
AcDbEntity
  8
0
100
AcDbPolyline
 62
7
  6
CONTINUOUS
 90
10
 70
0
 10
8.4427802632
 20
6.1918648657
 10
8.5569617307
 20
6.1940266994
 10
8.6125344801
 20
6.195111686
 10
8.6642451476
 20
6.1961872731
 10
8.7108814124
 20
6.1972590631
 10
8.7518257846
 20
6.1983477717
 10
8.7852167866
 20
6.1994430257
 10
8.8095683426
 20
6.200528247
 10
8.8243987367
 20
6.2016045809
 10
8.8293251244
 20
6.2024958059
  0
LWPOLYLINE
  5
7DB
100
AcDbEntity
  8
0
100
AcDbPolyline
 62
7
  6
CONTINUOUS
 90
10
 70
0
 10
8.5569617307
 20
6.2228942128
 10
8.4427802632
 20
6.2207323792
 10
8.3866628948
 20
6.2196362323
 10
8.334268759
 20
6.2185443973
 10
8.2876725804
 20
6.2174694104
 10
8.2475173575
 20
6.2163970119
 10
8.2146701349
 20
6.2153167173
 10
8.1904542477
 20
6.2142369817
 10
8.1755901771
 20
6.2131581743
 10
8.1706756248
 20
6.2122682219
  0
LWPOLYLINE
  5
7DC
100
AcDbEntity
  8
0
100
AcDbPolyline
 62
7
  6
CONTINUOUS
 90
10
 70
0
 10
8.5571512844
 20
6.2618978384
 10
8.4443803585
 20
6.2597629733
 10
8.3898408914
 20
6.2586998706
 10
8.3387690612
 20
6.2576420404
 10
8.2929091518
 20
6.2565973088
 10
8.2523899066
 20
6.2555379694
 10
8.2188468729
 20
6.2544707437
 10
8.1937439367
 20
6.2534111335
 10
8.1776675603
 20
6.2523627609
 10
8.1706756248
 20
6.2512682219
  0
LWPOLYLINE
  5
7DD
100
AcDbEntity
  8
0
100
AcDbPolyline
 62
7
  6
CONTINUOUS
 90
9
 70
0
 10
8.5605836438
 20
6.2474480164
 10
8.6189824999
 20
6.2485065469
 10
8.6739293925
 20
6.2495650774
 10
8.7238301772
 20
6.2506236079
 10
8.7672371097
 20
6.2516821384
 10
8.8028908484
 20
6.2527406689
 10
8.8297569908
 20
6.2537991995
 10
8.8470560841
 20
6.25485773
 10
8.8543374657
 20
6.2559438308
  0
LINE
  5
7DE
100
AcDbEntity
  8
0
100
AcDbLine
 62
7
  6
CONTINUOUS
 10
8.8543374657
 20
6.178320197
 11
8.8293251244
 21
6.1927682219
  0
LINE
  5
7DF
100
AcDbEntity
  8
0
100
AcDbLine
 62
7
  6
CONTINUOUS
 10
8.8543374657
 20
6.217320197
 11
8.8293251244
 21
6.2317682219
  0
LINE
  5
7E0
100
AcDbEntity
  8
0
100
AcDbLine
 62
7
  6
CONTINUOUS
 10
8.8543374657
 20
6.256320197
 11
8.8293251244
 21
6.2707682219
  0
LWPOLYLINE
  5
7E1
100
AcDbEntity
  8
0
100
AcDbPolyline
 62
7
  6
CONTINUOUS
 90
9
 70
0
 10
8.1705003746
 20
6.3001982679
 10
8.1754572302
 20
6.301276263
 10
8.1900492629
 20
6.3023470967
 10
8.2142026266
 20
6.3034315514
 10
8.2474132619
 20
6.3045264456
 10
8.2882109114
 20
6.3056151465
 10
8.3348969806
 20
6.3066905674
 10
8.3871930329
 20
6.3077793511
 10
8.4430855671
 20
6.3088707052
  0
LWPOLYLINE
  5
7E2
100
AcDbEntity
  8
0
100
AcDbPolyline
 62
7
  6
CONTINUOUS
 90
9
 70
0
 10
8.4428145204
 20
6.3767330345
 10
8.386728552
 20
6.3756375494
 10
8.3343576195
 20
6.3745463338
 10
8.287729529
 20
6.3734708132
 10
8.2472794724
 20
6.3723900328
 10
8.2145504151
 20
6.3713122052
 10
8.1905240526
 20
6.3702408155
 10
8.1756341809
 20
6.3691628985
 10
8.1706756248
 20
6.3682682219
  0
LWPOLYLINE
  5
7E3
100
AcDbEntity
  8
0
100
AcDbPolyline
 62
7
  6
CONTINUOUS
 90
11
 70
0
 10
8.5572119443
 20
6.3008989987
 10
8.446055493
 20
6.2987949745
 10
8.3935972821
 20
6.2977747943
 10
8.3439227293
 20
6.2967528128
 10
8.2985259992
 20
6.2957321702
 10
8.2581653937
 20
6.2947004687
 10
8.2241825834
 20
6.2936588595
 10
8.1980461667
 20
6.2926218402
 10
8.1805138811
 20
6.2915999324
 10
8.1716130499
 20
6.2905760154
 10
8.1706756248
 20
6.2902682219
  0
LWPOLYLINE
  5
7E4
100
AcDbEntity
  8
0
100
AcDbPolyline
 62
7
  6
CONTINUOUS
 90
10
 70
0
 10
8.4430855671
 20
6.3088707052
 10
8.5570494337
 20
6.3110283768
 10
8.6130131123
 20
6.3121212819
 10
8.6652949209
 20
6.3132101087
 10
8.711902726
 20
6.3142841443
 10
8.7526257238
 20
6.3153711905
 10
8.7857849218
 20
6.3164644633
 10
8.8099152224
 20
6.3175474053
 10
8.8245367789
 20
6.3186195168
 10
8.8293251244
 20
6.3194958059
  0
LWPOLYLINE
  5
7E5
100
AcDbEntity
  8
0
100
AcDbPolyline
 62
7
  6
CONTINUOUS
 90
10
 70
0
 10
8.5570494337
 20
6.3398958903
 10
8.4430855671
 20
6.3377382187
 10
8.3871930329
 20
6.3366468645
 10
8.3348969806
 20
6.3355580809
 10
8.2882109114
 20
6.3344826599
 10
8.2474132619
 20
6.3333939591
 10
8.2142026266
 20
6.3322990649
 10
8.1900492629
 20
6.3312146102
 10
8.1754572302
 20
6.3301437765
 10
8.1706756248
 20
6.3292682219
  0
LWPOLYLINE
  5
7E6
100
AcDbEntity
  8
0
100
AcDbPolyline
 62
7
  6
CONTINUOUS
 90
11
 70
0
 10
8.4428145204
 20
6.347865521
 10
8.5539040664
 20
6.3499682668
 10
8.6063310651
 20
6.3509877924
 10
8.6561286694
 20
6.3520122984
 10
8.7015470313
 20
6.3530335786
 10
8.7418998933
 20
6.3540653493
 10
8.7758732048
 20
6.3551070639
 10
8.8019980673
 20
6.3561442349
 10
8.8195130577
 20
6.3571661133
 10
8.8283898517
 20
6.3581885065
 10
8.8293251244
 20
6.3584958059
  0
LINE
  5
7E7
100
AcDbEntity
  8
0
100
AcDbLine
 62
7
  6
CONTINUOUS
 10
8.8543374657
 20
6.295320197
 11
8.8293251244
 21
6.3097682219
  0
LINE
  5
7E8
100
AcDbEntity
  8
0
100
AcDbLine
 62
7
  6
CONTINUOUS
 10
8.8543374657
 20
6.334320197
 11
8.8293251244
 21
6.3487682219
  0
LWPOLYLINE
  5
7E9
100
AcDbEntity
  8
0
100
AcDbPolyline
 62
7
  6
CONTINUOUS
 90
20
 70
0
 10
8.1456632835
 20
6.353820197
 10
8.147933059
 20
6.354359598
 10
8.1600763142
 20
6.3554181285
 10
8.182081601
 20
6.356476659
 10
8.2133104919
 20
6.3575351895
 10
8.2528569603
 20
6.35859372
 10
8.2995736659
 20
6.3596522505
 10
8.3521052425
 20
6.360710781
 10
8.4089276199
 20
6.3617693115
 10
8.4683922416
 20
6.362827842
 10
8.5287738928
 20
6.3638863726
 10
8.5883207536
 20
6.3649449031
 10
8.6453052234
 20
6.3660034336
 10
8.6980740427
 20
6.3670619641
 10
8.7450962586
 20
6.3681204946
 10
8.7850076411
 20
6.3691790251
 10
8.8166502631
 20
6.3702375556
 10
8.8391060943
 20
6.3712960861
 10
8.8517236359
 20
6.3723546166
 10
8.8543374657
 20
6.3729438308
  0
LWPOLYLINE
  5
7EA
100
AcDbEntity
  8
0
100
AcDbPolyline
 62
7
  6
CONTINUOUS
 90
9
 70
0
 10
8.1705003746
 20
6.3391982571
 10
8.1756341809
 20
6.3402953851
 10
8.1905240526
 20
6.341373302
 10
8.2145504151
 20
6.3424446917
 10
8.2472794724
 20
6.3435225194
 10
8.287729529
 20
6.3446032997
 10
8.3343576195
 20
6.3456788204
 10
8.386728552
 20
6.346770036
 10
8.4428145204
 20
6.347865521
  0
LWPOLYLINE
  5
7EB
100
AcDbEntity
  8
0
100
AcDbPolyline
 62
7
  6
CONTINUOUS
 90
9
 70
0
 10
8.1705003746
 20
6.4171982485
 10
8.1756418862
 20
6.4182962103
 10
8.1904910399
 20
6.4193714897
 10
8.214824218
 20
6.4204550028
 10
8.2481675959
 20
6.4215485274
 10
8.2890443146
 20
6.4226356118
 10
8.3355810206
 20
6.423705447
 10
8.3874203053
 20
6.4247839071
 10
8.4430652684
 20
6.425870317
  0
LWPOLYLINE
  5
7EC
100
AcDbEntity
  8
0
100
AcDbPolyline
 62
7
  6
CONTINUOUS
 90
20
 70
0
 10
8.1456632835
 20
6.392820197
 10
8.1490613343
 20
6.3935125342
 10
8.16260247
 20
6.3945678915
 10
8.1858738889
 20
6.3956232489
 10
8.218204462
 20
6.3966786062
 10
8.2586618017
 20
6.3977339635
 10
8.306079151
 20
6.3987893209
 10
8.3590890318
 20
6.3998446782
 10
8.416162682
 20
6.4009000356
 10
8.4756541436
 20
6.4019553929
 10
8.5358477308
 20
6.4030107502
 10
8.5950075092
 20
6.4040661076
 10
8.6514273585
 20
6.4051214649
 10
8.7034801759
 20
6.4061768223
 10
8.7496648001
 20
6.4072321796
 10
8.7886493038
 20
6.4082875369
 10
8.8193094054
 20
6.4093428943
 10
8.8407608924
 20
6.4103982516
 10
8.8523851212
 20
6.411453609
 10
8.8543374657
 20
6.4119438308
  0
LWPOLYLINE
  5
7ED
100
AcDbEntity
  8
0
100
AcDbPolyline
 62
7
  6
CONTINUOUS
 90
9
 70
0
 10
8.1456632835
 20
6.431820197
 10
8.1494612978
 20
6.4325607558
 10
8.1634577327
 20
6.4336161131
 10
8.1871597857
 20
6.4346714705
 10
8.2198839087
 20
6.4357268278
 10
8.2606863644
 20
6.4367821852
 10
8.308390443
 20
6.4378375425
 10
8.3616203973
 20
6.4388928998
 10
8.4188411184
 20
6.4399482572
  0
LWPOLYLINE
  5
7EE
100
AcDbEntity
  8
0
100
AcDbPolyline
 62
7
  6
CONTINUOUS
 90
9
 70
0
 10
8.556951919
 20
6.3890265117
 10
8.6125525109
 20
6.3901120474
 10
8.664305836
 20
6.3911885919
 10
8.7109037298
 20
6.3922596102
 10
8.7518235975
 20
6.3933477078
 10
8.7851986108
 20
6.3944423419
 10
8.8095450579
 20
6.3955269667
 10
8.8243832824
 20
6.3966029213
 10
8.8293251244
 20
6.3974958059
  0
LWPOLYLINE
  5
7EF
100
AcDbEntity
  8
0
100
AcDbPolyline
 62
7
  6
CONTINUOUS
 90
11
 70
0
 10
8.5555555151
 20
6.4178673281
 10
8.4468018252
 20
6.4158092233
 10
8.3943937154
 20
6.4147906397
 10
8.3449056816
 20
6.4137738187
 10
8.3001744071
 20
6.4127713183
 10
8.2608682021
 20
6.4117749497
 10
8.2275428299
 20
6.4107729654
 10
8.2011965836
 20
6.4097662762
 10
8.1827929471
 20
6.4087665694
 10
8.1725369569
 20
6.407756244
 10
8.1706756248
 20
6.4072682219
  0
LWPOLYLINE
  5
7F0
100
AcDbEntity
  8
0
100
AcDbPolyline
 62
7
  6
CONTINUOUS
 90
11
 70
0
 10
8.4430652684
 20
6.425870317
 10
8.5528109627
 20
6.4279473997
 10
8.6048629375
 20
6.4289585963
 10
8.6540672611
 20
6.4299682851
 10
8.6985856613
 20
6.4309633685
 10
8.7377896938
 20
6.4319524223
 10
8.7712143411
 20
6.4329496098
 10
8.7977264862
 20
6.4339499799
 10
8.8164159671
 20
6.4349431777
 10
8.8270801636
 20
6.4359454828
 10
8.8293251244
 20
6.4364958059
  0
LINE
  5
7F1
100
AcDbEntity
  8
0
100
AcDbLine
 62
7
  6
CONTINUOUS
 10
8.835289167
 20
6.4399482572
 11
8.1597611106
 21
6.4399482572
  0
LINE
  5
7F2
100
AcDbEntity
  8
0
100
AcDbLine
 62
7
  6
CONTINUOUS
 10
8.8543374657
 20
6.373320197
 11
8.8293251244
 21
6.3877682219
  0
LINE
  5
7F3
100
AcDbEntity
  8
0
100
AcDbLine
 62
7
  6
CONTINUOUS
 10
8.8543374657
 20
6.412320197
 11
8.8293251244
 21
6.4267682219
  0
CIRCLE
  5
7F4
100
AcDbEntity
  8
0
100
AcDbCircle
 62
7
  6
CONTINUOUS
 10
10.5342808475
 20
1.243294839
 40
0.252091
  0
CIRCLE
  5
7F5
100
AcDbEntity
  8
0
100
AcDbCircle
 62
7
  6
CONTINUOUS
 10
10.5342808475
 20
1.243294839
 40
0.182698
  0
ARC
  5
7F6
100
AcDbEntity
  8
0
100
AcDbCircle
 62
7
  6
CONTINUOUS
 10
8.5000003746
 20
8.5945437844
 40
0.3295
100
AcDbArc
 50
29.9999999982
 51
123.5306449893
  0
CIRCLE
  5
7F7
100
AcDbEntity
  8
0
100
AcDbCircle
 62
7
  6
CONTINUOUS
 10
8.5000003746
 20
8.5945437844
 40
0.3179998108
  0
CIRCLE
  5
7F8
100
AcDbEntity
  8
0
100
AcDbCircle
 62
7
  6
CONTINUOUS
 10
8.5000003746
 20
8.5945437844
 40
0.306
  0
CIRCLE
  5
7F9
100
AcDbEntity
  8
AXIS_COSMETIC_THREADS
100
AcDbCircle
 62
7
  6
CONTINUOUS
 10
8.5000003746
 20
8.5945437844
 40
0.3025
  0
ELLIPSE
  5
7FA
100
AcDbEntity
  8
0
100
AcDbEllipse
 62
7
  6
CONTINUOUS
 10
14.9359937242
 20
8.7786092309
 30
0.0
 11
-0.2208809814
 21
0.2465295954
 31
0.0
 40
0.3853383871
 41
-1.574530037
 42
-0.1577319915
  0
ELLIPSE
  5
7FB
100
AcDbEntity
  8
0
100
AcDbEllipse
 62
7
  6
CONTINUOUS
 10
8.5000003746
 20
4.2592610553
 30
0.0
 11
0.24
 21
-0.0
 31
0.0
 40
0.3076923077
 41
-2.3561944902
 42
-0.7853981634
  0
ELLIPSE
  5
7FC
100
AcDbEntity
  8
0
100
AcDbEllipse
 62
7
  6
CONTINUOUS
 10
8.5000003746
 20
4.2076405649
 30
0.0
 11
0.06
 21
0.0
 31
0.0
 40
0.3076923077
 41
0.0
 42
6.2831853072
  0
ELLIPSE
  5
7FD
100
AcDbEntity
  8
0
100
AcDbEllipse
 62
7
  6
CONTINUOUS
 10
8.5000003746
 20
4.1439482572
 30
0.0
 11
0.325
 21
-0.0
 31
0.0
 40
0.3076923077
 41
0.8623973041
 42
2.2791953495
  0
ENDSEC
  0
SECTION
  2
OBJECTS
  0
DICTIONARY
  5
C
100
AcDbDictionary
280
0
281
1
  3
ACAD_GROUP
350
D
  3
ACAD_MLINESTYLE
350
17
  3
ACAD_LAYOUT
350
1A
  3
ACAD_PLOTSETTINGS
350
19
  3
ACAD_PLOTSTYLENAME
350
E
  0
DICTIONARY
  5
D
102
{ACAD_REACTORS
330
C
102
}
100
AcDbDictionary
280
0
281
1
  0
ACDBDICTIONARYWDFLT
  5
E
102
{ACAD_REACTORS
330
C
102
}
100
AcDbDictionary
281
1
  3
Normal
350
F
100
AcDbDictionaryWithDefault
340
F
  0
DICTIONARY
  5
17
102
{ACAD_REACTORS
330
C
102
}
100
AcDbDictionary
280
0
281
1
  3
Standard
350
18
  0
DICTIONARY
  5
19
102
{ACAD_REACTORS
330
C
102
}
100
AcDbDictionary
281
1
  0
DICTIONARY
  5
1A
102
{ACAD_REACTORS
330
C
102
}
100
AcDbDictionary
281
1
  3
Model
350
7FE
  3
Layout1
350
7FF
  0
ACDBPLACEHOLDER
  5
F
102
{ACAD_REACTORS
330
E
102
}
  0
MLINESTYLE
  5
18
102
{ACAD_REACTORS
330
17
102
}
100
AcDbMlineStyle
  2
STANDARD
 70
0
  3

 62
256
 51
90.0
 52
90.0
 71
2
 49
0.5
 62
256
  6
BYLAYER
 49
-0.5
 62
256
  6
BYLAYER
  0
LAYOUT
  5
7FE
102
{ACAD_REACTORS
330
1A
102
}
100
AcDbPlotSettings
  1

  2
none_device
  4
ANSI_B_(17.00_x_11.00_Inches)
  6

 40
0.0
 41
0.0
 42
0.0
 43
0.0
 44
431.8
 45
279.4
 46
0.0
 47
0.0
 48
0.0
 49
0.0
140
0.0
141
0.0
142
1.0
143
1.0
 70
1024
 72
0
 73
0
 74
0
  7

 75
0
147
1.0
148
0.0
149
0.0
100
AcDbLayout
  1
Model
 70
0
 71
0
 10
0.0
 20
0.0
 11
17.0
 21
11.0
 12
0.0
 22
0.0
 32
0.0
 14
0.0
 24
0.0
 34
0.0
 15
0.0
 25
0.0
 35
0.0
146
0.0
 13
0.0
 23
0.0
 33
0.0
 16
1.0
 26
0.0
 36
0.0
 17
0.0
 27
1.0
 37
0.0
 76
0
330
233
345
0
346
0
  0
LAYOUT
  5
7FF
102
{ACAD_REACTORS
330
1A
102
}
100
AcDbPlotSettings
  1

  2
none_device
  4
ANSI_B_(17.00_x_11.00_Inches)
  6

 40
0.0
 41
0.0
 42
0.0
 43
0.0
 44
431.8
 45
279.4
 46
0.0
 47
0.0
 48
0.0
 49
0.0
140
0.0
141
0.0
142
1.0
143
1.0
 70
0
 72
0
 73
0
 74
0
  7

 75
0
147
1.0
148
0.0
149
0.0
100
AcDbLayout
  1
Layout1
 70
0
 71
1
 10
0.0
 20
0.0
 11
17.0
 21
11.0
 12
0.0
 22
0.0
 32
0.0
 14
0.0
 24
0.0
 34
0.0
 15
0.0
 25
0.0
 35
0.0
146
0.0
 13
0.0
 23
0.0
 33
0.0
 16
1.0
 26
0.0
 36
0.0
 17
0.0
 27
1.0
 37
0.0
 76
0
330
234
345
0
346
0
  0
ENDSEC
  0
EOF
