999
DXF file: 155342_1.dxf
999
Pro/ENGINEER 2009141 by Parametric Technology Corporation
  0
SECTION
  2
HEADER
  9
$ACADVER
  1
AC1015
  9
$DWGCODEPAGE
  3
ANSI_1252
  9
$EXTMAX
 10
17.0
 20
11.0
 30
0.0
  9
$EXTMIN
 10
0.0
 20
0.0
 30
0.0
  9
$LIMMIN
 10
0.0
 20
0.0
  9
$LIMMAX
 10
17.0
 20
11.0
  9
$VIEWCTR
 10
8.5
 20
5.5
  9
$VIEWSIZE
 40
11.0
  9
$CLAYER
  8
0
  9
$LTSCALE
 40
0.935
  9
$CELTYPE
  6
BYLAYER
  9
$DIMSCALE
 40
1.0
  9
$DIMASZ
 40
0.1875
  9
$DIMEXO
 40
0.10625
  9
$DIMDLI
 40
0.646
  9
$DIMEXE
 40
0.306
  9
$DIMCEN
 40
0.153
  9
$DIMLFAC
 40
1.0
  9
$DIMBLK
  1
_FILLED
  9
$DIMTXT
 40
0.1
  9
$DIMTOL
 70
1
  9
$DIMLIM
 70
0
  9
$DIMTFAC
 40
1.0
  9
$DIMTP
 40
0.005
  9
$DIMTM
 40
0.005
  9
$PDMODE
 70
3
  9
$PDSIZE
 40
0.3125
  9
$HANDSEED
  5
814
  9
$TILEMODE
 70
1
  9
$MEASUREMENT
 70
0
  9
$INSUNITS
 70
1
  0
ENDSEC
  0
SECTION
  2
CLASSES
  0
CLASS
  1
ACDBDICTIONARYWDFLT
  2
AcDbDictionaryWithDefault
  3
AutoCAD 2000
 90
0
280
0
281
0
  0
CLASS
  1
ACDBPLACEHOLDER
  2
AcDbPlaceHolder
  3
AutoCAD 2000
 90
0
280
0
281
0
  0
CLASS
  1
LAYOUT
  2
AcDbLayout
  3
AutoCAD 2000
 90
0
280
0
281
0
  0
ENDSEC
  0
SECTION
  2
TABLES
  0
TABLE
  2
VPORT
  5
8
100
AcDbSymbolTable
 70
2
  0
VPORT
  5
1F4
100
AcDbSymbolTableRecord
100
AcDbViewportTableRecord
  2
*ACTIVE
 70
0
 10
0.0
 20
0.0
 11
1.0
 21
1.0
 12
8.5
 22
5.5
 13
0.0
 23
0.0
 14
1.0
 24
1.0
 15
0.0
 25
0.0
 16
0.0
 26
0.0
 36
1.0
 17
0.0
 27
0.0
 37
0.0
 40
11.0
 41
1.5454545455
 42
50.0
 43
0.0
 44
0.0
 50
0.0
 51
0.0
 71
0
 72
100
 73
1
 74
1
 75
0
 76
0
 77
0
 78
0
  0
ENDTAB
  0
TABLE
  2
LTYPE
  5
5
100
AcDbSymbolTable
 70
6
  0
LTYPE
  5
14
100
AcDbSymbolTableRecord
100
AcDbLinetypeTableRecord
  2
BYBLOCK
 70
0
  3

 72
65
 73
0
 40
0.0
  0
LTYPE
  5
15
100
AcDbSymbolTableRecord
100
AcDbLinetypeTableRecord
  2
BYLAYER
 70
0
  3

 72
65
 73
0
 40
0.0
  0
LTYPE
  5
16
100
AcDbSymbolTableRecord
100
AcDbLinetypeTableRecord
  2
CONTINUOUS
 70
64
  3
Solid line
 72
65
 73
0
 40
0.0
  0
LTYPE
  5
1F5
100
AcDbSymbolTableRecord
100
AcDbLinetypeTableRecord
  2
CENTER
 70
64
  3
____ _ ____ _ ____ _ ____ _ ____ _ ____ _ ____
 72
65
 73
4
 40
0.6
 49
0.375
 74
0
 49
-0.075
 74
0
 49
0.075
 74
0
 49
-0.075
 74
0
  0
LTYPE
  5
1F6
100
AcDbSymbolTableRecord
100
AcDbLinetypeTableRecord
  2
HIDDEN
 70
64
  3
- - - - - - - - - - - - - - - - - - - -
 72
65
 73
2
 40
0.2
 49
0.1
 74
0
 49
-0.1
 74
0
  0
LTYPE
  5
1F7
100
AcDbSymbolTableRecord
100
AcDbLinetypeTableRecord
  2
PHANTOM
 70
64
  3
_____ _ _ _____ _ _ _____ _ _ _____
 72
65
 73
6
 40
0.8
 49
0.45
 74
0
 49
-0.05
 74
0
 49
0.1
 74
0
 49
-0.05
 74
0
 49
0.1
 74
0
 49
-0.05
 74
0
  0
LTYPE
  5
1F8
100
AcDbSymbolTableRecord
100
AcDbLinetypeTableRecord
  2
DOT
 70
64
  3
. . . . . . . . . . . . . . . . . . . .
 72
65
 73
2
 40
0.2
 49
0.1
 74
0
 49
-0.1
 74
0
  0
LTYPE
  5
1F9
100
AcDbSymbolTableRecord
100
AcDbLinetypeTableRecord
  2
DASHED
 70
64
  3
- - - - - - - - - - - - - - - - - - - -
 72
65
 73
2
 40
0.2
 49
0.1
 74
0
 49
-0.1
 74
0
  0
ENDTAB
  0
TABLE
  2
LAYER
  5
2
100
AcDbSymbolTable
 70
36
  0
LAYER
  5
10
100
AcDbSymbolTableRecord
100
AcDbLayerTableRecord
  2
0
 70
0
 62
7
  6
CONTINUOUS
370
-3
390
F
  0
LAYER
  5
1FA
100
AcDbSymbolTableRecord
100
AcDbLayerTableRecord
  2
DEFAULT_1
 70
0
 62
7
  6
CENTER
370
-3
390
F
  0
LAYER
  5
1FB
100
AcDbSymbolTableRecord
100
AcDbLayerTableRecord
  2
DEFAULT_2
 70
0
 62
8
  6
HIDDEN
370
-3
390
F
  0
LAYER
  5
1FC
100
AcDbSymbolTableRecord
100
AcDbLayerTableRecord
  2
DEFAULT_3
 70
0
 62
7
  6
PHANTOM
370
-3
390
F
  0
LAYER
  5
1FD
100
AcDbSymbolTableRecord
100
AcDbLayerTableRecord
  2
1
 70
0
 62
7
  6
CONTINUOUS
370
-3
390
F
  0
LAYER
  5
1FE
100
AcDbSymbolTableRecord
100
AcDbLayerTableRecord
  2
10
 70
0
 62
7
  6
CONTINUOUS
370
-3
390
F
  0
LAYER
  5
1FF
100
AcDbSymbolTableRecord
100
AcDbLayerTableRecord
  2
11
 70
0
 62
7
  6
CONTINUOUS
370
-3
390
F
  0
LAYER
  5
200
100
AcDbSymbolTableRecord
100
AcDbLayerTableRecord
  2
12
 70
0
 62
7
  6
CONTINUOUS
370
-3
390
F
  0
LAYER
  5
201
100
AcDbSymbolTableRecord
100
AcDbLayerTableRecord
  2
13
 70
0
 62
7
  6
CONTINUOUS
370
-3
390
F
  0
LAYER
  5
202
100
AcDbSymbolTableRecord
100
AcDbLayerTableRecord
  2
14
 70
0
 62
7
  6
CONTINUOUS
370
-3
390
F
  0
LAYER
  5
203
100
AcDbSymbolTableRecord
100
AcDbLayerTableRecord
  2
15
 70
0
 62
7
  6
CONTINUOUS
370
-3
390
F
  0
LAYER
  5
204
100
AcDbSymbolTableRecord
100
AcDbLayerTableRecord
  2
16
 70
0
 62
7
  6
CONTINUOUS
370
-3
390
F
  0
LAYER
  5
205
100
AcDbSymbolTableRecord
100
AcDbLayerTableRecord
  2
17
 70
0
 62
7
  6
CONTINUOUS
370
-3
390
F
  0
LAYER
  5
206
100
AcDbSymbolTableRecord
100
AcDbLayerTableRecord
  2
18
 70
0
 62
7
  6
CONTINUOUS
370
-3
390
F
  0
LAYER
  5
207
100
AcDbSymbolTableRecord
100
AcDbLayerTableRecord
  2
19
 70
0
 62
7
  6
CONTINUOUS
370
-3
390
F
  0
LAYER
  5
208
100
AcDbSymbolTableRecord
100
AcDbLayerTableRecord
  2
2
 70
0
 62
7
  6
CONTINUOUS
370
-3
390
F
  0
LAYER
  5
209
100
AcDbSymbolTableRecord
100
AcDbLayerTableRecord
  2
20
 70
0
 62
7
  6
CONTINUOUS
370
-3
390
F
  0
LAYER
  5
20A
100
AcDbSymbolTableRecord
100
AcDbLayerTableRecord
  2
21
 70
0
 62
7
  6
CONTINUOUS
370
-3
390
F
  0
LAYER
  5
20B
100
AcDbSymbolTableRecord
100
AcDbLayerTableRecord
  2
22
 70
0
 62
7
  6
CONTINUOUS
370
-3
390
F
  0
LAYER
  5
20C
100
AcDbSymbolTableRecord
100
AcDbLayerTableRecord
  2
23
 70
0
 62
7
  6
CONTINUOUS
370
-3
390
F
  0
LAYER
  5
20D
100
AcDbSymbolTableRecord
100
AcDbLayerTableRecord
  2
24
 70
0
 62
7
  6
CONTINUOUS
370
-3
390
F
  0
LAYER
  5
20E
100
AcDbSymbolTableRecord
100
AcDbLayerTableRecord
  2
25
 70
0
 62
7
  6
CONTINUOUS
370
-3
390
F
  0
LAYER
  5
20F
100
AcDbSymbolTableRecord
100
AcDbLayerTableRecord
  2
26
 70
0
 62
7
  6
CONTINUOUS
370
-3
390
F
  0
LAYER
  5
210
100
AcDbSymbolTableRecord
100
AcDbLayerTableRecord
  2
27
 70
0
 62
7
  6
CONTINUOUS
370
-3
390
F
  0
LAYER
  5
211
100
AcDbSymbolTableRecord
100
AcDbLayerTableRecord
  2
28
 70
0
 62
7
  6
CONTINUOUS
370
-3
390
F
  0
LAYER
  5
212
100
AcDbSymbolTableRecord
100
AcDbLayerTableRecord
  2
29
 70
0
 62
7
  6
CONTINUOUS
370
-3
390
F
  0
LAYER
  5
213
100
AcDbSymbolTableRecord
100
AcDbLayerTableRecord
  2
3
 70
0
 62
7
  6
CONTINUOUS
370
-3
390
F
  0
LAYER
  5
214
100
AcDbSymbolTableRecord
100
AcDbLayerTableRecord
  2
30
 70
0
 62
7
  6
CONTINUOUS
370
-3
390
F
  0
LAYER
  5
215
100
AcDbSymbolTableRecord
100
AcDbLayerTableRecord
  2
31
 70
0
 62
7
  6
CONTINUOUS
370
-3
390
F
  0
LAYER
  5
216
100
AcDbSymbolTableRecord
100
AcDbLayerTableRecord
  2
32
 70
0
 62
7
  6
CONTINUOUS
370
-3
390
F
  0
LAYER
  5
217
100
AcDbSymbolTableRecord
100
AcDbLayerTableRecord
  2
4
 70
0
 62
7
  6
CONTINUOUS
370
-3
390
F
  0
LAYER
  5
218
100
AcDbSymbolTableRecord
100
AcDbLayerTableRecord
  2
5
 70
0
 62
7
  6
CONTINUOUS
370
-3
390
F
  0
LAYER
  5
219
100
AcDbSymbolTableRecord
100
AcDbLayerTableRecord
  2
6
 70
0
 62
7
  6
CONTINUOUS
370
-3
390
F
  0
LAYER
  5
21A
100
AcDbSymbolTableRecord
100
AcDbLayerTableRecord
  2
7
 70
0
 62
7
  6
CONTINUOUS
370
-3
390
F
  0
LAYER
  5
21B
100
AcDbSymbolTableRecord
100
AcDbLayerTableRecord
  2
8
 70
0
 62
7
  6
CONTINUOUS
370
-3
390
F
  0
LAYER
  5
21C
100
AcDbSymbolTableRecord
100
AcDbLayerTableRecord
  2
9
 70
0
 62
7
  6
CONTINUOUS
370
-3
390
F
  0
LAYER
  5
21D
100
AcDbSymbolTableRecord
100
AcDbLayerTableRecord
  2
AXIS
 70
0
 62
7
  6
CONTINUOUS
370
-3
390
F
  0
LAYER
  5
21E
100
AcDbSymbolTableRecord
100
AcDbLayerTableRecord
  2
AXIS_COSMETIC_THREADS
 70
0
 62
7
  6
CONTINUOUS
370
-3
390
F
  0
LAYER
  5
21F
100
AcDbSymbolTableRecord
100
AcDbLayerTableRecord
  2
CURVES
 70
0
 62
7
  6
CONTINUOUS
370
-3
390
F
  0
LAYER
  5
220
100
AcDbSymbolTableRecord
100
AcDbLayerTableRecord
  2
DATUM_CURVES
 70
0
 62
7
  6
CONTINUOUS
370
-3
390
F
  0
LAYER
  5
221
100
AcDbSymbolTableRecord
100
AcDbLayerTableRecord
  2
DATUM_PLANES
 70
0
 62
7
  6
CONTINUOUS
370
-3
390
F
  0
LAYER
  5
222
100
AcDbSymbolTableRecord
100
AcDbLayerTableRecord
  2
DEF_CSY
 70
0
 62
7
  6
CONTINUOUS
370
-3
390
F
  0
LAYER
  5
223
100
AcDbSymbolTableRecord
100
AcDbLayerTableRecord
  2
DRIVEN_DIMS
 70
0
 62
7
  6
CONTINUOUS
370
-3
390
F
  0
LAYER
  5
224
100
AcDbSymbolTableRecord
100
AcDbLayerTableRecord
  2
GEOMTOL
 70
0
 62
7
  6
CONTINUOUS
370
-3
390
F
  0
LAYER
  5
225
100
AcDbSymbolTableRecord
100
AcDbLayerTableRecord
  2
MATTE_OUTLINE
 70
0
 62
7
  6
CONTINUOUS
370
-3
390
F
  0
LAYER
  5
226
100
AcDbSymbolTableRecord
100
AcDbLayerTableRecord
  2
NOTES
 70
0
 62
7
  6
CONTINUOUS
370
-3
390
F
  0
LAYER
  5
227
100
AcDbSymbolTableRecord
100
AcDbLayerTableRecord
  2
PNTS
 70
0
 62
7
  6
CONTINUOUS
370
-3
390
F
  0
LAYER
  5
228
100
AcDbSymbolTableRecord
100
AcDbLayerTableRecord
  2
QUILTS
 70
0
 62
7
  6
CONTINUOUS
370
-3
390
F
  0
LAYER
  5
229
100
AcDbSymbolTableRecord
100
AcDbLayerTableRecord
  2
SCHEME_DIMS
 70
0
 62
7
  6
CONTINUOUS
370
-3
390
F
  0
LAYER
  5
22A
100
AcDbSymbolTableRecord
100
AcDbLayerTableRecord
  2
SKETCHED_ENT
 70
0
 62
7
  6
CONTINUOUS
370
-3
390
F
  0
LAYER
  5
22B
100
AcDbSymbolTableRecord
100
AcDbLayerTableRecord
  2
SURFACES
 70
0
 62
7
  6
CONTINUOUS
370
-3
390
F
  0
LAYER
  5
22C
100
AcDbSymbolTableRecord
100
AcDbLayerTableRecord
  2
SYMBOLS
 70
0
 62
7
  6
CONTINUOUS
370
-3
390
F
  0
ENDTAB
  0
TABLE
  2
STYLE
  5
3
100
AcDbSymbolTable
 70
1
  0
STYLE
  5
11
100
AcDbSymbolTableRecord
100
AcDbTextStyleTableRecord
  2
STANDARD
 70
0
 40
0.0
 41
1.0
 50
0.0
 71
0
 42
0.2
  3
txt
  4

  0
STYLE
  5
22D
100
AcDbSymbolTableRecord
100
AcDbTextStyleTableRecord
  2
TEXTSTYLE_1
 70
0
 40
0.0
 41
0.8
 50
0.0
 71
0
 42
0.2
  3
gdt
  4

  0
STYLE
  5
22E
100
AcDbSymbolTableRecord
100
AcDbTextStyleTableRecord
  2
TEXTSTYLE_2
 70
0
 40
0.0
 41
0.8
 50
0.0
 71
0
 42
0.2
  3
txt
  4

  0
STYLE
  5
22F
100
AcDbSymbolTableRecord
100
AcDbTextStyleTableRecord
  2
TEXTSTYLE_3
 70
0
 40
0.0
 41
0.85
 50
0.0
 71
0
 42
0.2
  3
txt
  4

  0
STYLE
  5
230
100
AcDbSymbolTableRecord
100
AcDbTextStyleTableRecord
  2
TEXTSTYLE_4
 70
0
 40
0.0
 41
0.92
 50
0.0
 71
0
 42
0.2
  3
txt
  4

  0
STYLE
  5
231
100
AcDbSymbolTableRecord
100
AcDbTextStyleTableRecord
  2
TEXTSTYLE_5
 70
0
 40
0.0
 41
1.0
 50
0.0
 71
0
 42
0.2
  3
gdt
  4

  0
ENDTAB
  0
TABLE
  2
VIEW
  5
6
100
AcDbSymbolTable
 70
0
  0
ENDTAB
  0
TABLE
  2
UCS
  5
7
100
AcDbSymbolTable
 70
0
  0
ENDTAB
  0
TABLE
  2
APPID
  5
9
100
AcDbSymbolTable
 70
1
  0
APPID
  5
232
100
AcDbSymbolTableRecord
100
AcDbRegAppTableRecord
  2
ACAD
 70
0
  0
ENDTAB
  0
TABLE
  2
BLOCK_RECORD
  5
1
100
AcDbSymbolTable
 70
0
  0
BLOCK_RECORD
  5
233
100
AcDbSymbolTableRecord
100
AcDbBlockTableRecord
  2
*Model_Space
  0
BLOCK_RECORD
  5
234
100
AcDbSymbolTableRecord
100
AcDbBlockTableRecord
  2
*Paper_Space
  0
BLOCK_RECORD
  5
235
100
AcDbSymbolTableRecord
100
AcDbBlockTableRecord
  2
_FILLED
  0
BLOCK_RECORD
  5
236
100
AcDbSymbolTableRecord
100
AcDbBlockTableRecord
  2
*D0
  0
BLOCK_RECORD
  5
237
100
AcDbSymbolTableRecord
100
AcDbBlockTableRecord
  2
*D1
  0
BLOCK_RECORD
  5
238
100
AcDbSymbolTableRecord
100
AcDbBlockTableRecord
  2
*D2
  0
BLOCK_RECORD
  5
239
100
AcDbSymbolTableRecord
100
AcDbBlockTableRecord
  2
BANNER_LOGO_TITLEBLOCK_BL0
  0
ENDTAB
  0
TABLE
  2
DIMSTYLE
  5
A
100
AcDbSymbolTable
 70
1
100
AcDbDimStyleTable
 71
0
  0
DIMSTYLE
105
23A
100
AcDbSymbolTableRecord
100
AcDbDimStyleTableRecord
  2
STANDARD
 70
0
  3

  4

 40
1.0
 41
0.1875
 42
0.0625
 43
0.38
 44
0.18
 45
0.0
 46
0.0
 47
0.005
 48
0.005
140
0.1
141
0.09
142
0.0
143
25.4
144
1.0
145
0.0
146
1.0
147
0.09
 71
1.0
 72
0.0
 73
1
 74
1
 75
0
 76
0
 77
0
 78
4
170
0
171
2
172
0
173
0
174
0
175
0
176
0
177
0
178
0
270
2
271
3
272
3
273
2
274
2
275
0
280
0
281
0
282
0
283
1
284
4
285
0
286
0
287
3
288
0
340
11
341
235
342
235
343
235
344
235
  0
DIMSTYLE
105
23B
100
AcDbSymbolTableRecord
100
AcDbDimStyleTableRecord
  2
DIMSTYLE_1
 70
0
  3

  4

 40
1.0
 41
0.1875
 42
0.0625
 43
0.38
 44
0.18
 45
0.0
 46
0.0
 47
0.0
 48
0.0
140
0.1
141
0.09
142
0.0
143
25.4
144
1.0
145
0.0
146
1.0
147
0.09
 71
0.0
 72
0.0
 73
1
 74
1
 75
0
 76
0
 77
0
 78
4
170
0
171
2
172
0
173
0
174
0
175
0
176
0
177
0
178
0
270
2
271
1
272
1
273
2
274
2
275
0
280
0
281
0
282
0
283
1
284
4
285
0
286
0
287
3
288
0
340
11
341
235
342
235
343
235
344
235
  0
DIMSTYLE
105
23C
100
AcDbSymbolTableRecord
100
AcDbDimStyleTableRecord
  2
DIMSTYLE_2
 70
0
  3

  4

 40
1.0
 41
0.1875
 42
0.0625
 43
0.38
 44
0.18
 45
0.0
 46
0.0
 47
0.1
 48
0.1
140
0.1
141
0.09
142
0.0
143
25.4
144
1.0
145
0.0
146
1.0
147
0.09
 71
0.0
 72
0.0
 73
1
 74
1
 75
0
 76
0
 77
0
 78
4
170
0
171
2
172
0
173
0
174
0
175
0
176
0
177
0
178
0
270
2
271
1
272
1
273
2
274
2
275
0
280
0
281
0
282
0
283
1
284
4
285
0
286
0
287
3
288
0
340
11
341
235
342
235
343
235
344
235
  0
ENDTAB
  0
ENDSEC
  0
SECTION
  2
BLOCKS
  0
BLOCK
  5
20
100
AcDbEntity
  8
0
100
AcDbBlockBegin
  2
*Model_Space
 70
0
 10
0.0
 20
0.0
 30
0.0
  3
*Model_Space
  1

  0
ENDBLK
  5
21
100
AcDbEntity
  8
0
100
AcDbBlockEnd
  0
BLOCK
  5
1C
100
AcDbEntity
  8
0
100
AcDbBlockBegin
  2
*Paper_Space
 70
0
 10
0.0
 20
0.0
 30
0.0
  3
*Paper_Space
  1

  0
ENDBLK
  5
1D
100
AcDbEntity
  8
0
100
AcDbBlockEnd
  0
BLOCK
  5
23D
100
AcDbEntity
  8
0
100
AcDbBlockBegin
 62
2
  6
CONTINUOUS
  2
BANNER_LOGO_TITLEBLOCK_BL0
 70
64
 10
12.9086867042
 20
2.5403783405
  3
BANNER_LOGO_TITLEBLOCK_BL0
  1

  0
ELLIPSE
  5
23E
100
AcDbEntity
  8
0
100
AcDbEllipse
 62
2
  6
CONTINUOUS
 10
12.9046654608
 20
2.5403783405
 30
0.0
 11
-0.8250004575
 21
0.0
 31
0.0
 40
0.218572
 41
0.0
 42
6.2831853072
  0
ARC
  5
23F
100
AcDbEntity
  8
0
100
AcDbCircle
 62
2
  6
CONTINUOUS
 10
12.400005721
 20
2.5168763464
 40
0.0153945295
100
AcDbArc
 50
354.0454548824
 51
5.1878013979
  0
ARC
  5
240
100
AcDbEntity
  8
0
100
AcDbCircle
 62
2
  6
CONTINUOUS
 10
12.3931760319
 20
2.5166878286
 40
0.0222174455
100
AcDbArc
 50
4.0793399388
 51
69.834329283
  0
LINE
  5
241
100
AcDbEntity
  8
0
100
AcDbLine
 62
2
  6
CONTINUOUS
 10
12.4008351814
 20
2.5375433389
 11
12.3907841758
 21
2.5410923409
  0
LINE
  5
242
100
AcDbEntity
  8
0
100
AcDbLine
 62
2
  6
CONTINUOUS
 10
12.3907841758
 20
2.5410923409
 11
12.3990241804
 21
2.5458683435
  0
ARC
  5
243
100
AcDbEntity
  8
0
100
AcDbCircle
 62
2
  6
CONTINUOUS
 10
12.3771587979
 20
2.5826952352
 40
0.0428289026
100
AcDbArc
 50
300.6990502959
 51
319.0591802498
  0
ARC
  5
244
100
AcDbEntity
  8
0
100
AcDbCircle
 62
2
  6
CONTINUOUS
 10
12.3971873948
 20
2.5665668817
 40
0.0171568255
100
AcDbArc
 50
315.9145124245
 51
16.0049121282
  0
ARC
  5
245
100
AcDbEntity
  8
0
100
AcDbCircle
 62
2
  6
CONTINUOUS
 10
12.3922357827
 20
2.5632132173
 40
0.0229166529
100
AcDbArc
 50
20.6563876465
 51
62.3316896973
  0
ARC
  5
246
100
AcDbEntity
  8
0
100
AcDbCircle
 62
2
  6
CONTINUOUS
 10
12.371573659
 20
2.5302846524
 40
0.061747717
100
AcDbArc
 50
59.5385584989
 51
90.0050977555
  0
LINE
  5
247
100
AcDbEntity
  8
0
100
AcDbLine
 62
2
  6
CONTINUOUS
 10
12.3715681652
 20
2.5920323691
 11
12.2055050731
 21
2.5920323691
  0
ARC
  5
248
100
AcDbEntity
  8
0
100
AcDbCircle
 62
2
  6
CONTINUOUS
 10
12.2055050712
 20
2.5895573696
 40
0.0024749995
100
AcDbArc
 50
89.9999571957
 51
180.0000428043
  0
LINE
  5
249
100
AcDbEntity
  8
0
100
AcDbLine
 62
2
  6
CONTINUOUS
 10
12.2030300717
 20
2.5895573678
 11
12.2030300717
 21
2.5697573568
  0
ARC
  5
24A
100
AcDbEntity
  8
0
100
AcDbCircle
 62
2
  6
CONTINUOUS
 10
12.2055050712
 20
2.5697573549
 40
0.0024749995
100
AcDbArc
 50
179.9999571957
 51
270.0000428043
  0
LINE
  5
24B
100
AcDbEntity
  8
0
100
AcDbLine
 62
2
  6
CONTINUOUS
 10
12.2055050731
 20
2.5672823554
 11
12.2294470864
 21
2.5672823554
  0
ARC
  5
24C
100
AcDbEntity
  8
0
100
AcDbCircle
 62
2
  6
CONTINUOUS
 10
12.2294470882
 20
2.5648073559
 40
0.0024749995
100
AcDbArc
 50
359.9999571957
 51
90.0000428043
  0
LINE
  5
24D
100
AcDbEntity
  8
0
100
AcDbLine
 62
2
  6
CONTINUOUS
 10
12.2319220877
 20
2.564807354
 11
12.2319220877
 21
2.5184523283
  0
ARC
  5
24E
100
AcDbEntity
  8
0
100
AcDbCircle
 62
2
  6
CONTINUOUS
 10
12.2294470882
 20
2.5184523265
 40
0.0024749995
100
AcDbArc
 50
269.9999571957
 51
0.0000428043
  0
LINE
  5
24F
100
AcDbEntity
  8
0
100
AcDbLine
 62
2
  6
CONTINUOUS
 10
12.2294470864
 20
2.515977327
 11
12.2055050731
 21
2.515977327
  0
ARC
  5
250
100
AcDbEntity
  8
0
100
AcDbCircle
 62
2
  6
CONTINUOUS
 10
12.2055050712
 20
2.5135023274
 40
0.0024749995
100
AcDbArc
 50
89.9999571957
 51
180.0000428043
  0
LINE
  5
251
100
AcDbEntity
  8
0
100
AcDbLine
 62
2
  6
CONTINUOUS
 10
12.2030300717
 20
2.5135023256
 11
12.2030300717
 21
2.4937023146
  0
ARC
  5
252
100
AcDbEntity
  8
0
100
AcDbCircle
 62
2
  6
CONTINUOUS
 10
12.2055050712
 20
2.4937023128
 40
0.0024749995
100
AcDbArc
 50
179.9999571957
 51
270.0000428043
  0
LINE
  5
253
100
AcDbEntity
  8
0
100
AcDbLine
 62
2
  6
CONTINUOUS
 10
12.2055050731
 20
2.4912273132
 11
12.3819511709
 21
2.4912273132
  0
ARC
  5
254
100
AcDbEntity
  8
0
100
AcDbCircle
 62
2
  6
CONTINUOUS
 10
12.3792298263
 20
2.539634765
 40
0.048483885
100
AcDbArc
 50
273.21763719
 51
303.0749121182
  0
ARC
  5
255
100
AcDbEntity
  8
0
100
AcDbCircle
 62
2
  6
CONTINUOUS
 10
12.3940692204
 20
2.5168671561
 40
0.0213072145
100
AcDbArc
 50
303.0488228549
 51
355.7263138674
  0
LINE
  5
256
100
AcDbEntity
  8
0
100
AcDbLine
 62
2
  6
CONTINUOUS
 10
12.2949101227
 20
2.5499573458
 11
12.3362731456
 21
2.5499573458
  0
ARC
  5
257
100
AcDbEntity
  8
0
100
AcDbCircle
 62
2
  6
CONTINUOUS
 10
12.3362731456
 20
2.5586198506
 40
0.0086625048
100
AcDbArc
 50
270.0
 51
90.0
  0
LINE
  5
258
100
AcDbEntity
  8
0
100
AcDbLine
 62
2
  6
CONTINUOUS
 10
12.3362731456
 20
2.5672823554
 11
12.2949101227
 21
2.5672823554
  0
ARC
  5
259
100
AcDbEntity
  8
0
100
AcDbCircle
 62
2
  6
CONTINUOUS
 10
12.2949101208
 20
2.5648073559
 40
0.0024749995
100
AcDbArc
 50
89.9999571957
 51
180.0000428043
  0
LINE
  5
25A
100
AcDbEntity
  8
0
100
AcDbLine
 62
2
  6
CONTINUOUS
 10
12.2924351213
 20
2.564807354
 11
12.2924351213
 21
2.5524323472
  0
ARC
  5
25B
100
AcDbEntity
  8
0
100
AcDbCircle
 62
2
  6
CONTINUOUS
 10
12.2949101208
 20
2.5524323453
 40
0.0024749995
100
AcDbArc
 50
179.9999571957
 51
270.0000428043
  0
LINE
  5
25C
100
AcDbEntity
  8
0
100
AcDbLine
 62
2
  6
CONTINUOUS
 10
12.2924351213
 20
2.5184523283
 11
12.2924351213
 21
2.5308273352
  0
ARC
  5
25D
100
AcDbEntity
  8
0
100
AcDbCircle
 62
2
  6
CONTINUOUS
 10
12.2949101208
 20
2.530827337
 40
0.0024749995
100
AcDbArc
 50
89.9999571957
 51
180.0000428043
  0
LINE
  5
25E
100
AcDbEntity
  8
0
100
AcDbLine
 62
2
  6
CONTINUOUS
 10
12.2949101227
 20
2.5333023366
 11
12.3362731456
 21
2.5333023366
  0
ARC
  5
25F
100
AcDbEntity
  8
0
100
AcDbCircle
 62
2
  6
CONTINUOUS
 10
12.3362731456
 20
2.5246398318
 40
0.0086625048
100
AcDbArc
 50
270.0
 51
90.0
  0
LINE
  5
260
100
AcDbEntity
  8
0
100
AcDbLine
 62
2
  6
CONTINUOUS
 10
12.3362731456
 20
2.515977327
 11
12.2949101227
 21
2.515977327
  0
ARC
  5
261
100
AcDbEntity
  8
0
100
AcDbCircle
 62
2
  6
CONTINUOUS
 10
12.2949101208
 20
2.5184523265
 40
0.0024749995
100
AcDbArc
 50
179.9999571957
 51
270.0000428043
  0
ARC
  5
262
100
AcDbEntity
  8
0
100
AcDbCircle
 62
2
  6
CONTINUOUS
 10
13.5806801742
 20
2.5212486481
 40
0.044722495
100
AcDbArc
 50
195.531588407
 51
204.7624440448
  0
LINE
  5
263
100
AcDbEntity
  8
0
100
AcDbLine
 62
2
  6
CONTINUOUS
 10
13.5375908118
 20
2.5092733232
 11
13.5357868108
 21
2.5153423266
  0
ARC
  5
264
100
AcDbEntity
  8
0
100
AcDbCircle
 62
2
  6
CONTINUOUS
 10
13.4974076135
 20
2.5055452462
 40
0.0396099176
100
AcDbArc
 50
14.3201081283
 51
22.4984722084
  0
ARC
  5
265
100
AcDbEntity
  8
0
100
AcDbCircle
 62
2
  6
CONTINUOUS
 10
13.5201739219
 20
2.5145168728
 40
0.0151491919
100
AcDbArc
 50
24.098260853
 51
63.0369451818
  0
ARC
  5
266
100
AcDbEntity
  8
0
100
AcDbCircle
 62
2
  6
CONTINUOUS
 10
13.5161192671
 20
2.5062372524
 40
0.0243676582
100
AcDbArc
 50
63.3666028271
 51
90.3937697637
  0
LINE
  5
267
100
AcDbEntity
  8
0
100
AcDbLine
 62
2
  6
CONTINUOUS
 10
13.5159517998
 20
2.5306043351
 11
13.4883447845
 21
2.5306043351
  0
ARC
  5
268
100
AcDbEntity
  8
0
100
AcDbCircle
 62
2
  6
CONTINUOUS
 10
13.4883447827
 20
2.5281293355
 40
0.0024749995
100
AcDbArc
 50
89.9999571957
 51
180.0000428043
  0
LINE
  5
269
100
AcDbEntity
  8
0
100
AcDbLine
 62
2
  6
CONTINUOUS
 10
13.4858697831
 20
2.5281293337
 11
13.4858697831
 21
2.5184303283
  0
ARC
  5
26A
100
AcDbEntity
  8
0
100
AcDbCircle
 62
2
  6
CONTINUOUS
 10
13.4883447827
 20
2.5184303265
 40
0.0024749995
100
AcDbArc
 50
179.9999571957
 51
270.0000428043
  0
LINE
  5
26B
100
AcDbEntity
  8
0
100
AcDbLine
 62
2
  6
CONTINUOUS
 10
13.4883447845
 20
2.5159553269
 11
13.5130037982
 21
2.5159553269
  0
ARC
  5
26C
100
AcDbEntity
  8
0
100
AcDbCircle
 62
2
  6
CONTINUOUS
 10
13.5130038
 20
2.5134803274
 40
0.0024749995
100
AcDbArc
 50
359.9999571957
 51
90.0000428043
  0
LINE
  5
26D
100
AcDbEntity
  8
0
100
AcDbLine
 62
2
  6
CONTINUOUS
 10
13.5154787995
 20
2.5134803256
 11
13.5154787995
 21
2.4937023146
  0
ARC
  5
26E
100
AcDbEntity
  8
0
100
AcDbCircle
 62
2
  6
CONTINUOUS
 10
13.5130038
 20
2.4937023128
 40
0.0024749995
100
AcDbArc
 50
269.9999571957
 51
0.0000428043
  0
LINE
  5
26F
100
AcDbEntity
  8
0
100
AcDbLine
 62
2
  6
CONTINUOUS
 10
13.5130037982
 20
2.4912273132
 11
13.3994327352
 21
2.4912273132
  0
ARC
  5
270
100
AcDbEntity
  8
0
100
AcDbCircle
 62
2
  6
CONTINUOUS
 10
13.3994327333
 20
2.4937023128
 40
0.0024749995
100
AcDbArc
 50
179.9999571957
 51
270.0000428043
  0
LINE
  5
271
100
AcDbEntity
  8
0
100
AcDbLine
 62
2
  6
CONTINUOUS
 10
13.3969577338
 20
2.4937023146
 11
13.3969577338
 21
2.5135023256
  0
ARC
  5
272
100
AcDbEntity
  8
0
100
AcDbCircle
 62
2
  6
CONTINUOUS
 10
13.3994327333
 20
2.5135023274
 40
0.0024749995
100
AcDbArc
 50
89.9999571957
 51
180.0000428043
  0
LINE
  5
273
100
AcDbEntity
  8
0
100
AcDbLine
 62
2
  6
CONTINUOUS
 10
13.3994327352
 20
2.515977327
 11
13.4221787478
 21
2.515977327
  0
ARC
  5
274
100
AcDbEntity
  8
0
100
AcDbCircle
 62
2
  6
CONTINUOUS
 10
13.4221787497
 20
2.5184523265
 40
0.0024749995
100
AcDbArc
 50
269.9999571957
 51
0.0000428042
  0
LINE
  5
275
100
AcDbEntity
  8
0
100
AcDbLine
 62
2
  6
CONTINUOUS
 10
13.4246537492
 20
2.5184523283
 11
13.4246537492
 21
2.564807354
  0
ARC
  5
276
100
AcDbEntity
  8
0
100
AcDbCircle
 62
2
  6
CONTINUOUS
 10
13.4221787497
 20
2.5648073559
 40
0.0024749995
100
AcDbArc
 50
359.9999571957
 51
90.0000428043
  0
LINE
  5
277
100
AcDbEntity
  8
0
100
AcDbLine
 62
2
  6
CONTINUOUS
 10
13.4221787478
 20
2.5672823554
 11
13.3994327352
 21
2.5672823554
  0
ARC
  5
278
100
AcDbEntity
  8
0
100
AcDbCircle
 62
2
  6
CONTINUOUS
 10
13.3994327333
 20
2.5697573549
 40
0.0024749995
100
AcDbArc
 50
179.9999571957
 51
270.0000428043
  0
LINE
  5
279
100
AcDbEntity
  8
0
100
AcDbLine
 62
2
  6
CONTINUOUS
 10
13.3969577338
 20
2.5697573568
 11
13.3969577338
 21
2.5895573678
  0
ARC
  5
27A
100
AcDbEntity
  8
0
100
AcDbCircle
 62
2
  6
CONTINUOUS
 10
13.3994327333
 20
2.5895573696
 40
0.0024749995
100
AcDbArc
 50
89.9999571957
 51
180.0000428043
  0
LINE
  5
27B
100
AcDbEntity
  8
0
100
AcDbLine
 62
2
  6
CONTINUOUS
 10
13.3994327352
 20
2.5920323691
 11
13.5490138181
 21
2.5920323691
  0
ARC
  5
27C
100
AcDbEntity
  8
0
100
AcDbCircle
 62
2
  6
CONTINUOUS
 10
13.5463505148
 20
2.4094934586
 40
0.1825583387
100
AcDbArc
 50
79.8618509324
 51
89.1640948679
  0
ARC
  5
27D
100
AcDbEntity
  8
0
100
AcDbCircle
 62
2
  6
CONTINUOUS
 10
13.5726548052
 20
2.5503169747
 40
0.039319019
100
AcDbArc
 50
59.1202086415
 51
81.4730239328
  0
ARC
  5
27E
100
AcDbEntity
  8
0
100
AcDbCircle
 62
2
  6
CONTINUOUS
 10
13.5783142014
 20
2.5566516438
 40
0.0310192946
100
AcDbArc
 50
34.7540871
 51
62.0879016178
  0
ARC
  5
27F
100
AcDbEntity
  8
0
100
AcDbCircle
 62
2
  6
CONTINUOUS
 10
13.5900029525
 20
2.565201245
 40
0.0165459396
100
AcDbArc
 50
1.548452892
 51
33.5033152417
  0
ARC
  5
280
100
AcDbEntity
  8
0
100
AcDbCircle
 62
2
  6
CONTINUOUS
 10
13.5932995477
 20
2.5653696972
 40
0.0132462337
100
AcDbArc
 50
331.1510006998
 51
1.205404301
  0
ARC
  5
281
100
AcDbEntity
  8
0
100
AcDbCircle
 62
2
  6
CONTINUOUS
 10
13.5822888914
 20
2.5720482849
 40
0.0261183659
100
AcDbArc
 50
305.6373831893
 51
329.9727629745
  0
ARC
  5
282
100
AcDbEntity
  8
0
100
AcDbCircle
 62
2
  6
CONTINUOUS
 10
13.5519569538
 20
2.6152551345
 40
0.0789082104
100
AcDbArc
 50
292.906155071
 51
305.2574666259
  0
ARC
  5
283
100
AcDbEntity
  8
0
100
AcDbCircle
 62
2
  6
CONTINUOUS
 10
13.5282557878
 20
2.4386010294
 40
0.117346916
100
AcDbArc
 50
58.614769177
 51
62.3737227606
  0
ARC
  5
284
100
AcDbEntity
  8
0
100
AcDbCircle
 62
2
  6
CONTINUOUS
 10
13.5761387404
 20
2.5167282896
 40
0.0257145923
100
AcDbArc
 50
39.3804255939
 51
59.0361096173
  0
ARC
  5
285
100
AcDbEntity
  8
0
100
AcDbCircle
 62
2
  6
CONTINUOUS
 10
13.5750183849
 20
2.5166552064
 40
0.0266349791
100
AcDbArc
 50
20.3630922153
 51
37.9727053099
  0
ARC
  5
286
100
AcDbEntity
  8
0
100
AcDbCircle
 62
2
  6
CONTINUOUS
 10
13.5571178432
 20
2.509473798
 40
0.0459185159
100
AcDbArc
 50
15.6740290068
 51
20.9917271228
  0
ARC
  5
287
100
AcDbEntity
  8
0
100
AcDbCircle
 62
2
  6
CONTINUOUS
 10
13.6156881783
 20
2.525116781
 40
0.0147197649
100
AcDbArc
 50
192.7054516565
 51
206.0594861022
  0
ARC
  5
288
100
AcDbEntity
  8
0
100
AcDbCircle
 62
2
  6
CONTINUOUS
 10
13.6071938412
 20
2.5209082945
 40
0.0052403997
100
AcDbArc
 50
205.5232099488
 51
227.5054868079
  0
ARC
  5
289
100
AcDbEntity
  8
0
100
AcDbCircle
 62
2
  6
CONTINUOUS
 10
13.6054655419
 20
2.5190929218
 40
0.0027347709
100
AcDbArc
 50
228.5117626737
 51
266.1485845754
  0
LINE
  5
28A
100
AcDbEntity
  8
0
100
AcDbLine
 62
2
  6
CONTINUOUS
 10
13.6052818493
 20
2.5163643272
 11
13.60639085
 21
2.5163643272
  0
ARC
  5
28B
100
AcDbEntity
  8
0
100
AcDbCircle
 62
2
  6
CONTINUOUS
 10
13.6063292954
 20
2.5296129864
 40
0.0132488022
100
AcDbArc
 50
270.266200055
 51
281.2404888597
  0
ARC
  5
28C
100
AcDbEntity
  8
0
100
AcDbCircle
 62
2
  6
CONTINUOUS
 10
13.6075235364
 20
2.5238762928
 40
0.0073895522
100
AcDbArc
 50
280.8288201977
 51
305.0837508495
  0
ARC
  5
28D
100
AcDbEntity
  8
0
100
AcDbCircle
 62
2
  6
CONTINUOUS
 10
13.607924718
 20
2.5230254464
 40
0.0064647042
100
AcDbArc
 50
306.5086174083
 51
340.2162360092
  0
ARC
  5
28E
100
AcDbEntity
  8
0
100
AcDbCircle
 62
2
  6
CONTINUOUS
 10
13.6027235414
 20
2.524769508
 40
0.0119498009
100
AcDbArc
 50
340.7883861657
 51
1.1691452593
  0
LINE
  5
28F
100
AcDbEntity
  8
0
100
AcDbLine
 62
2
  6
CONTINUOUS
 10
13.6146708546
 20
2.525013332
 11
13.6146708546
 21
2.5276393334
  0
ARC
  5
290
100
AcDbEntity
  8
0
100
AcDbCircle
 62
2
  6
CONTINUOUS
 10
13.6171458541
 20
2.5276393353
 40
0.0024749995
100
AcDbArc
 50
89.9999571957
 51
180.0000428043
  0
LINE
  5
291
100
AcDbEntity
  8
0
100
AcDbLine
 62
2
  6
CONTINUOUS
 10
13.6171458559
 20
2.5301143348
 11
13.6292558626
 21
2.5301143348
  0
ARC
  5
292
100
AcDbEntity
  8
0
100
AcDbCircle
 62
2
  6
CONTINUOUS
 10
13.6292558645
 20
2.5276393353
 40
0.0024749995
100
AcDbArc
 50
359.9999571957
 51
90.0000428043
  0
LINE
  5
293
100
AcDbEntity
  8
0
100
AcDbLine
 62
2
  6
CONTINUOUS
 10
13.631730864
 20
2.5276393334
 11
13.631730864
 21
2.516087327
  0
ARC
  5
294
100
AcDbEntity
  8
0
100
AcDbCircle
 62
2
  6
CONTINUOUS
 10
13.6141751675
 20
2.5161916447
 40
0.0175560065
100
AcDbArc
 50
332.2279060967
 51
359.6595469939
  0
ARC
  5
295
100
AcDbEntity
  8
0
100
AcDbCircle
 62
2
  6
CONTINUOUS
 10
13.6048681567
 20
2.5210861501
 40
0.0280715479
100
AcDbArc
 50
308.5071794988
 51
332.2400656899
  0
ARC
  5
296
100
AcDbEntity
  8
0
100
AcDbCircle
 62
2
  6
CONTINUOUS
 10
13.5978759713
 20
2.5286873679
 40
0.0383802683
100
AcDbArc
 50
288.7656836787
 51
309.6104317088
  0
ARC
  5
297
100
AcDbEntity
  8
0
100
AcDbCircle
 62
2
  6
CONTINUOUS
 10
13.6036139387
 20
2.5111006186
 40
0.0198837666
100
AcDbArc
 50
271.8586572978
 51
289.4131338543
  0
LINE
  5
298
100
AcDbEntity
  8
0
100
AcDbLine
 62
2
  6
CONTINUOUS
 10
13.6042588488
 20
2.4912273132
 11
13.5568948225
 21
2.4912273132
  0
ARC
  5
299
100
AcDbEntity
  8
0
100
AcDbCircle
 62
2
  6
CONTINUOUS
 10
13.5577001432
 20
2.5085494649
 40
0.0173408616
100
AcDbArc
 50
232.4713476722
 51
267.338189944
  0
ARC
  5
29A
100
AcDbEntity
  8
0
100
AcDbCircle
 62
2
  6
CONTINUOUS
 10
13.5607987082
 20
2.5143997688
 40
0.0238935861
100
AcDbArc
 50
209.8247607259
 51
235.1255079367
  0
ARC
  5
29B
100
AcDbEntity
  8
0
100
AcDbCircle
 62
2
  6
CONTINUOUS
 10
13.5295131508
 20
2.5629115009
 40
0.0110815393
100
AcDbArc
 50
306.758405961
 51
320.4502234234
  0
ARC
  5
29C
100
AcDbEntity
  8
0
100
AcDbCircle
 62
2
  6
CONTINUOUS
 10
13.5238839599
 20
2.5706523294
 40
0.0206523367
100
AcDbArc
 50
289.6883413472
 51
306.4184925496
  0
ARC
  5
29D
100
AcDbEntity
  8
0
100
AcDbCircle
 62
2
  6
CONTINUOUS
 10
13.5219564542
 20
2.5750459767
 40
0.0254407115
100
AcDbArc
 50
270.7327484175
 51
290.441894219
  0
LINE
  5
29E
100
AcDbEntity
  8
0
100
AcDbLine
 62
2
  6
CONTINUOUS
 10
13.5222818033
 20
2.5496073456
 11
13.4883447845
 21
2.5496073456
  0
ARC
  5
29F
100
AcDbEntity
  8
0
100
AcDbCircle
 62
2
  6
CONTINUOUS
 10
13.4883447827
 20
2.5520823451
 40
0.0024749995
100
AcDbArc
 50
179.9999571957
 51
270.0000428043
  0
LINE
  5
2A0
100
AcDbEntity
  8
0
100
AcDbLine
 62
2
  6
CONTINUOUS
 10
13.4858697831
 20
2.552082347
 11
13.4858697831
 21
2.564807354
  0
ARC
  5
2A1
100
AcDbEntity
  8
0
100
AcDbCircle
 62
2
  6
CONTINUOUS
 10
13.4883447827
 20
2.5648073559
 40
0.0024749995
100
AcDbArc
 50
89.9999571957
 51
180.0000428043
  0
LINE
  5
2A2
100
AcDbEntity
  8
0
100
AcDbLine
 62
2
  6
CONTINUOUS
 10
13.4883447845
 20
2.5672823554
 11
13.5251458049
 21
2.5672823554
  0
ARC
  5
2A3
100
AcDbEntity
  8
0
100
AcDbCircle
 62
2
  6
CONTINUOUS
 10
13.5236009174
 20
2.5388278764
 40
0.0284963867
100
AcDbArc
 50
70.3834917948
 51
86.8922743861
  0
ARC
  5
2A4
100
AcDbEntity
  8
0
100
AcDbCircle
 62
2
  6
CONTINUOUS
 10
13.5284605274
 20
2.5518696094
 40
0.0145814632
100
AcDbArc
 50
54.6746025112
 51
71.1660573124
  0
ARC
  5
2A5
100
AcDbEntity
  8
0
100
AcDbCircle
 62
2
  6
CONTINUOUS
 10
13.5335900184
 20
2.5587235346
 40
0.0060275915
100
AcDbArc
 50
20.9055592135
 51
56.7851676243
  0
ARC
  5
2A6
100
AcDbEntity
  8
0
100
AcDbCircle
 62
2
  6
CONTINUOUS
 10
13.5348905773
 20
2.5593838168
 40
0.0045795888
100
AcDbArc
 50
355.6235353944
 51
18.9942678268
  0
ARC
  5
2A7
100
AcDbEntity
  8
0
100
AcDbCircle
 62
2
  6
CONTINUOUS
 10
13.533683767
 20
2.559677593
 40
0.0058087709
100
AcDbArc
 50
318.8515287446
 51
353.6422345323
  0
LINE
  5
2A8
100
AcDbEntity
  8
0
100
AcDbLine
 62
2
  6
CONTINUOUS
 10
12.672340332
 20
2.5920323691
 11
12.7727983877
 21
2.5920323691
  0
ARC
  5
2A9
100
AcDbEntity
  8
0
100
AcDbCircle
 62
2
  6
CONTINUOUS
 10
12.7727985224
 20
2.5895582013
 40
0.0024741678
100
AcDbArc
 50
46.3477981899
 51
90.0031206038
  0
LINE
  5
2AA
100
AcDbEntity
  8
0
100
AcDbLine
 62
2
  6
CONTINUOUS
 10
12.7745063886
 20
2.5913483688
 11
12.8345394219
 21
2.534068337
  0
ARC
  5
2AB
100
AcDbEntity
  8
0
100
AcDbCircle
 62
2
  6
CONTINUOUS
 10
12.8362481229
 20
2.5358592748
 40
0.0024753014
100
AcDbArc
 50
226.3461263059
 51
0.0014637321
  0
LINE
  5
2AC
100
AcDbEntity
  8
0
100
AcDbLine
 62
2
  6
CONTINUOUS
 10
12.8387234242
 20
2.535859338
 11
12.8387234242
 21
2.564807354
  0
ARC
  5
2AD
100
AcDbEntity
  8
0
100
AcDbCircle
 62
2
  6
CONTINUOUS
 10
12.8362484247
 20
2.5648073559
 40
0.0024749995
100
AcDbArc
 50
359.9999571957
 51
90.0000428043
  0
LINE
  5
2AE
100
AcDbEntity
  8
0
100
AcDbLine
 62
2
  6
CONTINUOUS
 10
12.8362484229
 20
2.5672823554
 11
12.8174724125
 21
2.5672823554
  0
ARC
  5
2AF
100
AcDbEntity
  8
0
100
AcDbCircle
 62
2
  6
CONTINUOUS
 10
12.8174724106
 20
2.5697573549
 40
0.0024749995
100
AcDbArc
 50
179.9999571957
 51
270.0000428043
  0
LINE
  5
2B0
100
AcDbEntity
  8
0
100
AcDbLine
 62
2
  6
CONTINUOUS
 10
12.8149974111
 20
2.5697573568
 11
12.8149974111
 21
2.5895573678
  0
ARC
  5
2B1
100
AcDbEntity
  8
0
100
AcDbCircle
 62
2
  6
CONTINUOUS
 10
12.8174724106
 20
2.5895573696
 40
0.0024749995
100
AcDbArc
 50
89.9999571957
 51
180.0000428043
  0
LINE
  5
2B2
100
AcDbEntity
  8
0
100
AcDbLine
 62
2
  6
CONTINUOUS
 10
12.8174724125
 20
2.5920323691
 11
12.8914734535
 21
2.5920323691
  0
ARC
  5
2B3
100
AcDbEntity
  8
0
100
AcDbCircle
 62
2
  6
CONTINUOUS
 10
12.8914734553
 20
2.5895573696
 40
0.0024749995
100
AcDbArc
 50
359.9999571957
 51
90.0000428043
  0
LINE
  5
2B4
100
AcDbEntity
  8
0
100
AcDbLine
 62
2
  6
CONTINUOUS
 10
12.8939484549
 20
2.5895573678
 11
12.8939484549
 21
2.5697573568
  0
ARC
  5
2B5
100
AcDbEntity
  8
0
100
AcDbCircle
 62
2
  6
CONTINUOUS
 10
12.8914734553
 20
2.5697573549
 40
0.0024749995
100
AcDbArc
 50
269.9999571957
 51
0.0000428043
  0
LINE
  5
2B6
100
AcDbEntity
  8
0
100
AcDbLine
 62
2
  6
CONTINUOUS
 10
12.8914734535
 20
2.5672823554
 11
12.8735404436
 21
2.5672823554
  0
ARC
  5
2B7
100
AcDbEntity
  8
0
100
AcDbCircle
 62
2
  6
CONTINUOUS
 10
12.8735404417
 20
2.5648073559
 40
0.0024749995
100
AcDbArc
 50
89.9999571957
 51
180.0000428043
  0
LINE
  5
2B8
100
AcDbEntity
  8
0
100
AcDbLine
 62
2
  6
CONTINUOUS
 10
12.8710654422
 20
2.564807354
 11
12.8710654422
 21
2.4937023146
  0
ARC
  5
2B9
100
AcDbEntity
  8
0
100
AcDbCircle
 62
2
  6
CONTINUOUS
 10
12.8685904427
 20
2.4937023128
 40
0.0024749995
100
AcDbArc
 50
269.9999571957
 51
0.0000428043
  0
LINE
  5
2BA
100
AcDbEntity
  8
0
100
AcDbLine
 62
2
  6
CONTINUOUS
 10
12.8685904408
 20
2.4912273132
 11
12.7943853997
 21
2.4912273132
  0
ARC
  5
2BB
100
AcDbEntity
  8
0
100
AcDbCircle
 62
2
  6
CONTINUOUS
 10
12.7943847649
 20
2.4937027294
 40
0.0024754162
100
AcDbArc
 50
226.3593695813
 51
270.0146919953
  0
LINE
  5
2BC
100
AcDbEntity
  8
0
100
AcDbLine
 62
2
  6
CONTINUOUS
 10
12.7926763987
 20
2.4919113136
 11
12.7293963636
 21
2.5522893471
  0
ARC
  5
2BD
100
AcDbEntity
  8
0
100
AcDbCircle
 62
2
  6
CONTINUOUS
 10
12.7276876627
 20
2.5504984093
 40
0.0024753014
100
AcDbArc
 50
46.3461263059
 51
180.0014637321
  0
LINE
  5
2BE
100
AcDbEntity
  8
0
100
AcDbLine
 62
2
  6
CONTINUOUS
 10
12.7252123613
 20
2.5504983461
 11
12.7252123613
 21
2.5184523283
  0
ARC
  5
2BF
100
AcDbEntity
  8
0
100
AcDbCircle
 62
2
  6
CONTINUOUS
 10
12.7276873608
 20
2.5184523265
 40
0.0024749995
100
AcDbArc
 50
179.9999571957
 51
270.0000428043
  0
LINE
  5
2C0
100
AcDbEntity
  8
0
100
AcDbLine
 62
2
  6
CONTINUOUS
 10
12.7276873627
 20
2.515977327
 11
12.7480043739
 21
2.515977327
  0
ARC
  5
2C1
100
AcDbEntity
  8
0
100
AcDbCircle
 62
2
  6
CONTINUOUS
 10
12.7480043758
 20
2.5135023274
 40
0.0024749995
100
AcDbArc
 50
359.9999571957
 51
90.0000428043
  0
LINE
  5
2C2
100
AcDbEntity
  8
0
100
AcDbLine
 62
2
  6
CONTINUOUS
 10
12.7504793753
 20
2.5135023256
 11
12.7504793753
 21
2.4937023146
  0
ARC
  5
2C3
100
AcDbEntity
  8
0
100
AcDbCircle
 62
2
  6
CONTINUOUS
 10
12.7480043758
 20
2.4937023128
 40
0.0024749995
100
AcDbArc
 50
269.9999571957
 51
0.0000428043
  0
LINE
  5
2C4
100
AcDbEntity
  8
0
100
AcDbLine
 62
2
  6
CONTINUOUS
 10
12.7480043739
 20
2.4912273132
 11
12.672340332
 21
2.4912273132
  0
ARC
  5
2C5
100
AcDbEntity
  8
0
100
AcDbCircle
 62
2
  6
CONTINUOUS
 10
12.6723403301
 20
2.4937023128
 40
0.0024749995
100
AcDbArc
 50
179.9999571957
 51
270.0000428043
  0
LINE
  5
2C6
100
AcDbEntity
  8
0
100
AcDbLine
 62
2
  6
CONTINUOUS
 10
12.6698653306
 20
2.4937023146
 11
12.6698653306
 21
2.5135023256
  0
ARC
  5
2C7
100
AcDbEntity
  8
0
100
AcDbCircle
 62
2
  6
CONTINUOUS
 10
12.6723403301
 20
2.5135023274
 40
0.0024749995
100
AcDbArc
 50
89.9999571957
 51
180.0000428043
  0
LINE
  5
2C8
100
AcDbEntity
  8
0
100
AcDbLine
 62
2
  6
CONTINUOUS
 10
12.672340332
 20
2.515977327
 11
12.6909873423
 21
2.515977327
  0
ARC
  5
2C9
100
AcDbEntity
  8
0
100
AcDbCircle
 62
2
  6
CONTINUOUS
 10
12.6909873442
 20
2.5184523265
 40
0.0024749995
100
AcDbArc
 50
269.9999571957
 51
0.0000428043
  0
LINE
  5
2CA
100
AcDbEntity
  8
0
100
AcDbLine
 62
2
  6
CONTINUOUS
 10
12.6934623437
 20
2.5184523283
 11
12.6934623437
 21
2.564807354
  0
ARC
  5
2CB
100
AcDbEntity
  8
0
100
AcDbCircle
 62
2
  6
CONTINUOUS
 10
12.6909873442
 20
2.5648073559
 40
0.0024749995
100
AcDbArc
 50
359.9999571957
 51
90.0000428043
  0
LINE
  5
2CC
100
AcDbEntity
  8
0
100
AcDbLine
 62
2
  6
CONTINUOUS
 10
12.6909873423
 20
2.5672823554
 11
12.672340332
 21
2.5672823554
  0
ARC
  5
2CD
100
AcDbEntity
  8
0
100
AcDbCircle
 62
2
  6
CONTINUOUS
 10
12.6723403301
 20
2.5697573549
 40
0.0024749995
100
AcDbArc
 50
179.9999571957
 51
270.0000428043
  0
LINE
  5
2CE
100
AcDbEntity
  8
0
100
AcDbLine
 62
2
  6
CONTINUOUS
 10
12.6698653306
 20
2.5697573568
 11
12.6698653306
 21
2.5895573678
  0
ARC
  5
2CF
100
AcDbEntity
  8
0
100
AcDbCircle
 62
2
  6
CONTINUOUS
 10
12.6723403301
 20
2.5895573696
 40
0.0024749995
100
AcDbArc
 50
89.9999571957
 51
180.0000428043
  0
LINE
  5
2D0
100
AcDbEntity
  8
0
100
AcDbLine
 62
2
  6
CONTINUOUS
 10
12.5246402501
 20
2.5655893545
 11
12.5175232461
 21
2.5543723483
  0
ARC
  5
2D1
100
AcDbEntity
  8
0
100
AcDbCircle
 62
2
  6
CONTINUOUS
 10
12.519613138
 20
2.5530463862
 40
0.0024750401
100
AcDbArc
 50
147.6063258012
 51
270.0025305754
  0
LINE
  5
2D2
100
AcDbEntity
  8
0
100
AcDbLine
 62
2
  6
CONTINUOUS
 10
12.5196132473
 20
2.5505713461
 11
12.5401702587
 21
2.5505713461
  0
ARC
  5
2D3
100
AcDbEntity
  8
0
100
AcDbCircle
 62
2
  6
CONTINUOUS
 10
12.5401702375
 20
2.5530465533
 40
0.0024752071
100
AcDbArc
 50
270.0004896793
 51
32.9089806818
  0
LINE
  5
2D4
100
AcDbEntity
  8
0
100
AcDbLine
 62
2
  6
CONTINUOUS
 10
12.5422482598
 20
2.5543913483
 11
12.5349892558
 21
2.5656073545
  0
ARC
  5
2D5
100
AcDbEntity
  8
0
100
AcDbCircle
 62
2
  6
CONTINUOUS
 10
12.532910715
 20
2.564262895
 40
0.0024754602
100
AcDbArc
 50
32.8959418573
 51
89.9875097202
  0
LINE
  5
2D6
100
AcDbEntity
  8
0
100
AcDbLine
 62
2
  6
CONTINUOUS
 10
12.5329112547
 20
2.5667383551
 11
12.5267302512
 21
2.5667383551
  0
ARC
  5
2D7
100
AcDbEntity
  8
0
100
AcDbCircle
 62
2
  6
CONTINUOUS
 10
12.5267301809
 20
2.5642631548
 40
0.0024752003
100
AcDbArc
 50
89.998372645
 51
147.602165307
  0
LINE
  5
2D8
100
AcDbEntity
  8
0
100
AcDbLine
 62
2
  6
CONTINUOUS
 10
12.548053263
 20
2.5284903339
 11
12.5536792662
 21
2.5197973291
  0
ARC
  5
2D9
100
AcDbEntity
  8
0
100
AcDbCircle
 62
2
  6
CONTINUOUS
 10
12.5516012439
 20
2.5184525341
 40
0.0024752071
100
AcDbArc
 50
270.0004896794
 51
32.9089806818
  0
LINE
  5
2DA
100
AcDbEntity
  8
0
100
AcDbLine
 62
2
  6
CONTINUOUS
 10
12.551601265
 20
2.515977327
 11
12.537150257
 21
2.515977327
  0
ARC
  5
2DB
100
AcDbEntity
  8
0
100
AcDbCircle
 62
2
  6
CONTINUOUS
 10
12.5371502552
 20
2.5135023274
 40
0.0024749995
100
AcDbArc
 50
89.9999571957
 51
180.0000428043
  0
LINE
  5
2DC
100
AcDbEntity
  8
0
100
AcDbLine
 62
2
  6
CONTINUOUS
 10
12.5346752556
 20
2.5135023256
 11
12.5346752556
 21
2.4937023146
  0
ARC
  5
2DD
100
AcDbEntity
  8
0
100
AcDbCircle
 62
2
  6
CONTINUOUS
 10
12.5371502552
 20
2.4937023128
 40
0.0024749995
100
AcDbArc
 50
179.9999571957
 51
270.0000428043
  0
LINE
  5
2DE
100
AcDbEntity
  8
0
100
AcDbLine
 62
2
  6
CONTINUOUS
 10
12.537150257
 20
2.4912273132
 11
12.6424313154
 21
2.4912273132
  0
ARC
  5
2DF
100
AcDbEntity
  8
0
100
AcDbCircle
 62
2
  6
CONTINUOUS
 10
12.6424313172
 20
2.4937023128
 40
0.0024749995
100
AcDbArc
 50
269.9999571957
 51
0.0000428043
  0
LINE
  5
2E0
100
AcDbEntity
  8
0
100
AcDbLine
 62
2
  6
CONTINUOUS
 10
12.6449063168
 20
2.4937023146
 11
12.6449063168
 21
2.5135023256
  0
ARC
  5
2E1
100
AcDbEntity
  8
0
100
AcDbCircle
 62
2
  6
CONTINUOUS
 10
12.6424313172
 20
2.5135023274
 40
0.0024749995
100
AcDbArc
 50
359.9999571957
 51
90.0000428043
  0
LINE
  5
2E2
100
AcDbEntity
  8
0
100
AcDbLine
 62
2
  6
CONTINUOUS
 10
12.6424313154
 20
2.515977327
 11
12.6224153043
 21
2.515977327
  0
ARC
  5
2E3
100
AcDbEntity
  8
0
100
AcDbCircle
 62
2
  6
CONTINUOUS
 10
12.6224154248
 20
2.518451368
 40
0.002474041
100
AcDbArc
 50
212.9056413127
 51
269.9972091756
  0
LINE
  5
2E4
100
AcDbEntity
  8
0
100
AcDbLine
 62
2
  6
CONTINUOUS
 10
12.6203383031
 20
2.5171073276
 11
12.5725822767
 21
2.5909023685
  0
ARC
  5
2E5
100
AcDbEntity
  8
0
100
AcDbCircle
 62
2
  6
CONTINUOUS
 10
12.570504655
 20
2.589557409
 40
0.0024749602
100
AcDbArc
 50
32.9172174468
 51
90.0087853097
  0
LINE
  5
2E6
100
AcDbEntity
  8
0
100
AcDbLine
 62
2
  6
CONTINUOUS
 10
12.5705042755
 20
2.5920323691
 11
12.5133292438
 21
2.5920323691
  0
ARC
  5
2E7
100
AcDbEntity
  8
0
100
AcDbCircle
 62
2
  6
CONTINUOUS
 10
12.5133291735
 20
2.5895571688
 40
0.0024752003
100
AcDbArc
 50
89.9983726451
 51
147.602165307
  0
LINE
  5
2E8
100
AcDbEntity
  8
0
100
AcDbLine
 62
2
  6
CONTINUOUS
 10
12.5112392426
 20
2.5908833685
 11
12.4644392167
 21
2.5171263276
  0
ARC
  5
2E9
100
AcDbEntity
  8
0
100
AcDbCircle
 62
2
  6
CONTINUOUS
 10
12.4623492858
 20
2.5184525273
 40
0.0024752003
100
AcDbArc
 50
269.9983726451
 51
327.602165307
  0
LINE
  5
2EA
100
AcDbEntity
  8
0
100
AcDbLine
 62
2
  6
CONTINUOUS
 10
12.4623492155
 20
2.515977327
 11
12.4394882028
 21
2.515977327
  0
ARC
  5
2EB
100
AcDbEntity
  8
0
100
AcDbCircle
 62
2
  6
CONTINUOUS
 10
12.439488201
 20
2.5135023274
 40
0.0024749995
100
AcDbArc
 50
89.9999571957
 51
180.0000428043
  0
LINE
  5
2EC
100
AcDbEntity
  8
0
100
AcDbLine
 62
2
  6
CONTINUOUS
 10
12.4370132015
 20
2.5135023256
 11
12.4370132015
 21
2.4937023146
  0
ARC
  5
2ED
100
AcDbEntity
  8
0
100
AcDbCircle
 62
2
  6
CONTINUOUS
 10
12.439488201
 20
2.4937023128
 40
0.0024749995
100
AcDbArc
 50
179.9999571957
 51
270.0000428043
  0
LINE
  5
2EE
100
AcDbEntity
  8
0
100
AcDbLine
 62
2
  6
CONTINUOUS
 10
12.4394882028
 20
2.4912273132
 11
12.5168642458
 21
2.4912273132
  0
ARC
  5
2EF
100
AcDbEntity
  8
0
100
AcDbCircle
 62
2
  6
CONTINUOUS
 10
12.5168642476
 20
2.4937023128
 40
0.0024749995
100
AcDbArc
 50
269.9999571957
 51
0.0000428043
  0
LINE
  5
2F0
100
AcDbEntity
  8
0
100
AcDbLine
 62
2
  6
CONTINUOUS
 10
12.5193392471
 20
2.4937023146
 11
12.5193392471
 21
2.5135023256
  0
ARC
  5
2F1
100
AcDbEntity
  8
0
100
AcDbCircle
 62
2
  6
CONTINUOUS
 10
12.5168642476
 20
2.5135023274
 40
0.0024749995
100
AcDbArc
 50
359.9999571957
 51
90.0000428043
  0
LINE
  5
2F2
100
AcDbEntity
  8
0
100
AcDbLine
 62
2
  6
CONTINUOUS
 10
12.5168642458
 20
2.515977327
 11
12.5055812395
 21
2.515977327
  0
ARC
  5
2F3
100
AcDbEntity
  8
0
100
AcDbCircle
 62
2
  6
CONTINUOUS
 10
12.5055811302
 20
2.518452367
 40
0.0024750401
100
AcDbArc
 50
147.6063258011
 51
270.0025305754
  0
LINE
  5
2F4
100
AcDbEntity
  8
0
100
AcDbLine
 62
2
  6
CONTINUOUS
 10
12.5034912383
 20
2.5197783291
 11
12.5090072414
 21
2.5284723339
  0
ARC
  5
2F5
100
AcDbEntity
  8
0
100
AcDbCircle
 62
2
  6
CONTINUOUS
 10
12.5110971723
 20
2.5271461342
 40
0.0024752003
100
AcDbArc
 50
89.998372645
 51
147.602165307
  0
LINE
  5
2F6
100
AcDbEntity
  8
0
100
AcDbLine
 62
2
  6
CONTINUOUS
 10
12.5110972426
 20
2.5296213345
 11
12.5459752619
 21
2.5296213345
  0
ARC
  5
2F7
100
AcDbEntity
  8
0
100
AcDbCircle
 62
2
  6
CONTINUOUS
 10
12.5459747223
 20
2.5271458744
 40
0.0024754602
100
AcDbArc
 50
32.8959418573
 51
89.9875097202
  0
LINE
  5
2F8
100
AcDbEntity
  8
0
100
AcDbLine
 62
2
  6
CONTINUOUS
 10
12.9205934696
 20
2.5920323691
 11
13.0210515254
 21
2.5920323691
  0
ARC
  5
2F9
100
AcDbEntity
  8
0
100
AcDbCircle
 62
2
  6
CONTINUOUS
 10
13.0210516601
 20
2.5895582013
 40
0.0024741678
100
AcDbArc
 50
46.3477981899
 51
90.0031206038
  0
LINE
  5
2FA
100
AcDbEntity
  8
0
100
AcDbLine
 62
2
  6
CONTINUOUS
 10
13.0227595263
 20
2.5913483688
 11
13.0827925596
 21
2.534068337
  0
ARC
  5
2FB
100
AcDbEntity
  8
0
100
AcDbCircle
 62
2
  6
CONTINUOUS
 10
13.0845012605
 20
2.5358592748
 40
0.0024753014
100
AcDbArc
 50
226.3461263059
 51
0.0014637321
  0
LINE
  5
2FC
100
AcDbEntity
  8
0
100
AcDbLine
 62
2
  6
CONTINUOUS
 10
13.0869765619
 20
2.535859338
 11
13.0869765619
 21
2.564807354
  0
ARC
  5
2FD
100
AcDbEntity
  8
0
100
AcDbCircle
 62
2
  6
CONTINUOUS
 10
13.0845015624
 20
2.5648073559
 40
0.0024749995
100
AcDbArc
 50
359.9999571957
 51
90.0000428043
  0
LINE
  5
2FE
100
AcDbEntity
  8
0
100
AcDbLine
 62
2
  6
CONTINUOUS
 10
13.0845015605
 20
2.5672823554
 11
13.0657255501
 21
2.5672823554
  0
ARC
  5
2FF
100
AcDbEntity
  8
0
100
AcDbCircle
 62
2
  6
CONTINUOUS
 10
13.0657255483
 20
2.5697573549
 40
0.0024749995
100
AcDbArc
 50
179.9999571957
 51
270.0000428043
  0
LINE
  5
300
100
AcDbEntity
  8
0
100
AcDbLine
 62
2
  6
CONTINUOUS
 10
13.0632505488
 20
2.5697573568
 11
13.0632505488
 21
2.5895573678
  0
ARC
  5
301
100
AcDbEntity
  8
0
100
AcDbCircle
 62
2
  6
CONTINUOUS
 10
13.0657255483
 20
2.5895573696
 40
0.0024749995
100
AcDbArc
 50
89.9999571957
 51
180.0000428043
  0
LINE
  5
302
100
AcDbEntity
  8
0
100
AcDbLine
 62
2
  6
CONTINUOUS
 10
13.0657255501
 20
2.5920323691
 11
13.1397265912
 21
2.5920323691
  0
ARC
  5
303
100
AcDbEntity
  8
0
100
AcDbCircle
 62
2
  6
CONTINUOUS
 10
13.139726593
 20
2.5895573696
 40
0.0024749995
100
AcDbArc
 50
359.9999571957
 51
90.0000428043
  0
LINE
  5
304
100
AcDbEntity
  8
0
100
AcDbLine
 62
2
  6
CONTINUOUS
 10
13.1422015925
 20
2.5895573678
 11
13.1422015925
 21
2.5697573568
  0
ARC
  5
305
100
AcDbEntity
  8
0
100
AcDbCircle
 62
2
  6
CONTINUOUS
 10
13.139726593
 20
2.5697573549
 40
0.0024749995
100
AcDbArc
 50
269.9999571957
 51
0.0000428042
  0
LINE
  5
306
100
AcDbEntity
  8
0
100
AcDbLine
 62
2
  6
CONTINUOUS
 10
13.1397265912
 20
2.5672823554
 11
13.1217935812
 21
2.5672823554
  0
ARC
  5
307
100
AcDbEntity
  8
0
100
AcDbCircle
 62
2
  6
CONTINUOUS
 10
13.1217935794
 20
2.5648073559
 40
0.0024749995
100
AcDbArc
 50
89.9999571957
 51
180.0000428042
  0
LINE
  5
308
100
AcDbEntity
  8
0
100
AcDbLine
 62
2
  6
CONTINUOUS
 10
13.1193185799
 20
2.564807354
 11
13.1193185799
 21
2.4937023146
  0
ARC
  5
309
100
AcDbEntity
  8
0
100
AcDbCircle
 62
2
  6
CONTINUOUS
 10
13.1168435803
 20
2.4937023128
 40
0.0024749995
100
AcDbArc
 50
269.9999571957
 51
0.0000428043
  0
LINE
  5
30A
100
AcDbEntity
  8
0
100
AcDbLine
 62
2
  6
CONTINUOUS
 10
13.1168435785
 20
2.4912273132
 11
13.0426375373
 21
2.4912273132
  0
ARC
  5
30B
100
AcDbEntity
  8
0
100
AcDbCircle
 62
2
  6
CONTINUOUS
 10
13.0426374026
 20
2.493701481
 40
0.0024741678
100
AcDbArc
 50
226.3477981898
 51
270.0031206038
  0
LINE
  5
30C
100
AcDbEntity
  8
0
100
AcDbLine
 62
2
  6
CONTINUOUS
 10
13.0409295364
 20
2.4919113136
 11
12.9776495013
 21
2.5522893471
  0
ARC
  5
30D
100
AcDbEntity
  8
0
100
AcDbCircle
 62
2
  6
CONTINUOUS
 10
12.9759408003
 20
2.5504984093
 40
0.0024753014
100
AcDbArc
 50
46.3461263059
 51
180.0014637321
  0
LINE
  5
30E
100
AcDbEntity
  8
0
100
AcDbLine
 62
2
  6
CONTINUOUS
 10
12.973465499
 20
2.5504983461
 11
12.973465499
 21
2.5184523283
  0
ARC
  5
30F
100
AcDbEntity
  8
0
100
AcDbCircle
 62
2
  6
CONTINUOUS
 10
12.9759404985
 20
2.5184523265
 40
0.0024749995
100
AcDbArc
 50
179.9999571957
 51
270.0000428043
  0
LINE
  5
310
100
AcDbEntity
  8
0
100
AcDbLine
 62
2
  6
CONTINUOUS
 10
12.9759405003
 20
2.515977327
 11
12.9962575116
 21
2.515977327
  0
ARC
  5
311
100
AcDbEntity
  8
0
100
AcDbCircle
 62
2
  6
CONTINUOUS
 10
12.9962575135
 20
2.5135023274
 40
0.0024749995
100
AcDbArc
 50
359.9999571957
 51
90.0000428043
  0
LINE
  5
312
100
AcDbEntity
  8
0
100
AcDbLine
 62
2
  6
CONTINUOUS
 10
12.998732513
 20
2.5135023256
 11
12.998732513
 21
2.4937023146
  0
ARC
  5
313
100
AcDbEntity
  8
0
100
AcDbCircle
 62
2
  6
CONTINUOUS
 10
12.9962575135
 20
2.4937023128
 40
0.0024749995
100
AcDbArc
 50
269.9999571957
 51
0.0000428043
  0
LINE
  5
314
100
AcDbEntity
  8
0
100
AcDbLine
 62
2
  6
CONTINUOUS
 10
12.9962575116
 20
2.4912273132
 11
12.9205934696
 21
2.4912273132
  0
ARC
  5
315
100
AcDbEntity
  8
0
100
AcDbCircle
 62
2
  6
CONTINUOUS
 10
12.9205934678
 20
2.4937023128
 40
0.0024749995
100
AcDbArc
 50
179.9999571957
 51
270.0000428043
  0
LINE
  5
316
100
AcDbEntity
  8
0
100
AcDbLine
 62
2
  6
CONTINUOUS
 10
12.9181184683
 20
2.4937023146
 11
12.9181184683
 21
2.5135023256
  0
ARC
  5
317
100
AcDbEntity
  8
0
100
AcDbCircle
 62
2
  6
CONTINUOUS
 10
12.9205934678
 20
2.5135023274
 40
0.0024749995
100
AcDbArc
 50
89.9999571957
 51
180.0000428042
  0
LINE
  5
318
100
AcDbEntity
  8
0
100
AcDbLine
 62
2
  6
CONTINUOUS
 10
12.9205934696
 20
2.515977327
 11
12.93923948
 21
2.515977327
  0
ARC
  5
319
100
AcDbEntity
  8
0
100
AcDbCircle
 62
2
  6
CONTINUOUS
 10
12.9392394818
 20
2.5184523265
 40
0.0024749995
100
AcDbArc
 50
269.9999571957
 51
0.0000428043
  0
LINE
  5
31A
100
AcDbEntity
  8
0
100
AcDbLine
 62
2
  6
CONTINUOUS
 10
12.9417144814
 20
2.5184523283
 11
12.9417144814
 21
2.564807354
  0
ARC
  5
31B
100
AcDbEntity
  8
0
100
AcDbCircle
 62
2
  6
CONTINUOUS
 10
12.9392394818
 20
2.5648073559
 40
0.0024749995
100
AcDbArc
 50
359.9999571957
 51
90.0000428043
  0
LINE
  5
31C
100
AcDbEntity
  8
0
100
AcDbLine
 62
2
  6
CONTINUOUS
 10
12.93923948
 20
2.5672823554
 11
12.9205934696
 21
2.5672823554
  0
ARC
  5
31D
100
AcDbEntity
  8
0
100
AcDbCircle
 62
2
  6
CONTINUOUS
 10
12.9205934678
 20
2.5697573549
 40
0.0024749995
100
AcDbArc
 50
179.9999571957
 51
270.0000428043
  0
LINE
  5
31E
100
AcDbEntity
  8
0
100
AcDbLine
 62
2
  6
CONTINUOUS
 10
12.9181184683
 20
2.5697573568
 11
12.9181184683
 21
2.5895573678
  0
ARC
  5
31F
100
AcDbEntity
  8
0
100
AcDbCircle
 62
2
  6
CONTINUOUS
 10
12.9205934678
 20
2.5895573696
 40
0.0024749995
100
AcDbArc
 50
89.9999571957
 51
180.0000428042
  0
LINE
  5
320
100
AcDbEntity
  8
0
100
AcDbLine
 62
2
  6
CONTINUOUS
 10
13.2934226764
 20
2.5324773361
 11
13.2582556569
 21
2.5324773361
  0
ARC
  5
321
100
AcDbEntity
  8
0
100
AcDbCircle
 62
2
  6
CONTINUOUS
 10
13.2582556551
 20
2.5300023366
 40
0.0024749995
100
AcDbArc
 50
89.9999571957
 51
180.0000428043
  0
LINE
  5
322
100
AcDbEntity
  8
0
100
AcDbLine
 62
2
  6
CONTINUOUS
 10
13.2557806555
 20
2.5300023347
 11
13.2557806555
 21
2.5184523283
  0
ARC
  5
323
100
AcDbEntity
  8
0
100
AcDbCircle
 62
2
  6
CONTINUOUS
 10
13.2582556551
 20
2.5184523265
 40
0.0024749995
100
AcDbArc
 50
179.9999571957
 51
270.0000428043
  0
LINE
  5
324
100
AcDbEntity
  8
0
100
AcDbLine
 62
2
  6
CONTINUOUS
 10
13.2582556569
 20
2.515977327
 11
13.3232596929
 21
2.515977327
  0
ARC
  5
325
100
AcDbEntity
  8
0
100
AcDbCircle
 62
2
  6
CONTINUOUS
 10
13.3232596948
 20
2.5184523265
 40
0.0024749995
100
AcDbArc
 50
269.9999571957
 51
0.0000428043
  0
LINE
  5
326
100
AcDbEntity
  8
0
100
AcDbLine
 62
2
  6
CONTINUOUS
 10
13.3257346943
 20
2.5184523283
 11
13.3257346943
 21
2.5267023329
  0
ARC
  5
327
100
AcDbEntity
  8
0
100
AcDbCircle
 62
2
  6
CONTINUOUS
 10
13.3282096938
 20
2.5267023348
 40
0.0024749995
100
AcDbArc
 50
89.9999571957
 51
180.0000428043
  0
LINE
  5
328
100
AcDbEntity
  8
0
100
AcDbLine
 62
2
  6
CONTINUOUS
 10
13.3282096957
 20
2.5291773343
 11
13.3705287192
 21
2.5291773343
  0
ARC
  5
329
100
AcDbEntity
  8
0
100
AcDbCircle
 62
2
  6
CONTINUOUS
 10
13.370528721
 20
2.5267023348
 40
0.0024749995
100
AcDbArc
 50
359.9999571957
 51
90.0000428043
  0
LINE
  5
32A
100
AcDbEntity
  8
0
100
AcDbLine
 62
2
  6
CONTINUOUS
 10
13.3730037205
 20
2.5267023329
 11
13.3730037205
 21
2.4937023146
  0
ARC
  5
32B
100
AcDbEntity
  8
0
100
AcDbCircle
 62
2
  6
CONTINUOUS
 10
13.370528721
 20
2.4937023128
 40
0.0024749995
100
AcDbArc
 50
269.9999571957
 51
0.0000428043
  0
LINE
  5
32C
100
AcDbEntity
  8
0
100
AcDbLine
 62
2
  6
CONTINUOUS
 10
13.3705287192
 20
2.4912273132
 11
13.1673166065
 21
2.4912273132
  0
ARC
  5
32D
100
AcDbEntity
  8
0
100
AcDbCircle
 62
2
  6
CONTINUOUS
 10
13.1673166046
 20
2.4937023128
 40
0.0024749995
100
AcDbArc
 50
179.9999571957
 51
270.0000428043
  0
LINE
  5
32E
100
AcDbEntity
  8
0
100
AcDbLine
 62
2
  6
CONTINUOUS
 10
13.1648416051
 20
2.4937023146
 11
13.1648416051
 21
2.5135023256
  0
ARC
  5
32F
100
AcDbEntity
  8
0
100
AcDbCircle
 62
2
  6
CONTINUOUS
 10
13.1673166046
 20
2.5135023274
 40
0.0024749995
100
AcDbArc
 50
89.9999571957
 51
180.0000428043
  0
LINE
  5
330
100
AcDbEntity
  8
0
100
AcDbLine
 62
2
  6
CONTINUOUS
 10
13.1673166065
 20
2.515977327
 11
13.1912396197
 21
2.515977327
  0
ARC
  5
331
100
AcDbEntity
  8
0
100
AcDbCircle
 62
2
  6
CONTINUOUS
 10
13.1912396216
 20
2.5184523265
 40
0.0024749995
100
AcDbArc
 50
269.9999571957
 51
0.0000428042
  0
LINE
  5
332
100
AcDbEntity
  8
0
100
AcDbLine
 62
2
  6
CONTINUOUS
 10
13.1937146211
 20
2.5184523283
 11
13.1937146211
 21
2.564807354
  0
ARC
  5
333
100
AcDbEntity
  8
0
100
AcDbCircle
 62
2
  6
CONTINUOUS
 10
13.1912396216
 20
2.5648073559
 40
0.0024749995
100
AcDbArc
 50
359.9999571957
 51
90.0000428043
  0
LINE
  5
334
100
AcDbEntity
  8
0
100
AcDbLine
 62
2
  6
CONTINUOUS
 10
13.1912396197
 20
2.5672823554
 11
13.1673166065
 21
2.5672823554
  0
ARC
  5
335
100
AcDbEntity
  8
0
100
AcDbCircle
 62
2
  6
CONTINUOUS
 10
13.1673166046
 20
2.5697573549
 40
0.0024749995
100
AcDbArc
 50
179.9999571957
 51
270.0000428043
  0
LINE
  5
336
100
AcDbEntity
  8
0
100
AcDbLine
 62
2
  6
CONTINUOUS
 10
13.1648416051
 20
2.5697573568
 11
13.1648416051
 21
2.5895573678
  0
ARC
  5
337
100
AcDbEntity
  8
0
100
AcDbCircle
 62
2
  6
CONTINUOUS
 10
13.1673166046
 20
2.5895573696
 40
0.0024749995
100
AcDbArc
 50
89.9999571957
 51
180.0000428043
  0
LINE
  5
338
100
AcDbEntity
  8
0
100
AcDbLine
 62
2
  6
CONTINUOUS
 10
13.1673166065
 20
2.5920323691
 11
13.3691097184
 21
2.5920323691
  0
ARC
  5
339
100
AcDbEntity
  8
0
100
AcDbCircle
 62
2
  6
CONTINUOUS
 10
13.3691097202
 20
2.5895573696
 40
0.0024749995
100
AcDbArc
 50
359.9999571957
 51
90.0000428043
  0
LINE
  5
33A
100
AcDbEntity
  8
0
100
AcDbLine
 62
2
  6
CONTINUOUS
 10
13.3715847197
 20
2.5895573678
 11
13.3715847197
 21
2.5565573495
  0
ARC
  5
33B
100
AcDbEntity
  8
0
100
AcDbCircle
 62
2
  6
CONTINUOUS
 10
13.3691097202
 20
2.5565573476
 40
0.0024749995
100
AcDbArc
 50
269.9999571957
 51
0.0000428042
  0
LINE
  5
33C
100
AcDbEntity
  8
0
100
AcDbLine
 62
2
  6
CONTINUOUS
 10
13.3691097184
 20
2.5540823481
 11
13.3272456952
 21
2.5540823481
  0
ARC
  5
33D
100
AcDbEntity
  8
0
100
AcDbCircle
 62
2
  6
CONTINUOUS
 10
13.3272456933
 20
2.5565573476
 40
0.0024749995
100
AcDbArc
 50
179.9999571957
 51
270.0000428043
  0
LINE
  5
33E
100
AcDbEntity
  8
0
100
AcDbLine
 62
2
  6
CONTINUOUS
 10
13.3247706938
 20
2.5565573495
 11
13.3247706938
 21
2.564807354
  0
ARC
  5
33F
100
AcDbEntity
  8
0
100
AcDbCircle
 62
2
  6
CONTINUOUS
 10
13.3222956943
 20
2.5648073559
 40
0.0024749995
100
AcDbArc
 50
359.9999571957
 51
90.0000428043
  0
LINE
  5
340
100
AcDbEntity
  8
0
100
AcDbLine
 62
2
  6
CONTINUOUS
 10
13.3222956924
 20
2.5672823554
 11
13.2582556569
 21
2.5672823554
  0
ARC
  5
341
100
AcDbEntity
  8
0
100
AcDbCircle
 62
2
  6
CONTINUOUS
 10
13.2582556551
 20
2.5648073559
 40
0.0024749995
100
AcDbArc
 50
89.9999571957
 51
180.0000428043
  0
LINE
  5
342
100
AcDbEntity
  8
0
100
AcDbLine
 62
2
  6
CONTINUOUS
 10
13.2557806555
 20
2.564807354
 11
13.2557806555
 21
2.5532573476
  0
ARC
  5
343
100
AcDbEntity
  8
0
100
AcDbCircle
 62
2
  6
CONTINUOUS
 10
13.2582556551
 20
2.5532573458
 40
0.0024749995
100
AcDbArc
 50
179.9999571957
 51
270.0000428043
  0
LINE
  5
344
100
AcDbEntity
  8
0
100
AcDbLine
 62
2
  6
CONTINUOUS
 10
13.2582556569
 20
2.5507823463
 11
13.2934226764
 21
2.5507823463
  0
ARC
  5
345
100
AcDbEntity
  8
0
100
AcDbCircle
 62
2
  6
CONTINUOUS
 10
13.2934226783
 20
2.5483073467
 40
0.0024749995
100
AcDbArc
 50
359.9999571957
 51
90.0000428043
  0
LINE
  5
346
100
AcDbEntity
  8
0
100
AcDbLine
 62
2
  6
CONTINUOUS
 10
13.2958976778
 20
2.5483073449
 11
13.2958976778
 21
2.5349523375
  0
ARC
  5
347
100
AcDbEntity
  8
0
100
AcDbCircle
 62
2
  6
CONTINUOUS
 10
13.2934226783
 20
2.5349523356
 40
0.0024749995
100
AcDbArc
 50
269.9999571957
 51
0.0000428042
  0
LINE
  5
348
100
AcDbEntity
  8
0
100
AcDbLine
 62
2
  6
CONTINUOUS
 10
13.7286871589
 20
2.5350697372
 11
13.7286871589
 21
2.5456869438
  0
LINE
  5
349
100
AcDbEntity
  8
0
100
AcDbLine
 62
2
  6
CONTINUOUS
 10
13.7086871478
 20
2.5004302075
 11
13.7086871478
 21
2.5803264735
  0
LINE
  5
34A
100
AcDbEntity
  8
0
100
AcDbLine
 62
2
  6
CONTINUOUS
 10
13.6886871368
 20
2.4843919416
 11
13.6886871368
 21
2.5963647394
  0
LINE
  5
34B
100
AcDbEntity
  8
0
100
AcDbLine
 62
2
  6
CONTINUOUS
 10
13.6686871257
 20
2.4726017898
 11
13.6686871257
 21
2.6081548911
  0
LINE
  5
34C
100
AcDbEntity
  8
0
100
AcDbLine
 62
2
  6
CONTINUOUS
 10
13.6486871146
 20
2.4628062688
 11
13.6486871146
 21
2.6179504122
  0
LINE
  5
34D
100
AcDbEntity
  8
0
100
AcDbLine
 62
2
  6
CONTINUOUS
 10
13.6286871035
 20
2.4541253507
 11
13.6286871035
 21
2.5062483056
  0
LINE
  5
34E
100
AcDbEntity
  8
0
100
AcDbLine
 62
2
  6
CONTINUOUS
 10
13.6286871035
 20
2.5301143348
 11
13.6286871035
 21
2.6266313303
  0
LINE
  5
34F
100
AcDbEntity
  8
0
100
AcDbLine
 62
2
  6
CONTINUOUS
 10
13.6086870924
 20
2.4465537903
 11
13.6086870924
 21
2.4918774918
  0
LINE
  5
350
100
AcDbEntity
  8
0
100
AcDbLine
 62
2
  6
CONTINUOUS
 10
13.6086870924
 20
2.5165781173
 11
13.6086870924
 21
2.6342028907
  0
LINE
  5
351
100
AcDbEntity
  8
0
100
AcDbLine
 62
2
  6
CONTINUOUS
 10
13.5886870813
 20
2.4398033466
 11
13.5886870813
 21
2.4912273132
  0
LINE
  5
352
100
AcDbEntity
  8
0
100
AcDbLine
 62
2
  6
CONTINUOUS
 10
13.5886870813
 20
2.5391840845
 11
13.5886870813
 21
2.5454298327
  0
LINE
  5
353
100
AcDbEntity
  8
0
100
AcDbLine
 62
2
  6
CONTINUOUS
 10
13.5886870813
 20
2.5862063472
 11
13.5886870813
 21
2.6409533343
  0
LINE
  5
354
100
AcDbEntity
  8
0
100
AcDbLine
 62
2
  6
CONTINUOUS
 10
13.5686870702
 20
2.4334702189
 11
13.5686870702
 21
2.4912273132
  0
LINE
  5
355
100
AcDbEntity
  8
0
100
AcDbLine
 62
2
  6
CONTINUOUS
 10
13.5686870702
 20
2.5906587765
 11
13.5686870702
 21
2.647286462
  0
LINE
  5
356
100
AcDbEntity
  8
0
100
AcDbLine
 62
2
  6
CONTINUOUS
 10
13.5486870591
 20
2.4278968124
 11
13.5486870591
 21
2.4937461006
  0
LINE
  5
357
100
AcDbEntity
  8
0
100
AcDbLine
 62
2
  6
CONTINUOUS
 10
13.5486870591
 20
2.5920323691
 11
13.5486870591
 21
2.6528598686
  0
LINE
  5
358
100
AcDbEntity
  8
0
100
AcDbLine
 62
2
  6
CONTINUOUS
 10
13.528687048
 20
2.4225427674
 11
13.528687048
 21
2.5270426993
  0
LINE
  5
359
100
AcDbEntity
  8
0
100
AcDbLine
 62
2
  6
CONTINUOUS
 10
13.528687048
 20
2.5505166259
 11
13.528687048
 21
2.5668657091
  0
LINE
  5
35A
100
AcDbEntity
  8
0
100
AcDbLine
 62
2
  6
CONTINUOUS
 10
13.528687048
 20
2.5920323691
 11
13.528687048
 21
2.6582139136
  0
LINE
  5
35B
100
AcDbEntity
  8
0
100
AcDbLine
 62
2
  6
CONTINUOUS
 10
13.5086870369
 20
2.4177306791
 11
13.5086870369
 21
2.4912273132
  0
LINE
  5
35C
100
AcDbEntity
  8
0
100
AcDbLine
 62
2
  6
CONTINUOUS
 10
13.5086870369
 20
2.5159553269
 11
13.5086870369
 21
2.5306043351
  0
LINE
  5
35D
100
AcDbEntity
  8
0
100
AcDbLine
 62
2
  6
CONTINUOUS
 10
13.5086870369
 20
2.5496073456
 11
13.5086870369
 21
2.5672823554
  0
LINE
  5
35E
100
AcDbEntity
  8
0
100
AcDbLine
 62
2
  6
CONTINUOUS
 10
13.5086870369
 20
2.5920323691
 11
13.5086870369
 21
2.6630260019
  0
LINE
  5
35F
100
AcDbEntity
  8
0
100
AcDbLine
 62
2
  6
CONTINUOUS
 10
13.4886870258
 20
2.4131795254
 11
13.4886870258
 21
2.4912273132
  0
LINE
  5
360
100
AcDbEntity
  8
0
100
AcDbLine
 62
2
  6
CONTINUOUS
 10
13.4886870258
 20
2.5159553269
 11
13.4886870258
 21
2.5306043351
  0
LINE
  5
361
100
AcDbEntity
  8
0
100
AcDbLine
 62
2
  6
CONTINUOUS
 10
13.4886870258
 20
2.5496073456
 11
13.4886870258
 21
2.5672823554
  0
LINE
  5
362
100
AcDbEntity
  8
0
100
AcDbLine
 62
2
  6
CONTINUOUS
 10
13.4886870258
 20
2.5920323691
 11
13.4886870258
 21
2.6675771555
  0
LINE
  5
363
100
AcDbEntity
  8
0
100
AcDbLine
 62
2
  6
CONTINUOUS
 10
13.4686870147
 20
2.4088819672
 11
13.4686870147
 21
2.4912273132
  0
LINE
  5
364
100
AcDbEntity
  8
0
100
AcDbLine
 62
2
  6
CONTINUOUS
 10
13.4686870147
 20
2.5920323691
 11
13.4686870147
 21
2.6718747138
  0
LINE
  5
365
100
AcDbEntity
  8
0
100
AcDbLine
 62
2
  6
CONTINUOUS
 10
13.4486870037
 20
2.4050092072
 11
13.4486870037
 21
2.4912273132
  0
LINE
  5
366
100
AcDbEntity
  8
0
100
AcDbLine
 62
2
  6
CONTINUOUS
 10
13.4486870037
 20
2.5920323691
 11
13.4486870037
 21
2.6757474738
  0
LINE
  5
367
100
AcDbEntity
  8
0
100
AcDbLine
 62
2
  6
CONTINUOUS
 10
13.4286869926
 20
2.4011364471
 11
13.4286869926
 21
2.4912273132
  0
LINE
  5
368
100
AcDbEntity
  8
0
100
AcDbLine
 62
2
  6
CONTINUOUS
 10
13.4286869926
 20
2.5920323691
 11
13.4286869926
 21
2.6796202339
  0
LINE
  5
369
100
AcDbEntity
  8
0
100
AcDbLine
 62
2
  6
CONTINUOUS
 10
13.4086869815
 20
2.3980226662
 11
13.4086869815
 21
2.4912273132
  0
LINE
  5
36A
100
AcDbEntity
  8
0
100
AcDbLine
 62
2
  6
CONTINUOUS
 10
13.4086869815
 20
2.515977327
 11
13.4086869815
 21
2.5672823554
  0
LINE
  5
36B
100
AcDbEntity
  8
0
100
AcDbLine
 62
2
  6
CONTINUOUS
 10
13.4086869815
 20
2.5920323691
 11
13.4086869815
 21
2.6827340148
  0
LINE
  5
36C
100
AcDbEntity
  8
0
100
AcDbLine
 62
2
  6
CONTINUOUS
 10
13.3886869704
 20
2.3950052774
 11
13.3886869704
 21
2.6857514036
  0
LINE
  5
36D
100
AcDbEntity
  8
0
100
AcDbLine
 62
2
  6
CONTINUOUS
 10
13.3686869593
 20
2.3919878885
 11
13.3686869593
 21
2.4912273132
  0
LINE
  5
36E
100
AcDbEntity
  8
0
100
AcDbLine
 62
2
  6
CONTINUOUS
 10
13.3686869593
 20
2.5291773343
 11
13.3686869593
 21
2.5540823481
  0
LINE
  5
36F
100
AcDbEntity
  8
0
100
AcDbLine
 62
2
  6
CONTINUOUS
 10
13.3686869593
 20
2.5920323691
 11
13.3686869593
 21
2.6887687924
  0
LINE
  5
370
100
AcDbEntity
  8
0
100
AcDbLine
 62
2
  6
CONTINUOUS
 10
13.3486869482
 20
2.3889704997
 11
13.3486869482
 21
2.4912273132
  0
LINE
  5
371
100
AcDbEntity
  8
0
100
AcDbLine
 62
2
  6
CONTINUOUS
 10
13.3486869482
 20
2.5291773343
 11
13.3486869482
 21
2.5540823481
  0
LINE
  5
372
100
AcDbEntity
  8
0
100
AcDbLine
 62
2
  6
CONTINUOUS
 10
13.3486869482
 20
2.5920323691
 11
13.3486869482
 21
2.6917861813
  0
LINE
  5
373
100
AcDbEntity
  8
0
100
AcDbLine
 62
2
  6
CONTINUOUS
 10
13.3286869371
 20
2.3859531109
 11
13.3286869371
 21
2.4912273132
  0
LINE
  5
374
100
AcDbEntity
  8
0
100
AcDbLine
 62
2
  6
CONTINUOUS
 10
13.3286869371
 20
2.5291773343
 11
13.3286869371
 21
2.5540823481
  0
LINE
  5
375
100
AcDbEntity
  8
0
100
AcDbLine
 62
2
  6
CONTINUOUS
 10
13.3286869371
 20
2.5920323691
 11
13.3286869371
 21
2.6948035701
  0
LINE
  5
376
100
AcDbEntity
  8
0
100
AcDbLine
 62
2
  6
CONTINUOUS
 10
13.308686926
 20
2.3833355437
 11
13.308686926
 21
2.4912273132
  0
LINE
  5
377
100
AcDbEntity
  8
0
100
AcDbLine
 62
2
  6
CONTINUOUS
 10
13.308686926
 20
2.515977327
 11
13.308686926
 21
2.5672823554
  0
LINE
  5
378
100
AcDbEntity
  8
0
100
AcDbLine
 62
2
  6
CONTINUOUS
 10
13.308686926
 20
2.5920323691
 11
13.308686926
 21
2.6974211373
  0
LINE
  5
379
100
AcDbEntity
  8
0
100
AcDbLine
 62
2
  6
CONTINUOUS
 10
13.2886869149
 20
2.3812612684
 11
13.2886869149
 21
2.4912273132
  0
LINE
  5
37A
100
AcDbEntity
  8
0
100
AcDbLine
 62
2
  6
CONTINUOUS
 10
13.2886869149
 20
2.515977327
 11
13.2886869149
 21
2.5324773361
  0
LINE
  5
37B
100
AcDbEntity
  8
0
100
AcDbLine
 62
2
  6
CONTINUOUS
 10
13.2886869149
 20
2.5507823463
 11
13.2886869149
 21
2.5672823554
  0
LINE
  5
37C
100
AcDbEntity
  8
0
100
AcDbLine
 62
2
  6
CONTINUOUS
 10
13.2886869149
 20
2.5920323691
 11
13.2886869149
 21
2.6994954125
  0
LINE
  5
37D
100
AcDbEntity
  8
0
100
AcDbLine
 62
2
  6
CONTINUOUS
 10
13.2686869038
 20
2.3791869932
 11
13.2686869038
 21
2.4912273132
  0
LINE
  5
37E
100
AcDbEntity
  8
0
100
AcDbLine
 62
2
  6
CONTINUOUS
 10
13.2686869038
 20
2.515977327
 11
13.2686869038
 21
2.5324773361
  0
LINE
  5
37F
100
AcDbEntity
  8
0
100
AcDbLine
 62
2
  6
CONTINUOUS
 10
13.2686869038
 20
2.5507823463
 11
13.2686869038
 21
2.5672823554
  0
LINE
  5
380
100
AcDbEntity
  8
0
100
AcDbLine
 62
2
  6
CONTINUOUS
 10
13.2686869038
 20
2.5920323691
 11
13.2686869038
 21
2.7015696878
  0
LINE
  5
381
100
AcDbEntity
  8
0
100
AcDbLine
 62
2
  6
CONTINUOUS
 10
13.2486868927
 20
2.377112718
 11
13.2486868927
 21
2.4912273132
  0
LINE
  5
382
100
AcDbEntity
  8
0
100
AcDbLine
 62
2
  6
CONTINUOUS
 10
13.2486868927
 20
2.5920323691
 11
13.2486868927
 21
2.703643963
  0
LINE
  5
383
100
AcDbEntity
  8
0
100
AcDbLine
 62
2
  6
CONTINUOUS
 10
13.2286868817
 20
2.3750384428
 11
13.2286868817
 21
2.4912273132
  0
LINE
  5
384
100
AcDbEntity
  8
0
100
AcDbLine
 62
2
  6
CONTINUOUS
 10
13.2286868817
 20
2.5920323691
 11
13.2286868817
 21
2.7057182382
  0
LINE
  5
385
100
AcDbEntity
  8
0
100
AcDbLine
 62
2
  6
CONTINUOUS
 10
13.2086868706
 20
2.3729641676
 11
13.2086868706
 21
2.4912273132
  0
LINE
  5
386
100
AcDbEntity
  8
0
100
AcDbLine
 62
2
  6
CONTINUOUS
 10
13.2086868706
 20
2.5920323691
 11
13.2086868706
 21
2.7077925134
  0
LINE
  5
387
100
AcDbEntity
  8
0
100
AcDbLine
 62
2
  6
CONTINUOUS
 10
13.1886868595
 20
2.3712344456
 11
13.1886868595
 21
2.4912273132
  0
LINE
  5
388
100
AcDbEntity
  8
0
100
AcDbLine
 62
2
  6
CONTINUOUS
 10
13.1886868595
 20
2.515977327
 11
13.1886868595
 21
2.5672823554
  0
LINE
  5
389
100
AcDbEntity
  8
0
100
AcDbLine
 62
2
  6
CONTINUOUS
 10
13.1886868595
 20
2.5920323691
 11
13.1886868595
 21
2.7095222354
  0
LINE
  5
38A
100
AcDbEntity
  8
0
100
AcDbLine
 62
2
  6
CONTINUOUS
 10
13.1686868484
 20
2.3699682418
 11
13.1686868484
 21
2.4912273132
  0
LINE
  5
38B
100
AcDbEntity
  8
0
100
AcDbLine
 62
2
  6
CONTINUOUS
 10
13.1686868484
 20
2.515977327
 11
13.1686868484
 21
2.5672823554
  0
LINE
  5
38C
100
AcDbEntity
  8
0
100
AcDbLine
 62
2
  6
CONTINUOUS
 10
13.1686868484
 20
2.5920323691
 11
13.1686868484
 21
2.7107884392
  0
LINE
  5
38D
100
AcDbEntity
  8
0
100
AcDbLine
 62
2
  6
CONTINUOUS
 10
13.1486868373
 20
2.3687020381
 11
13.1486868373
 21
2.7120546429
  0
LINE
  5
38E
100
AcDbEntity
  8
0
100
AcDbLine
 62
2
  6
CONTINUOUS
 10
13.1286868262
 20
2.3674358343
 11
13.1286868262
 21
2.5672823554
  0
LINE
  5
38F
100
AcDbEntity
  8
0
100
AcDbLine
 62
2
  6
CONTINUOUS
 10
13.1286868262
 20
2.5920323691
 11
13.1286868262
 21
2.7133208466
  0
LINE
  5
390
100
AcDbEntity
  8
0
100
AcDbLine
 62
2
  6
CONTINUOUS
 10
13.1086868151
 20
2.3661696306
 11
13.1086868151
 21
2.4912273132
  0
LINE
  5
391
100
AcDbEntity
  8
0
100
AcDbLine
 62
2
  6
CONTINUOUS
 10
13.1086868151
 20
2.5920323691
 11
13.1086868151
 21
2.7145870504
  0
LINE
  5
392
100
AcDbEntity
  8
0
100
AcDbLine
 62
2
  6
CONTINUOUS
 10
13.088686804
 20
2.3649034269
 11
13.088686804
 21
2.4912273132
  0
LINE
  5
393
100
AcDbEntity
  8
0
100
AcDbLine
 62
2
  6
CONTINUOUS
 10
13.088686804
 20
2.5920323691
 11
13.088686804
 21
2.7158532541
  0
LINE
  5
394
100
AcDbEntity
  8
0
100
AcDbLine
 62
2
  6
CONTINUOUS
 10
13.0686867929
 20
2.3636739922
 11
13.0686867929
 21
2.4912273132
  0
LINE
  5
395
100
AcDbEntity
  8
0
100
AcDbLine
 62
2
  6
CONTINUOUS
 10
13.0686867929
 20
2.5475272398
 11
13.0686867929
 21
2.5672823554
  0
LINE
  5
396
100
AcDbEntity
  8
0
100
AcDbLine
 62
2
  6
CONTINUOUS
 10
13.0686867929
 20
2.5920323691
 11
13.0686867929
 21
2.7170826887
  0
LINE
  5
397
100
AcDbEntity
  8
0
100
AcDbLine
 62
2
  6
CONTINUOUS
 10
13.0486867818
 20
2.363143203
 11
13.0486867818
 21
2.4912273132
  0
LINE
  5
398
100
AcDbEntity
  8
0
100
AcDbLine
 62
2
  6
CONTINUOUS
 10
13.0486867818
 20
2.5666100882
 11
13.0486867818
 21
2.717613478
  0
LINE
  5
399
100
AcDbEntity
  8
0
100
AcDbLine
 62
2
  6
CONTINUOUS
 10
13.0286867707
 20
2.3626124138
 11
13.0286867707
 21
2.50359263
  0
LINE
  5
39A
100
AcDbEntity
  8
0
100
AcDbLine
 62
2
  6
CONTINUOUS
 10
13.0286867707
 20
2.5856929366
 11
13.0286867707
 21
2.7181442672
  0
LINE
  5
39B
100
AcDbEntity
  8
0
100
AcDbLine
 62
2
  6
CONTINUOUS
 10
13.0086867596
 20
2.3620816246
 11
13.0086867596
 21
2.5226754472
  0
LINE
  5
39C
100
AcDbEntity
  8
0
100
AcDbLine
 62
2
  6
CONTINUOUS
 10
13.0086867596
 20
2.5920323691
 11
13.0086867596
 21
2.7186750564
  0
LINE
  5
39D
100
AcDbEntity
  8
0
100
AcDbLine
 62
2
  6
CONTINUOUS
 10
12.9886867486
 20
2.3615508354
 11
12.9886867486
 21
2.4912273132
  0
LINE
  5
39E
100
AcDbEntity
  8
0
100
AcDbLine
 62
2
  6
CONTINUOUS
 10
12.9886867486
 20
2.515977327
 11
12.9886867486
 21
2.5417582644
  0
LINE
  5
39F
100
AcDbEntity
  8
0
100
AcDbLine
 62
2
  6
CONTINUOUS
 10
12.9886867486
 20
2.5920323691
 11
12.9886867486
 21
2.7192058456
  0
LINE
  5
3A0
100
AcDbEntity
  8
0
100
AcDbLine
 62
2
  6
CONTINUOUS
 10
12.9686867375
 20
2.3610200462
 11
12.9686867375
 21
2.4912273132
  0
LINE
  5
3A1
100
AcDbEntity
  8
0
100
AcDbLine
 62
2
  6
CONTINUOUS
 10
12.9686867375
 20
2.5920323691
 11
12.9686867375
 21
2.7197366348
  0
LINE
  5
3A2
100
AcDbEntity
  8
0
100
AcDbLine
 62
2
  6
CONTINUOUS
 10
12.9486867264
 20
2.360489257
 11
12.9486867264
 21
2.4912273132
  0
LINE
  5
3A3
100
AcDbEntity
  8
0
100
AcDbLine
 62
2
  6
CONTINUOUS
 10
12.9486867264
 20
2.5920323691
 11
12.9486867264
 21
2.720267424
  0
LINE
  5
3A4
100
AcDbEntity
  8
0
100
AcDbLine
 62
2
  6
CONTINUOUS
 10
12.9286867153
 20
2.3602836008
 11
12.9286867153
 21
2.4912273132
  0
LINE
  5
3A5
100
AcDbEntity
  8
0
100
AcDbLine
 62
2
  6
CONTINUOUS
 10
12.9286867153
 20
2.515977327
 11
12.9286867153
 21
2.5672823554
  0
LINE
  5
3A6
100
AcDbEntity
  8
0
100
AcDbLine
 62
2
  6
CONTINUOUS
 10
12.9286867153
 20
2.5920323691
 11
12.9286867153
 21
2.7204730802
  0
LINE
  5
3A7
100
AcDbEntity
  8
0
100
AcDbLine
 62
2
  6
CONTINUOUS
 10
12.9086867042
 20
2.3604597639
 11
12.9086867042
 21
2.7202969171
  0
LINE
  5
3A8
100
AcDbEntity
  8
0
100
AcDbLine
 62
2
  6
CONTINUOUS
 10
12.8886866931
 20
2.360635927
 11
12.8886866931
 21
2.5672823554
  0
LINE
  5
3A9
100
AcDbEntity
  8
0
100
AcDbLine
 62
2
  6
CONTINUOUS
 10
12.8886866931
 20
2.5920323691
 11
12.8886866931
 21
2.720120754
  0
LINE
  5
3AA
100
AcDbEntity
  8
0
100
AcDbLine
 62
2
  6
CONTINUOUS
 10
12.868686682
 20
2.3608120901
 11
12.868686682
 21
2.491232357
  0
LINE
  5
3AB
100
AcDbEntity
  8
0
100
AcDbLine
 62
2
  6
CONTINUOUS
 10
12.868686682
 20
2.5920323691
 11
12.868686682
 21
2.7199445909
  0
LINE
  5
3AC
100
AcDbEntity
  8
0
100
AcDbLine
 62
2
  6
CONTINUOUS
 10
12.8486866709
 20
2.3609882532
 11
12.8486866709
 21
2.4912273132
  0
LINE
  5
3AD
100
AcDbEntity
  8
0
100
AcDbLine
 62
2
  6
CONTINUOUS
 10
12.8486866709
 20
2.5920323691
 11
12.8486866709
 21
2.7197684278
  0
LINE
  5
3AE
100
AcDbEntity
  8
0
100
AcDbLine
 62
2
  6
CONTINUOUS
 10
12.8286866598
 20
2.3611644163
 11
12.8286866598
 21
2.4912273132
  0
LINE
  5
3AF
100
AcDbEntity
  8
0
100
AcDbLine
 62
2
  6
CONTINUOUS
 10
12.8286866598
 20
2.5396527025
 11
12.8286866598
 21
2.5672823554
  0
LINE
  5
3B0
100
AcDbEntity
  8
0
100
AcDbLine
 62
2
  6
CONTINUOUS
 10
12.8286866598
 20
2.5920323691
 11
12.8286866598
 21
2.7195922647
  0
LINE
  5
3B1
100
AcDbEntity
  8
0
100
AcDbLine
 62
2
  6
CONTINUOUS
 10
12.8086866487
 20
2.3613405794
 11
12.8086866487
 21
2.4912273132
  0
LINE
  5
3B2
100
AcDbEntity
  8
0
100
AcDbLine
 62
2
  6
CONTINUOUS
 10
12.8086866487
 20
2.5587355508
 11
12.8086866487
 21
2.7194161016
  0
LINE
  5
3B3
100
AcDbEntity
  8
0
100
AcDbLine
 62
2
  6
CONTINUOUS
 10
12.7886866376
 20
2.3621089572
 11
12.7886866376
 21
2.4957181055
  0
LINE
  5
3B4
100
AcDbEntity
  8
0
100
AcDbLine
 62
2
  6
CONTINUOUS
 10
12.7886866376
 20
2.5778183992
 11
12.7886866376
 21
2.7186477238
  0
LINE
  5
3B5
100
AcDbEntity
  8
0
100
AcDbLine
 62
2
  6
CONTINUOUS
 10
12.7686866266
 20
2.3630013935
 11
12.7686866266
 21
2.5148009227
  0
LINE
  5
3B6
100
AcDbEntity
  8
0
100
AcDbLine
 62
2
  6
CONTINUOUS
 10
12.7686866266
 20
2.5920323691
 11
12.7686866266
 21
2.7177552874
  0
LINE
  5
3B7
100
AcDbEntity
  8
0
100
AcDbLine
 62
2
  6
CONTINUOUS
 10
12.7486866155
 20
2.3638938299
 11
12.7486866155
 21
2.4913263218
  0
LINE
  5
3B8
100
AcDbEntity
  8
0
100
AcDbLine
 62
2
  6
CONTINUOUS
 10
12.7486866155
 20
2.5158783184
 11
12.7486866155
 21
2.5338837399
  0
LINE
  5
3B9
100
AcDbEntity
  8
0
100
AcDbLine
 62
2
  6
CONTINUOUS
 10
12.7486866155
 20
2.5920323691
 11
12.7486866155
 21
2.7168628511
  0
LINE
  5
3BA
100
AcDbEntity
  8
0
100
AcDbLine
 62
2
  6
CONTINUOUS
 10
12.7286866044
 20
2.3647862663
 11
12.7286866044
 21
2.4912273132
  0
LINE
  5
3BB
100
AcDbEntity
  8
0
100
AcDbLine
 62
2
  6
CONTINUOUS
 10
12.7286866044
 20
2.515977327
 11
12.7286866044
 21
2.5527601554
  0
LINE
  5
3BC
100
AcDbEntity
  8
0
100
AcDbLine
 62
2
  6
CONTINUOUS
 10
12.7286866044
 20
2.5920323691
 11
12.7286866044
 21
2.7159704147
  0
LINE
  5
3BD
100
AcDbEntity
  8
0
100
AcDbLine
 62
2
  6
CONTINUOUS
 10
12.7086865933
 20
2.3656787026
 11
12.7086865933
 21
2.4912273132
  0
LINE
  5
3BE
100
AcDbEntity
  8
0
100
AcDbLine
 62
2
  6
CONTINUOUS
 10
12.7086865933
 20
2.5920323691
 11
12.7086865933
 21
2.7150779784
  0
LINE
  5
3BF
100
AcDbEntity
  8
0
100
AcDbLine
 62
2
  6
CONTINUOUS
 10
12.6886865822
 20
2.366571139
 11
12.6886865822
 21
2.4912273132
  0
LINE
  5
3C0
100
AcDbEntity
  8
0
100
AcDbLine
 62
2
  6
CONTINUOUS
 10
12.6886865822
 20
2.515977327
 11
12.6886865822
 21
2.5672823554
  0
LINE
  5
3C1
100
AcDbEntity
  8
0
100
AcDbLine
 62
2
  6
CONTINUOUS
 10
12.6886865822
 20
2.5920323691
 11
12.6886865822
 21
2.714185542
  0
LINE
  5
3C2
100
AcDbEntity
  8
0
100
AcDbLine
 62
2
  6
CONTINUOUS
 10
12.6686865711
 20
2.3677104027
 11
12.6686865711
 21
2.7130462783
  0
LINE
  5
3C3
100
AcDbEntity
  8
0
100
AcDbLine
 62
2
  6
CONTINUOUS
 10
12.64868656
 20
2.3693682721
 11
12.64868656
 21
2.7113884089
  0
LINE
  5
3C4
100
AcDbEntity
  8
0
100
AcDbLine
 62
2
  6
CONTINUOUS
 10
12.6286865489
 20
2.3710261415
 11
12.6286865489
 21
2.4912273132
  0
LINE
  5
3C5
100
AcDbEntity
  8
0
100
AcDbLine
 62
2
  6
CONTINUOUS
 10
12.6286865489
 20
2.515977327
 11
12.6286865489
 21
2.7097305395
  0
LINE
  5
3C6
100
AcDbEntity
  8
0
100
AcDbLine
 62
2
  6
CONTINUOUS
 10
12.6086865378
 20
2.372684011
 11
12.6086865378
 21
2.4912273132
  0
LINE
  5
3C7
100
AcDbEntity
  8
0
100
AcDbLine
 62
2
  6
CONTINUOUS
 10
12.6086865378
 20
2.5351122279
 11
12.6086865378
 21
2.70807267
  0
LINE
  5
3C8
100
AcDbEntity
  8
0
100
AcDbLine
 62
2
  6
CONTINUOUS
 10
12.5886865267
 20
2.3743418804
 11
12.5886865267
 21
2.4912273132
  0
LINE
  5
3C9
100
AcDbEntity
  8
0
100
AcDbLine
 62
2
  6
CONTINUOUS
 10
12.5886865267
 20
2.5660172622
 11
12.5886865267
 21
2.7064148006
  0
LINE
  5
3CA
100
AcDbEntity
  8
0
100
AcDbLine
 62
2
  6
CONTINUOUS
 10
12.5686865156
 20
2.3759997498
 11
12.5686865156
 21
2.4912273132
  0
LINE
  5
3CB
100
AcDbEntity
  8
0
100
AcDbLine
 62
2
  6
CONTINUOUS
 10
12.5686865156
 20
2.5920323691
 11
12.5686865156
 21
2.7047569312
  0
LINE
  5
3CC
100
AcDbEntity
  8
0
100
AcDbLine
 62
2
  6
CONTINUOUS
 10
12.5486865045
 20
2.3777575277
 11
12.5486865045
 21
2.4912273132
  0
LINE
  5
3CD
100
AcDbEntity
  8
0
100
AcDbLine
 62
2
  6
CONTINUOUS
 10
12.5486865045
 20
2.515977327
 11
12.5486865045
 21
2.5275118824
  0
LINE
  5
3CE
100
AcDbEntity
  8
0
100
AcDbLine
 62
2
  6
CONTINUOUS
 10
12.5486865045
 20
2.5920323691
 11
12.5486865045
 21
2.7029991533
  0
LINE
  5
3CF
100
AcDbEntity
  8
0
100
AcDbLine
 62
2
  6
CONTINUOUS
 10
12.5286864935
 20
2.3802813811
 11
12.5286864935
 21
2.5296213345
  0
LINE
  5
3D0
100
AcDbEntity
  8
0
100
AcDbLine
 62
2
  6
CONTINUOUS
 10
12.5286864935
 20
2.5505713461
 11
12.5286864935
 21
2.5667383551
  0
LINE
  5
3D1
100
AcDbEntity
  8
0
100
AcDbLine
 62
2
  6
CONTINUOUS
 10
12.5286864935
 20
2.5920323691
 11
12.5286864935
 21
2.7004752999
  0
LINE
  5
3D2
100
AcDbEntity
  8
0
100
AcDbLine
 62
2
  6
CONTINUOUS
 10
12.5086864824
 20
2.3828052346
 11
12.5086864824
 21
2.4912273132
  0
LINE
  5
3D3
100
AcDbEntity
  8
0
100
AcDbLine
 62
2
  6
CONTINUOUS
 10
12.5086864824
 20
2.515977327
 11
12.5086864824
 21
2.5279667721
  0
LINE
  5
3D4
100
AcDbEntity
  8
0
100
AcDbLine
 62
2
  6
CONTINUOUS
 10
12.5086864824
 20
2.5868602074
 11
12.5086864824
 21
2.6979514464
  0
LINE
  5
3D5
100
AcDbEntity
  8
0
100
AcDbLine
 62
2
  6
CONTINUOUS
 10
12.4886864713
 20
2.385329088
 11
12.4886864713
 21
2.4912273132
  0
LINE
  5
3D6
100
AcDbEntity
  8
0
100
AcDbLine
 62
2
  6
CONTINUOUS
 10
12.4886864713
 20
2.5553401045
 11
12.4886864713
 21
2.695427593
  0
LINE
  5
3D7
100
AcDbEntity
  8
0
100
AcDbLine
 62
2
  6
CONTINUOUS
 10
12.4686864602
 20
2.3878529415
 11
12.4686864602
 21
2.4912273132
  0
LINE
  5
3D8
100
AcDbEntity
  8
0
100
AcDbLine
 62
2
  6
CONTINUOUS
 10
12.4686864602
 20
2.5238200015
 11
12.4686864602
 21
2.6929037395
  0
LINE
  5
3D9
100
AcDbEntity
  8
0
100
AcDbLine
 62
2
  6
CONTINUOUS
 10
12.4486864491
 20
2.390376795
 11
12.4486864491
 21
2.4912273132
  0
LINE
  5
3DA
100
AcDbEntity
  8
0
100
AcDbLine
 62
2
  6
CONTINUOUS
 10
12.4486864491
 20
2.515977327
 11
12.4486864491
 21
2.690379886
  0
LINE
  5
3DB
100
AcDbEntity
  8
0
100
AcDbLine
 62
2
  6
CONTINUOUS
 10
12.428686438
 20
2.3931794042
 11
12.428686438
 21
2.6875772768
  0
LINE
  5
3DC
100
AcDbEntity
  8
0
100
AcDbLine
 62
2
  6
CONTINUOUS
 10
12.4086864269
 20
2.3964643301
 11
12.4086864269
 21
2.5013773986
  0
LINE
  5
3DD
100
AcDbEntity
  8
0
100
AcDbLine
 62
2
  6
CONTINUOUS
 10
12.4086864269
 20
2.5325739971
 11
12.4086864269
 21
2.5537224311
  0
LINE
  5
3DE
100
AcDbEntity
  8
0
100
AcDbLine
 62
2
  6
CONTINUOUS
 10
12.4086864269
 20
2.5791473398
 11
12.4086864269
 21
2.6842923509
  0
LINE
  5
3DF
100
AcDbEntity
  8
0
100
AcDbLine
 62
2
  6
CONTINUOUS
 10
12.3886864158
 20
2.399749256
 11
12.3886864158
 21
2.4921022658
  0
LINE
  5
3E0
100
AcDbEntity
  8
0
100
AcDbLine
 62
2
  6
CONTINUOUS
 10
12.3886864158
 20
2.5895929958
 11
12.3886864158
 21
2.681007425
  0
LINE
  5
3E1
100
AcDbEntity
  8
0
100
AcDbLine
 62
2
  6
CONTINUOUS
 10
12.3686864047
 20
2.403451877
 11
12.3686864047
 21
2.4912273132
  0
LINE
  5
3E2
100
AcDbEntity
  8
0
100
AcDbLine
 62
2
  6
CONTINUOUS
 10
12.3686864047
 20
2.5920323691
 11
12.3686864047
 21
2.677304804
  0
LINE
  5
3E3
100
AcDbEntity
  8
0
100
AcDbLine
 62
2
  6
CONTINUOUS
 10
12.3486863936
 20
2.407324637
 11
12.3486863936
 21
2.4912273132
  0
LINE
  5
3E4
100
AcDbEntity
  8
0
100
AcDbLine
 62
2
  6
CONTINUOUS
 10
12.3486863936
 20
2.5920323691
 11
12.3486863936
 21
2.673432044
  0
LINE
  5
3E5
100
AcDbEntity
  8
0
100
AcDbLine
 62
2
  6
CONTINUOUS
 10
12.3286863825
 20
2.4113493968
 11
12.3286863825
 21
2.4912273132
  0
LINE
  5
3E6
100
AcDbEntity
  8
0
100
AcDbLine
 62
2
  6
CONTINUOUS
 10
12.3286863825
 20
2.515977327
 11
12.3286863825
 21
2.5333023366
  0
LINE
  5
3E7
100
AcDbEntity
  8
0
100
AcDbLine
 62
2
  6
CONTINUOUS
 10
12.3286863825
 20
2.5499573458
 11
12.3286863825
 21
2.5672823554
  0
LINE
  5
3E8
100
AcDbEntity
  8
0
100
AcDbLine
 62
2
  6
CONTINUOUS
 10
12.3286863825
 20
2.5920323691
 11
12.3286863825
 21
2.6694072842
  0
LINE
  5
3E9
100
AcDbEntity
  8
0
100
AcDbLine
 62
2
  6
CONTINUOUS
 10
12.3086863715
 20
2.4159005505
 11
12.3086863715
 21
2.4912273132
  0
LINE
  5
3EA
100
AcDbEntity
  8
0
100
AcDbLine
 62
2
  6
CONTINUOUS
 10
12.3086863715
 20
2.515977327
 11
12.3086863715
 21
2.5333023366
  0
LINE
  5
3EB
100
AcDbEntity
  8
0
100
AcDbLine
 62
2
  6
CONTINUOUS
 10
12.3086863715
 20
2.5499573458
 11
12.3086863715
 21
2.5672823554
  0
LINE
  5
3EC
100
AcDbEntity
  8
0
100
AcDbLine
 62
2
  6
CONTINUOUS
 10
12.3086863715
 20
2.5920323691
 11
12.3086863715
 21
2.6648561305
  0
LINE
  5
3ED
100
AcDbEntity
  8
0
100
AcDbLine
 62
2
  6
CONTINUOUS
 10
12.2886863604
 20
2.4204517041
 11
12.2886863604
 21
2.4912273132
  0
LINE
  5
3EE
100
AcDbEntity
  8
0
100
AcDbLine
 62
2
  6
CONTINUOUS
 10
12.2886863604
 20
2.5920323691
 11
12.2886863604
 21
2.6603049769
  0
LINE
  5
3EF
100
AcDbEntity
  8
0
100
AcDbLine
 62
2
  6
CONTINUOUS
 10
12.2686863493
 20
2.4257438218
 11
12.2686863493
 21
2.4912273132
  0
LINE
  5
3F0
100
AcDbEntity
  8
0
100
AcDbLine
 62
2
  6
CONTINUOUS
 10
12.2686863493
 20
2.5920323691
 11
12.2686863493
 21
2.6550128592
  0
LINE
  5
3F1
100
AcDbEntity
  8
0
100
AcDbLine
 62
2
  6
CONTINUOUS
 10
12.2486863382
 20
2.4310978667
 11
12.2486863382
 21
2.4912273132
  0
LINE
  5
3F2
100
AcDbEntity
  8
0
100
AcDbLine
 62
2
  6
CONTINUOUS
 10
12.2486863382
 20
2.5920323691
 11
12.2486863382
 21
2.6496588142
  0
LINE
  5
3F3
100
AcDbEntity
  8
0
100
AcDbLine
 62
2
  6
CONTINUOUS
 10
12.2286863271
 20
2.4372566433
 11
12.2286863271
 21
2.4912273132
  0
LINE
  5
3F4
100
AcDbEntity
  8
0
100
AcDbLine
 62
2
  6
CONTINUOUS
 10
12.2286863271
 20
2.515977327
 11
12.2286863271
 21
2.5672823554
  0
LINE
  5
3F5
100
AcDbEntity
  8
0
100
AcDbLine
 62
2
  6
CONTINUOUS
 10
12.2286863271
 20
2.5920323691
 11
12.2286863271
 21
2.6435000377
  0
LINE
  5
3F6
100
AcDbEntity
  8
0
100
AcDbLine
 62
2
  6
CONTINUOUS
 10
12.208686316
 20
2.443589771
 11
12.208686316
 21
2.4912273132
  0
LINE
  5
3F7
100
AcDbEntity
  8
0
100
AcDbLine
 62
2
  6
CONTINUOUS
 10
12.208686316
 20
2.515977327
 11
12.208686316
 21
2.5672823554
  0
LINE
  5
3F8
100
AcDbEntity
  8
0
100
AcDbLine
 62
2
  6
CONTINUOUS
 10
12.208686316
 20
2.5920323691
 11
12.208686316
 21
2.63716691
  0
LINE
  5
3F9
100
AcDbEntity
  8
0
100
AcDbLine
 62
2
  6
CONTINUOUS
 10
12.1886863049
 20
2.4510806436
 11
12.1886863049
 21
2.6296760373
  0
LINE
  5
3FA
100
AcDbEntity
  8
0
100
AcDbLine
 62
2
  6
CONTINUOUS
 10
12.1686862938
 20
2.4591016523
 11
12.1686862938
 21
2.6216550287
  0
LINE
  5
3FB
100
AcDbEntity
  8
0
100
AcDbLine
 62
2
  6
CONTINUOUS
 10
12.1486862827
 20
2.468314272
 11
12.1486862827
 21
2.612442409
  0
LINE
  5
3FC
100
AcDbEntity
  8
0
100
AcDbLine
 62
2
  6
CONTINUOUS
 10
12.1286862716
 20
2.4794932339
 11
12.1286862716
 21
2.601263447
  0
LINE
  5
3FD
100
AcDbEntity
  8
0
100
AcDbLine
 62
2
  6
CONTINUOUS
 10
12.1086862605
 20
2.4934150665
 11
12.1086862605
 21
2.5873416144
  0
LINE
  5
3FE
100
AcDbEntity
  8
0
100
AcDbLine
 62
2
  6
CONTINUOUS
 10
12.0886862494
 20
2.5144449553
 11
12.0886862494
 21
2.5663117257
  0
ENDBLK
  5
3FF
100
AcDbEntity
  8
0
  6
BYBLOCK
 62
0
100
AcDbBlockEnd
  0
BLOCK
  5
400
100
AcDbEntity
  8
0
100
AcDbBlockBegin
  2
_FILLED
 70
64
 10
0.0
 20
0.0
  3
_FILLED
  1

  0
SOLID
  5
401
100
AcDbEntity
  8
0
  6
BYBLOCK
 62
0
100
AcDbTrace
 10
0.0
 20
0.0
 11
-1.0
 21
0.1666666667
 12
-1.0
 22
-0.1666666667
 13
-1.0
 23
-0.1666666667
  0
ENDBLK
  5
402
100
AcDbEntity
  8
0
  6
BYBLOCK
 62
0
100
AcDbBlockEnd
  0
BLOCK
  5
403
100
AcDbEntity
  8
DRIVEN_DIMS
100
AcDbBlockBegin
 62
2
  6
CONTINUOUS
  2
*D0
 70
65
 10
0.0
 20
0.0
  3
*D0
  1

  0
MTEXT
  5
404
100
AcDbEntity
  8
DRIVEN_DIMS
100
AcDbMText
 62
2
  6
CONTINUOUS
  7
STANDARD
 71
2
 72
1
 10
7.5584045177
 20
5.8205818148
 30
0.0
 11
1.0
 21
0.0
 31
0.0
 44
0.9
  1
36,7\P[1.45]
 40
0.1
 41
0.6
  0
LINE
  5
405
100
AcDbEntity
  8
DRIVEN_DIMS
100
AcDbLine
 62
2
  6
CONTINUOUS
 10
8.1222674956
 20
6.4187574602
 11
7.5334045177
 21
6.4187574602
  0
LINE
  5
406
100
AcDbEntity
  8
DRIVEN_DIMS
100
AcDbLine
 62
2
  6
CONTINUOUS
 10
8.1174896963
 20
4.9724061694
 11
7.5334045177
 21
4.9724061694
  0
LINE
  5
407
100
AcDbEntity
  8
DRIVEN_DIMS
100
AcDbLine
 62
2
  6
CONTINUOUS
 10
7.6584045177
 20
6.4187574602
 11
7.6584045177
 21
5.9205818148
  0
LINE
  5
408
100
AcDbEntity
  8
DRIVEN_DIMS
100
AcDbLine
 62
2
  6
CONTINUOUS
 10
7.6584045177
 20
4.9724061694
 11
7.6584045177
 21
5.4705818148
  0
INSERT
  5
409
100
AcDbEntity
  8
DRIVEN_DIMS
100
AcDbBlockReference
 62
2
  6
CONTINUOUS
  2
_FILLED
 10
7.6584045177
 20
6.4187574602
 41
0.1875
 42
0.1875
 43
0.1875
 50
90.0
  0
INSERT
  5
40A
100
AcDbEntity
  8
DRIVEN_DIMS
100
AcDbBlockReference
 62
2
  6
CONTINUOUS
  2
_FILLED
 10
7.6584045177
 20
4.9724061694
 41
0.1875
 42
0.1875
 43
0.1875
 50
270.0
  0
ENDBLK
  5
40B
100
AcDbEntity
  8
0
  6
BYBLOCK
 62
0
100
AcDbBlockEnd
  0
BLOCK
  5
40C
100
AcDbEntity
  8
SCHEME_DIMS
100
AcDbBlockBegin
 62
2
  6
CONTINUOUS
  2
*D1
 70
65
 10
0.0
 20
0.0
  3
*D1
  1

  0
MTEXT
  5
40D
100
AcDbEntity
  8
SCHEME_DIMS
100
AcDbMText
 62
2
  6
CONTINUOUS
  7
STANDARD
 71
2
 72
1
 10
7.1834045177
 20
4.9318665326
 30
0.0
 11
1.0
 21
0.0
 31
0.0
 44
0.9
  1
58,8\P[2.32]
 40
0.1
 41
0.6
  0
LINE
  5
40E
100
AcDbEntity
  8
SCHEME_DIMS
100
AcDbLine
 62
2
  6
CONTINUOUS
 10
8.2586751732
 20
4.1027574602
 11
7.1584045177
 21
4.1027574602
  0
LINE
  5
40F
100
AcDbEntity
  8
SCHEME_DIMS
100
AcDbLine
 62
2
  6
CONTINUOUS
 10
8.1210345807
 20
6.4187574602
 11
7.1584045177
 21
6.4187574602
  0
LINE
  5
410
100
AcDbEntity
  8
SCHEME_DIMS
100
AcDbLine
 62
2
  6
CONTINUOUS
 10
7.2834045177
 20
4.1027574602
 11
7.2834045177
 21
4.5818665326
  0
LINE
  5
411
100
AcDbEntity
  8
SCHEME_DIMS
100
AcDbLine
 62
2
  6
CONTINUOUS
 10
7.2834045177
 20
6.4187574602
 11
7.2834045177
 21
5.0318665326
  0
INSERT
  5
412
100
AcDbEntity
  8
SCHEME_DIMS
100
AcDbBlockReference
 62
2
  6
CONTINUOUS
  2
_FILLED
 10
7.2834045177
 20
4.1027574602
 41
0.1875
 42
0.1875
 43
0.1875
 50
270.0
  0
INSERT
  5
413
100
AcDbEntity
  8
SCHEME_DIMS
100
AcDbBlockReference
 62
2
  6
CONTINUOUS
  2
_FILLED
 10
7.2834045177
 20
6.4187574602
 41
0.1875
 42
0.1875
 43
0.1875
 50
90.0
  0
ENDBLK
  5
414
100
AcDbEntity
  8
0
  6
BYBLOCK
 62
0
100
AcDbBlockEnd
  0
BLOCK
  5
415
100
AcDbEntity
  8
SCHEME_DIMS
100
AcDbBlockBegin
 62
2
  6
CONTINUOUS
  2
*D2
 70
65
 10
0.0
 20
0.0
  3
*D2
  1

  0
MTEXT
  5
416
100
AcDbEntity
  8
SCHEME_DIMS
100
AcDbMText
 62
2
  6
CONTINUOUS
  7
TEXTSTYLE_5
 71
2
 72
1
 10
8.4629035327
 20
6.9925418789
 30
0.0
 11
1.0
 21
0.0
 31
0.0
 44
0.9
  1
{\Fgdt;n}\Ftxt;16,7\P[.66]
 40
0.1
 41
0.5333333333
  0
LINE
  5
417
100
AcDbEntity
  8
SCHEME_DIMS
100
AcDbLine
 62
2
  6
CONTINUOUS
 10
8.1834035327
 20
6.4812574602
 11
8.1834035327
 21
7.0675418789
  0
LINE
  5
418
100
AcDbEntity
  8
SCHEME_DIMS
100
AcDbLine
 62
2
  6
CONTINUOUS
 10
8.8424035327
 20
6.4682574602
 11
8.8424035327
 21
7.0675418789
  0
LINE
  5
419
100
AcDbEntity
  8
SCHEME_DIMS
100
AcDbLine
 62
2
  6
CONTINUOUS
 10
8.1834035327
 20
6.9425418789
 11
7.7834035327
 21
6.9425418789
  0
LINE
  5
41A
100
AcDbEntity
  8
SCHEME_DIMS
100
AcDbLine
 62
2
  6
CONTINUOUS
 10
8.8424035327
 20
6.9425418789
 11
9.2424035327
 21
6.9425418789
  0
INSERT
  5
41B
100
AcDbEntity
  8
SCHEME_DIMS
100
AcDbBlockReference
 62
2
  6
CONTINUOUS
  2
_FILLED
 10
8.1834035327
 20
6.9425418789
 41
0.1875
 42
0.1875
 43
0.1875
  0
INSERT
  5
41C
100
AcDbEntity
  8
SCHEME_DIMS
100
AcDbBlockReference
 62
2
  6
CONTINUOUS
  2
_FILLED
 10
8.8424035327
 20
6.9425418789
 41
0.1875
 42
0.1875
 43
0.1875
 50
180.0
  0
ENDBLK
  5
41D
100
AcDbEntity
  8
0
  6
BYBLOCK
 62
0
100
AcDbBlockEnd
  0
ENDSEC
  0
SECTION
  2
ENTITIES
  0
MTEXT
  5
41E
100
AcDbEntity
  8
0
100
AcDbMText
 62
2
  6
CONTINUOUS
  7
TEXTSTYLE_2
 71
2
 72
1
 10
11.0287658475
 20
1.794867839
 30
0.0
 11
1.0
 21
0.0
 31
0.0
 44
0.9
  1
THIRD ANGLE PROJECTION
 40
0.1
 41
1.76
  0
MTEXT
  5
41F
100
AcDbEntity
  8
0
100
AcDbMText
 62
2
  6
CONTINUOUS
  7
STANDARD
 71
1
 72
1
 10
12.88
 20
1.457
 30
0.0
 11
1.0
 21
0.0
 31
0.0
 44
0.9
  1
DRAWING NO.
 40
0.08
 41
0.88
  0
MTEXT
  5
420
100
AcDbEntity
  8
0
100
AcDbMText
 62
2
  6
CONTINUOUS
  7
TEXTSTYLE_3
 71
2
 72
1
 10
11.03
 20
2.516432
 30
0.0
 11
1.0
 21
0.0
 31
0.0
 44
0.9
  1
and is proprietary in general
 40
0.08
 41
1.972
  0
MTEXT
  5
421
100
AcDbEntity
  8
0
100
AcDbMText
 62
2
  6
CONTINUOUS
  7
TEXTSTYLE_3
 71
2
 72
1
 10
11.03
 20
2.396432
 30
0.0
 11
1.0
 21
0.0
 31
0.0
 44
0.9
  1
and in detail.  Its contents
 40
0.08
 41
1.904
  0
MTEXT
  5
422
100
AcDbEntity
  8
0
100
AcDbMText
 62
2
  6
CONTINUOUS
  7
TEXTSTYLE_3
 71
2
 72
1
 10
11.03
 20
2.276432
 30
0.0
 11
1.0
 21
0.0
 31
0.0
 44
0.9
  1
shall not be revealed to
 40
0.08
 41
1.632
  0
MTEXT
  5
423
100
AcDbEntity
  8
0
100
AcDbMText
 62
2
  6
CONTINUOUS
  7
TEXTSTYLE_3
 71
2
 72
1
 10
11.03
 20
2.156432
 30
0.0
 11
1.0
 21
0.0
 31
0.0
 44
0.9
  1
outside parties without
 40
0.08
 41
1.564
  0
MTEXT
  5
424
100
AcDbEntity
  8
0
100
AcDbMText
 62
2
  6
CONTINUOUS
  7
TEXTSTYLE_3
 71
2
 72
1
 10
11.03
 20
2.036432
 30
0.0
 11
1.0
 21
0.0
 31
0.0
 44
0.9
  1
written consent of BANNER.
 40
0.08
 41
1.768
  0
MTEXT
  5
425
100
AcDbEntity
  8
0
100
AcDbMText
 62
2
  6
CONTINUOUS
  7
TEXTSTYLE_2
 71
1
 72
1
 10
12.08
 20
2.217
 30
0.0
 11
1.0
 21
0.0
 31
0.0
 44
0.9
  1
TITLE
 40
0.1
 41
0.4
  0
MTEXT
  5
426
100
AcDbEntity
  8
0
100
AcDbMText
 62
2
  6
CONTINUOUS
  7
STANDARD
 71
1
 72
1
 10
12.08
 20
1.457
 30
0.0
 11
1.0
 21
0.0
 31
0.0
 44
0.9
  1
SIZE
 40
0.08
 41
0.32
  0
MTEXT
  5
427
100
AcDbEntity
  8
0
100
AcDbMText
 62
2
  6
CONTINUOUS
  7
STANDARD
 71
1
 72
1
 10
12.08
 20
1.087
 30
0.0
 11
1.0
 21
0.0
 31
0.0
 44
0.9
  1
SCALE
 40
0.08
 41
0.4
  0
MTEXT
  5
428
100
AcDbEntity
  8
0
100
AcDbMText
 62
2
  6
CONTINUOUS
  7
TEXTSTYLE_2
 71
2
 72
1
 10
12.5
 20
1.337
 30
0.0
 11
1.0
 21
0.0
 31
0.0
 44
0.9
  1
B
 40
0.1
 41
0.08
  0
MTEXT
  5
429
100
AcDbEntity
  8
0
100
AcDbMText
 62
2
  6
CONTINUOUS
  7
TEXTSTYLE_3
 71
2
 72
1
 10
11.03
 20
2.636432
 30
0.0
 11
1.0
 21
0.0
 31
0.0
 44
0.9
  1
of BANNER ENGINEERING CORP.
 40
0.08
 41
1.836
  0
MTEXT
  5
42A
100
AcDbEntity
  8
0
100
AcDbMText
 62
2
  6
CONTINUOUS
  7
TEXTSTYLE_3
 71
2
 72
1
 10
11.03
 20
2.756432
 30
0.0
 11
1.0
 21
0.0
 31
0.0
 44
0.9
  1
This drawing is the property
 40
0.08
 41
1.904
  0
MTEXT
  5
42B
100
AcDbEntity
  8
0
100
AcDbMText
 62
2
  6
CONTINUOUS
  7
TEXTSTYLE_2
 71
2
 72
1
 10
15.03
 20
2.4134
 30
0.0
 11
1.0
 21
0.0
 31
0.0
 44
0.9
  1
MINNEAPOLIS, MN 55440
 40
0.1
 41
1.68
  0
MTEXT
  5
42C
100
AcDbEntity
  8
0
100
AcDbMText
 62
2
  6
CONTINUOUS
  7
STANDARD
 71
1
 72
1
 10
14.255
 20
1.087
 30
0.0
 11
1.0
 21
0.0
 31
0.0
 44
0.9
  1
SHEET
 40
0.08
 41
0.4
  0
MTEXT
  5
42D
100
AcDbEntity
  8
0
100
AcDbMText
 62
2
  6
CONTINUOUS
  7
STANDARD
 71
1
 72
1
 10
15.63
 20
1.457
 30
0.0
 11
1.0
 21
0.0
 31
0.0
 44
0.9
  1
REV.
 40
0.08
 41
0.32
  0
MTEXT
  5
42E
100
AcDbEntity
  8
0
100
AcDbMText
 62
2
  6
CONTINUOUS
  7
STANDARD
 71
3
 72
1
 10
16.38
 20
0.835443
 30
0.0
 11
1.0
 21
0.0
 31
0.0
 44
0.9
  1
PRO/E
 40
0.07
 41
0.35
  0
MTEXT
  5
42F
100
AcDbEntity
  8
0
100
AcDbMText
 62
2
  6
CONTINUOUS
  7
TEXTSTYLE_4
 71
2
 72
1
 10
15.03
 20
2.751049
 30
0.0
 11
1.0
 21
0.0
 31
0.0
 44
0.9
  1
BANNER ENGINEERING CORP.
 40
0.12
 41
2.6496
  0
MTEXT
  5
430
100
AcDbEntity
  8
0
100
AcDbMText
 62
2
  6
CONTINUOUS
  7
TEXTSTYLE_2
 71
2
 72
1
 10
15.03
 20
2.5724
 30
0.0
 11
1.0
 21
0.0
 31
0.0
 44
0.9
  1
P.O. BOX 9414
 40
0.1
 41
1.04
  0
MTEXT
  5
431
100
AcDbEntity
  8
0
100
AcDbMText
 62
2
  6
CONTINUOUS
  7
TEXTSTYLE_2
 71
2
 72
1
 10
9.485
 20
10.312
 30
0.0
 11
1.0
 21
0.0
 31
0.0
 44
0.9
  1
4
 40
0.1
 41
0.08
  0
MTEXT
  5
432
100
AcDbEntity
  8
0
100
AcDbMText
 62
2
  6
CONTINUOUS
  7
TEXTSTYLE_2
 71
2
 72
1
 10
11.455
 20
10.312
 30
0.0
 11
1.0
 21
0.0
 31
0.0
 44
0.9
  1
3
 40
0.1
 41
0.08
  0
MTEXT
  5
433
100
AcDbEntity
  8
0
100
AcDbMText
 62
2
  6
CONTINUOUS
  7
TEXTSTYLE_2
 71
2
 72
1
 10
13.425
 20
10.312
 30
0.0
 11
1.0
 21
0.0
 31
0.0
 44
0.9
  1
2
 40
0.1
 41
0.08
  0
MTEXT
  5
434
100
AcDbEntity
  8
0
100
AcDbMText
 62
2
  6
CONTINUOUS
  7
TEXTSTYLE_2
 71
2
 72
1
 10
15.395
 20
10.312
 30
0.0
 11
1.0
 21
0.0
 31
0.0
 44
0.9
  1
1
 40
0.1
 41
0.08
  0
MTEXT
  5
435
100
AcDbEntity
  8
0
100
AcDbMText
 62
2
  6
CONTINUOUS
  7
TEXTSTYLE_2
 71
2
 72
1
 10
3.575
 20
10.312
 30
0.0
 11
1.0
 21
0.0
 31
0.0
 44
0.9
  1
7
 40
0.1
 41
0.08
  0
MTEXT
  5
436
100
AcDbEntity
  8
0
100
AcDbMText
 62
2
  6
CONTINUOUS
  7
TEXTSTYLE_2
 71
2
 72
1
 10
5.545
 20
10.312
 30
0.0
 11
1.0
 21
0.0
 31
0.0
 44
0.9
  1
6
 40
0.1
 41
0.08
  0
MTEXT
  5
437
100
AcDbEntity
  8
0
100
AcDbMText
 62
2
  6
CONTINUOUS
  7
TEXTSTYLE_2
 71
2
 72
1
 10
7.515
 20
10.312
 30
0.0
 11
1.0
 21
0.0
 31
0.0
 44
0.9
  1
5
 40
0.1
 41
0.08
  0
MTEXT
  5
438
100
AcDbEntity
  8
0
100
AcDbMText
 62
2
  6
CONTINUOUS
  7
TEXTSTYLE_2
 71
2
 72
1
 10
1.605
 20
10.312
 30
0.0
 11
1.0
 21
0.0
 31
0.0
 44
0.9
  1
8
 40
0.1
 41
0.08
  0
MTEXT
  5
439
100
AcDbEntity
  8
0
100
AcDbMText
 62
2
  6
CONTINUOUS
  7
TEXTSTYLE_2
 71
2
 72
1
 10
1.605
 20
0.787
 30
0.0
 11
1.0
 21
0.0
 31
0.0
 44
0.9
  1
8
 40
0.1
 41
0.08
  0
MTEXT
  5
43A
100
AcDbEntity
  8
0
100
AcDbMText
 62
2
  6
CONTINUOUS
  7
TEXTSTYLE_2
 71
2
 72
1
 10
3.575
 20
0.787
 30
0.0
 11
1.0
 21
0.0
 31
0.0
 44
0.9
  1
7
 40
0.1
 41
0.08
  0
MTEXT
  5
43B
100
AcDbEntity
  8
0
100
AcDbMText
 62
2
  6
CONTINUOUS
  7
TEXTSTYLE_2
 71
2
 72
1
 10
5.545
 20
0.787
 30
0.0
 11
1.0
 21
0.0
 31
0.0
 44
0.9
  1
6
 40
0.1
 41
0.08
  0
MTEXT
  5
43C
100
AcDbEntity
  8
0
100
AcDbMText
 62
2
  6
CONTINUOUS
  7
TEXTSTYLE_2
 71
2
 72
1
 10
7.515
 20
0.787
 30
0.0
 11
1.0
 21
0.0
 31
0.0
 44
0.9
  1
5
 40
0.1
 41
0.08
  0
MTEXT
  5
43D
100
AcDbEntity
  8
0
100
AcDbMText
 62
2
  6
CONTINUOUS
  7
TEXTSTYLE_2
 71
2
 72
1
 10
9.485
 20
0.787
 30
0.0
 11
1.0
 21
0.0
 31
0.0
 44
0.9
  1
4
 40
0.1
 41
0.08
  0
MTEXT
  5
43E
100
AcDbEntity
  8
0
100
AcDbMText
 62
2
  6
CONTINUOUS
  7
TEXTSTYLE_2
 71
2
 72
1
 10
11.455
 20
0.787
 30
0.0
 11
1.0
 21
0.0
 31
0.0
 44
0.9
  1
3
 40
0.1
 41
0.08
  0
MTEXT
  5
43F
100
AcDbEntity
  8
0
100
AcDbMText
 62
2
  6
CONTINUOUS
  7
TEXTSTYLE_2
 71
2
 72
1
 10
13.425
 20
0.787
 30
0.0
 11
1.0
 21
0.0
 31
0.0
 44
0.9
  1
2
 40
0.1
 41
0.08
  0
MTEXT
  5
440
100
AcDbEntity
  8
0
100
AcDbMText
 62
2
  6
CONTINUOUS
  7
TEXTSTYLE_2
 71
2
 72
1
 10
15.395
 20
0.787
 30
0.0
 11
1.0
 21
0.0
 31
0.0
 44
0.9
  1
1
 40
0.1
 41
0.08
  0
MTEXT
  5
441
100
AcDbEntity
  8
0
100
AcDbMText
 62
2
  6
CONTINUOUS
  7
TEXTSTYLE_2
 71
3
 72
1
 10
0.52
 20
4.3995
 30
0.0
 11
1.0
 21
0.0
 31
0.0
 44
0.9
  1
B
 40
0.1
 41
0.08
  0
MTEXT
  5
442
100
AcDbEntity
  8
0
100
AcDbMText
 62
2
  6
CONTINUOUS
  7
TEXTSTYLE_2
 71
3
 72
1
 10
0.52
 20
2.0995
 30
0.0
 11
1.0
 21
0.0
 31
0.0
 44
0.9
  1
A
 40
0.1
 41
0.08
  0
MTEXT
  5
443
100
AcDbEntity
  8
0
100
AcDbMText
 62
2
  6
CONTINUOUS
  7
TEXTSTYLE_2
 71
3
 72
1
 10
0.52
 20
8.9995
 30
0.0
 11
1.0
 21
0.0
 31
0.0
 44
0.9
  1
D
 40
0.1
 41
0.08
  0
MTEXT
  5
444
100
AcDbEntity
  8
0
100
AcDbMText
 62
2
  6
CONTINUOUS
  7
TEXTSTYLE_2
 71
3
 72
1
 10
0.52
 20
6.6995
 30
0.0
 11
1.0
 21
0.0
 31
0.0
 44
0.9
  1
C
 40
0.1
 41
0.08
  0
MTEXT
  5
445
100
AcDbEntity
  8
0
100
AcDbMText
 62
2
  6
CONTINUOUS
  7
TEXTSTYLE_2
 71
1
 72
1
 10
16.48
 20
8.9995
 30
0.0
 11
1.0
 21
0.0
 31
0.0
 44
0.9
  1
D
 40
0.1
 41
0.08
  0
MTEXT
  5
446
100
AcDbEntity
  8
0
100
AcDbMText
 62
2
  6
CONTINUOUS
  7
TEXTSTYLE_2
 71
1
 72
1
 10
16.48
 20
6.6995
 30
0.0
 11
1.0
 21
0.0
 31
0.0
 44
0.9
  1
C
 40
0.1
 41
0.08
  0
MTEXT
  5
447
100
AcDbEntity
  8
0
100
AcDbMText
 62
2
  6
CONTINUOUS
  7
TEXTSTYLE_2
 71
1
 72
1
 10
16.48
 20
4.3995
 30
0.0
 11
1.0
 21
0.0
 31
0.0
 44
0.9
  1
B
 40
0.1
 41
0.08
  0
MTEXT
  5
448
100
AcDbEntity
  8
0
100
AcDbMText
 62
2
  6
CONTINUOUS
  7
TEXTSTYLE_2
 71
1
 72
1
 10
16.48
 20
2.0995
 30
0.0
 11
1.0
 21
0.0
 31
0.0
 44
0.9
  1
A
 40
0.1
 41
0.08
  0
MTEXT
  5
449
100
AcDbEntity
  8
0
100
AcDbMText
 62
2
  6
CONTINUOUS
  7
STANDARD
 71
1
 72
1
 10
14.819264911
 20
1.0627941725
 30
0.0
 11
1.0
 21
0.0
 31
0.0
 44
0.9
  1
1 OF 1
 40
0.1
 41
0.6
  0
MTEXT
  5
44A
100
AcDbEntity
  8
0
100
AcDbMText
 62
7
  6
CONTINUOUS
  7
STANDARD
 71
1
 72
1
 10
13.8911999818
 20
1.3747321586
 30
0.0
 11
1.0
 21
0.0
 31
0.0
 44
0.9
  1
155342
 40
0.12
 41
0.72
  0
MTEXT
  5
44B
100
AcDbEntity
  8
0
100
AcDbMText
 62
2
  6
CONTINUOUS
  7
STANDARD
 71
1
 72
1
 10
12.644264911
 20
1.0627941725
 30
0.0
 11
1.0
 21
0.0
 31
0.0
 44
0.9
  1
1:1
 40
0.1
 41
0.3
  0
MTEXT
  5
44C
100
AcDbEntity
  8
0
100
AcDbMText
 62
2
  6
CONTINUOUS
  7
STANDARD
 71
1
 72
1
 10
1.0597007627
 20
1.6202922458
 30
0.0
 11
1.0
 21
0.0
 31
0.0
 44
0.9
  1
NOTES:\P1. ALL DIMENSIONS ARE MILLIMETERS [INCHES] UNLESS OTHERWISE NOTED.
 40
0.1
 41
6.6
  0
INSERT
  5
44D
100
AcDbEntity
  8
0
100
AcDbBlockReference
 62
2
  6
CONTINUOUS
  2
BANNER_LOGO_TITLEBLOCK_BL0
 10
12.9086867042
 20
2.5403783405
  0
DIMENSION
  5
44E
100
AcDbEntity
  8
DRIVEN_DIMS
100
AcDbDimension
 62
2
  6
CONTINUOUS
  2
*D0
 10
7.6584045177
 20
4.9724061694
 11
7.5334045177
 21
5.6955818148
 70
160
 71
2
 42
36.7373227862
  3
DIMSTYLE_1
100
AcDbAlignedDimension
 13
8.1222674956
 23
6.4187574602
 14
8.1174896963
 24
4.9724061694
 50
270.0
100
AcDbRotatedDimension
  0
DIMENSION
  5
44F
100
AcDbEntity
  8
SCHEME_DIMS
100
AcDbDimension
 62
2
  6
CONTINUOUS
  2
*D1
 10
7.2834045177
 20
6.4187574602
 11
7.1584045177
 21
4.8068665326
 70
160
 71
2
 42
58.8264
  3
DIMSTYLE_2
100
AcDbAlignedDimension
 13
8.2586751732
 23
4.1027574602
 14
8.1210345807
 24
6.4187574602
 50
90.0
100
AcDbRotatedDimension
  0
DIMENSION
  5
450
100
AcDbEntity
  8
SCHEME_DIMS
100
AcDbDimension
 62
2
  6
CONTINUOUS
  2
*D2
 10
8.8424035327
 20
6.9425418789
 11
8.4545701993
 21
6.8675418789
 70
160
 71
2
 42
16.7386
  1
%%c<>
  3
DIMSTYLE_2
100
AcDbAlignedDimension
 13
8.1834035327
 23
6.4812574602
 14
8.8424035327
 24
6.4682574602
100
AcDbRotatedDimension
  0
LINE
  5
451
100
AcDbEntity
  8
0
100
AcDbLine
 62
2
  6
CONTINUOUS
 10
16.38
 20
0.887
 11
12.03
 21
0.887
  0
LINE
  5
452
100
AcDbEntity
  8
0
100
AcDbLine
 62
2
  6
CONTINUOUS
 10
16.38
 20
0.887
 11
16.38
 21
2.807
  0
LINE
  5
453
100
AcDbEntity
  8
0
100
AcDbLine
 62
2
  6
CONTINUOUS
 10
16.38
 20
2.807
 11
12.03
 21
2.807
  0
LINE
  5
454
100
AcDbEntity
  8
0
100
AcDbLine
 62
2
  6
CONTINUOUS
 10
12.03
 20
0.887
 11
12.03
 21
2.807
  0
MTEXT
  5
455
100
AcDbEntity
  8
NOTES
100
AcDbMText
 62
7
  6
CONTINUOUS
  7
STANDARD
 71
2
 72
1
 10
14.205
 20
1.967
 30
0.0
 11
1.0
 21
0.0
 31
0.0
 44
0.9
  1
S186 E/R CABLE/PIGTAIL\PWEB CAD DRAWINGS 2D/3D
 40
0.1
 41
2.2
  0
MTEXT
  5
456
100
AcDbEntity
  8
NOTES
100
AcDbMText
 62
2
  6
CONTINUOUS
  7
STANDARD
 71
2
 72
1
 10
13.9679486094
 20
7.0746940629
 30
0.0
 11
1.0
 21
0.0
 31
0.0
 44
0.9
  1
ISOMETRIC VIEW\PSCALE  1:1
 40
0.1
 41
1.4
  0
LEADER
  5
457
100
AcDbEntity
  8
NOTES
100
AcDbLeader
 62
2
  6
CONTINUOUS
  3
STANDARD
 71
1
 72
0
 73
0
 75
0
 40
0.1
 41
1.0
 76
3
 10
8.8667838537
 20
5.8250741559
 30
0.0
 10
9.3674032968
 20
5.3105447026
 30
0.0
 10
9.6174032968
 20
5.3105447026
 30
0.0
340
458
1001
ACAD
1000
DSTYLE
1002
{
1070
77
1070
0
1002
}
  0
MTEXT
  5
458
102
{ACAD_REACTORS
330
457
102
}
100
AcDbEntity
  8
NOTES
100
AcDbMText
 62
2
  6
CONTINUOUS
  7
STANDARD
 71
1
 72
1
 10
9.6174032968
 20
5.3605447026
 30
0.0
 11
1.0
 21
0.0
 31
0.0
 44
0.9
  1
M18 X 1-6g
 40
0.1
 41
1.0
  0
LINE
  5
459
100
AcDbEntity
  8
0
100
AcDbLine
 62
2
  6
CONTINUOUS
 10
0.47
 20
5.586103
 11
0.47
 21
5.412897
  0
LINE
  5
45A
100
AcDbEntity
  8
0
100
AcDbLine
 62
2
  6
CONTINUOUS
 10
0.62
 20
10.112
 11
0.62
 21
0.887
  0
LINE
  5
45B
100
AcDbEntity
  8
0
100
AcDbLine
 62
2
  6
CONTINUOUS
 10
2.59
 20
0.887
 11
2.59
 21
0.637
  0
LINE
  5
45C
100
AcDbEntity
  8
0
100
AcDbLine
 62
2
  6
CONTINUOUS
 10
2.59
 20
10.112
 11
2.59
 21
10.362
  0
LINE
  5
45D
100
AcDbEntity
  8
0
100
AcDbLine
 62
2
  6
CONTINUOUS
 10
8.413397
 20
0.737
 11
8.586603
 21
0.737
  0
LINE
  5
45E
100
AcDbEntity
  8
0
100
AcDbLine
 62
7
  6
CONTINUOUS
 10
11.1389508475
 20
1.425992839
 11
11.7453418475
 21
1.495385839
  0
LINE
  5
45F
100
AcDbEntity
  8
0
100
AcDbLine
 62
2
  6
CONTINUOUS
 10
0.62
 20
0.887
 11
16.38
 21
0.887
  0
LINE
  5
460
100
AcDbEntity
  8
0
100
AcDbLine
 62
2
  6
CONTINUOUS
 10
12.03
 20
1.137
 11
16.38
 21
1.137
  0
LINE
  5
461
100
AcDbEntity
  8
0
100
AcDbLine
 62
7
  6
CONTINUOUS
 10
10.2121898475
 20
1.243294839
 11
10.4342808475
 21
1.243294839
  0
LINE
  5
462
100
AcDbEntity
  8
0
100
AcDbLine
 62
7
  6
CONTINUOUS
 10
10.4842808475
 20
1.243294839
 11
10.5842808475
 21
1.243294839
  0
LINE
  5
463
100
AcDbEntity
  8
0
100
AcDbLine
 62
7
  6
CONTINUOUS
 10
10.6342808475
 20
1.243294839
 11
10.8563718475
 21
1.243294839
  0
LINE
  5
464
100
AcDbEntity
  8
0
100
AcDbLine
 62
7
  6
CONTINUOUS
 10
11.0389508475
 20
1.243294839
 11
11.3171028475
 21
1.243294839
  0
LINE
  5
465
100
AcDbEntity
  8
0
100
AcDbLine
 62
7
  6
CONTINUOUS
 10
11.3671028475
 20
1.243294839
 11
11.5171888475
 21
1.243294839
  0
LINE
  5
466
100
AcDbEntity
  8
0
100
AcDbLine
 62
7
  6
CONTINUOUS
 10
11.5671888475
 20
1.243294839
 11
11.8453418475
 21
1.243294839
  0
LINE
  5
467
100
AcDbEntity
  8
0
100
AcDbLine
 62
7
  6
CONTINUOUS
 10
11.7453418475
 20
0.991203839
 11
11.1389508475
 21
1.060596839
  0
LINE
  5
468
100
AcDbEntity
  8
0
100
AcDbLine
 62
2
  6
CONTINUOUS
 10
4.56
 20
0.887
 11
4.56
 21
0.637
  0
LINE
  5
469
100
AcDbEntity
  8
0
100
AcDbLine
 62
2
  6
CONTINUOUS
 10
4.56
 20
10.112
 11
4.56
 21
10.362
  0
LINE
  5
46A
100
AcDbEntity
  8
0
100
AcDbLine
 62
2
  6
CONTINUOUS
 10
0.47
 20
5.412897
 11
0.62
 21
5.4995
  0
LINE
  5
46B
100
AcDbEntity
  8
0
100
AcDbLine
 62
2
  6
CONTINUOUS
 10
12.03
 20
1.507
 11
16.38
 21
1.507
  0
LINE
  5
46C
100
AcDbEntity
  8
0
100
AcDbLine
 62
2
  6
CONTINUOUS
 10
10.03
 20
1.907
 11
12.03
 21
1.907
  0
LINE
  5
46D
100
AcDbEntity
  8
0
100
AcDbLine
 62
2
  6
CONTINUOUS
 10
0.62
 20
5.4995
 11
0.47
 21
5.586103
  0
LINE
  5
46E
100
AcDbEntity
  8
0
100
AcDbLine
 62
2
  6
CONTINUOUS
 10
12.03
 20
2.267
 11
16.38
 21
2.267
  0
LINE
  5
46F
100
AcDbEntity
  8
0
100
AcDbLine
 62
2
  6
CONTINUOUS
 10
8.5
 20
10.112
 11
8.586603
 21
10.262
  0
LINE
  5
470
100
AcDbEntity
  8
0
100
AcDbLine
 62
2
  6
CONTINUOUS
 10
16.38
 20
2.807
 11
10.03
 21
2.807
  0
LINE
  5
471
100
AcDbEntity
  8
0
100
AcDbLine
 62
2
  6
CONTINUOUS
 10
0.62
 20
3.1995
 11
0.37
 21
3.1995
  0
LINE
  5
472
100
AcDbEntity
  8
0
100
AcDbLine
 62
2
  6
CONTINUOUS
 10
16.38
 20
3.1995
 11
16.63
 21
3.1995
  0
LINE
  5
473
100
AcDbEntity
  8
0
100
AcDbLine
 62
2
  6
CONTINUOUS
 10
8.586603
 20
0.737
 11
8.5
 21
0.887
  0
LINE
  5
474
100
AcDbEntity
  8
0
100
AcDbLine
 62
2
  6
CONTINUOUS
 10
6.53
 20
0.887
 11
6.53
 21
0.637
  0
LINE
  5
475
100
AcDbEntity
  8
0
100
AcDbLine
 62
2
  6
CONTINUOUS
 10
6.53
 20
10.112
 11
6.53
 21
10.362
  0
LINE
  5
476
100
AcDbEntity
  8
SKETCHED_ENT
100
AcDbLine
 62
7
  6
CONTINUOUS
 10
8.183403844
 20
4.9724061694
 11
8.1834107537
 21
4.9724061694
  0
LINE
  5
477
100
AcDbEntity
  8
0
100
AcDbLine
 62
2
  6
CONTINUOUS
 10
8.5
 20
0.887
 11
8.5
 21
0.637
  0
LINE
  5
478
100
AcDbEntity
  8
0
100
AcDbLine
 62
2
  6
CONTINUOUS
 10
8.5
 20
10.112
 11
8.5
 21
10.362
  0
LINE
  5
479
100
AcDbEntity
  8
0
100
AcDbLine
 62
2
  6
CONTINUOUS
 10
0.62
 20
5.4995
 11
0.37
 21
5.4995
  0
LINE
  5
47A
100
AcDbEntity
  8
0
100
AcDbLine
 62
2
  6
CONTINUOUS
 10
16.38
 20
5.4995
 11
16.63
 21
5.4995
  0
LINE
  5
47B
100
AcDbEntity
  8
0
100
AcDbLine
 62
2
  6
CONTINUOUS
 10
10.03
 20
2.807
 11
10.03
 21
0.887
  0
LINE
  5
47C
100
AcDbEntity
  8
0
100
AcDbLine
 62
2
  6
CONTINUOUS
 10
10.47
 20
0.887
 11
10.47
 21
0.637
  0
LINE
  5
47D
100
AcDbEntity
  8
0
100
AcDbLine
 62
2
  6
CONTINUOUS
 10
10.47
 20
10.112
 11
10.47
 21
10.362
  0
LINE
  5
47E
100
AcDbEntity
  8
0
100
AcDbLine
 62
7
  6
CONTINUOUS
 10
10.5342808475
 20
1.143294839
 11
10.5342808475
 21
0.921203839
  0
LINE
  5
47F
100
AcDbEntity
  8
0
100
AcDbLine
 62
7
  6
CONTINUOUS
 10
10.5342808475
 20
1.193294839
 11
10.5342808475
 21
1.293294839
  0
LINE
  5
480
100
AcDbEntity
  8
0
100
AcDbLine
 62
7
  6
CONTINUOUS
 10
10.5342808475
 20
1.343294839
 11
10.5342808475
 21
1.565385839
  0
LINE
  5
481
100
AcDbEntity
  8
0
100
AcDbLine
 62
2
  6
CONTINUOUS
 10
8.5
 20
0.887
 11
8.413397
 21
0.737
  0
LINE
  5
482
100
AcDbEntity
  8
0
100
AcDbLine
 62
2
  6
CONTINUOUS
 10
0.62
 20
7.7995
 11
0.37
 21
7.7995
  0
LINE
  5
483
100
AcDbEntity
  8
0
100
AcDbLine
 62
2
  6
CONTINUOUS
 10
16.38
 20
7.7995
 11
16.63
 21
7.7995
  0
LINE
  5
484
100
AcDbEntity
  8
0
100
AcDbLine
 62
2
  6
CONTINUOUS
 10
8.413397
 20
10.262
 11
8.5
 21
10.112
  0
LINE
  5
485
100
AcDbEntity
  8
0
100
AcDbLine
 62
7
  6
CONTINUOUS
 10
11.1389508475
 20
1.060596839
 11
11.1389508475
 21
1.425992839
  0
LINE
  5
486
100
AcDbEntity
  8
0
100
AcDbLine
 62
7
  6
CONTINUOUS
 10
11.7453418475
 20
1.495385839
 11
11.7453418475
 21
0.991203839
  0
LINE
  5
487
100
AcDbEntity
  8
0
100
AcDbLine
 62
1
  6
CONTINUOUS
 10
12.03
 20
2.807
 11
12.03
 21
0.887
  0
LINE
  5
488
100
AcDbEntity
  8
0
100
AcDbLine
 62
2
  6
CONTINUOUS
 10
12.44
 20
0.887
 11
12.44
 21
0.637
  0
LINE
  5
489
100
AcDbEntity
  8
0
100
AcDbLine
 62
2
  6
CONTINUOUS
 10
12.44
 20
10.112
 11
12.44
 21
10.362
  0
LINE
  5
48A
100
AcDbEntity
  8
0
100
AcDbLine
 62
2
  6
CONTINUOUS
 10
16.53
 20
5.586103
 11
16.38
 21
5.4995
  0
LINE
  5
48B
100
AcDbEntity
  8
0
100
AcDbLine
 62
2
  6
CONTINUOUS
 10
16.38
 20
5.4995
 11
16.53
 21
5.412897
  0
LINE
  5
48C
100
AcDbEntity
  8
0
100
AcDbLine
 62
2
  6
CONTINUOUS
 10
12.83
 20
1.507
 11
12.83
 21
1.137
  0
LINE
  5
48D
100
AcDbEntity
  8
0
100
AcDbLine
 62
2
  6
CONTINUOUS
 10
16.38
 20
10.112
 11
0.62
 21
10.112
  0
LINE
  5
48E
100
AcDbEntity
  8
0
100
AcDbLine
 62
2
  6
CONTINUOUS
 10
8.586603
 20
10.262
 11
8.413397
 21
10.262
  0
LINE
  5
48F
100
AcDbEntity
  8
0
100
AcDbLine
 62
2
  6
CONTINUOUS
 10
14.205
 20
1.137
 11
14.205
 21
0.887
  0
LINE
  5
490
100
AcDbEntity
  8
0
100
AcDbLine
 62
2
  6
CONTINUOUS
 10
14.41
 20
0.887
 11
14.41
 21
0.637
  0
LINE
  5
491
100
AcDbEntity
  8
0
100
AcDbLine
 62
2
  6
CONTINUOUS
 10
14.41
 20
10.112
 11
14.41
 21
10.362
  0
LINE
  5
492
100
AcDbEntity
  8
0
100
AcDbLine
 62
2
  6
CONTINUOUS
 10
15.58
 20
1.507
 11
15.58
 21
1.137
  0
LINE
  5
493
100
AcDbEntity
  8
0
100
AcDbLine
 62
2
  6
CONTINUOUS
 10
16.38
 20
0.887
 11
16.38
 21
10.112
  0
LINE
  5
494
100
AcDbEntity
  8
0
100
AcDbLine
 62
2
  6
CONTINUOUS
 10
16.53
 20
5.412897
 11
16.53
 21
5.586103
  0
LWPOLYLINE
  5
495
100
AcDbEntity
  8
0
100
AcDbPolyline
 62
7
  6
CONTINUOUS
 90
11
 70
0
 10
12.8134432021
 20
7.5085330154
 10
12.8350634
 20
7.4599666621
 10
12.8614748942
 20
7.4131729482
 10
12.8919749382
 20
7.369396113
 10
12.9257522039
 20
7.3298000538
 10
12.9619083425
 20
7.2954374337
 10
12.9994818691
 20
7.2672217274
 10
13.0374662273
 20
7.2459064787
 10
13.0748547845
 20
7.2320531079
 10
13.1106572391
 20
7.2260268623
 10
13.1439219214
 20
7.2279869857
  0
LWPOLYLINE
  5
496
100
AcDbEntity
  8
0
100
AcDbPolyline
 62
7
  6
CONTINUOUS
 90
7
 70
0
 10
12.8134432021
 20
7.5085330154
 10
12.7956567074
 20
7.5590018123
 10
12.783890845
 20
7.6089536678
 10
12.7784712918
 20
7.6572469347
 10
12.7796698817
 20
7.7025368415
 10
12.7874870973
 20
7.7430978798
 10
12.8017319053
 20
7.7779772574
  0
LWPOLYLINE
  5
497
100
AcDbEntity
  8
AXIS_COSMETIC_THREADS
100
AcDbPolyline
 62
7
  6
CONTINUOUS
 90
10
 70
0
 10
12.813694488
 20
7.5601162254
 10
12.8253307895
 20
7.5224910134
 10
12.8405024586
 20
7.4849415221
 10
12.8589270293
 20
7.4481668474
 10
12.8802614735
 20
7.4128516592
 10
12.9041085869
 20
7.3796534551
 10
12.9300243845
 20
7.3491903185
 10
12.9575263664
 20
7.3220294116
 10
12.9861025015
 20
7.2986764154
 10
13.0152207597
 20
7.2795661157
  0
LINE
  5
498
100
AcDbEntity
  8
AXIS_COSMETIC_THREADS
100
AcDbLine
 62
7
  6
CONTINUOUS
 10
12.813694488
 20
7.5601162254
 11
12.813694488
 21
7.7256971984
  0
LWPOLYLINE
  5
499
100
AcDbEntity
  8
0
100
AcDbPolyline
 62
7
  6
CONTINUOUS
 90
18
 70
0
 10
13.0152207597
 20
7.2669103282
 10
12.979160731
 20
7.2910908477
 10
12.9432876585
 20
7.3220839826
 10
12.9089638132
 20
7.3590751254
 10
12.8775121515
 20
7.4008015555
 10
12.8500340199
 20
7.4457603052
 10
12.8271771438
 20
7.4927518179
 10
12.8094257438
 20
7.5407393071
 10
12.7972847178
 20
7.5884398756
 10
12.7911331822
 20
7.6344169571
 10
12.7911298338
 20
7.6774029151
 10
12.7972745218
 20
7.7162811766
 10
12.8094093616
 20
7.7499694754
 10
12.8271558996
 20
7.7774682428
 10
12.8500067771
 20
7.7980744907
 10
12.8774756571
 20
7.8113117984
 10
12.9089204607
 20
7.8167312577
 10
12.9350357989
 20
7.8154205656
  0
LWPOLYLINE
  5
49A
100
AcDbEntity
  8
0
100
AcDbPolyline
 62
7
  6
CONTINUOUS
 90
9
 70
0
 10
12.9608347647
 20
7.2964577569
 10
12.9912281366
 20
7.2697142294
 10
13.0329615282
 20
7.2415729905
 10
13.0745491502
 20
7.22186172
 10
13.1147701279
 20
7.2111364498
 10
13.1524429999
 20
7.2096940629
 10
13.1864597895
 20
7.2175637315
 10
13.2158179589
 20
7.2345060753
 10
13.2396493211
 20
7.2600200658
  0
LINE
  5
49B
100
AcDbEntity
  8
0
100
AcDbLine
 62
7
  6
CONTINUOUS
 10
12.8110754082
 20
7.7951382658
 11
12.806765144
 21
7.7849544514
  0
LWPOLYLINE
  5
49C
100
AcDbEntity
  8
0
100
AcDbPolyline
 62
7
  6
CONTINUOUS
 90
4
 70
0
 10
12.8017319053
 20
7.7779772574
 10
12.8221619406
 20
7.8062978528
 10
12.8480613767
 20
7.8269635938
 10
12.8786369408
 20
7.8394490185
  0
LWPOLYLINE
  5
49D
100
AcDbEntity
  8
0
100
AcDbPolyline
 62
7
  6
CONTINUOUS
 90
11
 70
0
 10
13.0699067748
 20
7.7802028111
 10
13.1076853033
 20
7.7485604939
 10
13.1433977713
 20
7.7112981319
 10
13.1757365624
 20
7.6699929593
 10
13.2042348983
 20
7.6255249735
 10
13.2285081
 20
7.5785406687
 10
13.2478496208
 20
7.530288422
 10
13.2615699077
 20
7.4825910753
 10
13.269536423
 20
7.4358825223
 10
13.2713704029
 20
7.391544226
 10
13.2711222607
 20
7.3892751684
  0
LWPOLYLINE
  5
49E
100
AcDbEntity
  8
0
100
AcDbPolyline
 62
7
  6
CONTINUOUS
 90
13
 70
0
 10
13.072609259
 20
7.7751880429
 10
13.1100330338
 20
7.7382590117
 10
13.1447031947
 20
7.6963849323
 10
13.1758420288
 20
7.6505666104
 10
13.2027309976
 20
7.6018696702
 10
13.2247859834
 20
7.551233609
 10
13.2411051206
 20
7.5007910582
 10
13.2514775952
 20
7.4515658516
 10
13.2557450785
 20
7.4036690843
 10
13.2533438666
 20
7.3580816896
 10
13.2445118737
 20
7.3189003942
 10
13.2308880931
 20
7.2879649654
 10
13.2137587218
 20
7.2643179812
  0
LWPOLYLINE
  5
49F
100
AcDbEntity
  8
0
100
AcDbPolyline
 62
7
  6
CONTINUOUS
 90
5
 70
0
 10
13.2799311307
 20
7.6741866821
 10
13.2468823193
 20
7.7246457635
 10
13.2095631711
 20
7.7707727586
 10
13.1690346905
 20
7.8112168728
 10
13.1264509927
 20
7.8447921855
  0
LWPOLYLINE
  5
4A0
100
AcDbEntity
  8
0
100
AcDbPolyline
 62
7
  6
CONTINUOUS
 90
7
 70
0
 10
13.2686850361
 20
7.5505664087
 10
13.2450775262
 20
7.604799063
 10
13.2157235007
 20
7.6572847433
 10
13.1814479846
 20
7.7064973797
 10
13.1432179351
 20
7.7510052945
 10
13.1021143548
 20
7.78951249
 10
13.0593011165
 20
7.8208960247
  0
LWPOLYLINE
  5
4A1
100
AcDbEntity
  8
0
100
AcDbPolyline
 62
7
  6
CONTINUOUS
 90
5
 70
0
 10
13.2655980178
 20
7.5724309716
 10
13.2833448762
 20
7.5210323235
 10
13.2946358485
 20
7.4703428973
 10
13.2990394717
 20
7.4215276035
 10
13.2983094705
 20
7.4099438573
  0
LWPOLYLINE
  5
4A2
100
AcDbEntity
  8
0
100
AcDbPolyline
 62
7
  6
CONTINUOUS
 90
8
 70
0
 10
13.315355947
 20
7.5044424971
 10
13.2990473037
 20
7.5589054315
 10
13.2762165602
 20
7.6134185418
 10
13.2475043768
 20
7.6663877312
 10
13.213722049
 20
7.7162636962
 10
13.1758279694
 20
7.7615868752
 10
13.1348998227
 20
7.801029794
 10
13.0921033194
 20
7.8334355794
  0
LINE
  5
4A3
100
AcDbEntity
  8
AXIS_COSMETIC_THREADS
100
AcDbLine
 62
7
  6
CONTINUOUS
 10
13.2167470314
 20
7.4929999683
 11
13.2167470314
 21
7.3274189954
  0
LINE
  5
4A4
100
AcDbEntity
  8
0
100
AcDbLine
 62
7
  6
CONTINUOUS
 10
13.0315778297
 20
7.8050393457
 11
13.0699067748
 21
7.7802028111
  0
LWPOLYLINE
  5
4A5
100
AcDbEntity
  8
0
100
AcDbPolyline
 62
7
  6
CONTINUOUS
 90
7
 70
0
 10
13.059697453
 20
7.8206054968
 10
13.1003571599
 20
7.7939745009
 10
13.1407907152
 20
7.7592112619
 10
13.1785943136
 20
7.7182069014
 10
13.2123259947
 20
7.6728100114
 10
13.2416928471
 20
7.6235999998
 10
13.2655980178
 20
7.5724309716
  0
LWPOLYLINE
  5
4A6
100
AcDbEntity
  8
AXIS_COSMETIC_THREADS
100
AcDbPolyline
 62
7
  6
CONTINUOUS
 90
10
 70
0
 10
13.0152207597
 20
7.7735500781
 10
13.0443390179
 20
7.7544397783
 10
13.0729151529
 20
7.7310867822
 10
13.1004171349
 20
7.7039258752
 10
13.1263329325
 20
7.6734627386
 10
13.1501800459
 20
7.6402645345
 10
13.1715144901
 20
7.6049493464
 10
13.1899390608
 20
7.5681746716
 10
13.2051107298
 20
7.5306251804
 10
13.2167470314
 20
7.4929999683
  0
LWPOLYLINE
  5
4A7
100
AcDbEntity
  8
0
100
AcDbPolyline
 62
7
  6
CONTINUOUS
 90
13
 70
0
 10
13.0152207597
 20
7.7862058655
 10
13.0512807883
 20
7.762025346
 10
13.0871538608
 20
7.7310322112
 10
13.1214777061
 20
7.6940410683
 10
13.1529293679
 20
7.6523146383
 10
13.1804074995
 20
7.6073558885
 10
13.2032643756
 20
7.5603643758
 10
13.2210157755
 20
7.5123768866
 10
13.2331568016
 20
7.4646763182
 10
13.2393083372
 20
7.4186992366
 10
13.2393116856
 20
7.3757132787
 10
13.2331669976
 20
7.3368350171
 10
13.225268565
 20
7.3126220759
  0
LINE
  5
4A8
100
AcDbEntity
  8
0
100
AcDbLine
 62
7
  6
CONTINUOUS
 10
13.0319675728
 20
7.8042519029
 11
13.072609259
 21
7.7751880429
  0
LWPOLYLINE
  5
4A9
100
AcDbEntity
  8
0
100
AcDbPolyline
 62
7
  6
CONTINUOUS
 90
6
 70
0
 10
13.4015473051
 20
7.643065896
 10
13.3764315951
 20
7.6971866286
 10
13.3457191485
 20
7.7491761219
 10
13.3102792932
 20
7.7975134955
 10
13.271118511
 20
7.8407838263
 10
13.2293512366
 20
7.8777191982
  0
LWPOLYLINE
  5
4AA
100
AcDbEntity
  8
0
100
AcDbPolyline
 62
7
  6
CONTINUOUS
 90
4
 70
0
 10
13.3112761841
 20
7.5357030811
 10
13.322351543
 20
7.4853838521
 10
13.3266232902
 20
7.4370324333
 10
13.3258354553
 20
7.424734421
  0
LWPOLYLINE
  5
4AB
100
AcDbEntity
  8
0
100
AcDbPolyline
 62
7
  6
CONTINUOUS
 90
5
 70
0
 10
13.3530787718
 20
7.4595292714
 10
13.3448626367
 20
7.5119507141
 10
13.3296203774
 20
7.5662610259
 10
13.3077724937
 20
7.6208719937
 10
13.2799311307
 20
7.6741866821
  0
LWPOLYLINE
  5
4AC
100
AcDbEntity
  8
0
100
AcDbPolyline
 62
7
  6
CONTINUOUS
 90
3
 70
0
 10
13.353048316
 20
7.475568458
 10
13.3537707737
 20
7.4318178101
 10
13.3536468316
 20
7.4309329023
  0
LWPOLYLINE
  5
4AD
100
AcDbEntity
  8
0
100
AcDbPolyline
 62
7
  6
CONTINUOUS
 90
10
 70
0
 10
13.3811228515
 20
7.4191893439
 10
13.3812887468
 20
7.4675201497
 10
13.3741968983
 20
7.5195052859
 10
13.3600313424
 20
7.5736239986
 10
13.3391813411
 20
7.6282936337
 10
13.3122300886
 20
7.6819155535
 10
13.2799377913
 20
7.7329215169
 10
13.2432196125
 20
7.7798191784
 10
13.2031191211
 20
7.8212353842
 10
13.1607780154
 20
7.8559560111
  0
LWPOLYLINE
  5
4AE
100
AcDbEntity
  8
0
100
AcDbPolyline
 62
7
  6
CONTINUOUS
 90
3
 70
0
 10
12.8578564301
 20
7.7845170404
 10
12.870932661
 20
7.7963100206
 10
12.8769085443
 20
7.8000418155
  0
LINE
  5
4AF
100
AcDbEntity
  8
0
100
AcDbLine
 62
7
  6
CONTINUOUS
 10
13.1624725096
 20
7.2610378835
 11
13.1566831885
 21
7.260039477
  0
LINE
  5
4B0
100
AcDbEntity
  8
0
100
AcDbLine
 62
7
  6
CONTINUOUS
 10
13.0225586953
 20
7.8091851061
 11
13.0315778297
 21
7.8050393457
  0
LWPOLYLINE
  5
4B1
100
AcDbEntity
  8
AXIS_COSMETIC_THREADS
100
AcDbPolyline
 62
7
  6
CONTINUOUS
 90
5
 70
0
 10
13.0152207597
 20
7.7735500781
 10
12.9861025015
 20
7.7880618861
 10
12.9575263664
 20
7.797705022
 10
12.9300243845
 20
7.80229995
 10
12.9041085869
 20
7.8017611219
  0
LINE
  5
4B2
100
AcDbEntity
  8
0
100
AcDbLine
 62
7
  6
CONTINUOUS
 10
12.990935575
 20
7.8257655409
 11
13.0319675728
 21
7.8042519029
  0
LWPOLYLINE
  5
4B3
100
AcDbEntity
  8
0
100
AcDbPolyline
 62
7
  6
CONTINUOUS
 90
3
 70
0
 10
13.0593011165
 20
7.8208960247
 10
13.0159913984
 20
7.8442383976
 10
12.9734126965
 20
7.8588540083
  0
LWPOLYLINE
  5
4B4
100
AcDbEntity
  8
0
100
AcDbPolyline
 62
7
  6
CONTINUOUS
 90
3
 70
0
 10
13.0921033194
 20
7.8334355794
 10
13.0486583756
 20
7.8578515224
 10
13.0058037202
 20
7.8735567193
  0
LWPOLYLINE
  5
4B5
100
AcDbEntity
  8
0
100
AcDbPolyline
 62
7
  6
CONTINUOUS
 90
4
 70
0
 10
13.1264509927
 20
7.8447921855
 10
13.0830258199
 20
7.870512057
 10
13.0399973273
 20
7.8876177534
 10
12.9985921616
 20
7.8956004589
  0
LWPOLYLINE
  5
4B6
100
AcDbEntity
  8
0
100
AcDbPolyline
 62
7
  6
CONTINUOUS
 90
4
 70
0
 10
13.1607780154
 20
7.8559560111
 10
13.1174029991
 20
7.8829611911
 10
13.0742307725
 20
7.9014549001
 10
13.0324921522
 20
7.9108880528
  0
LWPOLYLINE
  5
4B7
100
AcDbEntity
  8
0
100
AcDbPolyline
 62
7
  6
CONTINUOUS
 90
10
 70
0
 10
13.1143089786
 20
7.8528039117
 10
13.1531757379
 20
7.8275680985
 10
13.1909908223
 20
7.7957854378
 10
13.2268388287
 20
7.7582400748
 10
13.2596609984
 20
7.7160672663
 10
13.2889298951
 20
7.6698603685
 10
13.3136959966
 20
7.6208651064
 10
13.3329105914
 20
7.5711184365
 10
13.346030436
 20
7.5225146203
 10
13.353048316
 20
7.475568458
  0
LWPOLYLINE
  5
4B8
100
AcDbEntity
  8
0
100
AcDbPolyline
 62
7
  6
CONTINUOUS
 90
11
 70
0
 10
13.1418860283
 20
7.8687254337
 10
13.1819599196
 20
7.8425882148
 10
13.2212770312
 20
7.8091368225
 10
13.2581384148
 20
7.7697909854
 10
13.2913051365
 20
7.7261266429
 10
13.3207057518
 20
7.678258974
 10
13.3451789965
 20
7.6277933455
 10
13.3636787813
 20
7.5769398407
 10
13.3757878516
 20
7.5273578316
 10
13.381442343
 20
7.4792846563
 10
13.3811578319
 20
7.4684797903
  0
LWPOLYLINE
  5
4B9
100
AcDbEntity
  8
0
100
AcDbPolyline
 62
7
  6
CONTINUOUS
 90
8
 70
0
 10
13.0913600938
 20
7.8338532702
 10
13.127738884
 20
7.8100434645
 10
13.1680327392
 20
7.7754571141
 10
13.2057816695
 20
7.7345993606
 10
13.2395542773
 20
7.6892536406
 10
13.2691725166
 20
7.6397050271
 10
13.2934302837
 20
7.5877221657
 10
13.3112761841
 20
7.5357030811
  0
LINE
  5
4BA
100
AcDbEntity
  8
0
100
AcDbLine
 62
7
  6
CONTINUOUS
 10
13.4035094891
 20
7.6519739231
 11
13.4212379753
 21
7.6006123567
  0
LWPOLYLINE
  5
4BB
100
AcDbEntity
  8
0
100
AcDbPolyline
 62
7
  6
CONTINUOUS
 90
7
 70
0
 10
13.4502728269
 20
7.5958185526
 10
13.4324994536
 20
7.6504287689
 10
13.4083278688
 20
7.7047407278
 10
13.378437634
 20
7.7571661685
 10
13.3436742226
 20
7.806171563
 10
13.3050244911
 20
7.8503226069
 10
13.2635880476
 20
7.8883258327
  0
LWPOLYLINE
  5
4BC
100
AcDbEntity
  8
0
100
AcDbPolyline
 62
7
  6
CONTINUOUS
 90
4
 70
0
 10
13.4212379753
 20
7.6006123567
 10
13.4325196206
 20
7.5499598134
 10
13.4369240235
 20
7.5011762127
 10
13.4363666033
 20
7.49230236
  0
LWPOLYLINE
  5
4BD
100
AcDbEntity
  8
0
100
AcDbPolyline
 62
7
  6
CONTINUOUS
 90
4
 70
0
 10
13.4491581323
 20
7.6153224036
 10
13.460237488
 20
7.5649870038
 10
13.4645065097
 20
7.5167686413
 10
13.4638249396
 20
7.5060382519
  0
LINE
  5
4BE
100
AcDbEntity
  8
0
100
AcDbLine
 62
7
  6
CONTINUOUS
 10
13.4923457535
 20
7.5004364379
 11
13.4897881661
 21
7.5503066432
  0
LINE
  5
4BF
100
AcDbEntity
  8
0
100
AcDbLine
 62
7
  6
CONTINUOUS
 10
13.4906430217
 20
7.5584146856
 11
13.491822886
 21
7.5146391031
  0
LINE
  5
4C0
100
AcDbEntity
  8
0
100
AcDbLine
 62
7
  6
CONTINUOUS
 10
13.3737257411
 20
7.3759276012
 11
13.3811228515
 21
7.4191893439
  0
LWPOLYLINE
  5
4C1
100
AcDbEntity
  8
0
100
AcDbPolyline
 62
7
  6
CONTINUOUS
 90
11
 70
0
 10
13.2572450776
 20
7.2933574749
 10
13.2680762599
 20
7.3335444534
 10
13.2718089841
 20
7.3794096162
 10
13.2683140805
 20
7.4296178238
 10
13.2576708181
 20
7.4827086868
 10
13.2401646187
 20
7.5371386825
 10
13.2162788258
 20
7.5913256685
 10
13.1866807653
 20
7.6436945107
 10
13.1522025002
 20
7.6927225089
 10
13.1138168346
 20
7.73698331
 10
13.072609259
 20
7.7751880429
  0
LWPOLYLINE
  5
4C2
100
AcDbEntity
  8
0
100
AcDbPolyline
 62
7
  6
CONTINUOUS
 90
6
 70
0
 10
13.2841623063
 20
7.3075982198
 10
13.2953113834
 20
7.3474963814
 10
13.2993728468
 20
7.3931300965
 10
13.2962080459
 20
7.4431709004
 10
13.28588673
 20
7.4961632315
 10
13.2686850361
 20
7.5505664087
  0
LWPOLYLINE
  5
4C3
100
AcDbEntity
  8
0
100
AcDbPolyline
 62
7
  6
CONTINUOUS
 90
6
 70
0
 10
14.462089831
 20
8.737180471
 10
14.4866628392
 20
8.7476078523
 10
14.5140011959
 20
8.7521867246
 10
14.5435556754
 20
8.7508245504
 10
14.5747339948
 20
8.7435486441
 10
14.6069113501
 20
8.7305048322
  0
LWPOLYLINE
  5
4C4
100
AcDbEntity
  8
0
100
AcDbPolyline
 62
7
  6
CONTINUOUS
 90
4
 70
0
 10
13.350985876
 20
7.3135549327
 10
13.3571616847
 20
7.3152959009
 10
13.3857328927
 20
7.3337763761
 10
13.4086112351
 20
7.3607693349
  0
LWPOLYLINE
  5
4C5
100
AcDbEntity
  8
0
100
AcDbPolyline
 62
7
  6
CONTINUOUS
 90
4
 70
0
 10
13.5435841047
 20
7.4245364988
 10
13.5472110299
 20
7.4254518492
 10
13.5762827518
 20
7.4430884579
 10
13.5997359036
 20
7.4693007902
  0
LWPOLYLINE
  5
4C6
100
AcDbEntity
  8
0
100
AcDbPolyline
 62
7
  6
CONTINUOUS
 90
4
 70
0
 10
13.3778505997
 20
7.3286779385
 10
13.3798063677
 20
7.3291351853
 10
13.4091952646
 20
7.3462275235
 10
13.4330140707
 20
7.3719349912
  0
LWPOLYLINE
  5
4C7
100
AcDbEntity
  8
0
100
AcDbPolyline
 62
7
  6
CONTINUOUS
 90
4
 70
0
 10
13.1950796648
 20
7.8669304919
 10
13.151785155
 20
7.895201445
 10
13.1084993998
 20
7.9150696915
 10
13.0664565097
 20
7.9259462675
  0
LWPOLYLINE
  5
4C8
100
AcDbEntity
  8
0
100
AcDbPolyline
 62
7
  6
CONTINUOUS
 90
8
 70
0
 10
13.2246171772
 20
7.9164899997
 10
13.2655283504
 20
7.8897233061
 10
13.3057310295
 20
7.8552454357
 10
13.3434750306
 20
7.8144384595
 10
13.3773031883
 20
7.7690650086
 10
13.406978247
 20
7.7194623617
 10
13.4312821948
 20
7.6674122428
 10
13.4491581323
 20
7.6153224036
  0
LWPOLYLINE
  5
4C9
100
AcDbEntity
  8
0
100
AcDbPolyline
 62
7
  6
CONTINUOUS
 90
7
 70
0
 10
13.1970401276
 20
7.9005684777
 10
13.2382142477
 20
7.8736033795
 10
13.2786219822
 20
7.8388711731
 10
13.3164057922
 20
7.7979037448
 10
13.3501306193
 20
7.7525384272
 10
13.3795375281
 20
7.7032840753
 10
13.4035094891
 20
7.6519739231
  0
LWPOLYLINE
  5
4CA
100
AcDbEntity
  8
0
100
AcDbPolyline
 62
7
  6
CONTINUOUS
 90
11
 70
0
 10
13.1694630779
 20
7.8846469557
 10
13.2106900454
 20
7.8576419404
 10
13.2511462721
 20
7.8228514519
 10
13.2889667157
 20
7.7818152953
 10
13.3226754541
 20
7.7364342488
 10
13.3518278999
 20
7.6876122551
 10
13.3758183709
 20
7.636333485
 10
13.3937051454
 20
7.5845353901
 10
13.4049785031
 20
7.5338113575
 10
13.4093515188
 20
7.4849810639
 10
13.4089543115
 20
7.4787649573
  0
LWPOLYLINE
  5
4CB
100
AcDbEntity
  8
0
100
AcDbPolyline
 62
7
  6
CONTINUOUS
 90
4
 70
0
 10
13.2293512366
 20
7.8777191982
 10
13.1861675257
 20
7.907235488
 10
13.1427985282
 20
7.9284638183
 10
13.1004807697
 20
7.9407757657
  0
LINE
  5
4CC
100
AcDbEntity
  8
0
100
AcDbLine
 62
7
  6
CONTINUOUS
 10
13.2635880476
 20
7.8883258327
 11
13.2205453493
 21
7.9190661361
  0
LWPOLYLINE
  5
4CD
100
AcDbEntity
  8
0
100
AcDbPolyline
 62
7
  6
CONTINUOUS
 90
5
 70
0
 10
13.4758616533
 20
7.780655796
 10
13.4432708721
 20
7.8314522803
 10
13.4063146547
 20
7.878052611
 10
13.3660434761
 20
7.9190922605
 10
13.3236039866
 20
7.9533680306
  0
LWPOLYLINE
  5
4CE
100
AcDbEntity
  8
0
100
AcDbPolyline
 62
7
  6
CONTINUOUS
 90
7
 70
0
 10
13.4606041017
 20
7.8159767835
 10
13.4897754759
 20
7.7671025129
 10
13.5136933558
 20
7.7159663632
 10
13.5315693734
 20
7.6642169173
 10
13.5428544581
 20
7.6134777424
 10
13.5472361
 20
7.5646297676
 10
13.5465915782
 20
7.5545240645
  0
LWPOLYLINE
  5
4CF
100
AcDbEntity
  8
0
100
AcDbPolyline
 62
7
  6
CONTINUOUS
 90
6
 70
0
 10
13.5344811414
 20
7.7345546795
 10
13.5080811682
 20
7.7883448661
 10
13.4762606443
 20
7.8396659725
 10
13.4399210457
 20
7.88701651
 10
13.4000949578
 20
7.929010186
 10
13.3579161176
 20
7.9644161232
  0
LWPOLYLINE
  5
4D0
100
AcDbEntity
  8
0
100
AcDbPolyline
 62
7
  6
CONTINUOUS
 90
6
 70
0
 10
13.565647818
 20
7.7419379451
 10
13.5401676572
 20
7.7959733423
 10
13.5091395138
 20
7.8477822228
 10
13.4734418747
 20
7.8958489463
 10
13.4340887005
 20
7.9387664416
 10
13.3922000079
 20
7.9752770296
  0
LWPOLYLINE
  5
4D1
100
AcDbEntity
  8
0
100
AcDbPolyline
 62
7
  6
CONTINUOUS
 90
6
 70
0
 10
13.5173586602
 20
7.7830124809
 10
13.5413994216
 20
7.7315699805
 10
13.5591363205
 20
7.6801739486
 10
13.5704047845
 20
7.629567955
 10
13.5748085711
 20
7.5808247465
 10
13.5744712503
 20
7.5754361035
  0
LINE
  5
4D2
100
AcDbEntity
  8
0
100
AcDbLine
 62
7
  6
CONTINUOUS
 10
13.5848624695
 20
7.687256268
 11
13.565647818
 21
7.7419379451
  0
LWPOLYLINE
  5
4D3
100
AcDbEntity
  8
0
100
AcDbPolyline
 62
7
  6
CONTINUOUS
 90
9
 70
0
 10
13.4897881661
 20
7.5503066432
 10
13.480017188
 20
7.6032723388
 10
13.4632945836
 20
7.6577843223
 10
13.4400838011
 20
7.7122485299
 10
13.4110365267
 20
7.7650722838
 10
13.3769737778
 20
7.8147104997
 10
13.3388620826
 20
7.8597105138
 10
13.2977854394
 20
7.8987542278
 10
13.2549138671
 20
7.9306963502
  0
LINE
  5
4D4
100
AcDbEntity
  8
0
100
AcDbLine
 62
7
  6
CONTINUOUS
 10
13.6025495716
 20
7.5823223825
 11
13.5972758632
 21
7.6335272982
  0
LWPOLYLINE
  5
4D5
100
AcDbEntity
  8
0
100
AcDbPolyline
 62
7
  6
CONTINUOUS
 90
3
 70
0
 10
13.5985105846
 20
7.6420581268
 10
13.6023503128
 20
7.5985084068
 10
13.6018834125
 20
7.588790434
  0
LWPOLYLINE
  5
4D6
100
AcDbEntity
  8
0
100
AcDbPolyline
 62
7
  6
CONTINUOUS
 90
10
 70
0
 10
13.5196640323
 20
7.5089313314
 10
13.5182452532
 20
7.5581822601
 10
13.5095909491
 20
7.6107640724
 10
13.4939304871
 20
7.6651387032
 10
13.4716964999
 20
7.7197160736
 10
13.4435123347
 20
7.7729002227
 10
13.4101739677
 20
7.8231356103
 10
13.3726269112
 20
7.8689522472
 10
13.3319387819
 20
7.9090083426
 10
13.2892683269
 20
7.9421292336
  0
LWPOLYLINE
  5
4D7
100
AcDbEntity
  8
0
100
AcDbPolyline
 62
7
  6
CONTINUOUS
 90
11
 70
0
 10
13.3995036389
 20
7.3856233593
 10
13.4080161136
 20
7.4279729778
 10
13.4093206094
 20
7.4756007089
 10
13.4033575639
 20
7.5271122178
 10
13.3902782643
 20
7.5810004915
 10
13.3704404576
 20
7.6356895617
 10
13.3443979718
 20
7.6895802267
 10
13.3128846476
 20
7.7410964485
 10
13.2767930486
 20
7.7887310777
 10
13.2371485649
 20
7.8310895794
 10
13.1950796648
 20
7.8669304919
  0
LWPOLYLINE
  5
4D8
100
AcDbEntity
  8
0
100
AcDbPolyline
 62
7
  6
CONTINUOUS
 90
5
 70
0
 10
13.3094128311
 20
7.3179641439
 10
13.321653718
 20
7.3569980229
 10
13.3268034994
 20
7.4019900569
 10
13.3246910518
 20
7.4516223793
 10
13.315355947
 20
7.5044424971
  0
LWPOLYLINE
  5
4D9
100
AcDbEntity
  8
0
100
AcDbPolyline
 62
7
  6
CONTINUOUS
 90
4
 70
0
 10
13.3344547283
 20
7.3283942278
 10
13.3477761815
 20
7.366387353
 10
13.354052128
 20
7.4105301099
 10
13.3530787718
 20
7.4595292714
  0
LWPOLYLINE
  5
4DA
100
AcDbEntity
  8
0
100
AcDbPolyline
 62
7
  6
CONTINUOUS
 90
9
 70
0
 10
13.225268565
 20
7.3126220759
 10
13.2210321578
 20
7.3031467184
 10
13.2032856198
 20
7.275647951
 10
13.1804347423
 20
7.255041703
 10
13.1529658623
 20
7.2418043954
 10
13.1215210587
 20
7.2363849361
 10
13.0871933087
 20
7.2390172368
 10
13.0513033953
 20
7.2494449905
 10
13.0152207597
 20
7.2669103282
  0
LWPOLYLINE
  5
4DB
100
AcDbEntity
  8
AXIS_COSMETIC_THREADS
100
AcDbPolyline
 62
7
  6
CONTINUOUS
 90
3
 70
0
 10
13.2167470314
 20
7.3274189954
 10
13.2051107298
 20
7.303229923
 10
13.1899390608
 20
7.2831987698
  0
LINE
  5
4DC
100
AcDbEntity
  8
0
100
AcDbLine
 62
7
  6
CONTINUOUS
 10
13.8079831893
 20
8.3930887137
 11
13.7855491346
 21
8.3782822936
  0
LWPOLYLINE
  5
4DD
100
AcDbEntity
  8
AXIS_COSMETIC_THREADS
100
AcDbPolyline
 62
7
  6
CONTINUOUS
 90
5
 70
0
 10
12.8639660869
 20
7.7885264981
 10
12.8589270293
 20
7.7854177183
 10
12.8405024586
 20
7.769917424
 10
12.8253307895
 20
7.7498862708
 10
12.813694488
 20
7.7256971984
  0
LINE
  5
4DE
100
AcDbEntity
  8
AXIS
100
AcDbLine
 62
7
  6
CONTINUOUS
 10
13.9316195232
 20
8.4361112711
 11
14.3749873703
 21
8.692088289
  0
LINE
  5
4DF
100
AcDbEntity
  8
0
100
AcDbLine
 62
7
  6
CONTINUOUS
 10
14.4620884166
 20
8.7371796567
 11
14.3997158679
 21
8.7011690638
  0
LWPOLYLINE
  5
4E0
100
AcDbEntity
  8
0
100
AcDbPolyline
 62
7
  6
CONTINUOUS
 90
3
 70
0
 10
13.8094203518
 20
8.3867701678
 10
13.7753897746
 20
8.3746699362
 10
13.7583806179
 20
8.3623134741
  0
LWPOLYLINE
  5
4E1
100
AcDbEntity
  8
0
100
AcDbPolyline
 62
7
  6
CONTINUOUS
 90
4
 70
0
 10
13.7093268806
 20
7.5203729127
 10
13.7145978592
 20
7.5218026525
 10
13.7433491603
 20
7.5399815651
 10
13.7664340237
 20
7.566695862
  0
LWPOLYLINE
  5
4E2
100
AcDbEntity
  8
0
100
AcDbPolyline
 62
7
  6
CONTINUOUS
 90
4
 70
0
 10
13.7362048254
 20
7.5354643351
 10
13.7372171058
 20
7.5356906325
 10
13.7667814661
 20
7.5524786029
 10
13.7908030358
 20
7.5779032721
  0
LWPOLYLINE
  5
4E3
100
AcDbEntity
  8
0
100
AcDbPolyline
 62
7
  6
CONTINUOUS
 90
3
 70
0
 10
13.2205453493
 20
7.9190661361
 10
13.1771234552
 20
7.9416391281
 10
13.1345604254
 20
7.9553773731
  0
LWPOLYLINE
  5
4E4
100
AcDbEntity
  8
0
100
AcDbPolyline
 62
7
  6
CONTINUOUS
 90
3
 70
0
 10
13.2549138671
 20
7.9306963502
 10
13.2114694595
 20
7.9545976242
 10
13.1686909301
 20
7.9697520777
  0
LWPOLYLINE
  5
4E5
100
AcDbEntity
  8
0
100
AcDbPolyline
 62
7
  6
CONTINUOUS
 90
4
 70
0
 10
13.2892683269
 20
7.9421292336
 10
13.2458318052
 20
7.9673414644
 10
13.2028677014
 20
7.9839010289
 10
13.1616007941
 20
7.9913149559
  0
LWPOLYLINE
  5
4E6
100
AcDbEntity
  8
0
100
AcDbPolyline
 62
7
  6
CONTINUOUS
 90
4
 70
0
 10
13.3236039866
 20
7.9533680306
 10
13.2802057445
 20
7.9798729595
 10
13.2370861236
 20
7.9978255369
 10
13.1954744145
 20
8.0066923768
  0
LWPOLYLINE
  5
4E7
100
AcDbEntity
  8
0
100
AcDbPolyline
 62
7
  6
CONTINUOUS
 90
4
 70
0
 10
13.3579161176
 20
7.9644161232
 10
13.3145865214
 20
7.9921945713
 10
13.2713415515
 20
8.0115270717
 10
13.2294141351
 20
8.0218402037
  0
LWPOLYLINE
  5
4E8
100
AcDbEntity
  8
0
100
AcDbPolyline
 62
7
  6
CONTINUOUS
 90
10
 70
0
 10
13.2554203176
 20
7.9303190115
 10
13.2907855079
 20
7.9073804052
 10
13.3283939691
 20
7.8758461071
 10
13.3639203335
 20
7.8387787837
 10
13.3965488268
 20
7.7970886005
 10
13.425722768
 20
7.7513822241
 10
13.4505109853
 20
7.7028620744
 10
13.4698750754
 20
7.6535069695
 10
13.4832532603
 20
7.6052082877
 10
13.4906430217
 20
7.5584146856
  0
LWPOLYLINE
  5
4E9
100
AcDbEntity
  8
0
100
AcDbPolyline
 62
7
  6
CONTINUOUS
 90
11
 70
0
 10
13.2797712766
 20
7.9483330437
 10
13.320803253
 20
7.9214752416
 10
13.3610248425
 20
7.8869534527
 10
13.3986135244
 20
7.846300318
 10
13.4322635878
 20
7.8011972121
 10
13.4618635868
 20
7.751810656
 10
13.4861450866
 20
7.699973975
 10
13.5040587077
 20
7.6480618015
 10
13.5152815056
 20
7.5975303152
 10
13.5196561661
 20
7.548882186
 10
13.5188725738
 20
7.5364057062
  0
LWPOLYLINE
  5
4EA
100
AcDbEntity
  8
0
100
AcDbPolyline
 62
7
  6
CONTINUOUS
 90
6
 70
0
 10
13.3349253759
 20
7.9801760877
 10
13.3760642098
 20
7.9532376344
 10
13.4164395861
 20
7.9185442986
 10
13.4541985556
 20
7.877623171
 10
13.4879131163
 20
7.8322999014
 10
13.5173586602
 20
7.7830124809
  0
LWPOLYLINE
  5
4EB
100
AcDbEntity
  8
0
100
AcDbPolyline
 62
7
  6
CONTINUOUS
 90
5
 70
0
 10
13.3073483262
 20
7.9642545657
 10
13.3485875986
 20
7.9372402541
 10
13.3890550935
 20
7.9024362108
 10
13.4268843402
 20
7.8613837148
 10
13.4606041017
 20
7.8159767835
  0
LWPOLYLINE
  5
4EC
100
AcDbEntity
  8
0
100
AcDbPolyline
 62
7
  6
CONTINUOUS
 90
4
 70
0
 10
13.5402103165
 20
7.9131399025
 10
13.5018850724
 20
7.9578118068
 10
13.4606643223
 20
7.9964520192
 10
13.4177222657
 20
8.0279269549
  0
LWPOLYLINE
  5
4ED
100
AcDbEntity
  8
0
100
AcDbPolyline
 62
7
  6
CONTINUOUS
 90
8
 70
0
 10
13.5367633668
 20
7.9255886872
 10
13.570448892
 20
7.8803567282
 10
13.5999828672
 20
7.8309783702
 10
13.6242047843
 20
7.779151412
 10
13.642062793
 20
7.7272500967
 10
13.6532330274
 20
7.6767173256
 10
13.6575479886
 20
7.6280841025
 10
13.6568047787
 20
7.6165206675
  0
LWPOLYLINE
  5
4EE
100
AcDbEntity
  8
0
100
AcDbPolyline
 62
7
  6
CONTINUOUS
 90
5
 70
0
 10
13.6070742021
 20
7.8716027007
 10
13.5734498266
 20
7.9216088798
 10
13.5356788672
 20
7.9671101244
 10
13.4948354364
 20
8.0067737943
 10
13.4520827871
 20
8.0394366116
  0
LWPOLYLINE
  5
4EF
100
AcDbEntity
  8
0
100
AcDbPolyline
 62
7
  6
CONTINUOUS
 90
7
 70
0
 10
13.5985114639
 20
7.8955512272
 10
13.6277252713
 20
7.846588522
 10
13.6515794495
 20
7.7955718918
 10
13.669438666
 20
7.7438806045
 10
13.6807317814
 20
7.6931354285
 10
13.6851206753
 20
7.6442784957
 10
13.6843273996
 20
7.6318137868
  0
LINE
  5
4F0
100
AcDbEntity
  8
0
100
AcDbLine
 62
7
  6
CONTINUOUS
 10
13.5744663823
 20
7.733373258
 11
13.5892038559
 21
7.6869951919
  0
LINE
  5
4F1
100
AcDbEntity
  8
0
100
AcDbLine
 62
7
  6
CONTINUOUS
 10
13.5972758632
 20
7.6335272982
 11
13.5848624695
 21
7.687256268
  0
LWPOLYLINE
  5
4F2
100
AcDbEntity
  8
0
100
AcDbPolyline
 62
7
  6
CONTINUOUS
 90
8
 70
0
 10
13.6261550704
 20
7.6412309882
 10
13.6148416777
 20
7.6946673808
 10
13.5966607326
 20
7.7493053503
 10
13.5721179932
 20
7.8035471777
 10
13.5419037892
 20
7.8558066369
 10
13.5068729932
 20
7.9045550153
 10
13.468020219
 20
7.9483654653
 10
13.4264509656
 20
7.9859544009
  0
LINE
  5
4F3
100
AcDbEntity
  8
0
100
AcDbLine
 62
7
  6
CONTINUOUS
 10
13.5892038559
 20
7.6869951919
 11
13.5985105846
 21
7.6420581268
  0
LWPOLYLINE
  5
4F4
100
AcDbEntity
  8
0
100
AcDbPolyline
 62
7
  6
CONTINUOUS
 90
3
 70
0
 10
13.6217666082
 20
7.6818925142
 10
13.6288117773
 20
7.6348663071
 10
13.6293550186
 20
7.6020585172
  0
LINE
  5
4F5
100
AcDbEntity
  8
0
100
AcDbLine
 62
7
  6
CONTINUOUS
 10
13.600552307
 20
7.5351396386
 11
13.6025495716
 21
7.5823223825
  0
LWPOLYLINE
  5
4F6
100
AcDbEntity
  8
0
100
AcDbPolyline
 62
7
  6
CONTINUOUS
 90
5
 70
0
 10
13.4505500283
 20
7.4054992141
 10
13.4612726608
 20
7.4459338744
 10
13.4648491626
 20
7.492053326
 10
13.4611540551
 20
7.5425069927
 10
13.4502728269
 20
7.5958185526
  0
LWPOLYLINE
  5
4F7
100
AcDbEntity
  8
0
100
AcDbPolyline
 62
7
  6
CONTINUOUS
 90
3
 70
0
 10
13.4758216113
 20
7.4156879278
 10
13.4876374636
 20
7.4551211174
 10
13.4923457535
 20
7.5004364379
  0
LINE
  5
4F8
100
AcDbEntity
  8
0
100
AcDbLine
 62
7
  6
CONTINUOUS
 10
13.3593337393
 20
7.3390025885
 11
13.3737257411
 21
7.3759276012
  0
LINE
  5
4F9
100
AcDbEntity
  8
0
100
AcDbLine
 62
7
  6
CONTINUOUS
 10
13.2396493211
 20
7.2600200658
 11
13.2572450776
 21
7.2933574749
  0
LINE
  5
4FA
100
AcDbEntity
  8
AXIS_COSMETIC_THREADS
100
AcDbLine
 62
7
  6
CONTINUOUS
 10
12.9004238306
 20
7.8095768462
 11
12.8639714368
 21
7.7885311725
  0
LINE
  5
4FB
100
AcDbEntity
  8
0
100
AcDbLine
 62
7
  6
CONTINUOUS
 10
14.0243516171
 20
8.3782141378
 11
14.0447639467
 21
8.3899991314
  0
LWPOLYLINE
  5
4FC
100
AcDbEntity
  8
AXIS
100
AcDbPolyline
 62
7
  6
CONTINUOUS
 90
11
 70
0
 10
15.0167876189
 20
8.8166727595
 10
15.0282514455
 20
8.8210940996
 10
15.0458359022
 20
8.8215987417
 10
15.0651180392
 20
8.8159543158
 10
15.0849772487
 20
8.8044888552
 10
15.1042593857
 20
8.7878686909
 10
15.1218438424
 20
8.7670597265
 10
15.1367086742
 20
8.7432713032
 10
15.147989991
 20
8.7178859179
 10
15.1550321638
 20
8.6923788767
 10
15.157425927
 20
8.6682325563
  0
LINE
  5
4FD
100
AcDbEntity
  8
0
100
AcDbLine
 62
7
  6
CONTINUOUS
 10
14.0676709311
 20
7.7271840527
 11
14.0720284205
 21
7.7283199935
  0
LWPOLYLINE
  5
4FE
100
AcDbEntity
  8
0
100
AcDbPolyline
 62
7
  6
CONTINUOUS
 90
4
 70
0
 10
13.9019333904
 20
7.6313353057
 10
13.9046316194
 20
7.6319882184
 10
13.9338806299
 20
7.6493215304
 10
13.9575380317
 20
7.6752526577
  0
LWPOLYLINE
  5
4FF
100
AcDbEntity
  8
0
100
AcDbPolyline
 62
7
  6
CONTINUOUS
 90
6
 70
0
 10
12.9734126965
 20
7.8588540083
 10
12.9327714251
 20
7.8643089293
 10
12.8952181245
 20
7.8604334198
 10
12.8618142804
 20
7.8473268212
 10
12.8335017115
 20
7.8253546922
 10
12.8110754082
 20
7.7951382658
  0
LINE
  5
500
100
AcDbEntity
  8
0
100
AcDbLine
 62
7
  6
CONTINUOUS
 10
13.0058037202
 20
7.8735567193
 11
12.9647609565
 21
7.8800829862
  0
LWPOLYLINE
  5
501
100
AcDbEntity
  8
0
100
AcDbPolyline
 62
7
  6
CONTINUOUS
 90
4
 70
0
 10
12.9350357989
 20
7.8154205656
 10
12.9432482106
 20
7.8140989569
 10
12.9791381241
 20
7.8036712033
 10
13.0152207597
 20
7.7862058655
  0
LWPOLYLINE
  5
502
100
AcDbEntity
  8
0
100
AcDbPolyline
 62
7
  6
CONTINUOUS
 90
8
 70
0
 10
13.3625024255
 20
7.9960976097
 10
13.3990732777
 20
7.9725563234
 10
13.4351426984
 20
7.9428373952
 10
13.469613587
 20
7.9077265628
 10
13.5012634622
 20
7.8685354383
 10
13.5296904647
 20
7.8258537236
 10
13.5544169358
 20
7.7802462875
 10
13.5744663823
 20
7.733373258
  0
LWPOLYLINE
  5
503
100
AcDbEntity
  8
0
100
AcDbPolyline
 62
7
  6
CONTINUOUS
 90
9
 70
0
 10
13.3900794752
 20
8.0120191317
 10
13.4289754591
 20
7.9867615808
 10
13.4668842963
 20
7.9548848813
 10
13.5026116861
 20
7.9174525532
 10
13.5353922303
 20
7.8753383144
 10
13.5646503459
 20
7.8291636641
 10
13.5894127505
 20
7.7802010408
 10
13.6086321755
 20
7.7304827751
 10
13.6217666082
 20
7.6818925142
  0
LWPOLYLINE
  5
504
100
AcDbEntity
  8
0
100
AcDbPolyline
 62
7
  6
CONTINUOUS
 90
4
 70
0
 10
13.4180969743
 20
8.0276523074
 10
13.4587320522
 20
8.0010499882
 10
13.4990493759
 20
7.9664263393
 10
13.5367633668
 20
7.9255886872
  0
LWPOLYLINE
  5
505
100
AcDbEntity
  8
0
100
AcDbPolyline
 62
7
  6
CONTINUOUS
 90
4
 70
0
 10
13.3922000079
 20
7.9752770296
 10
13.3489693751
 20
8.0043089109
 10
13.3056293134
 20
8.025007262
 10
13.2634155089
 20
8.0367590356
  0
LWPOLYLINE
  5
506
100
AcDbEntity
  8
0
100
AcDbPolyline
 62
7
  6
CONTINUOUS
 90
4
 70
0
 10
13.4264509656
 20
7.9859544009
 10
13.3833495434
 20
8.0162187373
 10
13.3399447149
 20
8.0382678943
 10
13.2974740452
 20
8.0514496345
  0
LWPOLYLINE
  5
507
100
AcDbEntity
  8
0
100
AcDbPolyline
 62
7
  6
CONTINUOUS
 90
6
 70
0
 10
13.6671222763
 20
7.8260009232
 10
13.6394733748
 20
7.8793858722
 10
13.6065875754
 20
7.9299673014
 10
13.5693972604
 20
7.976265182
 10
13.5289596964
 20
8.0169237614
 10
13.486426361
 20
8.0507508969
  0
LWPOLYLINE
  5
508
100
AcDbEntity
  8
0
100
AcDbPolyline
 62
7
  6
CONTINUOUS
 90
3
 70
0
 10
13.6495400651
 20
7.8730957906
 10
13.6739280869
 20
7.8239152579
 10
13.6926346029
 20
7.7743184049
  0
LINE
  5
509
100
AcDbEntity
  8
0
100
AcDbLine
 62
7
  6
CONTINUOUS
 10
13.6887538329
 20
7.7713738203
 11
13.6671222763
 21
7.8260009232
  0
LWPOLYLINE
  5
50A
100
AcDbEntity
  8
0
100
AcDbPolyline
 62
7
  6
CONTINUOUS
 90
7
 70
0
 10
13.71912919
 20
7.7787392177
 10
13.6984986974
 20
7.8334164361
 10
13.6717440288
 20
7.8871002424
 10
13.6396196871
 20
7.9382206004
 10
13.6030359628
 20
7.9852818455
 10
13.563032524
 20
8.0269060779
 10
13.5207482532
 20
8.0618731392
  0
LWPOLYLINE
  5
50B
100
AcDbEntity
  8
0
100
AcDbPolyline
 62
7
  6
CONTINUOUS
 90
4
 70
0
 10
13.7191083948
 20
7.7936559526
 10
13.7321627252
 20
7.7451612984
 10
13.7391223544
 20
7.6985244848
 10
13.7394902314
 20
7.6759240129
  0
LWPOLYLINE
  5
50C
100
AcDbEntity
  8
0
100
AcDbPolyline
 62
7
  6
CONTINUOUS
 90
4
 70
0
 10
13.6926346029
 20
7.7743184049
 10
13.7051571638
 20
7.7264748275
 10
13.7117769031
 20
7.6797438983
 10
13.7120185869
 20
7.6455653643
  0
LWPOLYLINE
  5
50D
100
AcDbEntity
  8
0
100
AcDbPolyline
 62
7
  6
CONTINUOUS
 90
3
 70
0
 10
13.5009277132
 20
7.4260493789
 10
13.5138278397
 20
7.4644527138
 10
13.5196640323
 20
7.5089313314
  0
LWPOLYLINE
  5
50E
100
AcDbEntity
  8
0
100
AcDbPolyline
 62
7
  6
CONTINUOUS
 90
8
 70
0
 10
13.5258701768
 20
7.4365875741
 10
13.5398448597
 20
7.4739334038
 10
13.5468042669
 20
7.5175433422
 10
13.5465247732
 20
7.5661396203
 10
13.5389927721
 20
7.6182998036
 10
13.5244050696
 20
7.6724980595
 10
13.5031631754
 20
7.7271494262
 10
13.4758616533
 20
7.780655796
  0
LINE
  5
50F
100
AcDbEntity
  8
0
100
AcDbLine
 62
7
  6
CONTINUOUS
 10
13.3840518686
 20
7.349793057
 11
13.3995036389
 21
7.3856233593
  0
LWPOLYLINE
  5
510
100
AcDbEntity
  8
0
100
AcDbPolyline
 62
7
  6
CONTINUOUS
 90
7
 70
0
 10
13.4086112351
 20
7.3607693349
 10
13.4251112395
 20
7.3954791079
 10
13.4347324847
 20
7.436886142
 10
13.4371741191
 20
7.48377658
 10
13.4323435895
 20
7.5347774779
 10
13.4203593257
 20
7.5883966368
 10
13.4015473051
 20
7.643065896
  0
LINE
  5
511
100
AcDbEntity
  8
0
100
AcDbLine
 62
7
  6
CONTINUOUS
 10
13.266268667
 20
7.2745986676
 11
13.2841623063
 21
7.3075982198
  0
LINE
  5
512
100
AcDbEntity
  8
0
100
AcDbLine
 62
7
  6
CONTINUOUS
 10
13.2904576924
 20
7.2860334262
 11
13.3094128311
 21
7.3179641439
  0
LWPOLYLINE
  5
513
100
AcDbEntity
  8
0
100
AcDbPolyline
 62
7
  6
CONTINUOUS
 90
4
 70
0
 10
13.2274236201
 20
7.3192284781
 10
13.2108895
 20
7.2936058466
 10
13.1889027459
 20
7.2737766407
 10
13.1829270542
 20
7.2700449565
  0
LINE
  5
514
100
AcDbEntity
  8
0
100
AcDbLine
 62
7
  6
CONTINUOUS
 10
14.6422668363
 20
8.7100927945
 11
14.6027111313
 21
8.6872554338
  0
LINE
  5
515
100
AcDbEntity
  8
0
100
AcDbLine
 62
9
  6
CONTINUOUS
 10
14.6510252232
 20
8.6669455396
 11
14.6320575992
 21
8.6559946421
  0
LINE
  5
516
100
AcDbEntity
  8
AXIS_COSMETIC_THREADS
100
AcDbLine
 62
7
  6
CONTINUOUS
 10
12.8802614735
 20
7.7960985695
 11
12.8639660869
 21
7.7885264981
  0
LWPOLYLINE
  5
517
100
AcDbEntity
  8
0
100
AcDbPolyline
 62
7
  6
CONTINUOUS
 90
3
 70
0
 10
12.8769085443
 20
7.8000418155
 10
12.8973635363
 20
7.8090491468
 10
12.927618914
 20
7.814266209
  0
LINE
  5
518
100
AcDbEntity
  8
0
100
AcDbLine
 62
7
  6
CONTINUOUS
 10
12.927618914
 20
7.814266209
 11
12.9457815455
 21
7.8133629008
  0
LWPOLYLINE
  5
519
100
AcDbEntity
  8
0
100
AcDbPolyline
 62
7
  6
CONTINUOUS
 90
3
 70
0
 10
13.4177222657
 20
8.0279269549
 10
13.3742830415
 20
8.0513109113
 10
13.3315852128
 20
8.065912925
  0
LWPOLYLINE
  5
51A
100
AcDbEntity
  8
0
100
AcDbPolyline
 62
7
  6
CONTINUOUS
 90
3
 70
0
 10
13.4520827871
 20
8.0394366116
 10
13.4086395628
 20
8.0641384104
 10
13.3657444427
 20
8.0801499935
  0
LWPOLYLINE
  5
51B
100
AcDbEntity
  8
0
100
AcDbPolyline
 62
7
  6
CONTINUOUS
 90
4
 70
0
 10
13.486426361
 20
8.0507508969
 10
13.4430095351
 20
8.0767526429
 10
13.3999471318
 20
8.0941620875
 10
13.3584667817
 20
8.1024616026
  0
LWPOLYLINE
  5
51C
100
AcDbEntity
  8
0
100
AcDbPolyline
 62
7
  6
CONTINUOUS
 90
4
 70
0
 10
13.5207482532
 20
8.0618731392
 10
13.4773882053
 20
8.0891560116
 10
13.4341886461
 20
8.1079506146
 10
13.3923811854
 20
8.1176991332
  0
LWPOLYLINE
  5
51D
100
AcDbEntity
  8
0
100
AcDbPolyline
 62
7
  6
CONTINUOUS
 90
8
 70
0
 10
13.5003876738
 20
8.0757052197
 10
13.5391097033
 20
8.0505769961
 10
13.5771646465
 20
8.0185971944
 10
13.6132876078
 20
7.9807111692
 10
13.646098409
 20
7.9384578684
 10
13.6752839949
 20
7.8922763383
 10
13.6999679814
 20
7.8433316057
 10
13.7191083948
 20
7.7936559526
  0
LWPOLYLINE
  5
51E
100
AcDbEntity
  8
0
100
AcDbPolyline
 62
7
  6
CONTINUOUS
 90
6
 70
0
 10
13.4728106241
 20
8.0597836977
 10
13.5122339013
 20
8.0341332117
 10
13.5510290846
 20
8.0013125134
 10
13.587553355
 20
7.9626333611
 10
13.6204429702
 20
7.9197798256
 10
13.6495400651
 20
7.8730957906
  0
LWPOLYLINE
  5
51F
100
AcDbEntity
  8
0
100
AcDbPolyline
 62
7
  6
CONTINUOUS
 90
5
 70
0
 10
13.4513752368
 20
8.0398389244
 10
13.486477999
 20
8.0168439716
 10
13.5269502069
 20
7.982034257
 10
13.5647831817
 20
7.9409748683
 10
13.5985114639
 20
7.8955512272
  0
LWPOLYLINE
  5
520
100
AcDbEntity
  8
0
100
AcDbPolyline
 62
7
  6
CONTINUOUS
 90
4
 70
0
 10
13.5550437447
 20
8.0728068038
 10
13.511770814
 20
8.1013510696
 10
13.4684643239
 20
8.1215171417
 10
13.4263589865
 20
8.1327074152
  0
LWPOLYLINE
  5
521
100
AcDbEntity
  8
0
100
AcDbPolyline
 62
7
  6
CONTINUOUS
 90
10
 70
0
 10
13.5668703435
 20
8.0663620224
 10
13.6048451564
 20
8.034421265
 10
13.6405357474
 20
7.9970150875
 10
13.6732717669
 20
7.9549540444
 10
13.7025108394
 20
7.9088148265
 10
13.7272615571
 20
7.8598904598
 10
13.7464787756
 20
7.8102080986
 10
13.7596217812
 20
7.761642403
 10
13.7666886912
 20
7.7145715047
 10
13.7671364691
 20
7.6877288769
  0
LINE
  5
522
100
AcDbEntity
  8
0
100
AcDbLine
 62
7
  6
CONTINUOUS
 10
13.5970493777
 20
8.0367250208
 11
13.5550437447
 21
8.0728068038
  0
LINE
  5
523
100
AcDbEntity
  8
0
100
AcDbLine
 62
7
  6
CONTINUOUS
 10
13.6370219675
 20
8.0459494101
 11
13.6747669326
 21
8.00505338
  0
LWPOLYLINE
  5
524
100
AcDbEntity
  8
0
100
AcDbPolyline
 62
7
  6
CONTINUOUS
 90
3
 70
0
 10
13.6700574252
 20
8.0029199424
 10
13.6310057558
 20
8.0463849831
 10
13.5893081355
 20
8.0835554901
  0
LWPOLYLINE
  5
525
100
AcDbEntity
  8
0
100
AcDbPolyline
 62
7
  6
CONTINUOUS
 90
8
 70
0
 10
13.6747669326
 20
8.00505338
 10
13.7084247053
 20
7.9598289099
 10
13.7378414833
 20
7.9106360862
 10
13.7620284606
 20
7.8589109745
 10
13.779903684
 20
7.8070143938
 10
13.7911027341
 20
7.756423836
 10
13.7954326007
 20
7.7077324607
 10
13.7948497914
 20
7.6986571927
  0
LWPOLYLINE
  5
526
100
AcDbEntity
  8
0
100
AcDbPolyline
 62
7
  6
CONTINUOUS
 90
4
 70
0
 10
13.7380445853
 20
7.9624051912
 10
13.7034319024
 20
8.011551586
 10
13.6648971995
 20
8.0558904711
 10
13.6235367475
 20
8.0941229292
  0
LWPOLYLINE
  5
527
100
AcDbEntity
  8
0
100
AcDbPolyline
 62
7
  6
CONTINUOUS
 90
3
 70
0
 10
13.722656339
 20
7.9948469149
 10
13.7508128992
 20
7.9523846751
 10
13.7750234016
 20
7.9076389782
  0
LWPOLYLINE
  5
528
100
AcDbEntity
  8
0
100
AcDbPolyline
 62
7
  6
CONTINUOUS
 90
6
 70
0
 10
13.799477709
 20
7.9173881897
 10
13.7706169348
 20
7.9702937678
 10
13.7367101292
 20
8.0200652485
 10
13.6987192965
 20
8.0652461013
 10
13.6577249283
 20
8.1045129814
 10
13.6148946565
 20
8.1367141229
  0
LWPOLYLINE
  5
529
100
AcDbEntity
  8
0
100
AcDbPolyline
 62
7
  6
CONTINUOUS
 90
6
 70
0
 10
13.7930013534
 20
7.9424682739
 10
13.8171405889
 20
7.8908575212
 10
13.8349335621
 20
7.83929514
 10
13.8461774598
 20
7.7887694394
 10
13.8505780919
 20
7.7400964375
 10
13.8497961666
 20
7.7275402851
  0
LWPOLYLINE
  5
52A
100
AcDbEntity
  8
0
100
AcDbPolyline
 62
7
  6
CONTINUOUS
 90
3
 70
0
 10
13.7917162499
 20
7.8555411986
 10
13.7677527651
 20
7.9098896816
 10
13.7380445853
 20
7.9624051912
  0
LWPOLYLINE
  5
52B
100
AcDbEntity
  8
0
100
AcDbPolyline
 62
7
  6
CONTINUOUS
 90
6
 70
0
 10
13.7750234016
 20
7.9076389782
 10
13.7962213599
 20
7.8576570272
 10
13.81152817
 20
7.807660384
 10
13.8205772363
 20
7.7586903987
 10
13.8229682386
 20
7.712081642
 10
13.8225889853
 20
7.7084686867
  0
LWPOLYLINE
  5
52C
100
AcDbEntity
  8
0
100
AcDbPolyline
 62
7
  6
CONTINUOUS
 90
3
 70
0
 10
13.7399047565
 20
7.6727824108
 10
13.7330586807
 20
7.7246674452
 10
13.71912919
 20
7.7787392177
  0
LWPOLYLINE
  5
52D
100
AcDbEntity
  8
0
100
AcDbPolyline
 62
7
  6
CONTINUOUS
 90
3
 70
0
 10
13.8770089486
 20
7.7781162899
 10
13.8777290959
 20
7.7342298777
 10
13.8776279331
 20
7.7335116745
  0
LWPOLYLINE
  5
52E
100
AcDbEntity
  8
0
100
AcDbPolyline
 62
7
  6
CONTINUOUS
 90
9
 70
0
 10
13.6422050942
 20
7.5134381182
 10
13.6535945445
 20
7.5532662794
 10
13.6578607488
 20
7.5988999071
 10
13.6548582187
 20
7.6490025202
 10
13.6446523493
 20
7.7021079815
 10
13.6275175223
 20
7.7566630338
 10
13.6039291457
 20
7.8110723637
 10
13.5745498605
 20
7.8637448854
 10
13.5402103165
 20
7.9131399025
  0
LWPOLYLINE
  5
52F
100
AcDbEntity
  8
0
100
AcDbPolyline
 62
7
  6
CONTINUOUS
 90
8
 70
0
 10
13.6673756826
 20
7.523731549
 10
13.6798529968
 20
7.5625408668
 10
13.6852487188
 20
7.6073504567
 10
13.6833845898
 20
7.6568477451
 10
13.6742929772
 20
7.7095841566
 10
13.6582159354
 20
7.7640171411
 10
13.6355981834
 20
7.8185549266
 10
13.6070742021
 20
7.8716027007
  0
LWPOLYLINE
  5
530
100
AcDbEntity
  8
0
100
AcDbPolyline
 62
7
  6
CONTINUOUS
 90
6
 70
0
 10
13.6923818982
 20
7.5342001722
 10
13.7059376598
 20
7.5719627069
 10
13.7124585247
 20
7.6159160472
 10
13.7117335911
 20
7.6647724614
 10
13.7037621756
 20
7.7171019673
 10
13.6887538329
 20
7.7713738203
  0
LWPOLYLINE
  5
531
100
AcDbEntity
  8
0
100
AcDbPolyline
 62
7
  6
CONTINUOUS
 90
7
 70
0
 10
13.5506509612
 20
7.4473063947
 10
13.5656897177
 20
7.4835678214
 10
13.5737668515
 20
7.5262777228
 10
13.5746263094
 20
7.5741844423
 10
13.5682214409
 20
7.6258855511
 10
13.5547163515
 20
7.6798685356
 10
13.5344811414
 20
7.7345546795
  0
LWPOLYLINE
  5
532
100
AcDbEntity
  8
0
100
AcDbPolyline
 62
7
  6
CONTINUOUS
 90
3
 70
0
 10
13.5752721409
 20
7.458209593
 10
13.5913637305
 20
7.493360491
 10
13.600552307
 20
7.5351396386
  0
LWPOLYLINE
  5
533
100
AcDbEntity
  8
0
100
AcDbPolyline
 62
7
  6
CONTINUOUS
 90
5
 70
0
 10
13.5997359036
 20
7.4693007902
 10
13.6168683363
 20
7.5033158246
 10
13.6271612804
 20
7.5441341641
 10
13.6302943968
 20
7.5905590308
 10
13.6261550704
 20
7.6412309882
  0
LINE
  5
534
100
AcDbEntity
  8
0
100
AcDbLine
 62
7
  6
CONTINUOUS
 10
13.4330140707
 20
7.3719349912
 11
13.4505500283
 21
7.4054992141
  0
LINE
  5
535
100
AcDbEntity
  8
0
100
AcDbLine
 62
7
  6
CONTINUOUS
 10
13.4572627188
 20
7.3832934601
 11
13.4758216113
 21
7.4156879278
  0
LINE
  5
536
100
AcDbEntity
  8
AXIS_COSMETIC_THREADS
100
AcDbLine
 62
7
  6
CONTINUOUS
 10
14.6672534097
 20
8.6148763106
 11
15.0167979048
 21
8.8166847143
  0
LWPOLYLINE
  5
537
100
AcDbEntity
  8
0
100
AcDbPolyline
 62
7
  6
CONTINUOUS
 90
4
 70
0
 10
12.9985921616
 20
7.8956004589
 10
12.9599898728
 20
7.8942160383
 10
12.9252886925
 20
7.8834921196
 10
12.9031047739
 20
7.8687860654
  0
LWPOLYLINE
  5
538
100
AcDbEntity
  8
0
100
AcDbPolyline
 62
7
  6
CONTINUOUS
 90
4
 70
0
 10
13.0324921522
 20
7.9108880528
 10
12.9933763626
 20
7.910974433
 10
12.9579965332
 20
7.901698997
 10
12.9301528376
 20
7.8849953162
  0
LWPOLYLINE
  5
539
100
AcDbEntity
  8
0
100
AcDbPolyline
 62
7
  6
CONTINUOUS
 90
5
 70
0
 10
13.0664565097
 20
7.9259462675
 10
13.0268545366
 20
7.9275030792
 10
12.9908207155
 20
7.9196824224
 10
12.9593787603
 20
7.9026986562
 10
12.9585016213
 20
7.9018314147
  0
LWPOLYLINE
  5
53A
100
AcDbEntity
  8
0
100
AcDbPolyline
 62
7
  6
CONTINUOUS
 90
5
 70
0
 10
13.1004807697
 20
7.9407757657
 10
13.0604202767
 20
7.9438015929
 10
13.0237575868
 20
7.9374409759
 10
12.9915346592
 20
7.9218659143
 10
12.9866232962
 20
7.9174151338
  0
LWPOLYLINE
  5
53B
100
AcDbEntity
  8
0
100
AcDbPolyline
 62
7
  6
CONTINUOUS
 90
5
 70
0
 10
13.1345604254
 20
7.9553773731
 10
13.0940694023
 20
7.9598697538
 10
13.0568034144
 20
7.9549733975
 10
13.0238219239
 20
7.9408178223
 10
13.0141443433
 20
7.932794382
  0
LWPOLYLINE
  5
53C
100
AcDbEntity
  8
0
100
AcDbPolyline
 62
7
  6
CONTINUOUS
 90
5
 70
0
 10
13.1686909301
 20
7.9697520777
 10
13.1277976735
 20
7.9757075055
 10
13.0899543879
 20
7.9722785886
 10
13.0562372843
 20
7.9595522707
 10
13.0415131806
 20
7.9484108665
  0
LWPOLYLINE
  5
53D
100
AcDbEntity
  8
0
100
AcDbPolyline
 62
7
  6
CONTINUOUS
 90
3
 70
0
 10
13.5805287992
 20
8.1251272053
 10
13.537099405
 20
8.1479912519
 10
13.4944868428
 20
8.1620391895
  0
LWPOLYLINE
  5
53E
100
AcDbEntity
  8
0
100
AcDbPolyline
 62
7
  6
CONTINUOUS
 90
5
 70
0
 10
13.5831188227
 20
8.1234697857
 10
13.6200082189
 20
8.099694949
 10
13.6564415305
 20
8.0695812981
 10
13.6910613651
 20
8.0341613611
 10
13.722656339
 20
7.9948469149
  0
LINE
  5
53F
100
AcDbEntity
  8
0
100
AcDbLine
 62
7
  6
CONTINUOUS
 10
13.5279647234
 20
8.0916267417
 11
13.5668703435
 21
8.0663620224
  0
LWPOLYLINE
  5
540
100
AcDbEntity
  8
0
100
AcDbPolyline
 62
7
  6
CONTINUOUS
 90
6
 70
0
 10
13.6141630052
 20
8.1371214777
 10
13.6517741557
 20
8.1124985623
 10
13.6920939929
 20
8.0778718942
 10
13.729810252
 20
8.0370302394
 10
13.7635048839
 20
7.991782499
 10
13.7930013534
 20
7.9424682739
  0
LWPOLYLINE
  5
541
100
AcDbEntity
  8
0
100
AcDbPolyline
 62
7
  6
CONTINUOUS
 90
3
 70
0
 10
13.5555417731
 20
8.1075482637
 10
13.5966628217
 20
8.0806232379
 10
13.6370219675
 20
8.0459494101
  0
LWPOLYLINE
  5
542
100
AcDbEntity
  8
0
100
AcDbPolyline
 62
7
  6
CONTINUOUS
 90
4
 70
0
 10
13.5893081355
 20
8.0835554901
 10
13.5461525991
 20
8.1133405183
 10
13.5027694792
 20
8.1348633935
 10
13.4603957109
 20
8.1474871469
  0
LINE
  5
543
100
AcDbEntity
  8
0
100
AcDbLine
 62
7
  6
CONTINUOUS
 10
13.6235367475
 20
8.0941229292
 11
13.5805287992
 21
8.1251272053
  0
LWPOLYLINE
  5
544
100
AcDbEntity
  8
0
100
AcDbPolyline
 62
7
  6
CONTINUOUS
 90
3
 70
0
 10
13.8675775251
 20
7.9935213542
 10
13.8359279092
 20
8.0449519711
 10
13.7997261419
 20
8.0924615879
  0
LWPOLYLINE
  5
545
100
AcDbEntity
  8
0
100
AcDbPolyline
 62
7
  6
CONTINUOUS
 90
7
 70
0
 10
13.8471469283
 20
8.0381809278
 10
13.8763467516
 20
7.9890740318
 10
13.9003441271
 20
7.937453532
 10
13.9180610998
 20
7.8856573199
 10
13.9291219384
 20
7.8351735217
 10
13.9333285322
 20
7.786602049
 10
13.9329833452
 20
7.7814303036
  0
LWPOLYLINE
  5
546
100
AcDbEntity
  8
0
100
AcDbPolyline
 62
7
  6
CONTINUOUS
 90
9
 70
0
 10
13.876915223
 20
7.7634183321
 10
13.8685051793
 20
7.815911418
 10
13.8530777484
 20
7.8702509139
 10
13.8310588025
 20
7.9248477601
 10
13.8030654495
 20
7.9781054306
 10
13.76988813
 20
8.0284662523
 10
13.7324676837
 20
8.0744565966
 10
13.6918680542
 20
8.1147296333
 10
13.6492454209
 20
8.1481044054
  0
LWPOLYLINE
  5
547
100
AcDbEntity
  8
0
100
AcDbPolyline
 62
7
  6
CONTINUOUS
 90
6
 70
0
 10
13.8085631746
 20
7.6112144706
 10
13.8195249016
 20
7.6514332213
 10
13.8233484747
 20
7.6973801421
 10
13.8199012471
 20
7.7477096626
 10
13.8092615158
 20
7.8009490625
 10
13.7917162499
 20
7.8555411986
  0
LWPOLYLINE
  5
548
100
AcDbEntity
  8
0
100
AcDbPolyline
 62
7
  6
CONTINUOUS
 90
7
 70
0
 10
13.8337985241
 20
7.6214405009
 10
13.8458515866
 20
7.6606515305
 10
13.8508061691
 20
7.7057871685
 10
13.8484968116
 20
7.7555253819
 10
13.8389687986
 20
7.8084106057
 10
13.8224768456
 20
7.8628959722
 10
13.799477709
 20
7.9173881897
  0
LINE
  5
549
100
AcDbEntity
  8
0
100
AcDbLine
 62
7
  6
CONTINUOUS
 10
14.0243516171
 20
8.3782141378
 11
14.0345577819
 21
8.404519195
  0
LWPOLYLINE
  5
54A
100
AcDbEntity
  8
0
100
AcDbPolyline
 62
7
  6
CONTINUOUS
 90
4
 70
0
 10
13.7172256549
 20
7.5448479184
 10
13.7318496792
 20
7.5815364757
 10
13.7394905114
 20
7.6246019641
 10
13.7399047565
 20
7.6727824108
  0
LWPOLYLINE
  5
54B
100
AcDbEntity
  8
0
100
AcDbPolyline
 62
7
  6
CONTINUOUS
 90
11
 70
0
 10
13.7419089822
 20
7.5556785908
 10
13.7575903241
 20
7.5912667408
 10
13.7663451503
 20
7.6334134073
 10
13.7678977462
 20
7.6808832746
 10
13.7621813516
 20
7.7322865879
 10
13.7493400977
 20
7.7861194734
 10
13.7297248251
 20
7.8408075696
 10
13.7038829055
 20
7.8947517031
 10
13.672542361
 20
7.9463742847
 10
13.636590742
 20
7.9941650791
 10
13.5970493777
 20
8.0367250208
  0
LINE
  5
54C
100
AcDbEntity
  8
0
100
AcDbLine
 62
7
  6
CONTINUOUS
 10
13.6240445495
 20
7.4805834736
 11
13.6422050942
 21
7.5134381182
  0
LINE
  5
54D
100
AcDbEntity
  8
0
100
AcDbLine
 62
7
  6
CONTINUOUS
 10
13.6482004891
 20
7.4920609942
 11
13.6673756826
 21
7.523731549
  0
LWPOLYLINE
  5
54E
100
AcDbEntity
  8
0
100
AcDbPolyline
 62
7
  6
CONTINUOUS
 90
4
 70
0
 10
12.8786369408
 20
7.8394490185
 10
12.9132581039
 20
7.8435026742
 10
12.9510786332
 20
7.8389173552
 10
12.990935575
 20
7.8257655409
  0
LWPOLYLINE
  5
54F
100
AcDbEntity
  8
0
100
AcDbPolyline
 62
7
  6
CONTINUOUS
 90
4
 70
0
 10
12.9647609565
 20
7.8800829862
 10
12.9266991202
 20
7.8772284429
 10
12.892700763
 20
7.8650633691
 10
12.8760400518
 20
7.8529085583
  0
LWPOLYLINE
  5
550
100
AcDbEntity
  8
0
100
AcDbPolyline
 62
7
  6
CONTINUOUS
 90
4
 70
0
 10
13.1954744145
 20
8.0066923768
 10
13.1565561596
 20
8.0062036932
 10
13.1214387573
 20
7.9963611265
 10
13.0958362634
 20
7.9803816996
  0
LWPOLYLINE
  5
551
100
AcDbEntity
  8
0
100
AcDbPolyline
 62
7
  6
CONTINUOUS
 90
5
 70
0
 10
13.2294141351
 20
8.0218402037
 10
13.1899989739
 20
8.0228222207
 10
13.154217883
 20
8.0144320945
 10
13.1230872442
 20
7.9969007059
 10
13.1229827738
 20
7.9967938774
  0
LWPOLYLINE
  5
552
100
AcDbEntity
  8
0
100
AcDbPolyline
 62
7
  6
CONTINUOUS
 90
5
 70
0
 10
13.2634155089
 20
8.0367590356
 10
13.223530972
 20
8.0392107463
 10
13.1871111355
 20
8.0322787266
 10
13.1551909128
 20
8.0161515541
 10
13.1520639825
 20
8.0132191137
  0
LWPOLYLINE
  5
553
100
AcDbEntity
  8
0
100
AcDbPolyline
 62
7
  6
CONTINUOUS
 90
5
 70
0
 10
13.2974740452
 20
8.0514496345
 10
13.2571479973
 20
8.0553689856
 10
13.2201148131
 20
8.0498997004
 10
13.1874272007
 20
8.0351879188
 10
13.1796472077
 20
8.0285076987
  0
LWPOLYLINE
  5
554
100
AcDbEntity
  8
0
100
AcDbPolyline
 62
7
  6
CONTINUOUS
 90
5
 70
0
 10
13.3315852128
 20
8.065912925
 10
13.2908458328
 20
8.0712968184
 10
13.2532251354
 20
8.067293854
 10
13.2197928738
 20
8.0540076303
 10
13.2070743604
 20
8.0440305568
  0
LINE
  5
555
100
AcDbEntity
  8
0
100
AcDbLine
 62
7
  6
CONTINUOUS
 10
13.3657444427
 20
8.0801499935
 11
13.324620204
 21
8.0869942881
  0
LWPOLYLINE
  5
556
100
AcDbEntity
  8
0
100
AcDbPolyline
 62
7
  6
CONTINUOUS
 90
3
 70
0
 10
13.6148946565
 20
8.1367141229
 10
13.5714493767
 20
8.1609027541
 10
13.5286278277
 20
8.1763645661
  0
LWPOLYLINE
  5
557
100
AcDbEntity
  8
0
100
AcDbPolyline
 62
7
  6
CONTINUOUS
 90
4
 70
0
 10
13.6492454209
 20
8.1481044054
 10
13.6058146554
 20
8.1736000913
 10
13.5628140753
 20
8.1904644613
 10
13.5214695174
 20
8.198195701
  0
LWPOLYLINE
  5
558
100
AcDbEntity
  8
0
100
AcDbPolyline
 62
7
  6
CONTINUOUS
 90
4
 70
0
 10
13.6835763529
 20
8.1593013271
 10
13.6401904912
 20
8.1860856073
 10
13.5970409633
 20
8.2043402202
 10
13.5553579274
 20
8.2135230172
  0
LWPOLYLINE
  5
559
100
AcDbEntity
  8
0
100
AcDbPolyline
 62
7
  6
CONTINUOUS
 90
4
 70
0
 10
13.6934270213
 20
8.1871558737
 10
13.7265486051
 20
8.1661115435
 10
13.7594151183
 20
8.1398872154
 10
13.7910338356
 20
8.1091828537
  0
LWPOLYLINE
  5
55A
100
AcDbEntity
  8
0
100
AcDbPolyline
 62
7
  6
CONTINUOUS
 90
4
 70
0
 10
13.7178827272
 20
8.1703083002
 10
13.674572127
 20
8.1983617966
 10
13.6313038406
 20
8.2179933476
 10
13.5893114718
 20
8.2286208561
  0
LWPOLYLINE
  5
55B
100
AcDbEntity
  8
0
100
AcDbPolyline
 62
7
  6
CONTINUOUS
 90
10
 70
0
 10
13.638272922
 20
8.1553128297
 10
13.6770237383
 20
8.1301632148
 10
13.7149555849
 20
8.0982935849
 10
13.7510361836
 20
8.0604777671
 10
13.783868466
 20
8.0182296085
 10
13.8130890955
 20
7.9720253046
 10
13.8378047286
 20
7.9230484157
 10
13.8569703233
 20
7.873334863
 10
13.8700425178
 20
7.8247948638
 10
13.8770089486
 20
7.7781162899
  0
LINE
  5
55C
100
AcDbEntity
  8
0
100
AcDbLine
 62
7
  6
CONTINUOUS
 10
13.6658499717
 20
8.1712343517
 11
13.7069042653
 21
8.1443597104
  0
LINE
  5
55D
100
AcDbEntity
  8
0
100
AcDbLine
 62
7
  6
CONTINUOUS
 10
13.7259615335
 20
8.1247769948
 11
13.6835763529
 21
8.1593013271
  0
LWPOLYLINE
  5
55E
100
AcDbEntity
  8
0
100
AcDbPolyline
 62
7
  6
CONTINUOUS
 90
10
 70
0
 10
13.7069042653
 20
8.1443597104
 10
13.7468937617
 20
8.110057458
 10
13.7841665623
 20
8.0698343517
 10
13.8179811196
 20
8.0246366487
 10
13.847752724
 20
7.9750675822
 10
13.8721683357
 20
7.9230117817
 10
13.8901625612
 20
7.8708744621
 10
13.9013921388
 20
7.8202293014
 10
13.9057352237
 20
7.7717619556
 10
13.9051616589
 20
7.7625235093
  0
LWPOLYLINE
  5
55F
100
AcDbEntity
  8
0
100
AcDbPolyline
 62
7
  6
CONTINUOUS
 90
3
 70
0
 10
13.7997261419
 20
8.0924615879
 10
13.76000081
 20
8.1346592964
 10
13.7178827272
 20
8.1703083002
  0
LWPOLYLINE
  5
560
100
AcDbEntity
  8
0
100
AcDbPolyline
 62
7
  6
CONTINUOUS
 90
3
 70
0
 10
13.7910338356
 20
8.1091828537
 10
13.8204917486
 20
8.0749610822
 10
13.8471469283
 20
8.0381809278
  0
LINE
  5
561
100
AcDbEntity
  8
0
100
AcDbLine
 62
7
  6
CONTINUOUS
 10
13.8405415556
 20
8.1002047644
 11
13.8742763169
 21
8.0547749117
  0
LWPOLYLINE
  5
562
100
AcDbEntity
  8
0
100
AcDbPolyline
 62
7
  6
CONTINUOUS
 90
4
 70
0
 10
13.8687821039
 20
8.0530477168
 10
13.8332277615
 20
8.1012660328
 10
13.7939813659
 20
8.1443808862
 10
13.7521598359
 20
8.1811288718
  0
LWPOLYLINE
  5
563
100
AcDbEntity
  8
0
100
AcDbPolyline
 62
7
  6
CONTINUOUS
 90
7
 70
0
 10
13.8742763169
 20
8.0547749117
 10
13.9035486341
 20
8.0057040935
 10
13.9273697229
 20
7.9547384177
 10
13.9451954535
 20
7.9031439845
 10
13.9564935811
 20
7.8524055534
 10
13.9608902315
 20
7.8035506199
 10
13.9603591872
 20
7.7951783797
  0
LWPOLYLINE
  5
564
100
AcDbEntity
  8
0
100
AcDbPolyline
 62
7
  6
CONTINUOUS
 90
8
 70
0
 10
14.0380440126
 20
7.7680907121
 10
14.0436854672
 20
7.8127163263
 10
14.0420696945
 20
7.8620768903
 10
14.0332218566
 20
7.9147277957
 10
14.0173769352
 20
7.9691289729
 10
13.994972915
 20
8.0236895729
 10
13.966638076
 20
8.0768141212
 10
13.9331727659
 20
8.1269488068
  0
LWPOLYLINE
  5
565
100
AcDbEntity
  8
0
100
AcDbPolyline
 62
7
  6
CONTINUOUS
 90
7
 70
0
 10
13.9237909321
 20
7.6891975955
 10
13.9321109736
 20
7.7317071466
 10
13.9332186504
 20
7.7794589235
 10
13.9270601104
 20
7.8310549923
 10
13.9137923124
 20
7.8849858872
 10
13.8937784723
 20
7.939674403
 10
13.8675775251
 20
7.9935213542
  0
LWPOLYLINE
  5
566
100
AcDbEntity
  8
0
100
AcDbPolyline
 62
7
  6
CONTINUOUS
 90
4
 70
0
 10
13.8588687843
 20
7.6318401529
 10
13.8720040676
 20
7.6700152355
 10
13.8780855991
 20
7.7143071467
 10
13.876915223
 20
7.7634183321
  0
LWPOLYLINE
  5
567
100
AcDbEntity
  8
0
100
AcDbPolyline
 62
7
  6
CONTINUOUS
 90
11
 70
0
 10
13.8837758235
 20
7.6424174062
 10
13.8979834425
 20
7.6795290537
 10
13.9051870599
 20
7.7229453948
 10
13.9051559657
 20
7.7713942774
 10
13.8978693463
 20
7.8234575431
 10
13.8835168888
 20
7.8776121712
 10
13.8624932779
 20
7.9322744657
 10
13.8353867445
 20
7.9858460017
 10
13.802962
 20
8.0367600001
 10
13.7661380505
 20
8.0835267834
 10
13.7259615335
 20
8.1247769948
  0
LINE
  5
568
100
AcDbEntity
  8
0
100
AcDbLine
 62
7
  6
CONTINUOUS
 10
13.9085216261
 20
7.6531761141
 11
13.9237909321
 21
7.6891975955
  0
LWPOLYLINE
  5
569
100
AcDbEntity
  8
0
100
AcDbPolyline
 62
7
  6
CONTINUOUS
 90
10
 70
0
 10
13.7664340237
 20
7.566695862
 10
13.7831609852
 20
7.6011579585
 10
13.7930230392
 20
7.6423554872
 10
13.7957123475
 20
7.6890806691
 10
13.7911291713
 20
7.7399653547
 10
13.7793847641
 20
7.7935207168
 10
13.7607981446
 20
7.8481804455
 10
13.7358868405
 20
7.9023461905
 10
13.7053518744
 20
7.954433933
 10
13.6700574252
 20
8.0029199424
  0
LINE
  5
56A
100
AcDbEntity
  8
0
100
AcDbLine
 62
7
  6
CONTINUOUS
 10
13.7908030358
 20
7.5779032721
 11
13.8085631746
 21
7.6112144706
  0
LINE
  5
56B
100
AcDbEntity
  8
0
100
AcDbLine
 62
7
  6
CONTINUOUS
 10
13.8150183862
 20
7.5893042256
 11
13.8337985241
 21
7.6214405009
  0
LWPOLYLINE
  5
56C
100
AcDbEntity
  8
0
100
AcDbPolyline
 62
7
  6
CONTINUOUS
 90
4
 70
0
 10
13.2137587218
 20
7.2643179812
 10
13.1936497365
 20
7.2467856676
 10
13.1704393451
 20
7.2346596626
 10
13.1439219214
 20
7.2279869857
  0
LWPOLYLINE
  5
56D
100
AcDbEntity
  8
AXIS_COSMETIC_THREADS
100
AcDbPolyline
 62
7
  6
CONTINUOUS
 90
3
 70
0
 10
13.1899390608
 20
7.2831987698
 10
13.1715144901
 20
7.2676984755
 10
13.1664754325
 20
7.2645896956
  0
LINE
  5
56E
100
AcDbEntity
  8
AXIS_COSMETIC_THREADS
100
AcDbLine
 62
7
  6
CONTINUOUS
 10
14.7837542039
 20
8.4130928501
 11
15.1332973832
 21
8.6149004941
  0
LINE
  5
56F
100
AcDbEntity
  8
AXIS_COSMETIC_THREADS
100
AcDbLine
 62
7
  6
CONTINUOUS
 10
13.2247688917
 20
7.4976313639
 11
13.2167470314
 21
7.4929999683
  0
LINE
  5
570
100
AcDbEntity
  8
AXIS_COSMETIC_THREADS
100
AcDbLine
 62
7
  6
CONTINUOUS
 10
12.9041085869
 20
7.8017611219
 11
12.8802614735
 21
7.7960985695
  0
LWPOLYLINE
  5
571
100
AcDbEntity
  8
0
100
AcDbPolyline
 62
7
  6
CONTINUOUS
 90
4
 70
0
 10
13.1616007941
 20
7.9913149559
 10
13.1232066221
 20
7.989355612
 10
13.0887773789
 20
7.978067305
 10
13.068740156
 20
7.9642714044
  0
LWPOLYLINE
  5
572
100
AcDbEntity
  8
0
100
AcDbPolyline
 62
7
  6
CONTINUOUS
 90
4
 70
0
 10
13.3584667817
 20
8.1024616026
 10
13.3197502159
 20
8.1013978613
 10
13.2848989816
 20
8.0909891881
 10
13.2615014518
 20
8.0758069729
  0
LWPOLYLINE
  5
573
100
AcDbEntity
  8
0
100
AcDbPolyline
 62
7
  6
CONTINUOUS
 90
4
 70
0
 10
13.3923811854
 20
8.1176991332
 10
13.3531570448
 20
8.1181062015
 10
13.3176324972
 20
8.1091474721
 10
13.2885235055
 20
8.0920716888
  0
LWPOLYLINE
  5
574
100
AcDbEntity
  8
0
100
AcDbPolyline
 62
7
  6
CONTINUOUS
 90
5
 70
0
 10
13.4263589865
 20
8.1327074152
 10
13.3866546654
 20
8.1345846955
 10
13.350481565
 20
8.1270819808
 10
13.3188674401
 20
8.1104044056
 10
13.3174793674
 20
8.1090576437
  0
LWPOLYLINE
  5
575
100
AcDbEntity
  8
0
100
AcDbPolyline
 62
7
  6
CONTINUOUS
 90
5
 70
0
 10
13.4603957109
 20
8.1474871469
 10
13.4202389458
 20
8.150832995
 10
13.3834425147
 20
8.1447913291
 10
13.3510522568
 20
8.1295248953
 10
13.3451262069
 20
8.1242568389
  0
LWPOLYLINE
  5
576
100
AcDbEntity
  8
0
100
AcDbPolyline
 62
7
  6
CONTINUOUS
 90
5
 70
0
 10
13.4944868428
 20
8.1620391895
 10
13.4539056922
 20
8.1668509154
 10
13.4165115963
 20
8.1622742923
 10
13.3833677341
 20
8.1484295618
 10
13.3726132172
 20
8.1396871785
  0
LWPOLYLINE
  5
577
100
AcDbEntity
  8
0
100
AcDbPolyline
 62
7
  6
CONTINUOUS
 90
5
 70
0
 10
13.5286278277
 20
8.1763645661
 10
13.4876506521
 20
8.1826384362
 10
13.4496849829
 20
8.1795298068
 10
13.4158105819
 20
8.1671163293
 10
13.3999502171
 20
8.1553563348
  0
LINE
  5
578
100
AcDbEntity
  8
0
100
AcDbLine
 62
7
  6
CONTINUOUS
 10
13.7433337515
 20
8.2222969168
 11
13.6999188329
 21
8.244638518
  0
LWPOLYLINE
  5
579
100
AcDbEntity
  8
0
100
AcDbPolyline
 62
7
  6
CONTINUOUS
 90
3
 70
0
 10
13.7777042186
 20
8.2339615744
 10
13.7342615306
 20
8.2576343582
 10
13.691518132
 20
8.272544669
  0
LWPOLYLINE
  5
57A
100
AcDbEntity
  8
0
100
AcDbPolyline
 62
7
  6
CONTINUOUS
 90
11
 70
0
 10
13.7781974993
 20
8.2335966909
 10
13.814950696
 20
8.2097398234
 10
13.852789195
 20
8.1779497844
 10
13.8888143356
 20
8.1402098701
 10
13.9216567383
 20
8.0979752981
 10
13.9509031202
 20
8.0517584528
 10
13.9756430096
 20
8.0027617109
 10
13.9948291884
 20
7.9530230954
 10
14.0079178997
 20
7.9044493933
 10
14.0148979092
 20
7.8576802621
 10
14.0155389158
 20
7.8187094119
  0
LWPOLYLINE
  5
57B
100
AcDbEntity
  8
0
100
AcDbPolyline
 62
7
  6
CONTINUOUS
 90
11
 70
0
 10
13.7485811206
 20
8.2189989177
 10
13.7896474363
 20
8.1921152041
 10
13.8299562885
 20
8.1575017135
 10
13.8676641644
 20
8.1166756851
 10
13.9013591794
 20
8.0714363809
 10
13.9308988846
 20
8.022052775
 10
13.9551031742
 20
7.9702743657
 10
13.9729411247
 20
7.9184717788
 10
13.9841279772
 20
7.8679641027
 10
13.9884696125
 20
7.8193298674
 10
13.9878063958
 20
7.8088992955
  0
LWPOLYLINE
  5
57C
100
AcDbEntity
  8
0
100
AcDbPolyline
 62
7
  6
CONTINUOUS
 90
4
 70
0
 10
13.721004071
 20
8.2030773957
 10
13.7622438243
 20
8.1760627208
 10
13.8027117405
 20
8.1412581662
 10
13.8405415556
 20
8.1002047644
  0
LWPOLYLINE
  5
57D
100
AcDbEntity
  8
0
100
AcDbPolyline
 62
7
  6
CONTINUOUS
 90
4
 70
0
 10
13.7521598359
 20
8.1811288718
 10
13.7089548011
 20
8.2104313029
 10
13.6655980302
 20
8.2314255067
 10
13.6233256939
 20
8.2434898523
  0
LINE
  5
57E
100
AcDbEntity
  8
0
100
AcDbLine
 62
7
  6
CONTINUOUS
 10
13.786402992
 20
8.1917667219
 11
13.7433337515
 21
8.2222969168
  0
LINE
  5
57F
100
AcDbEntity
  8
0
100
AcDbLine
 62
7
  6
CONTINUOUS
 10
13.8547688225
 20
8.2125096257
 11
13.8120614489
 21
8.2454283546
  0
LWPOLYLINE
  5
580
100
AcDbEntity
  8
0
100
AcDbPolyline
 62
7
  6
CONTINUOUS
 90
3
 70
0
 10
13.8406820581
 20
8.2270249564
 10
13.8767167307
 20
8.1972679113
 10
13.9110362657
 20
8.1622572242
  0
LWPOLYLINE
  5
581
100
AcDbEntity
  8
0
100
AcDbPolyline
 62
7
  6
CONTINUOUS
 90
3
 70
0
 10
13.9292275607
 20
8.1817510252
 10
13.888882257
 20
8.2226226788
 10
13.8464006984
 20
8.2567004774
  0
LWPOLYLINE
  5
582
100
AcDbEntity
  8
0
100
AcDbPolyline
 62
7
  6
CONTINUOUS
 90
9
 70
0
 10
13.9128907439
 20
8.2050694536
 10
13.9506721465
 20
8.1641057501
 10
13.9843484081
 20
8.1188148375
 10
14.0136063334
 20
8.0698619277
 10
14.0377319285
 20
8.0182914609
 10
14.0556209851
 20
7.9664172486
 10
14.0668539044
 20
7.9157618109
 10
14.0712022053
 20
7.8670042372
 10
14.0705143847
 20
7.8562774623
  0
LWPOLYLINE
  5
583
100
AcDbEntity
  8
0
100
AcDbPolyline
 62
7
  6
CONTINUOUS
 90
3
 70
0
 10
13.9331727659
 20
8.1269488068
 10
13.89552618
 20
8.172626562
 10
13.8547688225
 20
8.2125096257
  0
LWPOLYLINE
  5
584
100
AcDbEntity
  8
0
100
AcDbPolyline
 62
7
  6
CONTINUOUS
 90
9
 70
0
 10
13.9110362657
 20
8.1622572242
 10
13.9445262925
 20
8.1204955279
 10
13.9745251673
 20
8.0745376591
 10
14.0001489689
 20
8.025467358
 10
14.0202587469
 20
7.9753576384
 10
14.0342249691
 20
7.9262067455
 10
14.0420287718
 20
7.878450866
 10
14.0433844036
 20
7.8335235712
 10
14.0430828626
 20
7.8311254147
  0
LWPOLYLINE
  5
585
100
AcDbEntity
  8
0
100
AcDbPolyline
 62
7
  6
CONTINUOUS
 90
12
 70
0
 10
14.0001961282
 20
7.7191759946
 10
14.0118235456
 20
7.7587844209
 10
14.016336368
 20
7.8042411473
 10
14.0135819519
 20
7.8542148251
 10
14.0036184941
 20
7.9072430579
 10
13.9867133433
 20
7.961774829
 10
13.9633352441
 20
8.0162155003
 10
13.9341407368
 20
8.068973077
 10
13.8999551102
 20
8.1185043949
 10
13.8617484577
 20
8.1633598913
 10
13.8206075326
 20
8.2022256607
 10
13.7777042186
 20
8.2339615744
  0
LINE
  5
586
100
AcDbEntity
  8
0
100
AcDbLine
 62
7
  6
CONTINUOUS
 10
14.0253307187
 20
7.7295072838
 11
14.0380440126
 21
7.7680907121
  0
LWPOLYLINE
  5
587
100
AcDbEntity
  8
0
100
AcDbPolyline
 62
7
  6
CONTINUOUS
 90
10
 70
0
 10
14.0503013438
 20
7.7400146332
 10
14.0640909295
 20
7.7775452846
 10
14.0708564667
 20
7.8213077057
 10
14.070379955
 20
7.8700197038
 10
14.0626535035
 20
7.922255487
 10
14.0478795602
 20
7.9764870293
 10
14.0264650376
 20
8.0311284033
 10
13.9990095083
 20
8.084581791
 10
13.9662878089
 20
8.1352838411
 10
13.9292275607
 20
8.1817510252
  0
LWPOLYLINE
  5
588
100
AcDbEntity
  8
0
100
AcDbPolyline
 62
7
  6
CONTINUOUS
 90
12
 70
0
 10
14.0751099426
 20
7.7507019458
 10
14.0899654691
 20
7.787152791
 10
14.097849739
 20
7.8300205527
 10
14.0985122946
 20
7.8780489946
 10
14.0919121979
 20
7.9298321561
 10
14.0782192186
 20
7.9838551433
 10
14.0578089079
 20
8.0385380793
 10
14.0312517035
 20
8.0922819402
 10
13.9992963795
 20
8.1435149475
 10
13.9628483229
 20
8.1907381684
 10
13.9229432656
 20
8.2325690038
 10
13.8807172358
 20
8.2677813012
  0
LWPOLYLINE
  5
589
100
AcDbEntity
  8
0
100
AcDbPolyline
 62
7
  6
CONTINUOUS
 90
9
 70
0
 10
13.9331082913
 20
7.6641200005
 10
13.9494278797
 20
7.6990253611
 10
13.9588578886
 20
7.7405975479
 10
13.9611030148
 20
7.7876179123
 10
13.9560764061
 20
7.8387097406
 10
13.9439021812
 20
7.892378196
 10
13.9249118288
 20
7.9470536875
 10
13.89963459
 20
8.0011374074
 10
13.8687821039
 20
8.0530477168
  0
LWPOLYLINE
  5
58A
100
AcDbEntity
  8
0
100
AcDbPolyline
 62
7
  6
CONTINUOUS
 90
12
 70
0
 10
13.9575380317
 20
7.6752526577
 10
13.97489575
 20
7.7090167373
 10
13.9854284792
 20
7.749621653
 10
13.9888089234
 20
7.7958768189
 10
13.9849172921
 20
7.8464277218
 10
13.9738447754
 20
7.8997952185
 10
13.9558908988
 20
7.9544184493
 10
13.9315548326
 20
8.0087001229
 10
13.9015209104
 20
8.0610528573
 10
13.8666387744
 20
8.1099452336
 10
13.8278987255
 20
8.1539462265
 10
13.786402992
 20
8.1917667219
  0
LINE
  5
58B
100
AcDbEntity
  8
0
100
AcDbLine
 62
7
  6
CONTINUOUS
 10
13.9818131715
 20
7.6865775435
 11
14.0001961282
 21
7.7191759946
  0
LINE
  5
58C
100
AcDbEntity
  8
0
100
AcDbLine
 62
9
  6
CONTINUOUS
 10
14.8207315572
 20
8.3730071784
 11
14.8017637447
 21
8.3620561721
  0
LINE
  5
58D
100
AcDbEntity
  8
0
100
AcDbLine
 62
7
  6
CONTINUOUS
 10
14.8537188319
 20
8.3438492279
 11
14.8141631268
 21
8.3210118672
  0
LWPOLYLINE
  5
58E
100
AcDbEntity
  8
0
100
AcDbPolyline
 62
7
  6
CONTINUOUS
 90
4
 70
0
 10
13.324620204
 20
8.0869942881
 10
13.2864382462
 20
8.084460187
 10
13.2522846061
 20
8.0726086733
 10
13.2343555266
 20
8.0597949344
  0
LWPOLYLINE
  5
58F
100
AcDbEntity
  8
0
100
AcDbPolyline
 62
7
  6
CONTINUOUS
 90
4
 70
0
 10
13.5214695174
 20
8.198195701
 10
13.4829587734
 20
8.1965569709
 10
13.4483774189
 20
8.1855832771
 10
13.4271476984
 20
8.1712708837
  0
LWPOLYLINE
  5
590
100
AcDbEntity
  8
0
100
AcDbPolyline
 62
7
  6
CONTINUOUS
 90
4
 70
0
 10
13.5553579274
 20
8.2135230172
 10
13.5163289951
 20
8.2133550455
 10
13.481064776
 20
8.2038286409
 10
13.4542167912
 20
8.1874362838
  0
LWPOLYLINE
  5
591
100
AcDbEntity
  8
0
100
AcDbPolyline
 62
7
  6
CONTINUOUS
 90
5
 70
0
 10
13.5893114718
 20
8.2286208561
 10
13.5497916067
 20
8.2299234547
 10
13.513869098
 20
8.2218508144
 10
13.4825644304
 20
8.2046246048
 10
13.4820315353
 20
8.2040898047
  0
LWPOLYLINE
  5
592
100
AcDbEntity
  8
0
100
AcDbPolyline
 62
7
  6
CONTINUOUS
 90
5
 70
0
 10
13.6233256939
 20
8.2434898523
 10
13.583342501
 20
8.2462617861
 10
13.5467867465
 20
8.23964835
 10
13.5146972871
 20
8.2238288787
 10
13.5105807664
 20
8.2200413242
  0
LINE
  5
593
100
AcDbEntity
  8
0
100
AcDbLine
 62
7
  6
CONTINUOUS
 10
13.6999188329
 20
8.244638518
 11
13.6573960939
 21
8.2581308033
  0
LWPOLYLINE
  5
594
100
AcDbEntity
  8
0
100
AcDbPolyline
 62
7
  6
CONTINUOUS
 90
4
 70
0
 10
13.8120614489
 20
8.2454283546
 10
13.7686213895
 20
8.2704151584
 10
13.7256872315
 20
8.2867325711
 10
13.6844828846
 20
8.293894647
  0
LWPOLYLINE
  5
595
100
AcDbEntity
  8
0
100
AcDbPolyline
 62
7
  6
CONTINUOUS
 90
4
 70
0
 10
13.8464006984
 20
8.2567004774
 10
13.8029936638
 20
8.282983203
 10
13.7598987823
 20
8.3006957919
 10
13.7183446266
 20
8.3093118208
  0
LWPOLYLINE
  5
596
100
AcDbEntity
  8
0
100
AcDbPolyline
 62
7
  6
CONTINUOUS
 90
4
 70
0
 10
13.8807172358
 20
8.2677813012
 10
13.8373735987
 20
8.2953409278
 10
13.7941481441
 20
8.3144357739
 10
13.752273233
 20
8.3244993136
  0
LINE
  5
597
100
AcDbEntity
  8
0
100
AcDbLine
 62
7
  6
CONTINUOUS
 10
13.8037352199
 20
8.2508419617
 11
13.8406820581
 21
8.2270249564
  0
LWPOLYLINE
  5
598
100
AcDbEntity
  8
0
100
AcDbPolyline
 62
7
  6
CONTINUOUS
 90
3
 70
0
 10
13.8313122696
 20
8.2667634837
 10
13.8724845891
 20
8.2397997453
 10
13.9128907439
 20
8.2050694536
  0
LWPOLYLINE
  5
599
100
AcDbEntity
  8
0
100
AcDbPolyline
 62
7
  6
CONTINUOUS
 90
11
 70
0
 10
13.8864663689
 20
8.2986065277
 10
13.9275618306
 20
8.2717008167
 10
13.9678974121
 20
8.2370552527
 10
14.005625959
 20
8.1961908586
 10
14.0393370116
 20
8.1509055562
 10
14.0689000899
 20
8.1014420984
 10
14.0931218887
 20
8.0495522582
 10
14.1109563055
 20
7.9976198568
 10
14.1220709945
 20
7.9472038164
 10
14.1263589069
 20
7.8986803644
 10
14.1258969223
 20
7.8915109714
  0
LWPOLYLINE
  5
59A
100
AcDbEntity
  8
0
100
AcDbPolyline
 62
7
  6
CONTINUOUS
 90
11
 70
0
 10
13.8588893192
 20
8.2826850057
 10
13.9001171709
 20
8.2556793224
 10
13.9405741724
 20
8.2208878938
 10
13.9783956908
 20
8.1798500365
 10
14.0121312276
 20
8.1344280187
 10
14.041445389
 20
8.0852900081
 10
14.0652826435
 20
8.0342778705
 10
14.0830768486
 20
7.9827651275
 10
14.0943741918
 20
7.9320424205
 10
14.0987747939
 20
7.883199335
 10
14.0984699889
 20
7.8783809173
  0
LWPOLYLINE
  5
59B
100
AcDbEntity
  8
0
100
AcDbPolyline
 62
7
  6
CONTINUOUS
 90
3
 70
0
 10
13.9150063459
 20
8.2786743206
 10
13.8717564338
 20
8.3074909183
 10
13.8284306496
 20
8.3279541185
  0
LINE
  5
59C
100
AcDbEntity
  8
0
100
AcDbLine
 62
7
  6
CONTINUOUS
 10
13.9908899132
 20
8.2519787952
 11
13.9492633333
 21
8.2893831643
  0
LWPOLYLINE
  5
59D
100
AcDbEntity
  8
0
100
AcDbPolyline
 62
7
  6
CONTINUOUS
 90
10
 70
0
 10
13.9691726053
 20
8.2765342724
 10
14.007568239
 20
8.2408466661
 10
14.0433815248
 20
8.1994329412
 10
14.0754468864
 20
8.15367514
 10
14.1033031768
 20
8.1040862111
 10
14.1256601142
 20
8.0527337667
 10
14.1416581253
 20
8.0018925125
 10
14.151126666
 20
7.9527617725
 10
14.1539507649
 20
7.906435326
 10
14.1535681437
 20
7.9022808672
  0
LWPOLYLINE
  5
59E
100
AcDbEntity
  8
0
100
AcDbPolyline
 62
7
  6
CONTINUOUS
 90
12
 70
0
 10
14.1917675875
 20
7.8272013291
 10
14.2040574267
 20
7.8661888565
 10
14.209258109
 20
7.9111432695
 10
14.2071970342
 20
7.9607477927
 10
14.1979122835
 20
8.0135507397
 10
14.1816515148
 20
8.0680076301
 10
14.1588647774
 20
8.1225259982
 10
14.130191455
 20
8.1755115949
 10
14.0964417153
 20
8.2254146407
 10
14.0585730058
 20
8.2707747881
 10
14.017662275
 20
8.3102634905
 10
13.9748747283
 20
8.3427225464
  0
LWPOLYLINE
  5
59F
100
AcDbEntity
  8
0
100
AcDbPolyline
 62
7
  6
CONTINUOUS
 90
12
 70
0
 10
14.0997585698
 20
7.7615729966
 10
14.1156689271
 20
7.796917775
 10
14.1246657831
 20
7.8388600481
 10
14.1264664013
 20
7.8861704299
 10
14.1209968258
 20
7.9374637929
 10
14.1083940269
 20
7.9912394532
 10
14.0890019271
 20
8.0459247094
 10
14.0633614233
 20
8.0999204706
 10
14.0321946939
 20
8.1516476498
 10
13.9963842467
 20
8.199592977
 10
13.9569473152
 20
8.2423529033
 10
13.9150063459
 20
8.2786743206
  0
LWPOLYLINE
  5
5A0
100
AcDbEntity
  8
0
100
AcDbPolyline
 62
7
  6
CONTINUOUS
 90
11
 70
0
 10
14.1242493936
 20
7.7726314295
 10
14.1412027207
 20
7.8068446683
 10
14.1513052242
 20
7.8478312822
 10
14.1542420901
 20
7.8943896117
 10
14.1499063972
 20
7.9451563478
 10
14.1384022189
 20
7.9986460855
 10
14.1200416042
 20
8.0532944187
 10
14.095335524
 20
8.1075033277
 10
14.0649790468
 20
8.1596875415
 10
14.029831173
 20
8.2083205306
 10
13.9908899132
 20
8.2519787952
  0
LWPOLYLINE
  5
5A1
100
AcDbEntity
  8
0
100
AcDbPolyline
 62
7
  6
CONTINUOUS
 90
12
 70
0
 10
14.1485846949
 20
7.7838807553
 10
14.1665683882
 20
7.816937787
 10
14.1777688134
 20
7.8569392519
 10
14.181839303
 20
7.902712072
 10
14.1786400467
 20
7.9529157279
 10
14.168242147
 20
8.0060811508
 10
14.1509255571
 20
8.060653344
 10
14.1271709582
 20
8.1150364967
 10
14.097645814
 20
8.1676402826
 10
14.0631850058
 20
8.2169259995
 10
14.0247666107
 20
8.2614512101
 10
13.9834835251
 20
8.2999115916
  0
LINE
  5
5A2
100
AcDbEntity
  8
0
100
AcDbLine
 62
7
  6
CONTINUOUS
 10
14.1727668652
 20
7.7953243486
 11
14.1917675875
 21
7.8272013291
  0
LINE
  5
5A3
100
AcDbEntity
  8
0
100
AcDbLine
 62
7
  6
CONTINUOUS
 10
14.0774180252
 20
7.7338636889
 11
14.0997585698
 21
7.7615729966
  0
LWPOLYLINE
  5
5A4
100
AcDbEntity
  8
0
100
AcDbPolyline
 62
7
  6
CONTINUOUS
 90
3
 70
0
 10
14.0720284205
 20
7.7283199935
 10
14.1009588161
 20
7.7461967135
 10
14.1242493936
 20
7.7726314295
  0
LINE
  5
5A5
100
AcDbEntity
  8
AXIS_COSMETIC_THREADS
100
AcDbLine
 62
7
  6
CONTINUOUS
 10
13.2331781273
 20
7.3369054364
 11
13.2167470314
 21
7.3274189954
  0
LINE
  5
5A6
100
AcDbEntity
  8
AXIS_COSMETIC_THREADS
100
AcDbLine
 62
7
  6
CONTINUOUS
 10
13.2004883627
 20
7.2842253673
 11
13.1664700826
 21
7.2645850213
  0
LINE
  5
5A7
100
AcDbEntity
  8
0
100
AcDbLine
 62
7
  6
CONTINUOUS
 10
14.7870897697
 20
8.1742639255
 11
14.727847125
 21
8.1400603727
  0
LINE
  5
5A8
100
AcDbEntity
  8
AXIS
100
AcDbLine
 62
7
  6
CONTINUOUS
 10
14.2446680092
 20
7.8559023007
 11
14.7044858952
 21
8.1213766962
  0
LWPOLYLINE
  5
5A9
100
AcDbEntity
  8
0
100
AcDbPolyline
 62
7
  6
CONTINUOUS
 90
3
 70
0
 10
14.1266837824
 20
7.7611503134
 10
14.1476282331
 20
7.7714952818
 10
14.1727668652
 20
7.7953243486
  0
LWPOLYLINE
  5
5AA
100
AcDbEntity
  8
0
100
AcDbPolyline
 62
7
  6
CONTINUOUS
 90
15
 70
0
 10
14.1532413419
 20
7.7768159829
 10
14.170763067
 20
7.7844655815
 10
14.196798405
 20
7.8069654458
 10
14.2168020949
 20
7.8376393713
 10
14.230172065
 20
7.8755848945
 10
14.2364987041
 20
7.9196885854
 10
14.2355767453
 20
7.9686583501
 10
14.2274112214
 20
8.0210609181
 10
14.2122173186
 20
8.0753634249
 10
14.1904141339
 20
8.1299778839
 10
14.1626125155
 20
8.1833072583
 10
14.1295973412
 20
8.2337917945
 10
14.0923047466
 20
8.2799542748
 10
14.051794966
 20
8.3204428749
 10
14.0092215719
 20
8.3540703836
  0
LWPOLYLINE
  5
5AB
100
AcDbEntity
  8
0
100
AcDbPolyline
 62
7
  6
CONTINUOUS
 90
15
 70
0
 10
14.1798878434
 20
7.7923512572
 10
14.1937689481
 20
7.7976528084
 10
14.220681922
 20
7.8188071428
 10
14.241673804
 20
7.8482558658
 10
14.2561138528
 20
7.8851320602
 10
14.2635614113
 20
7.9283533197
 10
14.2637786921
 20
7.976653152
 10
14.2567376758
 20
8.0286177229
 10
14.242620924
 20
8.0827268753
 10
14.2218162827
 20
8.1373982324
 10
14.1949056301
 20
8.1910331065
 10
14.1626479949
 20
8.2420628808
 10
14.1259575345
 20
8.2889945188
 10
14.0858770138
 20
8.3304538811
 10
14.0435475515
 20
8.3652255923
  0
LWPOLYLINE
  5
5AC
100
AcDbEntity
  8
0
100
AcDbPolyline
 62
7
  6
CONTINUOUS
 90
4
 70
0
 10
13.6844828846
 20
8.293894647
 10
13.6461820725
 20
8.2916810593
 10
13.6118742803
 20
8.2801434922
 10
13.5927743127
 20
8.2667731527
  0
LWPOLYLINE
  5
5AD
100
AcDbEntity
  8
0
100
AcDbPolyline
 62
7
  6
CONTINUOUS
 90
4
 70
0
 10
13.7183446266
 20
8.3093118208
 10
13.6795150692
 20
8.3085687803
 10
13.6445149354
 20
8.2984756904
 10
13.6198922382
 20
8.2828398979
  0
LWPOLYLINE
  5
5AE
100
AcDbEntity
  8
0
100
AcDbPolyline
 62
7
  6
CONTINUOUS
 90
5
 70
0
 10
13.6573960939
 20
8.2581308033
 10
13.6169775082
 20
8.262369791
 10
13.5798140024
 20
8.2572199603
 10
13.5469620657
 20
8.2428181829
 10
13.5381291356
 20
8.2353803184
  0
LWPOLYLINE
  5
5AF
100
AcDbEntity
  8
0
100
AcDbPolyline
 62
7
  6
CONTINUOUS
 90
5
 70
0
 10
13.691518132
 20
8.272544669
 10
13.6506923983
 20
8.2782473848
 10
13.6129470686
 20
8.2745645184
 10
13.579355512
 20
8.2615903812
 10
13.5655235734
 20
8.2509552588
  0
LINE
  5
5B0
100
AcDbEntity
  8
0
100
AcDbLine
 62
7
  6
CONTINUOUS
 10
13.8284306496
 20
8.3279541185
 11
13.7862642649
 21
8.3394576962
  0
LWPOLYLINE
  5
5B1
100
AcDbEntity
  8
0
100
AcDbPolyline
 62
7
  6
CONTINUOUS
 90
3
 70
0
 10
13.906137407
 20
8.319435908
 10
13.8627416079
 20
8.3412525849
 10
13.820313239
 20
8.3541877024
  0
LWPOLYLINE
  5
5B2
100
AcDbEntity
  8
0
100
AcDbPolyline
 62
7
  6
CONTINUOUS
 90
3
 70
0
 10
13.9405117572
 20
8.3311787762
 10
13.8970763079
 20
8.3543330889
 10
13.8544156307
 20
8.3686902287
  0
LWPOLYLINE
  5
5B3
100
AcDbEntity
  8
0
100
AcDbPolyline
 62
7
  6
CONTINUOUS
 90
3
 70
0
 10
13.9748747283
 20
8.3427225464
 10
13.9314300217
 20
8.3671977013
 10
13.8885668773
 20
8.3829663336
  0
LWPOLYLINE
  5
5B4
100
AcDbEntity
  8
0
100
AcDbPolyline
 62
7
  6
CONTINUOUS
 90
4
 70
0
 10
13.9140434185
 20
8.3145280498
 10
13.9325686943
 20
8.3034081428
 10
13.950979173
 20
8.2907191822
 10
13.9691726053
 20
8.2765342724
  0
LINE
  5
5B5
100
AcDbEntity
  8
0
100
AcDbLine
 62
7
  6
CONTINUOUS
 10
13.9416204682
 20
8.3304495718
 11
13.9826604093
 21
8.3035857603
  0
LWPOLYLINE
  5
5B6
100
AcDbEntity
  8
0
100
AcDbPolyline
 62
7
  6
CONTINUOUS
 90
11
 70
0
 10
13.9741122135
 20
8.3431521193
 10
14.0103984
 20
8.3193857831
 10
14.0508307293
 20
8.284624031
 10
14.0886325355
 20
8.2436224709
 10
14.1223243082
 20
8.1982866619
 10
14.1515104378
 20
8.1494340648
 10
14.1755818728
 20
8.0979860529
 10
14.1934737455
 20
8.0461393069
 10
14.2047267776
 20
7.9954478917
 10
14.209086801
 20
7.9466528197
 10
14.208295889
 20
7.934301315
  0
LINE
  5
5B7
100
AcDbEntity
  8
0
100
AcDbLine
 62
7
  6
CONTINUOUS
 10
13.9492633333
 20
8.2893831643
 11
13.906137407
 21
8.319435908
  0
LINE
  5
5B8
100
AcDbEntity
  8
0
100
AcDbLine
 62
7
  6
CONTINUOUS
 10
13.9834835251
 20
8.2999115916
 11
13.9405117572
 21
8.3311787762
  0
LWPOLYLINE
  5
5B9
100
AcDbEntity
  8
0
100
AcDbPolyline
 62
7
  6
CONTINUOUS
 90
10
 70
0
 10
13.9826604093
 20
8.3035857603
 10
14.0227302683
 20
8.2692089223
 10
14.0600646067
 20
8.2288962268
 10
14.0937912448
 20
8.1837928874
 10
14.1235086012
 20
8.1343102032
 10
14.1478893361
 20
8.0823487615
 10
14.1658733025
 20
8.030300127
 10
14.1771228061
 20
7.9796967267
 10
14.1815028864
 20
7.9311432482
 10
14.1807763585
 20
7.919392105
  0
LINE
  5
5BA
100
AcDbEntity
  8
0
100
AcDbLine
 62
7
  6
CONTINUOUS
 10
14.0345577819
 20
8.404519195
 11
14.0447639467
 21
8.3899991314
  0
LINE
  5
5BB
100
AcDbEntity
  8
AXIS
100
AcDbLine
 62
7
  6
CONTINUOUS
 10
14.7256687848
 20
8.1372555991
 11
14.7044670891
 21
8.1213716683
  0
LWPOLYLINE
  5
5BC
100
AcDbEntity
  8
0
100
AcDbPolyline
 62
7
  6
CONTINUOUS
 90
3
 70
0
 10
13.2163233386
 20
7.2350471376
 10
13.2420868807
 20
7.2493989097
 10
13.266268667
 20
7.2745986676
  0
LWPOLYLINE
  5
5BD
100
AcDbEntity
  8
0
100
AcDbPolyline
 62
7
  6
CONTINUOUS
 90
3
 70
0
 10
14.0946224025
 20
7.7422567402
 10
14.1243612001
 20
7.7587397599
 10
14.1485846949
 20
7.7838807553
  0
LWPOLYLINE
  5
5BE
100
AcDbEntity
  8
0
100
AcDbPolyline
 62
7
  6
CONTINUOUS
 90
3
 70
0
 10
13.5742367219
 20
7.4418472163
 10
13.599661508
 20
7.455668077
 10
13.6240445495
 20
7.4805834736
  0
LWPOLYLINE
  5
5BF
100
AcDbEntity
  8
0
100
AcDbPolyline
 62
7
  6
CONTINUOUS
 90
3
 70
0
 10
13.9343117997
 20
7.6497941402
 10
13.9572297255
 20
7.6619473661
 10
13.9818131715
 20
7.6865775435
  0
LWPOLYLINE
  5
5C0
100
AcDbEntity
  8
0
100
AcDbPolyline
 62
7
  6
CONTINUOUS
 90
3
 70
0
 10
13.4101546649
 20
7.3472629974
 10
13.4325209409
 20
7.3588900949
 10
13.4572627188
 20
7.3832934601
  0
LWPOLYLINE
  5
5C1
100
AcDbEntity
  8
0
100
AcDbPolyline
 62
7
  6
CONTINUOUS
 90
3
 70
0
 10
13.768416915
 20
7.5542095783
 10
13.7900777463
 20
7.565187594
 10
13.8150183862
 20
7.5893042256
  0
LWPOLYLINE
  5
5C2
100
AcDbEntity
  8
0
100
AcDbPolyline
 62
7
  6
CONTINUOUS
 90
3
 70
0
 10
13.2442663927
 20
7.2516701718
 10
13.2653599525
 20
7.2621447955
 10
13.2904576924
 20
7.2860334262
  0
LWPOLYLINE
  5
5C3
100
AcDbEntity
  8
0
100
AcDbPolyline
 62
7
  6
CONTINUOUS
 90
3
 70
0
 10
13.602536875
 20
7.4586062218
 10
13.6229054514
 20
7.4684605805
 10
13.6482004891
 20
7.4920609942
  0
LWPOLYLINE
  5
5C4
100
AcDbEntity
  8
0
100
AcDbPolyline
 62
7
  6
CONTINUOUS
 90
4
 70
0
 10
13.9608118549
 20
7.6655363049
 10
13.9804446911
 20
7.6747865956
 10
14.0059361449
 20
7.6980979788
 10
14.0253307187
 20
7.7295072838
  0
LWPOLYLINE
  5
5C5
100
AcDbEntity
  8
AXIS_COSMETIC_THREADS
100
AcDbPolyline
 62
7
  6
CONTINUOUS
 90
7
 70
0
 10
13.1664754325
 20
7.2645896956
 10
13.1501800459
 20
7.2570176242
 10
13.1263329325
 20
7.2513550719
 10
13.1004171349
 20
7.2508162437
 10
13.0729151529
 20
7.2554111717
 10
13.0443390179
 20
7.2650543076
 10
13.0152207597
 20
7.2795661157
  0
LWPOLYLINE
  5
5C6
100
AcDbEntity
  8
0
100
AcDbPolyline
 62
7
  6
CONTINUOUS
 90
4
 70
0
 10
13.436671295
 20
7.3629836813
 10
13.4557130319
 20
7.3717664588
 10
13.4813596327
 20
7.3948480389
 10
13.5009277132
 20
7.4260493789
  0
LWPOLYLINE
  5
5C7
100
AcDbEntity
  8
0
100
AcDbPolyline
 62
7
  6
CONTINUOUS
 90
4
 70
0
 10
13.794954167
 20
7.5699029037
 10
13.8132411321
 20
7.5781108739
 10
13.8390825515
 20
7.6009019892
 10
13.8588687843
 20
7.6318401529
  0
LINE
  5
5C8
100
AcDbEntity
  8
0
100
AcDbLine
 62
7
  6
CONTINUOUS
 10
13.1829270542
 20
7.2700449565
 11
13.1624725096
 21
7.2610378835
  0
LWPOLYLINE
  5
5C9
100
AcDbEntity
  8
0
100
AcDbPolyline
 62
7
  6
CONTINUOUS
 90
4
 70
0
 10
13.6291103131
 20
7.4742497517
 10
13.6460177505
 20
7.4814682445
 10
13.6722062415
 20
7.5037365642
 10
13.6923818982
 20
7.5342001722
  0
LWPOLYLINE
  5
5CA
100
AcDbEntity
  8
0
100
AcDbPolyline
 62
7
  6
CONTINUOUS
 90
4
 70
0
 10
13.987405022
 20
7.6811516677
 10
14.0035287158
 20
7.6878414615
 10
14.0299094948
 20
7.7098171453
 10
14.0503013438
 20
7.7400146332
  0
LWPOLYLINE
  5
5CB
100
AcDbEntity
  8
0
100
AcDbPolyline
 62
7
  6
CONTINUOUS
 90
4
 70
0
 10
13.821581878
 20
7.5854670837
 10
13.8362748493
 20
7.5912506255
 10
13.8629981165
 20
7.6126996897
 10
13.8837758235
 20
7.6424174062
  0
LWPOLYLINE
  5
5CC
100
AcDbEntity
  8
0
100
AcDbPolyline
 62
7
  6
CONTINUOUS
 90
4
 70
0
 10
13.655771471
 20
7.4897619247
 10
13.6690016675
 20
7.4946931918
 10
13.6960644328
 20
7.5156132549
 10
13.7172256549
 20
7.5448479184
  0
LWPOLYLINE
  5
5CD
100
AcDbEntity
  8
0
100
AcDbPolyline
 62
7
  6
CONTINUOUS
 90
4
 70
0
 10
14.0140843446
 20
7.6966344983
 10
14.026485082
 20
7.7011140531
 10
14.0537358703
 20
7.7217380831
 10
14.0751099426
 20
7.7507019458
  0
LWPOLYLINE
  5
5CE
100
AcDbEntity
  8
0
100
AcDbPolyline
 62
7
  6
CONTINUOUS
 90
4
 70
0
 10
13.8482928745
 20
7.6008967287
 10
13.8591822162
 20
7.6046088774
 10
13.8867677714
 20
7.6247003113
 10
13.9085216261
 20
7.6531761141
  0
LWPOLYLINE
  5
5CF
100
AcDbEntity
  8
0
100
AcDbPolyline
 62
7
  6
CONTINUOUS
 90
3
 70
0
 10
14.0408423202
 20
7.7119799447
 10
14.049317163
 20
7.7146063045
 10
14.0774180252
 20
7.7338636889
  0
LWPOLYLINE
  5
5D0
100
AcDbEntity
  8
0
100
AcDbPolyline
 62
7
  6
CONTINUOUS
 90
4
 70
0
 10
13.8750794489
 20
7.6161873357
 10
13.881966641
 20
7.618187503
 10
13.9103943105
 20
7.6369066937
 10
13.9331082913
 20
7.6641200005
  0
LINE
  5
5D1
100
AcDbEntity
  8
0
100
AcDbLine
 62
7
  6
CONTINUOUS
 10
13.8475071446
 20
8.3895584191
 11
13.8094203518
 21
8.3867701678
  0
LWPOLYLINE
  5
5D2
100
AcDbEntity
  8
0
100
AcDbPolyline
 62
7
  6
CONTINUOUS
 90
3
 70
0
 10
13.8813415474
 20
8.4050655128
 10
13.8427155098
 20
8.4037474374
 10
13.8079831893
 20
8.3930887137
  0
LWPOLYLINE
  5
5D3
100
AcDbEntity
  8
0
100
AcDbPolyline
 62
7
  6
CONTINUOUS
 90
4
 70
0
 10
13.752273233
 20
8.3244993136
 10
13.7129420438
 20
8.3252270417
 10
13.6772739554
 20
8.3165853074
 10
13.6468888505
 20
8.2991602632
  0
LWPOLYLINE
  5
5D4
100
AcDbEntity
  8
0
100
AcDbPolyline
 62
7
  6
CONTINUOUS
 90
5
 70
0
 10
13.7862642649
 20
8.3394576962
 10
13.7464589146
 20
8.341655367
 10
13.7101477342
 20
8.3344708335
 10
13.6783624844
 20
8.3180999994
 10
13.6760103284
 20
8.3158606511
  0
LWPOLYLINE
  5
5D5
100
AcDbEntity
  8
0
100
AcDbPolyline
 62
7
  6
CONTINUOUS
 90
5
 70
0
 10
13.820313239
 20
8.3541877024
 10
13.7800615359
 20
8.3578534435
 10
13.7431325838
 20
8.3521309185
 10
13.7105760668
 20
8.3371736147
 10
13.7036215161
 20
8.3311095375
  0
LWPOLYLINE
  5
5D6
100
AcDbEntity
  8
0
100
AcDbPolyline
 62
7
  6
CONTINUOUS
 90
5
 70
0
 10
13.8544156307
 20
8.3686902287
 10
13.8137457009
 20
8.3738211224
 10
13.7762247375
 20
8.3695643727
 10
13.7429196003
 20
8.356030941
 10
13.7310749565
 20
8.3465913335
  0
LINE
  5
5D7
100
AcDbEntity
  8
0
100
AcDbLine
 62
7
  6
CONTINUOUS
 10
13.8885668773
 20
8.3829663336
 11
13.8475071446
 21
8.3895584191
  0
LWPOLYLINE
  5
5D8
100
AcDbEntity
  8
0
100
AcDbPolyline
 62
7
  6
CONTINUOUS
 90
5
 70
0
 10
13.9569975143
 20
8.4108443182
 10
13.9152445372
 20
8.4203427468
 10
13.8761062235
 20
8.4204954781
 10
13.840696356
 20
8.4112855434
 10
13.8125917706
 20
8.3945030043
  0
LWPOLYLINE
  5
5D9
100
AcDbEntity
  8
0
100
AcDbPolyline
 62
7
  6
CONTINUOUS
 90
7
 70
0
 10
14.0345577819
 20
8.404519195
 10
13.9912676185
 20
8.4244491173
 10
13.9492116936
 20
8.435390628
 10
13.909588437
 20
8.4370137494
 10
13.8735257013
 20
8.4292588536
 10
13.8420480394
 20
8.4123383916
 10
13.8410804535
 20
8.4113854453
  0
LWPOLYLINE
  5
5DA
100
AcDbEntity
  8
0
100
AcDbPolyline
 62
7
  6
CONTINUOUS
 90
4
 70
0
 10
14.0092215719
 20
8.3540703836
 10
13.9657980075
 20
8.3798486469
 10
13.9227623815
 20
8.3970172368
 10
13.8813415474
 20
8.4050655128
  0
LWPOLYLINE
  5
5DB
100
AcDbEntity
  8
0
100
AcDbPolyline
 62
7
  6
CONTINUOUS
 90
3
 70
0
 10
14.0435475515
 20
8.3652255923
 10
14.0001755138
 20
8.3922883024
 10
13.9569975143
 20
8.4108443182
  0
LWPOLYLINE
  5
5DC
100
AcDbEntity
  8
0
100
AcDbPolyline
 62
7
  6
CONTINUOUS
 90
11
 70
0
 10
13.9967745675
 20
8.3622926158
 10
14.0379833695
 20
8.3353013229
 10
14.0784229042
 20
8.3005308958
 10
14.1162310787
 20
8.2595179871
 10
14.1499640585
 20
8.2141142162
 10
14.1793196078
 20
8.1649184139
 10
14.2032066847
 20
8.1137898878
 10
14.2209633219
 20
8.062368435
 10
14.2322561896
 20
8.0116705283
 10
14.2366593515
 20
7.9628480148
 10
14.2359098582
 20
7.9509650884
  0
LWPOLYLINE
  5
5DD
100
AcDbEntity
  8
0
100
AcDbPolyline
 62
7
  6
CONTINUOUS
 90
4
 70
0
 10
13.2708197768
 20
7.2673415872
 10
13.2885006811
 20
7.2751053585
 10
13.3144959721
 20
7.2976655457
 10
13.3344547283
 20
7.3283942278
  0
LWPOLYLINE
  5
5DE
100
AcDbEntity
  8
0
100
AcDbPolyline
 62
7
  6
CONTINUOUS
 90
4
 70
0
 10
13.4632798743
 20
7.3785765105
 10
13.478774743
 20
7.3848588314
 10
13.5053073736
 20
7.4066018847
 10
13.5258701768
 20
7.4365875741
  0
LWPOLYLINE
  5
5DF
100
AcDbEntity
  8
0
100
AcDbPolyline
 62
7
  6
CONTINUOUS
 90
4
 70
0
 10
13.2974624188
 20
7.2828828626
 10
13.3115123084
 20
7.2882827551
 10
13.3383861092
 20
7.3094981284
 10
13.3593337393
 20
7.3390025885
  0
LWPOLYLINE
  5
5E0
100
AcDbEntity
  8
0
100
AcDbPolyline
 62
7
  6
CONTINUOUS
 90
4
 70
0
 10
13.4899733498
 20
7.3940359051
 10
13.5017093725
 20
7.3981692754
 10
13.5291086088
 20
7.4185580132
 10
13.5506509612
 20
7.4473063947
  0
LWPOLYLINE
  5
5E1
100
AcDbEntity
  8
0
100
AcDbPolyline
 62
7
  6
CONTINUOUS
 90
4
 70
0
 10
13.3241870509
 20
7.2982887604
 10
13.3343981684
 20
7.3016789872
 10
13.3621308121
 20
7.3215341336
 10
13.3840518686
 20
7.349793057
  0
LWPOLYLINE
  5
5E2
100
AcDbEntity
  8
0
100
AcDbPolyline
 62
7
  6
CONTINUOUS
 90
4
 70
0
 10
13.6825129629
 20
7.5051376955
 10
13.6918605562
 20
7.5081373905
 10
13.7197777943
 20
7.5276939942
 10
13.7419089822
 20
7.5556785908
  0
LWPOLYLINE
  5
5E3
100
AcDbEntity
  8
0
100
AcDbPolyline
 62
7
  6
CONTINUOUS
 90
4
 70
0
 10
13.5167441279
 20
7.409357167
 10
13.5245203092
 20
7.4116996977
 10
13.5527661102
 20
7.4307192958
 10
13.5752721409
 20
7.458209593
  0
LWPOLYLINE
  5
5E4
100
AcDbEntity
  8
0
100
AcDbPolyline
 62
7
  6
CONTINUOUS
 90
6
 70
0
 10
14.8537188319
 20
8.303024107
 10
14.848926805
 20
8.2686354022
 10
14.8396391454
 20
8.237995784
 10
14.826041958
 20
8.2117192709
 10
14.8084077217
 20
8.1903324622
 10
14.7870897697
 20
8.1742639255
  0
LWPOLYLINE
  5
5E5
100
AcDbEntity
  8
AXIS
100
AcDbPolyline
 62
7
  6
CONTINUOUS
 90
6
 70
0
 10
14.5397366327
 20
8.6757700391
 10
14.4969243448
 20
8.6959062904
 10
14.455569978
 20
8.7061950748
 10
14.4170818057
 20
8.7062860202
 10
14.3827704964
 20
8.6961760294
 10
14.3750061764
 20
8.6920933169
  0
LWPOLYLINE
  5
5E6
100
AcDbEntity
  8
AXIS
100
AcDbPolyline
 62
7
  6
CONTINUOUS
 90
13
 70
0
 10
14.5397366327
 20
8.6757700391
 10
14.5825489206
 20
8.6464720368
 10
14.6239032874
 20
8.6090099919
 10
14.6623914597
 20
8.5646596294
 10
14.696702769
 20
8.5149312476
 10
14.7256687848
 20
8.461518287
 10
14.7483031041
 20
8.4062396619
 10
14.7638349424
 20
8.3509778196
 10
14.7717353816
 20
8.2976146357
 10
14.7717353816
 20
8.2479673296
 10
14.7638349424
 20
8.2037265808
 10
14.7483031041
 20
8.1663989547
 10
14.7256687848
 20
8.1372555991
  0
LINE
  5
5E7
100
AcDbEntity
  8
0
100
AcDbLine
 62
7
  6
CONTINUOUS
 10
14.8207315572
 20
8.3730071784
 11
14.8537188319
 21
8.3438492279
  0
LWPOLYLINE
  5
5E8
100
AcDbEntity
  8
0
100
AcDbPolyline
 62
7
  6
CONTINUOUS
 90
4
 70
0
 10
14.6510252232
 20
8.6669455396
 10
14.6568162422
 20
8.6440763589
 10
14.6651106439
 20
8.6199546869
 10
14.6696830475
 20
8.6091180449
  0
LINE
  5
5E9
100
AcDbEntity
  8
0
100
AcDbLine
 62
7
  6
CONTINUOUS
 10
14.6422668363
 20
8.7100927945
 11
14.6510252232
 21
8.6669455396
  0
LWPOLYLINE
  5
5EA
100
AcDbEntity
  8
0
100
AcDbPolyline
 62
7
  6
CONTINUOUS
 90
3
 70
0
 10
14.8537188319
 20
8.3438492279
 10
14.8543997539
 20
8.3230435459
 10
14.8537188319
 20
8.303024107
  0
LWPOLYLINE
  5
5EB
100
AcDbEntity
  8
0
100
AcDbPolyline
 62
7
  6
CONTINUOUS
 90
4
 70
0
 10
14.6422668363
 20
8.7100927945
 10
14.6304868939
 20
8.7175926547
 10
14.6186912925
 20
8.7244026943
 10
14.6069113501
 20
8.7305048322
  0
LWPOLYLINE
  5
5EC
100
AcDbEntity
  8
0
100
AcDbPolyline
 62
7
  6
CONTINUOUS
 90
4
 70
0
 10
14.7799797463
 20
8.4180793175
 10
14.787079087
 20
8.4087003191
 10
14.803821837
 20
8.3894566131
 10
14.8207315572
 20
8.3730071784
  0
LWPOLYLINE
  5
5ED
100
AcDbEntity
  8
AXIS
100
AcDbPolyline
 62
7
  6
CONTINUOUS
 90
5
 70
0
 10
15.157425927
 20
8.6682325563
 10
15.1550321638
 20
8.646850253
 10
15.147989991
 20
8.6294746286
 10
15.1367086742
 20
8.6171154912
 10
15.1333076691
 20
8.614912449
  0
LWPOLYLINE
  5
5EE
100
AcDbEntity
  8
0
100
AcDbPolyline
 62
7
  6
CONTINUOUS
 90
18
 70
0
 10
8.1935945018
 20
8.625772394
 10
8.1721430148
 20
8.5695223962
 10
8.160518786
 20
8.5104537425
 10
8.1590570488
 20
8.4502699251
 10
8.1677999585
 20
8.3907065968
 10
8.1864953767
 20
8.3334815159
 10
8.2146041426
 20
8.2802450075
 10
8.251315622
 20
8.2325323695
 10
8.2955710856
 20
8.1917195958
 10
8.3460942415
 20
8.158983694
 10
8.4014280426
 20
8.135268741
 10
8.4599767069
 20
8.1212586569
 10
8.5200517382
 20
8.1173574812
 10
8.5799206209
 20
8.1236777206
 10
8.6378567849
 20
8.1400371047
 10
8.6921893981
 20
8.1659638418
 10
8.7413515516
 20
8.200710226
 10
8.7839254487
 20
8.2432741994
  0
LWPOLYLINE
  5
5EF
100
AcDbEntity
  8
0
100
AcDbPolyline
 62
7
  6
CONTINUOUS
 90
15
 70
0
 10
8.2275481621
 20
8.307035405
 10
8.2023943648
 20
8.3562697866
 10
8.185754992
 20
8.4091281549
 10
8.1780906183
 20
8.4644425742
 10
8.1797856732
 20
8.5207582647
 10
8.1908408396
 20
8.5759622748
 10
8.2109859563
 20
8.6287526089
 10
8.2398782691
 20
8.6778836513
 10
8.2765054504
 20
8.7215068524
 10
8.3197456478
 20
8.758417748
 10
8.3687071623
 20
8.787862537
 10
8.4221932452
 20
8.8089890878
 10
8.4785592381
 20
8.8210638605
 10
8.5365870043
 20
8.8237284712
 10
8.5940627889
 20
8.8168700687
  0
LINE
  5
5F0
100
AcDbEntity
  8
AXIS_COSMETIC_THREADS
100
AcDbLine
 62
7
  6
CONTINUOUS
 10
8.2279035327
 20
8.370388906
 11
8.2279035327
 21
8.5731819039
  0
LINE
  5
5F1
100
AcDbEntity
  8
AXIS
100
AcDbLine
 62
7
  6
CENTER
 10
8.5129035327
 20
8.471785405
 11
8.5129035327
 21
8.042285405
  0
LINE
  5
5F2
100
AcDbEntity
  8
AXIS
100
AcDbLine
 62
7
  6
CENTER
 10
8.5129035327
 20
8.471785405
 11
8.5129035327
 21
8.901285405
  0
LINE
  5
5F3
100
AcDbEntity
  8
AXIS
100
AcDbLine
 62
7
  6
CENTER
 10
8.5129035327
 20
8.471785405
 11
8.0834035327
 21
8.471785405
  0
LINE
  5
5F4
100
AcDbEntity
  8
AXIS
100
AcDbLine
 62
7
  6
CENTER
 10
8.5129035327
 20
8.471785405
 11
8.9424035327
 21
8.471785405
  0
LINE
  5
5F5
100
AcDbEntity
  8
AXIS_COSMETIC_THREADS
100
AcDbLine
 62
7
  6
CONTINUOUS
 10
8.7979035327
 20
8.5731819039
 11
8.7979035327
 21
8.370388906
  0
LWPOLYLINE
  5
5F6
100
AcDbEntity
  8
0
100
AcDbPolyline
 62
7
  6
CONTINUOUS
 90
11
 70
0
 10
8.8446226949
 20
8.3467548192
 10
8.8609955846
 20
8.4046871679
 10
8.8673297804
 20
8.4645545757
 10
8.8634426095
 20
8.5246305147
 10
8.8494461746
 20
8.5831824434
 10
8.8257441216
 20
8.6385217715
 10
8.7930199986
 20
8.6890525574
 10
8.7522175428
 20
8.733317534
 10
8.7045134643
 20
8.7700401352
 10
8.65128351
 20
8.7981613107
 10
8.5940627889
 20
8.8168700687
  0
LINE
  5
5F7
100
AcDbEntity
  8
0
100
AcDbLine
 62
7
  6
CONTINUOUS
 10
8.8186832925
 20
8.2924282515
 11
8.8446226949
 21
8.3467548192
  0
LINE
  5
5F8
100
AcDbEntity
  8
0
100
AcDbLine
 62
7
  6
CONTINUOUS
 10
8.7839254487
 20
8.2432741994
 11
8.8186832925
 21
8.2924282515
  0
LWPOLYLINE
  5
5F9
100
AcDbEntity
  8
0
100
AcDbPolyline
 62
7
  6
CONTINUOUS
 90
9
 70
0
 10
8.5877259181
 20
8.8176262273
 10
8.5372497637
 20
8.8254483957
 10
8.4770561765
 20
8.8244682895
 10
8.4178963981
 20
8.8133170936
 10
8.3614765487
 20
8.7923163996
 10
8.3094237314
 20
8.7620718505
 10
8.2632391072
 20
8.7234556746
 10
8.2242546035
 20
8.6775815314
 10
8.1935945018
 20
8.625772394
  0
LWPOLYLINE
  5
5FA
100
AcDbEntity
  8
0
100
AcDbPolyline
 62
7
  6
CONTINUOUS
 90
16
 70
0
 10
8.5940627889
 20
8.8168700687
 10
8.6469877783
 20
8.7981035675
 10
8.696018586
 20
8.7713336461
 10
8.7400553641
 20
8.7372361177
 10
8.7780819501
 20
8.6966080224
 10
8.8092722803
 20
8.6501869751
 10
8.8323509294
 20
8.5999471904
 10
8.8470197626
 20
8.5469935307
 10
8.8530548703
 20
8.4913501066
 10
8.849659058
 20
8.4338197151
 10
8.8371687858
 20
8.3795879913
 10
8.8179019307
 20
8.3320670735
 10
8.7936774424
 20
8.2909938239
 10
8.765239161
 20
8.2553025896
 10
8.7324148473
 20
8.2240396968
 10
8.6949137032
 20
8.1971173365
  0
LINE
  5
5FB
100
AcDbEntity
  8
0
100
AcDbLine
 62
7
  6
CONTINUOUS
 10
8.1835787829
 20
6.405577425
 11
8.1585664416
 21
6.3911294001
  0
LWPOLYLINE
  5
5FC
100
AcDbEntity
  8
0
100
AcDbPolyline
 62
7
  6
CONTINUOUS
 90
20
 70
0
 10
8.1585664416
 20
6.3911294001
 10
8.1590570488
 20
6.3913181693
 10
8.1677999585
 20
6.3923735267
 10
8.1864953767
 20
6.393428884
 10
8.2146041426
 20
6.3944842414
 10
8.251315622
 20
6.3955395987
 10
8.2955710856
 20
6.3965949561
 10
8.3460942415
 20
6.3976503134
 10
8.4014280426
 20
6.3987056707
 10
8.4599767069
 20
6.3997610281
 10
8.5200517382
 20
6.4008163854
 10
8.5799206209
 20
6.4018717428
 10
8.6378567849
 20
6.4029271001
 10
8.6921893981
 20
6.4039824574
 10
8.7413515516
 20
6.4050378148
 10
8.7839254487
 20
6.4060931721
 10
8.8186832925
 20
6.4071485295
 10
8.8446226949
 20
6.4082038868
 10
8.8609955846
 20
6.4092592441
 10
8.8672406238
 20
6.4102530338
  0
LINE
  5
5FD
100
AcDbEntity
  8
AXIS
100
AcDbLine
 62
7
  6
CONTINUOUS
 10
8.6294035327
 20
3.5057102161
 11
8.3964035327
 21
3.5057102161
  0
LINE
  5
5FE
100
AcDbEntity
  8
0
100
AcDbLine
 62
7
  6
CONTINUOUS
 10
8.1835787829
 20
6.366577425
 11
8.1585664416
 21
6.3521294001
  0
LINE
  5
5FF
100
AcDbEntity
  8
0
100
AcDbLine
 62
7
  6
CONTINUOUS
 10
8.1835787829
 20
6.327577425
 11
8.1585664416
 21
6.3131294001
  0
LINE
  5
600
100
AcDbEntity
  8
0
100
AcDbLine
 62
7
  6
CONTINUOUS
 10
8.1835787829
 20
6.288577425
 11
8.1585664416
 21
6.2741294001
  0
LWPOLYLINE
  5
601
100
AcDbEntity
  8
0
100
AcDbPolyline
 62
7
  6
CONTINUOUS
 90
10
 70
0
 10
8.1834035327
 20
6.3375074388
 10
8.1845142348
 20
6.3380172521
 10
8.1933958403
 20
6.3390399889
 10
8.2109139773
 20
6.3400618657
 10
8.2370401777
 20
6.3410989799
 10
8.2710162392
 20
6.3421407072
 10
8.3113735464
 20
6.3431725358
 10
8.3567895602
 20
6.3441937254
 10
8.406562342
 20
6.345217716
 10
8.4589905742
 20
6.3462372737
  0
LWPOLYLINE
  5
602
100
AcDbEntity
  8
0
100
AcDbPolyline
 62
7
  6
CONTINUOUS
 90
3
 70
0
 10
8.1834035327
 20
6.4155075057
 10
8.1836895563
 20
6.4157661054
 10
8.1902366118
 20
6.4167737516
  0
LINE
  5
603
100
AcDbEntity
  8
0
100
AcDbLine
 62
7
  6
CONTINUOUS
 10
8.1835787829
 20
6.249577425
 11
8.1585664416
 21
6.2351294001
  0
LINE
  5
604
100
AcDbEntity
  8
0
100
AcDbLine
 62
7
  6
CONTINUOUS
 10
8.1835787829
 20
6.210577425
 11
8.1585664416
 21
6.1961294001
  0
LINE
  5
605
100
AcDbEntity
  8
0
100
AcDbLine
 62
7
  6
CONTINUOUS
 10
8.1835787829
 20
6.171577425
 11
8.1585664416
 21
6.1571294001
  0
LWPOLYLINE
  5
606
100
AcDbEntity
  8
0
100
AcDbPolyline
 62
7
  6
CONTINUOUS
 90
11
 70
0
 10
8.1834035329
 20
6.142507239
 10
8.1845169708
 20
6.1430178799
 10
8.1934226177
 20
6.1440420514
 10
8.2109580518
 20
6.1450639405
 10
8.2370962488
 20
6.1461009109
 10
8.2710796312
 20
6.1471424656
 10
8.3114397296
 20
6.1481741115
 10
8.3568303561
 20
6.149194598
 10
8.4064798141
 20
6.1502160734
 10
8.4589518304
 20
6.1512365338
 10
8.5701195131
 20
6.1533407726
  0
LWPOLYLINE
  5
607
100
AcDbEntity
  8
0
100
AcDbPolyline
 62
7
  6
CONTINUOUS
 90
20
 70
0
 10
8.1585664416
 20
6.1571294001
 10
8.1596066141
 20
6.1574527362
 10
8.1696839927
 20
6.1585112668
 10
8.1897190128
 20
6.1595697973
 10
8.2191304094
 20
6.1606283278
 10
8.2570648856
 20
6.1616868583
 10
8.3024218691
 20
6.1627453888
 10
8.3538854424
 20
6.1638039193
 10
8.409962521
 20
6.1648624498
 10
8.469026171
 20
6.1659209803
 10
8.5293628111
 20
6.1669795108
 10
8.5892219271
 20
6.1680380413
 10
8.6468668591
 20
6.1690965719
 10
8.700625186
 20
6.1701551024
 10
8.7489372469
 20
6.1712136329
 10
8.7904013902
 20
6.1722721634
 10
8.8238146393
 20
6.1733306939
 10
8.8482075939
 20
6.1743892244
 10
8.8628725544
 20
6.1754477549
 10
8.8672406238
 20
6.1762530338
  0
LINE
  5
608
100
AcDbEntity
  8
0
100
AcDbLine
 62
7
  6
CONTINUOUS
 10
8.1835787829
 20
6.132577425
 11
8.1585664416
 21
6.1181294001
  0
LINE
  5
609
100
AcDbEntity
  8
0
100
AcDbLine
 62
7
  6
CONTINUOUS
 10
8.1835787829
 20
6.093577425
 11
8.1585664416
 21
6.0791294001
  0
LINE
  5
60A
100
AcDbEntity
  8
0
100
AcDbLine
 62
7
  6
CONTINUOUS
 10
8.1835787829
 20
6.054577425
 11
8.1585664416
 21
6.0401294001
  0
LWPOLYLINE
  5
60B
100
AcDbEntity
  8
0
100
AcDbPolyline
 62
7
  6
CONTINUOUS
 90
20
 70
0
 10
8.1585664416
 20
6.1181294001
 10
8.1589538097
 20
6.1182871074
 10
8.1674391485
 20
6.1193456379
 10
8.1859472573
 20
6.1204041684
 10
8.2139411703
 20
6.1214626989
 10
8.2506087156
 20
6.1225212294
 10
8.2948860775
 20
6.1235797599
 10
8.3454886611
 20
6.1246382904
 10
8.4009483611
 20
6.1256968209
 10
8.4596561555
 20
6.1267553514
 10
8.5199087872
 20
6.1278138819
 10
8.5799581791
 20
6.1288724125
 10
8.6380621512
 20
6.129930943
 10
8.6925349644
 20
6.1309894735
 10
8.7417962287
 20
6.132048004
 10
8.7844167539
 20
6.1331065345
 10
8.819160014
 20
6.134165065
 10
8.8450180215
 20
6.1352235955
 10
8.8612405723
 20
6.136282126
 10
8.8672406238
 20
6.1372530338
  0
LINE
  5
60C
100
AcDbEntity
  8
0
100
AcDbLine
 62
7
  6
CONTINUOUS
 10
8.1835787829
 20
6.015577425
 11
8.1585664416
 21
6.0011294001
  0
LINE
  5
60D
100
AcDbEntity
  8
0
100
AcDbLine
 62
7
  6
CONTINUOUS
 10
8.8422282825
 20
6.3958050089
 11
8.8672406238
 21
6.4102530338
  0
LINE
  5
60E
100
AcDbEntity
  8
0
100
AcDbLine
 62
7
  6
CONTINUOUS
 10
8.1835787829
 20
5.976577425
 11
8.1585664416
 21
5.9621294001
  0
LINE
  5
60F
100
AcDbEntity
  8
0
100
AcDbLine
 62
7
  6
CONTINUOUS
 10
8.8422282825
 20
6.3568050089
 11
8.8672406238
 21
6.3712530338
  0
LINE
  5
610
100
AcDbEntity
  8
0
100
AcDbLine
 62
7
  6
CONTINUOUS
 10
8.1835787829
 20
5.937577425
 11
8.1585664416
 21
5.9231294001
  0
LINE
  5
611
100
AcDbEntity
  8
0
100
AcDbLine
 62
7
  6
CONTINUOUS
 10
8.8422282825
 20
6.3178050089
 11
8.8672406238
 21
6.3322530338
  0
LWPOLYLINE
  5
612
100
AcDbEntity
  8
0
100
AcDbPolyline
 62
7
  6
CONTINUOUS
 90
11
 70
0
 10
8.8424035325
 20
6.2688747908
 10
8.8412924463
 20
6.2683650936
 10
8.8324327325
 20
6.2673441036
 10
8.8149336156
 20
6.2663224774
 10
8.7888244978
 20
6.2652854389
 10
8.7548667982
 20
6.2642438346
 10
8.7145283035
 20
6.2632121553
 10
8.6691036688
 20
6.2621905518
 10
8.6192231991
 20
6.2611642895
 10
8.5667684234
 20
6.2601442424
 10
8.4557484908
 20
6.2580428269
  0
LWPOLYLINE
  5
613
100
AcDbEntity
  8
0
100
AcDbPolyline
 62
7
  6
CONTINUOUS
 90
11
 70
0
 10
8.1834035334
 20
5.9475070398
 10
8.1845228133
 20
5.9480192181
 10
8.1934551725
 20
5.9490445554
 10
8.211005762
 20
5.9500661846
 10
8.2371492974
 20
5.951102737
 10
8.2711293325
 20
5.9521438438
 10
8.3114788435
 20
5.9531750426
 10
8.3568279688
 20
5.9541945469
 10
8.4063526968
 20
5.955213543
 10
8.4589222415
 20
5.9562359688
 10
8.5701365884
 20
5.9583410992
  0
LWPOLYLINE
  5
614
100
AcDbEntity
  8
0
100
AcDbPolyline
 62
7
  6
CONTINUOUS
 90
20
 70
0
 10
8.1585664416
 20
5.9231294001
 10
8.1599302778
 20
5.9235174934
 10
8.1706282194
 20
5.9245760239
 10
8.1912564083
 20
5.9256345544
 10
8.2212163699
 20
5.9266930849
 10
8.2596388924
 20
5.9277516154
 10
8.3054092438
 20
5.928810146
 10
8.3571995141
 20
5.9298686765
 10
8.4135071402
 20
5.930927207
 10
8.4726984997
 20
5.9319857375
 10
8.533056306
 20
5.933044268
 10
8.5928294308
 20
5.9341027985
 10
8.650283709
 20
5.935161329
 10
8.7037522511
 20
5.9362198595
 10
8.7516838032
 20
5.93727839
 10
8.7926877534
 20
5.9383369206
 10
8.8255744764
 20
5.9393954511
 10
8.8493898476
 20
5.9404539816
 10
8.8634429247
 20
5.9415125121
 10
8.8672406238
 20
5.9422530338
  0
LWPOLYLINE
  5
615
100
AcDbEntity
  8
0
100
AcDbPolyline
 62
7
  6
CONTINUOUS
 90
5
 70
0
 10
8.8424035327
 20
6.3858749637
 10
8.8419412966
 20
6.3855461563
 10
8.8347128306
 20
6.3845312704
 10
8.8191970208
 20
6.3835315034
 10
8.7958154362
 20
6.3825340646
  0
LINE
  5
616
100
AcDbEntity
  8
0
100
AcDbLine
 62
7
  6
CONTINUOUS
 10
8.1835787829
 20
5.898577425
 11
8.1585664416
 21
5.8841294001
  0
LINE
  5
617
100
AcDbEntity
  8
0
100
AcDbLine
 62
7
  6
CONTINUOUS
 10
8.8422282825
 20
6.2788050089
 11
8.8672406238
 21
6.2932530338
  0
LINE
  5
618
100
AcDbEntity
  8
0
100
AcDbLine
 62
7
  6
CONTINUOUS
 10
8.1835787829
 20
5.859577425
 11
8.1585664416
 21
5.8451294001
  0
LINE
  5
619
100
AcDbEntity
  8
0
100
AcDbLine
 62
7
  6
CONTINUOUS
 10
8.8422282825
 20
6.2398050089
 11
8.8672406238
 21
6.2542530338
  0
LINE
  5
61A
100
AcDbEntity
  8
0
100
AcDbLine
 62
7
  6
CONTINUOUS
 10
8.1835787829
 20
5.820577425
 11
8.1585664416
 21
5.8061294001
  0
LINE
  5
61B
100
AcDbEntity
  8
0
100
AcDbLine
 62
7
  6
CONTINUOUS
 10
8.8544464008
 20
6.2078627387
 11
8.8672406238
 21
6.2152530338
  0
LINE
  5
61C
100
AcDbEntity
  8
0
100
AcDbLine
 62
7
  6
CONTINUOUS
 10
8.8422282825
 20
6.2008050089
 11
8.8544464008
 21
6.2078627387
  0
LWPOLYLINE
  5
61D
100
AcDbEntity
  8
0
100
AcDbPolyline
 62
7
  6
CONTINUOUS
 90
20
 70
0
 10
8.1585664416
 20
5.8841294001
 10
8.1591790596
 20
5.8843518645
 10
8.168287632
 20
5.885410395
 10
8.1873943578
 20
5.8864689255
 10
8.2159449039
 20
5.887527456
 10
8.253110949
 20
5.8885859866
 10
8.2978142149
 20
5.8896445171
 10
8.3487577499
 20
5.8907030476
 10
8.4044635571
 20
5.8917615781
 10
8.4633154743
 20
5.8928201086
 10
8.5236060628
 20
5.8938786391
 10
8.5835861446
 20
5.8949371696
 10
8.6415155503
 20
5.8959957001
 10
8.6957136056
 20
5.8970542306
 10
8.7446078918
 20
5.8981127611
 10
8.7867798657
 20
5.8991712917
 10
8.8210060147
 20
5.9002298222
 10
8.8462933542
 20
5.9012883527
 10
8.8619082364
 20
5.9023468832
 10
8.8672406238
 20
5.9032530338
  0
LINE
  5
61E
100
AcDbEntity
  8
0
100
AcDbLine
 62
7
  6
CONTINUOUS
 10
8.8665460143
 20
6.0590093988
 11
8.8672406238
 21
6.0592530338
  0
LINE
  5
61F
100
AcDbEntity
  8
0
100
AcDbLine
 62
7
  6
CONTINUOUS
 10
8.1835787829
 20
5.781577425
 11
8.1585664416
 21
5.7671294001
  0
LINE
  5
620
100
AcDbEntity
  8
0
100
AcDbLine
 62
7
  6
CONTINUOUS
 10
8.8422282825
 20
6.1618050089
 11
8.8672406238
 21
6.1762530338
  0
LINE
  5
621
100
AcDbEntity
  8
0
100
AcDbLine
 62
7
  6
CONTINUOUS
 10
8.1835787829
 20
5.742577425
 11
8.1585664416
 21
5.7281294001
  0
LINE
  5
622
100
AcDbEntity
  8
0
100
AcDbLine
 62
7
  6
CONTINUOUS
 10
8.8422282825
 20
6.1228050089
 11
8.8672406238
 21
6.1372530338
  0
LINE
  5
623
100
AcDbEntity
  8
0
100
AcDbLine
 62
7
  6
CONTINUOUS
 10
8.1835787829
 20
5.703577425
 11
8.1585664416
 21
5.6891294001
  0
LINE
  5
624
100
AcDbEntity
  8
0
100
AcDbLine
 62
7
  6
CONTINUOUS
 10
8.8422282825
 20
6.0838050089
 11
8.8672406238
 21
6.0982530338
  0
LINE
  5
625
100
AcDbEntity
  8
0
100
AcDbLine
 62
7
  6
CONTINUOUS
 10
8.8424035322
 20
6.0738746609
 11
8.8416064881
 21
6.0734431555
  0
LWPOLYLINE
  5
626
100
AcDbEntity
  8
0
100
AcDbPolyline
 62
7
  6
CONTINUOUS
 90
11
 70
0
 10
8.1834035341
 20
5.7915080416
 10
8.1845214138
 20
5.7920188979
 10
8.1933460839
 20
5.7930361491
 10
8.2107831239
 20
5.7940556964
 10
8.2368088852
 20
5.7950910048
 10
8.2706674947
 20
5.7961310242
 10
8.3109008363
 20
5.7971612723
 10
8.3562731623
 20
5.7981826738
 10
8.4063375846
 20
5.7992132421
 10
8.4591595548
 20
5.8002405002
 10
8.5699093616
 20
5.802336753
  0
LWPOLYLINE
  5
627
100
AcDbEntity
  8
0
100
AcDbPolyline
 62
7
  6
CONTINUOUS
 90
11
 70
0
 10
8.183403534
 20
5.7525069035
 10
8.1845318353
 20
5.7530212776
 10
8.193493644
 20
5.7540475092
 10
8.2110573723
 20
5.7550686101
 10
8.2371997915
 20
5.7561044743
 10
8.2711660676
 20
5.7571448623
 10
8.3114918957
 20
5.7581753532
 10
8.3567826032
 20
5.7591935765
 10
8.4062434237
 20
5.7602113675
 10
8.458906238
 20
5.7612356632
 10
8.5701437379
 20
5.763341236
  0
LINE
  5
628
100
AcDbEntity
  8
0
100
AcDbLine
 62
7
  6
CONTINUOUS
 10
8.8416064881
 20
6.044575642
 11
8.8422282825
 21
6.0448050089
  0
LINE
  5
629
100
AcDbEntity
  8
0
100
AcDbLine
 62
7
  6
CONTINUOUS
 10
8.8369814514
 20
4.1425633
 11
8.6479405676
 21
4.1027574602
  0
LWPOLYLINE
  5
62A
100
AcDbEntity
  8
0
100
AcDbPolyline
 62
7
  6
CONTINUOUS
 90
4
 70
0
 10
8.8369405676
 20
4.1427574602
 10
8.8167825529
 20
4.1385262472
 10
8.7971017869
 20
4.1343970348
 10
8.7779035327
 20
4.1303711791
  0
LWPOLYLINE
  5
62B
100
AcDbEntity
  8
0
100
AcDbPolyline
 62
7
  6
CONTINUOUS
 90
7
 70
0
 10
8.6130998458
 20
4.1027574602
 10
8.6363609679
 20
4.1043305873
 10
8.6618716765
 20
4.1077541959
 10
8.6892265209
 20
4.1124888917
 10
8.7179907407
 20
4.1180498662
 10
8.7477071759
 20
4.1240886262
 10
8.7779035327
 20
4.1303711791
  0
LINE
  5
62C
100
AcDbEntity
  8
0
100
AcDbLine
 62
7
  6
CONTINUOUS
 10
8.3778687359
 20
4.1027574602
 11
8.6479383294
 21
4.1027574602
  0
LINE
  5
62D
100
AcDbEntity
  8
0
100
AcDbLine
 62
7
  6
CONTINUOUS
 10
8.1888664977
 20
4.1427574602
 11
8.1879035327
 21
4.1427574602
  0
LINE
  5
62E
100
AcDbEntity
  8
0
100
AcDbLine
 62
7
  6
CONTINUOUS
 10
8.4879035327
 20
4.1427574602
 11
8.8379035327
 21
4.1427574602
  0
LWPOLYLINE
  5
62F
100
AcDbEntity
  8
0
100
AcDbPolyline
 62
7
  6
CONTINUOUS
 90
7
 70
0
 10
8.4127072195
 20
4.1027574602
 10
8.3894460974
 20
4.1043305873
 10
8.3639353888
 20
4.1077541959
 10
8.3365805444
 20
4.1124888917
 10
8.3078163246
 20
4.1180498662
 10
8.2780998894
 20
4.1240886262
 10
8.2479035327
 20
4.1303711791
  0
LWPOLYLINE
  5
630
100
AcDbEntity
  8
0
100
AcDbPolyline
 62
7
  6
CONTINUOUS
 90
4
 70
0
 10
8.2479035327
 20
4.1303711791
 10
8.228719548
 20
4.1343940416
 10
8.2090389724
 20
4.1385232127
 10
8.1888664977
 20
4.1427574602
  0
LINE
  5
631
100
AcDbEntity
  8
0
100
AcDbLine
 62
7
  6
CONTINUOUS
 10
8.1879035327
 20
4.1427574602
 11
8.3778664977
 21
4.1027574602
  0
LINE
  5
632
100
AcDbEntity
  8
0
100
AcDbLine
 62
7
  6
CONTINUOUS
 10
8.1888664977
 20
4.1986979077
 11
8.2479035327
 21
4.1858531422
  0
LINE
  5
633
100
AcDbEntity
  8
0
100
AcDbLine
 62
7
  6
CONTINUOUS
 10
8.1835787829
 20
5.664577425
 11
8.1585664416
 21
5.6501294001
  0
LINE
  5
634
100
AcDbEntity
  8
0
100
AcDbLine
 62
7
  6
CONTINUOUS
 10
8.8422282825
 20
6.0448050089
 11
8.8666142671
 21
6.0588912369
  0
LINE
  5
635
100
AcDbEntity
  8
0
100
AcDbLine
 62
7
  6
CONTINUOUS
 10
8.1835787829
 20
5.625577425
 11
8.1585664416
 21
5.6111294001
  0
LINE
  5
636
100
AcDbEntity
  8
0
100
AcDbLine
 62
7
  6
CONTINUOUS
 10
8.8422282825
 20
6.0058050089
 11
8.8672406238
 21
6.0202530338
  0
LINE
  5
637
100
AcDbEntity
  8
0
100
AcDbLine
 62
7
  6
CONTINUOUS
 10
8.1835787829
 20
5.586577425
 11
8.1585664416
 21
5.5721294001
  0
LINE
  5
638
100
AcDbEntity
  8
0
100
AcDbLine
 62
7
  6
CONTINUOUS
 10
8.8422282825
 20
5.9668050089
 11
8.8672406238
 21
5.9812530338
  0
LWPOLYLINE
  5
639
100
AcDbEntity
  8
0
100
AcDbPolyline
 62
7
  6
CONTINUOUS
 90
11
 70
0
 10
8.1834035337
 20
5.5965079525
 10
8.184520624
 20
5.5970187171
 10
8.193351949
 20
5.5980366022
 10
8.210813472
 20
5.5990571285
 10
8.2368750625
 20
5.6000932883
 10
8.2707794252
 20
5.6011341338
 10
8.3110638985
 20
5.6021651595
 10
8.3564692261
 20
5.603186871
 10
8.4064783269
 20
5.6042160437
 10
8.4591314983
 20
5.6052399645
 10
8.5699725309
 20
5.6073379612
  0
LWPOLYLINE
  5
63A
100
AcDbEntity
  8
0
100
AcDbPolyline
 62
7
  6
CONTINUOUS
 90
20
 70
0
 10
8.1585664416
 20
5.6111294001
 10
8.1588449219
 20
5.6112509928
 10
8.1669822825
 20
5.6123095233
 10
8.185155668
 20
5.6133680538
 10
8.2128378237
 20
5.6144265843
 10
8.2492256224
 20
5.6154851148
 10
8.2932633647
 20
5.6165436453
 10
8.3436734075
 20
5.6176021758
 10
8.3989932317
 20
5.6186607064
 10
8.4576178735
 20
5.6197192369
 10
8.517846488
 20
5.6207777674
 10
8.5779316952
 20
5.6218362979
 10
8.6361302758
 20
5.6228948284
 10
8.690753746
 20
5.6239533589
 10
8.7402173448
 20
5.6250118894
 10
8.7830860118
 20
5.6260704199
 10
8.8181160217
 20
5.6271289504
 10
8.8442910679
 20
5.628187481
 10
8.8608517481
 20
5.6292460115
 10
8.8672406238
 20
5.6302530338
  0
LWPOLYLINE
  5
63B
100
AcDbEntity
  8
0
100
AcDbPolyline
 62
7
  6
CONTINUOUS
 90
20
 70
0
 10
8.1585664416
 20
5.6501294001
 10
8.15944281
 20
5.6504166217
 10
8.1691736246
 20
5.6514751522
 10
8.1888768878
 20
5.6525336827
 10
8.2179809595
 20
5.6535922132
 10
8.2556414592
 20
5.6546507437
 10
8.3007657633
 20
5.6557092742
 10
8.352044705
 20
5.6567678047
 10
8.4079905562
 20
5.6578263352
 10
8.4669801904
 20
5.6588848658
 10
8.5273021735
 20
5.6599433963
 10
8.5872064168
 20
5.6610019268
 10
8.6449549509
 20
5.6620604573
 10
8.6988723491
 20
5.6631189878
 10
8.7473943354
 20
5.6641775183
 10
8.7891131678
 20
5.6652360488
 10
8.8228184804
 20
5.6662945793
 10
8.8475323995
 20
5.6673531098
 10
8.8625379136
 20
5.6684116404
 10
8.8672406238
 20
5.6692530338
  0
LINE
  5
63C
100
AcDbEntity
  8
AXIS
100
AcDbLine
 62
7
  6
CONTINUOUS
 10
8.1834125139
 20
4.2627574602
 11
8.8423945515
 21
4.2627574602
  0
LINE
  5
63D
100
AcDbEntity
  8
0
100
AcDbLine
 62
7
  6
CONTINUOUS
 10
8.1835787829
 20
5.547577425
 11
8.1585664416
 21
5.5331294001
  0
LINE
  5
63E
100
AcDbEntity
  8
0
100
AcDbLine
 62
7
  6
CONTINUOUS
 10
8.8422282825
 20
5.9278050089
 11
8.8672406238
 21
5.9422530338
  0
LINE
  5
63F
100
AcDbEntity
  8
0
100
AcDbLine
 62
7
  6
CONTINUOUS
 10
8.1835787829
 20
5.508577425
 11
8.1585664416
 21
5.4941294001
  0
LINE
  5
640
100
AcDbEntity
  8
0
100
AcDbLine
 62
7
  6
CONTINUOUS
 10
8.8422282825
 20
5.8888050089
 11
8.8672406238
 21
5.9032530338
  0
LINE
  5
641
100
AcDbEntity
  8
0
100
AcDbLine
 62
7
  6
CONTINUOUS
 10
8.1835787829
 20
5.469577425
 11
8.1585664416
 21
5.4551294001
  0
LINE
  5
642
100
AcDbEntity
  8
0
100
AcDbLine
 62
7
  6
CONTINUOUS
 10
8.8422282825
 20
5.8498050089
 11
8.8672406238
 21
5.8642530338
  0
LWPOLYLINE
  5
643
100
AcDbEntity
  8
0
100
AcDbPolyline
 62
7
  6
CONTINUOUS
 90
11
 70
0
 10
8.8424035318
 20
5.878874519
 10
8.8412871825
 20
5.8783638866
 10
8.8324524908
 20
5.8773456289
 10
8.8149838056
 20
5.8763248437
 10
8.7889117796
 20
5.8752884481
 10
8.7549970249
 20
5.8742474498
 10
8.7147034571
 20
5.8732163281
 10
8.669292558
 20
5.8721945937
 10
8.6192987588
 20
5.8711657934
 10
8.5666894577
 20
5.8701427346
 10
8.455816245
 20
5.8680441229
  0
LWPOLYLINE
  5
644
100
AcDbEntity
  8
0
100
AcDbPolyline
 62
7
  6
CONTINUOUS
 90
11
 70
0
 10
8.1834035341
 20
5.5575068789
 10
8.1845360719
 20
5.5580222419
 10
8.193509769
 20
5.5590487457
 10
8.2110779062
 20
5.5600695746
 10
8.2372181289
 20
5.5611051051
 10
8.2711763559
 20
5.5621451475
 10
8.311489658
 20
5.5631753
 10
8.3567535306
 20
5.5641929546
 10
8.4062075646
 20
5.5652106535
 10
8.458903707
 20
5.5662356149
 10
8.5685328554
 20
5.5683104354
  0
LWPOLYLINE
  5
645
100
AcDbEntity
  8
0
100
AcDbPolyline
 62
7
  6
CONTINUOUS
 90
11
 70
0
 10
8.8424035327
 20
5.7618749931
 10
8.8409588253
 20
5.7612935124
 10
8.831482769
 20
5.7602724465
 10
8.8136519612
 20
5.7592627367
 10
8.7875223966
 20
5.7582408095
 10
8.7539016034
 20
5.7572171106
 10
8.7142399986
 20
5.7562052916
 10
8.669279317
 20
5.7551943103
 10
8.6194314607
 20
5.7541684349
 10
8.5665782
 20
5.7531406103
 10
8.4558806863
 20
5.7510453554
  0
LINE
  5
646
100
AcDbEntity
  8
0
100
AcDbLine
 62
7
  6
CONTINUOUS
 10
8.1835787829
 20
5.430577425
 11
8.1585664416
 21
5.4161294001
  0
LINE
  5
647
100
AcDbEntity
  8
0
100
AcDbLine
 62
7
  6
CONTINUOUS
 10
8.8422282825
 20
5.8108050089
 11
8.8672406238
 21
5.8252530338
  0
LINE
  5
648
100
AcDbEntity
  8
0
100
AcDbLine
 62
7
  6
CONTINUOUS
 10
8.1835787829
 20
5.391577425
 11
8.1585664416
 21
5.3771294001
  0
LINE
  5
649
100
AcDbEntity
  8
0
100
AcDbLine
 62
7
  6
CONTINUOUS
 10
8.8422282825
 20
5.7718050089
 11
8.8672406238
 21
5.7862530338
  0
LINE
  5
64A
100
AcDbEntity
  8
0
100
AcDbLine
 62
7
  6
CONTINUOUS
 10
8.1835787829
 20
5.352577425
 11
8.1585664416
 21
5.3381294001
  0
LINE
  5
64B
100
AcDbEntity
  8
0
100
AcDbLine
 62
7
  6
CONTINUOUS
 10
8.8422282825
 20
5.7328050089
 11
8.8672406238
 21
5.7472530338
  0
LWPOLYLINE
  5
64C
100
AcDbEntity
  8
0
100
AcDbPolyline
 62
7
  6
CONTINUOUS
 90
11
 70
0
 10
8.1834035335
 20
5.4015078906
 10
8.184519247
 20
5.4020184017
 10
8.1933559123
 20
5.4030369083
 10
8.2108265523
 20
5.4040577455
 10
8.2369004059
 20
5.4050941624
 10
8.270819794
 20
5.4061352549
 10
8.3111206306
 20
5.4071665114
 10
8.3565345721
 20
5.4081882696
 10
8.406517947
 20
5.4092168324
 10
8.4591078628
 20
5.4102395132
 10
8.5698922939
 20
5.4123364266
  0
LWPOLYLINE
  5
64D
100
AcDbEntity
  8
0
100
AcDbPolyline
 62
7
  6
CONTINUOUS
 90
11
 70
0
 10
8.8424035313
 20
5.6838744027
 10
8.841285336
 20
5.6833634638
 10
8.8324599427
 20
5.6823462046
 10
8.8150154475
 20
5.6813263366
 10
8.7889778196
 20
5.6802907264
 10
8.7551064114
 20
5.6792504883
 10
8.7148608362
 20
5.6782200793
 10
8.6694788233
 20
5.6771985808
 10
8.6194249742
 20
5.6761683058
 10
8.5666451091
 20
5.6751418878
 10
8.4558769684
 20
5.6730452843
  0
LWPOLYLINE
  5
64E
100
AcDbEntity
  8
0
100
AcDbPolyline
 62
7
  6
CONTINUOUS
 90
11
 70
0
 10
8.8424035313
 20
5.722875546
 10
8.8412722801
 20
5.7223604846
 10
8.8323025244
 20
5.721334089
 10
8.8147351034
 20
5.7203131385
 10
8.7885918109
 20
5.7192774277
 10
8.7546303235
 20
5.7182372757
 10
8.7143147105
 20
5.7172070697
 10
8.6690429959
 20
5.7161892538
 10
8.6195868149
 20
5.7151715278
 10
8.5669013792
 20
5.7141467812
 10
8.4556589603
 20
5.7120411143
  0
LWPOLYLINE
  5
64F
100
AcDbEntity
  8
0
100
AcDbPolyline
 62
7
  6
CONTINUOUS
 90
20
 70
0
 10
8.1585664416
 20
5.3771294001
 10
8.1590486893
 20
5.3773157499
 10
8.167809807
 20
5.3783742805
 10
8.186582941
 20
5.379432811
 10
8.2148234366
 20
5.3804913415
 10
8.2517119676
 20
5.381549872
 10
8.2961783073
 20
5.3826084025
 10
8.3469323778
 20
5.383666933
 10
8.4025016791
 20
5.3847254635
 10
8.4612740092
 20
5.385783994
 10
8.5215442385
 20
5.3868425245
 10
8.5815637798
 20
5.387901055
 10
8.6395913186
 20
5.3889595856
 10
8.6939433338
 20
5.3900181161
 10
8.7430429399
 20
5.3910766466
 10
8.7854656366
 20
5.3921351771
 10
8.8199806375
 20
5.3931937076
 10
8.8455865777
 20
5.3942522381
 10
8.8615405659
 20
5.3953107686
 10
8.8672406238
 20
5.3962530338
  0
LWPOLYLINE
  5
650
100
AcDbEntity
  8
0
100
AcDbPolyline
 62
7
  6
CONTINUOUS
 90
20
 70
0
 10
8.1585664416
 20
5.4161294001
 10
8.1597450323
 20
5.4164813788
 10
8.17009703
 20
5.4175399093
 10
8.190394686
 20
5.4185984399
 10
8.2200491155
 20
5.4196569704
 10
8.2581999707
 20
5.4207155009
 10
8.3037404016
 20
5.4217740314
 10
8.3553491684
 20
5.4228325619
 10
8.4115289743
 20
5.4238910924
 10
8.4706499049
 20
5.4249496229
 10
8.5309967171
 20
5.4260081534
 10
8.5908186015
 20
5.4270666839
 10
8.6483799785
 20
5.4281252144
 10
8.7020108512
 20
5.429183745
 10
8.7501552563
 20
5.4302422755
 10
8.7914164063
 20
5.431300806
 10
8.824597214
 20
5.4323593365
 10
8.8487350228
 20
5.433417867
 10
8.8631295354
 20
5.4344763975
 10
8.8672406238
 20
5.4352530338
  0
LWPOLYLINE
  5
651
100
AcDbEntity
  8
0
100
AcDbPolyline
 62
7
  6
CONTINUOUS
 90
3
 70
0
 10
8.8672406238
 20
5.9032530338
 10
8.8673976353
 20
5.9034054137
 10
8.8672406238
 20
5.9036294001
  0
LINE
  5
652
100
AcDbEntity
  8
0
100
AcDbLine
 62
7
  6
CONTINUOUS
 10
8.1835787829
 20
5.313577425
 11
8.1585664416
 21
5.2991294001
  0
LINE
  5
653
100
AcDbEntity
  8
0
100
AcDbLine
 62
7
  6
CONTINUOUS
 10
8.8422282825
 20
5.6938050089
 11
8.8672406238
 21
5.7082530338
  0
LINE
  5
654
100
AcDbEntity
  8
0
100
AcDbLine
 62
7
  6
CONTINUOUS
 10
8.1835787829
 20
5.274577425
 11
8.1585664416
 21
5.2601294001
  0
LINE
  5
655
100
AcDbEntity
  8
0
100
AcDbLine
 62
7
  6
CONTINUOUS
 10
8.8422282825
 20
5.6548050089
 11
8.8672406238
 21
5.6692530338
  0
LINE
  5
656
100
AcDbEntity
  8
0
100
AcDbLine
 62
7
  6
CONTINUOUS
 10
8.1835787829
 20
5.235577425
 11
8.1585664416
 21
5.2211294001
  0
LINE
  5
657
100
AcDbEntity
  8
0
100
AcDbLine
 62
7
  6
CONTINUOUS
 10
8.8422282825
 20
5.6158050089
 11
8.8672406238
 21
5.6302530338
  0
LINE
  5
658
100
AcDbEntity
  8
0
100
AcDbLine
 62
7
  6
CONTINUOUS
 10
8.1585664416
 20
4.9867530338
 11
8.1585664416
 21
4.9871294001
  0
LINE
  5
659
100
AcDbEntity
  8
0
100
AcDbLine
 62
7
  6
CONTINUOUS
 10
8.1585664416
 20
5.0647530338
 11
8.1585664416
 21
5.0651294001
  0
LINE
  5
65A
100
AcDbEntity
  8
0
100
AcDbLine
 62
7
  6
CONTINUOUS
 10
8.1585664416
 20
5.1037530338
 11
8.1585664416
 21
5.1041294001
  0
LINE
  5
65B
100
AcDbEntity
  8
0
100
AcDbLine
 62
7
  6
CONTINUOUS
 10
8.1585664416
 20
5.1427530338
 11
8.1585664416
 21
5.1431294001
  0
LINE
  5
65C
100
AcDbEntity
  8
0
100
AcDbLine
 62
7
  6
CONTINUOUS
 10
8.1585664416
 20
5.1817530338
 11
8.1585664416
 21
5.1821294001
  0
LINE
  5
65D
100
AcDbEntity
  8
0
100
AcDbLine
 62
7
  6
CONTINUOUS
 10
8.1585664416
 20
5.2207530338
 11
8.1585664416
 21
5.2211294001
  0
LINE
  5
65E
100
AcDbEntity
  8
0
100
AcDbLine
 62
7
  6
CONTINUOUS
 10
8.1585664416
 20
5.2597530338
 11
8.1585664416
 21
5.2601294001
  0
LINE
  5
65F
100
AcDbEntity
  8
0
100
AcDbLine
 62
7
  6
CONTINUOUS
 10
8.1585664416
 20
5.3377530338
 11
8.1585664416
 21
5.3381294001
  0
LINE
  5
660
100
AcDbEntity
  8
0
100
AcDbLine
 62
7
  6
CONTINUOUS
 10
8.1585664416
 20
5.3767530338
 11
8.1585664416
 21
5.3771294001
  0
LINE
  5
661
100
AcDbEntity
  8
0
100
AcDbLine
 62
7
  6
CONTINUOUS
 10
8.1585664416
 20
5.4157530338
 11
8.1585664416
 21
5.4161294001
  0
LINE
  5
662
100
AcDbEntity
  8
0
100
AcDbLine
 62
7
  6
CONTINUOUS
 10
8.1585664416
 20
5.4547530338
 11
8.1585664416
 21
5.4551294001
  0
LINE
  5
663
100
AcDbEntity
  8
0
100
AcDbLine
 62
7
  6
CONTINUOUS
 10
8.1585664416
 20
5.4937530338
 11
8.1585664416
 21
5.4941294001
  0
LINE
  5
664
100
AcDbEntity
  8
0
100
AcDbLine
 62
7
  6
CONTINUOUS
 10
8.1585664416
 20
5.5717530338
 11
8.1585664416
 21
5.5721294001
  0
LINE
  5
665
100
AcDbEntity
  8
0
100
AcDbLine
 62
7
  6
CONTINUOUS
 10
8.1585664416
 20
5.6107530338
 11
8.1585664416
 21
5.6111294001
  0
LINE
  5
666
100
AcDbEntity
  8
0
100
AcDbLine
 62
7
  6
CONTINUOUS
 10
8.1585664416
 20
5.6497530338
 11
8.1585664416
 21
5.6501294001
  0
LINE
  5
667
100
AcDbEntity
  8
0
100
AcDbLine
 62
7
  6
CONTINUOUS
 10
8.1585664416
 20
5.6887530338
 11
8.1585664416
 21
5.6891294001
  0
LINE
  5
668
100
AcDbEntity
  8
0
100
AcDbLine
 62
7
  6
CONTINUOUS
 10
8.1585664416
 20
5.7277530338
 11
8.1585664416
 21
5.7281294001
  0
LINE
  5
669
100
AcDbEntity
  8
0
100
AcDbLine
 62
7
  6
CONTINUOUS
 10
8.1585664416
 20
5.7667530338
 11
8.1585664416
 21
5.7671294001
  0
LINE
  5
66A
100
AcDbEntity
  8
0
100
AcDbLine
 62
7
  6
CONTINUOUS
 10
8.1585664416
 20
5.8447530338
 11
8.1585664416
 21
5.8451294001
  0
LINE
  5
66B
100
AcDbEntity
  8
0
100
AcDbLine
 62
7
  6
CONTINUOUS
 10
8.1585664416
 20
5.8837530338
 11
8.1585664416
 21
5.8841294001
  0
LINE
  5
66C
100
AcDbEntity
  8
0
100
AcDbLine
 62
7
  6
CONTINUOUS
 10
8.1585664416
 20
5.9227530338
 11
8.1585664416
 21
5.9231294001
  0
LINE
  5
66D
100
AcDbEntity
  8
0
100
AcDbLine
 62
7
  6
CONTINUOUS
 10
8.1585664416
 20
5.9617530338
 11
8.1585664416
 21
5.9621294001
  0
LINE
  5
66E
100
AcDbEntity
  8
0
100
AcDbLine
 62
7
  6
CONTINUOUS
 10
8.1585664416
 20
6.0007530338
 11
8.1585664416
 21
6.0011294001
  0
LINE
  5
66F
100
AcDbEntity
  8
0
100
AcDbLine
 62
7
  6
CONTINUOUS
 10
8.1585664416
 20
6.0787530338
 11
8.1585664416
 21
6.0791294001
  0
LINE
  5
670
100
AcDbEntity
  8
0
100
AcDbLine
 62
7
  6
CONTINUOUS
 10
8.1585664416
 20
6.1177530338
 11
8.1585664416
 21
6.1181294001
  0
LINE
  5
671
100
AcDbEntity
  8
0
100
AcDbLine
 62
7
  6
CONTINUOUS
 10
8.1585664416
 20
6.1567530338
 11
8.1585664416
 21
6.1571294001
  0
LINE
  5
672
100
AcDbEntity
  8
0
100
AcDbLine
 62
7
  6
CONTINUOUS
 10
8.1585664416
 20
6.1957530338
 11
8.1585664416
 21
6.1961294001
  0
LINE
  5
673
100
AcDbEntity
  8
0
100
AcDbLine
 62
7
  6
CONTINUOUS
 10
8.1585664416
 20
6.2347530338
 11
8.1585664416
 21
6.2351294001
  0
LINE
  5
674
100
AcDbEntity
  8
0
100
AcDbLine
 62
7
  6
CONTINUOUS
 10
8.1585664416
 20
6.3127530338
 11
8.1585664416
 21
6.3131294001
  0
LINE
  5
675
100
AcDbEntity
  8
0
100
AcDbLine
 62
7
  6
CONTINUOUS
 10
8.1585664416
 20
6.3517530338
 11
8.1585664416
 21
6.3521294001
  0
LINE
  5
676
100
AcDbEntity
  8
0
100
AcDbLine
 62
7
  6
CONTINUOUS
 10
8.1585664416
 20
6.3907530338
 11
8.1585664416
 21
6.3911294001
  0
LINE
  5
677
100
AcDbEntity
  8
AXIS
100
AcDbLine
 62
7
  6
CONTINUOUS
 10
8.1834035327
 20
6.4155074602
 11
8.1834035327
 21
6.4053749737
  0
LINE
  5
678
100
AcDbEntity
  8
AXIS
100
AcDbLine
 62
7
  6
CONTINUOUS
 10
8.1834035327
 20
6.3765074602
 11
8.1834035327
 21
6.3663749737
  0
LINE
  5
679
100
AcDbEntity
  8
AXIS
100
AcDbLine
 62
7
  6
CONTINUOUS
 10
8.1834035327
 20
6.3375074602
 11
8.1834035327
 21
6.3273749737
  0
LINE
  5
67A
100
AcDbEntity
  8
AXIS
100
AcDbLine
 62
7
  6
CONTINUOUS
 10
8.1834035327
 20
6.2985074602
 11
8.1834035327
 21
6.2883749737
  0
LINE
  5
67B
100
AcDbEntity
  8
AXIS
100
AcDbLine
 62
7
  6
CONTINUOUS
 10
8.1834035327
 20
6.2595074602
 11
8.1834035327
 21
6.2493749737
  0
LINE
  5
67C
100
AcDbEntity
  8
AXIS
100
AcDbLine
 62
7
  6
CONTINUOUS
 10
8.1834035327
 20
6.2205074602
 11
8.1834035327
 21
6.2103749737
  0
LINE
  5
67D
100
AcDbEntity
  8
AXIS
100
AcDbLine
 62
7
  6
CONTINUOUS
 10
8.1834035327
 20
6.1815074602
 11
8.1834035327
 21
6.1713749737
  0
LINE
  5
67E
100
AcDbEntity
  8
AXIS
100
AcDbLine
 62
7
  6
CONTINUOUS
 10
8.1834035327
 20
6.1425074602
 11
8.1834035327
 21
6.1323749737
  0
LINE
  5
67F
100
AcDbEntity
  8
AXIS
100
AcDbLine
 62
7
  6
CONTINUOUS
 10
8.1834035327
 20
6.1035074602
 11
8.1834035327
 21
6.0933749737
  0
LINE
  5
680
100
AcDbEntity
  8
AXIS
100
AcDbLine
 62
7
  6
CONTINUOUS
 10
8.1834035327
 20
6.0645074602
 11
8.1834035327
 21
6.0543749737
  0
LINE
  5
681
100
AcDbEntity
  8
AXIS
100
AcDbLine
 62
7
  6
CONTINUOUS
 10
8.1834035327
 20
6.0255074602
 11
8.1834035327
 21
6.0153749737
  0
LINE
  5
682
100
AcDbEntity
  8
AXIS
100
AcDbLine
 62
7
  6
CONTINUOUS
 10
8.1834035327
 20
5.9865074602
 11
8.1834035327
 21
5.9763749737
  0
LINE
  5
683
100
AcDbEntity
  8
AXIS
100
AcDbLine
 62
7
  6
CONTINUOUS
 10
8.1834035327
 20
5.9475074602
 11
8.1834035327
 21
5.9373749737
  0
LINE
  5
684
100
AcDbEntity
  8
AXIS
100
AcDbLine
 62
7
  6
CONTINUOUS
 10
8.1834035327
 20
5.9085074602
 11
8.1834035327
 21
5.8983749737
  0
LINE
  5
685
100
AcDbEntity
  8
AXIS
100
AcDbLine
 62
7
  6
CONTINUOUS
 10
8.1834035327
 20
5.8695074602
 11
8.1834035327
 21
5.8593749737
  0
LINE
  5
686
100
AcDbEntity
  8
AXIS
100
AcDbLine
 62
7
  6
CONTINUOUS
 10
8.1834035327
 20
5.8305074602
 11
8.1834035327
 21
5.8203749737
  0
LINE
  5
687
100
AcDbEntity
  8
AXIS
100
AcDbLine
 62
7
  6
CONTINUOUS
 10
8.1834035327
 20
5.7915074602
 11
8.1834035327
 21
5.7813749737
  0
LINE
  5
688
100
AcDbEntity
  8
AXIS
100
AcDbLine
 62
7
  6
CONTINUOUS
 10
8.1834035327
 20
5.7525074602
 11
8.1834035327
 21
5.7423749737
  0
LINE
  5
689
100
AcDbEntity
  8
AXIS
100
AcDbLine
 62
7
  6
CONTINUOUS
 10
8.1834035327
 20
5.7135074602
 11
8.1834035327
 21
5.7033749737
  0
LINE
  5
68A
100
AcDbEntity
  8
AXIS
100
AcDbLine
 62
7
  6
CONTINUOUS
 10
8.1834035327
 20
5.6745074602
 11
8.1834035327
 21
5.6643749737
  0
LINE
  5
68B
100
AcDbEntity
  8
AXIS
100
AcDbLine
 62
7
  6
CONTINUOUS
 10
8.1834035327
 20
5.6355074602
 11
8.1834035327
 21
5.6253749737
  0
LINE
  5
68C
100
AcDbEntity
  8
AXIS
100
AcDbLine
 62
7
  6
CONTINUOUS
 10
8.1834035327
 20
5.5965074602
 11
8.1834035327
 21
5.5863749737
  0
LINE
  5
68D
100
AcDbEntity
  8
AXIS
100
AcDbLine
 62
7
  6
CONTINUOUS
 10
8.1834035327
 20
5.5575074602
 11
8.1834035327
 21
5.5473749737
  0
LINE
  5
68E
100
AcDbEntity
  8
AXIS
100
AcDbLine
 62
7
  6
CONTINUOUS
 10
8.1834035327
 20
5.5185074602
 11
8.1834035327
 21
5.5083749737
  0
LINE
  5
68F
100
AcDbEntity
  8
AXIS
100
AcDbLine
 62
7
  6
CONTINUOUS
 10
8.1834035327
 20
5.4795074602
 11
8.1834035327
 21
5.4693749737
  0
LINE
  5
690
100
AcDbEntity
  8
AXIS
100
AcDbLine
 62
7
  6
CONTINUOUS
 10
8.1834035327
 20
5.4405074602
 11
8.1834035327
 21
5.4303749737
  0
LINE
  5
691
100
AcDbEntity
  8
AXIS
100
AcDbLine
 62
7
  6
CONTINUOUS
 10
8.1834035327
 20
5.4015074602
 11
8.1834035327
 21
5.3913749737
  0
LINE
  5
692
100
AcDbEntity
  8
AXIS
100
AcDbLine
 62
7
  6
CONTINUOUS
 10
8.1834035327
 20
5.3625074602
 11
8.1834035327
 21
5.3523749737
  0
LINE
  5
693
100
AcDbEntity
  8
AXIS
100
AcDbLine
 62
7
  6
CONTINUOUS
 10
8.1834035327
 20
5.3235074602
 11
8.1834035327
 21
5.3133749737
  0
LINE
  5
694
100
AcDbEntity
  8
AXIS
100
AcDbLine
 62
7
  6
CONTINUOUS
 10
8.1834035327
 20
5.2845074602
 11
8.1834035327
 21
5.2743749737
  0
LINE
  5
695
100
AcDbEntity
  8
AXIS
100
AcDbLine
 62
7
  6
CONTINUOUS
 10
8.1834035327
 20
5.2455074602
 11
8.1834035327
 21
5.2353749737
  0
LINE
  5
696
100
AcDbEntity
  8
AXIS
100
AcDbLine
 62
7
  6
CONTINUOUS
 10
8.1834035327
 20
5.2065074602
 11
8.1834035327
 21
5.1963749737
  0
LINE
  5
697
100
AcDbEntity
  8
AXIS
100
AcDbLine
 62
7
  6
CONTINUOUS
 10
8.1834035327
 20
5.1675074602
 11
8.1834035327
 21
5.1573749737
  0
LINE
  5
698
100
AcDbEntity
  8
AXIS
100
AcDbLine
 62
7
  6
CONTINUOUS
 10
8.1834035327
 20
5.1285074602
 11
8.1834035327
 21
5.1183749737
  0
LINE
  5
699
100
AcDbEntity
  8
AXIS
100
AcDbLine
 62
7
  6
CONTINUOUS
 10
8.1834035327
 20
5.0895074602
 11
8.1834035327
 21
5.0793749737
  0
LINE
  5
69A
100
AcDbEntity
  8
AXIS
100
AcDbLine
 62
7
  6
CONTINUOUS
 10
8.1834035327
 20
5.0505074602
 11
8.1834035327
 21
5.0403749737
  0
LINE
  5
69B
100
AcDbEntity
  8
AXIS
100
AcDbLine
 62
7
  6
CONTINUOUS
 10
8.1834035327
 20
5.0115074602
 11
8.1834035327
 21
5.0013749737
  0
LINE
  5
69C
100
AcDbEntity
  8
AXIS
100
AcDbLine
 62
7
  6
CONTINUOUS
 10
8.1834035327
 20
4.9725074602
 11
8.1834035327
 21
4.2627574602
  0
LINE
  5
69D
100
AcDbEntity
  8
0
100
AcDbLine
 62
7
  6
CONTINUOUS
 10
8.1879035327
 20
4.2627574602
 11
8.1879035327
 21
4.1427574602
  0
LINE
  5
69E
100
AcDbEntity
  8
0
100
AcDbLine
 62
7
  6
CONTINUOUS
 10
8.1888664977
 20
4.1427574602
 11
8.1888664977
 21
4.1986979077
  0
LINE
  5
69F
100
AcDbEntity
  8
0
100
AcDbLine
 62
7
  6
CONTINUOUS
 10
8.1835787829
 20
5.196577425
 11
8.1585664416
 21
5.1821294001
  0
LINE
  5
6A0
100
AcDbEntity
  8
0
100
AcDbLine
 62
7
  6
CONTINUOUS
 10
8.8422282825
 20
5.5768050089
 11
8.8672406238
 21
5.5912530338
  0
LINE
  5
6A1
100
AcDbEntity
  8
0
100
AcDbLine
 62
7
  6
CONTINUOUS
 10
8.1835787829
 20
5.157577425
 11
8.1585664416
 21
5.1431294001
  0
LINE
  5
6A2
100
AcDbEntity
  8
0
100
AcDbLine
 62
7
  6
CONTINUOUS
 10
8.8422282825
 20
5.5378050089
 11
8.8672406238
 21
5.5522530338
  0
LINE
  5
6A3
100
AcDbEntity
  8
0
100
AcDbLine
 62
7
  6
CONTINUOUS
 10
8.1835787829
 20
5.118577425
 11
8.1585664416
 21
5.1041294001
  0
LINE
  5
6A4
100
AcDbEntity
  8
0
100
AcDbLine
 62
7
  6
CONTINUOUS
 10
8.8422282825
 20
5.4988050089
 11
8.8672406238
 21
5.5132530338
  0
LWPOLYLINE
  5
6A5
100
AcDbEntity
  8
0
100
AcDbPolyline
 62
7
  6
CONTINUOUS
 90
11
 70
0
 10
8.1834035329
 20
5.2065076932
 10
8.1845151765
 20
5.2070174683
 10
8.1933698943
 20
5.2080379877
 10
8.2108627912
 20
5.2090594541
 10
8.2369639264
 20
5.2100963525
 10
8.2709150544
 20
5.2111378995
 10
8.3112492689
 20
5.2121695761
 10
8.3566744306
 20
5.2131912624
 10
8.4065774379
 20
5.2142180164
 10
8.459051424
 20
5.2152384356
 10
8.5700436789
 20
5.2173393221
  0
LWPOLYLINE
  5
6A6
100
AcDbEntity
  8
0
100
AcDbPolyline
 62
7
  6
CONTINUOUS
 90
11
 70
0
 10
8.8424035317
 20
5.5278754369
 10
8.8412821349
 20
5.5273627318
 10
8.832342455
 20
5.5263371534
 10
8.8147875731
 20
5.5253156038
 10
8.788641531
 20
5.5242791382
 10
8.7546636929
 20
5.5232382008
 10
8.7143210976
 20
5.5222072217
 10
8.6689867473
 20
5.5211880506
 10
8.6194836172
 20
5.5201694732
 10
8.5668894245
 20
5.5191465529
 10
8.4556636448
 20
5.517041204
  0
LINE
  5
6A7
100
AcDbEntity
  8
0
100
AcDbLine
 62
9
  6
CONTINUOUS
 10
8.2479035327
 20
4.1303711791
 11
8.2479035327
 21
4.1858531422
  0
LWPOLYLINE
  5
6A8
100
AcDbEntity
  8
0
100
AcDbPolyline
 62
7
  6
CONTINUOUS
 90
3
 70
0
 10
8.8672406238
 20
6.1762530338
 10
8.8673840542
 20
6.1765062854
 10
8.8672406238
 20
6.1766294001
  0
LWPOLYLINE
  5
6A9
100
AcDbEntity
  8
0
100
AcDbPolyline
 62
7
  6
CONTINUOUS
 90
10
 70
0
 10
8.8424035327
 20
5.6058749884
 10
8.8420720606
 20
5.6055965335
 10
8.8347526469
 20
5.6045347668
 10
8.8183517423
 20
5.6034886817
 10
8.7932561241
 20
5.6024411774
 10
8.7603294306
 20
5.6013975076
 10
8.7203622147
 20
5.6003523401
 10
8.6744661567
 20
5.5993058627
 10
8.6231933274
 20
5.5982434786
 10
8.5685328554
 20
5.5971779489
  0
LINE
  5
6AA
100
AcDbEntity
  8
0
100
AcDbLine
 62
7
  6
CONTINUOUS
 10
8.1835787829
 20
5.079577425
 11
8.1585664416
 21
5.0651294001
  0
LINE
  5
6AB
100
AcDbEntity
  8
0
100
AcDbLine
 62
7
  6
CONTINUOUS
 10
8.8422282825
 20
5.4598050089
 11
8.8672406238
 21
5.4742530338
  0
LINE
  5
6AC
100
AcDbEntity
  8
0
100
AcDbLine
 62
7
  6
CONTINUOUS
 10
8.1835787829
 20
5.040577425
 11
8.1585664416
 21
5.0261294001
  0
LINE
  5
6AD
100
AcDbEntity
  8
0
100
AcDbLine
 62
7
  6
CONTINUOUS
 10
8.8422282825
 20
5.4208050089
 11
8.8672406238
 21
5.4352530338
  0
LINE
  5
6AE
100
AcDbEntity
  8
0
100
AcDbLine
 62
7
  6
CONTINUOUS
 10
8.1835787829
 20
5.001577425
 11
8.1585664416
 21
4.9871294001
  0
LINE
  5
6AF
100
AcDbEntity
  8
0
100
AcDbLine
 62
7
  6
CONTINUOUS
 10
8.8422282825
 20
5.3818050089
 11
8.8672406238
 21
5.3962530338
  0
LWPOLYLINE
  5
6B0
100
AcDbEntity
  8
0
100
AcDbPolyline
 62
7
  6
CONTINUOUS
 90
11
 70
0
 10
8.8424035323
 20
5.3328752448
 10
8.8412888625
 20
5.3323642715
 10
8.8323766506
 20
5.3313397824
 10
8.8148364055
 20
5.3303179002
 10
8.7886941057
 20
5.3292809477
 10
8.754710317
 20
5.3282394936
 10
8.7143537818
 20
5.3272079997
 10
8.668973509
 20
5.3261877674
 10
8.6193572876
 20
5.3251669584
 10
8.5668636368
 20
5.3241460605
 10
8.4556782561
 20
5.3220414834
  0
LWPOLYLINE
  5
6B1
100
AcDbEntity
  8
0
100
AcDbPolyline
 62
7
  6
CONTINUOUS
 90
20
 70
0
 10
8.1585664416
 20
5.1431294001
 10
8.1592909715
 20
5.1433805071
 10
8.1686748927
 20
5.1444390376
 10
8.1880457319
 20
5.1454975681
 10
8.2168414936
 20
5.1465560986
 10
8.2542267419
 20
5.1476146291
 10
8.299116839
 20
5.1486731597
 10
8.350209413
 20
5.1497316902
 10
8.4060221429
 20
5.1507902207
 10
8.4649357644
 20
5.1518487512
 10
8.5252410485
 20
5.1529072817
 10
8.5851883911
 20
5.1539658122
 10
8.6430385724
 20
5.1550243427
 10
8.6971132167
 20
5.1560828732
 10
8.7458434858
 20
5.1571414037
 10
8.7878155949
 20
5.1581999343
 10
8.8218118301
 20
5.1592584648
 10
8.8468458771
 20
5.1603169953
 10
8.8621914368
 20
5.1613755258
 10
8.8672406238
 20
5.1622530338
  0
LWPOLYLINE
  5
6B2
100
AcDbEntity
  8
0
100
AcDbPolyline
 62
7
  6
CONTINUOUS
 90
3
 70
0
 10
8.1585664416
 20
5.0257530338
 10
8.1584187945
 20
5.0258836204
 10
8.1585664416
 20
5.0261294001
  0
LWPOLYLINE
  5
6B3
100
AcDbEntity
  8
0
100
AcDbPolyline
 62
7
  6
CONTINUOUS
 90
7
 70
0
 10
8.5379035327
 20
4.1303711791
 10
8.5398107355
 20
4.1240886262
 10
8.5455020323
 20
4.1180498662
 10
8.5548869692
 20
4.1124888917
 10
8.567816388
 20
4.1077541959
 10
8.5840847968
 20
4.1043305873
 10
8.6034336361
 20
4.1027574602
  0
LINE
  5
6B4
100
AcDbEntity
  8
AXIS
100
AcDbLine
 62
7
  6
CONTINUOUS
 10
8.3964035327
 20
4.1027574602
 11
8.3964035327
 21
3.5057102161
  0
LINE
  5
6B5
100
AcDbEntity
  8
AXIS_COSMETIC_THREADS
100
AcDbLine
 62
7
  6
CONTINUOUS
 10
8.3964035327
 20
4.1027574602
 11
8.3964035327
 21
3.5057102161
  0
LWPOLYLINE
  5
6B6
100
AcDbEntity
  8
0
100
AcDbPolyline
 62
7
  6
CONTINUOUS
 90
3
 70
0
 10
8.8672406238
 20
5.6692530338
 10
8.8673996758
 20
5.6694701709
 10
8.8672406238
 20
5.6696294001
  0
LWPOLYLINE
  5
6B7
100
AcDbEntity
  8
0
100
AcDbPolyline
 62
7
  6
CONTINUOUS
 90
3
 70
0
 10
8.8672406238
 20
5.3962530338
 10
8.8673797377
 20
5.3963692991
 10
8.8672406238
 20
5.3966294001
  0
LINE
  5
6B8
100
AcDbEntity
  8
0
100
AcDbLine
 62
7
  6
CONTINUOUS
 10
8.8422282825
 20
5.3428050089
 11
8.8672406238
 21
5.3572530338
  0
LINE
  5
6B9
100
AcDbEntity
  8
0
100
AcDbLine
 62
7
  6
CONTINUOUS
 10
8.8422282825
 20
5.3038050089
 11
8.8672406238
 21
5.3182530338
  0
LWPOLYLINE
  5
6BA
100
AcDbEntity
  8
0
100
AcDbPolyline
 62
7
  6
CONTINUOUS
 90
11
 70
0
 10
8.8424035313
 20
5.2938744159
 10
8.841646495
 20
5.2934541366
 10
8.833453148
 20
5.2924249306
 10
8.8165090435
 20
5.2913977698
 10
8.7908094692
 20
5.2903544368
 10
8.7570761188
 20
5.28930548
 10
8.7167667319
 20
5.2882656477
 10
8.6711930068
 20
5.2872353395
 10
8.620693621
 20
5.286193578
 10
8.5672165237
 20
5.2851527997
 10
8.4559068784
 20
5.2830458564
  0
LWPOLYLINE
  5
6BB
100
AcDbEntity
  8
0
100
AcDbPolyline
 62
7
  6
CONTINUOUS
 90
11
 70
0
 10
8.1834035327
 20
5.0115074939
 10
8.1845140182
 20
5.0120172023
 10
8.1933894434
 20
5.0130394957
 10
8.2109024167
 20
5.0140613212
 10
8.2370241185
 20
5.0150984267
 10
8.270996265
 20
5.0161401531
 10
8.3113504306
 20
5.0171719853
 10
8.3567706447
 20
5.0181933207
 10
8.4065742162
 20
5.0192179523
 10
8.4590026663
 20
5.0202375046
 10
8.5700833149
 20
5.0223400802
  0
LINE
  5
6BC
100
AcDbEntity
  8
0
100
AcDbLine
 62
7
  6
CONTINUOUS
 10
8.1585664416
 20
4.9867530338
 11
8.1835787829
 21
4.9723050089
  0
LINE
  5
6BD
100
AcDbEntity
  8
0
100
AcDbLine
 62
7
  6
CONTINUOUS
 10
8.1585664416
 20
5.0257530338
 11
8.1835787829
 21
5.0113050089
  0
LINE
  5
6BE
100
AcDbEntity
  8
0
100
AcDbLine
 62
7
  6
CONTINUOUS
 10
8.1585664416
 20
5.0647530338
 11
8.1835787829
 21
5.0503050089
  0
LWPOLYLINE
  5
6BF
100
AcDbEntity
  8
0
100
AcDbPolyline
 62
7
  6
CONTINUOUS
 90
3
 70
0
 10
8.1585664416
 20
5.2987530338
 10
8.1584121484
 20
5.2989844922
 10
8.1585664416
 20
5.2991294001
  0
LINE
  5
6C0
100
AcDbEntity
  8
0
100
AcDbLine
 62
7
  6
CONTINUOUS
 10
8.4879035327
 20
4.1303711791
 11
8.4879035327
 21
4.1986979077
  0
LINE
  5
6C1
100
AcDbEntity
  8
0
100
AcDbLine
 62
7
  6
CONTINUOUS
 10
8.8422282825
 20
5.2648050089
 11
8.8672406238
 21
5.2792530338
  0
LINE
  5
6C2
100
AcDbEntity
  8
0
100
AcDbLine
 62
7
  6
CONTINUOUS
 10
8.8422282825
 20
5.2258050089
 11
8.8672406238
 21
5.2402530338
  0
LINE
  5
6C3
100
AcDbEntity
  8
0
100
AcDbLine
 62
7
  6
CONTINUOUS
 10
8.8422282825
 20
5.1868050089
 11
8.8672406238
 21
5.2012530338
  0
LWPOLYLINE
  5
6C4
100
AcDbEntity
  8
0
100
AcDbPolyline
 62
7
  6
CONTINUOUS
 90
9
 70
0
 10
8.8424035327
 20
5.0208749736
 10
8.8373259904
 20
5.0197838899
 10
8.8224821568
 20
5.0187055496
 10
8.7982598943
 20
5.017625011
 10
8.765329292
 20
5.016542054
 10
8.7251491632
 20
5.0154693101
 10
8.6785675217
 20
5.0143948732
 10
8.6261877757
 20
5.013303444
 10
8.570094305
 20
5.0122078039
  0
LWPOLYLINE
  5
6C5
100
AcDbEntity
  8
0
100
AcDbPolyline
 62
7
  6
CONTINUOUS
 90
10
 70
0
 10
8.4559673425
 20
4.9811794993
 10
8.570094305
 20
4.9833402904
 10
8.6261877757
 20
4.9844359306
 10
8.6785675217
 20
4.9855273597
 10
8.7251491632
 20
4.9866017967
 10
8.765329292
 20
4.9876745406
 10
8.7982598943
 20
4.9887574976
 10
8.8224821568
 20
4.9898380361
 10
8.8373259904
 20
4.9909163765
 10
8.8422282825
 20
4.9918050089
  0
LINE
  5
6C6
100
AcDbEntity
  8
0
100
AcDbLine
 62
7
  6
CONTINUOUS
 10
8.1585664416
 20
5.1037530338
 11
8.1835787829
 21
5.0893050089
  0
LINE
  5
6C7
100
AcDbEntity
  8
0
100
AcDbLine
 62
7
  6
CONTINUOUS
 10
8.1585664416
 20
5.1427530338
 11
8.1835787829
 21
5.1283050089
  0
LINE
  5
6C8
100
AcDbEntity
  8
0
100
AcDbLine
 62
7
  6
CONTINUOUS
 10
8.1585664416
 20
5.1817530338
 11
8.1835787829
 21
5.1673050089
  0
LINE
  5
6C9
100
AcDbEntity
  8
0
100
AcDbLine
 62
7
  6
CONTINUOUS
 10
8.5379035327
 20
4.1303711791
 11
8.5379035327
 21
4.1427574602
  0
LINE
  5
6CA
100
AcDbEntity
  8
0
100
AcDbLine
 62
7
  6
CONTINUOUS
 10
8.8422282825
 20
5.1478050089
 11
8.8672406238
 21
5.1622530338
  0
LINE
  5
6CB
100
AcDbEntity
  8
0
100
AcDbLine
 62
7
  6
CONTINUOUS
 10
8.8422282825
 20
5.1088050089
 11
8.8672406238
 21
5.1232530338
  0
LINE
  5
6CC
100
AcDbEntity
  8
0
100
AcDbLine
 62
7
  6
CONTINUOUS
 10
8.8422282825
 20
5.0698050089
 11
8.8672406238
 21
5.0842530338
  0
LWPOLYLINE
  5
6CD
100
AcDbEntity
  8
0
100
AcDbPolyline
 62
7
  6
CONTINUOUS
 90
9
 70
0
 10
8.8424035327
 20
5.0988749629
 10
8.8374461848
 20
5.0977969142
 10
8.8228540365
 20
5.0967261004
 10
8.7986961215
 20
5.0956414842
 10
8.7654803341
 20
5.0945464827
 10
8.7246793052
 20
5.0934577477
 10
8.6779885698
 20
5.0923822639
 10
8.6256893741
 20
5.0912934487
 10
8.5698046165
 20
5.0902022631
  0
LWPOLYLINE
  5
6CE
100
AcDbEntity
  8
0
100
AcDbPolyline
 62
7
  6
CONTINUOUS
 90
9
 70
0
 10
8.8424035327
 20
5.0598749736
 10
8.8372690521
 20
5.0587777735
 10
8.8223804146
 20
5.0576999596
 10
8.7983565359
 20
5.0566286539
 10
8.7656214832
 20
5.0555506248
 10
8.7251683018
 20
5.0544697815
 10
8.6785396366
 20
5.0533942655
 10
8.6261666708
 20
5.0523030207
 10
8.5700833149
 20
5.0512075937
  0
LWPOLYLINE
  5
6CF
100
AcDbEntity
  8
0
100
AcDbPolyline
 62
7
  6
CONTINUOUS
 90
9
 70
0
 10
8.1834035327
 20
4.9725074509
 10
8.1885441892
 20
4.9736053218
 10
8.203393206
 20
4.9746806383
 10
8.2277296794
 20
4.9757642925
 10
8.2610776525
 20
4.976857932
 10
8.301960028
 20
4.9779451227
 10
8.348502852
 20
4.9790150559
 10
8.4003296264
 20
4.9800932337
 10
8.4559673425
 20
4.9811794993
  0
LWPOLYLINE
  5
6D0
100
AcDbEntity
  8
0
100
AcDbPolyline
 62
7
  6
CONTINUOUS
 90
20
 70
0
 10
8.1585664416
 20
4.9871294001
 10
8.1616087059
 20
4.987776522
 10
8.1747765822
 20
4.9888350526
 10
8.1977543515
 20
4.9898935831
 10
8.2298753723
 20
4.9909521136
 10
8.270207735
 20
4.9920106441
 10
8.3175812986
 20
4.9930691746
 10
8.3706216398
 20
4.9941277051
 10
8.4277899281
 20
4.9951862356
 10
8.487427571
 20
4.9962447661
 10
8.5478043341
 20
4.9973032966
 10
8.6071685393
 20
4.9983618272
 10
8.6637978852
 20
4.9994203577
 10
8.7160494154
 20
5.0004788882
 10
8.7624071848
 20
5.0015374187
 10
8.8015262407
 20
5.0025959492
 10
8.8322716431
 20
5.0036544797
 10
8.8537513925
 20
5.0047130102
 10
8.8653423086
 20
5.0057715407
 10
8.8672406238
 20
5.0062530338
  0
LWPOLYLINE
  5
6D1
100
AcDbEntity
  8
0
100
AcDbPolyline
 62
7
  6
CONTINUOUS
 90
9
 70
0
 10
8.5700833149
 20
5.0223400802
 10
8.6261666708
 20
5.0234355072
 10
8.6785396366
 20
5.0245267521
 10
8.7251683018
 20
5.025602268
 10
8.7656214832
 20
5.0266831114
 10
8.7983565359
 20
5.0277611405
 10
8.8223804146
 20
5.0288324461
 10
8.8372690521
 20
5.0299102601
 10
8.8422282825
 20
5.0308050089
  0
LWPOLYLINE
  5
6D2
100
AcDbEntity
  8
0
100
AcDbPolyline
 62
7
  6
CONTINUOUS
 90
10
 70
0
 10
8.570094305
 20
5.0122078039
 10
8.4559673425
 20
5.0100470128
 10
8.4003296264
 20
5.0089607471
 10
8.348502852
 20
5.0078825694
 10
8.301960028
 20
5.0068126362
 10
8.2610776525
 20
5.0057254454
 10
8.2277296794
 20
5.0046318059
 10
8.203393206
 20
5.0035481517
 10
8.1885441892
 20
5.0024728352
 10
8.1835787829
 20
5.001577425
  0
LWPOLYLINE
  5
6D3
100
AcDbEntity
  8
0
100
AcDbPolyline
 62
7
  6
CONTINUOUS
 90
11
 70
0
 10
8.5700833149
 20
5.0512075937
 10
8.4590026663
 20
5.049105018
 10
8.4065742162
 20
5.0480854657
 10
8.3567706447
 20
5.0470608342
 10
8.3113504306
 20
5.0460394988
 10
8.270996265
 20
5.0450076665
 10
8.2370241185
 20
5.0439659401
 10
8.2109024167
 20
5.0429288347
 10
8.1933894434
 20
5.0419070092
 10
8.1845140182
 20
5.0408847158
 10
8.1835787829
 20
5.040577425
  0
LWPOLYLINE
  5
6D4
100
AcDbEntity
  8
0
100
AcDbPolyline
 62
7
  6
CONTINUOUS
 90
10
 70
0
 10
8.455853819
 20
5.0591773281
 10
8.5698046165
 20
5.0613347497
 10
8.6256893741
 20
5.0624259353
 10
8.6779885698
 20
5.0635147504
 10
8.7246793052
 20
5.0645902342
 10
8.7654803341
 20
5.0656789693
 10
8.7986961215
 20
5.0667739707
 10
8.8228540365
 20
5.0678585869
 10
8.8374461848
 20
5.0689294007
 10
8.8422282825
 20
5.0698050089
  0
LINE
  5
6D5
100
AcDbEntity
  8
0
100
AcDbLine
 62
7
  6
CONTINUOUS
 10
8.1585664416
 20
5.2207530338
 11
8.1835787829
 21
5.2063050089
  0
LINE
  5
6D6
100
AcDbEntity
  8
0
100
AcDbLine
 62
7
  6
CONTINUOUS
 10
8.1585664416
 20
5.2597530338
 11
8.1835787829
 21
5.2453050089
  0
LINE
  5
6D7
100
AcDbEntity
  8
0
100
AcDbLine
 62
7
  6
CONTINUOUS
 10
8.1585664416
 20
5.2987530338
 11
8.1835787829
 21
5.2843050089
  0
LWPOLYLINE
  5
6D8
100
AcDbEntity
  8
0
100
AcDbPolyline
 62
7
  6
CONTINUOUS
 90
3
 70
0
 10
8.1585664416
 20
5.8057530338
 10
8.1584325288
 20
5.8060206067
 10
8.1585664416
 20
5.8061294001
  0
LINE
  5
6D9
100
AcDbEntity
  8
AXIS
100
AcDbLine
 62
7
  6
CONTINUOUS
 10
8.6294035327
 20
4.1027574602
 11
8.6294035327
 21
3.5057102161
  0
LINE
  5
6DA
100
AcDbEntity
  8
AXIS_COSMETIC_THREADS
100
AcDbLine
 62
7
  6
CONTINUOUS
 10
8.6294035327
 20
4.1027574602
 11
8.6294035327
 21
3.5057102161
  0
LWPOLYLINE
  5
6DB
100
AcDbEntity
  8
0
100
AcDbPolyline
 62
7
  6
CONTINUOUS
 90
11
 70
0
 10
8.8424035323
 20
5.1378752608
 10
8.8422323213
 20
5.137674869
 10
8.835652436
 20
5.1366163279
 10
8.8197723429
 20
5.1355610802
 10
8.794668033
 20
5.1344921375
 10
8.7609506625
 20
5.1334152569
 10
8.7201142054
 20
5.132346329
 10
8.6737922182
 20
5.1312913055
 10
8.6227531639
 20
5.1302346815
 10
8.5686536728
 20
5.129180258
 10
8.4556864976
 20
5.1270416411
  0
LWPOLYLINE
  5
6DC
100
AcDbEntity
  8
0
100
AcDbPolyline
 62
7
  6
CONTINUOUS
 90
3
 70
0
 10
8.8672406238
 20
5.1622530338
 10
8.8674032968
 20
5.1624340563
 10
8.8672406238
 20
5.1626294001
  0
LINE
  5
6DD
100
AcDbEntity
  8
0
100
AcDbLine
 62
7
  6
CONTINUOUS
 10
8.8422282825
 20
5.0308050089
 11
8.8672406238
 21
5.0452530338
  0
LINE
  5
6DE
100
AcDbEntity
  8
0
100
AcDbLine
 62
7
  6
CONTINUOUS
 10
8.8422282825
 20
4.9918050089
 11
8.8672406238
 21
5.0062530338
  0
LWPOLYLINE
  5
6DF
100
AcDbEntity
  8
0
100
AcDbPolyline
 62
7
  6
CONTINUOUS
 90
9
 70
0
 10
8.1834035327
 20
5.0505074662
 10
8.1883696827
 20
5.0515864788
 10
8.2029965626
 20
5.052658749
 10
8.2271274133
 20
5.053741573
 10
8.2602862928
 20
5.0548347648
 10
8.301010174
 20
5.0559217943
 10
8.347616451
 20
5.0569957713
 10
8.3998924816
 20
5.0580844694
 10
8.455853819
 20
5.0591773281
  0
LWPOLYLINE
  5
6E0
100
AcDbEntity
  8
0
100
AcDbPolyline
 62
7
  6
CONTINUOUS
 90
9
 70
0
 10
8.8424035327
 20
5.2158749736
 10
8.8373124878
 20
5.2147824364
 10
8.8224476602
 20
5.2137036527
 10
8.7982321185
 20
5.2126239647
 10
8.7653907043
 20
5.2115438542
 10
8.725236217
 20
5.2104714544
 10
8.6786368508
 20
5.2093963841
 10
8.6262383858
 20
5.2083044594
 10
8.5701207401
 20
5.2072083095
  0
LWPOLYLINE
  5
6E1
100
AcDbEntity
  8
0
100
AcDbPolyline
 62
7
  6
CONTINUOUS
 90
9
 70
0
 10
8.1834035327
 20
5.0895074602
 10
8.1885332871
 20
5.090604154
 10
8.2034307313
 20
5.0916826982
 10
8.227512484
 20
5.0927561158
 10
8.2601582624
 20
5.093831007
 10
8.3005464948
 20
5.0949103795
 10
8.347179363
 20
5.0959862491
 10
8.3995719944
 20
5.097078041
 10
8.4556864976
 20
5.0981741276
  0
LWPOLYLINE
  5
6E2
100
AcDbEntity
  8
0
100
AcDbPolyline
 62
7
  6
CONTINUOUS
 90
9
 70
0
 10
8.8424035327
 20
5.176874978
 10
8.8372651961
 20
5.1757773605
 10
8.8224235108
 20
5.1747023257
 10
8.7981079346
 20
5.1736192904
 10
8.7647901549
 20
5.1725262765
 10
8.7239466326
 20
5.1714397538
 10
8.6774336969
 20
5.1703701929
 10
8.6255211506
 20
5.1692900764
 10
8.5698344056
 20
5.1682028329
  0
LWPOLYLINE
  5
6E3
100
AcDbEntity
  8
0
100
AcDbPolyline
 62
7
  6
CONTINUOUS
 90
9
 70
0
 10
8.8424035327
 20
5.2548749736
 10
8.8372672674
 20
5.2537775824
 10
8.8223913334
 20
5.2527005588
 10
8.7983903589
 20
5.2516299298
 10
8.7655633611
 20
5.2505489188
 10
8.725055067
 20
5.2494669931
 10
8.6784360588
 20
5.2483920087
 10
8.6260907587
 20
5.2473014979
 10
8.5700436789
 20
5.2462068355
  0
LWPOLYLINE
  5
6E4
100
AcDbEntity
  8
0
100
AcDbPolyline
 62
7
  6
CONTINUOUS
 90
20
 70
0
 10
8.1585664416
 20
5.0261294001
 10
8.1630027753
 20
5.0269421509
 10
8.1777382363
 20
5.0280006814
 10
8.2021976654
 20
5.029059212
 10
8.2356714346
 20
5.0301177425
 10
8.2771883876
 20
5.031176273
 10
8.3255440158
 20
5.0322348035
 10
8.3793354035
 20
5.033293334
 10
8.4370019306
 20
5.0343518645
 10
8.4968705496
 20
5.035410395
 10
8.5572043248
 20
5.0364689255
 10
8.6162528252
 20
5.037527456
 10
8.6723029089
 20
5.0385859866
 10
8.7237284253
 20
5.0396445171
 10
8.7690373939
 20
5.0407030476
 10
8.8069152904
 20
5.0417615781
 10
8.8362631839
 20
5.0428201086
 10
8.8562296199
 20
5.0438786391
 10
8.8662353232
 20
5.0449371696
 10
8.8672406238
 20
5.0452530338
  0
LWPOLYLINE
  5
6E5
100
AcDbEntity
  8
0
100
AcDbPolyline
 62
7
  6
CONTINUOUS
 90
20
 70
0
 10
8.1585664416
 20
5.0651294001
 10
8.1646459723
 20
5.0661077798
 10
8.1809385264
 20
5.0671663103
 10
8.2068622003
 20
5.0682248409
 10
8.2416648847
 20
5.0692833714
 10
8.2843368683
 20
5.0703419019
 10
8.333640132
 20
5.0714004324
 10
8.3881442671
 20
5.0724589629
 10
8.4462679748
 20
5.0735174934
 10
8.5063249436
 20
5.0745760239
 10
8.5665727735
 20
5.0756345544
 10
8.6252635269
 20
5.0766930849
 10
8.680694441
 20
5.0777516154
 10
8.7312573289
 20
5.078810146
 10
8.775485237
 20
5.0798686765
 10
8.8120950052
 20
5.080927207
 10
8.8400244942
 20
5.0819857375
 10
8.8584634008
 20
5.083044268
 10
8.8668767673
 20
5.0841027985
 10
8.8672406238
 20
5.0842530338
  0
LWPOLYLINE
  5
6E6
100
AcDbEntity
  8
0
100
AcDbPolyline
 62
7
  6
CONTINUOUS
 90
10
 70
0
 10
8.1585664416
 20
5.1041294001
 10
8.1665371269
 20
5.1052734087
 10
8.1843751739
 20
5.1063319392
 10
8.2117446351
 20
5.1073904697
 10
8.2478514554
 20
5.1084490003
 10
8.2916480873
 20
5.1095075308
 10
8.3418638828
 20
5.1105660613
 10
8.3970419586
 20
5.1116245918
 10
8.4555814631
 20
5.1126831223
 10
8.5759030099
 20
5.1148001833
  0
LWPOLYLINE
  5
6E7
100
AcDbEntity
  8
0
100
AcDbPolyline
 62
7
  6
CONTINUOUS
 90
9
 70
0
 10
8.4556864976
 20
5.1270416411
 10
8.3995719944
 20
5.1259455545
 10
8.347179363
 20
5.1248537626
 10
8.3005464948
 20
5.123777893
 10
8.2601582624
 20
5.1226985204
 10
8.227512484
 20
5.1216236292
 10
8.2034307313
 20
5.1205502117
 10
8.1885332871
 20
5.1194716674
 10
8.1835787829
 20
5.118577425
  0
LWPOLYLINE
  5
6E8
100
AcDbEntity
  8
0
100
AcDbPolyline
 62
7
  6
CONTINUOUS
 90
10
 70
0
 10
8.5698046165
 20
5.0902022631
 10
8.455853819
 20
5.0880448415
 10
8.3998924816
 20
5.0869519828
 10
8.347616451
 20
5.0858632847
 10
8.301010174
 20
5.0847893077
 10
8.2602862928
 20
5.0837022782
 10
8.2271274133
 20
5.0826090865
 10
8.2029965626
 20
5.0815262625
 10
8.1883696827
 20
5.0804539923
 10
8.1835787829
 20
5.079577425
  0
LWPOLYLINE
  5
6E9
100
AcDbEntity
  8
0
100
AcDbPolyline
 62
7
  6
CONTINUOUS
 90
10
 70
0
 10
8.4556864976
 20
5.0981741276
 10
8.5686536728
 20
5.1003127446
 10
8.6227531639
 20
5.1013671681
 10
8.6737922182
 20
5.102423792
 10
8.7201142054
 20
5.1034788155
 10
8.7609506625
 20
5.1045477435
 10
8.794668033
 20
5.105624624
 10
8.8197723429
 20
5.1066935667
 10
8.835652436
 20
5.1077488145
 10
8.8422282825
 20
5.1088050089
  0
LWPOLYLINE
  5
6EA
100
AcDbEntity
  8
0
100
AcDbPolyline
 62
7
  6
CONTINUOUS
 90
10
 70
0
 10
8.4557264564
 20
5.137174892
 10
8.5698344056
 20
5.1393353194
 10
8.6255211506
 20
5.1404225629
 10
8.6774336969
 20
5.1415026794
 10
8.7239466326
 20
5.1425722403
 10
8.7647901549
 20
5.143658763
 10
8.7981079346
 20
5.1447517769
 10
8.8224235108
 20
5.1458348123
 10
8.8372651961
 20
5.1469098471
 10
8.8422282825
 20
5.1478050089
  0
LWPOLYLINE
  5
6EB
100
AcDbEntity
  8
0
100
AcDbPolyline
 62
7
  6
CONTINUOUS
 90
10
 70
0
 10
8.5698344056
 20
5.1682028329
 10
8.4557264564
 20
5.1660424054
 10
8.3996484393
 20
5.164947088
 10
8.3472848305
 20
5.163856061
 10
8.3007156571
 20
5.1627820594
 10
8.2604988437
 20
5.1617085108
 10
8.2275256178
 20
5.1606241242
 10
8.2033037802
 20
5.1595432352
 10
8.188472774
 20
5.1584651629
 10
8.1835787829
 20
5.157577425
  0
LWPOLYLINE
  5
6EC
100
AcDbEntity
  8
0
100
AcDbPolyline
 62
7
  6
CONTINUOUS
 90
10
 70
0
 10
8.4559385584
 20
5.1761789488
 10
8.5701207401
 20
5.1783407961
 10
8.6262383858
 20
5.1794369459
 10
8.6786368508
 20
5.1805288707
 10
8.725236217
 20
5.1816039409
 10
8.7653907043
 20
5.1826763408
 10
8.7982321185
 20
5.1837564512
 10
8.8224476602
 20
5.1848361392
 10
8.8373124878
 20
5.1859149229
 10
8.8422282825
 20
5.1868050089
  0
LWPOLYLINE
  5
6ED
100
AcDbEntity
  8
0
100
AcDbPolyline
 62
7
  6
CONTINUOUS
 90
9
 70
0
 10
8.5759030099
 20
5.1148001833
 10
8.6341942288
 20
5.1158587138
 10
8.6889665068
 20
5.1169172443
 10
8.7386307657
 20
5.1179757748
 10
8.7817461232
 20
5.1190343054
 10
8.8170616972
 20
5.1200928359
 10
8.843552896
 20
5.1211513664
 10
8.8604511449
 20
5.1222098969
 10
8.8672406238
 20
5.1232530338
  0
LINE
  5
6EE
100
AcDbEntity
  8
0
100
AcDbLine
 62
7
  6
CONTINUOUS
 10
8.1585664416
 20
5.3377530338
 11
8.1835787829
 21
5.3233050089
  0
LINE
  5
6EF
100
AcDbEntity
  8
0
100
AcDbLine
 62
7
  6
CONTINUOUS
 10
8.1585664416
 20
5.3767530338
 11
8.1835787829
 21
5.3623050089
  0
LINE
  5
6F0
100
AcDbEntity
  8
0
100
AcDbLine
 62
7
  6
CONTINUOUS
 10
8.1585664416
 20
5.4157530338
 11
8.1835787829
 21
5.4013050089
  0
LINE
  5
6F1
100
AcDbEntity
  8
0
100
AcDbLine
 62
7
  6
CONTINUOUS
 10
8.8672406238
 20
5.0066294001
 11
8.8422282825
 21
5.021077425
  0
LWPOLYLINE
  5
6F2
100
AcDbEntity
  8
0
100
AcDbPolyline
 62
7
  6
CONTINUOUS
 90
3
 70
0
 10
8.1585664416
 20
5.5327530338
 10
8.1584056557
 20
5.532919735
 10
8.1585664416
 20
5.5331294001
  0
LINE
  5
6F3
100
AcDbEntity
  8
0
100
AcDbLine
 62
9
  6
CONTINUOUS
 10
8.7779035327
 20
4.1303711791
 11
8.7779035327
 21
4.1427574602
  0
LWPOLYLINE
  5
6F4
100
AcDbEntity
  8
0
100
AcDbPolyline
 62
7
  6
CONTINUOUS
 90
7
 70
0
 10
8.4879035327
 20
4.1303711791
 10
8.4859963298
 20
4.1240886262
 10
8.480305033
 20
4.1180498662
 10
8.4709200961
 20
4.1124888917
 10
8.4579906773
 20
4.1077541959
 10
8.4417222685
 20
4.1043305873
 10
8.4223734292
 20
4.1027574602
  0
LWPOLYLINE
  5
6F5
100
AcDbEntity
  8
0
100
AcDbPolyline
 62
7
  6
CONTINUOUS
 90
20
 70
0
 10
8.1585664416
 20
5.1821294001
 10
8.1600856935
 20
5.182546136
 10
8.1710577476
 20
5.1836046665
 10
8.1919475871
 20
5.184663197
 10
8.2221491467
 20
5.1857217275
 10
8.2607862049
 20
5.186780258
 10
8.3067378058
 20
5.1878387885
 10
8.3586707807
 20
5.1888973191
 10
8.4150784263
 20
5.1899558496
 10
8.4743242185
 20
5.1910143801
 10
8.5346892913
 20
5.1920729106
 10
8.5944223058
 20
5.1931314411
 10
8.6517902605
 20
5.1941899716
 10
8.7051287702
 20
5.1952485021
 10
8.7528903538
 20
5.1963070326
 10
8.7936893305
 20
5.1973655631
 10
8.8263420218
 20
5.1984240937
 10
8.8499010929
 20
5.1994826242
 10
8.8636830374
 20
5.2005411547
 10
8.8672406238
 20
5.2012530338
  0
LWPOLYLINE
  5
6F6
100
AcDbEntity
  8
0
100
AcDbPolyline
 62
7
  6
CONTINUOUS
 90
9
 70
0
 10
8.1834035327
 20
5.1285074601
 10
8.188472774
 20
5.1295976494
 10
8.2033037802
 20
5.1306757217
 10
8.2275256178
 20
5.1317566107
 10
8.2604988437
 20
5.1328409974
 10
8.3007156571
 20
5.133914546
 10
8.3472848305
 20
5.1349885476
 10
8.3996484393
 20
5.1360795746
 10
8.4557264564
 20
5.137174892
  0
LWPOLYLINE
  5
6F7
100
AcDbEntity
  8
0
100
AcDbPolyline
 62
7
  6
CONTINUOUS
 90
9
 70
0
 10
8.1834035327
 20
5.1675074495
 10
8.1885024518
 20
5.1686008443
 10
8.2033314116
 20
5.169677242
 10
8.2276818986
 20
5.1707624953
 10
8.2610740024
 20
5.1718578253
 10
8.3020238271
 20
5.172946687
 10
8.3486675294
 20
5.1740186349
 10
8.4003709106
 20
5.1750940612
 10
8.4559385584
 20
5.1761789488
  0
LWPOLYLINE
  5
6F8
100
AcDbEntity
  8
0
100
AcDbPolyline
 62
7
  6
CONTINUOUS
 90
9
 70
0
 10
8.5700436789
 20
5.2173393221
 10
8.6260907587
 20
5.2184339845
 10
8.6784360588
 20
5.2195244952
 10
8.725055067
 20
5.2205994797
 10
8.7655633611
 20
5.2216814053
 10
8.7983903589
 20
5.2227624163
 10
8.8223913334
 20
5.2238330454
 10
8.8372672674
 20
5.2249100689
 10
8.8422282825
 20
5.2258050089
  0
LWPOLYLINE
  5
6F9
100
AcDbEntity
  8
0
100
AcDbPolyline
 62
7
  6
CONTINUOUS
 90
9
 70
0
 10
8.4559068784
 20
5.2830458564
 10
8.3999941108
 20
5.2819540208
 10
8.3477554
 20
5.28086631
 10
8.3011752023
 20
5.2797933661
 10
8.2604731824
 20
5.2787077588
 10
8.2273176226
 20
5.2776162774
 10
8.2031606868
 20
5.2765353457
 10
8.1884317545
 20
5.2754607318
 10
8.1835787829
 20
5.274577425
  0
LWPOLYLINE
  5
6FA
100
AcDbEntity
  8
0
100
AcDbPolyline
 62
7
  6
CONTINUOUS
 90
10
 70
0
 10
8.5701207401
 20
5.2072083095
 10
8.4559385584
 20
5.2050464623
 10
8.4003709106
 20
5.2039615746
 10
8.3486675294
 20
5.2028861483
 10
8.3020238271
 20
5.2018142004
 10
8.2610740024
 20
5.2007253388
 10
8.2276818986
 20
5.1996300087
 10
8.2033314116
 20
5.1985447555
 10
8.1885024518
 20
5.1974683577
 10
8.1835787829
 20
5.196577425
  0
LWPOLYLINE
  5
6FB
100
AcDbEntity
  8
0
100
AcDbPolyline
 62
7
  6
CONTINUOUS
 90
11
 70
0
 10
8.5700436789
 20
5.2462068355
 10
8.459051424
 20
5.244105949
 10
8.4065774379
 20
5.2430855299
 10
8.3566744306
 20
5.2420587758
 10
8.3112492689
 20
5.2410370896
 10
8.2709150544
 20
5.240005413
 10
8.2369639264
 20
5.2389638659
 10
8.2108627912
 20
5.2379269676
 10
8.1933698943
 20
5.2369055012
 10
8.1845151765
 20
5.2358849817
 10
8.1835787829
 20
5.235577425
  0
LWPOLYLINE
  5
6FC
100
AcDbEntity
  8
0
100
AcDbPolyline
 62
7
  6
CONTINUOUS
 90
11
 70
0
 10
8.4559068784
 20
5.2541783429
 10
8.5672165237
 20
5.2562852862
 10
8.620693621
 20
5.2573260645
 10
8.6711930068
 20
5.258367826
 10
8.7167667319
 20
5.2593981342
 10
8.7570761188
 20
5.2604379666
 10
8.7908094692
 20
5.2614869233
 10
8.8165090435
 20
5.2625302563
 10
8.833453148
 20
5.2635574172
 10
8.841646495
 20
5.2645866232
 10
8.8422282825
 20
5.2648050089
  0
LINE
  5
6FD
100
AcDbEntity
  8
0
100
AcDbLine
 62
7
  6
CONTINUOUS
 10
8.1585664416
 20
5.4547530338
 11
8.1835787829
 21
5.4403050089
  0
LINE
  5
6FE
100
AcDbEntity
  8
0
100
AcDbLine
 62
7
  6
CONTINUOUS
 10
8.8672406238
 20
5.0456294001
 11
8.8422282825
 21
5.060077425
  0
LINE
  5
6FF
100
AcDbEntity
  8
0
100
AcDbLine
 62
7
  6
CONTINUOUS
 10
8.1585664416
 20
5.4937530338
 11
8.1835787829
 21
5.4793050089
  0
LINE
  5
700
100
AcDbEntity
  8
0
100
AcDbLine
 62
7
  6
CONTINUOUS
 10
8.8672406238
 20
5.0846294001
 11
8.8422282825
 21
5.099077425
  0
LINE
  5
701
100
AcDbEntity
  8
0
100
AcDbLine
 62
7
  6
CONTINUOUS
 10
8.1585664416
 20
5.5327530338
 11
8.1835787829
 21
5.5183050089
  0
LINE
  5
702
100
AcDbEntity
  8
0
100
AcDbLine
 62
7
  6
CONTINUOUS
 10
8.8672406238
 20
5.1236294001
 11
8.8422282825
 21
5.138077425
  0
LINE
  5
703
100
AcDbEntity
  8
0
100
AcDbLine
 62
7
  6
CONTINUOUS
 10
8.8379035327
 20
4.2627574602
 11
8.8379035327
 21
4.1427574602
  0
LINE
  5
704
100
AcDbEntity
  8
AXIS
100
AcDbLine
 62
7
  6
CONTINUOUS
 10
8.8424035327
 20
6.3960074602
 11
8.8424035327
 21
6.3858749737
  0
LINE
  5
705
100
AcDbEntity
  8
AXIS
100
AcDbLine
 62
7
  6
CONTINUOUS
 10
8.8424035327
 20
6.3570074602
 11
8.8424035327
 21
6.3468749737
  0
LINE
  5
706
100
AcDbEntity
  8
AXIS
100
AcDbLine
 62
7
  6
CONTINUOUS
 10
8.8424035327
 20
6.3180074602
 11
8.8424035327
 21
6.3078749737
  0
LINE
  5
707
100
AcDbEntity
  8
AXIS
100
AcDbLine
 62
7
  6
CONTINUOUS
 10
8.8424035327
 20
6.2790074602
 11
8.8424035327
 21
6.2688749737
  0
LINE
  5
708
100
AcDbEntity
  8
AXIS
100
AcDbLine
 62
7
  6
CONTINUOUS
 10
8.8424035327
 20
6.2400074602
 11
8.8424035327
 21
6.2298749737
  0
LINE
  5
709
100
AcDbEntity
  8
AXIS
100
AcDbLine
 62
7
  6
CONTINUOUS
 10
8.8424035327
 20
6.2010074602
 11
8.8424035327
 21
6.1908749737
  0
LINE
  5
70A
100
AcDbEntity
  8
AXIS
100
AcDbLine
 62
7
  6
CONTINUOUS
 10
8.8424035327
 20
6.1620074602
 11
8.8424035327
 21
6.1518749737
  0
LINE
  5
70B
100
AcDbEntity
  8
AXIS
100
AcDbLine
 62
7
  6
CONTINUOUS
 10
8.8424035327
 20
6.1230074602
 11
8.8424035327
 21
6.1128749737
  0
LINE
  5
70C
100
AcDbEntity
  8
AXIS
100
AcDbLine
 62
7
  6
CONTINUOUS
 10
8.8424035327
 20
6.0840074602
 11
8.8424035327
 21
6.0738749737
  0
LINE
  5
70D
100
AcDbEntity
  8
AXIS
100
AcDbLine
 62
7
  6
CONTINUOUS
 10
8.8424035327
 20
6.0450074602
 11
8.8424035327
 21
6.0348749737
  0
LINE
  5
70E
100
AcDbEntity
  8
AXIS
100
AcDbLine
 62
7
  6
CONTINUOUS
 10
8.8424035327
 20
6.0060074602
 11
8.8424035327
 21
5.9958749737
  0
LINE
  5
70F
100
AcDbEntity
  8
AXIS
100
AcDbLine
 62
7
  6
CONTINUOUS
 10
8.8424035327
 20
5.9670074602
 11
8.8424035327
 21
5.9568749737
  0
LINE
  5
710
100
AcDbEntity
  8
AXIS
100
AcDbLine
 62
7
  6
CONTINUOUS
 10
8.8424035327
 20
5.9280074602
 11
8.8424035327
 21
5.9178749737
  0
LINE
  5
711
100
AcDbEntity
  8
AXIS
100
AcDbLine
 62
7
  6
CONTINUOUS
 10
8.8424035327
 20
5.8890074602
 11
8.8424035327
 21
5.8788749737
  0
LINE
  5
712
100
AcDbEntity
  8
AXIS
100
AcDbLine
 62
7
  6
CONTINUOUS
 10
8.8424035327
 20
5.8500074602
 11
8.8424035327
 21
5.8398749737
  0
LINE
  5
713
100
AcDbEntity
  8
AXIS
100
AcDbLine
 62
7
  6
CONTINUOUS
 10
8.8424035327
 20
5.8110074602
 11
8.8424035327
 21
5.8008749737
  0
LINE
  5
714
100
AcDbEntity
  8
AXIS
100
AcDbLine
 62
7
  6
CONTINUOUS
 10
8.8424035327
 20
5.7720074602
 11
8.8424035327
 21
5.7618749737
  0
LINE
  5
715
100
AcDbEntity
  8
AXIS
100
AcDbLine
 62
7
  6
CONTINUOUS
 10
8.8424035327
 20
5.7330074602
 11
8.8424035327
 21
5.7228749737
  0
LINE
  5
716
100
AcDbEntity
  8
AXIS
100
AcDbLine
 62
7
  6
CONTINUOUS
 10
8.8424035327
 20
5.6940074602
 11
8.8424035327
 21
5.6838749737
  0
LINE
  5
717
100
AcDbEntity
  8
AXIS
100
AcDbLine
 62
7
  6
CONTINUOUS
 10
8.8424035327
 20
5.6550074602
 11
8.8424035327
 21
5.6448749737
  0
LINE
  5
718
100
AcDbEntity
  8
AXIS
100
AcDbLine
 62
7
  6
CONTINUOUS
 10
8.8424035327
 20
5.6160074602
 11
8.8424035327
 21
5.6058749737
  0
LINE
  5
719
100
AcDbEntity
  8
AXIS
100
AcDbLine
 62
7
  6
CONTINUOUS
 10
8.8424035327
 20
5.5770074602
 11
8.8424035327
 21
5.5668749737
  0
LINE
  5
71A
100
AcDbEntity
  8
AXIS
100
AcDbLine
 62
7
  6
CONTINUOUS
 10
8.8424035327
 20
5.5380074602
 11
8.8424035327
 21
5.5278749737
  0
LINE
  5
71B
100
AcDbEntity
  8
AXIS
100
AcDbLine
 62
7
  6
CONTINUOUS
 10
8.8424035327
 20
5.4990074602
 11
8.8424035327
 21
5.4888749737
  0
LINE
  5
71C
100
AcDbEntity
  8
AXIS
100
AcDbLine
 62
7
  6
CONTINUOUS
 10
8.8424035327
 20
5.4600074602
 11
8.8424035327
 21
5.4498749737
  0
LINE
  5
71D
100
AcDbEntity
  8
AXIS
100
AcDbLine
 62
7
  6
CONTINUOUS
 10
8.8424035327
 20
5.4210074602
 11
8.8424035327
 21
5.4108749737
  0
LINE
  5
71E
100
AcDbEntity
  8
AXIS
100
AcDbLine
 62
7
  6
CONTINUOUS
 10
8.8424035327
 20
5.3820074602
 11
8.8424035327
 21
5.3718749737
  0
LINE
  5
71F
100
AcDbEntity
  8
AXIS
100
AcDbLine
 62
7
  6
CONTINUOUS
 10
8.8424035327
 20
5.3430074602
 11
8.8424035327
 21
5.3328749737
  0
LINE
  5
720
100
AcDbEntity
  8
AXIS
100
AcDbLine
 62
7
  6
CONTINUOUS
 10
8.8424035327
 20
5.3040074602
 11
8.8424035327
 21
5.2938749737
  0
LINE
  5
721
100
AcDbEntity
  8
AXIS
100
AcDbLine
 62
7
  6
CONTINUOUS
 10
8.8424035327
 20
5.2650074602
 11
8.8424035327
 21
5.2548749737
  0
LINE
  5
722
100
AcDbEntity
  8
AXIS
100
AcDbLine
 62
7
  6
CONTINUOUS
 10
8.8424035327
 20
5.2260074602
 11
8.8424035327
 21
5.2158749737
  0
LINE
  5
723
100
AcDbEntity
  8
AXIS
100
AcDbLine
 62
7
  6
CONTINUOUS
 10
8.8424035327
 20
5.1870074602
 11
8.8424035327
 21
5.1768749737
  0
LINE
  5
724
100
AcDbEntity
  8
AXIS
100
AcDbLine
 62
7
  6
CONTINUOUS
 10
8.8424035327
 20
5.1480074602
 11
8.8424035327
 21
5.1378749737
  0
LINE
  5
725
100
AcDbEntity
  8
AXIS
100
AcDbLine
 62
7
  6
CONTINUOUS
 10
8.8424035327
 20
5.1090074602
 11
8.8424035327
 21
5.0988749737
  0
LINE
  5
726
100
AcDbEntity
  8
AXIS
100
AcDbLine
 62
7
  6
CONTINUOUS
 10
8.8424035327
 20
5.0700074602
 11
8.8424035327
 21
5.0598749737
  0
LINE
  5
727
100
AcDbEntity
  8
AXIS
100
AcDbLine
 62
7
  6
CONTINUOUS
 10
8.8424035327
 20
5.0310074602
 11
8.8424035327
 21
5.0208749737
  0
LINE
  5
728
100
AcDbEntity
  8
AXIS
100
AcDbLine
 62
7
  6
CONTINUOUS
 10
8.8424035327
 20
4.9920074602
 11
8.8424035327
 21
4.2627574602
  0
LINE
  5
729
100
AcDbEntity
  8
0
100
AcDbLine
 62
7
  6
CONTINUOUS
 10
8.8672406238
 20
5.0062530338
 11
8.8672406238
 21
5.0066294001
  0
LINE
  5
72A
100
AcDbEntity
  8
0
100
AcDbLine
 62
7
  6
CONTINUOUS
 10
8.8672406238
 20
5.0452530338
 11
8.8672406238
 21
5.0456294001
  0
LINE
  5
72B
100
AcDbEntity
  8
0
100
AcDbLine
 62
7
  6
CONTINUOUS
 10
8.8672406238
 20
5.0842530338
 11
8.8672406238
 21
5.0846294001
  0
LINE
  5
72C
100
AcDbEntity
  8
0
100
AcDbLine
 62
7
  6
CONTINUOUS
 10
8.8672406238
 20
5.1232530338
 11
8.8672406238
 21
5.1236294001
  0
LINE
  5
72D
100
AcDbEntity
  8
0
100
AcDbLine
 62
7
  6
CONTINUOUS
 10
8.8672406238
 20
5.2012530338
 11
8.8672406238
 21
5.2016294001
  0
LINE
  5
72E
100
AcDbEntity
  8
0
100
AcDbLine
 62
7
  6
CONTINUOUS
 10
8.8672406238
 20
5.2402530338
 11
8.8672406238
 21
5.2406294001
  0
LINE
  5
72F
100
AcDbEntity
  8
0
100
AcDbLine
 62
7
  6
CONTINUOUS
 10
8.8672406238
 20
5.2792530338
 11
8.8672406238
 21
5.2796294001
  0
LINE
  5
730
100
AcDbEntity
  8
0
100
AcDbLine
 62
7
  6
CONTINUOUS
 10
8.8672406238
 20
5.3182530338
 11
8.8672406238
 21
5.3186294001
  0
LINE
  5
731
100
AcDbEntity
  8
0
100
AcDbLine
 62
7
  6
CONTINUOUS
 10
8.8672406238
 20
5.3572530338
 11
8.8672406238
 21
5.3576294001
  0
LINE
  5
732
100
AcDbEntity
  8
0
100
AcDbLine
 62
7
  6
CONTINUOUS
 10
8.8672406238
 20
5.4352530338
 11
8.8672406238
 21
5.4356294001
  0
LINE
  5
733
100
AcDbEntity
  8
0
100
AcDbLine
 62
7
  6
CONTINUOUS
 10
8.8672406238
 20
5.4742530338
 11
8.8672406238
 21
5.4746294001
  0
LINE
  5
734
100
AcDbEntity
  8
0
100
AcDbLine
 62
7
  6
CONTINUOUS
 10
8.8672406238
 20
5.5132530338
 11
8.8672406238
 21
5.5136294001
  0
LINE
  5
735
100
AcDbEntity
  8
0
100
AcDbLine
 62
7
  6
CONTINUOUS
 10
8.8672406238
 20
5.5522530338
 11
8.8672406238
 21
5.5526294001
  0
LINE
  5
736
100
AcDbEntity
  8
0
100
AcDbLine
 62
7
  6
CONTINUOUS
 10
8.8672406238
 20
5.5912530338
 11
8.8672406238
 21
5.5916294001
  0
LINE
  5
737
100
AcDbEntity
  8
0
100
AcDbLine
 62
7
  6
CONTINUOUS
 10
8.8672406238
 20
5.6302530338
 11
8.8672406238
 21
5.6306294001
  0
LINE
  5
738
100
AcDbEntity
  8
0
100
AcDbLine
 62
7
  6
CONTINUOUS
 10
8.8672406238
 20
5.7082530338
 11
8.8672406238
 21
5.7086294001
  0
LINE
  5
739
100
AcDbEntity
  8
0
100
AcDbLine
 62
7
  6
CONTINUOUS
 10
8.8672406238
 20
5.7472530338
 11
8.8672406238
 21
5.7476294001
  0
LINE
  5
73A
100
AcDbEntity
  8
0
100
AcDbLine
 62
7
  6
CONTINUOUS
 10
8.8672406238
 20
5.7862530338
 11
8.8672406238
 21
5.7866294001
  0
LINE
  5
73B
100
AcDbEntity
  8
0
100
AcDbLine
 62
7
  6
CONTINUOUS
 10
8.8672406238
 20
5.8252530338
 11
8.8672406238
 21
5.8256294001
  0
LINE
  5
73C
100
AcDbEntity
  8
0
100
AcDbLine
 62
7
  6
CONTINUOUS
 10
8.8672406238
 20
5.8642530338
 11
8.8672406238
 21
5.8646294001
  0
LINE
  5
73D
100
AcDbEntity
  8
0
100
AcDbLine
 62
7
  6
CONTINUOUS
 10
8.8672406238
 20
5.9422530338
 11
8.8672406238
 21
5.9426294001
  0
LINE
  5
73E
100
AcDbEntity
  8
0
100
AcDbLine
 62
7
  6
CONTINUOUS
 10
8.8672406238
 20
5.9812530338
 11
8.8672406238
 21
5.9816294001
  0
LINE
  5
73F
100
AcDbEntity
  8
0
100
AcDbLine
 62
7
  6
CONTINUOUS
 10
8.8672406238
 20
6.0202530338
 11
8.8672406238
 21
6.0206294001
  0
LINE
  5
740
100
AcDbEntity
  8
0
100
AcDbLine
 62
7
  6
CONTINUOUS
 10
8.8672406238
 20
6.0592530338
 11
8.8672406238
 21
6.0596294001
  0
LINE
  5
741
100
AcDbEntity
  8
0
100
AcDbLine
 62
7
  6
CONTINUOUS
 10
8.8672406238
 20
6.0982530338
 11
8.8672406238
 21
6.0986294001
  0
LINE
  5
742
100
AcDbEntity
  8
0
100
AcDbLine
 62
7
  6
CONTINUOUS
 10
8.8672406238
 20
6.1372530338
 11
8.8672406238
 21
6.1376294001
  0
LINE
  5
743
100
AcDbEntity
  8
0
100
AcDbLine
 62
7
  6
CONTINUOUS
 10
8.8672406238
 20
6.2152530338
 11
8.8672406238
 21
6.2156294001
  0
LINE
  5
744
100
AcDbEntity
  8
0
100
AcDbLine
 62
7
  6
CONTINUOUS
 10
8.8672406238
 20
6.2542530338
 11
8.8672406238
 21
6.2546294001
  0
LINE
  5
745
100
AcDbEntity
  8
0
100
AcDbLine
 62
7
  6
CONTINUOUS
 10
8.8672406238
 20
6.2932530338
 11
8.8672406238
 21
6.2936294001
  0
LINE
  5
746
100
AcDbEntity
  8
0
100
AcDbLine
 62
7
  6
CONTINUOUS
 10
8.8672406238
 20
6.3322530338
 11
8.8672406238
 21
6.3326294001
  0
LINE
  5
747
100
AcDbEntity
  8
0
100
AcDbLine
 62
7
  6
CONTINUOUS
 10
8.8672406238
 20
6.3712530338
 11
8.8672406238
 21
6.3716294001
  0
LINE
  5
748
100
AcDbEntity
  8
0
100
AcDbLine
 62
7
  6
CONTINUOUS
 10
8.8672406238
 20
6.4102530338
 11
8.8672406238
 21
6.4106294001
  0
LWPOLYLINE
  5
749
100
AcDbEntity
  8
0
100
AcDbPolyline
 62
7
  6
CONTINUOUS
 90
20
 70
0
 10
8.1585664416
 20
5.2211294001
 10
8.1611316201
 20
5.2217117649
 10
8.1736839949
 20
5.2227702954
 10
8.1960779613
 20
5.2238288259
 10
8.2276638155
 20
5.2248873564
 10
8.2675251742
 20
5.2259458869
 10
8.3145055616
 20
5.2270044174
 10
8.3672419612
 20
5.2280629479
 10
8.4242043607
 20
5.2291214785
 10
8.4837401409
 20
5.230180009
 10
8.5441220227
 20
5.2312385395
 10
8.6035981795
 20
5.23229707
 10
8.6604430619
 20
5.2333556005
 10
8.7130074603
 20
5.234414131
 10
8.7597663524
 20
5.2354726615
 10
8.799363148
 20
5.236531192
 10
8.8306490469
 20
5.2375897225
 10
8.8527163682
 20
5.2386482531
 10
8.8649248848
 20
5.2397067836
 10
8.8672406238
 20
5.2402530338
  0
LWPOLYLINE
  5
74A
100
AcDbEntity
  8
0
100
AcDbPolyline
 62
7
  6
CONTINUOUS
 90
9
 70
0
 10
8.1834035327
 20
5.2455074601
 10
8.1884317545
 20
5.2465932183
 10
8.2031606868
 20
5.2476678322
 10
8.2273176226
 20
5.248748764
 10
8.2604731824
 20
5.2498402453
 10
8.3011752023
 20
5.2509258526
 10
8.3477554
 20
5.2519987965
 10
8.3999941108
 20
5.2530865073
 10
8.4559068784
 20
5.2541783429
  0
LWPOLYLINE
  5
74B
100
AcDbEntity
  8
0
100
AcDbPolyline
 62
7
  6
CONTINUOUS
 90
9
 70
0
 10
8.1834035327
 20
5.3235074601
 10
8.1884566489
 20
5.3245959096
 10
8.2032589449
 20
5.3256732527
 10
8.2274746228
 20
5.3267546885
 10
8.2605196788
 20
5.3278416079
 10
8.3008462559
 20
5.328917761
 10
8.3473938132
 20
5.3299909221
 10
8.3997279635
 20
5.3310811698
 10
8.4557679902
 20
5.3321756864
  0
LWPOLYLINE
  5
74C
100
AcDbEntity
  8
0
100
AcDbPolyline
 62
7
  6
CONTINUOUS
 90
10
 70
0
 10
8.8424035327
 20
5.3718749736
 10
8.8373128464
 20
5.370782475
 10
8.8225219841
 20
5.3697077416
 10
8.7982747454
 20
5.3686255706
 10
8.7650318777
 20
5.3675333445
 10
8.7242630594
 20
5.3664475197
 10
8.6777426591
 20
5.3653769125
 10
8.6256533498
 20
5.3642927265
 10
8.5698528294
 20
5.3632031852
 10
8.4557679902
 20
5.3610431999
  0
LWPOLYLINE
  5
74D
100
AcDbEntity
  8
0
100
AcDbPolyline
 62
7
  6
CONTINUOUS
 90
9
 70
0
 10
8.8424035327
 20
5.4108749736
 10
8.8373007208
 20
5.4097811712
 10
8.8224199336
 20
5.4087021292
 10
8.7982193152
 20
5.4076234825
 10
8.7654780947
 20
5.4065464171
 10
8.7252943368
 20
5.4054728863
 10
8.6786801788
 20
5.4043973285
 10
8.6262700005
 20
5.4033050936
 10
8.5701372558
 20
5.4022086255
  0
LWPOLYLINE
  5
74E
100
AcDbEntity
  8
0
100
AcDbPolyline
 62
7
  6
CONTINUOUS
 90
9
 70
0
 10
8.1834035327
 20
5.2845074602
 10
8.1885313536
 20
5.2856039467
 10
8.2034300555
 20
5.2866826611
 10
8.2275298792
 20
5.2877567713
 10
8.2601583986
 20
5.288831011
 10
8.3005245831
 20
5.2899098397
 10
8.3471578592
 20
5.2909857804
 10
8.3995562105
 20
5.2920777244
 10
8.4556782561
 20
5.29317397
  0
LWPOLYLINE
  5
74F
100
AcDbEntity
  8
0
100
AcDbPolyline
 62
7
  6
CONTINUOUS
 90
9
 70
0
 10
8.8424035327
 20
5.4498749735
 10
8.8371215625
 20
5.4487620846
 10
8.8221617854
 20
5.4476879938
 10
8.7980875421
 20
5.4466185234
 10
8.7651424199
 20
5.4455365799
 10
8.7245959924
 20
5.4444556994
 10
8.6780400725
 20
5.443383385
 10
8.6258010909
 20
5.4422956887
 10
8.5698922939
 20
5.44120394
  0
LWPOLYLINE
  5
750
100
AcDbEntity
  8
0
100
AcDbPolyline
 62
7
  6
CONTINUOUS
 90
20
 70
0
 10
8.1585664416
 20
5.2601294001
 10
8.1624280065
 20
5.2608773938
 10
8.1765517648
 20
5.2619359243
 10
8.2004339138
 20
5.2629944548
 10
8.2333815736
 20
5.2640529853
 10
8.2744388517
 20
5.2651115158
 10
8.3224145758
 20
5.2661700463
 10
8.3759168521
 20
5.2672285768
 10
8.4333934484
 20
5.2682871074
 10
8.4931768275
 20
5.2693456379
 10
8.5535325267
 20
5.2704041684
 10
8.6127094791
 20
5.2714626989
 10
8.6689908159
 20
5.2725212294
 10
8.7207436774
 20
5.2735797599
 10
8.7664665859
 20
5.2746382904
 10
8.8048330078
 20
5.2756968209
 10
8.8347298387
 20
5.2767553514
 10
8.8552896984
 20
5.2778138819
 10
8.8659160948
 20
5.2788724125
 10
8.8672406238
 20
5.2792530338
  0
LWPOLYLINE
  5
751
100
AcDbEntity
  8
0
100
AcDbPolyline
 62
7
  6
CONTINUOUS
 90
20
 70
0
 10
8.1585664416
 20
5.2991294001
 10
8.1639739297
 20
5.3000430227
 10
8.1796590156
 20
5.3011015532
 10
8.205012343
 20
5.3021600837
 10
8.2392983499
 20
5.3032186142
 10
8.2815223149
 20
5.3042771447
 10
8.3304592171
 20
5.3053356752
 10
8.3846892768
 20
5.3063942057
 10
8.442639147
 20
5.3074527362
 10
8.5026275594
 20
5.3085112668
 10
8.5629141031
 20
5.3095697973
 10
8.6217497174
 20
5.3106283278
 10
8.6774274365
 20
5.3116868583
 10
8.7283319133
 20
5.3127453888
 10
8.7729862838
 20
5.3138039193
 10
8.8100950152
 20
5.3148624498
 10
8.8385814919
 20
5.3159209803
 10
8.8576192514
 20
5.3169795108
 10
8.8666559615
 20
5.3180380413
 10
8.8672406238
 20
5.3182530338
  0
LWPOLYLINE
  5
752
100
AcDbEntity
  8
0
100
AcDbPolyline
 62
7
  6
CONTINUOUS
 90
9
 70
0
 10
8.1585664416
 20
5.3381294001
 10
8.1657682891
 20
5.3392086516
 10
8.1830035347
 20
5.3402671821
 10
8.2098099893
 20
5.3413257126
 10
8.2454099317
 20
5.3423842431
 10
8.2887705203
 20
5.3434427736
 10
8.3386337578
 20
5.3445013041
 10
8.3935529895
 20
5.3455598346
 10
8.4519348734
 20
5.3466183651
  0
LWPOLYLINE
  5
753
100
AcDbEntity
  8
0
100
AcDbPolyline
 62
7
  6
CONTINUOUS
 90
9
 70
0
 10
8.4556782561
 20
5.3220414834
 10
8.3995562105
 20
5.3209452378
 10
8.3471578592
 20
5.3198532939
 10
8.3005245831
 20
5.3187773531
 10
8.2601583986
 20
5.3176985244
 10
8.2275298792
 20
5.3166242848
 10
8.2034300555
 20
5.3155501746
 10
8.1885313536
 20
5.3144714602
 10
8.1835787829
 20
5.313577425
  0
LWPOLYLINE
  5
754
100
AcDbEntity
  8
0
100
AcDbPolyline
 62
7
  6
CONTINUOUS
 90
9
 70
0
 10
8.4557679902
 20
5.3610431999
 10
8.3997279635
 20
5.3599486832
 10
8.3473938132
 20
5.3588584355
 10
8.3008462559
 20
5.3577852745
 10
8.2605196788
 20
5.3567091214
 10
8.2274746228
 20
5.355622202
 10
8.2032589449
 20
5.3545407661
 10
8.1884566489
 20
5.3534634231
 10
8.1835787829
 20
5.352577425
  0
LWPOLYLINE
  5
755
100
AcDbEntity
  8
0
100
AcDbPolyline
 62
7
  6
CONTINUOUS
 90
11
 70
0
 10
8.4556782561
 20
5.29317397
 10
8.5668636368
 20
5.295278547
 10
8.6193572876
 20
5.2962994449
 10
8.668973509
 20
5.297320254
 10
8.7143537818
 20
5.2983404863
 10
8.754710317
 20
5.2993719801
 10
8.7886941057
 20
5.3004134342
 10
8.8148364055
 20
5.3014503867
 10
8.8323766506
 20
5.3024722689
 10
8.8412888625
 20
5.303496758
 10
8.8422282825
 20
5.3038050089
  0
LWPOLYLINE
  5
756
100
AcDbEntity
  8
0
100
AcDbPolyline
 62
7
  6
CONTINUOUS
 90
10
 70
0
 10
8.4557679902
 20
5.3321756864
 10
8.5698528294
 20
5.3343356718
 10
8.6256533498
 20
5.335425213
 10
8.6777426591
 20
5.3365093991
 10
8.7242630594
 20
5.3375800062
 10
8.7650318777
 20
5.338665831
 10
8.7982747454
 20
5.3397580571
 10
8.8225219841
 20
5.3408402281
 10
8.8373128464
 20
5.3419149615
 10
8.8422282825
 20
5.3428050089
  0
LWPOLYLINE
  5
757
100
AcDbEntity
  8
0
100
AcDbPolyline
 62
7
  6
CONTINUOUS
 90
10
 70
0
 10
8.4559241657
 20
5.3711786735
 10
8.5701372558
 20
5.373341112
 10
8.6262700005
 20
5.3744375802
 10
8.6786801788
 20
5.3755298151
 10
8.7252943368
 20
5.3766053728
 10
8.7654780947
 20
5.3776789036
 10
8.7982193152
 20
5.378755969
 10
8.8224199336
 20
5.3798346158
 10
8.8373007208
 20
5.3809136578
 10
8.8422282825
 20
5.3818050089
  0
LWPOLYLINE
  5
758
100
AcDbEntity
  8
0
100
AcDbPolyline
 62
7
  6
CONTINUOUS
 90
10
 70
0
 10
8.4519348734
 20
5.3466183651
 10
8.5722600722
 20
5.3487354262
 10
8.6307124577
 20
5.3497939567
 10
8.685746917
 20
5.3508524872
 10
8.7357667653
 20
5.3519110177
 10
8.7793208041
 20
5.3529695482
 10
8.8151454237
 20
5.3540280787
 10
8.842201264
 20
5.3550866092
 10
8.8597033685
 20
5.3561451397
 10
8.8672406238
 20
5.3572530338
  0
LINE
  5
759
100
AcDbEntity
  8
0
100
AcDbLine
 62
7
  6
CONTINUOUS
 10
8.1585664416
 20
5.5717530338
 11
8.1835787829
 21
5.5573050089
  0
LINE
  5
75A
100
AcDbEntity
  8
0
100
AcDbLine
 62
7
  6
CONTINUOUS
 10
8.8672406238
 20
5.1626294001
 11
8.8422282825
 21
5.177077425
  0
LINE
  5
75B
100
AcDbEntity
  8
0
100
AcDbLine
 62
7
  6
CONTINUOUS
 10
8.1585664416
 20
5.6107530338
 11
8.1835787829
 21
5.5963050089
  0
LINE
  5
75C
100
AcDbEntity
  8
0
100
AcDbLine
 62
7
  6
CONTINUOUS
 10
8.8672406238
 20
5.2016294001
 11
8.8422282825
 21
5.216077425
  0
LINE
  5
75D
100
AcDbEntity
  8
0
100
AcDbLine
 62
7
  6
CONTINUOUS
 10
8.1585664416
 20
5.6497530338
 11
8.1835787829
 21
5.6353050089
  0
LINE
  5
75E
100
AcDbEntity
  8
0
100
AcDbLine
 62
7
  6
CONTINUOUS
 10
8.8672406238
 20
5.2406294001
 11
8.8422282825
 21
5.255077425
  0
LWPOLYLINE
  5
75F
100
AcDbEntity
  8
0
100
AcDbPolyline
 62
7
  6
CONTINUOUS
 90
3
 70
0
 10
8.1585664416
 20
6.0397530338
 10
8.1584045177
 20
6.0399558496
 10
8.1585664416
 20
6.0401294001
  0
LWPOLYLINE
  5
760
100
AcDbEntity
  8
0
100
AcDbPolyline
 62
7
  6
CONTINUOUS
 90
9
 70
0
 10
8.8424035327
 20
5.4888749667
 10
8.8374507855
 20
5.4877974158
 10
8.8228453628
 20
5.4867256189
 10
8.7986316887
 20
5.4856390462
 10
8.7653303015
 20
5.4845420836
 10
8.7244240145
 20
5.483451473
 10
8.6776315509
 20
5.4823744955
 10
8.6253477941
 20
5.4812866018
 10
8.5696447838
 20
5.4801992065
  0
LWPOLYLINE
  5
761
100
AcDbEntity
  8
0
100
AcDbPolyline
 62
7
  6
CONTINUOUS
 90
9
 70
0
 10
8.8424035327
 20
5.5668749736
 10
8.83738999
 20
5.5657908056
 10
8.8226656619
 20
5.564715667
 10
8.7984895582
 20
5.5636336743
 10
8.7653278683
 20
5.5625420123
 10
8.7246561522
 20
5.5614571784
 10
8.6780942712
 20
5.5603845649
 10
8.6258408238
 20
5.5592964854
 10
8.569913186
 20
5.5582043396
  0
LWPOLYLINE
  5
762
100
AcDbEntity
  8
0
100
AcDbPolyline
 62
7
  6
CONTINUOUS
 90
9
 70
0
 10
8.1834035327
 20
5.3625074524
 10
8.1884657049
 20
5.363596887
 10
8.2032735267
 20
5.364674056
 10
8.2276331467
 20
5.3657606606
 10
8.2610594852
 20
5.3668574013
 10
8.3020633605
 20
5.3679476561
 10
8.3487951205
 20
5.369021407
 10
8.4004370516
 20
5.3700953868
 10
8.4559241657
 20
5.3711786735
  0
LWPOLYLINE
  5
763
100
AcDbEntity
  8
0
100
AcDbPolyline
 62
7
  6
CONTINUOUS
 90
9
 70
0
 10
8.5698922939
 20
5.4123364266
 10
8.6258010909
 20
5.4134281752
 10
8.6780400725
 20
5.4145158715
 10
8.7245959924
 20
5.4155881859
 10
8.7651424199
 20
5.4166690665
 10
8.7980875421
 20
5.4177510099
 10
8.8221617854
 20
5.4188204803
 10
8.8371215625
 20
5.4198945712
 10
8.8422282825
 20
5.4208050089
  0
LWPOLYLINE
  5
764
100
AcDbEntity
  8
0
100
AcDbPolyline
 62
7
  6
CONTINUOUS
 90
10
 70
0
 10
8.5701372558
 20
5.4022086255
 10
8.4559241657
 20
5.400046187
 10
8.4004370516
 20
5.3989629002
 10
8.3487951205
 20
5.3978889204
 10
8.3020633605
 20
5.3968151696
 10
8.2610594852
 20
5.3957249147
 10
8.2276331467
 20
5.3946281741
 10
8.2032735267
 20
5.3935415694
 10
8.1884657049
 20
5.3924644005
 10
8.1835787829
 20
5.391577425
  0
LWPOLYLINE
  5
765
100
AcDbEntity
  8
0
100
AcDbPolyline
 62
7
  6
CONTINUOUS
 90
11
 70
0
 10
8.5698922939
 20
5.44120394
 10
8.4591078628
 20
5.4391070267
 10
8.406517947
 20
5.4380843458
 10
8.3565345721
 20
5.4370557831
 10
8.3111206306
 20
5.4360340249
 10
8.270819794
 20
5.4350027683
 10
8.2369004059
 20
5.4339616758
 10
8.2108265523
 20
5.4329252589
 10
8.1933559123
 20
5.4319044217
 10
8.184519247
 20
5.4308859152
 10
8.1835787829
 20
5.430577425
  0
LWPOLYLINE
  5
766
100
AcDbEntity
  8
0
100
AcDbPolyline
 62
7
  6
CONTINUOUS
 90
10
 70
0
 10
8.4559061877
 20
5.4491783297
 10
8.5696447838
 20
5.451331693
 10
8.6253477941
 20
5.4524190884
 10
8.6776315509
 20
5.4535069821
 10
8.7244240145
 20
5.4545839595
 10
8.7653303015
 20
5.4556745701
 10
8.7986316887
 20
5.4567715327
 10
8.8228453628
 20
5.4578581054
 10
8.8374507855
 20
5.4589299023
 10
8.8422282825
 20
5.4598050089
  0
LWPOLYLINE
  5
767
100
AcDbEntity
  8
0
100
AcDbPolyline
 62
7
  6
CONTINUOUS
 90
10
 70
0
 10
8.5696447838
 20
5.4801992065
 10
8.4559061877
 20
5.4780458432
 10
8.3999927835
 20
5.4769539942
 10
8.3477536355
 20
5.4758662716
 10
8.301176311
 20
5.4747933934
 10
8.2604983193
 20
5.4737084955
 10
8.2273754991
 20
5.4726184626
 10
8.2032388008
 20
5.4715396559
 10
8.1884746441
 20
5.4704653645
 10
8.1835787829
 20
5.469577425
  0
LWPOLYLINE
  5
768
100
AcDbEntity
  8
0
100
AcDbPolyline
 62
7
  6
CONTINUOUS
 90
11
 70
0
 10
8.4556636448
 20
5.4881736905
 10
8.5668894245
 20
5.4902790394
 10
8.6194836172
 20
5.4913019597
 10
8.6689867473
 20
5.4923205371
 10
8.7143210976
 20
5.4933397083
 10
8.7546636929
 20
5.4943706874
 10
8.788641531
 20
5.4954116247
 10
8.8147875731
 20
5.4964480903
 10
8.832342455
 20
5.4974696399
 10
8.8412821349
 20
5.4984952183
 10
8.8422282825
 20
5.4988050089
  0
LINE
  5
769
100
AcDbEntity
  8
0
100
AcDbLine
 62
7
  6
CONTINUOUS
 10
8.1585664416
 20
5.6887530338
 11
8.1835787829
 21
5.6743050089
  0
LINE
  5
76A
100
AcDbEntity
  8
0
100
AcDbLine
 62
7
  6
CONTINUOUS
 10
8.8672406238
 20
5.2796294001
 11
8.8422282825
 21
5.294077425
  0
LINE
  5
76B
100
AcDbEntity
  8
0
100
AcDbLine
 62
7
  6
CONTINUOUS
 10
8.1585664416
 20
5.7277530338
 11
8.1835787829
 21
5.7133050089
  0
LINE
  5
76C
100
AcDbEntity
  8
0
100
AcDbLine
 62
7
  6
CONTINUOUS
 10
8.8672406238
 20
5.3186294001
 11
8.8422282825
 21
5.333077425
  0
LINE
  5
76D
100
AcDbEntity
  8
0
100
AcDbLine
 62
7
  6
CONTINUOUS
 10
8.1585664416
 20
5.7667530338
 11
8.1835787829
 21
5.7523050089
  0
LINE
  5
76E
100
AcDbEntity
  8
0
100
AcDbLine
 62
7
  6
CONTINUOUS
 10
8.8672406238
 20
5.3576294001
 11
8.8422282825
 21
5.372077425
  0
LWPOLYLINE
  5
76F
100
AcDbEntity
  8
0
100
AcDbPolyline
 62
7
  6
CONTINUOUS
 90
20
 70
0
 10
8.1585664416
 20
5.4551294001
 10
8.1606928223
 20
5.4556470077
 10
8.1726283294
 20
5.4567055382
 10
8.1944360556
 20
5.4577640687
 10
8.2254833052
 20
5.4588225993
 10
8.2648693213
 20
5.4598811298
 10
8.3114514189
 20
5.4609396603
 10
8.363878137
 20
5.4619981908
 10
8.4206284476
 20
5.4630567213
 10
8.4800558851
 20
5.4641152518
 10
8.5404363134
 20
5.4651737823
 10
8.6000179482
 20
5.4662323128
 10
8.6570721799
 20
5.4672908433
 10
8.7099437251
 20
5.4683493739
 10
8.7570986506
 20
5.4694079044
 10
8.7971688762
 20
5.4704664349
 10
8.8289918662
 20
5.4715249654
 10
8.8516443575
 20
5.4725834959
 10
8.8644691458
 20
5.4736420264
 10
8.8672406238
 20
5.4742530338
  0
LWPOLYLINE
  5
770
100
AcDbEntity
  8
0
100
AcDbPolyline
 62
7
  6
CONTINUOUS
 90
9
 70
0
 10
8.1834035327
 20
5.5185074601
 10
8.188438823
 20
5.5195939832
 10
8.2032074175
 20
5.5206704118
 10
8.2274086081
 20
5.5217521986
 10
8.2605140407
 20
5.5228414427
 10
8.3010019936
 20
5.523921593
 10
8.3475286517
 20
5.5249938592
 10
8.3998264288
 20
5.5260831447
 10
8.4558194074
 20
5.5271766699
  0
LWPOLYLINE
  5
771
100
AcDbEntity
  8
0
100
AcDbPolyline
 62
7
  6
CONTINUOUS
 90
9
 70
0
 10
8.1834035327
 20
5.4405074602
 10
8.1884746441
 20
5.441597851
 10
8.2032388008
 20
5.4426721425
 10
8.2273754991
 20
5.4437509491
 10
8.2604983193
 20
5.444840982
 10
8.301176311
 20
5.4459258799
 10
8.3477536355
 20
5.4469987581
 10
8.3999927835
 20
5.4480864807
 10
8.4559061877
 20
5.4491783297
  0
LWPOLYLINE
  5
772
100
AcDbEntity
  8
0
100
AcDbPolyline
 62
7
  6
CONTINUOUS
 90
9
 70
0
 10
8.1834035327
 20
5.4795074602
 10
8.188525091
 20
5.4806032752
 10
8.203423583
 20
5.481682306
 10
8.2275646652
 20
5.4827580819
 10
8.2601801288
 20
5.483831649
 10
8.3004885518
 20
5.4849089519
 10
8.3471197771
 20
5.4859849504
 10
8.3995282238
 20
5.4870771629
 10
8.4556636448
 20
5.4881736905
  0
LWPOLYLINE
  5
773
100
AcDbEntity
  8
0
100
AcDbPolyline
 62
7
  6
CONTINUOUS
 90
9
 70
0
 10
8.8424035327
 20
5.6448749736
 10
8.8372677299
 20
5.6437776319
 10
8.8224179011
 20
5.6427020176
 10
8.7983884555
 20
5.6416298579
 10
8.7654295312
 20
5.6405449927
 10
8.7248479953
 20
5.6394618968
 10
8.6782500195
 20
5.6383879563
 10
8.6259544825
 20
5.6372987647
 10
8.5699725309
 20
5.6362054747
  0
LWPOLYLINE
  5
774
100
AcDbEntity
  8
0
100
AcDbPolyline
 62
7
  6
CONTINUOUS
 90
20
 70
0
 10
8.1585664416
 20
5.4941294001
 10
8.1618913847
 20
5.4948126366
 10
8.1754019031
 20
5.4958711671
 10
8.1987041725
 20
5.4969296976
 10
8.2311221367
 20
5.4979882281
 10
8.2717152711
 20
5.4990467587
 10
8.3193058692
 20
5.5001052892
 10
8.3725132108
 20
5.5011638197
 10
8.4297936204
 20
5.5022223502
 10
8.4894852526
 20
5.5032808807
 10
8.5498563065
 20
5.5043394112
 10
8.6091552698
 20
5.5053979417
 10
8.6656617339
 20
5.5064564722
 10
8.7177363074
 20
5.5075150027
 10
8.7638681793
 20
5.5085735333
 10
8.8027189506
 20
5.5096320638
 10
8.833161465
 20
5.5106905943
 10
8.8543125104
 20
5.5117491248
 10
8.8655584432
 20
5.5128076553
 10
8.8672406238
 20
5.5132530338
  0
LWPOLYLINE
  5
775
100
AcDbEntity
  8
0
100
AcDbPolyline
 62
7
  6
CONTINUOUS
 90
20
 70
0
 10
8.1585664416
 20
5.5331294001
 10
8.1633398659
 20
5.5339782655
 10
8.1784157763
 20
5.535036796
 10
8.2031959977
 20
5.5360953265
 10
8.2369615952
 20
5.537153857
 10
8.2787329458
 20
5.5382123876
 10
8.3272981601
 20
5.5392709181
 10
8.3812482419
 20
5.5403294486
 10
8.439017967
 20
5.5413879791
 10
8.4989312937
 20
5.5424465096
 10
8.5592499895
 20
5.5435050401
 10
8.6182240607
 20
5.5445635706
 10
8.6741425248
 20
5.5456221011
 10
8.7253830498
 20
5.5466806316
 10
8.7704590224
 20
5.5477391621
 10
8.8080626778
 20
5.5487976927
 10
8.8371030417
 20
5.5498562232
 10
8.8567375819
 20
5.5509147537
 10
8.8663966521
 20
5.5519732842
 10
8.8672406238
 20
5.5522530338
  0
LWPOLYLINE
  5
776
100
AcDbEntity
  8
0
100
AcDbPolyline
 62
7
  6
CONTINUOUS
 90
9
 70
0
 10
8.4556636448
 20
5.517041204
 10
8.3995282238
 20
5.5159446764
 10
8.3471197771
 20
5.5148524638
 10
8.3004885518
 20
5.5137764653
 10
8.2601801288
 20
5.5126991624
 10
8.2275646652
 20
5.5116255954
 10
8.203423583
 20
5.5105498194
 10
8.188525091
 20
5.5094707887
 10
8.1835787829
 20
5.508577425
  0
LWPOLYLINE
  5
777
100
AcDbEntity
  8
0
100
AcDbPolyline
 62
7
  6
CONTINUOUS
 90
9
 70
0
 10
8.5685328554
 20
5.5683104354
 10
8.6231933274
 20
5.5693759651
 10
8.6744661567
 20
5.5704383492
 10
8.7203622147
 20
5.5714848267
 10
8.7603294306
 20
5.5725299941
 10
8.7932561241
 20
5.5735736639
 10
8.8183517423
 20
5.5746211682
 10
8.8347526469
 20
5.5756672534
 10
8.8422282825
 20
5.5768050089
  0
LWPOLYLINE
  5
778
100
AcDbEntity
  8
0
100
AcDbPolyline
 62
7
  6
CONTINUOUS
 90
10
 70
0
 10
8.4558194074
 20
5.5271766699
 10
8.569913186
 20
5.5293368261
 10
8.6258408238
 20
5.5304289719
 10
8.6780942712
 20
5.5315170514
 10
8.7246561522
 20
5.532589665
 10
8.7653278683
 20
5.5336744988
 10
8.7984895582
 20
5.5347661608
 10
8.8226656619
 20
5.5358481535
 10
8.83738999
 20
5.5369232922
 10
8.8422282825
 20
5.5378050089
  0
LWPOLYLINE
  5
779
100
AcDbEntity
  8
0
100
AcDbPolyline
 62
7
  6
CONTINUOUS
 90
10
 70
0
 10
8.569913186
 20
5.5582043396
 10
8.4558194074
 20
5.5560441833
 10
8.3998264288
 20
5.5549506581
 10
8.3475286517
 20
5.5538613727
 10
8.3010019936
 20
5.5527891065
 10
8.2605140407
 20
5.5517089562
 10
8.2274086081
 20
5.550619712
 10
8.2032074175
 20
5.5495379252
 10
8.188438823
 20
5.5484614966
 10
8.1835787829
 20
5.547577425
  0
LINE
  5
77A
100
AcDbEntity
  8
0
100
AcDbLine
 62
7
  6
CONTINUOUS
 10
8.1585664416
 20
5.8057530338
 11
8.1835787829
 21
5.7913050089
  0
LINE
  5
77B
100
AcDbEntity
  8
0
100
AcDbLine
 62
7
  6
CONTINUOUS
 10
8.8672406238
 20
5.3966294001
 11
8.8422282825
 21
5.411077425
  0
LINE
  5
77C
100
AcDbEntity
  8
0
100
AcDbLine
 62
7
  6
CONTINUOUS
 10
8.1585664416
 20
5.8447530338
 11
8.1835787829
 21
5.8303050089
  0
LINE
  5
77D
100
AcDbEntity
  8
0
100
AcDbLine
 62
7
  6
CONTINUOUS
 10
8.8672406238
 20
5.4356294001
 11
8.8422282825
 21
5.450077425
  0
LINE
  5
77E
100
AcDbEntity
  8
0
100
AcDbLine
 62
7
  6
CONTINUOUS
 10
8.1585664416
 20
5.8837530338
 11
8.1835787829
 21
5.8693050089
  0
LINE
  5
77F
100
AcDbEntity
  8
0
100
AcDbLine
 62
7
  6
CONTINUOUS
 10
8.8672406238
 20
5.4746294001
 11
8.8422282825
 21
5.489077425
  0
LWPOLYLINE
  5
780
100
AcDbEntity
  8
0
100
AcDbPolyline
 62
7
  6
CONTINUOUS
 90
9
 70
0
 10
8.1834035327
 20
5.6355074601
 10
8.1885371383
 20
5.6366045666
 10
8.2033690448
 20
5.637679311
 10
8.2274424781
 20
5.6387534763
 10
8.2604739599
 20
5.6398402681
 10
8.3010947706
 20
5.6409238749
 10
8.3476772417
 20
5.6419970949
 10
8.3999368037
 20
5.6430853582
 10
8.4558769684
 20
5.6441777708
  0
LWPOLYLINE
  5
781
100
AcDbEntity
  8
0
100
AcDbPolyline
 62
7
  6
CONTINUOUS
 90
20
 70
0
 10
8.1585664416
 20
5.5721294001
 10
8.1650372347
 20
5.5731438944
 10
8.181667803
 20
5.5742024249
 10
8.2079083332
 20
5.5752609554
 10
8.2429975229
 20
5.5763194859
 10
8.2859173487
 20
5.5773780164
 10
8.335422601
 20
5.578436547
 10
8.3900770109
 20
5.5794950775
 10
8.4482949197
 20
5.580553608
 10
8.5083872831
 20
5.5816121385
 10
8.5686106739
 20
5.582670669
 10
8.6272178638
 20
5.5837291995
 10
8.6825085143
 20
5.58478773
 10
8.7328785078
 20
5.5858462605
 10
8.7768664872
 20
5.586904791
 10
8.8131962532
 20
5.5879633215
 10
8.8408137901
 20
5.5890218521
 10
8.8589178452
 20
5.5900803826
 10
8.8669831756
 20
5.5911389131
 10
8.8672406238
 20
5.5912530338
  0
LWPOLYLINE
  5
782
100
AcDbEntity
  8
0
100
AcDbPolyline
 62
7
  6
CONTINUOUS
 90
9
 70
0
 10
8.5699725309
 20
5.6073379612
 10
8.6259544825
 20
5.6084312512
 10
8.6782500195
 20
5.6095204428
 10
8.7248479953
 20
5.6105943833
 10
8.7654295312
 20
5.6116774793
 10
8.7983884555
 20
5.6127623445
 10
8.8224179011
 20
5.6138345041
 10
8.8372677299
 20
5.6149101184
 10
8.8422282825
 20
5.6158050089
  0
LWPOLYLINE
  5
783
100
AcDbEntity
  8
0
100
AcDbPolyline
 62
7
  6
CONTINUOUS
 90
9
 70
0
 10
8.4558769684
 20
5.6730452843
 10
8.3999368037
 20
5.6719528716
 10
8.3476772417
 20
5.6708646084
 10
8.3010947706
 20
5.6697913884
 10
8.2604739599
 20
5.6687077815
 10
8.2274424781
 20
5.6676209898
 10
8.2033690448
 20
5.6665468244
 10
8.1885371383
 20
5.6654720801
 10
8.1835787829
 20
5.664577425
  0
LWPOLYLINE
  5
784
100
AcDbEntity
  8
0
100
AcDbPolyline
 62
7
  6
CONTINUOUS
 90
11
 70
0
 10
8.5685328554
 20
5.5971779489
 10
8.458903707
 20
5.5951031284
 10
8.4062075646
 20
5.594078167
 10
8.3567535306
 20
5.5930604681
 10
8.311489658
 20
5.5920428134
 10
8.2711763559
 20
5.5910126609
 10
8.2372181289
 20
5.5899726186
 10
8.2110779062
 20
5.588937088
 10
8.193509769
 20
5.5879162591
 10
8.1845360719
 20
5.5868897554
 10
8.1835787829
 20
5.586577425
  0
LWPOLYLINE
  5
785
100
AcDbEntity
  8
0
100
AcDbPolyline
 62
7
  6
CONTINUOUS
 90
11
 70
0
 10
8.5699725309
 20
5.6362054747
 10
8.4591314983
 20
5.634107478
 10
8.4064783269
 20
5.6330835572
 10
8.3564692261
 20
5.6320543845
 10
8.3110638985
 20
5.6310326729
 10
8.2707794252
 20
5.6300016473
 10
8.2368750625
 20
5.6289608017
 10
8.210813472
 20
5.6279246419
 10
8.193351949
 20
5.6269041156
 10
8.184520624
 20
5.6258862305
 10
8.1835787829
 20
5.625577425
  0
LWPOLYLINE
  5
786
100
AcDbEntity
  8
0
100
AcDbPolyline
 62
7
  6
CONTINUOUS
 90
11
 70
0
 10
8.4558769684
 20
5.6441777708
 10
8.5666451091
 20
5.6462743743
 10
8.6194249742
 20
5.6473007923
 10
8.6694788233
 20
5.6483310674
 10
8.7148608362
 20
5.6493525658
 10
8.7551064114
 20
5.6503829748
 10
8.7889778196
 20
5.6514232129
 10
8.8150154475
 20
5.6524588231
 10
8.8324599427
 20
5.6534786911
 10
8.841285336
 20
5.6544959503
 10
8.8422282825
 20
5.6548050089
  0
LWPOLYLINE
  5
787
100
AcDbEntity
  8
0
100
AcDbPolyline
 62
7
  6
CONTINUOUS
 90
11
 70
0
 10
8.4556589603
 20
5.6831736009
 10
8.5669013792
 20
5.6852792677
 10
8.6195868149
 20
5.6863040143
 10
8.6690429959
 20
5.6873217403
 10
8.7143147105
 20
5.6883395562
 10
8.7546303235
 20
5.6893697623
 10
8.7885918109
 20
5.6904099142
 10
8.8147351034
 20
5.691445625
 10
8.8323025244
 20
5.6924665755
 10
8.8412722801
 20
5.6934929711
 10
8.8422282825
 20
5.6938050089
  0
LINE
  5
788
100
AcDbEntity
  8
0
100
AcDbLine
 62
7
  6
CONTINUOUS
 10
8.1585664416
 20
5.9227530338
 11
8.1835787829
 21
5.9083050089
  0
LINE
  5
789
100
AcDbEntity
  8
0
100
AcDbLine
 62
7
  6
CONTINUOUS
 10
8.8672406238
 20
5.5136294001
 11
8.8422282825
 21
5.528077425
  0
LINE
  5
78A
100
AcDbEntity
  8
0
100
AcDbLine
 62
7
  6
CONTINUOUS
 10
8.1585664416
 20
5.9617530338
 11
8.1835787829
 21
5.9473050089
  0
LINE
  5
78B
100
AcDbEntity
  8
0
100
AcDbLine
 62
7
  6
CONTINUOUS
 10
8.8672406238
 20
5.5526294001
 11
8.8422282825
 21
5.567077425
  0
LINE
  5
78C
100
AcDbEntity
  8
0
100
AcDbLine
 62
7
  6
CONTINUOUS
 10
8.1585664416
 20
6.0007530338
 11
8.1835787829
 21
5.9863050089
  0
LINE
  5
78D
100
AcDbEntity
  8
0
100
AcDbLine
 62
7
  6
CONTINUOUS
 10
8.8672406238
 20
5.5916294001
 11
8.8422282825
 21
5.606077425
  0
LWPOLYLINE
  5
78E
100
AcDbEntity
  8
0
100
AcDbPolyline
 62
7
  6
CONTINUOUS
 90
20
 70
0
 10
8.1585664416
 20
5.6891294001
 10
8.1602923604
 20
5.6895822506
 10
8.1716097006
 20
5.6906407811
 10
8.1928288129
 20
5.6916993116
 10
8.2233340787
 20
5.6927578421
 10
8.2622404653
 20
5.6938163726
 10
8.308419203
 20
5.6948749031
 10
8.3605305331
 20
5.6959334336
 10
8.4170625781
 20
5.6969919641
 10
8.4763752045
 20
5.6980504946
 10
8.5367476073
 20
5.6991090252
 10
8.596428235
 20
5.7001675557
 10
8.6536856061
 20
5.7012260862
 10
8.7068585435
 20
5.7022846167
 10
8.7544043698
 20
5.7033431472
 10
8.7949436639
 20
5.7044016777
 10
8.8273002813
 20
5.7054602082
 10
8.8505354771
 20
5.7065187387
 10
8.8639751412
 20
5.7075772692
 10
8.8672406238
 20
5.7082530338
  0
LWPOLYLINE
  5
78F
100
AcDbEntity
  8
0
100
AcDbPolyline
 62
7
  6
CONTINUOUS
 90
20
 70
0
 10
8.1585664416
 20
5.7281294001
 10
8.1613929681
 20
5.7287478795
 10
8.1742887762
 20
5.72980641
 10
8.1970086297
 20
5.7308649405
 10
8.2288933699
 20
5.731923471
 10
8.2690179423
 20
5.7329820015
 10
8.3162182345
 20
5.734040532
 10
8.3691248501
 20
5.7350990625
 10
8.4262028383
 20
5.736157593
 10
8.4857962265
 20
5.7372161235
 10
8.5461760642
 20
5.7382746541
 10
8.6055905841
 20
5.7393331846
 10
8.6623160251
 20
5.7403917151
 10
8.7147066428
 20
5.7414502456
 10
8.7612424568
 20
5.7425087761
 10
8.8005733488
 20
5.7435673066
 10
8.8315582332
 20
5.7446258371
 10
8.8532981623
 20
5.7456843676
 10
8.8651624075
 20
5.7467428981
 10
8.8672406238
 20
5.7472530338
  0
LWPOLYLINE
  5
790
100
AcDbEntity
  8
0
100
AcDbPolyline
 62
7
  6
CONTINUOUS
 90
9
 70
0
 10
8.1834035327
 20
5.7135074601
 10
8.188419313
 20
5.7145918708
 10
8.2031492405
 20
5.7156671999
 10
8.2273275793
 20
5.71674914
 10
8.2604824107
 20
5.7178405158
 10
8.3011345053
 20
5.718924852
 10
8.3476878378
 20
5.7199973256
 10
8.399943879
 20
5.7210855001
 10
8.4558806863
 20
5.7221778419
  0
LWPOLYLINE
  5
791
100
AcDbEntity
  8
0
100
AcDbPolyline
 62
7
  6
CONTINUOUS
 90
9
 70
0
 10
8.8424035327
 20
5.8008749737
 10
8.8372873207
 20
5.7997797323
 10
8.8223927673
 20
5.7987006375
 10
8.7982265667
 20
5.7976237556
 10
8.7655907702
 20
5.7965497233
 10
8.7253257839
 20
5.7954736612
 10
8.6786972831
 20
5.7943977014
 10
8.6262823993
 20
5.7933053424
 10
8.5701437379
 20
5.7922087495
  0
LWPOLYLINE
  5
792
100
AcDbEntity
  8
0
100
AcDbPolyline
 62
7
  6
CONTINUOUS
 90
9
 70
0
 10
8.1834035327
 20
5.6745074602
 10
8.1885170637
 20
5.6756024139
 10
8.2034103011
 20
5.6766815769
 10
8.2275841465
 20
5.6777588157
 10
8.2602326244
 20
5.6788331899
 10
8.3004829253
 20
5.6799088132
 10
8.3471076518
 20
5.6809846861
 10
8.3995192437
 20
5.6820769827
 10
8.4556589603
 20
5.6831736009
  0
LWPOLYLINE
  5
793
100
AcDbEntity
  8
0
100
AcDbPolyline
 62
7
  6
CONTINUOUS
 90
9
 70
0
 10
8.8424035327
 20
5.8398749735
 10
8.8372701827
 20
5.8387778946
 10
8.8224453509
 20
5.8377035258
 10
8.7983515926
 20
5.8366284675
 10
8.7652939757
 20
5.835541019
 10
8.7246618842
 20
5.8344573194
 10
8.6780847464
 20
5.8333843575
 10
8.6258334744
 20
5.832296338
 10
8.5699093616
 20
5.8312042665
  0
LWPOLYLINE
  5
794
100
AcDbEntity
  8
0
100
AcDbPolyline
 62
7
  6
CONTINUOUS
 90
9
 70
0
 10
8.4556589603
 20
5.7120411143
 10
8.3995192437
 20
5.7109444962
 10
8.3471076518
 20
5.7098521995
 10
8.3004829253
 20
5.7087763267
 10
8.2602326244
 20
5.7077007034
 10
8.2275841465
 20
5.7066263291
 10
8.2034103011
 20
5.7055490904
 10
8.1885170637
 20
5.7044699273
 10
8.1835787829
 20
5.703577425
  0
LWPOLYLINE
  5
795
100
AcDbEntity
  8
0
100
AcDbPolyline
 62
7
  6
CONTINUOUS
 90
9
 70
0
 10
8.4558806863
 20
5.7510453554
 10
8.399943879
 20
5.7499530135
 10
8.3476878378
 20
5.7488648391
 10
8.3011345053
 20
5.7477923655
 10
8.2604824107
 20
5.7467080292
 10
8.2273275793
 20
5.7456166534
 10
8.2031492405
 20
5.7445347134
 10
8.188419313
 20
5.7434593842
 10
8.1835787829
 20
5.742577425
  0
LWPOLYLINE
  5
796
100
AcDbEntity
  8
0
100
AcDbPolyline
 62
7
  6
CONTINUOUS
 90
9
 70
0
 10
8.5701437379
 20
5.763341236
 10
8.6262823993
 20
5.7644378289
 10
8.6786972831
 20
5.7655301879
 10
8.7253257839
 20
5.7666061477
 10
8.7655907702
 20
5.7676822098
 10
8.7982265667
 20
5.7687562421
 10
8.8223927673
 20
5.7698331241
 10
8.8372873207
 20
5.7709122188
 10
8.8422282825
 20
5.7718050089
  0
LWPOLYLINE
  5
797
100
AcDbEntity
  8
0
100
AcDbPolyline
 62
7
  6
CONTINUOUS
 90
11
 70
0
 10
8.4558806863
 20
5.7221778419
 10
8.5665782
 20
5.7242730968
 10
8.6194314607
 20
5.7253009214
 10
8.669279317
 20
5.7263267968
 10
8.7142399986
 20
5.7273377781
 10
8.7539016034
 20
5.7283495972
 10
8.7875223966
 20
5.729373296
 10
8.8136519612
 20
5.7303952233
 10
8.831482769
 20
5.7314049331
 10
8.8409588253
 20
5.732425999
 10
8.8422282825
 20
5.7328050089
  0
LWPOLYLINE
  5
798
100
AcDbEntity
  8
0
100
AcDbPolyline
 62
7
  6
CONTINUOUS
 90
11
 70
0
 10
8.5701437379
 20
5.7922087495
 10
8.458906238
 20
5.7901031767
 10
8.4062434237
 20
5.789078881
 10
8.3567826032
 20
5.78806109
 10
8.3114918957
 20
5.7870428667
 10
8.2711660676
 20
5.7860123757
 10
8.2371997915
 20
5.7849719878
 10
8.2110573723
 20
5.7839361236
 10
8.193493644
 20
5.7829150227
 10
8.1845318353
 20
5.7818887911
 10
8.1835787829
 20
5.781577425
  0
LINE
  5
799
100
AcDbEntity
  8
0
100
AcDbLine
 62
7
  6
CONTINUOUS
 10
8.1585664416
 20
6.0397530338
 11
8.1835787829
 21
6.0253050089
  0
LINE
  5
79A
100
AcDbEntity
  8
0
100
AcDbLine
 62
7
  6
CONTINUOUS
 10
8.8672406238
 20
5.6306294001
 11
8.8422282825
 21
5.645077425
  0
LINE
  5
79B
100
AcDbEntity
  8
0
100
AcDbLine
 62
7
  6
CONTINUOUS
 10
8.1585664416
 20
6.0787530338
 11
8.1835787829
 21
6.0643050089
  0
LINE
  5
79C
100
AcDbEntity
  8
0
100
AcDbLine
 62
7
  6
CONTINUOUS
 10
8.8672406238
 20
5.6696294001
 11
8.8422282825
 21
5.684077425
  0
LINE
  5
79D
100
AcDbEntity
  8
0
100
AcDbLine
 62
7
  6
CONTINUOUS
 10
8.1585664416
 20
6.1177530338
 11
8.1835787829
 21
6.1033050089
  0
LINE
  5
79E
100
AcDbEntity
  8
0
100
AcDbLine
 62
7
  6
CONTINUOUS
 10
8.8672406238
 20
5.7086294001
 11
8.8422282825
 21
5.723077425
  0
LWPOLYLINE
  5
79F
100
AcDbEntity
  8
0
100
AcDbPolyline
 62
7
  6
CONTINUOUS
 90
3
 70
0
 10
8.1585664416
 20
6.2737530338
 10
8.1584150915
 20
6.2738910924
 10
8.1585664416
 20
6.2741294001
  0
LWPOLYLINE
  5
7A0
100
AcDbEntity
  8
0
100
AcDbPolyline
 62
7
  6
CONTINUOUS
 90
11
 70
0
 10
8.8424035326
 20
5.9178750999
 10
8.8386585072
 20
5.9169382497
 10
8.8268659909
 20
5.9159612258
 10
8.8073057833
 20
5.9149839992
 10
8.7800508538
 20
5.9139934788
 10
8.745986799
 20
5.9130024139
 10
8.7065015894
 20
5.9120231767
 10
8.6626559976
 20
5.9110534118
 10
8.6149984055
 20
5.9100803971
 10
8.5644662259
 20
5.9091003081
 10
8.4556642047
 20
5.9070412147
  0
LWPOLYLINE
  5
7A1
100
AcDbEntity
  8
0
100
AcDbPolyline
 62
7
  6
CONTINUOUS
 90
9
 70
0
 10
8.8424035327
 20
5.9568749736
 10
8.8373631272
 20
5.9557878976
 10
8.822585775
 20
5.9547112569
 10
8.7983790795
 20
5.9536295042
 10
8.7652872469
 20
5.9525408219
 10
8.7248436832
 20
5.9514617907
 10
8.6783128685
 20
5.9503893251
 10
8.6260018521
 20
5.9492997147
 10
8.5699972114
 20
5.9482059467
  0
LWPOLYLINE
  5
7A2
100
AcDbEntity
  8
0
100
AcDbPolyline
 62
7
  6
CONTINUOUS
 90
9
 70
0
 10
8.1834035327
 20
5.8305074601
 10
8.1885391496
 20
5.8316047821
 10
8.2033949564
 20
5.8326807344
 10
8.2274136015
 20
5.833752387
 10
8.2603470703
 20
5.8348365477
 10
8.3009164934
 20
5.8359194895
 10
8.3475184028
 20
5.836993636
 10
8.3998204891
 20
5.8380830255
 10
8.455816245
 20
5.8391766094
  0
LWPOLYLINE
  5
7A3
100
AcDbEntity
  8
0
100
AcDbPolyline
 62
7
  6
CONTINUOUS
 90
20
 70
0
 10
8.1585664416
 20
5.7671294001
 10
8.1627438497
 20
5.7679135083
 10
8.1772089437
 20
5.7689720389
 10
8.201413362
 20
5.7700305694
 10
8.234654875
 20
5.7710890999
 10
8.2759690646
 20
5.7721476304
 10
8.324157305
 20
5.7732061609
 10
8.3778215368
 20
5.7742646914
 10
8.435404829
 20
5.7753232219
 10
8.4952365488
 20
5.7763817524
 10
8.5555808313
 20
5.7774402829
 10
8.6146869405
 20
5.7784988135
 10
8.6708400632
 20
5.779557344
 10
8.7224110593
 20
5.7806158745
 10
8.7679037277
 20
5.781674405
 10
8.8059982143
 20
5.7827329355
 10
8.8355893046
 20
5.783791466
 10
8.8558184883
 20
5.7848499965
 10
8.8660988673
 20
5.785908527
 10
8.8672406238
 20
5.7862530338
  0
LWPOLYLINE
  5
7A4
100
AcDbEntity
  8
0
100
AcDbPolyline
 62
7
  6
CONTINUOUS
 90
20
 70
0
 10
8.1585664416
 20
5.8061294001
 10
8.1643440432
 20
5.8070791372
 10
8.1803681242
 20
5.8081376677
 10
8.2060398738
 20
5.8091961983
 10
8.2406144916
 20
5.8102547288
 10
8.2830888831
 20
5.8113132593
 10
8.3322307618
 20
5.8123717898
 10
8.3866144012
 20
5.8134303203
 10
8.4446619983
 20
5.8144888508
 10
8.50468945
 20
5.8155473813
 10
8.5649552123
 20
5.8166059118
 10
8.6237108276
 20
5.8176644423
 10
8.6792516512
 20
5.8187229729
 10
8.7299663075
 20
5.8197815034
 10
8.7743834397
 20
5.8208400339
 10
8.8112143978
 20
5.8218985644
 10
8.8393906253
 20
5.8229570949
 10
8.8580946606
 20
5.8240156254
 10
8.8667838537
 20
5.8250741559
 10
8.8672406238
 20
5.8252530338
  0
LWPOLYLINE
  5
7A5
100
AcDbEntity
  8
0
100
AcDbPolyline
 62
7
  6
CONTINUOUS
 90
10
 70
0
 10
8.1585664416
 20
5.8451294001
 10
8.1661924093
 20
5.8462447661
 10
8.1837640681
 20
5.8473032966
 10
8.210884871
 20
5.8483618272
 10
8.2467679767
 20
5.8494203577
 10
8.2903723284
 20
5.8504788882
 10
8.3404328567
 20
5.8515374187
 10
8.3954971828
 20
5.8525959492
 10
8.4539677553
 20
5.8536544797
 10
8.5742925328
 20
5.8557715407
  0
LWPOLYLINE
  5
7A6
100
AcDbEntity
  8
0
100
AcDbPolyline
 62
7
  6
CONTINUOUS
 90
9
 70
0
 10
8.5699093616
 20
5.802336753
 10
8.6258334744
 20
5.8034288246
 10
8.6780847464
 20
5.8045168441
 10
8.7246618842
 20
5.8055898059
 10
8.7652939757
 20
5.8066735056
 10
8.7983515926
 20
5.807760954
 10
8.8224453509
 20
5.8088360123
 10
8.8372701827
 20
5.8099103812
 10
8.8422282825
 20
5.8108050089
  0
LWPOLYLINE
  5
7A7
100
AcDbEntity
  8
0
100
AcDbPolyline
 62
7
  6
CONTINUOUS
 90
9
 70
0
 10
8.455816245
 20
5.8680441229
 10
8.3998204891
 20
5.866950539
 10
8.3475184028
 20
5.8658611494
 10
8.3009164934
 20
5.864787003
 10
8.2603470703
 20
5.8637040612
 10
8.2274136015
 20
5.8626199004
 10
8.2033949564
 20
5.8615482479
 10
8.1885391496
 20
5.8604722955
 10
8.1835787829
 20
5.859577425
  0
LWPOLYLINE
  5
7A8
100
AcDbEntity
  8
0
100
AcDbPolyline
 62
7
  6
CONTINUOUS
 90
11
 70
0
 10
8.5699093616
 20
5.8312042665
 10
8.4591595548
 20
5.8291080137
 10
8.4063375846
 20
5.8280807556
 10
8.3562731623
 20
5.8270501872
 10
8.3109008363
 20
5.8260287858
 10
8.2706674947
 20
5.8249985377
 10
8.2368088852
 20
5.8239585183
 10
8.2107831239
 20
5.8229232099
 10
8.1933460839
 20
5.8219036625
 10
8.1845214138
 20
5.8208864113
 10
8.1835787829
 20
5.820577425
  0
LWPOLYLINE
  5
7A9
100
AcDbEntity
  8
0
100
AcDbPolyline
 62
7
  6
CONTINUOUS
 90
11
 70
0
 10
8.455816245
 20
5.8391766094
 10
8.5666894577
 20
5.8412752211
 10
8.6192987588
 20
5.84229828
 10
8.669292558
 20
5.8433270802
 10
8.7147034571
 20
5.8443488146
 10
8.7549970249
 20
5.8453799364
 10
8.7889117796
 20
5.8464209346
 10
8.8149838056
 20
5.8474573302
 10
8.8324524908
 20
5.8484781155
 10
8.8412871825
 20
5.8494963731
 10
8.8422282825
 20
5.8498050089
  0
LWPOLYLINE
  5
7AA
100
AcDbEntity
  8
0
100
AcDbPolyline
 62
7
  6
CONTINUOUS
 90
11
 70
0
 10
8.4556642047
 20
5.8781737012
 10
8.5644662259
 20
5.8802327947
 10
8.6149984055
 20
5.8812128837
 10
8.6626559976
 20
5.8821858983
 10
8.7065015894
 20
5.8831556632
 10
8.745986799
 20
5.8841349005
 10
8.7800508538
 20
5.8851259654
 10
8.8073057833
 20
5.8861164857
 10
8.8268659909
 20
5.8870937123
 10
8.8386585072
 20
5.8880707363
 10
8.8422282825
 20
5.8888050089
  0
LWPOLYLINE
  5
7AB
100
AcDbEntity
  8
0
100
AcDbPolyline
 62
7
  6
CONTINUOUS
 90
9
 70
0
 10
8.5742925328
 20
5.8557715407
 10
8.6326558205
 20
5.8568300712
 10
8.6875448003
 20
5.8578886017
 10
8.7373670081
 20
5.8589471323
 10
8.7806769794
 20
5.8600056628
 10
8.8162181855
 20
5.8610641933
 10
8.8429594888
 20
5.8621227238
 10
8.8601250585
 20
5.8631812543
 10
8.8672406238
 20
5.8642530338
  0
LINE
  5
7AC
100
AcDbEntity
  8
0
100
AcDbLine
 62
7
  6
CONTINUOUS
 10
8.1585664416
 20
6.1567530338
 11
8.1835787829
 21
6.1423050089
  0
LINE
  5
7AD
100
AcDbEntity
  8
0
100
AcDbLine
 62
7
  6
CONTINUOUS
 10
8.8672406238
 20
5.7476294001
 11
8.8422282825
 21
5.762077425
  0
LINE
  5
7AE
100
AcDbEntity
  8
0
100
AcDbLine
 62
7
  6
CONTINUOUS
 10
8.1585664416
 20
6.1957530338
 11
8.1835787829
 21
6.1813050089
  0
LINE
  5
7AF
100
AcDbEntity
  8
0
100
AcDbLine
 62
7
  6
CONTINUOUS
 10
8.8672406238
 20
5.7866294001
 11
8.8422282825
 21
5.801077425
  0
LINE
  5
7B0
100
AcDbEntity
  8
0
100
AcDbLine
 62
7
  6
CONTINUOUS
 10
8.1585664416
 20
6.2347530338
 11
8.1835787829
 21
6.2203050089
  0
LINE
  5
7B1
100
AcDbEntity
  8
0
100
AcDbLine
 62
7
  6
CONTINUOUS
 10
8.8672406238
 20
5.8256294001
 11
8.8422282825
 21
5.840077425
  0
LWPOLYLINE
  5
7B2
100
AcDbEntity
  8
0
100
AcDbPolyline
 62
7
  6
CONTINUOUS
 90
9
 70
0
 10
8.1834035327
 20
5.9085074601
 10
8.1884105378
 20
5.9095909194
 10
8.203123359
 20
5.9106657696
 10
8.2272895785
 20
5.9117477047
 10
8.2604593126
 20
5.9128398388
 10
8.3011697333
 20
5.9139257182
 10
8.3477511638
 20
5.9149987043
 10
8.3999922105
 20
5.9160864692
 10
8.4559065327
 20
5.9171783363
  0
LWPOLYLINE
  5
7B3
100
AcDbEntity
  8
0
100
AcDbPolyline
 62
7
  6
CONTINUOUS
 90
9
 70
0
 10
8.8424035327
 20
6.0348749736
 10
8.837359631
 20
6.0337875197
 10
8.8226187152
 20
6.0327130743
 10
8.7984675713
 20
6.031632844
 10
8.765322431
 20
6.0305418529
 10
8.7246303307
 20
6.0294565436
 10
8.678051067
 20
6.0283836243
 10
8.6258087499
 20
6.0272958422
 10
8.5698964595
 20
6.0262040197
  0
LWPOLYLINE
  5
7B4
100
AcDbEntity
  8
0
100
AcDbPolyline
 62
7
  6
CONTINUOUS
 90
9
 70
0
 10
8.1834035327
 20
5.8695074602
 10
8.1885072793
 20
5.8706013631
 10
8.2033902153
 20
5.871680474
 10
8.2275882532
 20
5.8727589703
 10
8.2603157251
 20
5.8738356283
 10
8.30050764
 20
5.8749094222
 10
8.3471214848
 20
5.8759849876
 10
8.3995292733
 20
5.8770771839
 10
8.4556642047
 20
5.8781737012
  0
LWPOLYLINE
  5
7B5
100
AcDbEntity
  8
0
100
AcDbPolyline
 62
7
  6
CONTINUOUS
 90
9
 70
0
 10
8.8424035327
 20
5.9958749736
 10
8.8372797319
 20
5.9947789182
 10
8.8223812446
 20
5.9937000051
 10
8.7982499869
 20
5.9926246378
 10
8.7656355137
 20
5.9915510367
 10
8.7253123516
 20
5.9904733302
 10
8.6786787029
 20
5.9893972964
 10
8.626268701
 20
5.9883050675
 10
8.5701365884
 20
5.9872086127
  0
LWPOLYLINE
  5
7B6
100
AcDbEntity
  8
0
100
AcDbPolyline
 62
7
  6
CONTINUOUS
 90
9
 70
0
 10
8.4556642047
 20
5.9070412147
 10
8.3995292733
 20
5.9059446974
 10
8.3471214848
 20
5.9048525011
 10
8.30050764
 20
5.9037769357
 10
8.2603157251
 20
5.9027031417
 10
8.2275882532
 20
5.9016264838
 10
8.2033902153
 20
5.9005479875
 10
8.1885072793
 20
5.8994688765
 10
8.1835787829
 20
5.898577425
  0
LWPOLYLINE
  5
7B7
100
AcDbEntity
  8
0
100
AcDbPolyline
 62
7
  6
CONTINUOUS
 90
9
 70
0
 10
8.5701365884
 20
5.9583410992
 10
8.626268701
 20
5.9594375541
 10
8.6786787029
 20
5.9605297829
 10
8.7253123516
 20
5.9616058167
 10
8.7656355137
 20
5.9626835233
 10
8.7982499869
 20
5.9637571243
 10
8.8223812446
 20
5.9648324917
 10
8.8372797319
 20
5.9659114047
 10
8.8422282825
 20
5.9668050089
  0
LWPOLYLINE
  5
7B8
100
AcDbEntity
  8
0
100
AcDbPolyline
 62
7
  6
CONTINUOUS
 90
10
 70
0
 10
8.4559065327
 20
5.9171783363
 10
8.5699972114
 20
5.9193384333
 10
8.6260018521
 20
5.9204322013
 10
8.6783128685
 20
5.9215218117
 10
8.7248436832
 20
5.9225942773
 10
8.7652872469
 20
5.9236733084
 10
8.7983790795
 20
5.9247619908
 10
8.822585775
 20
5.9258437435
 10
8.8373631272
 20
5.9269203841
 10
8.8422282825
 20
5.9278050089
  0
LWPOLYLINE
  5
7B9
100
AcDbEntity
  8
0
100
AcDbPolyline
 62
7
  6
CONTINUOUS
 90
10
 70
0
 10
8.5699972114
 20
5.9482059467
 10
8.4559072944
 20
5.9460458643
 10
8.3999949098
 20
5.9449540368
 10
8.3477564682
 20
5.9438663333
 10
8.3011749268
 20
5.9427933593
 10
8.2604613652
 20
5.9417074124
 10
8.2272900548
 20
5.9406152361
 10
8.2031233673
 20
5.9395332835
 10
8.1884105388
 20
5.9384584329
 10
8.1835787829
 20
5.937577425
  0
LWPOLYLINE
  5
7BA
100
AcDbEntity
  8
0
100
AcDbPolyline
 62
7
  6
CONTINUOUS
 90
11
 70
0
 10
8.5701365884
 20
5.9872086127
 10
8.4589222415
 20
5.9851034823
 10
8.4063526968
 20
5.9840810564
 10
8.3568279688
 20
5.9830620604
 10
8.3114788435
 20
5.982042556
 10
8.2711293325
 20
5.9810113573
 10
8.2371492974
 20
5.9799702504
 10
8.211005762
 20
5.9789336981
 10
8.1934551725
 20
5.9779120688
 10
8.1845228133
 20
5.9768867316
 10
8.1835787829
 20
5.976577425
  0
LINE
  5
7BB
100
AcDbEntity
  8
0
100
AcDbLine
 62
7
  6
CONTINUOUS
 10
8.1585664416
 20
6.2737530338
 11
8.1835787829
 21
6.2593050089
  0
LINE
  5
7BC
100
AcDbEntity
  8
0
100
AcDbLine
 62
7
  6
CONTINUOUS
 10
8.8672406238
 20
5.8646294001
 11
8.8422282825
 21
5.879077425
  0
LINE
  5
7BD
100
AcDbEntity
  8
0
100
AcDbLine
 62
7
  6
CONTINUOUS
 10
8.1585664416
 20
6.3127530338
 11
8.1835787829
 21
6.2983050089
  0
LINE
  5
7BE
100
AcDbEntity
  8
0
100
AcDbLine
 62
7
  6
CONTINUOUS
 10
8.8672406238
 20
5.9036294001
 11
8.8422282825
 21
5.918077425
  0
LINE
  5
7BF
100
AcDbEntity
  8
0
100
AcDbLine
 62
7
  6
CONTINUOUS
 10
8.1585664416
 20
6.3517530338
 11
8.1835787829
 21
6.3373050089
  0
LINE
  5
7C0
100
AcDbEntity
  8
0
100
AcDbLine
 62
7
  6
CONTINUOUS
 10
8.8672406238
 20
5.9426294001
 11
8.8422282825
 21
5.957077425
  0
LWPOLYLINE
  5
7C1
100
AcDbEntity
  8
0
100
AcDbPolyline
 62
7
  6
CONTINUOUS
 90
3
 70
0
 10
8.8424035327
 20
6.2298749501
 10
8.8394440747
 20
6.2290424363
 10
8.8273040662
 20
6.22798861
  0
LWPOLYLINE
  5
7C2
100
AcDbEntity
  8
0
100
AcDbPolyline
 62
7
  6
CONTINUOUS
 90
20
 70
0
 10
8.1585664416
 20
5.9621294001
 10
8.1609328113
 20
5.9626831223
 10
8.1732125052
 20
5.9637416528
 10
8.19534747
 20
5.9648001833
 10
8.2266955158
 20
5.9658587138
 10
8.2663471588
 20
5.9669172443
 10
8.3131520077
 20
5.9679757748
 10
8.3657521387
 20
5.9690343054
 10
8.422621493
 20
5.9700928359
 10
8.4821101509
 20
5.9711513664
 10
8.5424922005
 20
5.9722098969
 10
8.6020158101
 20
5.9732684274
 10
8.6589540537
 20
5.9743269579
 10
8.7116550132
 20
5.9753854884
 10
8.7585897042
 20
5.9764440189
 10
8.7983964361
 20
5.9775025494
 10
8.829920318
 20
5.97856108
 10
8.8522467645
 20
5.9796196105
 10
8.8647280307
 20
5.980678141
 10
8.8672406238
 20
5.9812530338
  0
LWPOLYLINE
  5
7C3
100
AcDbEntity
  8
0
100
AcDbPolyline
 62
7
  6
CONTINUOUS
 90
9
 70
0
 10
8.1834035327
 20
5.9865074684
 10
8.1883582249
 20
5.9875852302
 10
8.2029584578
 20
5.9886566349
 10
8.2271602928
 20
5.9897428171
 10
8.2604460358
 20
5.9908394496
 10
8.3013364027
 20
5.9919298147
 10
8.3481129957
 20
5.9930065784
 10
8.4003994447
 20
5.994094633
 10
8.4561392421
 20
5.9951827868
  0
LWPOLYLINE
  5
7C4
100
AcDbEntity
  8
0
100
AcDbPolyline
 62
7
  6
CONTINUOUS
 90
9
 70
0
 10
8.8424035327
 20
6.1518749736
 10
8.8373457236
 20
6.1507860176
 10
8.8225359748
 20
6.1497085121
 10
8.7983171356
 20
6.1486271683
 10
8.7652889196
 20
6.1475408709
 10
8.7249961542
 20
6.1464655428
 10
8.6784413024
 20
6.1453921229
 10
8.6260956228
 20
6.1443015955
 10
8.5700461774
 20
6.1432068833
  0
LWPOLYLINE
  5
7C5
100
AcDbEntity
  8
0
100
AcDbPolyline
 62
7
  6
CONTINUOUS
 90
9
 70
0
 10
8.8424035327
 20
6.1128749826
 10
8.8373321713
 20
6.1117845559
 10
8.8225186693
 20
6.1107075591
 10
8.7981590006
 20
6.1096212118
 10
8.7647390963
 20
6.1085247848
 10
8.7237494099
 20
6.1074349176
 10
8.6770402145
 20
6.106361641
 10
8.6253878006
 20
6.1052874036
 10
8.5698787094
 20
6.1042036802
  0
LWPOLYLINE
  5
7C6
100
AcDbEntity
  8
0
100
AcDbPolyline
 62
7
  6
CONTINUOUS
 90
9
 70
0
 10
8.8424035327
 20
6.1908749736
 10
8.8372739094
 20
6.189778294
 10
8.8223765312
 20
6.1886997465
 10
8.7982885788
 20
6.1876260919
 10
8.7656492662
 20
6.1865514405
 10
8.7252685108
 20
6.18547225
 10
8.6786341654
 20
6.1843963256
 10
8.6262359967
 20
6.1833044114
 10
8.5701195131
 20
6.1822082861
  0
LWPOLYLINE
  5
7C7
100
AcDbEntity
  8
0
100
AcDbPolyline
 62
7
  6
CONTINUOUS
 90
9
 70
0
 10
8.1834035327
 20
6.0255074601
 10
8.1885393831
 20
6.0266048071
 10
8.2034138614
 20
6.0276817724
 10
8.2274143296
 20
6.0287524144
 10
8.2602527527
 20
6.0298337806
 10
8.3007688076
 20
6.0309158546
 10
8.3473854314
 20
6.0319907395
 10
8.3997230761
 20
6.0330810717
 10
8.4557653847
 20
6.0341756366
  0
LWPOLYLINE
  5
7C8
100
AcDbEntity
  8
0
100
AcDbPolyline
 62
7
  6
CONTINUOUS
 90
20
 70
0
 10
8.1585664416
 20
6.0011294001
 10
8.1621859461
 20
6.0018487512
 10
8.1760386493
 20
6.0029072817
 10
8.19966463
 20
6.0039658122
 10
8.2323784402
 20
6.0050243427
 10
8.2732309722
 20
6.0060828732
 10
8.3210369936
 20
6.0071414037
 10
8.3744095344
 20
6.0081999343
 10
8.4318001262
 20
6.0092584648
 10
8.4915437269
 20
6.0103169953
 10
8.551907028
 20
6.0113755258
 10
8.6111387419
 20
6.0124340563
 10
8.6675204112
 20
6.0134925868
 10
8.7194162653
 20
6.0145511173
 10
8.7653206779
 20
6.0156096478
 10
8.8039018494
 20
6.0166681783
 10
8.8340404452
 20
6.0177267088
 10
8.8548620707
 20
6.0187852394
 10
8.8657626395
 20
6.0198437699
 10
8.8672406238
 20
6.0202530338
  0
LWPOLYLINE
  5
7C9
100
AcDbEntity
  8
0
100
AcDbPolyline
 62
7
  6
CONTINUOUS
 90
19
 70
0
 10
8.1585664416
 20
6.0401294001
 10
8.1636887901
 20
6.0410143801
 10
8.1791046396
 20
6.0420729106
 10
8.2042048145
 20
6.0431314411
 10
8.2382610972
 20
6.0441899716
 10
8.2802854313
 20
6.0452485021
 10
8.3290585876
 20
6.0463070326
 10
8.3831655372
 20
6.0473655631
 10
8.4410365046
 20
6.0484240937
 10
8.5009925109
 20
6.0494826242
 10
8.5612940852
 20
6.0505411547
 10
8.6201917307
 20
6.0515996852
 10
8.6759766823
 20
6.0526582157
 10
8.7270304813
 20
6.0537167462
 10
8.7718719318
 20
6.0547752767
 10
8.8092000733
 20
6.0558338072
 10
8.8379319246
 20
6.0568923377
 10
8.8572339042
 20
6.0579508682
 10
8.8665460143
 20
6.0590093988
  0
LWPOLYLINE
  5
7CA
100
AcDbEntity
  8
0
100
AcDbPolyline
 62
7
  6
CONTINUOUS
 90
10
 70
0
 10
8.8416064881
 20
6.0734431555
 10
8.8333260147
 20
6.0724146211
 10
8.8162428023
 20
6.0713848946
 10
8.7903958009
 20
6.070339959
 10
8.7565032573
 20
6.0692894314
 10
8.7160319351
 20
6.0682480483
 10
8.6703831712
 20
6.0672179587
 10
8.6201167821
 20
6.0661820826
 10
8.5672055337
 20
6.0651525898
 10
8.4557653847
 20
6.06304315
  0
LWPOLYLINE
  5
7CB
100
AcDbEntity
  8
0
100
AcDbPolyline
 62
7
  6
CONTINUOUS
 90
9
 70
0
 10
8.4557653847
 20
6.06304315
 10
8.3997230761
 20
6.0619485852
 10
8.3473854314
 20
6.0608582529
 10
8.3007688076
 20
6.059783368
 10
8.2602527527
 20
6.0587012941
 10
8.2274143296
 20
6.0576199279
 10
8.2034138614
 20
6.0565492858
 10
8.1885393831
 20
6.0554723206
 10
8.1835787829
 20
6.054577425
  0
LWPOLYLINE
  5
7CC
100
AcDbEntity
  8
0
100
AcDbPolyline
 62
7
  6
CONTINUOUS
 90
10
 70
0
 10
8.4561392421
 20
5.9951827868
 10
8.5698964595
 20
5.9973365062
 10
8.6258087499
 20
5.9984283288
 10
8.678051067
 20
5.9995161109
 10
8.7246303307
 20
6.0005890301
 10
8.765322431
 20
6.0016743395
 10
8.7984675713
 20
6.0027653305
 10
8.8226187152
 20
6.0038455608
 10
8.837359631
 20
6.0049200062
 10
8.8422282825
 20
6.0058050089
  0
LWPOLYLINE
  5
7CD
100
AcDbEntity
  8
0
100
AcDbPolyline
 62
7
  6
CONTINUOUS
 90
10
 70
0
 10
8.5698964595
 20
6.0262040197
 10
8.4561392421
 20
6.0240503003
 10
8.4003994447
 20
6.0229621465
 10
8.3481129957
 20
6.0218740919
 10
8.3013364027
 20
6.0207973282
 10
8.2604460358
 20
6.0197069631
 10
8.2271602928
 20
6.0186103306
 10
8.2029584578
 20
6.0175241483
 10
8.1883582249
 20
6.0164527436
 10
8.1835787829
 20
6.015577425
  0
LWPOLYLINE
  5
7CE
100
AcDbEntity
  8
0
100
AcDbPolyline
 62
7
  6
CONTINUOUS
 90
10
 70
0
 10
8.4557653847
 20
6.0341756366
 10
8.5672055337
 20
6.0362850763
 10
8.6201167821
 20
6.0373145692
 10
8.6703831712
 20
6.0383504453
 10
8.7160319351
 20
6.0393805348
 10
8.7565032573
 20
6.0404219179
 10
8.7903958009
 20
6.0414724455
 10
8.8162428023
 20
6.0425173812
 10
8.8333260147
 20
6.0435471077
 10
8.8416064881
 20
6.044575642
  0
LWPOLYLINE
  5
7CF
100
AcDbEntity
  8
0
100
AcDbPolyline
 62
7
  6
CONTINUOUS
 90
10
 70
0
 10
8.455668853
 20
6.0731737901
 10
8.5698787094
 20
6.0753361667
 10
8.6253878006
 20
6.0764198901
 10
8.6770402145
 20
6.0774941276
 10
8.7237494099
 20
6.0785674041
 10
8.7647390963
 20
6.0796572713
 10
8.7981590006
 20
6.0807536983
 10
8.8225186693
 20
6.0818400456
 10
8.8373321713
 20
6.0829170425
 10
8.8422282825
 20
6.0838050089
  0
LWPOLYLINE
  5
7D0
100
AcDbEntity
  8
0
100
AcDbPolyline
 62
7
  6
CONTINUOUS
 90
10
 70
0
 10
8.4503240519
 20
6.0875897225
 10
8.5706466886
 20
6.0897067836
 10
8.6291683309
 20
6.0907653141
 10
8.684316846
 20
6.0918238446
 10
8.73449224
 20
6.0928823751
 10
8.7782388016
 20
6.0939409056
 10
8.8142873355
 20
6.0949994361
 10
8.8415919853
 20
6.0960579666
 10
8.8593605761
 20
6.0971164971
 10
8.8672406238
 20
6.0982530338
  0
LINE
  5
7D1
100
AcDbEntity
  8
0
100
AcDbLine
 62
7
  6
CONTINUOUS
 10
8.1585664416
 20
6.3907530338
 11
8.1835787829
 21
6.3763050089
  0
LINE
  5
7D2
100
AcDbEntity
  8
0
100
AcDbLine
 62
7
  6
CONTINUOUS
 10
8.8672406238
 20
5.9816294001
 11
8.8422282825
 21
5.996077425
  0
LINE
  5
7D3
100
AcDbEntity
  8
0
100
AcDbLine
 62
7
  6
CONTINUOUS
 10
8.8672406238
 20
6.0206294001
 11
8.8422282825
 21
6.035077425
  0
LINE
  5
7D4
100
AcDbEntity
  8
0
100
AcDbLine
 62
7
  6
CONTINUOUS
 10
8.8672406238
 20
6.0596294001
 11
8.8422282825
 21
6.074077425
  0
LINE
  5
7D5
100
AcDbEntity
  8
0
100
AcDbLine
 62
7
  6
CONTINUOUS
 10
8.1776020857
 20
6.4187574602
 11
8.1835787829
 21
6.4153050089
  0
LWPOLYLINE
  5
7D6
100
AcDbEntity
  8
0
100
AcDbPolyline
 62
7
  6
CONTINUOUS
 90
9
 70
0
 10
8.1834035327
 20
6.0645074602
 10
8.18850306
 20
6.0656009096
 10
8.2033807035
 20
6.0666799515
 10
8.2275857561
 20
6.0677588763
 10
8.26035333
 20
6.0688367313
 10
8.300525103
 20
6.0699098525
 10
8.3471336873
 20
6.0709852536
 10
8.3995381687
 20
6.0720773624
 10
8.455668853
 20
6.0731737901
  0
LWPOLYLINE
  5
7D7
100
AcDbEntity
  8
0
100
AcDbPolyline
 62
7
  6
CONTINUOUS
 90
10
 70
0
 10
8.1834035327
 20
6.1035074601
 10
8.188521352
 20
6.1046028741
 10
8.2033376234
 20
6.1056775836
 10
8.2276086763
 20
6.1067597394
 10
8.2608727239
 20
6.1078519425
 10
8.3016608836
 20
6.1089377836
 10
8.3481688703
 20
6.1100077938
 10
8.400203359
 20
6.1110907026
 10
8.4559660492
 20
6.1121794746
 10
8.5700461774
 20
6.1143393699
  0
LWPOLYLINE
  5
7D8
100
AcDbEntity
  8
0
100
AcDbPolyline
 62
7
  6
CONTINUOUS
 90
9
 70
0
 10
8.1585664416
 20
6.0791294001
 10
8.1654402732
 20
6.080180009
 10
8.1824082929
 20
6.0812385395
 10
8.208964791
 20
6.08229707
 10
8.2443392982
 20
6.0833556005
 10
8.2875055132
 20
6.084414131
 10
8.3372110783
 20
6.0854726615
 10
8.3920139127
 20
6.086531192
 10
8.4503240519
 20
6.0875897225
  0
LWPOLYLINE
  5
7D9
100
AcDbEntity
  8
0
100
AcDbPolyline
 62
7
  6
CONTINUOUS
 90
3
 70
0
 10
8.8273040662
 20
6.1991210966
 10
8.8394440747
 20
6.2001749229
 10
8.8422282825
 20
6.2008050089
  0
LWPOLYLINE
  5
7DA
100
AcDbEntity
  8
0
100
AcDbPolyline
 62
7
  6
CONTINUOUS
 90
3
 70
0
 10
8.8511584314
 20
6.2135548533
 10
8.8642553602
 20
6.2146133838
 10
8.8672406238
 20
6.2152530338
  0
LWPOLYLINE
  5
7DB
100
AcDbEntity
  8
0
100
AcDbPolyline
 62
7
  6
CONTINUOUS
 90
9
 70
0
 10
8.5700461774
 20
6.1143393699
 10
8.6260956228
 20
6.115434082
 10
8.6784413024
 20
6.1165246095
 10
8.7249961542
 20
6.1175980294
 10
8.7652889196
 20
6.1186733574
 10
8.7983171356
 20
6.1197596548
 10
8.8225359748
 20
6.1208409986
 10
8.8373457236
 20
6.1219185042
 10
8.8422282825
 20
6.1228050089
  0
LWPOLYLINE
  5
7DC
100
AcDbEntity
  8
0
100
AcDbPolyline
 62
7
  6
CONTINUOUS
 90
9
 70
0
 10
8.5701195131
 20
6.1533407726
 10
8.6262359967
 20
6.154436898
 10
8.6786341654
 20
6.1555288122
 10
8.7252685108
 20
6.1566047365
 10
8.7656492662
 20
6.157683927
 10
8.7982885788
 20
6.1587585784
 10
8.8223765312
 20
6.159832233
 10
8.8372739094
 20
6.1609107805
 10
8.8422282825
 20
6.1618050089
  0
LWPOLYLINE
  5
7DD
100
AcDbEntity
  8
0
100
AcDbPolyline
 62
7
  6
CONTINUOUS
 90
10
 70
0
 10
8.5698787094
 20
6.1042036802
 10
8.455668853
 20
6.1020413036
 10
8.3995381687
 20
6.1009448759
 10
8.3471336873
 20
6.099852767
 10
8.300525103
 20
6.098777366
 10
8.26035333
 20
6.0977042448
 10
8.2275857561
 20
6.0966263898
 10
8.2033807035
 20
6.095547465
 10
8.18850306
 20
6.0944684231
 10
8.1835787829
 20
6.093577425
  0
LWPOLYLINE
  5
7DE
100
AcDbEntity
  8
0
100
AcDbPolyline
 62
7
  6
CONTINUOUS
 90
10
 70
0
 10
8.5700461774
 20
6.1432068833
 10
8.4559660492
 20
6.1410469881
 10
8.400203359
 20
6.1399582161
 10
8.3481688703
 20
6.1388753073
 10
8.3016608836
 20
6.1378052971
 10
8.2608727239
 20
6.136719456
 10
8.2276086763
 20
6.1356272528
 10
8.2033376234
 20
6.1345450971
 10
8.188521352
 20
6.1334703875
 10
8.1835787829
 20
6.132577425
  0
LWPOLYLINE
  5
7DF
100
AcDbEntity
  8
0
100
AcDbPolyline
 62
7
  6
CONTINUOUS
 90
11
 70
0
 10
8.5701195131
 20
6.1822082861
 10
8.4589518304
 20
6.1801040473
 10
8.4064798141
 20
6.1790835868
 10
8.3568303561
 20
6.1780621115
 10
8.3114397296
 20
6.1770416249
 10
8.2710796312
 20
6.176009979
 10
8.2370962488
 20
6.1749684244
 10
8.2109580518
 20
6.1739314539
 10
8.1934226177
 20
6.1729095649
 10
8.1845169708
 20
6.1718853934
 10
8.1835787829
 20
6.171577425
  0
LWPOLYLINE
  5
7E0
100
AcDbEntity
  8
0
100
AcDbPolyline
 62
7
  6
CONTINUOUS
 90
9
 70
0
 10
8.4560195972
 20
6.1901804987
 10
8.5645952729
 20
6.192235256
 10
8.6156013378
 20
6.1932248332
 10
8.6639619438
 20
6.1942135481
 10
8.7079343876
 20
6.195189084
 10
8.7472082673
 20
6.19616754
 10
8.7810156393
 20
6.1971571215
 10
8.8080008358
 20
6.1981457778
 10
8.8273040662
 20
6.1991210966
  0
LINE
  5
7E1
100
AcDbEntity
  8
0
100
AcDbLine
 62
7
  6
CONTINUOUS
 10
8.8672406238
 20
6.0986294001
 11
8.8422282825
 21
6.113077425
  0
LINE
  5
7E2
100
AcDbEntity
  8
0
100
AcDbLine
 62
7
  6
CONTINUOUS
 10
8.8672406238
 20
6.1376294001
 11
8.8422282825
 21
6.152077425
  0
LINE
  5
7E3
100
AcDbEntity
  8
0
100
AcDbLine
 62
7
  6
CONTINUOUS
 10
8.8672406238
 20
6.1766294001
 11
8.8422282825
 21
6.191077425
  0
LWPOLYLINE
  5
7E4
100
AcDbEntity
  8
0
100
AcDbPolyline
 62
7
  6
CONTINUOUS
 90
18
 70
0
 10
8.1585664416
 20
6.1961294001
 10
8.1605109641
 20
6.1966183651
 10
8.1721732074
 20
6.1976768956
 10
8.1937208741
 20
6.1987354262
 10
8.2245288134
 20
6.1997939567
 10
8.2637032114
 20
6.2008524872
 10
8.3101075225
 20
6.2019110177
 10
8.3623954438
 20
6.2029695482
 10
8.4190499743
 20
6.2040280787
 10
8.478427427
 20
6.2050866092
 10
8.5388051161
 20
6.2061451397
 10
8.5984313368
 20
6.2072036702
 10
8.6555761858
 20
6.2082622008
 10
8.7085817508
 20
6.2093207313
 10
8.7559102103
 20
6.2103792618
 10
8.7961884494
 20
6.2114377923
 10
8.8282478976
 20
6.2124963228
 10
8.8511584314
 20
6.2135548533
  0
LWPOLYLINE
  5
7E5
100
AcDbEntity
  8
0
100
AcDbPolyline
 62
7
  6
CONTINUOUS
 90
9
 70
0
 10
8.1834035327
 20
6.1815074709
 10
8.1883609686
 20
6.1825855293
 10
8.2029527495
 20
6.183656318
 10
8.2271142531
 20
6.184741075
 10
8.2603377861
 20
6.1858362754
 10
8.3011515013
 20
6.1869252699
 10
8.3478535984
 20
6.1880009341
 10
8.4001497805
 20
6.1890896285
 10
8.4560195972
 20
6.1901804987
  0
LWPOLYLINE
  5
7E6
100
AcDbEntity
  8
0
100
AcDbPolyline
 62
7
  6
CONTINUOUS
 90
9
 70
0
 10
8.8424035327
 20
6.3468749736
 10
8.8373300246
 20
6.3457843246
 10
8.8224928763
 20
6.3447061394
 10
8.7982702108
 20
6.3436253997
 10
8.7653169301
 20
6.3425416917
 10
8.7251200247
 20
6.3414685926
 10
8.6785437887
 20
6.340394356
 10
8.6261704487
 20
6.3393030965
 10
8.5700852553
 20
6.3382076308
  0
LWPOLYLINE
  5
7E7
100
AcDbEntity
  8
0
100
AcDbPolyline
 62
7
  6
CONTINUOUS
 90
9
 70
0
 10
8.8424035327
 20
6.3078749844
 10
8.8372942547
 20
6.3067804767
 10
8.8224599297
 20
6.3057043272
 10
8.7981108269
 20
6.3046193992
 10
8.7647276372
 20
6.30352445
 10
8.7237952771
 20
6.3024360421
 10
8.6771778976
 20
6.3013646326
 10
8.6254471076
 20
6.3002885923
 10
8.5698602445
 20
6.299203327
  0
LWPOLYLINE
  5
7E8
100
AcDbEntity
  8
0
100
AcDbPolyline
 62
7
  6
CONTINUOUS
 90
9
 70
0
 10
8.1834035327
 20
6.2205074601
 10
8.1885390006
 20
6.2216047661
 10
8.2034192508
 20
6.2226820682
 10
8.2274224238
 20
6.2237527198
 10
8.2602251682
 20
6.2248329711
 10
8.3007202479
 20
6.225914659
 10
8.3473412793
 20
6.2269897775
 10
8.3996907206
 20
6.2280804227
 10
8.4557484908
 20
6.2291753134
  0
LWPOLYLINE
  5
7E9
100
AcDbEntity
  8
0
100
AcDbPolyline
 62
7
  6
CONTINUOUS
 90
20
 70
0
 10
8.1585664416
 20
6.2351294001
 10
8.1616662158
 20
6.235783994
 10
8.1749050205
 20
6.2368425245
 10
8.1979499919
 20
6.237901055
 10
8.2301325389
 20
6.2389595856
 10
8.2705189666
 20
6.2400181161
 10
8.3179375657
 20
6.2410766466
 10
8.3710126063
 20
6.2421351771
 10
8.428204251
 20
6.2431937076
 10
8.4878532298
 20
6.2442522381
 10
8.5482289794
 20
6.2453107686
 10
8.607579851
 20
6.2463692991
 10
8.6641839303
 20
6.2474278296
 10
8.7163989937
 20
6.2484863602
 10
8.7627101542
 20
6.2495448907
 10
8.8017738112
 20
6.2506034212
 10
8.8324566322
 20
6.2516619517
 10
8.8538684332
 20
6.2527204822
 10
8.8653880052
 20
6.2537790127
 10
8.8672406238
 20
6.2542530338
  0
LWPOLYLINE
  5
7EA
100
AcDbEntity
  8
0
100
AcDbPolyline
 62
7
  6
CONTINUOUS
 90
9
 70
0
 10
8.8273040662
 20
6.22798861
 10
8.8080008358
 20
6.2270132912
 10
8.7810156393
 20
6.2260246349
 10
8.7472082673
 20
6.2250350535
 10
8.7079343876
 20
6.2240565975
 10
8.6639619438
 20
6.2230810615
 10
8.6156013378
 20
6.2220923467
 10
8.5645952729
 20
6.2211027695
 10
8.4560195972
 20
6.2190480122
  0
LWPOLYLINE
  5
7EB
100
AcDbEntity
  8
0
100
AcDbPolyline
 62
7
  6
CONTINUOUS
 90
9
 70
0
 10
8.4560195972
 20
6.2190480122
 10
8.4001497805
 20
6.217957142
 10
8.3478535984
 20
6.2168684475
 10
8.3011515013
 20
6.2157927834
 10
8.2603377861
 20
6.2147037889
 10
8.2271142531
 20
6.2136085884
 10
8.2029527495
 20
6.2125238315
 10
8.1883609686
 20
6.2114530428
 10
8.1835787829
 20
6.210577425
  0
LWPOLYLINE
  5
7EC
100
AcDbEntity
  8
0
100
AcDbPolyline
 62
7
  6
CONTINUOUS
 90
9
 70
0
 10
8.4557484908
 20
6.2580428269
 10
8.3996907206
 20
6.2569479362
 10
8.3473412793
 20
6.255857291
 10
8.3007202479
 20
6.2547821725
 10
8.2602251682
 20
6.2537004845
 10
8.2274224238
 20
6.2526202333
 10
8.2034192508
 20
6.2515495817
 10
8.1885390006
 20
6.2504722796
 10
8.1835787829
 20
6.249577425
  0
LWPOLYLINE
  5
7ED
100
AcDbEntity
  8
0
100
AcDbPolyline
 62
7
  6
CONTINUOUS
 90
11
 70
0
 10
8.4557484908
 20
6.2291753134
 10
8.5667684234
 20
6.2312767289
 10
8.6192231991
 20
6.2322967761
 10
8.6691036688
 20
6.2333230383
 10
8.7145283035
 20
6.2343446419
 10
8.7548667982
 20
6.2353763212
 10
8.7888244978
 20
6.2364179255
 10
8.8149336156
 20
6.237454964
 10
8.8324327325
 20
6.2384765902
 10
8.8412924463
 20
6.2394975801
 10
8.8422282825
 20
6.2398050089
  0
LWPOLYLINE
  5
7EE
100
AcDbEntity
  8
0
100
AcDbPolyline
 62
7
  6
CONTINUOUS
 90
10
 70
0
 10
8.4556878319
 20
6.2681741532
 10
8.5698602445
 20
6.2703358136
 10
8.6254471076
 20
6.2714210788
 10
8.6771778976
 20
6.2724971192
 10
8.7237952771
 20
6.2735685286
 10
8.7647276372
 20
6.2746569366
 10
8.7981108269
 20
6.2757518857
 10
8.8224599297
 20
6.2768368137
 10
8.8372942547
 20
6.2779129632
 10
8.8422282825
 20
6.2788050089
  0
LINE
  5
7EF
100
AcDbEntity
  8
0
100
AcDbLine
 62
7
  6
CONTINUOUS
 10
8.8672406238
 20
6.2156294001
 11
8.8422282825
 21
6.230077425
  0
LINE
  5
7F0
100
AcDbEntity
  8
0
100
AcDbLine
 62
7
  6
CONTINUOUS
 10
8.8672406238
 20
6.2546294001
 11
8.8422282825
 21
6.269077425
  0
LINE
  5
7F1
100
AcDbEntity
  8
0
100
AcDbLine
 62
7
  6
CONTINUOUS
 10
8.8672406238
 20
6.2936294001
 11
8.8422282825
 21
6.308077425
  0
LWPOLYLINE
  5
7F2
100
AcDbEntity
  8
0
100
AcDbPolyline
 62
7
  6
CONTINUOUS
 90
10
 70
0
 10
8.1834035327
 20
6.3765074708
 10
8.1883594503
 20
6.3775853638
 10
8.2029523391
 20
6.3786562952
 10
8.2270974335
 20
6.3797404383
 10
8.2602948621
 20
6.3808350162
 10
8.3010760092
 20
6.3819234136
 10
8.3477454916
 20
6.3829985808
 10
8.4000407673
 20
6.3840874428
 10
8.455955295
 20
6.3851792689
 10
8.5699642106
 20
6.3873378021
  0
LWPOLYLINE
  5
7F3
100
AcDbEntity
  8
0
100
AcDbPolyline
 62
7
  6
CONTINUOUS
 90
9
 70
0
 10
8.1834035327
 20
6.2595074602
 10
8.1884908596
 20
6.2605995975
 10
8.2033512244
 20
6.2616783315
 10
8.2275688978
 20
6.2627582414
 10
8.2604339638
 20
6.2638390957
 10
8.3005905157
 20
6.264911464
 10
8.3471834899
 20
6.2659863391
 10
8.3995744958
 20
6.2670780912
 10
8.4556878319
 20
6.2681741532
  0
LWPOLYLINE
  5
7F4
100
AcDbEntity
  8
0
100
AcDbPolyline
 62
7
  6
CONTINUOUS
 90
9
 70
0
 10
8.1834035327
 20
6.2985074534
 10
8.1885434908
 20
6.299605247
 10
8.2033894695
 20
6.3006804331
 10
8.2277144595
 20
6.3017637201
 10
8.2610464577
 20
6.3028570207
 10
8.3019098913
 20
6.3039438932
 10
8.3484352829
 20
6.3050135871
 10
8.4003053519
 20
6.3060927471
 10
8.4559686783
 20
6.3071795249
  0
LWPOLYLINE
  5
7F5
100
AcDbEntity
  8
0
100
AcDbPolyline
 62
7
  6
CONTINUOUS
 90
20
 70
0
 10
8.1585664416
 20
6.2741294001
 10
8.1630715467
 20
6.2749496229
 10
8.1778774868
 20
6.2760081534
 10
8.202403355
 20
6.2770666839
 10
8.2359375958
 20
6.2781252144
 10
8.2775072984
 20
6.279183745
 10
8.3259064237
 20
6.2802422755
 10
8.3797307943
 20
6.281300806
 10
8.4374188331
 20
6.2823593365
 10
8.4972968682
 20
6.283417867
 10
8.5576276911
 20
6.2844763975
 10
8.6166609563
 20
6.285534928
 10
8.6726839638
 20
6.2865934585
 10
8.7240713488
 20
6.287651989
 10
8.769332237
 20
6.2887105196
 10
8.8071534988
 20
6.2897690501
 10
8.8364378466
 20
6.2908275806
 10
8.8563356696
 20
6.2918861111
 10
8.8662696831
 20
6.2929446416
 10
8.8672406238
 20
6.2932530338
  0
LWPOLYLINE
  5
7F6
100
AcDbEntity
  8
0
100
AcDbPolyline
 62
7
  6
CONTINUOUS
 90
20
 70
0
 10
8.1585664416
 20
6.3131294001
 10
8.1647259563
 20
6.3141152518
 10
8.18108849
 20
6.3151737823
 10
8.2070777927
 20
6.3162323128
 10
8.2419398511
 20
6.3172908433
 10
8.2846632312
 20
6.3183493739
 10
8.3340084228
 20
6.3194079044
 10
8.3885438007
 20
6.3204664349
 10
8.4466871599
 20
6.3215249654
 10
8.5067516186
 20
6.3225834959
 10
8.5669945594
 20
6.3236420264
 10
8.6256681867
 20
6.3247005569
 10
8.6810702346
 20
6.3257590874
 10
8.7315933535
 20
6.3268176179
 10
8.7757717438
 20
6.3278761484
 10
8.8123236818
 20
6.328934679
 10
8.8401887062
 20
6.3299932095
 10
8.8585583841
 20
6.33105174
 10
8.8668997661
 20
6.3321102705
 10
8.8672406238
 20
6.3322530338
  0
LWPOLYLINE
  5
7F7
100
AcDbEntity
  8
0
100
AcDbPolyline
 62
7
  6
CONTINUOUS
 90
10
 70
0
 10
8.1585664416
 20
6.3521294001
 10
8.1666282666
 20
6.3532808807
 10
8.1845357438
 20
6.3543394112
 10
8.2119699768
 20
6.3553979417
 10
8.2481350312
 20
6.3564564722
 10
8.2919816699
 20
6.3575150027
 10
8.3422377942
 20
6.3585735333
 10
8.3974453506
 20
6.3596320638
 10
8.4560026324
 20
6.3606905943
 10
8.5763229152
 20
6.3628076553
  0
LWPOLYLINE
  5
7F8
100
AcDbEntity
  8
0
100
AcDbPolyline
 62
7
  6
CONTINUOUS
 90
3
 70
0
 10
8.1902366118
 20
6.4167737516
 10
8.2050258935
 20
6.417768601
 10
8.2275481621
 20
6.4187574602
  0
LWPOLYLINE
  5
7F9
100
AcDbEntity
  8
0
100
AcDbPolyline
 62
7
  6
CONTINUOUS
 90
5
 70
0
 10
8.7958154362
 20
6.3536665511
 10
8.8191970208
 20
6.3546639899
 10
8.8347128306
 20
6.3556637569
 10
8.8419412966
 20
6.3566786429
 10
8.8422282825
 20
6.3568050089
  0
LWPOLYLINE
  5
7FA
100
AcDbEntity
  8
0
100
AcDbPolyline
 62
7
  6
CONTINUOUS
 90
4
 70
0
 10
8.8172806793
 20
6.3681003078
 10
8.8436413499
 20
6.3691556652
 10
8.8604638088
 20
6.3702110225
 10
8.8672406238
 20
6.3712530338
  0
LWPOLYLINE
  5
7FB
100
AcDbEntity
  8
0
100
AcDbPolyline
 62
7
  6
CONTINUOUS
 90
8
 70
0
 10
8.7958154362
 20
6.3825340646
 10
8.7681213875
 20
6.3816245424
 10
8.734808233
 20
6.3807112206
 10
8.6969393413
 20
6.3798033491
 10
8.6547751423
 20
6.3788878536
 10
8.6090448825
 20
6.377962797
 10
8.5612172283
 20
6.3770383888
 10
8.4589905742
 20
6.3751047871
  0
LWPOLYLINE
  5
7FC
100
AcDbEntity
  8
0
100
AcDbPolyline
 62
7
  6
CONTINUOUS
 90
14
 70
0
 10
8.6949137032
 20
6.4187574602
 10
8.6460219488
 20
6.4177064006
 10
8.5933169961
 20
6.416655238
 10
8.5383094895
 20
6.4156040405
 10
8.4825654681
 20
6.4145526618
 10
8.4276824199
 20
6.4135011391
 10
8.3752388662
 20
6.4124496076
 10
8.326737309
 20
6.4113980879
 10
8.2835659872
 20
6.4103465744
 10
8.2469599435
 20
6.40929504
 10
8.2179679975
 20
6.4082434984
 10
8.1974207862
 20
6.407191975
 10
8.1859061236
 20
6.4061404684
 10
8.1835787829
 20
6.405577425
  0
LWPOLYLINE
  5
7FD
100
AcDbEntity
  8
0
100
AcDbPolyline
 62
7
  6
CONTINUOUS
 90
9
 70
0
 10
8.5699642106
 20
6.3873378021
 10
8.6259385251
 20
6.3884309312
 10
8.6782284959
 20
6.3895199741
 10
8.7248416683
 20
6.3905942277
 10
8.7655668961
 20
6.3916815091
 10
8.7987233757
 20
6.3927750024
 10
8.8228459259
 20
6.3938581367
 10
8.8374498525
 20
6.3949298006
 10
8.8422282825
 20
6.3958050089
  0
LWPOLYLINE
  5
7FE
100
AcDbEntity
  8
0
100
AcDbPolyline
 62
7
  6
CONTINUOUS
 90
10
 70
0
 10
8.4589905742
 20
6.3751047871
 10
8.406562342
 20
6.3740852294
 10
8.3567895602
 20
6.3730612388
 10
8.3113735464
 20
6.3720400492
 10
8.2710162392
 20
6.3710082207
 10
8.2370401777
 20
6.3699664934
 10
8.2109139773
 20
6.3689293791
 10
8.1933958403
 20
6.3679075023
 10
8.1845142348
 20
6.3668847655
 10
8.1835787829
 20
6.366577425
  0
LWPOLYLINE
  5
7FF
100
AcDbEntity
  8
0
100
AcDbPolyline
 62
7
  6
CONTINUOUS
 90
10
 70
0
 10
8.5698602445
 20
6.299203327
 10
8.4556878319
 20
6.2970416666
 10
8.3995744958
 20
6.2959456047
 10
8.3471834899
 20
6.2948538525
 10
8.3005905157
 20
6.2937789775
 10
8.2604339638
 20
6.2927066092
 10
8.2275688978
 20
6.2916257548
 10
8.2033512244
 20
6.2905458449
 10
8.1884908596
 20
6.2894671109
 10
8.1835787829
 20
6.288577425
  0
LWPOLYLINE
  5
800
100
AcDbEntity
  8
0
100
AcDbPolyline
 62
7
  6
CONTINUOUS
 90
10
 70
0
 10
8.4559686783
 20
6.3071795249
 10
8.5700852553
 20
6.3093401173
 10
8.6261704487
 20
6.310435583
 10
8.6785437887
 20
6.3115268425
 10
8.7251200247
 20
6.3126010791
 10
8.7653169301
 20
6.3136741783
 10
8.7982702108
 20
6.3147578863
 10
8.8224928763
 20
6.3158386259
 10
8.8373300246
 20
6.3169168111
 10
8.8422282825
 20
6.3178050089
  0
LWPOLYLINE
  5
801
100
AcDbEntity
  8
0
100
AcDbPolyline
 62
7
  6
CONTINUOUS
 90
10
 70
0
 10
8.5700852553
 20
6.3382076308
 10
8.4559686783
 20
6.3360470383
 10
8.4003053519
 20
6.3349602606
 10
8.3484352829
 20
6.3338811005
 10
8.3019098913
 20
6.3328114066
 10
8.2610464577
 20
6.3317245341
 10
8.2277144595
 20
6.3306312335
 10
8.2033894695
 20
6.3295479465
 10
8.1885434908
 20
6.3284727604
 10
8.1835787829
 20
6.327577425
  0
LWPOLYLINE
  5
802
100
AcDbEntity
  8
0
100
AcDbPolyline
 62
7
  6
CONTINUOUS
 90
8
 70
0
 10
8.4589905742
 20
6.3462372737
 10
8.5612172283
 20
6.3481708753
 10
8.6090448825
 20
6.3490952835
 10
8.6547751423
 20
6.3500203401
 10
8.6969393413
 20
6.3509358356
 10
8.734808233
 20
6.3518437072
 10
8.7681213875
 20
6.3527570289
 10
8.7958154362
 20
6.3536665511
  0
LWPOLYLINE
  5
803
100
AcDbEntity
  8
0
100
AcDbPolyline
 62
7
  6
CONTINUOUS
 90
6
 70
0
 10
8.5763229152
 20
6.3628076553
 10
8.6345951293
 20
6.3638661858
 10
8.6893367714
 20
6.3649247163
 10
8.7389596521
 20
6.3659832468
 10
8.7820240898
 20
6.3670417773
 10
8.8172806793
 20
6.3681003078
  0
LINE
  5
804
100
AcDbEntity
  8
0
100
AcDbLine
 62
7
  6
CONTINUOUS
 10
8.1776147403
 20
6.4187574602
 11
8.8531427966
 21
6.4187574602
  0
LINE
  5
805
100
AcDbEntity
  8
0
100
AcDbLine
 62
7
  6
CONTINUOUS
 10
8.8672406238
 20
6.3326294001
 11
8.8422282825
 21
6.347077425
  0
LINE
  5
806
100
AcDbEntity
  8
0
100
AcDbLine
 62
7
  6
CONTINUOUS
 10
8.8672406238
 20
6.3716294001
 11
8.8422282825
 21
6.386077425
  0
LINE
  5
807
100
AcDbEntity
  8
0
100
AcDbLine
 62
7
  6
CONTINUOUS
 10
8.8672406238
 20
6.4106294001
 11
8.8531691473
 21
6.4187574602
  0
CIRCLE
  5
808
100
AcDbEntity
  8
0
100
AcDbCircle
 62
7
  6
CONTINUOUS
 10
10.5342808475
 20
1.243294839
 40
0.252091
  0
CIRCLE
  5
809
100
AcDbEntity
  8
0
100
AcDbCircle
 62
7
  6
CONTINUOUS
 10
10.5342808475
 20
1.243294839
 40
0.182698
  0
ARC
  5
80A
100
AcDbEntity
  8
0
100
AcDbCircle
 62
7
  6
CONTINUOUS
 10
8.5129035327
 20
8.471785405
 40
0.3295
100
AcDbArc
 50
209.9999999982
 51
303.5306449893
  0
CIRCLE
  5
80B
100
AcDbEntity
  8
0
100
AcDbCircle
 62
7
  6
CONTINUOUS
 10
8.5129035327
 20
8.471785405
 40
0.3179998108
  0
CIRCLE
  5
80C
100
AcDbEntity
  8
0
100
AcDbCircle
 62
7
  6
CONTINUOUS
 10
8.5129035327
 20
8.471785405
 40
0.306
  0
CIRCLE
  5
80D
100
AcDbEntity
  8
AXIS_COSMETIC_THREADS
100
AcDbCircle
 62
7
  6
CONTINUOUS
 10
8.5129035327
 20
8.471785405
 40
0.3025
  0
ELLIPSE
  5
80E
100
AcDbEntity
  8
0
100
AcDbEllipse
 62
7
  6
CONTINUOUS
 10
14.6387311699
 20
8.4638866742
 30
0.0
 11
-0.1624999562
 21
0.2814582815
 31
0.0
 40
0.3261285034
 41
-2.2791875015
 42
-0.862389456
  0
ELLIPSE
  5
80F
100
AcDbEntity
  8
0
100
AcDbEllipse
 62
7
  6
CONTINUOUS
 10
8.2479035327
 20
4.2380702584
 30
0.0
 11
0.2397327473
 21
-0.0546225252
 31
0.0
 40
0.2072950592
 41
-1.5235997252
 42
0.0471966016
  0
ELLIPSE
  5
810
100
AcDbEntity
  8
0
100
AcDbEllipse
 62
7
  6
CONTINUOUS
 10
8.366532429
 20
4.1864497679
 30
0.0
 11
0.0599331868
 21
-0.0136556313
 31
0.0
 40
0.2072950592
 41
0.0
 42
6.2831853072
  0
ELLIPSE
  5
811
100
AcDbEntity
  8
0
100
AcDbEllipse
 62
7
  6
CONTINUOUS
 10
8.5129035327
 20
4.1227574602
 30
0.0
 11
0.3246380953
 21
-0.0739680029
 31
0.0
 40
0.2072950592
 41
1.694992069
 42
3.1117901145
  0
ENDSEC
  0
SECTION
  2
OBJECTS
  0
DICTIONARY
  5
C
100
AcDbDictionary
280
0
281
1
  3
ACAD_GROUP
350
D
  3
ACAD_MLINESTYLE
350
17
  3
ACAD_LAYOUT
350
1A
  3
ACAD_PLOTSETTINGS
350
19
  3
ACAD_PLOTSTYLENAME
350
E
  0
DICTIONARY
  5
D
102
{ACAD_REACTORS
330
C
102
}
100
AcDbDictionary
280
0
281
1
  0
ACDBDICTIONARYWDFLT
  5
E
102
{ACAD_REACTORS
330
C
102
}
100
AcDbDictionary
281
1
  3
Normal
350
F
100
AcDbDictionaryWithDefault
340
F
  0
DICTIONARY
  5
17
102
{ACAD_REACTORS
330
C
102
}
100
AcDbDictionary
280
0
281
1
  3
Standard
350
18
  0
DICTIONARY
  5
19
102
{ACAD_REACTORS
330
C
102
}
100
AcDbDictionary
281
1
  0
DICTIONARY
  5
1A
102
{ACAD_REACTORS
330
C
102
}
100
AcDbDictionary
281
1
  3
Model
350
812
  3
Layout1
350
813
  0
ACDBPLACEHOLDER
  5
F
102
{ACAD_REACTORS
330
E
102
}
  0
MLINESTYLE
  5
18
102
{ACAD_REACTORS
330
17
102
}
100
AcDbMlineStyle
  2
STANDARD
 70
0
  3

 62
256
 51
90.0
 52
90.0
 71
2
 49
0.5
 62
256
  6
BYLAYER
 49
-0.5
 62
256
  6
BYLAYER
  0
LAYOUT
  5
812
102
{ACAD_REACTORS
330
1A
102
}
100
AcDbPlotSettings
  1

  2
none_device
  4
ANSI_B_(17.00_x_11.00_Inches)
  6

 40
0.0
 41
0.0
 42
0.0
 43
0.0
 44
431.8
 45
279.4
 46
0.0
 47
0.0
 48
0.0
 49
0.0
140
0.0
141
0.0
142
1.0
143
1.0
 70
1024
 72
0
 73
0
 74
0
  7

 75
0
147
1.0
148
0.0
149
0.0
100
AcDbLayout
  1
Model
 70
0
 71
0
 10
0.0
 20
0.0
 11
17.0
 21
11.0
 12
0.0
 22
0.0
 32
0.0
 14
0.0
 24
0.0
 34
0.0
 15
0.0
 25
0.0
 35
0.0
146
0.0
 13
0.0
 23
0.0
 33
0.0
 16
1.0
 26
0.0
 36
0.0
 17
0.0
 27
1.0
 37
0.0
 76
0
330
233
345
0
346
0
  0
LAYOUT
  5
813
102
{ACAD_REACTORS
330
1A
102
}
100
AcDbPlotSettings
  1

  2
none_device
  4
ANSI_B_(17.00_x_11.00_Inches)
  6

 40
0.0
 41
0.0
 42
0.0
 43
0.0
 44
431.8
 45
279.4
 46
0.0
 47
0.0
 48
0.0
 49
0.0
140
0.0
141
0.0
142
1.0
143
1.0
 70
0
 72
0
 73
0
 74
0
  7

 75
0
147
1.0
148
0.0
149
0.0
100
AcDbLayout
  1
Layout1
 70
0
 71
1
 10
0.0
 20
0.0
 11
17.0
 21
11.0
 12
0.0
 22
0.0
 32
0.0
 14
0.0
 24
0.0
 34
0.0
 15
0.0
 25
0.0
 35
0.0
146
0.0
 13
0.0
 23
0.0
 33
0.0
 16
1.0
 26
0.0
 36
0.0
 17
0.0
 27
1.0
 37
0.0
 76
0
330
234
345
0
346
0
  0
ENDSEC
  0
EOF
