999
DXF file: 155322_1.dxf
999
Pro/ENGINEER 2009141 by Parametric Technology Corporation
  0
SECTION
  2
HEADER
  9
$ACADVER
  1
AC1015
  9
$DWGCODEPAGE
  3
ANSI_1252
  9
$EXTMAX
 10
17.0
 20
11.0
 30
0.0
  9
$EXTMIN
 10
0.0
 20
0.0
 30
0.0
  9
$LIMMIN
 10
0.0
 20
0.0
  9
$LIMMAX
 10
17.0
 20
11.0
  9
$VIEWCTR
 10
8.5
 20
5.5
  9
$VIEWSIZE
 40
11.0
  9
$CLAYER
  8
0
  9
$LTSCALE
 40
0.935
  9
$CELTYPE
  6
BYLAYER
  9
$DIMSCALE
 40
1.0
  9
$DIMASZ
 40
0.1875
  9
$DIMEXO
 40
0.10625
  9
$DIMDLI
 40
0.646
  9
$DIMEXE
 40
0.306
  9
$DIMCEN
 40
0.153
  9
$DIMLFAC
 40
1.0
  9
$DIMBLK
  1
_FILLED
  9
$DIMTXT
 40
0.1
  9
$DIMTOL
 70
1
  9
$DIMLIM
 70
0
  9
$DIMTFAC
 40
1.0
  9
$DIMTP
 40
0.005
  9
$DIMTM
 40
0.005
  9
$PDMODE
 70
3
  9
$PDSIZE
 40
0.3125
  9
$HANDSEED
  5
945
  9
$TILEMODE
 70
1
  9
$MEASUREMENT
 70
0
  9
$INSUNITS
 70
1
  0
ENDSEC
  0
SECTION
  2
CLASSES
  0
CLASS
  1
ACDBDICTIONARYWDFLT
  2
AcDbDictionaryWithDefault
  3
AutoCAD 2000
 90
0
280
0
281
0
  0
CLASS
  1
ACDBPLACEHOLDER
  2
AcDbPlaceHolder
  3
AutoCAD 2000
 90
0
280
0
281
0
  0
CLASS
  1
LAYOUT
  2
AcDbLayout
  3
AutoCAD 2000
 90
0
280
0
281
0
  0
ENDSEC
  0
SECTION
  2
TABLES
  0
TABLE
  2
VPORT
  5
8
100
AcDbSymbolTable
 70
2
  0
VPORT
  5
1F4
100
AcDbSymbolTableRecord
100
AcDbViewportTableRecord
  2
*ACTIVE
 70
0
 10
0.0
 20
0.0
 11
1.0
 21
1.0
 12
8.5
 22
5.5
 13
0.0
 23
0.0
 14
1.0
 24
1.0
 15
0.0
 25
0.0
 16
0.0
 26
0.0
 36
1.0
 17
0.0
 27
0.0
 37
0.0
 40
11.0
 41
1.5454545455
 42
50.0
 43
0.0
 44
0.0
 50
0.0
 51
0.0
 71
0
 72
100
 73
1
 74
1
 75
0
 76
0
 77
0
 78
0
  0
ENDTAB
  0
TABLE
  2
LTYPE
  5
5
100
AcDbSymbolTable
 70
6
  0
LTYPE
  5
14
100
AcDbSymbolTableRecord
100
AcDbLinetypeTableRecord
  2
BYBLOCK
 70
0
  3

 72
65
 73
0
 40
0.0
  0
LTYPE
  5
15
100
AcDbSymbolTableRecord
100
AcDbLinetypeTableRecord
  2
BYLAYER
 70
0
  3

 72
65
 73
0
 40
0.0
  0
LTYPE
  5
16
100
AcDbSymbolTableRecord
100
AcDbLinetypeTableRecord
  2
CONTINUOUS
 70
64
  3
Solid line
 72
65
 73
0
 40
0.0
  0
LTYPE
  5
1F5
100
AcDbSymbolTableRecord
100
AcDbLinetypeTableRecord
  2
CENTER
 70
64
  3
____ _ ____ _ ____ _ ____ _ ____ _ ____ _ ____
 72
65
 73
4
 40
0.6
 49
0.375
 74
0
 49
-0.075
 74
0
 49
0.075
 74
0
 49
-0.075
 74
0
  0
LTYPE
  5
1F6
100
AcDbSymbolTableRecord
100
AcDbLinetypeTableRecord
  2
HIDDEN
 70
64
  3
- - - - - - - - - - - - - - - - - - - -
 72
65
 73
2
 40
0.2
 49
0.1
 74
0
 49
-0.1
 74
0
  0
LTYPE
  5
1F7
100
AcDbSymbolTableRecord
100
AcDbLinetypeTableRecord
  2
PHANTOM
 70
64
  3
_____ _ _ _____ _ _ _____ _ _ _____
 72
65
 73
6
 40
0.8
 49
0.45
 74
0
 49
-0.05
 74
0
 49
0.1
 74
0
 49
-0.05
 74
0
 49
0.1
 74
0
 49
-0.05
 74
0
  0
LTYPE
  5
1F8
100
AcDbSymbolTableRecord
100
AcDbLinetypeTableRecord
  2
DOT
 70
64
  3
. . . . . . . . . . . . . . . . . . . .
 72
65
 73
2
 40
0.2
 49
0.1
 74
0
 49
-0.1
 74
0
  0
LTYPE
  5
1F9
100
AcDbSymbolTableRecord
100
AcDbLinetypeTableRecord
  2
DASHED
 70
64
  3
- - - - - - - - - - - - - - - - - - - -
 72
65
 73
2
 40
0.2
 49
0.1
 74
0
 49
-0.1
 74
0
  0
ENDTAB
  0
TABLE
  2
LAYER
  5
2
100
AcDbSymbolTable
 70
36
  0
LAYER
  5
10
100
AcDbSymbolTableRecord
100
AcDbLayerTableRecord
  2
0
 70
0
 62
7
  6
CONTINUOUS
370
-3
390
F
  0
LAYER
  5
1FA
100
AcDbSymbolTableRecord
100
AcDbLayerTableRecord
  2
DEFAULT_1
 70
0
 62
7
  6
CENTER
370
-3
390
F
  0
LAYER
  5
1FB
100
AcDbSymbolTableRecord
100
AcDbLayerTableRecord
  2
DEFAULT_2
 70
0
 62
8
  6
HIDDEN
370
-3
390
F
  0
LAYER
  5
1FC
100
AcDbSymbolTableRecord
100
AcDbLayerTableRecord
  2
DEFAULT_3
 70
0
 62
7
  6
PHANTOM
370
-3
390
F
  0
LAYER
  5
1FD
100
AcDbSymbolTableRecord
100
AcDbLayerTableRecord
  2
1
 70
0
 62
7
  6
CONTINUOUS
370
-3
390
F
  0
LAYER
  5
1FE
100
AcDbSymbolTableRecord
100
AcDbLayerTableRecord
  2
10
 70
0
 62
7
  6
CONTINUOUS
370
-3
390
F
  0
LAYER
  5
1FF
100
AcDbSymbolTableRecord
100
AcDbLayerTableRecord
  2
11
 70
0
 62
7
  6
CONTINUOUS
370
-3
390
F
  0
LAYER
  5
200
100
AcDbSymbolTableRecord
100
AcDbLayerTableRecord
  2
12
 70
0
 62
7
  6
CONTINUOUS
370
-3
390
F
  0
LAYER
  5
201
100
AcDbSymbolTableRecord
100
AcDbLayerTableRecord
  2
13
 70
0
 62
7
  6
CONTINUOUS
370
-3
390
F
  0
LAYER
  5
202
100
AcDbSymbolTableRecord
100
AcDbLayerTableRecord
  2
14
 70
0
 62
7
  6
CONTINUOUS
370
-3
390
F
  0
LAYER
  5
203
100
AcDbSymbolTableRecord
100
AcDbLayerTableRecord
  2
15
 70
0
 62
7
  6
CONTINUOUS
370
-3
390
F
  0
LAYER
  5
204
100
AcDbSymbolTableRecord
100
AcDbLayerTableRecord
  2
16
 70
0
 62
7
  6
CONTINUOUS
370
-3
390
F
  0
LAYER
  5
205
100
AcDbSymbolTableRecord
100
AcDbLayerTableRecord
  2
17
 70
0
 62
7
  6
CONTINUOUS
370
-3
390
F
  0
LAYER
  5
206
100
AcDbSymbolTableRecord
100
AcDbLayerTableRecord
  2
18
 70
0
 62
7
  6
CONTINUOUS
370
-3
390
F
  0
LAYER
  5
207
100
AcDbSymbolTableRecord
100
AcDbLayerTableRecord
  2
19
 70
0
 62
7
  6
CONTINUOUS
370
-3
390
F
  0
LAYER
  5
208
100
AcDbSymbolTableRecord
100
AcDbLayerTableRecord
  2
2
 70
0
 62
7
  6
CONTINUOUS
370
-3
390
F
  0
LAYER
  5
209
100
AcDbSymbolTableRecord
100
AcDbLayerTableRecord
  2
20
 70
0
 62
7
  6
CONTINUOUS
370
-3
390
F
  0
LAYER
  5
20A
100
AcDbSymbolTableRecord
100
AcDbLayerTableRecord
  2
21
 70
0
 62
7
  6
CONTINUOUS
370
-3
390
F
  0
LAYER
  5
20B
100
AcDbSymbolTableRecord
100
AcDbLayerTableRecord
  2
22
 70
0
 62
7
  6
CONTINUOUS
370
-3
390
F
  0
LAYER
  5
20C
100
AcDbSymbolTableRecord
100
AcDbLayerTableRecord
  2
23
 70
0
 62
7
  6
CONTINUOUS
370
-3
390
F
  0
LAYER
  5
20D
100
AcDbSymbolTableRecord
100
AcDbLayerTableRecord
  2
24
 70
0
 62
7
  6
CONTINUOUS
370
-3
390
F
  0
LAYER
  5
20E
100
AcDbSymbolTableRecord
100
AcDbLayerTableRecord
  2
25
 70
0
 62
7
  6
CONTINUOUS
370
-3
390
F
  0
LAYER
  5
20F
100
AcDbSymbolTableRecord
100
AcDbLayerTableRecord
  2
26
 70
0
 62
7
  6
CONTINUOUS
370
-3
390
F
  0
LAYER
  5
210
100
AcDbSymbolTableRecord
100
AcDbLayerTableRecord
  2
27
 70
0
 62
7
  6
CONTINUOUS
370
-3
390
F
  0
LAYER
  5
211
100
AcDbSymbolTableRecord
100
AcDbLayerTableRecord
  2
28
 70
0
 62
7
  6
CONTINUOUS
370
-3
390
F
  0
LAYER
  5
212
100
AcDbSymbolTableRecord
100
AcDbLayerTableRecord
  2
29
 70
0
 62
7
  6
CONTINUOUS
370
-3
390
F
  0
LAYER
  5
213
100
AcDbSymbolTableRecord
100
AcDbLayerTableRecord
  2
3
 70
0
 62
7
  6
CONTINUOUS
370
-3
390
F
  0
LAYER
  5
214
100
AcDbSymbolTableRecord
100
AcDbLayerTableRecord
  2
30
 70
0
 62
7
  6
CONTINUOUS
370
-3
390
F
  0
LAYER
  5
215
100
AcDbSymbolTableRecord
100
AcDbLayerTableRecord
  2
31
 70
0
 62
7
  6
CONTINUOUS
370
-3
390
F
  0
LAYER
  5
216
100
AcDbSymbolTableRecord
100
AcDbLayerTableRecord
  2
32
 70
0
 62
7
  6
CONTINUOUS
370
-3
390
F
  0
LAYER
  5
217
100
AcDbSymbolTableRecord
100
AcDbLayerTableRecord
  2
4
 70
0
 62
7
  6
CONTINUOUS
370
-3
390
F
  0
LAYER
  5
218
100
AcDbSymbolTableRecord
100
AcDbLayerTableRecord
  2
5
 70
0
 62
7
  6
CONTINUOUS
370
-3
390
F
  0
LAYER
  5
219
100
AcDbSymbolTableRecord
100
AcDbLayerTableRecord
  2
6
 70
0
 62
7
  6
CONTINUOUS
370
-3
390
F
  0
LAYER
  5
21A
100
AcDbSymbolTableRecord
100
AcDbLayerTableRecord
  2
7
 70
0
 62
7
  6
CONTINUOUS
370
-3
390
F
  0
LAYER
  5
21B
100
AcDbSymbolTableRecord
100
AcDbLayerTableRecord
  2
8
 70
0
 62
7
  6
CONTINUOUS
370
-3
390
F
  0
LAYER
  5
21C
100
AcDbSymbolTableRecord
100
AcDbLayerTableRecord
  2
9
 70
0
 62
7
  6
CONTINUOUS
370
-3
390
F
  0
LAYER
  5
21D
100
AcDbSymbolTableRecord
100
AcDbLayerTableRecord
  2
AXIS
 70
0
 62
7
  6
CONTINUOUS
370
-3
390
F
  0
LAYER
  5
21E
100
AcDbSymbolTableRecord
100
AcDbLayerTableRecord
  2
AXIS_COSMETIC_THREADS
 70
0
 62
7
  6
CONTINUOUS
370
-3
390
F
  0
LAYER
  5
21F
100
AcDbSymbolTableRecord
100
AcDbLayerTableRecord
  2
DATUM_CURVES
 70
0
 62
7
  6
CONTINUOUS
370
-3
390
F
  0
LAYER
  5
220
100
AcDbSymbolTableRecord
100
AcDbLayerTableRecord
  2
DATUM_PLANES
 70
0
 62
7
  6
CONTINUOUS
370
-3
390
F
  0
LAYER
  5
221
100
AcDbSymbolTableRecord
100
AcDbLayerTableRecord
  2
NOTES
 70
0
 62
7
  6
CONTINUOUS
370
-3
390
F
  0
LAYER
  5
222
100
AcDbSymbolTableRecord
100
AcDbLayerTableRecord
  2
QUILTS
 70
0
 62
7
  6
CONTINUOUS
370
-3
390
F
  0
LAYER
  5
223
100
AcDbSymbolTableRecord
100
AcDbLayerTableRecord
  2
SCHEME_DIMS
 70
0
 62
7
  6
CONTINUOUS
370
-3
390
F
  0
LAYER
  5
224
100
AcDbSymbolTableRecord
100
AcDbLayerTableRecord
  2
SYMBOLS
 70
0
 62
7
  6
CONTINUOUS
370
-3
390
F
  0
ENDTAB
  0
TABLE
  2
STYLE
  5
3
100
AcDbSymbolTable
 70
1
  0
STYLE
  5
11
100
AcDbSymbolTableRecord
100
AcDbTextStyleTableRecord
  2
STANDARD
 70
0
 40
0.0
 41
1.0
 50
0.0
 71
0
 42
0.2
  3
txt
  4

  0
STYLE
  5
225
100
AcDbSymbolTableRecord
100
AcDbTextStyleTableRecord
  2
TEXTSTYLE_1
 70
0
 40
0.0
 41
0.8
 50
0.0
 71
0
 42
0.2
  3
gdt
  4

  0
STYLE
  5
226
100
AcDbSymbolTableRecord
100
AcDbTextStyleTableRecord
  2
TEXTSTYLE_2
 70
0
 40
0.0
 41
0.8
 50
0.0
 71
0
 42
0.2
  3
txt
  4

  0
STYLE
  5
227
100
AcDbSymbolTableRecord
100
AcDbTextStyleTableRecord
  2
TEXTSTYLE_3
 70
0
 40
0.0
 41
0.85
 50
0.0
 71
0
 42
0.2
  3
txt
  4

  0
STYLE
  5
228
100
AcDbSymbolTableRecord
100
AcDbTextStyleTableRecord
  2
TEXTSTYLE_4
 70
0
 40
0.0
 41
0.92
 50
0.0
 71
0
 42
0.2
  3
txt
  4

  0
STYLE
  5
229
100
AcDbSymbolTableRecord
100
AcDbTextStyleTableRecord
  2
TEXTSTYLE_5
 70
0
 40
0.0
 41
1.0
 50
0.0
 71
0
 42
0.2
  3
gdt
  4

  0
ENDTAB
  0
TABLE
  2
VIEW
  5
6
100
AcDbSymbolTable
 70
0
  0
ENDTAB
  0
TABLE
  2
UCS
  5
7
100
AcDbSymbolTable
 70
0
  0
ENDTAB
  0
TABLE
  2
APPID
  5
9
100
AcDbSymbolTable
 70
1
  0
APPID
  5
22A
100
AcDbSymbolTableRecord
100
AcDbRegAppTableRecord
  2
ACAD
 70
0
  0
ENDTAB
  0
TABLE
  2
BLOCK_RECORD
  5
1
100
AcDbSymbolTable
 70
0
  0
BLOCK_RECORD
  5
22B
100
AcDbSymbolTableRecord
100
AcDbBlockTableRecord
  2
*Model_Space
  0
BLOCK_RECORD
  5
22C
100
AcDbSymbolTableRecord
100
AcDbBlockTableRecord
  2
*Paper_Space
  0
BLOCK_RECORD
  5
22D
100
AcDbSymbolTableRecord
100
AcDbBlockTableRecord
  2
_FILLED
  0
BLOCK_RECORD
  5
22E
100
AcDbSymbolTableRecord
100
AcDbBlockTableRecord
  2
*D0
  0
BLOCK_RECORD
  5
22F
100
AcDbSymbolTableRecord
100
AcDbBlockTableRecord
  2
*D1
  0
BLOCK_RECORD
  5
230
100
AcDbSymbolTableRecord
100
AcDbBlockTableRecord
  2
*D2
  0
BLOCK_RECORD
  5
231
100
AcDbSymbolTableRecord
100
AcDbBlockTableRecord
  2
*D3
  0
BLOCK_RECORD
  5
232
100
AcDbSymbolTableRecord
100
AcDbBlockTableRecord
  2
*D4
  0
BLOCK_RECORD
  5
233
100
AcDbSymbolTableRecord
100
AcDbBlockTableRecord
  2
BANNER_LOGO_TITLEBLOCK_BL0
  0
ENDTAB
  0
TABLE
  2
DIMSTYLE
  5
A
100
AcDbSymbolTable
 70
1
100
AcDbDimStyleTable
 71
0
  0
DIMSTYLE
105
234
100
AcDbSymbolTableRecord
100
AcDbDimStyleTableRecord
  2
STANDARD
 70
0
  3

  4

 40
1.0
 41
0.1875
 42
0.0625
 43
0.38
 44
0.18
 45
0.0
 46
0.0
 47
0.005
 48
0.005
140
0.1
141
0.09
142
0.0
143
25.4
144
1.0
145
0.0
146
1.0
147
0.09
 71
1.0
 72
0.0
 73
1
 74
1
 75
0
 76
0
 77
0
 78
4
170
0
171
2
172
0
173
0
174
0
175
0
176
0
177
0
178
0
270
2
271
3
272
3
273
2
274
2
275
0
280
0
281
0
282
0
283
1
284
4
285
0
286
0
287
3
288
0
340
11
341
22D
342
22D
343
22D
344
22D
  0
DIMSTYLE
105
235
100
AcDbSymbolTableRecord
100
AcDbDimStyleTableRecord
  2
DIMSTYLE_1
 70
0
  3

  4

 40
1.0
 41
0.1875
 42
0.0625
 43
0.38
 44
0.18
 45
0.0
 46
0.0
 47
0.1
 48
0.1
140
0.1
141
0.09
142
0.0
143
25.4
144
1.0
145
0.0
146
1.0
147
0.09
 71
0.0
 72
0.0
 73
1
 74
1
 75
0
 76
0
 77
0
 78
4
170
0
171
2
172
0
173
0
174
0
175
0
176
0
177
0
178
0
270
2
271
1
272
1
273
2
274
2
275
0
280
0
281
0
282
0
283
1
284
4
285
0
286
0
287
3
288
0
340
11
341
22D
342
22D
343
22D
344
22D
  0
ENDTAB
  0
ENDSEC
  0
SECTION
  2
BLOCKS
  0
BLOCK
  5
20
100
AcDbEntity
  8
0
100
AcDbBlockBegin
  2
*Model_Space
 70
0
 10
0.0
 20
0.0
 30
0.0
  3
*Model_Space
  1

  0
ENDBLK
  5
21
100
AcDbEntity
  8
0
100
AcDbBlockEnd
  0
BLOCK
  5
1C
100
AcDbEntity
  8
0
100
AcDbBlockBegin
  2
*Paper_Space
 70
0
 10
0.0
 20
0.0
 30
0.0
  3
*Paper_Space
  1

  0
ENDBLK
  5
1D
100
AcDbEntity
  8
0
100
AcDbBlockEnd
  0
BLOCK
  5
236
100
AcDbEntity
  8
0
100
AcDbBlockBegin
 62
2
  6
CONTINUOUS
  2
BANNER_LOGO_TITLEBLOCK_BL0
 70
64
 10
12.9086867042
 20
2.5403783405
  3
BANNER_LOGO_TITLEBLOCK_BL0
  1

  0
ELLIPSE
  5
237
100
AcDbEntity
  8
0
100
AcDbEllipse
 62
2
  6
CONTINUOUS
 10
12.9046654608
 20
2.5403783405
 30
0.0
 11
-0.8250004575
 21
0.0
 31
0.0
 40
0.218572
 41
0.0
 42
6.2831853072
  0
ARC
  5
238
100
AcDbEntity
  8
0
100
AcDbCircle
 62
2
  6
CONTINUOUS
 10
12.400005721
 20
2.5168763464
 40
0.0153945295
100
AcDbArc
 50
354.0454548824
 51
5.1878013979
  0
ARC
  5
239
100
AcDbEntity
  8
0
100
AcDbCircle
 62
2
  6
CONTINUOUS
 10
12.3931760319
 20
2.5166878286
 40
0.0222174455
100
AcDbArc
 50
4.0793399388
 51
69.834329283
  0
LINE
  5
23A
100
AcDbEntity
  8
0
100
AcDbLine
 62
2
  6
CONTINUOUS
 10
12.4008351814
 20
2.5375433389
 11
12.3907841758
 21
2.5410923409
  0
LINE
  5
23B
100
AcDbEntity
  8
0
100
AcDbLine
 62
2
  6
CONTINUOUS
 10
12.3907841758
 20
2.5410923409
 11
12.3990241804
 21
2.5458683435
  0
ARC
  5
23C
100
AcDbEntity
  8
0
100
AcDbCircle
 62
2
  6
CONTINUOUS
 10
12.3771587979
 20
2.5826952352
 40
0.0428289026
100
AcDbArc
 50
300.6990502959
 51
319.0591802498
  0
ARC
  5
23D
100
AcDbEntity
  8
0
100
AcDbCircle
 62
2
  6
CONTINUOUS
 10
12.3971873948
 20
2.5665668817
 40
0.0171568255
100
AcDbArc
 50
315.9145124245
 51
16.0049121282
  0
ARC
  5
23E
100
AcDbEntity
  8
0
100
AcDbCircle
 62
2
  6
CONTINUOUS
 10
12.3922357827
 20
2.5632132173
 40
0.0229166529
100
AcDbArc
 50
20.6563876465
 51
62.3316896973
  0
ARC
  5
23F
100
AcDbEntity
  8
0
100
AcDbCircle
 62
2
  6
CONTINUOUS
 10
12.371573659
 20
2.5302846524
 40
0.061747717
100
AcDbArc
 50
59.5385584989
 51
90.0050977555
  0
LINE
  5
240
100
AcDbEntity
  8
0
100
AcDbLine
 62
2
  6
CONTINUOUS
 10
12.3715681652
 20
2.5920323691
 11
12.2055050731
 21
2.5920323691
  0
ARC
  5
241
100
AcDbEntity
  8
0
100
AcDbCircle
 62
2
  6
CONTINUOUS
 10
12.2055050712
 20
2.5895573696
 40
0.0024749995
100
AcDbArc
 50
89.9999571957
 51
180.0000428043
  0
LINE
  5
242
100
AcDbEntity
  8
0
100
AcDbLine
 62
2
  6
CONTINUOUS
 10
12.2030300717
 20
2.5895573678
 11
12.2030300717
 21
2.5697573568
  0
ARC
  5
243
100
AcDbEntity
  8
0
100
AcDbCircle
 62
2
  6
CONTINUOUS
 10
12.2055050712
 20
2.5697573549
 40
0.0024749995
100
AcDbArc
 50
179.9999571957
 51
270.0000428043
  0
LINE
  5
244
100
AcDbEntity
  8
0
100
AcDbLine
 62
2
  6
CONTINUOUS
 10
12.2055050731
 20
2.5672823554
 11
12.2294470864
 21
2.5672823554
  0
ARC
  5
245
100
AcDbEntity
  8
0
100
AcDbCircle
 62
2
  6
CONTINUOUS
 10
12.2294470882
 20
2.5648073559
 40
0.0024749995
100
AcDbArc
 50
359.9999571957
 51
90.0000428043
  0
LINE
  5
246
100
AcDbEntity
  8
0
100
AcDbLine
 62
2
  6
CONTINUOUS
 10
12.2319220877
 20
2.564807354
 11
12.2319220877
 21
2.5184523283
  0
ARC
  5
247
100
AcDbEntity
  8
0
100
AcDbCircle
 62
2
  6
CONTINUOUS
 10
12.2294470882
 20
2.5184523265
 40
0.0024749995
100
AcDbArc
 50
269.9999571957
 51
0.0000428043
  0
LINE
  5
248
100
AcDbEntity
  8
0
100
AcDbLine
 62
2
  6
CONTINUOUS
 10
12.2294470864
 20
2.515977327
 11
12.2055050731
 21
2.515977327
  0
ARC
  5
249
100
AcDbEntity
  8
0
100
AcDbCircle
 62
2
  6
CONTINUOUS
 10
12.2055050712
 20
2.5135023274
 40
0.0024749995
100
AcDbArc
 50
89.9999571957
 51
180.0000428043
  0
LINE
  5
24A
100
AcDbEntity
  8
0
100
AcDbLine
 62
2
  6
CONTINUOUS
 10
12.2030300717
 20
2.5135023256
 11
12.2030300717
 21
2.4937023146
  0
ARC
  5
24B
100
AcDbEntity
  8
0
100
AcDbCircle
 62
2
  6
CONTINUOUS
 10
12.2055050712
 20
2.4937023128
 40
0.0024749995
100
AcDbArc
 50
179.9999571957
 51
270.0000428043
  0
LINE
  5
24C
100
AcDbEntity
  8
0
100
AcDbLine
 62
2
  6
CONTINUOUS
 10
12.2055050731
 20
2.4912273132
 11
12.3819511709
 21
2.4912273132
  0
ARC
  5
24D
100
AcDbEntity
  8
0
100
AcDbCircle
 62
2
  6
CONTINUOUS
 10
12.3792298263
 20
2.539634765
 40
0.048483885
100
AcDbArc
 50
273.21763719
 51
303.0749121182
  0
ARC
  5
24E
100
AcDbEntity
  8
0
100
AcDbCircle
 62
2
  6
CONTINUOUS
 10
12.3940692204
 20
2.5168671561
 40
0.0213072145
100
AcDbArc
 50
303.0488228549
 51
355.7263138674
  0
LINE
  5
24F
100
AcDbEntity
  8
0
100
AcDbLine
 62
2
  6
CONTINUOUS
 10
12.2949101227
 20
2.5499573458
 11
12.3362731456
 21
2.5499573458
  0
ARC
  5
250
100
AcDbEntity
  8
0
100
AcDbCircle
 62
2
  6
CONTINUOUS
 10
12.3362731456
 20
2.5586198506
 40
0.0086625048
100
AcDbArc
 50
270.0
 51
90.0
  0
LINE
  5
251
100
AcDbEntity
  8
0
100
AcDbLine
 62
2
  6
CONTINUOUS
 10
12.3362731456
 20
2.5672823554
 11
12.2949101227
 21
2.5672823554
  0
ARC
  5
252
100
AcDbEntity
  8
0
100
AcDbCircle
 62
2
  6
CONTINUOUS
 10
12.2949101208
 20
2.5648073559
 40
0.0024749995
100
AcDbArc
 50
89.9999571957
 51
180.0000428043
  0
LINE
  5
253
100
AcDbEntity
  8
0
100
AcDbLine
 62
2
  6
CONTINUOUS
 10
12.2924351213
 20
2.564807354
 11
12.2924351213
 21
2.5524323472
  0
ARC
  5
254
100
AcDbEntity
  8
0
100
AcDbCircle
 62
2
  6
CONTINUOUS
 10
12.2949101208
 20
2.5524323453
 40
0.0024749995
100
AcDbArc
 50
179.9999571957
 51
270.0000428043
  0
LINE
  5
255
100
AcDbEntity
  8
0
100
AcDbLine
 62
2
  6
CONTINUOUS
 10
12.2924351213
 20
2.5184523283
 11
12.2924351213
 21
2.5308273352
  0
ARC
  5
256
100
AcDbEntity
  8
0
100
AcDbCircle
 62
2
  6
CONTINUOUS
 10
12.2949101208
 20
2.530827337
 40
0.0024749995
100
AcDbArc
 50
89.9999571957
 51
180.0000428043
  0
LINE
  5
257
100
AcDbEntity
  8
0
100
AcDbLine
 62
2
  6
CONTINUOUS
 10
12.2949101227
 20
2.5333023366
 11
12.3362731456
 21
2.5333023366
  0
ARC
  5
258
100
AcDbEntity
  8
0
100
AcDbCircle
 62
2
  6
CONTINUOUS
 10
12.3362731456
 20
2.5246398318
 40
0.0086625048
100
AcDbArc
 50
270.0
 51
90.0
  0
LINE
  5
259
100
AcDbEntity
  8
0
100
AcDbLine
 62
2
  6
CONTINUOUS
 10
12.3362731456
 20
2.515977327
 11
12.2949101227
 21
2.515977327
  0
ARC
  5
25A
100
AcDbEntity
  8
0
100
AcDbCircle
 62
2
  6
CONTINUOUS
 10
12.2949101208
 20
2.5184523265
 40
0.0024749995
100
AcDbArc
 50
179.9999571957
 51
270.0000428043
  0
ARC
  5
25B
100
AcDbEntity
  8
0
100
AcDbCircle
 62
2
  6
CONTINUOUS
 10
13.5806801742
 20
2.5212486481
 40
0.044722495
100
AcDbArc
 50
195.531588407
 51
204.7624440448
  0
LINE
  5
25C
100
AcDbEntity
  8
0
100
AcDbLine
 62
2
  6
CONTINUOUS
 10
13.5375908118
 20
2.5092733232
 11
13.5357868108
 21
2.5153423266
  0
ARC
  5
25D
100
AcDbEntity
  8
0
100
AcDbCircle
 62
2
  6
CONTINUOUS
 10
13.4974076135
 20
2.5055452462
 40
0.0396099176
100
AcDbArc
 50
14.3201081283
 51
22.4984722084
  0
ARC
  5
25E
100
AcDbEntity
  8
0
100
AcDbCircle
 62
2
  6
CONTINUOUS
 10
13.5201739219
 20
2.5145168728
 40
0.0151491919
100
AcDbArc
 50
24.098260853
 51
63.0369451818
  0
ARC
  5
25F
100
AcDbEntity
  8
0
100
AcDbCircle
 62
2
  6
CONTINUOUS
 10
13.5161192671
 20
2.5062372524
 40
0.0243676582
100
AcDbArc
 50
63.3666028271
 51
90.3937697637
  0
LINE
  5
260
100
AcDbEntity
  8
0
100
AcDbLine
 62
2
  6
CONTINUOUS
 10
13.5159517998
 20
2.5306043351
 11
13.4883447845
 21
2.5306043351
  0
ARC
  5
261
100
AcDbEntity
  8
0
100
AcDbCircle
 62
2
  6
CONTINUOUS
 10
13.4883447827
 20
2.5281293355
 40
0.0024749995
100
AcDbArc
 50
89.9999571957
 51
180.0000428043
  0
LINE
  5
262
100
AcDbEntity
  8
0
100
AcDbLine
 62
2
  6
CONTINUOUS
 10
13.4858697831
 20
2.5281293337
 11
13.4858697831
 21
2.5184303283
  0
ARC
  5
263
100
AcDbEntity
  8
0
100
AcDbCircle
 62
2
  6
CONTINUOUS
 10
13.4883447827
 20
2.5184303265
 40
0.0024749995
100
AcDbArc
 50
179.9999571957
 51
270.0000428043
  0
LINE
  5
264
100
AcDbEntity
  8
0
100
AcDbLine
 62
2
  6
CONTINUOUS
 10
13.4883447845
 20
2.5159553269
 11
13.5130037982
 21
2.5159553269
  0
ARC
  5
265
100
AcDbEntity
  8
0
100
AcDbCircle
 62
2
  6
CONTINUOUS
 10
13.5130038
 20
2.5134803274
 40
0.0024749995
100
AcDbArc
 50
359.9999571957
 51
90.0000428043
  0
LINE
  5
266
100
AcDbEntity
  8
0
100
AcDbLine
 62
2
  6
CONTINUOUS
 10
13.5154787995
 20
2.5134803256
 11
13.5154787995
 21
2.4937023146
  0
ARC
  5
267
100
AcDbEntity
  8
0
100
AcDbCircle
 62
2
  6
CONTINUOUS
 10
13.5130038
 20
2.4937023128
 40
0.0024749995
100
AcDbArc
 50
269.9999571957
 51
0.0000428043
  0
LINE
  5
268
100
AcDbEntity
  8
0
100
AcDbLine
 62
2
  6
CONTINUOUS
 10
13.5130037982
 20
2.4912273132
 11
13.3994327352
 21
2.4912273132
  0
ARC
  5
269
100
AcDbEntity
  8
0
100
AcDbCircle
 62
2
  6
CONTINUOUS
 10
13.3994327333
 20
2.4937023128
 40
0.0024749995
100
AcDbArc
 50
179.9999571957
 51
270.0000428043
  0
LINE
  5
26A
100
AcDbEntity
  8
0
100
AcDbLine
 62
2
  6
CONTINUOUS
 10
13.3969577338
 20
2.4937023146
 11
13.3969577338
 21
2.5135023256
  0
ARC
  5
26B
100
AcDbEntity
  8
0
100
AcDbCircle
 62
2
  6
CONTINUOUS
 10
13.3994327333
 20
2.5135023274
 40
0.0024749995
100
AcDbArc
 50
89.9999571957
 51
180.0000428043
  0
LINE
  5
26C
100
AcDbEntity
  8
0
100
AcDbLine
 62
2
  6
CONTINUOUS
 10
13.3994327352
 20
2.515977327
 11
13.4221787478
 21
2.515977327
  0
ARC
  5
26D
100
AcDbEntity
  8
0
100
AcDbCircle
 62
2
  6
CONTINUOUS
 10
13.4221787497
 20
2.5184523265
 40
0.0024749995
100
AcDbArc
 50
269.9999571957
 51
0.0000428042
  0
LINE
  5
26E
100
AcDbEntity
  8
0
100
AcDbLine
 62
2
  6
CONTINUOUS
 10
13.4246537492
 20
2.5184523283
 11
13.4246537492
 21
2.564807354
  0
ARC
  5
26F
100
AcDbEntity
  8
0
100
AcDbCircle
 62
2
  6
CONTINUOUS
 10
13.4221787497
 20
2.5648073559
 40
0.0024749995
100
AcDbArc
 50
359.9999571957
 51
90.0000428043
  0
LINE
  5
270
100
AcDbEntity
  8
0
100
AcDbLine
 62
2
  6
CONTINUOUS
 10
13.4221787478
 20
2.5672823554
 11
13.3994327352
 21
2.5672823554
  0
ARC
  5
271
100
AcDbEntity
  8
0
100
AcDbCircle
 62
2
  6
CONTINUOUS
 10
13.3994327333
 20
2.5697573549
 40
0.0024749995
100
AcDbArc
 50
179.9999571957
 51
270.0000428043
  0
LINE
  5
272
100
AcDbEntity
  8
0
100
AcDbLine
 62
2
  6
CONTINUOUS
 10
13.3969577338
 20
2.5697573568
 11
13.3969577338
 21
2.5895573678
  0
ARC
  5
273
100
AcDbEntity
  8
0
100
AcDbCircle
 62
2
  6
CONTINUOUS
 10
13.3994327333
 20
2.5895573696
 40
0.0024749995
100
AcDbArc
 50
89.9999571957
 51
180.0000428043
  0
LINE
  5
274
100
AcDbEntity
  8
0
100
AcDbLine
 62
2
  6
CONTINUOUS
 10
13.3994327352
 20
2.5920323691
 11
13.5490138181
 21
2.5920323691
  0
ARC
  5
275
100
AcDbEntity
  8
0
100
AcDbCircle
 62
2
  6
CONTINUOUS
 10
13.5463505148
 20
2.4094934586
 40
0.1825583387
100
AcDbArc
 50
79.8618509324
 51
89.1640948679
  0
ARC
  5
276
100
AcDbEntity
  8
0
100
AcDbCircle
 62
2
  6
CONTINUOUS
 10
13.5726548052
 20
2.5503169747
 40
0.039319019
100
AcDbArc
 50
59.1202086415
 51
81.4730239328
  0
ARC
  5
277
100
AcDbEntity
  8
0
100
AcDbCircle
 62
2
  6
CONTINUOUS
 10
13.5783142014
 20
2.5566516438
 40
0.0310192946
100
AcDbArc
 50
34.7540871
 51
62.0879016178
  0
ARC
  5
278
100
AcDbEntity
  8
0
100
AcDbCircle
 62
2
  6
CONTINUOUS
 10
13.5900029525
 20
2.565201245
 40
0.0165459396
100
AcDbArc
 50
1.548452892
 51
33.5033152417
  0
ARC
  5
279
100
AcDbEntity
  8
0
100
AcDbCircle
 62
2
  6
CONTINUOUS
 10
13.5932995477
 20
2.5653696972
 40
0.0132462337
100
AcDbArc
 50
331.1510006998
 51
1.205404301
  0
ARC
  5
27A
100
AcDbEntity
  8
0
100
AcDbCircle
 62
2
  6
CONTINUOUS
 10
13.5822888914
 20
2.5720482849
 40
0.0261183659
100
AcDbArc
 50
305.6373831893
 51
329.9727629745
  0
ARC
  5
27B
100
AcDbEntity
  8
0
100
AcDbCircle
 62
2
  6
CONTINUOUS
 10
13.5519569538
 20
2.6152551345
 40
0.0789082104
100
AcDbArc
 50
292.906155071
 51
305.2574666259
  0
ARC
  5
27C
100
AcDbEntity
  8
0
100
AcDbCircle
 62
2
  6
CONTINUOUS
 10
13.5282557878
 20
2.4386010294
 40
0.117346916
100
AcDbArc
 50
58.614769177
 51
62.3737227606
  0
ARC
  5
27D
100
AcDbEntity
  8
0
100
AcDbCircle
 62
2
  6
CONTINUOUS
 10
13.5761387404
 20
2.5167282896
 40
0.0257145923
100
AcDbArc
 50
39.3804255939
 51
59.0361096173
  0
ARC
  5
27E
100
AcDbEntity
  8
0
100
AcDbCircle
 62
2
  6
CONTINUOUS
 10
13.5750183849
 20
2.5166552064
 40
0.0266349791
100
AcDbArc
 50
20.3630922153
 51
37.9727053099
  0
ARC
  5
27F
100
AcDbEntity
  8
0
100
AcDbCircle
 62
2
  6
CONTINUOUS
 10
13.5571178432
 20
2.509473798
 40
0.0459185159
100
AcDbArc
 50
15.6740290068
 51
20.9917271228
  0
ARC
  5
280
100
AcDbEntity
  8
0
100
AcDbCircle
 62
2
  6
CONTINUOUS
 10
13.6156881783
 20
2.525116781
 40
0.0147197649
100
AcDbArc
 50
192.7054516565
 51
206.0594861022
  0
ARC
  5
281
100
AcDbEntity
  8
0
100
AcDbCircle
 62
2
  6
CONTINUOUS
 10
13.6071938412
 20
2.5209082945
 40
0.0052403997
100
AcDbArc
 50
205.5232099488
 51
227.5054868079
  0
ARC
  5
282
100
AcDbEntity
  8
0
100
AcDbCircle
 62
2
  6
CONTINUOUS
 10
13.6054655419
 20
2.5190929218
 40
0.0027347709
100
AcDbArc
 50
228.5117626737
 51
266.1485845754
  0
LINE
  5
283
100
AcDbEntity
  8
0
100
AcDbLine
 62
2
  6
CONTINUOUS
 10
13.6052818493
 20
2.5163643272
 11
13.60639085
 21
2.5163643272
  0
ARC
  5
284
100
AcDbEntity
  8
0
100
AcDbCircle
 62
2
  6
CONTINUOUS
 10
13.6063292954
 20
2.5296129864
 40
0.0132488022
100
AcDbArc
 50
270.266200055
 51
281.2404888597
  0
ARC
  5
285
100
AcDbEntity
  8
0
100
AcDbCircle
 62
2
  6
CONTINUOUS
 10
13.6075235364
 20
2.5238762928
 40
0.0073895522
100
AcDbArc
 50
280.8288201977
 51
305.0837508495
  0
ARC
  5
286
100
AcDbEntity
  8
0
100
AcDbCircle
 62
2
  6
CONTINUOUS
 10
13.607924718
 20
2.5230254464
 40
0.0064647042
100
AcDbArc
 50
306.5086174083
 51
340.2162360092
  0
ARC
  5
287
100
AcDbEntity
  8
0
100
AcDbCircle
 62
2
  6
CONTINUOUS
 10
13.6027235414
 20
2.524769508
 40
0.0119498009
100
AcDbArc
 50
340.7883861657
 51
1.1691452593
  0
LINE
  5
288
100
AcDbEntity
  8
0
100
AcDbLine
 62
2
  6
CONTINUOUS
 10
13.6146708546
 20
2.525013332
 11
13.6146708546
 21
2.5276393334
  0
ARC
  5
289
100
AcDbEntity
  8
0
100
AcDbCircle
 62
2
  6
CONTINUOUS
 10
13.6171458541
 20
2.5276393353
 40
0.0024749995
100
AcDbArc
 50
89.9999571957
 51
180.0000428043
  0
LINE
  5
28A
100
AcDbEntity
  8
0
100
AcDbLine
 62
2
  6
CONTINUOUS
 10
13.6171458559
 20
2.5301143348
 11
13.6292558626
 21
2.5301143348
  0
ARC
  5
28B
100
AcDbEntity
  8
0
100
AcDbCircle
 62
2
  6
CONTINUOUS
 10
13.6292558645
 20
2.5276393353
 40
0.0024749995
100
AcDbArc
 50
359.9999571957
 51
90.0000428043
  0
LINE
  5
28C
100
AcDbEntity
  8
0
100
AcDbLine
 62
2
  6
CONTINUOUS
 10
13.631730864
 20
2.5276393334
 11
13.631730864
 21
2.516087327
  0
ARC
  5
28D
100
AcDbEntity
  8
0
100
AcDbCircle
 62
2
  6
CONTINUOUS
 10
13.6141751675
 20
2.5161916447
 40
0.0175560065
100
AcDbArc
 50
332.2279060967
 51
359.6595469939
  0
ARC
  5
28E
100
AcDbEntity
  8
0
100
AcDbCircle
 62
2
  6
CONTINUOUS
 10
13.6048681567
 20
2.5210861501
 40
0.0280715479
100
AcDbArc
 50
308.5071794988
 51
332.2400656899
  0
ARC
  5
28F
100
AcDbEntity
  8
0
100
AcDbCircle
 62
2
  6
CONTINUOUS
 10
13.5978759713
 20
2.5286873679
 40
0.0383802683
100
AcDbArc
 50
288.7656836787
 51
309.6104317088
  0
ARC
  5
290
100
AcDbEntity
  8
0
100
AcDbCircle
 62
2
  6
CONTINUOUS
 10
13.6036139387
 20
2.5111006186
 40
0.0198837666
100
AcDbArc
 50
271.8586572978
 51
289.4131338543
  0
LINE
  5
291
100
AcDbEntity
  8
0
100
AcDbLine
 62
2
  6
CONTINUOUS
 10
13.6042588488
 20
2.4912273132
 11
13.5568948225
 21
2.4912273132
  0
ARC
  5
292
100
AcDbEntity
  8
0
100
AcDbCircle
 62
2
  6
CONTINUOUS
 10
13.5577001432
 20
2.5085494649
 40
0.0173408616
100
AcDbArc
 50
232.4713476722
 51
267.338189944
  0
ARC
  5
293
100
AcDbEntity
  8
0
100
AcDbCircle
 62
2
  6
CONTINUOUS
 10
13.5607987082
 20
2.5143997688
 40
0.0238935861
100
AcDbArc
 50
209.8247607259
 51
235.1255079367
  0
ARC
  5
294
100
AcDbEntity
  8
0
100
AcDbCircle
 62
2
  6
CONTINUOUS
 10
13.5295131508
 20
2.5629115009
 40
0.0110815393
100
AcDbArc
 50
306.758405961
 51
320.4502234234
  0
ARC
  5
295
100
AcDbEntity
  8
0
100
AcDbCircle
 62
2
  6
CONTINUOUS
 10
13.5238839599
 20
2.5706523294
 40
0.0206523367
100
AcDbArc
 50
289.6883413472
 51
306.4184925496
  0
ARC
  5
296
100
AcDbEntity
  8
0
100
AcDbCircle
 62
2
  6
CONTINUOUS
 10
13.5219564542
 20
2.5750459767
 40
0.0254407115
100
AcDbArc
 50
270.7327484175
 51
290.441894219
  0
LINE
  5
297
100
AcDbEntity
  8
0
100
AcDbLine
 62
2
  6
CONTINUOUS
 10
13.5222818033
 20
2.5496073456
 11
13.4883447845
 21
2.5496073456
  0
ARC
  5
298
100
AcDbEntity
  8
0
100
AcDbCircle
 62
2
  6
CONTINUOUS
 10
13.4883447827
 20
2.5520823451
 40
0.0024749995
100
AcDbArc
 50
179.9999571957
 51
270.0000428043
  0
LINE
  5
299
100
AcDbEntity
  8
0
100
AcDbLine
 62
2
  6
CONTINUOUS
 10
13.4858697831
 20
2.552082347
 11
13.4858697831
 21
2.564807354
  0
ARC
  5
29A
100
AcDbEntity
  8
0
100
AcDbCircle
 62
2
  6
CONTINUOUS
 10
13.4883447827
 20
2.5648073559
 40
0.0024749995
100
AcDbArc
 50
89.9999571957
 51
180.0000428043
  0
LINE
  5
29B
100
AcDbEntity
  8
0
100
AcDbLine
 62
2
  6
CONTINUOUS
 10
13.4883447845
 20
2.5672823554
 11
13.5251458049
 21
2.5672823554
  0
ARC
  5
29C
100
AcDbEntity
  8
0
100
AcDbCircle
 62
2
  6
CONTINUOUS
 10
13.5236009174
 20
2.5388278764
 40
0.0284963867
100
AcDbArc
 50
70.3834917948
 51
86.8922743861
  0
ARC
  5
29D
100
AcDbEntity
  8
0
100
AcDbCircle
 62
2
  6
CONTINUOUS
 10
13.5284605274
 20
2.5518696094
 40
0.0145814632
100
AcDbArc
 50
54.6746025112
 51
71.1660573124
  0
ARC
  5
29E
100
AcDbEntity
  8
0
100
AcDbCircle
 62
2
  6
CONTINUOUS
 10
13.5335900184
 20
2.5587235346
 40
0.0060275915
100
AcDbArc
 50
20.9055592135
 51
56.7851676243
  0
ARC
  5
29F
100
AcDbEntity
  8
0
100
AcDbCircle
 62
2
  6
CONTINUOUS
 10
13.5348905773
 20
2.5593838168
 40
0.0045795888
100
AcDbArc
 50
355.6235353944
 51
18.9942678268
  0
ARC
  5
2A0
100
AcDbEntity
  8
0
100
AcDbCircle
 62
2
  6
CONTINUOUS
 10
13.533683767
 20
2.559677593
 40
0.0058087709
100
AcDbArc
 50
318.8515287446
 51
353.6422345323
  0
LINE
  5
2A1
100
AcDbEntity
  8
0
100
AcDbLine
 62
2
  6
CONTINUOUS
 10
12.672340332
 20
2.5920323691
 11
12.7727983877
 21
2.5920323691
  0
ARC
  5
2A2
100
AcDbEntity
  8
0
100
AcDbCircle
 62
2
  6
CONTINUOUS
 10
12.7727985224
 20
2.5895582013
 40
0.0024741678
100
AcDbArc
 50
46.3477981899
 51
90.0031206038
  0
LINE
  5
2A3
100
AcDbEntity
  8
0
100
AcDbLine
 62
2
  6
CONTINUOUS
 10
12.7745063886
 20
2.5913483688
 11
12.8345394219
 21
2.534068337
  0
ARC
  5
2A4
100
AcDbEntity
  8
0
100
AcDbCircle
 62
2
  6
CONTINUOUS
 10
12.8362481229
 20
2.5358592748
 40
0.0024753014
100
AcDbArc
 50
226.3461263059
 51
0.0014637321
  0
LINE
  5
2A5
100
AcDbEntity
  8
0
100
AcDbLine
 62
2
  6
CONTINUOUS
 10
12.8387234242
 20
2.535859338
 11
12.8387234242
 21
2.564807354
  0
ARC
  5
2A6
100
AcDbEntity
  8
0
100
AcDbCircle
 62
2
  6
CONTINUOUS
 10
12.8362484247
 20
2.5648073559
 40
0.0024749995
100
AcDbArc
 50
359.9999571957
 51
90.0000428043
  0
LINE
  5
2A7
100
AcDbEntity
  8
0
100
AcDbLine
 62
2
  6
CONTINUOUS
 10
12.8362484229
 20
2.5672823554
 11
12.8174724125
 21
2.5672823554
  0
ARC
  5
2A8
100
AcDbEntity
  8
0
100
AcDbCircle
 62
2
  6
CONTINUOUS
 10
12.8174724106
 20
2.5697573549
 40
0.0024749995
100
AcDbArc
 50
179.9999571957
 51
270.0000428043
  0
LINE
  5
2A9
100
AcDbEntity
  8
0
100
AcDbLine
 62
2
  6
CONTINUOUS
 10
12.8149974111
 20
2.5697573568
 11
12.8149974111
 21
2.5895573678
  0
ARC
  5
2AA
100
AcDbEntity
  8
0
100
AcDbCircle
 62
2
  6
CONTINUOUS
 10
12.8174724106
 20
2.5895573696
 40
0.0024749995
100
AcDbArc
 50
89.9999571957
 51
180.0000428043
  0
LINE
  5
2AB
100
AcDbEntity
  8
0
100
AcDbLine
 62
2
  6
CONTINUOUS
 10
12.8174724125
 20
2.5920323691
 11
12.8914734535
 21
2.5920323691
  0
ARC
  5
2AC
100
AcDbEntity
  8
0
100
AcDbCircle
 62
2
  6
CONTINUOUS
 10
12.8914734553
 20
2.5895573696
 40
0.0024749995
100
AcDbArc
 50
359.9999571957
 51
90.0000428043
  0
LINE
  5
2AD
100
AcDbEntity
  8
0
100
AcDbLine
 62
2
  6
CONTINUOUS
 10
12.8939484549
 20
2.5895573678
 11
12.8939484549
 21
2.5697573568
  0
ARC
  5
2AE
100
AcDbEntity
  8
0
100
AcDbCircle
 62
2
  6
CONTINUOUS
 10
12.8914734553
 20
2.5697573549
 40
0.0024749995
100
AcDbArc
 50
269.9999571957
 51
0.0000428043
  0
LINE
  5
2AF
100
AcDbEntity
  8
0
100
AcDbLine
 62
2
  6
CONTINUOUS
 10
12.8914734535
 20
2.5672823554
 11
12.8735404436
 21
2.5672823554
  0
ARC
  5
2B0
100
AcDbEntity
  8
0
100
AcDbCircle
 62
2
  6
CONTINUOUS
 10
12.8735404417
 20
2.5648073559
 40
0.0024749995
100
AcDbArc
 50
89.9999571957
 51
180.0000428043
  0
LINE
  5
2B1
100
AcDbEntity
  8
0
100
AcDbLine
 62
2
  6
CONTINUOUS
 10
12.8710654422
 20
2.564807354
 11
12.8710654422
 21
2.4937023146
  0
ARC
  5
2B2
100
AcDbEntity
  8
0
100
AcDbCircle
 62
2
  6
CONTINUOUS
 10
12.8685904427
 20
2.4937023128
 40
0.0024749995
100
AcDbArc
 50
269.9999571957
 51
0.0000428043
  0
LINE
  5
2B3
100
AcDbEntity
  8
0
100
AcDbLine
 62
2
  6
CONTINUOUS
 10
12.8685904408
 20
2.4912273132
 11
12.7943853997
 21
2.4912273132
  0
ARC
  5
2B4
100
AcDbEntity
  8
0
100
AcDbCircle
 62
2
  6
CONTINUOUS
 10
12.7943847649
 20
2.4937027294
 40
0.0024754162
100
AcDbArc
 50
226.3593695813
 51
270.0146919953
  0
LINE
  5
2B5
100
AcDbEntity
  8
0
100
AcDbLine
 62
2
  6
CONTINUOUS
 10
12.7926763987
 20
2.4919113136
 11
12.7293963636
 21
2.5522893471
  0
ARC
  5
2B6
100
AcDbEntity
  8
0
100
AcDbCircle
 62
2
  6
CONTINUOUS
 10
12.7276876627
 20
2.5504984093
 40
0.0024753014
100
AcDbArc
 50
46.3461263059
 51
180.0014637321
  0
LINE
  5
2B7
100
AcDbEntity
  8
0
100
AcDbLine
 62
2
  6
CONTINUOUS
 10
12.7252123613
 20
2.5504983461
 11
12.7252123613
 21
2.5184523283
  0
ARC
  5
2B8
100
AcDbEntity
  8
0
100
AcDbCircle
 62
2
  6
CONTINUOUS
 10
12.7276873608
 20
2.5184523265
 40
0.0024749995
100
AcDbArc
 50
179.9999571957
 51
270.0000428043
  0
LINE
  5
2B9
100
AcDbEntity
  8
0
100
AcDbLine
 62
2
  6
CONTINUOUS
 10
12.7276873627
 20
2.515977327
 11
12.7480043739
 21
2.515977327
  0
ARC
  5
2BA
100
AcDbEntity
  8
0
100
AcDbCircle
 62
2
  6
CONTINUOUS
 10
12.7480043758
 20
2.5135023274
 40
0.0024749995
100
AcDbArc
 50
359.9999571957
 51
90.0000428043
  0
LINE
  5
2BB
100
AcDbEntity
  8
0
100
AcDbLine
 62
2
  6
CONTINUOUS
 10
12.7504793753
 20
2.5135023256
 11
12.7504793753
 21
2.4937023146
  0
ARC
  5
2BC
100
AcDbEntity
  8
0
100
AcDbCircle
 62
2
  6
CONTINUOUS
 10
12.7480043758
 20
2.4937023128
 40
0.0024749995
100
AcDbArc
 50
269.9999571957
 51
0.0000428043
  0
LINE
  5
2BD
100
AcDbEntity
  8
0
100
AcDbLine
 62
2
  6
CONTINUOUS
 10
12.7480043739
 20
2.4912273132
 11
12.672340332
 21
2.4912273132
  0
ARC
  5
2BE
100
AcDbEntity
  8
0
100
AcDbCircle
 62
2
  6
CONTINUOUS
 10
12.6723403301
 20
2.4937023128
 40
0.0024749995
100
AcDbArc
 50
179.9999571957
 51
270.0000428043
  0
LINE
  5
2BF
100
AcDbEntity
  8
0
100
AcDbLine
 62
2
  6
CONTINUOUS
 10
12.6698653306
 20
2.4937023146
 11
12.6698653306
 21
2.5135023256
  0
ARC
  5
2C0
100
AcDbEntity
  8
0
100
AcDbCircle
 62
2
  6
CONTINUOUS
 10
12.6723403301
 20
2.5135023274
 40
0.0024749995
100
AcDbArc
 50
89.9999571957
 51
180.0000428043
  0
LINE
  5
2C1
100
AcDbEntity
  8
0
100
AcDbLine
 62
2
  6
CONTINUOUS
 10
12.672340332
 20
2.515977327
 11
12.6909873423
 21
2.515977327
  0
ARC
  5
2C2
100
AcDbEntity
  8
0
100
AcDbCircle
 62
2
  6
CONTINUOUS
 10
12.6909873442
 20
2.5184523265
 40
0.0024749995
100
AcDbArc
 50
269.9999571957
 51
0.0000428043
  0
LINE
  5
2C3
100
AcDbEntity
  8
0
100
AcDbLine
 62
2
  6
CONTINUOUS
 10
12.6934623437
 20
2.5184523283
 11
12.6934623437
 21
2.564807354
  0
ARC
  5
2C4
100
AcDbEntity
  8
0
100
AcDbCircle
 62
2
  6
CONTINUOUS
 10
12.6909873442
 20
2.5648073559
 40
0.0024749995
100
AcDbArc
 50
359.9999571957
 51
90.0000428043
  0
LINE
  5
2C5
100
AcDbEntity
  8
0
100
AcDbLine
 62
2
  6
CONTINUOUS
 10
12.6909873423
 20
2.5672823554
 11
12.672340332
 21
2.5672823554
  0
ARC
  5
2C6
100
AcDbEntity
  8
0
100
AcDbCircle
 62
2
  6
CONTINUOUS
 10
12.6723403301
 20
2.5697573549
 40
0.0024749995
100
AcDbArc
 50
179.9999571957
 51
270.0000428043
  0
LINE
  5
2C7
100
AcDbEntity
  8
0
100
AcDbLine
 62
2
  6
CONTINUOUS
 10
12.6698653306
 20
2.5697573568
 11
12.6698653306
 21
2.5895573678
  0
ARC
  5
2C8
100
AcDbEntity
  8
0
100
AcDbCircle
 62
2
  6
CONTINUOUS
 10
12.6723403301
 20
2.5895573696
 40
0.0024749995
100
AcDbArc
 50
89.9999571957
 51
180.0000428043
  0
LINE
  5
2C9
100
AcDbEntity
  8
0
100
AcDbLine
 62
2
  6
CONTINUOUS
 10
12.5246402501
 20
2.5655893545
 11
12.5175232461
 21
2.5543723483
  0
ARC
  5
2CA
100
AcDbEntity
  8
0
100
AcDbCircle
 62
2
  6
CONTINUOUS
 10
12.519613138
 20
2.5530463862
 40
0.0024750401
100
AcDbArc
 50
147.6063258012
 51
270.0025305754
  0
LINE
  5
2CB
100
AcDbEntity
  8
0
100
AcDbLine
 62
2
  6
CONTINUOUS
 10
12.5196132473
 20
2.5505713461
 11
12.5401702587
 21
2.5505713461
  0
ARC
  5
2CC
100
AcDbEntity
  8
0
100
AcDbCircle
 62
2
  6
CONTINUOUS
 10
12.5401702375
 20
2.5530465533
 40
0.0024752071
100
AcDbArc
 50
270.0004896793
 51
32.9089806818
  0
LINE
  5
2CD
100
AcDbEntity
  8
0
100
AcDbLine
 62
2
  6
CONTINUOUS
 10
12.5422482598
 20
2.5543913483
 11
12.5349892558
 21
2.5656073545
  0
ARC
  5
2CE
100
AcDbEntity
  8
0
100
AcDbCircle
 62
2
  6
CONTINUOUS
 10
12.532910715
 20
2.564262895
 40
0.0024754602
100
AcDbArc
 50
32.8959418573
 51
89.9875097202
  0
LINE
  5
2CF
100
AcDbEntity
  8
0
100
AcDbLine
 62
2
  6
CONTINUOUS
 10
12.5329112547
 20
2.5667383551
 11
12.5267302512
 21
2.5667383551
  0
ARC
  5
2D0
100
AcDbEntity
  8
0
100
AcDbCircle
 62
2
  6
CONTINUOUS
 10
12.5267301809
 20
2.5642631548
 40
0.0024752003
100
AcDbArc
 50
89.998372645
 51
147.602165307
  0
LINE
  5
2D1
100
AcDbEntity
  8
0
100
AcDbLine
 62
2
  6
CONTINUOUS
 10
12.548053263
 20
2.5284903339
 11
12.5536792662
 21
2.5197973291
  0
ARC
  5
2D2
100
AcDbEntity
  8
0
100
AcDbCircle
 62
2
  6
CONTINUOUS
 10
12.5516012439
 20
2.5184525341
 40
0.0024752071
100
AcDbArc
 50
270.0004896794
 51
32.9089806818
  0
LINE
  5
2D3
100
AcDbEntity
  8
0
100
AcDbLine
 62
2
  6
CONTINUOUS
 10
12.551601265
 20
2.515977327
 11
12.537150257
 21
2.515977327
  0
ARC
  5
2D4
100
AcDbEntity
  8
0
100
AcDbCircle
 62
2
  6
CONTINUOUS
 10
12.5371502552
 20
2.5135023274
 40
0.0024749995
100
AcDbArc
 50
89.9999571957
 51
180.0000428043
  0
LINE
  5
2D5
100
AcDbEntity
  8
0
100
AcDbLine
 62
2
  6
CONTINUOUS
 10
12.5346752556
 20
2.5135023256
 11
12.5346752556
 21
2.4937023146
  0
ARC
  5
2D6
100
AcDbEntity
  8
0
100
AcDbCircle
 62
2
  6
CONTINUOUS
 10
12.5371502552
 20
2.4937023128
 40
0.0024749995
100
AcDbArc
 50
179.9999571957
 51
270.0000428043
  0
LINE
  5
2D7
100
AcDbEntity
  8
0
100
AcDbLine
 62
2
  6
CONTINUOUS
 10
12.537150257
 20
2.4912273132
 11
12.6424313154
 21
2.4912273132
  0
ARC
  5
2D8
100
AcDbEntity
  8
0
100
AcDbCircle
 62
2
  6
CONTINUOUS
 10
12.6424313172
 20
2.4937023128
 40
0.0024749995
100
AcDbArc
 50
269.9999571957
 51
0.0000428043
  0
LINE
  5
2D9
100
AcDbEntity
  8
0
100
AcDbLine
 62
2
  6
CONTINUOUS
 10
12.6449063168
 20
2.4937023146
 11
12.6449063168
 21
2.5135023256
  0
ARC
  5
2DA
100
AcDbEntity
  8
0
100
AcDbCircle
 62
2
  6
CONTINUOUS
 10
12.6424313172
 20
2.5135023274
 40
0.0024749995
100
AcDbArc
 50
359.9999571957
 51
90.0000428043
  0
LINE
  5
2DB
100
AcDbEntity
  8
0
100
AcDbLine
 62
2
  6
CONTINUOUS
 10
12.6424313154
 20
2.515977327
 11
12.6224153043
 21
2.515977327
  0
ARC
  5
2DC
100
AcDbEntity
  8
0
100
AcDbCircle
 62
2
  6
CONTINUOUS
 10
12.6224154248
 20
2.518451368
 40
0.002474041
100
AcDbArc
 50
212.9056413127
 51
269.9972091756
  0
LINE
  5
2DD
100
AcDbEntity
  8
0
100
AcDbLine
 62
2
  6
CONTINUOUS
 10
12.6203383031
 20
2.5171073276
 11
12.5725822767
 21
2.5909023685
  0
ARC
  5
2DE
100
AcDbEntity
  8
0
100
AcDbCircle
 62
2
  6
CONTINUOUS
 10
12.570504655
 20
2.589557409
 40
0.0024749602
100
AcDbArc
 50
32.9172174468
 51
90.0087853097
  0
LINE
  5
2DF
100
AcDbEntity
  8
0
100
AcDbLine
 62
2
  6
CONTINUOUS
 10
12.5705042755
 20
2.5920323691
 11
12.5133292438
 21
2.5920323691
  0
ARC
  5
2E0
100
AcDbEntity
  8
0
100
AcDbCircle
 62
2
  6
CONTINUOUS
 10
12.5133291735
 20
2.5895571688
 40
0.0024752003
100
AcDbArc
 50
89.9983726451
 51
147.602165307
  0
LINE
  5
2E1
100
AcDbEntity
  8
0
100
AcDbLine
 62
2
  6
CONTINUOUS
 10
12.5112392426
 20
2.5908833685
 11
12.4644392167
 21
2.5171263276
  0
ARC
  5
2E2
100
AcDbEntity
  8
0
100
AcDbCircle
 62
2
  6
CONTINUOUS
 10
12.4623492858
 20
2.5184525273
 40
0.0024752003
100
AcDbArc
 50
269.9983726451
 51
327.602165307
  0
LINE
  5
2E3
100
AcDbEntity
  8
0
100
AcDbLine
 62
2
  6
CONTINUOUS
 10
12.4623492155
 20
2.515977327
 11
12.4394882028
 21
2.515977327
  0
ARC
  5
2E4
100
AcDbEntity
  8
0
100
AcDbCircle
 62
2
  6
CONTINUOUS
 10
12.439488201
 20
2.5135023274
 40
0.0024749995
100
AcDbArc
 50
89.9999571957
 51
180.0000428043
  0
LINE
  5
2E5
100
AcDbEntity
  8
0
100
AcDbLine
 62
2
  6
CONTINUOUS
 10
12.4370132015
 20
2.5135023256
 11
12.4370132015
 21
2.4937023146
  0
ARC
  5
2E6
100
AcDbEntity
  8
0
100
AcDbCircle
 62
2
  6
CONTINUOUS
 10
12.439488201
 20
2.4937023128
 40
0.0024749995
100
AcDbArc
 50
179.9999571957
 51
270.0000428043
  0
LINE
  5
2E7
100
AcDbEntity
  8
0
100
AcDbLine
 62
2
  6
CONTINUOUS
 10
12.4394882028
 20
2.4912273132
 11
12.5168642458
 21
2.4912273132
  0
ARC
  5
2E8
100
AcDbEntity
  8
0
100
AcDbCircle
 62
2
  6
CONTINUOUS
 10
12.5168642476
 20
2.4937023128
 40
0.0024749995
100
AcDbArc
 50
269.9999571957
 51
0.0000428043
  0
LINE
  5
2E9
100
AcDbEntity
  8
0
100
AcDbLine
 62
2
  6
CONTINUOUS
 10
12.5193392471
 20
2.4937023146
 11
12.5193392471
 21
2.5135023256
  0
ARC
  5
2EA
100
AcDbEntity
  8
0
100
AcDbCircle
 62
2
  6
CONTINUOUS
 10
12.5168642476
 20
2.5135023274
 40
0.0024749995
100
AcDbArc
 50
359.9999571957
 51
90.0000428043
  0
LINE
  5
2EB
100
AcDbEntity
  8
0
100
AcDbLine
 62
2
  6
CONTINUOUS
 10
12.5168642458
 20
2.515977327
 11
12.5055812395
 21
2.515977327
  0
ARC
  5
2EC
100
AcDbEntity
  8
0
100
AcDbCircle
 62
2
  6
CONTINUOUS
 10
12.5055811302
 20
2.518452367
 40
0.0024750401
100
AcDbArc
 50
147.6063258011
 51
270.0025305754
  0
LINE
  5
2ED
100
AcDbEntity
  8
0
100
AcDbLine
 62
2
  6
CONTINUOUS
 10
12.5034912383
 20
2.5197783291
 11
12.5090072414
 21
2.5284723339
  0
ARC
  5
2EE
100
AcDbEntity
  8
0
100
AcDbCircle
 62
2
  6
CONTINUOUS
 10
12.5110971723
 20
2.5271461342
 40
0.0024752003
100
AcDbArc
 50
89.998372645
 51
147.602165307
  0
LINE
  5
2EF
100
AcDbEntity
  8
0
100
AcDbLine
 62
2
  6
CONTINUOUS
 10
12.5110972426
 20
2.5296213345
 11
12.5459752619
 21
2.5296213345
  0
ARC
  5
2F0
100
AcDbEntity
  8
0
100
AcDbCircle
 62
2
  6
CONTINUOUS
 10
12.5459747223
 20
2.5271458744
 40
0.0024754602
100
AcDbArc
 50
32.8959418573
 51
89.9875097202
  0
LINE
  5
2F1
100
AcDbEntity
  8
0
100
AcDbLine
 62
2
  6
CONTINUOUS
 10
12.9205934696
 20
2.5920323691
 11
13.0210515254
 21
2.5920323691
  0
ARC
  5
2F2
100
AcDbEntity
  8
0
100
AcDbCircle
 62
2
  6
CONTINUOUS
 10
13.0210516601
 20
2.5895582013
 40
0.0024741678
100
AcDbArc
 50
46.3477981899
 51
90.0031206038
  0
LINE
  5
2F3
100
AcDbEntity
  8
0
100
AcDbLine
 62
2
  6
CONTINUOUS
 10
13.0227595263
 20
2.5913483688
 11
13.0827925596
 21
2.534068337
  0
ARC
  5
2F4
100
AcDbEntity
  8
0
100
AcDbCircle
 62
2
  6
CONTINUOUS
 10
13.0845012605
 20
2.5358592748
 40
0.0024753014
100
AcDbArc
 50
226.3461263059
 51
0.0014637321
  0
LINE
  5
2F5
100
AcDbEntity
  8
0
100
AcDbLine
 62
2
  6
CONTINUOUS
 10
13.0869765619
 20
2.535859338
 11
13.0869765619
 21
2.564807354
  0
ARC
  5
2F6
100
AcDbEntity
  8
0
100
AcDbCircle
 62
2
  6
CONTINUOUS
 10
13.0845015624
 20
2.5648073559
 40
0.0024749995
100
AcDbArc
 50
359.9999571957
 51
90.0000428043
  0
LINE
  5
2F7
100
AcDbEntity
  8
0
100
AcDbLine
 62
2
  6
CONTINUOUS
 10
13.0845015605
 20
2.5672823554
 11
13.0657255501
 21
2.5672823554
  0
ARC
  5
2F8
100
AcDbEntity
  8
0
100
AcDbCircle
 62
2
  6
CONTINUOUS
 10
13.0657255483
 20
2.5697573549
 40
0.0024749995
100
AcDbArc
 50
179.9999571957
 51
270.0000428043
  0
LINE
  5
2F9
100
AcDbEntity
  8
0
100
AcDbLine
 62
2
  6
CONTINUOUS
 10
13.0632505488
 20
2.5697573568
 11
13.0632505488
 21
2.5895573678
  0
ARC
  5
2FA
100
AcDbEntity
  8
0
100
AcDbCircle
 62
2
  6
CONTINUOUS
 10
13.0657255483
 20
2.5895573696
 40
0.0024749995
100
AcDbArc
 50
89.9999571957
 51
180.0000428043
  0
LINE
  5
2FB
100
AcDbEntity
  8
0
100
AcDbLine
 62
2
  6
CONTINUOUS
 10
13.0657255501
 20
2.5920323691
 11
13.1397265912
 21
2.5920323691
  0
ARC
  5
2FC
100
AcDbEntity
  8
0
100
AcDbCircle
 62
2
  6
CONTINUOUS
 10
13.139726593
 20
2.5895573696
 40
0.0024749995
100
AcDbArc
 50
359.9999571957
 51
90.0000428043
  0
LINE
  5
2FD
100
AcDbEntity
  8
0
100
AcDbLine
 62
2
  6
CONTINUOUS
 10
13.1422015925
 20
2.5895573678
 11
13.1422015925
 21
2.5697573568
  0
ARC
  5
2FE
100
AcDbEntity
  8
0
100
AcDbCircle
 62
2
  6
CONTINUOUS
 10
13.139726593
 20
2.5697573549
 40
0.0024749995
100
AcDbArc
 50
269.9999571957
 51
0.0000428042
  0
LINE
  5
2FF
100
AcDbEntity
  8
0
100
AcDbLine
 62
2
  6
CONTINUOUS
 10
13.1397265912
 20
2.5672823554
 11
13.1217935812
 21
2.5672823554
  0
ARC
  5
300
100
AcDbEntity
  8
0
100
AcDbCircle
 62
2
  6
CONTINUOUS
 10
13.1217935794
 20
2.5648073559
 40
0.0024749995
100
AcDbArc
 50
89.9999571957
 51
180.0000428042
  0
LINE
  5
301
100
AcDbEntity
  8
0
100
AcDbLine
 62
2
  6
CONTINUOUS
 10
13.1193185799
 20
2.564807354
 11
13.1193185799
 21
2.4937023146
  0
ARC
  5
302
100
AcDbEntity
  8
0
100
AcDbCircle
 62
2
  6
CONTINUOUS
 10
13.1168435803
 20
2.4937023128
 40
0.0024749995
100
AcDbArc
 50
269.9999571957
 51
0.0000428043
  0
LINE
  5
303
100
AcDbEntity
  8
0
100
AcDbLine
 62
2
  6
CONTINUOUS
 10
13.1168435785
 20
2.4912273132
 11
13.0426375373
 21
2.4912273132
  0
ARC
  5
304
100
AcDbEntity
  8
0
100
AcDbCircle
 62
2
  6
CONTINUOUS
 10
13.0426374026
 20
2.493701481
 40
0.0024741678
100
AcDbArc
 50
226.3477981898
 51
270.0031206038
  0
LINE
  5
305
100
AcDbEntity
  8
0
100
AcDbLine
 62
2
  6
CONTINUOUS
 10
13.0409295364
 20
2.4919113136
 11
12.9776495013
 21
2.5522893471
  0
ARC
  5
306
100
AcDbEntity
  8
0
100
AcDbCircle
 62
2
  6
CONTINUOUS
 10
12.9759408003
 20
2.5504984093
 40
0.0024753014
100
AcDbArc
 50
46.3461263059
 51
180.0014637321
  0
LINE
  5
307
100
AcDbEntity
  8
0
100
AcDbLine
 62
2
  6
CONTINUOUS
 10
12.973465499
 20
2.5504983461
 11
12.973465499
 21
2.5184523283
  0
ARC
  5
308
100
AcDbEntity
  8
0
100
AcDbCircle
 62
2
  6
CONTINUOUS
 10
12.9759404985
 20
2.5184523265
 40
0.0024749995
100
AcDbArc
 50
179.9999571957
 51
270.0000428043
  0
LINE
  5
309
100
AcDbEntity
  8
0
100
AcDbLine
 62
2
  6
CONTINUOUS
 10
12.9759405003
 20
2.515977327
 11
12.9962575116
 21
2.515977327
  0
ARC
  5
30A
100
AcDbEntity
  8
0
100
AcDbCircle
 62
2
  6
CONTINUOUS
 10
12.9962575135
 20
2.5135023274
 40
0.0024749995
100
AcDbArc
 50
359.9999571957
 51
90.0000428043
  0
LINE
  5
30B
100
AcDbEntity
  8
0
100
AcDbLine
 62
2
  6
CONTINUOUS
 10
12.998732513
 20
2.5135023256
 11
12.998732513
 21
2.4937023146
  0
ARC
  5
30C
100
AcDbEntity
  8
0
100
AcDbCircle
 62
2
  6
CONTINUOUS
 10
12.9962575135
 20
2.4937023128
 40
0.0024749995
100
AcDbArc
 50
269.9999571957
 51
0.0000428043
  0
LINE
  5
30D
100
AcDbEntity
  8
0
100
AcDbLine
 62
2
  6
CONTINUOUS
 10
12.9962575116
 20
2.4912273132
 11
12.9205934696
 21
2.4912273132
  0
ARC
  5
30E
100
AcDbEntity
  8
0
100
AcDbCircle
 62
2
  6
CONTINUOUS
 10
12.9205934678
 20
2.4937023128
 40
0.0024749995
100
AcDbArc
 50
179.9999571957
 51
270.0000428043
  0
LINE
  5
30F
100
AcDbEntity
  8
0
100
AcDbLine
 62
2
  6
CONTINUOUS
 10
12.9181184683
 20
2.4937023146
 11
12.9181184683
 21
2.5135023256
  0
ARC
  5
310
100
AcDbEntity
  8
0
100
AcDbCircle
 62
2
  6
CONTINUOUS
 10
12.9205934678
 20
2.5135023274
 40
0.0024749995
100
AcDbArc
 50
89.9999571957
 51
180.0000428042
  0
LINE
  5
311
100
AcDbEntity
  8
0
100
AcDbLine
 62
2
  6
CONTINUOUS
 10
12.9205934696
 20
2.515977327
 11
12.93923948
 21
2.515977327
  0
ARC
  5
312
100
AcDbEntity
  8
0
100
AcDbCircle
 62
2
  6
CONTINUOUS
 10
12.9392394818
 20
2.5184523265
 40
0.0024749995
100
AcDbArc
 50
269.9999571957
 51
0.0000428043
  0
LINE
  5
313
100
AcDbEntity
  8
0
100
AcDbLine
 62
2
  6
CONTINUOUS
 10
12.9417144814
 20
2.5184523283
 11
12.9417144814
 21
2.564807354
  0
ARC
  5
314
100
AcDbEntity
  8
0
100
AcDbCircle
 62
2
  6
CONTINUOUS
 10
12.9392394818
 20
2.5648073559
 40
0.0024749995
100
AcDbArc
 50
359.9999571957
 51
90.0000428043
  0
LINE
  5
315
100
AcDbEntity
  8
0
100
AcDbLine
 62
2
  6
CONTINUOUS
 10
12.93923948
 20
2.5672823554
 11
12.9205934696
 21
2.5672823554
  0
ARC
  5
316
100
AcDbEntity
  8
0
100
AcDbCircle
 62
2
  6
CONTINUOUS
 10
12.9205934678
 20
2.5697573549
 40
0.0024749995
100
AcDbArc
 50
179.9999571957
 51
270.0000428043
  0
LINE
  5
317
100
AcDbEntity
  8
0
100
AcDbLine
 62
2
  6
CONTINUOUS
 10
12.9181184683
 20
2.5697573568
 11
12.9181184683
 21
2.5895573678
  0
ARC
  5
318
100
AcDbEntity
  8
0
100
AcDbCircle
 62
2
  6
CONTINUOUS
 10
12.9205934678
 20
2.5895573696
 40
0.0024749995
100
AcDbArc
 50
89.9999571957
 51
180.0000428042
  0
LINE
  5
319
100
AcDbEntity
  8
0
100
AcDbLine
 62
2
  6
CONTINUOUS
 10
13.2934226764
 20
2.5324773361
 11
13.2582556569
 21
2.5324773361
  0
ARC
  5
31A
100
AcDbEntity
  8
0
100
AcDbCircle
 62
2
  6
CONTINUOUS
 10
13.2582556551
 20
2.5300023366
 40
0.0024749995
100
AcDbArc
 50
89.9999571957
 51
180.0000428043
  0
LINE
  5
31B
100
AcDbEntity
  8
0
100
AcDbLine
 62
2
  6
CONTINUOUS
 10
13.2557806555
 20
2.5300023347
 11
13.2557806555
 21
2.5184523283
  0
ARC
  5
31C
100
AcDbEntity
  8
0
100
AcDbCircle
 62
2
  6
CONTINUOUS
 10
13.2582556551
 20
2.5184523265
 40
0.0024749995
100
AcDbArc
 50
179.9999571957
 51
270.0000428043
  0
LINE
  5
31D
100
AcDbEntity
  8
0
100
AcDbLine
 62
2
  6
CONTINUOUS
 10
13.2582556569
 20
2.515977327
 11
13.3232596929
 21
2.515977327
  0
ARC
  5
31E
100
AcDbEntity
  8
0
100
AcDbCircle
 62
2
  6
CONTINUOUS
 10
13.3232596948
 20
2.5184523265
 40
0.0024749995
100
AcDbArc
 50
269.9999571957
 51
0.0000428043
  0
LINE
  5
31F
100
AcDbEntity
  8
0
100
AcDbLine
 62
2
  6
CONTINUOUS
 10
13.3257346943
 20
2.5184523283
 11
13.3257346943
 21
2.5267023329
  0
ARC
  5
320
100
AcDbEntity
  8
0
100
AcDbCircle
 62
2
  6
CONTINUOUS
 10
13.3282096938
 20
2.5267023348
 40
0.0024749995
100
AcDbArc
 50
89.9999571957
 51
180.0000428043
  0
LINE
  5
321
100
AcDbEntity
  8
0
100
AcDbLine
 62
2
  6
CONTINUOUS
 10
13.3282096957
 20
2.5291773343
 11
13.3705287192
 21
2.5291773343
  0
ARC
  5
322
100
AcDbEntity
  8
0
100
AcDbCircle
 62
2
  6
CONTINUOUS
 10
13.370528721
 20
2.5267023348
 40
0.0024749995
100
AcDbArc
 50
359.9999571957
 51
90.0000428043
  0
LINE
  5
323
100
AcDbEntity
  8
0
100
AcDbLine
 62
2
  6
CONTINUOUS
 10
13.3730037205
 20
2.5267023329
 11
13.3730037205
 21
2.4937023146
  0
ARC
  5
324
100
AcDbEntity
  8
0
100
AcDbCircle
 62
2
  6
CONTINUOUS
 10
13.370528721
 20
2.4937023128
 40
0.0024749995
100
AcDbArc
 50
269.9999571957
 51
0.0000428043
  0
LINE
  5
325
100
AcDbEntity
  8
0
100
AcDbLine
 62
2
  6
CONTINUOUS
 10
13.3705287192
 20
2.4912273132
 11
13.1673166065
 21
2.4912273132
  0
ARC
  5
326
100
AcDbEntity
  8
0
100
AcDbCircle
 62
2
  6
CONTINUOUS
 10
13.1673166046
 20
2.4937023128
 40
0.0024749995
100
AcDbArc
 50
179.9999571957
 51
270.0000428043
  0
LINE
  5
327
100
AcDbEntity
  8
0
100
AcDbLine
 62
2
  6
CONTINUOUS
 10
13.1648416051
 20
2.4937023146
 11
13.1648416051
 21
2.5135023256
  0
ARC
  5
328
100
AcDbEntity
  8
0
100
AcDbCircle
 62
2
  6
CONTINUOUS
 10
13.1673166046
 20
2.5135023274
 40
0.0024749995
100
AcDbArc
 50
89.9999571957
 51
180.0000428043
  0
LINE
  5
329
100
AcDbEntity
  8
0
100
AcDbLine
 62
2
  6
CONTINUOUS
 10
13.1673166065
 20
2.515977327
 11
13.1912396197
 21
2.515977327
  0
ARC
  5
32A
100
AcDbEntity
  8
0
100
AcDbCircle
 62
2
  6
CONTINUOUS
 10
13.1912396216
 20
2.5184523265
 40
0.0024749995
100
AcDbArc
 50
269.9999571957
 51
0.0000428042
  0
LINE
  5
32B
100
AcDbEntity
  8
0
100
AcDbLine
 62
2
  6
CONTINUOUS
 10
13.1937146211
 20
2.5184523283
 11
13.1937146211
 21
2.564807354
  0
ARC
  5
32C
100
AcDbEntity
  8
0
100
AcDbCircle
 62
2
  6
CONTINUOUS
 10
13.1912396216
 20
2.5648073559
 40
0.0024749995
100
AcDbArc
 50
359.9999571957
 51
90.0000428043
  0
LINE
  5
32D
100
AcDbEntity
  8
0
100
AcDbLine
 62
2
  6
CONTINUOUS
 10
13.1912396197
 20
2.5672823554
 11
13.1673166065
 21
2.5672823554
  0
ARC
  5
32E
100
AcDbEntity
  8
0
100
AcDbCircle
 62
2
  6
CONTINUOUS
 10
13.1673166046
 20
2.5697573549
 40
0.0024749995
100
AcDbArc
 50
179.9999571957
 51
270.0000428043
  0
LINE
  5
32F
100
AcDbEntity
  8
0
100
AcDbLine
 62
2
  6
CONTINUOUS
 10
13.1648416051
 20
2.5697573568
 11
13.1648416051
 21
2.5895573678
  0
ARC
  5
330
100
AcDbEntity
  8
0
100
AcDbCircle
 62
2
  6
CONTINUOUS
 10
13.1673166046
 20
2.5895573696
 40
0.0024749995
100
AcDbArc
 50
89.9999571957
 51
180.0000428043
  0
LINE
  5
331
100
AcDbEntity
  8
0
100
AcDbLine
 62
2
  6
CONTINUOUS
 10
13.1673166065
 20
2.5920323691
 11
13.3691097184
 21
2.5920323691
  0
ARC
  5
332
100
AcDbEntity
  8
0
100
AcDbCircle
 62
2
  6
CONTINUOUS
 10
13.3691097202
 20
2.5895573696
 40
0.0024749995
100
AcDbArc
 50
359.9999571957
 51
90.0000428043
  0
LINE
  5
333
100
AcDbEntity
  8
0
100
AcDbLine
 62
2
  6
CONTINUOUS
 10
13.3715847197
 20
2.5895573678
 11
13.3715847197
 21
2.5565573495
  0
ARC
  5
334
100
AcDbEntity
  8
0
100
AcDbCircle
 62
2
  6
CONTINUOUS
 10
13.3691097202
 20
2.5565573476
 40
0.0024749995
100
AcDbArc
 50
269.9999571957
 51
0.0000428042
  0
LINE
  5
335
100
AcDbEntity
  8
0
100
AcDbLine
 62
2
  6
CONTINUOUS
 10
13.3691097184
 20
2.5540823481
 11
13.3272456952
 21
2.5540823481
  0
ARC
  5
336
100
AcDbEntity
  8
0
100
AcDbCircle
 62
2
  6
CONTINUOUS
 10
13.3272456933
 20
2.5565573476
 40
0.0024749995
100
AcDbArc
 50
179.9999571957
 51
270.0000428043
  0
LINE
  5
337
100
AcDbEntity
  8
0
100
AcDbLine
 62
2
  6
CONTINUOUS
 10
13.3247706938
 20
2.5565573495
 11
13.3247706938
 21
2.564807354
  0
ARC
  5
338
100
AcDbEntity
  8
0
100
AcDbCircle
 62
2
  6
CONTINUOUS
 10
13.3222956943
 20
2.5648073559
 40
0.0024749995
100
AcDbArc
 50
359.9999571957
 51
90.0000428043
  0
LINE
  5
339
100
AcDbEntity
  8
0
100
AcDbLine
 62
2
  6
CONTINUOUS
 10
13.3222956924
 20
2.5672823554
 11
13.2582556569
 21
2.5672823554
  0
ARC
  5
33A
100
AcDbEntity
  8
0
100
AcDbCircle
 62
2
  6
CONTINUOUS
 10
13.2582556551
 20
2.5648073559
 40
0.0024749995
100
AcDbArc
 50
89.9999571957
 51
180.0000428043
  0
LINE
  5
33B
100
AcDbEntity
  8
0
100
AcDbLine
 62
2
  6
CONTINUOUS
 10
13.2557806555
 20
2.564807354
 11
13.2557806555
 21
2.5532573476
  0
ARC
  5
33C
100
AcDbEntity
  8
0
100
AcDbCircle
 62
2
  6
CONTINUOUS
 10
13.2582556551
 20
2.5532573458
 40
0.0024749995
100
AcDbArc
 50
179.9999571957
 51
270.0000428043
  0
LINE
  5
33D
100
AcDbEntity
  8
0
100
AcDbLine
 62
2
  6
CONTINUOUS
 10
13.2582556569
 20
2.5507823463
 11
13.2934226764
 21
2.5507823463
  0
ARC
  5
33E
100
AcDbEntity
  8
0
100
AcDbCircle
 62
2
  6
CONTINUOUS
 10
13.2934226783
 20
2.5483073467
 40
0.0024749995
100
AcDbArc
 50
359.9999571957
 51
90.0000428043
  0
LINE
  5
33F
100
AcDbEntity
  8
0
100
AcDbLine
 62
2
  6
CONTINUOUS
 10
13.2958976778
 20
2.5483073449
 11
13.2958976778
 21
2.5349523375
  0
ARC
  5
340
100
AcDbEntity
  8
0
100
AcDbCircle
 62
2
  6
CONTINUOUS
 10
13.2934226783
 20
2.5349523356
 40
0.0024749995
100
AcDbArc
 50
269.9999571957
 51
0.0000428042
  0
LINE
  5
341
100
AcDbEntity
  8
0
100
AcDbLine
 62
2
  6
CONTINUOUS
 10
13.7286871589
 20
2.5350697372
 11
13.7286871589
 21
2.5456869438
  0
LINE
  5
342
100
AcDbEntity
  8
0
100
AcDbLine
 62
2
  6
CONTINUOUS
 10
13.7086871478
 20
2.5004302075
 11
13.7086871478
 21
2.5803264735
  0
LINE
  5
343
100
AcDbEntity
  8
0
100
AcDbLine
 62
2
  6
CONTINUOUS
 10
13.6886871368
 20
2.4843919416
 11
13.6886871368
 21
2.5963647394
  0
LINE
  5
344
100
AcDbEntity
  8
0
100
AcDbLine
 62
2
  6
CONTINUOUS
 10
13.6686871257
 20
2.4726017898
 11
13.6686871257
 21
2.6081548911
  0
LINE
  5
345
100
AcDbEntity
  8
0
100
AcDbLine
 62
2
  6
CONTINUOUS
 10
13.6486871146
 20
2.4628062688
 11
13.6486871146
 21
2.6179504122
  0
LINE
  5
346
100
AcDbEntity
  8
0
100
AcDbLine
 62
2
  6
CONTINUOUS
 10
13.6286871035
 20
2.4541253507
 11
13.6286871035
 21
2.5062483056
  0
LINE
  5
347
100
AcDbEntity
  8
0
100
AcDbLine
 62
2
  6
CONTINUOUS
 10
13.6286871035
 20
2.5301143348
 11
13.6286871035
 21
2.6266313303
  0
LINE
  5
348
100
AcDbEntity
  8
0
100
AcDbLine
 62
2
  6
CONTINUOUS
 10
13.6086870924
 20
2.4465537903
 11
13.6086870924
 21
2.4918774918
  0
LINE
  5
349
100
AcDbEntity
  8
0
100
AcDbLine
 62
2
  6
CONTINUOUS
 10
13.6086870924
 20
2.5165781173
 11
13.6086870924
 21
2.6342028907
  0
LINE
  5
34A
100
AcDbEntity
  8
0
100
AcDbLine
 62
2
  6
CONTINUOUS
 10
13.5886870813
 20
2.4398033466
 11
13.5886870813
 21
2.4912273132
  0
LINE
  5
34B
100
AcDbEntity
  8
0
100
AcDbLine
 62
2
  6
CONTINUOUS
 10
13.5886870813
 20
2.5391840845
 11
13.5886870813
 21
2.5454298327
  0
LINE
  5
34C
100
AcDbEntity
  8
0
100
AcDbLine
 62
2
  6
CONTINUOUS
 10
13.5886870813
 20
2.5862063472
 11
13.5886870813
 21
2.6409533343
  0
LINE
  5
34D
100
AcDbEntity
  8
0
100
AcDbLine
 62
2
  6
CONTINUOUS
 10
13.5686870702
 20
2.4334702189
 11
13.5686870702
 21
2.4912273132
  0
LINE
  5
34E
100
AcDbEntity
  8
0
100
AcDbLine
 62
2
  6
CONTINUOUS
 10
13.5686870702
 20
2.5906587765
 11
13.5686870702
 21
2.647286462
  0
LINE
  5
34F
100
AcDbEntity
  8
0
100
AcDbLine
 62
2
  6
CONTINUOUS
 10
13.5486870591
 20
2.4278968124
 11
13.5486870591
 21
2.4937461006
  0
LINE
  5
350
100
AcDbEntity
  8
0
100
AcDbLine
 62
2
  6
CONTINUOUS
 10
13.5486870591
 20
2.5920323691
 11
13.5486870591
 21
2.6528598686
  0
LINE
  5
351
100
AcDbEntity
  8
0
100
AcDbLine
 62
2
  6
CONTINUOUS
 10
13.528687048
 20
2.4225427674
 11
13.528687048
 21
2.5270426993
  0
LINE
  5
352
100
AcDbEntity
  8
0
100
AcDbLine
 62
2
  6
CONTINUOUS
 10
13.528687048
 20
2.5505166259
 11
13.528687048
 21
2.5668657091
  0
LINE
  5
353
100
AcDbEntity
  8
0
100
AcDbLine
 62
2
  6
CONTINUOUS
 10
13.528687048
 20
2.5920323691
 11
13.528687048
 21
2.6582139136
  0
LINE
  5
354
100
AcDbEntity
  8
0
100
AcDbLine
 62
2
  6
CONTINUOUS
 10
13.5086870369
 20
2.4177306791
 11
13.5086870369
 21
2.4912273132
  0
LINE
  5
355
100
AcDbEntity
  8
0
100
AcDbLine
 62
2
  6
CONTINUOUS
 10
13.5086870369
 20
2.5159553269
 11
13.5086870369
 21
2.5306043351
  0
LINE
  5
356
100
AcDbEntity
  8
0
100
AcDbLine
 62
2
  6
CONTINUOUS
 10
13.5086870369
 20
2.5496073456
 11
13.5086870369
 21
2.5672823554
  0
LINE
  5
357
100
AcDbEntity
  8
0
100
AcDbLine
 62
2
  6
CONTINUOUS
 10
13.5086870369
 20
2.5920323691
 11
13.5086870369
 21
2.6630260019
  0
LINE
  5
358
100
AcDbEntity
  8
0
100
AcDbLine
 62
2
  6
CONTINUOUS
 10
13.4886870258
 20
2.4131795254
 11
13.4886870258
 21
2.4912273132
  0
LINE
  5
359
100
AcDbEntity
  8
0
100
AcDbLine
 62
2
  6
CONTINUOUS
 10
13.4886870258
 20
2.5159553269
 11
13.4886870258
 21
2.5306043351
  0
LINE
  5
35A
100
AcDbEntity
  8
0
100
AcDbLine
 62
2
  6
CONTINUOUS
 10
13.4886870258
 20
2.5496073456
 11
13.4886870258
 21
2.5672823554
  0
LINE
  5
35B
100
AcDbEntity
  8
0
100
AcDbLine
 62
2
  6
CONTINUOUS
 10
13.4886870258
 20
2.5920323691
 11
13.4886870258
 21
2.6675771555
  0
LINE
  5
35C
100
AcDbEntity
  8
0
100
AcDbLine
 62
2
  6
CONTINUOUS
 10
13.4686870147
 20
2.4088819672
 11
13.4686870147
 21
2.4912273132
  0
LINE
  5
35D
100
AcDbEntity
  8
0
100
AcDbLine
 62
2
  6
CONTINUOUS
 10
13.4686870147
 20
2.5920323691
 11
13.4686870147
 21
2.6718747138
  0
LINE
  5
35E
100
AcDbEntity
  8
0
100
AcDbLine
 62
2
  6
CONTINUOUS
 10
13.4486870037
 20
2.4050092072
 11
13.4486870037
 21
2.4912273132
  0
LINE
  5
35F
100
AcDbEntity
  8
0
100
AcDbLine
 62
2
  6
CONTINUOUS
 10
13.4486870037
 20
2.5920323691
 11
13.4486870037
 21
2.6757474738
  0
LINE
  5
360
100
AcDbEntity
  8
0
100
AcDbLine
 62
2
  6
CONTINUOUS
 10
13.4286869926
 20
2.4011364471
 11
13.4286869926
 21
2.4912273132
  0
LINE
  5
361
100
AcDbEntity
  8
0
100
AcDbLine
 62
2
  6
CONTINUOUS
 10
13.4286869926
 20
2.5920323691
 11
13.4286869926
 21
2.6796202339
  0
LINE
  5
362
100
AcDbEntity
  8
0
100
AcDbLine
 62
2
  6
CONTINUOUS
 10
13.4086869815
 20
2.3980226662
 11
13.4086869815
 21
2.4912273132
  0
LINE
  5
363
100
AcDbEntity
  8
0
100
AcDbLine
 62
2
  6
CONTINUOUS
 10
13.4086869815
 20
2.515977327
 11
13.4086869815
 21
2.5672823554
  0
LINE
  5
364
100
AcDbEntity
  8
0
100
AcDbLine
 62
2
  6
CONTINUOUS
 10
13.4086869815
 20
2.5920323691
 11
13.4086869815
 21
2.6827340148
  0
LINE
  5
365
100
AcDbEntity
  8
0
100
AcDbLine
 62
2
  6
CONTINUOUS
 10
13.3886869704
 20
2.3950052774
 11
13.3886869704
 21
2.6857514036
  0
LINE
  5
366
100
AcDbEntity
  8
0
100
AcDbLine
 62
2
  6
CONTINUOUS
 10
13.3686869593
 20
2.3919878885
 11
13.3686869593
 21
2.4912273132
  0
LINE
  5
367
100
AcDbEntity
  8
0
100
AcDbLine
 62
2
  6
CONTINUOUS
 10
13.3686869593
 20
2.5291773343
 11
13.3686869593
 21
2.5540823481
  0
LINE
  5
368
100
AcDbEntity
  8
0
100
AcDbLine
 62
2
  6
CONTINUOUS
 10
13.3686869593
 20
2.5920323691
 11
13.3686869593
 21
2.6887687924
  0
LINE
  5
369
100
AcDbEntity
  8
0
100
AcDbLine
 62
2
  6
CONTINUOUS
 10
13.3486869482
 20
2.3889704997
 11
13.3486869482
 21
2.4912273132
  0
LINE
  5
36A
100
AcDbEntity
  8
0
100
AcDbLine
 62
2
  6
CONTINUOUS
 10
13.3486869482
 20
2.5291773343
 11
13.3486869482
 21
2.5540823481
  0
LINE
  5
36B
100
AcDbEntity
  8
0
100
AcDbLine
 62
2
  6
CONTINUOUS
 10
13.3486869482
 20
2.5920323691
 11
13.3486869482
 21
2.6917861813
  0
LINE
  5
36C
100
AcDbEntity
  8
0
100
AcDbLine
 62
2
  6
CONTINUOUS
 10
13.3286869371
 20
2.3859531109
 11
13.3286869371
 21
2.4912273132
  0
LINE
  5
36D
100
AcDbEntity
  8
0
100
AcDbLine
 62
2
  6
CONTINUOUS
 10
13.3286869371
 20
2.5291773343
 11
13.3286869371
 21
2.5540823481
  0
LINE
  5
36E
100
AcDbEntity
  8
0
100
AcDbLine
 62
2
  6
CONTINUOUS
 10
13.3286869371
 20
2.5920323691
 11
13.3286869371
 21
2.6948035701
  0
LINE
  5
36F
100
AcDbEntity
  8
0
100
AcDbLine
 62
2
  6
CONTINUOUS
 10
13.308686926
 20
2.3833355437
 11
13.308686926
 21
2.4912273132
  0
LINE
  5
370
100
AcDbEntity
  8
0
100
AcDbLine
 62
2
  6
CONTINUOUS
 10
13.308686926
 20
2.515977327
 11
13.308686926
 21
2.5672823554
  0
LINE
  5
371
100
AcDbEntity
  8
0
100
AcDbLine
 62
2
  6
CONTINUOUS
 10
13.308686926
 20
2.5920323691
 11
13.308686926
 21
2.6974211373
  0
LINE
  5
372
100
AcDbEntity
  8
0
100
AcDbLine
 62
2
  6
CONTINUOUS
 10
13.2886869149
 20
2.3812612684
 11
13.2886869149
 21
2.4912273132
  0
LINE
  5
373
100
AcDbEntity
  8
0
100
AcDbLine
 62
2
  6
CONTINUOUS
 10
13.2886869149
 20
2.515977327
 11
13.2886869149
 21
2.5324773361
  0
LINE
  5
374
100
AcDbEntity
  8
0
100
AcDbLine
 62
2
  6
CONTINUOUS
 10
13.2886869149
 20
2.5507823463
 11
13.2886869149
 21
2.5672823554
  0
LINE
  5
375
100
AcDbEntity
  8
0
100
AcDbLine
 62
2
  6
CONTINUOUS
 10
13.2886869149
 20
2.5920323691
 11
13.2886869149
 21
2.6994954125
  0
LINE
  5
376
100
AcDbEntity
  8
0
100
AcDbLine
 62
2
  6
CONTINUOUS
 10
13.2686869038
 20
2.3791869932
 11
13.2686869038
 21
2.4912273132
  0
LINE
  5
377
100
AcDbEntity
  8
0
100
AcDbLine
 62
2
  6
CONTINUOUS
 10
13.2686869038
 20
2.515977327
 11
13.2686869038
 21
2.5324773361
  0
LINE
  5
378
100
AcDbEntity
  8
0
100
AcDbLine
 62
2
  6
CONTINUOUS
 10
13.2686869038
 20
2.5507823463
 11
13.2686869038
 21
2.5672823554
  0
LINE
  5
379
100
AcDbEntity
  8
0
100
AcDbLine
 62
2
  6
CONTINUOUS
 10
13.2686869038
 20
2.5920323691
 11
13.2686869038
 21
2.7015696878
  0
LINE
  5
37A
100
AcDbEntity
  8
0
100
AcDbLine
 62
2
  6
CONTINUOUS
 10
13.2486868927
 20
2.377112718
 11
13.2486868927
 21
2.4912273132
  0
LINE
  5
37B
100
AcDbEntity
  8
0
100
AcDbLine
 62
2
  6
CONTINUOUS
 10
13.2486868927
 20
2.5920323691
 11
13.2486868927
 21
2.703643963
  0
LINE
  5
37C
100
AcDbEntity
  8
0
100
AcDbLine
 62
2
  6
CONTINUOUS
 10
13.2286868817
 20
2.3750384428
 11
13.2286868817
 21
2.4912273132
  0
LINE
  5
37D
100
AcDbEntity
  8
0
100
AcDbLine
 62
2
  6
CONTINUOUS
 10
13.2286868817
 20
2.5920323691
 11
13.2286868817
 21
2.7057182382
  0
LINE
  5
37E
100
AcDbEntity
  8
0
100
AcDbLine
 62
2
  6
CONTINUOUS
 10
13.2086868706
 20
2.3729641676
 11
13.2086868706
 21
2.4912273132
  0
LINE
  5
37F
100
AcDbEntity
  8
0
100
AcDbLine
 62
2
  6
CONTINUOUS
 10
13.2086868706
 20
2.5920323691
 11
13.2086868706
 21
2.7077925134
  0
LINE
  5
380
100
AcDbEntity
  8
0
100
AcDbLine
 62
2
  6
CONTINUOUS
 10
13.1886868595
 20
2.3712344456
 11
13.1886868595
 21
2.4912273132
  0
LINE
  5
381
100
AcDbEntity
  8
0
100
AcDbLine
 62
2
  6
CONTINUOUS
 10
13.1886868595
 20
2.515977327
 11
13.1886868595
 21
2.5672823554
  0
LINE
  5
382
100
AcDbEntity
  8
0
100
AcDbLine
 62
2
  6
CONTINUOUS
 10
13.1886868595
 20
2.5920323691
 11
13.1886868595
 21
2.7095222354
  0
LINE
  5
383
100
AcDbEntity
  8
0
100
AcDbLine
 62
2
  6
CONTINUOUS
 10
13.1686868484
 20
2.3699682418
 11
13.1686868484
 21
2.4912273132
  0
LINE
  5
384
100
AcDbEntity
  8
0
100
AcDbLine
 62
2
  6
CONTINUOUS
 10
13.1686868484
 20
2.515977327
 11
13.1686868484
 21
2.5672823554
  0
LINE
  5
385
100
AcDbEntity
  8
0
100
AcDbLine
 62
2
  6
CONTINUOUS
 10
13.1686868484
 20
2.5920323691
 11
13.1686868484
 21
2.7107884392
  0
LINE
  5
386
100
AcDbEntity
  8
0
100
AcDbLine
 62
2
  6
CONTINUOUS
 10
13.1486868373
 20
2.3687020381
 11
13.1486868373
 21
2.7120546429
  0
LINE
  5
387
100
AcDbEntity
  8
0
100
AcDbLine
 62
2
  6
CONTINUOUS
 10
13.1286868262
 20
2.3674358343
 11
13.1286868262
 21
2.5672823554
  0
LINE
  5
388
100
AcDbEntity
  8
0
100
AcDbLine
 62
2
  6
CONTINUOUS
 10
13.1286868262
 20
2.5920323691
 11
13.1286868262
 21
2.7133208466
  0
LINE
  5
389
100
AcDbEntity
  8
0
100
AcDbLine
 62
2
  6
CONTINUOUS
 10
13.1086868151
 20
2.3661696306
 11
13.1086868151
 21
2.4912273132
  0
LINE
  5
38A
100
AcDbEntity
  8
0
100
AcDbLine
 62
2
  6
CONTINUOUS
 10
13.1086868151
 20
2.5920323691
 11
13.1086868151
 21
2.7145870504
  0
LINE
  5
38B
100
AcDbEntity
  8
0
100
AcDbLine
 62
2
  6
CONTINUOUS
 10
13.088686804
 20
2.3649034269
 11
13.088686804
 21
2.4912273132
  0
LINE
  5
38C
100
AcDbEntity
  8
0
100
AcDbLine
 62
2
  6
CONTINUOUS
 10
13.088686804
 20
2.5920323691
 11
13.088686804
 21
2.7158532541
  0
LINE
  5
38D
100
AcDbEntity
  8
0
100
AcDbLine
 62
2
  6
CONTINUOUS
 10
13.0686867929
 20
2.3636739922
 11
13.0686867929
 21
2.4912273132
  0
LINE
  5
38E
100
AcDbEntity
  8
0
100
AcDbLine
 62
2
  6
CONTINUOUS
 10
13.0686867929
 20
2.5475272398
 11
13.0686867929
 21
2.5672823554
  0
LINE
  5
38F
100
AcDbEntity
  8
0
100
AcDbLine
 62
2
  6
CONTINUOUS
 10
13.0686867929
 20
2.5920323691
 11
13.0686867929
 21
2.7170826887
  0
LINE
  5
390
100
AcDbEntity
  8
0
100
AcDbLine
 62
2
  6
CONTINUOUS
 10
13.0486867818
 20
2.363143203
 11
13.0486867818
 21
2.4912273132
  0
LINE
  5
391
100
AcDbEntity
  8
0
100
AcDbLine
 62
2
  6
CONTINUOUS
 10
13.0486867818
 20
2.5666100882
 11
13.0486867818
 21
2.717613478
  0
LINE
  5
392
100
AcDbEntity
  8
0
100
AcDbLine
 62
2
  6
CONTINUOUS
 10
13.0286867707
 20
2.3626124138
 11
13.0286867707
 21
2.50359263
  0
LINE
  5
393
100
AcDbEntity
  8
0
100
AcDbLine
 62
2
  6
CONTINUOUS
 10
13.0286867707
 20
2.5856929366
 11
13.0286867707
 21
2.7181442672
  0
LINE
  5
394
100
AcDbEntity
  8
0
100
AcDbLine
 62
2
  6
CONTINUOUS
 10
13.0086867596
 20
2.3620816246
 11
13.0086867596
 21
2.5226754472
  0
LINE
  5
395
100
AcDbEntity
  8
0
100
AcDbLine
 62
2
  6
CONTINUOUS
 10
13.0086867596
 20
2.5920323691
 11
13.0086867596
 21
2.7186750564
  0
LINE
  5
396
100
AcDbEntity
  8
0
100
AcDbLine
 62
2
  6
CONTINUOUS
 10
12.9886867486
 20
2.3615508354
 11
12.9886867486
 21
2.4912273132
  0
LINE
  5
397
100
AcDbEntity
  8
0
100
AcDbLine
 62
2
  6
CONTINUOUS
 10
12.9886867486
 20
2.515977327
 11
12.9886867486
 21
2.5417582644
  0
LINE
  5
398
100
AcDbEntity
  8
0
100
AcDbLine
 62
2
  6
CONTINUOUS
 10
12.9886867486
 20
2.5920323691
 11
12.9886867486
 21
2.7192058456
  0
LINE
  5
399
100
AcDbEntity
  8
0
100
AcDbLine
 62
2
  6
CONTINUOUS
 10
12.9686867375
 20
2.3610200462
 11
12.9686867375
 21
2.4912273132
  0
LINE
  5
39A
100
AcDbEntity
  8
0
100
AcDbLine
 62
2
  6
CONTINUOUS
 10
12.9686867375
 20
2.5920323691
 11
12.9686867375
 21
2.7197366348
  0
LINE
  5
39B
100
AcDbEntity
  8
0
100
AcDbLine
 62
2
  6
CONTINUOUS
 10
12.9486867264
 20
2.360489257
 11
12.9486867264
 21
2.4912273132
  0
LINE
  5
39C
100
AcDbEntity
  8
0
100
AcDbLine
 62
2
  6
CONTINUOUS
 10
12.9486867264
 20
2.5920323691
 11
12.9486867264
 21
2.720267424
  0
LINE
  5
39D
100
AcDbEntity
  8
0
100
AcDbLine
 62
2
  6
CONTINUOUS
 10
12.9286867153
 20
2.3602836008
 11
12.9286867153
 21
2.4912273132
  0
LINE
  5
39E
100
AcDbEntity
  8
0
100
AcDbLine
 62
2
  6
CONTINUOUS
 10
12.9286867153
 20
2.515977327
 11
12.9286867153
 21
2.5672823554
  0
LINE
  5
39F
100
AcDbEntity
  8
0
100
AcDbLine
 62
2
  6
CONTINUOUS
 10
12.9286867153
 20
2.5920323691
 11
12.9286867153
 21
2.7204730802
  0
LINE
  5
3A0
100
AcDbEntity
  8
0
100
AcDbLine
 62
2
  6
CONTINUOUS
 10
12.9086867042
 20
2.3604597639
 11
12.9086867042
 21
2.7202969171
  0
LINE
  5
3A1
100
AcDbEntity
  8
0
100
AcDbLine
 62
2
  6
CONTINUOUS
 10
12.8886866931
 20
2.360635927
 11
12.8886866931
 21
2.5672823554
  0
LINE
  5
3A2
100
AcDbEntity
  8
0
100
AcDbLine
 62
2
  6
CONTINUOUS
 10
12.8886866931
 20
2.5920323691
 11
12.8886866931
 21
2.720120754
  0
LINE
  5
3A3
100
AcDbEntity
  8
0
100
AcDbLine
 62
2
  6
CONTINUOUS
 10
12.868686682
 20
2.3608120901
 11
12.868686682
 21
2.491232357
  0
LINE
  5
3A4
100
AcDbEntity
  8
0
100
AcDbLine
 62
2
  6
CONTINUOUS
 10
12.868686682
 20
2.5920323691
 11
12.868686682
 21
2.7199445909
  0
LINE
  5
3A5
100
AcDbEntity
  8
0
100
AcDbLine
 62
2
  6
CONTINUOUS
 10
12.8486866709
 20
2.3609882532
 11
12.8486866709
 21
2.4912273132
  0
LINE
  5
3A6
100
AcDbEntity
  8
0
100
AcDbLine
 62
2
  6
CONTINUOUS
 10
12.8486866709
 20
2.5920323691
 11
12.8486866709
 21
2.7197684278
  0
LINE
  5
3A7
100
AcDbEntity
  8
0
100
AcDbLine
 62
2
  6
CONTINUOUS
 10
12.8286866598
 20
2.3611644163
 11
12.8286866598
 21
2.4912273132
  0
LINE
  5
3A8
100
AcDbEntity
  8
0
100
AcDbLine
 62
2
  6
CONTINUOUS
 10
12.8286866598
 20
2.5396527025
 11
12.8286866598
 21
2.5672823554
  0
LINE
  5
3A9
100
AcDbEntity
  8
0
100
AcDbLine
 62
2
  6
CONTINUOUS
 10
12.8286866598
 20
2.5920323691
 11
12.8286866598
 21
2.7195922647
  0
LINE
  5
3AA
100
AcDbEntity
  8
0
100
AcDbLine
 62
2
  6
CONTINUOUS
 10
12.8086866487
 20
2.3613405794
 11
12.8086866487
 21
2.4912273132
  0
LINE
  5
3AB
100
AcDbEntity
  8
0
100
AcDbLine
 62
2
  6
CONTINUOUS
 10
12.8086866487
 20
2.5587355508
 11
12.8086866487
 21
2.7194161016
  0
LINE
  5
3AC
100
AcDbEntity
  8
0
100
AcDbLine
 62
2
  6
CONTINUOUS
 10
12.7886866376
 20
2.3621089572
 11
12.7886866376
 21
2.4957181055
  0
LINE
  5
3AD
100
AcDbEntity
  8
0
100
AcDbLine
 62
2
  6
CONTINUOUS
 10
12.7886866376
 20
2.5778183992
 11
12.7886866376
 21
2.7186477238
  0
LINE
  5
3AE
100
AcDbEntity
  8
0
100
AcDbLine
 62
2
  6
CONTINUOUS
 10
12.7686866266
 20
2.3630013935
 11
12.7686866266
 21
2.5148009227
  0
LINE
  5
3AF
100
AcDbEntity
  8
0
100
AcDbLine
 62
2
  6
CONTINUOUS
 10
12.7686866266
 20
2.5920323691
 11
12.7686866266
 21
2.7177552874
  0
LINE
  5
3B0
100
AcDbEntity
  8
0
100
AcDbLine
 62
2
  6
CONTINUOUS
 10
12.7486866155
 20
2.3638938299
 11
12.7486866155
 21
2.4913263218
  0
LINE
  5
3B1
100
AcDbEntity
  8
0
100
AcDbLine
 62
2
  6
CONTINUOUS
 10
12.7486866155
 20
2.5158783184
 11
12.7486866155
 21
2.5338837399
  0
LINE
  5
3B2
100
AcDbEntity
  8
0
100
AcDbLine
 62
2
  6
CONTINUOUS
 10
12.7486866155
 20
2.5920323691
 11
12.7486866155
 21
2.7168628511
  0
LINE
  5
3B3
100
AcDbEntity
  8
0
100
AcDbLine
 62
2
  6
CONTINUOUS
 10
12.7286866044
 20
2.3647862663
 11
12.7286866044
 21
2.4912273132
  0
LINE
  5
3B4
100
AcDbEntity
  8
0
100
AcDbLine
 62
2
  6
CONTINUOUS
 10
12.7286866044
 20
2.515977327
 11
12.7286866044
 21
2.5527601554
  0
LINE
  5
3B5
100
AcDbEntity
  8
0
100
AcDbLine
 62
2
  6
CONTINUOUS
 10
12.7286866044
 20
2.5920323691
 11
12.7286866044
 21
2.7159704147
  0
LINE
  5
3B6
100
AcDbEntity
  8
0
100
AcDbLine
 62
2
  6
CONTINUOUS
 10
12.7086865933
 20
2.3656787026
 11
12.7086865933
 21
2.4912273132
  0
LINE
  5
3B7
100
AcDbEntity
  8
0
100
AcDbLine
 62
2
  6
CONTINUOUS
 10
12.7086865933
 20
2.5920323691
 11
12.7086865933
 21
2.7150779784
  0
LINE
  5
3B8
100
AcDbEntity
  8
0
100
AcDbLine
 62
2
  6
CONTINUOUS
 10
12.6886865822
 20
2.366571139
 11
12.6886865822
 21
2.4912273132
  0
LINE
  5
3B9
100
AcDbEntity
  8
0
100
AcDbLine
 62
2
  6
CONTINUOUS
 10
12.6886865822
 20
2.515977327
 11
12.6886865822
 21
2.5672823554
  0
LINE
  5
3BA
100
AcDbEntity
  8
0
100
AcDbLine
 62
2
  6
CONTINUOUS
 10
12.6886865822
 20
2.5920323691
 11
12.6886865822
 21
2.714185542
  0
LINE
  5
3BB
100
AcDbEntity
  8
0
100
AcDbLine
 62
2
  6
CONTINUOUS
 10
12.6686865711
 20
2.3677104027
 11
12.6686865711
 21
2.7130462783
  0
LINE
  5
3BC
100
AcDbEntity
  8
0
100
AcDbLine
 62
2
  6
CONTINUOUS
 10
12.64868656
 20
2.3693682721
 11
12.64868656
 21
2.7113884089
  0
LINE
  5
3BD
100
AcDbEntity
  8
0
100
AcDbLine
 62
2
  6
CONTINUOUS
 10
12.6286865489
 20
2.3710261415
 11
12.6286865489
 21
2.4912273132
  0
LINE
  5
3BE
100
AcDbEntity
  8
0
100
AcDbLine
 62
2
  6
CONTINUOUS
 10
12.6286865489
 20
2.515977327
 11
12.6286865489
 21
2.7097305395
  0
LINE
  5
3BF
100
AcDbEntity
  8
0
100
AcDbLine
 62
2
  6
CONTINUOUS
 10
12.6086865378
 20
2.372684011
 11
12.6086865378
 21
2.4912273132
  0
LINE
  5
3C0
100
AcDbEntity
  8
0
100
AcDbLine
 62
2
  6
CONTINUOUS
 10
12.6086865378
 20
2.5351122279
 11
12.6086865378
 21
2.70807267
  0
LINE
  5
3C1
100
AcDbEntity
  8
0
100
AcDbLine
 62
2
  6
CONTINUOUS
 10
12.5886865267
 20
2.3743418804
 11
12.5886865267
 21
2.4912273132
  0
LINE
  5
3C2
100
AcDbEntity
  8
0
100
AcDbLine
 62
2
  6
CONTINUOUS
 10
12.5886865267
 20
2.5660172622
 11
12.5886865267
 21
2.7064148006
  0
LINE
  5
3C3
100
AcDbEntity
  8
0
100
AcDbLine
 62
2
  6
CONTINUOUS
 10
12.5686865156
 20
2.3759997498
 11
12.5686865156
 21
2.4912273132
  0
LINE
  5
3C4
100
AcDbEntity
  8
0
100
AcDbLine
 62
2
  6
CONTINUOUS
 10
12.5686865156
 20
2.5920323691
 11
12.5686865156
 21
2.7047569312
  0
LINE
  5
3C5
100
AcDbEntity
  8
0
100
AcDbLine
 62
2
  6
CONTINUOUS
 10
12.5486865045
 20
2.3777575277
 11
12.5486865045
 21
2.4912273132
  0
LINE
  5
3C6
100
AcDbEntity
  8
0
100
AcDbLine
 62
2
  6
CONTINUOUS
 10
12.5486865045
 20
2.515977327
 11
12.5486865045
 21
2.5275118824
  0
LINE
  5
3C7
100
AcDbEntity
  8
0
100
AcDbLine
 62
2
  6
CONTINUOUS
 10
12.5486865045
 20
2.5920323691
 11
12.5486865045
 21
2.7029991533
  0
LINE
  5
3C8
100
AcDbEntity
  8
0
100
AcDbLine
 62
2
  6
CONTINUOUS
 10
12.5286864935
 20
2.3802813811
 11
12.5286864935
 21
2.5296213345
  0
LINE
  5
3C9
100
AcDbEntity
  8
0
100
AcDbLine
 62
2
  6
CONTINUOUS
 10
12.5286864935
 20
2.5505713461
 11
12.5286864935
 21
2.5667383551
  0
LINE
  5
3CA
100
AcDbEntity
  8
0
100
AcDbLine
 62
2
  6
CONTINUOUS
 10
12.5286864935
 20
2.5920323691
 11
12.5286864935
 21
2.7004752999
  0
LINE
  5
3CB
100
AcDbEntity
  8
0
100
AcDbLine
 62
2
  6
CONTINUOUS
 10
12.5086864824
 20
2.3828052346
 11
12.5086864824
 21
2.4912273132
  0
LINE
  5
3CC
100
AcDbEntity
  8
0
100
AcDbLine
 62
2
  6
CONTINUOUS
 10
12.5086864824
 20
2.515977327
 11
12.5086864824
 21
2.5279667721
  0
LINE
  5
3CD
100
AcDbEntity
  8
0
100
AcDbLine
 62
2
  6
CONTINUOUS
 10
12.5086864824
 20
2.5868602074
 11
12.5086864824
 21
2.6979514464
  0
LINE
  5
3CE
100
AcDbEntity
  8
0
100
AcDbLine
 62
2
  6
CONTINUOUS
 10
12.4886864713
 20
2.385329088
 11
12.4886864713
 21
2.4912273132
  0
LINE
  5
3CF
100
AcDbEntity
  8
0
100
AcDbLine
 62
2
  6
CONTINUOUS
 10
12.4886864713
 20
2.5553401045
 11
12.4886864713
 21
2.695427593
  0
LINE
  5
3D0
100
AcDbEntity
  8
0
100
AcDbLine
 62
2
  6
CONTINUOUS
 10
12.4686864602
 20
2.3878529415
 11
12.4686864602
 21
2.4912273132
  0
LINE
  5
3D1
100
AcDbEntity
  8
0
100
AcDbLine
 62
2
  6
CONTINUOUS
 10
12.4686864602
 20
2.5238200015
 11
12.4686864602
 21
2.6929037395
  0
LINE
  5
3D2
100
AcDbEntity
  8
0
100
AcDbLine
 62
2
  6
CONTINUOUS
 10
12.4486864491
 20
2.390376795
 11
12.4486864491
 21
2.4912273132
  0
LINE
  5
3D3
100
AcDbEntity
  8
0
100
AcDbLine
 62
2
  6
CONTINUOUS
 10
12.4486864491
 20
2.515977327
 11
12.4486864491
 21
2.690379886
  0
LINE
  5
3D4
100
AcDbEntity
  8
0
100
AcDbLine
 62
2
  6
CONTINUOUS
 10
12.428686438
 20
2.3931794042
 11
12.428686438
 21
2.6875772768
  0
LINE
  5
3D5
100
AcDbEntity
  8
0
100
AcDbLine
 62
2
  6
CONTINUOUS
 10
12.4086864269
 20
2.3964643301
 11
12.4086864269
 21
2.5013773986
  0
LINE
  5
3D6
100
AcDbEntity
  8
0
100
AcDbLine
 62
2
  6
CONTINUOUS
 10
12.4086864269
 20
2.5325739971
 11
12.4086864269
 21
2.5537224311
  0
LINE
  5
3D7
100
AcDbEntity
  8
0
100
AcDbLine
 62
2
  6
CONTINUOUS
 10
12.4086864269
 20
2.5791473398
 11
12.4086864269
 21
2.6842923509
  0
LINE
  5
3D8
100
AcDbEntity
  8
0
100
AcDbLine
 62
2
  6
CONTINUOUS
 10
12.3886864158
 20
2.399749256
 11
12.3886864158
 21
2.4921022658
  0
LINE
  5
3D9
100
AcDbEntity
  8
0
100
AcDbLine
 62
2
  6
CONTINUOUS
 10
12.3886864158
 20
2.5895929958
 11
12.3886864158
 21
2.681007425
  0
LINE
  5
3DA
100
AcDbEntity
  8
0
100
AcDbLine
 62
2
  6
CONTINUOUS
 10
12.3686864047
 20
2.403451877
 11
12.3686864047
 21
2.4912273132
  0
LINE
  5
3DB
100
AcDbEntity
  8
0
100
AcDbLine
 62
2
  6
CONTINUOUS
 10
12.3686864047
 20
2.5920323691
 11
12.3686864047
 21
2.677304804
  0
LINE
  5
3DC
100
AcDbEntity
  8
0
100
AcDbLine
 62
2
  6
CONTINUOUS
 10
12.3486863936
 20
2.407324637
 11
12.3486863936
 21
2.4912273132
  0
LINE
  5
3DD
100
AcDbEntity
  8
0
100
AcDbLine
 62
2
  6
CONTINUOUS
 10
12.3486863936
 20
2.5920323691
 11
12.3486863936
 21
2.673432044
  0
LINE
  5
3DE
100
AcDbEntity
  8
0
100
AcDbLine
 62
2
  6
CONTINUOUS
 10
12.3286863825
 20
2.4113493968
 11
12.3286863825
 21
2.4912273132
  0
LINE
  5
3DF
100
AcDbEntity
  8
0
100
AcDbLine
 62
2
  6
CONTINUOUS
 10
12.3286863825
 20
2.515977327
 11
12.3286863825
 21
2.5333023366
  0
LINE
  5
3E0
100
AcDbEntity
  8
0
100
AcDbLine
 62
2
  6
CONTINUOUS
 10
12.3286863825
 20
2.5499573458
 11
12.3286863825
 21
2.5672823554
  0
LINE
  5
3E1
100
AcDbEntity
  8
0
100
AcDbLine
 62
2
  6
CONTINUOUS
 10
12.3286863825
 20
2.5920323691
 11
12.3286863825
 21
2.6694072842
  0
LINE
  5
3E2
100
AcDbEntity
  8
0
100
AcDbLine
 62
2
  6
CONTINUOUS
 10
12.3086863715
 20
2.4159005505
 11
12.3086863715
 21
2.4912273132
  0
LINE
  5
3E3
100
AcDbEntity
  8
0
100
AcDbLine
 62
2
  6
CONTINUOUS
 10
12.3086863715
 20
2.515977327
 11
12.3086863715
 21
2.5333023366
  0
LINE
  5
3E4
100
AcDbEntity
  8
0
100
AcDbLine
 62
2
  6
CONTINUOUS
 10
12.3086863715
 20
2.5499573458
 11
12.3086863715
 21
2.5672823554
  0
LINE
  5
3E5
100
AcDbEntity
  8
0
100
AcDbLine
 62
2
  6
CONTINUOUS
 10
12.3086863715
 20
2.5920323691
 11
12.3086863715
 21
2.6648561305
  0
LINE
  5
3E6
100
AcDbEntity
  8
0
100
AcDbLine
 62
2
  6
CONTINUOUS
 10
12.2886863604
 20
2.4204517041
 11
12.2886863604
 21
2.4912273132
  0
LINE
  5
3E7
100
AcDbEntity
  8
0
100
AcDbLine
 62
2
  6
CONTINUOUS
 10
12.2886863604
 20
2.5920323691
 11
12.2886863604
 21
2.6603049769
  0
LINE
  5
3E8
100
AcDbEntity
  8
0
100
AcDbLine
 62
2
  6
CONTINUOUS
 10
12.2686863493
 20
2.4257438218
 11
12.2686863493
 21
2.4912273132
  0
LINE
  5
3E9
100
AcDbEntity
  8
0
100
AcDbLine
 62
2
  6
CONTINUOUS
 10
12.2686863493
 20
2.5920323691
 11
12.2686863493
 21
2.6550128592
  0
LINE
  5
3EA
100
AcDbEntity
  8
0
100
AcDbLine
 62
2
  6
CONTINUOUS
 10
12.2486863382
 20
2.4310978667
 11
12.2486863382
 21
2.4912273132
  0
LINE
  5
3EB
100
AcDbEntity
  8
0
100
AcDbLine
 62
2
  6
CONTINUOUS
 10
12.2486863382
 20
2.5920323691
 11
12.2486863382
 21
2.6496588142
  0
LINE
  5
3EC
100
AcDbEntity
  8
0
100
AcDbLine
 62
2
  6
CONTINUOUS
 10
12.2286863271
 20
2.4372566433
 11
12.2286863271
 21
2.4912273132
  0
LINE
  5
3ED
100
AcDbEntity
  8
0
100
AcDbLine
 62
2
  6
CONTINUOUS
 10
12.2286863271
 20
2.515977327
 11
12.2286863271
 21
2.5672823554
  0
LINE
  5
3EE
100
AcDbEntity
  8
0
100
AcDbLine
 62
2
  6
CONTINUOUS
 10
12.2286863271
 20
2.5920323691
 11
12.2286863271
 21
2.6435000377
  0
LINE
  5
3EF
100
AcDbEntity
  8
0
100
AcDbLine
 62
2
  6
CONTINUOUS
 10
12.208686316
 20
2.443589771
 11
12.208686316
 21
2.4912273132
  0
LINE
  5
3F0
100
AcDbEntity
  8
0
100
AcDbLine
 62
2
  6
CONTINUOUS
 10
12.208686316
 20
2.515977327
 11
12.208686316
 21
2.5672823554
  0
LINE
  5
3F1
100
AcDbEntity
  8
0
100
AcDbLine
 62
2
  6
CONTINUOUS
 10
12.208686316
 20
2.5920323691
 11
12.208686316
 21
2.63716691
  0
LINE
  5
3F2
100
AcDbEntity
  8
0
100
AcDbLine
 62
2
  6
CONTINUOUS
 10
12.1886863049
 20
2.4510806436
 11
12.1886863049
 21
2.6296760373
  0
LINE
  5
3F3
100
AcDbEntity
  8
0
100
AcDbLine
 62
2
  6
CONTINUOUS
 10
12.1686862938
 20
2.4591016523
 11
12.1686862938
 21
2.6216550287
  0
LINE
  5
3F4
100
AcDbEntity
  8
0
100
AcDbLine
 62
2
  6
CONTINUOUS
 10
12.1486862827
 20
2.468314272
 11
12.1486862827
 21
2.612442409
  0
LINE
  5
3F5
100
AcDbEntity
  8
0
100
AcDbLine
 62
2
  6
CONTINUOUS
 10
12.1286862716
 20
2.4794932339
 11
12.1286862716
 21
2.601263447
  0
LINE
  5
3F6
100
AcDbEntity
  8
0
100
AcDbLine
 62
2
  6
CONTINUOUS
 10
12.1086862605
 20
2.4934150665
 11
12.1086862605
 21
2.5873416144
  0
LINE
  5
3F7
100
AcDbEntity
  8
0
100
AcDbLine
 62
2
  6
CONTINUOUS
 10
12.0886862494
 20
2.5144449553
 11
12.0886862494
 21
2.5663117257
  0
ENDBLK
  5
3F8
100
AcDbEntity
  8
0
  6
BYBLOCK
 62
0
100
AcDbBlockEnd
  0
BLOCK
  5
3F9
100
AcDbEntity
  8
0
100
AcDbBlockBegin
  2
_FILLED
 70
64
 10
0.0
 20
0.0
  3
_FILLED
  1

  0
SOLID
  5
3FA
100
AcDbEntity
  8
0
  6
BYBLOCK
 62
0
100
AcDbTrace
 10
0.0
 20
0.0
 11
-1.0
 21
0.1666666667
 12
-1.0
 22
-0.1666666667
 13
-1.0
 23
-0.1666666667
  0
ENDBLK
  5
3FB
100
AcDbEntity
  8
0
  6
BYBLOCK
 62
0
100
AcDbBlockEnd
  0
BLOCK
  5
3FC
100
AcDbEntity
  8
SCHEME_DIMS
100
AcDbBlockBegin
 62
2
  6
CONTINUOUS
  2
*D0
 70
65
 10
0.0
 20
0.0
  3
*D0
  1

  0
MTEXT
  5
3FD
100
AcDbEntity
  8
SCHEME_DIMS
100
AcDbMText
 62
2
  6
CONTINUOUS
  7
STANDARD
 71
2
 72
1
 10
5.5884242376
 20
5.1786923443
 30
0.0
 11
1.0
 21
0.0
 31
0.0
 44
0.9
  1
31\P[1.22]
 40
0.1
 41
0.6
  0
LINE
  5
3FE
100
AcDbEntity
  8
SCHEME_DIMS
100
AcDbLine
 62
2
  6
CONTINUOUS
 10
4.8230567242
 20
4.4426923443
 11
5.9134242376
 21
4.4426923443
  0
LINE
  5
3FF
100
AcDbEntity
  8
SCHEME_DIMS
100
AcDbLine
 62
2
  6
CONTINUOUS
 10
5.4494242376
 20
5.6646923443
 11
5.9134242376
 21
5.6646923443
  0
LINE
  5
400
100
AcDbEntity
  8
SCHEME_DIMS
100
AcDbLine
 62
2
  6
CONTINUOUS
 10
5.7884242376
 20
4.4426923443
 11
5.7884242376
 21
4.8286923443
  0
LINE
  5
401
100
AcDbEntity
  8
SCHEME_DIMS
100
AcDbLine
 62
2
  6
CONTINUOUS
 10
5.7884242376
 20
5.6646923443
 11
5.7884242376
 21
5.2786923443
  0
INSERT
  5
402
100
AcDbEntity
  8
SCHEME_DIMS
100
AcDbBlockReference
 62
2
  6
CONTINUOUS
  2
_FILLED
 10
5.7884242376
 20
4.4426923443
 41
0.1875
 42
0.1875
 43
0.1875
 50
270.0
  0
INSERT
  5
403
100
AcDbEntity
  8
SCHEME_DIMS
100
AcDbBlockReference
 62
2
  6
CONTINUOUS
  2
_FILLED
 10
5.7884242376
 20
5.6646923443
 41
0.1875
 42
0.1875
 43
0.1875
 50
90.0
  0
ENDBLK
  5
404
100
AcDbEntity
  8
0
  6
BYBLOCK
 62
0
100
AcDbBlockEnd
  0
BLOCK
  5
405
100
AcDbEntity
  8
SCHEME_DIMS
100
AcDbBlockBegin
 62
2
  6
CONTINUOUS
  2
*D1
 70
65
 10
0.0
 20
0.0
  3
*D1
  1

  0
MTEXT
  5
406
100
AcDbEntity
  8
SCHEME_DIMS
100
AcDbMText
 62
2
  6
CONTINUOUS
  7
TEXTSTYLE_5
 71
2
 72
1
 10
4.2994242376
 20
7.3994144726
 30
0.0
 11
1.0
 21
0.0
 31
0.0
 44
0.9
  1
{\Fgdt;n}\Ftxt;40\P[1.58]
 40
0.1
 41
0.6
  0
LINE
  5
407
100
AcDbEntity
  8
SCHEME_DIMS
100
AcDbLine
 62
2
  6
CONTINUOUS
 10
5.2869242376
 20
8.4322180285
 11
5.2869242376
 21
7.2244144726
  0
LINE
  5
408
100
AcDbEntity
  8
SCHEME_DIMS
100
AcDbLine
 62
2
  6
CONTINUOUS
 10
3.7119242376
 20
8.4422991848
 11
3.7119242376
 21
7.2244144726
  0
LINE
  5
409
100
AcDbEntity
  8
SCHEME_DIMS
100
AcDbLine
 62
2
  6
CONTINUOUS
 10
5.2869242376
 20
7.3494144726
 11
4.9660909043
 21
7.3494144726
  0
LINE
  5
40A
100
AcDbEntity
  8
SCHEME_DIMS
100
AcDbLine
 62
2
  6
CONTINUOUS
 10
3.7119242376
 20
7.3494144726
 11
4.0327575709
 21
7.3494144726
  0
INSERT
  5
40B
100
AcDbEntity
  8
SCHEME_DIMS
100
AcDbBlockReference
 62
2
  6
CONTINUOUS
  2
_FILLED
 10
5.2869242376
 20
7.3494144726
 41
0.1875
 42
0.1875
 43
0.1875
  0
INSERT
  5
40C
100
AcDbEntity
  8
SCHEME_DIMS
100
AcDbBlockReference
 62
2
  6
CONTINUOUS
  2
_FILLED
 10
3.7119242376
 20
7.3494144726
 41
0.1875
 42
0.1875
 43
0.1875
 50
180.0
  0
ENDBLK
  5
40D
100
AcDbEntity
  8
0
  6
BYBLOCK
 62
0
100
AcDbBlockEnd
  0
BLOCK
  5
40E
100
AcDbEntity
  8
SCHEME_DIMS
100
AcDbBlockBegin
 62
2
  6
CONTINUOUS
  2
*D2
 70
65
 10
0.0
 20
0.0
  3
*D2
  1

  0
MTEXT
  5
40F
100
AcDbEntity
  8
SCHEME_DIMS
100
AcDbMText
 62
2
  6
CONTINUOUS
  7
STANDARD
 71
3
 72
1
 10
7.3029548157
 20
7.0036923443
 30
0.0
 11
1.0
 21
0.0
 31
0.0
 44
0.9
  1
15\P[.59]
 40
0.1
 41
0.5
  0
LINE
  5
410
100
AcDbEntity
  8
SCHEME_DIMS
100
AcDbLine
 62
2
  6
CONTINUOUS
 10
8.0279548157
 20
6.0712852202
 11
8.0279548157
 21
7.0786923443
  0
LINE
  5
411
100
AcDbEntity
  8
SCHEME_DIMS
100
AcDbLine
 62
2
  6
CONTINUOUS
 10
8.6179548157
 20
6.4677278897
 11
8.6179548157
 21
7.0786923443
  0
LINE
  5
412
100
AcDbEntity
  8
SCHEME_DIMS
100
AcDbLine
 62
2
  6
CONTINUOUS
 10
8.0279548157
 20
6.9536923443
 11
8.3229548157
 21
6.9536923443
  0
LINE
  5
413
100
AcDbEntity
  8
SCHEME_DIMS
100
AcDbLine
 62
2
  6
CONTINUOUS
 10
8.3229548157
 20
6.9536923443
 11
7.7029548157
 21
6.9536923443
  0
LINE
  5
414
100
AcDbEntity
  8
SCHEME_DIMS
100
AcDbLine
 62
2
  6
CONTINUOUS
 10
8.6179548157
 20
6.9536923443
 11
8.3229548157
 21
6.9536923443
  0
INSERT
  5
415
100
AcDbEntity
  8
SCHEME_DIMS
100
AcDbBlockReference
 62
2
  6
CONTINUOUS
  2
_FILLED
 10
8.0279548157
 20
6.9536923443
 41
0.1875
 42
0.1875
 43
0.1875
 50
180.0
  0
INSERT
  5
416
100
AcDbEntity
  8
SCHEME_DIMS
100
AcDbBlockReference
 62
2
  6
CONTINUOUS
  2
_FILLED
 10
8.6179548157
 20
6.9536923443
 41
0.1875
 42
0.1875
 43
0.1875
  0
ENDBLK
  5
417
100
AcDbEntity
  8
0
  6
BYBLOCK
 62
0
100
AcDbBlockEnd
  0
BLOCK
  5
418
100
AcDbEntity
  8
SCHEME_DIMS
100
AcDbBlockBegin
 62
2
  6
CONTINUOUS
  2
*D3
 70
65
 10
0.0
 20
0.0
  3
*D3
  1

  0
MTEXT
  5
419
100
AcDbEntity
  8
SCHEME_DIMS
100
AcDbMText
 62
2
  6
CONTINUOUS
  7
STANDARD
 71
2
 72
1
 10
8.4194548157
 20
7.5036923443
 30
0.0
 11
1.0
 21
0.0
 31
0.0
 44
0.9
  1
30\P[1.18]
 40
0.1
 41
0.6
  0
LINE
  5
41A
100
AcDbEntity
  8
SCHEME_DIMS
100
AcDbLine
 62
2
  6
CONTINUOUS
 10
8.0279548157
 20
6.0566078209
 11
8.0279548157
 21
7.5786923443
  0
LINE
  5
41B
100
AcDbEntity
  8
SCHEME_DIMS
100
AcDbLine
 62
2
  6
CONTINUOUS
 10
9.2109548157
 20
6.4715501291
 11
9.2109548157
 21
7.5786923443
  0
LINE
  5
41C
100
AcDbEntity
  8
SCHEME_DIMS
100
AcDbLine
 62
2
  6
CONTINUOUS
 10
8.0279548157
 20
7.4536923443
 11
7.6279548157
 21
7.4536923443
  0
LINE
  5
41D
100
AcDbEntity
  8
SCHEME_DIMS
100
AcDbLine
 62
2
  6
CONTINUOUS
 10
9.2109548157
 20
7.4536923443
 11
9.6109548157
 21
7.4536923443
  0
INSERT
  5
41E
100
AcDbEntity
  8
SCHEME_DIMS
100
AcDbBlockReference
 62
2
  6
CONTINUOUS
  2
_FILLED
 10
8.0279548157
 20
7.4536923443
 41
0.1875
 42
0.1875
 43
0.1875
  0
INSERT
  5
41F
100
AcDbEntity
  8
SCHEME_DIMS
100
AcDbBlockReference
 62
2
  6
CONTINUOUS
  2
_FILLED
 10
9.2109548157
 20
7.4536923443
 41
0.1875
 42
0.1875
 43
0.1875
 50
180.0
  0
ENDBLK
  5
420
100
AcDbEntity
  8
0
  6
BYBLOCK
 62
0
100
AcDbBlockEnd
  0
BLOCK
  5
421
100
AcDbEntity
  8
SCHEME_DIMS
100
AcDbBlockBegin
 62
2
  6
CONTINUOUS
  2
*D4
 70
65
 10
0.0
 20
0.0
  3
*D4
  1

  0
MTEXT
  5
422
100
AcDbEntity
  8
SCHEME_DIMS
100
AcDbMText
 62
2
  6
CONTINUOUS
  7
STANDARD
 71
2
 72
1
 10
11.020446474
 20
5.5731923443
 30
0.0
 11
1.0
 21
0.0
 31
0.0
 44
0.9
  1
51,1\P[2.01]
 40
0.1
 41
0.6
  0
LINE
  5
423
100
AcDbEntity
  8
SCHEME_DIMS
100
AcDbLine
 62
2
  6
CONTINUOUS
 10
12.0858139874
 20
4.4426923443
 11
10.995446474
 21
4.4426923443
  0
LINE
  5
424
100
AcDbEntity
  8
SCHEME_DIMS
100
AcDbLine
 62
2
  6
CONTINUOUS
 10
12.1420920966
 20
6.4536923443
 11
10.995446474
 21
6.4536923443
  0
LINE
  5
425
100
AcDbEntity
  8
SCHEME_DIMS
100
AcDbLine
 62
2
  6
CONTINUOUS
 10
11.120446474
 20
4.4426923443
 11
11.120446474
 21
5.2231923443
  0
LINE
  5
426
100
AcDbEntity
  8
SCHEME_DIMS
100
AcDbLine
 62
2
  6
CONTINUOUS
 10
11.120446474
 20
6.4536923443
 11
11.120446474
 21
5.6731923443
  0
INSERT
  5
427
100
AcDbEntity
  8
SCHEME_DIMS
100
AcDbBlockReference
 62
2
  6
CONTINUOUS
  2
_FILLED
 10
11.120446474
 20
4.4426923443
 41
0.1875
 42
0.1875
 43
0.1875
 50
270.0
  0
INSERT
  5
428
100
AcDbEntity
  8
SCHEME_DIMS
100
AcDbBlockReference
 62
2
  6
CONTINUOUS
  2
_FILLED
 10
11.120446474
 20
6.4536923443
 41
0.1875
 42
0.1875
 43
0.1875
 50
90.0
  0
ENDBLK
  5
429
100
AcDbEntity
  8
0
  6
BYBLOCK
 62
0
100
AcDbBlockEnd
  0
ENDSEC
  0
SECTION
  2
ENTITIES
  0
MTEXT
  5
42A
100
AcDbEntity
  8
0
100
AcDbMText
 62
2
  6
CONTINUOUS
  7
TEXTSTYLE_2
 71
2
 72
1
 10
11.0287658475
 20
1.794867839
 30
0.0
 11
1.0
 21
0.0
 31
0.0
 44
0.9
  1
THIRD ANGLE PROJECTION
 40
0.1
 41
1.76
  0
MTEXT
  5
42B
100
AcDbEntity
  8
0
100
AcDbMText
 62
2
  6
CONTINUOUS
  7
STANDARD
 71
1
 72
1
 10
12.88
 20
1.457
 30
0.0
 11
1.0
 21
0.0
 31
0.0
 44
0.9
  1
DRAWING NO.
 40
0.08
 41
0.88
  0
MTEXT
  5
42C
100
AcDbEntity
  8
0
100
AcDbMText
 62
2
  6
CONTINUOUS
  7
TEXTSTYLE_3
 71
2
 72
1
 10
11.03
 20
2.516432
 30
0.0
 11
1.0
 21
0.0
 31
0.0
 44
0.9
  1
and is proprietary in general
 40
0.08
 41
1.972
  0
MTEXT
  5
42D
100
AcDbEntity
  8
0
100
AcDbMText
 62
2
  6
CONTINUOUS
  7
TEXTSTYLE_3
 71
2
 72
1
 10
11.03
 20
2.396432
 30
0.0
 11
1.0
 21
0.0
 31
0.0
 44
0.9
  1
and in detail.  Its contents
 40
0.08
 41
1.904
  0
MTEXT
  5
42E
100
AcDbEntity
  8
0
100
AcDbMText
 62
2
  6
CONTINUOUS
  7
TEXTSTYLE_3
 71
2
 72
1
 10
11.03
 20
2.276432
 30
0.0
 11
1.0
 21
0.0
 31
0.0
 44
0.9
  1
shall not be revealed to
 40
0.08
 41
1.632
  0
MTEXT
  5
42F
100
AcDbEntity
  8
0
100
AcDbMText
 62
2
  6
CONTINUOUS
  7
TEXTSTYLE_3
 71
2
 72
1
 10
11.03
 20
2.156432
 30
0.0
 11
1.0
 21
0.0
 31
0.0
 44
0.9
  1
outside parties without
 40
0.08
 41
1.564
  0
MTEXT
  5
430
100
AcDbEntity
  8
0
100
AcDbMText
 62
2
  6
CONTINUOUS
  7
TEXTSTYLE_3
 71
2
 72
1
 10
11.03
 20
2.036432
 30
0.0
 11
1.0
 21
0.0
 31
0.0
 44
0.9
  1
written consent of BANNER.
 40
0.08
 41
1.768
  0
MTEXT
  5
431
100
AcDbEntity
  8
0
100
AcDbMText
 62
2
  6
CONTINUOUS
  7
TEXTSTYLE_2
 71
1
 72
1
 10
12.08
 20
2.217
 30
0.0
 11
1.0
 21
0.0
 31
0.0
 44
0.9
  1
TITLE
 40
0.1
 41
0.4
  0
MTEXT
  5
432
100
AcDbEntity
  8
0
100
AcDbMText
 62
2
  6
CONTINUOUS
  7
STANDARD
 71
1
 72
1
 10
12.08
 20
1.457
 30
0.0
 11
1.0
 21
0.0
 31
0.0
 44
0.9
  1
SIZE
 40
0.08
 41
0.32
  0
MTEXT
  5
433
100
AcDbEntity
  8
0
100
AcDbMText
 62
2
  6
CONTINUOUS
  7
STANDARD
 71
1
 72
1
 10
12.08
 20
1.087
 30
0.0
 11
1.0
 21
0.0
 31
0.0
 44
0.9
  1
SCALE
 40
0.08
 41
0.4
  0
MTEXT
  5
434
100
AcDbEntity
  8
0
100
AcDbMText
 62
2
  6
CONTINUOUS
  7
TEXTSTYLE_2
 71
2
 72
1
 10
12.5
 20
1.337
 30
0.0
 11
1.0
 21
0.0
 31
0.0
 44
0.9
  1
B
 40
0.1
 41
0.08
  0
MTEXT
  5
435
100
AcDbEntity
  8
0
100
AcDbMText
 62
2
  6
CONTINUOUS
  7
TEXTSTYLE_3
 71
2
 72
1
 10
11.03
 20
2.636432
 30
0.0
 11
1.0
 21
0.0
 31
0.0
 44
0.9
  1
of BANNER ENGINEERING CORP.
 40
0.08
 41
1.836
  0
MTEXT
  5
436
100
AcDbEntity
  8
0
100
AcDbMText
 62
2
  6
CONTINUOUS
  7
TEXTSTYLE_3
 71
2
 72
1
 10
11.03
 20
2.756432
 30
0.0
 11
1.0
 21
0.0
 31
0.0
 44
0.9
  1
This drawing is the property
 40
0.08
 41
1.904
  0
MTEXT
  5
437
100
AcDbEntity
  8
0
100
AcDbMText
 62
2
  6
CONTINUOUS
  7
TEXTSTYLE_2
 71
2
 72
1
 10
15.03
 20
2.4134
 30
0.0
 11
1.0
 21
0.0
 31
0.0
 44
0.9
  1
MINNEAPOLIS, MN 55440
 40
0.1
 41
1.68
  0
MTEXT
  5
438
100
AcDbEntity
  8
0
100
AcDbMText
 62
2
  6
CONTINUOUS
  7
STANDARD
 71
1
 72
1
 10
14.255
 20
1.087
 30
0.0
 11
1.0
 21
0.0
 31
0.0
 44
0.9
  1
SHEET
 40
0.08
 41
0.4
  0
MTEXT
  5
439
100
AcDbEntity
  8
0
100
AcDbMText
 62
2
  6
CONTINUOUS
  7
STANDARD
 71
1
 72
1
 10
15.63
 20
1.457
 30
0.0
 11
1.0
 21
0.0
 31
0.0
 44
0.9
  1
REV.
 40
0.08
 41
0.32
  0
MTEXT
  5
43A
100
AcDbEntity
  8
0
100
AcDbMText
 62
2
  6
CONTINUOUS
  7
STANDARD
 71
3
 72
1
 10
16.38
 20
0.835443
 30
0.0
 11
1.0
 21
0.0
 31
0.0
 44
0.9
  1
PRO/E
 40
0.07
 41
0.35
  0
MTEXT
  5
43B
100
AcDbEntity
  8
0
100
AcDbMText
 62
2
  6
CONTINUOUS
  7
TEXTSTYLE_4
 71
2
 72
1
 10
15.03
 20
2.751049
 30
0.0
 11
1.0
 21
0.0
 31
0.0
 44
0.9
  1
BANNER ENGINEERING CORP.
 40
0.12
 41
2.6496
  0
MTEXT
  5
43C
100
AcDbEntity
  8
0
100
AcDbMText
 62
2
  6
CONTINUOUS
  7
TEXTSTYLE_2
 71
2
 72
1
 10
15.03
 20
2.5724
 30
0.0
 11
1.0
 21
0.0
 31
0.0
 44
0.9
  1
P.O. BOX 9414
 40
0.1
 41
1.04
  0
MTEXT
  5
43D
100
AcDbEntity
  8
0
100
AcDbMText
 62
2
  6
CONTINUOUS
  7
TEXTSTYLE_2
 71
2
 72
1
 10
9.485
 20
10.312
 30
0.0
 11
1.0
 21
0.0
 31
0.0
 44
0.9
  1
4
 40
0.1
 41
0.08
  0
MTEXT
  5
43E
100
AcDbEntity
  8
0
100
AcDbMText
 62
2
  6
CONTINUOUS
  7
TEXTSTYLE_2
 71
2
 72
1
 10
11.455
 20
10.312
 30
0.0
 11
1.0
 21
0.0
 31
0.0
 44
0.9
  1
3
 40
0.1
 41
0.08
  0
MTEXT
  5
43F
100
AcDbEntity
  8
0
100
AcDbMText
 62
2
  6
CONTINUOUS
  7
TEXTSTYLE_2
 71
2
 72
1
 10
13.425
 20
10.312
 30
0.0
 11
1.0
 21
0.0
 31
0.0
 44
0.9
  1
2
 40
0.1
 41
0.08
  0
MTEXT
  5
440
100
AcDbEntity
  8
0
100
AcDbMText
 62
2
  6
CONTINUOUS
  7
TEXTSTYLE_2
 71
2
 72
1
 10
15.395
 20
10.312
 30
0.0
 11
1.0
 21
0.0
 31
0.0
 44
0.9
  1
1
 40
0.1
 41
0.08
  0
MTEXT
  5
441
100
AcDbEntity
  8
0
100
AcDbMText
 62
2
  6
CONTINUOUS
  7
TEXTSTYLE_2
 71
2
 72
1
 10
3.575
 20
10.312
 30
0.0
 11
1.0
 21
0.0
 31
0.0
 44
0.9
  1
7
 40
0.1
 41
0.08
  0
MTEXT
  5
442
100
AcDbEntity
  8
0
100
AcDbMText
 62
2
  6
CONTINUOUS
  7
TEXTSTYLE_2
 71
2
 72
1
 10
5.545
 20
10.312
 30
0.0
 11
1.0
 21
0.0
 31
0.0
 44
0.9
  1
6
 40
0.1
 41
0.08
  0
MTEXT
  5
443
100
AcDbEntity
  8
0
100
AcDbMText
 62
2
  6
CONTINUOUS
  7
TEXTSTYLE_2
 71
2
 72
1
 10
7.515
 20
10.312
 30
0.0
 11
1.0
 21
0.0
 31
0.0
 44
0.9
  1
5
 40
0.1
 41
0.08
  0
MTEXT
  5
444
100
AcDbEntity
  8
0
100
AcDbMText
 62
2
  6
CONTINUOUS
  7
TEXTSTYLE_2
 71
2
 72
1
 10
1.605
 20
10.312
 30
0.0
 11
1.0
 21
0.0
 31
0.0
 44
0.9
  1
8
 40
0.1
 41
0.08
  0
MTEXT
  5
445
100
AcDbEntity
  8
0
100
AcDbMText
 62
2
  6
CONTINUOUS
  7
TEXTSTYLE_2
 71
2
 72
1
 10
1.605
 20
0.787
 30
0.0
 11
1.0
 21
0.0
 31
0.0
 44
0.9
  1
8
 40
0.1
 41
0.08
  0
MTEXT
  5
446
100
AcDbEntity
  8
0
100
AcDbMText
 62
2
  6
CONTINUOUS
  7
TEXTSTYLE_2
 71
2
 72
1
 10
3.575
 20
0.787
 30
0.0
 11
1.0
 21
0.0
 31
0.0
 44
0.9
  1
7
 40
0.1
 41
0.08
  0
MTEXT
  5
447
100
AcDbEntity
  8
0
100
AcDbMText
 62
2
  6
CONTINUOUS
  7
TEXTSTYLE_2
 71
2
 72
1
 10
5.545
 20
0.787
 30
0.0
 11
1.0
 21
0.0
 31
0.0
 44
0.9
  1
6
 40
0.1
 41
0.08
  0
MTEXT
  5
448
100
AcDbEntity
  8
0
100
AcDbMText
 62
2
  6
CONTINUOUS
  7
TEXTSTYLE_2
 71
2
 72
1
 10
7.515
 20
0.787
 30
0.0
 11
1.0
 21
0.0
 31
0.0
 44
0.9
  1
5
 40
0.1
 41
0.08
  0
MTEXT
  5
449
100
AcDbEntity
  8
0
100
AcDbMText
 62
2
  6
CONTINUOUS
  7
TEXTSTYLE_2
 71
2
 72
1
 10
9.485
 20
0.787
 30
0.0
 11
1.0
 21
0.0
 31
0.0
 44
0.9
  1
4
 40
0.1
 41
0.08
  0
MTEXT
  5
44A
100
AcDbEntity
  8
0
100
AcDbMText
 62
2
  6
CONTINUOUS
  7
TEXTSTYLE_2
 71
2
 72
1
 10
11.455
 20
0.787
 30
0.0
 11
1.0
 21
0.0
 31
0.0
 44
0.9
  1
3
 40
0.1
 41
0.08
  0
MTEXT
  5
44B
100
AcDbEntity
  8
0
100
AcDbMText
 62
2
  6
CONTINUOUS
  7
TEXTSTYLE_2
 71
2
 72
1
 10
13.425
 20
0.787
 30
0.0
 11
1.0
 21
0.0
 31
0.0
 44
0.9
  1
2
 40
0.1
 41
0.08
  0
MTEXT
  5
44C
100
AcDbEntity
  8
0
100
AcDbMText
 62
2
  6
CONTINUOUS
  7
TEXTSTYLE_2
 71
2
 72
1
 10
15.395
 20
0.787
 30
0.0
 11
1.0
 21
0.0
 31
0.0
 44
0.9
  1
1
 40
0.1
 41
0.08
  0
MTEXT
  5
44D
100
AcDbEntity
  8
0
100
AcDbMText
 62
2
  6
CONTINUOUS
  7
TEXTSTYLE_2
 71
3
 72
1
 10
0.52
 20
4.3995
 30
0.0
 11
1.0
 21
0.0
 31
0.0
 44
0.9
  1
B
 40
0.1
 41
0.08
  0
MTEXT
  5
44E
100
AcDbEntity
  8
0
100
AcDbMText
 62
2
  6
CONTINUOUS
  7
TEXTSTYLE_2
 71
3
 72
1
 10
0.52
 20
2.0995
 30
0.0
 11
1.0
 21
0.0
 31
0.0
 44
0.9
  1
A
 40
0.1
 41
0.08
  0
MTEXT
  5
44F
100
AcDbEntity
  8
0
100
AcDbMText
 62
2
  6
CONTINUOUS
  7
TEXTSTYLE_2
 71
3
 72
1
 10
0.52
 20
8.9995
 30
0.0
 11
1.0
 21
0.0
 31
0.0
 44
0.9
  1
D
 40
0.1
 41
0.08
  0
MTEXT
  5
450
100
AcDbEntity
  8
0
100
AcDbMText
 62
2
  6
CONTINUOUS
  7
TEXTSTYLE_2
 71
3
 72
1
 10
0.52
 20
6.6995
 30
0.0
 11
1.0
 21
0.0
 31
0.0
 44
0.9
  1
C
 40
0.1
 41
0.08
  0
MTEXT
  5
451
100
AcDbEntity
  8
0
100
AcDbMText
 62
2
  6
CONTINUOUS
  7
TEXTSTYLE_2
 71
1
 72
1
 10
16.48
 20
8.9995
 30
0.0
 11
1.0
 21
0.0
 31
0.0
 44
0.9
  1
D
 40
0.1
 41
0.08
  0
MTEXT
  5
452
100
AcDbEntity
  8
0
100
AcDbMText
 62
2
  6
CONTINUOUS
  7
TEXTSTYLE_2
 71
1
 72
1
 10
16.48
 20
6.6995
 30
0.0
 11
1.0
 21
0.0
 31
0.0
 44
0.9
  1
C
 40
0.1
 41
0.08
  0
MTEXT
  5
453
100
AcDbEntity
  8
0
100
AcDbMText
 62
2
  6
CONTINUOUS
  7
TEXTSTYLE_2
 71
1
 72
1
 10
16.48
 20
4.3995
 30
0.0
 11
1.0
 21
0.0
 31
0.0
 44
0.9
  1
B
 40
0.1
 41
0.08
  0
MTEXT
  5
454
100
AcDbEntity
  8
0
100
AcDbMText
 62
2
  6
CONTINUOUS
  7
TEXTSTYLE_2
 71
1
 72
1
 10
16.48
 20
2.0995
 30
0.0
 11
1.0
 21
0.0
 31
0.0
 44
0.9
  1
A
 40
0.1
 41
0.08
  0
MTEXT
  5
455
100
AcDbEntity
  8
0
100
AcDbMText
 62
2
  6
CONTINUOUS
  7
STANDARD
 71
1
 72
1
 10
14.819264911
 20
1.0627941725
 30
0.0
 11
1.0
 21
0.0
 31
0.0
 44
0.9
  1
1 OF 1
 40
0.1
 41
0.6
  0
MTEXT
  5
456
100
AcDbEntity
  8
0
100
AcDbMText
 62
7
  6
CONTINUOUS
  7
STANDARD
 71
1
 72
1
 10
13.8911999818
 20
1.3747321586
 30
0.0
 11
1.0
 21
0.0
 31
0.0
 44
0.9
  1
155322
 40
0.12
 41
0.72
  0
MTEXT
  5
457
100
AcDbEntity
  8
0
100
AcDbMText
 62
2
  6
CONTINUOUS
  7
STANDARD
 71
1
 72
1
 10
12.644264911
 20
1.0627941725
 30
0.0
 11
1.0
 21
0.0
 31
0.0
 44
0.9
  1
1:1
 40
0.1
 41
0.3
  0
MTEXT
  5
458
100
AcDbEntity
  8
0
100
AcDbMText
 62
2
  6
CONTINUOUS
  7
STANDARD
 71
1
 72
1
 10
1.0597007627
 20
1.6202922458
 30
0.0
 11
1.0
 21
0.0
 31
0.0
 44
0.9
  1
NOTES:\P1. ALL DIMENSIONS ARE MILLIMETERS [INCHES] UNLESS OTHERWISE NOTED.
 40
0.1
 41
6.6
  0
INSERT
  5
459
100
AcDbEntity
  8
0
100
AcDbBlockReference
 62
2
  6
CONTINUOUS
  2
BANNER_LOGO_TITLEBLOCK_BL0
 10
12.9086867042
 20
2.5403783405
  0
DIMENSION
  5
45A
100
AcDbEntity
  8
SCHEME_DIMS
100
AcDbDimension
 62
2
  6
CONTINUOUS
  2
*D0
 10
5.7884242376
 20
5.6646923443
 11
5.7134242376
 21
5.0536923443
 70
160
 71
2
 42
31.0388
  3
DIMSTYLE_1
100
AcDbAlignedDimension
 13
4.8230567242
 23
4.4426923443
 14
5.4494242376
 24
5.6646923443
 50
90.0
100
AcDbRotatedDimension
  0
DIMENSION
  5
45B
100
AcDbEntity
  8
SCHEME_DIMS
100
AcDbDimension
 62
2
  6
CONTINUOUS
  2
*D1
 10
3.7119242376
 20
7.3494144726
 11
4.4410909043
 21
7.2744144726
 70
160
 71
2
 42
40.005
  1
%%c<>
  3
DIMSTYLE_1
100
AcDbAlignedDimension
 13
5.2869242376
 23
8.4322180285
 14
3.7119242376
 24
8.4422991848
 50
180.0
100
AcDbRotatedDimension
  0
DIMENSION
  5
45C
100
AcDbEntity
  8
SCHEME_DIMS
100
AcDbDimension
 62
2
  6
CONTINUOUS
  2
*D2
 10
8.6179548157
 20
6.9536923443
 11
7.2029548157
 21
6.8786923443
 70
160
 71
3
 42
14.986
  3
DIMSTYLE_1
100
AcDbAlignedDimension
 13
8.0279548157
 23
6.0712852202
 14
8.6179548157
 24
6.4677278897
100
AcDbRotatedDimension
  0
DIMENSION
  5
45D
100
AcDbEntity
  8
SCHEME_DIMS
100
AcDbDimension
 62
2
  6
CONTINUOUS
  2
*D3
 10
9.2109548157
 20
7.4536923443
 11
8.5444548157
 21
7.3786923443
 70
160
 71
2
 42
30.0482
  3
DIMSTYLE_1
100
AcDbAlignedDimension
 13
8.0279548157
 23
6.0566078209
 14
9.2109548157
 24
6.4715501291
100
AcDbRotatedDimension
  0
DIMENSION
  5
45E
100
AcDbEntity
  8
SCHEME_DIMS
100
AcDbDimension
 62
2
  6
CONTINUOUS
  2
*D4
 10
11.120446474
 20
6.4536923443
 11
10.995446474
 21
5.4481923443
 70
160
 71
2
 42
51.0794
  3
DIMSTYLE_1
100
AcDbAlignedDimension
 13
12.0858139874
 23
4.4426923443
 14
12.1420920966
 24
6.4536923443
 50
90.0
100
AcDbRotatedDimension
  0
LINE
  5
45F
100
AcDbEntity
  8
0
100
AcDbLine
 62
2
  6
CONTINUOUS
 10
16.38
 20
0.887
 11
12.03
 21
0.887
  0
LINE
  5
460
100
AcDbEntity
  8
0
100
AcDbLine
 62
2
  6
CONTINUOUS
 10
16.38
 20
0.887
 11
16.38
 21
2.807
  0
LINE
  5
461
100
AcDbEntity
  8
0
100
AcDbLine
 62
2
  6
CONTINUOUS
 10
16.38
 20
2.807
 11
12.03
 21
2.807
  0
LINE
  5
462
100
AcDbEntity
  8
0
100
AcDbLine
 62
2
  6
CONTINUOUS
 10
12.03
 20
0.887
 11
12.03
 21
2.807
  0
MTEXT
  5
463
100
AcDbEntity
  8
NOTES
100
AcDbMText
 62
7
  6
CONTINUOUS
  7
STANDARD
 71
2
 72
1
 10
16.155
 20
1.367
 30
0.0
 11
1.0
 21
0.0
 31
0.0
 44
0.9
  1
1
 40
0.1
 41
0.1
  0
MTEXT
  5
464
100
AcDbEntity
  8
NOTES
100
AcDbMText
 62
7
  6
CONTINUOUS
  7
STANDARD
 71
2
 72
1
 10
14.205
 20
1.967
 30
0.0
 11
1.0
 21
0.0
 31
0.0
 44
0.9
  1
T18 AW3FF/RW3FF CABLE/PIGTAIL\PWEB CAD DRAWINGS 2D/3D
 40
0.1
 41
2.9
  0
MTEXT
  5
465
100
AcDbEntity
  8
NOTES
100
AcDbMText
 62
2
  6
CONTINUOUS
  7
STANDARD
 71
2
 72
1
 10
14.5965493964
 20
6.6563190207
 30
0.0
 11
1.0
 21
0.0
 31
0.0
 44
0.9
  1
ISOMETRIC VIEW\PSCALE  1:1
 40
0.1
 41
1.4
  0
LEADER
  5
466
100
AcDbEntity
  8
NOTES
100
AcDbLeader
 62
2
  6
CONTINUOUS
  3
STANDARD
 71
1
 72
0
 73
0
 75
0
 40
0.1
 41
0.9
 76
3
 10
8.2240939341
 20
5.3257084051
 30
0.0
 10
7.8498281869
 20
4.9095943549
 30
0.0
 10
7.5998281869
 20
4.9095943549
 30
0.0
340
467
1001
ACAD
1000
DSTYLE
1002
{
1070
77
1070
0
1002
}
  0
MTEXT
  5
467
102
{ACAD_REACTORS
330
466
102
}
100
AcDbEntity
  8
NOTES
100
AcDbMText
 62
2
  6
CONTINUOUS
  7
STANDARD
 71
3
 72
1
 10
7.5998281869
 20
4.9595943549
 30
0.0
 11
1.0
 21
0.0
 31
0.0
 44
0.9
  1
M18 X 1 G
 40
0.1
 41
0.9
  0
LINE
  5
468
100
AcDbEntity
  8
0
100
AcDbLine
 62
2
  6
CONTINUOUS
 10
0.47
 20
5.586103
 11
0.47
 21
5.412897
  0
LINE
  5
469
100
AcDbEntity
  8
0
100
AcDbLine
 62
2
  6
CONTINUOUS
 10
0.62
 20
10.112
 11
0.62
 21
0.887
  0
LINE
  5
46A
100
AcDbEntity
  8
0
100
AcDbLine
 62
2
  6
CONTINUOUS
 10
2.59
 20
0.887
 11
2.59
 21
0.637
  0
LINE
  5
46B
100
AcDbEntity
  8
0
100
AcDbLine
 62
2
  6
CONTINUOUS
 10
2.59
 20
10.112
 11
2.59
 21
10.362
  0
LINE
  5
46C
100
AcDbEntity
  8
0
100
AcDbLine
 62
2
  6
CONTINUOUS
 10
8.413397
 20
0.737
 11
8.586603
 21
0.737
  0
LINE
  5
46D
100
AcDbEntity
  8
0
100
AcDbLine
 62
7
  6
CONTINUOUS
 10
11.1389508475
 20
1.425992839
 11
11.7453418475
 21
1.495385839
  0
LINE
  5
46E
100
AcDbEntity
  8
0
100
AcDbLine
 62
2
  6
CONTINUOUS
 10
0.62
 20
0.887
 11
16.38
 21
0.887
  0
LINE
  5
46F
100
AcDbEntity
  8
0
100
AcDbLine
 62
2
  6
CONTINUOUS
 10
12.03
 20
1.137
 11
16.38
 21
1.137
  0
LINE
  5
470
100
AcDbEntity
  8
0
100
AcDbLine
 62
7
  6
CONTINUOUS
 10
10.2121898475
 20
1.243294839
 11
10.4342808475
 21
1.243294839
  0
LINE
  5
471
100
AcDbEntity
  8
0
100
AcDbLine
 62
7
  6
CONTINUOUS
 10
10.4842808475
 20
1.243294839
 11
10.5842808475
 21
1.243294839
  0
LINE
  5
472
100
AcDbEntity
  8
0
100
AcDbLine
 62
7
  6
CONTINUOUS
 10
10.6342808475
 20
1.243294839
 11
10.8563718475
 21
1.243294839
  0
LINE
  5
473
100
AcDbEntity
  8
0
100
AcDbLine
 62
7
  6
CONTINUOUS
 10
11.0389508475
 20
1.243294839
 11
11.3171028475
 21
1.243294839
  0
LINE
  5
474
100
AcDbEntity
  8
0
100
AcDbLine
 62
7
  6
CONTINUOUS
 10
11.3671028475
 20
1.243294839
 11
11.5171888475
 21
1.243294839
  0
LINE
  5
475
100
AcDbEntity
  8
0
100
AcDbLine
 62
7
  6
CONTINUOUS
 10
11.5671888475
 20
1.243294839
 11
11.8453418475
 21
1.243294839
  0
LINE
  5
476
100
AcDbEntity
  8
0
100
AcDbLine
 62
7
  6
CONTINUOUS
 10
11.7453418475
 20
0.991203839
 11
11.1389508475
 21
1.060596839
  0
LINE
  5
477
100
AcDbEntity
  8
0
100
AcDbLine
 62
2
  6
CONTINUOUS
 10
4.56
 20
0.887
 11
4.56
 21
0.637
  0
LINE
  5
478
100
AcDbEntity
  8
0
100
AcDbLine
 62
2
  6
CONTINUOUS
 10
4.56
 20
10.112
 11
4.56
 21
10.362
  0
LINE
  5
479
100
AcDbEntity
  8
0
100
AcDbLine
 62
2
  6
CONTINUOUS
 10
0.47
 20
5.412897
 11
0.62
 21
5.4995
  0
LINE
  5
47A
100
AcDbEntity
  8
0
100
AcDbLine
 62
2
  6
CONTINUOUS
 10
12.03
 20
1.507
 11
16.38
 21
1.507
  0
LINE
  5
47B
100
AcDbEntity
  8
0
100
AcDbLine
 62
2
  6
CONTINUOUS
 10
10.03
 20
1.907
 11
12.03
 21
1.907
  0
LINE
  5
47C
100
AcDbEntity
  8
0
100
AcDbLine
 62
2
  6
CONTINUOUS
 10
0.62
 20
5.4995
 11
0.47
 21
5.586103
  0
LINE
  5
47D
100
AcDbEntity
  8
0
100
AcDbLine
 62
2
  6
CONTINUOUS
 10
12.03
 20
2.267
 11
16.38
 21
2.267
  0
LINE
  5
47E
100
AcDbEntity
  8
0
100
AcDbLine
 62
2
  6
CONTINUOUS
 10
8.5
 20
10.112
 11
8.586603
 21
10.262
  0
LINE
  5
47F
100
AcDbEntity
  8
0
100
AcDbLine
 62
2
  6
CONTINUOUS
 10
16.38
 20
2.807
 11
10.03
 21
2.807
  0
LINE
  5
480
100
AcDbEntity
  8
0
100
AcDbLine
 62
2
  6
CONTINUOUS
 10
0.62
 20
3.1995
 11
0.37
 21
3.1995
  0
LINE
  5
481
100
AcDbEntity
  8
0
100
AcDbLine
 62
2
  6
CONTINUOUS
 10
16.38
 20
3.1995
 11
16.63
 21
3.1995
  0
LINE
  5
482
100
AcDbEntity
  8
0
100
AcDbLine
 62
2
  6
CONTINUOUS
 10
8.586603
 20
0.737
 11
8.5
 21
0.887
  0
LINE
  5
483
100
AcDbEntity
  8
0
100
AcDbLine
 62
2
  6
CONTINUOUS
 10
6.53
 20
0.887
 11
6.53
 21
0.637
  0
LINE
  5
484
100
AcDbEntity
  8
0
100
AcDbLine
 62
2
  6
CONTINUOUS
 10
6.53
 20
10.112
 11
6.53
 21
10.362
  0
LINE
  5
485
100
AcDbEntity
  8
0
100
AcDbLine
 62
2
  6
CONTINUOUS
 10
8.5
 20
0.887
 11
8.5
 21
0.637
  0
LINE
  5
486
100
AcDbEntity
  8
0
100
AcDbLine
 62
2
  6
CONTINUOUS
 10
8.5
 20
10.112
 11
8.5
 21
10.362
  0
LINE
  5
487
100
AcDbEntity
  8
0
100
AcDbLine
 62
2
  6
CONTINUOUS
 10
0.62
 20
5.4995
 11
0.37
 21
5.4995
  0
LINE
  5
488
100
AcDbEntity
  8
0
100
AcDbLine
 62
2
  6
CONTINUOUS
 10
16.38
 20
5.4995
 11
16.63
 21
5.4995
  0
LINE
  5
489
100
AcDbEntity
  8
0
100
AcDbLine
 62
2
  6
CONTINUOUS
 10
10.03
 20
2.807
 11
10.03
 21
0.887
  0
LINE
  5
48A
100
AcDbEntity
  8
0
100
AcDbLine
 62
2
  6
CONTINUOUS
 10
10.47
 20
0.887
 11
10.47
 21
0.637
  0
LINE
  5
48B
100
AcDbEntity
  8
0
100
AcDbLine
 62
2
  6
CONTINUOUS
 10
10.47
 20
10.112
 11
10.47
 21
10.362
  0
LINE
  5
48C
100
AcDbEntity
  8
0
100
AcDbLine
 62
7
  6
CONTINUOUS
 10
10.5342808475
 20
1.143294839
 11
10.5342808475
 21
0.921203839
  0
LINE
  5
48D
100
AcDbEntity
  8
0
100
AcDbLine
 62
7
  6
CONTINUOUS
 10
10.5342808475
 20
1.193294839
 11
10.5342808475
 21
1.293294839
  0
LINE
  5
48E
100
AcDbEntity
  8
0
100
AcDbLine
 62
7
  6
CONTINUOUS
 10
10.5342808475
 20
1.343294839
 11
10.5342808475
 21
1.565385839
  0
LINE
  5
48F
100
AcDbEntity
  8
0
100
AcDbLine
 62
2
  6
CONTINUOUS
 10
8.5
 20
0.887
 11
8.413397
 21
0.737
  0
LINE
  5
490
100
AcDbEntity
  8
0
100
AcDbLine
 62
2
  6
CONTINUOUS
 10
0.62
 20
7.7995
 11
0.37
 21
7.7995
  0
LINE
  5
491
100
AcDbEntity
  8
0
100
AcDbLine
 62
2
  6
CONTINUOUS
 10
16.38
 20
7.7995
 11
16.63
 21
7.7995
  0
LINE
  5
492
100
AcDbEntity
  8
0
100
AcDbLine
 62
2
  6
CONTINUOUS
 10
8.413397
 20
10.262
 11
8.5
 21
10.112
  0
LINE
  5
493
100
AcDbEntity
  8
0
100
AcDbLine
 62
7
  6
CONTINUOUS
 10
11.1389508475
 20
1.060596839
 11
11.1389508475
 21
1.425992839
  0
LINE
  5
494
100
AcDbEntity
  8
0
100
AcDbLine
 62
7
  6
CONTINUOUS
 10
11.7453418475
 20
1.495385839
 11
11.7453418475
 21
0.991203839
  0
LINE
  5
495
100
AcDbEntity
  8
0
100
AcDbLine
 62
1
  6
CONTINUOUS
 10
12.03
 20
2.807
 11
12.03
 21
0.887
  0
LINE
  5
496
100
AcDbEntity
  8
0
100
AcDbLine
 62
2
  6
CONTINUOUS
 10
12.44
 20
0.887
 11
12.44
 21
0.637
  0
LINE
  5
497
100
AcDbEntity
  8
0
100
AcDbLine
 62
2
  6
CONTINUOUS
 10
12.44
 20
10.112
 11
12.44
 21
10.362
  0
LINE
  5
498
100
AcDbEntity
  8
0
100
AcDbLine
 62
2
  6
CONTINUOUS
 10
16.53
 20
5.586103
 11
16.38
 21
5.4995
  0
LINE
  5
499
100
AcDbEntity
  8
0
100
AcDbLine
 62
2
  6
CONTINUOUS
 10
16.38
 20
5.4995
 11
16.53
 21
5.412897
  0
LINE
  5
49A
100
AcDbEntity
  8
0
100
AcDbLine
 62
2
  6
CONTINUOUS
 10
12.83
 20
1.507
 11
12.83
 21
1.137
  0
LINE
  5
49B
100
AcDbEntity
  8
0
100
AcDbLine
 62
2
  6
CONTINUOUS
 10
16.38
 20
10.112
 11
0.62
 21
10.112
  0
LINE
  5
49C
100
AcDbEntity
  8
0
100
AcDbLine
 62
2
  6
CONTINUOUS
 10
8.586603
 20
10.262
 11
8.413397
 21
10.262
  0
LINE
  5
49D
100
AcDbEntity
  8
0
100
AcDbLine
 62
2
  6
CONTINUOUS
 10
14.205
 20
1.137
 11
14.205
 21
0.887
  0
LINE
  5
49E
100
AcDbEntity
  8
0
100
AcDbLine
 62
2
  6
CONTINUOUS
 10
14.41
 20
0.887
 11
14.41
 21
0.637
  0
LINE
  5
49F
100
AcDbEntity
  8
0
100
AcDbLine
 62
2
  6
CONTINUOUS
 10
14.41
 20
10.112
 11
14.41
 21
10.362
  0
LINE
  5
4A0
100
AcDbEntity
  8
0
100
AcDbLine
 62
2
  6
CONTINUOUS
 10
15.58
 20
1.507
 11
15.58
 21
1.137
  0
LINE
  5
4A1
100
AcDbEntity
  8
0
100
AcDbLine
 62
2
  6
CONTINUOUS
 10
16.38
 20
0.887
 11
16.38
 21
10.112
  0
LINE
  5
4A2
100
AcDbEntity
  8
0
100
AcDbLine
 62
2
  6
CONTINUOUS
 10
16.53
 20
5.412897
 11
16.53
 21
5.586103
  0
LWPOLYLINE
  5
4A3
100
AcDbEntity
  8
0
100
AcDbPolyline
 62
7
  6
CONTINUOUS
 90
8
 70
0
 10
14.1046433098
 20
9.0571075566
 10
14.049008846
 20
9.015902744
 10
14.0017941548
 20
8.9609362359
 10
13.9647422045
 20
8.8930787206
 10
13.9390297618
 20
8.8130990164
 10
13.925800938
 20
8.723369511
 10
13.9253248511
 20
8.6264414699
 10
13.937346292
 20
8.5245172709
  0
LINE
  5
4A4
100
AcDbEntity
  8
0
100
AcDbLine
 62
7
  6
CONTINUOUS
 10
14.3817889651
 20
9.2188399045
 11
14.3615652669
 21
9.2054406323
  0
LINE
  5
4A5
100
AcDbEntity
  8
0
100
AcDbLine
 62
7
  6
CONTINUOUS
 10
14.4383534281
 20
9.2515060814
 11
14.3817851211
 21
9.2188465491
  0
LINE
  5
4A6
100
AcDbEntity
  8
0
100
AcDbLine
 62
7
  6
CONTINUOUS
 10
14.3733427679
 20
9.2122403351
 11
14.1046433098
 21
9.0571075566
  0
LWPOLYLINE
  5
4A7
100
AcDbEntity
  8
0
100
AcDbPolyline
 62
7
  6
CONTINUOUS
 90
23
 70
0
 10
14.3733345553
 20
9.2122352658
 10
14.4307732039
 20
9.2368871166
 10
14.4979868879
 20
9.2485351246
 10
14.5707780773
 20
9.2452956943
 10
14.6476380874
 20
9.2272359668
 10
14.7269739022
 20
9.1947302517
 10
14.8071411918
 20
9.1484522689
 10
14.8864783929
 20
9.0893611857
 10
14.9633411477
 20
9.0186817346
 10
15.0361363805
 20
8.9378788355
 10
15.1033553318
 20
8.8486272143
 10
15.1636047849
 20
8.7527767532
 10
15.2156360547
 20
8.6523139645
 10
15.2583706077
 20
8.5493213335
 10
15.2909229443
 20
8.4459328788
 10
15.3126180659
 20
8.3442925722
 10
15.323006589
 20
8.2465060446
 10
15.3218728707
 20
8.1545970689
 10
15.3092391717
 20
8.0704715751
 10
15.2853675028
 20
7.9958774515
 10
15.2507521052
 20
7.9323593173
 10
15.2061127619
 20
7.8812366954
 10
15.1608196308
 20
7.8482397328
  0
LINE
  5
4A8
100
AcDbEntity
  8
0
100
AcDbLine
 62
7
  6
CONTINUOUS
 10
13.8088126367
 20
8.34346714
 11
13.8004670516
 21
8.3107862926
  0
LINE
  5
4A9
100
AcDbEntity
  8
0
100
AcDbLine
 62
7
  6
CONTINUOUS
 10
13.8085652884
 20
8.3353468988
 11
13.8034065096
 21
8.316727132
  0
LWPOLYLINE
  5
4AA
100
AcDbEntity
  8
0
100
AcDbPolyline
 62
7
  6
CONTINUOUS
 90
3
 70
0
 10
13.7891429815
 20
8.2754487117
 10
13.7978157171
 20
8.3054277701
 10
13.8106141062
 20
8.3312941621
  0
LINE
  5
4AB
100
AcDbEntity
  8
0
100
AcDbLine
 62
7
  6
CONTINUOUS
 10
13.8503005879
 20
8.3407994359
 11
13.8513873073
 21
8.3428630436
  0
LINE
  5
4AC
100
AcDbEntity
  8
0
100
AcDbLine
 62
7
  6
CONTINUOUS
 10
13.8584613084
 20
8.303670192
 11
13.8584613084
 21
8.0587194669
  0
LINE
  5
4AD
100
AcDbEntity
  8
0
100
AcDbLine
 62
9
  6
CONTINUOUS
 10
13.8796744235
 20
8.0709667915
 11
13.8796744235
 21
8.3159175166
  0
LINE
  5
4AE
100
AcDbEntity
  8
0
100
AcDbLine
 62
9
  6
CONTINUOUS
 10
13.8938165591
 20
8.0628018013
 11
13.8938165591
 21
8.3240825748
  0
LWPOLYLINE
  5
4AF
100
AcDbEntity
  8
0
100
AcDbPolyline
 62
7
  6
CONTINUOUS
 90
4
 70
0
 10
13.8593297213
 20
8.3439931095
 10
13.8690247938
 20
8.354659721
 10
13.8798281273
 20
8.3637390068
 10
13.8887760615
 20
8.3695614341
  0
LWPOLYLINE
  5
4B0
100
AcDbEntity
  8
0
100
AcDbPolyline
 62
7
  6
CONTINUOUS
 90
3
 70
0
 10
13.8513873073
 20
8.3428630436
 10
13.8730207453
 20
8.3660487021
 10
13.8857780601
 20
8.3747512556
  0
LWPOLYLINE
  5
4B1
100
AcDbEntity
  8
0
100
AcDbPolyline
 62
7
  6
CONTINUOUS
 90
3
 70
0
 10
13.8852578933
 20
8.428413469
 10
13.8858605394
 20
8.4290297203
 10
13.8992269775
 20
8.4379491497
  0
LWPOLYLINE
  5
4B2
100
AcDbEntity
  8
0
100
AcDbPolyline
 62
7
  6
CONTINUOUS
 90
4
 70
0
 10
13.8527467153
 20
8.3375626712
 10
13.8552336625
 20
8.3397121863
 10
13.8575095486
 20
8.3419344658
 10
13.8593297213
 20
8.3439931095
  0
LINE
  5
4B3
100
AcDbEntity
  8
0
100
AcDbLine
 62
7
  6
CONTINUOUS
 10
14.1696971961
 20
8.5923140078
 11
14.1820591823
 21
8.6012414212
  0
LINE
  5
4B4
100
AcDbEntity
  8
0
100
AcDbLine
 62
7
  6
CONTINUOUS
 10
14.2386611094
 20
8.633920371
 11
14.2277937476
 21
8.6261730052
  0
LWPOLYLINE
  5
4B5
100
AcDbEntity
  8
0
100
AcDbPolyline
 62
7
  6
CONTINUOUS
 90
4
 70
0
 10
13.870967144
 20
8.4216334283
 10
13.8525998602
 20
8.4086927926
 10
13.8273200885
 20
8.3801849502
 10
13.8088126367
 20
8.34346714
  0
LINE
  5
4B6
100
AcDbEntity
  8
0
100
AcDbLine
 62
7
  6
CONTINUOUS
 10
14.1416105849
 20
8.5765624926
 11
14.1537703388
 21
8.5849089451
  0
LINE
  5
4B7
100
AcDbEntity
  8
0
100
AcDbLine
 62
7
  6
CONTINUOUS
 10
14.1981814055
 20
8.6092239191
 11
14.2103369076
 21
8.6175674731
  0
LINE
  5
4B8
100
AcDbEntity
  8
0
100
AcDbLine
 62
7
  6
CONTINUOUS
 10
14.1132339045
 20
8.5601797363
 11
14.1254892817
 21
8.5685809681
  0
LINE
  5
4B9
100
AcDbEntity
  8
0
100
AcDbLine
 62
7
  6
CONTINUOUS
 10
14.0846251072
 20
8.543663459
 11
14.0972178353
 21
8.5522585429
  0
LINE
  5
4BA
100
AcDbEntity
  8
0
100
AcDbLine
 62
7
  6
CONTINUOUS
 10
14.0561278801
 20
8.5272126447
 11
14.0689414172
 21
8.5359332446
  0
LINE
  5
4BB
100
AcDbEntity
  8
0
100
AcDbLine
 62
7
  6
CONTINUOUS
 10
13.942743556
 20
8.4617655736
 11
13.9558141473
 21
8.4706195759
  0
LINE
  5
4BC
100
AcDbEntity
  8
0
100
AcDbLine
 62
7
  6
CONTINUOUS
 10
14.0274971885
 20
8.5106883781
 11
14.0406695669
 21
8.519610583
  0
LINE
  5
4BD
100
AcDbEntity
  8
0
100
AcDbLine
 62
7
  6
CONTINUOUS
 10
13.914404958
 20
8.4454025664
 11
13.9275184253
 21
8.454283129
  0
LINE
  5
4BE
100
AcDbEntity
  8
0
100
AcDbLine
 62
7
  6
CONTINUOUS
 10
13.9709201776
 20
8.4780294078
 11
13.9841071624
 21
8.4869544584
  0
LINE
  5
4BF
100
AcDbEntity
  8
0
100
AcDbLine
 62
7
  6
CONTINUOUS
 10
13.9991849867
 20
8.4943457753
 11
14.0123920693
 21
8.5032846595
  0
LINE
  5
4C0
100
AcDbEntity
  8
0
100
AcDbLine
 62
7
  6
CONTINUOUS
 10
14.1820591823
 20
8.6012414212
 11
14.1926472662
 21
8.6066994712
  0
LINE
  5
4C1
100
AcDbEntity
  8
0
100
AcDbLine
 62
7
  6
CONTINUOUS
 10
14.2498098508
 20
8.6396283607
 11
14.2386611094
 21
8.633920371
  0
LINE
  5
4C2
100
AcDbEntity
  8
0
100
AcDbLine
 62
7
  6
CONTINUOUS
 10
14.2103369076
 20
8.6175674731
 11
14.226118131
 21
8.6252569934
  0
LWPOLYLINE
  5
4C3
100
AcDbEntity
  8
0
100
AcDbPolyline
 62
7
  6
CONTINUOUS
 90
6
 70
0
 10
14.2400752741
 20
8.6347368345
 10
14.2565668079
 20
8.6427030213
 10
14.2930964482
 20
8.6514202404
 10
14.3334276422
 20
8.6503354448
 10
14.3763585711
 20
8.6394964642
 10
14.4025429938
 20
8.6285811012
  0
LWPOLYLINE
  5
4C4
100
AcDbEntity
  8
0
100
AcDbPolyline
 62
7
  6
CONTINUOUS
 90
6
 70
0
 10
13.8318318117
 20
8.0740936661
 10
13.8420130684
 20
8.0493216822
 10
13.8680200574
 20
7.9998593927
 10
13.8982319815
 20
7.9533393047
 10
13.9301064951
 20
7.9128192985
 10
13.9614218944
 20
7.8795159722
  0
LWPOLYLINE
  5
4C5
100
AcDbEntity
  8
0
100
AcDbPolyline
 62
7
  6
CONTINUOUS
 90
6
 70
0
 10
13.8106141062
 20
8.086343437
 10
13.7978157171
 20
8.1269878015
 10
13.7891429815
 20
8.1669810458
 10
13.7847641413
 20
8.2055473434
 10
13.7847641413
 20
8.2419385489
 10
13.7891429815
 20
8.2754487117
  0
LWPOLYLINE
  5
4C6
100
AcDbEntity
  8
0
100
AcDbPolyline
 62
7
  6
CONTINUOUS
 90
3
 70
0
 10
13.8479905189
 20
8.3342098137
 10
13.8502337287
 20
8.3356549521
 10
13.8527467153
 20
8.3375626712
  0
LINE
  5
4C7
100
AcDbEntity
  8
0
100
AcDbLine
 62
7
  6
CONTINUOUS
 10
13.8388982597
 20
8.3476239283
 11
13.8106141062
 21
8.3312941621
  0
LINE
  5
4C8
100
AcDbEntity
  8
0
100
AcDbLine
 62
7
  6
CONTINUOUS
 10
13.8887747243
 20
8.3695608422
 11
13.912109151
 21
8.3830328993
  0
LINE
  5
4C9
100
AcDbEntity
  8
0
100
AcDbLine
 62
7
  6
CONTINUOUS
 10
13.8938165591
 20
8.3240825748
 11
13.8584613084
 21
8.303670192
  0
LWPOLYLINE
  5
4CA
100
AcDbEntity
  8
0
100
AcDbPolyline
 62
7
  6
CONTINUOUS
 90
24
 70
0
 10
13.8887760615
 20
8.3695614341
 10
13.8916650189
 20
8.3711664431
 10
13.9044584839
 20
8.3768937911
 10
13.9181253282
 20
8.3808838568
 10
13.9325766876
 20
8.3831107313
 10
13.9477186047
 20
8.3835599581
 10
13.9634526384
 20
8.382228627
 10
13.9796765021
 20
8.3791253925
 10
13.9962847271
 20
8.3742704176
 10
14.0131693469
 20
8.3676952436
 10
14.0302205968
 20
8.3594425855
 10
14.047327583
 20
8.3495660823
 10
14.0643788325
 20
8.3381300918
 10
14.0812634514
 20
8.325209021
 10
14.0978716751
 20
8.3108868973
 10
14.114095537
 20
8.2952568459
 10
14.1298295685
 20
8.2784204856
 10
14.144971483
 20
8.2604872697
 10
14.1594228393
 20
8.2415737759
 10
14.1730896802
 20
8.221802951
 10
14.1858831414
 20
8.2013033128
 10
14.197720034
 20
8.1802081083
 10
14.208523315
 20
8.1586545877
 10
14.2182183843
 20
8.1367933307
  0
LWPOLYLINE
  5
4CB
100
AcDbEntity
  8
0
100
AcDbPolyline
 62
7
  6
CONTINUOUS
 90
3
 70
0
 10
13.9121109752
 20
8.3830336564
 10
13.9155113435
 20
8.3849099976
 10
13.9164830907
 20
8.3853293039
  0
LINE
  5
4CC
100
AcDbEntity
  8
0
100
AcDbLine
 62
7
  6
CONTINUOUS
 10
13.8838974978
 20
8.4281267794
 11
13.870967144
 21
8.4216334283
  0
LINE
  5
4CD
100
AcDbEntity
  8
0
100
AcDbLine
 62
7
  6
CONTINUOUS
 10
13.9121106126
 20
8.3830303728
 11
13.9169379788
 21
8.3854344719
  0
LINE
  5
4CE
100
AcDbEntity
  8
0
100
AcDbLine
 62
7
  6
CONTINUOUS
 10
14.1537703388
 20
8.5849089451
 11
14.1695585082
 21
8.5926009624
  0
LINE
  5
4CF
100
AcDbEntity
  8
0
100
AcDbLine
 62
7
  6
CONTINUOUS
 10
14.1254892817
 20
8.5685809681
 11
14.1413763446
 21
8.5763122619
  0
LINE
  5
4D0
100
AcDbEntity
  8
0
100
AcDbLine
 62
7
  6
CONTINUOUS
 10
14.0972178353
 20
8.5522585429
 11
14.1134700219
 21
8.5601337312
  0
LINE
  5
4D1
100
AcDbEntity
  8
0
100
AcDbLine
 62
7
  6
CONTINUOUS
 10
14.0689414172
 20
8.5359332446
 11
14.0854263293
 21
8.5438994827
  0
LINE
  5
4D2
100
AcDbEntity
  8
0
100
AcDbLine
 62
7
  6
CONTINUOUS
 10
13.9558141473
 20
8.4706195759
 11
13.9724054751
 21
8.4786261985
  0
LINE
  5
4D3
100
AcDbEntity
  8
0
100
AcDbLine
 62
7
  6
CONTINUOUS
 10
13.9275184253
 20
8.454283129
 11
13.9442146149
 21
8.4623332322
  0
LINE
  5
4D4
100
AcDbEntity
  8
0
100
AcDbLine
 62
7
  6
CONTINUOUS
 10
13.9841071624
 20
8.4869544584
 11
14.0008860165
 21
8.4950333314
  0
LINE
  5
4D5
100
AcDbEntity
  8
0
100
AcDbLine
 62
7
  6
CONTINUOUS
 10
13.8857780601
 20
8.3747512556
 11
13.8996905136
 21
8.3814469403
  0
LINE
  5
4D6
100
AcDbEntity
  8
0
100
AcDbLine
 62
7
  6
CONTINUOUS
 10
14.0406695669
 20
8.519610583
 11
14.0575186829
 21
8.5277181359
  0
LINE
  5
4D7
100
AcDbEntity
  8
0
100
AcDbLine
 62
7
  6
CONTINUOUS
 10
14.0123920693
 20
8.5032846595
 11
14.0292270463
 21
8.5113854334
  0
LINE
  5
4D8
100
AcDbEntity
  8
0
100
AcDbLine
 62
7
  6
CONTINUOUS
 10
13.8992269775
 20
8.4379491497
 11
13.9180839387
 21
8.4468294261
  0
LINE
  5
4D9
100
AcDbEntity
  8
0
100
AcDbLine
 62
7
  6
CONTINUOUS
 10
13.8723813598
 20
8.4224499213
 11
13.8927008878
 21
8.4318605654
  0
LINE
  5
4DA
100
AcDbEntity
  8
0
100
AcDbLine
 62
7
  6
CONTINUOUS
 10
14.1926472662
 20
8.6066994712
 11
14.2293319048
 21
8.6172542611
  0
LINE
  5
4DB
100
AcDbEntity
  8
0
100
AcDbLine
 62
7
  6
CONTINUOUS
 10
14.202461959
 20
8.6017409833
 11
14.1834862759
 21
8.5962813589
  0
LINE
  5
4DC
100
AcDbEntity
  8
0
100
AcDbLine
 62
7
  6
CONTINUOUS
 10
14.2853698426
 20
8.6498386807
 11
14.2498098508
 21
8.6396283607
  0
LWPOLYLINE
  5
4DD
100
AcDbEntity
  8
0
100
AcDbPolyline
 62
7
  6
CONTINUOUS
 90
18
 70
0
 10
13.8676240643
 20
8.0640095548
 10
13.8690247938
 20
8.0608510723
 10
13.8798281273
 20
8.0392974536
 10
13.8916650189
 20
8.0182022615
 10
13.9044584839
 20
7.9977026267
 10
13.9181253282
 20
7.9779318055
 10
13.9325766876
 20
7.9590183161
 10
13.9477186047
 20
7.9410851049
 10
13.9634526384
 20
7.9242487499
 10
13.9796765021
 20
7.9086187041
 10
13.9962847271
 20
7.8942965864
 10
14.0131693469
 20
7.8813755219
 10
14.0302205968
 20
7.8699395381
 10
14.047327583
 20
7.8600630419
 10
14.0643788325
 20
7.8518103909
 10
14.0812634514
 20
7.8452352242
 10
14.0978716751
 20
7.8403802569
 10
14.114095537
 20
7.83727703
  0
LWPOLYLINE
  5
4DE
100
AcDbEntity
  8
0
100
AcDbPolyline
 62
7
  6
CONTINUOUS
 90
3
 70
0
 10
13.9614218944
 20
7.8795159722
 10
13.9996106036
 20
7.8468810425
 10
14.0387740528
 20
7.8207109777
  0
LINE
  5
4DF
100
AcDbEntity
  8
0
100
AcDbLine
 62
7
  6
CONTINUOUS
 10
14.3998272439
 20
7.445756864
 11
14.4261796708
 21
7.4117356382
  0
LWPOLYLINE
  5
4E0
100
AcDbEntity
  8
0
100
AcDbPolyline
 62
7
  6
CONTINUOUS
 90
5
 70
0
 10
14.3998272439
 20
7.445756864
 10
14.3928459504
 20
7.4555969209
 10
14.3811886142
 20
7.4785177624
 10
14.3752999216
 20
7.5021631201
 10
14.3745609487
 20
7.5141080767
  0
LWPOLYLINE
  5
4E1
100
AcDbEntity
  8
0
100
AcDbPolyline
 62
7
  6
CONTINUOUS
 90
5
 70
0
 10
13.8938165591
 20
8.0628018013
 10
13.8923767757
 20
8.0650101773
 10
13.8906627868
 20
8.0670818274
 10
13.8887133548
 20
8.06890438
 10
13.8867511179
 20
8.0702644219
  0
LINE
  5
4E2
100
AcDbEntity
  8
0
100
AcDbLine
 62
7
  6
CONTINUOUS
 10
13.937346292
 20
8.5245172709
 11
13.9505161902
 21
8.4670307463
  0
LINE
  5
4E3
100
AcDbEntity
  8
0
100
AcDbLine
 62
9
  6
CONTINUOUS
 10
13.9467758223
 20
8.5600812079
 11
13.961486195
 21
8.4734870269
  0
LINE
  5
4E4
100
AcDbEntity
  8
0
100
AcDbLine
 62
7
  6
CONTINUOUS
 10
14.1625184902
 20
8.1281266676
 11
14.1625184902
 21
7.8831759424
  0
LINE
  5
4E5
100
AcDbEntity
  8
0
100
AcDbLine
 62
9
  6
CONTINUOUS
 10
14.1837315465
 20
8.1567038654
 11
14.1837315465
 21
8.1403739922
  0
LWPOLYLINE
  5
4E6
100
AcDbEntity
  8
0
100
AcDbPolyline
 62
7
  6
CONTINUOUS
 90
4
 70
0
 10
14.1866605064
 20
8.1468531627
 10
14.1863520796
 20
8.1441802604
 10
14.1854223617
 20
8.1419973799
 10
14.1837316053
 20
8.1403739922
  0
LWPOLYLINE
  5
4E7
100
AcDbEntity
  8
0
100
AcDbPolyline
 62
7
  6
CONTINUOUS
 90
6
 70
0
 10
14.0387740528
 20
7.8207109777
 10
14.0812618409
 20
7.8011955224
 10
14.1222781728
 20
7.7907735785
 10
14.1605191248
 20
7.789688794
 10
14.1952162693
 20
7.7979510646
 10
14.2250676814
 20
7.8152467591
  0
LWPOLYLINE
  5
4E8
100
AcDbEntity
  8
0
100
AcDbPolyline
 62
7
  6
CONTINUOUS
 90
13
 70
0
 10
14.3723900413
 20
7.531402272
 10
14.384853948
 20
7.5008075953
 10
14.4068429411
 20
7.472056101
 10
14.4376082119
 20
7.4461268868
 10
14.476102086
 20
7.423902941
 10
14.5210137005
 20
7.4061410735
 10
14.5708136445
 20
7.3934461433
 10
14.6238060404
 20
7.386250461
 10
14.6781862959
 20
7.3847990671
 10
14.7321025565
 20
7.3891413868
 10
14.7837187687
 20
7.3991295479
 10
14.8312772042
 20
7.4144234154
 10
14.8731583176
 20
7.4345021749
  0
LWPOLYLINE
  5
4E9
100
AcDbEntity
  8
0
100
AcDbPolyline
 62
7
  6
CONTINUOUS
 90
10
 70
0
 10
14.3088898029
 20
7.9766664426
 10
14.3042337249
 20
8.0290309199
 10
14.2919686679
 20
8.0842266932
 10
14.2724492046
 20
8.1405343862
 10
14.2462531876
 20
8.1962026734
 10
14.2141633141
 20
8.2495009485
 10
14.1771462839
 20
8.2987676054
 10
14.1363225919
 20
8.3424648687
 10
14.0929290366
 20
8.3792296642
 10
14.0482786303
 20
8.4079151331
  0
LWPOLYLINE
  5
4EA
100
AcDbEntity
  8
0
100
AcDbPolyline
 62
7
  6
CONTINUOUS
 90
4
 70
0
 10
14.3103040106
 20
7.9774829309
 10
14.3084609508
 20
8.0082194168
 10
14.3038919533
 20
8.0401876031
 10
14.2966384246
 20
8.0730584646
  0
LINE
  5
4EB
100
AcDbEntity
  8
0
100
AcDbLine
 62
7
  6
CONTINUOUS
 10
14.2862543599
 20
7.9869255547
 11
14.2849740343
 21
7.9397921442
  0
LWPOLYLINE
  5
4EC
100
AcDbEntity
  8
0
100
AcDbPolyline
 62
7
  6
CONTINUOUS
 90
9
 70
0
 10
14.2817639915
 20
7.9401569889
 10
14.2826696638
 20
7.9600049881
 10
14.2796545641
 20
8.0102856261
 10
14.2696223783
 20
8.0626402228
 10
14.2536360281
 20
8.1141132116
 10
14.2332230262
 20
8.1624675943
 10
14.2103748259
 20
8.2055957849
 10
14.1869169717
 20
8.2425223721
 10
14.1640222866
 20
8.2734483217
  0
LWPOLYLINE
  5
4ED
100
AcDbEntity
  8
0
100
AcDbPolyline
 62
7
  6
CONTINUOUS
 90
7
 70
0
 10
14.2231640815
 20
7.8814183644
 10
14.2318368171
 20
7.9113974227
 10
14.2362156573
 20
7.9449075855
 10
14.2362156573
 20
7.981298791
 10
14.2318368171
 20
8.0198650886
 10
14.2231640815
 20
8.0598583329
 10
14.2103656924
 20
8.1005026974
  0
LINE
  5
4EE
100
AcDbEntity
  8
DATUM_CURVES
100
AcDbLine
 62
40
  6
CONTINUOUS
 10
14.0941425558
 20
7.8414913482
 11
14.0927298423
 21
7.8384048588
  0
LINE
  5
4EF
100
AcDbEntity
  8
DATUM_CURVES
100
AcDbLine
 62
40
  6
CONTINUOUS
 10
14.0927298423
 20
7.8384048588
 11
14.0911936204
 21
7.8350584405
  0
LINE
  5
4F0
100
AcDbEntity
  8
DATUM_CURVES
100
AcDbLine
 62
40
  6
CONTINUOUS
 10
14.0911936204
 20
7.8350584405
 11
14.0895325625
 21
7.8314513268
  0
LINE
  5
4F1
100
AcDbEntity
  8
DATUM_CURVES
100
AcDbLine
 62
40
  6
CONTINUOUS
 10
14.0895325625
 20
7.8314513268
 11
14.0879834365
 21
7.8280974584
  0
LINE
  5
4F2
100
AcDbEntity
  8
DATUM_CURVES
100
AcDbLine
 62
40
  6
CONTINUOUS
 10
14.0879834365
 20
7.8280974584
 11
14.086428292
 21
7.8247401152
  0
LINE
  5
4F3
100
AcDbEntity
  8
0
100
AcDbLine
 62
7
  6
CONTINUOUS
 10
13.8796744235
 20
8.0709667915
 11
13.8584613084
 21
8.0587194669
  0
LINE
  5
4F4
100
AcDbEntity
  8
0
100
AcDbLine
 62
7
  6
CONTINUOUS
 10
14.1837316053
 20
8.1403739922
 11
14.1625184902
 21
8.1281266676
  0
LWPOLYLINE
  5
4F5
100
AcDbEntity
  8
0
100
AcDbPolyline
 62
7
  6
CONTINUOUS
 90
6
 70
0
 10
14.5906203765
 20
7.6740253595
 10
14.6239248116
 20
7.6644696738
 10
14.6987630709
 20
7.6521344325
 10
14.7691532012
 20
7.6532591212
 10
14.8338133655
 20
7.6671724756
 10
14.8921397842
 20
7.6931155102
  0
LINE
  5
4F6
100
AcDbEntity
  8
0
100
AcDbLine
 62
7
  6
CONTINUOUS
 10
14.5905652547
 20
7.6740431687
 11
14.5906191753
 21
7.6740257474
  0
LWPOLYLINE
  5
4F7
100
AcDbEntity
  8
0
100
AcDbPolyline
 62
9
  6
CONTINUOUS
 90
13
 70
0
 10
14.4559653168
 20
7.7566113757
 10
14.523110904
 20
7.7229275293
 10
14.5891076117
 20
7.6999836217
 10
14.6528262178
 20
7.6881722297
 10
14.7131764793
 20
7.6876954494
 10
14.7691257865
 20
7.6985614386
 10
14.8197168312
 20
7.7205842773
 10
14.8640839866
 20
7.7533871485
 10
14.9014681185
 20
7.7964087862
 10
14.9312295739
 20
7.848913078
 10
14.9528591261
 20
7.910001661
 10
14.9659866875
 20
7.9786292927
 10
14.9703876418
 20
8.0536217352
  0
LINE
  5
4F8
100
AcDbEntity
  8
0
100
AcDbLine
 62
7
  6
CONTINUOUS
 10
13.8584613084
 20
8.0587194669
 11
13.8106141062
 21
8.086343437
  0
LINE
  5
4F9
100
AcDbEntity
  8
0
100
AcDbLine
 62
7
  6
CONTINUOUS
 10
14.1625184902
 20
7.8831759424
 11
14.2103656924
 21
7.8555519723
  0
LINE
  5
4FA
100
AcDbEntity
  8
0
100
AcDbLine
 62
9
  6
CONTINUOUS
 10
13.879674333
 20
8.0709666347
 11
13.8938165591
 21
8.0628018013
  0
LWPOLYLINE
  5
4FB
100
AcDbEntity
  8
0
100
AcDbPolyline
 62
9
  6
CONTINUOUS
 90
4
 70
0
 10
14.3715733377
 20
7.794852218
 10
14.3938136856
 20
7.780161835
 10
14.4219624316
 20
7.7670901857
 10
14.4559653168
 20
7.7566113757
  0
LINE
  5
4FC
100
AcDbEntity
  8
0
100
AcDbLine
 62
7
  6
CONTINUOUS
 10
14.3715223296
 20
7.794892103
 11
14.3715733377
 21
7.794852218
  0
LWPOLYLINE
  5
4FD
100
AcDbEntity
  8
0
100
AcDbPolyline
 62
9
  6
CONTINUOUS
 90
5
 70
0
 10
14.4559653168
 20
7.7566113757
 10
14.4925631136
 20
7.726329785
 10
14.5279453013
 20
7.7027226624
 10
14.5612361219
 20
7.6853923999
 10
14.5905652547
 20
7.6740431687
  0
LWPOLYLINE
  5
4FE
100
AcDbEntity
  8
0
100
AcDbPolyline
 62
9
  6
CONTINUOUS
 90
3
 70
0
 10
14.3147683274
 20
7.8612545306
 10
14.3827471906
 20
7.8049304047
 10
14.4559653168
 20
7.7566113757
  0
LWPOLYLINE
  5
4FF
100
AcDbEntity
  8
0
100
AcDbPolyline
 62
7
  6
CONTINUOUS
 90
3
 70
0
 10
14.3029301688
 20
7.8541129564
 10
14.3053500495
 20
7.8516160938
 10
14.3715206558
 20
7.7948934125
  0
LINE
  5
500
100
AcDbEntity
  8
0
100
AcDbLine
 62
7
  6
CONTINUOUS
 10
14.3715740231
 20
7.7948516647
 11
14.371892005
 21
7.7945015573
  0
LWPOLYLINE
  5
501
100
AcDbEntity
  8
0
100
AcDbPolyline
 62
9
  6
CONTINUOUS
 90
8
 70
0
 10
14.4559653168
 20
7.7566113757
 10
14.4880376891
 20
7.7179386082
 10
14.5219308642
 20
7.6872459313
 10
14.5560779079
 20
7.6647157984
 10
14.5894863286
 20
7.649780593
 10
14.6217267954
 20
7.6416678087
 10
14.6527849939
 20
7.6398014231
 10
14.6828262342
 20
7.6440638474
  0
LWPOLYLINE
  5
502
100
AcDbEntity
  8
0
100
AcDbPolyline
 62
7
  6
CONTINUOUS
 90
5
 70
0
 10
14.1837315465
 20
8.1567038654
 10
14.1849241751
 20
8.1543527954
 10
14.1858612921
 20
8.1518326207
 10
14.1864649615
 20
8.1492330965
 10
14.1866605064
 20
8.1468531627
  0
LINE
  5
503
100
AcDbEntity
  8
0
100
AcDbLine
 62
7
  6
CONTINUOUS
 10
14.2045273603
 20
8.1746575985
 11
14.2261607983
 21
8.1264923627
  0
LINE
  5
504
100
AcDbEntity
  8
0
100
AcDbLine
 62
7
  6
CONTINUOUS
 10
14.2261607983
 20
8.1264923627
 11
14.2271499903
 21
8.1234717581
  0
LWPOLYLINE
  5
505
100
AcDbEntity
  8
0
100
AcDbPolyline
 62
7
  6
CONTINUOUS
 90
6
 70
0
 10
14.2182183843
 20
8.1367933307
 10
14.2192652376
 20
8.1330794464
 10
14.2194010887
 20
8.1294647812
 10
14.2187086001
 20
8.1262792584
 10
14.2173021255
 20
8.1237327088
 10
14.21541551
 20
8.1220816951
  0
LWPOLYLINE
  5
506
100
AcDbEntity
  8
0
100
AcDbPolyline
 62
7
  6
CONTINUOUS
 90
4
 70
0
 10
14.2982181183
 20
8.0818336967
 10
14.3085304847
 20
8.0288614125
 10
14.3113438945
 20
7.9790315916
 10
14.3105292679
 20
7.9625210996
  0
LWPOLYLINE
  5
507
100
AcDbEntity
  8
0
100
AcDbPolyline
 62
7
  6
CONTINUOUS
 90
11
 70
0
 10
14.3385881641
 20
7.993812697
 10
14.334070845
 20
8.0452885014
 10
14.3221909075
 20
8.0995212522
 10
14.3031687649
 20
8.1551616921
 10
14.2776902128
 20
8.2100739078
 10
14.2459786059
 20
8.2634835234
 10
14.2090565145
 20
8.3132555554
 10
14.1686144754
 20
8.3571151332
 10
14.1260651999
 20
8.3937925571
 10
14.0815926319
 20
8.4230704813
 10
14.0631331519
 20
8.4326239074
  0
LWPOLYLINE
  5
508
100
AcDbEntity
  8
0
100
AcDbPolyline
 62
7
  6
CONTINUOUS
 90
11
 70
0
 10
14.3668723176
 20
8.0101424632
 10
14.3623686265
 20
8.0615303107
 10
14.350448718
 20
8.115944776
 10
14.3313425418
 20
8.1717653832
 10
14.3058305085
 20
8.2266764877
 10
14.2741309308
 20
8.2800115578
 10
14.237271743
 20
8.3296686529
 10
14.1969435615
 20
8.3734013427
 10
14.1542179103
 20
8.4102221045
 10
14.1095065675
 20
8.4396067777
 10
14.0914173054
 20
8.4489536735
  0
LWPOLYLINE
  5
509
100
AcDbEntity
  8
0
100
AcDbPolyline
 62
7
  6
CONTINUOUS
 90
11
 70
0
 10
14.3951564711
 20
8.0264722293
 10
14.3906430127
 20
8.0779231285
 10
14.3785959066
 20
8.132760901
 10
14.3593387301
 20
8.1888078881
 10
14.3337259413
 20
8.2437417566
 10
14.3020361733
 20
8.2969102663
 10
14.2653541711
 20
8.3462421243
 10
14.2253229739
 20
8.3896387315
 10
14.1825791821
 20
8.4264933383
 10
14.1378454065
 20
8.4559060753
 10
14.1197014589
 20
8.4652834397
  0
LINE
  5
50A
100
AcDbEntity
  8
0
100
AcDbLine
 62
7
  6
CONTINUOUS
 10
14.3695609487
 20
7.5549331975
 11
14.3695609487
 21
7.7965733101
  0
LINE
  5
50B
100
AcDbEntity
  8
0
100
AcDbLine
 62
7
  6
CONTINUOUS
 10
14.3745609487
 20
7.5260734283
 11
14.3745609487
 21
7.5141080767
  0
LINE
  5
50C
100
AcDbEntity
  8
0
100
AcDbLine
 62
7
  6
CONTINUOUS
 10
14.3094267063
 20
7.9486163203
 11
14.3103040106
 21
7.9774829309
  0
LINE
  5
50D
100
AcDbEntity
  8
0
100
AcDbLine
 62
7
  6
CONTINUOUS
 10
14.3377108597
 20
7.9649460865
 11
14.3385881641
 21
7.993812697
  0
LINE
  5
50E
100
AcDbEntity
  8
0
100
AcDbLine
 62
7
  6
CONTINUOUS
 10
14.3659950132
 20
7.9812758527
 11
14.3668723176
 21
8.0101424632
  0
LINE
  5
50F
100
AcDbEntity
  8
0
100
AcDbLine
 62
7
  6
CONTINUOUS
 10
14.3942791667
 20
7.9976056188
 11
14.3951564711
 21
8.0264722293
  0
LINE
  5
510
100
AcDbEntity
  8
0
100
AcDbLine
 62
7
  6
CONTINUOUS
 10
14.3430985155
 20
8.0125383539
 11
14.3407050618
 21
7.9657982317
  0
LWPOLYLINE
  5
511
100
AcDbEntity
  8
0
100
AcDbPolyline
 62
7
  6
CONTINUOUS
 90
4
 70
0
 10
14.3654581099
 20
8.0093259749
 10
14.3624401205
 20
7.9617783529
 10
14.351762614
 20
7.9196298093
 10
14.3338564977
 20
7.8849166204
  0
LWPOLYLINE
  5
512
100
AcDbEntity
  8
0
100
AcDbPolyline
 62
7
  6
CONTINUOUS
 90
4
 70
0
 10
14.3088898029
 20
7.9766664426
 10
14.3058683241
 20
7.9290958203
 10
14.2951796263
 20
7.8869308771
 10
14.277256188
 20
7.8522111079
  0
LWPOLYLINE
  5
513
100
AcDbEntity
  8
0
100
AcDbPolyline
 62
7
  6
CONTINUOUS
 90
4
 70
0
 10
14.3371739564
 20
7.9929962087
 10
14.3341519724
 20
7.9454222576
 10
14.323461658
 20
7.9032549513
 10
14.305535482
 20
7.8685338957
  0
LWPOLYLINE
  5
514
100
AcDbEntity
  8
0
100
AcDbPolyline
 62
7
  6
CONTINUOUS
 90
3
 70
0
 10
14.3937422634
 20
8.025655741
 10
14.3907216158
 20
7.9780905961
 10
14.3800355937
 20
7.9359295851
  0
LWPOLYLINE
  5
515
100
AcDbEntity
  8
0
100
AcDbPolyline
 62
7
  6
CONTINUOUS
 90
3
 70
0
 10
14.3148794137
 20
7.9810728123
 10
14.3101303222
 20
7.9359734817
 10
14.3031120018
 20
7.9134605663
  0
LWPOLYLINE
  5
516
100
AcDbEntity
  8
0
100
AcDbPolyline
 62
7
  6
CONTINUOUS
 90
3
 70
0
 10
14.3996559916
 20
8.0270890362
 10
14.3944375988
 20
7.9823349334
 10
14.3885491196
 20
7.9643230623
  0
LWPOLYLINE
  5
517
100
AcDbEntity
  8
0
100
AcDbPolyline
 62
7
  6
CONTINUOUS
 90
3
 70
0
 10
14.3705488164
 20
7.9961847149
 10
14.3629962411
 20
7.953239751
 10
14.3590106439
 20
7.9434773621
  0
LWPOLYLINE
  5
518
100
AcDbEntity
  8
0
100
AcDbPolyline
 62
7
  6
CONTINUOUS
 90
3
 70
0
 10
14.2849740343
 20
7.9397921442
 10
14.2762978993
 20
7.8981098307
 10
14.269946451
 20
7.8840523505
  0
LWPOLYLINE
  5
519
100
AcDbEntity
  8
0
100
AcDbPolyline
 62
7
  6
CONTINUOUS
 90
3
 70
0
 10
14.3407050618
 20
7.9657982317
 10
14.3308441243
 20
7.9247965765
 10
14.329401029
 20
7.9219129001
  0
LINE
  5
51A
100
AcDbEntity
  8
0
100
AcDbLine
 62
7
  6
CONTINUOUS
 10
14.2103656924
 20
7.8555519723
 11
14.2231640815
 21
7.8814183644
  0
LWPOLYLINE
  5
51B
100
AcDbEntity
  8
0
100
AcDbPolyline
 62
7
  6
CONTINUOUS
 90
8
 70
0
 10
14.2386498459
 20
7.8718817385
 10
14.251448235
 20
7.8977481305
 10
14.2601209706
 20
7.9277271889
 10
14.2644998108
 20
7.9612373516
 10
14.2644998108
 20
7.9976285572
 10
14.2601209706
 20
8.0361948548
 10
14.251448235
 20
8.0761880991
 10
14.2386498459
 20
8.1168324636
  0
LWPOLYLINE
  5
51C
100
AcDbEntity
  8
0
100
AcDbPolyline
 62
7
  6
CONTINUOUS
 90
4
 70
0
 10
14.2786655362
 20
7.8530206178
 10
14.2965917122
 20
7.8877416735
 10
14.3072820266
 20
7.9299089797
 10
14.3094267063
 20
7.9486163203
  0
LWPOLYLINE
  5
51D
100
AcDbEntity
  8
0
100
AcDbPolyline
 62
7
  6
CONTINUOUS
 90
4
 70
0
 10
14.2492368472
 20
7.8409128664
 10
14.2671647484
 20
7.8741654841
 10
14.2784397006
 20
7.9142394819
 10
14.2817639915
 20
7.9401569889
  0
LINE
  5
51E
100
AcDbEntity
  8
0
100
AcDbLine
 62
7
  6
CONTINUOUS
 10
14.21541551
 20
8.1220816951
 11
14.2224865484
 21
8.1261641366
  0
LINE
  5
51F
100
AcDbEntity
  8
0
100
AcDbLine
 62
7
  6
CONTINUOUS
 10
14.2386498459
 20
8.1168324636
 11
14.2103656924
 21
8.1005026974
  0
LWPOLYLINE
  5
520
100
AcDbEntity
  8
0
100
AcDbPolyline
 62
7
  6
CONTINUOUS
 90
7
 70
0
 10
14.114095537
 20
7.83727703
 10
14.1298295685
 20
7.8359457067
 10
14.144971483
 20
7.8363949413
 10
14.1594228393
 20
7.8386218236
 10
14.1730896802
 20
7.8426118971
 10
14.1858831414
 20
7.8483392529
 10
14.1887720448
 20
7.8499442336
  0
LWPOLYLINE
  5
521
100
AcDbEntity
  8
0
100
AcDbPolyline
 62
7
  6
CONTINUOUS
 90
4
 70
0
 10
13.8867511179
 20
8.0702644219
 10
13.8842810047
 20
8.0713330407
 10
13.8819257049
 20
8.0716193267
 10
13.8796744235
 20
8.0709667915
  0
LWPOLYLINE
  5
522
100
AcDbEntity
  8
0
100
AcDbPolyline
 62
7
  6
CONTINUOUS
 90
8
 70
0
 10
14.1640222866
 20
8.2734483217
 10
14.1984366521
 20
8.2257486801
 10
14.2280116072
 20
8.1745296032
 10
14.2518702512
 20
8.1213650744
 10
14.2693098042
 20
8.0678883357
 10
14.2798230138
 20
8.0157421394
 10
14.2831136059
 20
7.966528709
 10
14.2822451144
 20
7.9461913334
  0
LWPOLYLINE
  5
523
100
AcDbEntity
  8
0
100
AcDbPolyline
 62
7
  6
CONTINUOUS
 90
4
 70
0
 10
14.3235083704
 20
8.0885717425
 10
14.3307618991
 20
8.0557008809
 10
14.3353308966
 20
8.0237326947
 10
14.3371739564
 20
7.9929962087
  0
LWPOLYLINE
  5
524
100
AcDbEntity
  8
0
100
AcDbPolyline
 62
7
  6
CONTINUOUS
 90
3
 70
0
 10
14.3017536375
 20
8.0838749175
 10
14.3120660039
 20
8.0309026332
 10
14.3148794137
 20
7.9810728123
  0
LWPOLYLINE
  5
525
100
AcDbEntity
  8
0
100
AcDbPolyline
 62
9
  6
CONTINUOUS
 90
7
 70
0
 10
14.3710868751
 20
7.7952652575
 10
14.3726876421
 20
7.7854473782
 10
14.3792743477
 20
7.7711437911
 10
14.3902327981
 20
7.7604643511
 10
14.4063342158
 20
7.7539841775
 10
14.4282056146
 20
7.752481891
 10
14.4559653168
 20
7.7566113757
  0
LINE
  5
526
100
AcDbEntity
  8
0
100
AcDbLine
 62
7
  6
CONTINUOUS
 10
14.3695654694
 20
7.5549500286
 11
14.3723900413
 21
7.531402272
  0
LWPOLYLINE
  5
527
100
AcDbEntity
  8
0
100
AcDbPolyline
 62
7
  6
CONTINUOUS
 90
11
 70
0
 10
14.4517247781
 20
8.0591317617
 10
14.4471360638
 20
8.1110663658
 10
14.4348716649
 20
8.1664530922
 10
14.415388401
 20
8.2227441924
 10
14.3896517063
 20
8.2776117433
 10
14.3580352109
 20
8.3304219736
 10
14.3217027082
 20
8.37916685
 10
14.2817775889
 20
8.422408511
 10
14.2390521754
 20
8.4592252092
 10
14.1943488549
 20
8.4886017427
 10
14.1762697659
 20
8.497942972
  0
LWPOLYLINE
  5
528
100
AcDbEntity
  8
0
100
AcDbPolyline
 62
7
  6
CONTINUOUS
 90
11
 70
0
 10
14.4800089315
 20
8.0754615278
 10
14.4754145045
 20
8.1274327001
 10
14.4631341448
 20
8.1828590329
 10
14.4436263913
 20
8.2391871773
 10
14.4178685448
 20
8.2940679411
 10
14.3863215102
 20
8.3467485334
 10
14.3500879469
 20
8.3953746783
 10
14.3100450333
 20
8.4387544742
 10
14.2672864553
 20
8.4755928102
 10
14.2225514932
 20
8.5049768974
 10
14.2045539194
 20
8.5142727381
  0
LWPOLYLINE
  5
529
100
AcDbEntity
  8
0
100
AcDbPolyline
 62
7
  6
CONTINUOUS
 90
11
 70
0
 10
14.4234406246
 20
8.0428019955
 10
14.4189049
 20
8.0943963964
 10
14.4067714213
 20
8.149475123
 10
14.3874204115
 20
8.2056371461
 10
14.3617518951
 20
8.2605587241
 10
14.3300800192
 20
8.3136001429
 10
14.2935217855
 20
8.3627125571
 10
14.2535870495
 20
8.4059879722
 10
14.210842537
 20
8.4428388931
 10
14.1661119634
 20
8.472245647
 10
14.1479856124
 20
8.4816132058
  0
LINE
  5
52A
100
AcDbEntity
  8
0
100
AcDbLine
 62
7
  6
CONTINUOUS
 10
14.4225633202
 20
8.013935385
 11
14.4234406246
 21
8.0428019955
  0
LINE
  5
52B
100
AcDbEntity
  8
0
100
AcDbLine
 62
7
  6
CONTINUOUS
 10
14.4508474737
 20
8.0302651511
 11
14.4517247781
 21
8.0591317617
  0
LINE
  5
52C
100
AcDbEntity
  8
0
100
AcDbLine
 62
7
  6
CONTINUOUS
 10
14.4791316272
 20
8.0465949173
 11
14.4800089315
 21
8.0754615278
  0
LINE
  5
52D
100
AcDbEntity
  8
0
100
AcDbLine
 62
7
  6
CONTINUOUS
 10
14.5074157807
 20
8.0629246834
 11
14.508293085
 21
8.091791294
  0
LWPOLYLINE
  5
52E
100
AcDbEntity
  8
0
100
AcDbPolyline
 62
7
  6
CONTINUOUS
 90
3
 70
0
 10
14.4220264169
 20
8.0419855072
 10
14.4196591688
 20
7.9990129917
 10
14.4110827754
 20
7.9602246664
  0
LWPOLYLINE
  5
52F
100
AcDbEntity
  8
0
100
AcDbPolyline
 62
7
  6
CONTINUOUS
 90
4
 70
0
 10
14.5068788774
 20
8.0909748057
 10
14.5041228804
 20
8.0451975666
 10
14.4942959631
 20
8.0043494685
 10
14.4776523848
 20
7.9700947146
  0
LINE
  5
530
100
AcDbEntity
  8
0
100
AcDbLine
 62
7
  6
CONTINUOUS
 10
14.4280232697
 20
8.0584656998
 11
14.425157665
 21
8.0120422198
  0
LINE
  5
531
100
AcDbEntity
  8
0
100
AcDbLine
 62
7
  6
CONTINUOUS
 10
14.4785947239
 20
8.0746450395
 11
14.475603099
 21
8.0272716703
  0
LWPOLYLINE
  5
532
100
AcDbEntity
  8
0
100
AcDbPolyline
 62
7
  6
CONTINUOUS
 90
4
 70
0
 10
14.4503105704
 20
8.0583152733
 10
14.4472913901
 20
8.0107597998
 10
14.4366100793
 20
7.9686056988
 10
14.4186976382
 20
7.9338896502
  0
LINE
  5
533
100
AcDbEntity
  8
0
100
AcDbLine
 62
7
  6
CONTINUOUS
 10
14.5129183794
 20
8.1044100654
 11
14.5095810771
 21
8.0583090259
  0
LINE
  5
534
100
AcDbEntity
  8
0
100
AcDbLine
 62
7
  6
CONTINUOUS
 10
14.4772529346
 20
8.0296842887
 11
14.4791316272
 21
8.0465949173
  0
LINE
  5
535
100
AcDbEntity
  8
0
100
AcDbLine
 62
7
  6
CONTINUOUS
 10
14.4844029662
 20
8.0731241585
 11
14.4787160166
 21
8.0287208753
  0
LWPOLYLINE
  5
536
100
AcDbEntity
  8
0
100
AcDbPolyline
 62
7
  6
CONTINUOUS
 90
3
 70
0
 10
14.4551481367
 20
8.0423198144
 10
14.4471315937
 20
7.9997529649
 10
14.4436337449
 20
7.991537126
  0
LINE
  5
537
100
AcDbEntity
  8
0
100
AcDbLine
 62
7
  6
CONTINUOUS
 10
14.4674260173
 20
7.9888361906
 11
14.4772529346
 21
8.0296842887
  0
LWPOLYLINE
  5
538
100
AcDbEntity
  8
0
100
AcDbPolyline
 62
7
  6
CONTINUOUS
 90
3
 70
0
 10
14.475603099
 20
8.0272716703
 10
14.4649953413
 20
7.9852075166
 10
14.4471628142
 20
7.9504801829
  0
LWPOLYLINE
  5
539
100
AcDbEntity
  8
0
100
AcDbPolyline
 62
7
  6
CONTINUOUS
 90
3
 70
0
 10
14.425157665
 20
8.0120422198
 10
14.4148387829
 20
7.9714448052
 10
14.4139649195
 20
7.9697656607
  0
LWPOLYLINE
  5
53A
100
AcDbEntity
  8
0
100
AcDbPolyline
 62
7
  6
CONTINUOUS
 90
3
 70
0
 10
14.5095810771
 20
8.0583090259
 10
14.4988056257
 20
8.0181209297
 10
14.4986272387
 20
8.0177911871
  0
LINE
  5
53B
100
AcDbEntity
  8
0
100
AcDbLine
 62
7
  6
CONTINUOUS
 10
14.4787160166
 20
8.0287208753
 11
14.4730185719
 21
8.0120830757
  0
LINE
  5
53C
100
AcDbEntity
  8
0
100
AcDbLine
 62
7
  6
CONTINUOUS
 10
14.4110827754
 20
7.9602246664
 11
14.3965360577
 21
7.927172007
  0
LINE
  5
53D
100
AcDbEntity
  8
0
100
AcDbLine
 62
7
  6
CONTINUOUS
 10
14.450782439
 20
7.9545814368
 11
14.4674260173
 21
7.9888361906
  0
LWPOLYLINE
  5
53E
100
AcDbEntity
  8
0
100
AcDbPolyline
 62
7
  6
CONTINUOUS
 90
4
 70
0
 10
14.4202928684
 20
7.934966905
 10
14.4381253955
 20
7.9696942387
 10
14.4487331532
 20
8.0117583924
 10
14.4508474737
 20
8.0302651511
  0
LWPOLYLINE
  5
53F
100
AcDbEntity
  8
0
100
AcDbPolyline
 62
7
  6
CONTINUOUS
 90
4
 70
0
 10
14.3069865519
 20
7.8694033426
 10
14.3248926682
 20
7.9041165315
 10
14.3355701747
 20
7.946265075
 10
14.3377108597
 20
7.9649460865
  0
LWPOLYLINE
  5
540
100
AcDbEntity
  8
0
100
AcDbPolyline
 62
7
  6
CONTINUOUS
 90
4
 70
0
 10
14.3918276923
 20
7.9183763723
 10
14.4097401335
 20
7.9530924209
 10
14.4204214442
 20
7.995246522
 10
14.4225633202
 20
8.013935385
  0
LWPOLYLINE
  5
541
100
AcDbEntity
  8
0
100
AcDbPolyline
 62
7
  6
CONTINUOUS
 90
4
 70
0
 10
14.3352459128
 20
7.8856974842
 10
14.3531656479
 20
7.9204163072
 10
14.3638516699
 20
7.9625773182
 10
14.3659950132
 20
7.9812758527
  0
LINE
  5
542
100
AcDbEntity
  8
0
100
AcDbLine
 62
7
  6
CONTINUOUS
 10
14.3800355937
 20
7.9359295851
 11
14.3621158586
 21
7.9012107621
  0
LWPOLYLINE
  5
543
100
AcDbEntity
  8
0
100
AcDbPolyline
 62
7
  6
CONTINUOUS
 90
5
 70
0
 10
14.3498337864
 20
7.8854587434
 10
14.3696661119
 20
7.9116587292
 10
14.3842128296
 20
7.9447113885
 10
14.392789223
 20
7.9834997138
 10
14.3942791667
 20
7.9976056188
  0
LINE
  5
544
100
AcDbEntity
  8
0
100
AcDbLine
 62
7
  6
CONTINUOUS
 10
14.3965360577
 20
7.927172007
 11
14.3767037322
 21
7.9009720213
  0
LINE
  5
545
100
AcDbEntity
  8
0
100
AcDbLine
 62
7
  6
CONTINUOUS
 10
14.2828303186
 20
7.8433744959
 11
14.3069865519
 21
7.8694033426
  0
LINE
  5
546
100
AcDbEntity
  8
0
100
AcDbLine
 62
7
  6
CONTINUOUS
 10
14.277256188
 20
7.8522111079
 11
14.253084909
 21
7.8261906718
  0
LINE
  5
547
100
AcDbEntity
  8
0
100
AcDbLine
 62
7
  6
CONTINUOUS
 10
14.2544891811
 20
7.8269992314
 11
14.2786655362
 21
7.8530206178
  0
LINE
  5
548
100
AcDbEntity
  8
0
100
AcDbLine
 62
7
  6
CONTINUOUS
 10
14.305535482
 20
7.8685338957
 11
14.2813591269
 21
7.8425125093
  0
LWPOLYLINE
  5
549
100
AcDbEntity
  8
0
100
AcDbPolyline
 62
7
  6
CONTINUOUS
 90
3
 70
0
 10
14.2078417337
 20
7.8570091476
 10
14.2045273603
 20
7.8534569646
 10
14.1917700455
 20
7.8447544111
  0
LINE
  5
54A
100
AcDbEntity
  8
0
100
AcDbLine
 62
7
  6
CONTINUOUS
 10
14.2250676814
 20
7.8152467591
 11
14.2492368472
 21
7.8409128664
  0
LINE
  5
54B
100
AcDbEntity
  8
0
100
AcDbLine
 62
7
  6
CONTINUOUS
 10
14.2103656924
 20
8.1005026974
 11
14.1625184902
 21
8.1281266676
  0
LINE
  5
54C
100
AcDbEntity
  8
0
100
AcDbLine
 62
7
  6
CONTINUOUS
 10
13.8106141062
 20
8.3312941621
 11
13.8584613084
 21
8.303670192
  0
LINE
  5
54D
100
AcDbEntity
  8
0
100
AcDbLine
 62
9
  6
CONTINUOUS
 10
14.21541551
 20
8.1220816951
 11
14.1837316053
 21
8.1403739922
  0
LINE
  5
54E
100
AcDbEntity
  8
0
100
AcDbLine
 62
9
  6
CONTINUOUS
 10
13.8796744235
 20
8.3159175166
 11
13.8479905189
 21
8.3342098137
  0
LINE
  5
54F
100
AcDbEntity
  8
0
100
AcDbLine
 62
7
  6
CONTINUOUS
 10
14.2386498459
 20
8.1168324636
 11
14.2224865484
 21
8.1261641366
  0
LINE
  5
550
100
AcDbEntity
  8
0
100
AcDbLine
 62
7
  6
CONTINUOUS
 10
13.8388982597
 20
8.3476239283
 11
13.8541798092
 21
8.3388013211
  0
LINE
  5
551
100
AcDbEntity
  8
0
100
AcDbLine
 62
9
  6
CONTINUOUS
 10
14.2182183843
 20
8.1367933307
 11
14.1837315465
 21
8.1567038654
  0
LINE
  5
552
100
AcDbEntity
  8
0
100
AcDbLine
 62
9
  6
CONTINUOUS
 10
13.8938165591
 20
8.3240825748
 11
13.8593297213
 21
8.3439931095
  0
LWPOLYLINE
  5
553
100
AcDbEntity
  8
0
100
AcDbPolyline
 62
7
  6
CONTINUOUS
 90
7
 70
0
 10
14.1640222866
 20
8.2734483217
 10
14.1364841304
 20
8.306096665
 10
14.1069108974
 20
8.3357917722
 10
14.0772031832
 20
8.3607805037
 10
14.0478479005
 20
8.3811101052
 10
14.0166357221
 20
8.398145467
 10
13.9828148187
 20
8.4112066517
  0
LWPOLYLINE
  5
554
100
AcDbEntity
  8
0
100
AcDbPolyline
 62
7
  6
CONTINUOUS
 90
11
 70
0
 10
14.5931455455
 20
8.1407805924
 10
14.5884512593
 20
8.1933876109
 10
14.575892013
 20
8.2495020364
 10
14.5559554785
 20
8.3064757147
 10
14.5296803988
 20
8.3618607302
 10
14.4974335783
 20
8.4150733765
 10
14.4599292908
 20
8.464633725
 10
14.4188695034
 20
8.5082042457
 10
14.3754096705
 20
8.5446563519
 10
14.3303505806
 20
8.5732035611
 10
14.3176905333
 20
8.5795918028
  0
LWPOLYLINE
  5
555
100
AcDbEntity
  8
0
100
AcDbPolyline
 62
7
  6
CONTINUOUS
 90
11
 70
0
 10
14.508293085
 20
8.091791294
 10
14.5036983457
 20
8.1437644649
 10
14.4914171095
 20
8.1991929761
 10
14.4719080807
 20
8.255522985
 10
14.4461549826
 20
8.310393418
 10
14.4146700701
 20
8.36298204
 10
14.3784221439
 20
8.4116440521
 10
14.3383223424
 20
8.4550908746
 10
14.2955602988
 20
8.4919303963
 10
14.2508234396
 20
8.5213134581
 10
14.2328380728
 20
8.5306025043
  0
LWPOLYLINE
  5
556
100
AcDbEntity
  8
0
100
AcDbPolyline
 62
7
  6
CONTINUOUS
 90
11
 70
0
 10
14.5365772385
 20
8.1081210601
 10
14.5319876701
 20
8.1600611332
 10
14.5197208676
 20
8.2154538433
 10
14.5002342239
 20
8.2717497741
 10
14.4745197613
 20
8.3265717417
 10
14.4431578022
 20
8.3790072835
 10
14.4067806154
 20
8.4278841006
 10
14.3666171866
 20
8.4714102782
 10
14.3238805164
 20
8.5082328065
 10
14.2791721123
 20
8.5376073052
 10
14.2611222263
 20
8.5469322705
  0
LWPOLYLINE
  5
557
100
AcDbEntity
  8
0
100
AcDbPolyline
 62
7
  6
CONTINUOUS
 90
11
 70
0
 10
14.564861392
 20
8.1244508263
 10
14.5602674374
 20
8.1764189756
 10
14.5479883796
 20
8.2318420971
 10
14.5284830764
 20
8.2881661173
 10
14.502751942
 20
8.3429991428
 10
14.4713089527
 20
8.3955360469
 10
14.4346763085
 20
8.4446824117
 10
14.3943690014
 20
8.4882553045
 10
14.3516160033
 20
8.524978103
 10
14.3070340648
 20
8.5541717823
 10
14.2894063798
 20
8.5632620366
  0
LINE
  5
558
100
AcDbEntity
  8
AXIS_COSMETIC_THREADS
100
AcDbLine
 62
7
  6
CONTINUOUS
 10
14.5480609487
 20
7.3387840764
 11
14.5480609487
 21
6.8584566357
  0
LINE
  5
559
100
AcDbEntity
  8
0
100
AcDbLine
 62
7
  6
CONTINUOUS
 10
14.5356999342
 20
8.0792544496
 11
14.5365772385
 21
8.1081210601
  0
LINE
  5
55A
100
AcDbEntity
  8
0
100
AcDbLine
 62
7
  6
CONTINUOUS
 10
14.5639840877
 20
8.0955842157
 11
14.564861392
 21
8.1244508263
  0
LINE
  5
55B
100
AcDbEntity
  8
0
100
AcDbLine
 62
7
  6
CONTINUOUS
 10
14.5922682411
 20
8.1119139819
 11
14.5931455455
 21
8.1407805924
  0
LINE
  5
55C
100
AcDbEntity
  8
0
100
AcDbLine
 62
7
  6
CONTINUOUS
 10
14.5976851766
 20
8.158408461
 11
14.5951876393
 21
8.1122351731
  0
LWPOLYLINE
  5
55D
100
AcDbEntity
  8
0
100
AcDbPolyline
 62
7
  6
CONTINUOUS
 90
4
 70
0
 10
14.5351630308
 20
8.1073045718
 10
14.5322147289
 20
8.0602193753
 10
14.5218134355
 20
8.0185449379
 10
14.5042185692
 20
7.9838483957
  0
LWPOLYLINE
  5
55E
100
AcDbEntity
  8
0
100
AcDbPolyline
 62
7
  6
CONTINUOUS
 90
4
 70
0
 10
14.5634471843
 20
8.123634338
 10
14.5604937085
 20
8.076514605
 10
14.5501698249
 20
8.0350723029
 10
14.5326902066
 20
8.0004532946
  0
LWPOLYLINE
  5
55F
100
AcDbEntity
  8
0
100
AcDbPolyline
 62
7
  6
CONTINUOUS
 90
4
 70
0
 10
14.5917313378
 20
8.1399641041
 10
14.5887644117
 20
8.0927547428
 10
14.5784288299
 20
8.0513331961
 10
14.5610033044
 20
8.0168256645
  0
LWPOLYLINE
  5
560
100
AcDbEntity
  8
0
100
AcDbPolyline
 62
7
  6
CONTINUOUS
 90
3
 70
0
 10
14.5691203568
 20
8.119178548
 10
14.5629656528
 20
8.075131633
 10
14.5577037751
 20
8.0604465812
  0
LWPOLYLINE
  5
561
100
AcDbEntity
  8
0
100
AcDbPolyline
 62
7
  6
CONTINUOUS
 90
3
 70
0
 10
14.539718024
 20
8.088475989
 10
14.5312386037
 20
8.0462925754
 10
14.5283220105
 20
8.0397189471
  0
LWPOLYLINE
  5
562
100
AcDbEntity
  8
0
100
AcDbPolyline
 62
7
  6
CONTINUOUS
 90
3
 70
0
 10
14.5951876393
 20
8.1122351731
 10
14.5853781779
 20
8.0716994122
 10
14.5840530252
 20
8.069045682
  0
LWPOLYLINE
  5
563
100
AcDbEntity
  8
0
100
AcDbPolyline
 62
7
  6
CONTINUOUS
 90
4
 70
0
 10
14.5058202608
 20
7.9849400168
 10
14.5232998791
 20
8.0195590251
 10
14.5336237627
 20
8.0610013271
 10
14.5356999342
 20
8.0792544496
  0
LWPOLYLINE
  5
564
100
AcDbEntity
  8
0
100
AcDbPolyline
 62
7
  6
CONTINUOUS
 90
4
 70
0
 10
14.5341333586
 20
8.0013123867
 10
14.5515588841
 20
8.0358199182
 10
14.5618944659
 20
8.077241465
 10
14.5639840877
 20
8.0955842157
  0
LWPOLYLINE
  5
565
100
AcDbEntity
  8
0
100
AcDbPolyline
 62
7
  6
CONTINUOUS
 90
4
 70
0
 10
14.5624071116
 20
8.0176268403
 10
14.5798019402
 20
8.0520373174
 10
14.5901720648
 20
8.093527634
 10
14.5922682411
 20
8.1119139819
  0
LWPOLYLINE
  5
566
100
AcDbEntity
  8
0
100
AcDbPolyline
 62
7
  6
CONTINUOUS
 90
4
 70
0
 10
14.4773486233
 20
7.9683351179
 10
14.4949434897
 20
8.0030316601
 10
14.505344783
 20
8.0447060974
 10
14.5074157807
 20
8.0629246834
  0
LWPOLYLINE
  5
567
100
AcDbEntity
  8
0
100
AcDbPolyline
 62
7
  6
CONTINUOUS
 90
4
 70
0
 10
14.5905993445
 20
8.033821464
 10
14.6080037846
 20
8.0681427221
 10
14.6184464021
 20
8.109792207
 10
14.6205523946
 20
8.1282437481
  0
LINE
  5
568
100
AcDbEntity
  8
0
100
AcDbLine
 62
7
  6
CONTINUOUS
 10
14.4280951613
 20
7.928233944
 11
14.450782439
 21
7.9545814368
  0
LINE
  5
569
100
AcDbEntity
  8
0
100
AcDbLine
 62
7
  6
CONTINUOUS
 10
14.4776523848
 20
7.9700947146
 11
14.4549651071
 21
7.9437472218
  0
LINE
  5
56A
100
AcDbEntity
  8
0
100
AcDbLine
 62
7
  6
CONTINUOUS
 10
14.5102232007
 20
7.9749187508
 11
14.5341333586
 21
8.0013123867
  0
LINE
  5
56B
100
AcDbEntity
  8
0
100
AcDbLine
 62
7
  6
CONTINUOUS
 10
14.5610033044
 20
8.0168256645
 11
14.5370931465
 21
7.9904320286
  0
LINE
  5
56C
100
AcDbEntity
  8
0
100
AcDbLine
 62
7
  6
CONTINUOUS
 10
14.5385066816
 20
7.9912479657
 11
14.5624071116
 21
8.0176268403
  0
LINE
  5
56D
100
AcDbEntity
  8
0
100
AcDbLine
 62
7
  6
CONTINUOUS
 10
14.5892770575
 20
8.0331401181
 11
14.5653766274
 21
8.0067612435
  0
LINE
  5
56E
100
AcDbEntity
  8
0
100
AcDbLine
 62
7
  6
CONTINUOUS
 10
14.481899454
 20
7.9585565444
 11
14.5058202608
 21
7.9849400168
  0
LINE
  5
56F
100
AcDbEntity
  8
0
100
AcDbLine
 62
7
  6
CONTINUOUS
 10
14.5326902066
 20
8.0004532946
 11
14.5087693998
 21
7.9740698222
  0
LINE
  5
570
100
AcDbEntity
  8
0
100
AcDbLine
 62
7
  6
CONTINUOUS
 10
14.5666990176
 20
8.0075025483
 11
14.5905993445
 21
8.033821464
  0
LINE
  5
571
100
AcDbEntity
  8
0
100
AcDbLine
 62
7
  6
CONTINUOUS
 10
14.453355478
 20
7.9420146239
 11
14.4773486233
 21
7.9683351179
  0
LINE
  5
572
100
AcDbEntity
  8
0
100
AcDbLine
 62
7
  6
CONTINUOUS
 10
14.5042185692
 20
7.9838483957
 11
14.4802254238
 21
7.9575279018
  0
LWPOLYLINE
  5
573
100
AcDbEntity
  8
0
100
AcDbPolyline
 62
7
  6
CONTINUOUS
 90
3
 70
0
 10
14.6185350831
 20
8.0496421071
 10
14.5942948123
 20
8.0232736687
 10
14.5799319294
 20
8.0134252335
  0
LINE
  5
574
100
AcDbEntity
  8
0
100
AcDbLine
 62
7
  6
CONTINUOUS
 10
14.3961512653
 20
7.9088411466
 11
14.4202928684
 21
7.934966905
  0
LINE
  5
575
100
AcDbEntity
  8
0
100
AcDbLine
 62
7
  6
CONTINUOUS
 10
14.4471628142
 20
7.9504801829
 11
14.4230212111
 21
7.9243544244
  0
LINE
  5
576
100
AcDbEntity
  8
0
100
AcDbLine
 62
7
  6
CONTINUOUS
 10
14.3338564977
 20
7.8849166204
 11
14.3097002644
 21
7.8588877738
  0
LINE
  5
577
100
AcDbEntity
  8
0
100
AcDbLine
 62
7
  6
CONTINUOUS
 10
14.3676395507
 20
7.8923292737
 11
14.3918276923
 21
7.9183763723
  0
LINE
  5
578
100
AcDbEntity
  8
0
100
AcDbLine
 62
7
  6
CONTINUOUS
 10
14.4186976382
 20
7.9338896502
 11
14.3945094965
 21
7.9078425515
  0
LINE
  5
579
100
AcDbEntity
  8
0
100
AcDbLine
 62
7
  6
CONTINUOUS
 10
14.311063614
 20
7.8596636521
 11
14.3352459128
 21
7.8856974842
  0
LINE
  5
57A
100
AcDbEntity
  8
0
100
AcDbLine
 62
7
  6
CONTINUOUS
 10
14.3621158586
 20
7.9012107621
 11
14.3379335599
 21
7.8751769299
  0
LINE
  5
57B
100
AcDbEntity
  8
0
100
AcDbLine
 62
7
  6
CONTINUOUS
 10
14.3253743095
 20
7.8664572004
 11
14.3498337864
 21
7.8854587434
  0
LINE
  5
57C
100
AcDbEntity
  8
0
100
AcDbLine
 62
7
  6
CONTINUOUS
 10
14.3767037322
 20
7.9009720213
 11
14.3522442554
 21
7.8819704783
  0
LINE
  5
57D
100
AcDbEntity
  8
0
100
AcDbLine
 62
7
  6
CONTINUOUS
 10
14.4102439529
 20
7.9154564214
 11
14.4280951613
 21
7.928233944
  0
LINE
  5
57E
100
AcDbEntity
  8
0
100
AcDbLine
 62
7
  6
CONTINUOUS
 10
14.4549651071
 20
7.9437472218
 11
14.4371138987
 21
7.9309696993
  0
LINE
  5
57F
100
AcDbEntity
  8
0
100
AcDbLine
 62
7
  6
CONTINUOUS
 10
14.4951163437
 20
7.964457234
 11
14.5102232007
 21
7.9749187508
  0
LINE
  5
580
100
AcDbEntity
  8
0
100
AcDbLine
 62
7
  6
CONTINUOUS
 10
14.5370931465
 20
7.9904320286
 11
14.5219862895
 21
7.9799705119
  0
LINE
  5
581
100
AcDbEntity
  8
0
100
AcDbLine
 62
7
  6
CONTINUOUS
 10
14.5234011184
 20
7.9807873591
 11
14.5385066816
 21
7.9912479657
  0
LINE
  5
582
100
AcDbEntity
  8
0
100
AcDbLine
 62
7
  6
CONTINUOUS
 10
14.5653766274
 20
8.0067612435
 11
14.5502710643
 21
7.996300637
  0
LINE
  5
583
100
AcDbEntity
  8
0
100
AcDbLine
 62
7
  6
CONTINUOUS
 10
14.4668311808
 20
7.9481268845
 11
14.481899454
 21
7.9585565444
  0
LINE
  5
584
100
AcDbEntity
  8
0
100
AcDbLine
 62
7
  6
CONTINUOUS
 10
14.5087693998
 20
7.9740698222
 11
14.4937011266
 21
7.9636401624
  0
LINE
  5
585
100
AcDbEntity
  8
0
100
AcDbLine
 62
7
  6
CONTINUOUS
 10
14.5516864288
 20
7.9971177938
 11
14.5666990176
 21
8.0075025483
  0
LINE
  5
586
100
AcDbEntity
  8
0
100
AcDbLine
 62
7
  6
CONTINUOUS
 10
14.4385385315
 20
7.9317922096
 11
14.453355478
 21
7.9420146239
  0
LINE
  5
587
100
AcDbEntity
  8
0
100
AcDbLine
 62
7
  6
CONTINUOUS
 10
14.4802254238
 20
7.9575279018
 11
14.4654084773
 21
7.9473054875
  0
LINE
  5
588
100
AcDbEntity
  8
0
100
AcDbLine
 62
7
  6
CONTINUOUS
 10
14.3819509591
 20
7.8991215498
 11
14.3961512653
 21
7.9088411466
  0
LINE
  5
589
100
AcDbEntity
  8
0
100
AcDbLine
 62
7
  6
CONTINUOUS
 10
14.4230212111
 20
7.9243544244
 11
14.4088209049
 21
7.9146348276
  0
LWPOLYLINE
  5
58A
100
AcDbEntity
  8
0
100
AcDbPolyline
 62
9
  6
CONTINUOUS
 90
15
 70
0
 10
14.6215916307
 20
8.0556260755
 10
14.6307361826
 20
8.0618807219
 10
14.6546292688
 20
8.087541196
 10
14.6722454918
 20
8.1210438532
 10
14.6830313837
 20
8.1613565809
 10
14.6866599381
 20
8.2072286588
 10
14.6830295278
 20
8.2572910129
 10
14.6722419691
 20
8.3100579146
 10
14.6546239179
 20
8.3639021548
 10
14.6307287678
 20
8.4171520609
 10
14.6012899553
 20
8.4682014413
 10
14.5671837544
 20
8.5155404593
 10
14.5293814269
 20
8.5577959153
 10
14.4889618531
 20
8.5936997313
 10
14.4471265188
 20
8.622104026
  0
LINE
  5
58B
100
AcDbEntity
  8
0
100
AcDbLine
 62
7
  6
CONTINUOUS
 10
14.2688168775
 20
7.8338039476
 11
14.2828303186
 21
7.8433744959
  0
LINE
  5
58C
100
AcDbEntity
  8
0
100
AcDbLine
 62
7
  6
CONTINUOUS
 10
14.3097002644
 20
7.8588877738
 11
14.2956868233
 21
7.8493172254
  0
LINE
  5
58D
100
AcDbEntity
  8
0
100
AcDbLine
 62
7
  6
CONTINUOUS
 10
14.253084909
 20
7.8261906718
 11
14.2391362791
 21
7.8166679532
  0
LINE
  5
58E
100
AcDbEntity
  8
0
100
AcDbLine
 62
7
  6
CONTINUOUS
 10
14.2405436831
 20
7.817480511
 11
14.2544891811
 21
7.8269992314
  0
LINE
  5
58F
100
AcDbEntity
  8
0
100
AcDbLine
 62
7
  6
CONTINUOUS
 10
14.2813591269
 20
7.8425125093
 11
14.2674136289
 21
7.8329937889
  0
LINE
  5
590
100
AcDbEntity
  8
0
100
AcDbLine
 62
7
  6
CONTINUOUS
 10
14.2970902829
 20
7.8501275075
 11
14.311063614
 21
7.8596636521
  0
LINE
  5
591
100
AcDbEntity
  8
0
100
AcDbLine
 62
7
  6
CONTINUOUS
 10
14.3379335599
 20
7.8751769299
 11
14.3239602287
 21
7.8656407854
  0
LINE
  5
592
100
AcDbEntity
  8
0
100
AcDbLine
 62
7
  6
CONTINUOUS
 10
14.3536566824
 20
7.8827859386
 11
14.3676395507
 21
7.8923292737
  0
LINE
  5
593
100
AcDbEntity
  8
0
100
AcDbLine
 62
7
  6
CONTINUOUS
 10
14.3945094965
 20
7.9078425515
 11
14.3805266283
 21
7.8982992165
  0
LWPOLYLINE
  5
594
100
AcDbEntity
  8
0
100
AcDbPolyline
 62
7
  6
CONTINUOUS
 90
3
 70
0
 10
14.1887720448
 20
7.8499442336
 10
14.197720034
 20
7.8557667005
 10
14.2027181407
 20
7.8599671884
  0
LINE
  5
595
100
AcDbEntity
  8
0
100
AcDbLine
 62
7
  6
CONTINUOUS
 10
14.1887733813
 20
7.8499448245
 11
14.2044254488
 21
7.858981496
  0
LINE
  5
596
100
AcDbEntity
  8
0
100
AcDbLine
 62
7
  6
CONTINUOUS
 10
14.2386498459
 20
7.8718817385
 11
14.2103656924
 21
7.8555519723
  0
LWPOLYLINE
  5
597
100
AcDbEntity
  8
0
100
AcDbPolyline
 62
7
  6
CONTINUOUS
 90
12
 70
0
 10
14.1917700455
 20
7.8447544111
 10
14.177857592
 20
7.8380587265
 10
14.1469618407
 20
7.8309157763
 10
14.1127788583
 20
7.8322451489
 10
14.0763472772
 20
7.8420064522
 10
14.0387740528
 20
7.8599030937
 10
14.0012008284
 20
7.8853912932
 10
13.9647692473
 20
7.9176966045
 10
13.9305862648
 20
7.9558374471
 10
13.8996905136
 20
7.9986549309
 10
13.8730207453
 20
8.0448480682
 10
13.8650752913
 20
8.0625380288
  0
LWPOLYLINE
  5
598
100
AcDbEntity
  8
0
100
AcDbPolyline
 62
7
  6
CONTINUOUS
 90
3
 70
0
 10
14.563814706
 20
8.0055073649
 10
14.5639221409
 20
8.0055326047
 10
14.5785177077
 20
8.0126087371
  0
LWPOLYLINE
  5
599
100
AcDbEntity
  8
0
100
AcDbPolyline
 62
9
  6
CONTINUOUS
 90
16
 70
0
 10
14.6066182462
 20
8.0366790349
 10
14.6158218288
 20
8.0388266477
 10
14.646347148
 20
8.0565151343
 10
14.6711235295
 20
8.0831228791
 10
14.6893909496
 20
8.1178630664
 10
14.7005753625
 20
8.1596653859
 10
14.7043376055
 20
8.2072326058
 10
14.7005723503
 20
8.2591448771
 10
14.6893852634
 20
8.3138614028
 10
14.6711151907
 20
8.3696946794
 10
14.6463361081
 20
8.4249111589
 10
14.6158086541
 20
8.4778452531
 10
14.580441604
 20
8.5269313739
 10
14.541242098
 20
8.5707454425
 10
14.4993291648
 20
8.6079729954
 10
14.4559653168
 20
8.6374133582
  0
LWPOLYLINE
  5
59A
100
AcDbEntity
  8
DATUM_CURVES
100
AcDbPolyline
 62
40
  6
CONTINUOUS
 90
11
 70
0
 10
14.0893357562
 20
8.446864242
 10
14.0881590724
 20
8.448053007
 10
14.0869789082
 20
8.4492397627
 10
14.0857953179
 20
8.4504245403
 10
14.0846083548
 20
8.4516073706
 10
14.083418071
 20
8.4527882837
 10
14.0822245179
 20
8.4539673093
 10
14.0810277459
 20
8.4551444765
 10
14.0798278045
 20
8.4563198139
 10
14.0786247423
 20
8.4574933495
 10
14.0774186071
 20
8.4586651109
  0
LINE
  5
59B
100
AcDbEntity
  8
DATUM_CURVES
100
AcDbLine
 62
40
  6
CONTINUOUS
 10
14.0911748788
 20
8.4449948903
 11
14.0893357562
 21
8.446864242
  0
LINE
  5
59C
100
AcDbEntity
  8
0
100
AcDbLine
 62
9
  6
CONTINUOUS
 10
14.6795939919
 20
7.6552939824
 11
14.6828262342
 21
7.6440638474
  0
LWPOLYLINE
  5
59D
100
AcDbEntity
  8
0
100
AcDbPolyline
 62
7
  6
CONTINUOUS
 90
11
 70
0
 10
14.621429699
 20
8.1571103586
 10
14.6168384148
 20
8.2090614156
 10
14.6045668311
 20
8.2644659788
 10
14.5850728839
 20
8.3207729236
 10
14.5593280503
 20
8.3756440224
 10
14.5274740532
 20
8.4287978175
 10
14.4904560928
 20
8.478289919
 10
14.4499585397
 20
8.5218582863
 10
14.4072438483
 20
8.5583466417
 10
14.3629759918
 20
8.5871780713
 10
14.3459746868
 20
8.5959215689
  0
LWPOLYLINE
  5
59E
100
AcDbEntity
  8
0
100
AcDbPolyline
 62
7
  6
CONTINUOUS
 90
11
 70
0
 10
14.6497138525
 20
8.1734401247
 10
14.6451309013
 20
8.2253378175
 10
14.6329189726
 20
8.2805565626
 10
14.6135764271
 20
8.3365638189
 10
14.5879360608
 20
8.3913646593
 10
14.5560398928
 20
8.4447070143
 10
14.518979011
 20
8.4943330768
 10
14.4784543245
 20
8.5379844872
 10
14.4357851748
 20
8.5744829346
 10
14.3916982943
 20
8.6032654668
 10
14.3742588403
 20
8.6122513351
  0
LINE
  5
59F
100
AcDbEntity
  8
0
100
AcDbLine
 62
7
  6
CONTINUOUS
 10
14.6205523946
 20
8.1282437481
 11
14.621429699
 21
8.1571103586
  0
LINE
  5
5A0
100
AcDbEntity
  8
0
100
AcDbLine
 62
7
  6
CONTINUOUS
 10
14.6497138525
 20
8.1734401247
 11
14.6488365481
 21
8.1445735142
  0
LWPOLYLINE
  5
5A1
100
AcDbEntity
  8
0
100
AcDbPolyline
 62
7
  6
CONTINUOUS
 90
4
 70
0
 10
14.6200154913
 20
8.1562938703
 10
14.6170420106
 20
8.1090409119
 10
14.6066718861
 20
8.0675505953
 10
14.5892770575
 20
8.0331401181
  0
LINE
  5
5A2
100
AcDbEntity
  8
0
100
AcDbLine
 62
7
  6
CONTINUOUS
 10
14.6453286282
 20
8.1253870612
 11
14.6482996448
 21
8.1726236364
  0
LWPOLYLINE
  5
5A3
100
AcDbEntity
  8
0
100
AcDbPolyline
 62
7
  6
CONTINUOUS
 90
3
 70
0
 10
14.6259773404
 20
8.1594696235
 10
14.6211234859
 20
8.1149468683
 10
14.6142722442
 20
8.0931439357
  0
LWPOLYLINE
  5
5A4
100
AcDbEntity
  8
0
100
AcDbPolyline
 62
7
  6
CONTINUOUS
 90
3
 70
0
 10
14.6488365481
 20
8.1445735142
 10
14.6466967129
 20
8.1258981062
 10
14.6361891814
 20
8.0842044893
  0
LWPOLYLINE
  5
5A5
100
AcDbEntity
  8
0
100
AcDbPolyline
 62
7
  6
CONTINUOUS
 90
3
 70
0
 10
14.6535129208
 20
8.1610080655
 10
14.6463205899
 20
8.1182779641
 10
14.6420531457
 20
8.1074725502
  0
LINE
  5
5A6
100
AcDbEntity
  8
0
100
AcDbLine
 62
7
  6
CONTINUOUS
 10
14.6361891814
 20
8.0842044893
 11
14.6185350831
 21
8.0496421071
  0
LWPOLYLINE
  5
5A7
100
AcDbEntity
  8
0
100
AcDbPolyline
 62
7
  6
CONTINUOUS
 90
5
 70
0
 10
14.5785177077
 20
8.0126087371
 10
14.5936220289
 20
8.0230592588
 10
14.6175499848
 20
8.0494533609
 10
14.6349672278
 20
8.0839109294
 10
14.6453286282
 20
8.1253870612
  0
LWPOLYLINE
  5
5A8
100
AcDbEntity
  8
0
100
AcDbPolyline
 62
7
  6
CONTINUOUS
 90
3
 70
0
 10
14.4371138987
 20
7.9309696993
 10
14.4265283777
 20
7.9255812133
 10
14.4230374927
 20
7.9246137703
  0
LINE
  5
5A9
100
AcDbEntity
  8
0
100
AcDbLine
 62
7
  6
CONTINUOUS
 10
14.5502710643
 20
7.996300637
 11
14.5355175845
 21
7.9891780151
  0
LINE
  5
5AA
100
AcDbEntity
  8
0
100
AcDbLine
 62
7
  6
CONTINUOUS
 10
14.5219862895
 20
7.9799705119
 11
14.5072342471
 21
7.9728488968
  0
LINE
  5
5AB
100
AcDbEntity
  8
0
100
AcDbLine
 62
7
  6
CONTINUOUS
 10
14.4937011266
 20
7.9636401624
 11
14.4789820911
 21
7.9565372617
  0
LINE
  5
5AC
100
AcDbEntity
  8
0
100
AcDbLine
 62
7
  6
CONTINUOUS
 10
14.4654084773
 20
7.9473054875
 11
14.4509291725
 21
7.9403406826
  0
LINE
  5
5AD
100
AcDbEntity
  8
0
100
AcDbLine
 62
7
  6
CONTINUOUS
 10
14.2956868233
 20
7.8493172254
 11
14.2818456931
 21
7.8427020412
  0
LINE
  5
5AE
100
AcDbEntity
  8
0
100
AcDbLine
 62
7
  6
CONTINUOUS
 10
14.4088209049
 20
7.9146348276
 11
14.3949207717
 21
7.9079989181
  0
LINE
  5
5AF
100
AcDbEntity
  8
0
100
AcDbLine
 62
7
  6
CONTINUOUS
 10
14.3239602287
 20
7.8656407854
 11
14.3102015043
 21
7.8590753026
  0
LINE
  5
5B0
100
AcDbEntity
  8
0
100
AcDbLine
 62
7
  6
CONTINUOUS
 10
14.2674136289
 20
7.8329937889
 11
14.25367352
 21
7.826442489
  0
LINE
  5
5B1
100
AcDbEntity
  8
0
100
AcDbLine
 62
7
  6
CONTINUOUS
 10
14.3805266283
 20
7.8982992165
 11
14.3668205157
 21
7.8917702806
  0
LWPOLYLINE
  5
5B2
100
AcDbEntity
  8
0
100
AcDbPolyline
 62
7
  6
CONTINUOUS
 90
3
 70
0
 10
14.2391362791
 20
7.8166679532
 10
14.222970514
 20
7.8089729143
 10
14.2089649703
 20
7.8059169635
  0
LINE
  5
5B3
100
AcDbEntity
  8
0
100
AcDbLine
 62
7
  6
CONTINUOUS
 10
14.3522442554
 20
7.8819704783
 11
14.3378364253
 21
7.8761384962
  0
LWPOLYLINE
  5
5B4
100
AcDbEntity
  8
0
100
AcDbPolyline
 62
7
  6
CONTINUOUS
 90
3
 70
0
 10
14.0482786303
 20
8.4079151331
 10
14.0037249627
 20
8.4276213679
 10
13.9606210001
 20
8.437724956
  0
LWPOLYLINE
  5
5B5
100
AcDbEntity
  8
0
100
AcDbPolyline
 62
7
  6
CONTINUOUS
 90
9
 70
0
 10
14.0299128218
 20
8.4213227749
 10
14.0729136463
 20
8.4007697832
 10
14.1157678813
 20
8.37168181
 10
14.1571655289
 20
8.3349791594
 10
14.1958419593
 20
8.2918193087
 10
14.2306172999
 20
8.2435608569
 10
14.2604331852
 20
8.1917212084
 10
14.2843857208
 20
8.1379293106
 10
14.3017536375
 20
8.0838749175
  0
LWPOLYLINE
  5
5B6
100
AcDbEntity
  8
0
100
AcDbPolyline
 62
7
  6
CONTINUOUS
 90
9
 70
0
 10
14.0348489984
 20
8.4162941412
 10
14.059288852
 20
8.4033199653
 10
14.1037858712
 20
8.3728184327
 10
14.1467387992
 20
8.3344637247
 10
14.1868494958
 20
8.2894506163
 10
14.2229023231
 20
8.2391836255
 10
14.2538062306
 20
8.1852322663
 10
14.2786317975
 20
8.1292773807
 10
14.2966384246
 20
8.0730584646
  0
LWPOLYLINE
  5
5B7
100
AcDbEntity
  8
0
100
AcDbPolyline
 62
7
  6
CONTINUOUS
 90
9
 70
0
 10
14.0474419433
 20
8.4102966267
 10
14.0727335045
 20
8.3967619893
 10
14.1150518421
 20
8.3674190391
 10
14.1558614323
 20
8.3306978598
 10
14.193943164
 20
8.2877308238
 10
14.2281610175
 20
8.2398405548
 10
14.2574966683
 20
8.1884996392
 10
14.281080505
 20
8.1352857715
 10
14.2982181183
 20
8.0818336967
  0
LWPOLYLINE
  5
5B8
100
AcDbEntity
  8
0
100
AcDbPolyline
 62
7
  6
CONTINUOUS
 90
11
 70
0
 10
14.1040102503
 20
8.442956159
 10
14.1401434185
 20
8.4227093331
 10
14.1829487454
 20
8.390754471
 10
14.2238391253
 20
8.3514494668
 10
14.2615486961
 20
8.306050016
 10
14.2949120327
 20
8.2560042522
 10
14.3229009468
 20
8.2029070207
 10
14.3446569525
 20
8.1484495202
 10
14.3595183741
 20
8.0943659009
 10
14.3670412392
 20
8.0423785075
 10
14.3670975749
 20
7.9951806319
  0
LINE
  5
5B9
100
AcDbEntity
  8
AXIS_COSMETIC_THREADS
100
AcDbLine
 62
7
  6
CONTINUOUS
 10
14.7810609487
 20
7.3386011225
 11
14.7810609487
 21
6.8584566357
  0
LWPOLYLINE
  5
5BA
100
AcDbEntity
  8
0
100
AcDbPolyline
 62
7
  6
CONTINUOUS
 90
11
 70
0
 10
13.9828148187
 20
8.4112066517
 10
14.0254576127
 20
8.3946737016
 10
14.0685399491
 20
8.3692806649
 10
14.1107447254
 20
8.3358327602
 10
14.1507821721
 20
8.2953860897
 10
14.1874300255
 20
8.2492147453
 10
14.219571597
 20
8.1987711245
 10
14.2462305544
 20
8.145640693
 10
14.2666013319
 20
8.0914926019
 10
14.2800742208
 20
8.0380276995
 10
14.2862543599
 20
7.9869255547
  0
LWPOLYLINE
  5
5BB
100
AcDbEntity
  8
0
100
AcDbPolyline
 62
7
  6
CONTINUOUS
 90
11
 70
0
 10
14.0425254648
 20
8.442950455
 10
14.0855433264
 20
8.4255837348
 10
14.1288977705
 20
8.3992912892
 10
14.1712451296
 20
8.3649179297
 10
14.2112735361
 20
8.3235636303
 10
14.2477443456
 20
8.2765487951
 10
14.279531248
 20
8.2253725649
 10
14.3056558325
 20
8.1716654808
 10
14.3253184812
 20
8.1171379979
 10
14.3379236183
 20
8.0635264764
 10
14.3430985155
 20
8.0125383539
  0
LWPOLYLINE
  5
5BC
100
AcDbEntity
  8
0
100
AcDbPolyline
 62
7
  6
CONTINUOUS
 90
4
 70
0
 10
14.0914173054
 20
8.4489536735
 10
14.0647960828
 20
8.4600243892
 10
14.0220577345
 20
8.4707428487
 10
13.9818986785
 20
8.471785641
  0
LWPOLYLINE
  5
5BD
100
AcDbEntity
  8
0
100
AcDbPolyline
 62
7
  6
CONTINUOUS
 90
4
 70
0
 10
14.1197014589
 20
8.4652834397
 10
14.0931100024
 20
8.476343597
 10
14.0503500336
 20
8.4870714583
 10
14.0102582421
 20
8.4881229091
  0
LWPOLYLINE
  5
5BE
100
AcDbEntity
  8
0
100
AcDbPolyline
 62
7
  6
CONTINUOUS
 90
4
 70
0
 10
14.0631331519
 20
8.4326239074
 10
14.0369979931
 20
8.4435216932
 10
13.9942475791
 20
8.4543451863
 10
13.9539529924
 20
8.455489242
  0
LWPOLYLINE
  5
5BF
100
AcDbEntity
  8
0
100
AcDbPolyline
 62
7
  6
CONTINUOUS
 90
11
 70
0
 10
14.0916660286
 20
8.4755376671
 10
14.1363765133
 20
8.4551200556
 10
14.1810878561
 20
8.4257353824
 10
14.2238135074
 20
8.3889146205
 10
14.2641416888
 20
8.3451819307
 10
14.3010008766
 20
8.2955248357
 10
14.3327004543
 20
8.2421897655
 10
14.3582124876
 20
8.1872786611
 10
14.3773186638
 20
8.1314580538
 10
14.3892385723
 20
8.0770435886
 10
14.3937422634
 20
8.025655741
  0
LWPOLYLINE
  5
5C0
100
AcDbEntity
  8
0
100
AcDbPolyline
 62
7
  6
CONTINUOUS
 90
11
 70
0
 10
14.1199799482
 20
8.4918568749
 10
14.1647153524
 20
8.4714193532
 10
14.2094491279
 20
8.4420066161
 10
14.2521929197
 20
8.4051520093
 10
14.2922241169
 20
8.3617554021
 10
14.3289061191
 20
8.3124235441
 10
14.3605958871
 20
8.2592550345
 10
14.3862086759
 20
8.2043211659
 10
14.4054658524
 20
8.1482741788
 10
14.4175129585
 20
8.0934364063
 10
14.4220264169
 20
8.0419855072
  0
LWPOLYLINE
  5
5C1
100
AcDbEntity
  8
0
100
AcDbPolyline
 62
7
  6
CONTINUOUS
 90
11
 70
0
 10
14.063867939
 20
8.459034971
 10
14.1084625777
 20
8.4385837592
 10
14.1529351457
 20
8.409305835
 10
14.1954844212
 20
8.3726284111
 10
14.2359264603
 20
8.3287688332
 10
14.2728485517
 20
8.2789968012
 10
14.3045601586
 20
8.2255871856
 10
14.3300387107
 20
8.1706749699
 10
14.3490608533
 20
8.1150345301
 10
14.3609407908
 20
8.0608017792
 10
14.3654581099
 20
8.0093259749
  0
LWPOLYLINE
  5
5C2
100
AcDbEntity
  8
0
100
AcDbPolyline
 62
7
  6
CONTINUOUS
 90
9
 70
0
 10
14.0400764249
 20
8.4410547544
 10
14.0851523308
 20
8.4194200818
 10
14.1297744917
 20
8.3890239354
 10
14.1725166195
 20
8.3510700321
 10
14.2130717788
 20
8.3057727605
 10
14.249756841
 20
8.2547209198
 10
14.2808751823
 20
8.2003526458
 10
14.3055773336
 20
8.144592536
 10
14.3235083704
 20
8.0885717425
  0
LWPOLYLINE
  5
5C3
100
AcDbEntity
  8
0
100
AcDbPolyline
 62
7
  6
CONTINUOUS
 90
11
 70
0
 10
14.1151006911
 20
8.4701855816
 10
14.1584024856
 20
8.4493901199
 10
14.2015359472
 20
8.4199539552
 10
14.2431643864
 20
8.3828211651
 10
14.2819986361
 20
8.3391788551
 10
14.3168377585
 20
8.2904196756
 10
14.3466069658
 20
8.2380978467
 10
14.3703915576
 20
8.1838800829
 10
14.3874658038
 20
8.1294929646
 10
14.3973158597
 20
8.0766684196
 10
14.3996559916
 20
8.0270890362
  0
LWPOLYLINE
  5
5C4
100
AcDbEntity
  8
0
100
AcDbPolyline
 62
7
  6
CONTINUOUS
 90
12
 70
0
 10
14.0757260968
 20
8.4266263929
 10
14.0820078072
 20
8.423542514
 10
14.1253622513
 20
8.3972500684
 10
14.1677096104
 20
8.3628767089
 10
14.207738017
 20
8.3215224096
 10
14.2442088264
 20
8.2745075743
 10
14.2759957288
 20
8.2233313441
 10
14.3021203133
 20
8.16962426
 10
14.321782962
 20
8.1150967772
 10
14.3343880991
 20
8.0614852556
 10
14.3395629963
 20
8.0104971331
 10
14.3388134214
 20
7.9788508658
  0
LWPOLYLINE
  5
5C5
100
AcDbEntity
  8
0
100
AcDbPolyline
 62
7
  6
CONTINUOUS
 90
12
 70
0
 10
14.1605785572
 20
8.4756156913
 10
14.1695740363
 20
8.4711426346
 10
14.2129047854
 20
8.4443175823
 10
14.2551450885
 20
8.4094732109
 10
14.2949864585
 20
8.3677243671
 10
14.3311961566
 20
8.320403913
 10
14.3626561179
 20
8.2690206398
 10
14.3883982549
 20
8.2152116261
 10
14.4076350258
 20
8.1606905456
 10
14.4197843023
 20
8.1071935561
 10
14.4244877505
 20
8.056424479
 10
14.4236658818
 20
8.0278401642
  0
LWPOLYLINE
  5
5C6
100
AcDbEntity
  8
0
100
AcDbPolyline
 62
7
  6
CONTINUOUS
 90
12
 70
0
 10
14.1322944037
 20
8.4592859252
 10
14.1548669664
 20
8.4473488991
 10
14.198000428
 20
8.4179127345
 10
14.2396288673
 20
8.3807799443
 10
14.278463117
 20
8.3371376344
 10
14.3133022393
 20
8.2883784548
 10
14.3430714466
 20
8.2360566259
 10
14.3668560384
 20
8.1818388621
 10
14.3839302846
 20
8.1274517438
 10
14.3937803405
 20
8.0746271989
 10
14.3961204724
 20
8.0250478155
 10
14.3953817284
 20
8.0115103981
  0
LWPOLYLINE
  5
5C7
100
AcDbEntity
  8
0
100
AcDbPolyline
 62
7
  6
CONTINUOUS
 90
11
 70
0
 10
14.1002849922
 20
8.4483316661
 10
14.1436789377
 20
8.4247505539
 10
14.1864842646
 20
8.3927956918
 10
14.2273746445
 20
8.3534906876
 10
14.2650842153
 20
8.3080912368
 10
14.2984475519
 20
8.2580454729
 10
14.326436466
 20
8.2049482415
 10
14.3481924717
 20
8.150490741
 10
14.3630538933
 20
8.0964071217
 10
14.3705767584
 20
8.0444197282
 10
14.3705488164
 20
7.9961847149
  0
LWPOLYLINE
  5
5C8
100
AcDbEntity
  8
0
100
AcDbPolyline
 62
7
  6
CONTINUOUS
 90
11
 70
0
 10
14.1878413398
 20
8.4961082431
 10
14.2312379192
 20
8.4719786472
 10
14.2739619996
 20
8.4395318258
 10
14.3146898182
 20
8.3998069207
 10
14.3521606458
 20
8.3540728863
 10
14.3852165959
 20
8.303788421
 10
14.4128391862
 20
8.2505559073
 10
14.4341814978
 20
8.1960708154
 10
14.448594918
 20
8.142068167
 10
14.4556496202
 20
8.0902677499
 10
14.4551481367
 20
8.0423198144
  0
LWPOLYLINE
  5
5C9
100
AcDbEntity
  8
0
100
AcDbPolyline
 62
7
  6
CONTINUOUS
 90
11
 70
0
 10
14.1888627107
 20
8.4919454575
 10
14.2277024
 20
8.4699374264
 10
14.2704264804
 20
8.437490605
 10
14.311154299
 20
8.3977657
 10
14.3486251266
 20
8.3520316656
 10
14.3816810767
 20
8.3017472002
 10
14.409303667
 20
8.2485146865
 10
14.4306459786
 20
8.1940295947
 10
14.4450593988
 20
8.1400269462
 10
14.452114101
 20
8.0882265291
 10
14.4519500353
 20
8.0441699304
  0
LWPOLYLINE
  5
5CA
100
AcDbEntity
  8
AXIS
100
AcDbPolyline
 62
7
  6
CONTINUOUS
 90
5
 70
0
 10
14.7810557399
 20
6.8584417498
 10
14.7808484301
 20
6.8543958367
 10
14.775786074
 20
6.8384467451
 10
14.7642597179
 20
6.8236605556
 10
14.7469392317
 20
6.8108965878
  0
LINE
  5
5CB
100
AcDbEntity
  8
0
100
AcDbLine
 62
7
  6
CONTINUOUS
 10
14.0293060113
 20
8.4454691389
 11
14.0425254648
 21
8.442950455
  0
LWPOLYLINE
  5
5CC
100
AcDbEntity
  8
0
100
AcDbPolyline
 62
7
  6
CONTINUOUS
 90
3
 70
0
 10
13.9828148187
 20
8.4112066517
 10
13.9445619082
 20
8.419523482
 10
13.9087587924
 20
8.4192350948
  0
LINE
  5
5CD
100
AcDbEntity
  8
0
100
AcDbLine
 62
7
  6
CONTINUOUS
 10
14.0942518065
 20
8.4758686876
 11
14.1151006911
 21
8.4701855816
  0
LINE
  5
5CE
100
AcDbEntity
  8
0
100
AcDbLine
 62
7
  6
CONTINUOUS
 10
14.0576473428
 20
8.4627798302
 11
14.1002849922
 21
8.4483316661
  0
LINE
  5
5CF
100
AcDbEntity
  8
0
100
AcDbLine
 62
7
  6
CONTINUOUS
 10
14.1451172593
 20
8.5111440964
 11
14.1878413398
 21
8.4961082431
  0
LWPOLYLINE
  5
5D0
100
AcDbEntity
  8
0
100
AcDbPolyline
 62
7
  6
CONTINUOUS
 90
4
 70
0
 10
14.2045539194
 20
8.5142727381
 10
14.1778215274
 20
8.5253828501
 10
14.1350791039
 20
8.5360782386
 10
14.0951342296
 20
8.5371145402
  0
LWPOLYLINE
  5
5D1
100
AcDbEntity
  8
0
100
AcDbPolyline
 62
7
  6
CONTINUOUS
 90
4
 70
0
 10
14.2328380728
 20
8.5306025043
 10
14.2060921201
 20
8.541717418
 10
14.1633515999
 20
8.5524096521
 10
14.1232999304
 20
8.553432524
  0
LWPOLYLINE
  5
5D2
100
AcDbEntity
  8
0
100
AcDbPolyline
 62
7
  6
CONTINUOUS
 90
4
 70
0
 10
14.1479856124
 20
8.4816132058
 10
14.1213805505
 20
8.4926781897
 10
14.0786262625
 20
8.5034023496
 10
14.0385932945
 20
8.5044577168
  0
LWPOLYLINE
  5
5D3
100
AcDbEntity
  8
0
100
AcDbPolyline
 62
7
  6
CONTINUOUS
 90
4
 70
0
 10
14.1762697659
 20
8.497942972
 10
14.149646833
 20
8.5090142942
 10
14.1069226717
 20
8.5197303754
 10
14.0670037774
 20
8.5207999194
  0
LWPOLYLINE
  5
5D4
100
AcDbEntity
  8
0
100
AcDbPolyline
 62
7
  6
CONTINUOUS
 90
11
 70
0
 10
14.1300312797
 20
8.4911279597
 10
14.1731095555
 20
8.4731838554
 10
14.2164403046
 20
8.4463588031
 10
14.2586806077
 20
8.4115144316
 10
14.2985219777
 20
8.3697655878
 10
14.3347316758
 20
8.3224451338
 10
14.3661916371
 20
8.2710618606
 10
14.391933774
 20
8.2172528469
 10
14.411170545
 20
8.1627317663
 10
14.4233198215
 20
8.1092347769
 10
14.4280232697
 20
8.0584656998
  0
LWPOLYLINE
  5
5D5
100
AcDbEntity
  8
0
100
AcDbPolyline
 62
7
  6
CONTINUOUS
 90
11
 70
0
 10
14.2175433117
 20
8.5392684055
 10
14.2606767734
 20
8.5207491935
 10
14.3039785679
 20
8.493394909
 10
14.3461066903
 20
8.458083892
 10
14.3857561957
 20
8.4159457239
 10
14.4217004036
 20
8.3683255603
 10
14.4528296322
 20
8.3167416557
 10
14.4781862371
 20
8.2628374241
 10
14.4969948503
 20
8.2083295456
 10
14.5086868629
 20
8.1549537614
 10
14.5129183794
 20
8.1044100654
  0
LWPOLYLINE
  5
5D6
100
AcDbEntity
  8
0
100
AcDbPolyline
 62
7
  6
CONTINUOUS
 90
11
 70
0
 10
14.2046914733
 20
8.5408961279
 10
14.249421439
 20
8.5204901753
 10
14.2941564011
 20
8.4911060881
 10
14.3369149791
 20
8.4542677521
 10
14.3769578927
 20
8.4108879561
 10
14.413191456
 20
8.3622618112
 10
14.4447384906
 20
8.3095812189
 10
14.4704963371
 20
8.2547004551
 10
14.4900040906
 20
8.1983723107
 10
14.5022844503
 20
8.1429459779
 10
14.5068788774
 20
8.0909748057
  0
LWPOLYLINE
  5
5D7
100
AcDbEntity
  8
0
100
AcDbPolyline
 62
7
  6
CONTINUOUS
 90
11
 70
0
 10
14.1482504963
 20
8.5081914675
 10
14.1929819092
 20
8.4877589249
 10
14.2377124828
 20
8.458352171
 10
14.2804569953
 20
8.42150125
 10
14.3203917313
 20
8.3782258349
 10
14.356949965
 20
8.3291134207
 10
14.3886218409
 20
8.276072002
 10
14.4142903574
 20
8.2211504239
 10
14.4336413671
 20
8.1649884008
 10
14.4457748458
 20
8.1099096742
 10
14.4503105704
 20
8.0583152733
  0
LWPOLYLINE
  5
5D8
100
AcDbEntity
  8
0
100
AcDbPolyline
 62
7
  6
CONTINUOUS
 90
11
 70
0
 10
14.1765167788
 20
8.524527572
 10
14.2212188007
 20
8.5041150206
 10
14.2659221212
 20
8.474738487
 10
14.3086475348
 20
8.4379217889
 10
14.348572654
 20
8.3946801278
 10
14.3849051567
 20
8.3459352515
 10
14.4165216521
 20
8.2931250211
 10
14.4422583468
 20
8.2382574702
 10
14.4617416107
 20
8.1819663701
 10
14.4740060096
 20
8.1265796436
 10
14.4785947239
 20
8.0746450395
  0
LWPOLYLINE
  5
5D9
100
AcDbEntity
  8
0
100
AcDbPolyline
 62
7
  6
CONTINUOUS
 90
11
 70
0
 10
14.2026389544
 20
8.5181424528
 10
14.2459697035
 20
8.4967843257
 10
14.2890479793
 20
8.466836775
 10
14.3305388349
 20
8.4292600255
 10
14.3691574474
 20
8.3852552014
 10
14.4037096881
 20
8.3362263996
 10
14.4331298276
 20
8.2837363539
 10
14.4565141879
 20
8.2294570905
 10
14.4731496764
 20
8.1751171315
 10
14.4825363026
 20
8.1224469158
 10
14.4844029662
 20
8.0731241585
  0
LWPOLYLINE
  5
5DA
100
AcDbEntity
  8
0
100
AcDbPolyline
 62
7
  6
CONTINUOUS
 90
12
 70
0
 10
14.2454310177
 20
8.5246049898
 10
14.2571412542
 20
8.5187079727
 10
14.3004430487
 20
8.4913536883
 10
14.3425711711
 20
8.4560426712
 10
14.3822206765
 20
8.4139045032
 10
14.4181648844
 20
8.3662843395
 10
14.449294113
 20
8.314700435
 10
14.4746507179
 20
8.2607962033
 10
14.4934593311
 20
8.2062883249
 10
14.5051513437
 20
8.1529125406
 10
14.5093828602
 20
8.1023688447
 10
14.5085183423
 20
8.0768294627
  0
LWPOLYLINE
  5
5DB
100
AcDbEntity
  8
0
100
AcDbPolyline
 62
7
  6
CONTINUOUS
 90
12
 70
0
 10
14.2171468642
 20
8.5082752236
 10
14.2424341843
 20
8.494743105
 10
14.2855124601
 20
8.4647955543
 10
14.3270033157
 20
8.4272188048
 10
14.3656219282
 20
8.3832139806
 10
14.4001741689
 20
8.3341851788
 10
14.4295943084
 20
8.2816951332
 10
14.4529786687
 20
8.2274158697
 10
14.4696141572
 20
8.1730759107
 10
14.4790007834
 20
8.1204056951
 10
14.480867447
 20
8.0710829377
 10
14.4802341888
 20
8.0604996965
  0
LWPOLYLINE
  5
5DC
100
AcDbEntity
  8
0
100
AcDbPolyline
 62
7
  6
CONTINUOUS
 90
11
 70
0
 10
14.2754003213
 20
8.5438492042
 10
14.3187942668
 20
8.5191741658
 10
14.3614319162
 20
8.4862394549
 10
14.4019922358
 20
8.446099619
 10
14.4392197852
 20
8.400036714
 10
14.4719643599
 20
8.3495198229
 10
14.4992173095
 20
8.2961586673
 10
14.5201433868
 20
8.2416527794
 10
14.534107122
 20
8.1877378375
 10
14.540692888
 20
8.1361308599
 10
14.539718024
 20
8.088475989
  0
LWPOLYLINE
  5
5DD
100
AcDbEntity
  8
0
100
AcDbPolyline
 62
7
  6
CONTINUOUS
 90
11
 70
0
 10
14.2737151712
 20
8.5409347559
 10
14.3152587476
 20
8.517132945
 10
14.357896397
 20
8.4841982342
 10
14.3984567166
 20
8.4440583982
 10
14.435684266
 20
8.3979954932
 10
14.4684288407
 20
8.3474786021
 10
14.4956817903
 20
8.2941174465
 10
14.5166078676
 20
8.2396115586
 10
14.5305716028
 20
8.1856966167
 10
14.5371573688
 20
8.1340896391
 10
14.5368024958
 20
8.0931592288
  0
LWPOLYLINE
  5
5DE
100
AcDbEntity
  8
0
100
AcDbPolyline
 62
7
  6
CONTINUOUS
 90
13
 70
0
 10
14.4979622833
 20
8.5604415376
 10
14.5357083959
 20
8.5195498161
 10
14.5701605526
 20
8.4737005365
 10
14.6005982989
 20
8.4237726616
 10
14.6257690438
 20
8.3718367653
 10
14.6451003073
 20
8.3193688792
 10
14.6582570931
 20
8.267548033
 10
14.6649707942
 20
8.2173797953
 10
14.6649700234
 20
8.1703228485
 10
14.6581350519
 20
8.1275237611
 10
14.6448404283
 20
8.0910238682
 10
14.6264223595
 20
8.0624576278
 10
14.6238461684
 20
8.0600399058
  0
LWPOLYLINE
  5
5DF
100
AcDbEntity
  8
0
100
AcDbPolyline
 62
9
  6
CONTINUOUS
 90
11
 70
0
 10
14.9703876418
 20
8.0536217352
 10
14.9651503858
 20
8.14119066
 10
14.9495460648
 20
8.2330202161
 10
14.9238926314
 20
8.3272432869
 10
14.8887129655
 20
8.4219406578
 10
14.8447236943
 20
8.5151845125
 10
14.7928206922
 20
8.6050767682
 10
14.7340608346
 20
8.6897876916
 10
14.6696404791
 20
8.7675931198
 10
14.6008711127
 20
8.8369095301
 10
14.5291526605
 20
8.8963262456
  0
LINE
  5
5E0
100
AcDbEntity
  8
0
100
AcDbLine
 62
7
  6
CONTINUOUS
 10
14.9545609487
 20
7.5276759474
 11
14.9545609487
 21
7.5141080767
  0
LINE
  5
5E1
100
AcDbEntity
  8
0
100
AcDbLine
 62
7
  6
CONTINUOUS
 10
14.9595609487
 20
7.5549331975
 11
14.9595609487
 21
7.7320409053
  0
LINE
  5
5E2
100
AcDbEntity
  8
0
100
AcDbLine
 62
9
  6
CONTINUOUS
 10
14.7112941785
 20
7.6523346537
 11
14.6828262342
 21
7.6440638474
  0
LINE
  5
5E3
100
AcDbEntity
  8
0
100
AcDbLine
 62
7
  6
CONTINUOUS
 10
13.9606210001
 20
8.437724956
 11
13.9202713111
 21
8.4379001785
  0
LWPOLYLINE
  5
5E4
100
AcDbEntity
  8
0
100
AcDbPolyline
 62
7
  6
CONTINUOUS
 90
3
 70
0
 10
13.9870363298
 20
8.432734169
 10
13.9880799716
 20
8.4326863187
 10
14.0299128218
 20
8.4213227749
  0
LINE
  5
5E5
100
AcDbEntity
  8
0
100
AcDbLine
 62
7
  6
CONTINUOUS
 10
14.0503192201
 20
8.4636550786
 11
14.0576473428
 21
8.4627798302
  0
LINE
  5
5E6
100
AcDbEntity
  8
0
100
AcDbLine
 62
7
  6
CONTINUOUS
 10
14.136619632
 20
8.5122817789
 11
14.1451172593
 21
8.5111440964
  0
LINE
  5
5E7
100
AcDbEntity
  8
0
100
AcDbLine
 62
7
  6
CONTINUOUS
 10
14.1166775388
 20
8.4938578573
 11
14.1300312797
 21
8.4911279597
  0
LINE
  5
5E8
100
AcDbEntity
  8
0
100
AcDbLine
 62
7
  6
CONTINUOUS
 10
14.2045251204
 20
8.5421094284
 11
14.2175433117
 21
8.5392684055
  0
LINE
  5
5E9
100
AcDbEntity
  8
0
100
AcDbLine
 62
7
  6
CONTINUOUS
 10
14.1789263528
 20
8.5249236793
 11
14.2026389544
 21
8.5181424528
  0
LINE
  5
5EA
100
AcDbEntity
  8
0
100
AcDbLine
 62
7
  6
CONTINUOUS
 10
14.2325949943
 20
8.55947083
 11
14.2754003213
 21
8.5438492042
  0
LWPOLYLINE
  5
5EB
100
AcDbEntity
  8
0
100
AcDbPolyline
 62
7
  6
CONTINUOUS
 90
3
 70
0
 10
14.3176905333
 20
8.5795918028
 10
14.2857552825
 20
8.5924808309
 10
14.243017586
 20
8.6020587524
  0
LWPOLYLINE
  5
5EC
100
AcDbEntity
  8
0
100
AcDbPolyline
 62
7
  6
CONTINUOUS
 90
4
 70
0
 10
14.2894063798
 20
8.5632620366
 10
14.2625921626
 20
8.5744011089
 10
14.2200585002
 20
8.5850495516
 10
14.1796121925
 20
8.5860662595
  0
LWPOLYLINE
  5
5ED
100
AcDbEntity
  8
0
100
AcDbPolyline
 62
7
  6
CONTINUOUS
 90
4
 70
0
 10
14.2611222263
 20
8.5469322705
 10
14.2344663075
 20
8.558015288
 10
14.1917402764
 20
8.5687246214
 10
14.1513800352
 20
8.5697417684
  0
LWPOLYLINE
  5
5EE
100
AcDbEntity
  8
0
100
AcDbPolyline
 62
7
  6
CONTINUOUS
 90
11
 70
0
 10
14.3024202962
 20
8.5882497137
 10
14.3451058943
 20
8.569962799
 10
14.3879692296
 20
8.5430146933
 10
14.4297090896
 20
8.5082530362
 10
14.4690590097
 20
8.4667671342
 10
14.5048264447
 20
8.4198542699
 10
14.5359296526
 20
8.3689795776
 10
14.5614311526
 20
8.3157307278
 10
14.5805667205
 20
8.261768822
 10
14.5927690253
 20
8.208777016
 10
14.5976851766
 20
8.158408461
  0
LINE
  5
5EF
100
AcDbEntity
  8
0
100
AcDbLine
 62
7
  6
CONTINUOUS
 10
14.3126252283
 20
8.6079941088
 11
14.3572205264
 21
8.5887168389
  0
LWPOLYLINE
  5
5F0
100
AcDbEntity
  8
0
100
AcDbPolyline
 62
7
  6
CONTINUOUS
 90
11
 70
0
 10
14.2894621084
 20
8.5899143868
 10
14.3339040106
 20
8.5696850601
 10
14.3784859491
 20
8.5404913808
 10
14.4212389472
 20
8.5037685824
 10
14.4615462543
 20
8.4601956895
 10
14.4981788985
 20
8.4110493247
 10
14.5296218878
 20
8.3585124207
 10
14.5553530222
 20
8.3036793951
 10
14.5748583254
 20
8.2473553749
 10
14.5871373832
 20
8.1919322534
 10
14.5917313378
 20
8.1399641041
  0
LWPOLYLINE
  5
5F1
100
AcDbEntity
  8
0
100
AcDbPolyline
 62
7
  6
CONTINUOUS
 90
11
 70
0
 10
14.2329620659
 20
8.5572306958
 10
14.2776933854
 20
8.5368267359
 10
14.3224302446
 20
8.5074436741
 10
14.3651922883
 20
8.4706041524
 10
14.4052920898
 20
8.4271573299
 10
14.4415400159
 20
8.3784953178
 10
14.4730249284
 20
8.3259066958
 10
14.4987780265
 20
8.2710362628
 10
14.5182870553
 20
8.2147062539
 10
14.5305682915
 20
8.1592777427
 10
14.5351630308
 20
8.1073045718
  0
LWPOLYLINE
  5
5F2
100
AcDbEntity
  8
0
100
AcDbPolyline
 62
7
  6
CONTINUOUS
 90
11
 70
0
 10
14.2613362533
 20
8.5735285659
 10
14.3060420582
 20
8.553120583
 10
14.3507504623
 20
8.5237460843
 10
14.3934871324
 20
8.4869235561
 10
14.4336505612
 20
8.4433973785
 10
14.470027748
 20
8.3945205614
 10
14.5013897071
 20
8.3420850195
 10
14.5271041697
 20
8.287263052
 10
14.5465908134
 20
8.2309671212
 10
14.5588576159
 20
8.175574411
 10
14.5634471843
 20
8.123634338
  0
LWPOLYLINE
  5
5F3
100
AcDbEntity
  8
0
100
AcDbPolyline
 62
7
  6
CONTINUOUS
 90
11
 70
0
 10
14.3442330355
 20
8.5997234707
 10
14.3871172484
 20
8.5785952412
 10
14.429762454
 20
8.5490484121
 10
14.4708741861
 20
8.5120109993
 10
14.5092054079
 20
8.4686426971
 10
14.5435950815
 20
8.4202990091
 10
14.5730040783
 20
8.3684893238
 10
14.596547318
 20
8.3148302305
 10
14.6135211438
 20
8.2609955191
 10
14.6234250859
 20
8.2086644113
 10
14.6259773404
 20
8.1594696235
  0
LWPOLYLINE
  5
5F4
100
AcDbEntity
  8
0
100
AcDbPolyline
 62
7
  6
CONTINUOUS
 90
12
 70
0
 10
14.3868517851
 20
8.6062538206
 10
14.398181497
 20
8.6005584629
 10
14.4412419346
 20
8.5734578406
 10
14.4831611075
 20
8.5384766112
 10
14.5226553007
 20
8.4967211238
 10
14.5585164988
 20
8.4495091976
 10
14.5896500964
 20
8.3983289829
 10
14.6151090678
 20
8.344792507
 10
14.6341235299
 20
8.2905853516
 10
14.6461247758
 20
8.2374140349
 10
14.6507630273
 20
8.1869527393
 10
14.6499391098
 20
8.1584782935
  0
LWPOLYLINE
  5
5F5
100
AcDbEntity
  8
0
100
AcDbPolyline
 62
7
  6
CONTINUOUS
 90
11
 70
0
 10
14.2901814885
 20
8.5660629847
 10
14.3335359325
 20
8.5441448908
 10
14.3765537942
 20
8.5136897148
 10
14.4179020341
 20
8.4756737102
 10
14.4563003326
 20
8.4313118711
 10
14.4905615176
 20
8.3820195675
 10
14.5196290501
 20
8.3293678537
 10
14.542610386
 20
8.2750338604
 10
14.5588051585
 20
8.220747838
 10
14.5677272934
 20
8.1682385224
 10
14.5691203568
 20
8.119178548
  0
LWPOLYLINE
  5
5F6
100
AcDbEntity
  8
0
100
AcDbPolyline
 62
7
  6
CONTINUOUS
 90
12
 70
0
 10
14.3302834782
 20
8.5735942883
 10
14.3429690803
 20
8.5671773032
 10
14.3860136698
 20
8.539814865
 10
14.4278759434
 20
8.5046029699
 10
14.4672739623
 20
8.4626551679
 10
14.5030027133
 20
8.4152952813
 10
14.5339717255
 20
8.3640160795
 10
14.5592391111
 20
8.3104326797
 10
14.5780409677
 20
8.2562321285
 10
14.589815225
 20
8.2031207377
 10
14.5942191909
 20
8.1527708193
 10
14.5933708028
 20
8.1258187611
  0
LWPOLYLINE
  5
5F7
100
AcDbEntity
  8
0
100
AcDbPolyline
 62
7
  6
CONTINUOUS
 90
12
 70
0
 10
14.3019993247
 20
8.5572645221
 10
14.3300004134
 20
8.5421036701
 10
14.373018275
 20
8.5116484941
 10
14.4143665149
 20
8.4736324894
 10
14.4527648134
 20
8.4292706504
 10
14.4870259984
 20
8.3799783468
 10
14.5160935309
 20
8.3273266329
 10
14.5390748668
 20
8.2729926396
 10
14.5552696394
 20
8.2187066173
 10
14.5641917742
 20
8.1661973017
 10
14.5655848376
 20
8.1171373273
 10
14.5650866493
 20
8.109488995
  0
LWPOLYLINE
  5
5F8
100
AcDbEntity
  8
0
100
AcDbPolyline
 62
7
  6
CONTINUOUS
 90
11
 70
0
 10
14.3585676317
 20
8.5899240544
 10
14.3921647579
 20
8.5712964128
 10
14.4348001158
 20
8.5400081184
 10
14.4756251852
 20
8.5013810461
 10
14.5133904053
 20
8.4566353561
 10
14.5469417336
 20
8.4071822114
 10
14.5752566708
 20
8.3545797258
 10
14.5974761805
 20
8.3004843251
 10
14.6129315046
 20
8.2465990387
 10
14.6211650405
 20
8.1946203371
 10
14.6216549563
 20
8.1421485273
  0
LWPOLYLINE
  5
5F9
100
AcDbEntity
  8
0
100
AcDbPolyline
 62
7
  6
CONTINUOUS
 90
11
 70
0
 10
14.3861543522
 20
8.6102690081
 10
14.4291041864
 20
8.5863676672
 10
14.4713990238
 20
8.5543169176
 10
14.5117552349
 20
8.5151222199
 10
14.5489491505
 20
8.4700099912
 10
14.5818549089
 20
8.4203896735
 10
14.6094792777
 20
8.3678101407
 10
14.6309923738
 20
8.3139117926
 10
14.6457533312
 20
8.2603758193
 10
14.6533301225
 20
8.2088722026
 10
14.6535129208
 20
8.1610080655
  0
LINE
  5
5FA
100
AcDbEntity
  8
0
100
AcDbLine
 62
7
  6
CONTINUOUS
 10
14.4549754354
 20
8.5956422708
 11
14.4109337445
 21
8.6228795656
  0
LWPOLYLINE
  5
5FB
100
AcDbEntity
  8
0
100
AcDbPolyline
 62
7
  6
CONTINUOUS
 90
10
 70
0
 10
14.3572205264
 20
8.5887168389
 10
14.4022796163
 20
8.5601696297
 10
14.4457394492
 20
8.5237175236
 10
14.4867992366
 20
8.4801470029
 10
14.5243035241
 20
8.4305866544
 10
14.5565503446
 20
8.3773740081
 10
14.5828254243
 20
8.3219889926
 10
14.6027619588
 20
8.2650153142
 10
14.6153212051
 20
8.2089008888
 10
14.6200154913
 20
8.1562938703
  0
LWPOLYLINE
  5
5FC
100
AcDbEntity
  8
0
100
AcDbPolyline
 62
7
  6
CONTINUOUS
 90
3
 70
0
 10
14.4206101249
 20
8.6192465321
 10
14.4597735741
 20
8.5930764673
 10
14.4979622833
 20
8.5604415376
  0
LINE
  5
5FD
100
AcDbEntity
  8
0
100
AcDbLine
 62
7
  6
CONTINUOUS
 10
14.4979622833
 20
8.5604415376
 11
14.4549754354
 21
8.5956422708
  0
LWPOLYLINE
  5
5FE
100
AcDbEntity
  8
0
100
AcDbPolyline
 62
9
  6
CONTINUOUS
 90
19
 70
0
 10
15.0552404555
 20
8.0536219392
 10
15.0500014028
 20
8.1446414016
 10
15.0343828265
 20
8.2399975706
 10
15.0086786182
 20
8.3378961499
 10
14.9733724483
 20
8.436495003
 10
14.9291286655
 20
8.5339388167
 10
14.8767797954
 20
8.6283940117
 10
14.8173108754
 20
8.718083245
 10
14.7518409193
 20
8.8013188537
 10
14.6816018612
 20
8.8765346114
 10
14.6079153741
 20
8.9423151994
 10
14.5321680009
 20
8.9974228386
 10
14.4557850634
 20
9.0408205804
 10
14.380203843
 20
9.071691819
 10
14.306846535
 20
9.0894556568
 10
14.2370934881
 20
9.0937778357
 10
14.1722572303
 20
9.0845770261
 10
14.1135577715
 20
9.0620263576
 10
14.1046433098
 20
9.0571075566
  0
LWPOLYLINE
  5
5FF
100
AcDbEntity
  8
0
100
AcDbPolyline
 62
7
  6
CONTINUOUS
 90
3
 70
0
 10
14.951725456
 20
7.5159399701
 10
14.959246233
 20
7.5470681288
 10
14.9595564281
 20
7.5549163664
  0
LWPOLYLINE
  5
600
100
AcDbEntity
  8
0
100
AcDbPolyline
 62
9
  6
CONTINUOUS
 90
7
 70
0
 10
15.2301766685
 20
7.8865479831
 10
15.2722810488
 20
7.9174092805
 10
15.3133241542
 20
7.9639647199
 10
15.3463811743
 20
8.021507272
 10
15.3706700089
 20
8.088532681
 10
15.385637139
 20
8.163738762
 10
15.3907612351
 20
8.2461090628
  0
LWPOLYLINE
  5
601
100
AcDbEntity
  8
0
100
AcDbPolyline
 62
7
  6
CONTINUOUS
 90
7
 70
0
 10
15.230129373
 20
7.8865209008
 10
15.2767334527
 20
7.9202689934
 10
15.321926876
 20
7.9699165521
 10
15.3593278124
 20
8.0323951843
 10
15.3868702689
 20
8.1058996797
 10
15.4032495497
 20
8.1874286832
 10
15.4083346515
 20
8.2706052089
  0
LWPOLYLINE
  5
602
100
AcDbEntity
  8
0
100
AcDbPolyline
 62
7
  6
CONTINUOUS
 90
7
 70
0
 10
15.1707777449
 20
7.8522630672
 10
15.1979232774
 20
7.8702484216
 10
15.2456267544
 20
7.9162902305
 10
15.2837757533
 20
7.9749384127
 10
15.3115936704
 20
8.0449990605
 10
15.3285142131
 20
8.125045941
 10
15.3341929282
 20
8.2134495305
  0
LWPOLYLINE
  5
603
100
AcDbEntity
  8
0
100
AcDbPolyline
 62
9
  6
CONTINUOUS
 90
8
 70
0
 10
14.8921397842
 20
7.6931155102
 10
14.9055051271
 20
7.701374527
 10
14.9497418704
 20
7.7379416028
 10
14.986919303
 20
7.7844742869
 10
15.016455954
 20
7.8402447883
 10
15.0378898578
 20
7.9043808327
 10
15.0508857788
 20
7.9758793052
 10
15.0552404555
 20
8.0536219392
  0
LINE
  5
604
100
AcDbEntity
  8
0
100
AcDbLine
 62
7
  6
CONTINUOUS
 10
15.1608392424
 20
7.8482482886
 11
14.8921397842
 21
7.6931155102
  0
LINE
  5
605
100
AcDbEntity
  8
0
100
AcDbLine
 62
7
  6
CONTINUOUS
 10
15.2302715262
 20
7.8866027489
 11
15.1707815889
 21
7.8522564226
  0
LINE
  5
606
100
AcDbEntity
  8
0
100
AcDbLine
 62
7
  6
CONTINUOUS
 10
15.1490566194
 20
7.8414456287
 11
15.1707777449
 21
7.8522630672
  0
LWPOLYLINE
  5
607
100
AcDbEntity
  8
0
100
AcDbPolyline
 62
7
  6
CONTINUOUS
 90
10
 70
0
 10
13.8996905136
 20
8.3814469403
 10
13.9305862648
 20
8.3885898905
 10
13.9647692473
 20
8.3872605178
 10
14.0012008284
 20
8.3774992145
 10
14.0387740528
 20
8.359602573
 10
14.0763472772
 20
8.3341143735
 10
14.1127788583
 20
8.3018090622
 10
14.1469618407
 20
8.2636682196
 10
14.177857592
 20
8.2208507358
 10
14.2045273603
 20
8.1746575985
  0
LINE
  5
608
100
AcDbEntity
  8
0
100
AcDbLine
 62
7
  6
CONTINUOUS
 10
14.2229651799
 20
8.5608980601
 11
14.2325949943
 21
8.55947083
  0
LINE
  5
609
100
AcDbEntity
  8
0
100
AcDbLine
 62
7
  6
CONTINUOUS
 10
14.2888687137
 20
8.5912242539
 11
14.3024202962
 21
8.5882497137
  0
LINE
  5
60A
100
AcDbEntity
  8
0
100
AcDbLine
 62
7
  6
CONTINUOUS
 10
14.3200394355
 20
8.606689748
 11
14.3442330355
 21
8.5997234707
  0
LINE
  5
60B
100
AcDbEntity
  8
0
100
AcDbLine
 62
7
  6
CONTINUOUS
 10
14.2609412912
 20
8.57481441
 11
14.2901814885
 21
8.5660629847
  0
LINE
  5
60C
100
AcDbEntity
  8
0
100
AcDbLine
 62
7
  6
CONTINUOUS
 10
14.3438534091
 20
8.6252675351
 11
14.3861543522
 21
8.6102690081
  0
LWPOLYLINE
  5
60D
100
AcDbEntity
  8
0
100
AcDbPolyline
 62
7
  6
CONTINUOUS
 90
4
 70
0
 10
14.3459746868
 20
8.5959215689
 10
14.3190639868
 20
8.6070947491
 10
14.2765898365
 20
8.6177143312
 10
14.2361583794
 20
8.6187235421
  0
LWPOLYLINE
  5
60E
100
AcDbEntity
  8
0
100
AcDbPolyline
 62
7
  6
CONTINUOUS
 90
4
 70
0
 10
14.3742588403
 20
8.6122513351
 10
14.3478502847
 20
8.6232465248
 10
14.3052966384
 20
8.6339836722
 10
14.2648248411
 20
8.6350917188
  0
LWPOLYLINE
  5
60F
100
AcDbEntity
  8
0
100
AcDbPolyline
 62
7
  6
CONTINUOUS
 90
3
 70
0
 10
14.4109337445
 20
8.6228795656
 10
14.3671337982
 20
8.6413225875
 10
14.324864791
 20
8.650404403
  0
LWPOLYLINE
  5
610
100
AcDbEntity
  8
0
100
AcDbPolyline
 62
7
  6
CONTINUOUS
 90
11
 70
0
 10
14.3459339326
 20
8.622608027
 10
14.3898459376
 20
8.6026913492
 10
14.4341137941
 20
8.5738599196
 10
14.4768284855
 20
8.5373715641
 10
14.5173260386
 20
8.4938031968
 10
14.554343999
 20
8.4443110953
 10
14.5861979961
 20
8.3911573003
 10
14.6119428297
 20
8.3362862014
 10
14.6314367769
 20
8.2799792567
 10
14.6437083607
 20
8.2245746934
 10
14.6482996448
 20
8.1726236364
  0
LWPOLYLINE
  5
611
100
AcDbEntity
  8
0
100
AcDbPolyline
 62
9
  6
CONTINUOUS
 90
5
 70
0
 10
14.4471265188
 20
8.622104026
 10
14.4052870886
 20
8.6420074473
 10
14.3648639888
 20
8.6527747356
 10
14.3270598247
 20
8.654166612
 10
14.3129991946
 20
8.6508849125
  0
LWPOLYLINE
  5
612
100
AcDbEntity
  8
0
100
AcDbPolyline
 62
9
  6
CONTINUOUS
 90
6
 70
0
 10
14.4559653168
 20
8.6374133582
 10
14.4125933156
 20
8.6580471293
 10
14.3706766211
 20
8.6692142818
 10
14.3314752877
 20
8.6706597235
 10
14.2961088047
 20
8.6624071206
 10
14.2659827234
 20
8.6449499801
  0
LINE
  5
613
100
AcDbEntity
  8
0
100
AcDbLine
 62
7
  6
CONTINUOUS
 10
14.4028876789
 20
8.6284169396
 11
14.4025429938
 21
8.6285811012
  0
LINE
  5
614
100
AcDbEntity
  8
0
100
AcDbLine
 62
7
  6
CONTINUOUS
 10
14.4025429938
 20
8.6285811012
 11
14.4206101249
 21
8.6192465321
  0
LINE
  5
615
100
AcDbEntity
  8
0
100
AcDbLine
 62
7
  6
CONTINUOUS
 10
14.4028876803
 20
8.6284169199
 11
14.4206101249
 21
8.6192465321
  0
LWPOLYLINE
  5
616
100
AcDbEntity
  8
0
100
AcDbPolyline
 62
7
  6
CONTINUOUS
 90
5
 70
0
 10
13.9087587924
 20
8.4192350948
 10
13.8762513533
 20
8.4102581716
 10
13.8482430718
 20
8.3928741472
 10
13.8255440325
 20
8.3677265603
 10
13.8085652884
 20
8.3353468988
  0
LINE
  5
617
100
AcDbEntity
  8
0
100
AcDbLine
 62
7
  6
CONTINUOUS
 10
13.9202713111
 20
8.4379001785
 11
13.8838974978
 21
8.4281267794
  0
LWPOLYLINE
  5
618
100
AcDbEntity
  8
0
100
AcDbPolyline
 62
7
  6
CONTINUOUS
 90
3
 70
0
 10
14.1232999304
 20
8.553432524
 10
14.0866000761
 20
8.5446204534
 10
14.0703478895
 20
8.5367452651
  0
LWPOLYLINE
  5
619
100
AcDbEntity
  8
0
100
AcDbPolyline
 62
7
  6
CONTINUOUS
 90
3
 70
0
 10
14.0951342296
 20
8.5371145402
 10
14.0585563835
 20
8.5283862049
 10
14.0420714714
 20
8.5204199667
  0
LWPOLYLINE
  5
61A
100
AcDbEntity
  8
0
100
AcDbPolyline
 62
7
  6
CONTINUOUS
 90
4
 70
0
 10
14.0854263293
 20
8.5438994827
 10
14.1220041754
 20
8.552627818
 10
14.1619490497
 20
8.5515915164
 10
14.2046914733
 20
8.5408961279
  0
LWPOLYLINE
  5
61B
100
AcDbEntity
  8
0
100
AcDbPolyline
 62
7
  6
CONTINUOUS
 90
3
 70
0
 10
13.9818986785
 20
8.471785641
 10
13.9455355293
 20
8.4631129207
 10
13.9289442015
 20
8.455106298
  0
LWPOLYLINE
  5
61C
100
AcDbEntity
  8
0
100
AcDbPolyline
 62
7
  6
CONTINUOUS
 90
4
 70
0
 10
13.9724054751
 20
8.4786261985
 10
14.0087686243
 20
8.4872989189
 10
14.0489276803
 20
8.4862561265
 10
14.0916660286
 20
8.4755376671
  0
LWPOLYLINE
  5
61D
100
AcDbEntity
  8
0
100
AcDbPolyline
 62
7
  6
CONTINUOUS
 90
3
 70
0
 10
14.0102582421
 20
8.4881229091
 10
13.9740160707
 20
8.4795200535
 10
13.9572372166
 20
8.4714411806
  0
LWPOLYLINE
  5
61E
100
AcDbEntity
  8
0
100
AcDbPolyline
 62
7
  6
CONTINUOUS
 90
4
 70
0
 10
14.0008860165
 20
8.4950333314
 10
14.037128188
 20
8.503636187
 10
14.0772199794
 20
8.5025847361
 10
14.1199799482
 20
8.4918568749
  0
LWPOLYLINE
  5
61F
100
AcDbEntity
  8
0
100
AcDbPolyline
 62
7
  6
CONTINUOUS
 90
3
 70
0
 10
14.0385932945
 20
8.5044577168
 10
14.0023571005
 20
8.4958721556
 10
13.9855221235
 20
8.4877713817
  0
LWPOLYLINE
  5
620
100
AcDbEntity
  8
0
100
AcDbPolyline
 62
7
  6
CONTINUOUS
 90
4
 70
0
 10
14.0292270463
 20
8.5113854334
 10
14.0654632404
 20
8.5199709947
 10
14.1054962083
 20
8.5189156275
 10
14.1482504963
 20
8.5081914675
  0
LWPOLYLINE
  5
621
100
AcDbEntity
  8
0
100
AcDbPolyline
 62
7
  6
CONTINUOUS
 90
3
 70
0
 10
13.9539529924
 20
8.455489242
 10
13.9173446691
 20
8.4468199543
 10
13.9006484794
 20
8.4387698512
  0
LWPOLYLINE
  5
622
100
AcDbEntity
  8
0
100
AcDbPolyline
 62
7
  6
CONTINUOUS
 90
4
 70
0
 10
13.9442146149
 20
8.4623332322
 10
13.9808229382
 20
8.4710025198
 10
14.0211175249
 20
8.4698584641
 10
14.063867939
 20
8.459034971
  0
LWPOLYLINE
  5
623
100
AcDbEntity
  8
0
100
AcDbPolyline
 62
7
  6
CONTINUOUS
 90
3
 70
0
 10
14.0670037774
 20
8.5207999194
 10
14.030648737
 20
8.512204858
 10
14.0137996211
 20
8.5040973051
  0
LWPOLYLINE
  5
624
100
AcDbEntity
  8
0
100
AcDbPolyline
 62
7
  6
CONTINUOUS
 90
4
 70
0
 10
14.0575186829
 20
8.5277181359
 10
14.0938737233
 20
8.5363131973
 10
14.1337926175
 20
8.5352436533
 10
14.1765167788
 20
8.524527572
  0
LWPOLYLINE
  5
625
100
AcDbEntity
  8
0
100
AcDbPolyline
 62
7
  6
CONTINUOUS
 90
4
 70
0
 10
13.9180839387
 20
8.4468294261
 10
13.9555659496
 20
8.4549366362
 10
13.9966089568
 20
8.452945027
 10
14.0400764249
 20
8.4410547544
  0
LWPOLYLINE
  5
626
100
AcDbEntity
  8
0
100
AcDbPolyline
 62
7
  6
CONTINUOUS
 90
5
 70
0
 10
13.8927008878
 20
8.4318605654
 10
13.9300233728
 20
8.4395196976
 10
13.971069743
 20
8.4372080293
 10
14.0145974659
 20
8.4250114993
 10
14.0348489984
 20
8.4162941412
  0
LINE
  5
627
100
AcDbEntity
  8
0
100
AcDbLine
 62
7
  6
CONTINUOUS
 10
14.243017586
 20
8.6020587524
 11
14.202461959
 21
8.6017409833
  0
LWPOLYLINE
  5
628
100
AcDbEntity
  8
0
100
AcDbPolyline
 62
7
  6
CONTINUOUS
 90
3
 70
0
 10
14.2293319048
 20
8.6172542611
 10
14.2698875318
 20
8.6175720302
 10
14.3126252283
 20
8.6079941088
  0
LINE
  5
629
100
AcDbEntity
  8
0
100
AcDbLine
 62
7
  6
CONTINUOUS
 10
14.3349057253
 20
8.6265126995
 11
14.3438534091
 21
8.6252675351
  0
LWPOLYLINE
  5
62A
100
AcDbEntity
  8
0
100
AcDbPolyline
 62
7
  6
CONTINUOUS
 90
5
 70
0
 10
14.9292946535
 20
7.445756864
 10
14.9362767909
 20
7.4555982272
 10
14.9479337965
 20
7.4785191247
 10
14.9538221481
 20
7.5021645107
 10
14.9545609487
 20
7.5141080767
  0
LINE
  5
62B
100
AcDbEntity
  8
0
100
AcDbLine
 62
7
  6
CONTINUOUS
 10
14.9292946535
 20
7.445756864
 11
14.9029422267
 21
7.4117356382
  0
LWPOLYLINE
  5
62C
100
AcDbEntity
  8
0
100
AcDbPolyline
 62
7
  6
CONTINUOUS
 90
4
 70
0
 10
14.8731583176
 20
7.4345021749
 10
14.9079358978
 20
7.4586820685
 10
14.934425636
 20
7.4861396789
 10
14.951725456
 20
7.5159399701
  0
LWPOLYLINE
  5
62D
100
AcDbEntity
  8
0
100
AcDbPolyline
 62
7
  6
CONTINUOUS
 90
4
 70
0
 10
14.8492102695
 20
7.3666780325
 10
14.8746682132
 20
7.383757493
 10
14.8954327078
 20
7.4028368045
 10
14.9029377241
 20
7.4117340245
  0
LWPOLYLINE
  5
62E
100
AcDbEntity
  8
0
100
AcDbPolyline
 62
7
  6
CONTINUOUS
 90
4
 70
0
 10
14.869622769
 20
7.3957182579
 10
14.8967186322
 20
7.4137720637
 10
14.9190884343
 20
7.4338684215
 10
14.9292946535
 20
7.445756864
  0
LWPOLYLINE
  5
62F
100
AcDbEntity
  8
0
100
AcDbPolyline
 62
7
  6
CONTINUOUS
 90
15
 70
0
 10
14.869622769
 20
7.3957182579
 10
14.8383524386
 20
7.3800745273
 10
14.8035442146
 20
7.3671593333
 10
14.7659066921
 20
7.3572355919
 10
14.7262060625
 20
7.3505053219
 10
14.6852505162
 20
7.3471055323
 10
14.6438737899
 20
7.3471054328
 10
14.6029181946
 20
7.3505050256
 10
14.5632174679
 20
7.3572351047
 10
14.5255798023
 20
7.3671586651
 10
14.490771392
 20
7.3800736918
 10
14.4595008359
 20
7.395717272
 10
14.4324047124
 20
7.4137709476
 10
14.4100346204
 20
7.4338671978
 10
14.3998272439
 20
7.445756864
  0
LWPOLYLINE
  5
630
100
AcDbEntity
  8
0
100
AcDbPolyline
 62
7
  6
CONTINUOUS
 90
3
 70
0
 10
14.2361583794
 20
8.6187235421
 10
14.1992481852
 20
8.6097437156
 10
14.1834669617
 20
8.6020541952
  0
LWPOLYLINE
  5
631
100
AcDbEntity
  8
0
100
AcDbPolyline
 62
7
  6
CONTINUOUS
 90
4
 70
0
 10
14.226118131
 20
8.6252569934
 10
14.2630283252
 20
8.6342368199
 10
14.3034597823
 20
8.6332276091
 10
14.3459339326
 20
8.622608027
  0
LWPOLYLINE
  5
632
100
AcDbEntity
  8
0
100
AcDbPolyline
 62
7
  6
CONTINUOUS
 90
3
 70
0
 10
14.1796121925
 20
8.5860662595
 10
14.1426885623
 20
8.5770876846
 10
14.126900393
 20
8.5693956673
  0
LWPOLYLINE
  5
633
100
AcDbEntity
  8
0
100
AcDbPolyline
 62
7
  6
CONTINUOUS
 90
4
 70
0
 10
14.1695585082
 20
8.5926009624
 10
14.2064821383
 20
8.6015795373
 10
14.246928446
 20
8.6005628295
 10
14.2894621084
 20
8.5899143868
  0
LWPOLYLINE
  5
634
100
AcDbEntity
  8
0
100
AcDbPolyline
 62
7
  6
CONTINUOUS
 90
3
 70
0
 10
14.1513800352
 20
8.5697417684
 10
14.1145063988
 20
8.5607989841
 10
14.0986193358
 20
8.5530676902
  0
LWPOLYLINE
  5
635
100
AcDbEntity
  8
0
100
AcDbPolyline
 62
7
  6
CONTINUOUS
 90
4
 70
0
 10
14.1413763446
 20
8.5763122619
 10
14.178249981
 20
8.5852550462
 10
14.2186102222
 20
8.5842378992
 10
14.2613362533
 20
8.5735285659
  0
LWPOLYLINE
  5
636
100
AcDbEntity
  8
0
100
AcDbPolyline
 62
7
  6
CONTINUOUS
 90
3
 70
0
 10
14.2648248411
 20
8.6350917188
 10
14.2278588573
 20
8.626204618
 10
14.2117496463
 20
8.6183831125
  0
LWPOLYLINE
  5
637
100
AcDbEntity
  8
0
100
AcDbPolyline
 62
7
  6
CONTINUOUS
 90
4
 70
0
 10
14.1134700219
 20
8.5601337312
 10
14.1501698762
 20
8.5689458018
 10
14.1902215457
 20
8.56792293
 10
14.2329620659
 20
8.5572306958
  0
LINE
  5
638
100
AcDbEntity
  8
0
100
AcDbLine
 62
7
  6
CONTINUOUS
 10
14.324864791
 20
8.650404403
 11
14.2853698426
 21
8.6498386807
  0
LWPOLYLINE
  5
639
100
AcDbEntity
  8
0
100
AcDbPolyline
 62
9
  6
CONTINUOUS
 90
14
 70
0
 10
14.5291526605
 20
8.8963262456
 10
14.4559449986
 20
8.9446341226
 10
14.3827382501
 20
8.9808501379
 10
14.3110224683
 20
9.004237375
 10
14.2422573232
 20
9.0143200054
 10
14.1778424077
 20
9.0108929596
 10
14.1190887659
 20
8.9940260913
 10
14.0671922236
 20
8.9640627519
 10
14.0232090621
 20
8.9216128033
 10
13.9880345291
 20
8.8675402103
 10
13.9623846251
 20
8.8029454673
 10
13.9467815334
 20
8.7291432137
 10
13.9415429921
 20
8.6476354943
 10
13.9467758223
 20
8.5600812079
  0
LWPOLYLINE
  5
63A
100
AcDbEntity
  8
0
100
AcDbPolyline
 62
7
  6
CONTINUOUS
 90
18
 70
0
 10
15.3341929282
 20
8.2134495305
 10
15.3285142131
 20
8.3084101871
 10
15.3115936704
 20
8.4079947854
 10
15.2837757533
 20
8.5101760703
 10
15.2456267544
 20
8.6128739255
 10
15.1979232774
 20
8.7139977188
 10
15.1416364276
 20
8.8114888615
 10
15.0779120427
 20
8.9033627148
 10
15.0080473676
 20
8.9877489923
 10
14.9334646455
 20
9.0629298325
 10
14.8556821657
 20
9.1273747704
 10
14.776283355
 20
9.179771893
 10
14.6968845443
 20
9.2190545458
 10
14.6191020645
 20
9.2444230474
 10
14.5445193424
 20
9.2553609682
 10
14.4746546673
 20
9.2516456437
 10
14.4109302825
 20
9.2333527072
 10
14.3817889651
 20
9.2188399045
  0
LWPOLYLINE
  5
63B
100
AcDbEntity
  8
0
100
AcDbPolyline
 62
9
  6
CONTINUOUS
 90
19
 70
0
 10
15.3907612351
 20
8.2461090628
 10
15.3859882414
 20
8.3329523264
 10
15.3717509274
 20
8.4238209314
 10
15.3482928976
 20
8.5171600909
 10
15.3160155253
 20
8.6113727458
 10
15.2754710854
 20
8.7048468916
 10
15.2273533044
 20
8.7959831598
 10
15.172485491
 20
8.8832221834
 10
15.1118064486
 20
8.9650712787
 10
15.0463544124
 20
9.0401299849
 10
14.977249285
 20
9.1071140267
 10
14.9056734742
 20
9.1648772887
 10
14.832851662
 20
9.2124314253
 10
14.7600298498
 20
9.2489627721
 10
14.688454039
 20
9.2738462677
 10
14.6193489116
 20
9.2866561486
 10
14.5538968754
 20
9.287173234
 10
14.493217833
 20
9.2753886766
 10
14.4383534281
 20
9.2515060814
  0
LWPOLYLINE
  5
63C
100
AcDbEntity
  8
0
100
AcDbPolyline
 62
9
  6
CONTINUOUS
 90
4
 70
0
 10
15.4083346516
 20
8.2706035081
 10
15.4062902659
 20
8.2616380209
 10
15.4002963007
 20
8.2532833725
 10
15.3907612351
 20
8.2461090628
  0
LWPOLYLINE
  5
63D
100
AcDbEntity
  8
0
100
AcDbPolyline
 62
7
  6
CONTINUOUS
 90
14
 70
0
 10
14.8492102695
 20
7.3666780325
 10
14.8196275651
 20
7.3519799497
 10
14.7865809287
 20
7.3399915757
 10
14.7508085676
 20
7.3309807108
 10
14.7131095772
 20
7.325148643
 10
14.6743260907
 20
7.3226256509
 10
14.635324467
 20
7.323468094
 10
14.5969759381
 20
7.3276571536
 10
14.5601371466
 20
7.335099253
 10
14.5256310102
 20
7.3456281479
 10
14.4942283392
 20
7.3590086404
 10
14.4666306171
 20
7.3749418322
 10
14.4434543316
 20
7.3930718021
 10
14.4261768276
 20
7.4117395355
  0
LWPOLYLINE
  5
63E
100
AcDbEntity
  8
0
100
AcDbPolyline
 62
7
  6
CONTINUOUS
 90
18
 70
0
 10
15.4083346516
 20
8.2706035081
 10
15.4027593036
 20
8.3646418378
 10
15.3862932471
 20
8.4621581446
 10
15.3594434493
 20
8.5613497779
 10
15.3228629369
 20
8.6604096088
 10
15.2773572668
 20
8.7575165172
 10
15.2237457286
 20
8.8510919609
 10
15.1630002835
 20
8.9394673453
 10
15.0961398304
 20
9.0211007162
 10
15.0242318847
 20
9.09453651
 10
14.9485681978
 20
9.1582583918
 10
14.8703086734
 20
9.2110402731
 10
14.7908968921
 20
9.2516194592
 10
14.7122520499
 20
9.2788599056
 10
14.6361271277
 20
9.2922261981
 10
14.5643694248
 20
9.2917367496
 10
14.4980446071
 20
9.2779018507
 10
14.4383534281
 20
9.2515060814
  0
LINE
  5
63F
100
AcDbEntity
  8
0
100
AcDbLine
 62
7
  6
CONTINUOUS
 10
15.4083346515
 20
8.2706052089
 11
15.4083346516
 21
8.2706035081
  0
LWPOLYLINE
  5
640
100
AcDbEntity
  8
AXIS
100
AcDbPolyline
 62
7
  6
CONTINUOUS
 90
11
 70
0
 10
14.7469392317
 20
6.8108965878
 10
14.7248312192
 20
6.8008966371
 10
14.6992205176
 20
6.7942418643
 10
14.6715955278
 20
6.7913190207
 10
14.6435617139
 20
6.7922979711
 10
14.6167482992
 20
6.7971218227
 10
14.5927135819
 20
6.8055102307
 10
14.5728543724
 20
6.8169756913
 10
14.5583248157
 20
6.8308518735
 10
14.549969317
 20
6.8463323443
 10
14.5480661575
 20
6.8584715216
  0
LINE
  5
641
100
AcDbEntity
  8
AXIS
100
AcDbLine
 62
7
  6
CONTINUOUS
 10
4.6159242376
 20
3.6896923443
 11
4.3829242376
 21
3.6896923443
  0
LWPOLYLINE
  5
642
100
AcDbEntity
  8
0
100
AcDbPolyline
 62
7
  6
CONTINUOUS
 90
17
 70
0
 10
4.4202862593
 20
5.9943257474
 10
4.3661886997
 20
5.9774635828
 10
4.3155556585
 20
5.9517945122
 10
4.2695833887
 20
5.9178146038
 10
4.2299738621
 20
5.876719505
 10
4.1978727065
 20
5.8298701803
 10
4.1738612362
 20
5.7782082117
 10
4.158619283
 20
5.7229446282
 10
4.1527151686
 20
5.6656958757
 10
4.1563854468
 20
5.6081139988
 10
4.1695722722
 20
5.5518006419
 10
4.1914015545
 20
5.4993843174
 10
4.2211633434
 20
5.4515532465
 10
4.2579426269
 20
5.4093641649
 10
4.3006685619
 20
5.3737517535
 10
4.3457457436
 20
5.3466634522
 10
4.3900322216
 20
5.3280183376
  0
LINE
  5
643
100
AcDbEntity
  8
0
100
AcDbLine
 62
7
  6
CONTINUOUS
 10
4.2944242376
 20
5.8246923443
 11
4.2844242376
 21
5.8146923443
  0
LINE
  5
644
100
AcDbEntity
  8
0
100
AcDbLine
 62
7
  6
CONTINUOUS
 10
4.7605567242
 20
4.4426923443
 11
4.2382917511
 21
4.4426923443
  0
LINE
  5
645
100
AcDbEntity
  8
0
100
AcDbLine
 62
7
  6
CONTINUOUS
 10
4.7894242376
 20
4.4926923443
 11
4.2094242376
 21
4.4926923443
  0
LINE
  5
646
100
AcDbEntity
  8
0
100
AcDbLine
 62
7
  6
CONTINUOUS
 10
4.2044242376
 20
4.5426923443
 11
4.7944242376
 21
4.5426923443
  0
LINE
  5
647
100
AcDbEntity
  8
0
100
AcDbLine
 62
7
  6
CONTINUOUS
 10
4.2094242376
 20
4.4926923443
 11
4.2382917511
 21
4.4426923443
  0
LINE
  5
648
100
AcDbEntity
  8
0
100
AcDbLine
 62
7
  6
CONTINUOUS
 10
4.2044242376
 20
4.5426923443
 11
4.2044242376
 21
4.8951267201
  0
LINE
  5
649
100
AcDbEntity
  8
0
100
AcDbLine
 62
7
  6
CONTINUOUS
 10
4.2094242376
 20
4.5426923443
 11
4.2094242376
 21
4.4926923443
  0
LINE
  5
64A
100
AcDbEntity
  8
0
100
AcDbLine
 62
7
  6
CONTINUOUS
 10
4.2844242376
 20
5.8146923443
 11
4.2844242376
 21
5.5146923443
  0
LINE
  5
64B
100
AcDbEntity
  8
0
100
AcDbLine
 62
9
  6
CONTINUOUS
 10
4.2944242376
 20
5.5046923443
 11
4.2944242376
 21
5.8246923443
  0
LWPOLYLINE
  5
64C
100
AcDbEntity
  8
0
100
AcDbPolyline
 62
9
  6
CONTINUOUS
 90
8
 70
0
 10
4.2783132666
 20
4.8600456828
 10
4.2993217612
 20
4.8550592923
 10
4.3233276967
 20
4.8553007762
 10
4.3507825393
 20
4.8605795816
 10
4.3821545241
 20
4.8711228354
 10
4.417685404
 20
4.8873313264
 10
4.4571167482
 20
4.9094568731
 10
4.4994242376
 20
4.9371923443
  0
LWPOLYLINE
  5
64D
100
AcDbEntity
  8
0
100
AcDbPolyline
 62
9
  6
CONTINUOUS
 90
8
 70
0
 10
4.2521792565
 20
4.9170118181
 10
4.2753262656
 20
4.911219933
 10
4.3013371381
 20
4.9081073796
 10
4.3310021707
 20
4.9075649638
 10
4.3651768297
 20
4.9097762568
 10
4.4045792575
 20
4.9151393646
 10
4.4495022244
 20
4.9241483262
 10
4.4994242376
 20
4.9371923443
  0
LWPOLYLINE
  5
64E
100
AcDbEntity
  8
0
100
AcDbPolyline
 62
9
  6
CONTINUOUS
 90
6
 70
0
 10
4.2783132666
 20
4.8600456828
 10
4.2519832977
 20
4.8712249403
 10
4.2309349756
 20
4.881197342
 10
4.2159182155
 20
4.8888956792
 10
4.2071827837
 20
4.8936040545
 10
4.2044242376
 20
4.8951267201
  0
LINE
  5
64F
100
AcDbEntity
  8
0
100
AcDbLine
 62
7
  6
CONTINUOUS
 10
4.169556981
 20
4.9496092422
 11
4.1698895647
 21
4.9494545869
  0
LWPOLYLINE
  5
650
100
AcDbEntity
  8
0
100
AcDbPolyline
 62
9
  6
CONTINUOUS
 90
6
 70
0
 10
4.2521792565
 20
4.9170118181
 10
4.2625041464
 20
4.9113641851
 10
4.2707677827
 20
4.9020892887
 10
4.2763860802
 20
4.8898426915
 10
4.2789619297
 20
4.8754900001
 10
4.2783132666
 20
4.8600456828
  0
LINE
  5
651
100
AcDbEntity
  8
AXIS
100
AcDbLine
 62
7
  6
CONTINUOUS
 10
4.3829242376
 20
4.4426923443
 11
4.3829242376
 21
3.6896923443
  0
LINE
  5
652
100
AcDbEntity
  8
AXIS_COSMETIC_THREADS
100
AcDbLine
 62
7
  6
CONTINUOUS
 10
4.3829242376
 20
4.4426923443
 11
4.3829242376
 21
3.6896923443
  0
LINE
  5
653
100
AcDbEntity
  8
0
100
AcDbLine
 62
7
  6
CONTINUOUS
 10
4.7044242376
 20
5.5046923443
 11
4.7144242376
 21
5.5146923443
  0
LWPOLYLINE
  5
654
100
AcDbEntity
  8
0
100
AcDbPolyline
 62
9
  6
CONTINUOUS
 90
8
 70
0
 10
4.4994242376
 20
4.9371923443
 10
4.5493462508
 20
4.9241483262
 10
4.5942692178
 20
4.9151393646
 10
4.6336716455
 20
4.9097762568
 10
4.6678463045
 20
4.9075649638
 10
4.6975113371
 20
4.9081073796
 10
4.7235222096
 20
4.911219933
 10
4.7466692187
 20
4.9170118181
  0
LWPOLYLINE
  5
655
100
AcDbEntity
  8
0
100
AcDbPolyline
 62
9
  6
CONTINUOUS
 90
8
 70
0
 10
4.4994242376
 20
4.9371923443
 10
4.541731727
 20
4.9094568731
 10
4.5811630713
 20
4.8873313264
 10
4.6166939511
 20
4.8711228354
 10
4.648065936
 20
4.8605795816
 10
4.6755207785
 20
4.8553007762
 10
4.699526714
 20
4.8550592923
 10
4.7205352086
 20
4.8600456828
  0
LINE
  5
656
100
AcDbEntity
  8
DEFAULT_1
100
AcDbLine
 62
7
  6
CENTER
 10
4.4994242376
 20
5.6646923443
 11
4.4994242376
 21
4.7771923443
  0
LINE
  5
657
100
AcDbEntity
  8
DATUM_CURVES
100
AcDbLine
 62
40
  6
CONTINUOUS
 10
4.4994242376
 20
5.3649363157
 11
4.4994242376
 21
5.3586923443
  0
LINE
  5
658
100
AcDbEntity
  8
DATUM_CURVES
100
AcDbLine
 62
40
  6
CONTINUOUS
 10
4.4994242376
 20
5.3106923443
 11
4.4994242376
 21
5.2646923443
  0
LINE
  5
659
100
AcDbEntity
  8
DATUM_CURVES
100
AcDbLine
 62
40
  6
CONTINUOUS
 10
4.4994242376
 20
5.964448373
 11
4.4994242376
 21
5.9706923443
  0
LINE
  5
65A
100
AcDbEntity
  8
DATUM_CURVES
100
AcDbLine
 62
40
  6
CONTINUOUS
 10
4.4994242376
 20
6.0186447161
 11
4.4994242376
 21
6.0646923443
  0
LINE
  5
65B
100
AcDbEntity
  8
DEFAULT_1
100
AcDbLine
 62
7
  6
CENTER
 10
4.4994242376
 20
5.6646923443
 11
4.4994242376
 21
6.5521923443
  0
LINE
  5
65C
100
AcDbEntity
  8
AXIS
100
AcDbLine
 62
7
  6
CONTINUOUS
 10
4.6159242376
 20
4.4426923443
 11
4.6159242376
 21
3.6896923443
  0
LINE
  5
65D
100
AcDbEntity
  8
AXIS_COSMETIC_THREADS
100
AcDbLine
 62
7
  6
CONTINUOUS
 10
4.6159242376
 20
4.4426923443
 11
4.6159242376
 21
3.6896923443
  0
LINE
  5
65E
100
AcDbEntity
  8
0
100
AcDbLine
 62
9
  6
CONTINUOUS
 10
4.7044242376
 20
5.8246923443
 11
4.7044242376
 21
5.5046923443
  0
LINE
  5
65F
100
AcDbEntity
  8
0
100
AcDbLine
 62
7
  6
CONTINUOUS
 10
4.7144242376
 20
5.8146923443
 11
4.7144242376
 21
5.5146923443
  0
LINE
  5
660
100
AcDbEntity
  8
0
100
AcDbLine
 62
7
  6
CONTINUOUS
 10
4.2944242376
 20
5.5046923443
 11
4.2844242376
 21
5.5146923443
  0
LINE
  5
661
100
AcDbEntity
  8
0
100
AcDbLine
 62
7
  6
CONTINUOUS
 10
4.7894242376
 20
4.5426923443
 11
4.7894242376
 21
4.4926923443
  0
LINE
  5
662
100
AcDbEntity
  8
0
100
AcDbLine
 62
7
  6
CONTINUOUS
 10
4.7944242376
 20
4.5426923443
 11
4.7944242376
 21
4.8951267201
  0
LWPOLYLINE
  5
663
100
AcDbEntity
  8
0
100
AcDbPolyline
 62
9
  6
CONTINUOUS
 90
6
 70
0
 10
4.7944242376
 20
4.8951267201
 10
4.7916657339
 20
4.8936040778
 10
4.7829304129
 20
4.8888957602
 10
4.7679137613
 20
4.8811974719
 10
4.7468654307
 20
4.8712250546
 10
4.7205352086
 20
4.8600456828
  0
LWPOLYLINE
  5
664
100
AcDbEntity
  8
0
100
AcDbPolyline
 62
9
  6
CONTINUOUS
 90
6
 70
0
 10
4.7466692187
 20
4.9170118181
 10
4.7363443288
 20
4.9113641851
 10
4.7280806925
 20
4.9020892887
 10
4.722462395
 20
4.8898426915
 10
4.7198865455
 20
4.8754900001
 10
4.7205352086
 20
4.8600456828
  0
LINE
  5
665
100
AcDbEntity
  8
0
100
AcDbLine
 62
7
  6
CONTINUOUS
 10
4.8292914942
 20
4.9496092422
 11
4.8289589321
 21
4.9494545971
  0
LWPOLYLINE
  5
666
100
AcDbEntity
  8
0
100
AcDbPolyline
 62
7
  6
CONTINUOUS
 90
17
 70
0
 10
4.4994242376
 20
5.3106923443
 10
4.5595107936
 20
5.3168335701
 10
4.617516405
 20
5.333071502
 10
4.6715970528
 20
5.3587825587
 10
4.7206660209
 20
5.3934355157
 10
4.7628821169
 20
5.435725685
 10
4.7970623366
 20
5.4842495657
 10
4.8224161121
 20
5.5376518108
 10
4.8383612361
 20
5.5947042411
 10
4.8443432824
 20
5.653745856
 10
4.8400793054
 20
5.7131944355
 10
4.8258917111
 20
5.7702213855
 10
4.803283692
 20
5.8219584938
 10
4.7744154681
 20
5.8667461103
 10
4.7421033679
 20
5.9034111267
 10
4.7089290905
 20
5.9320497378
 10
4.6765512511
 20
5.9537373601
  0
LINE
  5
667
100
AcDbEntity
  8
0
100
AcDbLine
 62
9
  6
CONTINUOUS
 10
4.2456526868
 20
5.5046923443
 11
4.2944242376
 21
5.5046923443
  0
LINE
  5
668
100
AcDbEntity
  8
0
100
AcDbLine
 62
9
  6
CONTINUOUS
 10
4.7044242376
 20
5.5046923443
 11
4.7531957884
 21
5.5046923443
  0
LINE
  5
669
100
AcDbEntity
  8
0
100
AcDbLine
 62
7
  6
CONTINUOUS
 10
4.7894242376
 20
4.4926923443
 11
4.7605567242
 21
4.4426923443
  0
LINE
  5
66A
100
AcDbEntity
  8
0
100
AcDbLine
 62
7
  6
CONTINUOUS
 10
4.2844242376
 20
5.5146923443
 11
4.2167583571
 21
5.5146923443
  0
LINE
  5
66B
100
AcDbEntity
  8
0
100
AcDbLine
 62
7
  6
CONTINUOUS
 10
4.7144242376
 20
5.5146923443
 11
4.7820901181
 21
5.5146923443
  0
LINE
  5
66C
100
AcDbEntity
  8
DEFAULT_1
100
AcDbLine
 62
7
  6
CENTER
 10
4.4994242376
 20
5.6646923443
 11
3.6119242376
 21
5.6646923443
  0
LINE
  5
66D
100
AcDbEntity
  8
DEFAULT_1
100
AcDbLine
 62
7
  6
CENTER
 10
4.4994242376
 20
5.6646923443
 11
5.3869242376
 21
5.6646923443
  0
LINE
  5
66E
100
AcDbEntity
  8
0
100
AcDbLine
 62
7
  6
CONTINUOUS
 10
4.7820901181
 20
5.8146923443
 11
4.7144242376
 21
5.8146923443
  0
LINE
  5
66F
100
AcDbEntity
  8
0
100
AcDbLine
 62
7
  6
CONTINUOUS
 10
4.2167583571
 20
5.8146923443
 11
4.2844242376
 21
5.8146923443
  0
LINE
  5
670
100
AcDbEntity
  8
0
100
AcDbLine
 62
9
  6
CONTINUOUS
 10
4.7531957884
 20
5.8246923443
 11
4.7044242376
 21
5.8246923443
  0
LINE
  5
671
100
AcDbEntity
  8
0
100
AcDbLine
 62
9
  6
CONTINUOUS
 10
4.2944242376
 20
5.8246923443
 11
4.2456526868
 21
5.8246923443
  0
LINE
  5
672
100
AcDbEntity
  8
0
100
AcDbLine
 62
7
  6
CONTINUOUS
 10
4.7044242376
 20
5.8246923443
 11
4.7144242376
 21
5.8146923443
  0
LWPOLYLINE
  5
673
100
AcDbEntity
  8
0
100
AcDbPolyline
 62
7
  6
CONTINUOUS
 90
7
 70
0
 10
4.6765512511
 20
5.9537373601
 10
4.6376065792
 20
5.9742511279
 10
4.5957838862
 20
5.9897089872
 10
4.5537710088
 20
5.9993076884
 10
4.5122565427
 20
6.003449384
 10
4.4681160404
 20
6.0022435209
 10
4.4202862593
 20
5.9943257474
  0
LINE
  5
674
100
AcDbEntity
  8
0
100
AcDbLine
 62
7
  6
CONTINUOUS
 10
4.6765512511
 20
5.9537373601
 11
4.6901008234
 21
5.9437089164
  0
LINE
  5
675
100
AcDbEntity
  8
0
100
AcDbLine
 62
7
  6
CONTINUOUS
 10
4.4202862593
 20
5.9943257474
 11
4.4465845973
 21
5.9982267373
  0
LINE
  5
676
100
AcDbEntity
  8
AXIS
100
AcDbLine
 62
7
  6
CONTINUOUS
 10
9.0294455485
 20
3.6896923443
 11
8.7964640829
 21
3.6896923443
  0
LINE
  5
677
100
AcDbEntity
  8
0
100
AcDbLine
 62
7
  6
CONTINUOUS
 10
8.0458507457
 20
6.0186450451
 11
8.0293461417
 21
6.0036429531
  0
LINE
  5
678
100
AcDbEntity
  8
0
100
AcDbLine
 62
7
  6
CONTINUOUS
 10
8.0858507457
 20
6.0186450451
 11
8.0693461417
 21
6.0036429531
  0
LINE
  5
679
100
AcDbEntity
  8
0
100
AcDbLine
 62
7
  6
CONTINUOUS
 10
8.1258507457
 20
6.0186450451
 11
8.1093461417
 21
6.0036429531
  0
LINE
  5
67A
100
AcDbEntity
  8
0
100
AcDbLine
 62
7
  6
CONTINUOUS
 10
8.0459548165
 20
6.0186923443
 11
8.0458507457
 21
6.0186450451
  0
LINE
  5
67B
100
AcDbEntity
  8
0
100
AcDbLine
 62
7
  6
CONTINUOUS
 10
8.1258507457
 20
6.0186450451
 11
8.1259548272
 21
6.0186923443
  0
LINE
  5
67C
100
AcDbEntity
  8
0
100
AcDbLine
 62
7
  6
CONTINUOUS
 10
8.1658507457
 20
6.0186450451
 11
8.1659548157
 21
6.0186923443
  0
LINE
  5
67D
100
AcDbEntity
  8
0
100
AcDbLine
 62
7
  6
CONTINUOUS
 10
8.2058507457
 20
6.0186450451
 11
8.2059548157
 21
6.0186923443
  0
LINE
  5
67E
100
AcDbEntity
  8
0
100
AcDbLine
 62
7
  6
CONTINUOUS
 10
8.2458507457
 20
6.0186450451
 11
8.2459548157
 21
6.0186923443
  0
LINE
  5
67F
100
AcDbEntity
  8
0
100
AcDbLine
 62
7
  6
CONTINUOUS
 10
8.0858507457
 20
6.0186450451
 11
8.0859550912
 21
6.018692344
  0
LINE
  5
680
100
AcDbEntity
  8
0
100
AcDbLine
 62
7
  6
CONTINUOUS
 10
8.1658507457
 20
6.0186450451
 11
8.1493461417
 21
6.0036429531
  0
LINE
  5
681
100
AcDbEntity
  8
0
100
AcDbLine
 62
7
  6
CONTINUOUS
 10
8.2058507457
 20
6.0186450451
 11
8.1893461417
 21
6.0036429531
  0
LINE
  5
682
100
AcDbEntity
  8
0
100
AcDbLine
 62
7
  6
CONTINUOUS
 10
8.2458507457
 20
6.0186450451
 11
8.2293461417
 21
6.0036429531
  0
LINE
  5
683
100
AcDbEntity
  8
0
100
AcDbLine
 62
7
  6
CONTINUOUS
 10
8.2858507457
 20
6.0186450451
 11
8.2693461417
 21
6.0036429531
  0
LINE
  5
684
100
AcDbEntity
  8
0
100
AcDbLine
 62
7
  6
CONTINUOUS
 10
8.4858507457
 20
6.0186450451
 11
8.4859545276
 21
6.018692344
  0
LINE
  5
685
100
AcDbEntity
  8
0
100
AcDbLine
 62
7
  6
CONTINUOUS
 10
8.2858507457
 20
6.0186450451
 11
8.2859548157
 21
6.0186923443
  0
LINE
  5
686
100
AcDbEntity
  8
0
100
AcDbLine
 62
7
  6
CONTINUOUS
 10
8.3258507457
 20
6.0186450451
 11
8.3259548157
 21
6.0186923443
  0
LINE
  5
687
100
AcDbEntity
  8
0
100
AcDbLine
 62
7
  6
CONTINUOUS
 10
8.3658507457
 20
6.0186450451
 11
8.3659548157
 21
6.0186923443
  0
LINE
  5
688
100
AcDbEntity
  8
0
100
AcDbLine
 62
7
  6
CONTINUOUS
 10
8.4058507457
 20
6.0186450451
 11
8.4059548157
 21
6.0186923443
  0
LINE
  5
689
100
AcDbEntity
  8
0
100
AcDbLine
 62
7
  6
CONTINUOUS
 10
8.4458507457
 20
6.0186450451
 11
8.4459548009
 21
6.0186923443
  0
LINE
  5
68A
100
AcDbEntity
  8
0
100
AcDbLine
 62
7
  6
CONTINUOUS
 10
8.3258507457
 20
6.0186450451
 11
8.3093461417
 21
6.0036429531
  0
LINE
  5
68B
100
AcDbEntity
  8
0
100
AcDbLine
 62
7
  6
CONTINUOUS
 10
8.3658507457
 20
6.0186450451
 11
8.3493461417
 21
6.0036429531
  0
LINE
  5
68C
100
AcDbEntity
  8
0
100
AcDbLine
 62
7
  6
CONTINUOUS
 10
8.4058507457
 20
6.0186450451
 11
8.3893461417
 21
6.0036429531
  0
LINE
  5
68D
100
AcDbEntity
  8
0
100
AcDbLine
 62
7
  6
CONTINUOUS
 10
8.4458507457
 20
6.0186450451
 11
8.4293461417
 21
6.0036429531
  0
LINE
  5
68E
100
AcDbEntity
  8
0
100
AcDbLine
 62
7
  6
CONTINUOUS
 10
8.5258507457
 20
6.0186450451
 11
8.5259547238
 21
6.0186923443
  0
LINE
  5
68F
100
AcDbEntity
  8
0
100
AcDbLine
 62
7
  6
CONTINUOUS
 10
8.5659548186
 20
6.0186923443
 11
8.5658507457
 21
6.0186450451
  0
LINE
  5
690
100
AcDbEntity
  8
0
100
AcDbLine
 62
7
  6
CONTINUOUS
 10
8.4858507457
 20
6.0186450451
 11
8.4693461417
 21
6.0036429531
  0
LINE
  5
691
100
AcDbEntity
  8
0
100
AcDbLine
 62
7
  6
CONTINUOUS
 10
8.5258507457
 20
6.0186450451
 11
8.5093461417
 21
6.0036429531
  0
LINE
  5
692
100
AcDbEntity
  8
0
100
AcDbLine
 62
7
  6
CONTINUOUS
 10
8.5658507457
 20
6.0186450451
 11
8.5493461417
 21
6.0036429531
  0
LINE
  5
693
100
AcDbEntity
  8
0
100
AcDbLine
 62
7
  6
CONTINUOUS
 10
7.9879548157
 20
5.5146923443
 11
7.9879548157
 21
5.8146923443
  0
LINE
  5
694
100
AcDbEntity
  8
0
100
AcDbLine
 62
7
  6
CONTINUOUS
 10
8.6518253889
 20
4.4426923443
 11
9.1740842425
 21
4.4426923443
  0
LWPOLYLINE
  5
695
100
AcDbEntity
  8
0
100
AcDbPolyline
 62
7
  6
CONTINUOUS
 90
9
 70
0
 10
8.0668530363
 20
5.3159806681
 10
8.0657471103
 20
5.3317659354
 10
8.0646361792
 20
5.3577115517
 10
8.0635201226
 20
5.3931643874
 10
8.0624152934
 20
5.4364632897
 10
8.0613123054
 20
5.4865303367
 10
8.0601917198
 20
5.5428503679
 10
8.0590667074
 20
5.6031781431
 10
8.0579548157
 20
5.6646923443
  0
LWPOLYLINE
  5
696
100
AcDbEntity
  8
0
100
AcDbPolyline
 62
7
  6
CONTINUOUS
 90
16
 70
0
 10
8.0279548157
 20
5.9537373601
 10
8.0290673157
 20
5.9185393214
 10
8.0301798157
 20
5.8756090253
 10
8.0312923157
 20
5.8262541419
 10
8.0324048157
 20
5.7719780362
 10
8.0335173157
 20
5.7144339752
 10
8.0346298157
 20
5.6553747687
 10
8.0357423157
 20
5.5965993784
 10
8.0368548157
 20
5.539898121
 10
8.0379673157
 20
5.4869981341
 10
8.0390798157
 20
5.4395107679
 10
8.0401923157
 20
5.3988825021
 10
8.0413048157
 20
5.3663508862
 10
8.0424173157
 20
5.3429068434
 10
8.0435298157
 20
5.3292644865
 10
8.0444548157
 20
5.3256923443
  0
LWPOLYLINE
  5
697
100
AcDbEntity
  8
0
100
AcDbPolyline
 62
7
  6
CONTINUOUS
 90
12
 70
0
 10
8.0724548157
 20
5.7694491054
 10
8.0735875591
 20
5.7107310485
 10
8.0747203024
 20
5.6505592747
 10
8.0758530458
 20
5.5908337664
 10
8.0769857892
 20
5.5334404143
 10
8.0781185325
 20
5.4801914694
 10
8.0792512759
 20
5.4327683187
 10
8.0803840192
 20
5.3926683942
 10
8.0815167626
 20
5.3611578901
 10
8.082649506
 20
5.339231781
 10
8.0837822493
 20
5.3275824052
 10
8.0844548157
 20
5.3256923443
  0
LWPOLYLINE
  5
698
100
AcDbEntity
  8
0
100
AcDbPolyline
 62
7
  6
CONTINUOUS
 90
12
 70
0
 10
8.0774548157
 20
5.7694491054
 10
8.0785875591
 20
5.7107310485
 10
8.0797203024
 20
5.6505592747
 10
8.0808530458
 20
5.5908337664
 10
8.0819857892
 20
5.5334404143
 10
8.0831185325
 20
5.4801914694
 10
8.0842512759
 20
5.4327683187
 10
8.0853840192
 20
5.3926683942
 10
8.0865167626
 20
5.3611578901
 10
8.087649506
 20
5.339231781
 10
8.0887822493
 20
5.3275824052
 10
8.0893461417
 20
5.3257417356
  0
LWPOLYLINE
  5
699
100
AcDbEntity
  8
0
100
AcDbPolyline
 62
7
  6
CONTINUOUS
 90
9
 70
0
 10
8.0570666249
 20
5.6031826598
 10
8.0581915544
 20
5.5428590047
 10
8.0593120508
 20
5.4865425742
 10
8.0604148902
 20
5.4364804287
 10
8.0615250224
 20
5.3929896565
 10
8.0626447998
 20
5.3574731112
 10
8.0637570653
 20
5.3315781998
 10
8.0648622521
 20
5.3158927866
 10
8.0658507457
 20
5.3107396436
  0
LWPOLYLINE
  5
69A
100
AcDbEntity
  8
0
100
AcDbPolyline
 62
7
  6
CONTINUOUS
 90
4
 70
0
 10
8.0939548157
 20
5.7740843604
 10
8.0946215692
 20
5.7382883592
 10
8.095288067
 20
5.7016999592
 10
8.0959548157
 20
5.6646923443
  0
LWPOLYLINE
  5
69B
100
AcDbEntity
  8
0
100
AcDbPolyline
 62
7
  6
CONTINUOUS
 90
9
 70
0
 10
8.0968531939
 20
5.7256440828
 10
8.0957517456
 20
5.7847661773
 10
8.0946448127
 20
5.8405676525
 10
8.0935415495
 20
5.8909083407
 10
8.0924231415
 20
5.9350165805
 10
8.0912979579
 20
5.9709922565
 10
8.0901831323
 20
5.9972274739
 10
8.0890814561
 20
6.0131633021
 10
8.0880588857
 20
6.0186450451
  0
LWPOLYLINE
  5
69C
100
AcDbEntity
  8
0
100
AcDbPolyline
 62
7
  6
CONTINUOUS
 90
9
 70
0
 10
8.0570666249
 20
5.6031826598
 10
8.0548347742
 20
5.7266527774
 10
8.0537147263
 20
5.7867006071
 10
8.0525946953
 20
5.8429807405
 10
8.051474657
 20
5.8937568824
 10
8.0503545633
 20
5.9374629782
 10
8.0492344466
 20
5.9727475065
 10
8.0481143655
 20
5.9985193254
 10
8.0469943323
 20
6.013983539
  0
LWPOLYLINE
  5
69D
100
AcDbEntity
  8
0
100
AcDbPolyline
 62
7
  6
CONTINUOUS
 90
4
 70
0
 10
8.0579548157
 20
5.6646923443
 10
8.057288067
 20
5.7016999592
 10
8.0566215692
 20
5.7382883592
 10
8.0559548157
 20
5.7740843604
  0
LWPOLYLINE
  5
69E
100
AcDbEntity
  8
0
100
AcDbPolyline
 62
7
  6
CONTINUOUS
 90
10
 70
0
 10
8.0959548157
 20
5.6646923443
 10
8.0970667074
 20
5.6031781431
 10
8.0981917198
 20
5.5428503679
 10
8.0993123054
 20
5.4865303367
 10
8.1004152934
 20
5.4364632897
 10
8.1015201226
 20
5.3931643874
 10
8.1026361792
 20
5.3577115517
 10
8.1037471103
 20
5.3317659354
 10
8.1048530363
 20
5.3159806681
 10
8.1058507457
 20
5.3107396436
  0
LINE
  5
69F
100
AcDbEntity
  8
0
100
AcDbLine
 62
7
  6
CONTINUOUS
 10
8.0279548157
 20
5.3106923443
 11
8.0279548157
 21
6.0036918763
  0
LINE
  5
6A0
100
AcDbEntity
  8
DATUM_CURVES
100
AcDbLine
 62
40
  6
CONTINUOUS
 10
8.126385293
 20
5.3256923443
 11
8.1255472431
 21
5.3244694555
  0
LWPOLYLINE
  5
6A1
100
AcDbEntity
  8
DATUM_CURVES
100
AcDbPolyline
 62
40
  6
CONTINUOUS
 90
12
 70
0
 10
8.1255472431
 20
5.3244694555
 10
8.1221787921
 20
5.3195808999
 10
8.118021172
 20
5.3136031888
 10
8.1138226361
 20
5.3076254777
 10
8.1095848655
 20
5.3016477666
 10
8.1053094652
 20
5.2956700555
 10
8.1009979666
 20
5.2896923443
 10
8.1002086274
 20
5.2886031888
 10
8.0958563334
 20
5.2826254777
 10
8.0914710442
 20
5.2766477666
 10
8.0870540789
 20
5.2706700555
 10
8.0826066961
 20
5.2646923443
  0
LINE
  5
6A2
100
AcDbEntity
  8
0
100
AcDbLine
 62
7
  6
CONTINUOUS
 10
8.0280588857
 20
5.3107396436
 11
8.0445634897
 21
5.3257417356
  0
LINE
  5
6A3
100
AcDbEntity
  8
0
100
AcDbLine
 62
7
  6
CONTINUOUS
 10
8.0680588857
 20
5.3107396436
 11
8.0845634897
 21
5.3257417356
  0
LINE
  5
6A4
100
AcDbEntity
  8
0
100
AcDbLine
 62
7
  6
CONTINUOUS
 10
8.1080588857
 20
5.3107396436
 11
8.1245634897
 21
5.3257417356
  0
LINE
  5
6A5
100
AcDbEntity
  8
0
100
AcDbLine
 62
7
  6
CONTINUOUS
 10
8.6229548157
 20
4.4926923443
 11
9.2029548157
 21
4.4926923443
  0
LINE
  5
6A6
100
AcDbEntity
  8
0
100
AcDbLine
 62
7
  6
CONTINUOUS
 10
8.6179628565
 20
4.5426923443
 11
9.2079467749
 21
4.5426923443
  0
LINE
  5
6A7
100
AcDbEntity
  8
0
100
AcDbLine
 62
7
  6
CONTINUOUS
 10
8.0482048157
 20
5.3322061343
 11
8.0493461417
 21
5.3257417356
  0
LWPOLYLINE
  5
6A8
100
AcDbEntity
  8
0
100
AcDbPolyline
 62
7
  6
CONTINUOUS
 90
17
 70
0
 10
8.0302048157
 20
6.0013425513
 10
8.0313298157
 20
5.9890951182
 10
8.0324548157
 20
5.966743556
 10
8.0335798157
 20
5.934984046
 10
8.0347048157
 20
5.8948057971
 10
8.0358298157
 20
5.8474602358
 10
8.0369548157
 20
5.7944220279
 10
8.0380798157
 20
5.7373431472
 10
8.0392048157
 20
5.6780014219
 10
8.0403298157
 20
5.6182451605
 10
8.0414548157
 20
5.5599355832
 10
8.0425798157
 20
5.5048888506
 10
8.0437048157
 20
5.4548194955
 10
8.0448298157
 20
5.4112870215
 10
8.0459548157
 20
5.3756473286
 10
8.0470798157
 20
5.3490104815
 10
8.0482048157
 20
5.3322061343
  0
LWPOLYLINE
  5
6A9
100
AcDbEntity
  8
0
100
AcDbPolyline
 62
7
  6
CONTINUOUS
 90
4
 70
0
 10
8.1871733556
 20
5.3133560195
 10
8.1860939341
 20
5.3257084051
 10
8.1850245195
 20
5.3475353263
 10
8.1839548157
 20
5.3783003283
  0
LWPOLYLINE
  5
6AA
100
AcDbEntity
  8
0
100
AcDbPolyline
 62
7
  6
CONTINUOUS
 90
9
 70
0
 10
8.1068364143
 20
5.3161410227
 10
8.1057301489
 20
5.3320876727
 10
8.1046222179
 20
5.3580989038
 10
8.1035130656
 20
5.3934163329
 10
8.1024129804
 20
5.4365616185
 10
8.1013103731
 20
5.4866231941
 10
8.1001904094
 20
5.5429187846
 10
8.0990660551
 20
5.6032138663
 10
8.0968531939
 20
5.7256440828
  0
LWPOLYLINE
  5
6AB
100
AcDbEntity
  8
0
100
AcDbPolyline
 62
7
  6
CONTINUOUS
 90
9
 70
0
 10
8.1468332378
 20
5.3161719376
 10
8.145726363
 20
5.3321598091
 10
8.1446205146
 20
5.358146262
 10
8.143517061
 20
5.3932736498
 10
8.1424150448
 20
5.4364738568
 10
8.1413116729
 20
5.4865607332
 10
8.1401912809
 20
5.542873282
 10
8.1390664892
 20
5.6031900915
 10
8.1368550179
 20
5.7255441712
  0
LWPOLYLINE
  5
6AC
100
AcDbEntity
  8
0
100
AcDbPolyline
 62
7
  6
CONTINUOUS
 90
8
 70
0
 10
8.1270814561
 20
6.0131633021
 10
8.1281831323
 20
5.9972274739
 10
8.1292979579
 20
5.9709922565
 10
8.1304231415
 20
5.9350165805
 10
8.1315415495
 20
5.8909083407
 10
8.1326448127
 20
5.8405676525
 10
8.1337517456
 20
5.7847661773
 10
8.1348531939
 20
5.7256440828
  0
LWPOLYLINE
  5
6AD
100
AcDbEntity
  8
0
100
AcDbPolyline
 62
7
  6
CONTINUOUS
 90
7
 70
0
 10
8.1839548157
 20
5.3783003283
 10
8.1829628769
 20
5.4140597837
 10
8.1819701809
 20
5.4559257492
 10
8.1809739343
 20
5.5030331935
 10
8.1799640978
 20
5.5548095663
 10
8.1789534436
 20
5.6093899028
 10
8.1779548157
 20
5.6646923443
  0
LWPOLYLINE
  5
6AE
100
AcDbEntity
  8
0
100
AcDbPolyline
 62
7
  6
CONTINUOUS
 90
9
 70
0
 10
8.1368550179
 20
5.7255441712
 10
8.1357498706
 20
5.7848642538
 10
8.1346393638
 20
5.8408305414
 10
8.1335359837
 20
5.8911463114
 10
8.1324188532
 20
5.935170481
 10
8.1312959734
 20
5.971047564
 10
8.130184326
 20
5.997204706
 10
8.1290781212
 20
6.0131959011
 10
8.1280588857
 20
6.0186450451
  0
LWPOLYLINE
  5
6AF
100
AcDbEntity
  8
0
100
AcDbPolyline
 62
7
  6
CONTINUOUS
 90
10
 70
0
 10
8.1348531939
 20
5.7256440828
 10
8.1370660551
 20
5.6032138663
 10
8.1381904094
 20
5.5429187846
 10
8.1393103731
 20
5.4866231941
 10
8.1404129804
 20
5.4365616185
 10
8.1415130656
 20
5.3934163329
 10
8.1426222179
 20
5.3580989038
 10
8.1437301489
 20
5.3320876727
 10
8.1448364143
 20
5.3161410227
 10
8.1458507457
 20
5.3107396436
  0
LWPOLYLINE
  5
6B0
100
AcDbEntity
  8
0
100
AcDbPolyline
 62
7
  6
CONTINUOUS
 90
10
 70
0
 10
8.1748550179
 20
5.7255441712
 10
8.1770664892
 20
5.6031900915
 10
8.1781912809
 20
5.542873282
 10
8.1793116729
 20
5.4865607332
 10
8.1804150448
 20
5.4364738568
 10
8.181517061
 20
5.3932736498
 10
8.1826205146
 20
5.358146262
 10
8.183726363
 20
5.3321598091
 10
8.1848332378
 20
5.3161719376
 10
8.1858507457
 20
5.3107396436
  0
LWPOLYLINE
  5
6B1
100
AcDbEntity
  8
0
100
AcDbPolyline
 62
7
  6
CONTINUOUS
 90
10
 70
0
 10
8.1779548157
 20
5.6646923443
 10
8.1768537104
 20
5.7256157939
 10
8.1757401452
 20
5.7853727944
 10
8.1746251848
 20
5.8415140208
 10
8.1735209726
 20
5.8917872602
 10
8.1724065406
 20
5.9356116749
 10
8.1712901673
 20
5.9712092075
 10
8.170186857
 20
5.9971563934
 10
8.1690800778
 20
6.013176787
 10
8.1680588857
 20
6.0186450451
  0
LINE
  5
6B2
100
AcDbEntity
  8
0
100
AcDbLine
 62
7
  6
CONTINUOUS
 10
8.1480588857
 20
5.3107396436
 11
8.1645634897
 21
5.3257417356
  0
LINE
  5
6B3
100
AcDbEntity
  8
0
100
AcDbLine
 62
7
  6
CONTINUOUS
 10
8.1880588857
 20
5.3107396436
 11
8.2045634897
 21
5.3257417356
  0
LINE
  5
6B4
100
AcDbEntity
  8
0
100
AcDbLine
 62
7
  6
CONTINUOUS
 10
8.2280588857
 20
5.3107396436
 11
8.2445634897
 21
5.3257417356
  0
LINE
  5
6B5
100
AcDbEntity
  8
0
100
AcDbLine
 62
7
  6
CONTINUOUS
 10
8.2680588857
 20
5.3107396436
 11
8.2845634897
 21
5.3257417356
  0
LINE
  5
6B6
100
AcDbEntity
  8
0
100
AcDbLine
 62
7
  6
CONTINUOUS
 10
8.0680588857
 20
5.3107396436
 11
8.0679548467
 21
5.3106923443
  0
LINE
  5
6B7
100
AcDbEntity
  8
0
100
AcDbLine
 62
7
  6
CONTINUOUS
 10
8.0279548157
 20
5.3106923443
 11
8.0280588857
 21
5.3107396436
  0
LINE
  5
6B8
100
AcDbEntity
  8
0
100
AcDbLine
 62
7
  6
CONTINUOUS
 10
8.1080588857
 20
5.3107396436
 11
8.1079548169
 21
5.3106923443
  0
LINE
  5
6B9
100
AcDbEntity
  8
0
100
AcDbLine
 62
7
  6
CONTINUOUS
 10
8.1480588857
 20
5.3107396436
 11
8.1479548157
 21
5.3106923443
  0
LINE
  5
6BA
100
AcDbEntity
  8
0
100
AcDbLine
 62
7
  6
CONTINUOUS
 10
8.128428267
 20
5.3300900617
 11
8.1293461417
 21
5.3257417356
  0
LINE
  5
6BB
100
AcDbEntity
  8
0
100
AcDbLine
 62
7
  6
CONTINUOUS
 10
8.0679548467
 20
5.3106923443
 11
8.0668530363
 21
5.3159806681
  0
LINE
  5
6BC
100
AcDbEntity
  8
0
100
AcDbLine
 62
7
  6
CONTINUOUS
 10
8.1079548169
 20
5.3106923443
 11
8.1068364143
 21
5.3161410227
  0
LINE
  5
6BD
100
AcDbEntity
  8
0
100
AcDbLine
 62
7
  6
CONTINUOUS
 10
8.1479548157
 20
5.3106923443
 11
8.1468332378
 21
5.3161719376
  0
LWPOLYLINE
  5
6BE
100
AcDbEntity
  8
0
100
AcDbPolyline
 62
7
  6
CONTINUOUS
 90
8
 70
0
 10
8.0480588857
 20
6.0186450451
 10
8.0492341499
 20
6.0115684249
 10
8.0503542212
 20
5.9938453886
 10
8.0514743564
 20
5.9659578037
 10
8.0525945242
 20
5.9287663051
 10
8.0537146535
 20
5.8834217384
 10
8.0548347345
 20
5.8313255208
 10
8.0559548157
 20
5.7740843604
  0
LWPOLYLINE
  5
6BF
100
AcDbEntity
  8
0
100
AcDbPolyline
 62
7
  6
CONTINUOUS
 90
9
 70
0
 10
8.2268323329
 20
5.3161807601
 10
8.2257258113
 20
5.332170332
 10
8.2246243545
 20
5.3580395287
 10
8.2235218836
 20
5.3931015717
 10
8.2224147351
 20
5.436487019
 10
8.2213109666
 20
5.4865946715
 10
8.2201907991
 20
5.5428984405
 10
8.2190662496
 20
5.6032032136
 10
8.2168507348
 20
5.725778777
  0
LWPOLYLINE
  5
6C0
100
AcDbEntity
  8
0
100
AcDbPolyline
 62
7
  6
CONTINUOUS
 90
8
 70
0
 10
8.1670781212
 20
6.0131959011
 10
8.168184326
 20
5.997204706
 10
8.1692959734
 20
5.971047564
 10
8.1704188532
 20
5.935170481
 10
8.1715359837
 20
5.8911463114
 10
8.1726393638
 20
5.8408305414
 10
8.1737498706
 20
5.7848642538
 10
8.1748550179
 20
5.7255441712
  0
LWPOLYLINE
  5
6C1
100
AcDbEntity
  8
0
100
AcDbPolyline
 62
7
  6
CONTINUOUS
 90
9
 70
0
 10
8.2070800778
 20
6.013176787
 10
8.208186857
 20
5.9971563934
 10
8.2092901673
 20
5.9712092075
 10
8.2104065406
 20
5.9356116749
 10
8.2115209726
 20
5.8917872602
 10
8.2126251848
 20
5.8415140208
 10
8.2137401452
 20
5.7853727944
 10
8.2148537104
 20
5.7256157939
 10
8.2159548157
 20
5.6646923443
  0
LWPOLYLINE
  5
6C2
100
AcDbEntity
  8
0
100
AcDbPolyline
 62
7
  6
CONTINUOUS
 90
8
 70
0
 10
8.2668310896
 20
5.3161928936
 10
8.2657245813
 20
5.3321937997
 10
8.2646249363
 20
5.3580233661
 10
8.2635161215
 20
5.3933071899
 10
8.2624054916
 20
5.4368802002
 10
8.2613014638
 20
5.4870515428
 10
8.2601828987
 20
5.5433110245
 10
8.2590617389
 20
5.6034502379
  0
LWPOLYLINE
  5
6C3
100
AcDbEntity
  8
0
100
AcDbPolyline
 62
7
  6
CONTINUOUS
 90
5
 70
0
 10
8.2004548157
 20
5.3904355833
 10
8.2015875591
 20
5.3594979553
 10
8.2027203024
 20
5.3381971365
 10
8.2038530458
 20
5.3272057209
 10
8.2044548157
 20
5.3256923443
  0
LWPOLYLINE
  5
6C4
100
AcDbEntity
  8
0
100
AcDbPolyline
 62
7
  6
CONTINUOUS
 90
5
 70
0
 10
8.2054548157
 20
5.3904355833
 10
8.2065875591
 20
5.3594979553
 10
8.2077203024
 20
5.3381971365
 10
8.2088530458
 20
5.3272057209
 10
8.2093461417
 20
5.3257417356
  0
LWPOLYLINE
  5
6C5
100
AcDbEntity
  8
0
100
AcDbPolyline
 62
7
  6
CONTINUOUS
 90
5
 70
0
 10
8.2219548157
 20
5.3783003283
 10
8.2230245195
 20
5.3475353263
 10
8.2240939341
 20
5.3257084051
 10
8.2251733556
 20
5.3133560195
 10
8.2258507457
 20
5.3107396436
  0
LWPOLYLINE
  5
6C6
100
AcDbEntity
  8
0
100
AcDbPolyline
 62
7
  6
CONTINUOUS
 90
9
 70
0
 10
8.2168507348
 20
5.725778777
 10
8.2157324586
 20
5.7857745207
 10
8.2146152469
 20
5.8419925391
 10
8.2135110245
 20
5.8922113317
 10
8.212398742
 20
5.9358905955
 10
8.2112868144
 20
5.9713024366
 10
8.2101863235
 20
5.9971665813
 10
8.2090795501
 20
6.0131819454
 10
8.2080588857
 20
6.0186450451
  0
LWPOLYLINE
  5
6C7
100
AcDbEntity
  8
0
100
AcDbPolyline
 62
7
  6
CONTINUOUS
 90
9
 70
0
 10
8.2970617389
 20
5.6034502379
 10
8.2981828987
 20
5.5433110245
 10
8.2993014638
 20
5.4870515428
 10
8.3004054916
 20
5.4368802002
 10
8.3015161215
 20
5.3933071899
 10
8.3026249363
 20
5.3580233661
 10
8.3037245813
 20
5.3321937997
 10
8.3048310896
 20
5.3161928936
 10
8.3058507457
 20
5.3107396436
  0
LWPOLYLINE
  5
6C8
100
AcDbEntity
  8
0
100
AcDbPolyline
 62
7
  6
CONTINUOUS
 90
7
 70
0
 10
8.2159548157
 20
5.6646923443
 10
8.2169534436
 20
5.6093899028
 10
8.2179640978
 20
5.5548095663
 10
8.2189739343
 20
5.5030331935
 10
8.2199701809
 20
5.4559257492
 10
8.2209628769
 20
5.4140597837
 10
8.2219548157
 20
5.3783003283
  0
LWPOLYLINE
  5
6C9
100
AcDbEntity
  8
0
100
AcDbPolyline
 62
7
  6
CONTINUOUS
 90
10
 70
0
 10
8.2548507348
 20
5.725778777
 10
8.2570662496
 20
5.6032032136
 10
8.2581907991
 20
5.5428984405
 10
8.2593109666
 20
5.4865946715
 10
8.2604147351
 20
5.436487019
 10
8.2615218836
 20
5.3931015717
 10
8.2626243545
 20
5.3580395287
 10
8.2637258113
 20
5.332170332
 10
8.2648323329
 20
5.3161807601
 10
8.2658507457
 20
5.3107396436
  0
LWPOLYLINE
  5
6CA
100
AcDbEntity
  8
0
100
AcDbPolyline
 62
7
  6
CONTINUOUS
 90
10
 70
0
 10
8.2590617389
 20
5.6034502379
 10
8.2568436823
 20
5.7261650203
 10
8.2557195014
 20
5.7864513153
 10
8.2545997802
 20
5.8427364133
 10
8.2534962496
 20
5.8928401374
 10
8.2523880791
 20
5.9362713032
 10
8.2512838453
 20
5.9713849252
 10
8.2501838363
 20
5.9972140479
 10
8.2490776596
 20
6.0132004059
 10
8.2480588857
 20
6.0186450451
  0
LWPOLYLINE
  5
6CB
100
AcDbEntity
  8
0
100
AcDbPolyline
 62
7
  6
CONTINUOUS
 90
10
 70
0
 10
8.2990223048
 20
5.6056111184
 10
8.2968429244
 20
5.7262065252
 10
8.2957179789
 20
5.7865308063
 10
8.2945975271
 20
5.8428446882
 10
8.2934936659
 20
5.8929499689
 10
8.2923881486
 20
5.936268824
 10
8.2912867527
 20
5.971304152
 10
8.2901833924
 20
5.9972225141
 10
8.2890763944
 20
6.013212744
 10
8.2880588857
 20
6.0186450451
  0
LINE
  5
6CC
100
AcDbEntity
  8
0
100
AcDbLine
 62
7
  6
CONTINUOUS
 10
8.3080588857
 20
5.3107396436
 11
8.3245634897
 21
5.3257417356
  0
LINE
  5
6CD
100
AcDbEntity
  8
0
100
AcDbLine
 62
7
  6
CONTINUOUS
 10
8.3480588857
 20
5.3107396436
 11
8.3645634897
 21
5.3257417356
  0
LINE
  5
6CE
100
AcDbEntity
  8
0
100
AcDbLine
 62
7
  6
CONTINUOUS
 10
8.3880588857
 20
5.3107396436
 11
8.4045634897
 21
5.3257417356
  0
LINE
  5
6CF
100
AcDbEntity
  8
0
100
AcDbLine
 62
7
  6
CONTINUOUS
 10
8.4280588857
 20
5.3107396436
 11
8.4445634897
 21
5.3257417356
  0
LINE
  5
6D0
100
AcDbEntity
  8
0
100
AcDbLine
 62
7
  6
CONTINUOUS
 10
8.1880588857
 20
5.3107396436
 11
8.1879547996
 21
5.3106923443
  0
LINE
  5
6D1
100
AcDbEntity
  8
0
100
AcDbLine
 62
7
  6
CONTINUOUS
 10
8.2280588857
 20
5.3107396436
 11
8.2279548157
 21
5.3106923443
  0
LINE
  5
6D2
100
AcDbEntity
  8
0
100
AcDbLine
 62
7
  6
CONTINUOUS
 10
8.2680588857
 20
5.3107396436
 11
8.2679548157
 21
5.3106923443
  0
LINE
  5
6D3
100
AcDbEntity
  8
0
100
AcDbLine
 62
7
  6
CONTINUOUS
 10
8.3080588857
 20
5.3107396436
 11
8.3079548331
 21
5.3106923443
  0
LINE
  5
6D4
100
AcDbEntity
  8
0
100
AcDbLine
 62
7
  6
CONTINUOUS
 10
8.3480588857
 20
5.3107396436
 11
8.3479548157
 21
5.3106923443
  0
LINE
  5
6D5
100
AcDbEntity
  8
0
100
AcDbLine
 62
7
  6
CONTINUOUS
 10
8.3880588857
 20
5.3107396436
 11
8.3879548132
 21
5.3106923443
  0
LINE
  5
6D6
100
AcDbEntity
  8
0
100
AcDbLine
 62
7
  6
CONTINUOUS
 10
8.4280588857
 20
5.3107396436
 11
8.4279547799
 21
5.3106923444
  0
LINE
  5
6D7
100
AcDbEntity
  8
0
100
AcDbLine
 62
7
  6
CONTINUOUS
 10
8.1879547996
 20
5.3106923443
 11
8.1871733556
 21
5.3133560195
  0
LINE
  5
6D8
100
AcDbEntity
  8
0
100
AcDbLine
 62
7
  6
CONTINUOUS
 10
8.0469943323
 20
6.013983539
 11
8.0459548165
 21
6.0186923443
  0
LINE
  5
6D9
100
AcDbEntity
  8
0
100
AcDbLine
 62
7
  6
CONTINUOUS
 10
8.2279548157
 20
5.3106923443
 11
8.2268323329
 21
5.3161807601
  0
LWPOLYLINE
  5
6DA
100
AcDbEntity
  8
0
100
AcDbPolyline
 62
7
  6
CONTINUOUS
 90
8
 70
0
 10
8.0645634897
 20
6.0036429531
 10
8.0657798157
 20
5.9963763577
 10
8.0668923157
 20
5.9791460104
 10
8.0680048157
 20
5.9523373072
 10
8.0691173157
 20
5.9167668496
 10
8.0702298157
 20
5.8735181245
 10
8.0713423157
 20
5.8239085017
 10
8.0724548157
 20
5.7694491054
  0
LWPOLYLINE
  5
6DB
100
AcDbEntity
  8
0
100
AcDbPolyline
 62
7
  6
CONTINUOUS
 90
8
 70
0
 10
8.0860888921
 20
6.0186138386
 10
8.0872116953
 20
6.0118154991
 10
8.0883249418
 20
5.9944411136
 10
8.0894554189
 20
5.9665094353
 10
8.0905940106
 20
5.9287853237
 10
8.0917226193
 20
5.8830732902
 10
8.0928386705
 20
5.8311323859
 10
8.0939548157
 20
5.7740843604
  0
LWPOLYLINE
  5
6DC
100
AcDbEntity
  8
0
100
AcDbPolyline
 62
7
  6
CONTINUOUS
 90
3
 70
0
 10
8.1680742847
 20
5.3336319548
 10
8.1692070281
 20
5.3259490963
 10
8.1693461417
 20
5.3257417356
  0
LWPOLYLINE
  5
6DD
100
AcDbEntity
  8
0
100
AcDbPolyline
 62
7
  6
CONTINUOUS
 90
19
 70
0
 10
8.1449503909
 20
6.0026657253
 10
8.1460831343
 20
5.9926637731
 10
8.1472158777
 20
5.9723058047
 10
8.148348621
 20
5.9422346426
 10
8.1494813644
 20
5.903399813
 10
8.1506141077
 20
5.8570275634
 10
8.1517468511
 20
5.8045821424
 10
8.1528795945
 20
5.7477195654
 10
8.1540123378
 20
5.6882353232
 10
8.1551450812
 20
5.6280076885
 10
8.1562778246
 20
5.5689384076
 10
8.1574105679
 20
5.5128926501
 10
8.1585433113
 20
5.4616401153
 10
8.1596760546
 20
5.4167991518
 10
8.160808798
 20
5.3797856565
 10
8.1619415414
 20
5.3517683665
 10
8.1630742847
 20
5.3336319548
 10
8.1642070281
 20
5.3259490963
 10
8.1644548157
 20
5.3256923443
  0
LWPOLYLINE
  5
6DE
100
AcDbEntity
  8
0
100
AcDbPolyline
 62
7
  6
CONTINUOUS
 90
19
 70
0
 10
8.2650211874
 20
6.0023516615
 10
8.2661539308
 20
5.9916897408
 10
8.2672866741
 20
5.9707025598
 10
8.2684194175
 20
5.9400528092
 10
8.2695521608
 20
5.9007082846
 10
8.2706849042
 20
5.8539113276
 10
8.2718176476
 20
5.8011395974
 10
8.2729503909
 20
5.7440594128
 10
8.2740831343
 20
5.684473136
 10
8.2752158777
 20
5.6242622614
 10
8.276348621
 20
5.565328006
 10
8.2774813644
 20
5.509531276
 10
8.2786141077
 20
5.4586339074
 10
8.2797468511
 20
5.414243034
 10
8.2808795945
 20
5.3777603407
 10
8.2820123378
 20
5.3503378039
 10
8.2831450812
 20
5.332841317
 10
8.2842778246
 20
5.3258233484
 10
8.2844548157
 20
5.3256923443
  0
LWPOLYLINE
  5
6DF
100
AcDbEntity
  8
0
100
AcDbPolyline
 62
7
  6
CONTINUOUS
 90
9
 70
0
 10
8.2870776596
 20
6.0132004059
 10
8.2881838363
 20
5.9972140479
 10
8.2892838453
 20
5.9713849252
 10
8.2903880791
 20
5.9362713032
 10
8.2914962496
 20
5.8928401374
 10
8.2925997802
 20
5.8427364133
 10
8.2937195014
 20
5.7864513153
 10
8.2948436823
 20
5.7261650203
 10
8.2970617389
 20
5.6034502379
  0
LWPOLYLINE
  5
6E0
100
AcDbEntity
  8
0
100
AcDbPolyline
 62
7
  6
CONTINUOUS
 90
9
 70
0
 10
8.3270763944
 20
6.013212744
 10
8.3281833924
 20
5.9972225141
 10
8.3292867527
 20
5.971304152
 10
8.3303881486
 20
5.936268824
 10
8.3314936659
 20
5.8929499689
 10
8.3325975271
 20
5.8428446882
 10
8.3337179789
 20
5.7865308063
 10
8.3348429244
 20
5.7262065252
 10
8.3370223048
 20
5.6056111184
  0
LWPOLYLINE
  5
6E1
100
AcDbEntity
  8
0
100
AcDbPolyline
 62
7
  6
CONTINUOUS
 90
8
 70
0
 10
8.2470795501
 20
6.0131819454
 10
8.2481863235
 20
5.9971665813
 10
8.2492868144
 20
5.9713024366
 10
8.250398742
 20
5.9358905955
 10
8.2515110245
 20
5.8922113317
 10
8.2526152469
 20
5.8419925391
 10
8.2537324586
 20
5.7857745207
 10
8.2548507348
 20
5.725778777
  0
LWPOLYLINE
  5
6E2
100
AcDbEntity
  8
0
100
AcDbPolyline
 62
7
  6
CONTINUOUS
 90
8
 70
0
 10
8.3468301877
 20
5.3162017031
 10
8.3457237677
 20
5.3322093285
 10
8.3446160074
 20
5.358271686
 10
8.343495665
 20
5.3940389818
 10
8.3423795735
 20
5.4379852045
 10
8.3412757479
 20
5.4882898721
 10
8.3401632583
 20
5.5443375206
 10
8.3390546058
 20
5.6038409394
  0
LWPOLYLINE
  5
6E3
100
AcDbEntity
  8
0
100
AcDbPolyline
 62
7
  6
CONTINUOUS
 90
8
 70
0
 10
8.3868303262
 20
5.3162003504
 10
8.3857263598
 20
5.3321598709
 10
8.3846117917
 20
5.3583891365
 10
8.3834869458
 20
5.3943517397
 10
8.3823689462
 20
5.4384393814
 10
8.381265807
 20
5.4887693451
 10
8.3801575454
 20
5.5446363168
 10
8.3790554604
 20
5.6037941284
  0
LWPOLYLINE
  5
6E4
100
AcDbEntity
  8
0
100
AcDbPolyline
 62
7
  6
CONTINUOUS
 90
9
 70
0
 10
8.3770546058
 20
5.6038409394
 10
8.3781632583
 20
5.5443375206
 10
8.3792757479
 20
5.4882898721
 10
8.3803795735
 20
5.4379852045
 10
8.381495665
 20
5.3940389818
 10
8.3826160074
 20
5.358271686
 10
8.3837237677
 20
5.3322093285
 10
8.3848301877
 20
5.3162017031
 10
8.3858507457
 20
5.3107396436
  0
LWPOLYLINE
  5
6E5
100
AcDbEntity
  8
0
100
AcDbPolyline
 62
7
  6
CONTINUOUS
 90
10
 70
0
 10
8.3370223048
 20
5.6056111184
 10
8.3381018374
 20
5.5475549994
 10
8.3391835768
 20
5.4927518168
 10
8.3402544953
 20
5.4433703493
 10
8.3413335767
 20
5.3999355232
 10
8.3424167811
 20
5.3639681685
 10
8.3434887789
 20
5.3369209253
 10
8.3445584452
 20
5.3191738402
 10
8.3456449835
 20
5.311111505
 10
8.3458507457
 20
5.3107396436
  0
LWPOLYLINE
  5
6E6
100
AcDbEntity
  8
0
100
AcDbPolyline
 62
7
  6
CONTINUOUS
 90
10
 70
0
 10
8.3390546058
 20
5.6038409394
 10
8.3368428829
 20
5.7262087935
 10
8.3357178954
 20
5.786535165
 10
8.3345974069
 20
5.8428504653
 10
8.3334937536
 20
5.8929462433
 10
8.3323902351
 20
5.9361943858
 10
8.3312881924
 20
5.9712641328
 10
8.3301832106
 20
5.9972259815
 10
8.3290761328
 20
6.0132152928
 10
8.3280588857
 20
6.0186450451
  0
LWPOLYLINE
  5
6E7
100
AcDbEntity
  8
0
100
AcDbPolyline
 62
7
  6
CONTINUOUS
 90
10
 70
0
 10
8.3790554604
 20
5.6037941284
 10
8.3768435689
 20
5.7261712277
 10
8.3757192725
 20
5.7864632671
 10
8.3745994561
 20
5.8427519868
 10
8.3734968483
 20
5.8928146805
 10
8.372396834
 20
5.9359587748
 10
8.3712903307
 20
5.9712046632
 10
8.3701834946
 20
5.9972205654
 10
8.3690770477
 20
6.0132063745
 10
8.3680588857
 20
6.0186450451
  0
LINE
  5
6E8
100
AcDbEntity
  8
0
100
AcDbLine
 62
7
  6
CONTINUOUS
 10
8.4680588857
 20
5.3107396436
 11
8.4845634897
 21
5.3257417356
  0
LINE
  5
6E9
100
AcDbEntity
  8
0
100
AcDbLine
 62
7
  6
CONTINUOUS
 10
8.5080588857
 20
5.3107396436
 11
8.5245634897
 21
5.3257417356
  0
LINE
  5
6EA
100
AcDbEntity
  8
0
100
AcDbLine
 62
7
  6
CONTINUOUS
 10
8.5480588857
 20
5.3107396436
 11
8.5645634897
 21
5.3257417356
  0
LINE
  5
6EB
100
AcDbEntity
  8
0
100
AcDbLine
 62
7
  6
CONTINUOUS
 10
8.5479548157
 20
5.3106923443
 11
8.5480588857
 21
5.3107396436
  0
LINE
  5
6EC
100
AcDbEntity
  8
0
100
AcDbLine
 62
7
  6
CONTINUOUS
 10
8.4680588857
 20
5.3107396436
 11
8.4679547453
 21
5.3106923444
  0
LINE
  5
6ED
100
AcDbEntity
  8
0
100
AcDbLine
 62
7
  6
CONTINUOUS
 10
8.5080588857
 20
5.3107396436
 11
8.5079547349
 21
5.3106923444
  0
LWPOLYLINE
  5
6EE
100
AcDbEntity
  8
0
100
AcDbPolyline
 62
9
  6
CONTINUOUS
 90
6
 70
0
 10
8.9129548157
 20
4.8951267201
 10
8.872706737
 20
4.8936040778
 10
8.8314118908
 20
4.8888957602
 10
8.7907321677
 20
4.8811974719
 10
8.7523377059
 20
4.8712250546
 10
8.7176731256
 20
4.8600456828
  0
LINE
  5
6EF
100
AcDbEntity
  8
0
100
AcDbLine
 62
7
  6
CONTINUOUS
 10
9.2093099192
 20
4.8756923443
 11
9.1997496429
 21
4.8756923443
  0
LINE
  5
6F0
100
AcDbEntity
  8
0
100
AcDbLine
 62
7
  6
CONTINUOUS
 10
8.6229548157
 20
4.4926923443
 11
8.6518223292
 21
4.4426923443
  0
LINE
  5
6F1
100
AcDbEntity
  8
0
100
AcDbLine
 62
7
  6
CONTINUOUS
 10
8.0294548157
 20
6.0036923443
 11
8.0302048157
 21
6.0013425513
  0
LWPOLYLINE
  5
6F2
100
AcDbEntity
  8
0
100
AcDbPolyline
 62
7
  6
CONTINUOUS
 90
18
 70
0
 10
8.1094548157
 20
6.0036923443
 10
8.1103043732
 20
6.0006782945
 10
8.1114371166
 20
5.9873904986
 10
8.11256986
 20
5.9639131953
 10
8.1137026033
 20
5.9309877031
 10
8.1148353467
 20
5.8896536765
 10
8.11596809
 20
5.8412162774
 10
8.1171008334
 20
5.7872049637
 10
8.1182335768
 20
5.7293251951
 10
8.1193663201
 20
5.6694045816
 10
8.1204990635
 20
5.6093351745
 10
8.1216318069
 20
5.5510137239
 10
8.1227645502
 20
5.496281786
 10
8.1238972936
 20
5.446867575
 10
8.1250300369
 20
5.4043313926
 10
8.1261627803
 20
5.37001636
 10
8.1272955237
 20
5.3450060077
 10
8.128428267
 20
5.3300900617
  0
LWPOLYLINE
  5
6F3
100
AcDbEntity
  8
0
100
AcDbPolyline
 62
7
  6
CONTINUOUS
 90
19
 70
0
 10
8.1045634897
 20
6.0036429531
 10
8.1053043732
 20
6.0006782945
 10
8.1064371166
 20
5.9873904986
 10
8.10756986
 20
5.9639131953
 10
8.1087026033
 20
5.9309877031
 10
8.1098353467
 20
5.8896536765
 10
8.11096809
 20
5.8412162774
 10
8.1121008334
 20
5.7872049637
 10
8.1132335768
 20
5.7293251951
 10
8.1143663201
 20
5.6694045816
 10
8.1154990635
 20
5.6093351745
 10
8.1166318069
 20
5.5510137239
 10
8.1177645502
 20
5.496281786
 10
8.1188972936
 20
5.446867575
 10
8.1200300369
 20
5.4043313926
 10
8.1211627803
 20
5.37001636
 10
8.1222955237
 20
5.3450060077
 10
8.123428267
 20
5.3300900617
 10
8.1244548157
 20
5.3256923443
  0
LINE
  5
6F4
100
AcDbEntity
  8
0
100
AcDbLine
 62
7
  6
CONTINUOUS
 10
8.2484990635
 20
5.3295054973
 11
8.2493461417
 21
5.3257417356
  0
LINE
  5
6F5
100
AcDbEntity
  8
0
100
AcDbLine
 62
7
  6
CONTINUOUS
 10
8.1659548157
 20
6.0186923443
 11
8.1670781212
 21
6.0131959011
  0
LINE
  5
6F6
100
AcDbEntity
  8
0
100
AcDbLine
 62
7
  6
CONTINUOUS
 10
8.2679548157
 20
5.3106923443
 11
8.2668310896
 21
5.3161928936
  0
LINE
  5
6F7
100
AcDbEntity
  8
0
100
AcDbLine
 62
7
  6
CONTINUOUS
 10
8.3479548157
 20
5.3106923443
 11
8.3468301877
 21
5.3162017031
  0
LINE
  5
6F8
100
AcDbEntity
  8
0
100
AcDbLine
 62
7
  6
CONTINUOUS
 10
8.2059548157
 20
6.0186923443
 11
8.2070800778
 21
6.013176787
  0
LINE
  5
6F9
100
AcDbEntity
  8
0
100
AcDbLine
 62
7
  6
CONTINUOUS
 10
8.1259548272
 20
6.0186923443
 11
8.1270814561
 21
6.0131633021
  0
LWPOLYLINE
  5
6FA
100
AcDbEntity
  8
0
100
AcDbPolyline
 62
7
  6
CONTINUOUS
 90
15
 70
0
 10
8.1845634897
 20
6.0036429531
 10
8.185729152
 20
5.9969233068
 10
8.1868618954
 20
5.9797475985
 10
8.1879946387
 20
5.9526237148
 10
8.1891273821
 20
5.9164081185
 10
8.1902601254
 20
5.8722443522
 10
8.1913928688
 20
5.8215269299
 10
8.1925256122
 20
5.7658573032
 10
8.1936583555
 20
5.7069932947
 10
8.1947910989
 20
5.6467935927
 10
8.1959238423
 20
5.5871590612
 10
8.1970565856
 20
5.5299727183
 10
8.198189329
 20
5.4770402784
 10
8.1993220723
 20
5.4300331346
 10
8.2004548157
 20
5.3904355833
  0
LINE
  5
6FB
100
AcDbEntity
  8
0
100
AcDbLine
 62
7
  6
CONTINUOUS
 10
8.2881450812
 20
5.332841317
 11
8.2893461417
 21
5.3257417356
  0
LWPOLYLINE
  5
6FC
100
AcDbEntity
  8
0
100
AcDbPolyline
 62
7
  6
CONTINUOUS
 90
9
 70
0
 10
8.3076449835
 20
5.311111505
 10
8.3065584452
 20
5.3191738402
 10
8.3054887789
 20
5.3369209253
 10
8.3044167811
 20
5.3639681685
 10
8.3033335767
 20
5.3999355232
 10
8.3022544953
 20
5.4433703493
 10
8.3011835768
 20
5.4927518168
 10
8.3001018374
 20
5.5475549994
 10
8.2990223048
 20
5.6056111184
  0
LWPOLYLINE
  5
6FD
100
AcDbEntity
  8
0
100
AcDbPolyline
 62
7
  6
CONTINUOUS
 90
18
 70
0
 10
8.3850919838
 20
6.0019958399
 10
8.3862247272
 20
5.9906752692
 10
8.3873574706
 20
5.9690614711
 10
8.3884902139
 20
5.9378369224
 10
8.3896229573
 20
5.8979875685
 10
8.3907557007
 20
5.8507716914
 10
8.391888444
 20
5.7976801782
 10
8.3930211874
 20
5.7403894451
 10
8.3941539308
 20
5.6807085026
 10
8.3952866741
 20
5.6205218343
 10
8.3964194175
 20
5.5617298927
 10
8.3975521608
 20
5.5061890905
 10
8.3986849042
 20
5.4556531824
 10
8.3998176476
 20
5.4117178888
 10
8.4009503909
 20
5.3757705093
 10
8.4020831343
 20
5.3489461171
 10
8.4032158777
 20
5.3320917186
 10
8.4044548157
 20
5.3256923443
  0
LWPOLYLINE
  5
6FE
100
AcDbEntity
  8
0
100
AcDbPolyline
 62
7
  6
CONTINUOUS
 90
9
 70
0
 10
8.447063131
 20
6.0133412516
 10
8.448169358
 20
5.9974893502
 10
8.4492791582
 20
5.9715150045
 10
8.4503925222
 20
5.936112761
 10
8.4514948532
 20
5.8928995035
 10
8.4525977332
 20
5.8428347829
 10
8.4537181035
 20
5.786524301
 10
8.454842987
 20
5.7262030942
 10
8.4570576785
 20
5.6036726288
  0
LWPOLYLINE
  5
6FF
100
AcDbEntity
  8
0
100
AcDbPolyline
 62
7
  6
CONTINUOUS
 90
9
 70
0
 10
8.3670761328
 20
6.0132152928
 10
8.3681832106
 20
5.9972259815
 10
8.3692881924
 20
5.9712641328
 10
8.3703902351
 20
5.9361943858
 10
8.3714937536
 20
5.8929462433
 10
8.3725974069
 20
5.8428504653
 10
8.3737178954
 20
5.786535165
 10
8.3748428829
 20
5.7262087935
 10
8.3770546058
 20
5.6038409394
  0
LWPOLYLINE
  5
700
100
AcDbEntity
  8
0
100
AcDbPolyline
 62
7
  6
CONTINUOUS
 90
9
 70
0
 10
8.4070770477
 20
6.0132063745
 10
8.4081834946
 20
5.9972205654
 10
8.4092903307
 20
5.9712046632
 10
8.410396834
 20
5.9359587748
 10
8.4114968483
 20
5.8928146805
 10
8.4125994561
 20
5.8427519868
 10
8.4137192725
 20
5.7864632671
 10
8.4148435689
 20
5.7261712277
 10
8.4170554604
 20
5.6037941284
  0
LWPOLYLINE
  5
701
100
AcDbEntity
  8
0
100
AcDbPolyline
 62
7
  6
CONTINUOUS
 90
8
 70
0
 10
8.4268262103
 20
5.3162406394
 10
8.4257263994
 20
5.3321591161
 10
8.4246112969
 20
5.3584029314
 10
8.4234858816
 20
5.3943899493
 10
8.4223673249
 20
5.4385087292
 10
8.4212642698
 20
5.4888435267
 10
8.420159536
 20
5.5445321928
 10
8.4190576785
 20
5.6036726288
  0
LWPOLYLINE
  5
702
100
AcDbEntity
  8
0
100
AcDbPolyline
 62
7
  6
CONTINUOUS
 90
8
 70
0
 10
8.4668256601
 20
5.3162460357
 10
8.465726033
 20
5.3321661026
 10
8.4646110603
 20
5.3584095276
 10
8.4634857808
 20
5.3943935676
 10
8.4623673524
 20
5.438507551
 10
8.4612648222
 20
5.4888168664
 10
8.4601627851
 20
5.5443622646
 10
8.4590587577
 20
5.6036135201
  0
LWPOLYLINE
  5
703
100
AcDbEntity
  8
0
100
AcDbPolyline
 62
7
  6
CONTINUOUS
 90
9
 70
0
 10
8.4570576785
 20
5.6036726288
 10
8.458159536
 20
5.5445321928
 10
8.4592642698
 20
5.4888435267
 10
8.4603673249
 20
5.4385087292
 10
8.4614858816
 20
5.3943899493
 10
8.4626112969
 20
5.3584029314
 10
8.4637263994
 20
5.3321591161
 10
8.4648262103
 20
5.3162406394
 10
8.4658507457
 20
5.3107396436
  0
LWPOLYLINE
  5
704
100
AcDbEntity
  8
0
100
AcDbPolyline
 62
7
  6
CONTINUOUS
 90
9
 70
0
 10
8.4970587577
 20
5.6036135201
 10
8.4981627851
 20
5.5443622646
 10
8.4992648222
 20
5.4888168664
 10
8.5003673524
 20
5.438507551
 10
8.5014857808
 20
5.3943935676
 10
8.5026110603
 20
5.3584095276
 10
8.503726033
 20
5.3321661026
 10
8.5048256601
 20
5.3162460357
 10
8.5058507457
 20
5.3107396436
  0
LWPOLYLINE
  5
705
100
AcDbEntity
  8
0
100
AcDbPolyline
 62
7
  6
CONTINUOUS
 90
9
 70
0
 10
8.4170554604
 20
5.6037941284
 10
8.4181575454
 20
5.5446363168
 10
8.419265807
 20
5.4887693451
 10
8.4203689462
 20
5.4384393814
 10
8.4214869458
 20
5.3943517397
 10
8.4226117917
 20
5.3583891365
 10
8.4237263598
 20
5.3321598709
 10
8.4248303262
 20
5.3162003504
 10
8.4258507457
 20
5.3107396436
  0
LWPOLYLINE
  5
706
100
AcDbEntity
  8
0
100
AcDbPolyline
 62
7
  6
CONTINUOUS
 90
10
 70
0
 10
8.4190576785
 20
5.6036726288
 10
8.416842987
 20
5.7262030942
 10
8.4157181035
 20
5.786524301
 10
8.4145977332
 20
5.8428347829
 10
8.4134948532
 20
5.8928995035
 10
8.4123925222
 20
5.936112761
 10
8.4112791582
 20
5.9715150045
 10
8.410169358
 20
5.9974893502
 10
8.409063131
 20
6.0133412516
 10
8.4080588857
 20
6.0186450451
  0
LWPOLYLINE
  5
707
100
AcDbEntity
  8
0
100
AcDbPolyline
 62
7
  6
CONTINUOUS
 90
10
 70
0
 10
8.4590587577
 20
5.6036135201
 10
8.4568297498
 20
5.7269278342
 10
8.4556915241
 20
5.7879109305
 10
8.4545583257
 20
5.8447249824
 10
8.4534430628
 20
5.8950935116
 10
8.452322842
 20
5.938583887
 10
8.4511923532
 20
5.973893949
 10
8.4500691968
 20
5.9993466773
 10
8.4489494224
 20
6.0143808062
 10
8.4480588857
 20
6.0186450451
  0
LWPOLYLINE
  5
708
100
AcDbEntity
  8
0
100
AcDbPolyline
 62
7
  6
CONTINUOUS
 90
10
 70
0
 10
8.4990603717
 20
5.6035251208
 10
8.4968433413
 20
5.7261836946
 10
8.4957188161
 20
5.786487099
 10
8.4945987825
 20
5.8427843609
 10
8.4934951526
 20
5.8928867746
 10
8.4923794651
 20
5.9365782992
 10
8.4912565135
 20
5.9721411147
 10
8.4901433952
 20
5.9979787156
 10
8.4890392887
 20
6.0135684518
 10
8.4880588857
 20
6.0186450451
  0
LWPOLYLINE
  5
709
100
AcDbEntity
  8
0
100
AcDbPolyline
 62
9
  6
CONTINUOUS
 90
6
 70
0
 10
8.9129548157
 20
4.9496092422
 10
8.8645206871
 20
4.9481943976
 10
8.8148268891
 20
4.9438194122
 10
8.7658733241
 20
4.9366661354
 10
8.7196698192
 20
4.92739973
 10
8.6779548157
 20
4.9170118181
  0
LWPOLYLINE
  5
70A
100
AcDbEntity
  8
0
100
AcDbPolyline
 62
9
  6
CONTINUOUS
 90
6
 70
0
 10
8.6779548157
 20
4.9170118181
 10
8.6887230059
 20
4.9113641851
 10
8.6987300854
 20
4.9020892887
 10
8.7072687398
 20
4.8898426915
 10
8.7137354451
 20
4.8754900001
 10
8.7176731256
 20
4.8600456828
  0
LINE
  5
70B
100
AcDbEntity
  8
0
100
AcDbLine
 62
7
  6
CONTINUOUS
 10
8.0493461417
 20
5.3257417356
 11
8.0658507457
 21
5.3107396436
  0
LINE
  5
70C
100
AcDbEntity
  8
0
100
AcDbLine
 62
7
  6
CONTINUOUS
 10
8.0893461417
 20
5.3257417356
 11
8.1058507457
 21
5.3107396436
  0
LINE
  5
70D
100
AcDbEntity
  8
0
100
AcDbLine
 62
7
  6
CONTINUOUS
 10
8.1293461417
 20
5.3257417356
 11
8.1458507457
 21
5.3107396436
  0
LINE
  5
70E
100
AcDbEntity
  8
0
100
AcDbLine
 62
7
  6
CONTINUOUS
 10
8.1693461417
 20
5.3257417356
 11
8.1858507457
 21
5.3107396436
  0
LINE
  5
70F
100
AcDbEntity
  8
0
100
AcDbLine
 62
7
  6
CONTINUOUS
 10
8.3079548331
 20
5.3106923443
 11
8.3076449835
 21
5.311111505
  0
LINE
  5
710
100
AcDbEntity
  8
0
100
AcDbLine
 62
7
  6
CONTINUOUS
 10
8.3289238423
 20
5.326870773
 11
8.3293461417
 21
5.3257417356
  0
LWPOLYLINE
  5
711
100
AcDbEntity
  8
0
100
AcDbPolyline
 62
7
  6
CONTINUOUS
 90
18
 70
0
 10
8.2294548157
 20
6.0036923443
 10
8.2303751697
 20
6.0001559335
 10
8.2315079131
 20
5.9862155746
 10
8.2326406564
 20
5.9621228075
 10
8.2337733998
 20
5.9286383849
 10
8.2349061431
 20
5.8868196097
 10
8.2360388865
 20
5.8379869506
 10
8.2371716299
 20
5.7836823459
 10
8.2383043732
 20
5.7256205165
 10
8.2394371166
 20
5.6656348209
 10
8.24056986
 20
5.6056193657
 10
8.2417026033
 20
5.5474691971
 10
8.2428353467
 20
5.4930204632
 10
8.24396809
 20
5.4439924357
 10
8.2451008334
 20
5.4019332219
 10
8.2462335768
 20
5.3681708826
 10
8.2473663201
 20
5.3437714963
 10
8.2484990635
 20
5.3295054973
  0
LINE
  5
712
100
AcDbEntity
  8
0
100
AcDbLine
 62
7
  6
CONTINUOUS
 10
8.36856986
 20
5.3289623848
 11
8.3693461417
 21
5.3257417356
  0
LWPOLYLINE
  5
713
100
AcDbEntity
  8
0
100
AcDbPolyline
 62
7
  6
CONTINUOUS
 90
19
 70
0
 10
8.2245634897
 20
6.0036429531
 10
8.2253751697
 20
6.0001559335
 10
8.2265079131
 20
5.9862155746
 10
8.2276406564
 20
5.9621228075
 10
8.2287733998
 20
5.9286383849
 10
8.2299061431
 20
5.8868196097
 10
8.2310388865
 20
5.8379869506
 10
8.2321716299
 20
5.7836823459
 10
8.2333043732
 20
5.7256205165
 10
8.2344371166
 20
5.6656348209
 10
8.23556986
 20
5.6056193657
 10
8.2367026033
 20
5.5474691971
 10
8.2378353467
 20
5.4930204632
 10
8.23896809
 20
5.4439924357
 10
8.2401008334
 20
5.4019332219
 10
8.2412335768
 20
5.3681708826
 10
8.2423663201
 20
5.3437714963
 10
8.2434990635
 20
5.3295054973
 10
8.2444548157
 20
5.3256923443
  0
LINE
  5
714
100
AcDbEntity
  8
0
100
AcDbLine
 62
7
  6
CONTINUOUS
 10
8.2859548157
 20
6.0186923443
 11
8.2870776596
 21
6.0132004059
  0
LINE
  5
715
100
AcDbEntity
  8
0
100
AcDbLine
 62
7
  6
CONTINUOUS
 10
8.3879548132
 20
5.3106923443
 11
8.3868303262
 21
5.3162003504
  0
LINE
  5
716
100
AcDbEntity
  8
0
100
AcDbLine
 62
7
  6
CONTINUOUS
 10
8.2459548157
 20
6.0186923443
 11
8.2470795501
 21
6.0131819454
  0
LINE
  5
717
100
AcDbEntity
  8
0
100
AcDbLine
 62
7
  6
CONTINUOUS
 10
8.4279547799
 20
5.3106923444
 11
8.4268262103
 21
5.3162406394
  0
LINE
  5
718
100
AcDbEntity
  8
0
100
AcDbLine
 62
7
  6
CONTINUOUS
 10
8.4082158777
 20
5.3320917186
 11
8.4093461417
 21
5.3257417356
  0
LWPOLYLINE
  5
719
100
AcDbEntity
  8
0
100
AcDbPolyline
 62
7
  6
CONTINUOUS
 90
19
 70
0
 10
8.3045634897
 20
6.0036429531
 10
8.3057999484
 20
5.9961531767
 10
8.3069326918
 20
5.978336452
 10
8.3080654352
 20
5.9506161101
 10
8.3091981785
 20
5.9138674477
 10
8.3103309219
 20
5.8692508395
 10
8.3114636653
 20
5.8181750983
 10
8.3125964086
 20
5.7622529901
 10
8.313729152
 20
5.7032503097
 10
8.3148618954
 20
5.6430301243
 10
8.3159946387
 20
5.5834939444
 10
8.3171273821
 20
5.5265216828
 10
8.3182601254
 20
5.473912294
 10
8.3193928688
 20
5.4273269705
 10
8.3205256122
 20
5.3882366892
 10
8.3216583555
 20
5.3578757635
 10
8.3227910989
 20
5.3372028692
 10
8.3239238423
 20
5.326870773
 10
8.3244548157
 20
5.3256923443
  0
LWPOLYLINE
  5
71A
100
AcDbEntity
  8
0
100
AcDbPolyline
 62
9
  6
CONTINUOUS
 90
8
 70
0
 10
8.6179548157
 20
4.9371923443
 10
8.6210043467
 20
4.9094568731
 10
8.6295050617
 20
4.8873313264
 10
8.6422652993
 20
4.8711228354
 10
8.6581398917
 20
4.8605795816
 10
8.6762799157
 20
4.8553007762
 10
8.6961968887
 20
4.8550592923
 10
8.7176731256
 20
4.8600456828
  0
LWPOLYLINE
  5
71B
100
AcDbEntity
  8
0
100
AcDbPolyline
 62
7
  6
CONTINUOUS
 90
9
 70
0
 10
8.4869494224
 20
6.0143808062
 10
8.4880691968
 20
5.9993466773
 10
8.4891923532
 20
5.973893949
 10
8.490322842
 20
5.938583887
 10
8.4914430628
 20
5.8950935116
 10
8.4925583257
 20
5.8447249824
 10
8.4936915241
 20
5.7879109305
 10
8.4948297498
 20
5.7269278342
 10
8.4970587577
 20
5.6036135201
  0
LWPOLYLINE
  5
71C
100
AcDbEntity
  8
0
100
AcDbPolyline
 62
7
  6
CONTINUOUS
 90
9
 70
0
 10
8.5270392887
 20
6.0135684518
 10
8.5281433952
 20
5.9979787156
 10
8.5292565135
 20
5.9721411147
 10
8.5303794651
 20
5.9365782992
 10
8.5314951526
 20
5.8928867746
 10
8.5325987825
 20
5.8427843609
 10
8.5337188161
 20
5.786487099
 10
8.5348433413
 20
5.7261836946
 10
8.5370583521
 20
5.603635733
  0
LWPOLYLINE
  5
71D
100
AcDbEntity
  8
0
100
AcDbPolyline
 62
7
  6
CONTINUOUS
 90
8
 70
0
 10
8.5068287099
 20
5.3162161543
 10
8.5057284225
 20
5.3321205528
 10
8.5046139476
 20
5.3583290549
 10
8.5034891391
 20
5.3942730181
 10
8.5023711116
 20
5.438346789
 10
8.501269701
 20
5.4885814782
 10
8.5001692778
 20
5.5440227888
 10
8.4990603717
 20
5.6035251208
  0
LWPOLYLINE
  5
71E
100
AcDbEntity
  8
0
100
AcDbPolyline
 62
7
  6
CONTINUOUS
 90
9
 70
0
 10
8.5555659268
 20
5.6058256121
 10
8.5566921894
 20
5.5479896838
 10
8.5578184521
 20
5.4937968199
 10
8.5589447147
 20
5.4449387391
 10
8.5600709773
 20
5.4029406264
 10
8.5611972399
 20
5.3691135216
 10
8.5623235026
 20
5.3445133929
 10
8.5634497652
 20
5.3299081736
 10
8.5644548157
 20
5.3256923443
  0
LWPOLYLINE
  5
71F
100
AcDbEntity
  8
0
100
AcDbPolyline
 62
7
  6
CONTINUOUS
 90
9
 70
0
 10
8.5368444474
 20
5.7261231235
 10
8.5357235968
 20
5.7862374564
 10
8.5346095056
 20
5.8422687909
 10
8.5335075972
 20
5.8923573023
 10
8.5323885847
 20
5.9362532697
 10
8.5312633655
 20
5.9719520704
 10
8.5301490058
 20
5.997873433
 10
8.5290458069
 20
6.0135068234
 10
8.5280588857
 20
6.0186450451
  0
LWPOLYLINE
  5
720
100
AcDbEntity
  8
0
100
AcDbPolyline
 62
7
  6
CONTINUOUS
 90
9
 70
0
 10
8.5368444474
 20
5.7261231235
 10
8.5390659162
 20
5.6032214687
 10
8.5401770427
 20
5.5436169667
 10
8.5412881324
 20
5.4876931466
 10
8.5423992075
 20
5.4371477716
 10
8.543510348
 20
5.3935134417
 10
8.5446215141
 20
5.3581184698
 10
8.5457326393
 20
5.3320402846
 10
8.5468437169
 20
5.3160702806
  0
LINE
  5
721
100
AcDbEntity
  8
0
100
AcDbLine
 62
7
  6
CONTINUOUS
 10
8.5679548157
 20
6.0186923443
 11
8.5679548157
 21
5.3351804876
  0
LINE
  5
722
100
AcDbEntity
  8
0
100
AcDbLine
 62
9
  6
CONTINUOUS
 10
8.5679548157
 20
5.3351804876
 11
8.5679548157
 21
5.3259423443
  0
LINE
  5
723
100
AcDbEntity
  8
0
100
AcDbLine
 62
9
  6
CONTINUOUS
 10
8.6054548157
 20
5.3259423443
 11
8.6054548157
 21
6.0034423443
  0
LWPOLYLINE
  5
724
100
AcDbEntity
  8
0
100
AcDbPolyline
 62
7
  6
CONTINUOUS
 90
6
 70
0
 10
9.0579548157
 20
4.9155167975
 10
9.1013625915
 20
4.9059193282
 10
9.1389689954
 20
4.8957180864
 10
9.1690617719
 20
4.8863416695
 10
9.1907088404
 20
4.8789530121
 10
9.203656554
 20
4.8742832726
  0
LINE
  5
725
100
AcDbEntity
  8
0
100
AcDbLine
 62
7
  6
CONTINUOUS
 10
8.0658507457
 20
5.3107396436
 11
8.0659548804
 21
5.3106923444
  0
LINE
  5
726
100
AcDbEntity
  8
0
100
AcDbLine
 62
7
  6
CONTINUOUS
 10
8.1058507457
 20
5.3107396436
 11
8.1059548467
 21
5.3106923443
  0
LINE
  5
727
100
AcDbEntity
  8
0
100
AcDbLine
 62
7
  6
CONTINUOUS
 10
8.2093461417
 20
5.3257417356
 11
8.2258507457
 21
5.3107396436
  0
LINE
  5
728
100
AcDbEntity
  8
0
100
AcDbLine
 62
7
  6
CONTINUOUS
 10
8.2493461417
 20
5.3257417356
 11
8.2658507457
 21
5.3107396436
  0
LINE
  5
729
100
AcDbEntity
  8
0
100
AcDbLine
 62
7
  6
CONTINUOUS
 10
8.2893461417
 20
5.3257417356
 11
8.3058507457
 21
5.3107396436
  0
LINE
  5
72A
100
AcDbEntity
  8
0
100
AcDbLine
 62
7
  6
CONTINUOUS
 10
8.3293461417
 20
5.3257417356
 11
8.3458507457
 21
5.3107396436
  0
LWPOLYLINE
  5
72B
100
AcDbEntity
  8
0
100
AcDbPolyline
 62
7
  6
CONTINUOUS
 90
18
 70
0
 10
8.1494548157
 20
6.0036923443
 10
8.1499503909
 20
6.0026657253
 10
8.1510831343
 20
5.9926637731
 10
8.1522158777
 20
5.9723058047
 10
8.153348621
 20
5.9422346426
 10
8.1544813644
 20
5.903399813
 10
8.1556141077
 20
5.8570275634
 10
8.1567468511
 20
5.8045821424
 10
8.1578795945
 20
5.7477195654
 10
8.1590123378
 20
5.6882353232
 10
8.1601450812
 20
5.6280076885
 10
8.1612778246
 20
5.5689384076
 10
8.1624105679
 20
5.5128926501
 10
8.1635433113
 20
5.4616401153
 10
8.1646760546
 20
5.4167991518
 10
8.165808798
 20
5.3797856565
 10
8.1669415414
 20
5.3517683665
 10
8.1680742847
 20
5.3336319548
  0
LINE
  5
72C
100
AcDbEntity
  8
0
100
AcDbLine
 62
7
  6
CONTINUOUS
 10
8.4489946387
 20
5.3265776029
 11
8.4493461417
 21
5.3257417356
  0
LINE
  5
72D
100
AcDbEntity
  8
0
100
AcDbLine
 62
7
  6
CONTINUOUS
 10
8.1445634897
 20
6.0036429531
 11
8.1449503909
 21
6.0026657253
  0
LINE
  5
72E
100
AcDbEntity
  8
0
100
AcDbLine
 62
7
  6
CONTINUOUS
 10
8.2645634897
 20
6.0036429531
 11
8.2650211874
 21
6.0023516615
  0
LINE
  5
72F
100
AcDbEntity
  8
0
100
AcDbLine
 62
7
  6
CONTINUOUS
 10
8.5287179736
 20
5.3279605031
 11
8.5293461417
 21
5.3257417356
  0
LWPOLYLINE
  5
730
100
AcDbEntity
  8
0
100
AcDbPolyline
 62
7
  6
CONTINUOUS
 90
18
 70
0
 10
8.3494548157
 20
6.0036923443
 10
8.3504459661
 20
5.9995920863
 10
8.3515787095
 20
5.9850008883
 10
8.3527114529
 20
5.960295637
 10
8.3538441962
 20
5.9262564248
 10
8.3549769396
 20
5.8839580729
 10
8.356109683
 20
5.8347361927
 10
8.3572424263
 20
5.7801450129
 10
8.3583751697
 20
5.7219083031
 10
8.3595079131
 20
5.6618649437
 10
8.3606406564
 20
5.6019108623
 10
8.3617733998
 20
5.5439391672
 10
8.3629061431
 20
5.4897803708
 10
8.3640388865
 20
5.4411445898
 10
8.3651716299
 20
5.3995675462
 10
8.3663043732
 20
5.3663620755
 10
8.3674371166
 20
5.3425766726
 10
8.36856986
 20
5.3289623848
  0
LWPOLYLINE
  5
731
100
AcDbEntity
  8
0
100
AcDbPolyline
 62
7
  6
CONTINUOUS
 90
19
 70
0
 10
8.3445634897
 20
6.0036429531
 10
8.3454459661
 20
5.9995920863
 10
8.3465787095
 20
5.9850008883
 10
8.3477114529
 20
5.960295637
 10
8.3488441962
 20
5.9262564248
 10
8.3499769396
 20
5.8839580729
 10
8.351109683
 20
5.8347361927
 10
8.3522424263
 20
5.7801450129
 10
8.3533751697
 20
5.7219083031
 10
8.3545079131
 20
5.6618649437
 10
8.3556406564
 20
5.6019108623
 10
8.3567733998
 20
5.5439391672
 10
8.3579061431
 20
5.4897803708
 10
8.3590388865
 20
5.4411445898
 10
8.3601716299
 20
5.3995675462
 10
8.3613043732
 20
5.3663620755
 10
8.3624371166
 20
5.3425766726
 10
8.36356986
 20
5.3289623848
 10
8.3644548157
 20
5.3256923443
  0
LINE
  5
732
100
AcDbEntity
  8
0
100
AcDbLine
 62
7
  6
CONTINUOUS
 10
8.5468437169
 20
5.3160702806
 11
8.5479548157
 21
5.3106923443
  0
LINE
  5
733
100
AcDbEntity
  8
0
100
AcDbLine
 62
7
  6
CONTINUOUS
 10
8.3259548157
 20
6.0186923443
 11
8.3270763944
 21
6.013212744
  0
LINE
  5
734
100
AcDbEntity
  8
0
100
AcDbLine
 62
7
  6
CONTINUOUS
 10
8.3659548157
 20
6.0186923443
 11
8.3670761328
 21
6.0132152928
  0
LINE
  5
735
100
AcDbEntity
  8
0
100
AcDbLine
 62
7
  6
CONTINUOUS
 10
8.4059548157
 20
6.0186923443
 11
8.4070770477
 21
6.0132063745
  0
LINE
  5
736
100
AcDbEntity
  8
0
100
AcDbLine
 62
7
  6
CONTINUOUS
 10
8.5079547349
 20
5.3106923444
 11
8.5068287099
 21
5.3162161543
  0
LINE
  5
737
100
AcDbEntity
  8
0
100
AcDbLine
 62
7
  6
CONTINUOUS
 10
8.4679547453
 20
5.3106923444
 11
8.4668256601
 21
5.3162460357
  0
LINE
  5
738
100
AcDbEntity
  8
0
100
AcDbLine
 62
7
  6
CONTINUOUS
 10
8.4883600789
 20
5.3306922115
 11
8.4893461417
 21
5.3257417356
  0
LWPOLYLINE
  5
739
100
AcDbEntity
  8
0
100
AcDbPolyline
 62
7
  6
CONTINUOUS
 90
9
 70
0
 10
8.5458507457
 20
5.3107396436
 10
8.5447832137
 20
5.3166702237
 10
8.5436796959
 20
5.3330586579
 10
8.5425761287
 20
5.3593880941
 10
8.5414725224
 20
5.3948702286
 10
8.5403689393
 20
5.4384396766
 10
8.5392654184
 20
5.4887880957
 10
8.5381619011
 20
5.5444084974
 10
8.5370583521
 20
5.603635733
  0
LWPOLYLINE
  5
73A
100
AcDbEntity
  8
0
100
AcDbPolyline
 62
7
  6
CONTINUOUS
 90
19
 70
0
 10
8.4247380015
 20
6.0033570078
 10
8.4258707449
 20
5.9953420555
 10
8.4270034883
 20
5.9768865177
 10
8.4281362316
 20
5.9485731457
 10
8.429268975
 20
5.9112959619
 10
8.4304017184
 20
5.8662320294
 10
8.4315344617
 20
5.8148042857
 10
8.4326672051
 20
5.7586366118
 10
8.4337999484
 20
5.6995025563
 10
8.4349326918
 20
5.6392693347
 10
8.4360654352
 20
5.5798388693
 10
8.4371981785
 20
5.5230877347
 10
8.4383309219
 20
5.4708079031
 10
8.4394636653
 20
5.424650161
 10
8.4405964086
 20
5.3860719839
 10
8.441729152
 20
5.3562915151
 10
8.4428618954
 20
5.3362491019
 10
8.4439946387
 20
5.3265776029
 10
8.4444548157
 20
5.3256923443
  0
LWPOLYLINE
  5
73B
100
AcDbEntity
  8
0
100
AcDbPolyline
 62
7
  6
CONTINUOUS
 90
8
 70
0
 10
8.6179548157
 20
4.9371923443
 10
8.619789703
 20
4.9241483262
 10
8.62490454
 20
4.9151393646
 10
8.6325823101
 20
4.9097762568
 10
8.6421339716
 20
4.9075649638
 10
8.6530487318
 20
4.9081073796
 10
8.6650326732
 20
4.911219933
 10
8.6779548157
 20
4.9170118181
  0
LWPOLYLINE
  5
73C
100
AcDbEntity
  8
0
100
AcDbPolyline
 62
7
  6
CONTINUOUS
 90
3
 70
0
 10
8.5679548157
 20
6.0013663511
 10
8.5668516159
 20
6.0151857452
 10
8.5659548186
 20
6.0186923443
  0
LINE
  5
73D
100
AcDbEntity
  8
0
100
AcDbLine
 62
7
  6
CONTINUOUS
 10
8.6179548157
 20
4.5426923443
 11
8.6179548157
 21
6.3921923443
  0
LINE
  5
73E
100
AcDbEntity
  8
0
100
AcDbLine
 62
7
  6
CONTINUOUS
 10
8.6229548157
 20
4.5426923443
 11
8.6229548157
 21
4.4926923443
  0
LINE
  5
73F
100
AcDbEntity
  8
0
100
AcDbLine
 62
9
  6
CONTINUOUS
 10
8.6779548157
 20
4.9170118181
 11
8.6779548157
 21
6.4521923443
  0
LINE
  5
740
100
AcDbEntity
  8
0
100
AcDbLine
 62
7
  6
CONTINUOUS
 10
9.203656554
 20
4.8742832726
 11
9.2079548157
 21
4.8726923443
  0
LINE
  5
741
100
AcDbEntity
  8
0
100
AcDbLine
 62
7
  6
CONTINUOUS
 10
8.1458507457
 20
5.3107396436
 11
8.1459548169
 21
5.3106923443
  0
LINE
  5
742
100
AcDbEntity
  8
0
100
AcDbLine
 62
7
  6
CONTINUOUS
 10
8.1858507457
 20
5.3107396436
 11
8.1859548157
 21
5.3106923443
  0
LINE
  5
743
100
AcDbEntity
  8
0
100
AcDbLine
 62
7
  6
CONTINUOUS
 10
8.2658507457
 20
5.3107396436
 11
8.2659548157
 21
5.3106923443
  0
LINE
  5
744
100
AcDbEntity
  8
0
100
AcDbLine
 62
7
  6
CONTINUOUS
 10
8.3058507457
 20
5.3107396436
 11
8.3059548157
 21
5.3106923443
  0
LINE
  5
745
100
AcDbEntity
  8
0
100
AcDbLine
 62
7
  6
CONTINUOUS
 10
8.3458507457
 20
5.3107396436
 11
8.3459548331
 21
5.3106923443
  0
LINE
  5
746
100
AcDbEntity
  8
0
100
AcDbLine
 62
7
  6
CONTINUOUS
 10
8.2258507457
 20
5.3107396436
 11
8.2259547996
 21
5.3106923443
  0
LWPOLYLINE
  5
747
100
AcDbEntity
  8
0
100
AcDbPolyline
 62
9
  6
CONTINUOUS
 90
7
 70
0
 10
9.0579548157
 20
4.9202756264
 10
9.0463571449
 20
4.92672232
 10
9.028954918
 20
4.9334887458
 10
9.0057288097
 20
4.9398655204
 10
8.977515741
 20
4.9450782118
 10
8.9459120806
 20
4.9484564895
 10
8.9129548157
 20
4.9496092422
  0
LINE
  5
748
100
AcDbEntity
  8
0
100
AcDbLine
 62
7
  6
CONTINUOUS
 10
8.3693461417
 20
5.3257417356
 11
8.3858507457
 21
5.3107396436
  0
LINE
  5
749
100
AcDbEntity
  8
0
100
AcDbLine
 62
7
  6
CONTINUOUS
 10
8.4093461417
 20
5.3257417356
 11
8.4258507457
 21
5.3107396436
  0
LINE
  5
74A
100
AcDbEntity
  8
0
100
AcDbLine
 62
7
  6
CONTINUOUS
 10
8.4493461417
 20
5.3257417356
 11
8.4658507457
 21
5.3107396436
  0
LINE
  5
74B
100
AcDbEntity
  8
0
100
AcDbLine
 62
7
  6
CONTINUOUS
 10
8.4893461417
 20
5.3257417356
 11
8.5058507457
 21
5.3107396436
  0
LWPOLYLINE
  5
74C
100
AcDbEntity
  8
0
100
AcDbPolyline
 62
7
  6
CONTINUOUS
 90
18
 70
0
 10
8.2694548157
 20
6.0036923443
 10
8.2700211874
 20
6.0023516615
 10
8.2711539308
 20
5.9916897408
 10
8.2722866741
 20
5.9707025598
 10
8.2734194175
 20
5.9400528092
 10
8.2745521608
 20
5.9007082846
 10
8.2756849042
 20
5.8539113276
 10
8.2768176476
 20
5.8011395974
 10
8.2779503909
 20
5.7440594128
 10
8.2790831343
 20
5.684473136
 10
8.2802158777
 20
5.6242622614
 10
8.281348621
 20
5.565328006
 10
8.2824813644
 20
5.509531276
 10
8.2836141077
 20
5.4586339074
 10
8.2847468511
 20
5.414243034
 10
8.2858795945
 20
5.3777603407
 10
8.2870123378
 20
5.3503378039
 10
8.2881450812
 20
5.332841317
  0
LINE
  5
74D
100
AcDbEntity
  8
0
100
AcDbLine
 62
7
  6
CONTINUOUS
 10
8.3845634897
 20
6.0036429531
 11
8.3850919838
 21
6.0019958399
  0
LWPOLYLINE
  5
74E
100
AcDbEntity
  8
0
100
AcDbPolyline
 62
7
  6
CONTINUOUS
 90
18
 70
0
 10
8.4694548157
 20
6.0036923443
 10
8.4704232368
 20
5.9997776283
 10
8.4715442894
 20
5.9855964067
 10
8.472665342
 20
5.9614898673
 10
8.4737863947
 20
5.928203607
 10
8.4749074473
 20
5.8867671445
 10
8.4760284999
 20
5.8384620778
 10
8.4771495525
 20
5.7847824459
 10
8.4782706052
 20
5.7273885187
 10
8.4793916578
 20
5.6680554468
 10
8.4805127104
 20
5.6086183566
 10
8.4816337631
 20
5.5509155921
 10
8.4827548157
 20
5.4967318557
 10
8.4838758683
 20
5.4477430091
 10
8.484996921
 20
5.4054642399
 10
8.4861179736
 20
5.3712031981
 10
8.4872390262
 20
5.3460195517
 10
8.4883600789
 20
5.3306922115
  0
LINE
  5
74F
100
AcDbEntity
  8
0
100
AcDbLine
 62
7
  6
CONTINUOUS
 10
8.4859545276
 20
6.018692344
 11
8.4869494224
 21
6.0143808062
  0
LWPOLYLINE
  5
750
100
AcDbEntity
  8
0
100
AcDbPolyline
 62
7
  6
CONTINUOUS
 90
19
 70
0
 10
8.4645634897
 20
6.0036429531
 10
8.4654649167
 20
5.9994341276
 10
8.4665911793
 20
5.9847828305
 10
8.467717442
 20
5.9601393855
 10
8.4688437046
 20
5.9262730781
 10
8.4699699672
 20
5.8842411005
 10
8.4710962298
 20
5.8353555494
 10
8.4722224925
 20
5.7811424675
 10
8.4733487551
 20
5.7232942045
 10
8.4744750177
 20
5.6636165887
 10
8.4756012804
 20
5.6039725543
 10
8.476727543
 20
5.5462239875
 10
8.4778538056
 20
5.4921736041
 10
8.4789800682
 20
5.4435086752
 10
8.4801063309
 20
5.4017483562
 10
8.4812325935
 20
5.3681962636
 10
8.4823588561
 20
5.343899781
 10
8.4834851187
 20
5.3296173627
 10
8.4844548157
 20
5.3256923443
  0
LINE
  5
751
100
AcDbEntity
  8
0
100
AcDbLine
 62
7
  6
CONTINUOUS
 10
8.4459548009
 20
6.0186923443
 11
8.447063131
 21
6.0133412516
  0
LWPOLYLINE
  5
752
100
AcDbEntity
  8
0
100
AcDbPolyline
 62
7
  6
CONTINUOUS
 90
19
 70
0
 10
8.5048841086
 20
6.0029218803
 10
8.5060103713
 20
5.9936225956
 10
8.5071366339
 20
5.9740552152
 10
8.5082628965
 20
5.944830567
 10
8.5093891591
 20
5.9068609463
 10
8.5105154218
 20
5.8613316367
 10
8.5116416844
 20
5.8096639101
 10
8.512767947
 20
5.753470659
 10
8.5138942096
 20
5.6945060478
 10
8.5150204723
 20
5.634610753
 10
8.5161467349
 20
5.5756545043
 10
8.5172729975
 20
5.5194777173
 10
8.5183992602
 20
5.4678340423
 10
8.5195255228
 20
5.4223356211
 10
8.5206517854
 20
5.3844027612
 10
8.521778048
 20
5.3552195989
 10
8.5229043107
 20
5.3356971343
 10
8.5240305733
 20
5.3264447931
 10
8.5244548157
 20
5.3256923443
  0
LINE
  5
753
100
AcDbEntity
  8
AXIS_COSMETIC_THREADS
100
AcDbLine
 62
7
  6
CONTINUOUS
 10
8.7964548157
 20
4.4426923443
 11
8.7964548157
 21
3.6896923443
  0
LINE
  5
754
100
AcDbEntity
  8
0
100
AcDbLine
 62
7
  6
CONTINUOUS
 10
8.3858507457
 20
5.3107396436
 11
8.3859548157
 21
5.3106923443
  0
LINE
  5
755
100
AcDbEntity
  8
0
100
AcDbLine
 62
7
  6
CONTINUOUS
 10
8.4258507457
 20
5.3107396436
 11
8.4259548132
 21
5.3106923443
  0
LINE
  5
756
100
AcDbEntity
  8
0
100
AcDbLine
 62
7
  6
CONTINUOUS
 10
8.545954815
 20
5.3106923443
 11
8.5458507457
 21
5.3107396436
  0
LINE
  5
757
100
AcDbEntity
  8
0
100
AcDbLine
 62
7
  6
CONTINUOUS
 10
8.4658507457
 20
5.3107396436
 11
8.4659547799
 21
5.3106923444
  0
LINE
  5
758
100
AcDbEntity
  8
0
100
AcDbLine
 62
7
  6
CONTINUOUS
 10
8.5058507457
 20
5.3107396436
 11
8.5059547453
 21
5.3106923444
  0
LINE
  5
759
100
AcDbEntity
  8
0
100
AcDbLine
 62
7
  6
CONTINUOUS
 10
8.5293461417
 20
5.3257417356
 11
8.5458507457
 21
5.3107396436
  0
LWPOLYLINE
  5
75A
100
AcDbEntity
  8
0
100
AcDbPolyline
 62
7
  6
CONTINUOUS
 90
18
 70
0
 10
8.3894548157
 20
6.0036923443
 10
8.3900919838
 20
6.0019958399
 10
8.3912247272
 20
5.9906752692
 10
8.3923574706
 20
5.9690614711
 10
8.3934902139
 20
5.9378369224
 10
8.3946229573
 20
5.8979875685
 10
8.3957557007
 20
5.8507716914
 10
8.396888444
 20
5.7976801782
 10
8.3980211874
 20
5.7403894451
 10
8.3991539307
 20
5.6807085026
 10
8.4002866741
 20
5.6205218343
 10
8.4014194175
 20
5.5617298927
 10
8.4025521608
 20
5.5061890905
 10
8.4036849042
 20
5.4556531824
 10
8.4048176476
 20
5.4117178888
 10
8.4059503909
 20
5.3757705093
 10
8.4070831343
 20
5.3489461171
 10
8.4082158777
 20
5.3320917186
  0
LWPOLYLINE
  5
75B
100
AcDbEntity
  8
0
100
AcDbPolyline
 62
7
  6
CONTINUOUS
 90
10
 70
0
 10
8.5445634897
 20
6.0036429531
 10
8.5454295632
 20
5.999726414
 10
8.5465558258
 20
5.9853978541
 10
8.5476820884
 20
5.9610579474
 10
8.5488083511
 20
5.9274665038
 10
8.5499346137
 20
5.8856721352
 10
8.5510608763
 20
5.8369795212
 10
8.5521871389
 20
5.7829086813
 10
8.5533134016
 20
5.7251475251
 10
8.5555659268
 20
5.6058256121
  0
LINE
  5
75C
100
AcDbEntity
  8
0
100
AcDbLine
 62
7
  6
CONTINUOUS
 10
8.5259547238
 20
6.0186923443
 11
8.5270392887
 21
6.0135684518
  0
LINE
  5
75D
100
AcDbEntity
  8
0
100
AcDbLine
 62
7
  6
CONTINUOUS
 10
8.5479548157
 20
5.3106923443
 11
8.5459548157
 21
5.3106923443
  0
LINE
  5
75E
100
AcDbEntity
  8
0
100
AcDbLine
 62
7
  6
CONTINUOUS
 10
8.5079548157
 20
5.3106923443
 11
8.5059548157
 21
5.3106923443
  0
LINE
  5
75F
100
AcDbEntity
  8
0
100
AcDbLine
 62
7
  6
CONTINUOUS
 10
8.4679548157
 20
5.3106923443
 11
8.4659548157
 21
5.3106923443
  0
LINE
  5
760
100
AcDbEntity
  8
0
100
AcDbLine
 62
7
  6
CONTINUOUS
 10
8.4279548157
 20
5.3106923443
 11
8.4259548157
 21
5.3106923443
  0
LINE
  5
761
100
AcDbEntity
  8
0
100
AcDbLine
 62
7
  6
CONTINUOUS
 10
8.3879548157
 20
5.3106923443
 11
8.3859548157
 21
5.3106923443
  0
LINE
  5
762
100
AcDbEntity
  8
0
100
AcDbLine
 62
7
  6
CONTINUOUS
 10
8.3479548157
 20
5.3106923443
 11
8.3459548157
 21
5.3106923443
  0
LINE
  5
763
100
AcDbEntity
  8
0
100
AcDbLine
 62
7
  6
CONTINUOUS
 10
8.3079548157
 20
5.3106923443
 11
8.3059548157
 21
5.3106923443
  0
LINE
  5
764
100
AcDbEntity
  8
0
100
AcDbLine
 62
7
  6
CONTINUOUS
 10
8.2679548157
 20
5.3106923443
 11
8.2659548157
 21
5.3106923443
  0
LINE
  5
765
100
AcDbEntity
  8
0
100
AcDbLine
 62
7
  6
CONTINUOUS
 10
8.2279548157
 20
5.3106923443
 11
8.2259548157
 21
5.3106923443
  0
LINE
  5
766
100
AcDbEntity
  8
0
100
AcDbLine
 62
7
  6
CONTINUOUS
 10
8.1879548157
 20
5.3106923443
 11
8.1859548157
 21
5.3106923443
  0
LINE
  5
767
100
AcDbEntity
  8
0
100
AcDbLine
 62
7
  6
CONTINUOUS
 10
8.1479548157
 20
5.3106923443
 11
8.1459548157
 21
5.3106923443
  0
LINE
  5
768
100
AcDbEntity
  8
0
100
AcDbLine
 62
7
  6
CONTINUOUS
 10
8.1079548157
 20
5.3106923443
 11
8.1059548157
 21
5.3106923443
  0
LINE
  5
769
100
AcDbEntity
  8
0
100
AcDbLine
 62
7
  6
CONTINUOUS
 10
8.0679548157
 20
5.3106923443
 11
8.0659548157
 21
5.3106923443
  0
LINE
  5
76A
100
AcDbEntity
  8
0
100
AcDbLine
 62
7
  6
CONTINUOUS
 10
8.0444548157
 20
5.3256923443
 11
8.0494548157
 21
5.3256923443
  0
LINE
  5
76B
100
AcDbEntity
  8
0
100
AcDbLine
 62
7
  6
CONTINUOUS
 10
8.0844548157
 20
5.3256923443
 11
8.0894548157
 21
5.3256923443
  0
LINE
  5
76C
100
AcDbEntity
  8
0
100
AcDbLine
 62
7
  6
CONTINUOUS
 10
8.1244548157
 20
5.3256923443
 11
8.1294548157
 21
5.3256923443
  0
LINE
  5
76D
100
AcDbEntity
  8
0
100
AcDbLine
 62
7
  6
CONTINUOUS
 10
8.1644548157
 20
5.3256923443
 11
8.1694548157
 21
5.3256923443
  0
LINE
  5
76E
100
AcDbEntity
  8
0
100
AcDbLine
 62
7
  6
CONTINUOUS
 10
8.2044548157
 20
5.3256923443
 11
8.2094548157
 21
5.3256923443
  0
LINE
  5
76F
100
AcDbEntity
  8
0
100
AcDbLine
 62
7
  6
CONTINUOUS
 10
8.2444548157
 20
5.3256923443
 11
8.2494548157
 21
5.3256923443
  0
LINE
  5
770
100
AcDbEntity
  8
0
100
AcDbLine
 62
7
  6
CONTINUOUS
 10
8.2844548157
 20
5.3256923443
 11
8.2894548157
 21
5.3256923443
  0
LINE
  5
771
100
AcDbEntity
  8
0
100
AcDbLine
 62
7
  6
CONTINUOUS
 10
8.3244548157
 20
5.3256923443
 11
8.3294548157
 21
5.3256923443
  0
LINE
  5
772
100
AcDbEntity
  8
0
100
AcDbLine
 62
7
  6
CONTINUOUS
 10
8.3644548157
 20
5.3256923443
 11
8.3694548157
 21
5.3256923443
  0
LINE
  5
773
100
AcDbEntity
  8
0
100
AcDbLine
 62
7
  6
CONTINUOUS
 10
8.4044548157
 20
5.3256923443
 11
8.4094548157
 21
5.3256923443
  0
LINE
  5
774
100
AcDbEntity
  8
0
100
AcDbLine
 62
7
  6
CONTINUOUS
 10
8.4444548157
 20
5.3256923443
 11
8.4494548157
 21
5.3256923443
  0
LINE
  5
775
100
AcDbEntity
  8
0
100
AcDbLine
 62
7
  6
CONTINUOUS
 10
8.4844548157
 20
5.3256923443
 11
8.4894548157
 21
5.3256923443
  0
LINE
  5
776
100
AcDbEntity
  8
0
100
AcDbLine
 62
7
  6
CONTINUOUS
 10
8.5244548157
 20
5.3256923443
 11
8.5294548157
 21
5.3256923443
  0
LINE
  5
777
100
AcDbEntity
  8
0
100
AcDbLine
 62
7
  6
CONTINUOUS
 10
8.5644548157
 20
5.3256923443
 11
8.5679548157
 21
5.3256923443
  0
LINE
  5
778
100
AcDbEntity
  8
0
100
AcDbLine
 62
7
  6
CONTINUOUS
 10
8.6054548157
 20
5.3259423443
 11
8.5679548157
 21
5.3259423443
  0
LINE
  5
779
100
AcDbEntity
  8
0
100
AcDbLine
 62
7
  6
CONTINUOUS
 10
8.5045634897
 20
6.0036429531
 11
8.5048841086
 21
6.0029218803
  0
LWPOLYLINE
  5
77A
100
AcDbEntity
  8
0
100
AcDbPolyline
 62
9
  6
CONTINUOUS
 90
7
 70
0
 10
9.0579548157
 20
4.9202756264
 10
9.0397496287
 20
4.9123162909
 10
9.0182726122
 20
4.9057060371
 10
8.9940520972
 20
4.9007704237
 10
8.967830061
 20
4.8974981045
 10
8.9404958536
 20
4.8956916172
 10
8.9129548157
 20
4.8951267201
  0
LINE
  5
77B
100
AcDbEntity
  8
0
100
AcDbLine
 62
7
  6
CONTINUOUS
 10
8.0645634897
 20
6.0036429531
 11
8.0480588857
 21
6.0186450451
  0
LINE
  5
77C
100
AcDbEntity
  8
0
100
AcDbLine
 62
7
  6
CONTINUOUS
 10
8.1045634897
 20
6.0036429531
 11
8.0880588857
 21
6.0186450451
  0
LINE
  5
77D
100
AcDbEntity
  8
0
100
AcDbLine
 62
7
  6
CONTINUOUS
 10
8.1445634897
 20
6.0036429531
 11
8.1280588857
 21
6.0186450451
  0
LINE
  5
77E
100
AcDbEntity
  8
0
100
AcDbLine
 62
7
  6
CONTINUOUS
 10
8.1845634897
 20
6.0036429531
 11
8.1680588857
 21
6.0186450451
  0
LINE
  5
77F
100
AcDbEntity
  8
0
100
AcDbLine
 62
9
  6
CONTINUOUS
 10
9.2099103613
 20
4.8756923443
 11
9.2093099192
 21
4.8766271076
  0
LWPOLYLINE
  5
780
100
AcDbEntity
  8
0
100
AcDbPolyline
 62
9
  6
CONTINUOUS
 90
13
 70
0
 10
9.2093099192
 20
4.8766271076
 10
9.2045063819
 20
4.8844144473
 10
9.1956027776
 20
4.9015818574
 10
9.1837753796
 20
4.930564085
 10
9.1715758161
 20
4.97302159
 10
9.1619727401
 20
5.0293529402
 10
9.1555207985
 20
5.0982215541
 10
9.1517167734
 20
5.1775842618
 10
9.1499350253
 20
5.2654050866
 10
9.1495498527
 20
5.3596388384
 10
9.1499639734
 20
5.4584874558
 10
9.1506144785
 20
5.5605276151
 10
9.1509548157
 20
5.6646923443
  0
LINE
  5
781
100
AcDbEntity
  8
0
100
AcDbLine
 62
7
  6
CONTINUOUS
 10
8.4245634897
 20
6.0036429531
 11
8.4247380015
 21
6.0033570078
  0
LWPOLYLINE
  5
782
100
AcDbEntity
  8
0
100
AcDbPolyline
 62
7
  6
CONTINUOUS
 90
18
 70
0
 10
8.5494548157
 20
6.0036923443
 10
8.5500179736
 20
6.0023668234
 10
8.5511390262
 20
5.9918981649
 10
8.5522600789
 20
5.9713092801
 10
8.5533811315
 20
5.9412369674
 10
8.5545021841
 20
5.9026113405
 10
8.5556232368
 20
5.8566270606
 10
8.5567442894
 20
5.8047063864
 10
8.557865342
 20
5.7484551848
 10
8.5589863947
 20
5.6896132624
 10
8.5601074473
 20
5.630000555
 10
8.5612284999
 20
5.5714608382
 10
8.5623495525
 20
5.5158047007
 10
8.5634706052
 20
5.4647535445
 10
8.5645916578
 20
5.4198863427
 10
8.5657127104
 20
5.3825908038
 10
8.5668337631
 20
5.3540204502
 10
8.5679548157
 20
5.3350589413
  0
LINE
  5
783
100
AcDbEntity
  8
AXIS_COSMETIC_THREADS
100
AcDbLine
 62
7
  6
CONTINUOUS
 10
9.0294548157
 20
4.4426923443
 11
9.0294548157
 21
3.6896923443
  0
LINE
  5
784
100
AcDbEntity
  8
0
100
AcDbLine
 62
7
  6
CONTINUOUS
 10
9.0579548157
 20
4.9155167975
 11
9.0579548157
 21
6.4521844019
  0
LINE
  5
785
100
AcDbEntity
  8
0
100
AcDbLine
 62
7
  6
CONTINUOUS
 10
9.0709548157
 20
4.9126424945
 11
9.0709548157
 21
6.4536923443
  0
LINE
  5
786
100
AcDbEntity
  8
0
100
AcDbLine
 62
7
  6
CONTINUOUS
 10
8.0279548157
 20
5.5146923443
 11
7.9879548157
 21
5.5146923443
  0
LWPOLYLINE
  5
787
100
AcDbEntity
  8
0
100
AcDbPolyline
 62
7
  6
CONTINUOUS
 90
19
 70
0
 10
8.3094548157
 20
6.0036923443
 10
8.3096672051
 20
6.0035037039
 10
8.3107999484
 20
5.9961531767
 10
8.3119326918
 20
5.978336452
 10
8.3130654352
 20
5.9506161101
 10
8.3141981785
 20
5.9138674477
 10
8.3153309219
 20
5.8692508395
 10
8.3164636653
 20
5.8181750983
 10
8.3175964086
 20
5.7622529901
 10
8.318729152
 20
5.7032503097
 10
8.3198618954
 20
5.6430301243
 10
8.3209946387
 20
5.5834939444
 10
8.3221273821
 20
5.5265216828
 10
8.3232601254
 20
5.473912294
 10
8.3243928688
 20
5.4273269705
 10
8.3255256122
 20
5.3882366892
 10
8.3266583555
 20
5.3578757635
 10
8.3277910989
 20
5.3372028692
 10
8.3289238423
 20
5.326870773
  0
LINE
  5
788
100
AcDbEntity
  8
0
100
AcDbLine
 62
7
  6
CONTINUOUS
 10
8.2245634897
 20
6.0036429531
 11
8.2080588857
 21
6.0186450451
  0
LINE
  5
789
100
AcDbEntity
  8
0
100
AcDbLine
 62
7
  6
CONTINUOUS
 10
8.2645634897
 20
6.0036429531
 11
8.2480588857
 21
6.0186450451
  0
LINE
  5
78A
100
AcDbEntity
  8
0
100
AcDbLine
 62
7
  6
CONTINUOUS
 10
8.3045634897
 20
6.0036429531
 11
8.2880588857
 21
6.0186450451
  0
LWPOLYLINE
  5
78B
100
AcDbEntity
  8
0
100
AcDbPolyline
 62
7
  6
CONTINUOUS
 90
19
 70
0
 10
8.4294548157
 20
6.0036923443
 10
8.4297380015
 20
6.0033570078
 10
8.4308707449
 20
5.9953420555
 10
8.4320034883
 20
5.9768865177
 10
8.4331362316
 20
5.9485731457
 10
8.434268975
 20
5.9112959619
 10
8.4354017184
 20
5.8662320294
 10
8.4365344617
 20
5.8148042857
 10
8.4376672051
 20
5.7586366118
 10
8.4387999484
 20
5.6995025563
 10
8.4399326918
 20
5.6392693347
 10
8.4410654352
 20
5.5798388693
 10
8.4421981785
 20
5.5230877347
 10
8.4433309219
 20
5.4708079031
 10
8.4444636653
 20
5.424650161
 10
8.4455964086
 20
5.3860719839
 10
8.446729152
 20
5.3562915151
 10
8.4478618954
 20
5.3362491019
 10
8.4489946387
 20
5.3265776029
  0
LINE
  5
78C
100
AcDbEntity
  8
0
100
AcDbLine
 62
9
  6
CONTINUOUS
 10
9.1509548157
 20
5.6646923443
 11
9.1509548157
 21
6.4536923443
  0
LINE
  5
78D
100
AcDbEntity
  8
0
100
AcDbLine
 62
7
  6
CONTINUOUS
 10
9.2029548157
 20
4.5426923443
 11
9.2029548157
 21
4.4926923443
  0
LINE
  5
78E
100
AcDbEntity
  8
0
100
AcDbLine
 62
7
  6
CONTINUOUS
 10
9.2079548157
 20
4.5426923443
 11
9.2079548157
 21
4.8726923457
  0
LINE
  5
78F
100
AcDbEntity
  8
0
100
AcDbLine
 62
7
  6
CONTINUOUS
 10
9.2109548157
 20
4.8767048628
 11
9.2109548157
 21
6.3936923443
  0
LINE
  5
790
100
AcDbEntity
  8
0
100
AcDbLine
 62
9
  6
CONTINUOUS
 10
9.2109548157
 20
5.6646923443
 11
9.1509548157
 21
5.6646923443
  0
LWPOLYLINE
  5
791
100
AcDbEntity
  8
0
100
AcDbPolyline
 62
7
  6
CONTINUOUS
 90
9
 70
0
 10
8.0694548157
 20
6.0036923443
 10
8.0695798157
 20
6.0036269989
 10
8.0707048157
 20
5.9971785544
 10
8.0718298157
 20
5.9803742072
 10
8.0729548157
 20
5.9537373601
 10
8.0740798157
 20
5.9180976672
 10
8.0752048157
 20
5.8745651932
 10
8.0763298157
 20
5.8244958381
 10
8.0774548157
 20
5.7694491054
  0
LINE
  5
792
100
AcDbEntity
  8
0
100
AcDbLine
 62
7
  6
CONTINUOUS
 10
8.0859550912
 20
6.018692344
 11
8.0860888921
 21
6.0186138386
  0
LWPOLYLINE
  5
793
100
AcDbEntity
  8
0
100
AcDbPolyline
 62
7
  6
CONTINUOUS
 90
16
 70
0
 10
8.1894548157
 20
6.0036923443
 10
8.1895964086
 20
6.0036084998
 10
8.190729152
 20
5.9969233068
 10
8.1918618954
 20
5.9797475985
 10
8.1929946387
 20
5.9526237148
 10
8.1941273821
 20
5.9164081185
 10
8.1952601254
 20
5.8722443522
 10
8.1963928688
 20
5.8215269299
 10
8.1975256122
 20
5.7658573032
 10
8.1986583555
 20
5.7069932947
 10
8.1997910989
 20
5.6467935927
 10
8.2009238423
 20
5.5871590612
 10
8.2020565856
 20
5.5299727183
 10
8.203189329
 20
5.4770402784
 10
8.2043220723
 20
5.4300331346
 10
8.2054548157
 20
5.3904355833
  0
LINE
  5
794
100
AcDbEntity
  8
0
100
AcDbLine
 62
7
  6
CONTINUOUS
 10
8.3445634897
 20
6.0036429531
 11
8.3280588857
 21
6.0186450451
  0
LINE
  5
795
100
AcDbEntity
  8
0
100
AcDbLine
 62
7
  6
CONTINUOUS
 10
8.3845634897
 20
6.0036429531
 11
8.3680588857
 21
6.0186450451
  0
LINE
  5
796
100
AcDbEntity
  8
0
100
AcDbLine
 62
7
  6
CONTINUOUS
 10
8.4245634897
 20
6.0036429531
 11
8.4080588857
 21
6.0186450451
  0
LINE
  5
797
100
AcDbEntity
  8
0
100
AcDbLine
 62
7
  6
CONTINUOUS
 10
8.4645634897
 20
6.0036429531
 11
8.4480588857
 21
6.0186450451
  0
LINE
  5
798
100
AcDbEntity
  8
0
100
AcDbLine
 62
7
  6
CONTINUOUS
 10
8.0479548168
 20
6.0186923443
 11
8.0480588857
 21
6.0186450451
  0
LINE
  5
799
100
AcDbEntity
  8
0
100
AcDbLine
 62
7
  6
CONTINUOUS
 10
8.1280588857
 20
6.0186450451
 11
8.1279548157
 21
6.0186923443
  0
LINE
  5
79A
100
AcDbEntity
  8
0
100
AcDbLine
 62
7
  6
CONTINUOUS
 10
8.1680588857
 20
6.0186450451
 11
8.1679548157
 21
6.0186923443
  0
LINE
  5
79B
100
AcDbEntity
  8
0
100
AcDbLine
 62
7
  6
CONTINUOUS
 10
8.2080588857
 20
6.0186450451
 11
8.2079548157
 21
6.0186923443
  0
LINE
  5
79C
100
AcDbEntity
  8
0
100
AcDbLine
 62
7
  6
CONTINUOUS
 10
8.2480588857
 20
6.0186450451
 11
8.2479548157
 21
6.0186923443
  0
LINE
  5
79D
100
AcDbEntity
  8
0
100
AcDbLine
 62
7
  6
CONTINUOUS
 10
8.0880588857
 20
6.0186450451
 11
8.0879548272
 21
6.0186923443
  0
LWPOLYLINE
  5
79E
100
AcDbEntity
  8
0
100
AcDbPolyline
 62
7
  6
CONTINUOUS
 90
19
 70
0
 10
8.5094548157
 20
6.0036923443
 10
8.5096600789
 20
6.0035161492
 10
8.5107811315
 20
5.9963618728
 10
8.5119021841
 20
5.978949311
 10
8.5130232368
 20
5.951817021
 10
8.5141442894
 20
5.9158041838
 10
8.515265342
 20
5.8720246491
 10
8.5163863947
 20
5.8218324843
 10
8.5175074473
 20
5.766780095
 10
8.5186284999
 20
5.7085702094
 10
8.5197495525
 20
5.649003215
 10
8.5208706052
 20
5.5899214733
 10
8.5219916578
 20
5.5331523376
 10
8.5231127104
 20
5.480451634
 10
8.5242337631
 20
5.433449355
 10
8.5253548157
 20
5.3935992451
 10
8.5264758683
 20
5.362133838
 10
8.527596921
 20
5.3400263345
 10
8.5287179736
 20
5.3279605031
  0
LINE
  5
79F
100
AcDbEntity
  8
0
100
AcDbLine
 62
7
  6
CONTINUOUS
 10
8.5045634897
 20
6.0036429531
 11
8.4880588857
 21
6.0186450451
  0
LINE
  5
7A0
100
AcDbEntity
  8
0
100
AcDbLine
 62
7
  6
CONTINUOUS
 10
8.5445634897
 20
6.0036429531
 11
8.5280588857
 21
6.0186450451
  0
LINE
  5
7A1
100
AcDbEntity
  8
0
100
AcDbLine
 62
7
  6
CONTINUOUS
 10
9.2029548157
 20
4.4926923443
 11
9.1740873022
 21
4.4426923443
  0
LINE
  5
7A2
100
AcDbEntity
  8
0
100
AcDbLine
 62
7
  6
CONTINUOUS
 10
8.0279548157
 20
5.8146923443
 11
7.9879548157
 21
5.8146923443
  0
LINE
  5
7A3
100
AcDbEntity
  8
0
100
AcDbLine
 62
7
  6
CONTINUOUS
 10
8.4480588857
 20
6.0186450451
 11
8.4479545276
 21
6.018692344
  0
LINE
  5
7A4
100
AcDbEntity
  8
0
100
AcDbLine
 62
7
  6
CONTINUOUS
 10
8.4880588857
 20
6.0186450451
 11
8.4879547238
 21
6.0186923443
  0
LINE
  5
7A5
100
AcDbEntity
  8
0
100
AcDbLine
 62
7
  6
CONTINUOUS
 10
8.2880588857
 20
6.0186450451
 11
8.2879548157
 21
6.0186923443
  0
LINE
  5
7A6
100
AcDbEntity
  8
0
100
AcDbLine
 62
7
  6
CONTINUOUS
 10
8.3280588857
 20
6.0186450451
 11
8.3279548157
 21
6.0186923443
  0
LINE
  5
7A7
100
AcDbEntity
  8
0
100
AcDbLine
 62
7
  6
CONTINUOUS
 10
8.3680588857
 20
6.0186450451
 11
8.3679548157
 21
6.0186923443
  0
LINE
  5
7A8
100
AcDbEntity
  8
0
100
AcDbLine
 62
7
  6
CONTINUOUS
 10
8.4080588857
 20
6.0186450451
 11
8.4079548009
 21
6.0186923443
  0
LINE
  5
7A9
100
AcDbEntity
  8
0
100
AcDbLine
 62
7
  6
CONTINUOUS
 10
8.5280588857
 20
6.0186450451
 11
8.5279547776
 21
6.0186923443
  0
LINE
  5
7AA
100
AcDbEntity
  8
0
100
AcDbLine
 62
7
  6
CONTINUOUS
 10
8.6054548157
 20
6.0034423443
 11
8.5679548157
 21
6.0034423443
  0
LINE
  5
7AB
100
AcDbEntity
  8
0
100
AcDbLine
 62
7
  6
CONTINUOUS
 10
8.5494548157
 20
6.0036923443
 11
8.5444548157
 21
6.0036923443
  0
LINE
  5
7AC
100
AcDbEntity
  8
0
100
AcDbLine
 62
7
  6
CONTINUOUS
 10
8.5094548157
 20
6.0036923443
 11
8.5044548157
 21
6.0036923443
  0
LINE
  5
7AD
100
AcDbEntity
  8
0
100
AcDbLine
 62
7
  6
CONTINUOUS
 10
8.4694548157
 20
6.0036923443
 11
8.4644548157
 21
6.0036923443
  0
LINE
  5
7AE
100
AcDbEntity
  8
0
100
AcDbLine
 62
7
  6
CONTINUOUS
 10
8.4294548157
 20
6.0036923443
 11
8.4244548157
 21
6.0036923443
  0
LINE
  5
7AF
100
AcDbEntity
  8
0
100
AcDbLine
 62
7
  6
CONTINUOUS
 10
8.3894548157
 20
6.0036923443
 11
8.3844548157
 21
6.0036923443
  0
LINE
  5
7B0
100
AcDbEntity
  8
0
100
AcDbLine
 62
7
  6
CONTINUOUS
 10
8.3494548157
 20
6.0036923443
 11
8.3444548157
 21
6.0036923443
  0
LINE
  5
7B1
100
AcDbEntity
  8
0
100
AcDbLine
 62
7
  6
CONTINUOUS
 10
8.3094548157
 20
6.0036923443
 11
8.3044548157
 21
6.0036923443
  0
LINE
  5
7B2
100
AcDbEntity
  8
0
100
AcDbLine
 62
7
  6
CONTINUOUS
 10
8.2694548157
 20
6.0036923443
 11
8.2644548157
 21
6.0036923443
  0
LINE
  5
7B3
100
AcDbEntity
  8
0
100
AcDbLine
 62
7
  6
CONTINUOUS
 10
8.2294548157
 20
6.0036923443
 11
8.2244548157
 21
6.0036923443
  0
LINE
  5
7B4
100
AcDbEntity
  8
0
100
AcDbLine
 62
7
  6
CONTINUOUS
 10
8.1894548157
 20
6.0036923443
 11
8.1844548157
 21
6.0036923443
  0
LINE
  5
7B5
100
AcDbEntity
  8
0
100
AcDbLine
 62
7
  6
CONTINUOUS
 10
8.1494548157
 20
6.0036923443
 11
8.1444548157
 21
6.0036923443
  0
LINE
  5
7B6
100
AcDbEntity
  8
0
100
AcDbLine
 62
7
  6
CONTINUOUS
 10
8.1094548157
 20
6.0036923443
 11
8.1044548157
 21
6.0036923443
  0
LINE
  5
7B7
100
AcDbEntity
  8
0
100
AcDbLine
 62
7
  6
CONTINUOUS
 10
8.0694548157
 20
6.0036923443
 11
8.0644548157
 21
6.0036923443
  0
LINE
  5
7B8
100
AcDbEntity
  8
0
100
AcDbLine
 62
7
  6
CONTINUOUS
 10
8.0294548157
 20
6.0036923443
 11
8.0279548157
 21
6.0036923443
  0
LINE
  5
7B9
100
AcDbEntity
  8
0
100
AcDbLine
 62
7
  6
CONTINUOUS
 10
8.5679548157
 20
6.0186923443
 11
8.5659548157
 21
6.0186923443
  0
LINE
  5
7BA
100
AcDbEntity
  8
0
100
AcDbLine
 62
7
  6
CONTINUOUS
 10
8.5279548157
 20
6.0186923443
 11
8.5259548157
 21
6.0186923443
  0
LINE
  5
7BB
100
AcDbEntity
  8
0
100
AcDbLine
 62
7
  6
CONTINUOUS
 10
8.4879548157
 20
6.0186923443
 11
8.4859548157
 21
6.0186923443
  0
LINE
  5
7BC
100
AcDbEntity
  8
0
100
AcDbLine
 62
7
  6
CONTINUOUS
 10
8.4479548157
 20
6.0186923443
 11
8.4459548157
 21
6.0186923443
  0
LINE
  5
7BD
100
AcDbEntity
  8
0
100
AcDbLine
 62
7
  6
CONTINUOUS
 10
8.4079548157
 20
6.0186923443
 11
8.4059548157
 21
6.0186923443
  0
LINE
  5
7BE
100
AcDbEntity
  8
0
100
AcDbLine
 62
7
  6
CONTINUOUS
 10
8.3679548157
 20
6.0186923443
 11
8.3659548157
 21
6.0186923443
  0
LINE
  5
7BF
100
AcDbEntity
  8
0
100
AcDbLine
 62
7
  6
CONTINUOUS
 10
8.3279548157
 20
6.0186923443
 11
8.3259548157
 21
6.0186923443
  0
LINE
  5
7C0
100
AcDbEntity
  8
0
100
AcDbLine
 62
7
  6
CONTINUOUS
 10
8.2879548157
 20
6.0186923443
 11
8.2859548157
 21
6.0186923443
  0
LINE
  5
7C1
100
AcDbEntity
  8
0
100
AcDbLine
 62
7
  6
CONTINUOUS
 10
8.2479548157
 20
6.0186923443
 11
8.2459548157
 21
6.0186923443
  0
LINE
  5
7C2
100
AcDbEntity
  8
0
100
AcDbLine
 62
7
  6
CONTINUOUS
 10
8.2079548157
 20
6.0186923443
 11
8.2059548157
 21
6.0186923443
  0
LINE
  5
7C3
100
AcDbEntity
  8
0
100
AcDbLine
 62
7
  6
CONTINUOUS
 10
8.1679548157
 20
6.0186923443
 11
8.1659548157
 21
6.0186923443
  0
LINE
  5
7C4
100
AcDbEntity
  8
0
100
AcDbLine
 62
7
  6
CONTINUOUS
 10
8.1279548157
 20
6.0186923443
 11
8.1259548157
 21
6.0186923443
  0
LINE
  5
7C5
100
AcDbEntity
  8
0
100
AcDbLine
 62
7
  6
CONTINUOUS
 10
8.0879548157
 20
6.0186923443
 11
8.0859548157
 21
6.0186923443
  0
LINE
  5
7C6
100
AcDbEntity
  8
0
100
AcDbLine
 62
7
  6
CONTINUOUS
 10
8.0479548157
 20
6.0186923443
 11
8.0459548157
 21
6.0186923443
  0
LINE
  5
7C7
100
AcDbEntity
  8
0
100
AcDbLine
 62
7
  6
CONTINUOUS
 10
9.0579548157
 20
6.4241923443
 11
9.0709548157
 21
6.4241923443
  0
LINE
  5
7C8
100
AcDbEntity
  8
0
100
AcDbLine
 62
7
  6
CONTINUOUS
 10
9.0579548157
 20
6.4521923443
 11
8.6779548157
 21
6.4521923443
  0
LINE
  5
7C9
100
AcDbEntity
  8
0
100
AcDbLine
 62
7
  6
CONTINUOUS
 10
9.1509548157
 20
6.4536923443
 11
9.0709548157
 21
6.4536923443
  0
LINE
  5
7CA
100
AcDbEntity
  8
AXIS
100
AcDbLine
 62
7
  6
CONTINUOUS
 10
12.525946474
 20
3.6896923443
 11
12.292946474
 21
3.6896923443
  0
LINE
  5
7CB
100
AcDbEntity
  8
0
100
AcDbLine
 62
7
  6
CONTINUOUS
 10
12.1483139874
 20
4.4426923443
 11
12.6705789605
 21
4.4426923443
  0
LINE
  5
7CC
100
AcDbEntity
  8
0
100
AcDbLine
 62
7
  6
CONTINUOUS
 10
12.119446474
 20
4.4926923443
 11
12.699446474
 21
4.4926923443
  0
LINE
  5
7CD
100
AcDbEntity
  8
0
100
AcDbLine
 62
7
  6
CONTINUOUS
 10
12.114446474
 20
4.5426923443
 11
12.704446474
 21
4.5426923443
  0
LINE
  5
7CE
100
AcDbEntity
  8
0
100
AcDbLine
 62
7
  6
CONTINUOUS
 10
12.1483139874
 20
4.4426923443
 11
12.119446474
 21
4.4926923443
  0
LINE
  5
7CF
100
AcDbEntity
  8
0
100
AcDbLine
 62
7
  6
CONTINUOUS
 10
12.114446474
 20
4.5426923443
 11
12.114446474
 21
4.8951267201
  0
LINE
  5
7D0
100
AcDbEntity
  8
0
100
AcDbLine
 62
7
  6
CONTINUOUS
 10
12.119446474
 20
4.5426923443
 11
12.119446474
 21
4.4926923443
  0
LINE
  5
7D1
100
AcDbEntity
  8
0
100
AcDbLine
 62
7
  6
CONTINUOUS
 10
12.1525418224
 20
4.9155167975
 11
12.1525418224
 21
4.9202756264
  0
LINE
  5
7D2
100
AcDbEntity
  8
AXIS
100
AcDbLine
 62
7
  6
CONTINUOUS
 10
12.292946474
 20
4.4426923443
 11
12.292946474
 21
3.6896923443
  0
LINE
  5
7D3
100
AcDbEntity
  8
AXIS_COSMETIC_THREADS
100
AcDbLine
 62
7
  6
CONTINUOUS
 10
12.292946474
 20
4.4426923443
 11
12.292946474
 21
3.6896923443
  0
LINE
  5
7D4
100
AcDbEntity
  8
0
100
AcDbLine
 62
7
  6
CONTINUOUS
 10
12.317446474
 20
5.8196923443
 11
12.317446474
 21
5.6946923443
  0
LINE
  5
7D5
100
AcDbEntity
  8
DATUM_CURVES
100
AcDbLine
 62
40
  6
CONTINUOUS
 10
12.409446474
 20
5.7646923443
 11
12.409446474
 21
5.7666923443
  0
LWPOLYLINE
  5
7D6
100
AcDbEntity
  8
0
100
AcDbPolyline
 62
9
  6
CONTINUOUS
 90
7
 70
0
 10
12.1523387675
 20
4.9201047131
 10
12.1430856746
 20
4.9123162909
 10
12.1338867495
 20
4.9057060371
 10
12.1258125004
 20
4.9007704237
 10
12.1195952924
 20
4.8974981045
 10
12.1157348956
 20
4.8956916172
 10
12.114446474
 20
4.8951267201
  0
LWPOLYLINE
  5
7D7
100
AcDbEntity
  8
0
100
AcDbPolyline
 62
9
  6
CONTINUOUS
 90
7
 70
0
 10
12.704446474
 20
4.8951267201
 10
12.7031579989
 20
4.8956916387
 10
12.6992974815
 20
4.8974981787
 10
12.6930801573
 20
4.9007705532
 10
12.6850058711
 20
4.9057061824
 10
12.6758070404
 20
4.912316386
 10
12.6686956497
 20
4.9183021916
  0
LINE
  5
7D8
100
AcDbEntity
  8
0
100
AcDbLine
 62
7
  6
CONTINUOUS
 10
12.502446474
 20
5.6946923443
 11
12.502446474
 21
5.8196923443
  0
LINE
  5
7D9
100
AcDbEntity
  8
AXIS
100
AcDbLine
 62
7
  6
CONTINUOUS
 10
12.525946474
 20
4.4426923443
 11
12.525946474
 21
3.6896923443
  0
LINE
  5
7DA
100
AcDbEntity
  8
AXIS_COSMETIC_THREADS
100
AcDbLine
 62
7
  6
CONTINUOUS
 10
12.525946474
 20
4.4426923443
 11
12.525946474
 21
3.6896923443
  0
LINE
  5
7DB
100
AcDbEntity
  8
0
100
AcDbLine
 62
7
  6
CONTINUOUS
 10
12.6663511255
 20
4.9155167975
 11
12.6663511255
 21
4.9202756264
  0
LINE
  5
7DC
100
AcDbEntity
  8
0
100
AcDbLine
 62
7
  6
CONTINUOUS
 10
12.699446474
 20
4.5426923443
 11
12.699446474
 21
4.4926923443
  0
LINE
  5
7DD
100
AcDbEntity
  8
0
100
AcDbLine
 62
7
  6
CONTINUOUS
 10
12.704446474
 20
4.5426923443
 11
12.704446474
 21
4.8951267201
  0
LINE
  5
7DE
100
AcDbEntity
  8
0
100
AcDbLine
 62
7
  6
CONTINUOUS
 10
12.699446474
 20
4.4926923443
 11
12.6705789605
 21
4.4426923443
  0
LINE
  5
7DF
100
AcDbEntity
  8
0
100
AcDbLine
 62
9
  6
CONTINUOUS
 10
11.680446474
 20
5.6646923443
 11
11.620446474
 21
5.6646923443
  0
LINE
  5
7E0
100
AcDbEntity
  8
0
100
AcDbLine
 62
7
  6
CONTINUOUS
 10
12.347446474
 20
5.6646923443
 11
12.472446474
 21
5.6646923443
  0
LINE
  5
7E1
100
AcDbEntity
  8
0
100
AcDbLine
 62
9
  6
CONTINUOUS
 10
13.138446474
 20
5.6646923443
 11
13.198446474
 21
5.6646923443
  0
LWPOLYLINE
  5
7E2
100
AcDbEntity
  8
0
100
AcDbPolyline
 62
9
  6
CONTINUOUS
 90
26
 70
0
 10
13.138446474
 20
5.6646923443
 10
13.1317281004
 20
5.568493819
 10
13.1121530854
 20
5.4744273922
 10
13.0804590812
 20
5.3833800288
 10
13.0373249462
 20
5.2962852194
 10
12.9835281559
 20
5.2141562887
 10
12.9200699468
 20
5.1380209857
 10
12.8482329535
 20
5.0687955799
 10
12.7701211657
 20
5.0075428858
 10
12.6885840447
 20
4.9558533019
 10
12.6060039831
 20
4.9164301479
 10
12.5254834746
 20
4.890791596
 10
12.4477615145
 20
4.8782700554
 10
12.3711314334
 20
4.8782700554
 10
12.2934094733
 20
4.890791596
 10
12.2128889648
 20
4.9164301479
 10
12.1303089032
 20
4.9558533019
 10
12.0487717822
 20
5.0075428858
 10
11.9706599944
 20
5.0687955799
 10
11.8988230011
 20
5.1380209857
 10
11.835364792
 20
5.2141562887
 10
11.7815680017
 20
5.2962852194
 10
11.7384338667
 20
5.3833800288
 10
11.7067398625
 20
5.4744273922
 10
11.6871648475
 20
5.568493819
 10
11.680446474
 20
5.6646923443
  0
LINE
  5
7E3
100
AcDbEntity
  8
0
100
AcDbLine
 62
7
  6
CONTINUOUS
 10
12.472446474
 20
5.8496923443
 11
12.347446474
 21
5.8496923443
  0
LINE
  5
7E4
100
AcDbEntity
  8
0
100
AcDbLine
 62
7
  6
CONTINUOUS
 10
3.7104242376
 20
9.0124144726
 11
3.7104242376
 21
8.9324144726
  0
LINE
  5
7E5
100
AcDbEntity
  8
0
100
AcDbLine
 62
7
  6
CONTINUOUS
 10
3.7119242376
 20
8.9194144726
 11
3.7119242376
 21
8.5394144726
  0
LINE
  5
7E6
100
AcDbEntity
  8
0
100
AcDbLine
 62
7
  6
CONTINUOUS
 10
3.7399242376
 20
8.9194144726
 11
3.7399242376
 21
8.9324144726
  0
LWPOLYLINE
  5
7E7
100
AcDbEntity
  8
0
100
AcDbPolyline
 62
7
  6
CONTINUOUS
 90
18
 70
0
 10
4.8533769383
 20
7.9173104026
 10
4.8479596085
 20
7.9162944312
 10
4.8317343094
 20
7.9151743832
 10
4.8052497561
 20
7.9140543523
 10
4.7693231769
 20
7.9129343139
 10
4.7250615158
 20
7.9118142202
 10
4.6738318551
 20
7.9106941035
 10
4.6172187483
 20
7.9095740224
 10
4.5569712732
 20
7.9084539893
 10
4.4949463638
 20
7.9073339422
 10
4.4330582888
 20
7.9062138691
 10
4.3732203767
 20
7.9050938171
 10
4.3172776069
 20
7.9039737379
 10
4.2669575786
 20
7.9028536309
 10
4.2238162934
 20
7.9017335474
 10
4.1891854893
 20
7.9006134951
 10
4.1641322002
 20
7.8994933944
 10
4.1494315804
 20
7.898373282
  0
LINE
  5
7E8
100
AcDbEntity
  8
0
100
AcDbLine
 62
7
  6
CONTINUOUS
 10
4.8194214106
 20
7.8494144726
 11
4.7144242376
 21
7.8494144726
  0
LINE
  5
7E9
100
AcDbEntity
  8
0
100
AcDbLine
 62
7
  6
CONTINUOUS
 10
4.1794270646
 20
7.8494144726
 11
4.2844242376
 21
7.8494144726
  0
LINE
  5
7EA
100
AcDbEntity
  8
0
100
AcDbLine
 62
7
  6
CONTINUOUS
 10
4.1454715369
 20
7.8973104026
 11
4.1526486761
 21
7.8894144726
  0
LINE
  5
7EB
100
AcDbEntity
  8
0
100
AcDbLine
 62
7
  6
CONTINUOUS
 10
4.1454715369
 20
7.9373104026
 11
4.1604736289
 21
7.9208057986
  0
LINE
  5
7EC
100
AcDbEntity
  8
0
100
AcDbLine
 62
7
  6
CONTINUOUS
 10
4.8534242376
 20
7.9994144726
 11
4.8481548717
 21
7.9983146748
  0
LINE
  5
7ED
100
AcDbEntity
  8
0
100
AcDbLine
 62
7
  6
CONTINUOUS
 10
4.8534242376
 20
7.9594144726
 11
4.8481374229
 21
7.9583128508
  0
LINE
  5
7EE
100
AcDbEntity
  8
0
100
AcDbLine
 62
7
  6
CONTINUOUS
 10
4.8322058396
 20
7.9796932337
 11
4.8383748463
 21
7.9808057986
  0
LWPOLYLINE
  5
7EF
100
AcDbEntity
  8
0
100
AcDbPolyline
 62
7
  6
CONTINUOUS
 90
3
 70
0
 10
4.8514845115
 20
7.9187477239
 10
4.8456894923
 20
7.9180812261
 10
4.8360982444
 20
7.9174144726
  0
LWPOLYLINE
  5
7F0
100
AcDbEntity
  8
0
100
AcDbPolyline
 62
7
  6
CONTINUOUS
 90
3
 70
0
 10
4.8218323966
 20
7.9339144726
 10
4.8352834905
 20
7.935047216
 10
4.8384242376
 20
7.9359144726
  0
LWPOLYLINE
  5
7F1
100
AcDbEntity
  8
0
100
AcDbPolyline
 62
7
  6
CONTINUOUS
 90
3
 70
0
 10
4.8218323966
 20
7.9389144726
 10
4.8352834905
 20
7.940047216
 10
4.8383748463
 20
7.9408057986
  0
LWPOLYLINE
  5
7F2
100
AcDbEntity
  8
0
100
AcDbPolyline
 62
7
  6
CONTINUOUS
 90
9
 70
0
 10
4.8481374229
 20
7.9583128508
 10
4.8324381632
 20
7.9572114025
 10
4.8066438268
 20
7.9561044697
 10
4.771715117
 20
7.9550012064
 10
4.7279867178
 20
7.9538827984
 10
4.676896387
 20
7.9527576148
 10
4.6208177613
 20
7.9516427892
 10
4.5617459163
 20
7.9505411131
 10
4.4380228426
 20
7.9483046409
  0
LWPOLYLINE
  5
7F3
100
AcDbEntity
  8
0
100
AcDbPolyline
 62
7
  6
CONTINUOUS
 90
4
 70
0
 10
4.8360982444
 20
7.9554144726
 10
4.8456894923
 20
7.9560812261
 10
4.8514845115
 20
7.9567477239
 10
4.8533769383
 20
7.9573104026
  0
LWPOLYLINE
  5
7F4
100
AcDbEntity
  8
0
100
AcDbPolyline
 62
7
  6
CONTINUOUS
 90
7
 70
0
 10
4.6765512511
 20
7.8894144726
 10
4.7241078201
 20
7.8905269726
 10
4.7648204578
 20
7.8916394726
 10
4.7974490446
 20
7.8927519726
 10
4.8209997036
 20
7.8938644726
 10
4.8347550745
 20
7.8949769726
 10
4.8384242376
 20
7.8959144726
  0
LWPOLYLINE
  5
7F5
100
AcDbEntity
  8
0
100
AcDbPolyline
 62
7
  6
CONTINUOUS
 90
12
 70
0
 10
4.4202862593
 20
7.8894144726
 10
4.4794670352
 20
7.8905394726
 10
4.5392694154
 20
7.8916644726
 10
4.5978307432
 20
7.8927894726
 10
4.653327017
 20
7.8939144726
 10
4.7040297019
 20
7.8950394726
 10
4.7483595683
 20
7.8961644726
 10
4.7849358798
 20
7.8972894726
 10
4.8126193991
 20
7.8984144726
 10
4.8305478714
 20
7.8995394726
 10
4.8381628809
 20
7.9006644726
 10
4.8383748463
 20
7.9008057986
  0
LINE
  5
7F6
100
AcDbEntity
  8
0
100
AcDbLine
 62
9
  6
CONTINUOUS
 10
4.7592318587
 20
7.8794144726
 11
4.7144242376
 21
7.8794144726
  0
LINE
  5
7F7
100
AcDbEntity
  8
0
100
AcDbLine
 62
9
  6
CONTINUOUS
 10
4.2844242376
 20
7.8794144726
 11
4.2396166165
 21
7.8794144726
  0
LINE
  5
7F8
100
AcDbEntity
  8
0
100
AcDbLine
 62
7
  6
CONTINUOUS
 10
4.8443781339
 20
7.8894144726
 11
4.1526503854
 21
7.8894144726
  0
LINE
  5
7F9
100
AcDbEntity
  8
0
100
AcDbLine
 62
7
  6
CONTINUOUS
 10
4.1454715369
 20
7.9773104026
 11
4.1604736289
 21
7.9608057986
  0
LINE
  5
7FA
100
AcDbEntity
  8
0
100
AcDbLine
 62
7
  6
CONTINUOUS
 10
4.1454715369
 20
8.0173104026
 11
4.1604736289
 21
8.0008057986
  0
LINE
  5
7FB
100
AcDbEntity
  8
0
100
AcDbLine
 62
7
  6
CONTINUOUS
 10
4.1454715369
 20
8.0573104026
 11
4.1604736289
 21
8.0408057986
  0
LINE
  5
7FC
100
AcDbEntity
  8
0
100
AcDbLine
 62
7
  6
CONTINUOUS
 10
4.1454242376
 20
7.8974144583
 11
4.1454715369
 21
7.8973104026
  0
LINE
  5
7FD
100
AcDbEntity
  8
0
100
AcDbLine
 62
7
  6
CONTINUOUS
 10
4.8357746941
 20
8.0601180125
 11
4.8383748463
 21
8.0608057986
  0
LINE
  5
7FE
100
AcDbEntity
  8
0
100
AcDbLine
 62
7
  6
CONTINUOUS
 10
4.1494315804
 20
7.898373282
 11
4.1454242376
 21
7.8974144583
  0
LWPOLYLINE
  5
7FF
100
AcDbEntity
  8
0
100
AcDbPolyline
 62
7
  6
CONTINUOUS
 90
17
 70
0
 10
4.1604242376
 20
7.9209144726
 10
4.165703631
 20
7.9220394726
 10
4.1813773747
 20
7.9231644726
 10
4.2069572808
 20
7.9242894726
 10
4.2416466153
 20
7.9254144726
 10
4.2843649143
 20
7.9265394726
 10
4.3337816367
 20
7.9276644726
 10
4.3883576067
 20
7.9287894726
 10
4.446392954
 20
7.9299144726
 10
4.5060800594
 20
7.9310394726
 10
4.5655598568
 20
7.9321644726
 10
4.6229797371
 20
7.9332894726
 10
4.6765512511
 20
7.9344144726
 10
4.7246058141
 20
7.9355394726
 10
4.7656466772
 20
7.9366644726
 10
4.7983955462
 20
7.9377894726
 10
4.8218323966
 20
7.9389144726
  0
LINE
  5
800
100
AcDbEntity
  8
0
100
AcDbLine
 62
7
  6
CONTINUOUS
 10
4.8534242376
 20
8.0394144726
 11
4.8481423663
 21
8.0383133673
  0
LWPOLYLINE
  5
801
100
AcDbEntity
  8
0
100
AcDbPolyline
 62
7
  6
CONTINUOUS
 90
17
 70
0
 10
4.1454715369
 20
7.8995185426
 10
4.1516766754
 20
7.9006127559
 10
4.1686409433
 20
7.9017329156
 10
4.1958193729
 20
7.9028530591
 10
4.2323705343
 20
7.9039731382
 10
4.2771678173
 20
7.9050932325
 10
4.3288294394
 20
7.9062133644
 10
4.3857574343
 20
7.9073334707
 10
4.4461945872
 20
7.9084535669
 10
4.5082773641
 20
7.9095737004
 10
4.5700852931
 20
7.9106938068
 10
4.6297095916
 20
7.9118138781
 10
4.6853143207
 20
7.9129340133
 10
4.7351803473
 20
7.9140541811
 10
4.7777647704
 20
7.9151743104
 10
4.811753206
 20
7.9162943914
 10
4.8360982444
 20
7.9174144726
  0
LWPOLYLINE
  5
802
100
AcDbEntity
  8
0
100
AcDbPolyline
 62
7
  6
CONTINUOUS
 90
17
 70
0
 10
4.1604736289
 20
7.9160231466
 10
4.1676033249
 20
7.9172269726
 10
4.1847225037
 20
7.9183394726
 10
4.2114275947
 20
7.9194519726
 10
4.2469051524
 20
7.9205644726
 10
4.2900745196
 20
7.9216769726
 10
4.3396207438
 20
7.9227894726
 10
4.3940346319
 20
7.9239019726
 10
4.45165872
 20
7.9250144726
 10
4.5107377605
 20
7.9261269726
 10
4.5694721876
 20
7.9272394726
 10
4.6260729325
 20
7.9283519726
 10
4.6788159189
 20
7.9294644726
 10
4.7260945794
 20
7.9305769726
 10
4.7664687911
 20
7.9316894726
 10
4.7987087431
 20
7.9328019726
 10
4.8218323966
 20
7.9339144726
  0
LWPOLYLINE
  5
803
100
AcDbEntity
  8
0
100
AcDbPolyline
 62
7
  6
CONTINUOUS
 90
18
 70
0
 10
4.162216217
 20
7.9565693399
 10
4.1737012347
 20
7.9577020833
 10
4.1954712724
 20
7.9588348266
 10
4.2268389201
 20
7.95996757
 10
4.2668137137
 20
7.9611003133
 10
4.3141334105
 20
7.9622330567
 10
4.3673038451
 20
7.9633658001
 10
4.4246461092
 20
7.9644985434
 10
4.4843495654
 20
7.9656312868
 10
4.544529019
 20
7.9667640302
 10
4.6032842454
 20
7.9678967735
 10
4.6587599911
 20
7.9690295169
 10
4.7092045558
 20
7.9701622602
 10
4.7530251032
 20
7.9712950036
 10
4.7888379572
 20
7.972427747
 10
4.815512292
 20
7.9735604903
 10
4.8322058396
 20
7.9746932337
 10
4.8384242376
 20
7.9759144726
  0
LWPOLYLINE
  5
804
100
AcDbEntity
  8
0
100
AcDbPolyline
 62
7
  6
CONTINUOUS
 90
9
 70
0
 10
4.8481548717
 20
7.9983146748
 10
4.8324027837
 20
7.9972095275
 10
4.8064931803
 20
7.9960990207
 10
4.7715172379
 20
7.9949956406
 10
4.727804573
 20
7.9938785101
 10
4.6768008972
 20
7.9927556303
 10
4.6208801117
 20
7.9916439829
 10
4.5615633634
 20
7.9905377782
 10
4.4373477764
 20
7.9882923118
  0
LWPOLYLINE
  5
805
100
AcDbEntity
  8
0
100
AcDbPolyline
 62
7
  6
CONTINUOUS
 90
8
 70
0
 10
4.1508078561
 20
7.9785261597
 10
4.1670452935
 20
7.9796509656
 10
4.1935081885
 20
7.980771359
 10
4.2287936086
 20
7.9818742576
 10
4.2721366942
 20
7.9829761124
 10
4.3227957366
 20
7.984088851
 10
4.378671099
 20
7.9851984115
 10
4.4380228426
 20
7.9863046409
  0
LWPOLYLINE
  5
806
100
AcDbEntity
  8
0
100
AcDbPolyline
 62
7
  6
CONTINUOUS
 90
16
 70
0
 10
4.1509368615
 20
7.9385394347
 10
4.1675583726
 20
7.9396776263
 10
4.1946201568
 20
7.9408108885
 10
4.2306615643
 20
7.941926119
 10
4.2751126673
 20
7.9430456039
 10
4.3269900768
 20
7.9441755513
 10
4.3839106051
 20
7.945298368
 10
4.4442626012
 20
7.9464184083
 10
4.506879162
 20
7.947548549
 10
4.5688613705
 20
7.9486713523
 10
4.6281943784
 20
7.9497845987
 10
4.6844173283
 20
7.9509150758
 10
4.7351590426
 20
7.9520536675
 10
4.7780382403
 20
7.9531822762
 10
4.8118561703
 20
7.9542983274
 10
4.8360982444
 20
7.9554144726
  0
LWPOLYLINE
  5
807
100
AcDbEntity
  8
0
100
AcDbPolyline
 62
7
  6
CONTINUOUS
 90
9
 70
0
 10
4.4380228426
 20
7.9483046409
 10
4.378671099
 20
7.9471984115
 10
4.3227957366
 20
7.946088851
 10
4.2721366942
 20
7.9449761124
 10
4.2287936086
 20
7.9438742576
 10
4.1935081885
 20
7.942771359
 10
4.1670452935
 20
7.9416509656
 10
4.1508078561
 20
7.9405261597
 10
4.1454715369
 20
7.9395185426
  0
LWPOLYLINE
  5
808
100
AcDbEntity
  8
0
100
AcDbPolyline
 62
7
  6
CONTINUOUS
 90
9
 70
0
 10
4.4373477764
 20
7.9882923118
 10
4.3780133551
 20
7.9871858237
 10
4.3223268084
 20
7.9860791159
 10
4.2720077826
 20
7.9849730879
 10
4.228743864
 20
7.9838728697
 10
4.1934725237
 20
7.9827700842
 10
4.1670287354
 20
7.9816501002
 10
4.1508036951
 20
7.9805257289
 10
4.1454715369
 20
7.9795185426
  0
LWPOLYLINE
  5
809
100
AcDbEntity
  8
0
100
AcDbPolyline
 62
7
  6
CONTINUOUS
 90
10
 70
0
 10
4.4380228426
 20
7.9863046409
 10
4.5617459163
 20
7.9885411131
 10
4.6208177613
 20
7.9896427892
 10
4.676896387
 20
7.9907576148
 10
4.7279867178
 20
7.9918827984
 10
4.771715117
 20
7.9930012064
 10
4.8066438268
 20
7.9941044697
 10
4.8324381632
 20
7.9952114025
 10
4.8481374229
 20
7.9963128508
 10
4.8533769383
 20
7.9973104026
  0
LWPOLYLINE
  5
80A
100
AcDbEntity
  8
0
100
AcDbPolyline
 62
7
  6
CONTINUOUS
 90
6
 70
0
 10
4.7531957884
 20
7.8894144726
 10
4.7552230734
 20
7.888867651
 10
4.7569284221
 20
7.8873544115
 10
4.7581972906
 20
7.8851062015
 10
4.7589797095
 20
7.8823347124
 10
4.7592318587
 20
7.8794144726
  0
LINE
  5
80B
100
AcDbEntity
  8
0
100
AcDbLine
 62
7
  6
CONTINUOUS
 10
4.1454715369
 20
8.0973104026
 11
4.1604736289
 21
8.0808057986
  0
LINE
  5
80C
100
AcDbEntity
  8
0
100
AcDbLine
 62
7
  6
CONTINUOUS
 10
4.1454715369
 20
8.1373104026
 11
4.1604736289
 21
8.1208057986
  0
LINE
  5
80D
100
AcDbEntity
  8
0
100
AcDbLine
 62
7
  6
CONTINUOUS
 10
4.8534242376
 20
8.0794144726
 11
4.8481138528
 21
8.0783103917
  0
LINE
  5
80E
100
AcDbEntity
  8
0
100
AcDbLine
 62
7
  6
CONTINUOUS
 10
4.8534242376
 20
8.1194144726
 11
4.8480459669
 21
8.1183033392
  0
LINE
  5
80F
100
AcDbEntity
  8
0
100
AcDbLine
 62
7
  6
CONTINUOUS
 10
4.1454242376
 20
7.9774144726
 11
4.1508078561
 21
7.9785261597
  0
LINE
  5
810
100
AcDbEntity
  8
0
100
AcDbLine
 62
7
  6
CONTINUOUS
 10
4.1454242376
 20
7.9374144726
 11
4.1509368615
 21
7.9385394347
  0
LINE
  5
811
100
AcDbEntity
  8
0
100
AcDbLine
 62
7
  6
CONTINUOUS
 10
4.8329040089
 20
8.0997640302
 11
4.8383748463
 21
8.1008057986
  0
LWPOLYLINE
  5
812
100
AcDbEntity
  8
0
100
AcDbPolyline
 62
7
  6
CONTINUOUS
 90
19
 70
0
 10
4.1608027931
 20
7.9962153576
 10
4.1689836999
 20
7.9973481009
 10
4.1875985875
 20
7.9984808443
 10
4.2160596728
 20
7.9996135877
 10
4.2534682692
 20
8.000746331
 10
4.2986431641
 20
8.0018790744
 10
4.3501579163
 20
8.0030118178
 10
4.4063858976
 20
8.0041445611
 10
4.4655516547
 20
8.0052773045
 10
4.5257869715
 20
8.0064100479
 10
4.5851898595
 20
8.0075427912
 10
4.6418846146
 20
8.0086755346
 10
4.694081045
 20
8.0098082779
 10
4.7401309978
 20
8.0109410213
 10
4.7785804009
 20
8.0120737647
 10
4.8082151772
 20
8.013206508
 10
4.8280995798
 20
8.0143392514
 10
4.8376057394
 20
8.0154719948
 10
4.8384242376
 20
8.0159144726
  0
LWPOLYLINE
  5
813
100
AcDbEntity
  8
0
100
AcDbPolyline
 62
7
  6
CONTINUOUS
 90
8
 70
0
 10
4.8481423663
 20
8.0383133673
 10
4.8322188124
 20
8.0371998021
 10
4.8061001166
 20
8.0360848417
 10
4.7709825172
 20
8.0349806295
 10
4.7272810267
 20
8.0338661975
 10
4.6765214217
 20
8.0327498242
 10
4.6210122965
 20
8.0316465139
 10
4.5616704681
 20
8.0305397347
  0
LWPOLYLINE
  5
814
100
AcDbEntity
  8
0
100
AcDbPolyline
 62
7
  6
CONTINUOUS
 90
8
 70
0
 10
4.8481138528
 20
8.0783103917
 10
4.8320728609
 20
8.0771921156
 10
4.8058237169
 20
8.0760749038
 10
4.7706273172
 20
8.0749706814
 10
4.7269489804
 20
8.073858399
 10
4.6763599641
 20
8.0727464714
 10
4.6209844357
 20
8.0716459804
 10
4.5616415823
 20
8.070539207
  0
LWPOLYLINE
  5
815
100
AcDbEntity
  8
0
100
AcDbPolyline
 62
7
  6
CONTINUOUS
 90
8
 70
0
 10
4.1508036951
 20
8.0185257289
 10
4.1670287354
 20
8.0196501002
 10
4.1934725237
 20
8.0207700842
 10
4.228743864
 20
8.0218728697
 10
4.2720077826
 20
8.0229730879
 10
4.3223268084
 20
8.0240791159
 10
4.3780133551
 20
8.0251858237
 10
4.4373477764
 20
8.0262923118
  0
LWPOLYLINE
  5
816
100
AcDbEntity
  8
0
100
AcDbPolyline
 62
7
  6
CONTINUOUS
 90
10
 70
0
 10
4.4373477764
 20
8.0262923118
 10
4.5615633634
 20
8.0285377782
 10
4.6208801117
 20
8.0296439829
 10
4.6768008972
 20
8.0307556303
 10
4.727804573
 20
8.0318785101
 10
4.7715172379
 20
8.0329956406
 10
4.8064931803
 20
8.0340990207
 10
4.8324027837
 20
8.0352095275
 10
4.8481548717
 20
8.0363146748
 10
4.8533769383
 20
8.0373104026
  0
LWPOLYLINE
  5
817
100
AcDbEntity
  8
0
100
AcDbPolyline
 62
7
  6
CONTINUOUS
 90
10
 70
0
 10
4.5616704681
 20
8.0305397347
 10
4.4373891166
 20
8.0282930669
 10
4.3780246582
 20
8.0271860401
 10
4.3224312843
 20
8.0260812856
 10
4.2722791505
 20
8.0249794532
 10
4.2288426325
 20
8.0238756251
 10
4.1935228395
 20
8.0227718826
 10
4.1670518571
 20
8.0216513086
 10
4.1508095097
 20
8.0205263309
 10
4.1454715369
 20
8.0195185426
  0
LWPOLYLINE
  5
818
100
AcDbEntity
  8
0
100
AcDbPolyline
 62
7
  6
CONTINUOUS
 90
10
 70
0
 10
4.4373891166
 20
8.0662930669
 10
4.5616704681
 20
8.0685397347
 10
4.6210122965
 20
8.0696465139
 10
4.6765214217
 20
8.0707498242
 10
4.7272810267
 20
8.0718661975
 10
4.7709825172
 20
8.0729806295
 10
4.8061001166
 20
8.0740848417
 10
4.8322188124
 20
8.0751998021
 10
4.8481423663
 20
8.0763133673
 10
4.8533769383
 20
8.0773104026
  0
LWPOLYLINE
  5
819
100
AcDbEntity
  8
0
100
AcDbPolyline
 62
7
  6
CONTINUOUS
 90
10
 70
0
 10
4.5616415823
 20
8.070539207
 10
4.4373702209
 20
8.0682927218
 10
4.3780136617
 20
8.0671858296
 10
4.3225018018
 20
8.0660827499
 10
4.272357743
 20
8.0649812958
 10
4.2288384279
 20
8.0638755078
 10
4.1935153013
 20
8.0627716132
 10
4.1670483394
 20
8.0616511248
 10
4.1508086266
 20
8.0605262395
 10
4.1454715369
 20
8.0595185426
  0
LINE
  5
81A
100
AcDbEntity
  8
0
100
AcDbLine
 62
7
  6
CONTINUOUS
 10
4.1454715369
 20
8.1773104026
 11
4.1604736289
 21
8.1608057986
  0
LINE
  5
81B
100
AcDbEntity
  8
0
100
AcDbLine
 62
7
  6
CONTINUOUS
 10
4.1454715369
 20
8.2173104026
 11
4.1604736289
 21
8.2008057986
  0
LINE
  5
81C
100
AcDbEntity
  8
0
100
AcDbLine
 62
7
  6
CONTINUOUS
 10
4.1454715369
 20
8.2573104026
 11
4.1604736289
 21
8.2408057986
  0
LINE
  5
81D
100
AcDbEntity
  8
0
100
AcDbLine
 62
7
  6
CONTINUOUS
 10
4.1454242376
 20
8.4194144726
 11
4.1454242376
 21
8.4174144726
  0
LINE
  5
81E
100
AcDbEntity
  8
0
100
AcDbLine
 62
7
  6
CONTINUOUS
 10
4.1454242376
 20
8.3794144726
 11
4.1454242376
 21
8.3774144726
  0
LINE
  5
81F
100
AcDbEntity
  8
0
100
AcDbLine
 62
7
  6
CONTINUOUS
 10
4.1454242376
 20
8.3394144726
 11
4.1454242376
 21
8.3374144726
  0
LINE
  5
820
100
AcDbEntity
  8
0
100
AcDbLine
 62
7
  6
CONTINUOUS
 10
4.1454242376
 20
8.2994144726
 11
4.1454242376
 21
8.2974144726
  0
LINE
  5
821
100
AcDbEntity
  8
0
100
AcDbLine
 62
7
  6
CONTINUOUS
 10
4.1454242376
 20
8.2594144726
 11
4.1454242376
 21
8.2574144726
  0
LINE
  5
822
100
AcDbEntity
  8
0
100
AcDbLine
 62
7
  6
CONTINUOUS
 10
4.1454242376
 20
8.2194144726
 11
4.1454242376
 21
8.2174144726
  0
LINE
  5
823
100
AcDbEntity
  8
0
100
AcDbLine
 62
7
  6
CONTINUOUS
 10
4.1454242376
 20
8.1794144726
 11
4.1454242376
 21
8.1774144726
  0
LINE
  5
824
100
AcDbEntity
  8
0
100
AcDbLine
 62
7
  6
CONTINUOUS
 10
4.1454242376
 20
8.1394144726
 11
4.1454242376
 21
8.1374144726
  0
LINE
  5
825
100
AcDbEntity
  8
0
100
AcDbLine
 62
7
  6
CONTINUOUS
 10
4.1454242376
 20
8.0994144726
 11
4.1454242376
 21
8.0974144726
  0
LINE
  5
826
100
AcDbEntity
  8
0
100
AcDbLine
 62
7
  6
CONTINUOUS
 10
4.1454242376
 20
8.0594144726
 11
4.1454242376
 21
8.0574144726
  0
LINE
  5
827
100
AcDbEntity
  8
0
100
AcDbLine
 62
7
  6
CONTINUOUS
 10
4.1454242376
 20
8.0194144726
 11
4.1454242376
 21
8.0174144726
  0
LINE
  5
828
100
AcDbEntity
  8
0
100
AcDbLine
 62
7
  6
CONTINUOUS
 10
4.1454242376
 20
7.9794144726
 11
4.1454242376
 21
7.9774144726
  0
LINE
  5
829
100
AcDbEntity
  8
0
100
AcDbLine
 62
7
  6
CONTINUOUS
 10
4.1454242376
 20
7.9394144726
 11
4.1454242376
 21
7.9374144726
  0
LINE
  5
82A
100
AcDbEntity
  8
0
100
AcDbLine
 62
7
  6
CONTINUOUS
 10
4.1454242376
 20
7.8994144726
 11
4.1454242376
 21
7.8974144726
  0
LINE
  5
82B
100
AcDbEntity
  8
0
100
AcDbLine
 62
7
  6
CONTINUOUS
 10
4.1604242376
 20
8.4009144726
 11
4.1604242376
 21
8.3959144726
  0
LINE
  5
82C
100
AcDbEntity
  8
0
100
AcDbLine
 62
7
  6
CONTINUOUS
 10
4.1604242376
 20
8.3609144726
 11
4.1604242376
 21
8.3559144726
  0
LINE
  5
82D
100
AcDbEntity
  8
0
100
AcDbLine
 62
7
  6
CONTINUOUS
 10
4.1604242376
 20
8.3209144726
 11
4.1604242376
 21
8.3159144726
  0
LINE
  5
82E
100
AcDbEntity
  8
0
100
AcDbLine
 62
7
  6
CONTINUOUS
 10
4.1604242376
 20
8.2809144726
 11
4.1604242376
 21
8.2759144726
  0
LINE
  5
82F
100
AcDbEntity
  8
0
100
AcDbLine
 62
7
  6
CONTINUOUS
 10
4.1604242376
 20
8.2409144726
 11
4.1604242376
 21
8.2359144726
  0
LINE
  5
830
100
AcDbEntity
  8
0
100
AcDbLine
 62
7
  6
CONTINUOUS
 10
4.1604242376
 20
8.2009144726
 11
4.1604242376
 21
8.1959144726
  0
LINE
  5
831
100
AcDbEntity
  8
0
100
AcDbLine
 62
7
  6
CONTINUOUS
 10
4.1604242376
 20
8.1609144726
 11
4.1604242376
 21
8.1559144726
  0
LINE
  5
832
100
AcDbEntity
  8
0
100
AcDbLine
 62
7
  6
CONTINUOUS
 10
4.1604242376
 20
8.1209144726
 11
4.1604242376
 21
8.1159144726
  0
LINE
  5
833
100
AcDbEntity
  8
0
100
AcDbLine
 62
7
  6
CONTINUOUS
 10
4.1604242376
 20
8.0809144726
 11
4.1604242376
 21
8.0759144726
  0
LINE
  5
834
100
AcDbEntity
  8
0
100
AcDbLine
 62
7
  6
CONTINUOUS
 10
4.1604242376
 20
8.0409144726
 11
4.1604242376
 21
8.0359144726
  0
LINE
  5
835
100
AcDbEntity
  8
0
100
AcDbLine
 62
7
  6
CONTINUOUS
 10
4.1604242376
 20
8.0009144726
 11
4.1604242376
 21
7.9959144726
  0
LINE
  5
836
100
AcDbEntity
  8
0
100
AcDbLine
 62
7
  6
CONTINUOUS
 10
4.1604242376
 20
7.9609144726
 11
4.1604242376
 21
7.9559144726
  0
LINE
  5
837
100
AcDbEntity
  8
0
100
AcDbLine
 62
7
  6
CONTINUOUS
 10
4.1604242376
 20
7.9209144726
 11
4.1604242376
 21
7.9159144726
  0
LINE
  5
838
100
AcDbEntity
  8
0
100
AcDbLine
 62
7
  6
CONTINUOUS
 10
4.1606742376
 20
8.4669144726
 11
4.1606742376
 21
8.4294144726
  0
LWPOLYLINE
  5
839
100
AcDbEntity
  8
0
100
AcDbPolyline
 62
7
  6
CONTINUOUS
 90
18
 70
0
 10
4.1604242376
 20
8.0409144726
 10
4.1652875379
 20
8.0419941186
 10
4.1806897379
 20
8.043126862
 10
4.2061562891
 20
8.0442596054
 10
4.2408830605
 20
8.0453923487
 10
4.2837735205
 20
8.0465250921
 10
4.3334733613
 20
8.0476578355
 10
4.3884132621
 20
8.0487905788
 10
4.4468584422
 20
8.0499233222
 10
4.5069634384
 20
8.0510560656
 10
4.5668303769
 20
8.0521888089
 10
4.6245689012
 20
8.0533215523
 10
4.6783558612
 20
8.0544542956
 10
4.7264928816
 20
8.055587039
 10
4.767459989
 20
8.0567197824
 10
4.7999636074
 20
8.0578525257
 10
4.8229774034
 20
8.0589852691
 10
4.8357746941
 20
8.0601180125
  0
LINE
  5
83A
100
AcDbEntity
  8
0
100
AcDbLine
 62
7
  6
CONTINUOUS
 10
4.1454242376
 20
8.0174144726
 11
4.1508036951
 21
8.0185257289
  0
LINE
  5
83B
100
AcDbEntity
  8
0
100
AcDbLine
 62
7
  6
CONTINUOUS
 10
4.8534242376
 20
8.1594144726
 11
4.8480386457
 21
8.1583025813
  0
LINE
  5
83C
100
AcDbEntity
  8
0
100
AcDbLine
 62
7
  6
CONTINUOUS
 10
4.8534242376
 20
8.1994144726
 11
4.8480382455
 21
8.1983025399
  0
LINE
  5
83D
100
AcDbEntity
  8
0
100
AcDbLine
 62
7
  6
CONTINUOUS
 10
4.1454242376
 20
8.0574144726
 11
4.1508095097
 21
8.0585263309
  0
LWPOLYLINE
  5
83E
100
AcDbEntity
  8
0
100
AcDbPolyline
 62
7
  6
CONTINUOUS
 90
19
 70
0
 10
4.1604736289
 20
8.0360231466
 10
4.1652875379
 20
8.0369941186
 10
4.1806897379
 20
8.038126862
 10
4.2061562891
 20
8.0392596054
 10
4.2408830605
 20
8.0403923487
 10
4.2837735205
 20
8.0415250921
 10
4.3334733613
 20
8.0426578355
 10
4.3884132621
 20
8.0437905788
 10
4.4468584422
 20
8.0449233222
 10
4.5069634384
 20
8.0460560656
 10
4.5668303769
 20
8.0471888089
 10
4.6245689012
 20
8.0483215523
 10
4.6783558612
 20
8.0494542956
 10
4.7264928816
 20
8.050587039
 10
4.767459989
 20
8.0517197824
 10
4.7999636074
 20
8.0528525257
 10
4.8229774034
 20
8.0539852691
 10
4.8357746941
 20
8.0551180125
 10
4.8384242376
 20
8.0559144726
  0
LWPOLYLINE
  5
83F
100
AcDbEntity
  8
0
100
AcDbPolyline
 62
7
  6
CONTINUOUS
 90
3
 70
0
 10
4.8290025567
 20
8.1394100479
 10
4.8378466368
 20
8.1405427912
 10
4.8383748463
 20
8.1408057986
  0
LWPOLYLINE
  5
840
100
AcDbEntity
  8
0
100
AcDbPolyline
 62
7
  6
CONTINUOUS
 90
18
 70
0
 10
4.1626241733
 20
8.0766401363
 10
4.1747660783
 20
8.0777728797
 10
4.1971593798
 20
8.0789056231
 10
4.2290969877
 20
8.0800383664
 10
4.2695704409
 20
8.0811711098
 10
4.3173017509
 20
8.0823038532
 10
4.3707837552
 20
8.0834365965
 10
4.4283277076
 20
8.0845693399
 10
4.4881166019
 20
8.0857020833
 10
4.5482625459
 20
8.0868348266
 10
4.6068663728
 20
8.08796757
 10
4.6620776101
 20
8.0891003133
 10
4.7121529092
 20
8.0902330567
 10
4.7555110939
 20
8.0913658001
 10
4.7907830876
 20
8.0924985434
 10
4.8168551427
 20
8.0936312868
 10
4.8329040089
 20
8.0947640302
 10
4.8384242376
 20
8.0959144726
  0
LWPOLYLINE
  5
841
100
AcDbEntity
  8
0
100
AcDbPolyline
 62
7
  6
CONTINUOUS
 90
8
 70
0
 10
4.1508095097
 20
8.0585263309
 10
4.1670518571
 20
8.0596513086
 10
4.1935228395
 20
8.0607718826
 10
4.2288426325
 20
8.0618756251
 10
4.2722791505
 20
8.0629794532
 10
4.3224312843
 20
8.0640812856
 10
4.3780246582
 20
8.0651860401
 10
4.4373891166
 20
8.0662930669
  0
LWPOLYLINE
  5
842
100
AcDbEntity
  8
0
100
AcDbPolyline
 62
7
  6
CONTINUOUS
 90
8
 70
0
 10
4.8480459669
 20
8.1183033392
 10
4.8318257313
 20
8.1171791583
 10
4.8053920619
 20
8.1160594371
 10
4.7700985521
 20
8.1149559065
 10
4.726494423
 20
8.113847736
 10
4.6762169435
 20
8.1127435022
 10
4.6208545332
 20
8.1116434932
 10
4.561538093
 20
8.1105373166
  0
LWPOLYLINE
  5
843
100
AcDbEntity
  8
0
100
AcDbPolyline
 62
7
  6
CONTINUOUS
 90
8
 70
0
 10
4.1508086266
 20
8.0985262395
 10
4.1670483394
 20
8.0996511248
 10
4.1935153013
 20
8.1007716132
 10
4.2288384279
 20
8.1018755078
 10
4.272357743
 20
8.1029812958
 10
4.3225018018
 20
8.1040827499
 10
4.3780136617
 20
8.1051858296
 10
4.4373702209
 20
8.1062927218
  0
LWPOLYLINE
  5
844
100
AcDbEntity
  8
0
100
AcDbPolyline
 62
7
  6
CONTINUOUS
 90
8
 70
0
 10
4.8480386457
 20
8.1583025813
 10
4.8317966029
 20
8.1571776358
 10
4.8053290306
 20
8.156057184
 10
4.7700059384
 20
8.1549533228
 10
4.7264973881
 20
8.1538478055
 10
4.6763569916
 20
8.1527464096
 10
4.6208313469
 20
8.1516430493
 10
4.5614688266
 20
8.1505360513
  0
LWPOLYLINE
  5
845
100
AcDbEntity
  8
0
100
AcDbPolyline
 62
7
  6
CONTINUOUS
 90
10
 70
0
 10
4.4373702209
 20
8.1062927218
 10
4.5616415823
 20
8.108539207
 10
4.6209844357
 20
8.1096459804
 10
4.6763599641
 20
8.1107464714
 10
4.7269489804
 20
8.111858399
 10
4.7706273172
 20
8.1129706814
 10
4.8058237169
 20
8.1140749038
 10
4.8320728609
 20
8.1151921156
 10
4.8481138528
 20
8.1163103917
 10
4.8533769383
 20
8.1173104026
  0
LWPOLYLINE
  5
846
100
AcDbEntity
  8
0
100
AcDbPolyline
 62
7
  6
CONTINUOUS
 90
10
 70
0
 10
4.561538093
 20
8.1105373166
 10
4.4373454011
 20
8.1082922684
 10
4.3780306683
 20
8.1071861551
 10
4.3226768245
 20
8.1060863832
 10
4.2723680832
 20
8.1049815382
 10
4.2287506938
 20
8.1038730603
 10
4.1934554019
 20
8.102769472
 10
4.1670206618
 20
8.1016496781
 10
4.1508016704
 20
8.1005255193
 10
4.1454715369
 20
8.0995185426
  0
LINE
  5
847
100
AcDbEntity
  8
0
100
AcDbLine
 62
7
  6
CONTINUOUS
 10
4.1454715369
 20
8.2973104026
 11
4.1604736289
 21
8.2808057986
  0
LINE
  5
848
100
AcDbEntity
  8
0
100
AcDbLine
 62
7
  6
CONTINUOUS
 10
4.1454715369
 20
8.3373104026
 11
4.1604736289
 21
8.3208057986
  0
LINE
  5
849
100
AcDbEntity
  8
0
100
AcDbLine
 62
7
  6
CONTINUOUS
 10
4.1454242376
 20
8.4174144882
 11
4.1454715369
 21
8.4173104026
  0
LINE
  5
84A
100
AcDbEntity
  8
0
100
AcDbLine
 62
7
  6
CONTINUOUS
 10
4.1794242376
 20
7.8494144726
 11
4.1794242376
 21
7.8894144726
  0
LINE
  5
84B
100
AcDbEntity
  8
0
100
AcDbLine
 62
7
  6
CONTINUOUS
 10
4.2167583571
 20
7.8894144726
 11
4.2167583571
 21
7.8494144726
  0
LINE
  5
84C
100
AcDbEntity
  8
0
100
AcDbLine
 62
7
  6
CONTINUOUS
 10
4.2396166165
 20
7.8794144726
 11
4.2396166165
 21
7.8894144726
  0
LINE
  5
84D
100
AcDbEntity
  8
0
100
AcDbLine
 62
7
  6
CONTINUOUS
 10
4.1454242376
 20
8.4194144726
 11
4.1454715369
 21
8.4195185426
  0
LINE
  5
84E
100
AcDbEntity
  8
0
100
AcDbLine
 62
7
  6
CONTINUOUS
 10
4.1454715369
 20
8.3795185426
 11
4.1454242376
 21
8.3794144726
  0
LINE
  5
84F
100
AcDbEntity
  8
0
100
AcDbLine
 62
7
  6
CONTINUOUS
 10
4.1454715369
 20
8.3395185426
 11
4.1454242376
 21
8.3394144726
  0
LWPOLYLINE
  5
850
100
AcDbEntity
  8
0
100
AcDbPolyline
 62
7
  6
CONTINUOUS
 90
19
 70
0
 10
4.1604242376
 20
8.3609144726
 10
4.1604803083
 20
8.3610302621
 10
4.1668020463
 20
8.3621513147
 10
4.1834115348
 20
8.3632723674
 10
4.2097950551
 20
8.36439342
 10
4.245136585
 20
8.3655144726
 10
4.288343038
 20
8.3666355253
 10
4.3380780714
 20
8.3677565779
 10
4.3928034186
 20
8.3688776305
 10
4.4508264664
 20
8.3699986832
 10
4.5103526061
 20
8.3711197358
 10
4.5695407398
 20
8.3722407884
 10
4.6265602235
 20
8.3733618411
 10
4.6796474883
 20
8.3744828937
 10
4.7271605854
 20
8.3756039463
 10
4.767629971
 20
8.3767249989
 10
4.799803958
 20
8.3778460516
 10
4.8226874294
 20
8.3789671042
 10
4.835572617
 20
8.3800881568
  0
LINE
  5
851
100
AcDbEntity
  8
0
100
AcDbLine
 62
7
  6
CONTINUOUS
 10
4.8534242376
 20
8.2394144726
 11
4.8480448723
 21
8.2383032259
  0
LINE
  5
852
100
AcDbEntity
  8
0
100
AcDbLine
 62
7
  6
CONTINUOUS
 10
4.1454242376
 20
8.0974144726
 11
4.1508086266
 21
8.0985262395
  0
LINE
  5
853
100
AcDbEntity
  8
0
100
AcDbLine
 62
7
  6
CONTINUOUS
 10
4.8335609373
 20
8.2198348266
 11
4.8383748463
 21
8.2208057986
  0
LWPOLYLINE
  5
854
100
AcDbEntity
  8
0
100
AcDbPolyline
 62
7
  6
CONTINUOUS
 90
19
 70
0
 10
4.1610018384
 20
8.116286154
 10
4.1698459185
 20
8.1174188974
 10
4.1890967539
 20
8.1185516408
 10
4.2181464809
 20
8.1196843841
 10
4.2560778262
 20
8.1208171275
 10
4.3016930706
 20
8.1219498709
 10
4.3535518686
 20
8.1230826142
 10
4.4100167282
 20
8.1242153576
 10
4.4693047168
 20
8.1253481009
 10
4.5295437584
 20
8.1264808443
 10
4.588831747
 20
8.1276135877
 10
4.6452966066
 20
8.128746331
 10
4.6971554046
 20
8.1298790744
 10
4.742770649
 20
8.1310118178
 10
4.7807019943
 20
8.1321445611
 10
4.8097517213
 20
8.1332773045
 10
4.8290025567
 20
8.1344100479
 10
4.8378466368
 20
8.1355427912
 10
4.8384242376
 20
8.1359144726
  0
LWPOLYLINE
  5
855
100
AcDbEntity
  8
0
100
AcDbPolyline
 62
7
  6
CONTINUOUS
 90
8
 70
0
 10
4.1507286728
 20
8.1785179333
 10
4.1667507961
 20
8.1796355244
 10
4.1929815918
 20
8.1807524912
 10
4.2281667324
 20
8.1818567408
 10
4.2718478287
 20
8.1829693334
 10
4.3224638796
 20
8.1840819625
 10
4.3778534372
 20
8.1851827618
 10
4.4371933802
 20
8.1862894914
  0
LWPOLYLINE
  5
856
100
AcDbEntity
  8
0
100
AcDbPolyline
 62
7
  6
CONTINUOUS
 90
8
 70
0
 10
4.1508016704
 20
8.1385255193
 10
4.1670206618
 20
8.1396496781
 10
4.1934554019
 20
8.140769472
 10
4.2287506938
 20
8.1418730603
 10
4.2723680832
 20
8.1429815382
 10
4.3226768245
 20
8.1440863832
 10
4.3780306683
 20
8.1451861551
 10
4.4373454011
 20
8.1462922684
  0
LWPOLYLINE
  5
857
100
AcDbEntity
  8
0
100
AcDbPolyline
 62
7
  6
CONTINUOUS
 90
8
 70
0
 10
4.8480382455
 20
8.1983025399
 10
4.8317950051
 20
8.1971775524
 10
4.8053256661
 20
8.1960570638
 10
4.7700090813
 20
8.1949534105
 10
4.7265863856
 20
8.193849892
 10
4.6764263239
 20
8.1927478493
 10
4.6208218494
 20
8.1916428675
 10
4.5614545076
 20
8.1905357897
  0
LWPOLYLINE
  5
858
100
AcDbEntity
  8
0
100
AcDbPolyline
 62
7
  6
CONTINUOUS
 90
10
 70
0
 10
4.4373454011
 20
8.1462922684
 10
4.561538093
 20
8.1485373166
 10
4.6208545332
 20
8.1496434932
 10
4.6762169435
 20
8.1507435022
 10
4.726494423
 20
8.151847736
 10
4.7700985521
 20
8.1529559065
 10
4.8053920619
 20
8.1540594371
 10
4.8318257313
 20
8.1551791583
 10
4.8480459669
 20
8.1563033392
 10
4.8533769383
 20
8.1573104026
  0
LWPOLYLINE
  5
859
100
AcDbEntity
  8
0
100
AcDbPolyline
 62
7
  6
CONTINUOUS
 90
10
 70
0
 10
4.5614688266
 20
8.1505360513
 10
4.4371933802
 20
8.1482894914
 10
4.3778534372
 20
8.1471827618
 10
4.3224638796
 20
8.1460819625
 10
4.2718478287
 20
8.1449693334
 10
4.2281667324
 20
8.1438567408
 10
4.1929815918
 20
8.1427524912
 10
4.1667507961
 20
8.1416355244
 10
4.1507286728
 20
8.1405179333
 10
4.1454715369
 20
8.1395185426
  0
LWPOLYLINE
  5
85A
100
AcDbEntity
  8
0
100
AcDbPolyline
 62
7
  6
CONTINUOUS
 90
10
 70
0
 10
4.4371933802
 20
8.1862894914
 10
4.5614688266
 20
8.1885360513
 10
4.6208313469
 20
8.1896430493
 10
4.6763569916
 20
8.1907464096
 10
4.7264973881
 20
8.1918478055
 10
4.7700059384
 20
8.1929533228
 10
4.8053290306
 20
8.194057184
 10
4.8317966029
 20
8.1951776358
 10
4.8480386457
 20
8.1963025813
 10
4.8533769383
 20
8.1973104026
  0
LWPOLYLINE
  5
85B
100
AcDbEntity
  8
0
100
AcDbPolyline
 62
7
  6
CONTINUOUS
 90
10
 70
0
 10
4.5614545076
 20
8.1905357897
 10
4.4371745465
 20
8.1882891473
 10
4.3778372607
 20
8.1871824521
 10
4.3222997709
 20
8.1860785544
 10
4.2715155717
 20
8.1849615286
 10
4.2278138009
 20
8.1838468534
 10
4.1927088804
 20
8.1827426819
 10
4.1666086459
 20
8.1816280342
 10
4.1507026465
 20
8.1805152161
 10
4.1454715369
 20
8.1795185426
  0
LINE
  5
85C
100
AcDbEntity
  8
0
100
AcDbLine
 62
7
  6
CONTINUOUS
 10
4.1454715369
 20
8.3773104026
 11
4.1604736289
 21
8.3608057986
  0
LINE
  5
85D
100
AcDbEntity
  8
0
100
AcDbLine
 62
7
  6
CONTINUOUS
 10
4.1454715369
 20
8.4173104026
 11
4.1604736289
 21
8.4008057986
  0
LINE
  5
85E
100
AcDbEntity
  8
0
100
AcDbLine
 62
7
  6
CONTINUOUS
 10
4.2844242376
 20
7.8794144726
 11
4.2844242376
 21
7.8494144726
  0
LWPOLYLINE
  5
85F
100
AcDbEntity
  8
0
100
AcDbPolyline
 62
7
  6
CONTINUOUS
 90
6
 70
0
 10
4.2396166165
 20
7.8794144726
 10
4.2398687657
 20
7.8823347124
 10
4.2406511846
 20
7.8851062015
 10
4.2419200531
 20
7.8873544115
 10
4.2436254018
 20
7.888867651
 10
4.2456526868
 20
7.8894144726
  0
LINE
  5
860
100
AcDbEntity
  8
0
100
AcDbLine
 62
7
  6
CONTINUOUS
 10
4.1454715369
 20
8.2995185426
 11
4.1454242376
 21
8.2994144726
  0
LINE
  5
861
100
AcDbEntity
  8
0
100
AcDbLine
 62
7
  6
CONTINUOUS
 10
4.1454715369
 20
8.2595185426
 11
4.1454242376
 21
8.2594144726
  0
LINE
  5
862
100
AcDbEntity
  8
0
100
AcDbLine
 62
7
  6
CONTINUOUS
 10
4.1454715369
 20
8.2195185426
 11
4.1454242376
 21
8.2194144726
  0
LINE
  5
863
100
AcDbEntity
  8
0
100
AcDbLine
 62
7
  6
CONTINUOUS
 10
4.1454715369
 20
8.1795185426
 11
4.1454242376
 21
8.1794144726
  0
LINE
  5
864
100
AcDbEntity
  8
0
100
AcDbLine
 62
7
  6
CONTINUOUS
 10
4.1544666035
 20
8.4294144726
 11
4.1454715369
 21
8.4195185426
  0
LINE
  5
865
100
AcDbEntity
  8
0
100
AcDbLine
 62
7
  6
CONTINUOUS
 10
4.1604736289
 20
8.3960231466
 11
4.1454715369
 21
8.3795185426
  0
LWPOLYLINE
  5
866
100
AcDbEntity
  8
0
100
AcDbPolyline
 62
7
  6
CONTINUOUS
 90
18
 70
0
 10
4.1604242376
 20
8.1609144726
 10
4.1659444664
 20
8.1620649151
 10
4.1819933325
 20
8.1631976585
 10
4.2080653876
 20
8.1643304018
 10
4.2433373813
 20
8.1654631452
 10
4.2866955661
 20
8.1665958886
 10
4.3367708652
 20
8.1677286319
 10
4.3919821024
 20
8.1688613753
 10
4.4505859293
 20
8.1699941186
 10
4.5107318733
 20
8.171126862
 10
4.5705207676
 20
8.1722596054
 10
4.6280647201
 20
8.1733923487
 10
4.6815467244
 20
8.1745250921
 10
4.7292780343
 20
8.1756578355
 10
4.7697514875
 20
8.1767905788
 10
4.8016890954
 20
8.1779233222
 10
4.8240823969
 20
8.1790560656
 10
4.8362243019
 20
8.1801888089
  0
LINE
  5
867
100
AcDbEntity
  8
0
100
AcDbLine
 62
7
  6
CONTINUOUS
 10
4.1454242376
 20
8.1774144726
 11
4.1507286728
 21
8.1785179333
  0
LINE
  5
868
100
AcDbEntity
  8
0
100
AcDbLine
 62
7
  6
CONTINUOUS
 10
4.1454242376
 20
8.1374144726
 11
4.1508016704
 21
8.1385255193
  0
LINE
  5
869
100
AcDbEntity
  8
0
100
AcDbLine
 62
7
  6
CONTINUOUS
 10
4.8534242376
 20
8.2794144726
 11
4.8480392511
 21
8.2783026439
  0
LINE
  5
86A
100
AcDbEntity
  8
0
100
AcDbLine
 62
7
  6
CONTINUOUS
 10
4.8534242376
 20
8.3194144726
 11
4.8479105986
 21
8.3182894067
  0
LWPOLYLINE
  5
86B
100
AcDbEntity
  8
0
100
AcDbPolyline
 62
7
  6
CONTINUOUS
 90
19
 70
0
 10
4.1604736289
 20
8.1560231466
 10
4.1659444664
 20
8.1570649151
 10
4.1819933325
 20
8.1581976585
 10
4.2080653876
 20
8.1593304018
 10
4.2433373813
 20
8.1604631452
 10
4.2866955661
 20
8.1615958886
 10
4.3367708652
 20
8.1627286319
 10
4.3919821024
 20
8.1638613753
 10
4.4505859293
 20
8.1649941186
 10
4.5107318733
 20
8.166126862
 10
4.5705207676
 20
8.1672596054
 10
4.6280647201
 20
8.1683923487
 10
4.6815467244
 20
8.1695250921
 10
4.7292780343
 20
8.1706578355
 10
4.7697514875
 20
8.1717905788
 10
4.8016890954
 20
8.1729233222
 10
4.8240823969
 20
8.1740560656
 10
4.8362243019
 20
8.1751888089
 10
4.8384242376
 20
8.1759144726
  0
LWPOLYLINE
  5
86C
100
AcDbEntity
  8
0
100
AcDbPolyline
 62
7
  6
CONTINUOUS
 90
3
 70
0
 10
4.8298647753
 20
8.2594808443
 10
4.8380456821
 20
8.2606135877
 10
4.8383748463
 20
8.2608057986
  0
LWPOLYLINE
  5
86D
100
AcDbEntity
  8
0
100
AcDbPolyline
 62
7
  6
CONTINUOUS
 90
18
 70
0
 10
4.1630737811
 20
8.1967109328
 10
4.1758710718
 20
8.1978436762
 10
4.1988848678
 20
8.1989764195
 10
4.2313884862
 20
8.2001091629
 10
4.2723555937
 20
8.2012419063
 10
4.320492614
 20
8.2023746496
 10
4.374279574
 20
8.203507393
 10
4.4320180983
 20
8.2046401363
 10
4.4918850369
 20
8.2057728797
 10
4.551990033
 20
8.2069056231
 10
4.6104352131
 20
8.2080383664
 10
4.6653751139
 20
8.2091711098
 10
4.7150749547
 20
8.2103038532
 10
4.7579654148
 20
8.2114365965
 10
4.7926921861
 20
8.2125693399
 10
4.8181587373
 20
8.2137020833
 10
4.8335609373
 20
8.2148348266
 10
4.8384242376
 20
8.2159144726
  0
LWPOLYLINE
  5
86E
100
AcDbEntity
  8
0
100
AcDbPolyline
 62
7
  6
CONTINUOUS
 90
8
 70
0
 10
4.1507026465
 20
8.2185152161
 10
4.1666086459
 20
8.2196280342
 10
4.1927088804
 20
8.2207426819
 10
4.2278138009
 20
8.2218468534
 10
4.2715155717
 20
8.2229615286
 10
4.3222997709
 20
8.2240785544
 10
4.3778372607
 20
8.2251824521
 10
4.4371745465
 20
8.2262891473
  0
LWPOLYLINE
  5
86F
100
AcDbEntity
  8
0
100
AcDbPolyline
 62
7
  6
CONTINUOUS
 90
8
 70
0
 10
4.8480448723
 20
8.2383032259
 10
4.8318213531
 20
8.2371789294
 10
4.8053829991
 20
8.2360591131
 10
4.7701200073
 20
8.2349565052
 10
4.7268676893
 20
8.2338564909
 10
4.6765292866
 20
8.2327499876
 10
4.6208366842
 20
8.2316431515
 10
4.561504595
 20
8.2305367046
  0
LWPOLYLINE
  5
870
100
AcDbEntity
  8
0
100
AcDbPolyline
 62
7
  6
CONTINUOUS
 90
8
 70
0
 10
4.8480392511
 20
8.2783026439
 10
4.8317989875
 20
8.2771777604
 10
4.8053347991
 20
8.2760573902
 10
4.7700485021
 20
8.2749545101
 10
4.7266839072
 20
8.2738521791
 10
4.6759910953
 20
8.2727388151
 10
4.6200979832
 20
8.2716290149
 10
4.560742583
 20
8.2705227879
  0
LWPOLYLINE
  5
871
100
AcDbEntity
  8
0
100
AcDbPolyline
 62
7
  6
CONTINUOUS
 90
10
 70
0
 10
4.4371745465
 20
8.2262891473
 10
4.5614545076
 20
8.2285357897
 10
4.6208218494
 20
8.2296428675
 10
4.6764263239
 20
8.2307478493
 10
4.7265863856
 20
8.231849892
 10
4.7700090813
 20
8.2329534105
 10
4.8053256661
 20
8.2340570638
 10
4.8317950051
 20
8.2351775524
 10
4.8480382455
 20
8.2363025399
 10
4.8533769383
 20
8.2373104026
  0
LWPOLYLINE
  5
872
100
AcDbEntity
  8
0
100
AcDbPolyline
 62
7
  6
CONTINUOUS
 90
10
 70
0
 10
4.561504595
 20
8.2305367046
 10
4.4372995889
 20
8.2282914315
 10
4.377982301
 20
8.2271852292
 10
4.3220170769
 20
8.2260726811
 10
4.2709935199
 20
8.2249492492
 10
4.227284318
 20
8.2238319855
 10
4.1923230191
 20
8.2227287578
 10
4.1664317008
 20
8.2216186765
 10
4.1506934614
 20
8.2205142556
 10
4.1454715369
 20
8.2195185426
  0
LWPOLYLINE
  5
873
100
AcDbEntity
  8
0
100
AcDbPolyline
 62
7
  6
CONTINUOUS
 90
10
 70
0
 10
4.4372995889
 20
8.2662914315
 10
4.561504595
 20
8.2685367046
 10
4.6208366842
 20
8.2696431515
 10
4.6765292866
 20
8.2707499876
 10
4.7268676893
 20
8.2718564909
 10
4.7701200073
 20
8.2729565052
 10
4.8053829991
 20
8.2740591131
 10
4.8318213531
 20
8.2751789294
 10
4.8480448723
 20
8.2763032259
 10
4.8533769383
 20
8.2773104026
  0
LWPOLYLINE
  5
874
100
AcDbEntity
  8
0
100
AcDbPolyline
 62
7
  6
CONTINUOUS
 90
10
 70
0
 10
4.560742583
 20
8.2705227879
 10
4.4370797383
 20
8.2682874153
 10
4.3780295783
 20
8.2671861343
 10
4.3219450406
 20
8.2660711839
 10
4.2708526029
 20
8.2649459312
 10
4.2271261062
 20
8.2638275347
 10
4.1922003002
 20
8.2627243182
 10
4.1664130306
 20
8.2616176868
 10
4.1507130033
 20
8.2605162982
 10
4.1454715369
 20
8.2595185426
  0
LINE
  5
875
100
AcDbEntity
  8
0
100
AcDbLine
 62
7
  6
CONTINUOUS
 10
4.1454715369
 20
8.1395185426
 11
4.1454242376
 21
8.1394144726
  0
LINE
  5
876
100
AcDbEntity
  8
0
100
AcDbLine
 62
7
  6
CONTINUOUS
 10
4.1454715369
 20
8.0995185426
 11
4.1454242376
 21
8.0994144726
  0
LINE
  5
877
100
AcDbEntity
  8
0
100
AcDbLine
 62
7
  6
CONTINUOUS
 10
4.1454715369
 20
8.0595185426
 11
4.1454242376
 21
8.0594144726
  0
LINE
  5
878
100
AcDbEntity
  8
0
100
AcDbLine
 62
7
  6
CONTINUOUS
 10
4.1454715369
 20
8.0195185426
 11
4.1454242376
 21
8.0194144726
  0
LINE
  5
879
100
AcDbEntity
  8
0
100
AcDbLine
 62
7
  6
CONTINUOUS
 10
4.1604736289
 20
8.3560231466
 11
4.1454715369
 21
8.3395185426
  0
LINE
  5
87A
100
AcDbEntity
  8
0
100
AcDbLine
 62
7
  6
CONTINUOUS
 10
4.1604736289
 20
8.3160231466
 11
4.1454715369
 21
8.2995185426
  0
LINE
  5
87B
100
AcDbEntity
  8
0
100
AcDbLine
 62
7
  6
CONTINUOUS
 10
4.1604736289
 20
8.2760231466
 11
4.1454715369
 21
8.2595185426
  0
LINE
  5
87C
100
AcDbEntity
  8
0
100
AcDbLine
 62
7
  6
CONTINUOUS
 10
4.1604736289
 20
8.1960231466
 11
4.1630737811
 21
8.1967109328
  0
LINE
  5
87D
100
AcDbEntity
  8
0
100
AcDbLine
 62
7
  6
CONTINUOUS
 10
4.835572617
 20
8.3800881568
 11
4.8383748463
 21
8.3808057986
  0
LINE
  5
87E
100
AcDbEntity
  8
0
100
AcDbLine
 62
7
  6
CONTINUOUS
 10
4.1454242376
 20
8.2574144726
 11
4.1506934614
 21
8.2585142556
  0
LINE
  5
87F
100
AcDbEntity
  8
0
100
AcDbLine
 62
7
  6
CONTINUOUS
 10
4.1454242376
 20
8.2174144726
 11
4.1507026465
 21
8.2185152161
  0
LINE
  5
880
100
AcDbEntity
  8
0
100
AcDbLine
 62
7
  6
CONTINUOUS
 10
4.8534242376
 20
8.3994144726
 11
4.848053352
 21
8.3983041043
  0
LINE
  5
881
100
AcDbEntity
  8
0
100
AcDbLine
 62
7
  6
CONTINUOUS
 10
4.8534242376
 20
8.3594144726
 11
4.8480426735
 21
8.3583029982
  0
LWPOLYLINE
  5
882
100
AcDbEntity
  8
0
100
AcDbPolyline
 62
7
  6
CONTINUOUS
 90
19
 70
0
 10
4.1612427358
 20
8.2363569505
 10
4.1707488954
 20
8.2374896939
 10
4.190633298
 20
8.2386224372
 10
4.2202680743
 20
8.2397551806
 10
4.2587174774
 20
8.240887924
 10
4.3047674302
 20
8.2420206673
 10
4.3569638606
 20
8.2431534107
 10
4.4136586158
 20
8.244286154
 10
4.4730615037
 20
8.2454188974
 10
4.5332968205
 20
8.2465516408
 10
4.5924625777
 20
8.2476843841
 10
4.6486905589
 20
8.2488171275
 10
4.7002053111
 20
8.2499498709
 10
4.745380206
 20
8.2510826142
 10
4.7827888025
 20
8.2522153576
 10
4.8112498877
 20
8.2533481009
 10
4.8298647753
 20
8.2544808443
 10
4.8380456821
 20
8.2556135877
 10
4.8384242376
 20
8.2559144726
  0
LWPOLYLINE
  5
883
100
AcDbEntity
  8
0
100
AcDbPolyline
 62
7
  6
CONTINUOUS
 90
8
 70
0
 10
4.1506934614
 20
8.2585142556
 10
4.1664317008
 20
8.2596186765
 10
4.1923230191
 20
8.2607287578
 10
4.227284318
 20
8.2618319855
 10
4.2709935199
 20
8.2629492492
 10
4.3220170769
 20
8.2640726811
 10
4.377982301
 20
8.2651852292
 10
4.4372995889
 20
8.2662914315
  0
LWPOLYLINE
  5
884
100
AcDbEntity
  8
0
100
AcDbPolyline
 62
7
  6
CONTINUOUS
 90
9
 70
0
 10
4.1507130033
 20
8.2985162982
 10
4.1664130306
 20
8.2996176868
 10
4.1922003002
 20
8.3007243182
 10
4.2271261062
 20
8.3018275347
 10
4.2708526029
 20
8.3029459312
 10
4.3219450406
 20
8.3040711839
 10
4.3780295783
 20
8.3051861343
 10
4.4370797383
 20
8.3062874153
 10
4.560742583
 20
8.3085227879
  0
LWPOLYLINE
  5
885
100
AcDbEntity
  8
0
100
AcDbPolyline
 62
7
  6
CONTINUOUS
 90
4
 70
0
 10
4.1627502308
 20
8.3014144726
 10
4.1531590882
 20
8.3007477282
 10
4.1473640413
 20
8.3000812347
 10
4.1454715369
 20
8.2995185426
  0
LWPOLYLINE
  5
886
100
AcDbEntity
  8
0
100
AcDbPolyline
 62
7
  6
CONTINUOUS
 90
8
 70
0
 10
4.8480426735
 20
8.3583029982
 10
4.8318126215
 20
8.357178473
 10
4.805364156
 20
8.3560584394
 10
4.7700592354
 20
8.3549548095
 10
4.7261267465
 20
8.353839122
 10
4.674898605
 20
8.3527161704
 10
4.6187397637
 20
8.3516030522
 10
4.5594364165
 20
8.3504989456
  0
LWPOLYLINE
  5
887
100
AcDbEntity
  8
0
100
AcDbPolyline
 62
7
  6
CONTINUOUS
 90
16
 70
0
 10
4.8479105986
 20
8.3182894067
 10
4.8312874323
 20
8.317151181
 10
4.8042262212
 20
8.3160179826
 10
4.7681830554
 20
8.3149027198
 10
4.7236995659
 20
8.3137824989
 10
4.671791194
 20
8.3126520101
 10
4.6148472746
 20
8.3115288537
 10
4.5545058104
 20
8.3104090793
 10
4.4919125937
 20
8.309279376
 10
4.4299677102
 20
8.3081572373
 10
4.3706408687
 20
8.3070440912
 10
4.3144172942
 20
8.3059135772
 10
4.2636762056
 20
8.3047749589
 10
4.2207929552
 20
8.3036461653
 10
4.1869901214
 20
8.3025305343
 10
4.1627502308
 20
8.3014144726
  0
LWPOLYLINE
  5
888
100
AcDbEntity
  8
0
100
AcDbPolyline
 62
7
  6
CONTINUOUS
 90
17
 70
0
 10
4.1770160786
 20
8.3179144726
 10
4.2004846292
 20
8.3190407353
 10
4.2332850684
 20
8.3201669979
 10
4.2743934768
 20
8.3212932605
 10
4.3225265884
 20
8.3224195231
 10
4.3761818493
 20
8.3235457858
 10
4.4336843228
 20
8.3246720484
 10
4.4932389753
 20
8.325798311
 10
4.5529867108
 20
8.3269245736
 10
4.6110624062
 20
8.3280508363
 10
4.6656531336
 20
8.3291770989
 10
4.7150547543
 20
8.3303033615
 10
4.7577251158
 20
8.3314296241
 10
4.7923321932
 20
8.3325558868
 10
4.8177956698
 20
8.3336821494
 10
4.8333206617
 20
8.334808412
 10
4.8384242376
 20
8.3359144726
  0
LWPOLYLINE
  5
889
100
AcDbEntity
  8
0
100
AcDbPolyline
 62
7
  6
CONTINUOUS
 90
9
 70
0
 10
4.560742583
 20
8.3085227879
 10
4.6200979832
 20
8.3096290149
 10
4.6759910953
 20
8.3107388151
 10
4.7266839072
 20
8.3118521791
 10
4.7700485021
 20
8.3129545101
 10
4.8053347991
 20
8.3140573902
 10
4.8317989875
 20
8.3151777604
 10
4.8480392511
 20
8.3163026439
 10
4.8533769383
 20
8.3173104026
  0
LINE
  5
88A
100
AcDbEntity
  8
0
100
AcDbLine
 62
7
  6
CONTINUOUS
 10
4.8443818717
 20
7.8894144726
 11
4.8383748463
 21
7.8960231466
  0
LINE
  5
88B
100
AcDbEntity
  8
0
100
AcDbLine
 62
7
  6
CONTINUOUS
 10
4.1454715369
 20
7.9795185426
 11
4.1454242376
 21
7.9794144726
  0
LINE
  5
88C
100
AcDbEntity
  8
0
100
AcDbLine
 62
7
  6
CONTINUOUS
 10
4.1454715369
 20
7.9395185426
 11
4.1454242376
 21
7.9394144726
  0
LINE
  5
88D
100
AcDbEntity
  8
0
100
AcDbLine
 62
7
  6
CONTINUOUS
 10
4.1454242376
 20
7.89941446
 11
4.1454715369
 21
7.8995185426
  0
LINE
  5
88E
100
AcDbEntity
  8
0
100
AcDbLine
 62
7
  6
CONTINUOUS
 10
4.1604736289
 20
8.2360231466
 11
4.1454715369
 21
8.2195185426
  0
LINE
  5
88F
100
AcDbEntity
  8
0
100
AcDbLine
 62
7
  6
CONTINUOUS
 10
4.1604736289
 20
8.1960231466
 11
4.1454715369
 21
8.1795185426
  0
LINE
  5
890
100
AcDbEntity
  8
0
100
AcDbLine
 62
7
  6
CONTINUOUS
 10
4.1604736289
 20
8.3560231466
 11
4.1607830426
 21
8.3562074019
  0
LWPOLYLINE
  5
891
100
AcDbEntity
  8
0
100
AcDbPolyline
 62
7
  6
CONTINUOUS
 90
19
 70
0
 10
4.1604242376
 20
8.4009144726
 10
4.1613622032
 20
8.4013881568
 10
4.1710049596
 20
8.4025092095
 10
4.1908054737
 20
8.4036302621
 10
4.2201513306
 20
8.4047513147
 10
4.2581348855
 20
8.4058723674
 10
4.3035813359
 20
8.40699342
 10
4.3550850578
 20
8.4081144726
 10
4.4110530804
 20
8.4092355253
 10
4.4697543554
 20
8.4103565779
 10
4.5293732973
 20
8.4114776305
 10
4.5880659376
 20
8.4125986832
 10
4.6440169578
 20
8.4137197358
 10
4.6954958354
 20
8.4148407884
 10
4.7409103682
 20
8.4159618411
 10
4.7788559192
 20
8.4170828937
 10
4.8081588615
 20
8.4182039463
 10
4.8279128775
 20
8.4193249989
 10
4.8375069906
 20
8.4204460516
  0
LWPOLYLINE
  5
892
100
AcDbEntity
  8
0
100
AcDbPolyline
 62
7
  6
CONTINUOUS
 90
3
 70
0
 10
4.1604736289
 20
8.3160231466
 10
4.1635649848
 20
8.3167817293
 10
4.1770160786
 20
8.3179144726
  0
LINE
  5
893
100
AcDbEntity
  8
0
100
AcDbLine
 62
7
  6
CONTINUOUS
 10
4.1454242376
 20
8.2974144726
 11
4.1507130033
 21
8.2985162982
  0
LWPOLYLINE
  5
894
100
AcDbEntity
  8
0
100
AcDbPolyline
 62
7
  6
CONTINUOUS
 90
18
 70
0
 10
4.1604242376
 20
8.2809144726
 10
4.1666426357
 20
8.2821357116
 10
4.1833361833
 20
8.2832684549
 10
4.210010518
 20
8.2844011983
 10
4.245823372
 20
8.2855339417
 10
4.2896439194
 20
8.286666685
 10
4.3400884841
 20
8.2877994284
 10
4.3955642299
 20
8.2889321717
 10
4.4543194562
 20
8.2900649151
 10
4.5144989098
 20
8.2911976585
 10
4.574202366
 20
8.2923304018
 10
4.6315446302
 20
8.2934631452
 10
4.6847150647
 20
8.2945958886
 10
4.7320347615
 20
8.2957286319
 10
4.7720095552
 20
8.2968613753
 10
4.8033772028
 20
8.2979941186
 10
4.8251472405
 20
8.299126862
 10
4.8366322582
 20
8.3002596054
  0
LWPOLYLINE
  5
895
100
AcDbEntity
  8
0
100
AcDbPolyline
 62
7
  6
CONTINUOUS
 90
19
 70
0
 10
4.1604736289
 20
8.2760231466
 10
4.1666426357
 20
8.2771357116
 10
4.1833361833
 20
8.2782684549
 10
4.210010518
 20
8.2794011983
 10
4.245823372
 20
8.2805339417
 10
4.2896439194
 20
8.281666685
 10
4.3400884841
 20
8.2827994284
 10
4.3955642299
 20
8.2839321717
 10
4.4543194562
 20
8.2850649151
 10
4.5144989098
 20
8.2861976585
 10
4.574202366
 20
8.2873304018
 10
4.6315446302
 20
8.2884631452
 10
4.6847150647
 20
8.2895958886
 10
4.7320347615
 20
8.2907286319
 10
4.7720095552
 20
8.2918613753
 10
4.8033772028
 20
8.2929941186
 10
4.8251472405
 20
8.294126862
 10
4.8366322582
 20
8.2952596054
 10
4.8384242376
 20
8.2959144726
  0
LWPOLYLINE
  5
896
100
AcDbEntity
  8
0
100
AcDbPolyline
 62
7
  6
CONTINUOUS
 90
3
 70
0
 10
4.1473640413
 20
8.3380812347
 10
4.1531590882
 20
8.3387477282
 10
4.1627502308
 20
8.3394144726
  0
LWPOLYLINE
  5
897
100
AcDbEntity
  8
0
100
AcDbPolyline
 62
7
  6
CONTINUOUS
 90
9
 70
0
 10
4.150739622
 20
8.3785190744
 10
4.1665582177
 20
8.3796253712
 10
4.1922401144
 20
8.3807257591
 10
4.227127975
 20
8.3818275873
 10
4.2708406043
 20
8.3829456487
 10
4.3219143952
 20
8.384070547
 10
4.3779782763
 20
8.3851851521
 10
4.4369457397
 20
8.3862849672
 10
4.5594364165
 20
8.3884989456
  0
LWPOLYLINE
  5
898
100
AcDbEntity
  8
0
100
AcDbPolyline
 62
7
  6
CONTINUOUS
 90
8
 70
0
 10
4.848053352
 20
8.3983041043
 10
4.83190399
 20
8.3971832537
 10
4.8056636956
 20
8.3960691625
 10
4.7705047919
 20
8.3949672541
 10
4.7265159896
 20
8.3938482416
 10
4.6752294159
 20
8.3927230225
 10
4.6190334437
 20
8.3916086627
 10
4.5597935944
 20
8.3905054639
  0
LWPOLYLINE
  5
899
100
AcDbEntity
  8
0
100
AcDbPolyline
 62
7
  6
CONTINUOUS
 90
17
 70
0
 10
4.1770160786
 20
8.3229144726
 10
4.2003539001
 20
8.3240355253
 10
4.232941739
 20
8.3251565779
 10
4.2737716782
 20
8.3262776305
 10
4.3215808789
 20
8.3273986832
 10
4.3748906389
 20
8.3285197358
 10
4.4320521282
 20
8.3296407884
 10
4.4912973854
 20
8.3307618411
 10
4.5507939999
 20
8.3318828937
 10
4.6087017868
 20
8.3330039463
 10
4.6632297026
 20
8.3341249989
 10
4.7126912403
 20
8.3352460516
 10
4.7555565924
 20
8.3363671042
 10
4.7904999661
 20
8.3374881568
 10
4.8164405897
 20
8.3386092095
 10
4.8325761395
 20
8.3397302621
 10
4.8383748463
 20
8.3408057986
  0
LWPOLYLINE
  5
89A
100
AcDbEntity
  8
0
100
AcDbPolyline
 62
7
  6
CONTINUOUS
 90
17
 70
0
 10
4.1627502308
 20
8.3394144726
 10
4.1869901214
 20
8.3405305343
 10
4.2207929552
 20
8.3416461653
 10
4.2636762056
 20
8.3427749589
 10
4.3144172942
 20
8.3439135772
 10
4.3706408687
 20
8.3450440912
 10
4.4299677102
 20
8.3461572373
 10
4.4919125937
 20
8.347279376
 10
4.5545058104
 20
8.3484090793
 10
4.6148472746
 20
8.3495288537
 10
4.671791194
 20
8.3506520101
 10
4.7236995659
 20
8.3517824989
 10
4.7681830554
 20
8.3529027198
 10
4.8042262212
 20
8.3540179826
 10
4.8312874323
 20
8.355151181
 10
4.8479105986
 20
8.3562894067
 10
4.8533769383
 20
8.3573104026
  0
LWPOLYLINE
  5
89B
100
AcDbEntity
  8
0
100
AcDbPolyline
 62
7
  6
CONTINUOUS
 90
9
 70
0
 10
4.5594364165
 20
8.3884989456
 10
4.6187397637
 20
8.3896030522
 10
4.674898605
 20
8.3907161704
 10
4.7261267465
 20
8.391839122
 10
4.7700592354
 20
8.3929548095
 10
4.805364156
 20
8.3940584394
 10
4.8318126215
 20
8.395178473
 10
4.8480426735
 20
8.3963029982
 10
4.8533769383
 20
8.3973104026
  0
LWPOLYLINE
  5
89C
100
AcDbEntity
  8
0
100
AcDbPolyline
 62
7
  6
CONTINUOUS
 90
10
 70
0
 10
4.5594364165
 20
8.3504989456
 10
4.4369457397
 20
8.3482849672
 10
4.3779782763
 20
8.3471851521
 10
4.3219143952
 20
8.346070547
 10
4.2708406043
 20
8.3449456487
 10
4.227127975
 20
8.3438275873
 10
4.1922401144
 20
8.3427257591
 10
4.1665582177
 20
8.3416253712
 10
4.150739622
 20
8.3405190744
 10
4.1454715369
 20
8.3395185426
  0
LWPOLYLINE
  5
89D
100
AcDbEntity
  8
0
100
AcDbPolyline
 62
7
  6
CONTINUOUS
 90
10
 70
0
 10
4.5597935944
 20
8.3905054639
 10
4.4376431368
 20
8.3882977066
 10
4.3785647641
 20
8.3871963771
 10
4.3224440547
 20
8.3860815508
 10
4.2712917516
 20
8.3849562665
 10
4.2274857704
 20
8.3838376472
 10
4.1925257899
 20
8.3827360816
 10
4.1667158928
 20
8.3816336875
 10
4.150763448
 20
8.3805215536
 10
4.1454715369
 20
8.3795185426
  0
LINE
  5
89E
100
AcDbEntity
  8
0
100
AcDbLine
 62
7
  6
CONTINUOUS
 10
4.8533769383
 20
7.9195185426
 11
4.8383748463
 21
7.9360231466
  0
LINE
  5
89F
100
AcDbEntity
  8
0
100
AcDbLine
 62
7
  6
CONTINUOUS
 10
4.8533769383
 20
7.9595185426
 11
4.8383748463
 21
7.9760231466
  0
LINE
  5
8A0
100
AcDbEntity
  8
0
100
AcDbLine
 62
7
  6
CONTINUOUS
 10
4.1604736289
 20
8.1560231466
 11
4.1454715369
 21
8.1395185426
  0
LINE
  5
8A1
100
AcDbEntity
  8
0
100
AcDbLine
 62
7
  6
CONTINUOUS
 10
4.1604736289
 20
8.1160231466
 11
4.1454715369
 21
8.0995185426
  0
LINE
  5
8A2
100
AcDbEntity
  8
0
100
AcDbLine
 62
7
  6
CONTINUOUS
 10
4.1604736289
 20
8.0760231466
 11
4.1454715369
 21
8.0595185426
  0
LINE
  5
8A3
100
AcDbEntity
  8
0
100
AcDbLine
 62
7
  6
CONTINUOUS
 10
4.1454242376
 20
8.3374144726
 11
4.1473640413
 21
8.3380812347
  0
LWPOLYLINE
  5
8A4
100
AcDbEntity
  8
0
100
AcDbPolyline
 62
7
  6
CONTINUOUS
 90
3
 70
0
 10
4.1604242376
 20
8.3209144726
 10
4.1635649848
 20
8.3217817293
 10
4.1770160786
 20
8.3229144726
  0
LINE
  5
8A5
100
AcDbEntity
  8
0
100
AcDbLine
 62
7
  6
CONTINUOUS
 10
4.1454242376
 20
8.3774144726
 11
4.150739622
 21
8.3785190744
  0
LWPOLYLINE
  5
8A6
100
AcDbEntity
  8
0
100
AcDbPolyline
 62
7
  6
CONTINUOUS
 90
19
 70
0
 10
4.1607830426
 20
8.3562074019
 10
4.1688128941
 20
8.3573336646
 10
4.1871633192
 20
8.3584599272
 10
4.2152614794
 20
8.3595861898
 10
4.2522302447
 20
8.3607124524
 10
4.2969155746
 20
8.3618387151
 10
4.3479225435
 20
8.3629649777
 10
4.4036588855
 20
8.3640912403
 10
4.4623846995
 20
8.3652175029
 10
4.5222667633
 20
8.3663437656
 10
4.5814357602
 20
8.3674700282
 10
4.6380446334
 20
8.3685962908
 10
4.6903262444
 20
8.3697225534
 10
4.736648537
 20
8.3708488161
 10
4.7755654854
 20
8.3719750787
 10
4.8058622332
 20
8.3731013413
 10
4.826593018
 20
8.3742276039
 10
4.8371106944
 20
8.3753538666
 10
4.8384242376
 20
8.3759144726
  0
LWPOLYLINE
  5
8A7
100
AcDbEntity
  8
0
100
AcDbPolyline
 62
7
  6
CONTINUOUS
 90
8
 70
0
 10
4.4271073175
 20
8.4261047335
 10
4.3684334697
 20
8.4250014178
 10
4.3136827477
 20
8.4238980715
 10
4.2644968811
 20
8.4227947155
 10
4.2223510965
 20
8.4216913879
 10
4.1885082405
 20
8.4205881145
 10
4.1639806563
 20
8.4194848818
 10
4.1495019378
 20
8.4183816785
  0
LWPOLYLINE
  5
8A8
100
AcDbEntity
  8
0
100
AcDbPolyline
 62
7
  6
CONTINUOUS
 90
3
 70
0
 10
4.6088162536
 20
8.4294144726
 10
4.5491271141
 20
8.4283112728
 10
4.4994602817
 20
8.4274156491
  0
LINE
  5
8A9
100
AcDbEntity
  8
0
100
AcDbLine
 62
7
  6
CONTINUOUS
 10
4.4994602817
 20
8.4274156491
 11
4.4271073175
 21
8.4261047335
  0
LINE
  5
8AA
100
AcDbEntity
  8
0
100
AcDbLine
 62
7
  6
CONTINUOUS
 10
4.1544675468
 20
8.4294144726
 11
4.8461979766
 21
8.4294144726
  0
LINE
  5
8AB
100
AcDbEntity
  8
0
100
AcDbLine
 62
9
  6
CONTINUOUS
 10
4.8381742376
 20
8.4669144726
 11
4.1606742376
 21
8.4669144726
  0
LINE
  5
8AC
100
AcDbEntity
  8
0
100
AcDbLine
 62
7
  6
CONTINUOUS
 10
4.8533769383
 20
7.9995185426
 11
4.8383748463
 21
8.0160231466
  0
LINE
  5
8AD
100
AcDbEntity
  8
0
100
AcDbLine
 62
7
  6
CONTINUOUS
 10
4.8533769383
 20
8.0395185426
 11
4.8383748463
 21
8.0560231466
  0
LINE
  5
8AE
100
AcDbEntity
  8
0
100
AcDbLine
 62
7
  6
CONTINUOUS
 10
4.8533769383
 20
8.0795185426
 11
4.8383748463
 21
8.0960231466
  0
LINE
  5
8AF
100
AcDbEntity
  8
0
100
AcDbLine
 62
7
  6
CONTINUOUS
 10
4.1604736289
 20
8.0360231466
 11
4.1454715369
 21
8.0195185426
  0
LINE
  5
8B0
100
AcDbEntity
  8
0
100
AcDbLine
 62
7
  6
CONTINUOUS
 10
4.1604736289
 20
7.9960231466
 11
4.1454715369
 21
7.9795185426
  0
LWPOLYLINE
  5
8B1
100
AcDbEntity
  8
0
100
AcDbPolyline
 62
7
  6
CONTINUOUS
 90
18
 70
0
 10
4.1604242376
 20
8.2409144726
 10
4.1612427358
 20
8.2413569505
 10
4.1707488954
 20
8.2424896939
 10
4.190633298
 20
8.2436224372
 10
4.2202680743
 20
8.2447551806
 10
4.2587174774
 20
8.245887924
 10
4.3047674302
 20
8.2470206673
 10
4.3569638606
 20
8.2481534107
 10
4.4136586158
 20
8.249286154
 10
4.4730615037
 20
8.2504188974
 10
4.5332968205
 20
8.2515516408
 10
4.5924625777
 20
8.2526843841
 10
4.6486905589
 20
8.2538171275
 10
4.7002053111
 20
8.2549498709
 10
4.745380206
 20
8.2560826142
 10
4.7827888025
 20
8.2572153576
 10
4.8112498877
 20
8.2583481009
 10
4.8298647753
 20
8.2594808443
  0
LINE
  5
8B2
100
AcDbEntity
  8
0
100
AcDbLine
 62
7
  6
CONTINUOUS
 10
4.1604736289
 20
8.2360231466
 11
4.1612427358
 21
8.2363569505
  0
LWPOLYLINE
  5
8B3
100
AcDbEntity
  8
0
100
AcDbPolyline
 62
7
  6
CONTINUOUS
 90
19
 70
0
 10
4.1604736289
 20
8.3960231466
 10
4.163359639
 20
8.3967528565
 10
4.1764393051
 20
8.3978791191
 10
4.199601474
 20
8.3990053817
 10
4.2321231006
 20
8.4001316443
 10
4.2729889692
 20
8.401257907
 10
4.3209233849
 20
8.4023841696
 10
4.3744299966
 20
8.4035104322
 10
4.4318385079
 20
8.4046366949
 10
4.4913568182
 20
8.4057629575
 10
4.5511269661
 20
8.4068892201
 10
4.6092831289
 20
8.4080154827
 10
4.6640098668
 20
8.4091417454
 10
4.7135987952
 20
8.410268008
 10
4.7565019146
 20
8.4113942706
 10
4.7913799341
 20
8.4125205332
 10
4.8171440791
 20
8.4136467959
 10
4.8329900799
 20
8.4147730585
 10
4.8384242376
 20
8.4159144726
  0
LINE
  5
8B4
100
AcDbEntity
  8
0
100
AcDbLine
 62
7
  6
CONTINUOUS
 10
4.1495019378
 20
8.4183816785
 11
4.1454242376
 21
8.4174144882
  0
LWPOLYLINE
  5
8B5
100
AcDbEntity
  8
0
100
AcDbPolyline
 62
7
  6
CONTINUOUS
 90
10
 70
0
 10
4.1454715369
 20
8.4195185426
 10
4.1508022119
 20
8.4205255753
 10
4.1667733555
 20
8.4216367109
 10
4.1928514588
 20
8.4227478137
 10
4.2282433991
 20
8.4238588861
 10
4.2718773295
 20
8.424970026
 10
4.3224266725
 20
8.4260811899
 10
4.3783522451
 20
8.4271923105
 10
4.4379544225
 20
8.4283033915
 10
4.4994242376
 20
8.4294144726
  0
LINE
  5
8B6
100
AcDbEntity
  8
0
100
AcDbLine
 62
7
  6
CONTINUOUS
 10
5.2269242376
 20
8.4794144726
 11
3.7719242376
 21
8.4794144726
  0
LINE
  5
8B7
100
AcDbEntity
  8
0
100
AcDbLine
 62
7
  6
CONTINUOUS
 10
4.8533769383
 20
8.1195185426
 11
4.8383748463
 21
8.1360231466
  0
LINE
  5
8B8
100
AcDbEntity
  8
0
100
AcDbLine
 62
7
  6
CONTINUOUS
 10
4.8533769383
 20
8.1595185426
 11
4.8383748463
 21
8.1760231466
  0
LINE
  5
8B9
100
AcDbEntity
  8
0
100
AcDbLine
 62
7
  6
CONTINUOUS
 10
4.1604736289
 20
7.9560231466
 11
4.1454715369
 21
7.9395185426
  0
LINE
  5
8BA
100
AcDbEntity
  8
0
100
AcDbLine
 62
7
  6
CONTINUOUS
 10
4.1604736289
 20
7.9160231466
 11
4.1454715369
 21
7.8995185426
  0
LWPOLYLINE
  5
8BB
100
AcDbEntity
  8
0
100
AcDbPolyline
 62
7
  6
CONTINUOUS
 90
18
 70
0
 10
4.1604242376
 20
8.1209144726
 10
4.1610018384
 20
8.121286154
 10
4.1698459185
 20
8.1224188974
 10
4.1890967539
 20
8.1235516408
 10
4.2181464809
 20
8.1246843841
 10
4.2560778262
 20
8.1258171275
 10
4.3016930706
 20
8.1269498709
 10
4.3535518686
 20
8.1280826142
 10
4.4100167282
 20
8.1292153576
 10
4.4693047168
 20
8.1303481009
 10
4.5295437584
 20
8.1314808443
 10
4.588831747
 20
8.1326135877
 10
4.6452966066
 20
8.133746331
 10
4.6971554046
 20
8.1348790744
 10
4.742770649
 20
8.1360118178
 10
4.7807019943
 20
8.1371445611
 10
4.8097517213
 20
8.1382773045
 10
4.8290025567
 20
8.1394100479
  0
LINE
  5
8BC
100
AcDbEntity
  8
0
100
AcDbLine
 62
9
  6
CONTINUOUS
 10
5.2869242376
 20
8.5394144726
 11
3.7119242376
 21
8.5394144726
  0
LINE
  5
8BD
100
AcDbEntity
  8
0
100
AcDbLine
 62
7
  6
CONTINUOUS
 10
4.8533769383
 20
8.1995185426
 11
4.8383748463
 21
8.2160231466
  0
LINE
  5
8BE
100
AcDbEntity
  8
0
100
AcDbLine
 62
7
  6
CONTINUOUS
 10
4.8533769383
 20
8.2395185426
 11
4.8383748463
 21
8.2560231466
  0
LINE
  5
8BF
100
AcDbEntity
  8
0
100
AcDbLine
 62
7
  6
CONTINUOUS
 10
4.8533769383
 20
8.2795185426
 11
4.8383748463
 21
8.2960231466
  0
LWPOLYLINE
  5
8C0
100
AcDbEntity
  8
0
100
AcDbPolyline
 62
7
  6
CONTINUOUS
 90
19
 70
0
 10
4.1604242376
 20
8.0009144726
 10
4.1608027931
 20
8.0012153576
 10
4.1689836999
 20
8.0023481009
 10
4.1875985875
 20
8.0034808443
 10
4.2160596728
 20
8.0046135877
 10
4.2534682692
 20
8.005746331
 10
4.2986431641
 20
8.0068790744
 10
4.3501579163
 20
8.0080118178
 10
4.4063858976
 20
8.0091445611
 10
4.4655516547
 20
8.0102773045
 10
4.5257869715
 20
8.0114100479
 10
4.5851898595
 20
8.0125427912
 10
4.6418846146
 20
8.0136755346
 10
4.694081045
 20
8.0148082779
 10
4.7401309978
 20
8.0159410213
 10
4.7785804009
 20
8.0170737647
 10
4.8082151772
 20
8.018206508
 10
4.8280995798
 20
8.0193392514
 10
4.8376057394
 20
8.0204719948
  0
LINE
  5
8C1
100
AcDbEntity
  8
0
100
AcDbLine
 62
7
  6
CONTINUOUS
 10
4.1604736289
 20
8.1160231466
 11
4.1610018384
 21
8.116286154
  0
LINE
  5
8C2
100
AcDbEntity
  8
0
100
AcDbLine
 62
7
  6
CONTINUOUS
 10
4.8375069906
 20
8.4204460516
 11
4.8383748463
 21
8.4208057986
  0
LWPOLYLINE
  5
8C3
100
AcDbEntity
  8
0
100
AcDbPolyline
 62
7
  6
CONTINUOUS
 90
18
 70
0
 10
4.1604242376
 20
8.2009144726
 10
4.1630737811
 20
8.2017109328
 10
4.1758710718
 20
8.2028436762
 10
4.1988848678
 20
8.2039764195
 10
4.2313884862
 20
8.2051091629
 10
4.2723555937
 20
8.2062419063
 10
4.320492614
 20
8.2073746496
 10
4.374279574
 20
8.208507393
 10
4.4320180983
 20
8.2096401363
 10
4.4918850369
 20
8.2107728797
 10
4.551990033
 20
8.2119056231
 10
4.6104352131
 20
8.2130383664
 10
4.6653751139
 20
8.2141711098
 10
4.7150749547
 20
8.2153038532
 10
4.7579654148
 20
8.2164365965
 10
4.7926921861
 20
8.2175693399
 10
4.8181587373
 20
8.2187020833
 10
4.8335609373
 20
8.2198348266
  0
LINE
  5
8C4
100
AcDbEntity
  8
0
100
AcDbLine
 62
7
  6
CONTINUOUS
 10
4.8533769383
 20
8.3195185426
 11
4.8383748463
 21
8.3360231466
  0
LINE
  5
8C5
100
AcDbEntity
  8
0
100
AcDbLine
 62
7
  6
CONTINUOUS
 10
4.8533769383
 20
8.3595185426
 11
4.8383748463
 21
8.3760231466
  0
LINE
  5
8C6
100
AcDbEntity
  8
0
100
AcDbLine
 62
7
  6
CONTINUOUS
 10
4.7144242376
 20
7.8794144726
 11
4.7144242376
 21
7.8494144726
  0
LINE
  5
8C7
100
AcDbEntity
  8
0
100
AcDbLine
 62
7
  6
CONTINUOUS
 10
4.7592318587
 20
7.8794144726
 11
4.7592318587
 21
7.8894144726
  0
LINE
  5
8C8
100
AcDbEntity
  8
0
100
AcDbLine
 62
7
  6
CONTINUOUS
 10
4.1604736289
 20
7.9960231466
 11
4.1608027931
 21
7.9962153576
  0
LWPOLYLINE
  5
8C9
100
AcDbEntity
  8
0
100
AcDbPolyline
 62
7
  6
CONTINUOUS
 90
18
 70
0
 10
4.1604242376
 20
8.0809144726
 10
4.1626241733
 20
8.0816401363
 10
4.1747660783
 20
8.0827728797
 10
4.1971593798
 20
8.0839056231
 10
4.2290969877
 20
8.0850383664
 10
4.2695704409
 20
8.0861711098
 10
4.3173017509
 20
8.0873038532
 10
4.3707837552
 20
8.0884365965
 10
4.4283277076
 20
8.0895693399
 10
4.4881166019
 20
8.0907020833
 10
4.5482625459
 20
8.0918348266
 10
4.6068663728
 20
8.09296757
 10
4.6620776101
 20
8.0941003133
 10
4.7121529092
 20
8.0952330567
 10
4.7555110939
 20
8.0963658001
 10
4.7907830876
 20
8.0974985434
 10
4.8168551427
 20
8.0986312868
 10
4.8329040089
 20
8.0997640302
  0
LINE
  5
8CA
100
AcDbEntity
  8
0
100
AcDbLine
 62
7
  6
CONTINUOUS
 10
4.8366322582
 20
8.3002596054
 11
4.8383748463
 21
8.3008057986
  0
LINE
  5
8CB
100
AcDbEntity
  8
0
100
AcDbLine
 62
7
  6
CONTINUOUS
 10
4.8533769383
 20
8.3995185426
 11
4.8383748463
 21
8.4160231466
  0
LINE
  5
8CC
100
AcDbEntity
  8
0
100
AcDbLine
 62
7
  6
CONTINUOUS
 10
4.7820901181
 20
7.8894144726
 11
4.7820901181
 21
7.8494144726
  0
LINE
  5
8CD
100
AcDbEntity
  8
0
100
AcDbLine
 62
7
  6
CONTINUOUS
 10
4.8194242376
 20
7.8894144726
 11
4.8194242376
 21
7.8494144726
  0
LINE
  5
8CE
100
AcDbEntity
  8
0
100
AcDbLine
 62
7
  6
CONTINUOUS
 10
4.8381742376
 20
8.4669144726
 11
4.8381742376
 21
8.4294144726
  0
LINE
  5
8CF
100
AcDbEntity
  8
0
100
AcDbLine
 62
7
  6
CONTINUOUS
 10
4.8384242376
 20
7.8959144726
 11
4.8384242376
 21
7.9009144726
  0
LINE
  5
8D0
100
AcDbEntity
  8
0
100
AcDbLine
 62
7
  6
CONTINUOUS
 10
4.8384242376
 20
7.9359144726
 11
4.8384242376
 21
7.9409144726
  0
LINE
  5
8D1
100
AcDbEntity
  8
0
100
AcDbLine
 62
7
  6
CONTINUOUS
 10
4.8384242376
 20
7.9759144726
 11
4.8384242376
 21
7.9809144726
  0
LINE
  5
8D2
100
AcDbEntity
  8
0
100
AcDbLine
 62
7
  6
CONTINUOUS
 10
4.8384242376
 20
8.0159144726
 11
4.8384242376
 21
8.0209144726
  0
LINE
  5
8D3
100
AcDbEntity
  8
0
100
AcDbLine
 62
7
  6
CONTINUOUS
 10
4.8384242376
 20
8.0559144726
 11
4.8384242376
 21
8.0609144726
  0
LINE
  5
8D4
100
AcDbEntity
  8
0
100
AcDbLine
 62
7
  6
CONTINUOUS
 10
4.8384242376
 20
8.0959144726
 11
4.8384242376
 21
8.1009144726
  0
LINE
  5
8D5
100
AcDbEntity
  8
0
100
AcDbLine
 62
7
  6
CONTINUOUS
 10
4.8384242376
 20
8.1359144726
 11
4.8384242376
 21
8.1409144726
  0
LINE
  5
8D6
100
AcDbEntity
  8
0
100
AcDbLine
 62
7
  6
CONTINUOUS
 10
4.8384242376
 20
8.1759144726
 11
4.8384242376
 21
8.1809144726
  0
LINE
  5
8D7
100
AcDbEntity
  8
0
100
AcDbLine
 62
7
  6
CONTINUOUS
 10
4.8384242376
 20
8.2159144726
 11
4.8384242376
 21
8.2209144726
  0
LINE
  5
8D8
100
AcDbEntity
  8
0
100
AcDbLine
 62
7
  6
CONTINUOUS
 10
4.8384242376
 20
8.2559144726
 11
4.8384242376
 21
8.2609144726
  0
LINE
  5
8D9
100
AcDbEntity
  8
0
100
AcDbLine
 62
7
  6
CONTINUOUS
 10
4.8384242376
 20
8.2959144726
 11
4.8384242376
 21
8.3009144726
  0
LINE
  5
8DA
100
AcDbEntity
  8
0
100
AcDbLine
 62
7
  6
CONTINUOUS
 10
4.8384242376
 20
8.3359144726
 11
4.8384242376
 21
8.3409144726
  0
LINE
  5
8DB
100
AcDbEntity
  8
0
100
AcDbLine
 62
7
  6
CONTINUOUS
 10
4.8384242376
 20
8.3759144726
 11
4.8384242376
 21
8.3809144726
  0
LINE
  5
8DC
100
AcDbEntity
  8
0
100
AcDbLine
 62
7
  6
CONTINUOUS
 10
4.8384242376
 20
8.4159144726
 11
4.8384242376
 21
8.4209144726
  0
LINE
  5
8DD
100
AcDbEntity
  8
0
100
AcDbLine
 62
7
  6
CONTINUOUS
 10
4.8383748463
 20
8.4208057986
 11
4.8461997991
 21
8.4294144726
  0
LINE
  5
8DE
100
AcDbEntity
  8
0
100
AcDbLine
 62
7
  6
CONTINUOUS
 10
4.8383748463
 20
8.3808057986
 11
4.8533769383
 21
8.3973104026
  0
LINE
  5
8DF
100
AcDbEntity
  8
0
100
AcDbLine
 62
7
  6
CONTINUOUS
 10
4.8383748463
 20
8.3408057986
 11
4.8533769383
 21
8.3573104026
  0
LINE
  5
8E0
100
AcDbEntity
  8
0
100
AcDbLine
 62
7
  6
CONTINUOUS
 10
4.1604736289
 20
8.0760231466
 11
4.1626241733
 21
8.0766401363
  0
LINE
  5
8E1
100
AcDbEntity
  8
0
100
AcDbLine
 62
7
  6
CONTINUOUS
 10
4.8534242376
 20
8.3994144726
 11
4.8534242376
 21
8.3974144726
  0
LINE
  5
8E2
100
AcDbEntity
  8
0
100
AcDbLine
 62
7
  6
CONTINUOUS
 10
4.8534242376
 20
8.3594144726
 11
4.8534242376
 21
8.3574144726
  0
LINE
  5
8E3
100
AcDbEntity
  8
0
100
AcDbLine
 62
7
  6
CONTINUOUS
 10
4.8534242376
 20
8.3194144726
 11
4.8534242376
 21
8.3174144726
  0
LINE
  5
8E4
100
AcDbEntity
  8
0
100
AcDbLine
 62
7
  6
CONTINUOUS
 10
4.8534242376
 20
8.2794144726
 11
4.8534242376
 21
8.2774144726
  0
LINE
  5
8E5
100
AcDbEntity
  8
0
100
AcDbLine
 62
7
  6
CONTINUOUS
 10
4.8534242376
 20
8.2394144726
 11
4.8534242376
 21
8.2374144726
  0
LINE
  5
8E6
100
AcDbEntity
  8
0
100
AcDbLine
 62
7
  6
CONTINUOUS
 10
4.8534242376
 20
8.1994144726
 11
4.8534242376
 21
8.1974144726
  0
LINE
  5
8E7
100
AcDbEntity
  8
0
100
AcDbLine
 62
7
  6
CONTINUOUS
 10
4.8534242376
 20
8.1594144726
 11
4.8534242376
 21
8.1574144726
  0
LINE
  5
8E8
100
AcDbEntity
  8
0
100
AcDbLine
 62
7
  6
CONTINUOUS
 10
4.8534242376
 20
8.1194144726
 11
4.8534242376
 21
8.1174144726
  0
LINE
  5
8E9
100
AcDbEntity
  8
0
100
AcDbLine
 62
7
  6
CONTINUOUS
 10
4.8534242376
 20
8.0794144726
 11
4.8534242376
 21
8.0774144726
  0
LINE
  5
8EA
100
AcDbEntity
  8
0
100
AcDbLine
 62
7
  6
CONTINUOUS
 10
4.8534242376
 20
8.0394144726
 11
4.8534242376
 21
8.0374144726
  0
LINE
  5
8EB
100
AcDbEntity
  8
0
100
AcDbLine
 62
7
  6
CONTINUOUS
 10
4.8534242376
 20
7.9994144726
 11
4.8534242376
 21
7.9974144726
  0
LINE
  5
8EC
100
AcDbEntity
  8
0
100
AcDbLine
 62
7
  6
CONTINUOUS
 10
4.8534242376
 20
7.9594144726
 11
4.8534242376
 21
7.9574144726
  0
LINE
  5
8ED
100
AcDbEntity
  8
0
100
AcDbLine
 62
7
  6
CONTINUOUS
 10
4.8534242376
 20
7.9194144726
 11
4.8534242376
 21
7.9174144726
  0
LINE
  5
8EE
100
AcDbEntity
  8
0
100
AcDbLine
 62
7
  6
CONTINUOUS
 10
4.8533769383
 20
8.3973104026
 11
4.8534242376
 21
8.3974144726
  0
LINE
  5
8EF
100
AcDbEntity
  8
0
100
AcDbLine
 62
7
  6
CONTINUOUS
 10
4.8533769383
 20
8.3573104026
 11
4.8534242376
 21
8.3574144726
  0
LINE
  5
8F0
100
AcDbEntity
  8
0
100
AcDbLine
 62
7
  6
CONTINUOUS
 10
4.8533769383
 20
8.3173104026
 11
4.8534242376
 21
8.3174144726
  0
LINE
  5
8F1
100
AcDbEntity
  8
0
100
AcDbLine
 62
7
  6
CONTINUOUS
 10
4.8533769383
 20
8.2773104026
 11
4.8534242376
 21
8.2774144726
  0
LINE
  5
8F2
100
AcDbEntity
  8
0
100
AcDbLine
 62
7
  6
CONTINUOUS
 10
4.8383748463
 20
8.3008057986
 11
4.8533769383
 21
8.3173104026
  0
LINE
  5
8F3
100
AcDbEntity
  8
0
100
AcDbLine
 62
7
  6
CONTINUOUS
 10
4.8383748463
 20
8.2608057986
 11
4.8533769383
 21
8.2773104026
  0
LWPOLYLINE
  5
8F4
100
AcDbEntity
  8
0
100
AcDbPolyline
 62
7
  6
CONTINUOUS
 90
18
 70
0
 10
4.1604242376
 20
7.9609144726
 10
4.162216217
 20
7.9615693399
 10
4.1737012347
 20
7.9627020833
 10
4.1954712724
 20
7.9638348266
 10
4.2268389201
 20
7.96496757
 10
4.2668137137
 20
7.9661003133
 10
4.3141334105
 20
7.9672330567
 10
4.3673038451
 20
7.9683658001
 10
4.4246461092
 20
7.9694985434
 10
4.4843495654
 20
7.9706312868
 10
4.544529019
 20
7.9717640302
 10
4.6032842454
 20
7.9728967735
 10
4.6587599911
 20
7.9740295169
 10
4.7092045558
 20
7.9751622602
 10
4.7530251032
 20
7.9762950036
 10
4.7888379572
 20
7.977427747
 10
4.815512292
 20
7.9785604903
 10
4.8322058396
 20
7.9796932337
  0
LINE
  5
8F5
100
AcDbEntity
  8
0
100
AcDbLine
 62
7
  6
CONTINUOUS
 10
4.1604736289
 20
7.9560231466
 11
4.162216217
 21
7.9565693399
  0
LINE
  5
8F6
100
AcDbEntity
  8
0
100
AcDbLine
 62
7
  6
CONTINUOUS
 10
4.8362243019
 20
8.1801888089
 11
4.8383748463
 21
8.1808057986
  0
LINE
  5
8F7
100
AcDbEntity
  8
0
100
AcDbLine
 62
7
  6
CONTINUOUS
 10
4.8533769383
 20
8.2373104026
 11
4.8534242376
 21
8.2374144726
  0
LINE
  5
8F8
100
AcDbEntity
  8
0
100
AcDbLine
 62
7
  6
CONTINUOUS
 10
4.8533769383
 20
8.1973104026
 11
4.8534242376
 21
8.1974144726
  0
LINE
  5
8F9
100
AcDbEntity
  8
0
100
AcDbLine
 62
7
  6
CONTINUOUS
 10
4.8533769383
 20
8.1573104026
 11
4.8534242376
 21
8.1574144726
  0
LINE
  5
8FA
100
AcDbEntity
  8
0
100
AcDbLine
 62
7
  6
CONTINUOUS
 10
4.8533769383
 20
8.1173104026
 11
4.8534242376
 21
8.1174144726
  0
LINE
  5
8FB
100
AcDbEntity
  8
0
100
AcDbLine
 62
7
  6
CONTINUOUS
 10
4.8383748463
 20
8.2208057986
 11
4.8533769383
 21
8.2373104026
  0
LINE
  5
8FC
100
AcDbEntity
  8
0
100
AcDbLine
 62
7
  6
CONTINUOUS
 10
4.8383748463
 20
8.1808057986
 11
4.8533769383
 21
8.1973104026
  0
LINE
  5
8FD
100
AcDbEntity
  8
0
100
AcDbLine
 62
7
  6
CONTINUOUS
 10
4.8383748463
 20
8.1408057986
 11
4.8533769383
 21
8.1573104026
  0
LINE
  5
8FE
100
AcDbEntity
  8
0
100
AcDbLine
 62
7
  6
CONTINUOUS
 10
3.7119315678
 20
8.9194144726
 11
5.2869168786
 21
8.9194144726
  0
LINE
  5
8FF
100
AcDbEntity
  8
0
100
AcDbLine
 62
7
  6
CONTINUOUS
 10
5.2884242376
 20
8.9324144726
 11
3.7104242376
 21
8.9324144726
  0
LINE
  5
900
100
AcDbEntity
  8
0
100
AcDbLine
 62
7
  6
CONTINUOUS
 10
4.8533769383
 20
8.0773104026
 11
4.8534242376
 21
8.0774144726
  0
LINE
  5
901
100
AcDbEntity
  8
0
100
AcDbLine
 62
7
  6
CONTINUOUS
 10
4.8533769383
 20
8.0373104026
 11
4.8534242376
 21
8.0374144726
  0
LINE
  5
902
100
AcDbEntity
  8
0
100
AcDbLine
 62
7
  6
CONTINUOUS
 10
4.8533769383
 20
7.9973104026
 11
4.8534242376
 21
7.9974144726
  0
LINE
  5
903
100
AcDbEntity
  8
0
100
AcDbLine
 62
7
  6
CONTINUOUS
 10
4.8533769383
 20
7.9573104026
 11
4.8534242376
 21
7.9574144726
  0
LINE
  5
904
100
AcDbEntity
  8
0
100
AcDbLine
 62
7
  6
CONTINUOUS
 10
4.8383748463
 20
8.1008057986
 11
4.8533769383
 21
8.1173104026
  0
LINE
  5
905
100
AcDbEntity
  8
0
100
AcDbLine
 62
7
  6
CONTINUOUS
 10
4.8383748463
 20
8.0608057986
 11
4.8533769383
 21
8.0773104026
  0
LINE
  5
906
100
AcDbEntity
  8
0
100
AcDbLine
 62
7
  6
CONTINUOUS
 10
4.8376057394
 20
8.0204719948
 11
4.8383748463
 21
8.0208057986
  0
LINE
  5
907
100
AcDbEntity
  8
0
100
AcDbLine
 62
7
  6
CONTINUOUS
 10
4.8534242376
 20
7.9174144726
 11
4.8533769383
 21
7.9173104026
  0
LINE
  5
908
100
AcDbEntity
  8
0
100
AcDbLine
 62
7
  6
CONTINUOUS
 10
4.8383748463
 20
8.0208057986
 11
4.8533769383
 21
8.0373104026
  0
LINE
  5
909
100
AcDbEntity
  8
0
100
AcDbLine
 62
7
  6
CONTINUOUS
 10
4.8383748463
 20
7.9808057986
 11
4.8533769383
 21
7.9973104026
  0
LINE
  5
90A
100
AcDbEntity
  8
0
100
AcDbLine
 62
7
  6
CONTINUOUS
 10
4.8383748463
 20
7.9408057986
 11
4.8533769383
 21
7.9573104026
  0
LINE
  5
90B
100
AcDbEntity
  8
0
100
AcDbLine
 62
9
  6
CONTINUOUS
 10
5.2884242376
 20
9.0124144726
 11
3.7104242376
 21
9.0124144726
  0
LINE
  5
90C
100
AcDbEntity
  8
0
100
AcDbLine
 62
7
  6
CONTINUOUS
 10
4.8383748463
 20
7.9008057986
 11
4.8533769383
 21
7.9173104026
  0
LINE
  5
90D
100
AcDbEntity
  8
0
100
AcDbLine
 62
7
  6
CONTINUOUS
 10
4.8534242376
 20
7.9194144726
 11
4.8514845115
 21
7.9187477239
  0
LINE
  5
90E
100
AcDbEntity
  8
0
100
AcDbLine
 62
7
  6
CONTINUOUS
 10
5.2284242376
 20
9.0724144726
 11
3.7704242376
 21
9.0724144726
  0
LINE
  5
90F
100
AcDbEntity
  8
0
100
AcDbLine
 62
7
  6
CONTINUOUS
 10
5.2589242376
 20
8.9194144726
 11
5.2589242376
 21
8.9324144726
  0
LINE
  5
910
100
AcDbEntity
  8
0
100
AcDbLine
 62
7
  6
CONTINUOUS
 10
5.2869242376
 20
8.9194144726
 11
5.2869242376
 21
8.5394144726
  0
LINE
  5
911
100
AcDbEntity
  8
0
100
AcDbLine
 62
7
  6
CONTINUOUS
 10
5.2884242376
 20
9.0124144726
 11
5.2884242376
 21
8.9324144726
  0
CIRCLE
  5
912
100
AcDbEntity
  8
0
100
AcDbCircle
 62
7
  6
CONTINUOUS
 10
10.5342808475
 20
1.243294839
 40
0.252091
  0
CIRCLE
  5
913
100
AcDbEntity
  8
0
100
AcDbCircle
 62
7
  6
CONTINUOUS
 10
10.5342808475
 20
1.243294839
 40
0.182698
  0
ARC
  5
914
100
AcDbEntity
  8
0
100
AcDbCircle
 62
7
  6
CONTINUOUS
 10
4.1444242376
 20
4.8951267201
 40
0.06
100
AcDbArc
 50
0.0
 51
64.8859091127
  0
ARC
  5
915
100
AcDbEntity
  8
0
100
AcDbCircle
 62
7
  6
CONTINUOUS
 10
4.8544242376
 20
4.8951267201
 40
0.06
100
AcDbArc
 50
115.1140680932
 51
180.0
  0
ARC
  5
916
100
AcDbEntity
  8
0
100
AcDbCircle
 62
7
  6
CONTINUOUS
 10
4.4994242376
 20
5.6646923443
 40
0.789
100
AcDbArc
 50
294.0995156099
 51
245.9004847249
  0
ARC
  5
917
100
AcDbEntity
  8
0
100
AcDbCircle
 62
7
  6
CONTINUOUS
 10
4.4994242376
 20
5.6646923443
 40
0.7875
100
AcDbArc
 50
288.2981548598
 51
251.7018451402
  0
CIRCLE
  5
918
100
AcDbEntity
  8
0
100
AcDbCircle
 62
9
  6
CONTINUOUS
 10
4.4994242376
 20
5.6646923443
 40
0.7275
  0
ARC
  5
919
100
AcDbEntity
  8
0
100
AcDbCircle
 62
7
  6
CONTINUOUS
 10
4.4994242376
 20
5.6646923443
 40
0.354
100
AcDbArc
 50
270.9460697222
 51
269.9999999991
  0
ARC
  5
91A
100
AcDbEntity
  8
0
100
AcDbCircle
 62
7
  6
CONTINUOUS
 10
4.4994242376
 20
5.6646923443
 40
0.32
100
AcDbArc
 50
152.0468131166
 51
207.9531868834
  0
ARC
  5
91B
100
AcDbEntity
  8
0
100
AcDbCircle
 62
7
  6
CONTINUOUS
 10
4.4994242376
 20
5.6646923443
 40
0.32
100
AcDbArc
 50
332.0468131166
 51
27.9531868834
  0
ARC
  5
91C
100
AcDbEntity
  8
0
100
AcDbCircle
 62
7
  6
CONTINUOUS
 10
4.4994242376
 20
5.6646923443
 40
0.306
100
AcDbArc
 50
209.3820066817
 51
330.6179933183
  0
ARC
  5
91D
100
AcDbEntity
  8
0
100
AcDbCircle
 62
7
  6
CONTINUOUS
 10
4.4994242376
 20
5.6646923443
 40
0.306
100
AcDbArc
 50
29.3820066817
 51
150.6179933183
  0
ARC
  5
91E
100
AcDbEntity
  8
0
100
AcDbCircle
 62
7
  6
CONTINUOUS
 10
4.4994242376
 20
5.6646923443
 40
0.3
100
AcDbArc
 50
30.0
 51
150.0
  0
ARC
  5
91F
100
AcDbEntity
  8
0
100
AcDbCircle
 62
7
  6
CONTINUOUS
 10
4.4994242376
 20
5.6646923443
 40
0.3
100
AcDbArc
 50
210.0
 51
330.0
  0
ARC
  5
920
100
AcDbEntity
  8
0
100
AcDbCircle
 62
7
  6
CONTINUOUS
 10
9.1509548157
 20
6.3936923443
 40
0.06
100
AcDbArc
 50
0.0
 51
90.0
  0
ARC
  5
921
100
AcDbEntity
  8
0
100
AcDbCircle
 62
7
  6
CONTINUOUS
 10
8.6779548157
 20
6.3921923443
 40
0.06
100
AcDbArc
 50
90.0
 51
180.0
  0
ARC
  5
922
100
AcDbEntity
  8
0
100
AcDbCircle
 62
7
  6
CONTINUOUS
 10
9.1550296189
 20
6.2346923443
 40
0.0575
100
AcDbArc
 50
347.2959531578
 51
12.7040468422
  0
ARC
  5
923
100
AcDbEntity
  8
0
100
AcDbCircle
 62
7
  6
CONTINUOUS
 10
8.6054548157
 20
5.3134423443
 40
0.0125
100
AcDbArc
 50
0.000000001
 51
90.0
  0
ARC
  5
924
100
AcDbEntity
  8
0
100
AcDbCircle
 62
7
  6
CONTINUOUS
 10
8.6054548157
 20
6.0159423443
 40
0.0125
100
AcDbArc
 50
270.0
 51
359.9999999973
  0
ARC
  5
925
100
AcDbEntity
  8
0
100
AcDbCircle
 62
7
  6
CONTINUOUS
 10
8.0179548157
 20
5.8246923443
 40
0.01
100
AcDbArc
 50
270.0
 51
360.0
  0
ARC
  5
926
100
AcDbEntity
  8
0
100
AcDbCircle
 62
7
  6
CONTINUOUS
 10
8.0179548157
 20
5.5046923443
 40
0.01
100
AcDbArc
 50
0.0
 51
90.0
  0
ARC
  5
927
100
AcDbEntity
  8
0
100
AcDbCircle
 62
7
  6
CONTINUOUS
 10
9.2099226987
 20
4.8767261243
 40
0.0010331094
100
AcDbArc
 50
270.0
 51
360.0
  0
ARC
  5
928
100
AcDbEntity
  8
0
100
AcDbCircle
 62
7
  6
CONTINUOUS
 10
12.409446474
 20
5.6646923443
 40
0.792
100
AcDbArc
 50
251.0723127861
 51
288.9276872139
  0
CIRCLE
  5
929
100
AcDbEntity
  8
0
100
AcDbCircle
 62
7
  6
CONTINUOUS
 10
12.409446474
 20
5.6646923443
 40
0.789
  0
ARC
  5
92A
100
AcDbEntity
  8
0
100
AcDbCircle
 62
9
  6
CONTINUOUS
 10
12.409446474
 20
5.6646923443
 40
0.729
100
AcDbArc
 50
0.0
 51
180.0
  0
CIRCLE
  5
92B
100
AcDbEntity
  8
0
100
AcDbCircle
 62
7
  6
CONTINUOUS
 10
12.534446474
 20
6.2346923443
 40
0.094
  0
CIRCLE
  5
92C
100
AcDbEntity
  8
0
100
AcDbCircle
 62
7
  6
CONTINUOUS
 10
12.284446474
 20
6.2346923443
 40
0.094
  0
CIRCLE
  5
92D
100
AcDbEntity
  8
0
100
AcDbCircle
 62
7
  6
CONTINUOUS
 10
12.534446474
 20
6.2346923443
 40
0.064
  0
CIRCLE
  5
92E
100
AcDbEntity
  8
0
100
AcDbCircle
 62
7
  6
CONTINUOUS
 10
12.284446474
 20
6.2346923443
 40
0.064
  0
ARC
  5
92F
100
AcDbEntity
  8
0
100
AcDbCircle
 62
7
  6
CONTINUOUS
 10
12.764446474
 20
4.8951267201
 40
0.06
100
AcDbArc
 50
117.2839924603
 51
180.0
  0
ARC
  5
930
100
AcDbEntity
  8
0
100
AcDbCircle
 62
7
  6
CONTINUOUS
 10
12.054446474
 20
4.8951267201
 40
0.06
100
AcDbArc
 50
0.0
 51
62.7167297987
  0
CIRCLE
  5
931
100
AcDbEntity
  8
0
100
AcDbCircle
 62
7
  6
CONTINUOUS
 10
12.534446474
 20
6.2346923443
 40
0.0575
  0
CIRCLE
  5
932
100
AcDbEntity
  8
0
100
AcDbCircle
 62
7
  6
CONTINUOUS
 10
12.284446474
 20
6.2346923443
 40
0.0575
  0
CIRCLE
  5
933
100
AcDbEntity
  8
AXIS_COSMETIC_THREADS
100
AcDbCircle
 62
7
  6
CONTINUOUS
 10
12.409446474
 20
5.7566923443
 40
0.035
  0
ARC
  5
934
100
AcDbEntity
  8
0
100
AcDbCircle
 62
7
  6
CONTINUOUS
 10
12.347446474
 20
5.8196923443
 40
0.03
100
AcDbArc
 50
90.0
 51
180.0
  0
ARC
  5
935
100
AcDbEntity
  8
0
100
AcDbCircle
 62
7
  6
CONTINUOUS
 10
12.347446474
 20
5.6946923443
 40
0.03
100
AcDbArc
 50
180.0
 51
270.0
  0
ARC
  5
936
100
AcDbEntity
  8
0
100
AcDbCircle
 62
7
  6
CONTINUOUS
 10
12.472446474
 20
5.6946923443
 40
0.03
100
AcDbArc
 50
270.0
 51
360.0
  0
ARC
  5
937
100
AcDbEntity
  8
0
100
AcDbCircle
 62
7
  6
CONTINUOUS
 10
12.472446474
 20
5.8196923443
 40
0.03
100
AcDbArc
 50
0.0
 51
90.0
  0
CIRCLE
  5
938
100
AcDbEntity
  8
AXIS_COSMETIC_THREADS
100
AcDbCircle
 62
7
  6
CONTINUOUS
 10
12.409446474
 20
5.7566923443
 40
0.01
  0
ARC
  5
939
100
AcDbEntity
  8
0
100
AcDbCircle
 62
7
  6
CONTINUOUS
 10
3.7704242376
 20
9.0124144726
 40
0.06
100
AcDbArc
 50
90.0
 51
180.0
  0
ARC
  5
93A
100
AcDbEntity
  8
0
100
AcDbCircle
 62
7
  6
CONTINUOUS
 10
5.2284242376
 20
9.0124144726
 40
0.06
100
AcDbArc
 50
0.0
 51
90.0
  0
ARC
  5
93B
100
AcDbEntity
  8
0
100
AcDbCircle
 62
7
  6
CONTINUOUS
 10
3.7719242376
 20
8.5394144726
 40
0.06
100
AcDbArc
 50
180.0
 51
270.0
  0
ARC
  5
93C
100
AcDbEntity
  8
0
100
AcDbCircle
 62
7
  6
CONTINUOUS
 10
5.2269242376
 20
8.5394144726
 40
0.06
100
AcDbArc
 50
270.0
 51
360.0
  0
ARC
  5
93D
100
AcDbEntity
  8
0
100
AcDbCircle
 62
7
  6
CONTINUOUS
 10
4.6244242376
 20
9.0164892758
 40
0.0575
100
AcDbArc
 50
77.2959531578
 51
102.7040468422
  0
ARC
  5
93E
100
AcDbEntity
  8
0
100
AcDbCircle
 62
7
  6
CONTINUOUS
 10
4.3744242376
 20
9.0164892758
 40
0.0575
100
AcDbArc
 50
77.2959531578
 51
102.7040468422
  0
ARC
  5
93F
100
AcDbEntity
  8
0
100
AcDbCircle
 62
7
  6
CONTINUOUS
 10
4.1481742376
 20
8.4669144726
 40
0.0125
100
AcDbArc
 50
0.0
 51
89.9999864903
  0
ARC
  5
940
100
AcDbEntity
  8
0
100
AcDbCircle
 62
7
  6
CONTINUOUS
 10
4.8506742376
 20
8.4669144726
 40
0.0125
100
AcDbArc
 50
90.0000135097
 51
180.0
  0
ARC
  5
941
100
AcDbEntity
  8
0
100
AcDbCircle
 62
7
  6
CONTINUOUS
 10
4.7044242376
 20
7.8794144726
 40
0.01
100
AcDbArc
 50
0.0
 51
90.0
  0
ARC
  5
942
100
AcDbEntity
  8
0
100
AcDbCircle
 62
7
  6
CONTINUOUS
 10
4.2944242376
 20
7.8794144726
 40
0.01
100
AcDbArc
 50
90.0
 51
180.0
  0
ENDSEC
  0
SECTION
  2
OBJECTS
  0
DICTIONARY
  5
C
100
AcDbDictionary
280
0
281
1
  3
ACAD_GROUP
350
D
  3
ACAD_MLINESTYLE
350
17
  3
ACAD_LAYOUT
350
1A
  3
ACAD_PLOTSETTINGS
350
19
  3
ACAD_PLOTSTYLENAME
350
E
  0
DICTIONARY
  5
D
102
{ACAD_REACTORS
330
C
102
}
100
AcDbDictionary
280
0
281
1
  0
ACDBDICTIONARYWDFLT
  5
E
102
{ACAD_REACTORS
330
C
102
}
100
AcDbDictionary
281
1
  3
Normal
350
F
100
AcDbDictionaryWithDefault
340
F
  0
DICTIONARY
  5
17
102
{ACAD_REACTORS
330
C
102
}
100
AcDbDictionary
280
0
281
1
  3
Standard
350
18
  0
DICTIONARY
  5
19
102
{ACAD_REACTORS
330
C
102
}
100
AcDbDictionary
281
1
  0
DICTIONARY
  5
1A
102
{ACAD_REACTORS
330
C
102
}
100
AcDbDictionary
281
1
  3
Model
350
943
  3
Layout1
350
944
  0
ACDBPLACEHOLDER
  5
F
102
{ACAD_REACTORS
330
E
102
}
  0
MLINESTYLE
  5
18
102
{ACAD_REACTORS
330
17
102
}
100
AcDbMlineStyle
  2
STANDARD
 70
0
  3

 62
256
 51
90.0
 52
90.0
 71
2
 49
0.5
 62
256
  6
BYLAYER
 49
-0.5
 62
256
  6
BYLAYER
  0
LAYOUT
  5
943
102
{ACAD_REACTORS
330
1A
102
}
100
AcDbPlotSettings
  1

  2
none_device
  4
ANSI_B_(17.00_x_11.00_Inches)
  6

 40
0.0
 41
0.0
 42
0.0
 43
0.0
 44
431.8
 45
279.4
 46
0.0
 47
0.0
 48
0.0
 49
0.0
140
0.0
141
0.0
142
1.0
143
1.0
 70
1024
 72
0
 73
0
 74
0
  7

 75
0
147
1.0
148
0.0
149
0.0
100
AcDbLayout
  1
Model
 70
0
 71
0
 10
0.0
 20
0.0
 11
17.0
 21
11.0
 12
0.0
 22
0.0
 32
0.0
 14
0.0
 24
0.0
 34
0.0
 15
0.0
 25
0.0
 35
0.0
146
0.0
 13
0.0
 23
0.0
 33
0.0
 16
1.0
 26
0.0
 36
0.0
 17
0.0
 27
1.0
 37
0.0
 76
0
330
22B
345
0
346
0
  0
LAYOUT
  5
944
102
{ACAD_REACTORS
330
1A
102
}
100
AcDbPlotSettings
  1

  2
none_device
  4
ANSI_B_(17.00_x_11.00_Inches)
  6

 40
0.0
 41
0.0
 42
0.0
 43
0.0
 44
431.8
 45
279.4
 46
0.0
 47
0.0
 48
0.0
 49
0.0
140
0.0
141
0.0
142
1.0
143
1.0
 70
0
 72
0
 73
0
 74
0
  7

 75
0
147
1.0
148
0.0
149
0.0
100
AcDbLayout
  1
Layout1
 70
0
 71
1
 10
0.0
 20
0.0
 11
17.0
 21
11.0
 12
0.0
 22
0.0
 32
0.0
 14
0.0
 24
0.0
 34
0.0
 15
0.0
 25
0.0
 35
0.0
146
0.0
 13
0.0
 23
0.0
 33
0.0
 16
1.0
 26
0.0
 36
0.0
 17
0.0
 27
1.0
 37
0.0
 76
0
330
22C
345
0
346
0
  0
ENDSEC
  0
EOF
