999
DXF file: 155320_1.dxf
999
Pro/ENGINEER 2009141 by Parametric Technology Corporation
  0
SECTION
  2
HEADER
  9
$ACADVER
  1
AC1015
  9
$DWGCODEPAGE
  3
ANSI_1252
  9
$EXTMAX
 10
17.0
 20
11.0
 30
0.0
  9
$EXTMIN
 10
0.0
 20
0.0
 30
0.0
  9
$LIMMIN
 10
0.0
 20
0.0
  9
$LIMMAX
 10
17.0
 20
11.0
  9
$VIEWCTR
 10
8.5
 20
5.5
  9
$VIEWSIZE
 40
11.0
  9
$CLAYER
  8
0
  9
$LTSCALE
 40
0.935
  9
$CELTYPE
  6
BYLAYER
  9
$DIMSCALE
 40
1.0
  9
$DIMASZ
 40
0.1875
  9
$DIMEXO
 40
0.10625
  9
$DIMDLI
 40
0.646
  9
$DIMEXE
 40
0.306
  9
$DIMCEN
 40
0.153
  9
$DIMLFAC
 40
1.0
  9
$DIMBLK
  1
_FILLED
  9
$DIMTXT
 40
0.1
  9
$DIMTOL
 70
1
  9
$DIMLIM
 70
0
  9
$DIMTFAC
 40
1.0
  9
$DIMTP
 40
0.005
  9
$DIMTM
 40
0.005
  9
$PDMODE
 70
3
  9
$PDSIZE
 40
0.3125
  9
$HANDSEED
  5
94A
  9
$TILEMODE
 70
1
  9
$MEASUREMENT
 70
0
  9
$INSUNITS
 70
1
  0
ENDSEC
  0
SECTION
  2
CLASSES
  0
CLASS
  1
ACDBDICTIONARYWDFLT
  2
AcDbDictionaryWithDefault
  3
AutoCAD 2000
 90
0
280
0
281
0
  0
CLASS
  1
ACDBPLACEHOLDER
  2
AcDbPlaceHolder
  3
AutoCAD 2000
 90
0
280
0
281
0
  0
CLASS
  1
LAYOUT
  2
AcDbLayout
  3
AutoCAD 2000
 90
0
280
0
281
0
  0
ENDSEC
  0
SECTION
  2
TABLES
  0
TABLE
  2
VPORT
  5
8
100
AcDbSymbolTable
 70
2
  0
VPORT
  5
1F4
100
AcDbSymbolTableRecord
100
AcDbViewportTableRecord
  2
*ACTIVE
 70
0
 10
0.0
 20
0.0
 11
1.0
 21
1.0
 12
8.5
 22
5.5
 13
0.0
 23
0.0
 14
1.0
 24
1.0
 15
0.0
 25
0.0
 16
0.0
 26
0.0
 36
1.0
 17
0.0
 27
0.0
 37
0.0
 40
11.0
 41
1.5454545455
 42
50.0
 43
0.0
 44
0.0
 50
0.0
 51
0.0
 71
0
 72
100
 73
1
 74
1
 75
0
 76
0
 77
0
 78
0
  0
ENDTAB
  0
TABLE
  2
LTYPE
  5
5
100
AcDbSymbolTable
 70
6
  0
LTYPE
  5
14
100
AcDbSymbolTableRecord
100
AcDbLinetypeTableRecord
  2
BYBLOCK
 70
0
  3

 72
65
 73
0
 40
0.0
  0
LTYPE
  5
15
100
AcDbSymbolTableRecord
100
AcDbLinetypeTableRecord
  2
BYLAYER
 70
0
  3

 72
65
 73
0
 40
0.0
  0
LTYPE
  5
16
100
AcDbSymbolTableRecord
100
AcDbLinetypeTableRecord
  2
CONTINUOUS
 70
64
  3
Solid line
 72
65
 73
0
 40
0.0
  0
LTYPE
  5
1F5
100
AcDbSymbolTableRecord
100
AcDbLinetypeTableRecord
  2
CENTER
 70
64
  3
____ _ ____ _ ____ _ ____ _ ____ _ ____ _ ____
 72
65
 73
4
 40
0.6
 49
0.375
 74
0
 49
-0.075
 74
0
 49
0.075
 74
0
 49
-0.075
 74
0
  0
LTYPE
  5
1F6
100
AcDbSymbolTableRecord
100
AcDbLinetypeTableRecord
  2
HIDDEN
 70
64
  3
- - - - - - - - - - - - - - - - - - - -
 72
65
 73
2
 40
0.2
 49
0.1
 74
0
 49
-0.1
 74
0
  0
LTYPE
  5
1F7
100
AcDbSymbolTableRecord
100
AcDbLinetypeTableRecord
  2
PHANTOM
 70
64
  3
_____ _ _ _____ _ _ _____ _ _ _____
 72
65
 73
6
 40
0.8
 49
0.45
 74
0
 49
-0.05
 74
0
 49
0.1
 74
0
 49
-0.05
 74
0
 49
0.1
 74
0
 49
-0.05
 74
0
  0
LTYPE
  5
1F8
100
AcDbSymbolTableRecord
100
AcDbLinetypeTableRecord
  2
DOT
 70
64
  3
. . . . . . . . . . . . . . . . . . . .
 72
65
 73
2
 40
0.2
 49
0.1
 74
0
 49
-0.1
 74
0
  0
LTYPE
  5
1F9
100
AcDbSymbolTableRecord
100
AcDbLinetypeTableRecord
  2
DASHED
 70
64
  3
- - - - - - - - - - - - - - - - - - - -
 72
65
 73
2
 40
0.2
 49
0.1
 74
0
 49
-0.1
 74
0
  0
ENDTAB
  0
TABLE
  2
LAYER
  5
2
100
AcDbSymbolTable
 70
36
  0
LAYER
  5
10
100
AcDbSymbolTableRecord
100
AcDbLayerTableRecord
  2
0
 70
0
 62
7
  6
CONTINUOUS
370
-3
390
F
  0
LAYER
  5
1FA
100
AcDbSymbolTableRecord
100
AcDbLayerTableRecord
  2
DEFAULT_1
 70
0
 62
7
  6
CENTER
370
-3
390
F
  0
LAYER
  5
1FB
100
AcDbSymbolTableRecord
100
AcDbLayerTableRecord
  2
DEFAULT_2
 70
0
 62
8
  6
HIDDEN
370
-3
390
F
  0
LAYER
  5
1FC
100
AcDbSymbolTableRecord
100
AcDbLayerTableRecord
  2
DEFAULT_3
 70
0
 62
7
  6
PHANTOM
370
-3
390
F
  0
LAYER
  5
1FD
100
AcDbSymbolTableRecord
100
AcDbLayerTableRecord
  2
01_ALL_DTM_PLN
 70
0
 62
7
  6
CONTINUOUS
370
-3
390
F
  0
LAYER
  5
1FE
100
AcDbSymbolTableRecord
100
AcDbLayerTableRecord
  2
01__ASM_ALL_DTM_PLN
 70
0
 62
7
  6
CONTINUOUS
370
-3
390
F
  0
LAYER
  5
1FF
100
AcDbSymbolTableRecord
100
AcDbLayerTableRecord
  2
01__ASM_DEF_DTM_PLN
 70
0
 62
7
  6
CONTINUOUS
370
-3
390
F
  0
LAYER
  5
200
100
AcDbSymbolTableRecord
100
AcDbLayerTableRecord
  2
01___PRT_ALL_DTM_PLN
 70
0
 62
7
  6
CONTINUOUS
370
-3
390
F
  0
LAYER
  5
201
100
AcDbSymbolTableRecord
100
AcDbLayerTableRecord
  2
01___PRT_DEF_DTM_PLN
 70
0
 62
7
  6
CONTINUOUS
370
-3
390
F
  0
LAYER
  5
202
100
AcDbSymbolTableRecord
100
AcDbLayerTableRecord
  2
02_ALL_AXES
 70
0
 62
7
  6
CONTINUOUS
370
-3
390
F
  0
LAYER
  5
203
100
AcDbSymbolTableRecord
100
AcDbLayerTableRecord
  2
02__ASM_ALL_AXES
 70
0
 62
7
  6
CONTINUOUS
370
-3
390
F
  0
LAYER
  5
204
100
AcDbSymbolTableRecord
100
AcDbLayerTableRecord
  2
02___PRT_ALL_AXES
 70
0
 62
7
  6
CONTINUOUS
370
-3
390
F
  0
LAYER
  5
205
100
AcDbSymbolTableRecord
100
AcDbLayerTableRecord
  2
03_ALL_CURVES
 70
0
 62
7
  6
CONTINUOUS
370
-3
390
F
  0
LAYER
  5
206
100
AcDbSymbolTableRecord
100
AcDbLayerTableRecord
  2
03__ASM_ALL_CURVES
 70
0
 62
7
  6
CONTINUOUS
370
-3
390
F
  0
LAYER
  5
207
100
AcDbSymbolTableRecord
100
AcDbLayerTableRecord
  2
03___PRT_ALL_CURVES
 70
0
 62
7
  6
CONTINUOUS
370
-3
390
F
  0
LAYER
  5
208
100
AcDbSymbolTableRecord
100
AcDbLayerTableRecord
  2
04_ALL_DTM_PNT
 70
0
 62
7
  6
CONTINUOUS
370
-3
390
F
  0
LAYER
  5
209
100
AcDbSymbolTableRecord
100
AcDbLayerTableRecord
  2
04__ASM_ALL_DTM_PNT
 70
0
 62
7
  6
CONTINUOUS
370
-3
390
F
  0
LAYER
  5
20A
100
AcDbSymbolTableRecord
100
AcDbLayerTableRecord
  2
04___PRT_ALL_DTM_PNT
 70
0
 62
7
  6
CONTINUOUS
370
-3
390
F
  0
LAYER
  5
20B
100
AcDbSymbolTableRecord
100
AcDbLayerTableRecord
  2
05_ALL_DTM_CSYS
 70
0
 62
7
  6
CONTINUOUS
370
-3
390
F
  0
LAYER
  5
20C
100
AcDbSymbolTableRecord
100
AcDbLayerTableRecord
  2
05__ASM_ALL_DTM_CSYS
 70
0
 62
7
  6
CONTINUOUS
370
-3
390
F
  0
LAYER
  5
20D
100
AcDbSymbolTableRecord
100
AcDbLayerTableRecord
  2
05__ASM_DEF_DTM_CSYS
 70
0
 62
7
  6
CONTINUOUS
370
-3
390
F
  0
LAYER
  5
20E
100
AcDbSymbolTableRecord
100
AcDbLayerTableRecord
  2
05___PRT_ALL_DTM_CSYS
 70
0
 62
7
  6
CONTINUOUS
370
-3
390
F
  0
LAYER
  5
20F
100
AcDbSymbolTableRecord
100
AcDbLayerTableRecord
  2
05___PRT_DEF_DTM_CSYS
 70
0
 62
7
  6
CONTINUOUS
370
-3
390
F
  0
LAYER
  5
210
100
AcDbSymbolTableRecord
100
AcDbLayerTableRecord
  2
06_ALL_SURFS
 70
0
 62
7
  6
CONTINUOUS
370
-3
390
F
  0
LAYER
  5
211
100
AcDbSymbolTableRecord
100
AcDbLayerTableRecord
  2
06__ASM_ALL_SURFS
 70
0
 62
7
  6
CONTINUOUS
370
-3
390
F
  0
LAYER
  5
212
100
AcDbSymbolTableRecord
100
AcDbLayerTableRecord
  2
06___PRT_ALL_SURFS
 70
0
 62
7
  6
CONTINUOUS
370
-3
390
F
  0
LAYER
  5
213
100
AcDbSymbolTableRecord
100
AcDbLayerTableRecord
  2
07__ASM_ALL_SKELETONS
 70
0
 62
7
  6
CONTINUOUS
370
-3
390
F
  0
LAYER
  5
214
100
AcDbSymbolTableRecord
100
AcDbLayerTableRecord
  2
1
 70
0
 62
7
  6
CONTINUOUS
370
-3
390
F
  0
LAYER
  5
215
100
AcDbSymbolTableRecord
100
AcDbLayerTableRecord
  2
10
 70
0
 62
7
  6
CONTINUOUS
370
-3
390
F
  0
LAYER
  5
216
100
AcDbSymbolTableRecord
100
AcDbLayerTableRecord
  2
11
 70
0
 62
7
  6
CONTINUOUS
370
-3
390
F
  0
LAYER
  5
217
100
AcDbSymbolTableRecord
100
AcDbLayerTableRecord
  2
12
 70
0
 62
7
  6
CONTINUOUS
370
-3
390
F
  0
LAYER
  5
218
100
AcDbSymbolTableRecord
100
AcDbLayerTableRecord
  2
13
 70
0
 62
7
  6
CONTINUOUS
370
-3
390
F
  0
LAYER
  5
219
100
AcDbSymbolTableRecord
100
AcDbLayerTableRecord
  2
14
 70
0
 62
7
  6
CONTINUOUS
370
-3
390
F
  0
LAYER
  5
21A
100
AcDbSymbolTableRecord
100
AcDbLayerTableRecord
  2
15
 70
0
 62
7
  6
CONTINUOUS
370
-3
390
F
  0
LAYER
  5
21B
100
AcDbSymbolTableRecord
100
AcDbLayerTableRecord
  2
16
 70
0
 62
7
  6
CONTINUOUS
370
-3
390
F
  0
LAYER
  5
21C
100
AcDbSymbolTableRecord
100
AcDbLayerTableRecord
  2
17
 70
0
 62
7
  6
CONTINUOUS
370
-3
390
F
  0
LAYER
  5
21D
100
AcDbSymbolTableRecord
100
AcDbLayerTableRecord
  2
18
 70
0
 62
7
  6
CONTINUOUS
370
-3
390
F
  0
LAYER
  5
21E
100
AcDbSymbolTableRecord
100
AcDbLayerTableRecord
  2
19
 70
0
 62
7
  6
CONTINUOUS
370
-3
390
F
  0
LAYER
  5
21F
100
AcDbSymbolTableRecord
100
AcDbLayerTableRecord
  2
2
 70
0
 62
7
  6
CONTINUOUS
370
-3
390
F
  0
LAYER
  5
220
100
AcDbSymbolTableRecord
100
AcDbLayerTableRecord
  2
20
 70
0
 62
7
  6
CONTINUOUS
370
-3
390
F
  0
LAYER
  5
221
100
AcDbSymbolTableRecord
100
AcDbLayerTableRecord
  2
21
 70
0
 62
7
  6
CONTINUOUS
370
-3
390
F
  0
LAYER
  5
222
100
AcDbSymbolTableRecord
100
AcDbLayerTableRecord
  2
22
 70
0
 62
7
  6
CONTINUOUS
370
-3
390
F
  0
LAYER
  5
223
100
AcDbSymbolTableRecord
100
AcDbLayerTableRecord
  2
23
 70
0
 62
7
  6
CONTINUOUS
370
-3
390
F
  0
LAYER
  5
224
100
AcDbSymbolTableRecord
100
AcDbLayerTableRecord
  2
24
 70
0
 62
7
  6
CONTINUOUS
370
-3
390
F
  0
LAYER
  5
225
100
AcDbSymbolTableRecord
100
AcDbLayerTableRecord
  2
25
 70
0
 62
7
  6
CONTINUOUS
370
-3
390
F
  0
LAYER
  5
226
100
AcDbSymbolTableRecord
100
AcDbLayerTableRecord
  2
26
 70
0
 62
7
  6
CONTINUOUS
370
-3
390
F
  0
LAYER
  5
227
100
AcDbSymbolTableRecord
100
AcDbLayerTableRecord
  2
27
 70
0
 62
7
  6
CONTINUOUS
370
-3
390
F
  0
LAYER
  5
228
100
AcDbSymbolTableRecord
100
AcDbLayerTableRecord
  2
28
 70
0
 62
7
  6
CONTINUOUS
370
-3
390
F
  0
LAYER
  5
229
100
AcDbSymbolTableRecord
100
AcDbLayerTableRecord
  2
29
 70
0
 62
7
  6
CONTINUOUS
370
-3
390
F
  0
LAYER
  5
22A
100
AcDbSymbolTableRecord
100
AcDbLayerTableRecord
  2
3
 70
0
 62
7
  6
CONTINUOUS
370
-3
390
F
  0
LAYER
  5
22B
100
AcDbSymbolTableRecord
100
AcDbLayerTableRecord
  2
30
 70
0
 62
7
  6
CONTINUOUS
370
-3
390
F
  0
LAYER
  5
22C
100
AcDbSymbolTableRecord
100
AcDbLayerTableRecord
  2
31
 70
0
 62
7
  6
CONTINUOUS
370
-3
390
F
  0
LAYER
  5
22D
100
AcDbSymbolTableRecord
100
AcDbLayerTableRecord
  2
32
 70
0
 62
7
  6
CONTINUOUS
370
-3
390
F
  0
LAYER
  5
22E
100
AcDbSymbolTableRecord
100
AcDbLayerTableRecord
  2
4
 70
0
 62
7
  6
CONTINUOUS
370
-3
390
F
  0
LAYER
  5
22F
100
AcDbSymbolTableRecord
100
AcDbLayerTableRecord
  2
5
 70
0
 62
7
  6
CONTINUOUS
370
-3
390
F
  0
LAYER
  5
230
100
AcDbSymbolTableRecord
100
AcDbLayerTableRecord
  2
6
 70
0
 62
7
  6
CONTINUOUS
370
-3
390
F
  0
LAYER
  5
231
100
AcDbSymbolTableRecord
100
AcDbLayerTableRecord
  2
7
 70
0
 62
7
  6
CONTINUOUS
370
-3
390
F
  0
LAYER
  5
232
100
AcDbSymbolTableRecord
100
AcDbLayerTableRecord
  2
8
 70
0
 62
7
  6
CONTINUOUS
370
-3
390
F
  0
LAYER
  5
233
100
AcDbSymbolTableRecord
100
AcDbLayerTableRecord
  2
9
 70
0
 62
7
  6
CONTINUOUS
370
-3
390
F
  0
LAYER
  5
234
100
AcDbSymbolTableRecord
100
AcDbLayerTableRecord
  2
AXIS
 70
0
 62
7
  6
CONTINUOUS
370
-3
390
F
  0
LAYER
  5
235
100
AcDbSymbolTableRecord
100
AcDbLayerTableRecord
  2
AXIS_COSMETIC_THREADS
 70
0
 62
7
  6
CONTINUOUS
370
-3
390
F
  0
LAYER
  5
236
100
AcDbSymbolTableRecord
100
AcDbLayerTableRecord
  2
DATUM_CURVES
 70
0
 62
7
  6
CONTINUOUS
370
-3
390
F
  0
LAYER
  5
237
100
AcDbSymbolTableRecord
100
AcDbLayerTableRecord
  2
DATUM_PLANES
 70
0
 62
7
  6
CONTINUOUS
370
-3
390
F
  0
LAYER
  5
238
100
AcDbSymbolTableRecord
100
AcDbLayerTableRecord
  2
MATTE_OUTLINE
 70
0
 62
7
  6
CONTINUOUS
370
-3
390
F
  0
LAYER
  5
239
100
AcDbSymbolTableRecord
100
AcDbLayerTableRecord
  2
NOTES
 70
0
 62
7
  6
CONTINUOUS
370
-3
390
F
  0
LAYER
  5
23A
100
AcDbSymbolTableRecord
100
AcDbLayerTableRecord
  2
QUILTS
 70
0
 62
7
  6
CONTINUOUS
370
-3
390
F
  0
LAYER
  5
23B
100
AcDbSymbolTableRecord
100
AcDbLayerTableRecord
  2
SCHEME_DIMS
 70
0
 62
7
  6
CONTINUOUS
370
-3
390
F
  0
LAYER
  5
23C
100
AcDbSymbolTableRecord
100
AcDbLayerTableRecord
  2
SYMBOLS
 70
0
 62
7
  6
CONTINUOUS
370
-3
390
F
  0
LAYER
  5
23D
100
AcDbSymbolTableRecord
100
AcDbLayerTableRecord
  2
XSEC_DATUMS
 70
0
 62
7
  6
CONTINUOUS
370
-3
390
F
  0
ENDTAB
  0
TABLE
  2
STYLE
  5
3
100
AcDbSymbolTable
 70
1
  0
STYLE
  5
11
100
AcDbSymbolTableRecord
100
AcDbTextStyleTableRecord
  2
STANDARD
 70
0
 40
0.0
 41
1.0
 50
0.0
 71
0
 42
0.2
  3
txt
  4

  0
STYLE
  5
23E
100
AcDbSymbolTableRecord
100
AcDbTextStyleTableRecord
  2
TEXTSTYLE_1
 70
0
 40
0.0
 41
0.8
 50
0.0
 71
0
 42
0.2
  3
gdt
  4

  0
STYLE
  5
23F
100
AcDbSymbolTableRecord
100
AcDbTextStyleTableRecord
  2
TEXTSTYLE_2
 70
0
 40
0.0
 41
0.8
 50
0.0
 71
0
 42
0.2
  3
txt
  4

  0
STYLE
  5
240
100
AcDbSymbolTableRecord
100
AcDbTextStyleTableRecord
  2
TEXTSTYLE_3
 70
0
 40
0.0
 41
0.85
 50
0.0
 71
0
 42
0.2
  3
txt
  4

  0
STYLE
  5
241
100
AcDbSymbolTableRecord
100
AcDbTextStyleTableRecord
  2
TEXTSTYLE_4
 70
0
 40
0.0
 41
0.92
 50
0.0
 71
0
 42
0.2
  3
txt
  4

  0
STYLE
  5
242
100
AcDbSymbolTableRecord
100
AcDbTextStyleTableRecord
  2
TEXTSTYLE_5
 70
0
 40
0.0
 41
1.0
 50
0.0
 71
0
 42
0.2
  3
gdt
  4

  0
ENDTAB
  0
TABLE
  2
VIEW
  5
6
100
AcDbSymbolTable
 70
0
  0
ENDTAB
  0
TABLE
  2
UCS
  5
7
100
AcDbSymbolTable
 70
0
  0
ENDTAB
  0
TABLE
  2
APPID
  5
9
100
AcDbSymbolTable
 70
1
  0
APPID
  5
243
100
AcDbSymbolTableRecord
100
AcDbRegAppTableRecord
  2
ACAD
 70
0
  0
ENDTAB
  0
TABLE
  2
BLOCK_RECORD
  5
1
100
AcDbSymbolTable
 70
0
  0
BLOCK_RECORD
  5
244
100
AcDbSymbolTableRecord
100
AcDbBlockTableRecord
  2
*Model_Space
  0
BLOCK_RECORD
  5
245
100
AcDbSymbolTableRecord
100
AcDbBlockTableRecord
  2
*Paper_Space
  0
BLOCK_RECORD
  5
246
100
AcDbSymbolTableRecord
100
AcDbBlockTableRecord
  2
_FILLED
  0
BLOCK_RECORD
  5
247
100
AcDbSymbolTableRecord
100
AcDbBlockTableRecord
  2
*D0
  0
BLOCK_RECORD
  5
248
100
AcDbSymbolTableRecord
100
AcDbBlockTableRecord
  2
*D1
  0
BLOCK_RECORD
  5
249
100
AcDbSymbolTableRecord
100
AcDbBlockTableRecord
  2
*D2
  0
BLOCK_RECORD
  5
24A
100
AcDbSymbolTableRecord
100
AcDbBlockTableRecord
  2
*D3
  0
BLOCK_RECORD
  5
24B
100
AcDbSymbolTableRecord
100
AcDbBlockTableRecord
  2
*D4
  0
BLOCK_RECORD
  5
24C
100
AcDbSymbolTableRecord
100
AcDbBlockTableRecord
  2
BANNER_LOGO_TITLEBLOCK_BL0
  0
ENDTAB
  0
TABLE
  2
DIMSTYLE
  5
A
100
AcDbSymbolTable
 70
1
100
AcDbDimStyleTable
 71
0
  0
DIMSTYLE
105
24D
100
AcDbSymbolTableRecord
100
AcDbDimStyleTableRecord
  2
STANDARD
 70
0
  3

  4

 40
1.0
 41
0.1875
 42
0.0625
 43
0.38
 44
0.18
 45
0.0
 46
0.0
 47
0.005
 48
0.005
140
0.1
141
0.09
142
0.0
143
25.4
144
1.0
145
0.0
146
1.0
147
0.09
 71
1.0
 72
0.0
 73
1
 74
1
 75
0
 76
0
 77
0
 78
4
170
0
171
2
172
0
173
0
174
0
175
0
176
0
177
0
178
0
270
2
271
3
272
3
273
2
274
2
275
0
280
0
281
0
282
0
283
1
284
4
285
0
286
0
287
3
288
0
340
11
341
246
342
246
343
246
344
246
  0
DIMSTYLE
105
24E
100
AcDbSymbolTableRecord
100
AcDbDimStyleTableRecord
  2
DIMSTYLE_1
 70
0
  3

  4

 40
1.0
 41
0.1875
 42
0.0625
 43
0.38
 44
0.18
 45
0.0
 46
0.0
 47
0.1
 48
0.1
140
0.1
141
0.09
142
0.0
143
25.4
144
1.0
145
0.0
146
1.0
147
0.09
 71
0.0
 72
0.0
 73
1
 74
1
 75
0
 76
0
 77
0
 78
4
170
0
171
2
172
0
173
0
174
0
175
0
176
0
177
0
178
0
270
2
271
1
272
1
273
2
274
2
275
0
280
0
281
0
282
0
283
1
284
4
285
0
286
0
287
3
288
0
340
11
341
246
342
246
343
246
344
246
  0
ENDTAB
  0
ENDSEC
  0
SECTION
  2
BLOCKS
  0
BLOCK
  5
20
100
AcDbEntity
  8
0
100
AcDbBlockBegin
  2
*Model_Space
 70
0
 10
0.0
 20
0.0
 30
0.0
  3
*Model_Space
  1

  0
ENDBLK
  5
21
100
AcDbEntity
  8
0
100
AcDbBlockEnd
  0
BLOCK
  5
1C
100
AcDbEntity
  8
0
100
AcDbBlockBegin
  2
*Paper_Space
 70
0
 10
0.0
 20
0.0
 30
0.0
  3
*Paper_Space
  1

  0
ENDBLK
  5
1D
100
AcDbEntity
  8
0
100
AcDbBlockEnd
  0
BLOCK
  5
24F
100
AcDbEntity
  8
0
100
AcDbBlockBegin
 62
2
  6
CONTINUOUS
  2
BANNER_LOGO_TITLEBLOCK_BL0
 70
64
 10
12.9086867042
 20
2.5403783405
  3
BANNER_LOGO_TITLEBLOCK_BL0
  1

  0
ELLIPSE
  5
250
100
AcDbEntity
  8
0
100
AcDbEllipse
 62
2
  6
CONTINUOUS
 10
12.9046654608
 20
2.5403783405
 30
0.0
 11
-0.8250004575
 21
0.0
 31
0.0
 40
0.218572
 41
0.0
 42
6.2831853072
  0
ARC
  5
251
100
AcDbEntity
  8
0
100
AcDbCircle
 62
2
  6
CONTINUOUS
 10
12.400005721
 20
2.5168763464
 40
0.0153945295
100
AcDbArc
 50
354.0454548824
 51
5.1878013979
  0
ARC
  5
252
100
AcDbEntity
  8
0
100
AcDbCircle
 62
2
  6
CONTINUOUS
 10
12.3931760319
 20
2.5166878286
 40
0.0222174455
100
AcDbArc
 50
4.0793399388
 51
69.834329283
  0
LINE
  5
253
100
AcDbEntity
  8
0
100
AcDbLine
 62
2
  6
CONTINUOUS
 10
12.4008351814
 20
2.5375433389
 11
12.3907841758
 21
2.5410923409
  0
LINE
  5
254
100
AcDbEntity
  8
0
100
AcDbLine
 62
2
  6
CONTINUOUS
 10
12.3907841758
 20
2.5410923409
 11
12.3990241804
 21
2.5458683435
  0
ARC
  5
255
100
AcDbEntity
  8
0
100
AcDbCircle
 62
2
  6
CONTINUOUS
 10
12.3771587979
 20
2.5826952352
 40
0.0428289026
100
AcDbArc
 50
300.6990502959
 51
319.0591802498
  0
ARC
  5
256
100
AcDbEntity
  8
0
100
AcDbCircle
 62
2
  6
CONTINUOUS
 10
12.3971873948
 20
2.5665668817
 40
0.0171568255
100
AcDbArc
 50
315.9145124245
 51
16.0049121282
  0
ARC
  5
257
100
AcDbEntity
  8
0
100
AcDbCircle
 62
2
  6
CONTINUOUS
 10
12.3922357827
 20
2.5632132173
 40
0.0229166529
100
AcDbArc
 50
20.6563876465
 51
62.3316896973
  0
ARC
  5
258
100
AcDbEntity
  8
0
100
AcDbCircle
 62
2
  6
CONTINUOUS
 10
12.371573659
 20
2.5302846524
 40
0.061747717
100
AcDbArc
 50
59.5385584989
 51
90.0050977555
  0
LINE
  5
259
100
AcDbEntity
  8
0
100
AcDbLine
 62
2
  6
CONTINUOUS
 10
12.3715681652
 20
2.5920323691
 11
12.2055050731
 21
2.5920323691
  0
ARC
  5
25A
100
AcDbEntity
  8
0
100
AcDbCircle
 62
2
  6
CONTINUOUS
 10
12.2055050712
 20
2.5895573696
 40
0.0024749995
100
AcDbArc
 50
89.9999571957
 51
180.0000428043
  0
LINE
  5
25B
100
AcDbEntity
  8
0
100
AcDbLine
 62
2
  6
CONTINUOUS
 10
12.2030300717
 20
2.5895573678
 11
12.2030300717
 21
2.5697573568
  0
ARC
  5
25C
100
AcDbEntity
  8
0
100
AcDbCircle
 62
2
  6
CONTINUOUS
 10
12.2055050712
 20
2.5697573549
 40
0.0024749995
100
AcDbArc
 50
179.9999571957
 51
270.0000428043
  0
LINE
  5
25D
100
AcDbEntity
  8
0
100
AcDbLine
 62
2
  6
CONTINUOUS
 10
12.2055050731
 20
2.5672823554
 11
12.2294470864
 21
2.5672823554
  0
ARC
  5
25E
100
AcDbEntity
  8
0
100
AcDbCircle
 62
2
  6
CONTINUOUS
 10
12.2294470882
 20
2.5648073559
 40
0.0024749995
100
AcDbArc
 50
359.9999571957
 51
90.0000428043
  0
LINE
  5
25F
100
AcDbEntity
  8
0
100
AcDbLine
 62
2
  6
CONTINUOUS
 10
12.2319220877
 20
2.564807354
 11
12.2319220877
 21
2.5184523283
  0
ARC
  5
260
100
AcDbEntity
  8
0
100
AcDbCircle
 62
2
  6
CONTINUOUS
 10
12.2294470882
 20
2.5184523265
 40
0.0024749995
100
AcDbArc
 50
269.9999571957
 51
0.0000428043
  0
LINE
  5
261
100
AcDbEntity
  8
0
100
AcDbLine
 62
2
  6
CONTINUOUS
 10
12.2294470864
 20
2.515977327
 11
12.2055050731
 21
2.515977327
  0
ARC
  5
262
100
AcDbEntity
  8
0
100
AcDbCircle
 62
2
  6
CONTINUOUS
 10
12.2055050712
 20
2.5135023274
 40
0.0024749995
100
AcDbArc
 50
89.9999571957
 51
180.0000428043
  0
LINE
  5
263
100
AcDbEntity
  8
0
100
AcDbLine
 62
2
  6
CONTINUOUS
 10
12.2030300717
 20
2.5135023256
 11
12.2030300717
 21
2.4937023146
  0
ARC
  5
264
100
AcDbEntity
  8
0
100
AcDbCircle
 62
2
  6
CONTINUOUS
 10
12.2055050712
 20
2.4937023128
 40
0.0024749995
100
AcDbArc
 50
179.9999571957
 51
270.0000428043
  0
LINE
  5
265
100
AcDbEntity
  8
0
100
AcDbLine
 62
2
  6
CONTINUOUS
 10
12.2055050731
 20
2.4912273132
 11
12.3819511709
 21
2.4912273132
  0
ARC
  5
266
100
AcDbEntity
  8
0
100
AcDbCircle
 62
2
  6
CONTINUOUS
 10
12.3792298263
 20
2.539634765
 40
0.048483885
100
AcDbArc
 50
273.21763719
 51
303.0749121182
  0
ARC
  5
267
100
AcDbEntity
  8
0
100
AcDbCircle
 62
2
  6
CONTINUOUS
 10
12.3940692204
 20
2.5168671561
 40
0.0213072145
100
AcDbArc
 50
303.0488228549
 51
355.7263138674
  0
LINE
  5
268
100
AcDbEntity
  8
0
100
AcDbLine
 62
2
  6
CONTINUOUS
 10
12.2949101227
 20
2.5499573458
 11
12.3362731456
 21
2.5499573458
  0
ARC
  5
269
100
AcDbEntity
  8
0
100
AcDbCircle
 62
2
  6
CONTINUOUS
 10
12.3362731456
 20
2.5586198506
 40
0.0086625048
100
AcDbArc
 50
270.0
 51
90.0
  0
LINE
  5
26A
100
AcDbEntity
  8
0
100
AcDbLine
 62
2
  6
CONTINUOUS
 10
12.3362731456
 20
2.5672823554
 11
12.2949101227
 21
2.5672823554
  0
ARC
  5
26B
100
AcDbEntity
  8
0
100
AcDbCircle
 62
2
  6
CONTINUOUS
 10
12.2949101208
 20
2.5648073559
 40
0.0024749995
100
AcDbArc
 50
89.9999571957
 51
180.0000428043
  0
LINE
  5
26C
100
AcDbEntity
  8
0
100
AcDbLine
 62
2
  6
CONTINUOUS
 10
12.2924351213
 20
2.564807354
 11
12.2924351213
 21
2.5524323472
  0
ARC
  5
26D
100
AcDbEntity
  8
0
100
AcDbCircle
 62
2
  6
CONTINUOUS
 10
12.2949101208
 20
2.5524323453
 40
0.0024749995
100
AcDbArc
 50
179.9999571957
 51
270.0000428043
  0
LINE
  5
26E
100
AcDbEntity
  8
0
100
AcDbLine
 62
2
  6
CONTINUOUS
 10
12.2924351213
 20
2.5184523283
 11
12.2924351213
 21
2.5308273352
  0
ARC
  5
26F
100
AcDbEntity
  8
0
100
AcDbCircle
 62
2
  6
CONTINUOUS
 10
12.2949101208
 20
2.530827337
 40
0.0024749995
100
AcDbArc
 50
89.9999571957
 51
180.0000428043
  0
LINE
  5
270
100
AcDbEntity
  8
0
100
AcDbLine
 62
2
  6
CONTINUOUS
 10
12.2949101227
 20
2.5333023366
 11
12.3362731456
 21
2.5333023366
  0
ARC
  5
271
100
AcDbEntity
  8
0
100
AcDbCircle
 62
2
  6
CONTINUOUS
 10
12.3362731456
 20
2.5246398318
 40
0.0086625048
100
AcDbArc
 50
270.0
 51
90.0
  0
LINE
  5
272
100
AcDbEntity
  8
0
100
AcDbLine
 62
2
  6
CONTINUOUS
 10
12.3362731456
 20
2.515977327
 11
12.2949101227
 21
2.515977327
  0
ARC
  5
273
100
AcDbEntity
  8
0
100
AcDbCircle
 62
2
  6
CONTINUOUS
 10
12.2949101208
 20
2.5184523265
 40
0.0024749995
100
AcDbArc
 50
179.9999571957
 51
270.0000428043
  0
ARC
  5
274
100
AcDbEntity
  8
0
100
AcDbCircle
 62
2
  6
CONTINUOUS
 10
13.5806801742
 20
2.5212486481
 40
0.044722495
100
AcDbArc
 50
195.531588407
 51
204.7624440448
  0
LINE
  5
275
100
AcDbEntity
  8
0
100
AcDbLine
 62
2
  6
CONTINUOUS
 10
13.5375908118
 20
2.5092733232
 11
13.5357868108
 21
2.5153423266
  0
ARC
  5
276
100
AcDbEntity
  8
0
100
AcDbCircle
 62
2
  6
CONTINUOUS
 10
13.4974076135
 20
2.5055452462
 40
0.0396099176
100
AcDbArc
 50
14.3201081283
 51
22.4984722084
  0
ARC
  5
277
100
AcDbEntity
  8
0
100
AcDbCircle
 62
2
  6
CONTINUOUS
 10
13.5201739219
 20
2.5145168728
 40
0.0151491919
100
AcDbArc
 50
24.098260853
 51
63.0369451818
  0
ARC
  5
278
100
AcDbEntity
  8
0
100
AcDbCircle
 62
2
  6
CONTINUOUS
 10
13.5161192671
 20
2.5062372524
 40
0.0243676582
100
AcDbArc
 50
63.3666028271
 51
90.3937697637
  0
LINE
  5
279
100
AcDbEntity
  8
0
100
AcDbLine
 62
2
  6
CONTINUOUS
 10
13.5159517998
 20
2.5306043351
 11
13.4883447845
 21
2.5306043351
  0
ARC
  5
27A
100
AcDbEntity
  8
0
100
AcDbCircle
 62
2
  6
CONTINUOUS
 10
13.4883447827
 20
2.5281293355
 40
0.0024749995
100
AcDbArc
 50
89.9999571957
 51
180.0000428043
  0
LINE
  5
27B
100
AcDbEntity
  8
0
100
AcDbLine
 62
2
  6
CONTINUOUS
 10
13.4858697831
 20
2.5281293337
 11
13.4858697831
 21
2.5184303283
  0
ARC
  5
27C
100
AcDbEntity
  8
0
100
AcDbCircle
 62
2
  6
CONTINUOUS
 10
13.4883447827
 20
2.5184303265
 40
0.0024749995
100
AcDbArc
 50
179.9999571957
 51
270.0000428043
  0
LINE
  5
27D
100
AcDbEntity
  8
0
100
AcDbLine
 62
2
  6
CONTINUOUS
 10
13.4883447845
 20
2.5159553269
 11
13.5130037982
 21
2.5159553269
  0
ARC
  5
27E
100
AcDbEntity
  8
0
100
AcDbCircle
 62
2
  6
CONTINUOUS
 10
13.5130038
 20
2.5134803274
 40
0.0024749995
100
AcDbArc
 50
359.9999571957
 51
90.0000428043
  0
LINE
  5
27F
100
AcDbEntity
  8
0
100
AcDbLine
 62
2
  6
CONTINUOUS
 10
13.5154787995
 20
2.5134803256
 11
13.5154787995
 21
2.4937023146
  0
ARC
  5
280
100
AcDbEntity
  8
0
100
AcDbCircle
 62
2
  6
CONTINUOUS
 10
13.5130038
 20
2.4937023128
 40
0.0024749995
100
AcDbArc
 50
269.9999571957
 51
0.0000428043
  0
LINE
  5
281
100
AcDbEntity
  8
0
100
AcDbLine
 62
2
  6
CONTINUOUS
 10
13.5130037982
 20
2.4912273132
 11
13.3994327352
 21
2.4912273132
  0
ARC
  5
282
100
AcDbEntity
  8
0
100
AcDbCircle
 62
2
  6
CONTINUOUS
 10
13.3994327333
 20
2.4937023128
 40
0.0024749995
100
AcDbArc
 50
179.9999571957
 51
270.0000428043
  0
LINE
  5
283
100
AcDbEntity
  8
0
100
AcDbLine
 62
2
  6
CONTINUOUS
 10
13.3969577338
 20
2.4937023146
 11
13.3969577338
 21
2.5135023256
  0
ARC
  5
284
100
AcDbEntity
  8
0
100
AcDbCircle
 62
2
  6
CONTINUOUS
 10
13.3994327333
 20
2.5135023274
 40
0.0024749995
100
AcDbArc
 50
89.9999571957
 51
180.0000428043
  0
LINE
  5
285
100
AcDbEntity
  8
0
100
AcDbLine
 62
2
  6
CONTINUOUS
 10
13.3994327352
 20
2.515977327
 11
13.4221787478
 21
2.515977327
  0
ARC
  5
286
100
AcDbEntity
  8
0
100
AcDbCircle
 62
2
  6
CONTINUOUS
 10
13.4221787497
 20
2.5184523265
 40
0.0024749995
100
AcDbArc
 50
269.9999571957
 51
0.0000428042
  0
LINE
  5
287
100
AcDbEntity
  8
0
100
AcDbLine
 62
2
  6
CONTINUOUS
 10
13.4246537492
 20
2.5184523283
 11
13.4246537492
 21
2.564807354
  0
ARC
  5
288
100
AcDbEntity
  8
0
100
AcDbCircle
 62
2
  6
CONTINUOUS
 10
13.4221787497
 20
2.5648073559
 40
0.0024749995
100
AcDbArc
 50
359.9999571957
 51
90.0000428043
  0
LINE
  5
289
100
AcDbEntity
  8
0
100
AcDbLine
 62
2
  6
CONTINUOUS
 10
13.4221787478
 20
2.5672823554
 11
13.3994327352
 21
2.5672823554
  0
ARC
  5
28A
100
AcDbEntity
  8
0
100
AcDbCircle
 62
2
  6
CONTINUOUS
 10
13.3994327333
 20
2.5697573549
 40
0.0024749995
100
AcDbArc
 50
179.9999571957
 51
270.0000428043
  0
LINE
  5
28B
100
AcDbEntity
  8
0
100
AcDbLine
 62
2
  6
CONTINUOUS
 10
13.3969577338
 20
2.5697573568
 11
13.3969577338
 21
2.5895573678
  0
ARC
  5
28C
100
AcDbEntity
  8
0
100
AcDbCircle
 62
2
  6
CONTINUOUS
 10
13.3994327333
 20
2.5895573696
 40
0.0024749995
100
AcDbArc
 50
89.9999571957
 51
180.0000428043
  0
LINE
  5
28D
100
AcDbEntity
  8
0
100
AcDbLine
 62
2
  6
CONTINUOUS
 10
13.3994327352
 20
2.5920323691
 11
13.5490138181
 21
2.5920323691
  0
ARC
  5
28E
100
AcDbEntity
  8
0
100
AcDbCircle
 62
2
  6
CONTINUOUS
 10
13.5463505148
 20
2.4094934586
 40
0.1825583387
100
AcDbArc
 50
79.8618509324
 51
89.1640948679
  0
ARC
  5
28F
100
AcDbEntity
  8
0
100
AcDbCircle
 62
2
  6
CONTINUOUS
 10
13.5726548052
 20
2.5503169747
 40
0.039319019
100
AcDbArc
 50
59.1202086415
 51
81.4730239328
  0
ARC
  5
290
100
AcDbEntity
  8
0
100
AcDbCircle
 62
2
  6
CONTINUOUS
 10
13.5783142014
 20
2.5566516438
 40
0.0310192946
100
AcDbArc
 50
34.7540871
 51
62.0879016178
  0
ARC
  5
291
100
AcDbEntity
  8
0
100
AcDbCircle
 62
2
  6
CONTINUOUS
 10
13.5900029525
 20
2.565201245
 40
0.0165459396
100
AcDbArc
 50
1.548452892
 51
33.5033152417
  0
ARC
  5
292
100
AcDbEntity
  8
0
100
AcDbCircle
 62
2
  6
CONTINUOUS
 10
13.5932995477
 20
2.5653696972
 40
0.0132462337
100
AcDbArc
 50
331.1510006998
 51
1.205404301
  0
ARC
  5
293
100
AcDbEntity
  8
0
100
AcDbCircle
 62
2
  6
CONTINUOUS
 10
13.5822888914
 20
2.5720482849
 40
0.0261183659
100
AcDbArc
 50
305.6373831893
 51
329.9727629745
  0
ARC
  5
294
100
AcDbEntity
  8
0
100
AcDbCircle
 62
2
  6
CONTINUOUS
 10
13.5519569538
 20
2.6152551345
 40
0.0789082104
100
AcDbArc
 50
292.906155071
 51
305.2574666259
  0
ARC
  5
295
100
AcDbEntity
  8
0
100
AcDbCircle
 62
2
  6
CONTINUOUS
 10
13.5282557878
 20
2.4386010294
 40
0.117346916
100
AcDbArc
 50
58.614769177
 51
62.3737227606
  0
ARC
  5
296
100
AcDbEntity
  8
0
100
AcDbCircle
 62
2
  6
CONTINUOUS
 10
13.5761387404
 20
2.5167282896
 40
0.0257145923
100
AcDbArc
 50
39.3804255939
 51
59.0361096173
  0
ARC
  5
297
100
AcDbEntity
  8
0
100
AcDbCircle
 62
2
  6
CONTINUOUS
 10
13.5750183849
 20
2.5166552064
 40
0.0266349791
100
AcDbArc
 50
20.3630922153
 51
37.9727053099
  0
ARC
  5
298
100
AcDbEntity
  8
0
100
AcDbCircle
 62
2
  6
CONTINUOUS
 10
13.5571178432
 20
2.509473798
 40
0.0459185159
100
AcDbArc
 50
15.6740290068
 51
20.9917271228
  0
ARC
  5
299
100
AcDbEntity
  8
0
100
AcDbCircle
 62
2
  6
CONTINUOUS
 10
13.6156881783
 20
2.525116781
 40
0.0147197649
100
AcDbArc
 50
192.7054516565
 51
206.0594861022
  0
ARC
  5
29A
100
AcDbEntity
  8
0
100
AcDbCircle
 62
2
  6
CONTINUOUS
 10
13.6071938412
 20
2.5209082945
 40
0.0052403997
100
AcDbArc
 50
205.5232099488
 51
227.5054868079
  0
ARC
  5
29B
100
AcDbEntity
  8
0
100
AcDbCircle
 62
2
  6
CONTINUOUS
 10
13.6054655419
 20
2.5190929218
 40
0.0027347709
100
AcDbArc
 50
228.5117626737
 51
266.1485845754
  0
LINE
  5
29C
100
AcDbEntity
  8
0
100
AcDbLine
 62
2
  6
CONTINUOUS
 10
13.6052818493
 20
2.5163643272
 11
13.60639085
 21
2.5163643272
  0
ARC
  5
29D
100
AcDbEntity
  8
0
100
AcDbCircle
 62
2
  6
CONTINUOUS
 10
13.6063292954
 20
2.5296129864
 40
0.0132488022
100
AcDbArc
 50
270.266200055
 51
281.2404888597
  0
ARC
  5
29E
100
AcDbEntity
  8
0
100
AcDbCircle
 62
2
  6
CONTINUOUS
 10
13.6075235364
 20
2.5238762928
 40
0.0073895522
100
AcDbArc
 50
280.8288201977
 51
305.0837508495
  0
ARC
  5
29F
100
AcDbEntity
  8
0
100
AcDbCircle
 62
2
  6
CONTINUOUS
 10
13.607924718
 20
2.5230254464
 40
0.0064647042
100
AcDbArc
 50
306.5086174083
 51
340.2162360092
  0
ARC
  5
2A0
100
AcDbEntity
  8
0
100
AcDbCircle
 62
2
  6
CONTINUOUS
 10
13.6027235414
 20
2.524769508
 40
0.0119498009
100
AcDbArc
 50
340.7883861657
 51
1.1691452593
  0
LINE
  5
2A1
100
AcDbEntity
  8
0
100
AcDbLine
 62
2
  6
CONTINUOUS
 10
13.6146708546
 20
2.525013332
 11
13.6146708546
 21
2.5276393334
  0
ARC
  5
2A2
100
AcDbEntity
  8
0
100
AcDbCircle
 62
2
  6
CONTINUOUS
 10
13.6171458541
 20
2.5276393353
 40
0.0024749995
100
AcDbArc
 50
89.9999571957
 51
180.0000428043
  0
LINE
  5
2A3
100
AcDbEntity
  8
0
100
AcDbLine
 62
2
  6
CONTINUOUS
 10
13.6171458559
 20
2.5301143348
 11
13.6292558626
 21
2.5301143348
  0
ARC
  5
2A4
100
AcDbEntity
  8
0
100
AcDbCircle
 62
2
  6
CONTINUOUS
 10
13.6292558645
 20
2.5276393353
 40
0.0024749995
100
AcDbArc
 50
359.9999571957
 51
90.0000428043
  0
LINE
  5
2A5
100
AcDbEntity
  8
0
100
AcDbLine
 62
2
  6
CONTINUOUS
 10
13.631730864
 20
2.5276393334
 11
13.631730864
 21
2.516087327
  0
ARC
  5
2A6
100
AcDbEntity
  8
0
100
AcDbCircle
 62
2
  6
CONTINUOUS
 10
13.6141751675
 20
2.5161916447
 40
0.0175560065
100
AcDbArc
 50
332.2279060967
 51
359.6595469939
  0
ARC
  5
2A7
100
AcDbEntity
  8
0
100
AcDbCircle
 62
2
  6
CONTINUOUS
 10
13.6048681567
 20
2.5210861501
 40
0.0280715479
100
AcDbArc
 50
308.5071794988
 51
332.2400656899
  0
ARC
  5
2A8
100
AcDbEntity
  8
0
100
AcDbCircle
 62
2
  6
CONTINUOUS
 10
13.5978759713
 20
2.5286873679
 40
0.0383802683
100
AcDbArc
 50
288.7656836787
 51
309.6104317088
  0
ARC
  5
2A9
100
AcDbEntity
  8
0
100
AcDbCircle
 62
2
  6
CONTINUOUS
 10
13.6036139387
 20
2.5111006186
 40
0.0198837666
100
AcDbArc
 50
271.8586572978
 51
289.4131338543
  0
LINE
  5
2AA
100
AcDbEntity
  8
0
100
AcDbLine
 62
2
  6
CONTINUOUS
 10
13.6042588488
 20
2.4912273132
 11
13.5568948225
 21
2.4912273132
  0
ARC
  5
2AB
100
AcDbEntity
  8
0
100
AcDbCircle
 62
2
  6
CONTINUOUS
 10
13.5577001432
 20
2.5085494649
 40
0.0173408616
100
AcDbArc
 50
232.4713476722
 51
267.338189944
  0
ARC
  5
2AC
100
AcDbEntity
  8
0
100
AcDbCircle
 62
2
  6
CONTINUOUS
 10
13.5607987082
 20
2.5143997688
 40
0.0238935861
100
AcDbArc
 50
209.8247607259
 51
235.1255079367
  0
ARC
  5
2AD
100
AcDbEntity
  8
0
100
AcDbCircle
 62
2
  6
CONTINUOUS
 10
13.5295131508
 20
2.5629115009
 40
0.0110815393
100
AcDbArc
 50
306.758405961
 51
320.4502234234
  0
ARC
  5
2AE
100
AcDbEntity
  8
0
100
AcDbCircle
 62
2
  6
CONTINUOUS
 10
13.5238839599
 20
2.5706523294
 40
0.0206523367
100
AcDbArc
 50
289.6883413472
 51
306.4184925496
  0
ARC
  5
2AF
100
AcDbEntity
  8
0
100
AcDbCircle
 62
2
  6
CONTINUOUS
 10
13.5219564542
 20
2.5750459767
 40
0.0254407115
100
AcDbArc
 50
270.7327484175
 51
290.441894219
  0
LINE
  5
2B0
100
AcDbEntity
  8
0
100
AcDbLine
 62
2
  6
CONTINUOUS
 10
13.5222818033
 20
2.5496073456
 11
13.4883447845
 21
2.5496073456
  0
ARC
  5
2B1
100
AcDbEntity
  8
0
100
AcDbCircle
 62
2
  6
CONTINUOUS
 10
13.4883447827
 20
2.5520823451
 40
0.0024749995
100
AcDbArc
 50
179.9999571957
 51
270.0000428043
  0
LINE
  5
2B2
100
AcDbEntity
  8
0
100
AcDbLine
 62
2
  6
CONTINUOUS
 10
13.4858697831
 20
2.552082347
 11
13.4858697831
 21
2.564807354
  0
ARC
  5
2B3
100
AcDbEntity
  8
0
100
AcDbCircle
 62
2
  6
CONTINUOUS
 10
13.4883447827
 20
2.5648073559
 40
0.0024749995
100
AcDbArc
 50
89.9999571957
 51
180.0000428043
  0
LINE
  5
2B4
100
AcDbEntity
  8
0
100
AcDbLine
 62
2
  6
CONTINUOUS
 10
13.4883447845
 20
2.5672823554
 11
13.5251458049
 21
2.5672823554
  0
ARC
  5
2B5
100
AcDbEntity
  8
0
100
AcDbCircle
 62
2
  6
CONTINUOUS
 10
13.5236009174
 20
2.5388278764
 40
0.0284963867
100
AcDbArc
 50
70.3834917948
 51
86.8922743861
  0
ARC
  5
2B6
100
AcDbEntity
  8
0
100
AcDbCircle
 62
2
  6
CONTINUOUS
 10
13.5284605274
 20
2.5518696094
 40
0.0145814632
100
AcDbArc
 50
54.6746025112
 51
71.1660573124
  0
ARC
  5
2B7
100
AcDbEntity
  8
0
100
AcDbCircle
 62
2
  6
CONTINUOUS
 10
13.5335900184
 20
2.5587235346
 40
0.0060275915
100
AcDbArc
 50
20.9055592135
 51
56.7851676243
  0
ARC
  5
2B8
100
AcDbEntity
  8
0
100
AcDbCircle
 62
2
  6
CONTINUOUS
 10
13.5348905773
 20
2.5593838168
 40
0.0045795888
100
AcDbArc
 50
355.6235353944
 51
18.9942678268
  0
ARC
  5
2B9
100
AcDbEntity
  8
0
100
AcDbCircle
 62
2
  6
CONTINUOUS
 10
13.533683767
 20
2.559677593
 40
0.0058087709
100
AcDbArc
 50
318.8515287446
 51
353.6422345323
  0
LINE
  5
2BA
100
AcDbEntity
  8
0
100
AcDbLine
 62
2
  6
CONTINUOUS
 10
12.672340332
 20
2.5920323691
 11
12.7727983877
 21
2.5920323691
  0
ARC
  5
2BB
100
AcDbEntity
  8
0
100
AcDbCircle
 62
2
  6
CONTINUOUS
 10
12.7727985224
 20
2.5895582013
 40
0.0024741678
100
AcDbArc
 50
46.3477981899
 51
90.0031206038
  0
LINE
  5
2BC
100
AcDbEntity
  8
0
100
AcDbLine
 62
2
  6
CONTINUOUS
 10
12.7745063886
 20
2.5913483688
 11
12.8345394219
 21
2.534068337
  0
ARC
  5
2BD
100
AcDbEntity
  8
0
100
AcDbCircle
 62
2
  6
CONTINUOUS
 10
12.8362481229
 20
2.5358592748
 40
0.0024753014
100
AcDbArc
 50
226.3461263059
 51
0.0014637321
  0
LINE
  5
2BE
100
AcDbEntity
  8
0
100
AcDbLine
 62
2
  6
CONTINUOUS
 10
12.8387234242
 20
2.535859338
 11
12.8387234242
 21
2.564807354
  0
ARC
  5
2BF
100
AcDbEntity
  8
0
100
AcDbCircle
 62
2
  6
CONTINUOUS
 10
12.8362484247
 20
2.5648073559
 40
0.0024749995
100
AcDbArc
 50
359.9999571957
 51
90.0000428043
  0
LINE
  5
2C0
100
AcDbEntity
  8
0
100
AcDbLine
 62
2
  6
CONTINUOUS
 10
12.8362484229
 20
2.5672823554
 11
12.8174724125
 21
2.5672823554
  0
ARC
  5
2C1
100
AcDbEntity
  8
0
100
AcDbCircle
 62
2
  6
CONTINUOUS
 10
12.8174724106
 20
2.5697573549
 40
0.0024749995
100
AcDbArc
 50
179.9999571957
 51
270.0000428043
  0
LINE
  5
2C2
100
AcDbEntity
  8
0
100
AcDbLine
 62
2
  6
CONTINUOUS
 10
12.8149974111
 20
2.5697573568
 11
12.8149974111
 21
2.5895573678
  0
ARC
  5
2C3
100
AcDbEntity
  8
0
100
AcDbCircle
 62
2
  6
CONTINUOUS
 10
12.8174724106
 20
2.5895573696
 40
0.0024749995
100
AcDbArc
 50
89.9999571957
 51
180.0000428043
  0
LINE
  5
2C4
100
AcDbEntity
  8
0
100
AcDbLine
 62
2
  6
CONTINUOUS
 10
12.8174724125
 20
2.5920323691
 11
12.8914734535
 21
2.5920323691
  0
ARC
  5
2C5
100
AcDbEntity
  8
0
100
AcDbCircle
 62
2
  6
CONTINUOUS
 10
12.8914734553
 20
2.5895573696
 40
0.0024749995
100
AcDbArc
 50
359.9999571957
 51
90.0000428043
  0
LINE
  5
2C6
100
AcDbEntity
  8
0
100
AcDbLine
 62
2
  6
CONTINUOUS
 10
12.8939484549
 20
2.5895573678
 11
12.8939484549
 21
2.5697573568
  0
ARC
  5
2C7
100
AcDbEntity
  8
0
100
AcDbCircle
 62
2
  6
CONTINUOUS
 10
12.8914734553
 20
2.5697573549
 40
0.0024749995
100
AcDbArc
 50
269.9999571957
 51
0.0000428043
  0
LINE
  5
2C8
100
AcDbEntity
  8
0
100
AcDbLine
 62
2
  6
CONTINUOUS
 10
12.8914734535
 20
2.5672823554
 11
12.8735404436
 21
2.5672823554
  0
ARC
  5
2C9
100
AcDbEntity
  8
0
100
AcDbCircle
 62
2
  6
CONTINUOUS
 10
12.8735404417
 20
2.5648073559
 40
0.0024749995
100
AcDbArc
 50
89.9999571957
 51
180.0000428043
  0
LINE
  5
2CA
100
AcDbEntity
  8
0
100
AcDbLine
 62
2
  6
CONTINUOUS
 10
12.8710654422
 20
2.564807354
 11
12.8710654422
 21
2.4937023146
  0
ARC
  5
2CB
100
AcDbEntity
  8
0
100
AcDbCircle
 62
2
  6
CONTINUOUS
 10
12.8685904427
 20
2.4937023128
 40
0.0024749995
100
AcDbArc
 50
269.9999571957
 51
0.0000428043
  0
LINE
  5
2CC
100
AcDbEntity
  8
0
100
AcDbLine
 62
2
  6
CONTINUOUS
 10
12.8685904408
 20
2.4912273132
 11
12.7943853997
 21
2.4912273132
  0
ARC
  5
2CD
100
AcDbEntity
  8
0
100
AcDbCircle
 62
2
  6
CONTINUOUS
 10
12.7943847649
 20
2.4937027294
 40
0.0024754162
100
AcDbArc
 50
226.3593695813
 51
270.0146919953
  0
LINE
  5
2CE
100
AcDbEntity
  8
0
100
AcDbLine
 62
2
  6
CONTINUOUS
 10
12.7926763987
 20
2.4919113136
 11
12.7293963636
 21
2.5522893471
  0
ARC
  5
2CF
100
AcDbEntity
  8
0
100
AcDbCircle
 62
2
  6
CONTINUOUS
 10
12.7276876627
 20
2.5504984093
 40
0.0024753014
100
AcDbArc
 50
46.3461263059
 51
180.0014637321
  0
LINE
  5
2D0
100
AcDbEntity
  8
0
100
AcDbLine
 62
2
  6
CONTINUOUS
 10
12.7252123613
 20
2.5504983461
 11
12.7252123613
 21
2.5184523283
  0
ARC
  5
2D1
100
AcDbEntity
  8
0
100
AcDbCircle
 62
2
  6
CONTINUOUS
 10
12.7276873608
 20
2.5184523265
 40
0.0024749995
100
AcDbArc
 50
179.9999571957
 51
270.0000428043
  0
LINE
  5
2D2
100
AcDbEntity
  8
0
100
AcDbLine
 62
2
  6
CONTINUOUS
 10
12.7276873627
 20
2.515977327
 11
12.7480043739
 21
2.515977327
  0
ARC
  5
2D3
100
AcDbEntity
  8
0
100
AcDbCircle
 62
2
  6
CONTINUOUS
 10
12.7480043758
 20
2.5135023274
 40
0.0024749995
100
AcDbArc
 50
359.9999571957
 51
90.0000428043
  0
LINE
  5
2D4
100
AcDbEntity
  8
0
100
AcDbLine
 62
2
  6
CONTINUOUS
 10
12.7504793753
 20
2.5135023256
 11
12.7504793753
 21
2.4937023146
  0
ARC
  5
2D5
100
AcDbEntity
  8
0
100
AcDbCircle
 62
2
  6
CONTINUOUS
 10
12.7480043758
 20
2.4937023128
 40
0.0024749995
100
AcDbArc
 50
269.9999571957
 51
0.0000428043
  0
LINE
  5
2D6
100
AcDbEntity
  8
0
100
AcDbLine
 62
2
  6
CONTINUOUS
 10
12.7480043739
 20
2.4912273132
 11
12.672340332
 21
2.4912273132
  0
ARC
  5
2D7
100
AcDbEntity
  8
0
100
AcDbCircle
 62
2
  6
CONTINUOUS
 10
12.6723403301
 20
2.4937023128
 40
0.0024749995
100
AcDbArc
 50
179.9999571957
 51
270.0000428043
  0
LINE
  5
2D8
100
AcDbEntity
  8
0
100
AcDbLine
 62
2
  6
CONTINUOUS
 10
12.6698653306
 20
2.4937023146
 11
12.6698653306
 21
2.5135023256
  0
ARC
  5
2D9
100
AcDbEntity
  8
0
100
AcDbCircle
 62
2
  6
CONTINUOUS
 10
12.6723403301
 20
2.5135023274
 40
0.0024749995
100
AcDbArc
 50
89.9999571957
 51
180.0000428043
  0
LINE
  5
2DA
100
AcDbEntity
  8
0
100
AcDbLine
 62
2
  6
CONTINUOUS
 10
12.672340332
 20
2.515977327
 11
12.6909873423
 21
2.515977327
  0
ARC
  5
2DB
100
AcDbEntity
  8
0
100
AcDbCircle
 62
2
  6
CONTINUOUS
 10
12.6909873442
 20
2.5184523265
 40
0.0024749995
100
AcDbArc
 50
269.9999571957
 51
0.0000428043
  0
LINE
  5
2DC
100
AcDbEntity
  8
0
100
AcDbLine
 62
2
  6
CONTINUOUS
 10
12.6934623437
 20
2.5184523283
 11
12.6934623437
 21
2.564807354
  0
ARC
  5
2DD
100
AcDbEntity
  8
0
100
AcDbCircle
 62
2
  6
CONTINUOUS
 10
12.6909873442
 20
2.5648073559
 40
0.0024749995
100
AcDbArc
 50
359.9999571957
 51
90.0000428043
  0
LINE
  5
2DE
100
AcDbEntity
  8
0
100
AcDbLine
 62
2
  6
CONTINUOUS
 10
12.6909873423
 20
2.5672823554
 11
12.672340332
 21
2.5672823554
  0
ARC
  5
2DF
100
AcDbEntity
  8
0
100
AcDbCircle
 62
2
  6
CONTINUOUS
 10
12.6723403301
 20
2.5697573549
 40
0.0024749995
100
AcDbArc
 50
179.9999571957
 51
270.0000428043
  0
LINE
  5
2E0
100
AcDbEntity
  8
0
100
AcDbLine
 62
2
  6
CONTINUOUS
 10
12.6698653306
 20
2.5697573568
 11
12.6698653306
 21
2.5895573678
  0
ARC
  5
2E1
100
AcDbEntity
  8
0
100
AcDbCircle
 62
2
  6
CONTINUOUS
 10
12.6723403301
 20
2.5895573696
 40
0.0024749995
100
AcDbArc
 50
89.9999571957
 51
180.0000428043
  0
LINE
  5
2E2
100
AcDbEntity
  8
0
100
AcDbLine
 62
2
  6
CONTINUOUS
 10
12.5246402501
 20
2.5655893545
 11
12.5175232461
 21
2.5543723483
  0
ARC
  5
2E3
100
AcDbEntity
  8
0
100
AcDbCircle
 62
2
  6
CONTINUOUS
 10
12.519613138
 20
2.5530463862
 40
0.0024750401
100
AcDbArc
 50
147.6063258012
 51
270.0025305754
  0
LINE
  5
2E4
100
AcDbEntity
  8
0
100
AcDbLine
 62
2
  6
CONTINUOUS
 10
12.5196132473
 20
2.5505713461
 11
12.5401702587
 21
2.5505713461
  0
ARC
  5
2E5
100
AcDbEntity
  8
0
100
AcDbCircle
 62
2
  6
CONTINUOUS
 10
12.5401702375
 20
2.5530465533
 40
0.0024752071
100
AcDbArc
 50
270.0004896793
 51
32.9089806818
  0
LINE
  5
2E6
100
AcDbEntity
  8
0
100
AcDbLine
 62
2
  6
CONTINUOUS
 10
12.5422482598
 20
2.5543913483
 11
12.5349892558
 21
2.5656073545
  0
ARC
  5
2E7
100
AcDbEntity
  8
0
100
AcDbCircle
 62
2
  6
CONTINUOUS
 10
12.532910715
 20
2.564262895
 40
0.0024754602
100
AcDbArc
 50
32.8959418573
 51
89.9875097202
  0
LINE
  5
2E8
100
AcDbEntity
  8
0
100
AcDbLine
 62
2
  6
CONTINUOUS
 10
12.5329112547
 20
2.5667383551
 11
12.5267302512
 21
2.5667383551
  0
ARC
  5
2E9
100
AcDbEntity
  8
0
100
AcDbCircle
 62
2
  6
CONTINUOUS
 10
12.5267301809
 20
2.5642631548
 40
0.0024752003
100
AcDbArc
 50
89.998372645
 51
147.602165307
  0
LINE
  5
2EA
100
AcDbEntity
  8
0
100
AcDbLine
 62
2
  6
CONTINUOUS
 10
12.548053263
 20
2.5284903339
 11
12.5536792662
 21
2.5197973291
  0
ARC
  5
2EB
100
AcDbEntity
  8
0
100
AcDbCircle
 62
2
  6
CONTINUOUS
 10
12.5516012439
 20
2.5184525341
 40
0.0024752071
100
AcDbArc
 50
270.0004896794
 51
32.9089806818
  0
LINE
  5
2EC
100
AcDbEntity
  8
0
100
AcDbLine
 62
2
  6
CONTINUOUS
 10
12.551601265
 20
2.515977327
 11
12.537150257
 21
2.515977327
  0
ARC
  5
2ED
100
AcDbEntity
  8
0
100
AcDbCircle
 62
2
  6
CONTINUOUS
 10
12.5371502552
 20
2.5135023274
 40
0.0024749995
100
AcDbArc
 50
89.9999571957
 51
180.0000428043
  0
LINE
  5
2EE
100
AcDbEntity
  8
0
100
AcDbLine
 62
2
  6
CONTINUOUS
 10
12.5346752556
 20
2.5135023256
 11
12.5346752556
 21
2.4937023146
  0
ARC
  5
2EF
100
AcDbEntity
  8
0
100
AcDbCircle
 62
2
  6
CONTINUOUS
 10
12.5371502552
 20
2.4937023128
 40
0.0024749995
100
AcDbArc
 50
179.9999571957
 51
270.0000428043
  0
LINE
  5
2F0
100
AcDbEntity
  8
0
100
AcDbLine
 62
2
  6
CONTINUOUS
 10
12.537150257
 20
2.4912273132
 11
12.6424313154
 21
2.4912273132
  0
ARC
  5
2F1
100
AcDbEntity
  8
0
100
AcDbCircle
 62
2
  6
CONTINUOUS
 10
12.6424313172
 20
2.4937023128
 40
0.0024749995
100
AcDbArc
 50
269.9999571957
 51
0.0000428043
  0
LINE
  5
2F2
100
AcDbEntity
  8
0
100
AcDbLine
 62
2
  6
CONTINUOUS
 10
12.6449063168
 20
2.4937023146
 11
12.6449063168
 21
2.5135023256
  0
ARC
  5
2F3
100
AcDbEntity
  8
0
100
AcDbCircle
 62
2
  6
CONTINUOUS
 10
12.6424313172
 20
2.5135023274
 40
0.0024749995
100
AcDbArc
 50
359.9999571957
 51
90.0000428043
  0
LINE
  5
2F4
100
AcDbEntity
  8
0
100
AcDbLine
 62
2
  6
CONTINUOUS
 10
12.6424313154
 20
2.515977327
 11
12.6224153043
 21
2.515977327
  0
ARC
  5
2F5
100
AcDbEntity
  8
0
100
AcDbCircle
 62
2
  6
CONTINUOUS
 10
12.6224154248
 20
2.518451368
 40
0.002474041
100
AcDbArc
 50
212.9056413127
 51
269.9972091756
  0
LINE
  5
2F6
100
AcDbEntity
  8
0
100
AcDbLine
 62
2
  6
CONTINUOUS
 10
12.6203383031
 20
2.5171073276
 11
12.5725822767
 21
2.5909023685
  0
ARC
  5
2F7
100
AcDbEntity
  8
0
100
AcDbCircle
 62
2
  6
CONTINUOUS
 10
12.570504655
 20
2.589557409
 40
0.0024749602
100
AcDbArc
 50
32.9172174468
 51
90.0087853097
  0
LINE
  5
2F8
100
AcDbEntity
  8
0
100
AcDbLine
 62
2
  6
CONTINUOUS
 10
12.5705042755
 20
2.5920323691
 11
12.5133292438
 21
2.5920323691
  0
ARC
  5
2F9
100
AcDbEntity
  8
0
100
AcDbCircle
 62
2
  6
CONTINUOUS
 10
12.5133291735
 20
2.5895571688
 40
0.0024752003
100
AcDbArc
 50
89.9983726451
 51
147.602165307
  0
LINE
  5
2FA
100
AcDbEntity
  8
0
100
AcDbLine
 62
2
  6
CONTINUOUS
 10
12.5112392426
 20
2.5908833685
 11
12.4644392167
 21
2.5171263276
  0
ARC
  5
2FB
100
AcDbEntity
  8
0
100
AcDbCircle
 62
2
  6
CONTINUOUS
 10
12.4623492858
 20
2.5184525273
 40
0.0024752003
100
AcDbArc
 50
269.9983726451
 51
327.602165307
  0
LINE
  5
2FC
100
AcDbEntity
  8
0
100
AcDbLine
 62
2
  6
CONTINUOUS
 10
12.4623492155
 20
2.515977327
 11
12.4394882028
 21
2.515977327
  0
ARC
  5
2FD
100
AcDbEntity
  8
0
100
AcDbCircle
 62
2
  6
CONTINUOUS
 10
12.439488201
 20
2.5135023274
 40
0.0024749995
100
AcDbArc
 50
89.9999571957
 51
180.0000428043
  0
LINE
  5
2FE
100
AcDbEntity
  8
0
100
AcDbLine
 62
2
  6
CONTINUOUS
 10
12.4370132015
 20
2.5135023256
 11
12.4370132015
 21
2.4937023146
  0
ARC
  5
2FF
100
AcDbEntity
  8
0
100
AcDbCircle
 62
2
  6
CONTINUOUS
 10
12.439488201
 20
2.4937023128
 40
0.0024749995
100
AcDbArc
 50
179.9999571957
 51
270.0000428043
  0
LINE
  5
300
100
AcDbEntity
  8
0
100
AcDbLine
 62
2
  6
CONTINUOUS
 10
12.4394882028
 20
2.4912273132
 11
12.5168642458
 21
2.4912273132
  0
ARC
  5
301
100
AcDbEntity
  8
0
100
AcDbCircle
 62
2
  6
CONTINUOUS
 10
12.5168642476
 20
2.4937023128
 40
0.0024749995
100
AcDbArc
 50
269.9999571957
 51
0.0000428043
  0
LINE
  5
302
100
AcDbEntity
  8
0
100
AcDbLine
 62
2
  6
CONTINUOUS
 10
12.5193392471
 20
2.4937023146
 11
12.5193392471
 21
2.5135023256
  0
ARC
  5
303
100
AcDbEntity
  8
0
100
AcDbCircle
 62
2
  6
CONTINUOUS
 10
12.5168642476
 20
2.5135023274
 40
0.0024749995
100
AcDbArc
 50
359.9999571957
 51
90.0000428043
  0
LINE
  5
304
100
AcDbEntity
  8
0
100
AcDbLine
 62
2
  6
CONTINUOUS
 10
12.5168642458
 20
2.515977327
 11
12.5055812395
 21
2.515977327
  0
ARC
  5
305
100
AcDbEntity
  8
0
100
AcDbCircle
 62
2
  6
CONTINUOUS
 10
12.5055811302
 20
2.518452367
 40
0.0024750401
100
AcDbArc
 50
147.6063258011
 51
270.0025305754
  0
LINE
  5
306
100
AcDbEntity
  8
0
100
AcDbLine
 62
2
  6
CONTINUOUS
 10
12.5034912383
 20
2.5197783291
 11
12.5090072414
 21
2.5284723339
  0
ARC
  5
307
100
AcDbEntity
  8
0
100
AcDbCircle
 62
2
  6
CONTINUOUS
 10
12.5110971723
 20
2.5271461342
 40
0.0024752003
100
AcDbArc
 50
89.998372645
 51
147.602165307
  0
LINE
  5
308
100
AcDbEntity
  8
0
100
AcDbLine
 62
2
  6
CONTINUOUS
 10
12.5110972426
 20
2.5296213345
 11
12.5459752619
 21
2.5296213345
  0
ARC
  5
309
100
AcDbEntity
  8
0
100
AcDbCircle
 62
2
  6
CONTINUOUS
 10
12.5459747223
 20
2.5271458744
 40
0.0024754602
100
AcDbArc
 50
32.8959418573
 51
89.9875097202
  0
LINE
  5
30A
100
AcDbEntity
  8
0
100
AcDbLine
 62
2
  6
CONTINUOUS
 10
12.9205934696
 20
2.5920323691
 11
13.0210515254
 21
2.5920323691
  0
ARC
  5
30B
100
AcDbEntity
  8
0
100
AcDbCircle
 62
2
  6
CONTINUOUS
 10
13.0210516601
 20
2.5895582013
 40
0.0024741678
100
AcDbArc
 50
46.3477981899
 51
90.0031206038
  0
LINE
  5
30C
100
AcDbEntity
  8
0
100
AcDbLine
 62
2
  6
CONTINUOUS
 10
13.0227595263
 20
2.5913483688
 11
13.0827925596
 21
2.534068337
  0
ARC
  5
30D
100
AcDbEntity
  8
0
100
AcDbCircle
 62
2
  6
CONTINUOUS
 10
13.0845012605
 20
2.5358592748
 40
0.0024753014
100
AcDbArc
 50
226.3461263059
 51
0.0014637321
  0
LINE
  5
30E
100
AcDbEntity
  8
0
100
AcDbLine
 62
2
  6
CONTINUOUS
 10
13.0869765619
 20
2.535859338
 11
13.0869765619
 21
2.564807354
  0
ARC
  5
30F
100
AcDbEntity
  8
0
100
AcDbCircle
 62
2
  6
CONTINUOUS
 10
13.0845015624
 20
2.5648073559
 40
0.0024749995
100
AcDbArc
 50
359.9999571957
 51
90.0000428043
  0
LINE
  5
310
100
AcDbEntity
  8
0
100
AcDbLine
 62
2
  6
CONTINUOUS
 10
13.0845015605
 20
2.5672823554
 11
13.0657255501
 21
2.5672823554
  0
ARC
  5
311
100
AcDbEntity
  8
0
100
AcDbCircle
 62
2
  6
CONTINUOUS
 10
13.0657255483
 20
2.5697573549
 40
0.0024749995
100
AcDbArc
 50
179.9999571957
 51
270.0000428043
  0
LINE
  5
312
100
AcDbEntity
  8
0
100
AcDbLine
 62
2
  6
CONTINUOUS
 10
13.0632505488
 20
2.5697573568
 11
13.0632505488
 21
2.5895573678
  0
ARC
  5
313
100
AcDbEntity
  8
0
100
AcDbCircle
 62
2
  6
CONTINUOUS
 10
13.0657255483
 20
2.5895573696
 40
0.0024749995
100
AcDbArc
 50
89.9999571957
 51
180.0000428043
  0
LINE
  5
314
100
AcDbEntity
  8
0
100
AcDbLine
 62
2
  6
CONTINUOUS
 10
13.0657255501
 20
2.5920323691
 11
13.1397265912
 21
2.5920323691
  0
ARC
  5
315
100
AcDbEntity
  8
0
100
AcDbCircle
 62
2
  6
CONTINUOUS
 10
13.139726593
 20
2.5895573696
 40
0.0024749995
100
AcDbArc
 50
359.9999571957
 51
90.0000428043
  0
LINE
  5
316
100
AcDbEntity
  8
0
100
AcDbLine
 62
2
  6
CONTINUOUS
 10
13.1422015925
 20
2.5895573678
 11
13.1422015925
 21
2.5697573568
  0
ARC
  5
317
100
AcDbEntity
  8
0
100
AcDbCircle
 62
2
  6
CONTINUOUS
 10
13.139726593
 20
2.5697573549
 40
0.0024749995
100
AcDbArc
 50
269.9999571957
 51
0.0000428042
  0
LINE
  5
318
100
AcDbEntity
  8
0
100
AcDbLine
 62
2
  6
CONTINUOUS
 10
13.1397265912
 20
2.5672823554
 11
13.1217935812
 21
2.5672823554
  0
ARC
  5
319
100
AcDbEntity
  8
0
100
AcDbCircle
 62
2
  6
CONTINUOUS
 10
13.1217935794
 20
2.5648073559
 40
0.0024749995
100
AcDbArc
 50
89.9999571957
 51
180.0000428042
  0
LINE
  5
31A
100
AcDbEntity
  8
0
100
AcDbLine
 62
2
  6
CONTINUOUS
 10
13.1193185799
 20
2.564807354
 11
13.1193185799
 21
2.4937023146
  0
ARC
  5
31B
100
AcDbEntity
  8
0
100
AcDbCircle
 62
2
  6
CONTINUOUS
 10
13.1168435803
 20
2.4937023128
 40
0.0024749995
100
AcDbArc
 50
269.9999571957
 51
0.0000428043
  0
LINE
  5
31C
100
AcDbEntity
  8
0
100
AcDbLine
 62
2
  6
CONTINUOUS
 10
13.1168435785
 20
2.4912273132
 11
13.0426375373
 21
2.4912273132
  0
ARC
  5
31D
100
AcDbEntity
  8
0
100
AcDbCircle
 62
2
  6
CONTINUOUS
 10
13.0426374026
 20
2.493701481
 40
0.0024741678
100
AcDbArc
 50
226.3477981898
 51
270.0031206038
  0
LINE
  5
31E
100
AcDbEntity
  8
0
100
AcDbLine
 62
2
  6
CONTINUOUS
 10
13.0409295364
 20
2.4919113136
 11
12.9776495013
 21
2.5522893471
  0
ARC
  5
31F
100
AcDbEntity
  8
0
100
AcDbCircle
 62
2
  6
CONTINUOUS
 10
12.9759408003
 20
2.5504984093
 40
0.0024753014
100
AcDbArc
 50
46.3461263059
 51
180.0014637321
  0
LINE
  5
320
100
AcDbEntity
  8
0
100
AcDbLine
 62
2
  6
CONTINUOUS
 10
12.973465499
 20
2.5504983461
 11
12.973465499
 21
2.5184523283
  0
ARC
  5
321
100
AcDbEntity
  8
0
100
AcDbCircle
 62
2
  6
CONTINUOUS
 10
12.9759404985
 20
2.5184523265
 40
0.0024749995
100
AcDbArc
 50
179.9999571957
 51
270.0000428043
  0
LINE
  5
322
100
AcDbEntity
  8
0
100
AcDbLine
 62
2
  6
CONTINUOUS
 10
12.9759405003
 20
2.515977327
 11
12.9962575116
 21
2.515977327
  0
ARC
  5
323
100
AcDbEntity
  8
0
100
AcDbCircle
 62
2
  6
CONTINUOUS
 10
12.9962575135
 20
2.5135023274
 40
0.0024749995
100
AcDbArc
 50
359.9999571957
 51
90.0000428043
  0
LINE
  5
324
100
AcDbEntity
  8
0
100
AcDbLine
 62
2
  6
CONTINUOUS
 10
12.998732513
 20
2.5135023256
 11
12.998732513
 21
2.4937023146
  0
ARC
  5
325
100
AcDbEntity
  8
0
100
AcDbCircle
 62
2
  6
CONTINUOUS
 10
12.9962575135
 20
2.4937023128
 40
0.0024749995
100
AcDbArc
 50
269.9999571957
 51
0.0000428043
  0
LINE
  5
326
100
AcDbEntity
  8
0
100
AcDbLine
 62
2
  6
CONTINUOUS
 10
12.9962575116
 20
2.4912273132
 11
12.9205934696
 21
2.4912273132
  0
ARC
  5
327
100
AcDbEntity
  8
0
100
AcDbCircle
 62
2
  6
CONTINUOUS
 10
12.9205934678
 20
2.4937023128
 40
0.0024749995
100
AcDbArc
 50
179.9999571957
 51
270.0000428043
  0
LINE
  5
328
100
AcDbEntity
  8
0
100
AcDbLine
 62
2
  6
CONTINUOUS
 10
12.9181184683
 20
2.4937023146
 11
12.9181184683
 21
2.5135023256
  0
ARC
  5
329
100
AcDbEntity
  8
0
100
AcDbCircle
 62
2
  6
CONTINUOUS
 10
12.9205934678
 20
2.5135023274
 40
0.0024749995
100
AcDbArc
 50
89.9999571957
 51
180.0000428042
  0
LINE
  5
32A
100
AcDbEntity
  8
0
100
AcDbLine
 62
2
  6
CONTINUOUS
 10
12.9205934696
 20
2.515977327
 11
12.93923948
 21
2.515977327
  0
ARC
  5
32B
100
AcDbEntity
  8
0
100
AcDbCircle
 62
2
  6
CONTINUOUS
 10
12.9392394818
 20
2.5184523265
 40
0.0024749995
100
AcDbArc
 50
269.9999571957
 51
0.0000428043
  0
LINE
  5
32C
100
AcDbEntity
  8
0
100
AcDbLine
 62
2
  6
CONTINUOUS
 10
12.9417144814
 20
2.5184523283
 11
12.9417144814
 21
2.564807354
  0
ARC
  5
32D
100
AcDbEntity
  8
0
100
AcDbCircle
 62
2
  6
CONTINUOUS
 10
12.9392394818
 20
2.5648073559
 40
0.0024749995
100
AcDbArc
 50
359.9999571957
 51
90.0000428043
  0
LINE
  5
32E
100
AcDbEntity
  8
0
100
AcDbLine
 62
2
  6
CONTINUOUS
 10
12.93923948
 20
2.5672823554
 11
12.9205934696
 21
2.5672823554
  0
ARC
  5
32F
100
AcDbEntity
  8
0
100
AcDbCircle
 62
2
  6
CONTINUOUS
 10
12.9205934678
 20
2.5697573549
 40
0.0024749995
100
AcDbArc
 50
179.9999571957
 51
270.0000428043
  0
LINE
  5
330
100
AcDbEntity
  8
0
100
AcDbLine
 62
2
  6
CONTINUOUS
 10
12.9181184683
 20
2.5697573568
 11
12.9181184683
 21
2.5895573678
  0
ARC
  5
331
100
AcDbEntity
  8
0
100
AcDbCircle
 62
2
  6
CONTINUOUS
 10
12.9205934678
 20
2.5895573696
 40
0.0024749995
100
AcDbArc
 50
89.9999571957
 51
180.0000428042
  0
LINE
  5
332
100
AcDbEntity
  8
0
100
AcDbLine
 62
2
  6
CONTINUOUS
 10
13.2934226764
 20
2.5324773361
 11
13.2582556569
 21
2.5324773361
  0
ARC
  5
333
100
AcDbEntity
  8
0
100
AcDbCircle
 62
2
  6
CONTINUOUS
 10
13.2582556551
 20
2.5300023366
 40
0.0024749995
100
AcDbArc
 50
89.9999571957
 51
180.0000428043
  0
LINE
  5
334
100
AcDbEntity
  8
0
100
AcDbLine
 62
2
  6
CONTINUOUS
 10
13.2557806555
 20
2.5300023347
 11
13.2557806555
 21
2.5184523283
  0
ARC
  5
335
100
AcDbEntity
  8
0
100
AcDbCircle
 62
2
  6
CONTINUOUS
 10
13.2582556551
 20
2.5184523265
 40
0.0024749995
100
AcDbArc
 50
179.9999571957
 51
270.0000428043
  0
LINE
  5
336
100
AcDbEntity
  8
0
100
AcDbLine
 62
2
  6
CONTINUOUS
 10
13.2582556569
 20
2.515977327
 11
13.3232596929
 21
2.515977327
  0
ARC
  5
337
100
AcDbEntity
  8
0
100
AcDbCircle
 62
2
  6
CONTINUOUS
 10
13.3232596948
 20
2.5184523265
 40
0.0024749995
100
AcDbArc
 50
269.9999571957
 51
0.0000428043
  0
LINE
  5
338
100
AcDbEntity
  8
0
100
AcDbLine
 62
2
  6
CONTINUOUS
 10
13.3257346943
 20
2.5184523283
 11
13.3257346943
 21
2.5267023329
  0
ARC
  5
339
100
AcDbEntity
  8
0
100
AcDbCircle
 62
2
  6
CONTINUOUS
 10
13.3282096938
 20
2.5267023348
 40
0.0024749995
100
AcDbArc
 50
89.9999571957
 51
180.0000428043
  0
LINE
  5
33A
100
AcDbEntity
  8
0
100
AcDbLine
 62
2
  6
CONTINUOUS
 10
13.3282096957
 20
2.5291773343
 11
13.3705287192
 21
2.5291773343
  0
ARC
  5
33B
100
AcDbEntity
  8
0
100
AcDbCircle
 62
2
  6
CONTINUOUS
 10
13.370528721
 20
2.5267023348
 40
0.0024749995
100
AcDbArc
 50
359.9999571957
 51
90.0000428043
  0
LINE
  5
33C
100
AcDbEntity
  8
0
100
AcDbLine
 62
2
  6
CONTINUOUS
 10
13.3730037205
 20
2.5267023329
 11
13.3730037205
 21
2.4937023146
  0
ARC
  5
33D
100
AcDbEntity
  8
0
100
AcDbCircle
 62
2
  6
CONTINUOUS
 10
13.370528721
 20
2.4937023128
 40
0.0024749995
100
AcDbArc
 50
269.9999571957
 51
0.0000428043
  0
LINE
  5
33E
100
AcDbEntity
  8
0
100
AcDbLine
 62
2
  6
CONTINUOUS
 10
13.3705287192
 20
2.4912273132
 11
13.1673166065
 21
2.4912273132
  0
ARC
  5
33F
100
AcDbEntity
  8
0
100
AcDbCircle
 62
2
  6
CONTINUOUS
 10
13.1673166046
 20
2.4937023128
 40
0.0024749995
100
AcDbArc
 50
179.9999571957
 51
270.0000428043
  0
LINE
  5
340
100
AcDbEntity
  8
0
100
AcDbLine
 62
2
  6
CONTINUOUS
 10
13.1648416051
 20
2.4937023146
 11
13.1648416051
 21
2.5135023256
  0
ARC
  5
341
100
AcDbEntity
  8
0
100
AcDbCircle
 62
2
  6
CONTINUOUS
 10
13.1673166046
 20
2.5135023274
 40
0.0024749995
100
AcDbArc
 50
89.9999571957
 51
180.0000428043
  0
LINE
  5
342
100
AcDbEntity
  8
0
100
AcDbLine
 62
2
  6
CONTINUOUS
 10
13.1673166065
 20
2.515977327
 11
13.1912396197
 21
2.515977327
  0
ARC
  5
343
100
AcDbEntity
  8
0
100
AcDbCircle
 62
2
  6
CONTINUOUS
 10
13.1912396216
 20
2.5184523265
 40
0.0024749995
100
AcDbArc
 50
269.9999571957
 51
0.0000428042
  0
LINE
  5
344
100
AcDbEntity
  8
0
100
AcDbLine
 62
2
  6
CONTINUOUS
 10
13.1937146211
 20
2.5184523283
 11
13.1937146211
 21
2.564807354
  0
ARC
  5
345
100
AcDbEntity
  8
0
100
AcDbCircle
 62
2
  6
CONTINUOUS
 10
13.1912396216
 20
2.5648073559
 40
0.0024749995
100
AcDbArc
 50
359.9999571957
 51
90.0000428043
  0
LINE
  5
346
100
AcDbEntity
  8
0
100
AcDbLine
 62
2
  6
CONTINUOUS
 10
13.1912396197
 20
2.5672823554
 11
13.1673166065
 21
2.5672823554
  0
ARC
  5
347
100
AcDbEntity
  8
0
100
AcDbCircle
 62
2
  6
CONTINUOUS
 10
13.1673166046
 20
2.5697573549
 40
0.0024749995
100
AcDbArc
 50
179.9999571957
 51
270.0000428043
  0
LINE
  5
348
100
AcDbEntity
  8
0
100
AcDbLine
 62
2
  6
CONTINUOUS
 10
13.1648416051
 20
2.5697573568
 11
13.1648416051
 21
2.5895573678
  0
ARC
  5
349
100
AcDbEntity
  8
0
100
AcDbCircle
 62
2
  6
CONTINUOUS
 10
13.1673166046
 20
2.5895573696
 40
0.0024749995
100
AcDbArc
 50
89.9999571957
 51
180.0000428043
  0
LINE
  5
34A
100
AcDbEntity
  8
0
100
AcDbLine
 62
2
  6
CONTINUOUS
 10
13.1673166065
 20
2.5920323691
 11
13.3691097184
 21
2.5920323691
  0
ARC
  5
34B
100
AcDbEntity
  8
0
100
AcDbCircle
 62
2
  6
CONTINUOUS
 10
13.3691097202
 20
2.5895573696
 40
0.0024749995
100
AcDbArc
 50
359.9999571957
 51
90.0000428043
  0
LINE
  5
34C
100
AcDbEntity
  8
0
100
AcDbLine
 62
2
  6
CONTINUOUS
 10
13.3715847197
 20
2.5895573678
 11
13.3715847197
 21
2.5565573495
  0
ARC
  5
34D
100
AcDbEntity
  8
0
100
AcDbCircle
 62
2
  6
CONTINUOUS
 10
13.3691097202
 20
2.5565573476
 40
0.0024749995
100
AcDbArc
 50
269.9999571957
 51
0.0000428042
  0
LINE
  5
34E
100
AcDbEntity
  8
0
100
AcDbLine
 62
2
  6
CONTINUOUS
 10
13.3691097184
 20
2.5540823481
 11
13.3272456952
 21
2.5540823481
  0
ARC
  5
34F
100
AcDbEntity
  8
0
100
AcDbCircle
 62
2
  6
CONTINUOUS
 10
13.3272456933
 20
2.5565573476
 40
0.0024749995
100
AcDbArc
 50
179.9999571957
 51
270.0000428043
  0
LINE
  5
350
100
AcDbEntity
  8
0
100
AcDbLine
 62
2
  6
CONTINUOUS
 10
13.3247706938
 20
2.5565573495
 11
13.3247706938
 21
2.564807354
  0
ARC
  5
351
100
AcDbEntity
  8
0
100
AcDbCircle
 62
2
  6
CONTINUOUS
 10
13.3222956943
 20
2.5648073559
 40
0.0024749995
100
AcDbArc
 50
359.9999571957
 51
90.0000428043
  0
LINE
  5
352
100
AcDbEntity
  8
0
100
AcDbLine
 62
2
  6
CONTINUOUS
 10
13.3222956924
 20
2.5672823554
 11
13.2582556569
 21
2.5672823554
  0
ARC
  5
353
100
AcDbEntity
  8
0
100
AcDbCircle
 62
2
  6
CONTINUOUS
 10
13.2582556551
 20
2.5648073559
 40
0.0024749995
100
AcDbArc
 50
89.9999571957
 51
180.0000428043
  0
LINE
  5
354
100
AcDbEntity
  8
0
100
AcDbLine
 62
2
  6
CONTINUOUS
 10
13.2557806555
 20
2.564807354
 11
13.2557806555
 21
2.5532573476
  0
ARC
  5
355
100
AcDbEntity
  8
0
100
AcDbCircle
 62
2
  6
CONTINUOUS
 10
13.2582556551
 20
2.5532573458
 40
0.0024749995
100
AcDbArc
 50
179.9999571957
 51
270.0000428043
  0
LINE
  5
356
100
AcDbEntity
  8
0
100
AcDbLine
 62
2
  6
CONTINUOUS
 10
13.2582556569
 20
2.5507823463
 11
13.2934226764
 21
2.5507823463
  0
ARC
  5
357
100
AcDbEntity
  8
0
100
AcDbCircle
 62
2
  6
CONTINUOUS
 10
13.2934226783
 20
2.5483073467
 40
0.0024749995
100
AcDbArc
 50
359.9999571957
 51
90.0000428043
  0
LINE
  5
358
100
AcDbEntity
  8
0
100
AcDbLine
 62
2
  6
CONTINUOUS
 10
13.2958976778
 20
2.5483073449
 11
13.2958976778
 21
2.5349523375
  0
ARC
  5
359
100
AcDbEntity
  8
0
100
AcDbCircle
 62
2
  6
CONTINUOUS
 10
13.2934226783
 20
2.5349523356
 40
0.0024749995
100
AcDbArc
 50
269.9999571957
 51
0.0000428042
  0
LINE
  5
35A
100
AcDbEntity
  8
0
100
AcDbLine
 62
2
  6
CONTINUOUS
 10
13.7286871589
 20
2.5350697372
 11
13.7286871589
 21
2.5456869438
  0
LINE
  5
35B
100
AcDbEntity
  8
0
100
AcDbLine
 62
2
  6
CONTINUOUS
 10
13.7086871478
 20
2.5004302075
 11
13.7086871478
 21
2.5803264735
  0
LINE
  5
35C
100
AcDbEntity
  8
0
100
AcDbLine
 62
2
  6
CONTINUOUS
 10
13.6886871368
 20
2.4843919416
 11
13.6886871368
 21
2.5963647394
  0
LINE
  5
35D
100
AcDbEntity
  8
0
100
AcDbLine
 62
2
  6
CONTINUOUS
 10
13.6686871257
 20
2.4726017898
 11
13.6686871257
 21
2.6081548911
  0
LINE
  5
35E
100
AcDbEntity
  8
0
100
AcDbLine
 62
2
  6
CONTINUOUS
 10
13.6486871146
 20
2.4628062688
 11
13.6486871146
 21
2.6179504122
  0
LINE
  5
35F
100
AcDbEntity
  8
0
100
AcDbLine
 62
2
  6
CONTINUOUS
 10
13.6286871035
 20
2.4541253507
 11
13.6286871035
 21
2.5062483056
  0
LINE
  5
360
100
AcDbEntity
  8
0
100
AcDbLine
 62
2
  6
CONTINUOUS
 10
13.6286871035
 20
2.5301143348
 11
13.6286871035
 21
2.6266313303
  0
LINE
  5
361
100
AcDbEntity
  8
0
100
AcDbLine
 62
2
  6
CONTINUOUS
 10
13.6086870924
 20
2.4465537903
 11
13.6086870924
 21
2.4918774918
  0
LINE
  5
362
100
AcDbEntity
  8
0
100
AcDbLine
 62
2
  6
CONTINUOUS
 10
13.6086870924
 20
2.5165781173
 11
13.6086870924
 21
2.6342028907
  0
LINE
  5
363
100
AcDbEntity
  8
0
100
AcDbLine
 62
2
  6
CONTINUOUS
 10
13.5886870813
 20
2.4398033466
 11
13.5886870813
 21
2.4912273132
  0
LINE
  5
364
100
AcDbEntity
  8
0
100
AcDbLine
 62
2
  6
CONTINUOUS
 10
13.5886870813
 20
2.5391840845
 11
13.5886870813
 21
2.5454298327
  0
LINE
  5
365
100
AcDbEntity
  8
0
100
AcDbLine
 62
2
  6
CONTINUOUS
 10
13.5886870813
 20
2.5862063472
 11
13.5886870813
 21
2.6409533343
  0
LINE
  5
366
100
AcDbEntity
  8
0
100
AcDbLine
 62
2
  6
CONTINUOUS
 10
13.5686870702
 20
2.4334702189
 11
13.5686870702
 21
2.4912273132
  0
LINE
  5
367
100
AcDbEntity
  8
0
100
AcDbLine
 62
2
  6
CONTINUOUS
 10
13.5686870702
 20
2.5906587765
 11
13.5686870702
 21
2.647286462
  0
LINE
  5
368
100
AcDbEntity
  8
0
100
AcDbLine
 62
2
  6
CONTINUOUS
 10
13.5486870591
 20
2.4278968124
 11
13.5486870591
 21
2.4937461006
  0
LINE
  5
369
100
AcDbEntity
  8
0
100
AcDbLine
 62
2
  6
CONTINUOUS
 10
13.5486870591
 20
2.5920323691
 11
13.5486870591
 21
2.6528598686
  0
LINE
  5
36A
100
AcDbEntity
  8
0
100
AcDbLine
 62
2
  6
CONTINUOUS
 10
13.528687048
 20
2.4225427674
 11
13.528687048
 21
2.5270426993
  0
LINE
  5
36B
100
AcDbEntity
  8
0
100
AcDbLine
 62
2
  6
CONTINUOUS
 10
13.528687048
 20
2.5505166259
 11
13.528687048
 21
2.5668657091
  0
LINE
  5
36C
100
AcDbEntity
  8
0
100
AcDbLine
 62
2
  6
CONTINUOUS
 10
13.528687048
 20
2.5920323691
 11
13.528687048
 21
2.6582139136
  0
LINE
  5
36D
100
AcDbEntity
  8
0
100
AcDbLine
 62
2
  6
CONTINUOUS
 10
13.5086870369
 20
2.4177306791
 11
13.5086870369
 21
2.4912273132
  0
LINE
  5
36E
100
AcDbEntity
  8
0
100
AcDbLine
 62
2
  6
CONTINUOUS
 10
13.5086870369
 20
2.5159553269
 11
13.5086870369
 21
2.5306043351
  0
LINE
  5
36F
100
AcDbEntity
  8
0
100
AcDbLine
 62
2
  6
CONTINUOUS
 10
13.5086870369
 20
2.5496073456
 11
13.5086870369
 21
2.5672823554
  0
LINE
  5
370
100
AcDbEntity
  8
0
100
AcDbLine
 62
2
  6
CONTINUOUS
 10
13.5086870369
 20
2.5920323691
 11
13.5086870369
 21
2.6630260019
  0
LINE
  5
371
100
AcDbEntity
  8
0
100
AcDbLine
 62
2
  6
CONTINUOUS
 10
13.4886870258
 20
2.4131795254
 11
13.4886870258
 21
2.4912273132
  0
LINE
  5
372
100
AcDbEntity
  8
0
100
AcDbLine
 62
2
  6
CONTINUOUS
 10
13.4886870258
 20
2.5159553269
 11
13.4886870258
 21
2.5306043351
  0
LINE
  5
373
100
AcDbEntity
  8
0
100
AcDbLine
 62
2
  6
CONTINUOUS
 10
13.4886870258
 20
2.5496073456
 11
13.4886870258
 21
2.5672823554
  0
LINE
  5
374
100
AcDbEntity
  8
0
100
AcDbLine
 62
2
  6
CONTINUOUS
 10
13.4886870258
 20
2.5920323691
 11
13.4886870258
 21
2.6675771555
  0
LINE
  5
375
100
AcDbEntity
  8
0
100
AcDbLine
 62
2
  6
CONTINUOUS
 10
13.4686870147
 20
2.4088819672
 11
13.4686870147
 21
2.4912273132
  0
LINE
  5
376
100
AcDbEntity
  8
0
100
AcDbLine
 62
2
  6
CONTINUOUS
 10
13.4686870147
 20
2.5920323691
 11
13.4686870147
 21
2.6718747138
  0
LINE
  5
377
100
AcDbEntity
  8
0
100
AcDbLine
 62
2
  6
CONTINUOUS
 10
13.4486870037
 20
2.4050092072
 11
13.4486870037
 21
2.4912273132
  0
LINE
  5
378
100
AcDbEntity
  8
0
100
AcDbLine
 62
2
  6
CONTINUOUS
 10
13.4486870037
 20
2.5920323691
 11
13.4486870037
 21
2.6757474738
  0
LINE
  5
379
100
AcDbEntity
  8
0
100
AcDbLine
 62
2
  6
CONTINUOUS
 10
13.4286869926
 20
2.4011364471
 11
13.4286869926
 21
2.4912273132
  0
LINE
  5
37A
100
AcDbEntity
  8
0
100
AcDbLine
 62
2
  6
CONTINUOUS
 10
13.4286869926
 20
2.5920323691
 11
13.4286869926
 21
2.6796202339
  0
LINE
  5
37B
100
AcDbEntity
  8
0
100
AcDbLine
 62
2
  6
CONTINUOUS
 10
13.4086869815
 20
2.3980226662
 11
13.4086869815
 21
2.4912273132
  0
LINE
  5
37C
100
AcDbEntity
  8
0
100
AcDbLine
 62
2
  6
CONTINUOUS
 10
13.4086869815
 20
2.515977327
 11
13.4086869815
 21
2.5672823554
  0
LINE
  5
37D
100
AcDbEntity
  8
0
100
AcDbLine
 62
2
  6
CONTINUOUS
 10
13.4086869815
 20
2.5920323691
 11
13.4086869815
 21
2.6827340148
  0
LINE
  5
37E
100
AcDbEntity
  8
0
100
AcDbLine
 62
2
  6
CONTINUOUS
 10
13.3886869704
 20
2.3950052774
 11
13.3886869704
 21
2.6857514036
  0
LINE
  5
37F
100
AcDbEntity
  8
0
100
AcDbLine
 62
2
  6
CONTINUOUS
 10
13.3686869593
 20
2.3919878885
 11
13.3686869593
 21
2.4912273132
  0
LINE
  5
380
100
AcDbEntity
  8
0
100
AcDbLine
 62
2
  6
CONTINUOUS
 10
13.3686869593
 20
2.5291773343
 11
13.3686869593
 21
2.5540823481
  0
LINE
  5
381
100
AcDbEntity
  8
0
100
AcDbLine
 62
2
  6
CONTINUOUS
 10
13.3686869593
 20
2.5920323691
 11
13.3686869593
 21
2.6887687924
  0
LINE
  5
382
100
AcDbEntity
  8
0
100
AcDbLine
 62
2
  6
CONTINUOUS
 10
13.3486869482
 20
2.3889704997
 11
13.3486869482
 21
2.4912273132
  0
LINE
  5
383
100
AcDbEntity
  8
0
100
AcDbLine
 62
2
  6
CONTINUOUS
 10
13.3486869482
 20
2.5291773343
 11
13.3486869482
 21
2.5540823481
  0
LINE
  5
384
100
AcDbEntity
  8
0
100
AcDbLine
 62
2
  6
CONTINUOUS
 10
13.3486869482
 20
2.5920323691
 11
13.3486869482
 21
2.6917861813
  0
LINE
  5
385
100
AcDbEntity
  8
0
100
AcDbLine
 62
2
  6
CONTINUOUS
 10
13.3286869371
 20
2.3859531109
 11
13.3286869371
 21
2.4912273132
  0
LINE
  5
386
100
AcDbEntity
  8
0
100
AcDbLine
 62
2
  6
CONTINUOUS
 10
13.3286869371
 20
2.5291773343
 11
13.3286869371
 21
2.5540823481
  0
LINE
  5
387
100
AcDbEntity
  8
0
100
AcDbLine
 62
2
  6
CONTINUOUS
 10
13.3286869371
 20
2.5920323691
 11
13.3286869371
 21
2.6948035701
  0
LINE
  5
388
100
AcDbEntity
  8
0
100
AcDbLine
 62
2
  6
CONTINUOUS
 10
13.308686926
 20
2.3833355437
 11
13.308686926
 21
2.4912273132
  0
LINE
  5
389
100
AcDbEntity
  8
0
100
AcDbLine
 62
2
  6
CONTINUOUS
 10
13.308686926
 20
2.515977327
 11
13.308686926
 21
2.5672823554
  0
LINE
  5
38A
100
AcDbEntity
  8
0
100
AcDbLine
 62
2
  6
CONTINUOUS
 10
13.308686926
 20
2.5920323691
 11
13.308686926
 21
2.6974211373
  0
LINE
  5
38B
100
AcDbEntity
  8
0
100
AcDbLine
 62
2
  6
CONTINUOUS
 10
13.2886869149
 20
2.3812612684
 11
13.2886869149
 21
2.4912273132
  0
LINE
  5
38C
100
AcDbEntity
  8
0
100
AcDbLine
 62
2
  6
CONTINUOUS
 10
13.2886869149
 20
2.515977327
 11
13.2886869149
 21
2.5324773361
  0
LINE
  5
38D
100
AcDbEntity
  8
0
100
AcDbLine
 62
2
  6
CONTINUOUS
 10
13.2886869149
 20
2.5507823463
 11
13.2886869149
 21
2.5672823554
  0
LINE
  5
38E
100
AcDbEntity
  8
0
100
AcDbLine
 62
2
  6
CONTINUOUS
 10
13.2886869149
 20
2.5920323691
 11
13.2886869149
 21
2.6994954125
  0
LINE
  5
38F
100
AcDbEntity
  8
0
100
AcDbLine
 62
2
  6
CONTINUOUS
 10
13.2686869038
 20
2.3791869932
 11
13.2686869038
 21
2.4912273132
  0
LINE
  5
390
100
AcDbEntity
  8
0
100
AcDbLine
 62
2
  6
CONTINUOUS
 10
13.2686869038
 20
2.515977327
 11
13.2686869038
 21
2.5324773361
  0
LINE
  5
391
100
AcDbEntity
  8
0
100
AcDbLine
 62
2
  6
CONTINUOUS
 10
13.2686869038
 20
2.5507823463
 11
13.2686869038
 21
2.5672823554
  0
LINE
  5
392
100
AcDbEntity
  8
0
100
AcDbLine
 62
2
  6
CONTINUOUS
 10
13.2686869038
 20
2.5920323691
 11
13.2686869038
 21
2.7015696878
  0
LINE
  5
393
100
AcDbEntity
  8
0
100
AcDbLine
 62
2
  6
CONTINUOUS
 10
13.2486868927
 20
2.377112718
 11
13.2486868927
 21
2.4912273132
  0
LINE
  5
394
100
AcDbEntity
  8
0
100
AcDbLine
 62
2
  6
CONTINUOUS
 10
13.2486868927
 20
2.5920323691
 11
13.2486868927
 21
2.703643963
  0
LINE
  5
395
100
AcDbEntity
  8
0
100
AcDbLine
 62
2
  6
CONTINUOUS
 10
13.2286868817
 20
2.3750384428
 11
13.2286868817
 21
2.4912273132
  0
LINE
  5
396
100
AcDbEntity
  8
0
100
AcDbLine
 62
2
  6
CONTINUOUS
 10
13.2286868817
 20
2.5920323691
 11
13.2286868817
 21
2.7057182382
  0
LINE
  5
397
100
AcDbEntity
  8
0
100
AcDbLine
 62
2
  6
CONTINUOUS
 10
13.2086868706
 20
2.3729641676
 11
13.2086868706
 21
2.4912273132
  0
LINE
  5
398
100
AcDbEntity
  8
0
100
AcDbLine
 62
2
  6
CONTINUOUS
 10
13.2086868706
 20
2.5920323691
 11
13.2086868706
 21
2.7077925134
  0
LINE
  5
399
100
AcDbEntity
  8
0
100
AcDbLine
 62
2
  6
CONTINUOUS
 10
13.1886868595
 20
2.3712344456
 11
13.1886868595
 21
2.4912273132
  0
LINE
  5
39A
100
AcDbEntity
  8
0
100
AcDbLine
 62
2
  6
CONTINUOUS
 10
13.1886868595
 20
2.515977327
 11
13.1886868595
 21
2.5672823554
  0
LINE
  5
39B
100
AcDbEntity
  8
0
100
AcDbLine
 62
2
  6
CONTINUOUS
 10
13.1886868595
 20
2.5920323691
 11
13.1886868595
 21
2.7095222354
  0
LINE
  5
39C
100
AcDbEntity
  8
0
100
AcDbLine
 62
2
  6
CONTINUOUS
 10
13.1686868484
 20
2.3699682418
 11
13.1686868484
 21
2.4912273132
  0
LINE
  5
39D
100
AcDbEntity
  8
0
100
AcDbLine
 62
2
  6
CONTINUOUS
 10
13.1686868484
 20
2.515977327
 11
13.1686868484
 21
2.5672823554
  0
LINE
  5
39E
100
AcDbEntity
  8
0
100
AcDbLine
 62
2
  6
CONTINUOUS
 10
13.1686868484
 20
2.5920323691
 11
13.1686868484
 21
2.7107884392
  0
LINE
  5
39F
100
AcDbEntity
  8
0
100
AcDbLine
 62
2
  6
CONTINUOUS
 10
13.1486868373
 20
2.3687020381
 11
13.1486868373
 21
2.7120546429
  0
LINE
  5
3A0
100
AcDbEntity
  8
0
100
AcDbLine
 62
2
  6
CONTINUOUS
 10
13.1286868262
 20
2.3674358343
 11
13.1286868262
 21
2.5672823554
  0
LINE
  5
3A1
100
AcDbEntity
  8
0
100
AcDbLine
 62
2
  6
CONTINUOUS
 10
13.1286868262
 20
2.5920323691
 11
13.1286868262
 21
2.7133208466
  0
LINE
  5
3A2
100
AcDbEntity
  8
0
100
AcDbLine
 62
2
  6
CONTINUOUS
 10
13.1086868151
 20
2.3661696306
 11
13.1086868151
 21
2.4912273132
  0
LINE
  5
3A3
100
AcDbEntity
  8
0
100
AcDbLine
 62
2
  6
CONTINUOUS
 10
13.1086868151
 20
2.5920323691
 11
13.1086868151
 21
2.7145870504
  0
LINE
  5
3A4
100
AcDbEntity
  8
0
100
AcDbLine
 62
2
  6
CONTINUOUS
 10
13.088686804
 20
2.3649034269
 11
13.088686804
 21
2.4912273132
  0
LINE
  5
3A5
100
AcDbEntity
  8
0
100
AcDbLine
 62
2
  6
CONTINUOUS
 10
13.088686804
 20
2.5920323691
 11
13.088686804
 21
2.7158532541
  0
LINE
  5
3A6
100
AcDbEntity
  8
0
100
AcDbLine
 62
2
  6
CONTINUOUS
 10
13.0686867929
 20
2.3636739922
 11
13.0686867929
 21
2.4912273132
  0
LINE
  5
3A7
100
AcDbEntity
  8
0
100
AcDbLine
 62
2
  6
CONTINUOUS
 10
13.0686867929
 20
2.5475272398
 11
13.0686867929
 21
2.5672823554
  0
LINE
  5
3A8
100
AcDbEntity
  8
0
100
AcDbLine
 62
2
  6
CONTINUOUS
 10
13.0686867929
 20
2.5920323691
 11
13.0686867929
 21
2.7170826887
  0
LINE
  5
3A9
100
AcDbEntity
  8
0
100
AcDbLine
 62
2
  6
CONTINUOUS
 10
13.0486867818
 20
2.363143203
 11
13.0486867818
 21
2.4912273132
  0
LINE
  5
3AA
100
AcDbEntity
  8
0
100
AcDbLine
 62
2
  6
CONTINUOUS
 10
13.0486867818
 20
2.5666100882
 11
13.0486867818
 21
2.717613478
  0
LINE
  5
3AB
100
AcDbEntity
  8
0
100
AcDbLine
 62
2
  6
CONTINUOUS
 10
13.0286867707
 20
2.3626124138
 11
13.0286867707
 21
2.50359263
  0
LINE
  5
3AC
100
AcDbEntity
  8
0
100
AcDbLine
 62
2
  6
CONTINUOUS
 10
13.0286867707
 20
2.5856929366
 11
13.0286867707
 21
2.7181442672
  0
LINE
  5
3AD
100
AcDbEntity
  8
0
100
AcDbLine
 62
2
  6
CONTINUOUS
 10
13.0086867596
 20
2.3620816246
 11
13.0086867596
 21
2.5226754472
  0
LINE
  5
3AE
100
AcDbEntity
  8
0
100
AcDbLine
 62
2
  6
CONTINUOUS
 10
13.0086867596
 20
2.5920323691
 11
13.0086867596
 21
2.7186750564
  0
LINE
  5
3AF
100
AcDbEntity
  8
0
100
AcDbLine
 62
2
  6
CONTINUOUS
 10
12.9886867486
 20
2.3615508354
 11
12.9886867486
 21
2.4912273132
  0
LINE
  5
3B0
100
AcDbEntity
  8
0
100
AcDbLine
 62
2
  6
CONTINUOUS
 10
12.9886867486
 20
2.515977327
 11
12.9886867486
 21
2.5417582644
  0
LINE
  5
3B1
100
AcDbEntity
  8
0
100
AcDbLine
 62
2
  6
CONTINUOUS
 10
12.9886867486
 20
2.5920323691
 11
12.9886867486
 21
2.7192058456
  0
LINE
  5
3B2
100
AcDbEntity
  8
0
100
AcDbLine
 62
2
  6
CONTINUOUS
 10
12.9686867375
 20
2.3610200462
 11
12.9686867375
 21
2.4912273132
  0
LINE
  5
3B3
100
AcDbEntity
  8
0
100
AcDbLine
 62
2
  6
CONTINUOUS
 10
12.9686867375
 20
2.5920323691
 11
12.9686867375
 21
2.7197366348
  0
LINE
  5
3B4
100
AcDbEntity
  8
0
100
AcDbLine
 62
2
  6
CONTINUOUS
 10
12.9486867264
 20
2.360489257
 11
12.9486867264
 21
2.4912273132
  0
LINE
  5
3B5
100
AcDbEntity
  8
0
100
AcDbLine
 62
2
  6
CONTINUOUS
 10
12.9486867264
 20
2.5920323691
 11
12.9486867264
 21
2.720267424
  0
LINE
  5
3B6
100
AcDbEntity
  8
0
100
AcDbLine
 62
2
  6
CONTINUOUS
 10
12.9286867153
 20
2.3602836008
 11
12.9286867153
 21
2.4912273132
  0
LINE
  5
3B7
100
AcDbEntity
  8
0
100
AcDbLine
 62
2
  6
CONTINUOUS
 10
12.9286867153
 20
2.515977327
 11
12.9286867153
 21
2.5672823554
  0
LINE
  5
3B8
100
AcDbEntity
  8
0
100
AcDbLine
 62
2
  6
CONTINUOUS
 10
12.9286867153
 20
2.5920323691
 11
12.9286867153
 21
2.7204730802
  0
LINE
  5
3B9
100
AcDbEntity
  8
0
100
AcDbLine
 62
2
  6
CONTINUOUS
 10
12.9086867042
 20
2.3604597639
 11
12.9086867042
 21
2.7202969171
  0
LINE
  5
3BA
100
AcDbEntity
  8
0
100
AcDbLine
 62
2
  6
CONTINUOUS
 10
12.8886866931
 20
2.360635927
 11
12.8886866931
 21
2.5672823554
  0
LINE
  5
3BB
100
AcDbEntity
  8
0
100
AcDbLine
 62
2
  6
CONTINUOUS
 10
12.8886866931
 20
2.5920323691
 11
12.8886866931
 21
2.720120754
  0
LINE
  5
3BC
100
AcDbEntity
  8
0
100
AcDbLine
 62
2
  6
CONTINUOUS
 10
12.868686682
 20
2.3608120901
 11
12.868686682
 21
2.491232357
  0
LINE
  5
3BD
100
AcDbEntity
  8
0
100
AcDbLine
 62
2
  6
CONTINUOUS
 10
12.868686682
 20
2.5920323691
 11
12.868686682
 21
2.7199445909
  0
LINE
  5
3BE
100
AcDbEntity
  8
0
100
AcDbLine
 62
2
  6
CONTINUOUS
 10
12.8486866709
 20
2.3609882532
 11
12.8486866709
 21
2.4912273132
  0
LINE
  5
3BF
100
AcDbEntity
  8
0
100
AcDbLine
 62
2
  6
CONTINUOUS
 10
12.8486866709
 20
2.5920323691
 11
12.8486866709
 21
2.7197684278
  0
LINE
  5
3C0
100
AcDbEntity
  8
0
100
AcDbLine
 62
2
  6
CONTINUOUS
 10
12.8286866598
 20
2.3611644163
 11
12.8286866598
 21
2.4912273132
  0
LINE
  5
3C1
100
AcDbEntity
  8
0
100
AcDbLine
 62
2
  6
CONTINUOUS
 10
12.8286866598
 20
2.5396527025
 11
12.8286866598
 21
2.5672823554
  0
LINE
  5
3C2
100
AcDbEntity
  8
0
100
AcDbLine
 62
2
  6
CONTINUOUS
 10
12.8286866598
 20
2.5920323691
 11
12.8286866598
 21
2.7195922647
  0
LINE
  5
3C3
100
AcDbEntity
  8
0
100
AcDbLine
 62
2
  6
CONTINUOUS
 10
12.8086866487
 20
2.3613405794
 11
12.8086866487
 21
2.4912273132
  0
LINE
  5
3C4
100
AcDbEntity
  8
0
100
AcDbLine
 62
2
  6
CONTINUOUS
 10
12.8086866487
 20
2.5587355508
 11
12.8086866487
 21
2.7194161016
  0
LINE
  5
3C5
100
AcDbEntity
  8
0
100
AcDbLine
 62
2
  6
CONTINUOUS
 10
12.7886866376
 20
2.3621089572
 11
12.7886866376
 21
2.4957181055
  0
LINE
  5
3C6
100
AcDbEntity
  8
0
100
AcDbLine
 62
2
  6
CONTINUOUS
 10
12.7886866376
 20
2.5778183992
 11
12.7886866376
 21
2.7186477238
  0
LINE
  5
3C7
100
AcDbEntity
  8
0
100
AcDbLine
 62
2
  6
CONTINUOUS
 10
12.7686866266
 20
2.3630013935
 11
12.7686866266
 21
2.5148009227
  0
LINE
  5
3C8
100
AcDbEntity
  8
0
100
AcDbLine
 62
2
  6
CONTINUOUS
 10
12.7686866266
 20
2.5920323691
 11
12.7686866266
 21
2.7177552874
  0
LINE
  5
3C9
100
AcDbEntity
  8
0
100
AcDbLine
 62
2
  6
CONTINUOUS
 10
12.7486866155
 20
2.3638938299
 11
12.7486866155
 21
2.4913263218
  0
LINE
  5
3CA
100
AcDbEntity
  8
0
100
AcDbLine
 62
2
  6
CONTINUOUS
 10
12.7486866155
 20
2.5158783184
 11
12.7486866155
 21
2.5338837399
  0
LINE
  5
3CB
100
AcDbEntity
  8
0
100
AcDbLine
 62
2
  6
CONTINUOUS
 10
12.7486866155
 20
2.5920323691
 11
12.7486866155
 21
2.7168628511
  0
LINE
  5
3CC
100
AcDbEntity
  8
0
100
AcDbLine
 62
2
  6
CONTINUOUS
 10
12.7286866044
 20
2.3647862663
 11
12.7286866044
 21
2.4912273132
  0
LINE
  5
3CD
100
AcDbEntity
  8
0
100
AcDbLine
 62
2
  6
CONTINUOUS
 10
12.7286866044
 20
2.515977327
 11
12.7286866044
 21
2.5527601554
  0
LINE
  5
3CE
100
AcDbEntity
  8
0
100
AcDbLine
 62
2
  6
CONTINUOUS
 10
12.7286866044
 20
2.5920323691
 11
12.7286866044
 21
2.7159704147
  0
LINE
  5
3CF
100
AcDbEntity
  8
0
100
AcDbLine
 62
2
  6
CONTINUOUS
 10
12.7086865933
 20
2.3656787026
 11
12.7086865933
 21
2.4912273132
  0
LINE
  5
3D0
100
AcDbEntity
  8
0
100
AcDbLine
 62
2
  6
CONTINUOUS
 10
12.7086865933
 20
2.5920323691
 11
12.7086865933
 21
2.7150779784
  0
LINE
  5
3D1
100
AcDbEntity
  8
0
100
AcDbLine
 62
2
  6
CONTINUOUS
 10
12.6886865822
 20
2.366571139
 11
12.6886865822
 21
2.4912273132
  0
LINE
  5
3D2
100
AcDbEntity
  8
0
100
AcDbLine
 62
2
  6
CONTINUOUS
 10
12.6886865822
 20
2.515977327
 11
12.6886865822
 21
2.5672823554
  0
LINE
  5
3D3
100
AcDbEntity
  8
0
100
AcDbLine
 62
2
  6
CONTINUOUS
 10
12.6886865822
 20
2.5920323691
 11
12.6886865822
 21
2.714185542
  0
LINE
  5
3D4
100
AcDbEntity
  8
0
100
AcDbLine
 62
2
  6
CONTINUOUS
 10
12.6686865711
 20
2.3677104027
 11
12.6686865711
 21
2.7130462783
  0
LINE
  5
3D5
100
AcDbEntity
  8
0
100
AcDbLine
 62
2
  6
CONTINUOUS
 10
12.64868656
 20
2.3693682721
 11
12.64868656
 21
2.7113884089
  0
LINE
  5
3D6
100
AcDbEntity
  8
0
100
AcDbLine
 62
2
  6
CONTINUOUS
 10
12.6286865489
 20
2.3710261415
 11
12.6286865489
 21
2.4912273132
  0
LINE
  5
3D7
100
AcDbEntity
  8
0
100
AcDbLine
 62
2
  6
CONTINUOUS
 10
12.6286865489
 20
2.515977327
 11
12.6286865489
 21
2.7097305395
  0
LINE
  5
3D8
100
AcDbEntity
  8
0
100
AcDbLine
 62
2
  6
CONTINUOUS
 10
12.6086865378
 20
2.372684011
 11
12.6086865378
 21
2.4912273132
  0
LINE
  5
3D9
100
AcDbEntity
  8
0
100
AcDbLine
 62
2
  6
CONTINUOUS
 10
12.6086865378
 20
2.5351122279
 11
12.6086865378
 21
2.70807267
  0
LINE
  5
3DA
100
AcDbEntity
  8
0
100
AcDbLine
 62
2
  6
CONTINUOUS
 10
12.5886865267
 20
2.3743418804
 11
12.5886865267
 21
2.4912273132
  0
LINE
  5
3DB
100
AcDbEntity
  8
0
100
AcDbLine
 62
2
  6
CONTINUOUS
 10
12.5886865267
 20
2.5660172622
 11
12.5886865267
 21
2.7064148006
  0
LINE
  5
3DC
100
AcDbEntity
  8
0
100
AcDbLine
 62
2
  6
CONTINUOUS
 10
12.5686865156
 20
2.3759997498
 11
12.5686865156
 21
2.4912273132
  0
LINE
  5
3DD
100
AcDbEntity
  8
0
100
AcDbLine
 62
2
  6
CONTINUOUS
 10
12.5686865156
 20
2.5920323691
 11
12.5686865156
 21
2.7047569312
  0
LINE
  5
3DE
100
AcDbEntity
  8
0
100
AcDbLine
 62
2
  6
CONTINUOUS
 10
12.5486865045
 20
2.3777575277
 11
12.5486865045
 21
2.4912273132
  0
LINE
  5
3DF
100
AcDbEntity
  8
0
100
AcDbLine
 62
2
  6
CONTINUOUS
 10
12.5486865045
 20
2.515977327
 11
12.5486865045
 21
2.5275118824
  0
LINE
  5
3E0
100
AcDbEntity
  8
0
100
AcDbLine
 62
2
  6
CONTINUOUS
 10
12.5486865045
 20
2.5920323691
 11
12.5486865045
 21
2.7029991533
  0
LINE
  5
3E1
100
AcDbEntity
  8
0
100
AcDbLine
 62
2
  6
CONTINUOUS
 10
12.5286864935
 20
2.3802813811
 11
12.5286864935
 21
2.5296213345
  0
LINE
  5
3E2
100
AcDbEntity
  8
0
100
AcDbLine
 62
2
  6
CONTINUOUS
 10
12.5286864935
 20
2.5505713461
 11
12.5286864935
 21
2.5667383551
  0
LINE
  5
3E3
100
AcDbEntity
  8
0
100
AcDbLine
 62
2
  6
CONTINUOUS
 10
12.5286864935
 20
2.5920323691
 11
12.5286864935
 21
2.7004752999
  0
LINE
  5
3E4
100
AcDbEntity
  8
0
100
AcDbLine
 62
2
  6
CONTINUOUS
 10
12.5086864824
 20
2.3828052346
 11
12.5086864824
 21
2.4912273132
  0
LINE
  5
3E5
100
AcDbEntity
  8
0
100
AcDbLine
 62
2
  6
CONTINUOUS
 10
12.5086864824
 20
2.515977327
 11
12.5086864824
 21
2.5279667721
  0
LINE
  5
3E6
100
AcDbEntity
  8
0
100
AcDbLine
 62
2
  6
CONTINUOUS
 10
12.5086864824
 20
2.5868602074
 11
12.5086864824
 21
2.6979514464
  0
LINE
  5
3E7
100
AcDbEntity
  8
0
100
AcDbLine
 62
2
  6
CONTINUOUS
 10
12.4886864713
 20
2.385329088
 11
12.4886864713
 21
2.4912273132
  0
LINE
  5
3E8
100
AcDbEntity
  8
0
100
AcDbLine
 62
2
  6
CONTINUOUS
 10
12.4886864713
 20
2.5553401045
 11
12.4886864713
 21
2.695427593
  0
LINE
  5
3E9
100
AcDbEntity
  8
0
100
AcDbLine
 62
2
  6
CONTINUOUS
 10
12.4686864602
 20
2.3878529415
 11
12.4686864602
 21
2.4912273132
  0
LINE
  5
3EA
100
AcDbEntity
  8
0
100
AcDbLine
 62
2
  6
CONTINUOUS
 10
12.4686864602
 20
2.5238200015
 11
12.4686864602
 21
2.6929037395
  0
LINE
  5
3EB
100
AcDbEntity
  8
0
100
AcDbLine
 62
2
  6
CONTINUOUS
 10
12.4486864491
 20
2.390376795
 11
12.4486864491
 21
2.4912273132
  0
LINE
  5
3EC
100
AcDbEntity
  8
0
100
AcDbLine
 62
2
  6
CONTINUOUS
 10
12.4486864491
 20
2.515977327
 11
12.4486864491
 21
2.690379886
  0
LINE
  5
3ED
100
AcDbEntity
  8
0
100
AcDbLine
 62
2
  6
CONTINUOUS
 10
12.428686438
 20
2.3931794042
 11
12.428686438
 21
2.6875772768
  0
LINE
  5
3EE
100
AcDbEntity
  8
0
100
AcDbLine
 62
2
  6
CONTINUOUS
 10
12.4086864269
 20
2.3964643301
 11
12.4086864269
 21
2.5013773986
  0
LINE
  5
3EF
100
AcDbEntity
  8
0
100
AcDbLine
 62
2
  6
CONTINUOUS
 10
12.4086864269
 20
2.5325739971
 11
12.4086864269
 21
2.5537224311
  0
LINE
  5
3F0
100
AcDbEntity
  8
0
100
AcDbLine
 62
2
  6
CONTINUOUS
 10
12.4086864269
 20
2.5791473398
 11
12.4086864269
 21
2.6842923509
  0
LINE
  5
3F1
100
AcDbEntity
  8
0
100
AcDbLine
 62
2
  6
CONTINUOUS
 10
12.3886864158
 20
2.399749256
 11
12.3886864158
 21
2.4921022658
  0
LINE
  5
3F2
100
AcDbEntity
  8
0
100
AcDbLine
 62
2
  6
CONTINUOUS
 10
12.3886864158
 20
2.5895929958
 11
12.3886864158
 21
2.681007425
  0
LINE
  5
3F3
100
AcDbEntity
  8
0
100
AcDbLine
 62
2
  6
CONTINUOUS
 10
12.3686864047
 20
2.403451877
 11
12.3686864047
 21
2.4912273132
  0
LINE
  5
3F4
100
AcDbEntity
  8
0
100
AcDbLine
 62
2
  6
CONTINUOUS
 10
12.3686864047
 20
2.5920323691
 11
12.3686864047
 21
2.677304804
  0
LINE
  5
3F5
100
AcDbEntity
  8
0
100
AcDbLine
 62
2
  6
CONTINUOUS
 10
12.3486863936
 20
2.407324637
 11
12.3486863936
 21
2.4912273132
  0
LINE
  5
3F6
100
AcDbEntity
  8
0
100
AcDbLine
 62
2
  6
CONTINUOUS
 10
12.3486863936
 20
2.5920323691
 11
12.3486863936
 21
2.673432044
  0
LINE
  5
3F7
100
AcDbEntity
  8
0
100
AcDbLine
 62
2
  6
CONTINUOUS
 10
12.3286863825
 20
2.4113493968
 11
12.3286863825
 21
2.4912273132
  0
LINE
  5
3F8
100
AcDbEntity
  8
0
100
AcDbLine
 62
2
  6
CONTINUOUS
 10
12.3286863825
 20
2.515977327
 11
12.3286863825
 21
2.5333023366
  0
LINE
  5
3F9
100
AcDbEntity
  8
0
100
AcDbLine
 62
2
  6
CONTINUOUS
 10
12.3286863825
 20
2.5499573458
 11
12.3286863825
 21
2.5672823554
  0
LINE
  5
3FA
100
AcDbEntity
  8
0
100
AcDbLine
 62
2
  6
CONTINUOUS
 10
12.3286863825
 20
2.5920323691
 11
12.3286863825
 21
2.6694072842
  0
LINE
  5
3FB
100
AcDbEntity
  8
0
100
AcDbLine
 62
2
  6
CONTINUOUS
 10
12.3086863715
 20
2.4159005505
 11
12.3086863715
 21
2.4912273132
  0
LINE
  5
3FC
100
AcDbEntity
  8
0
100
AcDbLine
 62
2
  6
CONTINUOUS
 10
12.3086863715
 20
2.515977327
 11
12.3086863715
 21
2.5333023366
  0
LINE
  5
3FD
100
AcDbEntity
  8
0
100
AcDbLine
 62
2
  6
CONTINUOUS
 10
12.3086863715
 20
2.5499573458
 11
12.3086863715
 21
2.5672823554
  0
LINE
  5
3FE
100
AcDbEntity
  8
0
100
AcDbLine
 62
2
  6
CONTINUOUS
 10
12.3086863715
 20
2.5920323691
 11
12.3086863715
 21
2.6648561305
  0
LINE
  5
3FF
100
AcDbEntity
  8
0
100
AcDbLine
 62
2
  6
CONTINUOUS
 10
12.2886863604
 20
2.4204517041
 11
12.2886863604
 21
2.4912273132
  0
LINE
  5
400
100
AcDbEntity
  8
0
100
AcDbLine
 62
2
  6
CONTINUOUS
 10
12.2886863604
 20
2.5920323691
 11
12.2886863604
 21
2.6603049769
  0
LINE
  5
401
100
AcDbEntity
  8
0
100
AcDbLine
 62
2
  6
CONTINUOUS
 10
12.2686863493
 20
2.4257438218
 11
12.2686863493
 21
2.4912273132
  0
LINE
  5
402
100
AcDbEntity
  8
0
100
AcDbLine
 62
2
  6
CONTINUOUS
 10
12.2686863493
 20
2.5920323691
 11
12.2686863493
 21
2.6550128592
  0
LINE
  5
403
100
AcDbEntity
  8
0
100
AcDbLine
 62
2
  6
CONTINUOUS
 10
12.2486863382
 20
2.4310978667
 11
12.2486863382
 21
2.4912273132
  0
LINE
  5
404
100
AcDbEntity
  8
0
100
AcDbLine
 62
2
  6
CONTINUOUS
 10
12.2486863382
 20
2.5920323691
 11
12.2486863382
 21
2.6496588142
  0
LINE
  5
405
100
AcDbEntity
  8
0
100
AcDbLine
 62
2
  6
CONTINUOUS
 10
12.2286863271
 20
2.4372566433
 11
12.2286863271
 21
2.4912273132
  0
LINE
  5
406
100
AcDbEntity
  8
0
100
AcDbLine
 62
2
  6
CONTINUOUS
 10
12.2286863271
 20
2.515977327
 11
12.2286863271
 21
2.5672823554
  0
LINE
  5
407
100
AcDbEntity
  8
0
100
AcDbLine
 62
2
  6
CONTINUOUS
 10
12.2286863271
 20
2.5920323691
 11
12.2286863271
 21
2.6435000377
  0
LINE
  5
408
100
AcDbEntity
  8
0
100
AcDbLine
 62
2
  6
CONTINUOUS
 10
12.208686316
 20
2.443589771
 11
12.208686316
 21
2.4912273132
  0
LINE
  5
409
100
AcDbEntity
  8
0
100
AcDbLine
 62
2
  6
CONTINUOUS
 10
12.208686316
 20
2.515977327
 11
12.208686316
 21
2.5672823554
  0
LINE
  5
40A
100
AcDbEntity
  8
0
100
AcDbLine
 62
2
  6
CONTINUOUS
 10
12.208686316
 20
2.5920323691
 11
12.208686316
 21
2.63716691
  0
LINE
  5
40B
100
AcDbEntity
  8
0
100
AcDbLine
 62
2
  6
CONTINUOUS
 10
12.1886863049
 20
2.4510806436
 11
12.1886863049
 21
2.6296760373
  0
LINE
  5
40C
100
AcDbEntity
  8
0
100
AcDbLine
 62
2
  6
CONTINUOUS
 10
12.1686862938
 20
2.4591016523
 11
12.1686862938
 21
2.6216550287
  0
LINE
  5
40D
100
AcDbEntity
  8
0
100
AcDbLine
 62
2
  6
CONTINUOUS
 10
12.1486862827
 20
2.468314272
 11
12.1486862827
 21
2.612442409
  0
LINE
  5
40E
100
AcDbEntity
  8
0
100
AcDbLine
 62
2
  6
CONTINUOUS
 10
12.1286862716
 20
2.4794932339
 11
12.1286862716
 21
2.601263447
  0
LINE
  5
40F
100
AcDbEntity
  8
0
100
AcDbLine
 62
2
  6
CONTINUOUS
 10
12.1086862605
 20
2.4934150665
 11
12.1086862605
 21
2.5873416144
  0
LINE
  5
410
100
AcDbEntity
  8
0
100
AcDbLine
 62
2
  6
CONTINUOUS
 10
12.0886862494
 20
2.5144449553
 11
12.0886862494
 21
2.5663117257
  0
ENDBLK
  5
411
100
AcDbEntity
  8
0
  6
BYBLOCK
 62
0
100
AcDbBlockEnd
  0
BLOCK
  5
412
100
AcDbEntity
  8
0
100
AcDbBlockBegin
  2
_FILLED
 70
64
 10
0.0
 20
0.0
  3
_FILLED
  1

  0
SOLID
  5
413
100
AcDbEntity
  8
0
  6
BYBLOCK
 62
0
100
AcDbTrace
 10
0.0
 20
0.0
 11
-1.0
 21
0.1666666667
 12
-1.0
 22
-0.1666666667
 13
-1.0
 23
-0.1666666667
  0
ENDBLK
  5
414
100
AcDbEntity
  8
0
  6
BYBLOCK
 62
0
100
AcDbBlockEnd
  0
BLOCK
  5
415
100
AcDbEntity
  8
SCHEME_DIMS
100
AcDbBlockBegin
 62
2
  6
CONTINUOUS
  2
*D0
 70
65
 10
0.0
 20
0.0
  3
*D0
  1

  0
MTEXT
  5
416
100
AcDbEntity
  8
SCHEME_DIMS
100
AcDbMText
 62
2
  6
CONTINUOUS
  7
STANDARD
 71
2
 72
1
 10
5.387939803
 20
5.196918202
 30
0.0
 11
1.0
 21
0.0
 31
0.0
 44
0.9
  1
31\P[1.22]
 40
0.1
 41
0.6
  0
LINE
  5
417
100
AcDbEntity
  8
SCHEME_DIMS
100
AcDbLine
 62
2
  6
CONTINUOUS
 10
4.6225722896
 20
4.460918202
 11
5.712939803
 21
4.460918202
  0
LINE
  5
418
100
AcDbEntity
  8
SCHEME_DIMS
100
AcDbLine
 62
2
  6
CONTINUOUS
 10
5.248939803
 20
5.682918202
 11
5.712939803
 21
5.682918202
  0
LINE
  5
419
100
AcDbEntity
  8
SCHEME_DIMS
100
AcDbLine
 62
2
  6
CONTINUOUS
 10
5.587939803
 20
4.460918202
 11
5.587939803
 21
4.846918202
  0
LINE
  5
41A
100
AcDbEntity
  8
SCHEME_DIMS
100
AcDbLine
 62
2
  6
CONTINUOUS
 10
5.587939803
 20
5.682918202
 11
5.587939803
 21
5.296918202
  0
INSERT
  5
41B
100
AcDbEntity
  8
SCHEME_DIMS
100
AcDbBlockReference
 62
2
  6
CONTINUOUS
  2
_FILLED
 10
5.587939803
 20
4.460918202
 41
0.1875
 42
0.1875
 43
0.1875
 50
270.0
  0
INSERT
  5
41C
100
AcDbEntity
  8
SCHEME_DIMS
100
AcDbBlockReference
 62
2
  6
CONTINUOUS
  2
_FILLED
 10
5.587939803
 20
5.682918202
 41
0.1875
 42
0.1875
 43
0.1875
 50
90.0
  0
ENDBLK
  5
41D
100
AcDbEntity
  8
0
  6
BYBLOCK
 62
0
100
AcDbBlockEnd
  0
BLOCK
  5
41E
100
AcDbEntity
  8
SCHEME_DIMS
100
AcDbBlockBegin
 62
2
  6
CONTINUOUS
  2
*D1
 70
65
 10
0.0
 20
0.0
  3
*D1
  1

  0
MTEXT
  5
41F
100
AcDbEntity
  8
SCHEME_DIMS
100
AcDbMText
 62
2
  6
CONTINUOUS
  7
TEXTSTYLE_5
 71
2
 72
1
 10
4.098939803
 20
7.6745764803
 30
0.0
 11
1.0
 21
0.0
 31
0.0
 44
0.9
  1
{\Fgdt;n}\Ftxt;40\P[1.58]
 40
0.1
 41
0.6
  0
LINE
  5
420
100
AcDbEntity
  8
SCHEME_DIMS
100
AcDbLine
 62
2
  6
CONTINUOUS
 10
5.086439803
 20
8.6652657497
 11
5.086439803
 21
7.4995764803
  0
LINE
  5
421
100
AcDbEntity
  8
SCHEME_DIMS
100
AcDbLine
 62
2
  6
CONTINUOUS
 10
3.511439803
 20
8.6801963723
 11
3.511439803
 21
7.4995764803
  0
LINE
  5
422
100
AcDbEntity
  8
SCHEME_DIMS
100
AcDbLine
 62
2
  6
CONTINUOUS
 10
5.086439803
 20
7.6245764803
 11
4.7656064697
 21
7.6245764803
  0
LINE
  5
423
100
AcDbEntity
  8
SCHEME_DIMS
100
AcDbLine
 62
2
  6
CONTINUOUS
 10
3.511439803
 20
7.6245764803
 11
3.8322731364
 21
7.6245764803
  0
INSERT
  5
424
100
AcDbEntity
  8
SCHEME_DIMS
100
AcDbBlockReference
 62
2
  6
CONTINUOUS
  2
_FILLED
 10
5.086439803
 20
7.6245764803
 41
0.1875
 42
0.1875
 43
0.1875
  0
INSERT
  5
425
100
AcDbEntity
  8
SCHEME_DIMS
100
AcDbBlockReference
 62
2
  6
CONTINUOUS
  2
_FILLED
 10
3.511439803
 20
7.6245764803
 41
0.1875
 42
0.1875
 43
0.1875
 50
180.0
  0
ENDBLK
  5
426
100
AcDbEntity
  8
0
  6
BYBLOCK
 62
0
100
AcDbBlockEnd
  0
BLOCK
  5
427
100
AcDbEntity
  8
SCHEME_DIMS
100
AcDbBlockBegin
 62
2
  6
CONTINUOUS
  2
*D2
 70
65
 10
0.0
 20
0.0
  3
*D2
  1

  0
MTEXT
  5
428
100
AcDbEntity
  8
SCHEME_DIMS
100
AcDbMText
 62
2
  6
CONTINUOUS
  7
STANDARD
 71
3
 72
1
 10
7.0377076747
 20
7.021918202
 30
0.0
 11
1.0
 21
0.0
 31
0.0
 44
0.9
  1
15\P[.59]
 40
0.1
 41
0.5
  0
LINE
  5
429
100
AcDbEntity
  8
SCHEME_DIMS
100
AcDbLine
 62
2
  6
CONTINUOUS
 10
7.7510431257
 20
6.1357018424
 11
7.7510431257
 21
7.096918202
  0
LINE
  5
42A
100
AcDbEntity
  8
SCHEME_DIMS
100
AcDbLine
 62
2
  6
CONTINUOUS
 10
8.3410431257
 20
6.5039746076
 11
8.3410431257
 21
7.096918202
  0
LINE
  5
42B
100
AcDbEntity
  8
SCHEME_DIMS
100
AcDbLine
 62
2
  6
CONTINUOUS
 10
7.7510431257
 20
6.971918202
 11
8.0460431257
 21
6.971918202
  0
LINE
  5
42C
100
AcDbEntity
  8
SCHEME_DIMS
100
AcDbLine
 62
2
  6
CONTINUOUS
 10
8.0460431257
 20
6.971918202
 11
7.4377076747
 21
6.971918202
  0
LINE
  5
42D
100
AcDbEntity
  8
SCHEME_DIMS
100
AcDbLine
 62
2
  6
CONTINUOUS
 10
8.3410431257
 20
6.971918202
 11
8.0460431257
 21
6.971918202
  0
INSERT
  5
42E
100
AcDbEntity
  8
SCHEME_DIMS
100
AcDbBlockReference
 62
2
  6
CONTINUOUS
  2
_FILLED
 10
7.7510431257
 20
6.971918202
 41
0.1875
 42
0.1875
 43
0.1875
 50
180.0
  0
INSERT
  5
42F
100
AcDbEntity
  8
SCHEME_DIMS
100
AcDbBlockReference
 62
2
  6
CONTINUOUS
  2
_FILLED
 10
8.3410431257
 20
6.971918202
 41
0.1875
 42
0.1875
 43
0.1875
  0
ENDBLK
  5
430
100
AcDbEntity
  8
0
  6
BYBLOCK
 62
0
100
AcDbBlockEnd
  0
BLOCK
  5
431
100
AcDbEntity
  8
SCHEME_DIMS
100
AcDbBlockBegin
 62
2
  6
CONTINUOUS
  2
*D3
 70
65
 10
0.0
 20
0.0
  3
*D3
  1

  0
MTEXT
  5
432
100
AcDbEntity
  8
SCHEME_DIMS
100
AcDbMText
 62
2
  6
CONTINUOUS
  7
STANDARD
 71
2
 72
1
 10
8.1425431257
 20
7.521918202
 30
0.0
 11
1.0
 21
0.0
 31
0.0
 44
0.9
  1
30\P[1.18]
 40
0.1
 41
0.6
  0
LINE
  5
433
100
AcDbEntity
  8
SCHEME_DIMS
100
AcDbLine
 62
2
  6
CONTINUOUS
 10
7.7510431257
 20
6.0776038037
 11
7.7510431257
 21
7.596918202
  0
LINE
  5
434
100
AcDbEntity
  8
SCHEME_DIMS
100
AcDbLine
 62
2
  6
CONTINUOUS
 10
8.9340431257
 20
6.4991968084
 11
8.9340431257
 21
7.596918202
  0
LINE
  5
435
100
AcDbEntity
  8
SCHEME_DIMS
100
AcDbLine
 62
2
  6
CONTINUOUS
 10
7.7510431257
 20
7.471918202
 11
7.3510431257
 21
7.471918202
  0
LINE
  5
436
100
AcDbEntity
  8
SCHEME_DIMS
100
AcDbLine
 62
2
  6
CONTINUOUS
 10
8.9340431257
 20
7.471918202
 11
9.3340431257
 21
7.471918202
  0
INSERT
  5
437
100
AcDbEntity
  8
SCHEME_DIMS
100
AcDbBlockReference
 62
2
  6
CONTINUOUS
  2
_FILLED
 10
7.7510431257
 20
7.471918202
 41
0.1875
 42
0.1875
 43
0.1875
  0
INSERT
  5
438
100
AcDbEntity
  8
SCHEME_DIMS
100
AcDbBlockReference
 62
2
  6
CONTINUOUS
  2
_FILLED
 10
8.9340431257
 20
7.471918202
 41
0.1875
 42
0.1875
 43
0.1875
 50
180.0
  0
ENDBLK
  5
439
100
AcDbEntity
  8
0
  6
BYBLOCK
 62
0
100
AcDbBlockEnd
  0
BLOCK
  5
43A
100
AcDbEntity
  8
SCHEME_DIMS
100
AcDbBlockBegin
 62
2
  6
CONTINUOUS
  2
*D4
 70
65
 10
0.0
 20
0.0
  3
*D4
  1

  0
MTEXT
  5
43B
100
AcDbEntity
  8
SCHEME_DIMS
100
AcDbMText
 62
2
  6
CONTINUOUS
  7
STANDARD
 71
2
 72
1
 10
10.8746396125
 20
5.591418202
 30
0.0
 11
1.0
 21
0.0
 31
0.0
 44
0.9
  1
51,1\P[2.01]
 40
0.1
 41
0.6
  0
LINE
  5
43C
100
AcDbEntity
  8
SCHEME_DIMS
100
AcDbLine
 62
2
  6
CONTINUOUS
 10
11.9400071259
 20
4.460918202
 11
10.8496396125
 21
4.460918202
  0
LINE
  5
43D
100
AcDbEntity
  8
SCHEME_DIMS
100
AcDbLine
 62
2
  6
CONTINUOUS
 10
11.958352122
 20
6.471918202
 11
10.8496396125
 21
6.471918202
  0
LINE
  5
43E
100
AcDbEntity
  8
SCHEME_DIMS
100
AcDbLine
 62
2
  6
CONTINUOUS
 10
10.9746396125
 20
4.460918202
 11
10.9746396125
 21
5.241418202
  0
LINE
  5
43F
100
AcDbEntity
  8
SCHEME_DIMS
100
AcDbLine
 62
2
  6
CONTINUOUS
 10
10.9746396125
 20
6.471918202
 11
10.9746396125
 21
5.691418202
  0
INSERT
  5
440
100
AcDbEntity
  8
SCHEME_DIMS
100
AcDbBlockReference
 62
2
  6
CONTINUOUS
  2
_FILLED
 10
10.9746396125
 20
4.460918202
 41
0.1875
 42
0.1875
 43
0.1875
 50
270.0
  0
INSERT
  5
441
100
AcDbEntity
  8
SCHEME_DIMS
100
AcDbBlockReference
 62
2
  6
CONTINUOUS
  2
_FILLED
 10
10.9746396125
 20
6.471918202
 41
0.1875
 42
0.1875
 43
0.1875
 50
90.0
  0
ENDBLK
  5
442
100
AcDbEntity
  8
0
  6
BYBLOCK
 62
0
100
AcDbBlockEnd
  0
ENDSEC
  0
SECTION
  2
ENTITIES
  0
MTEXT
  5
443
100
AcDbEntity
  8
0
100
AcDbMText
 62
2
  6
CONTINUOUS
  7
TEXTSTYLE_2
 71
2
 72
1
 10
11.0287658475
 20
1.794867839
 30
0.0
 11
1.0
 21
0.0
 31
0.0
 44
0.9
  1
THIRD ANGLE PROJECTION
 40
0.1
 41
1.76
  0
MTEXT
  5
444
100
AcDbEntity
  8
0
100
AcDbMText
 62
2
  6
CONTINUOUS
  7
STANDARD
 71
1
 72
1
 10
12.88
 20
1.457
 30
0.0
 11
1.0
 21
0.0
 31
0.0
 44
0.9
  1
DRAWING NO.
 40
0.08
 41
0.88
  0
MTEXT
  5
445
100
AcDbEntity
  8
0
100
AcDbMText
 62
2
  6
CONTINUOUS
  7
TEXTSTYLE_3
 71
2
 72
1
 10
11.03
 20
2.516432
 30
0.0
 11
1.0
 21
0.0
 31
0.0
 44
0.9
  1
and is proprietary in general
 40
0.08
 41
1.972
  0
MTEXT
  5
446
100
AcDbEntity
  8
0
100
AcDbMText
 62
2
  6
CONTINUOUS
  7
TEXTSTYLE_3
 71
2
 72
1
 10
11.03
 20
2.396432
 30
0.0
 11
1.0
 21
0.0
 31
0.0
 44
0.9
  1
and in detail.  Its contents
 40
0.08
 41
1.904
  0
MTEXT
  5
447
100
AcDbEntity
  8
0
100
AcDbMText
 62
2
  6
CONTINUOUS
  7
TEXTSTYLE_3
 71
2
 72
1
 10
11.03
 20
2.276432
 30
0.0
 11
1.0
 21
0.0
 31
0.0
 44
0.9
  1
shall not be revealed to
 40
0.08
 41
1.632
  0
MTEXT
  5
448
100
AcDbEntity
  8
0
100
AcDbMText
 62
2
  6
CONTINUOUS
  7
TEXTSTYLE_3
 71
2
 72
1
 10
11.03
 20
2.156432
 30
0.0
 11
1.0
 21
0.0
 31
0.0
 44
0.9
  1
outside parties without
 40
0.08
 41
1.564
  0
MTEXT
  5
449
100
AcDbEntity
  8
0
100
AcDbMText
 62
2
  6
CONTINUOUS
  7
TEXTSTYLE_3
 71
2
 72
1
 10
11.03
 20
2.036432
 30
0.0
 11
1.0
 21
0.0
 31
0.0
 44
0.9
  1
written consent of BANNER.
 40
0.08
 41
1.768
  0
MTEXT
  5
44A
100
AcDbEntity
  8
0
100
AcDbMText
 62
2
  6
CONTINUOUS
  7
TEXTSTYLE_2
 71
1
 72
1
 10
12.08
 20
2.217
 30
0.0
 11
1.0
 21
0.0
 31
0.0
 44
0.9
  1
TITLE
 40
0.1
 41
0.4
  0
MTEXT
  5
44B
100
AcDbEntity
  8
0
100
AcDbMText
 62
2
  6
CONTINUOUS
  7
STANDARD
 71
1
 72
1
 10
12.08
 20
1.457
 30
0.0
 11
1.0
 21
0.0
 31
0.0
 44
0.9
  1
SIZE
 40
0.08
 41
0.32
  0
MTEXT
  5
44C
100
AcDbEntity
  8
0
100
AcDbMText
 62
2
  6
CONTINUOUS
  7
STANDARD
 71
1
 72
1
 10
12.08
 20
1.087
 30
0.0
 11
1.0
 21
0.0
 31
0.0
 44
0.9
  1
SCALE
 40
0.08
 41
0.4
  0
MTEXT
  5
44D
100
AcDbEntity
  8
0
100
AcDbMText
 62
2
  6
CONTINUOUS
  7
TEXTSTYLE_2
 71
2
 72
1
 10
12.5
 20
1.337
 30
0.0
 11
1.0
 21
0.0
 31
0.0
 44
0.9
  1
B
 40
0.1
 41
0.08
  0
MTEXT
  5
44E
100
AcDbEntity
  8
0
100
AcDbMText
 62
2
  6
CONTINUOUS
  7
TEXTSTYLE_3
 71
2
 72
1
 10
11.03
 20
2.636432
 30
0.0
 11
1.0
 21
0.0
 31
0.0
 44
0.9
  1
of BANNER ENGINEERING CORP.
 40
0.08
 41
1.836
  0
MTEXT
  5
44F
100
AcDbEntity
  8
0
100
AcDbMText
 62
2
  6
CONTINUOUS
  7
TEXTSTYLE_3
 71
2
 72
1
 10
11.03
 20
2.756432
 30
0.0
 11
1.0
 21
0.0
 31
0.0
 44
0.9
  1
This drawing is the property
 40
0.08
 41
1.904
  0
MTEXT
  5
450
100
AcDbEntity
  8
0
100
AcDbMText
 62
2
  6
CONTINUOUS
  7
TEXTSTYLE_2
 71
2
 72
1
 10
15.03
 20
2.4134
 30
0.0
 11
1.0
 21
0.0
 31
0.0
 44
0.9
  1
MINNEAPOLIS, MN 55440
 40
0.1
 41
1.68
  0
MTEXT
  5
451
100
AcDbEntity
  8
0
100
AcDbMText
 62
2
  6
CONTINUOUS
  7
STANDARD
 71
1
 72
1
 10
14.255
 20
1.087
 30
0.0
 11
1.0
 21
0.0
 31
0.0
 44
0.9
  1
SHEET
 40
0.08
 41
0.4
  0
MTEXT
  5
452
100
AcDbEntity
  8
0
100
AcDbMText
 62
2
  6
CONTINUOUS
  7
STANDARD
 71
1
 72
1
 10
15.63
 20
1.457
 30
0.0
 11
1.0
 21
0.0
 31
0.0
 44
0.9
  1
REV.
 40
0.08
 41
0.32
  0
MTEXT
  5
453
100
AcDbEntity
  8
0
100
AcDbMText
 62
2
  6
CONTINUOUS
  7
STANDARD
 71
3
 72
1
 10
16.38
 20
0.835443
 30
0.0
 11
1.0
 21
0.0
 31
0.0
 44
0.9
  1
PRO/E
 40
0.07
 41
0.35
  0
MTEXT
  5
454
100
AcDbEntity
  8
0
100
AcDbMText
 62
2
  6
CONTINUOUS
  7
TEXTSTYLE_4
 71
2
 72
1
 10
15.03
 20
2.751049
 30
0.0
 11
1.0
 21
0.0
 31
0.0
 44
0.9
  1
BANNER ENGINEERING CORP.
 40
0.12
 41
2.6496
  0
MTEXT
  5
455
100
AcDbEntity
  8
0
100
AcDbMText
 62
2
  6
CONTINUOUS
  7
TEXTSTYLE_2
 71
2
 72
1
 10
15.03
 20
2.5724
 30
0.0
 11
1.0
 21
0.0
 31
0.0
 44
0.9
  1
P.O. BOX 9414
 40
0.1
 41
1.04
  0
MTEXT
  5
456
100
AcDbEntity
  8
0
100
AcDbMText
 62
2
  6
CONTINUOUS
  7
TEXTSTYLE_2
 71
2
 72
1
 10
9.485
 20
10.312
 30
0.0
 11
1.0
 21
0.0
 31
0.0
 44
0.9
  1
4
 40
0.1
 41
0.08
  0
MTEXT
  5
457
100
AcDbEntity
  8
0
100
AcDbMText
 62
2
  6
CONTINUOUS
  7
TEXTSTYLE_2
 71
2
 72
1
 10
11.455
 20
10.312
 30
0.0
 11
1.0
 21
0.0
 31
0.0
 44
0.9
  1
3
 40
0.1
 41
0.08
  0
MTEXT
  5
458
100
AcDbEntity
  8
0
100
AcDbMText
 62
2
  6
CONTINUOUS
  7
TEXTSTYLE_2
 71
2
 72
1
 10
13.425
 20
10.312
 30
0.0
 11
1.0
 21
0.0
 31
0.0
 44
0.9
  1
2
 40
0.1
 41
0.08
  0
MTEXT
  5
459
100
AcDbEntity
  8
0
100
AcDbMText
 62
2
  6
CONTINUOUS
  7
TEXTSTYLE_2
 71
2
 72
1
 10
15.395
 20
10.312
 30
0.0
 11
1.0
 21
0.0
 31
0.0
 44
0.9
  1
1
 40
0.1
 41
0.08
  0
MTEXT
  5
45A
100
AcDbEntity
  8
0
100
AcDbMText
 62
2
  6
CONTINUOUS
  7
TEXTSTYLE_2
 71
2
 72
1
 10
3.575
 20
10.312
 30
0.0
 11
1.0
 21
0.0
 31
0.0
 44
0.9
  1
7
 40
0.1
 41
0.08
  0
MTEXT
  5
45B
100
AcDbEntity
  8
0
100
AcDbMText
 62
2
  6
CONTINUOUS
  7
TEXTSTYLE_2
 71
2
 72
1
 10
5.545
 20
10.312
 30
0.0
 11
1.0
 21
0.0
 31
0.0
 44
0.9
  1
6
 40
0.1
 41
0.08
  0
MTEXT
  5
45C
100
AcDbEntity
  8
0
100
AcDbMText
 62
2
  6
CONTINUOUS
  7
TEXTSTYLE_2
 71
2
 72
1
 10
7.515
 20
10.312
 30
0.0
 11
1.0
 21
0.0
 31
0.0
 44
0.9
  1
5
 40
0.1
 41
0.08
  0
MTEXT
  5
45D
100
AcDbEntity
  8
0
100
AcDbMText
 62
2
  6
CONTINUOUS
  7
TEXTSTYLE_2
 71
2
 72
1
 10
1.605
 20
10.312
 30
0.0
 11
1.0
 21
0.0
 31
0.0
 44
0.9
  1
8
 40
0.1
 41
0.08
  0
MTEXT
  5
45E
100
AcDbEntity
  8
0
100
AcDbMText
 62
2
  6
CONTINUOUS
  7
TEXTSTYLE_2
 71
2
 72
1
 10
1.605
 20
0.787
 30
0.0
 11
1.0
 21
0.0
 31
0.0
 44
0.9
  1
8
 40
0.1
 41
0.08
  0
MTEXT
  5
45F
100
AcDbEntity
  8
0
100
AcDbMText
 62
2
  6
CONTINUOUS
  7
TEXTSTYLE_2
 71
2
 72
1
 10
3.575
 20
0.787
 30
0.0
 11
1.0
 21
0.0
 31
0.0
 44
0.9
  1
7
 40
0.1
 41
0.08
  0
MTEXT
  5
460
100
AcDbEntity
  8
0
100
AcDbMText
 62
2
  6
CONTINUOUS
  7
TEXTSTYLE_2
 71
2
 72
1
 10
5.545
 20
0.787
 30
0.0
 11
1.0
 21
0.0
 31
0.0
 44
0.9
  1
6
 40
0.1
 41
0.08
  0
MTEXT
  5
461
100
AcDbEntity
  8
0
100
AcDbMText
 62
2
  6
CONTINUOUS
  7
TEXTSTYLE_2
 71
2
 72
1
 10
7.515
 20
0.787
 30
0.0
 11
1.0
 21
0.0
 31
0.0
 44
0.9
  1
5
 40
0.1
 41
0.08
  0
MTEXT
  5
462
100
AcDbEntity
  8
0
100
AcDbMText
 62
2
  6
CONTINUOUS
  7
TEXTSTYLE_2
 71
2
 72
1
 10
9.485
 20
0.787
 30
0.0
 11
1.0
 21
0.0
 31
0.0
 44
0.9
  1
4
 40
0.1
 41
0.08
  0
MTEXT
  5
463
100
AcDbEntity
  8
0
100
AcDbMText
 62
2
  6
CONTINUOUS
  7
TEXTSTYLE_2
 71
2
 72
1
 10
11.455
 20
0.787
 30
0.0
 11
1.0
 21
0.0
 31
0.0
 44
0.9
  1
3
 40
0.1
 41
0.08
  0
MTEXT
  5
464
100
AcDbEntity
  8
0
100
AcDbMText
 62
2
  6
CONTINUOUS
  7
TEXTSTYLE_2
 71
2
 72
1
 10
13.425
 20
0.787
 30
0.0
 11
1.0
 21
0.0
 31
0.0
 44
0.9
  1
2
 40
0.1
 41
0.08
  0
MTEXT
  5
465
100
AcDbEntity
  8
0
100
AcDbMText
 62
2
  6
CONTINUOUS
  7
TEXTSTYLE_2
 71
2
 72
1
 10
15.395
 20
0.787
 30
0.0
 11
1.0
 21
0.0
 31
0.0
 44
0.9
  1
1
 40
0.1
 41
0.08
  0
MTEXT
  5
466
100
AcDbEntity
  8
0
100
AcDbMText
 62
2
  6
CONTINUOUS
  7
TEXTSTYLE_2
 71
3
 72
1
 10
0.52
 20
4.3995
 30
0.0
 11
1.0
 21
0.0
 31
0.0
 44
0.9
  1
B
 40
0.1
 41
0.08
  0
MTEXT
  5
467
100
AcDbEntity
  8
0
100
AcDbMText
 62
2
  6
CONTINUOUS
  7
TEXTSTYLE_2
 71
3
 72
1
 10
0.52
 20
2.0995
 30
0.0
 11
1.0
 21
0.0
 31
0.0
 44
0.9
  1
A
 40
0.1
 41
0.08
  0
MTEXT
  5
468
100
AcDbEntity
  8
0
100
AcDbMText
 62
2
  6
CONTINUOUS
  7
TEXTSTYLE_2
 71
3
 72
1
 10
0.52
 20
8.9995
 30
0.0
 11
1.0
 21
0.0
 31
0.0
 44
0.9
  1
D
 40
0.1
 41
0.08
  0
MTEXT
  5
469
100
AcDbEntity
  8
0
100
AcDbMText
 62
2
  6
CONTINUOUS
  7
TEXTSTYLE_2
 71
3
 72
1
 10
0.52
 20
6.6995
 30
0.0
 11
1.0
 21
0.0
 31
0.0
 44
0.9
  1
C
 40
0.1
 41
0.08
  0
MTEXT
  5
46A
100
AcDbEntity
  8
0
100
AcDbMText
 62
2
  6
CONTINUOUS
  7
TEXTSTYLE_2
 71
1
 72
1
 10
16.48
 20
8.9995
 30
0.0
 11
1.0
 21
0.0
 31
0.0
 44
0.9
  1
D
 40
0.1
 41
0.08
  0
MTEXT
  5
46B
100
AcDbEntity
  8
0
100
AcDbMText
 62
2
  6
CONTINUOUS
  7
TEXTSTYLE_2
 71
1
 72
1
 10
16.48
 20
6.6995
 30
0.0
 11
1.0
 21
0.0
 31
0.0
 44
0.9
  1
C
 40
0.1
 41
0.08
  0
MTEXT
  5
46C
100
AcDbEntity
  8
0
100
AcDbMText
 62
2
  6
CONTINUOUS
  7
TEXTSTYLE_2
 71
1
 72
1
 10
16.48
 20
4.3995
 30
0.0
 11
1.0
 21
0.0
 31
0.0
 44
0.9
  1
B
 40
0.1
 41
0.08
  0
MTEXT
  5
46D
100
AcDbEntity
  8
0
100
AcDbMText
 62
2
  6
CONTINUOUS
  7
TEXTSTYLE_2
 71
1
 72
1
 10
16.48
 20
2.0995
 30
0.0
 11
1.0
 21
0.0
 31
0.0
 44
0.9
  1
A
 40
0.1
 41
0.08
  0
MTEXT
  5
46E
100
AcDbEntity
  8
0
100
AcDbMText
 62
2
  6
CONTINUOUS
  7
STANDARD
 71
1
 72
1
 10
14.819264911
 20
1.0627941725
 30
0.0
 11
1.0
 21
0.0
 31
0.0
 44
0.9
  1
1 OF 1
 40
0.1
 41
0.6
  0
MTEXT
  5
46F
100
AcDbEntity
  8
0
100
AcDbMText
 62
7
  6
CONTINUOUS
  7
STANDARD
 71
1
 72
1
 10
13.8911999818
 20
1.3747321586
 30
0.0
 11
1.0
 21
0.0
 31
0.0
 44
0.9
  1
155320
 40
0.12
 41
0.72
  0
MTEXT
  5
470
100
AcDbEntity
  8
0
100
AcDbMText
 62
2
  6
CONTINUOUS
  7
STANDARD
 71
1
 72
1
 10
12.644264911
 20
1.0627941725
 30
0.0
 11
1.0
 21
0.0
 31
0.0
 44
0.9
  1
1:1
 40
0.1
 41
0.3
  0
MTEXT
  5
471
100
AcDbEntity
  8
0
100
AcDbMText
 62
2
  6
CONTINUOUS
  7
STANDARD
 71
1
 72
1
 10
1.0597007627
 20
1.6202922458
 30
0.0
 11
1.0
 21
0.0
 31
0.0
 44
0.9
  1
NOTES:\P1. ALL DIMENSIONS ARE MILLIMETERS [INCHES] UNLESS OTHERWISE NOTED.
 40
0.1
 41
6.6
  0
INSERT
  5
472
100
AcDbEntity
  8
0
100
AcDbBlockReference
 62
2
  6
CONTINUOUS
  2
BANNER_LOGO_TITLEBLOCK_BL0
 10
12.9086867042
 20
2.5403783405
  0
DIMENSION
  5
473
100
AcDbEntity
  8
SCHEME_DIMS
100
AcDbDimension
 62
2
  6
CONTINUOUS
  2
*D0
 10
5.587939803
 20
5.682918202
 11
5.512939803
 21
5.071918202
 70
160
 71
2
 42
31.0388
  3
DIMSTYLE_1
100
AcDbAlignedDimension
 13
4.6225722896
 23
4.460918202
 14
5.248939803
 24
5.682918202
 50
90.0
100
AcDbRotatedDimension
  0
DIMENSION
  5
474
100
AcDbEntity
  8
SCHEME_DIMS
100
AcDbDimension
 62
2
  6
CONTINUOUS
  2
*D1
 10
3.511439803
 20
7.6245764803
 11
4.2406064697
 21
7.5495764803
 70
160
 71
2
 42
40.005
  1
%%c<>
  3
DIMSTYLE_1
100
AcDbAlignedDimension
 13
5.086439803
 23
8.6652657497
 14
3.511439803
 24
8.6801963723
 50
180.0
100
AcDbRotatedDimension
  0
DIMENSION
  5
475
100
AcDbEntity
  8
SCHEME_DIMS
100
AcDbDimension
 62
2
  6
CONTINUOUS
  2
*D2
 10
8.3410431257
 20
6.971918202
 11
6.9377076747
 21
6.896918202
 70
160
 71
3
 42
14.986
  3
DIMSTYLE_1
100
AcDbAlignedDimension
 13
7.7510431257
 23
6.1357018424
 14
8.3410431257
 24
6.5039746076
100
AcDbRotatedDimension
  0
DIMENSION
  5
476
100
AcDbEntity
  8
SCHEME_DIMS
100
AcDbDimension
 62
2
  6
CONTINUOUS
  2
*D3
 10
8.9340431257
 20
7.471918202
 11
8.2675431257
 21
7.396918202
 70
160
 71
2
 42
30.0482
  3
DIMSTYLE_1
100
AcDbAlignedDimension
 13
7.7510431257
 23
6.0776038037
 14
8.9340431257
 24
6.4991968084
100
AcDbRotatedDimension
  0
DIMENSION
  5
477
100
AcDbEntity
  8
SCHEME_DIMS
100
AcDbDimension
 62
2
  6
CONTINUOUS
  2
*D4
 10
10.9746396125
 20
6.471918202
 11
10.8496396125
 21
5.466418202
 70
160
 71
2
 42
51.0794
  3
DIMSTYLE_1
100
AcDbAlignedDimension
 13
11.9400071259
 23
4.460918202
 14
11.958352122
 24
6.471918202
 50
90.0
100
AcDbRotatedDimension
  0
LINE
  5
478
100
AcDbEntity
  8
0
100
AcDbLine
 62
2
  6
CONTINUOUS
 10
16.38
 20
0.887
 11
12.03
 21
0.887
  0
LINE
  5
479
100
AcDbEntity
  8
0
100
AcDbLine
 62
2
  6
CONTINUOUS
 10
16.38
 20
0.887
 11
16.38
 21
2.807
  0
LINE
  5
47A
100
AcDbEntity
  8
0
100
AcDbLine
 62
2
  6
CONTINUOUS
 10
16.38
 20
2.807
 11
12.03
 21
2.807
  0
LINE
  5
47B
100
AcDbEntity
  8
0
100
AcDbLine
 62
2
  6
CONTINUOUS
 10
12.03
 20
0.887
 11
12.03
 21
2.807
  0
MTEXT
  5
47C
100
AcDbEntity
  8
NOTES
100
AcDbMText
 62
7
  6
CONTINUOUS
  7
STANDARD
 71
2
 72
1
 10
16.155
 20
1.367
 30
0.0
 11
1.0
 21
0.0
 31
0.0
 44
0.9
  1
1
 40
0.1
 41
0.1
  0
MTEXT
  5
47D
100
AcDbEntity
  8
NOTES
100
AcDbMText
 62
7
  6
CONTINUOUS
  7
STANDARD
 71
2
 72
1
 10
14.205
 20
1.967
 30
0.0
 11
1.0
 21
0.0
 31
0.0
 44
0.9
  1
T18 AW3D/RW3D CABLE/PIGTAIL\PWEB CAD DRAWINGS 2D/3D
 40
0.1
 41
2.7
  0
MTEXT
  5
47E
100
AcDbEntity
  8
NOTES
100
AcDbMText
 62
2
  6
CONTINUOUS
  7
STANDARD
 71
2
 72
1
 10
14.505420108
 20
6.8932551706
 30
0.0
 11
1.0
 21
0.0
 31
0.0
 44
0.9
  1
ISOMETRIC VIEW\PSCALE  1:1
 40
0.1
 41
1.4
  0
LEADER
  5
47F
100
AcDbEntity
  8
NOTES
100
AcDbLeader
 62
2
  6
CONTINUOUS
  3
STANDARD
 71
1
 72
0
 73
0
 75
0
 40
0.1
 41
0.9
 76
3
 10
8.0268128913
 20
5.3504196573
 30
0.0
 10
7.6839831512
 20
4.9079115794
 30
0.0
 10
7.4339831512
 20
4.9079115794
 30
0.0
340
480
1001
ACAD
1000
DSTYLE
1002
{
1070
77
1070
0
1002
}
  0
MTEXT
  5
480
102
{ACAD_REACTORS
330
47F
102
}
100
AcDbEntity
  8
NOTES
100
AcDbMText
 62
2
  6
CONTINUOUS
  7
STANDARD
 71
3
 72
1
 10
7.4339831512
 20
4.9579115794
 30
0.0
 11
1.0
 21
0.0
 31
0.0
 44
0.9
  1
M18 X 1 G
 40
0.1
 41
0.9
  0
LINE
  5
481
100
AcDbEntity
  8
0
100
AcDbLine
 62
2
  6
CONTINUOUS
 10
0.47
 20
5.586103
 11
0.47
 21
5.412897
  0
LINE
  5
482
100
AcDbEntity
  8
0
100
AcDbLine
 62
2
  6
CONTINUOUS
 10
0.62
 20
10.112
 11
0.62
 21
0.887
  0
LINE
  5
483
100
AcDbEntity
  8
0
100
AcDbLine
 62
2
  6
CONTINUOUS
 10
2.59
 20
0.887
 11
2.59
 21
0.637
  0
LINE
  5
484
100
AcDbEntity
  8
0
100
AcDbLine
 62
2
  6
CONTINUOUS
 10
2.59
 20
10.112
 11
2.59
 21
10.362
  0
LINE
  5
485
100
AcDbEntity
  8
0
100
AcDbLine
 62
2
  6
CONTINUOUS
 10
8.413397
 20
0.737
 11
8.586603
 21
0.737
  0
LINE
  5
486
100
AcDbEntity
  8
0
100
AcDbLine
 62
7
  6
CONTINUOUS
 10
11.1389508475
 20
1.425992839
 11
11.7453418475
 21
1.495385839
  0
LINE
  5
487
100
AcDbEntity
  8
0
100
AcDbLine
 62
2
  6
CONTINUOUS
 10
0.62
 20
0.887
 11
16.38
 21
0.887
  0
LINE
  5
488
100
AcDbEntity
  8
0
100
AcDbLine
 62
2
  6
CONTINUOUS
 10
12.03
 20
1.137
 11
16.38
 21
1.137
  0
LINE
  5
489
100
AcDbEntity
  8
0
100
AcDbLine
 62
7
  6
CONTINUOUS
 10
10.2121898475
 20
1.243294839
 11
10.4342808475
 21
1.243294839
  0
LINE
  5
48A
100
AcDbEntity
  8
0
100
AcDbLine
 62
7
  6
CONTINUOUS
 10
10.4842808475
 20
1.243294839
 11
10.5842808475
 21
1.243294839
  0
LINE
  5
48B
100
AcDbEntity
  8
0
100
AcDbLine
 62
7
  6
CONTINUOUS
 10
10.6342808475
 20
1.243294839
 11
10.8563718475
 21
1.243294839
  0
LINE
  5
48C
100
AcDbEntity
  8
0
100
AcDbLine
 62
7
  6
CONTINUOUS
 10
11.0389508475
 20
1.243294839
 11
11.3171028475
 21
1.243294839
  0
LINE
  5
48D
100
AcDbEntity
  8
0
100
AcDbLine
 62
7
  6
CONTINUOUS
 10
11.3671028475
 20
1.243294839
 11
11.5171888475
 21
1.243294839
  0
LINE
  5
48E
100
AcDbEntity
  8
0
100
AcDbLine
 62
7
  6
CONTINUOUS
 10
11.5671888475
 20
1.243294839
 11
11.8453418475
 21
1.243294839
  0
LINE
  5
48F
100
AcDbEntity
  8
0
100
AcDbLine
 62
7
  6
CONTINUOUS
 10
11.7453418475
 20
0.991203839
 11
11.1389508475
 21
1.060596839
  0
LINE
  5
490
100
AcDbEntity
  8
0
100
AcDbLine
 62
2
  6
CONTINUOUS
 10
4.56
 20
0.887
 11
4.56
 21
0.637
  0
LINE
  5
491
100
AcDbEntity
  8
0
100
AcDbLine
 62
2
  6
CONTINUOUS
 10
4.56
 20
10.112
 11
4.56
 21
10.362
  0
LINE
  5
492
100
AcDbEntity
  8
0
100
AcDbLine
 62
2
  6
CONTINUOUS
 10
0.47
 20
5.412897
 11
0.62
 21
5.4995
  0
LINE
  5
493
100
AcDbEntity
  8
0
100
AcDbLine
 62
2
  6
CONTINUOUS
 10
12.03
 20
1.507
 11
16.38
 21
1.507
  0
LINE
  5
494
100
AcDbEntity
  8
0
100
AcDbLine
 62
2
  6
CONTINUOUS
 10
10.03
 20
1.907
 11
12.03
 21
1.907
  0
LINE
  5
495
100
AcDbEntity
  8
0
100
AcDbLine
 62
2
  6
CONTINUOUS
 10
0.62
 20
5.4995
 11
0.47
 21
5.586103
  0
LINE
  5
496
100
AcDbEntity
  8
0
100
AcDbLine
 62
2
  6
CONTINUOUS
 10
12.03
 20
2.267
 11
16.38
 21
2.267
  0
LINE
  5
497
100
AcDbEntity
  8
0
100
AcDbLine
 62
2
  6
CONTINUOUS
 10
8.5
 20
10.112
 11
8.586603
 21
10.262
  0
LINE
  5
498
100
AcDbEntity
  8
0
100
AcDbLine
 62
2
  6
CONTINUOUS
 10
16.38
 20
2.807
 11
10.03
 21
2.807
  0
LINE
  5
499
100
AcDbEntity
  8
0
100
AcDbLine
 62
2
  6
CONTINUOUS
 10
0.62
 20
3.1995
 11
0.37
 21
3.1995
  0
LINE
  5
49A
100
AcDbEntity
  8
0
100
AcDbLine
 62
2
  6
CONTINUOUS
 10
16.38
 20
3.1995
 11
16.63
 21
3.1995
  0
LINE
  5
49B
100
AcDbEntity
  8
0
100
AcDbLine
 62
2
  6
CONTINUOUS
 10
8.586603
 20
0.737
 11
8.5
 21
0.887
  0
LINE
  5
49C
100
AcDbEntity
  8
0
100
AcDbLine
 62
2
  6
CONTINUOUS
 10
6.53
 20
0.887
 11
6.53
 21
0.637
  0
LINE
  5
49D
100
AcDbEntity
  8
0
100
AcDbLine
 62
2
  6
CONTINUOUS
 10
6.53
 20
10.112
 11
6.53
 21
10.362
  0
LINE
  5
49E
100
AcDbEntity
  8
0
100
AcDbLine
 62
2
  6
CONTINUOUS
 10
8.5
 20
0.887
 11
8.5
 21
0.637
  0
LINE
  5
49F
100
AcDbEntity
  8
0
100
AcDbLine
 62
2
  6
CONTINUOUS
 10
8.5
 20
10.112
 11
8.5
 21
10.362
  0
LINE
  5
4A0
100
AcDbEntity
  8
0
100
AcDbLine
 62
2
  6
CONTINUOUS
 10
0.62
 20
5.4995
 11
0.37
 21
5.4995
  0
LINE
  5
4A1
100
AcDbEntity
  8
0
100
AcDbLine
 62
2
  6
CONTINUOUS
 10
16.38
 20
5.4995
 11
16.63
 21
5.4995
  0
LINE
  5
4A2
100
AcDbEntity
  8
0
100
AcDbLine
 62
2
  6
CONTINUOUS
 10
10.03
 20
2.807
 11
10.03
 21
0.887
  0
LINE
  5
4A3
100
AcDbEntity
  8
0
100
AcDbLine
 62
2
  6
CONTINUOUS
 10
10.47
 20
0.887
 11
10.47
 21
0.637
  0
LINE
  5
4A4
100
AcDbEntity
  8
0
100
AcDbLine
 62
2
  6
CONTINUOUS
 10
10.47
 20
10.112
 11
10.47
 21
10.362
  0
LINE
  5
4A5
100
AcDbEntity
  8
0
100
AcDbLine
 62
7
  6
CONTINUOUS
 10
10.5342808475
 20
1.143294839
 11
10.5342808475
 21
0.921203839
  0
LINE
  5
4A6
100
AcDbEntity
  8
0
100
AcDbLine
 62
7
  6
CONTINUOUS
 10
10.5342808475
 20
1.193294839
 11
10.5342808475
 21
1.293294839
  0
LINE
  5
4A7
100
AcDbEntity
  8
0
100
AcDbLine
 62
7
  6
CONTINUOUS
 10
10.5342808475
 20
1.343294839
 11
10.5342808475
 21
1.565385839
  0
LINE
  5
4A8
100
AcDbEntity
  8
0
100
AcDbLine
 62
2
  6
CONTINUOUS
 10
8.5
 20
0.887
 11
8.413397
 21
0.737
  0
LINE
  5
4A9
100
AcDbEntity
  8
0
100
AcDbLine
 62
2
  6
CONTINUOUS
 10
0.62
 20
7.7995
 11
0.37
 21
7.7995
  0
LINE
  5
4AA
100
AcDbEntity
  8
0
100
AcDbLine
 62
2
  6
CONTINUOUS
 10
16.38
 20
7.7995
 11
16.63
 21
7.7995
  0
LINE
  5
4AB
100
AcDbEntity
  8
0
100
AcDbLine
 62
2
  6
CONTINUOUS
 10
8.413397
 20
10.262
 11
8.5
 21
10.112
  0
LINE
  5
4AC
100
AcDbEntity
  8
0
100
AcDbLine
 62
7
  6
CONTINUOUS
 10
11.1389508475
 20
1.060596839
 11
11.1389508475
 21
1.425992839
  0
LINE
  5
4AD
100
AcDbEntity
  8
0
100
AcDbLine
 62
7
  6
CONTINUOUS
 10
11.7453418475
 20
1.495385839
 11
11.7453418475
 21
0.991203839
  0
LINE
  5
4AE
100
AcDbEntity
  8
0
100
AcDbLine
 62
1
  6
CONTINUOUS
 10
12.03
 20
2.807
 11
12.03
 21
0.887
  0
LINE
  5
4AF
100
AcDbEntity
  8
0
100
AcDbLine
 62
2
  6
CONTINUOUS
 10
12.44
 20
0.887
 11
12.44
 21
0.637
  0
LINE
  5
4B0
100
AcDbEntity
  8
0
100
AcDbLine
 62
2
  6
CONTINUOUS
 10
12.44
 20
10.112
 11
12.44
 21
10.362
  0
LINE
  5
4B1
100
AcDbEntity
  8
0
100
AcDbLine
 62
2
  6
CONTINUOUS
 10
16.53
 20
5.586103
 11
16.38
 21
5.4995
  0
LINE
  5
4B2
100
AcDbEntity
  8
0
100
AcDbLine
 62
2
  6
CONTINUOUS
 10
16.38
 20
5.4995
 11
16.53
 21
5.412897
  0
LINE
  5
4B3
100
AcDbEntity
  8
0
100
AcDbLine
 62
2
  6
CONTINUOUS
 10
12.83
 20
1.507
 11
12.83
 21
1.137
  0
LINE
  5
4B4
100
AcDbEntity
  8
0
100
AcDbLine
 62
2
  6
CONTINUOUS
 10
16.38
 20
10.112
 11
0.62
 21
10.112
  0
LINE
  5
4B5
100
AcDbEntity
  8
0
100
AcDbLine
 62
2
  6
CONTINUOUS
 10
8.586603
 20
10.262
 11
8.413397
 21
10.262
  0
LINE
  5
4B6
100
AcDbEntity
  8
0
100
AcDbLine
 62
2
  6
CONTINUOUS
 10
14.205
 20
1.137
 11
14.205
 21
0.887
  0
LINE
  5
4B7
100
AcDbEntity
  8
0
100
AcDbLine
 62
2
  6
CONTINUOUS
 10
14.41
 20
0.887
 11
14.41
 21
0.637
  0
LINE
  5
4B8
100
AcDbEntity
  8
0
100
AcDbLine
 62
2
  6
CONTINUOUS
 10
14.41
 20
10.112
 11
14.41
 21
10.362
  0
LINE
  5
4B9
100
AcDbEntity
  8
0
100
AcDbLine
 62
2
  6
CONTINUOUS
 10
15.58
 20
1.507
 11
15.58
 21
1.137
  0
LINE
  5
4BA
100
AcDbEntity
  8
0
100
AcDbLine
 62
2
  6
CONTINUOUS
 10
16.38
 20
0.887
 11
16.38
 21
10.112
  0
LINE
  5
4BB
100
AcDbEntity
  8
0
100
AcDbLine
 62
2
  6
CONTINUOUS
 10
16.53
 20
5.412897
 11
16.53
 21
5.586103
  0
LWPOLYLINE
  5
4BC
100
AcDbEntity
  8
0
100
AcDbPolyline
 62
7
  6
CONTINUOUS
 90
8
 70
0
 10
14.0090897428
 20
9.2940437065
 10
13.953455279
 20
9.2528388939
 10
13.9062405878
 20
9.1978723858
 10
13.8691886375
 20
9.1300148706
 10
13.8434761949
 20
9.0500351663
 10
13.830247371
 20
8.9603056609
 10
13.8297712841
 20
8.8633776198
 10
13.841792725
 20
8.7614534208
  0
LINE
  5
4BD
100
AcDbEntity
  8
0
100
AcDbLine
 62
7
  6
CONTINUOUS
 10
14.2862353982
 20
9.4557760544
 11
14.2660116999
 21
9.4423767822
  0
LINE
  5
4BE
100
AcDbEntity
  8
0
100
AcDbLine
 62
7
  6
CONTINUOUS
 10
14.3427998611
 20
9.4884422314
 11
14.2862315542
 21
9.455782699
  0
LINE
  5
4BF
100
AcDbEntity
  8
0
100
AcDbLine
 62
7
  6
CONTINUOUS
 10
14.2777892009
 20
9.449176485
 11
14.0090897428
 21
9.2940437065
  0
LWPOLYLINE
  5
4C0
100
AcDbEntity
  8
0
100
AcDbPolyline
 62
7
  6
CONTINUOUS
 90
23
 70
0
 10
14.2777809883
 20
9.4491714157
 10
14.3352196369
 20
9.4738232665
 10
14.402433321
 20
9.4854712746
 10
14.4752245104
 20
9.4822318442
 10
14.5520845204
 20
9.4641721167
 10
14.6314203352
 20
9.4316664016
 10
14.7115876248
 20
9.3853884189
 10
14.7909248259
 20
9.3262973356
 10
14.8677875807
 20
9.2556178846
 10
14.9405828136
 20
9.1748149855
 10
15.0078017648
 20
9.0855633642
 10
15.0680512179
 20
8.9897129031
 10
15.1200824877
 20
8.8892501144
 10
15.1628170407
 20
8.7862574834
 10
15.1953693774
 20
8.6828690287
 10
15.2170644989
 20
8.5812287222
 10
15.2274530221
 20
8.4834421945
 10
15.2263193037
 20
8.3915332189
 10
15.2136856047
 20
8.3074077251
 10
15.1898139358
 20
8.2328136014
 10
15.1551985382
 20
8.1692954673
 10
15.1105591949
 20
8.1181728454
 10
15.0652660638
 20
8.0851758827
  0
LWPOLYLINE
  5
4C1
100
AcDbEntity
  8
0
100
AcDbPolyline
 62
7
  6
CONTINUOUS
 90
10
 70
0
 10
13.698950212
 20
8.5076675314
 10
13.6980591314
 20
8.489049141
 10
13.7006544207
 20
8.4405350422
 10
13.7099789532
 20
8.3891716506
 10
13.725414651
 20
8.3374619923
 10
13.7464595014
 20
8.2862578321
 10
13.7724664905
 20
8.2367955426
 10
13.8026784146
 20
8.1902754547
 10
13.8345529282
 20
8.1497554485
 10
13.8658683274
 20
8.1164521221
  0
LINE
  5
4C2
100
AcDbEntity
  8
0
100
AcDbLine
 62
7
  6
CONTINUOUS
 10
13.7268449099
 20
8.4716106542
 11
13.7301321411
 21
8.5130987653
  0
LINE
  5
4C3
100
AcDbEntity
  8
0
100
AcDbLine
 62
7
  6
CONTINUOUS
 10
13.702233988
 20
8.5333825857
 11
13.698950212
 21
8.5076675314
  0
LINE
  5
4C4
100
AcDbEntity
  8
0
100
AcDbLine
 62
7
  6
CONTINUOUS
 10
13.7301321411
 20
8.5130987653
 11
13.7398939538
 21
8.5495305994
  0
LWPOLYLINE
  5
4C5
100
AcDbEntity
  8
0
100
AcDbPolyline
 62
7
  6
CONTINUOUS
 90
3
 70
0
 10
13.7398939538
 20
8.5495305994
 10
13.7558337403
 20
8.5797991936
 10
13.7774671783
 20
8.602984852
  0
LWPOLYLINE
  5
4C6
100
AcDbEntity
  8
0
100
AcDbPolyline
 62
7
  6
CONTINUOUS
 90
3
 70
0
 10
13.7897043263
 20
8.6653496189
 10
13.7903069724
 20
8.6659658702
 10
13.8036734106
 20
8.6748852996
  0
LINE
  5
4C7
100
AcDbEntity
  8
AXIS_COSMETIC_THREADS
100
AcDbLine
 62
7
  6
CONTINUOUS
 10
13.7416942142
 20
8.3802471119
 11
13.7416942142
 21
8.5458280848
  0
LWPOLYLINE
  5
4C8
100
AcDbEntity
  8
0
100
AcDbPolyline
 62
7
  6
CONTINUOUS
 90
6
 70
0
 10
13.7630462082
 20
8.4588753219
 10
13.7662337423
 20
8.4886773924
 10
13.7735646514
 20
8.5151565507
 10
13.7848676272
 20
8.5376923487
 10
13.7998782045
 20
8.5557567155
 10
13.8157277256
 20
8.5675288853
  0
LWPOLYLINE
  5
4C9
100
AcDbEntity
  8
AXIS
100
AcDbPolyline
 62
7
  6
CONTINUOUS
 90
7
 70
0
 10
13.7667204592
 20
8.4600200497
 10
13.7695495606
 20
8.4850551271
 10
13.7753874745
 20
8.50769304
 10
13.7841330601
 20
8.5275415914
 10
13.7956348021
 20
8.5442569091
 10
13.8096934352
 20
8.5575494039
 10
13.8182228026
 20
8.5631946608
  0
LINE
  5
4CA
100
AcDbEntity
  8
0
100
AcDbLine
 62
7
  6
CONTINUOUS
 10
13.8116293883
 20
8.5588307361
 11
13.8175563979
 21
8.5659633784
  0
LINE
  5
4CB
100
AcDbEntity
  8
0
100
AcDbLine
 62
7
  6
CONTINUOUS
 10
14.0741436291
 20
8.8292501577
 11
14.0865056153
 21
8.8381775711
  0
LINE
  5
4CC
100
AcDbEntity
  8
0
100
AcDbLine
 62
7
  6
CONTINUOUS
 10
14.1431075424
 20
8.8708565209
 11
14.1322401806
 21
8.8631091552
  0
LWPOLYLINE
  5
4CD
100
AcDbEntity
  8
0
100
AcDbPolyline
 62
7
  6
CONTINUOUS
 90
6
 70
0
 10
13.775413577
 20
8.6585695782
 10
13.7570462932
 20
8.6456289425
 10
13.7317665215
 20
8.6171211001
 10
13.7132590697
 20
8.5804032899
 10
13.7020720827
 20
8.5365956705
 10
13.6995102482
 20
8.5147910774
  0
LINE
  5
4CE
100
AcDbEntity
  8
0
100
AcDbLine
 62
7
  6
CONTINUOUS
 10
14.046057018
 20
8.8134986425
 11
14.0582167718
 21
8.8218450951
  0
LINE
  5
4CF
100
AcDbEntity
  8
0
100
AcDbLine
 62
7
  6
CONTINUOUS
 10
14.1026278385
 20
8.846160069
 11
14.1147833406
 21
8.854503623
  0
LINE
  5
4D0
100
AcDbEntity
  8
0
100
AcDbLine
 62
7
  6
CONTINUOUS
 10
14.0176803375
 20
8.7971158863
 11
14.0299357147
 21
8.805517118
  0
LINE
  5
4D1
100
AcDbEntity
  8
0
100
AcDbLine
 62
7
  6
CONTINUOUS
 10
13.9890715402
 20
8.7805996089
 11
14.0016642684
 21
8.7891946929
  0
LINE
  5
4D2
100
AcDbEntity
  8
0
100
AcDbLine
 62
7
  6
CONTINUOUS
 10
13.9605743131
 20
8.7641487946
 11
13.9733878502
 21
8.7728693945
  0
LINE
  5
4D3
100
AcDbEntity
  8
0
100
AcDbLine
 62
7
  6
CONTINUOUS
 10
13.847189989
 20
8.6987017236
 11
13.8602605803
 21
8.7075557258
  0
LINE
  5
4D4
100
AcDbEntity
  8
0
100
AcDbLine
 62
7
  6
CONTINUOUS
 10
13.9319436215
 20
8.747624528
 11
13.945116
 21
8.7565467329
  0
LINE
  5
4D5
100
AcDbEntity
  8
0
100
AcDbLine
 62
7
  6
CONTINUOUS
 10
13.818851391
 20
8.6823387164
 11
13.8319648583
 21
8.691219279
  0
LINE
  5
4D6
100
AcDbEntity
  8
0
100
AcDbLine
 62
7
  6
CONTINUOUS
 10
13.8753666106
 20
8.7149655577
 11
13.8885535954
 21
8.7238906083
  0
LINE
  5
4D7
100
AcDbEntity
  8
0
100
AcDbLine
 62
7
  6
CONTINUOUS
 10
13.9036314197
 20
8.7312819252
 11
13.9168385023
 21
8.7402208094
  0
LINE
  5
4D8
100
AcDbEntity
  8
0
100
AcDbLine
 62
7
  6
CONTINUOUS
 10
14.0865056153
 20
8.8381775711
 11
14.0970936992
 21
8.8436356211
  0
LINE
  5
4D9
100
AcDbEntity
  8
0
100
AcDbLine
 62
7
  6
CONTINUOUS
 10
14.1542562838
 20
8.8765645106
 11
14.1431075424
 21
8.8708565209
  0
LINE
  5
4DA
100
AcDbEntity
  8
0
100
AcDbLine
 62
7
  6
CONTINUOUS
 10
14.1147833406
 20
8.854503623
 11
14.1305645641
 21
8.8621931433
  0
LINE
  5
4DB
100
AcDbEntity
  8
0
100
AcDbLine
 62
7
  6
CONTINUOUS
 10
14.0582167718
 20
8.8218450951
 11
14.0740049412
 21
8.8295371124
  0
LWPOLYLINE
  5
4DC
100
AcDbEntity
  8
0
100
AcDbPolyline
 62
7
  6
CONTINUOUS
 90
6
 70
0
 10
14.1445217072
 20
8.8716729845
 10
14.161013241
 20
8.8796391712
 10
14.1975428813
 20
8.8883563903
 10
14.2378740752
 20
8.8872715947
 10
14.2808050041
 20
8.8764326142
 10
14.3069894268
 20
8.8655172512
  0
LWPOLYLINE
  5
4DD
100
AcDbEntity
  8
AXIS_COSMETIC_THREADS
100
AcDbPolyline
 62
7
  6
CONTINUOUS
 90
10
 70
0
 10
13.7416942142
 20
8.3802471119
 10
13.7533305157
 20
8.3426218998
 10
13.7685021847
 20
8.3050724086
 10
13.7869267554
 20
8.2682977338
 10
13.8082611996
 20
8.2329825456
 10
13.832108313
 20
8.1997843415
 10
13.8580241106
 20
8.169321205
 10
13.8855260926
 20
8.142160298
 10
13.9141022276
 20
8.1188073018
 10
13.9432204858
 20
8.0996970021
  0
LWPOLYLINE
  5
4DE
100
AcDbEntity
  8
0
100
AcDbPolyline
 62
7
  6
CONTINUOUS
 90
3
 70
0
 10
13.7398939538
 20
8.3786233118
 10
13.7301321411
 20
8.4263268613
 10
13.7268449099
 20
8.4716106542
  0
LINE
  5
4DF
100
AcDbEntity
  8
0
100
AcDbLine
 62
7
  6
CONTINUOUS
 10
13.8175563979
 20
8.5659633784
 11
13.8248936576
 21
8.5714139069
  0
LINE
  5
4E0
100
AcDbEntity
  8
0
100
AcDbLine
 62
7
  6
CONTINUOUS
 10
13.7774671783
 20
8.602984852
 11
13.7902244932
 21
8.6116874055
  0
LWPOLYLINE
  5
4E1
100
AcDbEntity
  8
AXIS_COSMETIC_THREADS
100
AcDbPolyline
 62
7
  6
CONTINUOUS
 90
5
 70
0
 10
13.791965813
 20
8.6086573846
 10
13.7869267554
 20
8.6055486047
 10
13.7685021847
 20
8.5900483104
 10
13.7533305157
 20
8.5700171572
 10
13.7416942142
 20
8.5458280848
  0
LINE
  5
4E2
100
AcDbEntity
  8
AXIS_COSMETIC_THREADS
100
AcDbLine
 62
7
  6
CONTINUOUS
 10
13.8119287777
 20
8.6201845243
 11
13.791971163
 21
8.6086620589
  0
LINE
  5
4E3
100
AcDbEntity
  8
AXIS
100
AcDbLine
 62
7
  6
CONTINUOUS
 10
13.8182210454
 20
8.5631956573
 11
13.8425033449
 21
8.5772149658
  0
LWPOLYLINE
  5
4E4
100
AcDbEntity
  8
0
100
AcDbPolyline
 62
7
  6
CONTINUOUS
 90
16
 70
0
 10
13.8157277256
 20
8.5675288853
 10
13.8182449589
 20
8.568926378
 10
13.8395377546
 20
8.5768928158
 10
13.8632578468
 20
8.5794695127
 10
13.8888496009
 20
8.5765963335
 10
13.915713548
 20
8.568340925
 10
13.9432204858
 20
8.5548970997
 10
13.9707274236
 20
8.5365793677
 10
13.9975913707
 20
8.5138156637
 10
14.0231831248
 20
8.4871386992
 10
14.046903217
 20
8.4571730187
 10
14.0681960127
 20
8.4246203345
 10
14.0865627671
 20
8.3902430505
 10
14.1015733444
 20
8.3548463542
 10
14.1128763202
 20
8.3192592992
 10
14.1202072294
 20
8.2843153277
  0
LINE
  5
4E5
100
AcDbEntity
  8
0
100
AcDbLine
 62
7
  6
CONTINUOUS
 10
13.7883439309
 20
8.6650629293
 11
13.775413577
 21
8.6585695782
  0
LINE
  5
4E6
100
AcDbEntity
  8
0
100
AcDbLine
 62
7
  6
CONTINUOUS
 10
14.0299357147
 20
8.805517118
 11
14.0458227776
 21
8.8132484119
  0
LINE
  5
4E7
100
AcDbEntity
  8
0
100
AcDbLine
 62
7
  6
CONTINUOUS
 10
14.0016642684
 20
8.7891946929
 11
14.0179164549
 21
8.7970698812
  0
LINE
  5
4E8
100
AcDbEntity
  8
0
100
AcDbLine
 62
7
  6
CONTINUOUS
 10
13.9733878502
 20
8.7728693945
 11
13.9898727623
 21
8.7808356326
  0
LINE
  5
4E9
100
AcDbEntity
  8
0
100
AcDbLine
 62
7
  6
CONTINUOUS
 10
13.8602605803
 20
8.7075557258
 11
13.8768519081
 21
8.7155623485
  0
LINE
  5
4EA
100
AcDbEntity
  8
0
100
AcDbLine
 62
7
  6
CONTINUOUS
 10
13.8319648583
 20
8.691219279
 11
13.8486610479
 21
8.6992693821
  0
LINE
  5
4EB
100
AcDbEntity
  8
0
100
AcDbLine
 62
7
  6
CONTINUOUS
 10
13.8885535954
 20
8.7238906083
 11
13.9053324495
 21
8.7319694813
  0
LWPOLYLINE
  5
4EC
100
AcDbEntity
  8
0
100
AcDbPolyline
 62
7
  6
CONTINUOUS
 90
13
 70
0
 10
13.7902244932
 20
8.6116874055
 10
13.8041369466
 20
8.6183830902
 10
13.8350326979
 20
8.6255260404
 10
13.8692156803
 20
8.6241966677
 10
13.9056472614
 20
8.6144353645
 10
13.9432204858
 20
8.5965387229
 10
13.9807937103
 20
8.5710505235
 10
14.0172252913
 20
8.5387452122
 10
14.0514082738
 20
8.5006043695
 10
14.082304025
 20
8.4577868857
 10
14.1089737934
 20
8.4115937484
 10
14.1306072313
 20
8.3634285126
 10
14.1465470178
 20
8.3147546548
  0
LINE
  5
4ED
100
AcDbEntity
  8
0
100
AcDbLine
 62
7
  6
CONTINUOUS
 10
13.945116
 20
8.7565467329
 11
13.9619651159
 21
8.7646542858
  0
LINE
  5
4EE
100
AcDbEntity
  8
0
100
AcDbLine
 62
7
  6
CONTINUOUS
 10
13.9168385023
 20
8.7402208094
 11
13.9336734793
 21
8.7483215834
  0
LINE
  5
4EF
100
AcDbEntity
  8
0
100
AcDbLine
 62
7
  6
CONTINUOUS
 10
13.8036734106
 20
8.6748852996
 11
13.8225303717
 21
8.683765576
  0
LINE
  5
4F0
100
AcDbEntity
  8
0
100
AcDbLine
 62
7
  6
CONTINUOUS
 10
13.7768277929
 20
8.6593860713
 11
13.7971473208
 21
8.6687967153
  0
LINE
  5
4F1
100
AcDbEntity
  8
0
100
AcDbLine
 62
7
  6
CONTINUOUS
 10
14.0970936992
 20
8.8436356211
 11
14.1337783378
 21
8.8541904111
  0
LINE
  5
4F2
100
AcDbEntity
  8
0
100
AcDbLine
 62
7
  6
CONTINUOUS
 10
14.106908392
 20
8.8386771332
 11
14.087932709
 21
8.8332175088
  0
LINE
  5
4F3
100
AcDbEntity
  8
0
100
AcDbLine
 62
7
  6
CONTINUOUS
 10
14.1898162756
 20
8.8867748306
 11
14.1542562838
 21
8.8765645106
  0
LINE
  5
4F4
100
AcDbEntity
  8
0
100
AcDbLine
 62
7
  6
CONTINUOUS
 10
13.7630462082
 20
8.4588753219
 11
13.766838522
 21
8.4610648022
  0
LINE
  5
4F5
100
AcDbEntity
  8
AXIS
100
AcDbLine
 62
7
  6
CONTINUOUS
 10
13.7667204592
 20
8.4371579821
 11
13.769548947
 21
8.4387910005
  0
LINE
  5
4F6
100
AcDbEntity
  8
AXIS
100
AcDbLine
 62
7
  6
CONTINUOUS
 10
13.8182228026
 20
8.5631946608
 11
13.8260653964
 21
8.5671887861
  0
LWPOLYLINE
  5
4F7
100
AcDbEntity
  8
0
100
AcDbPolyline
 62
7
  6
CONTINUOUS
 90
3
 70
0
 10
13.8658683274
 20
8.1164521221
 10
13.9040570366
 20
8.0838171924
 10
13.9432204858
 20
8.0576471276
  0
LINE
  5
4F8
100
AcDbEntity
  8
0
100
AcDbLine
 62
7
  6
CONTINUOUS
 10
14.3042736769
 20
7.682693014
 11
14.3306261038
 21
7.6486717881
  0
LWPOLYLINE
  5
4F9
100
AcDbEntity
  8
0
100
AcDbPolyline
 62
7
  6
CONTINUOUS
 90
5
 70
0
 10
14.3042736769
 20
7.682693014
 10
14.2972923834
 20
7.6925330709
 10
14.2856350473
 20
7.7154539124
 10
14.2797463547
 20
7.73909927
 10
14.2790073818
 20
7.7510442266
  0
LINE
  5
4FA
100
AcDbEntity
  8
0
100
AcDbLine
 62
7
  6
CONTINUOUS
 10
13.841792725
 20
8.7614534208
 11
13.8549626232
 21
8.7039668963
  0
LINE
  5
4FB
100
AcDbEntity
  8
0
100
AcDbLine
 62
9
  6
CONTINUOUS
 10
13.8512222554
 20
8.7970173578
 11
13.865932628
 21
8.7104231768
  0
LINE
  5
4FC
100
AcDbEntity
  8
AXIS
100
AcDbLine
 62
7
  6
CONTINUOUS
 10
13.8260653964
 20
8.5671887861
 11
13.8444670451
 21
8.5730080553
  0
LWPOLYLINE
  5
4FD
100
AcDbEntity
  8
0
100
AcDbPolyline
 62
7
  6
CONTINUOUS
 90
6
 70
0
 10
13.9432204858
 20
8.0576471276
 10
13.9857082739
 20
8.0381316724
 10
14.0267246059
 20
8.0277097284
 10
14.0649655578
 20
8.0266249439
 10
14.0996627024
 20
8.0348872145
 10
14.1295141144
 20
8.0521829091
  0
LWPOLYLINE
  5
4FE
100
AcDbEntity
  8
0
100
AcDbPolyline
 62
7
  6
CONTINUOUS
 90
8
 70
0
 10
13.9432204858
 20
8.0968392437
 10
13.9056472614
 20
8.1223274431
 10
13.8692156803
 20
8.1546327544
 10
13.8350326979
 20
8.1927735971
 10
13.8041369466
 20
8.2355910809
 10
13.7774671783
 20
8.2817842182
 10
13.7558337403
 20
8.3299494539
 10
13.7398939538
 20
8.3786233118
  0
LWPOLYLINE
  5
4FF
100
AcDbEntity
  8
0
100
AcDbPolyline
 62
7
  6
CONTINUOUS
 90
13
 70
0
 10
14.2768364743
 20
7.768338422
 10
14.289300381
 20
7.7377437452
 10
14.3112893742
 20
7.7089922509
 10
14.342054645
 20
7.6830630367
 10
14.380548519
 20
7.660839091
 10
14.4254601336
 20
7.6430772234
 10
14.4752600775
 20
7.6303822932
 10
14.5282524735
 20
7.623186611
 10
14.582632729
 20
7.621735217
 10
14.6365489896
 20
7.6260775368
 10
14.6881652017
 20
7.6360656978
 10
14.7357236373
 20
7.6513595653
 10
14.7776047507
 20
7.6714383249
  0
LINE
  5
500
100
AcDbEntity
  8
0
100
AcDbLine
 62
7
  6
CONTINUOUS
 10
14.1202072294
 20
8.2843153277
 11
14.1233947634
 21
8.2508326931
  0
LWPOLYLINE
  5
501
100
AcDbEntity
  8
0
100
AcDbPolyline
 62
7
  6
CONTINUOUS
 90
10
 70
0
 10
14.213336236
 20
8.2136025925
 10
14.2086801579
 20
8.2659670698
 10
14.196415101
 20
8.3211628432
 10
14.1768956376
 20
8.3774705361
 10
14.1506996206
 20
8.4331388234
 10
14.1186097471
 20
8.4864370984
 10
14.0815927169
 20
8.5357037554
 10
14.0407690249
 20
8.5794010186
 10
13.9973754696
 20
8.6161658142
 10
13.9527250634
 20
8.644851283
  0
LWPOLYLINE
  5
502
100
AcDbEntity
  8
0
100
AcDbPolyline
 62
7
  6
CONTINUOUS
 90
4
 70
0
 10
14.2147504436
 20
8.2144190808
 10
14.2129073838
 20
8.2451555668
 10
14.2083383863
 20
8.277123753
 10
14.2010848577
 20
8.3099946145
  0
LINE
  5
503
100
AcDbEntity
  8
AXIS_COSMETIC_THREADS
100
AcDbLine
 62
7
  6
CONTINUOUS
 10
14.1447467575
 20
8.3131308547
 11
14.1447467575
 21
8.1475498818
  0
LINE
  5
504
100
AcDbEntity
  8
0
100
AcDbLine
 62
7
  6
CONTINUOUS
 10
14.1907007929
 20
8.2238617047
 11
14.1894204674
 21
8.1767282941
  0
LINE
  5
505
100
AcDbEntity
  8
0
100
AcDbLine
 62
7
  6
CONTINUOUS
 10
14.2138731393
 20
8.1855524703
 11
14.2147504436
 21
8.2144190808
  0
LWPOLYLINE
  5
506
100
AcDbEntity
  8
0
100
AcDbPolyline
 62
7
  6
CONTINUOUS
 90
9
 70
0
 10
14.1862104246
 20
8.1770931388
 10
14.1871160968
 20
8.196941138
 10
14.1841009971
 20
8.247221776
 10
14.1740688113
 20
8.2995763727
 10
14.1580824611
 20
8.3510493615
 10
14.1376694592
 20
8.3994037442
 10
14.1148212589
 20
8.4425319348
 10
14.0913634048
 20
8.479458522
 10
14.0684687196
 20
8.5103844717
  0
LWPOLYLINE
  5
507
100
AcDbEntity
  8
0
100
AcDbPolyline
 62
7
  6
CONTINUOUS
 90
4
 70
0
 10
14.213336236
 20
8.2136025925
 10
14.2103147571
 20
8.1660319703
 10
14.1996260593
 20
8.1238670271
 10
14.181702621
 20
8.0891472579
  0
LWPOLYLINE
  5
508
100
AcDbEntity
  8
0
100
AcDbPolyline
 62
7
  6
CONTINUOUS
 90
5
 70
0
 10
14.1595960617
 20
8.2217673124
 10
14.1563088305
 20
8.1802792013
 10
14.1465470178
 20
8.1438473672
 10
14.1306072313
 20
8.113578773
 10
14.1089737934
 20
8.0903931146
  0
LWPOLYLINE
  5
509
100
AcDbEntity
  8
0
100
AcDbPolyline
 62
7
  6
CONTINUOUS
 90
6
 70
0
 10
14.1233947634
 20
8.2345026447
 10
14.1202072294
 20
8.2047005742
 10
14.1128763202
 20
8.1782214159
 10
14.1015733444
 20
8.1556856179
 10
14.0865627671
 20
8.1376212511
 10
14.0707132461
 20
8.1258490813
  0
LWPOLYLINE
  5
50A
100
AcDbEntity
  8
AXIS
100
AcDbPolyline
 62
7
  6
CONTINUOUS
 90
5
 70
0
 10
14.1197205124
 20
8.2333579169
 10
14.116891411
 20
8.2083228395
 10
14.1110534972
 20
8.1856849266
 10
14.1023079115
 20
8.1658363752
 10
14.0908061695
 20
8.1491210575
  0
LWPOLYLINE
  5
50B
100
AcDbEntity
  8
0
100
AcDbPolyline
 62
7
  6
CONTINUOUS
 90
3
 70
0
 10
14.1894204674
 20
8.1767282941
 10
14.1807443323
 20
8.1350459806
 10
14.1743928841
 20
8.1209885004
  0
LWPOLYLINE
  5
50C
100
AcDbEntity
  8
0
100
AcDbPolyline
 62
7
  6
CONTINUOUS
 90
6
 70
0
 10
14.4950668095
 20
7.9109615095
 10
14.5283712446
 20
7.9014058237
 10
14.603209504
 20
7.8890705824
 10
14.6735996342
 20
7.8901952712
 10
14.7382597985
 20
7.9041086255
 10
14.7965862172
 20
7.9300516601
  0
LINE
  5
50D
100
AcDbEntity
  8
0
100
AcDbLine
 62
7
  6
CONTINUOUS
 10
14.4950116877
 20
7.9109793187
 11
14.4950656083
 21
7.9109618974
  0
LWPOLYLINE
  5
50E
100
AcDbEntity
  8
0
100
AcDbPolyline
 62
9
  6
CONTINUOUS
 90
13
 70
0
 10
14.3604117498
 20
7.9935475256
 10
14.4275573371
 20
7.9598636792
 10
14.4935540447
 20
7.9369197717
 10
14.5572726508
 20
7.9251083796
 10
14.6176229123
 20
7.9246315993
 10
14.6735722195
 20
7.9354975885
 10
14.7241632642
 20
7.9575204272
 10
14.7685304197
 20
7.9903232985
 10
14.8059145515
 20
8.0333449361
 10
14.835676007
 20
8.0858492279
 10
14.8573055592
 20
8.146937811
 10
14.8704331205
 20
8.2155654427
 10
14.8748340748
 20
8.2905578852
  0
LWPOLYLINE
  5
50F
100
AcDbEntity
  8
0
100
AcDbPolyline
 62
9
  6
CONTINUOUS
 90
4
 70
0
 10
14.2760197707
 20
8.0317883679
 10
14.2982601186
 20
8.0170979849
 10
14.3264088646
 20
8.0040263356
 10
14.3604117498
 20
7.9935475256
  0
LINE
  5
510
100
AcDbEntity
  8
0
100
AcDbLine
 62
7
  6
CONTINUOUS
 10
14.2759687626
 20
8.031828253
 11
14.2760197707
 21
8.0317883679
  0
LWPOLYLINE
  5
511
100
AcDbEntity
  8
0
100
AcDbPolyline
 62
9
  6
CONTINUOUS
 90
5
 70
0
 10
14.3604117498
 20
7.9935475256
 10
14.3970095467
 20
7.963265935
 10
14.4323917343
 20
7.9396588124
 10
14.4656825549
 20
7.9223285498
 10
14.4950116877
 20
7.9109793187
  0
LWPOLYLINE
  5
512
100
AcDbEntity
  8
0
100
AcDbPolyline
 62
9
  6
CONTINUOUS
 90
3
 70
0
 10
14.2192147604
 20
8.0981906806
 10
14.2871936236
 20
8.0418665546
 10
14.3604117498
 20
7.9935475256
  0
LWPOLYLINE
  5
513
100
AcDbEntity
  8
0
100
AcDbPolyline
 62
7
  6
CONTINUOUS
 90
3
 70
0
 10
14.2073766018
 20
8.0910491063
 10
14.2097964825
 20
8.0885522438
 10
14.2759670888
 20
8.0318295625
  0
LINE
  5
514
100
AcDbEntity
  8
0
100
AcDbLine
 62
7
  6
CONTINUOUS
 10
14.2760204561
 20
8.0317878146
 11
14.276338438
 21
8.0314377073
  0
LWPOLYLINE
  5
515
100
AcDbEntity
  8
0
100
AcDbPolyline
 62
9
  6
CONTINUOUS
 90
8
 70
0
 10
14.3604117498
 20
7.9935475256
 10
14.3924841221
 20
7.9548747581
 10
14.4263772972
 20
7.9241820812
 10
14.4605243409
 20
7.9016519484
 10
14.4939327616
 20
7.8867167429
 10
14.5261732284
 20
7.8786039587
 10
14.5572314269
 20
7.8767375731
 10
14.5872726673
 20
7.8809999974
  0
LWPOLYLINE
  5
516
100
AcDbEntity
  8
0
100
AcDbPolyline
 62
7
  6
CONTINUOUS
 90
3
 70
0
 10
14.1465470178
 20
8.3147546548
 10
14.1563088305
 20
8.2670511053
 10
14.1595960617
 20
8.2217673124
  0
LWPOLYLINE
  5
517
100
AcDbEntity
  8
0
100
AcDbPolyline
 62
7
  6
CONTINUOUS
 90
4
 70
0
 10
14.2026645513
 20
8.3187698467
 10
14.2129769177
 20
8.2657975624
 10
14.2157903276
 20
8.2159677415
 10
14.2149757009
 20
8.1994572495
  0
LWPOLYLINE
  5
518
100
AcDbEntity
  8
0
100
AcDbPolyline
 62
7
  6
CONTINUOUS
 90
3
 70
0
 10
14.2062000705
 20
8.3208110675
 10
14.2165124369
 20
8.2678387832
 10
14.2193258468
 20
8.2180089623
  0
LINE
  5
519
100
AcDbEntity
  8
0
100
AcDbLine
 62
7
  6
CONTINUOUS
 10
14.2740119024
 20
7.7918861785
 11
14.2768364743
 21
7.768338422
  0
LWPOLYLINE
  5
51A
100
AcDbEntity
  8
0
100
AcDbPolyline
 62
7
  6
CONTINUOUS
 90
11
 70
0
 10
14.2430345971
 20
8.230748847
 10
14.238517278
 20
8.2822246513
 10
14.2266373405
 20
8.3364574022
 10
14.2076151979
 20
8.392097842
 10
14.1821366458
 20
8.4470100577
 10
14.1504250389
 20
8.5004196733
 10
14.1135029475
 20
8.5501917053
 10
14.0730609084
 20
8.5940512832
 10
14.0305116329
 20
8.630728707
 10
13.9860390649
 20
8.6600066313
 10
13.9675795849
 20
8.6695600573
  0
LWPOLYLINE
  5
51B
100
AcDbEntity
  8
0
100
AcDbPolyline
 62
7
  6
CONTINUOUS
 90
11
 70
0
 10
14.2713187506
 20
8.2470786131
 10
14.2668150595
 20
8.2984664607
 10
14.254895151
 20
8.3528809259
 10
14.2357889748
 20
8.4087015332
 10
14.2102769415
 20
8.4636126376
 10
14.1785773638
 20
8.5169477078
 10
14.141718176
 20
8.5666048028
 10
14.1013899946
 20
8.6103374926
 10
14.0586643434
 20
8.6471582545
 10
14.0139530005
 20
8.6765429276
 10
13.9958637384
 20
8.6858898235
  0
LWPOLYLINE
  5
51C
100
AcDbEntity
  8
0
100
AcDbPolyline
 62
7
  6
CONTINUOUS
 90
11
 70
0
 10
14.2996029041
 20
8.2634083793
 10
14.2950894457
 20
8.3148592784
 10
14.2830423396
 20
8.3696970509
 10
14.2637851631
 20
8.425744038
 10
14.2381723744
 20
8.4806779066
 10
14.2064826063
 20
8.5338464162
 10
14.1698006041
 20
8.5831782742
 10
14.1297694069
 20
8.6265748814
 10
14.0870256151
 20
8.6634294882
 10
14.0422918396
 20
8.6928422253
 10
14.0241478919
 20
8.7022195896
  0
LINE
  5
51D
100
AcDbEntity
  8
0
100
AcDbLine
 62
7
  6
CONTINUOUS
 10
14.2740073818
 20
7.7918693475
 11
14.2740073818
 21
8.03350946
  0
LINE
  5
51E
100
AcDbEntity
  8
0
100
AcDbLine
 62
7
  6
CONTINUOUS
 10
14.2790073818
 20
7.7630095783
 11
14.2790073818
 21
7.7510442266
  0
LINE
  5
51F
100
AcDbEntity
  8
0
100
AcDbLine
 62
7
  6
CONTINUOUS
 10
14.2421572928
 20
8.2018822364
 11
14.2430345971
 21
8.230748847
  0
LINE
  5
520
100
AcDbEntity
  8
0
100
AcDbLine
 62
7
  6
CONTINUOUS
 10
14.2704414463
 20
8.2182120026
 11
14.2713187506
 21
8.2470786131
  0
LINE
  5
521
100
AcDbEntity
  8
0
100
AcDbLine
 62
7
  6
CONTINUOUS
 10
14.2987255998
 20
8.2345417687
 11
14.2996029041
 21
8.2634083793
  0
LINE
  5
522
100
AcDbEntity
  8
0
100
AcDbLine
 62
7
  6
CONTINUOUS
 10
14.2475449485
 20
8.2494745038
 11
14.2451514949
 21
8.2027343816
  0
LWPOLYLINE
  5
523
100
AcDbEntity
  8
0
100
AcDbPolyline
 62
7
  6
CONTINUOUS
 90
4
 70
0
 10
14.2699045429
 20
8.2462621248
 10
14.2668865535
 20
8.1987145028
 10
14.256209047
 20
8.1565659593
 10
14.2383029307
 20
8.1218527704
  0
LWPOLYLINE
  5
524
100
AcDbEntity
  8
0
100
AcDbPolyline
 62
7
  6
CONTINUOUS
 90
4
 70
0
 10
14.2416203895
 20
8.2299323587
 10
14.2385984054
 20
8.1823584075
 10
14.2279080911
 20
8.1401911013
 10
14.209981915
 20
8.1054700456
  0
LWPOLYLINE
  5
525
100
AcDbEntity
  8
0
100
AcDbPolyline
 62
7
  6
CONTINUOUS
 90
3
 70
0
 10
14.2981886964
 20
8.262591891
 10
14.2951680488
 20
8.215026746
 10
14.2844820268
 20
8.172865735
  0
LWPOLYLINE
  5
526
100
AcDbEntity
  8
0
100
AcDbPolyline
 62
7
  6
CONTINUOUS
 90
3
 70
0
 10
14.2193258468
 20
8.2180089623
 10
14.2145767552
 20
8.1729096316
 10
14.2075584349
 20
8.1503967162
  0
LWPOLYLINE
  5
527
100
AcDbEntity
  8
0
100
AcDbPolyline
 62
7
  6
CONTINUOUS
 90
3
 70
0
 10
14.3041024246
 20
8.2640251862
 10
14.2988840318
 20
8.2192710833
 10
14.2929955527
 20
8.2012592122
  0
LWPOLYLINE
  5
528
100
AcDbEntity
  8
0
100
AcDbPolyline
 62
7
  6
CONTINUOUS
 90
3
 70
0
 10
14.2749952494
 20
8.2331208649
 10
14.2674426741
 20
8.1901759009
 10
14.2634570769
 20
8.180413512
  0
LWPOLYLINE
  5
529
100
AcDbEntity
  8
0
100
AcDbPolyline
 62
7
  6
CONTINUOUS
 90
3
 70
0
 10
14.2451514949
 20
8.2027343816
 10
14.2352905573
 20
8.1617327264
 10
14.233847462
 20
8.15884905
  0
LWPOLYLINE
  5
52A
100
AcDbEntity
  8
AXIS_COSMETIC_THREADS
100
AcDbPolyline
 62
7
  6
CONTINUOUS
 90
5
 70
0
 10
14.1447467575
 20
8.1475498818
 10
14.133110456
 20
8.1233608094
 10
14.117938787
 20
8.1033296562
 10
14.0995142162
 20
8.0878293619
 10
14.0944751587
 20
8.084720582
  0
LWPOLYLINE
  5
52B
100
AcDbEntity
  8
0
100
AcDbPolyline
 62
7
  6
CONTINUOUS
 90
4
 70
0
 10
14.1831119692
 20
8.0899567678
 10
14.2010381453
 20
8.1246778234
 10
14.2117284596
 20
8.1668451296
 10
14.2138731393
 20
8.1855524703
  0
LWPOLYLINE
  5
52C
100
AcDbEntity
  8
0
100
AcDbPolyline
 62
7
  6
CONTINUOUS
 90
4
 70
0
 10
14.1536832802
 20
8.0778490163
 10
14.1716111814
 20
8.1111016341
 10
14.1828861337
 20
8.1511756318
 10
14.1862104246
 20
8.1770931388
  0
LWPOLYLINE
  5
52D
100
AcDbEntity
  8
AXIS
100
AcDbPolyline
 62
7
  6
CONTINUOUS
 90
3
 70
0
 10
14.0908061695
 20
8.1491210575
 10
14.0767475365
 20
8.1358285627
 10
14.068218169
 20
8.1301833058
  0
LINE
  5
52E
100
AcDbEntity
  8
AXIS_COSMETIC_THREADS
100
AcDbLine
 62
7
  6
CONTINUOUS
 10
14.1466539752
 20
8.3142319808
 11
14.1447467575
 21
8.3131308547
  0
LWPOLYLINE
  5
52F
100
AcDbEntity
  8
AXIS_COSMETIC_THREADS
100
AcDbPolyline
 62
7
  6
CONTINUOUS
 90
4
 70
0
 10
14.028416861
 20
8.0709471302
 10
14.0009148791
 20
8.0755420582
 10
13.9723387441
 20
8.085185194
 10
13.9432204858
 20
8.0996970021
  0
LINE
  5
530
100
AcDbEntity
  8
AXIS
100
AcDbLine
 62
7
  6
CONTINUOUS
 10
13.7667204592
 20
8.4371579821
 11
14.1197205124
 21
8.2333579169
  0
LINE
  5
531
100
AcDbEntity
  8
0
100
AcDbLine
 62
7
  6
CONTINUOUS
 10
13.7630462082
 20
8.4425452735
 11
14.1233947634
 21
8.2345026447
  0
LINE
  5
532
100
AcDbEntity
  8
0
100
AcDbLine
 62
7
  6
CONTINUOUS
 10
13.7630462082
 20
8.4588753219
 11
14.1233947634
 21
8.2508326931
  0
LINE
  5
533
100
AcDbEntity
  8
AXIS
100
AcDbLine
 62
7
  6
CONTINUOUS
 10
14.1197205124
 20
8.2562199845
 11
13.7667204592
 21
8.4600200497
  0
LWPOLYLINE
  5
534
100
AcDbEntity
  8
0
100
AcDbPolyline
 62
7
  6
CONTINUOUS
 90
8
 70
0
 10
14.0684687196
 20
8.5103844717
 10
14.1028830851
 20
8.46268483
 10
14.1324580402
 20
8.4114657532
 10
14.1563166842
 20
8.3583012243
 10
14.1737562373
 20
8.3048244856
 10
14.1842694468
 20
8.2526782893
 10
14.187560039
 20
8.2034648589
 10
14.1866915474
 20
8.1831274834
  0
LWPOLYLINE
  5
535
100
AcDbEntity
  8
0
100
AcDbPolyline
 62
7
  6
CONTINUOUS
 90
4
 70
0
 10
14.2279548035
 20
8.3255078924
 10
14.2352083321
 20
8.2926370309
 10
14.2397773297
 20
8.2606688446
 10
14.2416203895
 20
8.2299323587
  0
LWPOLYLINE
  5
536
100
AcDbEntity
  8
0
100
AcDbPolyline
 62
9
  6
CONTINUOUS
 90
7
 70
0
 10
14.2755333081
 20
8.0322014074
 10
14.2771340752
 20
8.0223835281
 10
14.2837207807
 20
8.0080799411
 10
14.2946792311
 20
7.997400501
 10
14.3107806488
 20
7.9909203275
 10
14.3326520476
 20
7.9894180409
 10
14.3604117498
 20
7.9935475256
  0
LWPOLYLINE
  5
537
100
AcDbEntity
  8
0
100
AcDbPolyline
 62
7
  6
CONTINUOUS
 90
11
 70
0
 10
14.3561712111
 20
8.2960679116
 10
14.3515824968
 20
8.3480025157
 10
14.3393180979
 20
8.4033892422
 10
14.319834834
 20
8.4596803423
 10
14.2940981393
 20
8.5145478932
 10
14.2624816439
 20
8.5673581236
 10
14.2261491413
 20
8.6161029999
 10
14.186224022
 20
8.659344661
 10
14.1434986084
 20
8.6961613591
 10
14.0987952879
 20
8.7255378927
 10
14.0807161989
 20
8.7348791219
  0
LWPOLYLINE
  5
538
100
AcDbEntity
  8
0
100
AcDbPolyline
 62
7
  6
CONTINUOUS
 90
11
 70
0
 10
14.3844553646
 20
8.3123976777
 10
14.3798609376
 20
8.36436885
 10
14.3675805778
 20
8.4197951828
 10
14.3480728243
 20
8.4761233272
 10
14.3223149778
 20
8.531004091
 10
14.2907679433
 20
8.5836846833
 10
14.25453438
 20
8.6323108282
 10
14.2144914664
 20
8.6756906242
 10
14.1717328883
 20
8.7125289602
 10
14.1269979262
 20
8.7419130474
 10
14.1090003524
 20
8.7512088881
  0
LWPOLYLINE
  5
539
100
AcDbEntity
  8
0
100
AcDbPolyline
 62
7
  6
CONTINUOUS
 90
11
 70
0
 10
14.4127395181
 20
8.3287274439
 10
14.4081447787
 20
8.3807006148
 10
14.3958635425
 20
8.436129126
 10
14.3763545137
 20
8.4924591349
 10
14.3506014156
 20
8.5473295679
 10
14.3191165031
 20
8.5999181899
 10
14.282868577
 20
8.648580202
 10
14.2427687755
 20
8.6920270245
 10
14.2000067318
 20
8.7288665462
 10
14.1552698726
 20
8.758249608
 10
14.1372845059
 20
8.7675386542
  0
LWPOLYLINE
  5
53A
100
AcDbEntity
  8
0
100
AcDbPolyline
 62
7
  6
CONTINUOUS
 90
11
 70
0
 10
14.3278870576
 20
8.2797381454
 10
14.323351333
 20
8.3313325463
 10
14.3112178543
 20
8.3864112729
 10
14.2918668446
 20
8.442573296
 10
14.2661983281
 20
8.4974948741
 10
14.2345264522
 20
8.5505362928
 10
14.1979682185
 20
8.599648707
 10
14.1580334825
 20
8.6429241221
 10
14.11528897
 20
8.6797750431
 10
14.0705583965
 20
8.709181797
 10
14.0524320454
 20
8.7185493558
  0
LINE
  5
53B
100
AcDbEntity
  8
0
100
AcDbLine
 62
7
  6
CONTINUOUS
 10
14.3270097532
 20
8.2508715349
 11
14.3278870576
 21
8.2797381454
  0
LINE
  5
53C
100
AcDbEntity
  8
0
100
AcDbLine
 62
7
  6
CONTINUOUS
 10
14.3552939067
 20
8.2672013011
 11
14.3561712111
 21
8.2960679116
  0
LINE
  5
53D
100
AcDbEntity
  8
0
100
AcDbLine
 62
7
  6
CONTINUOUS
 10
14.3835780602
 20
8.2835310672
 11
14.3844553646
 21
8.3123976777
  0
LINE
  5
53E
100
AcDbEntity
  8
0
100
AcDbLine
 62
7
  6
CONTINUOUS
 10
14.4118622137
 20
8.2998608334
 11
14.4127395181
 21
8.3287274439
  0
LWPOLYLINE
  5
53F
100
AcDbEntity
  8
0
100
AcDbPolyline
 62
7
  6
CONTINUOUS
 90
3
 70
0
 10
14.3264728499
 20
8.2789216571
 10
14.3241056018
 20
8.2359491416
 10
14.3155292084
 20
8.1971608163
  0
LWPOLYLINE
  5
540
100
AcDbEntity
  8
0
100
AcDbPolyline
 62
7
  6
CONTINUOUS
 90
4
 70
0
 10
14.4113253104
 20
8.3279109556
 10
14.4085693134
 20
8.2821337165
 10
14.3987423962
 20
8.2412856184
 10
14.3820988179
 20
8.2070308645
  0
LINE
  5
541
100
AcDbEntity
  8
0
100
AcDbLine
 62
7
  6
CONTINUOUS
 10
14.3324697027
 20
8.2954018498
 11
14.329604098
 21
8.2489783697
  0
LINE
  5
542
100
AcDbEntity
  8
0
100
AcDbLine
 62
7
  6
CONTINUOUS
 10
14.3830411569
 20
8.3115811894
 11
14.380049532
 21
8.2642078202
  0
LWPOLYLINE
  5
543
100
AcDbEntity
  8
0
100
AcDbPolyline
 62
7
  6
CONTINUOUS
 90
4
 70
0
 10
14.3547570034
 20
8.2952514233
 10
14.3517378231
 20
8.2476959498
 10
14.3410565123
 20
8.2055418487
 10
14.3231440712
 20
8.1708258001
  0
LINE
  5
544
100
AcDbEntity
  8
0
100
AcDbLine
 62
7
  6
CONTINUOUS
 10
14.4173648125
 20
8.3413462154
 11
14.4140275101
 21
8.2952451758
  0
LINE
  5
545
100
AcDbEntity
  8
0
100
AcDbLine
 62
7
  6
CONTINUOUS
 10
14.3816993676
 20
8.2666204386
 11
14.3835780602
 21
8.2835310672
  0
LINE
  5
546
100
AcDbEntity
  8
0
100
AcDbLine
 62
7
  6
CONTINUOUS
 10
14.3888493992
 20
8.3100603084
 11
14.3831624496
 21
8.2656570253
  0
LWPOLYLINE
  5
547
100
AcDbEntity
  8
0
100
AcDbPolyline
 62
7
  6
CONTINUOUS
 90
3
 70
0
 10
14.3595945697
 20
8.2792559643
 10
14.3515780267
 20
8.2366891149
 10
14.3480801779
 20
8.2284732759
  0
LINE
  5
548
100
AcDbEntity
  8
0
100
AcDbLine
 62
7
  6
CONTINUOUS
 10
14.3718724503
 20
8.2257723406
 11
14.3816993676
 21
8.2666204386
  0
LWPOLYLINE
  5
549
100
AcDbEntity
  8
0
100
AcDbPolyline
 62
7
  6
CONTINUOUS
 90
3
 70
0
 10
14.380049532
 20
8.2642078202
 10
14.3694417744
 20
8.2221436665
 10
14.3516092473
 20
8.1874163328
  0
LWPOLYLINE
  5
54A
100
AcDbEntity
  8
0
100
AcDbPolyline
 62
7
  6
CONTINUOUS
 90
3
 70
0
 10
14.329604098
 20
8.2489783697
 10
14.3192852159
 20
8.2083809551
 10
14.3184113525
 20
8.2067018106
  0
LWPOLYLINE
  5
54B
100
AcDbEntity
  8
0
100
AcDbPolyline
 62
7
  6
CONTINUOUS
 90
3
 70
0
 10
14.4140275101
 20
8.2952451758
 10
14.4032520587
 20
8.2550570796
 10
14.4030736718
 20
8.254727337
  0
LINE
  5
54C
100
AcDbEntity
  8
0
100
AcDbLine
 62
7
  6
CONTINUOUS
 10
14.3831624496
 20
8.2656570253
 11
14.3774650049
 21
8.2490192257
  0
LINE
  5
54D
100
AcDbEntity
  8
0
100
AcDbLine
 62
7
  6
CONTINUOUS
 10
14.3155292084
 20
8.1971608163
 11
14.3009824908
 21
8.164108157
  0
LINE
  5
54E
100
AcDbEntity
  8
0
100
AcDbLine
 62
7
  6
CONTINUOUS
 10
14.3552288721
 20
8.1915175867
 11
14.3718724503
 21
8.2257723406
  0
LWPOLYLINE
  5
54F
100
AcDbEntity
  8
0
100
AcDbPolyline
 62
7
  6
CONTINUOUS
 90
4
 70
0
 10
14.3247393014
 20
8.171903055
 10
14.3425718285
 20
8.2066303887
 10
14.3531795862
 20
8.2486945424
 10
14.3552939067
 20
8.2672013011
  0
LWPOLYLINE
  5
550
100
AcDbEntity
  8
0
100
AcDbPolyline
 62
7
  6
CONTINUOUS
 90
4
 70
0
 10
14.2114329849
 20
8.1063394925
 10
14.2293391012
 20
8.1410526814
 10
14.2400166077
 20
8.183201225
 10
14.2421572928
 20
8.2018822364
  0
LWPOLYLINE
  5
551
100
AcDbEntity
  8
0
100
AcDbPolyline
 62
7
  6
CONTINUOUS
 90
4
 70
0
 10
14.2962741254
 20
8.1553125223
 10
14.3141865665
 20
8.1900285709
 10
14.3248678773
 20
8.2321826719
 10
14.3270097532
 20
8.2508715349
  0
LWPOLYLINE
  5
552
100
AcDbEntity
  8
0
100
AcDbPolyline
 62
7
  6
CONTINUOUS
 90
4
 70
0
 10
14.2396923458
 20
8.1226336341
 10
14.257612081
 20
8.1573524572
 10
14.268298103
 20
8.1995134682
 10
14.2704414463
 20
8.2182120026
  0
LINE
  5
553
100
AcDbEntity
  8
0
100
AcDbLine
 62
7
  6
CONTINUOUS
 10
14.2844820268
 20
8.172865735
 11
14.2665622916
 21
8.138146912
  0
LWPOLYLINE
  5
554
100
AcDbEntity
  8
0
100
AcDbPolyline
 62
7
  6
CONTINUOUS
 90
5
 70
0
 10
14.2542802194
 20
8.1223948934
 10
14.2741125449
 20
8.1485948791
 10
14.2886592626
 20
8.1816475385
 10
14.297235656
 20
8.2204358638
 10
14.2987255998
 20
8.2345417687
  0
LINE
  5
555
100
AcDbEntity
  8
0
100
AcDbLine
 62
7
  6
CONTINUOUS
 10
14.3009824908
 20
8.164108157
 11
14.2811501652
 21
8.1379081712
  0
LINE
  5
556
100
AcDbEntity
  8
0
100
AcDbLine
 62
7
  6
CONTINUOUS
 10
14.1872767516
 20
8.0803106459
 11
14.2114329849
 21
8.1063394925
  0
LINE
  5
557
100
AcDbEntity
  8
0
100
AcDbLine
 62
7
  6
CONTINUOUS
 10
14.2383029307
 20
8.1218527704
 11
14.2141466974
 21
8.0958239237
  0
LINE
  5
558
100
AcDbEntity
  8
0
100
AcDbLine
 62
7
  6
CONTINUOUS
 10
14.181702621
 20
8.0891472579
 11
14.157531342
 21
8.0631268217
  0
LINE
  5
559
100
AcDbEntity
  8
0
100
AcDbLine
 62
7
  6
CONTINUOUS
 10
14.2155100471
 20
8.096599802
 11
14.2396923458
 21
8.1226336341
  0
LINE
  5
55A
100
AcDbEntity
  8
0
100
AcDbLine
 62
7
  6
CONTINUOUS
 10
14.1589356141
 20
8.0639353814
 11
14.1831119692
 21
8.0899567678
  0
LINE
  5
55B
100
AcDbEntity
  8
0
100
AcDbLine
 62
7
  6
CONTINUOUS
 10
14.209981915
 20
8.1054700456
 11
14.18580556
 21
8.0794486592
  0
LINE
  5
55C
100
AcDbEntity
  8
0
100
AcDbLine
 62
7
  6
CONTINUOUS
 10
14.1295141144
 20
8.0521829091
 11
14.1536832802
 21
8.0778490163
  0
LINE
  5
55D
100
AcDbEntity
  8
AXIS
100
AcDbLine
 62
7
  6
CONTINUOUS
 10
14.1197205124
 20
8.2562199845
 11
14.1227171884
 21
8.2579501059
  0
LINE
  5
55E
100
AcDbEntity
  8
AXIS
100
AcDbLine
 62
7
  6
CONTINUOUS
 10
14.1197205124
 20
8.2333579169
 11
14.1225490002
 21
8.2349909353
  0
LINE
  5
55F
100
AcDbEntity
  8
AXIS
100
AcDbLine
 62
7
  6
CONTINUOUS
 10
14.0682199262
 20
8.1301823093
 11
14.0915959261
 21
8.1436783685
  0
LWPOLYLINE
  5
560
100
AcDbEntity
  8
0
100
AcDbPolyline
 62
7
  6
CONTINUOUS
 90
7
 70
0
 10
14.0684687196
 20
8.5103844717
 10
14.0409305634
 20
8.5430328149
 10
14.0113573304
 20
8.5727279222
 10
13.9816496163
 20
8.5977166536
 10
13.9522943335
 20
8.6180462551
 10
13.9210821551
 20
8.6350816169
 10
13.8872612517
 20
8.6481428016
  0
LWPOLYLINE
  5
561
100
AcDbEntity
  8
0
100
AcDbPolyline
 62
7
  6
CONTINUOUS
 90
11
 70
0
 10
14.4975919785
 20
8.3777167424
 10
14.4928976924
 20
8.4303237609
 10
14.480338446
 20
8.4864381863
 10
14.4604019115
 20
8.5434118647
 10
14.4341268318
 20
8.5987968801
 10
14.4018800113
 20
8.6520095265
 10
14.3643757238
 20
8.701569875
 10
14.3233159364
 20
8.7451403957
 10
14.2798561035
 20
8.7815925018
 10
14.2347970137
 20
8.810139711
 10
14.2221369663
 20
8.8165279527
  0
LWPOLYLINE
  5
562
100
AcDbEntity
  8
0
100
AcDbPolyline
 62
7
  6
CONTINUOUS
 90
11
 70
0
 10
14.4410236716
 20
8.3450572101
 10
14.4364341031
 20
8.3969972831
 10
14.4241673006
 20
8.4523899933
 10
14.4046806569
 20
8.5086859241
 10
14.3789661943
 20
8.5635078916
 10
14.3476042353
 20
8.6159434335
 10
14.3112270484
 20
8.6648202505
 10
14.2710636196
 20
8.7083464282
 10
14.2283269495
 20
8.7451689564
 10
14.1836185454
 20
8.7745434551
 10
14.1655686594
 20
8.7838684204
  0
LWPOLYLINE
  5
563
100
AcDbEntity
  8
0
100
AcDbPolyline
 62
7
  6
CONTINUOUS
 90
11
 70
0
 10
14.469307825
 20
8.3613869762
 10
14.4647138704
 20
8.4133551255
 10
14.4524348126
 20
8.468778247
 10
14.4329295095
 20
8.5251022672
 10
14.407198375
 20
8.5799352928
 10
14.3757553857
 20
8.6324721968
 10
14.3391227415
 20
8.6816185616
 10
14.2988154344
 20
8.7251914545
 10
14.2560624363
 20
8.7619142529
 10
14.2114804979
 20
8.7911079322
 10
14.1938528128
 20
8.8001981865
  0
LINE
  5
564
100
AcDbEntity
  8
AXIS_COSMETIC_THREADS
100
AcDbLine
 62
7
  6
CONTINUOUS
 10
14.4525073818
 20
7.5757202263
 11
14.4525073818
 21
7.0953927856
  0
LINE
  5
565
100
AcDbEntity
  8
0
100
AcDbLine
 62
7
  6
CONTINUOUS
 10
14.4401463672
 20
8.3161905995
 11
14.4410236716
 21
8.3450572101
  0
LINE
  5
566
100
AcDbEntity
  8
0
100
AcDbLine
 62
7
  6
CONTINUOUS
 10
14.4684305207
 20
8.3325203657
 11
14.469307825
 21
8.3613869762
  0
LINE
  5
567
100
AcDbEntity
  8
0
100
AcDbLine
 62
7
  6
CONTINUOUS
 10
14.4967146742
 20
8.3488501318
 11
14.4975919785
 21
8.3777167424
  0
LINE
  5
568
100
AcDbEntity
  8
0
100
AcDbLine
 62
7
  6
CONTINUOUS
 10
14.5021316096
 20
8.3953446109
 11
14.4996340723
 21
8.3491713231
  0
LWPOLYLINE
  5
569
100
AcDbEntity
  8
0
100
AcDbPolyline
 62
7
  6
CONTINUOUS
 90
4
 70
0
 10
14.4396094639
 20
8.3442407217
 10
14.4366611619
 20
8.2971555252
 10
14.4262598685
 20
8.2554810879
 10
14.4086650022
 20
8.2207845456
  0
LWPOLYLINE
  5
56A
100
AcDbEntity
  8
0
100
AcDbPolyline
 62
7
  6
CONTINUOUS
 90
4
 70
0
 10
14.4678936174
 20
8.3605704879
 10
14.4649401415
 20
8.3134507549
 10
14.454616258
 20
8.2720084529
 10
14.4371366396
 20
8.2373894446
  0
LWPOLYLINE
  5
56B
100
AcDbEntity
  8
0
100
AcDbPolyline
 62
7
  6
CONTINUOUS
 90
4
 70
0
 10
14.4961777709
 20
8.3769002541
 10
14.4932108447
 20
8.3296908928
 10
14.482875263
 20
8.288269346
 10
14.4654497374
 20
8.2537618144
  0
LWPOLYLINE
  5
56C
100
AcDbEntity
  8
0
100
AcDbPolyline
 62
7
  6
CONTINUOUS
 90
4
 70
0
 10
14.5244619243
 20
8.3932300202
 10
14.5214884437
 20
8.3459770618
 10
14.5111183191
 20
8.3044867452
 10
14.4937234905
 20
8.2700762681
  0
LWPOLYLINE
  5
56D
100
AcDbEntity
  8
0
100
AcDbPolyline
 62
7
  6
CONTINUOUS
 90
3
 70
0
 10
14.5304237735
 20
8.3964057735
 10
14.5255699189
 20
8.3518830182
 10
14.5187186772
 20
8.3300800857
  0
LWPOLYLINE
  5
56E
100
AcDbEntity
  8
0
100
AcDbPolyline
 62
7
  6
CONTINUOUS
 90
3
 70
0
 10
14.4735667899
 20
8.356114698
 10
14.4674120858
 20
8.3120677829
 10
14.4621502081
 20
8.2973827312
  0
LWPOLYLINE
  5
56F
100
AcDbEntity
  8
0
100
AcDbPolyline
 62
7
  6
CONTINUOUS
 90
3
 70
0
 10
14.444164457
 20
8.3254121389
 10
14.4356850368
 20
8.2832287254
 10
14.4327684436
 20
8.276655097
  0
LWPOLYLINE
  5
570
100
AcDbEntity
  8
0
100
AcDbPolyline
 62
7
  6
CONTINUOUS
 90
3
 70
0
 10
14.4996340723
 20
8.3491713231
 10
14.4898246109
 20
8.3086355622
 10
14.4884994582
 20
8.3059818319
  0
LWPOLYLINE
  5
571
100
AcDbEntity
  8
0
100
AcDbPolyline
 62
7
  6
CONTINUOUS
 90
4
 70
0
 10
14.4102666938
 20
8.2218761667
 10
14.4277463122
 20
8.256495175
 10
14.4380701957
 20
8.2979374771
 10
14.4401463672
 20
8.3161905995
  0
LWPOLYLINE
  5
572
100
AcDbEntity
  8
0
100
AcDbPolyline
 62
7
  6
CONTINUOUS
 90
4
 70
0
 10
14.4385797916
 20
8.2382485366
 10
14.4560053172
 20
8.2727560682
 10
14.4663408989
 20
8.3141776149
 10
14.4684305207
 20
8.3325203657
  0
LWPOLYLINE
  5
573
100
AcDbEntity
  8
0
100
AcDbPolyline
 62
7
  6
CONTINUOUS
 90
4
 70
0
 10
14.4668535447
 20
8.2545629902
 10
14.4842483733
 20
8.2889734674
 10
14.4946184978
 20
8.330463784
 10
14.4967146742
 20
8.3488501318
  0
LWPOLYLINE
  5
574
100
AcDbEntity
  8
0
100
AcDbPolyline
 62
7
  6
CONTINUOUS
 90
4
 70
0
 10
14.3817950564
 20
8.2052712678
 10
14.3993899227
 20
8.23996781
 10
14.4097912161
 20
8.2816422474
 10
14.4118622137
 20
8.2998608334
  0
LWPOLYLINE
  5
575
100
AcDbEntity
  8
0
100
AcDbPolyline
 62
7
  6
CONTINUOUS
 90
4
 70
0
 10
14.4950457775
 20
8.270757614
 10
14.5124502177
 20
8.305078872
 10
14.5228928351
 20
8.3467283569
 10
14.5249988277
 20
8.365179898
  0
LINE
  5
576
100
AcDbEntity
  8
0
100
AcDbLine
 62
7
  6
CONTINUOUS
 10
14.5406356144
 20
8.3211406392
 11
14.5229815161
 21
8.286578257
  0
LINE
  5
577
100
AcDbEntity
  8
0
100
AcDbLine
 62
7
  6
CONTINUOUS
 10
14.3325415943
 20
8.1651700939
 11
14.3552288721
 21
8.1915175867
  0
LINE
  5
578
100
AcDbEntity
  8
0
100
AcDbLine
 62
7
  6
CONTINUOUS
 10
14.3820988179
 20
8.2070308645
 11
14.3594115401
 21
8.1806833718
  0
LINE
  5
579
100
AcDbEntity
  8
0
100
AcDbLine
 62
7
  6
CONTINUOUS
 10
14.4146696337
 20
8.2118549007
 11
14.4385797916
 21
8.2382485366
  0
LINE
  5
57A
100
AcDbEntity
  8
0
100
AcDbLine
 62
7
  6
CONTINUOUS
 10
14.4654497374
 20
8.2537618144
 11
14.4415395795
 21
8.2273681786
  0
LINE
  5
57B
100
AcDbEntity
  8
0
100
AcDbLine
 62
7
  6
CONTINUOUS
 10
14.4429531147
 20
8.2281841156
 11
14.4668535447
 21
8.2545629902
  0
LINE
  5
57C
100
AcDbEntity
  8
0
100
AcDbLine
 62
7
  6
CONTINUOUS
 10
14.4937234905
 20
8.2700762681
 11
14.4698230605
 21
8.2436973935
  0
LINE
  5
57D
100
AcDbEntity
  8
0
100
AcDbLine
 62
7
  6
CONTINUOUS
 10
14.386345887
 20
8.1954926943
 11
14.4102666938
 21
8.2218761667
  0
LINE
  5
57E
100
AcDbEntity
  8
0
100
AcDbLine
 62
7
  6
CONTINUOUS
 10
14.4371366396
 20
8.2373894446
 11
14.4132158328
 21
8.2110059722
  0
LINE
  5
57F
100
AcDbEntity
  8
0
100
AcDbLine
 62
7
  6
CONTINUOUS
 10
14.4711454506
 20
8.2444386982
 11
14.4950457775
 21
8.270757614
  0
LINE
  5
580
100
AcDbEntity
  8
0
100
AcDbLine
 62
7
  6
CONTINUOUS
 10
14.357801911
 20
8.1789507739
 11
14.3817950564
 21
8.2052712678
  0
LINE
  5
581
100
AcDbEntity
  8
0
100
AcDbLine
 62
7
  6
CONTINUOUS
 10
14.4086650022
 20
8.2207845456
 11
14.3846718568
 21
8.1944640517
  0
LWPOLYLINE
  5
582
100
AcDbEntity
  8
0
100
AcDbPolyline
 62
7
  6
CONTINUOUS
 90
3
 70
0
 10
14.5229815161
 20
8.286578257
 10
14.4987412454
 20
8.2602098186
 10
14.4843783624
 20
8.2503613834
  0
LINE
  5
583
100
AcDbEntity
  8
0
100
AcDbLine
 62
7
  6
CONTINUOUS
 10
14.3005976983
 20
8.1457772965
 11
14.3247393014
 21
8.171903055
  0
LINE
  5
584
100
AcDbEntity
  8
0
100
AcDbLine
 62
7
  6
CONTINUOUS
 10
14.3516092473
 20
8.1874163328
 11
14.3274676441
 21
8.1612905744
  0
LINE
  5
585
100
AcDbEntity
  8
0
100
AcDbLine
 62
7
  6
CONTINUOUS
 10
14.2720859837
 20
8.1292654236
 11
14.2962741254
 21
8.1553125223
  0
LINE
  5
586
100
AcDbEntity
  8
0
100
AcDbLine
 62
7
  6
CONTINUOUS
 10
14.3231440712
 20
8.1708258001
 11
14.2989559295
 21
8.1447787014
  0
LINE
  5
587
100
AcDbEntity
  8
0
100
AcDbLine
 62
7
  6
CONTINUOUS
 10
14.2665622916
 20
8.138146912
 11
14.2423799929
 21
8.1121130799
  0
LINE
  5
588
100
AcDbEntity
  8
0
100
AcDbLine
 62
7
  6
CONTINUOUS
 10
14.2298207426
 20
8.1033933504
 11
14.2542802194
 21
8.1223948934
  0
LINE
  5
589
100
AcDbEntity
  8
0
100
AcDbLine
 62
7
  6
CONTINUOUS
 10
14.2811501652
 20
8.1379081712
 11
14.2566906884
 21
8.1189066282
  0
LINE
  5
58A
100
AcDbEntity
  8
0
100
AcDbLine
 62
7
  6
CONTINUOUS
 10
14.314690386
 20
8.1523925714
 11
14.3325415943
 21
8.1651700939
  0
LINE
  5
58B
100
AcDbEntity
  8
0
100
AcDbLine
 62
7
  6
CONTINUOUS
 10
14.3594115401
 20
8.1806833718
 11
14.3415603318
 21
8.1679058492
  0
LINE
  5
58C
100
AcDbEntity
  8
0
100
AcDbLine
 62
7
  6
CONTINUOUS
 10
14.3995627768
 20
8.2013933839
 11
14.4146696337
 21
8.2118549007
  0
LINE
  5
58D
100
AcDbEntity
  8
0
100
AcDbLine
 62
7
  6
CONTINUOUS
 10
14.4415395795
 20
8.2273681786
 11
14.4264327226
 21
8.2169066618
  0
LINE
  5
58E
100
AcDbEntity
  8
0
100
AcDbLine
 62
7
  6
CONTINUOUS
 10
14.4278475515
 20
8.2177235091
 11
14.4429531147
 21
8.2281841156
  0
LINE
  5
58F
100
AcDbEntity
  8
0
100
AcDbLine
 62
7
  6
CONTINUOUS
 10
14.4698230605
 20
8.2436973935
 11
14.4547174973
 21
8.2332367869
  0
LINE
  5
590
100
AcDbEntity
  8
0
100
AcDbLine
 62
7
  6
CONTINUOUS
 10
14.3712776138
 20
8.1850630345
 11
14.386345887
 21
8.1954926943
  0
LINE
  5
591
100
AcDbEntity
  8
0
100
AcDbLine
 62
7
  6
CONTINUOUS
 10
14.4132158328
 20
8.2110059722
 11
14.3981475596
 21
8.2005763123
  0
LWPOLYLINE
  5
592
100
AcDbEntity
  8
0
100
AcDbPolyline
 62
7
  6
CONTINUOUS
 90
4
 70
0
 10
14.4829641408
 20
8.2495448871
 10
14.4980684619
 20
8.2599954087
 10
14.5219964178
 20
8.2863895109
 10
14.5394136609
 20
8.3208470793
  0
LINE
  5
593
100
AcDbEntity
  8
0
100
AcDbLine
 62
7
  6
CONTINUOUS
 10
14.4561328618
 20
8.2340539437
 11
14.4711454506
 21
8.2444386982
  0
LINE
  5
594
100
AcDbEntity
  8
0
100
AcDbLine
 62
7
  6
CONTINUOUS
 10
14.3429849645
 20
8.1687283596
 11
14.357801911
 21
8.1789507739
  0
LINE
  5
595
100
AcDbEntity
  8
0
100
AcDbLine
 62
7
  6
CONTINUOUS
 10
14.3846718568
 20
8.1944640517
 11
14.3698549103
 21
8.1842416374
  0
LINE
  5
596
100
AcDbEntity
  8
0
100
AcDbLine
 62
7
  6
CONTINUOUS
 10
14.2863973921
 20
8.1360576997
 11
14.3005976983
 21
8.1457772965
  0
LINE
  5
597
100
AcDbEntity
  8
0
100
AcDbLine
 62
7
  6
CONTINUOUS
 10
14.3274676441
 20
8.1612905744
 11
14.3132673379
 21
8.1515709775
  0
LWPOLYLINE
  5
598
100
AcDbEntity
  8
0
100
AcDbPolyline
 62
9
  6
CONTINUOUS
 90
15
 70
0
 10
14.5260380637
 20
8.2925622255
 10
14.5351826156
 20
8.2988168718
 10
14.5590757018
 20
8.3244773459
 10
14.5766919248
 20
8.3579800031
 10
14.5874778167
 20
8.3982927308
 10
14.5911063711
 20
8.4441648087
 10
14.5874759608
 20
8.4942271628
 10
14.5766884021
 20
8.5469940645
 10
14.5590703509
 20
8.6008383048
 10
14.5351752009
 20
8.6540882108
 10
14.5057363883
 20
8.7051375913
 10
14.4716301874
 20
8.7524766093
 10
14.43382786
 20
8.7947320652
 10
14.3934082861
 20
8.8306358813
 10
14.3515729518
 20
8.859040176
  0
LINE
  5
599
100
AcDbEntity
  8
0
100
AcDbLine
 62
7
  6
CONTINUOUS
 10
14.1732633106
 20
8.0707400975
 11
14.1872767516
 21
8.0803106459
  0
LINE
  5
59A
100
AcDbEntity
  8
0
100
AcDbLine
 62
7
  6
CONTINUOUS
 10
14.2141466974
 20
8.0958239237
 11
14.2001332564
 21
8.0862533753
  0
LINE
  5
59B
100
AcDbEntity
  8
0
100
AcDbLine
 62
7
  6
CONTINUOUS
 10
14.157531342
 20
8.0631268217
 11
14.1435827122
 21
8.0536041031
  0
LINE
  5
59C
100
AcDbEntity
  8
0
100
AcDbLine
 62
7
  6
CONTINUOUS
 10
14.1449901161
 20
8.054416661
 11
14.1589356141
 21
8.0639353814
  0
LINE
  5
59D
100
AcDbEntity
  8
0
100
AcDbLine
 62
7
  6
CONTINUOUS
 10
14.18580556
 20
8.0794486592
 11
14.1718600619
 21
8.0699299388
  0
LINE
  5
59E
100
AcDbEntity
  8
0
100
AcDbLine
 62
7
  6
CONTINUOUS
 10
14.2015367159
 20
8.0870636575
 11
14.2155100471
 21
8.096599802
  0
LINE
  5
59F
100
AcDbEntity
  8
0
100
AcDbLine
 62
7
  6
CONTINUOUS
 10
14.2423799929
 20
8.1121130799
 11
14.2284066618
 21
8.1025769353
  0
LINE
  5
5A0
100
AcDbEntity
  8
0
100
AcDbLine
 62
7
  6
CONTINUOUS
 10
14.2581031155
 20
8.1197220885
 11
14.2720859837
 21
8.1292654236
  0
LINE
  5
5A1
100
AcDbEntity
  8
0
100
AcDbLine
 62
7
  6
CONTINUOUS
 10
14.2989559295
 20
8.1447787014
 11
14.2849730613
 21
8.1352353664
  0
LINE
  5
5A2
100
AcDbEntity
  8
0
100
AcDbLine
 62
7
  6
CONTINUOUS
 10
14.1089737934
 20
8.0903931146
 11
14.0962164785
 21
8.0816905611
  0
LINE
  5
5A3
100
AcDbEntity
  8
AXIS_COSMETIC_THREADS
100
AcDbLine
 62
7
  6
CONTINUOUS
 10
14.1480501224
 20
8.149457069
 11
14.1447467575
 21
8.1475498818
  0
LINE
  5
5A4
100
AcDbEntity
  8
AXIS_COSMETIC_THREADS
100
AcDbLine
 62
7
  6
CONTINUOUS
 10
14.1144280812
 20
8.0962387529
 11
14.0944698087
 21
8.0847159077
  0
LWPOLYLINE
  5
5A5
100
AcDbEntity
  8
0
100
AcDbPolyline
 62
7
  6
CONTINUOUS
 90
17
 70
0
 10
14.0707132461
 20
8.1258490813
 10
14.0681960127
 20
8.1244515886
 10
14.046903217
 20
8.1164851508
 10
14.0231831248
 20
8.1139084539
 10
13.9975913707
 20
8.1167816331
 10
13.9707274236
 20
8.1250370416
 10
13.9432204858
 20
8.1384808669
 10
13.915713548
 20
8.1567985989
 10
13.8888496009
 20
8.1795623029
 10
13.8632578468
 20
8.2062392674
 10
13.8395377546
 20
8.2362049479
 10
13.8182449589
 20
8.2687576321
 10
13.7998782045
 20
8.3031349161
 10
13.7848676272
 20
8.3385316124
 10
13.7735646514
 20
8.3741186674
 10
13.7662337423
 20
8.4090626389
 10
13.7630462082
 20
8.4425452735
  0
LWPOLYLINE
  5
5A6
100
AcDbEntity
  8
AXIS
100
AcDbPolyline
 62
7
  6
CONTINUOUS
 90
19
 70
0
 10
14.068218169
 20
8.1301833058
 10
14.0603755752
 20
8.1261891805
 10
14.0419739266
 20
8.1203699113
 10
14.0218613952
 20
8.1184715726
 10
14.0003864266
 20
8.1205270528
 10
13.97792107
 20
8.1265007411
 10
13.954854533
 20
8.1362891446
 10
13.9315864386
 20
8.1497226812
 10
13.9085199017
 20
8.1665686178
 10
13.8860545451
 20
8.186535102
 10
13.8645795764
 20
8.2092762187
 10
13.8444670451
 20
8.2343979828
 10
13.8260653964
 20
8.261465165
 10
13.8096934352
 20
8.2900088319
 10
13.7956348021
 20
8.3195344706
 10
13.7841330601
 20
8.3495305556
 10
13.7753874745
 20
8.3794774109
 10
13.7695495606
 20
8.4088562136
 10
13.7667204592
 20
8.4371579821
  0
LWPOLYLINE
  5
5A7
100
AcDbEntity
  8
0
100
AcDbPolyline
 62
7
  6
CONTINUOUS
 90
6
 70
0
 10
14.0962164785
 20
8.0816905611
 10
14.082304025
 20
8.0749948764
 10
14.0514082738
 20
8.0678519262
 10
14.0172252913
 20
8.0691812989
 10
13.9807937103
 20
8.0789426021
 10
13.9432204858
 20
8.0968392437
  0
LWPOLYLINE
  5
5A8
100
AcDbEntity
  8
AXIS_COSMETIC_THREADS
100
AcDbPolyline
 62
7
  6
CONTINUOUS
 90
4
 70
0
 10
14.0944751587
 20
8.084720582
 10
14.078179772
 20
8.0771485106
 10
14.0543326586
 20
8.0714859583
 10
14.028416861
 20
8.0709471302
  0
LWPOLYLINE
  5
5A9
100
AcDbEntity
  8
0
100
AcDbPolyline
 62
7
  6
CONTINUOUS
 90
3
 70
0
 10
14.0792223106
 20
8.1321691557
 10
14.0645815983
 20
8.1266914386
 10
14.0604886739
 20
8.1262467801
  0
LWPOLYLINE
  5
5AA
100
AcDbEntity
  8
0
100
AcDbPolyline
 62
7
  6
CONTINUOUS
 90
3
 70
0
 10
14.468261139
 20
8.2424435148
 10
14.468368574
 20
8.2424687546
 10
14.4829641408
 20
8.2495448871
  0
LWPOLYLINE
  5
5AB
100
AcDbEntity
  8
0
100
AcDbPolyline
 62
9
  6
CONTINUOUS
 90
16
 70
0
 10
14.5110646792
 20
8.2736151848
 10
14.5202682618
 20
8.2757627977
 10
14.550793581
 20
8.2934512842
 10
14.5755699625
 20
8.320059029
 10
14.5938373827
 20
8.3547992164
 10
14.6050217955
 20
8.3966015358
 10
14.6087840385
 20
8.4441687557
 10
14.6050187833
 20
8.496081027
 10
14.5938316965
 20
8.5507975528
 10
14.5755616237
 20
8.6066308293
 10
14.5507825411
 20
8.6618473089
 10
14.5202550871
 20
8.7147814031
 10
14.484888037
 20
8.7638675238
 10
14.445688531
 20
8.8076815925
 10
14.4037755978
 20
8.8449091454
 10
14.3604117498
 20
8.8743495081
  0
LWPOLYLINE
  5
5AC
100
AcDbEntity
  8
AXIS_COSMETIC_THREADS
100
AcDbPolyline
 62
7
  6
CONTINUOUS
 90
10
 70
0
 10
13.9432204858
 20
8.5936809645
 10
13.9723387441
 20
8.5745706647
 10
14.0009148791
 20
8.5512176686
 10
14.028416861
 20
8.5240567616
 10
14.0543326586
 20
8.4935936251
 10
14.078179772
 20
8.460395421
 10
14.0995142162
 20
8.4250802328
 10
14.117938787
 20
8.388305558
 10
14.133110456
 20
8.3507560668
 10
14.1447467575
 20
8.3131308547
  0
LINE
  5
5AD
100
AcDbEntity
  8
0
100
AcDbLine
 62
9
  6
CONTINUOUS
 10
14.5840404249
 20
7.8922301323
 11
14.5872726673
 21
7.8809999974
  0
LWPOLYLINE
  5
5AE
100
AcDbEntity
  8
0
100
AcDbPolyline
 62
7
  6
CONTINUOUS
 90
11
 70
0
 10
14.525876132
 20
8.3940465085
 10
14.5212848479
 20
8.4459975655
 10
14.5090132642
 20
8.5014021288
 10
14.4895193169
 20
8.5577090735
 10
14.4637744833
 20
8.6125801724
 10
14.4319204863
 20
8.6657339674
 10
14.3949025258
 20
8.7152260689
 10
14.3544049728
 20
8.7587944362
 10
14.3116902813
 20
8.7952827917
 10
14.2674224248
 20
8.8241142213
 10
14.2504211198
 20
8.8328577189
  0
LWPOLYLINE
  5
5AF
100
AcDbEntity
  8
0
100
AcDbPolyline
 62
7
  6
CONTINUOUS
 90
11
 70
0
 10
14.5541602855
 20
8.4103762747
 10
14.5495773343
 20
8.4622739674
 10
14.5373654056
 20
8.5174927125
 10
14.5180228601
 20
8.5734999689
 10
14.4923824938
 20
8.6283008092
 10
14.4604863258
 20
8.6816431642
 10
14.423425444
 20
8.7312692267
 10
14.3829007575
 20
8.7749206371
 10
14.3402316078
 20
8.8114190845
 10
14.2961447273
 20
8.8402016167
 10
14.2787052733
 20
8.849187485
  0
LINE
  5
5B0
100
AcDbEntity
  8
0
100
AcDbLine
 62
7
  6
CONTINUOUS
 10
14.5249988277
 20
8.365179898
 11
14.525876132
 21
8.3940465085
  0
LINE
  5
5B1
100
AcDbEntity
  8
0
100
AcDbLine
 62
7
  6
CONTINUOUS
 10
14.5541602855
 20
8.4103762747
 11
14.5532829811
 21
8.3815096641
  0
LINE
  5
5B2
100
AcDbEntity
  8
0
100
AcDbLine
 62
7
  6
CONTINUOUS
 10
14.5497750612
 20
8.3623232111
 11
14.5527460778
 21
8.4095597864
  0
LWPOLYLINE
  5
5B3
100
AcDbEntity
  8
0
100
AcDbPolyline
 62
7
  6
CONTINUOUS
 90
3
 70
0
 10
14.5532829811
 20
8.3815096641
 10
14.5511431459
 20
8.3628342562
 10
14.5406356144
 20
8.3211406392
  0
LWPOLYLINE
  5
5B4
100
AcDbEntity
  8
0
100
AcDbPolyline
 62
7
  6
CONTINUOUS
 90
3
 70
0
 10
14.5579593538
 20
8.3979442154
 10
14.550767023
 20
8.3552141141
 10
14.5464995787
 20
8.3444087002
  0
LINE
  5
5B5
100
AcDbEntity
  8
0
100
AcDbLine
 62
7
  6
CONTINUOUS
 10
14.5394136609
 20
8.3208470793
 11
14.5497750612
 21
8.3623232111
  0
LWPOLYLINE
  5
5B6
100
AcDbEntity
  8
0
100
AcDbPolyline
 62
7
  6
CONTINUOUS
 90
3
 70
0
 10
14.3415603318
 20
8.1679058492
 10
14.3309748107
 20
8.1625173632
 10
14.3274839257
 20
8.1615499203
  0
LINE
  5
5B7
100
AcDbEntity
  8
0
100
AcDbLine
 62
7
  6
CONTINUOUS
 10
14.4547174973
 20
8.2332367869
 11
14.4399640175
 21
8.226114165
  0
LINE
  5
5B8
100
AcDbEntity
  8
0
100
AcDbLine
 62
7
  6
CONTINUOUS
 10
14.4264327226
 20
8.2169066618
 11
14.4116806801
 21
8.2097850468
  0
LINE
  5
5B9
100
AcDbEntity
  8
0
100
AcDbLine
 62
7
  6
CONTINUOUS
 10
14.3981475596
 20
8.2005763123
 11
14.3834285241
 21
8.1934734117
  0
LINE
  5
5BA
100
AcDbEntity
  8
0
100
AcDbLine
 62
7
  6
CONTINUOUS
 10
14.3698549103
 20
8.1842416374
 11
14.3553756055
 21
8.1772768325
  0
LINE
  5
5BB
100
AcDbEntity
  8
0
100
AcDbLine
 62
7
  6
CONTINUOUS
 10
14.2001332564
 20
8.0862533753
 11
14.1862921262
 21
8.0796381911
  0
LINE
  5
5BC
100
AcDbEntity
  8
0
100
AcDbLine
 62
7
  6
CONTINUOUS
 10
14.3132673379
 20
8.1515709775
 11
14.2993672047
 21
8.1449350681
  0
LINE
  5
5BD
100
AcDbEntity
  8
0
100
AcDbLine
 62
7
  6
CONTINUOUS
 10
14.2284066618
 20
8.1025769353
 11
14.2146479374
 21
8.0960114525
  0
LINE
  5
5BE
100
AcDbEntity
  8
0
100
AcDbLine
 62
7
  6
CONTINUOUS
 10
14.1718600619
 20
8.0699299388
 11
14.158119953
 21
8.0633786389
  0
LINE
  5
5BF
100
AcDbEntity
  8
0
100
AcDbLine
 62
7
  6
CONTINUOUS
 10
14.2849730613
 20
8.1352353664
 11
14.2712669487
 21
8.1287064306
  0
LWPOLYLINE
  5
5C0
100
AcDbEntity
  8
0
100
AcDbPolyline
 62
7
  6
CONTINUOUS
 90
3
 70
0
 10
14.1435827122
 20
8.0536041031
 10
14.1274169471
 20
8.0459090643
 10
14.1134114034
 20
8.0428531135
  0
LINE
  5
5C1
100
AcDbEntity
  8
0
100
AcDbLine
 62
7
  6
CONTINUOUS
 10
14.2566906884
 20
8.1189066282
 11
14.2422828584
 21
8.1130746461
  0
LWPOLYLINE
  5
5C2
100
AcDbEntity
  8
0
100
AcDbPolyline
 62
7
  6
CONTINUOUS
 90
3
 70
0
 10
13.9527250634
 20
8.644851283
 10
13.9081713958
 20
8.6645575179
 10
13.8650674331
 20
8.6746611059
  0
LWPOLYLINE
  5
5C3
100
AcDbEntity
  8
0
100
AcDbPolyline
 62
7
  6
CONTINUOUS
 90
9
 70
0
 10
13.9343592548
 20
8.6582589248
 10
13.9773600793
 20
8.6377059332
 10
14.0202143144
 20
8.60861796
 10
14.0616119619
 20
8.5719153093
 10
14.1002883923
 20
8.5287554586
 10
14.1350637329
 20
8.4804970068
 10
14.1648796182
 20
8.4286573583
 10
14.1888321538
 20
8.3748654606
 10
14.2062000705
 20
8.3208110675
  0
LWPOLYLINE
  5
5C4
100
AcDbEntity
  8
AXIS_COSMETIC_THREADS
100
AcDbPolyline
 62
7
  6
CONTINUOUS
 90
7
 70
0
 10
13.9432204858
 20
8.5936809645
 10
13.9141022276
 20
8.6081927726
 10
13.8855260926
 20
8.6178359084
 10
13.8580241106
 20
8.6224308364
 10
13.832108313
 20
8.6218920083
 10
13.8082611996
 20
8.616229456
 10
13.791965813
 20
8.6086573846
  0
LWPOLYLINE
  5
5C5
100
AcDbEntity
  8
0
100
AcDbPolyline
 62
7
  6
CONTINUOUS
 90
9
 70
0
 10
13.9392954314
 20
8.6532302911
 10
13.963735285
 20
8.6402561152
 10
14.0082323042
 20
8.6097545827
 10
14.0511852322
 20
8.5713998747
 10
14.0912959289
 20
8.5263867663
 10
14.1273487561
 20
8.4761197754
 10
14.1582526636
 20
8.4221684163
 10
14.1830782305
 20
8.3662135306
 10
14.2010848577
 20
8.3099946145
  0
LWPOLYLINE
  5
5C6
100
AcDbEntity
  8
0
100
AcDbPolyline
 62
7
  6
CONTINUOUS
 90
9
 70
0
 10
13.9518883763
 20
8.6472327766
 10
13.9771799375
 20
8.6336981393
 10
14.0194982751
 20
8.6043551891
 10
14.0603078653
 20
8.5676340097
 10
14.098389597
 20
8.5246669738
 10
14.1326074506
 20
8.4767767047
 10
14.1619431013
 20
8.4254357892
 10
14.185526938
 20
8.3722219215
 10
14.2026645513
 20
8.3187698467
  0
LWPOLYLINE
  5
5C7
100
AcDbEntity
  8
0
100
AcDbPolyline
 62
7
  6
CONTINUOUS
 90
11
 70
0
 10
14.0084566833
 20
8.6798923089
 10
14.0445898515
 20
8.659645483
 10
14.0873951785
 20
8.627690621
 10
14.1282855584
 20
8.5883856168
 10
14.1659951291
 20
8.5429861659
 10
14.1993584658
 20
8.4929404021
 10
14.2273473798
 20
8.4398431707
 10
14.2491033855
 20
8.3853856701
 10
14.2639648071
 20
8.3313020508
 10
14.2714876722
 20
8.2793146574
 10
14.2715440079
 20
8.2321167818
  0
LINE
  5
5C8
100
AcDbEntity
  8
AXIS_COSMETIC_THREADS
100
AcDbLine
 62
7
  6
CONTINUOUS
 10
14.6855073818
 20
7.5755372724
 11
14.6855073818
 21
7.0953927856
  0
LWPOLYLINE
  5
5C9
100
AcDbEntity
  8
0
100
AcDbPolyline
 62
7
  6
CONTINUOUS
 90
11
 70
0
 10
13.8872612517
 20
8.6481428016
 10
13.9299040457
 20
8.6316098515
 10
13.9729863821
 20
8.6062168149
 10
14.0151911584
 20
8.5727689102
 10
14.0552286051
 20
8.5323222396
 10
14.0918764586
 20
8.4861508952
 10
14.12401803
 20
8.4357072745
 10
14.1506769874
 20
8.3825768429
 10
14.1710477649
 20
8.3284287518
 10
14.1845206538
 20
8.2749638494
 10
14.1907007929
 20
8.2238617047
  0
LWPOLYLINE
  5
5CA
100
AcDbEntity
  8
0
100
AcDbPolyline
 62
7
  6
CONTINUOUS
 90
11
 70
0
 10
13.9469718978
 20
8.679886605
 10
13.9899897595
 20
8.6625198847
 10
14.0333442035
 20
8.6362274391
 10
14.0756915627
 20
8.6018540797
 10
14.1157199692
 20
8.5604997803
 10
14.1521907786
 20
8.513484945
 10
14.1839776811
 20
8.4623087149
 10
14.2101022655
 20
8.4086016307
 10
14.2297649142
 20
8.3540741479
 10
14.2423700513
 20
8.3004626263
 10
14.2475449485
 20
8.2494745038
  0
LWPOLYLINE
  5
5CB
100
AcDbEntity
  8
0
100
AcDbPolyline
 62
7
  6
CONTINUOUS
 90
4
 70
0
 10
13.9958637384
 20
8.6858898235
 10
13.9692425158
 20
8.6969605391
 10
13.9265041675
 20
8.7076789986
 10
13.8863451115
 20
8.7087217909
  0
LWPOLYLINE
  5
5CC
100
AcDbEntity
  8
0
100
AcDbPolyline
 62
7
  6
CONTINUOUS
 90
4
 70
0
 10
14.0241478919
 20
8.7022195896
 10
13.9975564354
 20
8.713279747
 10
13.9547964666
 20
8.7240076082
 10
13.9147046752
 20
8.7250590591
  0
LWPOLYLINE
  5
5CD
100
AcDbEntity
  8
0
100
AcDbPolyline
 62
7
  6
CONTINUOUS
 90
4
 70
0
 10
13.9675795849
 20
8.6695600573
 10
13.9414444262
 20
8.6804578431
 10
13.8986940121
 20
8.6912813362
 10
13.8583994254
 20
8.6924253919
  0
LWPOLYLINE
  5
5CE
100
AcDbEntity
  8
0
100
AcDbPolyline
 62
7
  6
CONTINUOUS
 90
11
 70
0
 10
13.9961124617
 20
8.712473817
 10
14.0408229464
 20
8.6920562055
 10
14.0855342892
 20
8.6626715323
 10
14.1282599404
 20
8.6258507704
 10
14.1685881218
 20
8.5821180807
 10
14.2054473096
 20
8.5324609856
 10
14.2371468873
 20
8.4791259154
 10
14.2626589206
 20
8.424214811
 10
14.2817650968
 20
8.3683942038
 10
14.2936850053
 20
8.3139797385
 10
14.2981886964
 20
8.262591891
  0
LWPOLYLINE
  5
5CF
100
AcDbEntity
  8
0
100
AcDbPolyline
 62
7
  6
CONTINUOUS
 90
11
 70
0
 10
14.0244263812
 20
8.7287930248
 10
14.0691617854
 20
8.7083555031
 10
14.1138955609
 20
8.6789427661
 10
14.1566393527
 20
8.6420881593
 10
14.1966705499
 20
8.5986915521
 10
14.2333525521
 20
8.5493596941
 10
14.2650423202
 20
8.4961911844
 10
14.2906551089
 20
8.4412573158
 10
14.3099122855
 20
8.3852103288
 10
14.3219593916
 20
8.3303725563
 10
14.3264728499
 20
8.2789216571
  0
LWPOLYLINE
  5
5D0
100
AcDbEntity
  8
0
100
AcDbPolyline
 62
7
  6
CONTINUOUS
 90
11
 70
0
 10
13.968314372
 20
8.695971121
 10
14.0129090107
 20
8.6755199091
 10
14.0573815787
 20
8.6462419849
 10
14.0999308542
 20
8.609564561
 10
14.1403728933
 20
8.5657049831
 10
14.1772949847
 20
8.5159329511
 10
14.2090065917
 20
8.4625233356
 10
14.2344851437
 20
8.4076111199
 10
14.2535072863
 20
8.35197068
 10
14.2653872238
 20
8.2977379291
 10
14.2699045429
 20
8.2462621248
  0
LWPOLYLINE
  5
5D1
100
AcDbEntity
  8
0
100
AcDbPolyline
 62
7
  6
CONTINUOUS
 90
9
 70
0
 10
13.9445228579
 20
8.6779909043
 10
13.9895987638
 20
8.6563562317
 10
14.0342209248
 20
8.6259600853
 10
14.0769630525
 20
8.5880061821
 10
14.1175182118
 20
8.5427089104
 10
14.154203274
 20
8.4916570698
 10
14.1853216153
 20
8.4372887958
 10
14.2100237666
 20
8.3815286859
 10
14.2279548035
 20
8.3255078924
  0
LWPOLYLINE
  5
5D2
100
AcDbEntity
  8
0
100
AcDbPolyline
 62
7
  6
CONTINUOUS
 90
11
 70
0
 10
14.0195471241
 20
8.7071217315
 10
14.0628489186
 20
8.6863262698
 10
14.1059823803
 20
8.6568901052
 10
14.1476108195
 20
8.619757315
 10
14.1864450692
 20
8.5761150051
 10
14.2212841916
 20
8.5273558255
 10
14.2510533988
 20
8.4750339966
 10
14.2748379907
 20
8.4208162328
 10
14.2919122368
 20
8.3664291145
 10
14.3017622927
 20
8.3136045696
 10
14.3041024246
 20
8.2640251862
  0
LWPOLYLINE
  5
5D3
100
AcDbEntity
  8
0
100
AcDbPolyline
 62
7
  6
CONTINUOUS
 90
12
 70
0
 10
13.9801725298
 20
8.6635625428
 10
13.9864542403
 20
8.6604786639
 10
14.0298086843
 20
8.6341862184
 10
14.0721560435
 20
8.5998128589
 10
14.11218445
 20
8.5584585595
 10
14.1486552594
 20
8.5114437243
 10
14.1804421619
 20
8.4602674941
 10
14.2065667463
 20
8.40656041
 10
14.2262293951
 20
8.3520329271
 10
14.2388345321
 20
8.2984214056
 10
14.2440094293
 20
8.247433283
 10
14.2432598544
 20
8.2157870157
  0
LWPOLYLINE
  5
5D4
100
AcDbEntity
  8
0
100
AcDbPolyline
 62
7
  6
CONTINUOUS
 90
12
 70
0
 10
14.0650249903
 20
8.7125518413
 10
14.0740204693
 20
8.7080787846
 10
14.1173512184
 20
8.6812537322
 10
14.1595915216
 20
8.6464093608
 10
14.1994328915
 20
8.604660517
 10
14.2356425897
 20
8.5573400629
 10
14.267102551
 20
8.5059567897
 10
14.2928446879
 20
8.452147776
 10
14.3120814588
 20
8.3976266955
 10
14.3242307353
 20
8.3441297061
 10
14.3289341835
 20
8.293360629
 10
14.3281123149
 20
8.2647763142
  0
LWPOLYLINE
  5
5D5
100
AcDbEntity
  8
0
100
AcDbPolyline
 62
7
  6
CONTINUOUS
 90
12
 70
0
 10
14.0367408368
 20
8.6962220751
 10
14.0593133994
 20
8.684285049
 10
14.1024468611
 20
8.6548488844
 10
14.1440753003
 20
8.6177160942
 10
14.18290955
 20
8.5740737843
 10
14.2177486724
 20
8.5253146047
 10
14.2475178796
 20
8.4729927759
 10
14.2713024715
 20
8.4187750121
 10
14.2883767176
 20
8.3643878937
 10
14.2982267735
 20
8.3115633488
 10
14.3005669054
 20
8.2619839654
 10
14.2998281614
 20
8.248446548
  0
LWPOLYLINE
  5
5D6
100
AcDbEntity
  8
0
100
AcDbPolyline
 62
7
  6
CONTINUOUS
 90
11
 70
0
 10
14.0047314252
 20
8.6852678161
 10
14.0481253707
 20
8.6616867038
 10
14.0909306977
 20
8.6297318417
 10
14.1318210776
 20
8.5904268375
 10
14.1695306483
 20
8.5450273867
 10
14.2028939849
 20
8.4949816229
 10
14.230882899
 20
8.4418843914
 10
14.2526389047
 20
8.3874268909
 10
14.2675003263
 20
8.3333432716
 10
14.2750231914
 20
8.2813558782
 10
14.2749952494
 20
8.2331208649
  0
LWPOLYLINE
  5
5D7
100
AcDbEntity
  8
0
100
AcDbPolyline
 62
7
  6
CONTINUOUS
 90
11
 70
0
 10
14.0922877728
 20
8.7330443931
 10
14.1356843522
 20
8.7089147971
 10
14.1784084327
 20
8.6764679757
 10
14.2191362512
 20
8.6367430707
 10
14.2566070788
 20
8.5910090363
 10
14.2896630289
 20
8.5407245709
 10
14.3172856192
 20
8.4874920572
 10
14.3386279309
 20
8.4330069654
 10
14.353041351
 20
8.379004317
 10
14.3600960532
 20
8.3272038998
 10
14.3595945697
 20
8.2792559643
  0
LWPOLYLINE
  5
5D8
100
AcDbEntity
  8
0
100
AcDbPolyline
 62
7
  6
CONTINUOUS
 90
11
 70
0
 10
14.0933091438
 20
8.7288816074
 10
14.132148833
 20
8.7068735763
 10
14.1748729135
 20
8.674426755
 10
14.215600732
 20
8.6347018499
 10
14.2530715596
 20
8.5889678155
 10
14.2861275097
 20
8.5386833501
 10
14.3137501
 20
8.4854508364
 10
14.3350924117
 20
8.4309657446
 10
14.3495058318
 20
8.3769630962
 10
14.356560534
 20
8.3251626791
 10
14.3563964684
 20
8.2811060803
  0
LWPOLYLINE
  5
5D9
100
AcDbEntity
  8
AXIS
100
AcDbPolyline
 62
7
  6
CONTINUOUS
 90
5
 70
0
 10
14.6855021729
 20
7.0953778997
 10
14.6852948631
 20
7.0913319866
 10
14.680232507
 20
7.075382895
 10
14.6687061509
 20
7.0605967055
 10
14.6513856647
 20
7.0478327377
  0
LINE
  5
5DA
100
AcDbEntity
  8
0
100
AcDbLine
 62
7
  6
CONTINUOUS
 10
13.9337524443
 20
8.6824052889
 11
13.9469718978
 21
8.679886605
  0
LWPOLYLINE
  5
5DB
100
AcDbEntity
  8
0
100
AcDbPolyline
 62
7
  6
CONTINUOUS
 90
3
 70
0
 10
13.8872612517
 20
8.6481428016
 10
13.8490083412
 20
8.656459632
 10
13.8132052254
 20
8.6561712448
  0
LINE
  5
5DC
100
AcDbEntity
  8
0
100
AcDbLine
 62
7
  6
CONTINUOUS
 10
13.9986982395
 20
8.7128048376
 11
14.0195471241
 21
8.7071217315
  0
LINE
  5
5DD
100
AcDbEntity
  8
0
100
AcDbLine
 62
7
  6
CONTINUOUS
 10
13.9620937758
 20
8.6997159802
 11
14.0047314252
 21
8.6852678161
  0
LINE
  5
5DE
100
AcDbEntity
  8
0
100
AcDbLine
 62
7
  6
CONTINUOUS
 10
14.0495636924
 20
8.7480802463
 11
14.0922877728
 21
8.7330443931
  0
LWPOLYLINE
  5
5DF
100
AcDbEntity
  8
0
100
AcDbPolyline
 62
7
  6
CONTINUOUS
 90
4
 70
0
 10
14.1090003524
 20
8.7512088881
 10
14.0822679605
 20
8.762319
 10
14.0395255369
 20
8.7730143885
 10
13.9995806626
 20
8.7740506901
  0
LWPOLYLINE
  5
5E0
100
AcDbEntity
  8
0
100
AcDbPolyline
 62
7
  6
CONTINUOUS
 90
4
 70
0
 10
14.1372845059
 20
8.7675386542
 10
14.1105385532
 20
8.7786535679
 10
14.0677980329
 20
8.7893458021
 10
14.0277463634
 20
8.7903686739
  0
LWPOLYLINE
  5
5E1
100
AcDbEntity
  8
0
100
AcDbPolyline
 62
7
  6
CONTINUOUS
 90
4
 70
0
 10
14.0524320454
 20
8.7185493558
 10
14.0258269835
 20
8.7296143396
 10
13.9830726955
 20
8.7403384996
 10
13.9430397276
 20
8.7413938668
  0
LWPOLYLINE
  5
5E2
100
AcDbEntity
  8
0
100
AcDbPolyline
 62
7
  6
CONTINUOUS
 90
4
 70
0
 10
14.0807161989
 20
8.7348791219
 10
14.054093266
 20
8.7459504441
 10
14.0113691048
 20
8.7566665254
 10
13.9714502105
 20
8.7577360694
  0
LWPOLYLINE
  5
5E3
100
AcDbEntity
  8
0
100
AcDbPolyline
 62
7
  6
CONTINUOUS
 90
11
 70
0
 10
14.0344777127
 20
8.7280641096
 10
14.0775559885
 20
8.7101200053
 10
14.1208867376
 20
8.683294953
 10
14.1631270407
 20
8.6484505816
 10
14.2029684107
 20
8.6067017378
 10
14.2391781089
 20
8.5593812837
 10
14.2706380701
 20
8.5079980105
 10
14.2963802071
 20
8.4541889968
 10
14.315616978
 20
8.3996679163
 10
14.3277662545
 20
8.3461709269
 10
14.3324697027
 20
8.2954018498
  0
LWPOLYLINE
  5
5E4
100
AcDbEntity
  8
0
100
AcDbPolyline
 62
7
  6
CONTINUOUS
 90
11
 70
0
 10
14.1219897448
 20
8.7762045555
 10
14.1651232064
 20
8.7576853435
 10
14.2084250009
 20
8.730331059
 10
14.2505531233
 20
8.6950200419
 10
14.2902026287
 20
8.6528818739
 10
14.3261468366
 20
8.6052617102
 10
14.3572760652
 20
8.5536778057
 10
14.3826326701
 20
8.499773574
 10
14.4014412833
 20
8.4452656956
 10
14.4131332959
 20
8.3918899113
 10
14.4173648125
 20
8.3413462154
  0
LWPOLYLINE
  5
5E5
100
AcDbEntity
  8
0
100
AcDbPolyline
 62
7
  6
CONTINUOUS
 90
11
 70
0
 10
14.1091379063
 20
8.7778322779
 10
14.153867872
 20
8.7574263252
 10
14.1986028342
 20
8.728042238
 10
14.2413614122
 20
8.691203902
 10
14.2814043258
 20
8.647824106
 10
14.3176378891
 20
8.5991979612
 10
14.3491849236
 20
8.5465173689
 10
14.3749427701
 20
8.4916366051
 10
14.3944505237
 20
8.4353084606
 10
14.4067308834
 20
8.3798821279
 10
14.4113253104
 20
8.3279109556
  0
LWPOLYLINE
  5
5E6
100
AcDbEntity
  8
0
100
AcDbPolyline
 62
7
  6
CONTINUOUS
 90
11
 70
0
 10
14.0526969293
 20
8.7451276175
 10
14.0974283423
 20
8.7246950748
 10
14.1421589159
 20
8.6952883209
 10
14.1849034284
 20
8.6584373999
 10
14.2248381643
 20
8.6151619848
 10
14.2613963981
 20
8.5660495707
 10
14.2930682739
 20
8.5130081519
 10
14.3187367904
 20
8.4580865739
 10
14.3380878001
 20
8.4019245508
 10
14.3502212788
 20
8.3468458241
 10
14.3547570034
 20
8.2952514233
  0
LWPOLYLINE
  5
5E7
100
AcDbEntity
  8
0
100
AcDbPolyline
 62
7
  6
CONTINUOUS
 90
11
 70
0
 10
14.0809632118
 20
8.761463722
 10
14.1256652337
 20
8.7410511705
 10
14.1703685543
 20
8.7116746369
 10
14.2130939678
 20
8.6748579388
 10
14.2530190871
 20
8.6316162778
 10
14.2893515897
 20
8.5828714014
 10
14.3209680851
 20
8.5300611711
 10
14.3467047798
 20
8.4751936201
 10
14.3661880437
 20
8.41890252
 10
14.3784524427
 20
8.3635157935
 10
14.3830411569
 20
8.3115811894
  0
LWPOLYLINE
  5
5E8
100
AcDbEntity
  8
0
100
AcDbPolyline
 62
7
  6
CONTINUOUS
 90
11
 70
0
 10
14.1070853874
 20
8.7550786027
 10
14.1504161365
 20
8.7337204757
 10
14.1934944123
 20
8.703772925
 10
14.2349852679
 20
8.6661961755
 10
14.2736038804
 20
8.6221913513
 10
14.3081561211
 20
8.5731625495
 10
14.3375762606
 20
8.5206725039
 10
14.3609606209
 20
8.4663932404
 10
14.3775961094
 20
8.4120532814
 10
14.3869827357
 20
8.3593830658
 10
14.3888493992
 20
8.3100603084
  0
LWPOLYLINE
  5
5E9
100
AcDbEntity
  8
0
100
AcDbPolyline
 62
7
  6
CONTINUOUS
 90
12
 70
0
 10
14.1498774507
 20
8.7615411397
 10
14.1615876872
 20
8.7556441227
 10
14.2048894817
 20
8.7282898382
 10
14.2470176042
 20
8.6929788212
 10
14.2866671095
 20
8.6508406531
 10
14.3226113174
 20
8.6032204894
 10
14.353740546
 20
8.5516365849
 10
14.379097151
 20
8.4977323533
 10
14.3979057642
 20
8.4432244748
 10
14.4095977767
 20
8.3898486906
 10
14.4138292933
 20
8.3393049946
 10
14.4129647753
 20
8.3137656126
  0
LWPOLYLINE
  5
5EA
100
AcDbEntity
  8
0
100
AcDbPolyline
 62
7
  6
CONTINUOUS
 90
12
 70
0
 10
14.1215932972
 20
8.7452113736
 10
14.1468806173
 20
8.7316792549
 10
14.1899588932
 20
8.7017317042
 10
14.2314497487
 20
8.6641549547
 10
14.2700683612
 20
8.6201501306
 10
14.3046206019
 20
8.5711213288
 10
14.3340407414
 20
8.5186312831
 10
14.3574251017
 20
8.4643520197
 10
14.3740605902
 20
8.4100120607
 10
14.3834472165
 20
8.357341845
 10
14.38531388
 20
8.3080190877
 10
14.3846806219
 20
8.2974358465
  0
LWPOLYLINE
  5
5EB
100
AcDbEntity
  8
0
100
AcDbPolyline
 62
7
  6
CONTINUOUS
 90
12
 70
0
 10
14.2064457577
 20
8.794200672
 10
14.2344468464
 20
8.77903982
 10
14.2774647081
 20
8.748584644
 10
14.3188129479
 20
8.7105686394
 10
14.3572112464
 20
8.6662068003
 10
14.3914724314
 20
8.6169144967
 10
14.4205399639
 20
8.5642627828
 10
14.4435212998
 20
8.5099287895
 10
14.4597160724
 20
8.4556427672
 10
14.4686382072
 20
8.4031334516
 10
14.4700312707
 20
8.3540734772
 10
14.4695330823
 20
8.3464251449
  0
LWPOLYLINE
  5
5EC
100
AcDbEntity
  8
0
100
AcDbPolyline
 62
7
  6
CONTINUOUS
 90
11
 70
0
 10
14.1798467543
 20
8.7807853541
 10
14.2232406998
 20
8.7561103157
 10
14.2658783492
 20
8.7231756049
 10
14.3064386688
 20
8.6830357689
 10
14.3436662182
 20
8.6369728639
 10
14.376410793
 20
8.5864559728
 10
14.4036637425
 20
8.5330948172
 10
14.4245898198
 20
8.4785889294
 10
14.438553555
 20
8.4246739874
 10
14.445139321
 20
8.3730670098
 10
14.444164457
 20
8.3254121389
  0
LWPOLYLINE
  5
5ED
100
AcDbEntity
  8
0
100
AcDbPolyline
 62
7
  6
CONTINUOUS
 90
11
 70
0
 10
14.1781616042
 20
8.7778709059
 10
14.2197051806
 20
8.754069095
 10
14.2623428301
 20
8.7211343841
 10
14.3029031496
 20
8.6809945481
 10
14.3401306991
 20
8.6349316432
 10
14.3728752738
 20
8.584414752
 10
14.4001282233
 20
8.5310535964
 10
14.4210543006
 20
8.4765477086
 10
14.4350180358
 20
8.4226327666
 10
14.4416038018
 20
8.3710257891
 10
14.4412489288
 20
8.3300953788
  0
LWPOLYLINE
  5
5EE
100
AcDbEntity
  8
0
100
AcDbPolyline
 62
7
  6
CONTINUOUS
 90
13
 70
0
 10
14.4024087163
 20
8.7973776875
 10
14.4401548289
 20
8.756485966
 10
14.4746069856
 20
8.7106366865
 10
14.5050447319
 20
8.6607088116
 10
14.5302154768
 20
8.6087729152
 10
14.5495467403
 20
8.5563050292
 10
14.5627035261
 20
8.5044841829
 10
14.5694172272
 20
8.4543159452
 10
14.5694164565
 20
8.4072589984
 10
14.5625814849
 20
8.3644599111
 10
14.5492868614
 20
8.3279600181
 10
14.5308687926
 20
8.2993937777
 10
14.5282926015
 20
8.2969760558
  0
LWPOLYLINE
  5
5EF
100
AcDbEntity
  8
0
100
AcDbPolyline
 62
9
  6
CONTINUOUS
 90
11
 70
0
 10
14.8748340748
 20
8.2905578852
 10
14.8695968188
 20
8.37812681
 10
14.8539924978
 20
8.469956366
 10
14.8283390645
 20
8.5641794368
 10
14.7931593986
 20
8.6588768077
 10
14.7491701273
 20
8.7521206624
 10
14.6972671252
 20
8.8420129182
 10
14.6385072676
 20
8.9267238415
 10
14.5740869121
 20
9.0045292697
 10
14.5053175457
 20
9.07384568
 10
14.4335990935
 20
9.1332623955
  0
LINE
  5
5F0
100
AcDbEntity
  8
0
100
AcDbLine
 62
7
  6
CONTINUOUS
 10
14.8590073818
 20
7.7646120973
 11
14.8590073818
 21
7.7510442266
  0
LINE
  5
5F1
100
AcDbEntity
  8
0
100
AcDbLine
 62
7
  6
CONTINUOUS
 10
14.8640073818
 20
7.7918693475
 11
14.8640073818
 21
7.9689770552
  0
LINE
  5
5F2
100
AcDbEntity
  8
0
100
AcDbLine
 62
9
  6
CONTINUOUS
 10
14.6157406115
 20
7.8892708036
 11
14.5872726673
 21
7.8809999974
  0
LWPOLYLINE
  5
5F3
100
AcDbEntity
  8
AXIS
100
AcDbPolyline
 62
7
  6
CONTINUOUS
 90
17
 70
0
 10
13.8444670451
 20
8.5730080553
 10
13.8645795764
 20
8.574906394
 10
13.8860545451
 20
8.5728509138
 10
13.9085199017
 20
8.5668772255
 10
13.9315864386
 20
8.557088822
 10
13.954854533
 20
8.5436552854
 10
13.97792107
 20
8.5268093488
 10
14.0003864266
 20
8.5068428646
 10
14.0218613952
 20
8.4841017479
 10
14.0419739266
 20
8.4589799838
 10
14.0603755752
 20
8.4319128016
 10
14.0767475365
 20
8.4033691347
 10
14.0908061695
 20
8.3738434959
 10
14.1023079115
 20
8.343847411
 10
14.1110534972
 20
8.3139005557
 10
14.116891411
 20
8.284521753
 10
14.1197205124
 20
8.2562199845
  0
LINE
  5
5F4
100
AcDbEntity
  8
0
100
AcDbLine
 62
7
  6
CONTINUOUS
 10
13.8650674331
 20
8.6746611059
 11
13.8247177441
 21
8.6748363284
  0
LWPOLYLINE
  5
5F5
100
AcDbEntity
  8
0
100
AcDbPolyline
 62
7
  6
CONTINUOUS
 90
3
 70
0
 10
13.8914827628
 20
8.6696703189
 10
13.8925264046
 20
8.6696224686
 10
13.9343592548
 20
8.6582589248
  0
LINE
  5
5F6
100
AcDbEntity
  8
0
100
AcDbLine
 62
7
  6
CONTINUOUS
 10
13.9547656531
 20
8.7005912285
 11
13.9620937758
 21
8.6997159802
  0
LINE
  5
5F7
100
AcDbEntity
  8
0
100
AcDbLine
 62
7
  6
CONTINUOUS
 10
14.041066065
 20
8.7492179289
 11
14.0495636924
 21
8.7480802463
  0
LINE
  5
5F8
100
AcDbEntity
  8
0
100
AcDbLine
 62
7
  6
CONTINUOUS
 10
14.0211239718
 20
8.7307940072
 11
14.0344777127
 21
8.7280641096
  0
LINE
  5
5F9
100
AcDbEntity
  8
0
100
AcDbLine
 62
7
  6
CONTINUOUS
 10
14.1089715534
 20
8.7790455783
 11
14.1219897448
 21
8.7762045555
  0
LINE
  5
5FA
100
AcDbEntity
  8
0
100
AcDbLine
 62
7
  6
CONTINUOUS
 10
14.0833727858
 20
8.7618598292
 11
14.1070853874
 21
8.7550786027
  0
LINE
  5
5FB
100
AcDbEntity
  8
0
100
AcDbLine
 62
7
  6
CONTINUOUS
 10
14.1370414274
 20
8.7964069799
 11
14.1798467543
 21
8.7807853541
  0
LWPOLYLINE
  5
5FC
100
AcDbEntity
  8
0
100
AcDbPolyline
 62
7
  6
CONTINUOUS
 90
3
 70
0
 10
14.2221369663
 20
8.8165279527
 10
14.1902017155
 20
8.8294169809
 10
14.147464019
 20
8.8389949023
  0
LWPOLYLINE
  5
5FD
100
AcDbEntity
  8
0
100
AcDbPolyline
 62
7
  6
CONTINUOUS
 90
4
 70
0
 10
14.1938528128
 20
8.8001981865
 10
14.1670385956
 20
8.8113372589
 10
14.1245049332
 20
8.8219857016
 10
14.0840586255
 20
8.8230024094
  0
LWPOLYLINE
  5
5FE
100
AcDbEntity
  8
0
100
AcDbPolyline
 62
7
  6
CONTINUOUS
 90
4
 70
0
 10
14.1655686594
 20
8.7838684204
 10
14.1389127405
 20
8.794951438
 10
14.0961867094
 20
8.8056607713
 10
14.0558264682
 20
8.8066779183
  0
LWPOLYLINE
  5
5FF
100
AcDbEntity
  8
0
100
AcDbPolyline
 62
7
  6
CONTINUOUS
 90
11
 70
0
 10
14.2068667292
 20
8.8251858636
 10
14.2495523273
 20
8.806898949
 10
14.2924156627
 20
8.7799508433
 10
14.3341555226
 20
8.7451891861
 10
14.3735054427
 20
8.7037032841
 10
14.4092728777
 20
8.6567904199
 10
14.4403760856
 20
8.6059157275
 10
14.4658775857
 20
8.5526668777
 10
14.4850131535
 20
8.4987049719
 10
14.4972154583
 20
8.4457131659
 10
14.5021316096
 20
8.3953446109
  0
LINE
  5
600
100
AcDbEntity
  8
0
100
AcDbLine
 62
7
  6
CONTINUOUS
 10
14.2170716613
 20
8.8449302587
 11
14.2616669595
 21
8.8256529889
  0
LWPOLYLINE
  5
601
100
AcDbEntity
  8
0
100
AcDbPolyline
 62
7
  6
CONTINUOUS
 90
11
 70
0
 10
14.1939085415
 20
8.8268505367
 10
14.2383504437
 20
8.8066212101
 10
14.2829323821
 20
8.7774275308
 10
14.3256853802
 20
8.7407047323
 10
14.3659926873
 20
8.6971318394
 10
14.4026253315
 20
8.6479854746
 10
14.4340683208
 20
8.5954485706
 10
14.4597994553
 20
8.5406155451
 10
14.4793047584
 20
8.4842915249
 10
14.4915838162
 20
8.4288684034
 10
14.4961777709
 20
8.3769002541
  0
LWPOLYLINE
  5
602
100
AcDbEntity
  8
0
100
AcDbPolyline
 62
7
  6
CONTINUOUS
 90
11
 70
0
 10
14.137408499
 20
8.7941668457
 10
14.1821398184
 20
8.7737628859
 10
14.2268766776
 20
8.7443798241
 10
14.2696387213
 20
8.7075403024
 10
14.3097385228
 20
8.6640934799
 10
14.3459864489
 20
8.6154314678
 10
14.3774713614
 20
8.5628428458
 10
14.4032244595
 20
8.5079724127
 10
14.4227334883
 20
8.4516424039
 10
14.4350147245
 20
8.3962138927
 10
14.4396094639
 20
8.3442407217
  0
LWPOLYLINE
  5
603
100
AcDbEntity
  8
0
100
AcDbPolyline
 62
7
  6
CONTINUOUS
 90
11
 70
0
 10
14.1657826863
 20
8.8104647158
 10
14.2104884912
 20
8.7900567329
 10
14.2551968953
 20
8.7606822342
 10
14.2979335655
 20
8.723859706
 10
14.3380969942
 20
8.6803335284
 10
14.3744741811
 20
8.6314567113
 10
14.4058361401
 20
8.5790211694
 10
14.4315506028
 20
8.5241992019
 10
14.4510372464
 20
8.4679032711
 10
14.463304049
 20
8.412510561
 10
14.4678936174
 20
8.3605704879
  0
LWPOLYLINE
  5
604
100
AcDbEntity
  8
0
100
AcDbPolyline
 62
7
  6
CONTINUOUS
 90
11
 70
0
 10
14.2486794685
 20
8.8366596207
 10
14.2915636815
 20
8.8155313911
 10
14.334208887
 20
8.785984562
 10
14.3753206191
 20
8.7489471493
 10
14.4136518409
 20
8.7055788471
 10
14.4480415145
 20
8.6572351591
 10
14.4774505113
 20
8.6054254738
 10
14.500993751
 20
8.5517663804
 10
14.5179675768
 20
8.497931669
 10
14.5278715189
 20
8.4456005612
 10
14.5304237735
 20
8.3964057735
  0
LWPOLYLINE
  5
605
100
AcDbEntity
  8
0
100
AcDbPolyline
 62
7
  6
CONTINUOUS
 90
12
 70
0
 10
14.2912982182
 20
8.8431899705
 10
14.30262793
 20
8.8374946128
 10
14.3456883676
 20
8.8103939906
 10
14.3876075405
 20
8.7754127611
 10
14.4271017337
 20
8.7336572738
 10
14.4629629319
 20
8.6864453475
 10
14.4940965295
 20
8.6352651328
 10
14.5195555008
 20
8.5817286569
 10
14.538569963
 20
8.5275215016
 10
14.5505712088
 20
8.4743501848
 10
14.5552094603
 20
8.4238888893
 10
14.5543855428
 20
8.3954144434
  0
LWPOLYLINE
  5
606
100
AcDbEntity
  8
0
100
AcDbPolyline
 62
7
  6
CONTINUOUS
 90
11
 70
0
 10
14.1946279215
 20
8.8029991346
 10
14.2379823656
 20
8.7810810408
 10
14.2810002272
 20
8.7506258648
 10
14.3223484671
 20
8.7126098602
 10
14.3607467656
 20
8.6682480211
 10
14.3950079506
 20
8.6189557175
 10
14.4240754831
 20
8.5663040036
 10
14.447056819
 20
8.5119700103
 10
14.4632515916
 20
8.457683988
 10
14.4721737264
 20
8.4051746724
 10
14.4735667899
 20
8.356114698
  0
LWPOLYLINE
  5
607
100
AcDbEntity
  8
0
100
AcDbPolyline
 62
7
  6
CONTINUOUS
 90
12
 70
0
 10
14.2347299112
 20
8.8105304382
 10
14.2474155133
 20
8.8041134531
 10
14.2904601028
 20
8.776751015
 10
14.3323223764
 20
8.7415391199
 10
14.3717203953
 20
8.6995913179
 10
14.4074491463
 20
8.6522314313
 10
14.4384181586
 20
8.6009522294
 10
14.4636855441
 20
8.5473688297
 10
14.4824874007
 20
8.4931682784
 10
14.4942616581
 20
8.4400568876
 10
14.498665624
 20
8.3897069693
 10
14.4978172358
 20
8.3627549111
  0
LWPOLYLINE
  5
608
100
AcDbEntity
  8
0
100
AcDbPolyline
 62
7
  6
CONTINUOUS
 90
11
 70
0
 10
14.2630140647
 20
8.8268602043
 10
14.296611191
 20
8.8082325627
 10
14.3392465488
 20
8.7769442684
 10
14.3800716182
 20
8.738317196
 10
14.4178368383
 20
8.693571506
 10
14.4513881666
 20
8.6441183613
 10
14.4797031039
 20
8.5915158758
 10
14.5019226135
 20
8.5374204751
 10
14.5173779377
 20
8.4835351887
 10
14.5256114736
 20
8.431556487
 10
14.5261013893
 20
8.3790846772
  0
LWPOLYLINE
  5
609
100
AcDbEntity
  8
0
100
AcDbPolyline
 62
7
  6
CONTINUOUS
 90
11
 70
0
 10
14.2906007852
 20
8.8472051581
 10
14.3335506194
 20
8.8233038171
 10
14.3758454568
 20
8.7912530676
 10
14.4162016679
 20
8.7520583698
 10
14.4533955835
 20
8.7069461411
 10
14.4863013419
 20
8.6573258235
 10
14.5139257107
 20
8.6047462906
 10
14.5354388068
 20
8.5508479425
 10
14.5501997643
 20
8.4973119692
 10
14.5577765555
 20
8.4458083526
 10
14.5579593538
 20
8.3979442154
  0
LINE
  5
60A
100
AcDbEntity
  8
0
100
AcDbLine
 62
7
  6
CONTINUOUS
 10
14.3594218684
 20
8.8325784208
 11
14.3153801775
 21
8.8598157155
  0
LWPOLYLINE
  5
60B
100
AcDbEntity
  8
0
100
AcDbPolyline
 62
7
  6
CONTINUOUS
 90
10
 70
0
 10
14.2616669595
 20
8.8256529889
 10
14.3067260493
 20
8.7971057796
 10
14.3501858822
 20
8.7606536735
 10
14.3912456696
 20
8.7170831528
 10
14.4287499571
 20
8.6675228043
 10
14.4609967776
 20
8.614310158
 10
14.4872718574
 20
8.5589251425
 10
14.5072083918
 20
8.5019514642
 10
14.5197676382
 20
8.4458370387
 10
14.5244619243
 20
8.3932300202
  0
LWPOLYLINE
  5
60C
100
AcDbEntity
  8
0
100
AcDbPolyline
 62
7
  6
CONTINUOUS
 90
3
 70
0
 10
14.3250565579
 20
8.8561826821
 10
14.3642200071
 20
8.8300126173
 10
14.4024087163
 20
8.7973776875
  0
LINE
  5
60D
100
AcDbEntity
  8
0
100
AcDbLine
 62
7
  6
CONTINUOUS
 10
14.4024087163
 20
8.7973776875
 11
14.3594218684
 21
8.8325784208
  0
LWPOLYLINE
  5
60E
100
AcDbEntity
  8
0
100
AcDbPolyline
 62
9
  6
CONTINUOUS
 90
19
 70
0
 10
14.9596868886
 20
8.2905580891
 10
14.9544478358
 20
8.3815775515
 10
14.9388292595
 20
8.4769337206
 10
14.9131250512
 20
8.5748322999
 10
14.8778188814
 20
8.673431153
 10
14.8335750985
 20
8.7708749666
 10
14.7812262284
 20
8.8653301616
 10
14.7217573084
 20
8.9550193949
 10
14.6562873523
 20
9.0382550036
 10
14.5860482942
 20
9.1134707613
 10
14.5123618072
 20
9.1792513493
 10
14.4366144339
 20
9.2343589885
 10
14.3602314965
 20
9.2777567303
 10
14.284650276
 20
9.3086279689
 10
14.211292968
 20
9.3263918068
 10
14.1415399211
 20
9.3307139857
 10
14.0767036633
 20
9.321513176
 10
14.0180042045
 20
9.2989625075
 10
14.0090897428
 20
9.2940437065
  0
LWPOLYLINE
  5
60F
100
AcDbEntity
  8
0
100
AcDbPolyline
 62
7
  6
CONTINUOUS
 90
3
 70
0
 10
14.856171889
 20
7.75287612
 10
14.863692666
 20
7.7840042787
 10
14.8640028611
 20
7.7918525164
  0
LWPOLYLINE
  5
610
100
AcDbEntity
  8
0
100
AcDbPolyline
 62
9
  6
CONTINUOUS
 90
7
 70
0
 10
15.1346231015
 20
8.1234841331
 10
15.1767274818
 20
8.1543454304
 10
15.2177705872
 20
8.2009008699
 10
15.2508276074
 20
8.2584434219
 10
15.2751164419
 20
8.3254688309
 10
15.290083572
 20
8.4006749119
 10
15.2952076682
 20
8.4830452128
  0
LWPOLYLINE
  5
611
100
AcDbEntity
  8
0
100
AcDbPolyline
 62
7
  6
CONTINUOUS
 90
7
 70
0
 10
15.1345758061
 20
8.1234570507
 10
15.1811798857
 20
8.1572051433
 10
15.226373309
 20
8.2068527021
 10
15.2637742454
 20
8.2693313343
 10
15.2913167019
 20
8.3428358297
 10
15.3076959828
 20
8.4243648331
 10
15.3127810846
 20
8.5075413588
  0
LWPOLYLINE
  5
612
100
AcDbEntity
  8
0
100
AcDbPolyline
 62
7
  6
CONTINUOUS
 90
7
 70
0
 10
15.0752241779
 20
8.0891992172
 10
15.1023697105
 20
8.1071845715
 10
15.1500731874
 20
8.1532263804
 10
15.1882221863
 20
8.2118745627
 10
15.2160401034
 20
8.2819352104
 10
15.2329606462
 20
8.3619820909
 10
15.2386393612
 20
8.4503856805
  0
LWPOLYLINE
  5
613
100
AcDbEntity
  8
0
100
AcDbPolyline
 62
9
  6
CONTINUOUS
 90
8
 70
0
 10
14.7965862172
 20
7.9300516601
 10
14.8099515601
 20
7.938310677
 10
14.8541883034
 20
7.9748777528
 10
14.891365736
 20
8.0214104368
 10
14.9209023871
 20
8.0771809382
 10
14.9423362908
 20
8.1413169827
 10
14.9553322119
 20
8.2128154551
 10
14.9596868886
 20
8.2905580891
  0
LINE
  5
614
100
AcDbEntity
  8
0
100
AcDbLine
 62
7
  6
CONTINUOUS
 10
15.0652856754
 20
8.0851844386
 11
14.7965862172
 21
7.9300516601
  0
LINE
  5
615
100
AcDbEntity
  8
0
100
AcDbLine
 62
7
  6
CONTINUOUS
 10
15.1347179592
 20
8.1235388988
 11
15.0752280219
 21
8.0891925725
  0
LINE
  5
616
100
AcDbEntity
  8
0
100
AcDbLine
 62
7
  6
CONTINUOUS
 10
15.0535030524
 20
8.0783817786
 11
15.0752241779
 21
8.0891992172
  0
LINE
  5
617
100
AcDbEntity
  8
0
100
AcDbLine
 62
7
  6
CONTINUOUS
 10
14.1274116129
 20
8.79783421
 11
14.1370414274
 21
8.7964069799
  0
LINE
  5
618
100
AcDbEntity
  8
0
100
AcDbLine
 62
7
  6
CONTINUOUS
 10
14.1933151467
 20
8.8281604038
 11
14.2068667292
 21
8.8251858636
  0
LINE
  5
619
100
AcDbEntity
  8
0
100
AcDbLine
 62
7
  6
CONTINUOUS
 10
14.2244858685
 20
8.8436258979
 11
14.2486794685
 21
8.8366596207
  0
LINE
  5
61A
100
AcDbEntity
  8
0
100
AcDbLine
 62
7
  6
CONTINUOUS
 10
14.1653877243
 20
8.81175056
 11
14.1946279215
 21
8.8029991346
  0
LINE
  5
61B
100
AcDbEntity
  8
0
100
AcDbLine
 62
7
  6
CONTINUOUS
 10
14.2482998421
 20
8.862203685
 11
14.2906007852
 21
8.8472051581
  0
LWPOLYLINE
  5
61C
100
AcDbEntity
  8
0
100
AcDbPolyline
 62
7
  6
CONTINUOUS
 90
4
 70
0
 10
14.2504211198
 20
8.8328577189
 10
14.2235104198
 20
8.8440308991
 10
14.1810362695
 20
8.8546504812
 10
14.1406048124
 20
8.855659692
  0
LWPOLYLINE
  5
61D
100
AcDbEntity
  8
0
100
AcDbPolyline
 62
7
  6
CONTINUOUS
 90
4
 70
0
 10
14.2787052733
 20
8.849187485
 10
14.2522967177
 20
8.8601826747
 10
14.2097430715
 20
8.8709198222
 10
14.1692712741
 20
8.8720278688
  0
LWPOLYLINE
  5
61E
100
AcDbEntity
  8
0
100
AcDbPolyline
 62
7
  6
CONTINUOUS
 90
3
 70
0
 10
14.3153801775
 20
8.8598157155
 10
14.2715802312
 20
8.8782587374
 10
14.229311224
 20
8.8873405529
  0
LWPOLYLINE
  5
61F
100
AcDbEntity
  8
0
100
AcDbPolyline
 62
7
  6
CONTINUOUS
 90
11
 70
0
 10
14.2503803656
 20
8.8595441769
 10
14.2942923706
 20
8.8396274991
 10
14.3385602271
 20
8.8107960695
 10
14.3812749186
 20
8.774307714
 10
14.4217724716
 20
8.7307393467
 10
14.4587904321
 20
8.6812472452
 10
14.4906444291
 20
8.6280934502
 10
14.5163892628
 20
8.5732223514
 10
14.53588321
 20
8.5169154066
 10
14.5481547937
 20
8.4615108434
 10
14.5527460778
 20
8.4095597864
  0
LWPOLYLINE
  5
620
100
AcDbEntity
  8
0
100
AcDbPolyline
 62
9
  6
CONTINUOUS
 90
5
 70
0
 10
14.3515729518
 20
8.859040176
 10
14.3097335217
 20
8.8789435972
 10
14.2693104218
 20
8.8897108856
 10
14.2315062577
 20
8.891102762
 10
14.2174456277
 20
8.8878210624
  0
LWPOLYLINE
  5
621
100
AcDbEntity
  8
0
100
AcDbPolyline
 62
9
  6
CONTINUOUS
 90
6
 70
0
 10
14.3604117498
 20
8.8743495081
 10
14.3170397486
 20
8.8949832792
 10
14.2751230541
 20
8.9061504318
 10
14.2359217208
 20
8.9075958735
 10
14.2005552377
 20
8.8993432705
 10
14.1704291565
 20
8.8818861301
  0
LINE
  5
622
100
AcDbEntity
  8
0
100
AcDbLine
 62
7
  6
CONTINUOUS
 10
14.3073341119
 20
8.8653530895
 11
14.3069894268
 21
8.8655172512
  0
LINE
  5
623
100
AcDbEntity
  8
0
100
AcDbLine
 62
7
  6
CONTINUOUS
 10
14.3069894268
 20
8.8655172512
 11
14.3250565579
 21
8.8561826821
  0
LINE
  5
624
100
AcDbEntity
  8
0
100
AcDbLine
 62
7
  6
CONTINUOUS
 10
14.3073341134
 20
8.8653530699
 11
14.3250565579
 21
8.8561826821
  0
LWPOLYLINE
  5
625
100
AcDbEntity
  8
0
100
AcDbPolyline
 62
7
  6
CONTINUOUS
 90
6
 70
0
 10
13.8132052254
 20
8.6561712448
 10
13.7806977863
 20
8.6471943215
 10
13.7526895049
 20
8.6298102971
 10
13.7299904656
 20
8.6046627102
 10
13.7130117214
 20
8.5722830487
 10
13.702233988
 20
8.5333825857
  0
LINE
  5
626
100
AcDbEntity
  8
0
100
AcDbLine
 62
7
  6
CONTINUOUS
 10
13.8247177441
 20
8.6748363284
 11
13.7883439309
 21
8.6650629293
  0
LWPOLYLINE
  5
627
100
AcDbEntity
  8
0
100
AcDbPolyline
 62
7
  6
CONTINUOUS
 90
3
 70
0
 10
14.0277463634
 20
8.7903686739
 10
13.9910465091
 20
8.7815566033
 10
13.9747943225
 20
8.773681415
  0
LWPOLYLINE
  5
628
100
AcDbEntity
  8
0
100
AcDbPolyline
 62
7
  6
CONTINUOUS
 90
3
 70
0
 10
13.9995806626
 20
8.7740506901
 10
13.9630028165
 20
8.7653223548
 10
13.9465179044
 20
8.7573561167
  0
LWPOLYLINE
  5
629
100
AcDbEntity
  8
0
100
AcDbPolyline
 62
7
  6
CONTINUOUS
 90
4
 70
0
 10
13.9898727623
 20
8.7808356326
 10
14.0264506084
 20
8.7895639679
 10
14.0663954828
 20
8.7885276664
 10
14.1091379063
 20
8.7778322779
  0
LWPOLYLINE
  5
62A
100
AcDbEntity
  8
0
100
AcDbPolyline
 62
7
  6
CONTINUOUS
 90
3
 70
0
 10
13.8863451115
 20
8.7087217909
 10
13.8499819623
 20
8.7000490706
 10
13.8333906345
 20
8.692042448
  0
LWPOLYLINE
  5
62B
100
AcDbEntity
  8
0
100
AcDbPolyline
 62
7
  6
CONTINUOUS
 90
4
 70
0
 10
13.8768519081
 20
8.7155623485
 10
13.9132150574
 20
8.7242350688
 10
13.9533741134
 20
8.7231922765
 10
13.9961124617
 20
8.712473817
  0
LWPOLYLINE
  5
62C
100
AcDbEntity
  8
0
100
AcDbPolyline
 62
7
  6
CONTINUOUS
 90
3
 70
0
 10
13.9147046752
 20
8.7250590591
 10
13.8784625037
 20
8.7164562035
 10
13.8616836496
 20
8.7083773305
  0
LWPOLYLINE
  5
62D
100
AcDbEntity
  8
0
100
AcDbPolyline
 62
7
  6
CONTINUOUS
 90
4
 70
0
 10
13.9053324495
 20
8.7319694813
 10
13.941574621
 20
8.7405723369
 10
13.9816664124
 20
8.739520886
 10
14.0244263812
 20
8.7287930248
  0
LWPOLYLINE
  5
62E
100
AcDbEntity
  8
0
100
AcDbPolyline
 62
7
  6
CONTINUOUS
 90
3
 70
0
 10
13.9430397276
 20
8.7413938668
 10
13.9068035335
 20
8.7328083055
 10
13.8899685565
 20
8.7247075316
  0
LWPOLYLINE
  5
62F
100
AcDbEntity
  8
0
100
AcDbPolyline
 62
7
  6
CONTINUOUS
 90
4
 70
0
 10
13.9336734793
 20
8.7483215834
 10
13.9699096734
 20
8.7569071446
 10
14.0099426413
 20
8.7558517774
 10
14.0526969293
 20
8.7451276175
  0
LWPOLYLINE
  5
630
100
AcDbEntity
  8
0
100
AcDbPolyline
 62
7
  6
CONTINUOUS
 90
3
 70
0
 10
13.8583994254
 20
8.6924253919
 10
13.8217911021
 20
8.6837561043
 10
13.8050949125
 20
8.6757060011
  0
LWPOLYLINE
  5
631
100
AcDbEntity
  8
0
100
AcDbPolyline
 62
7
  6
CONTINUOUS
 90
4
 70
0
 10
13.8486610479
 20
8.6992693821
 10
13.8852693713
 20
8.7079386698
 10
13.9255639579
 20
8.7067946141
 10
13.968314372
 20
8.695971121
  0
LWPOLYLINE
  5
632
100
AcDbEntity
  8
0
100
AcDbPolyline
 62
7
  6
CONTINUOUS
 90
3
 70
0
 10
13.9714502105
 20
8.7577360694
 10
13.9350951701
 20
8.749141008
 10
13.9182460541
 20
8.7410334551
  0
LWPOLYLINE
  5
633
100
AcDbEntity
  8
0
100
AcDbPolyline
 62
7
  6
CONTINUOUS
 90
4
 70
0
 10
13.9619651159
 20
8.7646542858
 10
13.9983201563
 20
8.7732493472
 10
14.0382390506
 20
8.7721798032
 10
14.0809632118
 20
8.761463722
  0
LWPOLYLINE
  5
634
100
AcDbEntity
  8
0
100
AcDbPolyline
 62
7
  6
CONTINUOUS
 90
4
 70
0
 10
13.8225303717
 20
8.683765576
 10
13.8600123826
 20
8.6918727861
 10
13.9010553898
 20
8.689881177
 10
13.9445228579
 20
8.6779909043
  0
LWPOLYLINE
  5
635
100
AcDbEntity
  8
0
100
AcDbPolyline
 62
7
  6
CONTINUOUS
 90
5
 70
0
 10
13.7971473208
 20
8.6687967153
 10
13.8344698058
 20
8.6764558475
 10
13.875516176
 20
8.6741441792
 10
13.919043899
 20
8.6619476493
 10
13.9392954314
 20
8.6532302911
  0
LINE
  5
636
100
AcDbEntity
  8
0
100
AcDbLine
 62
7
  6
CONTINUOUS
 10
14.147464019
 20
8.8389949023
 11
14.106908392
 21
8.8386771332
  0
LWPOLYLINE
  5
637
100
AcDbEntity
  8
0
100
AcDbPolyline
 62
7
  6
CONTINUOUS
 90
3
 70
0
 10
14.1337783378
 20
8.8541904111
 10
14.1743339649
 20
8.8545081802
 10
14.2170716613
 20
8.8449302587
  0
LINE
  5
638
100
AcDbEntity
  8
0
100
AcDbLine
 62
7
  6
CONTINUOUS
 10
14.2393521583
 20
8.8634488494
 11
14.2482998421
 21
8.862203685
  0
LWPOLYLINE
  5
639
100
AcDbEntity
  8
0
100
AcDbPolyline
 62
7
  6
CONTINUOUS
 90
5
 70
0
 10
14.8337410866
 20
7.682693014
 10
14.8407232239
 20
7.6925343771
 10
14.8523802295
 20
7.7154552747
 10
14.8582685811
 20
7.7391006606
 10
14.8590073818
 20
7.7510442266
  0
LINE
  5
63A
100
AcDbEntity
  8
0
100
AcDbLine
 62
7
  6
CONTINUOUS
 10
14.8337410866
 20
7.682693014
 11
14.8073886597
 21
7.6486717881
  0
LWPOLYLINE
  5
63B
100
AcDbEntity
  8
0
100
AcDbPolyline
 62
7
  6
CONTINUOUS
 90
4
 70
0
 10
14.7776047507
 20
7.6714383249
 10
14.8123823309
 20
7.6956182185
 10
14.8388720691
 20
7.7230758289
 10
14.856171889
 20
7.75287612
  0
LWPOLYLINE
  5
63C
100
AcDbEntity
  8
0
100
AcDbPolyline
 62
7
  6
CONTINUOUS
 90
4
 70
0
 10
14.7536567025
 20
7.6036141824
 10
14.7791146463
 20
7.620693643
 10
14.7998791409
 20
7.6397729545
 10
14.8073841572
 20
7.6486701744
  0
LWPOLYLINE
  5
63D
100
AcDbEntity
  8
0
100
AcDbPolyline
 62
7
  6
CONTINUOUS
 90
4
 70
0
 10
14.7740692021
 20
7.6326544078
 10
14.8011650652
 20
7.6507082137
 10
14.8235348674
 20
7.6708045714
 10
14.8337410866
 20
7.682693014
  0
LWPOLYLINE
  5
63E
100
AcDbEntity
  8
0
100
AcDbPolyline
 62
7
  6
CONTINUOUS
 90
15
 70
0
 10
14.7740692021
 20
7.6326544078
 10
14.7427988716
 20
7.6170106772
 10
14.7079906476
 20
7.6040954832
 10
14.6703531251
 20
7.5941717418
 10
14.6306524955
 20
7.5874414719
 10
14.5896969492
 20
7.5840416822
 10
14.5483202229
 20
7.5840415828
 10
14.5073646276
 20
7.5874411755
 10
14.4676639009
 20
7.5941712546
 10
14.4300262353
 20
7.6040948151
 10
14.395217825
 20
7.6170098417
 10
14.363947269
 20
7.632653422
 10
14.3368511455
 20
7.6507070976
 10
14.3144810534
 20
7.6708033478
 10
14.3042736769
 20
7.682693014
  0
LWPOLYLINE
  5
63F
100
AcDbEntity
  8
0
100
AcDbPolyline
 62
7
  6
CONTINUOUS
 90
3
 70
0
 10
14.1406048124
 20
8.855659692
 10
14.1036946183
 20
8.8466798655
 10
14.0879133948
 20
8.8389903452
  0
LWPOLYLINE
  5
640
100
AcDbEntity
  8
0
100
AcDbPolyline
 62
7
  6
CONTINUOUS
 90
4
 70
0
 10
14.1305645641
 20
8.8621931433
 10
14.1674747582
 20
8.8711729699
 10
14.2079062153
 20
8.870163759
 10
14.2503803656
 20
8.8595441769
  0
LWPOLYLINE
  5
641
100
AcDbEntity
  8
0
100
AcDbPolyline
 62
7
  6
CONTINUOUS
 90
3
 70
0
 10
14.0840586255
 20
8.8230024094
 10
14.0471349954
 20
8.8140238345
 10
14.031346826
 20
8.8063318172
  0
LWPOLYLINE
  5
642
100
AcDbEntity
  8
0
100
AcDbPolyline
 62
7
  6
CONTINUOUS
 90
4
 70
0
 10
14.0740049412
 20
8.8295371124
 10
14.1109285713
 20
8.8385156873
 10
14.151374879
 20
8.8374989794
 10
14.1939085415
 20
8.8268505367
  0
LWPOLYLINE
  5
643
100
AcDbEntity
  8
0
100
AcDbPolyline
 62
7
  6
CONTINUOUS
 90
3
 70
0
 10
14.0558264682
 20
8.8066779183
 10
14.0189528318
 20
8.797735134
 10
14.0030657689
 20
8.7900038402
  0
LWPOLYLINE
  5
644
100
AcDbEntity
  8
0
100
AcDbPolyline
 62
7
  6
CONTINUOUS
 90
4
 70
0
 10
14.0458227776
 20
8.8132484119
 10
14.082696414
 20
8.8221911962
 10
14.1230566552
 20
8.8211740492
 10
14.1657826863
 20
8.8104647158
  0
LWPOLYLINE
  5
645
100
AcDbEntity
  8
0
100
AcDbPolyline
 62
7
  6
CONTINUOUS
 90
3
 70
0
 10
14.1692712741
 20
8.8720278688
 10
14.1323052903
 20
8.8631407679
 10
14.1161960793
 20
8.8553192625
  0
LWPOLYLINE
  5
646
100
AcDbEntity
  8
0
100
AcDbPolyline
 62
7
  6
CONTINUOUS
 90
4
 70
0
 10
14.0179164549
 20
8.7970698812
 10
14.0546163092
 20
8.8058819518
 10
14.0946679787
 20
8.8048590799
 10
14.137408499
 20
8.7941668457
  0
LINE
  5
647
100
AcDbEntity
  8
0
100
AcDbLine
 62
7
  6
CONTINUOUS
 10
14.229311224
 20
8.8873405529
 11
14.1898162756
 21
8.8867748306
  0
LWPOLYLINE
  5
648
100
AcDbEntity
  8
0
100
AcDbPolyline
 62
9
  6
CONTINUOUS
 90
14
 70
0
 10
14.4335990935
 20
9.1332623955
 10
14.3603914316
 20
9.1815702725
 10
14.2871846831
 20
9.2177862878
 10
14.2154689013
 20
9.2411735249
 10
14.1467037563
 20
9.2512561554
 10
14.0822888407
 20
9.2478291095
 10
14.0235351989
 20
9.2309622412
 10
13.9716386566
 20
9.2009989019
 10
13.9276554951
 20
9.1585489532
 10
13.8924809622
 20
9.1044763602
 10
13.8668310581
 20
9.0398816173
 10
13.8512279665
 20
8.9660793636
 10
13.8459894251
 20
8.8845716443
 10
13.8512222554
 20
8.7970173578
  0
LWPOLYLINE
  5
649
100
AcDbEntity
  8
0
100
AcDbPolyline
 62
7
  6
CONTINUOUS
 90
18
 70
0
 10
15.2386393612
 20
8.4503856805
 10
15.2329606462
 20
8.545346337
 10
15.2160401034
 20
8.6449309353
 10
15.1882221863
 20
8.7471122203
 10
15.1500731874
 20
8.8498100755
 10
15.1023697105
 20
8.9509338688
 10
15.0460828606
 20
9.0484250114
 10
14.9823584757
 20
9.1402988648
 10
14.9124938006
 20
9.2246851422
 10
14.8379110786
 20
9.2998659824
 10
14.7601285987
 20
9.3643109204
 10
14.680729788
 20
9.4167080429
 10
14.6013309774
 20
9.4559906957
 10
14.5235484975
 20
9.4813591973
 10
14.4489657755
 20
9.4922971181
 10
14.3791011003
 20
9.4885817936
 10
14.3153767155
 20
9.4702888571
 10
14.2862353982
 20
9.4557760544
  0
LWPOLYLINE
  5
64A
100
AcDbEntity
  8
0
100
AcDbPolyline
 62
9
  6
CONTINUOUS
 90
19
 70
0
 10
15.2952076682
 20
8.4830452128
 10
15.2904346744
 20
8.5698884763
 10
15.2761973604
 20
8.6607570814
 10
15.2527393306
 20
8.7540962408
 10
15.2204619584
 20
8.8483088957
 10
15.1799175184
 20
8.9417830416
 10
15.1317997375
 20
9.0329193097
 10
15.076931924
 20
9.1201583334
 10
15.0162528816
 20
9.2020074286
 10
14.9508008454
 20
9.2770661348
 10
14.881695718
 20
9.3440501766
 10
14.8101199072
 20
9.4018134386
 10
14.737298095
 20
9.4493675752
 10
14.6644762828
 20
9.4858989221
 10
14.592900472
 20
9.5107824177
 10
14.5237953446
 20
9.5235922985
 10
14.4583433084
 20
9.524109384
 10
14.397664266
 20
9.5123248266
 10
14.3427998611
 20
9.4884422314
  0
LINE
  5
64B
100
AcDbEntity
  8
0
100
AcDbLine
 62
7
  6
CONTINUOUS
 10
15.3127810846
 20
8.5075413588
 11
15.3127810846
 21
8.507539658
  0
LWPOLYLINE
  5
64C
100
AcDbEntity
  8
0
100
AcDbPolyline
 62
9
  6
CONTINUOUS
 90
4
 70
0
 10
15.3127810846
 20
8.507539658
 10
15.3107366989
 20
8.4985741708
 10
15.3047427338
 20
8.4902195225
 10
15.2952076682
 20
8.4830452128
  0
LWPOLYLINE
  5
64D
100
AcDbEntity
  8
0
100
AcDbPolyline
 62
7
  6
CONTINUOUS
 90
14
 70
0
 10
14.7536567025
 20
7.6036141824
 10
14.7240739981
 20
7.5889160997
 10
14.6910273617
 20
7.5769277256
 10
14.6552550006
 20
7.5679168608
 10
14.6175560103
 20
7.5620847929
 10
14.5787725237
 20
7.5595618008
 10
14.5397709001
 20
7.5604042439
 10
14.5014223711
 20
7.5645933035
 10
14.4645835796
 20
7.5720354029
 10
14.4300774433
 20
7.5825642979
 10
14.3986747722
 20
7.5959447903
 10
14.3710770501
 20
7.6118779821
 10
14.3479007646
 20
7.6300079521
 10
14.3306232607
 20
7.6486756854
  0
LWPOLYLINE
  5
64E
100
AcDbEntity
  8
0
100
AcDbPolyline
 62
7
  6
CONTINUOUS
 90
18
 70
0
 10
15.3127810846
 20
8.507539658
 10
15.3072057366
 20
8.6015779877
 10
15.2907396801
 20
8.6990942945
 10
15.2638898823
 20
8.7982859279
 10
15.22730937
 20
8.8973457588
 10
15.1818036999
 20
8.9944526671
 10
15.1281921617
 20
9.0880281108
 10
15.0674467165
 20
9.1764034953
 10
15.0005862635
 20
9.2580368662
 10
14.9286783178
 20
9.33147266
 10
14.8530146309
 20
9.3951945418
 10
14.7747551064
 20
9.447976423
 10
14.6953433251
 20
9.4885556091
 10
14.6166984829
 20
9.5157960556
 10
14.5405735607
 20
9.529162348
 10
14.4688158578
 20
9.5286728995
 10
14.4024910401
 20
9.5148380006
 10
14.3427998611
 20
9.4884422314
  0
LWPOLYLINE
  5
64F
100
AcDbEntity
  8
AXIS
100
AcDbPolyline
 62
7
  6
CONTINUOUS
 90
11
 70
0
 10
14.6513856647
 20
7.0478327377
 10
14.6292776522
 20
7.0378327871
 10
14.6036669506
 20
7.0311780143
 10
14.5760419609
 20
7.0282551706
 10
14.5480081469
 20
7.0292341211
 10
14.5211947322
 20
7.0340579726
 10
14.4971600149
 20
7.0424463806
 10
14.4773008054
 20
7.0539118412
 10
14.4627712488
 20
7.0677880235
 10
14.45441575
 20
7.0832684942
 10
14.4525125906
 20
7.0954076716
  0
LINE
  5
650
100
AcDbEntity
  8
AXIS
100
AcDbLine
 62
7
  6
CONTINUOUS
 10
4.415439803
 20
3.707918202
 11
4.182439803
 21
3.707918202
  0
LWPOLYLINE
  5
651
100
AcDbEntity
  8
0
100
AcDbPolyline
 62
7
  6
CONTINUOUS
 90
17
 70
0
 10
4.2198018247
 20
6.0125516051
 10
4.1657042652
 20
5.9956894404
 10
4.1150712239
 20
5.9700203699
 10
4.0690989541
 20
5.9360404615
 10
4.0294894276
 20
5.8949453627
 10
3.997388272
 20
5.848096038
 10
3.9733768017
 20
5.7964340694
 10
3.9581348484
 20
5.7411704859
 10
3.9522307341
 20
5.6839217334
 10
3.9559010123
 20
5.6263398565
 10
3.9690878376
 20
5.5700264996
 10
3.9909171199
 20
5.5176101751
 10
4.0206789088
 20
5.4697791042
 10
4.0574581924
 20
5.4275900226
 10
4.1001841273
 20
5.3919776112
 10
4.1452613091
 20
5.3648893099
 10
4.189547787
 20
5.3462441953
  0
LINE
  5
652
100
AcDbEntity
  8
0
100
AcDbLine
 62
7
  6
CONTINUOUS
 10
4.5600722896
 20
4.460918202
 11
4.0378073165
 21
4.460918202
  0
LINE
  5
653
100
AcDbEntity
  8
0
100
AcDbLine
 62
7
  6
CONTINUOUS
 10
4.588939803
 20
4.510918202
 11
4.008939803
 21
4.510918202
  0
LINE
  5
654
100
AcDbEntity
  8
0
100
AcDbLine
 62
7
  6
CONTINUOUS
 10
4.003939803
 20
4.560918202
 11
4.593939803
 21
4.560918202
  0
LINE
  5
655
100
AcDbEntity
  8
0
100
AcDbLine
 62
7
  6
CONTINUOUS
 10
4.008939803
 20
4.510918202
 11
4.0378073165
 21
4.460918202
  0
LINE
  5
656
100
AcDbEntity
  8
0
100
AcDbLine
 62
7
  6
CONTINUOUS
 10
4.003939803
 20
4.560918202
 11
4.003939803
 21
4.9133525778
  0
LINE
  5
657
100
AcDbEntity
  8
0
100
AcDbLine
 62
7
  6
CONTINUOUS
 10
4.008939803
 20
4.560918202
 11
4.008939803
 21
4.510918202
  0
LINE
  5
658
100
AcDbEntity
  8
AXIS_COSMETIC_THREADS
100
AcDbLine
 62
7
  6
CONTINUOUS
 10
4.013939803
 20
5.5815217031
 11
4.013939803
 21
5.784314701
  0
LWPOLYLINE
  5
659
100
AcDbEntity
  8
0
100
AcDbPolyline
 62
9
  6
CONTINUOUS
 90
8
 70
0
 10
4.0778288321
 20
4.8782715404
 10
4.0988373266
 20
4.87328515
 10
4.1228432622
 20
4.8735266339
 10
4.1502981047
 20
4.8788054393
 10
4.1816700895
 20
4.8893486931
 10
4.2172009694
 20
4.9055571841
 10
4.2566323136
 20
4.9276827308
 10
4.298939803
 20
4.955418202
  0
LWPOLYLINE
  5
65A
100
AcDbEntity
  8
0
100
AcDbPolyline
 62
9
  6
CONTINUOUS
 90
8
 70
0
 10
4.051694822
 20
4.9352376758
 10
4.0748418311
 20
4.9294457907
 10
4.1008527036
 20
4.9263332373
 10
4.1305177361
 20
4.9257908215
 10
4.1646923951
 20
4.9280021145
 10
4.2040948229
 20
4.9333652223
 10
4.2490177899
 20
4.9423741839
 10
4.298939803
 20
4.955418202
  0
LWPOLYLINE
  5
65B
100
AcDbEntity
  8
0
100
AcDbPolyline
 62
9
  6
CONTINUOUS
 90
6
 70
0
 10
4.0778288321
 20
4.8782715404
 10
4.0514988632
 20
4.8894507979
 10
4.0304505411
 20
4.8994231997
 10
4.0154337809
 20
4.9071215369
 10
4.0066983491
 20
4.9118299122
 10
4.003939803
 20
4.9133525778
  0
LINE
  5
65C
100
AcDbEntity
  8
0
100
AcDbLine
 62
7
  6
CONTINUOUS
 10
3.9690725464
 20
4.9678350999
 11
3.9694051302
 21
4.9676804446
  0
LWPOLYLINE
  5
65D
100
AcDbEntity
  8
0
100
AcDbPolyline
 62
9
  6
CONTINUOUS
 90
6
 70
0
 10
4.051694822
 20
4.9352376758
 10
4.0620197118
 20
4.9295900428
 10
4.0702833482
 20
4.9203151464
 10
4.0759016456
 20
4.9080685492
 10
4.0784774951
 20
4.8937158578
 10
4.0778288321
 20
4.8782715404
  0
LINE
  5
65E
100
AcDbEntity
  8
AXIS
100
AcDbLine
 62
7
  6
CONTINUOUS
 10
4.182439803
 20
4.460918202
 11
4.182439803
 21
3.707918202
  0
LINE
  5
65F
100
AcDbEntity
  8
AXIS_COSMETIC_THREADS
100
AcDbLine
 62
7
  6
CONTINUOUS
 10
4.182439803
 20
4.460918202
 11
4.182439803
 21
3.707918202
  0
LWPOLYLINE
  5
660
100
AcDbEntity
  8
0
100
AcDbPolyline
 62
9
  6
CONTINUOUS
 90
8
 70
0
 10
4.298939803
 20
4.955418202
 10
4.3488618162
 20
4.9423741839
 10
4.3937847832
 20
4.9333652223
 10
4.433187211
 20
4.9280021145
 10
4.46736187
 20
4.9257908215
 10
4.4970269025
 20
4.9263332373
 10
4.523037775
 20
4.9294457907
 10
4.5461847841
 20
4.9352376758
  0
LWPOLYLINE
  5
661
100
AcDbEntity
  8
0
100
AcDbPolyline
 62
9
  6
CONTINUOUS
 90
8
 70
0
 10
4.298939803
 20
4.955418202
 10
4.3412472925
 20
4.9276827308
 10
4.3806786367
 20
4.9055571841
 10
4.4162095166
 20
4.8893486931
 10
4.4475815014
 20
4.8788054393
 10
4.4750363439
 20
4.8735266339
 10
4.4990422795
 20
4.87328515
 10
4.520050774
 20
4.8782715404
  0
LINE
  5
662
100
AcDbEntity
  8
DEFAULT_1
100
AcDbLine
 62
7
  6
CENTER
 10
4.298939803
 20
5.682918202
 11
4.298939803
 21
4.795418202
  0
LINE
  5
663
100
AcDbEntity
  8
DEFAULT_1
100
AcDbLine
 62
7
  6
CENTER
 10
4.298939803
 20
5.682918202
 11
4.298939803
 21
6.570418202
  0
LINE
  5
664
100
AcDbEntity
  8
AXIS
100
AcDbLine
 62
7
  6
CONTINUOUS
 10
4.415439803
 20
4.460918202
 11
4.415439803
 21
3.707918202
  0
LINE
  5
665
100
AcDbEntity
  8
AXIS_COSMETIC_THREADS
100
AcDbLine
 62
7
  6
CONTINUOUS
 10
4.415439803
 20
4.460918202
 11
4.415439803
 21
3.707918202
  0
LINE
  5
666
100
AcDbEntity
  8
AXIS_COSMETIC_THREADS
100
AcDbLine
 62
7
  6
CONTINUOUS
 10
4.583939803
 20
5.784314701
 11
4.583939803
 21
5.5815217031
  0
LINE
  5
667
100
AcDbEntity
  8
0
100
AcDbLine
 62
7
  6
CONTINUOUS
 10
4.588939803
 20
4.560918202
 11
4.588939803
 21
4.510918202
  0
LINE
  5
668
100
AcDbEntity
  8
0
100
AcDbLine
 62
7
  6
CONTINUOUS
 10
4.593939803
 20
4.560918202
 11
4.593939803
 21
4.9133525778
  0
LWPOLYLINE
  5
669
100
AcDbEntity
  8
0
100
AcDbPolyline
 62
9
  6
CONTINUOUS
 90
6
 70
0
 10
4.593939803
 20
4.9133525778
 10
4.5911812994
 20
4.9118299355
 10
4.5824459783
 20
4.9071216179
 10
4.5674293267
 20
4.8994233296
 10
4.5463809961
 20
4.8894509123
 10
4.520050774
 20
4.8782715404
  0
LWPOLYLINE
  5
66A
100
AcDbEntity
  8
0
100
AcDbPolyline
 62
9
  6
CONTINUOUS
 90
6
 70
0
 10
4.5461847841
 20
4.9352376758
 10
4.5358598943
 20
4.9295900428
 10
4.5275962579
 20
4.9203151464
 10
4.5219779605
 20
4.9080685492
 10
4.519402111
 20
4.8937158578
 10
4.520050774
 20
4.8782715404
  0
LINE
  5
66B
100
AcDbEntity
  8
0
100
AcDbLine
 62
7
  6
CONTINUOUS
 10
4.6288070597
 20
4.9678350999
 11
4.6284744975
 21
4.9676804548
  0
LWPOLYLINE
  5
66C
100
AcDbEntity
  8
0
100
AcDbPolyline
 62
7
  6
CONTINUOUS
 90
17
 70
0
 10
4.298939803
 20
5.328918202
 10
4.3590263591
 20
5.3350594278
 10
4.4170319705
 20
5.3512973597
 10
4.4711126182
 20
5.3770084163
 10
4.5201815863
 20
5.4116613734
 10
4.5623976824
 20
5.4539515427
 10
4.5965779021
 20
5.5024754234
 10
4.6219316775
 20
5.5558776685
 10
4.6378768015
 20
5.6129300988
 10
4.6438588479
 20
5.6719717137
 10
4.6395948708
 20
5.7314202931
 10
4.6254072766
 20
5.7884472432
 10
4.6027992575
 20
5.8401843515
 10
4.5739310335
 20
5.884971968
 10
4.5416189333
 20
5.9216369843
 10
4.5084446559
 20
5.9502755955
 10
4.4760668165
 20
5.9719632177
  0
LINE
  5
66D
100
AcDbEntity
  8
0
100
AcDbLine
 62
7
  6
CONTINUOUS
 10
4.588939803
 20
4.510918202
 11
4.5600722896
 21
4.460918202
  0
LINE
  5
66E
100
AcDbEntity
  8
AXIS
100
AcDbLine
 62
7
  6
CONTINUOUS
 10
4.0493321109
 20
5.668918202
 11
4.5485474952
 21
5.668918202
  0
LINE
  5
66F
100
AcDbEntity
  8
0
100
AcDbLine
 62
7
  6
CONTINUOUS
 10
4.0441359569
 20
5.672918202
 11
4.5537436492
 21
5.672918202
  0
LINE
  5
670
100
AcDbEntity
  8
DEFAULT_1
100
AcDbLine
 62
7
  6
CENTER
 10
4.298939803
 20
5.682918202
 11
3.411439803
 21
5.682918202
  0
LINE
  5
671
100
AcDbEntity
  8
DEFAULT_1
100
AcDbLine
 62
7
  6
CENTER
 10
4.298939803
 20
5.682918202
 11
5.186439803
 21
5.682918202
  0
LINE
  5
672
100
AcDbEntity
  8
0
100
AcDbLine
 62
7
  6
CONTINUOUS
 10
4.0441359569
 20
5.692918202
 11
4.5537436492
 21
5.692918202
  0
LINE
  5
673
100
AcDbEntity
  8
AXIS
100
AcDbLine
 62
7
  6
CONTINUOUS
 10
4.5485474952
 20
5.696918202
 11
4.0493321109
 21
5.696918202
  0
LWPOLYLINE
  5
674
100
AcDbEntity
  8
0
100
AcDbPolyline
 62
7
  6
CONTINUOUS
 90
7
 70
0
 10
4.4760668165
 20
5.9719632177
 10
4.4371221447
 20
5.9924769856
 10
4.3952994516
 20
6.0079348449
 10
4.3532865742
 20
6.0175335461
 10
4.3117721081
 20
6.0216752417
 10
4.2676316058
 20
6.0204693786
 10
4.2198018247
 20
6.0125516051
  0
LINE
  5
675
100
AcDbEntity
  8
0
100
AcDbLine
 62
7
  6
CONTINUOUS
 10
4.4760668165
 20
5.9719632177
 11
4.4896163889
 21
5.9619347741
  0
LINE
  5
676
100
AcDbEntity
  8
0
100
AcDbLine
 62
7
  6
CONTINUOUS
 10
4.2198018247
 20
6.0125516051
 11
4.2461001627
 21
6.016452595
  0
LINE
  5
677
100
AcDbEntity
  8
AXIS
100
AcDbLine
 62
7
  6
CONTINUOUS
 10
8.7525338585
 20
3.707918202
 11
8.519552393
 21
3.707918202
  0
LINE
  5
678
100
AcDbEntity
  8
0
100
AcDbLine
 62
7
  6
CONTINUOUS
 10
7.7690431266
 20
6.036918202
 11
7.7689390557
 21
6.0368709028
  0
LINE
  5
679
100
AcDbEntity
  8
0
100
AcDbLine
 62
7
  6
CONTINUOUS
 10
7.7689390557
 20
6.0368709028
 11
7.7524344517
 21
6.0218688108
  0
LINE
  5
67A
100
AcDbEntity
  8
0
100
AcDbLine
 62
7
  6
CONTINUOUS
 10
7.8089390557
 20
6.0368709028
 11
7.7924344517
 21
6.0218688108
  0
LINE
  5
67B
100
AcDbEntity
  8
0
100
AcDbLine
 62
7
  6
CONTINUOUS
 10
7.8489390557
 20
6.0368709028
 11
7.8324344517
 21
6.0218688108
  0
LINE
  5
67C
100
AcDbEntity
  8
0
100
AcDbLine
 62
7
  6
CONTINUOUS
 10
7.8889390557
 20
6.0368709028
 11
7.8724344517
 21
6.0218688108
  0
LINE
  5
67D
100
AcDbEntity
  8
0
100
AcDbLine
 62
7
  6
CONTINUOUS
 10
7.8489390557
 20
6.0368709028
 11
7.8490431373
 21
6.036918202
  0
LINE
  5
67E
100
AcDbEntity
  8
0
100
AcDbLine
 62
7
  6
CONTINUOUS
 10
7.8889390557
 20
6.0368709028
 11
7.8890431257
 21
6.036918202
  0
LINE
  5
67F
100
AcDbEntity
  8
0
100
AcDbLine
 62
7
  6
CONTINUOUS
 10
7.9289390557
 20
6.0368709028
 11
7.9290431257
 21
6.036918202
  0
LINE
  5
680
100
AcDbEntity
  8
0
100
AcDbLine
 62
7
  6
CONTINUOUS
 10
7.9689390557
 20
6.0368709028
 11
7.9690431257
 21
6.036918202
  0
LINE
  5
681
100
AcDbEntity
  8
0
100
AcDbLine
 62
7
  6
CONTINUOUS
 10
8.0089390557
 20
6.0368709028
 11
8.0090431257
 21
6.036918202
  0
LINE
  5
682
100
AcDbEntity
  8
0
100
AcDbLine
 62
7
  6
CONTINUOUS
 10
7.8089390557
 20
6.0368709028
 11
7.8090434012
 21
6.0369182017
  0
LINE
  5
683
100
AcDbEntity
  8
0
100
AcDbLine
 62
7
  6
CONTINUOUS
 10
7.9289390557
 20
6.0368709028
 11
7.9124344517
 21
6.0218688108
  0
LINE
  5
684
100
AcDbEntity
  8
0
100
AcDbLine
 62
7
  6
CONTINUOUS
 10
7.9689390557
 20
6.0368709028
 11
7.9524344517
 21
6.0218688108
  0
LINE
  5
685
100
AcDbEntity
  8
0
100
AcDbLine
 62
7
  6
CONTINUOUS
 10
8.0089390557
 20
6.0368709028
 11
7.9924344517
 21
6.0218688108
  0
LINE
  5
686
100
AcDbEntity
  8
0
100
AcDbLine
 62
7
  6
CONTINUOUS
 10
8.0489390557
 20
6.0368709028
 11
8.0324344517
 21
6.0218688108
  0
LINE
  5
687
100
AcDbEntity
  8
0
100
AcDbLine
 62
7
  6
CONTINUOUS
 10
8.2089390557
 20
6.0368709028
 11
8.2090428377
 21
6.0369182017
  0
LINE
  5
688
100
AcDbEntity
  8
0
100
AcDbLine
 62
7
  6
CONTINUOUS
 10
8.2489390557
 20
6.0368709028
 11
8.2490430338
 21
6.036918202
  0
LINE
  5
689
100
AcDbEntity
  8
0
100
AcDbLine
 62
7
  6
CONTINUOUS
 10
8.0489390557
 20
6.0368709028
 11
8.0490431257
 21
6.036918202
  0
LINE
  5
68A
100
AcDbEntity
  8
0
100
AcDbLine
 62
7
  6
CONTINUOUS
 10
8.0889390557
 20
6.0368709028
 11
8.0890431257
 21
6.036918202
  0
LINE
  5
68B
100
AcDbEntity
  8
0
100
AcDbLine
 62
7
  6
CONTINUOUS
 10
8.1289390557
 20
6.0368709028
 11
8.1290431257
 21
6.036918202
  0
LINE
  5
68C
100
AcDbEntity
  8
0
100
AcDbLine
 62
7
  6
CONTINUOUS
 10
8.1689390557
 20
6.0368709028
 11
8.1690431109
 21
6.036918202
  0
LINE
  5
68D
100
AcDbEntity
  8
0
100
AcDbLine
 62
7
  6
CONTINUOUS
 10
8.0889390557
 20
6.0368709028
 11
8.0724344517
 21
6.0218688108
  0
LINE
  5
68E
100
AcDbEntity
  8
0
100
AcDbLine
 62
7
  6
CONTINUOUS
 10
8.1289390557
 20
6.0368709028
 11
8.1124344517
 21
6.0218688108
  0
LINE
  5
68F
100
AcDbEntity
  8
0
100
AcDbLine
 62
7
  6
CONTINUOUS
 10
8.1689390557
 20
6.0368709028
 11
8.1524344517
 21
6.0218688108
  0
LINE
  5
690
100
AcDbEntity
  8
0
100
AcDbLine
 62
7
  6
CONTINUOUS
 10
8.2089390557
 20
6.0368709028
 11
8.1924344517
 21
6.0218688108
  0
LINE
  5
691
100
AcDbEntity
  8
0
100
AcDbLine
 62
7
  6
CONTINUOUS
 10
8.2890431287
 20
6.036918202
 11
8.2889390557
 21
6.0368709028
  0
LINE
  5
692
100
AcDbEntity
  8
0
100
AcDbLine
 62
7
  6
CONTINUOUS
 10
8.2489390557
 20
6.0368709028
 11
8.2324344517
 21
6.0218688108
  0
LINE
  5
693
100
AcDbEntity
  8
0
100
AcDbLine
 62
7
  6
CONTINUOUS
 10
8.2889390557
 20
6.0368709028
 11
8.2724344517
 21
6.0218688108
  0
LINE
  5
694
100
AcDbEntity
  8
0
100
AcDbLine
 62
7
  6
CONTINUOUS
 10
7.7510431257
 20
5.328918202
 11
7.7510431257
 21
6.0219177339
  0
LINE
  5
695
100
AcDbEntity
  8
0
100
AcDbLine
 62
7
  6
CONTINUOUS
 10
8.3749136989
 20
4.460918202
 11
8.8971725525
 21
4.460918202
  0
LWPOLYLINE
  5
696
100
AcDbEntity
  8
0
100
AcDbPolyline
 62
7
  6
CONTINUOUS
 90
17
 70
0
 10
7.7532931257
 20
6.0195684089
 10
7.7544181257
 20
6.0073209758
 10
7.7555431257
 20
5.9849694137
 10
7.7566681257
 20
5.9532099037
 10
7.7577931257
 20
5.9130316548
 10
7.7589181257
 20
5.8656860935
 10
7.7600431257
 20
5.8126478856
 10
7.7611681257
 20
5.7555690049
 10
7.7622931257
 20
5.6962272796
 10
7.7634181257
 20
5.6364710182
 10
7.7645431257
 20
5.5781614409
 10
7.7656681257
 20
5.5231147082
 10
7.7667931257
 20
5.4730453532
 10
7.7679181257
 20
5.4295128792
 10
7.7690431257
 20
5.3938731863
 10
7.7701681257
 20
5.3672363391
 10
7.7712931257
 20
5.350431992
  0
LWPOLYLINE
  5
697
100
AcDbEntity
  8
0
100
AcDbPolyline
 62
7
  6
CONTINUOUS
 90
9
 70
0
 10
7.7899413464
 20
5.3342065258
 10
7.7888354203
 20
5.3499917931
 10
7.7877244892
 20
5.3759374094
 10
7.7866084327
 20
5.4113902451
 10
7.7855036034
 20
5.4546891473
 10
7.7844006155
 20
5.5047561944
 10
7.7832800298
 20
5.5610762255
 10
7.7821550175
 20
5.6214040008
 10
7.7810431257
 20
5.682918202
  0
LWPOLYLINE
  5
698
100
AcDbEntity
  8
0
100
AcDbPolyline
 62
7
  6
CONTINUOUS
 90
9
 70
0
 10
7.8299247243
 20
5.3343668804
 10
7.828818459
 20
5.3503135304
 10
7.8277105279
 20
5.3763247614
 10
7.8266013756
 20
5.4116421905
 10
7.8255012905
 20
5.4547874762
 10
7.8243986832
 20
5.5048490518
 10
7.8232787195
 20
5.5611446423
 10
7.8221543651
 20
5.6214397239
 10
7.819941504
 20
5.7438699404
  0
LWPOLYLINE
  5
699
100
AcDbEntity
  8
0
100
AcDbPolyline
 62
7
  6
CONTINUOUS
 90
16
 70
0
 10
7.7510431257
 20
5.9719632177
 10
7.7521556257
 20
5.9367651791
 10
7.7532681257
 20
5.893834883
 10
7.7543806257
 20
5.8444799996
 10
7.7554931257
 20
5.7902038939
 10
7.7566056257
 20
5.7326598329
 10
7.7577181257
 20
5.6736006264
 10
7.7588306257
 20
5.6148252361
 10
7.7599431257
 20
5.5581239787
 10
7.7610556257
 20
5.5052239918
 10
7.7621681257
 20
5.4577366256
 10
7.7632806257
 20
5.4171083598
 10
7.7643931257
 20
5.3845767439
 10
7.7655056257
 20
5.3611327011
 10
7.7666181257
 20
5.3474903442
 10
7.7675431257
 20
5.343918202
  0
LWPOLYLINE
  5
69A
100
AcDbEntity
  8
0
100
AcDbPolyline
 62
7
  6
CONTINUOUS
 90
12
 70
0
 10
7.7955431257
 20
5.7876749631
 10
7.7966758691
 20
5.7289569062
 10
7.7978086125
 20
5.6687851324
 10
7.7989413558
 20
5.609059624
 10
7.8000740992
 20
5.551666272
 10
7.8012068426
 20
5.498417327
 10
7.8023395859
 20
5.4509941763
 10
7.8034723293
 20
5.4108942519
 10
7.8046050726
 20
5.3793837478
 10
7.805737816
 20
5.3574576387
 10
7.8068705594
 20
5.3458082629
 10
7.8075431257
 20
5.343918202
  0
LWPOLYLINE
  5
69B
100
AcDbEntity
  8
0
100
AcDbPolyline
 62
7
  6
CONTINUOUS
 90
12
 70
0
 10
7.8005431257
 20
5.7876749631
 10
7.8016758691
 20
5.7289569062
 10
7.8028086125
 20
5.6687851324
 10
7.8039413558
 20
5.609059624
 10
7.8050740992
 20
5.551666272
 10
7.8062068426
 20
5.498417327
 10
7.8073395859
 20
5.4509941763
 10
7.8084723293
 20
5.4108942519
 10
7.8096050726
 20
5.3793837478
 10
7.810737816
 20
5.3574576387
 10
7.8118705594
 20
5.3458082629
 10
7.8124344517
 20
5.3439675933
  0
LWPOLYLINE
  5
69C
100
AcDbEntity
  8
0
100
AcDbPolyline
 62
7
  6
CONTINUOUS
 90
9
 70
0
 10
7.780154935
 20
5.6214085175
 10
7.7812798644
 20
5.5610848624
 10
7.7824003608
 20
5.5047684319
 10
7.7835032002
 20
5.4547062864
 10
7.7846133324
 20
5.4112155142
 10
7.7857331099
 20
5.3756989689
 10
7.7868453753
 20
5.3498040575
 10
7.7879505621
 20
5.3341186443
 10
7.7889390557
 20
5.3289655013
  0
LWPOLYLINE
  5
69D
100
AcDbEntity
  8
0
100
AcDbPolyline
 62
7
  6
CONTINUOUS
 90
4
 70
0
 10
7.8170431257
 20
5.792310218
 10
7.8177098793
 20
5.7565142169
 10
7.818376377
 20
5.7199258169
 10
7.8190431257
 20
5.682918202
  0
LWPOLYLINE
  5
69E
100
AcDbEntity
  8
0
100
AcDbPolyline
 62
7
  6
CONTINUOUS
 90
9
 70
0
 10
7.819941504
 20
5.7438699404
 10
7.8188400557
 20
5.802992035
 10
7.8177331228
 20
5.8587935102
 10
7.8166298595
 20
5.9091341984
 10
7.8155114515
 20
5.9532424382
 10
7.8143862679
 20
5.9892181142
 10
7.8132714424
 20
6.0154533316
 10
7.8121697662
 20
6.0313891597
 10
7.8111471958
 20
6.0368709028
  0
LWPOLYLINE
  5
69F
100
AcDbEntity
  8
0
100
AcDbPolyline
 62
7
  6
CONTINUOUS
 90
9
 70
0
 10
7.780154935
 20
5.6214085175
 10
7.7779230843
 20
5.7448786351
 10
7.7768030363
 20
5.8049264648
 10
7.7756830054
 20
5.8612065982
 10
7.7745629671
 20
5.9119827401
 10
7.7734428733
 20
5.9556888359
 10
7.7723227566
 20
5.9909733642
 10
7.7712026755
 20
6.016745183
 10
7.7700826424
 20
6.0322093967
  0
LWPOLYLINE
  5
6A0
100
AcDbEntity
  8
0
100
AcDbPolyline
 62
7
  6
CONTINUOUS
 90
4
 70
0
 10
7.7810431257
 20
5.682918202
 10
7.780376377
 20
5.7199258169
 10
7.7797098793
 20
5.7565142169
 10
7.7790431257
 20
5.792310218
  0
LWPOLYLINE
  5
6A1
100
AcDbEntity
  8
0
100
AcDbPolyline
 62
7
  6
CONTINUOUS
 90
10
 70
0
 10
7.8190431257
 20
5.682918202
 10
7.8201550175
 20
5.6214040008
 10
7.8212800298
 20
5.5610762255
 10
7.8224006155
 20
5.5047561944
 10
7.8235036034
 20
5.4546891473
 10
7.8246084327
 20
5.4113902451
 10
7.8257244892
 20
5.3759374094
 10
7.8268354203
 20
5.3499917931
 10
7.8279413464
 20
5.3342065258
 10
7.8289390557
 20
5.3289655013
  0
LINE
  5
6A2
100
AcDbEntity
  8
0
100
AcDbLine
 62
7
  6
CONTINUOUS
 10
7.7511471958
 20
5.3289655013
 11
7.7676517997
 21
5.3439675933
  0
LINE
  5
6A3
100
AcDbEntity
  8
0
100
AcDbLine
 62
7
  6
CONTINUOUS
 10
7.7911471958
 20
5.3289655013
 11
7.8076517997
 21
5.3439675933
  0
LINE
  5
6A4
100
AcDbEntity
  8
0
100
AcDbLine
 62
7
  6
CONTINUOUS
 10
7.8311471958
 20
5.3289655013
 11
7.8476517997
 21
5.3439675933
  0
LINE
  5
6A5
100
AcDbEntity
  8
0
100
AcDbLine
 62
7
  6
CONTINUOUS
 10
7.8711471958
 20
5.3289655013
 11
7.8876517997
 21
5.3439675933
  0
LINE
  5
6A6
100
AcDbEntity
  8
0
100
AcDbLine
 62
7
  6
CONTINUOUS
 10
8.3460431257
 20
4.510918202
 11
8.9260431257
 21
4.510918202
  0
LINE
  5
6A7
100
AcDbEntity
  8
0
100
AcDbLine
 62
7
  6
CONTINUOUS
 10
8.3410511666
 20
4.560918202
 11
8.9310350849
 21
4.560918202
  0
LINE
  5
6A8
100
AcDbEntity
  8
0
100
AcDbLine
 62
7
  6
CONTINUOUS
 10
7.7910431567
 20
5.328918202
 11
7.7899413464
 21
5.3342065258
  0
LINE
  5
6A9
100
AcDbEntity
  8
0
100
AcDbLine
 62
7
  6
CONTINUOUS
 10
7.7712931257
 20
5.350431992
 11
7.7724344517
 21
5.3439675933
  0
LWPOLYLINE
  5
6AA
100
AcDbEntity
  8
0
100
AcDbPolyline
 62
7
  6
CONTINUOUS
 90
4
 70
0
 10
7.9102616656
 20
5.3315818771
 10
7.9091822441
 20
5.3439342628
 10
7.9081128295
 20
5.365761184
 10
7.9070431257
 20
5.396526186
  0
LWPOLYLINE
  5
6AB
100
AcDbEntity
  8
0
100
AcDbPolyline
 62
7
  6
CONTINUOUS
 90
9
 70
0
 10
7.8699215478
 20
5.3343977953
 10
7.8688146731
 20
5.3503856667
 10
7.8677088246
 20
5.3763721197
 10
7.866605371
 20
5.4114995075
 10
7.8655033548
 20
5.4546997145
 10
7.8643999829
 20
5.5047865909
 10
7.863279591
 20
5.5610991397
 10
7.8621547993
 20
5.6214159492
 10
7.8599433279
 20
5.7437700289
  0
LWPOLYLINE
  5
6AC
100
AcDbEntity
  8
0
100
AcDbPolyline
 62
7
  6
CONTINUOUS
 90
8
 70
0
 10
7.8501697662
 20
6.0313891597
 10
7.8512714424
 20
6.0154533316
 10
7.8523862679
 20
5.9892181142
 10
7.8535114515
 20
5.9532424382
 10
7.8546298595
 20
5.9091341984
 10
7.8557331228
 20
5.8587935102
 10
7.8568400557
 20
5.802992035
 10
7.857941504
 20
5.7438699404
  0
LWPOLYLINE
  5
6AD
100
AcDbEntity
  8
0
100
AcDbPolyline
 62
7
  6
CONTINUOUS
 90
5
 70
0
 10
7.9235431257
 20
5.4086614409
 10
7.9246758691
 20
5.377723813
 10
7.9258086125
 20
5.3564229942
 10
7.9269413558
 20
5.3454315786
 10
7.9275431257
 20
5.343918202
  0
LWPOLYLINE
  5
6AE
100
AcDbEntity
  8
0
100
AcDbPolyline
 62
7
  6
CONTINUOUS
 90
5
 70
0
 10
7.9285431257
 20
5.4086614409
 10
7.9296758691
 20
5.377723813
 10
7.9308086125
 20
5.3564229942
 10
7.9319413558
 20
5.3454315786
 10
7.9324344517
 20
5.3439675933
  0
LWPOLYLINE
  5
6AF
100
AcDbEntity
  8
0
100
AcDbPolyline
 62
7
  6
CONTINUOUS
 90
7
 70
0
 10
7.9070431257
 20
5.396526186
 10
7.9060511869
 20
5.4322856414
 10
7.9050584909
 20
5.4741516069
 10
7.9040622443
 20
5.5212590512
 10
7.9030524078
 20
5.5730354239
 10
7.9020417536
 20
5.6276157605
 10
7.9010431257
 20
5.682918202
  0
LWPOLYLINE
  5
6B0
100
AcDbEntity
  8
0
100
AcDbPolyline
 62
7
  6
CONTINUOUS
 90
9
 70
0
 10
7.9399390449
 20
5.7440046347
 10
7.9388207687
 20
5.8040003783
 10
7.9377035569
 20
5.8602183968
 10
7.9365993345
 20
5.9104371894
 10
7.9354870521
 20
5.9541164531
 10
7.9343751245
 20
5.9895282943
 10
7.9332746335
 20
6.015392439
 10
7.9321678602
 20
6.0314078031
 10
7.9311471958
 20
6.0368709028
  0
LWPOLYLINE
  5
6B1
100
AcDbEntity
  8
0
100
AcDbPolyline
 62
7
  6
CONTINUOUS
 90
9
 70
0
 10
7.8599433279
 20
5.7437700289
 10
7.8588381806
 20
5.8030901115
 10
7.8577276739
 20
5.8590563991
 10
7.8566242937
 20
5.9093721691
 10
7.8555071632
 20
5.9533963386
 10
7.8543842834
 20
5.9892734217
 10
7.8532726361
 20
6.0154305637
 10
7.8521664313
 20
6.0314217588
 10
7.8511471958
 20
6.0368709028
  0
LWPOLYLINE
  5
6B2
100
AcDbEntity
  8
0
100
AcDbPolyline
 62
7
  6
CONTINUOUS
 90
10
 70
0
 10
7.857941504
 20
5.7438699404
 10
7.8601543651
 20
5.6214397239
 10
7.8612787195
 20
5.5611446423
 10
7.8623986832
 20
5.5048490518
 10
7.8635012905
 20
5.4547874762
 10
7.8646013756
 20
5.4116421905
 10
7.8657105279
 20
5.3763247614
 10
7.866818459
 20
5.3503135304
 10
7.8679247243
 20
5.3343668804
 10
7.8689390557
 20
5.3289655013
  0
LWPOLYLINE
  5
6B3
100
AcDbEntity
  8
0
100
AcDbPolyline
 62
7
  6
CONTINUOUS
 90
10
 70
0
 10
7.8979433279
 20
5.7437700289
 10
7.9001547993
 20
5.6214159492
 10
7.901279591
 20
5.5610991397
 10
7.9023999829
 20
5.5047865909
 10
7.9035033548
 20
5.4546997145
 10
7.904605371
 20
5.4114995075
 10
7.9057088246
 20
5.3763721197
 10
7.9068146731
 20
5.3503856667
 10
7.9079215478
 20
5.3343977953
 10
7.9089390557
 20
5.3289655013
  0
LWPOLYLINE
  5
6B4
100
AcDbEntity
  8
0
100
AcDbPolyline
 62
7
  6
CONTINUOUS
 90
10
 70
0
 10
7.9010431257
 20
5.682918202
 10
7.8999420204
 20
5.7438416516
 10
7.8988284552
 20
5.803598652
 10
7.8977134948
 20
5.8597398785
 10
7.8966092826
 20
5.9100131179
 10
7.8954948506
 20
5.9538375326
 10
7.8943784774
 20
5.9894350652
 10
7.893275167
 20
6.0153822511
 10
7.8921683878
 20
6.0314026447
 10
7.8911471958
 20
6.0368709028
  0
LWPOLYLINE
  5
6B5
100
AcDbEntity
  8
0
100
AcDbPolyline
 62
7
  6
CONTINUOUS
 90
7
 70
0
 10
7.9390431257
 20
5.682918202
 10
7.9400417536
 20
5.6276157605
 10
7.9410524078
 20
5.5730354239
 10
7.9420622443
 20
5.5212590512
 10
7.9430584909
 20
5.4741516069
 10
7.9440511869
 20
5.4322856414
 10
7.9450431257
 20
5.396526186
  0
LINE
  5
6B6
100
AcDbEntity
  8
0
100
AcDbLine
 62
7
  6
CONTINUOUS
 10
7.9111471958
 20
5.3289655013
 11
7.9276517997
 21
5.3439675933
  0
LINE
  5
6B7
100
AcDbEntity
  8
0
100
AcDbLine
 62
7
  6
CONTINUOUS
 10
7.9511471958
 20
5.3289655013
 11
7.9676517997
 21
5.3439675933
  0
LINE
  5
6B8
100
AcDbEntity
  8
0
100
AcDbLine
 62
7
  6
CONTINUOUS
 10
7.9911471958
 20
5.3289655013
 11
8.0076517997
 21
5.3439675933
  0
LINE
  5
6B9
100
AcDbEntity
  8
0
100
AcDbLine
 62
7
  6
CONTINUOUS
 10
7.7911471958
 20
5.3289655013
 11
7.7910431567
 21
5.328918202
  0
LINE
  5
6BA
100
AcDbEntity
  8
0
100
AcDbLine
 62
7
  6
CONTINUOUS
 10
7.7510431257
 20
5.328918202
 11
7.7511471958
 21
5.3289655013
  0
LINE
  5
6BB
100
AcDbEntity
  8
0
100
AcDbLine
 62
7
  6
CONTINUOUS
 10
7.8311471958
 20
5.3289655013
 11
7.8310431269
 21
5.328918202
  0
LINE
  5
6BC
100
AcDbEntity
  8
0
100
AcDbLine
 62
7
  6
CONTINUOUS
 10
7.8711471958
 20
5.3289655013
 11
7.8710431257
 21
5.328918202
  0
LINE
  5
6BD
100
AcDbEntity
  8
0
100
AcDbLine
 62
7
  6
CONTINUOUS
 10
7.9111471958
 20
5.3289655013
 11
7.9110431096
 21
5.328918202
  0
LINE
  5
6BE
100
AcDbEntity
  8
0
100
AcDbLine
 62
7
  6
CONTINUOUS
 10
7.8515165771
 20
5.3483159194
 11
7.8524344517
 21
5.3439675933
  0
LINE
  5
6BF
100
AcDbEntity
  8
0
100
AcDbLine
 62
7
  6
CONTINUOUS
 10
7.8310431269
 20
5.328918202
 11
7.8299247243
 21
5.3343668804
  0
LINE
  5
6C0
100
AcDbEntity
  8
0
100
AcDbLine
 62
7
  6
CONTINUOUS
 10
7.8710431257
 20
5.328918202
 11
7.8699215478
 21
5.3343977953
  0
LWPOLYLINE
  5
6C1
100
AcDbEntity
  8
0
100
AcDbPolyline
 62
7
  6
CONTINUOUS
 90
8
 70
0
 10
7.7876517997
 20
6.0218688108
 10
7.7888681257
 20
6.0146022154
 10
7.7899806257
 20
5.9973718681
 10
7.7910931257
 20
5.9705631649
 10
7.7922056257
 20
5.9349927072
 10
7.7933181257
 20
5.8917439822
 10
7.7944306257
 20
5.8421343594
 10
7.7955431257
 20
5.7876749631
  0
LWPOLYLINE
  5
6C2
100
AcDbEntity
  8
0
100
AcDbPolyline
 62
7
  6
CONTINUOUS
 90
8
 70
0
 10
7.7711471958
 20
6.0368709028
 10
7.7723224599
 20
6.0297942826
 10
7.7734425312
 20
6.0120712463
 10
7.7745626664
 20
5.9841836614
 10
7.7756828342
 20
5.9469921628
 10
7.7768029636
 20
5.901647596
 10
7.7779230445
 20
5.8495513785
 10
7.7790431257
 20
5.792310218
  0
LWPOLYLINE
  5
6C3
100
AcDbEntity
  8
0
100
AcDbPolyline
 62
7
  6
CONTINUOUS
 90
3
 70
0
 10
7.8911625948
 20
5.3518578125
 10
7.8922953381
 20
5.344174954
 10
7.8924344517
 20
5.3439675933
  0
LWPOLYLINE
  5
6C4
100
AcDbEntity
  8
0
100
AcDbPolyline
 62
7
  6
CONTINUOUS
 90
9
 70
0
 10
7.9499206429
 20
5.3344066178
 10
7.9488141213
 20
5.3503961897
 10
7.9477126645
 20
5.3762653864
 10
7.9466101936
 20
5.4113274293
 10
7.9455030452
 20
5.4547128767
 10
7.9443992767
 20
5.5048205292
 10
7.9432791091
 20
5.5611242982
 10
7.9421545596
 20
5.6214290713
 10
7.9399390449
 20
5.7440046347
  0
LWPOLYLINE
  5
6C5
100
AcDbEntity
  8
0
100
AcDbPolyline
 62
7
  6
CONTINUOUS
 90
8
 70
0
 10
7.8901664313
 20
6.0314217588
 10
7.8912726361
 20
6.0154305637
 10
7.8923842834
 20
5.9892734217
 10
7.8935071632
 20
5.9533963386
 10
7.8946242937
 20
5.9093721691
 10
7.8957276739
 20
5.8590563991
 10
7.8968381806
 20
5.8030901115
 10
7.8979433279
 20
5.7437700289
  0
LWPOLYLINE
  5
6C6
100
AcDbEntity
  8
0
100
AcDbPolyline
 62
7
  6
CONTINUOUS
 90
9
 70
0
 10
7.9301683878
 20
6.0314026447
 10
7.931275167
 20
6.0153822511
 10
7.9323784774
 20
5.9894350652
 10
7.9334948506
 20
5.9538375326
 10
7.9346092826
 20
5.9100131179
 10
7.9357134948
 20
5.8597398785
 10
7.9368284552
 20
5.803598652
 10
7.9379420204
 20
5.7438416516
 10
7.9390431257
 20
5.682918202
  0
LWPOLYLINE
  5
6C7
100
AcDbEntity
  8
0
100
AcDbPolyline
 62
7
  6
CONTINUOUS
 90
8
 70
0
 10
7.9899193996
 20
5.3344187512
 10
7.9888128913
 20
5.3504196573
 10
7.9877132464
 20
5.3762492238
 10
7.9866044316
 20
5.4115330476
 10
7.9854938016
 20
5.4551060579
 10
7.9843897738
 20
5.5052774005
 10
7.9832712087
 20
5.5615368822
 10
7.982150049
 20
5.6216760956
  0
LWPOLYLINE
  5
6C8
100
AcDbEntity
  8
0
100
AcDbPolyline
 62
7
  6
CONTINUOUS
 90
8
 70
0
 10
7.9701678602
 20
6.0314078031
 10
7.9712746335
 20
6.015392439
 10
7.9723751245
 20
5.9895282943
 10
7.9734870521
 20
5.9541164531
 10
7.9745993345
 20
5.9104371894
 10
7.9757035569
 20
5.8602183968
 10
7.9768207687
 20
5.8040003783
 10
7.9779390449
 20
5.7440046347
  0
LWPOLYLINE
  5
6C9
100
AcDbEntity
  8
0
100
AcDbPolyline
 62
7
  6
CONTINUOUS
 90
5
 70
0
 10
7.9450431257
 20
5.396526186
 10
7.9461128295
 20
5.365761184
 10
7.9471822441
 20
5.3439342628
 10
7.9482616656
 20
5.3315818771
 10
7.9489390557
 20
5.3289655013
  0
LWPOLYLINE
  5
6CA
100
AcDbEntity
  8
0
100
AcDbPolyline
 62
7
  6
CONTINUOUS
 90
9
 70
0
 10
8.020150049
 20
5.6216760956
 10
8.0212712087
 20
5.5615368822
 10
8.0223897738
 20
5.5052774005
 10
8.0234938016
 20
5.4551060579
 10
8.0246044316
 20
5.4115330476
 10
8.0257132464
 20
5.3762492238
 10
8.0268128913
 20
5.3504196573
 10
8.0279193996
 20
5.3344187512
 10
8.0289390557
 20
5.3289655013
  0
LWPOLYLINE
  5
6CB
100
AcDbEntity
  8
0
100
AcDbPolyline
 62
7
  6
CONTINUOUS
 90
10
 70
0
 10
7.9779390449
 20
5.7440046347
 10
7.9801545596
 20
5.6214290713
 10
7.9812791091
 20
5.5611242982
 10
7.9823992767
 20
5.5048205292
 10
7.9835030452
 20
5.4547128767
 10
7.9846101936
 20
5.4113274293
 10
7.9857126645
 20
5.3762653864
 10
7.9868141213
 20
5.3503961897
 10
7.9879206429
 20
5.3344066178
 10
7.9889390557
 20
5.3289655013
  0
LWPOLYLINE
  5
6CC
100
AcDbEntity
  8
0
100
AcDbPolyline
 62
7
  6
CONTINUOUS
 90
10
 70
0
 10
7.982150049
 20
5.6216760956
 10
7.9799319923
 20
5.744390878
 10
7.9788078114
 20
5.8046771729
 10
7.9776880902
 20
5.860962271
 10
7.9765845596
 20
5.9110659951
 10
7.9754763891
 20
5.9544971609
 10
7.9743721553
 20
5.9896107829
 10
7.9732721463
 20
6.0154399056
 10
7.9721659697
 20
6.0314262636
 10
7.9711471958
 20
6.0368709028
  0
LWPOLYLINE
  5
6CD
100
AcDbEntity
  8
0
100
AcDbPolyline
 62
7
  6
CONTINUOUS
 90
10
 70
0
 10
8.0221106148
 20
5.6238369761
 10
8.0199312344
 20
5.7444323829
 10
8.018806289
 20
5.804756664
 10
8.0176858371
 20
5.8610705459
 10
8.0165819759
 20
5.9111758266
 10
8.0154764586
 20
5.9544946817
 10
8.0143750628
 20
5.9895300097
 10
8.0132717024
 20
6.0154483718
 10
8.0121647044
 20
6.0314386017
 10
8.0111471958
 20
6.0368709028
  0
LINE
  5
6CE
100
AcDbEntity
  8
0
100
AcDbLine
 62
7
  6
CONTINUOUS
 10
8.0311471958
 20
5.3289655013
 11
8.0476517997
 21
5.3439675933
  0
LINE
  5
6CF
100
AcDbEntity
  8
0
100
AcDbLine
 62
7
  6
CONTINUOUS
 10
8.0711471958
 20
5.3289655013
 11
8.0876517997
 21
5.3439675933
  0
LINE
  5
6D0
100
AcDbEntity
  8
0
100
AcDbLine
 62
7
  6
CONTINUOUS
 10
8.1111471958
 20
5.3289655013
 11
8.1276517997
 21
5.3439675933
  0
LINE
  5
6D1
100
AcDbEntity
  8
0
100
AcDbLine
 62
7
  6
CONTINUOUS
 10
8.1511471958
 20
5.3289655013
 11
8.1676517997
 21
5.3439675933
  0
LINE
  5
6D2
100
AcDbEntity
  8
0
100
AcDbLine
 62
7
  6
CONTINUOUS
 10
7.9511471958
 20
5.3289655013
 11
7.9510431257
 21
5.328918202
  0
LINE
  5
6D3
100
AcDbEntity
  8
0
100
AcDbLine
 62
7
  6
CONTINUOUS
 10
7.9911471958
 20
5.3289655013
 11
7.9910431257
 21
5.328918202
  0
LINE
  5
6D4
100
AcDbEntity
  8
0
100
AcDbLine
 62
7
  6
CONTINUOUS
 10
8.0311471958
 20
5.3289655013
 11
8.0310431432
 21
5.328918202
  0
LINE
  5
6D5
100
AcDbEntity
  8
0
100
AcDbLine
 62
7
  6
CONTINUOUS
 10
8.0711471958
 20
5.3289655013
 11
8.0710431257
 21
5.328918202
  0
LINE
  5
6D6
100
AcDbEntity
  8
0
100
AcDbLine
 62
7
  6
CONTINUOUS
 10
8.1111471958
 20
5.3289655013
 11
8.1110431233
 21
5.328918202
  0
LINE
  5
6D7
100
AcDbEntity
  8
0
100
AcDbLine
 62
7
  6
CONTINUOUS
 10
8.1511471958
 20
5.3289655013
 11
8.1510430899
 21
5.328918202
  0
LINE
  5
6D8
100
AcDbEntity
  8
0
100
AcDbLine
 62
7
  6
CONTINUOUS
 10
7.9110431096
 20
5.328918202
 11
7.9102616656
 21
5.3315818771
  0
LINE
  5
6D9
100
AcDbEntity
  8
0
100
AcDbLine
 62
7
  6
CONTINUOUS
 10
7.9715873735
 20
5.3477313549
 11
7.9724344517
 21
5.3439675933
  0
LINE
  5
6DA
100
AcDbEntity
  8
0
100
AcDbLine
 62
7
  6
CONTINUOUS
 10
7.7700826424
 20
6.0322093967
 11
7.7690431266
 21
6.036918202
  0
LINE
  5
6DB
100
AcDbEntity
  8
0
100
AcDbLine
 62
7
  6
CONTINUOUS
 10
7.9510431257
 20
5.328918202
 11
7.9499206429
 21
5.3344066178
  0
LINE
  5
6DC
100
AcDbEntity
  8
0
100
AcDbLine
 62
7
  6
CONTINUOUS
 10
7.9910431257
 20
5.328918202
 11
7.9899193996
 21
5.3344187512
  0
LINE
  5
6DD
100
AcDbEntity
  8
0
100
AcDbLine
 62
7
  6
CONTINUOUS
 10
7.8490431373
 20
6.036918202
 11
7.8501697662
 21
6.0313891597
  0
LWPOLYLINE
  5
6DE
100
AcDbEntity
  8
0
100
AcDbPolyline
 62
7
  6
CONTINUOUS
 90
8
 70
0
 10
7.8091772021
 20
6.0368396963
 10
7.8103000054
 20
6.0300413568
 10
7.8114132518
 20
6.0126669713
 10
7.812543729
 20
5.984735293
 10
7.8136823207
 20
5.9470111814
 10
7.8148109293
 20
5.9012991478
 10
7.8159269805
 20
5.8493582435
 10
7.8170431257
 20
5.792310218
  0
LWPOLYLINE
  5
6DF
100
AcDbEntity
  8
0
100
AcDbPolyline
 62
7
  6
CONTINUOUS
 90
19
 70
0
 10
7.868038701
 20
6.020891583
 10
7.8691714443
 20
6.0108896308
 10
7.8703041877
 20
5.9905316624
 10
7.8714369311
 20
5.9604605003
 10
7.8725696744
 20
5.9216256707
 10
7.8737024178
 20
5.875253421
 10
7.8748351611
 20
5.8228080001
 10
7.8759679045
 20
5.765945423
 10
7.8771006479
 20
5.7064611808
 10
7.8782333912
 20
5.6462335462
 10
7.8793661346
 20
5.5871642652
 10
7.880498878
 20
5.5311185078
 10
7.8816316213
 20
5.479865973
 10
7.8827643647
 20
5.4350250095
 10
7.883897108
 20
5.3980115142
 10
7.8850298514
 20
5.3699942241
 10
7.8861625948
 20
5.3518578125
 10
7.8872953381
 20
5.344174954
 10
7.8875431257
 20
5.343918202
  0
LWPOLYLINE
  5
6E0
100
AcDbEntity
  8
0
100
AcDbPolyline
 62
7
  6
CONTINUOUS
 90
19
 70
0
 10
7.9881094974
 20
6.0205775192
 10
7.9892422408
 20
6.0099155985
 10
7.9903749842
 20
5.9889284175
 10
7.9915077275
 20
5.9582786669
 10
7.9926404709
 20
5.9189341423
 10
7.9937732142
 20
5.8721371852
 10
7.9949059576
 20
5.8193654551
 10
7.996038701
 20
5.7622852705
 10
7.9971714443
 20
5.7026989937
 10
7.9983041877
 20
5.6424881191
 10
7.9994369311
 20
5.5835538637
 10
8.0005696744
 20
5.5277571337
 10
8.0017024178
 20
5.4768597651
 10
8.0028351611
 20
5.4324688917
 10
8.0039679045
 20
5.3959861984
 10
8.0051006479
 20
5.3685636616
 10
8.0062333912
 20
5.3510671747
 10
8.0073661346
 20
5.344049206
 10
8.0075431257
 20
5.343918202
  0
LWPOLYLINE
  5
6E1
100
AcDbEntity
  8
0
100
AcDbPolyline
 62
7
  6
CONTINUOUS
 90
9
 70
0
 10
8.0101659697
 20
6.0314262636
 10
8.0112721463
 20
6.0154399056
 10
8.0123721553
 20
5.9896107829
 10
8.0134763891
 20
5.9544971609
 10
8.0145845596
 20
5.9110659951
 10
8.0156880902
 20
5.860962271
 10
8.0168078114
 20
5.8046771729
 10
8.0179319923
 20
5.744390878
 10
8.020150049
 20
5.6216760956
  0
LWPOLYLINE
  5
6E2
100
AcDbEntity
  8
0
100
AcDbPolyline
 62
7
  6
CONTINUOUS
 90
9
 70
0
 10
8.0501647044
 20
6.0314386017
 10
8.0512717024
 20
6.0154483718
 10
8.0523750628
 20
5.9895300097
 10
8.0534764586
 20
5.9544946817
 10
8.0545819759
 20
5.9111758266
 10
8.0556858371
 20
5.8610705459
 10
8.056806289
 20
5.804756664
 10
8.0579312344
 20
5.7444323829
 10
8.0601106148
 20
5.6238369761
  0
LWPOLYLINE
  5
6E3
100
AcDbEntity
  8
0
100
AcDbPolyline
 62
7
  6
CONTINUOUS
 90
9
 70
0
 10
8.0901644428
 20
6.0314411505
 10
8.0912715206
 20
6.0154518392
 10
8.0923765024
 20
5.9894899905
 10
8.0934785452
 20
5.9544202435
 10
8.0945820636
 20
5.911172101
 10
8.0956857169
 20
5.861076323
 10
8.0968062055
 20
5.8047610226
 10
8.097931193
 20
5.7444346512
 10
8.1001429159
 20
5.622066797
  0
LWPOLYLINE
  5
6E4
100
AcDbEntity
  8
0
100
AcDbPolyline
 62
7
  6
CONTINUOUS
 90
8
 70
0
 10
8.0699184978
 20
5.3344275608
 10
8.0688120778
 20
5.3504351862
 10
8.0677043174
 20
5.3764975437
 10
8.066583975
 20
5.4122648395
 10
8.0654678836
 20
5.4562110622
 10
8.064364058
 20
5.5065157298
 10
8.0632515683
 20
5.5625633782
 10
8.0621429159
 20
5.622066797
  0
LWPOLYLINE
  5
6E5
100
AcDbEntity
  8
0
100
AcDbPolyline
 62
7
  6
CONTINUOUS
 90
8
 70
0
 10
8.1099186362
 20
5.3344262081
 10
8.1088146698
 20
5.3503857286
 10
8.1077001018
 20
5.3766149942
 10
8.1065752559
 20
5.4125775974
 10
8.1054572563
 20
5.456665239
 10
8.104354117
 20
5.5069952028
 10
8.1032458554
 20
5.5628621744
 10
8.1021437704
 20
5.6220199861
  0
LWPOLYLINE
  5
6E6
100
AcDbEntity
  8
0
100
AcDbPolyline
 62
7
  6
CONTINUOUS
 90
9
 70
0
 10
8.1001429159
 20
5.622066797
 10
8.1012515683
 20
5.5625633782
 10
8.102364058
 20
5.5065157298
 10
8.1034678836
 20
5.4562110622
 10
8.104583975
 20
5.4122648395
 10
8.1057043174
 20
5.3764975437
 10
8.1068120778
 20
5.3504351862
 10
8.1079184978
 20
5.3344275608
 10
8.1089390557
 20
5.3289655013
  0
LWPOLYLINE
  5
6E7
100
AcDbEntity
  8
0
100
AcDbPolyline
 62
7
  6
CONTINUOUS
 90
10
 70
0
 10
8.0601106148
 20
5.6238369761
 10
8.0611901475
 20
5.5657808571
 10
8.0622718868
 20
5.5109776745
 10
8.0633428053
 20
5.461596207
 10
8.0644218868
 20
5.4181613809
 10
8.0655050912
 20
5.3821940261
 10
8.0665770889
 20
5.355146783
 10
8.0676467553
 20
5.3373996979
 10
8.0687332935
 20
5.3293373627
 10
8.0689390557
 20
5.3289655013
  0
LWPOLYLINE
  5
6E8
100
AcDbEntity
  8
0
100
AcDbPolyline
 62
7
  6
CONTINUOUS
 90
9
 70
0
 10
8.1401437704
 20
5.6220199861
 10
8.1412458554
 20
5.5628621744
 10
8.142354117
 20
5.5069952028
 10
8.1434572563
 20
5.456665239
 10
8.1445752559
 20
5.4125775974
 10
8.1457001018
 20
5.3766149942
 10
8.1468146698
 20
5.3503857286
 10
8.1479186362
 20
5.3344262081
 10
8.1489390557
 20
5.3289655013
  0
LWPOLYLINE
  5
6E9
100
AcDbEntity
  8
0
100
AcDbPolyline
 62
7
  6
CONTINUOUS
 90
10
 70
0
 10
8.0621429159
 20
5.622066797
 10
8.059931193
 20
5.7444346512
 10
8.0588062055
 20
5.8047610226
 10
8.0576857169
 20
5.861076323
 10
8.0565820636
 20
5.911172101
 10
8.0554785452
 20
5.9544202435
 10
8.0543765024
 20
5.9894899905
 10
8.0532715206
 20
6.0154518392
 10
8.0521644428
 20
6.0314411505
 10
8.0511471958
 20
6.0368709028
  0
LWPOLYLINE
  5
6EA
100
AcDbEntity
  8
0
100
AcDbPolyline
 62
7
  6
CONTINUOUS
 90
10
 70
0
 10
8.1021437704
 20
5.6220199861
 10
8.099931879
 20
5.7443970854
 10
8.0988075825
 20
5.8046891248
 10
8.0976877662
 20
5.8609778445
 10
8.0965851583
 20
5.9110405382
 10
8.0954851441
 20
5.9541846325
 10
8.0943786407
 20
5.9894305209
 10
8.0932718046
 20
6.0154464231
 10
8.0921653578
 20
6.0314322322
 10
8.0911471958
 20
6.0368709028
  0
LWPOLYLINE
  5
6EB
100
AcDbEntity
  8
0
100
AcDbPolyline
 62
7
  6
CONTINUOUS
 90
10
 70
0
 10
8.1421459886
 20
5.6218984865
 10
8.1399312971
 20
5.7444289519
 10
8.1388064136
 20
5.8047501587
 10
8.1376860433
 20
5.8610606405
 10
8.1365831632
 20
5.9111253611
 10
8.1354808322
 20
5.9543386187
 10
8.1343674682
 20
5.9897408622
 10
8.133257668
 20
6.0157152079
 10
8.132151441
 20
6.0315671093
 10
8.1311471958
 20
6.0368709028
  0
LINE
  5
6EC
100
AcDbEntity
  8
0
100
AcDbLine
 62
7
  6
CONTINUOUS
 10
8.1911471958
 20
5.3289655013
 11
8.2076517997
 21
5.3439675933
  0
LINE
  5
6ED
100
AcDbEntity
  8
0
100
AcDbLine
 62
7
  6
CONTINUOUS
 10
8.2311471958
 20
5.3289655013
 11
8.2476517997
 21
5.3439675933
  0
LINE
  5
6EE
100
AcDbEntity
  8
0
100
AcDbLine
 62
7
  6
CONTINUOUS
 10
8.2711471958
 20
5.3289655013
 11
8.2876517997
 21
5.3439675933
  0
LINE
  5
6EF
100
AcDbEntity
  8
0
100
AcDbLine
 62
7
  6
CONTINUOUS
 10
8.2710431257
 20
5.328918202
 11
8.2711471958
 21
5.3289655013
  0
LINE
  5
6F0
100
AcDbEntity
  8
0
100
AcDbLine
 62
7
  6
CONTINUOUS
 10
8.1911471958
 20
5.3289655013
 11
8.1910430554
 21
5.3289182021
  0
LINE
  5
6F1
100
AcDbEntity
  8
0
100
AcDbLine
 62
7
  6
CONTINUOUS
 10
8.2311471958
 20
5.3289655013
 11
8.231043045
 21
5.3289182021
  0
LWPOLYLINE
  5
6F2
100
AcDbEntity
  8
0
100
AcDbPolyline
 62
9
  6
CONTINUOUS
 90
6
 70
0
 10
8.6360431257
 20
4.9133525778
 10
8.5957950471
 20
4.9118299355
 10
8.5545002009
 20
4.9071216179
 10
8.5138204778
 20
4.8994233296
 10
8.4754260159
 20
4.8894509123
 10
8.4407614356
 20
4.8782715404
  0
LINE
  5
6F3
100
AcDbEntity
  8
0
100
AcDbLine
 62
7
  6
CONTINUOUS
 10
8.9323982292
 20
4.893918202
 11
8.9228379529
 21
4.893918202
  0
LINE
  5
6F4
100
AcDbEntity
  8
0
100
AcDbLine
 62
7
  6
CONTINUOUS
 10
7.7724344517
 20
5.3439675933
 11
7.7889390557
 21
5.3289655013
  0
LINE
  5
6F5
100
AcDbEntity
  8
0
100
AcDbLine
 62
7
  6
CONTINUOUS
 10
8.3460431257
 20
4.510918202
 11
8.3749106392
 21
4.460918202
  0
LINE
  5
6F6
100
AcDbEntity
  8
0
100
AcDbLine
 62
7
  6
CONTINUOUS
 10
7.7525431257
 20
6.021918202
 11
7.7532931257
 21
6.0195684089
  0
LWPOLYLINE
  5
6F7
100
AcDbEntity
  8
0
100
AcDbPolyline
 62
7
  6
CONTINUOUS
 90
18
 70
0
 10
7.8325431257
 20
6.021918202
 10
7.8333926833
 20
6.0189041522
 10
7.8345254266
 20
6.0056163563
 10
7.83565817
 20
5.982139053
 10
7.8367909134
 20
5.9492135608
 10
7.8379236567
 20
5.9078795342
 10
7.8390564001
 20
5.859442135
 10
7.8401891434
 20
5.8054308214
 10
7.8413218868
 20
5.7475510528
 10
7.8424546302
 20
5.6876304393
 10
7.8435873735
 20
5.6275610322
 10
7.8447201169
 20
5.5692395816
 10
7.8458528603
 20
5.5145076437
 10
7.8469856036
 20
5.4650934327
 10
7.848118347
 20
5.4225572503
 10
7.8492510903
 20
5.3882422177
 10
7.8503838337
 20
5.3632318653
 10
7.8515165771
 20
5.3483159194
  0
LWPOLYLINE
  5
6F8
100
AcDbEntity
  8
0
100
AcDbPolyline
 62
7
  6
CONTINUOUS
 90
19
 70
0
 10
7.8276517997
 20
6.0218688108
 10
7.8283926833
 20
6.0189041522
 10
7.8295254266
 20
6.0056163563
 10
7.83065817
 20
5.982139053
 10
7.8317909134
 20
5.9492135608
 10
7.8329236567
 20
5.9078795342
 10
7.8340564001
 20
5.859442135
 10
7.8351891434
 20
5.8054308214
 10
7.8363218868
 20
5.7475510528
 10
7.8374546302
 20
5.6876304393
 10
7.8385873735
 20
5.6275610322
 10
7.8397201169
 20
5.5692395816
 10
7.8408528603
 20
5.5145076437
 10
7.8419856036
 20
5.4650934327
 10
7.843118347
 20
5.4225572503
 10
7.8442510903
 20
5.3882422177
 10
7.8453838337
 20
5.3632318653
 10
7.8465165771
 20
5.3483159194
 10
7.8475431257
 20
5.343918202
  0
LINE
  5
6F9
100
AcDbEntity
  8
0
100
AcDbLine
 62
7
  6
CONTINUOUS
 10
7.8890431257
 20
6.036918202
 11
7.8901664313
 21
6.0314217588
  0
LINE
  5
6FA
100
AcDbEntity
  8
0
100
AcDbLine
 62
7
  6
CONTINUOUS
 10
8.0710431257
 20
5.328918202
 11
8.0699184978
 21
5.3344275608
  0
LINE
  5
6FB
100
AcDbEntity
  8
0
100
AcDbLine
 62
7
  6
CONTINUOUS
 10
7.9290431257
 20
6.036918202
 11
7.9301683878
 21
6.0314026447
  0
LWPOLYLINE
  5
6FC
100
AcDbEntity
  8
0
100
AcDbPolyline
 62
7
  6
CONTINUOUS
 90
15
 70
0
 10
7.9076517997
 20
6.0218688108
 10
7.908817462
 20
6.0151491644
 10
7.9099502054
 20
5.9979734562
 10
7.9110829488
 20
5.9708495724
 10
7.9122156921
 20
5.9346339761
 10
7.9133484355
 20
5.8904702099
 10
7.9144811788
 20
5.8397527875
 10
7.9156139222
 20
5.7840831609
 10
7.9167466656
 20
5.7252191524
 10
7.9178794089
 20
5.6650194504
 10
7.9190121523
 20
5.6053849189
 10
7.9201448957
 20
5.548198576
 10
7.921277639
 20
5.4952661361
 10
7.9224103824
 20
5.4482589923
 10
7.9235431257
 20
5.4086614409
  0
LINE
  5
6FD
100
AcDbEntity
  8
0
100
AcDbLine
 62
7
  6
CONTINUOUS
 10
8.0112333912
 20
5.3510671747
 11
8.0124344517
 21
5.3439675933
  0
LWPOLYLINE
  5
6FE
100
AcDbEntity
  8
0
100
AcDbPolyline
 62
7
  6
CONTINUOUS
 90
9
 70
0
 10
8.0307332935
 20
5.3293373627
 10
8.0296467553
 20
5.3373996979
 10
8.0285770889
 20
5.355146783
 10
8.0275050912
 20
5.3821940261
 10
8.0264218868
 20
5.4181613809
 10
8.0253428053
 20
5.461596207
 10
8.0242718868
 20
5.5109776745
 10
8.0231901475
 20
5.5657808571
 10
8.0221106148
 20
5.6238369761
  0
LWPOLYLINE
  5
6FF
100
AcDbEntity
  8
0
100
AcDbPolyline
 62
7
  6
CONTINUOUS
 90
18
 70
0
 10
8.1081802939
 20
6.0202216976
 10
8.1093130372
 20
6.0089011269
 10
8.1104457806
 20
5.9872873288
 10
8.111578524
 20
5.9560627801
 10
8.1127112673
 20
5.9162134262
 10
8.1138440107
 20
5.868997549
 10
8.1149767541
 20
5.8159060359
 10
8.1161094974
 20
5.7586153028
 10
8.1172422408
 20
5.6989343602
 10
8.1183749842
 20
5.6387476919
 10
8.1195077275
 20
5.5799557504
 10
8.1206404709
 20
5.5244149482
 10
8.1217732142
 20
5.4738790401
 10
8.1229059576
 20
5.4299437465
 10
8.124038701
 20
5.3939963669
 10
8.1251714443
 20
5.3671719748
 10
8.1263041877
 20
5.3503175763
 10
8.1275431257
 20
5.343918202
  0
LWPOLYLINE
  5
700
100
AcDbEntity
  8
0
100
AcDbPolyline
 62
7
  6
CONTINUOUS
 90
9
 70
0
 10
8.170151441
 20
6.0315671093
 10
8.171257668
 20
6.0157152079
 10
8.1723674682
 20
5.9897408622
 10
8.1734808322
 20
5.9543386187
 10
8.1745831632
 20
5.9111253611
 10
8.1756860433
 20
5.8610606405
 10
8.1768064136
 20
5.8047501587
 10
8.1779312971
 20
5.7444289519
 10
8.1801459886
 20
5.6218984865
  0
LWPOLYLINE
  5
701
100
AcDbEntity
  8
0
100
AcDbPolyline
 62
7
  6
CONTINUOUS
 90
9
 70
0
 10
8.1301653578
 20
6.0314322322
 10
8.1312718046
 20
6.0154464231
 10
8.1323786407
 20
5.9894305209
 10
8.1334851441
 20
5.9541846325
 10
8.1345851583
 20
5.9110405382
 10
8.1356877662
 20
5.8609778445
 10
8.1368075825
 20
5.8046891248
 10
8.137931879
 20
5.7443970854
 10
8.1401437704
 20
5.6220199861
  0
LWPOLYLINE
  5
702
100
AcDbEntity
  8
0
100
AcDbPolyline
 62
7
  6
CONTINUOUS
 90
8
 70
0
 10
8.2299170199
 20
5.334442012
 10
8.2288167326
 20
5.3503464104
 10
8.2277022577
 20
5.3765549126
 10
8.2265774492
 20
5.4124988758
 10
8.2254594216
 20
5.4565726467
 10
8.224358011
 20
5.5068073359
 10
8.2232575879
 20
5.5622486465
 10
8.2221486817
 20
5.6217509785
  0
LWPOLYLINE
  5
703
100
AcDbEntity
  8
0
100
AcDbPolyline
 62
7
  6
CONTINUOUS
 90
8
 70
0
 10
8.1499145203
 20
5.3344664971
 10
8.1488147094
 20
5.3503849738
 10
8.1476996069
 20
5.3766287891
 10
8.1465741916
 20
5.412615807
 10
8.1454556349
 20
5.4567345869
 10
8.1443525798
 20
5.5070693843
 10
8.1432478461
 20
5.5627580505
 10
8.1421459886
 20
5.6218984865
  0
LWPOLYLINE
  5
704
100
AcDbEntity
  8
0
100
AcDbPolyline
 62
7
  6
CONTINUOUS
 90
8
 70
0
 10
8.1899139702
 20
5.3344718934
 10
8.1888143431
 20
5.3503919602
 10
8.1876993704
 20
5.3766353853
 10
8.1865740909
 20
5.4126194253
 10
8.1854556624
 20
5.4567334087
 10
8.1843531322
 20
5.5070427241
 10
8.1832510952
 20
5.5625881222
 10
8.1821470677
 20
5.6218393778
  0
LWPOLYLINE
  5
705
100
AcDbEntity
  8
0
100
AcDbPolyline
 62
7
  6
CONTINUOUS
 90
9
 70
0
 10
8.1801459886
 20
5.6218984865
 10
8.1812478461
 20
5.5627580505
 10
8.1823525798
 20
5.5070693843
 10
8.1834556349
 20
5.4567345869
 10
8.1845741916
 20
5.412615807
 10
8.1856996069
 20
5.3766287891
 10
8.1868147094
 20
5.3503849738
 10
8.1879145203
 20
5.3344664971
 10
8.1889390557
 20
5.3289655013
  0
LWPOLYLINE
  5
706
100
AcDbEntity
  8
0
100
AcDbPolyline
 62
7
  6
CONTINUOUS
 90
9
 70
0
 10
8.2201470677
 20
5.6218393778
 10
8.2212510952
 20
5.5625881222
 10
8.2223531322
 20
5.5070427241
 10
8.2234556624
 20
5.4567334087
 10
8.2245740909
 20
5.4126194253
 10
8.2256993704
 20
5.3766353853
 10
8.2268143431
 20
5.3503919602
 10
8.2279139702
 20
5.3344718934
 10
8.2289390557
 20
5.3289655013
  0
LWPOLYLINE
  5
707
100
AcDbEntity
  8
0
100
AcDbPolyline
 62
7
  6
CONTINUOUS
 90
10
 70
0
 10
8.1821470677
 20
5.6218393778
 10
8.1799180599
 20
5.7451536919
 10
8.1787798341
 20
5.8061367882
 10
8.1776466357
 20
5.8629508401
 10
8.1765313729
 20
5.9133193693
 10
8.175411152
 20
5.9568097447
 10
8.1742806633
 20
5.9921198067
 10
8.1731575069
 20
6.0175725349
 10
8.1720377325
 20
6.0326066639
 10
8.1711471958
 20
6.0368709028
  0
LWPOLYLINE
  5
708
100
AcDbEntity
  8
0
100
AcDbPolyline
 62
7
  6
CONTINUOUS
 90
10
 70
0
 10
8.2221486817
 20
5.6217509785
 10
8.2199316513
 20
5.7444095523
 10
8.2188071261
 20
5.8047129567
 10
8.2176870925
 20
5.8610102186
 10
8.2165834626
 20
5.9111126323
 10
8.2154677751
 20
5.9548041569
 10
8.2143448235
 20
5.9903669724
 10
8.2132317053
 20
6.0162045733
 10
8.2121275987
 20
6.0317943095
 10
8.2111471958
 20
6.0368709028
  0
LWPOLYLINE
  5
709
100
AcDbEntity
  8
0
100
AcDbPolyline
 62
9
  6
CONTINUOUS
 90
6
 70
0
 10
8.6360431257
 20
4.9678350999
 10
8.5876089972
 20
4.9664202552
 10
8.5379151992
 20
4.9620452699
 10
8.4889616341
 20
4.9548919931
 10
8.4427581292
 20
4.9456255877
 10
8.4010431257
 20
4.9352376758
  0
LWPOLYLINE
  5
70A
100
AcDbEntity
  8
0
100
AcDbPolyline
 62
9
  6
CONTINUOUS
 90
6
 70
0
 10
8.4010431257
 20
4.9352376758
 10
8.411811316
 20
4.9295900428
 10
8.4218183955
 20
4.9203151464
 10
8.4303570499
 20
4.9080685492
 10
8.4368237552
 20
4.8937158578
 10
8.4407614356
 20
4.8782715404
  0
LINE
  5
70B
100
AcDbEntity
  8
0
100
AcDbLine
 62
7
  6
CONTINUOUS
 10
7.8124344517
 20
5.3439675933
 11
7.8289390557
 21
5.3289655013
  0
LINE
  5
70C
100
AcDbEntity
  8
0
100
AcDbLine
 62
7
  6
CONTINUOUS
 10
7.8524344517
 20
5.3439675933
 11
7.8689390557
 21
5.3289655013
  0
LINE
  5
70D
100
AcDbEntity
  8
0
100
AcDbLine
 62
7
  6
CONTINUOUS
 10
7.8924344517
 20
5.3439675933
 11
7.9089390557
 21
5.3289655013
  0
LINE
  5
70E
100
AcDbEntity
  8
0
100
AcDbLine
 62
7
  6
CONTINUOUS
 10
7.9324344517
 20
5.3439675933
 11
7.9489390557
 21
5.3289655013
  0
LINE
  5
70F
100
AcDbEntity
  8
0
100
AcDbLine
 62
7
  6
CONTINUOUS
 10
8.0310431432
 20
5.328918202
 11
8.0307332935
 21
5.3293373627
  0
LINE
  5
710
100
AcDbEntity
  8
0
100
AcDbLine
 62
7
  6
CONTINUOUS
 10
7.8676517997
 20
6.0218688108
 11
7.868038701
 21
6.020891583
  0
LINE
  5
711
100
AcDbEntity
  8
0
100
AcDbLine
 62
7
  6
CONTINUOUS
 10
8.0520121523
 20
5.3450966307
 11
8.0524344517
 21
5.3439675933
  0
LWPOLYLINE
  5
712
100
AcDbEntity
  8
0
100
AcDbPolyline
 62
7
  6
CONTINUOUS
 90
18
 70
0
 10
7.9525431257
 20
6.021918202
 10
7.9534634797
 20
6.0183817912
 10
7.9545962231
 20
6.0044414323
 10
7.9557289665
 20
5.9803486652
 10
7.9568617098
 20
5.9468642426
 10
7.9579944532
 20
5.9050454674
 10
7.9591271965
 20
5.8562128082
 10
7.9602599399
 20
5.8019082036
 10
7.9613926833
 20
5.7438463742
 10
7.9625254266
 20
5.6838606786
 10
7.96365817
 20
5.6238452234
 10
7.9647909134
 20
5.5656950548
 10
7.9659236567
 20
5.5112463209
 10
7.9670564001
 20
5.4622182933
 10
7.9681891434
 20
5.4201590796
 10
7.9693218868
 20
5.3863967403
 10
7.9704546302
 20
5.3619973539
 10
7.9715873735
 20
5.3477313549
  0
LINE
  5
713
100
AcDbEntity
  8
0
100
AcDbLine
 62
7
  6
CONTINUOUS
 10
8.09165817
 20
5.3471882425
 11
8.0924344517
 21
5.3439675933
  0
LWPOLYLINE
  5
714
100
AcDbEntity
  8
0
100
AcDbPolyline
 62
7
  6
CONTINUOUS
 90
19
 70
0
 10
7.9476517997
 20
6.0218688108
 10
7.9484634797
 20
6.0183817912
 10
7.9495962231
 20
6.0044414323
 10
7.9507289665
 20
5.9803486652
 10
7.9518617098
 20
5.9468642426
 10
7.9529944532
 20
5.9050454674
 10
7.9541271965
 20
5.8562128082
 10
7.9552599399
 20
5.8019082036
 10
7.9563926833
 20
5.7438463742
 10
7.9575254266
 20
5.6838606786
 10
7.95865817
 20
5.6238452234
 10
7.9597909134
 20
5.5656950548
 10
7.9609236567
 20
5.5112463209
 10
7.9620564001
 20
5.4622182933
 10
7.9631891434
 20
5.4201590796
 10
7.9643218868
 20
5.3863967403
 10
7.9654546302
 20
5.3619973539
 10
7.9665873735
 20
5.3477313549
 10
7.9675431257
 20
5.343918202
  0
LINE
  5
715
100
AcDbEntity
  8
0
100
AcDbLine
 62
7
  6
CONTINUOUS
 10
8.0490431257
 20
6.036918202
 11
8.0501647044
 21
6.0314386017
  0
LINE
  5
716
100
AcDbEntity
  8
0
100
AcDbLine
 62
7
  6
CONTINUOUS
 10
8.0090431257
 20
6.036918202
 11
8.0101659697
 21
6.0314262636
  0
LINE
  5
717
100
AcDbEntity
  8
0
100
AcDbLine
 62
7
  6
CONTINUOUS
 10
8.1110431233
 20
5.328918202
 11
8.1099186362
 21
5.3344262081
  0
LINE
  5
718
100
AcDbEntity
  8
0
100
AcDbLine
 62
7
  6
CONTINUOUS
 10
7.9690431257
 20
6.036918202
 11
7.9701678602
 21
6.0314078031
  0
LINE
  5
719
100
AcDbEntity
  8
0
100
AcDbLine
 62
7
  6
CONTINUOUS
 10
8.1510430899
 20
5.328918202
 11
8.1499145203
 21
5.3344664971
  0
LINE
  5
71A
100
AcDbEntity
  8
0
100
AcDbLine
 62
7
  6
CONTINUOUS
 10
8.1910430554
 20
5.3289182021
 11
8.1899139702
 21
5.3344718934
  0
LINE
  5
71B
100
AcDbEntity
  8
0
100
AcDbLine
 62
7
  6
CONTINUOUS
 10
8.1313041877
 20
5.3503175763
 11
8.1324344517
 21
5.3439675933
  0
LWPOLYLINE
  5
71C
100
AcDbEntity
  8
0
100
AcDbPolyline
 62
7
  6
CONTINUOUS
 90
19
 70
0
 10
8.0276517997
 20
6.0218688108
 10
8.0288882585
 20
6.0143790344
 10
8.0300210019
 20
5.9965623097
 10
8.0311537452
 20
5.9688419678
 10
8.0322864886
 20
5.9320933054
 10
8.0334192319
 20
5.8874766972
 10
8.0345519753
 20
5.836400956
 10
8.0356847187
 20
5.7804788477
 10
8.036817462
 20
5.7214761674
 10
8.0379502054
 20
5.6612559819
 10
8.0390829488
 20
5.6017198021
 10
8.0402156921
 20
5.5447475405
 10
8.0413484355
 20
5.4921381517
 10
8.0424811788
 20
5.4455528282
 10
8.0436139222
 20
5.4064625468
 10
8.0447466656
 20
5.3761016212
 10
8.0458794089
 20
5.3554287269
 10
8.0470121523
 20
5.3450966307
 10
8.0475431257
 20
5.343918202
  0
LWPOLYLINE
  5
71D
100
AcDbEntity
  8
0
100
AcDbPolyline
 62
9
  6
CONTINUOUS
 90
8
 70
0
 10
8.3410431257
 20
4.955418202
 10
8.3440926568
 20
4.9276827308
 10
8.3525933717
 20
4.9055571841
 10
8.3653536093
 20
4.8893486931
 10
8.3812282017
 20
4.8788054393
 10
8.3993682257
 20
4.8735266339
 10
8.4192851987
 20
4.87328515
 10
8.4407614356
 20
4.8782715404
  0
LWPOLYLINE
  5
71E
100
AcDbEntity
  8
0
100
AcDbPolyline
 62
7
  6
CONTINUOUS
 90
9
 70
0
 10
8.2100377325
 20
6.0326066639
 10
8.2111575069
 20
6.0175725349
 10
8.2122806633
 20
5.9921198067
 10
8.213411152
 20
5.9568097447
 10
8.2145313729
 20
5.9133193693
 10
8.2156466357
 20
5.8629508401
 10
8.2167798341
 20
5.8061367882
 10
8.2179180599
 20
5.7451536919
 10
8.2201470677
 20
5.6218393778
  0
LWPOLYLINE
  5
71F
100
AcDbEntity
  8
0
100
AcDbPolyline
 62
7
  6
CONTINUOUS
 90
9
 70
0
 10
8.2501275987
 20
6.0317943095
 10
8.2512317053
 20
6.0162045733
 10
8.2523448235
 20
5.9903669724
 10
8.2534677751
 20
5.9548041569
 10
8.2545834626
 20
5.9111126323
 10
8.2556870925
 20
5.8610102186
 10
8.2568071261
 20
5.8047129567
 10
8.2579316513
 20
5.7444095523
 10
8.2601466622
 20
5.6218615907
  0
LWPOLYLINE
  5
720
100
AcDbEntity
  8
0
100
AcDbPolyline
 62
7
  6
CONTINUOUS
 90
9
 70
0
 10
8.2786542369
 20
5.6240514698
 10
8.2797804995
 20
5.5662155415
 10
8.2809067621
 20
5.5120226776
 10
8.2820330247
 20
5.4631645968
 10
8.2831592874
 20
5.4211664841
 10
8.28428555
 20
5.3873393792
 10
8.2854118126
 20
5.3627392506
 10
8.2865380752
 20
5.3481340313
 10
8.2875431257
 20
5.343918202
  0
LWPOLYLINE
  5
721
100
AcDbEntity
  8
0
100
AcDbPolyline
 62
7
  6
CONTINUOUS
 90
9
 70
0
 10
8.2599327574
 20
5.7443489812
 10
8.2588119068
 20
5.8044633141
 10
8.2576978156
 20
5.8604946485
 10
8.2565959072
 20
5.91058316
 10
8.2554768947
 20
5.9544791274
 10
8.2543516756
 20
5.9901779281
 10
8.2532373158
 20
6.0160992906
 10
8.252134117
 20
6.031732681
 10
8.2511471958
 20
6.0368709028
  0
LWPOLYLINE
  5
722
100
AcDbEntity
  8
0
100
AcDbPolyline
 62
7
  6
CONTINUOUS
 90
9
 70
0
 10
8.2599327574
 20
5.7443489812
 10
8.2621542263
 20
5.6214473264
 10
8.2632653527
 20
5.5618428244
 10
8.2643764424
 20
5.5059190043
 10
8.2654875176
 20
5.4553736293
 10
8.2665986581
 20
5.4117392994
 10
8.2677098241
 20
5.3763443274
 10
8.2688209494
 20
5.3502661423
 10
8.269932027
 20
5.3342961383
  0
LINE
  5
723
100
AcDbEntity
  8
0
100
AcDbLine
 62
7
  6
CONTINUOUS
 10
8.2910431257
 20
6.036918202
 11
8.2910431257
 21
5.3534063453
  0
LINE
  5
724
100
AcDbEntity
  8
0
100
AcDbLine
 62
9
  6
CONTINUOUS
 10
8.2910431257
 20
5.3534063453
 11
8.2910431257
 21
5.344168202
  0
LINE
  5
725
100
AcDbEntity
  8
0
100
AcDbLine
 62
9
  6
CONTINUOUS
 10
8.3285431257
 20
5.344168202
 11
8.3285431257
 21
6.021668202
  0
LINE
  5
726
100
AcDbEntity
  8
0
100
AcDbLine
 62
7
  6
CONTINUOUS
 10
8.3410431257
 20
4.560918202
 11
8.3410431257
 21
6.410418202
  0
LINE
  5
727
100
AcDbEntity
  8
0
100
AcDbLine
 62
7
  6
CONTINUOUS
 10
8.3460431257
 20
4.560918202
 11
8.3460431257
 21
4.510918202
  0
LWPOLYLINE
  5
728
100
AcDbEntity
  8
0
100
AcDbPolyline
 62
7
  6
CONTINUOUS
 90
6
 70
0
 10
8.7810431257
 20
4.9337426552
 10
8.8244509015
 20
4.9241451859
 10
8.8620573054
 20
4.9139439441
 10
8.8921500819
 20
4.9045675272
 10
8.9137971504
 20
4.8971788698
 10
8.9267448641
 20
4.8925091303
  0
LINE
  5
729
100
AcDbEntity
  8
0
100
AcDbLine
 62
7
  6
CONTINUOUS
 10
7.7889390557
 20
5.3289655013
 11
7.7890431904
 21
5.3289182021
  0
LINE
  5
72A
100
AcDbEntity
  8
0
100
AcDbLine
 62
7
  6
CONTINUOUS
 10
7.8289390557
 20
5.3289655013
 11
7.8290431567
 21
5.328918202
  0
LINE
  5
72B
100
AcDbEntity
  8
0
100
AcDbLine
 62
7
  6
CONTINUOUS
 10
7.9724344517
 20
5.3439675933
 11
7.9889390557
 21
5.3289655013
  0
LINE
  5
72C
100
AcDbEntity
  8
0
100
AcDbLine
 62
7
  6
CONTINUOUS
 10
8.0124344517
 20
5.3439675933
 11
8.0289390557
 21
5.3289655013
  0
LINE
  5
72D
100
AcDbEntity
  8
0
100
AcDbLine
 62
7
  6
CONTINUOUS
 10
8.0524344517
 20
5.3439675933
 11
8.0689390557
 21
5.3289655013
  0
LWPOLYLINE
  5
72E
100
AcDbEntity
  8
0
100
AcDbPolyline
 62
7
  6
CONTINUOUS
 90
18
 70
0
 10
7.8725431257
 20
6.021918202
 10
7.873038701
 20
6.020891583
 10
7.8741714443
 20
6.0108896308
 10
7.8753041877
 20
5.9905316624
 10
7.8764369311
 20
5.9604605003
 10
7.8775696744
 20
5.9216256707
 10
7.8787024178
 20
5.875253421
 10
7.8798351611
 20
5.8228080001
 10
7.8809679045
 20
5.765945423
 10
7.8821006479
 20
5.7064611808
 10
7.8832333912
 20
5.6462335462
 10
7.8843661346
 20
5.5871642652
 10
7.885498878
 20
5.5311185078
 10
7.8866316213
 20
5.479865973
 10
7.8877643647
 20
5.4350250095
 10
7.888897108
 20
5.3980115142
 10
7.8900298514
 20
5.3699942241
 10
7.8911625948
 20
5.3518578125
  0
LINE
  5
72F
100
AcDbEntity
  8
0
100
AcDbLine
 62
7
  6
CONTINUOUS
 10
8.1720829488
 20
5.3448034606
 11
8.1724344517
 21
5.3439675933
  0
LINE
  5
730
100
AcDbEntity
  8
0
100
AcDbLine
 62
7
  6
CONTINUOUS
 10
7.9876517997
 20
6.0218688108
 11
7.9881094974
 21
6.0205775192
  0
LINE
  5
731
100
AcDbEntity
  8
0
100
AcDbLine
 62
7
  6
CONTINUOUS
 10
8.2518062836
 20
5.3461863607
 11
8.2524344517
 21
5.3439675933
  0
LWPOLYLINE
  5
732
100
AcDbEntity
  8
0
100
AcDbPolyline
 62
7
  6
CONTINUOUS
 90
18
 70
0
 10
8.0725431257
 20
6.021918202
 10
8.0735342762
 20
6.017817944
 10
8.0746670195
 20
6.003226746
 10
8.0757997629
 20
5.9785214947
 10
8.0769325063
 20
5.9444822825
 10
8.0780652496
 20
5.9021839306
 10
8.079197993
 20
5.8529620504
 10
8.0803307364
 20
5.7983708706
 10
8.0814634797
 20
5.7401341607
 10
8.0825962231
 20
5.6800908014
 10
8.0837289665
 20
5.62013672
 10
8.0848617098
 20
5.5621650249
 10
8.0859944532
 20
5.5080062285
 10
8.0871271965
 20
5.4593704475
 10
8.0882599399
 20
5.4177934039
 10
8.0893926833
 20
5.3845879332
 10
8.0905254266
 20
5.3608025303
 10
8.09165817
 20
5.3471882425
  0
LWPOLYLINE
  5
733
100
AcDbEntity
  8
0
100
AcDbPolyline
 62
7
  6
CONTINUOUS
 90
19
 70
0
 10
8.0676517997
 20
6.0218688108
 10
8.0685342762
 20
6.017817944
 10
8.0696670195
 20
6.003226746
 10
8.0707997629
 20
5.9785214947
 10
8.0719325063
 20
5.9444822825
 10
8.0730652496
 20
5.9021839306
 10
8.074197993
 20
5.8529620504
 10
8.0753307364
 20
5.7983708706
 10
8.0764634797
 20
5.7401341607
 10
8.0775962231
 20
5.6800908014
 10
8.0787289665
 20
5.62013672
 10
8.0798617098
 20
5.5621650249
 10
8.0809944532
 20
5.5080062285
 10
8.0821271965
 20
5.4593704475
 10
8.0832599399
 20
5.4177934039
 10
8.0843926833
 20
5.3845879332
 10
8.0855254266
 20
5.3608025303
 10
8.08665817
 20
5.3471882425
 10
8.0875431257
 20
5.343918202
  0
LINE
  5
734
100
AcDbEntity
  8
0
100
AcDbLine
 62
7
  6
CONTINUOUS
 10
8.269932027
 20
5.3342961383
 11
8.2710431257
 21
5.328918202
  0
LINE
  5
735
100
AcDbEntity
  8
0
100
AcDbLine
 62
7
  6
CONTINUOUS
 10
8.0890431257
 20
6.036918202
 11
8.0901644428
 21
6.0314411505
  0
LINE
  5
736
100
AcDbEntity
  8
0
100
AcDbLine
 62
7
  6
CONTINUOUS
 10
8.1290431257
 20
6.036918202
 11
8.1301653578
 21
6.0314322322
  0
LINE
  5
737
100
AcDbEntity
  8
0
100
AcDbLine
 62
7
  6
CONTINUOUS
 10
8.231043045
 20
5.3289182021
 11
8.2299170199
 21
5.334442012
  0
LINE
  5
738
100
AcDbEntity
  8
0
100
AcDbLine
 62
7
  6
CONTINUOUS
 10
8.2114483889
 20
5.3489180692
 11
8.2124344517
 21
5.3439675933
  0
LWPOLYLINE
  5
739
100
AcDbEntity
  8
0
100
AcDbPolyline
 62
7
  6
CONTINUOUS
 90
9
 70
0
 10
8.2689390557
 20
5.3289655013
 10
8.2678715237
 20
5.3348960814
 10
8.2667680059
 20
5.3512845156
 10
8.2656644387
 20
5.3776139518
 10
8.2645608324
 20
5.4130960862
 10
8.2634572494
 20
5.4566655343
 10
8.2623537284
 20
5.5070139533
 10
8.2612502111
 20
5.562634355
 10
8.2601466622
 20
5.6218615907
  0
LWPOLYLINE
  5
73A
100
AcDbEntity
  8
0
100
AcDbPolyline
 62
7
  6
CONTINUOUS
 90
19
 70
0
 10
8.1478263116
 20
6.0215828655
 10
8.1489590549
 20
6.0135679132
 10
8.1500917983
 20
5.9951123754
 10
8.1512245417
 20
5.9667990034
 10
8.152357285
 20
5.9295218196
 10
8.1534900284
 20
5.8844578871
 10
8.1546227718
 20
5.8330301434
 10
8.1557555151
 20
5.7768624694
 10
8.1568882585
 20
5.717728414
 10
8.1580210019
 20
5.6574951924
 10
8.1591537452
 20
5.598064727
 10
8.1602864886
 20
5.5413135924
 10
8.1614192319
 20
5.4890337608
 10
8.1625519753
 20
5.4428760187
 10
8.1636847187
 20
5.4042978416
 10
8.164817462
 20
5.3745173728
 10
8.1659502054
 20
5.3544749596
 10
8.1670829488
 20
5.3448034606
 10
8.1675431257
 20
5.343918202
  0
LWPOLYLINE
  5
73B
100
AcDbEntity
  8
0
100
AcDbPolyline
 62
7
  6
CONTINUOUS
 90
8
 70
0
 10
8.3410431257
 20
4.955418202
 10
8.3428780131
 20
4.9423741839
 10
8.34799285
 20
4.9333652223
 10
8.3556706201
 20
4.9280021145
 10
8.3652222816
 20
4.9257908215
 10
8.3761370418
 20
4.9263332373
 10
8.3881209832
 20
4.9294457907
 10
8.4010431257
 20
4.9352376758
  0
LWPOLYLINE
  5
73C
100
AcDbEntity
  8
0
100
AcDbPolyline
 62
7
  6
CONTINUOUS
 90
19
 70
0
 10
8.2279724187
 20
6.021147738
 10
8.2290986813
 20
6.0118484532
 10
8.2302249439
 20
5.9922810729
 10
8.2313512066
 20
5.9630564247
 10
8.2324774692
 20
5.925086804
 10
8.2336037318
 20
5.8795574944
 10
8.2347299944
 20
5.8278897678
 10
8.2358562571
 20
5.7716965167
 10
8.2369825197
 20
5.7127319055
 10
8.2381087823
 20
5.6528366107
 10
8.2392350449
 20
5.593880362
 10
8.2403613076
 20
5.537703575
 10
8.2414875702
 20
5.4860599
 10
8.2426138328
 20
5.4405614788
 10
8.2437400954
 20
5.4026286189
 10
8.2448663581
 20
5.3734454566
 10
8.2459926207
 20
5.353922992
 10
8.2471188833
 20
5.3446706508
 10
8.2475431257
 20
5.343918202
  0
LWPOLYLINE
  5
73D
100
AcDbEntity
  8
0
100
AcDbPolyline
 62
7
  6
CONTINUOUS
 90
3
 70
0
 10
8.2910431257
 20
6.0195922088
 10
8.2899399259
 20
6.0334116029
 10
8.2890431287
 20
6.036918202
  0
LINE
  5
73E
100
AcDbEntity
  8
0
100
AcDbLine
 62
9
  6
CONTINUOUS
 10
8.4010431257
 20
4.9352376758
 11
8.4010431257
 21
6.470418202
  0
LINE
  5
73F
100
AcDbEntity
  8
0
100
AcDbLine
 62
7
  6
CONTINUOUS
 10
8.9267448641
 20
4.8925091303
 11
8.9310431257
 21
4.890918202
  0
LINE
  5
740
100
AcDbEntity
  8
0
100
AcDbLine
 62
7
  6
CONTINUOUS
 10
7.8689390557
 20
5.3289655013
 11
7.8690431269
 21
5.328918202
  0
LINE
  5
741
100
AcDbEntity
  8
0
100
AcDbLine
 62
7
  6
CONTINUOUS
 10
7.9089390557
 20
5.3289655013
 11
7.9090431257
 21
5.328918202
  0
LINE
  5
742
100
AcDbEntity
  8
0
100
AcDbLine
 62
7
  6
CONTINUOUS
 10
7.9889390557
 20
5.3289655013
 11
7.9890431257
 21
5.328918202
  0
LINE
  5
743
100
AcDbEntity
  8
0
100
AcDbLine
 62
7
  6
CONTINUOUS
 10
8.0289390557
 20
5.3289655013
 11
8.0290431257
 21
5.328918202
  0
LINE
  5
744
100
AcDbEntity
  8
0
100
AcDbLine
 62
7
  6
CONTINUOUS
 10
8.0689390557
 20
5.3289655013
 11
8.0690431432
 21
5.328918202
  0
LINE
  5
745
100
AcDbEntity
  8
0
100
AcDbLine
 62
7
  6
CONTINUOUS
 10
7.9489390557
 20
5.3289655013
 11
7.9490431096
 21
5.328918202
  0
LWPOLYLINE
  5
746
100
AcDbEntity
  8
0
100
AcDbPolyline
 62
9
  6
CONTINUOUS
 90
7
 70
0
 10
8.7810431257
 20
4.9385014841
 10
8.7694454549
 20
4.9449481777
 10
8.7520432281
 20
4.9517146035
 10
8.7288171197
 20
4.9580913781
 10
8.7006040511
 20
4.9633040694
 10
8.6690003906
 20
4.9666823472
 10
8.6360431257
 20
4.9678350999
  0
LINE
  5
747
100
AcDbEntity
  8
0
100
AcDbLine
 62
7
  6
CONTINUOUS
 10
8.0924344517
 20
5.3439675933
 11
8.1089390557
 21
5.3289655013
  0
LINE
  5
748
100
AcDbEntity
  8
0
100
AcDbLine
 62
7
  6
CONTINUOUS
 10
8.1324344517
 20
5.3439675933
 11
8.1489390557
 21
5.3289655013
  0
LINE
  5
749
100
AcDbEntity
  8
0
100
AcDbLine
 62
7
  6
CONTINUOUS
 10
8.1724344517
 20
5.3439675933
 11
8.1889390557
 21
5.3289655013
  0
LINE
  5
74A
100
AcDbEntity
  8
0
100
AcDbLine
 62
7
  6
CONTINUOUS
 10
8.2124344517
 20
5.3439675933
 11
8.2289390557
 21
5.3289655013
  0
LWPOLYLINE
  5
74B
100
AcDbEntity
  8
0
100
AcDbPolyline
 62
7
  6
CONTINUOUS
 90
18
 70
0
 10
7.9925431257
 20
6.021918202
 10
7.9931094974
 20
6.0205775192
 10
7.9942422408
 20
6.0099155985
 10
7.9953749842
 20
5.9889284175
 10
7.9965077275
 20
5.9582786669
 10
7.9976404709
 20
5.9189341423
 10
7.9987732142
 20
5.8721371852
 10
7.9999059576
 20
5.8193654551
 10
8.001038701
 20
5.7622852705
 10
8.0021714443
 20
5.7026989937
 10
8.0033041877
 20
5.6424881191
 10
8.0044369311
 20
5.5835538637
 10
8.0055696744
 20
5.5277571337
 10
8.0067024178
 20
5.4768597651
 10
8.0078351611
 20
5.4324688917
 10
8.0089679045
 20
5.3959861984
 10
8.0101006479
 20
5.3685636616
 10
8.0112333912
 20
5.3510671747
  0
LWPOLYLINE
  5
74C
100
AcDbEntity
  8
0
100
AcDbPolyline
 62
7
  6
CONTINUOUS
 90
18
 70
0
 10
8.1125431257
 20
6.021918202
 10
8.1131802939
 20
6.0202216976
 10
8.1143130372
 20
6.0089011269
 10
8.1154457806
 20
5.9872873288
 10
8.116578524
 20
5.9560627801
 10
8.1177112673
 20
5.9162134262
 10
8.1188440107
 20
5.868997549
 10
8.1199767541
 20
5.8159060359
 10
8.1211094974
 20
5.7586153028
 10
8.1222422408
 20
5.6989343602
 10
8.1233749842
 20
5.6387476919
 10
8.1245077275
 20
5.5799557504
 10
8.1256404709
 20
5.5244149482
 10
8.1267732142
 20
5.4738790401
 10
8.1279059576
 20
5.4299437465
 10
8.129038701
 20
5.3939963669
 10
8.1301714443
 20
5.3671719748
 10
8.1313041877
 20
5.3503175763
  0
LINE
  5
74D
100
AcDbEntity
  8
0
100
AcDbLine
 62
7
  6
CONTINUOUS
 10
8.1076517997
 20
6.0218688108
 11
8.1081802939
 21
6.0202216976
  0
LWPOLYLINE
  5
74E
100
AcDbEntity
  8
0
100
AcDbPolyline
 62
7
  6
CONTINUOUS
 90
18
 70
0
 10
8.1925431257
 20
6.021918202
 10
8.1935115468
 20
6.018003486
 10
8.1946325994
 20
6.0038222644
 10
8.1957536521
 20
5.979715725
 10
8.1968747047
 20
5.9464294647
 10
8.1979957573
 20
5.9049930022
 10
8.19911681
 20
5.8566879355
 10
8.2002378626
 20
5.8030083036
 10
8.2013589152
 20
5.7456143764
 10
8.2024799678
 20
5.6862813045
 10
8.2036010205
 20
5.6268442143
 10
8.2047220731
 20
5.5691414498
 10
8.2058431257
 20
5.5149577134
 10
8.2069641784
 20
5.4659688668
 10
8.208085231
 20
5.4236900976
 10
8.2092062836
 20
5.3894290558
 10
8.2103273363
 20
5.3642454093
 10
8.2114483889
 20
5.3489180692
  0
LINE
  5
74F
100
AcDbEntity
  8
0
100
AcDbLine
 62
7
  6
CONTINUOUS
 10
8.2090428377
 20
6.0369182017
 11
8.2100377325
 21
6.0326066639
  0
LWPOLYLINE
  5
750
100
AcDbEntity
  8
0
100
AcDbPolyline
 62
7
  6
CONTINUOUS
 90
19
 70
0
 10
8.1876517997
 20
6.0218688108
 10
8.1885532268
 20
6.0176599853
 10
8.1896794894
 20
6.0030086882
 10
8.190805752
 20
5.9783652432
 10
8.1919320146
 20
5.9444989358
 10
8.1930582773
 20
5.9024669581
 10
8.1941845399
 20
5.8535814071
 10
8.1953108025
 20
5.7993683251
 10
8.1964370651
 20
5.7415200622
 10
8.1975633278
 20
5.6818424463
 10
8.1986895904
 20
5.622198412
 10
8.199815853
 20
5.5644498451
 10
8.2009421156
 20
5.5103994617
 10
8.2020683783
 20
5.4617345329
 10
8.2031946409
 20
5.4199742139
 10
8.2043209035
 20
5.3864221213
 10
8.2054471661
 20
5.3621256387
 10
8.2065734288
 20
5.3478432204
 10
8.2075431257
 20
5.343918202
  0
LINE
  5
751
100
AcDbEntity
  8
0
100
AcDbLine
 62
7
  6
CONTINUOUS
 10
8.2490430338
 20
6.036918202
 11
8.2501275987
 21
6.0317943095
  0
LINE
  5
752
100
AcDbEntity
  8
0
100
AcDbLine
 62
7
  6
CONTINUOUS
 10
8.1690431109
 20
6.036918202
 11
8.170151441
 21
6.0315671093
  0
LINE
  5
753
100
AcDbEntity
  8
AXIS_COSMETIC_THREADS
100
AcDbLine
 62
7
  6
CONTINUOUS
 10
8.5195431257
 20
4.460918202
 11
8.5195431257
 21
3.707918202
  0
LINE
  5
754
100
AcDbEntity
  8
0
100
AcDbLine
 62
7
  6
CONTINUOUS
 10
8.1089390557
 20
5.3289655013
 11
8.1090431257
 21
5.328918202
  0
LINE
  5
755
100
AcDbEntity
  8
0
100
AcDbLine
 62
7
  6
CONTINUOUS
 10
8.1489390557
 20
5.3289655013
 11
8.1490431233
 21
5.328918202
  0
LINE
  5
756
100
AcDbEntity
  8
0
100
AcDbLine
 62
7
  6
CONTINUOUS
 10
8.2690431251
 20
5.328918202
 11
8.2689390557
 21
5.3289655013
  0
LINE
  5
757
100
AcDbEntity
  8
0
100
AcDbLine
 62
7
  6
CONTINUOUS
 10
8.1889390557
 20
5.3289655013
 11
8.1890430899
 21
5.328918202
  0
LINE
  5
758
100
AcDbEntity
  8
0
100
AcDbLine
 62
7
  6
CONTINUOUS
 10
8.2289390557
 20
5.3289655013
 11
8.2290430554
 21
5.3289182021
  0
LINE
  5
759
100
AcDbEntity
  8
0
100
AcDbLine
 62
7
  6
CONTINUOUS
 10
8.2524344517
 20
5.3439675933
 11
8.2689390557
 21
5.3289655013
  0
LWPOLYLINE
  5
75A
100
AcDbEntity
  8
0
100
AcDbPolyline
 62
7
  6
CONTINUOUS
 90
10
 70
0
 10
8.2676517997
 20
6.0218688108
 10
8.2685178732
 20
6.0179522717
 10
8.2696441358
 20
6.0036237118
 10
8.2707703985
 20
5.9792838051
 10
8.2718966611
 20
5.9456923615
 10
8.2730229237
 20
5.9038979929
 10
8.2741491864
 20
5.8552053789
 10
8.275275449
 20
5.801134539
 10
8.2764017116
 20
5.7433733828
 10
8.2786542369
 20
5.6240514698
  0
LWPOLYLINE
  5
75B
100
AcDbEntity
  8
0
100
AcDbPolyline
 62
9
  6
CONTINUOUS
 90
7
 70
0
 10
8.7810431257
 20
4.9385014841
 10
8.7628379387
 20
4.9305421486
 10
8.7413609223
 20
4.9239318947
 10
8.7171404072
 20
4.9189962814
 10
8.6909183711
 20
4.9157239622
 10
8.6635841636
 20
4.9139174749
 10
8.6360431257
 20
4.9133525778
  0
LINE
  5
75C
100
AcDbEntity
  8
0
100
AcDbLine
 62
7
  6
CONTINUOUS
 10
8.2710431257
 20
5.328918202
 11
8.2690431257
 21
5.328918202
  0
LINE
  5
75D
100
AcDbEntity
  8
0
100
AcDbLine
 62
7
  6
CONTINUOUS
 10
8.2310431257
 20
5.328918202
 11
8.2290431257
 21
5.328918202
  0
LINE
  5
75E
100
AcDbEntity
  8
0
100
AcDbLine
 62
7
  6
CONTINUOUS
 10
8.1910431257
 20
5.328918202
 11
8.1890431257
 21
5.328918202
  0
LINE
  5
75F
100
AcDbEntity
  8
0
100
AcDbLine
 62
7
  6
CONTINUOUS
 10
8.1510431257
 20
5.328918202
 11
8.1490431257
 21
5.328918202
  0
LINE
  5
760
100
AcDbEntity
  8
0
100
AcDbLine
 62
7
  6
CONTINUOUS
 10
8.1110431257
 20
5.328918202
 11
8.1090431257
 21
5.328918202
  0
LINE
  5
761
100
AcDbEntity
  8
0
100
AcDbLine
 62
7
  6
CONTINUOUS
 10
8.0710431257
 20
5.328918202
 11
8.0690431257
 21
5.328918202
  0
LINE
  5
762
100
AcDbEntity
  8
0
100
AcDbLine
 62
7
  6
CONTINUOUS
 10
8.0310431257
 20
5.328918202
 11
8.0290431257
 21
5.328918202
  0
LINE
  5
763
100
AcDbEntity
  8
0
100
AcDbLine
 62
7
  6
CONTINUOUS
 10
7.9910431257
 20
5.328918202
 11
7.9890431257
 21
5.328918202
  0
LINE
  5
764
100
AcDbEntity
  8
0
100
AcDbLine
 62
7
  6
CONTINUOUS
 10
7.9510431257
 20
5.328918202
 11
7.9490431257
 21
5.328918202
  0
LINE
  5
765
100
AcDbEntity
  8
0
100
AcDbLine
 62
7
  6
CONTINUOUS
 10
7.9110431257
 20
5.328918202
 11
7.9090431257
 21
5.328918202
  0
LINE
  5
766
100
AcDbEntity
  8
0
100
AcDbLine
 62
7
  6
CONTINUOUS
 10
7.8710431257
 20
5.328918202
 11
7.8690431257
 21
5.328918202
  0
LINE
  5
767
100
AcDbEntity
  8
0
100
AcDbLine
 62
7
  6
CONTINUOUS
 10
7.8310431257
 20
5.328918202
 11
7.8290431257
 21
5.328918202
  0
LINE
  5
768
100
AcDbEntity
  8
0
100
AcDbLine
 62
7
  6
CONTINUOUS
 10
7.7910431257
 20
5.328918202
 11
7.7890431257
 21
5.328918202
  0
LINE
  5
769
100
AcDbEntity
  8
0
100
AcDbLine
 62
7
  6
CONTINUOUS
 10
7.7675431257
 20
5.343918202
 11
7.7725431257
 21
5.343918202
  0
LINE
  5
76A
100
AcDbEntity
  8
0
100
AcDbLine
 62
7
  6
CONTINUOUS
 10
7.8075431257
 20
5.343918202
 11
7.8125431257
 21
5.343918202
  0
LINE
  5
76B
100
AcDbEntity
  8
0
100
AcDbLine
 62
7
  6
CONTINUOUS
 10
7.8475431257
 20
5.343918202
 11
7.8525431257
 21
5.343918202
  0
LINE
  5
76C
100
AcDbEntity
  8
0
100
AcDbLine
 62
7
  6
CONTINUOUS
 10
7.8875431257
 20
5.343918202
 11
7.8925431257
 21
5.343918202
  0
LINE
  5
76D
100
AcDbEntity
  8
0
100
AcDbLine
 62
7
  6
CONTINUOUS
 10
7.9275431257
 20
5.343918202
 11
7.9325431257
 21
5.343918202
  0
LINE
  5
76E
100
AcDbEntity
  8
0
100
AcDbLine
 62
7
  6
CONTINUOUS
 10
7.9675431257
 20
5.343918202
 11
7.9725431257
 21
5.343918202
  0
LINE
  5
76F
100
AcDbEntity
  8
0
100
AcDbLine
 62
7
  6
CONTINUOUS
 10
8.0075431257
 20
5.343918202
 11
8.0125431257
 21
5.343918202
  0
LINE
  5
770
100
AcDbEntity
  8
0
100
AcDbLine
 62
7
  6
CONTINUOUS
 10
8.0475431257
 20
5.343918202
 11
8.0525431257
 21
5.343918202
  0
LINE
  5
771
100
AcDbEntity
  8
0
100
AcDbLine
 62
7
  6
CONTINUOUS
 10
8.0875431257
 20
5.343918202
 11
8.0925431257
 21
5.343918202
  0
LINE
  5
772
100
AcDbEntity
  8
0
100
AcDbLine
 62
7
  6
CONTINUOUS
 10
8.1275431257
 20
5.343918202
 11
8.1325431257
 21
5.343918202
  0
LINE
  5
773
100
AcDbEntity
  8
0
100
AcDbLine
 62
7
  6
CONTINUOUS
 10
8.1675431257
 20
5.343918202
 11
8.1725431257
 21
5.343918202
  0
LINE
  5
774
100
AcDbEntity
  8
0
100
AcDbLine
 62
7
  6
CONTINUOUS
 10
8.2075431257
 20
5.343918202
 11
8.2125431257
 21
5.343918202
  0
LINE
  5
775
100
AcDbEntity
  8
0
100
AcDbLine
 62
7
  6
CONTINUOUS
 10
8.2475431257
 20
5.343918202
 11
8.2525431257
 21
5.343918202
  0
LINE
  5
776
100
AcDbEntity
  8
0
100
AcDbLine
 62
7
  6
CONTINUOUS
 10
8.2875431257
 20
5.343918202
 11
8.2910431257
 21
5.343918202
  0
LINE
  5
777
100
AcDbEntity
  8
0
100
AcDbLine
 62
7
  6
CONTINUOUS
 10
8.3285431257
 20
5.344168202
 11
8.2910431257
 21
5.344168202
  0
LINE
  5
778
100
AcDbEntity
  8
0
100
AcDbLine
 62
7
  6
CONTINUOUS
 10
8.2276517997
 20
6.0218688108
 11
8.2279724187
 21
6.021147738
  0
LWPOLYLINE
  5
779
100
AcDbEntity
  8
0
100
AcDbPolyline
 62
7
  6
CONTINUOUS
 90
18
 70
0
 10
8.2725431257
 20
6.021918202
 10
8.2731062836
 20
6.0205926811
 10
8.2742273363
 20
6.0101240226
 10
8.2753483889
 20
5.9895351378
 10
8.2764694415
 20
5.9594628251
 10
8.2775904942
 20
5.9208371982
 10
8.2787115468
 20
5.8748529183
 10
8.2798325994
 20
5.8229322441
 10
8.2809536521
 20
5.7666810425
 10
8.2820747047
 20
5.7078391201
 10
8.2831957573
 20
5.6482264127
 10
8.28431681
 20
5.5896866959
 10
8.2854378626
 20
5.5340305584
 10
8.2865589152
 20
5.4829794021
 10
8.2876799678
 20
5.4381122004
 10
8.2888010205
 20
5.4008166615
 10
8.2899220731
 20
5.3722463079
 10
8.2910431257
 20
5.353284799
  0
LINE
  5
77A
100
AcDbEntity
  8
AXIS_COSMETIC_THREADS
100
AcDbLine
 62
7
  6
CONTINUOUS
 10
8.7525431257
 20
4.460918202
 11
8.7525431257
 21
3.707918202
  0
LINE
  5
77B
100
AcDbEntity
  8
0
100
AcDbLine
 62
7
  6
CONTINUOUS
 10
7.7876517997
 20
6.0218688108
 11
7.7711471958
 21
6.0368709028
  0
LINE
  5
77C
100
AcDbEntity
  8
0
100
AcDbLine
 62
7
  6
CONTINUOUS
 10
7.8276517997
 20
6.0218688108
 11
7.8111471958
 21
6.0368709028
  0
LINE
  5
77D
100
AcDbEntity
  8
0
100
AcDbLine
 62
7
  6
CONTINUOUS
 10
7.8676517997
 20
6.0218688108
 11
7.8511471958
 21
6.0368709028
  0
LINE
  5
77E
100
AcDbEntity
  8
0
100
AcDbLine
 62
7
  6
CONTINUOUS
 10
7.9076517997
 20
6.0218688108
 11
7.8911471958
 21
6.0368709028
  0
LINE
  5
77F
100
AcDbEntity
  8
0
100
AcDbLine
 62
9
  6
CONTINUOUS
 10
8.9329986714
 20
4.893918202
 11
8.9323982292
 21
4.8948529653
  0
LWPOLYLINE
  5
780
100
AcDbEntity
  8
0
100
AcDbPolyline
 62
9
  6
CONTINUOUS
 90
13
 70
0
 10
8.9323982292
 20
4.8948529653
 10
8.9275946919
 20
4.902640305
 10
8.9186910877
 20
4.9198077151
 10
8.9068636896
 20
4.9487899427
 10
8.8946641261
 20
4.9912474477
 10
8.8850610501
 20
5.0475787979
 10
8.8786091085
 20
5.1164474117
 10
8.8748050835
 20
5.1958101195
 10
8.8730233354
 20
5.2836309443
 10
8.8726381628
 20
5.3778646961
 10
8.8730522835
 20
5.4767133135
 10
8.8737027886
 20
5.5787534727
 10
8.8740431257
 20
5.682918202
  0
LINE
  5
781
100
AcDbEntity
  8
0
100
AcDbLine
 62
7
  6
CONTINUOUS
 10
8.1476517997
 20
6.0218688108
 11
8.1478263116
 21
6.0215828655
  0
LINE
  5
782
100
AcDbEntity
  8
0
100
AcDbLine
 62
7
  6
CONTINUOUS
 10
8.7810431257
 20
4.9337426552
 11
8.7810431257
 21
6.4704102596
  0
LINE
  5
783
100
AcDbEntity
  8
0
100
AcDbLine
 62
7
  6
CONTINUOUS
 10
8.7940431257
 20
4.9308683522
 11
8.7940431257
 21
6.471918202
  0
LWPOLYLINE
  5
784
100
AcDbEntity
  8
0
100
AcDbPolyline
 62
7
  6
CONTINUOUS
 90
19
 70
0
 10
8.0325431257
 20
6.021918202
 10
8.0327555151
 20
6.0217295616
 10
8.0338882585
 20
6.0143790344
 10
8.0350210019
 20
5.9965623097
 10
8.0361537452
 20
5.9688419678
 10
8.0372864886
 20
5.9320933054
 10
8.0384192319
 20
5.8874766972
 10
8.0395519753
 20
5.836400956
 10
8.0406847187
 20
5.7804788477
 10
8.041817462
 20
5.7214761674
 10
8.0429502054
 20
5.6612559819
 10
8.0440829488
 20
5.6017198021
 10
8.0452156921
 20
5.5447475405
 10
8.0463484355
 20
5.4921381517
 10
8.0474811788
 20
5.4455528282
 10
8.0486139222
 20
5.4064625468
 10
8.0497466656
 20
5.3761016212
 10
8.0508794089
 20
5.3554287269
 10
8.0520121523
 20
5.3450966307
  0
LINE
  5
785
100
AcDbEntity
  8
0
100
AcDbLine
 62
7
  6
CONTINUOUS
 10
7.9476517997
 20
6.0218688108
 11
7.9311471958
 21
6.0368709028
  0
LINE
  5
786
100
AcDbEntity
  8
0
100
AcDbLine
 62
7
  6
CONTINUOUS
 10
7.9876517997
 20
6.0218688108
 11
7.9711471958
 21
6.0368709028
  0
LINE
  5
787
100
AcDbEntity
  8
0
100
AcDbLine
 62
7
  6
CONTINUOUS
 10
8.0276517997
 20
6.0218688108
 11
8.0111471958
 21
6.0368709028
  0
LINE
  5
788
100
AcDbEntity
  8
0
100
AcDbLine
 62
7
  6
CONTINUOUS
 10
8.0676517997
 20
6.0218688108
 11
8.0511471958
 21
6.0368709028
  0
LWPOLYLINE
  5
789
100
AcDbEntity
  8
0
100
AcDbPolyline
 62
7
  6
CONTINUOUS
 90
19
 70
0
 10
8.1525431257
 20
6.021918202
 10
8.1528263116
 20
6.0215828655
 10
8.1539590549
 20
6.0135679132
 10
8.1550917983
 20
5.9951123754
 10
8.1562245417
 20
5.9667990034
 10
8.157357285
 20
5.9295218196
 10
8.1584900284
 20
5.8844578871
 10
8.1596227718
 20
5.8330301434
 10
8.1607555151
 20
5.7768624694
 10
8.1618882585
 20
5.717728414
 10
8.1630210019
 20
5.6574951924
 10
8.1641537452
 20
5.598064727
 10
8.1652864886
 20
5.5413135924
 10
8.1664192319
 20
5.4890337608
 10
8.1675519753
 20
5.4428760187
 10
8.1686847187
 20
5.4042978416
 10
8.169817462
 20
5.3745173728
 10
8.1709502054
 20
5.3544749596
 10
8.1720829488
 20
5.3448034606
  0
LINE
  5
78A
100
AcDbEntity
  8
0
100
AcDbLine
 62
9
  6
CONTINUOUS
 10
8.8740431257
 20
5.682918202
 11
8.8740431257
 21
6.471918202
  0
LINE
  5
78B
100
AcDbEntity
  8
0
100
AcDbLine
 62
7
  6
CONTINUOUS
 10
8.9260431257
 20
4.560918202
 11
8.9260431257
 21
4.510918202
  0
LINE
  5
78C
100
AcDbEntity
  8
0
100
AcDbLine
 62
7
  6
CONTINUOUS
 10
8.9310431257
 20
4.560918202
 11
8.9310431257
 21
4.8909182033
  0
LINE
  5
78D
100
AcDbEntity
  8
02___PRT_ALL_AXES
100
AcDbLine
 62
7
  6
CONTINUOUS
 10
8.9340431257
 20
5.550918202
 11
8.9340431257
 21
5.682918202
  0
LINE
  5
78E
100
AcDbEntity
  8
0
100
AcDbLine
 62
7
  6
CONTINUOUS
 10
8.9340431257
 20
4.8949307205
 11
8.9340431257
 21
6.411918202
  0
LINE
  5
78F
100
AcDbEntity
  8
0
100
AcDbLine
 62
9
  6
CONTINUOUS
 10
8.9340431257
 20
5.682918202
 11
8.8740431257
 21
5.682918202
  0
LWPOLYLINE
  5
790
100
AcDbEntity
  8
0
100
AcDbPolyline
 62
7
  6
CONTINUOUS
 90
9
 70
0
 10
7.7925431257
 20
6.021918202
 10
7.7926681257
 20
6.0218528566
 10
7.7937931257
 20
6.0154044121
 10
7.7949181257
 20
5.9986000649
 10
7.7960431257
 20
5.9719632177
 10
7.7971681257
 20
5.9363235248
 10
7.7982931257
 20
5.8927910508
 10
7.7994181257
 20
5.8427216958
 10
7.8005431257
 20
5.7876749631
  0
LINE
  5
791
100
AcDbEntity
  8
0
100
AcDbLine
 62
7
  6
CONTINUOUS
 10
7.8090434012
 20
6.0369182017
 11
7.8091772021
 21
6.0368396963
  0
LWPOLYLINE
  5
792
100
AcDbEntity
  8
0
100
AcDbPolyline
 62
7
  6
CONTINUOUS
 90
16
 70
0
 10
7.9125431257
 20
6.021918202
 10
7.9126847187
 20
6.0218343575
 10
7.913817462
 20
6.0151491644
 10
7.9149502054
 20
5.9979734562
 10
7.9160829488
 20
5.9708495724
 10
7.9172156921
 20
5.9346339761
 10
7.9183484355
 20
5.8904702099
 10
7.9194811788
 20
5.8397527875
 10
7.9206139222
 20
5.7840831609
 10
7.9217466656
 20
5.7252191524
 10
7.9228794089
 20
5.6650194504
 10
7.9240121523
 20
5.6053849189
 10
7.9251448957
 20
5.548198576
 10
7.926277639
 20
5.4952661361
 10
7.9274103824
 20
5.4482589923
 10
7.9285431257
 20
5.4086614409
  0
LINE
  5
793
100
AcDbEntity
  8
0
100
AcDbLine
 62
7
  6
CONTINUOUS
 10
8.1076517997
 20
6.0218688108
 11
8.0911471958
 21
6.0368709028
  0
LINE
  5
794
100
AcDbEntity
  8
0
100
AcDbLine
 62
7
  6
CONTINUOUS
 10
8.1476517997
 20
6.0218688108
 11
8.1311471958
 21
6.0368709028
  0
LINE
  5
795
100
AcDbEntity
  8
0
100
AcDbLine
 62
7
  6
CONTINUOUS
 10
8.1876517997
 20
6.0218688108
 11
8.1711471958
 21
6.0368709028
  0
LINE
  5
796
100
AcDbEntity
  8
0
100
AcDbLine
 62
7
  6
CONTINUOUS
 10
8.2276517997
 20
6.0218688108
 11
8.2111471958
 21
6.0368709028
  0
LINE
  5
797
100
AcDbEntity
  8
0
100
AcDbLine
 62
7
  6
CONTINUOUS
 10
7.7710431268
 20
6.036918202
 11
7.7711471958
 21
6.0368709028
  0
LINE
  5
798
100
AcDbEntity
  8
0
100
AcDbLine
 62
7
  6
CONTINUOUS
 10
7.8511471958
 20
6.0368709028
 11
7.8510431257
 21
6.036918202
  0
LINE
  5
799
100
AcDbEntity
  8
0
100
AcDbLine
 62
7
  6
CONTINUOUS
 10
7.8911471958
 20
6.0368709028
 11
7.8910431257
 21
6.036918202
  0
LINE
  5
79A
100
AcDbEntity
  8
0
100
AcDbLine
 62
7
  6
CONTINUOUS
 10
7.9311471958
 20
6.0368709028
 11
7.9310431257
 21
6.036918202
  0
LINE
  5
79B
100
AcDbEntity
  8
0
100
AcDbLine
 62
7
  6
CONTINUOUS
 10
7.9711471958
 20
6.0368709028
 11
7.9710431257
 21
6.036918202
  0
LINE
  5
79C
100
AcDbEntity
  8
0
100
AcDbLine
 62
7
  6
CONTINUOUS
 10
7.8111471958
 20
6.0368709028
 11
7.8110431373
 21
6.036918202
  0
LWPOLYLINE
  5
79D
100
AcDbEntity
  8
0
100
AcDbPolyline
 62
7
  6
CONTINUOUS
 90
19
 70
0
 10
8.2325431257
 20
6.021918202
 10
8.2327483889
 20
6.0217420069
 10
8.2338694415
 20
6.0145877305
 10
8.2349904942
 20
5.9971751687
 10
8.2361115468
 20
5.9700428787
 10
8.2372325994
 20
5.9340300415
 10
8.2383536521
 20
5.8902505067
 10
8.2394747047
 20
5.840058342
 10
8.2405957573
 20
5.7850059527
 10
8.24171681
 20
5.7267960671
 10
8.2428378626
 20
5.6672290727
 10
8.2439589152
 20
5.608147331
 10
8.2450799678
 20
5.5513781953
 10
8.2462010205
 20
5.4986774917
 10
8.2473220731
 20
5.4516752126
 10
8.2484431257
 20
5.4118251028
 10
8.2495641784
 20
5.3803596956
 10
8.250685231
 20
5.3582521922
 10
8.2518062836
 20
5.3461863607
  0
LINE
  5
79E
100
AcDbEntity
  8
0
100
AcDbLine
 62
7
  6
CONTINUOUS
 10
8.2676517997
 20
6.0218688108
 11
8.2511471958
 21
6.0368709028
  0
LINE
  5
79F
100
AcDbEntity
  8
0
100
AcDbLine
 62
7
  6
CONTINUOUS
 10
8.9260431257
 20
4.510918202
 11
8.8971756123
 21
4.460918202
  0
LINE
  5
7A0
100
AcDbEntity
  8
0
100
AcDbLine
 62
7
  6
CONTINUOUS
 10
8.1711471958
 20
6.0368709028
 11
8.1710428377
 21
6.0369182017
  0
LINE
  5
7A1
100
AcDbEntity
  8
0
100
AcDbLine
 62
7
  6
CONTINUOUS
 10
8.2111471958
 20
6.0368709028
 11
8.2110430338
 21
6.036918202
  0
LINE
  5
7A2
100
AcDbEntity
  8
0
100
AcDbLine
 62
7
  6
CONTINUOUS
 10
8.0111471958
 20
6.0368709028
 11
8.0110431257
 21
6.036918202
  0
LINE
  5
7A3
100
AcDbEntity
  8
0
100
AcDbLine
 62
7
  6
CONTINUOUS
 10
8.0511471958
 20
6.0368709028
 11
8.0510431257
 21
6.036918202
  0
LINE
  5
7A4
100
AcDbEntity
  8
0
100
AcDbLine
 62
7
  6
CONTINUOUS
 10
8.0911471958
 20
6.0368709028
 11
8.0910431257
 21
6.036918202
  0
LINE
  5
7A5
100
AcDbEntity
  8
0
100
AcDbLine
 62
7
  6
CONTINUOUS
 10
8.1311471958
 20
6.0368709028
 11
8.1310431109
 21
6.036918202
  0
LINE
  5
7A6
100
AcDbEntity
  8
0
100
AcDbLine
 62
7
  6
CONTINUOUS
 10
8.2511471958
 20
6.0368709028
 11
8.2510430876
 21
6.036918202
  0
LINE
  5
7A7
100
AcDbEntity
  8
0
100
AcDbLine
 62
7
  6
CONTINUOUS
 10
8.3285431257
 20
6.021668202
 11
8.2910431257
 21
6.021668202
  0
LINE
  5
7A8
100
AcDbEntity
  8
0
100
AcDbLine
 62
7
  6
CONTINUOUS
 10
8.2725431257
 20
6.021918202
 11
8.2675431257
 21
6.021918202
  0
LINE
  5
7A9
100
AcDbEntity
  8
0
100
AcDbLine
 62
7
  6
CONTINUOUS
 10
8.2325431257
 20
6.021918202
 11
8.2275431257
 21
6.021918202
  0
LINE
  5
7AA
100
AcDbEntity
  8
0
100
AcDbLine
 62
7
  6
CONTINUOUS
 10
8.1925431257
 20
6.021918202
 11
8.1875431257
 21
6.021918202
  0
LINE
  5
7AB
100
AcDbEntity
  8
0
100
AcDbLine
 62
7
  6
CONTINUOUS
 10
8.1525431257
 20
6.021918202
 11
8.1475431257
 21
6.021918202
  0
LINE
  5
7AC
100
AcDbEntity
  8
0
100
AcDbLine
 62
7
  6
CONTINUOUS
 10
8.1125431257
 20
6.021918202
 11
8.1075431257
 21
6.021918202
  0
LINE
  5
7AD
100
AcDbEntity
  8
0
100
AcDbLine
 62
7
  6
CONTINUOUS
 10
8.0725431257
 20
6.021918202
 11
8.0675431257
 21
6.021918202
  0
LINE
  5
7AE
100
AcDbEntity
  8
0
100
AcDbLine
 62
7
  6
CONTINUOUS
 10
8.0325431257
 20
6.021918202
 11
8.0275431257
 21
6.021918202
  0
LINE
  5
7AF
100
AcDbEntity
  8
0
100
AcDbLine
 62
7
  6
CONTINUOUS
 10
7.9925431257
 20
6.021918202
 11
7.9875431257
 21
6.021918202
  0
LINE
  5
7B0
100
AcDbEntity
  8
0
100
AcDbLine
 62
7
  6
CONTINUOUS
 10
7.9525431257
 20
6.021918202
 11
7.9475431257
 21
6.021918202
  0
LINE
  5
7B1
100
AcDbEntity
  8
0
100
AcDbLine
 62
7
  6
CONTINUOUS
 10
7.9125431257
 20
6.021918202
 11
7.9075431257
 21
6.021918202
  0
LINE
  5
7B2
100
AcDbEntity
  8
0
100
AcDbLine
 62
7
  6
CONTINUOUS
 10
7.8725431257
 20
6.021918202
 11
7.8675431257
 21
6.021918202
  0
LINE
  5
7B3
100
AcDbEntity
  8
0
100
AcDbLine
 62
7
  6
CONTINUOUS
 10
7.8325431257
 20
6.021918202
 11
7.8275431257
 21
6.021918202
  0
LINE
  5
7B4
100
AcDbEntity
  8
0
100
AcDbLine
 62
7
  6
CONTINUOUS
 10
7.7925431257
 20
6.021918202
 11
7.7875431257
 21
6.021918202
  0
LINE
  5
7B5
100
AcDbEntity
  8
0
100
AcDbLine
 62
7
  6
CONTINUOUS
 10
7.7525431257
 20
6.021918202
 11
7.7510431257
 21
6.021918202
  0
LINE
  5
7B6
100
AcDbEntity
  8
0
100
AcDbLine
 62
7
  6
CONTINUOUS
 10
8.2910431257
 20
6.036918202
 11
8.2890431257
 21
6.036918202
  0
LINE
  5
7B7
100
AcDbEntity
  8
0
100
AcDbLine
 62
7
  6
CONTINUOUS
 10
8.2510431257
 20
6.036918202
 11
8.2490431257
 21
6.036918202
  0
LINE
  5
7B8
100
AcDbEntity
  8
0
100
AcDbLine
 62
7
  6
CONTINUOUS
 10
8.2110431257
 20
6.036918202
 11
8.2090431257
 21
6.036918202
  0
LINE
  5
7B9
100
AcDbEntity
  8
0
100
AcDbLine
 62
7
  6
CONTINUOUS
 10
8.1710431257
 20
6.036918202
 11
8.1690431257
 21
6.036918202
  0
LINE
  5
7BA
100
AcDbEntity
  8
0
100
AcDbLine
 62
7
  6
CONTINUOUS
 10
8.1310431257
 20
6.036918202
 11
8.1290431257
 21
6.036918202
  0
LINE
  5
7BB
100
AcDbEntity
  8
0
100
AcDbLine
 62
7
  6
CONTINUOUS
 10
8.0910431257
 20
6.036918202
 11
8.0890431257
 21
6.036918202
  0
LINE
  5
7BC
100
AcDbEntity
  8
0
100
AcDbLine
 62
7
  6
CONTINUOUS
 10
8.0510431257
 20
6.036918202
 11
8.0490431257
 21
6.036918202
  0
LINE
  5
7BD
100
AcDbEntity
  8
0
100
AcDbLine
 62
7
  6
CONTINUOUS
 10
8.0110431257
 20
6.036918202
 11
8.0090431257
 21
6.036918202
  0
LINE
  5
7BE
100
AcDbEntity
  8
0
100
AcDbLine
 62
7
  6
CONTINUOUS
 10
7.9710431257
 20
6.036918202
 11
7.9690431257
 21
6.036918202
  0
LINE
  5
7BF
100
AcDbEntity
  8
0
100
AcDbLine
 62
7
  6
CONTINUOUS
 10
7.9310431257
 20
6.036918202
 11
7.9290431257
 21
6.036918202
  0
LINE
  5
7C0
100
AcDbEntity
  8
0
100
AcDbLine
 62
7
  6
CONTINUOUS
 10
7.8910431257
 20
6.036918202
 11
7.8890431257
 21
6.036918202
  0
LINE
  5
7C1
100
AcDbEntity
  8
0
100
AcDbLine
 62
7
  6
CONTINUOUS
 10
7.8510431257
 20
6.036918202
 11
7.8490431257
 21
6.036918202
  0
LINE
  5
7C2
100
AcDbEntity
  8
0
100
AcDbLine
 62
7
  6
CONTINUOUS
 10
7.8110431257
 20
6.036918202
 11
7.8090431257
 21
6.036918202
  0
LINE
  5
7C3
100
AcDbEntity
  8
0
100
AcDbLine
 62
7
  6
CONTINUOUS
 10
7.7710431257
 20
6.036918202
 11
7.7690431257
 21
6.036918202
  0
LINE
  5
7C4
100
AcDbEntity
  8
0
100
AcDbLine
 62
7
  6
CONTINUOUS
 10
8.7810431257
 20
6.442418202
 11
8.7940431257
 21
6.442418202
  0
LINE
  5
7C5
100
AcDbEntity
  8
0
100
AcDbLine
 62
7
  6
CONTINUOUS
 10
8.7810431257
 20
6.470418202
 11
8.4010431257
 21
6.470418202
  0
LINE
  5
7C6
100
AcDbEntity
  8
0
100
AcDbLine
 62
7
  6
CONTINUOUS
 10
8.8740431257
 20
6.471918202
 11
8.7940431257
 21
6.471918202
  0
LINE
  5
7C7
100
AcDbEntity
  8
AXIS
100
AcDbLine
 62
7
  6
CONTINUOUS
 10
12.3801396125
 20
3.707918202
 11
12.1471396125
 21
3.707918202
  0
LINE
  5
7C8
100
AcDbEntity
  8
0
100
AcDbLine
 62
7
  6
CONTINUOUS
 10
12.0025071259
 20
4.460918202
 11
12.524772099
 21
4.460918202
  0
LINE
  5
7C9
100
AcDbEntity
  8
0
100
AcDbLine
 62
7
  6
CONTINUOUS
 10
11.9736396125
 20
4.510918202
 11
12.5536396125
 21
4.510918202
  0
LINE
  5
7CA
100
AcDbEntity
  8
0
100
AcDbLine
 62
7
  6
CONTINUOUS
 10
11.9686396125
 20
4.560918202
 11
12.5586396125
 21
4.560918202
  0
LINE
  5
7CB
100
AcDbEntity
  8
0
100
AcDbLine
 62
7
  6
CONTINUOUS
 10
12.0025071259
 20
4.460918202
 11
11.9736396125
 21
4.510918202
  0
LINE
  5
7CC
100
AcDbEntity
  8
0
100
AcDbLine
 62
7
  6
CONTINUOUS
 10
11.9686396125
 20
4.560918202
 11
11.9686396125
 21
4.9133525778
  0
LINE
  5
7CD
100
AcDbEntity
  8
0
100
AcDbLine
 62
7
  6
CONTINUOUS
 10
11.9736396125
 20
4.560918202
 11
11.9736396125
 21
4.510918202
  0
LINE
  5
7CE
100
AcDbEntity
  8
0
100
AcDbLine
 62
7
  6
CONTINUOUS
 10
12.0067349609
 20
4.9337426552
 11
12.0067349609
 21
4.9385014841
  0
LINE
  5
7CF
100
AcDbEntity
  8
AXIS
100
AcDbLine
 62
7
  6
CONTINUOUS
 10
12.1471396125
 20
4.460918202
 11
12.1471396125
 21
3.707918202
  0
LINE
  5
7D0
100
AcDbEntity
  8
AXIS_COSMETIC_THREADS
100
AcDbLine
 62
7
  6
CONTINUOUS
 10
12.1471396125
 20
4.460918202
 11
12.1471396125
 21
3.707918202
  0
LINE
  5
7D1
100
AcDbEntity
  8
0
100
AcDbLine
 62
7
  6
CONTINUOUS
 10
12.1716396125
 20
5.837918202
 11
12.1716396125
 21
5.712918202
  0
LWPOLYLINE
  5
7D2
100
AcDbEntity
  8
0
100
AcDbPolyline
 62
9
  6
CONTINUOUS
 90
7
 70
0
 10
12.006531906
 20
4.9383305707
 10
11.9972788131
 20
4.9305421486
 10
11.988079888
 20
4.9239318947
 10
11.9800056389
 20
4.9189962814
 10
11.9737884309
 20
4.9157239622
 10
11.9699280341
 20
4.9139174749
 10
11.9686396125
 20
4.9133525778
  0
LWPOLYLINE
  5
7D3
100
AcDbEntity
  8
0
100
AcDbPolyline
 62
9
  6
CONTINUOUS
 90
7
 70
0
 10
12.5586396125
 20
4.9133525778
 10
12.5573511374
 20
4.9139174964
 10
12.55349062
 20
4.9157240364
 10
12.5472732958
 20
4.9189964109
 10
12.5391990096
 20
4.9239320401
 10
12.5300001789
 20
4.9305422437
 10
12.5228887882
 20
4.9365280493
  0
LINE
  5
7D4
100
AcDbEntity
  8
0
100
AcDbLine
 62
7
  6
CONTINUOUS
 10
12.3566396125
 20
5.712918202
 11
12.3566396125
 21
5.837918202
  0
LINE
  5
7D5
100
AcDbEntity
  8
AXIS
100
AcDbLine
 62
7
  6
CONTINUOUS
 10
12.3801396125
 20
4.460918202
 11
12.3801396125
 21
3.707918202
  0
LINE
  5
7D6
100
AcDbEntity
  8
AXIS_COSMETIC_THREADS
100
AcDbLine
 62
7
  6
CONTINUOUS
 10
12.3801396125
 20
4.460918202
 11
12.3801396125
 21
3.707918202
  0
LINE
  5
7D7
100
AcDbEntity
  8
0
100
AcDbLine
 62
7
  6
CONTINUOUS
 10
12.520544264
 20
4.9337426552
 11
12.520544264
 21
4.9385014841
  0
LINE
  5
7D8
100
AcDbEntity
  8
0
100
AcDbLine
 62
7
  6
CONTINUOUS
 10
12.5536396125
 20
4.560918202
 11
12.5536396125
 21
4.510918202
  0
LINE
  5
7D9
100
AcDbEntity
  8
0
100
AcDbLine
 62
7
  6
CONTINUOUS
 10
12.5586396125
 20
4.560918202
 11
12.5586396125
 21
4.9133525778
  0
LINE
  5
7DA
100
AcDbEntity
  8
0
100
AcDbLine
 62
7
  6
CONTINUOUS
 10
12.5536396125
 20
4.510918202
 11
12.524772099
 21
4.460918202
  0
LINE
  5
7DB
100
AcDbEntity
  8
0
100
AcDbLine
 62
9
  6
CONTINUOUS
 10
11.5346396125
 20
5.682918202
 11
11.4746396125
 21
5.682918202
  0
LINE
  5
7DC
100
AcDbEntity
  8
0
100
AcDbLine
 62
7
  6
CONTINUOUS
 10
12.2016396125
 20
5.682918202
 11
12.3266396125
 21
5.682918202
  0
LINE
  5
7DD
100
AcDbEntity
  8
0
100
AcDbLine
 62
9
  6
CONTINUOUS
 10
12.9926396125
 20
5.682918202
 11
13.0526396125
 21
5.682918202
  0
LINE
  5
7DE
100
AcDbEntity
  8
AXIS
100
AcDbLine
 62
7
  6
CONTINUOUS
 10
11.8759426524
 20
5.710918202
 11
11.9713365725
 21
5.710918202
  0
LWPOLYLINE
  5
7DF
100
AcDbEntity
  8
0
100
AcDbPolyline
 62
9
  6
CONTINUOUS
 90
26
 70
0
 10
12.9926396125
 20
5.682918202
 10
12.9859212389
 20
5.5867196767
 10
12.9663462239
 20
5.4926532499
 10
12.9346522197
 20
5.4016058865
 10
12.8915180847
 20
5.3145110771
 10
12.8377212944
 20
5.2323821464
 10
12.7742630853
 20
5.1562468434
 10
12.702426092
 20
5.0870214376
 10
12.6243143042
 20
5.0257687434
 10
12.5427771832
 20
4.9740791596
 10
12.4601971216
 20
4.9346560056
 10
12.3796766131
 20
4.9090174537
 10
12.301954653
 20
4.896495913
 10
12.2253245719
 20
4.896495913
 10
12.1476026118
 20
4.9090174537
 10
12.0670821033
 20
4.9346560056
 10
11.9845020417
 20
4.9740791596
 10
11.9029649207
 20
5.0257687434
 10
11.8248531329
 20
5.0870214376
 10
11.7530161396
 20
5.1562468434
 10
11.6895579305
 20
5.2323821464
 10
11.6357611402
 20
5.3145110771
 10
11.5926270052
 20
5.4016058865
 10
11.560933001
 20
5.4926532499
 10
11.541357986
 20
5.5867196767
 10
11.5346396125
 20
5.682918202
  0
LINE
  5
7E0
100
AcDbEntity
  8
AXIS
100
AcDbLine
 62
7
  6
CONTINUOUS
 10
11.9713365725
 20
5.740918202
 11
11.8759426524
 21
5.740918202
  0
LINE
  5
7E1
100
AcDbEntity
  8
0
100
AcDbLine
 62
7
  6
CONTINUOUS
 10
12.0534611169
 20
5.747918202
 11
12.0617100217
 21
5.747918202
  0
LINE
  5
7E2
100
AcDbEntity
  8
0
100
AcDbLine
 62
7
  6
CONTINUOUS
 10
12.0488144979
 20
5.787918202
 11
12.0388149493
 21
5.787918202
  0
LINE
  5
7E3
100
AcDbEntity
  8
0
100
AcDbLine
 62
7
  6
CONTINUOUS
 10
12.3266396125
 20
5.867918202
 11
12.2016396125
 21
5.867918202
  0
LINE
  5
7E4
100
AcDbEntity
  8
0
100
AcDbLine
 62
7
  6
CONTINUOUS
 10
3.509939803
 20
9.2475764803
 11
3.509939803
 21
9.1675764803
  0
LINE
  5
7E5
100
AcDbEntity
  8
0
100
AcDbLine
 62
7
  6
CONTINUOUS
 10
3.511439803
 20
9.1545764803
 11
3.511439803
 21
8.7745764803
  0
LINE
  5
7E6
100
AcDbEntity
  8
0
100
AcDbLine
 62
7
  6
CONTINUOUS
 10
3.539439803
 20
9.1545764803
 11
3.539439803
 21
9.1675764803
  0
LINE
  5
7E7
100
AcDbEntity
  8
0
100
AcDbLine
 62
7
  6
CONTINUOUS
 10
3.9449871023
 20
8.1324724102
 11
3.9521642416
 21
8.1245764803
  0
LINE
  5
7E8
100
AcDbEntity
  8
0
100
AcDbLine
 62
7
  6
CONTINUOUS
 10
4.652939803
 20
8.1945764803
 11
4.6476529883
 21
8.1934748585
  0
LWPOLYLINE
  5
7E9
100
AcDbEntity
  8
0
100
AcDbPolyline
 62
7
  6
CONTINUOUS
 90
18
 70
0
 10
4.6528925038
 20
8.1524724102
 10
4.6474751739
 20
8.1514564388
 10
4.6312498749
 20
8.1503363908
 10
4.6047653216
 20
8.1492163599
 10
4.5688387423
 20
8.1480963216
 10
4.5245770813
 20
8.1469762279
 10
4.4733474206
 20
8.1458561111
 10
4.4167343137
 20
8.14473603
 10
4.3564868387
 20
8.1436159969
 10
4.2944619293
 20
8.1424959498
 10
4.2325738543
 20
8.1413758768
 10
4.1727359422
 20
8.1402558247
 10
4.1167931723
 20
8.1391357455
 10
4.0664731441
 20
8.1380156385
 10
4.0233318588
 20
8.1368955551
 10
3.9887010547
 20
8.1357755027
 10
3.9636477657
 20
8.134655402
 10
3.9489471459
 20
8.1335352897
  0
LWPOLYLINE
  5
7EA
100
AcDbEntity
  8
0
100
AcDbPolyline
 62
7
  6
CONTINUOUS
 90
3
 70
0
 10
4.6510000769
 20
8.1539097315
 10
4.6452050577
 20
8.1532432338
 10
4.6356138098
 20
8.1525764803
  0
LWPOLYLINE
  5
7EB
100
AcDbEntity
  8
0
100
AcDbPolyline
 62
7
  6
CONTINUOUS
 90
7
 70
0
 10
4.4760668165
 20
8.1245764803
 10
4.5236233856
 20
8.1256889803
 10
4.5643360233
 20
8.1268014803
 10
4.59696461
 20
8.1279139803
 10
4.620515269
 20
8.1290264803
 10
4.6342706399
 20
8.1301389803
 10
4.637939803
 20
8.1310764803
  0
LWPOLYLINE
  5
7EC
100
AcDbEntity
  8
0
100
AcDbPolyline
 62
7
  6
CONTINUOUS
 90
12
 70
0
 10
4.2198018247
 20
8.1245764803
 10
4.2789826006
 20
8.1257014803
 10
4.3387849808
 20
8.1268264803
 10
4.3973463086
 20
8.1279514803
 10
4.4528425825
 20
8.1290764803
 10
4.5035452674
 20
8.1302014803
 10
4.5478751338
 20
8.1313264803
 10
4.5844514453
 20
8.1324514803
 10
4.6121349646
 20
8.1335764803
 10
4.6300634368
 20
8.1347014803
 10
4.6376784463
 20
8.1358264803
 10
4.6378904118
 20
8.1359678063
  0
LINE
  5
7ED
100
AcDbEntity
  8
0
100
AcDbLine
 62
7
  6
CONTINUOUS
 10
4.6438936993
 20
8.1245764803
 11
3.9521659509
 21
8.1245764803
  0
LINE
  5
7EE
100
AcDbEntity
  8
0
100
AcDbLine
 62
7
  6
CONTINUOUS
 10
3.9449871023
 20
8.1724724102
 11
3.9599891943
 21
8.1559678063
  0
LINE
  5
7EF
100
AcDbEntity
  8
0
100
AcDbLine
 62
7
  6
CONTINUOUS
 10
3.9449871023
 20
8.2124724102
 11
3.9599891943
 21
8.1959678063
  0
LINE
  5
7F0
100
AcDbEntity
  8
0
100
AcDbLine
 62
7
  6
CONTINUOUS
 10
4.652939803
 20
8.2345764803
 11
4.6476704372
 21
8.2334766824
  0
LINE
  5
7F1
100
AcDbEntity
  8
0
100
AcDbLine
 62
7
  6
CONTINUOUS
 10
4.631721405
 20
8.2148552413
 11
4.6378904118
 21
8.2159678063
  0
LWPOLYLINE
  5
7F2
100
AcDbEntity
  8
0
100
AcDbPolyline
 62
7
  6
CONTINUOUS
 90
3
 70
0
 10
4.6213479621
 20
8.1690764803
 10
4.6347990559
 20
8.1702092236
 10
4.637939803
 20
8.1710764803
  0
LWPOLYLINE
  5
7F3
100
AcDbEntity
  8
0
100
AcDbPolyline
 62
7
  6
CONTINUOUS
 90
3
 70
0
 10
4.6213479621
 20
8.1740764803
 10
4.6347990559
 20
8.1752092236
 10
4.6378904118
 20
8.1759678063
  0
LWPOLYLINE
  5
7F4
100
AcDbEntity
  8
0
100
AcDbPolyline
 62
7
  6
CONTINUOUS
 90
9
 70
0
 10
4.6476529883
 20
8.1934748585
 10
4.6319537286
 20
8.1923734102
 10
4.6061593922
 20
8.1912664773
 10
4.5712306824
 20
8.1901632141
 10
4.5275022832
 20
8.1890448061
 10
4.4764119524
 20
8.1879196225
 10
4.4203333267
 20
8.1868047969
 10
4.3612614817
 20
8.1857031207
 10
4.237538408
 20
8.1834666485
  0
LWPOLYLINE
  5
7F5
100
AcDbEntity
  8
0
100
AcDbPolyline
 62
7
  6
CONTINUOUS
 90
4
 70
0
 10
4.6356138098
 20
8.1905764803
 10
4.6452050577
 20
8.1912432338
 10
4.6510000769
 20
8.1919097315
 10
4.6528925038
 20
8.1924724102
  0
LWPOLYLINE
  5
7F6
100
AcDbEntity
  8
0
100
AcDbPolyline
 62
7
  6
CONTINUOUS
 90
16
 70
0
 10
3.950452427
 20
8.1737014423
 10
3.9670739381
 20
8.1748396339
 10
3.9941357222
 20
8.1759728961
 10
4.0301771297
 20
8.1770881266
 10
4.0746282327
 20
8.1782076115
 10
4.1265056422
 20
8.179337559
 10
4.1834261706
 20
8.1804603757
 10
4.2437781667
 20
8.1815804159
 10
4.3063947274
 20
8.1827105566
 10
4.368376936
 20
8.1838333599
 10
4.4277099438
 20
8.1849466063
 10
4.4839328937
 20
8.1860770835
 10
4.534674608
 20
8.1872156752
 10
4.5775538058
 20
8.1883442839
 10
4.6113717358
 20
8.1894603351
 10
4.6356138098
 20
8.1905764803
  0
LWPOLYLINE
  5
7F7
100
AcDbEntity
  8
0
100
AcDbPolyline
 62
7
  6
CONTINUOUS
 90
9
 70
0
 10
4.237538408
 20
8.1834666485
 10
4.1781866644
 20
8.1823604192
 10
4.122311302
 20
8.1812508587
 10
4.0716522596
 20
8.18013812
 10
4.028309174
 20
8.1790362653
 10
3.9930237539
 20
8.1779333666
 10
3.9665608589
 20
8.1768129733
 10
3.9503234215
 20
8.1756881673
 10
3.9449871023
 20
8.1746805503
  0
LINE
  5
7F8
100
AcDbEntity
  8
0
100
AcDbLine
 62
7
  6
CONTINUOUS
 10
3.9449871023
 20
8.2524724102
 11
3.9599891943
 21
8.2359678063
  0
LINE
  5
7F9
100
AcDbEntity
  8
0
100
AcDbLine
 62
7
  6
CONTINUOUS
 10
3.9449871023
 20
8.2924724102
 11
3.9599891943
 21
8.2759678063
  0
LINE
  5
7FA
100
AcDbEntity
  8
0
100
AcDbLine
 62
7
  6
CONTINUOUS
 10
3.9449871023
 20
8.3324724102
 11
3.9599891943
 21
8.3159678063
  0
LINE
  5
7FB
100
AcDbEntity
  8
0
100
AcDbLine
 62
7
  6
CONTINUOUS
 10
3.9449398031
 20
8.1325764659
 11
3.9449871023
 21
8.1324724102
  0
LINE
  5
7FC
100
AcDbEntity
  8
0
100
AcDbLine
 62
7
  6
CONTINUOUS
 10
4.6352902596
 20
8.2952800201
 11
4.6378904118
 21
8.2959678063
  0
LINE
  5
7FD
100
AcDbEntity
  8
0
100
AcDbLine
 62
7
  6
CONTINUOUS
 10
3.9489471459
 20
8.1335352897
 11
3.9449398031
 21
8.1325764659
  0
LWPOLYLINE
  5
7FE
100
AcDbEntity
  8
0
100
AcDbPolyline
 62
7
  6
CONTINUOUS
 90
17
 70
0
 10
3.959939803
 20
8.1560764803
 10
3.9652191965
 20
8.1572014803
 10
3.9808929402
 20
8.1583264803
 10
4.0064728462
 20
8.1594514803
 10
4.0411621807
 20
8.1605764803
 10
4.0838804797
 20
8.1617014803
 10
4.1332972022
 20
8.1628264803
 10
4.1878731722
 20
8.1639514803
 10
4.2459085194
 20
8.1650764803
 10
4.3055956248
 20
8.1662014803
 10
4.3650754222
 20
8.1673264803
 10
4.4224953025
 20
8.1684514803
 10
4.4760668165
 20
8.1695764803
 10
4.5241213795
 20
8.1707014803
 10
4.5651622426
 20
8.1718264803
 10
4.5979111117
 20
8.1729514803
 10
4.6213479621
 20
8.1740764803
  0
LINE
  5
7FF
100
AcDbEntity
  8
0
100
AcDbLine
 62
7
  6
CONTINUOUS
 10
4.652939803
 20
8.2745764803
 11
4.6476579318
 21
8.2734753749
  0
LINE
  5
800
100
AcDbEntity
  8
0
100
AcDbLine
 62
7
  6
CONTINUOUS
 10
4.652939803
 20
8.3145764803
 11
4.6476294182
 21
8.3134723994
  0
LINE
  5
801
100
AcDbEntity
  8
0
100
AcDbLine
 62
7
  6
CONTINUOUS
 10
3.944939803
 20
8.1725764803
 11
3.950452427
 21
8.1737014423
  0
LWPOLYLINE
  5
802
100
AcDbEntity
  8
0
100
AcDbPolyline
 62
7
  6
CONTINUOUS
 90
17
 70
0
 10
3.9449871023
 20
8.1346805503
 10
3.9511922409
 20
8.1357747635
 10
3.9681565088
 20
8.1368949232
 10
3.9953349384
 20
8.1380150667
 10
4.0318860997
 20
8.1391351458
 10
4.0766833827
 20
8.1402552401
 10
4.1283450049
 20
8.1413753721
 10
4.1852729997
 20
8.1424954783
 10
4.2457101526
 20
8.1436155745
 10
4.3077929296
 20
8.144735708
 10
4.3696008585
 20
8.1458558144
 10
4.429225157
 20
8.1469758857
 10
4.4848298862
 20
8.1480960209
 10
4.5346959127
 20
8.1492161888
 10
4.5772803358
 20
8.1503363181
 10
4.6112687715
 20
8.151456399
 10
4.6356138098
 20
8.1525764803
  0
LWPOLYLINE
  5
803
100
AcDbEntity
  8
0
100
AcDbPolyline
 62
7
  6
CONTINUOUS
 90
17
 70
0
 10
3.9599891943
 20
8.1511851543
 10
3.9671188903
 20
8.1523889803
 10
3.9842380692
 20
8.1535014803
 10
4.0109431601
 20
8.1546139803
 10
4.0464207179
 20
8.1557264803
 10
4.089590085
 20
8.1568389803
 10
4.1391363093
 20
8.1579514803
 10
4.1935501974
 20
8.1590639803
 10
4.2511742854
 20
8.1601764803
 10
4.3102533259
 20
8.1612889803
 10
4.368987753
 20
8.1624014803
 10
4.4255884979
 20
8.1635139803
 10
4.4783314844
 20
8.1646264803
 10
4.5256101448
 20
8.1657389803
 10
4.5659843565
 20
8.1668514803
 10
4.5982243086
 20
8.1679639803
 10
4.6213479621
 20
8.1690764803
  0
LWPOLYLINE
  5
804
100
AcDbEntity
  8
0
100
AcDbPolyline
 62
7
  6
CONTINUOUS
 90
18
 70
0
 10
3.9617317825
 20
8.1917313475
 10
3.9732168001
 20
8.1928640909
 10
3.9949868378
 20
8.1939968342
 10
4.0263544855
 20
8.1951295776
 10
4.0663292792
 20
8.196262321
 10
4.113648976
 20
8.1973950643
 10
4.1668194105
 20
8.1985278077
 10
4.2241616747
 20
8.1996605511
 10
4.2838651309
 20
8.2007932944
 10
4.3440445845
 20
8.2019260378
 10
4.4027998108
 20
8.2030587811
 10
4.4582755566
 20
8.2041915245
 10
4.5087201212
 20
8.2053242679
 10
4.5525406687
 20
8.2064570112
 10
4.5883535226
 20
8.2075897546
 10
4.6150278574
 20
8.208722498
 10
4.631721405
 20
8.2098552413
 10
4.637939803
 20
8.2110764803
  0
LWPOLYLINE
  5
805
100
AcDbEntity
  8
0
100
AcDbPolyline
 62
7
  6
CONTINUOUS
 90
8
 70
0
 10
4.6476704372
 20
8.2334766824
 10
4.6319183492
 20
8.2323715352
 10
4.6060087457
 20
8.2312610284
 10
4.5710328034
 20
8.2301576482
 10
4.5273201385
 20
8.2290405177
 10
4.4763164626
 20
8.227917638
 10
4.4203956771
 20
8.2268059906
 10
4.3610789288
 20
8.2256997858
  0
LWPOLYLINE
  5
806
100
AcDbEntity
  8
0
100
AcDbPolyline
 62
7
  6
CONTINUOUS
 90
8
 70
0
 10
4.6476579318
 20
8.2734753749
 10
4.6317343778
 20
8.2723618097
 10
4.605615682
 20
8.2712468493
 10
4.5704980826
 20
8.2701426371
 10
4.5267965922
 20
8.2690282052
 10
4.4760369872
 20
8.2679118319
 10
4.420527862
 20
8.2668085215
 10
4.3611860335
 20
8.2657017424
  0
LWPOLYLINE
  5
807
100
AcDbEntity
  8
0
100
AcDbPolyline
 62
7
  6
CONTINUOUS
 90
8
 70
0
 10
3.9503234215
 20
8.2136881673
 10
3.9665608589
 20
8.2148129733
 10
3.9930237539
 20
8.2159333666
 10
4.028309174
 20
8.2170362653
 10
4.0716522596
 20
8.21813812
 10
4.122311302
 20
8.2192508587
 10
4.1781866644
 20
8.2203604192
 10
4.237538408
 20
8.2214666485
  0
LWPOLYLINE
  5
808
100
AcDbEntity
  8
0
100
AcDbPolyline
 62
7
  6
CONTINUOUS
 90
10
 70
0
 10
4.237538408
 20
8.2214666485
 10
4.3612614817
 20
8.2237031207
 10
4.4203333267
 20
8.2248047969
 10
4.4764119524
 20
8.2259196225
 10
4.5275022832
 20
8.2270448061
 10
4.5712306824
 20
8.2281632141
 10
4.6061593922
 20
8.2292664773
 10
4.6319537286
 20
8.2303734102
 10
4.6476529883
 20
8.2314748585
 10
4.6528925038
 20
8.2324724102
  0
LWPOLYLINE
  5
809
100
AcDbEntity
  8
0
100
AcDbPolyline
 62
7
  6
CONTINUOUS
 90
10
 70
0
 10
4.3610789288
 20
8.2256997858
 10
4.2368633418
 20
8.2234543194
 10
4.1775289205
 20
8.2223478313
 10
4.1218423739
 20
8.2212411236
 10
4.071523348
 20
8.2201350955
 10
4.0282594294
 20
8.2190348773
 10
3.9929880891
 20
8.2179320918
 10
3.9665443009
 20
8.2168121078
 10
3.9503192605
 20
8.2156877366
 10
3.9449871023
 20
8.2146805503
  0
LWPOLYLINE
  5
80A
100
AcDbEntity
  8
0
100
AcDbPolyline
 62
7
  6
CONTINUOUS
 90
10
 70
0
 10
4.2368633418
 20
8.2614543194
 10
4.3610789288
 20
8.2636997858
 10
4.4203956771
 20
8.2648059906
 10
4.4763164626
 20
8.265917638
 10
4.5273201385
 20
8.2670405177
 10
4.5710328034
 20
8.2681576482
 10
4.6060087457
 20
8.2692610284
 10
4.6319183492
 20
8.2703715352
 10
4.6476704372
 20
8.2714766824
 10
4.6528925038
 20
8.2724724102
  0
LWPOLYLINE
  5
80B
100
AcDbEntity
  8
0
100
AcDbPolyline
 62
7
  6
CONTINUOUS
 90
10
 70
0
 10
4.3611860335
 20
8.2657017424
 10
4.2369046821
 20
8.2634550745
 10
4.1775402236
 20
8.2623480477
 10
4.1219468498
 20
8.2612432933
 10
4.0717947159
 20
8.2601414609
 10
4.0283581979
 20
8.2590376327
 10
3.9930384049
 20
8.2579338902
 10
3.9665674225
 20
8.2568133162
 10
3.9503250751
 20
8.2556883385
 10
3.9449871023
 20
8.2546805503
  0
LINE
  5
80C
100
AcDbEntity
  8
0
100
AcDbLine
 62
7
  6
CONTINUOUS
 10
3.9449871023
 20
8.3724724102
 11
3.9599891943
 21
8.3559678063
  0
LINE
  5
80D
100
AcDbEntity
  8
0
100
AcDbLine
 62
7
  6
CONTINUOUS
 10
3.9449871023
 20
8.4124724102
 11
3.9599891943
 21
8.3959678063
  0
LINE
  5
80E
100
AcDbEntity
  8
0
100
AcDbLine
 62
7
  6
CONTINUOUS
 10
4.652939803
 20
8.3545764803
 11
4.6475615323
 21
8.3534653468
  0
LINE
  5
80F
100
AcDbEntity
  8
0
100
AcDbLine
 62
7
  6
CONTINUOUS
 10
3.944939803
 20
8.2125764803
 11
3.9503234215
 21
8.2136881673
  0
LINE
  5
810
100
AcDbEntity
  8
0
100
AcDbLine
 62
7
  6
CONTINUOUS
 10
4.652939803
 20
8.3945764803
 11
4.6475542112
 21
8.3934645889
  0
LINE
  5
811
100
AcDbEntity
  8
0
100
AcDbLine
 62
7
  6
CONTINUOUS
 10
4.6324195743
 20
8.3349260378
 11
4.6378904118
 21
8.3359678063
  0
LWPOLYLINE
  5
812
100
AcDbEntity
  8
0
100
AcDbPolyline
 62
7
  6
CONTINUOUS
 90
19
 70
0
 10
3.9603183585
 20
8.2313773652
 10
3.9684992654
 20
8.2325101086
 10
3.987114153
 20
8.2336428519
 10
4.0155752382
 20
8.2347755953
 10
4.0529838346
 20
8.2359083387
 10
4.0981587296
 20
8.237041082
 10
4.1496734818
 20
8.2381738254
 10
4.205901463
 20
8.2393065688
 10
4.2650672202
 20
8.2404393121
 10
4.325302537
 20
8.2415720555
 10
4.3847054249
 20
8.2427047988
 10
4.44140018
 20
8.2438375422
 10
4.4935966105
 20
8.2449702856
 10
4.5396465632
 20
8.2461030289
 10
4.5780959664
 20
8.2472357723
 10
4.6077307427
 20
8.2483685157
 10
4.6276151453
 20
8.249501259
 10
4.6371213048
 20
8.2506340024
 10
4.637939803
 20
8.2510764803
  0
LWPOLYLINE
  5
813
100
AcDbEntity
  8
0
100
AcDbPolyline
 62
7
  6
CONTINUOUS
 90
8
 70
0
 10
4.6476294182
 20
8.3134723994
 10
4.6315884263
 20
8.3123541232
 10
4.6053392824
 20
8.3112369114
 10
4.5701428826
 20
8.310132689
 10
4.5264645459
 20
8.3090204066
 10
4.4758755295
 20
8.307908479
 10
4.4205000012
 20
8.306807988
 10
4.3611571477
 20
8.3057012147
  0
LWPOLYLINE
  5
814
100
AcDbEntity
  8
0
100
AcDbPolyline
 62
7
  6
CONTINUOUS
 90
8
 70
0
 10
3.9503192605
 20
8.2536877366
 10
3.9665443009
 20
8.2548121078
 10
3.9929880891
 20
8.2559320918
 10
4.0282594294
 20
8.2570348773
 10
4.071523348
 20
8.2581350955
 10
4.1218423739
 20
8.2592411236
 10
4.1775289205
 20
8.2603478313
 10
4.2368633418
 20
8.2614543194
  0
LWPOLYLINE
  5
815
100
AcDbEntity
  8
0
100
AcDbPolyline
 62
7
  6
CONTINUOUS
 90
8
 70
0
 10
3.9503250751
 20
8.2936883385
 10
3.9665674225
 20
8.2948133162
 10
3.9930384049
 20
8.2959338902
 10
4.0283581979
 20
8.2970376327
 10
4.0717947159
 20
8.2981414609
 10
4.1219468498
 20
8.2992432933
 10
4.1775402236
 20
8.3003480477
 10
4.2369046821
 20
8.3014550745
  0
LWPOLYLINE
  5
816
100
AcDbEntity
  8
0
100
AcDbPolyline
 62
7
  6
CONTINUOUS
 90
8
 70
0
 10
4.6475615323
 20
8.3534653468
 10
4.6313412967
 20
8.352341166
 10
4.6049076273
 20
8.3512214447
 10
4.5696141176
 20
8.3501179141
 10
4.5260099884
 20
8.3490097436
 10
4.4757325089
 20
8.3479055098
 10
4.4203700986
 20
8.3468055009
 10
4.3610536584
 20
8.3456993242
  0
LWPOLYLINE
  5
817
100
AcDbEntity
  8
0
100
AcDbPolyline
 62
7
  6
CONTINUOUS
 90
10
 70
0
 10
4.2369046821
 20
8.3014550745
 10
4.3611860335
 20
8.3037017424
 10
4.420527862
 20
8.3048085215
 10
4.4760369872
 20
8.3059118319
 10
4.5267965922
 20
8.3070282052
 10
4.5704980826
 20
8.3081426371
 10
4.605615682
 20
8.3092468493
 10
4.6317343778
 20
8.3103618097
 10
4.6476579318
 20
8.3114753749
 10
4.6528925038
 20
8.3124724102
  0
LWPOLYLINE
  5
818
100
AcDbEntity
  8
0
100
AcDbPolyline
 62
7
  6
CONTINUOUS
 90
10
 70
0
 10
4.3611571477
 20
8.3057012147
 10
4.2368857864
 20
8.3034547294
 10
4.1775292272
 20
8.3023478372
 10
4.1220173672
 20
8.3012447575
 10
4.0718733084
 20
8.3001433034
 10
4.0283539933
 20
8.2990375155
 10
3.9930308667
 20
8.2979336208
 10
3.9665639049
 20
8.2968131324
 10
3.950324192
 20
8.2956882471
 10
3.9449871023
 20
8.2946805503
  0
LINE
  5
819
100
AcDbEntity
  8
0
100
AcDbLine
 62
7
  6
CONTINUOUS
 10
3.9449871023
 20
8.4524724102
 11
3.9599891943
 21
8.4359678063
  0
LINE
  5
81A
100
AcDbEntity
  8
0
100
AcDbLine
 62
7
  6
CONTINUOUS
 10
3.9449871023
 20
8.4924724102
 11
3.9599891943
 21
8.4759678063
  0
LINE
  5
81B
100
AcDbEntity
  8
0
100
AcDbLine
 62
7
  6
CONTINUOUS
 10
3.9449871023
 20
8.5324724102
 11
3.9599891943
 21
8.5159678063
  0
LINE
  5
81C
100
AcDbEntity
  8
0
100
AcDbLine
 62
7
  6
CONTINUOUS
 10
3.944939803
 20
8.6545764803
 11
3.944939803
 21
8.6525764803
  0
LINE
  5
81D
100
AcDbEntity
  8
0
100
AcDbLine
 62
7
  6
CONTINUOUS
 10
3.944939803
 20
8.6145764803
 11
3.944939803
 21
8.6125764803
  0
LINE
  5
81E
100
AcDbEntity
  8
0
100
AcDbLine
 62
7
  6
CONTINUOUS
 10
3.944939803
 20
8.5745764803
 11
3.944939803
 21
8.5725764803
  0
LINE
  5
81F
100
AcDbEntity
  8
0
100
AcDbLine
 62
7
  6
CONTINUOUS
 10
3.944939803
 20
8.5345764803
 11
3.944939803
 21
8.5325764803
  0
LINE
  5
820
100
AcDbEntity
  8
0
100
AcDbLine
 62
7
  6
CONTINUOUS
 10
3.944939803
 20
8.4945764803
 11
3.944939803
 21
8.4925764803
  0
LINE
  5
821
100
AcDbEntity
  8
0
100
AcDbLine
 62
7
  6
CONTINUOUS
 10
3.944939803
 20
8.4545764803
 11
3.944939803
 21
8.4525764803
  0
LINE
  5
822
100
AcDbEntity
  8
0
100
AcDbLine
 62
7
  6
CONTINUOUS
 10
3.944939803
 20
8.4145764803
 11
3.944939803
 21
8.4125764803
  0
LINE
  5
823
100
AcDbEntity
  8
0
100
AcDbLine
 62
7
  6
CONTINUOUS
 10
3.944939803
 20
8.3745764803
 11
3.944939803
 21
8.3725764803
  0
LINE
  5
824
100
AcDbEntity
  8
0
100
AcDbLine
 62
7
  6
CONTINUOUS
 10
3.944939803
 20
8.3345764803
 11
3.944939803
 21
8.3325764803
  0
LINE
  5
825
100
AcDbEntity
  8
0
100
AcDbLine
 62
7
  6
CONTINUOUS
 10
3.944939803
 20
8.2945764803
 11
3.944939803
 21
8.2925764803
  0
LINE
  5
826
100
AcDbEntity
  8
0
100
AcDbLine
 62
7
  6
CONTINUOUS
 10
3.944939803
 20
8.2545764803
 11
3.944939803
 21
8.2525764803
  0
LINE
  5
827
100
AcDbEntity
  8
0
100
AcDbLine
 62
7
  6
CONTINUOUS
 10
3.944939803
 20
8.2145764803
 11
3.944939803
 21
8.2125764803
  0
LINE
  5
828
100
AcDbEntity
  8
0
100
AcDbLine
 62
7
  6
CONTINUOUS
 10
3.944939803
 20
8.1745764803
 11
3.944939803
 21
8.1725764803
  0
LINE
  5
829
100
AcDbEntity
  8
0
100
AcDbLine
 62
7
  6
CONTINUOUS
 10
3.944939803
 20
8.1345764803
 11
3.944939803
 21
8.1325764803
  0
LINE
  5
82A
100
AcDbEntity
  8
0
100
AcDbLine
 62
7
  6
CONTINUOUS
 10
3.959939803
 20
8.6360764803
 11
3.959939803
 21
8.6310764803
  0
LINE
  5
82B
100
AcDbEntity
  8
0
100
AcDbLine
 62
7
  6
CONTINUOUS
 10
3.959939803
 20
8.5960764803
 11
3.959939803
 21
8.5910764803
  0
LINE
  5
82C
100
AcDbEntity
  8
0
100
AcDbLine
 62
7
  6
CONTINUOUS
 10
3.959939803
 20
8.5560764803
 11
3.959939803
 21
8.5510764803
  0
LINE
  5
82D
100
AcDbEntity
  8
0
100
AcDbLine
 62
7
  6
CONTINUOUS
 10
3.959939803
 20
8.5160764803
 11
3.959939803
 21
8.5110764803
  0
LINE
  5
82E
100
AcDbEntity
  8
0
100
AcDbLine
 62
7
  6
CONTINUOUS
 10
3.959939803
 20
8.4760764803
 11
3.959939803
 21
8.4710764803
  0
LINE
  5
82F
100
AcDbEntity
  8
0
100
AcDbLine
 62
7
  6
CONTINUOUS
 10
3.959939803
 20
8.4360764803
 11
3.959939803
 21
8.4310764803
  0
LINE
  5
830
100
AcDbEntity
  8
0
100
AcDbLine
 62
7
  6
CONTINUOUS
 10
3.959939803
 20
8.3960764803
 11
3.959939803
 21
8.3910764803
  0
LINE
  5
831
100
AcDbEntity
  8
0
100
AcDbLine
 62
7
  6
CONTINUOUS
 10
3.959939803
 20
8.3560764803
 11
3.959939803
 21
8.3510764803
  0
LINE
  5
832
100
AcDbEntity
  8
0
100
AcDbLine
 62
7
  6
CONTINUOUS
 10
3.959939803
 20
8.3160764803
 11
3.959939803
 21
8.3110764803
  0
LINE
  5
833
100
AcDbEntity
  8
0
100
AcDbLine
 62
7
  6
CONTINUOUS
 10
3.959939803
 20
8.2760764803
 11
3.959939803
 21
8.2710764803
  0
LINE
  5
834
100
AcDbEntity
  8
0
100
AcDbLine
 62
7
  6
CONTINUOUS
 10
3.959939803
 20
8.2360764803
 11
3.959939803
 21
8.2310764803
  0
LINE
  5
835
100
AcDbEntity
  8
0
100
AcDbLine
 62
7
  6
CONTINUOUS
 10
3.959939803
 20
8.1960764803
 11
3.959939803
 21
8.1910764803
  0
LINE
  5
836
100
AcDbEntity
  8
0
100
AcDbLine
 62
7
  6
CONTINUOUS
 10
3.959939803
 20
8.1560764803
 11
3.959939803
 21
8.1510764803
  0
LINE
  5
837
100
AcDbEntity
  8
0
100
AcDbLine
 62
7
  6
CONTINUOUS
 10
3.960189803
 20
8.7020764803
 11
3.960189803
 21
8.6645764803
  0
LWPOLYLINE
  5
838
100
AcDbEntity
  8
0
100
AcDbPolyline
 62
7
  6
CONTINUOUS
 90
18
 70
0
 10
3.959939803
 20
8.2760764803
 10
3.9648031034
 20
8.2771561263
 10
3.9802053033
 20
8.2782888696
 10
4.0056718545
 20
8.279421613
 10
4.0403986259
 20
8.2805543564
 10
4.0832890859
 20
8.2816870997
 10
4.1329889267
 20
8.2828198431
 10
4.1879288275
 20
8.2839525864
 10
4.2463740077
 20
8.2850853298
 10
4.3064790038
 20
8.2862180732
 10
4.3663459424
 20
8.2873508165
 10
4.4240844666
 20
8.2884835599
 10
4.4778714267
 20
8.2896163033
 10
4.526008447
 20
8.2907490466
 10
4.5669755544
 20
8.29188179
 10
4.5994791728
 20
8.2930145334
 10
4.6224929689
 20
8.2941472767
 10
4.6352902596
 20
8.2952800201
  0
LINE
  5
839
100
AcDbEntity
  8
0
100
AcDbLine
 62
7
  6
CONTINUOUS
 10
3.944939803
 20
8.2525764803
 11
3.9503192605
 21
8.2536877366
  0
LINE
  5
83A
100
AcDbEntity
  8
0
100
AcDbLine
 62
7
  6
CONTINUOUS
 10
4.652939803
 20
8.4345764803
 11
4.6475538109
 21
8.4334645475
  0
LINE
  5
83B
100
AcDbEntity
  8
0
100
AcDbLine
 62
7
  6
CONTINUOUS
 10
3.944939803
 20
8.2925764803
 11
3.9503250751
 21
8.2936883385
  0
LWPOLYLINE
  5
83C
100
AcDbEntity
  8
0
100
AcDbPolyline
 62
7
  6
CONTINUOUS
 90
19
 70
0
 10
3.9599891943
 20
8.2711851543
 10
3.9648031034
 20
8.2721561263
 10
3.9802053033
 20
8.2732888696
 10
4.0056718545
 20
8.274421613
 10
4.0403986259
 20
8.2755543564
 10
4.0832890859
 20
8.2766870997
 10
4.1329889267
 20
8.2778198431
 10
4.1879288275
 20
8.2789525864
 10
4.2463740077
 20
8.2800853298
 10
4.3064790038
 20
8.2812180732
 10
4.3663459424
 20
8.2823508165
 10
4.4240844666
 20
8.2834835599
 10
4.4778714267
 20
8.2846163033
 10
4.526008447
 20
8.2857490466
 10
4.5669755544
 20
8.28688179
 10
4.5994791728
 20
8.2880145334
 10
4.6224929689
 20
8.2891472767
 10
4.6352902596
 20
8.2902800201
 10
4.637939803
 20
8.2910764803
  0
LINE
  5
83D
100
AcDbEntity
  8
0
100
AcDbLine
 62
7
  6
CONTINUOUS
 10
4.6330765027
 20
8.4549968342
 11
4.6378904118
 21
8.4559678063
  0
LWPOLYLINE
  5
83E
100
AcDbEntity
  8
0
100
AcDbPolyline
 62
7
  6
CONTINUOUS
 90
3
 70
0
 10
4.6285181222
 20
8.3745720555
 10
4.6373622023
 20
8.3757047988
 10
4.6378904118
 20
8.3759678063
  0
LWPOLYLINE
  5
83F
100
AcDbEntity
  8
0
100
AcDbPolyline
 62
7
  6
CONTINUOUS
 90
18
 70
0
 10
3.9621397388
 20
8.311802144
 10
3.9742816437
 20
8.3129348873
 10
3.9966749453
 20
8.3140676307
 10
4.0286125531
 20
8.3152003741
 10
4.0690860063
 20
8.3163331174
 10
4.1168173163
 20
8.3174658608
 10
4.1702993206
 20
8.3185986041
 10
4.227843273
 20
8.3197313475
 10
4.2876321674
 20
8.3208640909
 10
4.3477781113
 20
8.3219968342
 10
4.4063819383
 20
8.3231295776
 10
4.4615931755
 20
8.324262321
 10
4.5116684746
 20
8.3253950643
 10
4.5550266594
 20
8.3265278077
 10
4.590298653
 20
8.3276605511
 10
4.6163707082
 20
8.3287932944
 10
4.6324195743
 20
8.3299260378
 10
4.637939803
 20
8.3310764803
  0
LWPOLYLINE
  5
840
100
AcDbEntity
  8
0
100
AcDbPolyline
 62
7
  6
CONTINUOUS
 90
8
 70
0
 10
3.950324192
 20
8.3336882471
 10
3.9665639049
 20
8.3348131324
 10
3.9930308667
 20
8.3359336208
 10
4.0283539933
 20
8.3370375155
 10
4.0718733084
 20
8.3381433034
 10
4.1220173672
 20
8.3392447575
 10
4.1775292272
 20
8.3403478372
 10
4.2368857864
 20
8.3414547294
  0
LWPOLYLINE
  5
841
100
AcDbEntity
  8
0
100
AcDbPolyline
 62
7
  6
CONTINUOUS
 90
8
 70
0
 10
4.6475542112
 20
8.3934645889
 10
4.6313121683
 20
8.3923396435
 10
4.6048445961
 20
8.3912191916
 10
4.5695215039
 20
8.3901153305
 10
4.5260129536
 20
8.3890098131
 10
4.475872557
 20
8.3879084173
 10
4.4203469124
 20
8.386805057
 10
4.360984392
 20
8.3856980589
  0
LWPOLYLINE
  5
842
100
AcDbEntity
  8
0
100
AcDbPolyline
 62
7
  6
CONTINUOUS
 90
10
 70
0
 10
4.2368857864
 20
8.3414547294
 10
4.3611571477
 20
8.3437012147
 10
4.4205000012
 20
8.344807988
 10
4.4758755295
 20
8.345908479
 10
4.5264645459
 20
8.3470204066
 10
4.5701428826
 20
8.348132689
 10
4.6053392824
 20
8.3492369114
 10
4.6315884263
 20
8.3503541232
 10
4.6476294182
 20
8.3514723994
 10
4.6528925038
 20
8.3524724102
  0
LWPOLYLINE
  5
843
100
AcDbEntity
  8
0
100
AcDbPolyline
 62
7
  6
CONTINUOUS
 90
10
 70
0
 10
4.3610536584
 20
8.3456993242
 10
4.2368609665
 20
8.343454276
 10
4.1775462338
 20
8.3423481628
 10
4.1221923899
 20
8.3412483908
 10
4.0718836486
 20
8.3401435458
 10
4.0282662592
 20
8.3390350679
 10
3.9929709673
 20
8.3379314796
 10
3.9665362272
 20
8.3368116857
 10
3.9503172358
 20
8.3356875269
 10
3.9449871023
 20
8.3346805503
  0
LWPOLYLINE
  5
844
100
AcDbEntity
  8
0
100
AcDbPolyline
 62
7
  6
CONTINUOUS
 90
10
 70
0
 10
4.2368609665
 20
8.381454276
 10
4.3610536584
 20
8.3836993242
 10
4.4203700986
 20
8.3848055009
 10
4.4757325089
 20
8.3859055098
 10
4.5260099884
 20
8.3870097436
 10
4.5696141176
 20
8.3881179141
 10
4.6049076273
 20
8.3892214447
 10
4.6313412967
 20
8.390341166
 10
4.6475615323
 20
8.3914653468
 10
4.6528925038
 20
8.3924724102
  0
LWPOLYLINE
  5
845
100
AcDbEntity
  8
0
100
AcDbPolyline
 62
7
  6
CONTINUOUS
 90
10
 70
0
 10
4.360984392
 20
8.3856980589
 10
4.2367089457
 20
8.383451499
 10
4.1773690026
 20
8.3823447694
 10
4.121979445
 20
8.3812439701
 10
4.0713633941
 20
8.380131341
 10
4.0276822978
 20
8.3790187484
 10
3.9924971573
 20
8.3779144988
 10
3.9662663615
 20
8.3767975321
 10
3.9502442382
 20
8.3756799409
 10
3.9449871023
 20
8.3746805503
  0
LINE
  5
846
100
AcDbEntity
  8
0
100
AcDbLine
 62
7
  6
CONTINUOUS
 10
3.9449871023
 20
8.5724724102
 11
3.9599891943
 21
8.5559678063
  0
LINE
  5
847
100
AcDbEntity
  8
0
100
AcDbLine
 62
7
  6
CONTINUOUS
 10
3.9449871023
 20
8.6124724102
 11
3.9599891943
 21
8.5959678063
  0
LINE
  5
848
100
AcDbEntity
  8
0
100
AcDbLine
 62
7
  6
CONTINUOUS
 10
3.9449398031
 20
8.6525764959
 11
3.9449871023
 21
8.6524724102
  0
LINE
  5
849
100
AcDbEntity
  8
0
100
AcDbLine
 62
7
  6
CONTINUOUS
 10
3.944939803
 20
8.6545764803
 11
3.9449871023
 21
8.6546805503
  0
LINE
  5
84A
100
AcDbEntity
  8
0
100
AcDbLine
 62
7
  6
CONTINUOUS
 10
3.9449871023
 20
8.6146805503
 11
3.944939803
 21
8.6145764803
  0
LINE
  5
84B
100
AcDbEntity
  8
0
100
AcDbLine
 62
7
  6
CONTINUOUS
 10
3.9449871023
 20
8.5746805503
 11
3.944939803
 21
8.5745764803
  0
LINE
  5
84C
100
AcDbEntity
  8
0
100
AcDbLine
 62
7
  6
CONTINUOUS
 10
4.652939803
 20
8.4745764803
 11
4.6475604377
 21
8.4734652335
  0
LINE
  5
84D
100
AcDbEntity
  8
0
100
AcDbLine
 62
7
  6
CONTINUOUS
 10
3.944939803
 20
8.3725764803
 11
3.9503172358
 21
8.3736875269
  0
LINE
  5
84E
100
AcDbEntity
  8
0
100
AcDbLine
 62
7
  6
CONTINUOUS
 10
3.944939803
 20
8.3325764803
 11
3.950324192
 21
8.3336882471
  0
LINE
  5
84F
100
AcDbEntity
  8
0
100
AcDbLine
 62
7
  6
CONTINUOUS
 10
4.652939803
 20
8.5145764803
 11
4.6475548166
 21
8.5134646516
  0
LWPOLYLINE
  5
850
100
AcDbEntity
  8
0
100
AcDbPolyline
 62
7
  6
CONTINUOUS
 90
19
 70
0
 10
3.9599891943
 20
8.3911851543
 10
3.9654600318
 20
8.3922269227
 10
3.9815088979
 20
8.3933596661
 10
4.0075809531
 20
8.3944924095
 10
4.0428529467
 20
8.3956251528
 10
4.0862111315
 20
8.3967578962
 10
4.1362864306
 20
8.3978906395
 10
4.1914976678
 20
8.3990233829
 10
4.2501014948
 20
8.4001561263
 10
4.3102474387
 20
8.4012888696
 10
4.3700363331
 20
8.402421613
 10
4.4275802855
 20
8.4035543564
 10
4.4810622898
 20
8.4046870997
 10
4.5287935998
 20
8.4058198431
 10
4.569267053
 20
8.4069525864
 10
4.6012046608
 20
8.4080853298
 10
4.6235979624
 20
8.4092180732
 10
4.6357398673
 20
8.4103508165
 10
4.637939803
 20
8.4110764803
  0
LWPOLYLINE
  5
851
100
AcDbEntity
  8
0
100
AcDbPolyline
 62
7
  6
CONTINUOUS
 90
3
 70
0
 10
4.6293803407
 20
8.4946428519
 10
4.6375612476
 20
8.4957755953
 10
4.6378904118
 20
8.4959678063
  0
LWPOLYLINE
  5
852
100
AcDbEntity
  8
0
100
AcDbPolyline
 62
7
  6
CONTINUOUS
 90
19
 70
0
 10
3.9605174038
 20
8.3514481617
 10
3.9693614839
 20
8.352580905
 10
3.9886123194
 20
8.3537136484
 10
4.0176620464
 20
8.3548463918
 10
4.0555933916
 20
8.3559791351
 10
4.1012086361
 20
8.3571118785
 10
4.153067434
 20
8.3582446218
 10
4.2095322937
 20
8.3593773652
 10
4.2688202822
 20
8.3605101086
 10
4.3290593239
 20
8.3616428519
 10
4.3883473124
 20
8.3627755953
 10
4.4448121721
 20
8.3639083387
 10
4.49667097
 20
8.365041082
 10
4.5422862145
 20
8.3661738254
 10
4.5802175597
 20
8.3673065688
 10
4.6092672867
 20
8.3684393121
 10
4.6285181222
 20
8.3695720555
 10
4.6373622023
 20
8.3707047988
 10
4.637939803
 20
8.3710764803
  0
LWPOLYLINE
  5
853
100
AcDbEntity
  8
0
100
AcDbPolyline
 62
7
  6
CONTINUOUS
 90
8
 70
0
 10
3.9502442382
 20
8.4136799409
 10
3.9662663615
 20
8.4147975321
 10
3.9924971573
 20
8.4159144988
 10
4.0276822978
 20
8.4170187484
 10
4.0713633941
 20
8.418131341
 10
4.121979445
 20
8.4192439701
 10
4.1773690026
 20
8.4203447694
 10
4.2367089457
 20
8.421451499
  0
LWPOLYLINE
  5
854
100
AcDbEntity
  8
0
100
AcDbPolyline
 62
7
  6
CONTINUOUS
 90
8
 70
0
 10
3.9503172358
 20
8.3736875269
 10
3.9665362272
 20
8.3748116857
 10
3.9929709673
 20
8.3759314796
 10
4.0282662592
 20
8.3770350679
 10
4.0718836486
 20
8.3781435458
 10
4.1221923899
 20
8.3792483908
 10
4.1775462338
 20
8.3803481628
 10
4.2368609665
 20
8.381454276
  0
LWPOLYLINE
  5
855
100
AcDbEntity
  8
0
100
AcDbPolyline
 62
7
  6
CONTINUOUS
 90
8
 70
0
 10
4.6475538109
 20
8.4334645475
 10
4.6313105705
 20
8.43233956
 10
4.6048412315
 20
8.4312190714
 10
4.5695246467
 20
8.4301154181
 10
4.526101951
 20
8.4290118997
 10
4.4759418893
 20
8.4279098569
 10
4.4203374148
 20
8.4268048751
 10
4.3609700731
 20
8.4256977974
  0
LWPOLYLINE
  5
856
100
AcDbEntity
  8
0
100
AcDbPolyline
 62
7
  6
CONTINUOUS
 90
8
 70
0
 10
4.6475604377
 20
8.4734652335
 10
4.6313369185
 20
8.4723409371
 10
4.6048985645
 20
8.4712211207
 10
4.5696355728
 20
8.4701185128
 10
4.5263832547
 20
8.4690184986
 10
4.476044852
 20
8.4679119952
 10
4.4203522497
 20
8.4668051591
 10
4.3610201604
 20
8.4656987123
  0
LWPOLYLINE
  5
857
100
AcDbEntity
  8
0
100
AcDbPolyline
 62
7
  6
CONTINUOUS
 90
9
 70
0
 10
4.3609700731
 20
8.4636977974
 10
4.4203374148
 20
8.4648048751
 10
4.4759418893
 20
8.4659098569
 10
4.526101951
 20
8.4670118997
 10
4.5695246467
 20
8.4681154181
 10
4.6048412315
 20
8.4692190714
 10
4.6313105705
 20
8.47033956
 10
4.6475538109
 20
8.4714645475
 10
4.6528925038
 20
8.4724724102
  0
LWPOLYLINE
  5
858
100
AcDbEntity
  8
0
100
AcDbPolyline
 62
7
  6
CONTINUOUS
 90
10
 70
0
 10
4.2367089457
 20
8.421451499
 10
4.360984392
 20
8.4236980589
 10
4.4203469124
 20
8.424805057
 10
4.475872557
 20
8.4259084173
 10
4.5260129536
 20
8.4270098131
 10
4.5695215039
 20
8.4281153305
 10
4.6048445961
 20
8.4292191916
 10
4.6313121683
 20
8.4303396435
 10
4.6475542112
 20
8.4314645889
 10
4.6528925038
 20
8.4324724102
  0
LWPOLYLINE
  5
859
100
AcDbEntity
  8
0
100
AcDbPolyline
 62
7
  6
CONTINUOUS
 90
10
 70
0
 10
4.3609700731
 20
8.4256977974
 10
4.2366901119
 20
8.4234511549
 10
4.1773528262
 20
8.4223444597
 10
4.1218153363
 20
8.421240562
 10
4.0710311372
 20
8.4201235362
 10
4.0273293664
 20
8.419008861
 10
3.9922244459
 20
8.4179046896
 10
3.9661242113
 20
8.4167900418
 10
3.950218212
 20
8.4156772237
 10
3.9449871023
 20
8.4146805503
  0
LINE
  5
85A
100
AcDbEntity
  8
0
100
AcDbLine
 62
7
  6
CONTINUOUS
 10
3.9449871023
 20
8.6524724102
 11
3.9599891943
 21
8.6359678063
  0
LINE
  5
85B
100
AcDbEntity
  8
0
100
AcDbLine
 62
7
  6
CONTINUOUS
 10
3.9449871023
 20
8.5346805503
 11
3.944939803
 21
8.5345764803
  0
LINE
  5
85C
100
AcDbEntity
  8
0
100
AcDbLine
 62
7
  6
CONTINUOUS
 10
3.9449871023
 20
8.4946805503
 11
3.944939803
 21
8.4945764803
  0
LINE
  5
85D
100
AcDbEntity
  8
0
100
AcDbLine
 62
7
  6
CONTINUOUS
 10
3.9449871023
 20
8.4546805503
 11
3.944939803
 21
8.4545764803
  0
LINE
  5
85E
100
AcDbEntity
  8
0
100
AcDbLine
 62
7
  6
CONTINUOUS
 10
3.9449871023
 20
8.4146805503
 11
3.944939803
 21
8.4145764803
  0
LWPOLYLINE
  5
85F
100
AcDbEntity
  8
0
100
AcDbPolyline
 62
7
  6
CONTINUOUS
 90
19
 70
0
 10
3.959939803
 20
8.5960764803
 10
3.9599958737
 20
8.5961922697
 10
3.9663176117
 20
8.5973133224
 10
3.9829271002
 20
8.598434375
 10
4.0093106205
 20
8.5995554276
 10
4.0446521505
 20
8.6006764803
 10
4.0878586034
 20
8.6017975329
 10
4.1375936368
 20
8.6029185855
 10
4.192318984
 20
8.6040396381
 10
4.2503420318
 20
8.6051606908
 10
4.3098681716
 20
8.6062817434
 10
4.3690563052
 20
8.607402796
 10
4.426075789
 20
8.6085238487
 10
4.4791630537
 20
8.6096449013
 10
4.5266761508
 20
8.6107659539
 10
4.5671455364
 20
8.6118870066
 10
4.5993195234
 20
8.6130080592
 10
4.6222029948
 20
8.6141291118
 10
4.6350881824
 20
8.6152501645
  0
LINE
  5
860
100
AcDbEntity
  8
0
100
AcDbLine
 62
7
  6
CONTINUOUS
 10
3.953982169
 20
8.6645764803
 11
3.9449871023
 21
8.6546805503
  0
LINE
  5
861
100
AcDbEntity
  8
0
100
AcDbLine
 62
7
  6
CONTINUOUS
 10
3.9599891943
 20
8.6311851543
 11
3.9449871023
 21
8.6146805503
  0
LINE
  5
862
100
AcDbEntity
  8
0
100
AcDbLine
 62
7
  6
CONTINUOUS
 10
3.9599891943
 20
8.4311851543
 11
3.9625893465
 21
8.4318729404
  0
LWPOLYLINE
  5
863
100
AcDbEntity
  8
0
100
AcDbPolyline
 62
7
  6
CONTINUOUS
 90
18
 70
0
 10
3.959939803
 20
8.3960764803
 10
3.9654600318
 20
8.3972269227
 10
3.9815088979
 20
8.3983596661
 10
4.0075809531
 20
8.3994924095
 10
4.0428529467
 20
8.4006251528
 10
4.0862111315
 20
8.4017578962
 10
4.1362864306
 20
8.4028906395
 10
4.1914976678
 20
8.4040233829
 10
4.2501014948
 20
8.4051561263
 10
4.3102474387
 20
8.4062888696
 10
4.3700363331
 20
8.407421613
 10
4.4275802855
 20
8.4085543564
 10
4.4810622898
 20
8.4096870997
 10
4.5287935998
 20
8.4108198431
 10
4.569267053
 20
8.4119525864
 10
4.6012046608
 20
8.4130853298
 10
4.6235979624
 20
8.4142180732
 10
4.6357398673
 20
8.4153508165
  0
LINE
  5
864
100
AcDbEntity
  8
0
100
AcDbLine
 62
7
  6
CONTINUOUS
 10
3.944939803
 20
8.4125764803
 11
3.9502442382
 21
8.4136799409
  0
LINE
  5
865
100
AcDbEntity
  8
0
100
AcDbLine
 62
7
  6
CONTINUOUS
 10
4.652939803
 20
8.5945764803
 11
4.6475582389
 21
8.5934650058
  0
LINE
  5
866
100
AcDbEntity
  8
0
100
AcDbLine
 62
7
  6
CONTINUOUS
 10
4.652939803
 20
8.5545764803
 11
4.647426164
 21
8.5534514144
  0
LWPOLYLINE
  5
867
100
AcDbEntity
  8
0
100
AcDbPolyline
 62
7
  6
CONTINUOUS
 90
19
 70
0
 10
3.9607583013
 20
8.4715189581
 10
3.9702644608
 20
8.4726517015
 10
3.9901488634
 20
8.4737844449
 10
4.0197836397
 20
8.4749171882
 10
4.0582330429
 20
8.4760499316
 10
4.1042829956
 20
8.4771826749
 10
4.1564794261
 20
8.4783154183
 10
4.2131741812
 20
8.4794481617
 10
4.2725770691
 20
8.480580905
 10
4.3328123859
 20
8.4817136484
 10
4.3919781431
 20
8.4828463918
 10
4.4482061243
 20
8.4839791351
 10
4.4997208766
 20
8.4851118785
 10
4.5448957715
 20
8.4862446218
 10
4.5823043679
 20
8.4873773652
 10
4.6107654531
 20
8.4885101086
 10
4.6293803407
 20
8.4896428519
 10
4.6375612476
 20
8.4907755953
 10
4.637939803
 20
8.4910764803
  0
LWPOLYLINE
  5
868
100
AcDbEntity
  8
0
100
AcDbPolyline
 62
7
  6
CONTINUOUS
 90
18
 70
0
 10
3.9625893465
 20
8.4318729404
 10
3.9753866372
 20
8.4330056838
 10
3.9984004333
 20
8.4341384272
 10
4.0309040517
 20
8.4352711705
 10
4.0718711591
 20
8.4364039139
 10
4.1200081794
 20
8.4375366572
 10
4.1737951395
 20
8.4386694006
 10
4.2315336637
 20
8.439802144
 10
4.2914006023
 20
8.4409348873
 10
4.3515055984
 20
8.4420676307
 10
4.4099507786
 20
8.4432003741
 10
4.4648906794
 20
8.4443331174
 10
4.5145905202
 20
8.4454658608
 10
4.5574809802
 20
8.4465986041
 10
4.5922077516
 20
8.4477313475
 10
4.6176743028
 20
8.4488640909
 10
4.6330765027
 20
8.4499968342
 10
4.637939803
 20
8.4510764803
  0
LWPOLYLINE
  5
869
100
AcDbEntity
  8
0
100
AcDbPolyline
 62
7
  6
CONTINUOUS
 90
8
 70
0
 10
3.9502090268
 20
8.4936762632
 10
3.9659472663
 20
8.4947806841
 10
3.9918385845
 20
8.4958907654
 10
4.0267998834
 20
8.4969939931
 10
4.0705090853
 20
8.4981112568
 10
4.1215326423
 20
8.4992346887
 10
4.1774978664
 20
8.5003472368
 10
4.2368151543
 20
8.5014534392
  0
LWPOLYLINE
  5
86A
100
AcDbEntity
  8
0
100
AcDbPolyline
 62
7
  6
CONTINUOUS
 90
9
 70
0
 10
3.950218212
 20
8.4536772237
 10
3.9661242113
 20
8.4547900418
 10
3.9922244459
 20
8.4559046896
 10
4.0273293664
 20
8.457008861
 10
4.0710311372
 20
8.4581235362
 10
4.1218153363
 20
8.459240562
 10
4.1773528262
 20
8.4603444597
 10
4.2366901119
 20
8.4614511549
 10
4.3609700731
 20
8.4636977974
  0
LWPOLYLINE
  5
86B
100
AcDbEntity
  8
0
100
AcDbPolyline
 62
7
  6
CONTINUOUS
 90
8
 70
0
 10
4.6475548166
 20
8.5134646516
 10
4.6313145529
 20
8.5123397681
 10
4.6048503645
 20
8.5112193978
 10
4.5695640675
 20
8.5101165177
 10
4.5261994726
 20
8.5090141867
 10
4.4755066607
 20
8.5079008228
 10
4.4196135487
 20
8.5067910226
 10
4.3602581484
 20
8.5056847955
  0
LWPOLYLINE
  5
86C
100
AcDbEntity
  8
0
100
AcDbPolyline
 62
7
  6
CONTINUOUS
 90
10
 70
0
 10
4.3610201604
 20
8.4656987123
 10
4.2368151543
 20
8.4634534392
 10
4.1774978664
 20
8.4623472368
 10
4.1215326423
 20
8.4612346887
 10
4.0705090853
 20
8.4601112568
 10
4.0267998834
 20
8.4589939931
 10
3.9918385845
 20
8.4578907654
 10
3.9659472663
 20
8.4567806841
 10
3.9502090268
 20
8.4556762632
 10
3.9449871023
 20
8.4546805503
  0
LWPOLYLINE
  5
86D
100
AcDbEntity
  8
0
100
AcDbPolyline
 62
7
  6
CONTINUOUS
 90
10
 70
0
 10
4.2368151543
 20
8.5014534392
 10
4.3610201604
 20
8.5036987123
 10
4.4203522497
 20
8.5048051591
 10
4.476044852
 20
8.5059119952
 10
4.5263832547
 20
8.5070184986
 10
4.5696355728
 20
8.5081185128
 10
4.6048985645
 20
8.5092211207
 10
4.6313369185
 20
8.5103409371
 10
4.6475604377
 20
8.5114652335
 10
4.6528925038
 20
8.5124724102
  0
LWPOLYLINE
  5
86E
100
AcDbEntity
  8
0
100
AcDbPolyline
 62
7
  6
CONTINUOUS
 90
10
 70
0
 10
4.3602581484
 20
8.5056847955
 10
4.2365953038
 20
8.5034494229
 10
4.1775451438
 20
8.5023481419
 10
4.121460606
 20
8.5012331916
 10
4.0703681683
 20
8.5001079389
 10
4.0266416716
 20
8.4989895424
 10
3.9917158656
 20
8.4978863258
 10
3.9659285961
 20
8.4967796945
 10
3.9502285687
 20
8.4956783058
 10
3.9449871023
 20
8.4946805503
  0
LINE
  5
86F
100
AcDbEntity
  8
0
100
AcDbLine
 62
7
  6
CONTINUOUS
 10
3.9449871023
 20
8.3746805503
 11
3.944939803
 21
8.3745764803
  0
LINE
  5
870
100
AcDbEntity
  8
0
100
AcDbLine
 62
7
  6
CONTINUOUS
 10
3.9449871023
 20
8.3346805503
 11
3.944939803
 21
8.3345764803
  0
LINE
  5
871
100
AcDbEntity
  8
0
100
AcDbLine
 62
7
  6
CONTINUOUS
 10
3.9449871023
 20
8.2946805503
 11
3.944939803
 21
8.2945764803
  0
LINE
  5
872
100
AcDbEntity
  8
0
100
AcDbLine
 62
7
  6
CONTINUOUS
 10
3.9449871023
 20
8.2546805503
 11
3.944939803
 21
8.2545764803
  0
LINE
  5
873
100
AcDbEntity
  8
0
100
AcDbLine
 62
7
  6
CONTINUOUS
 10
3.9599891943
 20
8.5911851543
 11
3.9449871023
 21
8.5746805503
  0
LINE
  5
874
100
AcDbEntity
  8
0
100
AcDbLine
 62
7
  6
CONTINUOUS
 10
3.9599891943
 20
8.5511851543
 11
3.9449871023
 21
8.5346805503
  0
LINE
  5
875
100
AcDbEntity
  8
0
100
AcDbLine
 62
7
  6
CONTINUOUS
 10
4.6350881824
 20
8.6152501645
 11
4.6378904118
 21
8.6159678063
  0
LINE
  5
876
100
AcDbEntity
  8
0
100
AcDbLine
 62
7
  6
CONTINUOUS
 10
3.944939803
 20
8.4925764803
 11
3.9502090268
 21
8.4936762632
  0
LINE
  5
877
100
AcDbEntity
  8
0
100
AcDbLine
 62
7
  6
CONTINUOUS
 10
3.944939803
 20
8.4525764803
 11
3.950218212
 21
8.4536772237
  0
LINE
  5
878
100
AcDbEntity
  8
0
100
AcDbLine
 62
7
  6
CONTINUOUS
 10
4.652939803
 20
8.6345764803
 11
4.6475689174
 21
8.6334661119
  0
LWPOLYLINE
  5
879
100
AcDbEntity
  8
0
100
AcDbPolyline
 62
7
  6
CONTINUOUS
 90
18
 70
0
 10
3.959939803
 20
8.5160764803
 10
3.9661582011
 20
8.5172977192
 10
3.9828517487
 20
8.5184304626
 10
4.0095260835
 20
8.5195632059
 10
4.0453389374
 20
8.5206959493
 10
4.0891594849
 20
8.5218286926
 10
4.1396040495
 20
8.522961436
 10
4.1950797953
 20
8.5240941794
 10
4.2538350216
 20
8.5252269227
 10
4.3140144752
 20
8.5263596661
 10
4.3737179314
 20
8.5274924095
 10
4.4310601956
 20
8.5286251528
 10
4.4842306301
 20
8.5297578962
 10
4.5315503269
 20
8.5308906395
 10
4.5715251206
 20
8.5320233829
 10
4.6028927683
 20
8.5331561263
 10
4.624662806
 20
8.5342888696
 10
4.6361478236
 20
8.535421613
  0
LWPOLYLINE
  5
87A
100
AcDbEntity
  8
0
100
AcDbPolyline
 62
7
  6
CONTINUOUS
 90
19
 70
0
 10
3.9599891943
 20
8.5111851543
 10
3.9661582011
 20
8.5122977192
 10
3.9828517487
 20
8.5134304626
 10
4.0095260835
 20
8.5145632059
 10
4.0453389374
 20
8.5156959493
 10
4.0891594849
 20
8.5168286926
 10
4.1396040495
 20
8.517961436
 10
4.1950797953
 20
8.5190941794
 10
4.2538350216
 20
8.5202269227
 10
4.3140144752
 20
8.5213596661
 10
4.3737179314
 20
8.5224924095
 10
4.4310601956
 20
8.5236251528
 10
4.4842306301
 20
8.5247578962
 10
4.5315503269
 20
8.5258906395
 10
4.5715251206
 20
8.5270233829
 10
4.6028927683
 20
8.5281561263
 10
4.624662806
 20
8.5292888696
 10
4.6361478236
 20
8.530421613
 10
4.637939803
 20
8.5310764803
  0
LWPOLYLINE
  5
87B
100
AcDbEntity
  8
0
100
AcDbPolyline
 62
7
  6
CONTINUOUS
 90
9
 70
0
 10
3.9502285687
 20
8.5336783058
 10
3.9659285961
 20
8.5347796945
 10
3.9917158656
 20
8.5358863258
 10
4.0266416716
 20
8.5369895424
 10
4.0703681683
 20
8.5381079389
 10
4.121460606
 20
8.5392331916
 10
4.1775451438
 20
8.5403481419
 10
4.2365953038
 20
8.5414494229
 10
4.3602581484
 20
8.5436847955
  0
LWPOLYLINE
  5
87C
100
AcDbEntity
  8
0
100
AcDbPolyline
 62
7
  6
CONTINUOUS
 90
4
 70
0
 10
3.9622657963
 20
8.5365764803
 10
3.9526746536
 20
8.5359097358
 10
3.9468796067
 20
8.5352432423
 10
3.9449871023
 20
8.5346805503
  0
LWPOLYLINE
  5
87D
100
AcDbEntity
  8
0
100
AcDbPolyline
 62
7
  6
CONTINUOUS
 90
8
 70
0
 10
4.6475582389
 20
8.5934650058
 10
4.6313281869
 20
8.5923404806
 10
4.6048797214
 20
8.591220447
 10
4.5695748008
 20
8.5901168171
 10
4.5256423119
 20
8.5890011296
 10
4.4744141704
 20
8.587878178
 10
4.4182553291
 20
8.5867650598
 10
4.358951982
 20
8.5856609532
  0
LWPOLYLINE
  5
87E
100
AcDbEntity
  8
0
100
AcDbPolyline
 62
7
  6
CONTINUOUS
 90
16
 70
0
 10
4.647426164
 20
8.5534514144
 10
4.6308029978
 20
8.5523131886
 10
4.6037417867
 20
8.5511799902
 10
4.5676986208
 20
8.5500647274
 10
4.5232151313
 20
8.5489445065
 10
4.4713067594
 20
8.5478140178
 10
4.41436284
 20
8.5466908614
 10
4.3540213758
 20
8.545571087
 10
4.2914281591
 20
8.5444413836
 10
4.2294832756
 20
8.5433192449
 10
4.1701564342
 20
8.5422060988
 10
4.1139328597
 20
8.5410755848
 10
4.0631917711
 20
8.5399369665
 10
4.0203085206
 20
8.5388081729
 10
3.9865056868
 20
8.5376925419
 10
3.9622657963
 20
8.5365764803
  0
LWPOLYLINE
  5
87F
100
AcDbEntity
  8
0
100
AcDbPolyline
 62
7
  6
CONTINUOUS
 90
17
 70
0
 10
3.976531644
 20
8.5530764803
 10
4.0000001946
 20
8.5542027429
 10
4.0328006338
 20
8.5553290055
 10
4.0739090423
 20
8.5564552681
 10
4.1220421538
 20
8.5575815308
 10
4.1756974147
 20
8.5587077934
 10
4.2331998883
 20
8.559834056
 10
4.2927545407
 20
8.5609603186
 10
4.3525022763
 20
8.5620865813
 10
4.4105779717
 20
8.5632128439
 10
4.4651686991
 20
8.5643391065
 10
4.5145703197
 20
8.5654653691
 10
4.5572406813
 20
8.5665916318
 10
4.5918477586
 20
8.5677178944
 10
4.6173112352
 20
8.568844157
 10
4.6328362271
 20
8.5699704196
 10
4.637939803
 20
8.5710764803
  0
LWPOLYLINE
  5
880
100
AcDbEntity
  8
0
100
AcDbPolyline
 62
7
  6
CONTINUOUS
 90
17
 70
0
 10
3.976531644
 20
8.5580764803
 10
3.9998694656
 20
8.5591975329
 10
4.0324573044
 20
8.5603185855
 10
4.0732872436
 20
8.5614396381
 10
4.1210964443
 20
8.5625606908
 10
4.1744062044
 20
8.5636817434
 10
4.2315676936
 20
8.564802796
 10
4.2908129508
 20
8.5659238487
 10
4.3503095653
 20
8.5670449013
 10
4.4082173523
 20
8.5681659539
 10
4.462745268
 20
8.5692870066
 10
4.5122068057
 20
8.5704080592
 10
4.5550721578
 20
8.5715291118
 10
4.5900155316
 20
8.5726501645
 10
4.6159561552
 20
8.5737712171
 10
4.6320917049
 20
8.5748922697
 10
4.6378904118
 20
8.5759678063
  0
LWPOLYLINE
  5
881
100
AcDbEntity
  8
0
100
AcDbPolyline
 62
7
  6
CONTINUOUS
 90
17
 70
0
 10
3.9622657963
 20
8.5745764803
 10
3.9865056868
 20
8.5756925419
 10
4.0203085206
 20
8.5768081729
 10
4.0631917711
 20
8.5779369665
 10
4.1139328597
 20
8.5790755848
 10
4.1701564342
 20
8.5802060988
 10
4.2294832756
 20
8.5813192449
 10
4.2914281591
 20
8.5824413836
 10
4.3540213758
 20
8.583571087
 10
4.41436284
 20
8.5846908614
 10
4.4713067594
 20
8.5858140178
 10
4.5232151313
 20
8.5869445065
 10
4.5676986208
 20
8.5880647274
 10
4.6037417867
 20
8.5891799902
 10
4.6308029978
 20
8.5903131886
 10
4.647426164
 20
8.5914514144
 10
4.6528925038
 20
8.5924724102
  0
LWPOLYLINE
  5
882
100
AcDbEntity
  8
0
100
AcDbPolyline
 62
7
  6
CONTINUOUS
 90
9
 70
0
 10
4.3602581484
 20
8.5436847955
 10
4.4196135487
 20
8.5447910226
 10
4.4755066607
 20
8.5459008228
 10
4.5261994726
 20
8.5470141867
 10
4.5695640675
 20
8.5481165177
 10
4.6048503645
 20
8.5492193978
 10
4.6313145529
 20
8.5503397681
 10
4.6475548166
 20
8.5514646516
 10
4.6528925038
 20
8.5524724102
  0
LWPOLYLINE
  5
883
100
AcDbEntity
  8
0
100
AcDbPolyline
 62
7
  6
CONTINUOUS
 90
10
 70
0
 10
4.358951982
 20
8.5856609532
 10
4.2364613052
 20
8.5834469748
 10
4.1774938417
 20
8.5823471597
 10
4.1214299606
 20
8.5812325546
 10
4.0703561698
 20
8.5801076563
 10
4.0266435404
 20
8.578989595
 10
3.9917556799
 20
8.5778877668
 10
3.9660737831
 20
8.5767873788
 10
3.9502551874
 20
8.5756810821
 10
3.9449871023
 20
8.5746805503
  0
LINE
  5
884
100
AcDbEntity
  8
0
100
AcDbLine
 62
7
  6
CONTINUOUS
 10
4.6438974371
 20
8.1245764803
 11
4.6378904118
 21
8.1311851543
  0
LINE
  5
885
100
AcDbEntity
  8
0
100
AcDbLine
 62
7
  6
CONTINUOUS
 10
3.9449871023
 20
8.2146805503
 11
3.944939803
 21
8.2145764803
  0
LINE
  5
886
100
AcDbEntity
  8
0
100
AcDbLine
 62
7
  6
CONTINUOUS
 10
3.9449871023
 20
8.1746805503
 11
3.944939803
 21
8.1745764803
  0
LINE
  5
887
100
AcDbEntity
  8
0
100
AcDbLine
 62
7
  6
CONTINUOUS
 10
3.9449398031
 20
8.1345764677
 11
3.9449871023
 21
8.1346805503
  0
LINE
  5
888
100
AcDbEntity
  8
0
100
AcDbLine
 62
7
  6
CONTINUOUS
 10
3.9599891943
 20
8.5111851543
 11
3.9449871023
 21
8.4946805503
  0
LINE
  5
889
100
AcDbEntity
  8
0
100
AcDbLine
 62
7
  6
CONTINUOUS
 10
3.9599891943
 20
8.4711851543
 11
3.9449871023
 21
8.4546805503
  0
LINE
  5
88A
100
AcDbEntity
  8
0
100
AcDbLine
 62
7
  6
CONTINUOUS
 10
3.9599891943
 20
8.4311851543
 11
3.9449871023
 21
8.4146805503
  0
LINE
  5
88B
100
AcDbEntity
  8
0
100
AcDbLine
 62
7
  6
CONTINUOUS
 10
3.9599891943
 20
8.5911851543
 11
3.960298608
 21
8.5913694095
  0
LWPOLYLINE
  5
88C
100
AcDbEntity
  8
0
100
AcDbPolyline
 62
7
  6
CONTINUOUS
 90
19
 70
0
 10
3.959939803
 20
8.6360764803
 10
3.9608777686
 20
8.6365501645
 10
3.970520525
 20
8.6376712171
 10
3.9903210391
 20
8.6387922697
 10
4.0196668961
 20
8.6399133224
 10
4.0576504509
 20
8.641034375
 10
4.1030969013
 20
8.6421554276
 10
4.1546006232
 20
8.6432764803
 10
4.2105686458
 20
8.6443975329
 10
4.2692699209
 20
8.6455185855
 10
4.3288888627
 20
8.6466396381
 10
4.387581503
 20
8.6477606908
 10
4.4435325232
 20
8.6488817434
 10
4.4950114009
 20
8.650002796
 10
4.5404259336
 20
8.6511238487
 10
4.5783714847
 20
8.6522449013
 10
4.607674427
 20
8.6533659539
 10
4.627428443
 20
8.6544870066
 10
4.637022556
 20
8.6556080592
  0
LWPOLYLINE
  5
88D
100
AcDbEntity
  8
0
100
AcDbPolyline
 62
7
  6
CONTINUOUS
 90
3
 70
0
 10
3.959939803
 20
8.5560764803
 10
3.9630805502
 20
8.5569437369
 10
3.976531644
 20
8.5580764803
  0
LWPOLYLINE
  5
88E
100
AcDbEntity
  8
0
100
AcDbPolyline
 62
7
  6
CONTINUOUS
 90
3
 70
0
 10
3.9599891943
 20
8.5511851543
 10
3.9630805502
 20
8.5519437369
 10
3.976531644
 20
8.5530764803
  0
LINE
  5
88F
100
AcDbEntity
  8
0
100
AcDbLine
 62
7
  6
CONTINUOUS
 10
3.944939803
 20
8.5325764803
 11
3.9502285687
 21
8.5336783058
  0
LWPOLYLINE
  5
890
100
AcDbEntity
  8
0
100
AcDbPolyline
 62
7
  6
CONTINUOUS
 90
19
 70
0
 10
3.960298608
 20
8.5913694095
 10
3.9683284595
 20
8.5924956722
 10
3.9866788846
 20
8.5936219348
 10
4.0147770449
 20
8.5947481974
 10
4.0517458101
 20
8.5958744601
 10
4.09643114
 20
8.5970007227
 10
4.147438109
 20
8.5981269853
 10
4.2031744509
 20
8.5992532479
 10
4.261900265
 20
8.6003795106
 10
4.3217823287
 20
8.6015057732
 10
4.3809513257
 20
8.6026320358
 10
4.4375601989
 20
8.6037582984
 10
4.4898418098
 20
8.6048845611
 10
4.5361641025
 20
8.6060108237
 10
4.5750810508
 20
8.6071370863
 10
4.6053777986
 20
8.6082633489
 10
4.6261085834
 20
8.6093896116
 10
4.6366262598
 20
8.6105158742
 10
4.637939803
 20
8.6110764803
  0
LWPOLYLINE
  5
891
100
AcDbEntity
  8
0
100
AcDbPolyline
 62
7
  6
CONTINUOUS
 90
3
 70
0
 10
3.9468796067
 20
8.5732432423
 10
3.9526746536
 20
8.5739097358
 10
3.9622657963
 20
8.5745764803
  0
LWPOLYLINE
  5
892
100
AcDbEntity
  8
0
100
AcDbPolyline
 62
7
  6
CONTINUOUS
 90
9
 70
0
 10
3.9502551874
 20
8.6136810821
 10
3.9660737831
 20
8.6147873788
 10
3.9917556799
 20
8.6158877668
 10
4.0266435404
 20
8.616989595
 10
4.0703561698
 20
8.6181076563
 10
4.1214299606
 20
8.6192325546
 10
4.1774938417
 20
8.6203471597
 10
4.2364613052
 20
8.6214469748
 10
4.358951982
 20
8.6236609532
  0
LWPOLYLINE
  5
893
100
AcDbEntity
  8
0
100
AcDbPolyline
 62
7
  6
CONTINUOUS
 90
8
 70
0
 10
4.6475689174
 20
8.6334661119
 10
4.6314195554
 20
8.6323452613
 10
4.6051792611
 20
8.6312311701
 10
4.5700203574
 20
8.6301292618
 10
4.5260315551
 20
8.6290102492
 10
4.4747449814
 20
8.6278850301
 10
4.4185490092
 20
8.6267706703
 10
4.3593091598
 20
8.6256674715
  0
LWPOLYLINE
  5
894
100
AcDbEntity
  8
0
100
AcDbPolyline
 62
7
  6
CONTINUOUS
 90
9
 70
0
 10
4.358951982
 20
8.6236609532
 10
4.4182553291
 20
8.6247650598
 10
4.4744141704
 20
8.625878178
 10
4.5256423119
 20
8.6270011296
 10
4.5695748008
 20
8.6281168171
 10
4.6048797214
 20
8.629220447
 10
4.6313281869
 20
8.6303404806
 10
4.6475582389
 20
8.6314650058
 10
4.6528925038
 20
8.6324724102
  0
LWPOLYLINE
  5
895
100
AcDbEntity
  8
0
100
AcDbPolyline
 62
7
  6
CONTINUOUS
 90
10
 70
0
 10
4.3593091598
 20
8.6256674715
 10
4.2371587022
 20
8.6234597142
 10
4.1780803295
 20
8.6223583847
 10
4.1219596201
 20
8.6212435584
 10
4.070807317
 20
8.6201182741
 10
4.0270013358
 20
8.6189996548
 10
3.9920413553
 20
8.6178980892
 10
3.9662314582
 20
8.6167956952
 10
3.9502790134
 20
8.6156835612
 10
3.9449871023
 20
8.6146805503
  0
LINE
  5
896
100
AcDbEntity
  8
0
100
AcDbLine
 62
7
  6
CONTINUOUS
 10
4.6528925038
 20
8.1546805503
 11
4.6378904118
 21
8.1711851543
  0
LINE
  5
897
100
AcDbEntity
  8
0
100
AcDbLine
 62
7
  6
CONTINUOUS
 10
4.6528925038
 20
8.1946805503
 11
4.6378904118
 21
8.2111851543
  0
LINE
  5
898
100
AcDbEntity
  8
0
100
AcDbLine
 62
7
  6
CONTINUOUS
 10
4.6528925038
 20
8.2346805503
 11
4.6378904118
 21
8.2511851543
  0
LINE
  5
899
100
AcDbEntity
  8
0
100
AcDbLine
 62
7
  6
CONTINUOUS
 10
3.9599891943
 20
8.3911851543
 11
3.9449871023
 21
8.3746805503
  0
LINE
  5
89A
100
AcDbEntity
  8
0
100
AcDbLine
 62
7
  6
CONTINUOUS
 10
3.9599891943
 20
8.3511851543
 11
3.9449871023
 21
8.3346805503
  0
LWPOLYLINE
  5
89B
100
AcDbEntity
  8
0
100
AcDbPolyline
 62
7
  6
CONTINUOUS
 90
19
 70
0
 10
3.9599891943
 20
8.6311851543
 10
3.9628752044
 20
8.6319148641
 10
3.9759548706
 20
8.6330411267
 10
3.9991170394
 20
8.6341673893
 10
4.0316386661
 20
8.635293652
 10
4.0725045347
 20
8.6364199146
 10
4.1204389504
 20
8.6375461772
 10
4.173945562
 20
8.6386724399
 10
4.2313540733
 20
8.6397987025
 10
4.2908723836
 20
8.6409249651
 10
4.3506425316
 20
8.6420512277
 10
4.4087986944
 20
8.6431774904
 10
4.4635254323
 20
8.644303753
 10
4.5131143606
 20
8.6454300156
 10
4.5560174801
 20
8.6465562782
 10
4.5908954995
 20
8.6476825409
 10
4.6166596445
 20
8.6488088035
 10
4.6325056453
 20
8.6499350661
 10
4.637939803
 20
8.6510764803
  0
LINE
  5
89C
100
AcDbEntity
  8
0
100
AcDbLine
 62
7
  6
CONTINUOUS
 10
3.944939803
 20
8.6125764803
 11
3.9502551874
 21
8.6136810821
  0
LWPOLYLINE
  5
89D
100
AcDbEntity
  8
0
100
AcDbPolyline
 62
7
  6
CONTINUOUS
 90
10
 70
0
 10
3.9449871023
 20
8.6546805503
 10
3.9503177774
 20
8.655687583
 10
3.9662889209
 20
8.6567987185
 10
3.9923670243
 20
8.6579098213
 10
4.0277589645
 20
8.6590208938
 10
4.0713928949
 20
8.6601320336
 10
4.1219422379
 20
8.6612431975
 10
4.1778678106
 20
8.6623543181
 10
4.237469988
 20
8.6634653991
 10
4.298939803
 20
8.6645764803
  0
LWPOLYLINE
  5
89E
100
AcDbEntity
  8
0
100
AcDbPolyline
 62
7
  6
CONTINUOUS
 90
8
 70
0
 10
4.226622883
 20
8.6612667412
 10
4.1679490351
 20
8.6601634254
 10
4.1131983131
 20
8.6590600791
 10
4.0640124466
 20
8.6579567232
 10
4.0218666619
 20
8.6568533955
 10
3.9880238059
 20
8.6557501222
 10
3.9634962218
 20
8.6546468894
 10
3.9490175033
 20
8.6535436861
  0
LWPOLYLINE
  5
89F
100
AcDbEntity
  8
0
100
AcDbPolyline
 62
7
  6
CONTINUOUS
 90
3
 70
0
 10
4.4083318191
 20
8.6645764803
 10
4.3486426795
 20
8.6634732805
 10
4.2989758471
 20
8.6625776567
  0
LINE
  5
8A0
100
AcDbEntity
  8
0
100
AcDbLine
 62
7
  6
CONTINUOUS
 10
4.2989758471
 20
8.6625776567
 11
4.226622883
 21
8.6612667412
  0
LINE
  5
8A1
100
AcDbEntity
  8
0
100
AcDbLine
 62
7
  6
CONTINUOUS
 10
3.9539831123
 20
8.6645764803
 11
4.645713542
 21
8.6645764803
  0
LINE
  5
8A2
100
AcDbEntity
  8
0
100
AcDbLine
 62
9
  6
CONTINUOUS
 10
4.637689803
 20
8.7020764803
 11
3.960189803
 21
8.7020764803
  0
LINE
  5
8A3
100
AcDbEntity
  8
0
100
AcDbLine
 62
7
  6
CONTINUOUS
 10
5.026439803
 20
8.7145764803
 11
3.5714398031
 21
8.7145764803
  0
LINE
  5
8A4
100
AcDbEntity
  8
0
100
AcDbLine
 62
7
  6
CONTINUOUS
 10
4.6528925038
 20
8.2746805503
 11
4.6378904118
 21
8.2911851543
  0
LINE
  5
8A5
100
AcDbEntity
  8
0
100
AcDbLine
 62
7
  6
CONTINUOUS
 10
4.6528925038
 20
8.3146805503
 11
4.6378904118
 21
8.3311851543
  0
LINE
  5
8A6
100
AcDbEntity
  8
0
100
AcDbLine
 62
7
  6
CONTINUOUS
 10
3.9599891943
 20
8.3111851543
 11
3.9449871023
 21
8.2946805503
  0
LINE
  5
8A7
100
AcDbEntity
  8
0
100
AcDbLine
 62
7
  6
CONTINUOUS
 10
3.9599891943
 20
8.2711851543
 11
3.9449871023
 21
8.2546805503
  0
LWPOLYLINE
  5
8A8
100
AcDbEntity
  8
0
100
AcDbPolyline
 62
7
  6
CONTINUOUS
 90
18
 70
0
 10
3.959939803
 20
8.4760764803
 10
3.9607583013
 20
8.4765189581
 10
3.9702644608
 20
8.4776517015
 10
3.9901488634
 20
8.4787844449
 10
4.0197836397
 20
8.4799171882
 10
4.0582330429
 20
8.4810499316
 10
4.1042829956
 20
8.4821826749
 10
4.1564794261
 20
8.4833154183
 10
4.2131741812
 20
8.4844481617
 10
4.2725770691
 20
8.485580905
 10
4.3328123859
 20
8.4867136484
 10
4.3919781431
 20
8.4878463918
 10
4.4482061243
 20
8.4889791351
 10
4.4997208766
 20
8.4901118785
 10
4.5448957715
 20
8.4912446218
 10
4.5823043679
 20
8.4923773652
 10
4.6107654531
 20
8.4935101086
 10
4.6293803407
 20
8.4946428519
  0
LINE
  5
8A9
100
AcDbEntity
  8
0
100
AcDbLine
 62
7
  6
CONTINUOUS
 10
3.944939803
 20
8.5725764803
 11
3.9468796067
 21
8.5732432423
  0
LINE
  5
8AA
100
AcDbEntity
  8
0
100
AcDbLine
 62
7
  6
CONTINUOUS
 10
3.9490175033
 20
8.6535436861
 11
3.9449398031
 21
8.6525764959
  0
LINE
  5
8AB
100
AcDbEntity
  8
0
100
AcDbLine
 62
9
  6
CONTINUOUS
 10
5.086439803
 20
8.7745764803
 11
3.511439803
 21
8.7745764803
  0
LINE
  5
8AC
100
AcDbEntity
  8
0
100
AcDbLine
 62
7
  6
CONTINUOUS
 10
4.6528925038
 20
8.3546805503
 11
4.6378904118
 21
8.3711851543
  0
LINE
  5
8AD
100
AcDbEntity
  8
0
100
AcDbLine
 62
7
  6
CONTINUOUS
 10
4.6528925038
 20
8.3946805503
 11
4.6378904118
 21
8.4111851543
  0
LINE
  5
8AE
100
AcDbEntity
  8
0
100
AcDbLine
 62
7
  6
CONTINUOUS
 10
4.6528925038
 20
8.4346805503
 11
4.6378904118
 21
8.4511851543
  0
LINE
  5
8AF
100
AcDbEntity
  8
0
100
AcDbLine
 62
7
  6
CONTINUOUS
 10
3.9599891943
 20
8.2311851543
 11
3.9449871023
 21
8.2146805503
  0
LINE
  5
8B0
100
AcDbEntity
  8
0
100
AcDbLine
 62
7
  6
CONTINUOUS
 10
3.9599891943
 20
8.1911851543
 11
3.9449871023
 21
8.1746805503
  0
LINE
  5
8B1
100
AcDbEntity
  8
0
100
AcDbLine
 62
7
  6
CONTINUOUS
 10
3.9599891943
 20
8.1511851543
 11
3.9449871023
 21
8.1346805503
  0
LWPOLYLINE
  5
8B2
100
AcDbEntity
  8
0
100
AcDbPolyline
 62
7
  6
CONTINUOUS
 90
18
 70
0
 10
3.959939803
 20
8.3560764803
 10
3.9605174038
 20
8.3564481617
 10
3.9693614839
 20
8.357580905
 10
3.9886123194
 20
8.3587136484
 10
4.0176620464
 20
8.3598463918
 10
4.0555933916
 20
8.3609791351
 10
4.1012086361
 20
8.3621118785
 10
4.153067434
 20
8.3632446218
 10
4.2095322937
 20
8.3643773652
 10
4.2688202822
 20
8.3655101086
 10
4.3290593239
 20
8.3666428519
 10
4.3883473124
 20
8.3677755953
 10
4.4448121721
 20
8.3689083387
 10
4.49667097
 20
8.370041082
 10
4.5422862145
 20
8.3711738254
 10
4.5802175597
 20
8.3723065688
 10
4.6092672867
 20
8.3734393121
 10
4.6285181222
 20
8.3745720555
  0
LINE
  5
8B3
100
AcDbEntity
  8
0
100
AcDbLine
 62
7
  6
CONTINUOUS
 10
3.9599891943
 20
8.4711851543
 11
3.9607583013
 21
8.4715189581
  0
LINE
  5
8B4
100
AcDbEntity
  8
0
100
AcDbLine
 62
7
  6
CONTINUOUS
 10
4.6528925038
 20
8.4746805503
 11
4.6378904118
 21
8.4911851543
  0
LINE
  5
8B5
100
AcDbEntity
  8
0
100
AcDbLine
 62
7
  6
CONTINUOUS
 10
4.6528925038
 20
8.5146805503
 11
4.6378904118
 21
8.5311851543
  0
LWPOLYLINE
  5
8B6
100
AcDbEntity
  8
0
100
AcDbPolyline
 62
7
  6
CONTINUOUS
 90
19
 70
0
 10
3.959939803
 20
8.2360764803
 10
3.9603183585
 20
8.2363773652
 10
3.9684992654
 20
8.2375101086
 10
3.987114153
 20
8.2386428519
 10
4.0155752382
 20
8.2397755953
 10
4.0529838346
 20
8.2409083387
 10
4.0981587296
 20
8.242041082
 10
4.1496734818
 20
8.2431738254
 10
4.205901463
 20
8.2443065688
 10
4.2650672202
 20
8.2454393121
 10
4.325302537
 20
8.2465720555
 10
4.3847054249
 20
8.2477047988
 10
4.44140018
 20
8.2488375422
 10
4.4935966105
 20
8.2499702856
 10
4.5396465632
 20
8.2511030289
 10
4.5780959664
 20
8.2522357723
 10
4.6077307427
 20
8.2533685157
 10
4.6276151453
 20
8.254501259
 10
4.6371213048
 20
8.2556340024
  0
LINE
  5
8B7
100
AcDbEntity
  8
0
100
AcDbLine
 62
7
  6
CONTINUOUS
 10
3.9599891943
 20
8.3511851543
 11
3.9605174038
 21
8.3514481617
  0
LINE
  5
8B8
100
AcDbEntity
  8
0
100
AcDbLine
 62
7
  6
CONTINUOUS
 10
4.637022556
 20
8.6556080592
 11
4.6378904118
 21
8.6559678063
  0
LWPOLYLINE
  5
8B9
100
AcDbEntity
  8
0
100
AcDbPolyline
 62
7
  6
CONTINUOUS
 90
18
 70
0
 10
3.959939803
 20
8.4360764803
 10
3.9625893465
 20
8.4368729404
 10
3.9753866372
 20
8.4380056838
 10
3.9984004333
 20
8.4391384272
 10
4.0309040517
 20
8.4402711705
 10
4.0718711591
 20
8.4414039139
 10
4.1200081794
 20
8.4425366572
 10
4.1737951395
 20
8.4436694006
 10
4.2315336637
 20
8.444802144
 10
4.2914006023
 20
8.4459348873
 10
4.3515055984
 20
8.4470676307
 10
4.4099507786
 20
8.4482003741
 10
4.4648906794
 20
8.4493331174
 10
4.5145905202
 20
8.4504658608
 10
4.5574809802
 20
8.4515986041
 10
4.5922077516
 20
8.4527313475
 10
4.6176743028
 20
8.4538640909
 10
4.6330765027
 20
8.4549968342
  0
LINE
  5
8BA
100
AcDbEntity
  8
0
100
AcDbLine
 62
7
  6
CONTINUOUS
 10
4.6528925038
 20
8.5546805503
 11
4.6378904118
 21
8.5711851543
  0
LINE
  5
8BB
100
AcDbEntity
  8
0
100
AcDbLine
 62
7
  6
CONTINUOUS
 10
4.6528925038
 20
8.5946805503
 11
4.6378904118
 21
8.6111851543
  0
LINE
  5
8BC
100
AcDbEntity
  8
0
100
AcDbLine
 62
7
  6
CONTINUOUS
 10
3.9599891943
 20
8.2311851543
 11
3.9603183585
 21
8.2313773652
  0
LINE
  5
8BD
100
AcDbEntity
  8
0
100
AcDbLine
 62
7
  6
CONTINUOUS
 10
4.6528925038
 20
8.6346805503
 11
4.6378904118
 21
8.6511851543
  0
LINE
  5
8BE
100
AcDbEntity
  8
0
100
AcDbLine
 62
7
  6
CONTINUOUS
 10
4.6378904118
 20
8.6559678063
 11
4.6457153645
 21
8.6645764803
  0
LINE
  5
8BF
100
AcDbEntity
  8
0
100
AcDbLine
 62
7
  6
CONTINUOUS
 10
4.6378904118
 20
8.6159678063
 11
4.6528925038
 21
8.6324724102
  0
LWPOLYLINE
  5
8C0
100
AcDbEntity
  8
0
100
AcDbPolyline
 62
7
  6
CONTINUOUS
 90
18
 70
0
 10
3.959939803
 20
8.3160764803
 10
3.9621397388
 20
8.316802144
 10
3.9742816437
 20
8.3179348873
 10
3.9966749453
 20
8.3190676307
 10
4.0286125531
 20
8.3202003741
 10
4.0690860063
 20
8.3213331174
 10
4.1168173163
 20
8.3224658608
 10
4.1702993206
 20
8.3235986041
 10
4.227843273
 20
8.3247313475
 10
4.2876321674
 20
8.3258640909
 10
4.3477781113
 20
8.3269968342
 10
4.4063819383
 20
8.3281295776
 10
4.4615931755
 20
8.329262321
 10
4.5116684746
 20
8.3303950643
 10
4.5550266594
 20
8.3315278077
 10
4.590298653
 20
8.3326605511
 10
4.6163707082
 20
8.3337932944
 10
4.6324195743
 20
8.3349260378
  0
LINE
  5
8C1
100
AcDbEntity
  8
0
100
AcDbLine
 62
7
  6
CONTINUOUS
 10
4.6361478236
 20
8.535421613
 11
4.6378904118
 21
8.5359678063
  0
LINE
  5
8C2
100
AcDbEntity
  8
0
100
AcDbLine
 62
7
  6
CONTINUOUS
 10
3.9599891943
 20
8.3111851543
 11
3.9621397388
 21
8.311802144
  0
LINE
  5
8C3
100
AcDbEntity
  8
0
100
AcDbLine
 62
7
  6
CONTINUOUS
 10
4.637689803
 20
8.7020764803
 11
4.637689803
 21
8.6645764803
  0
LINE
  5
8C4
100
AcDbEntity
  8
0
100
AcDbLine
 62
7
  6
CONTINUOUS
 10
4.637939803
 20
8.1310764803
 11
4.637939803
 21
8.1360764803
  0
LINE
  5
8C5
100
AcDbEntity
  8
0
100
AcDbLine
 62
7
  6
CONTINUOUS
 10
4.637939803
 20
8.1710764803
 11
4.637939803
 21
8.1760764803
  0
LINE
  5
8C6
100
AcDbEntity
  8
0
100
AcDbLine
 62
7
  6
CONTINUOUS
 10
4.637939803
 20
8.2110764803
 11
4.637939803
 21
8.2160764803
  0
LINE
  5
8C7
100
AcDbEntity
  8
0
100
AcDbLine
 62
7
  6
CONTINUOUS
 10
4.637939803
 20
8.2510764803
 11
4.637939803
 21
8.2560764803
  0
LINE
  5
8C8
100
AcDbEntity
  8
0
100
AcDbLine
 62
7
  6
CONTINUOUS
 10
4.637939803
 20
8.2910764803
 11
4.637939803
 21
8.2960764803
  0
LINE
  5
8C9
100
AcDbEntity
  8
0
100
AcDbLine
 62
7
  6
CONTINUOUS
 10
4.637939803
 20
8.3310764803
 11
4.637939803
 21
8.3360764803
  0
LINE
  5
8CA
100
AcDbEntity
  8
0
100
AcDbLine
 62
7
  6
CONTINUOUS
 10
4.637939803
 20
8.3710764803
 11
4.637939803
 21
8.3760764803
  0
LINE
  5
8CB
100
AcDbEntity
  8
0
100
AcDbLine
 62
7
  6
CONTINUOUS
 10
4.637939803
 20
8.4110764803
 11
4.637939803
 21
8.4160764803
  0
LINE
  5
8CC
100
AcDbEntity
  8
0
100
AcDbLine
 62
7
  6
CONTINUOUS
 10
4.637939803
 20
8.4510764803
 11
4.637939803
 21
8.4560764803
  0
LINE
  5
8CD
100
AcDbEntity
  8
0
100
AcDbLine
 62
7
  6
CONTINUOUS
 10
4.637939803
 20
8.4910764803
 11
4.637939803
 21
8.4960764803
  0
LINE
  5
8CE
100
AcDbEntity
  8
0
100
AcDbLine
 62
7
  6
CONTINUOUS
 10
4.637939803
 20
8.5310764803
 11
4.637939803
 21
8.5360764803
  0
LINE
  5
8CF
100
AcDbEntity
  8
0
100
AcDbLine
 62
7
  6
CONTINUOUS
 10
4.637939803
 20
8.5710764803
 11
4.637939803
 21
8.5760764803
  0
LINE
  5
8D0
100
AcDbEntity
  8
0
100
AcDbLine
 62
7
  6
CONTINUOUS
 10
4.637939803
 20
8.6110764803
 11
4.637939803
 21
8.6160764803
  0
LINE
  5
8D1
100
AcDbEntity
  8
0
100
AcDbLine
 62
7
  6
CONTINUOUS
 10
4.637939803
 20
8.6510764803
 11
4.637939803
 21
8.6560764803
  0
LINE
  5
8D2
100
AcDbEntity
  8
0
100
AcDbLine
 62
7
  6
CONTINUOUS
 10
4.652939803
 20
8.6345764803
 11
4.652939803
 21
8.6325764803
  0
LINE
  5
8D3
100
AcDbEntity
  8
0
100
AcDbLine
 62
7
  6
CONTINUOUS
 10
4.652939803
 20
8.5945764803
 11
4.652939803
 21
8.5925764803
  0
LINE
  5
8D4
100
AcDbEntity
  8
0
100
AcDbLine
 62
7
  6
CONTINUOUS
 10
4.652939803
 20
8.5545764803
 11
4.652939803
 21
8.5525764803
  0
LINE
  5
8D5
100
AcDbEntity
  8
0
100
AcDbLine
 62
7
  6
CONTINUOUS
 10
4.652939803
 20
8.5145764803
 11
4.652939803
 21
8.5125764803
  0
LINE
  5
8D6
100
AcDbEntity
  8
0
100
AcDbLine
 62
7
  6
CONTINUOUS
 10
4.652939803
 20
8.4745764803
 11
4.652939803
 21
8.4725764803
  0
LINE
  5
8D7
100
AcDbEntity
  8
0
100
AcDbLine
 62
7
  6
CONTINUOUS
 10
4.652939803
 20
8.4345764803
 11
4.652939803
 21
8.4325764803
  0
LINE
  5
8D8
100
AcDbEntity
  8
0
100
AcDbLine
 62
7
  6
CONTINUOUS
 10
4.652939803
 20
8.3945764803
 11
4.652939803
 21
8.3925764803
  0
LINE
  5
8D9
100
AcDbEntity
  8
0
100
AcDbLine
 62
7
  6
CONTINUOUS
 10
4.652939803
 20
8.3545764803
 11
4.652939803
 21
8.3525764803
  0
LINE
  5
8DA
100
AcDbEntity
  8
0
100
AcDbLine
 62
7
  6
CONTINUOUS
 10
4.652939803
 20
8.3145764803
 11
4.652939803
 21
8.3125764803
  0
LINE
  5
8DB
100
AcDbEntity
  8
0
100
AcDbLine
 62
7
  6
CONTINUOUS
 10
4.652939803
 20
8.2745764803
 11
4.652939803
 21
8.2725764803
  0
LINE
  5
8DC
100
AcDbEntity
  8
0
100
AcDbLine
 62
7
  6
CONTINUOUS
 10
4.652939803
 20
8.2345764803
 11
4.652939803
 21
8.2325764803
  0
LINE
  5
8DD
100
AcDbEntity
  8
0
100
AcDbLine
 62
7
  6
CONTINUOUS
 10
4.652939803
 20
8.1945764803
 11
4.652939803
 21
8.1925764803
  0
LINE
  5
8DE
100
AcDbEntity
  8
0
100
AcDbLine
 62
7
  6
CONTINUOUS
 10
4.652939803
 20
8.1545764803
 11
4.652939803
 21
8.1525764803
  0
LINE
  5
8DF
100
AcDbEntity
  8
0
100
AcDbLine
 62
7
  6
CONTINUOUS
 10
4.6528925038
 20
8.6324724102
 11
4.652939803
 21
8.6325764803
  0
LINE
  5
8E0
100
AcDbEntity
  8
0
100
AcDbLine
 62
7
  6
CONTINUOUS
 10
4.6528925038
 20
8.5924724102
 11
4.652939803
 21
8.5925764803
  0
LINE
  5
8E1
100
AcDbEntity
  8
0
100
AcDbLine
 62
7
  6
CONTINUOUS
 10
4.6528925038
 20
8.5524724102
 11
4.652939803
 21
8.5525764803
  0
LINE
  5
8E2
100
AcDbEntity
  8
0
100
AcDbLine
 62
7
  6
CONTINUOUS
 10
4.6378904118
 20
8.5759678063
 11
4.6528925038
 21
8.5924724102
  0
LINE
  5
8E3
100
AcDbEntity
  8
0
100
AcDbLine
 62
7
  6
CONTINUOUS
 10
4.6378904118
 20
8.5359678063
 11
4.6528925038
 21
8.5524724102
  0
LINE
  5
8E4
100
AcDbEntity
  8
0
100
AcDbLine
 62
7
  6
CONTINUOUS
 10
4.6378904118
 20
8.4959678063
 11
4.6528925038
 21
8.5124724102
  0
LWPOLYLINE
  5
8E5
100
AcDbEntity
  8
0
100
AcDbPolyline
 62
7
  6
CONTINUOUS
 90
18
 70
0
 10
3.959939803
 20
8.1960764803
 10
3.9617317825
 20
8.1967313475
 10
3.9732168001
 20
8.1978640909
 10
3.9949868378
 20
8.1989968342
 10
4.0263544855
 20
8.2001295776
 10
4.0663292792
 20
8.201262321
 10
4.113648976
 20
8.2023950643
 10
4.1668194105
 20
8.2035278077
 10
4.2241616747
 20
8.2046605511
 10
4.2838651309
 20
8.2057932944
 10
4.3440445845
 20
8.2069260378
 10
4.4027998108
 20
8.2080587811
 10
4.4582755566
 20
8.2091915245
 10
4.5087201212
 20
8.2103242679
 10
4.5525406687
 20
8.2114570112
 10
4.5883535226
 20
8.2125897546
 10
4.6150278574
 20
8.213722498
 10
4.631721405
 20
8.2148552413
  0
LINE
  5
8E6
100
AcDbEntity
  8
0
100
AcDbLine
 62
7
  6
CONTINUOUS
 10
3.9599891943
 20
8.1911851543
 11
3.9617317825
 21
8.1917313475
  0
LINE
  5
8E7
100
AcDbEntity
  8
0
100
AcDbLine
 62
7
  6
CONTINUOUS
 10
4.6357398673
 20
8.4153508165
 11
4.6378904118
 21
8.4159678063
  0
LINE
  5
8E8
100
AcDbEntity
  8
0
100
AcDbLine
 62
7
  6
CONTINUOUS
 10
4.6528925038
 20
8.5124724102
 11
4.652939803
 21
8.5125764803
  0
LINE
  5
8E9
100
AcDbEntity
  8
0
100
AcDbLine
 62
7
  6
CONTINUOUS
 10
4.6528925038
 20
8.4724724102
 11
4.652939803
 21
8.4725764803
  0
LINE
  5
8EA
100
AcDbEntity
  8
0
100
AcDbLine
 62
7
  6
CONTINUOUS
 10
4.6528925038
 20
8.4324724102
 11
4.652939803
 21
8.4325764803
  0
LINE
  5
8EB
100
AcDbEntity
  8
0
100
AcDbLine
 62
7
  6
CONTINUOUS
 10
4.6528925038
 20
8.3924724102
 11
4.652939803
 21
8.3925764803
  0
LINE
  5
8EC
100
AcDbEntity
  8
0
100
AcDbLine
 62
7
  6
CONTINUOUS
 10
4.6378904118
 20
8.4559678063
 11
4.6528925038
 21
8.4724724102
  0
LINE
  5
8ED
100
AcDbEntity
  8
0
100
AcDbLine
 62
7
  6
CONTINUOUS
 10
4.6378904118
 20
8.4159678063
 11
4.6528925038
 21
8.4324724102
  0
LINE
  5
8EE
100
AcDbEntity
  8
0
100
AcDbLine
 62
7
  6
CONTINUOUS
 10
3.5114471332
 20
9.1545764803
 11
5.086432444
 21
9.1545764803
  0
LINE
  5
8EF
100
AcDbEntity
  8
0
100
AcDbLine
 62
7
  6
CONTINUOUS
 10
5.087939803
 20
9.1675764803
 11
3.509939803
 21
9.1675764803
  0
LINE
  5
8F0
100
AcDbEntity
  8
0
100
AcDbLine
 62
7
  6
CONTINUOUS
 10
4.6528925038
 20
8.3524724102
 11
4.652939803
 21
8.3525764803
  0
LINE
  5
8F1
100
AcDbEntity
  8
0
100
AcDbLine
 62
7
  6
CONTINUOUS
 10
4.6528925038
 20
8.3124724102
 11
4.652939803
 21
8.3125764803
  0
LINE
  5
8F2
100
AcDbEntity
  8
0
100
AcDbLine
 62
7
  6
CONTINUOUS
 10
4.6528925038
 20
8.2724724102
 11
4.652939803
 21
8.2725764803
  0
LINE
  5
8F3
100
AcDbEntity
  8
0
100
AcDbLine
 62
7
  6
CONTINUOUS
 10
4.6528925038
 20
8.2324724102
 11
4.652939803
 21
8.2325764803
  0
LINE
  5
8F4
100
AcDbEntity
  8
0
100
AcDbLine
 62
7
  6
CONTINUOUS
 10
4.6378904118
 20
8.3759678063
 11
4.6528925038
 21
8.3924724102
  0
LINE
  5
8F5
100
AcDbEntity
  8
0
100
AcDbLine
 62
7
  6
CONTINUOUS
 10
4.6378904118
 20
8.3359678063
 11
4.6528925038
 21
8.3524724102
  0
LINE
  5
8F6
100
AcDbEntity
  8
0
100
AcDbLine
 62
7
  6
CONTINUOUS
 10
4.6378904118
 20
8.2959678063
 11
4.6528925038
 21
8.3124724102
  0
LINE
  5
8F7
100
AcDbEntity
  8
0
100
AcDbLine
 62
9
  6
CONTINUOUS
 10
5.087939803
 20
9.2475764803
 11
3.509939803
 21
9.2475764803
  0
LINE
  5
8F8
100
AcDbEntity
  8
0
100
AcDbLine
 62
7
  6
CONTINUOUS
 10
4.6528925038
 20
8.1924724102
 11
4.652939803
 21
8.1925764803
  0
LINE
  5
8F9
100
AcDbEntity
  8
0
100
AcDbLine
 62
7
  6
CONTINUOUS
 10
4.652939803
 20
8.1525764803
 11
4.6528925038
 21
8.1524724102
  0
LINE
  5
8FA
100
AcDbEntity
  8
0
100
AcDbLine
 62
7
  6
CONTINUOUS
 10
4.6378904118
 20
8.2559678063
 11
4.6528925038
 21
8.2724724102
  0
LINE
  5
8FB
100
AcDbEntity
  8
0
100
AcDbLine
 62
7
  6
CONTINUOUS
 10
4.6378904118
 20
8.2159678063
 11
4.6528925038
 21
8.2324724102
  0
LINE
  5
8FC
100
AcDbEntity
  8
0
100
AcDbLine
 62
7
  6
CONTINUOUS
 10
4.6371213048
 20
8.2556340024
 11
4.6378904118
 21
8.2559678063
  0
LINE
  5
8FD
100
AcDbEntity
  8
0
100
AcDbLine
 62
7
  6
CONTINUOUS
 10
5.027939803
 20
9.3075764803
 11
3.569939803
 21
9.3075764803
  0
LINE
  5
8FE
100
AcDbEntity
  8
0
100
AcDbLine
 62
7
  6
CONTINUOUS
 10
4.6378904118
 20
8.1759678063
 11
4.6528925038
 21
8.1924724102
  0
LINE
  5
8FF
100
AcDbEntity
  8
0
100
AcDbLine
 62
7
  6
CONTINUOUS
 10
4.6378904118
 20
8.1359678063
 11
4.6528925038
 21
8.1524724102
  0
LINE
  5
900
100
AcDbEntity
  8
0
100
AcDbLine
 62
7
  6
CONTINUOUS
 10
4.652939803
 20
8.1545764803
 11
4.6510000769
 21
8.1539097315
  0
LINE
  5
901
100
AcDbEntity
  8
0
100
AcDbLine
 62
7
  6
CONTINUOUS
 10
5.058439803
 20
9.1545764803
 11
5.058439803
 21
9.1675764803
  0
LINE
  5
902
100
AcDbEntity
  8
0
100
AcDbLine
 62
7
  6
CONTINUOUS
 10
5.086439803
 20
9.1545764803
 11
5.086439803
 21
8.7745764803
  0
LINE
  5
903
100
AcDbEntity
  8
0
100
AcDbLine
 62
7
  6
CONTINUOUS
 10
5.087939803
 20
9.2475764803
 11
5.087939803
 21
9.1675764803
  0
CIRCLE
  5
904
100
AcDbEntity
  8
0
100
AcDbCircle
 62
7
  6
CONTINUOUS
 10
10.5342808475
 20
1.243294839
 40
0.252091
  0
CIRCLE
  5
905
100
AcDbEntity
  8
0
100
AcDbCircle
 62
7
  6
CONTINUOUS
 10
10.5342808475
 20
1.243294839
 40
0.182698
  0
ARC
  5
906
100
AcDbEntity
  8
0
100
AcDbCircle
 62
7
  6
CONTINUOUS
 10
3.943939803
 20
4.9133525778
 40
0.06
100
AcDbArc
 50
0.0
 51
64.8859091127
  0
ARC
  5
907
100
AcDbEntity
  8
0
100
AcDbCircle
 62
7
  6
CONTINUOUS
 10
4.653939803
 20
4.9133525778
 40
0.06
100
AcDbArc
 50
115.1140680932
 51
180.0
  0
ARC
  5
908
100
AcDbEntity
  8
0
100
AcDbCircle
 62
7
  6
CONTINUOUS
 10
4.298939803
 20
5.682918202
 40
0.789
100
AcDbArc
 50
294.0995156099
 51
245.9004847249
  0
ARC
  5
909
100
AcDbEntity
  8
0
100
AcDbCircle
 62
7
  6
CONTINUOUS
 10
4.298939803
 20
5.682918202
 40
0.7875
100
AcDbArc
 50
288.2981548598
 51
251.7018451402
  0
CIRCLE
  5
90A
100
AcDbEntity
  8
0
100
AcDbCircle
 62
9
  6
CONTINUOUS
 10
4.298939803
 20
5.682918202
 40
0.7275
  0
ARC
  5
90B
100
AcDbEntity
  8
0
100
AcDbCircle
 62
7
  6
CONTINUOUS
 10
4.298939803
 20
5.682918202
 40
0.354
100
AcDbArc
 50
270.9460697222
 51
269.9999999991
  0
CIRCLE
  5
90C
100
AcDbEntity
  8
0
100
AcDbCircle
 62
7
  6
CONTINUOUS
 10
4.298939803
 20
5.682918202
 40
0.306
  0
CIRCLE
  5
90D
100
AcDbEntity
  8
AXIS_COSMETIC_THREADS
100
AcDbCircle
 62
7
  6
CONTINUOUS
 10
4.298939803
 20
5.682918202
 40
0.3025
  0
ARC
  5
90E
100
AcDbEntity
  8
0
100
AcDbCircle
 62
7
  6
CONTINUOUS
 10
4.298939803
 20
5.682918202
 40
0.255
100
AcDbArc
 50
182.2474696181
 51
357.7525303819
  0
ARC
  5
90F
100
AcDbEntity
  8
0
100
AcDbCircle
 62
7
  6
CONTINUOUS
 10
4.298939803
 20
5.682918202
 40
0.255
100
AcDbArc
 50
2.2474696181
 51
177.7525303819
  0
ARC
  5
910
100
AcDbEntity
  8
AXIS
100
AcDbCircle
 62
7
  6
CONTINUOUS
 10
4.298939803
 20
5.682918202
 40
0.25
100
AcDbArc
 50
183.210243033
 51
356.789756967
  0
ARC
  5
911
100
AcDbEntity
  8
AXIS
100
AcDbCircle
 62
7
  6
CONTINUOUS
 10
4.298939803
 20
5.682918202
 40
0.25
100
AcDbArc
 50
3.210243033
 51
176.789756967
  0
ARC
  5
912
100
AcDbEntity
  8
0
100
AcDbCircle
 62
7
  6
CONTINUOUS
 10
8.8740431257
 20
6.411918202
 40
0.06
100
AcDbArc
 50
0.0
 51
90.0
  0
ARC
  5
913
100
AcDbEntity
  8
0
100
AcDbCircle
 62
7
  6
CONTINUOUS
 10
8.4010431257
 20
6.410418202
 40
0.06
100
AcDbArc
 50
90.0
 51
180.0
  0
ARC
  5
914
100
AcDbEntity
  8
0
100
AcDbCircle
 62
7
  6
CONTINUOUS
 10
8.8781179289
 20
6.252918202
 40
0.0575
100
AcDbArc
 50
347.2959531578
 51
12.7040468422
  0
ARC
  5
915
100
AcDbEntity
  8
0
100
AcDbCircle
 62
7
  6
CONTINUOUS
 10
8.3285431257
 20
5.331668202
 40
0.0125
100
AcDbArc
 50
0.000000001
 51
90.0
  0
ARC
  5
916
100
AcDbEntity
  8
0
100
AcDbCircle
 62
7
  6
CONTINUOUS
 10
8.3285431257
 20
6.034168202
 40
0.0125
100
AcDbArc
 50
270.0
 51
359.9999999973
  0
ARC
  5
917
100
AcDbEntity
  8
0
100
AcDbCircle
 62
7
  6
CONTINUOUS
 10
8.9330110087
 20
4.894951982
 40
0.0010331094
100
AcDbArc
 50
270.0
 51
360.0
  0
ARC
  5
918
100
AcDbEntity
  8
0
100
AcDbCircle
 62
7
  6
CONTINUOUS
 10
11.9086396125
 20
4.9133525778
 40
0.06
100
AcDbArc
 50
0.0
 51
62.7167297987
  0
CIRCLE
  5
919
100
AcDbEntity
  8
02___PRT_ALL_AXES
100
AcDbCircle
 62
7
  6
CONTINUOUS
 10
11.9236396125
 20
5.725918202
 40
0.175
  0
CIRCLE
  5
91A
100
AcDbEntity
  8
AXIS
100
AcDbCircle
 62
7
  6
CONTINUOUS
 10
11.9236396125
 20
5.725918202
 40
0.175
  0
CIRCLE
  5
91B
100
AcDbEntity
  8
0
100
AcDbCircle
 62
7
  6
CONTINUOUS
 10
11.9236396125
 20
5.725918202
 40
0.1599999822
  0
CIRCLE
  5
91C
100
AcDbEntity
  8
0
100
AcDbCircle
 62
7
  6
CONTINUOUS
 10
11.9236396125
 20
5.725918202
 40
0.14
  0
CIRCLE
  5
91D
100
AcDbEntity
  8
0
100
AcDbCircle
 62
7
  6
CONTINUOUS
 10
11.9236396125
 20
5.725918202
 40
0.131
  0
CIRCLE
  5
91E
100
AcDbEntity
  8
0
100
AcDbCircle
 62
9
  6
CONTINUOUS
 10
11.9236396125
 20
5.725918202
 40
0.116
  0
CIRCLE
  5
91F
100
AcDbEntity
  8
AXIS
100
AcDbCircle
 62
7
  6
CONTINUOUS
 10
11.9236396125
 20
5.725918202
 40
0.05
  0
ARC
  5
920
100
AcDbEntity
  8
0
100
AcDbCircle
 62
7
  6
CONTINUOUS
 10
12.2016396125
 20
5.837918202
 40
0.03
100
AcDbArc
 50
90.0
 51
180.0
  0
ARC
  5
921
100
AcDbEntity
  8
0
100
AcDbCircle
 62
7
  6
CONTINUOUS
 10
12.2016396125
 20
5.712918202
 40
0.03
100
AcDbArc
 50
180.0
 51
270.0
  0
CIRCLE
  5
922
100
AcDbEntity
  8
0
100
AcDbCircle
 62
7
  6
CONTINUOUS
 10
12.1386396125
 20
6.252918202
 40
0.094
  0
CIRCLE
  5
923
100
AcDbEntity
  8
0
100
AcDbCircle
 62
7
  6
CONTINUOUS
 10
12.1386396125
 20
6.252918202
 40
0.064
  0
CIRCLE
  5
924
100
AcDbEntity
  8
0
100
AcDbCircle
 62
7
  6
CONTINUOUS
 10
12.1386396125
 20
6.252918202
 40
0.0575
  0
ARC
  5
925
100
AcDbEntity
  8
0
100
AcDbCircle
 62
7
  6
CONTINUOUS
 10
12.6186396125
 20
4.9133525778
 40
0.06
100
AcDbArc
 50
117.2839924603
 51
180.0
  0
ARC
  5
926
100
AcDbEntity
  8
0
100
AcDbCircle
 62
7
  6
CONTINUOUS
 10
12.2636396125
 20
5.682918202
 40
0.792
100
AcDbArc
 50
251.0723127861
 51
288.9276872139
  0
CIRCLE
  5
927
100
AcDbEntity
  8
0
100
AcDbCircle
 62
7
  6
CONTINUOUS
 10
12.2636396125
 20
5.682918202
 40
0.789
  0
ARC
  5
928
100
AcDbEntity
  8
0
100
AcDbCircle
 62
9
  6
CONTINUOUS
 10
12.2636396125
 20
5.682918202
 40
0.729
100
AcDbArc
 50
0.0
 51
180.0
  0
ARC
  5
929
100
AcDbEntity
  8
0
100
AcDbCircle
 62
9
  6
CONTINUOUS
 10
12.2636396125
 20
5.682918202
 40
0.336
100
AcDbArc
 50
149.045958535
 51
150.6108939409
  0
ARC
  5
92A
100
AcDbEntity
  8
0
100
AcDbCircle
 62
9
  6
CONTINUOUS
 10
12.2636396125
 20
5.682918202
 40
0.336
100
AcDbArc
 50
195.0303357935
 51
196.5482001617
  0
ARC
  5
92B
100
AcDbEntity
  8
0
100
AcDbCircle
 62
7
  6
CONTINUOUS
 10
12.2636396125
 20
5.682918202
 40
0.306
100
AcDbArc
 50
148.738949208
 51
150.4476026476
  0
ARC
  5
92C
100
AcDbEntity
  8
0
100
AcDbCircle
 62
7
  6
CONTINUOUS
 10
12.2636396125
 20
5.682918202
 40
0.306
100
AcDbArc
 50
195.10095178
 51
196.8433527235
  0
ARC
  5
92D
100
AcDbEntity
  8
AXIS_COSMETIC_THREADS
100
AcDbCircle
 62
7
  6
CONTINUOUS
 10
12.2636396125
 20
5.682918202
 40
0.29
100
AcDbArc
 50
149.11714244
 51
150.8841088463
  0
ARC
  5
92E
100
AcDbEntity
  8
AXIS_COSMETIC_THREADS
100
AcDbCircle
 62
7
  6
CONTINUOUS
 10
12.2636396125
 20
5.682918202
 40
0.29
100
AcDbArc
 50
194.6638452469
 51
196.4901005298
  0
ARC
  5
92F
100
AcDbEntity
  8
AXIS_COSMETIC_THREADS
100
AcDbCircle
 62
7
  6
CONTINUOUS
 10
12.2636396125
 20
5.682918202
 40
0.265
100
AcDbArc
 50
150.5415678377
 51
152.7302349324
  0
ARC
  5
930
100
AcDbEntity
  8
AXIS_COSMETIC_THREADS
100
AcDbCircle
 62
7
  6
CONTINUOUS
 10
12.2636396125
 20
5.682918202
 40
0.265
100
AcDbArc
 50
192.8807480398
 51
194.9673099129
  0
ARC
  5
931
100
AcDbEntity
  8
AXIS_COSMETIC_THREADS
100
AcDbCircle
 62
7
  6
CONTINUOUS
 10
12.2636396125
 20
5.682918202
 40
0.255
100
AcDbArc
 50
151.6396519863
 51
153.9254878406
  0
ARC
  5
932
100
AcDbEntity
  8
AXIS_COSMETIC_THREADS
100
AcDbCircle
 62
7
  6
CONTINUOUS
 10
12.2636396125
 20
5.682918202
 40
0.255
100
AcDbArc
 50
191.6138240513
 51
193.9249975209
  0
ARC
  5
933
100
AcDbEntity
  8
0
100
AcDbCircle
 62
7
  6
CONTINUOUS
 10
12.2636396125
 20
5.682918202
 40
0.22
100
AcDbArc
 50
181.8117657551
 51
186.6671913511
  0
ARC
  5
934
100
AcDbEntity
  8
0
100
AcDbCircle
 62
7
  6
CONTINUOUS
 10
12.2636396125
 20
5.682918202
 40
0.22
100
AcDbArc
 50
162.8152040989
 51
163.3827187754
  0
CIRCLE
  5
935
100
AcDbEntity
  8
0
100
AcDbCircle
 62
7
  6
CONTINUOUS
 10
12.3886396125
 20
6.252918202
 40
0.094
  0
CIRCLE
  5
936
100
AcDbEntity
  8
0
100
AcDbCircle
 62
7
  6
CONTINUOUS
 10
12.3886396125
 20
6.252918202
 40
0.064
  0
CIRCLE
  5
937
100
AcDbEntity
  8
0
100
AcDbCircle
 62
7
  6
CONTINUOUS
 10
12.3886396125
 20
6.252918202
 40
0.0575
  0
CIRCLE
  5
938
100
AcDbEntity
  8
AXIS_COSMETIC_THREADS
100
AcDbCircle
 62
7
  6
CONTINUOUS
 10
12.2636396125
 20
5.774918202
 40
0.035
  0
ARC
  5
939
100
AcDbEntity
  8
0
100
AcDbCircle
 62
7
  6
CONTINUOUS
 10
12.3266396125
 20
5.712918202
 40
0.03
100
AcDbArc
 50
270.0
 51
360.0
  0
ARC
  5
93A
100
AcDbEntity
  8
0
100
AcDbCircle
 62
7
  6
CONTINUOUS
 10
12.3266396125
 20
5.837918202
 40
0.03
100
AcDbArc
 50
0.0
 51
90.0
  0
CIRCLE
  5
93B
100
AcDbEntity
  8
AXIS_COSMETIC_THREADS
100
AcDbCircle
 62
7
  6
CONTINUOUS
 10
12.2636396125
 20
5.774918202
 40
0.01
  0
ARC
  5
93C
100
AcDbEntity
  8
0
100
AcDbCircle
 62
7
  6
CONTINUOUS
 10
3.569939803
 20
9.2475764803
 40
0.06
100
AcDbArc
 50
90.0
 51
180.0
  0
ARC
  5
93D
100
AcDbEntity
  8
0
100
AcDbCircle
 62
7
  6
CONTINUOUS
 10
5.027939803
 20
9.2475764803
 40
0.06
100
AcDbArc
 50
0.0
 51
90.0
  0
ARC
  5
93E
100
AcDbEntity
  8
0
100
AcDbCircle
 62
7
  6
CONTINUOUS
 10
3.571439803
 20
8.7745764803
 40
0.06
100
AcDbArc
 50
180.0
 51
270.0
  0
ARC
  5
93F
100
AcDbEntity
  8
0
100
AcDbCircle
 62
7
  6
CONTINUOUS
 10
5.026439803
 20
8.7745764803
 40
0.06
100
AcDbArc
 50
270.0
 51
360.0
  0
ARC
  5
940
100
AcDbEntity
  8
0
100
AcDbCircle
 62
7
  6
CONTINUOUS
 10
4.423939803
 20
9.2516512834
 40
0.0575
100
AcDbArc
 50
77.2959531578
 51
102.7040468422
  0
ARC
  5
941
100
AcDbEntity
  8
0
100
AcDbCircle
 62
7
  6
CONTINUOUS
 10
4.173939803
 20
9.2516512834
 40
0.0575
100
AcDbArc
 50
77.2959531578
 51
102.7040468422
  0
ARC
  5
942
100
AcDbEntity
  8
0
100
AcDbCircle
 62
7
  6
CONTINUOUS
 10
3.947689803
 20
8.7020764803
 40
0.0125
100
AcDbArc
 50
0.0
 51
89.9999864903
  0
ARC
  5
943
100
AcDbEntity
  8
0
100
AcDbCircle
 62
7
  6
CONTINUOUS
 10
4.650189803
 20
8.7020764803
 40
0.0125
100
AcDbArc
 50
90.0000135097
 51
180.0
  0
ELLIPSE
  5
944
100
AcDbEntity
  8
0
100
AcDbEllipse
 62
7
  6
CONTINUOUS
 10
4.298939803
 20
6.4011000202
 30
0.0
 11
-0.0
 21
0.8618181818
 31
0.0
 40
0.5527707984
 41
-2.5907352734
 42
-2.577243152
  0
ELLIPSE
  5
945
100
AcDbEntity
  8
0
100
AcDbEllipse
 62
7
  6
CONTINUOUS
 10
4.298939803
 20
6.4011000202
 30
0.0
 11
0.0
 21
0.8618181818
 31
0.0
 40
0.5527707984
 41
-3.7059421551
 42
-3.6924500333
  0
ELLIPSE
  5
946
100
AcDbEntity
  8
0
100
AcDbEllipse
 62
7
  6
CONTINUOUS
 10
4.298939803
 20
4.9647363839
 30
0.0
 11
-0.0
 21
0.8618181818
 31
0.0
 40
0.5527707984
 41
-0.5643495016
 42
-0.5508573797
  0
ELLIPSE
  5
947
100
AcDbEntity
  8
0
100
AcDbEllipse
 62
7
  6
CONTINUOUS
 10
4.298939803
 20
4.9647363839
 30
0.0
 11
0.0
 21
0.8618181818
 31
0.0
 40
0.5527707984
 41
0.5508573802
 42
0.5643495016
  0
ENDSEC
  0
SECTION
  2
OBJECTS
  0
DICTIONARY
  5
C
100
AcDbDictionary
280
0
281
1
  3
ACAD_GROUP
350
D
  3
ACAD_MLINESTYLE
350
17
  3
ACAD_LAYOUT
350
1A
  3
ACAD_PLOTSETTINGS
350
19
  3
ACAD_PLOTSTYLENAME
350
E
  0
DICTIONARY
  5
D
102
{ACAD_REACTORS
330
C
102
}
100
AcDbDictionary
280
0
281
1
  0
ACDBDICTIONARYWDFLT
  5
E
102
{ACAD_REACTORS
330
C
102
}
100
AcDbDictionary
281
1
  3
Normal
350
F
100
AcDbDictionaryWithDefault
340
F
  0
DICTIONARY
  5
17
102
{ACAD_REACTORS
330
C
102
}
100
AcDbDictionary
280
0
281
1
  3
Standard
350
18
  0
DICTIONARY
  5
19
102
{ACAD_REACTORS
330
C
102
}
100
AcDbDictionary
281
1
  0
DICTIONARY
  5
1A
102
{ACAD_REACTORS
330
C
102
}
100
AcDbDictionary
281
1
  3
Model
350
948
  3
Layout1
350
949
  0
ACDBPLACEHOLDER
  5
F
102
{ACAD_REACTORS
330
E
102
}
  0
MLINESTYLE
  5
18
102
{ACAD_REACTORS
330
17
102
}
100
AcDbMlineStyle
  2
STANDARD
 70
0
  3

 62
256
 51
90.0
 52
90.0
 71
2
 49
0.5
 62
256
  6
BYLAYER
 49
-0.5
 62
256
  6
BYLAYER
  0
LAYOUT
  5
948
102
{ACAD_REACTORS
330
1A
102
}
100
AcDbPlotSettings
  1

  2
none_device
  4
ANSI_B_(17.00_x_11.00_Inches)
  6

 40
0.0
 41
0.0
 42
0.0
 43
0.0
 44
431.8
 45
279.4
 46
0.0
 47
0.0
 48
0.0
 49
0.0
140
0.0
141
0.0
142
1.0
143
1.0
 70
1024
 72
0
 73
0
 74
0
  7

 75
0
147
1.0
148
0.0
149
0.0
100
AcDbLayout
  1
Model
 70
0
 71
0
 10
0.0
 20
0.0
 11
17.0
 21
11.0
 12
0.0
 22
0.0
 32
0.0
 14
0.0
 24
0.0
 34
0.0
 15
0.0
 25
0.0
 35
0.0
146
0.0
 13
0.0
 23
0.0
 33
0.0
 16
1.0
 26
0.0
 36
0.0
 17
0.0
 27
1.0
 37
0.0
 76
0
330
244
345
0
346
0
  0
LAYOUT
  5
949
102
{ACAD_REACTORS
330
1A
102
}
100
AcDbPlotSettings
  1

  2
none_device
  4
ANSI_B_(17.00_x_11.00_Inches)
  6

 40
0.0
 41
0.0
 42
0.0
 43
0.0
 44
431.8
 45
279.4
 46
0.0
 47
0.0
 48
0.0
 49
0.0
140
0.0
141
0.0
142
1.0
143
1.0
 70
0
 72
0
 73
0
 74
0
  7

 75
0
147
1.0
148
0.0
149
0.0
100
AcDbLayout
  1
Layout1
 70
0
 71
1
 10
0.0
 20
0.0
 11
17.0
 21
11.0
 12
0.0
 22
0.0
 32
0.0
 14
0.0
 24
0.0
 34
0.0
 15
0.0
 25
0.0
 35
0.0
146
0.0
 13
0.0
 23
0.0
 33
0.0
 16
1.0
 26
0.0
 36
0.0
 17
0.0
 27
1.0
 37
0.0
 76
0
330
245
345
0
346
0
  0
ENDSEC
  0
EOF
