999
DXF file: 155316_1.dxf
999
Pro/ENGINEER 2009141 by Parametric Technology Corporation
  0
SECTION
  2
HEADER
  9
$ACADVER
  1
AC1015
  9
$DWGCODEPAGE
  3
ANSI_1252
  9
$EXTMAX
 10
17.0
 20
11.0
 30
0.0
  9
$EXTMIN
 10
0.0
 20
0.0
 30
0.0
  9
$LIMMIN
 10
0.0
 20
0.0
  9
$LIMMAX
 10
17.0
 20
11.0
  9
$VIEWCTR
 10
8.5
 20
5.5
  9
$VIEWSIZE
 40
11.0
  9
$CLAYER
  8
0
  9
$LTSCALE
 40
0.935
  9
$CELTYPE
  6
BYLAYER
  9
$DIMSCALE
 40
1.0
  9
$DIMASZ
 40
0.1875
  9
$DIMEXO
 40
0.10625
  9
$DIMDLI
 40
0.646
  9
$DIMEXE
 40
0.306
  9
$DIMCEN
 40
0.153
  9
$DIMLFAC
 40
1.0
  9
$DIMBLK
  1
_FILLED
  9
$DIMTXT
 40
0.1
  9
$DIMTOL
 70
1
  9
$DIMLIM
 70
0
  9
$DIMTFAC
 40
1.0
  9
$DIMTP
 40
0.005
  9
$DIMTM
 40
0.005
  9
$PDMODE
 70
3
  9
$PDSIZE
 40
0.3125
  9
$HANDSEED
  5
8F4
  9
$TILEMODE
 70
1
  9
$MEASUREMENT
 70
0
  9
$INSUNITS
 70
1
  0
ENDSEC
  0
SECTION
  2
CLASSES
  0
CLASS
  1
ACDBDICTIONARYWDFLT
  2
AcDbDictionaryWithDefault
  3
AutoCAD 2000
 90
0
280
0
281
0
  0
CLASS
  1
ACDBPLACEHOLDER
  2
AcDbPlaceHolder
  3
AutoCAD 2000
 90
0
280
0
281
0
  0
CLASS
  1
LAYOUT
  2
AcDbLayout
  3
AutoCAD 2000
 90
0
280
0
281
0
  0
ENDSEC
  0
SECTION
  2
TABLES
  0
TABLE
  2
VPORT
  5
8
100
AcDbSymbolTable
 70
2
  0
VPORT
  5
1F4
100
AcDbSymbolTableRecord
100
AcDbViewportTableRecord
  2
*ACTIVE
 70
0
 10
0.0
 20
0.0
 11
1.0
 21
1.0
 12
8.5
 22
5.5
 13
0.0
 23
0.0
 14
1.0
 24
1.0
 15
0.0
 25
0.0
 16
0.0
 26
0.0
 36
1.0
 17
0.0
 27
0.0
 37
0.0
 40
11.0
 41
1.5454545455
 42
50.0
 43
0.0
 44
0.0
 50
0.0
 51
0.0
 71
0
 72
100
 73
1
 74
1
 75
0
 76
0
 77
0
 78
0
  0
ENDTAB
  0
TABLE
  2
LTYPE
  5
5
100
AcDbSymbolTable
 70
6
  0
LTYPE
  5
14
100
AcDbSymbolTableRecord
100
AcDbLinetypeTableRecord
  2
BYBLOCK
 70
0
  3

 72
65
 73
0
 40
0.0
  0
LTYPE
  5
15
100
AcDbSymbolTableRecord
100
AcDbLinetypeTableRecord
  2
BYLAYER
 70
0
  3

 72
65
 73
0
 40
0.0
  0
LTYPE
  5
16
100
AcDbSymbolTableRecord
100
AcDbLinetypeTableRecord
  2
CONTINUOUS
 70
64
  3
Solid line
 72
65
 73
0
 40
0.0
  0
LTYPE
  5
1F5
100
AcDbSymbolTableRecord
100
AcDbLinetypeTableRecord
  2
CENTER
 70
64
  3
____ _ ____ _ ____ _ ____ _ ____ _ ____ _ ____
 72
65
 73
4
 40
0.6
 49
0.375
 74
0
 49
-0.075
 74
0
 49
0.075
 74
0
 49
-0.075
 74
0
  0
LTYPE
  5
1F6
100
AcDbSymbolTableRecord
100
AcDbLinetypeTableRecord
  2
HIDDEN
 70
64
  3
- - - - - - - - - - - - - - - - - - - -
 72
65
 73
2
 40
0.2
 49
0.1
 74
0
 49
-0.1
 74
0
  0
LTYPE
  5
1F7
100
AcDbSymbolTableRecord
100
AcDbLinetypeTableRecord
  2
PHANTOM
 70
64
  3
_____ _ _ _____ _ _ _____ _ _ _____
 72
65
 73
6
 40
0.8
 49
0.45
 74
0
 49
-0.05
 74
0
 49
0.1
 74
0
 49
-0.05
 74
0
 49
0.1
 74
0
 49
-0.05
 74
0
  0
LTYPE
  5
1F8
100
AcDbSymbolTableRecord
100
AcDbLinetypeTableRecord
  2
DOT
 70
64
  3
. . . . . . . . . . . . . . . . . . . .
 72
65
 73
2
 40
0.2
 49
0.1
 74
0
 49
-0.1
 74
0
  0
LTYPE
  5
1F9
100
AcDbSymbolTableRecord
100
AcDbLinetypeTableRecord
  2
DASHED
 70
64
  3
- - - - - - - - - - - - - - - - - - - -
 72
65
 73
2
 40
0.2
 49
0.1
 74
0
 49
-0.1
 74
0
  0
ENDTAB
  0
TABLE
  2
LAYER
  5
2
100
AcDbSymbolTable
 70
36
  0
LAYER
  5
10
100
AcDbSymbolTableRecord
100
AcDbLayerTableRecord
  2
0
 70
0
 62
7
  6
CONTINUOUS
370
-3
390
F
  0
LAYER
  5
1FA
100
AcDbSymbolTableRecord
100
AcDbLayerTableRecord
  2
DEFAULT_1
 70
0
 62
7
  6
CENTER
370
-3
390
F
  0
LAYER
  5
1FB
100
AcDbSymbolTableRecord
100
AcDbLayerTableRecord
  2
DEFAULT_2
 70
0
 62
8
  6
HIDDEN
370
-3
390
F
  0
LAYER
  5
1FC
100
AcDbSymbolTableRecord
100
AcDbLayerTableRecord
  2
DEFAULT_3
 70
0
 62
7
  6
PHANTOM
370
-3
390
F
  0
LAYER
  5
1FD
100
AcDbSymbolTableRecord
100
AcDbLayerTableRecord
  2
1
 70
0
 62
7
  6
CONTINUOUS
370
-3
390
F
  0
LAYER
  5
1FE
100
AcDbSymbolTableRecord
100
AcDbLayerTableRecord
  2
10
 70
0
 62
7
  6
CONTINUOUS
370
-3
390
F
  0
LAYER
  5
1FF
100
AcDbSymbolTableRecord
100
AcDbLayerTableRecord
  2
11
 70
0
 62
7
  6
CONTINUOUS
370
-3
390
F
  0
LAYER
  5
200
100
AcDbSymbolTableRecord
100
AcDbLayerTableRecord
  2
12
 70
0
 62
7
  6
CONTINUOUS
370
-3
390
F
  0
LAYER
  5
201
100
AcDbSymbolTableRecord
100
AcDbLayerTableRecord
  2
13
 70
0
 62
7
  6
CONTINUOUS
370
-3
390
F
  0
LAYER
  5
202
100
AcDbSymbolTableRecord
100
AcDbLayerTableRecord
  2
14
 70
0
 62
7
  6
CONTINUOUS
370
-3
390
F
  0
LAYER
  5
203
100
AcDbSymbolTableRecord
100
AcDbLayerTableRecord
  2
15
 70
0
 62
7
  6
CONTINUOUS
370
-3
390
F
  0
LAYER
  5
204
100
AcDbSymbolTableRecord
100
AcDbLayerTableRecord
  2
16
 70
0
 62
7
  6
CONTINUOUS
370
-3
390
F
  0
LAYER
  5
205
100
AcDbSymbolTableRecord
100
AcDbLayerTableRecord
  2
17
 70
0
 62
7
  6
CONTINUOUS
370
-3
390
F
  0
LAYER
  5
206
100
AcDbSymbolTableRecord
100
AcDbLayerTableRecord
  2
18
 70
0
 62
7
  6
CONTINUOUS
370
-3
390
F
  0
LAYER
  5
207
100
AcDbSymbolTableRecord
100
AcDbLayerTableRecord
  2
19
 70
0
 62
7
  6
CONTINUOUS
370
-3
390
F
  0
LAYER
  5
208
100
AcDbSymbolTableRecord
100
AcDbLayerTableRecord
  2
2
 70
0
 62
7
  6
CONTINUOUS
370
-3
390
F
  0
LAYER
  5
209
100
AcDbSymbolTableRecord
100
AcDbLayerTableRecord
  2
20
 70
0
 62
7
  6
CONTINUOUS
370
-3
390
F
  0
LAYER
  5
20A
100
AcDbSymbolTableRecord
100
AcDbLayerTableRecord
  2
21
 70
0
 62
7
  6
CONTINUOUS
370
-3
390
F
  0
LAYER
  5
20B
100
AcDbSymbolTableRecord
100
AcDbLayerTableRecord
  2
22
 70
0
 62
7
  6
CONTINUOUS
370
-3
390
F
  0
LAYER
  5
20C
100
AcDbSymbolTableRecord
100
AcDbLayerTableRecord
  2
23
 70
0
 62
7
  6
CONTINUOUS
370
-3
390
F
  0
LAYER
  5
20D
100
AcDbSymbolTableRecord
100
AcDbLayerTableRecord
  2
24
 70
0
 62
7
  6
CONTINUOUS
370
-3
390
F
  0
LAYER
  5
20E
100
AcDbSymbolTableRecord
100
AcDbLayerTableRecord
  2
25
 70
0
 62
7
  6
CONTINUOUS
370
-3
390
F
  0
LAYER
  5
20F
100
AcDbSymbolTableRecord
100
AcDbLayerTableRecord
  2
26
 70
0
 62
7
  6
CONTINUOUS
370
-3
390
F
  0
LAYER
  5
210
100
AcDbSymbolTableRecord
100
AcDbLayerTableRecord
  2
27
 70
0
 62
7
  6
CONTINUOUS
370
-3
390
F
  0
LAYER
  5
211
100
AcDbSymbolTableRecord
100
AcDbLayerTableRecord
  2
28
 70
0
 62
7
  6
CONTINUOUS
370
-3
390
F
  0
LAYER
  5
212
100
AcDbSymbolTableRecord
100
AcDbLayerTableRecord
  2
29
 70
0
 62
7
  6
CONTINUOUS
370
-3
390
F
  0
LAYER
  5
213
100
AcDbSymbolTableRecord
100
AcDbLayerTableRecord
  2
3
 70
0
 62
7
  6
CONTINUOUS
370
-3
390
F
  0
LAYER
  5
214
100
AcDbSymbolTableRecord
100
AcDbLayerTableRecord
  2
30
 70
0
 62
7
  6
CONTINUOUS
370
-3
390
F
  0
LAYER
  5
215
100
AcDbSymbolTableRecord
100
AcDbLayerTableRecord
  2
31
 70
0
 62
7
  6
CONTINUOUS
370
-3
390
F
  0
LAYER
  5
216
100
AcDbSymbolTableRecord
100
AcDbLayerTableRecord
  2
32
 70
0
 62
7
  6
CONTINUOUS
370
-3
390
F
  0
LAYER
  5
217
100
AcDbSymbolTableRecord
100
AcDbLayerTableRecord
  2
4
 70
0
 62
7
  6
CONTINUOUS
370
-3
390
F
  0
LAYER
  5
218
100
AcDbSymbolTableRecord
100
AcDbLayerTableRecord
  2
5
 70
0
 62
7
  6
CONTINUOUS
370
-3
390
F
  0
LAYER
  5
219
100
AcDbSymbolTableRecord
100
AcDbLayerTableRecord
  2
6
 70
0
 62
7
  6
CONTINUOUS
370
-3
390
F
  0
LAYER
  5
21A
100
AcDbSymbolTableRecord
100
AcDbLayerTableRecord
  2
7
 70
0
 62
7
  6
CONTINUOUS
370
-3
390
F
  0
LAYER
  5
21B
100
AcDbSymbolTableRecord
100
AcDbLayerTableRecord
  2
8
 70
0
 62
7
  6
CONTINUOUS
370
-3
390
F
  0
LAYER
  5
21C
100
AcDbSymbolTableRecord
100
AcDbLayerTableRecord
  2
9
 70
0
 62
7
  6
CONTINUOUS
370
-3
390
F
  0
LAYER
  5
21D
100
AcDbSymbolTableRecord
100
AcDbLayerTableRecord
  2
AXIS
 70
0
 62
7
  6
CONTINUOUS
370
-3
390
F
  0
LAYER
  5
21E
100
AcDbSymbolTableRecord
100
AcDbLayerTableRecord
  2
AXIS_COSMETIC_THREADS
 70
0
 62
7
  6
CONTINUOUS
370
-3
390
F
  0
LAYER
  5
21F
100
AcDbSymbolTableRecord
100
AcDbLayerTableRecord
  2
DATUM_CURVES
 70
0
 62
7
  6
CONTINUOUS
370
-3
390
F
  0
LAYER
  5
220
100
AcDbSymbolTableRecord
100
AcDbLayerTableRecord
  2
DATUM_PLANES
 70
0
 62
7
  6
CONTINUOUS
370
-3
390
F
  0
LAYER
  5
221
100
AcDbSymbolTableRecord
100
AcDbLayerTableRecord
  2
MATTE_OUTLINE
 70
0
 62
7
  6
CONTINUOUS
370
-3
390
F
  0
LAYER
  5
222
100
AcDbSymbolTableRecord
100
AcDbLayerTableRecord
  2
NOTES
 70
0
 62
7
  6
CONTINUOUS
370
-3
390
F
  0
LAYER
  5
223
100
AcDbSymbolTableRecord
100
AcDbLayerTableRecord
  2
QUILTS
 70
0
 62
7
  6
CONTINUOUS
370
-3
390
F
  0
LAYER
  5
224
100
AcDbSymbolTableRecord
100
AcDbLayerTableRecord
  2
SCHEME_DIMS
 70
0
 62
7
  6
CONTINUOUS
370
-3
390
F
  0
LAYER
  5
225
100
AcDbSymbolTableRecord
100
AcDbLayerTableRecord
  2
SYMBOLS
 70
0
 62
7
  6
CONTINUOUS
370
-3
390
F
  0
ENDTAB
  0
TABLE
  2
STYLE
  5
3
100
AcDbSymbolTable
 70
1
  0
STYLE
  5
11
100
AcDbSymbolTableRecord
100
AcDbTextStyleTableRecord
  2
STANDARD
 70
0
 40
0.0
 41
1.0
 50
0.0
 71
0
 42
0.2
  3
txt
  4

  0
STYLE
  5
226
100
AcDbSymbolTableRecord
100
AcDbTextStyleTableRecord
  2
TEXTSTYLE_1
 70
0
 40
0.0
 41
0.8
 50
0.0
 71
0
 42
0.2
  3
gdt
  4

  0
STYLE
  5
227
100
AcDbSymbolTableRecord
100
AcDbTextStyleTableRecord
  2
TEXTSTYLE_2
 70
0
 40
0.0
 41
0.8
 50
0.0
 71
0
 42
0.2
  3
txt
  4

  0
STYLE
  5
228
100
AcDbSymbolTableRecord
100
AcDbTextStyleTableRecord
  2
TEXTSTYLE_3
 70
0
 40
0.0
 41
0.85
 50
0.0
 71
0
 42
0.2
  3
txt
  4

  0
STYLE
  5
229
100
AcDbSymbolTableRecord
100
AcDbTextStyleTableRecord
  2
TEXTSTYLE_4
 70
0
 40
0.0
 41
0.92
 50
0.0
 71
0
 42
0.2
  3
txt
  4

  0
STYLE
  5
22A
100
AcDbSymbolTableRecord
100
AcDbTextStyleTableRecord
  2
TEXTSTYLE_5
 70
0
 40
0.0
 41
1.0
 50
0.0
 71
0
 42
0.2
  3
gdt
  4

  0
ENDTAB
  0
TABLE
  2
VIEW
  5
6
100
AcDbSymbolTable
 70
0
  0
ENDTAB
  0
TABLE
  2
UCS
  5
7
100
AcDbSymbolTable
 70
0
  0
ENDTAB
  0
TABLE
  2
APPID
  5
9
100
AcDbSymbolTable
 70
1
  0
APPID
  5
22B
100
AcDbSymbolTableRecord
100
AcDbRegAppTableRecord
  2
ACAD
 70
0
  0
ENDTAB
  0
TABLE
  2
BLOCK_RECORD
  5
1
100
AcDbSymbolTable
 70
0
  0
BLOCK_RECORD
  5
22C
100
AcDbSymbolTableRecord
100
AcDbBlockTableRecord
  2
*Model_Space
  0
BLOCK_RECORD
  5
22D
100
AcDbSymbolTableRecord
100
AcDbBlockTableRecord
  2
*Paper_Space
  0
BLOCK_RECORD
  5
22E
100
AcDbSymbolTableRecord
100
AcDbBlockTableRecord
  2
_FILLED
  0
BLOCK_RECORD
  5
22F
100
AcDbSymbolTableRecord
100
AcDbBlockTableRecord
  2
*D0
  0
BLOCK_RECORD
  5
230
100
AcDbSymbolTableRecord
100
AcDbBlockTableRecord
  2
*D1
  0
BLOCK_RECORD
  5
231
100
AcDbSymbolTableRecord
100
AcDbBlockTableRecord
  2
*D2
  0
BLOCK_RECORD
  5
232
100
AcDbSymbolTableRecord
100
AcDbBlockTableRecord
  2
*D3
  0
BLOCK_RECORD
  5
233
100
AcDbSymbolTableRecord
100
AcDbBlockTableRecord
  2
*D4
  0
BLOCK_RECORD
  5
234
100
AcDbSymbolTableRecord
100
AcDbBlockTableRecord
  2
BANNER_LOGO_TITLEBLOCK_BL0
  0
ENDTAB
  0
TABLE
  2
DIMSTYLE
  5
A
100
AcDbSymbolTable
 70
1
100
AcDbDimStyleTable
 71
0
  0
DIMSTYLE
105
235
100
AcDbSymbolTableRecord
100
AcDbDimStyleTableRecord
  2
STANDARD
 70
0
  3

  4

 40
1.0
 41
0.1875
 42
0.0625
 43
0.38
 44
0.18
 45
0.0
 46
0.0
 47
0.005
 48
0.005
140
0.1
141
0.09
142
0.0
143
25.4
144
1.0
145
0.0
146
1.0
147
0.09
 71
1.0
 72
0.0
 73
1
 74
1
 75
0
 76
0
 77
0
 78
4
170
0
171
2
172
0
173
0
174
0
175
0
176
0
177
0
178
0
270
2
271
3
272
3
273
2
274
2
275
0
280
0
281
0
282
0
283
1
284
4
285
0
286
0
287
3
288
0
340
11
341
22E
342
22E
343
22E
344
22E
  0
DIMSTYLE
105
236
100
AcDbSymbolTableRecord
100
AcDbDimStyleTableRecord
  2
DIMSTYLE_1
 70
0
  3

  4

 40
1.0
 41
0.1875
 42
0.0625
 43
0.38
 44
0.18
 45
0.0
 46
0.0
 47
0.1
 48
0.1
140
0.1
141
0.09
142
0.0
143
25.4
144
1.0
145
0.0
146
1.0
147
0.09
 71
0.0
 72
0.0
 73
1
 74
1
 75
0
 76
0
 77
0
 78
4
170
0
171
2
172
0
173
0
174
0
175
0
176
0
177
0
178
0
270
2
271
1
272
1
273
2
274
2
275
0
280
0
281
0
282
0
283
1
284
4
285
0
286
0
287
3
288
0
340
11
341
22E
342
22E
343
22E
344
22E
  0
ENDTAB
  0
ENDSEC
  0
SECTION
  2
BLOCKS
  0
BLOCK
  5
20
100
AcDbEntity
  8
0
100
AcDbBlockBegin
  2
*Model_Space
 70
0
 10
0.0
 20
0.0
 30
0.0
  3
*Model_Space
  1

  0
ENDBLK
  5
21
100
AcDbEntity
  8
0
100
AcDbBlockEnd
  0
BLOCK
  5
1C
100
AcDbEntity
  8
0
100
AcDbBlockBegin
  2
*Paper_Space
 70
0
 10
0.0
 20
0.0
 30
0.0
  3
*Paper_Space
  1

  0
ENDBLK
  5
1D
100
AcDbEntity
  8
0
100
AcDbBlockEnd
  0
BLOCK
  5
237
100
AcDbEntity
  8
0
100
AcDbBlockBegin
 62
2
  6
CONTINUOUS
  2
BANNER_LOGO_TITLEBLOCK_BL0
 70
64
 10
12.9086867042
 20
2.5403783405
  3
BANNER_LOGO_TITLEBLOCK_BL0
  1

  0
ELLIPSE
  5
238
100
AcDbEntity
  8
0
100
AcDbEllipse
 62
2
  6
CONTINUOUS
 10
12.9046654608
 20
2.5403783405
 30
0.0
 11
-0.8250004575
 21
0.0
 31
0.0
 40
0.218572
 41
0.0
 42
6.2831853072
  0
ARC
  5
239
100
AcDbEntity
  8
0
100
AcDbCircle
 62
2
  6
CONTINUOUS
 10
12.400005721
 20
2.5168763464
 40
0.0153945295
100
AcDbArc
 50
354.0454548824
 51
5.1878013979
  0
ARC
  5
23A
100
AcDbEntity
  8
0
100
AcDbCircle
 62
2
  6
CONTINUOUS
 10
12.3931760319
 20
2.5166878286
 40
0.0222174455
100
AcDbArc
 50
4.0793399388
 51
69.834329283
  0
LINE
  5
23B
100
AcDbEntity
  8
0
100
AcDbLine
 62
2
  6
CONTINUOUS
 10
12.4008351814
 20
2.5375433389
 11
12.3907841758
 21
2.5410923409
  0
LINE
  5
23C
100
AcDbEntity
  8
0
100
AcDbLine
 62
2
  6
CONTINUOUS
 10
12.3907841758
 20
2.5410923409
 11
12.3990241804
 21
2.5458683435
  0
ARC
  5
23D
100
AcDbEntity
  8
0
100
AcDbCircle
 62
2
  6
CONTINUOUS
 10
12.3771587979
 20
2.5826952352
 40
0.0428289026
100
AcDbArc
 50
300.6990502959
 51
319.0591802498
  0
ARC
  5
23E
100
AcDbEntity
  8
0
100
AcDbCircle
 62
2
  6
CONTINUOUS
 10
12.3971873948
 20
2.5665668817
 40
0.0171568255
100
AcDbArc
 50
315.9145124245
 51
16.0049121282
  0
ARC
  5
23F
100
AcDbEntity
  8
0
100
AcDbCircle
 62
2
  6
CONTINUOUS
 10
12.3922357827
 20
2.5632132173
 40
0.0229166529
100
AcDbArc
 50
20.6563876465
 51
62.3316896973
  0
ARC
  5
240
100
AcDbEntity
  8
0
100
AcDbCircle
 62
2
  6
CONTINUOUS
 10
12.371573659
 20
2.5302846524
 40
0.061747717
100
AcDbArc
 50
59.5385584989
 51
90.0050977555
  0
LINE
  5
241
100
AcDbEntity
  8
0
100
AcDbLine
 62
2
  6
CONTINUOUS
 10
12.3715681652
 20
2.5920323691
 11
12.2055050731
 21
2.5920323691
  0
ARC
  5
242
100
AcDbEntity
  8
0
100
AcDbCircle
 62
2
  6
CONTINUOUS
 10
12.2055050712
 20
2.5895573696
 40
0.0024749995
100
AcDbArc
 50
89.9999571957
 51
180.0000428043
  0
LINE
  5
243
100
AcDbEntity
  8
0
100
AcDbLine
 62
2
  6
CONTINUOUS
 10
12.2030300717
 20
2.5895573678
 11
12.2030300717
 21
2.5697573568
  0
ARC
  5
244
100
AcDbEntity
  8
0
100
AcDbCircle
 62
2
  6
CONTINUOUS
 10
12.2055050712
 20
2.5697573549
 40
0.0024749995
100
AcDbArc
 50
179.9999571957
 51
270.0000428043
  0
LINE
  5
245
100
AcDbEntity
  8
0
100
AcDbLine
 62
2
  6
CONTINUOUS
 10
12.2055050731
 20
2.5672823554
 11
12.2294470864
 21
2.5672823554
  0
ARC
  5
246
100
AcDbEntity
  8
0
100
AcDbCircle
 62
2
  6
CONTINUOUS
 10
12.2294470882
 20
2.5648073559
 40
0.0024749995
100
AcDbArc
 50
359.9999571957
 51
90.0000428043
  0
LINE
  5
247
100
AcDbEntity
  8
0
100
AcDbLine
 62
2
  6
CONTINUOUS
 10
12.2319220877
 20
2.564807354
 11
12.2319220877
 21
2.5184523283
  0
ARC
  5
248
100
AcDbEntity
  8
0
100
AcDbCircle
 62
2
  6
CONTINUOUS
 10
12.2294470882
 20
2.5184523265
 40
0.0024749995
100
AcDbArc
 50
269.9999571957
 51
0.0000428043
  0
LINE
  5
249
100
AcDbEntity
  8
0
100
AcDbLine
 62
2
  6
CONTINUOUS
 10
12.2294470864
 20
2.515977327
 11
12.2055050731
 21
2.515977327
  0
ARC
  5
24A
100
AcDbEntity
  8
0
100
AcDbCircle
 62
2
  6
CONTINUOUS
 10
12.2055050712
 20
2.5135023274
 40
0.0024749995
100
AcDbArc
 50
89.9999571957
 51
180.0000428043
  0
LINE
  5
24B
100
AcDbEntity
  8
0
100
AcDbLine
 62
2
  6
CONTINUOUS
 10
12.2030300717
 20
2.5135023256
 11
12.2030300717
 21
2.4937023146
  0
ARC
  5
24C
100
AcDbEntity
  8
0
100
AcDbCircle
 62
2
  6
CONTINUOUS
 10
12.2055050712
 20
2.4937023128
 40
0.0024749995
100
AcDbArc
 50
179.9999571957
 51
270.0000428043
  0
LINE
  5
24D
100
AcDbEntity
  8
0
100
AcDbLine
 62
2
  6
CONTINUOUS
 10
12.2055050731
 20
2.4912273132
 11
12.3819511709
 21
2.4912273132
  0
ARC
  5
24E
100
AcDbEntity
  8
0
100
AcDbCircle
 62
2
  6
CONTINUOUS
 10
12.3792298263
 20
2.539634765
 40
0.048483885
100
AcDbArc
 50
273.21763719
 51
303.0749121182
  0
ARC
  5
24F
100
AcDbEntity
  8
0
100
AcDbCircle
 62
2
  6
CONTINUOUS
 10
12.3940692204
 20
2.5168671561
 40
0.0213072145
100
AcDbArc
 50
303.0488228549
 51
355.7263138674
  0
LINE
  5
250
100
AcDbEntity
  8
0
100
AcDbLine
 62
2
  6
CONTINUOUS
 10
12.2949101227
 20
2.5499573458
 11
12.3362731456
 21
2.5499573458
  0
ARC
  5
251
100
AcDbEntity
  8
0
100
AcDbCircle
 62
2
  6
CONTINUOUS
 10
12.3362731456
 20
2.5586198506
 40
0.0086625048
100
AcDbArc
 50
270.0
 51
90.0
  0
LINE
  5
252
100
AcDbEntity
  8
0
100
AcDbLine
 62
2
  6
CONTINUOUS
 10
12.3362731456
 20
2.5672823554
 11
12.2949101227
 21
2.5672823554
  0
ARC
  5
253
100
AcDbEntity
  8
0
100
AcDbCircle
 62
2
  6
CONTINUOUS
 10
12.2949101208
 20
2.5648073559
 40
0.0024749995
100
AcDbArc
 50
89.9999571957
 51
180.0000428043
  0
LINE
  5
254
100
AcDbEntity
  8
0
100
AcDbLine
 62
2
  6
CONTINUOUS
 10
12.2924351213
 20
2.564807354
 11
12.2924351213
 21
2.5524323472
  0
ARC
  5
255
100
AcDbEntity
  8
0
100
AcDbCircle
 62
2
  6
CONTINUOUS
 10
12.2949101208
 20
2.5524323453
 40
0.0024749995
100
AcDbArc
 50
179.9999571957
 51
270.0000428043
  0
LINE
  5
256
100
AcDbEntity
  8
0
100
AcDbLine
 62
2
  6
CONTINUOUS
 10
12.2924351213
 20
2.5184523283
 11
12.2924351213
 21
2.5308273352
  0
ARC
  5
257
100
AcDbEntity
  8
0
100
AcDbCircle
 62
2
  6
CONTINUOUS
 10
12.2949101208
 20
2.530827337
 40
0.0024749995
100
AcDbArc
 50
89.9999571957
 51
180.0000428043
  0
LINE
  5
258
100
AcDbEntity
  8
0
100
AcDbLine
 62
2
  6
CONTINUOUS
 10
12.2949101227
 20
2.5333023366
 11
12.3362731456
 21
2.5333023366
  0
ARC
  5
259
100
AcDbEntity
  8
0
100
AcDbCircle
 62
2
  6
CONTINUOUS
 10
12.3362731456
 20
2.5246398318
 40
0.0086625048
100
AcDbArc
 50
270.0
 51
90.0
  0
LINE
  5
25A
100
AcDbEntity
  8
0
100
AcDbLine
 62
2
  6
CONTINUOUS
 10
12.3362731456
 20
2.515977327
 11
12.2949101227
 21
2.515977327
  0
ARC
  5
25B
100
AcDbEntity
  8
0
100
AcDbCircle
 62
2
  6
CONTINUOUS
 10
12.2949101208
 20
2.5184523265
 40
0.0024749995
100
AcDbArc
 50
179.9999571957
 51
270.0000428043
  0
ARC
  5
25C
100
AcDbEntity
  8
0
100
AcDbCircle
 62
2
  6
CONTINUOUS
 10
13.5806801742
 20
2.5212486481
 40
0.044722495
100
AcDbArc
 50
195.531588407
 51
204.7624440448
  0
LINE
  5
25D
100
AcDbEntity
  8
0
100
AcDbLine
 62
2
  6
CONTINUOUS
 10
13.5375908118
 20
2.5092733232
 11
13.5357868108
 21
2.5153423266
  0
ARC
  5
25E
100
AcDbEntity
  8
0
100
AcDbCircle
 62
2
  6
CONTINUOUS
 10
13.4974076135
 20
2.5055452462
 40
0.0396099176
100
AcDbArc
 50
14.3201081283
 51
22.4984722084
  0
ARC
  5
25F
100
AcDbEntity
  8
0
100
AcDbCircle
 62
2
  6
CONTINUOUS
 10
13.5201739219
 20
2.5145168728
 40
0.0151491919
100
AcDbArc
 50
24.098260853
 51
63.0369451818
  0
ARC
  5
260
100
AcDbEntity
  8
0
100
AcDbCircle
 62
2
  6
CONTINUOUS
 10
13.5161192671
 20
2.5062372524
 40
0.0243676582
100
AcDbArc
 50
63.3666028271
 51
90.3937697637
  0
LINE
  5
261
100
AcDbEntity
  8
0
100
AcDbLine
 62
2
  6
CONTINUOUS
 10
13.5159517998
 20
2.5306043351
 11
13.4883447845
 21
2.5306043351
  0
ARC
  5
262
100
AcDbEntity
  8
0
100
AcDbCircle
 62
2
  6
CONTINUOUS
 10
13.4883447827
 20
2.5281293355
 40
0.0024749995
100
AcDbArc
 50
89.9999571957
 51
180.0000428043
  0
LINE
  5
263
100
AcDbEntity
  8
0
100
AcDbLine
 62
2
  6
CONTINUOUS
 10
13.4858697831
 20
2.5281293337
 11
13.4858697831
 21
2.5184303283
  0
ARC
  5
264
100
AcDbEntity
  8
0
100
AcDbCircle
 62
2
  6
CONTINUOUS
 10
13.4883447827
 20
2.5184303265
 40
0.0024749995
100
AcDbArc
 50
179.9999571957
 51
270.0000428043
  0
LINE
  5
265
100
AcDbEntity
  8
0
100
AcDbLine
 62
2
  6
CONTINUOUS
 10
13.4883447845
 20
2.5159553269
 11
13.5130037982
 21
2.5159553269
  0
ARC
  5
266
100
AcDbEntity
  8
0
100
AcDbCircle
 62
2
  6
CONTINUOUS
 10
13.5130038
 20
2.5134803274
 40
0.0024749995
100
AcDbArc
 50
359.9999571957
 51
90.0000428043
  0
LINE
  5
267
100
AcDbEntity
  8
0
100
AcDbLine
 62
2
  6
CONTINUOUS
 10
13.5154787995
 20
2.5134803256
 11
13.5154787995
 21
2.4937023146
  0
ARC
  5
268
100
AcDbEntity
  8
0
100
AcDbCircle
 62
2
  6
CONTINUOUS
 10
13.5130038
 20
2.4937023128
 40
0.0024749995
100
AcDbArc
 50
269.9999571957
 51
0.0000428043
  0
LINE
  5
269
100
AcDbEntity
  8
0
100
AcDbLine
 62
2
  6
CONTINUOUS
 10
13.5130037982
 20
2.4912273132
 11
13.3994327352
 21
2.4912273132
  0
ARC
  5
26A
100
AcDbEntity
  8
0
100
AcDbCircle
 62
2
  6
CONTINUOUS
 10
13.3994327333
 20
2.4937023128
 40
0.0024749995
100
AcDbArc
 50
179.9999571957
 51
270.0000428043
  0
LINE
  5
26B
100
AcDbEntity
  8
0
100
AcDbLine
 62
2
  6
CONTINUOUS
 10
13.3969577338
 20
2.4937023146
 11
13.3969577338
 21
2.5135023256
  0
ARC
  5
26C
100
AcDbEntity
  8
0
100
AcDbCircle
 62
2
  6
CONTINUOUS
 10
13.3994327333
 20
2.5135023274
 40
0.0024749995
100
AcDbArc
 50
89.9999571957
 51
180.0000428043
  0
LINE
  5
26D
100
AcDbEntity
  8
0
100
AcDbLine
 62
2
  6
CONTINUOUS
 10
13.3994327352
 20
2.515977327
 11
13.4221787478
 21
2.515977327
  0
ARC
  5
26E
100
AcDbEntity
  8
0
100
AcDbCircle
 62
2
  6
CONTINUOUS
 10
13.4221787497
 20
2.5184523265
 40
0.0024749995
100
AcDbArc
 50
269.9999571957
 51
0.0000428042
  0
LINE
  5
26F
100
AcDbEntity
  8
0
100
AcDbLine
 62
2
  6
CONTINUOUS
 10
13.4246537492
 20
2.5184523283
 11
13.4246537492
 21
2.564807354
  0
ARC
  5
270
100
AcDbEntity
  8
0
100
AcDbCircle
 62
2
  6
CONTINUOUS
 10
13.4221787497
 20
2.5648073559
 40
0.0024749995
100
AcDbArc
 50
359.9999571957
 51
90.0000428043
  0
LINE
  5
271
100
AcDbEntity
  8
0
100
AcDbLine
 62
2
  6
CONTINUOUS
 10
13.4221787478
 20
2.5672823554
 11
13.3994327352
 21
2.5672823554
  0
ARC
  5
272
100
AcDbEntity
  8
0
100
AcDbCircle
 62
2
  6
CONTINUOUS
 10
13.3994327333
 20
2.5697573549
 40
0.0024749995
100
AcDbArc
 50
179.9999571957
 51
270.0000428043
  0
LINE
  5
273
100
AcDbEntity
  8
0
100
AcDbLine
 62
2
  6
CONTINUOUS
 10
13.3969577338
 20
2.5697573568
 11
13.3969577338
 21
2.5895573678
  0
ARC
  5
274
100
AcDbEntity
  8
0
100
AcDbCircle
 62
2
  6
CONTINUOUS
 10
13.3994327333
 20
2.5895573696
 40
0.0024749995
100
AcDbArc
 50
89.9999571957
 51
180.0000428043
  0
LINE
  5
275
100
AcDbEntity
  8
0
100
AcDbLine
 62
2
  6
CONTINUOUS
 10
13.3994327352
 20
2.5920323691
 11
13.5490138181
 21
2.5920323691
  0
ARC
  5
276
100
AcDbEntity
  8
0
100
AcDbCircle
 62
2
  6
CONTINUOUS
 10
13.5463505148
 20
2.4094934586
 40
0.1825583387
100
AcDbArc
 50
79.8618509324
 51
89.1640948679
  0
ARC
  5
277
100
AcDbEntity
  8
0
100
AcDbCircle
 62
2
  6
CONTINUOUS
 10
13.5726548052
 20
2.5503169747
 40
0.039319019
100
AcDbArc
 50
59.1202086415
 51
81.4730239328
  0
ARC
  5
278
100
AcDbEntity
  8
0
100
AcDbCircle
 62
2
  6
CONTINUOUS
 10
13.5783142014
 20
2.5566516438
 40
0.0310192946
100
AcDbArc
 50
34.7540871
 51
62.0879016178
  0
ARC
  5
279
100
AcDbEntity
  8
0
100
AcDbCircle
 62
2
  6
CONTINUOUS
 10
13.5900029525
 20
2.565201245
 40
0.0165459396
100
AcDbArc
 50
1.548452892
 51
33.5033152417
  0
ARC
  5
27A
100
AcDbEntity
  8
0
100
AcDbCircle
 62
2
  6
CONTINUOUS
 10
13.5932995477
 20
2.5653696972
 40
0.0132462337
100
AcDbArc
 50
331.1510006998
 51
1.205404301
  0
ARC
  5
27B
100
AcDbEntity
  8
0
100
AcDbCircle
 62
2
  6
CONTINUOUS
 10
13.5822888914
 20
2.5720482849
 40
0.0261183659
100
AcDbArc
 50
305.6373831893
 51
329.9727629745
  0
ARC
  5
27C
100
AcDbEntity
  8
0
100
AcDbCircle
 62
2
  6
CONTINUOUS
 10
13.5519569538
 20
2.6152551345
 40
0.0789082104
100
AcDbArc
 50
292.906155071
 51
305.2574666259
  0
ARC
  5
27D
100
AcDbEntity
  8
0
100
AcDbCircle
 62
2
  6
CONTINUOUS
 10
13.5282557878
 20
2.4386010294
 40
0.117346916
100
AcDbArc
 50
58.614769177
 51
62.3737227606
  0
ARC
  5
27E
100
AcDbEntity
  8
0
100
AcDbCircle
 62
2
  6
CONTINUOUS
 10
13.5761387404
 20
2.5167282896
 40
0.0257145923
100
AcDbArc
 50
39.3804255939
 51
59.0361096173
  0
ARC
  5
27F
100
AcDbEntity
  8
0
100
AcDbCircle
 62
2
  6
CONTINUOUS
 10
13.5750183849
 20
2.5166552064
 40
0.0266349791
100
AcDbArc
 50
20.3630922153
 51
37.9727053099
  0
ARC
  5
280
100
AcDbEntity
  8
0
100
AcDbCircle
 62
2
  6
CONTINUOUS
 10
13.5571178432
 20
2.509473798
 40
0.0459185159
100
AcDbArc
 50
15.6740290068
 51
20.9917271228
  0
ARC
  5
281
100
AcDbEntity
  8
0
100
AcDbCircle
 62
2
  6
CONTINUOUS
 10
13.6156881783
 20
2.525116781
 40
0.0147197649
100
AcDbArc
 50
192.7054516565
 51
206.0594861022
  0
ARC
  5
282
100
AcDbEntity
  8
0
100
AcDbCircle
 62
2
  6
CONTINUOUS
 10
13.6071938412
 20
2.5209082945
 40
0.0052403997
100
AcDbArc
 50
205.5232099488
 51
227.5054868079
  0
ARC
  5
283
100
AcDbEntity
  8
0
100
AcDbCircle
 62
2
  6
CONTINUOUS
 10
13.6054655419
 20
2.5190929218
 40
0.0027347709
100
AcDbArc
 50
228.5117626737
 51
266.1485845754
  0
LINE
  5
284
100
AcDbEntity
  8
0
100
AcDbLine
 62
2
  6
CONTINUOUS
 10
13.6052818493
 20
2.5163643272
 11
13.60639085
 21
2.5163643272
  0
ARC
  5
285
100
AcDbEntity
  8
0
100
AcDbCircle
 62
2
  6
CONTINUOUS
 10
13.6063292954
 20
2.5296129864
 40
0.0132488022
100
AcDbArc
 50
270.266200055
 51
281.2404888597
  0
ARC
  5
286
100
AcDbEntity
  8
0
100
AcDbCircle
 62
2
  6
CONTINUOUS
 10
13.6075235364
 20
2.5238762928
 40
0.0073895522
100
AcDbArc
 50
280.8288201977
 51
305.0837508495
  0
ARC
  5
287
100
AcDbEntity
  8
0
100
AcDbCircle
 62
2
  6
CONTINUOUS
 10
13.607924718
 20
2.5230254464
 40
0.0064647042
100
AcDbArc
 50
306.5086174083
 51
340.2162360092
  0
ARC
  5
288
100
AcDbEntity
  8
0
100
AcDbCircle
 62
2
  6
CONTINUOUS
 10
13.6027235414
 20
2.524769508
 40
0.0119498009
100
AcDbArc
 50
340.7883861657
 51
1.1691452593
  0
LINE
  5
289
100
AcDbEntity
  8
0
100
AcDbLine
 62
2
  6
CONTINUOUS
 10
13.6146708546
 20
2.525013332
 11
13.6146708546
 21
2.5276393334
  0
ARC
  5
28A
100
AcDbEntity
  8
0
100
AcDbCircle
 62
2
  6
CONTINUOUS
 10
13.6171458541
 20
2.5276393353
 40
0.0024749995
100
AcDbArc
 50
89.9999571957
 51
180.0000428043
  0
LINE
  5
28B
100
AcDbEntity
  8
0
100
AcDbLine
 62
2
  6
CONTINUOUS
 10
13.6171458559
 20
2.5301143348
 11
13.6292558626
 21
2.5301143348
  0
ARC
  5
28C
100
AcDbEntity
  8
0
100
AcDbCircle
 62
2
  6
CONTINUOUS
 10
13.6292558645
 20
2.5276393353
 40
0.0024749995
100
AcDbArc
 50
359.9999571957
 51
90.0000428043
  0
LINE
  5
28D
100
AcDbEntity
  8
0
100
AcDbLine
 62
2
  6
CONTINUOUS
 10
13.631730864
 20
2.5276393334
 11
13.631730864
 21
2.516087327
  0
ARC
  5
28E
100
AcDbEntity
  8
0
100
AcDbCircle
 62
2
  6
CONTINUOUS
 10
13.6141751675
 20
2.5161916447
 40
0.0175560065
100
AcDbArc
 50
332.2279060967
 51
359.6595469939
  0
ARC
  5
28F
100
AcDbEntity
  8
0
100
AcDbCircle
 62
2
  6
CONTINUOUS
 10
13.6048681567
 20
2.5210861501
 40
0.0280715479
100
AcDbArc
 50
308.5071794988
 51
332.2400656899
  0
ARC
  5
290
100
AcDbEntity
  8
0
100
AcDbCircle
 62
2
  6
CONTINUOUS
 10
13.5978759713
 20
2.5286873679
 40
0.0383802683
100
AcDbArc
 50
288.7656836787
 51
309.6104317088
  0
ARC
  5
291
100
AcDbEntity
  8
0
100
AcDbCircle
 62
2
  6
CONTINUOUS
 10
13.6036139387
 20
2.5111006186
 40
0.0198837666
100
AcDbArc
 50
271.8586572978
 51
289.4131338543
  0
LINE
  5
292
100
AcDbEntity
  8
0
100
AcDbLine
 62
2
  6
CONTINUOUS
 10
13.6042588488
 20
2.4912273132
 11
13.5568948225
 21
2.4912273132
  0
ARC
  5
293
100
AcDbEntity
  8
0
100
AcDbCircle
 62
2
  6
CONTINUOUS
 10
13.5577001432
 20
2.5085494649
 40
0.0173408616
100
AcDbArc
 50
232.4713476722
 51
267.338189944
  0
ARC
  5
294
100
AcDbEntity
  8
0
100
AcDbCircle
 62
2
  6
CONTINUOUS
 10
13.5607987082
 20
2.5143997688
 40
0.0238935861
100
AcDbArc
 50
209.8247607259
 51
235.1255079367
  0
ARC
  5
295
100
AcDbEntity
  8
0
100
AcDbCircle
 62
2
  6
CONTINUOUS
 10
13.5295131508
 20
2.5629115009
 40
0.0110815393
100
AcDbArc
 50
306.758405961
 51
320.4502234234
  0
ARC
  5
296
100
AcDbEntity
  8
0
100
AcDbCircle
 62
2
  6
CONTINUOUS
 10
13.5238839599
 20
2.5706523294
 40
0.0206523367
100
AcDbArc
 50
289.6883413472
 51
306.4184925496
  0
ARC
  5
297
100
AcDbEntity
  8
0
100
AcDbCircle
 62
2
  6
CONTINUOUS
 10
13.5219564542
 20
2.5750459767
 40
0.0254407115
100
AcDbArc
 50
270.7327484175
 51
290.441894219
  0
LINE
  5
298
100
AcDbEntity
  8
0
100
AcDbLine
 62
2
  6
CONTINUOUS
 10
13.5222818033
 20
2.5496073456
 11
13.4883447845
 21
2.5496073456
  0
ARC
  5
299
100
AcDbEntity
  8
0
100
AcDbCircle
 62
2
  6
CONTINUOUS
 10
13.4883447827
 20
2.5520823451
 40
0.0024749995
100
AcDbArc
 50
179.9999571957
 51
270.0000428043
  0
LINE
  5
29A
100
AcDbEntity
  8
0
100
AcDbLine
 62
2
  6
CONTINUOUS
 10
13.4858697831
 20
2.552082347
 11
13.4858697831
 21
2.564807354
  0
ARC
  5
29B
100
AcDbEntity
  8
0
100
AcDbCircle
 62
2
  6
CONTINUOUS
 10
13.4883447827
 20
2.5648073559
 40
0.0024749995
100
AcDbArc
 50
89.9999571957
 51
180.0000428043
  0
LINE
  5
29C
100
AcDbEntity
  8
0
100
AcDbLine
 62
2
  6
CONTINUOUS
 10
13.4883447845
 20
2.5672823554
 11
13.5251458049
 21
2.5672823554
  0
ARC
  5
29D
100
AcDbEntity
  8
0
100
AcDbCircle
 62
2
  6
CONTINUOUS
 10
13.5236009174
 20
2.5388278764
 40
0.0284963867
100
AcDbArc
 50
70.3834917948
 51
86.8922743861
  0
ARC
  5
29E
100
AcDbEntity
  8
0
100
AcDbCircle
 62
2
  6
CONTINUOUS
 10
13.5284605274
 20
2.5518696094
 40
0.0145814632
100
AcDbArc
 50
54.6746025112
 51
71.1660573124
  0
ARC
  5
29F
100
AcDbEntity
  8
0
100
AcDbCircle
 62
2
  6
CONTINUOUS
 10
13.5335900184
 20
2.5587235346
 40
0.0060275915
100
AcDbArc
 50
20.9055592135
 51
56.7851676243
  0
ARC
  5
2A0
100
AcDbEntity
  8
0
100
AcDbCircle
 62
2
  6
CONTINUOUS
 10
13.5348905773
 20
2.5593838168
 40
0.0045795888
100
AcDbArc
 50
355.6235353944
 51
18.9942678268
  0
ARC
  5
2A1
100
AcDbEntity
  8
0
100
AcDbCircle
 62
2
  6
CONTINUOUS
 10
13.533683767
 20
2.559677593
 40
0.0058087709
100
AcDbArc
 50
318.8515287446
 51
353.6422345323
  0
LINE
  5
2A2
100
AcDbEntity
  8
0
100
AcDbLine
 62
2
  6
CONTINUOUS
 10
12.672340332
 20
2.5920323691
 11
12.7727983877
 21
2.5920323691
  0
ARC
  5
2A3
100
AcDbEntity
  8
0
100
AcDbCircle
 62
2
  6
CONTINUOUS
 10
12.7727985224
 20
2.5895582013
 40
0.0024741678
100
AcDbArc
 50
46.3477981899
 51
90.0031206038
  0
LINE
  5
2A4
100
AcDbEntity
  8
0
100
AcDbLine
 62
2
  6
CONTINUOUS
 10
12.7745063886
 20
2.5913483688
 11
12.8345394219
 21
2.534068337
  0
ARC
  5
2A5
100
AcDbEntity
  8
0
100
AcDbCircle
 62
2
  6
CONTINUOUS
 10
12.8362481229
 20
2.5358592748
 40
0.0024753014
100
AcDbArc
 50
226.3461263059
 51
0.0014637321
  0
LINE
  5
2A6
100
AcDbEntity
  8
0
100
AcDbLine
 62
2
  6
CONTINUOUS
 10
12.8387234242
 20
2.535859338
 11
12.8387234242
 21
2.564807354
  0
ARC
  5
2A7
100
AcDbEntity
  8
0
100
AcDbCircle
 62
2
  6
CONTINUOUS
 10
12.8362484247
 20
2.5648073559
 40
0.0024749995
100
AcDbArc
 50
359.9999571957
 51
90.0000428043
  0
LINE
  5
2A8
100
AcDbEntity
  8
0
100
AcDbLine
 62
2
  6
CONTINUOUS
 10
12.8362484229
 20
2.5672823554
 11
12.8174724125
 21
2.5672823554
  0
ARC
  5
2A9
100
AcDbEntity
  8
0
100
AcDbCircle
 62
2
  6
CONTINUOUS
 10
12.8174724106
 20
2.5697573549
 40
0.0024749995
100
AcDbArc
 50
179.9999571957
 51
270.0000428043
  0
LINE
  5
2AA
100
AcDbEntity
  8
0
100
AcDbLine
 62
2
  6
CONTINUOUS
 10
12.8149974111
 20
2.5697573568
 11
12.8149974111
 21
2.5895573678
  0
ARC
  5
2AB
100
AcDbEntity
  8
0
100
AcDbCircle
 62
2
  6
CONTINUOUS
 10
12.8174724106
 20
2.5895573696
 40
0.0024749995
100
AcDbArc
 50
89.9999571957
 51
180.0000428043
  0
LINE
  5
2AC
100
AcDbEntity
  8
0
100
AcDbLine
 62
2
  6
CONTINUOUS
 10
12.8174724125
 20
2.5920323691
 11
12.8914734535
 21
2.5920323691
  0
ARC
  5
2AD
100
AcDbEntity
  8
0
100
AcDbCircle
 62
2
  6
CONTINUOUS
 10
12.8914734553
 20
2.5895573696
 40
0.0024749995
100
AcDbArc
 50
359.9999571957
 51
90.0000428043
  0
LINE
  5
2AE
100
AcDbEntity
  8
0
100
AcDbLine
 62
2
  6
CONTINUOUS
 10
12.8939484549
 20
2.5895573678
 11
12.8939484549
 21
2.5697573568
  0
ARC
  5
2AF
100
AcDbEntity
  8
0
100
AcDbCircle
 62
2
  6
CONTINUOUS
 10
12.8914734553
 20
2.5697573549
 40
0.0024749995
100
AcDbArc
 50
269.9999571957
 51
0.0000428043
  0
LINE
  5
2B0
100
AcDbEntity
  8
0
100
AcDbLine
 62
2
  6
CONTINUOUS
 10
12.8914734535
 20
2.5672823554
 11
12.8735404436
 21
2.5672823554
  0
ARC
  5
2B1
100
AcDbEntity
  8
0
100
AcDbCircle
 62
2
  6
CONTINUOUS
 10
12.8735404417
 20
2.5648073559
 40
0.0024749995
100
AcDbArc
 50
89.9999571957
 51
180.0000428043
  0
LINE
  5
2B2
100
AcDbEntity
  8
0
100
AcDbLine
 62
2
  6
CONTINUOUS
 10
12.8710654422
 20
2.564807354
 11
12.8710654422
 21
2.4937023146
  0
ARC
  5
2B3
100
AcDbEntity
  8
0
100
AcDbCircle
 62
2
  6
CONTINUOUS
 10
12.8685904427
 20
2.4937023128
 40
0.0024749995
100
AcDbArc
 50
269.9999571957
 51
0.0000428043
  0
LINE
  5
2B4
100
AcDbEntity
  8
0
100
AcDbLine
 62
2
  6
CONTINUOUS
 10
12.8685904408
 20
2.4912273132
 11
12.7943853997
 21
2.4912273132
  0
ARC
  5
2B5
100
AcDbEntity
  8
0
100
AcDbCircle
 62
2
  6
CONTINUOUS
 10
12.7943847649
 20
2.4937027294
 40
0.0024754162
100
AcDbArc
 50
226.3593695813
 51
270.0146919953
  0
LINE
  5
2B6
100
AcDbEntity
  8
0
100
AcDbLine
 62
2
  6
CONTINUOUS
 10
12.7926763987
 20
2.4919113136
 11
12.7293963636
 21
2.5522893471
  0
ARC
  5
2B7
100
AcDbEntity
  8
0
100
AcDbCircle
 62
2
  6
CONTINUOUS
 10
12.7276876627
 20
2.5504984093
 40
0.0024753014
100
AcDbArc
 50
46.3461263059
 51
180.0014637321
  0
LINE
  5
2B8
100
AcDbEntity
  8
0
100
AcDbLine
 62
2
  6
CONTINUOUS
 10
12.7252123613
 20
2.5504983461
 11
12.7252123613
 21
2.5184523283
  0
ARC
  5
2B9
100
AcDbEntity
  8
0
100
AcDbCircle
 62
2
  6
CONTINUOUS
 10
12.7276873608
 20
2.5184523265
 40
0.0024749995
100
AcDbArc
 50
179.9999571957
 51
270.0000428043
  0
LINE
  5
2BA
100
AcDbEntity
  8
0
100
AcDbLine
 62
2
  6
CONTINUOUS
 10
12.7276873627
 20
2.515977327
 11
12.7480043739
 21
2.515977327
  0
ARC
  5
2BB
100
AcDbEntity
  8
0
100
AcDbCircle
 62
2
  6
CONTINUOUS
 10
12.7480043758
 20
2.5135023274
 40
0.0024749995
100
AcDbArc
 50
359.9999571957
 51
90.0000428043
  0
LINE
  5
2BC
100
AcDbEntity
  8
0
100
AcDbLine
 62
2
  6
CONTINUOUS
 10
12.7504793753
 20
2.5135023256
 11
12.7504793753
 21
2.4937023146
  0
ARC
  5
2BD
100
AcDbEntity
  8
0
100
AcDbCircle
 62
2
  6
CONTINUOUS
 10
12.7480043758
 20
2.4937023128
 40
0.0024749995
100
AcDbArc
 50
269.9999571957
 51
0.0000428043
  0
LINE
  5
2BE
100
AcDbEntity
  8
0
100
AcDbLine
 62
2
  6
CONTINUOUS
 10
12.7480043739
 20
2.4912273132
 11
12.672340332
 21
2.4912273132
  0
ARC
  5
2BF
100
AcDbEntity
  8
0
100
AcDbCircle
 62
2
  6
CONTINUOUS
 10
12.6723403301
 20
2.4937023128
 40
0.0024749995
100
AcDbArc
 50
179.9999571957
 51
270.0000428043
  0
LINE
  5
2C0
100
AcDbEntity
  8
0
100
AcDbLine
 62
2
  6
CONTINUOUS
 10
12.6698653306
 20
2.4937023146
 11
12.6698653306
 21
2.5135023256
  0
ARC
  5
2C1
100
AcDbEntity
  8
0
100
AcDbCircle
 62
2
  6
CONTINUOUS
 10
12.6723403301
 20
2.5135023274
 40
0.0024749995
100
AcDbArc
 50
89.9999571957
 51
180.0000428043
  0
LINE
  5
2C2
100
AcDbEntity
  8
0
100
AcDbLine
 62
2
  6
CONTINUOUS
 10
12.672340332
 20
2.515977327
 11
12.6909873423
 21
2.515977327
  0
ARC
  5
2C3
100
AcDbEntity
  8
0
100
AcDbCircle
 62
2
  6
CONTINUOUS
 10
12.6909873442
 20
2.5184523265
 40
0.0024749995
100
AcDbArc
 50
269.9999571957
 51
0.0000428043
  0
LINE
  5
2C4
100
AcDbEntity
  8
0
100
AcDbLine
 62
2
  6
CONTINUOUS
 10
12.6934623437
 20
2.5184523283
 11
12.6934623437
 21
2.564807354
  0
ARC
  5
2C5
100
AcDbEntity
  8
0
100
AcDbCircle
 62
2
  6
CONTINUOUS
 10
12.6909873442
 20
2.5648073559
 40
0.0024749995
100
AcDbArc
 50
359.9999571957
 51
90.0000428043
  0
LINE
  5
2C6
100
AcDbEntity
  8
0
100
AcDbLine
 62
2
  6
CONTINUOUS
 10
12.6909873423
 20
2.5672823554
 11
12.672340332
 21
2.5672823554
  0
ARC
  5
2C7
100
AcDbEntity
  8
0
100
AcDbCircle
 62
2
  6
CONTINUOUS
 10
12.6723403301
 20
2.5697573549
 40
0.0024749995
100
AcDbArc
 50
179.9999571957
 51
270.0000428043
  0
LINE
  5
2C8
100
AcDbEntity
  8
0
100
AcDbLine
 62
2
  6
CONTINUOUS
 10
12.6698653306
 20
2.5697573568
 11
12.6698653306
 21
2.5895573678
  0
ARC
  5
2C9
100
AcDbEntity
  8
0
100
AcDbCircle
 62
2
  6
CONTINUOUS
 10
12.6723403301
 20
2.5895573696
 40
0.0024749995
100
AcDbArc
 50
89.9999571957
 51
180.0000428043
  0
LINE
  5
2CA
100
AcDbEntity
  8
0
100
AcDbLine
 62
2
  6
CONTINUOUS
 10
12.5246402501
 20
2.5655893545
 11
12.5175232461
 21
2.5543723483
  0
ARC
  5
2CB
100
AcDbEntity
  8
0
100
AcDbCircle
 62
2
  6
CONTINUOUS
 10
12.519613138
 20
2.5530463862
 40
0.0024750401
100
AcDbArc
 50
147.6063258012
 51
270.0025305754
  0
LINE
  5
2CC
100
AcDbEntity
  8
0
100
AcDbLine
 62
2
  6
CONTINUOUS
 10
12.5196132473
 20
2.5505713461
 11
12.5401702587
 21
2.5505713461
  0
ARC
  5
2CD
100
AcDbEntity
  8
0
100
AcDbCircle
 62
2
  6
CONTINUOUS
 10
12.5401702375
 20
2.5530465533
 40
0.0024752071
100
AcDbArc
 50
270.0004896793
 51
32.9089806818
  0
LINE
  5
2CE
100
AcDbEntity
  8
0
100
AcDbLine
 62
2
  6
CONTINUOUS
 10
12.5422482598
 20
2.5543913483
 11
12.5349892558
 21
2.5656073545
  0
ARC
  5
2CF
100
AcDbEntity
  8
0
100
AcDbCircle
 62
2
  6
CONTINUOUS
 10
12.532910715
 20
2.564262895
 40
0.0024754602
100
AcDbArc
 50
32.8959418573
 51
89.9875097202
  0
LINE
  5
2D0
100
AcDbEntity
  8
0
100
AcDbLine
 62
2
  6
CONTINUOUS
 10
12.5329112547
 20
2.5667383551
 11
12.5267302512
 21
2.5667383551
  0
ARC
  5
2D1
100
AcDbEntity
  8
0
100
AcDbCircle
 62
2
  6
CONTINUOUS
 10
12.5267301809
 20
2.5642631548
 40
0.0024752003
100
AcDbArc
 50
89.998372645
 51
147.602165307
  0
LINE
  5
2D2
100
AcDbEntity
  8
0
100
AcDbLine
 62
2
  6
CONTINUOUS
 10
12.548053263
 20
2.5284903339
 11
12.5536792662
 21
2.5197973291
  0
ARC
  5
2D3
100
AcDbEntity
  8
0
100
AcDbCircle
 62
2
  6
CONTINUOUS
 10
12.5516012439
 20
2.5184525341
 40
0.0024752071
100
AcDbArc
 50
270.0004896794
 51
32.9089806818
  0
LINE
  5
2D4
100
AcDbEntity
  8
0
100
AcDbLine
 62
2
  6
CONTINUOUS
 10
12.551601265
 20
2.515977327
 11
12.537150257
 21
2.515977327
  0
ARC
  5
2D5
100
AcDbEntity
  8
0
100
AcDbCircle
 62
2
  6
CONTINUOUS
 10
12.5371502552
 20
2.5135023274
 40
0.0024749995
100
AcDbArc
 50
89.9999571957
 51
180.0000428043
  0
LINE
  5
2D6
100
AcDbEntity
  8
0
100
AcDbLine
 62
2
  6
CONTINUOUS
 10
12.5346752556
 20
2.5135023256
 11
12.5346752556
 21
2.4937023146
  0
ARC
  5
2D7
100
AcDbEntity
  8
0
100
AcDbCircle
 62
2
  6
CONTINUOUS
 10
12.5371502552
 20
2.4937023128
 40
0.0024749995
100
AcDbArc
 50
179.9999571957
 51
270.0000428043
  0
LINE
  5
2D8
100
AcDbEntity
  8
0
100
AcDbLine
 62
2
  6
CONTINUOUS
 10
12.537150257
 20
2.4912273132
 11
12.6424313154
 21
2.4912273132
  0
ARC
  5
2D9
100
AcDbEntity
  8
0
100
AcDbCircle
 62
2
  6
CONTINUOUS
 10
12.6424313172
 20
2.4937023128
 40
0.0024749995
100
AcDbArc
 50
269.9999571957
 51
0.0000428043
  0
LINE
  5
2DA
100
AcDbEntity
  8
0
100
AcDbLine
 62
2
  6
CONTINUOUS
 10
12.6449063168
 20
2.4937023146
 11
12.6449063168
 21
2.5135023256
  0
ARC
  5
2DB
100
AcDbEntity
  8
0
100
AcDbCircle
 62
2
  6
CONTINUOUS
 10
12.6424313172
 20
2.5135023274
 40
0.0024749995
100
AcDbArc
 50
359.9999571957
 51
90.0000428043
  0
LINE
  5
2DC
100
AcDbEntity
  8
0
100
AcDbLine
 62
2
  6
CONTINUOUS
 10
12.6424313154
 20
2.515977327
 11
12.6224153043
 21
2.515977327
  0
ARC
  5
2DD
100
AcDbEntity
  8
0
100
AcDbCircle
 62
2
  6
CONTINUOUS
 10
12.6224154248
 20
2.518451368
 40
0.002474041
100
AcDbArc
 50
212.9056413127
 51
269.9972091756
  0
LINE
  5
2DE
100
AcDbEntity
  8
0
100
AcDbLine
 62
2
  6
CONTINUOUS
 10
12.6203383031
 20
2.5171073276
 11
12.5725822767
 21
2.5909023685
  0
ARC
  5
2DF
100
AcDbEntity
  8
0
100
AcDbCircle
 62
2
  6
CONTINUOUS
 10
12.570504655
 20
2.589557409
 40
0.0024749602
100
AcDbArc
 50
32.9172174468
 51
90.0087853097
  0
LINE
  5
2E0
100
AcDbEntity
  8
0
100
AcDbLine
 62
2
  6
CONTINUOUS
 10
12.5705042755
 20
2.5920323691
 11
12.5133292438
 21
2.5920323691
  0
ARC
  5
2E1
100
AcDbEntity
  8
0
100
AcDbCircle
 62
2
  6
CONTINUOUS
 10
12.5133291735
 20
2.5895571688
 40
0.0024752003
100
AcDbArc
 50
89.9983726451
 51
147.602165307
  0
LINE
  5
2E2
100
AcDbEntity
  8
0
100
AcDbLine
 62
2
  6
CONTINUOUS
 10
12.5112392426
 20
2.5908833685
 11
12.4644392167
 21
2.5171263276
  0
ARC
  5
2E3
100
AcDbEntity
  8
0
100
AcDbCircle
 62
2
  6
CONTINUOUS
 10
12.4623492858
 20
2.5184525273
 40
0.0024752003
100
AcDbArc
 50
269.9983726451
 51
327.602165307
  0
LINE
  5
2E4
100
AcDbEntity
  8
0
100
AcDbLine
 62
2
  6
CONTINUOUS
 10
12.4623492155
 20
2.515977327
 11
12.4394882028
 21
2.515977327
  0
ARC
  5
2E5
100
AcDbEntity
  8
0
100
AcDbCircle
 62
2
  6
CONTINUOUS
 10
12.439488201
 20
2.5135023274
 40
0.0024749995
100
AcDbArc
 50
89.9999571957
 51
180.0000428043
  0
LINE
  5
2E6
100
AcDbEntity
  8
0
100
AcDbLine
 62
2
  6
CONTINUOUS
 10
12.4370132015
 20
2.5135023256
 11
12.4370132015
 21
2.4937023146
  0
ARC
  5
2E7
100
AcDbEntity
  8
0
100
AcDbCircle
 62
2
  6
CONTINUOUS
 10
12.439488201
 20
2.4937023128
 40
0.0024749995
100
AcDbArc
 50
179.9999571957
 51
270.0000428043
  0
LINE
  5
2E8
100
AcDbEntity
  8
0
100
AcDbLine
 62
2
  6
CONTINUOUS
 10
12.4394882028
 20
2.4912273132
 11
12.5168642458
 21
2.4912273132
  0
ARC
  5
2E9
100
AcDbEntity
  8
0
100
AcDbCircle
 62
2
  6
CONTINUOUS
 10
12.5168642476
 20
2.4937023128
 40
0.0024749995
100
AcDbArc
 50
269.9999571957
 51
0.0000428043
  0
LINE
  5
2EA
100
AcDbEntity
  8
0
100
AcDbLine
 62
2
  6
CONTINUOUS
 10
12.5193392471
 20
2.4937023146
 11
12.5193392471
 21
2.5135023256
  0
ARC
  5
2EB
100
AcDbEntity
  8
0
100
AcDbCircle
 62
2
  6
CONTINUOUS
 10
12.5168642476
 20
2.5135023274
 40
0.0024749995
100
AcDbArc
 50
359.9999571957
 51
90.0000428043
  0
LINE
  5
2EC
100
AcDbEntity
  8
0
100
AcDbLine
 62
2
  6
CONTINUOUS
 10
12.5168642458
 20
2.515977327
 11
12.5055812395
 21
2.515977327
  0
ARC
  5
2ED
100
AcDbEntity
  8
0
100
AcDbCircle
 62
2
  6
CONTINUOUS
 10
12.5055811302
 20
2.518452367
 40
0.0024750401
100
AcDbArc
 50
147.6063258011
 51
270.0025305754
  0
LINE
  5
2EE
100
AcDbEntity
  8
0
100
AcDbLine
 62
2
  6
CONTINUOUS
 10
12.5034912383
 20
2.5197783291
 11
12.5090072414
 21
2.5284723339
  0
ARC
  5
2EF
100
AcDbEntity
  8
0
100
AcDbCircle
 62
2
  6
CONTINUOUS
 10
12.5110971723
 20
2.5271461342
 40
0.0024752003
100
AcDbArc
 50
89.998372645
 51
147.602165307
  0
LINE
  5
2F0
100
AcDbEntity
  8
0
100
AcDbLine
 62
2
  6
CONTINUOUS
 10
12.5110972426
 20
2.5296213345
 11
12.5459752619
 21
2.5296213345
  0
ARC
  5
2F1
100
AcDbEntity
  8
0
100
AcDbCircle
 62
2
  6
CONTINUOUS
 10
12.5459747223
 20
2.5271458744
 40
0.0024754602
100
AcDbArc
 50
32.8959418573
 51
89.9875097202
  0
LINE
  5
2F2
100
AcDbEntity
  8
0
100
AcDbLine
 62
2
  6
CONTINUOUS
 10
12.9205934696
 20
2.5920323691
 11
13.0210515254
 21
2.5920323691
  0
ARC
  5
2F3
100
AcDbEntity
  8
0
100
AcDbCircle
 62
2
  6
CONTINUOUS
 10
13.0210516601
 20
2.5895582013
 40
0.0024741678
100
AcDbArc
 50
46.3477981899
 51
90.0031206038
  0
LINE
  5
2F4
100
AcDbEntity
  8
0
100
AcDbLine
 62
2
  6
CONTINUOUS
 10
13.0227595263
 20
2.5913483688
 11
13.0827925596
 21
2.534068337
  0
ARC
  5
2F5
100
AcDbEntity
  8
0
100
AcDbCircle
 62
2
  6
CONTINUOUS
 10
13.0845012605
 20
2.5358592748
 40
0.0024753014
100
AcDbArc
 50
226.3461263059
 51
0.0014637321
  0
LINE
  5
2F6
100
AcDbEntity
  8
0
100
AcDbLine
 62
2
  6
CONTINUOUS
 10
13.0869765619
 20
2.535859338
 11
13.0869765619
 21
2.564807354
  0
ARC
  5
2F7
100
AcDbEntity
  8
0
100
AcDbCircle
 62
2
  6
CONTINUOUS
 10
13.0845015624
 20
2.5648073559
 40
0.0024749995
100
AcDbArc
 50
359.9999571957
 51
90.0000428043
  0
LINE
  5
2F8
100
AcDbEntity
  8
0
100
AcDbLine
 62
2
  6
CONTINUOUS
 10
13.0845015605
 20
2.5672823554
 11
13.0657255501
 21
2.5672823554
  0
ARC
  5
2F9
100
AcDbEntity
  8
0
100
AcDbCircle
 62
2
  6
CONTINUOUS
 10
13.0657255483
 20
2.5697573549
 40
0.0024749995
100
AcDbArc
 50
179.9999571957
 51
270.0000428043
  0
LINE
  5
2FA
100
AcDbEntity
  8
0
100
AcDbLine
 62
2
  6
CONTINUOUS
 10
13.0632505488
 20
2.5697573568
 11
13.0632505488
 21
2.5895573678
  0
ARC
  5
2FB
100
AcDbEntity
  8
0
100
AcDbCircle
 62
2
  6
CONTINUOUS
 10
13.0657255483
 20
2.5895573696
 40
0.0024749995
100
AcDbArc
 50
89.9999571957
 51
180.0000428043
  0
LINE
  5
2FC
100
AcDbEntity
  8
0
100
AcDbLine
 62
2
  6
CONTINUOUS
 10
13.0657255501
 20
2.5920323691
 11
13.1397265912
 21
2.5920323691
  0
ARC
  5
2FD
100
AcDbEntity
  8
0
100
AcDbCircle
 62
2
  6
CONTINUOUS
 10
13.139726593
 20
2.5895573696
 40
0.0024749995
100
AcDbArc
 50
359.9999571957
 51
90.0000428043
  0
LINE
  5
2FE
100
AcDbEntity
  8
0
100
AcDbLine
 62
2
  6
CONTINUOUS
 10
13.1422015925
 20
2.5895573678
 11
13.1422015925
 21
2.5697573568
  0
ARC
  5
2FF
100
AcDbEntity
  8
0
100
AcDbCircle
 62
2
  6
CONTINUOUS
 10
13.139726593
 20
2.5697573549
 40
0.0024749995
100
AcDbArc
 50
269.9999571957
 51
0.0000428042
  0
LINE
  5
300
100
AcDbEntity
  8
0
100
AcDbLine
 62
2
  6
CONTINUOUS
 10
13.1397265912
 20
2.5672823554
 11
13.1217935812
 21
2.5672823554
  0
ARC
  5
301
100
AcDbEntity
  8
0
100
AcDbCircle
 62
2
  6
CONTINUOUS
 10
13.1217935794
 20
2.5648073559
 40
0.0024749995
100
AcDbArc
 50
89.9999571957
 51
180.0000428042
  0
LINE
  5
302
100
AcDbEntity
  8
0
100
AcDbLine
 62
2
  6
CONTINUOUS
 10
13.1193185799
 20
2.564807354
 11
13.1193185799
 21
2.4937023146
  0
ARC
  5
303
100
AcDbEntity
  8
0
100
AcDbCircle
 62
2
  6
CONTINUOUS
 10
13.1168435803
 20
2.4937023128
 40
0.0024749995
100
AcDbArc
 50
269.9999571957
 51
0.0000428043
  0
LINE
  5
304
100
AcDbEntity
  8
0
100
AcDbLine
 62
2
  6
CONTINUOUS
 10
13.1168435785
 20
2.4912273132
 11
13.0426375373
 21
2.4912273132
  0
ARC
  5
305
100
AcDbEntity
  8
0
100
AcDbCircle
 62
2
  6
CONTINUOUS
 10
13.0426374026
 20
2.493701481
 40
0.0024741678
100
AcDbArc
 50
226.3477981898
 51
270.0031206038
  0
LINE
  5
306
100
AcDbEntity
  8
0
100
AcDbLine
 62
2
  6
CONTINUOUS
 10
13.0409295364
 20
2.4919113136
 11
12.9776495013
 21
2.5522893471
  0
ARC
  5
307
100
AcDbEntity
  8
0
100
AcDbCircle
 62
2
  6
CONTINUOUS
 10
12.9759408003
 20
2.5504984093
 40
0.0024753014
100
AcDbArc
 50
46.3461263059
 51
180.0014637321
  0
LINE
  5
308
100
AcDbEntity
  8
0
100
AcDbLine
 62
2
  6
CONTINUOUS
 10
12.973465499
 20
2.5504983461
 11
12.973465499
 21
2.5184523283
  0
ARC
  5
309
100
AcDbEntity
  8
0
100
AcDbCircle
 62
2
  6
CONTINUOUS
 10
12.9759404985
 20
2.5184523265
 40
0.0024749995
100
AcDbArc
 50
179.9999571957
 51
270.0000428043
  0
LINE
  5
30A
100
AcDbEntity
  8
0
100
AcDbLine
 62
2
  6
CONTINUOUS
 10
12.9759405003
 20
2.515977327
 11
12.9962575116
 21
2.515977327
  0
ARC
  5
30B
100
AcDbEntity
  8
0
100
AcDbCircle
 62
2
  6
CONTINUOUS
 10
12.9962575135
 20
2.5135023274
 40
0.0024749995
100
AcDbArc
 50
359.9999571957
 51
90.0000428043
  0
LINE
  5
30C
100
AcDbEntity
  8
0
100
AcDbLine
 62
2
  6
CONTINUOUS
 10
12.998732513
 20
2.5135023256
 11
12.998732513
 21
2.4937023146
  0
ARC
  5
30D
100
AcDbEntity
  8
0
100
AcDbCircle
 62
2
  6
CONTINUOUS
 10
12.9962575135
 20
2.4937023128
 40
0.0024749995
100
AcDbArc
 50
269.9999571957
 51
0.0000428043
  0
LINE
  5
30E
100
AcDbEntity
  8
0
100
AcDbLine
 62
2
  6
CONTINUOUS
 10
12.9962575116
 20
2.4912273132
 11
12.9205934696
 21
2.4912273132
  0
ARC
  5
30F
100
AcDbEntity
  8
0
100
AcDbCircle
 62
2
  6
CONTINUOUS
 10
12.9205934678
 20
2.4937023128
 40
0.0024749995
100
AcDbArc
 50
179.9999571957
 51
270.0000428043
  0
LINE
  5
310
100
AcDbEntity
  8
0
100
AcDbLine
 62
2
  6
CONTINUOUS
 10
12.9181184683
 20
2.4937023146
 11
12.9181184683
 21
2.5135023256
  0
ARC
  5
311
100
AcDbEntity
  8
0
100
AcDbCircle
 62
2
  6
CONTINUOUS
 10
12.9205934678
 20
2.5135023274
 40
0.0024749995
100
AcDbArc
 50
89.9999571957
 51
180.0000428042
  0
LINE
  5
312
100
AcDbEntity
  8
0
100
AcDbLine
 62
2
  6
CONTINUOUS
 10
12.9205934696
 20
2.515977327
 11
12.93923948
 21
2.515977327
  0
ARC
  5
313
100
AcDbEntity
  8
0
100
AcDbCircle
 62
2
  6
CONTINUOUS
 10
12.9392394818
 20
2.5184523265
 40
0.0024749995
100
AcDbArc
 50
269.9999571957
 51
0.0000428043
  0
LINE
  5
314
100
AcDbEntity
  8
0
100
AcDbLine
 62
2
  6
CONTINUOUS
 10
12.9417144814
 20
2.5184523283
 11
12.9417144814
 21
2.564807354
  0
ARC
  5
315
100
AcDbEntity
  8
0
100
AcDbCircle
 62
2
  6
CONTINUOUS
 10
12.9392394818
 20
2.5648073559
 40
0.0024749995
100
AcDbArc
 50
359.9999571957
 51
90.0000428043
  0
LINE
  5
316
100
AcDbEntity
  8
0
100
AcDbLine
 62
2
  6
CONTINUOUS
 10
12.93923948
 20
2.5672823554
 11
12.9205934696
 21
2.5672823554
  0
ARC
  5
317
100
AcDbEntity
  8
0
100
AcDbCircle
 62
2
  6
CONTINUOUS
 10
12.9205934678
 20
2.5697573549
 40
0.0024749995
100
AcDbArc
 50
179.9999571957
 51
270.0000428043
  0
LINE
  5
318
100
AcDbEntity
  8
0
100
AcDbLine
 62
2
  6
CONTINUOUS
 10
12.9181184683
 20
2.5697573568
 11
12.9181184683
 21
2.5895573678
  0
ARC
  5
319
100
AcDbEntity
  8
0
100
AcDbCircle
 62
2
  6
CONTINUOUS
 10
12.9205934678
 20
2.5895573696
 40
0.0024749995
100
AcDbArc
 50
89.9999571957
 51
180.0000428042
  0
LINE
  5
31A
100
AcDbEntity
  8
0
100
AcDbLine
 62
2
  6
CONTINUOUS
 10
13.2934226764
 20
2.5324773361
 11
13.2582556569
 21
2.5324773361
  0
ARC
  5
31B
100
AcDbEntity
  8
0
100
AcDbCircle
 62
2
  6
CONTINUOUS
 10
13.2582556551
 20
2.5300023366
 40
0.0024749995
100
AcDbArc
 50
89.9999571957
 51
180.0000428043
  0
LINE
  5
31C
100
AcDbEntity
  8
0
100
AcDbLine
 62
2
  6
CONTINUOUS
 10
13.2557806555
 20
2.5300023347
 11
13.2557806555
 21
2.5184523283
  0
ARC
  5
31D
100
AcDbEntity
  8
0
100
AcDbCircle
 62
2
  6
CONTINUOUS
 10
13.2582556551
 20
2.5184523265
 40
0.0024749995
100
AcDbArc
 50
179.9999571957
 51
270.0000428043
  0
LINE
  5
31E
100
AcDbEntity
  8
0
100
AcDbLine
 62
2
  6
CONTINUOUS
 10
13.2582556569
 20
2.515977327
 11
13.3232596929
 21
2.515977327
  0
ARC
  5
31F
100
AcDbEntity
  8
0
100
AcDbCircle
 62
2
  6
CONTINUOUS
 10
13.3232596948
 20
2.5184523265
 40
0.0024749995
100
AcDbArc
 50
269.9999571957
 51
0.0000428043
  0
LINE
  5
320
100
AcDbEntity
  8
0
100
AcDbLine
 62
2
  6
CONTINUOUS
 10
13.3257346943
 20
2.5184523283
 11
13.3257346943
 21
2.5267023329
  0
ARC
  5
321
100
AcDbEntity
  8
0
100
AcDbCircle
 62
2
  6
CONTINUOUS
 10
13.3282096938
 20
2.5267023348
 40
0.0024749995
100
AcDbArc
 50
89.9999571957
 51
180.0000428043
  0
LINE
  5
322
100
AcDbEntity
  8
0
100
AcDbLine
 62
2
  6
CONTINUOUS
 10
13.3282096957
 20
2.5291773343
 11
13.3705287192
 21
2.5291773343
  0
ARC
  5
323
100
AcDbEntity
  8
0
100
AcDbCircle
 62
2
  6
CONTINUOUS
 10
13.370528721
 20
2.5267023348
 40
0.0024749995
100
AcDbArc
 50
359.9999571957
 51
90.0000428043
  0
LINE
  5
324
100
AcDbEntity
  8
0
100
AcDbLine
 62
2
  6
CONTINUOUS
 10
13.3730037205
 20
2.5267023329
 11
13.3730037205
 21
2.4937023146
  0
ARC
  5
325
100
AcDbEntity
  8
0
100
AcDbCircle
 62
2
  6
CONTINUOUS
 10
13.370528721
 20
2.4937023128
 40
0.0024749995
100
AcDbArc
 50
269.9999571957
 51
0.0000428043
  0
LINE
  5
326
100
AcDbEntity
  8
0
100
AcDbLine
 62
2
  6
CONTINUOUS
 10
13.3705287192
 20
2.4912273132
 11
13.1673166065
 21
2.4912273132
  0
ARC
  5
327
100
AcDbEntity
  8
0
100
AcDbCircle
 62
2
  6
CONTINUOUS
 10
13.1673166046
 20
2.4937023128
 40
0.0024749995
100
AcDbArc
 50
179.9999571957
 51
270.0000428043
  0
LINE
  5
328
100
AcDbEntity
  8
0
100
AcDbLine
 62
2
  6
CONTINUOUS
 10
13.1648416051
 20
2.4937023146
 11
13.1648416051
 21
2.5135023256
  0
ARC
  5
329
100
AcDbEntity
  8
0
100
AcDbCircle
 62
2
  6
CONTINUOUS
 10
13.1673166046
 20
2.5135023274
 40
0.0024749995
100
AcDbArc
 50
89.9999571957
 51
180.0000428043
  0
LINE
  5
32A
100
AcDbEntity
  8
0
100
AcDbLine
 62
2
  6
CONTINUOUS
 10
13.1673166065
 20
2.515977327
 11
13.1912396197
 21
2.515977327
  0
ARC
  5
32B
100
AcDbEntity
  8
0
100
AcDbCircle
 62
2
  6
CONTINUOUS
 10
13.1912396216
 20
2.5184523265
 40
0.0024749995
100
AcDbArc
 50
269.9999571957
 51
0.0000428042
  0
LINE
  5
32C
100
AcDbEntity
  8
0
100
AcDbLine
 62
2
  6
CONTINUOUS
 10
13.1937146211
 20
2.5184523283
 11
13.1937146211
 21
2.564807354
  0
ARC
  5
32D
100
AcDbEntity
  8
0
100
AcDbCircle
 62
2
  6
CONTINUOUS
 10
13.1912396216
 20
2.5648073559
 40
0.0024749995
100
AcDbArc
 50
359.9999571957
 51
90.0000428043
  0
LINE
  5
32E
100
AcDbEntity
  8
0
100
AcDbLine
 62
2
  6
CONTINUOUS
 10
13.1912396197
 20
2.5672823554
 11
13.1673166065
 21
2.5672823554
  0
ARC
  5
32F
100
AcDbEntity
  8
0
100
AcDbCircle
 62
2
  6
CONTINUOUS
 10
13.1673166046
 20
2.5697573549
 40
0.0024749995
100
AcDbArc
 50
179.9999571957
 51
270.0000428043
  0
LINE
  5
330
100
AcDbEntity
  8
0
100
AcDbLine
 62
2
  6
CONTINUOUS
 10
13.1648416051
 20
2.5697573568
 11
13.1648416051
 21
2.5895573678
  0
ARC
  5
331
100
AcDbEntity
  8
0
100
AcDbCircle
 62
2
  6
CONTINUOUS
 10
13.1673166046
 20
2.5895573696
 40
0.0024749995
100
AcDbArc
 50
89.9999571957
 51
180.0000428043
  0
LINE
  5
332
100
AcDbEntity
  8
0
100
AcDbLine
 62
2
  6
CONTINUOUS
 10
13.1673166065
 20
2.5920323691
 11
13.3691097184
 21
2.5920323691
  0
ARC
  5
333
100
AcDbEntity
  8
0
100
AcDbCircle
 62
2
  6
CONTINUOUS
 10
13.3691097202
 20
2.5895573696
 40
0.0024749995
100
AcDbArc
 50
359.9999571957
 51
90.0000428043
  0
LINE
  5
334
100
AcDbEntity
  8
0
100
AcDbLine
 62
2
  6
CONTINUOUS
 10
13.3715847197
 20
2.5895573678
 11
13.3715847197
 21
2.5565573495
  0
ARC
  5
335
100
AcDbEntity
  8
0
100
AcDbCircle
 62
2
  6
CONTINUOUS
 10
13.3691097202
 20
2.5565573476
 40
0.0024749995
100
AcDbArc
 50
269.9999571957
 51
0.0000428042
  0
LINE
  5
336
100
AcDbEntity
  8
0
100
AcDbLine
 62
2
  6
CONTINUOUS
 10
13.3691097184
 20
2.5540823481
 11
13.3272456952
 21
2.5540823481
  0
ARC
  5
337
100
AcDbEntity
  8
0
100
AcDbCircle
 62
2
  6
CONTINUOUS
 10
13.3272456933
 20
2.5565573476
 40
0.0024749995
100
AcDbArc
 50
179.9999571957
 51
270.0000428043
  0
LINE
  5
338
100
AcDbEntity
  8
0
100
AcDbLine
 62
2
  6
CONTINUOUS
 10
13.3247706938
 20
2.5565573495
 11
13.3247706938
 21
2.564807354
  0
ARC
  5
339
100
AcDbEntity
  8
0
100
AcDbCircle
 62
2
  6
CONTINUOUS
 10
13.3222956943
 20
2.5648073559
 40
0.0024749995
100
AcDbArc
 50
359.9999571957
 51
90.0000428043
  0
LINE
  5
33A
100
AcDbEntity
  8
0
100
AcDbLine
 62
2
  6
CONTINUOUS
 10
13.3222956924
 20
2.5672823554
 11
13.2582556569
 21
2.5672823554
  0
ARC
  5
33B
100
AcDbEntity
  8
0
100
AcDbCircle
 62
2
  6
CONTINUOUS
 10
13.2582556551
 20
2.5648073559
 40
0.0024749995
100
AcDbArc
 50
89.9999571957
 51
180.0000428043
  0
LINE
  5
33C
100
AcDbEntity
  8
0
100
AcDbLine
 62
2
  6
CONTINUOUS
 10
13.2557806555
 20
2.564807354
 11
13.2557806555
 21
2.5532573476
  0
ARC
  5
33D
100
AcDbEntity
  8
0
100
AcDbCircle
 62
2
  6
CONTINUOUS
 10
13.2582556551
 20
2.5532573458
 40
0.0024749995
100
AcDbArc
 50
179.9999571957
 51
270.0000428043
  0
LINE
  5
33E
100
AcDbEntity
  8
0
100
AcDbLine
 62
2
  6
CONTINUOUS
 10
13.2582556569
 20
2.5507823463
 11
13.2934226764
 21
2.5507823463
  0
ARC
  5
33F
100
AcDbEntity
  8
0
100
AcDbCircle
 62
2
  6
CONTINUOUS
 10
13.2934226783
 20
2.5483073467
 40
0.0024749995
100
AcDbArc
 50
359.9999571957
 51
90.0000428043
  0
LINE
  5
340
100
AcDbEntity
  8
0
100
AcDbLine
 62
2
  6
CONTINUOUS
 10
13.2958976778
 20
2.5483073449
 11
13.2958976778
 21
2.5349523375
  0
ARC
  5
341
100
AcDbEntity
  8
0
100
AcDbCircle
 62
2
  6
CONTINUOUS
 10
13.2934226783
 20
2.5349523356
 40
0.0024749995
100
AcDbArc
 50
269.9999571957
 51
0.0000428042
  0
LINE
  5
342
100
AcDbEntity
  8
0
100
AcDbLine
 62
2
  6
CONTINUOUS
 10
13.7286871589
 20
2.5350697372
 11
13.7286871589
 21
2.5456869438
  0
LINE
  5
343
100
AcDbEntity
  8
0
100
AcDbLine
 62
2
  6
CONTINUOUS
 10
13.7086871478
 20
2.5004302075
 11
13.7086871478
 21
2.5803264735
  0
LINE
  5
344
100
AcDbEntity
  8
0
100
AcDbLine
 62
2
  6
CONTINUOUS
 10
13.6886871368
 20
2.4843919416
 11
13.6886871368
 21
2.5963647394
  0
LINE
  5
345
100
AcDbEntity
  8
0
100
AcDbLine
 62
2
  6
CONTINUOUS
 10
13.6686871257
 20
2.4726017898
 11
13.6686871257
 21
2.6081548911
  0
LINE
  5
346
100
AcDbEntity
  8
0
100
AcDbLine
 62
2
  6
CONTINUOUS
 10
13.6486871146
 20
2.4628062688
 11
13.6486871146
 21
2.6179504122
  0
LINE
  5
347
100
AcDbEntity
  8
0
100
AcDbLine
 62
2
  6
CONTINUOUS
 10
13.6286871035
 20
2.4541253507
 11
13.6286871035
 21
2.5062483056
  0
LINE
  5
348
100
AcDbEntity
  8
0
100
AcDbLine
 62
2
  6
CONTINUOUS
 10
13.6286871035
 20
2.5301143348
 11
13.6286871035
 21
2.6266313303
  0
LINE
  5
349
100
AcDbEntity
  8
0
100
AcDbLine
 62
2
  6
CONTINUOUS
 10
13.6086870924
 20
2.4465537903
 11
13.6086870924
 21
2.4918774918
  0
LINE
  5
34A
100
AcDbEntity
  8
0
100
AcDbLine
 62
2
  6
CONTINUOUS
 10
13.6086870924
 20
2.5165781173
 11
13.6086870924
 21
2.6342028907
  0
LINE
  5
34B
100
AcDbEntity
  8
0
100
AcDbLine
 62
2
  6
CONTINUOUS
 10
13.5886870813
 20
2.4398033466
 11
13.5886870813
 21
2.4912273132
  0
LINE
  5
34C
100
AcDbEntity
  8
0
100
AcDbLine
 62
2
  6
CONTINUOUS
 10
13.5886870813
 20
2.5391840845
 11
13.5886870813
 21
2.5454298327
  0
LINE
  5
34D
100
AcDbEntity
  8
0
100
AcDbLine
 62
2
  6
CONTINUOUS
 10
13.5886870813
 20
2.5862063472
 11
13.5886870813
 21
2.6409533343
  0
LINE
  5
34E
100
AcDbEntity
  8
0
100
AcDbLine
 62
2
  6
CONTINUOUS
 10
13.5686870702
 20
2.4334702189
 11
13.5686870702
 21
2.4912273132
  0
LINE
  5
34F
100
AcDbEntity
  8
0
100
AcDbLine
 62
2
  6
CONTINUOUS
 10
13.5686870702
 20
2.5906587765
 11
13.5686870702
 21
2.647286462
  0
LINE
  5
350
100
AcDbEntity
  8
0
100
AcDbLine
 62
2
  6
CONTINUOUS
 10
13.5486870591
 20
2.4278968124
 11
13.5486870591
 21
2.4937461006
  0
LINE
  5
351
100
AcDbEntity
  8
0
100
AcDbLine
 62
2
  6
CONTINUOUS
 10
13.5486870591
 20
2.5920323691
 11
13.5486870591
 21
2.6528598686
  0
LINE
  5
352
100
AcDbEntity
  8
0
100
AcDbLine
 62
2
  6
CONTINUOUS
 10
13.528687048
 20
2.4225427674
 11
13.528687048
 21
2.5270426993
  0
LINE
  5
353
100
AcDbEntity
  8
0
100
AcDbLine
 62
2
  6
CONTINUOUS
 10
13.528687048
 20
2.5505166259
 11
13.528687048
 21
2.5668657091
  0
LINE
  5
354
100
AcDbEntity
  8
0
100
AcDbLine
 62
2
  6
CONTINUOUS
 10
13.528687048
 20
2.5920323691
 11
13.528687048
 21
2.6582139136
  0
LINE
  5
355
100
AcDbEntity
  8
0
100
AcDbLine
 62
2
  6
CONTINUOUS
 10
13.5086870369
 20
2.4177306791
 11
13.5086870369
 21
2.4912273132
  0
LINE
  5
356
100
AcDbEntity
  8
0
100
AcDbLine
 62
2
  6
CONTINUOUS
 10
13.5086870369
 20
2.5159553269
 11
13.5086870369
 21
2.5306043351
  0
LINE
  5
357
100
AcDbEntity
  8
0
100
AcDbLine
 62
2
  6
CONTINUOUS
 10
13.5086870369
 20
2.5496073456
 11
13.5086870369
 21
2.5672823554
  0
LINE
  5
358
100
AcDbEntity
  8
0
100
AcDbLine
 62
2
  6
CONTINUOUS
 10
13.5086870369
 20
2.5920323691
 11
13.5086870369
 21
2.6630260019
  0
LINE
  5
359
100
AcDbEntity
  8
0
100
AcDbLine
 62
2
  6
CONTINUOUS
 10
13.4886870258
 20
2.4131795254
 11
13.4886870258
 21
2.4912273132
  0
LINE
  5
35A
100
AcDbEntity
  8
0
100
AcDbLine
 62
2
  6
CONTINUOUS
 10
13.4886870258
 20
2.5159553269
 11
13.4886870258
 21
2.5306043351
  0
LINE
  5
35B
100
AcDbEntity
  8
0
100
AcDbLine
 62
2
  6
CONTINUOUS
 10
13.4886870258
 20
2.5496073456
 11
13.4886870258
 21
2.5672823554
  0
LINE
  5
35C
100
AcDbEntity
  8
0
100
AcDbLine
 62
2
  6
CONTINUOUS
 10
13.4886870258
 20
2.5920323691
 11
13.4886870258
 21
2.6675771555
  0
LINE
  5
35D
100
AcDbEntity
  8
0
100
AcDbLine
 62
2
  6
CONTINUOUS
 10
13.4686870147
 20
2.4088819672
 11
13.4686870147
 21
2.4912273132
  0
LINE
  5
35E
100
AcDbEntity
  8
0
100
AcDbLine
 62
2
  6
CONTINUOUS
 10
13.4686870147
 20
2.5920323691
 11
13.4686870147
 21
2.6718747138
  0
LINE
  5
35F
100
AcDbEntity
  8
0
100
AcDbLine
 62
2
  6
CONTINUOUS
 10
13.4486870037
 20
2.4050092072
 11
13.4486870037
 21
2.4912273132
  0
LINE
  5
360
100
AcDbEntity
  8
0
100
AcDbLine
 62
2
  6
CONTINUOUS
 10
13.4486870037
 20
2.5920323691
 11
13.4486870037
 21
2.6757474738
  0
LINE
  5
361
100
AcDbEntity
  8
0
100
AcDbLine
 62
2
  6
CONTINUOUS
 10
13.4286869926
 20
2.4011364471
 11
13.4286869926
 21
2.4912273132
  0
LINE
  5
362
100
AcDbEntity
  8
0
100
AcDbLine
 62
2
  6
CONTINUOUS
 10
13.4286869926
 20
2.5920323691
 11
13.4286869926
 21
2.6796202339
  0
LINE
  5
363
100
AcDbEntity
  8
0
100
AcDbLine
 62
2
  6
CONTINUOUS
 10
13.4086869815
 20
2.3980226662
 11
13.4086869815
 21
2.4912273132
  0
LINE
  5
364
100
AcDbEntity
  8
0
100
AcDbLine
 62
2
  6
CONTINUOUS
 10
13.4086869815
 20
2.515977327
 11
13.4086869815
 21
2.5672823554
  0
LINE
  5
365
100
AcDbEntity
  8
0
100
AcDbLine
 62
2
  6
CONTINUOUS
 10
13.4086869815
 20
2.5920323691
 11
13.4086869815
 21
2.6827340148
  0
LINE
  5
366
100
AcDbEntity
  8
0
100
AcDbLine
 62
2
  6
CONTINUOUS
 10
13.3886869704
 20
2.3950052774
 11
13.3886869704
 21
2.6857514036
  0
LINE
  5
367
100
AcDbEntity
  8
0
100
AcDbLine
 62
2
  6
CONTINUOUS
 10
13.3686869593
 20
2.3919878885
 11
13.3686869593
 21
2.4912273132
  0
LINE
  5
368
100
AcDbEntity
  8
0
100
AcDbLine
 62
2
  6
CONTINUOUS
 10
13.3686869593
 20
2.5291773343
 11
13.3686869593
 21
2.5540823481
  0
LINE
  5
369
100
AcDbEntity
  8
0
100
AcDbLine
 62
2
  6
CONTINUOUS
 10
13.3686869593
 20
2.5920323691
 11
13.3686869593
 21
2.6887687924
  0
LINE
  5
36A
100
AcDbEntity
  8
0
100
AcDbLine
 62
2
  6
CONTINUOUS
 10
13.3486869482
 20
2.3889704997
 11
13.3486869482
 21
2.4912273132
  0
LINE
  5
36B
100
AcDbEntity
  8
0
100
AcDbLine
 62
2
  6
CONTINUOUS
 10
13.3486869482
 20
2.5291773343
 11
13.3486869482
 21
2.5540823481
  0
LINE
  5
36C
100
AcDbEntity
  8
0
100
AcDbLine
 62
2
  6
CONTINUOUS
 10
13.3486869482
 20
2.5920323691
 11
13.3486869482
 21
2.6917861813
  0
LINE
  5
36D
100
AcDbEntity
  8
0
100
AcDbLine
 62
2
  6
CONTINUOUS
 10
13.3286869371
 20
2.3859531109
 11
13.3286869371
 21
2.4912273132
  0
LINE
  5
36E
100
AcDbEntity
  8
0
100
AcDbLine
 62
2
  6
CONTINUOUS
 10
13.3286869371
 20
2.5291773343
 11
13.3286869371
 21
2.5540823481
  0
LINE
  5
36F
100
AcDbEntity
  8
0
100
AcDbLine
 62
2
  6
CONTINUOUS
 10
13.3286869371
 20
2.5920323691
 11
13.3286869371
 21
2.6948035701
  0
LINE
  5
370
100
AcDbEntity
  8
0
100
AcDbLine
 62
2
  6
CONTINUOUS
 10
13.308686926
 20
2.3833355437
 11
13.308686926
 21
2.4912273132
  0
LINE
  5
371
100
AcDbEntity
  8
0
100
AcDbLine
 62
2
  6
CONTINUOUS
 10
13.308686926
 20
2.515977327
 11
13.308686926
 21
2.5672823554
  0
LINE
  5
372
100
AcDbEntity
  8
0
100
AcDbLine
 62
2
  6
CONTINUOUS
 10
13.308686926
 20
2.5920323691
 11
13.308686926
 21
2.6974211373
  0
LINE
  5
373
100
AcDbEntity
  8
0
100
AcDbLine
 62
2
  6
CONTINUOUS
 10
13.2886869149
 20
2.3812612684
 11
13.2886869149
 21
2.4912273132
  0
LINE
  5
374
100
AcDbEntity
  8
0
100
AcDbLine
 62
2
  6
CONTINUOUS
 10
13.2886869149
 20
2.515977327
 11
13.2886869149
 21
2.5324773361
  0
LINE
  5
375
100
AcDbEntity
  8
0
100
AcDbLine
 62
2
  6
CONTINUOUS
 10
13.2886869149
 20
2.5507823463
 11
13.2886869149
 21
2.5672823554
  0
LINE
  5
376
100
AcDbEntity
  8
0
100
AcDbLine
 62
2
  6
CONTINUOUS
 10
13.2886869149
 20
2.5920323691
 11
13.2886869149
 21
2.6994954125
  0
LINE
  5
377
100
AcDbEntity
  8
0
100
AcDbLine
 62
2
  6
CONTINUOUS
 10
13.2686869038
 20
2.3791869932
 11
13.2686869038
 21
2.4912273132
  0
LINE
  5
378
100
AcDbEntity
  8
0
100
AcDbLine
 62
2
  6
CONTINUOUS
 10
13.2686869038
 20
2.515977327
 11
13.2686869038
 21
2.5324773361
  0
LINE
  5
379
100
AcDbEntity
  8
0
100
AcDbLine
 62
2
  6
CONTINUOUS
 10
13.2686869038
 20
2.5507823463
 11
13.2686869038
 21
2.5672823554
  0
LINE
  5
37A
100
AcDbEntity
  8
0
100
AcDbLine
 62
2
  6
CONTINUOUS
 10
13.2686869038
 20
2.5920323691
 11
13.2686869038
 21
2.7015696878
  0
LINE
  5
37B
100
AcDbEntity
  8
0
100
AcDbLine
 62
2
  6
CONTINUOUS
 10
13.2486868927
 20
2.377112718
 11
13.2486868927
 21
2.4912273132
  0
LINE
  5
37C
100
AcDbEntity
  8
0
100
AcDbLine
 62
2
  6
CONTINUOUS
 10
13.2486868927
 20
2.5920323691
 11
13.2486868927
 21
2.703643963
  0
LINE
  5
37D
100
AcDbEntity
  8
0
100
AcDbLine
 62
2
  6
CONTINUOUS
 10
13.2286868817
 20
2.3750384428
 11
13.2286868817
 21
2.4912273132
  0
LINE
  5
37E
100
AcDbEntity
  8
0
100
AcDbLine
 62
2
  6
CONTINUOUS
 10
13.2286868817
 20
2.5920323691
 11
13.2286868817
 21
2.7057182382
  0
LINE
  5
37F
100
AcDbEntity
  8
0
100
AcDbLine
 62
2
  6
CONTINUOUS
 10
13.2086868706
 20
2.3729641676
 11
13.2086868706
 21
2.4912273132
  0
LINE
  5
380
100
AcDbEntity
  8
0
100
AcDbLine
 62
2
  6
CONTINUOUS
 10
13.2086868706
 20
2.5920323691
 11
13.2086868706
 21
2.7077925134
  0
LINE
  5
381
100
AcDbEntity
  8
0
100
AcDbLine
 62
2
  6
CONTINUOUS
 10
13.1886868595
 20
2.3712344456
 11
13.1886868595
 21
2.4912273132
  0
LINE
  5
382
100
AcDbEntity
  8
0
100
AcDbLine
 62
2
  6
CONTINUOUS
 10
13.1886868595
 20
2.515977327
 11
13.1886868595
 21
2.5672823554
  0
LINE
  5
383
100
AcDbEntity
  8
0
100
AcDbLine
 62
2
  6
CONTINUOUS
 10
13.1886868595
 20
2.5920323691
 11
13.1886868595
 21
2.7095222354
  0
LINE
  5
384
100
AcDbEntity
  8
0
100
AcDbLine
 62
2
  6
CONTINUOUS
 10
13.1686868484
 20
2.3699682418
 11
13.1686868484
 21
2.4912273132
  0
LINE
  5
385
100
AcDbEntity
  8
0
100
AcDbLine
 62
2
  6
CONTINUOUS
 10
13.1686868484
 20
2.515977327
 11
13.1686868484
 21
2.5672823554
  0
LINE
  5
386
100
AcDbEntity
  8
0
100
AcDbLine
 62
2
  6
CONTINUOUS
 10
13.1686868484
 20
2.5920323691
 11
13.1686868484
 21
2.7107884392
  0
LINE
  5
387
100
AcDbEntity
  8
0
100
AcDbLine
 62
2
  6
CONTINUOUS
 10
13.1486868373
 20
2.3687020381
 11
13.1486868373
 21
2.7120546429
  0
LINE
  5
388
100
AcDbEntity
  8
0
100
AcDbLine
 62
2
  6
CONTINUOUS
 10
13.1286868262
 20
2.3674358343
 11
13.1286868262
 21
2.5672823554
  0
LINE
  5
389
100
AcDbEntity
  8
0
100
AcDbLine
 62
2
  6
CONTINUOUS
 10
13.1286868262
 20
2.5920323691
 11
13.1286868262
 21
2.7133208466
  0
LINE
  5
38A
100
AcDbEntity
  8
0
100
AcDbLine
 62
2
  6
CONTINUOUS
 10
13.1086868151
 20
2.3661696306
 11
13.1086868151
 21
2.4912273132
  0
LINE
  5
38B
100
AcDbEntity
  8
0
100
AcDbLine
 62
2
  6
CONTINUOUS
 10
13.1086868151
 20
2.5920323691
 11
13.1086868151
 21
2.7145870504
  0
LINE
  5
38C
100
AcDbEntity
  8
0
100
AcDbLine
 62
2
  6
CONTINUOUS
 10
13.088686804
 20
2.3649034269
 11
13.088686804
 21
2.4912273132
  0
LINE
  5
38D
100
AcDbEntity
  8
0
100
AcDbLine
 62
2
  6
CONTINUOUS
 10
13.088686804
 20
2.5920323691
 11
13.088686804
 21
2.7158532541
  0
LINE
  5
38E
100
AcDbEntity
  8
0
100
AcDbLine
 62
2
  6
CONTINUOUS
 10
13.0686867929
 20
2.3636739922
 11
13.0686867929
 21
2.4912273132
  0
LINE
  5
38F
100
AcDbEntity
  8
0
100
AcDbLine
 62
2
  6
CONTINUOUS
 10
13.0686867929
 20
2.5475272398
 11
13.0686867929
 21
2.5672823554
  0
LINE
  5
390
100
AcDbEntity
  8
0
100
AcDbLine
 62
2
  6
CONTINUOUS
 10
13.0686867929
 20
2.5920323691
 11
13.0686867929
 21
2.7170826887
  0
LINE
  5
391
100
AcDbEntity
  8
0
100
AcDbLine
 62
2
  6
CONTINUOUS
 10
13.0486867818
 20
2.363143203
 11
13.0486867818
 21
2.4912273132
  0
LINE
  5
392
100
AcDbEntity
  8
0
100
AcDbLine
 62
2
  6
CONTINUOUS
 10
13.0486867818
 20
2.5666100882
 11
13.0486867818
 21
2.717613478
  0
LINE
  5
393
100
AcDbEntity
  8
0
100
AcDbLine
 62
2
  6
CONTINUOUS
 10
13.0286867707
 20
2.3626124138
 11
13.0286867707
 21
2.50359263
  0
LINE
  5
394
100
AcDbEntity
  8
0
100
AcDbLine
 62
2
  6
CONTINUOUS
 10
13.0286867707
 20
2.5856929366
 11
13.0286867707
 21
2.7181442672
  0
LINE
  5
395
100
AcDbEntity
  8
0
100
AcDbLine
 62
2
  6
CONTINUOUS
 10
13.0086867596
 20
2.3620816246
 11
13.0086867596
 21
2.5226754472
  0
LINE
  5
396
100
AcDbEntity
  8
0
100
AcDbLine
 62
2
  6
CONTINUOUS
 10
13.0086867596
 20
2.5920323691
 11
13.0086867596
 21
2.7186750564
  0
LINE
  5
397
100
AcDbEntity
  8
0
100
AcDbLine
 62
2
  6
CONTINUOUS
 10
12.9886867486
 20
2.3615508354
 11
12.9886867486
 21
2.4912273132
  0
LINE
  5
398
100
AcDbEntity
  8
0
100
AcDbLine
 62
2
  6
CONTINUOUS
 10
12.9886867486
 20
2.515977327
 11
12.9886867486
 21
2.5417582644
  0
LINE
  5
399
100
AcDbEntity
  8
0
100
AcDbLine
 62
2
  6
CONTINUOUS
 10
12.9886867486
 20
2.5920323691
 11
12.9886867486
 21
2.7192058456
  0
LINE
  5
39A
100
AcDbEntity
  8
0
100
AcDbLine
 62
2
  6
CONTINUOUS
 10
12.9686867375
 20
2.3610200462
 11
12.9686867375
 21
2.4912273132
  0
LINE
  5
39B
100
AcDbEntity
  8
0
100
AcDbLine
 62
2
  6
CONTINUOUS
 10
12.9686867375
 20
2.5920323691
 11
12.9686867375
 21
2.7197366348
  0
LINE
  5
39C
100
AcDbEntity
  8
0
100
AcDbLine
 62
2
  6
CONTINUOUS
 10
12.9486867264
 20
2.360489257
 11
12.9486867264
 21
2.4912273132
  0
LINE
  5
39D
100
AcDbEntity
  8
0
100
AcDbLine
 62
2
  6
CONTINUOUS
 10
12.9486867264
 20
2.5920323691
 11
12.9486867264
 21
2.720267424
  0
LINE
  5
39E
100
AcDbEntity
  8
0
100
AcDbLine
 62
2
  6
CONTINUOUS
 10
12.9286867153
 20
2.3602836008
 11
12.9286867153
 21
2.4912273132
  0
LINE
  5
39F
100
AcDbEntity
  8
0
100
AcDbLine
 62
2
  6
CONTINUOUS
 10
12.9286867153
 20
2.515977327
 11
12.9286867153
 21
2.5672823554
  0
LINE
  5
3A0
100
AcDbEntity
  8
0
100
AcDbLine
 62
2
  6
CONTINUOUS
 10
12.9286867153
 20
2.5920323691
 11
12.9286867153
 21
2.7204730802
  0
LINE
  5
3A1
100
AcDbEntity
  8
0
100
AcDbLine
 62
2
  6
CONTINUOUS
 10
12.9086867042
 20
2.3604597639
 11
12.9086867042
 21
2.7202969171
  0
LINE
  5
3A2
100
AcDbEntity
  8
0
100
AcDbLine
 62
2
  6
CONTINUOUS
 10
12.8886866931
 20
2.360635927
 11
12.8886866931
 21
2.5672823554
  0
LINE
  5
3A3
100
AcDbEntity
  8
0
100
AcDbLine
 62
2
  6
CONTINUOUS
 10
12.8886866931
 20
2.5920323691
 11
12.8886866931
 21
2.720120754
  0
LINE
  5
3A4
100
AcDbEntity
  8
0
100
AcDbLine
 62
2
  6
CONTINUOUS
 10
12.868686682
 20
2.3608120901
 11
12.868686682
 21
2.491232357
  0
LINE
  5
3A5
100
AcDbEntity
  8
0
100
AcDbLine
 62
2
  6
CONTINUOUS
 10
12.868686682
 20
2.5920323691
 11
12.868686682
 21
2.7199445909
  0
LINE
  5
3A6
100
AcDbEntity
  8
0
100
AcDbLine
 62
2
  6
CONTINUOUS
 10
12.8486866709
 20
2.3609882532
 11
12.8486866709
 21
2.4912273132
  0
LINE
  5
3A7
100
AcDbEntity
  8
0
100
AcDbLine
 62
2
  6
CONTINUOUS
 10
12.8486866709
 20
2.5920323691
 11
12.8486866709
 21
2.7197684278
  0
LINE
  5
3A8
100
AcDbEntity
  8
0
100
AcDbLine
 62
2
  6
CONTINUOUS
 10
12.8286866598
 20
2.3611644163
 11
12.8286866598
 21
2.4912273132
  0
LINE
  5
3A9
100
AcDbEntity
  8
0
100
AcDbLine
 62
2
  6
CONTINUOUS
 10
12.8286866598
 20
2.5396527025
 11
12.8286866598
 21
2.5672823554
  0
LINE
  5
3AA
100
AcDbEntity
  8
0
100
AcDbLine
 62
2
  6
CONTINUOUS
 10
12.8286866598
 20
2.5920323691
 11
12.8286866598
 21
2.7195922647
  0
LINE
  5
3AB
100
AcDbEntity
  8
0
100
AcDbLine
 62
2
  6
CONTINUOUS
 10
12.8086866487
 20
2.3613405794
 11
12.8086866487
 21
2.4912273132
  0
LINE
  5
3AC
100
AcDbEntity
  8
0
100
AcDbLine
 62
2
  6
CONTINUOUS
 10
12.8086866487
 20
2.5587355508
 11
12.8086866487
 21
2.7194161016
  0
LINE
  5
3AD
100
AcDbEntity
  8
0
100
AcDbLine
 62
2
  6
CONTINUOUS
 10
12.7886866376
 20
2.3621089572
 11
12.7886866376
 21
2.4957181055
  0
LINE
  5
3AE
100
AcDbEntity
  8
0
100
AcDbLine
 62
2
  6
CONTINUOUS
 10
12.7886866376
 20
2.5778183992
 11
12.7886866376
 21
2.7186477238
  0
LINE
  5
3AF
100
AcDbEntity
  8
0
100
AcDbLine
 62
2
  6
CONTINUOUS
 10
12.7686866266
 20
2.3630013935
 11
12.7686866266
 21
2.5148009227
  0
LINE
  5
3B0
100
AcDbEntity
  8
0
100
AcDbLine
 62
2
  6
CONTINUOUS
 10
12.7686866266
 20
2.5920323691
 11
12.7686866266
 21
2.7177552874
  0
LINE
  5
3B1
100
AcDbEntity
  8
0
100
AcDbLine
 62
2
  6
CONTINUOUS
 10
12.7486866155
 20
2.3638938299
 11
12.7486866155
 21
2.4913263218
  0
LINE
  5
3B2
100
AcDbEntity
  8
0
100
AcDbLine
 62
2
  6
CONTINUOUS
 10
12.7486866155
 20
2.5158783184
 11
12.7486866155
 21
2.5338837399
  0
LINE
  5
3B3
100
AcDbEntity
  8
0
100
AcDbLine
 62
2
  6
CONTINUOUS
 10
12.7486866155
 20
2.5920323691
 11
12.7486866155
 21
2.7168628511
  0
LINE
  5
3B4
100
AcDbEntity
  8
0
100
AcDbLine
 62
2
  6
CONTINUOUS
 10
12.7286866044
 20
2.3647862663
 11
12.7286866044
 21
2.4912273132
  0
LINE
  5
3B5
100
AcDbEntity
  8
0
100
AcDbLine
 62
2
  6
CONTINUOUS
 10
12.7286866044
 20
2.515977327
 11
12.7286866044
 21
2.5527601554
  0
LINE
  5
3B6
100
AcDbEntity
  8
0
100
AcDbLine
 62
2
  6
CONTINUOUS
 10
12.7286866044
 20
2.5920323691
 11
12.7286866044
 21
2.7159704147
  0
LINE
  5
3B7
100
AcDbEntity
  8
0
100
AcDbLine
 62
2
  6
CONTINUOUS
 10
12.7086865933
 20
2.3656787026
 11
12.7086865933
 21
2.4912273132
  0
LINE
  5
3B8
100
AcDbEntity
  8
0
100
AcDbLine
 62
2
  6
CONTINUOUS
 10
12.7086865933
 20
2.5920323691
 11
12.7086865933
 21
2.7150779784
  0
LINE
  5
3B9
100
AcDbEntity
  8
0
100
AcDbLine
 62
2
  6
CONTINUOUS
 10
12.6886865822
 20
2.366571139
 11
12.6886865822
 21
2.4912273132
  0
LINE
  5
3BA
100
AcDbEntity
  8
0
100
AcDbLine
 62
2
  6
CONTINUOUS
 10
12.6886865822
 20
2.515977327
 11
12.6886865822
 21
2.5672823554
  0
LINE
  5
3BB
100
AcDbEntity
  8
0
100
AcDbLine
 62
2
  6
CONTINUOUS
 10
12.6886865822
 20
2.5920323691
 11
12.6886865822
 21
2.714185542
  0
LINE
  5
3BC
100
AcDbEntity
  8
0
100
AcDbLine
 62
2
  6
CONTINUOUS
 10
12.6686865711
 20
2.3677104027
 11
12.6686865711
 21
2.7130462783
  0
LINE
  5
3BD
100
AcDbEntity
  8
0
100
AcDbLine
 62
2
  6
CONTINUOUS
 10
12.64868656
 20
2.3693682721
 11
12.64868656
 21
2.7113884089
  0
LINE
  5
3BE
100
AcDbEntity
  8
0
100
AcDbLine
 62
2
  6
CONTINUOUS
 10
12.6286865489
 20
2.3710261415
 11
12.6286865489
 21
2.4912273132
  0
LINE
  5
3BF
100
AcDbEntity
  8
0
100
AcDbLine
 62
2
  6
CONTINUOUS
 10
12.6286865489
 20
2.515977327
 11
12.6286865489
 21
2.7097305395
  0
LINE
  5
3C0
100
AcDbEntity
  8
0
100
AcDbLine
 62
2
  6
CONTINUOUS
 10
12.6086865378
 20
2.372684011
 11
12.6086865378
 21
2.4912273132
  0
LINE
  5
3C1
100
AcDbEntity
  8
0
100
AcDbLine
 62
2
  6
CONTINUOUS
 10
12.6086865378
 20
2.5351122279
 11
12.6086865378
 21
2.70807267
  0
LINE
  5
3C2
100
AcDbEntity
  8
0
100
AcDbLine
 62
2
  6
CONTINUOUS
 10
12.5886865267
 20
2.3743418804
 11
12.5886865267
 21
2.4912273132
  0
LINE
  5
3C3
100
AcDbEntity
  8
0
100
AcDbLine
 62
2
  6
CONTINUOUS
 10
12.5886865267
 20
2.5660172622
 11
12.5886865267
 21
2.7064148006
  0
LINE
  5
3C4
100
AcDbEntity
  8
0
100
AcDbLine
 62
2
  6
CONTINUOUS
 10
12.5686865156
 20
2.3759997498
 11
12.5686865156
 21
2.4912273132
  0
LINE
  5
3C5
100
AcDbEntity
  8
0
100
AcDbLine
 62
2
  6
CONTINUOUS
 10
12.5686865156
 20
2.5920323691
 11
12.5686865156
 21
2.7047569312
  0
LINE
  5
3C6
100
AcDbEntity
  8
0
100
AcDbLine
 62
2
  6
CONTINUOUS
 10
12.5486865045
 20
2.3777575277
 11
12.5486865045
 21
2.4912273132
  0
LINE
  5
3C7
100
AcDbEntity
  8
0
100
AcDbLine
 62
2
  6
CONTINUOUS
 10
12.5486865045
 20
2.515977327
 11
12.5486865045
 21
2.5275118824
  0
LINE
  5
3C8
100
AcDbEntity
  8
0
100
AcDbLine
 62
2
  6
CONTINUOUS
 10
12.5486865045
 20
2.5920323691
 11
12.5486865045
 21
2.7029991533
  0
LINE
  5
3C9
100
AcDbEntity
  8
0
100
AcDbLine
 62
2
  6
CONTINUOUS
 10
12.5286864935
 20
2.3802813811
 11
12.5286864935
 21
2.5296213345
  0
LINE
  5
3CA
100
AcDbEntity
  8
0
100
AcDbLine
 62
2
  6
CONTINUOUS
 10
12.5286864935
 20
2.5505713461
 11
12.5286864935
 21
2.5667383551
  0
LINE
  5
3CB
100
AcDbEntity
  8
0
100
AcDbLine
 62
2
  6
CONTINUOUS
 10
12.5286864935
 20
2.5920323691
 11
12.5286864935
 21
2.7004752999
  0
LINE
  5
3CC
100
AcDbEntity
  8
0
100
AcDbLine
 62
2
  6
CONTINUOUS
 10
12.5086864824
 20
2.3828052346
 11
12.5086864824
 21
2.4912273132
  0
LINE
  5
3CD
100
AcDbEntity
  8
0
100
AcDbLine
 62
2
  6
CONTINUOUS
 10
12.5086864824
 20
2.515977327
 11
12.5086864824
 21
2.5279667721
  0
LINE
  5
3CE
100
AcDbEntity
  8
0
100
AcDbLine
 62
2
  6
CONTINUOUS
 10
12.5086864824
 20
2.5868602074
 11
12.5086864824
 21
2.6979514464
  0
LINE
  5
3CF
100
AcDbEntity
  8
0
100
AcDbLine
 62
2
  6
CONTINUOUS
 10
12.4886864713
 20
2.385329088
 11
12.4886864713
 21
2.4912273132
  0
LINE
  5
3D0
100
AcDbEntity
  8
0
100
AcDbLine
 62
2
  6
CONTINUOUS
 10
12.4886864713
 20
2.5553401045
 11
12.4886864713
 21
2.695427593
  0
LINE
  5
3D1
100
AcDbEntity
  8
0
100
AcDbLine
 62
2
  6
CONTINUOUS
 10
12.4686864602
 20
2.3878529415
 11
12.4686864602
 21
2.4912273132
  0
LINE
  5
3D2
100
AcDbEntity
  8
0
100
AcDbLine
 62
2
  6
CONTINUOUS
 10
12.4686864602
 20
2.5238200015
 11
12.4686864602
 21
2.6929037395
  0
LINE
  5
3D3
100
AcDbEntity
  8
0
100
AcDbLine
 62
2
  6
CONTINUOUS
 10
12.4486864491
 20
2.390376795
 11
12.4486864491
 21
2.4912273132
  0
LINE
  5
3D4
100
AcDbEntity
  8
0
100
AcDbLine
 62
2
  6
CONTINUOUS
 10
12.4486864491
 20
2.515977327
 11
12.4486864491
 21
2.690379886
  0
LINE
  5
3D5
100
AcDbEntity
  8
0
100
AcDbLine
 62
2
  6
CONTINUOUS
 10
12.428686438
 20
2.3931794042
 11
12.428686438
 21
2.6875772768
  0
LINE
  5
3D6
100
AcDbEntity
  8
0
100
AcDbLine
 62
2
  6
CONTINUOUS
 10
12.4086864269
 20
2.3964643301
 11
12.4086864269
 21
2.5013773986
  0
LINE
  5
3D7
100
AcDbEntity
  8
0
100
AcDbLine
 62
2
  6
CONTINUOUS
 10
12.4086864269
 20
2.5325739971
 11
12.4086864269
 21
2.5537224311
  0
LINE
  5
3D8
100
AcDbEntity
  8
0
100
AcDbLine
 62
2
  6
CONTINUOUS
 10
12.4086864269
 20
2.5791473398
 11
12.4086864269
 21
2.6842923509
  0
LINE
  5
3D9
100
AcDbEntity
  8
0
100
AcDbLine
 62
2
  6
CONTINUOUS
 10
12.3886864158
 20
2.399749256
 11
12.3886864158
 21
2.4921022658
  0
LINE
  5
3DA
100
AcDbEntity
  8
0
100
AcDbLine
 62
2
  6
CONTINUOUS
 10
12.3886864158
 20
2.5895929958
 11
12.3886864158
 21
2.681007425
  0
LINE
  5
3DB
100
AcDbEntity
  8
0
100
AcDbLine
 62
2
  6
CONTINUOUS
 10
12.3686864047
 20
2.403451877
 11
12.3686864047
 21
2.4912273132
  0
LINE
  5
3DC
100
AcDbEntity
  8
0
100
AcDbLine
 62
2
  6
CONTINUOUS
 10
12.3686864047
 20
2.5920323691
 11
12.3686864047
 21
2.677304804
  0
LINE
  5
3DD
100
AcDbEntity
  8
0
100
AcDbLine
 62
2
  6
CONTINUOUS
 10
12.3486863936
 20
2.407324637
 11
12.3486863936
 21
2.4912273132
  0
LINE
  5
3DE
100
AcDbEntity
  8
0
100
AcDbLine
 62
2
  6
CONTINUOUS
 10
12.3486863936
 20
2.5920323691
 11
12.3486863936
 21
2.673432044
  0
LINE
  5
3DF
100
AcDbEntity
  8
0
100
AcDbLine
 62
2
  6
CONTINUOUS
 10
12.3286863825
 20
2.4113493968
 11
12.3286863825
 21
2.4912273132
  0
LINE
  5
3E0
100
AcDbEntity
  8
0
100
AcDbLine
 62
2
  6
CONTINUOUS
 10
12.3286863825
 20
2.515977327
 11
12.3286863825
 21
2.5333023366
  0
LINE
  5
3E1
100
AcDbEntity
  8
0
100
AcDbLine
 62
2
  6
CONTINUOUS
 10
12.3286863825
 20
2.5499573458
 11
12.3286863825
 21
2.5672823554
  0
LINE
  5
3E2
100
AcDbEntity
  8
0
100
AcDbLine
 62
2
  6
CONTINUOUS
 10
12.3286863825
 20
2.5920323691
 11
12.3286863825
 21
2.6694072842
  0
LINE
  5
3E3
100
AcDbEntity
  8
0
100
AcDbLine
 62
2
  6
CONTINUOUS
 10
12.3086863715
 20
2.4159005505
 11
12.3086863715
 21
2.4912273132
  0
LINE
  5
3E4
100
AcDbEntity
  8
0
100
AcDbLine
 62
2
  6
CONTINUOUS
 10
12.3086863715
 20
2.515977327
 11
12.3086863715
 21
2.5333023366
  0
LINE
  5
3E5
100
AcDbEntity
  8
0
100
AcDbLine
 62
2
  6
CONTINUOUS
 10
12.3086863715
 20
2.5499573458
 11
12.3086863715
 21
2.5672823554
  0
LINE
  5
3E6
100
AcDbEntity
  8
0
100
AcDbLine
 62
2
  6
CONTINUOUS
 10
12.3086863715
 20
2.5920323691
 11
12.3086863715
 21
2.6648561305
  0
LINE
  5
3E7
100
AcDbEntity
  8
0
100
AcDbLine
 62
2
  6
CONTINUOUS
 10
12.2886863604
 20
2.4204517041
 11
12.2886863604
 21
2.4912273132
  0
LINE
  5
3E8
100
AcDbEntity
  8
0
100
AcDbLine
 62
2
  6
CONTINUOUS
 10
12.2886863604
 20
2.5920323691
 11
12.2886863604
 21
2.6603049769
  0
LINE
  5
3E9
100
AcDbEntity
  8
0
100
AcDbLine
 62
2
  6
CONTINUOUS
 10
12.2686863493
 20
2.4257438218
 11
12.2686863493
 21
2.4912273132
  0
LINE
  5
3EA
100
AcDbEntity
  8
0
100
AcDbLine
 62
2
  6
CONTINUOUS
 10
12.2686863493
 20
2.5920323691
 11
12.2686863493
 21
2.6550128592
  0
LINE
  5
3EB
100
AcDbEntity
  8
0
100
AcDbLine
 62
2
  6
CONTINUOUS
 10
12.2486863382
 20
2.4310978667
 11
12.2486863382
 21
2.4912273132
  0
LINE
  5
3EC
100
AcDbEntity
  8
0
100
AcDbLine
 62
2
  6
CONTINUOUS
 10
12.2486863382
 20
2.5920323691
 11
12.2486863382
 21
2.6496588142
  0
LINE
  5
3ED
100
AcDbEntity
  8
0
100
AcDbLine
 62
2
  6
CONTINUOUS
 10
12.2286863271
 20
2.4372566433
 11
12.2286863271
 21
2.4912273132
  0
LINE
  5
3EE
100
AcDbEntity
  8
0
100
AcDbLine
 62
2
  6
CONTINUOUS
 10
12.2286863271
 20
2.515977327
 11
12.2286863271
 21
2.5672823554
  0
LINE
  5
3EF
100
AcDbEntity
  8
0
100
AcDbLine
 62
2
  6
CONTINUOUS
 10
12.2286863271
 20
2.5920323691
 11
12.2286863271
 21
2.6435000377
  0
LINE
  5
3F0
100
AcDbEntity
  8
0
100
AcDbLine
 62
2
  6
CONTINUOUS
 10
12.208686316
 20
2.443589771
 11
12.208686316
 21
2.4912273132
  0
LINE
  5
3F1
100
AcDbEntity
  8
0
100
AcDbLine
 62
2
  6
CONTINUOUS
 10
12.208686316
 20
2.515977327
 11
12.208686316
 21
2.5672823554
  0
LINE
  5
3F2
100
AcDbEntity
  8
0
100
AcDbLine
 62
2
  6
CONTINUOUS
 10
12.208686316
 20
2.5920323691
 11
12.208686316
 21
2.63716691
  0
LINE
  5
3F3
100
AcDbEntity
  8
0
100
AcDbLine
 62
2
  6
CONTINUOUS
 10
12.1886863049
 20
2.4510806436
 11
12.1886863049
 21
2.6296760373
  0
LINE
  5
3F4
100
AcDbEntity
  8
0
100
AcDbLine
 62
2
  6
CONTINUOUS
 10
12.1686862938
 20
2.4591016523
 11
12.1686862938
 21
2.6216550287
  0
LINE
  5
3F5
100
AcDbEntity
  8
0
100
AcDbLine
 62
2
  6
CONTINUOUS
 10
12.1486862827
 20
2.468314272
 11
12.1486862827
 21
2.612442409
  0
LINE
  5
3F6
100
AcDbEntity
  8
0
100
AcDbLine
 62
2
  6
CONTINUOUS
 10
12.1286862716
 20
2.4794932339
 11
12.1286862716
 21
2.601263447
  0
LINE
  5
3F7
100
AcDbEntity
  8
0
100
AcDbLine
 62
2
  6
CONTINUOUS
 10
12.1086862605
 20
2.4934150665
 11
12.1086862605
 21
2.5873416144
  0
LINE
  5
3F8
100
AcDbEntity
  8
0
100
AcDbLine
 62
2
  6
CONTINUOUS
 10
12.0886862494
 20
2.5144449553
 11
12.0886862494
 21
2.5663117257
  0
ENDBLK
  5
3F9
100
AcDbEntity
  8
0
  6
BYBLOCK
 62
0
100
AcDbBlockEnd
  0
BLOCK
  5
3FA
100
AcDbEntity
  8
0
100
AcDbBlockBegin
  2
_FILLED
 70
64
 10
0.0
 20
0.0
  3
_FILLED
  1

  0
SOLID
  5
3FB
100
AcDbEntity
  8
0
  6
BYBLOCK
 62
0
100
AcDbTrace
 10
0.0
 20
0.0
 11
-1.0
 21
0.1666666667
 12
-1.0
 22
-0.1666666667
 13
-1.0
 23
-0.1666666667
  0
ENDBLK
  5
3FC
100
AcDbEntity
  8
0
  6
BYBLOCK
 62
0
100
AcDbBlockEnd
  0
BLOCK
  5
3FD
100
AcDbEntity
  8
SCHEME_DIMS
100
AcDbBlockBegin
 62
2
  6
CONTINUOUS
  2
*D0
 70
65
 10
0.0
 20
0.0
  3
*D0
  1

  0
MTEXT
  5
3FE
100
AcDbEntity
  8
SCHEME_DIMS
100
AcDbMText
 62
2
  6
CONTINUOUS
  7
STANDARD
 71
2
 72
1
 10
5.5884242376
 20
5.1786923443
 30
0.0
 11
1.0
 21
0.0
 31
0.0
 44
0.9
  1
31\P[1.22]
 40
0.1
 41
0.6
  0
LINE
  5
3FF
100
AcDbEntity
  8
SCHEME_DIMS
100
AcDbLine
 62
2
  6
CONTINUOUS
 10
4.8230567242
 20
4.4426923443
 11
5.9134242376
 21
4.4426923443
  0
LINE
  5
400
100
AcDbEntity
  8
SCHEME_DIMS
100
AcDbLine
 62
2
  6
CONTINUOUS
 10
5.4494242376
 20
5.6646923443
 11
5.9134242376
 21
5.6646923443
  0
LINE
  5
401
100
AcDbEntity
  8
SCHEME_DIMS
100
AcDbLine
 62
2
  6
CONTINUOUS
 10
5.7884242376
 20
4.4426923443
 11
5.7884242376
 21
4.8286923443
  0
LINE
  5
402
100
AcDbEntity
  8
SCHEME_DIMS
100
AcDbLine
 62
2
  6
CONTINUOUS
 10
5.7884242376
 20
5.6646923443
 11
5.7884242376
 21
5.2786923443
  0
INSERT
  5
403
100
AcDbEntity
  8
SCHEME_DIMS
100
AcDbBlockReference
 62
2
  6
CONTINUOUS
  2
_FILLED
 10
5.7884242376
 20
4.4426923443
 41
0.1875
 42
0.1875
 43
0.1875
 50
270.0
  0
INSERT
  5
404
100
AcDbEntity
  8
SCHEME_DIMS
100
AcDbBlockReference
 62
2
  6
CONTINUOUS
  2
_FILLED
 10
5.7884242376
 20
5.6646923443
 41
0.1875
 42
0.1875
 43
0.1875
 50
90.0
  0
ENDBLK
  5
405
100
AcDbEntity
  8
0
  6
BYBLOCK
 62
0
100
AcDbBlockEnd
  0
BLOCK
  5
406
100
AcDbEntity
  8
SCHEME_DIMS
100
AcDbBlockBegin
 62
2
  6
CONTINUOUS
  2
*D1
 70
65
 10
0.0
 20
0.0
  3
*D1
  1

  0
MTEXT
  5
407
100
AcDbEntity
  8
SCHEME_DIMS
100
AcDbMText
 62
2
  6
CONTINUOUS
  7
TEXTSTYLE_5
 71
2
 72
1
 10
4.2994242376
 20
7.4075222633
 30
0.0
 11
1.0
 21
0.0
 31
0.0
 44
0.9
  1
{\Fgdt;n}\Ftxt;40\P[1.58]
 40
0.1
 41
0.6
  0
LINE
  5
408
100
AcDbEntity
  8
SCHEME_DIMS
100
AcDbLine
 62
2
  6
CONTINUOUS
 10
5.2869242376
 20
8.4177906798
 11
5.2869242376
 21
7.2325222633
  0
LINE
  5
409
100
AcDbEntity
  8
SCHEME_DIMS
100
AcDbLine
 62
2
  6
CONTINUOUS
 10
3.7119242376
 20
8.4297351779
 11
3.7119242376
 21
7.2325222633
  0
LINE
  5
40A
100
AcDbEntity
  8
SCHEME_DIMS
100
AcDbLine
 62
2
  6
CONTINUOUS
 10
5.2869242376
 20
7.3575222633
 11
4.9660909043
 21
7.3575222633
  0
LINE
  5
40B
100
AcDbEntity
  8
SCHEME_DIMS
100
AcDbLine
 62
2
  6
CONTINUOUS
 10
3.7119242376
 20
7.3575222633
 11
4.0327575709
 21
7.3575222633
  0
INSERT
  5
40C
100
AcDbEntity
  8
SCHEME_DIMS
100
AcDbBlockReference
 62
2
  6
CONTINUOUS
  2
_FILLED
 10
5.2869242376
 20
7.3575222633
 41
0.1875
 42
0.1875
 43
0.1875
  0
INSERT
  5
40D
100
AcDbEntity
  8
SCHEME_DIMS
100
AcDbBlockReference
 62
2
  6
CONTINUOUS
  2
_FILLED
 10
3.7119242376
 20
7.3575222633
 41
0.1875
 42
0.1875
 43
0.1875
 50
180.0
  0
ENDBLK
  5
40E
100
AcDbEntity
  8
0
  6
BYBLOCK
 62
0
100
AcDbBlockEnd
  0
BLOCK
  5
40F
100
AcDbEntity
  8
SCHEME_DIMS
100
AcDbBlockBegin
 62
2
  6
CONTINUOUS
  2
*D2
 70
65
 10
0.0
 20
0.0
  3
*D2
  1

  0
MTEXT
  5
410
100
AcDbEntity
  8
SCHEME_DIMS
100
AcDbMText
 62
2
  6
CONTINUOUS
  7
STANDARD
 71
3
 72
1
 10
7.294847025
 20
7.0036923443
 30
0.0
 11
1.0
 21
0.0
 31
0.0
 44
0.9
  1
15\P[.59]
 40
0.1
 41
0.5
  0
LINE
  5
411
100
AcDbEntity
  8
SCHEME_DIMS
100
AcDbLine
 62
2
  6
CONTINUOUS
 10
8.019847025
 20
6.0885197778
 11
8.019847025
 21
7.0786923443
  0
LINE
  5
412
100
AcDbEntity
  8
SCHEME_DIMS
100
AcDbLine
 62
2
  6
CONTINUOUS
 10
8.609847025
 20
6.4774708582
 11
8.609847025
 21
7.0786923443
  0
LINE
  5
413
100
AcDbEntity
  8
SCHEME_DIMS
100
AcDbLine
 62
2
  6
CONTINUOUS
 10
8.019847025
 20
6.9536923443
 11
8.314847025
 21
6.9536923443
  0
LINE
  5
414
100
AcDbEntity
  8
SCHEME_DIMS
100
AcDbLine
 62
2
  6
CONTINUOUS
 10
8.314847025
 20
6.9536923443
 11
7.694847025
 21
6.9536923443
  0
LINE
  5
415
100
AcDbEntity
  8
SCHEME_DIMS
100
AcDbLine
 62
2
  6
CONTINUOUS
 10
8.609847025
 20
6.9536923443
 11
8.314847025
 21
6.9536923443
  0
INSERT
  5
416
100
AcDbEntity
  8
SCHEME_DIMS
100
AcDbBlockReference
 62
2
  6
CONTINUOUS
  2
_FILLED
 10
8.019847025
 20
6.9536923443
 41
0.1875
 42
0.1875
 43
0.1875
 50
180.0
  0
INSERT
  5
417
100
AcDbEntity
  8
SCHEME_DIMS
100
AcDbBlockReference
 62
2
  6
CONTINUOUS
  2
_FILLED
 10
8.609847025
 20
6.9536923443
 41
0.1875
 42
0.1875
 43
0.1875
  0
ENDBLK
  5
418
100
AcDbEntity
  8
0
  6
BYBLOCK
 62
0
100
AcDbBlockEnd
  0
BLOCK
  5
419
100
AcDbEntity
  8
SCHEME_DIMS
100
AcDbBlockBegin
 62
2
  6
CONTINUOUS
  2
*D3
 70
65
 10
0.0
 20
0.0
  3
*D3
  1

  0
MTEXT
  5
41A
100
AcDbEntity
  8
SCHEME_DIMS
100
AcDbMText
 62
2
  6
CONTINUOUS
  7
STANDARD
 71
2
 72
1
 10
8.411347025
 20
7.5036923443
 30
0.0
 11
1.0
 21
0.0
 31
0.0
 44
0.9
  1
30\P[1.18]
 40
0.1
 41
0.6
  0
LINE
  5
41B
100
AcDbEntity
  8
SCHEME_DIMS
100
AcDbLine
 62
2
  6
CONTINUOUS
 10
8.019847025
 20
6.0640574457
 11
8.019847025
 21
7.5786923443
  0
LINE
  5
41C
100
AcDbEntity
  8
SCHEME_DIMS
100
AcDbLine
 62
2
  6
CONTINUOUS
 10
9.202847025
 20
6.4713552751
 11
9.202847025
 21
7.5786923443
  0
LINE
  5
41D
100
AcDbEntity
  8
SCHEME_DIMS
100
AcDbLine
 62
2
  6
CONTINUOUS
 10
8.019847025
 20
7.4536923443
 11
7.619847025
 21
7.4536923443
  0
LINE
  5
41E
100
AcDbEntity
  8
SCHEME_DIMS
100
AcDbLine
 62
2
  6
CONTINUOUS
 10
9.202847025
 20
7.4536923443
 11
9.602847025
 21
7.4536923443
  0
INSERT
  5
41F
100
AcDbEntity
  8
SCHEME_DIMS
100
AcDbBlockReference
 62
2
  6
CONTINUOUS
  2
_FILLED
 10
8.019847025
 20
7.4536923443
 41
0.1875
 42
0.1875
 43
0.1875
  0
INSERT
  5
420
100
AcDbEntity
  8
SCHEME_DIMS
100
AcDbBlockReference
 62
2
  6
CONTINUOUS
  2
_FILLED
 10
9.202847025
 20
7.4536923443
 41
0.1875
 42
0.1875
 43
0.1875
 50
180.0
  0
ENDBLK
  5
421
100
AcDbEntity
  8
0
  6
BYBLOCK
 62
0
100
AcDbBlockEnd
  0
BLOCK
  5
422
100
AcDbEntity
  8
SCHEME_DIMS
100
AcDbBlockBegin
 62
2
  6
CONTINUOUS
  2
*D4
 70
65
 10
0.0
 20
0.0
  3
*D4
  1

  0
MTEXT
  5
423
100
AcDbEntity
  8
SCHEME_DIMS
100
AcDbMText
 62
2
  6
CONTINUOUS
  7
STANDARD
 71
2
 72
1
 10
11.020446474
 20
5.5731923443
 30
0.0
 11
1.0
 21
0.0
 31
0.0
 44
0.9
  1
51,1\P[2.01]
 40
0.1
 41
0.6
  0
LINE
  5
424
100
AcDbEntity
  8
SCHEME_DIMS
100
AcDbLine
 62
2
  6
CONTINUOUS
 10
12.0858139874
 20
4.4426923443
 11
10.995446474
 21
4.4426923443
  0
LINE
  5
425
100
AcDbEntity
  8
SCHEME_DIMS
100
AcDbLine
 62
2
  6
CONTINUOUS
 10
12.0502854557
 20
6.4536923443
 11
10.995446474
 21
6.4536923443
  0
LINE
  5
426
100
AcDbEntity
  8
SCHEME_DIMS
100
AcDbLine
 62
2
  6
CONTINUOUS
 10
11.120446474
 20
4.4426923443
 11
11.120446474
 21
5.2231923443
  0
LINE
  5
427
100
AcDbEntity
  8
SCHEME_DIMS
100
AcDbLine
 62
2
  6
CONTINUOUS
 10
11.120446474
 20
6.4536923443
 11
11.120446474
 21
5.6731923443
  0
INSERT
  5
428
100
AcDbEntity
  8
SCHEME_DIMS
100
AcDbBlockReference
 62
2
  6
CONTINUOUS
  2
_FILLED
 10
11.120446474
 20
4.4426923443
 41
0.1875
 42
0.1875
 43
0.1875
 50
270.0
  0
INSERT
  5
429
100
AcDbEntity
  8
SCHEME_DIMS
100
AcDbBlockReference
 62
2
  6
CONTINUOUS
  2
_FILLED
 10
11.120446474
 20
6.4536923443
 41
0.1875
 42
0.1875
 43
0.1875
 50
90.0
  0
ENDBLK
  5
42A
100
AcDbEntity
  8
0
  6
BYBLOCK
 62
0
100
AcDbBlockEnd
  0
ENDSEC
  0
SECTION
  2
ENTITIES
  0
MTEXT
  5
42B
100
AcDbEntity
  8
0
100
AcDbMText
 62
2
  6
CONTINUOUS
  7
TEXTSTYLE_2
 71
2
 72
1
 10
11.0287658475
 20
1.794867839
 30
0.0
 11
1.0
 21
0.0
 31
0.0
 44
0.9
  1
THIRD ANGLE PROJECTION
 40
0.1
 41
1.76
  0
MTEXT
  5
42C
100
AcDbEntity
  8
0
100
AcDbMText
 62
2
  6
CONTINUOUS
  7
STANDARD
 71
1
 72
1
 10
12.88
 20
1.457
 30
0.0
 11
1.0
 21
0.0
 31
0.0
 44
0.9
  1
DRAWING NO.
 40
0.08
 41
0.88
  0
MTEXT
  5
42D
100
AcDbEntity
  8
0
100
AcDbMText
 62
2
  6
CONTINUOUS
  7
TEXTSTYLE_3
 71
2
 72
1
 10
11.03
 20
2.516432
 30
0.0
 11
1.0
 21
0.0
 31
0.0
 44
0.9
  1
and is proprietary in general
 40
0.08
 41
1.972
  0
MTEXT
  5
42E
100
AcDbEntity
  8
0
100
AcDbMText
 62
2
  6
CONTINUOUS
  7
TEXTSTYLE_3
 71
2
 72
1
 10
11.03
 20
2.396432
 30
0.0
 11
1.0
 21
0.0
 31
0.0
 44
0.9
  1
and in detail.  Its contents
 40
0.08
 41
1.904
  0
MTEXT
  5
42F
100
AcDbEntity
  8
0
100
AcDbMText
 62
2
  6
CONTINUOUS
  7
TEXTSTYLE_3
 71
2
 72
1
 10
11.03
 20
2.276432
 30
0.0
 11
1.0
 21
0.0
 31
0.0
 44
0.9
  1
shall not be revealed to
 40
0.08
 41
1.632
  0
MTEXT
  5
430
100
AcDbEntity
  8
0
100
AcDbMText
 62
2
  6
CONTINUOUS
  7
TEXTSTYLE_3
 71
2
 72
1
 10
11.03
 20
2.156432
 30
0.0
 11
1.0
 21
0.0
 31
0.0
 44
0.9
  1
outside parties without
 40
0.08
 41
1.564
  0
MTEXT
  5
431
100
AcDbEntity
  8
0
100
AcDbMText
 62
2
  6
CONTINUOUS
  7
TEXTSTYLE_3
 71
2
 72
1
 10
11.03
 20
2.036432
 30
0.0
 11
1.0
 21
0.0
 31
0.0
 44
0.9
  1
written consent of BANNER.
 40
0.08
 41
1.768
  0
MTEXT
  5
432
100
AcDbEntity
  8
0
100
AcDbMText
 62
2
  6
CONTINUOUS
  7
TEXTSTYLE_2
 71
1
 72
1
 10
12.08
 20
2.217
 30
0.0
 11
1.0
 21
0.0
 31
0.0
 44
0.9
  1
TITLE
 40
0.1
 41
0.4
  0
MTEXT
  5
433
100
AcDbEntity
  8
0
100
AcDbMText
 62
2
  6
CONTINUOUS
  7
STANDARD
 71
1
 72
1
 10
12.08
 20
1.457
 30
0.0
 11
1.0
 21
0.0
 31
0.0
 44
0.9
  1
SIZE
 40
0.08
 41
0.32
  0
MTEXT
  5
434
100
AcDbEntity
  8
0
100
AcDbMText
 62
2
  6
CONTINUOUS
  7
STANDARD
 71
1
 72
1
 10
12.08
 20
1.087
 30
0.0
 11
1.0
 21
0.0
 31
0.0
 44
0.9
  1
SCALE
 40
0.08
 41
0.4
  0
MTEXT
  5
435
100
AcDbEntity
  8
0
100
AcDbMText
 62
2
  6
CONTINUOUS
  7
TEXTSTYLE_2
 71
2
 72
1
 10
12.5
 20
1.337
 30
0.0
 11
1.0
 21
0.0
 31
0.0
 44
0.9
  1
B
 40
0.1
 41
0.08
  0
MTEXT
  5
436
100
AcDbEntity
  8
0
100
AcDbMText
 62
2
  6
CONTINUOUS
  7
TEXTSTYLE_3
 71
2
 72
1
 10
11.03
 20
2.636432
 30
0.0
 11
1.0
 21
0.0
 31
0.0
 44
0.9
  1
of BANNER ENGINEERING CORP.
 40
0.08
 41
1.836
  0
MTEXT
  5
437
100
AcDbEntity
  8
0
100
AcDbMText
 62
2
  6
CONTINUOUS
  7
TEXTSTYLE_3
 71
2
 72
1
 10
11.03
 20
2.756432
 30
0.0
 11
1.0
 21
0.0
 31
0.0
 44
0.9
  1
This drawing is the property
 40
0.08
 41
1.904
  0
MTEXT
  5
438
100
AcDbEntity
  8
0
100
AcDbMText
 62
2
  6
CONTINUOUS
  7
TEXTSTYLE_2
 71
2
 72
1
 10
15.03
 20
2.4134
 30
0.0
 11
1.0
 21
0.0
 31
0.0
 44
0.9
  1
MINNEAPOLIS, MN 55440
 40
0.1
 41
1.68
  0
MTEXT
  5
439
100
AcDbEntity
  8
0
100
AcDbMText
 62
2
  6
CONTINUOUS
  7
STANDARD
 71
1
 72
1
 10
14.255
 20
1.087
 30
0.0
 11
1.0
 21
0.0
 31
0.0
 44
0.9
  1
SHEET
 40
0.08
 41
0.4
  0
MTEXT
  5
43A
100
AcDbEntity
  8
0
100
AcDbMText
 62
2
  6
CONTINUOUS
  7
STANDARD
 71
1
 72
1
 10
15.63
 20
1.457
 30
0.0
 11
1.0
 21
0.0
 31
0.0
 44
0.9
  1
REV.
 40
0.08
 41
0.32
  0
MTEXT
  5
43B
100
AcDbEntity
  8
0
100
AcDbMText
 62
2
  6
CONTINUOUS
  7
STANDARD
 71
3
 72
1
 10
16.38
 20
0.835443
 30
0.0
 11
1.0
 21
0.0
 31
0.0
 44
0.9
  1
PRO/E
 40
0.07
 41
0.35
  0
MTEXT
  5
43C
100
AcDbEntity
  8
0
100
AcDbMText
 62
2
  6
CONTINUOUS
  7
TEXTSTYLE_4
 71
2
 72
1
 10
15.03
 20
2.751049
 30
0.0
 11
1.0
 21
0.0
 31
0.0
 44
0.9
  1
BANNER ENGINEERING CORP.
 40
0.12
 41
2.6496
  0
MTEXT
  5
43D
100
AcDbEntity
  8
0
100
AcDbMText
 62
2
  6
CONTINUOUS
  7
TEXTSTYLE_2
 71
2
 72
1
 10
15.03
 20
2.5724
 30
0.0
 11
1.0
 21
0.0
 31
0.0
 44
0.9
  1
P.O. BOX 9414
 40
0.1
 41
1.04
  0
MTEXT
  5
43E
100
AcDbEntity
  8
0
100
AcDbMText
 62
2
  6
CONTINUOUS
  7
TEXTSTYLE_2
 71
2
 72
1
 10
9.485
 20
10.312
 30
0.0
 11
1.0
 21
0.0
 31
0.0
 44
0.9
  1
4
 40
0.1
 41
0.08
  0
MTEXT
  5
43F
100
AcDbEntity
  8
0
100
AcDbMText
 62
2
  6
CONTINUOUS
  7
TEXTSTYLE_2
 71
2
 72
1
 10
11.455
 20
10.312
 30
0.0
 11
1.0
 21
0.0
 31
0.0
 44
0.9
  1
3
 40
0.1
 41
0.08
  0
MTEXT
  5
440
100
AcDbEntity
  8
0
100
AcDbMText
 62
2
  6
CONTINUOUS
  7
TEXTSTYLE_2
 71
2
 72
1
 10
13.425
 20
10.312
 30
0.0
 11
1.0
 21
0.0
 31
0.0
 44
0.9
  1
2
 40
0.1
 41
0.08
  0
MTEXT
  5
441
100
AcDbEntity
  8
0
100
AcDbMText
 62
2
  6
CONTINUOUS
  7
TEXTSTYLE_2
 71
2
 72
1
 10
15.395
 20
10.312
 30
0.0
 11
1.0
 21
0.0
 31
0.0
 44
0.9
  1
1
 40
0.1
 41
0.08
  0
MTEXT
  5
442
100
AcDbEntity
  8
0
100
AcDbMText
 62
2
  6
CONTINUOUS
  7
TEXTSTYLE_2
 71
2
 72
1
 10
3.575
 20
10.312
 30
0.0
 11
1.0
 21
0.0
 31
0.0
 44
0.9
  1
7
 40
0.1
 41
0.08
  0
MTEXT
  5
443
100
AcDbEntity
  8
0
100
AcDbMText
 62
2
  6
CONTINUOUS
  7
TEXTSTYLE_2
 71
2
 72
1
 10
5.545
 20
10.312
 30
0.0
 11
1.0
 21
0.0
 31
0.0
 44
0.9
  1
6
 40
0.1
 41
0.08
  0
MTEXT
  5
444
100
AcDbEntity
  8
0
100
AcDbMText
 62
2
  6
CONTINUOUS
  7
TEXTSTYLE_2
 71
2
 72
1
 10
7.515
 20
10.312
 30
0.0
 11
1.0
 21
0.0
 31
0.0
 44
0.9
  1
5
 40
0.1
 41
0.08
  0
MTEXT
  5
445
100
AcDbEntity
  8
0
100
AcDbMText
 62
2
  6
CONTINUOUS
  7
TEXTSTYLE_2
 71
2
 72
1
 10
1.605
 20
10.312
 30
0.0
 11
1.0
 21
0.0
 31
0.0
 44
0.9
  1
8
 40
0.1
 41
0.08
  0
MTEXT
  5
446
100
AcDbEntity
  8
0
100
AcDbMText
 62
2
  6
CONTINUOUS
  7
TEXTSTYLE_2
 71
2
 72
1
 10
1.605
 20
0.787
 30
0.0
 11
1.0
 21
0.0
 31
0.0
 44
0.9
  1
8
 40
0.1
 41
0.08
  0
MTEXT
  5
447
100
AcDbEntity
  8
0
100
AcDbMText
 62
2
  6
CONTINUOUS
  7
TEXTSTYLE_2
 71
2
 72
1
 10
3.575
 20
0.787
 30
0.0
 11
1.0
 21
0.0
 31
0.0
 44
0.9
  1
7
 40
0.1
 41
0.08
  0
MTEXT
  5
448
100
AcDbEntity
  8
0
100
AcDbMText
 62
2
  6
CONTINUOUS
  7
TEXTSTYLE_2
 71
2
 72
1
 10
5.545
 20
0.787
 30
0.0
 11
1.0
 21
0.0
 31
0.0
 44
0.9
  1
6
 40
0.1
 41
0.08
  0
MTEXT
  5
449
100
AcDbEntity
  8
0
100
AcDbMText
 62
2
  6
CONTINUOUS
  7
TEXTSTYLE_2
 71
2
 72
1
 10
7.515
 20
0.787
 30
0.0
 11
1.0
 21
0.0
 31
0.0
 44
0.9
  1
5
 40
0.1
 41
0.08
  0
MTEXT
  5
44A
100
AcDbEntity
  8
0
100
AcDbMText
 62
2
  6
CONTINUOUS
  7
TEXTSTYLE_2
 71
2
 72
1
 10
9.485
 20
0.787
 30
0.0
 11
1.0
 21
0.0
 31
0.0
 44
0.9
  1
4
 40
0.1
 41
0.08
  0
MTEXT
  5
44B
100
AcDbEntity
  8
0
100
AcDbMText
 62
2
  6
CONTINUOUS
  7
TEXTSTYLE_2
 71
2
 72
1
 10
11.455
 20
0.787
 30
0.0
 11
1.0
 21
0.0
 31
0.0
 44
0.9
  1
3
 40
0.1
 41
0.08
  0
MTEXT
  5
44C
100
AcDbEntity
  8
0
100
AcDbMText
 62
2
  6
CONTINUOUS
  7
TEXTSTYLE_2
 71
2
 72
1
 10
13.425
 20
0.787
 30
0.0
 11
1.0
 21
0.0
 31
0.0
 44
0.9
  1
2
 40
0.1
 41
0.08
  0
MTEXT
  5
44D
100
AcDbEntity
  8
0
100
AcDbMText
 62
2
  6
CONTINUOUS
  7
TEXTSTYLE_2
 71
2
 72
1
 10
15.395
 20
0.787
 30
0.0
 11
1.0
 21
0.0
 31
0.0
 44
0.9
  1
1
 40
0.1
 41
0.08
  0
MTEXT
  5
44E
100
AcDbEntity
  8
0
100
AcDbMText
 62
2
  6
CONTINUOUS
  7
TEXTSTYLE_2
 71
3
 72
1
 10
0.52
 20
4.3995
 30
0.0
 11
1.0
 21
0.0
 31
0.0
 44
0.9
  1
B
 40
0.1
 41
0.08
  0
MTEXT
  5
44F
100
AcDbEntity
  8
0
100
AcDbMText
 62
2
  6
CONTINUOUS
  7
TEXTSTYLE_2
 71
3
 72
1
 10
0.52
 20
2.0995
 30
0.0
 11
1.0
 21
0.0
 31
0.0
 44
0.9
  1
A
 40
0.1
 41
0.08
  0
MTEXT
  5
450
100
AcDbEntity
  8
0
100
AcDbMText
 62
2
  6
CONTINUOUS
  7
TEXTSTYLE_2
 71
3
 72
1
 10
0.52
 20
8.9995
 30
0.0
 11
1.0
 21
0.0
 31
0.0
 44
0.9
  1
D
 40
0.1
 41
0.08
  0
MTEXT
  5
451
100
AcDbEntity
  8
0
100
AcDbMText
 62
2
  6
CONTINUOUS
  7
TEXTSTYLE_2
 71
3
 72
1
 10
0.52
 20
6.6995
 30
0.0
 11
1.0
 21
0.0
 31
0.0
 44
0.9
  1
C
 40
0.1
 41
0.08
  0
MTEXT
  5
452
100
AcDbEntity
  8
0
100
AcDbMText
 62
2
  6
CONTINUOUS
  7
TEXTSTYLE_2
 71
1
 72
1
 10
16.48
 20
8.9995
 30
0.0
 11
1.0
 21
0.0
 31
0.0
 44
0.9
  1
D
 40
0.1
 41
0.08
  0
MTEXT
  5
453
100
AcDbEntity
  8
0
100
AcDbMText
 62
2
  6
CONTINUOUS
  7
TEXTSTYLE_2
 71
1
 72
1
 10
16.48
 20
6.6995
 30
0.0
 11
1.0
 21
0.0
 31
0.0
 44
0.9
  1
C
 40
0.1
 41
0.08
  0
MTEXT
  5
454
100
AcDbEntity
  8
0
100
AcDbMText
 62
2
  6
CONTINUOUS
  7
TEXTSTYLE_2
 71
1
 72
1
 10
16.48
 20
4.3995
 30
0.0
 11
1.0
 21
0.0
 31
0.0
 44
0.9
  1
B
 40
0.1
 41
0.08
  0
MTEXT
  5
455
100
AcDbEntity
  8
0
100
AcDbMText
 62
2
  6
CONTINUOUS
  7
TEXTSTYLE_2
 71
1
 72
1
 10
16.48
 20
2.0995
 30
0.0
 11
1.0
 21
0.0
 31
0.0
 44
0.9
  1
A
 40
0.1
 41
0.08
  0
MTEXT
  5
456
100
AcDbEntity
  8
0
100
AcDbMText
 62
2
  6
CONTINUOUS
  7
STANDARD
 71
1
 72
1
 10
14.819264911
 20
1.0627941725
 30
0.0
 11
1.0
 21
0.0
 31
0.0
 44
0.9
  1
1 OF 1
 40
0.1
 41
0.6
  0
MTEXT
  5
457
100
AcDbEntity
  8
0
100
AcDbMText
 62
7
  6
CONTINUOUS
  7
STANDARD
 71
1
 72
1
 10
13.8911999818
 20
1.3747321586
 30
0.0
 11
1.0
 21
0.0
 31
0.0
 44
0.9
  1
155316
 40
0.12
 41
0.72
  0
MTEXT
  5
458
100
AcDbEntity
  8
0
100
AcDbMText
 62
2
  6
CONTINUOUS
  7
STANDARD
 71
1
 72
1
 10
12.644264911
 20
1.0627941725
 30
0.0
 11
1.0
 21
0.0
 31
0.0
 44
0.9
  1
1:1
 40
0.1
 41
0.3
  0
MTEXT
  5
459
100
AcDbEntity
  8
0
100
AcDbMText
 62
2
  6
CONTINUOUS
  7
STANDARD
 71
1
 72
1
 10
1.0597007627
 20
1.6202922458
 30
0.0
 11
1.0
 21
0.0
 31
0.0
 44
0.9
  1
NOTES:\P1. ALL DIMENSIONS ARE MILLIMETERS [INCHES] UNLESS OTHERWISE NOTED.
 40
0.1
 41
6.6
  0
INSERT
  5
45A
100
AcDbEntity
  8
0
100
AcDbBlockReference
 62
2
  6
CONTINUOUS
  2
BANNER_LOGO_TITLEBLOCK_BL0
 10
12.9086867042
 20
2.5403783405
  0
DIMENSION
  5
45B
100
AcDbEntity
  8
SCHEME_DIMS
100
AcDbDimension
 62
2
  6
CONTINUOUS
  2
*D0
 10
5.7884242376
 20
5.6646923443
 11
5.7134242376
 21
5.0536923443
 70
160
 71
2
 42
31.0388
  3
DIMSTYLE_1
100
AcDbAlignedDimension
 13
4.8230567242
 23
4.4426923443
 14
5.4494242376
 24
5.6646923443
 50
90.0
100
AcDbRotatedDimension
  0
DIMENSION
  5
45C
100
AcDbEntity
  8
SCHEME_DIMS
100
AcDbDimension
 62
2
  6
CONTINUOUS
  2
*D1
 10
3.7119242376
 20
7.3575222633
 11
4.4410909043
 21
7.2825222633
 70
160
 71
2
 42
40.005
  1
%%c<>
  3
DIMSTYLE_1
100
AcDbAlignedDimension
 13
5.2869242376
 23
8.4177906798
 14
3.7119242376
 24
8.4297351779
 50
180.0
100
AcDbRotatedDimension
  0
DIMENSION
  5
45D
100
AcDbEntity
  8
SCHEME_DIMS
100
AcDbDimension
 62
2
  6
CONTINUOUS
  2
*D2
 10
8.609847025
 20
6.9536923443
 11
7.194847025
 21
6.8786923443
 70
160
 71
3
 42
14.986
  3
DIMSTYLE_1
100
AcDbAlignedDimension
 13
8.019847025
 23
6.0885197778
 14
8.609847025
 24
6.4774708582
100
AcDbRotatedDimension
  0
DIMENSION
  5
45E
100
AcDbEntity
  8
SCHEME_DIMS
100
AcDbDimension
 62
2
  6
CONTINUOUS
  2
*D3
 10
9.202847025
 20
7.4536923443
 11
8.536347025
 21
7.3786923443
 70
160
 71
2
 42
30.0482
  3
DIMSTYLE_1
100
AcDbAlignedDimension
 13
8.019847025
 23
6.0640574457
 14
9.202847025
 24
6.4713552751
100
AcDbRotatedDimension
  0
DIMENSION
  5
45F
100
AcDbEntity
  8
SCHEME_DIMS
100
AcDbDimension
 62
2
  6
CONTINUOUS
  2
*D4
 10
11.120446474
 20
6.4536923443
 11
10.995446474
 21
5.4481923443
 70
160
 71
2
 42
51.0794
  3
DIMSTYLE_1
100
AcDbAlignedDimension
 13
12.0858139874
 23
4.4426923443
 14
12.0502854557
 24
6.4536923443
 50
90.0
100
AcDbRotatedDimension
  0
LINE
  5
460
100
AcDbEntity
  8
0
100
AcDbLine
 62
2
  6
CONTINUOUS
 10
16.38
 20
0.887
 11
12.03
 21
0.887
  0
LINE
  5
461
100
AcDbEntity
  8
0
100
AcDbLine
 62
2
  6
CONTINUOUS
 10
16.38
 20
0.887
 11
16.38
 21
2.807
  0
LINE
  5
462
100
AcDbEntity
  8
0
100
AcDbLine
 62
2
  6
CONTINUOUS
 10
16.38
 20
2.807
 11
12.03
 21
2.807
  0
LINE
  5
463
100
AcDbEntity
  8
0
100
AcDbLine
 62
2
  6
CONTINUOUS
 10
12.03
 20
0.887
 11
12.03
 21
2.807
  0
MTEXT
  5
464
100
AcDbEntity
  8
NOTES
100
AcDbMText
 62
7
  6
CONTINUOUS
  7
STANDARD
 71
2
 72
1
 10
16.155
 20
1.367
 30
0.0
 11
1.0
 21
0.0
 31
0.0
 44
0.9
  1
1
 40
0.1
 41
0.1
  0
MTEXT
  5
465
100
AcDbEntity
  8
NOTES
100
AcDbMText
 62
7
  6
CONTINUOUS
  7
STANDARD
 71
2
 72
1
 10
14.205
 20
1.967
 30
0.0
 11
1.0
 21
0.0
 31
0.0
 44
0.9
  1
T18 AW3R/RW3R CABLE/PIGTAIL\PWEB CAD DRAWINGS 2D/3D
 40
0.1
 41
2.7
  0
MTEXT
  5
466
100
AcDbEntity
  8
NOTES
100
AcDbMText
 62
2
  6
CONTINUOUS
  7
STANDARD
 71
2
 72
1
 10
14.5965493964
 20
6.6563190207
 30
0.0
 11
1.0
 21
0.0
 31
0.0
 44
0.9
  1
ISOMETRIC VIEW\PSCALE  1:1
 40
0.1
 41
1.4
  0
LEADER
  5
467
100
AcDbEntity
  8
NOTES
100
AcDbLeader
 62
2
  6
CONTINUOUS
  3
STANDARD
 71
1
 72
0
 73
0
 75
0
 40
0.1
 41
0.9
 76
3
 10
8.2556180206
 20
5.332170332
 30
0.0
 10
7.9708820051
 20
4.8742675135
 30
0.0
 10
7.7208820051
 20
4.8742675135
 30
0.0
340
468
1001
ACAD
1000
DSTYLE
1002
{
1070
77
1070
0
1002
}
  0
MTEXT
  5
468
102
{ACAD_REACTORS
330
467
102
}
100
AcDbEntity
  8
NOTES
100
AcDbMText
 62
2
  6
CONTINUOUS
  7
STANDARD
 71
3
 72
1
 10
7.7208820051
 20
4.9242675135
 30
0.0
 11
1.0
 21
0.0
 31
0.0
 44
0.9
  1
M18 X 1 G
 40
0.1
 41
0.9
  0
LINE
  5
469
100
AcDbEntity
  8
0
100
AcDbLine
 62
2
  6
CONTINUOUS
 10
0.47
 20
5.586103
 11
0.47
 21
5.412897
  0
LINE
  5
46A
100
AcDbEntity
  8
0
100
AcDbLine
 62
2
  6
CONTINUOUS
 10
0.62
 20
10.112
 11
0.62
 21
0.887
  0
LINE
  5
46B
100
AcDbEntity
  8
0
100
AcDbLine
 62
2
  6
CONTINUOUS
 10
2.59
 20
0.887
 11
2.59
 21
0.637
  0
LINE
  5
46C
100
AcDbEntity
  8
0
100
AcDbLine
 62
2
  6
CONTINUOUS
 10
2.59
 20
10.112
 11
2.59
 21
10.362
  0
LINE
  5
46D
100
AcDbEntity
  8
0
100
AcDbLine
 62
2
  6
CONTINUOUS
 10
8.413397
 20
0.737
 11
8.586603
 21
0.737
  0
LINE
  5
46E
100
AcDbEntity
  8
0
100
AcDbLine
 62
7
  6
CONTINUOUS
 10
11.1389508475
 20
1.425992839
 11
11.7453418475
 21
1.495385839
  0
LINE
  5
46F
100
AcDbEntity
  8
0
100
AcDbLine
 62
2
  6
CONTINUOUS
 10
0.62
 20
0.887
 11
16.38
 21
0.887
  0
LINE
  5
470
100
AcDbEntity
  8
0
100
AcDbLine
 62
2
  6
CONTINUOUS
 10
12.03
 20
1.137
 11
16.38
 21
1.137
  0
LINE
  5
471
100
AcDbEntity
  8
0
100
AcDbLine
 62
7
  6
CONTINUOUS
 10
10.2121898475
 20
1.243294839
 11
10.4342808475
 21
1.243294839
  0
LINE
  5
472
100
AcDbEntity
  8
0
100
AcDbLine
 62
7
  6
CONTINUOUS
 10
10.4842808475
 20
1.243294839
 11
10.5842808475
 21
1.243294839
  0
LINE
  5
473
100
AcDbEntity
  8
0
100
AcDbLine
 62
7
  6
CONTINUOUS
 10
10.6342808475
 20
1.243294839
 11
10.8563718475
 21
1.243294839
  0
LINE
  5
474
100
AcDbEntity
  8
0
100
AcDbLine
 62
7
  6
CONTINUOUS
 10
11.0389508475
 20
1.243294839
 11
11.3171028475
 21
1.243294839
  0
LINE
  5
475
100
AcDbEntity
  8
0
100
AcDbLine
 62
7
  6
CONTINUOUS
 10
11.3671028475
 20
1.243294839
 11
11.5171888475
 21
1.243294839
  0
LINE
  5
476
100
AcDbEntity
  8
0
100
AcDbLine
 62
7
  6
CONTINUOUS
 10
11.5671888475
 20
1.243294839
 11
11.8453418475
 21
1.243294839
  0
LINE
  5
477
100
AcDbEntity
  8
0
100
AcDbLine
 62
7
  6
CONTINUOUS
 10
11.7453418475
 20
0.991203839
 11
11.1389508475
 21
1.060596839
  0
LINE
  5
478
100
AcDbEntity
  8
0
100
AcDbLine
 62
2
  6
CONTINUOUS
 10
4.56
 20
0.887
 11
4.56
 21
0.637
  0
LINE
  5
479
100
AcDbEntity
  8
0
100
AcDbLine
 62
2
  6
CONTINUOUS
 10
4.56
 20
10.112
 11
4.56
 21
10.362
  0
LINE
  5
47A
100
AcDbEntity
  8
0
100
AcDbLine
 62
2
  6
CONTINUOUS
 10
0.47
 20
5.412897
 11
0.62
 21
5.4995
  0
LINE
  5
47B
100
AcDbEntity
  8
0
100
AcDbLine
 62
2
  6
CONTINUOUS
 10
12.03
 20
1.507
 11
16.38
 21
1.507
  0
LINE
  5
47C
100
AcDbEntity
  8
0
100
AcDbLine
 62
2
  6
CONTINUOUS
 10
10.03
 20
1.907
 11
12.03
 21
1.907
  0
LINE
  5
47D
100
AcDbEntity
  8
0
100
AcDbLine
 62
2
  6
CONTINUOUS
 10
0.62
 20
5.4995
 11
0.47
 21
5.586103
  0
LINE
  5
47E
100
AcDbEntity
  8
0
100
AcDbLine
 62
2
  6
CONTINUOUS
 10
12.03
 20
2.267
 11
16.38
 21
2.267
  0
LINE
  5
47F
100
AcDbEntity
  8
0
100
AcDbLine
 62
2
  6
CONTINUOUS
 10
8.5
 20
10.112
 11
8.586603
 21
10.262
  0
LINE
  5
480
100
AcDbEntity
  8
0
100
AcDbLine
 62
2
  6
CONTINUOUS
 10
16.38
 20
2.807
 11
10.03
 21
2.807
  0
LINE
  5
481
100
AcDbEntity
  8
0
100
AcDbLine
 62
2
  6
CONTINUOUS
 10
0.62
 20
3.1995
 11
0.37
 21
3.1995
  0
LINE
  5
482
100
AcDbEntity
  8
0
100
AcDbLine
 62
2
  6
CONTINUOUS
 10
16.38
 20
3.1995
 11
16.63
 21
3.1995
  0
LINE
  5
483
100
AcDbEntity
  8
0
100
AcDbLine
 62
2
  6
CONTINUOUS
 10
8.586603
 20
0.737
 11
8.5
 21
0.887
  0
LINE
  5
484
100
AcDbEntity
  8
0
100
AcDbLine
 62
2
  6
CONTINUOUS
 10
6.53
 20
0.887
 11
6.53
 21
0.637
  0
LINE
  5
485
100
AcDbEntity
  8
0
100
AcDbLine
 62
2
  6
CONTINUOUS
 10
6.53
 20
10.112
 11
6.53
 21
10.362
  0
LINE
  5
486
100
AcDbEntity
  8
0
100
AcDbLine
 62
2
  6
CONTINUOUS
 10
8.5
 20
0.887
 11
8.5
 21
0.637
  0
LINE
  5
487
100
AcDbEntity
  8
0
100
AcDbLine
 62
2
  6
CONTINUOUS
 10
8.5
 20
10.112
 11
8.5
 21
10.362
  0
LINE
  5
488
100
AcDbEntity
  8
0
100
AcDbLine
 62
2
  6
CONTINUOUS
 10
0.62
 20
5.4995
 11
0.37
 21
5.4995
  0
LINE
  5
489
100
AcDbEntity
  8
0
100
AcDbLine
 62
2
  6
CONTINUOUS
 10
16.38
 20
5.4995
 11
16.63
 21
5.4995
  0
LINE
  5
48A
100
AcDbEntity
  8
0
100
AcDbLine
 62
2
  6
CONTINUOUS
 10
10.03
 20
2.807
 11
10.03
 21
0.887
  0
LINE
  5
48B
100
AcDbEntity
  8
0
100
AcDbLine
 62
2
  6
CONTINUOUS
 10
10.47
 20
0.887
 11
10.47
 21
0.637
  0
LINE
  5
48C
100
AcDbEntity
  8
0
100
AcDbLine
 62
2
  6
CONTINUOUS
 10
10.47
 20
10.112
 11
10.47
 21
10.362
  0
LINE
  5
48D
100
AcDbEntity
  8
0
100
AcDbLine
 62
7
  6
CONTINUOUS
 10
10.5342808475
 20
1.143294839
 11
10.5342808475
 21
0.921203839
  0
LINE
  5
48E
100
AcDbEntity
  8
0
100
AcDbLine
 62
7
  6
CONTINUOUS
 10
10.5342808475
 20
1.193294839
 11
10.5342808475
 21
1.293294839
  0
LINE
  5
48F
100
AcDbEntity
  8
0
100
AcDbLine
 62
7
  6
CONTINUOUS
 10
10.5342808475
 20
1.343294839
 11
10.5342808475
 21
1.565385839
  0
LINE
  5
490
100
AcDbEntity
  8
0
100
AcDbLine
 62
2
  6
CONTINUOUS
 10
8.5
 20
0.887
 11
8.413397
 21
0.737
  0
LINE
  5
491
100
AcDbEntity
  8
0
100
AcDbLine
 62
2
  6
CONTINUOUS
 10
0.62
 20
7.7995
 11
0.37
 21
7.7995
  0
LINE
  5
492
100
AcDbEntity
  8
0
100
AcDbLine
 62
2
  6
CONTINUOUS
 10
16.38
 20
7.7995
 11
16.63
 21
7.7995
  0
LINE
  5
493
100
AcDbEntity
  8
0
100
AcDbLine
 62
2
  6
CONTINUOUS
 10
8.413397
 20
10.262
 11
8.5
 21
10.112
  0
LINE
  5
494
100
AcDbEntity
  8
0
100
AcDbLine
 62
7
  6
CONTINUOUS
 10
11.1389508475
 20
1.060596839
 11
11.1389508475
 21
1.425992839
  0
LINE
  5
495
100
AcDbEntity
  8
0
100
AcDbLine
 62
7
  6
CONTINUOUS
 10
11.7453418475
 20
1.495385839
 11
11.7453418475
 21
0.991203839
  0
LINE
  5
496
100
AcDbEntity
  8
0
100
AcDbLine
 62
1
  6
CONTINUOUS
 10
12.03
 20
2.807
 11
12.03
 21
0.887
  0
LINE
  5
497
100
AcDbEntity
  8
0
100
AcDbLine
 62
2
  6
CONTINUOUS
 10
12.44
 20
0.887
 11
12.44
 21
0.637
  0
LINE
  5
498
100
AcDbEntity
  8
0
100
AcDbLine
 62
2
  6
CONTINUOUS
 10
12.44
 20
10.112
 11
12.44
 21
10.362
  0
LINE
  5
499
100
AcDbEntity
  8
0
100
AcDbLine
 62
2
  6
CONTINUOUS
 10
16.53
 20
5.586103
 11
16.38
 21
5.4995
  0
LINE
  5
49A
100
AcDbEntity
  8
0
100
AcDbLine
 62
2
  6
CONTINUOUS
 10
16.38
 20
5.4995
 11
16.53
 21
5.412897
  0
LINE
  5
49B
100
AcDbEntity
  8
0
100
AcDbLine
 62
2
  6
CONTINUOUS
 10
12.83
 20
1.507
 11
12.83
 21
1.137
  0
LINE
  5
49C
100
AcDbEntity
  8
0
100
AcDbLine
 62
2
  6
CONTINUOUS
 10
16.38
 20
10.112
 11
0.62
 21
10.112
  0
LINE
  5
49D
100
AcDbEntity
  8
0
100
AcDbLine
 62
2
  6
CONTINUOUS
 10
8.586603
 20
10.262
 11
8.413397
 21
10.262
  0
LINE
  5
49E
100
AcDbEntity
  8
0
100
AcDbLine
 62
2
  6
CONTINUOUS
 10
14.205
 20
1.137
 11
14.205
 21
0.887
  0
LINE
  5
49F
100
AcDbEntity
  8
0
100
AcDbLine
 62
2
  6
CONTINUOUS
 10
14.41
 20
0.887
 11
14.41
 21
0.637
  0
LINE
  5
4A0
100
AcDbEntity
  8
0
100
AcDbLine
 62
2
  6
CONTINUOUS
 10
14.41
 20
10.112
 11
14.41
 21
10.362
  0
LINE
  5
4A1
100
AcDbEntity
  8
0
100
AcDbLine
 62
2
  6
CONTINUOUS
 10
15.58
 20
1.507
 11
15.58
 21
1.137
  0
LINE
  5
4A2
100
AcDbEntity
  8
0
100
AcDbLine
 62
2
  6
CONTINUOUS
 10
16.38
 20
0.887
 11
16.38
 21
10.112
  0
LINE
  5
4A3
100
AcDbEntity
  8
0
100
AcDbLine
 62
2
  6
CONTINUOUS
 10
16.53
 20
5.412897
 11
16.53
 21
5.586103
  0
LWPOLYLINE
  5
4A4
100
AcDbEntity
  8
0
100
AcDbPolyline
 62
7
  6
CONTINUOUS
 90
8
 70
0
 10
14.1002190312
 20
9.0571075566
 10
14.0445845675
 20
9.015902744
 10
13.9973698763
 20
8.9609362359
 10
13.960317926
 20
8.8930787206
 10
13.9346054833
 20
8.8130990164
 10
13.9213766595
 20
8.723369511
 10
13.9209005726
 20
8.6264414699
 10
13.9329220134
 20
8.5245172709
  0
LINE
  5
4A5
100
AcDbEntity
  8
0
100
AcDbLine
 62
7
  6
CONTINUOUS
 10
14.3773646866
 20
9.2188399045
 11
14.3571409883
 21
9.2054406323
  0
LINE
  5
4A6
100
AcDbEntity
  8
0
100
AcDbLine
 62
7
  6
CONTINUOUS
 10
14.4339291496
 20
9.2515060814
 11
14.3773608426
 21
9.2188465491
  0
LINE
  5
4A7
100
AcDbEntity
  8
0
100
AcDbLine
 62
7
  6
CONTINUOUS
 10
14.3689184894
 20
9.2122403351
 11
14.1002190312
 21
9.0571075566
  0
LWPOLYLINE
  5
4A8
100
AcDbEntity
  8
0
100
AcDbPolyline
 62
7
  6
CONTINUOUS
 90
23
 70
0
 10
14.3689102767
 20
9.2122352658
 10
14.4263489253
 20
9.2368871166
 10
14.4935626094
 20
9.2485351246
 10
14.5663537988
 20
9.2452956943
 10
14.6432138089
 20
9.2272359668
 10
14.7225496236
 20
9.1947302517
 10
14.8027169133
 20
9.1484522689
 10
14.8820541143
 20
9.0893611857
 10
14.9589168691
 20
9.0186817346
 10
15.031712102
 20
8.9378788355
 10
15.0989310533
 20
8.8486272143
 10
15.1591805063
 20
8.7527767532
 10
15.2112117762
 20
8.6523139645
 10
15.2539463291
 20
8.5493213335
 10
15.2864986658
 20
8.4459328788
 10
15.3081937873
 20
8.3442925722
 10
15.3185823105
 20
8.2465060446
 10
15.3174485921
 20
8.1545970689
 10
15.3048148932
 20
8.0704715751
 10
15.2809432242
 20
7.9958774515
 10
15.2463278267
 20
7.9323593173
 10
15.2016884833
 20
7.8812366954
 10
15.1563953523
 20
7.8482397328
  0
LWPOLYLINE
  5
4A9
100
AcDbEntity
  8
0
100
AcDbPolyline
 62
7
  6
CONTINUOUS
 90
10
 70
0
 10
13.7900795005
 20
8.2707313815
 10
13.7891884198
 20
8.2521129911
 10
13.7917837092
 20
8.2035988923
 10
13.8011082417
 20
8.1522355007
 10
13.8165439394
 20
8.1005258424
 10
13.8375887898
 20
8.0493216822
 10
13.8635957789
 20
7.9998593927
 10
13.893807703
 20
7.9533393047
 10
13.9256822166
 20
7.9128192985
 10
13.9569976159
 20
7.8795159722
  0
LINE
  5
4AA
100
AcDbEntity
  8
0
100
AcDbLine
 62
7
  6
CONTINUOUS
 10
13.8179741984
 20
8.2346745042
 11
13.8212614296
 21
8.2761626153
  0
LINE
  5
4AB
100
AcDbEntity
  8
0
100
AcDbLine
 62
7
  6
CONTINUOUS
 10
13.7933632765
 20
8.2964464358
 11
13.7900795005
 21
8.2707313815
  0
LINE
  5
4AC
100
AcDbEntity
  8
0
100
AcDbLine
 62
7
  6
CONTINUOUS
 10
13.8212614296
 20
8.2761626153
 11
13.8310232423
 21
8.3125944494
  0
LWPOLYLINE
  5
4AD
100
AcDbEntity
  8
0
100
AcDbPolyline
 62
7
  6
CONTINUOUS
 90
3
 70
0
 10
13.8310232423
 20
8.3125944494
 10
13.8469630288
 20
8.3428630436
 10
13.8685964667
 20
8.3660487021
  0
LWPOLYLINE
  5
4AE
100
AcDbEntity
  8
0
100
AcDbPolyline
 62
7
  6
CONTINUOUS
 90
3
 70
0
 10
13.8808336148
 20
8.428413469
 10
13.8814362608
 20
8.4290297203
 10
13.894802699
 20
8.4379491497
  0
LINE
  5
4AF
100
AcDbEntity
  8
AXIS_COSMETIC_THREADS
100
AcDbLine
 62
7
  6
CONTINUOUS
 10
13.8328235026
 20
8.1433109619
 11
13.8328235026
 21
8.3088919349
  0
LINE
  5
4B0
100
AcDbEntity
  8
0
100
AcDbLine
 62
7
  6
CONTINUOUS
 10
14.1652729176
 20
8.5923140078
 11
14.1776349037
 21
8.6012414212
  0
LINE
  5
4B1
100
AcDbEntity
  8
0
100
AcDbLine
 62
7
  6
CONTINUOUS
 10
14.2342368308
 20
8.633920371
 11
14.223369469
 21
8.6261730052
  0
LWPOLYLINE
  5
4B2
100
AcDbEntity
  8
0
100
AcDbPolyline
 62
7
  6
CONTINUOUS
 90
6
 70
0
 10
13.8665428655
 20
8.4216334283
 10
13.8481755816
 20
8.4086927926
 10
13.8228958099
 20
8.3801849502
 10
13.8043883581
 20
8.34346714
 10
13.7932013711
 20
8.2996595206
 10
13.7906395367
 20
8.2778549275
  0
LINE
  5
4B3
100
AcDbEntity
  8
0
100
AcDbLine
 62
7
  6
CONTINUOUS
 10
14.1371863064
 20
8.5765624926
 11
14.1493460602
 21
8.5849089451
  0
LINE
  5
4B4
100
AcDbEntity
  8
0
100
AcDbLine
 62
7
  6
CONTINUOUS
 10
14.1937571269
 20
8.6092239191
 11
14.205912629
 21
8.6175674731
  0
LINE
  5
4B5
100
AcDbEntity
  8
0
100
AcDbLine
 62
7
  6
CONTINUOUS
 10
14.1088096259
 20
8.5601797363
 11
14.1210650031
 21
8.5685809681
  0
LINE
  5
4B6
100
AcDbEntity
  8
0
100
AcDbLine
 62
7
  6
CONTINUOUS
 10
14.0802008286
 20
8.543663459
 11
14.0927935568
 21
8.5522585429
  0
LINE
  5
4B7
100
AcDbEntity
  8
0
100
AcDbLine
 62
7
  6
CONTINUOUS
 10
14.0517036016
 20
8.5272126447
 11
14.0645171387
 21
8.5359332446
  0
LINE
  5
4B8
100
AcDbEntity
  8
0
100
AcDbLine
 62
7
  6
CONTINUOUS
 10
13.9383192775
 20
8.4617655736
 11
13.9513898687
 21
8.4706195759
  0
LINE
  5
4B9
100
AcDbEntity
  8
0
100
AcDbLine
 62
7
  6
CONTINUOUS
 10
14.02307291
 20
8.5106883781
 11
14.0362452884
 21
8.519610583
  0
LINE
  5
4BA
100
AcDbEntity
  8
0
100
AcDbLine
 62
7
  6
CONTINUOUS
 10
13.9099806795
 20
8.4454025664
 11
13.9230941467
 21
8.454283129
  0
LINE
  5
4BB
100
AcDbEntity
  8
0
100
AcDbLine
 62
7
  6
CONTINUOUS
 10
13.966495899
 20
8.4780294078
 11
13.9796828839
 21
8.4869544584
  0
LINE
  5
4BC
100
AcDbEntity
  8
0
100
AcDbLine
 62
7
  6
CONTINUOUS
 10
13.9947607081
 20
8.4943457753
 11
14.0079677908
 21
8.5032846595
  0
LINE
  5
4BD
100
AcDbEntity
  8
0
100
AcDbLine
 62
7
  6
CONTINUOUS
 10
14.1776349037
 20
8.6012414212
 11
14.1882229876
 21
8.6066994712
  0
LINE
  5
4BE
100
AcDbEntity
  8
0
100
AcDbLine
 62
7
  6
CONTINUOUS
 10
14.2453855722
 20
8.6396283607
 11
14.2342368308
 21
8.633920371
  0
LINE
  5
4BF
100
AcDbEntity
  8
0
100
AcDbLine
 62
7
  6
CONTINUOUS
 10
14.205912629
 20
8.6175674731
 11
14.2216938525
 21
8.6252569934
  0
LINE
  5
4C0
100
AcDbEntity
  8
0
100
AcDbLine
 62
7
  6
CONTINUOUS
 10
14.1493460602
 20
8.5849089451
 11
14.1651342296
 21
8.5926009624
  0
LWPOLYLINE
  5
4C1
100
AcDbEntity
  8
0
100
AcDbPolyline
 62
7
  6
CONTINUOUS
 90
6
 70
0
 10
14.2356509956
 20
8.6347368345
 10
14.2521425294
 20
8.6427030213
 10
14.2886721697
 20
8.6514202404
 10
14.3290033636
 20
8.6503354448
 10
14.3719342925
 20
8.6394964642
 10
14.3981187152
 20
8.6285811012
  0
LWPOLYLINE
  5
4C2
100
AcDbEntity
  8
AXIS_COSMETIC_THREADS
100
AcDbPolyline
 62
7
  6
CONTINUOUS
 90
10
 70
0
 10
13.8328235026
 20
8.1433109619
 10
13.8444598041
 20
8.1056857499
 10
13.8596314731
 20
8.0681362586
 10
13.8780560439
 20
8.0313615839
 10
13.8993904881
 20
7.9960463957
 10
13.9232376015
 20
7.9628481916
 10
13.949153399
 20
7.932385055
 10
13.976655381
 20
7.9052241481
 10
14.005231516
 20
7.8818711519
 10
14.0343497743
 20
7.8627608522
  0
LWPOLYLINE
  5
4C3
100
AcDbEntity
  8
0
100
AcDbPolyline
 62
7
  6
CONTINUOUS
 90
3
 70
0
 10
13.8310232423
 20
8.1416871619
 10
13.8212614296
 20
8.1893907114
 10
13.8179741984
 20
8.2346745042
  0
LINE
  5
4C4
100
AcDbEntity
  8
0
100
AcDbLine
 62
7
  6
CONTINUOUS
 10
13.8685964667
 20
8.3660487021
 11
13.8813537816
 21
8.3747512556
  0
LWPOLYLINE
  5
4C5
100
AcDbEntity
  8
AXIS_COSMETIC_THREADS
100
AcDbPolyline
 62
7
  6
CONTINUOUS
 90
5
 70
0
 10
13.8830951014
 20
8.3717212346
 10
13.8780560439
 20
8.3686124547
 10
13.8596314731
 20
8.3531121604
 10
13.8444598041
 20
8.3330810073
 10
13.8328235026
 20
8.3088919349
  0
LINE
  5
4C6
100
AcDbEntity
  8
AXIS_COSMETIC_THREADS
100
AcDbLine
 62
7
  6
CONTINUOUS
 10
13.9030580661
 20
8.3832483744
 11
13.8831004514
 21
8.3717259089
  0
LINE
  5
4C7
100
AcDbEntity
  8
0
100
AcDbLine
 62
7
  6
CONTINUOUS
 10
13.8794732193
 20
8.4281267794
 11
13.8665428655
 21
8.4216334283
  0
LINE
  5
4C8
100
AcDbEntity
  8
0
100
AcDbLine
 62
7
  6
CONTINUOUS
 10
14.1210650031
 20
8.5685809681
 11
14.1369520661
 21
8.5763122619
  0
LINE
  5
4C9
100
AcDbEntity
  8
0
100
AcDbLine
 62
7
  6
CONTINUOUS
 10
14.0927935568
 20
8.5522585429
 11
14.1090457433
 21
8.5601337312
  0
LINE
  5
4CA
100
AcDbEntity
  8
0
100
AcDbLine
 62
7
  6
CONTINUOUS
 10
14.0645171387
 20
8.5359332446
 11
14.0810020507
 21
8.5438994827
  0
LINE
  5
4CB
100
AcDbEntity
  8
0
100
AcDbLine
 62
7
  6
CONTINUOUS
 10
13.9513898687
 20
8.4706195759
 11
13.9679811966
 21
8.4786261985
  0
LINE
  5
4CC
100
AcDbEntity
  8
0
100
AcDbLine
 62
7
  6
CONTINUOUS
 10
13.9230941467
 20
8.454283129
 11
13.9397903364
 21
8.4623332322
  0
LINE
  5
4CD
100
AcDbEntity
  8
0
100
AcDbLine
 62
7
  6
CONTINUOUS
 10
13.9796828839
 20
8.4869544584
 11
13.9964617379
 21
8.4950333314
  0
LWPOLYLINE
  5
4CE
100
AcDbEntity
  8
0
100
AcDbPolyline
 62
7
  6
CONTINUOUS
 90
15
 70
0
 10
13.8813537816
 20
8.3747512556
 10
13.895266235
 20
8.3814469403
 10
13.9261619863
 20
8.3885898905
 10
13.9603449688
 20
8.3872605178
 10
13.9967765498
 20
8.3774992145
 10
14.0343497743
 20
8.359602573
 10
14.0719229987
 20
8.3341143735
 10
14.1083545797
 20
8.3018090622
 10
14.1425375622
 20
8.2636682196
 10
14.1734333135
 20
8.2208507358
 10
14.2001030818
 20
8.1746575985
 10
14.2217365197
 20
8.1264923627
 10
14.2376763062
 20
8.0778185048
 10
14.247438119
 20
8.0301149553
 10
14.2507253502
 20
7.9848311625
  0
LINE
  5
4CF
100
AcDbEntity
  8
0
100
AcDbLine
 62
7
  6
CONTINUOUS
 10
14.0362452884
 20
8.519610583
 11
14.0530944043
 21
8.5277181359
  0
LINE
  5
4D0
100
AcDbEntity
  8
0
100
AcDbLine
 62
7
  6
CONTINUOUS
 10
14.0079677908
 20
8.5032846595
 11
14.0248027678
 21
8.5113854334
  0
LINE
  5
4D1
100
AcDbEntity
  8
0
100
AcDbLine
 62
7
  6
CONTINUOUS
 10
13.894802699
 20
8.4379491497
 11
13.9136596601
 21
8.4468294261
  0
LINE
  5
4D2
100
AcDbEntity
  8
0
100
AcDbLine
 62
7
  6
CONTINUOUS
 10
13.8679570813
 20
8.4224499213
 11
13.8882766092
 21
8.4318605654
  0
LINE
  5
4D3
100
AcDbEntity
  8
0
100
AcDbLine
 62
7
  6
CONTINUOUS
 10
14.1882229876
 20
8.6066994712
 11
14.2249076262
 21
8.6172542611
  0
LINE
  5
4D4
100
AcDbEntity
  8
0
100
AcDbLine
 62
7
  6
CONTINUOUS
 10
14.1980376804
 20
8.6017409833
 11
14.1790619974
 21
8.5962813589
  0
LINE
  5
4D5
100
AcDbEntity
  8
0
100
AcDbLine
 62
7
  6
CONTINUOUS
 10
14.280945564
 20
8.6498386807
 11
14.2453855722
 21
8.6396283607
  0
LWPOLYLINE
  5
4D6
100
AcDbEntity
  8
0
100
AcDbPolyline
 62
7
  6
CONTINUOUS
 90
3
 70
0
 10
13.9569976159
 20
7.8795159722
 10
13.9951863251
 20
7.8468810425
 10
14.0343497743
 20
7.8207109777
  0
LINE
  5
4D7
100
AcDbEntity
  8
0
100
AcDbLine
 62
7
  6
CONTINUOUS
 10
14.3954029654
 20
7.445756864
 11
14.4217553922
 21
7.4117356382
  0
LWPOLYLINE
  5
4D8
100
AcDbEntity
  8
0
100
AcDbPolyline
 62
7
  6
CONTINUOUS
 90
5
 70
0
 10
14.3954029654
 20
7.445756864
 10
14.3884216719
 20
7.4555969209
 10
14.3767643357
 20
7.4785177624
 10
14.3708756431
 20
7.5021631201
 10
14.3701366702
 20
7.5141080767
  0
LINE
  5
4D9
100
AcDbEntity
  8
0
100
AcDbLine
 62
7
  6
CONTINUOUS
 10
13.9329220134
 20
8.5245172709
 11
13.9460919116
 21
8.4670307463
  0
LINE
  5
4DA
100
AcDbEntity
  8
0
100
AcDbLine
 62
9
  6
CONTINUOUS
 10
13.9423515438
 20
8.5600812079
 11
13.9570619165
 21
8.4734870269
  0
LWPOLYLINE
  5
4DB
100
AcDbEntity
  8
0
100
AcDbPolyline
 62
7
  6
CONTINUOUS
 90
6
 70
0
 10
14.0343497743
 20
7.8207109777
 10
14.0768375624
 20
7.8011955224
 10
14.1178538943
 20
7.7907735785
 10
14.1560948463
 20
7.789688794
 10
14.1907919908
 20
7.7979510646
 10
14.2206434029
 20
7.8152467591
  0
LWPOLYLINE
  5
4DC
100
AcDbEntity
  8
0
100
AcDbPolyline
 62
7
  6
CONTINUOUS
 90
8
 70
0
 10
14.0343497743
 20
7.8599030937
 10
13.9967765498
 20
7.8853912932
 10
13.9603449688
 20
7.9176966045
 10
13.9261619863
 20
7.9558374471
 10
13.895266235
 20
7.9986549309
 10
13.8685964667
 20
8.0448480682
 10
13.8469630288
 20
8.093013304
 10
13.8310232423
 20
8.1416871619
  0
LWPOLYLINE
  5
4DD
100
AcDbEntity
  8
0
100
AcDbPolyline
 62
7
  6
CONTINUOUS
 90
13
 70
0
 10
14.3679657628
 20
7.531402272
 10
14.3804296695
 20
7.5008075953
 10
14.4024186626
 20
7.472056101
 10
14.4331839334
 20
7.4461268868
 10
14.4716778074
 20
7.423902941
 10
14.516589422
 20
7.4061410735
 10
14.566389366
 20
7.3934461433
 10
14.6193817619
 20
7.386250461
 10
14.6737620174
 20
7.3847990671
 10
14.727678278
 20
7.3891413868
 10
14.7792944902
 20
7.3991295479
 10
14.8268529257
 20
7.4144234154
 10
14.8687340391
 20
7.4345021749
  0
LWPOLYLINE
  5
4DE
100
AcDbEntity
  8
0
100
AcDbPolyline
 62
7
  6
CONTINUOUS
 90
10
 70
0
 10
14.3044655244
 20
7.9766664426
 10
14.2998094464
 20
8.0290309199
 10
14.2875443894
 20
8.0842266932
 10
14.268024926
 20
8.1405343862
 10
14.2418289091
 20
8.1962026734
 10
14.2097390355
 20
8.2495009485
 10
14.1727220054
 20
8.2987676054
 10
14.1318983133
 20
8.3424648687
 10
14.0885047581
 20
8.3792296642
 10
14.0438543518
 20
8.4079151331
  0
LWPOLYLINE
  5
4DF
100
AcDbEntity
  8
0
100
AcDbPolyline
 62
7
  6
CONTINUOUS
 90
4
 70
0
 10
14.3058797321
 20
7.9774829309
 10
14.3040366723
 20
8.0082194168
 10
14.2994676747
 20
8.0401876031
 10
14.2922141461
 20
8.0730584646
  0
LINE
  5
4E0
100
AcDbEntity
  8
AXIS_COSMETIC_THREADS
100
AcDbLine
 62
7
  6
CONTINUOUS
 10
14.2358760459
 20
8.0761947048
 11
14.2358760459
 21
7.9106137318
  0
LINE
  5
4E1
100
AcDbEntity
  8
0
100
AcDbLine
 62
7
  6
CONTINUOUS
 10
14.2818300814
 20
7.9869255547
 11
14.2805497558
 21
7.9397921442
  0
LINE
  5
4E2
100
AcDbEntity
  8
0
100
AcDbLine
 62
7
  6
CONTINUOUS
 10
14.3050024277
 20
7.9486163203
 11
14.3058797321
 21
7.9774829309
  0
LWPOLYLINE
  5
4E3
100
AcDbEntity
  8
0
100
AcDbPolyline
 62
7
  6
CONTINUOUS
 90
9
 70
0
 10
14.277339713
 20
7.9401569889
 10
14.2782453853
 20
7.9600049881
 10
14.2752302856
 20
8.0102856261
 10
14.2651980997
 20
8.0626402228
 10
14.2492117496
 20
8.1141132116
 10
14.2287987477
 20
8.1624675943
 10
14.2059505474
 20
8.2055957849
 10
14.1824926932
 20
8.2425223721
 10
14.1595980081
 20
8.2734483217
  0
LWPOLYLINE
  5
4E4
100
AcDbEntity
  8
0
100
AcDbPolyline
 62
7
  6
CONTINUOUS
 90
4
 70
0
 10
14.3044655244
 20
7.9766664426
 10
14.3014440456
 20
7.9290958203
 10
14.2907553478
 20
7.8869308771
 10
14.2728319095
 20
7.8522111079
  0
LWPOLYLINE
  5
4E5
100
AcDbEntity
  8
0
100
AcDbPolyline
 62
7
  6
CONTINUOUS
 90
5
 70
0
 10
14.2507253502
 20
7.9848311625
 10
14.247438119
 20
7.9433430514
 10
14.2376763062
 20
7.9069112173
 10
14.2217365197
 20
7.8766426231
 10
14.2001030818
 20
7.8534569646
  0
LWPOLYLINE
  5
4E6
100
AcDbEntity
  8
0
100
AcDbPolyline
 62
7
  6
CONTINUOUS
 90
3
 70
0
 10
14.2805497558
 20
7.9397921442
 10
14.2718736208
 20
7.8981098307
 10
14.2655221725
 20
7.8840523505
  0
LWPOLYLINE
  5
4E7
100
AcDbEntity
  8
0
100
AcDbPolyline
 62
7
  6
CONTINUOUS
 90
6
 70
0
 10
14.5861960979
 20
7.6740253595
 10
14.6195005331
 20
7.6644696738
 10
14.6943387924
 20
7.6521344325
 10
14.7647289227
 20
7.6532591212
 10
14.829389087
 20
7.6671724756
 10
14.8877155057
 20
7.6931155102
  0
LINE
  5
4E8
100
AcDbEntity
  8
0
100
AcDbLine
 62
7
  6
CONTINUOUS
 10
14.5861409761
 20
7.6740431687
 11
14.5861948967
 21
7.6740257474
  0
LWPOLYLINE
  5
4E9
100
AcDbEntity
  8
0
100
AcDbPolyline
 62
9
  6
CONTINUOUS
 90
13
 70
0
 10
14.4515410382
 20
7.7566113757
 10
14.5186866255
 20
7.7229275293
 10
14.5846833332
 20
7.6999836217
 10
14.6484019393
 20
7.6881722297
 10
14.7087522007
 20
7.6876954494
 10
14.7647015079
 20
7.6985614386
 10
14.8152925526
 20
7.7205842773
 10
14.8596597081
 20
7.7533871485
 10
14.89704384
 20
7.7964087862
 10
14.9268052954
 20
7.848913078
 10
14.9484348476
 20
7.910001661
 10
14.961562409
 20
7.9786292927
 10
14.9659633633
 20
8.0536217352
  0
LWPOLYLINE
  5
4EA
100
AcDbEntity
  8
0
100
AcDbPolyline
 62
9
  6
CONTINUOUS
 90
4
 70
0
 10
14.3671490591
 20
7.794852218
 10
14.3893894071
 20
7.780161835
 10
14.4175381531
 20
7.7670901857
 10
14.4515410382
 20
7.7566113757
  0
LINE
  5
4EB
100
AcDbEntity
  8
0
100
AcDbLine
 62
7
  6
CONTINUOUS
 10
14.367098051
 20
7.794892103
 11
14.3671490591
 21
7.794852218
  0
LWPOLYLINE
  5
4EC
100
AcDbEntity
  8
0
100
AcDbPolyline
 62
9
  6
CONTINUOUS
 90
5
 70
0
 10
14.4515410382
 20
7.7566113757
 10
14.4881388351
 20
7.726329785
 10
14.5235210228
 20
7.7027226624
 10
14.5568118433
 20
7.6853923999
 10
14.5861409761
 20
7.6740431687
  0
LWPOLYLINE
  5
4ED
100
AcDbEntity
  8
0
100
AcDbPolyline
 62
9
  6
CONTINUOUS
 90
3
 70
0
 10
14.3103440489
 20
7.8612545306
 10
14.378322912
 20
7.8049304047
 10
14.4515410382
 20
7.7566113757
  0
LWPOLYLINE
  5
4EE
100
AcDbEntity
  8
0
100
AcDbPolyline
 62
7
  6
CONTINUOUS
 90
3
 70
0
 10
14.2985058903
 20
7.8541129564
 10
14.300925771
 20
7.8516160938
 10
14.3670963773
 20
7.7948934125
  0
LINE
  5
4EF
100
AcDbEntity
  8
0
100
AcDbLine
 62
7
  6
CONTINUOUS
 10
14.3671497445
 20
7.7948516647
 11
14.3674677265
 21
7.7945015573
  0
LWPOLYLINE
  5
4F0
100
AcDbEntity
  8
0
100
AcDbPolyline
 62
9
  6
CONTINUOUS
 90
8
 70
0
 10
14.4515410382
 20
7.7566113757
 10
14.4836134105
 20
7.7179386082
 10
14.5175065856
 20
7.6872459313
 10
14.5516536293
 20
7.6647157984
 10
14.5850620501
 20
7.649780593
 10
14.6173025168
 20
7.6416678087
 10
14.6483607153
 20
7.6398014231
 10
14.6784019557
 20
7.6440638474
  0
LWPOLYLINE
  5
4F1
100
AcDbEntity
  8
0
100
AcDbPolyline
 62
7
  6
CONTINUOUS
 90
4
 70
0
 10
14.2937938397
 20
8.0818336967
 10
14.3041062062
 20
8.0288614125
 10
14.306919616
 20
7.9790315916
 10
14.3061049894
 20
7.9625210996
  0
LWPOLYLINE
  5
4F2
100
AcDbEntity
  8
0
100
AcDbPolyline
 62
7
  6
CONTINUOUS
 90
3
 70
0
 10
14.2973293589
 20
8.0838749175
 10
14.3076417254
 20
8.0309026332
 10
14.3104551352
 20
7.9810728123
  0
LINE
  5
4F3
100
AcDbEntity
  8
0
100
AcDbLine
 62
7
  6
CONTINUOUS
 10
14.3651411908
 20
7.5549500286
 11
14.3679657628
 21
7.531402272
  0
LWPOLYLINE
  5
4F4
100
AcDbEntity
  8
0
100
AcDbPolyline
 62
7
  6
CONTINUOUS
 90
11
 70
0
 10
14.3341638856
 20
7.993812697
 10
14.3296465665
 20
8.0452885014
 10
14.317766629
 20
8.0995212522
 10
14.2987444863
 20
8.1551616921
 10
14.2732659343
 20
8.2100739078
 10
14.2415543273
 20
8.2634835234
 10
14.2046322359
 20
8.3132555554
 10
14.1641901969
 20
8.3571151332
 10
14.1216409213
 20
8.3937925571
 10
14.0771683534
 20
8.4230704813
 10
14.0587088734
 20
8.4326239074
  0
LWPOLYLINE
  5
4F5
100
AcDbEntity
  8
0
100
AcDbPolyline
 62
7
  6
CONTINUOUS
 90
11
 70
0
 10
14.3624480391
 20
8.0101424632
 10
14.3579443479
 20
8.0615303107
 10
14.3460244394
 20
8.115944776
 10
14.3269182632
 20
8.1717653832
 10
14.3014062299
 20
8.2266764877
 10
14.2697066522
 20
8.2800115578
 10
14.2328474644
 20
8.3296686529
 10
14.192519283
 20
8.3734013427
 10
14.1497936318
 20
8.4102221045
 10
14.105082289
 20
8.4396067777
 10
14.0869930269
 20
8.4489536735
  0
LWPOLYLINE
  5
4F6
100
AcDbEntity
  8
0
100
AcDbPolyline
 62
7
  6
CONTINUOUS
 90
11
 70
0
 10
14.3907321925
 20
8.0264722293
 10
14.3862187342
 20
8.0779231285
 10
14.3741716281
 20
8.132760901
 10
14.3549144515
 20
8.1888078881
 10
14.3293016628
 20
8.2437417566
 10
14.2976118947
 20
8.2969102663
 10
14.2609298926
 20
8.3462421243
 10
14.2208986953
 20
8.3896387315
 10
14.1781549035
 20
8.4264933383
 10
14.133421128
 20
8.4559060753
 10
14.1152771804
 20
8.4652834397
  0
LINE
  5
4F7
100
AcDbEntity
  8
0
100
AcDbLine
 62
7
  6
CONTINUOUS
 10
14.3651366702
 20
7.5549331975
 11
14.3651366702
 21
7.7965733101
  0
LINE
  5
4F8
100
AcDbEntity
  8
0
100
AcDbLine
 62
7
  6
CONTINUOUS
 10
14.3701366702
 20
7.5260734283
 11
14.3701366702
 21
7.5141080767
  0
LINE
  5
4F9
100
AcDbEntity
  8
0
100
AcDbLine
 62
7
  6
CONTINUOUS
 10
14.3332865812
 20
7.9649460865
 11
14.3341638856
 21
7.993812697
  0
LINE
  5
4FA
100
AcDbEntity
  8
0
100
AcDbLine
 62
7
  6
CONTINUOUS
 10
14.3615707347
 20
7.9812758527
 11
14.3624480391
 21
8.0101424632
  0
LINE
  5
4FB
100
AcDbEntity
  8
0
100
AcDbLine
 62
7
  6
CONTINUOUS
 10
14.3898548882
 20
7.9976056188
 11
14.3907321925
 21
8.0264722293
  0
LINE
  5
4FC
100
AcDbEntity
  8
0
100
AcDbLine
 62
7
  6
CONTINUOUS
 10
14.338674237
 20
8.0125383539
 11
14.3362807833
 21
7.9657982317
  0
LWPOLYLINE
  5
4FD
100
AcDbEntity
  8
0
100
AcDbPolyline
 62
7
  6
CONTINUOUS
 90
4
 70
0
 10
14.3610338314
 20
8.0093259749
 10
14.358015842
 20
7.9617783529
 10
14.3473383354
 20
7.9196298093
 10
14.3294322192
 20
7.8849166204
  0
LWPOLYLINE
  5
4FE
100
AcDbEntity
  8
0
100
AcDbPolyline
 62
7
  6
CONTINUOUS
 90
4
 70
0
 10
14.3327496779
 20
7.9929962087
 10
14.3297276939
 20
7.9454222576
 10
14.3190373795
 20
7.9032549513
 10
14.3011112034
 20
7.8685338957
  0
LWPOLYLINE
  5
4FF
100
AcDbEntity
  8
0
100
AcDbPolyline
 62
7
  6
CONTINUOUS
 90
3
 70
0
 10
14.3893179849
 20
8.025655741
 10
14.3862973372
 20
7.9780905961
 10
14.3756113152
 20
7.9359295851
  0
LWPOLYLINE
  5
500
100
AcDbEntity
  8
0
100
AcDbPolyline
 62
7
  6
CONTINUOUS
 90
3
 70
0
 10
14.3104551352
 20
7.9810728123
 10
14.3057060436
 20
7.9359734817
 10
14.2986877233
 20
7.9134605663
  0
LWPOLYLINE
  5
501
100
AcDbEntity
  8
0
100
AcDbPolyline
 62
7
  6
CONTINUOUS
 90
3
 70
0
 10
14.395231713
 20
8.0270890362
 10
14.3900133202
 20
7.9823349334
 10
14.3841248411
 20
7.9643230623
  0
LWPOLYLINE
  5
502
100
AcDbEntity
  8
0
100
AcDbPolyline
 62
7
  6
CONTINUOUS
 90
3
 70
0
 10
14.3661245379
 20
7.9961847149
 10
14.3585719625
 20
7.953239751
 10
14.3545863654
 20
7.9434773621
  0
LWPOLYLINE
  5
503
100
AcDbEntity
  8
0
100
AcDbPolyline
 62
7
  6
CONTINUOUS
 90
3
 70
0
 10
14.3362807833
 20
7.9657982317
 10
14.3264198457
 20
7.9247965765
 10
14.3249767504
 20
7.9219129001
  0
LWPOLYLINE
  5
504
100
AcDbEntity
  8
AXIS_COSMETIC_THREADS
100
AcDbPolyline
 62
7
  6
CONTINUOUS
 90
5
 70
0
 10
14.2358760459
 20
7.9106137318
 10
14.2242397444
 20
7.8864246594
 10
14.2090680754
 20
7.8663935063
 10
14.1906435047
 20
7.850893212
 10
14.1856044471
 20
7.8477844321
  0
LWPOLYLINE
  5
505
100
AcDbEntity
  8
0
100
AcDbPolyline
 62
7
  6
CONTINUOUS
 90
4
 70
0
 10
14.2742412576
 20
7.8530206178
 10
14.2921674337
 20
7.8877416735
 10
14.302857748
 20
7.9299089797
 10
14.3050024277
 20
7.9486163203
  0
LWPOLYLINE
  5
506
100
AcDbEntity
  8
0
100
AcDbPolyline
 62
7
  6
CONTINUOUS
 90
4
 70
0
 10
14.2448125686
 20
7.8409128664
 10
14.2627404698
 20
7.8741654841
 10
14.2740154221
 20
7.9142394819
 10
14.277339713
 20
7.9401569889
  0
LINE
  5
507
100
AcDbEntity
  8
AXIS_COSMETIC_THREADS
100
AcDbLine
 62
7
  6
CONTINUOUS
 10
14.2377832636
 20
8.0772958309
 11
14.2358760459
 21
8.0761947048
  0
LWPOLYLINE
  5
508
100
AcDbEntity
  8
AXIS_COSMETIC_THREADS
100
AcDbPolyline
 62
7
  6
CONTINUOUS
 90
4
 70
0
 10
14.1195461495
 20
7.8340109802
 10
14.0920441675
 20
7.8386059082
 10
14.0634680325
 20
7.8482490441
 10
14.0343497743
 20
7.8627608522
  0
LWPOLYLINE
  5
509
100
AcDbEntity
  8
0
100
AcDbPolyline
 62
7
  6
CONTINUOUS
 90
8
 70
0
 10
14.1595980081
 20
8.2734483217
 10
14.1940123736
 20
8.2257486801
 10
14.2235873286
 20
8.1745296032
 10
14.2474459727
 20
8.1213650744
 10
14.2648855257
 20
8.0678883357
 10
14.2753987353
 20
8.0157421394
 10
14.2786893274
 20
7.966528709
 10
14.2778208359
 20
7.9461913334
  0
LWPOLYLINE
  5
50A
100
AcDbEntity
  8
0
100
AcDbPolyline
 62
7
  6
CONTINUOUS
 90
4
 70
0
 10
14.3190840919
 20
8.0885717425
 10
14.3263376205
 20
8.0557008809
 10
14.3309066181
 20
8.0237326947
 10
14.3327496779
 20
7.9929962087
  0
LWPOLYLINE
  5
50B
100
AcDbEntity
  8
0
100
AcDbPolyline
 62
9
  6
CONTINUOUS
 90
7
 70
0
 10
14.3666625966
 20
7.7952652575
 10
14.3682633636
 20
7.7854473782
 10
14.3748500692
 20
7.7711437911
 10
14.3858085196
 20
7.7604643511
 10
14.4019099373
 20
7.7539841775
 10
14.4237813361
 20
7.752481891
 10
14.4515410382
 20
7.7566113757
  0
LWPOLYLINE
  5
50C
100
AcDbEntity
  8
0
100
AcDbPolyline
 62
7
  6
CONTINUOUS
 90
11
 70
0
 10
14.4473004995
 20
8.0591317617
 10
14.4427117853
 20
8.1110663658
 10
14.4304473863
 20
8.1664530922
 10
14.4109641224
 20
8.2227441924
 10
14.3852274277
 20
8.2776117433
 10
14.3536109324
 20
8.3304219736
 10
14.3172784297
 20
8.37916685
 10
14.2773533104
 20
8.422408511
 10
14.2346278969
 20
8.4592252092
 10
14.1899245764
 20
8.4886017427
 10
14.1718454873
 20
8.497942972
  0
LWPOLYLINE
  5
50D
100
AcDbEntity
  8
0
100
AcDbPolyline
 62
7
  6
CONTINUOUS
 90
11
 70
0
 10
14.475584653
 20
8.0754615278
 10
14.470990226
 20
8.1274327001
 10
14.4587098663
 20
8.1828590329
 10
14.4392021128
 20
8.2391871773
 10
14.4134442663
 20
8.2940679411
 10
14.3818972317
 20
8.3467485334
 10
14.3456636684
 20
8.3953746783
 10
14.3056207548
 20
8.4387544742
 10
14.2628621768
 20
8.4755928102
 10
14.2181272146
 20
8.5049768974
 10
14.2001296408
 20
8.5142727381
  0
LWPOLYLINE
  5
50E
100
AcDbEntity
  8
0
100
AcDbPolyline
 62
7
  6
CONTINUOUS
 90
11
 70
0
 10
14.5038688065
 20
8.091791294
 10
14.4992740672
 20
8.1437644649
 10
14.4869928309
 20
8.1991929761
 10
14.4674838021
 20
8.255522985
 10
14.4417307041
 20
8.310393418
 10
14.4102457915
 20
8.36298204
 10
14.3739978654
 20
8.4116440521
 10
14.3338980639
 20
8.4550908746
 10
14.2911360202
 20
8.4919303963
 10
14.246399161
 20
8.5213134581
 10
14.2284137943
 20
8.5306025043
  0
LWPOLYLINE
  5
50F
100
AcDbEntity
  8
0
100
AcDbPolyline
 62
7
  6
CONTINUOUS
 90
11
 70
0
 10
14.419016346
 20
8.0428019955
 10
14.4144806215
 20
8.0943963964
 10
14.4023471427
 20
8.149475123
 10
14.382996133
 20
8.2056371461
 10
14.3573276166
 20
8.2605587241
 10
14.3256557407
 20
8.3136001429
 10
14.289097507
 20
8.3627125571
 10
14.249162771
 20
8.4059879722
 10
14.2064182585
 20
8.4428388931
 10
14.1616876849
 20
8.472245647
 10
14.1435613338
 20
8.4816132058
  0
LINE
  5
510
100
AcDbEntity
  8
0
100
AcDbLine
 62
7
  6
CONTINUOUS
 10
14.4181390417
 20
8.013935385
 11
14.419016346
 21
8.0428019955
  0
LINE
  5
511
100
AcDbEntity
  8
0
100
AcDbLine
 62
7
  6
CONTINUOUS
 10
14.4464231952
 20
8.0302651511
 11
14.4473004995
 21
8.0591317617
  0
LINE
  5
512
100
AcDbEntity
  8
0
100
AcDbLine
 62
7
  6
CONTINUOUS
 10
14.4747073487
 20
8.0465949173
 11
14.475584653
 21
8.0754615278
  0
LINE
  5
513
100
AcDbEntity
  8
0
100
AcDbLine
 62
7
  6
CONTINUOUS
 10
14.5029915021
 20
8.0629246834
 11
14.5038688065
 21
8.091791294
  0
LWPOLYLINE
  5
514
100
AcDbEntity
  8
0
100
AcDbPolyline
 62
7
  6
CONTINUOUS
 90
3
 70
0
 10
14.4176021384
 20
8.0419855072
 10
14.4152348902
 20
7.9990129917
 10
14.4066584969
 20
7.9602246664
  0
LWPOLYLINE
  5
515
100
AcDbEntity
  8
0
100
AcDbPolyline
 62
7
  6
CONTINUOUS
 90
4
 70
0
 10
14.5024545988
 20
8.0909748057
 10
14.4996986019
 20
8.0451975666
 10
14.4898716846
 20
8.0043494685
 10
14.4732281063
 20
7.9700947146
  0
LINE
  5
516
100
AcDbEntity
  8
0
100
AcDbLine
 62
7
  6
CONTINUOUS
 10
14.4235989911
 20
8.0584656998
 11
14.4207333864
 21
8.0120422198
  0
LINE
  5
517
100
AcDbEntity
  8
0
100
AcDbLine
 62
7
  6
CONTINUOUS
 10
14.4741704453
 20
8.0746450395
 11
14.4711788204
 21
8.0272716703
  0
LWPOLYLINE
  5
518
100
AcDbEntity
  8
0
100
AcDbPolyline
 62
7
  6
CONTINUOUS
 90
4
 70
0
 10
14.4458862918
 20
8.0583152733
 10
14.4428671115
 20
8.0107597998
 10
14.4321858008
 20
7.9686056988
 10
14.4142733596
 20
7.9338896502
  0
LINE
  5
519
100
AcDbEntity
  8
0
100
AcDbLine
 62
7
  6
CONTINUOUS
 10
14.5084941009
 20
8.1044100654
 11
14.5051567986
 21
8.0583090259
  0
LINE
  5
51A
100
AcDbEntity
  8
0
100
AcDbLine
 62
7
  6
CONTINUOUS
 10
14.4728286561
 20
8.0296842887
 11
14.4747073487
 21
8.0465949173
  0
LINE
  5
51B
100
AcDbEntity
  8
0
100
AcDbLine
 62
7
  6
CONTINUOUS
 10
14.4799786876
 20
8.0731241585
 11
14.4742917381
 21
8.0287208753
  0
LWPOLYLINE
  5
51C
100
AcDbEntity
  8
0
100
AcDbPolyline
 62
7
  6
CONTINUOUS
 90
3
 70
0
 10
14.4507238582
 20
8.0423198144
 10
14.4427073151
 20
7.9997529649
 10
14.4392094663
 20
7.9915371259
  0
LINE
  5
51D
100
AcDbEntity
  8
0
100
AcDbLine
 62
7
  6
CONTINUOUS
 10
14.4630017388
 20
7.9888361906
 11
14.4728286561
 21
8.0296842887
  0
LWPOLYLINE
  5
51E
100
AcDbEntity
  8
0
100
AcDbPolyline
 62
7
  6
CONTINUOUS
 90
3
 70
0
 10
14.4711788204
 20
8.0272716703
 10
14.4605710628
 20
7.9852075166
 10
14.4427385357
 20
7.9504801829
  0
LWPOLYLINE
  5
51F
100
AcDbEntity
  8
0
100
AcDbPolyline
 62
7
  6
CONTINUOUS
 90
3
 70
0
 10
14.4207333864
 20
8.0120422198
 10
14.4104145044
 20
7.9714448052
 10
14.4095406409
 20
7.9697656607
  0
LWPOLYLINE
  5
520
100
AcDbEntity
  8
0
100
AcDbPolyline
 62
7
  6
CONTINUOUS
 90
3
 70
0
 10
14.5051567986
 20
8.0583090259
 10
14.4943813472
 20
8.0181209297
 10
14.4942029602
 20
8.0177911871
  0
LINE
  5
521
100
AcDbEntity
  8
0
100
AcDbLine
 62
7
  6
CONTINUOUS
 10
14.4742917381
 20
8.0287208753
 11
14.4685942933
 21
8.0120830757
  0
LINE
  5
522
100
AcDbEntity
  8
0
100
AcDbLine
 62
7
  6
CONTINUOUS
 10
14.4066584969
 20
7.9602246664
 11
14.3921117792
 21
7.927172007
  0
LINE
  5
523
100
AcDbEntity
  8
0
100
AcDbLine
 62
7
  6
CONTINUOUS
 10
14.4463581605
 20
7.9545814368
 11
14.4630017388
 21
7.9888361906
  0
LWPOLYLINE
  5
524
100
AcDbEntity
  8
0
100
AcDbPolyline
 62
7
  6
CONTINUOUS
 90
4
 70
0
 10
14.4158685899
 20
7.934966905
 10
14.433701117
 20
7.9696942387
 10
14.4443088746
 20
8.0117583924
 10
14.4464231952
 20
8.0302651511
  0
LWPOLYLINE
  5
525
100
AcDbEntity
  8
0
100
AcDbPolyline
 62
7
  6
CONTINUOUS
 90
4
 70
0
 10
14.3025622734
 20
7.8694033426
 10
14.3204683896
 20
7.9041165315
 10
14.3311458962
 20
7.946265075
 10
14.3332865812
 20
7.9649460865
  0
LWPOLYLINE
  5
526
100
AcDbEntity
  8
0
100
AcDbPolyline
 62
7
  6
CONTINUOUS
 90
4
 70
0
 10
14.3874034138
 20
7.9183763723
 10
14.4053158549
 20
7.9530924209
 10
14.4159971657
 20
7.995246522
 10
14.4181390417
 20
8.013935385
  0
LWPOLYLINE
  5
527
100
AcDbEntity
  8
0
100
AcDbPolyline
 62
7
  6
CONTINUOUS
 90
4
 70
0
 10
14.3308216342
 20
7.8856974842
 10
14.3487413694
 20
7.9204163072
 10
14.3594273914
 20
7.9625773182
 10
14.3615707347
 20
7.9812758527
  0
LINE
  5
528
100
AcDbEntity
  8
0
100
AcDbLine
 62
7
  6
CONTINUOUS
 10
14.3756113152
 20
7.9359295851
 11
14.35769158
 21
7.9012107621
  0
LWPOLYLINE
  5
529
100
AcDbEntity
  8
0
100
AcDbPolyline
 62
7
  6
CONTINUOUS
 90
5
 70
0
 10
14.3454095079
 20
7.8854587434
 10
14.3652418334
 20
7.9116587292
 10
14.379788551
 20
7.9447113885
 10
14.3883649444
 20
7.9834997138
 10
14.3898548882
 20
7.9976056188
  0
LINE
  5
52A
100
AcDbEntity
  8
0
100
AcDbLine
 62
7
  6
CONTINUOUS
 10
14.3921117792
 20
7.927172007
 11
14.3722794537
 21
7.9009720213
  0
LINE
  5
52B
100
AcDbEntity
  8
0
100
AcDbLine
 62
7
  6
CONTINUOUS
 10
14.27840604
 20
7.8433744959
 11
14.3025622734
 21
7.8694033426
  0
LINE
  5
52C
100
AcDbEntity
  8
0
100
AcDbLine
 62
7
  6
CONTINUOUS
 10
14.3294322192
 20
7.8849166204
 11
14.3052759858
 21
7.8588877738
  0
LINE
  5
52D
100
AcDbEntity
  8
0
100
AcDbLine
 62
7
  6
CONTINUOUS
 10
14.2728319095
 20
7.8522111079
 11
14.2486606305
 21
7.8261906718
  0
LINE
  5
52E
100
AcDbEntity
  8
0
100
AcDbLine
 62
7
  6
CONTINUOUS
 10
14.3066393355
 20
7.8596636521
 11
14.3308216342
 21
7.8856974842
  0
LINE
  5
52F
100
AcDbEntity
  8
0
100
AcDbLine
 62
7
  6
CONTINUOUS
 10
14.2500649026
 20
7.8269992314
 11
14.2742412576
 21
7.8530206178
  0
LINE
  5
530
100
AcDbEntity
  8
0
100
AcDbLine
 62
7
  6
CONTINUOUS
 10
14.3011112034
 20
7.8685338957
 11
14.2769348484
 21
7.8425125093
  0
LINE
  5
531
100
AcDbEntity
  8
0
100
AcDbLine
 62
7
  6
CONTINUOUS
 10
14.2206434029
 20
7.8152467591
 11
14.2448125686
 21
7.8409128664
  0
LWPOLYLINE
  5
532
100
AcDbEntity
  8
0
100
AcDbPolyline
 62
7
  6
CONTINUOUS
 90
7
 70
0
 10
14.1595980081
 20
8.2734483217
 10
14.1320598519
 20
8.306096665
 10
14.1024866189
 20
8.3357917722
 10
14.0727789047
 20
8.3607805037
 10
14.043423622
 20
8.3811101052
 10
14.0122114435
 20
8.398145467
 10
13.9783905401
 20
8.4112066517
  0
LWPOLYLINE
  5
533
100
AcDbEntity
  8
0
100
AcDbPolyline
 62
7
  6
CONTINUOUS
 90
11
 70
0
 10
14.588721267
 20
8.1407805924
 10
14.5840269808
 20
8.1933876109
 10
14.5714677345
 20
8.2495020364
 10
14.5515312
 20
8.3064757147
 10
14.5252561203
 20
8.3618607302
 10
14.4930092998
 20
8.4150733765
 10
14.4555050122
 20
8.464633725
 10
14.4144452248
 20
8.5082042457
 10
14.3709853919
 20
8.5446563519
 10
14.3259263021
 20
8.5732035611
 10
14.3132662548
 20
8.5795918028
  0
LWPOLYLINE
  5
534
100
AcDbEntity
  8
0
100
AcDbPolyline
 62
7
  6
CONTINUOUS
 90
11
 70
0
 10
14.53215296
 20
8.1081210601
 10
14.5275633916
 20
8.1600611332
 10
14.5152965891
 20
8.2154538433
 10
14.4958099454
 20
8.2717497741
 10
14.4700954827
 20
8.3265717417
 10
14.4387335237
 20
8.3790072835
 10
14.4023563368
 20
8.4278841006
 10
14.3621929081
 20
8.4714102782
 10
14.3194562379
 20
8.5082328065
 10
14.2747478338
 20
8.5376073052
 10
14.2566979478
 20
8.5469322705
  0
LWPOLYLINE
  5
535
100
AcDbEntity
  8
0
100
AcDbPolyline
 62
7
  6
CONTINUOUS
 90
11
 70
0
 10
14.5604371135
 20
8.1244508263
 10
14.5558431588
 20
8.1764189756
 10
14.543564101
 20
8.2318420971
 10
14.5240587979
 20
8.2881661173
 10
14.4983276634
 20
8.3429991428
 10
14.4668846741
 20
8.3955360469
 10
14.4302520299
 20
8.4446824117
 10
14.3899447229
 20
8.4882553045
 10
14.3471917247
 20
8.524978103
 10
14.3026097863
 20
8.5541717823
 10
14.2849821013
 20
8.5632620366
  0
LINE
  5
536
100
AcDbEntity
  8
AXIS_COSMETIC_THREADS
100
AcDbLine
 62
7
  6
CONTINUOUS
 10
14.5436366702
 20
7.3387840764
 11
14.5436366702
 21
6.8584566357
  0
LINE
  5
537
100
AcDbEntity
  8
0
100
AcDbLine
 62
7
  6
CONTINUOUS
 10
14.5312756556
 20
8.0792544496
 11
14.53215296
 21
8.1081210601
  0
LINE
  5
538
100
AcDbEntity
  8
0
100
AcDbLine
 62
7
  6
CONTINUOUS
 10
14.5595598091
 20
8.0955842157
 11
14.5604371135
 21
8.1244508263
  0
LINE
  5
539
100
AcDbEntity
  8
0
100
AcDbLine
 62
7
  6
CONTINUOUS
 10
14.5878439626
 20
8.1119139819
 11
14.588721267
 21
8.1407805924
  0
LINE
  5
53A
100
AcDbEntity
  8
0
100
AcDbLine
 62
7
  6
CONTINUOUS
 10
14.593260898
 20
8.158408461
 11
14.5907633607
 21
8.1122351731
  0
LWPOLYLINE
  5
53B
100
AcDbEntity
  8
0
100
AcDbPolyline
 62
7
  6
CONTINUOUS
 90
4
 70
0
 10
14.5307387523
 20
8.1073045718
 10
14.5277904503
 20
8.0602193753
 10
14.5173891569
 20
8.0185449379
 10
14.4997942906
 20
7.9838483957
  0
LWPOLYLINE
  5
53C
100
AcDbEntity
  8
0
100
AcDbPolyline
 62
7
  6
CONTINUOUS
 90
4
 70
0
 10
14.5590229058
 20
8.123634338
 10
14.5560694299
 20
8.076514605
 10
14.5457455464
 20
8.0350723029
 10
14.5282659281
 20
8.0004532946
  0
LWPOLYLINE
  5
53D
100
AcDbEntity
  8
0
100
AcDbPolyline
 62
7
  6
CONTINUOUS
 90
4
 70
0
 10
14.5873070593
 20
8.1399641041
 10
14.5843401332
 20
8.0927547428
 10
14.5740045514
 20
8.0513331961
 10
14.5565790258
 20
8.0168256645
  0
LWPOLYLINE
  5
53E
100
AcDbEntity
  8
0
100
AcDbPolyline
 62
7
  6
CONTINUOUS
 90
4
 70
0
 10
14.6155912128
 20
8.1562938703
 10
14.6126177321
 20
8.1090409119
 10
14.6022476075
 20
8.0675505953
 10
14.5848527789
 20
8.0331401181
  0
LWPOLYLINE
  5
53F
100
AcDbEntity
  8
0
100
AcDbPolyline
 62
7
  6
CONTINUOUS
 90
3
 70
0
 10
14.6215530619
 20
8.1594696235
 10
14.6166992073
 20
8.1149468683
 10
14.6098479656
 20
8.0931439357
  0
LWPOLYLINE
  5
540
100
AcDbEntity
  8
0
100
AcDbPolyline
 62
7
  6
CONTINUOUS
 90
3
 70
0
 10
14.5646960783
 20
8.119178548
 10
14.5585413743
 20
8.075131633
 10
14.5532794966
 20
8.0604465812
  0
LWPOLYLINE
  5
541
100
AcDbEntity
  8
0
100
AcDbPolyline
 62
7
  6
CONTINUOUS
 90
3
 70
0
 10
14.5352937455
 20
8.088475989
 10
14.5268143252
 20
8.0462925754
 10
14.523897732
 20
8.0397189471
  0
LWPOLYLINE
  5
542
100
AcDbEntity
  8
0
100
AcDbPolyline
 62
7
  6
CONTINUOUS
 90
3
 70
0
 10
14.5907633607
 20
8.1122351731
 10
14.5809538994
 20
8.0716994122
 10
14.5796287466
 20
8.069045682
  0
LWPOLYLINE
  5
543
100
AcDbEntity
  8
0
100
AcDbPolyline
 62
7
  6
CONTINUOUS
 90
4
 70
0
 10
14.5013959823
 20
7.9849400168
 10
14.5188756006
 20
8.0195590251
 10
14.5291994841
 20
8.0610013271
 10
14.5312756556
 20
8.0792544496
  0
LWPOLYLINE
  5
544
100
AcDbEntity
  8
0
100
AcDbPolyline
 62
7
  6
CONTINUOUS
 90
4
 70
0
 10
14.52970908
 20
8.0013123867
 10
14.5471346056
 20
8.0358199182
 10
14.5574701874
 20
8.077241465
 10
14.5595598091
 20
8.0955842157
  0
LWPOLYLINE
  5
545
100
AcDbEntity
  8
0
100
AcDbPolyline
 62
7
  6
CONTINUOUS
 90
4
 70
0
 10
14.5579828331
 20
8.0176268403
 10
14.5753776617
 20
8.0520373174
 10
14.5857477863
 20
8.093527634
 10
14.5878439626
 20
8.1119139819
  0
LWPOLYLINE
  5
546
100
AcDbEntity
  8
0
100
AcDbPolyline
 62
7
  6
CONTINUOUS
 90
4
 70
0
 10
14.4729243448
 20
7.9683351179
 10
14.4905192111
 20
8.0030316601
 10
14.5009205045
 20
8.0447060974
 10
14.5029915021
 20
8.0629246834
  0
LWPOLYLINE
  5
547
100
AcDbEntity
  8
0
100
AcDbPolyline
 62
7
  6
CONTINUOUS
 90
4
 70
0
 10
14.5861750659
 20
8.033821464
 10
14.6035795061
 20
8.0681427221
 10
14.6140221236
 20
8.109792207
 10
14.6161281161
 20
8.1282437481
  0
LINE
  5
548
100
AcDbEntity
  8
0
100
AcDbLine
 62
7
  6
CONTINUOUS
 10
14.6317649028
 20
8.0842044893
 11
14.6141108046
 21
8.0496421071
  0
LINE
  5
549
100
AcDbEntity
  8
0
100
AcDbLine
 62
7
  6
CONTINUOUS
 10
14.4236708827
 20
7.928233944
 11
14.4463581605
 21
7.9545814368
  0
LINE
  5
54A
100
AcDbEntity
  8
0
100
AcDbLine
 62
7
  6
CONTINUOUS
 10
14.4732281063
 20
7.9700947146
 11
14.4505408285
 21
7.9437472218
  0
LINE
  5
54B
100
AcDbEntity
  8
0
100
AcDbLine
 62
7
  6
CONTINUOUS
 10
14.5057989221
 20
7.9749187508
 11
14.52970908
 21
8.0013123867
  0
LINE
  5
54C
100
AcDbEntity
  8
0
100
AcDbLine
 62
7
  6
CONTINUOUS
 10
14.5565790258
 20
8.0168256645
 11
14.532668868
 21
7.9904320286
  0
LINE
  5
54D
100
AcDbEntity
  8
0
100
AcDbLine
 62
7
  6
CONTINUOUS
 10
14.5340824031
 20
7.9912479657
 11
14.5579828331
 21
8.0176268403
  0
LINE
  5
54E
100
AcDbEntity
  8
0
100
AcDbLine
 62
7
  6
CONTINUOUS
 10
14.5848527789
 20
8.0331401181
 11
14.5609523489
 21
8.0067612435
  0
LINE
  5
54F
100
AcDbEntity
  8
0
100
AcDbLine
 62
7
  6
CONTINUOUS
 10
14.4774751754
 20
7.9585565444
 11
14.5013959823
 21
7.9849400168
  0
LINE
  5
550
100
AcDbEntity
  8
0
100
AcDbLine
 62
7
  6
CONTINUOUS
 10
14.5282659281
 20
8.0004532946
 11
14.5043451213
 21
7.9740698222
  0
LINE
  5
551
100
AcDbEntity
  8
0
100
AcDbLine
 62
7
  6
CONTINUOUS
 10
14.562274739
 20
8.0075025483
 11
14.5861750659
 21
8.033821464
  0
LINE
  5
552
100
AcDbEntity
  8
0
100
AcDbLine
 62
7
  6
CONTINUOUS
 10
14.4489311994
 20
7.9420146239
 11
14.4729243448
 21
7.9683351179
  0
LINE
  5
553
100
AcDbEntity
  8
0
100
AcDbLine
 62
7
  6
CONTINUOUS
 10
14.4997942906
 20
7.9838483957
 11
14.4758011452
 21
7.9575279018
  0
LWPOLYLINE
  5
554
100
AcDbEntity
  8
0
100
AcDbPolyline
 62
7
  6
CONTINUOUS
 90
3
 70
0
 10
14.6141108046
 20
8.0496421071
 10
14.5898705338
 20
8.0232736687
 10
14.5755076508
 20
8.0134252335
  0
LINE
  5
555
100
AcDbEntity
  8
0
100
AcDbLine
 62
7
  6
CONTINUOUS
 10
14.3917269868
 20
7.9088411466
 11
14.4158685899
 21
7.934966905
  0
LINE
  5
556
100
AcDbEntity
  8
0
100
AcDbLine
 62
7
  6
CONTINUOUS
 10
14.4427385357
 20
7.9504801829
 11
14.4185969326
 21
7.9243544244
  0
LINE
  5
557
100
AcDbEntity
  8
0
100
AcDbLine
 62
7
  6
CONTINUOUS
 10
14.3632152722
 20
7.8923292737
 11
14.3874034138
 21
7.9183763723
  0
LINE
  5
558
100
AcDbEntity
  8
0
100
AcDbLine
 62
7
  6
CONTINUOUS
 10
14.4142733596
 20
7.9338896502
 11
14.390085218
 21
7.9078425515
  0
LINE
  5
559
100
AcDbEntity
  8
0
100
AcDbLine
 62
7
  6
CONTINUOUS
 10
14.35769158
 20
7.9012107621
 11
14.3335092813
 21
7.8751769299
  0
LINE
  5
55A
100
AcDbEntity
  8
0
100
AcDbLine
 62
7
  6
CONTINUOUS
 10
14.320950031
 20
7.8664572004
 11
14.3454095079
 21
7.8854587434
  0
LINE
  5
55B
100
AcDbEntity
  8
0
100
AcDbLine
 62
7
  6
CONTINUOUS
 10
14.3722794537
 20
7.9009720213
 11
14.3478199768
 21
7.8819704783
  0
LINE
  5
55C
100
AcDbEntity
  8
0
100
AcDbLine
 62
7
  6
CONTINUOUS
 10
14.4058196744
 20
7.9154564214
 11
14.4236708827
 21
7.928233944
  0
LINE
  5
55D
100
AcDbEntity
  8
0
100
AcDbLine
 62
7
  6
CONTINUOUS
 10
14.4505408285
 20
7.9437472218
 11
14.4326896202
 21
7.9309696993
  0
LINE
  5
55E
100
AcDbEntity
  8
0
100
AcDbLine
 62
7
  6
CONTINUOUS
 10
14.4906920652
 20
7.964457234
 11
14.5057989221
 21
7.9749187508
  0
LINE
  5
55F
100
AcDbEntity
  8
0
100
AcDbLine
 62
7
  6
CONTINUOUS
 10
14.532668868
 20
7.9904320286
 11
14.517562011
 21
7.9799705119
  0
LINE
  5
560
100
AcDbEntity
  8
0
100
AcDbLine
 62
7
  6
CONTINUOUS
 10
14.5189768399
 20
7.9807873591
 11
14.5340824031
 21
7.9912479657
  0
LINE
  5
561
100
AcDbEntity
  8
0
100
AcDbLine
 62
7
  6
CONTINUOUS
 10
14.5609523489
 20
8.0067612435
 11
14.5458467857
 21
7.996300637
  0
LINE
  5
562
100
AcDbEntity
  8
0
100
AcDbLine
 62
7
  6
CONTINUOUS
 10
14.4624069023
 20
7.9481268845
 11
14.4774751754
 21
7.9585565444
  0
LINE
  5
563
100
AcDbEntity
  8
0
100
AcDbLine
 62
7
  6
CONTINUOUS
 10
14.5043451213
 20
7.9740698222
 11
14.4892768481
 21
7.9636401624
  0
LWPOLYLINE
  5
564
100
AcDbEntity
  8
0
100
AcDbPolyline
 62
7
  6
CONTINUOUS
 90
4
 70
0
 10
14.5740934292
 20
8.0126087371
 10
14.5891977504
 20
8.0230592588
 10
14.6131257062
 20
8.0494533609
 10
14.6305429493
 20
8.0839109294
  0
LINE
  5
565
100
AcDbEntity
  8
0
100
AcDbLine
 62
7
  6
CONTINUOUS
 10
14.5472621502
 20
7.9971177938
 11
14.562274739
 21
8.0075025483
  0
LINE
  5
566
100
AcDbEntity
  8
0
100
AcDbLine
 62
7
  6
CONTINUOUS
 10
14.4341142529
 20
7.9317922096
 11
14.4489311994
 21
7.9420146239
  0
LINE
  5
567
100
AcDbEntity
  8
0
100
AcDbLine
 62
7
  6
CONTINUOUS
 10
14.4758011452
 20
7.9575279018
 11
14.4609841987
 21
7.9473054875
  0
LINE
  5
568
100
AcDbEntity
  8
0
100
AcDbLine
 62
7
  6
CONTINUOUS
 10
14.3775266805
 20
7.8991215498
 11
14.3917269868
 21
7.9088411466
  0
LINE
  5
569
100
AcDbEntity
  8
0
100
AcDbLine
 62
7
  6
CONTINUOUS
 10
14.4185969326
 20
7.9243544244
 11
14.4043966263
 21
7.9146348276
  0
LWPOLYLINE
  5
56A
100
AcDbEntity
  8
0
100
AcDbPolyline
 62
9
  6
CONTINUOUS
 90
15
 70
0
 10
14.6171673522
 20
8.0556260755
 10
14.6263119041
 20
8.0618807219
 10
14.6502049902
 20
8.087541196
 10
14.6678212132
 20
8.1210438532
 10
14.6786071051
 20
8.1613565809
 10
14.6822356596
 20
8.2072286588
 10
14.6786052492
 20
8.2572910129
 10
14.6678176906
 20
8.3100579146
 10
14.6501996394
 20
8.3639021548
 10
14.6263044893
 20
8.4171520609
 10
14.5968656767
 20
8.4682014413
 10
14.5627594758
 20
8.5155404593
 10
14.5249571484
 20
8.5577959153
 10
14.4845375746
 20
8.5936997313
 10
14.4427022403
 20
8.622104026
  0
LINE
  5
56B
100
AcDbEntity
  8
0
100
AcDbLine
 62
7
  6
CONTINUOUS
 10
14.264392599
 20
7.8338039476
 11
14.27840604
 21
7.8433744959
  0
LINE
  5
56C
100
AcDbEntity
  8
0
100
AcDbLine
 62
7
  6
CONTINUOUS
 10
14.3052759858
 20
7.8588877738
 11
14.2912625448
 21
7.8493172254
  0
LINE
  5
56D
100
AcDbEntity
  8
0
100
AcDbLine
 62
7
  6
CONTINUOUS
 10
14.2486606305
 20
7.8261906718
 11
14.2347120006
 21
7.8166679532
  0
LINE
  5
56E
100
AcDbEntity
  8
0
100
AcDbLine
 62
7
  6
CONTINUOUS
 10
14.2361194046
 20
7.817480511
 11
14.2500649026
 21
7.8269992314
  0
LINE
  5
56F
100
AcDbEntity
  8
0
100
AcDbLine
 62
7
  6
CONTINUOUS
 10
14.2769348484
 20
7.8425125093
 11
14.2629893504
 21
7.8329937889
  0
LINE
  5
570
100
AcDbEntity
  8
0
100
AcDbLine
 62
7
  6
CONTINUOUS
 10
14.2926660044
 20
7.8501275075
 11
14.3066393355
 21
7.8596636521
  0
LINE
  5
571
100
AcDbEntity
  8
0
100
AcDbLine
 62
7
  6
CONTINUOUS
 10
14.3335092813
 20
7.8751769299
 11
14.3195359502
 21
7.8656407854
  0
LINE
  5
572
100
AcDbEntity
  8
0
100
AcDbLine
 62
7
  6
CONTINUOUS
 10
14.3492324039
 20
7.8827859386
 11
14.3632152722
 21
7.8923292737
  0
LINE
  5
573
100
AcDbEntity
  8
0
100
AcDbLine
 62
7
  6
CONTINUOUS
 10
14.390085218
 20
7.9078425515
 11
14.3761023497
 21
7.8982992165
  0
LINE
  5
574
100
AcDbEntity
  8
0
100
AcDbLine
 62
7
  6
CONTINUOUS
 10
14.2001030818
 20
7.8534569646
 11
14.1873457669
 21
7.8447544111
  0
LINE
  5
575
100
AcDbEntity
  8
AXIS_COSMETIC_THREADS
100
AcDbLine
 62
7
  6
CONTINUOUS
 10
14.2391794109
 20
7.9125209191
 11
14.2358760459
 21
7.9106137318
  0
LINE
  5
576
100
AcDbEntity
  8
AXIS_COSMETIC_THREADS
100
AcDbLine
 62
7
  6
CONTINUOUS
 10
14.2055573696
 20
7.859302603
 11
14.1855990971
 21
7.8477797578
  0
LWPOLYLINE
  5
577
100
AcDbEntity
  8
0
100
AcDbPolyline
 62
7
  6
CONTINUOUS
 90
6
 70
0
 10
14.1873457669
 20
7.8447544111
 10
14.1734333135
 20
7.8380587265
 10
14.1425375622
 20
7.8309157763
 10
14.1083545797
 20
7.8322451489
 10
14.0719229987
 20
7.8420064522
 10
14.0343497743
 20
7.8599030937
  0
LWPOLYLINE
  5
578
100
AcDbEntity
  8
AXIS_COSMETIC_THREADS
100
AcDbPolyline
 62
7
  6
CONTINUOUS
 90
4
 70
0
 10
14.1856044471
 20
7.8477844321
 10
14.1693090605
 20
7.8402123607
 10
14.1454619471
 20
7.8345498083
 10
14.1195461495
 20
7.8340109802
  0
LWPOLYLINE
  5
579
100
AcDbEntity
  8
0
100
AcDbPolyline
 62
7
  6
CONTINUOUS
 90
3
 70
0
 10
14.5593904274
 20
8.0055073649
 10
14.5594978624
 20
8.0055326047
 10
14.5740934292
 20
8.0126087371
  0
LWPOLYLINE
  5
57A
100
AcDbEntity
  8
0
100
AcDbPolyline
 62
9
  6
CONTINUOUS
 90
16
 70
0
 10
14.6021939677
 20
8.0366790349
 10
14.6113975503
 20
8.0388266477
 10
14.6419228695
 20
8.0565151343
 10
14.666699251
 20
8.0831228791
 10
14.6849666711
 20
8.1178630664
 10
14.6961510839
 20
8.1596653859
 10
14.6999133269
 20
8.2072326058
 10
14.6961480717
 20
8.2591448771
 10
14.6849609849
 20
8.3138614028
 10
14.6666909122
 20
8.3696946794
 10
14.6419118296
 20
8.4249111589
 10
14.6113843756
 20
8.4778452531
 10
14.5760173254
 20
8.5269313739
 10
14.5368178194
 20
8.5707454425
 10
14.4949048862
 20
8.6079729954
 10
14.4515410382
 20
8.6374133582
  0
LWPOLYLINE
  5
57B
100
AcDbEntity
  8
AXIS_COSMETIC_THREADS
100
AcDbPolyline
 62
7
  6
CONTINUOUS
 90
10
 70
0
 10
14.0343497743
 20
8.3567448145
 10
14.0634680325
 20
8.3376345148
 10
14.0920441675
 20
8.3142815187
 10
14.1195461495
 20
8.2871206117
 10
14.1454619471
 20
8.2566574751
 10
14.1693090605
 20
8.223459271
 10
14.1906435047
 20
8.1881440829
 10
14.2090680754
 20
8.1513694081
 10
14.2242397444
 20
8.1138199169
 10
14.2358760459
 20
8.0761947048
  0
LINE
  5
57C
100
AcDbEntity
  8
0
100
AcDbLine
 62
9
  6
CONTINUOUS
 10
14.6751697134
 20
7.6552939824
 11
14.6784019557
 21
7.6440638474
  0
LWPOLYLINE
  5
57D
100
AcDbEntity
  8
0
100
AcDbPolyline
 62
7
  6
CONTINUOUS
 90
11
 70
0
 10
14.6170054205
 20
8.1571103586
 10
14.6124141363
 20
8.2090614156
 10
14.6001425526
 20
8.2644659788
 10
14.5806486054
 20
8.3207729236
 10
14.5549037717
 20
8.3756440224
 10
14.5230497747
 20
8.4287978175
 10
14.4860318142
 20
8.478289919
 10
14.4455342612
 20
8.5218582863
 10
14.4028195697
 20
8.5583466417
 10
14.3585517132
 20
8.5871780713
 10
14.3415504083
 20
8.5959215689
  0
LWPOLYLINE
  5
57E
100
AcDbEntity
  8
0
100
AcDbPolyline
 62
7
  6
CONTINUOUS
 90
11
 70
0
 10
14.6452895739
 20
8.1734401247
 10
14.6407066227
 20
8.2253378175
 10
14.6284946941
 20
8.2805565626
 10
14.6091521486
 20
8.3365638189
 10
14.5835117822
 20
8.3913646593
 10
14.5516156143
 20
8.4447070143
 10
14.5145547325
 20
8.4943330768
 10
14.474030046
 20
8.5379844872
 10
14.4313608962
 20
8.5744829346
 10
14.3872740158
 20
8.6032654668
 10
14.3698345617
 20
8.6122513351
  0
LINE
  5
57F
100
AcDbEntity
  8
0
100
AcDbLine
 62
7
  6
CONTINUOUS
 10
14.6161281161
 20
8.1282437481
 11
14.6170054205
 21
8.1571103586
  0
LINE
  5
580
100
AcDbEntity
  8
0
100
AcDbLine
 62
7
  6
CONTINUOUS
 10
14.6452895739
 20
8.1734401247
 11
14.6444122696
 21
8.1445735142
  0
LINE
  5
581
100
AcDbEntity
  8
0
100
AcDbLine
 62
7
  6
CONTINUOUS
 10
14.6409043496
 20
8.1253870612
 11
14.6438753663
 21
8.1726236364
  0
LWPOLYLINE
  5
582
100
AcDbEntity
  8
0
100
AcDbPolyline
 62
7
  6
CONTINUOUS
 90
3
 70
0
 10
14.6444122696
 20
8.1445735142
 10
14.6422724343
 20
8.1258981062
 10
14.6317649028
 20
8.0842044893
  0
LWPOLYLINE
  5
583
100
AcDbEntity
  8
0
100
AcDbPolyline
 62
7
  6
CONTINUOUS
 90
3
 70
0
 10
14.6490886422
 20
8.1610080655
 10
14.6418963114
 20
8.1182779641
 10
14.6376288672
 20
8.1074725502
  0
LINE
  5
584
100
AcDbEntity
  8
0
100
AcDbLine
 62
7
  6
CONTINUOUS
 10
14.6305429493
 20
8.0839109294
 11
14.6409043496
 21
8.1253870612
  0
LWPOLYLINE
  5
585
100
AcDbEntity
  8
0
100
AcDbPolyline
 62
7
  6
CONTINUOUS
 90
3
 70
0
 10
14.4326896202
 20
7.9309696993
 10
14.4221040992
 20
7.9255812133
 10
14.4186132142
 20
7.9246137703
  0
LINE
  5
586
100
AcDbEntity
  8
0
100
AcDbLine
 62
7
  6
CONTINUOUS
 10
14.5458467857
 20
7.996300637
 11
14.531093306
 21
7.9891780151
  0
LINE
  5
587
100
AcDbEntity
  8
0
100
AcDbLine
 62
7
  6
CONTINUOUS
 10
14.517562011
 20
7.9799705119
 11
14.5028099686
 21
7.9728488968
  0
LINE
  5
588
100
AcDbEntity
  8
0
100
AcDbLine
 62
7
  6
CONTINUOUS
 10
14.4892768481
 20
7.9636401624
 11
14.4745578126
 21
7.9565372617
  0
LINE
  5
589
100
AcDbEntity
  8
0
100
AcDbLine
 62
7
  6
CONTINUOUS
 10
14.4609841987
 20
7.9473054875
 11
14.4465048939
 21
7.9403406826
  0
LINE
  5
58A
100
AcDbEntity
  8
0
100
AcDbLine
 62
7
  6
CONTINUOUS
 10
14.2912625448
 20
7.8493172254
 11
14.2774214146
 21
7.8427020412
  0
LINE
  5
58B
100
AcDbEntity
  8
0
100
AcDbLine
 62
7
  6
CONTINUOUS
 10
14.4043966263
 20
7.9146348276
 11
14.3904964931
 21
7.9079989181
  0
LINE
  5
58C
100
AcDbEntity
  8
0
100
AcDbLine
 62
7
  6
CONTINUOUS
 10
14.3195359502
 20
7.8656407854
 11
14.3057772258
 21
7.8590753026
  0
LINE
  5
58D
100
AcDbEntity
  8
0
100
AcDbLine
 62
7
  6
CONTINUOUS
 10
14.2629893504
 20
7.8329937889
 11
14.2492492415
 21
7.826442489
  0
LINE
  5
58E
100
AcDbEntity
  8
0
100
AcDbLine
 62
7
  6
CONTINUOUS
 10
14.3761023497
 20
7.8982992165
 11
14.3623962371
 21
7.8917702806
  0
LWPOLYLINE
  5
58F
100
AcDbEntity
  8
0
100
AcDbPolyline
 62
7
  6
CONTINUOUS
 90
3
 70
0
 10
14.2347120006
 20
7.8166679532
 10
14.2185462355
 20
7.8089729143
 10
14.2045406918
 20
7.8059169635
  0
LINE
  5
590
100
AcDbEntity
  8
0
100
AcDbLine
 62
7
  6
CONTINUOUS
 10
14.3478199768
 20
7.8819704783
 11
14.3334121468
 21
7.8761384962
  0
LWPOLYLINE
  5
591
100
AcDbEntity
  8
0
100
AcDbPolyline
 62
7
  6
CONTINUOUS
 90
3
 70
0
 10
14.0438543518
 20
8.4079151331
 10
13.9993006842
 20
8.4276213679
 10
13.9561967215
 20
8.437724956
  0
LWPOLYLINE
  5
592
100
AcDbEntity
  8
0
100
AcDbPolyline
 62
7
  6
CONTINUOUS
 90
9
 70
0
 10
14.0254885433
 20
8.4213227749
 10
14.0684893678
 20
8.4007697832
 10
14.1113436028
 20
8.37168181
 10
14.1527412504
 20
8.3349791594
 10
14.1914176807
 20
8.2918193087
 10
14.2261930214
 20
8.2435608569
 10
14.2560089066
 20
8.1917212084
 10
14.2799614422
 20
8.1379293106
 10
14.2973293589
 20
8.0838749175
  0
LWPOLYLINE
  5
593
100
AcDbEntity
  8
AXIS_COSMETIC_THREADS
100
AcDbPolyline
 62
7
  6
CONTINUOUS
 90
7
 70
0
 10
14.0343497743
 20
8.3567448145
 10
14.005231516
 20
8.3712566226
 10
13.976655381
 20
8.3808997585
 10
13.949153399
 20
8.3854946865
 10
13.9232376015
 20
8.3849558584
 10
13.8993904881
 20
8.379293306
 10
13.8830951014
 20
8.3717212346
  0
LWPOLYLINE
  5
594
100
AcDbEntity
  8
0
100
AcDbPolyline
 62
7
  6
CONTINUOUS
 90
9
 70
0
 10
14.0304247199
 20
8.4162941412
 10
14.0548645734
 20
8.4033199653
 10
14.0993615926
 20
8.3728184327
 10
14.1423145207
 20
8.3344637247
 10
14.1824252173
 20
8.2894506163
 10
14.2184780446
 20
8.2391836255
 10
14.2493819521
 20
8.1852322663
 10
14.274207519
 20
8.1292773807
 10
14.2922141461
 20
8.0730584646
  0
LWPOLYLINE
  5
595
100
AcDbEntity
  8
0
100
AcDbPolyline
 62
7
  6
CONTINUOUS
 90
9
 70
0
 10
14.0430176647
 20
8.4102966267
 10
14.0683092259
 20
8.3967619893
 10
14.1106275636
 20
8.3674190391
 10
14.1514371537
 20
8.3306978598
 10
14.1895188854
 20
8.2877308238
 10
14.223736739
 20
8.2398405548
 10
14.2530723898
 20
8.1884996392
 10
14.2766562264
 20
8.1352857715
 10
14.2937938397
 20
8.0818336967
  0
LWPOLYLINE
  5
596
100
AcDbEntity
  8
0
100
AcDbPolyline
 62
7
  6
CONTINUOUS
 90
11
 70
0
 10
14.0995859717
 20
8.442956159
 10
14.13571914
 20
8.4227093331
 10
14.1785244669
 20
8.390754471
 10
14.2194148468
 20
8.3514494668
 10
14.2571244176
 20
8.306050016
 10
14.2904877542
 20
8.2560042522
 10
14.3184766683
 20
8.2029070207
 10
14.3402326739
 20
8.1484495202
 10
14.3550940956
 20
8.0943659009
 10
14.3626169606
 20
8.0423785075
 10
14.3626732963
 20
7.9951806319
  0
LINE
  5
597
100
AcDbEntity
  8
AXIS_COSMETIC_THREADS
100
AcDbLine
 62
7
  6
CONTINUOUS
 10
14.7766366702
 20
7.3386011225
 11
14.7766366702
 21
6.8584566357
  0
LWPOLYLINE
  5
598
100
AcDbEntity
  8
0
100
AcDbPolyline
 62
7
  6
CONTINUOUS
 90
11
 70
0
 10
13.9783905401
 20
8.4112066517
 10
14.0210333342
 20
8.3946737016
 10
14.0641156706
 20
8.3692806649
 10
14.1063204468
 20
8.3358327602
 10
14.1463578936
 20
8.2953860897
 10
14.183005747
 20
8.2492147453
 10
14.2151473184
 20
8.1987711245
 10
14.2418062758
 20
8.145640693
 10
14.2621770534
 20
8.0914926019
 10
14.2756499423
 20
8.0380276995
 10
14.2818300814
 20
7.9869255547
  0
LWPOLYLINE
  5
599
100
AcDbEntity
  8
0
100
AcDbPolyline
 62
7
  6
CONTINUOUS
 90
11
 70
0
 10
14.0381011862
 20
8.442950455
 10
14.0811190479
 20
8.4255837348
 10
14.124473492
 20
8.3992912892
 10
14.1668208511
 20
8.3649179297
 10
14.2068492576
 20
8.3235636303
 10
14.243320067
 20
8.2765487951
 10
14.2751069695
 20
8.2253725649
 10
14.301231554
 20
8.1716654808
 10
14.3208942027
 20
8.1171379979
 10
14.3334993397
 20
8.0635264764
 10
14.338674237
 20
8.0125383539
  0
LWPOLYLINE
  5
59A
100
AcDbEntity
  8
0
100
AcDbPolyline
 62
7
  6
CONTINUOUS
 90
4
 70
0
 10
14.0869930269
 20
8.4489536735
 10
14.0603718043
 20
8.4600243892
 10
14.017633456
 20
8.4707428487
 10
13.9774744
 20
8.471785641
  0
LWPOLYLINE
  5
59B
100
AcDbEntity
  8
0
100
AcDbPolyline
 62
7
  6
CONTINUOUS
 90
4
 70
0
 10
14.1152771804
 20
8.4652834397
 10
14.0886857238
 20
8.476343597
 10
14.045925755
 20
8.4870714583
 10
14.0058339636
 20
8.4881229091
  0
LWPOLYLINE
  5
59C
100
AcDbEntity
  8
0
100
AcDbPolyline
 62
7
  6
CONTINUOUS
 90
4
 70
0
 10
14.0587088734
 20
8.4326239074
 10
14.0325737146
 20
8.4435216932
 10
13.9898233005
 20
8.4543451863
 10
13.9495287139
 20
8.455489242
  0
LWPOLYLINE
  5
59D
100
AcDbEntity
  8
0
100
AcDbPolyline
 62
7
  6
CONTINUOUS
 90
11
 70
0
 10
14.0872417501
 20
8.4755376671
 10
14.1319522348
 20
8.4551200556
 10
14.1766635776
 20
8.4257353824
 10
14.2193892288
 20
8.3889146205
 10
14.2597174102
 20
8.3451819307
 10
14.296576598
 20
8.2955248357
 10
14.3282761758
 20
8.2421897655
 10
14.3537882091
 20
8.1872786611
 10
14.3728943853
 20
8.1314580538
 10
14.3848142937
 20
8.0770435886
 10
14.3893179849
 20
8.025655741
  0
LWPOLYLINE
  5
59E
100
AcDbEntity
  8
0
100
AcDbPolyline
 62
7
  6
CONTINUOUS
 90
11
 70
0
 10
14.1155556697
 20
8.4918568749
 10
14.1602910738
 20
8.4714193532
 10
14.2050248493
 20
8.4420066161
 10
14.2477686412
 20
8.4051520093
 10
14.2877998384
 20
8.3617554021
 10
14.3244818406
 20
8.3124235441
 10
14.3561716086
 20
8.2592550345
 10
14.3817843973
 20
8.2043211659
 10
14.4010415739
 20
8.1482741788
 10
14.41308868
 20
8.0934364063
 10
14.4176021384
 20
8.0419855072
  0
LWPOLYLINE
  5
59F
100
AcDbEntity
  8
0
100
AcDbPolyline
 62
7
  6
CONTINUOUS
 90
11
 70
0
 10
14.0594436604
 20
8.459034971
 10
14.1040382992
 20
8.4385837592
 10
14.1485108672
 20
8.409305835
 10
14.1910601427
 20
8.3726284111
 10
14.2315021817
 20
8.3287688332
 10
14.2684242732
 20
8.2789968012
 10
14.3001358801
 20
8.2255871856
 10
14.3256144322
 20
8.1706749699
 10
14.3446365748
 20
8.1150345301
 10
14.3565165123
 20
8.0608017792
 10
14.3610338314
 20
8.0093259749
  0
LWPOLYLINE
  5
5A0
100
AcDbEntity
  8
0
100
AcDbPolyline
 62
7
  6
CONTINUOUS
 90
9
 70
0
 10
14.0356521464
 20
8.4410547544
 10
14.0807280522
 20
8.4194200818
 10
14.1253502132
 20
8.3890239354
 10
14.1680923409
 20
8.3510700321
 10
14.2086475003
 20
8.3057727605
 10
14.2453325625
 20
8.2547209198
 10
14.2764509038
 20
8.2003526458
 10
14.301153055
 20
8.144592536
 10
14.3190840919
 20
8.0885717425
  0
LWPOLYLINE
  5
5A1
100
AcDbEntity
  8
0
100
AcDbPolyline
 62
7
  6
CONTINUOUS
 90
11
 70
0
 10
14.1106764126
 20
8.4701855816
 10
14.153978207
 20
8.4493901199
 10
14.1971116687
 20
8.4199539552
 10
14.2387401079
 20
8.3828211651
 10
14.2775743576
 20
8.3391788551
 10
14.31241348
 20
8.2904196756
 10
14.3421826873
 20
8.2380978467
 10
14.3659672791
 20
8.1838800829
 10
14.3830415253
 20
8.1294929646
 10
14.3928915812
 20
8.0766684196
 10
14.395231713
 20
8.0270890362
  0
LWPOLYLINE
  5
5A2
100
AcDbEntity
  8
0
100
AcDbPolyline
 62
7
  6
CONTINUOUS
 90
12
 70
0
 10
14.0713018182
 20
8.4266263929
 10
14.0775835287
 20
8.423542514
 10
14.1209379728
 20
8.3972500684
 10
14.1632853319
 20
8.3628767089
 10
14.2033137384
 20
8.3215224096
 10
14.2397845479
 20
8.2745075743
 10
14.2715714503
 20
8.2233313441
 10
14.2976960348
 20
8.16962426
 10
14.3173586835
 20
8.1150967772
 10
14.3299638205
 20
8.0614852556
 10
14.3351387178
 20
8.0104971331
 10
14.3343891428
 20
7.9788508658
  0
LWPOLYLINE
  5
5A3
100
AcDbEntity
  8
0
100
AcDbPolyline
 62
7
  6
CONTINUOUS
 90
12
 70
0
 10
14.1561542787
 20
8.4756156913
 10
14.1651497578
 20
8.4711426346
 10
14.2084805069
 20
8.4443175823
 10
14.25072081
 20
8.4094732109
 10
14.29056218
 20
8.3677243671
 10
14.3267718781
 20
8.320403913
 10
14.3582318394
 20
8.2690206398
 10
14.3839739763
 20
8.2152116261
 10
14.4032107472
 20
8.1606905456
 10
14.4153600237
 20
8.1071935561
 10
14.420063472
 20
8.056424479
 10
14.4192416033
 20
8.0278401642
  0
LWPOLYLINE
  5
5A4
100
AcDbEntity
  8
0
100
AcDbPolyline
 62
7
  6
CONTINUOUS
 90
12
 70
0
 10
14.1278701252
 20
8.4592859252
 10
14.1504426879
 20
8.4473488991
 10
14.1935761495
 20
8.4179127345
 10
14.2352045887
 20
8.3807799443
 10
14.2740388384
 20
8.3371376344
 10
14.3088779608
 20
8.2883784548
 10
14.3386471681
 20
8.2360566259
 10
14.3624317599
 20
8.1818388621
 10
14.3795060061
 20
8.1274517438
 10
14.389356062
 20
8.0746271989
 10
14.3916961938
 20
8.0250478155
 10
14.3909574498
 20
8.0115103981
  0
LWPOLYLINE
  5
5A5
100
AcDbEntity
  8
0
100
AcDbPolyline
 62
7
  6
CONTINUOUS
 90
11
 70
0
 10
14.0958607137
 20
8.4483316661
 10
14.1392546592
 20
8.4247505539
 10
14.1820599861
 20
8.3927956918
 10
14.222950366
 20
8.3534906876
 10
14.2606599368
 20
8.3080912368
 10
14.2940232734
 20
8.2580454729
 10
14.3220121874
 20
8.2049482415
 10
14.3437681931
 20
8.150490741
 10
14.3586296148
 20
8.0964071217
 10
14.3661524798
 20
8.0444197282
 10
14.3661245379
 20
7.9961847149
  0
LWPOLYLINE
  5
5A6
100
AcDbEntity
  8
0
100
AcDbPolyline
 62
7
  6
CONTINUOUS
 90
11
 70
0
 10
14.1834170613
 20
8.4961082431
 10
14.2268136406
 20
8.4719786472
 10
14.2695377211
 20
8.4395318258
 10
14.3102655397
 20
8.3998069207
 10
14.3477363672
 20
8.3540728863
 10
14.3807923173
 20
8.303788421
 10
14.4084149076
 20
8.2505559073
 10
14.4297572193
 20
8.1960708154
 10
14.4441706394
 20
8.142068167
 10
14.4512253416
 20
8.0902677499
 10
14.4507238582
 20
8.0423198144
  0
LWPOLYLINE
  5
5A7
100
AcDbEntity
  8
0
100
AcDbPolyline
 62
7
  6
CONTINUOUS
 90
11
 70
0
 10
14.1844384322
 20
8.4919454575
 10
14.2232781214
 20
8.4699374264
 10
14.2660022019
 20
8.437490605
 10
14.3067300205
 20
8.3977657
 10
14.344200848
 20
8.3520316656
 10
14.3772567982
 20
8.3017472002
 10
14.4048793884
 20
8.2485146865
 10
14.4262217001
 20
8.1940295947
 10
14.4406351203
 20
8.1400269462
 10
14.4476898225
 20
8.0882265291
 10
14.4475257568
 20
8.0441699304
  0
LWPOLYLINE
  5
5A8
100
AcDbEntity
  8
AXIS
100
AcDbPolyline
 62
7
  6
CONTINUOUS
 90
5
 70
0
 10
14.7766314614
 20
6.8584417498
 10
14.7764241515
 20
6.8543958367
 10
14.7713617954
 20
6.8384467451
 10
14.7598354393
 20
6.8236605556
 10
14.7425149532
 20
6.8108965878
  0
LINE
  5
5A9
100
AcDbEntity
  8
0
100
AcDbLine
 62
7
  6
CONTINUOUS
 10
14.0248817328
 20
8.4454691389
 11
14.0381011862
 21
8.442950455
  0
LWPOLYLINE
  5
5AA
100
AcDbEntity
  8
0
100
AcDbPolyline
 62
7
  6
CONTINUOUS
 90
3
 70
0
 10
13.9783905401
 20
8.4112066517
 10
13.9401376297
 20
8.419523482
 10
13.9043345138
 20
8.4192350948
  0
LINE
  5
5AB
100
AcDbEntity
  8
0
100
AcDbLine
 62
7
  6
CONTINUOUS
 10
14.089827528
 20
8.4758686876
 11
14.1106764126
 21
8.4701855816
  0
LINE
  5
5AC
100
AcDbEntity
  8
0
100
AcDbLine
 62
7
  6
CONTINUOUS
 10
14.0532230642
 20
8.4627798302
 11
14.0958607137
 21
8.4483316661
  0
LINE
  5
5AD
100
AcDbEntity
  8
0
100
AcDbLine
 62
7
  6
CONTINUOUS
 10
14.1406929808
 20
8.5111440964
 11
14.1834170613
 21
8.4961082431
  0
LWPOLYLINE
  5
5AE
100
AcDbEntity
  8
0
100
AcDbPolyline
 62
7
  6
CONTINUOUS
 90
4
 70
0
 10
14.2001296408
 20
8.5142727381
 10
14.1733972489
 20
8.5253828501
 10
14.1306548254
 20
8.5360782386
 10
14.0907099511
 20
8.5371145402
  0
LWPOLYLINE
  5
5AF
100
AcDbEntity
  8
0
100
AcDbPolyline
 62
7
  6
CONTINUOUS
 90
4
 70
0
 10
14.2284137943
 20
8.5306025043
 10
14.2016678416
 20
8.541717418
 10
14.1589273213
 20
8.5524096521
 10
14.1188756518
 20
8.553432524
  0
LWPOLYLINE
  5
5B0
100
AcDbEntity
  8
0
100
AcDbPolyline
 62
7
  6
CONTINUOUS
 90
4
 70
0
 10
14.1435613338
 20
8.4816132058
 10
14.1169562719
 20
8.4926781897
 10
14.0742019839
 20
8.5034023496
 10
14.034169016
 20
8.5044577168
  0
LWPOLYLINE
  5
5B1
100
AcDbEntity
  8
0
100
AcDbPolyline
 62
7
  6
CONTINUOUS
 90
4
 70
0
 10
14.1718454873
 20
8.497942972
 10
14.1452225545
 20
8.5090142942
 10
14.1024983932
 20
8.5197303754
 10
14.0625794989
 20
8.5207999194
  0
LWPOLYLINE
  5
5B2
100
AcDbEntity
  8
0
100
AcDbPolyline
 62
7
  6
CONTINUOUS
 90
11
 70
0
 10
14.1256070011
 20
8.4911279597
 10
14.168685277
 20
8.4731838554
 10
14.212016026
 20
8.4463588031
 10
14.2542563292
 20
8.4115144316
 10
14.2940976991
 20
8.3697655878
 10
14.3303073973
 20
8.3224451338
 10
14.3617673586
 20
8.2710618606
 10
14.3875094955
 20
8.2172528469
 10
14.4067462664
 20
8.1627317663
 10
14.4188955429
 20
8.1092347769
 10
14.4235989911
 20
8.0584656998
  0
LWPOLYLINE
  5
5B3
100
AcDbEntity
  8
0
100
AcDbPolyline
 62
7
  6
CONTINUOUS
 90
11
 70
0
 10
14.2131190332
 20
8.5392684055
 10
14.2562524949
 20
8.5207491935
 10
14.2995542893
 20
8.493394909
 10
14.3416824118
 20
8.458083892
 10
14.3813319171
 20
8.4159457239
 10
14.417276125
 20
8.3683255603
 10
14.4484053536
 20
8.3167416557
 10
14.4737619586
 20
8.2628374241
 10
14.4925705718
 20
8.2083295456
 10
14.5042625843
 20
8.1549537614
 10
14.5084941009
 20
8.1044100654
  0
LWPOLYLINE
  5
5B4
100
AcDbEntity
  8
0
100
AcDbPolyline
 62
7
  6
CONTINUOUS
 90
11
 70
0
 10
14.2002671947
 20
8.5408961279
 10
14.2449971604
 20
8.5204901753
 10
14.2897321226
 20
8.4911060881
 10
14.3324907006
 20
8.4542677521
 10
14.3725336142
 20
8.4108879561
 10
14.4087671775
 20
8.3622618112
 10
14.4403142121
 20
8.3095812189
 10
14.4660720586
 20
8.2547004551
 10
14.4855798121
 20
8.1983723107
 10
14.4978601718
 20
8.1429459779
 10
14.5024545988
 20
8.0909748057
  0
LWPOLYLINE
  5
5B5
100
AcDbEntity
  8
0
100
AcDbPolyline
 62
7
  6
CONTINUOUS
 90
11
 70
0
 10
14.1438262177
 20
8.5081914675
 10
14.1885576307
 20
8.4877589249
 10
14.2332882043
 20
8.458352171
 10
14.2760327168
 20
8.42150125
 10
14.3159674528
 20
8.3782258349
 10
14.3525256865
 20
8.3291134207
 10
14.3841975624
 20
8.276072002
 10
14.4098660788
 20
8.2211504239
 10
14.4292170885
 20
8.1649884008
 10
14.4413505673
 20
8.1099096742
 10
14.4458862918
 20
8.0583152733
  0
LWPOLYLINE
  5
5B6
100
AcDbEntity
  8
0
100
AcDbPolyline
 62
7
  6
CONTINUOUS
 90
11
 70
0
 10
14.1720925003
 20
8.524527572
 10
14.2167945222
 20
8.5041150206
 10
14.2614978427
 20
8.474738487
 10
14.3042232562
 20
8.4379217889
 10
14.3441483755
 20
8.3946801278
 10
14.3804808782
 20
8.3459352515
 10
14.4120973735
 20
8.2931250211
 10
14.4378340683
 20
8.2382574702
 10
14.4573173322
 20
8.1819663701
 10
14.4695817311
 20
8.1265796436
 10
14.4741704453
 20
8.0746450395
  0
LWPOLYLINE
  5
5B7
100
AcDbEntity
  8
0
100
AcDbPolyline
 62
7
  6
CONTINUOUS
 90
11
 70
0
 10
14.1982146759
 20
8.5181424528
 10
14.2415454249
 20
8.4967843257
 10
14.2846237008
 20
8.466836775
 10
14.3261145563
 20
8.4292600255
 10
14.3647331689
 20
8.3852552014
 10
14.3992854095
 20
8.3362263996
 10
14.4287055491
 20
8.2837363539
 10
14.4520899094
 20
8.2294570905
 10
14.4687253978
 20
8.1751171315
 10
14.4781120241
 20
8.1224469158
 10
14.4799786876
 20
8.0731241585
  0
LWPOLYLINE
  5
5B8
100
AcDbEntity
  8
0
100
AcDbPolyline
 62
7
  6
CONTINUOUS
 90
12
 70
0
 10
14.2410067392
 20
8.5246049898
 10
14.2527169757
 20
8.5187079727
 10
14.2960187702
 20
8.4913536883
 10
14.3381468926
 20
8.4560426712
 10
14.3777963979
 20
8.4139045032
 10
14.4137406059
 20
8.3662843395
 10
14.4448698344
 20
8.314700435
 10
14.4702264394
 20
8.2607962033
 10
14.4890350526
 20
8.2062883249
 10
14.5007270651
 20
8.1529125406
 10
14.5049585817
 20
8.1023688447
 10
14.5040940638
 20
8.0768294627
  0
LWPOLYLINE
  5
5B9
100
AcDbEntity
  8
0
100
AcDbPolyline
 62
7
  6
CONTINUOUS
 90
12
 70
0
 10
14.2127225857
 20
8.5082752236
 10
14.2380099057
 20
8.494743105
 10
14.2810881816
 20
8.4647955543
 10
14.3225790371
 20
8.4272188048
 10
14.3611976497
 20
8.3832139806
 10
14.3957498903
 20
8.3341851788
 10
14.4251700299
 20
8.2816951332
 10
14.4485543902
 20
8.2274158697
 10
14.4651898786
 20
8.1730759107
 10
14.4745765049
 20
8.1204056951
 10
14.4764431685
 20
8.0710829377
 10
14.4758099103
 20
8.0604996965
  0
LWPOLYLINE
  5
5BA
100
AcDbEntity
  8
0
100
AcDbPolyline
 62
7
  6
CONTINUOUS
 90
12
 70
0
 10
14.2975750461
 20
8.5572645221
 10
14.3255761348
 20
8.5421036701
 10
14.3685939965
 20
8.5116484941
 10
14.4099422363
 20
8.4736324894
 10
14.4483405349
 20
8.4292706504
 10
14.4826017198
 20
8.3799783468
 10
14.5116692524
 20
8.3273266329
 10
14.5346505883
 20
8.2729926396
 10
14.5508453608
 20
8.2187066173
 10
14.5597674957
 20
8.1661973017
 10
14.5611605591
 20
8.1171373273
 10
14.5606623708
 20
8.109488995
  0
LWPOLYLINE
  5
5BB
100
AcDbEntity
  8
0
100
AcDbPolyline
 62
7
  6
CONTINUOUS
 90
11
 70
0
 10
14.2709760427
 20
8.5438492042
 10
14.3143699882
 20
8.5191741658
 10
14.3570076377
 20
8.4862394549
 10
14.3975679572
 20
8.446099619
 10
14.4347955067
 20
8.400036714
 10
14.4675400814
 20
8.3495198229
 10
14.4947930309
 20
8.2961586673
 10
14.5157191082
 20
8.2416527794
 10
14.5296828435
 20
8.1877378375
 10
14.5362686094
 20
8.1361308599
 10
14.5352937455
 20
8.088475989
  0
LWPOLYLINE
  5
5BC
100
AcDbEntity
  8
0
100
AcDbPolyline
 62
7
  6
CONTINUOUS
 90
11
 70
0
 10
14.2692908927
 20
8.5409347559
 10
14.310834469
 20
8.517132945
 10
14.3534721185
 20
8.4841982342
 10
14.394032438
 20
8.4440583982
 10
14.4312599875
 20
8.3979954932
 10
14.4640045622
 20
8.3474786021
 10
14.4912575117
 20
8.2941174465
 10
14.5121835891
 20
8.2396115586
 10
14.5261473243
 20
8.1856966167
 10
14.5327330902
 20
8.1340896391
 10
14.5323782173
 20
8.0931592288
  0
LWPOLYLINE
  5
5BD
100
AcDbEntity
  8
0
100
AcDbPolyline
 62
7
  6
CONTINUOUS
 90
13
 70
0
 10
14.4935380047
 20
8.5604415376
 10
14.5312841174
 20
8.5195498161
 10
14.565736274
 20
8.4737005365
 10
14.5961740203
 20
8.4237726616
 10
14.6213447652
 20
8.3718367653
 10
14.6406760288
 20
8.3193688792
 10
14.6538328146
 20
8.267548033
 10
14.6605465156
 20
8.2173797953
 10
14.6605457449
 20
8.1703228485
 10
14.6537107733
 20
8.1275237611
 10
14.6404161498
 20
8.0910238682
 10
14.621998081
 20
8.0624576278
 10
14.6194218899
 20
8.0600399058
  0
LWPOLYLINE
  5
5BE
100
AcDbEntity
  8
0
100
AcDbPolyline
 62
9
  6
CONTINUOUS
 90
11
 70
0
 10
14.9659633633
 20
8.0536217352
 10
14.9607261072
 20
8.14119066
 10
14.9451217863
 20
8.2330202161
 10
14.9194683529
 20
8.3272432869
 10
14.884288687
 20
8.4219406578
 10
14.8402994157
 20
8.5151845125
 10
14.7883964136
 20
8.6050767682
 10
14.729636556
 20
8.6897876916
 10
14.6652162005
 20
8.7675931198
 10
14.5964468341
 20
8.8369095301
 10
14.5247283819
 20
8.8963262456
  0
LINE
  5
5BF
100
AcDbEntity
  8
0
100
AcDbLine
 62
7
  6
CONTINUOUS
 10
14.9501366702
 20
7.5276759474
 11
14.9501366702
 21
7.5141080767
  0
LINE
  5
5C0
100
AcDbEntity
  8
0
100
AcDbLine
 62
7
  6
CONTINUOUS
 10
14.9551366702
 20
7.5549331975
 11
14.9551366702
 21
7.7320409053
  0
LINE
  5
5C1
100
AcDbEntity
  8
0
100
AcDbLine
 62
9
  6
CONTINUOUS
 10
14.7068699
 20
7.6523346537
 11
14.6784019557
 21
7.6440638474
  0
LINE
  5
5C2
100
AcDbEntity
  8
0
100
AcDbLine
 62
7
  6
CONTINUOUS
 10
13.9561967215
 20
8.437724956
 11
13.9158470326
 21
8.4379001785
  0
LWPOLYLINE
  5
5C3
100
AcDbEntity
  8
0
100
AcDbPolyline
 62
7
  6
CONTINUOUS
 90
3
 70
0
 10
13.9826120512
 20
8.432734169
 10
13.983655693
 20
8.4326863187
 10
14.0254885433
 20
8.4213227749
  0
LINE
  5
5C4
100
AcDbEntity
  8
0
100
AcDbLine
 62
7
  6
CONTINUOUS
 10
14.0458949415
 20
8.4636550786
 11
14.0532230642
 21
8.4627798302
  0
LINE
  5
5C5
100
AcDbEntity
  8
0
100
AcDbLine
 62
7
  6
CONTINUOUS
 10
14.1321953535
 20
8.5122817789
 11
14.1406929808
 21
8.5111440964
  0
LINE
  5
5C6
100
AcDbEntity
  8
0
100
AcDbLine
 62
7
  6
CONTINUOUS
 10
14.1122532602
 20
8.4938578573
 11
14.1256070011
 21
8.4911279597
  0
LINE
  5
5C7
100
AcDbEntity
  8
0
100
AcDbLine
 62
7
  6
CONTINUOUS
 10
14.2001008419
 20
8.5421094284
 11
14.2131190332
 21
8.5392684055
  0
LINE
  5
5C8
100
AcDbEntity
  8
0
100
AcDbLine
 62
7
  6
CONTINUOUS
 10
14.1745020743
 20
8.5249236793
 11
14.1982146759
 21
8.5181424528
  0
LINE
  5
5C9
100
AcDbEntity
  8
0
100
AcDbLine
 62
7
  6
CONTINUOUS
 10
14.2281707158
 20
8.55947083
 11
14.2709760427
 21
8.5438492042
  0
LWPOLYLINE
  5
5CA
100
AcDbEntity
  8
0
100
AcDbPolyline
 62
7
  6
CONTINUOUS
 90
3
 70
0
 10
14.3132662548
 20
8.5795918028
 10
14.281331004
 20
8.5924808309
 10
14.2385933075
 20
8.6020587524
  0
LWPOLYLINE
  5
5CB
100
AcDbEntity
  8
0
100
AcDbPolyline
 62
7
  6
CONTINUOUS
 90
4
 70
0
 10
14.2849821013
 20
8.5632620366
 10
14.2581678841
 20
8.5744011089
 10
14.2156342217
 20
8.5850495516
 10
14.1751879139
 20
8.5860662595
  0
LWPOLYLINE
  5
5CC
100
AcDbEntity
  8
0
100
AcDbPolyline
 62
7
  6
CONTINUOUS
 90
4
 70
0
 10
14.2566979478
 20
8.5469322705
 10
14.2300420289
 20
8.558015288
 10
14.1873159979
 20
8.5687246214
 10
14.1469557566
 20
8.5697417684
  0
LWPOLYLINE
  5
5CD
100
AcDbEntity
  8
0
100
AcDbPolyline
 62
7
  6
CONTINUOUS
 90
11
 70
0
 10
14.2979960176
 20
8.5882497137
 10
14.3406816157
 20
8.569962799
 10
14.3835449511
 20
8.5430146933
 10
14.425284811
 20
8.5082530362
 10
14.4646347312
 20
8.4667671342
 10
14.5004021661
 20
8.4198542699
 10
14.5315053741
 20
8.3689795776
 10
14.5570068741
 20
8.3157307278
 10
14.576142442
 20
8.261768822
 10
14.5883447467
 20
8.208777016
 10
14.593260898
 20
8.158408461
  0
LINE
  5
5CE
100
AcDbEntity
  8
0
100
AcDbLine
 62
7
  6
CONTINUOUS
 10
14.3082009498
 20
8.6079941088
 11
14.3527962479
 21
8.5887168389
  0
LWPOLYLINE
  5
5CF
100
AcDbEntity
  8
0
100
AcDbPolyline
 62
7
  6
CONTINUOUS
 90
11
 70
0
 10
14.2850378299
 20
8.5899143868
 10
14.3294797321
 20
8.5696850601
 10
14.3740616705
 20
8.5404913808
 10
14.4168146687
 20
8.5037685824
 10
14.4571219757
 20
8.4601956895
 10
14.49375462
 20
8.4110493247
 10
14.5251976092
 20
8.3585124207
 10
14.5509287437
 20
8.3036793951
 10
14.5704340468
 20
8.2473553749
 10
14.5827131046
 20
8.1919322534
 10
14.5873070593
 20
8.1399641041
  0
LWPOLYLINE
  5
5D0
100
AcDbEntity
  8
0
100
AcDbPolyline
 62
7
  6
CONTINUOUS
 90
11
 70
0
 10
14.2285377874
 20
8.5572306958
 10
14.2732691069
 20
8.5368267359
 10
14.318005966
 20
8.5074436741
 10
14.3607680097
 20
8.4706041524
 10
14.4008678112
 20
8.4271573299
 10
14.4371157374
 20
8.3784953178
 10
14.4686006499
 20
8.3259066958
 10
14.4943537479
 20
8.2710362628
 10
14.5138627767
 20
8.2147062539
 10
14.526144013
 20
8.1592777427
 10
14.5307387523
 20
8.1073045718
  0
LWPOLYLINE
  5
5D1
100
AcDbEntity
  8
0
100
AcDbPolyline
 62
7
  6
CONTINUOUS
 90
11
 70
0
 10
14.2569119748
 20
8.5735285659
 10
14.3016177796
 20
8.553120583
 10
14.3463261837
 20
8.5237460843
 10
14.3890628539
 20
8.4869235561
 10
14.4292262826
 20
8.4433973785
 10
14.4656034695
 20
8.3945205614
 10
14.4969654286
 20
8.3420850195
 10
14.5226798912
 20
8.287263052
 10
14.5421665349
 20
8.2309671212
 10
14.5544333374
 20
8.175574411
 10
14.5590229058
 20
8.123634338
  0
LWPOLYLINE
  5
5D2
100
AcDbEntity
  8
0
100
AcDbPolyline
 62
7
  6
CONTINUOUS
 90
11
 70
0
 10
14.339808757
 20
8.5997234707
 10
14.3826929699
 20
8.5785952412
 10
14.4253381754
 20
8.5490484121
 10
14.4664499075
 20
8.5120109993
 10
14.5047811293
 20
8.4686426971
 10
14.539170803
 20
8.4202990091
 10
14.5685797998
 20
8.3684893238
 10
14.5921230395
 20
8.3148302305
 10
14.6090968653
 20
8.2609955191
 10
14.6190008073
 20
8.2086644113
 10
14.6215530619
 20
8.1594696235
  0
LWPOLYLINE
  5
5D3
100
AcDbEntity
  8
0
100
AcDbPolyline
 62
7
  6
CONTINUOUS
 90
12
 70
0
 10
14.3824275066
 20
8.6062538206
 10
14.3937572185
 20
8.6005584629
 10
14.436817656
 20
8.5734578406
 10
14.4787368289
 20
8.5384766112
 10
14.5182310221
 20
8.4967211238
 10
14.5540922203
 20
8.4495091976
 10
14.5852258179
 20
8.3983289829
 10
14.6106847893
 20
8.344792507
 10
14.6296992514
 20
8.2905853516
 10
14.6417004973
 20
8.2374140349
 10
14.6463387488
 20
8.1869527393
 10
14.6455148312
 20
8.1584782935
  0
LWPOLYLINE
  5
5D4
100
AcDbEntity
  8
0
100
AcDbPolyline
 62
7
  6
CONTINUOUS
 90
11
 70
0
 10
14.2857572099
 20
8.5660629847
 10
14.329111654
 20
8.5441448908
 10
14.3721295157
 20
8.5136897148
 10
14.4134777555
 20
8.4756737102
 10
14.4518760541
 20
8.4313118711
 10
14.486137239
 20
8.3820195675
 10
14.5152047716
 20
8.3293678537
 10
14.5381861075
 20
8.2750338604
 10
14.55438088
 20
8.220747838
 10
14.5633030149
 20
8.1682385224
 10
14.5646960783
 20
8.119178548
  0
LWPOLYLINE
  5
5D5
100
AcDbEntity
  8
0
100
AcDbPolyline
 62
7
  6
CONTINUOUS
 90
12
 70
0
 10
14.3258591996
 20
8.5735942883
 10
14.3385448018
 20
8.5671773032
 10
14.3815893912
 20
8.539814865
 10
14.4234516648
 20
8.5046029699
 10
14.4628496837
 20
8.4626551679
 10
14.4985784348
 20
8.4152952813
 10
14.529547447
 20
8.3640160795
 10
14.5548148326
 20
8.3104326797
 10
14.5736166892
 20
8.2562321285
 10
14.5853909465
 20
8.2031207377
 10
14.5897949124
 20
8.1527708193
 10
14.5889465242
 20
8.1258187611
  0
LWPOLYLINE
  5
5D6
100
AcDbEntity
  8
0
100
AcDbPolyline
 62
7
  6
CONTINUOUS
 90
11
 70
0
 10
14.3541433531
 20
8.5899240544
 10
14.3877404794
 20
8.5712964128
 10
14.4303758372
 20
8.5400081184
 10
14.4712009066
 20
8.5013810461
 10
14.5089661268
 20
8.4566353561
 10
14.542517455
 20
8.4071822114
 10
14.5708323923
 20
8.3545797258
 10
14.5930519019
 20
8.3004843251
 10
14.6085072261
 20
8.2465990387
 10
14.616740762
 20
8.1946203371
 10
14.6172306777
 20
8.1421485273
  0
LWPOLYLINE
  5
5D7
100
AcDbEntity
  8
0
100
AcDbPolyline
 62
7
  6
CONTINUOUS
 90
11
 70
0
 10
14.3817300736
 20
8.6102690081
 10
14.4246799078
 20
8.5863676672
 10
14.4669747452
 20
8.5543169176
 10
14.5073309563
 20
8.5151222199
 10
14.544524872
 20
8.4700099912
 10
14.5774306304
 20
8.4203896735
 10
14.6050549991
 20
8.3678101407
 10
14.6265680953
 20
8.3139117926
 10
14.6413290527
 20
8.2603758193
 10
14.6489058439
 20
8.2088722026
 10
14.6490886422
 20
8.1610080655
  0
LINE
  5
5D8
100
AcDbEntity
  8
0
100
AcDbLine
 62
7
  6
CONTINUOUS
 10
14.4505511569
 20
8.5956422708
 11
14.406509466
 21
8.6228795656
  0
LWPOLYLINE
  5
5D9
100
AcDbEntity
  8
0
100
AcDbPolyline
 62
7
  6
CONTINUOUS
 90
10
 70
0
 10
14.3527962479
 20
8.5887168389
 10
14.3978553377
 20
8.5601696297
 10
14.4413151707
 20
8.5237175236
 10
14.4823749581
 20
8.4801470029
 10
14.5198792456
 20
8.4305866544
 10
14.5521260661
 20
8.3773740081
 10
14.5784011458
 20
8.3219889926
 10
14.5983376803
 20
8.2650153142
 10
14.6108969266
 20
8.2089008888
 10
14.6155912128
 20
8.1562938703
  0
LWPOLYLINE
  5
5DA
100
AcDbEntity
  8
0
100
AcDbPolyline
 62
7
  6
CONTINUOUS
 90
3
 70
0
 10
14.4161858464
 20
8.6192465321
 10
14.4553492956
 20
8.5930764673
 10
14.4935380047
 20
8.5604415376
  0
LINE
  5
5DB
100
AcDbEntity
  8
0
100
AcDbLine
 62
7
  6
CONTINUOUS
 10
14.4935380047
 20
8.5604415376
 11
14.4505511569
 21
8.5956422708
  0
LWPOLYLINE
  5
5DC
100
AcDbEntity
  8
0
100
AcDbPolyline
 62
9
  6
CONTINUOUS
 90
19
 70
0
 10
15.050816177
 20
8.0536219392
 10
15.0455771242
 20
8.1446414016
 10
15.029958548
 20
8.2399975706
 10
15.0042543397
 20
8.3378961499
 10
14.9689481698
 20
8.436495003
 10
14.924704387
 20
8.5339388167
 10
14.8723555169
 20
8.6283940117
 10
14.8128865969
 20
8.718083245
 10
14.7474166408
 20
8.8013188537
 10
14.6771775826
 20
8.8765346114
 10
14.6034910956
 20
8.9423151994
 10
14.5277437224
 20
8.9974228386
 10
14.4513607849
 20
9.0408205804
 10
14.3757795644
 20
9.071691819
 10
14.3024222564
 20
9.0894556568
 10
14.2326692096
 20
9.0937778357
 10
14.1678329518
 20
9.0845770261
 10
14.109133493
 20
9.0620263576
 10
14.1002190312
 20
9.0571075566
  0
LWPOLYLINE
  5
5DD
100
AcDbEntity
  8
0
100
AcDbPolyline
 62
7
  6
CONTINUOUS
 90
3
 70
0
 10
14.9473011774
 20
7.5159399701
 10
14.9548219545
 20
7.5470681288
 10
14.9551321496
 20
7.5549163664
  0
LWPOLYLINE
  5
5DE
100
AcDbEntity
  8
0
100
AcDbPolyline
 62
9
  6
CONTINUOUS
 90
7
 70
0
 10
15.22575239
 20
7.8865479831
 10
15.2678567703
 20
7.9174092805
 10
15.3088998757
 20
7.9639647199
 10
15.3419568958
 20
8.021507272
 10
15.3662457304
 20
8.088532681
 10
15.3812128604
 20
8.163738762
 10
15.3863369566
 20
8.2461090628
  0
LWPOLYLINE
  5
5DF
100
AcDbEntity
  8
0
100
AcDbPolyline
 62
7
  6
CONTINUOUS
 90
7
 70
0
 10
15.2257050945
 20
7.8865209008
 10
15.2723091741
 20
7.9202689934
 10
15.3175025974
 20
7.9699165521
 10
15.3549035339
 20
8.0323951843
 10
15.3824459904
 20
8.1058996797
 10
15.3988252712
 20
8.1874286832
 10
15.403910373
 20
8.2706052089
  0
LWPOLYLINE
  5
5E0
100
AcDbEntity
  8
0
100
AcDbPolyline
 62
7
  6
CONTINUOUS
 90
7
 70
0
 10
15.1663534663
 20
7.8522630672
 10
15.1934989989
 20
7.8702484216
 10
15.2412024759
 20
7.9162902305
 10
15.2793514747
 20
7.9749384127
 10
15.3071693918
 20
8.0449990605
 10
15.3240899346
 20
8.125045941
 10
15.3297686496
 20
8.2134495305
  0
LWPOLYLINE
  5
5E1
100
AcDbEntity
  8
0
100
AcDbPolyline
 62
9
  6
CONTINUOUS
 90
8
 70
0
 10
14.8877155057
 20
7.6931155102
 10
14.9010808486
 20
7.701374527
 10
14.9453175919
 20
7.7379416028
 10
14.9824950245
 20
7.7844742869
 10
15.0120316755
 20
7.8402447883
 10
15.0334655792
 20
7.9043808327
 10
15.0464615003
 20
7.9758793052
 10
15.050816177
 20
8.0536219392
  0
LINE
  5
5E2
100
AcDbEntity
  8
0
100
AcDbLine
 62
7
  6
CONTINUOUS
 10
15.1564149638
 20
7.8482482886
 11
14.8877155057
 21
7.6931155102
  0
LINE
  5
5E3
100
AcDbEntity
  8
0
100
AcDbLine
 62
7
  6
CONTINUOUS
 10
15.2258472477
 20
7.8866027489
 11
15.1663573103
 21
7.8522564226
  0
LINE
  5
5E4
100
AcDbEntity
  8
0
100
AcDbLine
 62
7
  6
CONTINUOUS
 10
15.1446323408
 20
7.8414456287
 11
15.1663534663
 21
7.8522630672
  0
LINE
  5
5E5
100
AcDbEntity
  8
0
100
AcDbLine
 62
7
  6
CONTINUOUS
 10
14.2185409014
 20
8.5608980601
 11
14.2281707158
 21
8.55947083
  0
LINE
  5
5E6
100
AcDbEntity
  8
0
100
AcDbLine
 62
7
  6
CONTINUOUS
 10
14.2844444351
 20
8.5912242539
 11
14.2979960176
 21
8.5882497137
  0
LINE
  5
5E7
100
AcDbEntity
  8
0
100
AcDbLine
 62
7
  6
CONTINUOUS
 10
14.3156151569
 20
8.606689748
 11
14.339808757
 21
8.5997234707
  0
LINE
  5
5E8
100
AcDbEntity
  8
0
100
AcDbLine
 62
7
  6
CONTINUOUS
 10
14.2565170127
 20
8.57481441
 11
14.2857572099
 21
8.5660629847
  0
LINE
  5
5E9
100
AcDbEntity
  8
0
100
AcDbLine
 62
7
  6
CONTINUOUS
 10
14.3394291305
 20
8.6252675351
 11
14.3817300736
 21
8.6102690081
  0
LWPOLYLINE
  5
5EA
100
AcDbEntity
  8
0
100
AcDbPolyline
 62
7
  6
CONTINUOUS
 90
4
 70
0
 10
14.3415504083
 20
8.5959215689
 10
14.3146397082
 20
8.6070947491
 10
14.2721655579
 20
8.6177143312
 10
14.2317341008
 20
8.6187235421
  0
LWPOLYLINE
  5
5EB
100
AcDbEntity
  8
0
100
AcDbPolyline
 62
7
  6
CONTINUOUS
 90
4
 70
0
 10
14.3698345617
 20
8.6122513351
 10
14.3434260061
 20
8.6232465248
 10
14.3008723599
 20
8.6339836722
 10
14.2604005625
 20
8.6350917188
  0
LWPOLYLINE
  5
5EC
100
AcDbEntity
  8
0
100
AcDbPolyline
 62
7
  6
CONTINUOUS
 90
3
 70
0
 10
14.406509466
 20
8.6228795656
 10
14.3627095197
 20
8.6413225875
 10
14.3204405124
 20
8.650404403
  0
LWPOLYLINE
  5
5ED
100
AcDbEntity
  8
0
100
AcDbPolyline
 62
7
  6
CONTINUOUS
 90
11
 70
0
 10
14.3415096541
 20
8.622608027
 10
14.3854216591
 20
8.6026913492
 10
14.4296895155
 20
8.5738599196
 10
14.472404207
 20
8.5373715641
 10
14.51290176
 20
8.4938031968
 10
14.5499197205
 20
8.4443110953
 10
14.5817737175
 20
8.3911573003
 10
14.6075185512
 20
8.3362862014
 10
14.6270124984
 20
8.2799792567
 10
14.6392840821
 20
8.2245746934
 10
14.6438753663
 20
8.1726236364
  0
LWPOLYLINE
  5
5EE
100
AcDbEntity
  8
0
100
AcDbPolyline
 62
9
  6
CONTINUOUS
 90
5
 70
0
 10
14.4427022403
 20
8.622104026
 10
14.4008628101
 20
8.6420074473
 10
14.3604397103
 20
8.6527747356
 10
14.3226355461
 20
8.654166612
 10
14.3085749161
 20
8.6508849125
  0
LWPOLYLINE
  5
5EF
100
AcDbEntity
  8
0
100
AcDbPolyline
 62
9
  6
CONTINUOUS
 90
6
 70
0
 10
14.4515410382
 20
8.6374133582
 10
14.408169037
 20
8.6580471293
 10
14.3662523426
 20
8.6692142818
 10
14.3270510092
 20
8.6706597235
 10
14.2916845262
 20
8.6624071206
 10
14.2615584449
 20
8.6449499801
  0
LINE
  5
5F0
100
AcDbEntity
  8
0
100
AcDbLine
 62
7
  6
CONTINUOUS
 10
14.3984634004
 20
8.6284169396
 11
14.3981187152
 21
8.6285811012
  0
LINE
  5
5F1
100
AcDbEntity
  8
0
100
AcDbLine
 62
7
  6
CONTINUOUS
 10
14.3981187152
 20
8.6285811012
 11
14.4161858464
 21
8.6192465321
  0
LINE
  5
5F2
100
AcDbEntity
  8
0
100
AcDbLine
 62
7
  6
CONTINUOUS
 10
14.3984634018
 20
8.6284169199
 11
14.4161858464
 21
8.6192465321
  0
LWPOLYLINE
  5
5F3
100
AcDbEntity
  8
0
100
AcDbPolyline
 62
7
  6
CONTINUOUS
 90
6
 70
0
 10
13.9043345138
 20
8.4192350948
 10
13.8718270748
 20
8.4102581716
 10
13.8438187933
 20
8.3928741472
 10
13.821119754
 20
8.3677265603
 10
13.8041410098
 20
8.3353468988
 10
13.7933632765
 20
8.2964464358
  0
LINE
  5
5F4
100
AcDbEntity
  8
0
100
AcDbLine
 62
7
  6
CONTINUOUS
 10
13.9158470326
 20
8.4379001785
 11
13.8794732193
 21
8.4281267794
  0
LWPOLYLINE
  5
5F5
100
AcDbEntity
  8
0
100
AcDbPolyline
 62
7
  6
CONTINUOUS
 90
3
 70
0
 10
14.1188756518
 20
8.553432524
 10
14.0821757975
 20
8.5446204534
 10
14.065923611
 20
8.5367452651
  0
LWPOLYLINE
  5
5F6
100
AcDbEntity
  8
0
100
AcDbPolyline
 62
7
  6
CONTINUOUS
 90
3
 70
0
 10
14.0907099511
 20
8.5371145402
 10
14.0541321049
 20
8.5283862049
 10
14.0376471929
 20
8.5204199667
  0
LWPOLYLINE
  5
5F7
100
AcDbEntity
  8
0
100
AcDbPolyline
 62
7
  6
CONTINUOUS
 90
4
 70
0
 10
14.0810020507
 20
8.5438994827
 10
14.1175798969
 20
8.552627818
 10
14.1575247712
 20
8.5515915164
 10
14.2002671947
 20
8.5408961279
  0
LWPOLYLINE
  5
5F8
100
AcDbEntity
  8
0
100
AcDbPolyline
 62
7
  6
CONTINUOUS
 90
3
 70
0
 10
13.9774744
 20
8.471785641
 10
13.9411112508
 20
8.4631129207
 10
13.9245199229
 20
8.455106298
  0
LWPOLYLINE
  5
5F9
100
AcDbEntity
  8
0
100
AcDbPolyline
 62
7
  6
CONTINUOUS
 90
4
 70
0
 10
13.9679811966
 20
8.4786261985
 10
14.0043443458
 20
8.4872989189
 10
14.0445034018
 20
8.4862561265
 10
14.0872417501
 20
8.4755376671
  0
LWPOLYLINE
  5
5FA
100
AcDbEntity
  8
0
100
AcDbPolyline
 62
7
  6
CONTINUOUS
 90
3
 70
0
 10
14.0058339636
 20
8.4881229091
 10
13.9695917921
 20
8.4795200535
 10
13.9528129381
 20
8.4714411806
  0
LWPOLYLINE
  5
5FB
100
AcDbEntity
  8
0
100
AcDbPolyline
 62
7
  6
CONTINUOUS
 90
4
 70
0
 10
13.9964617379
 20
8.4950333314
 10
14.0327039094
 20
8.503636187
 10
14.0727957008
 20
8.5025847361
 10
14.1155556697
 20
8.4918568749
  0
LWPOLYLINE
  5
5FC
100
AcDbEntity
  8
0
100
AcDbPolyline
 62
7
  6
CONTINUOUS
 90
3
 70
0
 10
14.034169016
 20
8.5044577168
 10
13.997932822
 20
8.4958721556
 10
13.981097845
 20
8.4877713817
  0
LWPOLYLINE
  5
5FD
100
AcDbEntity
  8
0
100
AcDbPolyline
 62
7
  6
CONTINUOUS
 90
4
 70
0
 10
14.0248027678
 20
8.5113854334
 10
14.0610389618
 20
8.5199709947
 10
14.1010719298
 20
8.5189156275
 10
14.1438262177
 20
8.5081914675
  0
LWPOLYLINE
  5
5FE
100
AcDbEntity
  8
0
100
AcDbPolyline
 62
7
  6
CONTINUOUS
 90
3
 70
0
 10
13.9495287139
 20
8.455489242
 10
13.9129203906
 20
8.4468199543
 10
13.8962242009
 20
8.4387698512
  0
LWPOLYLINE
  5
5FF
100
AcDbEntity
  8
0
100
AcDbPolyline
 62
7
  6
CONTINUOUS
 90
4
 70
0
 10
13.9397903364
 20
8.4623332322
 10
13.9763986597
 20
8.4710025198
 10
14.0166932463
 20
8.4698584641
 10
14.0594436604
 20
8.459034971
  0
LWPOLYLINE
  5
600
100
AcDbEntity
  8
0
100
AcDbPolyline
 62
7
  6
CONTINUOUS
 90
3
 70
0
 10
14.0625794989
 20
8.5207999194
 10
14.0262244585
 20
8.512204858
 10
14.0093753426
 20
8.5040973051
  0
LWPOLYLINE
  5
601
100
AcDbEntity
  8
0
100
AcDbPolyline
 62
7
  6
CONTINUOUS
 90
4
 70
0
 10
14.0530944043
 20
8.5277181359
 10
14.0894494447
 20
8.5363131973
 10
14.129368339
 20
8.5352436533
 10
14.1720925003
 20
8.524527572
  0
LWPOLYLINE
  5
602
100
AcDbEntity
  8
0
100
AcDbPolyline
 62
7
  6
CONTINUOUS
 90
4
 70
0
 10
13.9136596601
 20
8.4468294261
 10
13.9511416711
 20
8.4549366362
 10
13.9921846782
 20
8.452945027
 10
14.0356521464
 20
8.4410547544
  0
LWPOLYLINE
  5
603
100
AcDbEntity
  8
0
100
AcDbPolyline
 62
7
  6
CONTINUOUS
 90
5
 70
0
 10
13.8882766092
 20
8.4318605654
 10
13.9255990943
 20
8.4395196976
 10
13.9666454645
 20
8.4372080293
 10
14.0101731874
 20
8.4250114993
 10
14.0304247199
 20
8.4162941412
  0
LINE
  5
604
100
AcDbEntity
  8
0
100
AcDbLine
 62
7
  6
CONTINUOUS
 10
14.2385933075
 20
8.6020587524
 11
14.1980376804
 21
8.6017409833
  0
LWPOLYLINE
  5
605
100
AcDbEntity
  8
0
100
AcDbPolyline
 62
7
  6
CONTINUOUS
 90
3
 70
0
 10
14.2249076262
 20
8.6172542611
 10
14.2654632533
 20
8.6175720302
 10
14.3082009498
 20
8.6079941088
  0
LINE
  5
606
100
AcDbEntity
  8
0
100
AcDbLine
 62
7
  6
CONTINUOUS
 10
14.3304814468
 20
8.6265126995
 11
14.3394291305
 21
8.6252675351
  0
LWPOLYLINE
  5
607
100
AcDbEntity
  8
0
100
AcDbPolyline
 62
7
  6
CONTINUOUS
 90
5
 70
0
 10
14.924870375
 20
7.445756864
 10
14.9318525124
 20
7.4555982272
 10
14.943509518
 20
7.4785191247
 10
14.9493978696
 20
7.5021645107
 10
14.9501366702
 20
7.5141080767
  0
LINE
  5
608
100
AcDbEntity
  8
0
100
AcDbLine
 62
7
  6
CONTINUOUS
 10
14.924870375
 20
7.445756864
 11
14.8985179482
 21
7.4117356382
  0
LWPOLYLINE
  5
609
100
AcDbEntity
  8
0
100
AcDbPolyline
 62
7
  6
CONTINUOUS
 90
4
 70
0
 10
14.8687340391
 20
7.4345021749
 10
14.9035116193
 20
7.4586820685
 10
14.9300013575
 20
7.4861396789
 10
14.9473011774
 20
7.5159399701
  0
LWPOLYLINE
  5
60A
100
AcDbEntity
  8
0
100
AcDbPolyline
 62
7
  6
CONTINUOUS
 90
4
 70
0
 10
14.844785991
 20
7.3666780325
 10
14.8702439347
 20
7.383757493
 10
14.8910084293
 20
7.4028368045
 10
14.8985134456
 20
7.4117340245
  0
LWPOLYLINE
  5
60B
100
AcDbEntity
  8
0
100
AcDbPolyline
 62
7
  6
CONTINUOUS
 90
4
 70
0
 10
14.8651984905
 20
7.3957182579
 10
14.8922943536
 20
7.4137720637
 10
14.9146641558
 20
7.4338684215
 10
14.924870375
 20
7.445756864
  0
LWPOLYLINE
  5
60C
100
AcDbEntity
  8
0
100
AcDbPolyline
 62
7
  6
CONTINUOUS
 90
15
 70
0
 10
14.8651984905
 20
7.3957182579
 10
14.83392816
 20
7.3800745273
 10
14.799119936
 20
7.3671593333
 10
14.7614824135
 20
7.3572355919
 10
14.721781784
 20
7.3505053219
 10
14.6808262376
 20
7.3471055323
 10
14.6394495114
 20
7.3471054328
 10
14.598493916
 20
7.3505050256
 10
14.5587931894
 20
7.3572351047
 10
14.5211555237
 20
7.3671586651
 10
14.4863471135
 20
7.3800736918
 10
14.4550765574
 20
7.395717272
 10
14.4279804339
 20
7.4137709476
 10
14.4056103419
 20
7.4338671978
 10
14.3954029654
 20
7.445756864
  0
LWPOLYLINE
  5
60D
100
AcDbEntity
  8
0
100
AcDbPolyline
 62
7
  6
CONTINUOUS
 90
3
 70
0
 10
14.2317341008
 20
8.6187235421
 10
14.1948239067
 20
8.6097437156
 10
14.1790426832
 20
8.6020541952
  0
LWPOLYLINE
  5
60E
100
AcDbEntity
  8
0
100
AcDbPolyline
 62
7
  6
CONTINUOUS
 90
4
 70
0
 10
14.2216938525
 20
8.6252569934
 10
14.2586040467
 20
8.6342368199
 10
14.2990355037
 20
8.6332276091
 10
14.3415096541
 20
8.622608027
  0
LWPOLYLINE
  5
60F
100
AcDbEntity
  8
0
100
AcDbPolyline
 62
7
  6
CONTINUOUS
 90
3
 70
0
 10
14.1751879139
 20
8.5860662595
 10
14.1382642838
 20
8.5770876846
 10
14.1224761144
 20
8.5693956673
  0
LWPOLYLINE
  5
610
100
AcDbEntity
  8
0
100
AcDbPolyline
 62
7
  6
CONTINUOUS
 90
4
 70
0
 10
14.1651342296
 20
8.5926009624
 10
14.2020578597
 20
8.6015795373
 10
14.2425041675
 20
8.6005628295
 10
14.2850378299
 20
8.5899143868
  0
LWPOLYLINE
  5
611
100
AcDbEntity
  8
0
100
AcDbPolyline
 62
7
  6
CONTINUOUS
 90
3
 70
0
 10
14.1469557566
 20
8.5697417684
 10
14.1100821203
 20
8.5607989841
 10
14.0941950573
 20
8.5530676902
  0
LWPOLYLINE
  5
612
100
AcDbEntity
  8
0
100
AcDbPolyline
 62
7
  6
CONTINUOUS
 90
4
 70
0
 10
14.1369520661
 20
8.5763122619
 10
14.1738257024
 20
8.5852550462
 10
14.2141859437
 20
8.5842378992
 10
14.2569119748
 20
8.5735285659
  0
LWPOLYLINE
  5
613
100
AcDbEntity
  8
0
100
AcDbPolyline
 62
7
  6
CONTINUOUS
 90
3
 70
0
 10
14.2604005625
 20
8.6350917188
 10
14.2234345787
 20
8.626204618
 10
14.2073253678
 20
8.6183831125
  0
LWPOLYLINE
  5
614
100
AcDbEntity
  8
0
100
AcDbPolyline
 62
7
  6
CONTINUOUS
 90
4
 70
0
 10
14.1090457433
 20
8.5601337312
 10
14.1457455976
 20
8.5689458018
 10
14.1857972671
 20
8.56792293
 10
14.2285377874
 20
8.5572306958
  0
LINE
  5
615
100
AcDbEntity
  8
0
100
AcDbLine
 62
7
  6
CONTINUOUS
 10
14.3204405124
 20
8.650404403
 11
14.280945564
 21
8.6498386807
  0
LWPOLYLINE
  5
616
100
AcDbEntity
  8
0
100
AcDbPolyline
 62
9
  6
CONTINUOUS
 90
14
 70
0
 10
14.5247283819
 20
8.8963262456
 10
14.45152072
 20
8.9446341226
 10
14.3783139715
 20
8.9808501379
 10
14.3065981897
 20
9.004237375
 10
14.2378330447
 20
9.0143200054
 10
14.1734181292
 20
9.0108929596
 10
14.1146644873
 20
8.9940260913
 10
14.0627679451
 20
8.9640627519
 10
14.0187847835
 20
8.9216128033
 10
13.9836102506
 20
8.8675402103
 10
13.9579603466
 20
8.8029454673
 10
13.9423572549
 20
8.7291432137
 10
13.9371187136
 20
8.6476354943
 10
13.9423515438
 20
8.5600812079
  0
LWPOLYLINE
  5
617
100
AcDbEntity
  8
0
100
AcDbPolyline
 62
7
  6
CONTINUOUS
 90
18
 70
0
 10
15.3297686496
 20
8.2134495305
 10
15.3240899346
 20
8.3084101871
 10
15.3071693918
 20
8.4079947854
 10
15.2793514747
 20
8.5101760703
 10
15.2412024759
 20
8.6128739255
 10
15.1934989989
 20
8.7139977188
 10
15.137212149
 20
8.8114888615
 10
15.0734877642
 20
8.9033627148
 10
15.0036230891
 20
8.9877489923
 10
14.929040367
 20
9.0629298325
 10
14.8512578871
 20
9.1273747704
 10
14.7718590765
 20
9.179771893
 10
14.6924602658
 20
9.2190545458
 10
14.6146777859
 20
9.2444230474
 10
14.5400950639
 20
9.2553609682
 10
14.4702303888
 20
9.2516456437
 10
14.4065060039
 20
9.2333527072
 10
14.3773646866
 20
9.2188399045
  0
LWPOLYLINE
  5
618
100
AcDbEntity
  8
0
100
AcDbPolyline
 62
9
  6
CONTINUOUS
 90
19
 70
0
 10
15.3863369566
 20
8.2461090628
 10
15.3815639629
 20
8.3329523264
 10
15.3673266489
 20
8.4238209314
 10
15.3438686191
 20
8.5171600909
 10
15.3115912468
 20
8.6113727458
 10
15.2710468069
 20
8.7048468916
 10
15.2229290259
 20
8.7959831598
 10
15.1680612125
 20
8.8832221834
 10
15.10738217
 20
8.9650712787
 10
15.0419301339
 20
9.0401299849
 10
14.9728250064
 20
9.1071140267
 10
14.9012491956
 20
9.1648772887
 10
14.8284273835
 20
9.2124314253
 10
14.7556055713
 20
9.2489627721
 10
14.6840297605
 20
9.2738462677
 10
14.6149246331
 20
9.2866561486
 10
14.5494725969
 20
9.287173234
 10
14.4887935544
 20
9.2753886766
 10
14.4339291496
 20
9.2515060814
  0
LINE
  5
619
100
AcDbEntity
  8
0
100
AcDbLine
 62
7
  6
CONTINUOUS
 10
15.403910373
 20
8.2706052089
 11
15.4039103731
 21
8.2706035081
  0
LWPOLYLINE
  5
61A
100
AcDbEntity
  8
0
100
AcDbPolyline
 62
9
  6
CONTINUOUS
 90
4
 70
0
 10
15.4039103731
 20
8.2706035081
 10
15.4018659873
 20
8.2616380209
 10
15.3958720222
 20
8.2532833725
 10
15.3863369566
 20
8.2461090628
  0
LWPOLYLINE
  5
61B
100
AcDbEntity
  8
0
100
AcDbPolyline
 62
7
  6
CONTINUOUS
 90
14
 70
0
 10
14.844785991
 20
7.3666780325
 10
14.8152032866
 20
7.3519799497
 10
14.7821566502
 20
7.3399915757
 10
14.7463842891
 20
7.3309807108
 10
14.7086852987
 20
7.325148643
 10
14.6699018122
 20
7.3226256509
 10
14.6309001885
 20
7.323468094
 10
14.5925516595
 20
7.3276571536
 10
14.555712868
 20
7.335099253
 10
14.5212067317
 20
7.3456281479
 10
14.4898040606
 20
7.3590086404
 10
14.4622063386
 20
7.3749418322
 10
14.4390300531
 20
7.3930718021
 10
14.4217525491
 20
7.4117395355
  0
LWPOLYLINE
  5
61C
100
AcDbEntity
  8
0
100
AcDbPolyline
 62
7
  6
CONTINUOUS
 90
18
 70
0
 10
15.4039103731
 20
8.2706035081
 10
15.3983350251
 20
8.3646418378
 10
15.3818689685
 20
8.4621581446
 10
15.3550191707
 20
8.5613497779
 10
15.3184386584
 20
8.6604096088
 10
15.2729329883
 20
8.7575165172
 10
15.2193214501
 20
8.8510919609
 10
15.1585760049
 20
8.9394673453
 10
15.0917155519
 20
9.0211007162
 10
15.0198076062
 20
9.09453651
 10
14.9441439193
 20
9.1582583918
 10
14.8658843948
 20
9.2110402731
 10
14.7864726135
 20
9.2516194592
 10
14.7078277713
 20
9.2788599056
 10
14.6317028491
 20
9.2922261981
 10
14.5599451462
 20
9.2917367496
 10
14.4936203286
 20
9.2779018507
 10
14.4339291496
 20
9.2515060814
  0
LWPOLYLINE
  5
61D
100
AcDbEntity
  8
AXIS
100
AcDbPolyline
 62
7
  6
CONTINUOUS
 90
11
 70
0
 10
14.7425149532
 20
6.8108965878
 10
14.7204069406
 20
6.8008966371
 10
14.694796239
 20
6.7942418643
 10
14.6671712493
 20
6.7913190207
 10
14.6391374354
 20
6.7922979711
 10
14.6123240207
 20
6.7971218227
 10
14.5882893033
 20
6.8055102307
 10
14.5684300938
 20
6.8169756913
 10
14.5539005372
 20
6.8308518735
 10
14.5455450385
 20
6.8463323443
 10
14.543641879
 20
6.8584715216
  0
LINE
  5
61E
100
AcDbEntity
  8
AXIS
100
AcDbLine
 62
7
  6
CONTINUOUS
 10
4.6159242376
 20
3.6896923443
 11
4.3829242376
 21
3.6896923443
  0
LWPOLYLINE
  5
61F
100
AcDbEntity
  8
0
100
AcDbPolyline
 62
7
  6
CONTINUOUS
 90
17
 70
0
 10
4.4202862593
 20
5.9943257474
 10
4.3661886997
 20
5.9774635828
 10
4.3155556585
 20
5.9517945122
 10
4.2695833887
 20
5.9178146038
 10
4.2299738621
 20
5.876719505
 10
4.1978727065
 20
5.8298701803
 10
4.1738612362
 20
5.7782082117
 10
4.158619283
 20
5.7229446282
 10
4.1527151686
 20
5.6656958757
 10
4.1563854468
 20
5.6081139988
 10
4.1695722722
 20
5.5518006419
 10
4.1914015545
 20
5.4993843174
 10
4.2211633434
 20
5.4515532465
 10
4.2579426269
 20
5.4093641649
 10
4.3006685619
 20
5.3737517535
 10
4.3457457436
 20
5.3466634522
 10
4.3900322216
 20
5.3280183376
  0
LINE
  5
620
100
AcDbEntity
  8
0
100
AcDbLine
 62
7
  6
CONTINUOUS
 10
4.7605567242
 20
4.4426923443
 11
4.2382917511
 21
4.4426923443
  0
LINE
  5
621
100
AcDbEntity
  8
0
100
AcDbLine
 62
7
  6
CONTINUOUS
 10
4.7894242376
 20
4.4926923443
 11
4.2094242376
 21
4.4926923443
  0
LINE
  5
622
100
AcDbEntity
  8
0
100
AcDbLine
 62
7
  6
CONTINUOUS
 10
4.2044242376
 20
4.5426923443
 11
4.7944242376
 21
4.5426923443
  0
LINE
  5
623
100
AcDbEntity
  8
0
100
AcDbLine
 62
7
  6
CONTINUOUS
 10
4.2094242376
 20
4.4926923443
 11
4.2382917511
 21
4.4426923443
  0
LINE
  5
624
100
AcDbEntity
  8
0
100
AcDbLine
 62
7
  6
CONTINUOUS
 10
4.2044242376
 20
4.5426923443
 11
4.2044242376
 21
4.8951267201
  0
LINE
  5
625
100
AcDbEntity
  8
0
100
AcDbLine
 62
7
  6
CONTINUOUS
 10
4.2094242376
 20
4.5426923443
 11
4.2094242376
 21
4.4926923443
  0
LINE
  5
626
100
AcDbEntity
  8
AXIS_COSMETIC_THREADS
100
AcDbLine
 62
7
  6
CONTINUOUS
 10
4.2144242376
 20
5.5632958454
 11
4.2144242376
 21
5.7660888433
  0
LWPOLYLINE
  5
627
100
AcDbEntity
  8
0
100
AcDbPolyline
 62
9
  6
CONTINUOUS
 90
8
 70
0
 10
4.2783132666
 20
4.8600456828
 10
4.2993217612
 20
4.8550592923
 10
4.3233276967
 20
4.8553007762
 10
4.3507825393
 20
4.8605795816
 10
4.3821545241
 20
4.8711228354
 10
4.417685404
 20
4.8873313264
 10
4.4571167482
 20
4.9094568731
 10
4.4994242376
 20
4.9371923443
  0
LWPOLYLINE
  5
628
100
AcDbEntity
  8
0
100
AcDbPolyline
 62
9
  6
CONTINUOUS
 90
8
 70
0
 10
4.2521792565
 20
4.9170118181
 10
4.2753262656
 20
4.911219933
 10
4.3013371381
 20
4.9081073796
 10
4.3310021707
 20
4.9075649638
 10
4.3651768297
 20
4.9097762568
 10
4.4045792575
 20
4.9151393646
 10
4.4495022244
 20
4.9241483262
 10
4.4994242376
 20
4.9371923443
  0
LWPOLYLINE
  5
629
100
AcDbEntity
  8
0
100
AcDbPolyline
 62
9
  6
CONTINUOUS
 90
6
 70
0
 10
4.2783132666
 20
4.8600456828
 10
4.2519832977
 20
4.8712249403
 10
4.2309349756
 20
4.881197342
 10
4.2159182155
 20
4.8888956792
 10
4.2071827837
 20
4.8936040545
 10
4.2044242376
 20
4.8951267201
  0
LINE
  5
62A
100
AcDbEntity
  8
0
100
AcDbLine
 62
7
  6
CONTINUOUS
 10
4.169556981
 20
4.9496092422
 11
4.1698895647
 21
4.9494545869
  0
LWPOLYLINE
  5
62B
100
AcDbEntity
  8
0
100
AcDbPolyline
 62
9
  6
CONTINUOUS
 90
6
 70
0
 10
4.2521792565
 20
4.9170118181
 10
4.2625041464
 20
4.9113641851
 10
4.2707677827
 20
4.9020892887
 10
4.2763860802
 20
4.8898426915
 10
4.2789619297
 20
4.8754900001
 10
4.2783132666
 20
4.8600456828
  0
LINE
  5
62C
100
AcDbEntity
  8
AXIS
100
AcDbLine
 62
7
  6
CONTINUOUS
 10
4.3829242376
 20
4.4426923443
 11
4.3829242376
 21
3.6896923443
  0
LINE
  5
62D
100
AcDbEntity
  8
AXIS_COSMETIC_THREADS
100
AcDbLine
 62
7
  6
CONTINUOUS
 10
4.3829242376
 20
4.4426923443
 11
4.3829242376
 21
3.6896923443
  0
LWPOLYLINE
  5
62E
100
AcDbEntity
  8
0
100
AcDbPolyline
 62
9
  6
CONTINUOUS
 90
8
 70
0
 10
4.4994242376
 20
4.9371923443
 10
4.5493462508
 20
4.9241483262
 10
4.5942692178
 20
4.9151393646
 10
4.6336716455
 20
4.9097762568
 10
4.6678463045
 20
4.9075649638
 10
4.6975113371
 20
4.9081073796
 10
4.7235222096
 20
4.911219933
 10
4.7466692187
 20
4.9170118181
  0
LWPOLYLINE
  5
62F
100
AcDbEntity
  8
0
100
AcDbPolyline
 62
9
  6
CONTINUOUS
 90
8
 70
0
 10
4.4994242376
 20
4.9371923443
 10
4.541731727
 20
4.9094568731
 10
4.5811630713
 20
4.8873313264
 10
4.6166939511
 20
4.8711228354
 10
4.648065936
 20
4.8605795816
 10
4.6755207785
 20
4.8553007762
 10
4.699526714
 20
4.8550592923
 10
4.7205352086
 20
4.8600456828
  0
LINE
  5
630
100
AcDbEntity
  8
DEFAULT_1
100
AcDbLine
 62
7
  6
CENTER
 10
4.4994242376
 20
5.6646923443
 11
4.4994242376
 21
4.7771923443
  0
LINE
  5
631
100
AcDbEntity
  8
DEFAULT_1
100
AcDbLine
 62
7
  6
CENTER
 10
4.4994242376
 20
5.6646923443
 11
4.4994242376
 21
6.5521923443
  0
LINE
  5
632
100
AcDbEntity
  8
AXIS
100
AcDbLine
 62
7
  6
CONTINUOUS
 10
4.6159242376
 20
4.4426923443
 11
4.6159242376
 21
3.6896923443
  0
LINE
  5
633
100
AcDbEntity
  8
AXIS_COSMETIC_THREADS
100
AcDbLine
 62
7
  6
CONTINUOUS
 10
4.6159242376
 20
4.4426923443
 11
4.6159242376
 21
3.6896923443
  0
LINE
  5
634
100
AcDbEntity
  8
AXIS_COSMETIC_THREADS
100
AcDbLine
 62
7
  6
CONTINUOUS
 10
4.7844242376
 20
5.7660888433
 11
4.7844242376
 21
5.5632958454
  0
LINE
  5
635
100
AcDbEntity
  8
0
100
AcDbLine
 62
7
  6
CONTINUOUS
 10
4.7894242376
 20
4.5426923443
 11
4.7894242376
 21
4.4926923443
  0
LINE
  5
636
100
AcDbEntity
  8
0
100
AcDbLine
 62
7
  6
CONTINUOUS
 10
4.7944242376
 20
4.5426923443
 11
4.7944242376
 21
4.8951267201
  0
LWPOLYLINE
  5
637
100
AcDbEntity
  8
0
100
AcDbPolyline
 62
9
  6
CONTINUOUS
 90
6
 70
0
 10
4.7944242376
 20
4.8951267201
 10
4.7916657339
 20
4.8936040778
 10
4.7829304129
 20
4.8888957602
 10
4.7679137613
 20
4.8811974719
 10
4.7468654307
 20
4.8712250546
 10
4.7205352086
 20
4.8600456828
  0
LWPOLYLINE
  5
638
100
AcDbEntity
  8
0
100
AcDbPolyline
 62
9
  6
CONTINUOUS
 90
6
 70
0
 10
4.7466692187
 20
4.9170118181
 10
4.7363443288
 20
4.9113641851
 10
4.7280806925
 20
4.9020892887
 10
4.722462395
 20
4.8898426915
 10
4.7198865455
 20
4.8754900001
 10
4.7205352086
 20
4.8600456828
  0
LINE
  5
639
100
AcDbEntity
  8
0
100
AcDbLine
 62
7
  6
CONTINUOUS
 10
4.8292914942
 20
4.9496092422
 11
4.8289589321
 21
4.9494545971
  0
LWPOLYLINE
  5
63A
100
AcDbEntity
  8
0
100
AcDbPolyline
 62
7
  6
CONTINUOUS
 90
17
 70
0
 10
4.4994242376
 20
5.3106923443
 10
4.5595107936
 20
5.3168335701
 10
4.617516405
 20
5.333071502
 10
4.6715970528
 20
5.3587825587
 10
4.7206660209
 20
5.3934355157
 10
4.7628821169
 20
5.435725685
 10
4.7970623366
 20
5.4842495657
 10
4.8224161121
 20
5.5376518108
 10
4.8383612361
 20
5.5947042411
 10
4.8443432824
 20
5.653745856
 10
4.8400793054
 20
5.7131944355
 10
4.8258917111
 20
5.7702213855
 10
4.803283692
 20
5.8219584938
 10
4.7744154681
 20
5.8667461103
 10
4.7421033679
 20
5.9034111267
 10
4.7089290905
 20
5.9320497378
 10
4.6765512511
 20
5.9537373601
  0
LINE
  5
63B
100
AcDbEntity
  8
0
100
AcDbLine
 62
7
  6
CONTINUOUS
 10
4.7894242376
 20
4.4926923443
 11
4.7605567242
 21
4.4426923443
  0
LINE
  5
63C
100
AcDbEntity
  8
DEFAULT_1
100
AcDbLine
 62
7
  6
CENTER
 10
4.4994242376
 20
5.6646923443
 11
3.6119242376
 21
5.6646923443
  0
LINE
  5
63D
100
AcDbEntity
  8
DEFAULT_1
100
AcDbLine
 62
7
  6
CENTER
 10
4.4994242376
 20
5.6646923443
 11
5.3869242376
 21
5.6646923443
  0
LWPOLYLINE
  5
63E
100
AcDbEntity
  8
0
100
AcDbPolyline
 62
7
  6
CONTINUOUS
 90
7
 70
0
 10
4.6765512511
 20
5.9537373601
 10
4.6376065792
 20
5.9742511279
 10
4.5957838862
 20
5.9897089872
 10
4.5537710088
 20
5.9993076884
 10
4.5122565427
 20
6.003449384
 10
4.4681160404
 20
6.0022435209
 10
4.4202862593
 20
5.9943257474
  0
LINE
  5
63F
100
AcDbEntity
  8
0
100
AcDbLine
 62
7
  6
CONTINUOUS
 10
4.6765512511
 20
5.9537373601
 11
4.6901008234
 21
5.9437089164
  0
LINE
  5
640
100
AcDbEntity
  8
0
100
AcDbLine
 62
7
  6
CONTINUOUS
 10
4.4202862593
 20
5.9943257474
 11
4.4465845973
 21
5.9982267373
  0
LINE
  5
641
100
AcDbEntity
  8
AXIS
100
AcDbLine
 62
7
  6
CONTINUOUS
 10
9.0213377578
 20
3.6896923443
 11
8.7883562923
 21
3.6896923443
  0
LINE
  5
642
100
AcDbEntity
  8
0
100
AcDbLine
 62
7
  6
CONTINUOUS
 10
8.0378470259
 20
6.0186923443
 11
8.037742955
 21
6.0186450451
  0
LINE
  5
643
100
AcDbEntity
  8
0
100
AcDbLine
 62
7
  6
CONTINUOUS
 10
8.037742955
 20
6.0186450451
 11
8.021238351
 21
6.0036429531
  0
LINE
  5
644
100
AcDbEntity
  8
0
100
AcDbLine
 62
7
  6
CONTINUOUS
 10
8.077742955
 20
6.0186450451
 11
8.061238351
 21
6.0036429531
  0
LINE
  5
645
100
AcDbEntity
  8
0
100
AcDbLine
 62
7
  6
CONTINUOUS
 10
8.117742955
 20
6.0186450451
 11
8.101238351
 21
6.0036429531
  0
LINE
  5
646
100
AcDbEntity
  8
0
100
AcDbLine
 62
7
  6
CONTINUOUS
 10
8.157742955
 20
6.0186450451
 11
8.141238351
 21
6.0036429531
  0
LINE
  5
647
100
AcDbEntity
  8
0
100
AcDbLine
 62
7
  6
CONTINUOUS
 10
8.117742955
 20
6.0186450451
 11
8.1178470365
 21
6.0186923443
  0
LINE
  5
648
100
AcDbEntity
  8
0
100
AcDbLine
 62
7
  6
CONTINUOUS
 10
8.157742955
 20
6.0186450451
 11
8.157847025
 21
6.0186923443
  0
LINE
  5
649
100
AcDbEntity
  8
0
100
AcDbLine
 62
7
  6
CONTINUOUS
 10
8.197742955
 20
6.0186450451
 11
8.197847025
 21
6.0186923443
  0
LINE
  5
64A
100
AcDbEntity
  8
0
100
AcDbLine
 62
7
  6
CONTINUOUS
 10
8.237742955
 20
6.0186450451
 11
8.237847025
 21
6.0186923443
  0
LINE
  5
64B
100
AcDbEntity
  8
0
100
AcDbLine
 62
7
  6
CONTINUOUS
 10
8.277742955
 20
6.0186450451
 11
8.277847025
 21
6.0186923443
  0
LINE
  5
64C
100
AcDbEntity
  8
0
100
AcDbLine
 62
7
  6
CONTINUOUS
 10
8.077742955
 20
6.0186450451
 11
8.0778473005
 21
6.018692344
  0
LINE
  5
64D
100
AcDbEntity
  8
0
100
AcDbLine
 62
7
  6
CONTINUOUS
 10
8.197742955
 20
6.0186450451
 11
8.181238351
 21
6.0036429531
  0
LINE
  5
64E
100
AcDbEntity
  8
0
100
AcDbLine
 62
7
  6
CONTINUOUS
 10
8.237742955
 20
6.0186450451
 11
8.221238351
 21
6.0036429531
  0
LINE
  5
64F
100
AcDbEntity
  8
0
100
AcDbLine
 62
7
  6
CONTINUOUS
 10
8.277742955
 20
6.0186450451
 11
8.261238351
 21
6.0036429531
  0
LINE
  5
650
100
AcDbEntity
  8
0
100
AcDbLine
 62
7
  6
CONTINUOUS
 10
8.477742955
 20
6.0186450451
 11
8.4778467369
 21
6.018692344
  0
LINE
  5
651
100
AcDbEntity
  8
0
100
AcDbLine
 62
7
  6
CONTINUOUS
 10
8.517742955
 20
6.0186450451
 11
8.5178469331
 21
6.0186923443
  0
LINE
  5
652
100
AcDbEntity
  8
0
100
AcDbLine
 62
7
  6
CONTINUOUS
 10
8.317742955
 20
6.0186450451
 11
8.317847025
 21
6.0186923443
  0
LINE
  5
653
100
AcDbEntity
  8
0
100
AcDbLine
 62
7
  6
CONTINUOUS
 10
8.357742955
 20
6.0186450451
 11
8.357847025
 21
6.0186923443
  0
LINE
  5
654
100
AcDbEntity
  8
0
100
AcDbLine
 62
7
  6
CONTINUOUS
 10
8.397742955
 20
6.0186450451
 11
8.397847025
 21
6.0186923443
  0
LINE
  5
655
100
AcDbEntity
  8
0
100
AcDbLine
 62
7
  6
CONTINUOUS
 10
8.437742955
 20
6.0186450451
 11
8.4378470102
 21
6.0186923443
  0
LINE
  5
656
100
AcDbEntity
  8
0
100
AcDbLine
 62
7
  6
CONTINUOUS
 10
8.317742955
 20
6.0186450451
 11
8.301238351
 21
6.0036429531
  0
LINE
  5
657
100
AcDbEntity
  8
0
100
AcDbLine
 62
7
  6
CONTINUOUS
 10
8.357742955
 20
6.0186450451
 11
8.341238351
 21
6.0036429531
  0
LINE
  5
658
100
AcDbEntity
  8
0
100
AcDbLine
 62
7
  6
CONTINUOUS
 10
8.397742955
 20
6.0186450451
 11
8.381238351
 21
6.0036429531
  0
LINE
  5
659
100
AcDbEntity
  8
0
100
AcDbLine
 62
7
  6
CONTINUOUS
 10
8.437742955
 20
6.0186450451
 11
8.421238351
 21
6.0036429531
  0
LINE
  5
65A
100
AcDbEntity
  8
0
100
AcDbLine
 62
7
  6
CONTINUOUS
 10
8.557847028
 20
6.0186923443
 11
8.557742955
 21
6.0186450451
  0
LINE
  5
65B
100
AcDbEntity
  8
0
100
AcDbLine
 62
7
  6
CONTINUOUS
 10
8.477742955
 20
6.0186450451
 11
8.461238351
 21
6.0036429531
  0
LINE
  5
65C
100
AcDbEntity
  8
0
100
AcDbLine
 62
7
  6
CONTINUOUS
 10
8.517742955
 20
6.0186450451
 11
8.501238351
 21
6.0036429531
  0
LINE
  5
65D
100
AcDbEntity
  8
0
100
AcDbLine
 62
7
  6
CONTINUOUS
 10
8.557742955
 20
6.0186450451
 11
8.541238351
 21
6.0036429531
  0
LINE
  5
65E
100
AcDbEntity
  8
0
100
AcDbLine
 62
7
  6
CONTINUOUS
 10
8.6437175982
 20
4.4426923443
 11
9.1659764518
 21
4.4426923443
  0
LWPOLYLINE
  5
65F
100
AcDbEntity
  8
0
100
AcDbPolyline
 62
7
  6
CONTINUOUS
 90
17
 70
0
 10
8.022097025
 20
6.0013425513
 10
8.023222025
 20
5.9890951182
 10
8.024347025
 20
5.966743556
 10
8.025472025
 20
5.934984046
 10
8.026597025
 20
5.8948057971
 10
8.027722025
 20
5.8474602358
 10
8.028847025
 20
5.7944220279
 10
8.029972025
 20
5.7373431472
 10
8.031097025
 20
5.6780014219
 10
8.032222025
 20
5.6182451605
 10
8.033347025
 20
5.5599355832
 10
8.034472025
 20
5.5048888506
 10
8.035597025
 20
5.4548194955
 10
8.036722025
 20
5.4112870215
 10
8.037847025
 20
5.3756473286
 10
8.038972025
 20
5.3490104815
 10
8.040097025
 20
5.3322061343
  0
LWPOLYLINE
  5
660
100
AcDbEntity
  8
0
100
AcDbPolyline
 62
7
  6
CONTINUOUS
 90
9
 70
0
 10
8.0587452456
 20
5.3159806681
 10
8.0576393196
 20
5.3317659354
 10
8.0565283885
 20
5.3577115517
 10
8.0554123319
 20
5.3931643874
 10
8.0543075027
 20
5.4364632897
 10
8.0532045148
 20
5.4865303367
 10
8.0520839291
 20
5.5428503679
 10
8.0509589167
 20
5.6031781431
 10
8.049847025
 20
5.6646923443
  0
LWPOLYLINE
  5
661
100
AcDbEntity
  8
0
100
AcDbPolyline
 62
7
  6
CONTINUOUS
 90
16
 70
0
 10
8.019847025
 20
5.9537373601
 10
8.020959525
 20
5.9185393214
 10
8.022072025
 20
5.8756090253
 10
8.023184525
 20
5.8262541419
 10
8.024297025
 20
5.7719780362
 10
8.025409525
 20
5.7144339752
 10
8.026522025
 20
5.6553747687
 10
8.027634525
 20
5.5965993784
 10
8.028747025
 20
5.539898121
 10
8.029859525
 20
5.4869981341
 10
8.030972025
 20
5.4395107679
 10
8.032084525
 20
5.3988825021
 10
8.033197025
 20
5.3663508862
 10
8.034309525
 20
5.3429068434
 10
8.035422025
 20
5.3292644865
 10
8.036347025
 20
5.3256923443
  0
LWPOLYLINE
  5
662
100
AcDbEntity
  8
0
100
AcDbPolyline
 62
7
  6
CONTINUOUS
 90
12
 70
0
 10
8.064347025
 20
5.7694491054
 10
8.0654797684
 20
5.7107310485
 10
8.0666125118
 20
5.6505592747
 10
8.0677452551
 20
5.5908337664
 10
8.0688779985
 20
5.5334404143
 10
8.0700107418
 20
5.4801914694
 10
8.0711434852
 20
5.4327683187
 10
8.0722762286
 20
5.3926683942
 10
8.0734089719
 20
5.3611578901
 10
8.0745417153
 20
5.339231781
 10
8.0756744587
 20
5.3275824052
 10
8.076347025
 20
5.3256923443
  0
LWPOLYLINE
  5
663
100
AcDbEntity
  8
0
100
AcDbPolyline
 62
7
  6
CONTINUOUS
 90
12
 70
0
 10
8.069347025
 20
5.7694491054
 10
8.0704797684
 20
5.7107310485
 10
8.0716125118
 20
5.6505592747
 10
8.0727452551
 20
5.5908337664
 10
8.0738779985
 20
5.5334404143
 10
8.0750107418
 20
5.4801914694
 10
8.0761434852
 20
5.4327683187
 10
8.0772762286
 20
5.3926683942
 10
8.0784089719
 20
5.3611578901
 10
8.0795417153
 20
5.339231781
 10
8.0806744587
 20
5.3275824052
 10
8.081238351
 20
5.3257417356
  0
LWPOLYLINE
  5
664
100
AcDbEntity
  8
0
100
AcDbPolyline
 62
7
  6
CONTINUOUS
 90
9
 70
0
 10
8.0489588343
 20
5.6031826598
 10
8.0500837637
 20
5.5428590047
 10
8.0512042601
 20
5.4865425742
 10
8.0523070995
 20
5.4364804287
 10
8.0534172317
 20
5.3929896565
 10
8.0545370092
 20
5.3574731112
 10
8.0556492746
 20
5.3315781998
 10
8.0567544614
 20
5.3158927866
 10
8.057742955
 20
5.3107396436
  0
LWPOLYLINE
  5
665
100
AcDbEntity
  8
0
100
AcDbPolyline
 62
7
  6
CONTINUOUS
 90
4
 70
0
 10
8.085847025
 20
5.7740843604
 10
8.0865137785
 20
5.7382883592
 10
8.0871802763
 20
5.7016999592
 10
8.087847025
 20
5.6646923443
  0
LWPOLYLINE
  5
666
100
AcDbEntity
  8
0
100
AcDbPolyline
 62
7
  6
CONTINUOUS
 90
9
 70
0
 10
8.0887454032
 20
5.7256440828
 10
8.0876439549
 20
5.7847661773
 10
8.0865370221
 20
5.8405676525
 10
8.0854337588
 20
5.8909083407
 10
8.0843153508
 20
5.9350165805
 10
8.0831901672
 20
5.9709922565
 10
8.0820753416
 20
5.9972274739
 10
8.0809736655
 20
6.0131633021
 10
8.079951095
 20
6.0186450451
  0
LWPOLYLINE
  5
667
100
AcDbEntity
  8
0
100
AcDbPolyline
 62
7
  6
CONTINUOUS
 90
9
 70
0
 10
8.0489588343
 20
5.6031826598
 10
8.0467269836
 20
5.7266527774
 10
8.0456069356
 20
5.7867006071
 10
8.0444869047
 20
5.8429807405
 10
8.0433668663
 20
5.8937568824
 10
8.0422467726
 20
5.9374629782
 10
8.0411266559
 20
5.9727475065
 10
8.0400065748
 20
5.9985193254
 10
8.0388865417
 20
6.013983539
  0
LWPOLYLINE
  5
668
100
AcDbEntity
  8
0
100
AcDbPolyline
 62
7
  6
CONTINUOUS
 90
4
 70
0
 10
8.049847025
 20
5.6646923443
 10
8.0491802763
 20
5.7016999592
 10
8.0485137785
 20
5.7382883592
 10
8.047847025
 20
5.7740843604
  0
LWPOLYLINE
  5
669
100
AcDbEntity
  8
0
100
AcDbPolyline
 62
7
  6
CONTINUOUS
 90
10
 70
0
 10
8.087847025
 20
5.6646923443
 10
8.0889589167
 20
5.6031781431
 10
8.0900839291
 20
5.5428503679
 10
8.0912045148
 20
5.4865303367
 10
8.0923075027
 20
5.4364632897
 10
8.0934123319
 20
5.3931643874
 10
8.0945283885
 20
5.3577115517
 10
8.0956393196
 20
5.3317659354
 10
8.0967452456
 20
5.3159806681
 10
8.097742955
 20
5.3107396436
  0
LINE
  5
66A
100
AcDbEntity
  8
0
100
AcDbLine
 62
7
  6
CONTINUOUS
 10
8.019847025
 20
5.3106923443
 11
8.019847025
 21
6.0036918763
  0
LINE
  5
66B
100
AcDbEntity
  8
0
100
AcDbLine
 62
7
  6
CONTINUOUS
 10
8.019951095
 20
5.3107396436
 11
8.036455699
 21
5.3257417356
  0
LINE
  5
66C
100
AcDbEntity
  8
0
100
AcDbLine
 62
7
  6
CONTINUOUS
 10
8.059951095
 20
5.3107396436
 11
8.076455699
 21
5.3257417356
  0
LINE
  5
66D
100
AcDbEntity
  8
0
100
AcDbLine
 62
7
  6
CONTINUOUS
 10
8.099951095
 20
5.3107396436
 11
8.116455699
 21
5.3257417356
  0
LINE
  5
66E
100
AcDbEntity
  8
0
100
AcDbLine
 62
7
  6
CONTINUOUS
 10
8.614847025
 20
4.4926923443
 11
9.194847025
 21
4.4926923443
  0
LINE
  5
66F
100
AcDbEntity
  8
0
100
AcDbLine
 62
7
  6
CONTINUOUS
 10
8.6098550659
 20
4.5426923443
 11
9.1998389842
 21
4.5426923443
  0
LINE
  5
670
100
AcDbEntity
  8
0
100
AcDbLine
 62
7
  6
CONTINUOUS
 10
8.040097025
 20
5.3322061343
 11
8.041238351
 21
5.3257417356
  0
LWPOLYLINE
  5
671
100
AcDbEntity
  8
0
100
AcDbPolyline
 62
7
  6
CONTINUOUS
 90
4
 70
0
 10
8.1790655649
 20
5.3133560195
 10
8.1779861434
 20
5.3257084051
 10
8.1769167288
 20
5.3475353263
 10
8.175847025
 20
5.3783003283
  0
LWPOLYLINE
  5
672
100
AcDbEntity
  8
0
100
AcDbPolyline
 62
7
  6
CONTINUOUS
 90
9
 70
0
 10
8.0987286236
 20
5.3161410227
 10
8.0976223583
 20
5.3320876727
 10
8.0965144272
 20
5.3580989038
 10
8.0954052749
 20
5.3934163329
 10
8.0943051898
 20
5.4365616185
 10
8.0932025824
 20
5.4866231941
 10
8.0920826187
 20
5.5429187846
 10
8.0909582644
 20
5.6032138663
 10
8.0887454032
 20
5.7256440828
  0
LWPOLYLINE
  5
673
100
AcDbEntity
  8
0
100
AcDbPolyline
 62
7
  6
CONTINUOUS
 90
9
 70
0
 10
8.1387254471
 20
5.3161719376
 10
8.1376185724
 20
5.3321598091
 10
8.1365127239
 20
5.358146262
 10
8.1354092703
 20
5.3932736498
 10
8.1343072541
 20
5.4364738568
 10
8.1332038822
 20
5.4865607332
 10
8.1320834902
 20
5.542873282
 10
8.1309586986
 20
5.6031900915
 10
8.1287472272
 20
5.7255441712
  0
LWPOLYLINE
  5
674
100
AcDbEntity
  8
0
100
AcDbPolyline
 62
7
  6
CONTINUOUS
 90
8
 70
0
 10
8.1189736655
 20
6.0131633021
 10
8.1200753416
 20
5.9972274739
 10
8.1211901672
 20
5.9709922565
 10
8.1223153508
 20
5.9350165805
 10
8.1234337588
 20
5.8909083407
 10
8.1245370221
 20
5.8405676525
 10
8.1256439549
 20
5.7847661773
 10
8.1267454032
 20
5.7256440828
  0
LWPOLYLINE
  5
675
100
AcDbEntity
  8
0
100
AcDbPolyline
 62
7
  6
CONTINUOUS
 90
5
 70
0
 10
8.192347025
 20
5.3904355833
 10
8.1934797684
 20
5.3594979553
 10
8.1946125118
 20
5.3381971365
 10
8.1957452551
 20
5.3272057209
 10
8.196347025
 20
5.3256923443
  0
LWPOLYLINE
  5
676
100
AcDbEntity
  8
0
100
AcDbPolyline
 62
7
  6
CONTINUOUS
 90
5
 70
0
 10
8.197347025
 20
5.3904355833
 10
8.1984797684
 20
5.3594979553
 10
8.1996125118
 20
5.3381971365
 10
8.2007452551
 20
5.3272057209
 10
8.201238351
 20
5.3257417356
  0
LWPOLYLINE
  5
677
100
AcDbEntity
  8
0
100
AcDbPolyline
 62
7
  6
CONTINUOUS
 90
7
 70
0
 10
8.175847025
 20
5.3783003283
 10
8.1748550862
 20
5.4140597837
 10
8.1738623902
 20
5.4559257492
 10
8.1728661436
 20
5.5030331935
 10
8.1718563071
 20
5.5548095663
 10
8.1708456529
 20
5.6093899028
 10
8.169847025
 20
5.6646923443
  0
LWPOLYLINE
  5
678
100
AcDbEntity
  8
0
100
AcDbPolyline
 62
7
  6
CONTINUOUS
 90
9
 70
0
 10
8.1287472272
 20
5.7255441712
 10
8.1276420799
 20
5.7848642538
 10
8.1265315732
 20
5.8408305414
 10
8.125428193
 20
5.8911463114
 10
8.1243110625
 20
5.935170481
 10
8.1231881827
 20
5.971047564
 10
8.1220765353
 20
5.997204706
 10
8.1209703306
 20
6.0131959011
 10
8.119951095
 20
6.0186450451
  0
LWPOLYLINE
  5
679
100
AcDbEntity
  8
0
100
AcDbPolyline
 62
7
  6
CONTINUOUS
 90
10
 70
0
 10
8.1267454032
 20
5.7256440828
 10
8.1289582644
 20
5.6032138663
 10
8.1300826187
 20
5.5429187846
 10
8.1312025824
 20
5.4866231941
 10
8.1323051898
 20
5.4365616185
 10
8.1334052749
 20
5.3934163329
 10
8.1345144272
 20
5.3580989038
 10
8.1356223583
 20
5.3320876727
 10
8.1367286236
 20
5.3161410227
 10
8.137742955
 20
5.3107396436
  0
LWPOLYLINE
  5
67A
100
AcDbEntity
  8
0
100
AcDbPolyline
 62
7
  6
CONTINUOUS
 90
10
 70
0
 10
8.1667472272
 20
5.7255441712
 10
8.1689586986
 20
5.6031900915
 10
8.1700834902
 20
5.542873282
 10
8.1712038822
 20
5.4865607332
 10
8.1723072541
 20
5.4364738568
 10
8.1734092703
 20
5.3932736498
 10
8.1745127239
 20
5.358146262
 10
8.1756185724
 20
5.3321598091
 10
8.1767254471
 20
5.3161719376
 10
8.177742955
 20
5.3107396436
  0
LWPOLYLINE
  5
67B
100
AcDbEntity
  8
0
100
AcDbPolyline
 62
7
  6
CONTINUOUS
 90
10
 70
0
 10
8.169847025
 20
5.6646923443
 10
8.1687459197
 20
5.7256157939
 10
8.1676323545
 20
5.7853727944
 10
8.1665173941
 20
5.8415140208
 10
8.1654131819
 20
5.8917872602
 10
8.1642987499
 20
5.9356116749
 10
8.1631823766
 20
5.9712092075
 10
8.1620790663
 20
5.9971563934
 10
8.1609722871
 20
6.013176787
 10
8.159951095
 20
6.0186450451
  0
LINE
  5
67C
100
AcDbEntity
  8
0
100
AcDbLine
 62
7
  6
CONTINUOUS
 10
8.139951095
 20
5.3107396436
 11
8.156455699
 21
5.3257417356
  0
LINE
  5
67D
100
AcDbEntity
  8
0
100
AcDbLine
 62
7
  6
CONTINUOUS
 10
8.179951095
 20
5.3107396436
 11
8.196455699
 21
5.3257417356
  0
LINE
  5
67E
100
AcDbEntity
  8
0
100
AcDbLine
 62
7
  6
CONTINUOUS
 10
8.219951095
 20
5.3107396436
 11
8.236455699
 21
5.3257417356
  0
LINE
  5
67F
100
AcDbEntity
  8
0
100
AcDbLine
 62
7
  6
CONTINUOUS
 10
8.259951095
 20
5.3107396436
 11
8.276455699
 21
5.3257417356
  0
LINE
  5
680
100
AcDbEntity
  8
0
100
AcDbLine
 62
7
  6
CONTINUOUS
 10
8.059951095
 20
5.3107396436
 11
8.059847056
 21
5.3106923443
  0
LINE
  5
681
100
AcDbEntity
  8
0
100
AcDbLine
 62
7
  6
CONTINUOUS
 10
8.019847025
 20
5.3106923443
 11
8.019951095
 21
5.3107396436
  0
LINE
  5
682
100
AcDbEntity
  8
0
100
AcDbLine
 62
7
  6
CONTINUOUS
 10
8.099951095
 20
5.3107396436
 11
8.0998470262
 21
5.3106923443
  0
LINE
  5
683
100
AcDbEntity
  8
0
100
AcDbLine
 62
7
  6
CONTINUOUS
 10
8.139951095
 20
5.3107396436
 11
8.139847025
 21
5.3106923443
  0
LINE
  5
684
100
AcDbEntity
  8
0
100
AcDbLine
 62
7
  6
CONTINUOUS
 10
8.179951095
 20
5.3107396436
 11
8.1798470089
 21
5.3106923443
  0
LINE
  5
685
100
AcDbEntity
  8
0
100
AcDbLine
 62
7
  6
CONTINUOUS
 10
8.1203204764
 20
5.3300900617
 11
8.121238351
 21
5.3257417356
  0
LINE
  5
686
100
AcDbEntity
  8
0
100
AcDbLine
 62
7
  6
CONTINUOUS
 10
8.059847056
 20
5.3106923443
 11
8.0587452456
 21
5.3159806681
  0
LINE
  5
687
100
AcDbEntity
  8
0
100
AcDbLine
 62
7
  6
CONTINUOUS
 10
8.0998470262
 20
5.3106923443
 11
8.0987286236
 21
5.3161410227
  0
LINE
  5
688
100
AcDbEntity
  8
0
100
AcDbLine
 62
7
  6
CONTINUOUS
 10
8.139847025
 20
5.3106923443
 11
8.1387254471
 21
5.3161719376
  0
LWPOLYLINE
  5
689
100
AcDbEntity
  8
0
100
AcDbPolyline
 62
7
  6
CONTINUOUS
 90
8
 70
0
 10
8.039951095
 20
6.0186450451
 10
8.0411263592
 20
6.0115684249
 10
8.0422464305
 20
5.9938453886
 10
8.0433665657
 20
5.9659578037
 10
8.0444867335
 20
5.9287663051
 10
8.0456068629
 20
5.8834217384
 10
8.0467269438
 20
5.8313255208
 10
8.047847025
 20
5.7740843604
  0
LWPOLYLINE
  5
68A
100
AcDbEntity
  8
0
100
AcDbPolyline
 62
7
  6
CONTINUOUS
 90
3
 70
0
 10
8.1599664941
 20
5.3336319548
 10
8.1610992374
 20
5.3259490963
 10
8.161238351
 20
5.3257417356
  0
LWPOLYLINE
  5
68B
100
AcDbEntity
  8
0
100
AcDbPolyline
 62
7
  6
CONTINUOUS
 90
9
 70
0
 10
8.2187245422
 20
5.3161807601
 10
8.2176180206
 20
5.332170332
 10
8.2165165638
 20
5.3580395287
 10
8.2154140929
 20
5.3931015717
 10
8.2143069444
 20
5.436487019
 10
8.213203176
 20
5.4865946715
 10
8.2120830084
 20
5.5428984405
 10
8.2109584589
 20
5.6032032136
 10
8.2087429441
 20
5.725778777
  0
LWPOLYLINE
  5
68C
100
AcDbEntity
  8
0
100
AcDbPolyline
 62
7
  6
CONTINUOUS
 90
8
 70
0
 10
8.1589703306
 20
6.0131959011
 10
8.1600765353
 20
5.997204706
 10
8.1611881827
 20
5.971047564
 10
8.1623110625
 20
5.935170481
 10
8.163428193
 20
5.8911463114
 10
8.1645315732
 20
5.8408305414
 10
8.1656420799
 20
5.7848642538
 10
8.1667472272
 20
5.7255441712
  0
LWPOLYLINE
  5
68D
100
AcDbEntity
  8
0
100
AcDbPolyline
 62
7
  6
CONTINUOUS
 90
9
 70
0
 10
8.1989722871
 20
6.013176787
 10
8.2000790663
 20
5.9971563934
 10
8.2011823766
 20
5.9712092075
 10
8.2022987499
 20
5.9356116749
 10
8.2034131819
 20
5.8917872602
 10
8.2045173941
 20
5.8415140208
 10
8.2056323545
 20
5.7853727944
 10
8.2067459197
 20
5.7256157939
 10
8.207847025
 20
5.6646923443
  0
LWPOLYLINE
  5
68E
100
AcDbEntity
  8
0
100
AcDbPolyline
 62
7
  6
CONTINUOUS
 90
8
 70
0
 10
8.2587232989
 20
5.3161928936
 10
8.2576167906
 20
5.3321937997
 10
8.2565171456
 20
5.3580233661
 10
8.2554083309
 20
5.3933071899
 10
8.2542977009
 20
5.4368802002
 10
8.2531936731
 20
5.4870515428
 10
8.252075108
 20
5.5433110245
 10
8.2509539482
 20
5.6034502379
  0
LWPOLYLINE
  5
68F
100
AcDbEntity
  8
0
100
AcDbPolyline
 62
7
  6
CONTINUOUS
 90
8
 70
0
 10
8.2389717594
 20
6.0131819454
 10
8.2400785328
 20
5.9971665813
 10
8.2411790238
 20
5.9713024366
 10
8.2422909514
 20
5.9358905955
 10
8.2434032338
 20
5.8922113317
 10
8.2445074562
 20
5.8419925391
 10
8.245624668
 20
5.7857745207
 10
8.2467429441
 20
5.725778777
  0
LWPOLYLINE
  5
690
100
AcDbEntity
  8
0
100
AcDbPolyline
 62
7
  6
CONTINUOUS
 90
5
 70
0
 10
8.213847025
 20
5.3783003283
 10
8.2149167288
 20
5.3475353263
 10
8.2159861434
 20
5.3257084051
 10
8.2170655649
 20
5.3133560195
 10
8.217742955
 20
5.3107396436
  0
LWPOLYLINE
  5
691
100
AcDbEntity
  8
0
100
AcDbPolyline
 62
7
  6
CONTINUOUS
 90
9
 70
0
 10
8.2087429441
 20
5.725778777
 10
8.207624668
 20
5.7857745207
 10
8.2065074562
 20
5.8419925391
 10
8.2054032338
 20
5.8922113317
 10
8.2042909514
 20
5.9358905955
 10
8.2031790238
 20
5.9713024366
 10
8.2020785328
 20
5.9971665813
 10
8.2009717594
 20
6.0131819454
 10
8.199951095
 20
6.0186450451
  0
LWPOLYLINE
  5
692
100
AcDbEntity
  8
0
100
AcDbPolyline
 62
7
  6
CONTINUOUS
 90
9
 70
0
 10
8.2889539482
 20
5.6034502379
 10
8.290075108
 20
5.5433110245
 10
8.2911936731
 20
5.4870515428
 10
8.2922977009
 20
5.4368802002
 10
8.2934083309
 20
5.3933071899
 10
8.2945171456
 20
5.3580233661
 10
8.2956167906
 20
5.3321937997
 10
8.2967232989
 20
5.3161928936
 10
8.297742955
 20
5.3107396436
  0
LWPOLYLINE
  5
693
100
AcDbEntity
  8
0
100
AcDbPolyline
 62
7
  6
CONTINUOUS
 90
7
 70
0
 10
8.207847025
 20
5.6646923443
 10
8.2088456529
 20
5.6093899028
 10
8.2098563071
 20
5.5548095663
 10
8.2108661436
 20
5.5030331935
 10
8.2118623902
 20
5.4559257492
 10
8.2128550862
 20
5.4140597837
 10
8.213847025
 20
5.3783003283
  0
LWPOLYLINE
  5
694
100
AcDbEntity
  8
0
100
AcDbPolyline
 62
7
  6
CONTINUOUS
 90
10
 70
0
 10
8.2467429441
 20
5.725778777
 10
8.2489584589
 20
5.6032032136
 10
8.2500830084
 20
5.5428984405
 10
8.251203176
 20
5.4865946715
 10
8.2523069444
 20
5.436487019
 10
8.2534140929
 20
5.3931015717
 10
8.2545165638
 20
5.3580395287
 10
8.2556180206
 20
5.332170332
 10
8.2567245422
 20
5.3161807601
 10
8.257742955
 20
5.3107396436
  0
LWPOLYLINE
  5
695
100
AcDbEntity
  8
0
100
AcDbPolyline
 62
7
  6
CONTINUOUS
 90
10
 70
0
 10
8.2509539482
 20
5.6034502379
 10
8.2487358916
 20
5.7261650203
 10
8.2476117107
 20
5.7864513153
 10
8.2464919895
 20
5.8427364133
 10
8.2453884589
 20
5.8928401374
 10
8.2442802884
 20
5.9362713032
 10
8.2431760546
 20
5.9713849252
 10
8.2420760456
 20
5.9972140479
 10
8.240969869
 20
6.0132004059
 10
8.239951095
 20
6.0186450451
  0
LWPOLYLINE
  5
696
100
AcDbEntity
  8
0
100
AcDbPolyline
 62
7
  6
CONTINUOUS
 90
10
 70
0
 10
8.2909145141
 20
5.6056111184
 10
8.2887351337
 20
5.7262065252
 10
8.2876101882
 20
5.7865308063
 10
8.2864897364
 20
5.8428446882
 10
8.2853858752
 20
5.8929499689
 10
8.2842803579
 20
5.936268824
 10
8.283178962
 20
5.971304152
 10
8.2820756017
 20
5.9972225141
 10
8.2809686037
 20
6.013212744
 10
8.279951095
 20
6.0186450451
  0
LINE
  5
697
100
AcDbEntity
  8
0
100
AcDbLine
 62
7
  6
CONTINUOUS
 10
8.299951095
 20
5.3107396436
 11
8.316455699
 21
5.3257417356
  0
LINE
  5
698
100
AcDbEntity
  8
0
100
AcDbLine
 62
7
  6
CONTINUOUS
 10
8.339951095
 20
5.3107396436
 11
8.356455699
 21
5.3257417356
  0
LINE
  5
699
100
AcDbEntity
  8
0
100
AcDbLine
 62
7
  6
CONTINUOUS
 10
8.379951095
 20
5.3107396436
 11
8.396455699
 21
5.3257417356
  0
LINE
  5
69A
100
AcDbEntity
  8
0
100
AcDbLine
 62
7
  6
CONTINUOUS
 10
8.419951095
 20
5.3107396436
 11
8.436455699
 21
5.3257417356
  0
LINE
  5
69B
100
AcDbEntity
  8
0
100
AcDbLine
 62
7
  6
CONTINUOUS
 10
8.219951095
 20
5.3107396436
 11
8.219847025
 21
5.3106923443
  0
LINE
  5
69C
100
AcDbEntity
  8
0
100
AcDbLine
 62
7
  6
CONTINUOUS
 10
8.259951095
 20
5.3107396436
 11
8.259847025
 21
5.3106923443
  0
LINE
  5
69D
100
AcDbEntity
  8
0
100
AcDbLine
 62
7
  6
CONTINUOUS
 10
8.299951095
 20
5.3107396436
 11
8.2998470425
 21
5.3106923443
  0
LINE
  5
69E
100
AcDbEntity
  8
0
100
AcDbLine
 62
7
  6
CONTINUOUS
 10
8.339951095
 20
5.3107396436
 11
8.339847025
 21
5.3106923443
  0
LINE
  5
69F
100
AcDbEntity
  8
0
100
AcDbLine
 62
7
  6
CONTINUOUS
 10
8.379951095
 20
5.3107396436
 11
8.3798470226
 21
5.3106923443
  0
LINE
  5
6A0
100
AcDbEntity
  8
0
100
AcDbLine
 62
7
  6
CONTINUOUS
 10
8.419951095
 20
5.3107396436
 11
8.4198469892
 21
5.3106923444
  0
LINE
  5
6A1
100
AcDbEntity
  8
0
100
AcDbLine
 62
7
  6
CONTINUOUS
 10
8.1798470089
 20
5.3106923443
 11
8.1790655649
 21
5.3133560195
  0
LINE
  5
6A2
100
AcDbEntity
  8
0
100
AcDbLine
 62
7
  6
CONTINUOUS
 10
8.2403912728
 20
5.3295054973
 11
8.241238351
 21
5.3257417356
  0
LINE
  5
6A3
100
AcDbEntity
  8
0
100
AcDbLine
 62
7
  6
CONTINUOUS
 10
8.0388865417
 20
6.013983539
 11
8.0378470259
 21
6.0186923443
  0
LINE
  5
6A4
100
AcDbEntity
  8
0
100
AcDbLine
 62
7
  6
CONTINUOUS
 10
8.219847025
 20
5.3106923443
 11
8.2187245422
 21
5.3161807601
  0
LWPOLYLINE
  5
6A5
100
AcDbEntity
  8
0
100
AcDbPolyline
 62
7
  6
CONTINUOUS
 90
8
 70
0
 10
8.056455699
 20
6.0036429531
 10
8.057672025
 20
5.9963763577
 10
8.058784525
 20
5.9791460104
 10
8.059897025
 20
5.9523373072
 10
8.061009525
 20
5.9167668496
 10
8.062122025
 20
5.8735181245
 10
8.063234525
 20
5.8239085017
 10
8.064347025
 20
5.7694491054
  0
LWPOLYLINE
  5
6A6
100
AcDbEntity
  8
0
100
AcDbPolyline
 62
7
  6
CONTINUOUS
 90
8
 70
0
 10
8.0779811014
 20
6.0186138386
 10
8.0791039047
 20
6.0118154991
 10
8.0802171511
 20
5.9944411136
 10
8.0813476282
 20
5.9665094353
 10
8.0824862199
 20
5.9287853237
 10
8.0836148286
 20
5.8830732902
 10
8.0847308798
 20
5.8311323859
 10
8.085847025
 20
5.7740843604
  0
LWPOLYLINE
  5
6A7
100
AcDbEntity
  8
0
100
AcDbPolyline
 62
7
  6
CONTINUOUS
 90
19
 70
0
 10
8.1368426003
 20
6.0026657253
 10
8.1379753436
 20
5.9926637731
 10
8.139108087
 20
5.9723058047
 10
8.1402408303
 20
5.9422346426
 10
8.1413735737
 20
5.903399813
 10
8.1425063171
 20
5.8570275634
 10
8.1436390604
 20
5.8045821424
 10
8.1447718038
 20
5.7477195654
 10
8.1459045472
 20
5.6882353232
 10
8.1470372905
 20
5.6280076885
 10
8.1481700339
 20
5.5689384076
 10
8.1493027772
 20
5.5128926501
 10
8.1504355206
 20
5.4616401153
 10
8.151568264
 20
5.4167991518
 10
8.1527010073
 20
5.3797856565
 10
8.1538337507
 20
5.3517683665
 10
8.1549664941
 20
5.3336319548
 10
8.1560992374
 20
5.3259490963
 10
8.156347025
 20
5.3256923443
  0
LWPOLYLINE
  5
6A8
100
AcDbEntity
  8
0
100
AcDbPolyline
 62
7
  6
CONTINUOUS
 90
19
 70
0
 10
8.2569133967
 20
6.0023516615
 10
8.2580461401
 20
5.9916897408
 10
8.2591788834
 20
5.9707025598
 10
8.2603116268
 20
5.9400528092
 10
8.2614443702
 20
5.9007082846
 10
8.2625771135
 20
5.8539113276
 10
8.2637098569
 20
5.8011395974
 10
8.2648426003
 20
5.7440594128
 10
8.2659753436
 20
5.684473136
 10
8.267108087
 20
5.6242622614
 10
8.2682408303
 20
5.565328006
 10
8.2693735737
 20
5.509531276
 10
8.2705063171
 20
5.4586339074
 10
8.2716390604
 20
5.414243034
 10
8.2727718038
 20
5.3777603407
 10
8.2739045472
 20
5.3503378039
 10
8.2750372905
 20
5.332841317
 10
8.2761700339
 20
5.3258233484
 10
8.276347025
 20
5.3256923443
  0
LWPOLYLINE
  5
6A9
100
AcDbEntity
  8
0
100
AcDbPolyline
 62
7
  6
CONTINUOUS
 90
9
 70
0
 10
8.278969869
 20
6.0132004059
 10
8.2800760456
 20
5.9972140479
 10
8.2811760546
 20
5.9713849252
 10
8.2822802884
 20
5.9362713032
 10
8.2833884589
 20
5.8928401374
 10
8.2844919895
 20
5.8427364133
 10
8.2856117107
 20
5.7864513153
 10
8.2867358916
 20
5.7261650203
 10
8.2889539482
 20
5.6034502379
  0
LWPOLYLINE
  5
6AA
100
AcDbEntity
  8
0
100
AcDbPolyline
 62
7
  6
CONTINUOUS
 90
9
 70
0
 10
8.3189686037
 20
6.013212744
 10
8.3200756017
 20
5.9972225141
 10
8.321178962
 20
5.971304152
 10
8.3222803579
 20
5.936268824
 10
8.3233858752
 20
5.8929499689
 10
8.3244897364
 20
5.8428446882
 10
8.3256101882
 20
5.7865308063
 10
8.3267351337
 20
5.7262065252
 10
8.3289145141
 20
5.6056111184
  0
LWPOLYLINE
  5
6AB
100
AcDbEntity
  8
0
100
AcDbPolyline
 62
7
  6
CONTINUOUS
 90
8
 70
0
 10
8.3387223971
 20
5.3162017031
 10
8.337615977
 20
5.3322093285
 10
8.3365082167
 20
5.358271686
 10
8.3353878743
 20
5.3940389818
 10
8.3342717829
 20
5.4379852045
 10
8.3331679573
 20
5.4882898721
 10
8.3320554676
 20
5.5443375206
 10
8.3309468152
 20
5.6038409394
  0
LWPOLYLINE
  5
6AC
100
AcDbEntity
  8
0
100
AcDbPolyline
 62
7
  6
CONTINUOUS
 90
8
 70
0
 10
8.3787225355
 20
5.3162003504
 10
8.3776185691
 20
5.3321598709
 10
8.3765040011
 20
5.3583891365
 10
8.3753791552
 20
5.3943517397
 10
8.3742611556
 20
5.4384393814
 10
8.3731580163
 20
5.4887693451
 10
8.3720497547
 20
5.5446363168
 10
8.3709476697
 20
5.6037941284
  0
LWPOLYLINE
  5
6AD
100
AcDbEntity
  8
0
100
AcDbPolyline
 62
7
  6
CONTINUOUS
 90
9
 70
0
 10
8.3689468152
 20
5.6038409394
 10
8.3700554676
 20
5.5443375206
 10
8.3711679573
 20
5.4882898721
 10
8.3722717829
 20
5.4379852045
 10
8.3733878743
 20
5.3940389818
 10
8.3745082167
 20
5.358271686
 10
8.375615977
 20
5.3322093285
 10
8.3767223971
 20
5.3162017031
 10
8.377742955
 20
5.3107396436
  0
LWPOLYLINE
  5
6AE
100
AcDbEntity
  8
0
100
AcDbPolyline
 62
7
  6
CONTINUOUS
 90
10
 70
0
 10
8.3289145141
 20
5.6056111184
 10
8.3299940468
 20
5.5475549994
 10
8.3310757861
 20
5.4927518168
 10
8.3321467046
 20
5.4433703493
 10
8.3332257861
 20
5.3999355232
 10
8.3343089905
 20
5.3639681685
 10
8.3353809882
 20
5.3369209253
 10
8.3364506546
 20
5.3191738402
 10
8.3375371928
 20
5.311111505
 10
8.337742955
 20
5.3107396436
  0
LWPOLYLINE
  5
6AF
100
AcDbEntity
  8
0
100
AcDbPolyline
 62
7
  6
CONTINUOUS
 90
10
 70
0
 10
8.3309468152
 20
5.6038409394
 10
8.3287350923
 20
5.7262087935
 10
8.3276101048
 20
5.786535165
 10
8.3264896162
 20
5.8428504653
 10
8.3253859629
 20
5.8929462433
 10
8.3242824445
 20
5.9361943858
 10
8.3231804017
 20
5.9712641328
 10
8.3220754199
 20
5.9972259815
 10
8.3209683421
 20
6.0132152928
 10
8.319951095
 20
6.0186450451
  0
LWPOLYLINE
  5
6B0
100
AcDbEntity
  8
0
100
AcDbPolyline
 62
7
  6
CONTINUOUS
 90
10
 70
0
 10
8.3709476697
 20
5.6037941284
 10
8.3687357783
 20
5.7261712277
 10
8.3676114818
 20
5.7864632671
 10
8.3664916655
 20
5.8427519868
 10
8.3653890576
 20
5.8928146805
 10
8.3642890433
 20
5.9359587748
 10
8.36318254
 20
5.9712046632
 10
8.3620757039
 20
5.9972205654
 10
8.3609692571
 20
6.0132063745
 10
8.359951095
 20
6.0186450451
  0
LINE
  5
6B1
100
AcDbEntity
  8
0
100
AcDbLine
 62
7
  6
CONTINUOUS
 10
8.459951095
 20
5.3107396436
 11
8.476455699
 21
5.3257417356
  0
LINE
  5
6B2
100
AcDbEntity
  8
0
100
AcDbLine
 62
7
  6
CONTINUOUS
 10
8.499951095
 20
5.3107396436
 11
8.516455699
 21
5.3257417356
  0
LINE
  5
6B3
100
AcDbEntity
  8
0
100
AcDbLine
 62
7
  6
CONTINUOUS
 10
8.539951095
 20
5.3107396436
 11
8.556455699
 21
5.3257417356
  0
LINE
  5
6B4
100
AcDbEntity
  8
0
100
AcDbLine
 62
7
  6
CONTINUOUS
 10
8.539847025
 20
5.3106923443
 11
8.539951095
 21
5.3107396436
  0
LINE
  5
6B5
100
AcDbEntity
  8
0
100
AcDbLine
 62
7
  6
CONTINUOUS
 10
8.459951095
 20
5.3107396436
 11
8.4598469547
 21
5.3106923444
  0
LINE
  5
6B6
100
AcDbEntity
  8
0
100
AcDbLine
 62
7
  6
CONTINUOUS
 10
8.499951095
 20
5.3107396436
 11
8.4998469443
 21
5.3106923444
  0
LWPOLYLINE
  5
6B7
100
AcDbEntity
  8
0
100
AcDbPolyline
 62
9
  6
CONTINUOUS
 90
6
 70
0
 10
8.904847025
 20
4.8951267201
 10
8.8645989464
 20
4.8936040778
 10
8.8233041001
 20
4.8888957602
 10
8.7826243771
 20
4.8811974719
 10
8.7442299152
 20
4.8712250546
 10
8.7095653349
 20
4.8600456828
  0
LINE
  5
6B8
100
AcDbEntity
  8
0
100
AcDbLine
 62
7
  6
CONTINUOUS
 10
9.2012021285
 20
4.8756923443
 11
9.1916418522
 21
4.8756923443
  0
LINE
  5
6B9
100
AcDbEntity
  8
0
100
AcDbLine
 62
7
  6
CONTINUOUS
 10
8.041238351
 20
5.3257417356
 11
8.057742955
 21
5.3107396436
  0
LINE
  5
6BA
100
AcDbEntity
  8
0
100
AcDbLine
 62
7
  6
CONTINUOUS
 10
8.614847025
 20
4.4926923443
 11
8.6437145385
 21
4.4426923443
  0
LINE
  5
6BB
100
AcDbEntity
  8
0
100
AcDbLine
 62
7
  6
CONTINUOUS
 10
8.021347025
 20
6.0036923443
 11
8.022097025
 21
6.0013425513
  0
LWPOLYLINE
  5
6BC
100
AcDbEntity
  8
0
100
AcDbPolyline
 62
7
  6
CONTINUOUS
 90
18
 70
0
 10
8.101347025
 20
6.0036923443
 10
8.1021965826
 20
6.0006782945
 10
8.1033293259
 20
5.9873904986
 10
8.1044620693
 20
5.9639131953
 10
8.1055948126
 20
5.9309877031
 10
8.106727556
 20
5.8896536765
 10
8.1078602994
 20
5.8412162774
 10
8.1089930427
 20
5.7872049637
 10
8.1101257861
 20
5.7293251951
 10
8.1112585295
 20
5.6694045816
 10
8.1123912728
 20
5.6093351745
 10
8.1135240162
 20
5.5510137239
 10
8.1146567595
 20
5.496281786
 10
8.1157895029
 20
5.446867575
 10
8.1169222463
 20
5.4043313926
 10
8.1180549896
 20
5.37001636
 10
8.119187733
 20
5.3450060077
 10
8.1203204764
 20
5.3300900617
  0
LWPOLYLINE
  5
6BD
100
AcDbEntity
  8
0
100
AcDbPolyline
 62
7
  6
CONTINUOUS
 90
19
 70
0
 10
8.096455699
 20
6.0036429531
 10
8.0971965826
 20
6.0006782945
 10
8.0983293259
 20
5.9873904986
 10
8.0994620693
 20
5.9639131953
 10
8.1005948126
 20
5.9309877031
 10
8.101727556
 20
5.8896536765
 10
8.1028602994
 20
5.8412162774
 10
8.1039930427
 20
5.7872049637
 10
8.1051257861
 20
5.7293251951
 10
8.1062585295
 20
5.6694045816
 10
8.1073912728
 20
5.6093351745
 10
8.1085240162
 20
5.5510137239
 10
8.1096567595
 20
5.496281786
 10
8.1107895029
 20
5.446867575
 10
8.1119222463
 20
5.4043313926
 10
8.1130549896
 20
5.37001636
 10
8.114187733
 20
5.3450060077
 10
8.1153204764
 20
5.3300900617
 10
8.116347025
 20
5.3256923443
  0
LINE
  5
6BE
100
AcDbEntity
  8
0
100
AcDbLine
 62
7
  6
CONTINUOUS
 10
8.157847025
 20
6.0186923443
 11
8.1589703306
 21
6.0131959011
  0
LINE
  5
6BF
100
AcDbEntity
  8
0
100
AcDbLine
 62
7
  6
CONTINUOUS
 10
8.259847025
 20
5.3106923443
 11
8.2587232989
 21
5.3161928936
  0
LINE
  5
6C0
100
AcDbEntity
  8
0
100
AcDbLine
 62
7
  6
CONTINUOUS
 10
8.339847025
 20
5.3106923443
 11
8.3387223971
 21
5.3162017031
  0
LINE
  5
6C1
100
AcDbEntity
  8
0
100
AcDbLine
 62
7
  6
CONTINUOUS
 10
8.197847025
 20
6.0186923443
 11
8.1989722871
 21
6.013176787
  0
LINE
  5
6C2
100
AcDbEntity
  8
0
100
AcDbLine
 62
7
  6
CONTINUOUS
 10
8.1178470365
 20
6.0186923443
 11
8.1189736655
 21
6.0131633021
  0
LWPOLYLINE
  5
6C3
100
AcDbEntity
  8
0
100
AcDbPolyline
 62
7
  6
CONTINUOUS
 90
15
 70
0
 10
8.176455699
 20
6.0036429531
 10
8.1776213613
 20
5.9969233068
 10
8.1787541047
 20
5.9797475985
 10
8.179886848
 20
5.9526237148
 10
8.1810195914
 20
5.9164081185
 10
8.1821523348
 20
5.8722443522
 10
8.1832850781
 20
5.8215269299
 10
8.1844178215
 20
5.7658573032
 10
8.1855505649
 20
5.7069932947
 10
8.1866833082
 20
5.6467935927
 10
8.1878160516
 20
5.5871590612
 10
8.1889487949
 20
5.5299727183
 10
8.1900815383
 20
5.4770402784
 10
8.1912142817
 20
5.4300331346
 10
8.192347025
 20
5.3904355833
  0
LINE
  5
6C4
100
AcDbEntity
  8
0
100
AcDbLine
 62
7
  6
CONTINUOUS
 10
8.2800372905
 20
5.332841317
 11
8.281238351
 21
5.3257417356
  0
LWPOLYLINE
  5
6C5
100
AcDbEntity
  8
0
100
AcDbPolyline
 62
7
  6
CONTINUOUS
 90
9
 70
0
 10
8.2995371928
 20
5.311111505
 10
8.2984506546
 20
5.3191738402
 10
8.2973809882
 20
5.3369209253
 10
8.2963089905
 20
5.3639681685
 10
8.2952257861
 20
5.3999355232
 10
8.2941467046
 20
5.4433703493
 10
8.2930757861
 20
5.4927518168
 10
8.2919940468
 20
5.5475549994
 10
8.2909145141
 20
5.6056111184
  0
LWPOLYLINE
  5
6C6
100
AcDbEntity
  8
0
100
AcDbPolyline
 62
7
  6
CONTINUOUS
 90
18
 70
0
 10
8.3769841932
 20
6.0019958399
 10
8.3781169365
 20
5.9906752692
 10
8.3792496799
 20
5.9690614711
 10
8.3803824233
 20
5.9378369224
 10
8.3815151666
 20
5.8979875685
 10
8.38264791
 20
5.8507716914
 10
8.3837806534
 20
5.7976801782
 10
8.3849133967
 20
5.7403894451
 10
8.3860461401
 20
5.6807085026
 10
8.3871788834
 20
5.6205218343
 10
8.3883116268
 20
5.5617298927
 10
8.3894443702
 20
5.5061890905
 10
8.3905771135
 20
5.4556531824
 10
8.3917098569
 20
5.4117178888
 10
8.3928426003
 20
5.3757705093
 10
8.3939753436
 20
5.3489461171
 10
8.395108087
 20
5.3320917186
 10
8.396347025
 20
5.3256923443
  0
LWPOLYLINE
  5
6C7
100
AcDbEntity
  8
0
100
AcDbPolyline
 62
7
  6
CONTINUOUS
 90
9
 70
0
 10
8.4389553403
 20
6.0133412516
 10
8.4400615673
 20
5.9974893502
 10
8.4411713675
 20
5.9715150045
 10
8.4422847315
 20
5.936112761
 10
8.4433870625
 20
5.8928995035
 10
8.4444899426
 20
5.8428347829
 10
8.4456103128
 20
5.786524301
 10
8.4467351963
 20
5.7262030942
 10
8.4489498879
 20
5.6036726288
  0
LWPOLYLINE
  5
6C8
100
AcDbEntity
  8
0
100
AcDbPolyline
 62
7
  6
CONTINUOUS
 90
9
 70
0
 10
8.3589683421
 20
6.0132152928
 10
8.3600754199
 20
5.9972259815
 10
8.3611804017
 20
5.9712641328
 10
8.3622824445
 20
5.9361943858
 10
8.3633859629
 20
5.8929462433
 10
8.3644896162
 20
5.8428504653
 10
8.3656101048
 20
5.786535165
 10
8.3667350923
 20
5.7262087935
 10
8.3689468152
 20
5.6038409394
  0
LWPOLYLINE
  5
6C9
100
AcDbEntity
  8
0
100
AcDbPolyline
 62
7
  6
CONTINUOUS
 90
9
 70
0
 10
8.3989692571
 20
6.0132063745
 10
8.4000757039
 20
5.9972205654
 10
8.40118254
 20
5.9712046632
 10
8.4022890433
 20
5.9359587748
 10
8.4033890576
 20
5.8928146805
 10
8.4044916655
 20
5.8427519868
 10
8.4056114818
 20
5.7864632671
 10
8.4067357783
 20
5.7261712277
 10
8.4089476697
 20
5.6037941284
  0
LWPOLYLINE
  5
6CA
100
AcDbEntity
  8
0
100
AcDbPolyline
 62
7
  6
CONTINUOUS
 90
8
 70
0
 10
8.4187184196
 20
5.3162406394
 10
8.4176186087
 20
5.3321591161
 10
8.4165035062
 20
5.3584029314
 10
8.4153780909
 20
5.3943899493
 10
8.4142595342
 20
5.4385087292
 10
8.4131564791
 20
5.4888435267
 10
8.4120517453
 20
5.5445321928
 10
8.4109498879
 20
5.6036726288
  0
LWPOLYLINE
  5
6CB
100
AcDbEntity
  8
0
100
AcDbPolyline
 62
7
  6
CONTINUOUS
 90
8
 70
0
 10
8.4587178695
 20
5.3162460357
 10
8.4576182424
 20
5.3321661026
 10
8.4565032696
 20
5.3584095276
 10
8.4553779902
 20
5.3943935676
 10
8.4542595617
 20
5.438507551
 10
8.4531570315
 20
5.4888168664
 10
8.4520549944
 20
5.5443622646
 10
8.450950967
 20
5.6036135201
  0
LWPOLYLINE
  5
6CC
100
AcDbEntity
  8
0
100
AcDbPolyline
 62
7
  6
CONTINUOUS
 90
9
 70
0
 10
8.4489498879
 20
5.6036726288
 10
8.4500517453
 20
5.5445321928
 10
8.4511564791
 20
5.4888435267
 10
8.4522595342
 20
5.4385087292
 10
8.4533780909
 20
5.3943899493
 10
8.4545035062
 20
5.3584029314
 10
8.4556186087
 20
5.3321591161
 10
8.4567184196
 20
5.3162406394
 10
8.457742955
 20
5.3107396436
  0
LWPOLYLINE
  5
6CD
100
AcDbEntity
  8
0
100
AcDbPolyline
 62
7
  6
CONTINUOUS
 90
9
 70
0
 10
8.488950967
 20
5.6036135201
 10
8.4900549944
 20
5.5443622646
 10
8.4911570315
 20
5.4888168664
 10
8.4922595617
 20
5.438507551
 10
8.4933779902
 20
5.3943935676
 10
8.4945032696
 20
5.3584095276
 10
8.4956182424
 20
5.3321661026
 10
8.4967178695
 20
5.3162460357
 10
8.497742955
 20
5.3107396436
  0
LWPOLYLINE
  5
6CE
100
AcDbEntity
  8
0
100
AcDbPolyline
 62
7
  6
CONTINUOUS
 90
9
 70
0
 10
8.4089476697
 20
5.6037941284
 10
8.4100497547
 20
5.5446363168
 10
8.4111580163
 20
5.4887693451
 10
8.4122611556
 20
5.4384393814
 10
8.4133791552
 20
5.3943517397
 10
8.4145040011
 20
5.3583891365
 10
8.4156185691
 20
5.3321598709
 10
8.4167225355
 20
5.3162003504
 10
8.417742955
 20
5.3107396436
  0
LWPOLYLINE
  5
6CF
100
AcDbEntity
  8
0
100
AcDbPolyline
 62
7
  6
CONTINUOUS
 90
10
 70
0
 10
8.4109498879
 20
5.6036726288
 10
8.4087351963
 20
5.7262030942
 10
8.4076103128
 20
5.786524301
 10
8.4064899426
 20
5.8428347829
 10
8.4053870625
 20
5.8928995035
 10
8.4042847315
 20
5.936112761
 10
8.4031713675
 20
5.9715150045
 10
8.4020615673
 20
5.9974893502
 10
8.4009553403
 20
6.0133412516
 10
8.399951095
 20
6.0186450451
  0
LWPOLYLINE
  5
6D0
100
AcDbEntity
  8
0
100
AcDbPolyline
 62
7
  6
CONTINUOUS
 90
10
 70
0
 10
8.450950967
 20
5.6036135201
 10
8.4487219591
 20
5.7269278342
 10
8.4475837334
 20
5.7879109305
 10
8.446450535
 20
5.8447249824
 10
8.4453352722
 20
5.8950935116
 10
8.4442150513
 20
5.938583887
 10
8.4430845626
 20
5.973893949
 10
8.4419614061
 20
5.9993466773
 10
8.4408416317
 20
6.0143808062
 10
8.439951095
 20
6.0186450451
  0
LWPOLYLINE
  5
6D1
100
AcDbEntity
  8
0
100
AcDbPolyline
 62
7
  6
CONTINUOUS
 90
10
 70
0
 10
8.490952581
 20
5.6035251208
 10
8.4887355506
 20
5.7261836946
 10
8.4876110254
 20
5.786487099
 10
8.4864909918
 20
5.8427843609
 10
8.4853873619
 20
5.8928867746
 10
8.4842716744
 20
5.9365782992
 10
8.4831487228
 20
5.9721411147
 10
8.4820356046
 20
5.9979787156
 10
8.480931498
 20
6.0135684518
 10
8.479951095
 20
6.0186450451
  0
LWPOLYLINE
  5
6D2
100
AcDbEntity
  8
0
100
AcDbPolyline
 62
9
  6
CONTINUOUS
 90
6
 70
0
 10
8.904847025
 20
4.9496092422
 10
8.8564128965
 20
4.9481943976
 10
8.8067190985
 20
4.9438194122
 10
8.7577655334
 20
4.9366661354
 10
8.7115620285
 20
4.92739973
 10
8.669847025
 20
4.9170118181
  0
LWPOLYLINE
  5
6D3
100
AcDbEntity
  8
0
100
AcDbPolyline
 62
9
  6
CONTINUOUS
 90
6
 70
0
 10
8.669847025
 20
4.9170118181
 10
8.6806152153
 20
4.9113641851
 10
8.6906222947
 20
4.9020892887
 10
8.6991609492
 20
4.8898426915
 10
8.7056276545
 20
4.8754900001
 10
8.7095653349
 20
4.8600456828
  0
LINE
  5
6D4
100
AcDbEntity
  8
0
100
AcDbLine
 62
7
  6
CONTINUOUS
 10
8.081238351
 20
5.3257417356
 11
8.097742955
 21
5.3107396436
  0
LINE
  5
6D5
100
AcDbEntity
  8
0
100
AcDbLine
 62
7
  6
CONTINUOUS
 10
8.121238351
 20
5.3257417356
 11
8.137742955
 21
5.3107396436
  0
LINE
  5
6D6
100
AcDbEntity
  8
0
100
AcDbLine
 62
7
  6
CONTINUOUS
 10
8.161238351
 20
5.3257417356
 11
8.177742955
 21
5.3107396436
  0
LINE
  5
6D7
100
AcDbEntity
  8
0
100
AcDbLine
 62
7
  6
CONTINUOUS
 10
8.2998470425
 20
5.3106923443
 11
8.2995371928
 21
5.311111505
  0
LINE
  5
6D8
100
AcDbEntity
  8
0
100
AcDbLine
 62
7
  6
CONTINUOUS
 10
8.136455699
 20
6.0036429531
 11
8.1368426003
 21
6.0026657253
  0
LINE
  5
6D9
100
AcDbEntity
  8
0
100
AcDbLine
 62
7
  6
CONTINUOUS
 10
8.3208160516
 20
5.326870773
 11
8.321238351
 21
5.3257417356
  0
LWPOLYLINE
  5
6DA
100
AcDbEntity
  8
0
100
AcDbPolyline
 62
7
  6
CONTINUOUS
 90
18
 70
0
 10
8.221347025
 20
6.0036923443
 10
8.222267379
 20
6.0001559335
 10
8.2234001224
 20
5.9862155746
 10
8.2245328657
 20
5.9621228075
 10
8.2256656091
 20
5.9286383849
 10
8.2267983525
 20
5.8868196097
 10
8.2279310958
 20
5.8379869506
 10
8.2290638392
 20
5.7836823459
 10
8.2301965826
 20
5.7256205165
 10
8.2313293259
 20
5.6656348209
 10
8.2324620693
 20
5.6056193657
 10
8.2335948126
 20
5.5474691971
 10
8.234727556
 20
5.4930204632
 10
8.2358602994
 20
5.4439924357
 10
8.2369930427
 20
5.4019332219
 10
8.2381257861
 20
5.3681708826
 10
8.2392585295
 20
5.3437714963
 10
8.2403912728
 20
5.3295054973
  0
LINE
  5
6DB
100
AcDbEntity
  8
0
100
AcDbLine
 62
7
  6
CONTINUOUS
 10
8.3604620693
 20
5.3289623848
 11
8.361238351
 21
5.3257417356
  0
LWPOLYLINE
  5
6DC
100
AcDbEntity
  8
0
100
AcDbPolyline
 62
7
  6
CONTINUOUS
 90
19
 70
0
 10
8.216455699
 20
6.0036429531
 10
8.217267379
 20
6.0001559335
 10
8.2184001224
 20
5.9862155746
 10
8.2195328657
 20
5.9621228075
 10
8.2206656091
 20
5.9286383849
 10
8.2217983525
 20
5.8868196097
 10
8.2229310958
 20
5.8379869506
 10
8.2240638392
 20
5.7836823459
 10
8.2251965826
 20
5.7256205165
 10
8.2263293259
 20
5.6656348209
 10
8.2274620693
 20
5.6056193657
 10
8.2285948126
 20
5.5474691971
 10
8.229727556
 20
5.4930204632
 10
8.2308602994
 20
5.4439924357
 10
8.2319930427
 20
5.4019332219
 10
8.2331257861
 20
5.3681708826
 10
8.2342585295
 20
5.3437714963
 10
8.2353912728
 20
5.3295054973
 10
8.236347025
 20
5.3256923443
  0
LINE
  5
6DD
100
AcDbEntity
  8
0
100
AcDbLine
 62
7
  6
CONTINUOUS
 10
8.277847025
 20
6.0186923443
 11
8.278969869
 21
6.0132004059
  0
LINE
  5
6DE
100
AcDbEntity
  8
0
100
AcDbLine
 62
7
  6
CONTINUOUS
 10
8.3798470226
 20
5.3106923443
 11
8.3787225355
 21
5.3162003504
  0
LINE
  5
6DF
100
AcDbEntity
  8
0
100
AcDbLine
 62
7
  6
CONTINUOUS
 10
8.237847025
 20
6.0186923443
 11
8.2389717594
 21
6.0131819454
  0
LINE
  5
6E0
100
AcDbEntity
  8
0
100
AcDbLine
 62
7
  6
CONTINUOUS
 10
8.4198469892
 20
5.3106923444
 11
8.4187184196
 21
5.3162406394
  0
LINE
  5
6E1
100
AcDbEntity
  8
0
100
AcDbLine
 62
7
  6
CONTINUOUS
 10
8.4598469547
 20
5.3106923444
 11
8.4587178695
 21
5.3162460357
  0
LINE
  5
6E2
100
AcDbEntity
  8
0
100
AcDbLine
 62
7
  6
CONTINUOUS
 10
8.400108087
 20
5.3320917186
 11
8.401238351
 21
5.3257417356
  0
LWPOLYLINE
  5
6E3
100
AcDbEntity
  8
0
100
AcDbPolyline
 62
7
  6
CONTINUOUS
 90
19
 70
0
 10
8.296455699
 20
6.0036429531
 10
8.2976921578
 20
5.9961531767
 10
8.2988249011
 20
5.978336452
 10
8.2999576445
 20
5.9506161101
 10
8.3010903879
 20
5.9138674477
 10
8.3022231312
 20
5.8692508395
 10
8.3033558746
 20
5.8181750983
 10
8.304488618
 20
5.7622529901
 10
8.3056213613
 20
5.7032503097
 10
8.3067541047
 20
5.6430301243
 10
8.307886848
 20
5.5834939444
 10
8.3090195914
 20
5.5265216828
 10
8.3101523348
 20
5.473912294
 10
8.3112850781
 20
5.4273269705
 10
8.3124178215
 20
5.3882366892
 10
8.3135505649
 20
5.3578757635
 10
8.3146833082
 20
5.3372028692
 10
8.3158160516
 20
5.326870773
 10
8.316347025
 20
5.3256923443
  0
LWPOLYLINE
  5
6E4
100
AcDbEntity
  8
0
100
AcDbPolyline
 62
9
  6
CONTINUOUS
 90
8
 70
0
 10
8.609847025
 20
4.9371923443
 10
8.6128965561
 20
4.9094568731
 10
8.621397271
 20
4.8873313264
 10
8.6341575086
 20
4.8711228354
 10
8.650032101
 20
4.8605795816
 10
8.668172125
 20
4.8553007762
 10
8.688089098
 20
4.8550592923
 10
8.7095653349
 20
4.8600456828
  0
LWPOLYLINE
  5
6E5
100
AcDbEntity
  8
0
100
AcDbPolyline
 62
7
  6
CONTINUOUS
 90
9
 70
0
 10
8.4788416317
 20
6.0143808062
 10
8.4799614061
 20
5.9993466773
 10
8.4810845626
 20
5.973893949
 10
8.4822150513
 20
5.938583887
 10
8.4833352722
 20
5.8950935116
 10
8.484450535
 20
5.8447249824
 10
8.4855837334
 20
5.7879109305
 10
8.4867219591
 20
5.7269278342
 10
8.488950967
 20
5.6036135201
  0
LWPOLYLINE
  5
6E6
100
AcDbEntity
  8
0
100
AcDbPolyline
 62
7
  6
CONTINUOUS
 90
9
 70
0
 10
8.518931498
 20
6.0135684518
 10
8.5200356046
 20
5.9979787156
 10
8.5211487228
 20
5.9721411147
 10
8.5222716744
 20
5.9365782992
 10
8.5233873619
 20
5.8928867746
 10
8.5244909918
 20
5.8427843609
 10
8.5256110254
 20
5.786487099
 10
8.5267355506
 20
5.7261836946
 10
8.5289505615
 20
5.603635733
  0
LWPOLYLINE
  5
6E7
100
AcDbEntity
  8
0
100
AcDbPolyline
 62
7
  6
CONTINUOUS
 90
8
 70
0
 10
8.4987209192
 20
5.3162161543
 10
8.4976206319
 20
5.3321205528
 10
8.496506157
 20
5.3583290549
 10
8.4953813484
 20
5.3942730181
 10
8.4942633209
 20
5.438346789
 10
8.4931619103
 20
5.4885814782
 10
8.4920614872
 20
5.5440227888
 10
8.490952581
 20
5.6035251208
  0
LWPOLYLINE
  5
6E8
100
AcDbEntity
  8
0
100
AcDbPolyline
 62
7
  6
CONTINUOUS
 90
9
 70
0
 10
8.5474581361
 20
5.6058256121
 10
8.5485843988
 20
5.5479896838
 10
8.5497106614
 20
5.4937968199
 10
8.550836924
 20
5.4449387391
 10
8.5519631866
 20
5.4029406264
 10
8.5530894493
 20
5.3691135216
 10
8.5542157119
 20
5.3445133929
 10
8.5553419745
 20
5.3299081736
 10
8.556347025
 20
5.3256923443
  0
LWPOLYLINE
  5
6E9
100
AcDbEntity
  8
0
100
AcDbPolyline
 62
7
  6
CONTINUOUS
 90
9
 70
0
 10
8.5287366567
 20
5.7261231235
 10
8.5276158061
 20
5.7862374564
 10
8.5265017149
 20
5.8422687909
 10
8.5253998065
 20
5.8923573023
 10
8.524280794
 20
5.9362532697
 10
8.5231555749
 20
5.9719520704
 10
8.5220412151
 20
5.997873433
 10
8.5209380163
 20
6.0135068234
 10
8.519951095
 20
6.0186450451
  0
LWPOLYLINE
  5
6EA
100
AcDbEntity
  8
0
100
AcDbPolyline
 62
7
  6
CONTINUOUS
 90
9
 70
0
 10
8.5287366567
 20
5.7261231235
 10
8.5309581256
 20
5.6032214687
 10
8.532069252
 20
5.5436169667
 10
8.5331803417
 20
5.4876931466
 10
8.5342914169
 20
5.4371477716
 10
8.5354025574
 20
5.3935134417
 10
8.5365137234
 20
5.3581184698
 10
8.5376248487
 20
5.3320402846
 10
8.5387359263
 20
5.3160702806
  0
LINE
  5
6EB
100
AcDbEntity
  8
0
100
AcDbLine
 62
7
  6
CONTINUOUS
 10
8.559847025
 20
6.0186923443
 11
8.559847025
 21
5.3351804876
  0
LINE
  5
6EC
100
AcDbEntity
  8
0
100
AcDbLine
 62
9
  6
CONTINUOUS
 10
8.559847025
 20
5.3351804876
 11
8.559847025
 21
5.3259423443
  0
LINE
  5
6ED
100
AcDbEntity
  8
0
100
AcDbLine
 62
9
  6
CONTINUOUS
 10
8.597347025
 20
5.3259423443
 11
8.597347025
 21
6.0034423443
  0
LINE
  5
6EE
100
AcDbEntity
  8
0
100
AcDbLine
 62
7
  6
CONTINUOUS
 10
8.609847025
 20
4.5426923443
 11
8.609847025
 21
6.3921923443
  0
LWPOLYLINE
  5
6EF
100
AcDbEntity
  8
0
100
AcDbPolyline
 62
7
  6
CONTINUOUS
 90
6
 70
0
 10
9.049847025
 20
4.9155167975
 10
9.0932548008
 20
4.9059193282
 10
9.1308612047
 20
4.8957180864
 10
9.1609539812
 20
4.8863416695
 10
9.1826010497
 20
4.8789530121
 10
9.1955487633
 20
4.8742832726
  0
LINE
  5
6F0
100
AcDbEntity
  8
0
100
AcDbLine
 62
7
  6
CONTINUOUS
 10
8.057742955
 20
5.3107396436
 11
8.0578470897
 21
5.3106923444
  0
LINE
  5
6F1
100
AcDbEntity
  8
0
100
AcDbLine
 62
7
  6
CONTINUOUS
 10
8.097742955
 20
5.3107396436
 11
8.097847056
 21
5.3106923443
  0
LINE
  5
6F2
100
AcDbEntity
  8
0
100
AcDbLine
 62
7
  6
CONTINUOUS
 10
8.201238351
 20
5.3257417356
 11
8.217742955
 21
5.3107396436
  0
LINE
  5
6F3
100
AcDbEntity
  8
0
100
AcDbLine
 62
7
  6
CONTINUOUS
 10
8.241238351
 20
5.3257417356
 11
8.257742955
 21
5.3107396436
  0
LINE
  5
6F4
100
AcDbEntity
  8
0
100
AcDbLine
 62
7
  6
CONTINUOUS
 10
8.281238351
 20
5.3257417356
 11
8.297742955
 21
5.3107396436
  0
LINE
  5
6F5
100
AcDbEntity
  8
0
100
AcDbLine
 62
7
  6
CONTINUOUS
 10
8.321238351
 20
5.3257417356
 11
8.337742955
 21
5.3107396436
  0
LWPOLYLINE
  5
6F6
100
AcDbEntity
  8
0
100
AcDbPolyline
 62
7
  6
CONTINUOUS
 90
18
 70
0
 10
8.141347025
 20
6.0036923443
 10
8.1418426003
 20
6.0026657253
 10
8.1429753436
 20
5.9926637731
 10
8.144108087
 20
5.9723058047
 10
8.1452408303
 20
5.9422346426
 10
8.1463735737
 20
5.903399813
 10
8.1475063171
 20
5.8570275634
 10
8.1486390604
 20
5.8045821424
 10
8.1497718038
 20
5.7477195654
 10
8.1509045472
 20
5.6882353232
 10
8.1520372905
 20
5.6280076885
 10
8.1531700339
 20
5.5689384076
 10
8.1543027772
 20
5.5128926501
 10
8.1554355206
 20
5.4616401153
 10
8.156568264
 20
5.4167991518
 10
8.1577010073
 20
5.3797856565
 10
8.1588337507
 20
5.3517683665
 10
8.1599664941
 20
5.3336319548
  0
LINE
  5
6F7
100
AcDbEntity
  8
0
100
AcDbLine
 62
7
  6
CONTINUOUS
 10
8.440886848
 20
5.3265776029
 11
8.441238351
 21
5.3257417356
  0
LINE
  5
6F8
100
AcDbEntity
  8
0
100
AcDbLine
 62
7
  6
CONTINUOUS
 10
8.256455699
 20
6.0036429531
 11
8.2569133967
 21
6.0023516615
  0
LINE
  5
6F9
100
AcDbEntity
  8
0
100
AcDbLine
 62
7
  6
CONTINUOUS
 10
8.5206101829
 20
5.3279605031
 11
8.521238351
 21
5.3257417356
  0
LWPOLYLINE
  5
6FA
100
AcDbEntity
  8
0
100
AcDbPolyline
 62
7
  6
CONTINUOUS
 90
18
 70
0
 10
8.341347025
 20
6.0036923443
 10
8.3423381755
 20
5.9995920863
 10
8.3434709188
 20
5.9850008883
 10
8.3446036622
 20
5.960295637
 10
8.3457364056
 20
5.9262564248
 10
8.3468691489
 20
5.8839580729
 10
8.3480018923
 20
5.8347361927
 10
8.3491346357
 20
5.7801450129
 10
8.350267379
 20
5.7219083031
 10
8.3514001224
 20
5.6618649437
 10
8.3525328657
 20
5.6019108623
 10
8.3536656091
 20
5.5439391672
 10
8.3547983525
 20
5.4897803708
 10
8.3559310958
 20
5.4411445898
 10
8.3570638392
 20
5.3995675462
 10
8.3581965826
 20
5.3663620755
 10
8.3593293259
 20
5.3425766726
 10
8.3604620693
 20
5.3289623848
  0
LWPOLYLINE
  5
6FB
100
AcDbEntity
  8
0
100
AcDbPolyline
 62
7
  6
CONTINUOUS
 90
19
 70
0
 10
8.336455699
 20
6.0036429531
 10
8.3373381755
 20
5.9995920863
 10
8.3384709188
 20
5.9850008883
 10
8.3396036622
 20
5.960295637
 10
8.3407364056
 20
5.9262564248
 10
8.3418691489
 20
5.8839580729
 10
8.3430018923
 20
5.8347361927
 10
8.3441346357
 20
5.7801450129
 10
8.345267379
 20
5.7219083031
 10
8.3464001224
 20
5.6618649437
 10
8.3475328657
 20
5.6019108623
 10
8.3486656091
 20
5.5439391672
 10
8.3497983525
 20
5.4897803708
 10
8.3509310958
 20
5.4411445898
 10
8.3520638392
 20
5.3995675462
 10
8.3531965826
 20
5.3663620755
 10
8.3543293259
 20
5.3425766726
 10
8.3554620693
 20
5.3289623848
 10
8.356347025
 20
5.3256923443
  0
LINE
  5
6FC
100
AcDbEntity
  8
0
100
AcDbLine
 62
7
  6
CONTINUOUS
 10
8.5387359263
 20
5.3160702806
 11
8.539847025
 21
5.3106923443
  0
LINE
  5
6FD
100
AcDbEntity
  8
0
100
AcDbLine
 62
7
  6
CONTINUOUS
 10
8.317847025
 20
6.0186923443
 11
8.3189686037
 21
6.013212744
  0
LINE
  5
6FE
100
AcDbEntity
  8
0
100
AcDbLine
 62
7
  6
CONTINUOUS
 10
8.357847025
 20
6.0186923443
 11
8.3589683421
 21
6.0132152928
  0
LINE
  5
6FF
100
AcDbEntity
  8
0
100
AcDbLine
 62
7
  6
CONTINUOUS
 10
8.397847025
 20
6.0186923443
 11
8.3989692571
 21
6.0132063745
  0
LINE
  5
700
100
AcDbEntity
  8
0
100
AcDbLine
 62
7
  6
CONTINUOUS
 10
8.4998469443
 20
5.3106923444
 11
8.4987209192
 21
5.3162161543
  0
LINE
  5
701
100
AcDbEntity
  8
0
100
AcDbLine
 62
7
  6
CONTINUOUS
 10
8.4802522882
 20
5.3306922115
 11
8.481238351
 21
5.3257417356
  0
LWPOLYLINE
  5
702
100
AcDbEntity
  8
0
100
AcDbPolyline
 62
7
  6
CONTINUOUS
 90
9
 70
0
 10
8.537742955
 20
5.3107396436
 10
8.536675423
 20
5.3166702237
 10
8.5355719052
 20
5.3330586579
 10
8.534468338
 20
5.3593880941
 10
8.5333647317
 20
5.3948702286
 10
8.5322611487
 20
5.4384396766
 10
8.5311576277
 20
5.4887880957
 10
8.5300541104
 20
5.5444084974
 10
8.5289505615
 20
5.603635733
  0
LWPOLYLINE
  5
703
100
AcDbEntity
  8
0
100
AcDbPolyline
 62
7
  6
CONTINUOUS
 90
19
 70
0
 10
8.4166302109
 20
6.0033570078
 10
8.4177629542
 20
5.9953420555
 10
8.4188956976
 20
5.9768865177
 10
8.420028441
 20
5.9485731457
 10
8.4211611843
 20
5.9112959619
 10
8.4222939277
 20
5.8662320294
 10
8.4234266711
 20
5.8148042857
 10
8.4245594144
 20
5.7586366118
 10
8.4256921578
 20
5.6995025563
 10
8.4268249011
 20
5.6392693347
 10
8.4279576445
 20
5.5798388693
 10
8.4290903879
 20
5.5230877347
 10
8.4302231312
 20
5.4708079031
 10
8.4313558746
 20
5.424650161
 10
8.432488618
 20
5.3860719839
 10
8.4336213613
 20
5.3562915151
 10
8.4347541047
 20
5.3362491019
 10
8.435886848
 20
5.3265776029
 10
8.436347025
 20
5.3256923443
  0
LWPOLYLINE
  5
704
100
AcDbEntity
  8
0
100
AcDbPolyline
 62
7
  6
CONTINUOUS
 90
8
 70
0
 10
8.609847025
 20
4.9371923443
 10
8.6116819123
 20
4.9241483262
 10
8.6167967493
 20
4.9151393646
 10
8.6244745194
 20
4.9097762568
 10
8.6340261809
 20
4.9075649638
 10
8.6449409411
 20
4.9081073796
 10
8.6569248825
 20
4.911219933
 10
8.669847025
 20
4.9170118181
  0
LWPOLYLINE
  5
705
100
AcDbEntity
  8
0
100
AcDbPolyline
 62
7
  6
CONTINUOUS
 90
19
 70
0
 10
8.496776318
 20
6.0029218803
 10
8.4979025806
 20
5.9936225956
 10
8.4990288432
 20
5.9740552152
 10
8.5001551058
 20
5.944830567
 10
8.5012813685
 20
5.9068609463
 10
8.5024076311
 20
5.8613316367
 10
8.5035338937
 20
5.8096639101
 10
8.5046601563
 20
5.753470659
 10
8.505786419
 20
5.6945060478
 10
8.5069126816
 20
5.634610753
 10
8.5080389442
 20
5.5756545043
 10
8.5091652069
 20
5.5194777173
 10
8.5102914695
 20
5.4678340423
 10
8.5114177321
 20
5.4223356211
 10
8.5125439947
 20
5.3844027612
 10
8.5136702574
 20
5.3552195989
 10
8.51479652
 20
5.3356971343
 10
8.5159227826
 20
5.3264447931
 10
8.516347025
 20
5.3256923443
  0
LWPOLYLINE
  5
706
100
AcDbEntity
  8
0
100
AcDbPolyline
 62
7
  6
CONTINUOUS
 90
3
 70
0
 10
8.559847025
 20
6.0013663511
 10
8.5587438252
 20
6.0151857452
 10
8.557847028
 20
6.0186923443
  0
LINE
  5
707
100
AcDbEntity
  8
0
100
AcDbLine
 62
7
  6
CONTINUOUS
 10
8.614847025
 20
4.5426923443
 11
8.614847025
 21
4.4926923443
  0
LINE
  5
708
100
AcDbEntity
  8
0
100
AcDbLine
 62
9
  6
CONTINUOUS
 10
8.669847025
 20
4.9170118181
 11
8.669847025
 21
6.4521923443
  0
LINE
  5
709
100
AcDbEntity
  8
0
100
AcDbLine
 62
7
  6
CONTINUOUS
 10
9.1955487633
 20
4.8742832726
 11
9.199847025
 21
4.8726923443
  0
LINE
  5
70A
100
AcDbEntity
  8
0
100
AcDbLine
 62
7
  6
CONTINUOUS
 10
8.137742955
 20
5.3107396436
 11
8.1378470262
 21
5.3106923443
  0
LINE
  5
70B
100
AcDbEntity
  8
0
100
AcDbLine
 62
7
  6
CONTINUOUS
 10
8.177742955
 20
5.3107396436
 11
8.177847025
 21
5.3106923443
  0
LINE
  5
70C
100
AcDbEntity
  8
0
100
AcDbLine
 62
7
  6
CONTINUOUS
 10
8.257742955
 20
5.3107396436
 11
8.257847025
 21
5.3106923443
  0
LINE
  5
70D
100
AcDbEntity
  8
0
100
AcDbLine
 62
7
  6
CONTINUOUS
 10
8.297742955
 20
5.3107396436
 11
8.297847025
 21
5.3106923443
  0
LINE
  5
70E
100
AcDbEntity
  8
0
100
AcDbLine
 62
7
  6
CONTINUOUS
 10
8.337742955
 20
5.3107396436
 11
8.3378470425
 21
5.3106923443
  0
LINE
  5
70F
100
AcDbEntity
  8
0
100
AcDbLine
 62
7
  6
CONTINUOUS
 10
8.217742955
 20
5.3107396436
 11
8.2178470089
 21
5.3106923443
  0
LWPOLYLINE
  5
710
100
AcDbEntity
  8
0
100
AcDbPolyline
 62
9
  6
CONTINUOUS
 90
7
 70
0
 10
9.049847025
 20
4.9202756264
 10
9.0382493542
 20
4.92672232
 10
9.0208471274
 20
4.9334887458
 10
8.997621019
 20
4.9398655204
 10
8.9694079503
 20
4.9450782118
 10
8.9378042899
 20
4.9484564895
 10
8.904847025
 20
4.9496092422
  0
LINE
  5
711
100
AcDbEntity
  8
0
100
AcDbLine
 62
7
  6
CONTINUOUS
 10
8.361238351
 20
5.3257417356
 11
8.377742955
 21
5.3107396436
  0
LINE
  5
712
100
AcDbEntity
  8
0
100
AcDbLine
 62
7
  6
CONTINUOUS
 10
8.401238351
 20
5.3257417356
 11
8.417742955
 21
5.3107396436
  0
LINE
  5
713
100
AcDbEntity
  8
0
100
AcDbLine
 62
7
  6
CONTINUOUS
 10
8.441238351
 20
5.3257417356
 11
8.457742955
 21
5.3107396436
  0
LINE
  5
714
100
AcDbEntity
  8
0
100
AcDbLine
 62
7
  6
CONTINUOUS
 10
8.481238351
 20
5.3257417356
 11
8.497742955
 21
5.3107396436
  0
LWPOLYLINE
  5
715
100
AcDbEntity
  8
0
100
AcDbPolyline
 62
7
  6
CONTINUOUS
 90
18
 70
0
 10
8.261347025
 20
6.0036923443
 10
8.2619133967
 20
6.0023516615
 10
8.2630461401
 20
5.9916897408
 10
8.2641788834
 20
5.9707025598
 10
8.2653116268
 20
5.9400528092
 10
8.2664443702
 20
5.9007082846
 10
8.2675771135
 20
5.8539113276
 10
8.2687098569
 20
5.8011395974
 10
8.2698426003
 20
5.7440594128
 10
8.2709753436
 20
5.684473136
 10
8.272108087
 20
5.6242622614
 10
8.2732408303
 20
5.565328006
 10
8.2743735737
 20
5.509531276
 10
8.2755063171
 20
5.4586339074
 10
8.2766390604
 20
5.414243034
 10
8.2777718038
 20
5.3777603407
 10
8.2789045472
 20
5.3503378039
 10
8.2800372905
 20
5.332841317
  0
LINE
  5
716
100
AcDbEntity
  8
0
100
AcDbLine
 62
7
  6
CONTINUOUS
 10
8.376455699
 20
6.0036429531
 11
8.3769841932
 21
6.0019958399
  0
LWPOLYLINE
  5
717
100
AcDbEntity
  8
0
100
AcDbPolyline
 62
7
  6
CONTINUOUS
 90
18
 70
0
 10
8.461347025
 20
6.0036923443
 10
8.4623154461
 20
5.9997776283
 10
8.4634364987
 20
5.9855964067
 10
8.4645575513
 20
5.9614898673
 10
8.465678604
 20
5.928203607
 10
8.4667996566
 20
5.8867671445
 10
8.4679207092
 20
5.8384620778
 10
8.4690417619
 20
5.7847824459
 10
8.4701628145
 20
5.7273885187
 10
8.4712838671
 20
5.6680554468
 10
8.4724049198
 20
5.6086183566
 10
8.4735259724
 20
5.5509155921
 10
8.474647025
 20
5.4967318557
 10
8.4757680777
 20
5.4477430091
 10
8.4768891303
 20
5.4054642399
 10
8.4780101829
 20
5.3712031981
 10
8.4791312356
 20
5.3460195517
 10
8.4802522882
 20
5.3306922115
  0
LINE
  5
718
100
AcDbEntity
  8
0
100
AcDbLine
 62
7
  6
CONTINUOUS
 10
8.4778467369
 20
6.018692344
 11
8.4788416317
 21
6.0143808062
  0
LWPOLYLINE
  5
719
100
AcDbEntity
  8
0
100
AcDbPolyline
 62
7
  6
CONTINUOUS
 90
19
 70
0
 10
8.456455699
 20
6.0036429531
 10
8.457357126
 20
5.9994341276
 10
8.4584833887
 20
5.9847828305
 10
8.4596096513
 20
5.9601393855
 10
8.4607359139
 20
5.9262730781
 10
8.4618621765
 20
5.8842411005
 10
8.4629884392
 20
5.8353555494
 10
8.4641147018
 20
5.7811424675
 10
8.4652409644
 20
5.7232942045
 10
8.4663672271
 20
5.6636165887
 10
8.4674934897
 20
5.6039725543
 10
8.4686197523
 20
5.5462239875
 10
8.4697460149
 20
5.4921736041
 10
8.4708722776
 20
5.4435086752
 10
8.4719985402
 20
5.4017483562
 10
8.4731248028
 20
5.3681962636
 10
8.4742510654
 20
5.343899781
 10
8.4753773281
 20
5.3296173627
 10
8.476347025
 20
5.3256923443
  0
LINE
  5
71A
100
AcDbEntity
  8
0
100
AcDbLine
 62
7
  6
CONTINUOUS
 10
8.4378470102
 20
6.0186923443
 11
8.4389553403
 21
6.0133412516
  0
LINE
  5
71B
100
AcDbEntity
  8
AXIS_COSMETIC_THREADS
100
AcDbLine
 62
7
  6
CONTINUOUS
 10
8.788347025
 20
4.4426923443
 11
8.788347025
 21
3.6896923443
  0
LINE
  5
71C
100
AcDbEntity
  8
0
100
AcDbLine
 62
7
  6
CONTINUOUS
 10
8.377742955
 20
5.3107396436
 11
8.377847025
 21
5.3106923443
  0
LINE
  5
71D
100
AcDbEntity
  8
0
100
AcDbLine
 62
7
  6
CONTINUOUS
 10
8.417742955
 20
5.3107396436
 11
8.4178470226
 21
5.3106923443
  0
LINE
  5
71E
100
AcDbEntity
  8
0
100
AcDbLine
 62
7
  6
CONTINUOUS
 10
8.5378470244
 20
5.3106923443
 11
8.537742955
 21
5.3107396436
  0
LINE
  5
71F
100
AcDbEntity
  8
0
100
AcDbLine
 62
7
  6
CONTINUOUS
 10
8.457742955
 20
5.3107396436
 11
8.4578469892
 21
5.3106923444
  0
LINE
  5
720
100
AcDbEntity
  8
0
100
AcDbLine
 62
7
  6
CONTINUOUS
 10
8.497742955
 20
5.3107396436
 11
8.4978469547
 21
5.3106923444
  0
LINE
  5
721
100
AcDbEntity
  8
0
100
AcDbLine
 62
7
  6
CONTINUOUS
 10
8.521238351
 20
5.3257417356
 11
8.537742955
 21
5.3107396436
  0
LWPOLYLINE
  5
722
100
AcDbEntity
  8
0
100
AcDbPolyline
 62
7
  6
CONTINUOUS
 90
18
 70
0
 10
8.381347025
 20
6.0036923443
 10
8.3819841932
 20
6.0019958399
 10
8.3831169365
 20
5.9906752692
 10
8.3842496799
 20
5.9690614711
 10
8.3853824233
 20
5.9378369224
 10
8.3865151666
 20
5.8979875685
 10
8.38764791
 20
5.8507716914
 10
8.3887806534
 20
5.7976801782
 10
8.3899133967
 20
5.7403894451
 10
8.3910461401
 20
5.6807085026
 10
8.3921788834
 20
5.6205218343
 10
8.3933116268
 20
5.5617298927
 10
8.3944443702
 20
5.5061890905
 10
8.3955771135
 20
5.4556531824
 10
8.3967098569
 20
5.4117178888
 10
8.3978426003
 20
5.3757705093
 10
8.3989753436
 20
5.3489461171
 10
8.400108087
 20
5.3320917186
  0
LWPOLYLINE
  5
723
100
AcDbEntity
  8
0
100
AcDbPolyline
 62
7
  6
CONTINUOUS
 90
10
 70
0
 10
8.536455699
 20
6.0036429531
 10
8.5373217725
 20
5.999726414
 10
8.5384480351
 20
5.9853978541
 10
8.5395742978
 20
5.9610579474
 10
8.5407005604
 20
5.9274665038
 10
8.541826823
 20
5.8856721352
 10
8.5429530856
 20
5.8369795212
 10
8.5440793483
 20
5.7829086813
 10
8.5452056109
 20
5.7251475251
 10
8.5474581361
 20
5.6058256121
  0
LINE
  5
724
100
AcDbEntity
  8
0
100
AcDbLine
 62
7
  6
CONTINUOUS
 10
8.5178469331
 20
6.0186923443
 11
8.518931498
 21
6.0135684518
  0
LINE
  5
725
100
AcDbEntity
  8
0
100
AcDbLine
 62
7
  6
CONTINUOUS
 10
8.539847025
 20
5.3106923443
 11
8.537847025
 21
5.3106923443
  0
LINE
  5
726
100
AcDbEntity
  8
0
100
AcDbLine
 62
7
  6
CONTINUOUS
 10
8.499847025
 20
5.3106923443
 11
8.497847025
 21
5.3106923443
  0
LINE
  5
727
100
AcDbEntity
  8
0
100
AcDbLine
 62
7
  6
CONTINUOUS
 10
8.459847025
 20
5.3106923443
 11
8.457847025
 21
5.3106923443
  0
LINE
  5
728
100
AcDbEntity
  8
0
100
AcDbLine
 62
7
  6
CONTINUOUS
 10
8.419847025
 20
5.3106923443
 11
8.417847025
 21
5.3106923443
  0
LINE
  5
729
100
AcDbEntity
  8
0
100
AcDbLine
 62
7
  6
CONTINUOUS
 10
8.379847025
 20
5.3106923443
 11
8.377847025
 21
5.3106923443
  0
LINE
  5
72A
100
AcDbEntity
  8
0
100
AcDbLine
 62
7
  6
CONTINUOUS
 10
8.339847025
 20
5.3106923443
 11
8.337847025
 21
5.3106923443
  0
LINE
  5
72B
100
AcDbEntity
  8
0
100
AcDbLine
 62
7
  6
CONTINUOUS
 10
8.299847025
 20
5.3106923443
 11
8.297847025
 21
5.3106923443
  0
LINE
  5
72C
100
AcDbEntity
  8
0
100
AcDbLine
 62
7
  6
CONTINUOUS
 10
8.259847025
 20
5.3106923443
 11
8.257847025
 21
5.3106923443
  0
LINE
  5
72D
100
AcDbEntity
  8
0
100
AcDbLine
 62
7
  6
CONTINUOUS
 10
8.219847025
 20
5.3106923443
 11
8.217847025
 21
5.3106923443
  0
LINE
  5
72E
100
AcDbEntity
  8
0
100
AcDbLine
 62
7
  6
CONTINUOUS
 10
8.179847025
 20
5.3106923443
 11
8.177847025
 21
5.3106923443
  0
LINE
  5
72F
100
AcDbEntity
  8
0
100
AcDbLine
 62
7
  6
CONTINUOUS
 10
8.139847025
 20
5.3106923443
 11
8.137847025
 21
5.3106923443
  0
LINE
  5
730
100
AcDbEntity
  8
0
100
AcDbLine
 62
7
  6
CONTINUOUS
 10
8.099847025
 20
5.3106923443
 11
8.097847025
 21
5.3106923443
  0
LINE
  5
731
100
AcDbEntity
  8
0
100
AcDbLine
 62
7
  6
CONTINUOUS
 10
8.059847025
 20
5.3106923443
 11
8.057847025
 21
5.3106923443
  0
LINE
  5
732
100
AcDbEntity
  8
0
100
AcDbLine
 62
7
  6
CONTINUOUS
 10
8.036347025
 20
5.3256923443
 11
8.041347025
 21
5.3256923443
  0
LINE
  5
733
100
AcDbEntity
  8
0
100
AcDbLine
 62
7
  6
CONTINUOUS
 10
8.076347025
 20
5.3256923443
 11
8.081347025
 21
5.3256923443
  0
LINE
  5
734
100
AcDbEntity
  8
0
100
AcDbLine
 62
7
  6
CONTINUOUS
 10
8.116347025
 20
5.3256923443
 11
8.121347025
 21
5.3256923443
  0
LINE
  5
735
100
AcDbEntity
  8
0
100
AcDbLine
 62
7
  6
CONTINUOUS
 10
8.156347025
 20
5.3256923443
 11
8.161347025
 21
5.3256923443
  0
LINE
  5
736
100
AcDbEntity
  8
0
100
AcDbLine
 62
7
  6
CONTINUOUS
 10
8.196347025
 20
5.3256923443
 11
8.201347025
 21
5.3256923443
  0
LINE
  5
737
100
AcDbEntity
  8
0
100
AcDbLine
 62
7
  6
CONTINUOUS
 10
8.236347025
 20
5.3256923443
 11
8.241347025
 21
5.3256923443
  0
LINE
  5
738
100
AcDbEntity
  8
0
100
AcDbLine
 62
7
  6
CONTINUOUS
 10
8.276347025
 20
5.3256923443
 11
8.281347025
 21
5.3256923443
  0
LINE
  5
739
100
AcDbEntity
  8
0
100
AcDbLine
 62
7
  6
CONTINUOUS
 10
8.316347025
 20
5.3256923443
 11
8.321347025
 21
5.3256923443
  0
LINE
  5
73A
100
AcDbEntity
  8
0
100
AcDbLine
 62
7
  6
CONTINUOUS
 10
8.356347025
 20
5.3256923443
 11
8.361347025
 21
5.3256923443
  0
LINE
  5
73B
100
AcDbEntity
  8
0
100
AcDbLine
 62
7
  6
CONTINUOUS
 10
8.396347025
 20
5.3256923443
 11
8.401347025
 21
5.3256923443
  0
LINE
  5
73C
100
AcDbEntity
  8
0
100
AcDbLine
 62
7
  6
CONTINUOUS
 10
8.436347025
 20
5.3256923443
 11
8.441347025
 21
5.3256923443
  0
LINE
  5
73D
100
AcDbEntity
  8
0
100
AcDbLine
 62
7
  6
CONTINUOUS
 10
8.476347025
 20
5.3256923443
 11
8.481347025
 21
5.3256923443
  0
LINE
  5
73E
100
AcDbEntity
  8
0
100
AcDbLine
 62
7
  6
CONTINUOUS
 10
8.516347025
 20
5.3256923443
 11
8.521347025
 21
5.3256923443
  0
LINE
  5
73F
100
AcDbEntity
  8
0
100
AcDbLine
 62
7
  6
CONTINUOUS
 10
8.556347025
 20
5.3256923443
 11
8.559847025
 21
5.3256923443
  0
LINE
  5
740
100
AcDbEntity
  8
0
100
AcDbLine
 62
7
  6
CONTINUOUS
 10
8.597347025
 20
5.3259423443
 11
8.559847025
 21
5.3259423443
  0
LINE
  5
741
100
AcDbEntity
  8
0
100
AcDbLine
 62
7
  6
CONTINUOUS
 10
8.496455699
 20
6.0036429531
 11
8.496776318
 21
6.0029218803
  0
LWPOLYLINE
  5
742
100
AcDbEntity
  8
0
100
AcDbPolyline
 62
7
  6
CONTINUOUS
 90
18
 70
0
 10
8.541347025
 20
6.0036923443
 10
8.5419101829
 20
6.0023668234
 10
8.5430312356
 20
5.9918981649
 10
8.5441522882
 20
5.9713092801
 10
8.5452733408
 20
5.9412369674
 10
8.5463943935
 20
5.9026113405
 10
8.5475154461
 20
5.8566270606
 10
8.5486364987
 20
5.8047063864
 10
8.5497575513
 20
5.7484551848
 10
8.550878604
 20
5.6896132624
 10
8.5519996566
 20
5.630000555
 10
8.5531207092
 20
5.5714608382
 10
8.5542417619
 20
5.5158047007
 10
8.5553628145
 20
5.4647535445
 10
8.5564838671
 20
5.4198863427
 10
8.5576049198
 20
5.3825908038
 10
8.5587259724
 20
5.3540204502
 10
8.559847025
 20
5.3350589413
  0
LWPOLYLINE
  5
743
100
AcDbEntity
  8
0
100
AcDbPolyline
 62
9
  6
CONTINUOUS
 90
7
 70
0
 10
9.049847025
 20
4.9202756264
 10
9.031641838
 20
4.9123162909
 10
9.0101648216
 20
4.9057060371
 10
8.9859443065
 20
4.9007704237
 10
8.9597222704
 20
4.8974981045
 10
8.9323880629
 20
4.8956916172
 10
8.904847025
 20
4.8951267201
  0
LINE
  5
744
100
AcDbEntity
  8
0
100
AcDbLine
 62
7
  6
CONTINUOUS
 10
8.056455699
 20
6.0036429531
 11
8.039951095
 21
6.0186450451
  0
LINE
  5
745
100
AcDbEntity
  8
0
100
AcDbLine
 62
7
  6
CONTINUOUS
 10
8.096455699
 20
6.0036429531
 11
8.079951095
 21
6.0186450451
  0
LINE
  5
746
100
AcDbEntity
  8
0
100
AcDbLine
 62
7
  6
CONTINUOUS
 10
8.136455699
 20
6.0036429531
 11
8.119951095
 21
6.0186450451
  0
LINE
  5
747
100
AcDbEntity
  8
0
100
AcDbLine
 62
7
  6
CONTINUOUS
 10
8.176455699
 20
6.0036429531
 11
8.159951095
 21
6.0186450451
  0
LINE
  5
748
100
AcDbEntity
  8
0
100
AcDbLine
 62
9
  6
CONTINUOUS
 10
9.2018025707
 20
4.8756923443
 11
9.2012021285
 21
4.8766271076
  0
LWPOLYLINE
  5
749
100
AcDbEntity
  8
0
100
AcDbPolyline
 62
9
  6
CONTINUOUS
 90
13
 70
0
 10
9.2012021285
 20
4.8766271076
 10
9.1963985912
 20
4.8844144473
 10
9.1874949869
 20
4.9015818574
 10
9.1756675889
 20
4.930564085
 10
9.1634680254
 20
4.97302159
 10
9.1538649494
 20
5.0293529402
 10
9.1474130078
 20
5.0982215541
 10
9.1436089828
 20
5.1775842618
 10
9.1418272347
 20
5.2654050866
 10
9.1414420621
 20
5.3596388384
 10
9.1418561828
 20
5.4584874558
 10
9.1425066879
 20
5.5605276151
 10
9.142847025
 20
5.6646923443
  0
LINE
  5
74A
100
AcDbEntity
  8
0
100
AcDbLine
 62
7
  6
CONTINUOUS
 10
8.416455699
 20
6.0036429531
 11
8.4166302109
 21
6.0033570078
  0
LINE
  5
74B
100
AcDbEntity
  8
AXIS_COSMETIC_THREADS
100
AcDbLine
 62
7
  6
CONTINUOUS
 10
9.021347025
 20
4.4426923443
 11
9.021347025
 21
3.6896923443
  0
LINE
  5
74C
100
AcDbEntity
  8
0
100
AcDbLine
 62
7
  6
CONTINUOUS
 10
9.049847025
 20
4.9155167975
 11
9.049847025
 21
6.4521844019
  0
LINE
  5
74D
100
AcDbEntity
  8
0
100
AcDbLine
 62
7
  6
CONTINUOUS
 10
9.062847025
 20
4.9126424945
 11
9.062847025
 21
6.4536923443
  0
LWPOLYLINE
  5
74E
100
AcDbEntity
  8
0
100
AcDbPolyline
 62
7
  6
CONTINUOUS
 90
19
 70
0
 10
8.301347025
 20
6.0036923443
 10
8.3015594144
 20
6.0035037039
 10
8.3026921578
 20
5.9961531767
 10
8.3038249011
 20
5.978336452
 10
8.3049576445
 20
5.9506161101
 10
8.3060903879
 20
5.9138674477
 10
8.3072231312
 20
5.8692508395
 10
8.3083558746
 20
5.8181750983
 10
8.309488618
 20
5.7622529901
 10
8.3106213613
 20
5.7032503097
 10
8.3117541047
 20
5.6430301243
 10
8.312886848
 20
5.5834939444
 10
8.3140195914
 20
5.5265216828
 10
8.3151523348
 20
5.473912294
 10
8.3162850781
 20
5.4273269705
 10
8.3174178215
 20
5.3882366892
 10
8.3185505649
 20
5.3578757635
 10
8.3196833082
 20
5.3372028692
 10
8.3208160516
 20
5.326870773
  0
LINE
  5
74F
100
AcDbEntity
  8
0
100
AcDbLine
 62
7
  6
CONTINUOUS
 10
8.216455699
 20
6.0036429531
 11
8.199951095
 21
6.0186450451
  0
LINE
  5
750
100
AcDbEntity
  8
0
100
AcDbLine
 62
7
  6
CONTINUOUS
 10
8.256455699
 20
6.0036429531
 11
8.239951095
 21
6.0186450451
  0
LINE
  5
751
100
AcDbEntity
  8
0
100
AcDbLine
 62
7
  6
CONTINUOUS
 10
8.296455699
 20
6.0036429531
 11
8.279951095
 21
6.0186450451
  0
LINE
  5
752
100
AcDbEntity
  8
0
100
AcDbLine
 62
7
  6
CONTINUOUS
 10
8.336455699
 20
6.0036429531
 11
8.319951095
 21
6.0186450451
  0
LWPOLYLINE
  5
753
100
AcDbEntity
  8
0
100
AcDbPolyline
 62
7
  6
CONTINUOUS
 90
19
 70
0
 10
8.421347025
 20
6.0036923443
 10
8.4216302109
 20
6.0033570078
 10
8.4227629542
 20
5.9953420555
 10
8.4238956976
 20
5.9768865177
 10
8.425028441
 20
5.9485731457
 10
8.4261611843
 20
5.9112959619
 10
8.4272939277
 20
5.8662320294
 10
8.4284266711
 20
5.8148042857
 10
8.4295594144
 20
5.7586366118
 10
8.4306921578
 20
5.6995025563
 10
8.4318249011
 20
5.6392693347
 10
8.4329576445
 20
5.5798388693
 10
8.4340903879
 20
5.5230877347
 10
8.4352231312
 20
5.4708079031
 10
8.4363558746
 20
5.424650161
 10
8.437488618
 20
5.3860719839
 10
8.4386213613
 20
5.3562915151
 10
8.4397541047
 20
5.3362491019
 10
8.440886848
 20
5.3265776029
  0
LINE
  5
754
100
AcDbEntity
  8
0
100
AcDbLine
 62
9
  6
CONTINUOUS
 10
9.142847025
 20
5.6646923443
 11
9.142847025
 21
6.4536923443
  0
LINE
  5
755
100
AcDbEntity
  8
0
100
AcDbLine
 62
7
  6
CONTINUOUS
 10
9.194847025
 20
4.5426923443
 11
9.194847025
 21
4.4926923443
  0
LINE
  5
756
100
AcDbEntity
  8
0
100
AcDbLine
 62
7
  6
CONTINUOUS
 10
9.199847025
 20
4.5426923443
 11
9.199847025
 21
4.8726923457
  0
LINE
  5
757
100
AcDbEntity
  8
0
100
AcDbLine
 62
7
  6
CONTINUOUS
 10
9.202847025
 20
4.8767048628
 11
9.202847025
 21
6.3936923443
  0
LINE
  5
758
100
AcDbEntity
  8
0
100
AcDbLine
 62
9
  6
CONTINUOUS
 10
9.202847025
 20
5.6646923443
 11
9.142847025
 21
5.6646923443
  0
LWPOLYLINE
  5
759
100
AcDbEntity
  8
0
100
AcDbPolyline
 62
7
  6
CONTINUOUS
 90
9
 70
0
 10
8.061347025
 20
6.0036923443
 10
8.061472025
 20
6.0036269989
 10
8.062597025
 20
5.9971785544
 10
8.063722025
 20
5.9803742072
 10
8.064847025
 20
5.9537373601
 10
8.065972025
 20
5.9180976672
 10
8.067097025
 20
5.8745651932
 10
8.068222025
 20
5.8244958381
 10
8.069347025
 20
5.7694491054
  0
LINE
  5
75A
100
AcDbEntity
  8
0
100
AcDbLine
 62
7
  6
CONTINUOUS
 10
8.0778473005
 20
6.018692344
 11
8.0779811014
 21
6.0186138386
  0
LWPOLYLINE
  5
75B
100
AcDbEntity
  8
0
100
AcDbPolyline
 62
7
  6
CONTINUOUS
 90
16
 70
0
 10
8.181347025
 20
6.0036923443
 10
8.181488618
 20
6.0036084998
 10
8.1826213613
 20
5.9969233068
 10
8.1837541047
 20
5.9797475985
 10
8.184886848
 20
5.9526237148
 10
8.1860195914
 20
5.9164081185
 10
8.1871523348
 20
5.8722443522
 10
8.1882850781
 20
5.8215269299
 10
8.1894178215
 20
5.7658573032
 10
8.1905505649
 20
5.7069932947
 10
8.1916833082
 20
5.6467935927
 10
8.1928160516
 20
5.5871590612
 10
8.1939487949
 20
5.5299727183
 10
8.1950815383
 20
5.4770402784
 10
8.1962142817
 20
5.4300331346
 10
8.197347025
 20
5.3904355833
  0
LINE
  5
75C
100
AcDbEntity
  8
0
100
AcDbLine
 62
7
  6
CONTINUOUS
 10
8.376455699
 20
6.0036429531
 11
8.359951095
 21
6.0186450451
  0
LINE
  5
75D
100
AcDbEntity
  8
0
100
AcDbLine
 62
7
  6
CONTINUOUS
 10
8.416455699
 20
6.0036429531
 11
8.399951095
 21
6.0186450451
  0
LINE
  5
75E
100
AcDbEntity
  8
0
100
AcDbLine
 62
7
  6
CONTINUOUS
 10
8.456455699
 20
6.0036429531
 11
8.439951095
 21
6.0186450451
  0
LINE
  5
75F
100
AcDbEntity
  8
0
100
AcDbLine
 62
7
  6
CONTINUOUS
 10
8.0398470261
 20
6.0186923443
 11
8.039951095
 21
6.0186450451
  0
LINE
  5
760
100
AcDbEntity
  8
0
100
AcDbLine
 62
7
  6
CONTINUOUS
 10
8.119951095
 20
6.0186450451
 11
8.119847025
 21
6.0186923443
  0
LINE
  5
761
100
AcDbEntity
  8
0
100
AcDbLine
 62
7
  6
CONTINUOUS
 10
8.159951095
 20
6.0186450451
 11
8.159847025
 21
6.0186923443
  0
LINE
  5
762
100
AcDbEntity
  8
0
100
AcDbLine
 62
7
  6
CONTINUOUS
 10
8.199951095
 20
6.0186450451
 11
8.199847025
 21
6.0186923443
  0
LINE
  5
763
100
AcDbEntity
  8
0
100
AcDbLine
 62
7
  6
CONTINUOUS
 10
8.239951095
 20
6.0186450451
 11
8.239847025
 21
6.0186923443
  0
LINE
  5
764
100
AcDbEntity
  8
0
100
AcDbLine
 62
7
  6
CONTINUOUS
 10
8.079951095
 20
6.0186450451
 11
8.0798470365
 21
6.0186923443
  0
LWPOLYLINE
  5
765
100
AcDbEntity
  8
0
100
AcDbPolyline
 62
7
  6
CONTINUOUS
 90
19
 70
0
 10
8.501347025
 20
6.0036923443
 10
8.5015522882
 20
6.0035161492
 10
8.5026733408
 20
5.9963618728
 10
8.5037943935
 20
5.978949311
 10
8.5049154461
 20
5.951817021
 10
8.5060364987
 20
5.9158041838
 10
8.5071575513
 20
5.8720246491
 10
8.508278604
 20
5.8218324843
 10
8.5093996566
 20
5.766780095
 10
8.5105207092
 20
5.7085702094
 10
8.5116417619
 20
5.649003215
 10
8.5127628145
 20
5.5899214733
 10
8.5138838671
 20
5.5331523376
 10
8.5150049198
 20
5.480451634
 10
8.5161259724
 20
5.433449355
 10
8.517247025
 20
5.3935992451
 10
8.5183680777
 20
5.362133838
 10
8.5194891303
 20
5.3400263345
 10
8.5206101829
 20
5.3279605031
  0
LINE
  5
766
100
AcDbEntity
  8
0
100
AcDbLine
 62
7
  6
CONTINUOUS
 10
8.496455699
 20
6.0036429531
 11
8.479951095
 21
6.0186450451
  0
LINE
  5
767
100
AcDbEntity
  8
0
100
AcDbLine
 62
7
  6
CONTINUOUS
 10
8.536455699
 20
6.0036429531
 11
8.519951095
 21
6.0186450451
  0
LINE
  5
768
100
AcDbEntity
  8
0
100
AcDbLine
 62
7
  6
CONTINUOUS
 10
9.194847025
 20
4.4926923443
 11
9.1659795116
 21
4.4426923443
  0
LINE
  5
769
100
AcDbEntity
  8
0
100
AcDbLine
 62
7
  6
CONTINUOUS
 10
8.439951095
 20
6.0186450451
 11
8.4398467369
 21
6.018692344
  0
LINE
  5
76A
100
AcDbEntity
  8
0
100
AcDbLine
 62
7
  6
CONTINUOUS
 10
8.479951095
 20
6.0186450451
 11
8.4798469331
 21
6.0186923443
  0
LINE
  5
76B
100
AcDbEntity
  8
0
100
AcDbLine
 62
7
  6
CONTINUOUS
 10
8.279951095
 20
6.0186450451
 11
8.279847025
 21
6.0186923443
  0
LINE
  5
76C
100
AcDbEntity
  8
0
100
AcDbLine
 62
7
  6
CONTINUOUS
 10
8.319951095
 20
6.0186450451
 11
8.319847025
 21
6.0186923443
  0
LINE
  5
76D
100
AcDbEntity
  8
0
100
AcDbLine
 62
7
  6
CONTINUOUS
 10
8.359951095
 20
6.0186450451
 11
8.359847025
 21
6.0186923443
  0
LINE
  5
76E
100
AcDbEntity
  8
0
100
AcDbLine
 62
7
  6
CONTINUOUS
 10
8.399951095
 20
6.0186450451
 11
8.3998470102
 21
6.0186923443
  0
LINE
  5
76F
100
AcDbEntity
  8
0
100
AcDbLine
 62
7
  6
CONTINUOUS
 10
8.519951095
 20
6.0186450451
 11
8.5198469869
 21
6.0186923443
  0
LINE
  5
770
100
AcDbEntity
  8
0
100
AcDbLine
 62
7
  6
CONTINUOUS
 10
8.597347025
 20
6.0034423443
 11
8.559847025
 21
6.0034423443
  0
LINE
  5
771
100
AcDbEntity
  8
0
100
AcDbLine
 62
7
  6
CONTINUOUS
 10
8.541347025
 20
6.0036923443
 11
8.536347025
 21
6.0036923443
  0
LINE
  5
772
100
AcDbEntity
  8
0
100
AcDbLine
 62
7
  6
CONTINUOUS
 10
8.501347025
 20
6.0036923443
 11
8.496347025
 21
6.0036923443
  0
LINE
  5
773
100
AcDbEntity
  8
0
100
AcDbLine
 62
7
  6
CONTINUOUS
 10
8.461347025
 20
6.0036923443
 11
8.456347025
 21
6.0036923443
  0
LINE
  5
774
100
AcDbEntity
  8
0
100
AcDbLine
 62
7
  6
CONTINUOUS
 10
8.421347025
 20
6.0036923443
 11
8.416347025
 21
6.0036923443
  0
LINE
  5
775
100
AcDbEntity
  8
0
100
AcDbLine
 62
7
  6
CONTINUOUS
 10
8.381347025
 20
6.0036923443
 11
8.376347025
 21
6.0036923443
  0
LINE
  5
776
100
AcDbEntity
  8
0
100
AcDbLine
 62
7
  6
CONTINUOUS
 10
8.341347025
 20
6.0036923443
 11
8.336347025
 21
6.0036923443
  0
LINE
  5
777
100
AcDbEntity
  8
0
100
AcDbLine
 62
7
  6
CONTINUOUS
 10
8.301347025
 20
6.0036923443
 11
8.296347025
 21
6.0036923443
  0
LINE
  5
778
100
AcDbEntity
  8
0
100
AcDbLine
 62
7
  6
CONTINUOUS
 10
8.261347025
 20
6.0036923443
 11
8.256347025
 21
6.0036923443
  0
LINE
  5
779
100
AcDbEntity
  8
0
100
AcDbLine
 62
7
  6
CONTINUOUS
 10
8.221347025
 20
6.0036923443
 11
8.216347025
 21
6.0036923443
  0
LINE
  5
77A
100
AcDbEntity
  8
0
100
AcDbLine
 62
7
  6
CONTINUOUS
 10
8.181347025
 20
6.0036923443
 11
8.176347025
 21
6.0036923443
  0
LINE
  5
77B
100
AcDbEntity
  8
0
100
AcDbLine
 62
7
  6
CONTINUOUS
 10
8.141347025
 20
6.0036923443
 11
8.136347025
 21
6.0036923443
  0
LINE
  5
77C
100
AcDbEntity
  8
0
100
AcDbLine
 62
7
  6
CONTINUOUS
 10
8.101347025
 20
6.0036923443
 11
8.096347025
 21
6.0036923443
  0
LINE
  5
77D
100
AcDbEntity
  8
0
100
AcDbLine
 62
7
  6
CONTINUOUS
 10
8.061347025
 20
6.0036923443
 11
8.056347025
 21
6.0036923443
  0
LINE
  5
77E
100
AcDbEntity
  8
0
100
AcDbLine
 62
7
  6
CONTINUOUS
 10
8.021347025
 20
6.0036923443
 11
8.019847025
 21
6.0036923443
  0
LINE
  5
77F
100
AcDbEntity
  8
0
100
AcDbLine
 62
7
  6
CONTINUOUS
 10
8.559847025
 20
6.0186923443
 11
8.557847025
 21
6.0186923443
  0
LINE
  5
780
100
AcDbEntity
  8
0
100
AcDbLine
 62
7
  6
CONTINUOUS
 10
8.519847025
 20
6.0186923443
 11
8.517847025
 21
6.0186923443
  0
LINE
  5
781
100
AcDbEntity
  8
0
100
AcDbLine
 62
7
  6
CONTINUOUS
 10
8.479847025
 20
6.0186923443
 11
8.477847025
 21
6.0186923443
  0
LINE
  5
782
100
AcDbEntity
  8
0
100
AcDbLine
 62
7
  6
CONTINUOUS
 10
8.439847025
 20
6.0186923443
 11
8.437847025
 21
6.0186923443
  0
LINE
  5
783
100
AcDbEntity
  8
0
100
AcDbLine
 62
7
  6
CONTINUOUS
 10
8.399847025
 20
6.0186923443
 11
8.397847025
 21
6.0186923443
  0
LINE
  5
784
100
AcDbEntity
  8
0
100
AcDbLine
 62
7
  6
CONTINUOUS
 10
8.359847025
 20
6.0186923443
 11
8.357847025
 21
6.0186923443
  0
LINE
  5
785
100
AcDbEntity
  8
0
100
AcDbLine
 62
7
  6
CONTINUOUS
 10
8.319847025
 20
6.0186923443
 11
8.317847025
 21
6.0186923443
  0
LINE
  5
786
100
AcDbEntity
  8
0
100
AcDbLine
 62
7
  6
CONTINUOUS
 10
8.279847025
 20
6.0186923443
 11
8.277847025
 21
6.0186923443
  0
LINE
  5
787
100
AcDbEntity
  8
0
100
AcDbLine
 62
7
  6
CONTINUOUS
 10
8.239847025
 20
6.0186923443
 11
8.237847025
 21
6.0186923443
  0
LINE
  5
788
100
AcDbEntity
  8
0
100
AcDbLine
 62
7
  6
CONTINUOUS
 10
8.199847025
 20
6.0186923443
 11
8.197847025
 21
6.0186923443
  0
LINE
  5
789
100
AcDbEntity
  8
0
100
AcDbLine
 62
7
  6
CONTINUOUS
 10
8.159847025
 20
6.0186923443
 11
8.157847025
 21
6.0186923443
  0
LINE
  5
78A
100
AcDbEntity
  8
0
100
AcDbLine
 62
7
  6
CONTINUOUS
 10
8.119847025
 20
6.0186923443
 11
8.117847025
 21
6.0186923443
  0
LINE
  5
78B
100
AcDbEntity
  8
0
100
AcDbLine
 62
7
  6
CONTINUOUS
 10
8.079847025
 20
6.0186923443
 11
8.077847025
 21
6.0186923443
  0
LINE
  5
78C
100
AcDbEntity
  8
0
100
AcDbLine
 62
7
  6
CONTINUOUS
 10
8.039847025
 20
6.0186923443
 11
8.037847025
 21
6.0186923443
  0
LINE
  5
78D
100
AcDbEntity
  8
0
100
AcDbLine
 62
7
  6
CONTINUOUS
 10
9.049847025
 20
6.4241923443
 11
9.062847025
 21
6.4241923443
  0
LINE
  5
78E
100
AcDbEntity
  8
0
100
AcDbLine
 62
7
  6
CONTINUOUS
 10
9.049847025
 20
6.4521923443
 11
8.669847025
 21
6.4521923443
  0
LINE
  5
78F
100
AcDbEntity
  8
0
100
AcDbLine
 62
7
  6
CONTINUOUS
 10
9.142847025
 20
6.4536923443
 11
9.062847025
 21
6.4536923443
  0
LINE
  5
790
100
AcDbEntity
  8
AXIS
100
AcDbLine
 62
7
  6
CONTINUOUS
 10
12.525946474
 20
3.6896923443
 11
12.292946474
 21
3.6896923443
  0
LINE
  5
791
100
AcDbEntity
  8
0
100
AcDbLine
 62
7
  6
CONTINUOUS
 10
12.1483139874
 20
4.4426923443
 11
12.6705789605
 21
4.4426923443
  0
LINE
  5
792
100
AcDbEntity
  8
0
100
AcDbLine
 62
7
  6
CONTINUOUS
 10
12.119446474
 20
4.4926923443
 11
12.699446474
 21
4.4926923443
  0
LINE
  5
793
100
AcDbEntity
  8
0
100
AcDbLine
 62
7
  6
CONTINUOUS
 10
12.114446474
 20
4.5426923443
 11
12.704446474
 21
4.5426923443
  0
LINE
  5
794
100
AcDbEntity
  8
0
100
AcDbLine
 62
7
  6
CONTINUOUS
 10
12.1483139874
 20
4.4426923443
 11
12.119446474
 21
4.4926923443
  0
LINE
  5
795
100
AcDbEntity
  8
0
100
AcDbLine
 62
7
  6
CONTINUOUS
 10
12.114446474
 20
4.5426923443
 11
12.114446474
 21
4.8951267201
  0
LINE
  5
796
100
AcDbEntity
  8
0
100
AcDbLine
 62
7
  6
CONTINUOUS
 10
12.119446474
 20
4.5426923443
 11
12.119446474
 21
4.4926923443
  0
LINE
  5
797
100
AcDbEntity
  8
0
100
AcDbLine
 62
7
  6
CONTINUOUS
 10
12.1525418224
 20
4.9155167975
 11
12.1525418224
 21
4.9202756264
  0
LINE
  5
798
100
AcDbEntity
  8
AXIS
100
AcDbLine
 62
7
  6
CONTINUOUS
 10
12.292946474
 20
4.4426923443
 11
12.292946474
 21
3.6896923443
  0
LINE
  5
799
100
AcDbEntity
  8
AXIS_COSMETIC_THREADS
100
AcDbLine
 62
7
  6
CONTINUOUS
 10
12.292946474
 20
4.4426923443
 11
12.292946474
 21
3.6896923443
  0
LINE
  5
79A
100
AcDbEntity
  8
0
100
AcDbLine
 62
7
  6
CONTINUOUS
 10
12.317446474
 20
5.8196923443
 11
12.317446474
 21
5.6946923443
  0
LWPOLYLINE
  5
79B
100
AcDbEntity
  8
0
100
AcDbPolyline
 62
9
  6
CONTINUOUS
 90
7
 70
0
 10
12.1523387675
 20
4.9201047131
 10
12.1430856746
 20
4.9123162909
 10
12.1338867495
 20
4.9057060371
 10
12.1258125004
 20
4.9007704237
 10
12.1195952924
 20
4.8974981045
 10
12.1157348956
 20
4.8956916172
 10
12.114446474
 20
4.8951267201
  0
LWPOLYLINE
  5
79C
100
AcDbEntity
  8
0
100
AcDbPolyline
 62
9
  6
CONTINUOUS
 90
7
 70
0
 10
12.704446474
 20
4.8951267201
 10
12.7031579989
 20
4.8956916387
 10
12.6992974815
 20
4.8974981787
 10
12.6930801573
 20
4.9007705532
 10
12.6850058711
 20
4.9057061824
 10
12.6758070404
 20
4.912316386
 10
12.6686956497
 20
4.9183021916
  0
LINE
  5
79D
100
AcDbEntity
  8
0
100
AcDbLine
 62
7
  6
CONTINUOUS
 10
12.502446474
 20
5.6946923443
 11
12.502446474
 21
5.8196923443
  0
LINE
  5
79E
100
AcDbEntity
  8
AXIS
100
AcDbLine
 62
7
  6
CONTINUOUS
 10
12.525946474
 20
4.4426923443
 11
12.525946474
 21
3.6896923443
  0
LINE
  5
79F
100
AcDbEntity
  8
AXIS_COSMETIC_THREADS
100
AcDbLine
 62
7
  6
CONTINUOUS
 10
12.525946474
 20
4.4426923443
 11
12.525946474
 21
3.6896923443
  0
LINE
  5
7A0
100
AcDbEntity
  8
0
100
AcDbLine
 62
7
  6
CONTINUOUS
 10
12.6663511255
 20
4.9155167975
 11
12.6663511255
 21
4.9202756264
  0
LINE
  5
7A1
100
AcDbEntity
  8
0
100
AcDbLine
 62
7
  6
CONTINUOUS
 10
12.699446474
 20
4.5426923443
 11
12.699446474
 21
4.4926923443
  0
LINE
  5
7A2
100
AcDbEntity
  8
0
100
AcDbLine
 62
7
  6
CONTINUOUS
 10
12.704446474
 20
4.5426923443
 11
12.704446474
 21
4.8951267201
  0
LINE
  5
7A3
100
AcDbEntity
  8
0
100
AcDbLine
 62
7
  6
CONTINUOUS
 10
12.699446474
 20
4.4926923443
 11
12.6705789605
 21
4.4426923443
  0
LINE
  5
7A4
100
AcDbEntity
  8
0
100
AcDbLine
 62
9
  6
CONTINUOUS
 10
11.680446474
 20
5.6646923443
 11
11.620446474
 21
5.6646923443
  0
LINE
  5
7A5
100
AcDbEntity
  8
0
100
AcDbLine
 62
7
  6
CONTINUOUS
 10
12.347446474
 20
5.6646923443
 11
12.472446474
 21
5.6646923443
  0
LINE
  5
7A6
100
AcDbEntity
  8
0
100
AcDbLine
 62
9
  6
CONTINUOUS
 10
13.138446474
 20
5.6646923443
 11
13.198446474
 21
5.6646923443
  0
LWPOLYLINE
  5
7A7
100
AcDbEntity
  8
0
100
AcDbPolyline
 62
9
  6
CONTINUOUS
 90
26
 70
0
 10
13.138446474
 20
5.6646923443
 10
13.1317281004
 20
5.568493819
 10
13.1121530854
 20
5.4744273922
 10
13.0804590812
 20
5.3833800288
 10
13.0373249462
 20
5.2962852194
 10
12.9835281559
 20
5.2141562887
 10
12.9200699468
 20
5.1380209857
 10
12.8482329535
 20
5.0687955799
 10
12.7701211657
 20
5.0075428858
 10
12.6885840447
 20
4.9558533019
 10
12.6060039831
 20
4.9164301479
 10
12.5254834746
 20
4.890791596
 10
12.4477615145
 20
4.8782700554
 10
12.3711314334
 20
4.8782700554
 10
12.2934094733
 20
4.890791596
 10
12.2128889648
 20
4.9164301479
 10
12.1303089032
 20
4.9558533019
 10
12.0487717822
 20
5.0075428858
 10
11.9706599944
 20
5.0687955799
 10
11.8988230011
 20
5.1380209857
 10
11.835364792
 20
5.2141562887
 10
11.7815680017
 20
5.2962852194
 10
11.7384338667
 20
5.3833800288
 10
11.7067398625
 20
5.4744273922
 10
11.6871648475
 20
5.568493819
 10
11.680446474
 20
5.6646923443
  0
LINE
  5
7A8
100
AcDbEntity
  8
0
100
AcDbLine
 62
7
  6
CONTINUOUS
 10
12.472446474
 20
5.8496923443
 11
12.347446474
 21
5.8496923443
  0
LINE
  5
7A9
100
AcDbEntity
  8
0
100
AcDbLine
 62
7
  6
CONTINUOUS
 10
3.7104242376
 20
9.004306682
 11
3.7104242376
 21
8.924306682
  0
LINE
  5
7AA
100
AcDbEntity
  8
0
100
AcDbLine
 62
7
  6
CONTINUOUS
 10
3.7119242376
 20
8.911306682
 11
3.7119242376
 21
8.531306682
  0
LINE
  5
7AB
100
AcDbEntity
  8
0
100
AcDbLine
 62
7
  6
CONTINUOUS
 10
3.7399242376
 20
8.911306682
 11
3.7399242376
 21
8.924306682
  0
LWPOLYLINE
  5
7AC
100
AcDbEntity
  8
0
100
AcDbPolyline
 62
7
  6
CONTINUOUS
 90
18
 70
0
 10
4.8533769383
 20
7.9092026119
 10
4.8479596085
 20
7.9081866405
 10
4.8317343094
 20
7.9070665925
 10
4.8052497561
 20
7.9059465616
 10
4.7693231769
 20
7.9048265233
 10
4.7250615158
 20
7.9037064296
 10
4.6738318551
 20
7.9025863128
 10
4.6172187483
 20
7.9014662317
 10
4.5569712732
 20
7.9003461986
 10
4.4949463638
 20
7.8992261515
 10
4.4330582888
 20
7.8981060785
 10
4.3732203767
 20
7.8969860265
 10
4.3172776069
 20
7.8958659472
 10
4.2669575786
 20
7.8947458402
 10
4.2238162934
 20
7.8936257568
 10
4.1891854893
 20
7.8925057044
 10
4.1641322002
 20
7.8913856037
 10
4.1494315804
 20
7.8902654914
  0
LWPOLYLINE
  5
7AD
100
AcDbEntity
  8
0
100
AcDbPolyline
 62
7
  6
CONTINUOUS
 90
3
 70
0
 10
4.8514845115
 20
7.9106399332
 10
4.8456894923
 20
7.9099734355
 10
4.8360982444
 20
7.909306682
  0
LINE
  5
7AE
100
AcDbEntity
  8
0
100
AcDbLine
 62
7
  6
CONTINUOUS
 10
4.1454715369
 20
7.8892026119
 11
4.1526486761
 21
7.881306682
  0
LINE
  5
7AF
100
AcDbEntity
  8
0
100
AcDbLine
 62
7
  6
CONTINUOUS
 10
4.1454715369
 20
7.9292026119
 11
4.1604736289
 21
7.912698008
  0
LINE
  5
7B0
100
AcDbEntity
  8
0
100
AcDbLine
 62
7
  6
CONTINUOUS
 10
4.1454715369
 20
7.9692026119
 11
4.1604736289
 21
7.952698008
  0
LINE
  5
7B1
100
AcDbEntity
  8
0
100
AcDbLine
 62
7
  6
CONTINUOUS
 10
4.8534242376
 20
7.991306682
 11
4.8481548717
 21
7.9902068841
  0
LINE
  5
7B2
100
AcDbEntity
  8
0
100
AcDbLine
 62
7
  6
CONTINUOUS
 10
4.8534242376
 20
7.951306682
 11
4.8481374229
 21
7.9502050602
  0
LINE
  5
7B3
100
AcDbEntity
  8
0
100
AcDbLine
 62
7
  6
CONTINUOUS
 10
4.8322058396
 20
7.971585443
 11
4.8383748463
 21
7.972698008
  0
LWPOLYLINE
  5
7B4
100
AcDbEntity
  8
0
100
AcDbPolyline
 62
7
  6
CONTINUOUS
 90
3
 70
0
 10
4.8218323966
 20
7.925806682
 10
4.8352834905
 20
7.9269394253
 10
4.8384242376
 20
7.927806682
  0
LWPOLYLINE
  5
7B5
100
AcDbEntity
  8
0
100
AcDbPolyline
 62
7
  6
CONTINUOUS
 90
3
 70
0
 10
4.8218323966
 20
7.930806682
 10
4.8352834905
 20
7.9319394253
 10
4.8383748463
 20
7.932698008
  0
LWPOLYLINE
  5
7B6
100
AcDbEntity
  8
0
100
AcDbPolyline
 62
7
  6
CONTINUOUS
 90
9
 70
0
 10
4.8481374229
 20
7.9502050602
 10
4.8324381632
 20
7.9491036119
 10
4.8066438268
 20
7.947996679
 10
4.771715117
 20
7.9468934158
 10
4.7279867178
 20
7.9457750078
 10
4.676896387
 20
7.9446498242
 10
4.6208177613
 20
7.9435349986
 10
4.5617459163
 20
7.9424333224
 10
4.4380228426
 20
7.9401968502
  0
LWPOLYLINE
  5
7B7
100
AcDbEntity
  8
0
100
AcDbPolyline
 62
7
  6
CONTINUOUS
 90
4
 70
0
 10
4.8360982444
 20
7.947306682
 10
4.8456894923
 20
7.9479734355
 10
4.8514845115
 20
7.9486399332
 10
4.8533769383
 20
7.9492026119
  0
LWPOLYLINE
  5
7B8
100
AcDbEntity
  8
0
100
AcDbPolyline
 62
7
  6
CONTINUOUS
 90
7
 70
0
 10
4.6765512511
 20
7.881306682
 10
4.7241078201
 20
7.882419182
 10
4.7648204578
 20
7.883531682
 10
4.7974490446
 20
7.884644182
 10
4.8209997036
 20
7.885756682
 10
4.8347550745
 20
7.886869182
 10
4.8384242376
 20
7.887806682
  0
LWPOLYLINE
  5
7B9
100
AcDbEntity
  8
0
100
AcDbPolyline
 62
7
  6
CONTINUOUS
 90
12
 70
0
 10
4.4202862593
 20
7.881306682
 10
4.4794670352
 20
7.882431682
 10
4.5392694154
 20
7.883556682
 10
4.5978307432
 20
7.884681682
 10
4.653327017
 20
7.885806682
 10
4.7040297019
 20
7.886931682
 10
4.7483595683
 20
7.888056682
 10
4.7849358798
 20
7.889181682
 10
4.8126193991
 20
7.890306682
 10
4.8305478714
 20
7.891431682
 10
4.8381628809
 20
7.892556682
 10
4.8383748463
 20
7.892698008
  0
LINE
  5
7BA
100
AcDbEntity
  8
0
100
AcDbLine
 62
7
  6
CONTINUOUS
 10
4.8443781339
 20
7.881306682
 11
4.1526503854
 21
7.881306682
  0
LINE
  5
7BB
100
AcDbEntity
  8
0
100
AcDbLine
 62
7
  6
CONTINUOUS
 10
4.1454715369
 20
8.0092026119
 11
4.1604736289
 21
7.992698008
  0
LINE
  5
7BC
100
AcDbEntity
  8
0
100
AcDbLine
 62
7
  6
CONTINUOUS
 10
4.1454715369
 20
8.0492026119
 11
4.1604736289
 21
8.032698008
  0
LINE
  5
7BD
100
AcDbEntity
  8
0
100
AcDbLine
 62
7
  6
CONTINUOUS
 10
4.1454242376
 20
7.8893066676
 11
4.1454715369
 21
7.8892026119
  0
LINE
  5
7BE
100
AcDbEntity
  8
0
100
AcDbLine
 62
7
  6
CONTINUOUS
 10
4.8357746941
 20
8.0520102218
 11
4.8383748463
 21
8.052698008
  0
LINE
  5
7BF
100
AcDbEntity
  8
0
100
AcDbLine
 62
7
  6
CONTINUOUS
 10
4.1494315804
 20
7.8902654914
 11
4.1454242376
 21
7.8893066676
  0
LWPOLYLINE
  5
7C0
100
AcDbEntity
  8
0
100
AcDbPolyline
 62
7
  6
CONTINUOUS
 90
17
 70
0
 10
4.1604242376
 20
7.912806682
 10
4.165703631
 20
7.913931682
 10
4.1813773747
 20
7.915056682
 10
4.2069572808
 20
7.916181682
 10
4.2416466153
 20
7.917306682
 10
4.2843649143
 20
7.918431682
 10
4.3337816367
 20
7.919556682
 10
4.3883576067
 20
7.920681682
 10
4.446392954
 20
7.921806682
 10
4.5060800594
 20
7.922931682
 10
4.5655598568
 20
7.924056682
 10
4.6229797371
 20
7.925181682
 10
4.6765512511
 20
7.926306682
 10
4.7246058141
 20
7.927431682
 10
4.7656466772
 20
7.928556682
 10
4.7983955462
 20
7.929681682
 10
4.8218323966
 20
7.930806682
  0
LINE
  5
7C1
100
AcDbEntity
  8
0
100
AcDbLine
 62
7
  6
CONTINUOUS
 10
4.8534242376
 20
8.031306682
 11
4.8481423663
 21
8.0302055766
  0
LWPOLYLINE
  5
7C2
100
AcDbEntity
  8
0
100
AcDbPolyline
 62
7
  6
CONTINUOUS
 90
17
 70
0
 10
4.1454715369
 20
7.891410752
 10
4.1516766754
 20
7.8925049652
 10
4.1686409433
 20
7.8936251249
 10
4.1958193729
 20
7.8947452684
 10
4.2323705343
 20
7.8958653475
 10
4.2771678173
 20
7.8969854418
 10
4.3288294394
 20
7.8981055738
 10
4.3857574343
 20
7.89922568
 10
4.4461945872
 20
7.9003457762
 10
4.5082773641
 20
7.9014659097
 10
4.5700852931
 20
7.9025860161
 10
4.6297095916
 20
7.9037060874
 10
4.6853143207
 20
7.9048262226
 10
4.7351803473
 20
7.9059463905
 10
4.7777647704
 20
7.9070665198
 10
4.811753206
 20
7.9081866007
 10
4.8360982444
 20
7.909306682
  0
LWPOLYLINE
  5
7C3
100
AcDbEntity
  8
0
100
AcDbPolyline
 62
7
  6
CONTINUOUS
 90
17
 70
0
 10
4.1604736289
 20
7.907915356
 10
4.1676033249
 20
7.909119182
 10
4.1847225037
 20
7.910231682
 10
4.2114275947
 20
7.911344182
 10
4.2469051524
 20
7.912456682
 10
4.2900745196
 20
7.913569182
 10
4.3396207438
 20
7.914681682
 10
4.3940346319
 20
7.915794182
 10
4.45165872
 20
7.916906682
 10
4.5107377605
 20
7.918019182
 10
4.5694721876
 20
7.919131682
 10
4.6260729325
 20
7.920244182
 10
4.6788159189
 20
7.921356682
 10
4.7260945794
 20
7.922469182
 10
4.7664687911
 20
7.923581682
 10
4.7987087431
 20
7.924694182
 10
4.8218323966
 20
7.925806682
  0
LWPOLYLINE
  5
7C4
100
AcDbEntity
  8
0
100
AcDbPolyline
 62
7
  6
CONTINUOUS
 90
18
 70
0
 10
4.162216217
 20
7.9484615492
 10
4.1737012347
 20
7.9495942926
 10
4.1954712724
 20
7.9507270359
 10
4.2268389201
 20
7.9518597793
 10
4.2668137137
 20
7.9529925227
 10
4.3141334105
 20
7.954125266
 10
4.3673038451
 20
7.9552580094
 10
4.4246461092
 20
7.9563907528
 10
4.4843495654
 20
7.9575234961
 10
4.544529019
 20
7.9586562395
 10
4.6032842454
 20
7.9597889828
 10
4.6587599911
 20
7.9609217262
 10
4.7092045558
 20
7.9620544696
 10
4.7530251032
 20
7.9631872129
 10
4.7888379572
 20
7.9643199563
 10
4.815512292
 20
7.9654526997
 10
4.8322058396
 20
7.966585443
 10
4.8384242376
 20
7.967806682
  0
LWPOLYLINE
  5
7C5
100
AcDbEntity
  8
0
100
AcDbPolyline
 62
7
  6
CONTINUOUS
 90
8
 70
0
 10
4.8481548717
 20
7.9902068841
 10
4.8324027837
 20
7.9891017369
 10
4.8064931803
 20
7.9879912301
 10
4.7715172379
 20
7.98688785
 10
4.727804573
 20
7.9857707194
 10
4.6768008972
 20
7.9846478397
 10
4.6208801117
 20
7.9835361923
 10
4.5615633634
 20
7.9824299875
  0
LWPOLYLINE
  5
7C6
100
AcDbEntity
  8
0
100
AcDbPolyline
 62
7
  6
CONTINUOUS
 90
8
 70
0
 10
4.1508078561
 20
7.9704183691
 10
4.1670452935
 20
7.971543175
 10
4.1935081885
 20
7.9726635683
 10
4.2287936086
 20
7.973766467
 10
4.2721366942
 20
7.9748683217
 10
4.3227957366
 20
7.9759810604
 10
4.378671099
 20
7.9770906209
 10
4.4380228426
 20
7.9781968502
  0
LWPOLYLINE
  5
7C7
100
AcDbEntity
  8
0
100
AcDbPolyline
 62
7
  6
CONTINUOUS
 90
16
 70
0
 10
4.1509368615
 20
7.930431644
 10
4.1675583726
 20
7.9315698356
 10
4.1946201568
 20
7.9327030978
 10
4.2306615643
 20
7.9338183283
 10
4.2751126673
 20
7.9349378132
 10
4.3269900768
 20
7.9360677607
 10
4.3839106051
 20
7.9371905774
 10
4.4442626012
 20
7.9383106176
 10
4.506879162
 20
7.9394407583
 10
4.5688613705
 20
7.9405635616
 10
4.6281943784
 20
7.941676808
 10
4.6844173283
 20
7.9428072852
 10
4.7351590426
 20
7.9439458769
 10
4.7780382403
 20
7.9450744856
 10
4.8118561703
 20
7.9461905368
 10
4.8360982444
 20
7.947306682
  0
LWPOLYLINE
  5
7C8
100
AcDbEntity
  8
0
100
AcDbPolyline
 62
7
  6
CONTINUOUS
 90
9
 70
0
 10
4.4380228426
 20
7.9401968502
 10
4.378671099
 20
7.9390906209
 10
4.3227957366
 20
7.9379810604
 10
4.2721366942
 20
7.9368683217
 10
4.2287936086
 20
7.935766467
 10
4.1935081885
 20
7.9346635683
 10
4.1670452935
 20
7.933543175
 10
4.1508078561
 20
7.9324183691
 10
4.1454715369
 20
7.931410752
  0
LWPOLYLINE
  5
7C9
100
AcDbEntity
  8
0
100
AcDbPolyline
 62
7
  6
CONTINUOUS
 90
10
 70
0
 10
4.4380228426
 20
7.9781968502
 10
4.5617459163
 20
7.9804333224
 10
4.6208177613
 20
7.9815349986
 10
4.676896387
 20
7.9826498242
 10
4.7279867178
 20
7.9837750078
 10
4.771715117
 20
7.9848934158
 10
4.8066438268
 20
7.985996679
 10
4.8324381632
 20
7.9871036119
 10
4.8481374229
 20
7.9882050602
 10
4.8533769383
 20
7.9892026119
  0
LWPOLYLINE
  5
7CA
100
AcDbEntity
  8
0
100
AcDbPolyline
 62
7
  6
CONTINUOUS
 90
10
 70
0
 10
4.5615633634
 20
7.9824299875
 10
4.4373477764
 20
7.9801845211
 10
4.3780133551
 20
7.979078033
 10
4.3223268084
 20
7.9779713253
 10
4.2720077826
 20
7.9768652972
 10
4.228743864
 20
7.975765079
 10
4.1934725237
 20
7.9746622935
 10
4.1670287354
 20
7.9735423095
 10
4.1508036951
 20
7.9724179383
 10
4.1454715369
 20
7.971410752
  0
LINE
  5
7CB
100
AcDbEntity
  8
0
100
AcDbLine
 62
7
  6
CONTINUOUS
 10
4.1454715369
 20
8.0892026119
 11
4.1604736289
 21
8.072698008
  0
LINE
  5
7CC
100
AcDbEntity
  8
0
100
AcDbLine
 62
7
  6
CONTINUOUS
 10
4.1454715369
 20
8.1292026119
 11
4.1604736289
 21
8.112698008
  0
LINE
  5
7CD
100
AcDbEntity
  8
0
100
AcDbLine
 62
7
  6
CONTINUOUS
 10
4.1454715369
 20
8.1692026119
 11
4.1604736289
 21
8.152698008
  0
LINE
  5
7CE
100
AcDbEntity
  8
0
100
AcDbLine
 62
7
  6
CONTINUOUS
 10
4.8534242376
 20
8.071306682
 11
4.8481138528
 21
8.0702026011
  0
LINE
  5
7CF
100
AcDbEntity
  8
0
100
AcDbLine
 62
7
  6
CONTINUOUS
 10
4.8534242376
 20
8.111306682
 11
4.8480459669
 21
8.1101955485
  0
LINE
  5
7D0
100
AcDbEntity
  8
0
100
AcDbLine
 62
7
  6
CONTINUOUS
 10
4.1454242376
 20
7.969306682
 11
4.1508078561
 21
7.9704183691
  0
LINE
  5
7D1
100
AcDbEntity
  8
0
100
AcDbLine
 62
7
  6
CONTINUOUS
 10
4.1454242376
 20
7.929306682
 11
4.1509368615
 21
7.930431644
  0
LINE
  5
7D2
100
AcDbEntity
  8
0
100
AcDbLine
 62
7
  6
CONTINUOUS
 10
4.8329040089
 20
8.0916562395
 11
4.8383748463
 21
8.092698008
  0
LWPOLYLINE
  5
7D3
100
AcDbEntity
  8
0
100
AcDbPolyline
 62
7
  6
CONTINUOUS
 90
19
 70
0
 10
4.1608027931
 20
7.9881075669
 10
4.1689836999
 20
7.9892403103
 10
4.1875985875
 20
7.9903730536
 10
4.2160596728
 20
7.991505797
 10
4.2534682692
 20
7.9926385404
 10
4.2986431641
 20
7.9937712837
 10
4.3501579163
 20
7.9949040271
 10
4.4063858976
 20
7.9960367705
 10
4.4655516547
 20
7.9971695138
 10
4.5257869715
 20
7.9983022572
 10
4.5851898595
 20
7.9994350005
 10
4.6418846146
 20
8.0005677439
 10
4.694081045
 20
8.0017004873
 10
4.7401309978
 20
8.0028332306
 10
4.7785804009
 20
8.003965974
 10
4.8082151772
 20
8.0050987174
 10
4.8280995798
 20
8.0062314607
 10
4.8376057394
 20
8.0073642041
 10
4.8384242376
 20
8.007806682
  0
LWPOLYLINE
  5
7D4
100
AcDbEntity
  8
0
100
AcDbPolyline
 62
7
  6
CONTINUOUS
 90
9
 70
0
 10
4.8481423663
 20
8.0302055766
 10
4.8322188124
 20
8.0290920114
 10
4.8061001166
 20
8.027977051
 10
4.7709825172
 20
8.0268728388
 10
4.7272810267
 20
8.0257584069
 10
4.6765214217
 20
8.0246420336
 10
4.6210122965
 20
8.0235387232
 10
4.5616704681
 20
8.0224319441
 10
4.4373891166
 20
8.0201852762
  0
LWPOLYLINE
  5
7D5
100
AcDbEntity
  8
0
100
AcDbPolyline
 62
7
  6
CONTINUOUS
 90
8
 70
0
 10
4.8481138528
 20
8.0702026011
 10
4.8320728609
 20
8.0690843249
 10
4.8058237169
 20
8.0679671131
 10
4.7706273172
 20
8.0668628907
 10
4.7269489804
 20
8.0657506083
 10
4.6763599641
 20
8.0646386807
 10
4.6209844357
 20
8.0635381898
 10
4.5616415823
 20
8.0624314164
  0
LWPOLYLINE
  5
7D6
100
AcDbEntity
  8
0
100
AcDbPolyline
 62
7
  6
CONTINUOUS
 90
8
 70
0
 10
4.1508036951
 20
8.0104179383
 10
4.1670287354
 20
8.0115423095
 10
4.1934725237
 20
8.0126622935
 10
4.228743864
 20
8.013765079
 10
4.2720077826
 20
8.0148652972
 10
4.3223268084
 20
8.0159713253
 10
4.3780133551
 20
8.017078033
 10
4.4373477764
 20
8.0181845211
  0
LWPOLYLINE
  5
7D7
100
AcDbEntity
  8
0
100
AcDbPolyline
 62
7
  6
CONTINUOUS
 90
9
 70
0
 10
4.4373891166
 20
8.0201852762
 10
4.3780246582
 20
8.0190782494
 10
4.3224312843
 20
8.017973495
 10
4.2722791505
 20
8.0168716626
 10
4.2288426325
 20
8.0157678344
 10
4.1935228395
 20
8.0146640919
 10
4.1670518571
 20
8.0135435179
 10
4.1508095097
 20
8.0124185402
 10
4.1454715369
 20
8.011410752
  0
LWPOLYLINE
  5
7D8
100
AcDbEntity
  8
0
100
AcDbPolyline
 62
7
  6
CONTINUOUS
 90
10
 70
0
 10
4.4373477764
 20
8.0181845211
 10
4.5615633634
 20
8.0204299875
 10
4.6208801117
 20
8.0215361923
 10
4.6768008972
 20
8.0226478397
 10
4.727804573
 20
8.0237707194
 10
4.7715172379
 20
8.02488785
 10
4.8064931803
 20
8.0259912301
 10
4.8324027837
 20
8.0271017369
 10
4.8481548717
 20
8.0282068841
 10
4.8533769383
 20
8.0292026119
  0
LWPOLYLINE
  5
7D9
100
AcDbEntity
  8
0
100
AcDbPolyline
 62
7
  6
CONTINUOUS
 90
10
 70
0
 10
4.4373891166
 20
8.0581852762
 10
4.5616704681
 20
8.0604319441
 10
4.6210122965
 20
8.0615387232
 10
4.6765214217
 20
8.0626420336
 10
4.7272810267
 20
8.0637584069
 10
4.7709825172
 20
8.0648728388
 10
4.8061001166
 20
8.065977051
 10
4.8322188124
 20
8.0670920114
 10
4.8481423663
 20
8.0682055766
 10
4.8533769383
 20
8.0692026119
  0
LWPOLYLINE
  5
7DA
100
AcDbEntity
  8
0
100
AcDbPolyline
 62
7
  6
CONTINUOUS
 90
10
 70
0
 10
4.5616415823
 20
8.0624314164
 10
4.4373702209
 20
8.0601849311
 10
4.3780136617
 20
8.0590780389
 10
4.3225018018
 20
8.0579749592
 10
4.272357743
 20
8.0568735051
 10
4.2288384279
 20
8.0557677172
 10
4.1935153013
 20
8.0546638225
 10
4.1670483394
 20
8.0535433341
 10
4.1508086266
 20
8.0524184488
 10
4.1454715369
 20
8.051410752
  0
LINE
  5
7DB
100
AcDbEntity
  8
0
100
AcDbLine
 62
7
  6
CONTINUOUS
 10
4.1454715369
 20
8.2092026119
 11
4.1604736289
 21
8.192698008
  0
LINE
  5
7DC
100
AcDbEntity
  8
0
100
AcDbLine
 62
7
  6
CONTINUOUS
 10
4.1454715369
 20
8.2492026119
 11
4.1604736289
 21
8.232698008
  0
LINE
  5
7DD
100
AcDbEntity
  8
0
100
AcDbLine
 62
7
  6
CONTINUOUS
 10
4.1454242376
 20
8.411306682
 11
4.1454242376
 21
8.409306682
  0
LINE
  5
7DE
100
AcDbEntity
  8
0
100
AcDbLine
 62
7
  6
CONTINUOUS
 10
4.1454242376
 20
8.371306682
 11
4.1454242376
 21
8.369306682
  0
LINE
  5
7DF
100
AcDbEntity
  8
0
100
AcDbLine
 62
7
  6
CONTINUOUS
 10
4.1454242376
 20
8.331306682
 11
4.1454242376
 21
8.329306682
  0
LINE
  5
7E0
100
AcDbEntity
  8
0
100
AcDbLine
 62
7
  6
CONTINUOUS
 10
4.1454242376
 20
8.291306682
 11
4.1454242376
 21
8.289306682
  0
LINE
  5
7E1
100
AcDbEntity
  8
0
100
AcDbLine
 62
7
  6
CONTINUOUS
 10
4.1454242376
 20
8.251306682
 11
4.1454242376
 21
8.249306682
  0
LINE
  5
7E2
100
AcDbEntity
  8
0
100
AcDbLine
 62
7
  6
CONTINUOUS
 10
4.1454242376
 20
8.211306682
 11
4.1454242376
 21
8.209306682
  0
LINE
  5
7E3
100
AcDbEntity
  8
0
100
AcDbLine
 62
7
  6
CONTINUOUS
 10
4.1454242376
 20
8.171306682
 11
4.1454242376
 21
8.169306682
  0
LINE
  5
7E4
100
AcDbEntity
  8
0
100
AcDbLine
 62
7
  6
CONTINUOUS
 10
4.1454242376
 20
8.131306682
 11
4.1454242376
 21
8.129306682
  0
LINE
  5
7E5
100
AcDbEntity
  8
0
100
AcDbLine
 62
7
  6
CONTINUOUS
 10
4.1454242376
 20
8.091306682
 11
4.1454242376
 21
8.089306682
  0
LINE
  5
7E6
100
AcDbEntity
  8
0
100
AcDbLine
 62
7
  6
CONTINUOUS
 10
4.1454242376
 20
8.051306682
 11
4.1454242376
 21
8.049306682
  0
LINE
  5
7E7
100
AcDbEntity
  8
0
100
AcDbLine
 62
7
  6
CONTINUOUS
 10
4.1454242376
 20
8.011306682
 11
4.1454242376
 21
8.009306682
  0
LINE
  5
7E8
100
AcDbEntity
  8
0
100
AcDbLine
 62
7
  6
CONTINUOUS
 10
4.1454242376
 20
7.971306682
 11
4.1454242376
 21
7.969306682
  0
LINE
  5
7E9
100
AcDbEntity
  8
0
100
AcDbLine
 62
7
  6
CONTINUOUS
 10
4.1454242376
 20
7.931306682
 11
4.1454242376
 21
7.929306682
  0
LINE
  5
7EA
100
AcDbEntity
  8
0
100
AcDbLine
 62
7
  6
CONTINUOUS
 10
4.1454242376
 20
7.891306682
 11
4.1454242376
 21
7.889306682
  0
LINE
  5
7EB
100
AcDbEntity
  8
0
100
AcDbLine
 62
7
  6
CONTINUOUS
 10
4.1604242376
 20
8.392806682
 11
4.1604242376
 21
8.387806682
  0
LINE
  5
7EC
100
AcDbEntity
  8
0
100
AcDbLine
 62
7
  6
CONTINUOUS
 10
4.1604242376
 20
8.352806682
 11
4.1604242376
 21
8.347806682
  0
LINE
  5
7ED
100
AcDbEntity
  8
0
100
AcDbLine
 62
7
  6
CONTINUOUS
 10
4.1604242376
 20
8.312806682
 11
4.1604242376
 21
8.307806682
  0
LINE
  5
7EE
100
AcDbEntity
  8
0
100
AcDbLine
 62
7
  6
CONTINUOUS
 10
4.1604242376
 20
8.272806682
 11
4.1604242376
 21
8.267806682
  0
LINE
  5
7EF
100
AcDbEntity
  8
0
100
AcDbLine
 62
7
  6
CONTINUOUS
 10
4.1604242376
 20
8.232806682
 11
4.1604242376
 21
8.227806682
  0
LINE
  5
7F0
100
AcDbEntity
  8
0
100
AcDbLine
 62
7
  6
CONTINUOUS
 10
4.1604242376
 20
8.192806682
 11
4.1604242376
 21
8.187806682
  0
LINE
  5
7F1
100
AcDbEntity
  8
0
100
AcDbLine
 62
7
  6
CONTINUOUS
 10
4.1604242376
 20
8.152806682
 11
4.1604242376
 21
8.147806682
  0
LINE
  5
7F2
100
AcDbEntity
  8
0
100
AcDbLine
 62
7
  6
CONTINUOUS
 10
4.1604242376
 20
8.112806682
 11
4.1604242376
 21
8.107806682
  0
LINE
  5
7F3
100
AcDbEntity
  8
0
100
AcDbLine
 62
7
  6
CONTINUOUS
 10
4.1604242376
 20
8.072806682
 11
4.1604242376
 21
8.067806682
  0
LINE
  5
7F4
100
AcDbEntity
  8
0
100
AcDbLine
 62
7
  6
CONTINUOUS
 10
4.1604242376
 20
8.032806682
 11
4.1604242376
 21
8.027806682
  0
LINE
  5
7F5
100
AcDbEntity
  8
0
100
AcDbLine
 62
7
  6
CONTINUOUS
 10
4.1604242376
 20
7.992806682
 11
4.1604242376
 21
7.987806682
  0
LINE
  5
7F6
100
AcDbEntity
  8
0
100
AcDbLine
 62
7
  6
CONTINUOUS
 10
4.1604242376
 20
7.952806682
 11
4.1604242376
 21
7.947806682
  0
LINE
  5
7F7
100
AcDbEntity
  8
0
100
AcDbLine
 62
7
  6
CONTINUOUS
 10
4.1604242376
 20
7.912806682
 11
4.1604242376
 21
7.907806682
  0
LINE
  5
7F8
100
AcDbEntity
  8
0
100
AcDbLine
 62
7
  6
CONTINUOUS
 10
4.1606742376
 20
8.458806682
 11
4.1606742376
 21
8.421306682
  0
LWPOLYLINE
  5
7F9
100
AcDbEntity
  8
0
100
AcDbPolyline
 62
7
  6
CONTINUOUS
 90
18
 70
0
 10
4.1604242376
 20
8.032806682
 10
4.1652875379
 20
8.033886328
 10
4.1806897379
 20
8.0350190713
 10
4.2061562891
 20
8.0361518147
 10
4.2408830605
 20
8.0372845581
 10
4.2837735205
 20
8.0384173014
 10
4.3334733613
 20
8.0395500448
 10
4.3884132621
 20
8.0406827882
 10
4.4468584422
 20
8.0418155315
 10
4.5069634384
 20
8.0429482749
 10
4.5668303769
 20
8.0440810182
 10
4.6245689012
 20
8.0452137616
 10
4.6783558612
 20
8.046346505
 10
4.7264928816
 20
8.0474792483
 10
4.767459989
 20
8.0486119917
 10
4.7999636074
 20
8.0497447351
 10
4.8229774034
 20
8.0508774784
 10
4.8357746941
 20
8.0520102218
  0
LINE
  5
7FA
100
AcDbEntity
  8
0
100
AcDbLine
 62
7
  6
CONTINUOUS
 10
4.1454242376
 20
8.009306682
 11
4.1508036951
 21
8.0104179383
  0
LINE
  5
7FB
100
AcDbEntity
  8
0
100
AcDbLine
 62
7
  6
CONTINUOUS
 10
4.8534242376
 20
8.151306682
 11
4.8480386457
 21
8.1501947906
  0
LINE
  5
7FC
100
AcDbEntity
  8
0
100
AcDbLine
 62
7
  6
CONTINUOUS
 10
4.8534242376
 20
8.191306682
 11
4.8480382455
 21
8.1901947492
  0
LINE
  5
7FD
100
AcDbEntity
  8
0
100
AcDbLine
 62
7
  6
CONTINUOUS
 10
4.1454242376
 20
8.049306682
 11
4.1508095097
 21
8.0504185402
  0
LWPOLYLINE
  5
7FE
100
AcDbEntity
  8
0
100
AcDbPolyline
 62
7
  6
CONTINUOUS
 90
19
 70
0
 10
4.1604736289
 20
8.027915356
 10
4.1652875379
 20
8.028886328
 10
4.1806897379
 20
8.0300190713
 10
4.2061562891
 20
8.0311518147
 10
4.2408830605
 20
8.0322845581
 10
4.2837735205
 20
8.0334173014
 10
4.3334733613
 20
8.0345500448
 10
4.3884132621
 20
8.0356827882
 10
4.4468584422
 20
8.0368155315
 10
4.5069634384
 20
8.0379482749
 10
4.5668303769
 20
8.0390810182
 10
4.6245689012
 20
8.0402137616
 10
4.6783558612
 20
8.041346505
 10
4.7264928816
 20
8.0424792483
 10
4.767459989
 20
8.0436119917
 10
4.7999636074
 20
8.0447447351
 10
4.8229774034
 20
8.0458774784
 10
4.8357746941
 20
8.0470102218
 10
4.8384242376
 20
8.047806682
  0
LWPOLYLINE
  5
7FF
100
AcDbEntity
  8
0
100
AcDbPolyline
 62
7
  6
CONTINUOUS
 90
3
 70
0
 10
4.8290025567
 20
8.1313022572
 10
4.8378466368
 20
8.1324350005
 10
4.8383748463
 20
8.132698008
  0
LWPOLYLINE
  5
800
100
AcDbEntity
  8
0
100
AcDbPolyline
 62
7
  6
CONTINUOUS
 90
18
 70
0
 10
4.1626241733
 20
8.0685323457
 10
4.1747660783
 20
8.069665089
 10
4.1971593798
 20
8.0707978324
 10
4.2290969877
 20
8.0719305758
 10
4.2695704409
 20
8.0730633191
 10
4.3173017509
 20
8.0741960625
 10
4.3707837552
 20
8.0753288059
 10
4.4283277076
 20
8.0764615492
 10
4.4881166019
 20
8.0775942926
 10
4.5482625459
 20
8.0787270359
 10
4.6068663728
 20
8.0798597793
 10
4.6620776101
 20
8.0809925227
 10
4.7121529092
 20
8.082125266
 10
4.7555110939
 20
8.0832580094
 10
4.7907830876
 20
8.0843907528
 10
4.8168551427
 20
8.0855234961
 10
4.8329040089
 20
8.0866562395
 10
4.8384242376
 20
8.087806682
  0
LWPOLYLINE
  5
801
100
AcDbEntity
  8
0
100
AcDbPolyline
 62
7
  6
CONTINUOUS
 90
8
 70
0
 10
4.1508095097
 20
8.0504185402
 10
4.1670518571
 20
8.0515435179
 10
4.1935228395
 20
8.0526640919
 10
4.2288426325
 20
8.0537678344
 10
4.2722791505
 20
8.0548716626
 10
4.3224312843
 20
8.055973495
 10
4.3780246582
 20
8.0570782494
 10
4.4373891166
 20
8.0581852762
  0
LWPOLYLINE
  5
802
100
AcDbEntity
  8
0
100
AcDbPolyline
 62
7
  6
CONTINUOUS
 90
8
 70
0
 10
4.8480459669
 20
8.1101955485
 10
4.8318257313
 20
8.1090713677
 10
4.8053920619
 20
8.1079516464
 10
4.7700985521
 20
8.1068481158
 10
4.726494423
 20
8.1057399453
 10
4.6762169435
 20
8.1046357115
 10
4.6208545332
 20
8.1035357026
 10
4.561538093
 20
8.1024295259
  0
LWPOLYLINE
  5
803
100
AcDbEntity
  8
0
100
AcDbPolyline
 62
7
  6
CONTINUOUS
 90
8
 70
0
 10
4.1508086266
 20
8.0904184488
 10
4.1670483394
 20
8.0915433341
 10
4.1935153013
 20
8.0926638225
 10
4.2288384279
 20
8.0937677172
 10
4.272357743
 20
8.0948735051
 10
4.3225018018
 20
8.0959749592
 10
4.3780136617
 20
8.0970780389
 10
4.4373702209
 20
8.0981849311
  0
LWPOLYLINE
  5
804
100
AcDbEntity
  8
0
100
AcDbPolyline
 62
7
  6
CONTINUOUS
 90
8
 70
0
 10
4.8480386457
 20
8.1501947906
 10
4.8317966029
 20
8.1490698452
 10
4.8053290306
 20
8.1479493933
 10
4.7700059384
 20
8.1468455322
 10
4.7264973881
 20
8.1457400148
 10
4.6763569916
 20
8.144638619
 10
4.6208313469
 20
8.1435352587
 10
4.5614688266
 20
8.1424282606
  0
LWPOLYLINE
  5
805
100
AcDbEntity
  8
0
100
AcDbPolyline
 62
7
  6
CONTINUOUS
 90
10
 70
0
 10
4.4373702209
 20
8.0981849311
 10
4.5616415823
 20
8.1004314164
 10
4.6209844357
 20
8.1015381898
 10
4.6763599641
 20
8.1026386807
 10
4.7269489804
 20
8.1037506083
 10
4.7706273172
 20
8.1048628907
 10
4.8058237169
 20
8.1059671131
 10
4.8320728609
 20
8.1070843249
 10
4.8481138528
 20
8.1082026011
 10
4.8533769383
 20
8.1092026119
  0
LWPOLYLINE
  5
806
100
AcDbEntity
  8
0
100
AcDbPolyline
 62
7
  6
CONTINUOUS
 90
10
 70
0
 10
4.561538093
 20
8.1024295259
 10
4.4373454011
 20
8.1001844777
 10
4.3780306683
 20
8.0990783645
 10
4.3226768245
 20
8.0979785925
 10
4.2723680832
 20
8.0968737475
 10
4.2287506938
 20
8.0957652696
 10
4.1934554019
 20
8.0946616813
 10
4.1670206618
 20
8.0935418874
 10
4.1508016704
 20
8.0924177286
 10
4.1454715369
 20
8.091410752
  0
LINE
  5
807
100
AcDbEntity
  8
0
100
AcDbLine
 62
7
  6
CONTINUOUS
 10
4.1454715369
 20
8.2892026119
 11
4.1604736289
 21
8.272698008
  0
LINE
  5
808
100
AcDbEntity
  8
0
100
AcDbLine
 62
7
  6
CONTINUOUS
 10
4.1454715369
 20
8.3292026119
 11
4.1604736289
 21
8.312698008
  0
LINE
  5
809
100
AcDbEntity
  8
0
100
AcDbLine
 62
7
  6
CONTINUOUS
 10
4.1454715369
 20
8.3692026119
 11
4.1604736289
 21
8.352698008
  0
LINE
  5
80A
100
AcDbEntity
  8
0
100
AcDbLine
 62
7
  6
CONTINUOUS
 10
4.1454242376
 20
8.4093066976
 11
4.1454715369
 21
8.4092026119
  0
LINE
  5
80B
100
AcDbEntity
  8
0
100
AcDbLine
 62
7
  6
CONTINUOUS
 10
4.1454242376
 20
8.411306682
 11
4.1454715369
 21
8.411410752
  0
LINE
  5
80C
100
AcDbEntity
  8
0
100
AcDbLine
 62
7
  6
CONTINUOUS
 10
4.1454715369
 20
8.371410752
 11
4.1454242376
 21
8.371306682
  0
LINE
  5
80D
100
AcDbEntity
  8
0
100
AcDbLine
 62
7
  6
CONTINUOUS
 10
4.1454715369
 20
8.331410752
 11
4.1454242376
 21
8.331306682
  0
LWPOLYLINE
  5
80E
100
AcDbEntity
  8
0
100
AcDbPolyline
 62
7
  6
CONTINUOUS
 90
19
 70
0
 10
4.1604242376
 20
8.352806682
 10
4.1604803083
 20
8.3529224714
 10
4.1668020463
 20
8.3540435241
 10
4.1834115348
 20
8.3551645767
 10
4.2097950551
 20
8.3562856293
 10
4.245136585
 20
8.357406682
 10
4.288343038
 20
8.3585277346
 10
4.3380780714
 20
8.3596487872
 10
4.3928034186
 20
8.3607698399
 10
4.4508264664
 20
8.3618908925
 10
4.5103526061
 20
8.3630119451
 10
4.5695407398
 20
8.3641329977
 10
4.6265602235
 20
8.3652540504
 10
4.6796474883
 20
8.366375103
 10
4.7271605854
 20
8.3674961556
 10
4.767629971
 20
8.3686172083
 10
4.799803958
 20
8.3697382609
 10
4.8226874294
 20
8.3708593135
 10
4.835572617
 20
8.3719803662
  0
LINE
  5
80F
100
AcDbEntity
  8
0
100
AcDbLine
 62
7
  6
CONTINUOUS
 10
4.8534242376
 20
8.231306682
 11
4.8480448723
 21
8.2301954352
  0
LINE
  5
810
100
AcDbEntity
  8
0
100
AcDbLine
 62
7
  6
CONTINUOUS
 10
4.1454242376
 20
8.089306682
 11
4.1508086266
 21
8.0904184488
  0
LINE
  5
811
100
AcDbEntity
  8
0
100
AcDbLine
 62
7
  6
CONTINUOUS
 10
4.8534242376
 20
8.271306682
 11
4.8480392511
 21
8.2701948533
  0
LINE
  5
812
100
AcDbEntity
  8
0
100
AcDbLine
 62
7
  6
CONTINUOUS
 10
4.8335609373
 20
8.2117270359
 11
4.8383748463
 21
8.212698008
  0
LWPOLYLINE
  5
813
100
AcDbEntity
  8
0
100
AcDbPolyline
 62
7
  6
CONTINUOUS
 90
19
 70
0
 10
4.1610018384
 20
8.1081783634
 10
4.1698459185
 20
8.1093111067
 10
4.1890967539
 20
8.1104438501
 10
4.2181464809
 20
8.1115765935
 10
4.2560778262
 20
8.1127093368
 10
4.3016930706
 20
8.1138420802
 10
4.3535518686
 20
8.1149748236
 10
4.4100167282
 20
8.1161075669
 10
4.4693047168
 20
8.1172403103
 10
4.5295437584
 20
8.1183730536
 10
4.588831747
 20
8.119505797
 10
4.6452966066
 20
8.1206385404
 10
4.6971554046
 20
8.1217712837
 10
4.742770649
 20
8.1229040271
 10
4.7807019943
 20
8.1240367705
 10
4.8097517213
 20
8.1251695138
 10
4.8290025567
 20
8.1263022572
 10
4.8378466368
 20
8.1274350005
 10
4.8384242376
 20
8.127806682
  0
LWPOLYLINE
  5
814
100
AcDbEntity
  8
0
100
AcDbPolyline
 62
7
  6
CONTINUOUS
 90
8
 70
0
 10
4.1507286728
 20
8.1704101426
 10
4.1667507961
 20
8.1715277338
 10
4.1929815918
 20
8.1726447005
 10
4.2281667324
 20
8.1737489501
 10
4.2718478287
 20
8.1748615427
 10
4.3224638796
 20
8.1759741718
 10
4.3778534372
 20
8.1770749712
 10
4.4371933802
 20
8.1781817007
  0
LWPOLYLINE
  5
815
100
AcDbEntity
  8
0
100
AcDbPolyline
 62
7
  6
CONTINUOUS
 90
8
 70
0
 10
4.1508016704
 20
8.1304177286
 10
4.1670206618
 20
8.1315418874
 10
4.1934554019
 20
8.1326616813
 10
4.2287506938
 20
8.1337652696
 10
4.2723680832
 20
8.1348737475
 10
4.3226768245
 20
8.1359785925
 10
4.3780306683
 20
8.1370783645
 10
4.4373454011
 20
8.1381844777
  0
LWPOLYLINE
  5
816
100
AcDbEntity
  8
0
100
AcDbPolyline
 62
7
  6
CONTINUOUS
 90
8
 70
0
 10
4.8480382455
 20
8.1901947492
 10
4.8317950051
 20
8.1890697617
 10
4.8053256661
 20
8.1879492731
 10
4.7700090813
 20
8.1868456198
 10
4.7265863856
 20
8.1857421014
 10
4.6764263239
 20
8.1846400586
 10
4.6208218494
 20
8.1835350768
 10
4.5614545076
 20
8.1824279991
  0
LWPOLYLINE
  5
817
100
AcDbEntity
  8
0
100
AcDbPolyline
 62
7
  6
CONTINUOUS
 90
10
 70
0
 10
4.4373454011
 20
8.1381844777
 10
4.561538093
 20
8.1404295259
 10
4.6208545332
 20
8.1415357026
 10
4.6762169435
 20
8.1426357115
 10
4.726494423
 20
8.1437399453
 10
4.7700985521
 20
8.1448481158
 10
4.8053920619
 20
8.1459516464
 10
4.8318257313
 20
8.1470713677
 10
4.8480459669
 20
8.1481955485
 10
4.8533769383
 20
8.1492026119
  0
LWPOLYLINE
  5
818
100
AcDbEntity
  8
0
100
AcDbPolyline
 62
7
  6
CONTINUOUS
 90
10
 70
0
 10
4.5614688266
 20
8.1424282606
 10
4.4371933802
 20
8.1401817007
 10
4.3778534372
 20
8.1390749712
 10
4.3224638796
 20
8.1379741718
 10
4.2718478287
 20
8.1368615427
 10
4.2281667324
 20
8.1357489501
 10
4.1929815918
 20
8.1346447005
 10
4.1667507961
 20
8.1335277338
 10
4.1507286728
 20
8.1324101426
 10
4.1454715369
 20
8.131410752
  0
LWPOLYLINE
  5
819
100
AcDbEntity
  8
0
100
AcDbPolyline
 62
7
  6
CONTINUOUS
 90
10
 70
0
 10
4.4371933802
 20
8.1781817007
 10
4.5614688266
 20
8.1804282606
 10
4.6208313469
 20
8.1815352587
 10
4.6763569916
 20
8.182638619
 10
4.7264973881
 20
8.1837400148
 10
4.7700059384
 20
8.1848455322
 10
4.8053290306
 20
8.1859493933
 10
4.8317966029
 20
8.1870698452
 10
4.8480386457
 20
8.1881947906
 10
4.8533769383
 20
8.1892026119
  0
LWPOLYLINE
  5
81A
100
AcDbEntity
  8
0
100
AcDbPolyline
 62
7
  6
CONTINUOUS
 90
10
 70
0
 10
4.5614545076
 20
8.1824279991
 10
4.4371745465
 20
8.1801813566
 10
4.3778372607
 20
8.1790746614
 10
4.3222997709
 20
8.1779707637
 10
4.2715155717
 20
8.1768537379
 10
4.2278138009
 20
8.1757390627
 10
4.1927088804
 20
8.1746348913
 10
4.1666086459
 20
8.1735202435
 10
4.1507026465
 20
8.1724074254
 10
4.1454715369
 20
8.171410752
  0
LINE
  5
81B
100
AcDbEntity
  8
0
100
AcDbLine
 62
7
  6
CONTINUOUS
 10
4.1454715369
 20
8.4092026119
 11
4.1604736289
 21
8.392698008
  0
LINE
  5
81C
100
AcDbEntity
  8
0
100
AcDbLine
 62
7
  6
CONTINUOUS
 10
4.1454715369
 20
8.291410752
 11
4.1454242376
 21
8.291306682
  0
LINE
  5
81D
100
AcDbEntity
  8
0
100
AcDbLine
 62
7
  6
CONTINUOUS
 10
4.1454715369
 20
8.251410752
 11
4.1454242376
 21
8.251306682
  0
LINE
  5
81E
100
AcDbEntity
  8
0
100
AcDbLine
 62
7
  6
CONTINUOUS
 10
4.1454715369
 20
8.211410752
 11
4.1454242376
 21
8.211306682
  0
LINE
  5
81F
100
AcDbEntity
  8
0
100
AcDbLine
 62
7
  6
CONTINUOUS
 10
4.1454715369
 20
8.171410752
 11
4.1454242376
 21
8.171306682
  0
LINE
  5
820
100
AcDbEntity
  8
0
100
AcDbLine
 62
7
  6
CONTINUOUS
 10
4.1544666035
 20
8.421306682
 11
4.1454715369
 21
8.411410752
  0
LINE
  5
821
100
AcDbEntity
  8
0
100
AcDbLine
 62
7
  6
CONTINUOUS
 10
4.1604736289
 20
8.387915356
 11
4.1454715369
 21
8.371410752
  0
LWPOLYLINE
  5
822
100
AcDbEntity
  8
0
100
AcDbPolyline
 62
7
  6
CONTINUOUS
 90
18
 70
0
 10
4.1604242376
 20
8.152806682
 10
4.1659444664
 20
8.1539571244
 10
4.1819933325
 20
8.1550898678
 10
4.2080653876
 20
8.1562226112
 10
4.2433373813
 20
8.1573553545
 10
4.2866955661
 20
8.1584880979
 10
4.3367708652
 20
8.1596208413
 10
4.3919821024
 20
8.1607535846
 10
4.4505859293
 20
8.161886328
 10
4.5107318733
 20
8.1630190713
 10
4.5705207676
 20
8.1641518147
 10
4.6280647201
 20
8.1652845581
 10
4.6815467244
 20
8.1664173014
 10
4.7292780343
 20
8.1675500448
 10
4.7697514875
 20
8.1686827882
 10
4.8016890954
 20
8.1698155315
 10
4.8240823969
 20
8.1709482749
 10
4.8362243019
 20
8.1720810182
  0
LINE
  5
823
100
AcDbEntity
  8
0
100
AcDbLine
 62
7
  6
CONTINUOUS
 10
4.1454242376
 20
8.169306682
 11
4.1507286728
 21
8.1704101426
  0
LINE
  5
824
100
AcDbEntity
  8
0
100
AcDbLine
 62
7
  6
CONTINUOUS
 10
4.1454242376
 20
8.129306682
 11
4.1508016704
 21
8.1304177286
  0
LINE
  5
825
100
AcDbEntity
  8
0
100
AcDbLine
 62
7
  6
CONTINUOUS
 10
4.8534242376
 20
8.311306682
 11
4.8479105986
 21
8.3101816161
  0
LWPOLYLINE
  5
826
100
AcDbEntity
  8
0
100
AcDbPolyline
 62
7
  6
CONTINUOUS
 90
19
 70
0
 10
4.1604736289
 20
8.147915356
 10
4.1659444664
 20
8.1489571244
 10
4.1819933325
 20
8.1500898678
 10
4.2080653876
 20
8.1512226112
 10
4.2433373813
 20
8.1523553545
 10
4.2866955661
 20
8.1534880979
 10
4.3367708652
 20
8.1546208413
 10
4.3919821024
 20
8.1557535846
 10
4.4505859293
 20
8.156886328
 10
4.5107318733
 20
8.1580190713
 10
4.5705207676
 20
8.1591518147
 10
4.6280647201
 20
8.1602845581
 10
4.6815467244
 20
8.1614173014
 10
4.7292780343
 20
8.1625500448
 10
4.7697514875
 20
8.1636827882
 10
4.8016890954
 20
8.1648155315
 10
4.8240823969
 20
8.1659482749
 10
4.8362243019
 20
8.1670810182
 10
4.8384242376
 20
8.167806682
  0
LWPOLYLINE
  5
827
100
AcDbEntity
  8
0
100
AcDbPolyline
 62
7
  6
CONTINUOUS
 90
3
 70
0
 10
4.8298647753
 20
8.2513730536
 10
4.8380456821
 20
8.252505797
 10
4.8383748463
 20
8.252698008
  0
LWPOLYLINE
  5
828
100
AcDbEntity
  8
0
100
AcDbPolyline
 62
7
  6
CONTINUOUS
 90
19
 70
0
 10
4.1612427358
 20
8.2282491598
 10
4.1707488954
 20
8.2293819032
 10
4.190633298
 20
8.2305146466
 10
4.2202680743
 20
8.2316473899
 10
4.2587174774
 20
8.2327801333
 10
4.3047674302
 20
8.2339128766
 10
4.3569638606
 20
8.23504562
 10
4.4136586158
 20
8.2361783634
 10
4.4730615037
 20
8.2373111067
 10
4.5332968205
 20
8.2384438501
 10
4.5924625777
 20
8.2395765935
 10
4.6486905589
 20
8.2407093368
 10
4.7002053111
 20
8.2418420802
 10
4.745380206
 20
8.2429748236
 10
4.7827888025
 20
8.2441075669
 10
4.8112498877
 20
8.2452403103
 10
4.8298647753
 20
8.2463730536
 10
4.8380456821
 20
8.247505797
 10
4.8384242376
 20
8.247806682
  0
LWPOLYLINE
  5
829
100
AcDbEntity
  8
0
100
AcDbPolyline
 62
7
  6
CONTINUOUS
 90
18
 70
0
 10
4.1630737811
 20
8.1886031421
 10
4.1758710718
 20
8.1897358855
 10
4.1988848678
 20
8.1908686289
 10
4.2313884862
 20
8.1920013722
 10
4.2723555937
 20
8.1931341156
 10
4.320492614
 20
8.1942668589
 10
4.374279574
 20
8.1953996023
 10
4.4320180983
 20
8.1965323457
 10
4.4918850369
 20
8.197665089
 10
4.551990033
 20
8.1987978324
 10
4.6104352131
 20
8.1999305758
 10
4.6653751139
 20
8.2010633191
 10
4.7150749547
 20
8.2021960625
 10
4.7579654148
 20
8.2033288059
 10
4.7926921861
 20
8.2044615492
 10
4.8181587373
 20
8.2055942926
 10
4.8335609373
 20
8.2067270359
 10
4.8384242376
 20
8.207806682
  0
LWPOLYLINE
  5
82A
100
AcDbEntity
  8
0
100
AcDbPolyline
 62
7
  6
CONTINUOUS
 90
9
 70
0
 10
4.1507026465
 20
8.2104074254
 10
4.1666086459
 20
8.2115202435
 10
4.1927088804
 20
8.2126348913
 10
4.2278138009
 20
8.2137390627
 10
4.2715155717
 20
8.2148537379
 10
4.3222997709
 20
8.2159707637
 10
4.3778372607
 20
8.2170746614
 10
4.4371745465
 20
8.2181813566
 10
4.5614545076
 20
8.2204279991
  0
LWPOLYLINE
  5
82B
100
AcDbEntity
  8
0
100
AcDbPolyline
 62
7
  6
CONTINUOUS
 90
8
 70
0
 10
4.8480448723
 20
8.2301954352
 10
4.8318213531
 20
8.2290711388
 10
4.8053829991
 20
8.2279513224
 10
4.7701200073
 20
8.2268487145
 10
4.7268676893
 20
8.2257487003
 10
4.6765292866
 20
8.2246421969
 10
4.6208366842
 20
8.2235353608
 10
4.561504595
 20
8.222428914
  0
LWPOLYLINE
  5
82C
100
AcDbEntity
  8
0
100
AcDbPolyline
 62
7
  6
CONTINUOUS
 90
8
 70
0
 10
4.8480392511
 20
8.2701948533
 10
4.8317989875
 20
8.2690699698
 10
4.8053347991
 20
8.2679495995
 10
4.7700485021
 20
8.2668467194
 10
4.7266839072
 20
8.2657443884
 10
4.6759910953
 20
8.2646310245
 10
4.6200979832
 20
8.2635212243
 10
4.560742583
 20
8.2624149972
  0
LWPOLYLINE
  5
82D
100
AcDbEntity
  8
0
100
AcDbPolyline
 62
7
  6
CONTINUOUS
 90
9
 70
0
 10
4.5614545076
 20
8.2204279991
 10
4.6208218494
 20
8.2215350768
 10
4.6764263239
 20
8.2226400586
 10
4.7265863856
 20
8.2237421014
 10
4.7700090813
 20
8.2248456198
 10
4.8053256661
 20
8.2259492731
 10
4.8317950051
 20
8.2270697617
 10
4.8480382455
 20
8.2281947492
 10
4.8533769383
 20
8.2292026119
  0
LWPOLYLINE
  5
82E
100
AcDbEntity
  8
0
100
AcDbPolyline
 62
7
  6
CONTINUOUS
 90
10
 70
0
 10
4.561504595
 20
8.222428914
 10
4.4372995889
 20
8.2201836409
 10
4.377982301
 20
8.2190774385
 10
4.3220170769
 20
8.2179648904
 10
4.2709935199
 20
8.2168414586
 10
4.227284318
 20
8.2157241948
 10
4.1923230191
 20
8.2146209671
 10
4.1664317008
 20
8.2135108858
 10
4.1506934614
 20
8.2124064649
 10
4.1454715369
 20
8.211410752
  0
LWPOLYLINE
  5
82F
100
AcDbEntity
  8
0
100
AcDbPolyline
 62
7
  6
CONTINUOUS
 90
10
 70
0
 10
4.4372995889
 20
8.2581836409
 10
4.561504595
 20
8.260428914
 10
4.6208366842
 20
8.2615353608
 10
4.6765292866
 20
8.2626421969
 10
4.7268676893
 20
8.2637487003
 10
4.7701200073
 20
8.2648487145
 10
4.8053829991
 20
8.2659513224
 10
4.8318213531
 20
8.2670711388
 10
4.8480448723
 20
8.2681954352
 10
4.8533769383
 20
8.2692026119
  0
LWPOLYLINE
  5
830
100
AcDbEntity
  8
0
100
AcDbPolyline
 62
7
  6
CONTINUOUS
 90
10
 70
0
 10
4.560742583
 20
8.2624149972
 10
4.4370797383
 20
8.2601796246
 10
4.3780295783
 20
8.2590783436
 10
4.3219450406
 20
8.2579633933
 10
4.2708526029
 20
8.2568381406
 10
4.2271261062
 20
8.2557197441
 10
4.1922003002
 20
8.2546165275
 10
4.1664130306
 20
8.2535098962
 10
4.1507130033
 20
8.2524085075
 10
4.1454715369
 20
8.251410752
  0
LINE
  5
831
100
AcDbEntity
  8
0
100
AcDbLine
 62
7
  6
CONTINUOUS
 10
4.1454715369
 20
8.131410752
 11
4.1454242376
 21
8.131306682
  0
LINE
  5
832
100
AcDbEntity
  8
0
100
AcDbLine
 62
7
  6
CONTINUOUS
 10
4.1454715369
 20
8.091410752
 11
4.1454242376
 21
8.091306682
  0
LINE
  5
833
100
AcDbEntity
  8
0
100
AcDbLine
 62
7
  6
CONTINUOUS
 10
4.1454715369
 20
8.051410752
 11
4.1454242376
 21
8.051306682
  0
LINE
  5
834
100
AcDbEntity
  8
0
100
AcDbLine
 62
7
  6
CONTINUOUS
 10
4.1454715369
 20
8.011410752
 11
4.1454242376
 21
8.011306682
  0
LINE
  5
835
100
AcDbEntity
  8
0
100
AcDbLine
 62
7
  6
CONTINUOUS
 10
4.1604736289
 20
8.347915356
 11
4.1454715369
 21
8.331410752
  0
LINE
  5
836
100
AcDbEntity
  8
0
100
AcDbLine
 62
7
  6
CONTINUOUS
 10
4.1604736289
 20
8.307915356
 11
4.1454715369
 21
8.291410752
  0
LINE
  5
837
100
AcDbEntity
  8
0
100
AcDbLine
 62
7
  6
CONTINUOUS
 10
4.1604736289
 20
8.187915356
 11
4.1630737811
 21
8.1886031421
  0
LINE
  5
838
100
AcDbEntity
  8
0
100
AcDbLine
 62
7
  6
CONTINUOUS
 10
4.835572617
 20
8.3719803662
 11
4.8383748463
 21
8.372698008
  0
LINE
  5
839
100
AcDbEntity
  8
0
100
AcDbLine
 62
7
  6
CONTINUOUS
 10
4.1454242376
 20
8.249306682
 11
4.1506934614
 21
8.2504064649
  0
LINE
  5
83A
100
AcDbEntity
  8
0
100
AcDbLine
 62
7
  6
CONTINUOUS
 10
4.1454242376
 20
8.209306682
 11
4.1507026465
 21
8.2104074254
  0
LINE
  5
83B
100
AcDbEntity
  8
0
100
AcDbLine
 62
7
  6
CONTINUOUS
 10
4.8534242376
 20
8.391306682
 11
4.848053352
 21
8.3901963136
  0
LINE
  5
83C
100
AcDbEntity
  8
0
100
AcDbLine
 62
7
  6
CONTINUOUS
 10
4.8534242376
 20
8.351306682
 11
4.8480426735
 21
8.3501952075
  0
LWPOLYLINE
  5
83D
100
AcDbEntity
  8
0
100
AcDbPolyline
 62
7
  6
CONTINUOUS
 90
19
 70
0
 10
4.1604736289
 20
8.267915356
 10
4.1666426357
 20
8.2690279209
 10
4.1833361833
 20
8.2701606643
 10
4.210010518
 20
8.2712934076
 10
4.245823372
 20
8.272426151
 10
4.2896439194
 20
8.2735588943
 10
4.3400884841
 20
8.2746916377
 10
4.3955642299
 20
8.2758243811
 10
4.4543194562
 20
8.2769571244
 10
4.5144989098
 20
8.2780898678
 10
4.574202366
 20
8.2792226112
 10
4.6315446302
 20
8.2803553545
 10
4.6847150647
 20
8.2814880979
 10
4.7320347615
 20
8.2826208413
 10
4.7720095552
 20
8.2837535846
 10
4.8033772028
 20
8.284886328
 10
4.8251472405
 20
8.2860190713
 10
4.8366322582
 20
8.2871518147
 10
4.8384242376
 20
8.287806682
  0
LWPOLYLINE
  5
83E
100
AcDbEntity
  8
0
100
AcDbPolyline
 62
7
  6
CONTINUOUS
 90
8
 70
0
 10
4.1506934614
 20
8.2504064649
 10
4.1664317008
 20
8.2515108858
 10
4.1923230191
 20
8.2526209671
 10
4.227284318
 20
8.2537241948
 10
4.2709935199
 20
8.2548414586
 10
4.3220170769
 20
8.2559648904
 10
4.377982301
 20
8.2570774385
 10
4.4372995889
 20
8.2581836409
  0
LWPOLYLINE
  5
83F
100
AcDbEntity
  8
0
100
AcDbPolyline
 62
7
  6
CONTINUOUS
 90
9
 70
0
 10
4.1507130033
 20
8.2904085075
 10
4.1664130306
 20
8.2915098962
 10
4.1922003002
 20
8.2926165275
 10
4.2271261062
 20
8.2937197441
 10
4.2708526029
 20
8.2948381406
 10
4.3219450406
 20
8.2959633933
 10
4.3780295783
 20
8.2970783436
 10
4.4370797383
 20
8.2981796246
 10
4.560742583
 20
8.3004149972
  0
LWPOLYLINE
  5
840
100
AcDbEntity
  8
0
100
AcDbPolyline
 62
7
  6
CONTINUOUS
 90
4
 70
0
 10
4.1627502308
 20
8.293306682
 10
4.1531590882
 20
8.2926399375
 10
4.1473640413
 20
8.291973444
 10
4.1454715369
 20
8.291410752
  0
LWPOLYLINE
  5
841
100
AcDbEntity
  8
0
100
AcDbPolyline
 62
7
  6
CONTINUOUS
 90
8
 70
0
 10
4.8480426735
 20
8.3501952075
 10
4.8318126215
 20
8.3490706823
 10
4.805364156
 20
8.3479506487
 10
4.7700592354
 20
8.3468470188
 10
4.7261267465
 20
8.3457313313
 10
4.674898605
 20
8.3446083797
 10
4.6187397637
 20
8.3434952615
 10
4.5594364165
 20
8.3423911549
  0
LWPOLYLINE
  5
842
100
AcDbEntity
  8
0
100
AcDbPolyline
 62
7
  6
CONTINUOUS
 90
16
 70
0
 10
4.8479105986
 20
8.3101816161
 10
4.8312874323
 20
8.3090433903
 10
4.8042262212
 20
8.3079101919
 10
4.7681830554
 20
8.3067949291
 10
4.7236995659
 20
8.3056747082
 10
4.671791194
 20
8.3045442195
 10
4.6148472746
 20
8.3034210631
 10
4.5545058104
 20
8.3023012887
 10
4.4919125937
 20
8.3011715853
 10
4.4299677102
 20
8.3000494466
 10
4.3706408687
 20
8.2989363005
 10
4.3144172942
 20
8.2978057865
 10
4.2636762056
 20
8.2966671682
 10
4.2207929552
 20
8.2955383746
 10
4.1869901214
 20
8.2944227436
 10
4.1627502308
 20
8.293306682
  0
LWPOLYLINE
  5
843
100
AcDbEntity
  8
0
100
AcDbPolyline
 62
7
  6
CONTINUOUS
 90
17
 70
0
 10
4.1770160786
 20
8.309806682
 10
4.2004846292
 20
8.3109329446
 10
4.2332850684
 20
8.3120592072
 10
4.2743934768
 20
8.3131854698
 10
4.3225265884
 20
8.3143117325
 10
4.3761818493
 20
8.3154379951
 10
4.4336843228
 20
8.3165642577
 10
4.4932389753
 20
8.3176905203
 10
4.5529867108
 20
8.318816783
 10
4.6110624062
 20
8.3199430456
 10
4.6656531336
 20
8.3210693082
 10
4.7150547543
 20
8.3221955708
 10
4.7577251158
 20
8.3233218335
 10
4.7923321932
 20
8.3244480961
 10
4.8177956698
 20
8.3255743587
 10
4.8333206617
 20
8.3267006214
 10
4.8384242376
 20
8.327806682
  0
LWPOLYLINE
  5
844
100
AcDbEntity
  8
0
100
AcDbPolyline
 62
7
  6
CONTINUOUS
 90
17
 70
0
 10
4.1770160786
 20
8.314806682
 10
4.2003539001
 20
8.3159277346
 10
4.232941739
 20
8.3170487872
 10
4.2737716782
 20
8.3181698399
 10
4.3215808789
 20
8.3192908925
 10
4.3748906389
 20
8.3204119451
 10
4.4320521282
 20
8.3215329977
 10
4.4912973854
 20
8.3226540504
 10
4.5507939999
 20
8.323775103
 10
4.6087017868
 20
8.3248961556
 10
4.6632297026
 20
8.3260172083
 10
4.7126912403
 20
8.3271382609
 10
4.7555565924
 20
8.3282593135
 10
4.7904999661
 20
8.3293803662
 10
4.8164405897
 20
8.3305014188
 10
4.8325761395
 20
8.3316224714
 10
4.8383748463
 20
8.332698008
  0
LWPOLYLINE
  5
845
100
AcDbEntity
  8
0
100
AcDbPolyline
 62
7
  6
CONTINUOUS
 90
9
 70
0
 10
4.560742583
 20
8.3004149972
 10
4.6200979832
 20
8.3015212243
 10
4.6759910953
 20
8.3026310245
 10
4.7266839072
 20
8.3037443884
 10
4.7700485021
 20
8.3048467194
 10
4.8053347991
 20
8.3059495995
 10
4.8317989875
 20
8.3070699698
 10
4.8480392511
 20
8.3081948533
 10
4.8533769383
 20
8.3092026119
  0
LINE
  5
846
100
AcDbEntity
  8
0
100
AcDbLine
 62
7
  6
CONTINUOUS
 10
4.8443818717
 20
7.881306682
 11
4.8383748463
 21
7.887915356
  0
LINE
  5
847
100
AcDbEntity
  8
0
100
AcDbLine
 62
7
  6
CONTINUOUS
 10
4.1454715369
 20
7.971410752
 11
4.1454242376
 21
7.971306682
  0
LINE
  5
848
100
AcDbEntity
  8
0
100
AcDbLine
 62
7
  6
CONTINUOUS
 10
4.1454715369
 20
7.931410752
 11
4.1454242376
 21
7.931306682
  0
LINE
  5
849
100
AcDbEntity
  8
0
100
AcDbLine
 62
7
  6
CONTINUOUS
 10
4.1454242376
 20
7.8913066694
 11
4.1454715369
 21
7.891410752
  0
LINE
  5
84A
100
AcDbEntity
  8
0
100
AcDbLine
 62
7
  6
CONTINUOUS
 10
4.1604736289
 20
8.267915356
 11
4.1454715369
 21
8.251410752
  0
LINE
  5
84B
100
AcDbEntity
  8
0
100
AcDbLine
 62
7
  6
CONTINUOUS
 10
4.1604736289
 20
8.227915356
 11
4.1454715369
 21
8.211410752
  0
LINE
  5
84C
100
AcDbEntity
  8
0
100
AcDbLine
 62
7
  6
CONTINUOUS
 10
4.1604736289
 20
8.187915356
 11
4.1454715369
 21
8.171410752
  0
LINE
  5
84D
100
AcDbEntity
  8
0
100
AcDbLine
 62
7
  6
CONTINUOUS
 10
4.1604736289
 20
8.347915356
 11
4.1607830426
 21
8.3480996113
  0
LWPOLYLINE
  5
84E
100
AcDbEntity
  8
0
100
AcDbPolyline
 62
7
  6
CONTINUOUS
 90
19
 70
0
 10
4.1604242376
 20
8.392806682
 10
4.1613622032
 20
8.3932803662
 10
4.1710049596
 20
8.3944014188
 10
4.1908054737
 20
8.3955224714
 10
4.2201513306
 20
8.3966435241
 10
4.2581348855
 20
8.3977645767
 10
4.3035813359
 20
8.3988856293
 10
4.3550850578
 20
8.400006682
 10
4.4110530804
 20
8.4011277346
 10
4.4697543554
 20
8.4022487872
 10
4.5293732973
 20
8.4033698399
 10
4.5880659376
 20
8.4044908925
 10
4.6440169578
 20
8.4056119451
 10
4.6954958354
 20
8.4067329977
 10
4.7409103682
 20
8.4078540504
 10
4.7788559192
 20
8.408975103
 10
4.8081588615
 20
8.4100961556
 10
4.8279128775
 20
8.4112172083
 10
4.8375069906
 20
8.4123382609
  0
LWPOLYLINE
  5
84F
100
AcDbEntity
  8
0
100
AcDbPolyline
 62
7
  6
CONTINUOUS
 90
3
 70
0
 10
4.1604736289
 20
8.307915356
 10
4.1635649848
 20
8.3086739386
 10
4.1770160786
 20
8.309806682
  0
LINE
  5
850
100
AcDbEntity
  8
0
100
AcDbLine
 62
7
  6
CONTINUOUS
 10
4.1454242376
 20
8.289306682
 11
4.1507130033
 21
8.2904085075
  0
LWPOLYLINE
  5
851
100
AcDbEntity
  8
0
100
AcDbPolyline
 62
7
  6
CONTINUOUS
 90
18
 70
0
 10
4.1604242376
 20
8.272806682
 10
4.1666426357
 20
8.2740279209
 10
4.1833361833
 20
8.2751606643
 10
4.210010518
 20
8.2762934076
 10
4.245823372
 20
8.277426151
 10
4.2896439194
 20
8.2785588943
 10
4.3400884841
 20
8.2796916377
 10
4.3955642299
 20
8.2808243811
 10
4.4543194562
 20
8.2819571244
 10
4.5144989098
 20
8.2830898678
 10
4.574202366
 20
8.2842226112
 10
4.6315446302
 20
8.2853553545
 10
4.6847150647
 20
8.2864880979
 10
4.7320347615
 20
8.2876208413
 10
4.7720095552
 20
8.2887535846
 10
4.8033772028
 20
8.289886328
 10
4.8251472405
 20
8.2910190713
 10
4.8366322582
 20
8.2921518147
  0
LWPOLYLINE
  5
852
100
AcDbEntity
  8
0
100
AcDbPolyline
 62
7
  6
CONTINUOUS
 90
19
 70
0
 10
4.1607830426
 20
8.3480996113
 10
4.1688128941
 20
8.3492258739
 10
4.1871633192
 20
8.3503521365
 10
4.2152614794
 20
8.3514783991
 10
4.2522302447
 20
8.3526046618
 10
4.2969155746
 20
8.3537309244
 10
4.3479225435
 20
8.354857187
 10
4.4036588855
 20
8.3559834496
 10
4.4623846995
 20
8.3571097123
 10
4.5222667633
 20
8.3582359749
 10
4.5814357602
 20
8.3593622375
 10
4.6380446334
 20
8.3604885001
 10
4.6903262444
 20
8.3616147628
 10
4.736648537
 20
8.3627410254
 10
4.7755654854
 20
8.363867288
 10
4.8058622332
 20
8.3649935506
 10
4.826593018
 20
8.3661198133
 10
4.8371106944
 20
8.3672460759
 10
4.8384242376
 20
8.367806682
  0
LWPOLYLINE
  5
853
100
AcDbEntity
  8
0
100
AcDbPolyline
 62
7
  6
CONTINUOUS
 90
3
 70
0
 10
4.1473640413
 20
8.329973444
 10
4.1531590882
 20
8.3306399375
 10
4.1627502308
 20
8.331306682
  0
LWPOLYLINE
  5
854
100
AcDbEntity
  8
0
100
AcDbPolyline
 62
7
  6
CONTINUOUS
 90
9
 70
0
 10
4.150739622
 20
8.3704112838
 10
4.1665582177
 20
8.3715175805
 10
4.1922401144
 20
8.3726179685
 10
4.227127975
 20
8.3737197967
 10
4.2708406043
 20
8.374837858
 10
4.3219143952
 20
8.3759627563
 10
4.3779782763
 20
8.3770773614
 10
4.4369457397
 20
8.3781771765
 10
4.5594364165
 20
8.3803911549
  0
LWPOLYLINE
  5
855
100
AcDbEntity
  8
0
100
AcDbPolyline
 62
7
  6
CONTINUOUS
 90
8
 70
0
 10
4.848053352
 20
8.3901963136
 10
4.83190399
 20
8.389075463
 10
4.8056636956
 20
8.3879613718
 10
4.7705047919
 20
8.3868594635
 10
4.7265159896
 20
8.3857404509
 10
4.6752294159
 20
8.3846152318
 10
4.6190334437
 20
8.383500872
 10
4.5597935944
 20
8.3823976732
  0
LWPOLYLINE
  5
856
100
AcDbEntity
  8
0
100
AcDbPolyline
 62
7
  6
CONTINUOUS
 90
17
 70
0
 10
4.1627502308
 20
8.331306682
 10
4.1869901214
 20
8.3324227436
 10
4.2207929552
 20
8.3335383746
 10
4.2636762056
 20
8.3346671682
 10
4.3144172942
 20
8.3358057865
 10
4.3706408687
 20
8.3369363005
 10
4.4299677102
 20
8.3380494466
 10
4.4919125937
 20
8.3391715853
 10
4.5545058104
 20
8.3403012887
 10
4.6148472746
 20
8.3414210631
 10
4.671791194
 20
8.3425442195
 10
4.7236995659
 20
8.3436747082
 10
4.7681830554
 20
8.3447949291
 10
4.8042262212
 20
8.3459101919
 10
4.8312874323
 20
8.3470433903
 10
4.8479105986
 20
8.3481816161
 10
4.8533769383
 20
8.3492026119
  0
LWPOLYLINE
  5
857
100
AcDbEntity
  8
0
100
AcDbPolyline
 62
7
  6
CONTINUOUS
 90
9
 70
0
 10
4.5594364165
 20
8.3803911549
 10
4.6187397637
 20
8.3814952615
 10
4.674898605
 20
8.3826083797
 10
4.7261267465
 20
8.3837313313
 10
4.7700592354
 20
8.3848470188
 10
4.805364156
 20
8.3859506487
 10
4.8318126215
 20
8.3870706823
 10
4.8480426735
 20
8.3881952075
 10
4.8533769383
 20
8.3892026119
  0
LWPOLYLINE
  5
858
100
AcDbEntity
  8
0
100
AcDbPolyline
 62
7
  6
CONTINUOUS
 90
10
 70
0
 10
4.5594364165
 20
8.3423911549
 10
4.4369457397
 20
8.3401771765
 10
4.3779782763
 20
8.3390773614
 10
4.3219143952
 20
8.3379627563
 10
4.2708406043
 20
8.336837858
 10
4.227127975
 20
8.3357197967
 10
4.1922401144
 20
8.3346179685
 10
4.1665582177
 20
8.3335175805
 10
4.150739622
 20
8.3324112838
 10
4.1454715369
 20
8.331410752
  0
LWPOLYLINE
  5
859
100
AcDbEntity
  8
0
100
AcDbPolyline
 62
7
  6
CONTINUOUS
 90
10
 70
0
 10
4.5597935944
 20
8.3823976732
 10
4.4376431368
 20
8.3801899159
 10
4.3785647641
 20
8.3790885864
 10
4.3224440547
 20
8.3779737601
 10
4.2712917516
 20
8.3768484758
 10
4.2274857704
 20
8.3757298565
 10
4.1925257899
 20
8.3746282909
 10
4.1667158928
 20
8.3735258969
 10
4.150763448
 20
8.3724137629
 10
4.1454715369
 20
8.371410752
  0
LINE
  5
85A
100
AcDbEntity
  8
0
100
AcDbLine
 62
7
  6
CONTINUOUS
 10
4.8533769383
 20
7.911410752
 11
4.8383748463
 21
7.927915356
  0
LINE
  5
85B
100
AcDbEntity
  8
0
100
AcDbLine
 62
7
  6
CONTINUOUS
 10
4.8533769383
 20
7.951410752
 11
4.8383748463
 21
7.967915356
  0
LINE
  5
85C
100
AcDbEntity
  8
0
100
AcDbLine
 62
7
  6
CONTINUOUS
 10
4.1604736289
 20
8.147915356
 11
4.1454715369
 21
8.131410752
  0
LINE
  5
85D
100
AcDbEntity
  8
0
100
AcDbLine
 62
7
  6
CONTINUOUS
 10
4.1604736289
 20
8.107915356
 11
4.1454715369
 21
8.091410752
  0
LWPOLYLINE
  5
85E
100
AcDbEntity
  8
0
100
AcDbPolyline
 62
7
  6
CONTINUOUS
 90
3
 70
0
 10
4.1604242376
 20
8.312806682
 10
4.1635649848
 20
8.3136739386
 10
4.1770160786
 20
8.314806682
  0
LINE
  5
85F
100
AcDbEntity
  8
0
100
AcDbLine
 62
7
  6
CONTINUOUS
 10
4.1454242376
 20
8.369306682
 11
4.150739622
 21
8.3704112838
  0
LWPOLYLINE
  5
860
100
AcDbEntity
  8
0
100
AcDbPolyline
 62
7
  6
CONTINUOUS
 90
8
 70
0
 10
4.4271073175
 20
8.4179969429
 10
4.3684334697
 20
8.4168936272
 10
4.3136827477
 20
8.4157902808
 10
4.2644968811
 20
8.4146869249
 10
4.2223510965
 20
8.4135835972
 10
4.1885082405
 20
8.4124803239
 10
4.1639806563
 20
8.4113770912
 10
4.1495019378
 20
8.4102738878
  0
LWPOLYLINE
  5
861
100
AcDbEntity
  8
0
100
AcDbPolyline
 62
7
  6
CONTINUOUS
 90
3
 70
0
 10
4.6088162536
 20
8.421306682
 10
4.5491271141
 20
8.4202034822
 10
4.4994602817
 20
8.4193078584
  0
LINE
  5
862
100
AcDbEntity
  8
0
100
AcDbLine
 62
7
  6
CONTINUOUS
 10
4.4994602817
 20
8.4193078584
 11
4.4271073175
 21
8.4179969429
  0
LINE
  5
863
100
AcDbEntity
  8
0
100
AcDbLine
 62
7
  6
CONTINUOUS
 10
4.1544675468
 20
8.421306682
 11
4.8461979766
 21
8.421306682
  0
LINE
  5
864
100
AcDbEntity
  8
0
100
AcDbLine
 62
9
  6
CONTINUOUS
 10
4.8381742376
 20
8.458806682
 11
4.1606742376
 21
8.458806682
  0
LINE
  5
865
100
AcDbEntity
  8
0
100
AcDbLine
 62
7
  6
CONTINUOUS
 10
4.8533769383
 20
7.991410752
 11
4.8383748463
 21
8.007915356
  0
LINE
  5
866
100
AcDbEntity
  8
0
100
AcDbLine
 62
7
  6
CONTINUOUS
 10
4.8533769383
 20
8.031410752
 11
4.8383748463
 21
8.047915356
  0
LINE
  5
867
100
AcDbEntity
  8
0
100
AcDbLine
 62
7
  6
CONTINUOUS
 10
4.8533769383
 20
8.071410752
 11
4.8383748463
 21
8.087915356
  0
LINE
  5
868
100
AcDbEntity
  8
0
100
AcDbLine
 62
7
  6
CONTINUOUS
 10
4.1604736289
 20
8.067915356
 11
4.1454715369
 21
8.051410752
  0
LINE
  5
869
100
AcDbEntity
  8
0
100
AcDbLine
 62
7
  6
CONTINUOUS
 10
4.1604736289
 20
8.027915356
 11
4.1454715369
 21
8.011410752
  0
LINE
  5
86A
100
AcDbEntity
  8
0
100
AcDbLine
 62
7
  6
CONTINUOUS
 10
4.1604736289
 20
7.987915356
 11
4.1454715369
 21
7.971410752
  0
LWPOLYLINE
  5
86B
100
AcDbEntity
  8
0
100
AcDbPolyline
 62
7
  6
CONTINUOUS
 90
18
 70
0
 10
4.1604242376
 20
8.232806682
 10
4.1612427358
 20
8.2332491598
 10
4.1707488954
 20
8.2343819032
 10
4.190633298
 20
8.2355146466
 10
4.2202680743
 20
8.2366473899
 10
4.2587174774
 20
8.2377801333
 10
4.3047674302
 20
8.2389128766
 10
4.3569638606
 20
8.24004562
 10
4.4136586158
 20
8.2411783634
 10
4.4730615037
 20
8.2423111067
 10
4.5332968205
 20
8.2434438501
 10
4.5924625777
 20
8.2445765935
 10
4.6486905589
 20
8.2457093368
 10
4.7002053111
 20
8.2468420802
 10
4.745380206
 20
8.2479748236
 10
4.7827888025
 20
8.2491075669
 10
4.8112498877
 20
8.2502403103
 10
4.8298647753
 20
8.2513730536
  0
LINE
  5
86C
100
AcDbEntity
  8
0
100
AcDbLine
 62
7
  6
CONTINUOUS
 10
4.1454242376
 20
8.329306682
 11
4.1473640413
 21
8.329973444
  0
LWPOLYLINE
  5
86D
100
AcDbEntity
  8
0
100
AcDbPolyline
 62
7
  6
CONTINUOUS
 90
19
 70
0
 10
4.1604736289
 20
8.387915356
 10
4.163359639
 20
8.3886450658
 10
4.1764393051
 20
8.3897713284
 10
4.199601474
 20
8.390897591
 10
4.2321231006
 20
8.3920238537
 10
4.2729889692
 20
8.3931501163
 10
4.3209233849
 20
8.3942763789
 10
4.3744299966
 20
8.3954026416
 10
4.4318385079
 20
8.3965289042
 10
4.4913568182
 20
8.3976551668
 10
4.5511269661
 20
8.3987814294
 10
4.6092831289
 20
8.3999076921
 10
4.6640098668
 20
8.4010339547
 10
4.7135987952
 20
8.4021602173
 10
4.7565019146
 20
8.4032864799
 10
4.7913799341
 20
8.4044127426
 10
4.8171440791
 20
8.4055390052
 10
4.8329900799
 20
8.4066652678
 10
4.8384242376
 20
8.407806682
  0
LINE
  5
86E
100
AcDbEntity
  8
0
100
AcDbLine
 62
7
  6
CONTINUOUS
 10
4.1495019378
 20
8.4102738878
 11
4.1454242376
 21
8.4093066976
  0
LWPOLYLINE
  5
86F
100
AcDbEntity
  8
0
100
AcDbPolyline
 62
7
  6
CONTINUOUS
 90
10
 70
0
 10
4.1454715369
 20
8.411410752
 10
4.1508022119
 20
8.4124177847
 10
4.1667733555
 20
8.4135289203
 10
4.1928514588
 20
8.414640023
 10
4.2282433991
 20
8.4157510955
 10
4.2718773295
 20
8.4168622353
 10
4.3224266725
 20
8.4179733992
 10
4.3783522451
 20
8.4190845198
 10
4.4379544225
 20
8.4201956008
 10
4.4994242376
 20
8.421306682
  0
LINE
  5
870
100
AcDbEntity
  8
0
100
AcDbLine
 62
7
  6
CONTINUOUS
 10
5.2269242376
 20
8.471306682
 11
3.7719242376
 21
8.471306682
  0
LINE
  5
871
100
AcDbEntity
  8
0
100
AcDbLine
 62
9
  6
CONTINUOUS
 10
5.2869242376
 20
8.531306682
 11
3.7119242376
 21
8.531306682
  0
LINE
  5
872
100
AcDbEntity
  8
0
100
AcDbLine
 62
7
  6
CONTINUOUS
 10
4.8533769383
 20
8.111410752
 11
4.8383748463
 21
8.127915356
  0
LINE
  5
873
100
AcDbEntity
  8
0
100
AcDbLine
 62
7
  6
CONTINUOUS
 10
4.8533769383
 20
8.151410752
 11
4.8383748463
 21
8.167915356
  0
LINE
  5
874
100
AcDbEntity
  8
0
100
AcDbLine
 62
7
  6
CONTINUOUS
 10
4.1604736289
 20
7.947915356
 11
4.1454715369
 21
7.931410752
  0
LINE
  5
875
100
AcDbEntity
  8
0
100
AcDbLine
 62
7
  6
CONTINUOUS
 10
4.1604736289
 20
7.907915356
 11
4.1454715369
 21
7.891410752
  0
LWPOLYLINE
  5
876
100
AcDbEntity
  8
0
100
AcDbPolyline
 62
7
  6
CONTINUOUS
 90
18
 70
0
 10
4.1604242376
 20
8.112806682
 10
4.1610018384
 20
8.1131783634
 10
4.1698459185
 20
8.1143111067
 10
4.1890967539
 20
8.1154438501
 10
4.2181464809
 20
8.1165765935
 10
4.2560778262
 20
8.1177093368
 10
4.3016930706
 20
8.1188420802
 10
4.3535518686
 20
8.1199748236
 10
4.4100167282
 20
8.1211075669
 10
4.4693047168
 20
8.1222403103
 10
4.5295437584
 20
8.1233730536
 10
4.588831747
 20
8.124505797
 10
4.6452966066
 20
8.1256385404
 10
4.6971554046
 20
8.1267712837
 10
4.742770649
 20
8.1279040271
 10
4.7807019943
 20
8.1290367705
 10
4.8097517213
 20
8.1301695138
 10
4.8290025567
 20
8.1313022572
  0
LINE
  5
877
100
AcDbEntity
  8
0
100
AcDbLine
 62
7
  6
CONTINUOUS
 10
4.1604736289
 20
8.227915356
 11
4.1612427358
 21
8.2282491598
  0
LINE
  5
878
100
AcDbEntity
  8
0
100
AcDbLine
 62
7
  6
CONTINUOUS
 10
4.8533769383
 20
8.191410752
 11
4.8383748463
 21
8.207915356
  0
LINE
  5
879
100
AcDbEntity
  8
0
100
AcDbLine
 62
7
  6
CONTINUOUS
 10
4.8533769383
 20
8.231410752
 11
4.8383748463
 21
8.247915356
  0
LINE
  5
87A
100
AcDbEntity
  8
0
100
AcDbLine
 62
7
  6
CONTINUOUS
 10
4.8533769383
 20
8.271410752
 11
4.8383748463
 21
8.287915356
  0
LWPOLYLINE
  5
87B
100
AcDbEntity
  8
0
100
AcDbPolyline
 62
7
  6
CONTINUOUS
 90
19
 70
0
 10
4.1604242376
 20
7.992806682
 10
4.1608027931
 20
7.9931075669
 10
4.1689836999
 20
7.9942403103
 10
4.1875985875
 20
7.9953730536
 10
4.2160596728
 20
7.996505797
 10
4.2534682692
 20
7.9976385404
 10
4.2986431641
 20
7.9987712837
 10
4.3501579163
 20
7.9999040271
 10
4.4063858976
 20
8.0010367705
 10
4.4655516547
 20
8.0021695138
 10
4.5257869715
 20
8.0033022572
 10
4.5851898595
 20
8.0044350005
 10
4.6418846146
 20
8.0055677439
 10
4.694081045
 20
8.0067004873
 10
4.7401309978
 20
8.0078332306
 10
4.7785804009
 20
8.008965974
 10
4.8082151772
 20
8.0100987174
 10
4.8280995798
 20
8.0112314607
 10
4.8376057394
 20
8.0123642041
  0
LINE
  5
87C
100
AcDbEntity
  8
0
100
AcDbLine
 62
7
  6
CONTINUOUS
 10
4.1604736289
 20
8.107915356
 11
4.1610018384
 21
8.1081783634
  0
LINE
  5
87D
100
AcDbEntity
  8
0
100
AcDbLine
 62
7
  6
CONTINUOUS
 10
4.8375069906
 20
8.4123382609
 11
4.8383748463
 21
8.412698008
  0
LWPOLYLINE
  5
87E
100
AcDbEntity
  8
0
100
AcDbPolyline
 62
7
  6
CONTINUOUS
 90
18
 70
0
 10
4.1604242376
 20
8.192806682
 10
4.1630737811
 20
8.1936031421
 10
4.1758710718
 20
8.1947358855
 10
4.1988848678
 20
8.1958686289
 10
4.2313884862
 20
8.1970013722
 10
4.2723555937
 20
8.1981341156
 10
4.320492614
 20
8.1992668589
 10
4.374279574
 20
8.2003996023
 10
4.4320180983
 20
8.2015323457
 10
4.4918850369
 20
8.202665089
 10
4.551990033
 20
8.2037978324
 10
4.6104352131
 20
8.2049305758
 10
4.6653751139
 20
8.2060633191
 10
4.7150749547
 20
8.2071960625
 10
4.7579654148
 20
8.2083288059
 10
4.7926921861
 20
8.2094615492
 10
4.8181587373
 20
8.2105942926
 10
4.8335609373
 20
8.2117270359
  0
LINE
  5
87F
100
AcDbEntity
  8
0
100
AcDbLine
 62
7
  6
CONTINUOUS
 10
4.8533769383
 20
8.311410752
 11
4.8383748463
 21
8.327915356
  0
LINE
  5
880
100
AcDbEntity
  8
0
100
AcDbLine
 62
7
  6
CONTINUOUS
 10
4.8533769383
 20
8.351410752
 11
4.8383748463
 21
8.367915356
  0
LINE
  5
881
100
AcDbEntity
  8
0
100
AcDbLine
 62
7
  6
CONTINUOUS
 10
4.1604736289
 20
7.987915356
 11
4.1608027931
 21
7.9881075669
  0
LWPOLYLINE
  5
882
100
AcDbEntity
  8
0
100
AcDbPolyline
 62
7
  6
CONTINUOUS
 90
18
 70
0
 10
4.1604242376
 20
8.072806682
 10
4.1626241733
 20
8.0735323457
 10
4.1747660783
 20
8.074665089
 10
4.1971593798
 20
8.0757978324
 10
4.2290969877
 20
8.0769305758
 10
4.2695704409
 20
8.0780633191
 10
4.3173017509
 20
8.0791960625
 10
4.3707837552
 20
8.0803288059
 10
4.4283277076
 20
8.0814615492
 10
4.4881166019
 20
8.0825942926
 10
4.5482625459
 20
8.0837270359
 10
4.6068663728
 20
8.0848597793
 10
4.6620776101
 20
8.0859925227
 10
4.7121529092
 20
8.087125266
 10
4.7555110939
 20
8.0882580094
 10
4.7907830876
 20
8.0893907528
 10
4.8168551427
 20
8.0905234961
 10
4.8329040089
 20
8.0916562395
  0
LINE
  5
883
100
AcDbEntity
  8
0
100
AcDbLine
 62
7
  6
CONTINUOUS
 10
4.8366322582
 20
8.2921518147
 11
4.8383748463
 21
8.292698008
  0
LINE
  5
884
100
AcDbEntity
  8
0
100
AcDbLine
 62
7
  6
CONTINUOUS
 10
4.8533769383
 20
8.391410752
 11
4.8383748463
 21
8.407915356
  0
LINE
  5
885
100
AcDbEntity
  8
0
100
AcDbLine
 62
7
  6
CONTINUOUS
 10
4.8381742376
 20
8.458806682
 11
4.8381742376
 21
8.421306682
  0
LINE
  5
886
100
AcDbEntity
  8
0
100
AcDbLine
 62
7
  6
CONTINUOUS
 10
4.8384242376
 20
7.887806682
 11
4.8384242376
 21
7.892806682
  0
LINE
  5
887
100
AcDbEntity
  8
0
100
AcDbLine
 62
7
  6
CONTINUOUS
 10
4.8384242376
 20
7.927806682
 11
4.8384242376
 21
7.932806682
  0
LINE
  5
888
100
AcDbEntity
  8
0
100
AcDbLine
 62
7
  6
CONTINUOUS
 10
4.8384242376
 20
7.967806682
 11
4.8384242376
 21
7.972806682
  0
LINE
  5
889
100
AcDbEntity
  8
0
100
AcDbLine
 62
7
  6
CONTINUOUS
 10
4.8384242376
 20
8.007806682
 11
4.8384242376
 21
8.012806682
  0
LINE
  5
88A
100
AcDbEntity
  8
0
100
AcDbLine
 62
7
  6
CONTINUOUS
 10
4.8384242376
 20
8.047806682
 11
4.8384242376
 21
8.052806682
  0
LINE
  5
88B
100
AcDbEntity
  8
0
100
AcDbLine
 62
7
  6
CONTINUOUS
 10
4.8384242376
 20
8.087806682
 11
4.8384242376
 21
8.092806682
  0
LINE
  5
88C
100
AcDbEntity
  8
0
100
AcDbLine
 62
7
  6
CONTINUOUS
 10
4.8384242376
 20
8.127806682
 11
4.8384242376
 21
8.132806682
  0
LINE
  5
88D
100
AcDbEntity
  8
0
100
AcDbLine
 62
7
  6
CONTINUOUS
 10
4.8384242376
 20
8.167806682
 11
4.8384242376
 21
8.172806682
  0
LINE
  5
88E
100
AcDbEntity
  8
0
100
AcDbLine
 62
7
  6
CONTINUOUS
 10
4.8384242376
 20
8.207806682
 11
4.8384242376
 21
8.212806682
  0
LINE
  5
88F
100
AcDbEntity
  8
0
100
AcDbLine
 62
7
  6
CONTINUOUS
 10
4.8384242376
 20
8.247806682
 11
4.8384242376
 21
8.252806682
  0
LINE
  5
890
100
AcDbEntity
  8
0
100
AcDbLine
 62
7
  6
CONTINUOUS
 10
4.8384242376
 20
8.287806682
 11
4.8384242376
 21
8.292806682
  0
LINE
  5
891
100
AcDbEntity
  8
0
100
AcDbLine
 62
7
  6
CONTINUOUS
 10
4.8384242376
 20
8.327806682
 11
4.8384242376
 21
8.332806682
  0
LINE
  5
892
100
AcDbEntity
  8
0
100
AcDbLine
 62
7
  6
CONTINUOUS
 10
4.8384242376
 20
8.367806682
 11
4.8384242376
 21
8.372806682
  0
LINE
  5
893
100
AcDbEntity
  8
0
100
AcDbLine
 62
7
  6
CONTINUOUS
 10
4.8384242376
 20
8.407806682
 11
4.8384242376
 21
8.412806682
  0
LINE
  5
894
100
AcDbEntity
  8
0
100
AcDbLine
 62
7
  6
CONTINUOUS
 10
4.8383748463
 20
8.412698008
 11
4.8461997991
 21
8.421306682
  0
LINE
  5
895
100
AcDbEntity
  8
0
100
AcDbLine
 62
7
  6
CONTINUOUS
 10
4.8383748463
 20
8.372698008
 11
4.8533769383
 21
8.3892026119
  0
LINE
  5
896
100
AcDbEntity
  8
0
100
AcDbLine
 62
7
  6
CONTINUOUS
 10
4.8383748463
 20
8.332698008
 11
4.8533769383
 21
8.3492026119
  0
LINE
  5
897
100
AcDbEntity
  8
0
100
AcDbLine
 62
7
  6
CONTINUOUS
 10
4.1604736289
 20
8.067915356
 11
4.1626241733
 21
8.0685323457
  0
LINE
  5
898
100
AcDbEntity
  8
0
100
AcDbLine
 62
7
  6
CONTINUOUS
 10
4.8534242376
 20
8.391306682
 11
4.8534242376
 21
8.389306682
  0
LINE
  5
899
100
AcDbEntity
  8
0
100
AcDbLine
 62
7
  6
CONTINUOUS
 10
4.8534242376
 20
8.351306682
 11
4.8534242376
 21
8.349306682
  0
LINE
  5
89A
100
AcDbEntity
  8
0
100
AcDbLine
 62
7
  6
CONTINUOUS
 10
4.8534242376
 20
8.311306682
 11
4.8534242376
 21
8.309306682
  0
LINE
  5
89B
100
AcDbEntity
  8
0
100
AcDbLine
 62
7
  6
CONTINUOUS
 10
4.8534242376
 20
8.271306682
 11
4.8534242376
 21
8.269306682
  0
LINE
  5
89C
100
AcDbEntity
  8
0
100
AcDbLine
 62
7
  6
CONTINUOUS
 10
4.8534242376
 20
8.231306682
 11
4.8534242376
 21
8.229306682
  0
LINE
  5
89D
100
AcDbEntity
  8
0
100
AcDbLine
 62
7
  6
CONTINUOUS
 10
4.8534242376
 20
8.191306682
 11
4.8534242376
 21
8.189306682
  0
LINE
  5
89E
100
AcDbEntity
  8
0
100
AcDbLine
 62
7
  6
CONTINUOUS
 10
4.8534242376
 20
8.151306682
 11
4.8534242376
 21
8.149306682
  0
LINE
  5
89F
100
AcDbEntity
  8
0
100
AcDbLine
 62
7
  6
CONTINUOUS
 10
4.8534242376
 20
8.111306682
 11
4.8534242376
 21
8.109306682
  0
LINE
  5
8A0
100
AcDbEntity
  8
0
100
AcDbLine
 62
7
  6
CONTINUOUS
 10
4.8534242376
 20
8.071306682
 11
4.8534242376
 21
8.069306682
  0
LINE
  5
8A1
100
AcDbEntity
  8
0
100
AcDbLine
 62
7
  6
CONTINUOUS
 10
4.8534242376
 20
8.031306682
 11
4.8534242376
 21
8.029306682
  0
LINE
  5
8A2
100
AcDbEntity
  8
0
100
AcDbLine
 62
7
  6
CONTINUOUS
 10
4.8534242376
 20
7.991306682
 11
4.8534242376
 21
7.989306682
  0
LINE
  5
8A3
100
AcDbEntity
  8
0
100
AcDbLine
 62
7
  6
CONTINUOUS
 10
4.8534242376
 20
7.951306682
 11
4.8534242376
 21
7.949306682
  0
LINE
  5
8A4
100
AcDbEntity
  8
0
100
AcDbLine
 62
7
  6
CONTINUOUS
 10
4.8534242376
 20
7.911306682
 11
4.8534242376
 21
7.909306682
  0
LINE
  5
8A5
100
AcDbEntity
  8
0
100
AcDbLine
 62
7
  6
CONTINUOUS
 10
4.8533769383
 20
8.3892026119
 11
4.8534242376
 21
8.389306682
  0
LINE
  5
8A6
100
AcDbEntity
  8
0
100
AcDbLine
 62
7
  6
CONTINUOUS
 10
4.8533769383
 20
8.3492026119
 11
4.8534242376
 21
8.349306682
  0
LINE
  5
8A7
100
AcDbEntity
  8
0
100
AcDbLine
 62
7
  6
CONTINUOUS
 10
4.8533769383
 20
8.3092026119
 11
4.8534242376
 21
8.309306682
  0
LINE
  5
8A8
100
AcDbEntity
  8
0
100
AcDbLine
 62
7
  6
CONTINUOUS
 10
4.8533769383
 20
8.2692026119
 11
4.8534242376
 21
8.269306682
  0
LINE
  5
8A9
100
AcDbEntity
  8
0
100
AcDbLine
 62
7
  6
CONTINUOUS
 10
4.8383748463
 20
8.292698008
 11
4.8533769383
 21
8.3092026119
  0
LINE
  5
8AA
100
AcDbEntity
  8
0
100
AcDbLine
 62
7
  6
CONTINUOUS
 10
4.8383748463
 20
8.252698008
 11
4.8533769383
 21
8.2692026119
  0
LWPOLYLINE
  5
8AB
100
AcDbEntity
  8
0
100
AcDbPolyline
 62
7
  6
CONTINUOUS
 90
18
 70
0
 10
4.1604242376
 20
7.952806682
 10
4.162216217
 20
7.9534615492
 10
4.1737012347
 20
7.9545942926
 10
4.1954712724
 20
7.9557270359
 10
4.2268389201
 20
7.9568597793
 10
4.2668137137
 20
7.9579925227
 10
4.3141334105
 20
7.959125266
 10
4.3673038451
 20
7.9602580094
 10
4.4246461092
 20
7.9613907528
 10
4.4843495654
 20
7.9625234961
 10
4.544529019
 20
7.9636562395
 10
4.6032842454
 20
7.9647889828
 10
4.6587599911
 20
7.9659217262
 10
4.7092045558
 20
7.9670544696
 10
4.7530251032
 20
7.9681872129
 10
4.7888379572
 20
7.9693199563
 10
4.815512292
 20
7.9704526997
 10
4.8322058396
 20
7.971585443
  0
LINE
  5
8AC
100
AcDbEntity
  8
0
100
AcDbLine
 62
7
  6
CONTINUOUS
 10
4.1604736289
 20
7.947915356
 11
4.162216217
 21
7.9484615492
  0
LINE
  5
8AD
100
AcDbEntity
  8
0
100
AcDbLine
 62
7
  6
CONTINUOUS
 10
4.8362243019
 20
8.1720810182
 11
4.8383748463
 21
8.172698008
  0
LINE
  5
8AE
100
AcDbEntity
  8
0
100
AcDbLine
 62
7
  6
CONTINUOUS
 10
4.8533769383
 20
8.2292026119
 11
4.8534242376
 21
8.229306682
  0
LINE
  5
8AF
100
AcDbEntity
  8
0
100
AcDbLine
 62
7
  6
CONTINUOUS
 10
4.8533769383
 20
8.1892026119
 11
4.8534242376
 21
8.189306682
  0
LINE
  5
8B0
100
AcDbEntity
  8
0
100
AcDbLine
 62
7
  6
CONTINUOUS
 10
4.8533769383
 20
8.1492026119
 11
4.8534242376
 21
8.149306682
  0
LINE
  5
8B1
100
AcDbEntity
  8
0
100
AcDbLine
 62
7
  6
CONTINUOUS
 10
4.8533769383
 20
8.1092026119
 11
4.8534242376
 21
8.109306682
  0
LINE
  5
8B2
100
AcDbEntity
  8
0
100
AcDbLine
 62
7
  6
CONTINUOUS
 10
4.8383748463
 20
8.212698008
 11
4.8533769383
 21
8.2292026119
  0
LINE
  5
8B3
100
AcDbEntity
  8
0
100
AcDbLine
 62
7
  6
CONTINUOUS
 10
4.8383748463
 20
8.172698008
 11
4.8533769383
 21
8.1892026119
  0
LINE
  5
8B4
100
AcDbEntity
  8
0
100
AcDbLine
 62
7
  6
CONTINUOUS
 10
4.8383748463
 20
8.132698008
 11
4.8533769383
 21
8.1492026119
  0
LINE
  5
8B5
100
AcDbEntity
  8
0
100
AcDbLine
 62
7
  6
CONTINUOUS
 10
3.7119315678
 20
8.911306682
 11
5.2869168786
 21
8.911306682
  0
LINE
  5
8B6
100
AcDbEntity
  8
0
100
AcDbLine
 62
7
  6
CONTINUOUS
 10
5.2884242376
 20
8.924306682
 11
3.7104242376
 21
8.924306682
  0
LINE
  5
8B7
100
AcDbEntity
  8
0
100
AcDbLine
 62
7
  6
CONTINUOUS
 10
4.8533769383
 20
8.0692026119
 11
4.8534242376
 21
8.069306682
  0
LINE
  5
8B8
100
AcDbEntity
  8
0
100
AcDbLine
 62
7
  6
CONTINUOUS
 10
4.8533769383
 20
8.0292026119
 11
4.8534242376
 21
8.029306682
  0
LINE
  5
8B9
100
AcDbEntity
  8
0
100
AcDbLine
 62
7
  6
CONTINUOUS
 10
4.8533769383
 20
7.9892026119
 11
4.8534242376
 21
7.989306682
  0
LINE
  5
8BA
100
AcDbEntity
  8
0
100
AcDbLine
 62
7
  6
CONTINUOUS
 10
4.8533769383
 20
7.9492026119
 11
4.8534242376
 21
7.949306682
  0
LINE
  5
8BB
100
AcDbEntity
  8
0
100
AcDbLine
 62
7
  6
CONTINUOUS
 10
4.8383748463
 20
8.092698008
 11
4.8533769383
 21
8.1092026119
  0
LINE
  5
8BC
100
AcDbEntity
  8
0
100
AcDbLine
 62
7
  6
CONTINUOUS
 10
4.8383748463
 20
8.052698008
 11
4.8533769383
 21
8.0692026119
  0
LINE
  5
8BD
100
AcDbEntity
  8
0
100
AcDbLine
 62
7
  6
CONTINUOUS
 10
4.8534242376
 20
7.909306682
 11
4.8533769383
 21
7.9092026119
  0
LINE
  5
8BE
100
AcDbEntity
  8
0
100
AcDbLine
 62
7
  6
CONTINUOUS
 10
4.8383748463
 20
8.012698008
 11
4.8533769383
 21
8.0292026119
  0
LINE
  5
8BF
100
AcDbEntity
  8
0
100
AcDbLine
 62
7
  6
CONTINUOUS
 10
4.8383748463
 20
7.972698008
 11
4.8533769383
 21
7.9892026119
  0
LINE
  5
8C0
100
AcDbEntity
  8
0
100
AcDbLine
 62
7
  6
CONTINUOUS
 10
4.8376057394
 20
8.0123642041
 11
4.8383748463
 21
8.012698008
  0
LINE
  5
8C1
100
AcDbEntity
  8
0
100
AcDbLine
 62
9
  6
CONTINUOUS
 10
5.2884242376
 20
9.004306682
 11
3.7104242376
 21
9.004306682
  0
LINE
  5
8C2
100
AcDbEntity
  8
0
100
AcDbLine
 62
7
  6
CONTINUOUS
 10
5.2284242376
 20
9.064306682
 11
3.7704242376
 21
9.064306682
  0
LINE
  5
8C3
100
AcDbEntity
  8
0
100
AcDbLine
 62
7
  6
CONTINUOUS
 10
4.8383748463
 20
7.932698008
 11
4.8533769383
 21
7.9492026119
  0
LINE
  5
8C4
100
AcDbEntity
  8
0
100
AcDbLine
 62
7
  6
CONTINUOUS
 10
4.8383748463
 20
7.892698008
 11
4.8533769383
 21
7.9092026119
  0
LINE
  5
8C5
100
AcDbEntity
  8
0
100
AcDbLine
 62
7
  6
CONTINUOUS
 10
4.8534242376
 20
7.911306682
 11
4.8514845115
 21
7.9106399332
  0
LINE
  5
8C6
100
AcDbEntity
  8
0
100
AcDbLine
 62
7
  6
CONTINUOUS
 10
5.2589242376
 20
8.911306682
 11
5.2589242376
 21
8.924306682
  0
LINE
  5
8C7
100
AcDbEntity
  8
0
100
AcDbLine
 62
7
  6
CONTINUOUS
 10
5.2869242376
 20
8.911306682
 11
5.2869242376
 21
8.531306682
  0
LINE
  5
8C8
100
AcDbEntity
  8
0
100
AcDbLine
 62
7
  6
CONTINUOUS
 10
5.2884242376
 20
9.004306682
 11
5.2884242376
 21
8.924306682
  0
CIRCLE
  5
8C9
100
AcDbEntity
  8
0
100
AcDbCircle
 62
7
  6
CONTINUOUS
 10
10.5342808475
 20
1.243294839
 40
0.252091
  0
CIRCLE
  5
8CA
100
AcDbEntity
  8
0
100
AcDbCircle
 62
7
  6
CONTINUOUS
 10
10.5342808475
 20
1.243294839
 40
0.182698
  0
ARC
  5
8CB
100
AcDbEntity
  8
0
100
AcDbCircle
 62
7
  6
CONTINUOUS
 10
4.1444242376
 20
4.8951267201
 40
0.06
100
AcDbArc
 50
0.0
 51
64.8859091127
  0
ARC
  5
8CC
100
AcDbEntity
  8
0
100
AcDbCircle
 62
7
  6
CONTINUOUS
 10
4.8544242376
 20
4.8951267201
 40
0.06
100
AcDbArc
 50
115.1140680932
 51
180.0
  0
ARC
  5
8CD
100
AcDbEntity
  8
0
100
AcDbCircle
 62
7
  6
CONTINUOUS
 10
4.4994242376
 20
5.6646923443
 40
0.789
100
AcDbArc
 50
294.0995156099
 51
245.9004847249
  0
ARC
  5
8CE
100
AcDbEntity
  8
0
100
AcDbCircle
 62
7
  6
CONTINUOUS
 10
4.4994242376
 20
5.6646923443
 40
0.7875
100
AcDbArc
 50
288.2981548598
 51
251.7018451402
  0
CIRCLE
  5
8CF
100
AcDbEntity
  8
0
100
AcDbCircle
 62
9
  6
CONTINUOUS
 10
4.4994242376
 20
5.6646923443
 40
0.7275
  0
ARC
  5
8D0
100
AcDbEntity
  8
0
100
AcDbCircle
 62
7
  6
CONTINUOUS
 10
4.4994242376
 20
5.6646923443
 40
0.354
100
AcDbArc
 50
270.9460697222
 51
269.9999999991
  0
CIRCLE
  5
8D1
100
AcDbEntity
  8
0
100
AcDbCircle
 62
7
  6
CONTINUOUS
 10
4.4994242376
 20
5.6646923443
 40
0.306
  0
CIRCLE
  5
8D2
100
AcDbEntity
  8
AXIS_COSMETIC_THREADS
100
AcDbCircle
 62
7
  6
CONTINUOUS
 10
4.4994242376
 20
5.6646923443
 40
0.3025
  0
ARC
  5
8D3
100
AcDbEntity
  8
0
100
AcDbCircle
 62
7
  6
CONTINUOUS
 10
9.142847025
 20
6.3936923443
 40
0.06
100
AcDbArc
 50
0.0
 51
90.0
  0
ARC
  5
8D4
100
AcDbEntity
  8
0
100
AcDbCircle
 62
7
  6
CONTINUOUS
 10
8.669847025
 20
6.3921923443
 40
0.06
100
AcDbArc
 50
90.0
 51
180.0
  0
ARC
  5
8D5
100
AcDbEntity
  8
0
100
AcDbCircle
 62
7
  6
CONTINUOUS
 10
9.1469218282
 20
6.2346923443
 40
0.0575
100
AcDbArc
 50
347.2959531578
 51
12.7040468422
  0
ARC
  5
8D6
100
AcDbEntity
  8
0
100
AcDbCircle
 62
7
  6
CONTINUOUS
 10
8.597347025
 20
5.3134423443
 40
0.0125
100
AcDbArc
 50
0.000000001
 51
90.0
  0
ARC
  5
8D7
100
AcDbEntity
  8
0
100
AcDbCircle
 62
7
  6
CONTINUOUS
 10
8.597347025
 20
6.0159423443
 40
0.0125
100
AcDbArc
 50
270.0
 51
359.9999999973
  0
ARC
  5
8D8
100
AcDbEntity
  8
0
100
AcDbCircle
 62
7
  6
CONTINUOUS
 10
9.201814908
 20
4.8767261243
 40
0.0010331094
100
AcDbArc
 50
270.0
 51
360.0
  0
ARC
  5
8D9
100
AcDbEntity
  8
0
100
AcDbCircle
 62
7
  6
CONTINUOUS
 10
12.409446474
 20
5.6646923443
 40
0.792
100
AcDbArc
 50
251.0723127861
 51
288.9276872139
  0
CIRCLE
  5
8DA
100
AcDbEntity
  8
0
100
AcDbCircle
 62
7
  6
CONTINUOUS
 10
12.409446474
 20
5.6646923443
 40
0.789
  0
ARC
  5
8DB
100
AcDbEntity
  8
0
100
AcDbCircle
 62
9
  6
CONTINUOUS
 10
12.409446474
 20
5.6646923443
 40
0.729
100
AcDbArc
 50
0.0
 51
180.0
  0
CIRCLE
  5
8DC
100
AcDbEntity
  8
0
100
AcDbCircle
 62
7
  6
CONTINUOUS
 10
12.534446474
 20
6.2346923443
 40
0.094
  0
CIRCLE
  5
8DD
100
AcDbEntity
  8
0
100
AcDbCircle
 62
7
  6
CONTINUOUS
 10
12.284446474
 20
6.2346923443
 40
0.094
  0
CIRCLE
  5
8DE
100
AcDbEntity
  8
0
100
AcDbCircle
 62
7
  6
CONTINUOUS
 10
12.534446474
 20
6.2346923443
 40
0.064
  0
CIRCLE
  5
8DF
100
AcDbEntity
  8
0
100
AcDbCircle
 62
7
  6
CONTINUOUS
 10
12.284446474
 20
6.2346923443
 40
0.064
  0
ARC
  5
8E0
100
AcDbEntity
  8
0
100
AcDbCircle
 62
7
  6
CONTINUOUS
 10
12.764446474
 20
4.8951267201
 40
0.06
100
AcDbArc
 50
117.2839924603
 51
180.0
  0
ARC
  5
8E1
100
AcDbEntity
  8
0
100
AcDbCircle
 62
7
  6
CONTINUOUS
 10
12.054446474
 20
4.8951267201
 40
0.06
100
AcDbArc
 50
0.0
 51
62.7167297987
  0
CIRCLE
  5
8E2
100
AcDbEntity
  8
0
100
AcDbCircle
 62
7
  6
CONTINUOUS
 10
12.534446474
 20
6.2346923443
 40
0.0575
  0
CIRCLE
  5
8E3
100
AcDbEntity
  8
0
100
AcDbCircle
 62
7
  6
CONTINUOUS
 10
12.284446474
 20
6.2346923443
 40
0.0575
  0
CIRCLE
  5
8E4
100
AcDbEntity
  8
AXIS_COSMETIC_THREADS
100
AcDbCircle
 62
7
  6
CONTINUOUS
 10
12.409446474
 20
5.7566923443
 40
0.035
  0
ARC
  5
8E5
100
AcDbEntity
  8
0
100
AcDbCircle
 62
7
  6
CONTINUOUS
 10
12.347446474
 20
5.8196923443
 40
0.03
100
AcDbArc
 50
90.0
 51
180.0
  0
ARC
  5
8E6
100
AcDbEntity
  8
0
100
AcDbCircle
 62
7
  6
CONTINUOUS
 10
12.347446474
 20
5.6946923443
 40
0.03
100
AcDbArc
 50
180.0
 51
270.0
  0
ARC
  5
8E7
100
AcDbEntity
  8
0
100
AcDbCircle
 62
7
  6
CONTINUOUS
 10
12.472446474
 20
5.6946923443
 40
0.03
100
AcDbArc
 50
270.0
 51
360.0
  0
ARC
  5
8E8
100
AcDbEntity
  8
0
100
AcDbCircle
 62
7
  6
CONTINUOUS
 10
12.472446474
 20
5.8196923443
 40
0.03
100
AcDbArc
 50
0.0
 51
90.0
  0
CIRCLE
  5
8E9
100
AcDbEntity
  8
AXIS_COSMETIC_THREADS
100
AcDbCircle
 62
7
  6
CONTINUOUS
 10
12.409446474
 20
5.7566923443
 40
0.01
  0
ARC
  5
8EA
100
AcDbEntity
  8
0
100
AcDbCircle
 62
7
  6
CONTINUOUS
 10
3.7704242376
 20
9.004306682
 40
0.06
100
AcDbArc
 50
90.0
 51
180.0
  0
ARC
  5
8EB
100
AcDbEntity
  8
0
100
AcDbCircle
 62
7
  6
CONTINUOUS
 10
5.2284242376
 20
9.004306682
 40
0.06
100
AcDbArc
 50
0.0
 51
90.0
  0
ARC
  5
8EC
100
AcDbEntity
  8
0
100
AcDbCircle
 62
7
  6
CONTINUOUS
 10
3.7719242376
 20
8.531306682
 40
0.06
100
AcDbArc
 50
180.0
 51
270.0
  0
ARC
  5
8ED
100
AcDbEntity
  8
0
100
AcDbCircle
 62
7
  6
CONTINUOUS
 10
5.2269242376
 20
8.531306682
 40
0.06
100
AcDbArc
 50
270.0
 51
360.0
  0
ARC
  5
8EE
100
AcDbEntity
  8
0
100
AcDbCircle
 62
7
  6
CONTINUOUS
 10
4.6244242376
 20
9.0083814851
 40
0.0575
100
AcDbArc
 50
77.2959531578
 51
102.7040468422
  0
ARC
  5
8EF
100
AcDbEntity
  8
0
100
AcDbCircle
 62
7
  6
CONTINUOUS
 10
4.3744242376
 20
9.0083814851
 40
0.0575
100
AcDbArc
 50
77.2959531578
 51
102.7040468422
  0
ARC
  5
8F0
100
AcDbEntity
  8
0
100
AcDbCircle
 62
7
  6
CONTINUOUS
 10
4.1481742376
 20
8.458806682
 40
0.0125
100
AcDbArc
 50
0.0
 51
89.9999864903
  0
ARC
  5
8F1
100
AcDbEntity
  8
0
100
AcDbCircle
 62
7
  6
CONTINUOUS
 10
4.8506742376
 20
8.458806682
 40
0.0125
100
AcDbArc
 50
90.0000135097
 51
180.0
  0
ENDSEC
  0
SECTION
  2
OBJECTS
  0
DICTIONARY
  5
C
100
AcDbDictionary
280
0
281
1
  3
ACAD_GROUP
350
D
  3
ACAD_MLINESTYLE
350
17
  3
ACAD_LAYOUT
350
1A
  3
ACAD_PLOTSETTINGS
350
19
  3
ACAD_PLOTSTYLENAME
350
E
  0
DICTIONARY
  5
D
102
{ACAD_REACTORS
330
C
102
}
100
AcDbDictionary
280
0
281
1
  0
ACDBDICTIONARYWDFLT
  5
E
102
{ACAD_REACTORS
330
C
102
}
100
AcDbDictionary
281
1
  3
Normal
350
F
100
AcDbDictionaryWithDefault
340
F
  0
DICTIONARY
  5
17
102
{ACAD_REACTORS
330
C
102
}
100
AcDbDictionary
280
0
281
1
  3
Standard
350
18
  0
DICTIONARY
  5
19
102
{ACAD_REACTORS
330
C
102
}
100
AcDbDictionary
281
1
  0
DICTIONARY
  5
1A
102
{ACAD_REACTORS
330
C
102
}
100
AcDbDictionary
281
1
  3
Model
350
8F2
  3
Layout1
350
8F3
  0
ACDBPLACEHOLDER
  5
F
102
{ACAD_REACTORS
330
E
102
}
  0
MLINESTYLE
  5
18
102
{ACAD_REACTORS
330
17
102
}
100
AcDbMlineStyle
  2
STANDARD
 70
0
  3

 62
256
 51
90.0
 52
90.0
 71
2
 49
0.5
 62
256
  6
BYLAYER
 49
-0.5
 62
256
  6
BYLAYER
  0
LAYOUT
  5
8F2
102
{ACAD_REACTORS
330
1A
102
}
100
AcDbPlotSettings
  1

  2
none_device
  4
ANSI_B_(17.00_x_11.00_Inches)
  6

 40
0.0
 41
0.0
 42
0.0
 43
0.0
 44
431.8
 45
279.4
 46
0.0
 47
0.0
 48
0.0
 49
0.0
140
0.0
141
0.0
142
1.0
143
1.0
 70
1024
 72
0
 73
0
 74
0
  7

 75
0
147
1.0
148
0.0
149
0.0
100
AcDbLayout
  1
Model
 70
0
 71
0
 10
0.0
 20
0.0
 11
17.0
 21
11.0
 12
0.0
 22
0.0
 32
0.0
 14
0.0
 24
0.0
 34
0.0
 15
0.0
 25
0.0
 35
0.0
146
0.0
 13
0.0
 23
0.0
 33
0.0
 16
1.0
 26
0.0
 36
0.0
 17
0.0
 27
1.0
 37
0.0
 76
0
330
22C
345
0
346
0
  0
LAYOUT
  5
8F3
102
{ACAD_REACTORS
330
1A
102
}
100
AcDbPlotSettings
  1

  2
none_device
  4
ANSI_B_(17.00_x_11.00_Inches)
  6

 40
0.0
 41
0.0
 42
0.0
 43
0.0
 44
431.8
 45
279.4
 46
0.0
 47
0.0
 48
0.0
 49
0.0
140
0.0
141
0.0
142
1.0
143
1.0
 70
0
 72
0
 73
0
 74
0
  7

 75
0
147
1.0
148
0.0
149
0.0
100
AcDbLayout
  1
Layout1
 70
0
 71
1
 10
0.0
 20
0.0
 11
17.0
 21
11.0
 12
0.0
 22
0.0
 32
0.0
 14
0.0
 24
0.0
 34
0.0
 15
0.0
 25
0.0
 35
0.0
146
0.0
 13
0.0
 23
0.0
 33
0.0
 16
1.0
 26
0.0
 36
0.0
 17
0.0
 27
1.0
 37
0.0
 76
0
330
22D
345
0
346
0
  0
ENDSEC
  0
EOF
