999
DXF file: 155314_1.dxf
999
Pro/ENGINEER 2009141 by Parametric Technology Corporation
  0
SECTION
  2
HEADER
  9
$ACADVER
  1
AC1015
  9
$DWGCODEPAGE
  3
ANSI_1252
  9
$EXTMAX
 10
17.0
 20
11.0
 30
0.0
  9
$EXTMIN
 10
0.0
 20
0.0
 30
0.0
  9
$LIMMIN
 10
0.0
 20
0.0
  9
$LIMMAX
 10
17.0
 20
11.0
  9
$VIEWCTR
 10
8.5
 20
5.5
  9
$VIEWSIZE
 40
11.0
  9
$CLAYER
  8
0
  9
$LTSCALE
 40
0.935
  9
$CELTYPE
  6
BYLAYER
  9
$DIMSCALE
 40
1.0
  9
$DIMASZ
 40
0.1875
  9
$DIMEXO
 40
0.10625
  9
$DIMDLI
 40
0.646
  9
$DIMEXE
 40
0.306
  9
$DIMCEN
 40
0.153
  9
$DIMLFAC
 40
1.0
  9
$DIMBLK
  1
_FILLED
  9
$DIMTXT
 40
0.1
  9
$DIMTOL
 70
1
  9
$DIMLIM
 70
0
  9
$DIMTFAC
 40
1.0
  9
$DIMTP
 40
0.005
  9
$DIMTM
 40
0.005
  9
$PDMODE
 70
3
  9
$PDSIZE
 40
0.3125
  9
$HANDSEED
  5
8EF
  9
$TILEMODE
 70
1
  9
$MEASUREMENT
 70
0
  9
$INSUNITS
 70
1
  0
ENDSEC
  0
SECTION
  2
CLASSES
  0
CLASS
  1
ACDBDICTIONARYWDFLT
  2
AcDbDictionaryWithDefault
  3
AutoCAD 2000
 90
0
280
0
281
0
  0
CLASS
  1
ACDBPLACEHOLDER
  2
AcDbPlaceHolder
  3
AutoCAD 2000
 90
0
280
0
281
0
  0
CLASS
  1
LAYOUT
  2
AcDbLayout
  3
AutoCAD 2000
 90
0
280
0
281
0
  0
ENDSEC
  0
SECTION
  2
TABLES
  0
TABLE
  2
VPORT
  5
8
100
AcDbSymbolTable
 70
2
  0
VPORT
  5
1F4
100
AcDbSymbolTableRecord
100
AcDbViewportTableRecord
  2
*ACTIVE
 70
0
 10
0.0
 20
0.0
 11
1.0
 21
1.0
 12
8.5
 22
5.5
 13
0.0
 23
0.0
 14
1.0
 24
1.0
 15
0.0
 25
0.0
 16
0.0
 26
0.0
 36
1.0
 17
0.0
 27
0.0
 37
0.0
 40
11.0
 41
1.5454545455
 42
50.0
 43
0.0
 44
0.0
 50
0.0
 51
0.0
 71
0
 72
100
 73
1
 74
1
 75
0
 76
0
 77
0
 78
0
  0
ENDTAB
  0
TABLE
  2
LTYPE
  5
5
100
AcDbSymbolTable
 70
6
  0
LTYPE
  5
14
100
AcDbSymbolTableRecord
100
AcDbLinetypeTableRecord
  2
BYBLOCK
 70
0
  3

 72
65
 73
0
 40
0.0
  0
LTYPE
  5
15
100
AcDbSymbolTableRecord
100
AcDbLinetypeTableRecord
  2
BYLAYER
 70
0
  3

 72
65
 73
0
 40
0.0
  0
LTYPE
  5
16
100
AcDbSymbolTableRecord
100
AcDbLinetypeTableRecord
  2
CONTINUOUS
 70
64
  3
Solid line
 72
65
 73
0
 40
0.0
  0
LTYPE
  5
1F5
100
AcDbSymbolTableRecord
100
AcDbLinetypeTableRecord
  2
CENTER
 70
64
  3
____ _ ____ _ ____ _ ____ _ ____ _ ____ _ ____
 72
65
 73
4
 40
0.6
 49
0.375
 74
0
 49
-0.075
 74
0
 49
0.075
 74
0
 49
-0.075
 74
0
  0
LTYPE
  5
1F6
100
AcDbSymbolTableRecord
100
AcDbLinetypeTableRecord
  2
HIDDEN
 70
64
  3
- - - - - - - - - - - - - - - - - - - -
 72
65
 73
2
 40
0.2
 49
0.1
 74
0
 49
-0.1
 74
0
  0
LTYPE
  5
1F7
100
AcDbSymbolTableRecord
100
AcDbLinetypeTableRecord
  2
PHANTOM
 70
64
  3
_____ _ _ _____ _ _ _____ _ _ _____
 72
65
 73
6
 40
0.8
 49
0.45
 74
0
 49
-0.05
 74
0
 49
0.1
 74
0
 49
-0.05
 74
0
 49
0.1
 74
0
 49
-0.05
 74
0
  0
LTYPE
  5
1F8
100
AcDbSymbolTableRecord
100
AcDbLinetypeTableRecord
  2
DOT
 70
64
  3
. . . . . . . . . . . . . . . . . . . .
 72
65
 73
2
 40
0.2
 49
0.1
 74
0
 49
-0.1
 74
0
  0
LTYPE
  5
1F9
100
AcDbSymbolTableRecord
100
AcDbLinetypeTableRecord
  2
DASHED
 70
64
  3
- - - - - - - - - - - - - - - - - - - -
 72
65
 73
2
 40
0.2
 49
0.1
 74
0
 49
-0.1
 74
0
  0
ENDTAB
  0
TABLE
  2
LAYER
  5
2
100
AcDbSymbolTable
 70
36
  0
LAYER
  5
10
100
AcDbSymbolTableRecord
100
AcDbLayerTableRecord
  2
0
 70
0
 62
7
  6
CONTINUOUS
370
-3
390
F
  0
LAYER
  5
1FA
100
AcDbSymbolTableRecord
100
AcDbLayerTableRecord
  2
DEFAULT_1
 70
0
 62
7
  6
CENTER
370
-3
390
F
  0
LAYER
  5
1FB
100
AcDbSymbolTableRecord
100
AcDbLayerTableRecord
  2
DEFAULT_2
 70
0
 62
8
  6
HIDDEN
370
-3
390
F
  0
LAYER
  5
1FC
100
AcDbSymbolTableRecord
100
AcDbLayerTableRecord
  2
DEFAULT_3
 70
0
 62
7
  6
PHANTOM
370
-3
390
F
  0
LAYER
  5
1FD
100
AcDbSymbolTableRecord
100
AcDbLayerTableRecord
  2
1
 70
0
 62
7
  6
CONTINUOUS
370
-3
390
F
  0
LAYER
  5
1FE
100
AcDbSymbolTableRecord
100
AcDbLayerTableRecord
  2
10
 70
0
 62
7
  6
CONTINUOUS
370
-3
390
F
  0
LAYER
  5
1FF
100
AcDbSymbolTableRecord
100
AcDbLayerTableRecord
  2
11
 70
0
 62
7
  6
CONTINUOUS
370
-3
390
F
  0
LAYER
  5
200
100
AcDbSymbolTableRecord
100
AcDbLayerTableRecord
  2
12
 70
0
 62
7
  6
CONTINUOUS
370
-3
390
F
  0
LAYER
  5
201
100
AcDbSymbolTableRecord
100
AcDbLayerTableRecord
  2
13
 70
0
 62
7
  6
CONTINUOUS
370
-3
390
F
  0
LAYER
  5
202
100
AcDbSymbolTableRecord
100
AcDbLayerTableRecord
  2
14
 70
0
 62
7
  6
CONTINUOUS
370
-3
390
F
  0
LAYER
  5
203
100
AcDbSymbolTableRecord
100
AcDbLayerTableRecord
  2
15
 70
0
 62
7
  6
CONTINUOUS
370
-3
390
F
  0
LAYER
  5
204
100
AcDbSymbolTableRecord
100
AcDbLayerTableRecord
  2
16
 70
0
 62
7
  6
CONTINUOUS
370
-3
390
F
  0
LAYER
  5
205
100
AcDbSymbolTableRecord
100
AcDbLayerTableRecord
  2
17
 70
0
 62
7
  6
CONTINUOUS
370
-3
390
F
  0
LAYER
  5
206
100
AcDbSymbolTableRecord
100
AcDbLayerTableRecord
  2
18
 70
0
 62
7
  6
CONTINUOUS
370
-3
390
F
  0
LAYER
  5
207
100
AcDbSymbolTableRecord
100
AcDbLayerTableRecord
  2
19
 70
0
 62
7
  6
CONTINUOUS
370
-3
390
F
  0
LAYER
  5
208
100
AcDbSymbolTableRecord
100
AcDbLayerTableRecord
  2
2
 70
0
 62
7
  6
CONTINUOUS
370
-3
390
F
  0
LAYER
  5
209
100
AcDbSymbolTableRecord
100
AcDbLayerTableRecord
  2
20
 70
0
 62
7
  6
CONTINUOUS
370
-3
390
F
  0
LAYER
  5
20A
100
AcDbSymbolTableRecord
100
AcDbLayerTableRecord
  2
21
 70
0
 62
7
  6
CONTINUOUS
370
-3
390
F
  0
LAYER
  5
20B
100
AcDbSymbolTableRecord
100
AcDbLayerTableRecord
  2
22
 70
0
 62
7
  6
CONTINUOUS
370
-3
390
F
  0
LAYER
  5
20C
100
AcDbSymbolTableRecord
100
AcDbLayerTableRecord
  2
23
 70
0
 62
7
  6
CONTINUOUS
370
-3
390
F
  0
LAYER
  5
20D
100
AcDbSymbolTableRecord
100
AcDbLayerTableRecord
  2
24
 70
0
 62
7
  6
CONTINUOUS
370
-3
390
F
  0
LAYER
  5
20E
100
AcDbSymbolTableRecord
100
AcDbLayerTableRecord
  2
25
 70
0
 62
7
  6
CONTINUOUS
370
-3
390
F
  0
LAYER
  5
20F
100
AcDbSymbolTableRecord
100
AcDbLayerTableRecord
  2
26
 70
0
 62
7
  6
CONTINUOUS
370
-3
390
F
  0
LAYER
  5
210
100
AcDbSymbolTableRecord
100
AcDbLayerTableRecord
  2
27
 70
0
 62
7
  6
CONTINUOUS
370
-3
390
F
  0
LAYER
  5
211
100
AcDbSymbolTableRecord
100
AcDbLayerTableRecord
  2
28
 70
0
 62
7
  6
CONTINUOUS
370
-3
390
F
  0
LAYER
  5
212
100
AcDbSymbolTableRecord
100
AcDbLayerTableRecord
  2
29
 70
0
 62
7
  6
CONTINUOUS
370
-3
390
F
  0
LAYER
  5
213
100
AcDbSymbolTableRecord
100
AcDbLayerTableRecord
  2
3
 70
0
 62
7
  6
CONTINUOUS
370
-3
390
F
  0
LAYER
  5
214
100
AcDbSymbolTableRecord
100
AcDbLayerTableRecord
  2
30
 70
0
 62
7
  6
CONTINUOUS
370
-3
390
F
  0
LAYER
  5
215
100
AcDbSymbolTableRecord
100
AcDbLayerTableRecord
  2
31
 70
0
 62
7
  6
CONTINUOUS
370
-3
390
F
  0
LAYER
  5
216
100
AcDbSymbolTableRecord
100
AcDbLayerTableRecord
  2
32
 70
0
 62
7
  6
CONTINUOUS
370
-3
390
F
  0
LAYER
  5
217
100
AcDbSymbolTableRecord
100
AcDbLayerTableRecord
  2
4
 70
0
 62
7
  6
CONTINUOUS
370
-3
390
F
  0
LAYER
  5
218
100
AcDbSymbolTableRecord
100
AcDbLayerTableRecord
  2
5
 70
0
 62
7
  6
CONTINUOUS
370
-3
390
F
  0
LAYER
  5
219
100
AcDbSymbolTableRecord
100
AcDbLayerTableRecord
  2
6
 70
0
 62
7
  6
CONTINUOUS
370
-3
390
F
  0
LAYER
  5
21A
100
AcDbSymbolTableRecord
100
AcDbLayerTableRecord
  2
7
 70
0
 62
7
  6
CONTINUOUS
370
-3
390
F
  0
LAYER
  5
21B
100
AcDbSymbolTableRecord
100
AcDbLayerTableRecord
  2
8
 70
0
 62
7
  6
CONTINUOUS
370
-3
390
F
  0
LAYER
  5
21C
100
AcDbSymbolTableRecord
100
AcDbLayerTableRecord
  2
9
 70
0
 62
7
  6
CONTINUOUS
370
-3
390
F
  0
LAYER
  5
21D
100
AcDbSymbolTableRecord
100
AcDbLayerTableRecord
  2
AXIS
 70
0
 62
7
  6
CONTINUOUS
370
-3
390
F
  0
LAYER
  5
21E
100
AcDbSymbolTableRecord
100
AcDbLayerTableRecord
  2
AXIS_COSMETIC_THREADS
 70
0
 62
7
  6
CONTINUOUS
370
-3
390
F
  0
LAYER
  5
21F
100
AcDbSymbolTableRecord
100
AcDbLayerTableRecord
  2
DATUM_CURVES
 70
0
 62
7
  6
CONTINUOUS
370
-3
390
F
  0
LAYER
  5
220
100
AcDbSymbolTableRecord
100
AcDbLayerTableRecord
  2
DATUM_PLANES
 70
0
 62
7
  6
CONTINUOUS
370
-3
390
F
  0
LAYER
  5
221
100
AcDbSymbolTableRecord
100
AcDbLayerTableRecord
  2
MATTE_OUTLINE
 70
0
 62
7
  6
CONTINUOUS
370
-3
390
F
  0
LAYER
  5
222
100
AcDbSymbolTableRecord
100
AcDbLayerTableRecord
  2
NOTES
 70
0
 62
7
  6
CONTINUOUS
370
-3
390
F
  0
LAYER
  5
223
100
AcDbSymbolTableRecord
100
AcDbLayerTableRecord
  2
QUILTS
 70
0
 62
7
  6
CONTINUOUS
370
-3
390
F
  0
LAYER
  5
224
100
AcDbSymbolTableRecord
100
AcDbLayerTableRecord
  2
SCHEME_DIMS
 70
0
 62
7
  6
CONTINUOUS
370
-3
390
F
  0
LAYER
  5
225
100
AcDbSymbolTableRecord
100
AcDbLayerTableRecord
  2
SYMBOLS
 70
0
 62
7
  6
CONTINUOUS
370
-3
390
F
  0
ENDTAB
  0
TABLE
  2
STYLE
  5
3
100
AcDbSymbolTable
 70
1
  0
STYLE
  5
11
100
AcDbSymbolTableRecord
100
AcDbTextStyleTableRecord
  2
STANDARD
 70
0
 40
0.0
 41
1.0
 50
0.0
 71
0
 42
0.2
  3
txt
  4

  0
STYLE
  5
226
100
AcDbSymbolTableRecord
100
AcDbTextStyleTableRecord
  2
TEXTSTYLE_1
 70
0
 40
0.0
 41
0.8
 50
0.0
 71
0
 42
0.2
  3
gdt
  4

  0
STYLE
  5
227
100
AcDbSymbolTableRecord
100
AcDbTextStyleTableRecord
  2
TEXTSTYLE_2
 70
0
 40
0.0
 41
0.8
 50
0.0
 71
0
 42
0.2
  3
txt
  4

  0
STYLE
  5
228
100
AcDbSymbolTableRecord
100
AcDbTextStyleTableRecord
  2
TEXTSTYLE_3
 70
0
 40
0.0
 41
0.85
 50
0.0
 71
0
 42
0.2
  3
txt
  4

  0
STYLE
  5
229
100
AcDbSymbolTableRecord
100
AcDbTextStyleTableRecord
  2
TEXTSTYLE_4
 70
0
 40
0.0
 41
0.92
 50
0.0
 71
0
 42
0.2
  3
txt
  4

  0
STYLE
  5
22A
100
AcDbSymbolTableRecord
100
AcDbTextStyleTableRecord
  2
TEXTSTYLE_5
 70
0
 40
0.0
 41
1.0
 50
0.0
 71
0
 42
0.2
  3
gdt
  4

  0
ENDTAB
  0
TABLE
  2
VIEW
  5
6
100
AcDbSymbolTable
 70
0
  0
ENDTAB
  0
TABLE
  2
UCS
  5
7
100
AcDbSymbolTable
 70
0
  0
ENDTAB
  0
TABLE
  2
APPID
  5
9
100
AcDbSymbolTable
 70
1
  0
APPID
  5
22B
100
AcDbSymbolTableRecord
100
AcDbRegAppTableRecord
  2
ACAD
 70
0
  0
ENDTAB
  0
TABLE
  2
BLOCK_RECORD
  5
1
100
AcDbSymbolTable
 70
0
  0
BLOCK_RECORD
  5
22C
100
AcDbSymbolTableRecord
100
AcDbBlockTableRecord
  2
*Model_Space
  0
BLOCK_RECORD
  5
22D
100
AcDbSymbolTableRecord
100
AcDbBlockTableRecord
  2
*Paper_Space
  0
BLOCK_RECORD
  5
22E
100
AcDbSymbolTableRecord
100
AcDbBlockTableRecord
  2
_FILLED
  0
BLOCK_RECORD
  5
22F
100
AcDbSymbolTableRecord
100
AcDbBlockTableRecord
  2
*D0
  0
BLOCK_RECORD
  5
230
100
AcDbSymbolTableRecord
100
AcDbBlockTableRecord
  2
*D1
  0
BLOCK_RECORD
  5
231
100
AcDbSymbolTableRecord
100
AcDbBlockTableRecord
  2
*D2
  0
BLOCK_RECORD
  5
232
100
AcDbSymbolTableRecord
100
AcDbBlockTableRecord
  2
*D3
  0
BLOCK_RECORD
  5
233
100
AcDbSymbolTableRecord
100
AcDbBlockTableRecord
  2
*D4
  0
BLOCK_RECORD
  5
234
100
AcDbSymbolTableRecord
100
AcDbBlockTableRecord
  2
BANNER_LOGO_TITLEBLOCK_BL0
  0
ENDTAB
  0
TABLE
  2
DIMSTYLE
  5
A
100
AcDbSymbolTable
 70
1
100
AcDbDimStyleTable
 71
0
  0
DIMSTYLE
105
235
100
AcDbSymbolTableRecord
100
AcDbDimStyleTableRecord
  2
STANDARD
 70
0
  3

  4

 40
1.0
 41
0.1875
 42
0.0625
 43
0.38
 44
0.18
 45
0.0
 46
0.0
 47
0.005
 48
0.005
140
0.1
141
0.09
142
0.0
143
25.4
144
1.0
145
0.0
146
1.0
147
0.09
 71
1.0
 72
0.0
 73
1
 74
1
 75
0
 76
0
 77
0
 78
4
170
0
171
2
172
0
173
0
174
0
175
0
176
0
177
0
178
0
270
2
271
3
272
3
273
2
274
2
275
0
280
0
281
0
282
0
283
1
284
4
285
0
286
0
287
3
288
0
340
11
341
22E
342
22E
343
22E
344
22E
  0
DIMSTYLE
105
236
100
AcDbSymbolTableRecord
100
AcDbDimStyleTableRecord
  2
DIMSTYLE_1
 70
0
  3

  4

 40
1.0
 41
0.1875
 42
0.0625
 43
0.38
 44
0.18
 45
0.0
 46
0.0
 47
0.1
 48
0.1
140
0.1
141
0.09
142
0.0
143
25.4
144
1.0
145
0.0
146
1.0
147
0.09
 71
0.0
 72
0.0
 73
1
 74
1
 75
0
 76
0
 77
0
 78
4
170
0
171
2
172
0
173
0
174
0
175
0
176
0
177
0
178
0
270
2
271
1
272
1
273
2
274
2
275
0
280
0
281
0
282
0
283
1
284
4
285
0
286
0
287
3
288
0
340
11
341
22E
342
22E
343
22E
344
22E
  0
ENDTAB
  0
ENDSEC
  0
SECTION
  2
BLOCKS
  0
BLOCK
  5
20
100
AcDbEntity
  8
0
100
AcDbBlockBegin
  2
*Model_Space
 70
0
 10
0.0
 20
0.0
 30
0.0
  3
*Model_Space
  1

  0
ENDBLK
  5
21
100
AcDbEntity
  8
0
100
AcDbBlockEnd
  0
BLOCK
  5
1C
100
AcDbEntity
  8
0
100
AcDbBlockBegin
  2
*Paper_Space
 70
0
 10
0.0
 20
0.0
 30
0.0
  3
*Paper_Space
  1

  0
ENDBLK
  5
1D
100
AcDbEntity
  8
0
100
AcDbBlockEnd
  0
BLOCK
  5
237
100
AcDbEntity
  8
0
100
AcDbBlockBegin
 62
2
  6
CONTINUOUS
  2
BANNER_LOGO_TITLEBLOCK_BL0
 70
64
 10
12.9086867042
 20
2.5403783405
  3
BANNER_LOGO_TITLEBLOCK_BL0
  1

  0
ELLIPSE
  5
238
100
AcDbEntity
  8
0
100
AcDbEllipse
 62
2
  6
CONTINUOUS
 10
12.9046654608
 20
2.5403783405
 30
0.0
 11
-0.8250004575
 21
0.0
 31
0.0
 40
0.218572
 41
0.0
 42
6.2831853072
  0
ARC
  5
239
100
AcDbEntity
  8
0
100
AcDbCircle
 62
2
  6
CONTINUOUS
 10
12.400005721
 20
2.5168763464
 40
0.0153945295
100
AcDbArc
 50
354.0454548824
 51
5.1878013979
  0
ARC
  5
23A
100
AcDbEntity
  8
0
100
AcDbCircle
 62
2
  6
CONTINUOUS
 10
12.3931760319
 20
2.5166878286
 40
0.0222174455
100
AcDbArc
 50
4.0793399388
 51
69.834329283
  0
LINE
  5
23B
100
AcDbEntity
  8
0
100
AcDbLine
 62
2
  6
CONTINUOUS
 10
12.4008351814
 20
2.5375433389
 11
12.3907841758
 21
2.5410923409
  0
LINE
  5
23C
100
AcDbEntity
  8
0
100
AcDbLine
 62
2
  6
CONTINUOUS
 10
12.3907841758
 20
2.5410923409
 11
12.3990241804
 21
2.5458683435
  0
ARC
  5
23D
100
AcDbEntity
  8
0
100
AcDbCircle
 62
2
  6
CONTINUOUS
 10
12.3771587979
 20
2.5826952352
 40
0.0428289026
100
AcDbArc
 50
300.6990502959
 51
319.0591802498
  0
ARC
  5
23E
100
AcDbEntity
  8
0
100
AcDbCircle
 62
2
  6
CONTINUOUS
 10
12.3971873948
 20
2.5665668817
 40
0.0171568255
100
AcDbArc
 50
315.9145124245
 51
16.0049121282
  0
ARC
  5
23F
100
AcDbEntity
  8
0
100
AcDbCircle
 62
2
  6
CONTINUOUS
 10
12.3922357827
 20
2.5632132173
 40
0.0229166529
100
AcDbArc
 50
20.6563876465
 51
62.3316896973
  0
ARC
  5
240
100
AcDbEntity
  8
0
100
AcDbCircle
 62
2
  6
CONTINUOUS
 10
12.371573659
 20
2.5302846524
 40
0.061747717
100
AcDbArc
 50
59.5385584989
 51
90.0050977555
  0
LINE
  5
241
100
AcDbEntity
  8
0
100
AcDbLine
 62
2
  6
CONTINUOUS
 10
12.3715681652
 20
2.5920323691
 11
12.2055050731
 21
2.5920323691
  0
ARC
  5
242
100
AcDbEntity
  8
0
100
AcDbCircle
 62
2
  6
CONTINUOUS
 10
12.2055050712
 20
2.5895573696
 40
0.0024749995
100
AcDbArc
 50
89.9999571957
 51
180.0000428043
  0
LINE
  5
243
100
AcDbEntity
  8
0
100
AcDbLine
 62
2
  6
CONTINUOUS
 10
12.2030300717
 20
2.5895573678
 11
12.2030300717
 21
2.5697573568
  0
ARC
  5
244
100
AcDbEntity
  8
0
100
AcDbCircle
 62
2
  6
CONTINUOUS
 10
12.2055050712
 20
2.5697573549
 40
0.0024749995
100
AcDbArc
 50
179.9999571957
 51
270.0000428043
  0
LINE
  5
245
100
AcDbEntity
  8
0
100
AcDbLine
 62
2
  6
CONTINUOUS
 10
12.2055050731
 20
2.5672823554
 11
12.2294470864
 21
2.5672823554
  0
ARC
  5
246
100
AcDbEntity
  8
0
100
AcDbCircle
 62
2
  6
CONTINUOUS
 10
12.2294470882
 20
2.5648073559
 40
0.0024749995
100
AcDbArc
 50
359.9999571957
 51
90.0000428043
  0
LINE
  5
247
100
AcDbEntity
  8
0
100
AcDbLine
 62
2
  6
CONTINUOUS
 10
12.2319220877
 20
2.564807354
 11
12.2319220877
 21
2.5184523283
  0
ARC
  5
248
100
AcDbEntity
  8
0
100
AcDbCircle
 62
2
  6
CONTINUOUS
 10
12.2294470882
 20
2.5184523265
 40
0.0024749995
100
AcDbArc
 50
269.9999571957
 51
0.0000428043
  0
LINE
  5
249
100
AcDbEntity
  8
0
100
AcDbLine
 62
2
  6
CONTINUOUS
 10
12.2294470864
 20
2.515977327
 11
12.2055050731
 21
2.515977327
  0
ARC
  5
24A
100
AcDbEntity
  8
0
100
AcDbCircle
 62
2
  6
CONTINUOUS
 10
12.2055050712
 20
2.5135023274
 40
0.0024749995
100
AcDbArc
 50
89.9999571957
 51
180.0000428043
  0
LINE
  5
24B
100
AcDbEntity
  8
0
100
AcDbLine
 62
2
  6
CONTINUOUS
 10
12.2030300717
 20
2.5135023256
 11
12.2030300717
 21
2.4937023146
  0
ARC
  5
24C
100
AcDbEntity
  8
0
100
AcDbCircle
 62
2
  6
CONTINUOUS
 10
12.2055050712
 20
2.4937023128
 40
0.0024749995
100
AcDbArc
 50
179.9999571957
 51
270.0000428043
  0
LINE
  5
24D
100
AcDbEntity
  8
0
100
AcDbLine
 62
2
  6
CONTINUOUS
 10
12.2055050731
 20
2.4912273132
 11
12.3819511709
 21
2.4912273132
  0
ARC
  5
24E
100
AcDbEntity
  8
0
100
AcDbCircle
 62
2
  6
CONTINUOUS
 10
12.3792298263
 20
2.539634765
 40
0.048483885
100
AcDbArc
 50
273.21763719
 51
303.0749121182
  0
ARC
  5
24F
100
AcDbEntity
  8
0
100
AcDbCircle
 62
2
  6
CONTINUOUS
 10
12.3940692204
 20
2.5168671561
 40
0.0213072145
100
AcDbArc
 50
303.0488228549
 51
355.7263138674
  0
LINE
  5
250
100
AcDbEntity
  8
0
100
AcDbLine
 62
2
  6
CONTINUOUS
 10
12.2949101227
 20
2.5499573458
 11
12.3362731456
 21
2.5499573458
  0
ARC
  5
251
100
AcDbEntity
  8
0
100
AcDbCircle
 62
2
  6
CONTINUOUS
 10
12.3362731456
 20
2.5586198506
 40
0.0086625048
100
AcDbArc
 50
270.0
 51
90.0
  0
LINE
  5
252
100
AcDbEntity
  8
0
100
AcDbLine
 62
2
  6
CONTINUOUS
 10
12.3362731456
 20
2.5672823554
 11
12.2949101227
 21
2.5672823554
  0
ARC
  5
253
100
AcDbEntity
  8
0
100
AcDbCircle
 62
2
  6
CONTINUOUS
 10
12.2949101208
 20
2.5648073559
 40
0.0024749995
100
AcDbArc
 50
89.9999571957
 51
180.0000428043
  0
LINE
  5
254
100
AcDbEntity
  8
0
100
AcDbLine
 62
2
  6
CONTINUOUS
 10
12.2924351213
 20
2.564807354
 11
12.2924351213
 21
2.5524323472
  0
ARC
  5
255
100
AcDbEntity
  8
0
100
AcDbCircle
 62
2
  6
CONTINUOUS
 10
12.2949101208
 20
2.5524323453
 40
0.0024749995
100
AcDbArc
 50
179.9999571957
 51
270.0000428043
  0
LINE
  5
256
100
AcDbEntity
  8
0
100
AcDbLine
 62
2
  6
CONTINUOUS
 10
12.2924351213
 20
2.5184523283
 11
12.2924351213
 21
2.5308273352
  0
ARC
  5
257
100
AcDbEntity
  8
0
100
AcDbCircle
 62
2
  6
CONTINUOUS
 10
12.2949101208
 20
2.530827337
 40
0.0024749995
100
AcDbArc
 50
89.9999571957
 51
180.0000428043
  0
LINE
  5
258
100
AcDbEntity
  8
0
100
AcDbLine
 62
2
  6
CONTINUOUS
 10
12.2949101227
 20
2.5333023366
 11
12.3362731456
 21
2.5333023366
  0
ARC
  5
259
100
AcDbEntity
  8
0
100
AcDbCircle
 62
2
  6
CONTINUOUS
 10
12.3362731456
 20
2.5246398318
 40
0.0086625048
100
AcDbArc
 50
270.0
 51
90.0
  0
LINE
  5
25A
100
AcDbEntity
  8
0
100
AcDbLine
 62
2
  6
CONTINUOUS
 10
12.3362731456
 20
2.515977327
 11
12.2949101227
 21
2.515977327
  0
ARC
  5
25B
100
AcDbEntity
  8
0
100
AcDbCircle
 62
2
  6
CONTINUOUS
 10
12.2949101208
 20
2.5184523265
 40
0.0024749995
100
AcDbArc
 50
179.9999571957
 51
270.0000428043
  0
ARC
  5
25C
100
AcDbEntity
  8
0
100
AcDbCircle
 62
2
  6
CONTINUOUS
 10
13.5806801742
 20
2.5212486481
 40
0.044722495
100
AcDbArc
 50
195.531588407
 51
204.7624440448
  0
LINE
  5
25D
100
AcDbEntity
  8
0
100
AcDbLine
 62
2
  6
CONTINUOUS
 10
13.5375908118
 20
2.5092733232
 11
13.5357868108
 21
2.5153423266
  0
ARC
  5
25E
100
AcDbEntity
  8
0
100
AcDbCircle
 62
2
  6
CONTINUOUS
 10
13.4974076135
 20
2.5055452462
 40
0.0396099176
100
AcDbArc
 50
14.3201081283
 51
22.4984722084
  0
ARC
  5
25F
100
AcDbEntity
  8
0
100
AcDbCircle
 62
2
  6
CONTINUOUS
 10
13.5201739219
 20
2.5145168728
 40
0.0151491919
100
AcDbArc
 50
24.098260853
 51
63.0369451818
  0
ARC
  5
260
100
AcDbEntity
  8
0
100
AcDbCircle
 62
2
  6
CONTINUOUS
 10
13.5161192671
 20
2.5062372524
 40
0.0243676582
100
AcDbArc
 50
63.3666028271
 51
90.3937697637
  0
LINE
  5
261
100
AcDbEntity
  8
0
100
AcDbLine
 62
2
  6
CONTINUOUS
 10
13.5159517998
 20
2.5306043351
 11
13.4883447845
 21
2.5306043351
  0
ARC
  5
262
100
AcDbEntity
  8
0
100
AcDbCircle
 62
2
  6
CONTINUOUS
 10
13.4883447827
 20
2.5281293355
 40
0.0024749995
100
AcDbArc
 50
89.9999571957
 51
180.0000428043
  0
LINE
  5
263
100
AcDbEntity
  8
0
100
AcDbLine
 62
2
  6
CONTINUOUS
 10
13.4858697831
 20
2.5281293337
 11
13.4858697831
 21
2.5184303283
  0
ARC
  5
264
100
AcDbEntity
  8
0
100
AcDbCircle
 62
2
  6
CONTINUOUS
 10
13.4883447827
 20
2.5184303265
 40
0.0024749995
100
AcDbArc
 50
179.9999571957
 51
270.0000428043
  0
LINE
  5
265
100
AcDbEntity
  8
0
100
AcDbLine
 62
2
  6
CONTINUOUS
 10
13.4883447845
 20
2.5159553269
 11
13.5130037982
 21
2.5159553269
  0
ARC
  5
266
100
AcDbEntity
  8
0
100
AcDbCircle
 62
2
  6
CONTINUOUS
 10
13.5130038
 20
2.5134803274
 40
0.0024749995
100
AcDbArc
 50
359.9999571957
 51
90.0000428043
  0
LINE
  5
267
100
AcDbEntity
  8
0
100
AcDbLine
 62
2
  6
CONTINUOUS
 10
13.5154787995
 20
2.5134803256
 11
13.5154787995
 21
2.4937023146
  0
ARC
  5
268
100
AcDbEntity
  8
0
100
AcDbCircle
 62
2
  6
CONTINUOUS
 10
13.5130038
 20
2.4937023128
 40
0.0024749995
100
AcDbArc
 50
269.9999571957
 51
0.0000428043
  0
LINE
  5
269
100
AcDbEntity
  8
0
100
AcDbLine
 62
2
  6
CONTINUOUS
 10
13.5130037982
 20
2.4912273132
 11
13.3994327352
 21
2.4912273132
  0
ARC
  5
26A
100
AcDbEntity
  8
0
100
AcDbCircle
 62
2
  6
CONTINUOUS
 10
13.3994327333
 20
2.4937023128
 40
0.0024749995
100
AcDbArc
 50
179.9999571957
 51
270.0000428043
  0
LINE
  5
26B
100
AcDbEntity
  8
0
100
AcDbLine
 62
2
  6
CONTINUOUS
 10
13.3969577338
 20
2.4937023146
 11
13.3969577338
 21
2.5135023256
  0
ARC
  5
26C
100
AcDbEntity
  8
0
100
AcDbCircle
 62
2
  6
CONTINUOUS
 10
13.3994327333
 20
2.5135023274
 40
0.0024749995
100
AcDbArc
 50
89.9999571957
 51
180.0000428043
  0
LINE
  5
26D
100
AcDbEntity
  8
0
100
AcDbLine
 62
2
  6
CONTINUOUS
 10
13.3994327352
 20
2.515977327
 11
13.4221787478
 21
2.515977327
  0
ARC
  5
26E
100
AcDbEntity
  8
0
100
AcDbCircle
 62
2
  6
CONTINUOUS
 10
13.4221787497
 20
2.5184523265
 40
0.0024749995
100
AcDbArc
 50
269.9999571957
 51
0.0000428042
  0
LINE
  5
26F
100
AcDbEntity
  8
0
100
AcDbLine
 62
2
  6
CONTINUOUS
 10
13.4246537492
 20
2.5184523283
 11
13.4246537492
 21
2.564807354
  0
ARC
  5
270
100
AcDbEntity
  8
0
100
AcDbCircle
 62
2
  6
CONTINUOUS
 10
13.4221787497
 20
2.5648073559
 40
0.0024749995
100
AcDbArc
 50
359.9999571957
 51
90.0000428043
  0
LINE
  5
271
100
AcDbEntity
  8
0
100
AcDbLine
 62
2
  6
CONTINUOUS
 10
13.4221787478
 20
2.5672823554
 11
13.3994327352
 21
2.5672823554
  0
ARC
  5
272
100
AcDbEntity
  8
0
100
AcDbCircle
 62
2
  6
CONTINUOUS
 10
13.3994327333
 20
2.5697573549
 40
0.0024749995
100
AcDbArc
 50
179.9999571957
 51
270.0000428043
  0
LINE
  5
273
100
AcDbEntity
  8
0
100
AcDbLine
 62
2
  6
CONTINUOUS
 10
13.3969577338
 20
2.5697573568
 11
13.3969577338
 21
2.5895573678
  0
ARC
  5
274
100
AcDbEntity
  8
0
100
AcDbCircle
 62
2
  6
CONTINUOUS
 10
13.3994327333
 20
2.5895573696
 40
0.0024749995
100
AcDbArc
 50
89.9999571957
 51
180.0000428043
  0
LINE
  5
275
100
AcDbEntity
  8
0
100
AcDbLine
 62
2
  6
CONTINUOUS
 10
13.3994327352
 20
2.5920323691
 11
13.5490138181
 21
2.5920323691
  0
ARC
  5
276
100
AcDbEntity
  8
0
100
AcDbCircle
 62
2
  6
CONTINUOUS
 10
13.5463505148
 20
2.4094934586
 40
0.1825583387
100
AcDbArc
 50
79.8618509324
 51
89.1640948679
  0
ARC
  5
277
100
AcDbEntity
  8
0
100
AcDbCircle
 62
2
  6
CONTINUOUS
 10
13.5726548052
 20
2.5503169747
 40
0.039319019
100
AcDbArc
 50
59.1202086415
 51
81.4730239328
  0
ARC
  5
278
100
AcDbEntity
  8
0
100
AcDbCircle
 62
2
  6
CONTINUOUS
 10
13.5783142014
 20
2.5566516438
 40
0.0310192946
100
AcDbArc
 50
34.7540871
 51
62.0879016178
  0
ARC
  5
279
100
AcDbEntity
  8
0
100
AcDbCircle
 62
2
  6
CONTINUOUS
 10
13.5900029525
 20
2.565201245
 40
0.0165459396
100
AcDbArc
 50
1.548452892
 51
33.5033152417
  0
ARC
  5
27A
100
AcDbEntity
  8
0
100
AcDbCircle
 62
2
  6
CONTINUOUS
 10
13.5932995477
 20
2.5653696972
 40
0.0132462337
100
AcDbArc
 50
331.1510006998
 51
1.205404301
  0
ARC
  5
27B
100
AcDbEntity
  8
0
100
AcDbCircle
 62
2
  6
CONTINUOUS
 10
13.5822888914
 20
2.5720482849
 40
0.0261183659
100
AcDbArc
 50
305.6373831893
 51
329.9727629745
  0
ARC
  5
27C
100
AcDbEntity
  8
0
100
AcDbCircle
 62
2
  6
CONTINUOUS
 10
13.5519569538
 20
2.6152551345
 40
0.0789082104
100
AcDbArc
 50
292.906155071
 51
305.2574666259
  0
ARC
  5
27D
100
AcDbEntity
  8
0
100
AcDbCircle
 62
2
  6
CONTINUOUS
 10
13.5282557878
 20
2.4386010294
 40
0.117346916
100
AcDbArc
 50
58.614769177
 51
62.3737227606
  0
ARC
  5
27E
100
AcDbEntity
  8
0
100
AcDbCircle
 62
2
  6
CONTINUOUS
 10
13.5761387404
 20
2.5167282896
 40
0.0257145923
100
AcDbArc
 50
39.3804255939
 51
59.0361096173
  0
ARC
  5
27F
100
AcDbEntity
  8
0
100
AcDbCircle
 62
2
  6
CONTINUOUS
 10
13.5750183849
 20
2.5166552064
 40
0.0266349791
100
AcDbArc
 50
20.3630922153
 51
37.9727053099
  0
ARC
  5
280
100
AcDbEntity
  8
0
100
AcDbCircle
 62
2
  6
CONTINUOUS
 10
13.5571178432
 20
2.509473798
 40
0.0459185159
100
AcDbArc
 50
15.6740290068
 51
20.9917271228
  0
ARC
  5
281
100
AcDbEntity
  8
0
100
AcDbCircle
 62
2
  6
CONTINUOUS
 10
13.6156881783
 20
2.525116781
 40
0.0147197649
100
AcDbArc
 50
192.7054516565
 51
206.0594861022
  0
ARC
  5
282
100
AcDbEntity
  8
0
100
AcDbCircle
 62
2
  6
CONTINUOUS
 10
13.6071938412
 20
2.5209082945
 40
0.0052403997
100
AcDbArc
 50
205.5232099488
 51
227.5054868079
  0
ARC
  5
283
100
AcDbEntity
  8
0
100
AcDbCircle
 62
2
  6
CONTINUOUS
 10
13.6054655419
 20
2.5190929218
 40
0.0027347709
100
AcDbArc
 50
228.5117626737
 51
266.1485845754
  0
LINE
  5
284
100
AcDbEntity
  8
0
100
AcDbLine
 62
2
  6
CONTINUOUS
 10
13.6052818493
 20
2.5163643272
 11
13.60639085
 21
2.5163643272
  0
ARC
  5
285
100
AcDbEntity
  8
0
100
AcDbCircle
 62
2
  6
CONTINUOUS
 10
13.6063292954
 20
2.5296129864
 40
0.0132488022
100
AcDbArc
 50
270.266200055
 51
281.2404888597
  0
ARC
  5
286
100
AcDbEntity
  8
0
100
AcDbCircle
 62
2
  6
CONTINUOUS
 10
13.6075235364
 20
2.5238762928
 40
0.0073895522
100
AcDbArc
 50
280.8288201977
 51
305.0837508495
  0
ARC
  5
287
100
AcDbEntity
  8
0
100
AcDbCircle
 62
2
  6
CONTINUOUS
 10
13.607924718
 20
2.5230254464
 40
0.0064647042
100
AcDbArc
 50
306.5086174083
 51
340.2162360092
  0
ARC
  5
288
100
AcDbEntity
  8
0
100
AcDbCircle
 62
2
  6
CONTINUOUS
 10
13.6027235414
 20
2.524769508
 40
0.0119498009
100
AcDbArc
 50
340.7883861657
 51
1.1691452593
  0
LINE
  5
289
100
AcDbEntity
  8
0
100
AcDbLine
 62
2
  6
CONTINUOUS
 10
13.6146708546
 20
2.525013332
 11
13.6146708546
 21
2.5276393334
  0
ARC
  5
28A
100
AcDbEntity
  8
0
100
AcDbCircle
 62
2
  6
CONTINUOUS
 10
13.6171458541
 20
2.5276393353
 40
0.0024749995
100
AcDbArc
 50
89.9999571957
 51
180.0000428043
  0
LINE
  5
28B
100
AcDbEntity
  8
0
100
AcDbLine
 62
2
  6
CONTINUOUS
 10
13.6171458559
 20
2.5301143348
 11
13.6292558626
 21
2.5301143348
  0
ARC
  5
28C
100
AcDbEntity
  8
0
100
AcDbCircle
 62
2
  6
CONTINUOUS
 10
13.6292558645
 20
2.5276393353
 40
0.0024749995
100
AcDbArc
 50
359.9999571957
 51
90.0000428043
  0
LINE
  5
28D
100
AcDbEntity
  8
0
100
AcDbLine
 62
2
  6
CONTINUOUS
 10
13.631730864
 20
2.5276393334
 11
13.631730864
 21
2.516087327
  0
ARC
  5
28E
100
AcDbEntity
  8
0
100
AcDbCircle
 62
2
  6
CONTINUOUS
 10
13.6141751675
 20
2.5161916447
 40
0.0175560065
100
AcDbArc
 50
332.2279060967
 51
359.6595469939
  0
ARC
  5
28F
100
AcDbEntity
  8
0
100
AcDbCircle
 62
2
  6
CONTINUOUS
 10
13.6048681567
 20
2.5210861501
 40
0.0280715479
100
AcDbArc
 50
308.5071794988
 51
332.2400656899
  0
ARC
  5
290
100
AcDbEntity
  8
0
100
AcDbCircle
 62
2
  6
CONTINUOUS
 10
13.5978759713
 20
2.5286873679
 40
0.0383802683
100
AcDbArc
 50
288.7656836787
 51
309.6104317088
  0
ARC
  5
291
100
AcDbEntity
  8
0
100
AcDbCircle
 62
2
  6
CONTINUOUS
 10
13.6036139387
 20
2.5111006186
 40
0.0198837666
100
AcDbArc
 50
271.8586572978
 51
289.4131338543
  0
LINE
  5
292
100
AcDbEntity
  8
0
100
AcDbLine
 62
2
  6
CONTINUOUS
 10
13.6042588488
 20
2.4912273132
 11
13.5568948225
 21
2.4912273132
  0
ARC
  5
293
100
AcDbEntity
  8
0
100
AcDbCircle
 62
2
  6
CONTINUOUS
 10
13.5577001432
 20
2.5085494649
 40
0.0173408616
100
AcDbArc
 50
232.4713476722
 51
267.338189944
  0
ARC
  5
294
100
AcDbEntity
  8
0
100
AcDbCircle
 62
2
  6
CONTINUOUS
 10
13.5607987082
 20
2.5143997688
 40
0.0238935861
100
AcDbArc
 50
209.8247607259
 51
235.1255079367
  0
ARC
  5
295
100
AcDbEntity
  8
0
100
AcDbCircle
 62
2
  6
CONTINUOUS
 10
13.5295131508
 20
2.5629115009
 40
0.0110815393
100
AcDbArc
 50
306.758405961
 51
320.4502234234
  0
ARC
  5
296
100
AcDbEntity
  8
0
100
AcDbCircle
 62
2
  6
CONTINUOUS
 10
13.5238839599
 20
2.5706523294
 40
0.0206523367
100
AcDbArc
 50
289.6883413472
 51
306.4184925496
  0
ARC
  5
297
100
AcDbEntity
  8
0
100
AcDbCircle
 62
2
  6
CONTINUOUS
 10
13.5219564542
 20
2.5750459767
 40
0.0254407115
100
AcDbArc
 50
270.7327484175
 51
290.441894219
  0
LINE
  5
298
100
AcDbEntity
  8
0
100
AcDbLine
 62
2
  6
CONTINUOUS
 10
13.5222818033
 20
2.5496073456
 11
13.4883447845
 21
2.5496073456
  0
ARC
  5
299
100
AcDbEntity
  8
0
100
AcDbCircle
 62
2
  6
CONTINUOUS
 10
13.4883447827
 20
2.5520823451
 40
0.0024749995
100
AcDbArc
 50
179.9999571957
 51
270.0000428043
  0
LINE
  5
29A
100
AcDbEntity
  8
0
100
AcDbLine
 62
2
  6
CONTINUOUS
 10
13.4858697831
 20
2.552082347
 11
13.4858697831
 21
2.564807354
  0
ARC
  5
29B
100
AcDbEntity
  8
0
100
AcDbCircle
 62
2
  6
CONTINUOUS
 10
13.4883447827
 20
2.5648073559
 40
0.0024749995
100
AcDbArc
 50
89.9999571957
 51
180.0000428043
  0
LINE
  5
29C
100
AcDbEntity
  8
0
100
AcDbLine
 62
2
  6
CONTINUOUS
 10
13.4883447845
 20
2.5672823554
 11
13.5251458049
 21
2.5672823554
  0
ARC
  5
29D
100
AcDbEntity
  8
0
100
AcDbCircle
 62
2
  6
CONTINUOUS
 10
13.5236009174
 20
2.5388278764
 40
0.0284963867
100
AcDbArc
 50
70.3834917948
 51
86.8922743861
  0
ARC
  5
29E
100
AcDbEntity
  8
0
100
AcDbCircle
 62
2
  6
CONTINUOUS
 10
13.5284605274
 20
2.5518696094
 40
0.0145814632
100
AcDbArc
 50
54.6746025112
 51
71.1660573124
  0
ARC
  5
29F
100
AcDbEntity
  8
0
100
AcDbCircle
 62
2
  6
CONTINUOUS
 10
13.5335900184
 20
2.5587235346
 40
0.0060275915
100
AcDbArc
 50
20.9055592135
 51
56.7851676243
  0
ARC
  5
2A0
100
AcDbEntity
  8
0
100
AcDbCircle
 62
2
  6
CONTINUOUS
 10
13.5348905773
 20
2.5593838168
 40
0.0045795888
100
AcDbArc
 50
355.6235353944
 51
18.9942678268
  0
ARC
  5
2A1
100
AcDbEntity
  8
0
100
AcDbCircle
 62
2
  6
CONTINUOUS
 10
13.533683767
 20
2.559677593
 40
0.0058087709
100
AcDbArc
 50
318.8515287446
 51
353.6422345323
  0
LINE
  5
2A2
100
AcDbEntity
  8
0
100
AcDbLine
 62
2
  6
CONTINUOUS
 10
12.672340332
 20
2.5920323691
 11
12.7727983877
 21
2.5920323691
  0
ARC
  5
2A3
100
AcDbEntity
  8
0
100
AcDbCircle
 62
2
  6
CONTINUOUS
 10
12.7727985224
 20
2.5895582013
 40
0.0024741678
100
AcDbArc
 50
46.3477981899
 51
90.0031206038
  0
LINE
  5
2A4
100
AcDbEntity
  8
0
100
AcDbLine
 62
2
  6
CONTINUOUS
 10
12.7745063886
 20
2.5913483688
 11
12.8345394219
 21
2.534068337
  0
ARC
  5
2A5
100
AcDbEntity
  8
0
100
AcDbCircle
 62
2
  6
CONTINUOUS
 10
12.8362481229
 20
2.5358592748
 40
0.0024753014
100
AcDbArc
 50
226.3461263059
 51
0.0014637321
  0
LINE
  5
2A6
100
AcDbEntity
  8
0
100
AcDbLine
 62
2
  6
CONTINUOUS
 10
12.8387234242
 20
2.535859338
 11
12.8387234242
 21
2.564807354
  0
ARC
  5
2A7
100
AcDbEntity
  8
0
100
AcDbCircle
 62
2
  6
CONTINUOUS
 10
12.8362484247
 20
2.5648073559
 40
0.0024749995
100
AcDbArc
 50
359.9999571957
 51
90.0000428043
  0
LINE
  5
2A8
100
AcDbEntity
  8
0
100
AcDbLine
 62
2
  6
CONTINUOUS
 10
12.8362484229
 20
2.5672823554
 11
12.8174724125
 21
2.5672823554
  0
ARC
  5
2A9
100
AcDbEntity
  8
0
100
AcDbCircle
 62
2
  6
CONTINUOUS
 10
12.8174724106
 20
2.5697573549
 40
0.0024749995
100
AcDbArc
 50
179.9999571957
 51
270.0000428043
  0
LINE
  5
2AA
100
AcDbEntity
  8
0
100
AcDbLine
 62
2
  6
CONTINUOUS
 10
12.8149974111
 20
2.5697573568
 11
12.8149974111
 21
2.5895573678
  0
ARC
  5
2AB
100
AcDbEntity
  8
0
100
AcDbCircle
 62
2
  6
CONTINUOUS
 10
12.8174724106
 20
2.5895573696
 40
0.0024749995
100
AcDbArc
 50
89.9999571957
 51
180.0000428043
  0
LINE
  5
2AC
100
AcDbEntity
  8
0
100
AcDbLine
 62
2
  6
CONTINUOUS
 10
12.8174724125
 20
2.5920323691
 11
12.8914734535
 21
2.5920323691
  0
ARC
  5
2AD
100
AcDbEntity
  8
0
100
AcDbCircle
 62
2
  6
CONTINUOUS
 10
12.8914734553
 20
2.5895573696
 40
0.0024749995
100
AcDbArc
 50
359.9999571957
 51
90.0000428043
  0
LINE
  5
2AE
100
AcDbEntity
  8
0
100
AcDbLine
 62
2
  6
CONTINUOUS
 10
12.8939484549
 20
2.5895573678
 11
12.8939484549
 21
2.5697573568
  0
ARC
  5
2AF
100
AcDbEntity
  8
0
100
AcDbCircle
 62
2
  6
CONTINUOUS
 10
12.8914734553
 20
2.5697573549
 40
0.0024749995
100
AcDbArc
 50
269.9999571957
 51
0.0000428043
  0
LINE
  5
2B0
100
AcDbEntity
  8
0
100
AcDbLine
 62
2
  6
CONTINUOUS
 10
12.8914734535
 20
2.5672823554
 11
12.8735404436
 21
2.5672823554
  0
ARC
  5
2B1
100
AcDbEntity
  8
0
100
AcDbCircle
 62
2
  6
CONTINUOUS
 10
12.8735404417
 20
2.5648073559
 40
0.0024749995
100
AcDbArc
 50
89.9999571957
 51
180.0000428043
  0
LINE
  5
2B2
100
AcDbEntity
  8
0
100
AcDbLine
 62
2
  6
CONTINUOUS
 10
12.8710654422
 20
2.564807354
 11
12.8710654422
 21
2.4937023146
  0
ARC
  5
2B3
100
AcDbEntity
  8
0
100
AcDbCircle
 62
2
  6
CONTINUOUS
 10
12.8685904427
 20
2.4937023128
 40
0.0024749995
100
AcDbArc
 50
269.9999571957
 51
0.0000428043
  0
LINE
  5
2B4
100
AcDbEntity
  8
0
100
AcDbLine
 62
2
  6
CONTINUOUS
 10
12.8685904408
 20
2.4912273132
 11
12.7943853997
 21
2.4912273132
  0
ARC
  5
2B5
100
AcDbEntity
  8
0
100
AcDbCircle
 62
2
  6
CONTINUOUS
 10
12.7943847649
 20
2.4937027294
 40
0.0024754162
100
AcDbArc
 50
226.3593695813
 51
270.0146919953
  0
LINE
  5
2B6
100
AcDbEntity
  8
0
100
AcDbLine
 62
2
  6
CONTINUOUS
 10
12.7926763987
 20
2.4919113136
 11
12.7293963636
 21
2.5522893471
  0
ARC
  5
2B7
100
AcDbEntity
  8
0
100
AcDbCircle
 62
2
  6
CONTINUOUS
 10
12.7276876627
 20
2.5504984093
 40
0.0024753014
100
AcDbArc
 50
46.3461263059
 51
180.0014637321
  0
LINE
  5
2B8
100
AcDbEntity
  8
0
100
AcDbLine
 62
2
  6
CONTINUOUS
 10
12.7252123613
 20
2.5504983461
 11
12.7252123613
 21
2.5184523283
  0
ARC
  5
2B9
100
AcDbEntity
  8
0
100
AcDbCircle
 62
2
  6
CONTINUOUS
 10
12.7276873608
 20
2.5184523265
 40
0.0024749995
100
AcDbArc
 50
179.9999571957
 51
270.0000428043
  0
LINE
  5
2BA
100
AcDbEntity
  8
0
100
AcDbLine
 62
2
  6
CONTINUOUS
 10
12.7276873627
 20
2.515977327
 11
12.7480043739
 21
2.515977327
  0
ARC
  5
2BB
100
AcDbEntity
  8
0
100
AcDbCircle
 62
2
  6
CONTINUOUS
 10
12.7480043758
 20
2.5135023274
 40
0.0024749995
100
AcDbArc
 50
359.9999571957
 51
90.0000428043
  0
LINE
  5
2BC
100
AcDbEntity
  8
0
100
AcDbLine
 62
2
  6
CONTINUOUS
 10
12.7504793753
 20
2.5135023256
 11
12.7504793753
 21
2.4937023146
  0
ARC
  5
2BD
100
AcDbEntity
  8
0
100
AcDbCircle
 62
2
  6
CONTINUOUS
 10
12.7480043758
 20
2.4937023128
 40
0.0024749995
100
AcDbArc
 50
269.9999571957
 51
0.0000428043
  0
LINE
  5
2BE
100
AcDbEntity
  8
0
100
AcDbLine
 62
2
  6
CONTINUOUS
 10
12.7480043739
 20
2.4912273132
 11
12.672340332
 21
2.4912273132
  0
ARC
  5
2BF
100
AcDbEntity
  8
0
100
AcDbCircle
 62
2
  6
CONTINUOUS
 10
12.6723403301
 20
2.4937023128
 40
0.0024749995
100
AcDbArc
 50
179.9999571957
 51
270.0000428043
  0
LINE
  5
2C0
100
AcDbEntity
  8
0
100
AcDbLine
 62
2
  6
CONTINUOUS
 10
12.6698653306
 20
2.4937023146
 11
12.6698653306
 21
2.5135023256
  0
ARC
  5
2C1
100
AcDbEntity
  8
0
100
AcDbCircle
 62
2
  6
CONTINUOUS
 10
12.6723403301
 20
2.5135023274
 40
0.0024749995
100
AcDbArc
 50
89.9999571957
 51
180.0000428043
  0
LINE
  5
2C2
100
AcDbEntity
  8
0
100
AcDbLine
 62
2
  6
CONTINUOUS
 10
12.672340332
 20
2.515977327
 11
12.6909873423
 21
2.515977327
  0
ARC
  5
2C3
100
AcDbEntity
  8
0
100
AcDbCircle
 62
2
  6
CONTINUOUS
 10
12.6909873442
 20
2.5184523265
 40
0.0024749995
100
AcDbArc
 50
269.9999571957
 51
0.0000428043
  0
LINE
  5
2C4
100
AcDbEntity
  8
0
100
AcDbLine
 62
2
  6
CONTINUOUS
 10
12.6934623437
 20
2.5184523283
 11
12.6934623437
 21
2.564807354
  0
ARC
  5
2C5
100
AcDbEntity
  8
0
100
AcDbCircle
 62
2
  6
CONTINUOUS
 10
12.6909873442
 20
2.5648073559
 40
0.0024749995
100
AcDbArc
 50
359.9999571957
 51
90.0000428043
  0
LINE
  5
2C6
100
AcDbEntity
  8
0
100
AcDbLine
 62
2
  6
CONTINUOUS
 10
12.6909873423
 20
2.5672823554
 11
12.672340332
 21
2.5672823554
  0
ARC
  5
2C7
100
AcDbEntity
  8
0
100
AcDbCircle
 62
2
  6
CONTINUOUS
 10
12.6723403301
 20
2.5697573549
 40
0.0024749995
100
AcDbArc
 50
179.9999571957
 51
270.0000428043
  0
LINE
  5
2C8
100
AcDbEntity
  8
0
100
AcDbLine
 62
2
  6
CONTINUOUS
 10
12.6698653306
 20
2.5697573568
 11
12.6698653306
 21
2.5895573678
  0
ARC
  5
2C9
100
AcDbEntity
  8
0
100
AcDbCircle
 62
2
  6
CONTINUOUS
 10
12.6723403301
 20
2.5895573696
 40
0.0024749995
100
AcDbArc
 50
89.9999571957
 51
180.0000428043
  0
LINE
  5
2CA
100
AcDbEntity
  8
0
100
AcDbLine
 62
2
  6
CONTINUOUS
 10
12.5246402501
 20
2.5655893545
 11
12.5175232461
 21
2.5543723483
  0
ARC
  5
2CB
100
AcDbEntity
  8
0
100
AcDbCircle
 62
2
  6
CONTINUOUS
 10
12.519613138
 20
2.5530463862
 40
0.0024750401
100
AcDbArc
 50
147.6063258012
 51
270.0025305754
  0
LINE
  5
2CC
100
AcDbEntity
  8
0
100
AcDbLine
 62
2
  6
CONTINUOUS
 10
12.5196132473
 20
2.5505713461
 11
12.5401702587
 21
2.5505713461
  0
ARC
  5
2CD
100
AcDbEntity
  8
0
100
AcDbCircle
 62
2
  6
CONTINUOUS
 10
12.5401702375
 20
2.5530465533
 40
0.0024752071
100
AcDbArc
 50
270.0004896793
 51
32.9089806818
  0
LINE
  5
2CE
100
AcDbEntity
  8
0
100
AcDbLine
 62
2
  6
CONTINUOUS
 10
12.5422482598
 20
2.5543913483
 11
12.5349892558
 21
2.5656073545
  0
ARC
  5
2CF
100
AcDbEntity
  8
0
100
AcDbCircle
 62
2
  6
CONTINUOUS
 10
12.532910715
 20
2.564262895
 40
0.0024754602
100
AcDbArc
 50
32.8959418573
 51
89.9875097202
  0
LINE
  5
2D0
100
AcDbEntity
  8
0
100
AcDbLine
 62
2
  6
CONTINUOUS
 10
12.5329112547
 20
2.5667383551
 11
12.5267302512
 21
2.5667383551
  0
ARC
  5
2D1
100
AcDbEntity
  8
0
100
AcDbCircle
 62
2
  6
CONTINUOUS
 10
12.5267301809
 20
2.5642631548
 40
0.0024752003
100
AcDbArc
 50
89.998372645
 51
147.602165307
  0
LINE
  5
2D2
100
AcDbEntity
  8
0
100
AcDbLine
 62
2
  6
CONTINUOUS
 10
12.548053263
 20
2.5284903339
 11
12.5536792662
 21
2.5197973291
  0
ARC
  5
2D3
100
AcDbEntity
  8
0
100
AcDbCircle
 62
2
  6
CONTINUOUS
 10
12.5516012439
 20
2.5184525341
 40
0.0024752071
100
AcDbArc
 50
270.0004896794
 51
32.9089806818
  0
LINE
  5
2D4
100
AcDbEntity
  8
0
100
AcDbLine
 62
2
  6
CONTINUOUS
 10
12.551601265
 20
2.515977327
 11
12.537150257
 21
2.515977327
  0
ARC
  5
2D5
100
AcDbEntity
  8
0
100
AcDbCircle
 62
2
  6
CONTINUOUS
 10
12.5371502552
 20
2.5135023274
 40
0.0024749995
100
AcDbArc
 50
89.9999571957
 51
180.0000428043
  0
LINE
  5
2D6
100
AcDbEntity
  8
0
100
AcDbLine
 62
2
  6
CONTINUOUS
 10
12.5346752556
 20
2.5135023256
 11
12.5346752556
 21
2.4937023146
  0
ARC
  5
2D7
100
AcDbEntity
  8
0
100
AcDbCircle
 62
2
  6
CONTINUOUS
 10
12.5371502552
 20
2.4937023128
 40
0.0024749995
100
AcDbArc
 50
179.9999571957
 51
270.0000428043
  0
LINE
  5
2D8
100
AcDbEntity
  8
0
100
AcDbLine
 62
2
  6
CONTINUOUS
 10
12.537150257
 20
2.4912273132
 11
12.6424313154
 21
2.4912273132
  0
ARC
  5
2D9
100
AcDbEntity
  8
0
100
AcDbCircle
 62
2
  6
CONTINUOUS
 10
12.6424313172
 20
2.4937023128
 40
0.0024749995
100
AcDbArc
 50
269.9999571957
 51
0.0000428043
  0
LINE
  5
2DA
100
AcDbEntity
  8
0
100
AcDbLine
 62
2
  6
CONTINUOUS
 10
12.6449063168
 20
2.4937023146
 11
12.6449063168
 21
2.5135023256
  0
ARC
  5
2DB
100
AcDbEntity
  8
0
100
AcDbCircle
 62
2
  6
CONTINUOUS
 10
12.6424313172
 20
2.5135023274
 40
0.0024749995
100
AcDbArc
 50
359.9999571957
 51
90.0000428043
  0
LINE
  5
2DC
100
AcDbEntity
  8
0
100
AcDbLine
 62
2
  6
CONTINUOUS
 10
12.6424313154
 20
2.515977327
 11
12.6224153043
 21
2.515977327
  0
ARC
  5
2DD
100
AcDbEntity
  8
0
100
AcDbCircle
 62
2
  6
CONTINUOUS
 10
12.6224154248
 20
2.518451368
 40
0.002474041
100
AcDbArc
 50
212.9056413127
 51
269.9972091756
  0
LINE
  5
2DE
100
AcDbEntity
  8
0
100
AcDbLine
 62
2
  6
CONTINUOUS
 10
12.6203383031
 20
2.5171073276
 11
12.5725822767
 21
2.5909023685
  0
ARC
  5
2DF
100
AcDbEntity
  8
0
100
AcDbCircle
 62
2
  6
CONTINUOUS
 10
12.570504655
 20
2.589557409
 40
0.0024749602
100
AcDbArc
 50
32.9172174468
 51
90.0087853097
  0
LINE
  5
2E0
100
AcDbEntity
  8
0
100
AcDbLine
 62
2
  6
CONTINUOUS
 10
12.5705042755
 20
2.5920323691
 11
12.5133292438
 21
2.5920323691
  0
ARC
  5
2E1
100
AcDbEntity
  8
0
100
AcDbCircle
 62
2
  6
CONTINUOUS
 10
12.5133291735
 20
2.5895571688
 40
0.0024752003
100
AcDbArc
 50
89.9983726451
 51
147.602165307
  0
LINE
  5
2E2
100
AcDbEntity
  8
0
100
AcDbLine
 62
2
  6
CONTINUOUS
 10
12.5112392426
 20
2.5908833685
 11
12.4644392167
 21
2.5171263276
  0
ARC
  5
2E3
100
AcDbEntity
  8
0
100
AcDbCircle
 62
2
  6
CONTINUOUS
 10
12.4623492858
 20
2.5184525273
 40
0.0024752003
100
AcDbArc
 50
269.9983726451
 51
327.602165307
  0
LINE
  5
2E4
100
AcDbEntity
  8
0
100
AcDbLine
 62
2
  6
CONTINUOUS
 10
12.4623492155
 20
2.515977327
 11
12.4394882028
 21
2.515977327
  0
ARC
  5
2E5
100
AcDbEntity
  8
0
100
AcDbCircle
 62
2
  6
CONTINUOUS
 10
12.439488201
 20
2.5135023274
 40
0.0024749995
100
AcDbArc
 50
89.9999571957
 51
180.0000428043
  0
LINE
  5
2E6
100
AcDbEntity
  8
0
100
AcDbLine
 62
2
  6
CONTINUOUS
 10
12.4370132015
 20
2.5135023256
 11
12.4370132015
 21
2.4937023146
  0
ARC
  5
2E7
100
AcDbEntity
  8
0
100
AcDbCircle
 62
2
  6
CONTINUOUS
 10
12.439488201
 20
2.4937023128
 40
0.0024749995
100
AcDbArc
 50
179.9999571957
 51
270.0000428043
  0
LINE
  5
2E8
100
AcDbEntity
  8
0
100
AcDbLine
 62
2
  6
CONTINUOUS
 10
12.4394882028
 20
2.4912273132
 11
12.5168642458
 21
2.4912273132
  0
ARC
  5
2E9
100
AcDbEntity
  8
0
100
AcDbCircle
 62
2
  6
CONTINUOUS
 10
12.5168642476
 20
2.4937023128
 40
0.0024749995
100
AcDbArc
 50
269.9999571957
 51
0.0000428043
  0
LINE
  5
2EA
100
AcDbEntity
  8
0
100
AcDbLine
 62
2
  6
CONTINUOUS
 10
12.5193392471
 20
2.4937023146
 11
12.5193392471
 21
2.5135023256
  0
ARC
  5
2EB
100
AcDbEntity
  8
0
100
AcDbCircle
 62
2
  6
CONTINUOUS
 10
12.5168642476
 20
2.5135023274
 40
0.0024749995
100
AcDbArc
 50
359.9999571957
 51
90.0000428043
  0
LINE
  5
2EC
100
AcDbEntity
  8
0
100
AcDbLine
 62
2
  6
CONTINUOUS
 10
12.5168642458
 20
2.515977327
 11
12.5055812395
 21
2.515977327
  0
ARC
  5
2ED
100
AcDbEntity
  8
0
100
AcDbCircle
 62
2
  6
CONTINUOUS
 10
12.5055811302
 20
2.518452367
 40
0.0024750401
100
AcDbArc
 50
147.6063258011
 51
270.0025305754
  0
LINE
  5
2EE
100
AcDbEntity
  8
0
100
AcDbLine
 62
2
  6
CONTINUOUS
 10
12.5034912383
 20
2.5197783291
 11
12.5090072414
 21
2.5284723339
  0
ARC
  5
2EF
100
AcDbEntity
  8
0
100
AcDbCircle
 62
2
  6
CONTINUOUS
 10
12.5110971723
 20
2.5271461342
 40
0.0024752003
100
AcDbArc
 50
89.998372645
 51
147.602165307
  0
LINE
  5
2F0
100
AcDbEntity
  8
0
100
AcDbLine
 62
2
  6
CONTINUOUS
 10
12.5110972426
 20
2.5296213345
 11
12.5459752619
 21
2.5296213345
  0
ARC
  5
2F1
100
AcDbEntity
  8
0
100
AcDbCircle
 62
2
  6
CONTINUOUS
 10
12.5459747223
 20
2.5271458744
 40
0.0024754602
100
AcDbArc
 50
32.8959418573
 51
89.9875097202
  0
LINE
  5
2F2
100
AcDbEntity
  8
0
100
AcDbLine
 62
2
  6
CONTINUOUS
 10
12.9205934696
 20
2.5920323691
 11
13.0210515254
 21
2.5920323691
  0
ARC
  5
2F3
100
AcDbEntity
  8
0
100
AcDbCircle
 62
2
  6
CONTINUOUS
 10
13.0210516601
 20
2.5895582013
 40
0.0024741678
100
AcDbArc
 50
46.3477981899
 51
90.0031206038
  0
LINE
  5
2F4
100
AcDbEntity
  8
0
100
AcDbLine
 62
2
  6
CONTINUOUS
 10
13.0227595263
 20
2.5913483688
 11
13.0827925596
 21
2.534068337
  0
ARC
  5
2F5
100
AcDbEntity
  8
0
100
AcDbCircle
 62
2
  6
CONTINUOUS
 10
13.0845012605
 20
2.5358592748
 40
0.0024753014
100
AcDbArc
 50
226.3461263059
 51
0.0014637321
  0
LINE
  5
2F6
100
AcDbEntity
  8
0
100
AcDbLine
 62
2
  6
CONTINUOUS
 10
13.0869765619
 20
2.535859338
 11
13.0869765619
 21
2.564807354
  0
ARC
  5
2F7
100
AcDbEntity
  8
0
100
AcDbCircle
 62
2
  6
CONTINUOUS
 10
13.0845015624
 20
2.5648073559
 40
0.0024749995
100
AcDbArc
 50
359.9999571957
 51
90.0000428043
  0
LINE
  5
2F8
100
AcDbEntity
  8
0
100
AcDbLine
 62
2
  6
CONTINUOUS
 10
13.0845015605
 20
2.5672823554
 11
13.0657255501
 21
2.5672823554
  0
ARC
  5
2F9
100
AcDbEntity
  8
0
100
AcDbCircle
 62
2
  6
CONTINUOUS
 10
13.0657255483
 20
2.5697573549
 40
0.0024749995
100
AcDbArc
 50
179.9999571957
 51
270.0000428043
  0
LINE
  5
2FA
100
AcDbEntity
  8
0
100
AcDbLine
 62
2
  6
CONTINUOUS
 10
13.0632505488
 20
2.5697573568
 11
13.0632505488
 21
2.5895573678
  0
ARC
  5
2FB
100
AcDbEntity
  8
0
100
AcDbCircle
 62
2
  6
CONTINUOUS
 10
13.0657255483
 20
2.5895573696
 40
0.0024749995
100
AcDbArc
 50
89.9999571957
 51
180.0000428043
  0
LINE
  5
2FC
100
AcDbEntity
  8
0
100
AcDbLine
 62
2
  6
CONTINUOUS
 10
13.0657255501
 20
2.5920323691
 11
13.1397265912
 21
2.5920323691
  0
ARC
  5
2FD
100
AcDbEntity
  8
0
100
AcDbCircle
 62
2
  6
CONTINUOUS
 10
13.139726593
 20
2.5895573696
 40
0.0024749995
100
AcDbArc
 50
359.9999571957
 51
90.0000428043
  0
LINE
  5
2FE
100
AcDbEntity
  8
0
100
AcDbLine
 62
2
  6
CONTINUOUS
 10
13.1422015925
 20
2.5895573678
 11
13.1422015925
 21
2.5697573568
  0
ARC
  5
2FF
100
AcDbEntity
  8
0
100
AcDbCircle
 62
2
  6
CONTINUOUS
 10
13.139726593
 20
2.5697573549
 40
0.0024749995
100
AcDbArc
 50
269.9999571957
 51
0.0000428042
  0
LINE
  5
300
100
AcDbEntity
  8
0
100
AcDbLine
 62
2
  6
CONTINUOUS
 10
13.1397265912
 20
2.5672823554
 11
13.1217935812
 21
2.5672823554
  0
ARC
  5
301
100
AcDbEntity
  8
0
100
AcDbCircle
 62
2
  6
CONTINUOUS
 10
13.1217935794
 20
2.5648073559
 40
0.0024749995
100
AcDbArc
 50
89.9999571957
 51
180.0000428042
  0
LINE
  5
302
100
AcDbEntity
  8
0
100
AcDbLine
 62
2
  6
CONTINUOUS
 10
13.1193185799
 20
2.564807354
 11
13.1193185799
 21
2.4937023146
  0
ARC
  5
303
100
AcDbEntity
  8
0
100
AcDbCircle
 62
2
  6
CONTINUOUS
 10
13.1168435803
 20
2.4937023128
 40
0.0024749995
100
AcDbArc
 50
269.9999571957
 51
0.0000428043
  0
LINE
  5
304
100
AcDbEntity
  8
0
100
AcDbLine
 62
2
  6
CONTINUOUS
 10
13.1168435785
 20
2.4912273132
 11
13.0426375373
 21
2.4912273132
  0
ARC
  5
305
100
AcDbEntity
  8
0
100
AcDbCircle
 62
2
  6
CONTINUOUS
 10
13.0426374026
 20
2.493701481
 40
0.0024741678
100
AcDbArc
 50
226.3477981898
 51
270.0031206038
  0
LINE
  5
306
100
AcDbEntity
  8
0
100
AcDbLine
 62
2
  6
CONTINUOUS
 10
13.0409295364
 20
2.4919113136
 11
12.9776495013
 21
2.5522893471
  0
ARC
  5
307
100
AcDbEntity
  8
0
100
AcDbCircle
 62
2
  6
CONTINUOUS
 10
12.9759408003
 20
2.5504984093
 40
0.0024753014
100
AcDbArc
 50
46.3461263059
 51
180.0014637321
  0
LINE
  5
308
100
AcDbEntity
  8
0
100
AcDbLine
 62
2
  6
CONTINUOUS
 10
12.973465499
 20
2.5504983461
 11
12.973465499
 21
2.5184523283
  0
ARC
  5
309
100
AcDbEntity
  8
0
100
AcDbCircle
 62
2
  6
CONTINUOUS
 10
12.9759404985
 20
2.5184523265
 40
0.0024749995
100
AcDbArc
 50
179.9999571957
 51
270.0000428043
  0
LINE
  5
30A
100
AcDbEntity
  8
0
100
AcDbLine
 62
2
  6
CONTINUOUS
 10
12.9759405003
 20
2.515977327
 11
12.9962575116
 21
2.515977327
  0
ARC
  5
30B
100
AcDbEntity
  8
0
100
AcDbCircle
 62
2
  6
CONTINUOUS
 10
12.9962575135
 20
2.5135023274
 40
0.0024749995
100
AcDbArc
 50
359.9999571957
 51
90.0000428043
  0
LINE
  5
30C
100
AcDbEntity
  8
0
100
AcDbLine
 62
2
  6
CONTINUOUS
 10
12.998732513
 20
2.5135023256
 11
12.998732513
 21
2.4937023146
  0
ARC
  5
30D
100
AcDbEntity
  8
0
100
AcDbCircle
 62
2
  6
CONTINUOUS
 10
12.9962575135
 20
2.4937023128
 40
0.0024749995
100
AcDbArc
 50
269.9999571957
 51
0.0000428043
  0
LINE
  5
30E
100
AcDbEntity
  8
0
100
AcDbLine
 62
2
  6
CONTINUOUS
 10
12.9962575116
 20
2.4912273132
 11
12.9205934696
 21
2.4912273132
  0
ARC
  5
30F
100
AcDbEntity
  8
0
100
AcDbCircle
 62
2
  6
CONTINUOUS
 10
12.9205934678
 20
2.4937023128
 40
0.0024749995
100
AcDbArc
 50
179.9999571957
 51
270.0000428043
  0
LINE
  5
310
100
AcDbEntity
  8
0
100
AcDbLine
 62
2
  6
CONTINUOUS
 10
12.9181184683
 20
2.4937023146
 11
12.9181184683
 21
2.5135023256
  0
ARC
  5
311
100
AcDbEntity
  8
0
100
AcDbCircle
 62
2
  6
CONTINUOUS
 10
12.9205934678
 20
2.5135023274
 40
0.0024749995
100
AcDbArc
 50
89.9999571957
 51
180.0000428042
  0
LINE
  5
312
100
AcDbEntity
  8
0
100
AcDbLine
 62
2
  6
CONTINUOUS
 10
12.9205934696
 20
2.515977327
 11
12.93923948
 21
2.515977327
  0
ARC
  5
313
100
AcDbEntity
  8
0
100
AcDbCircle
 62
2
  6
CONTINUOUS
 10
12.9392394818
 20
2.5184523265
 40
0.0024749995
100
AcDbArc
 50
269.9999571957
 51
0.0000428043
  0
LINE
  5
314
100
AcDbEntity
  8
0
100
AcDbLine
 62
2
  6
CONTINUOUS
 10
12.9417144814
 20
2.5184523283
 11
12.9417144814
 21
2.564807354
  0
ARC
  5
315
100
AcDbEntity
  8
0
100
AcDbCircle
 62
2
  6
CONTINUOUS
 10
12.9392394818
 20
2.5648073559
 40
0.0024749995
100
AcDbArc
 50
359.9999571957
 51
90.0000428043
  0
LINE
  5
316
100
AcDbEntity
  8
0
100
AcDbLine
 62
2
  6
CONTINUOUS
 10
12.93923948
 20
2.5672823554
 11
12.9205934696
 21
2.5672823554
  0
ARC
  5
317
100
AcDbEntity
  8
0
100
AcDbCircle
 62
2
  6
CONTINUOUS
 10
12.9205934678
 20
2.5697573549
 40
0.0024749995
100
AcDbArc
 50
179.9999571957
 51
270.0000428043
  0
LINE
  5
318
100
AcDbEntity
  8
0
100
AcDbLine
 62
2
  6
CONTINUOUS
 10
12.9181184683
 20
2.5697573568
 11
12.9181184683
 21
2.5895573678
  0
ARC
  5
319
100
AcDbEntity
  8
0
100
AcDbCircle
 62
2
  6
CONTINUOUS
 10
12.9205934678
 20
2.5895573696
 40
0.0024749995
100
AcDbArc
 50
89.9999571957
 51
180.0000428042
  0
LINE
  5
31A
100
AcDbEntity
  8
0
100
AcDbLine
 62
2
  6
CONTINUOUS
 10
13.2934226764
 20
2.5324773361
 11
13.2582556569
 21
2.5324773361
  0
ARC
  5
31B
100
AcDbEntity
  8
0
100
AcDbCircle
 62
2
  6
CONTINUOUS
 10
13.2582556551
 20
2.5300023366
 40
0.0024749995
100
AcDbArc
 50
89.9999571957
 51
180.0000428043
  0
LINE
  5
31C
100
AcDbEntity
  8
0
100
AcDbLine
 62
2
  6
CONTINUOUS
 10
13.2557806555
 20
2.5300023347
 11
13.2557806555
 21
2.5184523283
  0
ARC
  5
31D
100
AcDbEntity
  8
0
100
AcDbCircle
 62
2
  6
CONTINUOUS
 10
13.2582556551
 20
2.5184523265
 40
0.0024749995
100
AcDbArc
 50
179.9999571957
 51
270.0000428043
  0
LINE
  5
31E
100
AcDbEntity
  8
0
100
AcDbLine
 62
2
  6
CONTINUOUS
 10
13.2582556569
 20
2.515977327
 11
13.3232596929
 21
2.515977327
  0
ARC
  5
31F
100
AcDbEntity
  8
0
100
AcDbCircle
 62
2
  6
CONTINUOUS
 10
13.3232596948
 20
2.5184523265
 40
0.0024749995
100
AcDbArc
 50
269.9999571957
 51
0.0000428043
  0
LINE
  5
320
100
AcDbEntity
  8
0
100
AcDbLine
 62
2
  6
CONTINUOUS
 10
13.3257346943
 20
2.5184523283
 11
13.3257346943
 21
2.5267023329
  0
ARC
  5
321
100
AcDbEntity
  8
0
100
AcDbCircle
 62
2
  6
CONTINUOUS
 10
13.3282096938
 20
2.5267023348
 40
0.0024749995
100
AcDbArc
 50
89.9999571957
 51
180.0000428043
  0
LINE
  5
322
100
AcDbEntity
  8
0
100
AcDbLine
 62
2
  6
CONTINUOUS
 10
13.3282096957
 20
2.5291773343
 11
13.3705287192
 21
2.5291773343
  0
ARC
  5
323
100
AcDbEntity
  8
0
100
AcDbCircle
 62
2
  6
CONTINUOUS
 10
13.370528721
 20
2.5267023348
 40
0.0024749995
100
AcDbArc
 50
359.9999571957
 51
90.0000428043
  0
LINE
  5
324
100
AcDbEntity
  8
0
100
AcDbLine
 62
2
  6
CONTINUOUS
 10
13.3730037205
 20
2.5267023329
 11
13.3730037205
 21
2.4937023146
  0
ARC
  5
325
100
AcDbEntity
  8
0
100
AcDbCircle
 62
2
  6
CONTINUOUS
 10
13.370528721
 20
2.4937023128
 40
0.0024749995
100
AcDbArc
 50
269.9999571957
 51
0.0000428043
  0
LINE
  5
326
100
AcDbEntity
  8
0
100
AcDbLine
 62
2
  6
CONTINUOUS
 10
13.3705287192
 20
2.4912273132
 11
13.1673166065
 21
2.4912273132
  0
ARC
  5
327
100
AcDbEntity
  8
0
100
AcDbCircle
 62
2
  6
CONTINUOUS
 10
13.1673166046
 20
2.4937023128
 40
0.0024749995
100
AcDbArc
 50
179.9999571957
 51
270.0000428043
  0
LINE
  5
328
100
AcDbEntity
  8
0
100
AcDbLine
 62
2
  6
CONTINUOUS
 10
13.1648416051
 20
2.4937023146
 11
13.1648416051
 21
2.5135023256
  0
ARC
  5
329
100
AcDbEntity
  8
0
100
AcDbCircle
 62
2
  6
CONTINUOUS
 10
13.1673166046
 20
2.5135023274
 40
0.0024749995
100
AcDbArc
 50
89.9999571957
 51
180.0000428043
  0
LINE
  5
32A
100
AcDbEntity
  8
0
100
AcDbLine
 62
2
  6
CONTINUOUS
 10
13.1673166065
 20
2.515977327
 11
13.1912396197
 21
2.515977327
  0
ARC
  5
32B
100
AcDbEntity
  8
0
100
AcDbCircle
 62
2
  6
CONTINUOUS
 10
13.1912396216
 20
2.5184523265
 40
0.0024749995
100
AcDbArc
 50
269.9999571957
 51
0.0000428042
  0
LINE
  5
32C
100
AcDbEntity
  8
0
100
AcDbLine
 62
2
  6
CONTINUOUS
 10
13.1937146211
 20
2.5184523283
 11
13.1937146211
 21
2.564807354
  0
ARC
  5
32D
100
AcDbEntity
  8
0
100
AcDbCircle
 62
2
  6
CONTINUOUS
 10
13.1912396216
 20
2.5648073559
 40
0.0024749995
100
AcDbArc
 50
359.9999571957
 51
90.0000428043
  0
LINE
  5
32E
100
AcDbEntity
  8
0
100
AcDbLine
 62
2
  6
CONTINUOUS
 10
13.1912396197
 20
2.5672823554
 11
13.1673166065
 21
2.5672823554
  0
ARC
  5
32F
100
AcDbEntity
  8
0
100
AcDbCircle
 62
2
  6
CONTINUOUS
 10
13.1673166046
 20
2.5697573549
 40
0.0024749995
100
AcDbArc
 50
179.9999571957
 51
270.0000428043
  0
LINE
  5
330
100
AcDbEntity
  8
0
100
AcDbLine
 62
2
  6
CONTINUOUS
 10
13.1648416051
 20
2.5697573568
 11
13.1648416051
 21
2.5895573678
  0
ARC
  5
331
100
AcDbEntity
  8
0
100
AcDbCircle
 62
2
  6
CONTINUOUS
 10
13.1673166046
 20
2.5895573696
 40
0.0024749995
100
AcDbArc
 50
89.9999571957
 51
180.0000428043
  0
LINE
  5
332
100
AcDbEntity
  8
0
100
AcDbLine
 62
2
  6
CONTINUOUS
 10
13.1673166065
 20
2.5920323691
 11
13.3691097184
 21
2.5920323691
  0
ARC
  5
333
100
AcDbEntity
  8
0
100
AcDbCircle
 62
2
  6
CONTINUOUS
 10
13.3691097202
 20
2.5895573696
 40
0.0024749995
100
AcDbArc
 50
359.9999571957
 51
90.0000428043
  0
LINE
  5
334
100
AcDbEntity
  8
0
100
AcDbLine
 62
2
  6
CONTINUOUS
 10
13.3715847197
 20
2.5895573678
 11
13.3715847197
 21
2.5565573495
  0
ARC
  5
335
100
AcDbEntity
  8
0
100
AcDbCircle
 62
2
  6
CONTINUOUS
 10
13.3691097202
 20
2.5565573476
 40
0.0024749995
100
AcDbArc
 50
269.9999571957
 51
0.0000428042
  0
LINE
  5
336
100
AcDbEntity
  8
0
100
AcDbLine
 62
2
  6
CONTINUOUS
 10
13.3691097184
 20
2.5540823481
 11
13.3272456952
 21
2.5540823481
  0
ARC
  5
337
100
AcDbEntity
  8
0
100
AcDbCircle
 62
2
  6
CONTINUOUS
 10
13.3272456933
 20
2.5565573476
 40
0.0024749995
100
AcDbArc
 50
179.9999571957
 51
270.0000428043
  0
LINE
  5
338
100
AcDbEntity
  8
0
100
AcDbLine
 62
2
  6
CONTINUOUS
 10
13.3247706938
 20
2.5565573495
 11
13.3247706938
 21
2.564807354
  0
ARC
  5
339
100
AcDbEntity
  8
0
100
AcDbCircle
 62
2
  6
CONTINUOUS
 10
13.3222956943
 20
2.5648073559
 40
0.0024749995
100
AcDbArc
 50
359.9999571957
 51
90.0000428043
  0
LINE
  5
33A
100
AcDbEntity
  8
0
100
AcDbLine
 62
2
  6
CONTINUOUS
 10
13.3222956924
 20
2.5672823554
 11
13.2582556569
 21
2.5672823554
  0
ARC
  5
33B
100
AcDbEntity
  8
0
100
AcDbCircle
 62
2
  6
CONTINUOUS
 10
13.2582556551
 20
2.5648073559
 40
0.0024749995
100
AcDbArc
 50
89.9999571957
 51
180.0000428043
  0
LINE
  5
33C
100
AcDbEntity
  8
0
100
AcDbLine
 62
2
  6
CONTINUOUS
 10
13.2557806555
 20
2.564807354
 11
13.2557806555
 21
2.5532573476
  0
ARC
  5
33D
100
AcDbEntity
  8
0
100
AcDbCircle
 62
2
  6
CONTINUOUS
 10
13.2582556551
 20
2.5532573458
 40
0.0024749995
100
AcDbArc
 50
179.9999571957
 51
270.0000428043
  0
LINE
  5
33E
100
AcDbEntity
  8
0
100
AcDbLine
 62
2
  6
CONTINUOUS
 10
13.2582556569
 20
2.5507823463
 11
13.2934226764
 21
2.5507823463
  0
ARC
  5
33F
100
AcDbEntity
  8
0
100
AcDbCircle
 62
2
  6
CONTINUOUS
 10
13.2934226783
 20
2.5483073467
 40
0.0024749995
100
AcDbArc
 50
359.9999571957
 51
90.0000428043
  0
LINE
  5
340
100
AcDbEntity
  8
0
100
AcDbLine
 62
2
  6
CONTINUOUS
 10
13.2958976778
 20
2.5483073449
 11
13.2958976778
 21
2.5349523375
  0
ARC
  5
341
100
AcDbEntity
  8
0
100
AcDbCircle
 62
2
  6
CONTINUOUS
 10
13.2934226783
 20
2.5349523356
 40
0.0024749995
100
AcDbArc
 50
269.9999571957
 51
0.0000428042
  0
LINE
  5
342
100
AcDbEntity
  8
0
100
AcDbLine
 62
2
  6
CONTINUOUS
 10
13.7286871589
 20
2.5350697372
 11
13.7286871589
 21
2.5456869438
  0
LINE
  5
343
100
AcDbEntity
  8
0
100
AcDbLine
 62
2
  6
CONTINUOUS
 10
13.7086871478
 20
2.5004302075
 11
13.7086871478
 21
2.5803264735
  0
LINE
  5
344
100
AcDbEntity
  8
0
100
AcDbLine
 62
2
  6
CONTINUOUS
 10
13.6886871368
 20
2.4843919416
 11
13.6886871368
 21
2.5963647394
  0
LINE
  5
345
100
AcDbEntity
  8
0
100
AcDbLine
 62
2
  6
CONTINUOUS
 10
13.6686871257
 20
2.4726017898
 11
13.6686871257
 21
2.6081548911
  0
LINE
  5
346
100
AcDbEntity
  8
0
100
AcDbLine
 62
2
  6
CONTINUOUS
 10
13.6486871146
 20
2.4628062688
 11
13.6486871146
 21
2.6179504122
  0
LINE
  5
347
100
AcDbEntity
  8
0
100
AcDbLine
 62
2
  6
CONTINUOUS
 10
13.6286871035
 20
2.4541253507
 11
13.6286871035
 21
2.5062483056
  0
LINE
  5
348
100
AcDbEntity
  8
0
100
AcDbLine
 62
2
  6
CONTINUOUS
 10
13.6286871035
 20
2.5301143348
 11
13.6286871035
 21
2.6266313303
  0
LINE
  5
349
100
AcDbEntity
  8
0
100
AcDbLine
 62
2
  6
CONTINUOUS
 10
13.6086870924
 20
2.4465537903
 11
13.6086870924
 21
2.4918774918
  0
LINE
  5
34A
100
AcDbEntity
  8
0
100
AcDbLine
 62
2
  6
CONTINUOUS
 10
13.6086870924
 20
2.5165781173
 11
13.6086870924
 21
2.6342028907
  0
LINE
  5
34B
100
AcDbEntity
  8
0
100
AcDbLine
 62
2
  6
CONTINUOUS
 10
13.5886870813
 20
2.4398033466
 11
13.5886870813
 21
2.4912273132
  0
LINE
  5
34C
100
AcDbEntity
  8
0
100
AcDbLine
 62
2
  6
CONTINUOUS
 10
13.5886870813
 20
2.5391840845
 11
13.5886870813
 21
2.5454298327
  0
LINE
  5
34D
100
AcDbEntity
  8
0
100
AcDbLine
 62
2
  6
CONTINUOUS
 10
13.5886870813
 20
2.5862063472
 11
13.5886870813
 21
2.6409533343
  0
LINE
  5
34E
100
AcDbEntity
  8
0
100
AcDbLine
 62
2
  6
CONTINUOUS
 10
13.5686870702
 20
2.4334702189
 11
13.5686870702
 21
2.4912273132
  0
LINE
  5
34F
100
AcDbEntity
  8
0
100
AcDbLine
 62
2
  6
CONTINUOUS
 10
13.5686870702
 20
2.5906587765
 11
13.5686870702
 21
2.647286462
  0
LINE
  5
350
100
AcDbEntity
  8
0
100
AcDbLine
 62
2
  6
CONTINUOUS
 10
13.5486870591
 20
2.4278968124
 11
13.5486870591
 21
2.4937461006
  0
LINE
  5
351
100
AcDbEntity
  8
0
100
AcDbLine
 62
2
  6
CONTINUOUS
 10
13.5486870591
 20
2.5920323691
 11
13.5486870591
 21
2.6528598686
  0
LINE
  5
352
100
AcDbEntity
  8
0
100
AcDbLine
 62
2
  6
CONTINUOUS
 10
13.528687048
 20
2.4225427674
 11
13.528687048
 21
2.5270426993
  0
LINE
  5
353
100
AcDbEntity
  8
0
100
AcDbLine
 62
2
  6
CONTINUOUS
 10
13.528687048
 20
2.5505166259
 11
13.528687048
 21
2.5668657091
  0
LINE
  5
354
100
AcDbEntity
  8
0
100
AcDbLine
 62
2
  6
CONTINUOUS
 10
13.528687048
 20
2.5920323691
 11
13.528687048
 21
2.6582139136
  0
LINE
  5
355
100
AcDbEntity
  8
0
100
AcDbLine
 62
2
  6
CONTINUOUS
 10
13.5086870369
 20
2.4177306791
 11
13.5086870369
 21
2.4912273132
  0
LINE
  5
356
100
AcDbEntity
  8
0
100
AcDbLine
 62
2
  6
CONTINUOUS
 10
13.5086870369
 20
2.5159553269
 11
13.5086870369
 21
2.5306043351
  0
LINE
  5
357
100
AcDbEntity
  8
0
100
AcDbLine
 62
2
  6
CONTINUOUS
 10
13.5086870369
 20
2.5496073456
 11
13.5086870369
 21
2.5672823554
  0
LINE
  5
358
100
AcDbEntity
  8
0
100
AcDbLine
 62
2
  6
CONTINUOUS
 10
13.5086870369
 20
2.5920323691
 11
13.5086870369
 21
2.6630260019
  0
LINE
  5
359
100
AcDbEntity
  8
0
100
AcDbLine
 62
2
  6
CONTINUOUS
 10
13.4886870258
 20
2.4131795254
 11
13.4886870258
 21
2.4912273132
  0
LINE
  5
35A
100
AcDbEntity
  8
0
100
AcDbLine
 62
2
  6
CONTINUOUS
 10
13.4886870258
 20
2.5159553269
 11
13.4886870258
 21
2.5306043351
  0
LINE
  5
35B
100
AcDbEntity
  8
0
100
AcDbLine
 62
2
  6
CONTINUOUS
 10
13.4886870258
 20
2.5496073456
 11
13.4886870258
 21
2.5672823554
  0
LINE
  5
35C
100
AcDbEntity
  8
0
100
AcDbLine
 62
2
  6
CONTINUOUS
 10
13.4886870258
 20
2.5920323691
 11
13.4886870258
 21
2.6675771555
  0
LINE
  5
35D
100
AcDbEntity
  8
0
100
AcDbLine
 62
2
  6
CONTINUOUS
 10
13.4686870147
 20
2.4088819672
 11
13.4686870147
 21
2.4912273132
  0
LINE
  5
35E
100
AcDbEntity
  8
0
100
AcDbLine
 62
2
  6
CONTINUOUS
 10
13.4686870147
 20
2.5920323691
 11
13.4686870147
 21
2.6718747138
  0
LINE
  5
35F
100
AcDbEntity
  8
0
100
AcDbLine
 62
2
  6
CONTINUOUS
 10
13.4486870037
 20
2.4050092072
 11
13.4486870037
 21
2.4912273132
  0
LINE
  5
360
100
AcDbEntity
  8
0
100
AcDbLine
 62
2
  6
CONTINUOUS
 10
13.4486870037
 20
2.5920323691
 11
13.4486870037
 21
2.6757474738
  0
LINE
  5
361
100
AcDbEntity
  8
0
100
AcDbLine
 62
2
  6
CONTINUOUS
 10
13.4286869926
 20
2.4011364471
 11
13.4286869926
 21
2.4912273132
  0
LINE
  5
362
100
AcDbEntity
  8
0
100
AcDbLine
 62
2
  6
CONTINUOUS
 10
13.4286869926
 20
2.5920323691
 11
13.4286869926
 21
2.6796202339
  0
LINE
  5
363
100
AcDbEntity
  8
0
100
AcDbLine
 62
2
  6
CONTINUOUS
 10
13.4086869815
 20
2.3980226662
 11
13.4086869815
 21
2.4912273132
  0
LINE
  5
364
100
AcDbEntity
  8
0
100
AcDbLine
 62
2
  6
CONTINUOUS
 10
13.4086869815
 20
2.515977327
 11
13.4086869815
 21
2.5672823554
  0
LINE
  5
365
100
AcDbEntity
  8
0
100
AcDbLine
 62
2
  6
CONTINUOUS
 10
13.4086869815
 20
2.5920323691
 11
13.4086869815
 21
2.6827340148
  0
LINE
  5
366
100
AcDbEntity
  8
0
100
AcDbLine
 62
2
  6
CONTINUOUS
 10
13.3886869704
 20
2.3950052774
 11
13.3886869704
 21
2.6857514036
  0
LINE
  5
367
100
AcDbEntity
  8
0
100
AcDbLine
 62
2
  6
CONTINUOUS
 10
13.3686869593
 20
2.3919878885
 11
13.3686869593
 21
2.4912273132
  0
LINE
  5
368
100
AcDbEntity
  8
0
100
AcDbLine
 62
2
  6
CONTINUOUS
 10
13.3686869593
 20
2.5291773343
 11
13.3686869593
 21
2.5540823481
  0
LINE
  5
369
100
AcDbEntity
  8
0
100
AcDbLine
 62
2
  6
CONTINUOUS
 10
13.3686869593
 20
2.5920323691
 11
13.3686869593
 21
2.6887687924
  0
LINE
  5
36A
100
AcDbEntity
  8
0
100
AcDbLine
 62
2
  6
CONTINUOUS
 10
13.3486869482
 20
2.3889704997
 11
13.3486869482
 21
2.4912273132
  0
LINE
  5
36B
100
AcDbEntity
  8
0
100
AcDbLine
 62
2
  6
CONTINUOUS
 10
13.3486869482
 20
2.5291773343
 11
13.3486869482
 21
2.5540823481
  0
LINE
  5
36C
100
AcDbEntity
  8
0
100
AcDbLine
 62
2
  6
CONTINUOUS
 10
13.3486869482
 20
2.5920323691
 11
13.3486869482
 21
2.6917861813
  0
LINE
  5
36D
100
AcDbEntity
  8
0
100
AcDbLine
 62
2
  6
CONTINUOUS
 10
13.3286869371
 20
2.3859531109
 11
13.3286869371
 21
2.4912273132
  0
LINE
  5
36E
100
AcDbEntity
  8
0
100
AcDbLine
 62
2
  6
CONTINUOUS
 10
13.3286869371
 20
2.5291773343
 11
13.3286869371
 21
2.5540823481
  0
LINE
  5
36F
100
AcDbEntity
  8
0
100
AcDbLine
 62
2
  6
CONTINUOUS
 10
13.3286869371
 20
2.5920323691
 11
13.3286869371
 21
2.6948035701
  0
LINE
  5
370
100
AcDbEntity
  8
0
100
AcDbLine
 62
2
  6
CONTINUOUS
 10
13.308686926
 20
2.3833355437
 11
13.308686926
 21
2.4912273132
  0
LINE
  5
371
100
AcDbEntity
  8
0
100
AcDbLine
 62
2
  6
CONTINUOUS
 10
13.308686926
 20
2.515977327
 11
13.308686926
 21
2.5672823554
  0
LINE
  5
372
100
AcDbEntity
  8
0
100
AcDbLine
 62
2
  6
CONTINUOUS
 10
13.308686926
 20
2.5920323691
 11
13.308686926
 21
2.6974211373
  0
LINE
  5
373
100
AcDbEntity
  8
0
100
AcDbLine
 62
2
  6
CONTINUOUS
 10
13.2886869149
 20
2.3812612684
 11
13.2886869149
 21
2.4912273132
  0
LINE
  5
374
100
AcDbEntity
  8
0
100
AcDbLine
 62
2
  6
CONTINUOUS
 10
13.2886869149
 20
2.515977327
 11
13.2886869149
 21
2.5324773361
  0
LINE
  5
375
100
AcDbEntity
  8
0
100
AcDbLine
 62
2
  6
CONTINUOUS
 10
13.2886869149
 20
2.5507823463
 11
13.2886869149
 21
2.5672823554
  0
LINE
  5
376
100
AcDbEntity
  8
0
100
AcDbLine
 62
2
  6
CONTINUOUS
 10
13.2886869149
 20
2.5920323691
 11
13.2886869149
 21
2.6994954125
  0
LINE
  5
377
100
AcDbEntity
  8
0
100
AcDbLine
 62
2
  6
CONTINUOUS
 10
13.2686869038
 20
2.3791869932
 11
13.2686869038
 21
2.4912273132
  0
LINE
  5
378
100
AcDbEntity
  8
0
100
AcDbLine
 62
2
  6
CONTINUOUS
 10
13.2686869038
 20
2.515977327
 11
13.2686869038
 21
2.5324773361
  0
LINE
  5
379
100
AcDbEntity
  8
0
100
AcDbLine
 62
2
  6
CONTINUOUS
 10
13.2686869038
 20
2.5507823463
 11
13.2686869038
 21
2.5672823554
  0
LINE
  5
37A
100
AcDbEntity
  8
0
100
AcDbLine
 62
2
  6
CONTINUOUS
 10
13.2686869038
 20
2.5920323691
 11
13.2686869038
 21
2.7015696878
  0
LINE
  5
37B
100
AcDbEntity
  8
0
100
AcDbLine
 62
2
  6
CONTINUOUS
 10
13.2486868927
 20
2.377112718
 11
13.2486868927
 21
2.4912273132
  0
LINE
  5
37C
100
AcDbEntity
  8
0
100
AcDbLine
 62
2
  6
CONTINUOUS
 10
13.2486868927
 20
2.5920323691
 11
13.2486868927
 21
2.703643963
  0
LINE
  5
37D
100
AcDbEntity
  8
0
100
AcDbLine
 62
2
  6
CONTINUOUS
 10
13.2286868817
 20
2.3750384428
 11
13.2286868817
 21
2.4912273132
  0
LINE
  5
37E
100
AcDbEntity
  8
0
100
AcDbLine
 62
2
  6
CONTINUOUS
 10
13.2286868817
 20
2.5920323691
 11
13.2286868817
 21
2.7057182382
  0
LINE
  5
37F
100
AcDbEntity
  8
0
100
AcDbLine
 62
2
  6
CONTINUOUS
 10
13.2086868706
 20
2.3729641676
 11
13.2086868706
 21
2.4912273132
  0
LINE
  5
380
100
AcDbEntity
  8
0
100
AcDbLine
 62
2
  6
CONTINUOUS
 10
13.2086868706
 20
2.5920323691
 11
13.2086868706
 21
2.7077925134
  0
LINE
  5
381
100
AcDbEntity
  8
0
100
AcDbLine
 62
2
  6
CONTINUOUS
 10
13.1886868595
 20
2.3712344456
 11
13.1886868595
 21
2.4912273132
  0
LINE
  5
382
100
AcDbEntity
  8
0
100
AcDbLine
 62
2
  6
CONTINUOUS
 10
13.1886868595
 20
2.515977327
 11
13.1886868595
 21
2.5672823554
  0
LINE
  5
383
100
AcDbEntity
  8
0
100
AcDbLine
 62
2
  6
CONTINUOUS
 10
13.1886868595
 20
2.5920323691
 11
13.1886868595
 21
2.7095222354
  0
LINE
  5
384
100
AcDbEntity
  8
0
100
AcDbLine
 62
2
  6
CONTINUOUS
 10
13.1686868484
 20
2.3699682418
 11
13.1686868484
 21
2.4912273132
  0
LINE
  5
385
100
AcDbEntity
  8
0
100
AcDbLine
 62
2
  6
CONTINUOUS
 10
13.1686868484
 20
2.515977327
 11
13.1686868484
 21
2.5672823554
  0
LINE
  5
386
100
AcDbEntity
  8
0
100
AcDbLine
 62
2
  6
CONTINUOUS
 10
13.1686868484
 20
2.5920323691
 11
13.1686868484
 21
2.7107884392
  0
LINE
  5
387
100
AcDbEntity
  8
0
100
AcDbLine
 62
2
  6
CONTINUOUS
 10
13.1486868373
 20
2.3687020381
 11
13.1486868373
 21
2.7120546429
  0
LINE
  5
388
100
AcDbEntity
  8
0
100
AcDbLine
 62
2
  6
CONTINUOUS
 10
13.1286868262
 20
2.3674358343
 11
13.1286868262
 21
2.5672823554
  0
LINE
  5
389
100
AcDbEntity
  8
0
100
AcDbLine
 62
2
  6
CONTINUOUS
 10
13.1286868262
 20
2.5920323691
 11
13.1286868262
 21
2.7133208466
  0
LINE
  5
38A
100
AcDbEntity
  8
0
100
AcDbLine
 62
2
  6
CONTINUOUS
 10
13.1086868151
 20
2.3661696306
 11
13.1086868151
 21
2.4912273132
  0
LINE
  5
38B
100
AcDbEntity
  8
0
100
AcDbLine
 62
2
  6
CONTINUOUS
 10
13.1086868151
 20
2.5920323691
 11
13.1086868151
 21
2.7145870504
  0
LINE
  5
38C
100
AcDbEntity
  8
0
100
AcDbLine
 62
2
  6
CONTINUOUS
 10
13.088686804
 20
2.3649034269
 11
13.088686804
 21
2.4912273132
  0
LINE
  5
38D
100
AcDbEntity
  8
0
100
AcDbLine
 62
2
  6
CONTINUOUS
 10
13.088686804
 20
2.5920323691
 11
13.088686804
 21
2.7158532541
  0
LINE
  5
38E
100
AcDbEntity
  8
0
100
AcDbLine
 62
2
  6
CONTINUOUS
 10
13.0686867929
 20
2.3636739922
 11
13.0686867929
 21
2.4912273132
  0
LINE
  5
38F
100
AcDbEntity
  8
0
100
AcDbLine
 62
2
  6
CONTINUOUS
 10
13.0686867929
 20
2.5475272398
 11
13.0686867929
 21
2.5672823554
  0
LINE
  5
390
100
AcDbEntity
  8
0
100
AcDbLine
 62
2
  6
CONTINUOUS
 10
13.0686867929
 20
2.5920323691
 11
13.0686867929
 21
2.7170826887
  0
LINE
  5
391
100
AcDbEntity
  8
0
100
AcDbLine
 62
2
  6
CONTINUOUS
 10
13.0486867818
 20
2.363143203
 11
13.0486867818
 21
2.4912273132
  0
LINE
  5
392
100
AcDbEntity
  8
0
100
AcDbLine
 62
2
  6
CONTINUOUS
 10
13.0486867818
 20
2.5666100882
 11
13.0486867818
 21
2.717613478
  0
LINE
  5
393
100
AcDbEntity
  8
0
100
AcDbLine
 62
2
  6
CONTINUOUS
 10
13.0286867707
 20
2.3626124138
 11
13.0286867707
 21
2.50359263
  0
LINE
  5
394
100
AcDbEntity
  8
0
100
AcDbLine
 62
2
  6
CONTINUOUS
 10
13.0286867707
 20
2.5856929366
 11
13.0286867707
 21
2.7181442672
  0
LINE
  5
395
100
AcDbEntity
  8
0
100
AcDbLine
 62
2
  6
CONTINUOUS
 10
13.0086867596
 20
2.3620816246
 11
13.0086867596
 21
2.5226754472
  0
LINE
  5
396
100
AcDbEntity
  8
0
100
AcDbLine
 62
2
  6
CONTINUOUS
 10
13.0086867596
 20
2.5920323691
 11
13.0086867596
 21
2.7186750564
  0
LINE
  5
397
100
AcDbEntity
  8
0
100
AcDbLine
 62
2
  6
CONTINUOUS
 10
12.9886867486
 20
2.3615508354
 11
12.9886867486
 21
2.4912273132
  0
LINE
  5
398
100
AcDbEntity
  8
0
100
AcDbLine
 62
2
  6
CONTINUOUS
 10
12.9886867486
 20
2.515977327
 11
12.9886867486
 21
2.5417582644
  0
LINE
  5
399
100
AcDbEntity
  8
0
100
AcDbLine
 62
2
  6
CONTINUOUS
 10
12.9886867486
 20
2.5920323691
 11
12.9886867486
 21
2.7192058456
  0
LINE
  5
39A
100
AcDbEntity
  8
0
100
AcDbLine
 62
2
  6
CONTINUOUS
 10
12.9686867375
 20
2.3610200462
 11
12.9686867375
 21
2.4912273132
  0
LINE
  5
39B
100
AcDbEntity
  8
0
100
AcDbLine
 62
2
  6
CONTINUOUS
 10
12.9686867375
 20
2.5920323691
 11
12.9686867375
 21
2.7197366348
  0
LINE
  5
39C
100
AcDbEntity
  8
0
100
AcDbLine
 62
2
  6
CONTINUOUS
 10
12.9486867264
 20
2.360489257
 11
12.9486867264
 21
2.4912273132
  0
LINE
  5
39D
100
AcDbEntity
  8
0
100
AcDbLine
 62
2
  6
CONTINUOUS
 10
12.9486867264
 20
2.5920323691
 11
12.9486867264
 21
2.720267424
  0
LINE
  5
39E
100
AcDbEntity
  8
0
100
AcDbLine
 62
2
  6
CONTINUOUS
 10
12.9286867153
 20
2.3602836008
 11
12.9286867153
 21
2.4912273132
  0
LINE
  5
39F
100
AcDbEntity
  8
0
100
AcDbLine
 62
2
  6
CONTINUOUS
 10
12.9286867153
 20
2.515977327
 11
12.9286867153
 21
2.5672823554
  0
LINE
  5
3A0
100
AcDbEntity
  8
0
100
AcDbLine
 62
2
  6
CONTINUOUS
 10
12.9286867153
 20
2.5920323691
 11
12.9286867153
 21
2.7204730802
  0
LINE
  5
3A1
100
AcDbEntity
  8
0
100
AcDbLine
 62
2
  6
CONTINUOUS
 10
12.9086867042
 20
2.3604597639
 11
12.9086867042
 21
2.7202969171
  0
LINE
  5
3A2
100
AcDbEntity
  8
0
100
AcDbLine
 62
2
  6
CONTINUOUS
 10
12.8886866931
 20
2.360635927
 11
12.8886866931
 21
2.5672823554
  0
LINE
  5
3A3
100
AcDbEntity
  8
0
100
AcDbLine
 62
2
  6
CONTINUOUS
 10
12.8886866931
 20
2.5920323691
 11
12.8886866931
 21
2.720120754
  0
LINE
  5
3A4
100
AcDbEntity
  8
0
100
AcDbLine
 62
2
  6
CONTINUOUS
 10
12.868686682
 20
2.3608120901
 11
12.868686682
 21
2.491232357
  0
LINE
  5
3A5
100
AcDbEntity
  8
0
100
AcDbLine
 62
2
  6
CONTINUOUS
 10
12.868686682
 20
2.5920323691
 11
12.868686682
 21
2.7199445909
  0
LINE
  5
3A6
100
AcDbEntity
  8
0
100
AcDbLine
 62
2
  6
CONTINUOUS
 10
12.8486866709
 20
2.3609882532
 11
12.8486866709
 21
2.4912273132
  0
LINE
  5
3A7
100
AcDbEntity
  8
0
100
AcDbLine
 62
2
  6
CONTINUOUS
 10
12.8486866709
 20
2.5920323691
 11
12.8486866709
 21
2.7197684278
  0
LINE
  5
3A8
100
AcDbEntity
  8
0
100
AcDbLine
 62
2
  6
CONTINUOUS
 10
12.8286866598
 20
2.3611644163
 11
12.8286866598
 21
2.4912273132
  0
LINE
  5
3A9
100
AcDbEntity
  8
0
100
AcDbLine
 62
2
  6
CONTINUOUS
 10
12.8286866598
 20
2.5396527025
 11
12.8286866598
 21
2.5672823554
  0
LINE
  5
3AA
100
AcDbEntity
  8
0
100
AcDbLine
 62
2
  6
CONTINUOUS
 10
12.8286866598
 20
2.5920323691
 11
12.8286866598
 21
2.7195922647
  0
LINE
  5
3AB
100
AcDbEntity
  8
0
100
AcDbLine
 62
2
  6
CONTINUOUS
 10
12.8086866487
 20
2.3613405794
 11
12.8086866487
 21
2.4912273132
  0
LINE
  5
3AC
100
AcDbEntity
  8
0
100
AcDbLine
 62
2
  6
CONTINUOUS
 10
12.8086866487
 20
2.5587355508
 11
12.8086866487
 21
2.7194161016
  0
LINE
  5
3AD
100
AcDbEntity
  8
0
100
AcDbLine
 62
2
  6
CONTINUOUS
 10
12.7886866376
 20
2.3621089572
 11
12.7886866376
 21
2.4957181055
  0
LINE
  5
3AE
100
AcDbEntity
  8
0
100
AcDbLine
 62
2
  6
CONTINUOUS
 10
12.7886866376
 20
2.5778183992
 11
12.7886866376
 21
2.7186477238
  0
LINE
  5
3AF
100
AcDbEntity
  8
0
100
AcDbLine
 62
2
  6
CONTINUOUS
 10
12.7686866266
 20
2.3630013935
 11
12.7686866266
 21
2.5148009227
  0
LINE
  5
3B0
100
AcDbEntity
  8
0
100
AcDbLine
 62
2
  6
CONTINUOUS
 10
12.7686866266
 20
2.5920323691
 11
12.7686866266
 21
2.7177552874
  0
LINE
  5
3B1
100
AcDbEntity
  8
0
100
AcDbLine
 62
2
  6
CONTINUOUS
 10
12.7486866155
 20
2.3638938299
 11
12.7486866155
 21
2.4913263218
  0
LINE
  5
3B2
100
AcDbEntity
  8
0
100
AcDbLine
 62
2
  6
CONTINUOUS
 10
12.7486866155
 20
2.5158783184
 11
12.7486866155
 21
2.5338837399
  0
LINE
  5
3B3
100
AcDbEntity
  8
0
100
AcDbLine
 62
2
  6
CONTINUOUS
 10
12.7486866155
 20
2.5920323691
 11
12.7486866155
 21
2.7168628511
  0
LINE
  5
3B4
100
AcDbEntity
  8
0
100
AcDbLine
 62
2
  6
CONTINUOUS
 10
12.7286866044
 20
2.3647862663
 11
12.7286866044
 21
2.4912273132
  0
LINE
  5
3B5
100
AcDbEntity
  8
0
100
AcDbLine
 62
2
  6
CONTINUOUS
 10
12.7286866044
 20
2.515977327
 11
12.7286866044
 21
2.5527601554
  0
LINE
  5
3B6
100
AcDbEntity
  8
0
100
AcDbLine
 62
2
  6
CONTINUOUS
 10
12.7286866044
 20
2.5920323691
 11
12.7286866044
 21
2.7159704147
  0
LINE
  5
3B7
100
AcDbEntity
  8
0
100
AcDbLine
 62
2
  6
CONTINUOUS
 10
12.7086865933
 20
2.3656787026
 11
12.7086865933
 21
2.4912273132
  0
LINE
  5
3B8
100
AcDbEntity
  8
0
100
AcDbLine
 62
2
  6
CONTINUOUS
 10
12.7086865933
 20
2.5920323691
 11
12.7086865933
 21
2.7150779784
  0
LINE
  5
3B9
100
AcDbEntity
  8
0
100
AcDbLine
 62
2
  6
CONTINUOUS
 10
12.6886865822
 20
2.366571139
 11
12.6886865822
 21
2.4912273132
  0
LINE
  5
3BA
100
AcDbEntity
  8
0
100
AcDbLine
 62
2
  6
CONTINUOUS
 10
12.6886865822
 20
2.515977327
 11
12.6886865822
 21
2.5672823554
  0
LINE
  5
3BB
100
AcDbEntity
  8
0
100
AcDbLine
 62
2
  6
CONTINUOUS
 10
12.6886865822
 20
2.5920323691
 11
12.6886865822
 21
2.714185542
  0
LINE
  5
3BC
100
AcDbEntity
  8
0
100
AcDbLine
 62
2
  6
CONTINUOUS
 10
12.6686865711
 20
2.3677104027
 11
12.6686865711
 21
2.7130462783
  0
LINE
  5
3BD
100
AcDbEntity
  8
0
100
AcDbLine
 62
2
  6
CONTINUOUS
 10
12.64868656
 20
2.3693682721
 11
12.64868656
 21
2.7113884089
  0
LINE
  5
3BE
100
AcDbEntity
  8
0
100
AcDbLine
 62
2
  6
CONTINUOUS
 10
12.6286865489
 20
2.3710261415
 11
12.6286865489
 21
2.4912273132
  0
LINE
  5
3BF
100
AcDbEntity
  8
0
100
AcDbLine
 62
2
  6
CONTINUOUS
 10
12.6286865489
 20
2.515977327
 11
12.6286865489
 21
2.7097305395
  0
LINE
  5
3C0
100
AcDbEntity
  8
0
100
AcDbLine
 62
2
  6
CONTINUOUS
 10
12.6086865378
 20
2.372684011
 11
12.6086865378
 21
2.4912273132
  0
LINE
  5
3C1
100
AcDbEntity
  8
0
100
AcDbLine
 62
2
  6
CONTINUOUS
 10
12.6086865378
 20
2.5351122279
 11
12.6086865378
 21
2.70807267
  0
LINE
  5
3C2
100
AcDbEntity
  8
0
100
AcDbLine
 62
2
  6
CONTINUOUS
 10
12.5886865267
 20
2.3743418804
 11
12.5886865267
 21
2.4912273132
  0
LINE
  5
3C3
100
AcDbEntity
  8
0
100
AcDbLine
 62
2
  6
CONTINUOUS
 10
12.5886865267
 20
2.5660172622
 11
12.5886865267
 21
2.7064148006
  0
LINE
  5
3C4
100
AcDbEntity
  8
0
100
AcDbLine
 62
2
  6
CONTINUOUS
 10
12.5686865156
 20
2.3759997498
 11
12.5686865156
 21
2.4912273132
  0
LINE
  5
3C5
100
AcDbEntity
  8
0
100
AcDbLine
 62
2
  6
CONTINUOUS
 10
12.5686865156
 20
2.5920323691
 11
12.5686865156
 21
2.7047569312
  0
LINE
  5
3C6
100
AcDbEntity
  8
0
100
AcDbLine
 62
2
  6
CONTINUOUS
 10
12.5486865045
 20
2.3777575277
 11
12.5486865045
 21
2.4912273132
  0
LINE
  5
3C7
100
AcDbEntity
  8
0
100
AcDbLine
 62
2
  6
CONTINUOUS
 10
12.5486865045
 20
2.515977327
 11
12.5486865045
 21
2.5275118824
  0
LINE
  5
3C8
100
AcDbEntity
  8
0
100
AcDbLine
 62
2
  6
CONTINUOUS
 10
12.5486865045
 20
2.5920323691
 11
12.5486865045
 21
2.7029991533
  0
LINE
  5
3C9
100
AcDbEntity
  8
0
100
AcDbLine
 62
2
  6
CONTINUOUS
 10
12.5286864935
 20
2.3802813811
 11
12.5286864935
 21
2.5296213345
  0
LINE
  5
3CA
100
AcDbEntity
  8
0
100
AcDbLine
 62
2
  6
CONTINUOUS
 10
12.5286864935
 20
2.5505713461
 11
12.5286864935
 21
2.5667383551
  0
LINE
  5
3CB
100
AcDbEntity
  8
0
100
AcDbLine
 62
2
  6
CONTINUOUS
 10
12.5286864935
 20
2.5920323691
 11
12.5286864935
 21
2.7004752999
  0
LINE
  5
3CC
100
AcDbEntity
  8
0
100
AcDbLine
 62
2
  6
CONTINUOUS
 10
12.5086864824
 20
2.3828052346
 11
12.5086864824
 21
2.4912273132
  0
LINE
  5
3CD
100
AcDbEntity
  8
0
100
AcDbLine
 62
2
  6
CONTINUOUS
 10
12.5086864824
 20
2.515977327
 11
12.5086864824
 21
2.5279667721
  0
LINE
  5
3CE
100
AcDbEntity
  8
0
100
AcDbLine
 62
2
  6
CONTINUOUS
 10
12.5086864824
 20
2.5868602074
 11
12.5086864824
 21
2.6979514464
  0
LINE
  5
3CF
100
AcDbEntity
  8
0
100
AcDbLine
 62
2
  6
CONTINUOUS
 10
12.4886864713
 20
2.385329088
 11
12.4886864713
 21
2.4912273132
  0
LINE
  5
3D0
100
AcDbEntity
  8
0
100
AcDbLine
 62
2
  6
CONTINUOUS
 10
12.4886864713
 20
2.5553401045
 11
12.4886864713
 21
2.695427593
  0
LINE
  5
3D1
100
AcDbEntity
  8
0
100
AcDbLine
 62
2
  6
CONTINUOUS
 10
12.4686864602
 20
2.3878529415
 11
12.4686864602
 21
2.4912273132
  0
LINE
  5
3D2
100
AcDbEntity
  8
0
100
AcDbLine
 62
2
  6
CONTINUOUS
 10
12.4686864602
 20
2.5238200015
 11
12.4686864602
 21
2.6929037395
  0
LINE
  5
3D3
100
AcDbEntity
  8
0
100
AcDbLine
 62
2
  6
CONTINUOUS
 10
12.4486864491
 20
2.390376795
 11
12.4486864491
 21
2.4912273132
  0
LINE
  5
3D4
100
AcDbEntity
  8
0
100
AcDbLine
 62
2
  6
CONTINUOUS
 10
12.4486864491
 20
2.515977327
 11
12.4486864491
 21
2.690379886
  0
LINE
  5
3D5
100
AcDbEntity
  8
0
100
AcDbLine
 62
2
  6
CONTINUOUS
 10
12.428686438
 20
2.3931794042
 11
12.428686438
 21
2.6875772768
  0
LINE
  5
3D6
100
AcDbEntity
  8
0
100
AcDbLine
 62
2
  6
CONTINUOUS
 10
12.4086864269
 20
2.3964643301
 11
12.4086864269
 21
2.5013773986
  0
LINE
  5
3D7
100
AcDbEntity
  8
0
100
AcDbLine
 62
2
  6
CONTINUOUS
 10
12.4086864269
 20
2.5325739971
 11
12.4086864269
 21
2.5537224311
  0
LINE
  5
3D8
100
AcDbEntity
  8
0
100
AcDbLine
 62
2
  6
CONTINUOUS
 10
12.4086864269
 20
2.5791473398
 11
12.4086864269
 21
2.6842923509
  0
LINE
  5
3D9
100
AcDbEntity
  8
0
100
AcDbLine
 62
2
  6
CONTINUOUS
 10
12.3886864158
 20
2.399749256
 11
12.3886864158
 21
2.4921022658
  0
LINE
  5
3DA
100
AcDbEntity
  8
0
100
AcDbLine
 62
2
  6
CONTINUOUS
 10
12.3886864158
 20
2.5895929958
 11
12.3886864158
 21
2.681007425
  0
LINE
  5
3DB
100
AcDbEntity
  8
0
100
AcDbLine
 62
2
  6
CONTINUOUS
 10
12.3686864047
 20
2.403451877
 11
12.3686864047
 21
2.4912273132
  0
LINE
  5
3DC
100
AcDbEntity
  8
0
100
AcDbLine
 62
2
  6
CONTINUOUS
 10
12.3686864047
 20
2.5920323691
 11
12.3686864047
 21
2.677304804
  0
LINE
  5
3DD
100
AcDbEntity
  8
0
100
AcDbLine
 62
2
  6
CONTINUOUS
 10
12.3486863936
 20
2.407324637
 11
12.3486863936
 21
2.4912273132
  0
LINE
  5
3DE
100
AcDbEntity
  8
0
100
AcDbLine
 62
2
  6
CONTINUOUS
 10
12.3486863936
 20
2.5920323691
 11
12.3486863936
 21
2.673432044
  0
LINE
  5
3DF
100
AcDbEntity
  8
0
100
AcDbLine
 62
2
  6
CONTINUOUS
 10
12.3286863825
 20
2.4113493968
 11
12.3286863825
 21
2.4912273132
  0
LINE
  5
3E0
100
AcDbEntity
  8
0
100
AcDbLine
 62
2
  6
CONTINUOUS
 10
12.3286863825
 20
2.515977327
 11
12.3286863825
 21
2.5333023366
  0
LINE
  5
3E1
100
AcDbEntity
  8
0
100
AcDbLine
 62
2
  6
CONTINUOUS
 10
12.3286863825
 20
2.5499573458
 11
12.3286863825
 21
2.5672823554
  0
LINE
  5
3E2
100
AcDbEntity
  8
0
100
AcDbLine
 62
2
  6
CONTINUOUS
 10
12.3286863825
 20
2.5920323691
 11
12.3286863825
 21
2.6694072842
  0
LINE
  5
3E3
100
AcDbEntity
  8
0
100
AcDbLine
 62
2
  6
CONTINUOUS
 10
12.3086863715
 20
2.4159005505
 11
12.3086863715
 21
2.4912273132
  0
LINE
  5
3E4
100
AcDbEntity
  8
0
100
AcDbLine
 62
2
  6
CONTINUOUS
 10
12.3086863715
 20
2.515977327
 11
12.3086863715
 21
2.5333023366
  0
LINE
  5
3E5
100
AcDbEntity
  8
0
100
AcDbLine
 62
2
  6
CONTINUOUS
 10
12.3086863715
 20
2.5499573458
 11
12.3086863715
 21
2.5672823554
  0
LINE
  5
3E6
100
AcDbEntity
  8
0
100
AcDbLine
 62
2
  6
CONTINUOUS
 10
12.3086863715
 20
2.5920323691
 11
12.3086863715
 21
2.6648561305
  0
LINE
  5
3E7
100
AcDbEntity
  8
0
100
AcDbLine
 62
2
  6
CONTINUOUS
 10
12.2886863604
 20
2.4204517041
 11
12.2886863604
 21
2.4912273132
  0
LINE
  5
3E8
100
AcDbEntity
  8
0
100
AcDbLine
 62
2
  6
CONTINUOUS
 10
12.2886863604
 20
2.5920323691
 11
12.2886863604
 21
2.6603049769
  0
LINE
  5
3E9
100
AcDbEntity
  8
0
100
AcDbLine
 62
2
  6
CONTINUOUS
 10
12.2686863493
 20
2.4257438218
 11
12.2686863493
 21
2.4912273132
  0
LINE
  5
3EA
100
AcDbEntity
  8
0
100
AcDbLine
 62
2
  6
CONTINUOUS
 10
12.2686863493
 20
2.5920323691
 11
12.2686863493
 21
2.6550128592
  0
LINE
  5
3EB
100
AcDbEntity
  8
0
100
AcDbLine
 62
2
  6
CONTINUOUS
 10
12.2486863382
 20
2.4310978667
 11
12.2486863382
 21
2.4912273132
  0
LINE
  5
3EC
100
AcDbEntity
  8
0
100
AcDbLine
 62
2
  6
CONTINUOUS
 10
12.2486863382
 20
2.5920323691
 11
12.2486863382
 21
2.6496588142
  0
LINE
  5
3ED
100
AcDbEntity
  8
0
100
AcDbLine
 62
2
  6
CONTINUOUS
 10
12.2286863271
 20
2.4372566433
 11
12.2286863271
 21
2.4912273132
  0
LINE
  5
3EE
100
AcDbEntity
  8
0
100
AcDbLine
 62
2
  6
CONTINUOUS
 10
12.2286863271
 20
2.515977327
 11
12.2286863271
 21
2.5672823554
  0
LINE
  5
3EF
100
AcDbEntity
  8
0
100
AcDbLine
 62
2
  6
CONTINUOUS
 10
12.2286863271
 20
2.5920323691
 11
12.2286863271
 21
2.6435000377
  0
LINE
  5
3F0
100
AcDbEntity
  8
0
100
AcDbLine
 62
2
  6
CONTINUOUS
 10
12.208686316
 20
2.443589771
 11
12.208686316
 21
2.4912273132
  0
LINE
  5
3F1
100
AcDbEntity
  8
0
100
AcDbLine
 62
2
  6
CONTINUOUS
 10
12.208686316
 20
2.515977327
 11
12.208686316
 21
2.5672823554
  0
LINE
  5
3F2
100
AcDbEntity
  8
0
100
AcDbLine
 62
2
  6
CONTINUOUS
 10
12.208686316
 20
2.5920323691
 11
12.208686316
 21
2.63716691
  0
LINE
  5
3F3
100
AcDbEntity
  8
0
100
AcDbLine
 62
2
  6
CONTINUOUS
 10
12.1886863049
 20
2.4510806436
 11
12.1886863049
 21
2.6296760373
  0
LINE
  5
3F4
100
AcDbEntity
  8
0
100
AcDbLine
 62
2
  6
CONTINUOUS
 10
12.1686862938
 20
2.4591016523
 11
12.1686862938
 21
2.6216550287
  0
LINE
  5
3F5
100
AcDbEntity
  8
0
100
AcDbLine
 62
2
  6
CONTINUOUS
 10
12.1486862827
 20
2.468314272
 11
12.1486862827
 21
2.612442409
  0
LINE
  5
3F6
100
AcDbEntity
  8
0
100
AcDbLine
 62
2
  6
CONTINUOUS
 10
12.1286862716
 20
2.4794932339
 11
12.1286862716
 21
2.601263447
  0
LINE
  5
3F7
100
AcDbEntity
  8
0
100
AcDbLine
 62
2
  6
CONTINUOUS
 10
12.1086862605
 20
2.4934150665
 11
12.1086862605
 21
2.5873416144
  0
LINE
  5
3F8
100
AcDbEntity
  8
0
100
AcDbLine
 62
2
  6
CONTINUOUS
 10
12.0886862494
 20
2.5144449553
 11
12.0886862494
 21
2.5663117257
  0
ENDBLK
  5
3F9
100
AcDbEntity
  8
0
  6
BYBLOCK
 62
0
100
AcDbBlockEnd
  0
BLOCK
  5
3FA
100
AcDbEntity
  8
0
100
AcDbBlockBegin
  2
_FILLED
 70
64
 10
0.0
 20
0.0
  3
_FILLED
  1

  0
SOLID
  5
3FB
100
AcDbEntity
  8
0
  6
BYBLOCK
 62
0
100
AcDbTrace
 10
0.0
 20
0.0
 11
-1.0
 21
0.1666666667
 12
-1.0
 22
-0.1666666667
 13
-1.0
 23
-0.1666666667
  0
ENDBLK
  5
3FC
100
AcDbEntity
  8
0
  6
BYBLOCK
 62
0
100
AcDbBlockEnd
  0
BLOCK
  5
3FD
100
AcDbEntity
  8
SCHEME_DIMS
100
AcDbBlockBegin
 62
2
  6
CONTINUOUS
  2
*D0
 70
65
 10
0.0
 20
0.0
  3
*D0
  1

  0
MTEXT
  5
3FE
100
AcDbEntity
  8
SCHEME_DIMS
100
AcDbMText
 62
2
  6
CONTINUOUS
  7
STANDARD
 71
2
 72
1
 10
5.4411173761
 20
5.0336354828
 30
0.0
 11
1.0
 21
0.0
 31
0.0
 44
0.9
  1
31\P[1.22]
 40
0.1
 41
0.6
  0
LINE
  5
3FF
100
AcDbEntity
  8
SCHEME_DIMS
100
AcDbLine
 62
2
  6
CONTINUOUS
 10
4.6772498627
 20
4.2976354828
 11
5.7661173761
 21
4.2976354828
  0
LINE
  5
400
100
AcDbEntity
  8
SCHEME_DIMS
100
AcDbLine
 62
2
  6
CONTINUOUS
 10
5.3036173761
 20
5.5196354828
 11
5.7661173761
 21
5.5196354828
  0
LINE
  5
401
100
AcDbEntity
  8
SCHEME_DIMS
100
AcDbLine
 62
2
  6
CONTINUOUS
 10
5.6411173761
 20
4.2976354828
 11
5.6411173761
 21
4.6836354828
  0
LINE
  5
402
100
AcDbEntity
  8
SCHEME_DIMS
100
AcDbLine
 62
2
  6
CONTINUOUS
 10
5.6411173761
 20
5.5196354828
 11
5.6411173761
 21
5.1336354828
  0
INSERT
  5
403
100
AcDbEntity
  8
SCHEME_DIMS
100
AcDbBlockReference
 62
2
  6
CONTINUOUS
  2
_FILLED
 10
5.6411173761
 20
4.2976354828
 41
0.1875
 42
0.1875
 43
0.1875
 50
270.0
  0
INSERT
  5
404
100
AcDbEntity
  8
SCHEME_DIMS
100
AcDbBlockReference
 62
2
  6
CONTINUOUS
  2
_FILLED
 10
5.6411173761
 20
5.5196354828
 41
0.1875
 42
0.1875
 43
0.1875
 50
90.0
  0
ENDBLK
  5
405
100
AcDbEntity
  8
0
  6
BYBLOCK
 62
0
100
AcDbBlockEnd
  0
BLOCK
  5
406
100
AcDbEntity
  8
SCHEME_DIMS
100
AcDbBlockBegin
 62
2
  6
CONTINUOUS
  2
*D1
 70
65
 10
0.0
 20
0.0
  3
*D1
  1

  0
MTEXT
  5
407
100
AcDbEntity
  8
SCHEME_DIMS
100
AcDbMText
 62
2
  6
CONTINUOUS
  7
TEXTSTYLE_5
 71
2
 72
1
 10
4.1536173761
 20
7.5158774094
 30
0.0
 11
1.0
 21
0.0
 31
0.0
 44
0.9
  1
{\Fgdt;n}\Ftxt;40\P[1.58]
 40
0.1
 41
0.6
  0
LINE
  5
408
100
AcDbEntity
  8
SCHEME_DIMS
100
AcDbLine
 62
2
  6
CONTINUOUS
 10
3.5661173761
 20
8.5407510758
 11
3.5661173761
 21
7.3408774094
  0
LINE
  5
409
100
AcDbEntity
  8
SCHEME_DIMS
100
AcDbLine
 62
2
  6
CONTINUOUS
 10
5.1411173761
 20
8.5389832901
 11
5.1411173761
 21
7.3408774094
  0
LINE
  5
40A
100
AcDbEntity
  8
SCHEME_DIMS
100
AcDbLine
 62
2
  6
CONTINUOUS
 10
3.5661173761
 20
7.4658774094
 11
3.8869507094
 21
7.4658774094
  0
LINE
  5
40B
100
AcDbEntity
  8
SCHEME_DIMS
100
AcDbLine
 62
2
  6
CONTINUOUS
 10
5.1411173761
 20
7.4658774094
 11
4.8202840428
 21
7.4658774094
  0
INSERT
  5
40C
100
AcDbEntity
  8
SCHEME_DIMS
100
AcDbBlockReference
 62
2
  6
CONTINUOUS
  2
_FILLED
 10
3.5661173761
 20
7.4658774094
 41
0.1875
 42
0.1875
 43
0.1875
 50
180.0
  0
INSERT
  5
40D
100
AcDbEntity
  8
SCHEME_DIMS
100
AcDbBlockReference
 62
2
  6
CONTINUOUS
  2
_FILLED
 10
5.1411173761
 20
7.4658774094
 41
0.1875
 42
0.1875
 43
0.1875
  0
ENDBLK
  5
40E
100
AcDbEntity
  8
0
  6
BYBLOCK
 62
0
100
AcDbBlockEnd
  0
BLOCK
  5
40F
100
AcDbEntity
  8
SCHEME_DIMS
100
AcDbBlockBegin
 62
2
  6
CONTINUOUS
  2
*D2
 70
65
 10
0.0
 20
0.0
  3
*D2
  1

  0
MTEXT
  5
410
100
AcDbEntity
  8
SCHEME_DIMS
100
AcDbMText
 62
2
  6
CONTINUOUS
  7
STANDARD
 71
3
 72
1
 10
7.3623762499
 20
6.8571354828
 30
0.0
 11
1.0
 21
0.0
 31
0.0
 44
0.9
  1
15\P[.59]
 40
0.1
 41
0.5
  0
LINE
  5
411
100
AcDbEntity
  8
SCHEME_DIMS
100
AcDbLine
 62
2
  6
CONTINUOUS
 10
7.9474016629
 20
5.944517366
 11
7.9474016629
 21
6.9321354828
  0
LINE
  5
412
100
AcDbEntity
  8
SCHEME_DIMS
100
AcDbLine
 62
2
  6
CONTINUOUS
 10
8.5374016629
 20
6.3391635831
 11
8.5374016629
 21
6.9321354828
  0
LINE
  5
413
100
AcDbEntity
  8
SCHEME_DIMS
100
AcDbLine
 62
2
  6
CONTINUOUS
 10
7.9474016629
 20
6.8071354828
 11
8.2424016629
 21
6.8071354828
  0
LINE
  5
414
100
AcDbEntity
  8
SCHEME_DIMS
100
AcDbLine
 62
2
  6
CONTINUOUS
 10
8.2424016629
 20
6.8071354828
 11
7.7623762499
 21
6.8071354828
  0
LINE
  5
415
100
AcDbEntity
  8
SCHEME_DIMS
100
AcDbLine
 62
2
  6
CONTINUOUS
 10
8.5374016629
 20
6.8071354828
 11
8.2424016629
 21
6.8071354828
  0
INSERT
  5
416
100
AcDbEntity
  8
SCHEME_DIMS
100
AcDbBlockReference
 62
2
  6
CONTINUOUS
  2
_FILLED
 10
7.9474016629
 20
6.8071354828
 41
0.1875
 42
0.1875
 43
0.1875
 50
180.0
  0
INSERT
  5
417
100
AcDbEntity
  8
SCHEME_DIMS
100
AcDbBlockReference
 62
2
  6
CONTINUOUS
  2
_FILLED
 10
8.5374016629
 20
6.8071354828
 41
0.1875
 42
0.1875
 43
0.1875
  0
ENDBLK
  5
418
100
AcDbEntity
  8
0
  6
BYBLOCK
 62
0
100
AcDbBlockEnd
  0
BLOCK
  5
419
100
AcDbEntity
  8
SCHEME_DIMS
100
AcDbBlockBegin
 62
2
  6
CONTINUOUS
  2
*D3
 70
65
 10
0.0
 20
0.0
  3
*D3
  1

  0
MTEXT
  5
41A
100
AcDbEntity
  8
SCHEME_DIMS
100
AcDbMText
 62
2
  6
CONTINUOUS
  7
STANDARD
 71
2
 72
1
 10
8.4399016629
 20
7.3571354828
 30
0.0
 11
1.0
 21
0.0
 31
0.0
 44
0.9
  1
30,1\P[1.19]
 40
0.1
 41
0.6
  0
LINE
  5
41B
100
AcDbEntity
  8
SCHEME_DIMS
100
AcDbLine
 62
2
  6
CONTINUOUS
 10
7.9474016629
 20
5.9177616903
 11
7.9474016629
 21
7.4321354828
  0
LINE
  5
41C
100
AcDbEntity
  8
SCHEME_DIMS
100
AcDbLine
 62
2
  6
CONTINUOUS
 10
9.1324016629
 20
6.3439413823
 11
9.1324016629
 21
7.4321354828
  0
LINE
  5
41D
100
AcDbEntity
  8
SCHEME_DIMS
100
AcDbLine
 62
2
  6
CONTINUOUS
 10
7.9474016629
 20
7.3071354828
 11
7.5474016629
 21
7.3071354828
  0
LINE
  5
41E
100
AcDbEntity
  8
SCHEME_DIMS
100
AcDbLine
 62
2
  6
CONTINUOUS
 10
9.1324016629
 20
7.3071354828
 11
9.5324016629
 21
7.3071354828
  0
INSERT
  5
41F
100
AcDbEntity
  8
SCHEME_DIMS
100
AcDbBlockReference
 62
2
  6
CONTINUOUS
  2
_FILLED
 10
7.9474016629
 20
7.3071354828
 41
0.1875
 42
0.1875
 43
0.1875
  0
INSERT
  5
420
100
AcDbEntity
  8
SCHEME_DIMS
100
AcDbBlockReference
 62
2
  6
CONTINUOUS
  2
_FILLED
 10
9.1324016629
 20
7.3071354828
 41
0.1875
 42
0.1875
 43
0.1875
 50
180.0
  0
ENDBLK
  5
421
100
AcDbEntity
  8
0
  6
BYBLOCK
 62
0
100
AcDbBlockEnd
  0
BLOCK
  5
422
100
AcDbEntity
  8
SCHEME_DIMS
100
AcDbBlockBegin
 62
2
  6
CONTINUOUS
  2
*D4
 70
65
 10
0.0
 20
0.0
  3
*D4
  1

  0
MTEXT
  5
423
100
AcDbEntity
  8
SCHEME_DIMS
100
AcDbMText
 62
2
  6
CONTINUOUS
  7
STANDARD
 71
2
 72
1
 10
10.921946474
 20
5.4273854828
 30
0.0
 11
1.0
 21
0.0
 31
0.0
 44
0.9
  1
51\P[2.01]
 40
0.1
 41
0.6
  0
LINE
  5
424
100
AcDbEntity
  8
SCHEME_DIMS
100
AcDbLine
 62
2
  6
CONTINUOUS
 10
12.0858139874
 20
4.2976354828
 11
10.996946474
 21
4.2976354828
  0
LINE
  5
425
100
AcDbEntity
  8
SCHEME_DIMS
100
AcDbLine
 62
2
  6
CONTINUOUS
 10
12.1798922338
 20
6.3071354828
 11
10.996946474
 21
6.3071354828
  0
LINE
  5
426
100
AcDbEntity
  8
SCHEME_DIMS
100
AcDbLine
 62
2
  6
CONTINUOUS
 10
11.121946474
 20
4.2976354828
 11
11.121946474
 21
5.0773854828
  0
LINE
  5
427
100
AcDbEntity
  8
SCHEME_DIMS
100
AcDbLine
 62
2
  6
CONTINUOUS
 10
11.121946474
 20
6.3071354828
 11
11.121946474
 21
5.5273854828
  0
INSERT
  5
428
100
AcDbEntity
  8
SCHEME_DIMS
100
AcDbBlockReference
 62
2
  6
CONTINUOUS
  2
_FILLED
 10
11.121946474
 20
4.2976354828
 41
0.1875
 42
0.1875
 43
0.1875
 50
270.0
  0
INSERT
  5
429
100
AcDbEntity
  8
SCHEME_DIMS
100
AcDbBlockReference
 62
2
  6
CONTINUOUS
  2
_FILLED
 10
11.121946474
 20
6.3071354828
 41
0.1875
 42
0.1875
 43
0.1875
 50
90.0
  0
ENDBLK
  5
42A
100
AcDbEntity
  8
0
  6
BYBLOCK
 62
0
100
AcDbBlockEnd
  0
ENDSEC
  0
SECTION
  2
ENTITIES
  0
MTEXT
  5
42B
100
AcDbEntity
  8
0
100
AcDbMText
 62
2
  6
CONTINUOUS
  7
TEXTSTYLE_2
 71
2
 72
1
 10
11.0287658475
 20
1.794867839
 30
0.0
 11
1.0
 21
0.0
 31
0.0
 44
0.9
  1
THIRD ANGLE PROJECTION
 40
0.1
 41
1.76
  0
MTEXT
  5
42C
100
AcDbEntity
  8
0
100
AcDbMText
 62
2
  6
CONTINUOUS
  7
STANDARD
 71
1
 72
1
 10
12.88
 20
1.457
 30
0.0
 11
1.0
 21
0.0
 31
0.0
 44
0.9
  1
DRAWING NO.
 40
0.08
 41
0.88
  0
MTEXT
  5
42D
100
AcDbEntity
  8
0
100
AcDbMText
 62
2
  6
CONTINUOUS
  7
TEXTSTYLE_3
 71
2
 72
1
 10
11.03
 20
2.516432
 30
0.0
 11
1.0
 21
0.0
 31
0.0
 44
0.9
  1
and is proprietary in general
 40
0.08
 41
1.972
  0
MTEXT
  5
42E
100
AcDbEntity
  8
0
100
AcDbMText
 62
2
  6
CONTINUOUS
  7
TEXTSTYLE_3
 71
2
 72
1
 10
11.03
 20
2.396432
 30
0.0
 11
1.0
 21
0.0
 31
0.0
 44
0.9
  1
and in detail.  Its contents
 40
0.08
 41
1.904
  0
MTEXT
  5
42F
100
AcDbEntity
  8
0
100
AcDbMText
 62
2
  6
CONTINUOUS
  7
TEXTSTYLE_3
 71
2
 72
1
 10
11.03
 20
2.276432
 30
0.0
 11
1.0
 21
0.0
 31
0.0
 44
0.9
  1
shall not be revealed to
 40
0.08
 41
1.632
  0
MTEXT
  5
430
100
AcDbEntity
  8
0
100
AcDbMText
 62
2
  6
CONTINUOUS
  7
TEXTSTYLE_3
 71
2
 72
1
 10
11.03
 20
2.156432
 30
0.0
 11
1.0
 21
0.0
 31
0.0
 44
0.9
  1
outside parties without
 40
0.08
 41
1.564
  0
MTEXT
  5
431
100
AcDbEntity
  8
0
100
AcDbMText
 62
2
  6
CONTINUOUS
  7
TEXTSTYLE_3
 71
2
 72
1
 10
11.03
 20
2.036432
 30
0.0
 11
1.0
 21
0.0
 31
0.0
 44
0.9
  1
written consent of BANNER.
 40
0.08
 41
1.768
  0
MTEXT
  5
432
100
AcDbEntity
  8
0
100
AcDbMText
 62
2
  6
CONTINUOUS
  7
TEXTSTYLE_2
 71
1
 72
1
 10
12.08
 20
2.217
 30
0.0
 11
1.0
 21
0.0
 31
0.0
 44
0.9
  1
TITLE
 40
0.1
 41
0.4
  0
MTEXT
  5
433
100
AcDbEntity
  8
0
100
AcDbMText
 62
2
  6
CONTINUOUS
  7
STANDARD
 71
1
 72
1
 10
12.08
 20
1.457
 30
0.0
 11
1.0
 21
0.0
 31
0.0
 44
0.9
  1
SIZE
 40
0.08
 41
0.32
  0
MTEXT
  5
434
100
AcDbEntity
  8
0
100
AcDbMText
 62
2
  6
CONTINUOUS
  7
STANDARD
 71
1
 72
1
 10
12.08
 20
1.087
 30
0.0
 11
1.0
 21
0.0
 31
0.0
 44
0.9
  1
SCALE
 40
0.08
 41
0.4
  0
MTEXT
  5
435
100
AcDbEntity
  8
0
100
AcDbMText
 62
2
  6
CONTINUOUS
  7
TEXTSTYLE_2
 71
2
 72
1
 10
12.5
 20
1.337
 30
0.0
 11
1.0
 21
0.0
 31
0.0
 44
0.9
  1
B
 40
0.1
 41
0.08
  0
MTEXT
  5
436
100
AcDbEntity
  8
0
100
AcDbMText
 62
2
  6
CONTINUOUS
  7
TEXTSTYLE_3
 71
2
 72
1
 10
11.03
 20
2.636432
 30
0.0
 11
1.0
 21
0.0
 31
0.0
 44
0.9
  1
of BANNER ENGINEERING CORP.
 40
0.08
 41
1.836
  0
MTEXT
  5
437
100
AcDbEntity
  8
0
100
AcDbMText
 62
2
  6
CONTINUOUS
  7
TEXTSTYLE_3
 71
2
 72
1
 10
11.03
 20
2.756432
 30
0.0
 11
1.0
 21
0.0
 31
0.0
 44
0.9
  1
This drawing is the property
 40
0.08
 41
1.904
  0
MTEXT
  5
438
100
AcDbEntity
  8
0
100
AcDbMText
 62
2
  6
CONTINUOUS
  7
TEXTSTYLE_2
 71
2
 72
1
 10
15.03
 20
2.4134
 30
0.0
 11
1.0
 21
0.0
 31
0.0
 44
0.9
  1
MINNEAPOLIS, MN 55440
 40
0.1
 41
1.68
  0
MTEXT
  5
439
100
AcDbEntity
  8
0
100
AcDbMText
 62
2
  6
CONTINUOUS
  7
STANDARD
 71
1
 72
1
 10
14.255
 20
1.087
 30
0.0
 11
1.0
 21
0.0
 31
0.0
 44
0.9
  1
SHEET
 40
0.08
 41
0.4
  0
MTEXT
  5
43A
100
AcDbEntity
  8
0
100
AcDbMText
 62
2
  6
CONTINUOUS
  7
STANDARD
 71
1
 72
1
 10
15.63
 20
1.457
 30
0.0
 11
1.0
 21
0.0
 31
0.0
 44
0.9
  1
REV.
 40
0.08
 41
0.32
  0
MTEXT
  5
43B
100
AcDbEntity
  8
0
100
AcDbMText
 62
2
  6
CONTINUOUS
  7
STANDARD
 71
3
 72
1
 10
16.38
 20
0.835443
 30
0.0
 11
1.0
 21
0.0
 31
0.0
 44
0.9
  1
PRO/E
 40
0.07
 41
0.35
  0
MTEXT
  5
43C
100
AcDbEntity
  8
0
100
AcDbMText
 62
2
  6
CONTINUOUS
  7
TEXTSTYLE_4
 71
2
 72
1
 10
15.03
 20
2.751049
 30
0.0
 11
1.0
 21
0.0
 31
0.0
 44
0.9
  1
BANNER ENGINEERING CORP.
 40
0.12
 41
2.6496
  0
MTEXT
  5
43D
100
AcDbEntity
  8
0
100
AcDbMText
 62
2
  6
CONTINUOUS
  7
TEXTSTYLE_2
 71
2
 72
1
 10
15.03
 20
2.5724
 30
0.0
 11
1.0
 21
0.0
 31
0.0
 44
0.9
  1
P.O. BOX 9414
 40
0.1
 41
1.04
  0
MTEXT
  5
43E
100
AcDbEntity
  8
0
100
AcDbMText
 62
2
  6
CONTINUOUS
  7
TEXTSTYLE_2
 71
2
 72
1
 10
9.485
 20
10.312
 30
0.0
 11
1.0
 21
0.0
 31
0.0
 44
0.9
  1
4
 40
0.1
 41
0.08
  0
MTEXT
  5
43F
100
AcDbEntity
  8
0
100
AcDbMText
 62
2
  6
CONTINUOUS
  7
TEXTSTYLE_2
 71
2
 72
1
 10
11.455
 20
10.312
 30
0.0
 11
1.0
 21
0.0
 31
0.0
 44
0.9
  1
3
 40
0.1
 41
0.08
  0
MTEXT
  5
440
100
AcDbEntity
  8
0
100
AcDbMText
 62
2
  6
CONTINUOUS
  7
TEXTSTYLE_2
 71
2
 72
1
 10
13.425
 20
10.312
 30
0.0
 11
1.0
 21
0.0
 31
0.0
 44
0.9
  1
2
 40
0.1
 41
0.08
  0
MTEXT
  5
441
100
AcDbEntity
  8
0
100
AcDbMText
 62
2
  6
CONTINUOUS
  7
TEXTSTYLE_2
 71
2
 72
1
 10
15.395
 20
10.312
 30
0.0
 11
1.0
 21
0.0
 31
0.0
 44
0.9
  1
1
 40
0.1
 41
0.08
  0
MTEXT
  5
442
100
AcDbEntity
  8
0
100
AcDbMText
 62
2
  6
CONTINUOUS
  7
TEXTSTYLE_2
 71
2
 72
1
 10
3.575
 20
10.312
 30
0.0
 11
1.0
 21
0.0
 31
0.0
 44
0.9
  1
7
 40
0.1
 41
0.08
  0
MTEXT
  5
443
100
AcDbEntity
  8
0
100
AcDbMText
 62
2
  6
CONTINUOUS
  7
TEXTSTYLE_2
 71
2
 72
1
 10
5.545
 20
10.312
 30
0.0
 11
1.0
 21
0.0
 31
0.0
 44
0.9
  1
6
 40
0.1
 41
0.08
  0
MTEXT
  5
444
100
AcDbEntity
  8
0
100
AcDbMText
 62
2
  6
CONTINUOUS
  7
TEXTSTYLE_2
 71
2
 72
1
 10
7.515
 20
10.312
 30
0.0
 11
1.0
 21
0.0
 31
0.0
 44
0.9
  1
5
 40
0.1
 41
0.08
  0
MTEXT
  5
445
100
AcDbEntity
  8
0
100
AcDbMText
 62
2
  6
CONTINUOUS
  7
TEXTSTYLE_2
 71
2
 72
1
 10
1.605
 20
10.312
 30
0.0
 11
1.0
 21
0.0
 31
0.0
 44
0.9
  1
8
 40
0.1
 41
0.08
  0
MTEXT
  5
446
100
AcDbEntity
  8
0
100
AcDbMText
 62
2
  6
CONTINUOUS
  7
TEXTSTYLE_2
 71
2
 72
1
 10
1.605
 20
0.787
 30
0.0
 11
1.0
 21
0.0
 31
0.0
 44
0.9
  1
8
 40
0.1
 41
0.08
  0
MTEXT
  5
447
100
AcDbEntity
  8
0
100
AcDbMText
 62
2
  6
CONTINUOUS
  7
TEXTSTYLE_2
 71
2
 72
1
 10
3.575
 20
0.787
 30
0.0
 11
1.0
 21
0.0
 31
0.0
 44
0.9
  1
7
 40
0.1
 41
0.08
  0
MTEXT
  5
448
100
AcDbEntity
  8
0
100
AcDbMText
 62
2
  6
CONTINUOUS
  7
TEXTSTYLE_2
 71
2
 72
1
 10
5.545
 20
0.787
 30
0.0
 11
1.0
 21
0.0
 31
0.0
 44
0.9
  1
6
 40
0.1
 41
0.08
  0
MTEXT
  5
449
100
AcDbEntity
  8
0
100
AcDbMText
 62
2
  6
CONTINUOUS
  7
TEXTSTYLE_2
 71
2
 72
1
 10
7.515
 20
0.787
 30
0.0
 11
1.0
 21
0.0
 31
0.0
 44
0.9
  1
5
 40
0.1
 41
0.08
  0
MTEXT
  5
44A
100
AcDbEntity
  8
0
100
AcDbMText
 62
2
  6
CONTINUOUS
  7
TEXTSTYLE_2
 71
2
 72
1
 10
9.485
 20
0.787
 30
0.0
 11
1.0
 21
0.0
 31
0.0
 44
0.9
  1
4
 40
0.1
 41
0.08
  0
MTEXT
  5
44B
100
AcDbEntity
  8
0
100
AcDbMText
 62
2
  6
CONTINUOUS
  7
TEXTSTYLE_2
 71
2
 72
1
 10
11.455
 20
0.787
 30
0.0
 11
1.0
 21
0.0
 31
0.0
 44
0.9
  1
3
 40
0.1
 41
0.08
  0
MTEXT
  5
44C
100
AcDbEntity
  8
0
100
AcDbMText
 62
2
  6
CONTINUOUS
  7
TEXTSTYLE_2
 71
2
 72
1
 10
13.425
 20
0.787
 30
0.0
 11
1.0
 21
0.0
 31
0.0
 44
0.9
  1
2
 40
0.1
 41
0.08
  0
MTEXT
  5
44D
100
AcDbEntity
  8
0
100
AcDbMText
 62
2
  6
CONTINUOUS
  7
TEXTSTYLE_2
 71
2
 72
1
 10
15.395
 20
0.787
 30
0.0
 11
1.0
 21
0.0
 31
0.0
 44
0.9
  1
1
 40
0.1
 41
0.08
  0
MTEXT
  5
44E
100
AcDbEntity
  8
0
100
AcDbMText
 62
2
  6
CONTINUOUS
  7
TEXTSTYLE_2
 71
3
 72
1
 10
0.52
 20
4.3995
 30
0.0
 11
1.0
 21
0.0
 31
0.0
 44
0.9
  1
B
 40
0.1
 41
0.08
  0
MTEXT
  5
44F
100
AcDbEntity
  8
0
100
AcDbMText
 62
2
  6
CONTINUOUS
  7
TEXTSTYLE_2
 71
3
 72
1
 10
0.52
 20
2.0995
 30
0.0
 11
1.0
 21
0.0
 31
0.0
 44
0.9
  1
A
 40
0.1
 41
0.08
  0
MTEXT
  5
450
100
AcDbEntity
  8
0
100
AcDbMText
 62
2
  6
CONTINUOUS
  7
TEXTSTYLE_2
 71
3
 72
1
 10
0.52
 20
8.9995
 30
0.0
 11
1.0
 21
0.0
 31
0.0
 44
0.9
  1
D
 40
0.1
 41
0.08
  0
MTEXT
  5
451
100
AcDbEntity
  8
0
100
AcDbMText
 62
2
  6
CONTINUOUS
  7
TEXTSTYLE_2
 71
3
 72
1
 10
0.52
 20
6.6995
 30
0.0
 11
1.0
 21
0.0
 31
0.0
 44
0.9
  1
C
 40
0.1
 41
0.08
  0
MTEXT
  5
452
100
AcDbEntity
  8
0
100
AcDbMText
 62
2
  6
CONTINUOUS
  7
TEXTSTYLE_2
 71
1
 72
1
 10
16.48
 20
8.9995
 30
0.0
 11
1.0
 21
0.0
 31
0.0
 44
0.9
  1
D
 40
0.1
 41
0.08
  0
MTEXT
  5
453
100
AcDbEntity
  8
0
100
AcDbMText
 62
2
  6
CONTINUOUS
  7
TEXTSTYLE_2
 71
1
 72
1
 10
16.48
 20
6.6995
 30
0.0
 11
1.0
 21
0.0
 31
0.0
 44
0.9
  1
C
 40
0.1
 41
0.08
  0
MTEXT
  5
454
100
AcDbEntity
  8
0
100
AcDbMText
 62
2
  6
CONTINUOUS
  7
TEXTSTYLE_2
 71
1
 72
1
 10
16.48
 20
4.3995
 30
0.0
 11
1.0
 21
0.0
 31
0.0
 44
0.9
  1
B
 40
0.1
 41
0.08
  0
MTEXT
  5
455
100
AcDbEntity
  8
0
100
AcDbMText
 62
2
  6
CONTINUOUS
  7
TEXTSTYLE_2
 71
1
 72
1
 10
16.48
 20
2.0995
 30
0.0
 11
1.0
 21
0.0
 31
0.0
 44
0.9
  1
A
 40
0.1
 41
0.08
  0
MTEXT
  5
456
100
AcDbEntity
  8
0
100
AcDbMText
 62
2
  6
CONTINUOUS
  7
STANDARD
 71
1
 72
1
 10
14.819264911
 20
1.0627941725
 30
0.0
 11
1.0
 21
0.0
 31
0.0
 44
0.9
  1
1 OF 1
 40
0.1
 41
0.6
  0
MTEXT
  5
457
100
AcDbEntity
  8
0
100
AcDbMText
 62
7
  6
CONTINUOUS
  7
STANDARD
 71
1
 72
1
 10
13.8911999818
 20
1.3747321586
 30
0.0
 11
1.0
 21
0.0
 31
0.0
 44
0.9
  1
155314
 40
0.12
 41
0.72
  0
MTEXT
  5
458
100
AcDbEntity
  8
0
100
AcDbMText
 62
2
  6
CONTINUOUS
  7
STANDARD
 71
1
 72
1
 10
12.644264911
 20
1.0627941725
 30
0.0
 11
1.0
 21
0.0
 31
0.0
 44
0.9
  1
1:1
 40
0.1
 41
0.3
  0
MTEXT
  5
459
100
AcDbEntity
  8
0
100
AcDbMText
 62
2
  6
CONTINUOUS
  7
STANDARD
 71
1
 72
1
 10
1.0597007627
 20
1.6202922458
 30
0.0
 11
1.0
 21
0.0
 31
0.0
 44
0.9
  1
NOTES:\P1. ALL DIMENSIONS ARE MILLIMETERS [INCHES] UNLESS OTHERWISE NOTED.
 40
0.1
 41
6.6
  0
INSERT
  5
45A
100
AcDbEntity
  8
0
100
AcDbBlockReference
 62
2
  6
CONTINUOUS
  2
BANNER_LOGO_TITLEBLOCK_BL0
 10
12.9086867042
 20
2.5403783405
  0
DIMENSION
  5
45B
100
AcDbEntity
  8
SCHEME_DIMS
100
AcDbDimension
 62
2
  6
CONTINUOUS
  2
*D0
 10
5.6411173761
 20
5.5196354828
 11
5.5661173761
 21
4.9086354828
 70
160
 71
2
 42
31.0388
  3
DIMSTYLE_1
100
AcDbAlignedDimension
 13
4.6772498627
 23
4.2976354828
 14
5.3036173761
 24
5.5196354828
 50
90.0
100
AcDbRotatedDimension
  0
DIMENSION
  5
45C
100
AcDbEntity
  8
SCHEME_DIMS
100
AcDbDimension
 62
2
  6
CONTINUOUS
  2
*D1
 10
5.1411173761
 20
7.4658774094
 11
4.2952840428
 21
7.3908774094
 70
160
 71
2
 42
40.005
  1
%%c<>
  3
DIMSTYLE_1
100
AcDbAlignedDimension
 13
3.5661173761
 23
8.5407510758
 14
5.1411173761
 24
8.5389832901
100
AcDbRotatedDimension
  0
DIMENSION
  5
45D
100
AcDbEntity
  8
SCHEME_DIMS
100
AcDbDimension
 62
2
  6
CONTINUOUS
  2
*D2
 10
8.5374016629
 20
6.8071354828
 11
7.2623762499
 21
6.7321354828
 70
160
 71
3
 42
14.986
  3
DIMSTYLE_1
100
AcDbAlignedDimension
 13
7.9474016629
 23
5.944517366
 14
8.5374016629
 24
6.3391635831
100
AcDbRotatedDimension
  0
DIMENSION
  5
45E
100
AcDbEntity
  8
SCHEME_DIMS
100
AcDbDimension
 62
2
  6
CONTINUOUS
  2
*D3
 10
9.1324016629
 20
7.3071354828
 11
8.4149016629
 21
7.2321354828
 70
160
 71
2
 42
30.099
  3
DIMSTYLE_1
100
AcDbAlignedDimension
 13
7.9474016629
 23
5.9177616903
 14
9.1324016629
 24
6.3439413823
100
AcDbRotatedDimension
  0
DIMENSION
  5
45F
100
AcDbEntity
  8
SCHEME_DIMS
100
AcDbDimension
 62
2
  6
CONTINUOUS
  2
*D4
 10
11.121946474
 20
6.3071354828
 11
11.046946474
 21
5.3023854828
 70
160
 71
2
 42
51.0413
  3
DIMSTYLE_1
100
AcDbAlignedDimension
 13
12.0858139874
 23
4.2976354828
 14
12.1798922338
 24
6.3071354828
 50
90.0
100
AcDbRotatedDimension
  0
LINE
  5
460
100
AcDbEntity
  8
0
100
AcDbLine
 62
2
  6
CONTINUOUS
 10
16.38
 20
0.887
 11
12.03
 21
0.887
  0
LINE
  5
461
100
AcDbEntity
  8
0
100
AcDbLine
 62
2
  6
CONTINUOUS
 10
16.38
 20
0.887
 11
16.38
 21
2.807
  0
LINE
  5
462
100
AcDbEntity
  8
0
100
AcDbLine
 62
2
  6
CONTINUOUS
 10
16.38
 20
2.807
 11
12.03
 21
2.807
  0
LINE
  5
463
100
AcDbEntity
  8
0
100
AcDbLine
 62
2
  6
CONTINUOUS
 10
12.03
 20
0.887
 11
12.03
 21
2.807
  0
MTEXT
  5
464
100
AcDbEntity
  8
NOTES
100
AcDbMText
 62
7
  6
CONTINUOUS
  7
STANDARD
 71
2
 72
1
 10
16.155
 20
1.367
 30
0.0
 11
1.0
 21
0.0
 31
0.0
 44
0.9
  1
1
 40
0.1
 41
0.1
  0
MTEXT
  5
465
100
AcDbEntity
  8
NOTES
100
AcDbMText
 62
7
  6
CONTINUOUS
  7
STANDARD
 71
2
 72
1
 10
14.205
 20
1.967
 30
0.0
 11
1.0
 21
0.0
 31
0.0
 44
0.9
  1
T183E CABLE/PIGTAIL\PWEB CAD DRAWINGS 2D/3D
 40
0.1
 41
2.2
  0
MTEXT
  5
466
100
AcDbEntity
  8
NOTES
100
AcDbMText
 62
2
  6
CONTINUOUS
  7
STANDARD
 71
2
 72
1
 10
14.4427231576
 20
6.6048339953
 30
0.0
 11
1.0
 21
0.0
 31
0.0
 44
0.9
  1
ISOMETRIC VIEW\PSCALE  1:1
 40
0.1
 41
1.4
  0
LEADER
  5
467
100
AcDbEntity
  8
NOTES
100
AcDbLeader
 62
2
  6
CONTINUOUS
  3
STANDARD
 71
1
 72
0
 73
0
 75
0
 40
0.1
 41
0.9
 76
3
 10
8.1031732102
 20
5.1871029476
 30
0.0
 10
7.7768619885
 20
4.7871123443
 30
0.0
 10
7.5268619885
 20
4.7871123443
 30
0.0
340
468
1001
ACAD
1000
DSTYLE
1002
{
1070
77
1070
0
1002
}
  0
MTEXT
  5
468
102
{ACAD_REACTORS
330
467
102
}
100
AcDbEntity
  8
NOTES
100
AcDbMText
 62
2
  6
CONTINUOUS
  7
STANDARD
 71
3
 72
1
 10
7.5268619885
 20
4.8371123443
 30
0.0
 11
1.0
 21
0.0
 31
0.0
 44
0.9
  1
M18 X 1 G
 40
0.1
 41
0.9
  0
LINE
  5
469
100
AcDbEntity
  8
0
100
AcDbLine
 62
2
  6
CONTINUOUS
 10
0.47
 20
5.586103
 11
0.47
 21
5.412897
  0
LINE
  5
46A
100
AcDbEntity
  8
0
100
AcDbLine
 62
2
  6
CONTINUOUS
 10
0.62
 20
10.112
 11
0.62
 21
0.887
  0
LINE
  5
46B
100
AcDbEntity
  8
0
100
AcDbLine
 62
2
  6
CONTINUOUS
 10
2.59
 20
0.887
 11
2.59
 21
0.637
  0
LINE
  5
46C
100
AcDbEntity
  8
0
100
AcDbLine
 62
2
  6
CONTINUOUS
 10
2.59
 20
10.112
 11
2.59
 21
10.362
  0
LINE
  5
46D
100
AcDbEntity
  8
0
100
AcDbLine
 62
2
  6
CONTINUOUS
 10
8.413397
 20
0.737
 11
8.586603
 21
0.737
  0
LINE
  5
46E
100
AcDbEntity
  8
0
100
AcDbLine
 62
7
  6
CONTINUOUS
 10
11.1389508475
 20
1.425992839
 11
11.7453418475
 21
1.495385839
  0
LINE
  5
46F
100
AcDbEntity
  8
0
100
AcDbLine
 62
2
  6
CONTINUOUS
 10
0.62
 20
0.887
 11
16.38
 21
0.887
  0
LINE
  5
470
100
AcDbEntity
  8
0
100
AcDbLine
 62
2
  6
CONTINUOUS
 10
12.03
 20
1.137
 11
16.38
 21
1.137
  0
LINE
  5
471
100
AcDbEntity
  8
0
100
AcDbLine
 62
7
  6
CONTINUOUS
 10
10.2121898475
 20
1.243294839
 11
10.4342808475
 21
1.243294839
  0
LINE
  5
472
100
AcDbEntity
  8
0
100
AcDbLine
 62
7
  6
CONTINUOUS
 10
10.4842808475
 20
1.243294839
 11
10.5842808475
 21
1.243294839
  0
LINE
  5
473
100
AcDbEntity
  8
0
100
AcDbLine
 62
7
  6
CONTINUOUS
 10
10.6342808475
 20
1.243294839
 11
10.8563718475
 21
1.243294839
  0
LINE
  5
474
100
AcDbEntity
  8
0
100
AcDbLine
 62
7
  6
CONTINUOUS
 10
11.0389508475
 20
1.243294839
 11
11.3171028475
 21
1.243294839
  0
LINE
  5
475
100
AcDbEntity
  8
0
100
AcDbLine
 62
7
  6
CONTINUOUS
 10
11.3671028475
 20
1.243294839
 11
11.5171888475
 21
1.243294839
  0
LINE
  5
476
100
AcDbEntity
  8
0
100
AcDbLine
 62
7
  6
CONTINUOUS
 10
11.5671888475
 20
1.243294839
 11
11.8453418475
 21
1.243294839
  0
LINE
  5
477
100
AcDbEntity
  8
0
100
AcDbLine
 62
7
  6
CONTINUOUS
 10
11.7453418475
 20
0.991203839
 11
11.1389508475
 21
1.060596839
  0
LINE
  5
478
100
AcDbEntity
  8
0
100
AcDbLine
 62
2
  6
CONTINUOUS
 10
4.56
 20
0.887
 11
4.56
 21
0.637
  0
LINE
  5
479
100
AcDbEntity
  8
0
100
AcDbLine
 62
2
  6
CONTINUOUS
 10
4.56
 20
10.112
 11
4.56
 21
10.362
  0
LINE
  5
47A
100
AcDbEntity
  8
0
100
AcDbLine
 62
2
  6
CONTINUOUS
 10
0.47
 20
5.412897
 11
0.62
 21
5.4995
  0
LINE
  5
47B
100
AcDbEntity
  8
0
100
AcDbLine
 62
2
  6
CONTINUOUS
 10
12.03
 20
1.507
 11
16.38
 21
1.507
  0
LINE
  5
47C
100
AcDbEntity
  8
0
100
AcDbLine
 62
2
  6
CONTINUOUS
 10
10.03
 20
1.907
 11
12.03
 21
1.907
  0
LINE
  5
47D
100
AcDbEntity
  8
0
100
AcDbLine
 62
2
  6
CONTINUOUS
 10
0.62
 20
5.4995
 11
0.47
 21
5.586103
  0
LINE
  5
47E
100
AcDbEntity
  8
0
100
AcDbLine
 62
2
  6
CONTINUOUS
 10
12.03
 20
2.267
 11
16.38
 21
2.267
  0
LINE
  5
47F
100
AcDbEntity
  8
0
100
AcDbLine
 62
2
  6
CONTINUOUS
 10
8.5
 20
10.112
 11
8.586603
 21
10.262
  0
LINE
  5
480
100
AcDbEntity
  8
0
100
AcDbLine
 62
2
  6
CONTINUOUS
 10
16.38
 20
2.807
 11
10.03
 21
2.807
  0
LINE
  5
481
100
AcDbEntity
  8
0
100
AcDbLine
 62
2
  6
CONTINUOUS
 10
0.62
 20
3.1995
 11
0.37
 21
3.1995
  0
LINE
  5
482
100
AcDbEntity
  8
0
100
AcDbLine
 62
2
  6
CONTINUOUS
 10
16.38
 20
3.1995
 11
16.63
 21
3.1995
  0
LINE
  5
483
100
AcDbEntity
  8
0
100
AcDbLine
 62
2
  6
CONTINUOUS
 10
8.586603
 20
0.737
 11
8.5
 21
0.887
  0
LINE
  5
484
100
AcDbEntity
  8
0
100
AcDbLine
 62
2
  6
CONTINUOUS
 10
6.53
 20
0.887
 11
6.53
 21
0.637
  0
LINE
  5
485
100
AcDbEntity
  8
0
100
AcDbLine
 62
2
  6
CONTINUOUS
 10
6.53
 20
10.112
 11
6.53
 21
10.362
  0
LINE
  5
486
100
AcDbEntity
  8
0
100
AcDbLine
 62
2
  6
CONTINUOUS
 10
8.5
 20
0.887
 11
8.5
 21
0.637
  0
LINE
  5
487
100
AcDbEntity
  8
0
100
AcDbLine
 62
2
  6
CONTINUOUS
 10
8.5
 20
10.112
 11
8.5
 21
10.362
  0
LINE
  5
488
100
AcDbEntity
  8
0
100
AcDbLine
 62
2
  6
CONTINUOUS
 10
0.62
 20
5.4995
 11
0.37
 21
5.4995
  0
LINE
  5
489
100
AcDbEntity
  8
0
100
AcDbLine
 62
2
  6
CONTINUOUS
 10
16.38
 20
5.4995
 11
16.63
 21
5.4995
  0
LINE
  5
48A
100
AcDbEntity
  8
0
100
AcDbLine
 62
2
  6
CONTINUOUS
 10
10.03
 20
2.807
 11
10.03
 21
0.887
  0
LINE
  5
48B
100
AcDbEntity
  8
0
100
AcDbLine
 62
2
  6
CONTINUOUS
 10
10.47
 20
0.887
 11
10.47
 21
0.637
  0
LINE
  5
48C
100
AcDbEntity
  8
0
100
AcDbLine
 62
2
  6
CONTINUOUS
 10
10.47
 20
10.112
 11
10.47
 21
10.362
  0
LINE
  5
48D
100
AcDbEntity
  8
0
100
AcDbLine
 62
7
  6
CONTINUOUS
 10
10.5342808475
 20
1.143294839
 11
10.5342808475
 21
0.921203839
  0
LINE
  5
48E
100
AcDbEntity
  8
0
100
AcDbLine
 62
7
  6
CONTINUOUS
 10
10.5342808475
 20
1.193294839
 11
10.5342808475
 21
1.293294839
  0
LINE
  5
48F
100
AcDbEntity
  8
0
100
AcDbLine
 62
7
  6
CONTINUOUS
 10
10.5342808475
 20
1.343294839
 11
10.5342808475
 21
1.565385839
  0
LINE
  5
490
100
AcDbEntity
  8
0
100
AcDbLine
 62
2
  6
CONTINUOUS
 10
8.5
 20
0.887
 11
8.413397
 21
0.737
  0
LINE
  5
491
100
AcDbEntity
  8
0
100
AcDbLine
 62
2
  6
CONTINUOUS
 10
0.62
 20
7.7995
 11
0.37
 21
7.7995
  0
LINE
  5
492
100
AcDbEntity
  8
0
100
AcDbLine
 62
2
  6
CONTINUOUS
 10
16.38
 20
7.7995
 11
16.63
 21
7.7995
  0
LINE
  5
493
100
AcDbEntity
  8
0
100
AcDbLine
 62
2
  6
CONTINUOUS
 10
8.413397
 20
10.262
 11
8.5
 21
10.112
  0
LINE
  5
494
100
AcDbEntity
  8
0
100
AcDbLine
 62
7
  6
CONTINUOUS
 10
11.1389508475
 20
1.060596839
 11
11.1389508475
 21
1.425992839
  0
LINE
  5
495
100
AcDbEntity
  8
0
100
AcDbLine
 62
7
  6
CONTINUOUS
 10
11.7453418475
 20
1.495385839
 11
11.7453418475
 21
0.991203839
  0
LINE
  5
496
100
AcDbEntity
  8
0
100
AcDbLine
 62
1
  6
CONTINUOUS
 10
12.03
 20
2.807
 11
12.03
 21
0.887
  0
LINE
  5
497
100
AcDbEntity
  8
0
100
AcDbLine
 62
2
  6
CONTINUOUS
 10
12.44
 20
0.887
 11
12.44
 21
0.637
  0
LINE
  5
498
100
AcDbEntity
  8
0
100
AcDbLine
 62
2
  6
CONTINUOUS
 10
12.44
 20
10.112
 11
12.44
 21
10.362
  0
LINE
  5
499
100
AcDbEntity
  8
0
100
AcDbLine
 62
2
  6
CONTINUOUS
 10
16.53
 20
5.586103
 11
16.38
 21
5.4995
  0
LINE
  5
49A
100
AcDbEntity
  8
0
100
AcDbLine
 62
2
  6
CONTINUOUS
 10
16.38
 20
5.4995
 11
16.53
 21
5.412897
  0
LINE
  5
49B
100
AcDbEntity
  8
0
100
AcDbLine
 62
2
  6
CONTINUOUS
 10
12.83
 20
1.507
 11
12.83
 21
1.137
  0
LINE
  5
49C
100
AcDbEntity
  8
0
100
AcDbLine
 62
2
  6
CONTINUOUS
 10
16.38
 20
10.112
 11
0.62
 21
10.112
  0
LINE
  5
49D
100
AcDbEntity
  8
0
100
AcDbLine
 62
2
  6
CONTINUOUS
 10
8.586603
 20
10.262
 11
8.413397
 21
10.262
  0
LINE
  5
49E
100
AcDbEntity
  8
0
100
AcDbLine
 62
2
  6
CONTINUOUS
 10
14.205
 20
1.137
 11
14.205
 21
0.887
  0
LINE
  5
49F
100
AcDbEntity
  8
0
100
AcDbLine
 62
2
  6
CONTINUOUS
 10
14.41
 20
0.887
 11
14.41
 21
0.637
  0
LINE
  5
4A0
100
AcDbEntity
  8
0
100
AcDbLine
 62
2
  6
CONTINUOUS
 10
14.41
 20
10.112
 11
14.41
 21
10.362
  0
LINE
  5
4A1
100
AcDbEntity
  8
0
100
AcDbLine
 62
2
  6
CONTINUOUS
 10
15.58
 20
1.507
 11
15.58
 21
1.137
  0
LINE
  5
4A2
100
AcDbEntity
  8
0
100
AcDbLine
 62
2
  6
CONTINUOUS
 10
16.38
 20
0.887
 11
16.38
 21
10.112
  0
LINE
  5
4A3
100
AcDbEntity
  8
0
100
AcDbLine
 62
2
  6
CONTINUOUS
 10
16.53
 20
5.412897
 11
16.53
 21
5.586103
  0
LWPOLYLINE
  5
4A4
100
AcDbEntity
  8
0
100
AcDbPolyline
 62
7
  6
CONTINUOUS
 90
8
 70
0
 10
13.9462160208
 20
9.0056225312
 10
13.8905815571
 20
8.9644177186
 10
13.8433668658
 20
8.9094512105
 10
13.8063149155
 20
8.8415936952
 10
13.7806024729
 20
8.761613991
 10
13.7673736491
 20
8.6718844856
 10
13.7668975621
 20
8.5749564445
 10
13.778919003
 20
8.4730322455
  0
LINE
  5
4A5
100
AcDbEntity
  8
0
100
AcDbLine
 62
7
  6
CONTINUOUS
 10
14.2255258732
 20
9.16687234
 11
14.2188207994
 21
9.1624298731
  0
LINE
  5
4A6
100
AcDbEntity
  8
0
100
AcDbLine
 62
7
  6
CONTINUOUS
 10
14.2820903435
 20
9.1995385043
 11
14.2255220365
 21
9.166878972
  0
LINE
  5
4A7
100
AcDbEntity
  8
0
100
AcDbLine
 62
7
  6
CONTINUOUS
 10
14.2149154789
 20
9.1607553097
 11
13.9462160208
 21
9.0056225312
  0
LWPOLYLINE
  5
4A8
100
AcDbEntity
  8
0
100
AcDbPolyline
 62
7
  6
CONTINUOUS
 90
23
 70
0
 10
14.2149072663
 20
9.1607502404
 10
14.2723459149
 20
9.1854020912
 10
14.339559599
 20
9.1970500992
 10
14.4123507884
 20
9.1938106689
 10
14.4892107984
 20
9.1757509414
 10
14.5685466132
 20
9.1432452263
 10
14.6487139029
 20
9.0969672435
 10
14.7280511039
 20
9.0378761603
 10
14.8049138587
 20
8.9671967092
 10
14.8777090916
 20
8.8863938101
 10
14.9449280428
 20
8.7971421889
 10
15.0051774959
 20
8.7012917278
 10
15.0572087657
 20
8.6008289391
 10
15.0999433187
 20
8.4978363081
 10
15.1324956554
 20
8.3944478534
 10
15.1541907769
 20
8.2928075468
 10
15.1645793001
 20
8.1950210192
 10
15.1634455817
 20
8.1031120435
 10
15.1508118827
 20
8.0189865497
 10
15.1269402138
 20
7.9443924261
 10
15.0923248163
 20
7.8808742919
 10
15.0476854729
 20
7.82975167
 10
15.0023923419
 20
7.7967547074
  0
LWPOLYLINE
  5
4A9
100
AcDbEntity
  8
0
100
AcDbPolyline
 62
7
  6
CONTINUOUS
 90
10
 70
0
 10
13.63607649
 20
8.2192463561
 10
13.6351854094
 20
8.2006279656
 10
13.6377806988
 20
8.1521138669
 10
13.6471052312
 20
8.1007504753
 10
13.662540929
 20
8.049040817
 10
13.6835857794
 20
7.9978366568
 10
13.7095927685
 20
7.9483743673
 10
13.7398046926
 20
7.9018542793
 10
13.7716792062
 20
7.8613342731
 10
13.8029946055
 20
7.8280309468
  0
LINE
  5
4AA
100
AcDbEntity
  8
0
100
AcDbLine
 62
7
  6
CONTINUOUS
 10
13.6639711879
 20
8.1831894788
 11
13.6672584191
 21
8.2246775899
  0
LINE
  5
4AB
100
AcDbEntity
  8
0
100
AcDbLine
 62
7
  6
CONTINUOUS
 10
13.6393602661
 20
8.2449614104
 11
13.63607649
 21
8.2192463561
  0
LINE
  5
4AC
100
AcDbEntity
  8
0
100
AcDbLine
 62
7
  6
CONTINUOUS
 10
13.6672584191
 20
8.2246775899
 11
13.6770202318
 21
8.261109424
  0
LWPOLYLINE
  5
4AD
100
AcDbEntity
  8
0
100
AcDbPolyline
 62
7
  6
CONTINUOUS
 90
3
 70
0
 10
13.6770202318
 20
8.261109424
 10
13.6929600184
 20
8.2913780182
 10
13.7145934563
 20
8.3145636767
  0
LWPOLYLINE
  5
4AE
100
AcDbEntity
  8
0
100
AcDbPolyline
 62
7
  6
CONTINUOUS
 90
3
 70
0
 10
13.7268306043
 20
8.3769284436
 10
13.7274332504
 20
8.3775446949
 10
13.7407996886
 20
8.3864641243
  0
LINE
  5
4AF
100
AcDbEntity
  8
AXIS_COSMETIC_THREADS
100
AcDbLine
 62
7
  6
CONTINUOUS
 10
13.6788204922
 20
8.0918259365
 11
13.6788204922
 21
8.2574069095
  0
LINE
  5
4B0
100
AcDbEntity
  8
0
100
AcDbLine
 62
7
  6
CONTINUOUS
 10
14.0112699072
 20
8.5408289824
 11
14.0236318933
 21
8.5497563958
  0
LINE
  5
4B1
100
AcDbEntity
  8
0
100
AcDbLine
 62
7
  6
CONTINUOUS
 10
14.0802338204
 20
8.5824353456
 11
14.0693664586
 21
8.5746879798
  0
LWPOLYLINE
  5
4B2
100
AcDbEntity
  8
0
100
AcDbPolyline
 62
7
  6
CONTINUOUS
 90
6
 70
0
 10
13.712539855
 20
8.3701484029
 10
13.6941725712
 20
8.3572077672
 10
13.6688927995
 20
8.3286999248
 10
13.6503853477
 20
8.2919821146
 10
13.6391983607
 20
8.2481744952
 10
13.6366365262
 20
8.2263699021
  0
LINE
  5
4B3
100
AcDbEntity
  8
0
100
AcDbLine
 62
7
  6
CONTINUOUS
 10
13.983183296
 20
8.5250774672
 11
13.9953430498
 21
8.5334239197
  0
LINE
  5
4B4
100
AcDbEntity
  8
0
100
AcDbLine
 62
7
  6
CONTINUOUS
 10
14.0397541165
 20
8.5577388937
 11
14.0519096186
 21
8.5660824477
  0
LINE
  5
4B5
100
AcDbEntity
  8
0
100
AcDbLine
 62
7
  6
CONTINUOUS
 10
13.9548066155
 20
8.5086947109
 11
13.9670619927
 21
8.5170959427
  0
LINE
  5
4B6
100
AcDbEntity
  8
0
100
AcDbLine
 62
7
  6
CONTINUOUS
 10
13.9261978182
 20
8.4921784336
 11
13.9387905464
 21
8.5007735175
  0
LINE
  5
4B7
100
AcDbEntity
  8
0
100
AcDbLine
 62
7
  6
CONTINUOUS
 10
13.8977005911
 20
8.4757276193
 11
13.9105141282
 21
8.4844482192
  0
LINE
  5
4B8
100
AcDbEntity
  8
0
100
AcDbLine
 62
7
  6
CONTINUOUS
 10
13.784316267
 20
8.4102805482
 11
13.7973868583
 21
8.4191345505
  0
LINE
  5
4B9
100
AcDbEntity
  8
0
100
AcDbLine
 62
7
  6
CONTINUOUS
 10
13.8690698995
 20
8.4592033527
 11
13.882242278
 21
8.4681255576
  0
LINE
  5
4BA
100
AcDbEntity
  8
0
100
AcDbLine
 62
7
  6
CONTINUOUS
 10
13.755977669
 20
8.393917541
 11
13.7690911363
 21
8.4027981036
  0
LINE
  5
4BB
100
AcDbEntity
  8
0
100
AcDbLine
 62
7
  6
CONTINUOUS
 10
13.8124928886
 20
8.4265443824
 11
13.8256798735
 21
8.435469433
  0
LINE
  5
4BC
100
AcDbEntity
  8
0
100
AcDbLine
 62
7
  6
CONTINUOUS
 10
13.8407576977
 20
8.4428607499
 11
13.8539647804
 21
8.4517996341
  0
LINE
  5
4BD
100
AcDbEntity
  8
0
100
AcDbLine
 62
7
  6
CONTINUOUS
 10
14.0236318933
 20
8.5497563958
 11
14.0342199772
 21
8.5552144458
  0
LINE
  5
4BE
100
AcDbEntity
  8
0
100
AcDbLine
 62
7
  6
CONTINUOUS
 10
14.0913825618
 20
8.5881433353
 11
14.0802338204
 21
8.5824353456
  0
LINE
  5
4BF
100
AcDbEntity
  8
0
100
AcDbLine
 62
7
  6
CONTINUOUS
 10
14.0519096186
 20
8.5660824477
 11
14.0676908421
 21
8.573771968
  0
LINE
  5
4C0
100
AcDbEntity
  8
0
100
AcDbLine
 62
7
  6
CONTINUOUS
 10
13.9953430498
 20
8.5334239197
 11
14.0111312192
 21
8.541115937
  0
LWPOLYLINE
  5
4C1
100
AcDbEntity
  8
0
100
AcDbPolyline
 62
7
  6
CONTINUOUS
 90
6
 70
0
 10
14.0816479852
 20
8.5832518091
 10
14.098139519
 20
8.5912179959
 10
14.1346691593
 20
8.599935215
 10
14.1750003532
 20
8.5988504194
 10
14.2179312821
 20
8.5880114388
 10
14.2441157048
 20
8.5770960758
  0
LWPOLYLINE
  5
4C2
100
AcDbEntity
  8
AXIS_COSMETIC_THREADS
100
AcDbPolyline
 62
7
  6
CONTINUOUS
 90
10
 70
0
 10
13.6788204922
 20
8.0918259365
 10
13.6904567937
 20
8.0542007245
 10
13.7056284627
 20
8.0166512332
 10
13.7240530334
 20
7.9798765585
 10
13.7453874776
 20
7.9445613703
 10
13.769234591
 20
7.9113631662
 10
13.7951503886
 20
7.8809000296
 10
13.8226523706
 20
7.8537391227
 10
13.8512285056
 20
7.8303861265
 10
13.8803467638
 20
7.8112758268
  0
LWPOLYLINE
  5
4C3
100
AcDbEntity
  8
0
100
AcDbPolyline
 62
7
  6
CONTINUOUS
 90
3
 70
0
 10
13.6770202318
 20
8.0902021365
 10
13.6672584191
 20
8.137905686
 10
13.6639711879
 20
8.1831894788
  0
LINE
  5
4C4
100
AcDbEntity
  8
0
100
AcDbLine
 62
7
  6
CONTINUOUS
 10
13.7145934563
 20
8.3145636767
 11
13.7273507712
 21
8.3232662302
  0
LWPOLYLINE
  5
4C5
100
AcDbEntity
  8
AXIS_COSMETIC_THREADS
100
AcDbPolyline
 62
7
  6
CONTINUOUS
 90
5
 70
0
 10
13.729092091
 20
8.3202362092
 10
13.7240530334
 20
8.3171274293
 10
13.7056284627
 20
8.301627135
 10
13.6904567937
 20
8.2815959819
 10
13.6788204922
 20
8.2574069095
  0
LINE
  5
4C6
100
AcDbEntity
  8
AXIS_COSMETIC_THREADS
100
AcDbLine
 62
7
  6
CONTINUOUS
 10
13.7490550557
 20
8.331763349
 11
13.729097441
 21
8.3202408835
  0
LINE
  5
4C7
100
AcDbEntity
  8
0
100
AcDbLine
 62
7
  6
CONTINUOUS
 10
13.7254702089
 20
8.376641754
 11
13.712539855
 21
8.3701484029
  0
LINE
  5
4C8
100
AcDbEntity
  8
0
100
AcDbLine
 62
7
  6
CONTINUOUS
 10
13.9670619927
 20
8.5170959427
 11
13.9829490556
 21
8.5248272365
  0
LINE
  5
4C9
100
AcDbEntity
  8
0
100
AcDbLine
 62
7
  6
CONTINUOUS
 10
13.9387905464
 20
8.5007735175
 11
13.9550427329
 21
8.5086487058
  0
LINE
  5
4CA
100
AcDbEntity
  8
0
100
AcDbLine
 62
7
  6
CONTINUOUS
 10
13.9105141282
 20
8.4844482192
 11
13.9269990403
 21
8.4924144573
  0
LINE
  5
4CB
100
AcDbEntity
  8
0
100
AcDbLine
 62
7
  6
CONTINUOUS
 10
13.7973868583
 20
8.4191345505
 11
13.8139781861
 21
8.4271411731
  0
LINE
  5
4CC
100
AcDbEntity
  8
0
100
AcDbLine
 62
7
  6
CONTINUOUS
 10
13.7690911363
 20
8.4027981036
 11
13.7857873259
 21
8.4108482068
  0
LINE
  5
4CD
100
AcDbEntity
  8
0
100
AcDbLine
 62
7
  6
CONTINUOUS
 10
13.8256798735
 20
8.435469433
 11
13.8424587275
 21
8.443548306
  0
LWPOLYLINE
  5
4CE
100
AcDbEntity
  8
0
100
AcDbPolyline
 62
7
  6
CONTINUOUS
 90
15
 70
0
 10
13.7273507712
 20
8.3232662302
 10
13.7412632246
 20
8.3299619149
 10
13.7721589759
 20
8.3371048651
 10
13.8063419584
 20
8.3357754924
 10
13.8427735394
 20
8.3260141891
 10
13.8803467638
 20
8.3081175476
 10
13.9179199883
 20
8.2826293481
 10
13.9543515693
 20
8.2503240368
 10
13.9885345518
 20
8.2121831942
 10
14.0194303031
 20
8.1693657104
 10
14.0461000714
 20
8.1231725731
 10
14.0677335093
 20
8.0750073373
 10
14.0836732958
 20
8.0263334794
 10
14.0934351085
 20
7.9786299299
 10
14.0967223397
 20
7.9333461371
  0
LINE
  5
4CF
100
AcDbEntity
  8
0
100
AcDbLine
 62
7
  6
CONTINUOUS
 10
13.882242278
 20
8.4681255576
 11
13.8990913939
 21
8.4762331105
  0
LINE
  5
4D0
100
AcDbEntity
  8
0
100
AcDbLine
 62
7
  6
CONTINUOUS
 10
13.8539647804
 20
8.4517996341
 11
13.8707997574
 21
8.459900408
  0
LINE
  5
4D1
100
AcDbEntity
  8
0
100
AcDbLine
 62
7
  6
CONTINUOUS
 10
13.7407996886
 20
8.3864641243
 11
13.7596566497
 21
8.3953444007
  0
LINE
  5
4D2
100
AcDbEntity
  8
0
100
AcDbLine
 62
7
  6
CONTINUOUS
 10
13.7139540709
 20
8.3709648959
 11
13.7342735988
 21
8.38037554
  0
LINE
  5
4D3
100
AcDbEntity
  8
0
100
AcDbLine
 62
7
  6
CONTINUOUS
 10
14.0342199772
 20
8.5552144458
 11
14.0709046158
 21
8.5657692357
  0
LINE
  5
4D4
100
AcDbEntity
  8
0
100
AcDbLine
 62
7
  6
CONTINUOUS
 10
14.04403467
 20
8.5502559579
 11
14.025058987
 21
8.5447963335
  0
LINE
  5
4D5
100
AcDbEntity
  8
0
100
AcDbLine
 62
7
  6
CONTINUOUS
 10
14.1269425536
 20
8.5983536553
 11
14.0913825618
 21
8.5881433353
  0
LWPOLYLINE
  5
4D6
100
AcDbEntity
  8
0
100
AcDbPolyline
 62
7
  6
CONTINUOUS
 90
3
 70
0
 10
13.8029946055
 20
7.8280309468
 10
13.8411833146
 20
7.7953960171
 10
13.8803467638
 20
7.7692259523
  0
LINE
  5
4D7
100
AcDbEntity
  8
0
100
AcDbLine
 62
7
  6
CONTINUOUS
 10
14.241399955
 20
7.3942718386
 11
14.2677523818
 21
7.3602506128
  0
LWPOLYLINE
  5
4D8
100
AcDbEntity
  8
0
100
AcDbPolyline
 62
7
  6
CONTINUOUS
 90
5
 70
0
 10
14.241399955
 20
7.3942718386
 10
14.2344186615
 20
7.4041118955
 10
14.2227613253
 20
7.427032737
 10
14.2168726327
 20
7.4506780947
 10
14.2161336598
 20
7.4626230513
  0
LINE
  5
4D9
100
AcDbEntity
  8
0
100
AcDbLine
 62
7
  6
CONTINUOUS
 10
13.778919003
 20
8.4730322455
 11
13.7920889012
 21
8.4155457209
  0
LINE
  5
4DA
100
AcDbEntity
  8
0
100
AcDbLine
 62
9
  6
CONTINUOUS
 10
13.7883485334
 20
8.5085961825
 11
13.803058906
 21
8.4220020015
  0
LWPOLYLINE
  5
4DB
100
AcDbEntity
  8
0
100
AcDbPolyline
 62
7
  6
CONTINUOUS
 90
6
 70
0
 10
13.8803467638
 20
7.7692259523
 10
13.922834552
 20
7.749710497
 10
13.9638508839
 20
7.7392885531
 10
14.0020918358
 20
7.7382037686
 10
14.0367889804
 20
7.7464660392
 10
14.0666403925
 20
7.7637617337
  0
LWPOLYLINE
  5
4DC
100
AcDbEntity
  8
0
100
AcDbPolyline
 62
7
  6
CONTINUOUS
 90
8
 70
0
 10
13.8803467638
 20
7.8084180683
 10
13.8427735394
 20
7.8339062678
 10
13.8063419584
 20
7.8662115791
 10
13.7721589759
 20
7.9043524217
 10
13.7412632246
 20
7.9471699055
 10
13.7145934563
 20
7.9933630428
 10
13.6929600184
 20
8.0415282786
 10
13.6770202318
 20
8.0902021365
  0
LWPOLYLINE
  5
4DD
100
AcDbEntity
  8
0
100
AcDbPolyline
 62
7
  6
CONTINUOUS
 90
13
 70
0
 10
14.2139627523
 20
7.4799172466
 10
14.226426659
 20
7.4493225699
 10
14.2484156522
 20
7.4205710756
 10
14.279180923
 20
7.3946418614
 10
14.317674797
 20
7.3724179156
 10
14.3625864116
 20
7.3546560481
 10
14.4123863555
 20
7.3419611179
 10
14.4653787515
 20
7.3347654356
 10
14.519759007
 20
7.3333140417
 10
14.5736752676
 20
7.3376563614
 10
14.6252914798
 20
7.3476445225
 10
14.6728499153
 20
7.36293839
 10
14.7147310287
 20
7.3830171495
  0
LWPOLYLINE
  5
4DE
100
AcDbEntity
  8
0
100
AcDbPolyline
 62
7
  6
CONTINUOUS
 90
10
 70
0
 10
14.150462514
 20
7.9251814172
 10
14.1458064359
 20
7.9775458945
 10
14.133541379
 20
8.0327416678
 10
14.1140219156
 20
8.0890493608
 10
14.0878258986
 20
8.144717648
 10
14.0557360251
 20
8.1980159231
 10
14.018718995
 20
8.24728258
 10
13.9778953029
 20
8.2909798433
 10
13.9345017476
 20
8.3277446388
 10
13.8898513414
 20
8.3564301077
  0
LWPOLYLINE
  5
4DF
100
AcDbEntity
  8
0
100
AcDbPolyline
 62
7
  6
CONTINUOUS
 90
4
 70
0
 10
14.1518767217
 20
7.9259979055
 10
14.1500336619
 20
7.9567343914
 10
14.1454646643
 20
7.9887025777
 10
14.1382111357
 20
8.0215734392
  0
LINE
  5
4E0
100
AcDbEntity
  8
AXIS_COSMETIC_THREADS
100
AcDbLine
 62
7
  6
CONTINUOUS
 10
14.0818730355
 20
8.0247096794
 11
14.0818730355
 21
7.8591287064
  0
LINE
  5
4E1
100
AcDbEntity
  8
0
100
AcDbLine
 62
7
  6
CONTINUOUS
 10
14.127827071
 20
7.9354405293
 11
14.1265467454
 21
7.8883071188
  0
LINE
  5
4E2
100
AcDbEntity
  8
0
100
AcDbLine
 62
7
  6
CONTINUOUS
 10
14.1509994173
 20
7.8971312949
 11
14.1518767217
 21
7.9259979055
  0
LWPOLYLINE
  5
4E3
100
AcDbEntity
  8
0
100
AcDbPolyline
 62
7
  6
CONTINUOUS
 90
9
 70
0
 10
14.1233367026
 20
7.8886719635
 10
14.1242423748
 20
7.9085199627
 10
14.1212272752
 20
7.9588006007
 10
14.1111950893
 20
8.0111551974
 10
14.0952087391
 20
8.0626281862
 10
14.0747957372
 20
8.1109825689
 10
14.0519475369
 20
8.1541107595
 10
14.0284896828
 20
8.1910373467
 10
14.0055949976
 20
8.2219632963
  0
LWPOLYLINE
  5
4E4
100
AcDbEntity
  8
0
100
AcDbPolyline
 62
7
  6
CONTINUOUS
 90
4
 70
0
 10
14.150462514
 20
7.9251814172
 10
14.1474410352
 20
7.8776107949
 10
14.1367523373
 20
7.8354458517
 10
14.118828899
 20
7.8007260825
  0
LWPOLYLINE
  5
4E5
100
AcDbEntity
  8
0
100
AcDbPolyline
 62
7
  6
CONTINUOUS
 90
5
 70
0
 10
14.0967223397
 20
7.9333461371
 10
14.0934351085
 20
7.891858026
 10
14.0836732958
 20
7.8554261919
 10
14.0677335093
 20
7.8251575977
 10
14.0461000714
 20
7.8019719392
  0
LWPOLYLINE
  5
4E6
100
AcDbEntity
  8
0
100
AcDbPolyline
 62
7
  6
CONTINUOUS
 90
3
 70
0
 10
14.1265467454
 20
7.8883071188
 10
14.1178706103
 20
7.8466248053
 10
14.1115191621
 20
7.8325673251
  0
LWPOLYLINE
  5
4E7
100
AcDbEntity
  8
0
100
AcDbPolyline
 62
7
  6
CONTINUOUS
 90
6
 70
0
 10
14.4321930875
 20
7.6225403341
 10
14.4654975226
 20
7.6129846484
 10
14.540335782
 20
7.6006494071
 10
14.6107259122
 20
7.6017740958
 10
14.6753860765
 20
7.6156874502
 10
14.7337124953
 20
7.6416304848
  0
LINE
  5
4E8
100
AcDbEntity
  8
0
100
AcDbLine
 62
7
  6
CONTINUOUS
 10
14.4321379657
 20
7.6225581433
 11
14.4321918863
 21
7.622540722
  0
LWPOLYLINE
  5
4E9
100
AcDbEntity
  8
0
100
AcDbPolyline
 62
9
  6
CONTINUOUS
 90
13
 70
0
 10
14.2975380278
 20
7.7051263503
 10
14.3646836151
 20
7.6714425039
 10
14.4306803227
 20
7.6484985963
 10
14.4943989288
 20
7.6366872043
 10
14.5547491903
 20
7.636210424
 10
14.6106984975
 20
7.6470764132
 10
14.6612895422
 20
7.6690992519
 10
14.7056566977
 20
7.7019021231
 10
14.7430408296
 20
7.7449237608
 10
14.772802285
 20
7.7974280526
 10
14.7944318372
 20
7.8585166356
 10
14.8075593985
 20
7.9271442673
 10
14.8119603528
 20
8.0021367098
  0
LWPOLYLINE
  5
4EA
100
AcDbEntity
  8
0
100
AcDbPolyline
 62
9
  6
CONTINUOUS
 90
4
 70
0
 10
14.2131460487
 20
7.7433671926
 10
14.2353863966
 20
7.7286768096
 10
14.2635351426
 20
7.7156051603
 10
14.2975380278
 20
7.7051263503
  0
LINE
  5
4EB
100
AcDbEntity
  8
0
100
AcDbLine
 62
7
  6
CONTINUOUS
 10
14.2130950406
 20
7.7434070776
 11
14.2131460487
 21
7.7433671926
  0
LWPOLYLINE
  5
4EC
100
AcDbEntity
  8
0
100
AcDbPolyline
 62
9
  6
CONTINUOUS
 90
5
 70
0
 10
14.2975380278
 20
7.7051263503
 10
14.3341358247
 20
7.6748447596
 10
14.3695180123
 20
7.651237637
 10
14.4028088329
 20
7.6339073745
 10
14.4321379657
 20
7.6225581433
  0
LWPOLYLINE
  5
4ED
100
AcDbEntity
  8
0
100
AcDbPolyline
 62
9
  6
CONTINUOUS
 90
3
 70
0
 10
14.1563410385
 20
7.8097695052
 10
14.2243199016
 20
7.7534453793
 10
14.2975380278
 20
7.7051263503
  0
LWPOLYLINE
  5
4EE
100
AcDbEntity
  8
0
100
AcDbPolyline
 62
7
  6
CONTINUOUS
 90
3
 70
0
 10
14.1445028798
 20
7.802627931
 10
14.1469227606
 20
7.8001310684
 10
14.2130933669
 20
7.7434083871
  0
LINE
  5
4EF
100
AcDbEntity
  8
0
100
AcDbLine
 62
7
  6
CONTINUOUS
 10
14.2131467341
 20
7.7433666393
 11
14.213464716
 21
7.7430165319
  0
LWPOLYLINE
  5
4F0
100
AcDbEntity
  8
0
100
AcDbPolyline
 62
9
  6
CONTINUOUS
 90
8
 70
0
 10
14.2975380278
 20
7.7051263503
 10
14.3296104001
 20
7.6664535828
 10
14.3635035752
 20
7.6357609059
 10
14.3976506189
 20
7.613230773
 10
14.4310590397
 20
7.5982955676
 10
14.4632995064
 20
7.5901827833
 10
14.4943577049
 20
7.5883163977
 10
14.5243989453
 20
7.592578822
  0
LWPOLYLINE
  5
4F1
100
AcDbEntity
  8
0
100
AcDbPolyline
 62
7
  6
CONTINUOUS
 90
4
 70
0
 10
14.1397908293
 20
8.0303486713
 10
14.1501031957
 20
7.9773763871
 10
14.1529166056
 20
7.9275465662
 10
14.1521019789
 20
7.9110360742
  0
LWPOLYLINE
  5
4F2
100
AcDbEntity
  8
0
100
AcDbPolyline
 62
7
  6
CONTINUOUS
 90
3
 70
0
 10
14.1433263485
 20
8.0323898921
 10
14.1536387149
 20
7.9794176078
 10
14.1564521248
 20
7.9295877869
  0
LINE
  5
4F3
100
AcDbEntity
  8
0
100
AcDbLine
 62
7
  6
CONTINUOUS
 10
14.2111381804
 20
7.5034650032
 11
14.2139627523
 21
7.4799172466
  0
LWPOLYLINE
  5
4F4
100
AcDbEntity
  8
0
100
AcDbPolyline
 62
7
  6
CONTINUOUS
 90
11
 70
0
 10
14.1801608751
 20
7.9423276716
 10
14.175643556
 20
7.9938034759
 10
14.1637636185
 20
8.0480362268
 10
14.1447414759
 20
8.1036766667
 10
14.1192629239
 20
8.1585888824
 10
14.0875513169
 20
8.211998498
 10
14.0506292255
 20
8.26177053
 10
14.0101871864
 20
8.3056301078
 10
13.9676379109
 20
8.3423075317
 10
13.9231653429
 20
8.3715854559
 10
13.9047058629
 20
8.381138882
  0
LWPOLYLINE
  5
4F5
100
AcDbEntity
  8
0
100
AcDbPolyline
 62
7
  6
CONTINUOUS
 90
11
 70
0
 10
14.2084450286
 20
7.9586574378
 10
14.2039413375
 20
8.0100452853
 10
14.192021429
 20
8.0644597506
 10
14.1729152528
 20
8.1202803578
 10
14.1474032195
 20
8.1751914623
 10
14.1157036418
 20
8.2285265324
 10
14.078844454
 20
8.2781836275
 10
14.0385162726
 20
8.3219163173
 10
13.9957906214
 20
8.3587370791
 10
13.9510792786
 20
8.3881217523
 10
13.9329900164
 20
8.3974686481
  0
LWPOLYLINE
  5
4F6
100
AcDbEntity
  8
0
100
AcDbPolyline
 62
7
  6
CONTINUOUS
 90
11
 70
0
 10
14.2367291821
 20
7.9749872039
 10
14.2322157237
 20
8.0264381031
 10
14.2201686177
 20
8.0812758756
 10
14.2009114411
 20
8.1373228627
 10
14.1752986524
 20
8.1922567312
 10
14.1436088843
 20
8.2454252409
 10
14.1069268821
 20
8.2947570989
 10
14.0668956849
 20
8.3381537061
 10
14.0241518931
 20
8.3750083129
 10
13.9794181176
 20
8.4044210499
 10
13.9612741699
 20
8.4137984143
  0
LINE
  5
4F7
100
AcDbEntity
  8
0
100
AcDbLine
 62
7
  6
CONTINUOUS
 10
14.2111336598
 20
7.5034481721
 11
14.2111336598
 21
7.7450882847
  0
LINE
  5
4F8
100
AcDbEntity
  8
0
100
AcDbLine
 62
7
  6
CONTINUOUS
 10
14.2161336598
 20
7.4745884029
 11
14.2161336598
 21
7.4626230513
  0
LINE
  5
4F9
100
AcDbEntity
  8
0
100
AcDbLine
 62
7
  6
CONTINUOUS
 10
14.1792835708
 20
7.9134610611
 11
14.1801608751
 21
7.9423276716
  0
LINE
  5
4FA
100
AcDbEntity
  8
0
100
AcDbLine
 62
7
  6
CONTINUOUS
 10
14.2075677243
 20
7.9297908273
 11
14.2084450286
 21
7.9586574378
  0
LINE
  5
4FB
100
AcDbEntity
  8
0
100
AcDbLine
 62
7
  6
CONTINUOUS
 10
14.2358518778
 20
7.9461205934
 11
14.2367291821
 21
7.9749872039
  0
LINE
  5
4FC
100
AcDbEntity
  8
0
100
AcDbLine
 62
7
  6
CONTINUOUS
 10
14.1846712265
 20
7.9610533285
 11
14.1822777729
 21
7.9143132063
  0
LWPOLYLINE
  5
4FD
100
AcDbEntity
  8
0
100
AcDbPolyline
 62
7
  6
CONTINUOUS
 90
4
 70
0
 10
14.207030821
 20
7.9578409495
 10
14.2040128316
 20
7.9102933275
 10
14.193335325
 20
7.8681447839
 10
14.1754292087
 20
7.833431595
  0
LWPOLYLINE
  5
4FE
100
AcDbEntity
  8
0
100
AcDbPolyline
 62
7
  6
CONTINUOUS
 90
4
 70
0
 10
14.1787466675
 20
7.9415111833
 10
14.1757246834
 20
7.8939372322
 10
14.1650343691
 20
7.8517699259
 10
14.147108193
 20
7.8170488703
  0
LWPOLYLINE
  5
4FF
100
AcDbEntity
  8
0
100
AcDbPolyline
 62
7
  6
CONTINUOUS
 90
3
 70
0
 10
14.2353149744
 20
7.9741707156
 10
14.2322943268
 20
7.9266055707
 10
14.2216083048
 20
7.8844445597
  0
LWPOLYLINE
  5
500
100
AcDbEntity
  8
0
100
AcDbPolyline
 62
7
  6
CONTINUOUS
 90
3
 70
0
 10
14.1564521248
 20
7.9295877869
 10
14.1517030332
 20
7.8844884563
 10
14.1446847129
 20
7.8619755409
  0
LWPOLYLINE
  5
501
100
AcDbEntity
  8
0
100
AcDbPolyline
 62
7
  6
CONTINUOUS
 90
3
 70
0
 10
14.2412287026
 20
7.9756040108
 10
14.2360103098
 20
7.930849908
 10
14.2301218307
 20
7.9128380369
  0
LWPOLYLINE
  5
502
100
AcDbEntity
  8
0
100
AcDbPolyline
 62
7
  6
CONTINUOUS
 90
3
 70
0
 10
14.2121215275
 20
7.9446996895
 10
14.2045689521
 20
7.9017547256
 10
14.200583355
 20
7.8919923367
  0
LWPOLYLINE
  5
503
100
AcDbEntity
  8
0
100
AcDbPolyline
 62
7
  6
CONTINUOUS
 90
3
 70
0
 10
14.1822777729
 20
7.9143132063
 10
14.1724168353
 20
7.8733115511
 10
14.17097374
 20
7.8704278747
  0
LWPOLYLINE
  5
504
100
AcDbEntity
  8
AXIS_COSMETIC_THREADS
100
AcDbPolyline
 62
7
  6
CONTINUOUS
 90
5
 70
0
 10
14.0818730355
 20
7.8591287064
 10
14.070236734
 20
7.834939634
 10
14.055065065
 20
7.8149084809
 10
14.0366404942
 20
7.7994081866
 10
14.0316014367
 20
7.7962994067
  0
LWPOLYLINE
  5
505
100
AcDbEntity
  8
0
100
AcDbPolyline
 62
7
  6
CONTINUOUS
 90
4
 70
0
 10
14.1202382472
 20
7.8015355924
 10
14.1381644233
 20
7.8362566481
 10
14.1488547376
 20
7.8784239543
 10
14.1509994173
 20
7.8971312949
  0
LWPOLYLINE
  5
506
100
AcDbEntity
  8
0
100
AcDbPolyline
 62
7
  6
CONTINUOUS
 90
4
 70
0
 10
14.0908095582
 20
7.789427841
 10
14.1087374594
 20
7.8226804587
 10
14.1200124117
 20
7.8627544565
 10
14.1233367026
 20
7.8886719635
  0
LINE
  5
507
100
AcDbEntity
  8
AXIS_COSMETIC_THREADS
100
AcDbLine
 62
7
  6
CONTINUOUS
 10
14.0837802532
 20
8.0258108055
 11
14.0818730355
 21
8.0247096794
  0
LWPOLYLINE
  5
508
100
AcDbEntity
  8
AXIS_COSMETIC_THREADS
100
AcDbPolyline
 62
7
  6
CONTINUOUS
 90
4
 70
0
 10
13.9655431391
 20
7.7825259548
 10
13.9380411571
 20
7.7871208828
 10
13.9094650221
 20
7.7967640187
 10
13.8803467638
 20
7.8112758268
  0
LWPOLYLINE
  5
509
100
AcDbEntity
  8
0
100
AcDbPolyline
 62
7
  6
CONTINUOUS
 90
8
 70
0
 10
14.0055949976
 20
8.2219632963
 10
14.0400093631
 20
8.1742636547
 10
14.0695843182
 20
8.1230445778
 10
14.0934429622
 20
8.069880049
 10
14.1108825153
 20
8.0164033103
 10
14.1213957248
 20
7.964257114
 10
14.124686317
 20
7.9150436836
 10
14.1238178254
 20
7.894706308
  0
LWPOLYLINE
  5
50A
100
AcDbEntity
  8
0
100
AcDbPolyline
 62
7
  6
CONTINUOUS
 90
4
 70
0
 10
14.1650810815
 20
8.037086717
 10
14.1723346101
 20
8.0042158555
 10
14.1769036077
 20
7.9722476693
 10
14.1787466675
 20
7.9415111833
  0
LWPOLYLINE
  5
50B
100
AcDbEntity
  8
0
100
AcDbPolyline
 62
9
  6
CONTINUOUS
 90
7
 70
0
 10
14.2126595862
 20
7.7437802321
 10
14.2142603532
 20
7.7339623528
 10
14.2208470587
 20
7.7196587657
 10
14.2318055091
 20
7.7089793257
 10
14.2479069268
 20
7.7024991521
 10
14.2697783257
 20
7.7009968656
 10
14.2975380278
 20
7.7051263503
  0
LWPOLYLINE
  5
50C
100
AcDbEntity
  8
0
100
AcDbPolyline
 62
7
  6
CONTINUOUS
 90
11
 70
0
 10
14.2932974891
 20
8.0076467362
 10
14.2887087749
 20
8.0595813404
 10
14.2764443759
 20
8.1149680668
 10
14.256961112
 20
8.171259167
 10
14.2312244173
 20
8.2261267179
 10
14.1996079219
 20
8.2789369482
 10
14.1632754193
 20
8.3276818246
 10
14.1233503
 20
8.3709234856
 10
14.0806248865
 20
8.4077401838
 10
14.0359215659
 20
8.4371167173
 10
14.0178424769
 20
8.4464579466
  0
LWPOLYLINE
  5
50D
100
AcDbEntity
  8
0
100
AcDbPolyline
 62
7
  6
CONTINUOUS
 90
11
 70
0
 10
14.3215816426
 20
8.0239765024
 10
14.3169872156
 20
8.0759476747
 10
14.3047068559
 20
8.1313740075
 10
14.2851991023
 20
8.1877021519
 10
14.2594412558
 20
8.2425829157
 10
14.2278942213
 20
8.295263508
 10
14.191660658
 20
8.3438896529
 10
14.1516177444
 20
8.3872694488
 10
14.1088591663
 20
8.4241077848
 10
14.0641242042
 20
8.453491872
 10
14.0461266304
 20
8.4627877127
  0
LWPOLYLINE
  5
50E
100
AcDbEntity
  8
0
100
AcDbPolyline
 62
7
  6
CONTINUOUS
 90
11
 70
0
 10
14.3498657961
 20
8.0403062686
 10
14.3452710567
 20
8.0922794395
 10
14.3329898205
 20
8.1477079507
 10
14.3134807917
 20
8.2040379595
 10
14.2877276936
 20
8.2589083926
 10
14.2562427811
 20
8.3114970146
 10
14.219994855
 20
8.3601590267
 10
14.1798950535
 20
8.4036058492
 10
14.1371330098
 20
8.4404453709
 10
14.0923961506
 20
8.4698284327
 10
14.0744107839
 20
8.4791174789
  0
LWPOLYLINE
  5
50F
100
AcDbEntity
  8
0
100
AcDbPolyline
 62
7
  6
CONTINUOUS
 90
11
 70
0
 10
14.2650133356
 20
7.9913169701
 10
14.260477611
 20
8.042911371
 10
14.2483441323
 20
8.0979900976
 10
14.2289931226
 20
8.1541521207
 10
14.2033246061
 20
8.2090736987
 10
14.1716527303
 20
8.2621151175
 10
14.1350944965
 20
8.3112275316
 10
14.0951597605
 20
8.3545029468
 10
14.0524152481
 20
8.3913538677
 10
14.0076846745
 20
8.4207606216
 10
13.9895583234
 20
8.4301281804
  0
LINE
  5
510
100
AcDbEntity
  8
0
100
AcDbLine
 62
7
  6
CONTINUOUS
 10
14.2641360313
 20
7.9624503596
 11
14.2650133356
 21
7.9913169701
  0
LINE
  5
511
100
AcDbEntity
  8
0
100
AcDbLine
 62
7
  6
CONTINUOUS
 10
14.2924201847
 20
7.9787801257
 11
14.2932974891
 21
8.0076467362
  0
LINE
  5
512
100
AcDbEntity
  8
0
100
AcDbLine
 62
7
  6
CONTINUOUS
 10
14.3207043382
 20
7.9951098919
 11
14.3215816426
 21
8.0239765024
  0
LINE
  5
513
100
AcDbEntity
  8
0
100
AcDbLine
 62
7
  6
CONTINUOUS
 10
14.3489884917
 20
8.011439658
 11
14.3498657961
 21
8.0403062686
  0
LWPOLYLINE
  5
514
100
AcDbEntity
  8
0
100
AcDbPolyline
 62
7
  6
CONTINUOUS
 90
3
 70
0
 10
14.2635991279
 20
7.9905004818
 10
14.2612318798
 20
7.9475279663
 10
14.2526554864
 20
7.908739641
  0
LWPOLYLINE
  5
515
100
AcDbEntity
  8
0
100
AcDbPolyline
 62
7
  6
CONTINUOUS
 90
4
 70
0
 10
14.3484515884
 20
8.0394897803
 10
14.3456955915
 20
7.9937125412
 10
14.3358686742
 20
7.9528644431
 10
14.3192250959
 20
7.9186096892
  0
LINE
  5
516
100
AcDbEntity
  8
0
100
AcDbLine
 62
7
  6
CONTINUOUS
 10
14.2695959807
 20
8.0069806744
 11
14.266730376
 21
7.9605571944
  0
LINE
  5
517
100
AcDbEntity
  8
0
100
AcDbLine
 62
7
  6
CONTINUOUS
 10
14.3201674349
 20
8.0231600141
 11
14.31717581
 21
7.9757866449
  0
LWPOLYLINE
  5
518
100
AcDbEntity
  8
0
100
AcDbPolyline
 62
7
  6
CONTINUOUS
 90
4
 70
0
 10
14.2918832814
 20
8.0068302479
 10
14.2888641011
 20
7.9592747744
 10
14.2781827903
 20
7.9171206734
 10
14.2602703492
 20
7.8824046248
  0
LINE
  5
519
100
AcDbEntity
  8
0
100
AcDbLine
 62
7
  6
CONTINUOUS
 10
14.3544910905
 20
8.05292504
 11
14.3511537881
 21
8.0068240005
  0
LINE
  5
51A
100
AcDbEntity
  8
0
100
AcDbLine
 62
7
  6
CONTINUOUS
 10
14.3188256456
 20
7.9781992633
 11
14.3207043382
 21
7.9951098919
  0
LINE
  5
51B
100
AcDbEntity
  8
0
100
AcDbLine
 62
7
  6
CONTINUOUS
 10
14.3259756772
 20
8.0216391331
 11
14.3202887276
 21
7.9772358499
  0
LWPOLYLINE
  5
51C
100
AcDbEntity
  8
0
100
AcDbPolyline
 62
7
  6
CONTINUOUS
 90
3
 70
0
 10
14.2967208477
 20
7.990834789
 10
14.2887043047
 20
7.9482679395
 10
14.2852064559
 20
7.9400521005
  0
LINE
  5
51D
100
AcDbEntity
  8
0
100
AcDbLine
 62
7
  6
CONTINUOUS
 10
14.3089987284
 20
7.9373511652
 11
14.3188256456
 21
7.9781992633
  0
LWPOLYLINE
  5
51E
100
AcDbEntity
  8
0
100
AcDbPolyline
 62
7
  6
CONTINUOUS
 90
3
 70
0
 10
14.31717581
 20
7.9757866449
 10
14.3065680524
 20
7.9337224912
 10
14.2887355253
 20
7.8989951575
  0
LWPOLYLINE
  5
51F
100
AcDbEntity
  8
0
100
AcDbPolyline
 62
7
  6
CONTINUOUS
 90
3
 70
0
 10
14.266730376
 20
7.9605571944
 10
14.2564114939
 20
7.9199597798
 10
14.2555376305
 20
7.9182806353
  0
LWPOLYLINE
  5
520
100
AcDbEntity
  8
0
100
AcDbPolyline
 62
7
  6
CONTINUOUS
 90
3
 70
0
 10
14.3511537881
 20
8.0068240005
 10
14.3403783368
 20
7.9666359043
 10
14.3401999498
 20
7.9663061617
  0
LINE
  5
521
100
AcDbEntity
  8
0
100
AcDbLine
 62
7
  6
CONTINUOUS
 10
14.3202887276
 20
7.9772358499
 11
14.3145912829
 21
7.9605980503
  0
LINE
  5
522
100
AcDbEntity
  8
0
100
AcDbLine
 62
7
  6
CONTINUOUS
 10
14.2526554864
 20
7.908739641
 11
14.2381087688
 21
7.8756869816
  0
LINE
  5
523
100
AcDbEntity
  8
0
100
AcDbLine
 62
7
  6
CONTINUOUS
 10
14.2923551501
 20
7.9030964114
 11
14.3089987284
 21
7.9373511652
  0
LWPOLYLINE
  5
524
100
AcDbEntity
  8
0
100
AcDbPolyline
 62
7
  6
CONTINUOUS
 90
4
 70
0
 10
14.2618655795
 20
7.8834818796
 10
14.2796981066
 20
7.9182092133
 10
14.2903058642
 20
7.960273367
 10
14.2924201847
 20
7.9787801257
  0
LWPOLYLINE
  5
525
100
AcDbEntity
  8
0
100
AcDbPolyline
 62
7
  6
CONTINUOUS
 90
4
 70
0
 10
14.1485592629
 20
7.8179183172
 10
14.1664653792
 20
7.8526315061
 10
14.1771428857
 20
7.8947800496
 10
14.1792835708
 20
7.9134610611
  0
LWPOLYLINE
  5
526
100
AcDbEntity
  8
0
100
AcDbPolyline
 62
7
  6
CONTINUOUS
 90
4
 70
0
 10
14.2334004034
 20
7.8668913469
 10
14.2513128445
 20
7.9016073955
 10
14.2619941553
 20
7.9437614966
 10
14.2641360313
 20
7.9624503596
  0
LWPOLYLINE
  5
527
100
AcDbEntity
  8
0
100
AcDbPolyline
 62
7
  6
CONTINUOUS
 90
4
 70
0
 10
14.1768186238
 20
7.8342124588
 10
14.194738359
 20
7.8689312818
 10
14.205424381
 20
7.9110922928
 10
14.2075677243
 20
7.9297908273
  0
LINE
  5
528
100
AcDbEntity
  8
0
100
AcDbLine
 62
7
  6
CONTINUOUS
 10
14.2216083048
 20
7.8844445597
 11
14.2036885696
 21
7.8497257367
  0
LWPOLYLINE
  5
529
100
AcDbEntity
  8
0
100
AcDbPolyline
 62
7
  6
CONTINUOUS
 90
5
 70
0
 10
14.1914064974
 20
7.833973718
 10
14.211238823
 20
7.8601737038
 10
14.2257855406
 20
7.8932263631
 10
14.234361934
 20
7.9320146884
 10
14.2358518778
 20
7.9461205934
  0
LINE
  5
52A
100
AcDbEntity
  8
0
100
AcDbLine
 62
7
  6
CONTINUOUS
 10
14.2381087688
 20
7.8756869816
 11
14.2182764432
 21
7.8494869959
  0
LINE
  5
52B
100
AcDbEntity
  8
0
100
AcDbLine
 62
7
  6
CONTINUOUS
 10
14.1244030296
 20
7.7918894705
 11
14.1485592629
 21
7.8179183172
  0
LINE
  5
52C
100
AcDbEntity
  8
0
100
AcDbLine
 62
7
  6
CONTINUOUS
 10
14.1754292087
 20
7.833431595
 11
14.1512729754
 21
7.8074027484
  0
LINE
  5
52D
100
AcDbEntity
  8
0
100
AcDbLine
 62
7
  6
CONTINUOUS
 10
14.118828899
 20
7.8007260825
 11
14.09465762
 21
7.7747056464
  0
LINE
  5
52E
100
AcDbEntity
  8
0
100
AcDbLine
 62
7
  6
CONTINUOUS
 10
14.1526363251
 20
7.8081786267
 11
14.1768186238
 21
7.8342124588
  0
LINE
  5
52F
100
AcDbEntity
  8
0
100
AcDbLine
 62
7
  6
CONTINUOUS
 10
14.0960618921
 20
7.775514206
 11
14.1202382472
 21
7.8015355924
  0
LINE
  5
530
100
AcDbEntity
  8
0
100
AcDbLine
 62
7
  6
CONTINUOUS
 10
14.147108193
 20
7.8170488703
 11
14.122931838
 21
7.7910274839
  0
LINE
  5
531
100
AcDbEntity
  8
0
100
AcDbLine
 62
7
  6
CONTINUOUS
 10
14.0666403925
 20
7.7637617337
 11
14.0908095582
 21
7.789427841
  0
LWPOLYLINE
  5
532
100
AcDbEntity
  8
0
100
AcDbPolyline
 62
7
  6
CONTINUOUS
 90
7
 70
0
 10
14.0055949976
 20
8.2219632963
 10
13.9780568414
 20
8.2546116396
 10
13.9484836084
 20
8.2843067468
 10
13.9187758943
 20
8.3092954783
 10
13.8894206116
 20
8.3296250798
 10
13.8582084331
 20
8.3466604416
 10
13.8243875297
 20
8.3597216263
  0
LWPOLYLINE
  5
533
100
AcDbEntity
  8
0
100
AcDbPolyline
 62
7
  6
CONTINUOUS
 90
11
 70
0
 10
14.4347182565
 20
8.089295567
 10
14.4300239704
 20
8.1419025855
 10
14.417464724
 20
8.198017011
 10
14.3975281896
 20
8.2549906893
 10
14.3712531098
 20
8.3103757048
 10
14.3390062893
 20
8.3635883511
 10
14.3015020018
 20
8.4131486996
 10
14.2604422144
 20
8.4567192203
 10
14.2169823815
 20
8.4931713264
 10
14.1719232917
 20
8.5217185357
 10
14.1592632443
 20
8.5281067774
  0
LWPOLYLINE
  5
534
100
AcDbEntity
  8
0
100
AcDbPolyline
 62
7
  6
CONTINUOUS
 90
11
 70
0
 10
14.3781499496
 20
8.0566360347
 10
14.3735603812
 20
8.1085761078
 10
14.3612935786
 20
8.1639688179
 10
14.341806935
 20
8.2202647487
 10
14.3160924723
 20
8.2750867163
 10
14.2847305133
 20
8.3275222581
 10
14.2483533264
 20
8.3763990752
 10
14.2081898976
 20
8.4199252528
 10
14.1654532275
 20
8.4567477811
 10
14.1207448234
 20
8.4861222797
 10
14.1026949374
 20
8.4954472451
  0
LWPOLYLINE
  5
535
100
AcDbEntity
  8
0
100
AcDbPolyline
 62
7
  6
CONTINUOUS
 90
11
 70
0
 10
14.4064341031
 20
8.0729658009
 10
14.4018401484
 20
8.1249339502
 10
14.3895610906
 20
8.1803570717
 10
14.3700557875
 20
8.2366810919
 10
14.344324653
 20
8.2915141174
 10
14.3128816637
 20
8.3440510214
 10
14.2762490195
 20
8.3931973863
 10
14.2359417124
 20
8.4367702791
 10
14.1931887143
 20
8.4734930776
 10
14.1486067759
 20
8.5026867569
 10
14.1309790909
 20
8.5117770112
  0
LINE
  5
536
100
AcDbEntity
  8
AXIS_COSMETIC_THREADS
100
AcDbLine
 62
7
  6
CONTINUOUS
 10
14.3896336598
 20
7.287299051
 11
14.3896336598
 21
6.8069716103
  0
LINE
  5
537
100
AcDbEntity
  8
0
100
AcDbLine
 62
7
  6
CONTINUOUS
 10
14.3772726452
 20
8.0277694242
 11
14.3781499496
 21
8.0566360347
  0
LINE
  5
538
100
AcDbEntity
  8
0
100
AcDbLine
 62
7
  6
CONTINUOUS
 10
14.4055567987
 20
8.0440991903
 11
14.4064341031
 21
8.0729658009
  0
LINE
  5
539
100
AcDbEntity
  8
0
100
AcDbLine
 62
7
  6
CONTINUOUS
 10
14.4338409522
 20
8.0604289565
 11
14.4347182565
 21
8.089295567
  0
LINE
  5
53A
100
AcDbEntity
  8
0
100
AcDbLine
 62
7
  6
CONTINUOUS
 10
14.4392578876
 20
8.1069234356
 11
14.4367603503
 21
8.0607501477
  0
LWPOLYLINE
  5
53B
100
AcDbEntity
  8
0
100
AcDbPolyline
 62
7
  6
CONTINUOUS
 90
4
 70
0
 10
14.3767357419
 20
8.0558195464
 10
14.3737874399
 20
8.0087343499
 10
14.3633861465
 20
7.9670599125
 10
14.3457912802
 20
7.9323633703
  0
LWPOLYLINE
  5
53C
100
AcDbEntity
  8
0
100
AcDbPolyline
 62
7
  6
CONTINUOUS
 90
4
 70
0
 10
14.4050198954
 20
8.0721493126
 10
14.4020664195
 20
8.0250295796
 10
14.391742536
 20
7.9835872775
 10
14.3742629176
 20
7.9489682692
  0
LWPOLYLINE
  5
53D
100
AcDbEntity
  8
0
100
AcDbPolyline
 62
7
  6
CONTINUOUS
 90
4
 70
0
 10
14.4333040489
 20
8.0884790787
 10
14.4303371228
 20
8.0412697174
 10
14.420001541
 20
7.9998481707
 10
14.4025760154
 20
7.9653406391
  0
LWPOLYLINE
  5
53E
100
AcDbEntity
  8
0
100
AcDbPolyline
 62
7
  6
CONTINUOUS
 90
4
 70
0
 10
14.4615882024
 20
8.1048088449
 10
14.4586147217
 20
8.0575558865
 10
14.4482445971
 20
8.0160655699
 10
14.4308497685
 20
7.9816550927
  0
LWPOLYLINE
  5
53F
100
AcDbEntity
  8
0
100
AcDbPolyline
 62
7
  6
CONTINUOUS
 90
3
 70
0
 10
14.4675500515
 20
8.1079845981
 10
14.4626961969
 20
8.0634618428
 10
14.4558449552
 20
8.0416589103
  0
LWPOLYLINE
  5
540
100
AcDbEntity
  8
0
100
AcDbPolyline
 62
7
  6
CONTINUOUS
 90
3
 70
0
 10
14.4106930679
 20
8.0676935226
 10
14.4045383639
 20
8.0236466076
 10
14.3992764862
 20
8.0089615558
  0
LWPOLYLINE
  5
541
100
AcDbEntity
  8
0
100
AcDbPolyline
 62
7
  6
CONTINUOUS
 90
3
 70
0
 10
14.3812907351
 20
8.0369909636
 10
14.3728113148
 20
7.99480755
 10
14.3698947216
 20
7.9882339217
  0
LWPOLYLINE
  5
542
100
AcDbEntity
  8
0
100
AcDbPolyline
 62
7
  6
CONTINUOUS
 90
3
 70
0
 10
14.4367603503
 20
8.0607501477
 10
14.426950889
 20
8.0202143868
 10
14.4256257362
 20
8.0175606566
  0
LWPOLYLINE
  5
543
100
AcDbEntity
  8
0
100
AcDbPolyline
 62
7
  6
CONTINUOUS
 90
4
 70
0
 10
14.3473929718
 20
7.9334549914
 10
14.3648725902
 20
7.9680739997
 10
14.3751964737
 20
8.0095163017
 10
14.3772726452
 20
8.0277694242
  0
LWPOLYLINE
  5
544
100
AcDbEntity
  8
0
100
AcDbPolyline
 62
7
  6
CONTINUOUS
 90
4
 70
0
 10
14.3757060696
 20
7.9498273612
 10
14.3931315952
 20
7.9843348928
 10
14.4034671769
 20
8.0257564396
 10
14.4055567987
 20
8.0440991903
  0
LWPOLYLINE
  5
545
100
AcDbEntity
  8
0
100
AcDbPolyline
 62
7
  6
CONTINUOUS
 90
4
 70
0
 10
14.4039798227
 20
7.9661418149
 10
14.4213746513
 20
8.000552292
 10
14.4317447759
 20
8.0420426086
 10
14.4338409522
 20
8.0604289565
  0
LWPOLYLINE
  5
546
100
AcDbEntity
  8
0
100
AcDbPolyline
 62
7
  6
CONTINUOUS
 90
4
 70
0
 10
14.3189213344
 20
7.9168500925
 10
14.3365162007
 20
7.9515466347
 10
14.3469174941
 20
7.993221072
 10
14.3489884917
 20
8.011439658
  0
LWPOLYLINE
  5
547
100
AcDbEntity
  8
0
100
AcDbPolyline
 62
7
  6
CONTINUOUS
 90
4
 70
0
 10
14.4321720555
 20
7.9823364386
 10
14.4495764957
 20
8.0166576967
 10
14.4600191132
 20
8.0583071816
 10
14.4621251057
 20
8.0767587226
  0
LINE
  5
548
100
AcDbEntity
  8
0
100
AcDbLine
 62
7
  6
CONTINUOUS
 10
14.4777618924
 20
8.0327194639
 11
14.4601077941
 21
7.9981570817
  0
LINE
  5
549
100
AcDbEntity
  8
0
100
AcDbLine
 62
7
  6
CONTINUOUS
 10
14.2696678723
 20
7.8767489186
 11
14.2923551501
 21
7.9030964114
  0
LINE
  5
54A
100
AcDbEntity
  8
0
100
AcDbLine
 62
7
  6
CONTINUOUS
 10
14.3192250959
 20
7.9186096892
 11
14.2965378181
 21
7.8922621964
  0
LINE
  5
54B
100
AcDbEntity
  8
0
100
AcDbLine
 62
7
  6
CONTINUOUS
 10
14.3517959117
 20
7.9234337254
 11
14.3757060696
 21
7.9498273612
  0
LINE
  5
54C
100
AcDbEntity
  8
0
100
AcDbLine
 62
7
  6
CONTINUOUS
 10
14.4025760154
 20
7.9653406391
 11
14.3786658575
 21
7.9389470032
  0
LINE
  5
54D
100
AcDbEntity
  8
0
100
AcDbLine
 62
7
  6
CONTINUOUS
 10
14.3800793927
 20
7.9397629403
 11
14.4039798227
 21
7.9661418149
  0
LINE
  5
54E
100
AcDbEntity
  8
0
100
AcDbLine
 62
7
  6
CONTINUOUS
 10
14.4308497685
 20
7.9816550927
 11
14.4069493385
 21
7.9552762181
  0
LINE
  5
54F
100
AcDbEntity
  8
0
100
AcDbLine
 62
7
  6
CONTINUOUS
 10
14.323472165
 20
7.907071519
 11
14.3473929718
 21
7.9334549914
  0
LINE
  5
550
100
AcDbEntity
  8
0
100
AcDbLine
 62
7
  6
CONTINUOUS
 10
14.3742629176
 20
7.9489682692
 11
14.3503421108
 21
7.9225847968
  0
LINE
  5
551
100
AcDbEntity
  8
0
100
AcDbLine
 62
7
  6
CONTINUOUS
 10
14.4082717286
 20
7.9560175229
 11
14.4321720555
 21
7.9823364386
  0
LINE
  5
552
100
AcDbEntity
  8
0
100
AcDbLine
 62
7
  6
CONTINUOUS
 10
14.294928189
 20
7.8905295985
 11
14.3189213344
 21
7.9168500925
  0
LINE
  5
553
100
AcDbEntity
  8
0
100
AcDbLine
 62
7
  6
CONTINUOUS
 10
14.3457912802
 20
7.9323633703
 11
14.3217981348
 21
7.9060428764
  0
LWPOLYLINE
  5
554
100
AcDbEntity
  8
0
100
AcDbPolyline
 62
7
  6
CONTINUOUS
 90
3
 70
0
 10
14.4601077941
 20
7.9981570817
 10
14.4358675234
 20
7.9717886433
 10
14.4215046404
 20
7.9619402081
  0
LINE
  5
555
100
AcDbEntity
  8
0
100
AcDbLine
 62
7
  6
CONTINUOUS
 10
14.2377239763
 20
7.8573561212
 11
14.2618655795
 21
7.8834818796
  0
LINE
  5
556
100
AcDbEntity
  8
0
100
AcDbLine
 62
7
  6
CONTINUOUS
 10
14.2887355253
 20
7.8989951575
 11
14.2645939222
 21
7.872869399
  0
LINE
  5
557
100
AcDbEntity
  8
0
100
AcDbLine
 62
7
  6
CONTINUOUS
 10
14.2092122617
 20
7.8408442483
 11
14.2334004034
 21
7.8668913469
  0
LINE
  5
558
100
AcDbEntity
  8
0
100
AcDbLine
 62
7
  6
CONTINUOUS
 10
14.2602703492
 20
7.8824046248
 11
14.2360822075
 21
7.8563575261
  0
LINE
  5
559
100
AcDbEntity
  8
0
100
AcDbLine
 62
7
  6
CONTINUOUS
 10
14.2036885696
 20
7.8497257367
 11
14.1795062709
 21
7.8236919045
  0
LINE
  5
55A
100
AcDbEntity
  8
0
100
AcDbLine
 62
7
  6
CONTINUOUS
 10
14.1669470206
 20
7.814972175
 11
14.1914064974
 21
7.833973718
  0
LINE
  5
55B
100
AcDbEntity
  8
0
100
AcDbLine
 62
7
  6
CONTINUOUS
 10
14.2182764432
 20
7.8494869959
 11
14.1938169664
 21
7.8304854529
  0
LINE
  5
55C
100
AcDbEntity
  8
0
100
AcDbLine
 62
7
  6
CONTINUOUS
 10
14.251816664
 20
7.863971396
 11
14.2696678723
 21
7.8767489186
  0
LINE
  5
55D
100
AcDbEntity
  8
0
100
AcDbLine
 62
7
  6
CONTINUOUS
 10
14.2965378181
 20
7.8922621964
 11
14.2786866098
 21
7.8794846739
  0
LINE
  5
55E
100
AcDbEntity
  8
0
100
AcDbLine
 62
7
  6
CONTINUOUS
 10
14.3366890548
 20
7.9129722086
 11
14.3517959117
 21
7.9234337254
  0
LINE
  5
55F
100
AcDbEntity
  8
0
100
AcDbLine
 62
7
  6
CONTINUOUS
 10
14.3786658575
 20
7.9389470032
 11
14.3635590006
 21
7.9284854865
  0
LINE
  5
560
100
AcDbEntity
  8
0
100
AcDbLine
 62
7
  6
CONTINUOUS
 10
14.3649738295
 20
7.9293023337
 11
14.3800793927
 21
7.9397629403
  0
LINE
  5
561
100
AcDbEntity
  8
0
100
AcDbLine
 62
7
  6
CONTINUOUS
 10
14.4069493385
 20
7.9552762181
 11
14.3918437753
 21
7.9448156116
  0
LINE
  5
562
100
AcDbEntity
  8
0
100
AcDbLine
 62
7
  6
CONTINUOUS
 10
14.3084038918
 20
7.8966418591
 11
14.323472165
 21
7.907071519
  0
LINE
  5
563
100
AcDbEntity
  8
0
100
AcDbLine
 62
7
  6
CONTINUOUS
 10
14.3503421108
 20
7.9225847968
 11
14.3352738376
 21
7.912155137
  0
LWPOLYLINE
  5
564
100
AcDbEntity
  8
0
100
AcDbPolyline
 62
7
  6
CONTINUOUS
 90
4
 70
0
 10
14.4200904188
 20
7.9611237117
 10
14.4351947399
 20
7.9715742334
 10
14.4591226958
 20
7.9979683355
 10
14.4765399389
 20
8.032425904
  0
LINE
  5
565
100
AcDbEntity
  8
0
100
AcDbLine
 62
7
  6
CONTINUOUS
 10
14.3932591398
 20
7.9456327684
 11
14.4082717286
 21
7.9560175229
  0
LINE
  5
566
100
AcDbEntity
  8
0
100
AcDbLine
 62
7
  6
CONTINUOUS
 10
14.2801112425
 20
7.8803071842
 11
14.294928189
 21
7.8905295985
  0
LINE
  5
567
100
AcDbEntity
  8
0
100
AcDbLine
 62
7
  6
CONTINUOUS
 10
14.3217981348
 20
7.9060428764
 11
14.3069811883
 21
7.8958204621
  0
LINE
  5
568
100
AcDbEntity
  8
0
100
AcDbLine
 62
7
  6
CONTINUOUS
 10
14.2235236701
 20
7.8476365244
 11
14.2377239763
 21
7.8573561212
  0
LINE
  5
569
100
AcDbEntity
  8
0
100
AcDbLine
 62
7
  6
CONTINUOUS
 10
14.2645939222
 20
7.872869399
 11
14.2503936159
 21
7.8631498022
  0
LWPOLYLINE
  5
56A
100
AcDbEntity
  8
0
100
AcDbPolyline
 62
9
  6
CONTINUOUS
 90
15
 70
0
 10
14.4631643418
 20
8.0041410501
 10
14.4723088936
 20
8.0103956965
 10
14.4962019798
 20
8.0360561706
 10
14.5138182028
 20
8.0695588278
 10
14.5246040947
 20
8.1098715555
 10
14.5282326492
 20
8.1557436334
 10
14.5246022388
 20
8.2058059875
 10
14.5138146801
 20
8.2585728892
 10
14.4961966289
 20
8.3124171294
 10
14.4723014789
 20
8.3656670355
 10
14.4428626663
 20
8.4167164159
 10
14.4087564654
 20
8.4640554339
 10
14.370954138
 20
8.5063108899
 10
14.3305345641
 20
8.5422147059
 10
14.2886992298
 20
8.5706190006
  0
LINE
  5
56B
100
AcDbEntity
  8
0
100
AcDbLine
 62
7
  6
CONTINUOUS
 10
14.1103895886
 20
7.7823189222
 11
14.1244030296
 21
7.7918894705
  0
LINE
  5
56C
100
AcDbEntity
  8
0
100
AcDbLine
 62
7
  6
CONTINUOUS
 10
14.1512729754
 20
7.8074027484
 11
14.1372595344
 21
7.7978322
  0
LINE
  5
56D
100
AcDbEntity
  8
0
100
AcDbLine
 62
7
  6
CONTINUOUS
 10
14.09465762
 20
7.7747056464
 11
14.0807089902
 21
7.7651829278
  0
LINE
  5
56E
100
AcDbEntity
  8
0
100
AcDbLine
 62
7
  6
CONTINUOUS
 10
14.0821163941
 20
7.7659954856
 11
14.0960618921
 21
7.775514206
  0
LINE
  5
56F
100
AcDbEntity
  8
0
100
AcDbLine
 62
7
  6
CONTINUOUS
 10
14.122931838
 20
7.7910274839
 11
14.10898634
 21
7.7815087635
  0
LINE
  5
570
100
AcDbEntity
  8
0
100
AcDbLine
 62
7
  6
CONTINUOUS
 10
14.138662994
 20
7.7986424821
 11
14.1526363251
 21
7.8081786267
  0
LINE
  5
571
100
AcDbEntity
  8
0
100
AcDbLine
 62
7
  6
CONTINUOUS
 10
14.1795062709
 20
7.8236919045
 11
14.1655329398
 21
7.81415576
  0
LINE
  5
572
100
AcDbEntity
  8
0
100
AcDbLine
 62
7
  6
CONTINUOUS
 10
14.1952293935
 20
7.8313009132
 11
14.2092122617
 21
7.8408442483
  0
LINE
  5
573
100
AcDbEntity
  8
0
100
AcDbLine
 62
7
  6
CONTINUOUS
 10
14.2360822075
 20
7.8563575261
 11
14.2220993393
 21
7.8468141911
  0
LINE
  5
574
100
AcDbEntity
  8
0
100
AcDbLine
 62
7
  6
CONTINUOUS
 10
14.0461000714
 20
7.8019719392
 11
14.0333427565
 21
7.7932693857
  0
LINE
  5
575
100
AcDbEntity
  8
AXIS_COSMETIC_THREADS
100
AcDbLine
 62
7
  6
CONTINUOUS
 10
14.0851764004
 20
7.8610358937
 11
14.0818730355
 21
7.8591287064
  0
LINE
  5
576
100
AcDbEntity
  8
AXIS_COSMETIC_THREADS
100
AcDbLine
 62
7
  6
CONTINUOUS
 10
14.0515543592
 20
7.8078175776
 11
14.0315960867
 21
7.7962947324
  0
LWPOLYLINE
  5
577
100
AcDbEntity
  8
0
100
AcDbPolyline
 62
7
  6
CONTINUOUS
 90
6
 70
0
 10
14.0333427565
 20
7.7932693857
 10
14.0194303031
 20
7.7865737011
 10
13.9885345518
 20
7.7794307509
 10
13.9543515693
 20
7.7807601235
 10
13.9179199883
 20
7.7905214268
 10
13.8803467638
 20
7.8084180683
  0
LWPOLYLINE
  5
578
100
AcDbEntity
  8
AXIS_COSMETIC_THREADS
100
AcDbPolyline
 62
7
  6
CONTINUOUS
 90
4
 70
0
 10
14.0316014367
 20
7.7962994067
 10
14.01530605
 20
7.7887273353
 10
13.9914589366
 20
7.7830647829
 10
13.9655431391
 20
7.7825259548
  0
LWPOLYLINE
  5
579
100
AcDbEntity
  8
0
100
AcDbPolyline
 62
7
  6
CONTINUOUS
 90
3
 70
0
 10
14.405387417
 20
7.9540223395
 10
14.405494852
 20
7.9540475793
 10
14.4200904188
 20
7.9611237117
  0
LWPOLYLINE
  5
57A
100
AcDbEntity
  8
0
100
AcDbPolyline
 62
9
  6
CONTINUOUS
 90
16
 70
0
 10
14.4481909572
 20
7.9851940095
 10
14.4573945398
 20
7.9873416223
 10
14.487919859
 20
8.0050301089
 10
14.5126962406
 20
8.0316378537
 10
14.5309636607
 20
8.066378041
 10
14.5421480735
 20
8.1081803605
 10
14.5459103165
 20
8.1557475804
 10
14.5421450613
 20
8.2076598516
 10
14.5309579745
 20
8.2623763774
 10
14.5126879018
 20
8.318209654
 10
14.4879088191
 20
8.3734261335
 10
14.4573813652
 20
8.4263602277
 10
14.422014315
 20
8.4754463485
 10
14.382814809
 20
8.5192604171
 10
14.3409018758
 20
8.55648797
 10
14.2975380278
 20
8.5859283328
  0
LWPOLYLINE
  5
57B
100
AcDbEntity
  8
AXIS_COSMETIC_THREADS
100
AcDbPolyline
 62
7
  6
CONTINUOUS
 90
10
 70
0
 10
13.8803467638
 20
8.3052597891
 10
13.9094650221
 20
8.2861494894
 10
13.9380411571
 20
8.2627964933
 10
13.9655431391
 20
8.2356355863
 10
13.9914589366
 20
8.2051724497
 10
14.01530605
 20
8.1719742456
 10
14.0366404942
 20
8.1366590575
 10
14.055065065
 20
8.0998843827
 10
14.070236734
 20
8.0623348915
 10
14.0818730355
 20
8.0247096794
  0
LINE
  5
57C
100
AcDbEntity
  8
0
100
AcDbLine
 62
9
  6
CONTINUOUS
 10
14.5211667029
 20
7.603808957
 11
14.5243989453
 21
7.592578822
  0
LWPOLYLINE
  5
57D
100
AcDbEntity
  8
0
100
AcDbPolyline
 62
7
  6
CONTINUOUS
 90
11
 70
0
 10
14.46300241
 20
8.1056253332
 10
14.4584111259
 20
8.1575763902
 10
14.4461395422
 20
8.2129809534
 10
14.426645595
 20
8.2692878982
 10
14.4009007613
 20
8.324158997
 10
14.3690467643
 20
8.3773127921
 10
14.3320288038
 20
8.4268048936
 10
14.2915312508
 20
8.4703732609
 10
14.2488165593
 20
8.5068616163
 10
14.2045487028
 20
8.5356930459
 10
14.1875473978
 20
8.5444365435
  0
LWPOLYLINE
  5
57E
100
AcDbEntity
  8
0
100
AcDbPolyline
 62
7
  6
CONTINUOUS
 90
11
 70
0
 10
14.4912865635
 20
8.1219550993
 10
14.4867036123
 20
8.1738527921
 10
14.4744916837
 20
8.2290715372
 10
14.4551491382
 20
8.2850787935
 10
14.4295087718
 20
8.3398796339
 10
14.3976126038
 20
8.3932219889
 10
14.3605517221
 20
8.4428480514
 10
14.3200270355
 20
8.4864994618
 10
14.2773578858
 20
8.5229979092
 10
14.2332710054
 20
8.5517804414
 10
14.2158315513
 20
8.5607663097
  0
LINE
  5
57F
100
AcDbEntity
  8
0
100
AcDbLine
 62
7
  6
CONTINUOUS
 10
14.4621251057
 20
8.0767587226
 11
14.46300241
 21
8.1056253332
  0
LINE
  5
580
100
AcDbEntity
  8
0
100
AcDbLine
 62
7
  6
CONTINUOUS
 10
14.4912865635
 20
8.1219550993
 11
14.4904092592
 21
8.0930884888
  0
LINE
  5
581
100
AcDbEntity
  8
0
100
AcDbLine
 62
7
  6
CONTINUOUS
 10
14.4869013392
 20
8.0739020358
 11
14.4898723558
 21
8.121138611
  0
LWPOLYLINE
  5
582
100
AcDbEntity
  8
0
100
AcDbPolyline
 62
7
  6
CONTINUOUS
 90
3
 70
0
 10
14.4904092592
 20
8.0930884888
 10
14.4882694239
 20
8.0744130808
 10
14.4777618924
 20
8.0327194639
  0
LWPOLYLINE
  5
583
100
AcDbEntity
  8
0
100
AcDbPolyline
 62
7
  6
CONTINUOUS
 90
3
 70
0
 10
14.4950856318
 20
8.1095230401
 10
14.487893301
 20
8.0667929387
 10
14.4836258567
 20
8.0559875248
  0
LINE
  5
584
100
AcDbEntity
  8
0
100
AcDbLine
 62
7
  6
CONTINUOUS
 10
14.4765399389
 20
8.032425904
 11
14.4869013392
 21
8.0739020358
  0
LWPOLYLINE
  5
585
100
AcDbEntity
  8
0
100
AcDbPolyline
 62
7
  6
CONTINUOUS
 90
3
 70
0
 10
14.2786866098
 20
7.8794846739
 10
14.2681010888
 20
7.8740961879
 10
14.2646102037
 20
7.8731287449
  0
LINE
  5
586
100
AcDbEntity
  8
0
100
AcDbLine
 62
7
  6
CONTINUOUS
 10
14.3918437753
 20
7.9448156116
 11
14.3770902955
 21
7.9376929897
  0
LINE
  5
587
100
AcDbEntity
  8
0
100
AcDbLine
 62
7
  6
CONTINUOUS
 10
14.3635590006
 20
7.9284854865
 11
14.3488069581
 21
7.9213638714
  0
LINE
  5
588
100
AcDbEntity
  8
0
100
AcDbLine
 62
7
  6
CONTINUOUS
 10
14.3352738376
 20
7.912155137
 11
14.3205548021
 21
7.9050522363
  0
LINE
  5
589
100
AcDbEntity
  8
0
100
AcDbLine
 62
7
  6
CONTINUOUS
 10
14.3069811883
 20
7.8958204621
 11
14.2925018835
 21
7.8888556572
  0
LINE
  5
58A
100
AcDbEntity
  8
0
100
AcDbLine
 62
7
  6
CONTINUOUS
 10
14.1372595344
 20
7.7978322
 11
14.1234184042
 21
7.7912170158
  0
LINE
  5
58B
100
AcDbEntity
  8
0
100
AcDbLine
 62
7
  6
CONTINUOUS
 10
14.2503936159
 20
7.8631498022
 11
14.2364934827
 21
7.8565138927
  0
LINE
  5
58C
100
AcDbEntity
  8
0
100
AcDbLine
 62
7
  6
CONTINUOUS
 10
14.1655329398
 20
7.81415576
 11
14.1517742154
 21
7.8075902772
  0
LINE
  5
58D
100
AcDbEntity
  8
0
100
AcDbLine
 62
7
  6
CONTINUOUS
 10
14.10898634
 20
7.7815087635
 11
14.095246231
 21
7.7749574636
  0
LINE
  5
58E
100
AcDbEntity
  8
0
100
AcDbLine
 62
7
  6
CONTINUOUS
 10
14.2220993393
 20
7.8468141911
 11
14.2083932267
 21
7.8402852552
  0
LWPOLYLINE
  5
58F
100
AcDbEntity
  8
0
100
AcDbPolyline
 62
7
  6
CONTINUOUS
 90
3
 70
0
 10
14.0807089902
 20
7.7651829278
 10
14.0645432251
 20
7.7574878889
 10
14.0505376814
 20
7.7544319381
  0
LINE
  5
590
100
AcDbEntity
  8
0
100
AcDbLine
 62
7
  6
CONTINUOUS
 10
14.1938169664
 20
7.8304854529
 11
14.1794091364
 21
7.8246534708
  0
LWPOLYLINE
  5
591
100
AcDbEntity
  8
0
100
AcDbPolyline
 62
7
  6
CONTINUOUS
 90
3
 70
0
 10
13.8898513414
 20
8.3564301077
 10
13.8452976738
 20
8.3761363425
 10
13.8021937111
 20
8.3862399306
  0
LWPOLYLINE
  5
592
100
AcDbEntity
  8
0
100
AcDbPolyline
 62
7
  6
CONTINUOUS
 90
9
 70
0
 10
13.8714855328
 20
8.3698377495
 10
13.9144863573
 20
8.3492847578
 10
13.9573405924
 20
8.3201967846
 10
13.99873824
 20
8.283494134
 10
14.0374146703
 20
8.2403342833
 10
14.072190011
 20
8.1920758315
 10
14.1020058962
 20
8.140236183
 10
14.1259584318
 20
8.0864442852
 10
14.1433263485
 20
8.0323898921
  0
LWPOLYLINE
  5
593
100
AcDbEntity
  8
AXIS_COSMETIC_THREADS
100
AcDbPolyline
 62
7
  6
CONTINUOUS
 90
7
 70
0
 10
13.8803467638
 20
8.3052597891
 10
13.8512285056
 20
8.3197715972
 10
13.8226523706
 20
8.3294147331
 10
13.7951503886
 20
8.3340096611
 10
13.769234591
 20
8.333470833
 10
13.7453874776
 20
8.3278082806
 10
13.729092091
 20
8.3202362092
  0
LWPOLYLINE
  5
594
100
AcDbEntity
  8
0
100
AcDbPolyline
 62
7
  6
CONTINUOUS
 90
9
 70
0
 10
13.8764217095
 20
8.3648091158
 10
13.900861563
 20
8.3518349399
 10
13.9453585822
 20
8.3213334073
 10
13.9883115102
 20
8.2829786993
 10
14.0284222069
 20
8.2379655909
 10
14.0644750342
 20
8.1876986001
 10
14.0953789416
 20
8.1337472409
 10
14.1202045086
 20
8.0777923553
 10
14.1382111357
 20
8.0215734392
  0
LWPOLYLINE
  5
595
100
AcDbEntity
  8
0
100
AcDbPolyline
 62
7
  6
CONTINUOUS
 90
9
 70
0
 10
13.8890146543
 20
8.3588116013
 10
13.9143062155
 20
8.3452769639
 10
13.9566245531
 20
8.3159340137
 10
13.9974341433
 20
8.2792128344
 10
14.035515875
 20
8.2362457984
 10
14.0697337286
 20
8.1883555294
 10
14.0990693794
 20
8.1370146138
 10
14.122653216
 20
8.0838007461
 10
14.1397908293
 20
8.0303486713
  0
LWPOLYLINE
  5
596
100
AcDbEntity
  8
0
100
AcDbPolyline
 62
7
  6
CONTINUOUS
 90
11
 70
0
 10
13.9455829613
 20
8.3914711336
 10
13.9817161296
 20
8.3712243077
 10
14.0245214565
 20
8.3392694456
 10
14.0654118364
 20
8.2999644414
 10
14.1031214071
 20
8.2545649906
 10
14.1364847438
 20
8.2045192267
 10
14.1644736578
 20
8.1514219953
 10
14.1862296635
 20
8.0969644948
 10
14.2010910851
 20
8.0428808755
 10
14.2086139502
 20
7.9908934821
 10
14.2086702859
 20
7.9436956065
  0
LINE
  5
597
100
AcDbEntity
  8
AXIS_COSMETIC_THREADS
100
AcDbLine
 62
7
  6
CONTINUOUS
 10
14.6226336598
 20
7.2871160971
 11
14.6226336598
 21
6.8069716103
  0
LWPOLYLINE
  5
598
100
AcDbEntity
  8
0
100
AcDbPolyline
 62
7
  6
CONTINUOUS
 90
11
 70
0
 10
13.8243875297
 20
8.3597216263
 10
13.8670303237
 20
8.3431886762
 10
13.9101126602
 20
8.3177956395
 10
13.9523174364
 20
8.2843477348
 10
13.9923548832
 20
8.2439010643
 10
14.0290027366
 20
8.1977297199
 10
14.061144308
 20
8.1472860991
 10
14.0878032654
 20
8.0941556676
 10
14.108174043
 20
8.0400075765
 10
14.1216469319
 20
7.9865426741
 10
14.127827071
 20
7.9354405293
  0
LWPOLYLINE
  5
599
100
AcDbEntity
  8
0
100
AcDbPolyline
 62
7
  6
CONTINUOUS
 90
11
 70
0
 10
13.8840981758
 20
8.3914654296
 10
13.9271160375
 20
8.3740987094
 10
13.9704704815
 20
8.3478062638
 10
14.0128178407
 20
8.3134329043
 10
14.0528462472
 20
8.2720786049
 10
14.0893170566
 20
8.2250637697
 10
14.1211039591
 20
8.1738875395
 10
14.1472285435
 20
8.1201804554
 10
14.1668911923
 20
8.0656529725
 10
14.1794963293
 20
8.012041451
 10
14.1846712265
 20
7.9610533285
  0
LWPOLYLINE
  5
59A
100
AcDbEntity
  8
0
100
AcDbPolyline
 62
7
  6
CONTINUOUS
 90
4
 70
0
 10
13.9329900164
 20
8.3974686481
 10
13.9063687939
 20
8.4085393638
 10
13.8636304456
 20
8.4192578233
 10
13.8234713896
 20
8.4203006156
  0
LWPOLYLINE
  5
59B
100
AcDbEntity
  8
0
100
AcDbPolyline
 62
7
  6
CONTINUOUS
 90
4
 70
0
 10
13.9612741699
 20
8.4137984143
 10
13.9346827134
 20
8.4248585716
 10
13.8919227446
 20
8.4355864329
 10
13.8518309532
 20
8.4366378837
  0
LWPOLYLINE
  5
59C
100
AcDbEntity
  8
0
100
AcDbPolyline
 62
7
  6
CONTINUOUS
 90
4
 70
0
 10
13.9047058629
 20
8.381138882
 10
13.8785707042
 20
8.3920366678
 10
13.8358202901
 20
8.4028601609
 10
13.7955257035
 20
8.4040042166
  0
LWPOLYLINE
  5
59D
100
AcDbEntity
  8
0
100
AcDbPolyline
 62
7
  6
CONTINUOUS
 90
11
 70
0
 10
13.9332387397
 20
8.4240526417
 10
13.9779492244
 20
8.4036350302
 10
14.0226605672
 20
8.374250357
 10
14.0653862184
 20
8.3374295951
 10
14.1057143998
 20
8.2936969053
 10
14.1425735876
 20
8.2440398103
 10
14.1742731653
 20
8.1907047401
 10
14.1997851986
 20
8.1357936357
 10
14.2188913748
 20
8.0799730284
 10
14.2308112833
 20
8.0255585632
 10
14.2353149744
 20
7.9741707156
  0
LWPOLYLINE
  5
59E
100
AcDbEntity
  8
0
100
AcDbPolyline
 62
7
  6
CONTINUOUS
 90
11
 70
0
 10
13.9615526592
 20
8.4403718495
 10
14.0062880634
 20
8.4199343278
 10
14.0510218389
 20
8.3905215907
 10
14.0937656307
 20
8.3536669839
 10
14.133796828
 20
8.3102703767
 10
14.1704788301
 20
8.2609385187
 10
14.2021685982
 20
8.2077700091
 10
14.2277813869
 20
8.1528361405
 10
14.2470385635
 20
8.0967891534
 10
14.2590856696
 20
8.0419513809
 10
14.2635991279
 20
7.9905004818
  0
LWPOLYLINE
  5
59F
100
AcDbEntity
  8
0
100
AcDbPolyline
 62
7
  6
CONTINUOUS
 90
11
 70
0
 10
13.90544065
 20
8.4075499456
 10
13.9500352888
 20
8.3870987338
 10
13.9945078567
 20
8.3578208096
 10
14.0370571323
 20
8.3211433857
 10
14.0774991713
 20
8.2772838078
 10
14.1144212627
 20
8.2275117758
 10
14.1461328697
 20
8.1741021602
 10
14.1716114217
 20
8.1191899445
 10
14.1906335643
 20
8.0635495047
 10
14.2025135019
 20
8.0093167538
 10
14.207030821
 20
7.9578409495
  0
LWPOLYLINE
  5
5A0
100
AcDbEntity
  8
0
100
AcDbPolyline
 62
7
  6
CONTINUOUS
 90
9
 70
0
 10
13.8816491359
 20
8.389569729
 10
13.9267250418
 20
8.3679350564
 10
13.9713472028
 20
8.33753891
 10
14.0140893305
 20
8.2995850067
 10
14.0546444899
 20
8.2542877351
 10
14.0913295521
 20
8.2032358944
 10
14.1224478933
 20
8.1488676204
 10
14.1471500446
 20
8.0931075106
 10
14.1650810815
 20
8.037086717
  0
LWPOLYLINE
  5
5A1
100
AcDbEntity
  8
0
100
AcDbPolyline
 62
7
  6
CONTINUOUS
 90
11
 70
0
 10
13.9566734021
 20
8.4187005562
 10
13.9999751966
 20
8.3979050944
 10
14.0431086583
 20
8.3684689298
 10
14.0847370975
 20
8.3313361397
 10
14.1235713472
 20
8.2876938297
 10
14.1584104696
 20
8.2389346502
 10
14.1881796768
 20
8.1866128213
 10
14.2119642687
 20
8.1323950575
 10
14.2290385148
 20
8.0780079392
 10
14.2388885707
 20
8.0251833942
 10
14.2412287026
 20
7.9756040108
  0
LWPOLYLINE
  5
5A2
100
AcDbEntity
  8
0
100
AcDbPolyline
 62
7
  6
CONTINUOUS
 90
12
 70
0
 10
13.9172988078
 20
8.3751413675
 10
13.9235805183
 20
8.3720574886
 10
13.9669349624
 20
8.345765043
 10
14.0092823215
 20
8.3113916835
 10
14.049310728
 20
8.2700373842
 10
14.0857815374
 20
8.2230225489
 10
14.1175684399
 20
8.1718463187
 10
14.1436930244
 20
8.1181392346
 10
14.1633556731
 20
8.0636117518
 10
14.1759608101
 20
8.0100002302
 10
14.1811357073
 20
7.9590121077
 10
14.1803861324
 20
7.9273658404
  0
LWPOLYLINE
  5
5A3
100
AcDbEntity
  8
0
100
AcDbPolyline
 62
7
  6
CONTINUOUS
 90
12
 70
0
 10
14.0021512683
 20
8.4241306659
 10
14.0111467474
 20
8.4196576092
 10
14.0544774964
 20
8.3928325569
 10
14.0967177996
 20
8.3579881855
 10
14.1365591695
 20
8.3162393417
 10
14.1727688677
 20
8.2689188876
 10
14.204228829
 20
8.2175356144
 10
14.2299709659
 20
8.1637266007
 10
14.2492077368
 20
8.1092055202
 10
14.2613570133
 20
8.0557085307
 10
14.2660604615
 20
8.0049394536
 10
14.2652385929
 20
7.9763551388
  0
LWPOLYLINE
  5
5A4
100
AcDbEntity
  8
0
100
AcDbPolyline
 62
7
  6
CONTINUOUS
 90
12
 70
0
 10
13.9738671148
 20
8.4078008998
 10
13.9964396774
 20
8.3958638737
 10
14.0395731391
 20
8.3664277091
 10
14.0812015783
 20
8.3292949189
 10
14.120035828
 20
8.285652609
 10
14.1548749504
 20
8.2368934294
 10
14.1846441576
 20
8.1845716005
 10
14.2084287495
 20
8.1303538367
 10
14.2255029956
 20
8.0759667184
 10
14.2353530515
 20
8.0231421735
 10
14.2376931834
 20
7.9735627901
 10
14.2369544394
 20
7.9600253727
  0
LWPOLYLINE
  5
5A5
100
AcDbEntity
  8
0
100
AcDbPolyline
 62
7
  6
CONTINUOUS
 90
11
 70
0
 10
13.9418577032
 20
8.3968466407
 10
13.9852516487
 20
8.3732655285
 10
14.0280569757
 20
8.3413106664
 10
14.0689473556
 20
8.3020056622
 10
14.1066569263
 20
8.2566062114
 10
14.140020263
 20
8.2065604475
 10
14.168009177
 20
8.1534632161
 10
14.1897651827
 20
8.0990057156
 10
14.2046266043
 20
8.0449220963
 10
14.2121494694
 20
7.9929347028
 10
14.2121215275
 20
7.9446996895
  0
LWPOLYLINE
  5
5A6
100
AcDbEntity
  8
0
100
AcDbPolyline
 62
7
  6
CONTINUOUS
 90
11
 70
0
 10
14.0294140508
 20
8.4446232177
 10
14.0728106302
 20
8.4204936218
 10
14.1155347107
 20
8.3880468004
 10
14.1562625292
 20
8.3483218953
 10
14.1937333568
 20
8.3025878609
 10
14.2267893069
 20
8.2523033955
 10
14.2544118972
 20
8.1990708819
 10
14.2757542089
 20
8.14458579
 10
14.290167629
 20
8.0905831416
 10
14.2972223312
 20
8.0387827245
 10
14.2967208477
 20
7.990834789
  0
LWPOLYLINE
  5
5A7
100
AcDbEntity
  8
0
100
AcDbPolyline
 62
7
  6
CONTINUOUS
 90
11
 70
0
 10
14.0304354218
 20
8.4404604321
 10
14.069275111
 20
8.418452401
 10
14.1119991915
 20
8.3860055796
 10
14.15272701
 20
8.3462806746
 10
14.1901978376
 20
8.3005466402
 10
14.2232537877
 20
8.2502621748
 10
14.250876378
 20
8.1970296611
 10
14.2722186897
 20
8.1425445693
 10
14.2866321098
 20
8.0885419208
 10
14.293686812
 20
8.0367415037
 10
14.2935227464
 20
7.992684905
  0
LWPOLYLINE
  5
5A8
100
AcDbEntity
  8
AXIS
100
AcDbPolyline
 62
7
  6
CONTINUOUS
 90
5
 70
0
 10
14.622628451
 20
6.8069567244
 10
14.6224211411
 20
6.8029108113
 10
14.617358785
 20
6.7869617197
 10
14.6058324289
 20
6.7721755302
 10
14.5885119427
 20
6.7594115624
  0
LINE
  5
5A9
100
AcDbEntity
  8
0
100
AcDbLine
 62
7
  6
CONTINUOUS
 10
13.8708787223
 20
8.3939841135
 11
13.8840981758
 21
8.3914654296
  0
LWPOLYLINE
  5
5AA
100
AcDbEntity
  8
0
100
AcDbPolyline
 62
7
  6
CONTINUOUS
 90
3
 70
0
 10
13.8243875297
 20
8.3597216263
 10
13.7861346193
 20
8.3680384566
 10
13.7503315034
 20
8.3677500694
  0
LINE
  5
5AB
100
AcDbEntity
  8
0
100
AcDbLine
 62
7
  6
CONTINUOUS
 10
13.9358245175
 20
8.4243836622
 11
13.9566734021
 21
8.4187005562
  0
LINE
  5
5AC
100
AcDbEntity
  8
0
100
AcDbLine
 62
7
  6
CONTINUOUS
 10
13.8992200538
 20
8.4112948048
 11
13.9418577032
 21
8.3968466407
  0
LINE
  5
5AD
100
AcDbEntity
  8
0
100
AcDbLine
 62
7
  6
CONTINUOUS
 10
13.9866899704
 20
8.459659071
 11
14.0294140508
 21
8.4446232177
  0
LWPOLYLINE
  5
5AE
100
AcDbEntity
  8
0
100
AcDbPolyline
 62
7
  6
CONTINUOUS
 90
4
 70
0
 10
14.0461266304
 20
8.4627877127
 10
14.0193942385
 20
8.4738978247
 10
13.976651815
 20
8.4845932132
 10
13.9367069406
 20
8.4856295148
  0
LWPOLYLINE
  5
5AF
100
AcDbEntity
  8
0
100
AcDbPolyline
 62
7
  6
CONTINUOUS
 90
4
 70
0
 10
14.0744107839
 20
8.4791174789
 10
14.0476648312
 20
8.4902323926
 10
14.0049243109
 20
8.5009246267
 10
13.9648726414
 20
8.5019474986
  0
LWPOLYLINE
  5
5B0
100
AcDbEntity
  8
0
100
AcDbPolyline
 62
7
  6
CONTINUOUS
 90
4
 70
0
 10
13.9895583234
 20
8.4301281804
 10
13.9629532615
 20
8.4411931643
 10
13.9201989735
 20
8.4519173242
 10
13.8801660056
 20
8.4529726914
  0
LWPOLYLINE
  5
5B1
100
AcDbEntity
  8
0
100
AcDbPolyline
 62
7
  6
CONTINUOUS
 90
4
 70
0
 10
14.0178424769
 20
8.4464579466
 10
13.991219544
 20
8.4575292688
 10
13.9484953828
 20
8.46824535
 10
13.9085764885
 20
8.469314894
  0
LWPOLYLINE
  5
5B2
100
AcDbEntity
  8
0
100
AcDbPolyline
 62
7
  6
CONTINUOUS
 90
11
 70
0
 10
13.9716039907
 20
8.4396429343
 10
14.0146822665
 20
8.42169883
 10
14.0580130156
 20
8.3948737777
 10
14.1002533188
 20
8.3600294062
 10
14.1400946887
 20
8.3182805624
 10
14.1763043869
 20
8.2709601084
 10
14.2077643482
 20
8.2195768352
 10
14.2335064851
 20
8.1657678215
 10
14.252743256
 20
8.1112467409
 10
14.2648925325
 20
8.0577497515
 10
14.2695959807
 20
8.0069806744
  0
LWPOLYLINE
  5
5B3
100
AcDbEntity
  8
0
100
AcDbPolyline
 62
7
  6
CONTINUOUS
 90
11
 70
0
 10
14.0591160228
 20
8.4877833801
 10
14.1022494844
 20
8.4692641681
 10
14.1455512789
 20
8.4419098836
 10
14.1876794014
 20
8.4065988666
 10
14.2273289067
 20
8.3644606985
 10
14.2632731146
 20
8.3168405349
 10
14.2944023432
 20
8.2652566303
 10
14.3197589482
 20
8.2113523987
 10
14.3385675614
 20
8.1568445202
 10
14.3502595739
 20
8.103468736
 10
14.3544910905
 20
8.05292504
  0
LWPOLYLINE
  5
5B4
100
AcDbEntity
  8
0
100
AcDbPolyline
 62
7
  6
CONTINUOUS
 90
11
 70
0
 10
14.0462641843
 20
8.4894111025
 10
14.09099415
 20
8.4690051499
 10
14.1357291122
 20
8.4396210627
 10
14.1784876902
 20
8.4027827267
 10
14.2185306038
 20
8.3594029307
 10
14.2547641671
 20
8.3107767858
 10
14.2863112016
 20
8.2580961935
 10
14.3120690481
 20
8.2032154297
 10
14.3315768017
 20
8.1468872853
 10
14.3438571614
 20
8.0914609525
 10
14.3484515884
 20
8.0394897803
  0
LWPOLYLINE
  5
5B5
100
AcDbEntity
  8
0
100
AcDbPolyline
 62
7
  6
CONTINUOUS
 90
11
 70
0
 10
13.9898232073
 20
8.4567064421
 10
14.0345546203
 20
8.4362738995
 10
14.0792851939
 20
8.4068671456
 10
14.1220297064
 20
8.3700162246
 10
14.1619644424
 20
8.3267408095
 10
14.1985226761
 20
8.2776283953
 10
14.230194552
 20
8.2245869766
 10
14.2558630684
 20
8.1696653985
 10
14.2752140781
 20
8.1135033754
 10
14.2873475568
 20
8.0584246488
 10
14.2918832814
 20
8.0068302479
  0
LWPOLYLINE
  5
5B6
100
AcDbEntity
  8
0
100
AcDbPolyline
 62
7
  6
CONTINUOUS
 90
11
 70
0
 10
14.0180894899
 20
8.4730425466
 10
14.0627915117
 20
8.4526299952
 10
14.1074948323
 20
8.4232534616
 10
14.1502202458
 20
8.3864367635
 10
14.1901453651
 20
8.3431951024
 10
14.2264778678
 20
8.2944502261
 10
14.2580943631
 20
8.2416399957
 10
14.2838310578
 20
8.1867724448
 10
14.3033143217
 20
8.1304813447
 10
14.3155787207
 20
8.0750946182
 10
14.3201674349
 20
8.0231600141
  0
LWPOLYLINE
  5
5B7
100
AcDbEntity
  8
0
100
AcDbPolyline
 62
7
  6
CONTINUOUS
 90
11
 70
0
 10
14.0442116654
 20
8.4666574274
 10
14.0875424145
 20
8.4452993003
 10
14.1306206903
 20
8.4153517496
 10
14.1721115459
 20
8.3777750001
 10
14.2107301584
 20
8.333770176
 10
14.2452823991
 20
8.2847413742
 10
14.2747025386
 20
8.2322513285
 10
14.2980868989
 20
8.1779720651
 10
14.3147223874
 20
8.1236321061
 10
14.3241090137
 20
8.0709618904
 10
14.3259756772
 20
8.0216391331
  0
LWPOLYLINE
  5
5B8
100
AcDbEntity
  8
0
100
AcDbPolyline
 62
7
  6
CONTINUOUS
 90
12
 70
0
 10
14.0870037287
 20
8.4731199644
 10
14.0987139652
 20
8.4672229473
 10
14.1420157597
 20
8.4398686629
 10
14.1841438822
 20
8.4045576458
 10
14.2237933875
 20
8.3624194778
 10
14.2597375954
 20
8.3147993141
 10
14.290866824
 20
8.2632154096
 10
14.316223429
 20
8.2093111779
 10
14.3350320422
 20
8.1548032995
 10
14.3467240547
 20
8.1014275152
 10
14.3509555713
 20
8.0508838193
 10
14.3500910534
 20
8.0253444373
  0
LWPOLYLINE
  5
5B9
100
AcDbEntity
  8
0
100
AcDbPolyline
 62
7
  6
CONTINUOUS
 90
12
 70
0
 10
14.0587195753
 20
8.4567901982
 10
14.0840068953
 20
8.4432580796
 10
14.1270851712
 20
8.4133105289
 10
14.1685760267
 20
8.3757337793
 10
14.2071946393
 20
8.3317289552
 10
14.2417468799
 20
8.2827001534
 10
14.2711670195
 20
8.2302101078
 10
14.2945513797
 20
8.1759308443
 10
14.3111868682
 20
8.1215908853
 10
14.3205734945
 20
8.0689206697
 10
14.322440158
 20
8.0195979123
 10
14.3218068999
 20
8.0090146711
  0
LWPOLYLINE
  5
5BA
100
AcDbEntity
  8
0
100
AcDbPolyline
 62
7
  6
CONTINUOUS
 90
12
 70
0
 10
14.1435720357
 20
8.5057794967
 10
14.1715731244
 20
8.4906186447
 10
14.2145909861
 20
8.4601634687
 10
14.2559392259
 20
8.422147464
 10
14.2943375244
 20
8.3777856249
 10
14.3285987094
 20
8.3284933214
 10
14.357666242
 20
8.2758416075
 10
14.3806475778
 20
8.2215076142
 10
14.3968423504
 20
8.1672215919
 10
14.4057644853
 20
8.1147122763
 10
14.4071575487
 20
8.0656523019
 10
14.4066593603
 20
8.0580039696
  0
LWPOLYLINE
  5
5BB
100
AcDbEntity
  8
0
100
AcDbPolyline
 62
7
  6
CONTINUOUS
 90
11
 70
0
 10
14.1169730323
 20
8.4923641788
 10
14.1603669778
 20
8.4676891404
 10
14.2030046273
 20
8.4347544295
 10
14.2435649468
 20
8.3946145936
 10
14.2807924963
 20
8.3485516886
 10
14.313537071
 20
8.2980347975
 10
14.3407900205
 20
8.2446736419
 10
14.3617160978
 20
8.190167754
 10
14.375679833
 20
8.1362528121
 10
14.382265599
 20
8.0846458345
 10
14.3812907351
 20
8.0369909636
  0
LWPOLYLINE
  5
5BC
100
AcDbEntity
  8
0
100
AcDbPolyline
 62
7
  6
CONTINUOUS
 90
11
 70
0
 10
14.1152878822
 20
8.4894497305
 10
14.1568314586
 20
8.4656479196
 10
14.1994691081
 20
8.4327132088
 10
14.2400294276
 20
8.3925733728
 10
14.2772569771
 20
8.3465104678
 10
14.3100015518
 20
8.2959935767
 10
14.3372545013
 20
8.2426324211
 10
14.3581805786
 20
8.1881265332
 10
14.3721443139
 20
8.1342115913
 10
14.3787300798
 20
8.0826046137
 10
14.3783752068
 20
8.0416742034
  0
LWPOLYLINE
  5
5BD
100
AcDbEntity
  8
0
100
AcDbPolyline
 62
7
  6
CONTINUOUS
 90
13
 70
0
 10
14.3395349943
 20
8.5089565122
 10
14.3772811069
 20
8.4680647907
 10
14.4117332636
 20
8.4222155111
 10
14.4421710099
 20
8.3722876362
 10
14.4673417548
 20
8.3203517399
 10
14.4866730184
 20
8.2678838538
 10
14.4998298042
 20
8.2160630076
 10
14.5065435052
 20
8.1658947699
 10
14.5065427345
 20
8.1188378231
 10
14.4997077629
 20
8.0760387357
 10
14.4864131394
 20
8.0395388428
 10
14.4679950706
 20
8.0109726024
 10
14.4654188795
 20
8.0085548804
  0
LWPOLYLINE
  5
5BE
100
AcDbEntity
  8
0
100
AcDbPolyline
 62
9
  6
CONTINUOUS
 90
11
 70
0
 10
14.8119603528
 20
8.0021367098
 10
14.8067230968
 20
8.0897056346
 10
14.7911187758
 20
8.1815351907
 10
14.7654653425
 20
8.2757582615
 10
14.7302856766
 20
8.3704556324
 10
14.6862964053
 20
8.4636994871
 10
14.6343934032
 20
8.5535917428
 10
14.5756335456
 20
8.6383026662
 10
14.5112131901
 20
8.7161080944
 10
14.4424438237
 20
8.7854245047
 10
14.3707253715
 20
8.8448412202
  0
LINE
  5
5BF
100
AcDbEntity
  8
0
100
AcDbLine
 62
7
  6
CONTINUOUS
 10
14.7961336598
 20
7.476190922
 11
14.7961336598
 21
7.4626230513
  0
LINE
  5
5C0
100
AcDbEntity
  8
0
100
AcDbLine
 62
7
  6
CONTINUOUS
 10
14.8011336598
 20
7.5034481721
 11
14.8011336598
 21
7.6805558799
  0
LINE
  5
5C1
100
AcDbEntity
  8
0
100
AcDbLine
 62
9
  6
CONTINUOUS
 10
14.5528668895
 20
7.6008496283
 11
14.5243989453
 21
7.592578822
  0
LINE
  5
5C2
100
AcDbEntity
  8
0
100
AcDbLine
 62
7
  6
CONTINUOUS
 10
13.8021937111
 20
8.3862399306
 11
13.7618440222
 21
8.3864151531
  0
LWPOLYLINE
  5
5C3
100
AcDbEntity
  8
0
100
AcDbPolyline
 62
7
  6
CONTINUOUS
 90
3
 70
0
 10
13.8286090408
 20
8.3812491436
 10
13.8296526826
 20
8.3812012933
 10
13.8714855328
 20
8.3698377495
  0
LINE
  5
5C4
100
AcDbEntity
  8
0
100
AcDbLine
 62
7
  6
CONTINUOUS
 10
13.8918919311
 20
8.4121700532
 11
13.8992200538
 21
8.4112948048
  0
LINE
  5
5C5
100
AcDbEntity
  8
0
100
AcDbLine
 62
7
  6
CONTINUOUS
 10
13.978192343
 20
8.4607967535
 11
13.9866899704
 21
8.459659071
  0
LINE
  5
5C6
100
AcDbEntity
  8
0
100
AcDbLine
 62
7
  6
CONTINUOUS
 10
13.9582502498
 20
8.4423728319
 11
13.9716039907
 21
8.4396429343
  0
LINE
  5
5C7
100
AcDbEntity
  8
0
100
AcDbLine
 62
7
  6
CONTINUOUS
 10
14.0460978315
 20
8.490624403
 11
14.0591160228
 21
8.4877833801
  0
LINE
  5
5C8
100
AcDbEntity
  8
0
100
AcDbLine
 62
7
  6
CONTINUOUS
 10
14.0204990639
 20
8.4734386539
 11
14.0442116654
 21
8.4666574274
  0
LINE
  5
5C9
100
AcDbEntity
  8
0
100
AcDbLine
 62
7
  6
CONTINUOUS
 10
14.0741677054
 20
8.5079858046
 11
14.1169730323
 21
8.4923641788
  0
LWPOLYLINE
  5
5CA
100
AcDbEntity
  8
0
100
AcDbPolyline
 62
7
  6
CONTINUOUS
 90
3
 70
0
 10
14.1592632443
 20
8.5281067774
 10
14.1273279935
 20
8.5409958055
 10
14.0845902971
 20
8.550573727
  0
LWPOLYLINE
  5
5CB
100
AcDbEntity
  8
0
100
AcDbPolyline
 62
7
  6
CONTINUOUS
 90
4
 70
0
 10
14.1309790909
 20
8.5117770112
 10
14.1041648737
 20
8.5229160835
 10
14.0616312112
 20
8.5335645262
 10
14.0211849035
 20
8.5345812341
  0
LWPOLYLINE
  5
5CC
100
AcDbEntity
  8
0
100
AcDbPolyline
 62
7
  6
CONTINUOUS
 90
4
 70
0
 10
14.1026949374
 20
8.4954472451
 10
14.0760390185
 20
8.5065302626
 10
14.0333129874
 20
8.517239596
 10
13.9929527462
 20
8.518256743
  0
LWPOLYLINE
  5
5CD
100
AcDbEntity
  8
0
100
AcDbPolyline
 62
7
  6
CONTINUOUS
 90
11
 70
0
 10
14.1439930072
 20
8.5367646883
 10
14.1866786053
 20
8.5184777736
 10
14.2295419407
 20
8.4915296679
 10
14.2712818006
 20
8.4567680107
 10
14.3106317208
 20
8.4152821088
 10
14.3463991557
 20
8.3683692445
 10
14.3775023636
 20
8.3174945522
 10
14.4030038637
 20
8.2642457024
 10
14.4221394315
 20
8.2102837966
 10
14.4343417363
 20
8.1572919906
 10
14.4392578876
 20
8.1069234356
  0
LINE
  5
5CE
100
AcDbEntity
  8
0
100
AcDbLine
 62
7
  6
CONTINUOUS
 10
14.1541979393
 20
8.5565090834
 11
14.1987932375
 21
8.5372318135
  0
LWPOLYLINE
  5
5CF
100
AcDbEntity
  8
0
100
AcDbPolyline
 62
7
  6
CONTINUOUS
 90
11
 70
0
 10
14.1310348195
 20
8.5384293614
 10
14.1754767217
 20
8.5182000347
 10
14.2200586601
 20
8.4890063554
 10
14.2628116582
 20
8.452283557
 10
14.3031189653
 20
8.4087106641
 10
14.3397516095
 20
8.3595642993
 10
14.3711945988
 20
8.3070273953
 10
14.3969257333
 20
8.2521943697
 10
14.4164310364
 20
8.1958703495
 10
14.4287100942
 20
8.140447228
 10
14.4333040489
 20
8.0884790787
  0
LWPOLYLINE
  5
5D0
100
AcDbEntity
  8
0
100
AcDbPolyline
 62
7
  6
CONTINUOUS
 90
11
 70
0
 10
14.074534777
 20
8.5057456704
 10
14.1192660964
 20
8.4853417105
 10
14.1640029556
 20
8.4559586487
 10
14.2067649993
 20
8.419119127
 10
14.2468648008
 20
8.3756723045
 10
14.2831127269
 20
8.3270102924
 10
14.3145976395
 20
8.2744216704
 10
14.3403507375
 20
8.2195512374
 10
14.3598597663
 20
8.1632212285
 10
14.3721410025
 20
8.1077927173
 10
14.3767357419
 20
8.0558195464
  0
LWPOLYLINE
  5
5D1
100
AcDbEntity
  8
0
100
AcDbPolyline
 62
7
  6
CONTINUOUS
 90
11
 70
0
 10
14.1029089643
 20
8.5220435405
 10
14.1476147692
 20
8.5016355576
 10
14.1923231733
 20
8.4722610589
 10
14.2350598435
 20
8.4354385307
 10
14.2752232722
 20
8.3919123531
 10
14.3116004591
 20
8.343035536
 10
14.3429624181
 20
8.2905999941
 10
14.3686768808
 20
8.2357780266
 10
14.3881635244
 20
8.1794820958
 10
14.400430327
 20
8.1240893856
 10
14.4050198954
 20
8.0721493126
  0
LWPOLYLINE
  5
5D2
100
AcDbEntity
  8
0
100
AcDbPolyline
 62
7
  6
CONTINUOUS
 90
11
 70
0
 10
14.1858057465
 20
8.5482384453
 10
14.2286899595
 20
8.5271102158
 10
14.271335165
 20
8.4975633867
 10
14.3124468971
 20
8.4605259739
 10
14.3507781189
 20
8.4171576717
 10
14.3851677925
 20
8.3688139837
 10
14.4145767893
 20
8.3170042984
 10
14.438120029
 20
8.2633452051
 10
14.4550938548
 20
8.2095104937
 10
14.4649977969
 20
8.1571793859
 10
14.4675500515
 20
8.1079845981
  0
LWPOLYLINE
  5
5D3
100
AcDbEntity
  8
0
100
AcDbPolyline
 62
7
  6
CONTINUOUS
 90
12
 70
0
 10
14.2284244962
 20
8.5547687952
 10
14.2397542081
 20
8.5490734375
 10
14.2828146456
 20
8.5219728152
 10
14.3247338185
 20
8.4869915858
 10
14.3642280117
 20
8.4452360984
 10
14.4000892099
 20
8.3980241722
 10
14.4312228075
 20
8.3468439575
 10
14.4566817788
 20
8.2933074816
 10
14.475696241
 20
8.2391003262
 10
14.4876974868
 20
8.1859290094
 10
14.4923357384
 20
8.1354677139
 10
14.4915118208
 20
8.1069932681
  0
LWPOLYLINE
  5
5D4
100
AcDbEntity
  8
0
100
AcDbPolyline
 62
7
  6
CONTINUOUS
 90
11
 70
0
 10
14.1317541995
 20
8.5145779593
 10
14.1751086436
 20
8.4926598654
 10
14.2181265053
 20
8.4622046894
 10
14.2594747451
 20
8.4241886848
 10
14.2978730436
 20
8.3798268457
 10
14.3321342286
 20
8.3305345421
 10
14.3612017611
 20
8.2778828283
 10
14.384183097
 20
8.223548835
 10
14.4003778696
 20
8.1692628126
 10
14.4093000044
 20
8.116753497
 10
14.4106930679
 20
8.0676935226
  0
LWPOLYLINE
  5
5D5
100
AcDbEntity
  8
0
100
AcDbPolyline
 62
7
  6
CONTINUOUS
 90
12
 70
0
 10
14.1718561892
 20
8.5221092628
 10
14.1845417913
 20
8.5156922778
 10
14.2275863808
 20
8.4883298396
 10
14.2694486544
 20
8.4531179445
 10
14.3088466733
 20
8.4111701425
 10
14.3445754243
 20
8.3638102559
 10
14.3755444366
 20
8.3125310541
 10
14.4008118221
 20
8.2589476543
 10
14.4196136787
 20
8.2047471031
 10
14.4313879361
 20
8.1516357123
 10
14.435791902
 20
8.1012857939
 10
14.4349435138
 20
8.0743337357
  0
LWPOLYLINE
  5
5D6
100
AcDbEntity
  8
0
100
AcDbPolyline
 62
7
  6
CONTINUOUS
 90
11
 70
0
 10
14.2001403427
 20
8.538439029
 10
14.233737469
 20
8.5198113874
 10
14.2763728268
 20
8.488523093
 10
14.3171978962
 20
8.4498960207
 10
14.3549631163
 20
8.4051503307
 10
14.3885144446
 20
8.355697186
 10
14.4168293819
 20
8.3030947004
 10
14.4390488915
 20
8.2489992997
 10
14.4545042157
 20
8.1951140133
 10
14.4627377516
 20
8.1431353117
 10
14.4632276673
 20
8.0906635019
  0
LWPOLYLINE
  5
5D7
100
AcDbEntity
  8
0
100
AcDbPolyline
 62
7
  6
CONTINUOUS
 90
11
 70
0
 10
14.2277270632
 20
8.5587839827
 10
14.2706768974
 20
8.5348826418
 10
14.3129717348
 20
8.5028318922
 10
14.3533279459
 20
8.4636371945
 10
14.3905218616
 20
8.4185249658
 10
14.4234276199
 20
8.3689046481
 10
14.4510519887
 20
8.3163251153
 10
14.4725650848
 20
8.2624267672
 10
14.4873260423
 20
8.2088907939
 10
14.4949028335
 20
8.1573871772
 10
14.4950856318
 20
8.1095230401
  0
LINE
  5
5D8
100
AcDbEntity
  8
0
100
AcDbLine
 62
7
  6
CONTINUOUS
 10
14.2965481464
 20
8.5441572454
 11
14.2525064555
 21
8.5713945402
  0
LWPOLYLINE
  5
5D9
100
AcDbEntity
  8
0
100
AcDbPolyline
 62
7
  6
CONTINUOUS
 90
10
 70
0
 10
14.1987932375
 20
8.5372318135
 10
14.2438523273
 20
8.5086846043
 10
14.2873121602
 20
8.4722324982
 10
14.3283719476
 20
8.4286619775
 10
14.3658762352
 20
8.379101629
 10
14.3981230556
 20
8.3258889827
 10
14.4243981354
 20
8.2705039672
 10
14.4443346699
 20
8.2135302888
 10
14.4568939162
 20
8.1574158634
 10
14.4615882024
 20
8.1048088449
  0
LWPOLYLINE
  5
5DA
100
AcDbEntity
  8
0
100
AcDbPolyline
 62
7
  6
CONTINUOUS
 90
3
 70
0
 10
14.2621828359
 20
8.5677615067
 10
14.3013462851
 20
8.5415914419
 10
14.3395349943
 20
8.5089565122
  0
LINE
  5
5DB
100
AcDbEntity
  8
0
100
AcDbLine
 62
7
  6
CONTINUOUS
 10
14.3395349943
 20
8.5089565122
 11
14.2965481464
 21
8.5441572454
  0
LWPOLYLINE
  5
5DC
100
AcDbEntity
  8
0
100
AcDbPolyline
 62
9
  6
CONTINUOUS
 90
19
 70
0
 10
14.8968131666
 20
8.0021369138
 10
14.8915741138
 20
8.0931563762
 10
14.8759555376
 20
8.1885125452
 10
14.8502513292
 20
8.2864111245
 10
14.8149451594
 20
8.3850099776
 10
14.7707013766
 20
8.4824537913
 10
14.7183525065
 20
8.5769089862
 10
14.6588835864
 20
8.6665982196
 10
14.5934136304
 20
8.7498338283
 10
14.5231745722
 20
8.825049586
 10
14.4494880852
 20
8.890830174
 10
14.3737407119
 20
8.9459378132
 10
14.2973577745
 20
8.989335555
 10
14.221776554
 20
9.0202067936
 10
14.148419246
 20
9.0379706314
 10
14.0786661991
 20
9.0422928103
 10
14.0138299414
 20
9.0330920007
 10
13.9551304825
 20
9.0105413322
 10
13.9462160208
 20
9.0056225312
  0
LWPOLYLINE
  5
5DD
100
AcDbEntity
  8
0
100
AcDbPolyline
 62
7
  6
CONTINUOUS
 90
3
 70
0
 10
14.793298167
 20
7.4644549446
 10
14.8008189441
 20
7.4955831034
 10
14.8011291391
 20
7.503431341
  0
LWPOLYLINE
  5
5DE
100
AcDbEntity
  8
0
100
AcDbPolyline
 62
9
  6
CONTINUOUS
 90
7
 70
0
 10
15.0724125683
 20
7.8371778959
 10
15.1143853927
 20
7.8679350134
 10
15.1553640079
 20
7.9143989164
 10
15.1883715697
 20
7.9718371439
 10
15.2126250759
 20
8.0387460775
 10
15.2275707248
 20
8.1138236007
 10
15.2326874893
 20
8.1960528869
  0
LWPOLYLINE
  5
5DF
100
AcDbEntity
  8
0
100
AcDbPolyline
 62
7
  6
CONTINUOUS
 90
7
 70
0
 10
15.07236484
 20
7.8371505676
 10
15.1189118597
 20
7.8708613993
 10
15.1640164467
 20
7.9204197344
 10
15.2013468285
 20
7.9827865825
 10
15.2288380302
 20
8.0561588251
 10
15.2451860626
 20
8.1375364723
 10
15.2502609057
 20
8.2205490336
  0
LWPOLYLINE
  5
5E0
100
AcDbEntity
  8
0
100
AcDbPolyline
 62
7
  6
CONTINUOUS
 90
7
 70
0
 10
15.0130146743
 20
7.8028935575
 10
15.0401085993
 20
7.8208447192
 10
15.0877213853
 20
7.8667989962
 10
15.1257978575
 20
7.92533568
 10
15.1535628888
 20
7.9952631325
 10
15.1704512633
 20
8.0751578327
 10
15.1761191823
 20
8.1633933546
  0
LWPOLYLINE
  5
5E1
100
AcDbEntity
  8
0
100
AcDbPolyline
 62
9
  6
CONTINUOUS
 90
8
 70
0
 10
14.7337124953
 20
7.6416304848
 10
14.7470778381
 20
7.6498895016
 10
14.7913145814
 20
7.6864565774
 10
14.828492014
 20
7.7329892615
 10
14.8580286651
 20
7.7887597629
 10
14.8794625688
 20
7.8528958073
 10
14.8924584899
 20
7.9243942798
 10
14.8968131666
 20
8.0021369138
  0
LINE
  5
5E2
100
AcDbEntity
  8
0
100
AcDbLine
 62
7
  6
CONTINUOUS
 10
15.0725085115
 20
7.8372332883
 11
15.013018511
 21
7.8028869255
  0
LINE
  5
5E3
100
AcDbEntity
  8
0
100
AcDbLine
 62
7
  6
CONTINUOUS
 10
15.0024119534
 20
7.7967632632
 11
14.7337124953
 21
7.6416304848
  0
LINE
  5
5E4
100
AcDbEntity
  8
0
100
AcDbLine
 62
7
  6
CONTINUOUS
 10
15.0060745653
 20
7.7994372817
 11
15.0130146743
 21
7.8028935575
  0
LINE
  5
5E5
100
AcDbEntity
  8
0
100
AcDbLine
 62
7
  6
CONTINUOUS
 10
14.0645378909
 20
8.5094130347
 11
14.0741677054
 21
8.5079858046
  0
LINE
  5
5E6
100
AcDbEntity
  8
0
100
AcDbLine
 62
7
  6
CONTINUOUS
 10
14.1304414247
 20
8.5397392285
 11
14.1439930072
 21
8.5367646883
  0
LINE
  5
5E7
100
AcDbEntity
  8
0
100
AcDbLine
 62
7
  6
CONTINUOUS
 10
14.1616121465
 20
8.5552047226
 11
14.1858057465
 21
8.5482384453
  0
LINE
  5
5E8
100
AcDbEntity
  8
0
100
AcDbLine
 62
7
  6
CONTINUOUS
 10
14.1025140023
 20
8.5233293846
 11
14.1317541995
 21
8.5145779593
  0
LINE
  5
5E9
100
AcDbEntity
  8
0
100
AcDbLine
 62
7
  6
CONTINUOUS
 10
14.1854261201
 20
8.5737825097
 11
14.2277270632
 21
8.5587839827
  0
LWPOLYLINE
  5
5EA
100
AcDbEntity
  8
0
100
AcDbPolyline
 62
7
  6
CONTINUOUS
 90
4
 70
0
 10
14.1875473978
 20
8.5444365435
 10
14.1606366978
 20
8.5556097237
 10
14.1181625475
 20
8.5662293058
 10
14.0777310904
 20
8.5672385167
  0
LWPOLYLINE
  5
5EB
100
AcDbEntity
  8
0
100
AcDbPolyline
 62
7
  6
CONTINUOUS
 90
4
 70
0
 10
14.2158315513
 20
8.5607663097
 10
14.1894229957
 20
8.5717614994
 10
14.1468693495
 20
8.5824986468
 10
14.1063975521
 20
8.5836066934
  0
LWPOLYLINE
  5
5EC
100
AcDbEntity
  8
0
100
AcDbPolyline
 62
7
  6
CONTINUOUS
 90
3
 70
0
 10
14.2525064555
 20
8.5713945402
 10
14.2087065092
 20
8.5898375621
 10
14.166437502
 20
8.5989193776
  0
LWPOLYLINE
  5
5ED
100
AcDbEntity
  8
0
100
AcDbPolyline
 62
7
  6
CONTINUOUS
 90
11
 70
0
 10
14.1875066436
 20
8.5711230016
 10
14.2314186486
 20
8.5512063238
 10
14.2756865051
 20
8.5223748942
 10
14.3184011966
 20
8.4858865387
 10
14.3588987496
 20
8.4423181714
 10
14.3959167101
 20
8.3928260699
 10
14.4277707071
 20
8.3396722749
 10
14.4535155408
 20
8.284801176
 10
14.473009488
 20
8.2284942313
 10
14.4852810717
 20
8.173089668
 10
14.4898723558
 20
8.121138611
  0
LWPOLYLINE
  5
5EE
100
AcDbEntity
  8
0
100
AcDbPolyline
 62
9
  6
CONTINUOUS
 90
5
 70
0
 10
14.2886992298
 20
8.5706190006
 10
14.2468597997
 20
8.5905224219
 10
14.2064366998
 20
8.6012897102
 10
14.1686325357
 20
8.6026815866
 10
14.1545719057
 20
8.5993998871
  0
LWPOLYLINE
  5
5EF
100
AcDbEntity
  8
0
100
AcDbPolyline
 62
9
  6
CONTINUOUS
 90
6
 70
0
 10
14.2975380278
 20
8.5859283328
 10
14.2541660266
 20
8.6065621039
 10
14.2122493322
 20
8.6177292564
 10
14.1730479988
 20
8.6191746981
 10
14.1376815157
 20
8.6109220952
 10
14.1075554345
 20
8.5934649547
  0
LINE
  5
5F0
100
AcDbEntity
  8
0
100
AcDbLine
 62
7
  6
CONTINUOUS
 10
14.2444603899
 20
8.5769319142
 11
14.2441157048
 21
8.5770960758
  0
LINE
  5
5F1
100
AcDbEntity
  8
0
100
AcDbLine
 62
7
  6
CONTINUOUS
 10
14.2441157048
 20
8.5770960758
 11
14.2621828359
 21
8.5677615067
  0
LINE
  5
5F2
100
AcDbEntity
  8
0
100
AcDbLine
 62
7
  6
CONTINUOUS
 10
14.2444603914
 20
8.5769318945
 11
14.2621828359
 21
8.5677615067
  0
LWPOLYLINE
  5
5F3
100
AcDbEntity
  8
0
100
AcDbPolyline
 62
7
  6
CONTINUOUS
 90
6
 70
0
 10
13.7503315034
 20
8.3677500694
 10
13.7178240643
 20
8.3587731462
 10
13.6898157829
 20
8.3413891218
 10
13.6671167436
 20
8.3162415349
 10
13.6501379994
 20
8.2838618734
 10
13.6393602661
 20
8.2449614104
  0
LINE
  5
5F4
100
AcDbEntity
  8
0
100
AcDbLine
 62
7
  6
CONTINUOUS
 10
13.7618440222
 20
8.3864151531
 11
13.7254702089
 21
8.376641754
  0
LWPOLYLINE
  5
5F5
100
AcDbEntity
  8
0
100
AcDbPolyline
 62
7
  6
CONTINUOUS
 90
3
 70
0
 10
13.9648726414
 20
8.5019474986
 10
13.9281727871
 20
8.493135428
 10
13.9119206006
 20
8.4852602397
  0
LWPOLYLINE
  5
5F6
100
AcDbEntity
  8
0
100
AcDbPolyline
 62
7
  6
CONTINUOUS
 90
3
 70
0
 10
13.9367069406
 20
8.4856295148
 10
13.9001290945
 20
8.4769011795
 10
13.8836441824
 20
8.4689349413
  0
LWPOLYLINE
  5
5F7
100
AcDbEntity
  8
0
100
AcDbPolyline
 62
7
  6
CONTINUOUS
 90
4
 70
0
 10
13.9269990403
 20
8.4924144573
 10
13.9635768864
 20
8.5011427926
 10
14.0035217608
 20
8.500106491
 10
14.0462641843
 20
8.4894111025
  0
LWPOLYLINE
  5
5F8
100
AcDbEntity
  8
0
100
AcDbPolyline
 62
7
  6
CONTINUOUS
 90
3
 70
0
 10
13.8234713896
 20
8.4203006156
 10
13.7871082403
 20
8.4116278953
 10
13.7705169125
 20
8.4036212726
  0
LWPOLYLINE
  5
5F9
100
AcDbEntity
  8
0
100
AcDbPolyline
 62
7
  6
CONTINUOUS
 90
4
 70
0
 10
13.8139781861
 20
8.4271411731
 10
13.8503413354
 20
8.4358138934
 10
13.8905003914
 20
8.4347711011
 10
13.9332387397
 20
8.4240526417
  0
LWPOLYLINE
  5
5FA
100
AcDbEntity
  8
0
100
AcDbPolyline
 62
7
  6
CONTINUOUS
 90
3
 70
0
 10
13.8518309532
 20
8.4366378837
 10
13.8155887817
 20
8.4280350281
 10
13.7988099276
 20
8.4199561552
  0
LWPOLYLINE
  5
5FB
100
AcDbEntity
  8
0
100
AcDbPolyline
 62
7
  6
CONTINUOUS
 90
4
 70
0
 10
13.8424587275
 20
8.443548306
 10
13.878700899
 20
8.4521511616
 10
13.9187926904
 20
8.4510997107
 10
13.9615526592
 20
8.4403718495
  0
LWPOLYLINE
  5
5FC
100
AcDbEntity
  8
0
100
AcDbPolyline
 62
7
  6
CONTINUOUS
 90
3
 70
0
 10
13.8801660056
 20
8.4529726914
 10
13.8439298115
 20
8.4443871302
 10
13.8270948345
 20
8.4362863563
  0
LWPOLYLINE
  5
5FD
100
AcDbEntity
  8
0
100
AcDbPolyline
 62
7
  6
CONTINUOUS
 90
4
 70
0
 10
13.8707997574
 20
8.459900408
 10
13.9070359514
 20
8.4684859693
 10
13.9470689193
 20
8.4674306021
 10
13.9898232073
 20
8.4567064421
  0
LWPOLYLINE
  5
5FE
100
AcDbEntity
  8
0
100
AcDbPolyline
 62
7
  6
CONTINUOUS
 90
3
 70
0
 10
13.7955257035
 20
8.4040042166
 10
13.7589173801
 20
8.3953349289
 10
13.7422211905
 20
8.3872848258
  0
LWPOLYLINE
  5
5FF
100
AcDbEntity
  8
0
100
AcDbPolyline
 62
7
  6
CONTINUOUS
 90
4
 70
0
 10
13.7857873259
 20
8.4108482068
 10
13.8223956493
 20
8.4195174944
 10
13.8626902359
 20
8.4183734387
 10
13.90544065
 20
8.4075499456
  0
LWPOLYLINE
  5
600
100
AcDbEntity
  8
0
100
AcDbPolyline
 62
7
  6
CONTINUOUS
 90
3
 70
0
 10
13.9085764885
 20
8.469314894
 10
13.8722214481
 20
8.4607198326
 10
13.8553723322
 20
8.4526122797
  0
LWPOLYLINE
  5
601
100
AcDbEntity
  8
0
100
AcDbPolyline
 62
7
  6
CONTINUOUS
 90
4
 70
0
 10
13.8990913939
 20
8.4762331105
 10
13.9354464343
 20
8.4848281719
 10
13.9753653286
 20
8.4837586279
 10
14.0180894899
 20
8.4730425466
  0
LWPOLYLINE
  5
602
100
AcDbEntity
  8
0
100
AcDbPolyline
 62
7
  6
CONTINUOUS
 90
4
 70
0
 10
13.7596566497
 20
8.3953444007
 10
13.7971386606
 20
8.4034516107
 10
13.8381816678
 20
8.4014600016
 10
13.8816491359
 20
8.389569729
  0
LWPOLYLINE
  5
603
100
AcDbEntity
  8
0
100
AcDbPolyline
 62
7
  6
CONTINUOUS
 90
5
 70
0
 10
13.7342735988
 20
8.38037554
 10
13.7715960838
 20
8.3880346722
 10
13.8126424541
 20
8.3857230039
 10
13.856170177
 20
8.3735264739
 10
13.8764217095
 20
8.3648091158
  0
LINE
  5
604
100
AcDbEntity
  8
0
100
AcDbLine
 62
7
  6
CONTINUOUS
 10
14.0845902971
 20
8.550573727
 11
14.04403467
 21
8.5502559579
  0
LWPOLYLINE
  5
605
100
AcDbEntity
  8
0
100
AcDbPolyline
 62
7
  6
CONTINUOUS
 90
3
 70
0
 10
14.0709046158
 20
8.5657692357
 10
14.1114602429
 20
8.5660870048
 10
14.1541979393
 20
8.5565090834
  0
LINE
  5
606
100
AcDbEntity
  8
0
100
AcDbLine
 62
7
  6
CONTINUOUS
 10
14.1764784363
 20
8.5750276741
 11
14.1854261201
 21
8.5737825097
  0
LWPOLYLINE
  5
607
100
AcDbEntity
  8
0
100
AcDbPolyline
 62
7
  6
CONTINUOUS
 90
5
 70
0
 10
14.7708673646
 20
7.3942718386
 10
14.777849502
 20
7.4041132018
 10
14.7895065075
 20
7.4270340993
 10
14.7953948591
 20
7.4506794853
 10
14.7961336598
 20
7.4626230513
  0
LINE
  5
608
100
AcDbEntity
  8
0
100
AcDbLine
 62
7
  6
CONTINUOUS
 10
14.7708673646
 20
7.3942718386
 11
14.7445149377
 21
7.3602506128
  0
LWPOLYLINE
  5
609
100
AcDbEntity
  8
0
100
AcDbPolyline
 62
7
  6
CONTINUOUS
 90
4
 70
0
 10
14.7147310287
 20
7.3830171495
 10
14.7495086089
 20
7.4071970431
 10
14.7759983471
 20
7.4346546535
 10
14.793298167
 20
7.4644549446
  0
LWPOLYLINE
  5
60A
100
AcDbEntity
  8
0
100
AcDbPolyline
 62
7
  6
CONTINUOUS
 90
4
 70
0
 10
14.6907829806
 20
7.3151930071
 10
14.7162409243
 20
7.3322724676
 10
14.7370054189
 20
7.3513517791
 10
14.7445104352
 20
7.3602489991
  0
LWPOLYLINE
  5
60B
100
AcDbEntity
  8
0
100
AcDbPolyline
 62
7
  6
CONTINUOUS
 90
4
 70
0
 10
14.7111954801
 20
7.3442332324
 10
14.7382913432
 20
7.3622870383
 10
14.7606611454
 20
7.3823833961
 10
14.7708673646
 20
7.3942718386
  0
LWPOLYLINE
  5
60C
100
AcDbEntity
  8
0
100
AcDbPolyline
 62
7
  6
CONTINUOUS
 90
15
 70
0
 10
14.7111954801
 20
7.3442332324
 10
14.6799251496
 20
7.3285895019
 10
14.6451169256
 20
7.3156743079
 10
14.6074794031
 20
7.3057505665
 10
14.5677787735
 20
7.2990202965
 10
14.5268232272
 20
7.2956205069
 10
14.485446501
 20
7.2956204074
 10
14.4444909056
 20
7.2990200002
 10
14.4047901789
 20
7.3057500793
 10
14.3671525133
 20
7.3156736397
 10
14.332344103
 20
7.3285886664
 10
14.301073547
 20
7.3442322466
 10
14.2739774235
 20
7.3622859222
 10
14.2516073314
 20
7.3823821724
 10
14.241399955
 20
7.3942718386
  0
LWPOLYLINE
  5
60D
100
AcDbEntity
  8
0
100
AcDbPolyline
 62
7
  6
CONTINUOUS
 90
3
 70
0
 10
14.0777310904
 20
8.5672385167
 10
14.0408208963
 20
8.5582586902
 10
14.0250396728
 20
8.5505691698
  0
LWPOLYLINE
  5
60E
100
AcDbEntity
  8
0
100
AcDbPolyline
 62
7
  6
CONTINUOUS
 90
4
 70
0
 10
14.0676908421
 20
8.573771968
 10
14.1046010362
 20
8.5827517945
 10
14.1450324933
 20
8.5817425837
 10
14.1875066436
 20
8.5711230016
  0
LWPOLYLINE
  5
60F
100
AcDbEntity
  8
0
100
AcDbPolyline
 62
7
  6
CONTINUOUS
 90
3
 70
0
 10
14.0211849035
 20
8.5345812341
 10
13.9842612734
 20
8.5256026592
 10
13.968473104
 20
8.5179106419
  0
LWPOLYLINE
  5
610
100
AcDbEntity
  8
0
100
AcDbPolyline
 62
7
  6
CONTINUOUS
 90
4
 70
0
 10
14.0111312192
 20
8.541115937
 10
14.0480548493
 20
8.5500945119
 10
14.088501157
 20
8.5490778041
 10
14.1310348195
 20
8.5384293614
  0
LWPOLYLINE
  5
611
100
AcDbEntity
  8
0
100
AcDbPolyline
 62
7
  6
CONTINUOUS
 90
3
 70
0
 10
13.9929527462
 20
8.518256743
 10
13.9560791098
 20
8.5093139587
 10
13.9401920469
 20
8.5015826648
  0
LWPOLYLINE
  5
612
100
AcDbEntity
  8
0
100
AcDbPolyline
 62
7
  6
CONTINUOUS
 90
4
 70
0
 10
13.9829490556
 20
8.5248272365
 10
14.019822692
 20
8.5337700208
 10
14.0601829333
 20
8.5327528738
 10
14.1029089643
 20
8.5220435405
  0
LWPOLYLINE
  5
613
100
AcDbEntity
  8
0
100
AcDbPolyline
 62
7
  6
CONTINUOUS
 90
3
 70
0
 10
14.1063975521
 20
8.5836066934
 10
14.0694315683
 20
8.5747195926
 10
14.0533223573
 20
8.5668980871
  0
LWPOLYLINE
  5
614
100
AcDbEntity
  8
0
100
AcDbPolyline
 62
7
  6
CONTINUOUS
 90
4
 70
0
 10
13.9550427329
 20
8.5086487058
 10
13.9917425872
 20
8.5174607764
 10
14.0317942567
 20
8.5164379046
 10
14.074534777
 20
8.5057456704
  0
LINE
  5
615
100
AcDbEntity
  8
0
100
AcDbLine
 62
7
  6
CONTINUOUS
 10
14.166437502
 20
8.5989193776
 11
14.1269425536
 21
8.5983536553
  0
LWPOLYLINE
  5
616
100
AcDbEntity
  8
0
100
AcDbPolyline
 62
9
  6
CONTINUOUS
 90
14
 70
0
 10
14.3707253715
 20
8.8448412202
 10
14.2975177096
 20
8.8931490972
 10
14.2243109611
 20
8.9293651125
 10
14.1525951793
 20
8.9527523496
 10
14.0838300343
 20
8.96283498
 10
14.0194151187
 20
8.9594079342
 10
13.9606614769
 20
8.9425410659
 10
13.9087649346
 20
8.9125777265
 10
13.8647817731
 20
8.8701277779
 10
13.8296072402
 20
8.8160551849
 10
13.8039573361
 20
8.7514604419
 10
13.7883542445
 20
8.6776581883
 10
13.7831157031
 20
8.5961504689
 10
13.7883485334
 20
8.5085961825
  0
LWPOLYLINE
  5
617
100
AcDbEntity
  8
0
100
AcDbPolyline
 62
7
  6
CONTINUOUS
 90
18
 70
0
 10
15.1761191823
 20
8.1633933546
 10
15.1704512633
 20
8.2581734775
 10
15.1535628888
 20
8.3575687515
 10
15.1257978575
 20
8.4595557755
 10
15.0877213853
 20
8.5620583876
 10
15.0401085993
 20
8.6629899304
 10
14.9839287587
 20
8.7602957286
 10
14.9203255228
 20
8.8519949168
 10
14.8505936703
 20
8.9362207641
 10
14.7761527405
 20
9.011258675
 10
14.6985181361
 20
9.075581094
 10
14.6192702737
 20
9.1278786022
 10
14.5400224114
 20
9.1670865732
 10
14.4623878069
 20
9.1924068457
 10
14.3879468771
 20
9.203323972
 10
14.3182150246
 20
9.1996157109
 10
14.2546117888
 20
9.1813575518
 10
14.2255258732
 20
9.16687234
  0
LWPOLYLINE
  5
618
100
AcDbEntity
  8
0
100
AcDbPolyline
 62
9
  6
CONTINUOUS
 90
19
 70
0
 10
15.2326874893
 20
8.1960528869
 10
15.2279235696
 20
8.2827310492
 10
15.2137133228
 20
8.3734269002
 10
15.19029989
 20
8.4665886088
 10
15.1580838816
 20
8.5606221522
 10
15.1176165223
 20
8.6539185905
 10
15.06959022
 20
8.7448815958
 10
15.014826718
 20
8.8319547658
 10
14.954263035
 20
8.9136482544
 10
14.8889354323
 20
8.9885642634
 10
14.8199616835
 20
9.0554209592
 10
14.7485219484
 20
9.113074405
 10
14.6758385807
 20
9.1605381346
 10
14.603155213
 20
9.1970000302
 10
14.5317154779
 20
9.2218362187
 10
14.4627417291
 20
9.2346217462
 10
14.3974141264
 20
9.2351378486
 10
14.3368504434
 20
9.2233756953
 10
14.2820903435
 20
9.1995385043
  0
LWPOLYLINE
  5
619
100
AcDbEntity
  8
0
100
AcDbPolyline
 62
9
  6
CONTINUOUS
 90
4
 70
0
 10
15.2502609057
 20
8.2205473322
 10
15.24821652
 20
8.2115818449
 10
15.2422225549
 20
8.2032271966
 10
15.2326874893
 20
8.1960528869
  0
LWPOLYLINE
  5
61A
100
AcDbEntity
  8
0
100
AcDbPolyline
 62
7
  6
CONTINUOUS
 90
14
 70
0
 10
14.6907829806
 20
7.3151930071
 10
14.6612002761
 20
7.3004949243
 10
14.6281536398
 20
7.2885065503
 10
14.5923812787
 20
7.2794956854
 10
14.5546822883
 20
7.2736636176
 10
14.5158988017
 20
7.2711406255
 10
14.4768971781
 20
7.2719830686
 10
14.4385486491
 20
7.2761721282
 10
14.4017098576
 20
7.2836142276
 10
14.3672037213
 20
7.2941431225
 10
14.3358010502
 20
7.307523615
 10
14.3082033281
 20
7.3234568068
 10
14.2850270426
 20
7.3415867767
 10
14.2677495387
 20
7.3602545101
  0
LWPOLYLINE
  5
61B
100
AcDbEntity
  8
0
100
AcDbPolyline
 62
7
  6
CONTINUOUS
 90
18
 70
0
 10
15.2502609057
 20
8.2205473322
 10
15.2446957128
 20
8.314410676
 10
15.2282599019
 20
8.41174373
 10
15.2014598659
 20
8.5107472361
 10
15.1649476666
 20
8.6096177052
 10
15.1195275609
 20
8.7065376113
 10
15.0660171854
 20
8.7999320063
 10
15.0053865465
 20
8.8881357682
 10
14.9386523465
 20
8.9696101981
 10
14.866879573
 20
9.0429028512
 10
14.7913575811
 20
9.1064999165
 10
14.7132435791
 20
9.1591777011
 10
14.6339782823
 20
9.1996755798
 10
14.5554790252
 20
9.2268588693
 10
14.479495564
 20
9.2401938268
 10
14.4078716561
 20
9.2396997154
 10
14.3416706925
 20
9.2258867426
 10
14.2820903435
 20
9.1995385043
  0
LINE
  5
61C
100
AcDbEntity
  8
0
100
AcDbLine
 62
7
  6
CONTINUOUS
 10
15.2502609057
 20
8.2205490336
 11
15.2502609057
 21
8.2205473322
  0
LWPOLYLINE
  5
61D
100
AcDbEntity
  8
AXIS
100
AcDbPolyline
 62
7
  6
CONTINUOUS
 90
11
 70
0
 10
14.5885119427
 20
6.7594115624
 10
14.5664039302
 20
6.7494116117
 10
14.5407932286
 20
6.7427568389
 10
14.5131682389
 20
6.7398339953
 10
14.485134425
 20
6.7408129457
 10
14.4583210102
 20
6.7456367973
 10
14.4342862929
 20
6.7540252053
 10
14.4144270834
 20
6.7654906658
 10
14.3998975268
 20
6.7793668481
 10
14.391542028
 20
6.7948473189
 10
14.3896388686
 20
6.8069864962
  0
LINE
  5
61E
100
AcDbEntity
  8
AXIS
100
AcDbLine
 62
7
  6
CONTINUOUS
 10
4.4701173761
 20
3.5446354828
 11
4.2371173761
 21
3.5446354828
  0
LWPOLYLINE
  5
61F
100
AcDbEntity
  8
0
100
AcDbPolyline
 62
7
  6
CONTINUOUS
 90
17
 70
0
 10
4.2744793978
 20
5.8492688859
 10
4.2203818382
 20
5.8324067213
 10
4.169748797
 20
5.8067376507
 10
4.1237765272
 20
5.7727577423
 10
4.0841670006
 20
5.7316626435
 10
4.052065845
 20
5.6848133188
 10
4.0280543747
 20
5.6331513502
 10
4.0128124215
 20
5.5778877667
 10
4.0069083071
 20
5.5206390142
 10
4.0105785853
 20
5.4630571373
 10
4.0237654107
 20
5.4067437804
 10
4.045594693
 20
5.3543274559
 10
4.0753564819
 20
5.306496385
 10
4.1121357654
 20
5.2643073034
 10
4.1548617004
 20
5.228694892
 10
4.1999388821
 20
5.2016065907
 10
4.2442253601
 20
5.1829614761
  0
LINE
  5
620
100
AcDbEntity
  8
0
100
AcDbLine
 62
7
  6
CONTINUOUS
 10
4.6147498627
 20
4.2976354828
 11
4.0924848896
 21
4.2976354828
  0
LINE
  5
621
100
AcDbEntity
  8
0
100
AcDbLine
 62
7
  6
CONTINUOUS
 10
4.6436173761
 20
4.3476354828
 11
4.0636173761
 21
4.3476354828
  0
LINE
  5
622
100
AcDbEntity
  8
0
100
AcDbLine
 62
7
  6
CONTINUOUS
 10
4.0586173761
 20
4.3976354828
 11
4.6486173761
 21
4.3976354828
  0
LINE
  5
623
100
AcDbEntity
  8
0
100
AcDbLine
 62
7
  6
CONTINUOUS
 10
4.0636173761
 20
4.3476354828
 11
4.0924848896
 21
4.2976354828
  0
LINE
  5
624
100
AcDbEntity
  8
0
100
AcDbLine
 62
7
  6
CONTINUOUS
 10
4.0586173761
 20
4.3976354828
 11
4.0586173761
 21
4.7500698586
  0
LINE
  5
625
100
AcDbEntity
  8
0
100
AcDbLine
 62
7
  6
CONTINUOUS
 10
4.0636173761
 20
4.3976354828
 11
4.0636173761
 21
4.3476354828
  0
LINE
  5
626
100
AcDbEntity
  8
AXIS_COSMETIC_THREADS
100
AcDbLine
 62
7
  6
CONTINUOUS
 10
4.0686173761
 20
5.4182389839
 11
4.0686173761
 21
5.6210319818
  0
LWPOLYLINE
  5
627
100
AcDbEntity
  8
0
100
AcDbPolyline
 62
9
  6
CONTINUOUS
 90
8
 70
0
 10
4.1325064051
 20
4.7149888213
 10
4.1535148997
 20
4.7100024308
 10
4.1775208352
 20
4.7102439147
 10
4.2049756778
 20
4.7155227201
 10
4.2363476626
 20
4.7260659739
 10
4.2718785425
 20
4.7422744649
 10
4.3113098867
 20
4.7644000116
 10
4.3536173761
 20
4.7921354828
  0
LWPOLYLINE
  5
628
100
AcDbEntity
  8
0
100
AcDbPolyline
 62
9
  6
CONTINUOUS
 90
8
 70
0
 10
4.106372395
 20
4.7719549566
 10
4.1295194041
 20
4.7661630715
 10
4.1555302766
 20
4.7630505181
 10
4.1851953092
 20
4.7625081023
 10
4.2193699682
 20
4.7647193953
 10
4.258772396
 20
4.7700825031
 10
4.3036953629
 20
4.7790914647
 10
4.3536173761
 20
4.7921354828
  0
LWPOLYLINE
  5
629
100
AcDbEntity
  8
0
100
AcDbPolyline
 62
9
  6
CONTINUOUS
 90
6
 70
0
 10
4.1325064051
 20
4.7149888213
 10
4.1061764362
 20
4.7261680788
 10
4.0851281141
 20
4.7361404805
 10
4.070111354
 20
4.7438388177
 10
4.0613759222
 20
4.748547193
 10
4.0586173761
 20
4.7500698586
  0
LINE
  5
62A
100
AcDbEntity
  8
0
100
AcDbLine
 62
7
  6
CONTINUOUS
 10
4.0237501195
 20
4.8045523807
 11
4.0240827032
 21
4.8043977254
  0
LWPOLYLINE
  5
62B
100
AcDbEntity
  8
0
100
AcDbPolyline
 62
9
  6
CONTINUOUS
 90
6
 70
0
 10
4.106372395
 20
4.7719549566
 10
4.1166972849
 20
4.7663073236
 10
4.1249609212
 20
4.7570324272
 10
4.1305792187
 20
4.74478583
 10
4.1331550682
 20
4.7304331386
 10
4.1325064051
 20
4.7149888213
  0
LINE
  5
62C
100
AcDbEntity
  8
AXIS
100
AcDbLine
 62
7
  6
CONTINUOUS
 10
4.2371173761
 20
4.2976354828
 11
4.2371173761
 21
3.5446354828
  0
LINE
  5
62D
100
AcDbEntity
  8
AXIS_COSMETIC_THREADS
100
AcDbLine
 62
7
  6
CONTINUOUS
 10
4.2371173761
 20
4.2976354828
 11
4.2371173761
 21
3.5446354828
  0
LWPOLYLINE
  5
62E
100
AcDbEntity
  8
0
100
AcDbPolyline
 62
9
  6
CONTINUOUS
 90
8
 70
0
 10
4.3536173761
 20
4.7921354828
 10
4.4035393893
 20
4.7790914647
 10
4.4484623563
 20
4.7700825031
 10
4.487864784
 20
4.7647193953
 10
4.522039443
 20
4.7625081023
 10
4.5517044756
 20
4.7630505181
 10
4.5777153481
 20
4.7661630715
 10
4.6008623572
 20
4.7719549566
  0
LWPOLYLINE
  5
62F
100
AcDbEntity
  8
0
100
AcDbPolyline
 62
9
  6
CONTINUOUS
 90
8
 70
0
 10
4.3536173761
 20
4.7921354828
 10
4.3959248655
 20
4.7644000116
 10
4.4353562098
 20
4.7422744649
 10
4.4708870896
 20
4.7260659739
 10
4.5022590745
 20
4.7155227201
 10
4.529713917
 20
4.7102439147
 10
4.5537198525
 20
4.7100024308
 10
4.5747283471
 20
4.7149888213
  0
LINE
  5
630
100
AcDbEntity
  8
DEFAULT_1
100
AcDbLine
 62
7
  6
CENTER
 10
4.3536173761
 20
5.5196354828
 11
4.3536173761
 21
4.6321354828
  0
LINE
  5
631
100
AcDbEntity
  8
DEFAULT_1
100
AcDbLine
 62
7
  6
CENTER
 10
4.3536173761
 20
5.5196354828
 11
4.3536173761
 21
6.4071354828
  0
LINE
  5
632
100
AcDbEntity
  8
AXIS
100
AcDbLine
 62
7
  6
CONTINUOUS
 10
4.4701173761
 20
4.2976354828
 11
4.4701173761
 21
3.5446354828
  0
LINE
  5
633
100
AcDbEntity
  8
AXIS_COSMETIC_THREADS
100
AcDbLine
 62
7
  6
CONTINUOUS
 10
4.4701173761
 20
4.2976354828
 11
4.4701173761
 21
3.5446354828
  0
LINE
  5
634
100
AcDbEntity
  8
AXIS_COSMETIC_THREADS
100
AcDbLine
 62
7
  6
CONTINUOUS
 10
4.6386173761
 20
5.6210319818
 11
4.6386173761
 21
5.4182389839
  0
LINE
  5
635
100
AcDbEntity
  8
0
100
AcDbLine
 62
7
  6
CONTINUOUS
 10
4.6436173761
 20
4.3976354828
 11
4.6436173761
 21
4.3476354828
  0
LINE
  5
636
100
AcDbEntity
  8
0
100
AcDbLine
 62
7
  6
CONTINUOUS
 10
4.6486173761
 20
4.3976354828
 11
4.6486173761
 21
4.7500698586
  0
LWPOLYLINE
  5
637
100
AcDbEntity
  8
0
100
AcDbPolyline
 62
9
  6
CONTINUOUS
 90
6
 70
0
 10
4.6486173761
 20
4.7500698586
 10
4.6458588724
 20
4.7485472163
 10
4.6371235514
 20
4.7438388987
 10
4.6221068998
 20
4.7361406104
 10
4.6010585692
 20
4.7261681931
 10
4.5747283471
 20
4.7149888213
  0
LWPOLYLINE
  5
638
100
AcDbEntity
  8
0
100
AcDbPolyline
 62
9
  6
CONTINUOUS
 90
6
 70
0
 10
4.6008623572
 20
4.7719549566
 10
4.5905374673
 20
4.7663073236
 10
4.582273831
 20
4.7570324272
 10
4.5766555335
 20
4.74478583
 10
4.574079684
 20
4.7304331386
 10
4.5747283471
 20
4.7149888213
  0
LINE
  5
639
100
AcDbEntity
  8
0
100
AcDbLine
 62
7
  6
CONTINUOUS
 10
4.6834846327
 20
4.8045523807
 11
4.6831520706
 21
4.8043977356
  0
LWPOLYLINE
  5
63A
100
AcDbEntity
  8
0
100
AcDbPolyline
 62
7
  6
CONTINUOUS
 90
17
 70
0
 10
4.3536173761
 20
5.1656354828
 10
4.4137039321
 20
5.1717767086
 10
4.4717095435
 20
5.1880146405
 10
4.5257901913
 20
5.2137256972
 10
4.5748591594
 20
5.2483786542
 10
4.6170752554
 20
5.2906688235
 10
4.6512554751
 20
5.3391927042
 10
4.6766092506
 20
5.3925949493
 10
4.6925543746
 20
5.4496473796
 10
4.6985364209
 20
5.5086889945
 10
4.6942724439
 20
5.568137574
 10
4.6800848496
 20
5.625164524
 10
4.6574768305
 20
5.6769016323
 10
4.6286086066
 20
5.7216892488
 10
4.5962965064
 20
5.7583542652
 10
4.563122229
 20
5.7869928763
 10
4.5307443896
 20
5.8086804986
  0
LINE
  5
63B
100
AcDbEntity
  8
0
100
AcDbLine
 62
7
  6
CONTINUOUS
 10
4.6436173761
 20
4.3476354828
 11
4.6147498627
 21
4.2976354828
  0
LINE
  5
63C
100
AcDbEntity
  8
DEFAULT_1
100
AcDbLine
 62
7
  6
CENTER
 10
4.3536173761
 20
5.5196354828
 11
3.4661173761
 21
5.5196354828
  0
LINE
  5
63D
100
AcDbEntity
  8
DEFAULT_1
100
AcDbLine
 62
7
  6
CENTER
 10
4.3536173761
 20
5.5196354828
 11
5.2411173761
 21
5.5196354828
  0
LINE
  5
63E
100
AcDbEntity
  8
0
100
AcDbLine
 62
7
  6
CONTINUOUS
 10
4.5307443896
 20
5.8086804986
 11
4.5442939619
 21
5.7986520549
  0
LINE
  5
63F
100
AcDbEntity
  8
0
100
AcDbLine
 62
7
  6
CONTINUOUS
 10
4.2744793978
 20
5.8492688859
 11
4.3007777358
 21
5.8531698758
  0
LWPOLYLINE
  5
640
100
AcDbEntity
  8
0
100
AcDbPolyline
 62
7
  6
CONTINUOUS
 90
7
 70
0
 10
4.5307443896
 20
5.8086804986
 10
4.4917997177
 20
5.8291942664
 10
4.4499770247
 20
5.8446521257
 10
4.4079641473
 20
5.8542508269
 10
4.3664496812
 20
5.8583925225
 10
4.3223091789
 20
5.8571866594
 10
4.2744793978
 20
5.8492688859
  0
LINE
  5
641
100
AcDbEntity
  8
AXIS
100
AcDbLine
 62
7
  6
CONTINUOUS
 10
8.9488923957
 20
3.5446354828
 11
8.7159109301
 21
3.5446354828
  0
LINE
  5
642
100
AcDbEntity
  8
0
100
AcDbLine
 62
7
  6
CONTINUOUS
 10
7.9654016637
 20
5.8736354828
 11
7.9652975929
 21
5.8735881836
  0
LINE
  5
643
100
AcDbEntity
  8
0
100
AcDbLine
 62
7
  6
CONTINUOUS
 10
7.9652975929
 20
5.8735881836
 11
7.9487929889
 21
5.8585860916
  0
LINE
  5
644
100
AcDbEntity
  8
0
100
AcDbLine
 62
7
  6
CONTINUOUS
 10
8.0052975929
 20
5.8735881836
 11
7.9887929889
 21
5.8585860916
  0
LINE
  5
645
100
AcDbEntity
  8
0
100
AcDbLine
 62
7
  6
CONTINUOUS
 10
8.0452975929
 20
5.8735881836
 11
8.0287929889
 21
5.8585860916
  0
LINE
  5
646
100
AcDbEntity
  8
0
100
AcDbLine
 62
7
  6
CONTINUOUS
 10
8.0852975929
 20
5.8735881836
 11
8.0687929889
 21
5.8585860916
  0
LINE
  5
647
100
AcDbEntity
  8
0
100
AcDbLine
 62
7
  6
CONTINUOUS
 10
8.0452975929
 20
5.8735881836
 11
8.0454016744
 21
5.8736354828
  0
LINE
  5
648
100
AcDbEntity
  8
0
100
AcDbLine
 62
7
  6
CONTINUOUS
 10
8.0852975929
 20
5.8735881836
 11
8.0854016629
 21
5.8736354828
  0
LINE
  5
649
100
AcDbEntity
  8
0
100
AcDbLine
 62
7
  6
CONTINUOUS
 10
8.1252975929
 20
5.8735881836
 11
8.1254016629
 21
5.8736354828
  0
LINE
  5
64A
100
AcDbEntity
  8
0
100
AcDbLine
 62
7
  6
CONTINUOUS
 10
8.1652975929
 20
5.8735881836
 11
8.1654016629
 21
5.8736354828
  0
LINE
  5
64B
100
AcDbEntity
  8
0
100
AcDbLine
 62
7
  6
CONTINUOUS
 10
8.2052975929
 20
5.8735881836
 11
8.2054016629
 21
5.8736354828
  0
LINE
  5
64C
100
AcDbEntity
  8
0
100
AcDbLine
 62
7
  6
CONTINUOUS
 10
8.0052975929
 20
5.8735881836
 11
8.0054019383
 21
5.8736354825
  0
LINE
  5
64D
100
AcDbEntity
  8
0
100
AcDbLine
 62
7
  6
CONTINUOUS
 10
8.1252975929
 20
5.8735881836
 11
8.1087929889
 21
5.8585860916
  0
LINE
  5
64E
100
AcDbEntity
  8
0
100
AcDbLine
 62
7
  6
CONTINUOUS
 10
8.1652975929
 20
5.8735881836
 11
8.1487929889
 21
5.8585860916
  0
LINE
  5
64F
100
AcDbEntity
  8
0
100
AcDbLine
 62
7
  6
CONTINUOUS
 10
8.2052975929
 20
5.8735881836
 11
8.1887929889
 21
5.8585860916
  0
LINE
  5
650
100
AcDbEntity
  8
0
100
AcDbLine
 62
7
  6
CONTINUOUS
 10
8.2452975929
 20
5.8735881836
 11
8.2287929889
 21
5.8585860916
  0
LINE
  5
651
100
AcDbEntity
  8
0
100
AcDbLine
 62
7
  6
CONTINUOUS
 10
8.4052975929
 20
5.8735881836
 11
8.4054013748
 21
5.8736354825
  0
LINE
  5
652
100
AcDbEntity
  8
0
100
AcDbLine
 62
7
  6
CONTINUOUS
 10
8.4452975929
 20
5.8735881836
 11
8.445401571
 21
5.8736354828
  0
LINE
  5
653
100
AcDbEntity
  8
0
100
AcDbLine
 62
7
  6
CONTINUOUS
 10
8.2452975929
 20
5.8735881836
 11
8.2454016629
 21
5.8736354828
  0
LINE
  5
654
100
AcDbEntity
  8
0
100
AcDbLine
 62
7
  6
CONTINUOUS
 10
8.2852975929
 20
5.8735881836
 11
8.2854016629
 21
5.8736354828
  0
LINE
  5
655
100
AcDbEntity
  8
0
100
AcDbLine
 62
7
  6
CONTINUOUS
 10
8.3252975929
 20
5.8735881836
 11
8.3254016629
 21
5.8736354828
  0
LINE
  5
656
100
AcDbEntity
  8
0
100
AcDbLine
 62
7
  6
CONTINUOUS
 10
8.3652975929
 20
5.8735881836
 11
8.3654016481
 21
5.8736354828
  0
LINE
  5
657
100
AcDbEntity
  8
0
100
AcDbLine
 62
7
  6
CONTINUOUS
 10
8.2852975929
 20
5.8735881836
 11
8.2687929889
 21
5.8585860916
  0
LINE
  5
658
100
AcDbEntity
  8
0
100
AcDbLine
 62
7
  6
CONTINUOUS
 10
8.3252975929
 20
5.8735881836
 11
8.3087929889
 21
5.8585860916
  0
LINE
  5
659
100
AcDbEntity
  8
0
100
AcDbLine
 62
7
  6
CONTINUOUS
 10
8.3652975929
 20
5.8735881836
 11
8.3487929889
 21
5.8585860916
  0
LINE
  5
65A
100
AcDbEntity
  8
0
100
AcDbLine
 62
7
  6
CONTINUOUS
 10
8.4854016658
 20
5.8736354828
 11
8.4852975929
 21
5.8735881836
  0
LINE
  5
65B
100
AcDbEntity
  8
0
100
AcDbLine
 62
7
  6
CONTINUOUS
 10
8.4052975929
 20
5.8735881836
 11
8.3887929889
 21
5.8585860916
  0
LINE
  5
65C
100
AcDbEntity
  8
0
100
AcDbLine
 62
7
  6
CONTINUOUS
 10
8.4452975929
 20
5.8735881836
 11
8.4287929889
 21
5.8585860916
  0
LINE
  5
65D
100
AcDbEntity
  8
0
100
AcDbLine
 62
7
  6
CONTINUOUS
 10
8.4852975929
 20
5.8735881836
 11
8.4687929889
 21
5.8585860916
  0
LINE
  5
65E
100
AcDbEntity
  8
0
100
AcDbLine
 62
7
  6
CONTINUOUS
 10
8.5712722361
 20
4.2976354828
 11
9.0935310897
 21
4.2976354828
  0
LWPOLYLINE
  5
65F
100
AcDbEntity
  8
0
100
AcDbPolyline
 62
7
  6
CONTINUOUS
 90
17
 70
0
 10
7.9496516629
 20
5.8562856898
 10
7.9507766629
 20
5.8440382567
 10
7.9519016629
 20
5.8216866945
 10
7.9530266629
 20
5.7899271845
 10
7.9541516629
 20
5.7497489356
 10
7.9552766629
 20
5.7024033743
 10
7.9564016629
 20
5.6493651664
 10
7.9575266629
 20
5.5922862857
 10
7.9586516629
 20
5.5329445604
 10
7.9597766629
 20
5.473188299
 10
7.9609016629
 20
5.4148787217
 10
7.9620266629
 20
5.3598319891
 10
7.9631516629
 20
5.309762634
 10
7.9642766629
 20
5.26623016
 10
7.9654016629
 20
5.2305904671
 10
7.9665266629
 20
5.20395362
 10
7.9676516629
 20
5.1871492728
  0
LWPOLYLINE
  5
660
100
AcDbEntity
  8
0
100
AcDbPolyline
 62
7
  6
CONTINUOUS
 90
9
 70
0
 10
7.9862998835
 20
5.1709238066
 10
7.9851939574
 20
5.1867090739
 10
7.9840830264
 20
5.2126546902
 10
7.9829669698
 20
5.2481075259
 10
7.9818621405
 20
5.2914064282
 10
7.9807591526
 20
5.3414734752
 10
7.979638567
 20
5.3977935064
 10
7.9785135546
 20
5.4581212816
 10
7.9774016629
 20
5.5196354828
  0
LWPOLYLINE
  5
661
100
AcDbEntity
  8
0
100
AcDbPolyline
 62
7
  6
CONTINUOUS
 90
16
 70
0
 10
7.9474016629
 20
5.8086804986
 10
7.9485141629
 20
5.7734824599
 10
7.9496266629
 20
5.7305521638
 10
7.9507391629
 20
5.6811972804
 10
7.9518516629
 20
5.6269211747
 10
7.9529641629
 20
5.5693771137
 10
7.9540766629
 20
5.5103179072
 10
7.9551891629
 20
5.4515425169
 10
7.9563016629
 20
5.3948412595
 10
7.9574141629
 20
5.3419412726
 10
7.9585266629
 20
5.2944539064
 10
7.9596391629
 20
5.2538256406
 10
7.9607516629
 20
5.2212940247
 10
7.9618641629
 20
5.1978499819
 10
7.9629766629
 20
5.184207625
 10
7.9639016629
 20
5.1806354828
  0
LWPOLYLINE
  5
662
100
AcDbEntity
  8
0
100
AcDbPolyline
 62
7
  6
CONTINUOUS
 90
12
 70
0
 10
7.9919016629
 20
5.6243922439
 10
7.9930344063
 20
5.565674187
 10
7.9941671496
 20
5.5055024132
 10
7.995299893
 20
5.4457769049
 10
7.9964326363
 20
5.3883835528
 10
7.9975653797
 20
5.3351346079
 10
7.9986981231
 20
5.2877114572
 10
7.9998308664
 20
5.2476115327
 10
8.0009636098
 20
5.2161010286
 10
8.0020963532
 20
5.1941749195
 10
8.0032290965
 20
5.1825255437
 10
8.0039016629
 20
5.1806354828
  0
LWPOLYLINE
  5
663
100
AcDbEntity
  8
0
100
AcDbPolyline
 62
7
  6
CONTINUOUS
 90
12
 70
0
 10
7.9969016629
 20
5.6243922439
 10
7.9980344063
 20
5.565674187
 10
7.9991671496
 20
5.5055024132
 10
8.000299893
 20
5.4457769049
 10
8.0014326363
 20
5.3883835528
 10
8.0025653797
 20
5.3351346079
 10
8.0036981231
 20
5.2877114572
 10
8.0048308664
 20
5.2476115327
 10
8.0059636098
 20
5.2161010286
 10
8.0070963532
 20
5.1941749195
 10
8.0082290965
 20
5.1825255437
 10
8.0087929889
 20
5.1806848741
  0
LWPOLYLINE
  5
664
100
AcDbEntity
  8
0
100
AcDbPolyline
 62
7
  6
CONTINUOUS
 90
9
 70
0
 10
7.9765134721
 20
5.4581257983
 10
7.9776384016
 20
5.3978021432
 10
7.978758898
 20
5.3414857127
 10
7.9798617373
 20
5.2914235672
 10
7.9809718695
 20
5.247932795
 10
7.982091647
 20
5.2124162497
 10
7.9832039125
 20
5.1865213383
 10
7.9843090993
 20
5.1708359251
 10
7.9852975929
 20
5.1656827821
  0
LWPOLYLINE
  5
665
100
AcDbEntity
  8
0
100
AcDbPolyline
 62
7
  6
CONTINUOUS
 90
4
 70
0
 10
8.0134016629
 20
5.6290274989
 10
8.0140684164
 20
5.5932314977
 10
8.0147349142
 20
5.5566430977
 10
8.0154016629
 20
5.5196354828
  0
LWPOLYLINE
  5
666
100
AcDbEntity
  8
0
100
AcDbPolyline
 62
7
  6
CONTINUOUS
 90
9
 70
0
 10
8.0163000411
 20
5.5805872213
 10
8.0151985928
 20
5.6397093158
 10
8.0140916599
 20
5.695510791
 10
8.0129883967
 20
5.7458514792
 10
8.0118699887
 20
5.789959719
 10
8.0107448051
 20
5.825935395
 10
8.0096299795
 20
5.8521706124
 10
8.0085283033
 20
5.8681064406
 10
8.0075057329
 20
5.8735881836
  0
LWPOLYLINE
  5
667
100
AcDbEntity
  8
0
100
AcDbPolyline
 62
7
  6
CONTINUOUS
 90
9
 70
0
 10
7.9765134721
 20
5.4581257983
 10
7.9742816214
 20
5.5815959159
 10
7.9731615735
 20
5.6416437456
 10
7.9720415425
 20
5.697923879
 10
7.9709215042
 20
5.7487000209
 10
7.9698014105
 20
5.7924061167
 10
7.9686812938
 20
5.827690645
 10
7.9675612127
 20
5.8534624639
 10
7.9664411795
 20
5.8689266775
  0
LWPOLYLINE
  5
668
100
AcDbEntity
  8
0
100
AcDbPolyline
 62
7
  6
CONTINUOUS
 90
4
 70
0
 10
7.9774016629
 20
5.5196354828
 10
7.9767349142
 20
5.5566430977
 10
7.9760684164
 20
5.5932314977
 10
7.9754016629
 20
5.6290274989
  0
LWPOLYLINE
  5
669
100
AcDbEntity
  8
0
100
AcDbPolyline
 62
7
  6
CONTINUOUS
 90
10
 70
0
 10
8.0154016629
 20
5.5196354828
 10
8.0165135546
 20
5.4581212816
 10
8.017638567
 20
5.3977935064
 10
8.0187591526
 20
5.3414734752
 10
8.0198621405
 20
5.2914064282
 10
8.0209669698
 20
5.2481075259
 10
8.0220830264
 20
5.2126546902
 10
8.0231939574
 20
5.1867090739
 10
8.0242998835
 20
5.1709238066
 10
8.0252975929
 20
5.1656827821
  0
LINE
  5
66A
100
AcDbEntity
  8
0
100
AcDbLine
 62
7
  6
CONTINUOUS
 10
7.9474016629
 20
5.1656354828
 11
7.9474016629
 21
5.8586350148
  0
LINE
  5
66B
100
AcDbEntity
  8
0
100
AcDbLine
 62
7
  6
CONTINUOUS
 10
7.9475057329
 20
5.1656827821
 11
7.9640103369
 21
5.1806848741
  0
LINE
  5
66C
100
AcDbEntity
  8
0
100
AcDbLine
 62
7
  6
CONTINUOUS
 10
7.9875057329
 20
5.1656827821
 11
8.0040103369
 21
5.1806848741
  0
LINE
  5
66D
100
AcDbEntity
  8
0
100
AcDbLine
 62
7
  6
CONTINUOUS
 10
8.0275057329
 20
5.1656827821
 11
8.0440103369
 21
5.1806848741
  0
LINE
  5
66E
100
AcDbEntity
  8
0
100
AcDbLine
 62
7
  6
CONTINUOUS
 10
8.5424016629
 20
4.3476354828
 11
9.1224016629
 21
4.3476354828
  0
LINE
  5
66F
100
AcDbEntity
  8
0
100
AcDbLine
 62
7
  6
CONTINUOUS
 10
8.5374097037
 20
4.3976354828
 11
9.1273936221
 21
4.3976354828
  0
LINE
  5
670
100
AcDbEntity
  8
0
100
AcDbLine
 62
7
  6
CONTINUOUS
 10
7.9676516629
 20
5.1871492728
 11
7.9687929889
 21
5.1806848741
  0
LWPOLYLINE
  5
671
100
AcDbEntity
  8
0
100
AcDbPolyline
 62
7
  6
CONTINUOUS
 90
4
 70
0
 10
8.1066202028
 20
5.168299158
 10
8.1055407813
 20
5.1806515436
 10
8.1044713667
 20
5.2024784648
 10
8.1034016629
 20
5.2332434668
  0
LWPOLYLINE
  5
672
100
AcDbEntity
  8
0
100
AcDbPolyline
 62
7
  6
CONTINUOUS
 90
9
 70
0
 10
8.0262832615
 20
5.1710841612
 10
8.0251769961
 20
5.1870308112
 10
8.0240690651
 20
5.2130420423
 10
8.0229599128
 20
5.2483594714
 10
8.0218598276
 20
5.291504757
 10
8.0207572203
 20
5.3415663326
 10
8.0196372566
 20
5.3978619231
 10
8.0185129023
 20
5.4581570048
 10
8.0163000411
 20
5.5805872213
  0
LWPOLYLINE
  5
673
100
AcDbEntity
  8
0
100
AcDbPolyline
 62
7
  6
CONTINUOUS
 90
9
 70
0
 10
8.066280085
 20
5.1711150761
 10
8.0651732102
 20
5.1871029476
 10
8.0640673618
 20
5.2130894005
 10
8.0629639082
 20
5.2482167883
 10
8.0618618919
 20
5.2914169953
 10
8.0607585201
 20
5.3415038717
 10
8.0596381281
 20
5.3978164205
 10
8.0585133364
 20
5.45813323
 10
8.0563018651
 20
5.5804873097
  0
LWPOLYLINE
  5
674
100
AcDbEntity
  8
0
100
AcDbPolyline
 62
7
  6
CONTINUOUS
 90
8
 70
0
 10
8.0465283033
 20
5.8681064406
 10
8.0476299795
 20
5.8521706124
 10
8.0487448051
 20
5.825935395
 10
8.0498699887
 20
5.789959719
 10
8.0509883967
 20
5.7458514792
 10
8.0520916599
 20
5.695510791
 10
8.0531985928
 20
5.6397093158
 10
8.0543000411
 20
5.5805872213
  0
LWPOLYLINE
  5
675
100
AcDbEntity
  8
0
100
AcDbPolyline
 62
7
  6
CONTINUOUS
 90
5
 70
0
 10
8.1199016629
 20
5.2453787218
 10
8.1210344063
 20
5.2144410938
 10
8.1221671496
 20
5.193140275
 10
8.123299893
 20
5.1821488594
 10
8.1239016629
 20
5.1806354828
  0
LWPOLYLINE
  5
676
100
AcDbEntity
  8
0
100
AcDbPolyline
 62
7
  6
CONTINUOUS
 90
5
 70
0
 10
8.1249016629
 20
5.2453787218
 10
8.1260344063
 20
5.2144410938
 10
8.1271671496
 20
5.193140275
 10
8.128299893
 20
5.1821488594
 10
8.1287929889
 20
5.1806848741
  0
LWPOLYLINE
  5
677
100
AcDbEntity
  8
0
100
AcDbPolyline
 62
7
  6
CONTINUOUS
 90
7
 70
0
 10
8.1034016629
 20
5.2332434668
 10
8.1024097241
 20
5.2690029222
 10
8.1014170281
 20
5.3108688877
 10
8.1004207815
 20
5.357976332
 10
8.099410945
 20
5.4097527048
 10
8.0984002908
 20
5.4643330413
 10
8.0974016629
 20
5.5196354828
  0
LWPOLYLINE
  5
678
100
AcDbEntity
  8
0
100
AcDbPolyline
 62
7
  6
CONTINUOUS
 90
9
 70
0
 10
8.0563018651
 20
5.5804873097
 10
8.0551967178
 20
5.6398073923
 10
8.054086211
 20
5.6957736799
 10
8.0529828309
 20
5.7460894499
 10
8.0518657004
 20
5.7901136195
 10
8.0507428206
 20
5.8259907025
 10
8.0496311732
 20
5.8521478445
 10
8.0485249684
 20
5.8681390396
 10
8.0475057329
 20
5.8735881836
  0
LWPOLYLINE
  5
679
100
AcDbEntity
  8
0
100
AcDbPolyline
 62
7
  6
CONTINUOUS
 90
10
 70
0
 10
8.0543000411
 20
5.5805872213
 10
8.0565129023
 20
5.4581570048
 10
8.0576372566
 20
5.3978619231
 10
8.0587572203
 20
5.3415663326
 10
8.0598598276
 20
5.291504757
 10
8.0609599128
 20
5.2483594714
 10
8.0620690651
 20
5.2130420423
 10
8.0631769961
 20
5.1870308112
 10
8.0642832615
 20
5.1710841612
 10
8.0652975929
 20
5.1656827821
  0
LWPOLYLINE
  5
67A
100
AcDbEntity
  8
0
100
AcDbPolyline
 62
7
  6
CONTINUOUS
 90
10
 70
0
 10
8.0943018651
 20
5.5804873097
 10
8.0965133364
 20
5.45813323
 10
8.0976381281
 20
5.3978164205
 10
8.0987585201
 20
5.3415038717
 10
8.0998618919
 20
5.2914169953
 10
8.1009639082
 20
5.2482167883
 10
8.1020673618
 20
5.2130894005
 10
8.1031732102
 20
5.1871029476
 10
8.104280085
 20
5.1711150761
 10
8.1052975929
 20
5.1656827821
  0
LWPOLYLINE
  5
67B
100
AcDbEntity
  8
0
100
AcDbPolyline
 62
7
  6
CONTINUOUS
 90
10
 70
0
 10
8.0974016629
 20
5.5196354828
 10
8.0963005575
 20
5.5805589324
 10
8.0951869924
 20
5.6403159329
 10
8.094072032
 20
5.6964571593
 10
8.0929678198
 20
5.7467303987
 10
8.0918533878
 20
5.7905548134
 10
8.0907370145
 20
5.826152346
 10
8.0896337042
 20
5.8520995319
 10
8.088526925
 20
5.8681199255
 10
8.0875057329
 20
5.8735881836
  0
LINE
  5
67C
100
AcDbEntity
  8
0
100
AcDbLine
 62
7
  6
CONTINUOUS
 10
8.0675057329
 20
5.1656827821
 11
8.0840103369
 21
5.1806848741
  0
LINE
  5
67D
100
AcDbEntity
  8
0
100
AcDbLine
 62
7
  6
CONTINUOUS
 10
8.1075057329
 20
5.1656827821
 11
8.1240103369
 21
5.1806848741
  0
LINE
  5
67E
100
AcDbEntity
  8
0
100
AcDbLine
 62
7
  6
CONTINUOUS
 10
8.1475057329
 20
5.1656827821
 11
8.1640103369
 21
5.1806848741
  0
LINE
  5
67F
100
AcDbEntity
  8
0
100
AcDbLine
 62
7
  6
CONTINUOUS
 10
8.1875057329
 20
5.1656827821
 11
8.2040103369
 21
5.1806848741
  0
LINE
  5
680
100
AcDbEntity
  8
0
100
AcDbLine
 62
7
  6
CONTINUOUS
 10
7.9875057329
 20
5.1656827821
 11
7.9874016939
 21
5.1656354829
  0
LINE
  5
681
100
AcDbEntity
  8
0
100
AcDbLine
 62
7
  6
CONTINUOUS
 10
7.9474016629
 20
5.1656354828
 11
7.9475057329
 21
5.1656827821
  0
LINE
  5
682
100
AcDbEntity
  8
0
100
AcDbLine
 62
7
  6
CONTINUOUS
 10
8.0275057329
 20
5.1656827821
 11
8.0274016641
 21
5.1656354828
  0
LINE
  5
683
100
AcDbEntity
  8
0
100
AcDbLine
 62
7
  6
CONTINUOUS
 10
8.0675057329
 20
5.1656827821
 11
8.0674016629
 21
5.1656354828
  0
LINE
  5
684
100
AcDbEntity
  8
0
100
AcDbLine
 62
7
  6
CONTINUOUS
 10
8.1075057329
 20
5.1656827821
 11
8.1074016468
 21
5.1656354828
  0
LINE
  5
685
100
AcDbEntity
  8
0
100
AcDbLine
 62
7
  6
CONTINUOUS
 10
8.0478751142
 20
5.1850332002
 11
8.0487929889
 21
5.1806848741
  0
LINE
  5
686
100
AcDbEntity
  8
0
100
AcDbLine
 62
7
  6
CONTINUOUS
 10
7.9874016939
 20
5.1656354829
 11
7.9862998835
 21
5.1709238066
  0
LINE
  5
687
100
AcDbEntity
  8
0
100
AcDbLine
 62
7
  6
CONTINUOUS
 10
8.0274016641
 20
5.1656354828
 11
8.0262832615
 21
5.1710841612
  0
LINE
  5
688
100
AcDbEntity
  8
0
100
AcDbLine
 62
7
  6
CONTINUOUS
 10
8.0674016629
 20
5.1656354828
 11
8.066280085
 21
5.1711150761
  0
LWPOLYLINE
  5
689
100
AcDbEntity
  8
0
100
AcDbPolyline
 62
7
  6
CONTINUOUS
 90
8
 70
0
 10
7.9675057329
 20
5.8735881836
 10
7.9686809971
 20
5.8665115634
 10
7.9698010684
 20
5.8487885271
 10
7.9709212036
 20
5.8209009422
 10
7.9720413714
 20
5.7837094436
 10
7.9731615007
 20
5.7383648769
 10
7.9742815817
 20
5.6862686593
 10
7.9754016629
 20
5.6290274989
  0
LWPOLYLINE
  5
68A
100
AcDbEntity
  8
0
100
AcDbPolyline
 62
7
  6
CONTINUOUS
 90
3
 70
0
 10
8.0875211319
 20
5.1885750933
 10
8.0886538753
 20
5.1808922348
 10
8.0887929889
 20
5.1806848741
  0
LWPOLYLINE
  5
68B
100
AcDbEntity
  8
0
100
AcDbPolyline
 62
7
  6
CONTINUOUS
 90
9
 70
0
 10
8.1462791801
 20
5.1711238986
 10
8.1451726585
 20
5.1871134705
 10
8.1440712017
 20
5.2129826672
 10
8.1429687307
 20
5.2480447102
 10
8.1418615823
 20
5.2914301575
 10
8.1407578138
 20
5.34153781
 10
8.1396376463
 20
5.397841579
 10
8.1385130968
 20
5.4581463521
 10
8.136297582
 20
5.5807219155
  0
LWPOLYLINE
  5
68C
100
AcDbEntity
  8
0
100
AcDbPolyline
 62
7
  6
CONTINUOUS
 90
8
 70
0
 10
8.0865249684
 20
5.8681390396
 10
8.0876311732
 20
5.8521478445
 10
8.0887428206
 20
5.8259907025
 10
8.0898657004
 20
5.7901136195
 10
8.0909828309
 20
5.7460894499
 10
8.092086211
 20
5.6957736799
 10
8.0931967178
 20
5.6398073923
 10
8.0943018651
 20
5.5804873097
  0
LWPOLYLINE
  5
68D
100
AcDbEntity
  8
0
100
AcDbPolyline
 62
7
  6
CONTINUOUS
 90
9
 70
0
 10
8.126526925
 20
5.8681199255
 10
8.1276337042
 20
5.8520995319
 10
8.1287370145
 20
5.826152346
 10
8.1298533878
 20
5.7905548134
 10
8.1309678198
 20
5.7467303987
 10
8.132072032
 20
5.6964571593
 10
8.1331869924
 20
5.6403159329
 10
8.1343005575
 20
5.5805589324
 10
8.1354016629
 20
5.5196354828
  0
LWPOLYLINE
  5
68E
100
AcDbEntity
  8
0
100
AcDbPolyline
 62
7
  6
CONTINUOUS
 90
8
 70
0
 10
8.1862779368
 20
5.1711360321
 10
8.1851714285
 20
5.1871369382
 10
8.1840717835
 20
5.2129665046
 10
8.1829629687
 20
5.2482503284
 10
8.1818523388
 20
5.2918233387
 10
8.180748311
 20
5.3419946813
 10
8.1796297459
 20
5.398254163
 10
8.1785085861
 20
5.4583933764
  0
LWPOLYLINE
  5
68F
100
AcDbEntity
  8
0
100
AcDbPolyline
 62
7
  6
CONTINUOUS
 90
8
 70
0
 10
8.1665263973
 20
5.8681250839
 10
8.1676331707
 20
5.8521097198
 10
8.1687336616
 20
5.8262455751
 10
8.1698455892
 20
5.790833734
 10
8.1709578717
 20
5.7471544702
 10
8.1720620941
 20
5.6969356776
 10
8.1731793058
 20
5.6407176592
 10
8.174297582
 20
5.5807219155
  0
LWPOLYLINE
  5
690
100
AcDbEntity
  8
0
100
AcDbPolyline
 62
7
  6
CONTINUOUS
 90
5
 70
0
 10
8.1414016629
 20
5.2332434668
 10
8.1424713667
 20
5.2024784648
 10
8.1435407813
 20
5.1806515436
 10
8.1446202028
 20
5.168299158
 10
8.1452975929
 20
5.1656827821
  0
LWPOLYLINE
  5
691
100
AcDbEntity
  8
0
100
AcDbPolyline
 62
7
  6
CONTINUOUS
 90
9
 70
0
 10
8.136297582
 20
5.5807219155
 10
8.1351793058
 20
5.6407176592
 10
8.1340620941
 20
5.6969356776
 10
8.1329578717
 20
5.7471544702
 10
8.1318455892
 20
5.790833734
 10
8.1307336616
 20
5.8262455751
 10
8.1296331707
 20
5.8521097198
 10
8.1285263973
 20
5.8681250839
 10
8.1275057329
 20
5.8735881836
  0
LWPOLYLINE
  5
692
100
AcDbEntity
  8
0
100
AcDbPolyline
 62
7
  6
CONTINUOUS
 90
9
 70
0
 10
8.2165085861
 20
5.4583933764
 10
8.2176297459
 20
5.398254163
 10
8.218748311
 20
5.3419946813
 10
8.2198523388
 20
5.2918233387
 10
8.2209629687
 20
5.2482503284
 10
8.2220717835
 20
5.2129665046
 10
8.2231714285
 20
5.1871369382
 10
8.2242779368
 20
5.1711360321
 10
8.2252975929
 20
5.1656827821
  0
LWPOLYLINE
  5
693
100
AcDbEntity
  8
0
100
AcDbPolyline
 62
7
  6
CONTINUOUS
 90
7
 70
0
 10
8.1354016629
 20
5.5196354828
 10
8.1364002908
 20
5.4643330413
 10
8.137410945
 20
5.4097527048
 10
8.1384207815
 20
5.357976332
 10
8.1394170281
 20
5.3108688877
 10
8.1404097241
 20
5.2690029222
 10
8.1414016629
 20
5.2332434668
  0
LWPOLYLINE
  5
694
100
AcDbEntity
  8
0
100
AcDbPolyline
 62
7
  6
CONTINUOUS
 90
10
 70
0
 10
8.174297582
 20
5.5807219155
 10
8.1765130968
 20
5.4581463521
 10
8.1776376463
 20
5.397841579
 10
8.1787578138
 20
5.34153781
 10
8.1798615823
 20
5.2914301575
 10
8.1809687307
 20
5.2480447102
 10
8.1820712017
 20
5.2129826672
 10
8.1831726585
 20
5.1871134705
 10
8.1842791801
 20
5.1711238986
 10
8.1852975929
 20
5.1656827821
  0
LWPOLYLINE
  5
695
100
AcDbEntity
  8
0
100
AcDbPolyline
 62
7
  6
CONTINUOUS
 90
10
 70
0
 10
8.1785085861
 20
5.4583933764
 10
8.1762905295
 20
5.5811081588
 10
8.1751663486
 20
5.6413944538
 10
8.1740466274
 20
5.6976795518
 10
8.1729430968
 20
5.7477832759
 10
8.1718349263
 20
5.7912144417
 10
8.1707306925
 20
5.8263280637
 10
8.1696306835
 20
5.8521571864
 10
8.1685245068
 20
5.8681435444
 10
8.1675057329
 20
5.8735881836
  0
LWPOLYLINE
  5
696
100
AcDbEntity
  8
0
100
AcDbPolyline
 62
7
  6
CONTINUOUS
 90
10
 70
0
 10
8.218469152
 20
5.4605542569
 10
8.2162897716
 20
5.5811496637
 10
8.2151648261
 20
5.6414739448
 10
8.2140443743
 20
5.6977878267
 10
8.2129405131
 20
5.7478931074
 10
8.2118349958
 20
5.7912119625
 10
8.2107335999
 20
5.8262472905
 10
8.2096302396
 20
5.8521656526
 10
8.2085232416
 20
5.8681558825
 10
8.2075057329
 20
5.8735881836
  0
LINE
  5
697
100
AcDbEntity
  8
0
100
AcDbLine
 62
7
  6
CONTINUOUS
 10
8.2275057329
 20
5.1656827821
 11
8.2440103369
 21
5.1806848741
  0
LINE
  5
698
100
AcDbEntity
  8
0
100
AcDbLine
 62
7
  6
CONTINUOUS
 10
8.2675057329
 20
5.1656827821
 11
8.2840103369
 21
5.1806848741
  0
LINE
  5
699
100
AcDbEntity
  8
0
100
AcDbLine
 62
7
  6
CONTINUOUS
 10
8.3075057329
 20
5.1656827821
 11
8.3240103369
 21
5.1806848741
  0
LINE
  5
69A
100
AcDbEntity
  8
0
100
AcDbLine
 62
7
  6
CONTINUOUS
 10
8.3475057329
 20
5.1656827821
 11
8.3640103369
 21
5.1806848741
  0
LINE
  5
69B
100
AcDbEntity
  8
0
100
AcDbLine
 62
7
  6
CONTINUOUS
 10
8.1475057329
 20
5.1656827821
 11
8.1474016629
 21
5.1656354828
  0
LINE
  5
69C
100
AcDbEntity
  8
0
100
AcDbLine
 62
7
  6
CONTINUOUS
 10
8.1875057329
 20
5.1656827821
 11
8.1874016629
 21
5.1656354828
  0
LINE
  5
69D
100
AcDbEntity
  8
0
100
AcDbLine
 62
7
  6
CONTINUOUS
 10
8.2275057329
 20
5.1656827821
 11
8.2274016803
 21
5.1656354828
  0
LINE
  5
69E
100
AcDbEntity
  8
0
100
AcDbLine
 62
7
  6
CONTINUOUS
 10
8.2675057329
 20
5.1656827821
 11
8.2674016629
 21
5.1656354828
  0
LINE
  5
69F
100
AcDbEntity
  8
0
100
AcDbLine
 62
7
  6
CONTINUOUS
 10
8.3075057329
 20
5.1656827821
 11
8.3074016604
 21
5.1656354828
  0
LINE
  5
6A0
100
AcDbEntity
  8
0
100
AcDbLine
 62
7
  6
CONTINUOUS
 10
8.3475057329
 20
5.1656827821
 11
8.3474016271
 21
5.1656354829
  0
LINE
  5
6A1
100
AcDbEntity
  8
0
100
AcDbLine
 62
7
  6
CONTINUOUS
 10
8.1074016468
 20
5.1656354828
 11
8.1066202028
 21
5.168299158
  0
LINE
  5
6A2
100
AcDbEntity
  8
0
100
AcDbLine
 62
7
  6
CONTINUOUS
 10
8.1679459107
 20
5.1844486358
 11
8.1687929889
 21
5.1806848741
  0
LINE
  5
6A3
100
AcDbEntity
  8
0
100
AcDbLine
 62
7
  6
CONTINUOUS
 10
7.9664411795
 20
5.8689266775
 11
7.9654016637
 21
5.8736354828
  0
LINE
  5
6A4
100
AcDbEntity
  8
0
100
AcDbLine
 62
7
  6
CONTINUOUS
 10
8.1474016629
 20
5.1656354828
 11
8.1462791801
 21
5.1711238986
  0
LWPOLYLINE
  5
6A5
100
AcDbEntity
  8
0
100
AcDbPolyline
 62
7
  6
CONTINUOUS
 90
8
 70
0
 10
7.9840103369
 20
5.8585860916
 10
7.9852266629
 20
5.8513194962
 10
7.9863391629
 20
5.8340891489
 10
7.9874516629
 20
5.8072804457
 10
7.9885641629
 20
5.7717099881
 10
7.9896766629
 20
5.728461263
 10
7.9907891629
 20
5.6788516402
 10
7.9919016629
 20
5.6243922439
  0
LWPOLYLINE
  5
6A6
100
AcDbEntity
  8
0
100
AcDbPolyline
 62
7
  6
CONTINUOUS
 90
8
 70
0
 10
8.0055357393
 20
5.8735569771
 10
8.0066585425
 20
5.8667586376
 10
8.007771789
 20
5.8493842521
 10
8.0089022661
 20
5.8214525738
 10
8.0100408578
 20
5.7837284622
 10
8.0111694665
 20
5.7380164287
 10
8.0122855177
 20
5.6860755244
 10
8.0134016629
 20
5.6290274989
  0
LWPOLYLINE
  5
6A7
100
AcDbEntity
  8
0
100
AcDbPolyline
 62
7
  6
CONTINUOUS
 90
19
 70
0
 10
8.0643972381
 20
5.8576088638
 10
8.0655299815
 20
5.8476069116
 10
8.0666627248
 20
5.8272489432
 10
8.0677954682
 20
5.7971777811
 10
8.0689282116
 20
5.7583429515
 10
8.0700609549
 20
5.7119707019
 10
8.0711936983
 20
5.6595252809
 10
8.0723264417
 20
5.6026627039
 10
8.073459185
 20
5.5431784617
 10
8.0745919284
 20
5.482950827
 10
8.0757246717
 20
5.4238815461
 10
8.0768574151
 20
5.3678357886
 10
8.0779901585
 20
5.3165832538
 10
8.0791229018
 20
5.2717422903
 10
8.0802556452
 20
5.234728795
 10
8.0813883886
 20
5.206711505
 10
8.0825211319
 20
5.1885750933
 10
8.0836538753
 20
5.1808922348
 10
8.0839016629
 20
5.1806354828
  0
LWPOLYLINE
  5
6A8
100
AcDbEntity
  8
0
100
AcDbPolyline
 62
7
  6
CONTINUOUS
 90
19
 70
0
 10
8.1844680346
 20
5.8572948
 10
8.1856007779
 20
5.8466328793
 10
8.1867335213
 20
5.8256456983
 10
8.1878662647
 20
5.7949959477
 10
8.188999008
 20
5.7556514231
 10
8.1901317514
 20
5.7088544661
 10
8.1912644948
 20
5.6560827359
 10
8.1923972381
 20
5.5990025513
 10
8.1935299815
 20
5.5394162745
 10
8.1946627248
 20
5.4792053999
 10
8.1957954682
 20
5.4202711445
 10
8.1969282116
 20
5.3644744145
 10
8.1980609549
 20
5.3135770459
 10
8.1991936983
 20
5.2691861725
 10
8.2003264417
 20
5.2327034792
 10
8.201459185
 20
5.2052809424
 10
8.2025919284
 20
5.1877844555
 10
8.2037246717
 20
5.1807664869
 10
8.2039016629
 20
5.1806354828
  0
LWPOLYLINE
  5
6A9
100
AcDbEntity
  8
0
100
AcDbPolyline
 62
7
  6
CONTINUOUS
 90
9
 70
0
 10
8.2065245068
 20
5.8681435444
 10
8.2076306835
 20
5.8521571864
 10
8.2087306925
 20
5.8263280637
 10
8.2098349263
 20
5.7912144417
 10
8.2109430968
 20
5.7477832759
 10
8.2120466274
 20
5.6976795518
 10
8.2131663486
 20
5.6413944538
 10
8.2142905295
 20
5.5811081588
 10
8.2165085861
 20
5.4583933764
  0
LWPOLYLINE
  5
6AA
100
AcDbEntity
  8
0
100
AcDbPolyline
 62
7
  6
CONTINUOUS
 90
9
 70
0
 10
8.2465232416
 20
5.8681558825
 10
8.2476302396
 20
5.8521656526
 10
8.2487335999
 20
5.8262472905
 10
8.2498349958
 20
5.7912119625
 10
8.2509405131
 20
5.7478931074
 10
8.2520443743
 20
5.6977878267
 10
8.2531648261
 20
5.6414739448
 10
8.2542897716
 20
5.5811496637
 10
8.256469152
 20
5.4605542569
  0
LWPOLYLINE
  5
6AB
100
AcDbEntity
  8
0
100
AcDbPolyline
 62
7
  6
CONTINUOUS
 90
8
 70
0
 10
8.2662770349
 20
5.1711448416
 10
8.2651706149
 20
5.187152467
 10
8.2640628546
 20
5.2132148245
 10
8.2629425121
 20
5.2489821203
 10
8.2618264207
 20
5.292928343
 10
8.2607225951
 20
5.3432330106
 10
8.2596101055
 20
5.3992806591
 10
8.258501453
 20
5.4587840779
  0
LWPOLYLINE
  5
6AC
100
AcDbEntity
  8
0
100
AcDbPolyline
 62
7
  6
CONTINUOUS
 90
8
 70
0
 10
8.3062771734
 20
5.1711434889
 10
8.305173207
 20
5.1871030094
 10
8.3040586389
 20
5.213332275
 10
8.302933793
 20
5.2492948782
 10
8.3018157934
 20
5.2933825199
 10
8.3007126542
 20
5.3437124836
 10
8.2996043926
 20
5.3995794553
 10
8.2985023076
 20
5.4587372669
  0
LWPOLYLINE
  5
6AD
100
AcDbEntity
  8
0
100
AcDbPolyline
 62
7
  6
CONTINUOUS
 90
9
 70
0
 10
8.296501453
 20
5.4587840779
 10
8.2976101055
 20
5.3992806591
 10
8.2987225951
 20
5.3432330106
 10
8.2998264207
 20
5.292928343
 10
8.3009425121
 20
5.2489821203
 10
8.3020628546
 20
5.2132148245
 10
8.3031706149
 20
5.187152467
 10
8.3042770349
 20
5.1711448416
 10
8.3052975929
 20
5.1656827821
  0
LWPOLYLINE
  5
6AE
100
AcDbEntity
  8
0
100
AcDbPolyline
 62
7
  6
CONTINUOUS
 90
10
 70
0
 10
8.256469152
 20
5.4605542569
 10
8.2575486846
 20
5.4024981379
 10
8.258630424
 20
5.3476949553
 10
8.2597013425
 20
5.2983134878
 10
8.2607804239
 20
5.2548786617
 10
8.2618636283
 20
5.218911307
 10
8.2629356261
 20
5.1918640638
 10
8.2640052924
 20
5.1741169787
 10
8.2650918306
 20
5.1660546435
 10
8.2652975929
 20
5.1656827821
  0
LWPOLYLINE
  5
6AF
100
AcDbEntity
  8
0
100
AcDbPolyline
 62
7
  6
CONTINUOUS
 90
10
 70
0
 10
8.258501453
 20
5.4587840779
 10
8.2562897301
 20
5.581151932
 10
8.2551647426
 20
5.6414783035
 10
8.2540442541
 20
5.6977936038
 10
8.2529406008
 20
5.7478893818
 10
8.2518370823
 20
5.7911375243
 10
8.2507350396
 20
5.8262072713
 10
8.2496300578
 20
5.85216912
 10
8.24852298
 20
5.8681584313
 10
8.2475057329
 20
5.8735881836
  0
LWPOLYLINE
  5
6B0
100
AcDbEntity
  8
0
100
AcDbPolyline
 62
7
  6
CONTINUOUS
 90
10
 70
0
 10
8.2985023076
 20
5.4587372669
 10
8.2962904161
 20
5.5811143662
 10
8.2951661197
 20
5.6414064056
 10
8.2940463033
 20
5.6976951253
 10
8.2929436955
 20
5.747757819
 10
8.2918436812
 20
5.7909019133
 10
8.2907371779
 20
5.8261478017
 10
8.2896303418
 20
5.8521637039
 10
8.2885238949
 20
5.868149513
 10
8.2875057329
 20
5.8735881836
  0
LINE
  5
6B1
100
AcDbEntity
  8
0
100
AcDbLine
 62
7
  6
CONTINUOUS
 10
8.3875057329
 20
5.1656827821
 11
8.4040103369
 21
5.1806848741
  0
LINE
  5
6B2
100
AcDbEntity
  8
0
100
AcDbLine
 62
7
  6
CONTINUOUS
 10
8.4275057329
 20
5.1656827821
 11
8.4440103369
 21
5.1806848741
  0
LINE
  5
6B3
100
AcDbEntity
  8
0
100
AcDbLine
 62
7
  6
CONTINUOUS
 10
8.4675057329
 20
5.1656827821
 11
8.4840103369
 21
5.1806848741
  0
LINE
  5
6B4
100
AcDbEntity
  8
0
100
AcDbLine
 62
7
  6
CONTINUOUS
 10
8.4674016629
 20
5.1656354828
 11
8.4675057329
 21
5.1656827821
  0
LINE
  5
6B5
100
AcDbEntity
  8
0
100
AcDbLine
 62
7
  6
CONTINUOUS
 10
8.3875057329
 20
5.1656827821
 11
8.3874015925
 21
5.1656354829
  0
LINE
  5
6B6
100
AcDbEntity
  8
0
100
AcDbLine
 62
7
  6
CONTINUOUS
 10
8.4275057329
 20
5.1656827821
 11
8.4274015821
 21
5.1656354829
  0
LINE
  5
6B7
100
AcDbEntity
  8
0
100
AcDbLine
 62
7
  6
CONTINUOUS
 10
9.1307572563
 20
4.7321354828
 11
9.1150374635
 21
4.7321354828
  0
LINE
  5
6B8
100
AcDbEntity
  8
0
100
AcDbLine
 62
7
  6
CONTINUOUS
 10
7.9687929889
 20
5.1806848741
 11
7.9852975929
 21
5.1656827821
  0
LINE
  5
6B9
100
AcDbEntity
  8
0
100
AcDbLine
 62
7
  6
CONTINUOUS
 10
8.5424016629
 20
4.3476354828
 11
8.5712691764
 21
4.2976354828
  0
LINE
  5
6BA
100
AcDbEntity
  8
0
100
AcDbLine
 62
7
  6
CONTINUOUS
 10
7.9489016629
 20
5.8586354828
 11
7.9496516629
 21
5.8562856898
  0
LWPOLYLINE
  5
6BB
100
AcDbEntity
  8
0
100
AcDbPolyline
 62
7
  6
CONTINUOUS
 90
18
 70
0
 10
8.0289016629
 20
5.8586354828
 10
8.0297512204
 20
5.855621433
 10
8.0308839638
 20
5.8423336371
 10
8.0320167071
 20
5.8188563338
 10
8.0331494505
 20
5.7859308416
 10
8.0342821939
 20
5.744596815
 10
8.0354149372
 20
5.6961594159
 10
8.0365476806
 20
5.6421481022
 10
8.037680424
 20
5.5842683336
 10
8.0388131673
 20
5.5243477201
 10
8.0399459107
 20
5.464278313
 10
8.041078654
 20
5.4059568624
 10
8.0422113974
 20
5.3512249245
 10
8.0433441408
 20
5.3018107135
 10
8.0444768841
 20
5.2592745311
 10
8.0456096275
 20
5.2249594985
 10
8.0467423709
 20
5.1999491462
 10
8.0478751142
 20
5.1850332002
  0
LWPOLYLINE
  5
6BC
100
AcDbEntity
  8
0
100
AcDbPolyline
 62
7
  6
CONTINUOUS
 90
19
 70
0
 10
8.0240103369
 20
5.8585860916
 10
8.0247512204
 20
5.855621433
 10
8.0258839638
 20
5.8423336371
 10
8.0270167071
 20
5.8188563338
 10
8.0281494505
 20
5.7859308416
 10
8.0292821939
 20
5.744596815
 10
8.0304149372
 20
5.6961594159
 10
8.0315476806
 20
5.6421481022
 10
8.032680424
 20
5.5842683336
 10
8.0338131673
 20
5.5243477201
 10
8.0349459107
 20
5.464278313
 10
8.036078654
 20
5.4059568624
 10
8.0372113974
 20
5.3512249245
 10
8.0383441408
 20
5.3018107135
 10
8.0394768841
 20
5.2592745311
 10
8.0406096275
 20
5.2249594985
 10
8.0417423709
 20
5.1999491462
 10
8.0428751142
 20
5.1850332002
 10
8.0439016629
 20
5.1806354828
  0
LINE
  5
6BD
100
AcDbEntity
  8
0
100
AcDbLine
 62
7
  6
CONTINUOUS
 10
8.0854016629
 20
5.8736354828
 11
8.0865249684
 21
5.8681390396
  0
LINE
  5
6BE
100
AcDbEntity
  8
0
100
AcDbLine
 62
7
  6
CONTINUOUS
 10
8.1874016629
 20
5.1656354828
 11
8.1862779368
 21
5.1711360321
  0
LINE
  5
6BF
100
AcDbEntity
  8
0
100
AcDbLine
 62
7
  6
CONTINUOUS
 10
8.2674016629
 20
5.1656354828
 11
8.2662770349
 21
5.1711448416
  0
LINE
  5
6C0
100
AcDbEntity
  8
0
100
AcDbLine
 62
7
  6
CONTINUOUS
 10
8.1254016629
 20
5.8736354828
 11
8.126526925
 21
5.8681199255
  0
LINE
  5
6C1
100
AcDbEntity
  8
0
100
AcDbLine
 62
7
  6
CONTINUOUS
 10
8.0454016744
 20
5.8736354828
 11
8.0465283033
 21
5.8681064406
  0
LWPOLYLINE
  5
6C2
100
AcDbEntity
  8
0
100
AcDbPolyline
 62
7
  6
CONTINUOUS
 90
15
 70
0
 10
8.1040103369
 20
5.8585860916
 10
8.1051759992
 20
5.8518664453
 10
8.1063087425
 20
5.834690737
 10
8.1074414859
 20
5.8075668533
 10
8.1085742293
 20
5.771351257
 10
8.1097069726
 20
5.7271874907
 10
8.110839716
 20
5.6764700684
 10
8.1119724594
 20
5.6208004417
 10
8.1131052027
 20
5.5619364333
 10
8.1142379461
 20
5.5017367312
 10
8.1153706894
 20
5.4421021997
 10
8.1165034328
 20
5.3849158568
 10
8.1176361762
 20
5.3319834169
 10
8.1187689195
 20
5.2849762731
 10
8.1199016629
 20
5.2453787218
  0
LINE
  5
6C3
100
AcDbEntity
  8
0
100
AcDbLine
 62
7
  6
CONTINUOUS
 10
8.2075919284
 20
5.1877844555
 11
8.2087929889
 21
5.1806848741
  0
LWPOLYLINE
  5
6C4
100
AcDbEntity
  8
0
100
AcDbPolyline
 62
7
  6
CONTINUOUS
 90
9
 70
0
 10
8.2270918306
 20
5.1660546435
 10
8.2260052924
 20
5.1741169787
 10
8.2249356261
 20
5.1918640638
 10
8.2238636283
 20
5.218911307
 10
8.2227804239
 20
5.2548786617
 10
8.2217013425
 20
5.2983134878
 10
8.220630424
 20
5.3476949553
 10
8.2195486846
 20
5.4024981379
 10
8.218469152
 20
5.4605542569
  0
LWPOLYLINE
  5
6C5
100
AcDbEntity
  8
0
100
AcDbPolyline
 62
7
  6
CONTINUOUS
 90
18
 70
0
 10
8.304538831
 20
5.8569389784
 10
8.3056715744
 20
5.8456184077
 10
8.3068043178
 20
5.8240046096
 10
8.3079370611
 20
5.7927800609
 10
8.3090698045
 20
5.752930707
 10
8.3102025479
 20
5.7057148299
 10
8.3113352912
 20
5.6526233167
 10
8.3124680346
 20
5.5953325836
 10
8.3136007779
 20
5.5356516411
 10
8.3147335213
 20
5.4754649728
 10
8.3158662647
 20
5.4166730312
 10
8.316999008
 20
5.361132229
 10
8.3181317514
 20
5.3105963209
 10
8.3192644948
 20
5.2666610273
 10
8.3203972381
 20
5.2307136478
 10
8.3215299815
 20
5.2038892556
 10
8.3226627248
 20
5.1870348571
 10
8.3239016629
 20
5.1806354828
  0
LWPOLYLINE
  5
6C6
100
AcDbEntity
  8
0
100
AcDbPolyline
 62
7
  6
CONTINUOUS
 90
9
 70
0
 10
8.3665099782
 20
5.8682843901
 10
8.3676162052
 20
5.8524324887
 10
8.3687260054
 20
5.826458143
 10
8.3698393694
 20
5.7910558995
 10
8.3709417003
 20
5.747842642
 10
8.3720445804
 20
5.6977779214
 10
8.3731649507
 20
5.6414674395
 10
8.3742898342
 20
5.5811462327
 10
8.3765045257
 20
5.4586157673
  0
LWPOLYLINE
  5
6C7
100
AcDbEntity
  8
0
100
AcDbPolyline
 62
7
  6
CONTINUOUS
 90
9
 70
0
 10
8.28652298
 20
5.8681584313
 10
8.2876300578
 20
5.85216912
 10
8.2887350396
 20
5.8262072713
 10
8.2898370823
 20
5.7911375243
 10
8.2909406008
 20
5.7478893818
 10
8.2920442541
 20
5.6977936038
 10
8.2931647426
 20
5.6414783035
 10
8.2942897301
 20
5.581151932
 10
8.296501453
 20
5.4587840779
  0
LWPOLYLINE
  5
6C8
100
AcDbEntity
  8
0
100
AcDbPolyline
 62
7
  6
CONTINUOUS
 90
9
 70
0
 10
8.3265238949
 20
5.868149513
 10
8.3276303418
 20
5.8521637039
 10
8.3287371779
 20
5.8261478017
 10
8.3298436812
 20
5.7909019133
 10
8.3309436955
 20
5.747757819
 10
8.3320463033
 20
5.6976951253
 10
8.3331661197
 20
5.6414064056
 10
8.3342904161
 20
5.5811143662
 10
8.3365023076
 20
5.4587372669
  0
LWPOLYLINE
  5
6C9
100
AcDbEntity
  8
0
100
AcDbPolyline
 62
7
  6
CONTINUOUS
 90
8
 70
0
 10
8.3462730575
 20
5.1711837779
 10
8.3451732466
 20
5.1871022546
 10
8.3440581441
 20
5.2133460699
 10
8.3429327288
 20
5.2493330878
 10
8.3418141721
 20
5.2934518678
 10
8.3407111169
 20
5.3437866652
 10
8.3396063832
 20
5.3994753313
 10
8.3385045257
 20
5.4586157673
  0
LWPOLYLINE
  5
6CA
100
AcDbEntity
  8
0
100
AcDbPolyline
 62
7
  6
CONTINUOUS
 90
8
 70
0
 10
8.3862725073
 20
5.1711891742
 10
8.3851728802
 20
5.1871092411
 10
8.3840579075
 20
5.2133526661
 10
8.382932628
 20
5.2493367061
 10
8.3818141996
 20
5.2934506895
 10
8.3807116694
 20
5.3437600049
 10
8.3796096323
 20
5.3993054031
 10
8.3785056049
 20
5.4585566586
  0
LWPOLYLINE
  5
6CB
100
AcDbEntity
  8
0
100
AcDbPolyline
 62
7
  6
CONTINUOUS
 90
9
 70
0
 10
8.3765045257
 20
5.4586157673
 10
8.3776063832
 20
5.3994753313
 10
8.3787111169
 20
5.3437866652
 10
8.3798141721
 20
5.2934518678
 10
8.3809327288
 20
5.2493330878
 10
8.3820581441
 20
5.2133460699
 10
8.3831732466
 20
5.1871022546
 10
8.3842730575
 20
5.1711837779
 10
8.3852975929
 20
5.1656827821
  0
LWPOLYLINE
  5
6CC
100
AcDbEntity
  8
0
100
AcDbPolyline
 62
7
  6
CONTINUOUS
 90
9
 70
0
 10
8.4165056049
 20
5.4585566586
 10
8.4176096323
 20
5.3993054031
 10
8.4187116694
 20
5.3437600049
 10
8.4198141996
 20
5.2934506895
 10
8.420932628
 20
5.2493367061
 10
8.4220579075
 20
5.2133526661
 10
8.4231728802
 20
5.1871092411
 10
8.4242725073
 20
5.1711891742
 10
8.4252975929
 20
5.1656827821
  0
LWPOLYLINE
  5
6CD
100
AcDbEntity
  8
0
100
AcDbPolyline
 62
7
  6
CONTINUOUS
 90
9
 70
0
 10
8.3365023076
 20
5.4587372669
 10
8.3376043926
 20
5.3995794553
 10
8.3387126542
 20
5.3437124836
 10
8.3398157934
 20
5.2933825199
 10
8.340933793
 20
5.2492948782
 10
8.3420586389
 20
5.213332275
 10
8.343173207
 20
5.1871030094
 10
8.3442771734
 20
5.1711434889
 10
8.3452975929
 20
5.1656827821
  0
LWPOLYLINE
  5
6CE
100
AcDbEntity
  8
0
100
AcDbPolyline
 62
7
  6
CONTINUOUS
 90
10
 70
0
 10
8.3385045257
 20
5.4586157673
 10
8.3362898342
 20
5.5811462327
 10
8.3351649507
 20
5.6414674395
 10
8.3340445804
 20
5.6977779214
 10
8.3329417003
 20
5.747842642
 10
8.3318393694
 20
5.7910558995
 10
8.3307260054
 20
5.826458143
 10
8.3296162052
 20
5.8524324887
 10
8.3285099782
 20
5.8682843901
 10
8.3275057329
 20
5.8735881836
  0
LWPOLYLINE
  5
6CF
100
AcDbEntity
  8
0
100
AcDbPolyline
 62
7
  6
CONTINUOUS
 90
10
 70
0
 10
8.3785056049
 20
5.4585566586
 10
8.376276597
 20
5.5818709727
 10
8.3751383712
 20
5.642854069
 10
8.3740051729
 20
5.6996681209
 10
8.37288991
 20
5.7500366501
 10
8.3717696892
 20
5.7935270255
 10
8.3706392004
 20
5.8288370875
 10
8.369516044
 20
5.8542898158
 10
8.3683962696
 20
5.8693239447
 10
8.3675057329
 20
5.8735881836
  0
LWPOLYLINE
  5
6D0
100
AcDbEntity
  8
0
100
AcDbPolyline
 62
7
  6
CONTINUOUS
 90
10
 70
0
 10
8.4185072189
 20
5.4584682593
 10
8.4162901885
 20
5.5811268331
 10
8.4151656633
 20
5.6414302375
 10
8.4140456297
 20
5.6977274994
 10
8.4129419998
 20
5.7478299131
 10
8.4118263123
 20
5.7915214377
 10
8.4107033607
 20
5.8270842532
 10
8.4095902424
 20
5.8529218541
 10
8.4084861359
 20
5.8685115903
 10
8.4075057329
 20
5.8735881836
  0
LWPOLYLINE
  5
6D1
100
AcDbEntity
  8
0
100
AcDbPolyline
 62
9
  6
CONTINUOUS
 90
6
 70
0
 10
8.8324016629
 20
4.7500698586
 10
8.7921535842
 20
4.7485472163
 10
8.750858738
 20
4.7438388987
 10
8.7101790149
 20
4.7361406104
 10
8.6717845531
 20
4.7261681931
 10
8.6371199728
 20
4.7149888213
  0
LWPOLYLINE
  5
6D2
100
AcDbEntity
  8
0
100
AcDbPolyline
 62
9
  6
CONTINUOUS
 90
6
 70
0
 10
8.8324016629
 20
4.8045523807
 10
8.7839675343
 20
4.8031375361
 10
8.7342737363
 20
4.7987625507
 10
8.6853201713
 20
4.7916092739
 10
8.6391166663
 20
4.7823428685
 10
8.5974016629
 20
4.7719549566
  0
LWPOLYLINE
  5
6D3
100
AcDbEntity
  8
0
100
AcDbPolyline
 62
9
  6
CONTINUOUS
 90
6
 70
0
 10
8.5974016629
 20
4.7719549566
 10
8.6081698531
 20
4.7663073236
 10
8.6181769326
 20
4.7570324272
 10
8.626715587
 20
4.74478583
 10
8.6331822923
 20
4.7304331386
 10
8.6371199728
 20
4.7149888213
  0
LINE
  5
6D4
100
AcDbEntity
  8
0
100
AcDbLine
 62
7
  6
CONTINUOUS
 10
8.0087929889
 20
5.1806848741
 11
8.0252975929
 21
5.1656827821
  0
LINE
  5
6D5
100
AcDbEntity
  8
0
100
AcDbLine
 62
7
  6
CONTINUOUS
 10
8.0487929889
 20
5.1806848741
 11
8.0652975929
 21
5.1656827821
  0
LINE
  5
6D6
100
AcDbEntity
  8
0
100
AcDbLine
 62
7
  6
CONTINUOUS
 10
8.0887929889
 20
5.1806848741
 11
8.1052975929
 21
5.1656827821
  0
LINE
  5
6D7
100
AcDbEntity
  8
0
100
AcDbLine
 62
7
  6
CONTINUOUS
 10
8.2274016803
 20
5.1656354828
 11
8.2270918306
 21
5.1660546435
  0
LINE
  5
6D8
100
AcDbEntity
  8
0
100
AcDbLine
 62
7
  6
CONTINUOUS
 10
8.0640103369
 20
5.8585860916
 11
8.0643972381
 21
5.8576088638
  0
LINE
  5
6D9
100
AcDbEntity
  8
0
100
AcDbLine
 62
7
  6
CONTINUOUS
 10
8.2483706894
 20
5.1818139115
 11
8.2487929889
 21
5.1806848741
  0
LWPOLYLINE
  5
6DA
100
AcDbEntity
  8
0
100
AcDbPolyline
 62
7
  6
CONTINUOUS
 90
18
 70
0
 10
8.1489016629
 20
5.8586354828
 10
8.1498220169
 20
5.855099072
 10
8.1509547602
 20
5.8411587131
 10
8.1520875036
 20
5.817065946
 10
8.153220247
 20
5.7835815234
 10
8.1543529903
 20
5.7417627482
 10
8.1554857337
 20
5.6929300891
 10
8.1566184771
 20
5.6386254845
 10
8.1577512204
 20
5.580563655
 10
8.1588839638
 20
5.5205779594
 10
8.1600167071
 20
5.4605625042
 10
8.1611494505
 20
5.4024123356
 10
8.1622821939
 20
5.3479636017
 10
8.1634149372
 20
5.2989355742
 10
8.1645476806
 20
5.2568763604
 10
8.165680424
 20
5.2231140211
 10
8.1668131673
 20
5.1987146348
 10
8.1679459107
 20
5.1844486358
  0
LINE
  5
6DB
100
AcDbEntity
  8
0
100
AcDbLine
 62
7
  6
CONTINUOUS
 10
8.2880167071
 20
5.1839055233
 11
8.2887929889
 21
5.1806848741
  0
LWPOLYLINE
  5
6DC
100
AcDbEntity
  8
0
100
AcDbPolyline
 62
7
  6
CONTINUOUS
 90
19
 70
0
 10
8.1440103369
 20
5.8585860916
 10
8.1448220169
 20
5.855099072
 10
8.1459547602
 20
5.8411587131
 10
8.1470875036
 20
5.817065946
 10
8.148220247
 20
5.7835815234
 10
8.1493529903
 20
5.7417627482
 10
8.1504857337
 20
5.6929300891
 10
8.1516184771
 20
5.6386254845
 10
8.1527512204
 20
5.580563655
 10
8.1538839638
 20
5.5205779594
 10
8.1550167071
 20
5.4605625042
 10
8.1561494505
 20
5.4024123356
 10
8.1572821939
 20
5.3479636017
 10
8.1584149372
 20
5.2989355742
 10
8.1595476806
 20
5.2568763604
 10
8.160680424
 20
5.2231140211
 10
8.1618131673
 20
5.1987146348
 10
8.1629459107
 20
5.1844486358
 10
8.1639016629
 20
5.1806354828
  0
LINE
  5
6DD
100
AcDbEntity
  8
0
100
AcDbLine
 62
7
  6
CONTINUOUS
 10
8.2454016629
 20
5.8736354828
 11
8.2465232416
 21
5.8681558825
  0
LINE
  5
6DE
100
AcDbEntity
  8
0
100
AcDbLine
 62
7
  6
CONTINUOUS
 10
8.2054016629
 20
5.8736354828
 11
8.2065245068
 21
5.8681435444
  0
LINE
  5
6DF
100
AcDbEntity
  8
0
100
AcDbLine
 62
7
  6
CONTINUOUS
 10
8.3074016604
 20
5.1656354828
 11
8.3062771734
 21
5.1711434889
  0
LINE
  5
6E0
100
AcDbEntity
  8
0
100
AcDbLine
 62
7
  6
CONTINUOUS
 10
8.1654016629
 20
5.8736354828
 11
8.1665263973
 21
5.8681250839
  0
LINE
  5
6E1
100
AcDbEntity
  8
0
100
AcDbLine
 62
7
  6
CONTINUOUS
 10
8.3474016271
 20
5.1656354829
 11
8.3462730575
 21
5.1711837779
  0
LINE
  5
6E2
100
AcDbEntity
  8
0
100
AcDbLine
 62
7
  6
CONTINUOUS
 10
8.3874015925
 20
5.1656354829
 11
8.3862725073
 21
5.1711891742
  0
LINE
  5
6E3
100
AcDbEntity
  8
0
100
AcDbLine
 62
7
  6
CONTINUOUS
 10
8.3276627248
 20
5.1870348571
 11
8.3287929889
 21
5.1806848741
  0
LWPOLYLINE
  5
6E4
100
AcDbEntity
  8
0
100
AcDbPolyline
 62
7
  6
CONTINUOUS
 90
19
 70
0
 10
8.2240103369
 20
5.8585860916
 10
8.2252467956
 20
5.8510963152
 10
8.226379539
 20
5.8332795905
 10
8.2275122824
 20
5.8055592486
 10
8.2286450257
 20
5.7688105862
 10
8.2297777691
 20
5.724193978
 10
8.2309105125
 20
5.6731182368
 10
8.2320432558
 20
5.6171961286
 10
8.2331759992
 20
5.5581934482
 10
8.2343087425
 20
5.4979732628
 10
8.2354414859
 20
5.4384370829
 10
8.2365742293
 20
5.3814648213
 10
8.2377069726
 20
5.3288554325
 10
8.238839716
 20
5.282270109
 10
8.2399724594
 20
5.2431798277
 10
8.2411052027
 20
5.212818902
 10
8.2422379461
 20
5.1921460077
 10
8.2433706894
 20
5.1818139115
 10
8.2439016629
 20
5.1806354828
  0
LWPOLYLINE
  5
6E5
100
AcDbEntity
  8
0
100
AcDbPolyline
 62
9
  6
CONTINUOUS
 90
8
 70
0
 10
8.5374016629
 20
4.7921354828
 10
8.5404511939
 20
4.7644000116
 10
8.5489519088
 20
4.7422744649
 10
8.5617121465
 20
4.7260659739
 10
8.5775867389
 20
4.7155227201
 10
8.5957267629
 20
4.7102439147
 10
8.6156437359
 20
4.7100024308
 10
8.6371199728
 20
4.7149888213
  0
LWPOLYLINE
  5
6E6
100
AcDbEntity
  8
0
100
AcDbPolyline
 62
7
  6
CONTINUOUS
 90
9
 70
0
 10
8.4063962696
 20
5.8693239447
 10
8.407516044
 20
5.8542898158
 10
8.4086392004
 20
5.8288370875
 10
8.4097696892
 20
5.7935270255
 10
8.41088991
 20
5.7500366501
 10
8.4120051729
 20
5.6996681209
 10
8.4131383712
 20
5.642854069
 10
8.414276597
 20
5.5818709727
 10
8.4165056049
 20
5.4585566586
  0
LWPOLYLINE
  5
6E7
100
AcDbEntity
  8
0
100
AcDbPolyline
 62
7
  6
CONTINUOUS
 90
9
 70
0
 10
8.4464861359
 20
5.8685115903
 10
8.4475902424
 20
5.8529218541
 10
8.4487033607
 20
5.8270842532
 10
8.4498263123
 20
5.7915214377
 10
8.4509419998
 20
5.7478299131
 10
8.4520456297
 20
5.6977274994
 10
8.4531656633
 20
5.6414302375
 10
8.4542901885
 20
5.5811268331
 10
8.4565051993
 20
5.4585788715
  0
LWPOLYLINE
  5
6E8
100
AcDbEntity
  8
0
100
AcDbPolyline
 62
7
  6
CONTINUOUS
 90
8
 70
0
 10
8.4262755571
 20
5.1711592928
 10
8.4251752697
 20
5.1870636913
 10
8.4240607948
 20
5.2132721934
 10
8.4229359863
 20
5.2492161566
 10
8.4218179588
 20
5.2932899275
 10
8.4207165482
 20
5.3435246167
 10
8.419616125
 20
5.3989659273
 10
8.4185072189
 20
5.4584682593
  0
LWPOLYLINE
  5
6E9
100
AcDbEntity
  8
0
100
AcDbPolyline
 62
7
  6
CONTINUOUS
 90
9
 70
0
 10
8.475012774
 20
5.4607687506
 10
8.4761390366
 20
5.4029328223
 10
8.4772652993
 20
5.3487399584
 10
8.4783915619
 20
5.2998818776
 10
8.4795178245
 20
5.2578837649
 10
8.4806440871
 20
5.2240566601
 10
8.4817703498
 20
5.1994565314
 10
8.4828966124
 20
5.1848513121
 10
8.4839016629
 20
5.1806354828
  0
LWPOLYLINE
  5
6EA
100
AcDbEntity
  8
0
100
AcDbPolyline
 62
7
  6
CONTINUOUS
 90
9
 70
0
 10
8.4562912946
 20
5.581066262
 10
8.455170444
 20
5.6411805949
 10
8.4540563527
 20
5.6972119294
 10
8.4529544444
 20
5.7473004408
 10
8.4518354318
 20
5.7911964082
 10
8.4507102127
 20
5.8268952089
 10
8.449595853
 20
5.8528165715
 10
8.4484926541
 20
5.8684499619
 10
8.4475057329
 20
5.8735881836
  0
LWPOLYLINE
  5
6EB
100
AcDbEntity
  8
0
100
AcDbPolyline
 62
7
  6
CONTINUOUS
 90
9
 70
0
 10
8.4562912946
 20
5.581066262
 10
8.4585127634
 20
5.4581646072
 10
8.4596238898
 20
5.3985601052
 10
8.4607349796
 20
5.3426362851
 10
8.4618460547
 20
5.2920909101
 10
8.4629571952
 20
5.2484565802
 10
8.4640683613
 20
5.2130616083
 10
8.4651794865
 20
5.1869834231
 10
8.4662905641
 20
5.1710134191
  0
LINE
  5
6EC
100
AcDbEntity
  8
0
100
AcDbLine
 62
7
  6
CONTINUOUS
 10
8.4874016629
 20
5.8736354828
 11
8.4874016629
 21
5.1901236261
  0
LINE
  5
6ED
100
AcDbEntity
  8
0
100
AcDbLine
 62
9
  6
CONTINUOUS
 10
8.4874016629
 20
5.1901236261
 11
8.4874016629
 21
5.1808854828
  0
LINE
  5
6EE
100
AcDbEntity
  8
0
100
AcDbLine
 62
9
  6
CONTINUOUS
 10
8.5249016629
 20
5.1808854828
 11
8.5249016629
 21
5.8583854828
  0
LINE
  5
6EF
100
AcDbEntity
  8
0
100
AcDbLine
 62
7
  6
CONTINUOUS
 10
8.5374016629
 20
4.3976354828
 11
8.5374016629
 21
6.2471354828
  0
LWPOLYLINE
  5
6F0
100
AcDbEntity
  8
0
100
AcDbPolyline
 62
7
  6
CONTINUOUS
 90
7
 70
0
 10
8.9774016629
 20
4.770459936
 10
9.0208094387
 20
4.7608624667
 10
9.0584158425
 20
4.7506612249
 10
9.0885086191
 20
4.741284808
 10
9.1101556876
 20
4.7338961506
 10
9.1231034012
 20
4.7292264111
 10
9.1274016629
 20
4.7276354828
  0
LINE
  5
6F1
100
AcDbEntity
  8
0
100
AcDbLine
 62
7
  6
CONTINUOUS
 10
7.9852975929
 20
5.1656827821
 11
7.9854017275
 21
5.1656354829
  0
LINE
  5
6F2
100
AcDbEntity
  8
0
100
AcDbLine
 62
7
  6
CONTINUOUS
 10
8.0252975929
 20
5.1656827821
 11
8.0254016939
 21
5.1656354829
  0
LINE
  5
6F3
100
AcDbEntity
  8
0
100
AcDbLine
 62
7
  6
CONTINUOUS
 10
8.1287929889
 20
5.1806848741
 11
8.1452975929
 21
5.1656827821
  0
LINE
  5
6F4
100
AcDbEntity
  8
0
100
AcDbLine
 62
7
  6
CONTINUOUS
 10
8.1687929889
 20
5.1806848741
 11
8.1852975929
 21
5.1656827821
  0
LINE
  5
6F5
100
AcDbEntity
  8
0
100
AcDbLine
 62
7
  6
CONTINUOUS
 10
8.2087929889
 20
5.1806848741
 11
8.2252975929
 21
5.1656827821
  0
LINE
  5
6F6
100
AcDbEntity
  8
0
100
AcDbLine
 62
7
  6
CONTINUOUS
 10
8.2487929889
 20
5.1806848741
 11
8.2652975929
 21
5.1656827821
  0
LWPOLYLINE
  5
6F7
100
AcDbEntity
  8
0
100
AcDbPolyline
 62
7
  6
CONTINUOUS
 90
18
 70
0
 10
8.0689016629
 20
5.8586354828
 10
8.0693972381
 20
5.8576088638
 10
8.0705299815
 20
5.8476069116
 10
8.0716627248
 20
5.8272489432
 10
8.0727954682
 20
5.7971777811
 10
8.0739282116
 20
5.7583429515
 10
8.0750609549
 20
5.7119707019
 10
8.0761936983
 20
5.6595252809
 10
8.0773264417
 20
5.6026627039
 10
8.078459185
 20
5.5431784617
 10
8.0795919284
 20
5.482950827
 10
8.0807246717
 20
5.4238815461
 10
8.0818574151
 20
5.3678357886
 10
8.0829901585
 20
5.3165832538
 10
8.0841229018
 20
5.2717422903
 10
8.0852556452
 20
5.234728795
 10
8.0863883886
 20
5.206711505
 10
8.0875211319
 20
5.1885750933
  0
LINE
  5
6F8
100
AcDbEntity
  8
0
100
AcDbLine
 62
7
  6
CONTINUOUS
 10
8.3684414859
 20
5.1815207414
 11
8.3687929889
 21
5.1806848741
  0
LINE
  5
6F9
100
AcDbEntity
  8
0
100
AcDbLine
 62
7
  6
CONTINUOUS
 10
8.1840103369
 20
5.8585860916
 11
8.1844680346
 21
5.8572948
  0
LINE
  5
6FA
100
AcDbEntity
  8
0
100
AcDbLine
 62
7
  6
CONTINUOUS
 10
8.4481648208
 20
5.1829036416
 11
8.4487929889
 21
5.1806848741
  0
LWPOLYLINE
  5
6FB
100
AcDbEntity
  8
0
100
AcDbPolyline
 62
7
  6
CONTINUOUS
 90
18
 70
0
 10
8.2689016629
 20
5.8586354828
 10
8.2698928133
 20
5.8545352248
 10
8.2710255567
 20
5.8399440268
 10
8.2721583001
 20
5.8152387755
 10
8.2732910434
 20
5.7811995633
 10
8.2744237868
 20
5.7389012114
 10
8.2755565302
 20
5.6896793312
 10
8.2766892735
 20
5.6350881514
 10
8.2778220169
 20
5.5768514416
 10
8.2789547602
 20
5.5168080822
 10
8.2800875036
 20
5.4568540008
 10
8.281220247
 20
5.3988823057
 10
8.2823529903
 20
5.3447235093
 10
8.2834857337
 20
5.2960877283
 10
8.2846184771
 20
5.2545106847
 10
8.2857512204
 20
5.221305214
 10
8.2868839638
 20
5.1975198111
 10
8.2880167071
 20
5.1839055233
  0
LWPOLYLINE
  5
6FC
100
AcDbEntity
  8
0
100
AcDbPolyline
 62
7
  6
CONTINUOUS
 90
19
 70
0
 10
8.2640103369
 20
5.8585860916
 10
8.2648928133
 20
5.8545352248
 10
8.2660255567
 20
5.8399440268
 10
8.2671583001
 20
5.8152387755
 10
8.2682910434
 20
5.7811995633
 10
8.2694237868
 20
5.7389012114
 10
8.2705565302
 20
5.6896793312
 10
8.2716892735
 20
5.6350881514
 10
8.2728220169
 20
5.5768514416
 10
8.2739547602
 20
5.5168080822
 10
8.2750875036
 20
5.4568540008
 10
8.276220247
 20
5.3988823057
 10
8.2773529903
 20
5.3447235093
 10
8.2784857337
 20
5.2960877283
 10
8.2796184771
 20
5.2545106847
 10
8.2807512204
 20
5.221305214
 10
8.2818839638
 20
5.1975198111
 10
8.2830167071
 20
5.1839055233
 10
8.2839016629
 20
5.1806354828
  0
LINE
  5
6FD
100
AcDbEntity
  8
0
100
AcDbLine
 62
7
  6
CONTINUOUS
 10
8.4662905641
 20
5.1710134191
 11
8.4674016629
 21
5.1656354828
  0
LINE
  5
6FE
100
AcDbEntity
  8
0
100
AcDbLine
 62
7
  6
CONTINUOUS
 10
8.2854016629
 20
5.8736354828
 11
8.28652298
 21
5.8681584313
  0
LINE
  5
6FF
100
AcDbEntity
  8
0
100
AcDbLine
 62
7
  6
CONTINUOUS
 10
8.3254016629
 20
5.8736354828
 11
8.3265238949
 21
5.868149513
  0
LINE
  5
700
100
AcDbEntity
  8
0
100
AcDbLine
 62
7
  6
CONTINUOUS
 10
8.4274015821
 20
5.1656354829
 11
8.4262755571
 21
5.1711592928
  0
LINE
  5
701
100
AcDbEntity
  8
0
100
AcDbLine
 62
7
  6
CONTINUOUS
 10
8.4078069261
 20
5.18563535
 11
8.4087929889
 21
5.1806848741
  0
LWPOLYLINE
  5
702
100
AcDbEntity
  8
0
100
AcDbPolyline
 62
7
  6
CONTINUOUS
 90
9
 70
0
 10
8.4652975929
 20
5.1656827821
 10
8.4642300609
 20
5.1716133622
 10
8.4631265431
 20
5.1880017964
 10
8.4620229759
 20
5.2143312326
 10
8.4609193695
 20
5.2498133671
 10
8.4598157865
 20
5.2933828151
 10
8.4587122656
 20
5.3437312342
 10
8.4576087483
 20
5.3993516359
 10
8.4565051993
 20
5.4585788715
  0
LWPOLYLINE
  5
703
100
AcDbEntity
  8
0
100
AcDbPolyline
 62
7
  6
CONTINUOUS
 90
19
 70
0
 10
8.3441848487
 20
5.8583001463
 10
8.3453175921
 20
5.850285194
 10
8.3464503355
 20
5.8318296562
 10
8.3475830788
 20
5.8035162842
 10
8.3487158222
 20
5.7662391004
 10
8.3498485656
 20
5.7211751679
 10
8.3509813089
 20
5.6697474242
 10
8.3521140523
 20
5.6135797503
 10
8.3532467956
 20
5.5544456948
 10
8.354379539
 20
5.4942124732
 10
8.3555122824
 20
5.4347820078
 10
8.3566450257
 20
5.3780308732
 10
8.3577777691
 20
5.3257510416
 10
8.3589105125
 20
5.2795932995
 10
8.3600432558
 20
5.2410151224
 10
8.3611759992
 20
5.2112346536
 10
8.3623087425
 20
5.1911922404
 10
8.3634414859
 20
5.1815207414
 10
8.3639016629
 20
5.1806354828
  0
LWPOLYLINE
  5
704
100
AcDbEntity
  8
0
100
AcDbPolyline
 62
7
  6
CONTINUOUS
 90
8
 70
0
 10
8.5374016629
 20
4.7921354828
 10
8.5392365502
 20
4.7790914647
 10
8.5443513872
 20
4.7700825031
 10
8.5520291573
 20
4.7647193953
 10
8.5615808188
 20
4.7625081023
 10
8.572495579
 20
4.7630505181
 10
8.5844795204
 20
4.7661630715
 10
8.5974016629
 20
4.7719549566
  0
LWPOLYLINE
  5
705
100
AcDbEntity
  8
0
100
AcDbPolyline
 62
7
  6
CONTINUOUS
 90
19
 70
0
 10
8.4243309558
 20
5.8578650188
 10
8.4254572185
 20
5.8485657341
 10
8.4265834811
 20
5.8289983537
 10
8.4277097437
 20
5.7997737055
 10
8.4288360063
 20
5.7618040848
 10
8.429962269
 20
5.7162747752
 10
8.4310885316
 20
5.6646070486
 10
8.4322147942
 20
5.6084137975
 10
8.4333410568
 20
5.5494491863
 10
8.4344673195
 20
5.4895538915
 10
8.4355935821
 20
5.4305976428
 10
8.4367198447
 20
5.3744208558
 10
8.4378461073
 20
5.3227771808
 10
8.43897237
 20
5.2772787596
 10
8.4400986326
 20
5.2393458997
 10
8.4412248952
 20
5.2101627374
 10
8.4423511578
 20
5.1906402728
 10
8.4434774205
 20
5.1813879316
 10
8.4439016629
 20
5.1806354828
  0
LWPOLYLINE
  5
706
100
AcDbEntity
  8
0
100
AcDbPolyline
 62
7
  6
CONTINUOUS
 90
3
 70
0
 10
8.4874016629
 20
5.8563094896
 10
8.4862984631
 20
5.8701288837
 10
8.4854016658
 20
5.8736354828
  0
LINE
  5
707
100
AcDbEntity
  8
0
100
AcDbLine
 62
7
  6
CONTINUOUS
 10
8.5424016629
 20
4.3976354828
 11
8.5424016629
 21
4.3476354828
  0
LINE
  5
708
100
AcDbEntity
  8
0
100
AcDbLine
 62
9
  6
CONTINUOUS
 10
8.5974016629
 20
4.7719549566
 11
8.5974016629
 21
6.3071354828
  0
LINE
  5
709
100
AcDbEntity
  8
0
100
AcDbLine
 62
7
  6
CONTINUOUS
 10
8.0652975929
 20
5.1656827821
 11
8.0654016641
 21
5.1656354828
  0
LINE
  5
70A
100
AcDbEntity
  8
0
100
AcDbLine
 62
7
  6
CONTINUOUS
 10
8.1052975929
 20
5.1656827821
 11
8.1054016629
 21
5.1656354828
  0
LINE
  5
70B
100
AcDbEntity
  8
0
100
AcDbLine
 62
7
  6
CONTINUOUS
 10
8.1852975929
 20
5.1656827821
 11
8.1854016629
 21
5.1656354828
  0
LINE
  5
70C
100
AcDbEntity
  8
0
100
AcDbLine
 62
7
  6
CONTINUOUS
 10
8.2252975929
 20
5.1656827821
 11
8.2254016629
 21
5.1656354828
  0
LINE
  5
70D
100
AcDbEntity
  8
0
100
AcDbLine
 62
7
  6
CONTINUOUS
 10
8.2652975929
 20
5.1656827821
 11
8.2654016803
 21
5.1656354828
  0
LINE
  5
70E
100
AcDbEntity
  8
0
100
AcDbLine
 62
7
  6
CONTINUOUS
 10
8.1452975929
 20
5.1656827821
 11
8.1454016468
 21
5.1656354828
  0
LWPOLYLINE
  5
70F
100
AcDbEntity
  8
0
100
AcDbPolyline
 62
9
  6
CONTINUOUS
 90
7
 70
0
 10
8.9774016629
 20
4.7752187649
 10
8.9658039921
 20
4.7816654585
 10
8.9484017652
 20
4.7884318843
 10
8.9251756569
 20
4.7948086589
 10
8.8969625882
 20
4.8000213503
 10
8.8653589278
 20
4.803399628
 10
8.8324016629
 20
4.8045523807
  0
LINE
  5
710
100
AcDbEntity
  8
0
100
AcDbLine
 62
7
  6
CONTINUOUS
 10
8.2887929889
 20
5.1806848741
 11
8.3052975929
 21
5.1656827821
  0
LINE
  5
711
100
AcDbEntity
  8
0
100
AcDbLine
 62
7
  6
CONTINUOUS
 10
8.3287929889
 20
5.1806848741
 11
8.3452975929
 21
5.1656827821
  0
LINE
  5
712
100
AcDbEntity
  8
0
100
AcDbLine
 62
7
  6
CONTINUOUS
 10
8.3687929889
 20
5.1806848741
 11
8.3852975929
 21
5.1656827821
  0
LINE
  5
713
100
AcDbEntity
  8
0
100
AcDbLine
 62
7
  6
CONTINUOUS
 10
8.4087929889
 20
5.1806848741
 11
8.4252975929
 21
5.1656827821
  0
LWPOLYLINE
  5
714
100
AcDbEntity
  8
0
100
AcDbPolyline
 62
7
  6
CONTINUOUS
 90
18
 70
0
 10
8.1889016629
 20
5.8586354828
 10
8.1894680346
 20
5.8572948
 10
8.1906007779
 20
5.8466328793
 10
8.1917335213
 20
5.8256456983
 10
8.1928662647
 20
5.7949959477
 10
8.193999008
 20
5.7556514231
 10
8.1951317514
 20
5.7088544661
 10
8.1962644948
 20
5.6560827359
 10
8.1973972381
 20
5.5990025513
 10
8.1985299815
 20
5.5394162745
 10
8.1996627248
 20
5.4792053999
 10
8.2007954682
 20
5.4202711445
 10
8.2019282116
 20
5.3644744145
 10
8.2030609549
 20
5.3135770459
 10
8.2041936983
 20
5.2691861725
 10
8.2053264417
 20
5.2327034792
 10
8.206459185
 20
5.2052809424
 10
8.2075919284
 20
5.1877844555
  0
LINE
  5
715
100
AcDbEntity
  8
0
100
AcDbLine
 62
7
  6
CONTINUOUS
 10
8.3040103369
 20
5.8585860916
 11
8.304538831
 21
5.8569389784
  0
LWPOLYLINE
  5
716
100
AcDbEntity
  8
0
100
AcDbPolyline
 62
7
  6
CONTINUOUS
 90
18
 70
0
 10
8.3889016629
 20
5.8586354828
 10
8.389870084
 20
5.8547207668
 10
8.3909911366
 20
5.8405395452
 10
8.3921121892
 20
5.8164330058
 10
8.3932332418
 20
5.7831467455
 10
8.3943542945
 20
5.741710283
 10
8.3954753471
 20
5.6934052163
 10
8.3965963997
 20
5.6397255844
 10
8.3977174524
 20
5.5823316572
 10
8.398838505
 20
5.5229985853
 10
8.3999595576
 20
5.4635614951
 10
8.4010806103
 20
5.4058587306
 10
8.4022016629
 20
5.3516749942
 10
8.4033227155
 20
5.3026861476
 10
8.4044437682
 20
5.2604073784
 10
8.4055648208
 20
5.2261463366
 10
8.4066858734
 20
5.2009626902
 10
8.4078069261
 20
5.18563535
  0
LINE
  5
717
100
AcDbEntity
  8
0
100
AcDbLine
 62
7
  6
CONTINUOUS
 10
8.4054013748
 20
5.8736354825
 11
8.4063962696
 21
5.8693239447
  0
LWPOLYLINE
  5
718
100
AcDbEntity
  8
0
100
AcDbPolyline
 62
7
  6
CONTINUOUS
 90
19
 70
0
 10
8.3840103369
 20
5.8585860916
 10
8.3849117639
 20
5.8543772661
 10
8.3860380265
 20
5.839725969
 10
8.3871642892
 20
5.815082524
 10
8.3882905518
 20
5.7812162166
 10
8.3894168144
 20
5.739184239
 10
8.390543077
 20
5.6902986879
 10
8.3916693397
 20
5.636085606
 10
8.3927956023
 20
5.578237343
 10
8.3939218649
 20
5.5185597272
 10
8.3950481275
 20
5.4589156928
 10
8.3961743902
 20
5.401167126
 10
8.3973006528
 20
5.3471167426
 10
8.3984269154
 20
5.2984518137
 10
8.3995531781
 20
5.2566914947
 10
8.4006794407
 20
5.2231394021
 10
8.4018057033
 20
5.1988429195
 10
8.4029319659
 20
5.1845605012
 10
8.4039016629
 20
5.1806354828
  0
LINE
  5
719
100
AcDbEntity
  8
0
100
AcDbLine
 62
7
  6
CONTINUOUS
 10
8.3654016481
 20
5.8736354828
 11
8.3665099782
 21
5.8682843901
  0
LINE
  5
71A
100
AcDbEntity
  8
AXIS_COSMETIC_THREADS
100
AcDbLine
 62
7
  6
CONTINUOUS
 10
8.7159016629
 20
4.2976354828
 11
8.7159016629
 21
3.5446354828
  0
LINE
  5
71B
100
AcDbEntity
  8
0
100
AcDbLine
 62
7
  6
CONTINUOUS
 10
8.3052975929
 20
5.1656827821
 11
8.3054016629
 21
5.1656354828
  0
LINE
  5
71C
100
AcDbEntity
  8
0
100
AcDbLine
 62
7
  6
CONTINUOUS
 10
8.3452975929
 20
5.1656827821
 11
8.3454016604
 21
5.1656354828
  0
LINE
  5
71D
100
AcDbEntity
  8
0
100
AcDbLine
 62
7
  6
CONTINUOUS
 10
8.4654016622
 20
5.1656354828
 11
8.4652975929
 21
5.1656827821
  0
LINE
  5
71E
100
AcDbEntity
  8
0
100
AcDbLine
 62
7
  6
CONTINUOUS
 10
8.3852975929
 20
5.1656827821
 11
8.3854016271
 21
5.1656354829
  0
LINE
  5
71F
100
AcDbEntity
  8
0
100
AcDbLine
 62
7
  6
CONTINUOUS
 10
8.4252975929
 20
5.1656827821
 11
8.4254015925
 21
5.1656354829
  0
LINE
  5
720
100
AcDbEntity
  8
0
100
AcDbLine
 62
7
  6
CONTINUOUS
 10
8.4487929889
 20
5.1806848741
 11
8.4652975929
 21
5.1656827821
  0
LWPOLYLINE
  5
721
100
AcDbEntity
  8
0
100
AcDbPolyline
 62
7
  6
CONTINUOUS
 90
18
 70
0
 10
8.3089016629
 20
5.8586354828
 10
8.309538831
 20
5.8569389784
 10
8.3106715744
 20
5.8456184077
 10
8.3118043178
 20
5.8240046096
 10
8.3129370611
 20
5.7927800609
 10
8.3140698045
 20
5.752930707
 10
8.3152025479
 20
5.7057148299
 10
8.3163352912
 20
5.6526233167
 10
8.3174680346
 20
5.5953325836
 10
8.3186007779
 20
5.5356516411
 10
8.3197335213
 20
5.4754649728
 10
8.3208662647
 20
5.4166730312
 10
8.321999008
 20
5.361132229
 10
8.3231317514
 20
5.3105963209
 10
8.3242644948
 20
5.2666610273
 10
8.3253972381
 20
5.2307136478
 10
8.3265299815
 20
5.2038892556
 10
8.3276627248
 20
5.1870348571
  0
LWPOLYLINE
  5
722
100
AcDbEntity
  8
0
100
AcDbPolyline
 62
7
  6
CONTINUOUS
 90
10
 70
0
 10
8.4640103369
 20
5.8585860916
 10
8.4648764104
 20
5.8546695526
 10
8.466002673
 20
5.8403409926
 10
8.4671289356
 20
5.8160010859
 10
8.4682551983
 20
5.7824096423
 10
8.4693814609
 20
5.7406152737
 10
8.4705077235
 20
5.6919226597
 10
8.4716339861
 20
5.6378518198
 10
8.4727602488
 20
5.5800906636
 10
8.475012774
 20
5.4607687506
  0
LINE
  5
723
100
AcDbEntity
  8
0
100
AcDbLine
 62
7
  6
CONTINUOUS
 10
8.445401571
 20
5.8736354828
 11
8.4464861359
 21
5.8685115903
  0
LINE
  5
724
100
AcDbEntity
  8
0
100
AcDbLine
 62
7
  6
CONTINUOUS
 10
8.4674016629
 20
5.1656354828
 11
8.4654016629
 21
5.1656354828
  0
LINE
  5
725
100
AcDbEntity
  8
0
100
AcDbLine
 62
7
  6
CONTINUOUS
 10
8.4274016629
 20
5.1656354828
 11
8.4254016629
 21
5.1656354828
  0
LINE
  5
726
100
AcDbEntity
  8
0
100
AcDbLine
 62
7
  6
CONTINUOUS
 10
8.3874016629
 20
5.1656354828
 11
8.3854016629
 21
5.1656354828
  0
LINE
  5
727
100
AcDbEntity
  8
0
100
AcDbLine
 62
7
  6
CONTINUOUS
 10
8.3474016629
 20
5.1656354828
 11
8.3454016629
 21
5.1656354828
  0
LINE
  5
728
100
AcDbEntity
  8
0
100
AcDbLine
 62
7
  6
CONTINUOUS
 10
8.3074016629
 20
5.1656354828
 11
8.3054016629
 21
5.1656354828
  0
LINE
  5
729
100
AcDbEntity
  8
0
100
AcDbLine
 62
7
  6
CONTINUOUS
 10
8.2674016629
 20
5.1656354828
 11
8.2654016629
 21
5.1656354828
  0
LINE
  5
72A
100
AcDbEntity
  8
0
100
AcDbLine
 62
7
  6
CONTINUOUS
 10
8.2274016629
 20
5.1656354828
 11
8.2254016629
 21
5.1656354828
  0
LINE
  5
72B
100
AcDbEntity
  8
0
100
AcDbLine
 62
7
  6
CONTINUOUS
 10
8.1874016629
 20
5.1656354828
 11
8.1854016629
 21
5.1656354828
  0
LINE
  5
72C
100
AcDbEntity
  8
0
100
AcDbLine
 62
7
  6
CONTINUOUS
 10
8.1474016629
 20
5.1656354828
 11
8.1454016629
 21
5.1656354828
  0
LINE
  5
72D
100
AcDbEntity
  8
0
100
AcDbLine
 62
7
  6
CONTINUOUS
 10
8.1074016629
 20
5.1656354828
 11
8.1054016629
 21
5.1656354828
  0
LINE
  5
72E
100
AcDbEntity
  8
0
100
AcDbLine
 62
7
  6
CONTINUOUS
 10
8.0674016629
 20
5.1656354828
 11
8.0654016629
 21
5.1656354828
  0
LINE
  5
72F
100
AcDbEntity
  8
0
100
AcDbLine
 62
7
  6
CONTINUOUS
 10
8.0274016629
 20
5.1656354828
 11
8.0254016629
 21
5.1656354828
  0
LINE
  5
730
100
AcDbEntity
  8
0
100
AcDbLine
 62
7
  6
CONTINUOUS
 10
7.9874016629
 20
5.1656354828
 11
7.9854016629
 21
5.1656354828
  0
LINE
  5
731
100
AcDbEntity
  8
0
100
AcDbLine
 62
7
  6
CONTINUOUS
 10
7.9639016629
 20
5.1806354828
 11
7.9689016629
 21
5.1806354828
  0
LINE
  5
732
100
AcDbEntity
  8
0
100
AcDbLine
 62
7
  6
CONTINUOUS
 10
8.0039016629
 20
5.1806354828
 11
8.0089016629
 21
5.1806354828
  0
LINE
  5
733
100
AcDbEntity
  8
0
100
AcDbLine
 62
7
  6
CONTINUOUS
 10
8.0439016629
 20
5.1806354828
 11
8.0489016629
 21
5.1806354828
  0
LINE
  5
734
100
AcDbEntity
  8
0
100
AcDbLine
 62
7
  6
CONTINUOUS
 10
8.0839016629
 20
5.1806354828
 11
8.0889016629
 21
5.1806354828
  0
LINE
  5
735
100
AcDbEntity
  8
0
100
AcDbLine
 62
7
  6
CONTINUOUS
 10
8.1239016629
 20
5.1806354828
 11
8.1289016629
 21
5.1806354828
  0
LINE
  5
736
100
AcDbEntity
  8
0
100
AcDbLine
 62
7
  6
CONTINUOUS
 10
8.1639016629
 20
5.1806354828
 11
8.1689016629
 21
5.1806354828
  0
LINE
  5
737
100
AcDbEntity
  8
0
100
AcDbLine
 62
7
  6
CONTINUOUS
 10
8.2039016629
 20
5.1806354828
 11
8.2089016629
 21
5.1806354828
  0
LINE
  5
738
100
AcDbEntity
  8
0
100
AcDbLine
 62
7
  6
CONTINUOUS
 10
8.2439016629
 20
5.1806354828
 11
8.2489016629
 21
5.1806354828
  0
LINE
  5
739
100
AcDbEntity
  8
0
100
AcDbLine
 62
7
  6
CONTINUOUS
 10
8.2839016629
 20
5.1806354828
 11
8.2889016629
 21
5.1806354828
  0
LINE
  5
73A
100
AcDbEntity
  8
0
100
AcDbLine
 62
7
  6
CONTINUOUS
 10
8.3239016629
 20
5.1806354828
 11
8.3289016629
 21
5.1806354828
  0
LINE
  5
73B
100
AcDbEntity
  8
0
100
AcDbLine
 62
7
  6
CONTINUOUS
 10
8.3639016629
 20
5.1806354828
 11
8.3689016629
 21
5.1806354828
  0
LINE
  5
73C
100
AcDbEntity
  8
0
100
AcDbLine
 62
7
  6
CONTINUOUS
 10
8.4039016629
 20
5.1806354828
 11
8.4089016629
 21
5.1806354828
  0
LINE
  5
73D
100
AcDbEntity
  8
0
100
AcDbLine
 62
7
  6
CONTINUOUS
 10
8.4439016629
 20
5.1806354828
 11
8.4489016629
 21
5.1806354828
  0
LINE
  5
73E
100
AcDbEntity
  8
0
100
AcDbLine
 62
7
  6
CONTINUOUS
 10
8.4839016629
 20
5.1806354828
 11
8.4874016629
 21
5.1806354828
  0
LINE
  5
73F
100
AcDbEntity
  8
0
100
AcDbLine
 62
7
  6
CONTINUOUS
 10
8.5249016629
 20
5.1808854828
 11
8.4874016629
 21
5.1808854828
  0
LINE
  5
740
100
AcDbEntity
  8
0
100
AcDbLine
 62
7
  6
CONTINUOUS
 10
8.4240103369
 20
5.8585860916
 11
8.4243309558
 21
5.8578650188
  0
LWPOLYLINE
  5
741
100
AcDbEntity
  8
0
100
AcDbPolyline
 62
7
  6
CONTINUOUS
 90
18
 70
0
 10
8.4689016629
 20
5.8586354828
 10
8.4694648208
 20
5.8573099619
 10
8.4705858734
 20
5.8468413034
 10
8.4717069261
 20
5.8262524186
 10
8.4728279787
 20
5.7961801059
 10
8.4739490313
 20
5.757554479
 10
8.475070084
 20
5.7115701991
 10
8.4761911366
 20
5.6596495249
 10
8.4773121892
 20
5.6033983233
 10
8.4784332418
 20
5.5445564009
 10
8.4795542945
 20
5.4849436935
 10
8.4806753471
 20
5.4264039767
 10
8.4817963997
 20
5.3707478392
 10
8.4829174524
 20
5.319696683
 10
8.484038505
 20
5.2748294812
 10
8.4851595576
 20
5.2375339423
 10
8.4862806103
 20
5.2089635887
 10
8.4874016629
 20
5.1900020798
  0
LWPOLYLINE
  5
742
100
AcDbEntity
  8
0
100
AcDbPolyline
 62
9
  6
CONTINUOUS
 90
7
 70
0
 10
8.9774016629
 20
4.7752187649
 10
8.9591964758
 20
4.7672594294
 10
8.9377194594
 20
4.7606491756
 10
8.9134989444
 20
4.7557135622
 10
8.8872769082
 20
4.752441243
 10
8.8599427008
 20
4.7506347557
 10
8.8324016629
 20
4.7500698586
  0
LINE
  5
743
100
AcDbEntity
  8
0
100
AcDbLine
 62
7
  6
CONTINUOUS
 10
7.9840103369
 20
5.8585860916
 11
7.9675057329
 21
5.8735881836
  0
LINE
  5
744
100
AcDbEntity
  8
0
100
AcDbLine
 62
7
  6
CONTINUOUS
 10
8.0240103369
 20
5.8585860916
 11
8.0075057329
 21
5.8735881836
  0
LINE
  5
745
100
AcDbEntity
  8
0
100
AcDbLine
 62
7
  6
CONTINUOUS
 10
8.0640103369
 20
5.8585860916
 11
8.0475057329
 21
5.8735881836
  0
LINE
  5
746
100
AcDbEntity
  8
0
100
AcDbLine
 62
7
  6
CONTINUOUS
 10
8.1040103369
 20
5.8585860916
 11
8.0875057329
 21
5.8735881836
  0
LINE
  5
747
100
AcDbEntity
  8
0
100
AcDbLine
 62
9
  6
CONTINUOUS
 10
9.1313572903
 20
4.7321354828
 11
9.1307572563
 21
4.7330676318
  0
LWPOLYLINE
  5
748
100
AcDbEntity
  8
0
100
AcDbPolyline
 62
9
  6
CONTINUOUS
 90
13
 70
0
 10
9.1307572563
 20
4.7330676318
 10
9.1259569841
 20
4.740833397
 10
9.1170581021
 20
4.7579543164
 10
9.1052342339
 20
4.7868615234
 10
9.0930344388
 20
4.8292159143
 10
9.0834280655
 20
4.8854213285
 10
9.0769726652
 20
4.9541500436
 10
9.0731659553
 20
5.0333636754
 10
9.0713825598
 20
5.1210284394
 10
9.0709966429
 20
5.2151001941
 10
9.0714106154
 20
5.3137813279
 10
9.0720612355
 20
5.4156487338
 10
9.0724016629
 20
5.5196354828
  0
LINE
  5
749
100
AcDbEntity
  8
0
100
AcDbLine
 62
7
  6
CONTINUOUS
 10
8.3440103369
 20
5.8585860916
 11
8.3441848487
 21
5.8583001463
  0
LINE
  5
74A
100
AcDbEntity
  8
AXIS_COSMETIC_THREADS
100
AcDbLine
 62
7
  6
CONTINUOUS
 10
8.9489016629
 20
4.2976354828
 11
8.9489016629
 21
3.5446354828
  0
LINE
  5
74B
100
AcDbEntity
  8
0
100
AcDbLine
 62
7
  6
CONTINUOUS
 10
8.9774016629
 20
4.770459936
 11
8.9774016629
 21
6.3071275404
  0
LINE
  5
74C
100
AcDbEntity
  8
0
100
AcDbLine
 62
7
  6
CONTINUOUS
 10
8.9924016629
 20
4.7671434325
 11
8.9924016629
 21
6.3071354828
  0
LWPOLYLINE
  5
74D
100
AcDbEntity
  8
0
100
AcDbPolyline
 62
7
  6
CONTINUOUS
 90
19
 70
0
 10
8.2289016629
 20
5.8586354828
 10
8.2291140523
 20
5.8584468424
 10
8.2302467956
 20
5.8510963152
 10
8.231379539
 20
5.8332795905
 10
8.2325122824
 20
5.8055592486
 10
8.2336450257
 20
5.7688105862
 10
8.2347777691
 20
5.724193978
 10
8.2359105125
 20
5.6731182368
 10
8.2370432558
 20
5.6171961286
 10
8.2381759992
 20
5.5581934482
 10
8.2393087425
 20
5.4979732628
 10
8.2404414859
 20
5.4384370829
 10
8.2415742293
 20
5.3814648213
 10
8.2427069726
 20
5.3288554325
 10
8.243839716
 20
5.282270109
 10
8.2449724594
 20
5.2431798277
 10
8.2461052027
 20
5.212818902
 10
8.2472379461
 20
5.1921460077
 10
8.2483706894
 20
5.1818139115
  0
LINE
  5
74E
100
AcDbEntity
  8
0
100
AcDbLine
 62
7
  6
CONTINUOUS
 10
8.1440103369
 20
5.8585860916
 11
8.1275057329
 21
5.8735881836
  0
LINE
  5
74F
100
AcDbEntity
  8
0
100
AcDbLine
 62
7
  6
CONTINUOUS
 10
8.1840103369
 20
5.8585860916
 11
8.1675057329
 21
5.8735881836
  0
LINE
  5
750
100
AcDbEntity
  8
0
100
AcDbLine
 62
7
  6
CONTINUOUS
 10
8.2240103369
 20
5.8585860916
 11
8.2075057329
 21
5.8735881836
  0
LINE
  5
751
100
AcDbEntity
  8
0
100
AcDbLine
 62
7
  6
CONTINUOUS
 10
8.2640103369
 20
5.8585860916
 11
8.2475057329
 21
5.8735881836
  0
LWPOLYLINE
  5
752
100
AcDbEntity
  8
0
100
AcDbPolyline
 62
7
  6
CONTINUOUS
 90
19
 70
0
 10
8.3489016629
 20
5.8586354828
 10
8.3491848487
 20
5.8583001463
 10
8.3503175921
 20
5.850285194
 10
8.3514503355
 20
5.8318296562
 10
8.3525830788
 20
5.8035162842
 10
8.3537158222
 20
5.7662391004
 10
8.3548485656
 20
5.7211751679
 10
8.3559813089
 20
5.6697474242
 10
8.3571140523
 20
5.6135797503
 10
8.3582467956
 20
5.5544456948
 10
8.359379539
 20
5.4942124732
 10
8.3605122824
 20
5.4347820078
 10
8.3616450257
 20
5.3780308732
 10
8.3627777691
 20
5.3257510416
 10
8.3639105125
 20
5.2795932995
 10
8.3650432558
 20
5.2410151224
 10
8.3661759992
 20
5.2112346536
 10
8.3673087425
 20
5.1911922404
 10
8.3684414859
 20
5.1815207414
  0
LINE
  5
753
100
AcDbEntity
  8
0
100
AcDbLine
 62
9
  6
CONTINUOUS
 10
9.0724016629
 20
5.5196354828
 11
9.0724016629
 21
6.3071354828
  0
LINE
  5
754
100
AcDbEntity
  8
0
100
AcDbLine
 62
7
  6
CONTINUOUS
 10
9.1224016629
 20
4.3976354828
 11
9.1224016629
 21
4.3476354828
  0
LINE
  5
755
100
AcDbEntity
  8
0
100
AcDbLine
 62
7
  6
CONTINUOUS
 10
9.1274016629
 20
4.3976354828
 11
9.1274016629
 21
4.7276354842
  0
LINE
  5
756
100
AcDbEntity
  8
0
100
AcDbLine
 62
7
  6
CONTINUOUS
 10
9.1324016629
 20
4.7331479916
 11
9.1324016629
 21
6.2471354828
  0
LINE
  5
757
100
AcDbEntity
  8
0
100
AcDbLine
 62
9
  6
CONTINUOUS
 10
9.1324016629
 20
5.5196354828
 11
9.0724016629
 21
5.5196354828
  0
LWPOLYLINE
  5
758
100
AcDbEntity
  8
0
100
AcDbPolyline
 62
7
  6
CONTINUOUS
 90
9
 70
0
 10
7.9889016629
 20
5.8586354828
 10
7.9890266629
 20
5.8585701374
 10
7.9901516629
 20
5.8521216929
 10
7.9912766629
 20
5.8353173457
 10
7.9924016629
 20
5.8086804986
 10
7.9935266629
 20
5.7730408057
 10
7.9946516629
 20
5.7295083317
 10
7.9957766629
 20
5.6794389766
 10
7.9969016629
 20
5.6243922439
  0
LINE
  5
759
100
AcDbEntity
  8
0
100
AcDbLine
 62
7
  6
CONTINUOUS
 10
8.0054019383
 20
5.8736354825
 11
8.0055357393
 21
5.8735569771
  0
LWPOLYLINE
  5
75A
100
AcDbEntity
  8
0
100
AcDbPolyline
 62
7
  6
CONTINUOUS
 90
16
 70
0
 10
8.1089016629
 20
5.8586354828
 10
8.1090432558
 20
5.8585516383
 10
8.1101759992
 20
5.8518664453
 10
8.1113087425
 20
5.834690737
 10
8.1124414859
 20
5.8075668533
 10
8.1135742293
 20
5.771351257
 10
8.1147069726
 20
5.7271874907
 10
8.115839716
 20
5.6764700684
 10
8.1169724594
 20
5.6208004417
 10
8.1181052027
 20
5.5619364333
 10
8.1192379461
 20
5.5017367312
 10
8.1203706894
 20
5.4421021997
 10
8.1215034328
 20
5.3849158568
 10
8.1226361762
 20
5.3319834169
 10
8.1237689195
 20
5.2849762731
 10
8.1249016629
 20
5.2453787218
  0
LINE
  5
75B
100
AcDbEntity
  8
0
100
AcDbLine
 62
7
  6
CONTINUOUS
 10
8.3040103369
 20
5.8585860916
 11
8.2875057329
 21
5.8735881836
  0
LINE
  5
75C
100
AcDbEntity
  8
0
100
AcDbLine
 62
7
  6
CONTINUOUS
 10
8.3440103369
 20
5.8585860916
 11
8.3275057329
 21
5.8735881836
  0
LINE
  5
75D
100
AcDbEntity
  8
0
100
AcDbLine
 62
7
  6
CONTINUOUS
 10
8.3840103369
 20
5.8585860916
 11
8.3675057329
 21
5.8735881836
  0
LINE
  5
75E
100
AcDbEntity
  8
0
100
AcDbLine
 62
7
  6
CONTINUOUS
 10
7.967401664
 20
5.8736354828
 11
7.9675057329
 21
5.8735881836
  0
LINE
  5
75F
100
AcDbEntity
  8
0
100
AcDbLine
 62
7
  6
CONTINUOUS
 10
8.0475057329
 20
5.8735881836
 11
8.0474016629
 21
5.8736354828
  0
LINE
  5
760
100
AcDbEntity
  8
0
100
AcDbLine
 62
7
  6
CONTINUOUS
 10
8.0875057329
 20
5.8735881836
 11
8.0874016629
 21
5.8736354828
  0
LINE
  5
761
100
AcDbEntity
  8
0
100
AcDbLine
 62
7
  6
CONTINUOUS
 10
8.1275057329
 20
5.8735881836
 11
8.1274016629
 21
5.8736354828
  0
LINE
  5
762
100
AcDbEntity
  8
0
100
AcDbLine
 62
7
  6
CONTINUOUS
 10
8.1675057329
 20
5.8735881836
 11
8.1674016629
 21
5.8736354828
  0
LINE
  5
763
100
AcDbEntity
  8
0
100
AcDbLine
 62
7
  6
CONTINUOUS
 10
8.0075057329
 20
5.8735881836
 11
8.0074016744
 21
5.8736354828
  0
LWPOLYLINE
  5
764
100
AcDbEntity
  8
0
100
AcDbPolyline
 62
7
  6
CONTINUOUS
 90
19
 70
0
 10
8.4289016629
 20
5.8586354828
 10
8.4291069261
 20
5.8584592877
 10
8.4302279787
 20
5.8513050113
 10
8.4313490313
 20
5.8338924495
 10
8.432470084
 20
5.8067601595
 10
8.4335911366
 20
5.7707473223
 10
8.4347121892
 20
5.7269677876
 10
8.4358332418
 20
5.6767756228
 10
8.4369542945
 20
5.6217232335
 10
8.4380753471
 20
5.5635133479
 10
8.4391963997
 20
5.5039463535
 10
8.4403174524
 20
5.4448646118
 10
8.441438505
 20
5.3880954761
 10
8.4425595576
 20
5.3353947725
 10
8.4436806103
 20
5.2883924935
 10
8.4448016629
 20
5.2485423836
 10
8.4459227155
 20
5.2170769765
 10
8.4470437682
 20
5.194969473
 10
8.4481648208
 20
5.1829036416
  0
LINE
  5
765
100
AcDbEntity
  8
0
100
AcDbLine
 62
7
  6
CONTINUOUS
 10
8.4240103369
 20
5.8585860916
 11
8.4075057329
 21
5.8735881836
  0
LINE
  5
766
100
AcDbEntity
  8
0
100
AcDbLine
 62
7
  6
CONTINUOUS
 10
8.4640103369
 20
5.8585860916
 11
8.4475057329
 21
5.8735881836
  0
LINE
  5
767
100
AcDbEntity
  8
0
100
AcDbLine
 62
7
  6
CONTINUOUS
 10
9.1224016629
 20
4.3476354828
 11
9.0935341494
 21
4.2976354828
  0
LINE
  5
768
100
AcDbEntity
  8
0
100
AcDbLine
 62
7
  6
CONTINUOUS
 10
8.3675057329
 20
5.8735881836
 11
8.3674013748
 21
5.8736354825
  0
LINE
  5
769
100
AcDbEntity
  8
0
100
AcDbLine
 62
7
  6
CONTINUOUS
 10
8.4075057329
 20
5.8735881836
 11
8.407401571
 21
5.8736354828
  0
LINE
  5
76A
100
AcDbEntity
  8
0
100
AcDbLine
 62
7
  6
CONTINUOUS
 10
8.2075057329
 20
5.8735881836
 11
8.2074016629
 21
5.8736354828
  0
LINE
  5
76B
100
AcDbEntity
  8
0
100
AcDbLine
 62
7
  6
CONTINUOUS
 10
8.2475057329
 20
5.8735881836
 11
8.2474016629
 21
5.8736354828
  0
LINE
  5
76C
100
AcDbEntity
  8
0
100
AcDbLine
 62
7
  6
CONTINUOUS
 10
8.2875057329
 20
5.8735881836
 11
8.2874016629
 21
5.8736354828
  0
LINE
  5
76D
100
AcDbEntity
  8
0
100
AcDbLine
 62
7
  6
CONTINUOUS
 10
8.3275057329
 20
5.8735881836
 11
8.3274016481
 21
5.8736354828
  0
LINE
  5
76E
100
AcDbEntity
  8
0
100
AcDbLine
 62
7
  6
CONTINUOUS
 10
8.4475057329
 20
5.8735881836
 11
8.4474016248
 21
5.8736354828
  0
LINE
  5
76F
100
AcDbEntity
  8
0
100
AcDbLine
 62
7
  6
CONTINUOUS
 10
8.5249016629
 20
5.8583854828
 11
8.4874016629
 21
5.8583854828
  0
LINE
  5
770
100
AcDbEntity
  8
0
100
AcDbLine
 62
7
  6
CONTINUOUS
 10
8.4689016629
 20
5.8586354828
 11
8.4639016629
 21
5.8586354828
  0
LINE
  5
771
100
AcDbEntity
  8
0
100
AcDbLine
 62
7
  6
CONTINUOUS
 10
8.4289016629
 20
5.8586354828
 11
8.4239016629
 21
5.8586354828
  0
LINE
  5
772
100
AcDbEntity
  8
0
100
AcDbLine
 62
7
  6
CONTINUOUS
 10
8.3889016629
 20
5.8586354828
 11
8.3839016629
 21
5.8586354828
  0
LINE
  5
773
100
AcDbEntity
  8
0
100
AcDbLine
 62
7
  6
CONTINUOUS
 10
8.3489016629
 20
5.8586354828
 11
8.3439016629
 21
5.8586354828
  0
LINE
  5
774
100
AcDbEntity
  8
0
100
AcDbLine
 62
7
  6
CONTINUOUS
 10
8.3089016629
 20
5.8586354828
 11
8.3039016629
 21
5.8586354828
  0
LINE
  5
775
100
AcDbEntity
  8
0
100
AcDbLine
 62
7
  6
CONTINUOUS
 10
8.2689016629
 20
5.8586354828
 11
8.2639016629
 21
5.8586354828
  0
LINE
  5
776
100
AcDbEntity
  8
0
100
AcDbLine
 62
7
  6
CONTINUOUS
 10
8.2289016629
 20
5.8586354828
 11
8.2239016629
 21
5.8586354828
  0
LINE
  5
777
100
AcDbEntity
  8
0
100
AcDbLine
 62
7
  6
CONTINUOUS
 10
8.1889016629
 20
5.8586354828
 11
8.1839016629
 21
5.8586354828
  0
LINE
  5
778
100
AcDbEntity
  8
0
100
AcDbLine
 62
7
  6
CONTINUOUS
 10
8.1489016629
 20
5.8586354828
 11
8.1439016629
 21
5.8586354828
  0
LINE
  5
779
100
AcDbEntity
  8
0
100
AcDbLine
 62
7
  6
CONTINUOUS
 10
8.1089016629
 20
5.8586354828
 11
8.1039016629
 21
5.8586354828
  0
LINE
  5
77A
100
AcDbEntity
  8
0
100
AcDbLine
 62
7
  6
CONTINUOUS
 10
8.0689016629
 20
5.8586354828
 11
8.0639016629
 21
5.8586354828
  0
LINE
  5
77B
100
AcDbEntity
  8
0
100
AcDbLine
 62
7
  6
CONTINUOUS
 10
8.0289016629
 20
5.8586354828
 11
8.0239016629
 21
5.8586354828
  0
LINE
  5
77C
100
AcDbEntity
  8
0
100
AcDbLine
 62
7
  6
CONTINUOUS
 10
7.9889016629
 20
5.8586354828
 11
7.9839016629
 21
5.8586354828
  0
LINE
  5
77D
100
AcDbEntity
  8
0
100
AcDbLine
 62
7
  6
CONTINUOUS
 10
7.9489016629
 20
5.8586354828
 11
7.9474016629
 21
5.8586354828
  0
LINE
  5
77E
100
AcDbEntity
  8
0
100
AcDbLine
 62
7
  6
CONTINUOUS
 10
8.4874016629
 20
5.8736354828
 11
8.4854016629
 21
5.8736354828
  0
LINE
  5
77F
100
AcDbEntity
  8
0
100
AcDbLine
 62
7
  6
CONTINUOUS
 10
8.4474016629
 20
5.8736354828
 11
8.4454016629
 21
5.8736354828
  0
LINE
  5
780
100
AcDbEntity
  8
0
100
AcDbLine
 62
7
  6
CONTINUOUS
 10
8.4074016629
 20
5.8736354828
 11
8.4054016629
 21
5.8736354828
  0
LINE
  5
781
100
AcDbEntity
  8
0
100
AcDbLine
 62
7
  6
CONTINUOUS
 10
8.3674016629
 20
5.8736354828
 11
8.3654016629
 21
5.8736354828
  0
LINE
  5
782
100
AcDbEntity
  8
0
100
AcDbLine
 62
7
  6
CONTINUOUS
 10
8.3274016629
 20
5.8736354828
 11
8.3254016629
 21
5.8736354828
  0
LINE
  5
783
100
AcDbEntity
  8
0
100
AcDbLine
 62
7
  6
CONTINUOUS
 10
8.2874016629
 20
5.8736354828
 11
8.2854016629
 21
5.8736354828
  0
LINE
  5
784
100
AcDbEntity
  8
0
100
AcDbLine
 62
7
  6
CONTINUOUS
 10
8.2474016629
 20
5.8736354828
 11
8.2454016629
 21
5.8736354828
  0
LINE
  5
785
100
AcDbEntity
  8
0
100
AcDbLine
 62
7
  6
CONTINUOUS
 10
8.2074016629
 20
5.8736354828
 11
8.2054016629
 21
5.8736354828
  0
LINE
  5
786
100
AcDbEntity
  8
0
100
AcDbLine
 62
7
  6
CONTINUOUS
 10
8.1674016629
 20
5.8736354828
 11
8.1654016629
 21
5.8736354828
  0
LINE
  5
787
100
AcDbEntity
  8
0
100
AcDbLine
 62
7
  6
CONTINUOUS
 10
8.1274016629
 20
5.8736354828
 11
8.1254016629
 21
5.8736354828
  0
LINE
  5
788
100
AcDbEntity
  8
0
100
AcDbLine
 62
7
  6
CONTINUOUS
 10
8.0874016629
 20
5.8736354828
 11
8.0854016629
 21
5.8736354828
  0
LINE
  5
789
100
AcDbEntity
  8
0
100
AcDbLine
 62
7
  6
CONTINUOUS
 10
8.0474016629
 20
5.8736354828
 11
8.0454016629
 21
5.8736354828
  0
LINE
  5
78A
100
AcDbEntity
  8
0
100
AcDbLine
 62
7
  6
CONTINUOUS
 10
8.0074016629
 20
5.8736354828
 11
8.0054016629
 21
5.8736354828
  0
LINE
  5
78B
100
AcDbEntity
  8
0
100
AcDbLine
 62
7
  6
CONTINUOUS
 10
7.9674016629
 20
5.8736354828
 11
7.9654016629
 21
5.8736354828
  0
LINE
  5
78C
100
AcDbEntity
  8
0
100
AcDbLine
 62
7
  6
CONTINUOUS
 10
8.9774016629
 20
6.2791354828
 11
8.9924016629
 21
6.2791354828
  0
LINE
  5
78D
100
AcDbEntity
  8
0
100
AcDbLine
 62
7
  6
CONTINUOUS
 10
9.0724016629
 20
6.3071354828
 11
8.9924016629
 21
6.3071354828
  0
LINE
  5
78E
100
AcDbEntity
  8
0
100
AcDbLine
 62
7
  6
CONTINUOUS
 10
8.9774016629
 20
6.3071354828
 11
8.5974016629
 21
6.3071354828
  0
LINE
  5
78F
100
AcDbEntity
  8
AXIS
100
AcDbLine
 62
7
  6
CONTINUOUS
 10
12.525946474
 20
3.5446354828
 11
12.292946474
 21
3.5446354828
  0
LINE
  5
790
100
AcDbEntity
  8
0
100
AcDbLine
 62
7
  6
CONTINUOUS
 10
12.1483139874
 20
4.2976354828
 11
12.6705789605
 21
4.2976354828
  0
LINE
  5
791
100
AcDbEntity
  8
0
100
AcDbLine
 62
7
  6
CONTINUOUS
 10
12.119446474
 20
4.3476354828
 11
12.699446474
 21
4.3476354828
  0
LINE
  5
792
100
AcDbEntity
  8
0
100
AcDbLine
 62
7
  6
CONTINUOUS
 10
12.114446474
 20
4.3976354828
 11
12.704446474
 21
4.3976354828
  0
LINE
  5
793
100
AcDbEntity
  8
0
100
AcDbLine
 62
7
  6
CONTINUOUS
 10
12.1483139874
 20
4.2976354828
 11
12.119446474
 21
4.3476354828
  0
LINE
  5
794
100
AcDbEntity
  8
0
100
AcDbLine
 62
7
  6
CONTINUOUS
 10
12.114446474
 20
4.3976354828
 11
12.114446474
 21
4.7500698586
  0
LINE
  5
795
100
AcDbEntity
  8
0
100
AcDbLine
 62
7
  6
CONTINUOUS
 10
12.119446474
 20
4.3976354828
 11
12.119446474
 21
4.3476354828
  0
LINE
  5
796
100
AcDbEntity
  8
0
100
AcDbLine
 62
7
  6
CONTINUOUS
 10
12.1525418224
 20
4.770459936
 11
12.1525418224
 21
4.7752187649
  0
LINE
  5
797
100
AcDbEntity
  8
AXIS
100
AcDbLine
 62
7
  6
CONTINUOUS
 10
12.292946474
 20
4.2976354828
 11
12.292946474
 21
3.5446354828
  0
LINE
  5
798
100
AcDbEntity
  8
AXIS_COSMETIC_THREADS
100
AcDbLine
 62
7
  6
CONTINUOUS
 10
12.292946474
 20
4.2976354828
 11
12.292946474
 21
3.5446354828
  0
LINE
  5
799
100
AcDbEntity
  8
0
100
AcDbLine
 62
7
  6
CONTINUOUS
 10
12.317446474
 20
5.6746354828
 11
12.317446474
 21
5.5496354828
  0
LWPOLYLINE
  5
79A
100
AcDbEntity
  8
0
100
AcDbPolyline
 62
9
  6
CONTINUOUS
 90
7
 70
0
 10
12.1525418224
 20
4.7752187649
 10
12.1430856746
 20
4.7672594294
 10
12.1338867495
 20
4.7606491756
 10
12.1258125004
 20
4.7557135622
 10
12.1195952924
 20
4.752441243
 10
12.1157348956
 20
4.7506347557
 10
12.114446474
 20
4.7500698586
  0
LWPOLYLINE
  5
79B
100
AcDbEntity
  8
0
100
AcDbPolyline
 62
9
  6
CONTINUOUS
 90
6
 70
0
 10
12.704446474
 20
4.7500698586
 10
12.7031579989
 20
4.7506347772
 10
12.6992974815
 20
4.7524413172
 10
12.6930801573
 20
4.7557136917
 10
12.6850058711
 20
4.7606493209
 10
12.6758070404
 20
4.7672595245
  0
LINE
  5
79C
100
AcDbEntity
  8
0
100
AcDbLine
 62
7
  6
CONTINUOUS
 10
12.502446474
 20
5.5496354828
 11
12.502446474
 21
5.6746354828
  0
LINE
  5
79D
100
AcDbEntity
  8
AXIS
100
AcDbLine
 62
7
  6
CONTINUOUS
 10
12.525946474
 20
4.2976354828
 11
12.525946474
 21
3.5446354828
  0
LINE
  5
79E
100
AcDbEntity
  8
AXIS_COSMETIC_THREADS
100
AcDbLine
 62
7
  6
CONTINUOUS
 10
12.525946474
 20
4.2976354828
 11
12.525946474
 21
3.5446354828
  0
LINE
  5
79F
100
AcDbEntity
  8
0
100
AcDbLine
 62
9
  6
CONTINUOUS
 10
12.6758070404
 20
4.7672595245
 11
12.6663511255
 21
4.7752187649
  0
LINE
  5
7A0
100
AcDbEntity
  8
0
100
AcDbLine
 62
7
  6
CONTINUOUS
 10
12.6663511255
 20
4.770459936
 11
12.6663511255
 21
4.7752187649
  0
LINE
  5
7A1
100
AcDbEntity
  8
0
100
AcDbLine
 62
7
  6
CONTINUOUS
 10
12.699446474
 20
4.3976354828
 11
12.699446474
 21
4.3476354828
  0
LINE
  5
7A2
100
AcDbEntity
  8
0
100
AcDbLine
 62
7
  6
CONTINUOUS
 10
12.704446474
 20
4.3976354828
 11
12.704446474
 21
4.7500698586
  0
LINE
  5
7A3
100
AcDbEntity
  8
0
100
AcDbLine
 62
7
  6
CONTINUOUS
 10
12.699446474
 20
4.3476354828
 11
12.6705789605
 21
4.2976354828
  0
LINE
  5
7A4
100
AcDbEntity
  8
0
100
AcDbLine
 62
9
  6
CONTINUOUS
 10
11.681946474
 20
5.5196354828
 11
11.621946474
 21
5.5196354828
  0
LINE
  5
7A5
100
AcDbEntity
  8
0
100
AcDbLine
 62
7
  6
CONTINUOUS
 10
12.347446474
 20
5.5196354828
 11
12.472446474
 21
5.5196354828
  0
LINE
  5
7A6
100
AcDbEntity
  8
0
100
AcDbLine
 62
9
  6
CONTINUOUS
 10
13.136946474
 20
5.5196354828
 11
13.196946474
 21
5.5196354828
  0
LWPOLYLINE
  5
7A7
100
AcDbEntity
  8
0
100
AcDbPolyline
 62
9
  6
CONTINUOUS
 90
26
 70
0
 10
13.136946474
 20
5.5196354828
 10
13.1302386744
 20
5.423616486
 10
13.1106947058
 20
5.3297245158
 10
13.0790518128
 20
5.2388462201
 10
13.0359890921
 20
5.1519143368
 10
12.9822848148
 20
5.0699410145
 10
12.9189414814
 20
4.9939523179
 10
12.8472433258
 20
4.9248622791
 10
12.7692947015
 20
4.8637300754
 10
12.6879373524
 20
4.8121409958
 10
12.6055449182
 20
4.7727948259
 10
12.5252112814
 20
4.7472068944
 10
12.4476713922
 20
4.7347100919
 10
12.3712215558
 20
4.7347100919
 10
12.2936816665
 20
4.7472068944
 10
12.2133480297
 20
4.7727948259
 10
12.1309555955
 20
4.8121409958
 10
12.0495982464
 20
4.8637300755
 10
11.971649622
 20
4.9248622792
 10
11.8999514665
 20
4.993952318
 10
11.8366081331
 20
5.0699410146
 10
11.7829038558
 20
5.1519143369
 10
11.739841135
 20
5.2388462201
 10
11.7081982421
 20
5.3297245158
 10
11.6886542735
 20
5.423616486
 10
11.681946474
 20
5.5196354828
  0
LINE
  5
7A8
100
AcDbEntity
  8
0
100
AcDbLine
 62
7
  6
CONTINUOUS
 10
12.472446474
 20
5.7046354828
 11
12.347446474
 21
5.7046354828
  0
LINE
  5
7A9
100
AcDbEntity
  8
0
100
AcDbLine
 62
7
  6
CONTINUOUS
 10
3.5661173761
 20
9.1146618281
 11
3.5661173761
 21
9.0346618281
  0
LINE
  5
7AA
100
AcDbEntity
  8
0
100
AcDbLine
 62
7
  6
CONTINUOUS
 10
3.5661173761
 20
9.0196618281
 11
3.5661173761
 21
8.6396618281
  0
LINE
  5
7AB
100
AcDbEntity
  8
0
100
AcDbLine
 62
7
  6
CONTINUOUS
 10
3.5941173761
 20
9.0196618281
 11
3.5941173761
 21
9.0346618281
  0
LWPOLYLINE
  5
7AC
100
AcDbEntity
  8
0
100
AcDbPolyline
 62
7
  6
CONTINUOUS
 90
18
 70
0
 10
4.7075700768
 20
8.0175577581
 10
4.702152747
 20
8.0165417866
 10
4.6859274479
 20
8.0154217387
 10
4.6594428946
 20
8.0143017077
 10
4.6235163154
 20
8.0131816694
 10
4.5792546543
 20
8.0120615757
 10
4.5280249936
 20
8.010941459
 10
4.4714118868
 20
8.0098213779
 10
4.4111644117
 20
8.0087013447
 10
4.3491395023
 20
8.0075812976
 10
4.2872514273
 20
8.0064612246
 10
4.2274135152
 20
8.0053411726
 10
4.1714707454
 20
8.0042210933
 10
4.1211507171
 20
8.0031009863
 10
4.0780094319
 20
8.0019809029
 10
4.0433786278
 20
8.0008608505
 10
4.0183253387
 20
7.9997407499
 10
4.0036247189
 20
7.9986206375
  0
LWPOLYLINE
  5
7AD
100
AcDbEntity
  8
0
100
AcDbPolyline
 62
7
  6
CONTINUOUS
 90
3
 70
0
 10
4.70567765
 20
8.0189950793
 10
4.6998826308
 20
8.0183285816
 10
4.6902913829
 20
8.0176618281
  0
LINE
  5
7AE
100
AcDbEntity
  8
0
100
AcDbLine
 62
7
  6
CONTINUOUS
 10
3.9996646754
 20
7.9975577581
 11
4.0068418146
 21
7.9896618281
  0
LINE
  5
7AF
100
AcDbEntity
  8
0
100
AcDbLine
 62
7
  6
CONTINUOUS
 10
3.9996646754
 20
8.0375577581
 11
4.0146667674
 21
8.0210531541
  0
LINE
  5
7B0
100
AcDbEntity
  8
0
100
AcDbLine
 62
7
  6
CONTINUOUS
 10
3.9996646754
 20
8.0775577581
 11
4.0146667674
 21
8.0610531541
  0
LINE
  5
7B1
100
AcDbEntity
  8
0
100
AcDbLine
 62
7
  6
CONTINUOUS
 10
4.7076173761
 20
8.0996618281
 11
4.7023480102
 21
8.0985620303
  0
LINE
  5
7B2
100
AcDbEntity
  8
0
100
AcDbLine
 62
7
  6
CONTINUOUS
 10
4.7076173761
 20
8.0596618281
 11
4.7023305614
 21
8.0585602063
  0
LINE
  5
7B3
100
AcDbEntity
  8
0
100
AcDbLine
 62
7
  6
CONTINUOUS
 10
4.6863989781
 20
8.0799405891
 11
4.6925679848
 21
8.0810531541
  0
LWPOLYLINE
  5
7B4
100
AcDbEntity
  8
0
100
AcDbPolyline
 62
7
  6
CONTINUOUS
 90
3
 70
0
 10
4.6760255351
 20
8.0341618281
 10
4.689476629
 20
8.0352945714
 10
4.6926173761
 20
8.0361618281
  0
LWPOLYLINE
  5
7B5
100
AcDbEntity
  8
0
100
AcDbPolyline
 62
7
  6
CONTINUOUS
 90
3
 70
0
 10
4.6760255351
 20
8.0391618281
 10
4.689476629
 20
8.0402945714
 10
4.6925679848
 20
8.0410531541
  0
LWPOLYLINE
  5
7B6
100
AcDbEntity
  8
0
100
AcDbPolyline
 62
7
  6
CONTINUOUS
 90
9
 70
0
 10
4.7023305614
 20
8.0585602063
 10
4.6866313017
 20
8.057458758
 10
4.6608369653
 20
8.0563518251
 10
4.6259082555
 20
8.0552485619
 10
4.5821798563
 20
8.0541301539
 10
4.5310895255
 20
8.0530049703
 10
4.4750108998
 20
8.0518901447
 10
4.4159390548
 20
8.0507884685
 10
4.2922159811
 20
8.0485519963
  0
LWPOLYLINE
  5
7B7
100
AcDbEntity
  8
0
100
AcDbPolyline
 62
7
  6
CONTINUOUS
 90
4
 70
0
 10
4.6902913829
 20
8.0556618281
 10
4.6998826308
 20
8.0563285816
 10
4.70567765
 20
8.0569950793
 10
4.7075700768
 20
8.0575577581
  0
LWPOLYLINE
  5
7B8
100
AcDbEntity
  8
0
100
AcDbPolyline
 62
7
  6
CONTINUOUS
 90
7
 70
0
 10
4.5307443896
 20
7.9896618281
 10
4.5783009586
 20
7.9907743281
 10
4.6190135963
 20
7.9918868281
 10
4.6516421831
 20
7.9929993281
 10
4.6751928421
 20
7.9941118281
 10
4.688948213
 20
7.9952243281
 10
4.6926173761
 20
7.9961618281
  0
LWPOLYLINE
  5
7B9
100
AcDbEntity
  8
0
100
AcDbPolyline
 62
7
  6
CONTINUOUS
 90
12
 70
0
 10
4.2744793978
 20
7.9896618281
 10
4.3336601737
 20
7.9907868281
 10
4.3934625539
 20
7.9919118281
 10
4.4520238817
 20
7.9930368281
 10
4.5075201555
 20
7.9941618281
 10
4.5582228404
 20
7.9952868281
 10
4.6025527068
 20
7.9964118281
 10
4.6391290183
 20
7.9975368281
 10
4.6668125376
 20
7.9986618281
 10
4.6847410099
 20
7.9997868281
 10
4.6923560194
 20
8.0009118281
 10
4.6925679848
 20
8.0010531541
  0
LWPOLYLINE
  5
7BA
100
AcDbEntity
  8
0
100
AcDbPolyline
 62
7
  6
CONTINUOUS
 90
9
 70
0
 10
4.2922159811
 20
8.0485519963
 10
4.2328642375
 20
8.047445767
 10
4.1769888751
 20
8.0463362065
 10
4.1263298327
 20
8.0452234678
 10
4.0829867471
 20
8.0441216131
 10
4.047701327
 20
8.0430187144
 10
4.021238432
 20
8.0418983211
 10
4.0050009946
 20
8.0407735152
 10
3.9996646754
 20
8.0397658981
  0
LINE
  5
7BB
100
AcDbEntity
  8
0
100
AcDbLine
 62
7
  6
CONTINUOUS
 10
4.6985712724
 20
7.9896618281
 11
4.0068435239
 21
7.9896618281
  0
LINE
  5
7BC
100
AcDbEntity
  8
0
100
AcDbLine
 62
7
  6
CONTINUOUS
 10
3.9996646754
 20
8.1175577581
 11
4.0146667674
 21
8.1010531541
  0
LINE
  5
7BD
100
AcDbEntity
  8
0
100
AcDbLine
 62
7
  6
CONTINUOUS
 10
3.9996646754
 20
8.1575577581
 11
4.0146667674
 21
8.1410531541
  0
LINE
  5
7BE
100
AcDbEntity
  8
0
100
AcDbLine
 62
7
  6
CONTINUOUS
 10
3.9996173761
 20
7.9976618138
 11
3.9996646754
 21
7.9975577581
  0
LINE
  5
7BF
100
AcDbEntity
  8
0
100
AcDbLine
 62
7
  6
CONTINUOUS
 10
4.6899678326
 20
8.1603653679
 11
4.6925679848
 21
8.1610531541
  0
LINE
  5
7C0
100
AcDbEntity
  8
0
100
AcDbLine
 62
7
  6
CONTINUOUS
 10
4.0036247189
 20
7.9986206375
 11
3.9996173761
 21
7.9976618138
  0
LWPOLYLINE
  5
7C1
100
AcDbEntity
  8
0
100
AcDbPolyline
 62
7
  6
CONTINUOUS
 90
17
 70
0
 10
4.0146173761
 20
8.0211618281
 10
4.0198967695
 20
8.0222868281
 10
4.0355705132
 20
8.0234118281
 10
4.0611504193
 20
8.0245368281
 10
4.0958397538
 20
8.0256618281
 10
4.1385580528
 20
8.0267868281
 10
4.1879747752
 20
8.0279118281
 10
4.2425507452
 20
8.0290368281
 10
4.3005860925
 20
8.0301618281
 10
4.3602731979
 20
8.0312868281
 10
4.4197529953
 20
8.0324118281
 10
4.4771728756
 20
8.0335368281
 10
4.5307443896
 20
8.0346618281
 10
4.5787989526
 20
8.0357868281
 10
4.6198398157
 20
8.0369118281
 10
4.6525886847
 20
8.0380368281
 10
4.6760255351
 20
8.0391618281
  0
LINE
  5
7C2
100
AcDbEntity
  8
0
100
AcDbLine
 62
7
  6
CONTINUOUS
 10
4.7076173761
 20
8.1396618281
 11
4.7023355048
 21
8.1385607227
  0
LINE
  5
7C3
100
AcDbEntity
  8
0
100
AcDbLine
 62
7
  6
CONTINUOUS
 10
4.7076173761
 20
8.1796618281
 11
4.7023069913
 21
8.1785577472
  0
LWPOLYLINE
  5
7C4
100
AcDbEntity
  8
0
100
AcDbPolyline
 62
7
  6
CONTINUOUS
 90
17
 70
0
 10
3.9996646754
 20
7.9997658981
 10
4.0058698139
 20
8.0008601113
 10
4.0228340818
 20
8.001980271
 10
4.0500125114
 20
8.0031004145
 10
4.0865636728
 20
8.0042204937
 10
4.1313609558
 20
8.0053405879
 10
4.1830225779
 20
8.0064607199
 10
4.2399505728
 20
8.0075808261
 10
4.3003877257
 20
8.0087009224
 10
4.3624705026
 20
8.0098210559
 10
4.4242784316
 20
8.0109411623
 10
4.4839027301
 20
8.0120612336
 10
4.5395074592
 20
8.0131813688
 10
4.5893734858
 20
8.0143015366
 10
4.6319579089
 20
8.0154216659
 10
4.6659463445
 20
8.0165417469
 10
4.6902913829
 20
8.0176618281
  0
LWPOLYLINE
  5
7C5
100
AcDbEntity
  8
0
100
AcDbPolyline
 62
7
  6
CONTINUOUS
 90
17
 70
0
 10
4.0146667674
 20
8.0162705021
 10
4.0217964634
 20
8.0174743281
 10
4.0389156422
 20
8.0185868281
 10
4.0656207332
 20
8.0196993281
 10
4.1010982909
 20
8.0208118281
 10
4.1442676581
 20
8.0219243281
 10
4.1938138823
 20
8.0230368281
 10
4.2482277704
 20
8.0241493281
 10
4.3058518585
 20
8.0252618281
 10
4.364930899
 20
8.0263743281
 10
4.4236653261
 20
8.0274868281
 10
4.480266071
 20
8.0285993281
 10
4.5330090574
 20
8.0297118281
 10
4.5802877179
 20
8.0308243281
 10
4.6206619296
 20
8.0319368281
 10
4.6529018816
 20
8.0330493281
 10
4.6760255351
 20
8.0341618281
  0
LWPOLYLINE
  5
7C6
100
AcDbEntity
  8
0
100
AcDbPolyline
 62
7
  6
CONTINUOUS
 90
18
 70
0
 10
4.0164093555
 20
8.0568166953
 10
4.0278943732
 20
8.0579494387
 10
4.0496644109
 20
8.0590821821
 10
4.0810320586
 20
8.0602149254
 10
4.1210068522
 20
8.0613476688
 10
4.168326549
 20
8.0624804122
 10
4.2214969836
 20
8.0636131555
 10
4.2788392477
 20
8.0647458989
 10
4.3385427039
 20
8.0658786422
 10
4.3987221575
 20
8.0670113856
 10
4.4574773839
 20
8.068144129
 10
4.5129531296
 20
8.0692768723
 10
4.5633976943
 20
8.0704096157
 10
4.6072182417
 20
8.0715423591
 10
4.6430310957
 20
8.0726751024
 10
4.6697054305
 20
8.0738078458
 10
4.6863989781
 20
8.0749405891
 10
4.6926173761
 20
8.0761618281
  0
LWPOLYLINE
  5
7C7
100
AcDbEntity
  8
0
100
AcDbPolyline
 62
7
  6
CONTINUOUS
 90
8
 70
0
 10
4.7023480102
 20
8.0985620303
 10
4.6865959222
 20
8.097456883
 10
4.6606863188
 20
8.0963463762
 10
4.6257103764
 20
8.0952429961
 10
4.5819977115
 20
8.0941258656
 10
4.5309940357
 20
8.0930029858
 10
4.4750732502
 20
8.0918913384
 10
4.4157565019
 20
8.0907851336
  0
LWPOLYLINE
  5
7C8
100
AcDbEntity
  8
0
100
AcDbPolyline
 62
7
  6
CONTINUOUS
 90
8
 70
0
 10
4.7023355048
 20
8.1385607227
 10
4.6864119509
 20
8.1374471575
 10
4.6602932551
 20
8.1363321971
 10
4.6251756557
 20
8.135227985
 10
4.5814741652
 20
8.134113553
 10
4.5307145602
 20
8.1329971797
 10
4.475205435
 20
8.1318938694
 10
4.4158636066
 20
8.1307870902
  0
LWPOLYLINE
  5
7C9
100
AcDbEntity
  8
0
100
AcDbPolyline
 62
7
  6
CONTINUOUS
 90
8
 70
0
 10
4.0050009946
 20
8.0787735152
 10
4.021238432
 20
8.0798983211
 10
4.047701327
 20
8.0810187144
 10
4.0829867471
 20
8.0821216131
 10
4.1263298327
 20
8.0832234678
 10
4.1769888751
 20
8.0843362065
 10
4.2328642375
 20
8.085445767
 10
4.2922159811
 20
8.0865519963
  0
LWPOLYLINE
  5
7CA
100
AcDbEntity
  8
0
100
AcDbPolyline
 62
7
  6
CONTINUOUS
 90
16
 70
0
 10
4.00513
 20
8.0387867901
 10
4.0217515111
 20
8.0399249818
 10
4.0488132953
 20
8.041058244
 10
4.0848547028
 20
8.0421734744
 10
4.1293058058
 20
8.0432929594
 10
4.1811832153
 20
8.0444229068
 10
4.2381037436
 20
8.0455457235
 10
4.2984557397
 20
8.0466657638
 10
4.3610723005
 20
8.0477959044
 10
4.423054509
 20
8.0489187077
 10
4.4823875169
 20
8.0500319542
 10
4.5386104668
 20
8.0511624313
 10
4.5893521811
 20
8.052301023
 10
4.6322313788
 20
8.0534296317
 10
4.6660493088
 20
8.0545456829
 10
4.6902913829
 20
8.0556618281
  0
LWPOLYLINE
  5
7CB
100
AcDbEntity
  8
0
100
AcDbPolyline
 62
7
  6
CONTINUOUS
 90
10
 70
0
 10
4.2922159811
 20
8.0865519963
 10
4.4159390548
 20
8.0887884685
 10
4.4750108998
 20
8.0898901447
 10
4.5310895255
 20
8.0910049703
 10
4.5821798563
 20
8.0921301539
 10
4.6259082555
 20
8.0932485619
 10
4.6608369653
 20
8.0943518251
 10
4.6866313017
 20
8.095458758
 10
4.7023305614
 20
8.0965602063
 10
4.7075700768
 20
8.0975577581
  0
LWPOLYLINE
  5
7CC
100
AcDbEntity
  8
0
100
AcDbPolyline
 62
7
  6
CONTINUOUS
 90
10
 70
0
 10
4.4157565019
 20
8.0907851336
 10
4.2915409149
 20
8.0885396672
 10
4.2322064936
 20
8.0874331791
 10
4.1765199469
 20
8.0863264714
 10
4.1262009211
 20
8.0852204433
 10
4.0829370025
 20
8.0841202252
 10
4.0476656622
 20
8.0830174396
 10
4.0212218739
 20
8.0818974556
 10
4.0049968336
 20
8.0807730844
 10
3.9996646754
 20
8.0797658981
  0
LINE
  5
7CD
100
AcDbEntity
  8
0
100
AcDbLine
 62
7
  6
CONTINUOUS
 10
3.9996646754
 20
8.1975577581
 11
4.0146667674
 21
8.1810531541
  0
LINE
  5
7CE
100
AcDbEntity
  8
0
100
AcDbLine
 62
7
  6
CONTINUOUS
 10
3.9996646754
 20
8.2375577581
 11
4.0146667674
 21
8.2210531541
  0
LINE
  5
7CF
100
AcDbEntity
  8
0
100
AcDbLine
 62
7
  6
CONTINUOUS
 10
3.9996646754
 20
8.2775577581
 11
4.0146667674
 21
8.2610531541
  0
LINE
  5
7D0
100
AcDbEntity
  8
0
100
AcDbLine
 62
7
  6
CONTINUOUS
 10
4.7076173761
 20
8.2196618281
 11
4.7022391054
 21
8.2185506947
  0
LINE
  5
7D1
100
AcDbEntity
  8
0
100
AcDbLine
 62
7
  6
CONTINUOUS
 10
3.9996173761
 20
8.0776618281
 11
4.0050009946
 21
8.0787735152
  0
LINE
  5
7D2
100
AcDbEntity
  8
0
100
AcDbLine
 62
7
  6
CONTINUOUS
 10
3.9996173761
 20
8.0376618281
 11
4.00513
 21
8.0387867901
  0
LINE
  5
7D3
100
AcDbEntity
  8
0
100
AcDbLine
 62
7
  6
CONTINUOUS
 10
4.6870971474
 20
8.2000113856
 11
4.6925679848
 21
8.2010531541
  0
LWPOLYLINE
  5
7D4
100
AcDbEntity
  8
0
100
AcDbPolyline
 62
7
  6
CONTINUOUS
 90
19
 70
0
 10
4.0149959316
 20
8.096462713
 10
4.0231768384
 20
8.0975954564
 10
4.041791726
 20
8.0987281998
 10
4.0702528113
 20
8.0998609431
 10
4.1076614077
 20
8.1009936865
 10
4.1528363026
 20
8.1021264299
 10
4.2043510548
 20
8.1032591732
 10
4.2605790361
 20
8.1043919166
 10
4.3197447932
 20
8.1055246599
 10
4.37998011
 20
8.1066574033
 10
4.439382998
 20
8.1077901467
 10
4.4960777531
 20
8.10892289
 10
4.5482741835
 20
8.1100556334
 10
4.5943241363
 20
8.1111883768
 10
4.6327735394
 20
8.1123211201
 10
4.6624083157
 20
8.1134538635
 10
4.6822927183
 20
8.1145866068
 10
4.6917988779
 20
8.1157193502
 10
4.6926173761
 20
8.1161618281
  0
LWPOLYLINE
  5
7D5
100
AcDbEntity
  8
0
100
AcDbPolyline
 62
7
  6
CONTINUOUS
 90
8
 70
0
 10
4.7023069913
 20
8.1785577472
 10
4.6862659994
 20
8.177439471
 10
4.6600168554
 20
8.1763222592
 10
4.6248204557
 20
8.1752180369
 10
4.5811421189
 20
8.1741057544
 10
4.5305531026
 20
8.1729938268
 10
4.4751775742
 20
8.1718933359
 10
4.4158347208
 20
8.1707865625
  0
LWPOLYLINE
  5
7D6
100
AcDbEntity
  8
0
100
AcDbPolyline
 62
7
  6
CONTINUOUS
 90
8
 70
0
 10
4.0049968336
 20
8.1187730844
 10
4.0212218739
 20
8.1198974556
 10
4.0476656622
 20
8.1210174396
 10
4.0829370025
 20
8.1221202252
 10
4.1262009211
 20
8.1232204433
 10
4.1765199469
 20
8.1243264714
 10
4.2322064936
 20
8.1254331791
 10
4.2915409149
 20
8.1265396672
  0
LWPOLYLINE
  5
7D7
100
AcDbEntity
  8
0
100
AcDbPolyline
 62
7
  6
CONTINUOUS
 90
10
 70
0
 10
4.2915409149
 20
8.1265396672
 10
4.4157565019
 20
8.1287851336
 10
4.4750732502
 20
8.1298913384
 10
4.5309940357
 20
8.1310029858
 10
4.5819977115
 20
8.1321258656
 10
4.6257103764
 20
8.1332429961
 10
4.6606863188
 20
8.1343463762
 10
4.6865959222
 20
8.135456883
 10
4.7023480102
 20
8.1365620303
 10
4.7075700768
 20
8.1375577581
  0
LWPOLYLINE
  5
7D8
100
AcDbEntity
  8
0
100
AcDbPolyline
 62
7
  6
CONTINUOUS
 90
10
 70
0
 10
4.4158636066
 20
8.1307870902
 10
4.2915822551
 20
8.1285404224
 10
4.2322177967
 20
8.1274333955
 10
4.1766244228
 20
8.1263286411
 10
4.126472289
 20
8.1252268087
 10
4.083035771
 20
8.1241229806
 10
4.047715978
 20
8.123019238
 10
4.0212449956
 20
8.1218986641
 10
4.0050026482
 20
8.1207736863
 10
3.9996646754
 20
8.1197658981
  0
LWPOLYLINE
  5
7D9
100
AcDbEntity
  8
0
100
AcDbPolyline
 62
7
  6
CONTINUOUS
 90
10
 70
0
 10
4.2915822551
 20
8.1665404224
 10
4.4158636066
 20
8.1687870902
 10
4.475205435
 20
8.1698938694
 10
4.5307145602
 20
8.1709971797
 10
4.5814741652
 20
8.172113553
 10
4.6251756557
 20
8.173227985
 10
4.6602932551
 20
8.1743321971
 10
4.6864119509
 20
8.1754471575
 10
4.7023355048
 20
8.1765607227
 10
4.7075700768
 20
8.1775577581
  0
LWPOLYLINE
  5
7DA
100
AcDbEntity
  8
0
100
AcDbPolyline
 62
7
  6
CONTINUOUS
 90
10
 70
0
 10
4.4158347208
 20
8.1707865625
 10
4.2915633594
 20
8.1685400772
 10
4.2322068002
 20
8.167433185
 10
4.1766949403
 20
8.1663301053
 10
4.1265508815
 20
8.1652286512
 10
4.0830315664
 20
8.1641228633
 10
4.0477084398
 20
8.1630189686
 10
4.021241478
 20
8.1618984803
 10
4.0050017651
 20
8.1607735949
 10
3.9996646754
 20
8.1597658981
  0
LINE
  5
7DB
100
AcDbEntity
  8
0
100
AcDbLine
 62
7
  6
CONTINUOUS
 10
3.9996646754
 20
8.3175577581
 11
4.0146667674
 21
8.3010531541
  0
LINE
  5
7DC
100
AcDbEntity
  8
0
100
AcDbLine
 62
7
  6
CONTINUOUS
 10
3.9996646754
 20
8.3575577581
 11
4.0146667674
 21
8.3410531541
  0
LINE
  5
7DD
100
AcDbEntity
  8
0
100
AcDbLine
 62
7
  6
CONTINUOUS
 10
3.9996173761
 20
8.5196618281
 11
3.9996173761
 21
8.5176618281
  0
LINE
  5
7DE
100
AcDbEntity
  8
0
100
AcDbLine
 62
7
  6
CONTINUOUS
 10
3.9996173761
 20
8.4796618281
 11
3.9996173761
 21
8.4776618281
  0
LINE
  5
7DF
100
AcDbEntity
  8
0
100
AcDbLine
 62
7
  6
CONTINUOUS
 10
3.9996173761
 20
8.4396618281
 11
3.9996173761
 21
8.4376618281
  0
LINE
  5
7E0
100
AcDbEntity
  8
0
100
AcDbLine
 62
7
  6
CONTINUOUS
 10
3.9996173761
 20
8.3996618281
 11
3.9996173761
 21
8.3976618281
  0
LINE
  5
7E1
100
AcDbEntity
  8
0
100
AcDbLine
 62
7
  6
CONTINUOUS
 10
3.9996173761
 20
8.3596618281
 11
3.9996173761
 21
8.3576618281
  0
LINE
  5
7E2
100
AcDbEntity
  8
0
100
AcDbLine
 62
7
  6
CONTINUOUS
 10
3.9996173761
 20
8.3196618281
 11
3.9996173761
 21
8.3176618281
  0
LINE
  5
7E3
100
AcDbEntity
  8
0
100
AcDbLine
 62
7
  6
CONTINUOUS
 10
3.9996173761
 20
8.2796618281
 11
3.9996173761
 21
8.2776618281
  0
LINE
  5
7E4
100
AcDbEntity
  8
0
100
AcDbLine
 62
7
  6
CONTINUOUS
 10
3.9996173761
 20
8.2396618281
 11
3.9996173761
 21
8.2376618281
  0
LINE
  5
7E5
100
AcDbEntity
  8
0
100
AcDbLine
 62
7
  6
CONTINUOUS
 10
3.9996173761
 20
8.1996618281
 11
3.9996173761
 21
8.1976618281
  0
LINE
  5
7E6
100
AcDbEntity
  8
0
100
AcDbLine
 62
7
  6
CONTINUOUS
 10
3.9996173761
 20
8.1596618281
 11
3.9996173761
 21
8.1576618281
  0
LINE
  5
7E7
100
AcDbEntity
  8
0
100
AcDbLine
 62
7
  6
CONTINUOUS
 10
3.9996173761
 20
8.1196618281
 11
3.9996173761
 21
8.1176618281
  0
LINE
  5
7E8
100
AcDbEntity
  8
0
100
AcDbLine
 62
7
  6
CONTINUOUS
 10
3.9996173761
 20
8.0796618281
 11
3.9996173761
 21
8.0776618281
  0
LINE
  5
7E9
100
AcDbEntity
  8
0
100
AcDbLine
 62
7
  6
CONTINUOUS
 10
3.9996173761
 20
8.0396618281
 11
3.9996173761
 21
8.0376618281
  0
LINE
  5
7EA
100
AcDbEntity
  8
0
100
AcDbLine
 62
7
  6
CONTINUOUS
 10
3.9996173761
 20
7.9996618281
 11
3.9996173761
 21
7.9976618281
  0
LINE
  5
7EB
100
AcDbEntity
  8
0
100
AcDbLine
 62
7
  6
CONTINUOUS
 10
4.0146173761
 20
8.5011618281
 11
4.0146173761
 21
8.4961618281
  0
LINE
  5
7EC
100
AcDbEntity
  8
0
100
AcDbLine
 62
7
  6
CONTINUOUS
 10
4.0146173761
 20
8.4611618281
 11
4.0146173761
 21
8.4561618281
  0
LINE
  5
7ED
100
AcDbEntity
  8
0
100
AcDbLine
 62
7
  6
CONTINUOUS
 10
4.0146173761
 20
8.4211618281
 11
4.0146173761
 21
8.4161618281
  0
LINE
  5
7EE
100
AcDbEntity
  8
0
100
AcDbLine
 62
7
  6
CONTINUOUS
 10
4.0146173761
 20
8.3811618281
 11
4.0146173761
 21
8.3761618281
  0
LINE
  5
7EF
100
AcDbEntity
  8
0
100
AcDbLine
 62
7
  6
CONTINUOUS
 10
4.0146173761
 20
8.3411618281
 11
4.0146173761
 21
8.3361618281
  0
LINE
  5
7F0
100
AcDbEntity
  8
0
100
AcDbLine
 62
7
  6
CONTINUOUS
 10
4.0146173761
 20
8.3011618281
 11
4.0146173761
 21
8.2961618281
  0
LINE
  5
7F1
100
AcDbEntity
  8
0
100
AcDbLine
 62
7
  6
CONTINUOUS
 10
4.0146173761
 20
8.2611618281
 11
4.0146173761
 21
8.2561618281
  0
LINE
  5
7F2
100
AcDbEntity
  8
0
100
AcDbLine
 62
7
  6
CONTINUOUS
 10
4.0146173761
 20
8.2211618281
 11
4.0146173761
 21
8.2161618281
  0
LINE
  5
7F3
100
AcDbEntity
  8
0
100
AcDbLine
 62
7
  6
CONTINUOUS
 10
4.0146173761
 20
8.1811618281
 11
4.0146173761
 21
8.1761618281
  0
LINE
  5
7F4
100
AcDbEntity
  8
0
100
AcDbLine
 62
7
  6
CONTINUOUS
 10
4.0146173761
 20
8.1411618281
 11
4.0146173761
 21
8.1361618281
  0
LINE
  5
7F5
100
AcDbEntity
  8
0
100
AcDbLine
 62
7
  6
CONTINUOUS
 10
4.0146173761
 20
8.1011618281
 11
4.0146173761
 21
8.0961618281
  0
LINE
  5
7F6
100
AcDbEntity
  8
0
100
AcDbLine
 62
7
  6
CONTINUOUS
 10
4.0146173761
 20
8.0611618281
 11
4.0146173761
 21
8.0561618281
  0
LINE
  5
7F7
100
AcDbEntity
  8
0
100
AcDbLine
 62
7
  6
CONTINUOUS
 10
4.0146173761
 20
8.0211618281
 11
4.0146173761
 21
8.0161618281
  0
LINE
  5
7F8
100
AcDbEntity
  8
0
100
AcDbLine
 62
7
  6
CONTINUOUS
 10
4.0148673761
 20
8.5671618281
 11
4.0148673761
 21
8.5296618281
  0
LWPOLYLINE
  5
7F9
100
AcDbEntity
  8
0
100
AcDbPolyline
 62
7
  6
CONTINUOUS
 90
18
 70
0
 10
4.0146173761
 20
8.1411618281
 10
4.0194806764
 20
8.1422414741
 10
4.0348828764
 20
8.1433742175
 10
4.0603494276
 20
8.1445069608
 10
4.095076199
 20
8.1456397042
 10
4.137966659
 20
8.1467724476
 10
4.1876664998
 20
8.1479051909
 10
4.2426064006
 20
8.1490379343
 10
4.3010515807
 20
8.1501706776
 10
4.3611565769
 20
8.151303421
 10
4.4210235154
 20
8.1524361644
 10
4.4787620397
 20
8.1535689077
 10
4.5325489997
 20
8.1547016511
 10
4.5806860201
 20
8.1558343945
 10
4.6216531275
 20
8.1569671378
 10
4.6541567459
 20
8.1580998812
 10
4.6771705419
 20
8.1592326245
 10
4.6899678326
 20
8.1603653679
  0
LINE
  5
7FA
100
AcDbEntity
  8
0
100
AcDbLine
 62
7
  6
CONTINUOUS
 10
3.9996173761
 20
8.1176618281
 11
4.0049968336
 21
8.1187730844
  0
LINE
  5
7FB
100
AcDbEntity
  8
0
100
AcDbLine
 62
7
  6
CONTINUOUS
 10
4.7076173761
 20
8.2596618281
 11
4.7022317842
 21
8.2585499367
  0
LINE
  5
7FC
100
AcDbEntity
  8
0
100
AcDbLine
 62
7
  6
CONTINUOUS
 10
4.7076173761
 20
8.2996618281
 11
4.702231384
 21
8.2985498953
  0
LINE
  5
7FD
100
AcDbEntity
  8
0
100
AcDbLine
 62
7
  6
CONTINUOUS
 10
3.9996173761
 20
8.1576618281
 11
4.0050026482
 21
8.1587736863
  0
LWPOLYLINE
  5
7FE
100
AcDbEntity
  8
0
100
AcDbPolyline
 62
7
  6
CONTINUOUS
 90
19
 70
0
 10
4.0146667674
 20
8.1362705021
 10
4.0194806764
 20
8.1372414741
 10
4.0348828764
 20
8.1383742175
 10
4.0603494276
 20
8.1395069608
 10
4.095076199
 20
8.1406397042
 10
4.137966659
 20
8.1417724476
 10
4.1876664998
 20
8.1429051909
 10
4.2426064006
 20
8.1440379343
 10
4.3010515807
 20
8.1451706776
 10
4.3611565769
 20
8.146303421
 10
4.4210235154
 20
8.1474361644
 10
4.4787620397
 20
8.1485689077
 10
4.5325489997
 20
8.1497016511
 10
4.5806860201
 20
8.1508343945
 10
4.6216531275
 20
8.1519671378
 10
4.6541567459
 20
8.1530998812
 10
4.6771705419
 20
8.1542326245
 10
4.6899678326
 20
8.1553653679
 10
4.6926173761
 20
8.1561618281
  0
LWPOLYLINE
  5
7FF
100
AcDbEntity
  8
0
100
AcDbPolyline
 62
7
  6
CONTINUOUS
 90
3
 70
0
 10
4.6831956952
 20
8.2396574033
 10
4.6920397753
 20
8.2407901467
 10
4.6925679848
 20
8.2410531541
  0
LWPOLYLINE
  5
800
100
AcDbEntity
  8
0
100
AcDbPolyline
 62
7
  6
CONTINUOUS
 90
18
 70
0
 10
4.0168173118
 20
8.1768874918
 10
4.0289592168
 20
8.1780202352
 10
4.0513525183
 20
8.1791529785
 10
4.0832901262
 20
8.1802857219
 10
4.1237635794
 20
8.1814184653
 10
4.1714948894
 20
8.1825512086
 10
4.2249768937
 20
8.183683952
 10
4.2825208461
 20
8.1848166953
 10
4.3423097404
 20
8.1859494387
 10
4.4024556844
 20
8.1870821821
 10
4.4610595113
 20
8.1882149254
 10
4.5162707486
 20
8.1893476688
 10
4.5663460477
 20
8.1904804122
 10
4.6097042324
 20
8.1916131555
 10
4.6449762261
 20
8.1927458989
 10
4.6710482812
 20
8.1938786422
 10
4.6870971474
 20
8.1950113856
 10
4.6926173761
 20
8.1961618281
  0
LWPOLYLINE
  5
801
100
AcDbEntity
  8
0
100
AcDbPolyline
 62
7
  6
CONTINUOUS
 90
8
 70
0
 10
4.0050026482
 20
8.1587736863
 10
4.0212449956
 20
8.1598986641
 10
4.047715978
 20
8.161019238
 10
4.083035771
 20
8.1621229806
 10
4.126472289
 20
8.1632268087
 10
4.1766244228
 20
8.1643286411
 10
4.2322177967
 20
8.1654333955
 10
4.2915822551
 20
8.1665404224
  0
LWPOLYLINE
  5
802
100
AcDbEntity
  8
0
100
AcDbPolyline
 62
7
  6
CONTINUOUS
 90
8
 70
0
 10
4.7022391054
 20
8.2185506947
 10
4.6860188698
 20
8.2174265138
 10
4.6595852004
 20
8.2163067925
 10
4.6242916906
 20
8.2152032619
 10
4.5806875615
 20
8.2140950915
 10
4.530410082
 20
8.2129908577
 10
4.4750476717
 20
8.2118908487
 10
4.4157312315
 20
8.210784672
  0
LWPOLYLINE
  5
803
100
AcDbEntity
  8
0
100
AcDbPolyline
 62
7
  6
CONTINUOUS
 90
8
 70
0
 10
4.0050017651
 20
8.1987735949
 10
4.021241478
 20
8.1998984803
 10
4.0477084398
 20
8.2010189686
 10
4.0830315664
 20
8.2021228633
 10
4.1265508815
 20
8.2032286512
 10
4.1766949403
 20
8.2043301053
 10
4.2322068002
 20
8.205433185
 10
4.2915633594
 20
8.2065400772
  0
LWPOLYLINE
  5
804
100
AcDbEntity
  8
0
100
AcDbPolyline
 62
7
  6
CONTINUOUS
 90
8
 70
0
 10
4.7022317842
 20
8.2585499367
 10
4.6859897414
 20
8.2574249913
 10
4.6595221691
 20
8.2563045395
 10
4.6241990769
 20
8.2552006783
 10
4.5806905266
 20
8.254095161
 10
4.5305501301
 20
8.2529937651
 10
4.4750244854
 20
8.2518904048
 10
4.4156619651
 20
8.2507834067
  0
LWPOLYLINE
  5
805
100
AcDbEntity
  8
0
100
AcDbPolyline
 62
7
  6
CONTINUOUS
 90
10
 70
0
 10
4.2915633594
 20
8.2065400772
 10
4.4158347208
 20
8.2087865625
 10
4.4751775742
 20
8.2098933359
 10
4.5305531026
 20
8.2109938268
 10
4.5811421189
 20
8.2121057544
 10
4.6248204557
 20
8.2132180369
 10
4.6600168554
 20
8.2143222592
 10
4.6862659994
 20
8.215439471
 10
4.7023069913
 20
8.2165577472
 10
4.7075700768
 20
8.2175577581
  0
LWPOLYLINE
  5
806
100
AcDbEntity
  8
0
100
AcDbPolyline
 62
7
  6
CONTINUOUS
 90
10
 70
0
 10
4.4157312315
 20
8.210784672
 10
4.2915385396
 20
8.2085396238
 10
4.2322238068
 20
8.2074335106
 10
4.176869963
 20
8.2063337386
 10
4.1265612217
 20
8.2052288936
 10
4.0829438323
 20
8.2041204157
 10
4.0476485404
 20
8.2030168275
 10
4.0212138003
 20
8.2018970335
 10
4.0049948089
 20
8.2007728747
 10
3.9996646754
 20
8.1997658981
  0
LWPOLYLINE
  5
807
100
AcDbEntity
  8
0
100
AcDbPolyline
 62
7
  6
CONTINUOUS
 90
10
 70
0
 10
4.2915385396
 20
8.2465396238
 10
4.4157312315
 20
8.248784672
 10
4.4750476717
 20
8.2498908487
 10
4.530410082
 20
8.2509908577
 10
4.5806875615
 20
8.2520950915
 10
4.6242916906
 20
8.2532032619
 10
4.6595852004
 20
8.2543067925
 10
4.6860188698
 20
8.2554265138
 10
4.7022391054
 20
8.2565506947
 10
4.7075700768
 20
8.2575577581
  0
LINE
  5
808
100
AcDbEntity
  8
0
100
AcDbLine
 62
7
  6
CONTINUOUS
 10
3.9996646754
 20
8.3975577581
 11
4.0146667674
 21
8.3810531541
  0
LINE
  5
809
100
AcDbEntity
  8
0
100
AcDbLine
 62
7
  6
CONTINUOUS
 10
3.9996646754
 20
8.4375577581
 11
4.0146667674
 21
8.4210531541
  0
LINE
  5
80A
100
AcDbEntity
  8
0
100
AcDbLine
 62
7
  6
CONTINUOUS
 10
3.9996646754
 20
8.4775577581
 11
4.0146667674
 21
8.4610531541
  0
LINE
  5
80B
100
AcDbEntity
  8
0
100
AcDbLine
 62
7
  6
CONTINUOUS
 10
3.9996173761
 20
8.5176618437
 11
3.9996646754
 21
8.5175577581
  0
LINE
  5
80C
100
AcDbEntity
  8
0
100
AcDbLine
 62
7
  6
CONTINUOUS
 10
3.9996173761
 20
8.5196618281
 11
3.9996646754
 21
8.5197658981
  0
LINE
  5
80D
100
AcDbEntity
  8
0
100
AcDbLine
 62
7
  6
CONTINUOUS
 10
3.9996646754
 20
8.4797658981
 11
3.9996173761
 21
8.4796618281
  0
LINE
  5
80E
100
AcDbEntity
  8
0
100
AcDbLine
 62
7
  6
CONTINUOUS
 10
3.9996646754
 20
8.4397658981
 11
3.9996173761
 21
8.4396618281
  0
LWPOLYLINE
  5
80F
100
AcDbEntity
  8
0
100
AcDbPolyline
 62
7
  6
CONTINUOUS
 90
19
 70
0
 10
4.0146173761
 20
8.4611618281
 10
4.0146734468
 20
8.4612776176
 10
4.0209951848
 20
8.4623986702
 10
4.0376046733
 20
8.4635197228
 10
4.0639881936
 20
8.4646407755
 10
4.0993297235
 20
8.4657618281
 10
4.1425361765
 20
8.4668828807
 10
4.1922712099
 20
8.4680039333
 10
4.2469965571
 20
8.469124986
 10
4.3050196049
 20
8.4702460386
 10
4.3645457446
 20
8.4713670912
 10
4.4237338783
 20
8.4724881439
 10
4.480753362
 20
8.4736091965
 10
4.5338406268
 20
8.4747302491
 10
4.5813537239
 20
8.4758513018
 10
4.6218231095
 20
8.4769723544
 10
4.6539970965
 20
8.478093407
 10
4.6768805679
 20
8.4792144597
 10
4.6897657555
 20
8.4803355123
  0
LINE
  5
810
100
AcDbEntity
  8
0
100
AcDbLine
 62
7
  6
CONTINUOUS
 10
4.7076173761
 20
8.3396618281
 11
4.7022380108
 21
8.3385505813
  0
LINE
  5
811
100
AcDbEntity
  8
0
100
AcDbLine
 62
7
  6
CONTINUOUS
 10
3.9996173761
 20
8.1976618281
 11
4.0050017651
 21
8.1987735949
  0
LINE
  5
812
100
AcDbEntity
  8
0
100
AcDbLine
 62
7
  6
CONTINUOUS
 10
4.7076173761
 20
8.3796618281
 11
4.7022323896
 21
8.3785499994
  0
LINE
  5
813
100
AcDbEntity
  8
0
100
AcDbLine
 62
7
  6
CONTINUOUS
 10
4.6877540758
 20
8.3200821821
 11
4.6925679848
 21
8.3210531541
  0
LWPOLYLINE
  5
814
100
AcDbEntity
  8
0
100
AcDbPolyline
 62
7
  6
CONTINUOUS
 90
19
 70
0
 10
4.0151949769
 20
8.2165335095
 10
4.024039057
 20
8.2176662529
 10
4.0432898924
 20
8.2187989962
 10
4.0723396194
 20
8.2199317396
 10
4.1102709647
 20
8.221064483
 10
4.1558862091
 20
8.2221972263
 10
4.2077450071
 20
8.2233299697
 10
4.2642098667
 20
8.224462713
 10
4.3234978553
 20
8.2255954564
 10
4.3837368969
 20
8.2267281998
 10
4.4430248855
 20
8.2278609431
 10
4.4994897451
 20
8.2289936865
 10
4.5513485431
 20
8.2301264299
 10
4.5969637875
 20
8.2312591732
 10
4.6348951328
 20
8.2323919166
 10
4.6639448598
 20
8.2335246599
 10
4.6831956952
 20
8.2346574033
 10
4.6920397753
 20
8.2357901467
 10
4.6926173761
 20
8.2361618281
  0
LWPOLYLINE
  5
815
100
AcDbEntity
  8
0
100
AcDbPolyline
 62
7
  6
CONTINUOUS
 90
8
 70
0
 10
4.0049218113
 20
8.2787652887
 10
4.0209439346
 20
8.2798828799
 10
4.0471747303
 20
8.2809998467
 10
4.0823598709
 20
8.2821040962
 10
4.1260409672
 20
8.2832166888
 10
4.1766570181
 20
8.2843293179
 10
4.2320465757
 20
8.2854301173
 10
4.2913865187
 20
8.2865368468
  0
LWPOLYLINE
  5
816
100
AcDbEntity
  8
0
100
AcDbPolyline
 62
7
  6
CONTINUOUS
 90
8
 70
0
 10
4.0049948089
 20
8.2387728747
 10
4.0212138003
 20
8.2398970335
 10
4.0476485404
 20
8.2410168275
 10
4.0829438323
 20
8.2421204157
 10
4.1265612217
 20
8.2432288936
 10
4.176869963
 20
8.2443337386
 10
4.2322238068
 20
8.2454335106
 10
4.2915385396
 20
8.2465396238
  0
LWPOLYLINE
  5
817
100
AcDbEntity
  8
0
100
AcDbPolyline
 62
7
  6
CONTINUOUS
 90
8
 70
0
 10
4.702231384
 20
8.2985498953
 10
4.6859881436
 20
8.2974249078
 10
4.6595188046
 20
8.2963044192
 10
4.6242022198
 20
8.2952007659
 10
4.5807795241
 20
8.2940972475
 10
4.5306194624
 20
8.2929952047
 10
4.4750149879
 20
8.291890223
 10
4.4156476461
 20
8.2907831452
  0
LWPOLYLINE
  5
818
100
AcDbEntity
  8
0
100
AcDbPolyline
 62
7
  6
CONTINUOUS
 90
8
 70
0
 10
4.7022380108
 20
8.3385505813
 10
4.6860144916
 20
8.3374262849
 10
4.6595761376
 20
8.3363064685
 10
4.6243131458
 20
8.3352038607
 10
4.5810608278
 20
8.3341038464
 10
4.5307224251
 20
8.332997343
 10
4.4750298227
 20
8.331890507
 10
4.4156977335
 20
8.3307840601
  0
LWPOLYLINE
  5
819
100
AcDbEntity
  8
0
100
AcDbPolyline
 62
7
  6
CONTINUOUS
 90
10
 70
0
 10
4.4156619651
 20
8.2507834067
 10
4.2913865187
 20
8.2485368468
 10
4.2320465757
 20
8.2474301173
 10
4.1766570181
 20
8.2463293179
 10
4.1260409672
 20
8.2452166888
 10
4.0823598709
 20
8.2441040962
 10
4.0471747303
 20
8.2429998467
 10
4.0209439346
 20
8.2418828799
 10
4.0049218113
 20
8.2407652887
 10
3.9996646754
 20
8.2397658981
  0
LWPOLYLINE
  5
81A
100
AcDbEntity
  8
0
100
AcDbPolyline
 62
7
  6
CONTINUOUS
 90
10
 70
0
 10
4.2913865187
 20
8.2865368468
 10
4.4156619651
 20
8.2887834067
 10
4.4750244854
 20
8.2898904048
 10
4.5305501301
 20
8.2909937651
 10
4.5806905266
 20
8.292095161
 10
4.6241990769
 20
8.2932006783
 10
4.6595221691
 20
8.2943045395
 10
4.6859897414
 20
8.2954249913
 10
4.7022317842
 20
8.2965499367
 10
4.7075700768
 20
8.2975577581
  0
LWPOLYLINE
  5
81B
100
AcDbEntity
  8
0
100
AcDbPolyline
 62
7
  6
CONTINUOUS
 90
10
 70
0
 10
4.4156476461
 20
8.2907831452
 10
4.291367685
 20
8.2885365028
 10
4.2320303992
 20
8.2874298075
 10
4.1764929094
 20
8.2863259098
 10
4.1257087102
 20
8.2852088841
 10
4.0820069394
 20
8.2840942089
 10
4.0469020189
 20
8.2829900374
 10
4.0208017844
 20
8.2818753897
 10
4.004895785
 20
8.2807625716
 10
3.9996646754
 20
8.2797658981
  0
LINE
  5
81C
100
AcDbEntity
  8
0
100
AcDbLine
 62
7
  6
CONTINUOUS
 10
3.9996646754
 20
8.5175577581
 11
4.0146667674
 21
8.5010531541
  0
LINE
  5
81D
100
AcDbEntity
  8
0
100
AcDbLine
 62
7
  6
CONTINUOUS
 10
3.9996646754
 20
8.3997658981
 11
3.9996173761
 21
8.3996618281
  0
LINE
  5
81E
100
AcDbEntity
  8
0
100
AcDbLine
 62
7
  6
CONTINUOUS
 10
3.9996646754
 20
8.3597658981
 11
3.9996173761
 21
8.3596618281
  0
LINE
  5
81F
100
AcDbEntity
  8
0
100
AcDbLine
 62
7
  6
CONTINUOUS
 10
3.9996646754
 20
8.3197658981
 11
3.9996173761
 21
8.3196618281
  0
LINE
  5
820
100
AcDbEntity
  8
0
100
AcDbLine
 62
7
  6
CONTINUOUS
 10
3.9996646754
 20
8.2797658981
 11
3.9996173761
 21
8.2796618281
  0
LINE
  5
821
100
AcDbEntity
  8
0
100
AcDbLine
 62
7
  6
CONTINUOUS
 10
4.008659742
 20
8.5296618281
 11
3.9996646754
 21
8.5197658981
  0
LINE
  5
822
100
AcDbEntity
  8
0
100
AcDbLine
 62
7
  6
CONTINUOUS
 10
4.0146667674
 20
8.4962705021
 11
3.9996646754
 21
8.4797658981
  0
LWPOLYLINE
  5
823
100
AcDbEntity
  8
0
100
AcDbPolyline
 62
7
  6
CONTINUOUS
 90
18
 70
0
 10
4.0146173761
 20
8.2611618281
 10
4.0201376049
 20
8.2623122706
 10
4.036186471
 20
8.2634450139
 10
4.0622585261
 20
8.2645777573
 10
4.0975305198
 20
8.2657105006
 10
4.1408887046
 20
8.266843244
 10
4.1909640037
 20
8.2679759874
 10
4.2461752409
 20
8.2691087307
 10
4.3047790678
 20
8.2702414741
 10
4.3649250118
 20
8.2713742175
 10
4.4247139061
 20
8.2725069608
 10
4.4822578586
 20
8.2736397042
 10
4.5357398629
 20
8.2747724476
 10
4.5834711728
 20
8.2759051909
 10
4.623944626
 20
8.2770379343
 10
4.6558822339
 20
8.2781706776
 10
4.6782755354
 20
8.279303421
 10
4.6904174404
 20
8.2804361644
  0
LINE
  5
824
100
AcDbEntity
  8
0
100
AcDbLine
 62
7
  6
CONTINUOUS
 10
3.9996173761
 20
8.2776618281
 11
4.0049218113
 21
8.2787652887
  0
LINE
  5
825
100
AcDbEntity
  8
0
100
AcDbLine
 62
7
  6
CONTINUOUS
 10
3.9996173761
 20
8.2376618281
 11
4.0049948089
 21
8.2387728747
  0
LINE
  5
826
100
AcDbEntity
  8
0
100
AcDbLine
 62
7
  6
CONTINUOUS
 10
4.7076173761
 20
8.4196618281
 11
4.7021037371
 21
8.4185367622
  0
LWPOLYLINE
  5
827
100
AcDbEntity
  8
0
100
AcDbPolyline
 62
7
  6
CONTINUOUS
 90
19
 70
0
 10
4.0146667674
 20
8.2562705021
 10
4.0201376049
 20
8.2573122706
 10
4.036186471
 20
8.2584450139
 10
4.0622585261
 20
8.2595777573
 10
4.0975305198
 20
8.2607105006
 10
4.1408887046
 20
8.261843244
 10
4.1909640037
 20
8.2629759874
 10
4.2461752409
 20
8.2641087307
 10
4.3047790678
 20
8.2652414741
 10
4.3649250118
 20
8.2663742175
 10
4.4247139061
 20
8.2675069608
 10
4.4822578586
 20
8.2686397042
 10
4.5357398629
 20
8.2697724476
 10
4.5834711728
 20
8.2709051909
 10
4.623944626
 20
8.2720379343
 10
4.6558822339
 20
8.2731706776
 10
4.6782755354
 20
8.274303421
 10
4.6904174404
 20
8.2754361644
 10
4.6926173761
 20
8.2761618281
  0
LWPOLYLINE
  5
828
100
AcDbEntity
  8
0
100
AcDbPolyline
 62
7
  6
CONTINUOUS
 90
3
 70
0
 10
4.6840579138
 20
8.3597281998
 10
4.6922388206
 20
8.3608609431
 10
4.6925679848
 20
8.3610531541
  0
LWPOLYLINE
  5
829
100
AcDbEntity
  8
0
100
AcDbPolyline
 62
7
  6
CONTINUOUS
 90
19
 70
0
 10
4.0154358743
 20
8.336604306
 10
4.0249420339
 20
8.3377370493
 10
4.0448264365
 20
8.3388697927
 10
4.0744612128
 20
8.340002536
 10
4.1129106159
 20
8.3411352794
 10
4.1589605687
 20
8.3422680228
 10
4.2111569991
 20
8.3434007661
 10
4.2678517543
 20
8.3445335095
 10
4.3272546422
 20
8.3456662529
 10
4.387489959
 20
8.3467989962
 10
4.4466557162
 20
8.3479317396
 10
4.5028836974
 20
8.3490644829
 10
4.5543984496
 20
8.3501972263
 10
4.5995733445
 20
8.3513299697
 10
4.636981941
 20
8.352462713
 10
4.6654430262
 20
8.3535954564
 10
4.6840579138
 20
8.3547281998
 10
4.6922388206
 20
8.3558609431
 10
4.6926173761
 20
8.3561618281
  0
LWPOLYLINE
  5
82A
100
AcDbEntity
  8
0
100
AcDbPolyline
 62
7
  6
CONTINUOUS
 90
18
 70
0
 10
4.0172669196
 20
8.2969582883
 10
4.0300642103
 20
8.2980910316
 10
4.0530780063
 20
8.299223775
 10
4.0855816247
 20
8.3003565183
 10
4.1265487322
 20
8.3014892617
 10
4.1746857525
 20
8.3026220051
 10
4.2284727125
 20
8.3037547484
 10
4.2862112368
 20
8.3048874918
 10
4.3460781754
 20
8.3060202352
 10
4.4061831715
 20
8.3071529785
 10
4.4646283516
 20
8.3082857219
 10
4.5195682524
 20
8.3094184653
 10
4.5692680932
 20
8.3105512086
 10
4.6121585533
 20
8.311683952
 10
4.6468853246
 20
8.3128166953
 10
4.6723518758
 20
8.3139494387
 10
4.6877540758
 20
8.3150821821
 10
4.6926173761
 20
8.3161618281
  0
LWPOLYLINE
  5
82B
100
AcDbEntity
  8
0
100
AcDbPolyline
 62
7
  6
CONTINUOUS
 90
9
 70
0
 10
4.004895785
 20
8.3187625716
 10
4.0208017844
 20
8.3198753897
 10
4.0469020189
 20
8.3209900374
 10
4.0820069394
 20
8.3220942089
 10
4.1257087102
 20
8.3232088841
 10
4.1764929094
 20
8.3243259098
 10
4.2320303992
 20
8.3254298075
 10
4.291367685
 20
8.3265365028
 10
4.4156476461
 20
8.3287831452
  0
LWPOLYLINE
  5
82C
100
AcDbEntity
  8
0
100
AcDbPolyline
 62
7
  6
CONTINUOUS
 90
8
 70
0
 10
4.7022323896
 20
8.3785499994
 10
4.685992126
 20
8.3774251159
 10
4.6595279376
 20
8.3763047456
 10
4.6242416406
 20
8.3752018655
 10
4.5808770457
 20
8.3740995345
 10
4.5301842338
 20
8.3729861706
 10
4.4742911217
 20
8.3718763704
 10
4.4149357215
 20
8.3707701434
  0
LWPOLYLINE
  5
82D
100
AcDbEntity
  8
0
100
AcDbPolyline
 62
7
  6
CONTINUOUS
 90
9
 70
0
 10
4.4156476461
 20
8.3287831452
 10
4.4750149879
 20
8.329890223
 10
4.5306194624
 20
8.3309952047
 10
4.5807795241
 20
8.3320972475
 10
4.6242022198
 20
8.3332007659
 10
4.6595188046
 20
8.3343044192
 10
4.6859881436
 20
8.3354249078
 10
4.702231384
 20
8.3365498953
 10
4.7075700768
 20
8.3375577581
  0
LWPOLYLINE
  5
82E
100
AcDbEntity
  8
0
100
AcDbPolyline
 62
7
  6
CONTINUOUS
 90
10
 70
0
 10
4.4156977335
 20
8.3307840601
 10
4.2914927274
 20
8.328538787
 10
4.2321754395
 20
8.3274325846
 10
4.1762102154
 20
8.3263200365
 10
4.1251866584
 20
8.3251966047
 10
4.0814774565
 20
8.3240793409
 10
4.0465161576
 20
8.3229761132
 10
4.0206248393
 20
8.3218660319
 10
4.0048865999
 20
8.320761611
 10
3.9996646754
 20
8.3197658981
  0
LWPOLYLINE
  5
82F
100
AcDbEntity
  8
0
100
AcDbPolyline
 62
7
  6
CONTINUOUS
 90
10
 70
0
 10
4.2914927274
 20
8.366538787
 10
4.4156977335
 20
8.3687840601
 10
4.4750298227
 20
8.369890507
 10
4.5307224251
 20
8.370997343
 10
4.5810608278
 20
8.3721038464
 10
4.6243131458
 20
8.3732038607
 10
4.6595761376
 20
8.3743064685
 10
4.6860144916
 20
8.3754262849
 10
4.7022380108
 20
8.3765505813
 10
4.7075700768
 20
8.3775577581
  0
LWPOLYLINE
  5
830
100
AcDbEntity
  8
0
100
AcDbPolyline
 62
7
  6
CONTINUOUS
 90
10
 70
0
 10
4.4149357215
 20
8.3707701434
 10
4.2912728768
 20
8.3685347707
 10
4.2322227168
 20
8.3674334897
 10
4.1761381791
 20
8.3663185394
 10
4.1250457414
 20
8.3651932867
 10
4.0813192447
 20
8.3640748902
 10
4.0463934387
 20
8.3629716737
 10
4.0206061691
 20
8.3618650423
 10
4.0049061418
 20
8.3607636536
 10
3.9996646754
 20
8.3597658981
  0
LINE
  5
831
100
AcDbEntity
  8
0
100
AcDbLine
 62
7
  6
CONTINUOUS
 10
3.9996646754
 20
8.2397658981
 11
3.9996173761
 21
8.2396618281
  0
LINE
  5
832
100
AcDbEntity
  8
0
100
AcDbLine
 62
7
  6
CONTINUOUS
 10
3.9996646754
 20
8.1997658981
 11
3.9996173761
 21
8.1996618281
  0
LINE
  5
833
100
AcDbEntity
  8
0
100
AcDbLine
 62
7
  6
CONTINUOUS
 10
3.9996646754
 20
8.1597658981
 11
3.9996173761
 21
8.1596618281
  0
LINE
  5
834
100
AcDbEntity
  8
0
100
AcDbLine
 62
7
  6
CONTINUOUS
 10
3.9996646754
 20
8.1197658981
 11
3.9996173761
 21
8.1196618281
  0
LINE
  5
835
100
AcDbEntity
  8
0
100
AcDbLine
 62
7
  6
CONTINUOUS
 10
4.0146667674
 20
8.4562705021
 11
3.9996646754
 21
8.4397658981
  0
LINE
  5
836
100
AcDbEntity
  8
0
100
AcDbLine
 62
7
  6
CONTINUOUS
 10
4.0146667674
 20
8.4162705021
 11
3.9996646754
 21
8.3997658981
  0
LINE
  5
837
100
AcDbEntity
  8
0
100
AcDbLine
 62
7
  6
CONTINUOUS
 10
4.0146667674
 20
8.2962705021
 11
4.0172669196
 21
8.2969582883
  0
LINE
  5
838
100
AcDbEntity
  8
0
100
AcDbLine
 62
7
  6
CONTINUOUS
 10
4.6897657555
 20
8.4803355123
 11
4.6925679848
 21
8.4810531541
  0
LINE
  5
839
100
AcDbEntity
  8
0
100
AcDbLine
 62
7
  6
CONTINUOUS
 10
3.9996173761
 20
8.3576618281
 11
4.0048865999
 21
8.358761611
  0
LINE
  5
83A
100
AcDbEntity
  8
0
100
AcDbLine
 62
7
  6
CONTINUOUS
 10
3.9996173761
 20
8.3176618281
 11
4.004895785
 21
8.3187625716
  0
LINE
  5
83B
100
AcDbEntity
  8
0
100
AcDbLine
 62
7
  6
CONTINUOUS
 10
4.7076173761
 20
8.4996618281
 11
4.7022464905
 21
8.4985514597
  0
LINE
  5
83C
100
AcDbEntity
  8
0
100
AcDbLine
 62
7
  6
CONTINUOUS
 10
4.7076173761
 20
8.4596618281
 11
4.702235812
 21
8.4585503537
  0
LWPOLYLINE
  5
83D
100
AcDbEntity
  8
0
100
AcDbPolyline
 62
7
  6
CONTINUOUS
 90
19
 70
0
 10
4.0146667674
 20
8.3762705021
 10
4.0208357742
 20
8.377383067
 10
4.0375293218
 20
8.3785158104
 10
4.0642036565
 20
8.3796485537
 10
4.1000165105
 20
8.3807812971
 10
4.1438370579
 20
8.3819140405
 10
4.1942816226
 20
8.3830467838
 10
4.2497573684
 20
8.3841795272
 10
4.3085125947
 20
8.3853122706
 10
4.3686920483
 20
8.3864450139
 10
4.4283955045
 20
8.3875777573
 10
4.4857377687
 20
8.3887105006
 10
4.5389082032
 20
8.389843244
 10
4.5862279
 20
8.3909759874
 10
4.6262026937
 20
8.3921087307
 10
4.6575703413
 20
8.3932414741
 10
4.679340379
 20
8.3943742175
 10
4.6908253967
 20
8.3955069608
 10
4.6926173761
 20
8.3961618281
  0
LWPOLYLINE
  5
83E
100
AcDbEntity
  8
0
100
AcDbPolyline
 62
7
  6
CONTINUOUS
 90
8
 70
0
 10
4.0048865999
 20
8.358761611
 10
4.0206248393
 20
8.3598660319
 10
4.0465161576
 20
8.3609761132
 10
4.0814774565
 20
8.3620793409
 10
4.1251866584
 20
8.3631966047
 10
4.1762102154
 20
8.3643200365
 10
4.2321754395
 20
8.3654325846
 10
4.2914927274
 20
8.366538787
  0
LWPOLYLINE
  5
83F
100
AcDbEntity
  8
0
100
AcDbPolyline
 62
7
  6
CONTINUOUS
 90
9
 70
0
 10
4.0049061418
 20
8.3987636536
 10
4.0206061691
 20
8.3998650423
 10
4.0463934387
 20
8.4009716737
 10
4.0813192447
 20
8.4020748902
 10
4.1250457414
 20
8.4031932867
 10
4.1761381791
 20
8.4043185394
 10
4.2322227168
 20
8.4054334897
 10
4.2912728768
 20
8.4065347707
 10
4.4149357215
 20
8.4087701434
  0
LWPOLYLINE
  5
840
100
AcDbEntity
  8
0
100
AcDbPolyline
 62
7
  6
CONTINUOUS
 90
4
 70
0
 10
4.0169433693
 20
8.4016618281
 10
4.0073522267
 20
8.4009950837
 10
4.0015571798
 20
8.4003285902
 10
3.9996646754
 20
8.3997658981
  0
LWPOLYLINE
  5
841
100
AcDbEntity
  8
0
100
AcDbPolyline
 62
7
  6
CONTINUOUS
 90
8
 70
0
 10
4.702235812
 20
8.4585503537
 10
4.68600576
 20
8.4574258284
 10
4.6595572945
 20
8.4563057949
 10
4.6242523739
 20
8.455202165
 10
4.580319885
 20
8.4540864775
 10
4.5290917435
 20
8.4529635259
 10
4.4729329022
 20
8.4518504076
 10
4.4136295551
 20
8.4507463011
  0
LWPOLYLINE
  5
842
100
AcDbEntity
  8
0
100
AcDbPolyline
 62
7
  6
CONTINUOUS
 90
16
 70
0
 10
4.7021037371
 20
8.4185367622
 10
4.6854805708
 20
8.4173985364
 10
4.6584193597
 20
8.416265338
 10
4.6223761939
 20
8.4151500752
 10
4.5778927044
 20
8.4140298544
 10
4.5259843325
 20
8.4128993656
 10
4.4690404131
 20
8.4117762092
 10
4.4086989489
 20
8.4106564348
 10
4.3461057322
 20
8.4095267315
 10
4.2841608487
 20
8.4084045928
 10
4.2248340072
 20
8.4072914466
 10
4.1686104327
 20
8.4061609327
 10
4.1178693441
 20
8.4050223143
 10
4.0749860937
 20
8.4038935207
 10
4.0411832599
 20
8.4027778898
 10
4.0169433693
 20
8.4016618281
  0
LWPOLYLINE
  5
843
100
AcDbEntity
  8
0
100
AcDbPolyline
 62
7
  6
CONTINUOUS
 90
17
 70
0
 10
4.0312092171
 20
8.4181618281
 10
4.0546777677
 20
8.4192880907
 10
4.0874782069
 20
8.4204143533
 10
4.1285866153
 20
8.421540616
 10
4.1767197269
 20
8.4226668786
 10
4.2303749878
 20
8.4237931412
 10
4.2878774613
 20
8.4249194038
 10
4.3474321138
 20
8.4260456665
 10
4.4071798494
 20
8.4271719291
 10
4.4652555447
 20
8.4282981917
 10
4.5198462721
 20
8.4294244543
 10
4.5692478928
 20
8.430550717
 10
4.6119182543
 20
8.4316769796
 10
4.6465253317
 20
8.4328032422
 10
4.6719888083
 20
8.4339295049
 10
4.6875138002
 20
8.4350557675
 10
4.6926173761
 20
8.4361618281
  0
LWPOLYLINE
  5
844
100
AcDbEntity
  8
0
100
AcDbPolyline
 62
7
  6
CONTINUOUS
 90
17
 70
0
 10
4.0312092171
 20
8.4231618281
 10
4.0545470386
 20
8.4242828807
 10
4.0871348775
 20
8.4254039333
 10
4.1279648167
 20
8.426524986
 10
4.1757740174
 20
8.4276460386
 10
4.2290837774
 20
8.4287670912
 10
4.2862452667
 20
8.4298881439
 10
4.3454905239
 20
8.4310091965
 10
4.4049871384
 20
8.4321302491
 10
4.4628949253
 20
8.4332513018
 10
4.5174228411
 20
8.4343723544
 10
4.5668843788
 20
8.435493407
 10
4.6097497309
 20
8.4366144597
 10
4.6446931046
 20
8.4377355123
 10
4.6706337282
 20
8.4388565649
 10
4.686769278
 20
8.4399776176
 10
4.6925679848
 20
8.4410531541
  0
LWPOLYLINE
  5
845
100
AcDbEntity
  8
0
100
AcDbPolyline
 62
7
  6
CONTINUOUS
 90
9
 70
0
 10
4.4149357215
 20
8.4087701434
 10
4.4742911217
 20
8.4098763704
 10
4.5301842338
 20
8.4109861706
 10
4.5808770457
 20
8.4120995345
 10
4.6242416406
 20
8.4132018655
 10
4.6595279376
 20
8.4143047456
 10
4.685992126
 20
8.4154251159
 10
4.7022323896
 20
8.4165499994
 10
4.7075700768
 20
8.4175577581
  0
LINE
  5
846
100
AcDbEntity
  8
0
100
AcDbLine
 62
7
  6
CONTINUOUS
 10
4.6985750102
 20
7.9896618281
 11
4.6925679848
 21
7.9962705021
  0
LINE
  5
847
100
AcDbEntity
  8
0
100
AcDbLine
 62
7
  6
CONTINUOUS
 10
3.9996646754
 20
8.0797658981
 11
3.9996173761
 21
8.0796618281
  0
LINE
  5
848
100
AcDbEntity
  8
0
100
AcDbLine
 62
7
  6
CONTINUOUS
 10
3.9996646754
 20
8.0397658981
 11
3.9996173761
 21
8.0396618281
  0
LINE
  5
849
100
AcDbEntity
  8
0
100
AcDbLine
 62
7
  6
CONTINUOUS
 10
3.9996173761
 20
7.9996618155
 11
3.9996646754
 21
7.9997658981
  0
LINE
  5
84A
100
AcDbEntity
  8
0
100
AcDbLine
 62
7
  6
CONTINUOUS
 10
4.0146667674
 20
8.3762705021
 11
3.9996646754
 21
8.3597658981
  0
LINE
  5
84B
100
AcDbEntity
  8
0
100
AcDbLine
 62
7
  6
CONTINUOUS
 10
4.0146667674
 20
8.3362705021
 11
3.9996646754
 21
8.3197658981
  0
LINE
  5
84C
100
AcDbEntity
  8
0
100
AcDbLine
 62
7
  6
CONTINUOUS
 10
4.0146667674
 20
8.2962705021
 11
3.9996646754
 21
8.2797658981
  0
LINE
  5
84D
100
AcDbEntity
  8
0
100
AcDbLine
 62
7
  6
CONTINUOUS
 10
4.0146667674
 20
8.4562705021
 11
4.0149761811
 21
8.4564547574
  0
LWPOLYLINE
  5
84E
100
AcDbEntity
  8
0
100
AcDbPolyline
 62
7
  6
CONTINUOUS
 90
19
 70
0
 10
4.0146173761
 20
8.5011618281
 10
4.0155553417
 20
8.5016355123
 10
4.0251980981
 20
8.5027565649
 10
4.0449986122
 20
8.5038776176
 10
4.0743444691
 20
8.5049986702
 10
4.112328024
 20
8.5061197228
 10
4.1577744744
 20
8.5072407755
 10
4.2092781963
 20
8.5083618281
 10
4.2652462189
 20
8.5094828807
 10
4.3239474939
 20
8.5106039333
 10
4.3835664358
 20
8.511724986
 10
4.4422590761
 20
8.5128460386
 10
4.4982100963
 20
8.5139670912
 10
4.5496889739
 20
8.5150881439
 10
4.5951035067
 20
8.5162091965
 10
4.6330490577
 20
8.5173302491
 10
4.662352
 20
8.5184513018
 10
4.682106016
 20
8.5195723544
 10
4.6917001291
 20
8.520693407
  0
LWPOLYLINE
  5
84F
100
AcDbEntity
  8
0
100
AcDbPolyline
 62
7
  6
CONTINUOUS
 90
3
 70
0
 10
4.0146667674
 20
8.4162705021
 10
4.0177581233
 20
8.4170290847
 10
4.0312092171
 20
8.4181618281
  0
LINE
  5
850
100
AcDbEntity
  8
0
100
AcDbLine
 62
7
  6
CONTINUOUS
 10
3.9996173761
 20
8.3976618281
 11
4.0049061418
 21
8.3987636536
  0
LWPOLYLINE
  5
851
100
AcDbEntity
  8
0
100
AcDbPolyline
 62
7
  6
CONTINUOUS
 90
18
 70
0
 10
4.0146173761
 20
8.3811618281
 10
4.0208357742
 20
8.382383067
 10
4.0375293218
 20
8.3835158104
 10
4.0642036565
 20
8.3846485537
 10
4.1000165105
 20
8.3857812971
 10
4.1438370579
 20
8.3869140405
 10
4.1942816226
 20
8.3880467838
 10
4.2497573684
 20
8.3891795272
 10
4.3085125947
 20
8.3903122706
 10
4.3686920483
 20
8.3914450139
 10
4.4283955045
 20
8.3925777573
 10
4.4857377687
 20
8.3937105006
 10
4.5389082032
 20
8.394843244
 10
4.5862279
 20
8.3959759874
 10
4.6262026937
 20
8.3971087307
 10
4.6575703413
 20
8.3982414741
 10
4.679340379
 20
8.3993742175
 10
4.6908253967
 20
8.4005069608
  0
LWPOLYLINE
  5
852
100
AcDbEntity
  8
0
100
AcDbPolyline
 62
7
  6
CONTINUOUS
 90
19
 70
0
 10
4.0149761811
 20
8.4564547574
 10
4.0230060326
 20
8.45758102
 10
4.0413564577
 20
8.4587072826
 10
4.0694546179
 20
8.4598335453
 10
4.1064233832
 20
8.4609598079
 10
4.1511087131
 20
8.4620860705
 10
4.202115682
 20
8.4632123331
 10
4.257852024
 20
8.4643385958
 10
4.316577838
 20
8.4654648584
 10
4.3764599018
 20
8.466591121
 10
4.4356288987
 20
8.4677173836
 10
4.4922377719
 20
8.4688436463
 10
4.5445193829
 20
8.4699699089
 10
4.5908416755
 20
8.4710961715
 10
4.6297586239
 20
8.4722224341
 10
4.6600553717
 20
8.4733486968
 10
4.6807861565
 20
8.4744749594
 10
4.6913038329
 20
8.475601222
 10
4.6926173761
 20
8.4761618281
  0
LWPOLYLINE
  5
853
100
AcDbEntity
  8
0
100
AcDbPolyline
 62
7
  6
CONTINUOUS
 90
3
 70
0
 10
4.0015571798
 20
8.4383285902
 10
4.0073522267
 20
8.4389950837
 10
4.0169433693
 20
8.4396618281
  0
LWPOLYLINE
  5
854
100
AcDbEntity
  8
0
100
AcDbPolyline
 62
7
  6
CONTINUOUS
 90
9
 70
0
 10
4.0049327605
 20
8.4787664299
 10
4.0207513562
 20
8.4798727266
 10
4.0464332529
 20
8.4809731146
 10
4.0813211135
 20
8.4820749428
 10
4.1250337428
 20
8.4831930041
 10
4.1761075337
 20
8.4843179024
 10
4.2321714148
 20
8.4854325076
 10
4.2911388782
 20
8.4865323226
 10
4.4136295551
 20
8.4887463011
  0
LWPOLYLINE
  5
855
100
AcDbEntity
  8
0
100
AcDbPolyline
 62
7
  6
CONTINUOUS
 90
8
 70
0
 10
4.7022464905
 20
8.4985514597
 10
4.6860971285
 20
8.4974306092
 10
4.6598568341
 20
8.4963165179
 10
4.6246979304
 20
8.4952146096
 10
4.5807091281
 20
8.494095597
 10
4.5294225544
 20
8.4929703779
 10
4.4732265822
 20
8.4918560182
 10
4.4139867329
 20
8.4907528193
  0
LWPOLYLINE
  5
856
100
AcDbEntity
  8
0
100
AcDbPolyline
 62
7
  6
CONTINUOUS
 90
17
 70
0
 10
4.0169433693
 20
8.4396618281
 10
4.0411832599
 20
8.4407778898
 10
4.0749860937
 20
8.4418935207
 10
4.1178693441
 20
8.4430223143
 10
4.1686104327
 20
8.4441609327
 10
4.2248340072
 20
8.4452914466
 10
4.2841608487
 20
8.4464045928
 10
4.3461057322
 20
8.4475267315
 10
4.4086989489
 20
8.4486564348
 10
4.4690404131
 20
8.4497762092
 10
4.5259843325
 20
8.4508993656
 10
4.5778927044
 20
8.4520298544
 10
4.6223761939
 20
8.4531500752
 10
4.6584193597
 20
8.454265338
 10
4.6854805708
 20
8.4553985364
 10
4.7021037371
 20
8.4565367622
 10
4.7075700768
 20
8.4575577581
  0
LWPOLYLINE
  5
857
100
AcDbEntity
  8
0
100
AcDbPolyline
 62
7
  6
CONTINUOUS
 90
9
 70
0
 10
4.4136295551
 20
8.4887463011
 10
4.4729329022
 20
8.4898504076
 10
4.5290917435
 20
8.4909635259
 10
4.580319885
 20
8.4920864775
 10
4.6242523739
 20
8.493202165
 10
4.6595572945
 20
8.4943057949
 10
4.68600576
 20
8.4954258284
 10
4.702235812
 20
8.4965503537
 10
4.7075700768
 20
8.4975577581
  0
LWPOLYLINE
  5
858
100
AcDbEntity
  8
0
100
AcDbPolyline
 62
7
  6
CONTINUOUS
 90
10
 70
0
 10
4.4136295551
 20
8.4507463011
 10
4.2911388782
 20
8.4485323226
 10
4.2321714148
 20
8.4474325076
 10
4.1761075337
 20
8.4463179024
 10
4.1250337428
 20
8.4451930041
 10
4.0813211135
 20
8.4440749428
 10
4.0464332529
 20
8.4429731146
 10
4.0207513562
 20
8.4418727266
 10
4.0049327605
 20
8.4407664299
 10
3.9996646754
 20
8.4397658981
  0
LWPOLYLINE
  5
859
100
AcDbEntity
  8
0
100
AcDbPolyline
 62
7
  6
CONTINUOUS
 90
10
 70
0
 10
4.4139867329
 20
8.4907528193
 10
4.2918362753
 20
8.4885450621
 10
4.2327579026
 20
8.4874437326
 10
4.1766371932
 20
8.4863289063
 10
4.1254848901
 20
8.4852036219
 10
4.0816789089
 20
8.4840850026
 10
4.0467189284
 20
8.482983437
 10
4.0209090313
 20
8.481881043
 10
4.0049565865
 20
8.480768909
 10
3.9996646754
 20
8.4797658981
  0
LINE
  5
85A
100
AcDbEntity
  8
0
100
AcDbLine
 62
7
  6
CONTINUOUS
 10
4.7075700768
 20
8.0197658981
 11
4.6925679848
 21
8.0362705021
  0
LINE
  5
85B
100
AcDbEntity
  8
0
100
AcDbLine
 62
7
  6
CONTINUOUS
 10
4.7075700768
 20
8.0597658981
 11
4.6925679848
 21
8.0762705021
  0
LINE
  5
85C
100
AcDbEntity
  8
0
100
AcDbLine
 62
7
  6
CONTINUOUS
 10
4.0146667674
 20
8.2562705021
 11
3.9996646754
 21
8.2397658981
  0
LINE
  5
85D
100
AcDbEntity
  8
0
100
AcDbLine
 62
7
  6
CONTINUOUS
 10
4.0146667674
 20
8.2162705021
 11
3.9996646754
 21
8.1997658981
  0
LWPOLYLINE
  5
85E
100
AcDbEntity
  8
0
100
AcDbPolyline
 62
7
  6
CONTINUOUS
 90
3
 70
0
 10
4.0146173761
 20
8.4211618281
 10
4.0177581233
 20
8.4220290847
 10
4.0312092171
 20
8.4231618281
  0
LINE
  5
85F
100
AcDbEntity
  8
0
100
AcDbLine
 62
7
  6
CONTINUOUS
 10
3.9996173761
 20
8.4776618281
 11
4.0049327605
 21
8.4787664299
  0
LWPOLYLINE
  5
860
100
AcDbEntity
  8
0
100
AcDbPolyline
 62
7
  6
CONTINUOUS
 90
8
 70
0
 10
4.281300456
 20
8.526352089
 10
4.2226266082
 20
8.5252487733
 10
4.1678758862
 20
8.5241454269
 10
4.1186900196
 20
8.523042071
 10
4.076544235
 20
8.5219387434
 10
4.042701379
 20
8.52083547
 10
4.0181737948
 20
8.5197322373
 10
4.0036950763
 20
8.5186290339
  0
LWPOLYLINE
  5
861
100
AcDbEntity
  8
0
100
AcDbPolyline
 62
7
  6
CONTINUOUS
 90
3
 70
0
 10
4.4630093921
 20
8.5296618281
 10
4.4033202526
 20
8.5285586283
 10
4.3536534202
 20
8.5276630046
  0
LINE
  5
862
100
AcDbEntity
  8
0
100
AcDbLine
 62
7
  6
CONTINUOUS
 10
4.3536534202
 20
8.5276630046
 11
4.281300456
 21
8.526352089
  0
LINE
  5
863
100
AcDbEntity
  8
0
100
AcDbLine
 62
7
  6
CONTINUOUS
 10
4.0086606853
 20
8.5296618281
 11
4.7003911151
 21
8.5296618281
  0
LINE
  5
864
100
AcDbEntity
  8
0
100
AcDbLine
 62
9
  6
CONTINUOUS
 10
4.6923673761
 20
8.5671618281
 11
4.0148673761
 21
8.5671618281
  0
LINE
  5
865
100
AcDbEntity
  8
0
100
AcDbLine
 62
7
  6
CONTINUOUS
 10
5.0811173761
 20
8.5796618281
 11
3.6261173761
 21
8.5796618281
  0
LINE
  5
866
100
AcDbEntity
  8
0
100
AcDbLine
 62
7
  6
CONTINUOUS
 10
4.7075700768
 20
8.0997658981
 11
4.6925679848
 21
8.1162705021
  0
LINE
  5
867
100
AcDbEntity
  8
0
100
AcDbLine
 62
7
  6
CONTINUOUS
 10
4.7075700768
 20
8.1397658981
 11
4.6925679848
 21
8.1562705021
  0
LINE
  5
868
100
AcDbEntity
  8
0
100
AcDbLine
 62
7
  6
CONTINUOUS
 10
4.7075700768
 20
8.1797658981
 11
4.6925679848
 21
8.1962705021
  0
LINE
  5
869
100
AcDbEntity
  8
0
100
AcDbLine
 62
7
  6
CONTINUOUS
 10
4.0146667674
 20
8.1762705021
 11
3.9996646754
 21
8.1597658981
  0
LINE
  5
86A
100
AcDbEntity
  8
0
100
AcDbLine
 62
7
  6
CONTINUOUS
 10
4.0146667674
 20
8.1362705021
 11
3.9996646754
 21
8.1197658981
  0
LINE
  5
86B
100
AcDbEntity
  8
0
100
AcDbLine
 62
7
  6
CONTINUOUS
 10
4.0146667674
 20
8.0962705021
 11
3.9996646754
 21
8.0797658981
  0
LWPOLYLINE
  5
86C
100
AcDbEntity
  8
0
100
AcDbPolyline
 62
7
  6
CONTINUOUS
 90
18
 70
0
 10
4.0146173761
 20
8.3411618281
 10
4.0154358743
 20
8.341604306
 10
4.0249420339
 20
8.3427370493
 10
4.0448264365
 20
8.3438697927
 10
4.0744612128
 20
8.345002536
 10
4.1129106159
 20
8.3461352794
 10
4.1589605687
 20
8.3472680228
 10
4.2111569991
 20
8.3484007661
 10
4.2678517543
 20
8.3495335095
 10
4.3272546422
 20
8.3506662529
 10
4.387489959
 20
8.3517989962
 10
4.4466557162
 20
8.3529317396
 10
4.5028836974
 20
8.3540644829
 10
4.5543984496
 20
8.3551972263
 10
4.5995733445
 20
8.3563299697
 10
4.636981941
 20
8.357462713
 10
4.6654430262
 20
8.3585954564
 10
4.6840579138
 20
8.3597281998
  0
LINE
  5
86D
100
AcDbEntity
  8
0
100
AcDbLine
 62
7
  6
CONTINUOUS
 10
3.9996173761
 20
8.4376618281
 11
4.0015571798
 21
8.4383285902
  0
LWPOLYLINE
  5
86E
100
AcDbEntity
  8
0
100
AcDbPolyline
 62
7
  6
CONTINUOUS
 90
19
 70
0
 10
4.0146667674
 20
8.4962705021
 10
4.0175527775
 20
8.4970002119
 10
4.0306324436
 20
8.4981264745
 10
4.0537946125
 20
8.4992527372
 10
4.0863162391
 20
8.5003789998
 10
4.1271821077
 20
8.5015052624
 10
4.1751165234
 20
8.5026315251
 10
4.2286231351
 20
8.5037577877
 10
4.2860316464
 20
8.5048840503
 10
4.3455499567
 20
8.5060103129
 10
4.4053201046
 20
8.5071365756
 10
4.4634762674
 20
8.5082628382
 10
4.5182030053
 20
8.5093891008
 10
4.5677919337
 20
8.5105153634
 10
4.6106950531
 20
8.5116416261
 10
4.6455730726
 20
8.5127678887
 10
4.6713372176
 20
8.5138941513
 10
4.6871832184
 20
8.5150204139
 10
4.6926173761
 20
8.5161618281
  0
LINE
  5
86F
100
AcDbEntity
  8
0
100
AcDbLine
 62
7
  6
CONTINUOUS
 10
4.0036950763
 20
8.5186290339
 11
3.9996173761
 21
8.5176618437
  0
LWPOLYLINE
  5
870
100
AcDbEntity
  8
0
100
AcDbPolyline
 62
7
  6
CONTINUOUS
 90
10
 70
0
 10
3.9996646754
 20
8.5197658981
 10
4.0049953504
 20
8.5207729308
 10
4.020966494
 20
8.5218840664
 10
4.0470445973
 20
8.5229951691
 10
4.0824365376
 20
8.5241062416
 10
4.126070468
 20
8.5252173814
 10
4.176619811
 20
8.5263285453
 10
4.2325453836
 20
8.5274396659
 10
4.292147561
 20
8.5285507469
 10
4.3536173761
 20
8.5296618281
  0
LINE
  5
871
100
AcDbEntity
  8
0
100
AcDbLine
 62
9
  6
CONTINUOUS
 10
5.1411173761
 20
8.6396618281
 11
3.5661173761
 21
8.6396618281
  0
LINE
  5
872
100
AcDbEntity
  8
0
100
AcDbLine
 62
7
  6
CONTINUOUS
 10
4.7075700768
 20
8.2197658981
 11
4.6925679848
 21
8.2362705021
  0
LINE
  5
873
100
AcDbEntity
  8
0
100
AcDbLine
 62
7
  6
CONTINUOUS
 10
4.7075700768
 20
8.2597658981
 11
4.6925679848
 21
8.2762705021
  0
LINE
  5
874
100
AcDbEntity
  8
0
100
AcDbLine
 62
7
  6
CONTINUOUS
 10
4.0146667674
 20
8.0562705021
 11
3.9996646754
 21
8.0397658981
  0
LINE
  5
875
100
AcDbEntity
  8
0
100
AcDbLine
 62
7
  6
CONTINUOUS
 10
4.0146667674
 20
8.0162705021
 11
3.9996646754
 21
7.9997658981
  0
LWPOLYLINE
  5
876
100
AcDbEntity
  8
0
100
AcDbPolyline
 62
7
  6
CONTINUOUS
 90
18
 70
0
 10
4.0146173761
 20
8.2211618281
 10
4.0151949769
 20
8.2215335095
 10
4.024039057
 20
8.2226662529
 10
4.0432898924
 20
8.2237989962
 10
4.0723396194
 20
8.2249317396
 10
4.1102709647
 20
8.226064483
 10
4.1558862091
 20
8.2271972263
 10
4.2077450071
 20
8.2283299697
 10
4.2642098667
 20
8.229462713
 10
4.3234978553
 20
8.2305954564
 10
4.3837368969
 20
8.2317281998
 10
4.4430248855
 20
8.2328609431
 10
4.4994897451
 20
8.2339936865
 10
4.5513485431
 20
8.2351264299
 10
4.5969637875
 20
8.2362591732
 10
4.6348951328
 20
8.2373919166
 10
4.6639448598
 20
8.2385246599
 10
4.6831956952
 20
8.2396574033
  0
LINE
  5
877
100
AcDbEntity
  8
0
100
AcDbLine
 62
7
  6
CONTINUOUS
 10
4.0146667674
 20
8.3362705021
 11
4.0154358743
 21
8.336604306
  0
LINE
  5
878
100
AcDbEntity
  8
0
100
AcDbLine
 62
7
  6
CONTINUOUS
 10
4.7075700768
 20
8.2997658981
 11
4.6925679848
 21
8.3162705021
  0
LINE
  5
879
100
AcDbEntity
  8
0
100
AcDbLine
 62
7
  6
CONTINUOUS
 10
4.7075700768
 20
8.3397658981
 11
4.6925679848
 21
8.3562705021
  0
LINE
  5
87A
100
AcDbEntity
  8
0
100
AcDbLine
 62
7
  6
CONTINUOUS
 10
4.7075700768
 20
8.3797658981
 11
4.6925679848
 21
8.3962705021
  0
LWPOLYLINE
  5
87B
100
AcDbEntity
  8
0
100
AcDbPolyline
 62
7
  6
CONTINUOUS
 90
19
 70
0
 10
4.0146173761
 20
8.1011618281
 10
4.0149959316
 20
8.101462713
 10
4.0231768384
 20
8.1025954564
 10
4.041791726
 20
8.1037281998
 10
4.0702528113
 20
8.1048609431
 10
4.1076614077
 20
8.1059936865
 10
4.1528363026
 20
8.1071264299
 10
4.2043510548
 20
8.1082591732
 10
4.2605790361
 20
8.1093919166
 10
4.3197447932
 20
8.1105246599
 10
4.37998011
 20
8.1116574033
 10
4.439382998
 20
8.1127901467
 10
4.4960777531
 20
8.11392289
 10
4.5482741835
 20
8.1150556334
 10
4.5943241363
 20
8.1161883768
 10
4.6327735394
 20
8.1173211201
 10
4.6624083157
 20
8.1184538635
 10
4.6822927183
 20
8.1195866068
 10
4.6917988779
 20
8.1207193502
  0
LINE
  5
87C
100
AcDbEntity
  8
0
100
AcDbLine
 62
7
  6
CONTINUOUS
 10
4.0146667674
 20
8.2162705021
 11
4.0151949769
 21
8.2165335095
  0
LINE
  5
87D
100
AcDbEntity
  8
0
100
AcDbLine
 62
7
  6
CONTINUOUS
 10
4.6917001291
 20
8.520693407
 11
4.6925679848
 21
8.5210531541
  0
LWPOLYLINE
  5
87E
100
AcDbEntity
  8
0
100
AcDbPolyline
 62
7
  6
CONTINUOUS
 90
18
 70
0
 10
4.0146173761
 20
8.3011618281
 10
4.0172669196
 20
8.3019582883
 10
4.0300642103
 20
8.3030910316
 10
4.0530780063
 20
8.304223775
 10
4.0855816247
 20
8.3053565183
 10
4.1265487322
 20
8.3064892617
 10
4.1746857525
 20
8.3076220051
 10
4.2284727125
 20
8.3087547484
 10
4.2862112368
 20
8.3098874918
 10
4.3460781754
 20
8.3110202352
 10
4.4061831715
 20
8.3121529785
 10
4.4646283516
 20
8.3132857219
 10
4.5195682524
 20
8.3144184653
 10
4.5692680932
 20
8.3155512086
 10
4.6121585533
 20
8.316683952
 10
4.6468853246
 20
8.3178166953
 10
4.6723518758
 20
8.3189494387
 10
4.6877540758
 20
8.3200821821
  0
LINE
  5
87F
100
AcDbEntity
  8
0
100
AcDbLine
 62
7
  6
CONTINUOUS
 10
4.7075700768
 20
8.4197658981
 11
4.6925679848
 21
8.4362705021
  0
LINE
  5
880
100
AcDbEntity
  8
0
100
AcDbLine
 62
7
  6
CONTINUOUS
 10
4.7075700768
 20
8.4597658981
 11
4.6925679848
 21
8.4762705021
  0
LINE
  5
881
100
AcDbEntity
  8
0
100
AcDbLine
 62
7
  6
CONTINUOUS
 10
4.0146667674
 20
8.0962705021
 11
4.0149959316
 21
8.096462713
  0
LWPOLYLINE
  5
882
100
AcDbEntity
  8
0
100
AcDbPolyline
 62
7
  6
CONTINUOUS
 90
18
 70
0
 10
4.0146173761
 20
8.1811618281
 10
4.0168173118
 20
8.1818874918
 10
4.0289592168
 20
8.1830202352
 10
4.0513525183
 20
8.1841529785
 10
4.0832901262
 20
8.1852857219
 10
4.1237635794
 20
8.1864184653
 10
4.1714948894
 20
8.1875512086
 10
4.2249768937
 20
8.188683952
 10
4.2825208461
 20
8.1898166953
 10
4.3423097404
 20
8.1909494387
 10
4.4024556844
 20
8.1920821821
 10
4.4610595113
 20
8.1932149254
 10
4.5162707486
 20
8.1943476688
 10
4.5663460477
 20
8.1954804122
 10
4.6097042324
 20
8.1966131555
 10
4.6449762261
 20
8.1977458989
 10
4.6710482812
 20
8.1988786422
 10
4.6870971474
 20
8.2000113856
  0
LINE
  5
883
100
AcDbEntity
  8
0
100
AcDbLine
 62
7
  6
CONTINUOUS
 10
4.6908253967
 20
8.4005069608
 11
4.6925679848
 21
8.4010531541
  0
LINE
  5
884
100
AcDbEntity
  8
0
100
AcDbLine
 62
7
  6
CONTINUOUS
 10
4.7075700768
 20
8.4997658981
 11
4.6925679848
 21
8.5162705021
  0
LINE
  5
885
100
AcDbEntity
  8
0
100
AcDbLine
 62
7
  6
CONTINUOUS
 10
4.6923673761
 20
8.5671618281
 11
4.6923673761
 21
8.5296618281
  0
LINE
  5
886
100
AcDbEntity
  8
0
100
AcDbLine
 62
7
  6
CONTINUOUS
 10
4.6926173761
 20
7.9961618281
 11
4.6926173761
 21
8.0011618281
  0
LINE
  5
887
100
AcDbEntity
  8
0
100
AcDbLine
 62
7
  6
CONTINUOUS
 10
4.6926173761
 20
8.0361618281
 11
4.6926173761
 21
8.0411618281
  0
LINE
  5
888
100
AcDbEntity
  8
0
100
AcDbLine
 62
7
  6
CONTINUOUS
 10
4.6926173761
 20
8.0761618281
 11
4.6926173761
 21
8.0811618281
  0
LINE
  5
889
100
AcDbEntity
  8
0
100
AcDbLine
 62
7
  6
CONTINUOUS
 10
4.6926173761
 20
8.1161618281
 11
4.6926173761
 21
8.1211618281
  0
LINE
  5
88A
100
AcDbEntity
  8
0
100
AcDbLine
 62
7
  6
CONTINUOUS
 10
4.6926173761
 20
8.1561618281
 11
4.6926173761
 21
8.1611618281
  0
LINE
  5
88B
100
AcDbEntity
  8
0
100
AcDbLine
 62
7
  6
CONTINUOUS
 10
4.6926173761
 20
8.1961618281
 11
4.6926173761
 21
8.2011618281
  0
LINE
  5
88C
100
AcDbEntity
  8
0
100
AcDbLine
 62
7
  6
CONTINUOUS
 10
4.6926173761
 20
8.2361618281
 11
4.6926173761
 21
8.2411618281
  0
LINE
  5
88D
100
AcDbEntity
  8
0
100
AcDbLine
 62
7
  6
CONTINUOUS
 10
4.6926173761
 20
8.2761618281
 11
4.6926173761
 21
8.2811618281
  0
LINE
  5
88E
100
AcDbEntity
  8
0
100
AcDbLine
 62
7
  6
CONTINUOUS
 10
4.6926173761
 20
8.3161618281
 11
4.6926173761
 21
8.3211618281
  0
LINE
  5
88F
100
AcDbEntity
  8
0
100
AcDbLine
 62
7
  6
CONTINUOUS
 10
4.6926173761
 20
8.3561618281
 11
4.6926173761
 21
8.3611618281
  0
LINE
  5
890
100
AcDbEntity
  8
0
100
AcDbLine
 62
7
  6
CONTINUOUS
 10
4.6926173761
 20
8.3961618281
 11
4.6926173761
 21
8.4011618281
  0
LINE
  5
891
100
AcDbEntity
  8
0
100
AcDbLine
 62
7
  6
CONTINUOUS
 10
4.6926173761
 20
8.4361618281
 11
4.6926173761
 21
8.4411618281
  0
LINE
  5
892
100
AcDbEntity
  8
0
100
AcDbLine
 62
7
  6
CONTINUOUS
 10
4.6926173761
 20
8.4761618281
 11
4.6926173761
 21
8.4811618281
  0
LINE
  5
893
100
AcDbEntity
  8
0
100
AcDbLine
 62
7
  6
CONTINUOUS
 10
4.6926173761
 20
8.5161618281
 11
4.6926173761
 21
8.5211618281
  0
LINE
  5
894
100
AcDbEntity
  8
0
100
AcDbLine
 62
7
  6
CONTINUOUS
 10
4.6925679848
 20
8.5210531541
 11
4.7003929376
 21
8.5296618281
  0
LINE
  5
895
100
AcDbEntity
  8
0
100
AcDbLine
 62
7
  6
CONTINUOUS
 10
4.6925679848
 20
8.4810531541
 11
4.7075700768
 21
8.4975577581
  0
LINE
  5
896
100
AcDbEntity
  8
0
100
AcDbLine
 62
7
  6
CONTINUOUS
 10
4.6925679848
 20
8.4410531541
 11
4.7075700768
 21
8.4575577581
  0
LINE
  5
897
100
AcDbEntity
  8
0
100
AcDbLine
 62
7
  6
CONTINUOUS
 10
4.0146667674
 20
8.1762705021
 11
4.0168173118
 21
8.1768874918
  0
LINE
  5
898
100
AcDbEntity
  8
0
100
AcDbLine
 62
7
  6
CONTINUOUS
 10
4.7076173761
 20
8.4996618281
 11
4.7076173761
 21
8.4976618281
  0
LINE
  5
899
100
AcDbEntity
  8
0
100
AcDbLine
 62
7
  6
CONTINUOUS
 10
4.7076173761
 20
8.4596618281
 11
4.7076173761
 21
8.4576618281
  0
LINE
  5
89A
100
AcDbEntity
  8
0
100
AcDbLine
 62
7
  6
CONTINUOUS
 10
4.7076173761
 20
8.4196618281
 11
4.7076173761
 21
8.4176618281
  0
LINE
  5
89B
100
AcDbEntity
  8
0
100
AcDbLine
 62
7
  6
CONTINUOUS
 10
4.7076173761
 20
8.3796618281
 11
4.7076173761
 21
8.3776618281
  0
LINE
  5
89C
100
AcDbEntity
  8
0
100
AcDbLine
 62
7
  6
CONTINUOUS
 10
4.7076173761
 20
8.3396618281
 11
4.7076173761
 21
8.3376618281
  0
LINE
  5
89D
100
AcDbEntity
  8
0
100
AcDbLine
 62
7
  6
CONTINUOUS
 10
4.7076173761
 20
8.2996618281
 11
4.7076173761
 21
8.2976618281
  0
LINE
  5
89E
100
AcDbEntity
  8
0
100
AcDbLine
 62
7
  6
CONTINUOUS
 10
4.7076173761
 20
8.2596618281
 11
4.7076173761
 21
8.2576618281
  0
LINE
  5
89F
100
AcDbEntity
  8
0
100
AcDbLine
 62
7
  6
CONTINUOUS
 10
4.7076173761
 20
8.2196618281
 11
4.7076173761
 21
8.2176618281
  0
LINE
  5
8A0
100
AcDbEntity
  8
0
100
AcDbLine
 62
7
  6
CONTINUOUS
 10
4.7076173761
 20
8.1796618281
 11
4.7076173761
 21
8.1776618281
  0
LINE
  5
8A1
100
AcDbEntity
  8
0
100
AcDbLine
 62
7
  6
CONTINUOUS
 10
4.7076173761
 20
8.1396618281
 11
4.7076173761
 21
8.1376618281
  0
LINE
  5
8A2
100
AcDbEntity
  8
0
100
AcDbLine
 62
7
  6
CONTINUOUS
 10
4.7076173761
 20
8.0996618281
 11
4.7076173761
 21
8.0976618281
  0
LINE
  5
8A3
100
AcDbEntity
  8
0
100
AcDbLine
 62
7
  6
CONTINUOUS
 10
4.7076173761
 20
8.0596618281
 11
4.7076173761
 21
8.0576618281
  0
LINE
  5
8A4
100
AcDbEntity
  8
0
100
AcDbLine
 62
7
  6
CONTINUOUS
 10
4.7076173761
 20
8.0196618281
 11
4.7076173761
 21
8.0176618281
  0
LINE
  5
8A5
100
AcDbEntity
  8
0
100
AcDbLine
 62
7
  6
CONTINUOUS
 10
4.7075700768
 20
8.4975577581
 11
4.7076173761
 21
8.4976618281
  0
LINE
  5
8A6
100
AcDbEntity
  8
0
100
AcDbLine
 62
7
  6
CONTINUOUS
 10
4.7075700768
 20
8.4575577581
 11
4.7076173761
 21
8.4576618281
  0
LINE
  5
8A7
100
AcDbEntity
  8
0
100
AcDbLine
 62
7
  6
CONTINUOUS
 10
4.7075700768
 20
8.4175577581
 11
4.7076173761
 21
8.4176618281
  0
LINE
  5
8A8
100
AcDbEntity
  8
0
100
AcDbLine
 62
7
  6
CONTINUOUS
 10
4.7075700768
 20
8.3775577581
 11
4.7076173761
 21
8.3776618281
  0
LINE
  5
8A9
100
AcDbEntity
  8
0
100
AcDbLine
 62
7
  6
CONTINUOUS
 10
4.6925679848
 20
8.4010531541
 11
4.7075700768
 21
8.4175577581
  0
LINE
  5
8AA
100
AcDbEntity
  8
0
100
AcDbLine
 62
7
  6
CONTINUOUS
 10
4.6925679848
 20
8.3610531541
 11
4.7075700768
 21
8.3775577581
  0
LWPOLYLINE
  5
8AB
100
AcDbEntity
  8
0
100
AcDbPolyline
 62
7
  6
CONTINUOUS
 90
18
 70
0
 10
4.0146173761
 20
8.0611618281
 10
4.0164093555
 20
8.0618166953
 10
4.0278943732
 20
8.0629494387
 10
4.0496644109
 20
8.0640821821
 10
4.0810320586
 20
8.0652149254
 10
4.1210068522
 20
8.0663476688
 10
4.168326549
 20
8.0674804122
 10
4.2214969836
 20
8.0686131555
 10
4.2788392477
 20
8.0697458989
 10
4.3385427039
 20
8.0708786422
 10
4.3987221575
 20
8.0720113856
 10
4.4574773839
 20
8.073144129
 10
4.5129531296
 20
8.0742768723
 10
4.5633976943
 20
8.0754096157
 10
4.6072182417
 20
8.0765423591
 10
4.6430310957
 20
8.0776751024
 10
4.6697054305
 20
8.0788078458
 10
4.6863989781
 20
8.0799405891
  0
LINE
  5
8AC
100
AcDbEntity
  8
0
100
AcDbLine
 62
7
  6
CONTINUOUS
 10
4.0146667674
 20
8.0562705021
 11
4.0164093555
 21
8.0568166953
  0
LINE
  5
8AD
100
AcDbEntity
  8
0
100
AcDbLine
 62
7
  6
CONTINUOUS
 10
4.6904174404
 20
8.2804361644
 11
4.6925679848
 21
8.2810531541
  0
LINE
  5
8AE
100
AcDbEntity
  8
0
100
AcDbLine
 62
7
  6
CONTINUOUS
 10
4.7075700768
 20
8.3375577581
 11
4.7076173761
 21
8.3376618281
  0
LINE
  5
8AF
100
AcDbEntity
  8
0
100
AcDbLine
 62
7
  6
CONTINUOUS
 10
4.7075700768
 20
8.2975577581
 11
4.7076173761
 21
8.2976618281
  0
LINE
  5
8B0
100
AcDbEntity
  8
0
100
AcDbLine
 62
7
  6
CONTINUOUS
 10
4.7075700768
 20
8.2575577581
 11
4.7076173761
 21
8.2576618281
  0
LINE
  5
8B1
100
AcDbEntity
  8
0
100
AcDbLine
 62
7
  6
CONTINUOUS
 10
4.7075700768
 20
8.2175577581
 11
4.7076173761
 21
8.2176618281
  0
LINE
  5
8B2
100
AcDbEntity
  8
0
100
AcDbLine
 62
7
  6
CONTINUOUS
 10
4.6925679848
 20
8.3210531541
 11
4.7075700768
 21
8.3375577581
  0
LINE
  5
8B3
100
AcDbEntity
  8
0
100
AcDbLine
 62
7
  6
CONTINUOUS
 10
4.6925679848
 20
8.2810531541
 11
4.7075700768
 21
8.2975577581
  0
LINE
  5
8B4
100
AcDbEntity
  8
0
100
AcDbLine
 62
7
  6
CONTINUOUS
 10
3.5661247063
 20
9.0196618281
 11
5.1411100171
 21
9.0196618281
  0
LINE
  5
8B5
100
AcDbEntity
  8
0
100
AcDbLine
 62
7
  6
CONTINUOUS
 10
5.1411173761
 20
9.0346618281
 11
3.5661173761
 21
9.0346618281
  0
LINE
  5
8B6
100
AcDbEntity
  8
0
100
AcDbLine
 62
7
  6
CONTINUOUS
 10
4.7075700768
 20
8.1775577581
 11
4.7076173761
 21
8.1776618281
  0
LINE
  5
8B7
100
AcDbEntity
  8
0
100
AcDbLine
 62
7
  6
CONTINUOUS
 10
4.7075700768
 20
8.1375577581
 11
4.7076173761
 21
8.1376618281
  0
LINE
  5
8B8
100
AcDbEntity
  8
0
100
AcDbLine
 62
7
  6
CONTINUOUS
 10
4.7075700768
 20
8.0975577581
 11
4.7076173761
 21
8.0976618281
  0
LINE
  5
8B9
100
AcDbEntity
  8
0
100
AcDbLine
 62
7
  6
CONTINUOUS
 10
4.7075700768
 20
8.0575577581
 11
4.7076173761
 21
8.0576618281
  0
LINE
  5
8BA
100
AcDbEntity
  8
0
100
AcDbLine
 62
7
  6
CONTINUOUS
 10
4.6925679848
 20
8.2410531541
 11
4.7075700768
 21
8.2575577581
  0
LINE
  5
8BB
100
AcDbEntity
  8
0
100
AcDbLine
 62
7
  6
CONTINUOUS
 10
4.6925679848
 20
8.2010531541
 11
4.7075700768
 21
8.2175577581
  0
LINE
  5
8BC
100
AcDbEntity
  8
0
100
AcDbLine
 62
7
  6
CONTINUOUS
 10
4.6925679848
 20
8.1610531541
 11
4.7075700768
 21
8.1775577581
  0
LINE
  5
8BD
100
AcDbEntity
  8
0
100
AcDbLine
 62
7
  6
CONTINUOUS
 10
4.7076173761
 20
8.0176618281
 11
4.7075700768
 21
8.0175577581
  0
LINE
  5
8BE
100
AcDbEntity
  8
0
100
AcDbLine
 62
7
  6
CONTINUOUS
 10
4.6925679848
 20
8.1210531541
 11
4.7075700768
 21
8.1375577581
  0
LINE
  5
8BF
100
AcDbEntity
  8
0
100
AcDbLine
 62
7
  6
CONTINUOUS
 10
4.6925679848
 20
8.0810531541
 11
4.7075700768
 21
8.0975577581
  0
LINE
  5
8C0
100
AcDbEntity
  8
0
100
AcDbLine
 62
7
  6
CONTINUOUS
 10
4.6917988779
 20
8.1207193502
 11
4.6925679848
 21
8.1210531541
  0
LINE
  5
8C1
100
AcDbEntity
  8
0
100
AcDbLine
 62
9
  6
CONTINUOUS
 10
5.1411173761
 20
9.1146618281
 11
3.5661173761
 21
9.1146618281
  0
LINE
  5
8C2
100
AcDbEntity
  8
0
100
AcDbLine
 62
7
  6
CONTINUOUS
 10
5.0811173761
 20
9.1746618281
 11
3.6261173761
 21
9.1746618281
  0
LINE
  5
8C3
100
AcDbEntity
  8
0
100
AcDbLine
 62
7
  6
CONTINUOUS
 10
4.6925679848
 20
8.0410531541
 11
4.7075700768
 21
8.0575577581
  0
LINE
  5
8C4
100
AcDbEntity
  8
0
100
AcDbLine
 62
7
  6
CONTINUOUS
 10
4.6925679848
 20
8.0010531541
 11
4.7075700768
 21
8.0175577581
  0
LINE
  5
8C5
100
AcDbEntity
  8
0
100
AcDbLine
 62
7
  6
CONTINUOUS
 10
4.7076173761
 20
8.0196618281
 11
4.70567765
 21
8.0189950793
  0
LINE
  5
8C6
100
AcDbEntity
  8
0
100
AcDbLine
 62
7
  6
CONTINUOUS
 10
5.1131173761
 20
9.0196618281
 11
5.1131173761
 21
9.0346618281
  0
LINE
  5
8C7
100
AcDbEntity
  8
0
100
AcDbLine
 62
7
  6
CONTINUOUS
 10
5.1411173761
 20
9.1146618281
 11
5.1411173761
 21
9.0346618281
  0
LINE
  5
8C8
100
AcDbEntity
  8
0
100
AcDbLine
 62
7
  6
CONTINUOUS
 10
5.1411173761
 20
9.0196618281
 11
5.1411173761
 21
8.6396618281
  0
CIRCLE
  5
8C9
100
AcDbEntity
  8
0
100
AcDbCircle
 62
7
  6
CONTINUOUS
 10
10.5342808475
 20
1.243294839
 40
0.252091
  0
CIRCLE
  5
8CA
100
AcDbEntity
  8
0
100
AcDbCircle
 62
7
  6
CONTINUOUS
 10
10.5342808475
 20
1.243294839
 40
0.182698
  0
ARC
  5
8CB
100
AcDbEntity
  8
0
100
AcDbCircle
 62
7
  6
CONTINUOUS
 10
3.9986173761
 20
4.7500698586
 40
0.06
100
AcDbArc
 50
0.0
 51
64.8859091127
  0
ARC
  5
8CC
100
AcDbEntity
  8
0
100
AcDbCircle
 62
7
  6
CONTINUOUS
 10
4.7086173761
 20
4.7500698586
 40
0.06
100
AcDbArc
 50
115.1140680932
 51
180.0
  0
ARC
  5
8CD
100
AcDbEntity
  8
0
100
AcDbCircle
 62
7
  6
CONTINUOUS
 10
4.3536173761
 20
5.5196354828
 40
0.7875
100
AcDbArc
 50
288.2981548598
 51
251.7018451402
  0
CIRCLE
  5
8CE
100
AcDbEntity
  8
0
100
AcDbCircle
 62
9
  6
CONTINUOUS
 10
4.3536173761
 20
5.5196354828
 40
0.7275
  0
ARC
  5
8CF
100
AcDbEntity
  8
0
100
AcDbCircle
 62
7
  6
CONTINUOUS
 10
4.3536173761
 20
5.5196354828
 40
0.354
100
AcDbArc
 50
270.9460697222
 51
269.9999999991
  0
CIRCLE
  5
8D0
100
AcDbEntity
  8
0
100
AcDbCircle
 62
7
  6
CONTINUOUS
 10
4.3536173761
 20
5.5196354828
 40
0.306
  0
CIRCLE
  5
8D1
100
AcDbEntity
  8
AXIS_COSMETIC_THREADS
100
AcDbCircle
 62
7
  6
CONTINUOUS
 10
4.3536173761
 20
5.5196354828
 40
0.3025
  0
ARC
  5
8D2
100
AcDbEntity
  8
0
100
AcDbCircle
 62
7
  6
CONTINUOUS
 10
9.0724016629
 20
6.2471354828
 40
0.06
100
AcDbArc
 50
0.0
 51
90.0
  0
ARC
  5
8D3
100
AcDbEntity
  8
0
100
AcDbCircle
 62
7
  6
CONTINUOUS
 10
8.5974016629
 20
6.2471354828
 40
0.06
100
AcDbArc
 50
90.0
 51
180.0
  0
ARC
  5
8D4
100
AcDbEntity
  8
0
100
AcDbCircle
 62
7
  6
CONTINUOUS
 10
9.076476466
 20
6.0896354828
 40
0.0575
100
AcDbArc
 50
347.2959531578
 51
12.7040468422
  0
ARC
  5
8D5
100
AcDbEntity
  8
0
100
AcDbCircle
 62
7
  6
CONTINUOUS
 10
8.5249016629
 20
5.1683854828
 40
0.0125
100
AcDbArc
 50
0.000000001
 51
90.0
  0
ARC
  5
8D6
100
AcDbEntity
  8
0
100
AcDbCircle
 62
7
  6
CONTINUOUS
 10
8.5249016629
 20
5.8708854828
 40
0.0125
100
AcDbArc
 50
270.0
 51
359.9999999973
  0
ARC
  5
8D7
100
AcDbEntity
  8
0
100
AcDbCircle
 62
7
  6
CONTINUOUS
 10
9.1313695826
 20
4.7331692245
 40
0.0010330709
100
AcDbArc
 50
270.0
 51
360.0
  0
ARC
  5
8D8
100
AcDbEntity
  8
0
100
AcDbCircle
 62
7
  6
CONTINUOUS
 10
12.409446474
 20
5.5196354828
 40
0.792
100
AcDbArc
 50
251.0723127861
 51
288.9276872139
  0
CIRCLE
  5
8D9
100
AcDbEntity
  8
0
100
AcDbCircle
 62
7
  6
CONTINUOUS
 10
12.409446474
 20
5.5196354828
 40
0.7875
  0
ARC
  5
8DA
100
AcDbEntity
  8
0
100
AcDbCircle
 62
9
  6
CONTINUOUS
 10
12.409446474
 20
5.5196354828
 40
0.7275
100
AcDbArc
 50
0.0
 51
180.0
  0
CIRCLE
  5
8DB
100
AcDbEntity
  8
0
100
AcDbCircle
 62
7
  6
CONTINUOUS
 10
12.284446474
 20
6.0896354828
 40
0.094
  0
CIRCLE
  5
8DC
100
AcDbEntity
  8
0
100
AcDbCircle
 62
7
  6
CONTINUOUS
 10
12.284446474
 20
6.0896354828
 40
0.064
  0
ARC
  5
8DD
100
AcDbEntity
  8
0
100
AcDbCircle
 62
7
  6
CONTINUOUS
 10
12.764446474
 20
4.7500698586
 40
0.06
100
AcDbArc
 50
117.2839924603
 51
180.0
  0
ARC
  5
8DE
100
AcDbEntity
  8
0
100
AcDbCircle
 62
7
  6
CONTINUOUS
 10
12.054446474
 20
4.7500698586
 40
0.06
100
AcDbArc
 50
0.0
 51
62.7167297987
  0
CIRCLE
  5
8DF
100
AcDbEntity
  8
0
100
AcDbCircle
 62
7
  6
CONTINUOUS
 10
12.284446474
 20
6.0896354828
 40
0.0575
  0
CIRCLE
  5
8E0
100
AcDbEntity
  8
AXIS_COSMETIC_THREADS
100
AcDbCircle
 62
7
  6
CONTINUOUS
 10
12.409446474
 20
5.6126354828
 40
0.035
  0
ARC
  5
8E1
100
AcDbEntity
  8
0
100
AcDbCircle
 62
7
  6
CONTINUOUS
 10
12.472446474
 20
5.5496354828
 40
0.03
100
AcDbArc
 50
270.0
 51
360.0
  0
ARC
  5
8E2
100
AcDbEntity
  8
0
100
AcDbCircle
 62
7
  6
CONTINUOUS
 10
12.472446474
 20
5.6746354828
 40
0.03
100
AcDbArc
 50
0.0
 51
90.0
  0
ARC
  5
8E3
100
AcDbEntity
  8
0
100
AcDbCircle
 62
7
  6
CONTINUOUS
 10
12.347446474
 20
5.5496354828
 40
0.03
100
AcDbArc
 50
180.0
 51
270.0
  0
ARC
  5
8E4
100
AcDbEntity
  8
0
100
AcDbCircle
 62
7
  6
CONTINUOUS
 10
12.347446474
 20
5.6746354828
 40
0.03
100
AcDbArc
 50
90.0
 51
180.0
  0
CIRCLE
  5
8E5
100
AcDbEntity
  8
AXIS_COSMETIC_THREADS
100
AcDbCircle
 62
7
  6
CONTINUOUS
 10
12.409446474
 20
5.6126354828
 40
0.01
  0
ARC
  5
8E6
100
AcDbEntity
  8
0
100
AcDbCircle
 62
7
  6
CONTINUOUS
 10
3.6261173761
 20
9.1146618281
 40
0.06
100
AcDbArc
 50
90.0
 51
180.0
  0
ARC
  5
8E7
100
AcDbEntity
  8
0
100
AcDbCircle
 62
7
  6
CONTINUOUS
 10
5.0811173761
 20
9.1146618281
 40
0.06
100
AcDbArc
 50
0.0
 51
90.0
  0
ARC
  5
8E8
100
AcDbEntity
  8
0
100
AcDbCircle
 62
7
  6
CONTINUOUS
 10
3.6261173761
 20
8.6396618281
 40
0.06
100
AcDbArc
 50
180.0
 51
270.0
  0
ARC
  5
8E9
100
AcDbEntity
  8
0
100
AcDbCircle
 62
7
  6
CONTINUOUS
 10
5.0811173761
 20
8.6396618281
 40
0.06
100
AcDbArc
 50
270.0
 51
360.0
  0
ARC
  5
8EA
100
AcDbEntity
  8
0
100
AcDbCircle
 62
7
  6
CONTINUOUS
 10
4.4786173761
 20
9.1187366312
 40
0.0575
100
AcDbArc
 50
77.2959531578
 51
102.7040468422
  0
ARC
  5
8EB
100
AcDbEntity
  8
0
100
AcDbCircle
 62
7
  6
CONTINUOUS
 10
4.0023673761
 20
8.5671618281
 40
0.0125
100
AcDbArc
 50
0.0
 51
89.9999864903
  0
ARC
  5
8EC
100
AcDbEntity
  8
0
100
AcDbCircle
 62
7
  6
CONTINUOUS
 10
4.7048673761
 20
8.5671618281
 40
0.0125
100
AcDbArc
 50
90.0000135097
 51
180.0
  0
ENDSEC
  0
SECTION
  2
OBJECTS
  0
DICTIONARY
  5
C
100
AcDbDictionary
280
0
281
1
  3
ACAD_GROUP
350
D
  3
ACAD_MLINESTYLE
350
17
  3
ACAD_LAYOUT
350
1A
  3
ACAD_PLOTSETTINGS
350
19
  3
ACAD_PLOTSTYLENAME
350
E
  0
DICTIONARY
  5
D
102
{ACAD_REACTORS
330
C
102
}
100
AcDbDictionary
280
0
281
1
  0
ACDBDICTIONARYWDFLT
  5
E
102
{ACAD_REACTORS
330
C
102
}
100
AcDbDictionary
281
1
  3
Normal
350
F
100
AcDbDictionaryWithDefault
340
F
  0
DICTIONARY
  5
17
102
{ACAD_REACTORS
330
C
102
}
100
AcDbDictionary
280
0
281
1
  3
Standard
350
18
  0
DICTIONARY
  5
19
102
{ACAD_REACTORS
330
C
102
}
100
AcDbDictionary
281
1
  0
DICTIONARY
  5
1A
102
{ACAD_REACTORS
330
C
102
}
100
AcDbDictionary
281
1
  3
Model
350
8ED
  3
Layout1
350
8EE
  0
ACDBPLACEHOLDER
  5
F
102
{ACAD_REACTORS
330
E
102
}
  0
MLINESTYLE
  5
18
102
{ACAD_REACTORS
330
17
102
}
100
AcDbMlineStyle
  2
STANDARD
 70
0
  3

 62
256
 51
90.0
 52
90.0
 71
2
 49
0.5
 62
256
  6
BYLAYER
 49
-0.5
 62
256
  6
BYLAYER
  0
LAYOUT
  5
8ED
102
{ACAD_REACTORS
330
1A
102
}
100
AcDbPlotSettings
  1

  2
none_device
  4
ANSI_B_(17.00_x_11.00_Inches)
  6

 40
0.0
 41
0.0
 42
0.0
 43
0.0
 44
431.8
 45
279.4
 46
0.0
 47
0.0
 48
0.0
 49
0.0
140
0.0
141
0.0
142
1.0
143
1.0
 70
1024
 72
0
 73
0
 74
0
  7

 75
0
147
1.0
148
0.0
149
0.0
100
AcDbLayout
  1
Model
 70
0
 71
0
 10
0.0
 20
0.0
 11
17.0
 21
11.0
 12
0.0
 22
0.0
 32
0.0
 14
0.0
 24
0.0
 34
0.0
 15
0.0
 25
0.0
 35
0.0
146
0.0
 13
0.0
 23
0.0
 33
0.0
 16
1.0
 26
0.0
 36
0.0
 17
0.0
 27
1.0
 37
0.0
 76
0
330
22C
345
0
346
0
  0
LAYOUT
  5
8EE
102
{ACAD_REACTORS
330
1A
102
}
100
AcDbPlotSettings
  1

  2
none_device
  4
ANSI_B_(17.00_x_11.00_Inches)
  6

 40
0.0
 41
0.0
 42
0.0
 43
0.0
 44
431.8
 45
279.4
 46
0.0
 47
0.0
 48
0.0
 49
0.0
140
0.0
141
0.0
142
1.0
143
1.0
 70
0
 72
0
 73
0
 74
0
  7

 75
0
147
1.0
148
0.0
149
0.0
100
AcDbLayout
  1
Layout1
 70
0
 71
1
 10
0.0
 20
0.0
 11
17.0
 21
11.0
 12
0.0
 22
0.0
 32
0.0
 14
0.0
 24
0.0
 34
0.0
 15
0.0
 25
0.0
 35
0.0
146
0.0
 13
0.0
 23
0.0
 33
0.0
 16
1.0
 26
0.0
 36
0.0
 17
0.0
 27
1.0
 37
0.0
 76
0
330
22D
345
0
346
0
  0
ENDSEC
  0
EOF
