999
DXF file: 155312_1.dxf
999
Pro/ENGINEER 2009141 by Parametric Technology Corporation
  0
SECTION
  2
HEADER
  9
$ACADVER
  1
AC1015
  9
$DWGCODEPAGE
  3
ANSI_1252
  9
$EXTMAX
 10
17.0
 20
11.0
 30
0.0
  9
$EXTMIN
 10
0.0
 20
0.0
 30
0.0
  9
$LIMMIN
 10
0.0
 20
0.0
  9
$LIMMAX
 10
17.0
 20
11.0
  9
$VIEWCTR
 10
8.5
 20
5.5
  9
$VIEWSIZE
 40
11.0
  9
$CLAYER
  8
0
  9
$LTSCALE
 40
0.935
  9
$CELTYPE
  6
BYLAYER
  9
$DIMSCALE
 40
1.0
  9
$DIMASZ
 40
0.1875
  9
$DIMEXO
 40
0.10625
  9
$DIMDLI
 40
0.646
  9
$DIMEXE
 40
0.306
  9
$DIMCEN
 40
0.153
  9
$DIMLFAC
 40
1.0
  9
$DIMBLK
  1
_FILLED
  9
$DIMTXT
 40
0.1
  9
$DIMTOL
 70
1
  9
$DIMLIM
 70
0
  9
$DIMTFAC
 40
1.0
  9
$DIMTP
 40
0.005
  9
$DIMTM
 40
0.005
  9
$PDMODE
 70
3
  9
$PDSIZE
 40
0.3125
  9
$HANDSEED
  5
935
  9
$TILEMODE
 70
1
  9
$MEASUREMENT
 70
0
  9
$INSUNITS
 70
1
  0
ENDSEC
  0
SECTION
  2
CLASSES
  0
CLASS
  1
ACDBDICTIONARYWDFLT
  2
AcDbDictionaryWithDefault
  3
AutoCAD 2000
 90
0
280
0
281
0
  0
CLASS
  1
ACDBPLACEHOLDER
  2
AcDbPlaceHolder
  3
AutoCAD 2000
 90
0
280
0
281
0
  0
CLASS
  1
LAYOUT
  2
AcDbLayout
  3
AutoCAD 2000
 90
0
280
0
281
0
  0
ENDSEC
  0
SECTION
  2
TABLES
  0
TABLE
  2
VPORT
  5
8
100
AcDbSymbolTable
 70
2
  0
VPORT
  5
1F4
100
AcDbSymbolTableRecord
100
AcDbViewportTableRecord
  2
*ACTIVE
 70
0
 10
0.0
 20
0.0
 11
1.0
 21
1.0
 12
8.5
 22
5.5
 13
0.0
 23
0.0
 14
1.0
 24
1.0
 15
0.0
 25
0.0
 16
0.0
 26
0.0
 36
1.0
 17
0.0
 27
0.0
 37
0.0
 40
11.0
 41
1.5454545455
 42
50.0
 43
0.0
 44
0.0
 50
0.0
 51
0.0
 71
0
 72
100
 73
1
 74
1
 75
0
 76
0
 77
0
 78
0
  0
ENDTAB
  0
TABLE
  2
LTYPE
  5
5
100
AcDbSymbolTable
 70
6
  0
LTYPE
  5
14
100
AcDbSymbolTableRecord
100
AcDbLinetypeTableRecord
  2
BYBLOCK
 70
0
  3

 72
65
 73
0
 40
0.0
  0
LTYPE
  5
15
100
AcDbSymbolTableRecord
100
AcDbLinetypeTableRecord
  2
BYLAYER
 70
0
  3

 72
65
 73
0
 40
0.0
  0
LTYPE
  5
16
100
AcDbSymbolTableRecord
100
AcDbLinetypeTableRecord
  2
CONTINUOUS
 70
64
  3
Solid line
 72
65
 73
0
 40
0.0
  0
LTYPE
  5
1F5
100
AcDbSymbolTableRecord
100
AcDbLinetypeTableRecord
  2
CENTER
 70
64
  3
____ _ ____ _ ____ _ ____ _ ____ _ ____ _ ____
 72
65
 73
4
 40
0.6
 49
0.375
 74
0
 49
-0.075
 74
0
 49
0.075
 74
0
 49
-0.075
 74
0
  0
LTYPE
  5
1F6
100
AcDbSymbolTableRecord
100
AcDbLinetypeTableRecord
  2
HIDDEN
 70
64
  3
- - - - - - - - - - - - - - - - - - - -
 72
65
 73
2
 40
0.2
 49
0.1
 74
0
 49
-0.1
 74
0
  0
LTYPE
  5
1F7
100
AcDbSymbolTableRecord
100
AcDbLinetypeTableRecord
  2
PHANTOM
 70
64
  3
_____ _ _ _____ _ _ _____ _ _ _____
 72
65
 73
6
 40
0.8
 49
0.45
 74
0
 49
-0.05
 74
0
 49
0.1
 74
0
 49
-0.05
 74
0
 49
0.1
 74
0
 49
-0.05
 74
0
  0
LTYPE
  5
1F8
100
AcDbSymbolTableRecord
100
AcDbLinetypeTableRecord
  2
DOT
 70
64
  3
. . . . . . . . . . . . . . . . . . . .
 72
65
 73
2
 40
0.2
 49
0.1
 74
0
 49
-0.1
 74
0
  0
LTYPE
  5
1F9
100
AcDbSymbolTableRecord
100
AcDbLinetypeTableRecord
  2
DASHED
 70
64
  3
- - - - - - - - - - - - - - - - - - - -
 72
65
 73
2
 40
0.2
 49
0.1
 74
0
 49
-0.1
 74
0
  0
ENDTAB
  0
TABLE
  2
LAYER
  5
2
100
AcDbSymbolTable
 70
36
  0
LAYER
  5
10
100
AcDbSymbolTableRecord
100
AcDbLayerTableRecord
  2
0
 70
0
 62
7
  6
CONTINUOUS
370
-3
390
F
  0
LAYER
  5
1FA
100
AcDbSymbolTableRecord
100
AcDbLayerTableRecord
  2
DEFAULT_1
 70
0
 62
7
  6
CENTER
370
-3
390
F
  0
LAYER
  5
1FB
100
AcDbSymbolTableRecord
100
AcDbLayerTableRecord
  2
DEFAULT_2
 70
0
 62
8
  6
HIDDEN
370
-3
390
F
  0
LAYER
  5
1FC
100
AcDbSymbolTableRecord
100
AcDbLayerTableRecord
  2
DEFAULT_3
 70
0
 62
7
  6
PHANTOM
370
-3
390
F
  0
LAYER
  5
1FD
100
AcDbSymbolTableRecord
100
AcDbLayerTableRecord
  2
1
 70
0
 62
7
  6
CONTINUOUS
370
-3
390
F
  0
LAYER
  5
1FE
100
AcDbSymbolTableRecord
100
AcDbLayerTableRecord
  2
10
 70
0
 62
7
  6
CONTINUOUS
370
-3
390
F
  0
LAYER
  5
1FF
100
AcDbSymbolTableRecord
100
AcDbLayerTableRecord
  2
11
 70
0
 62
7
  6
CONTINUOUS
370
-3
390
F
  0
LAYER
  5
200
100
AcDbSymbolTableRecord
100
AcDbLayerTableRecord
  2
12
 70
0
 62
7
  6
CONTINUOUS
370
-3
390
F
  0
LAYER
  5
201
100
AcDbSymbolTableRecord
100
AcDbLayerTableRecord
  2
13
 70
0
 62
7
  6
CONTINUOUS
370
-3
390
F
  0
LAYER
  5
202
100
AcDbSymbolTableRecord
100
AcDbLayerTableRecord
  2
14
 70
0
 62
7
  6
CONTINUOUS
370
-3
390
F
  0
LAYER
  5
203
100
AcDbSymbolTableRecord
100
AcDbLayerTableRecord
  2
15
 70
0
 62
7
  6
CONTINUOUS
370
-3
390
F
  0
LAYER
  5
204
100
AcDbSymbolTableRecord
100
AcDbLayerTableRecord
  2
16
 70
0
 62
7
  6
CONTINUOUS
370
-3
390
F
  0
LAYER
  5
205
100
AcDbSymbolTableRecord
100
AcDbLayerTableRecord
  2
17
 70
0
 62
7
  6
CONTINUOUS
370
-3
390
F
  0
LAYER
  5
206
100
AcDbSymbolTableRecord
100
AcDbLayerTableRecord
  2
18
 70
0
 62
7
  6
CONTINUOUS
370
-3
390
F
  0
LAYER
  5
207
100
AcDbSymbolTableRecord
100
AcDbLayerTableRecord
  2
19
 70
0
 62
7
  6
CONTINUOUS
370
-3
390
F
  0
LAYER
  5
208
100
AcDbSymbolTableRecord
100
AcDbLayerTableRecord
  2
2
 70
0
 62
7
  6
CONTINUOUS
370
-3
390
F
  0
LAYER
  5
209
100
AcDbSymbolTableRecord
100
AcDbLayerTableRecord
  2
20
 70
0
 62
7
  6
CONTINUOUS
370
-3
390
F
  0
LAYER
  5
20A
100
AcDbSymbolTableRecord
100
AcDbLayerTableRecord
  2
21
 70
0
 62
7
  6
CONTINUOUS
370
-3
390
F
  0
LAYER
  5
20B
100
AcDbSymbolTableRecord
100
AcDbLayerTableRecord
  2
22
 70
0
 62
7
  6
CONTINUOUS
370
-3
390
F
  0
LAYER
  5
20C
100
AcDbSymbolTableRecord
100
AcDbLayerTableRecord
  2
23
 70
0
 62
7
  6
CONTINUOUS
370
-3
390
F
  0
LAYER
  5
20D
100
AcDbSymbolTableRecord
100
AcDbLayerTableRecord
  2
24
 70
0
 62
7
  6
CONTINUOUS
370
-3
390
F
  0
LAYER
  5
20E
100
AcDbSymbolTableRecord
100
AcDbLayerTableRecord
  2
25
 70
0
 62
7
  6
CONTINUOUS
370
-3
390
F
  0
LAYER
  5
20F
100
AcDbSymbolTableRecord
100
AcDbLayerTableRecord
  2
26
 70
0
 62
7
  6
CONTINUOUS
370
-3
390
F
  0
LAYER
  5
210
100
AcDbSymbolTableRecord
100
AcDbLayerTableRecord
  2
27
 70
0
 62
7
  6
CONTINUOUS
370
-3
390
F
  0
LAYER
  5
211
100
AcDbSymbolTableRecord
100
AcDbLayerTableRecord
  2
28
 70
0
 62
7
  6
CONTINUOUS
370
-3
390
F
  0
LAYER
  5
212
100
AcDbSymbolTableRecord
100
AcDbLayerTableRecord
  2
29
 70
0
 62
7
  6
CONTINUOUS
370
-3
390
F
  0
LAYER
  5
213
100
AcDbSymbolTableRecord
100
AcDbLayerTableRecord
  2
3
 70
0
 62
7
  6
CONTINUOUS
370
-3
390
F
  0
LAYER
  5
214
100
AcDbSymbolTableRecord
100
AcDbLayerTableRecord
  2
30
 70
0
 62
7
  6
CONTINUOUS
370
-3
390
F
  0
LAYER
  5
215
100
AcDbSymbolTableRecord
100
AcDbLayerTableRecord
  2
31
 70
0
 62
7
  6
CONTINUOUS
370
-3
390
F
  0
LAYER
  5
216
100
AcDbSymbolTableRecord
100
AcDbLayerTableRecord
  2
32
 70
0
 62
7
  6
CONTINUOUS
370
-3
390
F
  0
LAYER
  5
217
100
AcDbSymbolTableRecord
100
AcDbLayerTableRecord
  2
4
 70
0
 62
7
  6
CONTINUOUS
370
-3
390
F
  0
LAYER
  5
218
100
AcDbSymbolTableRecord
100
AcDbLayerTableRecord
  2
5
 70
0
 62
7
  6
CONTINUOUS
370
-3
390
F
  0
LAYER
  5
219
100
AcDbSymbolTableRecord
100
AcDbLayerTableRecord
  2
6
 70
0
 62
7
  6
CONTINUOUS
370
-3
390
F
  0
LAYER
  5
21A
100
AcDbSymbolTableRecord
100
AcDbLayerTableRecord
  2
7
 70
0
 62
7
  6
CONTINUOUS
370
-3
390
F
  0
LAYER
  5
21B
100
AcDbSymbolTableRecord
100
AcDbLayerTableRecord
  2
8
 70
0
 62
7
  6
CONTINUOUS
370
-3
390
F
  0
LAYER
  5
21C
100
AcDbSymbolTableRecord
100
AcDbLayerTableRecord
  2
9
 70
0
 62
7
  6
CONTINUOUS
370
-3
390
F
  0
LAYER
  5
21D
100
AcDbSymbolTableRecord
100
AcDbLayerTableRecord
  2
AXIS
 70
0
 62
7
  6
CONTINUOUS
370
-3
390
F
  0
LAYER
  5
21E
100
AcDbSymbolTableRecord
100
AcDbLayerTableRecord
  2
AXIS_COSMETIC_THREADS
 70
0
 62
7
  6
CONTINUOUS
370
-3
390
F
  0
LAYER
  5
21F
100
AcDbSymbolTableRecord
100
AcDbLayerTableRecord
  2
DATUM_CURVES
 70
0
 62
7
  6
CONTINUOUS
370
-3
390
F
  0
LAYER
  5
220
100
AcDbSymbolTableRecord
100
AcDbLayerTableRecord
  2
DATUM_PLANES
 70
0
 62
7
  6
CONTINUOUS
370
-3
390
F
  0
LAYER
  5
221
100
AcDbSymbolTableRecord
100
AcDbLayerTableRecord
  2
NOTES
 70
0
 62
7
  6
CONTINUOUS
370
-3
390
F
  0
LAYER
  5
222
100
AcDbSymbolTableRecord
100
AcDbLayerTableRecord
  2
QUILTS
 70
0
 62
7
  6
CONTINUOUS
370
-3
390
F
  0
LAYER
  5
223
100
AcDbSymbolTableRecord
100
AcDbLayerTableRecord
  2
SCHEME_DIMS
 70
0
 62
7
  6
CONTINUOUS
370
-3
390
F
  0
LAYER
  5
224
100
AcDbSymbolTableRecord
100
AcDbLayerTableRecord
  2
SYMBOLS
 70
0
 62
7
  6
CONTINUOUS
370
-3
390
F
  0
LAYER
  5
225
100
AcDbSymbolTableRecord
100
AcDbLayerTableRecord
  2
XSEC_DATUMS
 70
0
 62
7
  6
CONTINUOUS
370
-3
390
F
  0
ENDTAB
  0
TABLE
  2
STYLE
  5
3
100
AcDbSymbolTable
 70
1
  0
STYLE
  5
11
100
AcDbSymbolTableRecord
100
AcDbTextStyleTableRecord
  2
STANDARD
 70
0
 40
0.0
 41
1.0
 50
0.0
 71
0
 42
0.2
  3
txt
  4

  0
STYLE
  5
226
100
AcDbSymbolTableRecord
100
AcDbTextStyleTableRecord
  2
TEXTSTYLE_1
 70
0
 40
0.0
 41
0.8
 50
0.0
 71
0
 42
0.2
  3
gdt
  4

  0
STYLE
  5
227
100
AcDbSymbolTableRecord
100
AcDbTextStyleTableRecord
  2
TEXTSTYLE_2
 70
0
 40
0.0
 41
0.8
 50
0.0
 71
0
 42
0.2
  3
txt
  4

  0
STYLE
  5
228
100
AcDbSymbolTableRecord
100
AcDbTextStyleTableRecord
  2
TEXTSTYLE_3
 70
0
 40
0.0
 41
0.85
 50
0.0
 71
0
 42
0.2
  3
txt
  4

  0
STYLE
  5
229
100
AcDbSymbolTableRecord
100
AcDbTextStyleTableRecord
  2
TEXTSTYLE_4
 70
0
 40
0.0
 41
0.92
 50
0.0
 71
0
 42
0.2
  3
txt
  4

  0
STYLE
  5
22A
100
AcDbSymbolTableRecord
100
AcDbTextStyleTableRecord
  2
TEXTSTYLE_5
 70
0
 40
0.0
 41
1.0
 50
0.0
 71
0
 42
0.2
  3
gdt
  4

  0
ENDTAB
  0
TABLE
  2
VIEW
  5
6
100
AcDbSymbolTable
 70
0
  0
ENDTAB
  0
TABLE
  2
UCS
  5
7
100
AcDbSymbolTable
 70
0
  0
ENDTAB
  0
TABLE
  2
APPID
  5
9
100
AcDbSymbolTable
 70
1
  0
APPID
  5
22B
100
AcDbSymbolTableRecord
100
AcDbRegAppTableRecord
  2
ACAD
 70
0
  0
ENDTAB
  0
TABLE
  2
BLOCK_RECORD
  5
1
100
AcDbSymbolTable
 70
0
  0
BLOCK_RECORD
  5
22C
100
AcDbSymbolTableRecord
100
AcDbBlockTableRecord
  2
*Model_Space
  0
BLOCK_RECORD
  5
22D
100
AcDbSymbolTableRecord
100
AcDbBlockTableRecord
  2
*Paper_Space
  0
BLOCK_RECORD
  5
22E
100
AcDbSymbolTableRecord
100
AcDbBlockTableRecord
  2
_FILLED
  0
BLOCK_RECORD
  5
22F
100
AcDbSymbolTableRecord
100
AcDbBlockTableRecord
  2
*D0
  0
BLOCK_RECORD
  5
230
100
AcDbSymbolTableRecord
100
AcDbBlockTableRecord
  2
*D1
  0
BLOCK_RECORD
  5
231
100
AcDbSymbolTableRecord
100
AcDbBlockTableRecord
  2
*D2
  0
BLOCK_RECORD
  5
232
100
AcDbSymbolTableRecord
100
AcDbBlockTableRecord
  2
*D3
  0
BLOCK_RECORD
  5
233
100
AcDbSymbolTableRecord
100
AcDbBlockTableRecord
  2
*D4
  0
BLOCK_RECORD
  5
234
100
AcDbSymbolTableRecord
100
AcDbBlockTableRecord
  2
BANNER_LOGO_TITLEBLOCK_BL0
  0
ENDTAB
  0
TABLE
  2
DIMSTYLE
  5
A
100
AcDbSymbolTable
 70
1
100
AcDbDimStyleTable
 71
0
  0
DIMSTYLE
105
235
100
AcDbSymbolTableRecord
100
AcDbDimStyleTableRecord
  2
STANDARD
 70
0
  3

  4

 40
1.0
 41
0.1875
 42
0.0625
 43
0.38
 44
0.18
 45
0.0
 46
0.0
 47
0.005
 48
0.005
140
0.1
141
0.09
142
0.0
143
25.4
144
1.0
145
0.0
146
1.0
147
0.09
 71
1.0
 72
0.0
 73
1
 74
1
 75
0
 76
0
 77
0
 78
4
170
0
171
2
172
0
173
0
174
0
175
0
176
0
177
0
178
0
270
2
271
3
272
3
273
2
274
2
275
0
280
0
281
0
282
0
283
1
284
4
285
0
286
0
287
3
288
0
340
11
341
22E
342
22E
343
22E
344
22E
  0
DIMSTYLE
105
236
100
AcDbSymbolTableRecord
100
AcDbDimStyleTableRecord
  2
DIMSTYLE_1
 70
0
  3

  4

 40
1.0
 41
0.1875
 42
0.0625
 43
0.38
 44
0.18
 45
0.0
 46
0.0
 47
0.1
 48
0.1
140
0.1
141
0.09
142
0.0
143
25.4
144
1.0
145
0.0
146
1.0
147
0.09
 71
0.0
 72
0.0
 73
1
 74
1
 75
0
 76
0
 77
0
 78
4
170
0
171
2
172
0
173
0
174
0
175
0
176
0
177
0
178
0
270
2
271
1
272
1
273
2
274
2
275
0
280
0
281
0
282
0
283
1
284
4
285
0
286
0
287
3
288
0
340
11
341
22E
342
22E
343
22E
344
22E
  0
ENDTAB
  0
ENDSEC
  0
SECTION
  2
BLOCKS
  0
BLOCK
  5
20
100
AcDbEntity
  8
0
100
AcDbBlockBegin
  2
*Model_Space
 70
0
 10
0.0
 20
0.0
 30
0.0
  3
*Model_Space
  1

  0
ENDBLK
  5
21
100
AcDbEntity
  8
0
100
AcDbBlockEnd
  0
BLOCK
  5
1C
100
AcDbEntity
  8
0
100
AcDbBlockBegin
  2
*Paper_Space
 70
0
 10
0.0
 20
0.0
 30
0.0
  3
*Paper_Space
  1

  0
ENDBLK
  5
1D
100
AcDbEntity
  8
0
100
AcDbBlockEnd
  0
BLOCK
  5
237
100
AcDbEntity
  8
0
100
AcDbBlockBegin
 62
2
  6
CONTINUOUS
  2
BANNER_LOGO_TITLEBLOCK_BL0
 70
64
 10
12.9086867042
 20
2.5403783405
  3
BANNER_LOGO_TITLEBLOCK_BL0
  1

  0
ELLIPSE
  5
238
100
AcDbEntity
  8
0
100
AcDbEllipse
 62
2
  6
CONTINUOUS
 10
12.9046654608
 20
2.5403783405
 30
0.0
 11
-0.8250004575
 21
0.0
 31
0.0
 40
0.218572
 41
0.0
 42
6.2831853072
  0
ARC
  5
239
100
AcDbEntity
  8
0
100
AcDbCircle
 62
2
  6
CONTINUOUS
 10
12.400005721
 20
2.5168763464
 40
0.0153945295
100
AcDbArc
 50
354.0454548824
 51
5.1878013979
  0
ARC
  5
23A
100
AcDbEntity
  8
0
100
AcDbCircle
 62
2
  6
CONTINUOUS
 10
12.3931760319
 20
2.5166878286
 40
0.0222174455
100
AcDbArc
 50
4.0793399388
 51
69.834329283
  0
LINE
  5
23B
100
AcDbEntity
  8
0
100
AcDbLine
 62
2
  6
CONTINUOUS
 10
12.4008351814
 20
2.5375433389
 11
12.3907841758
 21
2.5410923409
  0
LINE
  5
23C
100
AcDbEntity
  8
0
100
AcDbLine
 62
2
  6
CONTINUOUS
 10
12.3907841758
 20
2.5410923409
 11
12.3990241804
 21
2.5458683435
  0
ARC
  5
23D
100
AcDbEntity
  8
0
100
AcDbCircle
 62
2
  6
CONTINUOUS
 10
12.3771587979
 20
2.5826952352
 40
0.0428289026
100
AcDbArc
 50
300.6990502959
 51
319.0591802498
  0
ARC
  5
23E
100
AcDbEntity
  8
0
100
AcDbCircle
 62
2
  6
CONTINUOUS
 10
12.3971873948
 20
2.5665668817
 40
0.0171568255
100
AcDbArc
 50
315.9145124245
 51
16.0049121282
  0
ARC
  5
23F
100
AcDbEntity
  8
0
100
AcDbCircle
 62
2
  6
CONTINUOUS
 10
12.3922357827
 20
2.5632132173
 40
0.0229166529
100
AcDbArc
 50
20.6563876465
 51
62.3316896973
  0
ARC
  5
240
100
AcDbEntity
  8
0
100
AcDbCircle
 62
2
  6
CONTINUOUS
 10
12.371573659
 20
2.5302846524
 40
0.061747717
100
AcDbArc
 50
59.5385584989
 51
90.0050977555
  0
LINE
  5
241
100
AcDbEntity
  8
0
100
AcDbLine
 62
2
  6
CONTINUOUS
 10
12.3715681652
 20
2.5920323691
 11
12.2055050731
 21
2.5920323691
  0
ARC
  5
242
100
AcDbEntity
  8
0
100
AcDbCircle
 62
2
  6
CONTINUOUS
 10
12.2055050712
 20
2.5895573696
 40
0.0024749995
100
AcDbArc
 50
89.9999571957
 51
180.0000428043
  0
LINE
  5
243
100
AcDbEntity
  8
0
100
AcDbLine
 62
2
  6
CONTINUOUS
 10
12.2030300717
 20
2.5895573678
 11
12.2030300717
 21
2.5697573568
  0
ARC
  5
244
100
AcDbEntity
  8
0
100
AcDbCircle
 62
2
  6
CONTINUOUS
 10
12.2055050712
 20
2.5697573549
 40
0.0024749995
100
AcDbArc
 50
179.9999571957
 51
270.0000428043
  0
LINE
  5
245
100
AcDbEntity
  8
0
100
AcDbLine
 62
2
  6
CONTINUOUS
 10
12.2055050731
 20
2.5672823554
 11
12.2294470864
 21
2.5672823554
  0
ARC
  5
246
100
AcDbEntity
  8
0
100
AcDbCircle
 62
2
  6
CONTINUOUS
 10
12.2294470882
 20
2.5648073559
 40
0.0024749995
100
AcDbArc
 50
359.9999571957
 51
90.0000428043
  0
LINE
  5
247
100
AcDbEntity
  8
0
100
AcDbLine
 62
2
  6
CONTINUOUS
 10
12.2319220877
 20
2.564807354
 11
12.2319220877
 21
2.5184523283
  0
ARC
  5
248
100
AcDbEntity
  8
0
100
AcDbCircle
 62
2
  6
CONTINUOUS
 10
12.2294470882
 20
2.5184523265
 40
0.0024749995
100
AcDbArc
 50
269.9999571957
 51
0.0000428043
  0
LINE
  5
249
100
AcDbEntity
  8
0
100
AcDbLine
 62
2
  6
CONTINUOUS
 10
12.2294470864
 20
2.515977327
 11
12.2055050731
 21
2.515977327
  0
ARC
  5
24A
100
AcDbEntity
  8
0
100
AcDbCircle
 62
2
  6
CONTINUOUS
 10
12.2055050712
 20
2.5135023274
 40
0.0024749995
100
AcDbArc
 50
89.9999571957
 51
180.0000428043
  0
LINE
  5
24B
100
AcDbEntity
  8
0
100
AcDbLine
 62
2
  6
CONTINUOUS
 10
12.2030300717
 20
2.5135023256
 11
12.2030300717
 21
2.4937023146
  0
ARC
  5
24C
100
AcDbEntity
  8
0
100
AcDbCircle
 62
2
  6
CONTINUOUS
 10
12.2055050712
 20
2.4937023128
 40
0.0024749995
100
AcDbArc
 50
179.9999571957
 51
270.0000428043
  0
LINE
  5
24D
100
AcDbEntity
  8
0
100
AcDbLine
 62
2
  6
CONTINUOUS
 10
12.2055050731
 20
2.4912273132
 11
12.3819511709
 21
2.4912273132
  0
ARC
  5
24E
100
AcDbEntity
  8
0
100
AcDbCircle
 62
2
  6
CONTINUOUS
 10
12.3792298263
 20
2.539634765
 40
0.048483885
100
AcDbArc
 50
273.21763719
 51
303.0749121182
  0
ARC
  5
24F
100
AcDbEntity
  8
0
100
AcDbCircle
 62
2
  6
CONTINUOUS
 10
12.3940692204
 20
2.5168671561
 40
0.0213072145
100
AcDbArc
 50
303.0488228549
 51
355.7263138674
  0
LINE
  5
250
100
AcDbEntity
  8
0
100
AcDbLine
 62
2
  6
CONTINUOUS
 10
12.2949101227
 20
2.5499573458
 11
12.3362731456
 21
2.5499573458
  0
ARC
  5
251
100
AcDbEntity
  8
0
100
AcDbCircle
 62
2
  6
CONTINUOUS
 10
12.3362731456
 20
2.5586198506
 40
0.0086625048
100
AcDbArc
 50
270.0
 51
90.0
  0
LINE
  5
252
100
AcDbEntity
  8
0
100
AcDbLine
 62
2
  6
CONTINUOUS
 10
12.3362731456
 20
2.5672823554
 11
12.2949101227
 21
2.5672823554
  0
ARC
  5
253
100
AcDbEntity
  8
0
100
AcDbCircle
 62
2
  6
CONTINUOUS
 10
12.2949101208
 20
2.5648073559
 40
0.0024749995
100
AcDbArc
 50
89.9999571957
 51
180.0000428043
  0
LINE
  5
254
100
AcDbEntity
  8
0
100
AcDbLine
 62
2
  6
CONTINUOUS
 10
12.2924351213
 20
2.564807354
 11
12.2924351213
 21
2.5524323472
  0
ARC
  5
255
100
AcDbEntity
  8
0
100
AcDbCircle
 62
2
  6
CONTINUOUS
 10
12.2949101208
 20
2.5524323453
 40
0.0024749995
100
AcDbArc
 50
179.9999571957
 51
270.0000428043
  0
LINE
  5
256
100
AcDbEntity
  8
0
100
AcDbLine
 62
2
  6
CONTINUOUS
 10
12.2924351213
 20
2.5184523283
 11
12.2924351213
 21
2.5308273352
  0
ARC
  5
257
100
AcDbEntity
  8
0
100
AcDbCircle
 62
2
  6
CONTINUOUS
 10
12.2949101208
 20
2.530827337
 40
0.0024749995
100
AcDbArc
 50
89.9999571957
 51
180.0000428043
  0
LINE
  5
258
100
AcDbEntity
  8
0
100
AcDbLine
 62
2
  6
CONTINUOUS
 10
12.2949101227
 20
2.5333023366
 11
12.3362731456
 21
2.5333023366
  0
ARC
  5
259
100
AcDbEntity
  8
0
100
AcDbCircle
 62
2
  6
CONTINUOUS
 10
12.3362731456
 20
2.5246398318
 40
0.0086625048
100
AcDbArc
 50
270.0
 51
90.0
  0
LINE
  5
25A
100
AcDbEntity
  8
0
100
AcDbLine
 62
2
  6
CONTINUOUS
 10
12.3362731456
 20
2.515977327
 11
12.2949101227
 21
2.515977327
  0
ARC
  5
25B
100
AcDbEntity
  8
0
100
AcDbCircle
 62
2
  6
CONTINUOUS
 10
12.2949101208
 20
2.5184523265
 40
0.0024749995
100
AcDbArc
 50
179.9999571957
 51
270.0000428043
  0
ARC
  5
25C
100
AcDbEntity
  8
0
100
AcDbCircle
 62
2
  6
CONTINUOUS
 10
13.5806801742
 20
2.5212486481
 40
0.044722495
100
AcDbArc
 50
195.531588407
 51
204.7624440448
  0
LINE
  5
25D
100
AcDbEntity
  8
0
100
AcDbLine
 62
2
  6
CONTINUOUS
 10
13.5375908118
 20
2.5092733232
 11
13.5357868108
 21
2.5153423266
  0
ARC
  5
25E
100
AcDbEntity
  8
0
100
AcDbCircle
 62
2
  6
CONTINUOUS
 10
13.4974076135
 20
2.5055452462
 40
0.0396099176
100
AcDbArc
 50
14.3201081283
 51
22.4984722084
  0
ARC
  5
25F
100
AcDbEntity
  8
0
100
AcDbCircle
 62
2
  6
CONTINUOUS
 10
13.5201739219
 20
2.5145168728
 40
0.0151491919
100
AcDbArc
 50
24.098260853
 51
63.0369451818
  0
ARC
  5
260
100
AcDbEntity
  8
0
100
AcDbCircle
 62
2
  6
CONTINUOUS
 10
13.5161192671
 20
2.5062372524
 40
0.0243676582
100
AcDbArc
 50
63.3666028271
 51
90.3937697637
  0
LINE
  5
261
100
AcDbEntity
  8
0
100
AcDbLine
 62
2
  6
CONTINUOUS
 10
13.5159517998
 20
2.5306043351
 11
13.4883447845
 21
2.5306043351
  0
ARC
  5
262
100
AcDbEntity
  8
0
100
AcDbCircle
 62
2
  6
CONTINUOUS
 10
13.4883447827
 20
2.5281293355
 40
0.0024749995
100
AcDbArc
 50
89.9999571957
 51
180.0000428043
  0
LINE
  5
263
100
AcDbEntity
  8
0
100
AcDbLine
 62
2
  6
CONTINUOUS
 10
13.4858697831
 20
2.5281293337
 11
13.4858697831
 21
2.5184303283
  0
ARC
  5
264
100
AcDbEntity
  8
0
100
AcDbCircle
 62
2
  6
CONTINUOUS
 10
13.4883447827
 20
2.5184303265
 40
0.0024749995
100
AcDbArc
 50
179.9999571957
 51
270.0000428043
  0
LINE
  5
265
100
AcDbEntity
  8
0
100
AcDbLine
 62
2
  6
CONTINUOUS
 10
13.4883447845
 20
2.5159553269
 11
13.5130037982
 21
2.5159553269
  0
ARC
  5
266
100
AcDbEntity
  8
0
100
AcDbCircle
 62
2
  6
CONTINUOUS
 10
13.5130038
 20
2.5134803274
 40
0.0024749995
100
AcDbArc
 50
359.9999571957
 51
90.0000428043
  0
LINE
  5
267
100
AcDbEntity
  8
0
100
AcDbLine
 62
2
  6
CONTINUOUS
 10
13.5154787995
 20
2.5134803256
 11
13.5154787995
 21
2.4937023146
  0
ARC
  5
268
100
AcDbEntity
  8
0
100
AcDbCircle
 62
2
  6
CONTINUOUS
 10
13.5130038
 20
2.4937023128
 40
0.0024749995
100
AcDbArc
 50
269.9999571957
 51
0.0000428043
  0
LINE
  5
269
100
AcDbEntity
  8
0
100
AcDbLine
 62
2
  6
CONTINUOUS
 10
13.5130037982
 20
2.4912273132
 11
13.3994327352
 21
2.4912273132
  0
ARC
  5
26A
100
AcDbEntity
  8
0
100
AcDbCircle
 62
2
  6
CONTINUOUS
 10
13.3994327333
 20
2.4937023128
 40
0.0024749995
100
AcDbArc
 50
179.9999571957
 51
270.0000428043
  0
LINE
  5
26B
100
AcDbEntity
  8
0
100
AcDbLine
 62
2
  6
CONTINUOUS
 10
13.3969577338
 20
2.4937023146
 11
13.3969577338
 21
2.5135023256
  0
ARC
  5
26C
100
AcDbEntity
  8
0
100
AcDbCircle
 62
2
  6
CONTINUOUS
 10
13.3994327333
 20
2.5135023274
 40
0.0024749995
100
AcDbArc
 50
89.9999571957
 51
180.0000428043
  0
LINE
  5
26D
100
AcDbEntity
  8
0
100
AcDbLine
 62
2
  6
CONTINUOUS
 10
13.3994327352
 20
2.515977327
 11
13.4221787478
 21
2.515977327
  0
ARC
  5
26E
100
AcDbEntity
  8
0
100
AcDbCircle
 62
2
  6
CONTINUOUS
 10
13.4221787497
 20
2.5184523265
 40
0.0024749995
100
AcDbArc
 50
269.9999571957
 51
0.0000428042
  0
LINE
  5
26F
100
AcDbEntity
  8
0
100
AcDbLine
 62
2
  6
CONTINUOUS
 10
13.4246537492
 20
2.5184523283
 11
13.4246537492
 21
2.564807354
  0
ARC
  5
270
100
AcDbEntity
  8
0
100
AcDbCircle
 62
2
  6
CONTINUOUS
 10
13.4221787497
 20
2.5648073559
 40
0.0024749995
100
AcDbArc
 50
359.9999571957
 51
90.0000428043
  0
LINE
  5
271
100
AcDbEntity
  8
0
100
AcDbLine
 62
2
  6
CONTINUOUS
 10
13.4221787478
 20
2.5672823554
 11
13.3994327352
 21
2.5672823554
  0
ARC
  5
272
100
AcDbEntity
  8
0
100
AcDbCircle
 62
2
  6
CONTINUOUS
 10
13.3994327333
 20
2.5697573549
 40
0.0024749995
100
AcDbArc
 50
179.9999571957
 51
270.0000428043
  0
LINE
  5
273
100
AcDbEntity
  8
0
100
AcDbLine
 62
2
  6
CONTINUOUS
 10
13.3969577338
 20
2.5697573568
 11
13.3969577338
 21
2.5895573678
  0
ARC
  5
274
100
AcDbEntity
  8
0
100
AcDbCircle
 62
2
  6
CONTINUOUS
 10
13.3994327333
 20
2.5895573696
 40
0.0024749995
100
AcDbArc
 50
89.9999571957
 51
180.0000428043
  0
LINE
  5
275
100
AcDbEntity
  8
0
100
AcDbLine
 62
2
  6
CONTINUOUS
 10
13.3994327352
 20
2.5920323691
 11
13.5490138181
 21
2.5920323691
  0
ARC
  5
276
100
AcDbEntity
  8
0
100
AcDbCircle
 62
2
  6
CONTINUOUS
 10
13.5463505148
 20
2.4094934586
 40
0.1825583387
100
AcDbArc
 50
79.8618509324
 51
89.1640948679
  0
ARC
  5
277
100
AcDbEntity
  8
0
100
AcDbCircle
 62
2
  6
CONTINUOUS
 10
13.5726548052
 20
2.5503169747
 40
0.039319019
100
AcDbArc
 50
59.1202086415
 51
81.4730239328
  0
ARC
  5
278
100
AcDbEntity
  8
0
100
AcDbCircle
 62
2
  6
CONTINUOUS
 10
13.5783142014
 20
2.5566516438
 40
0.0310192946
100
AcDbArc
 50
34.7540871
 51
62.0879016178
  0
ARC
  5
279
100
AcDbEntity
  8
0
100
AcDbCircle
 62
2
  6
CONTINUOUS
 10
13.5900029525
 20
2.565201245
 40
0.0165459396
100
AcDbArc
 50
1.548452892
 51
33.5033152417
  0
ARC
  5
27A
100
AcDbEntity
  8
0
100
AcDbCircle
 62
2
  6
CONTINUOUS
 10
13.5932995477
 20
2.5653696972
 40
0.0132462337
100
AcDbArc
 50
331.1510006998
 51
1.205404301
  0
ARC
  5
27B
100
AcDbEntity
  8
0
100
AcDbCircle
 62
2
  6
CONTINUOUS
 10
13.5822888914
 20
2.5720482849
 40
0.0261183659
100
AcDbArc
 50
305.6373831893
 51
329.9727629745
  0
ARC
  5
27C
100
AcDbEntity
  8
0
100
AcDbCircle
 62
2
  6
CONTINUOUS
 10
13.5519569538
 20
2.6152551345
 40
0.0789082104
100
AcDbArc
 50
292.906155071
 51
305.2574666259
  0
ARC
  5
27D
100
AcDbEntity
  8
0
100
AcDbCircle
 62
2
  6
CONTINUOUS
 10
13.5282557878
 20
2.4386010294
 40
0.117346916
100
AcDbArc
 50
58.614769177
 51
62.3737227606
  0
ARC
  5
27E
100
AcDbEntity
  8
0
100
AcDbCircle
 62
2
  6
CONTINUOUS
 10
13.5761387404
 20
2.5167282896
 40
0.0257145923
100
AcDbArc
 50
39.3804255939
 51
59.0361096173
  0
ARC
  5
27F
100
AcDbEntity
  8
0
100
AcDbCircle
 62
2
  6
CONTINUOUS
 10
13.5750183849
 20
2.5166552064
 40
0.0266349791
100
AcDbArc
 50
20.3630922153
 51
37.9727053099
  0
ARC
  5
280
100
AcDbEntity
  8
0
100
AcDbCircle
 62
2
  6
CONTINUOUS
 10
13.5571178432
 20
2.509473798
 40
0.0459185159
100
AcDbArc
 50
15.6740290068
 51
20.9917271228
  0
ARC
  5
281
100
AcDbEntity
  8
0
100
AcDbCircle
 62
2
  6
CONTINUOUS
 10
13.6156881783
 20
2.525116781
 40
0.0147197649
100
AcDbArc
 50
192.7054516565
 51
206.0594861022
  0
ARC
  5
282
100
AcDbEntity
  8
0
100
AcDbCircle
 62
2
  6
CONTINUOUS
 10
13.6071938412
 20
2.5209082945
 40
0.0052403997
100
AcDbArc
 50
205.5232099488
 51
227.5054868079
  0
ARC
  5
283
100
AcDbEntity
  8
0
100
AcDbCircle
 62
2
  6
CONTINUOUS
 10
13.6054655419
 20
2.5190929218
 40
0.0027347709
100
AcDbArc
 50
228.5117626737
 51
266.1485845754
  0
LINE
  5
284
100
AcDbEntity
  8
0
100
AcDbLine
 62
2
  6
CONTINUOUS
 10
13.6052818493
 20
2.5163643272
 11
13.60639085
 21
2.5163643272
  0
ARC
  5
285
100
AcDbEntity
  8
0
100
AcDbCircle
 62
2
  6
CONTINUOUS
 10
13.6063292954
 20
2.5296129864
 40
0.0132488022
100
AcDbArc
 50
270.266200055
 51
281.2404888597
  0
ARC
  5
286
100
AcDbEntity
  8
0
100
AcDbCircle
 62
2
  6
CONTINUOUS
 10
13.6075235364
 20
2.5238762928
 40
0.0073895522
100
AcDbArc
 50
280.8288201977
 51
305.0837508495
  0
ARC
  5
287
100
AcDbEntity
  8
0
100
AcDbCircle
 62
2
  6
CONTINUOUS
 10
13.607924718
 20
2.5230254464
 40
0.0064647042
100
AcDbArc
 50
306.5086174083
 51
340.2162360092
  0
ARC
  5
288
100
AcDbEntity
  8
0
100
AcDbCircle
 62
2
  6
CONTINUOUS
 10
13.6027235414
 20
2.524769508
 40
0.0119498009
100
AcDbArc
 50
340.7883861657
 51
1.1691452593
  0
LINE
  5
289
100
AcDbEntity
  8
0
100
AcDbLine
 62
2
  6
CONTINUOUS
 10
13.6146708546
 20
2.525013332
 11
13.6146708546
 21
2.5276393334
  0
ARC
  5
28A
100
AcDbEntity
  8
0
100
AcDbCircle
 62
2
  6
CONTINUOUS
 10
13.6171458541
 20
2.5276393353
 40
0.0024749995
100
AcDbArc
 50
89.9999571957
 51
180.0000428043
  0
LINE
  5
28B
100
AcDbEntity
  8
0
100
AcDbLine
 62
2
  6
CONTINUOUS
 10
13.6171458559
 20
2.5301143348
 11
13.6292558626
 21
2.5301143348
  0
ARC
  5
28C
100
AcDbEntity
  8
0
100
AcDbCircle
 62
2
  6
CONTINUOUS
 10
13.6292558645
 20
2.5276393353
 40
0.0024749995
100
AcDbArc
 50
359.9999571957
 51
90.0000428043
  0
LINE
  5
28D
100
AcDbEntity
  8
0
100
AcDbLine
 62
2
  6
CONTINUOUS
 10
13.631730864
 20
2.5276393334
 11
13.631730864
 21
2.516087327
  0
ARC
  5
28E
100
AcDbEntity
  8
0
100
AcDbCircle
 62
2
  6
CONTINUOUS
 10
13.6141751675
 20
2.5161916447
 40
0.0175560065
100
AcDbArc
 50
332.2279060967
 51
359.6595469939
  0
ARC
  5
28F
100
AcDbEntity
  8
0
100
AcDbCircle
 62
2
  6
CONTINUOUS
 10
13.6048681567
 20
2.5210861501
 40
0.0280715479
100
AcDbArc
 50
308.5071794988
 51
332.2400656899
  0
ARC
  5
290
100
AcDbEntity
  8
0
100
AcDbCircle
 62
2
  6
CONTINUOUS
 10
13.5978759713
 20
2.5286873679
 40
0.0383802683
100
AcDbArc
 50
288.7656836787
 51
309.6104317088
  0
ARC
  5
291
100
AcDbEntity
  8
0
100
AcDbCircle
 62
2
  6
CONTINUOUS
 10
13.6036139387
 20
2.5111006186
 40
0.0198837666
100
AcDbArc
 50
271.8586572978
 51
289.4131338543
  0
LINE
  5
292
100
AcDbEntity
  8
0
100
AcDbLine
 62
2
  6
CONTINUOUS
 10
13.6042588488
 20
2.4912273132
 11
13.5568948225
 21
2.4912273132
  0
ARC
  5
293
100
AcDbEntity
  8
0
100
AcDbCircle
 62
2
  6
CONTINUOUS
 10
13.5577001432
 20
2.5085494649
 40
0.0173408616
100
AcDbArc
 50
232.4713476722
 51
267.338189944
  0
ARC
  5
294
100
AcDbEntity
  8
0
100
AcDbCircle
 62
2
  6
CONTINUOUS
 10
13.5607987082
 20
2.5143997688
 40
0.0238935861
100
AcDbArc
 50
209.8247607259
 51
235.1255079367
  0
ARC
  5
295
100
AcDbEntity
  8
0
100
AcDbCircle
 62
2
  6
CONTINUOUS
 10
13.5295131508
 20
2.5629115009
 40
0.0110815393
100
AcDbArc
 50
306.758405961
 51
320.4502234234
  0
ARC
  5
296
100
AcDbEntity
  8
0
100
AcDbCircle
 62
2
  6
CONTINUOUS
 10
13.5238839599
 20
2.5706523294
 40
0.0206523367
100
AcDbArc
 50
289.6883413472
 51
306.4184925496
  0
ARC
  5
297
100
AcDbEntity
  8
0
100
AcDbCircle
 62
2
  6
CONTINUOUS
 10
13.5219564542
 20
2.5750459767
 40
0.0254407115
100
AcDbArc
 50
270.7327484175
 51
290.441894219
  0
LINE
  5
298
100
AcDbEntity
  8
0
100
AcDbLine
 62
2
  6
CONTINUOUS
 10
13.5222818033
 20
2.5496073456
 11
13.4883447845
 21
2.5496073456
  0
ARC
  5
299
100
AcDbEntity
  8
0
100
AcDbCircle
 62
2
  6
CONTINUOUS
 10
13.4883447827
 20
2.5520823451
 40
0.0024749995
100
AcDbArc
 50
179.9999571957
 51
270.0000428043
  0
LINE
  5
29A
100
AcDbEntity
  8
0
100
AcDbLine
 62
2
  6
CONTINUOUS
 10
13.4858697831
 20
2.552082347
 11
13.4858697831
 21
2.564807354
  0
ARC
  5
29B
100
AcDbEntity
  8
0
100
AcDbCircle
 62
2
  6
CONTINUOUS
 10
13.4883447827
 20
2.5648073559
 40
0.0024749995
100
AcDbArc
 50
89.9999571957
 51
180.0000428043
  0
LINE
  5
29C
100
AcDbEntity
  8
0
100
AcDbLine
 62
2
  6
CONTINUOUS
 10
13.4883447845
 20
2.5672823554
 11
13.5251458049
 21
2.5672823554
  0
ARC
  5
29D
100
AcDbEntity
  8
0
100
AcDbCircle
 62
2
  6
CONTINUOUS
 10
13.5236009174
 20
2.5388278764
 40
0.0284963867
100
AcDbArc
 50
70.3834917948
 51
86.8922743861
  0
ARC
  5
29E
100
AcDbEntity
  8
0
100
AcDbCircle
 62
2
  6
CONTINUOUS
 10
13.5284605274
 20
2.5518696094
 40
0.0145814632
100
AcDbArc
 50
54.6746025112
 51
71.1660573124
  0
ARC
  5
29F
100
AcDbEntity
  8
0
100
AcDbCircle
 62
2
  6
CONTINUOUS
 10
13.5335900184
 20
2.5587235346
 40
0.0060275915
100
AcDbArc
 50
20.9055592135
 51
56.7851676243
  0
ARC
  5
2A0
100
AcDbEntity
  8
0
100
AcDbCircle
 62
2
  6
CONTINUOUS
 10
13.5348905773
 20
2.5593838168
 40
0.0045795888
100
AcDbArc
 50
355.6235353944
 51
18.9942678268
  0
ARC
  5
2A1
100
AcDbEntity
  8
0
100
AcDbCircle
 62
2
  6
CONTINUOUS
 10
13.533683767
 20
2.559677593
 40
0.0058087709
100
AcDbArc
 50
318.8515287446
 51
353.6422345323
  0
LINE
  5
2A2
100
AcDbEntity
  8
0
100
AcDbLine
 62
2
  6
CONTINUOUS
 10
12.672340332
 20
2.5920323691
 11
12.7727983877
 21
2.5920323691
  0
ARC
  5
2A3
100
AcDbEntity
  8
0
100
AcDbCircle
 62
2
  6
CONTINUOUS
 10
12.7727985224
 20
2.5895582013
 40
0.0024741678
100
AcDbArc
 50
46.3477981899
 51
90.0031206038
  0
LINE
  5
2A4
100
AcDbEntity
  8
0
100
AcDbLine
 62
2
  6
CONTINUOUS
 10
12.7745063886
 20
2.5913483688
 11
12.8345394219
 21
2.534068337
  0
ARC
  5
2A5
100
AcDbEntity
  8
0
100
AcDbCircle
 62
2
  6
CONTINUOUS
 10
12.8362481229
 20
2.5358592748
 40
0.0024753014
100
AcDbArc
 50
226.3461263059
 51
0.0014637321
  0
LINE
  5
2A6
100
AcDbEntity
  8
0
100
AcDbLine
 62
2
  6
CONTINUOUS
 10
12.8387234242
 20
2.535859338
 11
12.8387234242
 21
2.564807354
  0
ARC
  5
2A7
100
AcDbEntity
  8
0
100
AcDbCircle
 62
2
  6
CONTINUOUS
 10
12.8362484247
 20
2.5648073559
 40
0.0024749995
100
AcDbArc
 50
359.9999571957
 51
90.0000428043
  0
LINE
  5
2A8
100
AcDbEntity
  8
0
100
AcDbLine
 62
2
  6
CONTINUOUS
 10
12.8362484229
 20
2.5672823554
 11
12.8174724125
 21
2.5672823554
  0
ARC
  5
2A9
100
AcDbEntity
  8
0
100
AcDbCircle
 62
2
  6
CONTINUOUS
 10
12.8174724106
 20
2.5697573549
 40
0.0024749995
100
AcDbArc
 50
179.9999571957
 51
270.0000428043
  0
LINE
  5
2AA
100
AcDbEntity
  8
0
100
AcDbLine
 62
2
  6
CONTINUOUS
 10
12.8149974111
 20
2.5697573568
 11
12.8149974111
 21
2.5895573678
  0
ARC
  5
2AB
100
AcDbEntity
  8
0
100
AcDbCircle
 62
2
  6
CONTINUOUS
 10
12.8174724106
 20
2.5895573696
 40
0.0024749995
100
AcDbArc
 50
89.9999571957
 51
180.0000428043
  0
LINE
  5
2AC
100
AcDbEntity
  8
0
100
AcDbLine
 62
2
  6
CONTINUOUS
 10
12.8174724125
 20
2.5920323691
 11
12.8914734535
 21
2.5920323691
  0
ARC
  5
2AD
100
AcDbEntity
  8
0
100
AcDbCircle
 62
2
  6
CONTINUOUS
 10
12.8914734553
 20
2.5895573696
 40
0.0024749995
100
AcDbArc
 50
359.9999571957
 51
90.0000428043
  0
LINE
  5
2AE
100
AcDbEntity
  8
0
100
AcDbLine
 62
2
  6
CONTINUOUS
 10
12.8939484549
 20
2.5895573678
 11
12.8939484549
 21
2.5697573568
  0
ARC
  5
2AF
100
AcDbEntity
  8
0
100
AcDbCircle
 62
2
  6
CONTINUOUS
 10
12.8914734553
 20
2.5697573549
 40
0.0024749995
100
AcDbArc
 50
269.9999571957
 51
0.0000428043
  0
LINE
  5
2B0
100
AcDbEntity
  8
0
100
AcDbLine
 62
2
  6
CONTINUOUS
 10
12.8914734535
 20
2.5672823554
 11
12.8735404436
 21
2.5672823554
  0
ARC
  5
2B1
100
AcDbEntity
  8
0
100
AcDbCircle
 62
2
  6
CONTINUOUS
 10
12.8735404417
 20
2.5648073559
 40
0.0024749995
100
AcDbArc
 50
89.9999571957
 51
180.0000428043
  0
LINE
  5
2B2
100
AcDbEntity
  8
0
100
AcDbLine
 62
2
  6
CONTINUOUS
 10
12.8710654422
 20
2.564807354
 11
12.8710654422
 21
2.4937023146
  0
ARC
  5
2B3
100
AcDbEntity
  8
0
100
AcDbCircle
 62
2
  6
CONTINUOUS
 10
12.8685904427
 20
2.4937023128
 40
0.0024749995
100
AcDbArc
 50
269.9999571957
 51
0.0000428043
  0
LINE
  5
2B4
100
AcDbEntity
  8
0
100
AcDbLine
 62
2
  6
CONTINUOUS
 10
12.8685904408
 20
2.4912273132
 11
12.7943853997
 21
2.4912273132
  0
ARC
  5
2B5
100
AcDbEntity
  8
0
100
AcDbCircle
 62
2
  6
CONTINUOUS
 10
12.7943847649
 20
2.4937027294
 40
0.0024754162
100
AcDbArc
 50
226.3593695813
 51
270.0146919953
  0
LINE
  5
2B6
100
AcDbEntity
  8
0
100
AcDbLine
 62
2
  6
CONTINUOUS
 10
12.7926763987
 20
2.4919113136
 11
12.7293963636
 21
2.5522893471
  0
ARC
  5
2B7
100
AcDbEntity
  8
0
100
AcDbCircle
 62
2
  6
CONTINUOUS
 10
12.7276876627
 20
2.5504984093
 40
0.0024753014
100
AcDbArc
 50
46.3461263059
 51
180.0014637321
  0
LINE
  5
2B8
100
AcDbEntity
  8
0
100
AcDbLine
 62
2
  6
CONTINUOUS
 10
12.7252123613
 20
2.5504983461
 11
12.7252123613
 21
2.5184523283
  0
ARC
  5
2B9
100
AcDbEntity
  8
0
100
AcDbCircle
 62
2
  6
CONTINUOUS
 10
12.7276873608
 20
2.5184523265
 40
0.0024749995
100
AcDbArc
 50
179.9999571957
 51
270.0000428043
  0
LINE
  5
2BA
100
AcDbEntity
  8
0
100
AcDbLine
 62
2
  6
CONTINUOUS
 10
12.7276873627
 20
2.515977327
 11
12.7480043739
 21
2.515977327
  0
ARC
  5
2BB
100
AcDbEntity
  8
0
100
AcDbCircle
 62
2
  6
CONTINUOUS
 10
12.7480043758
 20
2.5135023274
 40
0.0024749995
100
AcDbArc
 50
359.9999571957
 51
90.0000428043
  0
LINE
  5
2BC
100
AcDbEntity
  8
0
100
AcDbLine
 62
2
  6
CONTINUOUS
 10
12.7504793753
 20
2.5135023256
 11
12.7504793753
 21
2.4937023146
  0
ARC
  5
2BD
100
AcDbEntity
  8
0
100
AcDbCircle
 62
2
  6
CONTINUOUS
 10
12.7480043758
 20
2.4937023128
 40
0.0024749995
100
AcDbArc
 50
269.9999571957
 51
0.0000428043
  0
LINE
  5
2BE
100
AcDbEntity
  8
0
100
AcDbLine
 62
2
  6
CONTINUOUS
 10
12.7480043739
 20
2.4912273132
 11
12.672340332
 21
2.4912273132
  0
ARC
  5
2BF
100
AcDbEntity
  8
0
100
AcDbCircle
 62
2
  6
CONTINUOUS
 10
12.6723403301
 20
2.4937023128
 40
0.0024749995
100
AcDbArc
 50
179.9999571957
 51
270.0000428043
  0
LINE
  5
2C0
100
AcDbEntity
  8
0
100
AcDbLine
 62
2
  6
CONTINUOUS
 10
12.6698653306
 20
2.4937023146
 11
12.6698653306
 21
2.5135023256
  0
ARC
  5
2C1
100
AcDbEntity
  8
0
100
AcDbCircle
 62
2
  6
CONTINUOUS
 10
12.6723403301
 20
2.5135023274
 40
0.0024749995
100
AcDbArc
 50
89.9999571957
 51
180.0000428043
  0
LINE
  5
2C2
100
AcDbEntity
  8
0
100
AcDbLine
 62
2
  6
CONTINUOUS
 10
12.672340332
 20
2.515977327
 11
12.6909873423
 21
2.515977327
  0
ARC
  5
2C3
100
AcDbEntity
  8
0
100
AcDbCircle
 62
2
  6
CONTINUOUS
 10
12.6909873442
 20
2.5184523265
 40
0.0024749995
100
AcDbArc
 50
269.9999571957
 51
0.0000428043
  0
LINE
  5
2C4
100
AcDbEntity
  8
0
100
AcDbLine
 62
2
  6
CONTINUOUS
 10
12.6934623437
 20
2.5184523283
 11
12.6934623437
 21
2.564807354
  0
ARC
  5
2C5
100
AcDbEntity
  8
0
100
AcDbCircle
 62
2
  6
CONTINUOUS
 10
12.6909873442
 20
2.5648073559
 40
0.0024749995
100
AcDbArc
 50
359.9999571957
 51
90.0000428043
  0
LINE
  5
2C6
100
AcDbEntity
  8
0
100
AcDbLine
 62
2
  6
CONTINUOUS
 10
12.6909873423
 20
2.5672823554
 11
12.672340332
 21
2.5672823554
  0
ARC
  5
2C7
100
AcDbEntity
  8
0
100
AcDbCircle
 62
2
  6
CONTINUOUS
 10
12.6723403301
 20
2.5697573549
 40
0.0024749995
100
AcDbArc
 50
179.9999571957
 51
270.0000428043
  0
LINE
  5
2C8
100
AcDbEntity
  8
0
100
AcDbLine
 62
2
  6
CONTINUOUS
 10
12.6698653306
 20
2.5697573568
 11
12.6698653306
 21
2.5895573678
  0
ARC
  5
2C9
100
AcDbEntity
  8
0
100
AcDbCircle
 62
2
  6
CONTINUOUS
 10
12.6723403301
 20
2.5895573696
 40
0.0024749995
100
AcDbArc
 50
89.9999571957
 51
180.0000428043
  0
LINE
  5
2CA
100
AcDbEntity
  8
0
100
AcDbLine
 62
2
  6
CONTINUOUS
 10
12.5246402501
 20
2.5655893545
 11
12.5175232461
 21
2.5543723483
  0
ARC
  5
2CB
100
AcDbEntity
  8
0
100
AcDbCircle
 62
2
  6
CONTINUOUS
 10
12.519613138
 20
2.5530463862
 40
0.0024750401
100
AcDbArc
 50
147.6063258012
 51
270.0025305754
  0
LINE
  5
2CC
100
AcDbEntity
  8
0
100
AcDbLine
 62
2
  6
CONTINUOUS
 10
12.5196132473
 20
2.5505713461
 11
12.5401702587
 21
2.5505713461
  0
ARC
  5
2CD
100
AcDbEntity
  8
0
100
AcDbCircle
 62
2
  6
CONTINUOUS
 10
12.5401702375
 20
2.5530465533
 40
0.0024752071
100
AcDbArc
 50
270.0004896793
 51
32.9089806818
  0
LINE
  5
2CE
100
AcDbEntity
  8
0
100
AcDbLine
 62
2
  6
CONTINUOUS
 10
12.5422482598
 20
2.5543913483
 11
12.5349892558
 21
2.5656073545
  0
ARC
  5
2CF
100
AcDbEntity
  8
0
100
AcDbCircle
 62
2
  6
CONTINUOUS
 10
12.532910715
 20
2.564262895
 40
0.0024754602
100
AcDbArc
 50
32.8959418573
 51
89.9875097202
  0
LINE
  5
2D0
100
AcDbEntity
  8
0
100
AcDbLine
 62
2
  6
CONTINUOUS
 10
12.5329112547
 20
2.5667383551
 11
12.5267302512
 21
2.5667383551
  0
ARC
  5
2D1
100
AcDbEntity
  8
0
100
AcDbCircle
 62
2
  6
CONTINUOUS
 10
12.5267301809
 20
2.5642631548
 40
0.0024752003
100
AcDbArc
 50
89.998372645
 51
147.602165307
  0
LINE
  5
2D2
100
AcDbEntity
  8
0
100
AcDbLine
 62
2
  6
CONTINUOUS
 10
12.548053263
 20
2.5284903339
 11
12.5536792662
 21
2.5197973291
  0
ARC
  5
2D3
100
AcDbEntity
  8
0
100
AcDbCircle
 62
2
  6
CONTINUOUS
 10
12.5516012439
 20
2.5184525341
 40
0.0024752071
100
AcDbArc
 50
270.0004896794
 51
32.9089806818
  0
LINE
  5
2D4
100
AcDbEntity
  8
0
100
AcDbLine
 62
2
  6
CONTINUOUS
 10
12.551601265
 20
2.515977327
 11
12.537150257
 21
2.515977327
  0
ARC
  5
2D5
100
AcDbEntity
  8
0
100
AcDbCircle
 62
2
  6
CONTINUOUS
 10
12.5371502552
 20
2.5135023274
 40
0.0024749995
100
AcDbArc
 50
89.9999571957
 51
180.0000428043
  0
LINE
  5
2D6
100
AcDbEntity
  8
0
100
AcDbLine
 62
2
  6
CONTINUOUS
 10
12.5346752556
 20
2.5135023256
 11
12.5346752556
 21
2.4937023146
  0
ARC
  5
2D7
100
AcDbEntity
  8
0
100
AcDbCircle
 62
2
  6
CONTINUOUS
 10
12.5371502552
 20
2.4937023128
 40
0.0024749995
100
AcDbArc
 50
179.9999571957
 51
270.0000428043
  0
LINE
  5
2D8
100
AcDbEntity
  8
0
100
AcDbLine
 62
2
  6
CONTINUOUS
 10
12.537150257
 20
2.4912273132
 11
12.6424313154
 21
2.4912273132
  0
ARC
  5
2D9
100
AcDbEntity
  8
0
100
AcDbCircle
 62
2
  6
CONTINUOUS
 10
12.6424313172
 20
2.4937023128
 40
0.0024749995
100
AcDbArc
 50
269.9999571957
 51
0.0000428043
  0
LINE
  5
2DA
100
AcDbEntity
  8
0
100
AcDbLine
 62
2
  6
CONTINUOUS
 10
12.6449063168
 20
2.4937023146
 11
12.6449063168
 21
2.5135023256
  0
ARC
  5
2DB
100
AcDbEntity
  8
0
100
AcDbCircle
 62
2
  6
CONTINUOUS
 10
12.6424313172
 20
2.5135023274
 40
0.0024749995
100
AcDbArc
 50
359.9999571957
 51
90.0000428043
  0
LINE
  5
2DC
100
AcDbEntity
  8
0
100
AcDbLine
 62
2
  6
CONTINUOUS
 10
12.6424313154
 20
2.515977327
 11
12.6224153043
 21
2.515977327
  0
ARC
  5
2DD
100
AcDbEntity
  8
0
100
AcDbCircle
 62
2
  6
CONTINUOUS
 10
12.6224154248
 20
2.518451368
 40
0.002474041
100
AcDbArc
 50
212.9056413127
 51
269.9972091756
  0
LINE
  5
2DE
100
AcDbEntity
  8
0
100
AcDbLine
 62
2
  6
CONTINUOUS
 10
12.6203383031
 20
2.5171073276
 11
12.5725822767
 21
2.5909023685
  0
ARC
  5
2DF
100
AcDbEntity
  8
0
100
AcDbCircle
 62
2
  6
CONTINUOUS
 10
12.570504655
 20
2.589557409
 40
0.0024749602
100
AcDbArc
 50
32.9172174468
 51
90.0087853097
  0
LINE
  5
2E0
100
AcDbEntity
  8
0
100
AcDbLine
 62
2
  6
CONTINUOUS
 10
12.5705042755
 20
2.5920323691
 11
12.5133292438
 21
2.5920323691
  0
ARC
  5
2E1
100
AcDbEntity
  8
0
100
AcDbCircle
 62
2
  6
CONTINUOUS
 10
12.5133291735
 20
2.5895571688
 40
0.0024752003
100
AcDbArc
 50
89.9983726451
 51
147.602165307
  0
LINE
  5
2E2
100
AcDbEntity
  8
0
100
AcDbLine
 62
2
  6
CONTINUOUS
 10
12.5112392426
 20
2.5908833685
 11
12.4644392167
 21
2.5171263276
  0
ARC
  5
2E3
100
AcDbEntity
  8
0
100
AcDbCircle
 62
2
  6
CONTINUOUS
 10
12.4623492858
 20
2.5184525273
 40
0.0024752003
100
AcDbArc
 50
269.9983726451
 51
327.602165307
  0
LINE
  5
2E4
100
AcDbEntity
  8
0
100
AcDbLine
 62
2
  6
CONTINUOUS
 10
12.4623492155
 20
2.515977327
 11
12.4394882028
 21
2.515977327
  0
ARC
  5
2E5
100
AcDbEntity
  8
0
100
AcDbCircle
 62
2
  6
CONTINUOUS
 10
12.439488201
 20
2.5135023274
 40
0.0024749995
100
AcDbArc
 50
89.9999571957
 51
180.0000428043
  0
LINE
  5
2E6
100
AcDbEntity
  8
0
100
AcDbLine
 62
2
  6
CONTINUOUS
 10
12.4370132015
 20
2.5135023256
 11
12.4370132015
 21
2.4937023146
  0
ARC
  5
2E7
100
AcDbEntity
  8
0
100
AcDbCircle
 62
2
  6
CONTINUOUS
 10
12.439488201
 20
2.4937023128
 40
0.0024749995
100
AcDbArc
 50
179.9999571957
 51
270.0000428043
  0
LINE
  5
2E8
100
AcDbEntity
  8
0
100
AcDbLine
 62
2
  6
CONTINUOUS
 10
12.4394882028
 20
2.4912273132
 11
12.5168642458
 21
2.4912273132
  0
ARC
  5
2E9
100
AcDbEntity
  8
0
100
AcDbCircle
 62
2
  6
CONTINUOUS
 10
12.5168642476
 20
2.4937023128
 40
0.0024749995
100
AcDbArc
 50
269.9999571957
 51
0.0000428043
  0
LINE
  5
2EA
100
AcDbEntity
  8
0
100
AcDbLine
 62
2
  6
CONTINUOUS
 10
12.5193392471
 20
2.4937023146
 11
12.5193392471
 21
2.5135023256
  0
ARC
  5
2EB
100
AcDbEntity
  8
0
100
AcDbCircle
 62
2
  6
CONTINUOUS
 10
12.5168642476
 20
2.5135023274
 40
0.0024749995
100
AcDbArc
 50
359.9999571957
 51
90.0000428043
  0
LINE
  5
2EC
100
AcDbEntity
  8
0
100
AcDbLine
 62
2
  6
CONTINUOUS
 10
12.5168642458
 20
2.515977327
 11
12.5055812395
 21
2.515977327
  0
ARC
  5
2ED
100
AcDbEntity
  8
0
100
AcDbCircle
 62
2
  6
CONTINUOUS
 10
12.5055811302
 20
2.518452367
 40
0.0024750401
100
AcDbArc
 50
147.6063258011
 51
270.0025305754
  0
LINE
  5
2EE
100
AcDbEntity
  8
0
100
AcDbLine
 62
2
  6
CONTINUOUS
 10
12.5034912383
 20
2.5197783291
 11
12.5090072414
 21
2.5284723339
  0
ARC
  5
2EF
100
AcDbEntity
  8
0
100
AcDbCircle
 62
2
  6
CONTINUOUS
 10
12.5110971723
 20
2.5271461342
 40
0.0024752003
100
AcDbArc
 50
89.998372645
 51
147.602165307
  0
LINE
  5
2F0
100
AcDbEntity
  8
0
100
AcDbLine
 62
2
  6
CONTINUOUS
 10
12.5110972426
 20
2.5296213345
 11
12.5459752619
 21
2.5296213345
  0
ARC
  5
2F1
100
AcDbEntity
  8
0
100
AcDbCircle
 62
2
  6
CONTINUOUS
 10
12.5459747223
 20
2.5271458744
 40
0.0024754602
100
AcDbArc
 50
32.8959418573
 51
89.9875097202
  0
LINE
  5
2F2
100
AcDbEntity
  8
0
100
AcDbLine
 62
2
  6
CONTINUOUS
 10
12.9205934696
 20
2.5920323691
 11
13.0210515254
 21
2.5920323691
  0
ARC
  5
2F3
100
AcDbEntity
  8
0
100
AcDbCircle
 62
2
  6
CONTINUOUS
 10
13.0210516601
 20
2.5895582013
 40
0.0024741678
100
AcDbArc
 50
46.3477981899
 51
90.0031206038
  0
LINE
  5
2F4
100
AcDbEntity
  8
0
100
AcDbLine
 62
2
  6
CONTINUOUS
 10
13.0227595263
 20
2.5913483688
 11
13.0827925596
 21
2.534068337
  0
ARC
  5
2F5
100
AcDbEntity
  8
0
100
AcDbCircle
 62
2
  6
CONTINUOUS
 10
13.0845012605
 20
2.5358592748
 40
0.0024753014
100
AcDbArc
 50
226.3461263059
 51
0.0014637321
  0
LINE
  5
2F6
100
AcDbEntity
  8
0
100
AcDbLine
 62
2
  6
CONTINUOUS
 10
13.0869765619
 20
2.535859338
 11
13.0869765619
 21
2.564807354
  0
ARC
  5
2F7
100
AcDbEntity
  8
0
100
AcDbCircle
 62
2
  6
CONTINUOUS
 10
13.0845015624
 20
2.5648073559
 40
0.0024749995
100
AcDbArc
 50
359.9999571957
 51
90.0000428043
  0
LINE
  5
2F8
100
AcDbEntity
  8
0
100
AcDbLine
 62
2
  6
CONTINUOUS
 10
13.0845015605
 20
2.5672823554
 11
13.0657255501
 21
2.5672823554
  0
ARC
  5
2F9
100
AcDbEntity
  8
0
100
AcDbCircle
 62
2
  6
CONTINUOUS
 10
13.0657255483
 20
2.5697573549
 40
0.0024749995
100
AcDbArc
 50
179.9999571957
 51
270.0000428043
  0
LINE
  5
2FA
100
AcDbEntity
  8
0
100
AcDbLine
 62
2
  6
CONTINUOUS
 10
13.0632505488
 20
2.5697573568
 11
13.0632505488
 21
2.5895573678
  0
ARC
  5
2FB
100
AcDbEntity
  8
0
100
AcDbCircle
 62
2
  6
CONTINUOUS
 10
13.0657255483
 20
2.5895573696
 40
0.0024749995
100
AcDbArc
 50
89.9999571957
 51
180.0000428043
  0
LINE
  5
2FC
100
AcDbEntity
  8
0
100
AcDbLine
 62
2
  6
CONTINUOUS
 10
13.0657255501
 20
2.5920323691
 11
13.1397265912
 21
2.5920323691
  0
ARC
  5
2FD
100
AcDbEntity
  8
0
100
AcDbCircle
 62
2
  6
CONTINUOUS
 10
13.139726593
 20
2.5895573696
 40
0.0024749995
100
AcDbArc
 50
359.9999571957
 51
90.0000428043
  0
LINE
  5
2FE
100
AcDbEntity
  8
0
100
AcDbLine
 62
2
  6
CONTINUOUS
 10
13.1422015925
 20
2.5895573678
 11
13.1422015925
 21
2.5697573568
  0
ARC
  5
2FF
100
AcDbEntity
  8
0
100
AcDbCircle
 62
2
  6
CONTINUOUS
 10
13.139726593
 20
2.5697573549
 40
0.0024749995
100
AcDbArc
 50
269.9999571957
 51
0.0000428042
  0
LINE
  5
300
100
AcDbEntity
  8
0
100
AcDbLine
 62
2
  6
CONTINUOUS
 10
13.1397265912
 20
2.5672823554
 11
13.1217935812
 21
2.5672823554
  0
ARC
  5
301
100
AcDbEntity
  8
0
100
AcDbCircle
 62
2
  6
CONTINUOUS
 10
13.1217935794
 20
2.5648073559
 40
0.0024749995
100
AcDbArc
 50
89.9999571957
 51
180.0000428042
  0
LINE
  5
302
100
AcDbEntity
  8
0
100
AcDbLine
 62
2
  6
CONTINUOUS
 10
13.1193185799
 20
2.564807354
 11
13.1193185799
 21
2.4937023146
  0
ARC
  5
303
100
AcDbEntity
  8
0
100
AcDbCircle
 62
2
  6
CONTINUOUS
 10
13.1168435803
 20
2.4937023128
 40
0.0024749995
100
AcDbArc
 50
269.9999571957
 51
0.0000428043
  0
LINE
  5
304
100
AcDbEntity
  8
0
100
AcDbLine
 62
2
  6
CONTINUOUS
 10
13.1168435785
 20
2.4912273132
 11
13.0426375373
 21
2.4912273132
  0
ARC
  5
305
100
AcDbEntity
  8
0
100
AcDbCircle
 62
2
  6
CONTINUOUS
 10
13.0426374026
 20
2.493701481
 40
0.0024741678
100
AcDbArc
 50
226.3477981898
 51
270.0031206038
  0
LINE
  5
306
100
AcDbEntity
  8
0
100
AcDbLine
 62
2
  6
CONTINUOUS
 10
13.0409295364
 20
2.4919113136
 11
12.9776495013
 21
2.5522893471
  0
ARC
  5
307
100
AcDbEntity
  8
0
100
AcDbCircle
 62
2
  6
CONTINUOUS
 10
12.9759408003
 20
2.5504984093
 40
0.0024753014
100
AcDbArc
 50
46.3461263059
 51
180.0014637321
  0
LINE
  5
308
100
AcDbEntity
  8
0
100
AcDbLine
 62
2
  6
CONTINUOUS
 10
12.973465499
 20
2.5504983461
 11
12.973465499
 21
2.5184523283
  0
ARC
  5
309
100
AcDbEntity
  8
0
100
AcDbCircle
 62
2
  6
CONTINUOUS
 10
12.9759404985
 20
2.5184523265
 40
0.0024749995
100
AcDbArc
 50
179.9999571957
 51
270.0000428043
  0
LINE
  5
30A
100
AcDbEntity
  8
0
100
AcDbLine
 62
2
  6
CONTINUOUS
 10
12.9759405003
 20
2.515977327
 11
12.9962575116
 21
2.515977327
  0
ARC
  5
30B
100
AcDbEntity
  8
0
100
AcDbCircle
 62
2
  6
CONTINUOUS
 10
12.9962575135
 20
2.5135023274
 40
0.0024749995
100
AcDbArc
 50
359.9999571957
 51
90.0000428043
  0
LINE
  5
30C
100
AcDbEntity
  8
0
100
AcDbLine
 62
2
  6
CONTINUOUS
 10
12.998732513
 20
2.5135023256
 11
12.998732513
 21
2.4937023146
  0
ARC
  5
30D
100
AcDbEntity
  8
0
100
AcDbCircle
 62
2
  6
CONTINUOUS
 10
12.9962575135
 20
2.4937023128
 40
0.0024749995
100
AcDbArc
 50
269.9999571957
 51
0.0000428043
  0
LINE
  5
30E
100
AcDbEntity
  8
0
100
AcDbLine
 62
2
  6
CONTINUOUS
 10
12.9962575116
 20
2.4912273132
 11
12.9205934696
 21
2.4912273132
  0
ARC
  5
30F
100
AcDbEntity
  8
0
100
AcDbCircle
 62
2
  6
CONTINUOUS
 10
12.9205934678
 20
2.4937023128
 40
0.0024749995
100
AcDbArc
 50
179.9999571957
 51
270.0000428043
  0
LINE
  5
310
100
AcDbEntity
  8
0
100
AcDbLine
 62
2
  6
CONTINUOUS
 10
12.9181184683
 20
2.4937023146
 11
12.9181184683
 21
2.5135023256
  0
ARC
  5
311
100
AcDbEntity
  8
0
100
AcDbCircle
 62
2
  6
CONTINUOUS
 10
12.9205934678
 20
2.5135023274
 40
0.0024749995
100
AcDbArc
 50
89.9999571957
 51
180.0000428042
  0
LINE
  5
312
100
AcDbEntity
  8
0
100
AcDbLine
 62
2
  6
CONTINUOUS
 10
12.9205934696
 20
2.515977327
 11
12.93923948
 21
2.515977327
  0
ARC
  5
313
100
AcDbEntity
  8
0
100
AcDbCircle
 62
2
  6
CONTINUOUS
 10
12.9392394818
 20
2.5184523265
 40
0.0024749995
100
AcDbArc
 50
269.9999571957
 51
0.0000428043
  0
LINE
  5
314
100
AcDbEntity
  8
0
100
AcDbLine
 62
2
  6
CONTINUOUS
 10
12.9417144814
 20
2.5184523283
 11
12.9417144814
 21
2.564807354
  0
ARC
  5
315
100
AcDbEntity
  8
0
100
AcDbCircle
 62
2
  6
CONTINUOUS
 10
12.9392394818
 20
2.5648073559
 40
0.0024749995
100
AcDbArc
 50
359.9999571957
 51
90.0000428043
  0
LINE
  5
316
100
AcDbEntity
  8
0
100
AcDbLine
 62
2
  6
CONTINUOUS
 10
12.93923948
 20
2.5672823554
 11
12.9205934696
 21
2.5672823554
  0
ARC
  5
317
100
AcDbEntity
  8
0
100
AcDbCircle
 62
2
  6
CONTINUOUS
 10
12.9205934678
 20
2.5697573549
 40
0.0024749995
100
AcDbArc
 50
179.9999571957
 51
270.0000428043
  0
LINE
  5
318
100
AcDbEntity
  8
0
100
AcDbLine
 62
2
  6
CONTINUOUS
 10
12.9181184683
 20
2.5697573568
 11
12.9181184683
 21
2.5895573678
  0
ARC
  5
319
100
AcDbEntity
  8
0
100
AcDbCircle
 62
2
  6
CONTINUOUS
 10
12.9205934678
 20
2.5895573696
 40
0.0024749995
100
AcDbArc
 50
89.9999571957
 51
180.0000428042
  0
LINE
  5
31A
100
AcDbEntity
  8
0
100
AcDbLine
 62
2
  6
CONTINUOUS
 10
13.2934226764
 20
2.5324773361
 11
13.2582556569
 21
2.5324773361
  0
ARC
  5
31B
100
AcDbEntity
  8
0
100
AcDbCircle
 62
2
  6
CONTINUOUS
 10
13.2582556551
 20
2.5300023366
 40
0.0024749995
100
AcDbArc
 50
89.9999571957
 51
180.0000428043
  0
LINE
  5
31C
100
AcDbEntity
  8
0
100
AcDbLine
 62
2
  6
CONTINUOUS
 10
13.2557806555
 20
2.5300023347
 11
13.2557806555
 21
2.5184523283
  0
ARC
  5
31D
100
AcDbEntity
  8
0
100
AcDbCircle
 62
2
  6
CONTINUOUS
 10
13.2582556551
 20
2.5184523265
 40
0.0024749995
100
AcDbArc
 50
179.9999571957
 51
270.0000428043
  0
LINE
  5
31E
100
AcDbEntity
  8
0
100
AcDbLine
 62
2
  6
CONTINUOUS
 10
13.2582556569
 20
2.515977327
 11
13.3232596929
 21
2.515977327
  0
ARC
  5
31F
100
AcDbEntity
  8
0
100
AcDbCircle
 62
2
  6
CONTINUOUS
 10
13.3232596948
 20
2.5184523265
 40
0.0024749995
100
AcDbArc
 50
269.9999571957
 51
0.0000428043
  0
LINE
  5
320
100
AcDbEntity
  8
0
100
AcDbLine
 62
2
  6
CONTINUOUS
 10
13.3257346943
 20
2.5184523283
 11
13.3257346943
 21
2.5267023329
  0
ARC
  5
321
100
AcDbEntity
  8
0
100
AcDbCircle
 62
2
  6
CONTINUOUS
 10
13.3282096938
 20
2.5267023348
 40
0.0024749995
100
AcDbArc
 50
89.9999571957
 51
180.0000428043
  0
LINE
  5
322
100
AcDbEntity
  8
0
100
AcDbLine
 62
2
  6
CONTINUOUS
 10
13.3282096957
 20
2.5291773343
 11
13.3705287192
 21
2.5291773343
  0
ARC
  5
323
100
AcDbEntity
  8
0
100
AcDbCircle
 62
2
  6
CONTINUOUS
 10
13.370528721
 20
2.5267023348
 40
0.0024749995
100
AcDbArc
 50
359.9999571957
 51
90.0000428043
  0
LINE
  5
324
100
AcDbEntity
  8
0
100
AcDbLine
 62
2
  6
CONTINUOUS
 10
13.3730037205
 20
2.5267023329
 11
13.3730037205
 21
2.4937023146
  0
ARC
  5
325
100
AcDbEntity
  8
0
100
AcDbCircle
 62
2
  6
CONTINUOUS
 10
13.370528721
 20
2.4937023128
 40
0.0024749995
100
AcDbArc
 50
269.9999571957
 51
0.0000428043
  0
LINE
  5
326
100
AcDbEntity
  8
0
100
AcDbLine
 62
2
  6
CONTINUOUS
 10
13.3705287192
 20
2.4912273132
 11
13.1673166065
 21
2.4912273132
  0
ARC
  5
327
100
AcDbEntity
  8
0
100
AcDbCircle
 62
2
  6
CONTINUOUS
 10
13.1673166046
 20
2.4937023128
 40
0.0024749995
100
AcDbArc
 50
179.9999571957
 51
270.0000428043
  0
LINE
  5
328
100
AcDbEntity
  8
0
100
AcDbLine
 62
2
  6
CONTINUOUS
 10
13.1648416051
 20
2.4937023146
 11
13.1648416051
 21
2.5135023256
  0
ARC
  5
329
100
AcDbEntity
  8
0
100
AcDbCircle
 62
2
  6
CONTINUOUS
 10
13.1673166046
 20
2.5135023274
 40
0.0024749995
100
AcDbArc
 50
89.9999571957
 51
180.0000428043
  0
LINE
  5
32A
100
AcDbEntity
  8
0
100
AcDbLine
 62
2
  6
CONTINUOUS
 10
13.1673166065
 20
2.515977327
 11
13.1912396197
 21
2.515977327
  0
ARC
  5
32B
100
AcDbEntity
  8
0
100
AcDbCircle
 62
2
  6
CONTINUOUS
 10
13.1912396216
 20
2.5184523265
 40
0.0024749995
100
AcDbArc
 50
269.9999571957
 51
0.0000428042
  0
LINE
  5
32C
100
AcDbEntity
  8
0
100
AcDbLine
 62
2
  6
CONTINUOUS
 10
13.1937146211
 20
2.5184523283
 11
13.1937146211
 21
2.564807354
  0
ARC
  5
32D
100
AcDbEntity
  8
0
100
AcDbCircle
 62
2
  6
CONTINUOUS
 10
13.1912396216
 20
2.5648073559
 40
0.0024749995
100
AcDbArc
 50
359.9999571957
 51
90.0000428043
  0
LINE
  5
32E
100
AcDbEntity
  8
0
100
AcDbLine
 62
2
  6
CONTINUOUS
 10
13.1912396197
 20
2.5672823554
 11
13.1673166065
 21
2.5672823554
  0
ARC
  5
32F
100
AcDbEntity
  8
0
100
AcDbCircle
 62
2
  6
CONTINUOUS
 10
13.1673166046
 20
2.5697573549
 40
0.0024749995
100
AcDbArc
 50
179.9999571957
 51
270.0000428043
  0
LINE
  5
330
100
AcDbEntity
  8
0
100
AcDbLine
 62
2
  6
CONTINUOUS
 10
13.1648416051
 20
2.5697573568
 11
13.1648416051
 21
2.5895573678
  0
ARC
  5
331
100
AcDbEntity
  8
0
100
AcDbCircle
 62
2
  6
CONTINUOUS
 10
13.1673166046
 20
2.5895573696
 40
0.0024749995
100
AcDbArc
 50
89.9999571957
 51
180.0000428043
  0
LINE
  5
332
100
AcDbEntity
  8
0
100
AcDbLine
 62
2
  6
CONTINUOUS
 10
13.1673166065
 20
2.5920323691
 11
13.3691097184
 21
2.5920323691
  0
ARC
  5
333
100
AcDbEntity
  8
0
100
AcDbCircle
 62
2
  6
CONTINUOUS
 10
13.3691097202
 20
2.5895573696
 40
0.0024749995
100
AcDbArc
 50
359.9999571957
 51
90.0000428043
  0
LINE
  5
334
100
AcDbEntity
  8
0
100
AcDbLine
 62
2
  6
CONTINUOUS
 10
13.3715847197
 20
2.5895573678
 11
13.3715847197
 21
2.5565573495
  0
ARC
  5
335
100
AcDbEntity
  8
0
100
AcDbCircle
 62
2
  6
CONTINUOUS
 10
13.3691097202
 20
2.5565573476
 40
0.0024749995
100
AcDbArc
 50
269.9999571957
 51
0.0000428042
  0
LINE
  5
336
100
AcDbEntity
  8
0
100
AcDbLine
 62
2
  6
CONTINUOUS
 10
13.3691097184
 20
2.5540823481
 11
13.3272456952
 21
2.5540823481
  0
ARC
  5
337
100
AcDbEntity
  8
0
100
AcDbCircle
 62
2
  6
CONTINUOUS
 10
13.3272456933
 20
2.5565573476
 40
0.0024749995
100
AcDbArc
 50
179.9999571957
 51
270.0000428043
  0
LINE
  5
338
100
AcDbEntity
  8
0
100
AcDbLine
 62
2
  6
CONTINUOUS
 10
13.3247706938
 20
2.5565573495
 11
13.3247706938
 21
2.564807354
  0
ARC
  5
339
100
AcDbEntity
  8
0
100
AcDbCircle
 62
2
  6
CONTINUOUS
 10
13.3222956943
 20
2.5648073559
 40
0.0024749995
100
AcDbArc
 50
359.9999571957
 51
90.0000428043
  0
LINE
  5
33A
100
AcDbEntity
  8
0
100
AcDbLine
 62
2
  6
CONTINUOUS
 10
13.3222956924
 20
2.5672823554
 11
13.2582556569
 21
2.5672823554
  0
ARC
  5
33B
100
AcDbEntity
  8
0
100
AcDbCircle
 62
2
  6
CONTINUOUS
 10
13.2582556551
 20
2.5648073559
 40
0.0024749995
100
AcDbArc
 50
89.9999571957
 51
180.0000428043
  0
LINE
  5
33C
100
AcDbEntity
  8
0
100
AcDbLine
 62
2
  6
CONTINUOUS
 10
13.2557806555
 20
2.564807354
 11
13.2557806555
 21
2.5532573476
  0
ARC
  5
33D
100
AcDbEntity
  8
0
100
AcDbCircle
 62
2
  6
CONTINUOUS
 10
13.2582556551
 20
2.5532573458
 40
0.0024749995
100
AcDbArc
 50
179.9999571957
 51
270.0000428043
  0
LINE
  5
33E
100
AcDbEntity
  8
0
100
AcDbLine
 62
2
  6
CONTINUOUS
 10
13.2582556569
 20
2.5507823463
 11
13.2934226764
 21
2.5507823463
  0
ARC
  5
33F
100
AcDbEntity
  8
0
100
AcDbCircle
 62
2
  6
CONTINUOUS
 10
13.2934226783
 20
2.5483073467
 40
0.0024749995
100
AcDbArc
 50
359.9999571957
 51
90.0000428043
  0
LINE
  5
340
100
AcDbEntity
  8
0
100
AcDbLine
 62
2
  6
CONTINUOUS
 10
13.2958976778
 20
2.5483073449
 11
13.2958976778
 21
2.5349523375
  0
ARC
  5
341
100
AcDbEntity
  8
0
100
AcDbCircle
 62
2
  6
CONTINUOUS
 10
13.2934226783
 20
2.5349523356
 40
0.0024749995
100
AcDbArc
 50
269.9999571957
 51
0.0000428042
  0
LINE
  5
342
100
AcDbEntity
  8
0
100
AcDbLine
 62
2
  6
CONTINUOUS
 10
13.7286871589
 20
2.5350697372
 11
13.7286871589
 21
2.5456869438
  0
LINE
  5
343
100
AcDbEntity
  8
0
100
AcDbLine
 62
2
  6
CONTINUOUS
 10
13.7086871478
 20
2.5004302075
 11
13.7086871478
 21
2.5803264735
  0
LINE
  5
344
100
AcDbEntity
  8
0
100
AcDbLine
 62
2
  6
CONTINUOUS
 10
13.6886871368
 20
2.4843919416
 11
13.6886871368
 21
2.5963647394
  0
LINE
  5
345
100
AcDbEntity
  8
0
100
AcDbLine
 62
2
  6
CONTINUOUS
 10
13.6686871257
 20
2.4726017898
 11
13.6686871257
 21
2.6081548911
  0
LINE
  5
346
100
AcDbEntity
  8
0
100
AcDbLine
 62
2
  6
CONTINUOUS
 10
13.6486871146
 20
2.4628062688
 11
13.6486871146
 21
2.6179504122
  0
LINE
  5
347
100
AcDbEntity
  8
0
100
AcDbLine
 62
2
  6
CONTINUOUS
 10
13.6286871035
 20
2.4541253507
 11
13.6286871035
 21
2.5062483056
  0
LINE
  5
348
100
AcDbEntity
  8
0
100
AcDbLine
 62
2
  6
CONTINUOUS
 10
13.6286871035
 20
2.5301143348
 11
13.6286871035
 21
2.6266313303
  0
LINE
  5
349
100
AcDbEntity
  8
0
100
AcDbLine
 62
2
  6
CONTINUOUS
 10
13.6086870924
 20
2.4465537903
 11
13.6086870924
 21
2.4918774918
  0
LINE
  5
34A
100
AcDbEntity
  8
0
100
AcDbLine
 62
2
  6
CONTINUOUS
 10
13.6086870924
 20
2.5165781173
 11
13.6086870924
 21
2.6342028907
  0
LINE
  5
34B
100
AcDbEntity
  8
0
100
AcDbLine
 62
2
  6
CONTINUOUS
 10
13.5886870813
 20
2.4398033466
 11
13.5886870813
 21
2.4912273132
  0
LINE
  5
34C
100
AcDbEntity
  8
0
100
AcDbLine
 62
2
  6
CONTINUOUS
 10
13.5886870813
 20
2.5391840845
 11
13.5886870813
 21
2.5454298327
  0
LINE
  5
34D
100
AcDbEntity
  8
0
100
AcDbLine
 62
2
  6
CONTINUOUS
 10
13.5886870813
 20
2.5862063472
 11
13.5886870813
 21
2.6409533343
  0
LINE
  5
34E
100
AcDbEntity
  8
0
100
AcDbLine
 62
2
  6
CONTINUOUS
 10
13.5686870702
 20
2.4334702189
 11
13.5686870702
 21
2.4912273132
  0
LINE
  5
34F
100
AcDbEntity
  8
0
100
AcDbLine
 62
2
  6
CONTINUOUS
 10
13.5686870702
 20
2.5906587765
 11
13.5686870702
 21
2.647286462
  0
LINE
  5
350
100
AcDbEntity
  8
0
100
AcDbLine
 62
2
  6
CONTINUOUS
 10
13.5486870591
 20
2.4278968124
 11
13.5486870591
 21
2.4937461006
  0
LINE
  5
351
100
AcDbEntity
  8
0
100
AcDbLine
 62
2
  6
CONTINUOUS
 10
13.5486870591
 20
2.5920323691
 11
13.5486870591
 21
2.6528598686
  0
LINE
  5
352
100
AcDbEntity
  8
0
100
AcDbLine
 62
2
  6
CONTINUOUS
 10
13.528687048
 20
2.4225427674
 11
13.528687048
 21
2.5270426993
  0
LINE
  5
353
100
AcDbEntity
  8
0
100
AcDbLine
 62
2
  6
CONTINUOUS
 10
13.528687048
 20
2.5505166259
 11
13.528687048
 21
2.5668657091
  0
LINE
  5
354
100
AcDbEntity
  8
0
100
AcDbLine
 62
2
  6
CONTINUOUS
 10
13.528687048
 20
2.5920323691
 11
13.528687048
 21
2.6582139136
  0
LINE
  5
355
100
AcDbEntity
  8
0
100
AcDbLine
 62
2
  6
CONTINUOUS
 10
13.5086870369
 20
2.4177306791
 11
13.5086870369
 21
2.4912273132
  0
LINE
  5
356
100
AcDbEntity
  8
0
100
AcDbLine
 62
2
  6
CONTINUOUS
 10
13.5086870369
 20
2.5159553269
 11
13.5086870369
 21
2.5306043351
  0
LINE
  5
357
100
AcDbEntity
  8
0
100
AcDbLine
 62
2
  6
CONTINUOUS
 10
13.5086870369
 20
2.5496073456
 11
13.5086870369
 21
2.5672823554
  0
LINE
  5
358
100
AcDbEntity
  8
0
100
AcDbLine
 62
2
  6
CONTINUOUS
 10
13.5086870369
 20
2.5920323691
 11
13.5086870369
 21
2.6630260019
  0
LINE
  5
359
100
AcDbEntity
  8
0
100
AcDbLine
 62
2
  6
CONTINUOUS
 10
13.4886870258
 20
2.4131795254
 11
13.4886870258
 21
2.4912273132
  0
LINE
  5
35A
100
AcDbEntity
  8
0
100
AcDbLine
 62
2
  6
CONTINUOUS
 10
13.4886870258
 20
2.5159553269
 11
13.4886870258
 21
2.5306043351
  0
LINE
  5
35B
100
AcDbEntity
  8
0
100
AcDbLine
 62
2
  6
CONTINUOUS
 10
13.4886870258
 20
2.5496073456
 11
13.4886870258
 21
2.5672823554
  0
LINE
  5
35C
100
AcDbEntity
  8
0
100
AcDbLine
 62
2
  6
CONTINUOUS
 10
13.4886870258
 20
2.5920323691
 11
13.4886870258
 21
2.6675771555
  0
LINE
  5
35D
100
AcDbEntity
  8
0
100
AcDbLine
 62
2
  6
CONTINUOUS
 10
13.4686870147
 20
2.4088819672
 11
13.4686870147
 21
2.4912273132
  0
LINE
  5
35E
100
AcDbEntity
  8
0
100
AcDbLine
 62
2
  6
CONTINUOUS
 10
13.4686870147
 20
2.5920323691
 11
13.4686870147
 21
2.6718747138
  0
LINE
  5
35F
100
AcDbEntity
  8
0
100
AcDbLine
 62
2
  6
CONTINUOUS
 10
13.4486870037
 20
2.4050092072
 11
13.4486870037
 21
2.4912273132
  0
LINE
  5
360
100
AcDbEntity
  8
0
100
AcDbLine
 62
2
  6
CONTINUOUS
 10
13.4486870037
 20
2.5920323691
 11
13.4486870037
 21
2.6757474738
  0
LINE
  5
361
100
AcDbEntity
  8
0
100
AcDbLine
 62
2
  6
CONTINUOUS
 10
13.4286869926
 20
2.4011364471
 11
13.4286869926
 21
2.4912273132
  0
LINE
  5
362
100
AcDbEntity
  8
0
100
AcDbLine
 62
2
  6
CONTINUOUS
 10
13.4286869926
 20
2.5920323691
 11
13.4286869926
 21
2.6796202339
  0
LINE
  5
363
100
AcDbEntity
  8
0
100
AcDbLine
 62
2
  6
CONTINUOUS
 10
13.4086869815
 20
2.3980226662
 11
13.4086869815
 21
2.4912273132
  0
LINE
  5
364
100
AcDbEntity
  8
0
100
AcDbLine
 62
2
  6
CONTINUOUS
 10
13.4086869815
 20
2.515977327
 11
13.4086869815
 21
2.5672823554
  0
LINE
  5
365
100
AcDbEntity
  8
0
100
AcDbLine
 62
2
  6
CONTINUOUS
 10
13.4086869815
 20
2.5920323691
 11
13.4086869815
 21
2.6827340148
  0
LINE
  5
366
100
AcDbEntity
  8
0
100
AcDbLine
 62
2
  6
CONTINUOUS
 10
13.3886869704
 20
2.3950052774
 11
13.3886869704
 21
2.6857514036
  0
LINE
  5
367
100
AcDbEntity
  8
0
100
AcDbLine
 62
2
  6
CONTINUOUS
 10
13.3686869593
 20
2.3919878885
 11
13.3686869593
 21
2.4912273132
  0
LINE
  5
368
100
AcDbEntity
  8
0
100
AcDbLine
 62
2
  6
CONTINUOUS
 10
13.3686869593
 20
2.5291773343
 11
13.3686869593
 21
2.5540823481
  0
LINE
  5
369
100
AcDbEntity
  8
0
100
AcDbLine
 62
2
  6
CONTINUOUS
 10
13.3686869593
 20
2.5920323691
 11
13.3686869593
 21
2.6887687924
  0
LINE
  5
36A
100
AcDbEntity
  8
0
100
AcDbLine
 62
2
  6
CONTINUOUS
 10
13.3486869482
 20
2.3889704997
 11
13.3486869482
 21
2.4912273132
  0
LINE
  5
36B
100
AcDbEntity
  8
0
100
AcDbLine
 62
2
  6
CONTINUOUS
 10
13.3486869482
 20
2.5291773343
 11
13.3486869482
 21
2.5540823481
  0
LINE
  5
36C
100
AcDbEntity
  8
0
100
AcDbLine
 62
2
  6
CONTINUOUS
 10
13.3486869482
 20
2.5920323691
 11
13.3486869482
 21
2.6917861813
  0
LINE
  5
36D
100
AcDbEntity
  8
0
100
AcDbLine
 62
2
  6
CONTINUOUS
 10
13.3286869371
 20
2.3859531109
 11
13.3286869371
 21
2.4912273132
  0
LINE
  5
36E
100
AcDbEntity
  8
0
100
AcDbLine
 62
2
  6
CONTINUOUS
 10
13.3286869371
 20
2.5291773343
 11
13.3286869371
 21
2.5540823481
  0
LINE
  5
36F
100
AcDbEntity
  8
0
100
AcDbLine
 62
2
  6
CONTINUOUS
 10
13.3286869371
 20
2.5920323691
 11
13.3286869371
 21
2.6948035701
  0
LINE
  5
370
100
AcDbEntity
  8
0
100
AcDbLine
 62
2
  6
CONTINUOUS
 10
13.308686926
 20
2.3833355437
 11
13.308686926
 21
2.4912273132
  0
LINE
  5
371
100
AcDbEntity
  8
0
100
AcDbLine
 62
2
  6
CONTINUOUS
 10
13.308686926
 20
2.515977327
 11
13.308686926
 21
2.5672823554
  0
LINE
  5
372
100
AcDbEntity
  8
0
100
AcDbLine
 62
2
  6
CONTINUOUS
 10
13.308686926
 20
2.5920323691
 11
13.308686926
 21
2.6974211373
  0
LINE
  5
373
100
AcDbEntity
  8
0
100
AcDbLine
 62
2
  6
CONTINUOUS
 10
13.2886869149
 20
2.3812612684
 11
13.2886869149
 21
2.4912273132
  0
LINE
  5
374
100
AcDbEntity
  8
0
100
AcDbLine
 62
2
  6
CONTINUOUS
 10
13.2886869149
 20
2.515977327
 11
13.2886869149
 21
2.5324773361
  0
LINE
  5
375
100
AcDbEntity
  8
0
100
AcDbLine
 62
2
  6
CONTINUOUS
 10
13.2886869149
 20
2.5507823463
 11
13.2886869149
 21
2.5672823554
  0
LINE
  5
376
100
AcDbEntity
  8
0
100
AcDbLine
 62
2
  6
CONTINUOUS
 10
13.2886869149
 20
2.5920323691
 11
13.2886869149
 21
2.6994954125
  0
LINE
  5
377
100
AcDbEntity
  8
0
100
AcDbLine
 62
2
  6
CONTINUOUS
 10
13.2686869038
 20
2.3791869932
 11
13.2686869038
 21
2.4912273132
  0
LINE
  5
378
100
AcDbEntity
  8
0
100
AcDbLine
 62
2
  6
CONTINUOUS
 10
13.2686869038
 20
2.515977327
 11
13.2686869038
 21
2.5324773361
  0
LINE
  5
379
100
AcDbEntity
  8
0
100
AcDbLine
 62
2
  6
CONTINUOUS
 10
13.2686869038
 20
2.5507823463
 11
13.2686869038
 21
2.5672823554
  0
LINE
  5
37A
100
AcDbEntity
  8
0
100
AcDbLine
 62
2
  6
CONTINUOUS
 10
13.2686869038
 20
2.5920323691
 11
13.2686869038
 21
2.7015696878
  0
LINE
  5
37B
100
AcDbEntity
  8
0
100
AcDbLine
 62
2
  6
CONTINUOUS
 10
13.2486868927
 20
2.377112718
 11
13.2486868927
 21
2.4912273132
  0
LINE
  5
37C
100
AcDbEntity
  8
0
100
AcDbLine
 62
2
  6
CONTINUOUS
 10
13.2486868927
 20
2.5920323691
 11
13.2486868927
 21
2.703643963
  0
LINE
  5
37D
100
AcDbEntity
  8
0
100
AcDbLine
 62
2
  6
CONTINUOUS
 10
13.2286868817
 20
2.3750384428
 11
13.2286868817
 21
2.4912273132
  0
LINE
  5
37E
100
AcDbEntity
  8
0
100
AcDbLine
 62
2
  6
CONTINUOUS
 10
13.2286868817
 20
2.5920323691
 11
13.2286868817
 21
2.7057182382
  0
LINE
  5
37F
100
AcDbEntity
  8
0
100
AcDbLine
 62
2
  6
CONTINUOUS
 10
13.2086868706
 20
2.3729641676
 11
13.2086868706
 21
2.4912273132
  0
LINE
  5
380
100
AcDbEntity
  8
0
100
AcDbLine
 62
2
  6
CONTINUOUS
 10
13.2086868706
 20
2.5920323691
 11
13.2086868706
 21
2.7077925134
  0
LINE
  5
381
100
AcDbEntity
  8
0
100
AcDbLine
 62
2
  6
CONTINUOUS
 10
13.1886868595
 20
2.3712344456
 11
13.1886868595
 21
2.4912273132
  0
LINE
  5
382
100
AcDbEntity
  8
0
100
AcDbLine
 62
2
  6
CONTINUOUS
 10
13.1886868595
 20
2.515977327
 11
13.1886868595
 21
2.5672823554
  0
LINE
  5
383
100
AcDbEntity
  8
0
100
AcDbLine
 62
2
  6
CONTINUOUS
 10
13.1886868595
 20
2.5920323691
 11
13.1886868595
 21
2.7095222354
  0
LINE
  5
384
100
AcDbEntity
  8
0
100
AcDbLine
 62
2
  6
CONTINUOUS
 10
13.1686868484
 20
2.3699682418
 11
13.1686868484
 21
2.4912273132
  0
LINE
  5
385
100
AcDbEntity
  8
0
100
AcDbLine
 62
2
  6
CONTINUOUS
 10
13.1686868484
 20
2.515977327
 11
13.1686868484
 21
2.5672823554
  0
LINE
  5
386
100
AcDbEntity
  8
0
100
AcDbLine
 62
2
  6
CONTINUOUS
 10
13.1686868484
 20
2.5920323691
 11
13.1686868484
 21
2.7107884392
  0
LINE
  5
387
100
AcDbEntity
  8
0
100
AcDbLine
 62
2
  6
CONTINUOUS
 10
13.1486868373
 20
2.3687020381
 11
13.1486868373
 21
2.7120546429
  0
LINE
  5
388
100
AcDbEntity
  8
0
100
AcDbLine
 62
2
  6
CONTINUOUS
 10
13.1286868262
 20
2.3674358343
 11
13.1286868262
 21
2.5672823554
  0
LINE
  5
389
100
AcDbEntity
  8
0
100
AcDbLine
 62
2
  6
CONTINUOUS
 10
13.1286868262
 20
2.5920323691
 11
13.1286868262
 21
2.7133208466
  0
LINE
  5
38A
100
AcDbEntity
  8
0
100
AcDbLine
 62
2
  6
CONTINUOUS
 10
13.1086868151
 20
2.3661696306
 11
13.1086868151
 21
2.4912273132
  0
LINE
  5
38B
100
AcDbEntity
  8
0
100
AcDbLine
 62
2
  6
CONTINUOUS
 10
13.1086868151
 20
2.5920323691
 11
13.1086868151
 21
2.7145870504
  0
LINE
  5
38C
100
AcDbEntity
  8
0
100
AcDbLine
 62
2
  6
CONTINUOUS
 10
13.088686804
 20
2.3649034269
 11
13.088686804
 21
2.4912273132
  0
LINE
  5
38D
100
AcDbEntity
  8
0
100
AcDbLine
 62
2
  6
CONTINUOUS
 10
13.088686804
 20
2.5920323691
 11
13.088686804
 21
2.7158532541
  0
LINE
  5
38E
100
AcDbEntity
  8
0
100
AcDbLine
 62
2
  6
CONTINUOUS
 10
13.0686867929
 20
2.3636739922
 11
13.0686867929
 21
2.4912273132
  0
LINE
  5
38F
100
AcDbEntity
  8
0
100
AcDbLine
 62
2
  6
CONTINUOUS
 10
13.0686867929
 20
2.5475272398
 11
13.0686867929
 21
2.5672823554
  0
LINE
  5
390
100
AcDbEntity
  8
0
100
AcDbLine
 62
2
  6
CONTINUOUS
 10
13.0686867929
 20
2.5920323691
 11
13.0686867929
 21
2.7170826887
  0
LINE
  5
391
100
AcDbEntity
  8
0
100
AcDbLine
 62
2
  6
CONTINUOUS
 10
13.0486867818
 20
2.363143203
 11
13.0486867818
 21
2.4912273132
  0
LINE
  5
392
100
AcDbEntity
  8
0
100
AcDbLine
 62
2
  6
CONTINUOUS
 10
13.0486867818
 20
2.5666100882
 11
13.0486867818
 21
2.717613478
  0
LINE
  5
393
100
AcDbEntity
  8
0
100
AcDbLine
 62
2
  6
CONTINUOUS
 10
13.0286867707
 20
2.3626124138
 11
13.0286867707
 21
2.50359263
  0
LINE
  5
394
100
AcDbEntity
  8
0
100
AcDbLine
 62
2
  6
CONTINUOUS
 10
13.0286867707
 20
2.5856929366
 11
13.0286867707
 21
2.7181442672
  0
LINE
  5
395
100
AcDbEntity
  8
0
100
AcDbLine
 62
2
  6
CONTINUOUS
 10
13.0086867596
 20
2.3620816246
 11
13.0086867596
 21
2.5226754472
  0
LINE
  5
396
100
AcDbEntity
  8
0
100
AcDbLine
 62
2
  6
CONTINUOUS
 10
13.0086867596
 20
2.5920323691
 11
13.0086867596
 21
2.7186750564
  0
LINE
  5
397
100
AcDbEntity
  8
0
100
AcDbLine
 62
2
  6
CONTINUOUS
 10
12.9886867486
 20
2.3615508354
 11
12.9886867486
 21
2.4912273132
  0
LINE
  5
398
100
AcDbEntity
  8
0
100
AcDbLine
 62
2
  6
CONTINUOUS
 10
12.9886867486
 20
2.515977327
 11
12.9886867486
 21
2.5417582644
  0
LINE
  5
399
100
AcDbEntity
  8
0
100
AcDbLine
 62
2
  6
CONTINUOUS
 10
12.9886867486
 20
2.5920323691
 11
12.9886867486
 21
2.7192058456
  0
LINE
  5
39A
100
AcDbEntity
  8
0
100
AcDbLine
 62
2
  6
CONTINUOUS
 10
12.9686867375
 20
2.3610200462
 11
12.9686867375
 21
2.4912273132
  0
LINE
  5
39B
100
AcDbEntity
  8
0
100
AcDbLine
 62
2
  6
CONTINUOUS
 10
12.9686867375
 20
2.5920323691
 11
12.9686867375
 21
2.7197366348
  0
LINE
  5
39C
100
AcDbEntity
  8
0
100
AcDbLine
 62
2
  6
CONTINUOUS
 10
12.9486867264
 20
2.360489257
 11
12.9486867264
 21
2.4912273132
  0
LINE
  5
39D
100
AcDbEntity
  8
0
100
AcDbLine
 62
2
  6
CONTINUOUS
 10
12.9486867264
 20
2.5920323691
 11
12.9486867264
 21
2.720267424
  0
LINE
  5
39E
100
AcDbEntity
  8
0
100
AcDbLine
 62
2
  6
CONTINUOUS
 10
12.9286867153
 20
2.3602836008
 11
12.9286867153
 21
2.4912273132
  0
LINE
  5
39F
100
AcDbEntity
  8
0
100
AcDbLine
 62
2
  6
CONTINUOUS
 10
12.9286867153
 20
2.515977327
 11
12.9286867153
 21
2.5672823554
  0
LINE
  5
3A0
100
AcDbEntity
  8
0
100
AcDbLine
 62
2
  6
CONTINUOUS
 10
12.9286867153
 20
2.5920323691
 11
12.9286867153
 21
2.7204730802
  0
LINE
  5
3A1
100
AcDbEntity
  8
0
100
AcDbLine
 62
2
  6
CONTINUOUS
 10
12.9086867042
 20
2.3604597639
 11
12.9086867042
 21
2.7202969171
  0
LINE
  5
3A2
100
AcDbEntity
  8
0
100
AcDbLine
 62
2
  6
CONTINUOUS
 10
12.8886866931
 20
2.360635927
 11
12.8886866931
 21
2.5672823554
  0
LINE
  5
3A3
100
AcDbEntity
  8
0
100
AcDbLine
 62
2
  6
CONTINUOUS
 10
12.8886866931
 20
2.5920323691
 11
12.8886866931
 21
2.720120754
  0
LINE
  5
3A4
100
AcDbEntity
  8
0
100
AcDbLine
 62
2
  6
CONTINUOUS
 10
12.868686682
 20
2.3608120901
 11
12.868686682
 21
2.491232357
  0
LINE
  5
3A5
100
AcDbEntity
  8
0
100
AcDbLine
 62
2
  6
CONTINUOUS
 10
12.868686682
 20
2.5920323691
 11
12.868686682
 21
2.7199445909
  0
LINE
  5
3A6
100
AcDbEntity
  8
0
100
AcDbLine
 62
2
  6
CONTINUOUS
 10
12.8486866709
 20
2.3609882532
 11
12.8486866709
 21
2.4912273132
  0
LINE
  5
3A7
100
AcDbEntity
  8
0
100
AcDbLine
 62
2
  6
CONTINUOUS
 10
12.8486866709
 20
2.5920323691
 11
12.8486866709
 21
2.7197684278
  0
LINE
  5
3A8
100
AcDbEntity
  8
0
100
AcDbLine
 62
2
  6
CONTINUOUS
 10
12.8286866598
 20
2.3611644163
 11
12.8286866598
 21
2.4912273132
  0
LINE
  5
3A9
100
AcDbEntity
  8
0
100
AcDbLine
 62
2
  6
CONTINUOUS
 10
12.8286866598
 20
2.5396527025
 11
12.8286866598
 21
2.5672823554
  0
LINE
  5
3AA
100
AcDbEntity
  8
0
100
AcDbLine
 62
2
  6
CONTINUOUS
 10
12.8286866598
 20
2.5920323691
 11
12.8286866598
 21
2.7195922647
  0
LINE
  5
3AB
100
AcDbEntity
  8
0
100
AcDbLine
 62
2
  6
CONTINUOUS
 10
12.8086866487
 20
2.3613405794
 11
12.8086866487
 21
2.4912273132
  0
LINE
  5
3AC
100
AcDbEntity
  8
0
100
AcDbLine
 62
2
  6
CONTINUOUS
 10
12.8086866487
 20
2.5587355508
 11
12.8086866487
 21
2.7194161016
  0
LINE
  5
3AD
100
AcDbEntity
  8
0
100
AcDbLine
 62
2
  6
CONTINUOUS
 10
12.7886866376
 20
2.3621089572
 11
12.7886866376
 21
2.4957181055
  0
LINE
  5
3AE
100
AcDbEntity
  8
0
100
AcDbLine
 62
2
  6
CONTINUOUS
 10
12.7886866376
 20
2.5778183992
 11
12.7886866376
 21
2.7186477238
  0
LINE
  5
3AF
100
AcDbEntity
  8
0
100
AcDbLine
 62
2
  6
CONTINUOUS
 10
12.7686866266
 20
2.3630013935
 11
12.7686866266
 21
2.5148009227
  0
LINE
  5
3B0
100
AcDbEntity
  8
0
100
AcDbLine
 62
2
  6
CONTINUOUS
 10
12.7686866266
 20
2.5920323691
 11
12.7686866266
 21
2.7177552874
  0
LINE
  5
3B1
100
AcDbEntity
  8
0
100
AcDbLine
 62
2
  6
CONTINUOUS
 10
12.7486866155
 20
2.3638938299
 11
12.7486866155
 21
2.4913263218
  0
LINE
  5
3B2
100
AcDbEntity
  8
0
100
AcDbLine
 62
2
  6
CONTINUOUS
 10
12.7486866155
 20
2.5158783184
 11
12.7486866155
 21
2.5338837399
  0
LINE
  5
3B3
100
AcDbEntity
  8
0
100
AcDbLine
 62
2
  6
CONTINUOUS
 10
12.7486866155
 20
2.5920323691
 11
12.7486866155
 21
2.7168628511
  0
LINE
  5
3B4
100
AcDbEntity
  8
0
100
AcDbLine
 62
2
  6
CONTINUOUS
 10
12.7286866044
 20
2.3647862663
 11
12.7286866044
 21
2.4912273132
  0
LINE
  5
3B5
100
AcDbEntity
  8
0
100
AcDbLine
 62
2
  6
CONTINUOUS
 10
12.7286866044
 20
2.515977327
 11
12.7286866044
 21
2.5527601554
  0
LINE
  5
3B6
100
AcDbEntity
  8
0
100
AcDbLine
 62
2
  6
CONTINUOUS
 10
12.7286866044
 20
2.5920323691
 11
12.7286866044
 21
2.7159704147
  0
LINE
  5
3B7
100
AcDbEntity
  8
0
100
AcDbLine
 62
2
  6
CONTINUOUS
 10
12.7086865933
 20
2.3656787026
 11
12.7086865933
 21
2.4912273132
  0
LINE
  5
3B8
100
AcDbEntity
  8
0
100
AcDbLine
 62
2
  6
CONTINUOUS
 10
12.7086865933
 20
2.5920323691
 11
12.7086865933
 21
2.7150779784
  0
LINE
  5
3B9
100
AcDbEntity
  8
0
100
AcDbLine
 62
2
  6
CONTINUOUS
 10
12.6886865822
 20
2.366571139
 11
12.6886865822
 21
2.4912273132
  0
LINE
  5
3BA
100
AcDbEntity
  8
0
100
AcDbLine
 62
2
  6
CONTINUOUS
 10
12.6886865822
 20
2.515977327
 11
12.6886865822
 21
2.5672823554
  0
LINE
  5
3BB
100
AcDbEntity
  8
0
100
AcDbLine
 62
2
  6
CONTINUOUS
 10
12.6886865822
 20
2.5920323691
 11
12.6886865822
 21
2.714185542
  0
LINE
  5
3BC
100
AcDbEntity
  8
0
100
AcDbLine
 62
2
  6
CONTINUOUS
 10
12.6686865711
 20
2.3677104027
 11
12.6686865711
 21
2.7130462783
  0
LINE
  5
3BD
100
AcDbEntity
  8
0
100
AcDbLine
 62
2
  6
CONTINUOUS
 10
12.64868656
 20
2.3693682721
 11
12.64868656
 21
2.7113884089
  0
LINE
  5
3BE
100
AcDbEntity
  8
0
100
AcDbLine
 62
2
  6
CONTINUOUS
 10
12.6286865489
 20
2.3710261415
 11
12.6286865489
 21
2.4912273132
  0
LINE
  5
3BF
100
AcDbEntity
  8
0
100
AcDbLine
 62
2
  6
CONTINUOUS
 10
12.6286865489
 20
2.515977327
 11
12.6286865489
 21
2.7097305395
  0
LINE
  5
3C0
100
AcDbEntity
  8
0
100
AcDbLine
 62
2
  6
CONTINUOUS
 10
12.6086865378
 20
2.372684011
 11
12.6086865378
 21
2.4912273132
  0
LINE
  5
3C1
100
AcDbEntity
  8
0
100
AcDbLine
 62
2
  6
CONTINUOUS
 10
12.6086865378
 20
2.5351122279
 11
12.6086865378
 21
2.70807267
  0
LINE
  5
3C2
100
AcDbEntity
  8
0
100
AcDbLine
 62
2
  6
CONTINUOUS
 10
12.5886865267
 20
2.3743418804
 11
12.5886865267
 21
2.4912273132
  0
LINE
  5
3C3
100
AcDbEntity
  8
0
100
AcDbLine
 62
2
  6
CONTINUOUS
 10
12.5886865267
 20
2.5660172622
 11
12.5886865267
 21
2.7064148006
  0
LINE
  5
3C4
100
AcDbEntity
  8
0
100
AcDbLine
 62
2
  6
CONTINUOUS
 10
12.5686865156
 20
2.3759997498
 11
12.5686865156
 21
2.4912273132
  0
LINE
  5
3C5
100
AcDbEntity
  8
0
100
AcDbLine
 62
2
  6
CONTINUOUS
 10
12.5686865156
 20
2.5920323691
 11
12.5686865156
 21
2.7047569312
  0
LINE
  5
3C6
100
AcDbEntity
  8
0
100
AcDbLine
 62
2
  6
CONTINUOUS
 10
12.5486865045
 20
2.3777575277
 11
12.5486865045
 21
2.4912273132
  0
LINE
  5
3C7
100
AcDbEntity
  8
0
100
AcDbLine
 62
2
  6
CONTINUOUS
 10
12.5486865045
 20
2.515977327
 11
12.5486865045
 21
2.5275118824
  0
LINE
  5
3C8
100
AcDbEntity
  8
0
100
AcDbLine
 62
2
  6
CONTINUOUS
 10
12.5486865045
 20
2.5920323691
 11
12.5486865045
 21
2.7029991533
  0
LINE
  5
3C9
100
AcDbEntity
  8
0
100
AcDbLine
 62
2
  6
CONTINUOUS
 10
12.5286864935
 20
2.3802813811
 11
12.5286864935
 21
2.5296213345
  0
LINE
  5
3CA
100
AcDbEntity
  8
0
100
AcDbLine
 62
2
  6
CONTINUOUS
 10
12.5286864935
 20
2.5505713461
 11
12.5286864935
 21
2.5667383551
  0
LINE
  5
3CB
100
AcDbEntity
  8
0
100
AcDbLine
 62
2
  6
CONTINUOUS
 10
12.5286864935
 20
2.5920323691
 11
12.5286864935
 21
2.7004752999
  0
LINE
  5
3CC
100
AcDbEntity
  8
0
100
AcDbLine
 62
2
  6
CONTINUOUS
 10
12.5086864824
 20
2.3828052346
 11
12.5086864824
 21
2.4912273132
  0
LINE
  5
3CD
100
AcDbEntity
  8
0
100
AcDbLine
 62
2
  6
CONTINUOUS
 10
12.5086864824
 20
2.515977327
 11
12.5086864824
 21
2.5279667721
  0
LINE
  5
3CE
100
AcDbEntity
  8
0
100
AcDbLine
 62
2
  6
CONTINUOUS
 10
12.5086864824
 20
2.5868602074
 11
12.5086864824
 21
2.6979514464
  0
LINE
  5
3CF
100
AcDbEntity
  8
0
100
AcDbLine
 62
2
  6
CONTINUOUS
 10
12.4886864713
 20
2.385329088
 11
12.4886864713
 21
2.4912273132
  0
LINE
  5
3D0
100
AcDbEntity
  8
0
100
AcDbLine
 62
2
  6
CONTINUOUS
 10
12.4886864713
 20
2.5553401045
 11
12.4886864713
 21
2.695427593
  0
LINE
  5
3D1
100
AcDbEntity
  8
0
100
AcDbLine
 62
2
  6
CONTINUOUS
 10
12.4686864602
 20
2.3878529415
 11
12.4686864602
 21
2.4912273132
  0
LINE
  5
3D2
100
AcDbEntity
  8
0
100
AcDbLine
 62
2
  6
CONTINUOUS
 10
12.4686864602
 20
2.5238200015
 11
12.4686864602
 21
2.6929037395
  0
LINE
  5
3D3
100
AcDbEntity
  8
0
100
AcDbLine
 62
2
  6
CONTINUOUS
 10
12.4486864491
 20
2.390376795
 11
12.4486864491
 21
2.4912273132
  0
LINE
  5
3D4
100
AcDbEntity
  8
0
100
AcDbLine
 62
2
  6
CONTINUOUS
 10
12.4486864491
 20
2.515977327
 11
12.4486864491
 21
2.690379886
  0
LINE
  5
3D5
100
AcDbEntity
  8
0
100
AcDbLine
 62
2
  6
CONTINUOUS
 10
12.428686438
 20
2.3931794042
 11
12.428686438
 21
2.6875772768
  0
LINE
  5
3D6
100
AcDbEntity
  8
0
100
AcDbLine
 62
2
  6
CONTINUOUS
 10
12.4086864269
 20
2.3964643301
 11
12.4086864269
 21
2.5013773986
  0
LINE
  5
3D7
100
AcDbEntity
  8
0
100
AcDbLine
 62
2
  6
CONTINUOUS
 10
12.4086864269
 20
2.5325739971
 11
12.4086864269
 21
2.5537224311
  0
LINE
  5
3D8
100
AcDbEntity
  8
0
100
AcDbLine
 62
2
  6
CONTINUOUS
 10
12.4086864269
 20
2.5791473398
 11
12.4086864269
 21
2.6842923509
  0
LINE
  5
3D9
100
AcDbEntity
  8
0
100
AcDbLine
 62
2
  6
CONTINUOUS
 10
12.3886864158
 20
2.399749256
 11
12.3886864158
 21
2.4921022658
  0
LINE
  5
3DA
100
AcDbEntity
  8
0
100
AcDbLine
 62
2
  6
CONTINUOUS
 10
12.3886864158
 20
2.5895929958
 11
12.3886864158
 21
2.681007425
  0
LINE
  5
3DB
100
AcDbEntity
  8
0
100
AcDbLine
 62
2
  6
CONTINUOUS
 10
12.3686864047
 20
2.403451877
 11
12.3686864047
 21
2.4912273132
  0
LINE
  5
3DC
100
AcDbEntity
  8
0
100
AcDbLine
 62
2
  6
CONTINUOUS
 10
12.3686864047
 20
2.5920323691
 11
12.3686864047
 21
2.677304804
  0
LINE
  5
3DD
100
AcDbEntity
  8
0
100
AcDbLine
 62
2
  6
CONTINUOUS
 10
12.3486863936
 20
2.407324637
 11
12.3486863936
 21
2.4912273132
  0
LINE
  5
3DE
100
AcDbEntity
  8
0
100
AcDbLine
 62
2
  6
CONTINUOUS
 10
12.3486863936
 20
2.5920323691
 11
12.3486863936
 21
2.673432044
  0
LINE
  5
3DF
100
AcDbEntity
  8
0
100
AcDbLine
 62
2
  6
CONTINUOUS
 10
12.3286863825
 20
2.4113493968
 11
12.3286863825
 21
2.4912273132
  0
LINE
  5
3E0
100
AcDbEntity
  8
0
100
AcDbLine
 62
2
  6
CONTINUOUS
 10
12.3286863825
 20
2.515977327
 11
12.3286863825
 21
2.5333023366
  0
LINE
  5
3E1
100
AcDbEntity
  8
0
100
AcDbLine
 62
2
  6
CONTINUOUS
 10
12.3286863825
 20
2.5499573458
 11
12.3286863825
 21
2.5672823554
  0
LINE
  5
3E2
100
AcDbEntity
  8
0
100
AcDbLine
 62
2
  6
CONTINUOUS
 10
12.3286863825
 20
2.5920323691
 11
12.3286863825
 21
2.6694072842
  0
LINE
  5
3E3
100
AcDbEntity
  8
0
100
AcDbLine
 62
2
  6
CONTINUOUS
 10
12.3086863715
 20
2.4159005505
 11
12.3086863715
 21
2.4912273132
  0
LINE
  5
3E4
100
AcDbEntity
  8
0
100
AcDbLine
 62
2
  6
CONTINUOUS
 10
12.3086863715
 20
2.515977327
 11
12.3086863715
 21
2.5333023366
  0
LINE
  5
3E5
100
AcDbEntity
  8
0
100
AcDbLine
 62
2
  6
CONTINUOUS
 10
12.3086863715
 20
2.5499573458
 11
12.3086863715
 21
2.5672823554
  0
LINE
  5
3E6
100
AcDbEntity
  8
0
100
AcDbLine
 62
2
  6
CONTINUOUS
 10
12.3086863715
 20
2.5920323691
 11
12.3086863715
 21
2.6648561305
  0
LINE
  5
3E7
100
AcDbEntity
  8
0
100
AcDbLine
 62
2
  6
CONTINUOUS
 10
12.2886863604
 20
2.4204517041
 11
12.2886863604
 21
2.4912273132
  0
LINE
  5
3E8
100
AcDbEntity
  8
0
100
AcDbLine
 62
2
  6
CONTINUOUS
 10
12.2886863604
 20
2.5920323691
 11
12.2886863604
 21
2.6603049769
  0
LINE
  5
3E9
100
AcDbEntity
  8
0
100
AcDbLine
 62
2
  6
CONTINUOUS
 10
12.2686863493
 20
2.4257438218
 11
12.2686863493
 21
2.4912273132
  0
LINE
  5
3EA
100
AcDbEntity
  8
0
100
AcDbLine
 62
2
  6
CONTINUOUS
 10
12.2686863493
 20
2.5920323691
 11
12.2686863493
 21
2.6550128592
  0
LINE
  5
3EB
100
AcDbEntity
  8
0
100
AcDbLine
 62
2
  6
CONTINUOUS
 10
12.2486863382
 20
2.4310978667
 11
12.2486863382
 21
2.4912273132
  0
LINE
  5
3EC
100
AcDbEntity
  8
0
100
AcDbLine
 62
2
  6
CONTINUOUS
 10
12.2486863382
 20
2.5920323691
 11
12.2486863382
 21
2.6496588142
  0
LINE
  5
3ED
100
AcDbEntity
  8
0
100
AcDbLine
 62
2
  6
CONTINUOUS
 10
12.2286863271
 20
2.4372566433
 11
12.2286863271
 21
2.4912273132
  0
LINE
  5
3EE
100
AcDbEntity
  8
0
100
AcDbLine
 62
2
  6
CONTINUOUS
 10
12.2286863271
 20
2.515977327
 11
12.2286863271
 21
2.5672823554
  0
LINE
  5
3EF
100
AcDbEntity
  8
0
100
AcDbLine
 62
2
  6
CONTINUOUS
 10
12.2286863271
 20
2.5920323691
 11
12.2286863271
 21
2.6435000377
  0
LINE
  5
3F0
100
AcDbEntity
  8
0
100
AcDbLine
 62
2
  6
CONTINUOUS
 10
12.208686316
 20
2.443589771
 11
12.208686316
 21
2.4912273132
  0
LINE
  5
3F1
100
AcDbEntity
  8
0
100
AcDbLine
 62
2
  6
CONTINUOUS
 10
12.208686316
 20
2.515977327
 11
12.208686316
 21
2.5672823554
  0
LINE
  5
3F2
100
AcDbEntity
  8
0
100
AcDbLine
 62
2
  6
CONTINUOUS
 10
12.208686316
 20
2.5920323691
 11
12.208686316
 21
2.63716691
  0
LINE
  5
3F3
100
AcDbEntity
  8
0
100
AcDbLine
 62
2
  6
CONTINUOUS
 10
12.1886863049
 20
2.4510806436
 11
12.1886863049
 21
2.6296760373
  0
LINE
  5
3F4
100
AcDbEntity
  8
0
100
AcDbLine
 62
2
  6
CONTINUOUS
 10
12.1686862938
 20
2.4591016523
 11
12.1686862938
 21
2.6216550287
  0
LINE
  5
3F5
100
AcDbEntity
  8
0
100
AcDbLine
 62
2
  6
CONTINUOUS
 10
12.1486862827
 20
2.468314272
 11
12.1486862827
 21
2.612442409
  0
LINE
  5
3F6
100
AcDbEntity
  8
0
100
AcDbLine
 62
2
  6
CONTINUOUS
 10
12.1286862716
 20
2.4794932339
 11
12.1286862716
 21
2.601263447
  0
LINE
  5
3F7
100
AcDbEntity
  8
0
100
AcDbLine
 62
2
  6
CONTINUOUS
 10
12.1086862605
 20
2.4934150665
 11
12.1086862605
 21
2.5873416144
  0
LINE
  5
3F8
100
AcDbEntity
  8
0
100
AcDbLine
 62
2
  6
CONTINUOUS
 10
12.0886862494
 20
2.5144449553
 11
12.0886862494
 21
2.5663117257
  0
ENDBLK
  5
3F9
100
AcDbEntity
  8
0
  6
BYBLOCK
 62
0
100
AcDbBlockEnd
  0
BLOCK
  5
3FA
100
AcDbEntity
  8
0
100
AcDbBlockBegin
  2
_FILLED
 70
64
 10
0.0
 20
0.0
  3
_FILLED
  1

  0
SOLID
  5
3FB
100
AcDbEntity
  8
0
  6
BYBLOCK
 62
0
100
AcDbTrace
 10
0.0
 20
0.0
 11
-1.0
 21
0.1666666667
 12
-1.0
 22
-0.1666666667
 13
-1.0
 23
-0.1666666667
  0
ENDBLK
  5
3FC
100
AcDbEntity
  8
0
  6
BYBLOCK
 62
0
100
AcDbBlockEnd
  0
BLOCK
  5
3FD
100
AcDbEntity
  8
SCHEME_DIMS
100
AcDbBlockBegin
 62
2
  6
CONTINUOUS
  2
*D0
 70
65
 10
0.0
 20
0.0
  3
*D0
  1

  0
MTEXT
  5
3FE
100
AcDbEntity
  8
SCHEME_DIMS
100
AcDbMText
 62
2
  6
CONTINUOUS
  7
STANDARD
 71
2
 72
1
 10
5.1137026059
 20
5.1553910575
 30
0.0
 11
1.0
 21
0.0
 31
0.0
 44
0.9
  1
26\P[1.03]
 40
0.1
 41
0.6
  0
LINE
  5
3FF
100
AcDbEntity
  8
SCHEME_DIMS
100
AcDbLine
 62
2
  6
CONTINUOUS
 10
4.5453350925
 20
4.5178910575
 11
5.4387026059
 21
4.5178910575
  0
LINE
  5
400
100
AcDbEntity
  8
SCHEME_DIMS
100
AcDbLine
 62
2
  6
CONTINUOUS
 10
4.9762026059
 20
5.5428910575
 11
5.4387026059
 21
5.5428910575
  0
LINE
  5
401
100
AcDbEntity
  8
SCHEME_DIMS
100
AcDbLine
 62
2
  6
CONTINUOUS
 10
5.3137026059
 20
4.5178910575
 11
5.3137026059
 21
4.8053910575
  0
LINE
  5
402
100
AcDbEntity
  8
SCHEME_DIMS
100
AcDbLine
 62
2
  6
CONTINUOUS
 10
5.3137026059
 20
5.5428910575
 11
5.3137026059
 21
5.2553910575
  0
INSERT
  5
403
100
AcDbEntity
  8
SCHEME_DIMS
100
AcDbBlockReference
 62
2
  6
CONTINUOUS
  2
_FILLED
 10
5.3137026059
 20
4.5178910575
 41
0.1875
 42
0.1875
 43
0.1875
 50
270.0
  0
INSERT
  5
404
100
AcDbEntity
  8
SCHEME_DIMS
100
AcDbBlockReference
 62
2
  6
CONTINUOUS
  2
_FILLED
 10
5.3137026059
 20
5.5428910575
 41
0.1875
 42
0.1875
 43
0.1875
 50
90.0
  0
ENDBLK
  5
405
100
AcDbEntity
  8
0
  6
BYBLOCK
 62
0
100
AcDbBlockEnd
  0
BLOCK
  5
406
100
AcDbEntity
  8
SCHEME_DIMS
100
AcDbBlockBegin
 62
2
  6
CONTINUOUS
  2
*D1
 70
65
 10
0.0
 20
0.0
  3
*D1
  1

  0
MTEXT
  5
407
100
AcDbEntity
  8
SCHEME_DIMS
100
AcDbMText
 62
2
  6
CONTINUOUS
  7
TEXTSTYLE_5
 71
2
 72
1
 10
4.1217026059
 20
7.4221650434
 30
0.0
 11
1.0
 21
0.0
 31
0.0
 44
0.9
  1
{\Fgdt;n}\Ftxt;30,1\P[1.18]
 40
0.1
 41
0.6
  0
LINE
  5
408
100
AcDbEntity
  8
SCHEME_DIMS
100
AcDbLine
 62
2
  6
CONTINUOUS
 10
4.8137026059
 20
8.4448174396
 11
4.8137026059
 21
7.2471650434
  0
LINE
  5
409
100
AcDbEntity
  8
SCHEME_DIMS
100
AcDbLine
 62
2
  6
CONTINUOUS
 10
3.6297026059
 20
8.4541490788
 11
3.6297026059
 21
7.2471650434
  0
LINE
  5
40A
100
AcDbEntity
  8
SCHEME_DIMS
100
AcDbLine
 62
2
  6
CONTINUOUS
 10
4.8137026059
 20
7.3721650434
 11
5.2137026059
 21
7.3721650434
  0
LINE
  5
40B
100
AcDbEntity
  8
SCHEME_DIMS
100
AcDbLine
 62
2
  6
CONTINUOUS
 10
3.6297026059
 20
7.3721650434
 11
3.2297026059
 21
7.3721650434
  0
INSERT
  5
40C
100
AcDbEntity
  8
SCHEME_DIMS
100
AcDbBlockReference
 62
2
  6
CONTINUOUS
  2
_FILLED
 10
4.8137026059
 20
7.3721650434
 41
0.1875
 42
0.1875
 43
0.1875
 50
180.0
  0
INSERT
  5
40D
100
AcDbEntity
  8
SCHEME_DIMS
100
AcDbBlockReference
 62
2
  6
CONTINUOUS
  2
_FILLED
 10
3.6297026059
 20
7.3721650434
 41
0.1875
 42
0.1875
 43
0.1875
  0
ENDBLK
  5
40E
100
AcDbEntity
  8
0
  6
BYBLOCK
 62
0
100
AcDbBlockEnd
  0
BLOCK
  5
40F
100
AcDbEntity
  8
SCHEME_DIMS
100
AcDbBlockBegin
 62
2
  6
CONTINUOUS
  2
*D2
 70
65
 10
0.0
 20
0.0
  3
*D2
  1

  0
MTEXT
  5
410
100
AcDbEntity
  8
SCHEME_DIMS
100
AcDbMText
 62
2
  6
CONTINUOUS
  7
STANDARD
 71
3
 72
1
 10
7.2064968861
 20
6.6848884949
 30
0.0
 11
1.0
 21
0.0
 31
0.0
 44
0.9
  1
15\P[.59]
 40
0.1
 41
0.5
  0
LINE
  5
411
100
AcDbEntity
  8
SCHEME_DIMS
100
AcDbLine
 62
2
  6
CONTINUOUS
 10
7.9314968861
 20
5.9822445299
 11
7.9314968861
 21
6.7598884949
  0
LINE
  5
412
100
AcDbEntity
  8
SCHEME_DIMS
100
AcDbLine
 62
2
  6
CONTINUOUS
 10
8.5214968861
 20
6.1748495616
 11
8.5214968861
 21
6.7598884949
  0
LINE
  5
413
100
AcDbEntity
  8
SCHEME_DIMS
100
AcDbLine
 62
2
  6
CONTINUOUS
 10
7.9314968861
 20
6.6348884949
 11
8.2264968861
 21
6.6348884949
  0
LINE
  5
414
100
AcDbEntity
  8
SCHEME_DIMS
100
AcDbLine
 62
2
  6
CONTINUOUS
 10
8.2264968861
 20
6.6348884949
 11
7.6064968861
 21
6.6348884949
  0
LINE
  5
415
100
AcDbEntity
  8
SCHEME_DIMS
100
AcDbLine
 62
2
  6
CONTINUOUS
 10
8.5214968861
 20
6.6348884949
 11
8.2264968861
 21
6.6348884949
  0
INSERT
  5
416
100
AcDbEntity
  8
SCHEME_DIMS
100
AcDbBlockReference
 62
2
  6
CONTINUOUS
  2
_FILLED
 10
7.9314968861
 20
6.6348884949
 41
0.1875
 42
0.1875
 43
0.1875
 50
180.0
  0
INSERT
  5
417
100
AcDbEntity
  8
SCHEME_DIMS
100
AcDbBlockReference
 62
2
  6
CONTINUOUS
  2
_FILLED
 10
8.5214968861
 20
6.6348884949
 41
0.1875
 42
0.1875
 43
0.1875
  0
ENDBLK
  5
418
100
AcDbEntity
  8
0
  6
BYBLOCK
 62
0
100
AcDbBlockEnd
  0
BLOCK
  5
419
100
AcDbEntity
  8
SCHEME_DIMS
100
AcDbBlockBegin
 62
2
  6
CONTINUOUS
  2
*D3
 70
65
 10
0.0
 20
0.0
  3
*D3
  1

  0
MTEXT
  5
41A
100
AcDbEntity
  8
SCHEME_DIMS
100
AcDbMText
 62
2
  6
CONTINUOUS
  7
STANDARD
 71
2
 72
1
 10
8.4239968861
 20
7.1848884949
 30
0.0
 11
1.0
 21
0.0
 31
0.0
 44
0.9
  1
30,1\P[1.19]
 40
0.1
 41
0.6
  0
LINE
  5
41B
100
AcDbEntity
  8
SCHEME_DIMS
100
AcDbLine
 62
2
  6
CONTINUOUS
 10
7.9314968861
 20
5.9643277827
 11
7.9314968861
 21
7.2598884949
  0
LINE
  5
41C
100
AcDbEntity
  8
SCHEME_DIMS
100
AcDbLine
 62
2
  6
CONTINUOUS
 10
9.1164968861
 20
6.1823148729
 11
9.1164968861
 21
7.2598884949
  0
LINE
  5
41D
100
AcDbEntity
  8
SCHEME_DIMS
100
AcDbLine
 62
2
  6
CONTINUOUS
 10
7.9314968861
 20
7.1348884949
 11
7.5314968861
 21
7.1348884949
  0
LINE
  5
41E
100
AcDbEntity
  8
SCHEME_DIMS
100
AcDbLine
 62
2
  6
CONTINUOUS
 10
9.1164968861
 20
7.1348884949
 11
9.5164968861
 21
7.1348884949
  0
INSERT
  5
41F
100
AcDbEntity
  8
SCHEME_DIMS
100
AcDbBlockReference
 62
2
  6
CONTINUOUS
  2
_FILLED
 10
7.9314968861
 20
7.1348884949
 41
0.1875
 42
0.1875
 43
0.1875
  0
INSERT
  5
420
100
AcDbEntity
  8
SCHEME_DIMS
100
AcDbBlockReference
 62
2
  6
CONTINUOUS
  2
_FILLED
 10
9.1164968861
 20
7.1348884949
 41
0.1875
 42
0.1875
 43
0.1875
 50
180.0
  0
ENDBLK
  5
421
100
AcDbEntity
  8
0
  6
BYBLOCK
 62
0
100
AcDbBlockEnd
  0
BLOCK
  5
422
100
AcDbEntity
  8
SCHEME_DIMS
100
AcDbBlockBegin
 62
2
  6
CONTINUOUS
  2
*D4
 70
65
 10
0.0
 20
0.0
  3
*D4
  1

  0
MTEXT
  5
423
100
AcDbEntity
  8
SCHEME_DIMS
100
AcDbMText
 62
2
  6
CONTINUOUS
  7
STANDARD
 71
2
 72
1
 10
10.9035255945
 20
5.4508910575
 30
0.0
 11
1.0
 21
0.0
 31
0.0
 44
0.9
  1
41\P[1.62]
 40
0.1
 41
0.6
  0
LINE
  5
424
100
AcDbEntity
  8
SCHEME_DIMS
100
AcDbLine
 62
2
  6
CONTINUOUS
 10
11.871893108
 20
4.5178910575
 11
10.9785255945
 21
4.5178910575
  0
LINE
  5
425
100
AcDbEntity
  8
SCHEME_DIMS
100
AcDbLine
 62
2
  6
CONTINUOUS
 10
11.9505252097
 20
6.1338910575
 11
10.9785255945
 21
6.1338910575
  0
LINE
  5
426
100
AcDbEntity
  8
SCHEME_DIMS
100
AcDbLine
 62
2
  6
CONTINUOUS
 10
11.1035255945
 20
4.5178910575
 11
11.1035255945
 21
5.1008910575
  0
LINE
  5
427
100
AcDbEntity
  8
SCHEME_DIMS
100
AcDbLine
 62
2
  6
CONTINUOUS
 10
11.1035255945
 20
6.1338910575
 11
11.1035255945
 21
5.5508910575
  0
INSERT
  5
428
100
AcDbEntity
  8
SCHEME_DIMS
100
AcDbBlockReference
 62
2
  6
CONTINUOUS
  2
_FILLED
 10
11.1035255945
 20
4.5178910575
 41
0.1875
 42
0.1875
 43
0.1875
 50
270.0
  0
INSERT
  5
429
100
AcDbEntity
  8
SCHEME_DIMS
100
AcDbBlockReference
 62
2
  6
CONTINUOUS
  2
_FILLED
 10
11.1035255945
 20
6.1338910575
 41
0.1875
 42
0.1875
 43
0.1875
 50
90.0
  0
ENDBLK
  5
42A
100
AcDbEntity
  8
0
  6
BYBLOCK
 62
0
100
AcDbBlockEnd
  0
ENDSEC
  0
SECTION
  2
ENTITIES
  0
MTEXT
  5
42B
100
AcDbEntity
  8
0
100
AcDbMText
 62
2
  6
CONTINUOUS
  7
TEXTSTYLE_2
 71
2
 72
1
 10
11.0287658475
 20
1.794867839
 30
0.0
 11
1.0
 21
0.0
 31
0.0
 44
0.9
  1
THIRD ANGLE PROJECTION
 40
0.1
 41
1.76
  0
MTEXT
  5
42C
100
AcDbEntity
  8
0
100
AcDbMText
 62
2
  6
CONTINUOUS
  7
STANDARD
 71
1
 72
1
 10
12.88
 20
1.457
 30
0.0
 11
1.0
 21
0.0
 31
0.0
 44
0.9
  1
DRAWING NO.
 40
0.08
 41
0.88
  0
MTEXT
  5
42D
100
AcDbEntity
  8
0
100
AcDbMText
 62
2
  6
CONTINUOUS
  7
TEXTSTYLE_3
 71
2
 72
1
 10
11.03
 20
2.516432
 30
0.0
 11
1.0
 21
0.0
 31
0.0
 44
0.9
  1
and is proprietary in general
 40
0.08
 41
1.972
  0
MTEXT
  5
42E
100
AcDbEntity
  8
0
100
AcDbMText
 62
2
  6
CONTINUOUS
  7
TEXTSTYLE_3
 71
2
 72
1
 10
11.03
 20
2.396432
 30
0.0
 11
1.0
 21
0.0
 31
0.0
 44
0.9
  1
and in detail.  Its contents
 40
0.08
 41
1.904
  0
MTEXT
  5
42F
100
AcDbEntity
  8
0
100
AcDbMText
 62
2
  6
CONTINUOUS
  7
TEXTSTYLE_3
 71
2
 72
1
 10
11.03
 20
2.276432
 30
0.0
 11
1.0
 21
0.0
 31
0.0
 44
0.9
  1
shall not be revealed to
 40
0.08
 41
1.632
  0
MTEXT
  5
430
100
AcDbEntity
  8
0
100
AcDbMText
 62
2
  6
CONTINUOUS
  7
TEXTSTYLE_3
 71
2
 72
1
 10
11.03
 20
2.156432
 30
0.0
 11
1.0
 21
0.0
 31
0.0
 44
0.9
  1
outside parties without
 40
0.08
 41
1.564
  0
MTEXT
  5
431
100
AcDbEntity
  8
0
100
AcDbMText
 62
2
  6
CONTINUOUS
  7
TEXTSTYLE_3
 71
2
 72
1
 10
11.03
 20
2.036432
 30
0.0
 11
1.0
 21
0.0
 31
0.0
 44
0.9
  1
written consent of BANNER.
 40
0.08
 41
1.768
  0
MTEXT
  5
432
100
AcDbEntity
  8
0
100
AcDbMText
 62
2
  6
CONTINUOUS
  7
TEXTSTYLE_2
 71
1
 72
1
 10
12.08
 20
2.217
 30
0.0
 11
1.0
 21
0.0
 31
0.0
 44
0.9
  1
TITLE
 40
0.1
 41
0.4
  0
MTEXT
  5
433
100
AcDbEntity
  8
0
100
AcDbMText
 62
2
  6
CONTINUOUS
  7
STANDARD
 71
1
 72
1
 10
12.08
 20
1.457
 30
0.0
 11
1.0
 21
0.0
 31
0.0
 44
0.9
  1
SIZE
 40
0.08
 41
0.32
  0
MTEXT
  5
434
100
AcDbEntity
  8
0
100
AcDbMText
 62
2
  6
CONTINUOUS
  7
STANDARD
 71
1
 72
1
 10
12.08
 20
1.087
 30
0.0
 11
1.0
 21
0.0
 31
0.0
 44
0.9
  1
SCALE
 40
0.08
 41
0.4
  0
MTEXT
  5
435
100
AcDbEntity
  8
0
100
AcDbMText
 62
2
  6
CONTINUOUS
  7
TEXTSTYLE_2
 71
2
 72
1
 10
12.5
 20
1.337
 30
0.0
 11
1.0
 21
0.0
 31
0.0
 44
0.9
  1
B
 40
0.1
 41
0.08
  0
MTEXT
  5
436
100
AcDbEntity
  8
0
100
AcDbMText
 62
2
  6
CONTINUOUS
  7
TEXTSTYLE_3
 71
2
 72
1
 10
11.03
 20
2.636432
 30
0.0
 11
1.0
 21
0.0
 31
0.0
 44
0.9
  1
of BANNER ENGINEERING CORP.
 40
0.08
 41
1.836
  0
MTEXT
  5
437
100
AcDbEntity
  8
0
100
AcDbMText
 62
2
  6
CONTINUOUS
  7
TEXTSTYLE_3
 71
2
 72
1
 10
11.03
 20
2.756432
 30
0.0
 11
1.0
 21
0.0
 31
0.0
 44
0.9
  1
This drawing is the property
 40
0.08
 41
1.904
  0
MTEXT
  5
438
100
AcDbEntity
  8
0
100
AcDbMText
 62
2
  6
CONTINUOUS
  7
TEXTSTYLE_2
 71
2
 72
1
 10
15.03
 20
2.4134
 30
0.0
 11
1.0
 21
0.0
 31
0.0
 44
0.9
  1
MINNEAPOLIS, MN 55440
 40
0.1
 41
1.68
  0
MTEXT
  5
439
100
AcDbEntity
  8
0
100
AcDbMText
 62
2
  6
CONTINUOUS
  7
STANDARD
 71
1
 72
1
 10
14.255
 20
1.087
 30
0.0
 11
1.0
 21
0.0
 31
0.0
 44
0.9
  1
SHEET
 40
0.08
 41
0.4
  0
MTEXT
  5
43A
100
AcDbEntity
  8
0
100
AcDbMText
 62
2
  6
CONTINUOUS
  7
STANDARD
 71
1
 72
1
 10
15.63
 20
1.457
 30
0.0
 11
1.0
 21
0.0
 31
0.0
 44
0.9
  1
REV.
 40
0.08
 41
0.32
  0
MTEXT
  5
43B
100
AcDbEntity
  8
0
100
AcDbMText
 62
2
  6
CONTINUOUS
  7
STANDARD
 71
3
 72
1
 10
16.38
 20
0.835443
 30
0.0
 11
1.0
 21
0.0
 31
0.0
 44
0.9
  1
PRO/E
 40
0.07
 41
0.35
  0
MTEXT
  5
43C
100
AcDbEntity
  8
0
100
AcDbMText
 62
2
  6
CONTINUOUS
  7
TEXTSTYLE_4
 71
2
 72
1
 10
15.03
 20
2.751049
 30
0.0
 11
1.0
 21
0.0
 31
0.0
 44
0.9
  1
BANNER ENGINEERING CORP.
 40
0.12
 41
2.6496
  0
MTEXT
  5
43D
100
AcDbEntity
  8
0
100
AcDbMText
 62
2
  6
CONTINUOUS
  7
TEXTSTYLE_2
 71
2
 72
1
 10
15.03
 20
2.5724
 30
0.0
 11
1.0
 21
0.0
 31
0.0
 44
0.9
  1
P.O. BOX 9414
 40
0.1
 41
1.04
  0
MTEXT
  5
43E
100
AcDbEntity
  8
0
100
AcDbMText
 62
2
  6
CONTINUOUS
  7
TEXTSTYLE_2
 71
2
 72
1
 10
9.485
 20
10.312
 30
0.0
 11
1.0
 21
0.0
 31
0.0
 44
0.9
  1
4
 40
0.1
 41
0.08
  0
MTEXT
  5
43F
100
AcDbEntity
  8
0
100
AcDbMText
 62
2
  6
CONTINUOUS
  7
TEXTSTYLE_2
 71
2
 72
1
 10
11.455
 20
10.312
 30
0.0
 11
1.0
 21
0.0
 31
0.0
 44
0.9
  1
3
 40
0.1
 41
0.08
  0
MTEXT
  5
440
100
AcDbEntity
  8
0
100
AcDbMText
 62
2
  6
CONTINUOUS
  7
TEXTSTYLE_2
 71
2
 72
1
 10
13.425
 20
10.312
 30
0.0
 11
1.0
 21
0.0
 31
0.0
 44
0.9
  1
2
 40
0.1
 41
0.08
  0
MTEXT
  5
441
100
AcDbEntity
  8
0
100
AcDbMText
 62
2
  6
CONTINUOUS
  7
TEXTSTYLE_2
 71
2
 72
1
 10
15.395
 20
10.312
 30
0.0
 11
1.0
 21
0.0
 31
0.0
 44
0.9
  1
1
 40
0.1
 41
0.08
  0
MTEXT
  5
442
100
AcDbEntity
  8
0
100
AcDbMText
 62
2
  6
CONTINUOUS
  7
TEXTSTYLE_2
 71
2
 72
1
 10
3.575
 20
10.312
 30
0.0
 11
1.0
 21
0.0
 31
0.0
 44
0.9
  1
7
 40
0.1
 41
0.08
  0
MTEXT
  5
443
100
AcDbEntity
  8
0
100
AcDbMText
 62
2
  6
CONTINUOUS
  7
TEXTSTYLE_2
 71
2
 72
1
 10
5.545
 20
10.312
 30
0.0
 11
1.0
 21
0.0
 31
0.0
 44
0.9
  1
6
 40
0.1
 41
0.08
  0
MTEXT
  5
444
100
AcDbEntity
  8
0
100
AcDbMText
 62
2
  6
CONTINUOUS
  7
TEXTSTYLE_2
 71
2
 72
1
 10
7.515
 20
10.312
 30
0.0
 11
1.0
 21
0.0
 31
0.0
 44
0.9
  1
5
 40
0.1
 41
0.08
  0
MTEXT
  5
445
100
AcDbEntity
  8
0
100
AcDbMText
 62
2
  6
CONTINUOUS
  7
TEXTSTYLE_2
 71
2
 72
1
 10
1.605
 20
10.312
 30
0.0
 11
1.0
 21
0.0
 31
0.0
 44
0.9
  1
8
 40
0.1
 41
0.08
  0
MTEXT
  5
446
100
AcDbEntity
  8
0
100
AcDbMText
 62
2
  6
CONTINUOUS
  7
TEXTSTYLE_2
 71
2
 72
1
 10
1.605
 20
0.787
 30
0.0
 11
1.0
 21
0.0
 31
0.0
 44
0.9
  1
8
 40
0.1
 41
0.08
  0
MTEXT
  5
447
100
AcDbEntity
  8
0
100
AcDbMText
 62
2
  6
CONTINUOUS
  7
TEXTSTYLE_2
 71
2
 72
1
 10
3.575
 20
0.787
 30
0.0
 11
1.0
 21
0.0
 31
0.0
 44
0.9
  1
7
 40
0.1
 41
0.08
  0
MTEXT
  5
448
100
AcDbEntity
  8
0
100
AcDbMText
 62
2
  6
CONTINUOUS
  7
TEXTSTYLE_2
 71
2
 72
1
 10
5.545
 20
0.787
 30
0.0
 11
1.0
 21
0.0
 31
0.0
 44
0.9
  1
6
 40
0.1
 41
0.08
  0
MTEXT
  5
449
100
AcDbEntity
  8
0
100
AcDbMText
 62
2
  6
CONTINUOUS
  7
TEXTSTYLE_2
 71
2
 72
1
 10
7.515
 20
0.787
 30
0.0
 11
1.0
 21
0.0
 31
0.0
 44
0.9
  1
5
 40
0.1
 41
0.08
  0
MTEXT
  5
44A
100
AcDbEntity
  8
0
100
AcDbMText
 62
2
  6
CONTINUOUS
  7
TEXTSTYLE_2
 71
2
 72
1
 10
9.485
 20
0.787
 30
0.0
 11
1.0
 21
0.0
 31
0.0
 44
0.9
  1
4
 40
0.1
 41
0.08
  0
MTEXT
  5
44B
100
AcDbEntity
  8
0
100
AcDbMText
 62
2
  6
CONTINUOUS
  7
TEXTSTYLE_2
 71
2
 72
1
 10
11.455
 20
0.787
 30
0.0
 11
1.0
 21
0.0
 31
0.0
 44
0.9
  1
3
 40
0.1
 41
0.08
  0
MTEXT
  5
44C
100
AcDbEntity
  8
0
100
AcDbMText
 62
2
  6
CONTINUOUS
  7
TEXTSTYLE_2
 71
2
 72
1
 10
13.425
 20
0.787
 30
0.0
 11
1.0
 21
0.0
 31
0.0
 44
0.9
  1
2
 40
0.1
 41
0.08
  0
MTEXT
  5
44D
100
AcDbEntity
  8
0
100
AcDbMText
 62
2
  6
CONTINUOUS
  7
TEXTSTYLE_2
 71
2
 72
1
 10
15.395
 20
0.787
 30
0.0
 11
1.0
 21
0.0
 31
0.0
 44
0.9
  1
1
 40
0.1
 41
0.08
  0
MTEXT
  5
44E
100
AcDbEntity
  8
0
100
AcDbMText
 62
2
  6
CONTINUOUS
  7
TEXTSTYLE_2
 71
3
 72
1
 10
0.52
 20
4.3995
 30
0.0
 11
1.0
 21
0.0
 31
0.0
 44
0.9
  1
B
 40
0.1
 41
0.08
  0
MTEXT
  5
44F
100
AcDbEntity
  8
0
100
AcDbMText
 62
2
  6
CONTINUOUS
  7
TEXTSTYLE_2
 71
3
 72
1
 10
0.52
 20
2.0995
 30
0.0
 11
1.0
 21
0.0
 31
0.0
 44
0.9
  1
A
 40
0.1
 41
0.08
  0
MTEXT
  5
450
100
AcDbEntity
  8
0
100
AcDbMText
 62
2
  6
CONTINUOUS
  7
TEXTSTYLE_2
 71
3
 72
1
 10
0.52
 20
8.9995
 30
0.0
 11
1.0
 21
0.0
 31
0.0
 44
0.9
  1
D
 40
0.1
 41
0.08
  0
MTEXT
  5
451
100
AcDbEntity
  8
0
100
AcDbMText
 62
2
  6
CONTINUOUS
  7
TEXTSTYLE_2
 71
3
 72
1
 10
0.52
 20
6.6995
 30
0.0
 11
1.0
 21
0.0
 31
0.0
 44
0.9
  1
C
 40
0.1
 41
0.08
  0
MTEXT
  5
452
100
AcDbEntity
  8
0
100
AcDbMText
 62
2
  6
CONTINUOUS
  7
TEXTSTYLE_2
 71
1
 72
1
 10
16.48
 20
8.9995
 30
0.0
 11
1.0
 21
0.0
 31
0.0
 44
0.9
  1
D
 40
0.1
 41
0.08
  0
MTEXT
  5
453
100
AcDbEntity
  8
0
100
AcDbMText
 62
2
  6
CONTINUOUS
  7
TEXTSTYLE_2
 71
1
 72
1
 10
16.48
 20
6.6995
 30
0.0
 11
1.0
 21
0.0
 31
0.0
 44
0.9
  1
C
 40
0.1
 41
0.08
  0
MTEXT
  5
454
100
AcDbEntity
  8
0
100
AcDbMText
 62
2
  6
CONTINUOUS
  7
TEXTSTYLE_2
 71
1
 72
1
 10
16.48
 20
4.3995
 30
0.0
 11
1.0
 21
0.0
 31
0.0
 44
0.9
  1
B
 40
0.1
 41
0.08
  0
MTEXT
  5
455
100
AcDbEntity
  8
0
100
AcDbMText
 62
2
  6
CONTINUOUS
  7
TEXTSTYLE_2
 71
1
 72
1
 10
16.48
 20
2.0995
 30
0.0
 11
1.0
 21
0.0
 31
0.0
 44
0.9
  1
A
 40
0.1
 41
0.08
  0
MTEXT
  5
456
100
AcDbEntity
  8
0
100
AcDbMText
 62
2
  6
CONTINUOUS
  7
STANDARD
 71
1
 72
1
 10
14.819264911
 20
1.0627941725
 30
0.0
 11
1.0
 21
0.0
 31
0.0
 44
0.9
  1
1 OF 1
 40
0.1
 41
0.6
  0
MTEXT
  5
457
100
AcDbEntity
  8
0
100
AcDbMText
 62
7
  6
CONTINUOUS
  7
STANDARD
 71
1
 72
1
 10
13.8911999818
 20
1.3747321586
 30
0.0
 11
1.0
 21
0.0
 31
0.0
 44
0.9
  1
155312
 40
0.12
 41
0.72
  0
MTEXT
  5
458
100
AcDbEntity
  8
0
100
AcDbMText
 62
2
  6
CONTINUOUS
  7
STANDARD
 71
1
 72
1
 10
12.644264911
 20
1.0627941725
 30
0.0
 11
1.0
 21
0.0
 31
0.0
 44
0.9
  1
1:1
 40
0.1
 41
0.3
  0
MTEXT
  5
459
100
AcDbEntity
  8
0
100
AcDbMText
 62
2
  6
CONTINUOUS
  7
STANDARD
 71
1
 72
1
 10
1.0597007627
 20
1.6202922458
 30
0.0
 11
1.0
 21
0.0
 31
0.0
 44
0.9
  1
NOTES:\P1. ALL DIMENSIONS ARE MILLIMETERS [INCHES] UNLESS OTHERWISE NOTED.
 40
0.1
 41
6.6
  0
INSERT
  5
45A
100
AcDbEntity
  8
0
100
AcDbBlockReference
 62
2
  6
CONTINUOUS
  2
BANNER_LOGO_TITLEBLOCK_BL0
 10
12.9086867042
 20
2.5403783405
  0
DIMENSION
  5
45B
100
AcDbEntity
  8
SCHEME_DIMS
100
AcDbDimension
 62
2
  6
CONTINUOUS
  2
*D0
 10
5.3137026059
 20
5.5428910575
 11
5.2387026059
 21
5.0303910575
 70
160
 71
2
 42
26.035
  3
DIMSTYLE_1
100
AcDbAlignedDimension
 13
4.5453350925
 23
4.5178910575
 14
4.9762026059
 24
5.5428910575
 50
90.0
100
AcDbRotatedDimension
  0
DIMENSION
  5
45C
100
AcDbEntity
  8
SCHEME_DIMS
100
AcDbDimension
 62
2
  6
CONTINUOUS
  2
*D1
 10
3.6297026059
 20
7.3721650434
 11
4.1633692726
 21
7.2971650434
 70
160
 71
2
 42
30.0736
  1
%%c<>
  3
DIMSTYLE_1
100
AcDbAlignedDimension
 13
4.8137026059
 23
8.4448174396
 14
3.6297026059
 24
8.4541490788
 50
180.0
100
AcDbRotatedDimension
  0
DIMENSION
  5
45D
100
AcDbEntity
  8
SCHEME_DIMS
100
AcDbDimension
 62
2
  6
CONTINUOUS
  2
*D2
 10
8.5214968861
 20
6.6348884949
 11
7.1064968861
 21
6.5598884949
 70
160
 71
3
 42
14.986
  3
DIMSTYLE_1
100
AcDbAlignedDimension
 13
7.9314968861
 23
5.9822445299
 14
8.5214968861
 24
6.1748495616
100
AcDbRotatedDimension
  0
DIMENSION
  5
45E
100
AcDbEntity
  8
SCHEME_DIMS
100
AcDbDimension
 62
2
  6
CONTINUOUS
  2
*D3
 10
9.1164968861
 20
7.1348884949
 11
8.3989968861
 21
7.0598884949
 70
160
 71
2
 42
30.099
  3
DIMSTYLE_1
100
AcDbAlignedDimension
 13
7.9314968861
 23
5.9643277827
 14
9.1164968861
 24
6.1823148729
100
AcDbRotatedDimension
  0
DIMENSION
  5
45F
100
AcDbEntity
  8
SCHEME_DIMS
100
AcDbDimension
 62
2
  6
CONTINUOUS
  2
*D4
 10
11.1035255945
 20
6.1338910575
 11
11.0285255945
 21
5.3258910575
 70
160
 71
2
 42
41.0464
  3
DIMSTYLE_1
100
AcDbAlignedDimension
 13
11.871893108
 23
4.5178910575
 14
11.9505252097
 24
6.1338910575
 50
90.0
100
AcDbRotatedDimension
  0
LINE
  5
460
100
AcDbEntity
  8
0
100
AcDbLine
 62
2
  6
CONTINUOUS
 10
16.38
 20
0.887
 11
12.03
 21
0.887
  0
LINE
  5
461
100
AcDbEntity
  8
0
100
AcDbLine
 62
2
  6
CONTINUOUS
 10
16.38
 20
0.887
 11
16.38
 21
2.807
  0
LINE
  5
462
100
AcDbEntity
  8
0
100
AcDbLine
 62
2
  6
CONTINUOUS
 10
16.38
 20
2.807
 11
12.03
 21
2.807
  0
LINE
  5
463
100
AcDbEntity
  8
0
100
AcDbLine
 62
2
  6
CONTINUOUS
 10
12.03
 20
0.887
 11
12.03
 21
2.807
  0
MTEXT
  5
464
100
AcDbEntity
  8
NOTES
100
AcDbMText
 62
7
  6
CONTINUOUS
  7
STANDARD
 71
2
 72
1
 10
16.155
 20
1.367
 30
0.0
 11
1.0
 21
0.0
 31
0.0
 44
0.9
  1
1
 40
0.1
 41
0.1
  0
MTEXT
  5
465
100
AcDbEntity
  8
NOTES
100
AcDbMText
 62
7
  6
CONTINUOUS
  7
STANDARD
 71
2
 72
1
 10
14.205
 20
1.967
 30
0.0
 11
1.0
 21
0.0
 31
0.0
 44
0.9
  1
T18 SN6FF/SP6FF CABLE/PIGTAIL\PWEB CAD DRAWINGS 2D/3D
 40
0.1
 41
2.9
  0
MTEXT
  5
466
100
AcDbEntity
  8
NOTES
100
AcDbMText
 62
2
  6
CONTINUOUS
  7
STANDARD
 71
2
 72
1
 10
14.633228935
 20
7.0717644602
 30
0.0
 11
1.0
 21
0.0
 31
0.0
 44
0.9
  1
ISOMETRIC VIEW\PSCALE  1:1
 40
0.1
 41
1.4
  0
LEADER
  5
467
100
AcDbEntity
  8
NOTES
100
AcDbLeader
 62
2
  6
CONTINUOUS
  3
STANDARD
 71
1
 72
0
 73
0
 75
0
 40
0.1
 41
0.9
 76
3
 10
8.1738989485
 20
5.2137924162
 30
0.0
 10
7.8487617204
 20
4.7478650975
 30
0.0
 10
7.5987617204
 20
4.7478650975
 30
0.0
340
468
1001
ACAD
1000
DSTYLE
1002
{
1070
77
1070
0
1002
}
  0
MTEXT
  5
468
102
{ACAD_REACTORS
330
467
102
}
100
AcDbEntity
  8
NOTES
100
AcDbMText
 62
2
  6
CONTINUOUS
  7
STANDARD
 71
3
 72
1
 10
7.5987617204
 20
4.7978650975
 30
0.0
 11
1.0
 21
0.0
 31
0.0
 44
0.9
  1
M18 X 1 G
 40
0.1
 41
0.9
  0
LINE
  5
469
100
AcDbEntity
  8
0
100
AcDbLine
 62
2
  6
CONTINUOUS
 10
0.47
 20
5.586103
 11
0.47
 21
5.412897
  0
LINE
  5
46A
100
AcDbEntity
  8
0
100
AcDbLine
 62
2
  6
CONTINUOUS
 10
0.62
 20
10.112
 11
0.62
 21
0.887
  0
LINE
  5
46B
100
AcDbEntity
  8
0
100
AcDbLine
 62
2
  6
CONTINUOUS
 10
2.59
 20
0.887
 11
2.59
 21
0.637
  0
LINE
  5
46C
100
AcDbEntity
  8
0
100
AcDbLine
 62
2
  6
CONTINUOUS
 10
2.59
 20
10.112
 11
2.59
 21
10.362
  0
LINE
  5
46D
100
AcDbEntity
  8
0
100
AcDbLine
 62
2
  6
CONTINUOUS
 10
8.413397
 20
0.737
 11
8.586603
 21
0.737
  0
LINE
  5
46E
100
AcDbEntity
  8
0
100
AcDbLine
 62
7
  6
CONTINUOUS
 10
11.1389508475
 20
1.425992839
 11
11.7453418475
 21
1.495385839
  0
LINE
  5
46F
100
AcDbEntity
  8
0
100
AcDbLine
 62
2
  6
CONTINUOUS
 10
0.62
 20
0.887
 11
16.38
 21
0.887
  0
LINE
  5
470
100
AcDbEntity
  8
0
100
AcDbLine
 62
2
  6
CONTINUOUS
 10
12.03
 20
1.137
 11
16.38
 21
1.137
  0
LINE
  5
471
100
AcDbEntity
  8
0
100
AcDbLine
 62
7
  6
CONTINUOUS
 10
10.2121898475
 20
1.243294839
 11
10.4342808475
 21
1.243294839
  0
LINE
  5
472
100
AcDbEntity
  8
0
100
AcDbLine
 62
7
  6
CONTINUOUS
 10
10.4842808475
 20
1.243294839
 11
10.5842808475
 21
1.243294839
  0
LINE
  5
473
100
AcDbEntity
  8
0
100
AcDbLine
 62
7
  6
CONTINUOUS
 10
10.6342808475
 20
1.243294839
 11
10.8563718475
 21
1.243294839
  0
LINE
  5
474
100
AcDbEntity
  8
0
100
AcDbLine
 62
7
  6
CONTINUOUS
 10
11.0389508475
 20
1.243294839
 11
11.3171028475
 21
1.243294839
  0
LINE
  5
475
100
AcDbEntity
  8
0
100
AcDbLine
 62
7
  6
CONTINUOUS
 10
11.3671028475
 20
1.243294839
 11
11.5171888475
 21
1.243294839
  0
LINE
  5
476
100
AcDbEntity
  8
0
100
AcDbLine
 62
7
  6
CONTINUOUS
 10
11.5671888475
 20
1.243294839
 11
11.8453418475
 21
1.243294839
  0
LINE
  5
477
100
AcDbEntity
  8
0
100
AcDbLine
 62
7
  6
CONTINUOUS
 10
11.7453418475
 20
0.991203839
 11
11.1389508475
 21
1.060596839
  0
LINE
  5
478
100
AcDbEntity
  8
0
100
AcDbLine
 62
2
  6
CONTINUOUS
 10
4.56
 20
0.887
 11
4.56
 21
0.637
  0
LINE
  5
479
100
AcDbEntity
  8
0
100
AcDbLine
 62
2
  6
CONTINUOUS
 10
4.56
 20
10.112
 11
4.56
 21
10.362
  0
LINE
  5
47A
100
AcDbEntity
  8
0
100
AcDbLine
 62
2
  6
CONTINUOUS
 10
0.47
 20
5.412897
 11
0.62
 21
5.4995
  0
LINE
  5
47B
100
AcDbEntity
  8
0
100
AcDbLine
 62
2
  6
CONTINUOUS
 10
12.03
 20
1.507
 11
16.38
 21
1.507
  0
LINE
  5
47C
100
AcDbEntity
  8
0
100
AcDbLine
 62
2
  6
CONTINUOUS
 10
10.03
 20
1.907
 11
12.03
 21
1.907
  0
LINE
  5
47D
100
AcDbEntity
  8
0
100
AcDbLine
 62
2
  6
CONTINUOUS
 10
0.62
 20
5.4995
 11
0.47
 21
5.586103
  0
LINE
  5
47E
100
AcDbEntity
  8
0
100
AcDbLine
 62
2
  6
CONTINUOUS
 10
12.03
 20
2.267
 11
16.38
 21
2.267
  0
LINE
  5
47F
100
AcDbEntity
  8
0
100
AcDbLine
 62
2
  6
CONTINUOUS
 10
8.5
 20
10.112
 11
8.586603
 21
10.262
  0
LINE
  5
480
100
AcDbEntity
  8
0
100
AcDbLine
 62
2
  6
CONTINUOUS
 10
16.38
 20
2.807
 11
10.03
 21
2.807
  0
LINE
  5
481
100
AcDbEntity
  8
0
100
AcDbLine
 62
2
  6
CONTINUOUS
 10
0.62
 20
3.1995
 11
0.37
 21
3.1995
  0
LINE
  5
482
100
AcDbEntity
  8
0
100
AcDbLine
 62
2
  6
CONTINUOUS
 10
16.38
 20
3.1995
 11
16.63
 21
3.1995
  0
LINE
  5
483
100
AcDbEntity
  8
0
100
AcDbLine
 62
2
  6
CONTINUOUS
 10
8.586603
 20
0.737
 11
8.5
 21
0.887
  0
LINE
  5
484
100
AcDbEntity
  8
0
100
AcDbLine
 62
2
  6
CONTINUOUS
 10
6.53
 20
0.887
 11
6.53
 21
0.637
  0
LINE
  5
485
100
AcDbEntity
  8
0
100
AcDbLine
 62
2
  6
CONTINUOUS
 10
6.53
 20
10.112
 11
6.53
 21
10.362
  0
LINE
  5
486
100
AcDbEntity
  8
0
100
AcDbLine
 62
2
  6
CONTINUOUS
 10
8.5
 20
0.887
 11
8.5
 21
0.637
  0
LINE
  5
487
100
AcDbEntity
  8
0
100
AcDbLine
 62
2
  6
CONTINUOUS
 10
8.5
 20
10.112
 11
8.5
 21
10.362
  0
LINE
  5
488
100
AcDbEntity
  8
0
100
AcDbLine
 62
2
  6
CONTINUOUS
 10
0.62
 20
5.4995
 11
0.37
 21
5.4995
  0
LINE
  5
489
100
AcDbEntity
  8
0
100
AcDbLine
 62
2
  6
CONTINUOUS
 10
16.38
 20
5.4995
 11
16.63
 21
5.4995
  0
LINE
  5
48A
100
AcDbEntity
  8
0
100
AcDbLine
 62
2
  6
CONTINUOUS
 10
10.03
 20
2.807
 11
10.03
 21
0.887
  0
LINE
  5
48B
100
AcDbEntity
  8
0
100
AcDbLine
 62
2
  6
CONTINUOUS
 10
10.47
 20
0.887
 11
10.47
 21
0.637
  0
LINE
  5
48C
100
AcDbEntity
  8
0
100
AcDbLine
 62
2
  6
CONTINUOUS
 10
10.47
 20
10.112
 11
10.47
 21
10.362
  0
LINE
  5
48D
100
AcDbEntity
  8
0
100
AcDbLine
 62
7
  6
CONTINUOUS
 10
10.5342808475
 20
1.143294839
 11
10.5342808475
 21
0.921203839
  0
LINE
  5
48E
100
AcDbEntity
  8
0
100
AcDbLine
 62
7
  6
CONTINUOUS
 10
10.5342808475
 20
1.193294839
 11
10.5342808475
 21
1.293294839
  0
LINE
  5
48F
100
AcDbEntity
  8
0
100
AcDbLine
 62
7
  6
CONTINUOUS
 10
10.5342808475
 20
1.343294839
 11
10.5342808475
 21
1.565385839
  0
LINE
  5
490
100
AcDbEntity
  8
0
100
AcDbLine
 62
2
  6
CONTINUOUS
 10
8.5
 20
0.887
 11
8.413397
 21
0.737
  0
LINE
  5
491
100
AcDbEntity
  8
0
100
AcDbLine
 62
2
  6
CONTINUOUS
 10
0.62
 20
7.7995
 11
0.37
 21
7.7995
  0
LINE
  5
492
100
AcDbEntity
  8
0
100
AcDbLine
 62
2
  6
CONTINUOUS
 10
16.38
 20
7.7995
 11
16.63
 21
7.7995
  0
LINE
  5
493
100
AcDbEntity
  8
0
100
AcDbLine
 62
2
  6
CONTINUOUS
 10
8.413397
 20
10.262
 11
8.5
 21
10.112
  0
LINE
  5
494
100
AcDbEntity
  8
0
100
AcDbLine
 62
7
  6
CONTINUOUS
 10
11.1389508475
 20
1.060596839
 11
11.1389508475
 21
1.425992839
  0
LINE
  5
495
100
AcDbEntity
  8
0
100
AcDbLine
 62
7
  6
CONTINUOUS
 10
11.7453418475
 20
1.495385839
 11
11.7453418475
 21
0.991203839
  0
LINE
  5
496
100
AcDbEntity
  8
0
100
AcDbLine
 62
1
  6
CONTINUOUS
 10
12.03
 20
2.807
 11
12.03
 21
0.887
  0
LINE
  5
497
100
AcDbEntity
  8
0
100
AcDbLine
 62
2
  6
CONTINUOUS
 10
12.44
 20
0.887
 11
12.44
 21
0.637
  0
LINE
  5
498
100
AcDbEntity
  8
0
100
AcDbLine
 62
2
  6
CONTINUOUS
 10
12.44
 20
10.112
 11
12.44
 21
10.362
  0
LINE
  5
499
100
AcDbEntity
  8
0
100
AcDbLine
 62
2
  6
CONTINUOUS
 10
16.53
 20
5.586103
 11
16.38
 21
5.4995
  0
LINE
  5
49A
100
AcDbEntity
  8
0
100
AcDbLine
 62
2
  6
CONTINUOUS
 10
16.38
 20
5.4995
 11
16.53
 21
5.412897
  0
LINE
  5
49B
100
AcDbEntity
  8
0
100
AcDbLine
 62
2
  6
CONTINUOUS
 10
12.83
 20
1.507
 11
12.83
 21
1.137
  0
LINE
  5
49C
100
AcDbEntity
  8
0
100
AcDbLine
 62
2
  6
CONTINUOUS
 10
16.38
 20
10.112
 11
0.62
 21
10.112
  0
LINE
  5
49D
100
AcDbEntity
  8
0
100
AcDbLine
 62
2
  6
CONTINUOUS
 10
8.586603
 20
10.262
 11
8.413397
 21
10.262
  0
LINE
  5
49E
100
AcDbEntity
  8
0
100
AcDbLine
 62
2
  6
CONTINUOUS
 10
14.205
 20
1.137
 11
14.205
 21
0.887
  0
LINE
  5
49F
100
AcDbEntity
  8
0
100
AcDbLine
 62
2
  6
CONTINUOUS
 10
14.41
 20
0.887
 11
14.41
 21
0.637
  0
LINE
  5
4A0
100
AcDbEntity
  8
0
100
AcDbLine
 62
2
  6
CONTINUOUS
 10
14.41
 20
10.112
 11
14.41
 21
10.362
  0
LINE
  5
4A1
100
AcDbEntity
  8
0
100
AcDbLine
 62
2
  6
CONTINUOUS
 10
15.58
 20
1.507
 11
15.58
 21
1.137
  0
LINE
  5
4A2
100
AcDbEntity
  8
0
100
AcDbLine
 62
2
  6
CONTINUOUS
 10
16.38
 20
0.887
 11
16.38
 21
10.112
  0
LINE
  5
4A3
100
AcDbEntity
  8
0
100
AcDbLine
 62
2
  6
CONTINUOUS
 10
16.53
 20
5.412897
 11
16.53
 21
5.586103
  0
LWPOLYLINE
  5
4A4
100
AcDbEntity
  8
0
100
AcDbPolyline
 62
7
  6
CONTINUOUS
 90
7
 70
0
 10
14.3083689012
 20
9.0460786614
 10
14.2660522368
 20
9.014978969
 10
14.2298346303
 20
8.9736496964
 10
14.2010844938
 20
8.9226129366
 10
14.1807954204
 20
8.862312924
 10
14.1699835238
 20
8.794548014
 10
14.1689276171
 20
8.72132688
  0
LINE
  5
4A5
100
AcDbEntity
  8
0
100
AcDbLine
 62
7
  6
CONTINUOUS
 10
14.6446179941
 20
9.2390562467
 11
14.6447432217
 21
9.2391286078
  0
LINE
  5
4A6
100
AcDbEntity
  8
0
100
AcDbLine
 62
7
  6
CONTINUOUS
 10
14.5770683594
 20
9.2012114399
 11
14.3083689012
 21
9.0460786614
  0
LINE
  5
4A7
100
AcDbEntity
  8
AXIS_COSMETIC_THREADS
100
AcDbLine
 62
7
  6
CONTINUOUS
 10
14.5881749147
 20
9.2064690755
 11
14.6447432217
 21
9.2391286078
  0
LWPOLYLINE
  5
4A8
100
AcDbEntity
  8
0
100
AcDbPolyline
 62
9
  6
CONTINUOUS
 90
3
 70
0
 10
14.6447432217
 20
9.2391286078
 10
14.6493392099
 20
9.2417008027
 10
14.6617330793
 20
9.2478694664
  0
LWPOLYLINE
  5
4A9
100
AcDbEntity
  8
AXIS_COSMETIC_THREADS
100
AcDbPolyline
 62
7
  6
CONTINUOUS
 90
10
 70
0
 10
14.5881718271
 20
9.206466709
 10
14.6087197826
 20
9.2167852039
 10
14.6380370489
 20
9.2268559338
 10
14.6693320361
 20
9.2326416327
 10
14.7023527756
 20
9.2340957176
 10
14.7368334036
 20
9.2312064809
 10
14.7724963025
 20
9.2239971853
 10
14.8090543355
 20
9.2125258756
 10
14.846213159
 20
9.196884912
 10
14.8836735918
 20
9.1772002266
  0
LWPOLYLINE
  5
4AA
100
AcDbEntity
  8
0
100
AcDbPolyline
 62
7
  6
CONTINUOUS
 90
23
 70
0
 10
14.5770574495
 20
9.2012041128
 10
14.6179965017
 20
9.2190574678
 10
14.6688450766
 20
9.2283727188
 10
14.7240141432
 20
9.2262669966
 10
14.7823365522
 20
9.2127848497
 10
14.8425784428
 20
9.1882115045
 10
14.9034653459
 20
9.1530668314
 10
14.963709146
 20
9.1080943465
 10
15.0220353354
 20
9.05424548
 10
15.0772099676
 20
8.9926594573
 10
15.1280657918
 20
8.924639163
 10
15.1735268662
 20
8.8516236911
 10
15.2126315282
 20
8.7751575521
 10
15.244552253
 20
8.6968589775
 10
15.2686141628
 20
8.618383201
 10
15.2843075819
 20
8.5413928171
 10
15.2913011034
 20
8.4675139088
 10
15.2894459965
 20
8.3983058018
 10
15.2787798508
 20
8.3352351768
 10
15.2595283027
 20
8.2796407936
 10
15.2320998995
 20
8.2327005002
 10
15.1970698375
 20
8.1954014527
 10
15.169053
 20
8.1758327368
  0
LWPOLYLINE
  5
4AB
100
AcDbEntity
  8
0
100
AcDbPolyline
 62
9
  6
CONTINUOUS
 90
19
 70
0
 10
14.6617330793
 20
9.2478694664
 10
14.6745842506
 20
9.2531833842
 10
14.6878716226
 20
9.2576338308
 10
14.7015733779
 20
9.2612134989
 10
14.7156670186
 20
9.2639165107
 10
14.7301294034
 20
9.265738428
 10
14.7449367858
 20
9.2666762592
 10
14.7600648523
 20
9.2667284645
 10
14.7754887634
 20
9.2658949581
 10
14.7911831934
 20
9.2641771086
 10
14.8071223726
 20
9.2615777367
 10
14.8232801295
 20
9.2581011104
 10
14.8396299336
 20
9.2537529383
 10
14.8561449391
 20
9.2485403599
 10
14.8727980288
 20
9.242471934
 10
14.889561859
 20
9.2355576249
 10
14.9064089042
 20
9.2278087856
 10
14.9233115019
 20
9.2192381393
 10
14.9402418987
 20
9.2098597589
  0
LINE
  5
4AC
100
AcDbEntity
  8
0
100
AcDbLine
 62
7
  6
CONTINUOUS
 10
13.919472487
 20
8.5050524116
 11
13.9080498584
 21
8.4723130208
  0
LWPOLYLINE
  5
4AD
100
AcDbEntity
  8
0
100
AcDbPolyline
 62
7
  6
CONTINUOUS
 90
8
 70
0
 10
13.9165901353
 20
8.489573486
 10
13.9037917462
 20
8.463707094
 10
13.8951190106
 20
8.4337280356
 10
13.8907401703
 20
8.4002178728
 10
13.8907401703
 20
8.3638266673
 10
13.8951190106
 20
8.3252603697
 10
13.9037917462
 20
8.2852671254
 10
13.9165901353
 20
8.2446227609
  0
LINE
  5
4AE
100
AcDbEntity
  8
0
100
AcDbLine
 62
7
  6
CONTINUOUS
 10
13.9644373375
 20
8.2169987908
 11
13.9644373375
 21
8.4619495159
  0
LINE
  5
4AF
100
AcDbEntity
  8
0
100
AcDbLine
 62
7
  6
CONTINUOUS
 10
13.956276617
 20
8.4990787598
 11
13.9573633364
 21
8.5011423675
  0
LWPOLYLINE
  5
4B0
100
AcDbEntity
  8
0
100
AcDbPolyline
 62
7
  6
CONTINUOUS
 90
3
 70
0
 10
13.9573633364
 20
8.5011423675
 10
13.9789967743
 20
8.524328026
 10
13.9917540892
 20
8.5330305795
  0
LWPOLYLINE
  5
4B1
100
AcDbEntity
  8
0
100
AcDbPolyline
 62
7
  6
CONTINUOUS
 90
5
 70
0
 10
13.9769432683
 20
8.5799128072
 10
13.9471107285
 20
8.5559882988
 10
13.9253515452
 20
8.5252761206
 10
13.910073377
 20
8.4873442416
 10
13.9066940329
 20
8.4695728076
  0
LINE
  5
4B2
100
AcDbEntity
  8
0
100
AcDbLine
 62
9
  6
CONTINUOUS
 10
13.9856504526
 20
8.2292461154
 11
13.9856504526
 21
8.4741968405
  0
LINE
  5
4B3
100
AcDbEntity
  8
0
100
AcDbLine
 62
9
  6
CONTINUOUS
 10
13.9997925882
 20
8.2210811252
 11
13.9997925882
 21
8.4823618987
  0
LWPOLYLINE
  5
4B4
100
AcDbEntity
  8
0
100
AcDbPolyline
 62
7
  6
CONTINUOUS
 90
4
 70
0
 10
13.9587227444
 20
8.4958419951
 10
13.9612096916
 20
8.4979915102
 10
13.9634855777
 20
8.5002137897
 10
13.9653057503
 20
8.5022724334
  0
LINE
  5
4B5
100
AcDbEntity
  8
0
100
AcDbLine
 62
7
  6
CONTINUOUS
 10
14.0212784526
 20
8.6031107877
 11
14.0335084951
 21
8.6125705611
  0
LINE
  5
4B6
100
AcDbEntity
  8
0
100
AcDbLine
 62
7
  6
CONTINUOUS
 10
14.1344150666
 20
8.6684298523
 11
14.1466451091
 21
8.6778896257
  0
LINE
  5
4B7
100
AcDbEntity
  8
0
100
AcDbLine
 62
7
  6
CONTINUOUS
 10
14.2475516806
 20
8.7337489169
 11
14.259781723
 21
8.7432086903
  0
LINE
  5
4B8
100
AcDbEntity
  8
0
100
AcDbLine
 62
7
  6
CONTINUOUS
 10
14.0488247857
 20
8.6194501764
 11
14.0617687973
 21
8.6288865523
  0
LINE
  5
4B9
100
AcDbEntity
  8
0
100
AcDbLine
 62
7
  6
CONTINUOUS
 10
14.1619613997
 20
8.684769241
 11
14.1749054112
 21
8.6942056169
  0
LINE
  5
4BA
100
AcDbEntity
  8
0
100
AcDbLine
 62
7
  6
CONTINUOUS
 10
14.2750980136
 20
8.7500883056
 11
14.2880420252
 21
8.7595246816
  0
LINE
  5
4BB
100
AcDbEntity
  8
0
100
AcDbLine
 62
7
  6
CONTINUOUS
 10
13.9906786378
 20
8.5856812805
 11
14.005203175
 21
8.5962285709
  0
LINE
  5
4BC
100
AcDbEntity
  8
0
100
AcDbLine
 62
7
  6
CONTINUOUS
 10
14.105406359
 20
8.6521557602
 11
14.118339789
 21
8.6615476355
  0
LINE
  5
4BD
100
AcDbEntity
  8
0
100
AcDbLine
 62
7
  6
CONTINUOUS
 10
14.2185429729
 20
8.7174748248
 11
14.2314764029
 21
8.7268667001
  0
LINE
  5
4BE
100
AcDbEntity
  8
0
100
AcDbLine
 62
7
  6
CONTINUOUS
 10
14.077134777
 20
8.6358769555
 11
14.0900854595
 21
8.6452350916
  0
LINE
  5
4BF
100
AcDbEntity
  8
0
100
AcDbLine
 62
7
  6
CONTINUOUS
 10
14.1902713909
 20
8.7011960202
 11
14.2032220734
 21
8.7105541562
  0
LINE
  5
4C0
100
AcDbEntity
  8
0
100
AcDbLine
 62
7
  6
CONTINUOUS
 10
14.3034080049
 20
8.7665150848
 11
14.3163586874
 21
8.7758732208
  0
LWPOLYLINE
  5
4C1
100
AcDbEntity
  8
0
100
AcDbPolyline
 62
7
  6
CONTINUOUS
 90
4
 70
0
 10
13.9947520898
 20
8.5278407571
 10
13.9858041007
 20
8.5220182902
 10
13.9750008197
 20
8.5129390418
 10
13.9653057503
 20
8.5022724334
  0
LINE
  5
4C2
100
AcDbEntity
  8
0
100
AcDbLine
 62
7
  6
CONTINUOUS
 10
14.2880420252
 20
8.7595246816
 11
14.2952916954
 21
8.7633984816
  0
LINE
  5
4C3
100
AcDbEntity
  8
0
100
AcDbLine
 62
7
  6
CONTINUOUS
 10
14.1749054112
 20
8.6942056169
 11
14.1821550815
 21
8.698079417
  0
LINE
  5
4C4
100
AcDbEntity
  8
0
100
AcDbLine
 62
7
  6
CONTINUOUS
 10
14.0617687973
 20
8.6288865523
 11
14.0690184675
 21
8.6327603524
  0
LINE
  5
4C5
100
AcDbEntity
  8
0
100
AcDbLine
 62
7
  6
CONTINUOUS
 10
14.2314764029
 20
8.7268667001
 11
14.2391372157
 21
8.7309418376
  0
LINE
  5
4C6
100
AcDbEntity
  8
0
100
AcDbLine
 62
7
  6
CONTINUOUS
 10
14.118339789
 20
8.6615476355
 11
14.1260006018
 21
8.665622773
  0
LINE
  5
4C7
100
AcDbEntity
  8
0
100
AcDbLine
 62
7
  6
CONTINUOUS
 10
14.005203175
 20
8.5962285709
 11
14.0128639878
 21
8.6003037084
  0
LINE
  5
4C8
100
AcDbEntity
  8
0
100
AcDbLine
 62
7
  6
CONTINUOUS
 10
14.3163586874
 20
8.7758732208
 11
14.3242981151
 21
8.7800811239
  0
LINE
  5
4C9
100
AcDbEntity
  8
0
100
AcDbLine
 62
7
  6
CONTINUOUS
 10
14.2032220734
 20
8.7105541562
 11
14.2111615012
 21
8.7147620593
  0
LINE
  5
4CA
100
AcDbEntity
  8
0
100
AcDbLine
 62
7
  6
CONTINUOUS
 10
14.0900854595
 20
8.6452350916
 11
14.0980248872
 21
8.6494429947
  0
LINE
  5
4CB
100
AcDbEntity
  8
0
100
AcDbLine
 62
7
  6
CONTINUOUS
 10
14.3625180339
 20
8.8007064153
 11
14.3446372313
 21
8.7921997485
  0
LWPOLYLINE
  5
4CC
100
AcDbEntity
  8
0
100
AcDbPolyline
 62
7
  6
CONTINUOUS
 90
6
 70
0
 10
14.3460514429
 20
8.7930162391
 10
14.3674981472
 20
8.8028257592
 10
14.403242741
 20
8.8100545845
 10
14.4424067214
 20
8.80816037
 10
14.4839048682
 20
8.7972099521
 10
14.5085190229
 20
8.7868604251
  0
LINE
  5
4CD
100
AcDbEntity
  8
0
100
AcDbLine
 62
7
  6
CONTINUOUS
 10
14.259781723
 20
8.7432086903
 11
14.2902069041
 21
8.755789304
  0
LINE
  5
4CE
100
AcDbEntity
  8
0
100
AcDbLine
 62
7
  6
CONTINUOUS
 10
14.2633369583
 20
8.7402760262
 11
14.2329117772
 21
8.7276954125
  0
LINE
  5
4CF
100
AcDbEntity
  8
0
100
AcDbLine
 62
7
  6
CONTINUOUS
 10
14.1466451091
 20
8.6778896257
 11
14.1770702901
 21
8.6904702394
  0
LINE
  5
4D0
100
AcDbEntity
  8
0
100
AcDbLine
 62
7
  6
CONTINUOUS
 10
14.1502003443
 20
8.6749569616
 11
14.1197751632
 21
8.6623763479
  0
LWPOLYLINE
  5
4D1
100
AcDbEntity
  8
0
100
AcDbPolyline
 62
7
  6
CONTINUOUS
 90
5
 70
0
 10
14.2952916954
 20
8.7633984816
 10
14.328897015
 20
8.7744879085
 10
14.3661403488
 20
8.776685373
 10
14.4055908198
 20
8.7701574201
 10
14.4471682666
 20
8.754963086
  0
LINE
  5
4D2
100
AcDbEntity
  8
0
100
AcDbLine
 62
7
  6
CONTINUOUS
 10
14.3020270692
 20
8.7589746306
 11
14.289579046
 21
8.7548669047
  0
LINE
  5
4D3
100
AcDbEntity
  8
0
100
AcDbLine
 62
7
  6
CONTINUOUS
 10
14.3590502713
 20
8.7917184152
 11
14.3461641749
 21
8.7875167556
  0
LINE
  5
4D4
100
AcDbEntity
  8
0
100
AcDbLine
 62
7
  6
CONTINUOUS
 10
14.2391372157
 20
8.7309418376
 11
14.2727836031
 21
8.7419126285
  0
LINE
  5
4D5
100
AcDbEntity
  8
0
100
AcDbLine
 62
7
  6
CONTINUOUS
 10
14.2459136573
 20
8.7263993506
 11
14.2330015521
 21
8.7221892105
  0
LWPOLYLINE
  5
4D6
100
AcDbEntity
  8
0
100
AcDbPolyline
 62
7
  6
CONTINUOUS
 90
5
 70
0
 10
14.3242981151
 20
8.7800811239
 10
14.3573869707
 20
8.7908559855
 10
14.394299633
 20
8.7930223433
 10
14.4338218928
 20
8.7865013535
 10
14.4755724441
 20
8.7712374744
  0
LINE
  5
4D7
100
AcDbEntity
  8
0
100
AcDbLine
 62
7
  6
CONTINUOUS
 10
14.3305170249
 20
8.7753427077
 11
14.3178722611
 21
8.7712251407
  0
LWPOLYLINE
  5
4D8
100
AcDbEntity
  8
0
100
AcDbPolyline
 62
7
  6
CONTINUOUS
 90
5
 70
0
 10
14.2111615012
 20
8.7147620593
 10
14.2442503567
 20
8.7255369209
 10
14.281163019
 20
8.7277032787
 10
14.3206852788
 20
8.7211822888
 10
14.3624358302
 20
8.7059184098
  0
LWPOLYLINE
  5
4D9
100
AcDbEntity
  8
0
100
AcDbPolyline
 62
7
  6
CONTINUOUS
 90
6
 70
0
 10
13.9373786331
 20
8.2326207876
 10
13.9404291808
 20
8.2244418767
 10
13.9654941778
 20
8.1731256419
 10
13.9955372607
 20
8.1240388696
 10
14.0299249678
 20
8.0783590633
 10
14.0673979235
 20
8.0377952961
  0
LWPOLYLINE
  5
4DA
100
AcDbEntity
  8
0
100
AcDbPolyline
 62
7
  6
CONTINUOUS
 90
3
 70
0
 10
13.9539665479
 20
8.4924891376
 10
13.9562097578
 20
8.493934276
 10
13.9587227444
 20
8.4958419951
  0
LINE
  5
4DB
100
AcDbEntity
  8
0
100
AcDbLine
 62
7
  6
CONTINUOUS
 10
13.9448742888
 20
8.5059032522
 11
13.9165901353
 21
8.489573486
  0
LINE
  5
4DC
100
AcDbEntity
  8
0
100
AcDbLine
 62
7
  6
CONTINUOUS
 10
13.9947507534
 20
8.5278401661
 11
14.01808518
 21
8.5413122232
  0
LINE
  5
4DD
100
AcDbEntity
  8
0
100
AcDbLine
 62
7
  6
CONTINUOUS
 10
13.9997925882
 20
8.4823618987
 11
13.9644373375
 21
8.4619495159
  0
LINE
  5
4DE
100
AcDbEntity
  8
0
100
AcDbLine
 62
7
  6
CONTINUOUS
 10
14.0229140079
 20
8.5437137958
 11
14.0180866416
 21
8.5413096967
  0
LINE
  5
4DF
100
AcDbEntity
  8
0
100
AcDbLine
 62
7
  6
CONTINUOUS
 10
13.9917540892
 20
8.5330305795
 11
14.0056665426
 21
8.5397262641
  0
LWPOLYLINE
  5
4E0
100
AcDbEntity
  8
0
100
AcDbPolyline
 62
7
  6
CONTINUOUS
 90
3
 70
0
 10
14.0224591198
 20
8.5436086278
 10
14.0214873726
 20
8.5431893215
 10
14.0180870043
 20
8.5413129803
  0
LINE
  5
4E1
100
AcDbEntity
  8
0
100
AcDbLine
 62
7
  6
CONTINUOUS
 10
14.0335084951
 20
8.6125705611
 11
14.0639336762
 21
8.6251511748
  0
LINE
  5
4E2
100
AcDbEntity
  8
0
100
AcDbLine
 62
7
  6
CONTINUOUS
 10
14.0370637304
 20
8.6096378969
 11
14.0066385493
 21
8.5970572833
  0
LINE
  5
4E3
100
AcDbEntity
  8
0
100
AcDbLine
 62
7
  6
CONTINUOUS
 10
14.0075059305
 20
8.5925294747
 11
13.9769432683
 21
8.5799128072
  0
LINE
  5
4E4
100
AcDbEntity
  8
0
100
AcDbLine
 62
7
  6
CONTINUOUS
 10
13.9783574706
 20
8.5807292924
 11
14.0112504319
 21
8.5939492698
  0
LWPOLYLINE
  5
4E5
100
AcDbEntity
  8
0
100
AcDbPolyline
 62
7
  6
CONTINUOUS
 90
5
 70
0
 10
14.1821550815
 20
8.698079417
 10
14.2157604011
 20
8.7091688438
 10
14.2530037349
 20
8.7113663084
 10
14.2924542058
 20
8.7048383555
 10
14.3340316527
 20
8.6896440214
  0
LINE
  5
4E6
100
AcDbEntity
  8
0
100
AcDbLine
 62
7
  6
CONTINUOUS
 10
14.1888904553
 20
8.693655566
 11
14.176442432
 21
8.6895478401
  0
LWPOLYLINE
  5
4E7
100
AcDbEntity
  8
0
100
AcDbPolyline
 62
7
  6
CONTINUOUS
 90
5
 70
0
 10
14.0690184675
 20
8.6327603524
 10
14.1026237871
 20
8.6438497792
 10
14.1398671209
 20
8.6460472438
 10
14.1793175918
 20
8.6395192909
 10
14.2208950387
 20
8.6243249568
  0
LINE
  5
4E8
100
AcDbEntity
  8
0
100
AcDbLine
 62
7
  6
CONTINUOUS
 10
14.0757538413
 20
8.6283365014
 11
14.0633058181
 21
8.6242287754
  0
LINE
  5
4E9
100
AcDbEntity
  8
0
100
AcDbLine
 62
7
  6
CONTINUOUS
 10
14.1260006018
 20
8.665622773
 11
14.1596469892
 21
8.6765935638
  0
LINE
  5
4EA
100
AcDbEntity
  8
0
100
AcDbLine
 62
7
  6
CONTINUOUS
 10
14.1327770434
 20
8.661080286
 11
14.1198649382
 21
8.6568701459
  0
LINE
  5
4EB
100
AcDbEntity
  8
0
100
AcDbLine
 62
7
  6
CONTINUOUS
 10
14.0128639878
 20
8.6003037084
 11
14.0465103752
 21
8.6112744992
  0
LINE
  5
4EC
100
AcDbEntity
  8
0
100
AcDbLine
 62
7
  6
CONTINUOUS
 10
14.2173804109
 20
8.710023643
 11
14.2047356471
 21
8.705906076
  0
LWPOLYLINE
  5
4ED
100
AcDbEntity
  8
0
100
AcDbPolyline
 62
7
  6
CONTINUOUS
 90
5
 70
0
 10
14.0980248872
 20
8.6494429947
 10
14.1311137428
 20
8.6602178563
 10
14.168026405
 20
8.6623842141
 10
14.2075486649
 20
8.6558632242
 10
14.2492992162
 20
8.6405993452
  0
LINE
  5
4EE
100
AcDbEntity
  8
0
100
AcDbLine
 62
7
  6
CONTINUOUS
 10
14.104243797
 20
8.6447045784
 11
14.0915990332
 21
8.6405870114
  0
LWPOLYLINE
  5
4EF
100
AcDbEntity
  8
0
100
AcDbPolyline
 62
7
  6
CONTINUOUS
 90
3
 70
0
 10
14.0673979235
 20
8.0377952961
 10
14.1055920405
 20
8.0051562551
 10
14.1447500819
 20
7.9789903016
  0
LWPOLYLINE
  5
4F0
100
AcDbEntity
  8
0
100
AcDbPolyline
 62
7
  6
CONTINUOUS
 90
5
 70
0
 10
13.9997925882
 20
8.2210811252
 10
13.9983528048
 20
8.2232895012
 10
13.9966388158
 20
8.2253611513
 10
13.9946893839
 20
8.2271837039
 10
13.992727147
 20
8.2285437458
  0
LWPOLYLINE
  5
4F1
100
AcDbEntity
  8
0
100
AcDbPolyline
 62
7
  6
CONTINUOUS
 90
7
 70
0
 10
14.1447500819
 20
7.9789903016
 10
14.1789176708
 20
7.9626240265
 10
14.2140473273
 20
7.9516654128
 10
14.2470129203
 20
7.9473675399
 10
14.2771439233
 20
7.9494330225
 10
14.3046761047
 20
7.9576767806
 10
14.3297926884
 20
7.9725430538
  0
LINE
  5
4F2
100
AcDbEntity
  8
0
100
AcDbLine
 62
7
  6
CONTINUOUS
 10
14.2684945193
 20
8.0414552663
 11
14.2684945193
 21
8.2864059914
  0
LINE
  5
4F3
100
AcDbEntity
  8
0
100
AcDbLine
 62
9
  6
CONTINUOUS
 10
14.2897075755
 20
8.3149831893
 11
14.2897075755
 21
8.2986533161
  0
LWPOLYLINE
  5
4F4
100
AcDbEntity
  8
0
100
AcDbPolyline
 62
7
  6
CONTINUOUS
 90
4
 70
0
 10
14.2926365355
 20
8.3051324866
 10
14.2923281087
 20
8.3024595843
 10
14.2913983907
 20
8.3002767038
 10
14.2897076344
 20
8.2986533161
  0
LINE
  5
4F5
100
AcDbEntity
  8
0
100
AcDbLine
 62
7
  6
CONTINUOUS
 10
14.3163417215
 20
8.0138312962
 11
14.2684945193
 21
8.0414552663
  0
LINE
  5
4F6
100
AcDbEntity
  8
0
100
AcDbLine
 62
7
  6
CONTINUOUS
 10
13.9165901353
 20
8.2446227609
 11
13.9644373375
 21
8.2169987908
  0
LINE
  5
4F7
100
AcDbEntity
  8
0
100
AcDbLine
 62
9
  6
CONTINUOUS
 10
13.9856503621
 20
8.2292459586
 11
13.9997925882
 21
8.2210811252
  0
LINE
  5
4F8
100
AcDbEntity
  8
0
100
AcDbLine
 62
7
  6
CONTINUOUS
 10
14.505803273
 20
7.7648871641
 11
14.5321556998
 21
7.7308659383
  0
LWPOLYLINE
  5
4F9
100
AcDbEntity
  8
0
100
AcDbPolyline
 62
7
  6
CONTINUOUS
 90
5
 70
0
 10
14.505803273
 20
7.7648871641
 10
14.4988219795
 20
7.774727221
 10
14.4871646433
 20
7.7976480625
 10
14.4812759507
 20
7.8212934202
 10
14.4805369778
 20
7.8332383767
  0
LINE
  5
4FA
100
AcDbEntity
  8
0
100
AcDbLine
 62
7
  6
CONTINUOUS
 10
14.1689276171
 20
8.72132688
 11
14.1721461764
 21
8.6921940939
  0
LWPOLYLINE
  5
4FB
100
AcDbEntity
  8
0
100
AcDbPolyline
 62
7
  6
CONTINUOUS
 90
8
 70
0
 10
14.3877420927
 20
8.0984349058
 10
14.3880451977
 20
8.1430346422
 10
14.3820102419
 20
8.1916657798
 10
14.3698622756
 20
8.2416776592
 10
14.3520532407
 20
8.2918023395
 10
14.3289329509
 20
8.3412044638
 10
14.3013495605
 20
8.3881817101
 10
14.2699983157
 20
8.4317276456
  0
LINE
  5
4FC
100
AcDbEntity
  8
DATUM_CURVES
100
AcDbLine
 62
40
  6
CONTINUOUS
 10
14.2001185841
 20
7.9997706704
 11
14.1987058712
 21
7.9966841822
  0
LINE
  5
4FD
100
AcDbEntity
  8
DATUM_CURVES
100
AcDbLine
 62
40
  6
CONTINUOUS
 10
14.1987058712
 20
7.9966841822
 11
14.1971696494
 21
7.9933377642
  0
LINE
  5
4FE
100
AcDbEntity
  8
DATUM_CURVES
100
AcDbLine
 62
40
  6
CONTINUOUS
 10
14.1971696494
 20
7.9933377642
 11
14.1955085912
 21
7.98973065
  0
LINE
  5
4FF
100
AcDbEntity
  8
DATUM_CURVES
100
AcDbLine
 62
40
  6
CONTINUOUS
 10
14.1955085912
 20
7.98973065
 11
14.1939594654
 21
7.9863767819
  0
LINE
  5
500
100
AcDbEntity
  8
DATUM_CURVES
100
AcDbLine
 62
40
  6
CONTINUOUS
 10
14.1939594654
 20
7.9863767819
 11
14.1924043211
 21
7.9830194391
  0
LINE
  5
501
100
AcDbEntity
  8
0
100
AcDbLine
 62
7
  6
CONTINUOUS
 10
13.9856504526
 20
8.2292461154
 11
13.9644373375
 21
8.2169987908
  0
LWPOLYLINE
  5
502
100
AcDbEntity
  8
0
100
AcDbPolyline
 62
7
  6
CONTINUOUS
 90
19
 70
0
 10
14.2358055299
 20
7.9942250325
 10
14.2200714963
 20
7.9955563636
 10
14.2038476326
 20
7.9986595981
 10
14.1872394075
 20
8.003514573
 10
14.1703547877
 20
8.0100897471
 10
14.1533035378
 20
8.0183424052
 10
14.1361965517
 20
8.0282189083
 10
14.1191453022
 20
8.0396548988
 10
14.1022606833
 20
8.0525759696
 10
14.0856524595
 20
8.0668980933
 10
14.0694285976
 20
8.0825281447
 10
14.0536945662
 20
8.099364505
 10
14.0385526517
 20
8.1172977209
 10
14.0241012953
 20
8.1362112147
 10
14.0104344545
 20
8.1559820397
 10
13.9976409932
 20
8.1764816778
 10
13.9858041007
 20
8.1975768824
 10
13.9750008197
 20
8.2191304029
 10
13.9736000932
 20
8.2222888787
  0
LWPOLYLINE
  5
503
100
AcDbEntity
  8
0
100
AcDbPolyline
 62
7
  6
CONTINUOUS
 90
4
 70
0
 10
13.992727147
 20
8.2285437458
 10
13.9902570338
 20
8.2296123646
 10
13.987901734
 20
8.2298986506
 10
13.9856504526
 20
8.2292461154
  0
LWPOLYLINE
  5
504
100
AcDbEntity
  8
0
100
AcDbPolyline
 62
7
  6
CONTINUOUS
 90
5
 70
0
 10
14.2897075755
 20
8.3149831893
 10
14.2909002042
 20
8.3126321193
 10
14.2918373212
 20
8.3101119446
 10
14.2924409906
 20
8.3075124204
 10
14.2926365355
 20
8.3051324866
  0
LINE
  5
505
100
AcDbEntity
  8
0
100
AcDbLine
 62
7
  6
CONTINUOUS
 10
14.3105033894
 20
8.3329369224
 11
14.3321368274
 21
8.2847716866
  0
LWPOLYLINE
  5
506
100
AcDbEntity
  8
0
100
AcDbPolyline
 62
7
  6
CONTINUOUS
 90
24
 70
0
 10
14.3241944134
 20
8.2950726546
 10
14.3144993409
 20
8.3169339183
 10
14.3036960074
 20
8.338487537
 10
14.2918591158
 20
8.3595827291
 10
14.2790656507
 20
8.3800823639
 10
14.2653988065
 20
8.3998531851
 10
14.2509474471
 20
8.4187666745
 10
14.2358055299
 20
8.4366998857
 10
14.2200714963
 20
8.4535362407
 10
14.2038476326
 20
8.4691662865
 10
14.1872394075
 20
8.4834884042
 10
14.1703547877
 20
8.4964094687
 10
14.1533035378
 20
8.5078454526
 10
14.1361965517
 20
8.5177219487
 10
14.1191453022
 20
8.5259745997
 10
14.1022606833
 20
8.5325497664
 10
14.0856524595
 20
8.5374047337
 10
14.0694285976
 20
8.5405079606
 10
14.0536945662
 20
8.541839284
 10
14.0385526517
 20
8.5413900493
 10
14.0241012953
 20
8.539163167
 10
14.0104344545
 20
8.5351730935
 10
13.9976409932
 20
8.5294457377
 10
13.9947520898
 20
8.5278407571
  0
LINE
  5
507
100
AcDbEntity
  8
0
100
AcDbLine
 62
7
  6
CONTINUOUS
 10
14.3321368274
 20
8.2847716866
 11
14.3331260194
 21
8.281751082
  0
LWPOLYLINE
  5
508
100
AcDbEntity
  8
0
100
AcDbPolyline
 62
7
  6
CONTINUOUS
 90
7
 70
0
 10
14.3163417215
 20
8.2587820213
 10
14.3291401106
 20
8.2181376568
 10
14.3378128462
 20
8.1781444125
 10
14.3421916864
 20
8.1395781149
 10
14.3421916864
 20
8.1031869094
 10
14.3378128462
 20
8.0696767466
 10
14.3291401106
 20
8.0396976883
  0
LWPOLYLINE
  5
509
100
AcDbEntity
  8
0
100
AcDbPolyline
 62
7
  6
CONTINUOUS
 90
8
 70
0
 10
14.3446258749
 20
8.2751117875
 10
14.3574242641
 20
8.234467423
 10
14.3660969997
 20
8.1944741786
 10
14.3704758399
 20
8.1559078811
 10
14.3704758399
 20
8.1195166755
 10
14.3660969997
 20
8.0860065128
 10
14.3574242641
 20
8.0560274544
 10
14.3446258749
 20
8.0301610624
  0
LWPOLYLINE
  5
50A
100
AcDbEntity
  8
0
100
AcDbPolyline
 62
7
  6
CONTINUOUS
 90
14
 70
0
 10
14.4766596489
 20
7.8592187829
 10
14.4855891769
 20
7.8299818155
 10
14.5031766997
 20
7.8020842476
 10
14.5288878292
 20
7.7763737329
 10
14.5619413458
 20
7.7536314722
 10
14.6013329352
 20
7.7345484777
 10
14.6458657037
 20
7.7197045764
 10
14.6941865459
 20
7.7095507929
 10
14.7448272572
 20
7.7043956446
 10
14.7962491454
 20
7.7043957682
 10
14.8468897825
 20
7.7095511599
 10
14.8952104781
 20
7.7197051758
 10
14.9397430326
 20
7.7345492911
 10
14.9791343467
 20
7.753632475
  0
LWPOLYLINE
  5
50B
100
AcDbEntity
  8
0
100
AcDbPolyline
 62
7
  6
CONTINUOUS
 90
6
 70
0
 10
14.3241944134
 20
8.2950726546
 10
14.3252412666
 20
8.2913587703
 10
14.3253771178
 20
8.2877441051
 10
14.3246846292
 20
8.2845585823
 10
14.3232781546
 20
8.2820120326
 10
14.3213915391
 20
8.280361019
  0
LWPOLYLINE
  5
50C
100
AcDbEntity
  8
0
100
AcDbPolyline
 62
7
  6
CONTINUOUS
 90
10
 70
0
 10
14.414865832
 20
8.1349457665
 10
14.4105312746
 20
8.1852315633
 10
14.399152007
 20
8.2381971455
 10
14.3810313349
 20
8.2923154513
 10
14.3566659507
 20
8.3460269567
 10
14.3267291682
 20
8.3977878603
 10
14.2920537645
 20
8.4461081694
 10
14.2536073622
 20
8.4895964129
 10
14.2124663364
 20
8.5269977367
 10
14.1697820036
 20
8.5572327569
  0
LWPOLYLINE
  5
50D
100
AcDbEntity
  8
0
100
AcDbPolyline
 62
7
  6
CONTINUOUS
 90
11
 70
0
 10
14.4728483467
 20
8.1684217871
 10
14.4687217452
 20
8.2173248923
 10
14.4577468382
 20
8.2694294953
 10
14.4402579436
 20
8.3226051377
 10
14.4170654172
 20
8.3747564677
 10
14.3883600817
 20
8.4255423929
 10
14.3547272315
 20
8.4736143284
 10
14.3175012471
 20
8.516965809
 10
14.278067342
 20
8.554186749
 10
14.2364706731
 20
8.5852133766
 10
14.1973933345
 20
8.6072329974
  0
LWPOLYLINE
  5
50E
100
AcDbEntity
  8
0
100
AcDbPolyline
 62
7
  6
CONTINUOUS
 90
11
 70
0
 10
14.4445641932
 20
8.1520920209
 10
14.4408179479
 20
8.1983797512
 10
14.4310658753
 20
8.247018023
 10
14.41544178
 20
8.2970746537
 10
14.3943912912
 20
8.3469888148
 10
14.368227037
 20
8.3958991523
 10
14.337276849
 20
8.4428627584
 10
14.3026104689
 20
8.4860516759
 10
14.2655773413
 20
8.5239174333
 10
14.2268437291
 20
8.5559564478
 10
14.1871763121
 20
8.5815686622
  0
LINE
  5
50F
100
AcDbEntity
  8
0
100
AcDbLine
 62
7
  6
CONTINUOUS
 10
14.4755433772
 20
7.8740634994
 11
14.4766596489
 21
7.8592187829
  0
LINE
  5
510
100
AcDbEntity
  8
0
100
AcDbLine
 62
7
  6
CONTINUOUS
 10
14.4154027353
 20
8.1068956442
 11
14.4162800397
 21
8.1357622548
  0
LINE
  5
511
100
AcDbEntity
  8
0
100
AcDbLine
 62
7
  6
CONTINUOUS
 10
14.4436868888
 20
8.1232254104
 11
14.4445641932
 21
8.1520920209
  0
LINE
  5
512
100
AcDbEntity
  8
0
100
AcDbLine
 62
7
  6
CONTINUOUS
 10
14.4208554703
 20
8.1517977289
 11
14.4183871068
 21
8.1076775214
  0
LWPOLYLINE
  5
513
100
AcDbEntity
  8
0
100
AcDbPolyline
 62
7
  6
CONTINUOUS
 90
4
 70
0
 10
14.414865832
 20
8.1349457665
 10
14.4122251731
 20
8.0899769602
 10
14.402866999
 20
8.0500040767
 10
14.3872049373
 20
8.0165261542
  0
LWPOLYLINE
  5
514
100
AcDbEntity
  8
0
100
AcDbPolyline
 62
7
  6
CONTINUOUS
 90
4
 70
0
 10
14.4431499855
 20
8.1512755326
 10
14.4404883609
 20
8.1061583673
 10
14.430956776
 20
8.0657677527
 10
14.4148723754
 20
8.0318732886
  0
LWPOLYLINE
  5
515
100
AcDbEntity
  8
0
100
AcDbPolyline
 62
7
  6
CONTINUOUS
 90
4
 70
0
 10
14.39254216
 20
8.1217364702
 10
14.3880430973
 20
8.0790367487
 10
14.3769146096
 20
8.0418357159
 10
14.3737677914
 20
8.0363018007
  0
LWPOLYLINE
  5
516
100
AcDbEntity
  8
0
100
AcDbPolyline
 62
7
  6
CONTINUOUS
 90
3
 70
0
 10
14.447792059
 20
8.1332870074
 10
14.4399907632
 20
8.0927797997
 10
14.4366974414
 20
8.084916878
  0
LWPOLYLINE
  5
517
100
AcDbEntity
  8
0
100
AcDbPolyline
 62
7
  6
CONTINUOUS
 90
3
 70
0
 10
14.4183871068
 20
8.1076775214
 10
14.4092245564
 20
8.0687037841
 10
14.4076702991
 20
8.0654396213
  0
LINE
  5
518
100
AcDbEntity
  8
0
100
AcDbLine
 62
7
  6
CONTINUOUS
 10
14.3291401106
 20
8.0396976883
 11
14.3163417215
 21
8.0138312962
  0
LINE
  5
519
100
AcDbEntity
  8
0
100
AcDbLine
 62
7
  6
CONTINUOUS
 10
14.2897076344
 20
8.2986533161
 11
14.2684945193
 21
8.2864059914
  0
LINE
  5
51A
100
AcDbEntity
  8
0
100
AcDbLine
 62
7
  6
CONTINUOUS
 10
14.3213915391
 20
8.280361019
 11
14.3284625774
 21
8.2844434605
  0
LINE
  5
51B
100
AcDbEntity
  8
0
100
AcDbLine
 62
7
  6
CONTINUOUS
 10
14.3446258749
 20
8.2751117875
 11
14.3163417215
 21
8.2587820213
  0
LWPOLYLINE
  5
51C
100
AcDbEntity
  8
0
100
AcDbPolyline
 62
9
  6
CONTINUOUS
 90
3
 70
0
 10
14.5153354552
 20
8.0732250646
 10
14.5342016156
 20
8.0708767989
 10
14.5619413458
 20
8.0745169221
  0
LWPOLYLINE
  5
51D
100
AcDbEntity
  8
0
100
AcDbPolyline
 62
7
  6
CONTINUOUS
 90
5
 70
0
 10
14.7037519539
 20
7.9953897397
 10
14.7518463386
 20
7.9884635682
 10
14.8059294256
 20
7.9897029785
 10
14.8555550709
 20
8.0006622559
 10
14.9003662509
 20
8.0207030532
  0
LINE
  5
51E
100
AcDbEntity
  8
0
100
AcDbLine
 62
7
  6
CONTINUOUS
 10
14.7036939104
 20
7.9954023389
 11
14.7037471411
 21
7.9953907843
  0
LINE
  5
51F
100
AcDbEntity
  8
0
100
AcDbLine
 62
9
  6
CONTINUOUS
 10
14.5318360479
 20
8.0841504001
 11
14.5619413458
 21
8.0745169221
  0
LWPOLYLINE
  5
520
100
AcDbEntity
  8
0
100
AcDbPolyline
 62
9
  6
CONTINUOUS
 90
13
 70
0
 10
14.5619413458
 20
8.0745169221
 10
14.6110429987
 20
8.049884886
 10
14.6593045086
 20
8.0331066608
 10
14.7059001078
 20
8.0244693267
 10
14.7500325327
 20
8.0241206709
 10
14.7909466653
 20
8.0320666589
 10
14.8279424533
 20
8.0481713326
 10
14.8603868886
 20
8.0721591368
 10
14.887724838
 20
8.1036196333
 10
14.9094885414
 20
8.1420145244
 10
14.9253056161
 20
8.1866868628
 10
14.9349054272
 20
8.2368722924
 10
14.9381237196
 20
8.2917121266
  0
LINE
  5
521
100
AcDbEntity
  8
0
100
AcDbLine
 62
9
  6
CONTINUOUS
 10
14.5412085921
 20
8.088252647
 11
14.5619413458
 21
8.0745169221
  0
LWPOLYLINE
  5
522
100
AcDbEntity
  8
0
100
AcDbPolyline
 62
9
  6
CONTINUOUS
 90
6
 70
0
 10
14.5619413458
 20
8.0745169221
 10
14.5982665764
 20
8.0448636576
 10
14.6331809689
 20
8.0226199051
 10
14.6658634574
 20
8.0070750202
 10
14.696084065
 20
7.997196982
 10
14.7036939104
 20
7.9954023389
  0
LWPOLYLINE
  5
523
100
AcDbEntity
  8
0
100
AcDbPolyline
 62
9
  6
CONTINUOUS
 90
8
 70
0
 10
14.5619413458
 20
8.0745169221
 10
14.5939869801
 20
8.0363604835
 10
14.6279949761
 20
8.0067904877
 10
14.6622785104
 20
7.9858442871
 10
14.6957480402
 20
7.9727859995
 10
14.7279394088
 20
7.9666964283
 10
14.7588719035
 20
7.9669136571
 10
14.7888022633
 20
7.9733287829
  0
LWPOLYLINE
  5
524
100
AcDbEntity
  8
0
100
AcDbPolyline
 62
7
  6
CONTINUOUS
 90
8
 70
0
 10
14.2699983157
 20
8.4317276456
 10
14.303397674
 20
8.3855918655
 10
14.3322852117
 20
8.3361092106
 10
14.3558571961
 20
8.2847062919
 10
14.3734617942
 20
8.2328645945
 10
14.3846177001
 20
8.1820781425
 10
14.3890278891
 20
8.1338108046
 10
14.3882211435
 20
8.1044706573
  0
LWPOLYLINE
  5
525
100
AcDbEntity
  8
0
100
AcDbPolyline
 62
7
  6
CONTINUOUS
 90
11
 70
0
 10
14.5011325002
 20
8.1847515532
 10
14.4969745806
 20
8.2338649229
 10
14.4859121863
 20
8.2861978237
 10
14.4682871469
 20
8.3395925285
 10
14.4449345929
 20
8.3919085766
 10
14.4163399321
 20
8.442354762
 10
14.3832502675
 20
8.4896357838
 10
14.3463283599
 20
8.5327247756
 10
14.3068029585
 20
8.5701351697
 10
14.2650499224
 20
8.6013509262
 10
14.225677488
 20
8.6235627636
  0
LWPOLYLINE
  5
526
100
AcDbEntity
  8
0
100
AcDbPolyline
 62
7
  6
CONTINUOUS
 90
11
 70
0
 10
14.5294166536
 20
8.2010813194
 10
14.5252997296
 20
8.249919303
 10
14.5143829486
 20
8.3018380233
 10
14.4970370718
 20
8.354719023
 10
14.4740207868
 20
8.4066461525
 10
14.4453840497
 20
8.4574774104
 10
14.4117847458
 20
8.5056420173
 10
14.3745477308
 20
8.5491227347
 10
14.3351007901
 20
8.5864533666
 10
14.2935243943
 20
8.6175565172
 10
14.2539616415
 20
8.6398925297
  0
LWPOLYLINE
  5
527
100
AcDbEntity
  8
0
100
AcDbPolyline
 62
7
  6
CONTINUOUS
 90
11
 70
0
 10
14.5577008071
 20
8.2174110855
 10
14.5539545619
 20
8.2636988159
 10
14.5442024892
 20
8.3123370877
 10
14.528578394
 20
8.3623937183
 10
14.5075279051
 20
8.4123078794
 10
14.4813636509
 20
8.461218217
 10
14.4504134629
 20
8.508181823
 10
14.4157470828
 20
8.5513707405
 10
14.3787139553
 20
8.589236498
 10
14.339980343
 20
8.6212755124
 10
14.3003129261
 20
8.6468877268
  0
LINE
  5
528
100
AcDbEntity
  8
0
100
AcDbLine
 62
7
  6
CONTINUOUS
 10
14.4755369778
 20
7.8740634976
 11
14.4755369778
 21
8.0515587351
  0
LINE
  5
529
100
AcDbEntity
  8
0
100
AcDbLine
 62
7
  6
CONTINUOUS
 10
14.4805369778
 20
7.8465236731
 11
14.4805369778
 21
7.8332383767
  0
LINE
  5
52A
100
AcDbEntity
  8
0
100
AcDbLine
 62
7
  6
CONTINUOUS
 10
14.4719710423
 20
8.1395551765
 11
14.4728483467
 21
8.1684217871
  0
LINE
  5
52B
100
AcDbEntity
  8
0
100
AcDbLine
 62
7
  6
CONTINUOUS
 10
14.5002551958
 20
8.1558849427
 11
14.5011325002
 21
8.1847515532
  0
LINE
  5
52C
100
AcDbEntity
  8
0
100
AcDbLine
 62
7
  6
CONTINUOUS
 10
14.5285393493
 20
8.1722147088
 11
14.5294166536
 21
8.2010813194
  0
LINE
  5
52D
100
AcDbEntity
  8
0
100
AcDbLine
 62
7
  6
CONTINUOUS
 10
14.5568235028
 20
8.188544475
 11
14.5577008071
 21
8.2174110855
  0
LWPOLYLINE
  5
52E
100
AcDbEntity
  8
0
100
AcDbPolyline
 62
7
  6
CONTINUOUS
 90
4
 70
0
 10
14.4997182925
 20
8.1839350649
 10
14.497099962
 20
8.1391249653
 10
14.4877080951
 20
8.0989601159
 10
14.4717754468
 20
8.0650640027
  0
LWPOLYLINE
  5
52F
100
AcDbEntity
  8
0
100
AcDbPolyline
 62
7
  6
CONTINUOUS
 90
4
 70
0
 10
14.528002446
 20
8.2002648311
 10
14.525361787
 20
8.1552960248
 10
14.5160036129
 20
8.1153231413
 10
14.5003415513
 20
8.0818452188
  0
LWPOLYLINE
  5
530
100
AcDbEntity
  8
0
100
AcDbPolyline
 62
7
  6
CONTINUOUS
 90
4
 70
0
 10
14.471434139
 20
8.1676052988
 10
14.4687730445
 20
8.1224918767
 10
14.4592431762
 20
8.0821040287
 10
14.443161488
 20
8.0482108858
  0
LWPOLYLINE
  5
531
100
AcDbEntity
  8
0
100
AcDbPolyline
 62
7
  6
CONTINUOUS
 90
4
 70
0
 10
14.5562865995
 20
8.2165945972
 10
14.5536249749
 20
8.171477432
 10
14.5440933899
 20
8.1310868173
 10
14.5280089893
 20
8.0971923532
  0
LWPOLYLINE
  5
532
100
AcDbEntity
  8
0
100
AcDbPolyline
 62
7
  6
CONTINUOUS
 90
3
 70
0
 10
14.4760762125
 20
8.1496167736
 10
14.4682749167
 20
8.1091095659
 10
14.465024012
 20
8.1013479164
  0
LWPOLYLINE
  5
533
100
AcDbEntity
  8
0
100
AcDbPolyline
 62
7
  6
CONTINUOUS
 90
3
 70
0
 10
14.504360366
 20
8.1659465397
 10
14.4965590701
 20
8.1254393321
 10
14.4933276451
 20
8.1177241909
  0
LWPOLYLINE
  5
534
100
AcDbEntity
  8
0
100
AcDbPolyline
 62
7
  6
CONTINUOUS
 90
3
 70
0
 10
14.5326445194
 20
8.1822763059
 10
14.5248432236
 20
8.1417690982
 10
14.52154938
 20
8.1339049304
  0
LWPOLYLINE
  5
535
100
AcDbEntity
  8
0
100
AcDbPolyline
 62
7
  6
CONTINUOUS
 90
4
 70
0
 10
14.3518580888
 20
7.9946899161
 10
14.3692874329
 20
8.0235057372
 10
14.3811692488
 20
8.0574406265
 10
14.3877420927
 20
8.0984349058
  0
LWPOLYLINE
  5
536
100
AcDbEntity
  8
0
100
AcDbPolyline
 62
7
  6
CONTINUOUS
 90
3
 70
0
 10
14.3138177628
 20
8.0152884715
 10
14.3105033894
 20
8.0117362885
 10
14.2977460745
 20
8.003033735
  0
LINE
  5
537
100
AcDbEntity
  8
0
100
AcDbLine
 62
7
  6
CONTINUOUS
 10
13.9644373375
 20
8.4619495159
 11
13.9165901353
 21
8.489573486
  0
LINE
  5
538
100
AcDbEntity
  8
0
100
AcDbLine
 62
7
  6
CONTINUOUS
 10
14.2684945193
 20
8.2864059914
 11
14.3163417215
 21
8.2587820213
  0
LINE
  5
539
100
AcDbEntity
  8
0
100
AcDbLine
 62
9
  6
CONTINUOUS
 10
14.3213915391
 20
8.280361019
 11
14.2897076344
 21
8.2986533161
  0
LINE
  5
53A
100
AcDbEntity
  8
0
100
AcDbLine
 62
9
  6
CONTINUOUS
 10
13.9856504526
 20
8.4741968405
 11
13.9539665479
 21
8.4924891376
  0
LINE
  5
53B
100
AcDbEntity
  8
0
100
AcDbLine
 62
7
  6
CONTINUOUS
 10
13.9601558383
 20
8.497080645
 11
13.9448742888
 21
8.5059032522
  0
LINE
  5
53C
100
AcDbEntity
  8
0
100
AcDbLine
 62
7
  6
CONTINUOUS
 10
14.3284625774
 20
8.2844434605
 11
14.3446258749
 21
8.2751117875
  0
LINE
  5
53D
100
AcDbEntity
  8
0
100
AcDbLine
 62
9
  6
CONTINUOUS
 10
14.3241944134
 20
8.2950726546
 11
14.2897075755
 21
8.3149831893
  0
LINE
  5
53E
100
AcDbEntity
  8
0
100
AcDbLine
 62
9
  6
CONTINUOUS
 10
13.9997925882
 20
8.4823618987
 11
13.9653057503
 21
8.5022724334
  0
LWPOLYLINE
  5
53F
100
AcDbEntity
  8
0
100
AcDbPolyline
 62
7
  6
CONTINUOUS
 90
6
 70
0
 10
14.2699983157
 20
8.4317276456
 10
14.2365351571
 20
8.4707409669
 10
14.2008721755
 20
8.5047320373
 10
14.1637883649
 20
8.5329605956
 10
14.1260428322
 20
8.5547826845
 10
14.0887908478
 20
8.5694859756
  0
LWPOLYLINE
  5
540
100
AcDbEntity
  8
0
100
AcDbPolyline
 62
7
  6
CONTINUOUS
 90
11
 70
0
 10
14.6142691141
 20
8.2500706179
 10
14.6101111945
 20
8.2991839875
 10
14.5990488003
 20
8.3515168883
 10
14.5814237609
 20
8.4049115932
 10
14.5580712069
 20
8.4572276413
 10
14.5294765461
 20
8.5076738266
 10
14.4963868815
 20
8.5549548484
 10
14.4594649739
 20
8.5980438403
 10
14.4199395725
 20
8.6354542343
 10
14.3781865363
 20
8.6666699908
 10
14.3388141019
 20
8.6888818282
  0
LWPOLYLINE
  5
541
100
AcDbEntity
  8
0
100
AcDbPolyline
 62
7
  6
CONTINUOUS
 90
11
 70
0
 10
14.5859849606
 20
8.2337408517
 10
14.5818583592
 20
8.2826439569
 10
14.5708834522
 20
8.3347485599
 10
14.5533945576
 20
8.3879242023
 10
14.5302020311
 20
8.4400755323
 10
14.5014966957
 20
8.4908614575
 10
14.4678638455
 20
8.5389333931
 10
14.430637861
 20
8.5822848736
 10
14.391203956
 20
8.6195058136
 10
14.3496072871
 20
8.6505324412
 10
14.3105299485
 20
8.672552062
  0
LINE
  5
542
100
AcDbEntity
  8
0
100
AcDbLine
 62
7
  6
CONTINUOUS
 10
14.5851076563
 20
8.2048742411
 11
14.5859849606
 21
8.2337408517
  0
LINE
  5
543
100
AcDbEntity
  8
0
100
AcDbLine
 62
7
  6
CONTINUOUS
 10
14.6133918097
 20
8.2212040073
 11
14.6142691141
 21
8.2500706179
  0
LINE
  5
544
100
AcDbEntity
  8
0
100
AcDbLine
 62
7
  6
CONTINUOUS
 10
14.6416759632
 20
8.2375337735
 11
14.6425532676
 21
8.266400384
  0
LWPOLYLINE
  5
545
100
AcDbEntity
  8
0
100
AcDbPolyline
 62
7
  6
CONTINUOUS
 90
4
 70
0
 10
14.6128549064
 20
8.2492541295
 10
14.6102365759
 20
8.2044440299
 10
14.6008447091
 20
8.1642791805
 10
14.5849120607
 20
8.1303830673
  0
LWPOLYLINE
  5
546
100
AcDbEntity
  8
0
100
AcDbPolyline
 62
7
  6
CONTINUOUS
 90
4
 70
0
 10
14.6411390599
 20
8.2655838957
 10
14.638498401
 20
8.2206150894
 10
14.6291402269
 20
8.1806422059
 10
14.6134781652
 20
8.1471642834
  0
LINE
  5
547
100
AcDbEntity
  8
0
100
AcDbLine
 62
7
  6
CONTINUOUS
 10
14.5845707529
 20
8.2329243634
 11
14.5819096585
 21
8.1878109413
  0
LINE
  5
548
100
AcDbEntity
  8
0
100
AcDbLine
 62
7
  6
CONTINUOUS
 10
14.5833666301
 20
8.1889307521
 11
14.5851076563
 21
8.2048742411
  0
LWPOLYLINE
  5
549
100
AcDbEntity
  8
0
100
AcDbPolyline
 62
7
  6
CONTINUOUS
 90
3
 70
0
 10
14.5609286729
 20
8.198606072
 10
14.5531273771
 20
8.1580988644
 10
14.5498340554
 20
8.1502359426
  0
LWPOLYLINE
  5
54A
100
AcDbEntity
  8
0
100
AcDbPolyline
 62
7
  6
CONTINUOUS
 90
3
 70
0
 10
14.5892128264
 20
8.2149358382
 10
14.5814115306
 20
8.1744286305
 10
14.5781606259
 20
8.166666981
  0
LWPOLYLINE
  5
54B
100
AcDbEntity
  8
0
100
AcDbPolyline
 62
7
  6
CONTINUOUS
 90
3
 70
0
 10
14.6174969799
 20
8.2312656043
 10
14.6096956841
 20
8.1907583967
 10
14.6064642591
 20
8.1830432555
  0
LWPOLYLINE
  5
54C
100
AcDbEntity
  8
0
100
AcDbPolyline
 62
7
  6
CONTINUOUS
 90
3
 70
0
 10
14.6457811334
 20
8.2475953705
 10
14.6379798376
 20
8.2070881628
 10
14.634685994
 20
8.1992239951
  0
LINE
  5
54D
100
AcDbEntity
  8
0
100
AcDbLine
 62
7
  6
CONTINUOUS
 10
14.5739747633
 20
8.1487659027
 11
14.5833666301
 21
8.1889307521
  0
LWPOLYLINE
  5
54E
100
AcDbEntity
  8
0
100
AcDbPolyline
 62
7
  6
CONTINUOUS
 90
3
 70
0
 10
14.5819096585
 20
8.1878109413
 10
14.5723797902
 20
8.1474230933
 10
14.556298102
 20
8.1135299504
  0
LINE
  5
54F
100
AcDbEntity
  8
0
100
AcDbLine
 62
7
  6
CONTINUOUS
 10
14.3872049373
 20
8.0165261542
 11
14.3656515397
 21
7.9901486764
  0
LWPOLYLINE
  5
550
100
AcDbEntity
  8
0
100
AcDbPolyline
 62
7
  6
CONTINUOUS
 90
5
 70
0
 10
14.4519182078
 20
8.0399544632
 10
14.4734716055
 20
8.0663319409
 10
14.4891336671
 20
8.0998098634
 10
14.4984918412
 20
8.1397827469
 10
14.5002551958
 20
8.1558849427
  0
LINE
  5
551
100
AcDbEntity
  8
0
100
AcDbLine
 62
7
  6
CONTINUOUS
 10
14.5003415513
 20
8.0818452188
 11
14.4787881536
 21
8.0554677411
  0
LWPOLYLINE
  5
552
100
AcDbEntity
  8
0
100
AcDbPolyline
 62
7
  6
CONTINUOUS
 90
5
 70
0
 10
14.4231572898
 20
8.0231843342
 10
14.444905501
 20
8.0495507248
 10
14.4608381493
 20
8.0834468381
 10
14.4702300161
 20
8.1236116875
 10
14.4719710423
 20
8.1395551765
  0
LINE
  5
553
100
AcDbEntity
  8
0
100
AcDbLine
 62
7
  6
CONTINUOUS
 10
14.4717754468
 20
8.0650640027
 11
14.4500272356
 21
8.038697612
  0
LWPOLYLINE
  5
554
100
AcDbEntity
  8
0
100
AcDbPolyline
 62
7
  6
CONTINUOUS
 90
5
 70
0
 10
14.3661838621
 20
7.9901544163
 10
14.3880024295
 20
8.0163600108
 10
14.4040868302
 20
8.0502544749
 10
14.4136184151
 20
8.0906450895
 10
14.4154027353
 20
8.1068956442
  0
LINE
  5
555
100
AcDbEntity
  8
0
100
AcDbLine
 62
7
  6
CONTINUOUS
 10
14.4148723754
 20
8.0318732886
 11
14.3930538079
 21
8.0056676942
  0
LWPOLYLINE
  5
556
100
AcDbEntity
  8
0
100
AcDbPolyline
 62
7
  6
CONTINUOUS
 90
5
 70
0
 10
14.3944659621
 20
8.0064823139
 10
14.4162915422
 20
8.0326976079
 10
14.4323732304
 20
8.0665907509
 10
14.4419030987
 20
8.1069785988
 10
14.4436868888
 20
8.1232254104
  0
LINE
  5
557
100
AcDbEntity
  8
0
100
AcDbLine
 62
7
  6
CONTINUOUS
 10
14.443161488
 20
8.0482108858
 11
14.4213359079
 21
8.0219955917
  0
LWPOLYLINE
  5
558
100
AcDbEntity
  8
0
100
AcDbPolyline
 62
7
  6
CONTINUOUS
 90
5
 70
0
 10
14.479320476
 20
8.0554734809
 10
14.5011390435
 20
8.0816790754
 10
14.5172234441
 20
8.1155735395
 10
14.5267550291
 20
8.1559641541
 10
14.5285393493
 20
8.1722147088
  0
LINE
  5
559
100
AcDbEntity
  8
0
100
AcDbLine
 62
7
  6
CONTINUOUS
 10
14.5280089893
 20
8.0971923532
 11
14.5061904218
 21
8.0709867588
  0
LWPOLYLINE
  5
55A
100
AcDbEntity
  8
0
100
AcDbPolyline
 62
7
  6
CONTINUOUS
 90
5
 70
0
 10
14.507602576
 20
8.0718013785
 10
14.5294281562
 20
8.0980166726
 10
14.5455098444
 20
8.1319098155
 10
14.5550397126
 20
8.1722976634
 10
14.5568235028
 20
8.188544475
  0
LINE
  5
55B
100
AcDbEntity
  8
0
100
AcDbLine
 62
7
  6
CONTINUOUS
 10
14.3297926884
 20
7.9725430538
 11
14.3518580888
 21
7.9946899161
  0
LWPOLYLINE
  5
55C
100
AcDbEntity
  8
0
100
AcDbPolyline
 62
7
  6
CONTINUOUS
 90
3
 70
0
 10
14.3086941675
 20
8.0182465136
 10
14.3036960074
 20
8.0140459838
 10
14.2947480732
 20
8.0082235566
  0
LWPOLYLINE
  5
55D
100
AcDbEntity
  8
0
100
AcDbPolyline
 62
9
  6
CONTINUOUS
 90
17
 70
0
 10
14.7120689481
 20
8.1940969007
 10
14.714724844
 20
8.1945729416
 10
14.744813885
 20
8.2092497567
 10
14.769946993
 20
8.2320796369
 10
14.789435127
 20
8.2624589077
 10
14.8027329229
 20
8.2995624743
 10
14.8094682154
 20
8.3423466699
 10
14.8094670539
 20
8.3896496607
 10
14.8027296038
 20
8.4402111161
 10
14.7894298264
 20
8.4926692666
 10
14.7699396012
 20
8.5455513052
 10
14.744804455
 20
8.5974016884
 10
14.7147139331
 20
8.6468203805
 10
14.6804607651
 20
8.692508161
 10
14.6429187692
 20
8.7332703221
 10
14.6030517115
 20
8.7680023486
 10
14.5619413458
 20
8.7956926821
  0
LWPOLYLINE
  5
55E
100
AcDbEntity
  8
DATUM_CURVES
100
AcDbPolyline
 62
40
  6
CONTINUOUS
 90
11
 70
0
 10
14.1953117853
 20
8.6051435658
 10
14.1941351015
 20
8.6063323308
 10
14.1929549373
 20
8.6075190865
 10
14.191771347
 20
8.6087038642
 10
14.1905843839
 20
8.6098866945
 10
14.1893941001
 20
8.6110676076
 10
14.188200547
 20
8.6122466332
 10
14.187003775
 20
8.6134238004
 10
14.1858038336
 20
8.6145991378
 10
14.1846007714
 20
8.6157726734
 10
14.1833946362
 20
8.6169444348
  0
LINE
  5
55F
100
AcDbEntity
  8
DATUM_CURVES
100
AcDbLine
 62
40
  6
CONTINUOUS
 10
14.1971509078
 20
8.6032742142
 11
14.1953117853
 21
8.6051435658
  0
LWPOLYLINE
  5
560
100
AcDbEntity
  8
0
100
AcDbPolyline
 62
7
  6
CONTINUOUS
 90
11
 70
0
 10
14.6425532676
 20
8.266400384
 10
14.6384363435
 20
8.3152383676
 10
14.6275195625
 20
8.3671570879
 10
14.6101736857
 20
8.4200380876
 10
14.5871574007
 20
8.4719652171
 10
14.5585206636
 20
8.522796475
 10
14.5249213597
 20
8.5709610819
 10
14.4876843448
 20
8.6144417993
 10
14.4482374041
 20
8.6517724312
 10
14.4066610082
 20
8.6828755818
 10
14.3670982554
 20
8.7052115943
  0
LWPOLYLINE
  5
561
100
AcDbEntity
  8
0
100
AcDbPolyline
 62
7
  6
CONTINUOUS
 90
11
 70
0
 10
14.6991215746
 20
8.2990599163
 10
14.6949949731
 20
8.3479630216
 10
14.6840200661
 20
8.4000676245
 10
14.6665311715
 20
8.4532432669
 10
14.6433386451
 20
8.5053945969
 10
14.6146333096
 20
8.5561805222
 10
14.5810004594
 20
8.6042524577
 10
14.543774475
 20
8.6476039382
 10
14.5043405699
 20
8.6848248783
 10
14.462743901
 20
8.7158515059
 10
14.4236665624
 20
8.7378711266
  0
LWPOLYLINE
  5
562
100
AcDbEntity
  8
0
100
AcDbPolyline
 62
7
  6
CONTINUOUS
 90
11
 70
0
 10
14.6708374211
 20
8.2827301502
 10
14.6670911758
 20
8.3290178805
 10
14.6573391032
 20
8.3776561523
 10
14.6417150079
 20
8.427712783
 10
14.6206645191
 20
8.477626944
 10
14.5945002649
 20
8.5265372816
 10
14.5635500769
 20
8.5735008876
 10
14.5288836968
 20
8.6166898051
 10
14.4918505692
 20
8.6545555626
 10
14.453116957
 20
8.686594577
 10
14.41344954
 20
8.7122067914
  0
LINE
  5
563
100
AcDbEntity
  8
AXIS_COSMETIC_THREADS
100
AcDbLine
 62
7
  6
CONTINUOUS
 10
14.6540369778
 20
7.6579143764
 11
14.6540369778
 21
7.2739020752
  0
LINE
  5
564
100
AcDbEntity
  8
0
100
AcDbLine
 62
7
  6
CONTINUOUS
 10
14.6699601167
 20
8.2538635396
 11
14.6708374211
 21
8.2827301502
  0
LINE
  5
565
100
AcDbEntity
  8
0
100
AcDbLine
 62
7
  6
CONTINUOUS
 10
14.6982442702
 20
8.2701933058
 11
14.6991215746
 21
8.2990599163
  0
LINE
  5
566
100
AcDbEntity
  8
0
100
AcDbLine
 62
7
  6
CONTINUOUS
 10
14.7265284237
 20
8.2865230719
 11
14.7274057281
 21
8.3153896825
  0
LWPOLYLINE
  5
567
100
AcDbEntity
  8
0
100
AcDbPolyline
 62
7
  6
CONTINUOUS
 90
4
 70
0
 10
14.7259915204
 20
8.3145731942
 10
14.7233731899
 20
8.2697630945
 10
14.713981323
 20
8.2295982452
 10
14.6980486747
 20
8.1957021319
  0
LWPOLYLINE
  5
568
100
AcDbEntity
  8
0
100
AcDbPolyline
 62
7
  6
CONTINUOUS
 90
4
 70
0
 10
14.6694232134
 20
8.2819136619
 10
14.6667615888
 20
8.2367964966
 10
14.6572300039
 20
8.196405882
 10
14.6411456033
 20
8.1625114178
  0
LWPOLYLINE
  5
569
100
AcDbEntity
  8
0
100
AcDbPolyline
 62
7
  6
CONTINUOUS
 90
4
 70
0
 10
14.6977073669
 20
8.298243428
 10
14.6950462724
 20
8.2531300059
 10
14.6855164041
 20
8.212742158
 10
14.669434716
 20
8.178849015
  0
LWPOLYLINE
  5
56A
100
AcDbEntity
  8
0
100
AcDbPolyline
 62
7
  6
CONTINUOUS
 90
3
 70
0
 10
14.732031014
 20
8.3223376704
 10
14.728215129
 20
8.2790922105
 10
14.7190439116
 20
8.2459832927
  0
LWPOLYLINE
  5
56B
100
AcDbEntity
  8
0
100
AcDbPolyline
 62
7
  6
CONTINUOUS
 90
3
 70
0
 10
14.7034149361
 20
8.2944755336
 10
14.697869644
 20
8.2525000919
 10
14.6919836367
 20
8.2349214605
  0
LWPOLYLINE
  5
56C
100
AcDbEntity
  8
0
100
AcDbPolyline
 62
7
  6
CONTINUOUS
 90
3
 70
0
 10
14.6743521797
 20
8.2669087156
 10
14.6670892592
 20
8.2262825341
 10
14.6631902092
 20
8.2164854232
  0
LWPOLYLINE
  5
56D
100
AcDbEntity
  8
0
100
AcDbPolyline
 62
7
  6
CONTINUOUS
 90
5
 70
0
 10
14.5650548217
 20
8.1052735278
 10
14.5866082194
 20
8.1316510056
 10
14.602270281
 20
8.1651289281
 10
14.6116284552
 20
8.2051018115
 10
14.6133918097
 20
8.2212040073
  0
LINE
  5
56E
100
AcDbEntity
  8
0
100
AcDbLine
 62
7
  6
CONTINUOUS
 10
14.6134781652
 20
8.1471642834
 11
14.5919247676
 21
8.1207868057
  0
LWPOLYLINE
  5
56F
100
AcDbEntity
  8
0
100
AcDbPolyline
 62
7
  6
CONTINUOUS
 90
5
 70
0
 10
14.6781914357
 20
8.1705925924
 10
14.6997448334
 20
8.1969700702
 10
14.715406895
 20
8.2304479927
 10
14.7247650691
 20
8.2704208762
 10
14.7265284237
 20
8.2865230719
  0
LWPOLYLINE
  5
570
100
AcDbEntity
  8
0
100
AcDbPolyline
 62
7
  6
CONTINUOUS
 90
3
 70
0
 10
14.5362939038
 20
8.0885033988
 10
14.5580421149
 20
8.1148697894
 10
14.5739747633
 20
8.1487659027
  0
LINE
  5
571
100
AcDbEntity
  8
0
100
AcDbLine
 62
7
  6
CONTINUOUS
 10
14.5849120607
 20
8.1303830673
 11
14.5631638496
 21
8.1040166767
  0
LWPOLYLINE
  5
572
100
AcDbEntity
  8
0
100
AcDbPolyline
 62
7
  6
CONTINUOUS
 90
5
 70
0
 10
14.6494305177
 20
8.1538224634
 10
14.6711787289
 20
8.1801888541
 10
14.6871113772
 20
8.2140849673
 10
14.6965032441
 20
8.2542498167
 10
14.6982442702
 20
8.2701933058
  0
LINE
  5
573
100
AcDbEntity
  8
0
100
AcDbLine
 62
7
  6
CONTINUOUS
 10
14.6980486747
 20
8.1957021319
 11
14.6763004635
 21
8.1693357413
  0
LINE
  5
574
100
AcDbEntity
  8
0
100
AcDbLine
 62
7
  6
CONTINUOUS
 10
14.556298102
 20
8.1135299504
 11
14.5344725218
 21
8.0873146564
  0
LWPOLYLINE
  5
575
100
AcDbEntity
  8
0
100
AcDbPolyline
 62
7
  6
CONTINUOUS
 90
5
 70
0
 10
14.59245709
 20
8.1207925456
 10
14.6142756575
 20
8.14699814
 10
14.6303600581
 20
8.1808926041
 10
14.639891643
 20
8.2212832187
 10
14.6416759632
 20
8.2375337735
  0
LINE
  5
576
100
AcDbEntity
  8
0
100
AcDbLine
 62
7
  6
CONTINUOUS
 10
14.6411456033
 20
8.1625114178
 11
14.6193270358
 21
8.1363058234
  0
LWPOLYLINE
  5
577
100
AcDbEntity
  8
0
100
AcDbPolyline
 62
7
  6
CONTINUOUS
 90
5
 70
0
 10
14.62073919
 20
8.1371204431
 10
14.6425647701
 20
8.1633357372
 10
14.6586464583
 20
8.1972288801
 10
14.6681763266
 20
8.2376167281
 10
14.6699601167
 20
8.2538635396
  0
LINE
  5
578
100
AcDbEntity
  8
0
100
AcDbLine
 62
7
  6
CONTINUOUS
 10
14.669434716
 20
8.178849015
 11
14.6476091358
 21
8.152633721
  0
LWPOLYLINE
  5
579
100
AcDbEntity
  8
0
100
AcDbPolyline
 62
7
  6
CONTINUOUS
 90
3
 70
0
 10
14.7267267707
 20
8.2112455154
 10
14.7041060337
 20
8.1847808546
 10
14.6859078643
 20
8.171704503
  0
LINE
  5
57A
100
AcDbEntity
  8
0
100
AcDbLine
 62
7
  6
CONTINUOUS
 10
14.3656515397
 20
7.9901486764
 11
14.3451096333
 21
7.9749457317
  0
LINE
  5
57B
100
AcDbEntity
  8
0
100
AcDbLine
 62
7
  6
CONTINUOUS
 10
14.4313763014
 20
8.0247515185
 11
14.4519182078
 21
8.0399544632
  0
LINE
  5
57C
100
AcDbEntity
  8
0
100
AcDbLine
 62
7
  6
CONTINUOUS
 10
14.4787881536
 20
8.0554677411
 11
14.4582462472
 21
8.0402647963
  0
LINE
  5
57D
100
AcDbEntity
  8
0
100
AcDbLine
 62
7
  6
CONTINUOUS
 10
14.5445129154
 20
8.0900705831
 11
14.5650548217
 21
8.1052735278
  0
LINE
  5
57E
100
AcDbEntity
  8
0
100
AcDbLine
 62
7
  6
CONTINUOUS
 10
14.5919247676
 20
8.1207868057
 11
14.5713828612
 21
8.105583861
  0
LINE
  5
57F
100
AcDbEntity
  8
0
100
AcDbLine
 62
7
  6
CONTINUOUS
 10
14.6576495293
 20
8.1553896477
 11
14.6781914357
 21
8.1705925924
  0
LINE
  5
580
100
AcDbEntity
  8
0
100
AcDbLine
 62
7
  6
CONTINUOUS
 10
14.4030906992
 20
8.0084209154
 11
14.4231572898
 21
8.0231843342
  0
LINE
  5
581
100
AcDbEntity
  8
0
100
AcDbLine
 62
7
  6
CONTINUOUS
 10
14.4500272356
 20
8.038697612
 11
14.429960645
 21
8.0239341933
  0
LINE
  5
582
100
AcDbEntity
  8
0
100
AcDbLine
 62
7
  6
CONTINUOUS
 10
14.5162273132
 20
8.07373998
 11
14.5362939038
 21
8.0885033988
  0
LINE
  5
583
100
AcDbEntity
  8
0
100
AcDbLine
 62
7
  6
CONTINUOUS
 10
14.5631638496
 20
8.1040166767
 11
14.543097259
 21
8.0892532579
  0
LINE
  5
584
100
AcDbEntity
  8
0
100
AcDbLine
 62
7
  6
CONTINUOUS
 10
14.6293639271
 20
8.1390590447
 11
14.6494305177
 21
8.1538224634
  0
LINE
  5
585
100
AcDbEntity
  8
0
100
AcDbLine
 62
7
  6
CONTINUOUS
 10
14.6763004635
 20
8.1693357413
 11
14.6562338729
 21
8.1545723225
  0
LINE
  5
586
100
AcDbEntity
  8
0
100
AcDbLine
 62
7
  6
CONTINUOUS
 10
14.3465160103
 20
7.9757576967
 11
14.3661838621
 21
7.9901544163
  0
LINE
  5
587
100
AcDbEntity
  8
0
100
AcDbLine
 62
7
  6
CONTINUOUS
 10
14.3930538079
 20
8.0056676942
 11
14.3733859561
 21
7.9912709745
  0
LINE
  5
588
100
AcDbEntity
  8
0
100
AcDbLine
 62
7
  6
CONTINUOUS
 10
14.3747868666
 20
7.9920797837
 11
14.3944659621
 21
8.0064823139
  0
LINE
  5
589
100
AcDbEntity
  8
0
100
AcDbLine
 62
7
  6
CONTINUOUS
 10
14.4213359079
 20
8.0219955917
 11
14.4016568125
 21
8.0075930615
  0
LINE
  5
58A
100
AcDbEntity
  8
0
100
AcDbLine
 62
7
  6
CONTINUOUS
 10
14.4596526243
 20
8.0410767613
 11
14.479320476
 21
8.0554734809
  0
LINE
  5
58B
100
AcDbEntity
  8
0
100
AcDbLine
 62
7
  6
CONTINUOUS
 10
14.5061904218
 20
8.0709867588
 11
14.4865225701
 21
8.0565900391
  0
LINE
  5
58C
100
AcDbEntity
  8
0
100
AcDbLine
 62
7
  6
CONTINUOUS
 10
14.4879234806
 20
8.0573988483
 11
14.507602576
 21
8.0718013785
  0
LINE
  5
58D
100
AcDbEntity
  8
0
100
AcDbLine
 62
7
  6
CONTINUOUS
 10
14.5344725218
 20
8.0873146564
 11
14.5147934264
 21
8.0729121261
  0
LINE
  5
58E
100
AcDbEntity
  8
0
100
AcDbLine
 62
7
  6
CONTINUOUS
 10
14.5727892382
 20
8.1063958259
 11
14.59245709
 21
8.1207925456
  0
LINE
  5
58F
100
AcDbEntity
  8
0
100
AcDbLine
 62
7
  6
CONTINUOUS
 10
14.6193270358
 20
8.1363058234
 11
14.5996591841
 21
8.1219091038
  0
LINE
  5
590
100
AcDbEntity
  8
0
100
AcDbLine
 62
7
  6
CONTINUOUS
 10
14.6010600945
 20
8.1227179129
 11
14.62073919
 21
8.1371204431
  0
LINE
  5
591
100
AcDbEntity
  8
0
100
AcDbLine
 62
7
  6
CONTINUOUS
 10
14.6476091358
 20
8.152633721
 11
14.6279300404
 21
8.1382311907
  0
LWPOLYLINE
  5
592
100
AcDbEntity
  8
0
100
AcDbPolyline
 62
7
  6
CONTINUOUS
 90
5
 70
0
 10
14.6844936925
 20
8.1708880355
 10
14.7031463418
 20
8.1843661059
 10
14.7255751025
 20
8.210836961
 10
14.7418601549
 20
8.2447548657
 10
14.7515244184
 20
8.2851585891
  0
LWPOLYLINE
  5
593
100
AcDbEntity
  8
0
100
AcDbPolyline
 62
9
  6
CONTINUOUS
 90
16
 70
0
 10
14.7280074528
 20
8.2138950021
 10
14.7294697403
 20
8.2148120219
 10
14.7537072429
 20
8.236829355
 10
14.7725009434
 20
8.2661268503
 10
14.7853249769
 20
8.3019088113
 10
14.7918205007
 20
8.3431688813
 10
14.7918197549
 20
8.3887867554
 10
14.785322859
 20
8.4375470957
 10
14.7724975193
 20
8.488136748
 10
14.7537022934
 20
8.5391354639
 10
14.7294631984
 20
8.5891396017
 10
14.7004451599
 20
8.6367990244
 10
14.6674125964
 20
8.6808607662
 10
14.6312082052
 20
8.7201727878
 10
14.5927612356
 20
8.753669594
 10
14.5531025479
 20
8.7803833499
  0
LINE
  5
594
100
AcDbEntity
  8
0
100
AcDbLine
 62
7
  6
CONTINUOUS
 10
14.2947494103
 20
8.0082241484
 11
14.3104014778
 21
8.0172608199
  0
LINE
  5
595
100
AcDbEntity
  8
0
100
AcDbLine
 62
7
  6
CONTINUOUS
 10
14.3446258749
 20
8.0301610624
 11
14.3163417215
 21
8.0138312962
  0
LWPOLYLINE
  5
596
100
AcDbEntity
  8
0
100
AcDbPolyline
 62
7
  6
CONTINUOUS
 90
6
 70
0
 10
14.2947480732
 20
8.0082235566
 10
14.2918591158
 20
8.0066185476
 10
14.2790656507
 20
8.0008911995
 10
14.2653988065
 20
7.9969011338
 10
14.2509474471
 20
7.9946742593
 10
14.2358055299
 20
7.9942250325
  0
LWPOLYLINE
  5
597
100
AcDbEntity
  8
0
100
AcDbPolyline
 62
7
  6
CONTINUOUS
 90
3
 70
0
 10
14.5713828612
 20
8.105583861
 10
14.5647041952
 20
8.102020584
 10
14.557577442
 20
8.0997395628
  0
LWPOLYLINE
  5
598
100
AcDbEntity
  8
0
100
AcDbPolyline
 62
7
  6
CONTINUOUS
 90
3
 70
0
 10
14.4582462472
 20
8.0402647963
 10
14.4515675812
 20
8.0367015193
 10
14.444440828
 20
8.0344204982
  0
LWPOLYLINE
  5
599
100
AcDbEntity
  8
0
100
AcDbPolyline
 62
7
  6
CONTINUOUS
 90
3
 70
0
 10
14.6562338729
 20
8.1545723225
 10
14.6489701668
 20
8.1507240295
 10
14.642428697
 20
8.1486710745
  0
LWPOLYLINE
  5
59A
100
AcDbEntity
  8
0
100
AcDbPolyline
 62
7
  6
CONTINUOUS
 90
3
 70
0
 10
14.543097259
 20
8.0892532579
 10
14.5358335529
 20
8.0854049649
 10
14.529292083
 20
8.0833520099
  0
LWPOLYLINE
  5
59B
100
AcDbEntity
  8
0
100
AcDbPolyline
 62
7
  6
CONTINUOUS
 90
3
 70
0
 10
14.429960645
 20
8.0239341933
 10
14.4226969389
 20
8.0200859003
 10
14.4161554691
 20
8.0180329453
  0
LWPOLYLINE
  5
59C
100
AcDbEntity
  8
0
100
AcDbPolyline
 62
7
  6
CONTINUOUS
 90
3
 70
0
 10
14.5996591841
 20
8.1219091038
 10
14.5923318393
 20
8.1180306498
 10
14.5859262264
 20
8.1160120025
  0
LWPOLYLINE
  5
59D
100
AcDbEntity
  8
0
100
AcDbPolyline
 62
7
  6
CONTINUOUS
 90
3
 70
0
 10
14.4865225701
 20
8.0565900391
 10
14.4791952253
 20
8.0527115852
 10
14.4727896124
 20
8.0506929379
  0
LWPOLYLINE
  5
59E
100
AcDbEntity
  8
0
100
AcDbPolyline
 62
7
  6
CONTINUOUS
 90
3
 70
0
 10
14.6279300404
 20
8.1382311907
 10
14.6204085737
 20
8.1342605006
 10
14.6141545502
 20
8.1323013459
  0
LWPOLYLINE
  5
59F
100
AcDbEntity
  8
0
100
AcDbPolyline
 62
7
  6
CONTINUOUS
 90
3
 70
0
 10
14.5147934264
 20
8.0729121261
 10
14.5072719597
 20
8.068941436
 10
14.5010179362
 20
8.0669822813
  0
LWPOLYLINE
  5
5A0
100
AcDbEntity
  8
0
100
AcDbPolyline
 62
7
  6
CONTINUOUS
 90
12
 70
0
 10
14.2977460745
 20
8.003033735
 10
14.2838336211
 20
7.9963380504
 10
14.2529378698
 20
7.9891951002
 10
14.2187548873
 20
7.9905244728
 10
14.1823233063
 20
8.0002857761
 10
14.1447500819
 20
8.0181824176
 10
14.1071768574
 20
8.0436706171
 10
14.0707452764
 20
8.0759759284
 10
14.0365622939
 20
8.114116771
 10
14.0056665426
 20
8.1569342548
 10
13.9789967743
 20
8.2031273921
 10
13.9710513203
 20
8.2208173527
  0
LWPOLYLINE
  5
5A1
100
AcDbEntity
  8
0
100
AcDbPolyline
 62
7
  6
CONTINUOUS
 90
3
 70
0
 10
14.670082633
 20
8.164591315
 10
14.6752220711
 20
8.1660954167
 10
14.6844936925
 20
8.1708880355
  0
LWPOLYLINE
  5
5A2
100
AcDbEntity
  8
0
100
AcDbPolyline
 62
7
  6
CONTINUOUS
 90
4
 70
0
 10
14.1697820036
 20
8.5572327569
 10
14.126751979
 20
8.5794246184
 10
14.08458436
 20
8.5929265281
 10
14.0444615102
 20
8.5973408849
  0
LWPOLYLINE
  5
5A3
100
AcDbEntity
  8
0
100
AcDbPolyline
 62
7
  6
CONTINUOUS
 90
11
 70
0
 10
14.1453896506
 20
8.5758102396
 10
14.1864559805
 20
8.5545405037
 10
14.2271788523
 20
8.525643763
 10
14.2664269704
 20
8.4899504031
 10
14.3031107857
 20
8.4484832043
 10
14.3362133382
 20
8.4024283896
 10
14.364819044
 20
8.3531020458
 10
14.3881396136
 20
8.3019128681
 10
14.4055363663
 20
8.250322284
 10
14.4165383092
 20
8.1998030836
 10
14.4208554703
 20
8.1517977289
  0
LWPOLYLINE
  5
5A4
100
AcDbEntity
  8
0
100
AcDbPolyline
 62
7
  6
CONTINUOUS
 90
12
 70
0
 10
14.1534179724
 20
8.5685759506
 10
14.1756917699
 20
8.5568123777
 10
14.216749756
 20
8.5290539259
 10
14.2565122583
 20
8.4942763331
 10
14.2938647757
 20
8.453485991
 10
14.3277616757
 20
8.4078611144
 10
14.3572560757
 20
8.3587180726
 10
14.3815269009
 20
8.3074737713
 10
14.3999023479
 20
8.2556051631
 10
14.4118790826
 20
8.2046070411
 10
14.4171366239
 20
8.1559493228
 10
14.416505297
 20
8.1208004235
  0
LWPOLYLINE
  5
5A5
100
AcDbEntity
  8
0
100
AcDbPolyline
 62
7
  6
CONTINUOUS
 90
11
 70
0
 10
14.1408250275
 20
8.5745734651
 10
14.1731712739
 20
8.5568322962
 10
14.2155960372
 20
8.5264228231
 10
14.2564456967
 20
8.4889596414
 10
14.2945897514
 20
8.4455115083
 10
14.3289706999
 20
8.3973191411
 10
14.3586371344
 20
8.3457587495
 10
14.3827723318
 20
8.2923004591
 10
14.4007173682
 20
8.2384635729
 10
14.4119857036
 20
8.1857830597
 10
14.4162800397
 20
8.1357622548
  0
LWPOLYLINE
  5
5A6
100
AcDbEntity
  8
0
100
AcDbPolyline
 62
7
  6
CONTINUOUS
 90
11
 70
0
 10
14.1648126322
 20
8.5914408352
 10
14.2072577261
 20
8.5677507304
 10
14.248834122
 20
8.5366475798
 10
14.2882810627
 20
8.4993169479
 10
14.3255180776
 20
8.4558362305
 10
14.3591173815
 20
8.4076716236
 10
14.3877541186
 20
8.3568403657
 10
14.4107704036
 20
8.3049132362
 10
14.4281162804
 20
8.2520322365
 10
14.4390330614
 20
8.2001135162
 10
14.4431499855
 20
8.1512755326
  0
LWPOLYLINE
  5
5A7
100
AcDbEntity
  8
0
100
AcDbPolyline
 62
7
  6
CONTINUOUS
 90
11
 70
0
 10
14.2140462579
 20
8.59708194
 10
14.2537136749
 20
8.5714697256
 10
14.2924472871
 20
8.5394307112
 10
14.3294804147
 20
8.5015649537
 10
14.3641467948
 20
8.4583760362
 10
14.3950969828
 20
8.4114124302
 10
14.421261237
 20
8.3625020926
 10
14.4423117258
 20
8.3125879316
 10
14.4579358211
 20
8.2625313009
 10
14.4676878937
 20
8.2138930291
 10
14.471434139
 20
8.1676052988
  0
LWPOLYLINE
  5
5A8
100
AcDbEntity
  8
0
100
AcDbPolyline
 62
7
  6
CONTINUOUS
 90
11
 70
0
 10
14.1988435254
 20
8.5760571544
 10
14.2401191819
 20
8.5491284306
 10
14.2802294043
 20
8.5150242251
 10
14.3180422861
 20
8.4747383507
 10
14.3524920109
 20
8.4294424553
 10
14.3826095144
 20
8.380452316
 10
14.4075503621
 20
8.3291899866
 10
14.4266190428
 20
8.2771428877
 10
14.4392889768
 20
8.2258210163
 10
14.4452176645
 20
8.1767135058
 10
14.4447894504
 20
8.1371301896
  0
LWPOLYLINE
  5
5A9
100
AcDbEntity
  8
0
100
AcDbPolyline
 62
7
  6
CONTINUOUS
 90
11
 70
0
 10
14.2023790446
 20
8.5780983752
 10
14.2436547011
 20
8.5511696513
 10
14.2837649235
 20
8.5170654459
 10
14.3215778053
 20
8.4767795715
 10
14.3560275301
 20
8.4314836761
 10
14.3861450335
 20
8.3824935368
 10
14.4110858813
 20
8.3312312074
 10
14.430154562
 20
8.2791841085
 10
14.442824496
 20
8.2278622371
 10
14.4487531837
 20
8.1787547266
 10
14.447792059
 20
8.1332870074
  0
LWPOLYLINE
  5
5AA
100
AcDbEntity
  8
0
100
AcDbPolyline
 62
9
  6
CONTINUOUS
 90
3
 70
0
 10
14.7821346656
 20
7.9891576792
 10
14.7846828847
 20
7.9837977094
 10
14.7888022633
 20
7.9733287829
  0
LWPOLYLINE
  5
5AB
100
AcDbEntity
  8
0
100
AcDbPolyline
 62
7
  6
CONTINUOUS
 90
11
 70
0
 10
14.7274057281
 20
8.3153896825
 10
14.7232478085
 20
8.3645030521
 10
14.7121854142
 20
8.4168359529
 10
14.6945603748
 20
8.4702306578
 10
14.6712078208
 20
8.5225467059
 10
14.6426131601
 20
8.5729928912
 10
14.6095234954
 20
8.620273913
 10
14.5726015878
 20
8.6633629049
 10
14.5330761864
 20
8.7007732989
 10
14.4913231503
 20
8.7319890554
 10
14.4519507159
 20
8.7542008928
  0
LWPOLYLINE
  5
5AC
100
AcDbEntity
  8
0
100
AcDbPolyline
 62
7
  6
CONTINUOUS
 90
11
 70
0
 10
14.7556898815
 20
8.3317194486
 10
14.7515729575
 20
8.3805574322
 10
14.7406561765
 20
8.4324761526
 10
14.7233102997
 20
8.4853571522
 10
14.7002940147
 20
8.5372842817
 10
14.6716572776
 20
8.5881155396
 10
14.6380579737
 20
8.6362801465
 10
14.6008209587
 20
8.6797608639
 10
14.561374018
 20
8.7170914958
 10
14.5197976222
 20
8.7481946464
 10
14.4802348694
 20
8.770530659
  0
LINE
  5
5AD
100
AcDbEntity
  8
0
100
AcDbLine
 62
7
  6
CONTINUOUS
 10
14.7556898815
 20
8.3317194486
 11
14.7548125772
 21
8.3028528381
  0
LINE
  5
5AE
100
AcDbEntity
  8
0
100
AcDbLine
 62
7
  6
CONTINUOUS
 10
14.7601994298
 20
8.3504733699
 11
14.7581214995
 21
8.3060395069
  0
LINE
  5
5AF
100
AcDbEntity
  8
0
100
AcDbLine
 62
7
  6
CONTINUOUS
 10
14.7515244184
 20
8.2851585891
 11
14.7542756739
 21
8.3309029603
  0
LWPOLYLINE
  5
5B0
100
AcDbEntity
  8
0
100
AcDbPolyline
 62
7
  6
CONTINUOUS
 90
4
 70
0
 10
14.7548125772
 20
8.3028528381
 10
14.7529106849
 20
8.2857818327
 10
14.743157265
 20
8.2452370728
 10
14.7267267707
 20
8.2112455154
  0
LINE
  5
5B1
100
AcDbEntity
  8
0
100
AcDbLine
 62
7
  6
CONTINUOUS
 10
14.7581214995
 20
8.3060395069
 11
14.7572852154
 21
8.3022998868
  0
LWPOLYLINE
  5
5B2
100
AcDbEntity
  8
0
100
AcDbPolyline
 62
7
  6
CONTINUOUS
 90
3
 70
0
 10
14.3451096333
 20
7.9749457317
 10
14.3384309673
 20
7.9713824547
 10
14.3153518199
 20
7.9639956375
  0
LWPOLYLINE
  5
5B3
100
AcDbEntity
  8
0
100
AcDbPolyline
 62
7
  6
CONTINUOUS
 90
3
 70
0
 10
14.3733859561
 20
7.9912709745
 10
14.3660586114
 20
7.9873925206
 10
14.3596529985
 20
7.9853738733
  0
LWPOLYLINE
  5
5B4
100
AcDbEntity
  8
0
100
AcDbPolyline
 62
7
  6
CONTINUOUS
 90
3
 70
0
 10
14.4016568125
 20
8.0075930615
 10
14.3941353458
 20
8.0036223713
 10
14.3878813223
 20
8.0016632167
  0
LINE
  5
5B5
100
AcDbEntity
  8
0
100
AcDbLine
 62
7
  6
CONTINUOUS
 10
14.1051208803
 20
8.5888384863
 11
14.1453896506
 21
8.5758102396
  0
LWPOLYLINE
  5
5B6
100
AcDbEntity
  8
0
100
AcDbPolyline
 62
7
  6
CONTINUOUS
 90
12
 70
0
 10
14.0887908478
 20
8.5694859756
 10
14.1294185998
 20
8.5539292528
 10
14.1705018118
 20
8.530291907
 10
14.2108989879
 20
8.4992554437
 10
14.2494880522
 20
8.4617108184
 10
14.2851981117
 20
8.4187332162
 10
14.3170397709
 20
8.3715516157
 10
14.3441331388
 20
8.321514
 10
14.3657327361
 20
8.2700491988
 10
14.3812485983
 20
8.2186264415
 10
14.390262976
 20
8.1687137677
 10
14.39254216
 20
8.1217364702
  0
LWPOLYLINE
  5
5B7
100
AcDbEntity
  8
0
100
AcDbPolyline
 62
7
  6
CONTINUOUS
 90
4
 70
0
 10
14.169109181
 20
8.5909032312
 10
14.1475036087
 20
8.6001366051
 10
14.1087567506
 20
8.611198336
 10
14.0717300575
 20
8.6144564191
  0
LWPOLYLINE
  5
5B8
100
AcDbEntity
  8
0
100
AcDbPolyline
 62
7
  6
CONTINUOUS
 90
12
 70
0
 10
14.1893875416
 20
8.6133939966
 10
14.2306631981
 20
8.5944281414
 10
14.2719388546
 20
8.5674994175
 10
14.312049077
 20
8.5333952121
 10
14.3498619588
 20
8.4931093377
 10
14.3843116836
 20
8.4478134422
 10
14.414429187
 20
8.3988233029
 10
14.4393700348
 20
8.3475609735
 10
14.4584387155
 20
8.2955138746
 10
14.4711086495
 20
8.2441920032
 10
14.4770373372
 20
8.1950844927
 10
14.4760762125
 20
8.1496167736
  0
LINE
  5
5B9
100
AcDbEntity
  8
0
100
AcDbLine
 62
7
  6
CONTINUOUS
 10
14.1614329308
 20
8.5969448516
 11
14.2023790446
 21
8.5780983752
  0
LINE
  5
5BA
100
AcDbEntity
  8
0
100
AcDbLine
 62
7
  6
CONTINUOUS
 10
14.1743735545
 20
8.615649883
 11
14.2140462579
 21
8.59708194
  0
LINE
  5
5BB
100
AcDbEntity
  8
0
100
AcDbLine
 62
7
  6
CONTINUOUS
 10
14.1817021259
 20
8.5849057167
 11
14.1988435254
 21
8.5760571544
  0
LWPOLYLINE
  5
5BC
100
AcDbEntity
  8
0
100
AcDbPolyline
 62
7
  6
CONTINUOUS
 90
12
 70
0
 10
14.2099862794
 20
8.6012354829
 10
14.2271276789
 20
8.5923869206
 10
14.2684033354
 20
8.5654581967
 10
14.3085135578
 20
8.5313539913
 10
14.3463264396
 20
8.4910681169
 10
14.3807761644
 20
8.4457722215
 10
14.4108936679
 20
8.3967820822
 10
14.4358345156
 20
8.3455197528
 10
14.4549031963
 20
8.2934726539
 10
14.4675731303
 20
8.2421507824
 10
14.473501818
 20
8.193043272
 10
14.4730736039
 20
8.1534599558
  0
LWPOLYLINE
  5
5BD
100
AcDbEntity
  8
0
100
AcDbPolyline
 62
7
  6
CONTINUOUS
 90
12
 70
0
 10
14.2382704328
 20
8.6175652491
 10
14.2554118324
 20
8.6087166867
 10
14.2966874889
 20
8.5817879629
 10
14.3367977113
 20
8.5476837574
 10
14.3746105931
 20
8.507397883
 10
14.4090603179
 20
8.4621019876
 10
14.4391778213
 20
8.4131118483
 10
14.4641186691
 20
8.3618495189
 10
14.4831873498
 20
8.30980242
 10
14.4958572838
 20
8.2584805486
 10
14.5017859715
 20
8.2093730381
 10
14.5013577574
 20
8.1697897219
  0
LINE
  5
5BE
100
AcDbEntity
  8
0
100
AcDbLine
 62
7
  6
CONTINUOUS
 10
14.1871763121
 20
8.5815686622
 11
14.169109181
 21
8.5909032312
  0
LWPOLYLINE
  5
5BF
100
AcDbEntity
  8
0
100
AcDbPolyline
 62
7
  6
CONTINUOUS
 90
11
 70
0
 10
14.2208950387
 20
8.6243249568
 10
14.2633406189
 20
8.6007266545
 10
14.3049372878
 20
8.5697000269
 10
14.3443711929
 20
8.5324790868
 10
14.3815971773
 20
8.4891276063
 10
14.4152300275
 20
8.4410556708
 10
14.443935363
 20
8.3902697455
 10
14.4671278894
 20
8.3381184155
 10
14.484616784
 20
8.2849427731
 10
14.495591691
 20
8.2328381702
 10
14.4997182925
 20
8.1839350649
  0
LWPOLYLINE
  5
5C0
100
AcDbEntity
  8
0
100
AcDbPolyline
 62
7
  6
CONTINUOUS
 90
11
 70
0
 10
14.2492992162
 20
8.6405993452
 10
14.2919198682
 20
8.616864204
 10
14.3336729043
 20
8.5856484475
 10
14.3731983057
 20
8.5482380535
 10
14.4101202133
 20
8.5051490616
 10
14.443209878
 20
8.4578680398
 10
14.4718045387
 20
8.4074218545
 10
14.4951570927
 20
8.3551058064
 10
14.5127821322
 20
8.3017111016
 10
14.5238445264
 20
8.2493782007
 10
14.528002446
 20
8.2002648311
  0
LWPOLYLINE
  5
5C1
100
AcDbEntity
  8
0
100
AcDbPolyline
 62
7
  6
CONTINUOUS
 90
11
 70
0
 10
14.3119801394
 20
8.6413762191
 10
14.3532557959
 20
8.6144474952
 10
14.3933660183
 20
8.5803432898
 10
14.4311789001
 20
8.5400574154
 10
14.4656286249
 20
8.4947615199
 10
14.4957461283
 20
8.4457713806
 10
14.5206869761
 20
8.3945090512
 10
14.5397556568
 20
8.3424619523
 10
14.5524255908
 20
8.2911400809
 10
14.5583542784
 20
8.2420325704
 10
14.5579260644
 20
8.2024492542
  0
LWPOLYLINE
  5
5C2
100
AcDbEntity
  8
0
100
AcDbPolyline
 62
7
  6
CONTINUOUS
 90
11
 70
0
 10
14.3155156586
 20
8.6434174398
 10
14.356791315
 20
8.616488716
 10
14.3969015375
 20
8.5823845105
 10
14.4347144193
 20
8.5420986361
 10
14.4691641441
 20
8.4968027407
 10
14.4992816475
 20
8.4478126014
 10
14.5242224952
 20
8.396550272
 10
14.543291176
 20
8.3445031731
 10
14.5559611099
 20
8.2931813017
 10
14.5618897976
 20
8.2440737912
 10
14.5609286729
 20
8.198606072
  0
LINE
  5
5C3
100
AcDbEntity
  8
AXIS_COSMETIC_THREADS
100
AcDbLine
 62
7
  6
CONTINUOUS
 10
14.8870369778
 20
7.6577314226
 11
14.8870369778
 21
7.2739020752
  0
LWPOLYLINE
  5
5C4
100
AcDbEntity
  8
0
100
AcDbPolyline
 62
7
  6
CONTINUOUS
 90
4
 70
0
 10
14.0887908478
 20
8.5694859756
 10
14.0642995949
 20
8.5757508534
 10
14.0398489166
 20
8.5786106219
 10
14.014593284
 20
8.5774952581
  0
LINE
  5
5C5
100
AcDbEntity
  8
0
100
AcDbLine
 62
7
  6
CONTINUOUS
 10
14.161251062
 20
8.6207207183
 11
14.1893875416
 21
8.6133939966
  0
LINE
  5
5C6
100
AcDbEntity
  8
0
100
AcDbLine
 62
7
  6
CONTINUOUS
 10
14.1266992573
 20
8.6060759805
 11
14.1614329308
 21
8.5969448516
  0
LWPOLYLINE
  5
5C7
100
AcDbEntity
  8
0
100
AcDbPolyline
 62
7
  6
CONTINUOUS
 90
3
 70
0
 10
14.225677488
 20
8.6235627636
 10
14.180678719
 20
8.6403499464
 10
14.1411564592
 20
8.6468709362
  0
LWPOLYLINE
  5
5C8
100
AcDbEntity
  8
0
100
AcDbPolyline
 62
7
  6
CONTINUOUS
 90
3
 70
0
 10
14.1973933345
 20
8.6072329974
 10
14.152447646
 20
8.624006013
 10
14.1129971751
 20
8.630533966
  0
LWPOLYLINE
  5
5C9
100
AcDbEntity
  8
0
100
AcDbPolyline
 62
7
  6
CONTINUOUS
 90
3
 70
0
 10
14.2539616415
 20
8.6398925297
 10
14.2094826907
 20
8.6565403784
 10
14.1700294746
 20
8.6631659369
  0
LWPOLYLINE
  5
5CA
100
AcDbEntity
  8
0
100
AcDbPolyline
 62
7
  6
CONTINUOUS
 90
4
 70
0
 10
14.282245795
 20
8.6562222959
 10
14.2606402227
 20
8.6654556697
 10
14.2218933645
 20
8.6765174006
 10
14.1848666715
 20
8.6797754837
  0
LWPOLYLINE
  5
5CB
100
AcDbEntity
  8
0
100
AcDbPolyline
 62
7
  6
CONTINUOUS
 90
12
 70
0
 10
14.2176716951
 20
8.6297237628
 10
14.2589473516
 20
8.6107579075
 10
14.3002230081
 20
8.5838291836
 10
14.3403332305
 20
8.5497249782
 10
14.3781461123
 20
8.5094391038
 10
14.4125958371
 20
8.4641432084
 10
14.4427133405
 20
8.4151530691
 10
14.4676541883
 20
8.3638907397
 10
14.486722869
 20
8.3118436408
 10
14.499392803
 20
8.2605217694
 10
14.5053214906
 20
8.2114142589
 10
14.504360366
 20
8.1659465397
  0
LWPOLYLINE
  5
5CC
100
AcDbEntity
  8
0
100
AcDbPolyline
 62
7
  6
CONTINUOUS
 90
12
 70
0
 10
14.2459558486
 20
8.6460535289
 10
14.2872315051
 20
8.6270876737
 10
14.3285071615
 20
8.6001589498
 10
14.368617384
 20
8.5660547444
 10
14.4064302658
 20
8.52576887
 10
14.4408799906
 20
8.4804729745
 10
14.470997494
 20
8.4314828352
 10
14.4959383418
 20
8.3802205058
 10
14.5150070225
 20
8.328173407
 10
14.5276769564
 20
8.2768515355
 10
14.5336056441
 20
8.227744025
 10
14.5326445194
 20
8.1822763059
  0
LINE
  5
5CD
100
AcDbEntity
  8
0
100
AcDbLine
 62
7
  6
CONTINUOUS
 10
14.2742400021
 20
8.6623832951
 11
14.3155156586
 21
8.6434174398
  0
LWPOLYLINE
  5
5CE
100
AcDbEntity
  8
0
100
AcDbPolyline
 62
7
  6
CONTINUOUS
 90
12
 70
0
 10
14.3025241556
 20
8.6787130612
 10
14.343799812
 20
8.659747206
 10
14.3850754685
 20
8.6328184821
 10
14.425185691
 20
8.5987142767
 10
14.4629985728
 20
8.5584284023
 10
14.4974482976
 20
8.5131325069
 10
14.527565801
 20
8.4641423675
 10
14.5525066487
 20
8.4128800382
 10
14.5715753295
 20
8.3608329393
 10
14.5842452634
 20
8.3095110678
 10
14.5901739511
 20
8.2604035574
 10
14.5892128264
 20
8.2149358382
  0
LINE
  5
5CF
100
AcDbEntity
  8
0
100
AcDbLine
 62
7
  6
CONTINUOUS
 10
14.2875101685
 20
8.6809689476
 11
14.3271828719
 21
8.6624010046
  0
LWPOLYLINE
  5
5D0
100
AcDbEntity
  8
0
100
AcDbPolyline
 62
7
  6
CONTINUOUS
 90
12
 70
0
 10
14.2665545863
 20
8.6338950152
 10
14.2836959859
 20
8.6250464529
 10
14.3249716424
 20
8.598117729
 10
14.3650818648
 20
8.5640135236
 10
14.4028947466
 20
8.5237276492
 10
14.4373444714
 20
8.4784317538
 10
14.4674619748
 20
8.4294416145
 10
14.4924028226
 20
8.3781792851
 10
14.5114715033
 20
8.3261321862
 10
14.5241414373
 20
8.2748103148
 10
14.5300701249
 20
8.2257028043
 10
14.5296419109
 20
8.1861194881
  0
LINE
  5
5D1
100
AcDbEntity
  8
0
100
AcDbLine
 62
7
  6
CONTINUOUS
 10
14.2948387398
 20
8.6502247814
 11
14.3119801394
 21
8.6413762191
  0
LWPOLYLINE
  5
5D2
100
AcDbEntity
  8
0
100
AcDbPolyline
 62
7
  6
CONTINUOUS
 90
12
 70
0
 10
14.3231228933
 20
8.6665545475
 10
14.3402642929
 20
8.6577059852
 10
14.3815399493
 20
8.6307772613
 10
14.4216501718
 20
8.5966730559
 10
14.4594630536
 20
8.5563871815
 10
14.4939127784
 20
8.5110912861
 10
14.5240302818
 20
8.4621011468
 10
14.5489711295
 20
8.4108388174
 10
14.5680398103
 20
8.3587917185
 10
14.5807097442
 20
8.3074698471
 10
14.5866384319
 20
8.2583623366
 10
14.5862102179
 20
8.2187790204
  0
LWPOLYLINE
  5
5D3
100
AcDbEntity
  8
0
100
AcDbPolyline
 62
7
  6
CONTINUOUS
 90
12
 70
0
 10
14.3514070468
 20
8.6828843137
 10
14.3685484463
 20
8.6740357514
 10
14.4098241028
 20
8.6471070275
 10
14.4499343253
 20
8.6130028221
 10
14.4877472071
 20
8.5727169477
 10
14.5221969319
 20
8.5274210522
 10
14.5523144353
 20
8.4784309129
 10
14.577255283
 20
8.4271685835
 10
14.5963239638
 20
8.3751214847
 10
14.6089938977
 20
8.3237996132
 10
14.6149225854
 20
8.2746921027
 10
14.6144943714
 20
8.2351087865
  0
LINE
  5
5D4
100
AcDbEntity
  8
0
100
AcDbLine
 62
7
  6
CONTINUOUS
 10
14.3003129261
 20
8.6468877268
 11
14.282245795
 21
8.6562222959
  0
LWPOLYLINE
  5
5D5
100
AcDbEntity
  8
0
100
AcDbPolyline
 62
7
  6
CONTINUOUS
 90
11
 70
0
 10
14.3340316527
 20
8.6896440214
 10
14.3764772329
 20
8.6660457191
 10
14.4180739018
 20
8.6350190915
 10
14.4575078068
 20
8.5977981514
 10
14.4947337913
 20
8.5544466709
 10
14.5283666415
 20
8.5063747354
 10
14.5570719769
 20
8.4555888101
 10
14.5802645034
 20
8.4034374802
 10
14.597753398
 20
8.3502618377
 10
14.608728305
 20
8.2981572348
 10
14.6128549064
 20
8.2492541295
  0
LWPOLYLINE
  5
5D6
100
AcDbEntity
  8
0
100
AcDbPolyline
 62
7
  6
CONTINUOUS
 90
11
 70
0
 10
14.2779492462
 20
8.6567598998
 10
14.3203943401
 20
8.633069795
 10
14.361970736
 20
8.6019666444
 10
14.4014176766
 20
8.5646360125
 10
14.4386546916
 20
8.5211552951
 10
14.4722539955
 20
8.4729906882
 10
14.5008907326
 20
8.4221594303
 10
14.5239070176
 20
8.3702323008
 10
14.5412528944
 20
8.3173513012
 10
14.5521696754
 20
8.2654325808
 10
14.5562865995
 20
8.2165945972
  0
LWPOLYLINE
  5
5D7
100
AcDbEntity
  8
0
100
AcDbPolyline
 62
7
  6
CONTINUOUS
 90
11
 70
0
 10
14.3271828719
 20
8.6624010046
 10
14.3668502888
 20
8.6367887902
 10
14.4055839011
 20
8.6047497758
 10
14.4426170286
 20
8.5668840184
 10
14.4772834088
 20
8.5236951008
 10
14.5082335968
 20
8.4767314948
 10
14.5343978509
 20
8.4278211572
 10
14.5554483398
 20
8.3779069962
 10
14.571072435
 20
8.3278503655
 10
14.5808245077
 20
8.2792120937
 10
14.5845707529
 20
8.2329243634
  0
LWPOLYLINE
  5
5D8
100
AcDbEntity
  8
0
100
AcDbPolyline
 62
9
  6
CONTINUOUS
 90
10
 70
0
 10
14.9381237196
 20
8.2917121266
 10
14.9340521134
 20
8.3577994951
 10
14.9219254329
 20
8.4271576511
 10
14.902006184
 20
8.4982852
 10
14.8747255583
 20
8.5696424452
 10
14.840674099
 20
8.6396847178
 10
14.8005889174
 20
8.7068958141
 10
14.7553377365
 20
8.7698208169
 10
14.7059001078
 20
8.8270975899
 10
14.6533462067
 20
8.8774862639
  0
LWPOLYLINE
  5
5D9
100
AcDbEntity
  8
AXIS
100
AcDbPolyline
 62
7
  6
CONTINUOUS
 90
5
 70
0
 10
14.887031769
 20
7.2738871893
 10
14.8868244592
 20
7.2698412762
 10
14.881762103
 20
7.2538921846
 10
14.870235747
 20
7.2391059951
 10
14.8529152608
 20
7.2263420273
  0
LWPOLYLINE
  5
5DA
100
AcDbEntity
  8
0
100
AcDbPolyline
 62
9
  6
CONTINUOUS
 90
8
 70
0
 10
14.9003662509
 20
8.0207030532
 10
14.927150601
 20
8.039259227
 10
14.955612957
 20
8.0676451485
 10
14.9794318084
 20
8.1021882822
 10
14.9982922672
 20
8.142431964
 10
15.0119449959
 20
8.1878441677
 10
15.0202095039
 20
8.2378245386
 10
15.0229765333
 20
8.2917123306
  0
LWPOLYLINE
  5
5DB
100
AcDbEntity
  8
AXIS_COSMETIC_THREADS
100
AcDbPolyline
 62
7
  6
CONTINUOUS
 90
28
 70
0
 10
15.1791753564
 20
8.1828278871
 10
15.1857309008
 20
8.1867840695
 10
15.2104024128
 20
8.2051477629
 10
15.2324432964
 20
8.2274526188
 10
15.2516760915
 20
8.2535190515
 10
15.2679459468
 20
8.2831371894
 10
15.2811218671
 20
8.3160685648
 10
15.2910977675
 20
8.3520480336
 10
15.297793328
 20
8.3907859102
 10
15.30115464
 20
8.4319703
 10
15.30115464
 20
8.4752696105
 10
15.297793328
 20
8.5203352212
 10
15.2910977675
 20
8.5668042903
 10
15.2811218671
 20
8.614302676
 10
15.2679459468
 20
8.6624479495
 10
15.2516760915
 20
8.7108524731
 10
15.2324432964
 20
8.7591265222
 10
15.2104024128
 20
8.8068814225
 10
15.1857309008
 20
8.8537326797
 10
15.1586274009
 20
8.8993030748
 10
15.1293101347
 20
8.943225702
 10
15.0980151474
 20
8.9851469221
 10
15.064994408
 20
9.02472921
 10
15.0305137799
 20
9.0616538724
 10
14.994850881
 20
9.0956236137
 10
14.958292848
 20
9.1263649294
 10
14.9211340246
 20
9.1536303087
 10
14.8836735918
 20
9.1772002266
  0
LINE
  5
5DC
100
AcDbEntity
  8
AXIS_COSMETIC_THREADS
100
AcDbLine
 62
7
  6
CONTINUOUS
 10
15.1791722688
 20
8.1828255206
 11
15.2389398678
 21
8.217332154
  0
LINE
  5
5DD
100
AcDbEntity
  8
0
100
AcDbLine
 62
7
  6
CONTINUOUS
 10
15.169065709
 20
8.1758358316
 11
14.9003662509
 21
8.0207030532
  0
LINE
  5
5DE
100
AcDbEntity
  8
0
100
AcDbLine
 62
7
  6
CONTINUOUS
 10
15.2389191559
 20
8.2173201961
 11
15.2388825646
 21
8.2172990777
  0
LWPOLYLINE
  5
5DF
100
AcDbEntity
  8
0
100
AcDbPolyline
 62
9
  6
CONTINUOUS
 90
3
 70
0
 10
14.9791343467
 20
8.0623674242
 10
14.9503548579
 20
8.0462052463
 10
14.9160637904
 20
8.0280281468
  0
LWPOLYLINE
  5
5E0
100
AcDbEntity
  8
0
100
AcDbPolyline
 62
9
  6
CONTINUOUS
 90
4
 70
0
 10
14.9160637904
 20
8.0280281468
 10
14.8769125973
 20
8.0088000551
 10
14.8340160874
 20
7.9899880748
 10
14.7888022633
 20
7.9733287829
  0
LWPOLYLINE
  5
5E1
100
AcDbEntity
  8
0
100
AcDbPolyline
 62
7
  6
CONTINUOUS
 90
3
 70
0
 10
14.0986000033
 20
8.6299696969
 10
14.1356266964
 20
8.6267116138
 10
14.1743735545
 20
8.615649883
  0
LINE
  5
5E2
100
AcDbEntity
  8
0
100
AcDbLine
 62
7
  6
CONTINUOUS
 10
14.0996851926
 20
8.5894628817
 11
14.1051208803
 21
8.5888384863
  0
LINE
  5
5E3
100
AcDbEntity
  8
0
100
AcDbLine
 62
7
  6
CONTINUOUS
 10
14.1894949948
 20
8.6370609579
 11
14.2176716951
 21
8.6297237628
  0
LINE
  5
5E4
100
AcDbEntity
  8
0
100
AcDbLine
 62
7
  6
CONTINUOUS
 10
14.2181690656
 20
8.6532891898
 11
14.2459558486
 21
8.6460535289
  0
LINE
  5
5E5
100
AcDbEntity
  8
0
100
AcDbLine
 62
7
  6
CONTINUOUS
 10
14.2419458974
 20
8.6707926597
 11
14.2742400021
 21
8.6623832951
  0
LINE
  5
5E6
100
AcDbEntity
  8
0
100
AcDbLine
 62
7
  6
CONTINUOUS
 10
14.2743876759
 20
8.6860397829
 11
14.3025241556
 21
8.6787130612
  0
LWPOLYLINE
  5
5E7
100
AcDbEntity
  8
0
100
AcDbPolyline
 62
7
  6
CONTINUOUS
 90
3
 70
0
 10
14.3388141019
 20
8.6888818282
 10
14.293815333
 20
8.705669011
 10
14.2542930732
 20
8.7121900008
  0
LWPOLYLINE
  5
5E8
100
AcDbEntity
  8
0
100
AcDbPolyline
 62
7
  6
CONTINUOUS
 90
3
 70
0
 10
14.3105299485
 20
8.672552062
 10
14.26558426
 20
8.6893250777
 10
14.226133789
 20
8.6958530306
  0
LWPOLYLINE
  5
5E9
100
AcDbEntity
  8
0
100
AcDbPolyline
 62
7
  6
CONTINUOUS
 90
3
 70
0
 10
14.3670982554
 20
8.7052115943
 10
14.3226193047
 20
8.721859443
 10
14.2831660885
 20
8.7284850015
  0
LWPOLYLINE
  5
5EA
100
AcDbEntity
  8
0
100
AcDbPolyline
 62
7
  6
CONTINUOUS
 90
4
 70
0
 10
14.3953824089
 20
8.7215413605
 10
14.3737768366
 20
8.7307747344
 10
14.3350299785
 20
8.7418364652
 10
14.2980032854
 20
8.7450945483
  0
LWPOLYLINE
  5
5EB
100
AcDbEntity
  8
0
100
AcDbPolyline
 62
7
  6
CONTINUOUS
 90
12
 70
0
 10
14.330808309
 20
8.6950428274
 10
14.3720839655
 20
8.6760769721
 10
14.413359622
 20
8.6491482483
 10
14.4534698445
 20
8.6150440428
 10
14.4912827262
 20
8.5747581684
 10
14.5257324511
 20
8.529462273
 10
14.5558499545
 20
8.4804721337
 10
14.5807908022
 20
8.4292098043
 10
14.599859483
 20
8.3771627054
 10
14.6125294169
 20
8.325840834
 10
14.6184581046
 20
8.2767333235
 10
14.6174969799
 20
8.2312656043
  0
LWPOLYLINE
  5
5EC
100
AcDbEntity
  8
0
100
AcDbPolyline
 62
7
  6
CONTINUOUS
 90
12
 70
0
 10
14.3590924625
 20
8.7113725935
 10
14.400368119
 20
8.6924067383
 10
14.4416437755
 20
8.6654780144
 10
14.4817539979
 20
8.631373809
 10
14.5195668797
 20
8.5910879346
 10
14.5540166045
 20
8.5457920392
 10
14.584134108
 20
8.4968018999
 10
14.6090749557
 20
8.4455395705
 10
14.6281436365
 20
8.3934924716
 10
14.6408135704
 20
8.3421706001
 10
14.6467422581
 20
8.2930630897
 10
14.6457811334
 20
8.2475953705
  0
LINE
  5
5ED
100
AcDbEntity
  8
0
100
AcDbLine
 62
7
  6
CONTINUOUS
 10
14.387376616
 20
8.7277023597
 11
14.4286522725
 21
8.7087365044
  0
LWPOLYLINE
  5
5EE
100
AcDbEntity
  8
0
100
AcDbPolyline
 62
7
  6
CONTINUOUS
 90
12
 70
0
 10
14.4362595073
 20
8.7318736121
 10
14.4503725072
 20
8.7246877153
 10
14.4916069471
 20
8.6983759653
 10
14.5317668547
 20
8.6648506907
 10
14.5697233096
 20
8.6250851802
 10
14.6044105309
 20
8.5802315365
 10
14.634856418
 20
8.5315876626
 10
14.6602104054
 20
8.4805600708
 10
14.6797678363
 20
8.4286235788
 10
14.6929901541
 20
8.3772790488
 10
14.6995203349
 20
8.3280103802
 10
14.6993468318
 20
8.284098085
  0
LWPOLYLINE
  5
5EF
100
AcDbEntity
  8
0
100
AcDbPolyline
 62
7
  6
CONTINUOUS
 90
12
 70
0
 10
14.3796912003
 20
8.6992140798
 10
14.3968325998
 20
8.6903655175
 10
14.4381082563
 20
8.6634367937
 10
14.4782184788
 20
8.6293325882
 10
14.5160313605
 20
8.5890467138
 10
14.5504810854
 20
8.5437508184
 10
14.5805985888
 20
8.4947606791
 10
14.6055394365
 20
8.4434983497
 10
14.6246081173
 20
8.3914512508
 10
14.6372780512
 20
8.3401293794
 10
14.6432067389
 20
8.2910218689
 10
14.6427785249
 20
8.2514385527
  0
LINE
  5
5F0
100
AcDbEntity
  8
0
100
AcDbLine
 62
7
  6
CONTINUOUS
 10
14.4079753538
 20
8.715543846
 11
14.4251167533
 21
8.7066952837
  0
LINE
  5
5F1
100
AcDbEntity
  8
0
100
AcDbLine
 62
7
  6
CONTINUOUS
 10
14.41344954
 20
8.7122067914
 11
14.3953824089
 21
8.7215413605
  0
LWPOLYLINE
  5
5F2
100
AcDbEntity
  8
0
100
AcDbPolyline
 62
7
  6
CONTINUOUS
 90
11
 70
0
 10
14.3624358302
 20
8.7059184098
 10
14.4050564821
 20
8.6821832687
 10
14.4468095183
 20
8.6509675121
 10
14.4863349197
 20
8.6135571181
 10
14.5232568273
 20
8.5704681262
 10
14.5563464919
 20
8.5231871045
 10
14.5849411527
 20
8.4727409191
 10
14.6082937067
 20
8.420424871
 10
14.6259187461
 20
8.3670301662
 10
14.6369811403
 20
8.3146972653
 10
14.6411390599
 20
8.2655838957
  0
LWPOLYLINE
  5
5F3
100
AcDbEntity
  8
0
100
AcDbPolyline
 62
7
  6
CONTINUOUS
 90
11
 70
0
 10
14.3910858601
 20
8.7220789645
 10
14.433530954
 20
8.6983888597
 10
14.4751073499
 20
8.6672857091
 10
14.5145542906
 20
8.6299550772
 10
14.5517913055
 20
8.5864743598
 10
14.5853906094
 20
8.5383097529
 10
14.6140273465
 20
8.4874784949
 10
14.6370436315
 20
8.4355513654
 10
14.6543895083
 20
8.3826703658
 10
14.6653062894
 20
8.3307516455
 10
14.6694232134
 20
8.2819136619
  0
LWPOLYLINE
  5
5F4
100
AcDbEntity
  8
0
100
AcDbPolyline
 62
7
  6
CONTINUOUS
 90
11
 70
0
 10
14.4403194858
 20
8.7277200692
 10
14.4799869028
 20
8.7021078549
 10
14.518720515
 20
8.6700688404
 10
14.5557536426
 20
8.632203083
 10
14.5904200227
 20
8.5890141655
 10
14.6213702107
 20
8.5420505594
 10
14.6475344649
 20
8.4931402218
 10
14.6685849538
 20
8.4432260608
 10
14.684209049
 20
8.3931694301
 10
14.6939611216
 20
8.3445311583
 10
14.6977073669
 20
8.298243428
  0
LWPOLYLINE
  5
5F5
100
AcDbEntity
  8
0
100
AcDbPolyline
 62
7
  6
CONTINUOUS
 90
11
 70
0
 10
14.4286522725
 20
8.7087365044
 10
14.4696466156
 20
8.682018586
 10
14.5094993005
 20
8.6482172777
 10
14.5471010632
 20
8.6083041162
 10
14.5814065089
 20
8.5634240599
 10
14.6114637743
 20
8.5148630007
 10
14.636441537
 20
8.4640112778
 10
14.6556526034
 20
8.4123242273
 10
14.6685734079
 20
8.361280887
 10
14.6748588687
 20
8.3123420301
 10
14.6743521797
 20
8.2669087156
  0
LWPOLYLINE
  5
5F6
100
AcDbEntity
  8
0
100
AcDbPolyline
 62
7
  6
CONTINUOUS
 90
11
 70
0
 10
14.4251167533
 20
8.7066952837
 10
14.4663117125
 20
8.6798270703
 10
14.5063480916
 20
8.6458098451
 10
14.5441005098
 20
8.6056309934
 10
14.578509033
 20
8.5604544624
 10
14.6086095465
 20
8.5115874074
 10
14.6335613817
 20
8.4604427359
 10
14.6526714054
 20
8.4084986206
 10
14.6654138814
 20
8.3572561419
 10
14.6714455358
 20
8.3081962753
 10
14.6710626784
 20
8.2677683188
  0
LWPOLYLINE
  5
5F7
100
AcDbEntity
  8
0
100
AcDbPolyline
 62
7
  6
CONTINUOUS
 90
13
 70
0
 10
14.6039383123
 20
8.7187208615
 10
14.6404596112
 20
8.6792957154
 10
14.6739037685
 20
8.6352499318
 10
14.7036696294
 20
8.5873152858
 10
14.728637954
 20
8.5372798463
 10
14.7481782827
 20
8.4866716416
 10
14.7620419416
 20
8.4363939933
 10
14.7699196154
 20
8.3876825773
 10
14.7716382671
 20
8.3416254808
 10
14.7670849434
 20
8.2991637224
 10
14.7562336899
 20
8.261468925
 10
14.7391461393
 20
8.2295480907
 10
14.731542631
 20
8.2212086114
  0
LWPOLYLINE
  5
5F8
100
AcDbEntity
  8
0
100
AcDbPolyline
 62
9
  6
CONTINUOUS
 90
18
 70
0
 10
15.0229765333
 20
8.2917123306
 10
15.0186997476
 20
8.3631000968
 10
15.0059567794
 20
8.4379674688
 10
14.9850080098
 20
8.5147846576
 10
14.9562814918
 20
8.5919820329
 10
14.9203642036
 20
8.6679821959
 10
14.8779900546
 20
8.7412322107
 10
14.8300248896
 20
8.8102353363
 10
14.777448796
 20
8.8735816097
 10
14.7213360783
 20
8.929976656
 10
14.6628333055
 20
8.9782681371
 10
14.6031358837
 20
9.0174692977
 10
14.5434636294
 20
9.0467791278
 10
14.4850358451
 20
9.0655987303
 10
14.4290464044
 20
9.0735435581
 10
14.3766393576
 20
9.0704512721
 10
14.3288855547
 20
9.0563850578
 10
14.3083689012
 20
9.0460786614
  0
LINE
  5
5F9
100
AcDbEntity
  8
0
100
AcDbLine
 62
7
  6
CONTINUOUS
 10
15.0605369778
 20
7.8465237667
 11
15.0605369778
 21
7.8332383767
  0
LINE
  5
5FA
100
AcDbEntity
  8
0
100
AcDbLine
 62
7
  6
CONTINUOUS
 10
15.0655369778
 20
7.8740634976
 11
15.0655369778
 21
8.1160638476
  0
LWPOLYLINE
  5
5FB
100
AcDbEntity
  8
0
100
AcDbPolyline
 62
9
  6
CONTINUOUS
 90
3
 70
0
 10
15.010189613
 20
8.0841092223
 10
14.9977852428
 20
8.0742893129
 10
14.9791343467
 20
8.0623674242
  0
LWPOLYLINE
  5
5FC
100
AcDbEntity
  8
0
100
AcDbPolyline
 62
9
  6
CONTINUOUS
 90
4
 70
0
 10
15.2628319471
 20
8.2340173209
 10
15.252706451
 20
8.2262107128
 10
15.24226346
 20
8.2193040708
 10
15.2389191559
 20
8.2173201961
  0
LWPOLYLINE
  5
5FD
100
AcDbEntity
  8
0
100
AcDbPolyline
 62
7
  6
CONTINUOUS
 90
18
 70
0
 10
15.2388826493
 20
8.2172991331
 10
15.2629869094
 20
8.2335647625
 10
15.2988120727
 20
8.2682232843
 10
15.329626957
 20
8.3132112734
 10
15.3534595604
 20
8.3672780984
 10
15.3690161911
 20
8.4289510671
 10
15.3755366626
 20
8.4967291927
 10
15.3728419597
 20
8.5687062531
 10
15.3614741333
 20
8.6432845228
 10
15.3419368409
 20
8.7189905077
 10
15.3147580081
 20
8.7945750403
 10
15.2805178035
 20
8.8687647039
 10
15.239870622
 20
8.9402638029
 10
15.1935428938
 20
9.0077918308
 10
15.1423404826
 20
9.0700883285
 10
15.0871243942
 20
9.1259542312
 10
15.0287783058
 20
9.1742746305
 10
14.9702401223
 20
9.2128321636
  0
LWPOLYLINE
  5
5FE
100
AcDbEntity
  8
0
100
AcDbPolyline
 62
7
  6
CONTINUOUS
 90
10
 70
0
 10
14.0056665426
 20
8.5397262641
 10
14.0365622939
 20
8.5468692144
 10
14.0707452764
 20
8.5455398417
 10
14.1071768574
 20
8.5357785384
 10
14.1447500819
 20
8.5178818969
 10
14.1823233063
 20
8.4923936974
 10
14.2187548873
 20
8.4600883861
 10
14.2529378698
 20
8.4219475435
 10
14.2838336211
 20
8.3791300597
 10
14.3105033894
 20
8.3329369224
  0
LINE
  5
5FF
100
AcDbEntity
  8
0
100
AcDbLine
 62
7
  6
CONTINUOUS
 10
14.0444615102
 20
8.5973408849
 11
14.0075059305
 21
8.5925294747
  0
LWPOLYLINE
  5
600
100
AcDbEntity
  8
0
100
AcDbPolyline
 62
7
  6
CONTINUOUS
 90
5
 70
0
 10
14.0112504319
 20
8.5939492698
 10
14.048251303
 20
8.5981521324
 10
14.0883206095
 20
8.5932236763
 10
14.1303494196
 20
8.5793154034
 10
14.1408250275
 20
8.5745734651
  0
LINE
  5
601
100
AcDbEntity
  8
0
100
AcDbLine
 62
7
  6
CONTINUOUS
 10
14.1129971751
 20
8.630533966
 11
14.0757538413
 21
8.6283365014
  0
LWPOLYLINE
  5
602
100
AcDbEntity
  8
0
100
AcDbPolyline
 62
7
  6
CONTINUOUS
 90
4
 70
0
 10
14.0465103752
 20
8.6112744992
 10
14.0837628064
 20
8.6133601501
 10
14.1232160226
 20
8.6067345916
 10
14.1648126322
 20
8.5914408352
  0
LWPOLYLINE
  5
603
100
AcDbEntity
  8
0
100
AcDbPolyline
 62
7
  6
CONTINUOUS
 90
3
 70
0
 10
14.2117366173
 20
8.6952887615
 10
14.2487633103
 20
8.6920306784
 10
14.2875101685
 20
8.6809689476
  0
LINE
  5
604
100
AcDbEntity
  8
0
100
AcDbLine
 62
7
  6
CONTINUOUS
 10
14.3026316087
 20
8.7023800225
 11
14.330808309
 21
8.6950428274
  0
LINE
  5
605
100
AcDbEntity
  8
0
100
AcDbLine
 62
7
  6
CONTINUOUS
 10
14.3313056796
 20
8.7186082544
 11
14.3590924625
 21
8.7113725935
  0
LINE
  5
606
100
AcDbEntity
  8
0
100
AcDbLine
 62
7
  6
CONTINUOUS
 10
14.3550825113
 20
8.7361117244
 11
14.387376616
 21
8.7277023597
  0
LINE
  5
607
100
AcDbEntity
  8
0
100
AcDbLine
 62
7
  6
CONTINUOUS
 10
14.4235827199
 20
8.7666981226
 11
14.4641331366
 21
8.7520874276
  0
LWPOLYLINE
  5
608
100
AcDbEntity
  8
0
100
AcDbPolyline
 62
7
  6
CONTINUOUS
 90
3
 70
0
 10
14.4519507159
 20
8.7542008928
 10
14.406951947
 20
8.7709880756
 10
14.3674296871
 20
8.7775090655
  0
LWPOLYLINE
  5
609
100
AcDbEntity
  8
0
100
AcDbPolyline
 62
7
  6
CONTINUOUS
 90
3
 70
0
 10
14.4236665624
 20
8.7378711266
 10
14.3787208739
 20
8.7546441423
 10
14.339270403
 20
8.7611720952
  0
LWPOLYLINE
  5
60A
100
AcDbEntity
  8
0
100
AcDbPolyline
 62
7
  6
CONTINUOUS
 90
12
 70
0
 10
14.4055732344
 20
8.7474292779
 10
14.4463830278
 20
8.7306758803
 10
14.4874867486
 20
8.7059061865
 10
14.5277396352
 20
8.6738354643
 10
14.5660210677
 20
8.6353861457
 10
14.6012663661
 20
8.5916616528
 10
14.6324969992
 20
8.543915089
 10
14.6588483505
 20
8.4935136826
 10
14.6795942515
 20
8.4418999918
 10
14.6941675862
 20
8.3905509732
 10
14.7021763828
 20
8.3409360733
 10
14.7034149361
 20
8.2944755336
  0
LINE
  5
60B
100
AcDbEntity
  8
0
100
AcDbLine
 62
7
  6
CONTINUOUS
 10
14.4006467825
 20
8.7462880122
 11
14.4403194858
 21
8.7277200692
  0
LWPOLYLINE
  5
60C
100
AcDbEntity
  8
0
100
AcDbPolyline
 62
7
  6
CONTINUOUS
 90
13
 70
0
 10
14.4928278142
 20
8.7645331444
 10
14.5008858434
 20
8.7605438436
 10
14.542180568
 20
8.7353572762
 10
14.5825693389
 20
8.7028314966
 10
14.6209166774
 20
8.6639111529
 10
14.6561456019
 20
8.6197241294
 10
14.6872684894
 20
8.5715492274
 10
14.7134153749
 20
8.5207795206
 10
14.733858881
 20
8.468882437
 10
14.7480350607
 20
8.4173577095
 10
14.7555595572
 20
8.3676944012
 10
14.7562386177
 20
8.3213282363
 10
14.7559151388
 20
8.3167576173
  0
LWPOLYLINE
  5
60D
100
AcDbEntity
  8
0
100
AcDbPolyline
 62
7
  6
CONTINUOUS
 90
12
 70
0
 10
14.4645436607
 20
8.7482033783
 10
14.4756287182
 20
8.74263732
 10
14.5168964149
 20
8.7168861474
 10
14.5571737925
 20
8.6838580468
 10
14.5953285643
 20
8.6445120605
 10
14.6302892668
 20
8.5999882695
 10
14.6610759626
 20
8.5515751251
 10
14.6868283206
 20
8.5006725279
 10
14.7068302684
 20
8.448751714
 10
14.7205305119
 20
8.3973130961
 10
14.7275583323
 20
8.34784327
 10
14.7276309853
 20
8.3004278512
  0
LWPOLYLINE
  5
60E
100
AcDbEntity
  8
0
100
AcDbPolyline
 62
7
  6
CONTINUOUS
 90
11
 70
0
 10
14.4819219162
 20
8.7729614421
 10
14.5230182005
 20
8.7522257591
 10
14.5638495206
 20
8.7237950734
 10
14.6032788443
 20
8.6884885323
 10
14.64020892
 20
8.6473203829
 10
14.673613412
 20
8.6014711932
 10
14.7025660211
 20
8.5522543541
 10
14.7262667692
 20
8.5010788123
 10
14.7440646974
 20
8.449409092
 10
14.7554763375
 20
8.3987237394
 10
14.7601994298
 20
8.3504733699
  0
LINE
  5
60F
100
AcDbEntity
  8
0
100
AcDbLine
 62
7
  6
CONTINUOUS
 10
14.5085190229
 20
8.7868604251
 11
14.526586154
 21
8.777525856
  0
LINE
  5
610
100
AcDbEntity
  8
0
100
AcDbLine
 62
7
  6
CONTINUOUS
 10
14.5088636612
 20
8.7866969085
 11
14.526586154
 21
8.777525856
  0
LWPOLYLINE
  5
611
100
AcDbEntity
  8
0
100
AcDbPolyline
 62
7
  6
CONTINUOUS
 90
11
 70
0
 10
14.4641331366
 20
8.7520874276
 10
14.505270859
 20
8.7293130549
 10
14.5458501606
 20
8.6990336559
 10
14.5847411597
 20
8.6621208342
 10
14.62086188
 20
8.6196344147
 10
14.6532089505
 20
8.5727923707
 10
14.6808860763
 20
8.5229362651
 10
14.7031294705
 20
8.4714931835
 10
14.7193295261
 20
8.4199352414
 10
14.729048114
 20
8.3697378135
 10
14.732031014
 20
8.3223376704
  0
LWPOLYLINE
  5
612
100
AcDbEntity
  8
0
100
AcDbPolyline
 62
7
  6
CONTINUOUS
 90
11
 70
0
 10
14.4471682666
 20
8.754963086
 10
14.4896138469
 20
8.7313647837
 10
14.5312105158
 20
8.7003381561
 10
14.5706444208
 20
8.6631172161
 10
14.6078704052
 20
8.6197657355
 10
14.6415032555
 20
8.5716938
 10
14.6702085909
 20
8.5209078748
 10
14.6934011173
 20
8.4687565448
 10
14.7108900119
 20
8.4155809024
 10
14.721864919
 20
8.3634762994
 10
14.7259915204
 20
8.3145731942
  0
LWPOLYLINE
  5
613
100
AcDbEntity
  8
0
100
AcDbPolyline
 62
7
  6
CONTINUOUS
 90
11
 70
0
 10
14.4755724441
 20
8.7712374744
 10
14.5181930961
 20
8.7475023333
 10
14.5599461322
 20
8.7162865767
 10
14.5994715336
 20
8.6788761827
 10
14.6363934412
 20
8.6357871909
 10
14.6694831059
 20
8.5885061691
 10
14.6980777666
 20
8.5380599837
 10
14.7214303206
 20
8.4857439356
 10
14.7390553601
 20
8.4323492308
 10
14.7501177543
 20
8.38001633
 10
14.7542756739
 20
8.3309029603
  0
LINE
  5
614
100
AcDbEntity
  8
0
100
AcDbLine
 62
7
  6
CONTINUOUS
 10
14.5624048132
 20
8.7528738921
 11
14.5198448899
 21
8.7796130375
  0
LWPOLYLINE
  5
615
100
AcDbEntity
  8
0
100
AcDbPolyline
 62
7
  6
CONTINUOUS
 90
3
 70
0
 10
14.526586154
 20
8.777525856
 10
14.5657442251
 20
8.7513598798
 10
14.6039383123
 20
8.7187208615
  0
LINE
  5
616
100
AcDbEntity
  8
0
100
AcDbLine
 62
7
  6
CONTINUOUS
 10
14.6039383123
 20
8.7187208615
 11
14.5624048132
 21
8.7528738921
  0
LWPOLYLINE
  5
617
100
AcDbEntity
  8
0
100
AcDbPolyline
 62
7
  6
CONTINUOUS
 90
5
 70
0
 10
14.014593284
 20
8.5774952581
 10
13.9881761096
 20
8.5709377473
 10
13.961829663
 20
8.5570308884
 10
13.9382802605
 20
8.5349849327
 10
13.919472487
 20
8.5050524116
  0
LINE
  5
618
100
AcDbEntity
  8
0
100
AcDbLine
 62
7
  6
CONTINUOUS
 10
14.0717300575
 20
8.6144564191
 11
14.0370637304
 21
8.6096378969
  0
LINE
  5
619
100
AcDbEntity
  8
0
100
AcDbLine
 62
7
  6
CONTINUOUS
 10
14.0639336762
 20
8.6251511748
 11
14.0986000033
 21
8.6299696969
  0
LINE
  5
61A
100
AcDbEntity
  8
0
100
AcDbLine
 62
7
  6
CONTINUOUS
 10
14.1848666715
 20
8.6797754837
 11
14.1502003443
 21
8.6749569616
  0
LINE
  5
61B
100
AcDbEntity
  8
0
100
AcDbLine
 62
7
  6
CONTINUOUS
 10
14.1770702901
 20
8.6904702394
 11
14.2117366173
 21
8.6952887615
  0
LINE
  5
61C
100
AcDbEntity
  8
0
100
AcDbLine
 62
7
  6
CONTINUOUS
 10
14.226133789
 20
8.6958530306
 11
14.1888904553
 21
8.693655566
  0
LINE
  5
61D
100
AcDbEntity
  8
0
100
AcDbLine
 62
7
  6
CONTINUOUS
 10
14.1411564592
 20
8.6468709362
 11
14.104243797
 21
8.6447045784
  0
LINE
  5
61E
100
AcDbEntity
  8
0
100
AcDbLine
 62
7
  6
CONTINUOUS
 10
14.2542930732
 20
8.7121900008
 11
14.2173804109
 21
8.710023643
  0
LINE
  5
61F
100
AcDbEntity
  8
0
100
AcDbLine
 62
7
  6
CONTINUOUS
 10
14.1700294746
 20
8.6631659369
 11
14.1327770434
 21
8.661080286
  0
LWPOLYLINE
  5
620
100
AcDbEntity
  8
0
100
AcDbPolyline
 62
7
  6
CONTINUOUS
 90
4
 70
0
 10
14.1596469892
 20
8.6765935638
 10
14.1968994204
 20
8.6786792147
 10
14.2363526365
 20
8.6720536562
 10
14.2779492462
 20
8.6567598998
  0
LINE
  5
621
100
AcDbEntity
  8
0
100
AcDbLine
 62
7
  6
CONTINUOUS
 10
14.2831660885
 20
8.7284850015
 11
14.2459136573
 21
8.7263993506
  0
LWPOLYLINE
  5
622
100
AcDbEntity
  8
0
100
AcDbPolyline
 62
7
  6
CONTINUOUS
 90
3
 70
0
 10
14.3248732312
 20
8.7606078262
 10
14.3618999243
 20
8.757349743
 10
14.4006467825
 20
8.7462880122
  0
LINE
  5
623
100
AcDbEntity
  8
0
100
AcDbLine
 62
7
  6
CONTINUOUS
 10
14.4148031273
 20
8.7680591244
 11
14.4235827199
 21
8.7666981226
  0
LINE
  5
624
100
AcDbEntity
  8
0
100
AcDbLine
 62
7
  6
CONTINUOUS
 10
14.3884322634
 20
8.7510200063
 11
14.4055732344
 21
8.7474292779
  0
LINE
  5
625
100
AcDbEntity
  8
0
100
AcDbLine
 62
7
  6
CONTINUOUS
 10
14.4417052186
 20
8.7854013183
 11
14.4819219162
 21
8.7729614421
  0
LWPOLYLINE
  5
626
100
AcDbEntity
  8
0
100
AcDbPolyline
 62
7
  6
CONTINUOUS
 90
4
 70
0
 10
14.4802348694
 20
8.770530659
 10
14.4357559186
 20
8.7871785076
 10
14.3963027025
 20
8.7938040661
 10
14.3590502713
 20
8.7917184152
  0
LWPOLYLINE
  5
627
100
AcDbEntity
  8
0
100
AcDbPolyline
 62
7
  6
CONTINUOUS
 90
4
 70
0
 10
14.5198448899
 20
8.7796130375
 10
14.4774309161
 20
8.7981754274
 10
14.4363303713
 20
8.8080285827
 10
14.3976723978
 20
8.8088844774
  0
LINE
  5
628
100
AcDbEntity
  8
0
100
AcDbLine
 62
7
  6
CONTINUOUS
 10
14.508863708
 20
8.7866962635
 11
14.5085190229
 21
8.7868604251
  0
LWPOLYLINE
  5
629
100
AcDbEntity
  8
0
100
AcDbPolyline
 62
9
  6
CONTINUOUS
 90
5
 70
0
 10
14.5531025479
 20
8.7803833499
 10
14.5134406815
 20
8.7994636851
 10
14.4749908787
 20
8.8103604684
 10
14.4387848307
 20
8.8128512733
 10
14.4189480081
 20
8.8092949798
  0
LWPOLYLINE
  5
62A
100
AcDbEntity
  8
0
100
AcDbPolyline
 62
9
  6
CONTINUOUS
 90
7
 70
0
 10
14.5619413458
 20
8.7956926821
 10
14.5208245699
 20
8.8154738701
 10
14.4809545292
 20
8.8267746119
 10
14.4434108938
 20
8.8293589667
 10
14.4091578477
 20
8.8232194745
 10
14.3790688066
 20
8.8085426593
 10
14.3742864944
 20
8.8041986039
  0
LINE
  5
62B
100
AcDbEntity
  8
0
100
AcDbLine
 62
9
  6
CONTINUOUS
 10
14.6533462067
 20
8.8774862639
 11
14.5988136663
 21
8.9198960764
  0
LWPOLYLINE
  5
62C
100
AcDbEntity
  8
0
100
AcDbPolyline
 62
7
  6
CONTINUOUS
 90
3
 70
0
 10
15.0554854144
 20
7.8299831853
 10
15.0644145208
 20
7.8592201957
 10
15.0655305784
 20
7.8740634958
  0
LWPOLYLINE
  5
62D
100
AcDbEntity
  8
0
100
AcDbPolyline
 62
7
  6
CONTINUOUS
 90
5
 70
0
 10
15.0352706826
 20
7.7648871641
 10
15.04225282
 20
7.7747285273
 10
15.0539098256
 20
7.7976494248
 10
15.0597981772
 20
7.8212948108
 10
15.0605369778
 20
7.8332383767
  0
LWPOLYLINE
  5
62E
100
AcDbEntity
  8
0
100
AcDbPolyline
 62
7
  6
CONTINUOUS
 90
4
 70
0
 10
14.9791343467
 20
7.753632475
 10
15.0121875353
 20
7.7763748946
 10
15.037898294
 20
7.8020855329
 10
15.0554854144
 20
7.8299831853
  0
LINE
  5
62F
100
AcDbEntity
  8
0
100
AcDbLine
 62
7
  6
CONTINUOUS
 10
14.2980032854
 20
8.7450945483
 11
14.2633369583
 21
8.7402760262
  0
LINE
  5
630
100
AcDbEntity
  8
0
100
AcDbLine
 62
7
  6
CONTINUOUS
 10
14.2902069041
 20
8.755789304
 11
14.3248732312
 21
8.7606078262
  0
LINE
  5
631
100
AcDbEntity
  8
0
100
AcDbLine
 62
7
  6
CONTINUOUS
 10
14.339270403
 20
8.7611720952
 11
14.3020270692
 21
8.7589746306
  0
LINE
  5
632
100
AcDbEntity
  8
0
100
AcDbLine
 62
7
  6
CONTINUOUS
 10
14.3674296871
 20
8.7775090655
 11
14.3305170249
 21
8.7753427077
  0
LWPOLYLINE
  5
633
100
AcDbEntity
  8
0
100
AcDbPolyline
 62
7
  6
CONTINUOUS
 90
4
 70
0
 10
14.2727836031
 20
8.7419126285
 10
14.3100360343
 20
8.7439982794
 10
14.3494892505
 20
8.7373727208
 10
14.3910858601
 20
8.7220789645
  0
LINE
  5
634
100
AcDbEntity
  8
0
100
AcDbLine
 62
7
  6
CONTINUOUS
 10
14.4400729452
 20
8.785562705
 11
14.4417052186
 21
8.7854013183
  0
LWPOLYLINE
  5
635
100
AcDbEntity
  8
0
100
AcDbPolyline
 62
9
  6
CONTINUOUS
 90
13
 70
0
 10
14.5988136663
 20
8.9198960764
 10
14.5434829516
 20
8.9534089829
 10
14.4885518054
 20
8.9772995302
 10
14.4352093211
 20
8.9910505601
 10
14.3846102024
 20
8.9943644043
 10
14.3378497674
 20
8.9871693282
 10
14.2959402384
 20
8.9696210834
 10
14.25978883
 20
8.9420995364
 10
14.2301781111
 20
8.9052004456
 10
14.2077490644
 20
8.8597225649
 10
14.1929872109
 20
8.806650353
 10
14.1862121002
 20
8.747132663
 10
14.1871978761
 20
8.7001951788
  0
LINE
  5
636
100
AcDbEntity
  8
0
100
AcDbLine
 62
7
  6
CONTINUOUS
 10
15.0352706826
 20
7.7648871641
 11
15.0089182558
 21
7.7308659383
  0
LWPOLYLINE
  5
637
100
AcDbEntity
  8
0
100
AcDbPolyline
 62
7
  6
CONTINUOUS
 90
4
 70
0
 10
14.9551862986
 20
7.6858083325
 10
14.9806442423
 20
7.7028877931
 10
15.0014087369
 20
7.7219671046
 10
15.0089137532
 20
7.7308643245
  0
LWPOLYLINE
  5
638
100
AcDbEntity
  8
0
100
AcDbPolyline
 62
7
  6
CONTINUOUS
 90
4
 70
0
 10
14.9755987981
 20
7.7148485579
 10
15.0026946612
 20
7.7329023638
 10
15.0250644634
 20
7.7529987215
 10
15.0352706826
 20
7.7648871641
  0
LWPOLYLINE
  5
639
100
AcDbEntity
  8
0
100
AcDbPolyline
 62
7
  6
CONTINUOUS
 90
15
 70
0
 10
14.9755987981
 20
7.7148485579
 10
14.9443284677
 20
7.6992048274
 10
14.9095202436
 20
7.6862896333
 10
14.8718827211
 20
7.676365892
 10
14.8321820916
 20
7.669635622
 10
14.7912265452
 20
7.6662358324
 10
14.749849819
 20
7.6662357329
 10
14.7088942236
 20
7.6696353257
 10
14.669193497
 20
7.6763654048
 10
14.6315558314
 20
7.6862889652
 10
14.5967474211
 20
7.6992039919
 10
14.565476865
 20
7.7148475721
 10
14.5383807415
 20
7.7329012477
 10
14.5160106495
 20
7.7529974979
 10
14.505803273
 20
7.7648871641
  0
LWPOLYLINE
  5
63A
100
AcDbEntity
  8
0
100
AcDbPolyline
 62
7
  6
CONTINUOUS
 90
14
 70
0
 10
14.9551862986
 20
7.6858083325
 10
14.9256035942
 20
7.6711102498
 10
14.8925569578
 20
7.6591218758
 10
14.8567845967
 20
7.6501110109
 10
14.8190856063
 20
7.644278943
 10
14.7803021198
 20
7.6417559509
 10
14.7413004961
 20
7.6425983941
 10
14.7029519671
 20
7.6467874537
 10
14.6661131756
 20
7.6542295531
 10
14.6316070393
 20
7.664758448
 10
14.6002043682
 20
7.6781389404
 10
14.5726066462
 20
7.6940721322
 10
14.5494303607
 20
7.7122021022
 10
14.5321528567
 20
7.7308698355
  0
LINE
  5
63B
100
AcDbEntity
  8
0
100
AcDbLine
 62
7
  6
CONTINUOUS
 10
14.3976723978
 20
8.8088844774
 11
14.3625180339
 21
8.8007064153
  0
LWPOLYLINE
  5
63C
100
AcDbEntity
  8
AXIS
100
AcDbPolyline
 62
7
  6
CONTINUOUS
 90
11
 70
0
 10
14.8529152608
 20
7.2263420273
 10
14.8308072482
 20
7.2163420767
 10
14.8051965467
 20
7.2096873039
 10
14.7775715569
 20
7.2067644602
 10
14.749537743
 20
7.2077434107
 10
14.7227243283
 20
7.2125672622
 10
14.698689611
 20
7.2209556702
 10
14.6788304014
 20
7.2324211308
 10
14.6643008448
 20
7.2462973131
 10
14.6559453461
 20
7.2617777838
 10
14.6540421866
 20
7.2739169612
  0
LWPOLYLINE
  5
63D
100
AcDbEntity
  8
0
100
AcDbPolyline
 62
7
  6
CONTINUOUS
 90
8
 70
0
 10
14.9702424469
 20
9.2128308202
 10
14.917425799
 20
9.2395061991
 10
14.862359161
 20
9.2591275011
 10
14.8085139184
 20
9.2698744458
 10
14.75737471
 20
9.2716546907
 10
14.7096494996
 20
9.2648537747
 10
14.6658811696
 20
9.2499600061
 10
14.6446180561
 20
9.2390562779
  0
LWPOLYLINE
  5
63E
100
AcDbEntity
  8
0
100
AcDbPolyline
 62
9
  6
CONTINUOUS
 90
57
 70
0
 10
14.9402418987
 20
9.2098597589
 10
14.9571712466
 20
9.199689698
 10
14.9740728005
 20
9.1887440969
 10
14.9909188121
 20
9.1770409257
 10
15.0076816243
 20
9.1645993982
 10
15.0243337165
 20
9.1514399404
 10
15.04084775
 20
9.1375841571
 10
15.0571966126
 20
9.1230547961
 10
15.0733534634
 20
9.1078757112
 10
15.0892917768
 20
9.0920718228
 10
15.1049853857
 20
9.0756690772
 10
15.1204085251
 20
9.0586944037
 10
15.1355358738
 20
9.0411756707
 10
15.1503425962
 20
9.0231416399
 10
15.1648043834
 20
9.0046219187
 10
15.1788974924
 20
8.9856469122
 10
15.1925987858
 20
8.9662477728
 10
15.2058857693
 20
8.9464563492
 10
15.2187366288
 20
8.9263051344
 10
15.2311302662
 20
8.9058272117
 10
15.2430463342
 20
8.8850562011
 10
15.2544652695
 20
8.8640262036
 10
15.2653683249
 20
8.8427717452
 10
15.2757375999
 20
8.8213277215
 10
15.2855560706
 20
8.7997293384
 10
15.294807618
 20
8.7780120541
 10
15.3034770537
 20
8.7562115219
 10
15.3115501441
 20
8.734363534
 10
15.3190136329
 20
8.7125039656
 10
15.3258552687
 20
8.6906687008
 10
15.3320638329
 20
8.6688935369
 10
15.3376291157
 20
8.6472142752
 10
15.342541961
 20
8.6256665987
 10
15.3467942993
 20
8.6042859475
 10
15.3503791924
 20
8.5831072354
 10
15.3532907927
 20
8.5621649054
 10
15.3555234984
 20
8.5415018854
 10
15.3570721752
 20
8.5211898262
 10
15.3579385067
 20
8.5012767172
 10
15.3581262354
 20
8.4818045048
 10
15.3576071506
 20
8.4627718794
 10
15.356377783
 20
8.4441494019
 10
15.3544456588
 20
8.4259165726
 10
15.3518103947
 20
8.4080552384
 10
15.3484760877
 20
8.390609741
 10
15.3444633756
 20
8.3736818096
 10
15.3398025942
 20
8.3573622545
 10
15.3345193388
 20
8.34169385
 10
15.3286329556
 20
8.3266949449
 10
15.3221621323
 20
8.3123848226
 10
15.3151321528
 20
8.2987965764
 10
15.3075728207
 20
8.2859658585
 10
15.2995116682
 20
8.2739186116
 10
15.2909771266
 20
8.2626788191
 10
15.2819986485
 20
8.252268751
 10
15.2726065624
 20
8.2427087841
 10
15.2628319471
 20
8.2340173209
  0
LINE
  5
63F
100
AcDbEntity
  8
AXIS
100
AcDbLine
 62
7
  6
CONTINUOUS
 10
4.3382026059
 20
3.8828516874
 11
4.1052026059
 21
3.8828516874
  0
LINE
  5
640
100
AcDbEntity
  8
0
100
AcDbLine
 62
7
  6
CONTINUOUS
 10
4.0167026059
 20
5.7028910575
 11
4.0067026059
 21
5.6928910575
  0
LINE
  5
641
100
AcDbEntity
  8
0
100
AcDbLine
 62
7
  6
CONTINUOUS
 10
4.4828350925
 20
4.5178910575
 11
3.9605701194
 21
4.5178910575
  0
LINE
  5
642
100
AcDbEntity
  8
0
100
AcDbLine
 62
7
  6
CONTINUOUS
 10
4.5117026059
 20
4.5678910575
 11
3.9317026059
 21
4.5678910575
  0
LINE
  5
643
100
AcDbEntity
  8
0
100
AcDbLine
 62
7
  6
CONTINUOUS
 10
3.9317026059
 20
4.5678910575
 11
3.9605701194
 21
4.5178910575
  0
LINE
  5
644
100
AcDbEntity
  8
0
100
AcDbLine
 62
7
  6
CONTINUOUS
 10
3.9267026059
 20
4.6178910575
 11
4.5167026059
 21
4.6178910575
  0
LINE
  5
645
100
AcDbEntity
  8
0
100
AcDbLine
 62
7
  6
CONTINUOUS
 10
3.9267026059
 20
4.6178910575
 11
3.9267026059
 21
4.9960099004
  0
LINE
  5
646
100
AcDbEntity
  8
0
100
AcDbLine
 62
7
  6
CONTINUOUS
 10
3.9317026059
 20
4.6178910575
 11
3.9317026059
 21
4.5678910575
  0
LINE
  5
647
100
AcDbEntity
  8
0
100
AcDbLine
 62
7
  6
CONTINUOUS
 10
4.0067026059
 20
5.3928910575
 11
4.0067026059
 21
5.6928910575
  0
LINE
  5
648
100
AcDbEntity
  8
0
100
AcDbLine
 62
9
  6
CONTINUOUS
 10
4.0167026059
 20
5.3828910575
 11
4.0167026059
 21
5.7028910575
  0
LWPOLYLINE
  5
649
100
AcDbEntity
  8
0
100
AcDbPolyline
 62
9
  6
CONTINUOUS
 90
6
 70
0
 10
4.0005916349
 20
4.9476566499
 10
3.9731075072
 20
4.963573182
 10
3.9519222115
 20
4.9774657846
 10
3.9373520858
 20
4.9879011915
 10
3.9291884156
 20
4.9940796653
 10
3.9267026059
 20
4.9960099004
  0
LINE
  5
64A
100
AcDbEntity
  8
AXIS
100
AcDbLine
 62
7
  6
CONTINUOUS
 10
4.1052026059
 20
4.5178910575
 11
4.1052026059
 21
3.8828516874
  0
LINE
  5
64B
100
AcDbEntity
  8
AXIS_COSMETIC_THREADS
100
AcDbLine
 62
7
  6
CONTINUOUS
 10
4.1052026059
 20
4.5178910575
 11
4.1052026059
 21
3.8828516874
  0
LINE
  5
64C
100
AcDbEntity
  8
0
100
AcDbLine
 62
7
  6
CONTINUOUS
 10
4.4267026059
 20
5.3828910575
 11
4.4367026059
 21
5.3928910575
  0
LWPOLYLINE
  5
64D
100
AcDbEntity
  8
0
100
AcDbPolyline
 62
9
  6
CONTINUOUS
 90
8
 70
0
 10
3.9801060495
 20
5.0024328223
 10
4.0025485757
 20
4.9944549555
 10
4.0276307049
 20
4.9892975868
 10
4.0562655228
 20
4.9867767764
 10
4.0894203383
 20
4.9870894401
 10
4.127921435
 20
4.9907370969
 10
4.1721631793
 20
4.998426724
 10
4.2217026059
 20
5.0108910575
  0
LWPOLYLINE
  5
64E
100
AcDbEntity
  8
0
100
AcDbPolyline
 62
9
  6
CONTINUOUS
 90
8
 70
0
 10
4.0005916349
 20
4.9476566499
 10
4.0215186073
 20
4.9400368857
 10
4.0454142925
 20
4.9377478553
 10
4.0728058477
 20
4.9405773277
 10
4.1042113736
 20
4.948831522
 10
4.1398671
 20
4.9630717816
 10
4.1794281452
 20
4.983773831
 10
4.2217026059
 20
5.0108910575
  0
LINE
  5
64F
100
AcDbEntity
  8
0
100
AcDbLine
 62
7
  6
CONTINUOUS
 10
3.8993713176
 20
5.0463363872
 11
3.8997339434
 21
5.0460991282
  0
LWPOLYLINE
  5
650
100
AcDbEntity
  8
0
100
AcDbPolyline
 62
9
  6
CONTINUOUS
 90
6
 70
0
 10
3.9801060495
 20
5.0024328223
 10
3.9891484835
 20
4.9963151053
 10
3.9960732
 20
4.9871240434
 10
4.0004428229
 20
4.9754401586
 10
4.0019813601
 20
4.9620014235
 10
4.0005916349
 20
4.9476566499
  0
LINE
  5
651
100
AcDbEntity
  8
DEFAULT_1
100
AcDbLine
 62
7
  6
CENTER
 10
4.2217026059
 20
5.5428910575
 11
4.2217026059
 21
4.8508910575
  0
LINE
  5
652
100
AcDbEntity
  8
DATUM_CURVES
100
AcDbLine
 62
40
  6
CONTINUOUS
 10
4.2217026059
 20
5.2431350288
 11
4.2217026059
 21
5.2368910575
  0
LINE
  5
653
100
AcDbEntity
  8
DATUM_CURVES
100
AcDbLine
 62
40
  6
CONTINUOUS
 10
4.2217026059
 20
5.1888910575
 11
4.2217026059
 21
5.1428910575
  0
LINE
  5
654
100
AcDbEntity
  8
DATUM_CURVES
100
AcDbLine
 62
40
  6
CONTINUOUS
 10
4.2217026059
 20
5.8426470861
 11
4.2217026059
 21
5.8488910575
  0
LINE
  5
655
100
AcDbEntity
  8
DATUM_CURVES
100
AcDbLine
 62
40
  6
CONTINUOUS
 10
4.2217026059
 20
5.8968910575
 11
4.2217026059
 21
5.9428910575
  0
LINE
  5
656
100
AcDbEntity
  8
DEFAULT_1
100
AcDbLine
 62
7
  6
CENTER
 10
4.2217026059
 20
5.5428910575
 11
4.2217026059
 21
6.2348910575
  0
LWPOLYLINE
  5
657
100
AcDbEntity
  8
0
100
AcDbPolyline
 62
9
  6
CONTINUOUS
 90
8
 70
0
 10
4.2217026059
 20
5.0108910575
 10
4.2712420325
 20
4.998426724
 10
4.3154837769
 20
4.9907370969
 10
4.3539848735
 20
4.9870894401
 10
4.3871396891
 20
4.9867767764
 10
4.415774507
 20
4.9892975868
 10
4.4408566362
 20
4.9944549555
 10
4.4632991624
 20
5.0024328223
  0
LWPOLYLINE
  5
658
100
AcDbEntity
  8
0
100
AcDbPolyline
 62
9
  6
CONTINUOUS
 90
8
 70
0
 10
4.2217026059
 20
5.0108910575
 10
4.2639770666
 20
4.983773831
 10
4.3035381118
 20
4.9630717816
 10
4.3391938383
 20
4.948831522
 10
4.3705993641
 20
4.9405773277
 10
4.3979909193
 20
4.9377478553
 10
4.4218866045
 20
4.9400368857
 10
4.4428135769
 20
4.9476566499
  0
LINE
  5
659
100
AcDbEntity
  8
AXIS
100
AcDbLine
 62
7
  6
CONTINUOUS
 10
4.3382026059
 20
4.5178910575
 11
4.3382026059
 21
3.8828516874
  0
LINE
  5
65A
100
AcDbEntity
  8
AXIS_COSMETIC_THREADS
100
AcDbLine
 62
7
  6
CONTINUOUS
 10
4.3382026059
 20
4.5178910575
 11
4.3382026059
 21
3.8828516874
  0
LWPOLYLINE
  5
65B
100
AcDbEntity
  8
0
100
AcDbPolyline
 62
9
  6
CONTINUOUS
 90
6
 70
0
 10
4.4632991624
 20
5.0024328223
 10
4.4542567284
 20
4.9963151053
 10
4.4473320119
 20
4.9871240434
 10
4.4429623889
 20
4.9754401586
 10
4.4414238518
 20
4.9620014235
 10
4.4428135769
 20
4.9476566499
  0
LINE
  5
65C
100
AcDbEntity
  8
0
100
AcDbLine
 62
7
  6
CONTINUOUS
 10
4.5440338943
 20
5.0463363872
 11
4.5436734921
 21
5.0461005945
  0
LWPOLYLINE
  5
65D
100
AcDbEntity
  8
0
100
AcDbPolyline
 62
7
  6
CONTINUOUS
 90
17
 70
0
 10
4.2217026059
 20
5.1888910575
 10
4.2700226724
 20
5.1930061039
 10
4.3197033022
 20
5.2044243726
 10
4.3663234968
 20
5.2224701129
 10
4.4089349926
 20
5.2463049863
 10
4.4478712147
 20
5.2758690272
 10
4.4833912802
 20
5.3118358669
 10
4.5145963388
 20
5.3545620587
 10
4.5392450509
 20
5.4021778761
 10
4.5560484062
 20
5.4521406232
 10
4.5652845255
 20
5.5063195522
 10
4.5657724259
 20
5.5618325909
 10
4.5572377451
 20
5.6171256705
 10
4.5400579979
 20
5.6697873717
 10
4.5148723241
 20
5.7185843637
 10
4.4821754329
 20
5.7627409026
 10
4.4431667905
 20
5.800771811
  0
LINE
  5
65E
100
AcDbEntity
  8
0
100
AcDbLine
 62
7
  6
CONTINUOUS
 10
4.0167026059
 20
5.3828910575
 11
4.0067026059
 21
5.3928910575
  0
LINE
  5
65F
100
AcDbEntity
  8
0
100
AcDbLine
 62
9
  6
CONTINUOUS
 10
4.4267026059
 20
5.7028910575
 11
4.4267026059
 21
5.3828910575
  0
LINE
  5
660
100
AcDbEntity
  8
0
100
AcDbLine
 62
7
  6
CONTINUOUS
 10
4.4367026059
 20
5.3928910575
 11
4.4367026059
 21
5.6928910575
  0
LWPOLYLINE
  5
661
100
AcDbEntity
  8
0
100
AcDbPolyline
 62
9
  6
CONTINUOUS
 90
6
 70
0
 10
4.5167026059
 20
4.9960099004
 10
4.514216927
 20
4.9940797662
 10
4.5060535414
 20
4.9879014996
 10
4.4914836527
 20
4.9774662354
 10
4.4702982994
 20
4.9635735517
 10
4.4428135769
 20
4.9476566499
  0
LINE
  5
662
100
AcDbEntity
  8
0
100
AcDbLine
 62
7
  6
CONTINUOUS
 10
4.5117026059
 20
4.6178910575
 11
4.5117026059
 21
4.5678910575
  0
LINE
  5
663
100
AcDbEntity
  8
0
100
AcDbLine
 62
7
  6
CONTINUOUS
 10
4.5167026059
 20
4.6178910575
 11
4.5167026059
 21
4.9960099004
  0
LINE
  5
664
100
AcDbEntity
  8
0
100
AcDbLine
 62
9
  6
CONTINUOUS
 10
3.9679310551
 20
5.3828910575
 11
4.0167026059
 21
5.3828910575
  0
LINE
  5
665
100
AcDbEntity
  8
0
100
AcDbLine
 62
9
  6
CONTINUOUS
 10
4.4267026059
 20
5.3828910575
 11
4.4754741567
 21
5.3828910575
  0
LINE
  5
666
100
AcDbEntity
  8
0
100
AcDbLine
 62
7
  6
CONTINUOUS
 10
4.5043684864
 20
5.3928910575
 11
4.4367026059
 21
5.3928910575
  0
LINE
  5
667
100
AcDbEntity
  8
0
100
AcDbLine
 62
7
  6
CONTINUOUS
 10
3.9390367254
 20
5.3928910575
 11
4.0067026059
 21
5.3928910575
  0
LINE
  5
668
100
AcDbEntity
  8
0
100
AcDbLine
 62
7
  6
CONTINUOUS
 10
4.5117026059
 20
4.5678910575
 11
4.4828350925
 21
4.5178910575
  0
LINE
  5
669
100
AcDbEntity
  8
DEFAULT_1
100
AcDbLine
 62
7
  6
CENTER
 10
4.2217026059
 20
5.5428910575
 11
3.5297026059
 21
5.5428910575
  0
LINE
  5
66A
100
AcDbEntity
  8
DEFAULT_1
100
AcDbLine
 62
7
  6
CENTER
 10
4.2217026059
 20
5.5428910575
 11
4.9137026059
 21
5.5428910575
  0
LINE
  5
66B
100
AcDbEntity
  8
0
100
AcDbLine
 62
7
  6
CONTINUOUS
 10
4.0067026059
 20
5.6928910575
 11
3.9390367254
 21
5.6928910575
  0
LINE
  5
66C
100
AcDbEntity
  8
0
100
AcDbLine
 62
7
  6
CONTINUOUS
 10
4.4367026059
 20
5.6928910575
 11
4.5043684864
 21
5.6928910575
  0
LINE
  5
66D
100
AcDbEntity
  8
0
100
AcDbLine
 62
7
  6
CONTINUOUS
 10
4.4267026059
 20
5.7028910575
 11
4.4367026059
 21
5.6928910575
  0
LINE
  5
66E
100
AcDbEntity
  8
0
100
AcDbLine
 62
9
  6
CONTINUOUS
 10
4.4754741567
 20
5.7028910575
 11
4.4267026059
 21
5.7028910575
  0
LINE
  5
66F
100
AcDbEntity
  8
0
100
AcDbLine
 62
9
  6
CONTINUOUS
 10
4.0167026059
 20
5.7028910575
 11
3.9679310551
 21
5.7028910575
  0
LINE
  5
670
100
AcDbEntity
  8
0
100
AcDbLine
 62
7
  6
CONTINUOUS
 10
4.3988296194
 20
5.8319360732
 11
4.4392629927
 21
5.8021819807
  0
LWPOLYLINE
  5
671
100
AcDbEntity
  8
0
100
AcDbPolyline
 62
7
  6
CONTINUOUS
 90
18
 70
0
 10
4.1425646276
 20
5.8725244605
 10
4.1079289099
 20
5.8628798672
 10
4.0733505729
 20
5.8490936032
 10
4.0376338635
 20
5.8298696795
 10
4.0002744927
 20
5.8031592521
 10
3.9630151458
 20
5.7674978233
 10
3.9297114001
 20
5.7238458987
 10
3.9031133024
 20
5.6738877508
 10
3.8848611532
 20
5.6194567273
 10
3.8758944927
 20
5.5629841306
 10
3.8763471203
 20
5.5057456071
 10
3.8862516278
 20
5.449143396
 10
3.9052036273
 20
5.3952204385
 10
3.9327504196
 20
5.345032073
 10
3.9681975308
 20
5.2999063285
 10
4.0106846892
 20
5.2610310209
 10
4.0593160483
 20
5.2294003691
 10
4.1123105899
 20
5.2062170507
  0
LWPOLYLINE
  5
672
100
AcDbEntity
  8
0
100
AcDbPolyline
 62
7
  6
CONTINUOUS
 90
6
 70
0
 10
4.3988296194
 20
5.8319360732
 10
4.3515057637
 20
5.8560557749
 10
4.3010709014
 20
5.8724690811
 10
4.2486266918
 20
5.8808201826
 10
4.1952466699
 20
5.8808571555
 10
4.1425646276
 20
5.8725244605
  0
LINE
  5
673
100
AcDbEntity
  8
0
100
AcDbLine
 62
7
  6
CONTINUOUS
 10
4.4431667905
 20
5.800771811
 11
4.3988296194
 21
5.8319360732
  0
LINE
  5
674
100
AcDbEntity
  8
0
100
AcDbLine
 62
7
  6
CONTINUOUS
 10
4.1425646276
 20
5.8725244605
 11
4.1820098262
 21
5.8785423475
  0
LINE
  5
675
100
AcDbEntity
  8
AXIS
100
AcDbLine
 62
7
  6
CONTINUOUS
 10
8.9329876188
 20
3.8828516874
 11
8.7000061533
 21
3.8828516874
  0
LINE
  5
676
100
AcDbEntity
  8
0
100
AcDbLine
 62
7
  6
CONTINUOUS
 10
7.9493928161
 20
5.8968437582
 11
7.9328882121
 21
5.8818416662
  0
LINE
  5
677
100
AcDbEntity
  8
0
100
AcDbLine
 62
7
  6
CONTINUOUS
 10
7.9494968867
 20
5.8968910575
 11
7.9493928161
 21
5.8968437582
  0
LINE
  5
678
100
AcDbEntity
  8
0
100
AcDbLine
 62
7
  6
CONTINUOUS
 10
7.9893928161
 20
5.8968437582
 11
7.9894968833
 21
5.8968910575
  0
LINE
  5
679
100
AcDbEntity
  8
0
100
AcDbLine
 62
7
  6
CONTINUOUS
 10
7.9893928161
 20
5.8968437582
 11
7.9728882121
 21
5.8818416662
  0
LINE
  5
67A
100
AcDbEntity
  8
0
100
AcDbLine
 62
7
  6
CONTINUOUS
 10
8.0293928161
 20
5.8968437582
 11
8.0128882121
 21
5.8818416662
  0
LINE
  5
67B
100
AcDbEntity
  8
0
100
AcDbLine
 62
7
  6
CONTINUOUS
 10
8.0693928161
 20
5.8968437582
 11
8.0528882121
 21
5.8818416662
  0
LINE
  5
67C
100
AcDbEntity
  8
0
100
AcDbLine
 62
7
  6
CONTINUOUS
 10
8.0293928161
 20
5.8968437582
 11
8.0294968861
 21
5.8968910575
  0
LINE
  5
67D
100
AcDbEntity
  8
0
100
AcDbLine
 62
7
  6
CONTINUOUS
 10
8.0693928161
 20
5.8968437582
 11
8.0694968826
 21
5.8968910575
  0
LINE
  5
67E
100
AcDbEntity
  8
0
100
AcDbLine
 62
7
  6
CONTINUOUS
 10
8.1093928161
 20
5.8968437582
 11
8.1094968827
 21
5.8968910575
  0
LINE
  5
67F
100
AcDbEntity
  8
0
100
AcDbLine
 62
7
  6
CONTINUOUS
 10
8.1493928161
 20
5.8968437582
 11
8.1494968833
 21
5.8968910575
  0
LINE
  5
680
100
AcDbEntity
  8
0
100
AcDbLine
 62
7
  6
CONTINUOUS
 10
8.1893928161
 20
5.8968437582
 11
8.1894968861
 21
5.8968910575
  0
LINE
  5
681
100
AcDbEntity
  8
0
100
AcDbLine
 62
7
  6
CONTINUOUS
 10
8.1093928161
 20
5.8968437582
 11
8.0928882121
 21
5.8818416662
  0
LINE
  5
682
100
AcDbEntity
  8
0
100
AcDbLine
 62
7
  6
CONTINUOUS
 10
8.1493928161
 20
5.8968437582
 11
8.1328882121
 21
5.8818416662
  0
LINE
  5
683
100
AcDbEntity
  8
0
100
AcDbLine
 62
7
  6
CONTINUOUS
 10
8.1893928161
 20
5.8968437582
 11
8.1728882121
 21
5.8818416662
  0
LINE
  5
684
100
AcDbEntity
  8
0
100
AcDbLine
 62
7
  6
CONTINUOUS
 10
8.2293928161
 20
5.8968437582
 11
8.2294968826
 21
5.8968910575
  0
LINE
  5
685
100
AcDbEntity
  8
0
100
AcDbLine
 62
7
  6
CONTINUOUS
 10
8.2693928161
 20
5.8968437582
 11
8.2694968827
 21
5.8968910575
  0
LINE
  5
686
100
AcDbEntity
  8
0
100
AcDbLine
 62
7
  6
CONTINUOUS
 10
8.3093928161
 20
5.8968437582
 11
8.3094968833
 21
5.8968910575
  0
LINE
  5
687
100
AcDbEntity
  8
0
100
AcDbLine
 62
7
  6
CONTINUOUS
 10
8.3493928161
 20
5.8968437582
 11
8.3494968861
 21
5.8968910575
  0
LINE
  5
688
100
AcDbEntity
  8
0
100
AcDbLine
 62
7
  6
CONTINUOUS
 10
8.3893928161
 20
5.8968437582
 11
8.3894968826
 21
5.8968910575
  0
LINE
  5
689
100
AcDbEntity
  8
0
100
AcDbLine
 62
7
  6
CONTINUOUS
 10
8.2293928161
 20
5.8968437582
 11
8.2128882121
 21
5.8818416662
  0
LINE
  5
68A
100
AcDbEntity
  8
0
100
AcDbLine
 62
7
  6
CONTINUOUS
 10
8.2693928161
 20
5.8968437582
 11
8.2528882121
 21
5.8818416662
  0
LINE
  5
68B
100
AcDbEntity
  8
0
100
AcDbLine
 62
7
  6
CONTINUOUS
 10
8.3093928161
 20
5.8968437582
 11
8.2928882121
 21
5.8818416662
  0
LINE
  5
68C
100
AcDbEntity
  8
0
100
AcDbLine
 62
7
  6
CONTINUOUS
 10
8.3493928161
 20
5.8968437582
 11
8.3328882121
 21
5.8818416662
  0
LINE
  5
68D
100
AcDbEntity
  8
0
100
AcDbLine
 62
7
  6
CONTINUOUS
 10
8.4293928161
 20
5.8968437582
 11
8.4294968827
 21
5.8968910575
  0
LINE
  5
68E
100
AcDbEntity
  8
0
100
AcDbLine
 62
7
  6
CONTINUOUS
 10
8.4694968872
 20
5.8968910575
 11
8.4693928161
 21
5.8968437582
  0
LINE
  5
68F
100
AcDbEntity
  8
0
100
AcDbLine
 62
7
  6
CONTINUOUS
 10
8.3893928161
 20
5.8968437582
 11
8.3728882121
 21
5.8818416662
  0
LINE
  5
690
100
AcDbEntity
  8
0
100
AcDbLine
 62
7
  6
CONTINUOUS
 10
8.4293928161
 20
5.8968437582
 11
8.4128882121
 21
5.8818416662
  0
LINE
  5
691
100
AcDbEntity
  8
0
100
AcDbLine
 62
7
  6
CONTINUOUS
 10
8.4693928161
 20
5.8968437582
 11
8.4528882121
 21
5.8818416662
  0
LINE
  5
692
100
AcDbEntity
  8
0
100
AcDbLine
 62
7
  6
CONTINUOUS
 10
7.8914968861
 20
5.6928910575
 11
7.8914968861
 21
5.3928910575
  0
LWPOLYLINE
  5
693
100
AcDbEntity
  8
0
100
AcDbPolyline
 62
7
  6
CONTINUOUS
 90
9
 70
0
 10
7.9709691574
 20
5.1901066432
 10
7.9699116492
 20
5.1998093859
 10
7.9688671305
 20
5.2186665844
 10
7.9678135387
 20
5.2465078749
 10
7.9667611464
 20
5.2824032775
 10
7.9657198422
 20
5.3249147384
 10
7.9646736542
 20
5.3734834354
 10
7.9636119925
 20
5.4274298944
 10
7.96254812
 20
5.4847012319
  0
LWPOLYLINE
  5
694
100
AcDbEntity
  8
0
100
AcDbPolyline
 62
7
  6
CONTINUOUS
 90
5
 70
0
 10
7.9658037518
 20
5.2468058205
 10
7.9668651938
 20
5.2187098315
 10
7.9679116282
 20
5.1998096741
 10
7.968964721
 20
5.1901271555
 10
7.9693928161
 20
5.1889383567
  0
LWPOLYLINE
  5
695
100
AcDbEntity
  8
0
100
AcDbPolyline
 62
7
  6
CONTINUOUS
 90
17
 70
0
 10
7.9314968861
 20
5.8319360732
 10
7.9325743509
 20
5.7979706894
 10
7.9336518156
 20
5.7567160234
 10
7.9347292804
 20
5.7093509888
 10
7.9358067452
 20
5.6572291126
 10
7.93688421
 20
5.6018398552
 10
7.9379616748
 20
5.5447660477
 10
7.9390391396
 20
5.4876386596
 10
7.9401166044
 20
5.4320901915
 10
7.9411940692
 20
5.3797080239
 10
7.942271534
 20
5.3319890558
 10
7.9433489987
 20
5.2902969281
 10
7.9444264635
 20
5.2558230558
 10
7.9455039283
 20
5.2295525813
 10
7.9465813931
 20
5.2122362228
 10
7.9476588579
 20
5.2043688212
 10
7.9479968861
 20
5.2038910575
  0
LWPOLYLINE
  5
696
100
AcDbEntity
  8
0
100
AcDbPolyline
 62
7
  6
CONTINUOUS
 90
6
 70
0
 10
7.9605444707
 20
5.4849014062
 10
7.961595889
 20
5.4282767493
 10
7.9626394236
 20
5.3751572003
 10
7.9636821746
 20
5.3265689265
 10
7.9647378471
 20
5.2832823332
 10
7.9658037518
 20
5.2468058205
  0
LWPOLYLINE
  5
697
100
AcDbEntity
  8
0
100
AcDbPolyline
 62
7
  6
CONTINUOUS
 90
10
 70
0
 10
7.9605444707
 20
5.4849014062
 10
7.958419955
 20
5.6024898888
 10
7.95734298
 20
5.66038958
 10
7.9562660117
 20
5.7149342958
 10
7.9551890881
 20
5.7645651969
 10
7.9541121675
 20
5.8078676662
 10
7.9530352454
 20
5.8436057053
 10
7.9519583076
 20
5.8707593357
 10
7.950881371
 20
5.8885527644
 10
7.949804399
 20
5.8964781474
  0
LINE
  5
698
100
AcDbEntity
  8
0
100
AcDbLine
 62
7
  6
CONTINUOUS
 10
7.9314968861
 20
5.1888910575
 11
7.9314968861
 21
5.8818815203
  0
LINE
  5
699
100
AcDbEntity
  8
DATUM_CURVES
100
AcDbLine
 62
40
  6
CONTINUOUS
 10
8.0299273634
 20
5.2038910575
 11
8.0290893135
 21
5.2026681686
  0
LWPOLYLINE
  5
69A
100
AcDbEntity
  8
DATUM_CURVES
100
AcDbPolyline
 62
40
  6
CONTINUOUS
 90
12
 70
0
 10
8.0290893135
 20
5.2026681686
 10
8.0257208625
 20
5.197779613
 10
8.0215632424
 20
5.1918019019
 10
8.0173647064
 20
5.1858241908
 10
8.0131269359
 20
5.1798464797
 10
8.0088515355
 20
5.1738687686
 10
8.004540037
 20
5.1678910575
 10
8.0037506978
 20
5.1668019019
 10
7.9993984037
 20
5.1608241908
 10
7.9950131145
 20
5.1548464797
 10
7.9905961493
 20
5.1488687686
 10
7.9861487665
 20
5.1428910575
  0
LINE
  5
69B
100
AcDbEntity
  8
0
100
AcDbLine
 62
7
  6
CONTINUOUS
 10
7.9316009561
 20
5.1889383567
 11
7.9481055601
 21
5.2039404487
  0
LINE
  5
69C
100
AcDbEntity
  8
0
100
AcDbLine
 62
7
  6
CONTINUOUS
 10
7.9518718861
 20
5.2091704509
 11
7.9528882121
 21
5.2039404487
  0
LWPOLYLINE
  5
69D
100
AcDbEntity
  8
0
100
AcDbPolyline
 62
7
  6
CONTINUOUS
 90
9
 70
0
 10
7.9900345447
 20
5.8956293226
 10
7.99108888
 20
5.8858799387
 10
7.9921313804
 20
5.8670096606
 10
7.9931882523
 20
5.8390301728
 10
7.9942496342
 20
5.8027374728
 10
7.9953009876
 20
5.759679897
 10
7.9963401824
 20
5.7113181845
 10
7.9973929437
 20
5.657765202
 10
7.9984500343
 20
5.6008405065
  0
LWPOLYLINE
  5
69E
100
AcDbEntity
  8
0
100
AcDbPolyline
 62
7
  6
CONTINUOUS
 90
10
 70
0
 10
8.0109596597
 20
5.1901507658
 10
8.0099023644
 20
5.1999369873
 10
8.008860414
 20
5.218816692
 10
8.0078188148
 20
5.2463475432
 10
8.0067684909
 20
5.2821269001
 10
8.0057199296
 20
5.3249109106
 10
8.0046733803
 20
5.3734968067
 10
8.003611807
 20
5.4274396413
 10
8.0025480279
 20
5.4847062832
 10
8.0005031259
 20
5.5979261307
  0
LWPOLYLINE
  5
69F
100
AcDbEntity
  8
0
100
AcDbPolyline
 62
7
  6
CONTINUOUS
 90
18
 70
0
 10
7.9336416229
 20
5.8801540439
 10
7.9347139913
 20
5.8696344922
 10
7.9357863598
 20
5.8498656693
 10
7.9368587282
 20
5.8214071802
 10
7.9379310966
 20
5.7850646119
 10
7.939003465
 20
5.7418667296
 10
7.9400758334
 20
5.6930363548
 10
7.9411482019
 20
5.6399557506
 10
7.9422205703
 20
5.5841274932
 10
7.9432929387
 20
5.5271319377
 10
7.9443653071
 20
5.4705824826
 10
7.9454376755
 20
5.4160798984
 10
7.946510044
 20
5.3651670138
 10
7.9475824124
 20
5.3192850423
 10
7.9486547808
 20
5.2797327854
 10
7.9497271492
 20
5.2476298661
 10
7.9507995176
 20
5.2238850362
 10
7.9518718861
 20
5.2091704509
  0
LWPOLYLINE
  5
6A0
100
AcDbEntity
  8
0
100
AcDbPolyline
 62
7
  6
CONTINUOUS
 90
10
 70
0
 10
8.0005031259
 20
5.5979261307
 10
7.9995099343
 20
5.6515927936
 10
7.9985121054
 20
5.7028491856
 10
7.9975163129
 20
5.7500921282
 10
7.9965149561
 20
5.7924953455
 10
7.9955011794
 20
5.8291426845
 10
7.9944876949
 20
5.8585390675
 10
7.9934873001
 20
5.8797294013
 10
7.9924918825
 20
5.8925761471
 10
7.9916009561
 20
5.8968437582
  0
LWPOLYLINE
  5
6A1
100
AcDbEntity
  8
0
100
AcDbPolyline
 62
7
  6
CONTINUOUS
 90
11
 70
0
 10
7.9984500343
 20
5.6008405065
 10
8.00054812
 20
5.4847012319
 10
8.0016119925
 20
5.4274298944
 10
8.0026736542
 20
5.3734834354
 10
8.0037198422
 20
5.3249147384
 10
8.0047611464
 20
5.2824032775
 10
8.0058135387
 20
5.2465078749
 10
8.0068671305
 20
5.2186665844
 10
8.0079116492
 20
5.1998093859
 10
8.0089691574
 20
5.1901066432
 10
8.0093928161
 20
5.1889383567
  0
LWPOLYLINE
  5
6A2
100
AcDbEntity
  8
0
100
AcDbPolyline
 62
7
  6
CONTINUOUS
 90
11
 70
0
 10
8.0385031259
 20
5.5979261307
 10
8.0405480279
 20
5.4847062832
 10
8.041611807
 20
5.4274396413
 10
8.0426733803
 20
5.3734968067
 10
8.0437199296
 20
5.3249109106
 10
8.0447684909
 20
5.2821269001
 10
8.0458188148
 20
5.2463475432
 10
8.046860414
 20
5.218816692
 10
8.0479023644
 20
5.1999369873
 10
8.0489596597
 20
5.1901507658
 10
8.0493928161
 20
5.1889383567
  0
LWPOLYLINE
  5
6A3
100
AcDbEntity
  8
0
100
AcDbPolyline
 62
7
  6
CONTINUOUS
 90
11
 70
0
 10
8.0425405685
 20
5.4851154702
 10
8.0404486804
 20
5.6009147745
 10
8.0393879142
 20
5.6580297025
 10
8.03832934
 20
5.7118482316
 10
8.0372853956
 20
5.7603646621
 10
8.0362342408
 20
5.8033180138
 10
8.0351737032
 20
5.8394726515
 10
8.0341183596
 20
5.8673001297
 10
8.0330768958
 20
5.8860442448
 10
8.0320223758
 20
5.8956857582
 10
8.0316009561
 20
5.8968437582
  0
LINE
  5
6A4
100
AcDbEntity
  8
0
100
AcDbLine
 62
7
  6
CONTINUOUS
 10
7.9716009561
 20
5.1889383567
 11
7.9881055601
 21
5.2039404487
  0
LINE
  5
6A5
100
AcDbEntity
  8
0
100
AcDbLine
 62
7
  6
CONTINUOUS
 10
8.0116009561
 20
5.1889383567
 11
8.0281055601
 21
5.2039404487
  0
LINE
  5
6A6
100
AcDbEntity
  8
0
100
AcDbLine
 62
7
  6
CONTINUOUS
 10
8.0516009561
 20
5.1889383567
 11
8.0681055601
 21
5.2039404487
  0
LINE
  5
6A7
100
AcDbEntity
  8
0
100
AcDbLine
 62
7
  6
CONTINUOUS
 10
8.5553674593
 20
4.5178910575
 11
9.0776263129
 21
4.5178910575
  0
LINE
  5
6A8
100
AcDbEntity
  8
0
100
AcDbLine
 62
7
  6
CONTINUOUS
 10
8.5264968861
 20
4.5678910575
 11
9.1064968861
 21
4.5678910575
  0
LINE
  5
6A9
100
AcDbEntity
  8
0
100
AcDbLine
 62
7
  6
CONTINUOUS
 10
7.971496882
 20
5.1888910575
 11
7.9709691574
 21
5.1901066432
  0
LWPOLYLINE
  5
6AA
100
AcDbEntity
  8
0
100
AcDbPolyline
 62
7
  6
CONTINUOUS
 90
3
 70
0
 10
7.9915495176
 20
5.2126146656
 10
7.9926218861
 20
5.2044790156
 10
7.9928882121
 20
5.2039404487
  0
LWPOLYLINE
  5
6AB
100
AcDbEntity
  8
0
100
AcDbPolyline
 62
7
  6
CONTINUOUS
 90
9
 70
0
 10
8.0509747337
 20
5.1900811044
 10
8.0499312646
 20
5.1995422103
 10
8.0488861244
 20
5.2182440437
 10
8.0478247726
 20
5.2461667427
 10
8.0467586652
 20
5.2824967233
 10
8.0457025751
 20
5.3256720848
 10
8.0446551171
 20
5.3743892367
 10
8.0435968339
 20
5.4282270351
 10
8.0425405685
 20
5.4851154702
  0
LWPOLYLINE
  5
6AC
100
AcDbEntity
  8
0
100
AcDbPolyline
 62
7
  6
CONTINUOUS
 90
10
 70
0
 10
8.0700223758
 20
5.8956857582
 10
8.0710768958
 20
5.8860442448
 10
8.0721183596
 20
5.8673001297
 10
8.0731737032
 20
5.8394726515
 10
8.0742342408
 20
5.8033180138
 10
8.0752853956
 20
5.7603646621
 10
8.07632934
 20
5.7118482316
 10
8.0773879142
 20
5.6580297025
 10
8.0784486804
 20
5.6009147745
 10
8.0805405685
 20
5.4851154702
  0
LWPOLYLINE
  5
6AD
100
AcDbEntity
  8
0
100
AcDbPolyline
 62
7
  6
CONTINUOUS
 90
10
 70
0
 10
8.1309691574
 20
5.1901066432
 10
8.1299116492
 20
5.1998093859
 10
8.1288671305
 20
5.2186665844
 10
8.1278135387
 20
5.2465078749
 10
8.1267611464
 20
5.2824032775
 10
8.1257198422
 20
5.3249147384
 10
8.1246736542
 20
5.3734834354
 10
8.1236119925
 20
5.4274298944
 10
8.12254812
 20
5.4847012319
 10
8.1204500343
 20
5.6008405065
  0
LWPOLYLINE
  5
6AE
100
AcDbEntity
  8
0
100
AcDbPolyline
 62
7
  6
CONTINUOUS
 90
9
 70
0
 10
8.090964721
 20
5.1901271555
 10
8.0899116282
 20
5.1998096741
 10
8.0888651938
 20
5.2187098315
 10
8.0878037518
 20
5.2468058205
 10
8.0867378471
 20
5.2832823332
 10
8.0856821746
 20
5.3265689265
 10
8.0846394236
 20
5.3751572003
 10
8.083595889
 20
5.4282767493
 10
8.0825444707
 20
5.4849014062
  0
LWPOLYLINE
  5
6AF
100
AcDbEntity
  8
0
100
AcDbPolyline
 62
7
  6
CONTINUOUS
 90
9
 70
0
 10
8.0304918825
 20
5.8925761471
 10
8.0314873001
 20
5.8797294013
 10
8.0324876949
 20
5.8585390675
 10
8.0335011794
 20
5.8291426845
 10
8.0345149561
 20
5.7924953455
 10
8.0355163129
 20
5.7500921282
 10
8.0365121054
 20
5.7028491856
 10
8.0375099343
 20
5.6515927936
 10
8.0385031259
 20
5.5979261307
  0
LWPOLYLINE
  5
6B0
100
AcDbEntity
  8
0
100
AcDbPolyline
 62
7
  6
CONTINUOUS
 90
10
 70
0
 10
8.0805405685
 20
5.4851154702
 10
8.0815968339
 20
5.4282270351
 10
8.0826551171
 20
5.3743892367
 10
8.0837025751
 20
5.3256720848
 10
8.0847586652
 20
5.2824967233
 10
8.0858247726
 20
5.2461667427
 10
8.0868861244
 20
5.2182440437
 10
8.0879312646
 20
5.1995422103
 10
8.0889747337
 20
5.1900811044
 10
8.0893928161
 20
5.1889383567
  0
LWPOLYLINE
  5
6B1
100
AcDbEntity
  8
0
100
AcDbPolyline
 62
7
  6
CONTINUOUS
 90
10
 70
0
 10
8.1205444707
 20
5.4849014062
 10
8.121595889
 20
5.4282767493
 10
8.1226394236
 20
5.3751572003
 10
8.1236821746
 20
5.3265689265
 10
8.1247378471
 20
5.2832823332
 10
8.1258037518
 20
5.2468058205
 10
8.1268651938
 20
5.2187098315
 10
8.1279116282
 20
5.1998096741
 10
8.128964721
 20
5.1901271555
 10
8.1293928161
 20
5.1889383567
  0
LWPOLYLINE
  5
6B2
100
AcDbEntity
  8
0
100
AcDbPolyline
 62
7
  6
CONTINUOUS
 90
10
 70
0
 10
8.1204500343
 20
5.6008405065
 10
8.1193929437
 20
5.657765202
 10
8.1183401824
 20
5.7113181845
 10
8.1173009876
 20
5.759679897
 10
8.1162496342
 20
5.8027374728
 10
8.1151882523
 20
5.8390301728
 10
8.1141313804
 20
5.8670096606
 10
8.11308888
 20
5.8858799387
 10
8.1120345447
 20
5.8956293226
 10
8.1116009561
 20
5.8968437582
  0
LWPOLYLINE
  5
6B3
100
AcDbEntity
  8
0
100
AcDbPolyline
 62
7
  6
CONTINUOUS
 90
10
 70
0
 10
8.1605031259
 20
5.5979261307
 10
8.1595099343
 20
5.6515927936
 10
8.1585121054
 20
5.7028491856
 10
8.1575163129
 20
5.7500921282
 10
8.1565149561
 20
5.7924953455
 10
8.1555011794
 20
5.8291426845
 10
8.1544876949
 20
5.8585390675
 10
8.1534873001
 20
5.8797294013
 10
8.1524918825
 20
5.8925761471
 10
8.1516009561
 20
5.8968437582
  0
LWPOLYLINE
  5
6B4
100
AcDbEntity
  8
0
100
AcDbPolyline
 62
7
  6
CONTINUOUS
 90
11
 70
0
 10
8.0825444707
 20
5.4849014062
 10
8.0804443096
 20
5.601154519
 10
8.0793791278
 20
5.6584916062
 10
8.0783162717
 20
5.7124864447
 10
8.0772687319
 20
5.7610950536
 10
8.0762239793
 20
5.8037041679
 10
8.0751808049
 20
5.839256861
 10
8.0741331453
 20
5.8669701843
 10
8.0730885275
 20
5.8858847888
 10
8.0720297734
 20
5.8956516042
 10
8.0716009561
 20
5.8968437582
  0
LWPOLYLINE
  5
6B5
100
AcDbEntity
  8
0
100
AcDbPolyline
 62
7
  6
CONTINUOUS
 90
11
 70
0
 10
8.1584500343
 20
5.6008405065
 10
8.16054812
 20
5.4847012319
 10
8.1616119925
 20
5.4274298944
 10
8.1626736542
 20
5.3734834354
 10
8.1637198422
 20
5.3249147384
 10
8.1647611464
 20
5.2824032775
 10
8.1658135387
 20
5.2465078749
 10
8.1668671305
 20
5.2186665844
 10
8.1679116492
 20
5.1998093859
 10
8.1689691574
 20
5.1901066432
 10
8.1693928161
 20
5.1889383567
  0
LINE
  5
6B6
100
AcDbEntity
  8
0
100
AcDbLine
 62
7
  6
CONTINUOUS
 10
8.0916009561
 20
5.1889383567
 11
8.1081055601
 21
5.2039404487
  0
LINE
  5
6B7
100
AcDbEntity
  8
0
100
AcDbLine
 62
7
  6
CONTINUOUS
 10
8.1316009561
 20
5.1889383567
 11
8.1481055601
 21
5.2039404487
  0
LINE
  5
6B8
100
AcDbEntity
  8
0
100
AcDbLine
 62
7
  6
CONTINUOUS
 10
8.1716009561
 20
5.1889383567
 11
8.1881055601
 21
5.2039404487
  0
LINE
  5
6B9
100
AcDbEntity
  8
0
100
AcDbLine
 62
7
  6
CONTINUOUS
 10
8.2116009561
 20
5.1889383567
 11
8.2281055601
 21
5.2039404487
  0
LINE
  5
6BA
100
AcDbEntity
  8
0
100
AcDbLine
 62
7
  6
CONTINUOUS
 10
8.0916009561
 20
5.1889383567
 11
8.091497486
 21
5.188891059
  0
LINE
  5
6BB
100
AcDbEntity
  8
0
100
AcDbLine
 62
7
  6
CONTINUOUS
 10
7.9314968861
 20
5.1888910575
 11
7.9316009561
 21
5.1889383567
  0
LINE
  5
6BC
100
AcDbEntity
  8
0
100
AcDbLine
 62
7
  6
CONTINUOUS
 10
7.9716009561
 20
5.1889383567
 11
7.971496882
 21
5.1888910575
  0
LINE
  5
6BD
100
AcDbEntity
  8
0
100
AcDbLine
 62
7
  6
CONTINUOUS
 10
8.0116009561
 20
5.1889383567
 11
8.0114968834
 21
5.1888910575
  0
LINE
  5
6BE
100
AcDbEntity
  8
0
100
AcDbLine
 62
7
  6
CONTINUOUS
 10
8.0516009561
 20
5.1889383567
 11
8.0514962813
 21
5.1888910591
  0
LINE
  5
6BF
100
AcDbEntity
  8
0
100
AcDbLine
 62
7
  6
CONTINUOUS
 10
8.5214968861
 20
4.6178910575
 11
9.1114968861
 21
4.6178910575
  0
LINE
  5
6C0
100
AcDbEntity
  8
0
100
AcDbLine
 62
7
  6
CONTINUOUS
 10
8.0514962813
 20
5.1888910591
 11
8.0509747337
 21
5.1900811044
  0
LINE
  5
6C1
100
AcDbEntity
  8
0
100
AcDbLine
 62
7
  6
CONTINUOUS
 10
8.0114968834
 20
5.1888910575
 11
8.0109596597
 21
5.1901507658
  0
LINE
  5
6C2
100
AcDbEntity
  8
0
100
AcDbLine
 62
7
  6
CONTINUOUS
 10
8.0324563455
 20
5.2051123089
 11
8.0328882121
 21
5.2039404487
  0
LINE
  5
6C3
100
AcDbEntity
  8
0
100
AcDbLine
 62
7
  6
CONTINUOUS
 10
8.0724563455
 20
5.2051123089
 11
8.0728882121
 21
5.2039404487
  0
LWPOLYLINE
  5
6C4
100
AcDbEntity
  8
0
100
AcDbPolyline
 62
7
  6
CONTINUOUS
 90
20
 70
0
 10
7.9681055601
 20
5.8818416662
 10
7.9692081537
 20
5.8757734852
 10
7.9702856185
 20
5.860218172
 10
7.9713630833
 20
5.8355947615
 10
7.972440548
 20
5.8026069045
 10
7.9735180128
 20
5.7621972785
 10
7.9745954776
 20
5.7155206488
 10
7.9756729424
 20
5.6639108702
 10
7.9767504072
 20
5.6088427693
 10
7.977827872
 20
5.5518899995
 10
7.9789053368
 20
5.4946800714
 10
7.9799828016
 20
5.4388478445
 10
7.9810602663
 20
5.3859888081
 10
7.9821377311
 20
5.3376134883
 10
7.9832151959
 20
5.2951042824
 10
7.9842926607
 20
5.2596759545
 10
7.9853701255
 20
5.2323409221
 10
7.9864475903
 20
5.2138803247
 10
7.9875250551
 20
5.2048217014
 10
7.9879968861
 20
5.2038910575
  0
LWPOLYLINE
  5
6C5
100
AcDbEntity
  8
0
100
AcDbPolyline
 62
7
  6
CONTINUOUS
 90
10
 70
0
 10
8.1100297734
 20
5.8956516042
 10
8.1110885275
 20
5.8858847888
 10
8.1121331453
 20
5.8669701843
 10
8.1131808049
 20
5.839256861
 10
8.1142239793
 20
5.8037041679
 10
8.1152687319
 20
5.7610950536
 10
8.1163162717
 20
5.7124864447
 10
8.1173791278
 20
5.6584916062
 10
8.1184443096
 20
5.601154519
 10
8.1205444707
 20
5.4849014062
  0
LWPOLYLINE
  5
6C6
100
AcDbEntity
  8
0
100
AcDbPolyline
 62
7
  6
CONTINUOUS
 90
9
 70
0
 10
8.1500345447
 20
5.8956293226
 10
8.15108888
 20
5.8858799387
 10
8.1521313804
 20
5.8670096606
 10
8.1531882523
 20
5.8390301728
 10
8.1542496342
 20
5.8027374728
 10
8.1553009876
 20
5.759679897
 10
8.1563401824
 20
5.7113181845
 10
8.1573929437
 20
5.657765202
 10
8.1584500343
 20
5.6008405065
  0
LWPOLYLINE
  5
6C7
100
AcDbEntity
  8
0
100
AcDbPolyline
 62
7
  6
CONTINUOUS
 90
10
 70
0
 10
8.1709596597
 20
5.1901507658
 10
8.1699023644
 20
5.1999369873
 10
8.168860414
 20
5.218816692
 10
8.1678188148
 20
5.2463475432
 10
8.1667684909
 20
5.2821269001
 10
8.1657199296
 20
5.3249109106
 10
8.1646733803
 20
5.3734968067
 10
8.163611807
 20
5.4274396413
 10
8.1625480279
 20
5.4847062832
 10
8.1605031259
 20
5.5979261307
  0
LWPOLYLINE
  5
6C8
100
AcDbEntity
  8
0
100
AcDbPolyline
 62
7
  6
CONTINUOUS
 90
9
 70
0
 10
8.1904918825
 20
5.8925761471
 10
8.1914873001
 20
5.8797294013
 10
8.1924876949
 20
5.8585390675
 10
8.1935011794
 20
5.8291426845
 10
8.1945149561
 20
5.7924953455
 10
8.1955163129
 20
5.7500921282
 10
8.1965121054
 20
5.7028491856
 10
8.1975099343
 20
5.6515927936
 10
8.1985031259
 20
5.5979261307
  0
LWPOLYLINE
  5
6C9
100
AcDbEntity
  8
0
100
AcDbPolyline
 62
7
  6
CONTINUOUS
 90
10
 70
0
 10
8.2405405685
 20
5.4851154702
 10
8.2415968339
 20
5.4282270351
 10
8.2426551171
 20
5.3743892367
 10
8.2437025751
 20
5.3256720848
 10
8.2447586652
 20
5.2824967233
 10
8.2458247726
 20
5.2461667427
 10
8.2468861244
 20
5.2182440437
 10
8.2479312646
 20
5.1995422103
 10
8.2489747337
 20
5.1900811044
 10
8.2493928161
 20
5.1889383567
  0
LWPOLYLINE
  5
6CA
100
AcDbEntity
  8
0
100
AcDbPolyline
 62
7
  6
CONTINUOUS
 90
11
 70
0
 10
8.1985031259
 20
5.5979261307
 10
8.2005480279
 20
5.4847062832
 10
8.201611807
 20
5.4274396413
 10
8.2026733803
 20
5.3734968067
 10
8.2037199296
 20
5.3249109106
 10
8.2047684909
 20
5.2821269001
 10
8.2058188148
 20
5.2463475432
 10
8.206860414
 20
5.218816692
 10
8.2079023644
 20
5.1999369873
 10
8.2089596597
 20
5.1901507658
 10
8.2093928161
 20
5.1889383567
  0
LWPOLYLINE
  5
6CB
100
AcDbEntity
  8
0
100
AcDbPolyline
 62
7
  6
CONTINUOUS
 90
11
 70
0
 10
8.2025405685
 20
5.4851154702
 10
8.2004486804
 20
5.6009147745
 10
8.1993879142
 20
5.6580297025
 10
8.19832934
 20
5.7118482316
 10
8.1972853956
 20
5.7603646621
 10
8.1962342408
 20
5.8033180138
 10
8.1951737032
 20
5.8394726515
 10
8.1941183596
 20
5.8673001297
 10
8.1930768958
 20
5.8860442448
 10
8.1920223758
 20
5.8956857582
 10
8.1916009561
 20
5.8968437582
  0
LWPOLYLINE
  5
6CC
100
AcDbEntity
  8
0
100
AcDbPolyline
 62
7
  6
CONTINUOUS
 90
11
 70
0
 10
8.2425444707
 20
5.4849014062
 10
8.2404443096
 20
5.601154519
 10
8.2393791278
 20
5.6584916062
 10
8.2383162717
 20
5.7124864447
 10
8.2372687319
 20
5.7610950536
 10
8.2362239793
 20
5.8037041679
 10
8.2351808049
 20
5.839256861
 10
8.2341331453
 20
5.8669701843
 10
8.2330885275
 20
5.8858847888
 10
8.2320297734
 20
5.8956516042
 10
8.2316009561
 20
5.8968437582
  0
LINE
  5
6CD
100
AcDbEntity
  8
0
100
AcDbLine
 62
7
  6
CONTINUOUS
 10
8.2516009561
 20
5.1889383567
 11
8.2681055601
 21
5.2039404487
  0
LINE
  5
6CE
100
AcDbEntity
  8
0
100
AcDbLine
 62
7
  6
CONTINUOUS
 10
8.2916009561
 20
5.1889383567
 11
8.3081055601
 21
5.2039404487
  0
LINE
  5
6CF
100
AcDbEntity
  8
0
100
AcDbLine
 62
7
  6
CONTINUOUS
 10
8.3316009561
 20
5.1889383567
 11
8.3481055601
 21
5.2039404487
  0
LINE
  5
6D0
100
AcDbEntity
  8
0
100
AcDbLine
 62
7
  6
CONTINUOUS
 10
8.2516009561
 20
5.1889383567
 11
8.251497486
 21
5.188891059
  0
LINE
  5
6D1
100
AcDbEntity
  8
0
100
AcDbLine
 62
7
  6
CONTINUOUS
 10
8.1316009561
 20
5.1889383567
 11
8.131496882
 21
5.1888910575
  0
LINE
  5
6D2
100
AcDbEntity
  8
0
100
AcDbLine
 62
7
  6
CONTINUOUS
 10
8.1716009561
 20
5.1889383567
 11
8.1714968834
 21
5.1888910575
  0
LINE
  5
6D3
100
AcDbEntity
  8
0
100
AcDbLine
 62
7
  6
CONTINUOUS
 10
8.2916009561
 20
5.1889383567
 11
8.291496882
 21
5.1888910575
  0
LINE
  5
6D4
100
AcDbEntity
  8
0
100
AcDbLine
 62
7
  6
CONTINUOUS
 10
8.2116009561
 20
5.1889383567
 11
8.2114962813
 21
5.1888910591
  0
LINE
  5
6D5
100
AcDbEntity
  8
0
100
AcDbLine
 62
7
  6
CONTINUOUS
 10
8.131496882
 20
5.1888910575
 11
8.1309691574
 21
5.1901066432
  0
LINE
  5
6D6
100
AcDbEntity
  8
0
100
AcDbLine
 62
7
  6
CONTINUOUS
 10
8.091497486
 20
5.188891059
 11
8.090964721
 21
5.1901271555
  0
LINE
  5
6D7
100
AcDbEntity
  8
0
100
AcDbLine
 62
7
  6
CONTINUOUS
 10
8.1124563455
 20
5.2051123089
 11
8.1128882121
 21
5.2039404487
  0
LINE
  5
6D8
100
AcDbEntity
  8
0
100
AcDbLine
 62
7
  6
CONTINUOUS
 10
8.1524563455
 20
5.2051123089
 11
8.1528882121
 21
5.2039404487
  0
LINE
  5
6D9
100
AcDbEntity
  8
0
100
AcDbLine
 62
7
  6
CONTINUOUS
 10
8.0294968861
 20
5.8968910575
 11
8.0304918825
 21
5.8925761471
  0
LWPOLYLINE
  5
6DA
100
AcDbEntity
  8
0
100
AcDbPolyline
 62
7
  6
CONTINUOUS
 90
19
 70
0
 10
8.0129968861
 20
5.8818910575
 10
8.0140779671
 20
5.8770148511
 10
8.0151590482
 20
5.8625265115
 10
8.0162401293
 20
5.8388428418
 10
8.0173212104
 20
5.8066451782
 10
8.0184022915
 20
5.7668597887
 10
8.0194833726
 20
5.7206312266
 10
8.0205644536
 20
5.6692894034
 10
8.0216455347
 20
5.61431133
 10
8.0227266158
 20
5.5572786254
 10
8.0238076969
 20
5.4998320166
 10
8.024888778
 20
5.443624138
 10
8.025969859
 20
5.390271988
 10
8.0270509401
 20
5.3413104107
 10
8.0281320212
 20
5.2981479416
 10
8.0292131023
 20
5.2620262864
 10
8.0302941834
 20
5.2339845992
 10
8.0313752644
 20
5.2148295885
 10
8.0324563455
 20
5.2051123089
  0
LWPOLYLINE
  5
6DB
100
AcDbEntity
  8
0
100
AcDbPolyline
 62
7
  6
CONTINUOUS
 90
19
 70
0
 10
8.0529968861
 20
5.8818910575
 10
8.0540779671
 20
5.8770148511
 10
8.0551590482
 20
5.8625265115
 10
8.0562401293
 20
5.8388428418
 10
8.0573212104
 20
5.8066451782
 10
8.0584022915
 20
5.7668597887
 10
8.0594833726
 20
5.7206312266
 10
8.0605644536
 20
5.6692894034
 10
8.0616455347
 20
5.61431133
 10
8.0627266158
 20
5.5572786254
 10
8.0638076969
 20
5.4998320166
 10
8.064888778
 20
5.443624138
 10
8.065969859
 20
5.390271988
 10
8.0670509401
 20
5.3413104107
 10
8.0681320212
 20
5.2981479416
 10
8.0692131023
 20
5.2620262864
 10
8.0702941834
 20
5.2339845992
 10
8.0713752644
 20
5.2148295885
 10
8.0724563455
 20
5.2051123089
  0
LWPOLYLINE
  5
6DC
100
AcDbEntity
  8
0
100
AcDbPolyline
 62
7
  6
CONTINUOUS
 90
20
 70
0
 10
8.0081055601
 20
5.8818416662
 10
8.0090779671
 20
5.8770148511
 10
8.0101590482
 20
5.8625265115
 10
8.0112401293
 20
5.8388428418
 10
8.0123212104
 20
5.8066451782
 10
8.0134022915
 20
5.7668597887
 10
8.0144833726
 20
5.7206312266
 10
8.0155644536
 20
5.6692894034
 10
8.0166455347
 20
5.61431133
 10
8.0177266158
 20
5.5572786254
 10
8.0188076969
 20
5.4998320166
 10
8.019888778
 20
5.443624138
 10
8.020969859
 20
5.390271988
 10
8.0220509401
 20
5.3413104107
 10
8.0231320212
 20
5.2981479416
 10
8.0242131023
 20
5.2620262864
 10
8.0252941834
 20
5.2339845992
 10
8.0263752644
 20
5.2148295885
 10
8.0274563455
 20
5.2051123089
 10
8.0279968861
 20
5.2038910575
  0
LWPOLYLINE
  5
6DD
100
AcDbEntity
  8
0
100
AcDbPolyline
 62
7
  6
CONTINUOUS
 90
20
 70
0
 10
8.0481055601
 20
5.8818416662
 10
8.0490779671
 20
5.8770148511
 10
8.0501590482
 20
5.8625265115
 10
8.0512401293
 20
5.8388428418
 10
8.0523212104
 20
5.8066451782
 10
8.0534022915
 20
5.7668597887
 10
8.0544833726
 20
5.7206312266
 10
8.0555644536
 20
5.6692894034
 10
8.0566455347
 20
5.61431133
 10
8.0577266158
 20
5.5572786254
 10
8.0588076969
 20
5.4998320166
 10
8.059888778
 20
5.443624138
 10
8.060969859
 20
5.390271988
 10
8.0620509401
 20
5.3413104107
 10
8.0631320212
 20
5.2981479416
 10
8.0642131023
 20
5.2620262864
 10
8.0652941834
 20
5.2339845992
 10
8.0663752644
 20
5.2148295885
 10
8.0674563455
 20
5.2051123089
 10
8.0679968861
 20
5.2038910575
  0
LWPOLYLINE
  5
6DE
100
AcDbEntity
  8
0
100
AcDbPolyline
 62
7
  6
CONTINUOUS
 90
9
 70
0
 10
8.2109747337
 20
5.1900811044
 10
8.2099312646
 20
5.1995422103
 10
8.2088861244
 20
5.2182440437
 10
8.2078247726
 20
5.2461667427
 10
8.2067586652
 20
5.2824967233
 10
8.2057025751
 20
5.3256720848
 10
8.2046551171
 20
5.3743892367
 10
8.2035968339
 20
5.4282270351
 10
8.2025405685
 20
5.4851154702
  0
LWPOLYLINE
  5
6DF
100
AcDbEntity
  8
0
100
AcDbPolyline
 62
7
  6
CONTINUOUS
 90
10
 70
0
 10
8.2300223758
 20
5.8956857582
 10
8.2310768958
 20
5.8860442448
 10
8.2321183596
 20
5.8673001297
 10
8.2331737032
 20
5.8394726515
 10
8.2342342408
 20
5.8033180138
 10
8.2352853956
 20
5.7603646621
 10
8.23632934
 20
5.7118482316
 10
8.2373879142
 20
5.6580297025
 10
8.2384486804
 20
5.6009147745
 10
8.2405405685
 20
5.4851154702
  0
LWPOLYLINE
  5
6E0
100
AcDbEntity
  8
0
100
AcDbPolyline
 62
7
  6
CONTINUOUS
 90
10
 70
0
 10
8.2909691574
 20
5.1901066432
 10
8.2899116492
 20
5.1998093859
 10
8.2888671305
 20
5.2186665844
 10
8.2878135387
 20
5.2465078749
 10
8.2867611464
 20
5.2824032775
 10
8.2857198422
 20
5.3249147384
 10
8.2846736542
 20
5.3734834354
 10
8.2836119925
 20
5.4274298944
 10
8.28254812
 20
5.4847012319
 10
8.2804500343
 20
5.6008405065
  0
LWPOLYLINE
  5
6E1
100
AcDbEntity
  8
0
100
AcDbPolyline
 62
7
  6
CONTINUOUS
 90
9
 70
0
 10
8.250964721
 20
5.1901271555
 10
8.2499116282
 20
5.1998096741
 10
8.2488651938
 20
5.2187098315
 10
8.2478037518
 20
5.2468058205
 10
8.2467378471
 20
5.2832823332
 10
8.2456821746
 20
5.3265689265
 10
8.2446394236
 20
5.3751572003
 10
8.243595889
 20
5.4282767493
 10
8.2425444707
 20
5.4849014062
  0
LWPOLYLINE
  5
6E2
100
AcDbEntity
  8
0
100
AcDbPolyline
 62
7
  6
CONTINUOUS
 90
10
 70
0
 10
8.2805444707
 20
5.4849014062
 10
8.281595889
 20
5.4282767493
 10
8.2826394236
 20
5.3751572003
 10
8.2836821746
 20
5.3265689265
 10
8.2847378471
 20
5.2832823332
 10
8.2858037518
 20
5.2468058205
 10
8.2868651938
 20
5.2187098315
 10
8.2879116282
 20
5.1998096741
 10
8.288964721
 20
5.1901271555
 10
8.2893928161
 20
5.1889383567
  0
LWPOLYLINE
  5
6E3
100
AcDbEntity
  8
0
100
AcDbPolyline
 62
7
  6
CONTINUOUS
 90
10
 70
0
 10
8.2804500343
 20
5.6008405065
 10
8.2793929437
 20
5.657765202
 10
8.2783401824
 20
5.7113181845
 10
8.2773009876
 20
5.759679897
 10
8.2762496342
 20
5.8027374728
 10
8.2751882523
 20
5.8390301728
 10
8.2741313804
 20
5.8670096606
 10
8.27308888
 20
5.8858799387
 10
8.2720345447
 20
5.8956293226
 10
8.2716009561
 20
5.8968437582
  0
LWPOLYLINE
  5
6E4
100
AcDbEntity
  8
0
100
AcDbPolyline
 62
7
  6
CONTINUOUS
 90
10
 70
0
 10
8.3205031259
 20
5.5979261307
 10
8.3195099343
 20
5.6515927936
 10
8.3185121054
 20
5.7028491856
 10
8.3175163129
 20
5.7500921282
 10
8.3165149561
 20
5.7924953455
 10
8.3155011794
 20
5.8291426845
 10
8.3144876949
 20
5.8585390675
 10
8.3134873001
 20
5.8797294013
 10
8.3124918825
 20
5.8925761471
 10
8.3116009561
 20
5.8968437582
  0
LWPOLYLINE
  5
6E5
100
AcDbEntity
  8
0
100
AcDbPolyline
 62
7
  6
CONTINUOUS
 90
11
 70
0
 10
8.3184500343
 20
5.6008405065
 10
8.32054812
 20
5.4847012319
 10
8.3216119925
 20
5.4274298944
 10
8.3226736542
 20
5.3734834354
 10
8.3237198422
 20
5.3249147384
 10
8.3247611464
 20
5.2824032775
 10
8.3258135387
 20
5.2465078749
 10
8.3268671305
 20
5.2186665844
 10
8.3279116492
 20
5.1998093859
 10
8.3289691574
 20
5.1901066432
 10
8.3293928161
 20
5.1889383567
  0
LINE
  5
6E6
100
AcDbEntity
  8
0
100
AcDbLine
 62
7
  6
CONTINUOUS
 10
8.3716009561
 20
5.1889383567
 11
8.3881055601
 21
5.2039404487
  0
LINE
  5
6E7
100
AcDbEntity
  8
0
100
AcDbLine
 62
7
  6
CONTINUOUS
 10
8.4116009561
 20
5.1889383567
 11
8.4281055601
 21
5.2039404487
  0
LINE
  5
6E8
100
AcDbEntity
  8
0
100
AcDbLine
 62
7
  6
CONTINUOUS
 10
8.4516009561
 20
5.1889383567
 11
8.4681055601
 21
5.2039404487
  0
LINE
  5
6E9
100
AcDbEntity
  8
0
100
AcDbLine
 62
7
  6
CONTINUOUS
 10
8.4116009561
 20
5.1889383567
 11
8.411497486
 21
5.188891059
  0
LINE
  5
6EA
100
AcDbEntity
  8
0
100
AcDbLine
 62
7
  6
CONTINUOUS
 10
8.3316009561
 20
5.1889383567
 11
8.3314968834
 21
5.1888910575
  0
LINE
  5
6EB
100
AcDbEntity
  8
0
100
AcDbLine
 62
7
  6
CONTINUOUS
 10
8.4514968855
 20
5.1888910575
 11
8.4516009561
 21
5.1889383567
  0
LINE
  5
6EC
100
AcDbEntity
  8
0
100
AcDbLine
 62
7
  6
CONTINUOUS
 10
8.3716009561
 20
5.1889383567
 11
8.3714962813
 21
5.1888910591
  0
LINE
  5
6ED
100
AcDbEntity
  8
0
100
AcDbLine
 62
7
  6
CONTINUOUS
 10
7.9528882121
 20
5.2039404487
 11
7.9693928161
 21
5.1889383567
  0
LINE
  5
6EE
100
AcDbEntity
  8
0
100
AcDbLine
 62
7
  6
CONTINUOUS
 10
7.9928882121
 20
5.2039404487
 11
8.0093928161
 21
5.1889383567
  0
LINE
  5
6EF
100
AcDbEntity
  8
0
100
AcDbLine
 62
7
  6
CONTINUOUS
 10
8.0328882121
 20
5.2039404487
 11
8.0493928161
 21
5.1889383567
  0
LINE
  5
6F0
100
AcDbEntity
  8
0
100
AcDbLine
 62
7
  6
CONTINUOUS
 10
8.5264968861
 20
4.5678910575
 11
8.5553643995
 21
4.5178910575
  0
LINE
  5
6F1
100
AcDbEntity
  8
0
100
AcDbLine
 62
7
  6
CONTINUOUS
 10
8.2114962813
 20
5.1888910591
 11
8.2109747337
 21
5.1900811044
  0
LINE
  5
6F2
100
AcDbEntity
  8
0
100
AcDbLine
 62
7
  6
CONTINUOUS
 10
8.251497486
 20
5.188891059
 11
8.250964721
 21
5.1901271555
  0
LINE
  5
6F3
100
AcDbEntity
  8
0
100
AcDbLine
 62
7
  6
CONTINUOUS
 10
8.1714968834
 20
5.1888910575
 11
8.1709596597
 21
5.1901507658
  0
LINE
  5
6F4
100
AcDbEntity
  8
0
100
AcDbLine
 62
7
  6
CONTINUOUS
 10
7.9329968861
 20
5.8818910575
 11
7.9336416229
 21
5.8801540439
  0
LINE
  5
6F5
100
AcDbEntity
  8
0
100
AcDbLine
 62
7
  6
CONTINUOUS
 10
8.1924563455
 20
5.2051123089
 11
8.1928882121
 21
5.2039404487
  0
LINE
  5
6F6
100
AcDbEntity
  8
0
100
AcDbLine
 62
7
  6
CONTINUOUS
 10
8.2324563455
 20
5.2051123089
 11
8.2328882121
 21
5.2039404487
  0
LWPOLYLINE
  5
6F7
100
AcDbEntity
  8
0
100
AcDbPolyline
 62
7
  6
CONTINUOUS
 90
19
 70
0
 10
8.0929968861
 20
5.8818910575
 10
8.0940779671
 20
5.8770148511
 10
8.0951590482
 20
5.8625265115
 10
8.0962401293
 20
5.8388428418
 10
8.0973212104
 20
5.8066451782
 10
8.0984022915
 20
5.7668597887
 10
8.0994833726
 20
5.7206312266
 10
8.1005644536
 20
5.6692894034
 10
8.1016455347
 20
5.61431133
 10
8.1027266158
 20
5.5572786254
 10
8.1038076969
 20
5.4998320166
 10
8.104888778
 20
5.443624138
 10
8.105969859
 20
5.390271988
 10
8.1070509401
 20
5.3413104107
 10
8.1081320212
 20
5.2981479416
 10
8.1092131023
 20
5.2620262864
 10
8.1102941834
 20
5.2339845992
 10
8.1113752644
 20
5.2148295885
 10
8.1124563455
 20
5.2051123089
  0
LWPOLYLINE
  5
6F8
100
AcDbEntity
  8
0
100
AcDbPolyline
 62
7
  6
CONTINUOUS
 90
19
 70
0
 10
8.1329968861
 20
5.8818910575
 10
8.1340779671
 20
5.8770148511
 10
8.1351590482
 20
5.8625265115
 10
8.1362401293
 20
5.8388428418
 10
8.1373212104
 20
5.8066451782
 10
8.1384022915
 20
5.7668597887
 10
8.1394833726
 20
5.7206312266
 10
8.1405644536
 20
5.6692894034
 10
8.1416455347
 20
5.61431133
 10
8.1427266158
 20
5.5572786254
 10
8.1438076969
 20
5.4998320166
 10
8.144888778
 20
5.443624138
 10
8.145969859
 20
5.390271988
 10
8.1470509401
 20
5.3413104107
 10
8.1481320212
 20
5.2981479416
 10
8.1492131023
 20
5.2620262864
 10
8.1502941834
 20
5.2339845992
 10
8.1513752644
 20
5.2148295885
 10
8.1524563455
 20
5.2051123089
  0
LWPOLYLINE
  5
6F9
100
AcDbEntity
  8
0
100
AcDbPolyline
 62
7
  6
CONTINUOUS
 90
20
 70
0
 10
8.0881055601
 20
5.8818416662
 10
8.0890779671
 20
5.8770148511
 10
8.0901590482
 20
5.8625265115
 10
8.0912401293
 20
5.8388428418
 10
8.0923212104
 20
5.8066451782
 10
8.0934022915
 20
5.7668597887
 10
8.0944833726
 20
5.7206312266
 10
8.0955644536
 20
5.6692894034
 10
8.0966455347
 20
5.61431133
 10
8.0977266158
 20
5.5572786254
 10
8.0988076969
 20
5.4998320166
 10
8.099888778
 20
5.443624138
 10
8.100969859
 20
5.390271988
 10
8.1020509401
 20
5.3413104107
 10
8.1031320212
 20
5.2981479416
 10
8.1042131023
 20
5.2620262864
 10
8.1052941834
 20
5.2339845992
 10
8.1063752644
 20
5.2148295885
 10
8.1074563455
 20
5.2051123089
 10
8.1079968861
 20
5.2038910575
  0
LWPOLYLINE
  5
6FA
100
AcDbEntity
  8
0
100
AcDbPolyline
 62
7
  6
CONTINUOUS
 90
20
 70
0
 10
8.1281055601
 20
5.8818416662
 10
8.1290779671
 20
5.8770148511
 10
8.1301590482
 20
5.8625265115
 10
8.1312401293
 20
5.8388428418
 10
8.1323212104
 20
5.8066451782
 10
8.1334022915
 20
5.7668597887
 10
8.1344833726
 20
5.7206312266
 10
8.1355644536
 20
5.6692894034
 10
8.1366455347
 20
5.61431133
 10
8.1377266158
 20
5.5572786254
 10
8.1388076969
 20
5.4998320166
 10
8.139888778
 20
5.443624138
 10
8.140969859
 20
5.390271988
 10
8.1420509401
 20
5.3413104107
 10
8.1431320212
 20
5.2981479416
 10
8.1442131023
 20
5.2620262864
 10
8.1452941834
 20
5.2339845992
 10
8.1463752644
 20
5.2148295885
 10
8.1474563455
 20
5.2051123089
 10
8.1479968861
 20
5.2038910575
  0
LWPOLYLINE
  5
6FB
100
AcDbEntity
  8
0
100
AcDbPolyline
 62
7
  6
CONTINUOUS
 90
10
 70
0
 10
8.2700297734
 20
5.8956516042
 10
8.2710885275
 20
5.8858847888
 10
8.2721331453
 20
5.8669701843
 10
8.2731808049
 20
5.839256861
 10
8.2742239793
 20
5.8037041679
 10
8.2752687319
 20
5.7610950536
 10
8.2763162717
 20
5.7124864447
 10
8.2773791278
 20
5.6584916062
 10
8.2784443096
 20
5.601154519
 10
8.2805444707
 20
5.4849014062
  0
LWPOLYLINE
  5
6FC
100
AcDbEntity
  8
0
100
AcDbPolyline
 62
7
  6
CONTINUOUS
 90
9
 70
0
 10
8.3100345447
 20
5.8956293226
 10
8.31108888
 20
5.8858799387
 10
8.3121313804
 20
5.8670096606
 10
8.3131882523
 20
5.8390301728
 10
8.3142496342
 20
5.8027374728
 10
8.3153009876
 20
5.759679897
 10
8.3163401824
 20
5.7113181845
 10
8.3173929437
 20
5.657765202
 10
8.3184500343
 20
5.6008405065
  0
LWPOLYLINE
  5
6FD
100
AcDbEntity
  8
0
100
AcDbPolyline
 62
7
  6
CONTINUOUS
 90
10
 70
0
 10
8.3309596597
 20
5.1901507658
 10
8.3299023644
 20
5.1999369873
 10
8.328860414
 20
5.218816692
 10
8.3278188148
 20
5.2463475432
 10
8.3267684909
 20
5.2821269001
 10
8.3257199296
 20
5.3249109106
 10
8.3246733803
 20
5.3734968067
 10
8.323611807
 20
5.4274396413
 10
8.3225480279
 20
5.4847062832
 10
8.3205031259
 20
5.5979261307
  0
LWPOLYLINE
  5
6FE
100
AcDbEntity
  8
0
100
AcDbPolyline
 62
7
  6
CONTINUOUS
 90
9
 70
0
 10
8.3504918825
 20
5.8925761471
 10
8.3514873001
 20
5.8797294013
 10
8.3524876949
 20
5.8585390675
 10
8.3535011794
 20
5.8291426845
 10
8.3545149561
 20
5.7924953455
 10
8.3555163129
 20
5.7500921282
 10
8.3565121054
 20
5.7028491856
 10
8.3575099343
 20
5.6515927936
 10
8.3585031259
 20
5.5979261307
  0
LWPOLYLINE
  5
6FF
100
AcDbEntity
  8
0
100
AcDbPolyline
 62
7
  6
CONTINUOUS
 90
10
 70
0
 10
8.4005405685
 20
5.4851154702
 10
8.4015968339
 20
5.4282270351
 10
8.4026551171
 20
5.3743892367
 10
8.4037025751
 20
5.3256720848
 10
8.4047586652
 20
5.2824967233
 10
8.4058247726
 20
5.2461667427
 10
8.4068861244
 20
5.2182440437
 10
8.4079312646
 20
5.1995422103
 10
8.4089747337
 20
5.1900811044
 10
8.4093928161
 20
5.1889383567
  0
LWPOLYLINE
  5
700
100
AcDbEntity
  8
0
100
AcDbPolyline
 62
7
  6
CONTINUOUS
 90
11
 70
0
 10
8.3585031259
 20
5.5979261307
 10
8.3605480279
 20
5.4847062832
 10
8.361611807
 20
5.4274396413
 10
8.3626733803
 20
5.3734968067
 10
8.3637199296
 20
5.3249109106
 10
8.3647684909
 20
5.2821269001
 10
8.3658188148
 20
5.2463475432
 10
8.366860414
 20
5.218816692
 10
8.3679023644
 20
5.1999369873
 10
8.3689596597
 20
5.1901507658
 10
8.3693928161
 20
5.1889383567
  0
LWPOLYLINE
  5
701
100
AcDbEntity
  8
0
100
AcDbPolyline
 62
7
  6
CONTINUOUS
 90
11
 70
0
 10
8.3625405685
 20
5.4851154702
 10
8.3604486804
 20
5.6009147745
 10
8.3593879142
 20
5.6580297025
 10
8.35832934
 20
5.7118482316
 10
8.3572853956
 20
5.7603646621
 10
8.3562342408
 20
5.8033180138
 10
8.3551737032
 20
5.8394726515
 10
8.3541183596
 20
5.8673001297
 10
8.3530768958
 20
5.8860442448
 10
8.3520223758
 20
5.8956857582
 10
8.3516009561
 20
5.8968437582
  0
LWPOLYLINE
  5
702
100
AcDbEntity
  8
0
100
AcDbPolyline
 62
7
  6
CONTINUOUS
 90
11
 70
0
 10
8.4025444707
 20
5.4849014062
 10
8.4004443096
 20
5.601154519
 10
8.3993791278
 20
5.6584916062
 10
8.3983162717
 20
5.7124864447
 10
8.3972687319
 20
5.7610950536
 10
8.3962239793
 20
5.8037041679
 10
8.3951808049
 20
5.839256861
 10
8.3941331453
 20
5.8669701843
 10
8.3930885275
 20
5.8858847888
 10
8.3920297734
 20
5.8956516042
 10
8.3916009561
 20
5.8968437582
  0
LINE
  5
703
100
AcDbEntity
  8
0
100
AcDbLine
 62
7
  6
CONTINUOUS
 10
8.0728882121
 20
5.2039404487
 11
8.0893928161
 21
5.1889383567
  0
LINE
  5
704
100
AcDbEntity
  8
0
100
AcDbLine
 62
7
  6
CONTINUOUS
 10
8.1128882121
 20
5.2039404487
 11
8.1293928161
 21
5.1889383567
  0
LINE
  5
705
100
AcDbEntity
  8
0
100
AcDbLine
 62
7
  6
CONTINUOUS
 10
8.1528882121
 20
5.2039404487
 11
8.1693928161
 21
5.1889383567
  0
LWPOLYLINE
  5
706
100
AcDbEntity
  8
0
100
AcDbPolyline
 62
7
  6
CONTINUOUS
 90
11
 70
0
 10
7.9516009561
 20
5.8968437582
 10
7.9518538088
 20
5.8963348362
 10
7.952925278
 20
5.8880177591
 10
7.9539967151
 20
5.8699480491
 10
7.9550681862
 20
5.8426352244
 10
7.9561396695
 20
5.8068511139
 10
7.957211124
 20
5.7636085256
 10
7.9582825398
 20
5.7141304919
 10
7.9593539923
 20
5.659811767
 10
7.9604254571
 20
5.6021882816
 10
7.96254812
 20
5.4847012319
  0
LINE
  5
707
100
AcDbEntity
  8
0
100
AcDbLine
 62
7
  6
CONTINUOUS
 10
8.291496882
 20
5.1888910575
 11
8.2909691574
 21
5.1901066432
  0
LINE
  5
708
100
AcDbEntity
  8
0
100
AcDbLine
 62
7
  6
CONTINUOUS
 10
8.3314968834
 20
5.1888910575
 11
8.3309596597
 21
5.1901507658
  0
LINE
  5
709
100
AcDbEntity
  8
0
100
AcDbLine
 62
7
  6
CONTINUOUS
 10
7.9894968833
 20
5.8968910575
 11
7.9900345447
 21
5.8956293226
  0
LINE
  5
70A
100
AcDbEntity
  8
0
100
AcDbLine
 62
7
  6
CONTINUOUS
 10
8.2724563455
 20
5.2051123089
 11
8.2728882121
 21
5.2039404487
  0
LINE
  5
70B
100
AcDbEntity
  8
0
100
AcDbLine
 62
7
  6
CONTINUOUS
 10
8.3124563455
 20
5.2051123089
 11
8.3128882121
 21
5.2039404487
  0
LINE
  5
70C
100
AcDbEntity
  8
0
100
AcDbLine
 62
7
  6
CONTINUOUS
 10
8.3523224675
 20
5.2057915332
 11
8.3528882121
 21
5.2039404487
  0
LINE
  5
70D
100
AcDbEntity
  8
0
100
AcDbLine
 62
7
  6
CONTINUOUS
 10
8.1894968861
 20
5.8968910575
 11
8.1904918825
 21
5.8925761471
  0
LWPOLYLINE
  5
70E
100
AcDbEntity
  8
0
100
AcDbPolyline
 62
7
  6
CONTINUOUS
 90
19
 70
0
 10
8.1729968861
 20
5.8818910575
 10
8.1740779671
 20
5.8770148511
 10
8.1751590482
 20
5.8625265115
 10
8.1762401293
 20
5.8388428418
 10
8.1773212104
 20
5.8066451782
 10
8.1784022915
 20
5.7668597887
 10
8.1794833726
 20
5.7206312266
 10
8.1805644536
 20
5.6692894034
 10
8.1816455347
 20
5.61431133
 10
8.1827266158
 20
5.5572786254
 10
8.1838076969
 20
5.4998320166
 10
8.184888778
 20
5.443624138
 10
8.185969859
 20
5.390271988
 10
8.1870509401
 20
5.3413104107
 10
8.1881320212
 20
5.2981479416
 10
8.1892131023
 20
5.2620262864
 10
8.1902941834
 20
5.2339845992
 10
8.1913752644
 20
5.2148295885
 10
8.1924563455
 20
5.2051123089
  0
LWPOLYLINE
  5
70F
100
AcDbEntity
  8
0
100
AcDbPolyline
 62
7
  6
CONTINUOUS
 90
19
 70
0
 10
8.2129968861
 20
5.8818910575
 10
8.2140779671
 20
5.8770148511
 10
8.2151590482
 20
5.8625265115
 10
8.2162401293
 20
5.8388428418
 10
8.2173212104
 20
5.8066451782
 10
8.2184022915
 20
5.7668597887
 10
8.2194833726
 20
5.7206312266
 10
8.2205644536
 20
5.6692894034
 10
8.2216455347
 20
5.61431133
 10
8.2227266158
 20
5.5572786254
 10
8.2238076969
 20
5.4998320166
 10
8.224888778
 20
5.443624138
 10
8.225969859
 20
5.390271988
 10
8.2270509401
 20
5.3413104107
 10
8.2281320212
 20
5.2981479416
 10
8.2292131023
 20
5.2620262864
 10
8.2302941834
 20
5.2339845992
 10
8.2313752644
 20
5.2148295885
 10
8.2324563455
 20
5.2051123089
  0
LWPOLYLINE
  5
710
100
AcDbEntity
  8
0
100
AcDbPolyline
 62
7
  6
CONTINUOUS
 90
20
 70
0
 10
8.1681055601
 20
5.8818416662
 10
8.1690779671
 20
5.8770148511
 10
8.1701590482
 20
5.8625265115
 10
8.1712401293
 20
5.8388428418
 10
8.1723212104
 20
5.8066451782
 10
8.1734022915
 20
5.7668597887
 10
8.1744833726
 20
5.7206312266
 10
8.1755644536
 20
5.6692894034
 10
8.1766455347
 20
5.61431133
 10
8.1777266158
 20
5.5572786254
 10
8.1788076969
 20
5.4998320166
 10
8.179888778
 20
5.443624138
 10
8.180969859
 20
5.390271988
 10
8.1820509401
 20
5.3413104107
 10
8.1831320212
 20
5.2981479416
 10
8.1842131023
 20
5.2620262864
 10
8.1852941834
 20
5.2339845992
 10
8.1863752644
 20
5.2148295885
 10
8.1874563455
 20
5.2051123089
 10
8.1879968861
 20
5.2038910575
  0
LWPOLYLINE
  5
711
100
AcDbEntity
  8
0
100
AcDbPolyline
 62
7
  6
CONTINUOUS
 90
20
 70
0
 10
8.2081055601
 20
5.8818416662
 10
8.2090779671
 20
5.8770148511
 10
8.2101590482
 20
5.8625265115
 10
8.2112401293
 20
5.8388428418
 10
8.2123212104
 20
5.8066451782
 10
8.2134022915
 20
5.7668597887
 10
8.2144833726
 20
5.7206312266
 10
8.2155644536
 20
5.6692894034
 10
8.2166455347
 20
5.61431133
 10
8.2177266158
 20
5.5572786254
 10
8.2188076969
 20
5.4998320166
 10
8.219888778
 20
5.443624138
 10
8.220969859
 20
5.390271988
 10
8.2220509401
 20
5.3413104107
 10
8.2231320212
 20
5.2981479416
 10
8.2242131023
 20
5.2620262864
 10
8.2252941834
 20
5.2339845992
 10
8.2263752644
 20
5.2148295885
 10
8.2274563455
 20
5.2051123089
 10
8.2279968861
 20
5.2038910575
  0
LWPOLYLINE
  5
712
100
AcDbEntity
  8
0
100
AcDbPolyline
 62
7
  6
CONTINUOUS
 90
20
 70
0
 10
8.2481055601
 20
5.8818416662
 10
8.2490779671
 20
5.8770148511
 10
8.2501590482
 20
5.8625265115
 10
8.2512401293
 20
5.8388428418
 10
8.2523212104
 20
5.8066451782
 10
8.2534022915
 20
5.7668597887
 10
8.2544833726
 20
5.7206312266
 10
8.2555644536
 20
5.6692894034
 10
8.2566455347
 20
5.61431133
 10
8.2577266158
 20
5.5572786254
 10
8.2588076969
 20
5.4998320166
 10
8.259888778
 20
5.443624138
 10
8.260969859
 20
5.390271988
 10
8.2620509401
 20
5.3413104107
 10
8.2631320212
 20
5.2981479416
 10
8.2642131023
 20
5.2620262864
 10
8.2652941834
 20
5.2339845992
 10
8.2663752644
 20
5.2148295885
 10
8.2674563455
 20
5.2051123089
 10
8.2679968861
 20
5.2038910575
  0
LWPOLYLINE
  5
713
100
AcDbEntity
  8
0
100
AcDbPolyline
 62
7
  6
CONTINUOUS
 90
9
 70
0
 10
8.3709747337
 20
5.1900811044
 10
8.3699312646
 20
5.1995422103
 10
8.3688861244
 20
5.2182440437
 10
8.3678247726
 20
5.2461667427
 10
8.3667586652
 20
5.2824967233
 10
8.3657025751
 20
5.3256720848
 10
8.3646551171
 20
5.3743892367
 10
8.3635968339
 20
5.4282270351
 10
8.3625405685
 20
5.4851154702
  0
LWPOLYLINE
  5
714
100
AcDbEntity
  8
0
100
AcDbPolyline
 62
7
  6
CONTINUOUS
 90
10
 70
0
 10
8.3900223758
 20
5.8956857582
 10
8.3910768958
 20
5.8860442448
 10
8.3921183596
 20
5.8673001297
 10
8.3931737032
 20
5.8394726515
 10
8.3942342408
 20
5.8033180138
 10
8.3952853956
 20
5.7603646621
 10
8.39632934
 20
5.7118482316
 10
8.3973879142
 20
5.6580297025
 10
8.3984486804
 20
5.6009147745
 10
8.4005405685
 20
5.4851154702
  0
LWPOLYLINE
  5
715
100
AcDbEntity
  8
0
100
AcDbPolyline
 62
7
  6
CONTINUOUS
 90
9
 70
0
 10
8.410964721
 20
5.1901271555
 10
8.4099116282
 20
5.1998096741
 10
8.4088651938
 20
5.2187098315
 10
8.4078037518
 20
5.2468058205
 10
8.4067378471
 20
5.2832823332
 10
8.4056821746
 20
5.3265689265
 10
8.4046394236
 20
5.3751572003
 10
8.403595889
 20
5.4282767493
 10
8.4025444707
 20
5.4849014062
  0
LWPOLYLINE
  5
716
100
AcDbEntity
  8
0
100
AcDbPolyline
 62
7
  6
CONTINUOUS
 90
10
 70
0
 10
8.4404500343
 20
5.6008405065
 10
8.4393929437
 20
5.657765202
 10
8.4383401824
 20
5.7113181845
 10
8.4373009876
 20
5.759679897
 10
8.4362496342
 20
5.8027374728
 10
8.4351882523
 20
5.8390301728
 10
8.4341313804
 20
5.8670096606
 10
8.43308888
 20
5.8858799387
 10
8.4320345447
 20
5.8956293226
 10
8.4316009561
 20
5.8968437582
  0
LWPOLYLINE
  5
717
100
AcDbEntity
  8
0
100
AcDbPolyline
 62
7
  6
CONTINUOUS
 90
10
 70
0
 10
8.4404500343
 20
5.6008405065
 10
8.4425683292
 20
5.4835930541
 10
8.4436398158
 20
5.4259684591
 10
8.4447112955
 20
5.3716485507
 10
8.445782728
 20
5.3221701195
 10
8.4468541506
 20
5.278929224
 10
8.4479256079
 20
5.2431462425
 10
8.4489970697
 20
5.215833795
 10
8.4500685113
 20
5.1977641434
 10
8.4511399879
 20
5.1894472023
  0
LINE
  5
718
100
AcDbEntity
  8
0
100
AcDbLine
 62
7
  6
CONTINUOUS
 10
8.4714968861
 20
5.8968910575
 11
8.4714968861
 21
5.2038813059
  0
LINE
  5
719
100
AcDbEntity
  8
0
100
AcDbLine
 62
9
  6
CONTINUOUS
 10
8.5089968861
 20
5.2041410575
 11
8.5089968861
 21
5.8816410575
  0
LWPOLYLINE
  5
71A
100
AcDbEntity
  8
0
100
AcDbPolyline
 62
9
  6
CONTINUOUS
 90
6
 70
0
 10
8.8164968861
 20
4.9960099004
 10
8.7782820728
 20
4.9940797662
 10
8.7379504318
 20
4.9879014996
 10
8.697152063
 20
4.9774662354
 10
8.657672514
 20
4.9635735517
 10
8.6212151959
 20
4.9476566499
  0
LINE
  5
71B
100
AcDbEntity
  8
0
100
AcDbLine
 62
7
  6
CONTINUOUS
 10
9.1154968861
 20
4.9518910575
 11
9.1033390001
 21
4.9518910575
  0
LINE
  5
71C
100
AcDbEntity
  8
AXIS_COSMETIC_THREADS
100
AcDbLine
 62
7
  6
CONTINUOUS
 10
9.1033390001
 20
4.9518910575
 11
9.1154968861
 21
4.9518910575
  0
LINE
  5
71D
100
AcDbEntity
  8
0
100
AcDbLine
 62
7
  6
CONTINUOUS
 10
7.9693928161
 20
5.1889383567
 11
7.969497486
 21
5.188891059
  0
LINE
  5
71E
100
AcDbEntity
  8
0
100
AcDbLine
 62
7
  6
CONTINUOUS
 10
8.1293928161
 20
5.1889383567
 11
8.129497486
 21
5.188891059
  0
LINE
  5
71F
100
AcDbEntity
  8
0
100
AcDbLine
 62
7
  6
CONTINUOUS
 10
8.0093928161
 20
5.1889383567
 11
8.009496882
 21
5.1888910575
  0
LINE
  5
720
100
AcDbEntity
  8
0
100
AcDbLine
 62
7
  6
CONTINUOUS
 10
8.0493928161
 20
5.1889383567
 11
8.0494968834
 21
5.1888910575
  0
LINE
  5
721
100
AcDbEntity
  8
0
100
AcDbLine
 62
7
  6
CONTINUOUS
 10
8.0893928161
 20
5.1889383567
 11
8.0894962813
 21
5.1888910591
  0
LINE
  5
722
100
AcDbEntity
  8
0
100
AcDbLine
 62
7
  6
CONTINUOUS
 10
8.1928882121
 20
5.2039404487
 11
8.2093928161
 21
5.1889383567
  0
LINE
  5
723
100
AcDbEntity
  8
0
100
AcDbLine
 62
7
  6
CONTINUOUS
 10
8.2328882121
 20
5.2039404487
 11
8.2493928161
 21
5.1889383567
  0
LINE
  5
724
100
AcDbEntity
  8
0
100
AcDbLine
 62
7
  6
CONTINUOUS
 10
8.2728882121
 20
5.2039404487
 11
8.2893928161
 21
5.1889383567
  0
LINE
  5
725
100
AcDbEntity
  8
0
100
AcDbLine
 62
7
  6
CONTINUOUS
 10
8.3714962813
 20
5.1888910591
 11
8.3709747337
 21
5.1900811044
  0
LINE
  5
726
100
AcDbEntity
  8
0
100
AcDbLine
 62
7
  6
CONTINUOUS
 10
8.0694968826
 20
5.8968910575
 11
8.0700223758
 21
5.8956857582
  0
LINE
  5
727
100
AcDbEntity
  8
0
100
AcDbLine
 62
7
  6
CONTINUOUS
 10
8.411497486
 20
5.188891059
 11
8.410964721
 21
5.1901271555
  0
LINE
  5
728
100
AcDbEntity
  8
0
100
AcDbLine
 62
7
  6
CONTINUOUS
 10
8.1094968827
 20
5.8968910575
 11
8.1100297734
 21
5.8956516042
  0
LINE
  5
729
100
AcDbEntity
  8
0
100
AcDbLine
 62
7
  6
CONTINUOUS
 10
8.3920472737
 20
5.2076554665
 11
8.3928882121
 21
5.2039404487
  0
LWPOLYLINE
  5
72A
100
AcDbEntity
  8
0
100
AcDbPolyline
 62
7
  6
CONTINUOUS
 90
19
 70
0
 10
8.2529968861
 20
5.8818910575
 10
8.2540779671
 20
5.8770148511
 10
8.2551590482
 20
5.8625265115
 10
8.2562401293
 20
5.8388428418
 10
8.2573212104
 20
5.8066451782
 10
8.2584022915
 20
5.7668597887
 10
8.2594833726
 20
5.7206312266
 10
8.2605644536
 20
5.6692894034
 10
8.2616455347
 20
5.61431133
 10
8.2627266158
 20
5.5572786254
 10
8.2638076969
 20
5.4998320166
 10
8.264888778
 20
5.443624138
 10
8.265969859
 20
5.390271988
 10
8.2670509401
 20
5.3413104107
 10
8.2681320212
 20
5.2981479416
 10
8.2692131023
 20
5.2620262864
 10
8.2702941834
 20
5.2339845992
 10
8.2713752644
 20
5.2148295885
 10
8.2724563455
 20
5.2051123089
  0
LWPOLYLINE
  5
72B
100
AcDbEntity
  8
0
100
AcDbPolyline
 62
7
  6
CONTINUOUS
 90
19
 70
0
 10
8.2929968861
 20
5.8818910575
 10
8.2940779671
 20
5.8770148511
 10
8.2951590482
 20
5.8625265115
 10
8.2962401293
 20
5.8388428418
 10
8.2973212104
 20
5.8066451782
 10
8.2984022915
 20
5.7668597887
 10
8.2994833726
 20
5.7206312266
 10
8.3005644536
 20
5.6692894034
 10
8.3016455347
 20
5.61431133
 10
8.3027266158
 20
5.5572786254
 10
8.3038076969
 20
5.4998320166
 10
8.304888778
 20
5.443624138
 10
8.305969859
 20
5.390271988
 10
8.3070509401
 20
5.3413104107
 10
8.3081320212
 20
5.2981479416
 10
8.3092131023
 20
5.2620262864
 10
8.3102941834
 20
5.2339845992
 10
8.3113752644
 20
5.2148295885
 10
8.3124563455
 20
5.2051123089
  0
LWPOLYLINE
  5
72C
100
AcDbEntity
  8
0
100
AcDbPolyline
 62
7
  6
CONTINUOUS
 90
20
 70
0
 10
8.3281055601
 20
5.8818416662
 10
8.3290758334
 20
5.8770340342
 10
8.3301547808
 20
5.8626021425
 10
8.3312337282
 20
5.8390089282
 10
8.3323126755
 20
5.806930455
 10
8.3333916229
 20
5.7672859317
 10
8.3344705703
 20
5.7212113722
 10
8.3355495176
 20
5.6700270434
 10
8.336628465
 20
5.6151996323
 10
8.3377074124
 20
5.5583002187
 10
8.3387863598
 20
5.5009592555
 10
8.3398653071
 20
5.4448198482
 10
8.3409442545
 20
5.3914906719
 10
8.3420232019
 20
5.3424998744
 10
8.3431021492
 20
5.299251287
 10
8.3441810966
 20
5.2629841984
 10
8.345260044
 20
5.2347378421
 10
8.3463389913
 20
5.2153216175
 10
8.3474179387
 20
5.2052918967
 10
8.3479968861
 20
5.2038910575
  0
LWPOLYLINE
  5
72D
100
AcDbEntity
  8
0
100
AcDbPolyline
 62
7
  6
CONTINUOUS
 90
20
 70
0
 10
8.2881055601
 20
5.8818416662
 10
8.2890779671
 20
5.8770148511
 10
8.2901590482
 20
5.8625265115
 10
8.2912401293
 20
5.8388428418
 10
8.2923212104
 20
5.8066451782
 10
8.2934022915
 20
5.7668597887
 10
8.2944833726
 20
5.7206312266
 10
8.2955644536
 20
5.6692894034
 10
8.2966455347
 20
5.61431133
 10
8.2977266158
 20
5.5572786254
 10
8.2988076969
 20
5.4998320166
 10
8.299888778
 20
5.443624138
 10
8.300969859
 20
5.390271988
 10
8.3020509401
 20
5.3413104107
 10
8.3031320212
 20
5.2981479416
 10
8.3042131023
 20
5.2620262864
 10
8.3052941834
 20
5.2339845992
 10
8.3063752644
 20
5.2148295885
 10
8.3074563455
 20
5.2051123089
 10
8.3079968861
 20
5.2038910575
  0
LINE
  5
72E
100
AcDbEntity
  8
0
100
AcDbLine
 62
7
  6
CONTINUOUS
 10
8.4317720799
 20
5.2101457244
 11
8.4328882121
 21
5.2039404487
  0
LWPOLYLINE
  5
72F
100
AcDbEntity
  8
0
100
AcDbPolyline
 62
7
  6
CONTINUOUS
 90
9
 70
0
 10
8.4300297734
 20
5.8956516042
 10
8.4310885275
 20
5.8858847888
 10
8.4321331453
 20
5.8669701843
 10
8.4331808049
 20
5.839256861
 10
8.4342239793
 20
5.8037041679
 10
8.4352687319
 20
5.7610950536
 10
8.4363162717
 20
5.7124864447
 10
8.4373791278
 20
5.6584916062
 10
8.4384443096
 20
5.601154519
  0
LWPOLYLINE
  5
730
100
AcDbEntity
  8
0
100
AcDbPolyline
 62
7
  6
CONTINUOUS
 90
3
 70
0
 10
8.4714968861
 20
5.8795650642
 10
8.4704303674
 20
5.8930922612
 10
8.4694968872
 20
5.8968910575
  0
LINE
  5
731
100
AcDbEntity
  8
0
100
AcDbLine
 62
7
  6
CONTINUOUS
 10
8.5214968861
 20
4.6178910575
 11
8.5214968861
 21
6.0748864331
  0
LINE
  5
732
100
AcDbEntity
  8
0
100
AcDbLine
 62
7
  6
CONTINUOUS
 10
8.5264968861
 20
4.6178910575
 11
8.5264968861
 21
4.5678910575
  0
LINE
  5
733
100
AcDbEntity
  8
0
100
AcDbLine
 62
9
  6
CONTINUOUS
 10
8.5814968861
 20
5.0024328223
 11
8.5814968861
 21
6.1348910575
  0
LWPOLYLINE
  5
734
100
AcDbEntity
  8
0
100
AcDbPolyline
 62
9
  6
CONTINUOUS
 90
6
 70
0
 10
8.8164968861
 20
5.0463363872
 10
8.7705095684
 20
5.0445838728
 10
8.7219748818
 20
5.0389741583
 10
8.6728785396
 20
5.0294991945
 10
8.6253692519
 20
5.0168849786
 10
8.5814968861
 20
5.0024328223
  0
LINE
  5
735
100
AcDbEntity
  8
0
100
AcDbLine
 62
7
  6
CONTINUOUS
 10
8.2893928161
 20
5.1889383567
 11
8.289497486
 21
5.188891059
  0
LINE
  5
736
100
AcDbEntity
  8
0
100
AcDbLine
 62
7
  6
CONTINUOUS
 10
8.1693928161
 20
5.1889383567
 11
8.169496882
 21
5.1888910575
  0
LINE
  5
737
100
AcDbEntity
  8
0
100
AcDbLine
 62
7
  6
CONTINUOUS
 10
8.2093928161
 20
5.1889383567
 11
8.2094968834
 21
5.1888910575
  0
LINE
  5
738
100
AcDbEntity
  8
0
100
AcDbLine
 62
7
  6
CONTINUOUS
 10
8.3293928161
 20
5.1889383567
 11
8.329496882
 21
5.1888910575
  0
LINE
  5
739
100
AcDbEntity
  8
0
100
AcDbLine
 62
7
  6
CONTINUOUS
 10
8.2493928161
 20
5.1889383567
 11
8.2494962813
 21
5.1888910591
  0
LWPOLYLINE
  5
73A
100
AcDbEntity
  8
0
100
AcDbPolyline
 62
9
  6
CONTINUOUS
 90
6
 70
0
 10
8.5814968861
 20
5.0024328223
 10
8.5918983095
 20
4.9963151053
 10
8.6016427626
 20
4.9871240434
 10
8.6101147703
 20
4.9754401586
 10
8.6167792273
 20
4.9620014235
 10
8.6212151959
 20
4.9476566499
  0
LINE
  5
73B
100
AcDbEntity
  8
0
100
AcDbLine
 62
7
  6
CONTINUOUS
 10
8.3128882121
 20
5.2039404487
 11
8.3293928161
 21
5.1889383567
  0
LINE
  5
73C
100
AcDbEntity
  8
0
100
AcDbLine
 62
7
  6
CONTINUOUS
 10
8.3528882121
 20
5.2039404487
 11
8.3693928161
 21
5.1889383567
  0
LINE
  5
73D
100
AcDbEntity
  8
0
100
AcDbLine
 62
7
  6
CONTINUOUS
 10
8.3928882121
 20
5.2039404487
 11
8.4093928161
 21
5.1889383567
  0
LINE
  5
73E
100
AcDbEntity
  8
0
100
AcDbLine
 62
7
  6
CONTINUOUS
 10
8.4328882121
 20
5.2039404487
 11
8.4493928161
 21
5.1889383567
  0
LINE
  5
73F
100
AcDbEntity
  8
0
100
AcDbLine
 62
7
  6
CONTINUOUS
 10
7.949804399
 20
5.8964781474
 11
7.9494968867
 21
5.8968910575
  0
LWPOLYLINE
  5
740
100
AcDbEntity
  8
0
100
AcDbPolyline
 62
7
  6
CONTINUOUS
 90
19
 70
0
 10
7.9729968861
 20
5.8818910575
 10
7.9733192545
 20
5.8814565256
 10
7.9743916229
 20
5.8737878642
 10
7.9754639913
 20
5.8567523604
 10
7.9765363598
 20
5.8308322457
 10
7.9776087282
 20
5.7967612524
 10
7.9786810966
 20
5.755503843
 10
7.979753465
 20
5.7082279094
 10
7.9808258334
 20
5.6562717123
 10
7.9818982019
 20
5.6011059988
 10
7.9829705703
 20
5.5442923691
 10
7.9840429387
 20
5.487439072
 10
7.9851153071
 20
5.4321554787
 10
7.9861876755
 20
5.3800065265
 10
7.987260044
 20
5.3324684189
 10
7.9883324124
 20
5.290886838
 10
7.9894047808
 20
5.2564388521
 10
7.9904771492
 20
5.2300995957
 10
7.9915495176
 20
5.2126146656
  0
LINE
  5
741
100
AcDbEntity
  8
0
100
AcDbLine
 62
7
  6
CONTINUOUS
 10
8.4511399879
 20
5.1894472023
 11
8.4514968855
 21
5.1888910575
  0
LWPOLYLINE
  5
742
100
AcDbEntity
  8
0
100
AcDbPolyline
 62
7
  6
CONTINUOUS
 90
11
 70
0
 10
8.4493928161
 20
5.1889383567
 10
8.4490971742
 20
5.1895885898
 10
8.4480304679
 20
5.1982409707
 10
8.446963781
 20
5.2165465833
 10
8.4458970532
 20
5.2439939927
 10
8.444830312
 20
5.2798143426
 10
8.4437636007
 20
5.3230026529
 10
8.442696929
 20
5.3723481662
 10
8.4416302583
 20
5.4264702207
 10
8.440563565
 20
5.4838542488
 10
8.4384443096
 20
5.601154519
  0
LINE
  5
743
100
AcDbEntity
  8
0
100
AcDbLine
 62
7
  6
CONTINUOUS
 10
8.1494968833
 20
5.8968910575
 11
8.1500345447
 21
5.8956293226
  0
LINE
  5
744
100
AcDbEntity
  8
0
100
AcDbLine
 62
7
  6
CONTINUOUS
 10
8.3494968861
 20
5.8968910575
 11
8.3504918825
 21
5.8925761471
  0
LWPOLYLINE
  5
745
100
AcDbEntity
  8
0
100
AcDbPolyline
 62
7
  6
CONTINUOUS
 90
19
 70
0
 10
8.3329968861
 20
5.8818910575
 10
8.3340705295
 20
5.8770815568
 10
8.3351441729
 20
5.8627895226
 10
8.3362178163
 20
5.8394204862
 10
8.3372914597
 20
5.8076375355
 10
8.3383651031
 20
5.7683425
 10
8.3394387465
 20
5.722650362
 10
8.3405123899
 20
5.6718576194
 10
8.3415860334
 20
5.6174054976
 10
8.3426596768
 20
5.5608390558
 10
8.3437333202
 20
5.5037633461
 10
8.3448069636
 20
5.4477978709
 10
8.345880607
 20
5.3945306302
 10
8.3469542504
 20
5.3454730625
 10
8.3480278938
 20
5.3020171583
 10
8.3491015372
 20
5.2653959632
 10
8.3501751806
 20
5.2366485902
 10
8.3512488241
 20
5.2165907354
 10
8.3523224675
 20
5.2057915332
  0
LWPOLYLINE
  5
746
100
AcDbEntity
  8
0
100
AcDbPolyline
 62
7
  6
CONTINUOUS
 90
20
 70
0
 10
8.3681055601
 20
5.8818416662
 10
8.3689968861
 20
5.8777174049
 10
8.3700758334
 20
5.8639753682
 10
8.3711547808
 20
5.8410326591
 10
8.3722337282
 20
5.8095467011
 10
8.3733126755
 20
5.7704197245
 10
8.3743916229
 20
5.7247729128
 10
8.3754705703
 20
5.6739142759
 10
8.3765495176
 20
5.619301168
 10
8.377628465
 20
5.562498528
 10
8.3787074124
 20
5.5051340359
 10
8.3797863598
 20
5.4488514714
 10
8.3808653071
 20
5.3952636117
 10
8.3819442545
 20
5.345906017
 10
8.3830232019
 20
5.3021930296
 10
8.3841021492
 20
5.2653772453
 10
8.3851810966
 20
5.2365136205
 10
8.386260044
 20
5.2164292425
 10
8.3873389913
 20
5.2056996292
 10
8.3879968861
 20
5.2038910575
  0
LWPOLYLINE
  5
747
100
AcDbEntity
  8
0
100
AcDbPolyline
 62
7
  6
CONTINUOUS
 90
8
 70
0
 10
8.5214968861
 20
5.0108910575
 10
8.5233288946
 20
4.998426724
 10
8.5284633948
 20
4.9907370969
 10
8.5361821885
 20
4.9870894401
 10
8.5457656679
 20
4.9867767764
 10
8.556676729
 20
4.9892975868
 10
8.568620043
 20
4.9944549555
 10
8.5814968861
 20
5.0024328223
  0
LWPOLYLINE
  5
748
100
AcDbEntity
  8
0
100
AcDbPolyline
 62
9
  6
CONTINUOUS
 90
8
 70
0
 10
8.5214968861
 20
5.0108910575
 10
8.5245416327
 20
4.983773831
 10
8.5330750274
 20
4.9630717816
 10
8.5459034451
 20
4.948831522
 10
8.5618309178
 20
4.9405773277
 10
8.5799647941
 20
4.9377478553
 10
8.5998142455
 20
4.9400368857
 10
8.6212151959
 20
4.9476566499
  0
LWPOLYLINE
  5
749
100
AcDbEntity
  8
0
100
AcDbPolyline
 62
9
  6
CONTINUOUS
 90
7
 70
0
 10
8.9614968861
 20
5.0095393911
 10
8.943049922
 20
5.0041909029
 10
8.9215519659
 20
5.0002754872
 10
8.8974668406
 20
4.9978429449
 10
8.8714224243
 20
4.9966058697
 10
8.8441746294
 20
4.996121816
 10
8.8164968861
 20
4.9960099004
  0
LINE
  5
74A
100
AcDbEntity
  8
0
100
AcDbLine
 62
7
  6
CONTINUOUS
 10
8.4514968861
 20
5.1888910575
 11
8.4494968861
 21
5.1888910575
  0
LINE
  5
74B
100
AcDbEntity
  8
0
100
AcDbLine
 62
7
  6
CONTINUOUS
 10
8.4114968861
 20
5.1888910575
 11
8.4094968861
 21
5.1888910575
  0
LINE
  5
74C
100
AcDbEntity
  8
0
100
AcDbLine
 62
7
  6
CONTINUOUS
 10
8.3714968861
 20
5.1888910575
 11
8.3694968861
 21
5.1888910575
  0
LINE
  5
74D
100
AcDbEntity
  8
0
100
AcDbLine
 62
7
  6
CONTINUOUS
 10
8.3314968861
 20
5.1888910575
 11
8.3294968861
 21
5.1888910575
  0
LINE
  5
74E
100
AcDbEntity
  8
0
100
AcDbLine
 62
7
  6
CONTINUOUS
 10
8.2914968861
 20
5.1888910575
 11
8.2894968861
 21
5.1888910575
  0
LINE
  5
74F
100
AcDbEntity
  8
0
100
AcDbLine
 62
7
  6
CONTINUOUS
 10
8.2514968861
 20
5.1888910575
 11
8.2494968861
 21
5.1888910575
  0
LINE
  5
750
100
AcDbEntity
  8
0
100
AcDbLine
 62
7
  6
CONTINUOUS
 10
8.2114968861
 20
5.1888910575
 11
8.2094968861
 21
5.1888910575
  0
LINE
  5
751
100
AcDbEntity
  8
0
100
AcDbLine
 62
7
  6
CONTINUOUS
 10
8.1714968861
 20
5.1888910575
 11
8.1694968861
 21
5.1888910575
  0
LINE
  5
752
100
AcDbEntity
  8
0
100
AcDbLine
 62
7
  6
CONTINUOUS
 10
8.1314968861
 20
5.1888910575
 11
8.1294968861
 21
5.1888910575
  0
LINE
  5
753
100
AcDbEntity
  8
0
100
AcDbLine
 62
7
  6
CONTINUOUS
 10
8.0914968861
 20
5.1888910575
 11
8.0894968861
 21
5.1888910575
  0
LINE
  5
754
100
AcDbEntity
  8
0
100
AcDbLine
 62
7
  6
CONTINUOUS
 10
8.0514968861
 20
5.1888910575
 11
8.0494968861
 21
5.1888910575
  0
LINE
  5
755
100
AcDbEntity
  8
0
100
AcDbLine
 62
7
  6
CONTINUOUS
 10
8.0114968861
 20
5.1888910575
 11
8.0094968861
 21
5.1888910575
  0
LINE
  5
756
100
AcDbEntity
  8
0
100
AcDbLine
 62
7
  6
CONTINUOUS
 10
7.9714968861
 20
5.1888910575
 11
7.9694968861
 21
5.1888910575
  0
LWPOLYLINE
  5
757
100
AcDbEntity
  8
0
100
AcDbPolyline
 62
7
  6
CONTINUOUS
 90
3
 70
0
 10
8.9614968861
 20
5.006211451
 10
9.0022696833
 20
4.9937903999
 10
9.0382017595
 20
4.9806161684
  0
LWPOLYLINE
  5
758
100
AcDbEntity
  8
0
100
AcDbPolyline
 62
7
  6
CONTINUOUS
 90
5
 70
0
 10
9.0382017595
 20
4.9806161684
 10
9.0674809486
 20
4.9684408859
 10
9.0892849282
 20
4.9585852164
 10
9.1035784353
 20
4.951777011
 10
9.1106219605
 20
4.9483243586
  0
LINE
  5
759
100
AcDbEntity
  8
0
100
AcDbLine
 62
7
  6
CONTINUOUS
 10
8.3693928161
 20
5.1889383567
 11
8.3694968834
 21
5.1888910575
  0
LINE
  5
75A
100
AcDbEntity
  8
0
100
AcDbLine
 62
7
  6
CONTINUOUS
 10
8.449496887
 20
5.1888910575
 11
8.4493928161
 21
5.1889383567
  0
LINE
  5
75B
100
AcDbEntity
  8
0
100
AcDbLine
 62
7
  6
CONTINUOUS
 10
8.4093928161
 20
5.1889383567
 11
8.4094962813
 21
5.1888910591
  0
LINE
  5
75C
100
AcDbEntity
  8
0
100
AcDbLine
 62
7
  6
CONTINUOUS
 10
8.2294968826
 20
5.8968910575
 11
8.2300223758
 21
5.8956857582
  0
LINE
  5
75D
100
AcDbEntity
  8
0
100
AcDbLine
 62
7
  6
CONTINUOUS
 10
8.2694968827
 20
5.8968910575
 11
8.2700297734
 21
5.8956516042
  0
LINE
  5
75E
100
AcDbEntity
  8
0
100
AcDbLine
 62
7
  6
CONTINUOUS
 10
8.3094968833
 20
5.8968910575
 11
8.3100345447
 21
5.8956293226
  0
LWPOLYLINE
  5
75F
100
AcDbEntity
  8
0
100
AcDbPolyline
 62
7
  6
CONTINUOUS
 90
19
 70
0
 10
8.3729968861
 20
5.8818910575
 10
8.3737953357
 20
5.8792282785
 10
8.3748689791
 20
5.8673387325
 10
8.3759426225
 20
5.8462431021
 10
8.3770162659
 20
5.8165399681
 10
8.3780899093
 20
5.779072146
 10
8.3791635527
 20
5.7349027718
 10
8.3802371961
 20
5.6852851352
 10
8.3813108396
 20
5.6316271186
 10
8.382384483
 20
5.5754512486
 10
8.3834581264
 20
5.5183514951
 10
8.3845317698
 20
5.4619480427
 10
8.3856054132
 20
5.4078413188
 10
8.3866790566
 20
5.357566582
 10
8.3877527
 20
5.3125503596
 10
8.3888263434
 20
5.2740699705
 10
8.3898999868
 20
5.2432172816
 10
8.3909736303
 20
5.2208677268
 10
8.3920472737
 20
5.2076554665
  0
LWPOLYLINE
  5
760
100
AcDbEntity
  8
0
100
AcDbPolyline
 62
7
  6
CONTINUOUS
 90
20
 70
0
 10
8.4481055601
 20
5.8818416662
 10
8.4488389913
 20
5.878929577
 10
8.4499179387
 20
5.8665734837
 10
8.4509968861
 20
5.8449422692
 10
8.4520758334
 20
5.8146557758
 10
8.4531547808
 20
5.7765818632
 10
8.4542337282
 20
5.7318115395
 10
8.4553126755
 20
5.6816276985
 10
8.4563916229
 20
5.6274683585
 10
8.4574705703
 20
5.5708854556
 10
8.4585495176
 20
5.513500373
 10
8.459628465
 20
5.4569574807
 10
8.4607074124
 20
5.4028770154
 10
8.4617863598
 20
5.352808653
 10
8.4628653071
 20
5.3081871028
 10
8.4639442545
 20
5.2702909955
 10
8.4650232019
 20
5.2402062442
 10
8.4661021492
 20
5.2187949275
 10
8.4671810966
 20
5.2066705869
 10
8.4679968861
 20
5.2038910575
  0
LWPOLYLINE
  5
761
100
AcDbEntity
  8
0
100
AcDbPolyline
 62
7
  6
CONTINUOUS
 90
20
 70
0
 10
8.4081055601
 20
5.8818416662
 10
8.4089179387
 20
5.8783492849
 10
8.4099968861
 20
5.8652992165
 10
8.4110758334
 20
5.8430105408
 10
8.4121547808
 20
5.8121219401
 10
8.4132337282
 20
5.7735185272
 10
8.4143126755
 20
5.7283064831
 10
8.4153916229
 20
5.6777813591
 10
8.4164705703
 20
5.623390953
 10
8.4175495176
 20
5.566693822
 10
8.418628465
 20
5.5093146227
 10
8.4197074124
 20
5.4528975563
 10
8.4207863598
 20
5.399059254
 10
8.4218653071
 20
5.3493424528
 10
8.4229442545
 20
5.3051717876
 10
8.4240232019
 20
5.2678129692
 10
8.4251021492
 20
5.2383365146
 10
8.4261810966
 20
5.2175870718
 10
8.427260044
 20
5.2061592162
 10
8.4279968861
 20
5.2038910575
  0
LINE
  5
762
100
AcDbEntity
  8
AXIS_COSMETIC_THREADS
100
AcDbLine
 62
7
  6
CONTINUOUS
 10
8.6999968861
 20
4.5178910575
 11
8.6999968861
 21
3.8828516874
  0
LINE
  5
763
100
AcDbEntity
  8
0
100
AcDbLine
 62
7
  6
CONTINUOUS
 10
7.9479968861
 20
5.2038910575
 11
7.9529968861
 21
5.2038910575
  0
LINE
  5
764
100
AcDbEntity
  8
0
100
AcDbLine
 62
7
  6
CONTINUOUS
 10
7.9879968861
 20
5.2038910575
 11
7.9929968861
 21
5.2038910575
  0
LINE
  5
765
100
AcDbEntity
  8
0
100
AcDbLine
 62
7
  6
CONTINUOUS
 10
8.0279968861
 20
5.2038910575
 11
8.0329968861
 21
5.2038910575
  0
LINE
  5
766
100
AcDbEntity
  8
0
100
AcDbLine
 62
7
  6
CONTINUOUS
 10
8.0679968861
 20
5.2038910575
 11
8.0729968861
 21
5.2038910575
  0
LINE
  5
767
100
AcDbEntity
  8
0
100
AcDbLine
 62
7
  6
CONTINUOUS
 10
8.1079968861
 20
5.2038910575
 11
8.1129968861
 21
5.2038910575
  0
LINE
  5
768
100
AcDbEntity
  8
0
100
AcDbLine
 62
7
  6
CONTINUOUS
 10
8.1479968861
 20
5.2038910575
 11
8.1529968861
 21
5.2038910575
  0
LINE
  5
769
100
AcDbEntity
  8
0
100
AcDbLine
 62
7
  6
CONTINUOUS
 10
8.1879968861
 20
5.2038910575
 11
8.1929968861
 21
5.2038910575
  0
LINE
  5
76A
100
AcDbEntity
  8
0
100
AcDbLine
 62
7
  6
CONTINUOUS
 10
8.2279968861
 20
5.2038910575
 11
8.2329968861
 21
5.2038910575
  0
LINE
  5
76B
100
AcDbEntity
  8
0
100
AcDbLine
 62
7
  6
CONTINUOUS
 10
8.2679968861
 20
5.2038910575
 11
8.2729968861
 21
5.2038910575
  0
LINE
  5
76C
100
AcDbEntity
  8
0
100
AcDbLine
 62
7
  6
CONTINUOUS
 10
8.3079968861
 20
5.2038910575
 11
8.3129968861
 21
5.2038910575
  0
LINE
  5
76D
100
AcDbEntity
  8
0
100
AcDbLine
 62
7
  6
CONTINUOUS
 10
8.3479968861
 20
5.2038910575
 11
8.3529968861
 21
5.2038910575
  0
LINE
  5
76E
100
AcDbEntity
  8
0
100
AcDbLine
 62
7
  6
CONTINUOUS
 10
8.3879968861
 20
5.2038910575
 11
8.3929968861
 21
5.2038910575
  0
LINE
  5
76F
100
AcDbEntity
  8
0
100
AcDbLine
 62
7
  6
CONTINUOUS
 10
8.4279968861
 20
5.2038910575
 11
8.4329968861
 21
5.2038910575
  0
LINE
  5
770
100
AcDbEntity
  8
0
100
AcDbLine
 62
7
  6
CONTINUOUS
 10
8.4679968861
 20
5.2038910575
 11
8.4714968861
 21
5.2038910575
  0
LINE
  5
771
100
AcDbEntity
  8
0
100
AcDbLine
 62
7
  6
CONTINUOUS
 10
8.5089968861
 20
5.2041410575
 11
8.4714968861
 21
5.2041410575
  0
LINE
  5
772
100
AcDbEntity
  8
0
100
AcDbLine
 62
7
  6
CONTINUOUS
 10
9.1106219605
 20
4.9483243586
 11
9.1114968861
 21
4.9478927798
  0
LWPOLYLINE
  5
773
100
AcDbEntity
  8
0
100
AcDbPolyline
 62
9
  6
CONTINUOUS
 90
7
 70
0
 10
8.9614968861
 20
5.0095393911
 10
8.9495836397
 20
5.0177023443
 10
8.9321181922
 20
5.026173019
 10
8.9090520014
 20
5.0341176922
 10
8.8810820358
 20
5.04062297
 10
8.8496114536
 20
5.0448704811
 10
8.8164968861
 20
5.0463363872
  0
LINE
  5
774
100
AcDbEntity
  8
0
100
AcDbLine
 62
7
  6
CONTINUOUS
 10
8.3894968826
 20
5.8968910575
 11
8.3900223758
 21
5.8956857582
  0
LINE
  5
775
100
AcDbEntity
  8
0
100
AcDbLine
 62
7
  6
CONTINUOUS
 10
7.9681055601
 20
5.8818416662
 11
7.9516009561
 21
5.8968437582
  0
LINE
  5
776
100
AcDbEntity
  8
0
100
AcDbLine
 62
7
  6
CONTINUOUS
 10
8.0081055601
 20
5.8818416662
 11
7.9916009561
 21
5.8968437582
  0
LINE
  5
777
100
AcDbEntity
  8
0
100
AcDbLine
 62
7
  6
CONTINUOUS
 10
8.0481055601
 20
5.8818416662
 11
8.0316009561
 21
5.8968437582
  0
LWPOLYLINE
  5
778
100
AcDbEntity
  8
0
100
AcDbPolyline
 62
7
  6
CONTINUOUS
 90
19
 70
0
 10
8.4129968861
 20
5.8818910575
 10
8.4135201419
 20
5.8807466174
 10
8.4145937853
 20
5.8712817729
 10
8.4156674287
 20
5.8524989617
 10
8.4167410721
 20
5.8249311391
 10
8.4178147155
 20
5.7893605321
 10
8.4188883589
 20
5.7467964438
 10
8.4199620023
 20
5.6984466144
 10
8.4210356458
 20
5.6456829529
 10
8.4221092892
 20
5.5900026088
 10
8.4231829326
 20
5.5329854917
 10
8.424256576
 20
5.4762494413
 10
8.4253302194
 20
5.4214043226
 10
8.4264038628
 20
5.3700063456
 10
8.4274775062
 20
5.3235139092
 10
8.4285511496
 20
5.2832462194
 10
8.429624793
 20
5.2503458571
 10
8.4306984365
 20
5.2257463582
 10
8.4317720799
 20
5.2101457244
  0
LINE
  5
779
100
AcDbEntity
  8
0
100
AcDbLine
 62
7
  6
CONTINUOUS
 10
8.4294968827
 20
5.8968910575
 11
8.4300297734
 21
5.8956516042
  0
LINE
  5
77A
100
AcDbEntity
  8
AXIS_COSMETIC_THREADS
100
AcDbLine
 62
7
  6
CONTINUOUS
 10
8.9329968861
 20
4.5178910575
 11
8.9329968861
 21
3.8828516874
  0
LINE
  5
77B
100
AcDbEntity
  8
0
100
AcDbLine
 62
7
  6
CONTINUOUS
 10
7.9314968861
 20
5.3928910575
 11
7.8914968861
 21
5.3928910575
  0
LINE
  5
77C
100
AcDbEntity
  8
0
100
AcDbLine
 62
7
  6
CONTINUOUS
 10
8.0881055601
 20
5.8818416662
 11
8.0716009561
 21
5.8968437582
  0
LINE
  5
77D
100
AcDbEntity
  8
0
100
AcDbLine
 62
7
  6
CONTINUOUS
 10
8.1281055601
 20
5.8818416662
 11
8.1116009561
 21
5.8968437582
  0
LINE
  5
77E
100
AcDbEntity
  8
0
100
AcDbLine
 62
7
  6
CONTINUOUS
 10
8.1681055601
 20
5.8818416662
 11
8.1516009561
 21
5.8968437582
  0
LINE
  5
77F
100
AcDbEntity
  8
0
100
AcDbLine
 62
9
  6
CONTINUOUS
 10
9.1153301382
 20
4.9520803533
 11
9.1154968861
 21
4.9518910575
  0
LINE
  5
780
100
AcDbEntity
  8
0
100
AcDbLine
 62
7
  6
CONTINUOUS
 10
8.9614968861
 20
5.006211451
 11
8.9614968861
 21
6.1348848365
  0
LINE
  5
781
100
AcDbEntity
  8
AXIS_COSMETIC_THREADS
100
AcDbLine
 62
7
  6
CONTINUOUS
 10
8.9764968861
 20
5.0016418414
 11
8.9764968861
 21
6.1338910575
  0
LINE
  5
782
100
AcDbEntity
  8
0
100
AcDbLine
 62
7
  6
CONTINUOUS
 10
8.2081055601
 20
5.8818416662
 11
8.1916009561
 21
5.8968437582
  0
LINE
  5
783
100
AcDbEntity
  8
0
100
AcDbLine
 62
7
  6
CONTINUOUS
 10
8.2481055601
 20
5.8818416662
 11
8.2316009561
 21
5.8968437582
  0
LINE
  5
784
100
AcDbEntity
  8
0
100
AcDbLine
 62
7
  6
CONTINUOUS
 10
8.2881055601
 20
5.8818416662
 11
8.2716009561
 21
5.8968437582
  0
LINE
  5
785
100
AcDbEntity
  8
0
100
AcDbLine
 62
9
  6
CONTINUOUS
 10
9.0564968861
 20
6.1338910575
 11
9.0564953681
 21
5.5428910576
  0
LINE
  5
786
100
AcDbEntity
  8
0
100
AcDbLine
 62
7
  6
CONTINUOUS
 10
9.1064968861
 20
4.6178910575
 11
9.1064968861
 21
4.5678910575
  0
LINE
  5
787
100
AcDbEntity
  8
0
100
AcDbLine
 62
7
  6
CONTINUOUS
 10
9.1114968861
 20
4.6178910575
 11
9.1114968861
 21
4.9483243615
  0
LWPOLYLINE
  5
788
100
AcDbEntity
  8
0
100
AcDbPolyline
 62
9
  6
CONTINUOUS
 90
43
 70
0
 10
9.0564953681
 20
5.5428910576
 10
9.0564949424
 20
5.5376974876
 10
9.0564409805
 20
5.5140744669
 10
9.0563250055
 20
5.4905135499
 10
9.0561625755
 20
5.4669793937
 10
9.0559688767
 20
5.4434343089
 10
9.0557599372
 20
5.4199194713
 10
9.0555530288
 20
5.3965567939
 10
9.0553655723
 20
5.373461525
 10
9.0552142966
 20
5.3506874216
 10
9.0551155401
 20
5.3282542971
 10
9.0550856735
 20
5.3061826125
 10
9.0551411059
 20
5.2845143675
 10
9.0552979855
 20
5.2632981524
 10
9.0555722255
 20
5.2425692952
 10
9.0559795248
 20
5.2223615739
 10
9.0565353416
 20
5.2027076312
 10
9.0572548722
 20
5.1836386722
 10
9.0581530351
 20
5.1651842924
 10
9.0592444646
 20
5.1473722622
 10
9.0605433369
 20
5.1302305193
 10
9.0620632536
 20
5.1137865165
 10
9.0638180706
 20
5.09805885
 10
9.0658220663
 20
5.0830610417
 10
9.0680896307
 20
5.0688065285
 10
9.0706322678
 20
5.0553234395
 10
9.0734555945
 20
5.0426556267
 10
9.0765861777
 20
5.0307534713
 10
9.0800763935
 20
5.0194673543
 10
9.0838372262
 20
5.0089271122
 10
9.087730218
 20
4.9992911816
 10
9.0916122153
 20
4.9906704849
 10
9.0953506121
 20
4.9831214994
 10
9.0988311627
 20
4.9766552559
 10
9.1019758495
 20
4.9712246837
 10
9.1048013231
 20
4.9666511947
 10
9.1073022045
 20
4.9628324979
 10
9.1094737913
 20
4.959688197
 10
9.1113143933
 20
4.9571501313
 10
9.1128211096
 20
4.9551642664
 10
9.1139926822
 20
4.9536836942
 10
9.1148289761
 20
4.9526674972
 10
9.1153301382
 20
4.9520803533
  0
LINE
  5
789
100
AcDbEntity
  8
0
100
AcDbLine
 62
7
  6
CONTINUOUS
 10
7.9514968867
 20
5.8968910575
 11
7.9516009561
 21
5.8968437582
  0
LINE
  5
78A
100
AcDbEntity
  8
0
100
AcDbLine
 62
7
  6
CONTINUOUS
 10
7.9916009561
 20
5.8968437582
 11
7.9914968861
 21
5.8968910575
  0
LINE
  5
78B
100
AcDbEntity
  8
0
100
AcDbLine
 62
7
  6
CONTINUOUS
 10
8.3281055601
 20
5.8818416662
 11
8.3116009561
 21
5.8968437582
  0
LINE
  5
78C
100
AcDbEntity
  8
0
100
AcDbLine
 62
7
  6
CONTINUOUS
 10
8.3681055601
 20
5.8818416662
 11
8.3516009561
 21
5.8968437582
  0
LINE
  5
78D
100
AcDbEntity
  8
0
100
AcDbLine
 62
7
  6
CONTINUOUS
 10
8.4081055601
 20
5.8818416662
 11
8.3916009561
 21
5.8968437582
  0
LINE
  5
78E
100
AcDbEntity
  8
0
100
AcDbLine
 62
7
  6
CONTINUOUS
 10
8.4481055601
 20
5.8818416662
 11
8.4316009561
 21
5.8968437582
  0
LWPOLYLINE
  5
78F
100
AcDbEntity
  8
0
100
AcDbPolyline
 62
7
  6
CONTINUOUS
 90
19
 70
0
 10
8.4529968861
 20
5.8818910575
 10
8.4532449481
 20
5.8816337366
 10
8.4543185915
 20
5.8746112769
 10
8.4553922349
 20
5.8581763771
 10
8.4564658783
 20
5.8327953713
 10
8.4575395217
 20
5.7991884364
 10
8.4586131651
 20
5.7583091568
 10
8.4596868085
 20
5.7113174673
 10
8.460760452
 20
5.6595467398
 10
8.4618340954
 20
5.6044659499
 10
8.4629077388
 20
5.5476379949
 10
8.4639813822
 20
5.4906753473
 10
8.4650550256
 20
5.4351943014
 10
8.466128669
 20
5.3827691117
 10
8.4672023124
 20
5.3348873238
 10
8.4682759558
 20
5.2929075659
 10
8.4693495992
 20
5.2580209984
 10
8.4704232427
 20
5.2312175149
 10
8.4714968861
 20
5.2132576545
  0
LINE
  5
790
100
AcDbEntity
  8
0
100
AcDbLine
 62
7
  6
CONTINUOUS
 10
9.1164968861
 20
6.0738910575
 11
9.1164968861
 21
4.9528910575
  0
LINE
  5
791
100
AcDbEntity
  8
0
100
AcDbLine
 62
7
  6
CONTINUOUS
 10
7.9314968861
 20
5.6928910575
 11
7.8914968861
 21
5.6928910575
  0
LINE
  5
792
100
AcDbEntity
  8
0
100
AcDbLine
 62
7
  6
CONTINUOUS
 10
8.0316009561
 20
5.8968437582
 11
8.0314968826
 21
5.8968910575
  0
LINE
  5
793
100
AcDbEntity
  8
0
100
AcDbLine
 62
7
  6
CONTINUOUS
 10
8.0716009561
 20
5.8968437582
 11
8.0714968827
 21
5.8968910575
  0
LINE
  5
794
100
AcDbEntity
  8
0
100
AcDbLine
 62
7
  6
CONTINUOUS
 10
8.1116009561
 20
5.8968437582
 11
8.1114968833
 21
5.8968910575
  0
LINE
  5
795
100
AcDbEntity
  8
0
100
AcDbLine
 62
7
  6
CONTINUOUS
 10
8.1516009561
 20
5.8968437582
 11
8.1514968861
 21
5.8968910575
  0
LINE
  5
796
100
AcDbEntity
  8
0
100
AcDbLine
 62
7
  6
CONTINUOUS
 10
8.1916009561
 20
5.8968437582
 11
8.1914968826
 21
5.8968910575
  0
LINE
  5
797
100
AcDbEntity
  8
0
100
AcDbLine
 62
7
  6
CONTINUOUS
 10
9.1064968861
 20
4.5678910575
 11
9.0776293726
 21
4.5178910575
  0
LINE
  5
798
100
AcDbEntity
  8
0
100
AcDbLine
 62
7
  6
CONTINUOUS
 10
8.2316009561
 20
5.8968437582
 11
8.2314968827
 21
5.8968910575
  0
LINE
  5
799
100
AcDbEntity
  8
0
100
AcDbLine
 62
7
  6
CONTINUOUS
 10
8.2716009561
 20
5.8968437582
 11
8.2714968833
 21
5.8968910575
  0
LINE
  5
79A
100
AcDbEntity
  8
0
100
AcDbLine
 62
7
  6
CONTINUOUS
 10
8.3116009561
 20
5.8968437582
 11
8.3114968861
 21
5.8968910575
  0
LINE
  5
79B
100
AcDbEntity
  8
0
100
AcDbLine
 62
7
  6
CONTINUOUS
 10
8.3516009561
 20
5.8968437582
 11
8.3514968826
 21
5.8968910575
  0
LINE
  5
79C
100
AcDbEntity
  8
0
100
AcDbLine
 62
7
  6
CONTINUOUS
 10
8.3916009561
 20
5.8968437582
 11
8.3914968827
 21
5.8968910575
  0
LINE
  5
79D
100
AcDbEntity
  8
0
100
AcDbLine
 62
7
  6
CONTINUOUS
 10
8.4316009561
 20
5.8968437582
 11
8.4314968833
 21
5.8968910575
  0
LINE
  5
79E
100
AcDbEntity
  8
0
100
AcDbLine
 62
7
  6
CONTINUOUS
 10
8.5089968861
 20
5.8816410575
 11
8.4714968861
 21
5.8816410575
  0
LINE
  5
79F
100
AcDbEntity
  8
0
100
AcDbLine
 62
7
  6
CONTINUOUS
 10
8.4529968861
 20
5.8818910575
 11
8.4479968861
 21
5.8818910575
  0
LINE
  5
7A0
100
AcDbEntity
  8
0
100
AcDbLine
 62
7
  6
CONTINUOUS
 10
8.4129968861
 20
5.8818910575
 11
8.4079968861
 21
5.8818910575
  0
LINE
  5
7A1
100
AcDbEntity
  8
0
100
AcDbLine
 62
7
  6
CONTINUOUS
 10
8.3729968861
 20
5.8818910575
 11
8.3679968861
 21
5.8818910575
  0
LINE
  5
7A2
100
AcDbEntity
  8
0
100
AcDbLine
 62
7
  6
CONTINUOUS
 10
8.2929968861
 20
5.8818910575
 11
8.2879968861
 21
5.8818910575
  0
LINE
  5
7A3
100
AcDbEntity
  8
0
100
AcDbLine
 62
7
  6
CONTINUOUS
 10
8.2529968861
 20
5.8818910575
 11
8.2479968861
 21
5.8818910575
  0
LINE
  5
7A4
100
AcDbEntity
  8
0
100
AcDbLine
 62
7
  6
CONTINUOUS
 10
8.2129968861
 20
5.8818910575
 11
8.2079968861
 21
5.8818910575
  0
LINE
  5
7A5
100
AcDbEntity
  8
0
100
AcDbLine
 62
7
  6
CONTINUOUS
 10
8.1329968861
 20
5.8818910575
 11
8.1279968861
 21
5.8818910575
  0
LINE
  5
7A6
100
AcDbEntity
  8
0
100
AcDbLine
 62
7
  6
CONTINUOUS
 10
8.0929968861
 20
5.8818910575
 11
8.0879968861
 21
5.8818910575
  0
LINE
  5
7A7
100
AcDbEntity
  8
0
100
AcDbLine
 62
7
  6
CONTINUOUS
 10
8.0529968861
 20
5.8818910575
 11
8.0479968861
 21
5.8818910575
  0
LINE
  5
7A8
100
AcDbEntity
  8
0
100
AcDbLine
 62
7
  6
CONTINUOUS
 10
7.9729968861
 20
5.8818910575
 11
7.9679968861
 21
5.8818910575
  0
LINE
  5
7A9
100
AcDbEntity
  8
0
100
AcDbLine
 62
7
  6
CONTINUOUS
 10
7.9329968861
 20
5.8818910575
 11
7.9314968861
 21
5.8818910575
  0
LINE
  5
7AA
100
AcDbEntity
  8
0
100
AcDbLine
 62
7
  6
CONTINUOUS
 10
8.0079968861
 20
5.8818910575
 11
8.0129968861
 21
5.8818910575
  0
LINE
  5
7AB
100
AcDbEntity
  8
0
100
AcDbLine
 62
7
  6
CONTINUOUS
 10
8.1679968861
 20
5.8818910575
 11
8.1729968861
 21
5.8818910575
  0
LINE
  5
7AC
100
AcDbEntity
  8
0
100
AcDbLine
 62
7
  6
CONTINUOUS
 10
8.3279968861
 20
5.8818910575
 11
8.3329968861
 21
5.8818910575
  0
LINE
  5
7AD
100
AcDbEntity
  8
0
100
AcDbLine
 62
7
  6
CONTINUOUS
 10
8.4714968861
 20
5.8968910575
 11
8.4694968861
 21
5.8968910575
  0
LINE
  5
7AE
100
AcDbEntity
  8
0
100
AcDbLine
 62
7
  6
CONTINUOUS
 10
8.4314968861
 20
5.8968910575
 11
8.4294968861
 21
5.8968910575
  0
LINE
  5
7AF
100
AcDbEntity
  8
0
100
AcDbLine
 62
7
  6
CONTINUOUS
 10
8.3914968861
 20
5.8968910575
 11
8.3894968861
 21
5.8968910575
  0
LINE
  5
7B0
100
AcDbEntity
  8
0
100
AcDbLine
 62
7
  6
CONTINUOUS
 10
8.3514968861
 20
5.8968910575
 11
8.3494968861
 21
5.8968910575
  0
LINE
  5
7B1
100
AcDbEntity
  8
0
100
AcDbLine
 62
7
  6
CONTINUOUS
 10
8.3114968861
 20
5.8968910575
 11
8.3094968861
 21
5.8968910575
  0
LINE
  5
7B2
100
AcDbEntity
  8
0
100
AcDbLine
 62
7
  6
CONTINUOUS
 10
8.2714968861
 20
5.8968910575
 11
8.2694968861
 21
5.8968910575
  0
LINE
  5
7B3
100
AcDbEntity
  8
0
100
AcDbLine
 62
7
  6
CONTINUOUS
 10
8.2314968861
 20
5.8968910575
 11
8.2294968861
 21
5.8968910575
  0
LINE
  5
7B4
100
AcDbEntity
  8
0
100
AcDbLine
 62
7
  6
CONTINUOUS
 10
8.1914968861
 20
5.8968910575
 11
8.1894968861
 21
5.8968910575
  0
LINE
  5
7B5
100
AcDbEntity
  8
0
100
AcDbLine
 62
7
  6
CONTINUOUS
 10
8.1514968861
 20
5.8968910575
 11
8.1494968861
 21
5.8968910575
  0
LINE
  5
7B6
100
AcDbEntity
  8
0
100
AcDbLine
 62
7
  6
CONTINUOUS
 10
8.1114968861
 20
5.8968910575
 11
8.1094968861
 21
5.8968910575
  0
LINE
  5
7B7
100
AcDbEntity
  8
0
100
AcDbLine
 62
7
  6
CONTINUOUS
 10
8.0714968861
 20
5.8968910575
 11
8.0694968861
 21
5.8968910575
  0
LINE
  5
7B8
100
AcDbEntity
  8
0
100
AcDbLine
 62
7
  6
CONTINUOUS
 10
8.0314968861
 20
5.8968910575
 11
8.0294968861
 21
5.8968910575
  0
LINE
  5
7B9
100
AcDbEntity
  8
0
100
AcDbLine
 62
7
  6
CONTINUOUS
 10
7.9914968861
 20
5.8968910575
 11
7.9894968861
 21
5.8968910575
  0
LINE
  5
7BA
100
AcDbEntity
  8
0
100
AcDbLine
 62
7
  6
CONTINUOUS
 10
7.9514968861
 20
5.8968910575
 11
7.9494968861
 21
5.8968910575
  0
LINE
  5
7BB
100
AcDbEntity
  8
0
100
AcDbLine
 62
7
  6
CONTINUOUS
 10
8.9614968861
 20
6.1068910575
 11
8.9764968861
 21
6.1068910575
  0
LINE
  5
7BC
100
AcDbEntity
  8
0
100
AcDbLine
 62
7
  6
CONTINUOUS
 10
9.0564968861
 20
6.1338910575
 11
8.9764968861
 21
6.1338910575
  0
LINE
  5
7BD
100
AcDbEntity
  8
AXIS_COSMETIC_THREADS
100
AcDbLine
 62
7
  6
CONTINUOUS
 10
8.9764968861
 20
6.1338910575
 11
9.0564968861
 21
6.1338910575
  0
LINE
  5
7BE
100
AcDbEntity
  8
0
100
AcDbLine
 62
7
  6
CONTINUOUS
 10
8.9614968861
 20
6.1348910575
 11
8.5814968861
 21
6.1348910575
  0
LINE
  5
7BF
100
AcDbEntity
  8
AXIS
100
AcDbLine
 62
7
  6
CONTINUOUS
 10
12.3120255945
 20
3.8828516874
 11
12.0790255945
 21
3.8828516874
  0
LINE
  5
7C0
100
AcDbEntity
  8
0
100
AcDbLine
 62
7
  6
CONTINUOUS
 10
11.934393108
 20
4.5178910575
 11
12.4566580811
 21
4.5178910575
  0
LINE
  5
7C1
100
AcDbEntity
  8
0
100
AcDbLine
 62
7
  6
CONTINUOUS
 10
11.9055255945
 20
4.5678910575
 11
12.4855255945
 21
4.5678910575
  0
LINE
  5
7C2
100
AcDbEntity
  8
0
100
AcDbLine
 62
7
  6
CONTINUOUS
 10
11.934393108
 20
4.5178910575
 11
11.9055255945
 21
4.5678910575
  0
LINE
  5
7C3
100
AcDbEntity
  8
0
100
AcDbLine
 62
7
  6
CONTINUOUS
 10
11.9005255945
 20
4.6178910575
 11
12.4905255945
 21
4.6178910575
  0
LINE
  5
7C4
100
AcDbEntity
  8
0
100
AcDbLine
 62
7
  6
CONTINUOUS
 10
11.9005255945
 20
4.6178910575
 11
11.9005255945
 21
4.9960099004
  0
LINE
  5
7C5
100
AcDbEntity
  8
0
100
AcDbLine
 62
7
  6
CONTINUOUS
 10
11.9055255945
 20
4.6178910575
 11
11.9055255945
 21
4.5678910575
  0
LINE
  5
7C6
100
AcDbEntity
  8
0
100
AcDbLine
 62
7
  6
CONTINUOUS
 10
11.938620943
 20
5.006211451
 11
11.938620943
 21
5.0095393911
  0
LINE
  5
7C7
100
AcDbEntity
  8
AXIS
100
AcDbLine
 62
7
  6
CONTINUOUS
 10
12.0790255945
 20
4.5178910575
 11
12.0790255945
 21
3.8828516874
  0
LINE
  5
7C8
100
AcDbEntity
  8
AXIS_COSMETIC_THREADS
100
AcDbLine
 62
7
  6
CONTINUOUS
 10
12.0790255945
 20
4.5178910575
 11
12.0790255945
 21
3.8828516874
  0
LINE
  5
7C9
100
AcDbEntity
  8
0
100
AcDbLine
 62
7
  6
CONTINUOUS
 10
12.1035255945
 20
5.6978910575
 11
12.1035255945
 21
5.5728910575
  0
LWPOLYLINE
  5
7CA
100
AcDbEntity
  8
0
100
AcDbPolyline
 62
9
  6
CONTINUOUS
 90
7
 70
0
 10
11.938620943
 20
5.0095393911
 10
11.9290498375
 20
5.0041909029
 10
11.9198656043
 20
5.0002754872
 10
11.9118552463
 20
4.9978429449
 10
11.9056839391
 20
4.9966058697
 10
11.901826867
 20
4.996121816
 10
11.9005255945
 20
4.9960099004
  0
LINE
  5
7CB
100
AcDbEntity
  8
DATUM_CURVES
100
AcDbLine
 62
40
  6
CONTINUOUS
 10
12.1955255945
 20
5.6428910575
 11
12.1955255945
 21
5.6448910575
  0
LWPOLYLINE
  5
7CC
100
AcDbEntity
  8
0
100
AcDbPolyline
 62
9
  6
CONTINUOUS
 90
82
 70
0
 10
12.1955255945
 20
4.9528910575
 10
12.2104555167
 20
4.9532468245
 10
12.2257284303
 20
4.9543335886
 10
12.2413317232
 20
4.9561809362
 10
12.2572594891
 20
4.9588207573
 10
12.2735103867
 20
4.9622882097
 10
12.2900802598
 20
4.9666208444
 10
12.3069683716
 20
4.9718599725
 10
12.324196681
 20
4.9780588028
 10
12.3417821403
 20
4.9852758396
 10
12.3597661748
 20
4.9935875707
 10
12.3783243202
 20
5.0031535296
 10
12.3972106305
 20
5.0139196691
 10
12.4161229227
 20
5.0257374508
 10
12.4347963941
 20
5.0384092296
 10
12.4529928328
 20
5.0516892586
 10
12.4705189329
 20
5.0653067764
 10
12.4872931043
 20
5.0790637044
 10
12.5035738507
 20
5.0931296483
 10
12.5194708515
 20
5.107607613
 10
12.5349311933
 20
5.1224639522
 10
12.5499289356
 20
5.137686227
 10
12.5644616464
 20
5.1532858537
 10
12.5785244949
 20
5.1692751903
 10
12.5921068295
 20
5.1856632968
 10
12.6051872381
 20
5.2024481427
 10
12.6177436518
 20
5.2196270607
 10
12.6297549717
 20
5.2371991327
 10
12.641198038
 20
5.255161111
 10
12.6520479573
 20
5.2735072954
 10
12.6622785706
 20
5.2922297104
 10
12.671862916
 20
5.3113184597
 10
12.6807731936
 20
5.3307612367
 10
12.6889767571
 20
5.3505324894
 10
12.6964404712
 20
5.3705985911
 10
12.7031439533
 20
5.3909563497
 10
12.7090661662
 20
5.4116081499
 10
12.7141791217
 20
5.4325405074
 10
12.7184337873
 20
5.4536293782
 10
12.7217902508
 20
5.4746910455
 10
12.7242506162
 20
5.4956970537
 10
12.7258262522
 20
5.5167786042
 10
12.726500663
 20
5.5379664544
 10
12.7262724009
 20
5.5592828786
 10
12.7251762862
 20
5.5807221677
 10
12.7232052416
 20
5.6021799484
 10
12.7203662958
 20
5.6235337525
 10
12.7166690341
 20
5.6447267755
 10
12.7121155131
 20
5.665756254
 10
12.7067133116
 20
5.6865855867
 10
12.7004717462
 20
5.7071785613
 10
12.6934013721
 20
5.7275006728
 10
12.6855136842
 20
5.7475191884
 10
12.6768213992
 20
5.7672018873
 10
12.6673387627
 20
5.786516455
 10
12.6570814212
 20
5.8054309951
 10
12.646066217
 20
5.8239144506
 10
12.6343112365
 20
5.8419364727
 10
12.6218357812
 20
5.8594674696
 10
12.6086603355
 20
5.8764786558
 10
12.5948065333
 20
5.8929420992
 10
12.5802971224
 20
5.9088307674
 10
12.5651559266
 20
5.9241185716
 10
12.5494078076
 20
5.9387804097
 10
12.5330786234
 20
5.9527922073
 10
12.5161951861
 20
5.9661309575
 10
12.4987852179
 20
5.9787747584
 10
12.4808773055
 20
5.9907028493
 10
12.4625008533
 20
6.0018956446
 10
12.4436860351
 20
6.012334766
 10
12.4244637442
 20
6.022003073
 10
12.4048655432
 20
6.0308846903
 10
12.3849236117
 20
6.0389650346
 10
12.3646706941
 20
6.0462308383
 10
12.344140045
 20
6.0526701712
 10
12.3233653753
 20
6.05827246
 10
12.3023807963
 20
6.0630285061
 10
12.2812207643
 20
6.0669305
 10
12.2599200235
 20
6.0699720355
 10
12.238513549
 20
6.0721481164
 10
12.21703649
 20
6.0734551748
 10
12.1955255945
 20
6.0738910575
  0
LINE
  5
7CD
100
AcDbEntity
  8
0
100
AcDbLine
 62
7
  6
CONTINUOUS
 10
12.2885255945
 20
5.5728910575
 11
12.2885255945
 21
5.6978910575
  0
LWPOLYLINE
  5
7CE
100
AcDbEntity
  8
0
100
AcDbPolyline
 62
9
  6
CONTINUOUS
 90
6
 70
0
 10
12.4905255945
 20
4.9960099004
 10
12.4892241936
 20
4.9961218205
 10
12.4853668375
 20
4.996605896
 10
12.479195261
 20
4.9978430077
 10
12.471184821
 20
5.0002755621
 10
12.4620008128
 20
5.0041909375
  0
LINE
  5
7CF
100
AcDbEntity
  8
AXIS
100
AcDbLine
 62
7
  6
CONTINUOUS
 10
12.3120255945
 20
4.5178910575
 11
12.3120255945
 21
3.8828516874
  0
LINE
  5
7D0
100
AcDbEntity
  8
AXIS_COSMETIC_THREADS
100
AcDbLine
 62
7
  6
CONTINUOUS
 10
12.3120255945
 20
4.5178910575
 11
12.3120255945
 21
3.8828516874
  0
LINE
  5
7D1
100
AcDbEntity
  8
0
100
AcDbLine
 62
9
  6
CONTINUOUS
 10
12.4620008128
 20
5.0041909375
 11
12.4524302461
 21
5.0095393911
  0
LINE
  5
7D2
100
AcDbEntity
  8
0
100
AcDbLine
 62
7
  6
CONTINUOUS
 10
12.4524302461
 20
5.006211451
 11
12.4524302461
 21
5.0095393911
  0
LINE
  5
7D3
100
AcDbEntity
  8
0
100
AcDbLine
 62
7
  6
CONTINUOUS
 10
12.4855255945
 20
4.6178910575
 11
12.4855255945
 21
4.5678910575
  0
LINE
  5
7D4
100
AcDbEntity
  8
0
100
AcDbLine
 62
7
  6
CONTINUOUS
 10
12.4905255945
 20
4.6178910575
 11
12.4905255945
 21
4.9960099004
  0
LINE
  5
7D5
100
AcDbEntity
  8
0
100
AcDbLine
 62
7
  6
CONTINUOUS
 10
12.4855255945
 20
4.5678910575
 11
12.4566580811
 21
4.5178910575
  0
LINE
  5
7D6
100
AcDbEntity
  8
0
100
AcDbLine
 62
7
  6
CONTINUOUS
 10
12.1335255945
 20
5.5428910575
 11
12.2585255945
 21
5.5428910575
  0
LINE
  5
7D7
100
AcDbEntity
  8
0
100
AcDbLine
 62
7
  6
CONTINUOUS
 10
12.2585255945
 20
5.7278910575
 11
12.1335255945
 21
5.7278910575
  0
LWPOLYLINE
  5
7D8
100
AcDbEntity
  8
0
100
AcDbPolyline
 62
9
  6
CONTINUOUS
 90
82
 70
0
 10
12.1955255945
 20
6.0738910575
 10
12.1740146015
 20
6.0734551697
 10
12.1525389245
 20
6.072148222
 10
12.1311338213
 20
6.0699723601
 10
12.1098344341
 20
6.0669311561
 10
12.0886757314
 20
6.0630296032
 10
12.0676924506
 20
6.0582741066
 10
12.0469190415
 20
6.0526724738
 10
12.026389609
 20
6.0462339012
 10
12.0061378574
 20
6.0389689596
 10
11.9861970354
 20
6.0308895763
 10
11.9665998811
 20
6.0220090155
 10
11.9473785683
 20
6.0123418572
 10
11.9285646538
 20
6.0019039724
 10
11.9101890255
 20
5.9907124978
 10
11.892281852
 20
5.978785807
 10
11.8748725325
 20
5.9661434808
 10
11.857989649
 20
5.9528062749
 10
11.8416609191
 20
5.9387960858
 10
11.8259131507
 20
5.924135915
 10
11.810772198
 20
5.9088498309
 10
11.7962629187
 20
5.8929629297
 10
11.7824091336
 20
5.8765012936
 10
11.7692335876
 20
5.8594919495
 10
11.7567579118
 20
5.8419628225
 10
11.7450025877
 20
5.8239426903
 10
11.7339869141
 20
5.8054611366
 10
11.7237289767
 20
5.7865485043
 10
11.7142456193
 20
5.7672358488
 10
11.7055524091
 20
5.7475548734
 10
11.6976636007
 20
5.7275378423
 10
11.6905921671
 20
5.7072176648
 10
11.6843497424
 20
5.6866277896
 10
11.6789465797
 20
5.6658020882
 10
11.6743914952
 20
5.6447745718
 10
11.6706919189
 20
5.6235794266
 10
11.6678549687
 20
5.6022603314
 10
11.6658871685
 20
5.5808928687
 10
11.6647863788
 20
5.5595309156
 10
11.6645480417
 20
5.5382247707
 10
11.6652130204
 20
5.517002735
 10
11.6667862611
 20
5.4958462963
 10
11.669255681
 20
5.4747291025
 10
11.6726190406
 20
5.453620297
 10
11.6768683365
 20
5.432557236
 10
11.6819747686
 20
5.4116467677
 10
11.6878978494
 20
5.3909868209
 10
11.6946040523
 20
5.3706176018
 10
11.7020689188
 20
5.3505465023
 10
11.7102701754
 20
5.3307791482
 10
11.7191787795
 20
5.3113382311
 10
11.7287617722
 20
5.2922504001
 10
11.7389910617
 20
5.2735286884
 10
11.7498395662
 20
5.2551832296
 10
11.7612811957
 20
5.2372218844
 10
11.773291148
 20
5.219650237
 10
11.7858461529
 20
5.2024717157
 10
11.7989247613
 20
5.1856876746
 10
11.8125058546
 20
5.1692995915
 10
11.8265686912
 20
5.1533088834
 10
11.8411004383
 20
5.1377089917
 10
11.8560948366
 20
5.1224887968
 10
11.8715483316
 20
5.1076375447
 10
11.8874418105
 20
5.0931611782
 10
11.9037306516
 20
5.0790867217
 10
11.9204928729
 20
5.0653385361
 10
11.9380128683
 20
5.051723448
 10
11.9562185033
 20
5.0384348618
 10
11.9749079657
 20
5.0257506702
 10
11.9938361614
 20
5.0139223076
 10
12.012732764
 20
5.0031503329
 10
12.0312989975
 20
4.9935807469
 10
12.0492808737
 20
4.9852706878
 10
12.0668652746
 20
4.9780546628
 10
12.0840918402
 20
4.9718569544
 10
12.1009786687
 20
4.9666186353
 10
12.1175479828
 20
4.9622865072
 10
12.1337973572
 20
4.9588196849
 10
12.1497239381
 20
4.9561803022
 10
12.1653265967
 20
4.9543332159
 10
12.180598122
 20
4.9532467275
 10
12.1955255945
 20
4.9528910575
  0
LINE
  5
7D9
100
AcDbEntity
  8
0
100
AcDbLine
 62
7
  6
CONTINUOUS
 10
3.8677499052
 20
7.9200609734
 11
3.8749270444
 21
7.9121650434
  0
LINE
  5
7DA
100
AcDbEntity
  8
0
100
AcDbLine
 62
7
  6
CONTINUOUS
 10
3.6297026059
 20
8.9421650434
 11
3.6297026059
 21
8.5621650434
  0
LINE
  5
7DB
100
AcDbEntity
  8
AXIS_COSMETIC_THREADS
100
AcDbLine
 62
7
  6
CONTINUOUS
 10
3.6307026059
 20
8.9571650434
 11
3.6307026059
 21
9.0371634194
  0
LINE
  5
7DC
100
AcDbEntity
  8
0
100
AcDbLine
 62
7
  6
CONTINUOUS
 10
3.6577026059
 20
8.9421650434
 11
3.6577026059
 21
8.9571650434
  0
LINE
  5
7DD
100
AcDbEntity
  8
0
100
AcDbLine
 62
7
  6
CONTINUOUS
 10
4.5757026059
 20
7.9821650434
 11
4.571398389
 21
7.9811712833
  0
LINE
  5
7DE
100
AcDbEntity
  8
0
100
AcDbLine
 62
7
  6
CONTINUOUS
 10
4.5707009429
 20
7.9410936145
 11
4.5757026059
 21
7.9421650434
  0
LINE
  5
7DF
100
AcDbEntity
  8
0
100
AcDbLine
 62
7
  6
CONTINUOUS
 10
4.5556667067
 20
7.9625663592
 11
4.5606532146
 21
7.9635563694
  0
LWPOLYLINE
  5
7E0
100
AcDbEntity
  8
0
100
AcDbPolyline
 62
7
  6
CONTINUOUS
 90
19
 70
0
 10
4.5756553066
 20
7.9400609734
 10
4.5706495636
 20
7.9390881123
 10
4.5556338821
 20
7.9380111374
 10
4.5310844479
 20
7.936934169
 10
4.4977036492
 20
7.9358572455
 10
4.4564437332
 20
7.9347803249
 10
4.4084824243
 20
7.9337034028
 10
4.3551881561
 20
7.9326264649
 10
4.2980831292
 20
7.9315495284
 10
4.2387955812
 20
7.9304725564
 10
4.1790191686
 20
7.929395569
 10
4.1204623591
 20
7.9283185991
 10
4.0647972525
 20
7.9272416546
 10
4.0136113304
 20
7.9261647034
 10
3.9683664308
 20
7.9250877562
 10
3.9303538549
 20
7.9240108027
 10
3.9006588089
 20
7.9229338357
 10
3.8801292867
 20
7.9218568463
 10
3.8693521666
 20
7.9207798612
  0
LWPOLYLINE
  5
7E1
100
AcDbEntity
  8
0
100
AcDbPolyline
 62
7
  6
CONTINUOUS
 90
7
 70
0
 10
4.3988296194
 20
7.9121650434
 10
4.4449857924
 20
7.9132425082
 10
4.4847613141
 20
7.914319973
 10
4.5170195395
 20
7.9153974378
 10
4.5408386414
 20
7.9164749026
 10
4.5555379534
 20
7.9175523674
 10
4.5607026059
 20
7.9186650434
  0
LWPOLYLINE
  5
7E2
100
AcDbEntity
  8
0
100
AcDbPolyline
 62
7
  6
CONTINUOUS
 90
12
 70
0
 10
4.1425646276
 20
7.9121650434
 10
4.1989483469
 20
7.9132374119
 10
4.2559761811
 20
7.9143097803
 10
4.312033818
 20
7.9153821487
 10
4.3655344094
 20
7.9164545171
 10
4.4149634901
 20
7.9175268855
 10
4.4589218495
 20
7.918599254
 10
4.4961651387
 20
7.9196716224
 10
4.5256390955
 20
7.9207439908
 10
4.5465093875
 20
7.9218163592
 10
4.5581852301
 20
7.9228887276
 10
4.5606532146
 20
7.9235563694
  0
LINE
  5
7E3
100
AcDbEntity
  8
0
100
AcDbLine
 62
7
  6
CONTINUOUS
 10
4.0067026059
 20
7.8721650434
 11
3.9017054329
 21
7.8721650434
  0
LINE
  5
7E4
100
AcDbEntity
  8
0
100
AcDbLine
 62
7
  6
CONTINUOUS
 10
4.4367026059
 20
7.8721650434
 11
4.541699779
 21
7.8721650434
  0
LINE
  5
7E5
100
AcDbEntity
  8
0
100
AcDbLine
 62
9
  6
CONTINUOUS
 10
4.4815102271
 20
7.9021650434
 11
4.4367026059
 21
7.9021650434
  0
LINE
  5
7E6
100
AcDbEntity
  8
0
100
AcDbLine
 62
9
  6
CONTINUOUS
 10
4.0067026059
 20
7.9021650434
 11
3.9618949848
 21
7.9021650434
  0
LINE
  5
7E7
100
AcDbEntity
  8
0
100
AcDbLine
 62
7
  6
CONTINUOUS
 10
4.5666544271
 20
7.9121650434
 11
3.8749306949
 21
7.9121650434
  0
LINE
  5
7E8
100
AcDbEntity
  8
0
100
AcDbLine
 62
7
  6
CONTINUOUS
 10
3.8677499052
 20
7.9600609734
 11
3.8827519972
 21
7.9435563694
  0
LINE
  5
7E9
100
AcDbEntity
  8
0
100
AcDbLine
 62
7
  6
CONTINUOUS
 10
3.8677499052
 20
8.0000609734
 11
3.8827519972
 21
7.9835563694
  0
LINE
  5
7EA
100
AcDbEntity
  8
0
100
AcDbLine
 62
7
  6
CONTINUOUS
 10
3.8677499052
 20
8.0400609734
 11
3.8827519972
 21
8.0235563694
  0
LINE
  5
7EB
100
AcDbEntity
  8
0
100
AcDbLine
 62
7
  6
CONTINUOUS
 10
4.5757026059
 20
8.0221650434
 11
4.5709149314
 21
8.0211168378
  0
LWPOLYLINE
  5
7EC
100
AcDbEntity
  8
0
100
AcDbPolyline
 62
7
  6
CONTINUOUS
 90
18
 70
0
 10
3.8699245743
 20
7.922878701
 10
3.8815290909
 20
7.9239501871
 10
3.9027472583
 20
7.9250216736
 10
3.9329785489
 20
7.9260931328
 10
3.9713693509
 20
7.9271645995
 10
4.0168354676
 20
7.9282360861
 10
4.0680909142
 20
7.9293075643
 10
4.1236857978
 20
7.9303790103
 10
4.1820518034
 20
7.9314504794
 10
4.2415393207
 20
7.9325219661
 10
4.3004652862
 20
7.9335934354
 10
4.35716376
 20
7.9346648725
 10
4.4100359126
 20
7.9357363435
 10
4.4575862395
 20
7.9368078269
 10
4.4984692933
 20
7.9378792813
 10
4.5315300678
 20
7.9389506971
 10
4.5558366324
 20
7.9400221497
 10
4.5707009429
 20
7.9410936145
  0
LWPOLYLINE
  5
7ED
100
AcDbEntity
  8
0
100
AcDbPolyline
 62
7
  6
CONTINUOUS
 90
9
 70
0
 10
4.571398389
 20
7.9811712833
 10
4.5586001164
 20
7.9801780917
 10
4.5375022215
 20
7.9791802628
 10
4.5087282429
 20
7.9781844702
 10
4.4727279023
 20
7.9771831135
 10
4.4299716772
 20
7.9761693367
 10
4.3819596924
 20
7.9751558522
 10
4.3305875457
 20
7.9741554574
 10
4.2768055833
 20
7.9731600398
  0
LWPOLYLINE
  5
7EE
100
AcDbEntity
  8
0
100
AcDbPolyline
 62
7
  6
CONTINUOUS
 90
11
 70
0
 10
4.2768055833
 20
7.9731600398
 10
4.1665922861
 20
7.9711699134
 10
4.1127919437
 20
7.9701741433
 10
4.0614287488
 20
7.9691738964
 10
4.0134168713
 20
7.9681603795
 10
3.9706643045
 20
7.9671466417
 10
3.9346633797
 20
7.9661451991
 10
3.9058986998
 20
7.9651496533
 10
3.8848073511
 20
7.9641521273
 10
3.8720077959
 20
7.9631589162
 10
3.8677499052
 20
7.9622691134
  0
LINE
  5
7EF
100
AcDbEntity
  8
0
100
AcDbLine
 62
7
  6
CONTINUOUS
 10
3.8677499052
 20
8.0800609734
 11
3.8827519972
 21
8.0635563694
  0
LINE
  5
7F0
100
AcDbEntity
  8
0
100
AcDbLine
 62
7
  6
CONTINUOUS
 10
3.8677499052
 20
8.1200609734
 11
3.8827519972
 21
8.1035563694
  0
LINE
  5
7F1
100
AcDbEntity
  8
0
100
AcDbLine
 62
7
  6
CONTINUOUS
 10
3.8677026059
 20
7.9201650364
 11
3.8677499052
 21
7.9200609734
  0
LINE
  5
7F2
100
AcDbEntity
  8
0
100
AcDbLine
 62
7
  6
CONTINUOUS
 10
4.5757026059
 20
8.1021650434
 11
4.5709272633
 21
8.1011181917
  0
LINE
  5
7F3
100
AcDbEntity
  8
0
100
AcDbLine
 62
7
  6
CONTINUOUS
 10
4.5757026059
 20
8.0621650434
 11
4.5708750118
 21
8.061112467
  0
LWPOLYLINE
  5
7F4
100
AcDbEntity
  8
0
100
AcDbPolyline
 62
7
  6
CONTINUOUS
 90
3
 70
0
 10
4.5530938319
 20
8.0423136921
 10
4.5603971555
 20
8.0433947732
 10
4.5606532146
 20
8.0435563694
  0
LWPOLYLINE
  5
7F5
100
AcDbEntity
  8
0
100
AcDbPolyline
 62
7
  6
CONTINUOUS
 90
3
 70
0
 10
4.5530938319
 20
8.0823136921
 10
4.5603971555
 20
8.0833947732
 10
4.5606532146
 20
8.0835563694
  0
LWPOLYLINE
  5
7F6
100
AcDbEntity
  8
0
100
AcDbPolyline
 62
7
  6
CONTINUOUS
 90
20
 70
0
 10
3.8834995831
 20
7.9391016631
 10
3.8922450935
 20
7.9401791279
 10
3.9104053454
 20
7.9412565927
 10
3.9374613826
 20
7.9423340575
 10
3.9726400382
 20
7.9434115223
 10
4.0149360295
 20
7.9444889871
 10
4.0631406852
 20
7.9455664519
 10
4.1158764851
 20
7.9466439167
 10
4.1716364249
 20
7.9477213815
 10
4.2288270808
 20
7.9487988462
 10
4.2858141441
 20
7.949876311
 10
4.3409691242
 20
7.9509537758
 10
4.392715885
 20
7.9520312406
 10
4.4395756854
 20
7.9531087054
 10
4.4802094365
 20
7.9541861702
 10
4.5134559678
 20
7.955263635
 10
4.5383652102
 20
7.9563410998
 10
4.5542253445
 20
7.9574185646
 10
4.5605831439
 20
7.9584960293
 10
4.5607026059
 20
7.9586650434
  0
LWPOLYLINE
  5
7F7
100
AcDbEntity
  8
0
100
AcDbPolyline
 62
7
  6
CONTINUOUS
 90
9
 70
0
 10
3.8720077959
 20
8.0011589162
 10
3.8848073511
 20
8.0021521273
 10
3.9058986998
 20
8.0031496533
 10
3.9346633797
 20
8.0041451991
 10
3.9706643045
 20
8.0051466417
 10
4.0134168713
 20
8.0061603795
 10
4.0614287488
 20
8.0071738964
 10
4.1127919437
 20
8.0081741433
 10
4.1665922861
 20
8.0091699134
  0
LWPOLYLINE
  5
7F8
100
AcDbEntity
  8
0
100
AcDbPolyline
 62
7
  6
CONTINUOUS
 90
19
 70
0
 10
3.8724895209
 20
7.9612131657
 10
3.8869481307
 20
7.9622738942
 10
3.9106225512
 20
7.9633325091
 10
3.942377373
 20
7.9643764629
 10
3.9819260272
 20
7.9654277393
 10
4.0284480814
 20
7.9664886732
 10
4.0800747385
 20
7.967544699
 10
4.1348278876
 20
7.9685865996
 10
4.1925996645
 20
7.9696410761
 10
4.2515642249
 20
7.9707027021
 10
4.3093075565
 20
7.9717570374
 10
4.364051231
 20
7.9727995378
 10
4.4156552403
 20
7.9738564096
 10
4.4621102607
 20
7.9749177915
 10
4.5015572094
 20
7.975969145
 10
4.5330678302
 20
7.9770083397
 10
4.5565457497
 20
7.9780611011
 10
4.5709272633
 20
7.9791181917
 10
4.5756553066
 20
7.9800609734
  0
LWPOLYLINE
  5
7F9
100
AcDbEntity
  8
0
100
AcDbPolyline
 62
7
  6
CONTINUOUS
 90
19
 70
0
 10
4.5709149314
 20
8.0211168378
 10
4.5564548911
 20
8.0200560716
 10
4.5327805275
 20
8.0189974974
 10
4.5010254143
 20
8.017953553
 10
4.4614812547
 20
8.0169023982
 10
4.4149779486
 20
8.0158418606
 10
4.3633880105
 20
8.0147865169
 10
4.3086617345
 20
8.0137450532
 10
4.2508899173
 20
8.0126905332
 10
4.191924681
 20
8.0116288953
 10
4.1341798481
 20
8.010574575
 10
4.0794311901
 20
8.0095320655
 10
4.0278182926
 20
8.0084751458
 10
3.981354768
 20
8.0074137607
 10
3.941898815
 20
8.0063624338
 10
3.9103670108
 20
8.0053228669
 10
3.886867795
 20
8.0042694475
 10
3.8724787587
 20
8.0032119842
 10
3.8677499052
 20
8.0022691134
  0
LWPOLYLINE
  5
7FA
100
AcDbEntity
  8
0
100
AcDbPolyline
 62
7
  6
CONTINUOUS
 90
19
 70
0
 10
4.5708750118
 20
8.061112467
 10
4.5562956619
 20
8.0600472852
 10
4.5324330432
 20
8.0589844291
 10
4.5004552132
 20
8.0579368892
 10
4.4610611683
 20
8.0568921367
 10
4.4153086764
 20
8.0558489623
 10
4.3641410822
 20
8.0548013027
 10
4.3092885653
 20
8.0537566849
 10
4.2512998465
 20
8.0526979307
 10
4.1920914109
 20
8.0516319043
 10
4.1341061491
 20
8.0505732071
 10
4.0792580007
 20
8.0495286638
 10
4.0281032174
 20
8.0484812681
 10
3.9823518232
 20
8.0474381401
 10
3.9429502637
 20
8.0463932054
 10
3.9109709994
 20
8.0453456139
 10
3.8871078028
 20
8.0442827055
 10
3.8725295492
 20
8.0432175488
 10
3.8677499052
 20
8.0422691134
  0
LWPOLYLINE
  5
7FB
100
AcDbEntity
  8
0
100
AcDbPolyline
 62
7
  6
CONTINUOUS
 90
11
 70
0
 10
4.1646011347
 20
7.9875875786
 10
4.278993884
 20
7.9897461245
 10
4.3346369963
 20
7.9908272056
 10
4.3870311919
 20
7.9919082867
 10
4.434669185
 20
7.9929893678
 10
4.4761805174
 20
7.9940704488
 10
4.5103709836
 20
7.9951515299
 10
4.5362569862
 20
7.996232611
 10
4.5530938319
 20
7.9973136921
 10
4.5603971555
 20
7.9983947732
 10
4.5607026059
 20
7.9986650434
  0
LWPOLYLINE
  5
7FC
100
AcDbEntity
  8
0
100
AcDbPolyline
 62
7
  6
CONTINUOUS
 90
11
 70
0
 10
4.164868657
 20
7.992592675
 10
4.278993884
 20
7.9947461245
 10
4.3346369963
 20
7.9958272056
 10
4.3870311919
 20
7.9969082867
 10
4.434669185
 20
7.9979893678
 10
4.4761805174
 20
7.9990704488
 10
4.5103709836
 20
8.0001515299
 10
4.5362569862
 20
8.001232611
 10
4.5530938319
 20
8.0023136921
 10
4.5603971555
 20
8.0033947732
 10
4.5606532146
 20
8.0035563694
  0
LWPOLYLINE
  5
7FD
100
AcDbEntity
  8
0
100
AcDbPolyline
 62
7
  6
CONTINUOUS
 90
11
 70
0
 10
4.1644113278
 20
8.0275839623
 10
4.278993884
 20
8.0297461245
 10
4.3346369963
 20
8.0308272056
 10
4.3870311919
 20
8.0319082867
 10
4.434669185
 20
8.0329893678
 10
4.4761805174
 20
8.0340704488
 10
4.5103709836
 20
8.0351515299
 10
4.5362569862
 20
8.036232611
 10
4.5530938319
 20
8.0373136921
 10
4.5603971555
 20
8.0383947732
 10
4.5607026059
 20
8.0386650434
  0
LWPOLYLINE
  5
7FE
100
AcDbEntity
  8
0
100
AcDbPolyline
 62
7
  6
CONTINUOUS
 90
9
 70
0
 10
4.1644113278
 20
8.0325839623
 10
4.278993884
 20
8.0347461245
 10
4.3346369963
 20
8.0358272056
 10
4.3870311919
 20
8.0369082867
 10
4.434669185
 20
8.0379893678
 10
4.4761805174
 20
8.0390704488
 10
4.5103709836
 20
8.0401515299
 10
4.5362569862
 20
8.041232611
 10
4.5530938319
 20
8.0423136921
  0
LWPOLYLINE
  5
7FF
100
AcDbEntity
  8
0
100
AcDbPolyline
 62
7
  6
CONTINUOUS
 90
11
 70
0
 10
4.1665922861
 20
8.0091699134
 10
4.2768055833
 20
8.0111600398
 10
4.3305875457
 20
8.0121554574
 10
4.3819596924
 20
8.0131558522
 10
4.4299716772
 20
8.0141693367
 10
4.4727279023
 20
8.0151831135
 10
4.5087282429
 20
8.0161844702
 10
4.5375022215
 20
8.0171802628
 10
4.5586001164
 20
8.0181780917
 10
4.571398389
 20
8.0191712833
 10
4.5756553066
 20
8.0200609734
  0
LWPOLYLINE
  5
800
100
AcDbEntity
  8
0
100
AcDbPolyline
 62
7
  6
CONTINUOUS
 90
6
 70
0
 10
4.4754741567
 20
7.9121650434
 10
4.4775014417
 20
7.9116182218
 10
4.4792067904
 20
7.9101049823
 10
4.4804756589
 20
7.9078567723
 10
4.4812580778
 20
7.9050852832
 10
4.4815102271
 20
7.9021650434
  0
LINE
  5
801
100
AcDbEntity
  8
0
100
AcDbLine
 62
7
  6
CONTINUOUS
 10
3.8677499052
 20
8.1600609734
 11
3.8827519972
 21
8.1435563694
  0
LINE
  5
802
100
AcDbEntity
  8
0
100
AcDbLine
 62
7
  6
CONTINUOUS
 10
3.8677499052
 20
8.2000609734
 11
3.8827519972
 21
8.1835563694
  0
LINE
  5
803
100
AcDbEntity
  8
0
100
AcDbLine
 62
7
  6
CONTINUOUS
 10
3.8677499052
 20
7.9222691134
 11
3.8699245743
 21
7.922878701
  0
LINE
  5
804
100
AcDbEntity
  8
0
100
AcDbLine
 62
7
  6
CONTINUOUS
 10
4.5757026059
 20
8.1421650434
 11
4.571398389
 21
8.1411712833
  0
LINE
  5
805
100
AcDbEntity
  8
0
100
AcDbLine
 62
7
  6
CONTINUOUS
 10
3.8677026059
 20
8.0001650434
 11
3.8720077959
 21
8.0011589162
  0
LINE
  5
806
100
AcDbEntity
  8
0
100
AcDbLine
 62
7
  6
CONTINUOUS
 10
3.8677026059
 20
7.9601650434
 11
3.8724895209
 21
7.9612131657
  0
LWPOLYLINE
  5
807
100
AcDbEntity
  8
0
100
AcDbPolyline
 62
7
  6
CONTINUOUS
 90
9
 70
0
 10
3.8830080564
 20
8.0189353137
 10
3.8903113799
 20
8.0200163948
 10
3.9071482257
 20
8.0210974759
 10
3.9330342282
 20
8.0221785569
 10
3.9672246944
 20
8.023259638
 10
4.0087360268
 20
8.0243407191
 10
4.05637402
 20
8.0254218002
 10
4.1087682155
 20
8.0265028813
 10
4.1644113278
 20
8.0275839623
  0
LWPOLYLINE
  5
808
100
AcDbEntity
  8
0
100
AcDbPolyline
 62
7
  6
CONTINUOUS
 90
3
 70
0
 10
4.5530938319
 20
8.1223136921
 10
4.5603971555
 20
8.1233947732
 10
4.5606532146
 20
8.1235563694
  0
LWPOLYLINE
  5
809
100
AcDbEntity
  8
0
100
AcDbPolyline
 62
7
  6
CONTINUOUS
 90
19
 70
0
 10
3.8724787587
 20
8.0412119842
 10
3.886867795
 20
8.0422694475
 10
3.9103670108
 20
8.0433228669
 10
3.941898815
 20
8.0443624338
 10
3.981354768
 20
8.0454137607
 10
4.0278182926
 20
8.0464751458
 10
4.0794311901
 20
8.0475320655
 10
4.1341798481
 20
8.048574575
 10
4.191924681
 20
8.0496288953
 10
4.2508899173
 20
8.0506905332
 10
4.3086617345
 20
8.0517450532
 10
4.3633880105
 20
8.0527865169
 10
4.4149779486
 20
8.0538418606
 10
4.4614812547
 20
8.0549023982
 10
4.5010254143
 20
8.055953553
 10
4.5327805275
 20
8.0569974974
 10
4.5564548911
 20
8.0580560716
 10
4.5709149314
 20
8.0591168378
 10
4.5756553066
 20
8.0600609734
  0
LWPOLYLINE
  5
80A
100
AcDbEntity
  8
0
100
AcDbPolyline
 62
7
  6
CONTINUOUS
 90
19
 70
0
 10
4.5709272633
 20
8.1011181917
 10
4.5565457497
 20
8.1000611011
 10
4.5330678302
 20
8.0990083397
 10
4.5015572094
 20
8.097969145
 10
4.4621102607
 20
8.0969177915
 10
4.4156552403
 20
8.0958564096
 10
4.364051231
 20
8.0947995378
 10
4.3093075565
 20
8.0937570374
 10
4.2515642249
 20
8.0927027021
 10
4.1925996645
 20
8.0916410761
 10
4.1348278876
 20
8.0905865996
 10
4.0800747385
 20
8.089544699
 10
4.0284480814
 20
8.0884886732
 10
3.9819260272
 20
8.0874277393
 10
3.942377373
 20
8.0863764629
 10
3.9106225512
 20
8.0853325091
 10
3.8869481307
 20
8.0842738942
 10
3.8724895209
 20
8.0832131657
 10
3.8677499052
 20
8.0822691134
  0
LWPOLYLINE
  5
80B
100
AcDbEntity
  8
0
100
AcDbPolyline
 62
7
  6
CONTINUOUS
 90
11
 70
0
 10
4.1644113278
 20
8.0675839623
 10
4.278993884
 20
8.0697461245
 10
4.3346369963
 20
8.0708272056
 10
4.3870311919
 20
8.0719082867
 10
4.434669185
 20
8.0729893678
 10
4.4761805174
 20
8.0740704488
 10
4.5103709836
 20
8.0751515299
 10
4.5362569862
 20
8.076232611
 10
4.5530938319
 20
8.0773136921
 10
4.5603971555
 20
8.0783947732
 10
4.5607026059
 20
8.0786650434
  0
LWPOLYLINE
  5
80C
100
AcDbEntity
  8
0
100
AcDbPolyline
 62
7
  6
CONTINUOUS
 90
9
 70
0
 10
4.1644113278
 20
8.0725839623
 10
4.278993884
 20
8.0747461245
 10
4.3346369963
 20
8.0758272056
 10
4.3870311919
 20
8.0769082867
 10
4.434669185
 20
8.0779893678
 10
4.4761805174
 20
8.0790704488
 10
4.5103709836
 20
8.0801515299
 10
4.5362569862
 20
8.081232611
 10
4.5530938319
 20
8.0823136921
  0
LINE
  5
80D
100
AcDbEntity
  8
0
100
AcDbLine
 62
7
  6
CONTINUOUS
 10
3.8677499052
 20
8.2400609734
 11
3.8827519972
 21
8.2235563694
  0
LINE
  5
80E
100
AcDbEntity
  8
0
100
AcDbLine
 62
7
  6
CONTINUOUS
 10
3.8677499052
 20
8.2800609734
 11
3.8827519972
 21
8.2635563694
  0
LINE
  5
80F
100
AcDbEntity
  8
0
100
AcDbLine
 62
7
  6
CONTINUOUS
 10
3.8677026059
 20
8.4421650434
 11
3.8677026059
 21
8.4401650434
  0
LINE
  5
810
100
AcDbEntity
  8
0
100
AcDbLine
 62
7
  6
CONTINUOUS
 10
3.8677026059
 20
8.4021650434
 11
3.8677026059
 21
8.4001650434
  0
LINE
  5
811
100
AcDbEntity
  8
0
100
AcDbLine
 62
7
  6
CONTINUOUS
 10
3.8677026059
 20
8.3621650434
 11
3.8677026059
 21
8.3601650434
  0
LINE
  5
812
100
AcDbEntity
  8
0
100
AcDbLine
 62
7
  6
CONTINUOUS
 10
3.8677026059
 20
8.3221650434
 11
3.8677026059
 21
8.3201650434
  0
LINE
  5
813
100
AcDbEntity
  8
0
100
AcDbLine
 62
7
  6
CONTINUOUS
 10
3.8677026059
 20
8.2821650434
 11
3.8677026059
 21
8.2801650434
  0
LINE
  5
814
100
AcDbEntity
  8
0
100
AcDbLine
 62
7
  6
CONTINUOUS
 10
3.8677026059
 20
8.2421650434
 11
3.8677026059
 21
8.2401650434
  0
LINE
  5
815
100
AcDbEntity
  8
0
100
AcDbLine
 62
7
  6
CONTINUOUS
 10
3.8677026059
 20
8.2021650434
 11
3.8677026059
 21
8.2001650434
  0
LINE
  5
816
100
AcDbEntity
  8
0
100
AcDbLine
 62
7
  6
CONTINUOUS
 10
3.8677026059
 20
8.1621650434
 11
3.8677026059
 21
8.1601650434
  0
LINE
  5
817
100
AcDbEntity
  8
0
100
AcDbLine
 62
7
  6
CONTINUOUS
 10
3.8677026059
 20
8.1221650434
 11
3.8677026059
 21
8.1201650434
  0
LINE
  5
818
100
AcDbEntity
  8
0
100
AcDbLine
 62
7
  6
CONTINUOUS
 10
3.8677026059
 20
8.0821650434
 11
3.8677026059
 21
8.0801650434
  0
LINE
  5
819
100
AcDbEntity
  8
0
100
AcDbLine
 62
7
  6
CONTINUOUS
 10
3.8677026059
 20
8.0421650434
 11
3.8677026059
 21
8.0401650434
  0
LINE
  5
81A
100
AcDbEntity
  8
0
100
AcDbLine
 62
7
  6
CONTINUOUS
 10
3.8677026059
 20
8.0021650434
 11
3.8677026059
 21
8.0001650434
  0
LINE
  5
81B
100
AcDbEntity
  8
0
100
AcDbLine
 62
7
  6
CONTINUOUS
 10
3.8677026059
 20
7.9621650434
 11
3.8677026059
 21
7.9601650434
  0
LINE
  5
81C
100
AcDbEntity
  8
0
100
AcDbLine
 62
7
  6
CONTINUOUS
 10
3.8677026059
 20
7.9221650434
 11
3.8677026059
 21
7.9201650434
  0
LINE
  5
81D
100
AcDbEntity
  8
0
100
AcDbLine
 62
7
  6
CONTINUOUS
 10
3.8827026059
 20
8.4236650434
 11
3.8827026059
 21
8.4186650434
  0
LINE
  5
81E
100
AcDbEntity
  8
0
100
AcDbLine
 62
7
  6
CONTINUOUS
 10
3.8827026059
 20
8.3836650434
 11
3.8827026059
 21
8.3786650434
  0
LINE
  5
81F
100
AcDbEntity
  8
0
100
AcDbLine
 62
7
  6
CONTINUOUS
 10
3.8827026059
 20
8.3436650434
 11
3.8827026059
 21
8.3386650434
  0
LINE
  5
820
100
AcDbEntity
  8
0
100
AcDbLine
 62
7
  6
CONTINUOUS
 10
3.8827026059
 20
8.3036650434
 11
3.8827026059
 21
8.2986650434
  0
LINE
  5
821
100
AcDbEntity
  8
0
100
AcDbLine
 62
7
  6
CONTINUOUS
 10
3.8827026059
 20
8.2636650434
 11
3.8827026059
 21
8.2586650434
  0
LINE
  5
822
100
AcDbEntity
  8
0
100
AcDbLine
 62
7
  6
CONTINUOUS
 10
3.8827026059
 20
8.2236650434
 11
3.8827026059
 21
8.2186650434
  0
LINE
  5
823
100
AcDbEntity
  8
0
100
AcDbLine
 62
7
  6
CONTINUOUS
 10
3.8827026059
 20
8.1836650434
 11
3.8827026059
 21
8.1786650434
  0
LINE
  5
824
100
AcDbEntity
  8
0
100
AcDbLine
 62
7
  6
CONTINUOUS
 10
3.8827026059
 20
8.1436650434
 11
3.8827026059
 21
8.1386650434
  0
LINE
  5
825
100
AcDbEntity
  8
0
100
AcDbLine
 62
7
  6
CONTINUOUS
 10
3.8827026059
 20
8.1036650434
 11
3.8827026059
 21
8.0986650434
  0
LINE
  5
826
100
AcDbEntity
  8
0
100
AcDbLine
 62
7
  6
CONTINUOUS
 10
3.8827026059
 20
8.0636650434
 11
3.8827026059
 21
8.0586650434
  0
LINE
  5
827
100
AcDbEntity
  8
0
100
AcDbLine
 62
7
  6
CONTINUOUS
 10
3.8827026059
 20
8.0236650434
 11
3.8827026059
 21
8.0186650434
  0
LINE
  5
828
100
AcDbEntity
  8
0
100
AcDbLine
 62
7
  6
CONTINUOUS
 10
3.8827026059
 20
7.9836650434
 11
3.8827026059
 21
7.9786650434
  0
LINE
  5
829
100
AcDbEntity
  8
0
100
AcDbLine
 62
7
  6
CONTINUOUS
 10
3.8827026059
 20
7.9436650434
 11
3.8827026059
 21
7.9386650434
  0
LINE
  5
82A
100
AcDbEntity
  8
0
100
AcDbLine
 62
7
  6
CONTINUOUS
 10
3.8829526059
 20
8.4896650434
 11
3.8829526059
 21
8.4521650434
  0
LINE
  5
82B
100
AcDbEntity
  8
0
100
AcDbLine
 62
7
  6
CONTINUOUS
 10
3.8677026059
 20
8.0401650434
 11
3.8724787587
 21
8.0412119842
  0
LINE
  5
82C
100
AcDbEntity
  8
0
100
AcDbLine
 62
7
  6
CONTINUOUS
 10
4.5757026059
 20
8.1821650434
 11
4.5709149314
 21
8.1811168378
  0
LWPOLYLINE
  5
82D
100
AcDbEntity
  8
0
100
AcDbPolyline
 62
7
  6
CONTINUOUS
 90
9
 70
0
 10
3.8830080564
 20
8.0589353137
 10
3.8903113799
 20
8.0600163948
 10
3.9071482257
 20
8.0610974759
 10
3.9330342282
 20
8.0621785569
 10
3.9672246944
 20
8.063259638
 10
4.0087360268
 20
8.0643407191
 10
4.05637402
 20
8.0654218002
 10
4.1087682155
 20
8.0665028813
 10
4.1644113278
 20
8.0675839623
  0
LWPOLYLINE
  5
82E
100
AcDbEntity
  8
0
100
AcDbPolyline
 62
7
  6
CONTINUOUS
 90
9
 70
0
 10
4.571398389
 20
8.1411712833
 10
4.5586001164
 20
8.1401780917
 10
4.5375022215
 20
8.1391802628
 10
4.5087282429
 20
8.1381844702
 10
4.4727279023
 20
8.1371831135
 10
4.4299716772
 20
8.1361693367
 10
4.3819596924
 20
8.1351558522
 10
4.3305875457
 20
8.1341554574
 10
4.2768055833
 20
8.1331600398
  0
LWPOLYLINE
  5
82F
100
AcDbEntity
  8
0
100
AcDbPolyline
 62
7
  6
CONTINUOUS
 90
19
 70
0
 10
3.8724895209
 20
8.1212131657
 10
3.8869481307
 20
8.1222738942
 10
3.9106225512
 20
8.1233325091
 10
3.942377373
 20
8.1243764629
 10
3.9819260272
 20
8.1254277393
 10
4.0284480814
 20
8.1264886732
 10
4.0800747385
 20
8.127544699
 10
4.1348278876
 20
8.1285865996
 10
4.1925996645
 20
8.1296410761
 10
4.2515642249
 20
8.1307027021
 10
4.3093075565
 20
8.1317570374
 10
4.364051231
 20
8.1327995378
 10
4.4156552403
 20
8.1338564096
 10
4.4621102607
 20
8.1349177915
 10
4.5015572094
 20
8.135969145
 10
4.5330678302
 20
8.1370083397
 10
4.5565457497
 20
8.1380611011
 10
4.5709272633
 20
8.1391181917
 10
4.5756553066
 20
8.1400609734
  0
LWPOLYLINE
  5
830
100
AcDbEntity
  8
0
100
AcDbPolyline
 62
7
  6
CONTINUOUS
 90
19
 70
0
 10
3.8725295492
 20
8.0812175488
 10
3.8871078028
 20
8.0822827055
 10
3.9109709994
 20
8.0833456139
 10
3.9429502637
 20
8.0843932054
 10
3.9823518232
 20
8.0854381401
 10
4.0281032174
 20
8.0864812681
 10
4.0792580007
 20
8.0875286638
 10
4.1341061491
 20
8.0885732071
 10
4.1920914109
 20
8.0896319043
 10
4.2512998465
 20
8.0906979307
 10
4.3092885653
 20
8.0917566849
 10
4.3641410822
 20
8.0928013027
 10
4.4153086764
 20
8.0938489623
 10
4.4610611683
 20
8.0948921367
 10
4.5004552132
 20
8.0959368892
 10
4.5324330432
 20
8.0969844291
 10
4.5562956619
 20
8.0980472852
 10
4.5708750118
 20
8.099112467
 10
4.5756553066
 20
8.1000609734
  0
LWPOLYLINE
  5
831
100
AcDbEntity
  8
0
100
AcDbPolyline
 62
7
  6
CONTINUOUS
 90
11
 70
0
 10
4.1644113278
 20
8.1075839623
 10
4.278993884
 20
8.1097461245
 10
4.3346369963
 20
8.1108272056
 10
4.3870311919
 20
8.1119082867
 10
4.434669185
 20
8.1129893678
 10
4.4761805174
 20
8.1140704488
 10
4.5103709836
 20
8.1151515299
 10
4.5362569862
 20
8.116232611
 10
4.5530938319
 20
8.1173136921
 10
4.5603971555
 20
8.1183947732
 10
4.5607026059
 20
8.1186650434
  0
LWPOLYLINE
  5
832
100
AcDbEntity
  8
0
100
AcDbPolyline
 62
7
  6
CONTINUOUS
 90
9
 70
0
 10
4.1644113278
 20
8.1125839623
 10
4.278993884
 20
8.1147461245
 10
4.3346369963
 20
8.1158272056
 10
4.3870311919
 20
8.1169082867
 10
4.434669185
 20
8.1179893678
 10
4.4761805174
 20
8.1190704488
 10
4.5103709836
 20
8.1201515299
 10
4.5362569862
 20
8.121232611
 10
4.5530938319
 20
8.1223136921
  0
LWPOLYLINE
  5
833
100
AcDbEntity
  8
0
100
AcDbPolyline
 62
7
  6
CONTINUOUS
 90
11
 70
0
 10
4.1644113278
 20
8.1475839623
 10
4.278993884
 20
8.1497461245
 10
4.3346369963
 20
8.1508272056
 10
4.3870311919
 20
8.1519082867
 10
4.434669185
 20
8.1529893678
 10
4.4761805174
 20
8.1540704488
 10
4.5103709836
 20
8.1551515299
 10
4.5362569862
 20
8.156232611
 10
4.5530938319
 20
8.1573136921
 10
4.5603971555
 20
8.1583947732
 10
4.5607026059
 20
8.1586650434
  0
LWPOLYLINE
  5
834
100
AcDbEntity
  8
0
100
AcDbPolyline
 62
7
  6
CONTINUOUS
 90
11
 70
0
 10
4.2768055833
 20
8.1331600398
 10
4.1665922861
 20
8.1311699134
 10
4.1127919437
 20
8.1301741433
 10
4.0614287488
 20
8.1291738964
 10
4.0134168713
 20
8.1281603795
 10
3.9706643045
 20
8.1271466417
 10
3.9346633797
 20
8.1261451991
 10
3.9058986998
 20
8.1251496533
 10
3.8848073511
 20
8.1241521273
 10
3.8720077959
 20
8.1231589162
 10
3.8677499052
 20
8.1222691134
  0
LINE
  5
835
100
AcDbEntity
  8
0
100
AcDbLine
 62
7
  6
CONTINUOUS
 10
3.8677499052
 20
8.3200609734
 11
3.8827519972
 21
8.3035563694
  0
LINE
  5
836
100
AcDbEntity
  8
0
100
AcDbLine
 62
7
  6
CONTINUOUS
 10
3.8677499052
 20
8.3600609734
 11
3.8827519972
 21
8.3435563694
  0
LINE
  5
837
100
AcDbEntity
  8
0
100
AcDbLine
 62
7
  6
CONTINUOUS
 10
3.8677026059
 20
8.4401650498
 11
3.8677499052
 21
8.4400609734
  0
LINE
  5
838
100
AcDbEntity
  8
0
100
AcDbLine
 62
7
  6
CONTINUOUS
 10
3.9017026059
 20
7.9121650434
 11
3.9017026059
 21
7.8721650434
  0
LINE
  5
839
100
AcDbEntity
  8
0
100
AcDbLine
 62
7
  6
CONTINUOUS
 10
3.9390367254
 20
7.9121650434
 11
3.9390367254
 21
7.8721650434
  0
LINE
  5
83A
100
AcDbEntity
  8
0
100
AcDbLine
 62
7
  6
CONTINUOUS
 10
3.8677499052
 20
8.4022691134
 11
3.8677026059
 21
8.4021650434
  0
LINE
  5
83B
100
AcDbEntity
  8
0
100
AcDbLine
 62
7
  6
CONTINUOUS
 10
3.8677026059
 20
8.442165051
 11
3.8677499052
 21
8.4422691134
  0
LINE
  5
83C
100
AcDbEntity
  8
0
100
AcDbLine
 62
7
  6
CONTINUOUS
 10
4.5757026059
 20
8.2621650434
 11
4.5709272633
 21
8.2611181917
  0
LINE
  5
83D
100
AcDbEntity
  8
0
100
AcDbLine
 62
7
  6
CONTINUOUS
 10
3.8677026059
 20
8.1201650434
 11
3.8724895209
 21
8.1212131657
  0
LINE
  5
83E
100
AcDbEntity
  8
0
100
AcDbLine
 62
7
  6
CONTINUOUS
 10
4.5757026059
 20
8.2221650434
 11
4.5708750118
 21
8.221112467
  0
LINE
  5
83F
100
AcDbEntity
  8
0
100
AcDbLine
 62
7
  6
CONTINUOUS
 10
3.8677026059
 20
8.0801650434
 11
3.8725295492
 21
8.0812175488
  0
LWPOLYLINE
  5
840
100
AcDbEntity
  8
0
100
AcDbPolyline
 62
7
  6
CONTINUOUS
 90
9
 70
0
 10
3.8830080564
 20
8.0989353137
 10
3.8903113799
 20
8.1000163948
 10
3.9071482257
 20
8.1010974759
 10
3.9330342282
 20
8.1021785569
 10
3.9672246944
 20
8.103259638
 10
4.0087360268
 20
8.1043407191
 10
4.05637402
 20
8.1054218002
 10
4.1087682155
 20
8.1065028813
 10
4.1644113278
 20
8.1075839623
  0
LWPOLYLINE
  5
841
100
AcDbEntity
  8
0
100
AcDbPolyline
 62
7
  6
CONTINUOUS
 90
3
 70
0
 10
4.5530938319
 20
8.2023136921
 10
4.5603971555
 20
8.2033947732
 10
4.5606532146
 20
8.2035563694
  0
LWPOLYLINE
  5
842
100
AcDbEntity
  8
0
100
AcDbPolyline
 62
7
  6
CONTINUOUS
 90
3
 70
0
 10
4.5530938319
 20
8.2423136921
 10
4.5603971555
 20
8.2433947732
 10
4.5606532146
 20
8.2435563694
  0
LWPOLYLINE
  5
843
100
AcDbEntity
  8
0
100
AcDbPolyline
 62
7
  6
CONTINUOUS
 90
9
 70
0
 10
3.8720077959
 20
8.1611589162
 10
3.8848073511
 20
8.1621521273
 10
3.9058986998
 20
8.1631496533
 10
3.9346633797
 20
8.1641451991
 10
3.9706643045
 20
8.1651466417
 10
4.0134168713
 20
8.1661603795
 10
4.0614287488
 20
8.1671738964
 10
4.1127919437
 20
8.1681741433
 10
4.1665922861
 20
8.1691699134
  0
LWPOLYLINE
  5
844
100
AcDbEntity
  8
0
100
AcDbPolyline
 62
7
  6
CONTINUOUS
 90
19
 70
0
 10
4.5709149314
 20
8.1811168378
 10
4.5564548911
 20
8.1800560716
 10
4.5327805275
 20
8.1789974974
 10
4.5010254143
 20
8.177953553
 10
4.4614812547
 20
8.1769023982
 10
4.4149779486
 20
8.1758418606
 10
4.3633880105
 20
8.1747865169
 10
4.3086617345
 20
8.1737450532
 10
4.2508899173
 20
8.1726905332
 10
4.191924681
 20
8.1716288953
 10
4.1341798481
 20
8.170574575
 10
4.0794311901
 20
8.1695320655
 10
4.0278182926
 20
8.1684751458
 10
3.981354768
 20
8.1674137607
 10
3.941898815
 20
8.1663624338
 10
3.9103670108
 20
8.1653228669
 10
3.886867795
 20
8.1642694475
 10
3.8724787587
 20
8.1632119842
 10
3.8677499052
 20
8.1622691134
  0
LWPOLYLINE
  5
845
100
AcDbEntity
  8
0
100
AcDbPolyline
 62
7
  6
CONTINUOUS
 90
19
 70
0
 10
4.5708750118
 20
8.221112467
 10
4.5562956619
 20
8.2200472852
 10
4.5324330432
 20
8.2189844291
 10
4.5004552132
 20
8.2179368892
 10
4.4610611683
 20
8.2168921367
 10
4.4153086764
 20
8.2158489623
 10
4.3641410822
 20
8.2148013027
 10
4.3092885653
 20
8.2137566849
 10
4.2512998465
 20
8.2126979307
 10
4.1920914109
 20
8.2116319043
 10
4.1341061491
 20
8.2105732071
 10
4.0792580007
 20
8.2095286638
 10
4.0281032174
 20
8.2084812681
 10
3.9823518232
 20
8.2074381401
 10
3.9429502637
 20
8.2063932054
 10
3.9109709994
 20
8.2053456139
 10
3.8871078028
 20
8.2042827055
 10
3.8725295492
 20
8.2032175488
 10
3.8677499052
 20
8.2022691134
  0
LWPOLYLINE
  5
846
100
AcDbEntity
  8
0
100
AcDbPolyline
 62
7
  6
CONTINUOUS
 90
11
 70
0
 10
4.1644113278
 20
8.1525839623
 10
4.278993884
 20
8.1547461245
 10
4.3346369963
 20
8.1558272056
 10
4.3870311919
 20
8.1569082867
 10
4.434669185
 20
8.1579893678
 10
4.4761805174
 20
8.1590704488
 10
4.5103709836
 20
8.1601515299
 10
4.5362569862
 20
8.161232611
 10
4.5530938319
 20
8.1623136921
 10
4.5603971555
 20
8.1633947732
 10
4.5606532146
 20
8.1635563694
  0
LWPOLYLINE
  5
847
100
AcDbEntity
  8
0
100
AcDbPolyline
 62
7
  6
CONTINUOUS
 90
11
 70
0
 10
4.1644113278
 20
8.1875839623
 10
4.278993884
 20
8.1897461245
 10
4.3346369963
 20
8.1908272056
 10
4.3870311919
 20
8.1919082867
 10
4.434669185
 20
8.1929893678
 10
4.4761805174
 20
8.1940704488
 10
4.5103709836
 20
8.1951515299
 10
4.5362569862
 20
8.196232611
 10
4.5530938319
 20
8.1973136921
 10
4.5603971555
 20
8.1983947732
 10
4.5607026059
 20
8.1986650434
  0
LWPOLYLINE
  5
848
100
AcDbEntity
  8
0
100
AcDbPolyline
 62
7
  6
CONTINUOUS
 90
9
 70
0
 10
4.1644113278
 20
8.1925839623
 10
4.278993884
 20
8.1947461245
 10
4.3346369963
 20
8.1958272056
 10
4.3870311919
 20
8.1969082867
 10
4.434669185
 20
8.1979893678
 10
4.4761805174
 20
8.1990704488
 10
4.5103709836
 20
8.2001515299
 10
4.5362569862
 20
8.201232611
 10
4.5530938319
 20
8.2023136921
  0
LWPOLYLINE
  5
849
100
AcDbEntity
  8
0
100
AcDbPolyline
 62
7
  6
CONTINUOUS
 90
11
 70
0
 10
4.1665922861
 20
8.1691699134
 10
4.2768055833
 20
8.1711600398
 10
4.3305875457
 20
8.1721554574
 10
4.3819596924
 20
8.1731558522
 10
4.4299716772
 20
8.1741693367
 10
4.4727279023
 20
8.1751831135
 10
4.5087282429
 20
8.1761844702
 10
4.5375022215
 20
8.1771802628
 10
4.5586001164
 20
8.1781780917
 10
4.571398389
 20
8.1791712833
 10
4.5756553066
 20
8.1800609734
  0
LINE
  5
84A
100
AcDbEntity
  8
0
100
AcDbLine
 62
7
  6
CONTINUOUS
 10
3.8677499052
 20
8.4000609734
 11
3.8827519972
 21
8.3835563694
  0
LINE
  5
84B
100
AcDbEntity
  8
0
100
AcDbLine
 62
7
  6
CONTINUOUS
 10
3.8677499052
 20
8.4400609734
 11
3.8827519972
 21
8.4235563694
  0
LINE
  5
84C
100
AcDbEntity
  8
0
100
AcDbLine
 62
7
  6
CONTINUOUS
 10
3.9618949848
 20
7.9021650434
 11
3.9618949848
 21
7.9121650434
  0
LINE
  5
84D
100
AcDbEntity
  8
0
100
AcDbLine
 62
7
  6
CONTINUOUS
 10
3.8677499052
 20
8.3622691134
 11
3.8677026059
 21
8.3621650434
  0
LINE
  5
84E
100
AcDbEntity
  8
0
100
AcDbLine
 62
7
  6
CONTINUOUS
 10
3.8677499052
 20
8.3222691134
 11
3.8677026059
 21
8.3221650434
  0
LINE
  5
84F
100
AcDbEntity
  8
0
100
AcDbLine
 62
7
  6
CONTINUOUS
 10
3.8677499052
 20
8.2822691134
 11
3.8677026059
 21
8.2821650434
  0
LINE
  5
850
100
AcDbEntity
  8
0
100
AcDbLine
 62
7
  6
CONTINUOUS
 10
3.8677499052
 20
8.2422691134
 11
3.8677026059
 21
8.2421650434
  0
LINE
  5
851
100
AcDbEntity
  8
0
100
AcDbLine
 62
7
  6
CONTINUOUS
 10
3.8767449718
 20
8.4521650434
 11
3.8677499052
 21
8.4422691134
  0
LINE
  5
852
100
AcDbEntity
  8
0
100
AcDbLine
 62
7
  6
CONTINUOUS
 10
4.5757026059
 20
8.3021650434
 11
4.571398389
 21
8.3011712833
  0
LINE
  5
853
100
AcDbEntity
  8
0
100
AcDbLine
 62
7
  6
CONTINUOUS
 10
3.8677026059
 20
8.1601650434
 11
3.8720077959
 21
8.1611589162
  0
LWPOLYLINE
  5
854
100
AcDbEntity
  8
0
100
AcDbPolyline
 62
7
  6
CONTINUOUS
 90
9
 70
0
 10
3.8830080564
 20
8.1789353137
 10
3.8903113799
 20
8.1800163948
 10
3.9071482257
 20
8.1810974759
 10
3.9330342282
 20
8.1821785569
 10
3.9672246944
 20
8.183259638
 10
4.0087360268
 20
8.1843407191
 10
4.05637402
 20
8.1854218002
 10
4.1087682155
 20
8.1865028813
 10
4.1644113278
 20
8.1875839623
  0
LWPOLYLINE
  5
855
100
AcDbEntity
  8
0
100
AcDbPolyline
 62
7
  6
CONTINUOUS
 90
3
 70
0
 10
4.5530938319
 20
8.2823136921
 10
4.5603971555
 20
8.2833947732
 10
4.5606532146
 20
8.2835563694
  0
LWPOLYLINE
  5
856
100
AcDbEntity
  8
0
100
AcDbPolyline
 62
7
  6
CONTINUOUS
 90
19
 70
0
 10
3.8724787587
 20
8.2012119842
 10
3.886867795
 20
8.2022694475
 10
3.9103670108
 20
8.2033228669
 10
3.941898815
 20
8.2043624338
 10
3.981354768
 20
8.2054137607
 10
4.0278182926
 20
8.2064751458
 10
4.0794311901
 20
8.2075320655
 10
4.1341798481
 20
8.208574575
 10
4.191924681
 20
8.2096288953
 10
4.2508899173
 20
8.2106905332
 10
4.3086617345
 20
8.2117450532
 10
4.3633880105
 20
8.2127865169
 10
4.4149779486
 20
8.2138418606
 10
4.4614812547
 20
8.2149023982
 10
4.5010254143
 20
8.215953553
 10
4.5327805275
 20
8.2169974974
 10
4.5564548911
 20
8.2180560716
 10
4.5709149314
 20
8.2191168378
 10
4.5756553066
 20
8.2200609734
  0
LWPOLYLINE
  5
857
100
AcDbEntity
  8
0
100
AcDbPolyline
 62
7
  6
CONTINUOUS
 90
19
 70
0
 10
4.5709272633
 20
8.2611181917
 10
4.5565457497
 20
8.2600611011
 10
4.5330678302
 20
8.2590083397
 10
4.5015572094
 20
8.257969145
 10
4.4621102607
 20
8.2569177915
 10
4.4156552403
 20
8.2558564096
 10
4.364051231
 20
8.2547995378
 10
4.3093075565
 20
8.2537570374
 10
4.2515642249
 20
8.2527027021
 10
4.1925996645
 20
8.2516410761
 10
4.1348278876
 20
8.2505865996
 10
4.0800747385
 20
8.249544699
 10
4.0284480814
 20
8.2484886732
 10
3.9819260272
 20
8.2474277393
 10
3.942377373
 20
8.2463764629
 10
3.9106225512
 20
8.2453325091
 10
3.8869481307
 20
8.2442738942
 10
3.8724895209
 20
8.2432131657
 10
3.8677499052
 20
8.2422691134
  0
LWPOLYLINE
  5
858
100
AcDbEntity
  8
0
100
AcDbPolyline
 62
7
  6
CONTINUOUS
 90
11
 70
0
 10
4.1644113278
 20
8.2275839623
 10
4.278993884
 20
8.2297461245
 10
4.3346369963
 20
8.2308272056
 10
4.3870311919
 20
8.2319082867
 10
4.434669185
 20
8.2329893678
 10
4.4761805174
 20
8.2340704488
 10
4.5103709836
 20
8.2351515299
 10
4.5362569862
 20
8.236232611
 10
4.5530938319
 20
8.2373136921
 10
4.5603971555
 20
8.2383947732
 10
4.5607026059
 20
8.2386650434
  0
LWPOLYLINE
  5
859
100
AcDbEntity
  8
0
100
AcDbPolyline
 62
7
  6
CONTINUOUS
 90
9
 70
0
 10
4.1644113278
 20
8.2325839623
 10
4.278993884
 20
8.2347461245
 10
4.3346369963
 20
8.2358272056
 10
4.3870311919
 20
8.2369082867
 10
4.434669185
 20
8.2379893678
 10
4.4761805174
 20
8.2390704488
 10
4.5103709836
 20
8.2401515299
 10
4.5362569862
 20
8.241232611
 10
4.5530938319
 20
8.2423136921
  0
LINE
  5
85A
100
AcDbEntity
  8
0
100
AcDbLine
 62
7
  6
CONTINUOUS
 10
4.0067026059
 20
7.9021650434
 11
4.0067026059
 21
7.8721650434
  0
LWPOLYLINE
  5
85B
100
AcDbEntity
  8
0
100
AcDbPolyline
 62
7
  6
CONTINUOUS
 90
6
 70
0
 10
3.9618949848
 20
7.9021650434
 10
3.962147134
 20
7.9050852832
 10
3.9629295529
 20
7.9078567723
 10
3.9641984214
 20
7.9101049823
 10
3.9659037701
 20
7.9116182218
 10
3.9679310551
 20
7.9121650434
  0
LINE
  5
85C
100
AcDbEntity
  8
0
100
AcDbLine
 62
7
  6
CONTINUOUS
 10
3.8677499052
 20
8.2022691134
 11
3.8677026059
 21
8.2021650434
  0
LINE
  5
85D
100
AcDbEntity
  8
0
100
AcDbLine
 62
7
  6
CONTINUOUS
 10
3.8677499052
 20
8.1622691134
 11
3.8677026059
 21
8.1621650434
  0
LINE
  5
85E
100
AcDbEntity
  8
0
100
AcDbLine
 62
7
  6
CONTINUOUS
 10
3.8677499052
 20
8.1222691134
 11
3.8677026059
 21
8.1221650434
  0
LINE
  5
85F
100
AcDbEntity
  8
0
100
AcDbLine
 62
7
  6
CONTINUOUS
 10
3.8827519972
 20
8.4187737174
 11
3.8677499052
 21
8.4022691134
  0
LINE
  5
860
100
AcDbEntity
  8
0
100
AcDbLine
 62
7
  6
CONTINUOUS
 10
3.8827519972
 20
8.3787737174
 11
3.8677499052
 21
8.3622691134
  0
LINE
  5
861
100
AcDbEntity
  8
0
100
AcDbLine
 62
7
  6
CONTINUOUS
 10
3.8680148031
 20
8.4404324302
 11
3.8677026059
 21
8.4401650498
  0
LINE
  5
862
100
AcDbEntity
  8
0
100
AcDbLine
 62
7
  6
CONTINUOUS
 10
3.8677026059
 20
8.2001650434
 11
3.8724787587
 21
8.2012119842
  0
LINE
  5
863
100
AcDbEntity
  8
0
100
AcDbLine
 62
7
  6
CONTINUOUS
 10
4.5757026059
 20
8.3421650434
 11
4.5709149314
 21
8.3411168378
  0
LINE
  5
864
100
AcDbEntity
  8
0
100
AcDbLine
 62
7
  6
CONTINUOUS
 10
4.5757026059
 20
8.3821650434
 11
4.5708750118
 21
8.381112467
  0
LINE
  5
865
100
AcDbEntity
  8
0
100
AcDbLine
 62
7
  6
CONTINUOUS
 10
3.8677026059
 20
8.2401650434
 11
3.8725295492
 21
8.2412175488
  0
LWPOLYLINE
  5
866
100
AcDbEntity
  8
0
100
AcDbPolyline
 62
7
  6
CONTINUOUS
 90
9
 70
0
 10
3.8830080564
 20
8.2189353137
 10
3.8903113799
 20
8.2200163948
 10
3.9071482257
 20
8.2210974759
 10
3.9330342282
 20
8.2221785569
 10
3.9672246944
 20
8.223259638
 10
4.0087360268
 20
8.2243407191
 10
4.05637402
 20
8.2254218002
 10
4.1087682155
 20
8.2265028813
 10
4.1644113278
 20
8.2275839623
  0
LWPOLYLINE
  5
867
100
AcDbEntity
  8
0
100
AcDbPolyline
 62
7
  6
CONTINUOUS
 90
9
 70
0
 10
3.8830080564
 20
8.2589353137
 10
3.8903113799
 20
8.2600163948
 10
3.9071482257
 20
8.2610974759
 10
3.9330342282
 20
8.2621785569
 10
3.9672246944
 20
8.263259638
 10
4.0087360268
 20
8.2643407191
 10
4.05637402
 20
8.2654218002
 10
4.1087682155
 20
8.2665028813
 10
4.1644113278
 20
8.2675839623
  0
LWPOLYLINE
  5
868
100
AcDbEntity
  8
0
100
AcDbPolyline
 62
7
  6
CONTINUOUS
 90
9
 70
0
 10
4.571398389
 20
8.3011712833
 10
4.5586001164
 20
8.3001780917
 10
4.5375022215
 20
8.2991802628
 10
4.5087282429
 20
8.2981844702
 10
4.4727279023
 20
8.2971831135
 10
4.4299716772
 20
8.2961693367
 10
4.3819596924
 20
8.2951558522
 10
4.3305875457
 20
8.2941554574
 10
4.2768055833
 20
8.2931600398
  0
LWPOLYLINE
  5
869
100
AcDbEntity
  8
0
100
AcDbPolyline
 62
7
  6
CONTINUOUS
 90
19
 70
0
 10
3.8724895209
 20
8.2812131657
 10
3.8869481307
 20
8.2822738942
 10
3.9106225512
 20
8.2833325091
 10
3.942377373
 20
8.2843764629
 10
3.9819260272
 20
8.2854277393
 10
4.0284480814
 20
8.2864886732
 10
4.0800747385
 20
8.287544699
 10
4.1348278876
 20
8.2885865996
 10
4.1925996645
 20
8.2896410761
 10
4.2515642249
 20
8.2907027021
 10
4.3093075565
 20
8.2917570374
 10
4.364051231
 20
8.2927995378
 10
4.4156552403
 20
8.2938564096
 10
4.4621102607
 20
8.2949177915
 10
4.5015572094
 20
8.295969145
 10
4.5330678302
 20
8.2970083397
 10
4.5565457497
 20
8.2980611011
 10
4.5709272633
 20
8.2991181917
 10
4.5756553066
 20
8.3000609734
  0
LWPOLYLINE
  5
86A
100
AcDbEntity
  8
0
100
AcDbPolyline
 62
7
  6
CONTINUOUS
 90
19
 70
0
 10
4.5709149314
 20
8.3411168378
 10
4.5564548911
 20
8.3400560716
 10
4.5327805275
 20
8.3389974974
 10
4.5010254143
 20
8.337953553
 10
4.4614812547
 20
8.3369023982
 10
4.4149779486
 20
8.3358418606
 10
4.3633880105
 20
8.3347865169
 10
4.3086617345
 20
8.3337450532
 10
4.2508899173
 20
8.3326905332
 10
4.191924681
 20
8.3316288953
 10
4.1341798481
 20
8.330574575
 10
4.0794311901
 20
8.3295320655
 10
4.0278182926
 20
8.3284751458
 10
3.981354768
 20
8.3274137607
 10
3.941898815
 20
8.3263624338
 10
3.9103670108
 20
8.3253228669
 10
3.886867795
 20
8.3242694475
 10
3.8724787587
 20
8.3232119842
 10
3.8677499052
 20
8.3222691134
  0
LWPOLYLINE
  5
86B
100
AcDbEntity
  8
0
100
AcDbPolyline
 62
7
  6
CONTINUOUS
 90
19
 70
0
 10
3.8725295492
 20
8.2412175488
 10
3.8871078028
 20
8.2422827055
 10
3.9109709994
 20
8.2433456139
 10
3.9429502637
 20
8.2443932054
 10
3.9823518232
 20
8.2454381401
 10
4.0281032174
 20
8.2464812681
 10
4.0792580007
 20
8.2475286638
 10
4.1341061491
 20
8.2485732071
 10
4.1920914109
 20
8.2496319043
 10
4.2512998465
 20
8.2506979307
 10
4.3092885653
 20
8.2517566849
 10
4.3641410822
 20
8.2528013027
 10
4.4153086764
 20
8.2538489623
 10
4.4610611683
 20
8.2548921367
 10
4.5004552132
 20
8.2559368892
 10
4.5324330432
 20
8.2569844291
 10
4.5562956619
 20
8.2580472852
 10
4.5708750118
 20
8.259112467
 10
4.5756553066
 20
8.2600609734
  0
LWPOLYLINE
  5
86C
100
AcDbEntity
  8
0
100
AcDbPolyline
 62
7
  6
CONTINUOUS
 90
10
 70
0
 10
4.2788818949
 20
8.3097439908
 10
4.3344227112
 20
8.3108229382
 10
4.3867335323
 20
8.3119018855
 10
4.4343153914
 20
8.3129808329
 10
4.4758048303
 20
8.3140597803
 10
4.5100129688
 20
8.3151387276
 10
4.5359595726
 20
8.316217675
 10
4.5529011416
 20
8.3172966224
 10
4.560352215
 20
8.3183755697
 10
4.5607026059
 20
8.3186650434
  0
LWPOLYLINE
  5
86D
100
AcDbEntity
  8
0
100
AcDbPolyline
 62
7
  6
CONTINUOUS
 90
11
 70
0
 10
4.1644113278
 20
8.2675839623
 10
4.278993884
 20
8.2697461245
 10
4.3346369963
 20
8.2708272056
 10
4.3870311919
 20
8.2719082867
 10
4.434669185
 20
8.2729893678
 10
4.4761805174
 20
8.2740704488
 10
4.5103709836
 20
8.2751515299
 10
4.5362569862
 20
8.276232611
 10
4.5530938319
 20
8.2773136921
 10
4.5603971555
 20
8.2783947732
 10
4.5607026059
 20
8.2786650434
  0
LWPOLYLINE
  5
86E
100
AcDbEntity
  8
0
100
AcDbPolyline
 62
7
  6
CONTINUOUS
 90
9
 70
0
 10
4.1644113278
 20
8.2725839623
 10
4.278993884
 20
8.2747461245
 10
4.3346369963
 20
8.2758272056
 10
4.3870311919
 20
8.2769082867
 10
4.434669185
 20
8.2779893678
 10
4.4761805174
 20
8.2790704488
 10
4.5103709836
 20
8.2801515299
 10
4.5362569862
 20
8.281232611
 10
4.5530938319
 20
8.2823136921
  0
LWPOLYLINE
  5
86F
100
AcDbEntity
  8
0
100
AcDbPolyline
 62
7
  6
CONTINUOUS
 90
11
 70
0
 10
4.1644113278
 20
8.3125839623
 10
4.278603486
 20
8.3147386868
 10
4.3338898244
 20
8.3158123303
 10
4.3859928913
 20
8.3168859737
 10
4.4334342814
 20
8.3179596171
 10
4.4748678624
 20
8.3190332605
 10
4.5091179716
 20
8.3201069039
 10
4.5352127747
 20
8.3211805473
 10
4.5524118411
 20
8.3222541907
 10
4.5602271536
 20
8.3233278341
 10
4.5606532146
 20
8.3235563694
  0
LWPOLYLINE
  5
870
100
AcDbEntity
  8
0
100
AcDbPolyline
 62
7
  6
CONTINUOUS
 90
11
 70
0
 10
4.2768055833
 20
8.2931600398
 10
4.1665922861
 20
8.2911699134
 10
4.1127919437
 20
8.2901741433
 10
4.0614287488
 20
8.2891738964
 10
4.0134168713
 20
8.2881603795
 10
3.9706643045
 20
8.2871466417
 10
3.9346633797
 20
8.2861451991
 10
3.9058986998
 20
8.2851496533
 10
3.8848073511
 20
8.2841521273
 10
3.8720077959
 20
8.2831589162
 10
3.8677499052
 20
8.2822691134
  0
LINE
  5
871
100
AcDbEntity
  8
0
100
AcDbLine
 62
7
  6
CONTINUOUS
 10
3.8677499052
 20
8.0822691134
 11
3.8677026059
 21
8.0821650434
  0
LINE
  5
872
100
AcDbEntity
  8
0
100
AcDbLine
 62
7
  6
CONTINUOUS
 10
3.8677499052
 20
8.0422691134
 11
3.8677026059
 21
8.0421650434
  0
LINE
  5
873
100
AcDbEntity
  8
0
100
AcDbLine
 62
7
  6
CONTINUOUS
 10
3.8677499052
 20
8.0022691134
 11
3.8677026059
 21
8.0021650434
  0
LINE
  5
874
100
AcDbEntity
  8
0
100
AcDbLine
 62
7
  6
CONTINUOUS
 10
3.8827519972
 20
8.3387737174
 11
3.8677499052
 21
8.3222691134
  0
LINE
  5
875
100
AcDbEntity
  8
0
100
AcDbLine
 62
7
  6
CONTINUOUS
 10
3.8827519972
 20
8.2987737174
 11
3.8677499052
 21
8.2822691134
  0
LWPOLYLINE
  5
876
100
AcDbEntity
  8
0
100
AcDbPolyline
 62
7
  6
CONTINUOUS
 90
11
 70
0
 10
3.8677499052
 20
8.4422691134
 10
3.868261525
 20
8.4425228309
 10
3.8765853709
 20
8.4435942003
 10
3.8946606087
 20
8.4446655771
 10
3.9219765265
 20
8.4457369549
 10
3.9577613006
 20
8.4468083329
 10
4.001004409
 20
8.4478797246
 10
4.0504833105
 20
8.4489511109
 10
4.1047979759
 20
8.450022456
 10
4.1624136728
 20
8.4510937657
 10
4.2217026059
 20
8.4521650434
  0
LINE
  5
877
100
AcDbEntity
  8
0
100
AcDbLine
 62
7
  6
CONTINUOUS
 10
4.5574130492
 20
8.4027774465
 11
4.5606532146
 21
8.4035563694
  0
LINE
  5
878
100
AcDbEntity
  8
0
100
AcDbLine
 62
7
  6
CONTINUOUS
 10
4.5757026059
 20
8.4221650434
 11
4.5709272633
 21
8.4211181917
  0
LINE
  5
879
100
AcDbEntity
  8
0
100
AcDbLine
 62
7
  6
CONTINUOUS
 10
3.8677026059
 20
8.2801650434
 11
3.8724895209
 21
8.2812131657
  0
LWPOLYLINE
  5
87A
100
AcDbEntity
  8
0
100
AcDbPolyline
 62
7
  6
CONTINUOUS
 90
9
 70
0
 10
3.8720077959
 20
8.3211589162
 10
3.8848073511
 20
8.3221521273
 10
3.9058986998
 20
8.3231496533
 10
3.9346633797
 20
8.3241451991
 10
3.9706643045
 20
8.3251466417
 10
4.0134168713
 20
8.3261603795
 10
4.0614287488
 20
8.3271738964
 10
4.1127919437
 20
8.3281741433
 10
4.1665922861
 20
8.3291699134
  0
LWPOLYLINE
  5
87B
100
AcDbEntity
  8
0
100
AcDbPolyline
 62
7
  6
CONTINUOUS
 90
19
 70
0
 10
4.5708750118
 20
8.381112467
 10
4.5562956619
 20
8.3800472852
 10
4.5324330432
 20
8.3789844291
 10
4.5004552132
 20
8.3779368892
 10
4.4610611683
 20
8.3768921367
 10
4.4153086764
 20
8.3758489623
 10
4.3641410822
 20
8.3748013027
 10
4.3092885653
 20
8.3737566849
 10
4.2512998465
 20
8.3726979307
 10
4.1920914109
 20
8.3716319043
 10
4.1341061491
 20
8.3705732071
 10
4.0792580007
 20
8.3695286638
 10
4.0281032174
 20
8.3684812681
 10
3.9823518232
 20
8.3674381401
 10
3.9429502637
 20
8.3663932054
 10
3.9109709994
 20
8.3653456139
 10
3.8871078028
 20
8.3642827055
 10
3.8725295492
 20
8.3632175488
 10
3.8677499052
 20
8.3622691134
  0
LWPOLYLINE
  5
87C
100
AcDbEntity
  8
0
100
AcDbPolyline
 62
7
  6
CONTINUOUS
 90
11
 70
0
 10
4.1665922861
 20
8.3291699134
 10
4.2768055833
 20
8.3311600398
 10
4.3305875457
 20
8.3321554574
 10
4.3819596924
 20
8.3331558522
 10
4.4299716772
 20
8.3341693367
 10
4.4727279023
 20
8.3351831135
 10
4.5087282429
 20
8.3361844702
 10
4.5375022215
 20
8.3371802628
 10
4.5586001164
 20
8.3381780917
 10
4.571398389
 20
8.3391712833
 10
4.5756553066
 20
8.3400609734
  0
LINE
  5
87D
100
AcDbEntity
  8
0
100
AcDbLine
 62
7
  6
CONTINUOUS
 10
4.56666024
 20
7.9121650434
 11
4.5606532146
 21
7.9187737174
  0
LINE
  5
87E
100
AcDbEntity
  8
0
100
AcDbLine
 62
7
  6
CONTINUOUS
 10
3.8677499052
 20
7.9622691134
 11
3.8677026059
 21
7.9621650434
  0
LINE
  5
87F
100
AcDbEntity
  8
0
100
AcDbLine
 62
7
  6
CONTINUOUS
 10
3.8677026059
 20
7.9221650365
 11
3.8677499052
 21
7.9222691134
  0
LINE
  5
880
100
AcDbEntity
  8
0
100
AcDbLine
 62
7
  6
CONTINUOUS
 10
3.8827519972
 20
8.2587737174
 11
3.8677499052
 21
8.2422691134
  0
LINE
  5
881
100
AcDbEntity
  8
0
100
AcDbLine
 62
7
  6
CONTINUOUS
 10
3.8827519972
 20
8.2187737174
 11
3.8677499052
 21
8.2022691134
  0
LWPOLYLINE
  5
882
100
AcDbEntity
  8
0
100
AcDbPolyline
 62
7
  6
CONTINUOUS
 90
10
 70
0
 10
3.8827026059
 20
8.3036650434
 10
3.8830080564
 20
8.3039353137
 10
3.8903113799
 20
8.3050163948
 10
3.9071482257
 20
8.3060974759
 10
3.9330342282
 20
8.3071785569
 10
3.9672246944
 20
8.308259638
 10
4.0087360268
 20
8.3093407191
 10
4.05637402
 20
8.3104218002
 10
4.1087682155
 20
8.3115028813
 10
4.1644113278
 20
8.3125839623
  0
LWPOLYLINE
  5
883
100
AcDbEntity
  8
0
100
AcDbPolyline
 62
7
  6
CONTINUOUS
 90
10
 70
0
 10
3.8827026059
 20
8.2636650434
 10
3.8830080564
 20
8.2639353137
 10
3.8903113799
 20
8.2650163948
 10
3.9071482257
 20
8.2660974759
 10
3.9330342282
 20
8.2671785569
 10
3.9672246944
 20
8.268259638
 10
4.0087360268
 20
8.2693407191
 10
4.05637402
 20
8.2704218002
 10
4.1087682155
 20
8.2715028813
 10
4.1644113278
 20
8.2725839623
  0
LWPOLYLINE
  5
884
100
AcDbEntity
  8
0
100
AcDbPolyline
 62
7
  6
CONTINUOUS
 90
19
 70
0
 10
3.8827026059
 20
8.4236650434
 10
3.8841341939
 20
8.4242503147
 10
3.8941471555
 20
8.4253239582
 10
3.9134543836
 20
8.4263976016
 10
3.9415080425
 20
8.427471245
 10
3.9775121199
 20
8.4285448884
 10
4.0204450133
 20
8.4296185318
 10
4.0690885174
 20
8.4306921752
 10
4.1220623906
 20
8.4317658186
 10
4.1778635186
 20
8.432839462
 10
4.2349085647
 20
8.4339131054
 10
4.2915788966
 20
8.4349867489
 10
4.3462665142
 20
8.4360603923
 10
4.3974196763
 20
8.4371340357
 10
4.4435869307
 20
8.4382076791
 10
4.4834582982
 20
8.4392813225
 10
4.5159024436
 20
8.4403549659
 10
4.5399987758
 20
8.4414286093
 10
4.5550635704
 20
8.4425022527
  0
LINE
  5
885
100
AcDbEntity
  8
0
100
AcDbLine
 62
7
  6
CONTINUOUS
 10
3.8677026059
 20
8.3201650434
 11
3.8720077959
 21
8.3211589162
  0
LWPOLYLINE
  5
886
100
AcDbEntity
  8
0
100
AcDbPolyline
 62
7
  6
CONTINUOUS
 90
19
 70
0
 10
3.8827026059
 20
8.3436650434
 10
3.8880822468
 20
8.3448007023
 10
3.9029121591
 20
8.3458743458
 10
3.9267876341
 20
8.3469479892
 10
3.9590312138
 20
8.3480216326
 10
3.9987279985
 20
8.349095276
 10
4.0447516063
 20
8.3501689194
 10
4.0957961341
 20
8.3512425628
 10
4.1504132122
 20
8.3523162062
 10
4.2070531007
 20
8.3533898496
 10
4.2641086637
 20
8.354463493
 10
4.3199609702
 20
8.3555371365
 10
4.3730252315
 20
8.3566107799
 10
4.4217957685
 20
8.3576844233
 10
4.4648887351
 20
8.3587580667
 10
4.5010813839
 20
8.3598317101
 10
4.5293467618
 20
8.3609053535
 10
4.548882849
 20
8.3619789969
 10
4.5591353162
 20
8.3630526403
  0
LINE
  5
887
100
AcDbEntity
  8
0
100
AcDbLine
 62
7
  6
CONTINUOUS
 10
4.5550635704
 20
8.4425022527
 11
4.5606532146
 21
8.4435563694
  0
LWPOLYLINE
  5
888
100
AcDbEntity
  8
0
100
AcDbPolyline
 62
7
  6
CONTINUOUS
 90
20
 70
0
 10
3.8827519972
 20
8.3387737174
 10
3.8896328593
 20
8.3399545171
 10
3.9058932271
 20
8.3410334645
 10
3.931203114
 20
8.3421124119
 10
3.9648372651
 20
8.3431913592
 10
4.0058318937
 20
8.3442703066
 10
4.0530122985
 20
8.345349254
 10
4.1050265248
 20
8.3464282013
 10
4.1603841048
 20
8.3475071487
 10
4.2174987667
 20
8.3485860961
 10
4.2747338896
 20
8.3496650434
 10
4.3304494008
 20
8.3507439908
 10
4.3830487722
 20
8.3518229382
 10
4.4310247684
 20
8.3529018855
 10
4.4730026371
 20
8.3539808329
 10
4.5077795024
 20
8.3550597803
 10
4.5343588329
 20
8.3561387276
 10
4.5519789978
 20
8.357217675
 10
4.5601350912
 20
8.3582966224
 10
4.5607026059
 20
8.3586650434
  0
LWPOLYLINE
  5
889
100
AcDbEntity
  8
0
100
AcDbPolyline
 62
7
  6
CONTINUOUS
 90
19
 70
0
 10
3.8724787587
 20
8.3612119842
 10
3.886867795
 20
8.3622694475
 10
3.9103670108
 20
8.3633228669
 10
3.941898815
 20
8.3643624338
 10
3.981354768
 20
8.3654137607
 10
4.0278182926
 20
8.3664751458
 10
4.0794311901
 20
8.3675320655
 10
4.1341798481
 20
8.368574575
 10
4.191924681
 20
8.3696288953
 10
4.2508899173
 20
8.3706905332
 10
4.3086617345
 20
8.3717450532
 10
4.3633880105
 20
8.3727865169
 10
4.4149779486
 20
8.3738418606
 10
4.4614812547
 20
8.3749023982
 10
4.5010254143
 20
8.375953553
 10
4.5327805275
 20
8.3769974974
 10
4.5564548911
 20
8.3780560716
 10
4.5709149314
 20
8.3791168378
 10
4.5756553066
 20
8.3800609734
  0
LWPOLYLINE
  5
88A
100
AcDbEntity
  8
0
100
AcDbPolyline
 62
7
  6
CONTINUOUS
 90
19
 70
0
 10
4.5709272633
 20
8.4211181917
 10
4.5565457497
 20
8.4200611011
 10
4.5330678302
 20
8.4190083397
 10
4.5015572094
 20
8.417969145
 10
4.4621102607
 20
8.4169177915
 10
4.4156552403
 20
8.4158564096
 10
4.364051231
 20
8.4147995378
 10
4.3093075565
 20
8.4137570374
 10
4.2515642249
 20
8.4127027021
 10
4.1925996645
 20
8.4116410761
 10
4.1348278876
 20
8.4105865996
 10
4.0800747385
 20
8.409544699
 10
4.0284480814
 20
8.4084886732
 10
3.9819260272
 20
8.4074277393
 10
3.942377373
 20
8.4063764629
 10
3.9106225512
 20
8.4053325091
 10
3.8869481307
 20
8.4042738942
 10
3.8724895209
 20
8.4032131657
 10
3.8677499052
 20
8.4022691134
  0
LWPOLYLINE
  5
88B
100
AcDbEntity
  8
0
100
AcDbPolyline
 62
7
  6
CONTINUOUS
 90
19
 70
0
 10
3.8725295492
 20
8.4012175488
 10
3.8871078028
 20
8.4022827055
 10
3.9109709994
 20
8.4033456139
 10
3.9429502637
 20
8.4043932054
 10
3.9823518232
 20
8.4054381401
 10
4.0281032174
 20
8.4064812681
 10
4.0792580007
 20
8.4075286638
 10
4.1341061491
 20
8.4085732071
 10
4.1920914109
 20
8.4096319043
 10
4.2512998465
 20
8.4106979307
 10
4.3092885653
 20
8.4117566849
 10
4.3641410822
 20
8.4128013027
 10
4.4153086764
 20
8.4138489623
 10
4.4610611683
 20
8.4148921367
 10
4.5004552132
 20
8.4159368892
 10
4.5324330432
 20
8.4169844291
 10
4.5562956619
 20
8.4180472852
 10
4.5708750118
 20
8.419112467
 10
4.5756553066
 20
8.4200609734
  0
LINE
  5
88C
100
AcDbEntity
  8
0
100
AcDbLine
 62
7
  6
CONTINUOUS
 10
4.5756553066
 20
7.9422691134
 11
4.5606532146
 21
7.9587737174
  0
LINE
  5
88D
100
AcDbEntity
  8
0
100
AcDbLine
 62
7
  6
CONTINUOUS
 10
4.5756553066
 20
7.9822691134
 11
4.5606532146
 21
7.9987737174
  0
LINE
  5
88E
100
AcDbEntity
  8
0
100
AcDbLine
 62
7
  6
CONTINUOUS
 10
4.5756553066
 20
8.0222691134
 11
4.5606532146
 21
8.0387737174
  0
LINE
  5
88F
100
AcDbEntity
  8
0
100
AcDbLine
 62
7
  6
CONTINUOUS
 10
3.8827519972
 20
8.1787737174
 11
3.8677499052
 21
8.1622691134
  0
LINE
  5
890
100
AcDbEntity
  8
0
100
AcDbLine
 62
7
  6
CONTINUOUS
 10
3.8827519972
 20
8.1387737174
 11
3.8677499052
 21
8.1222691134
  0
LWPOLYLINE
  5
891
100
AcDbEntity
  8
0
100
AcDbPolyline
 62
7
  6
CONTINUOUS
 90
10
 70
0
 10
3.8827026059
 20
8.2236650434
 10
3.8830080564
 20
8.2239353137
 10
3.8903113799
 20
8.2250163948
 10
3.9071482257
 20
8.2260974759
 10
3.9330342282
 20
8.2271785569
 10
3.9672246944
 20
8.228259638
 10
4.0087360268
 20
8.2293407191
 10
4.05637402
 20
8.2304218002
 10
4.1087682155
 20
8.2315028813
 10
4.1644113278
 20
8.2325839623
  0
LWPOLYLINE
  5
892
100
AcDbEntity
  8
0
100
AcDbPolyline
 62
7
  6
CONTINUOUS
 90
10
 70
0
 10
3.8827026059
 20
8.1836650434
 10
3.8830080564
 20
8.1839353137
 10
3.8903113799
 20
8.1850163948
 10
3.9071482257
 20
8.1860974759
 10
3.9330342282
 20
8.1871785569
 10
3.9672246944
 20
8.188259638
 10
4.0087360268
 20
8.1893407191
 10
4.05637402
 20
8.1904218002
 10
4.1087682155
 20
8.1915028813
 10
4.1644113278
 20
8.1925839623
  0
LWPOLYLINE
  5
893
100
AcDbEntity
  8
0
100
AcDbPolyline
 62
7
  6
CONTINUOUS
 90
11
 70
0
 10
3.8827519972
 20
8.2987737174
 10
3.8830080564
 20
8.2989353137
 10
3.8903113799
 20
8.3000163948
 10
3.9071482257
 20
8.3010974759
 10
3.9330342282
 20
8.3021785569
 10
3.9672246944
 20
8.303259638
 10
4.0087360268
 20
8.3043407191
 10
4.05637402
 20
8.3054218002
 10
4.1087682155
 20
8.3065028813
 10
4.1644113278
 20
8.3075839623
 10
4.2788818949
 20
8.3097439908
  0
LWPOLYLINE
  5
894
100
AcDbEntity
  8
0
100
AcDbPolyline
 62
7
  6
CONTINUOUS
 90
19
 70
0
 10
3.8827026059
 20
8.3836650434
 10
3.8857944297
 20
8.3845255085
 10
3.8982274811
 20
8.385599152
 10
3.9198390211
 20
8.3866727954
 10
3.9500158303
 20
8.3877464388
 10
3.9879016526
 20
8.3888200822
 10
4.0324214917
 20
8.3898937256
 10
4.0823121133
 20
8.390967369
 10
4.1361578893
 20
8.3920410124
 10
4.1924309654
 20
8.3931146558
 10
4.2495346137
 20
8.3941882992
 10
4.3058485388
 20
8.3952619427
 10
4.3597748539
 20
8.3963355861
 10
4.4097834192
 20
8.3974092295
 10
4.4544552601
 20
8.3984828729
 10
4.4925228294
 20
8.3995565163
 10
4.5229059736
 20
8.4006301597
 10
4.5447425821
 20
8.4017038031
 10
4.5574130492
 20
8.4027774465
  0
LINE
  5
895
100
AcDbEntity
  8
0
100
AcDbLine
 62
7
  6
CONTINUOUS
 10
3.8677026059
 20
8.3601650434
 11
3.8724787587
 21
8.3612119842
  0
LINE
  5
896
100
AcDbEntity
  8
0
100
AcDbLine
 62
7
  6
CONTINUOUS
 10
3.8677026059
 20
8.4001650434
 11
3.8725295492
 21
8.4012175488
  0
LWPOLYLINE
  5
897
100
AcDbEntity
  8
0
100
AcDbPolyline
 62
7
  6
CONTINUOUS
 90
20
 70
0
 10
3.8827519972
 20
8.4187737174
 10
3.888043764
 20
8.4197966224
 10
3.9029343327
 20
8.4208755697
 10
3.9269592076
 20
8.4219545171
 10
3.9594299559
 20
8.4230334645
 10
3.9994161281
 20
8.4241124119
 10
4.0457719204
 20
8.4251913592
 10
4.0971690072
 20
8.4262703066
 10
4.1521346049
 20
8.427349254
 10
4.209093674
 20
8.4284282013
 10
4.266414052
 20
8.4295071487
 10
4.3224532234
 20
8.4305860961
 10
4.3756053853
 20
8.4316650434
 10
4.4243474625
 20
8.4327439908
 10
4.4672827503
 20
8.4338229382
 10
4.5031809381
 20
8.4349018855
 10
4.531013363
 20
8.4359808329
 10
4.5499824867
 20
8.4370597803
 10
4.559544749
 20
8.4381387276
 10
4.5607026059
 20
8.4386650434
  0
LWPOLYLINE
  5
898
100
AcDbEntity
  8
0
100
AcDbPolyline
 62
7
  6
CONTINUOUS
 90
20
 70
0
 10
3.8827519972
 20
8.3787737174
 10
3.8888127152
 20
8.3798755697
 10
3.9043893811
 20
8.3809545171
 10
3.9290586589
 20
8.3820334645
 10
3.9621136502
 20
8.3831124119
 10
4.0026071643
 20
8.3841913592
 10
4.0493788592
 20
8.3852703066
 10
4.1010884918
 20
8.386349254
 10
4.1562543224
 20
8.3874282013
 10
4.2132955739
 20
8.3885071487
 10
4.2705777289
 20
8.3895860961
 10
4.326459367
 20
8.3906650434
 10
4.3793391997
 20
8.3917439908
 10
4.4277019551
 20
8.3928229382
 10
4.4701617982
 20
8.3939018855
 10
4.5055020421
 20
8.3949808329
 10
4.5327100118
 20
8.3960597803
 10
4.551006063
 20
8.3971387276
 10
4.5598659221
 20
8.398217675
 10
4.5607026059
 20
8.3986650434
  0
LINE
  5
899
100
AcDbEntity
  8
0
100
AcDbLine
 62
7
  6
CONTINUOUS
 10
4.3310946219
 20
8.4521650434
 11
4.2734241385
 21
8.4510985247
  0
LWPOLYLINE
  5
89A
100
AcDbEntity
  8
0
100
AcDbPolyline
 62
7
  6
CONTINUOUS
 90
11
 70
0
 10
4.2734241385
 20
8.4510985247
 10
4.2143021376
 20
8.4500319466
 10
4.1553865546
 20
8.4489653535
 10
4.0983284265
 20
8.4478987667
 10
4.0447246145
 20
8.4468321671
 10
3.9960756645
 20
8.4457655371
 10
3.9537456914
 20
8.4446989089
 10
3.9189204501
 20
8.443632293
 10
3.8925744861
 20
8.4425656665
 10
3.8754459678
 20
8.4414990351
 10
3.8680148031
 20
8.4404324302
  0
LINE
  5
89B
100
AcDbEntity
  8
0
100
AcDbLine
 62
7
  6
CONTINUOUS
 10
3.8767453334
 20
8.4521650434
 11
4.5684805359
 21
8.4521650434
  0
LINE
  5
89C
100
AcDbEntity
  8
0
100
AcDbLine
 62
9
  6
CONTINUOUS
 10
4.5604526059
 20
8.4896650434
 11
3.8829526059
 21
8.4896650434
  0
LINE
  5
89D
100
AcDbEntity
  8
0
100
AcDbLine
 62
7
  6
CONTINUOUS
 10
4.5756553066
 20
8.0622691134
 11
4.5606532146
 21
8.0787737174
  0
LINE
  5
89E
100
AcDbEntity
  8
0
100
AcDbLine
 62
7
  6
CONTINUOUS
 10
4.5756553066
 20
8.1022691134
 11
4.5606532146
 21
8.1187737174
  0
LINE
  5
89F
100
AcDbEntity
  8
0
100
AcDbLine
 62
7
  6
CONTINUOUS
 10
3.8827519972
 20
8.0987737174
 11
3.8677499052
 21
8.0822691134
  0
LINE
  5
8A0
100
AcDbEntity
  8
0
100
AcDbLine
 62
7
  6
CONTINUOUS
 10
3.8827519972
 20
8.0587737174
 11
3.8677499052
 21
8.0422691134
  0
LINE
  5
8A1
100
AcDbEntity
  8
0
100
AcDbLine
 62
7
  6
CONTINUOUS
 10
3.8827519972
 20
8.0187737174
 11
3.8677499052
 21
8.0022691134
  0
LWPOLYLINE
  5
8A2
100
AcDbEntity
  8
0
100
AcDbPolyline
 62
7
  6
CONTINUOUS
 90
10
 70
0
 10
3.8827026059
 20
8.1436650434
 10
3.8830080564
 20
8.1439353137
 10
3.8903113799
 20
8.1450163948
 10
3.9071482257
 20
8.1460974759
 10
3.9330342282
 20
8.1471785569
 10
3.9672246944
 20
8.148259638
 10
4.0087360268
 20
8.1493407191
 10
4.05637402
 20
8.1504218002
 10
4.1087682155
 20
8.1515028813
 10
4.1644113278
 20
8.1525839623
  0
LWPOLYLINE
  5
8A3
100
AcDbEntity
  8
0
100
AcDbPolyline
 62
7
  6
CONTINUOUS
 90
10
 70
0
 10
3.8827026059
 20
8.1036650434
 10
3.8830080564
 20
8.1039353137
 10
3.8903113799
 20
8.1050163948
 10
3.9071482257
 20
8.1060974759
 10
3.9330342282
 20
8.1071785569
 10
3.9672246944
 20
8.108259638
 10
4.0087360268
 20
8.1093407191
 10
4.05637402
 20
8.1104218002
 10
4.1087682155
 20
8.1115028813
 10
4.1644113278
 20
8.1125839623
  0
LINE
  5
8A4
100
AcDbEntity
  8
0
100
AcDbLine
 62
7
  6
CONTINUOUS
 10
3.8827519972
 20
8.2587737174
 11
3.8830080564
 21
8.2589353137
  0
LINE
  5
8A5
100
AcDbEntity
  8
0
100
AcDbLine
 62
7
  6
CONTINUOUS
 10
3.8827519972
 20
8.2187737174
 11
3.8830080564
 21
8.2189353137
  0
LINE
  5
8A6
100
AcDbEntity
  8
0
100
AcDbLine
 62
7
  6
CONTINUOUS
 10
4.7537026059
 20
8.5021650434
 11
3.6897072303
 21
8.5021650434
  0
LINE
  5
8A7
100
AcDbEntity
  8
0
100
AcDbLine
 62
7
  6
CONTINUOUS
 10
4.5756553066
 20
8.1422691134
 11
4.5606532146
 21
8.1587737174
  0
LINE
  5
8A8
100
AcDbEntity
  8
0
100
AcDbLine
 62
7
  6
CONTINUOUS
 10
4.5756553066
 20
8.1822691134
 11
4.5606532146
 21
8.1987737174
  0
LINE
  5
8A9
100
AcDbEntity
  8
0
100
AcDbLine
 62
7
  6
CONTINUOUS
 10
3.8827519972
 20
7.9787737174
 11
3.8677499052
 21
7.9622691134
  0
LINE
  5
8AA
100
AcDbEntity
  8
0
100
AcDbLine
 62
7
  6
CONTINUOUS
 10
3.8827519972
 20
7.9387737174
 11
3.8677499052
 21
7.9222691134
  0
LWPOLYLINE
  5
8AB
100
AcDbEntity
  8
0
100
AcDbPolyline
 62
7
  6
CONTINUOUS
 90
10
 70
0
 10
3.8827026059
 20
8.0636650434
 10
3.8830080564
 20
8.0639353137
 10
3.8903113799
 20
8.0650163948
 10
3.9071482257
 20
8.0660974759
 10
3.9330342282
 20
8.0671785569
 10
3.9672246944
 20
8.068259638
 10
4.0087360268
 20
8.0693407191
 10
4.05637402
 20
8.0704218002
 10
4.1087682155
 20
8.0715028813
 10
4.1644113278
 20
8.0725839623
  0
LWPOLYLINE
  5
8AC
100
AcDbEntity
  8
0
100
AcDbPolyline
 62
7
  6
CONTINUOUS
 90
10
 70
0
 10
3.8827026059
 20
8.0236650434
 10
3.8830080564
 20
8.0239353137
 10
3.8903113799
 20
8.0250163948
 10
3.9071482257
 20
8.0260974759
 10
3.9330342282
 20
8.0271785569
 10
3.9672246944
 20
8.028259638
 10
4.0087360268
 20
8.0293407191
 10
4.05637402
 20
8.0304218002
 10
4.1087682155
 20
8.0315028813
 10
4.1644113278
 20
8.0325839623
  0
LINE
  5
8AD
100
AcDbEntity
  8
0
100
AcDbLine
 62
7
  6
CONTINUOUS
 10
3.8827519972
 20
8.1787737174
 11
3.8830080564
 21
8.1789353137
  0
LWPOLYLINE
  5
8AE
100
AcDbEntity
  8
0
100
AcDbPolyline
 62
7
  6
CONTINUOUS
 90
10
 70
0
 10
3.8827519972
 20
8.1387737174
 10
3.8830080564
 20
8.1389353137
 10
3.8903113799
 20
8.1400163948
 10
3.9071482257
 20
8.1410974759
 10
3.9330342282
 20
8.1421785569
 10
3.9672246944
 20
8.143259638
 10
4.0087360268
 20
8.1443407191
 10
4.05637402
 20
8.1454218002
 10
4.1087682155
 20
8.1465028813
 10
4.1644113278
 20
8.1475839623
  0
LINE
  5
8AF
100
AcDbEntity
  8
0
100
AcDbLine
 62
9
  6
CONTINUOUS
 10
4.8137026059
 20
8.5621650434
 11
3.6297026059
 21
8.5621650434
  0
LINE
  5
8B0
100
AcDbEntity
  8
0
100
AcDbLine
 62
7
  6
CONTINUOUS
 10
4.5756553066
 20
8.2222691134
 11
4.5606532146
 21
8.2387737174
  0
LINE
  5
8B1
100
AcDbEntity
  8
0
100
AcDbLine
 62
7
  6
CONTINUOUS
 10
4.5756553066
 20
8.2622691134
 11
4.5606532146
 21
8.2787737174
  0
LINE
  5
8B2
100
AcDbEntity
  8
0
100
AcDbLine
 62
7
  6
CONTINUOUS
 10
3.8827519972
 20
8.0987737174
 11
3.8830080564
 21
8.0989353137
  0
LINE
  5
8B3
100
AcDbEntity
  8
0
100
AcDbLine
 62
7
  6
CONTINUOUS
 10
4.5756553066
 20
8.3022691134
 11
4.5606532146
 21
8.3187737174
  0
LINE
  5
8B4
100
AcDbEntity
  8
0
100
AcDbLine
 62
7
  6
CONTINUOUS
 10
4.5756553066
 20
8.3422691134
 11
4.5606532146
 21
8.3587737174
  0
LINE
  5
8B5
100
AcDbEntity
  8
0
100
AcDbLine
 62
7
  6
CONTINUOUS
 10
4.4367026059
 20
7.9021650434
 11
4.4367026059
 21
7.8721650434
  0
LWPOLYLINE
  5
8B6
100
AcDbEntity
  8
0
100
AcDbPolyline
 62
7
  6
CONTINUOUS
 90
10
 70
0
 10
3.8827026059
 20
7.9836650434
 10
3.883210959
 20
7.9840137276
 10
3.8911131822
 20
7.9850860961
 10
3.9083735466
 20
7.9861584645
 10
3.9345034554
 20
7.9872308329
 10
3.9687632377
 20
7.9883032013
 10
4.0101830867
 20
7.9893755697
 10
4.0575905124
 20
7.9904479382
 10
4.1096435318
 20
7.9915203066
 10
4.164868657
 20
7.992592675
  0
LINE
  5
8B7
100
AcDbEntity
  8
0
100
AcDbLine
 62
7
  6
CONTINUOUS
 10
3.8827519972
 20
8.0587737174
 11
3.8830080564
 21
8.0589353137
  0
LINE
  5
8B8
100
AcDbEntity
  8
0
100
AcDbLine
 62
7
  6
CONTINUOUS
 10
3.8827519972
 20
8.0187737174
 11
3.8830080564
 21
8.0189353137
  0
LINE
  5
8B9
100
AcDbEntity
  8
0
100
AcDbLine
 62
7
  6
CONTINUOUS
 10
4.5591353162
 20
8.3630526403
 11
4.5606532146
 21
8.3635563694
  0
LINE
  5
8BA
100
AcDbEntity
  8
0
100
AcDbLine
 62
7
  6
CONTINUOUS
 10
4.5756553066
 20
8.3822691134
 11
4.5606532146
 21
8.3987737174
  0
LINE
  5
8BB
100
AcDbEntity
  8
0
100
AcDbLine
 62
7
  6
CONTINUOUS
 10
4.5756553066
 20
8.4222691134
 11
4.5606532146
 21
8.4387737174
  0
LINE
  5
8BC
100
AcDbEntity
  8
0
100
AcDbLine
 62
7
  6
CONTINUOUS
 10
4.4815102271
 20
7.9021650434
 11
4.4815102271
 21
7.9121650434
  0
LINE
  5
8BD
100
AcDbEntity
  8
0
100
AcDbLine
 62
7
  6
CONTINUOUS
 10
4.5043684864
 20
7.9121650434
 11
4.5043684864
 21
7.8721650434
  0
LINE
  5
8BE
100
AcDbEntity
  8
0
100
AcDbLine
 62
7
  6
CONTINUOUS
 10
4.5606532146
 20
8.4435563694
 11
4.5684781674
 21
8.4521650434
  0
LWPOLYLINE
  5
8BF
100
AcDbEntity
  8
0
100
AcDbPolyline
 62
7
  6
CONTINUOUS
 90
10
 70
0
 10
3.8827519972
 20
7.9787737174
 10
3.8830860374
 20
7.9789678603
 10
3.8906393605
 20
7.9800453251
 10
3.9076533115
 20
7.9811227899
 10
3.9336416911
 20
7.9822002547
 10
3.9678618426
 20
7.9832777195
 10
4.0093358738
 20
7.9843551843
 10
4.0568786024
 20
7.9854326491
 10
4.1091314235
 20
7.9865101139
 10
4.1646011347
 20
7.9875875786
  0
LINE
  5
8C0
100
AcDbEntity
  8
0
100
AcDbLine
 62
7
  6
CONTINUOUS
 10
4.5417026059
 20
7.8721650434
 11
4.5417026059
 21
7.9121650434
  0
LINE
  5
8C1
100
AcDbEntity
  8
0
100
AcDbLine
 62
7
  6
CONTINUOUS
 10
4.5604526059
 20
8.4896650434
 11
4.5604526059
 21
8.4521650434
  0
LINE
  5
8C2
100
AcDbEntity
  8
0
100
AcDbLine
 62
7
  6
CONTINUOUS
 10
4.5607026059
 20
7.9186650434
 11
4.5607026059
 21
7.9236650434
  0
LINE
  5
8C3
100
AcDbEntity
  8
0
100
AcDbLine
 62
7
  6
CONTINUOUS
 10
4.5607026059
 20
7.9586650434
 11
4.5607026059
 21
7.9636650434
  0
LINE
  5
8C4
100
AcDbEntity
  8
0
100
AcDbLine
 62
7
  6
CONTINUOUS
 10
4.5607026059
 20
7.9986650434
 11
4.5607026059
 21
8.0036650434
  0
LINE
  5
8C5
100
AcDbEntity
  8
0
100
AcDbLine
 62
7
  6
CONTINUOUS
 10
4.5607026059
 20
8.0386650434
 11
4.5607026059
 21
8.0436650434
  0
LINE
  5
8C6
100
AcDbEntity
  8
0
100
AcDbLine
 62
7
  6
CONTINUOUS
 10
4.5607026059
 20
8.0786650434
 11
4.5607026059
 21
8.0836650434
  0
LINE
  5
8C7
100
AcDbEntity
  8
0
100
AcDbLine
 62
7
  6
CONTINUOUS
 10
4.5607026059
 20
8.1186650434
 11
4.5607026059
 21
8.1236650434
  0
LINE
  5
8C8
100
AcDbEntity
  8
0
100
AcDbLine
 62
7
  6
CONTINUOUS
 10
4.5607026059
 20
8.1586650434
 11
4.5607026059
 21
8.1636650434
  0
LINE
  5
8C9
100
AcDbEntity
  8
0
100
AcDbLine
 62
7
  6
CONTINUOUS
 10
4.5607026059
 20
8.1986650434
 11
4.5607026059
 21
8.2036650434
  0
LINE
  5
8CA
100
AcDbEntity
  8
0
100
AcDbLine
 62
7
  6
CONTINUOUS
 10
4.5607026059
 20
8.2386650434
 11
4.5607026059
 21
8.2436650434
  0
LINE
  5
8CB
100
AcDbEntity
  8
0
100
AcDbLine
 62
7
  6
CONTINUOUS
 10
4.5607026059
 20
8.2786650434
 11
4.5607026059
 21
8.2836650434
  0
LINE
  5
8CC
100
AcDbEntity
  8
0
100
AcDbLine
 62
7
  6
CONTINUOUS
 10
4.5607026059
 20
8.3186650434
 11
4.5607026059
 21
8.3236650434
  0
LINE
  5
8CD
100
AcDbEntity
  8
0
100
AcDbLine
 62
7
  6
CONTINUOUS
 10
4.5607026059
 20
8.3586650434
 11
4.5607026059
 21
8.3636650434
  0
LINE
  5
8CE
100
AcDbEntity
  8
0
100
AcDbLine
 62
7
  6
CONTINUOUS
 10
4.5607026059
 20
8.3986650434
 11
4.5607026059
 21
8.4036650434
  0
LINE
  5
8CF
100
AcDbEntity
  8
0
100
AcDbLine
 62
7
  6
CONTINUOUS
 10
4.5607026059
 20
8.4386650434
 11
4.5607026059
 21
8.4436650434
  0
LINE
  5
8D0
100
AcDbEntity
  8
0
100
AcDbLine
 62
7
  6
CONTINUOUS
 10
4.5606532146
 20
8.4035563694
 11
4.5756553066
 21
8.4200609734
  0
LINE
  5
8D1
100
AcDbEntity
  8
0
100
AcDbLine
 62
7
  6
CONTINUOUS
 10
4.5606532146
 20
8.3635563694
 11
4.5756553066
 21
8.3800609734
  0
LINE
  5
8D2
100
AcDbEntity
  8
0
100
AcDbLine
 62
7
  6
CONTINUOUS
 10
4.5757026059
 20
8.4221650434
 11
4.5757026059
 21
8.4201650434
  0
LINE
  5
8D3
100
AcDbEntity
  8
0
100
AcDbLine
 62
7
  6
CONTINUOUS
 10
4.5757026059
 20
8.3821650434
 11
4.5757026059
 21
8.3801650434
  0
LINE
  5
8D4
100
AcDbEntity
  8
0
100
AcDbLine
 62
7
  6
CONTINUOUS
 10
4.5757026059
 20
8.3421650434
 11
4.5757026059
 21
8.3401650434
  0
LINE
  5
8D5
100
AcDbEntity
  8
0
100
AcDbLine
 62
7
  6
CONTINUOUS
 10
4.5757026059
 20
8.3021650434
 11
4.5757026059
 21
8.3001650434
  0
LINE
  5
8D6
100
AcDbEntity
  8
0
100
AcDbLine
 62
7
  6
CONTINUOUS
 10
4.5757026059
 20
8.2621650434
 11
4.5757026059
 21
8.2601650434
  0
LINE
  5
8D7
100
AcDbEntity
  8
0
100
AcDbLine
 62
7
  6
CONTINUOUS
 10
4.5757026059
 20
8.2221650434
 11
4.5757026059
 21
8.2201650434
  0
LINE
  5
8D8
100
AcDbEntity
  8
0
100
AcDbLine
 62
7
  6
CONTINUOUS
 10
4.5757026059
 20
8.1821650434
 11
4.5757026059
 21
8.1801650434
  0
LINE
  5
8D9
100
AcDbEntity
  8
0
100
AcDbLine
 62
7
  6
CONTINUOUS
 10
4.5757026059
 20
8.1421650434
 11
4.5757026059
 21
8.1401650434
  0
LINE
  5
8DA
100
AcDbEntity
  8
0
100
AcDbLine
 62
7
  6
CONTINUOUS
 10
4.5757026059
 20
8.1021650434
 11
4.5757026059
 21
8.1001650434
  0
LINE
  5
8DB
100
AcDbEntity
  8
0
100
AcDbLine
 62
7
  6
CONTINUOUS
 10
4.5757026059
 20
8.0621650434
 11
4.5757026059
 21
8.0601650434
  0
LINE
  5
8DC
100
AcDbEntity
  8
0
100
AcDbLine
 62
7
  6
CONTINUOUS
 10
4.5757026059
 20
8.0221650434
 11
4.5757026059
 21
8.0201650434
  0
LINE
  5
8DD
100
AcDbEntity
  8
0
100
AcDbLine
 62
7
  6
CONTINUOUS
 10
4.5757026059
 20
7.9821650434
 11
4.5757026059
 21
7.9801650434
  0
LINE
  5
8DE
100
AcDbEntity
  8
0
100
AcDbLine
 62
7
  6
CONTINUOUS
 10
4.5757026059
 20
7.9421650434
 11
4.5757026059
 21
7.9401650434
  0
LINE
  5
8DF
100
AcDbEntity
  8
0
100
AcDbLine
 62
7
  6
CONTINUOUS
 10
4.5756553066
 20
8.4200609734
 11
4.5757026059
 21
8.4201650434
  0
LINE
  5
8E0
100
AcDbEntity
  8
0
100
AcDbLine
 62
7
  6
CONTINUOUS
 10
4.5756553066
 20
8.3800609734
 11
4.5757026059
 21
8.3801650434
  0
LINE
  5
8E1
100
AcDbEntity
  8
0
100
AcDbLine
 62
7
  6
CONTINUOUS
 10
4.5756553066
 20
8.3400609734
 11
4.5757026059
 21
8.3401650434
  0
LINE
  5
8E2
100
AcDbEntity
  8
0
100
AcDbLine
 62
7
  6
CONTINUOUS
 10
4.5756553066
 20
8.3000609734
 11
4.5757026059
 21
8.3001650434
  0
LINE
  5
8E3
100
AcDbEntity
  8
0
100
AcDbLine
 62
7
  6
CONTINUOUS
 10
4.5606532146
 20
8.3235563694
 11
4.5756553066
 21
8.3400609734
  0
LINE
  5
8E4
100
AcDbEntity
  8
0
100
AcDbLine
 62
7
  6
CONTINUOUS
 10
4.5606532146
 20
8.2835563694
 11
4.5756553066
 21
8.3000609734
  0
LINE
  5
8E5
100
AcDbEntity
  8
0
100
AcDbLine
 62
7
  6
CONTINUOUS
 10
3.8827519972
 20
7.9387737174
 11
3.8834995831
 21
7.9391016631
  0
LWPOLYLINE
  5
8E6
100
AcDbEntity
  8
0
100
AcDbPolyline
 62
7
  6
CONTINUOUS
 90
19
 70
0
 10
3.8827026059
 20
7.9436650434
 10
3.8845841763
 20
7.9443360961
 10
3.8953353616
 20
7.9454084645
 10
3.9153251689
 20
7.9464808329
 10
3.943987738
 20
7.9475532013
 10
3.9805117049
 20
7.9486255697
 10
4.0238631693
 20
7.9496979382
 10
4.0728149623
 20
7.9507703066
 10
4.1259813837
 20
7.951842675
 10
4.1818574282
 20
7.9529150434
 10
4.2388613877
 20
7.9539874119
 10
4.295379626
 20
7.9550597803
 10
4.3498122563
 20
7.9561321487
 10
4.40061843
 20
7.9572045171
 10
4.4463599542
 20
7.9582768855
 10
4.4857420034
 20
7.959349254
 10
4.5176497725
 20
7.9604216224
 10
4.5411800341
 20
7.9614939908
 10
4.5556667067
 20
7.9625663592
  0
LINE
  5
8E7
100
AcDbEntity
  8
0
100
AcDbLine
 62
7
  6
CONTINUOUS
 10
4.5756553066
 20
8.2600609734
 11
4.5757026059
 21
8.2601650434
  0
LINE
  5
8E8
100
AcDbEntity
  8
0
100
AcDbLine
 62
7
  6
CONTINUOUS
 10
4.5756553066
 20
8.2200609734
 11
4.5757026059
 21
8.2201650434
  0
LINE
  5
8E9
100
AcDbEntity
  8
0
100
AcDbLine
 62
7
  6
CONTINUOUS
 10
4.5756553066
 20
8.1800609734
 11
4.5757026059
 21
8.1801650434
  0
LINE
  5
8EA
100
AcDbEntity
  8
0
100
AcDbLine
 62
7
  6
CONTINUOUS
 10
4.5606532146
 20
8.2435563694
 11
4.5756553066
 21
8.2600609734
  0
LINE
  5
8EB
100
AcDbEntity
  8
0
100
AcDbLine
 62
7
  6
CONTINUOUS
 10
4.5606532146
 20
8.2035563694
 11
4.5756553066
 21
8.2200609734
  0
LINE
  5
8EC
100
AcDbEntity
  8
0
100
AcDbLine
 62
7
  6
CONTINUOUS
 10
3.8693521666
 20
7.9207798612
 11
3.8677026059
 21
7.9201650364
  0
LINE
  5
8ED
100
AcDbEntity
  8
0
100
AcDbLine
 62
7
  6
CONTINUOUS
 10
3.6297068113
 20
8.9421650434
 11
4.8136983216
 21
8.9421650434
  0
LINE
  5
8EE
100
AcDbEntity
  8
0
100
AcDbLine
 62
7
  6
CONTINUOUS
 10
4.5756553066
 20
8.1400609734
 11
4.5757026059
 21
8.1401650434
  0
LINE
  5
8EF
100
AcDbEntity
  8
0
100
AcDbLine
 62
7
  6
CONTINUOUS
 10
4.5756553066
 20
8.1000609734
 11
4.5757026059
 21
8.1001650434
  0
LINE
  5
8F0
100
AcDbEntity
  8
0
100
AcDbLine
 62
7
  6
CONTINUOUS
 10
4.5756553066
 20
8.0600609734
 11
4.5757026059
 21
8.0601650434
  0
LINE
  5
8F1
100
AcDbEntity
  8
0
100
AcDbLine
 62
7
  6
CONTINUOUS
 10
4.5756553066
 20
8.0200609734
 11
4.5757026059
 21
8.0201650434
  0
LINE
  5
8F2
100
AcDbEntity
  8
0
100
AcDbLine
 62
7
  6
CONTINUOUS
 10
4.5606532146
 20
8.1635563694
 11
4.5756553066
 21
8.1800609734
  0
LINE
  5
8F3
100
AcDbEntity
  8
0
100
AcDbLine
 62
7
  6
CONTINUOUS
 10
4.5606532146
 20
8.1235563694
 11
4.5756553066
 21
8.1400609734
  0
LINE
  5
8F4
100
AcDbEntity
  8
AXIS_COSMETIC_THREADS
100
AcDbLine
 62
7
  6
CONTINUOUS
 10
3.6307035045
 20
8.9571650434
 11
4.8127017074
 21
8.9571650434
  0
LINE
  5
8F5
100
AcDbEntity
  8
0
100
AcDbLine
 62
7
  6
CONTINUOUS
 10
4.7857026059
 20
8.9421650434
 11
4.7857026059
 21
8.9571650434
  0
LINE
  5
8F6
100
AcDbEntity
  8
0
100
AcDbLine
 62
7
  6
CONTINUOUS
 10
4.5756553066
 20
7.9800609734
 11
4.5757026059
 21
7.9801650434
  0
LINE
  5
8F7
100
AcDbEntity
  8
0
100
AcDbLine
 62
7
  6
CONTINUOUS
 10
4.5757026059
 20
7.9401650434
 11
4.5756553066
 21
7.9400609734
  0
LINE
  5
8F8
100
AcDbEntity
  8
0
100
AcDbLine
 62
7
  6
CONTINUOUS
 10
4.5606532146
 20
8.0835563694
 11
4.5756553066
 21
8.1000609734
  0
LINE
  5
8F9
100
AcDbEntity
  8
0
100
AcDbLine
 62
7
  6
CONTINUOUS
 10
4.5606532146
 20
8.0435563694
 11
4.5756553066
 21
8.0600609734
  0
LINE
  5
8FA
100
AcDbEntity
  8
0
100
AcDbLine
 62
7
  6
CONTINUOUS
 10
4.5606532146
 20
8.0035563694
 11
4.5756553066
 21
8.0200609734
  0
LINE
  5
8FB
100
AcDbEntity
  8
0
100
AcDbLine
 62
9
  6
CONTINUOUS
 10
4.8124123545
 20
9.0371650434
 11
4.8127026059
 21
9.0371670393
  0
LWPOLYLINE
  5
8FC
100
AcDbEntity
  8
0
100
AcDbPolyline
 62
9
  6
CONTINUOUS
 90
5
 70
0
 10
3.6307026059
 20
9.0371670688
 10
3.630984292
 20
9.0371649241
 10
3.6322044825
 20
9.037165072
 10
3.6343981987
 20
9.0371650367
 10
4.8124123545
 20
9.0371650434
  0
LINE
  5
8FD
100
AcDbEntity
  8
AXIS_COSMETIC_THREADS
100
AcDbLine
 62
7
  6
CONTINUOUS
 10
4.8127026059
 20
8.9571650434
 11
4.8127026059
 21
9.0371635254
  0
LINE
  5
8FE
100
AcDbEntity
  8
0
100
AcDbLine
 62
7
  6
CONTINUOUS
 10
4.8137026059
 20
8.9421650434
 11
4.8137026059
 21
8.5621650434
  0
LINE
  5
8FF
100
AcDbEntity
  8
0
100
AcDbLine
 62
7
  6
CONTINUOUS
 10
4.5606532146
 20
7.9635563694
 11
4.5756553066
 21
7.9800609734
  0
LINE
  5
900
100
AcDbEntity
  8
0
100
AcDbLine
 62
7
  6
CONTINUOUS
 10
4.5606532146
 20
7.9235563694
 11
4.5756553066
 21
7.9400609734
  0
LINE
  5
901
100
AcDbEntity
  8
0
100
AcDbLine
 62
7
  6
CONTINUOUS
 10
3.6907007583
 20
9.0971650434
 11
4.7527044977
 21
9.0971650434
  0
LWPOLYLINE
  5
902
100
AcDbEntity
  8
0
100
AcDbPolyline
 62
7
  6
CONTINUOUS
 90
8
 70
0
 10
4.8127026262
 20
9.037166333
 10
4.8119237469
 20
9.0468025562
 10
4.8080542991
 20
9.0603218927
 10
4.8011443608
 20
9.0725692647
 10
4.7915735052
 20
9.0828718983
 10
4.7798674744
 20
9.0906638518
 10
4.7666692985
 20
9.0955170997
 10
4.7527039707
 20
9.0971650434
  0
LWPOLYLINE
  5
903
100
AcDbEntity
  8
0
100
AcDbPolyline
 62
7
  6
CONTINUOUS
 90
8
 70
0
 10
3.6907012941
 20
9.0971650434
 10
3.6767359587
 20
9.0955170994
 10
3.663537775
 20
9.0906638506
 10
3.6518317361
 20
9.0828718959
 10
3.6422608721
 20
9.0725692604
 10
3.635350925
 20
9.0603218855
 10
3.631481468
 20
9.0468025438
 10
3.630702583
 20
9.0371662813
  0
CIRCLE
  5
904
100
AcDbEntity
  8
0
100
AcDbCircle
 62
7
  6
CONTINUOUS
 10
10.5342808475
 20
1.243294839
 40
0.252091
  0
CIRCLE
  5
905
100
AcDbEntity
  8
0
100
AcDbCircle
 62
7
  6
CONTINUOUS
 10
10.5342808475
 20
1.243294839
 40
0.182698
  0
ARC
  5
906
100
AcDbEntity
  8
0
100
AcDbCircle
 62
7
  6
CONTINUOUS
 10
3.8667026059
 20
4.9960099004
 40
0.06
100
AcDbArc
 50
0.0
 51
56.5971483035
  0
ARC
  5
907
100
AcDbEntity
  8
0
100
AcDbCircle
 62
7
  6
CONTINUOUS
 10
4.5767026059
 20
4.9960099004
 40
0.06
100
AcDbArc
 50
123.4003081433
 51
180.0
  0
ARC
  5
908
100
AcDbEntity
  8
0
100
AcDbCircle
 62
7
  6
CONTINUOUS
 10
4.2217026059
 20
5.5428910575
 40
0.592
100
AcDbArc
 50
294.0856793311
 51
245.9143206689
  0
CIRCLE
  5
909
100
AcDbEntity
  8
0
100
AcDbCircle
 62
9
  6
CONTINUOUS
 10
4.2217026059
 20
5.5428910575
 40
0.532
  0
ARC
  5
90A
100
AcDbEntity
  8
0
100
AcDbCircle
 62
7
  6
CONTINUOUS
 10
4.2217026059
 20
5.5428910575
 40
0.354
100
AcDbArc
 50
272.3271152994
 51
277.337176733
  0
ARC
  5
90B
100
AcDbEntity
  8
0
100
AcDbCircle
 62
7
  6
CONTINUOUS
 10
4.2217026059
 20
5.5428910575
 40
0.354
100
AcDbArc
 50
278.5927319311
 51
270.0
  0
ARC
  5
90C
100
AcDbEntity
  8
0
100
AcDbCircle
 62
7
  6
CONTINUOUS
 10
4.2217026059
 20
5.5428910575
 40
0.32
100
AcDbArc
 50
332.0468131166
 51
27.9531868834
  0
ARC
  5
90D
100
AcDbEntity
  8
0
100
AcDbCircle
 62
7
  6
CONTINUOUS
 10
4.2217026059
 20
5.5428910575
 40
0.32
100
AcDbArc
 50
152.0468131166
 51
207.9531868834
  0
ARC
  5
90E
100
AcDbEntity
  8
0
100
AcDbCircle
 62
7
  6
CONTINUOUS
 10
4.2217026059
 20
5.5428910575
 40
0.306
100
AcDbArc
 50
209.3820066817
 51
330.6179933183
  0
ARC
  5
90F
100
AcDbEntity
  8
0
100
AcDbCircle
 62
7
  6
CONTINUOUS
 10
4.2217026059
 20
5.5428910575
 40
0.306
100
AcDbArc
 50
29.3820066817
 51
150.6179933183
  0
ARC
  5
910
100
AcDbEntity
  8
0
100
AcDbCircle
 62
7
  6
CONTINUOUS
 10
4.2217026059
 20
5.5428910575
 40
0.3
100
AcDbArc
 50
210.0
 51
330.0
  0
ARC
  5
911
100
AcDbEntity
  8
0
100
AcDbCircle
 62
7
  6
CONTINUOUS
 10
4.2217026059
 20
5.5428910575
 40
0.3
100
AcDbArc
 50
30.0
 51
150.0
  0
ARC
  5
912
100
AcDbEntity
  8
0
100
AcDbCircle
 62
7
  6
CONTINUOUS
 10
9.0564968861
 20
6.0738910575
 40
0.06
100
AcDbArc
 50
0.0
 51
90.0
  0
ARC
  5
913
100
AcDbEntity
  8
0
100
AcDbCircle
 62
7
  6
CONTINUOUS
 10
8.5814968861
 20
6.0748910575
 40
0.06
100
AcDbArc
 50
90.0
 51
180.0
  0
ARC
  5
914
100
AcDbEntity
  8
0
100
AcDbCircle
 62
7
  6
CONTINUOUS
 10
9.0605716892
 20
5.9428910575
 40
0.0575
100
AcDbArc
 50
347.2959531578
 51
12.7040468422
  0
ARC
  5
915
100
AcDbEntity
  8
0
100
AcDbCircle
 62
7
  6
CONTINUOUS
 10
8.5089968861
 20
5.1916410575
 40
0.0125
100
AcDbArc
 50
0.0000000012
 51
90.0
  0
ARC
  5
916
100
AcDbEntity
  8
0
100
AcDbCircle
 62
7
  6
CONTINUOUS
 10
8.5089968861
 20
5.8941410575
 40
0.0125
100
AcDbArc
 50
270.0
 51
359.9999999996
  0
ARC
  5
917
100
AcDbEntity
  8
0
100
AcDbCircle
 62
7
  6
CONTINUOUS
 10
7.9214968861
 20
5.3828910575
 40
0.01
100
AcDbArc
 50
0.0
 51
90.0
  0
ARC
  5
918
100
AcDbEntity
  8
0
100
AcDbCircle
 62
7
  6
CONTINUOUS
 10
7.9214968861
 20
5.7028910575
 40
0.01
100
AcDbArc
 50
270.0
 51
360.0
  0
ARC
  5
919
100
AcDbEntity
  8
0
100
AcDbCircle
 62
7
  6
CONTINUOUS
 10
9.1154968341
 20
4.9528911144
 40
0.0010000519
100
AcDbArc
 50
270.0029759244
 51
359.9967384197
  0
ARC
  5
91A
100
AcDbEntity
  8
0
100
AcDbCircle
 62
7
  6
CONTINUOUS
 10
11.8405255945
 20
4.9960099004
 40
0.06
100
AcDbArc
 50
0.0
 51
54.6046913338
  0
CIRCLE
  5
91B
100
AcDbEntity
  8
0
100
AcDbCircle
 62
7
  6
CONTINUOUS
 10
12.0705255945
 20
5.9428910575
 40
0.094
  0
CIRCLE
  5
91C
100
AcDbEntity
  8
0
100
AcDbCircle
 62
7
  6
CONTINUOUS
 10
12.0705255945
 20
5.9428910575
 40
0.064
  0
CIRCLE
  5
91D
100
AcDbEntity
  8
0
100
AcDbCircle
 62
7
  6
CONTINUOUS
 10
12.0705255945
 20
5.9428910575
 40
0.0575
  0
ARC
  5
91E
100
AcDbEntity
  8
0
100
AcDbCircle
 62
7
  6
CONTINUOUS
 10
12.1335255945
 20
5.5728910575
 40
0.03
100
AcDbArc
 50
180.0
 51
270.0
  0
ARC
  5
91F
100
AcDbEntity
  8
0
100
AcDbCircle
 62
7
  6
CONTINUOUS
 10
12.1335255945
 20
5.6978910575
 40
0.03
100
AcDbArc
 50
90.0
 51
180.0
  0
ARC
  5
920
100
AcDbEntity
  8
0
100
AcDbCircle
 62
7
  6
CONTINUOUS
 10
12.5505255945
 20
4.9960099004
 40
0.06
100
AcDbArc
 50
125.3974888522
 51
180.0
  0
ARC
  5
921
100
AcDbEntity
  8
0
100
AcDbCircle
 62
7
  6
CONTINUOUS
 10
12.1955255945
 20
5.5428910575
 40
0.595
100
AcDbArc
 50
244.419898358
 51
295.580101642
  0
ARC
  5
922
100
AcDbEntity
  8
0
100
AcDbCircle
 62
7
  6
CONTINUOUS
 10
12.1955255945
 20
5.5428910575
 40
0.592
100
AcDbArc
 50
295.7191711305
 51
244.2808288695
  0
CIRCLE
  5
923
100
AcDbEntity
  8
0
100
AcDbCircle
 62
7
  6
CONTINUOUS
 10
12.1955255945
 20
5.5428910575
 40
0.591
  0
CIRCLE
  5
924
100
AcDbEntity
  8
0
100
AcDbCircle
 62
7
  6
CONTINUOUS
 10
12.3205255945
 20
5.9428910575
 40
0.094
  0
CIRCLE
  5
925
100
AcDbEntity
  8
0
100
AcDbCircle
 62
7
  6
CONTINUOUS
 10
12.3205255945
 20
5.9428910575
 40
0.064
  0
CIRCLE
  5
926
100
AcDbEntity
  8
0
100
AcDbCircle
 62
7
  6
CONTINUOUS
 10
12.3205255945
 20
5.9428910575
 40
0.0575
  0
CIRCLE
  5
927
100
AcDbEntity
  8
AXIS_COSMETIC_THREADS
100
AcDbCircle
 62
7
  6
CONTINUOUS
 10
12.1955255945
 20
5.6348910575
 40
0.035
  0
ARC
  5
928
100
AcDbEntity
  8
0
100
AcDbCircle
 62
7
  6
CONTINUOUS
 10
12.2585255945
 20
5.6978910575
 40
0.03
100
AcDbArc
 50
0.0
 51
90.0
  0
ARC
  5
929
100
AcDbEntity
  8
0
100
AcDbCircle
 62
7
  6
CONTINUOUS
 10
12.2585255945
 20
5.5728910575
 40
0.03
100
AcDbArc
 50
270.0
 51
360.0
  0
CIRCLE
  5
92A
100
AcDbEntity
  8
AXIS_COSMETIC_THREADS
100
AcDbCircle
 62
7
  6
CONTINUOUS
 10
12.1955255945
 20
5.6348910575
 40
0.01
  0
ARC
  5
92B
100
AcDbEntity
  8
0
100
AcDbCircle
 62
7
  6
CONTINUOUS
 10
4.7537026059
 20
8.5621650434
 40
0.06
100
AcDbArc
 50
270.0
 51
360.0
  0
ARC
  5
92C
100
AcDbEntity
  8
0
100
AcDbCircle
 62
7
  6
CONTINUOUS
 10
3.6897026059
 20
8.5621650434
 40
0.06
100
AcDbArc
 50
180.0
 51
270.0
  0
ARC
  5
92D
100
AcDbEntity
  8
0
100
AcDbCircle
 62
7
  6
CONTINUOUS
 10
4.0967026059
 20
9.0412398466
 40
0.0575
100
AcDbArc
 50
77.2959531578
 51
102.7040468422
  0
ARC
  5
92E
100
AcDbEntity
  8
0
100
AcDbCircle
 62
7
  6
CONTINUOUS
 10
4.3467026059
 20
9.0412398466
 40
0.0575
100
AcDbArc
 50
77.2959531578
 51
102.7040468422
  0
ARC
  5
92F
100
AcDbEntity
  8
0
100
AcDbCircle
 62
7
  6
CONTINUOUS
 10
4.5729526059
 20
8.4896650434
 40
0.0125
100
AcDbArc
 50
90.0000089257
 51
180.0
  0
ARC
  5
930
100
AcDbEntity
  8
0
100
AcDbCircle
 62
7
  6
CONTINUOUS
 10
3.8704526059
 20
8.4896650434
 40
0.0125
100
AcDbArc
 50
0.0
 51
89.9999910743
  0
ARC
  5
931
100
AcDbEntity
  8
0
100
AcDbCircle
 62
7
  6
CONTINUOUS
 10
4.0167026059
 20
7.9021650434
 40
0.01
100
AcDbArc
 50
90.0
 51
180.0
  0
ARC
  5
932
100
AcDbEntity
  8
0
100
AcDbCircle
 62
7
  6
CONTINUOUS
 10
4.4267026059
 20
7.9021650434
 40
0.01
100
AcDbArc
 50
0.0
 51
90.0
  0
ENDSEC
  0
SECTION
  2
OBJECTS
  0
DICTIONARY
  5
C
100
AcDbDictionary
280
0
281
1
  3
ACAD_GROUP
350
D
  3
ACAD_MLINESTYLE
350
17
  3
ACAD_LAYOUT
350
1A
  3
ACAD_PLOTSETTINGS
350
19
  3
ACAD_PLOTSTYLENAME
350
E
  0
DICTIONARY
  5
D
102
{ACAD_REACTORS
330
C
102
}
100
AcDbDictionary
280
0
281
1
  0
ACDBDICTIONARYWDFLT
  5
E
102
{ACAD_REACTORS
330
C
102
}
100
AcDbDictionary
281
1
  3
Normal
350
F
100
AcDbDictionaryWithDefault
340
F
  0
DICTIONARY
  5
17
102
{ACAD_REACTORS
330
C
102
}
100
AcDbDictionary
280
0
281
1
  3
Standard
350
18
  0
DICTIONARY
  5
19
102
{ACAD_REACTORS
330
C
102
}
100
AcDbDictionary
281
1
  0
DICTIONARY
  5
1A
102
{ACAD_REACTORS
330
C
102
}
100
AcDbDictionary
281
1
  3
Model
350
933
  3
Layout1
350
934
  0
ACDBPLACEHOLDER
  5
F
102
{ACAD_REACTORS
330
E
102
}
  0
MLINESTYLE
  5
18
102
{ACAD_REACTORS
330
17
102
}
100
AcDbMlineStyle
  2
STANDARD
 70
0
  3

 62
256
 51
90.0
 52
90.0
 71
2
 49
0.5
 62
256
  6
BYLAYER
 49
-0.5
 62
256
  6
BYLAYER
  0
LAYOUT
  5
933
102
{ACAD_REACTORS
330
1A
102
}
100
AcDbPlotSettings
  1

  2
none_device
  4
ANSI_B_(17.00_x_11.00_Inches)
  6

 40
0.0
 41
0.0
 42
0.0
 43
0.0
 44
431.8
 45
279.4
 46
0.0
 47
0.0
 48
0.0
 49
0.0
140
0.0
141
0.0
142
1.0
143
1.0
 70
1024
 72
0
 73
0
 74
0
  7

 75
0
147
1.0
148
0.0
149
0.0
100
AcDbLayout
  1
Model
 70
0
 71
0
 10
0.0
 20
0.0
 11
17.0
 21
11.0
 12
0.0
 22
0.0
 32
0.0
 14
0.0
 24
0.0
 34
0.0
 15
0.0
 25
0.0
 35
0.0
146
0.0
 13
0.0
 23
0.0
 33
0.0
 16
1.0
 26
0.0
 36
0.0
 17
0.0
 27
1.0
 37
0.0
 76
0
330
22C
345
0
346
0
  0
LAYOUT
  5
934
102
{ACAD_REACTORS
330
1A
102
}
100
AcDbPlotSettings
  1

  2
none_device
  4
ANSI_B_(17.00_x_11.00_Inches)
  6

 40
0.0
 41
0.0
 42
0.0
 43
0.0
 44
431.8
 45
279.4
 46
0.0
 47
0.0
 48
0.0
 49
0.0
140
0.0
141
0.0
142
1.0
143
1.0
 70
0
 72
0
 73
0
 74
0
  7

 75
0
147
1.0
148
0.0
149
0.0
100
AcDbLayout
  1
Layout1
 70
0
 71
1
 10
0.0
 20
0.0
 11
17.0
 21
11.0
 12
0.0
 22
0.0
 32
0.0
 14
0.0
 24
0.0
 34
0.0
 15
0.0
 25
0.0
 35
0.0
146
0.0
 13
0.0
 23
0.0
 33
0.0
 16
1.0
 26
0.0
 36
0.0
 17
0.0
 27
1.0
 37
0.0
 76
0
330
22D
345
0
346
0
  0
ENDSEC
  0
EOF
