999
DXF file: 155310_1.dxf
999
Pro/ENGINEER 2009141 by Parametric Technology Corporation
  0
SECTION
  2
HEADER
  9
$ACADVER
  1
AC1015
  9
$DWGCODEPAGE
  3
ANSI_1252
  9
$EXTMAX
 10
17.0
 20
11.0
 30
0.0
  9
$EXTMIN
 10
0.0
 20
0.0
 30
0.0
  9
$LIMMIN
 10
0.0
 20
0.0
  9
$LIMMAX
 10
17.0
 20
11.0
  9
$VIEWCTR
 10
8.5
 20
5.5
  9
$VIEWSIZE
 40
11.0
  9
$CLAYER
  8
0
  9
$LTSCALE
 40
0.935
  9
$CELTYPE
  6
BYLAYER
  9
$DIMSCALE
 40
1.0
  9
$DIMASZ
 40
0.1875
  9
$DIMEXO
 40
0.10625
  9
$DIMDLI
 40
0.646
  9
$DIMEXE
 40
0.306
  9
$DIMCEN
 40
0.153
  9
$DIMLFAC
 40
1.0
  9
$DIMBLK
  1
_FILLED
  9
$DIMTXT
 40
0.1
  9
$DIMTOL
 70
1
  9
$DIMLIM
 70
0
  9
$DIMTFAC
 40
1.0
  9
$DIMTP
 40
0.005
  9
$DIMTM
 40
0.005
  9
$PDMODE
 70
3
  9
$PDSIZE
 40
0.3125
  9
$HANDSEED
  5
91E
  9
$TILEMODE
 70
1
  9
$MEASUREMENT
 70
0
  9
$INSUNITS
 70
1
  0
ENDSEC
  0
SECTION
  2
CLASSES
  0
CLASS
  1
ACDBDICTIONARYWDFLT
  2
AcDbDictionaryWithDefault
  3
AutoCAD 2000
 90
0
280
0
281
0
  0
CLASS
  1
ACDBPLACEHOLDER
  2
AcDbPlaceHolder
  3
AutoCAD 2000
 90
0
280
0
281
0
  0
CLASS
  1
LAYOUT
  2
AcDbLayout
  3
AutoCAD 2000
 90
0
280
0
281
0
  0
ENDSEC
  0
SECTION
  2
TABLES
  0
TABLE
  2
VPORT
  5
8
100
AcDbSymbolTable
 70
2
  0
VPORT
  5
1F4
100
AcDbSymbolTableRecord
100
AcDbViewportTableRecord
  2
*ACTIVE
 70
0
 10
0.0
 20
0.0
 11
1.0
 21
1.0
 12
8.5
 22
5.5
 13
0.0
 23
0.0
 14
1.0
 24
1.0
 15
0.0
 25
0.0
 16
0.0
 26
0.0
 36
1.0
 17
0.0
 27
0.0
 37
0.0
 40
11.0
 41
1.5454545455
 42
50.0
 43
0.0
 44
0.0
 50
0.0
 51
0.0
 71
0
 72
100
 73
1
 74
1
 75
0
 76
0
 77
0
 78
0
  0
ENDTAB
  0
TABLE
  2
LTYPE
  5
5
100
AcDbSymbolTable
 70
6
  0
LTYPE
  5
14
100
AcDbSymbolTableRecord
100
AcDbLinetypeTableRecord
  2
BYBLOCK
 70
0
  3

 72
65
 73
0
 40
0.0
  0
LTYPE
  5
15
100
AcDbSymbolTableRecord
100
AcDbLinetypeTableRecord
  2
BYLAYER
 70
0
  3

 72
65
 73
0
 40
0.0
  0
LTYPE
  5
16
100
AcDbSymbolTableRecord
100
AcDbLinetypeTableRecord
  2
CONTINUOUS
 70
64
  3
Solid line
 72
65
 73
0
 40
0.0
  0
LTYPE
  5
1F5
100
AcDbSymbolTableRecord
100
AcDbLinetypeTableRecord
  2
CENTER
 70
64
  3
____ _ ____ _ ____ _ ____ _ ____ _ ____ _ ____
 72
65
 73
4
 40
0.6
 49
0.375
 74
0
 49
-0.075
 74
0
 49
0.075
 74
0
 49
-0.075
 74
0
  0
LTYPE
  5
1F6
100
AcDbSymbolTableRecord
100
AcDbLinetypeTableRecord
  2
HIDDEN
 70
64
  3
- - - - - - - - - - - - - - - - - - - -
 72
65
 73
2
 40
0.2
 49
0.1
 74
0
 49
-0.1
 74
0
  0
LTYPE
  5
1F7
100
AcDbSymbolTableRecord
100
AcDbLinetypeTableRecord
  2
PHANTOM
 70
64
  3
_____ _ _ _____ _ _ _____ _ _ _____
 72
65
 73
6
 40
0.8
 49
0.45
 74
0
 49
-0.05
 74
0
 49
0.1
 74
0
 49
-0.05
 74
0
 49
0.1
 74
0
 49
-0.05
 74
0
  0
LTYPE
  5
1F8
100
AcDbSymbolTableRecord
100
AcDbLinetypeTableRecord
  2
DOT
 70
64
  3
. . . . . . . . . . . . . . . . . . . .
 72
65
 73
2
 40
0.2
 49
0.1
 74
0
 49
-0.1
 74
0
  0
LTYPE
  5
1F9
100
AcDbSymbolTableRecord
100
AcDbLinetypeTableRecord
  2
DASHED
 70
64
  3
- - - - - - - - - - - - - - - - - - - -
 72
65
 73
2
 40
0.2
 49
0.1
 74
0
 49
-0.1
 74
0
  0
ENDTAB
  0
TABLE
  2
LAYER
  5
2
100
AcDbSymbolTable
 70
36
  0
LAYER
  5
10
100
AcDbSymbolTableRecord
100
AcDbLayerTableRecord
  2
0
 70
0
 62
7
  6
CONTINUOUS
370
-3
390
F
  0
LAYER
  5
1FA
100
AcDbSymbolTableRecord
100
AcDbLayerTableRecord
  2
DEFAULT_1
 70
0
 62
7
  6
CENTER
370
-3
390
F
  0
LAYER
  5
1FB
100
AcDbSymbolTableRecord
100
AcDbLayerTableRecord
  2
DEFAULT_2
 70
0
 62
8
  6
HIDDEN
370
-3
390
F
  0
LAYER
  5
1FC
100
AcDbSymbolTableRecord
100
AcDbLayerTableRecord
  2
DEFAULT_3
 70
0
 62
7
  6
PHANTOM
370
-3
390
F
  0
LAYER
  5
1FD
100
AcDbSymbolTableRecord
100
AcDbLayerTableRecord
  2
1
 70
0
 62
7
  6
CONTINUOUS
370
-3
390
F
  0
LAYER
  5
1FE
100
AcDbSymbolTableRecord
100
AcDbLayerTableRecord
  2
10
 70
0
 62
7
  6
CONTINUOUS
370
-3
390
F
  0
LAYER
  5
1FF
100
AcDbSymbolTableRecord
100
AcDbLayerTableRecord
  2
11
 70
0
 62
7
  6
CONTINUOUS
370
-3
390
F
  0
LAYER
  5
200
100
AcDbSymbolTableRecord
100
AcDbLayerTableRecord
  2
12
 70
0
 62
7
  6
CONTINUOUS
370
-3
390
F
  0
LAYER
  5
201
100
AcDbSymbolTableRecord
100
AcDbLayerTableRecord
  2
13
 70
0
 62
7
  6
CONTINUOUS
370
-3
390
F
  0
LAYER
  5
202
100
AcDbSymbolTableRecord
100
AcDbLayerTableRecord
  2
14
 70
0
 62
7
  6
CONTINUOUS
370
-3
390
F
  0
LAYER
  5
203
100
AcDbSymbolTableRecord
100
AcDbLayerTableRecord
  2
15
 70
0
 62
7
  6
CONTINUOUS
370
-3
390
F
  0
LAYER
  5
204
100
AcDbSymbolTableRecord
100
AcDbLayerTableRecord
  2
16
 70
0
 62
7
  6
CONTINUOUS
370
-3
390
F
  0
LAYER
  5
205
100
AcDbSymbolTableRecord
100
AcDbLayerTableRecord
  2
17
 70
0
 62
7
  6
CONTINUOUS
370
-3
390
F
  0
LAYER
  5
206
100
AcDbSymbolTableRecord
100
AcDbLayerTableRecord
  2
18
 70
0
 62
7
  6
CONTINUOUS
370
-3
390
F
  0
LAYER
  5
207
100
AcDbSymbolTableRecord
100
AcDbLayerTableRecord
  2
19
 70
0
 62
7
  6
CONTINUOUS
370
-3
390
F
  0
LAYER
  5
208
100
AcDbSymbolTableRecord
100
AcDbLayerTableRecord
  2
2
 70
0
 62
7
  6
CONTINUOUS
370
-3
390
F
  0
LAYER
  5
209
100
AcDbSymbolTableRecord
100
AcDbLayerTableRecord
  2
20
 70
0
 62
7
  6
CONTINUOUS
370
-3
390
F
  0
LAYER
  5
20A
100
AcDbSymbolTableRecord
100
AcDbLayerTableRecord
  2
21
 70
0
 62
7
  6
CONTINUOUS
370
-3
390
F
  0
LAYER
  5
20B
100
AcDbSymbolTableRecord
100
AcDbLayerTableRecord
  2
22
 70
0
 62
7
  6
CONTINUOUS
370
-3
390
F
  0
LAYER
  5
20C
100
AcDbSymbolTableRecord
100
AcDbLayerTableRecord
  2
23
 70
0
 62
7
  6
CONTINUOUS
370
-3
390
F
  0
LAYER
  5
20D
100
AcDbSymbolTableRecord
100
AcDbLayerTableRecord
  2
24
 70
0
 62
7
  6
CONTINUOUS
370
-3
390
F
  0
LAYER
  5
20E
100
AcDbSymbolTableRecord
100
AcDbLayerTableRecord
  2
25
 70
0
 62
7
  6
CONTINUOUS
370
-3
390
F
  0
LAYER
  5
20F
100
AcDbSymbolTableRecord
100
AcDbLayerTableRecord
  2
26
 70
0
 62
7
  6
CONTINUOUS
370
-3
390
F
  0
LAYER
  5
210
100
AcDbSymbolTableRecord
100
AcDbLayerTableRecord
  2
27
 70
0
 62
7
  6
CONTINUOUS
370
-3
390
F
  0
LAYER
  5
211
100
AcDbSymbolTableRecord
100
AcDbLayerTableRecord
  2
28
 70
0
 62
7
  6
CONTINUOUS
370
-3
390
F
  0
LAYER
  5
212
100
AcDbSymbolTableRecord
100
AcDbLayerTableRecord
  2
29
 70
0
 62
7
  6
CONTINUOUS
370
-3
390
F
  0
LAYER
  5
213
100
AcDbSymbolTableRecord
100
AcDbLayerTableRecord
  2
3
 70
0
 62
7
  6
CONTINUOUS
370
-3
390
F
  0
LAYER
  5
214
100
AcDbSymbolTableRecord
100
AcDbLayerTableRecord
  2
30
 70
0
 62
7
  6
CONTINUOUS
370
-3
390
F
  0
LAYER
  5
215
100
AcDbSymbolTableRecord
100
AcDbLayerTableRecord
  2
31
 70
0
 62
7
  6
CONTINUOUS
370
-3
390
F
  0
LAYER
  5
216
100
AcDbSymbolTableRecord
100
AcDbLayerTableRecord
  2
32
 70
0
 62
7
  6
CONTINUOUS
370
-3
390
F
  0
LAYER
  5
217
100
AcDbSymbolTableRecord
100
AcDbLayerTableRecord
  2
4
 70
0
 62
7
  6
CONTINUOUS
370
-3
390
F
  0
LAYER
  5
218
100
AcDbSymbolTableRecord
100
AcDbLayerTableRecord
  2
5
 70
0
 62
7
  6
CONTINUOUS
370
-3
390
F
  0
LAYER
  5
219
100
AcDbSymbolTableRecord
100
AcDbLayerTableRecord
  2
6
 70
0
 62
7
  6
CONTINUOUS
370
-3
390
F
  0
LAYER
  5
21A
100
AcDbSymbolTableRecord
100
AcDbLayerTableRecord
  2
7
 70
0
 62
7
  6
CONTINUOUS
370
-3
390
F
  0
LAYER
  5
21B
100
AcDbSymbolTableRecord
100
AcDbLayerTableRecord
  2
8
 70
0
 62
7
  6
CONTINUOUS
370
-3
390
F
  0
LAYER
  5
21C
100
AcDbSymbolTableRecord
100
AcDbLayerTableRecord
  2
9
 70
0
 62
7
  6
CONTINUOUS
370
-3
390
F
  0
LAYER
  5
21D
100
AcDbSymbolTableRecord
100
AcDbLayerTableRecord
  2
AXIS
 70
0
 62
7
  6
CONTINUOUS
370
-3
390
F
  0
LAYER
  5
21E
100
AcDbSymbolTableRecord
100
AcDbLayerTableRecord
  2
AXIS_COSMETIC_THREADS
 70
0
 62
7
  6
CONTINUOUS
370
-3
390
F
  0
LAYER
  5
21F
100
AcDbSymbolTableRecord
100
AcDbLayerTableRecord
  2
DATUM_CURVES
 70
0
 62
7
  6
CONTINUOUS
370
-3
390
F
  0
LAYER
  5
220
100
AcDbSymbolTableRecord
100
AcDbLayerTableRecord
  2
DATUM_PLANES
 70
0
 62
7
  6
CONTINUOUS
370
-3
390
F
  0
LAYER
  5
221
100
AcDbSymbolTableRecord
100
AcDbLayerTableRecord
  2
MATTE_OUTLINE
 70
0
 62
7
  6
CONTINUOUS
370
-3
390
F
  0
LAYER
  5
222
100
AcDbSymbolTableRecord
100
AcDbLayerTableRecord
  2
NOTES
 70
0
 62
7
  6
CONTINUOUS
370
-3
390
F
  0
LAYER
  5
223
100
AcDbSymbolTableRecord
100
AcDbLayerTableRecord
  2
QUILTS
 70
0
 62
7
  6
CONTINUOUS
370
-3
390
F
  0
LAYER
  5
224
100
AcDbSymbolTableRecord
100
AcDbLayerTableRecord
  2
SCHEME_DIMS
 70
0
 62
7
  6
CONTINUOUS
370
-3
390
F
  0
LAYER
  5
225
100
AcDbSymbolTableRecord
100
AcDbLayerTableRecord
  2
SYMBOLS
 70
0
 62
7
  6
CONTINUOUS
370
-3
390
F
  0
LAYER
  5
226
100
AcDbSymbolTableRecord
100
AcDbLayerTableRecord
  2
XSEC_DATUMS
 70
0
 62
7
  6
CONTINUOUS
370
-3
390
F
  0
ENDTAB
  0
TABLE
  2
STYLE
  5
3
100
AcDbSymbolTable
 70
1
  0
STYLE
  5
11
100
AcDbSymbolTableRecord
100
AcDbTextStyleTableRecord
  2
STANDARD
 70
0
 40
0.0
 41
1.0
 50
0.0
 71
0
 42
0.2
  3
txt
  4

  0
STYLE
  5
227
100
AcDbSymbolTableRecord
100
AcDbTextStyleTableRecord
  2
TEXTSTYLE_1
 70
0
 40
0.0
 41
0.8
 50
0.0
 71
0
 42
0.2
  3
gdt
  4

  0
STYLE
  5
228
100
AcDbSymbolTableRecord
100
AcDbTextStyleTableRecord
  2
TEXTSTYLE_2
 70
0
 40
0.0
 41
0.8
 50
0.0
 71
0
 42
0.2
  3
txt
  4

  0
STYLE
  5
229
100
AcDbSymbolTableRecord
100
AcDbTextStyleTableRecord
  2
TEXTSTYLE_3
 70
0
 40
0.0
 41
0.85
 50
0.0
 71
0
 42
0.2
  3
txt
  4

  0
STYLE
  5
22A
100
AcDbSymbolTableRecord
100
AcDbTextStyleTableRecord
  2
TEXTSTYLE_4
 70
0
 40
0.0
 41
0.92
 50
0.0
 71
0
 42
0.2
  3
txt
  4

  0
STYLE
  5
22B
100
AcDbSymbolTableRecord
100
AcDbTextStyleTableRecord
  2
TEXTSTYLE_5
 70
0
 40
0.0
 41
1.0
 50
0.0
 71
0
 42
0.2
  3
gdt
  4

  0
ENDTAB
  0
TABLE
  2
VIEW
  5
6
100
AcDbSymbolTable
 70
0
  0
ENDTAB
  0
TABLE
  2
UCS
  5
7
100
AcDbSymbolTable
 70
0
  0
ENDTAB
  0
TABLE
  2
APPID
  5
9
100
AcDbSymbolTable
 70
1
  0
APPID
  5
22C
100
AcDbSymbolTableRecord
100
AcDbRegAppTableRecord
  2
ACAD
 70
0
  0
ENDTAB
  0
TABLE
  2
BLOCK_RECORD
  5
1
100
AcDbSymbolTable
 70
0
  0
BLOCK_RECORD
  5
22D
100
AcDbSymbolTableRecord
100
AcDbBlockTableRecord
  2
*Model_Space
  0
BLOCK_RECORD
  5
22E
100
AcDbSymbolTableRecord
100
AcDbBlockTableRecord
  2
*Paper_Space
  0
BLOCK_RECORD
  5
22F
100
AcDbSymbolTableRecord
100
AcDbBlockTableRecord
  2
_FILLED
  0
BLOCK_RECORD
  5
230
100
AcDbSymbolTableRecord
100
AcDbBlockTableRecord
  2
*D0
  0
BLOCK_RECORD
  5
231
100
AcDbSymbolTableRecord
100
AcDbBlockTableRecord
  2
*D1
  0
BLOCK_RECORD
  5
232
100
AcDbSymbolTableRecord
100
AcDbBlockTableRecord
  2
*D2
  0
BLOCK_RECORD
  5
233
100
AcDbSymbolTableRecord
100
AcDbBlockTableRecord
  2
*D3
  0
BLOCK_RECORD
  5
234
100
AcDbSymbolTableRecord
100
AcDbBlockTableRecord
  2
*D4
  0
BLOCK_RECORD
  5
235
100
AcDbSymbolTableRecord
100
AcDbBlockTableRecord
  2
BANNER_LOGO_TITLEBLOCK_BL0
  0
ENDTAB
  0
TABLE
  2
DIMSTYLE
  5
A
100
AcDbSymbolTable
 70
1
100
AcDbDimStyleTable
 71
0
  0
DIMSTYLE
105
236
100
AcDbSymbolTableRecord
100
AcDbDimStyleTableRecord
  2
STANDARD
 70
0
  3

  4

 40
1.0
 41
0.1875
 42
0.0625
 43
0.38
 44
0.18
 45
0.0
 46
0.0
 47
0.005
 48
0.005
140
0.1
141
0.09
142
0.0
143
25.4
144
1.0
145
0.0
146
1.0
147
0.09
 71
1.0
 72
0.0
 73
1
 74
1
 75
0
 76
0
 77
0
 78
4
170
0
171
2
172
0
173
0
174
0
175
0
176
0
177
0
178
0
270
2
271
3
272
3
273
2
274
2
275
0
280
0
281
0
282
0
283
1
284
4
285
0
286
0
287
3
288
0
340
11
341
22F
342
22F
343
22F
344
22F
  0
DIMSTYLE
105
237
100
AcDbSymbolTableRecord
100
AcDbDimStyleTableRecord
  2
DIMSTYLE_1
 70
0
  3

  4

 40
1.0
 41
0.1875
 42
0.0625
 43
0.38
 44
0.18
 45
0.0
 46
0.0
 47
0.1
 48
0.1
140
0.1
141
0.09
142
0.0
143
25.4
144
1.0
145
0.0
146
1.0
147
0.09
 71
0.0
 72
0.0
 73
1
 74
1
 75
0
 76
0
 77
0
 78
4
170
0
171
2
172
0
173
0
174
0
175
0
176
0
177
0
178
0
270
2
271
1
272
1
273
2
274
2
275
0
280
0
281
0
282
0
283
1
284
4
285
0
286
0
287
3
288
0
340
11
341
22F
342
22F
343
22F
344
22F
  0
ENDTAB
  0
ENDSEC
  0
SECTION
  2
BLOCKS
  0
BLOCK
  5
20
100
AcDbEntity
  8
0
100
AcDbBlockBegin
  2
*Model_Space
 70
0
 10
0.0
 20
0.0
 30
0.0
  3
*Model_Space
  1

  0
ENDBLK
  5
21
100
AcDbEntity
  8
0
100
AcDbBlockEnd
  0
BLOCK
  5
1C
100
AcDbEntity
  8
0
100
AcDbBlockBegin
  2
*Paper_Space
 70
0
 10
0.0
 20
0.0
 30
0.0
  3
*Paper_Space
  1

  0
ENDBLK
  5
1D
100
AcDbEntity
  8
0
100
AcDbBlockEnd
  0
BLOCK
  5
238
100
AcDbEntity
  8
0
100
AcDbBlockBegin
 62
2
  6
CONTINUOUS
  2
BANNER_LOGO_TITLEBLOCK_BL0
 70
64
 10
12.9086867042
 20
2.5403783405
  3
BANNER_LOGO_TITLEBLOCK_BL0
  1

  0
ELLIPSE
  5
239
100
AcDbEntity
  8
0
100
AcDbEllipse
 62
2
  6
CONTINUOUS
 10
12.9046654608
 20
2.5403783405
 30
0.0
 11
-0.8250004575
 21
0.0
 31
0.0
 40
0.218572
 41
0.0
 42
6.2831853072
  0
ARC
  5
23A
100
AcDbEntity
  8
0
100
AcDbCircle
 62
2
  6
CONTINUOUS
 10
12.400005721
 20
2.5168763464
 40
0.0153945295
100
AcDbArc
 50
354.0454548824
 51
5.1878013979
  0
ARC
  5
23B
100
AcDbEntity
  8
0
100
AcDbCircle
 62
2
  6
CONTINUOUS
 10
12.3931760319
 20
2.5166878286
 40
0.0222174455
100
AcDbArc
 50
4.0793399388
 51
69.834329283
  0
LINE
  5
23C
100
AcDbEntity
  8
0
100
AcDbLine
 62
2
  6
CONTINUOUS
 10
12.4008351814
 20
2.5375433389
 11
12.3907841758
 21
2.5410923409
  0
LINE
  5
23D
100
AcDbEntity
  8
0
100
AcDbLine
 62
2
  6
CONTINUOUS
 10
12.3907841758
 20
2.5410923409
 11
12.3990241804
 21
2.5458683435
  0
ARC
  5
23E
100
AcDbEntity
  8
0
100
AcDbCircle
 62
2
  6
CONTINUOUS
 10
12.3771587979
 20
2.5826952352
 40
0.0428289026
100
AcDbArc
 50
300.6990502959
 51
319.0591802498
  0
ARC
  5
23F
100
AcDbEntity
  8
0
100
AcDbCircle
 62
2
  6
CONTINUOUS
 10
12.3971873948
 20
2.5665668817
 40
0.0171568255
100
AcDbArc
 50
315.9145124245
 51
16.0049121282
  0
ARC
  5
240
100
AcDbEntity
  8
0
100
AcDbCircle
 62
2
  6
CONTINUOUS
 10
12.3922357827
 20
2.5632132173
 40
0.0229166529
100
AcDbArc
 50
20.6563876465
 51
62.3316896973
  0
ARC
  5
241
100
AcDbEntity
  8
0
100
AcDbCircle
 62
2
  6
CONTINUOUS
 10
12.371573659
 20
2.5302846524
 40
0.061747717
100
AcDbArc
 50
59.5385584989
 51
90.0050977555
  0
LINE
  5
242
100
AcDbEntity
  8
0
100
AcDbLine
 62
2
  6
CONTINUOUS
 10
12.3715681652
 20
2.5920323691
 11
12.2055050731
 21
2.5920323691
  0
ARC
  5
243
100
AcDbEntity
  8
0
100
AcDbCircle
 62
2
  6
CONTINUOUS
 10
12.2055050712
 20
2.5895573696
 40
0.0024749995
100
AcDbArc
 50
89.9999571957
 51
180.0000428043
  0
LINE
  5
244
100
AcDbEntity
  8
0
100
AcDbLine
 62
2
  6
CONTINUOUS
 10
12.2030300717
 20
2.5895573678
 11
12.2030300717
 21
2.5697573568
  0
ARC
  5
245
100
AcDbEntity
  8
0
100
AcDbCircle
 62
2
  6
CONTINUOUS
 10
12.2055050712
 20
2.5697573549
 40
0.0024749995
100
AcDbArc
 50
179.9999571957
 51
270.0000428043
  0
LINE
  5
246
100
AcDbEntity
  8
0
100
AcDbLine
 62
2
  6
CONTINUOUS
 10
12.2055050731
 20
2.5672823554
 11
12.2294470864
 21
2.5672823554
  0
ARC
  5
247
100
AcDbEntity
  8
0
100
AcDbCircle
 62
2
  6
CONTINUOUS
 10
12.2294470882
 20
2.5648073559
 40
0.0024749995
100
AcDbArc
 50
359.9999571957
 51
90.0000428043
  0
LINE
  5
248
100
AcDbEntity
  8
0
100
AcDbLine
 62
2
  6
CONTINUOUS
 10
12.2319220877
 20
2.564807354
 11
12.2319220877
 21
2.5184523283
  0
ARC
  5
249
100
AcDbEntity
  8
0
100
AcDbCircle
 62
2
  6
CONTINUOUS
 10
12.2294470882
 20
2.5184523265
 40
0.0024749995
100
AcDbArc
 50
269.9999571957
 51
0.0000428043
  0
LINE
  5
24A
100
AcDbEntity
  8
0
100
AcDbLine
 62
2
  6
CONTINUOUS
 10
12.2294470864
 20
2.515977327
 11
12.2055050731
 21
2.515977327
  0
ARC
  5
24B
100
AcDbEntity
  8
0
100
AcDbCircle
 62
2
  6
CONTINUOUS
 10
12.2055050712
 20
2.5135023274
 40
0.0024749995
100
AcDbArc
 50
89.9999571957
 51
180.0000428043
  0
LINE
  5
24C
100
AcDbEntity
  8
0
100
AcDbLine
 62
2
  6
CONTINUOUS
 10
12.2030300717
 20
2.5135023256
 11
12.2030300717
 21
2.4937023146
  0
ARC
  5
24D
100
AcDbEntity
  8
0
100
AcDbCircle
 62
2
  6
CONTINUOUS
 10
12.2055050712
 20
2.4937023128
 40
0.0024749995
100
AcDbArc
 50
179.9999571957
 51
270.0000428043
  0
LINE
  5
24E
100
AcDbEntity
  8
0
100
AcDbLine
 62
2
  6
CONTINUOUS
 10
12.2055050731
 20
2.4912273132
 11
12.3819511709
 21
2.4912273132
  0
ARC
  5
24F
100
AcDbEntity
  8
0
100
AcDbCircle
 62
2
  6
CONTINUOUS
 10
12.3792298263
 20
2.539634765
 40
0.048483885
100
AcDbArc
 50
273.21763719
 51
303.0749121182
  0
ARC
  5
250
100
AcDbEntity
  8
0
100
AcDbCircle
 62
2
  6
CONTINUOUS
 10
12.3940692204
 20
2.5168671561
 40
0.0213072145
100
AcDbArc
 50
303.0488228549
 51
355.7263138674
  0
LINE
  5
251
100
AcDbEntity
  8
0
100
AcDbLine
 62
2
  6
CONTINUOUS
 10
12.2949101227
 20
2.5499573458
 11
12.3362731456
 21
2.5499573458
  0
ARC
  5
252
100
AcDbEntity
  8
0
100
AcDbCircle
 62
2
  6
CONTINUOUS
 10
12.3362731456
 20
2.5586198506
 40
0.0086625048
100
AcDbArc
 50
270.0
 51
90.0
  0
LINE
  5
253
100
AcDbEntity
  8
0
100
AcDbLine
 62
2
  6
CONTINUOUS
 10
12.3362731456
 20
2.5672823554
 11
12.2949101227
 21
2.5672823554
  0
ARC
  5
254
100
AcDbEntity
  8
0
100
AcDbCircle
 62
2
  6
CONTINUOUS
 10
12.2949101208
 20
2.5648073559
 40
0.0024749995
100
AcDbArc
 50
89.9999571957
 51
180.0000428043
  0
LINE
  5
255
100
AcDbEntity
  8
0
100
AcDbLine
 62
2
  6
CONTINUOUS
 10
12.2924351213
 20
2.564807354
 11
12.2924351213
 21
2.5524323472
  0
ARC
  5
256
100
AcDbEntity
  8
0
100
AcDbCircle
 62
2
  6
CONTINUOUS
 10
12.2949101208
 20
2.5524323453
 40
0.0024749995
100
AcDbArc
 50
179.9999571957
 51
270.0000428043
  0
LINE
  5
257
100
AcDbEntity
  8
0
100
AcDbLine
 62
2
  6
CONTINUOUS
 10
12.2924351213
 20
2.5184523283
 11
12.2924351213
 21
2.5308273352
  0
ARC
  5
258
100
AcDbEntity
  8
0
100
AcDbCircle
 62
2
  6
CONTINUOUS
 10
12.2949101208
 20
2.530827337
 40
0.0024749995
100
AcDbArc
 50
89.9999571957
 51
180.0000428043
  0
LINE
  5
259
100
AcDbEntity
  8
0
100
AcDbLine
 62
2
  6
CONTINUOUS
 10
12.2949101227
 20
2.5333023366
 11
12.3362731456
 21
2.5333023366
  0
ARC
  5
25A
100
AcDbEntity
  8
0
100
AcDbCircle
 62
2
  6
CONTINUOUS
 10
12.3362731456
 20
2.5246398318
 40
0.0086625048
100
AcDbArc
 50
270.0
 51
90.0
  0
LINE
  5
25B
100
AcDbEntity
  8
0
100
AcDbLine
 62
2
  6
CONTINUOUS
 10
12.3362731456
 20
2.515977327
 11
12.2949101227
 21
2.515977327
  0
ARC
  5
25C
100
AcDbEntity
  8
0
100
AcDbCircle
 62
2
  6
CONTINUOUS
 10
12.2949101208
 20
2.5184523265
 40
0.0024749995
100
AcDbArc
 50
179.9999571957
 51
270.0000428043
  0
ARC
  5
25D
100
AcDbEntity
  8
0
100
AcDbCircle
 62
2
  6
CONTINUOUS
 10
13.5806801742
 20
2.5212486481
 40
0.044722495
100
AcDbArc
 50
195.531588407
 51
204.7624440448
  0
LINE
  5
25E
100
AcDbEntity
  8
0
100
AcDbLine
 62
2
  6
CONTINUOUS
 10
13.5375908118
 20
2.5092733232
 11
13.5357868108
 21
2.5153423266
  0
ARC
  5
25F
100
AcDbEntity
  8
0
100
AcDbCircle
 62
2
  6
CONTINUOUS
 10
13.4974076135
 20
2.5055452462
 40
0.0396099176
100
AcDbArc
 50
14.3201081283
 51
22.4984722084
  0
ARC
  5
260
100
AcDbEntity
  8
0
100
AcDbCircle
 62
2
  6
CONTINUOUS
 10
13.5201739219
 20
2.5145168728
 40
0.0151491919
100
AcDbArc
 50
24.098260853
 51
63.0369451818
  0
ARC
  5
261
100
AcDbEntity
  8
0
100
AcDbCircle
 62
2
  6
CONTINUOUS
 10
13.5161192671
 20
2.5062372524
 40
0.0243676582
100
AcDbArc
 50
63.3666028271
 51
90.3937697637
  0
LINE
  5
262
100
AcDbEntity
  8
0
100
AcDbLine
 62
2
  6
CONTINUOUS
 10
13.5159517998
 20
2.5306043351
 11
13.4883447845
 21
2.5306043351
  0
ARC
  5
263
100
AcDbEntity
  8
0
100
AcDbCircle
 62
2
  6
CONTINUOUS
 10
13.4883447827
 20
2.5281293355
 40
0.0024749995
100
AcDbArc
 50
89.9999571957
 51
180.0000428043
  0
LINE
  5
264
100
AcDbEntity
  8
0
100
AcDbLine
 62
2
  6
CONTINUOUS
 10
13.4858697831
 20
2.5281293337
 11
13.4858697831
 21
2.5184303283
  0
ARC
  5
265
100
AcDbEntity
  8
0
100
AcDbCircle
 62
2
  6
CONTINUOUS
 10
13.4883447827
 20
2.5184303265
 40
0.0024749995
100
AcDbArc
 50
179.9999571957
 51
270.0000428043
  0
LINE
  5
266
100
AcDbEntity
  8
0
100
AcDbLine
 62
2
  6
CONTINUOUS
 10
13.4883447845
 20
2.5159553269
 11
13.5130037982
 21
2.5159553269
  0
ARC
  5
267
100
AcDbEntity
  8
0
100
AcDbCircle
 62
2
  6
CONTINUOUS
 10
13.5130038
 20
2.5134803274
 40
0.0024749995
100
AcDbArc
 50
359.9999571957
 51
90.0000428043
  0
LINE
  5
268
100
AcDbEntity
  8
0
100
AcDbLine
 62
2
  6
CONTINUOUS
 10
13.5154787995
 20
2.5134803256
 11
13.5154787995
 21
2.4937023146
  0
ARC
  5
269
100
AcDbEntity
  8
0
100
AcDbCircle
 62
2
  6
CONTINUOUS
 10
13.5130038
 20
2.4937023128
 40
0.0024749995
100
AcDbArc
 50
269.9999571957
 51
0.0000428043
  0
LINE
  5
26A
100
AcDbEntity
  8
0
100
AcDbLine
 62
2
  6
CONTINUOUS
 10
13.5130037982
 20
2.4912273132
 11
13.3994327352
 21
2.4912273132
  0
ARC
  5
26B
100
AcDbEntity
  8
0
100
AcDbCircle
 62
2
  6
CONTINUOUS
 10
13.3994327333
 20
2.4937023128
 40
0.0024749995
100
AcDbArc
 50
179.9999571957
 51
270.0000428043
  0
LINE
  5
26C
100
AcDbEntity
  8
0
100
AcDbLine
 62
2
  6
CONTINUOUS
 10
13.3969577338
 20
2.4937023146
 11
13.3969577338
 21
2.5135023256
  0
ARC
  5
26D
100
AcDbEntity
  8
0
100
AcDbCircle
 62
2
  6
CONTINUOUS
 10
13.3994327333
 20
2.5135023274
 40
0.0024749995
100
AcDbArc
 50
89.9999571957
 51
180.0000428043
  0
LINE
  5
26E
100
AcDbEntity
  8
0
100
AcDbLine
 62
2
  6
CONTINUOUS
 10
13.3994327352
 20
2.515977327
 11
13.4221787478
 21
2.515977327
  0
ARC
  5
26F
100
AcDbEntity
  8
0
100
AcDbCircle
 62
2
  6
CONTINUOUS
 10
13.4221787497
 20
2.5184523265
 40
0.0024749995
100
AcDbArc
 50
269.9999571957
 51
0.0000428042
  0
LINE
  5
270
100
AcDbEntity
  8
0
100
AcDbLine
 62
2
  6
CONTINUOUS
 10
13.4246537492
 20
2.5184523283
 11
13.4246537492
 21
2.564807354
  0
ARC
  5
271
100
AcDbEntity
  8
0
100
AcDbCircle
 62
2
  6
CONTINUOUS
 10
13.4221787497
 20
2.5648073559
 40
0.0024749995
100
AcDbArc
 50
359.9999571957
 51
90.0000428043
  0
LINE
  5
272
100
AcDbEntity
  8
0
100
AcDbLine
 62
2
  6
CONTINUOUS
 10
13.4221787478
 20
2.5672823554
 11
13.3994327352
 21
2.5672823554
  0
ARC
  5
273
100
AcDbEntity
  8
0
100
AcDbCircle
 62
2
  6
CONTINUOUS
 10
13.3994327333
 20
2.5697573549
 40
0.0024749995
100
AcDbArc
 50
179.9999571957
 51
270.0000428043
  0
LINE
  5
274
100
AcDbEntity
  8
0
100
AcDbLine
 62
2
  6
CONTINUOUS
 10
13.3969577338
 20
2.5697573568
 11
13.3969577338
 21
2.5895573678
  0
ARC
  5
275
100
AcDbEntity
  8
0
100
AcDbCircle
 62
2
  6
CONTINUOUS
 10
13.3994327333
 20
2.5895573696
 40
0.0024749995
100
AcDbArc
 50
89.9999571957
 51
180.0000428043
  0
LINE
  5
276
100
AcDbEntity
  8
0
100
AcDbLine
 62
2
  6
CONTINUOUS
 10
13.3994327352
 20
2.5920323691
 11
13.5490138181
 21
2.5920323691
  0
ARC
  5
277
100
AcDbEntity
  8
0
100
AcDbCircle
 62
2
  6
CONTINUOUS
 10
13.5463505148
 20
2.4094934586
 40
0.1825583387
100
AcDbArc
 50
79.8618509324
 51
89.1640948679
  0
ARC
  5
278
100
AcDbEntity
  8
0
100
AcDbCircle
 62
2
  6
CONTINUOUS
 10
13.5726548052
 20
2.5503169747
 40
0.039319019
100
AcDbArc
 50
59.1202086415
 51
81.4730239328
  0
ARC
  5
279
100
AcDbEntity
  8
0
100
AcDbCircle
 62
2
  6
CONTINUOUS
 10
13.5783142014
 20
2.5566516438
 40
0.0310192946
100
AcDbArc
 50
34.7540871
 51
62.0879016178
  0
ARC
  5
27A
100
AcDbEntity
  8
0
100
AcDbCircle
 62
2
  6
CONTINUOUS
 10
13.5900029525
 20
2.565201245
 40
0.0165459396
100
AcDbArc
 50
1.548452892
 51
33.5033152417
  0
ARC
  5
27B
100
AcDbEntity
  8
0
100
AcDbCircle
 62
2
  6
CONTINUOUS
 10
13.5932995477
 20
2.5653696972
 40
0.0132462337
100
AcDbArc
 50
331.1510006998
 51
1.205404301
  0
ARC
  5
27C
100
AcDbEntity
  8
0
100
AcDbCircle
 62
2
  6
CONTINUOUS
 10
13.5822888914
 20
2.5720482849
 40
0.0261183659
100
AcDbArc
 50
305.6373831893
 51
329.9727629745
  0
ARC
  5
27D
100
AcDbEntity
  8
0
100
AcDbCircle
 62
2
  6
CONTINUOUS
 10
13.5519569538
 20
2.6152551345
 40
0.0789082104
100
AcDbArc
 50
292.906155071
 51
305.2574666259
  0
ARC
  5
27E
100
AcDbEntity
  8
0
100
AcDbCircle
 62
2
  6
CONTINUOUS
 10
13.5282557878
 20
2.4386010294
 40
0.117346916
100
AcDbArc
 50
58.614769177
 51
62.3737227606
  0
ARC
  5
27F
100
AcDbEntity
  8
0
100
AcDbCircle
 62
2
  6
CONTINUOUS
 10
13.5761387404
 20
2.5167282896
 40
0.0257145923
100
AcDbArc
 50
39.3804255939
 51
59.0361096173
  0
ARC
  5
280
100
AcDbEntity
  8
0
100
AcDbCircle
 62
2
  6
CONTINUOUS
 10
13.5750183849
 20
2.5166552064
 40
0.0266349791
100
AcDbArc
 50
20.3630922153
 51
37.9727053099
  0
ARC
  5
281
100
AcDbEntity
  8
0
100
AcDbCircle
 62
2
  6
CONTINUOUS
 10
13.5571178432
 20
2.509473798
 40
0.0459185159
100
AcDbArc
 50
15.6740290068
 51
20.9917271228
  0
ARC
  5
282
100
AcDbEntity
  8
0
100
AcDbCircle
 62
2
  6
CONTINUOUS
 10
13.6156881783
 20
2.525116781
 40
0.0147197649
100
AcDbArc
 50
192.7054516565
 51
206.0594861022
  0
ARC
  5
283
100
AcDbEntity
  8
0
100
AcDbCircle
 62
2
  6
CONTINUOUS
 10
13.6071938412
 20
2.5209082945
 40
0.0052403997
100
AcDbArc
 50
205.5232099488
 51
227.5054868079
  0
ARC
  5
284
100
AcDbEntity
  8
0
100
AcDbCircle
 62
2
  6
CONTINUOUS
 10
13.6054655419
 20
2.5190929218
 40
0.0027347709
100
AcDbArc
 50
228.5117626737
 51
266.1485845754
  0
LINE
  5
285
100
AcDbEntity
  8
0
100
AcDbLine
 62
2
  6
CONTINUOUS
 10
13.6052818493
 20
2.5163643272
 11
13.60639085
 21
2.5163643272
  0
ARC
  5
286
100
AcDbEntity
  8
0
100
AcDbCircle
 62
2
  6
CONTINUOUS
 10
13.6063292954
 20
2.5296129864
 40
0.0132488022
100
AcDbArc
 50
270.266200055
 51
281.2404888597
  0
ARC
  5
287
100
AcDbEntity
  8
0
100
AcDbCircle
 62
2
  6
CONTINUOUS
 10
13.6075235364
 20
2.5238762928
 40
0.0073895522
100
AcDbArc
 50
280.8288201977
 51
305.0837508495
  0
ARC
  5
288
100
AcDbEntity
  8
0
100
AcDbCircle
 62
2
  6
CONTINUOUS
 10
13.607924718
 20
2.5230254464
 40
0.0064647042
100
AcDbArc
 50
306.5086174083
 51
340.2162360092
  0
ARC
  5
289
100
AcDbEntity
  8
0
100
AcDbCircle
 62
2
  6
CONTINUOUS
 10
13.6027235414
 20
2.524769508
 40
0.0119498009
100
AcDbArc
 50
340.7883861657
 51
1.1691452593
  0
LINE
  5
28A
100
AcDbEntity
  8
0
100
AcDbLine
 62
2
  6
CONTINUOUS
 10
13.6146708546
 20
2.525013332
 11
13.6146708546
 21
2.5276393334
  0
ARC
  5
28B
100
AcDbEntity
  8
0
100
AcDbCircle
 62
2
  6
CONTINUOUS
 10
13.6171458541
 20
2.5276393353
 40
0.0024749995
100
AcDbArc
 50
89.9999571957
 51
180.0000428043
  0
LINE
  5
28C
100
AcDbEntity
  8
0
100
AcDbLine
 62
2
  6
CONTINUOUS
 10
13.6171458559
 20
2.5301143348
 11
13.6292558626
 21
2.5301143348
  0
ARC
  5
28D
100
AcDbEntity
  8
0
100
AcDbCircle
 62
2
  6
CONTINUOUS
 10
13.6292558645
 20
2.5276393353
 40
0.0024749995
100
AcDbArc
 50
359.9999571957
 51
90.0000428043
  0
LINE
  5
28E
100
AcDbEntity
  8
0
100
AcDbLine
 62
2
  6
CONTINUOUS
 10
13.631730864
 20
2.5276393334
 11
13.631730864
 21
2.516087327
  0
ARC
  5
28F
100
AcDbEntity
  8
0
100
AcDbCircle
 62
2
  6
CONTINUOUS
 10
13.6141751675
 20
2.5161916447
 40
0.0175560065
100
AcDbArc
 50
332.2279060967
 51
359.6595469939
  0
ARC
  5
290
100
AcDbEntity
  8
0
100
AcDbCircle
 62
2
  6
CONTINUOUS
 10
13.6048681567
 20
2.5210861501
 40
0.0280715479
100
AcDbArc
 50
308.5071794988
 51
332.2400656899
  0
ARC
  5
291
100
AcDbEntity
  8
0
100
AcDbCircle
 62
2
  6
CONTINUOUS
 10
13.5978759713
 20
2.5286873679
 40
0.0383802683
100
AcDbArc
 50
288.7656836787
 51
309.6104317088
  0
ARC
  5
292
100
AcDbEntity
  8
0
100
AcDbCircle
 62
2
  6
CONTINUOUS
 10
13.6036139387
 20
2.5111006186
 40
0.0198837666
100
AcDbArc
 50
271.8586572978
 51
289.4131338543
  0
LINE
  5
293
100
AcDbEntity
  8
0
100
AcDbLine
 62
2
  6
CONTINUOUS
 10
13.6042588488
 20
2.4912273132
 11
13.5568948225
 21
2.4912273132
  0
ARC
  5
294
100
AcDbEntity
  8
0
100
AcDbCircle
 62
2
  6
CONTINUOUS
 10
13.5577001432
 20
2.5085494649
 40
0.0173408616
100
AcDbArc
 50
232.4713476722
 51
267.338189944
  0
ARC
  5
295
100
AcDbEntity
  8
0
100
AcDbCircle
 62
2
  6
CONTINUOUS
 10
13.5607987082
 20
2.5143997688
 40
0.0238935861
100
AcDbArc
 50
209.8247607259
 51
235.1255079367
  0
ARC
  5
296
100
AcDbEntity
  8
0
100
AcDbCircle
 62
2
  6
CONTINUOUS
 10
13.5295131508
 20
2.5629115009
 40
0.0110815393
100
AcDbArc
 50
306.758405961
 51
320.4502234234
  0
ARC
  5
297
100
AcDbEntity
  8
0
100
AcDbCircle
 62
2
  6
CONTINUOUS
 10
13.5238839599
 20
2.5706523294
 40
0.0206523367
100
AcDbArc
 50
289.6883413472
 51
306.4184925496
  0
ARC
  5
298
100
AcDbEntity
  8
0
100
AcDbCircle
 62
2
  6
CONTINUOUS
 10
13.5219564542
 20
2.5750459767
 40
0.0254407115
100
AcDbArc
 50
270.7327484175
 51
290.441894219
  0
LINE
  5
299
100
AcDbEntity
  8
0
100
AcDbLine
 62
2
  6
CONTINUOUS
 10
13.5222818033
 20
2.5496073456
 11
13.4883447845
 21
2.5496073456
  0
ARC
  5
29A
100
AcDbEntity
  8
0
100
AcDbCircle
 62
2
  6
CONTINUOUS
 10
13.4883447827
 20
2.5520823451
 40
0.0024749995
100
AcDbArc
 50
179.9999571957
 51
270.0000428043
  0
LINE
  5
29B
100
AcDbEntity
  8
0
100
AcDbLine
 62
2
  6
CONTINUOUS
 10
13.4858697831
 20
2.552082347
 11
13.4858697831
 21
2.564807354
  0
ARC
  5
29C
100
AcDbEntity
  8
0
100
AcDbCircle
 62
2
  6
CONTINUOUS
 10
13.4883447827
 20
2.5648073559
 40
0.0024749995
100
AcDbArc
 50
89.9999571957
 51
180.0000428043
  0
LINE
  5
29D
100
AcDbEntity
  8
0
100
AcDbLine
 62
2
  6
CONTINUOUS
 10
13.4883447845
 20
2.5672823554
 11
13.5251458049
 21
2.5672823554
  0
ARC
  5
29E
100
AcDbEntity
  8
0
100
AcDbCircle
 62
2
  6
CONTINUOUS
 10
13.5236009174
 20
2.5388278764
 40
0.0284963867
100
AcDbArc
 50
70.3834917948
 51
86.8922743861
  0
ARC
  5
29F
100
AcDbEntity
  8
0
100
AcDbCircle
 62
2
  6
CONTINUOUS
 10
13.5284605274
 20
2.5518696094
 40
0.0145814632
100
AcDbArc
 50
54.6746025112
 51
71.1660573124
  0
ARC
  5
2A0
100
AcDbEntity
  8
0
100
AcDbCircle
 62
2
  6
CONTINUOUS
 10
13.5335900184
 20
2.5587235346
 40
0.0060275915
100
AcDbArc
 50
20.9055592135
 51
56.7851676243
  0
ARC
  5
2A1
100
AcDbEntity
  8
0
100
AcDbCircle
 62
2
  6
CONTINUOUS
 10
13.5348905773
 20
2.5593838168
 40
0.0045795888
100
AcDbArc
 50
355.6235353944
 51
18.9942678268
  0
ARC
  5
2A2
100
AcDbEntity
  8
0
100
AcDbCircle
 62
2
  6
CONTINUOUS
 10
13.533683767
 20
2.559677593
 40
0.0058087709
100
AcDbArc
 50
318.8515287446
 51
353.6422345323
  0
LINE
  5
2A3
100
AcDbEntity
  8
0
100
AcDbLine
 62
2
  6
CONTINUOUS
 10
12.672340332
 20
2.5920323691
 11
12.7727983877
 21
2.5920323691
  0
ARC
  5
2A4
100
AcDbEntity
  8
0
100
AcDbCircle
 62
2
  6
CONTINUOUS
 10
12.7727985224
 20
2.5895582013
 40
0.0024741678
100
AcDbArc
 50
46.3477981899
 51
90.0031206038
  0
LINE
  5
2A5
100
AcDbEntity
  8
0
100
AcDbLine
 62
2
  6
CONTINUOUS
 10
12.7745063886
 20
2.5913483688
 11
12.8345394219
 21
2.534068337
  0
ARC
  5
2A6
100
AcDbEntity
  8
0
100
AcDbCircle
 62
2
  6
CONTINUOUS
 10
12.8362481229
 20
2.5358592748
 40
0.0024753014
100
AcDbArc
 50
226.3461263059
 51
0.0014637321
  0
LINE
  5
2A7
100
AcDbEntity
  8
0
100
AcDbLine
 62
2
  6
CONTINUOUS
 10
12.8387234242
 20
2.535859338
 11
12.8387234242
 21
2.564807354
  0
ARC
  5
2A8
100
AcDbEntity
  8
0
100
AcDbCircle
 62
2
  6
CONTINUOUS
 10
12.8362484247
 20
2.5648073559
 40
0.0024749995
100
AcDbArc
 50
359.9999571957
 51
90.0000428043
  0
LINE
  5
2A9
100
AcDbEntity
  8
0
100
AcDbLine
 62
2
  6
CONTINUOUS
 10
12.8362484229
 20
2.5672823554
 11
12.8174724125
 21
2.5672823554
  0
ARC
  5
2AA
100
AcDbEntity
  8
0
100
AcDbCircle
 62
2
  6
CONTINUOUS
 10
12.8174724106
 20
2.5697573549
 40
0.0024749995
100
AcDbArc
 50
179.9999571957
 51
270.0000428043
  0
LINE
  5
2AB
100
AcDbEntity
  8
0
100
AcDbLine
 62
2
  6
CONTINUOUS
 10
12.8149974111
 20
2.5697573568
 11
12.8149974111
 21
2.5895573678
  0
ARC
  5
2AC
100
AcDbEntity
  8
0
100
AcDbCircle
 62
2
  6
CONTINUOUS
 10
12.8174724106
 20
2.5895573696
 40
0.0024749995
100
AcDbArc
 50
89.9999571957
 51
180.0000428043
  0
LINE
  5
2AD
100
AcDbEntity
  8
0
100
AcDbLine
 62
2
  6
CONTINUOUS
 10
12.8174724125
 20
2.5920323691
 11
12.8914734535
 21
2.5920323691
  0
ARC
  5
2AE
100
AcDbEntity
  8
0
100
AcDbCircle
 62
2
  6
CONTINUOUS
 10
12.8914734553
 20
2.5895573696
 40
0.0024749995
100
AcDbArc
 50
359.9999571957
 51
90.0000428043
  0
LINE
  5
2AF
100
AcDbEntity
  8
0
100
AcDbLine
 62
2
  6
CONTINUOUS
 10
12.8939484549
 20
2.5895573678
 11
12.8939484549
 21
2.5697573568
  0
ARC
  5
2B0
100
AcDbEntity
  8
0
100
AcDbCircle
 62
2
  6
CONTINUOUS
 10
12.8914734553
 20
2.5697573549
 40
0.0024749995
100
AcDbArc
 50
269.9999571957
 51
0.0000428043
  0
LINE
  5
2B1
100
AcDbEntity
  8
0
100
AcDbLine
 62
2
  6
CONTINUOUS
 10
12.8914734535
 20
2.5672823554
 11
12.8735404436
 21
2.5672823554
  0
ARC
  5
2B2
100
AcDbEntity
  8
0
100
AcDbCircle
 62
2
  6
CONTINUOUS
 10
12.8735404417
 20
2.5648073559
 40
0.0024749995
100
AcDbArc
 50
89.9999571957
 51
180.0000428043
  0
LINE
  5
2B3
100
AcDbEntity
  8
0
100
AcDbLine
 62
2
  6
CONTINUOUS
 10
12.8710654422
 20
2.564807354
 11
12.8710654422
 21
2.4937023146
  0
ARC
  5
2B4
100
AcDbEntity
  8
0
100
AcDbCircle
 62
2
  6
CONTINUOUS
 10
12.8685904427
 20
2.4937023128
 40
0.0024749995
100
AcDbArc
 50
269.9999571957
 51
0.0000428043
  0
LINE
  5
2B5
100
AcDbEntity
  8
0
100
AcDbLine
 62
2
  6
CONTINUOUS
 10
12.8685904408
 20
2.4912273132
 11
12.7943853997
 21
2.4912273132
  0
ARC
  5
2B6
100
AcDbEntity
  8
0
100
AcDbCircle
 62
2
  6
CONTINUOUS
 10
12.7943847649
 20
2.4937027294
 40
0.0024754162
100
AcDbArc
 50
226.3593695813
 51
270.0146919953
  0
LINE
  5
2B7
100
AcDbEntity
  8
0
100
AcDbLine
 62
2
  6
CONTINUOUS
 10
12.7926763987
 20
2.4919113136
 11
12.7293963636
 21
2.5522893471
  0
ARC
  5
2B8
100
AcDbEntity
  8
0
100
AcDbCircle
 62
2
  6
CONTINUOUS
 10
12.7276876627
 20
2.5504984093
 40
0.0024753014
100
AcDbArc
 50
46.3461263059
 51
180.0014637321
  0
LINE
  5
2B9
100
AcDbEntity
  8
0
100
AcDbLine
 62
2
  6
CONTINUOUS
 10
12.7252123613
 20
2.5504983461
 11
12.7252123613
 21
2.5184523283
  0
ARC
  5
2BA
100
AcDbEntity
  8
0
100
AcDbCircle
 62
2
  6
CONTINUOUS
 10
12.7276873608
 20
2.5184523265
 40
0.0024749995
100
AcDbArc
 50
179.9999571957
 51
270.0000428043
  0
LINE
  5
2BB
100
AcDbEntity
  8
0
100
AcDbLine
 62
2
  6
CONTINUOUS
 10
12.7276873627
 20
2.515977327
 11
12.7480043739
 21
2.515977327
  0
ARC
  5
2BC
100
AcDbEntity
  8
0
100
AcDbCircle
 62
2
  6
CONTINUOUS
 10
12.7480043758
 20
2.5135023274
 40
0.0024749995
100
AcDbArc
 50
359.9999571957
 51
90.0000428043
  0
LINE
  5
2BD
100
AcDbEntity
  8
0
100
AcDbLine
 62
2
  6
CONTINUOUS
 10
12.7504793753
 20
2.5135023256
 11
12.7504793753
 21
2.4937023146
  0
ARC
  5
2BE
100
AcDbEntity
  8
0
100
AcDbCircle
 62
2
  6
CONTINUOUS
 10
12.7480043758
 20
2.4937023128
 40
0.0024749995
100
AcDbArc
 50
269.9999571957
 51
0.0000428043
  0
LINE
  5
2BF
100
AcDbEntity
  8
0
100
AcDbLine
 62
2
  6
CONTINUOUS
 10
12.7480043739
 20
2.4912273132
 11
12.672340332
 21
2.4912273132
  0
ARC
  5
2C0
100
AcDbEntity
  8
0
100
AcDbCircle
 62
2
  6
CONTINUOUS
 10
12.6723403301
 20
2.4937023128
 40
0.0024749995
100
AcDbArc
 50
179.9999571957
 51
270.0000428043
  0
LINE
  5
2C1
100
AcDbEntity
  8
0
100
AcDbLine
 62
2
  6
CONTINUOUS
 10
12.6698653306
 20
2.4937023146
 11
12.6698653306
 21
2.5135023256
  0
ARC
  5
2C2
100
AcDbEntity
  8
0
100
AcDbCircle
 62
2
  6
CONTINUOUS
 10
12.6723403301
 20
2.5135023274
 40
0.0024749995
100
AcDbArc
 50
89.9999571957
 51
180.0000428043
  0
LINE
  5
2C3
100
AcDbEntity
  8
0
100
AcDbLine
 62
2
  6
CONTINUOUS
 10
12.672340332
 20
2.515977327
 11
12.6909873423
 21
2.515977327
  0
ARC
  5
2C4
100
AcDbEntity
  8
0
100
AcDbCircle
 62
2
  6
CONTINUOUS
 10
12.6909873442
 20
2.5184523265
 40
0.0024749995
100
AcDbArc
 50
269.9999571957
 51
0.0000428043
  0
LINE
  5
2C5
100
AcDbEntity
  8
0
100
AcDbLine
 62
2
  6
CONTINUOUS
 10
12.6934623437
 20
2.5184523283
 11
12.6934623437
 21
2.564807354
  0
ARC
  5
2C6
100
AcDbEntity
  8
0
100
AcDbCircle
 62
2
  6
CONTINUOUS
 10
12.6909873442
 20
2.5648073559
 40
0.0024749995
100
AcDbArc
 50
359.9999571957
 51
90.0000428043
  0
LINE
  5
2C7
100
AcDbEntity
  8
0
100
AcDbLine
 62
2
  6
CONTINUOUS
 10
12.6909873423
 20
2.5672823554
 11
12.672340332
 21
2.5672823554
  0
ARC
  5
2C8
100
AcDbEntity
  8
0
100
AcDbCircle
 62
2
  6
CONTINUOUS
 10
12.6723403301
 20
2.5697573549
 40
0.0024749995
100
AcDbArc
 50
179.9999571957
 51
270.0000428043
  0
LINE
  5
2C9
100
AcDbEntity
  8
0
100
AcDbLine
 62
2
  6
CONTINUOUS
 10
12.6698653306
 20
2.5697573568
 11
12.6698653306
 21
2.5895573678
  0
ARC
  5
2CA
100
AcDbEntity
  8
0
100
AcDbCircle
 62
2
  6
CONTINUOUS
 10
12.6723403301
 20
2.5895573696
 40
0.0024749995
100
AcDbArc
 50
89.9999571957
 51
180.0000428043
  0
LINE
  5
2CB
100
AcDbEntity
  8
0
100
AcDbLine
 62
2
  6
CONTINUOUS
 10
12.5246402501
 20
2.5655893545
 11
12.5175232461
 21
2.5543723483
  0
ARC
  5
2CC
100
AcDbEntity
  8
0
100
AcDbCircle
 62
2
  6
CONTINUOUS
 10
12.519613138
 20
2.5530463862
 40
0.0024750401
100
AcDbArc
 50
147.6063258012
 51
270.0025305754
  0
LINE
  5
2CD
100
AcDbEntity
  8
0
100
AcDbLine
 62
2
  6
CONTINUOUS
 10
12.5196132473
 20
2.5505713461
 11
12.5401702587
 21
2.5505713461
  0
ARC
  5
2CE
100
AcDbEntity
  8
0
100
AcDbCircle
 62
2
  6
CONTINUOUS
 10
12.5401702375
 20
2.5530465533
 40
0.0024752071
100
AcDbArc
 50
270.0004896793
 51
32.9089806818
  0
LINE
  5
2CF
100
AcDbEntity
  8
0
100
AcDbLine
 62
2
  6
CONTINUOUS
 10
12.5422482598
 20
2.5543913483
 11
12.5349892558
 21
2.5656073545
  0
ARC
  5
2D0
100
AcDbEntity
  8
0
100
AcDbCircle
 62
2
  6
CONTINUOUS
 10
12.532910715
 20
2.564262895
 40
0.0024754602
100
AcDbArc
 50
32.8959418573
 51
89.9875097202
  0
LINE
  5
2D1
100
AcDbEntity
  8
0
100
AcDbLine
 62
2
  6
CONTINUOUS
 10
12.5329112547
 20
2.5667383551
 11
12.5267302512
 21
2.5667383551
  0
ARC
  5
2D2
100
AcDbEntity
  8
0
100
AcDbCircle
 62
2
  6
CONTINUOUS
 10
12.5267301809
 20
2.5642631548
 40
0.0024752003
100
AcDbArc
 50
89.998372645
 51
147.602165307
  0
LINE
  5
2D3
100
AcDbEntity
  8
0
100
AcDbLine
 62
2
  6
CONTINUOUS
 10
12.548053263
 20
2.5284903339
 11
12.5536792662
 21
2.5197973291
  0
ARC
  5
2D4
100
AcDbEntity
  8
0
100
AcDbCircle
 62
2
  6
CONTINUOUS
 10
12.5516012439
 20
2.5184525341
 40
0.0024752071
100
AcDbArc
 50
270.0004896794
 51
32.9089806818
  0
LINE
  5
2D5
100
AcDbEntity
  8
0
100
AcDbLine
 62
2
  6
CONTINUOUS
 10
12.551601265
 20
2.515977327
 11
12.537150257
 21
2.515977327
  0
ARC
  5
2D6
100
AcDbEntity
  8
0
100
AcDbCircle
 62
2
  6
CONTINUOUS
 10
12.5371502552
 20
2.5135023274
 40
0.0024749995
100
AcDbArc
 50
89.9999571957
 51
180.0000428043
  0
LINE
  5
2D7
100
AcDbEntity
  8
0
100
AcDbLine
 62
2
  6
CONTINUOUS
 10
12.5346752556
 20
2.5135023256
 11
12.5346752556
 21
2.4937023146
  0
ARC
  5
2D8
100
AcDbEntity
  8
0
100
AcDbCircle
 62
2
  6
CONTINUOUS
 10
12.5371502552
 20
2.4937023128
 40
0.0024749995
100
AcDbArc
 50
179.9999571957
 51
270.0000428043
  0
LINE
  5
2D9
100
AcDbEntity
  8
0
100
AcDbLine
 62
2
  6
CONTINUOUS
 10
12.537150257
 20
2.4912273132
 11
12.6424313154
 21
2.4912273132
  0
ARC
  5
2DA
100
AcDbEntity
  8
0
100
AcDbCircle
 62
2
  6
CONTINUOUS
 10
12.6424313172
 20
2.4937023128
 40
0.0024749995
100
AcDbArc
 50
269.9999571957
 51
0.0000428043
  0
LINE
  5
2DB
100
AcDbEntity
  8
0
100
AcDbLine
 62
2
  6
CONTINUOUS
 10
12.6449063168
 20
2.4937023146
 11
12.6449063168
 21
2.5135023256
  0
ARC
  5
2DC
100
AcDbEntity
  8
0
100
AcDbCircle
 62
2
  6
CONTINUOUS
 10
12.6424313172
 20
2.5135023274
 40
0.0024749995
100
AcDbArc
 50
359.9999571957
 51
90.0000428043
  0
LINE
  5
2DD
100
AcDbEntity
  8
0
100
AcDbLine
 62
2
  6
CONTINUOUS
 10
12.6424313154
 20
2.515977327
 11
12.6224153043
 21
2.515977327
  0
ARC
  5
2DE
100
AcDbEntity
  8
0
100
AcDbCircle
 62
2
  6
CONTINUOUS
 10
12.6224154248
 20
2.518451368
 40
0.002474041
100
AcDbArc
 50
212.9056413127
 51
269.9972091756
  0
LINE
  5
2DF
100
AcDbEntity
  8
0
100
AcDbLine
 62
2
  6
CONTINUOUS
 10
12.6203383031
 20
2.5171073276
 11
12.5725822767
 21
2.5909023685
  0
ARC
  5
2E0
100
AcDbEntity
  8
0
100
AcDbCircle
 62
2
  6
CONTINUOUS
 10
12.570504655
 20
2.589557409
 40
0.0024749602
100
AcDbArc
 50
32.9172174468
 51
90.0087853097
  0
LINE
  5
2E1
100
AcDbEntity
  8
0
100
AcDbLine
 62
2
  6
CONTINUOUS
 10
12.5705042755
 20
2.5920323691
 11
12.5133292438
 21
2.5920323691
  0
ARC
  5
2E2
100
AcDbEntity
  8
0
100
AcDbCircle
 62
2
  6
CONTINUOUS
 10
12.5133291735
 20
2.5895571688
 40
0.0024752003
100
AcDbArc
 50
89.9983726451
 51
147.602165307
  0
LINE
  5
2E3
100
AcDbEntity
  8
0
100
AcDbLine
 62
2
  6
CONTINUOUS
 10
12.5112392426
 20
2.5908833685
 11
12.4644392167
 21
2.5171263276
  0
ARC
  5
2E4
100
AcDbEntity
  8
0
100
AcDbCircle
 62
2
  6
CONTINUOUS
 10
12.4623492858
 20
2.5184525273
 40
0.0024752003
100
AcDbArc
 50
269.9983726451
 51
327.602165307
  0
LINE
  5
2E5
100
AcDbEntity
  8
0
100
AcDbLine
 62
2
  6
CONTINUOUS
 10
12.4623492155
 20
2.515977327
 11
12.4394882028
 21
2.515977327
  0
ARC
  5
2E6
100
AcDbEntity
  8
0
100
AcDbCircle
 62
2
  6
CONTINUOUS
 10
12.439488201
 20
2.5135023274
 40
0.0024749995
100
AcDbArc
 50
89.9999571957
 51
180.0000428043
  0
LINE
  5
2E7
100
AcDbEntity
  8
0
100
AcDbLine
 62
2
  6
CONTINUOUS
 10
12.4370132015
 20
2.5135023256
 11
12.4370132015
 21
2.4937023146
  0
ARC
  5
2E8
100
AcDbEntity
  8
0
100
AcDbCircle
 62
2
  6
CONTINUOUS
 10
12.439488201
 20
2.4937023128
 40
0.0024749995
100
AcDbArc
 50
179.9999571957
 51
270.0000428043
  0
LINE
  5
2E9
100
AcDbEntity
  8
0
100
AcDbLine
 62
2
  6
CONTINUOUS
 10
12.4394882028
 20
2.4912273132
 11
12.5168642458
 21
2.4912273132
  0
ARC
  5
2EA
100
AcDbEntity
  8
0
100
AcDbCircle
 62
2
  6
CONTINUOUS
 10
12.5168642476
 20
2.4937023128
 40
0.0024749995
100
AcDbArc
 50
269.9999571957
 51
0.0000428043
  0
LINE
  5
2EB
100
AcDbEntity
  8
0
100
AcDbLine
 62
2
  6
CONTINUOUS
 10
12.5193392471
 20
2.4937023146
 11
12.5193392471
 21
2.5135023256
  0
ARC
  5
2EC
100
AcDbEntity
  8
0
100
AcDbCircle
 62
2
  6
CONTINUOUS
 10
12.5168642476
 20
2.5135023274
 40
0.0024749995
100
AcDbArc
 50
359.9999571957
 51
90.0000428043
  0
LINE
  5
2ED
100
AcDbEntity
  8
0
100
AcDbLine
 62
2
  6
CONTINUOUS
 10
12.5168642458
 20
2.515977327
 11
12.5055812395
 21
2.515977327
  0
ARC
  5
2EE
100
AcDbEntity
  8
0
100
AcDbCircle
 62
2
  6
CONTINUOUS
 10
12.5055811302
 20
2.518452367
 40
0.0024750401
100
AcDbArc
 50
147.6063258011
 51
270.0025305754
  0
LINE
  5
2EF
100
AcDbEntity
  8
0
100
AcDbLine
 62
2
  6
CONTINUOUS
 10
12.5034912383
 20
2.5197783291
 11
12.5090072414
 21
2.5284723339
  0
ARC
  5
2F0
100
AcDbEntity
  8
0
100
AcDbCircle
 62
2
  6
CONTINUOUS
 10
12.5110971723
 20
2.5271461342
 40
0.0024752003
100
AcDbArc
 50
89.998372645
 51
147.602165307
  0
LINE
  5
2F1
100
AcDbEntity
  8
0
100
AcDbLine
 62
2
  6
CONTINUOUS
 10
12.5110972426
 20
2.5296213345
 11
12.5459752619
 21
2.5296213345
  0
ARC
  5
2F2
100
AcDbEntity
  8
0
100
AcDbCircle
 62
2
  6
CONTINUOUS
 10
12.5459747223
 20
2.5271458744
 40
0.0024754602
100
AcDbArc
 50
32.8959418573
 51
89.9875097202
  0
LINE
  5
2F3
100
AcDbEntity
  8
0
100
AcDbLine
 62
2
  6
CONTINUOUS
 10
12.9205934696
 20
2.5920323691
 11
13.0210515254
 21
2.5920323691
  0
ARC
  5
2F4
100
AcDbEntity
  8
0
100
AcDbCircle
 62
2
  6
CONTINUOUS
 10
13.0210516601
 20
2.5895582013
 40
0.0024741678
100
AcDbArc
 50
46.3477981899
 51
90.0031206038
  0
LINE
  5
2F5
100
AcDbEntity
  8
0
100
AcDbLine
 62
2
  6
CONTINUOUS
 10
13.0227595263
 20
2.5913483688
 11
13.0827925596
 21
2.534068337
  0
ARC
  5
2F6
100
AcDbEntity
  8
0
100
AcDbCircle
 62
2
  6
CONTINUOUS
 10
13.0845012605
 20
2.5358592748
 40
0.0024753014
100
AcDbArc
 50
226.3461263059
 51
0.0014637321
  0
LINE
  5
2F7
100
AcDbEntity
  8
0
100
AcDbLine
 62
2
  6
CONTINUOUS
 10
13.0869765619
 20
2.535859338
 11
13.0869765619
 21
2.564807354
  0
ARC
  5
2F8
100
AcDbEntity
  8
0
100
AcDbCircle
 62
2
  6
CONTINUOUS
 10
13.0845015624
 20
2.5648073559
 40
0.0024749995
100
AcDbArc
 50
359.9999571957
 51
90.0000428043
  0
LINE
  5
2F9
100
AcDbEntity
  8
0
100
AcDbLine
 62
2
  6
CONTINUOUS
 10
13.0845015605
 20
2.5672823554
 11
13.0657255501
 21
2.5672823554
  0
ARC
  5
2FA
100
AcDbEntity
  8
0
100
AcDbCircle
 62
2
  6
CONTINUOUS
 10
13.0657255483
 20
2.5697573549
 40
0.0024749995
100
AcDbArc
 50
179.9999571957
 51
270.0000428043
  0
LINE
  5
2FB
100
AcDbEntity
  8
0
100
AcDbLine
 62
2
  6
CONTINUOUS
 10
13.0632505488
 20
2.5697573568
 11
13.0632505488
 21
2.5895573678
  0
ARC
  5
2FC
100
AcDbEntity
  8
0
100
AcDbCircle
 62
2
  6
CONTINUOUS
 10
13.0657255483
 20
2.5895573696
 40
0.0024749995
100
AcDbArc
 50
89.9999571957
 51
180.0000428043
  0
LINE
  5
2FD
100
AcDbEntity
  8
0
100
AcDbLine
 62
2
  6
CONTINUOUS
 10
13.0657255501
 20
2.5920323691
 11
13.1397265912
 21
2.5920323691
  0
ARC
  5
2FE
100
AcDbEntity
  8
0
100
AcDbCircle
 62
2
  6
CONTINUOUS
 10
13.139726593
 20
2.5895573696
 40
0.0024749995
100
AcDbArc
 50
359.9999571957
 51
90.0000428043
  0
LINE
  5
2FF
100
AcDbEntity
  8
0
100
AcDbLine
 62
2
  6
CONTINUOUS
 10
13.1422015925
 20
2.5895573678
 11
13.1422015925
 21
2.5697573568
  0
ARC
  5
300
100
AcDbEntity
  8
0
100
AcDbCircle
 62
2
  6
CONTINUOUS
 10
13.139726593
 20
2.5697573549
 40
0.0024749995
100
AcDbArc
 50
269.9999571957
 51
0.0000428042
  0
LINE
  5
301
100
AcDbEntity
  8
0
100
AcDbLine
 62
2
  6
CONTINUOUS
 10
13.1397265912
 20
2.5672823554
 11
13.1217935812
 21
2.5672823554
  0
ARC
  5
302
100
AcDbEntity
  8
0
100
AcDbCircle
 62
2
  6
CONTINUOUS
 10
13.1217935794
 20
2.5648073559
 40
0.0024749995
100
AcDbArc
 50
89.9999571957
 51
180.0000428042
  0
LINE
  5
303
100
AcDbEntity
  8
0
100
AcDbLine
 62
2
  6
CONTINUOUS
 10
13.1193185799
 20
2.564807354
 11
13.1193185799
 21
2.4937023146
  0
ARC
  5
304
100
AcDbEntity
  8
0
100
AcDbCircle
 62
2
  6
CONTINUOUS
 10
13.1168435803
 20
2.4937023128
 40
0.0024749995
100
AcDbArc
 50
269.9999571957
 51
0.0000428043
  0
LINE
  5
305
100
AcDbEntity
  8
0
100
AcDbLine
 62
2
  6
CONTINUOUS
 10
13.1168435785
 20
2.4912273132
 11
13.0426375373
 21
2.4912273132
  0
ARC
  5
306
100
AcDbEntity
  8
0
100
AcDbCircle
 62
2
  6
CONTINUOUS
 10
13.0426374026
 20
2.493701481
 40
0.0024741678
100
AcDbArc
 50
226.3477981898
 51
270.0031206038
  0
LINE
  5
307
100
AcDbEntity
  8
0
100
AcDbLine
 62
2
  6
CONTINUOUS
 10
13.0409295364
 20
2.4919113136
 11
12.9776495013
 21
2.5522893471
  0
ARC
  5
308
100
AcDbEntity
  8
0
100
AcDbCircle
 62
2
  6
CONTINUOUS
 10
12.9759408003
 20
2.5504984093
 40
0.0024753014
100
AcDbArc
 50
46.3461263059
 51
180.0014637321
  0
LINE
  5
309
100
AcDbEntity
  8
0
100
AcDbLine
 62
2
  6
CONTINUOUS
 10
12.973465499
 20
2.5504983461
 11
12.973465499
 21
2.5184523283
  0
ARC
  5
30A
100
AcDbEntity
  8
0
100
AcDbCircle
 62
2
  6
CONTINUOUS
 10
12.9759404985
 20
2.5184523265
 40
0.0024749995
100
AcDbArc
 50
179.9999571957
 51
270.0000428043
  0
LINE
  5
30B
100
AcDbEntity
  8
0
100
AcDbLine
 62
2
  6
CONTINUOUS
 10
12.9759405003
 20
2.515977327
 11
12.9962575116
 21
2.515977327
  0
ARC
  5
30C
100
AcDbEntity
  8
0
100
AcDbCircle
 62
2
  6
CONTINUOUS
 10
12.9962575135
 20
2.5135023274
 40
0.0024749995
100
AcDbArc
 50
359.9999571957
 51
90.0000428043
  0
LINE
  5
30D
100
AcDbEntity
  8
0
100
AcDbLine
 62
2
  6
CONTINUOUS
 10
12.998732513
 20
2.5135023256
 11
12.998732513
 21
2.4937023146
  0
ARC
  5
30E
100
AcDbEntity
  8
0
100
AcDbCircle
 62
2
  6
CONTINUOUS
 10
12.9962575135
 20
2.4937023128
 40
0.0024749995
100
AcDbArc
 50
269.9999571957
 51
0.0000428043
  0
LINE
  5
30F
100
AcDbEntity
  8
0
100
AcDbLine
 62
2
  6
CONTINUOUS
 10
12.9962575116
 20
2.4912273132
 11
12.9205934696
 21
2.4912273132
  0
ARC
  5
310
100
AcDbEntity
  8
0
100
AcDbCircle
 62
2
  6
CONTINUOUS
 10
12.9205934678
 20
2.4937023128
 40
0.0024749995
100
AcDbArc
 50
179.9999571957
 51
270.0000428043
  0
LINE
  5
311
100
AcDbEntity
  8
0
100
AcDbLine
 62
2
  6
CONTINUOUS
 10
12.9181184683
 20
2.4937023146
 11
12.9181184683
 21
2.5135023256
  0
ARC
  5
312
100
AcDbEntity
  8
0
100
AcDbCircle
 62
2
  6
CONTINUOUS
 10
12.9205934678
 20
2.5135023274
 40
0.0024749995
100
AcDbArc
 50
89.9999571957
 51
180.0000428042
  0
LINE
  5
313
100
AcDbEntity
  8
0
100
AcDbLine
 62
2
  6
CONTINUOUS
 10
12.9205934696
 20
2.515977327
 11
12.93923948
 21
2.515977327
  0
ARC
  5
314
100
AcDbEntity
  8
0
100
AcDbCircle
 62
2
  6
CONTINUOUS
 10
12.9392394818
 20
2.5184523265
 40
0.0024749995
100
AcDbArc
 50
269.9999571957
 51
0.0000428043
  0
LINE
  5
315
100
AcDbEntity
  8
0
100
AcDbLine
 62
2
  6
CONTINUOUS
 10
12.9417144814
 20
2.5184523283
 11
12.9417144814
 21
2.564807354
  0
ARC
  5
316
100
AcDbEntity
  8
0
100
AcDbCircle
 62
2
  6
CONTINUOUS
 10
12.9392394818
 20
2.5648073559
 40
0.0024749995
100
AcDbArc
 50
359.9999571957
 51
90.0000428043
  0
LINE
  5
317
100
AcDbEntity
  8
0
100
AcDbLine
 62
2
  6
CONTINUOUS
 10
12.93923948
 20
2.5672823554
 11
12.9205934696
 21
2.5672823554
  0
ARC
  5
318
100
AcDbEntity
  8
0
100
AcDbCircle
 62
2
  6
CONTINUOUS
 10
12.9205934678
 20
2.5697573549
 40
0.0024749995
100
AcDbArc
 50
179.9999571957
 51
270.0000428043
  0
LINE
  5
319
100
AcDbEntity
  8
0
100
AcDbLine
 62
2
  6
CONTINUOUS
 10
12.9181184683
 20
2.5697573568
 11
12.9181184683
 21
2.5895573678
  0
ARC
  5
31A
100
AcDbEntity
  8
0
100
AcDbCircle
 62
2
  6
CONTINUOUS
 10
12.9205934678
 20
2.5895573696
 40
0.0024749995
100
AcDbArc
 50
89.9999571957
 51
180.0000428042
  0
LINE
  5
31B
100
AcDbEntity
  8
0
100
AcDbLine
 62
2
  6
CONTINUOUS
 10
13.2934226764
 20
2.5324773361
 11
13.2582556569
 21
2.5324773361
  0
ARC
  5
31C
100
AcDbEntity
  8
0
100
AcDbCircle
 62
2
  6
CONTINUOUS
 10
13.2582556551
 20
2.5300023366
 40
0.0024749995
100
AcDbArc
 50
89.9999571957
 51
180.0000428043
  0
LINE
  5
31D
100
AcDbEntity
  8
0
100
AcDbLine
 62
2
  6
CONTINUOUS
 10
13.2557806555
 20
2.5300023347
 11
13.2557806555
 21
2.5184523283
  0
ARC
  5
31E
100
AcDbEntity
  8
0
100
AcDbCircle
 62
2
  6
CONTINUOUS
 10
13.2582556551
 20
2.5184523265
 40
0.0024749995
100
AcDbArc
 50
179.9999571957
 51
270.0000428043
  0
LINE
  5
31F
100
AcDbEntity
  8
0
100
AcDbLine
 62
2
  6
CONTINUOUS
 10
13.2582556569
 20
2.515977327
 11
13.3232596929
 21
2.515977327
  0
ARC
  5
320
100
AcDbEntity
  8
0
100
AcDbCircle
 62
2
  6
CONTINUOUS
 10
13.3232596948
 20
2.5184523265
 40
0.0024749995
100
AcDbArc
 50
269.9999571957
 51
0.0000428043
  0
LINE
  5
321
100
AcDbEntity
  8
0
100
AcDbLine
 62
2
  6
CONTINUOUS
 10
13.3257346943
 20
2.5184523283
 11
13.3257346943
 21
2.5267023329
  0
ARC
  5
322
100
AcDbEntity
  8
0
100
AcDbCircle
 62
2
  6
CONTINUOUS
 10
13.3282096938
 20
2.5267023348
 40
0.0024749995
100
AcDbArc
 50
89.9999571957
 51
180.0000428043
  0
LINE
  5
323
100
AcDbEntity
  8
0
100
AcDbLine
 62
2
  6
CONTINUOUS
 10
13.3282096957
 20
2.5291773343
 11
13.3705287192
 21
2.5291773343
  0
ARC
  5
324
100
AcDbEntity
  8
0
100
AcDbCircle
 62
2
  6
CONTINUOUS
 10
13.370528721
 20
2.5267023348
 40
0.0024749995
100
AcDbArc
 50
359.9999571957
 51
90.0000428043
  0
LINE
  5
325
100
AcDbEntity
  8
0
100
AcDbLine
 62
2
  6
CONTINUOUS
 10
13.3730037205
 20
2.5267023329
 11
13.3730037205
 21
2.4937023146
  0
ARC
  5
326
100
AcDbEntity
  8
0
100
AcDbCircle
 62
2
  6
CONTINUOUS
 10
13.370528721
 20
2.4937023128
 40
0.0024749995
100
AcDbArc
 50
269.9999571957
 51
0.0000428043
  0
LINE
  5
327
100
AcDbEntity
  8
0
100
AcDbLine
 62
2
  6
CONTINUOUS
 10
13.3705287192
 20
2.4912273132
 11
13.1673166065
 21
2.4912273132
  0
ARC
  5
328
100
AcDbEntity
  8
0
100
AcDbCircle
 62
2
  6
CONTINUOUS
 10
13.1673166046
 20
2.4937023128
 40
0.0024749995
100
AcDbArc
 50
179.9999571957
 51
270.0000428043
  0
LINE
  5
329
100
AcDbEntity
  8
0
100
AcDbLine
 62
2
  6
CONTINUOUS
 10
13.1648416051
 20
2.4937023146
 11
13.1648416051
 21
2.5135023256
  0
ARC
  5
32A
100
AcDbEntity
  8
0
100
AcDbCircle
 62
2
  6
CONTINUOUS
 10
13.1673166046
 20
2.5135023274
 40
0.0024749995
100
AcDbArc
 50
89.9999571957
 51
180.0000428043
  0
LINE
  5
32B
100
AcDbEntity
  8
0
100
AcDbLine
 62
2
  6
CONTINUOUS
 10
13.1673166065
 20
2.515977327
 11
13.1912396197
 21
2.515977327
  0
ARC
  5
32C
100
AcDbEntity
  8
0
100
AcDbCircle
 62
2
  6
CONTINUOUS
 10
13.1912396216
 20
2.5184523265
 40
0.0024749995
100
AcDbArc
 50
269.9999571957
 51
0.0000428042
  0
LINE
  5
32D
100
AcDbEntity
  8
0
100
AcDbLine
 62
2
  6
CONTINUOUS
 10
13.1937146211
 20
2.5184523283
 11
13.1937146211
 21
2.564807354
  0
ARC
  5
32E
100
AcDbEntity
  8
0
100
AcDbCircle
 62
2
  6
CONTINUOUS
 10
13.1912396216
 20
2.5648073559
 40
0.0024749995
100
AcDbArc
 50
359.9999571957
 51
90.0000428043
  0
LINE
  5
32F
100
AcDbEntity
  8
0
100
AcDbLine
 62
2
  6
CONTINUOUS
 10
13.1912396197
 20
2.5672823554
 11
13.1673166065
 21
2.5672823554
  0
ARC
  5
330
100
AcDbEntity
  8
0
100
AcDbCircle
 62
2
  6
CONTINUOUS
 10
13.1673166046
 20
2.5697573549
 40
0.0024749995
100
AcDbArc
 50
179.9999571957
 51
270.0000428043
  0
LINE
  5
331
100
AcDbEntity
  8
0
100
AcDbLine
 62
2
  6
CONTINUOUS
 10
13.1648416051
 20
2.5697573568
 11
13.1648416051
 21
2.5895573678
  0
ARC
  5
332
100
AcDbEntity
  8
0
100
AcDbCircle
 62
2
  6
CONTINUOUS
 10
13.1673166046
 20
2.5895573696
 40
0.0024749995
100
AcDbArc
 50
89.9999571957
 51
180.0000428043
  0
LINE
  5
333
100
AcDbEntity
  8
0
100
AcDbLine
 62
2
  6
CONTINUOUS
 10
13.1673166065
 20
2.5920323691
 11
13.3691097184
 21
2.5920323691
  0
ARC
  5
334
100
AcDbEntity
  8
0
100
AcDbCircle
 62
2
  6
CONTINUOUS
 10
13.3691097202
 20
2.5895573696
 40
0.0024749995
100
AcDbArc
 50
359.9999571957
 51
90.0000428043
  0
LINE
  5
335
100
AcDbEntity
  8
0
100
AcDbLine
 62
2
  6
CONTINUOUS
 10
13.3715847197
 20
2.5895573678
 11
13.3715847197
 21
2.5565573495
  0
ARC
  5
336
100
AcDbEntity
  8
0
100
AcDbCircle
 62
2
  6
CONTINUOUS
 10
13.3691097202
 20
2.5565573476
 40
0.0024749995
100
AcDbArc
 50
269.9999571957
 51
0.0000428042
  0
LINE
  5
337
100
AcDbEntity
  8
0
100
AcDbLine
 62
2
  6
CONTINUOUS
 10
13.3691097184
 20
2.5540823481
 11
13.3272456952
 21
2.5540823481
  0
ARC
  5
338
100
AcDbEntity
  8
0
100
AcDbCircle
 62
2
  6
CONTINUOUS
 10
13.3272456933
 20
2.5565573476
 40
0.0024749995
100
AcDbArc
 50
179.9999571957
 51
270.0000428043
  0
LINE
  5
339
100
AcDbEntity
  8
0
100
AcDbLine
 62
2
  6
CONTINUOUS
 10
13.3247706938
 20
2.5565573495
 11
13.3247706938
 21
2.564807354
  0
ARC
  5
33A
100
AcDbEntity
  8
0
100
AcDbCircle
 62
2
  6
CONTINUOUS
 10
13.3222956943
 20
2.5648073559
 40
0.0024749995
100
AcDbArc
 50
359.9999571957
 51
90.0000428043
  0
LINE
  5
33B
100
AcDbEntity
  8
0
100
AcDbLine
 62
2
  6
CONTINUOUS
 10
13.3222956924
 20
2.5672823554
 11
13.2582556569
 21
2.5672823554
  0
ARC
  5
33C
100
AcDbEntity
  8
0
100
AcDbCircle
 62
2
  6
CONTINUOUS
 10
13.2582556551
 20
2.5648073559
 40
0.0024749995
100
AcDbArc
 50
89.9999571957
 51
180.0000428043
  0
LINE
  5
33D
100
AcDbEntity
  8
0
100
AcDbLine
 62
2
  6
CONTINUOUS
 10
13.2557806555
 20
2.564807354
 11
13.2557806555
 21
2.5532573476
  0
ARC
  5
33E
100
AcDbEntity
  8
0
100
AcDbCircle
 62
2
  6
CONTINUOUS
 10
13.2582556551
 20
2.5532573458
 40
0.0024749995
100
AcDbArc
 50
179.9999571957
 51
270.0000428043
  0
LINE
  5
33F
100
AcDbEntity
  8
0
100
AcDbLine
 62
2
  6
CONTINUOUS
 10
13.2582556569
 20
2.5507823463
 11
13.2934226764
 21
2.5507823463
  0
ARC
  5
340
100
AcDbEntity
  8
0
100
AcDbCircle
 62
2
  6
CONTINUOUS
 10
13.2934226783
 20
2.5483073467
 40
0.0024749995
100
AcDbArc
 50
359.9999571957
 51
90.0000428043
  0
LINE
  5
341
100
AcDbEntity
  8
0
100
AcDbLine
 62
2
  6
CONTINUOUS
 10
13.2958976778
 20
2.5483073449
 11
13.2958976778
 21
2.5349523375
  0
ARC
  5
342
100
AcDbEntity
  8
0
100
AcDbCircle
 62
2
  6
CONTINUOUS
 10
13.2934226783
 20
2.5349523356
 40
0.0024749995
100
AcDbArc
 50
269.9999571957
 51
0.0000428042
  0
LINE
  5
343
100
AcDbEntity
  8
0
100
AcDbLine
 62
2
  6
CONTINUOUS
 10
13.7286871589
 20
2.5350697372
 11
13.7286871589
 21
2.5456869438
  0
LINE
  5
344
100
AcDbEntity
  8
0
100
AcDbLine
 62
2
  6
CONTINUOUS
 10
13.7086871478
 20
2.5004302075
 11
13.7086871478
 21
2.5803264735
  0
LINE
  5
345
100
AcDbEntity
  8
0
100
AcDbLine
 62
2
  6
CONTINUOUS
 10
13.6886871368
 20
2.4843919416
 11
13.6886871368
 21
2.5963647394
  0
LINE
  5
346
100
AcDbEntity
  8
0
100
AcDbLine
 62
2
  6
CONTINUOUS
 10
13.6686871257
 20
2.4726017898
 11
13.6686871257
 21
2.6081548911
  0
LINE
  5
347
100
AcDbEntity
  8
0
100
AcDbLine
 62
2
  6
CONTINUOUS
 10
13.6486871146
 20
2.4628062688
 11
13.6486871146
 21
2.6179504122
  0
LINE
  5
348
100
AcDbEntity
  8
0
100
AcDbLine
 62
2
  6
CONTINUOUS
 10
13.6286871035
 20
2.4541253507
 11
13.6286871035
 21
2.5062483056
  0
LINE
  5
349
100
AcDbEntity
  8
0
100
AcDbLine
 62
2
  6
CONTINUOUS
 10
13.6286871035
 20
2.5301143348
 11
13.6286871035
 21
2.6266313303
  0
LINE
  5
34A
100
AcDbEntity
  8
0
100
AcDbLine
 62
2
  6
CONTINUOUS
 10
13.6086870924
 20
2.4465537903
 11
13.6086870924
 21
2.4918774918
  0
LINE
  5
34B
100
AcDbEntity
  8
0
100
AcDbLine
 62
2
  6
CONTINUOUS
 10
13.6086870924
 20
2.5165781173
 11
13.6086870924
 21
2.6342028907
  0
LINE
  5
34C
100
AcDbEntity
  8
0
100
AcDbLine
 62
2
  6
CONTINUOUS
 10
13.5886870813
 20
2.4398033466
 11
13.5886870813
 21
2.4912273132
  0
LINE
  5
34D
100
AcDbEntity
  8
0
100
AcDbLine
 62
2
  6
CONTINUOUS
 10
13.5886870813
 20
2.5391840845
 11
13.5886870813
 21
2.5454298327
  0
LINE
  5
34E
100
AcDbEntity
  8
0
100
AcDbLine
 62
2
  6
CONTINUOUS
 10
13.5886870813
 20
2.5862063472
 11
13.5886870813
 21
2.6409533343
  0
LINE
  5
34F
100
AcDbEntity
  8
0
100
AcDbLine
 62
2
  6
CONTINUOUS
 10
13.5686870702
 20
2.4334702189
 11
13.5686870702
 21
2.4912273132
  0
LINE
  5
350
100
AcDbEntity
  8
0
100
AcDbLine
 62
2
  6
CONTINUOUS
 10
13.5686870702
 20
2.5906587765
 11
13.5686870702
 21
2.647286462
  0
LINE
  5
351
100
AcDbEntity
  8
0
100
AcDbLine
 62
2
  6
CONTINUOUS
 10
13.5486870591
 20
2.4278968124
 11
13.5486870591
 21
2.4937461006
  0
LINE
  5
352
100
AcDbEntity
  8
0
100
AcDbLine
 62
2
  6
CONTINUOUS
 10
13.5486870591
 20
2.5920323691
 11
13.5486870591
 21
2.6528598686
  0
LINE
  5
353
100
AcDbEntity
  8
0
100
AcDbLine
 62
2
  6
CONTINUOUS
 10
13.528687048
 20
2.4225427674
 11
13.528687048
 21
2.5270426993
  0
LINE
  5
354
100
AcDbEntity
  8
0
100
AcDbLine
 62
2
  6
CONTINUOUS
 10
13.528687048
 20
2.5505166259
 11
13.528687048
 21
2.5668657091
  0
LINE
  5
355
100
AcDbEntity
  8
0
100
AcDbLine
 62
2
  6
CONTINUOUS
 10
13.528687048
 20
2.5920323691
 11
13.528687048
 21
2.6582139136
  0
LINE
  5
356
100
AcDbEntity
  8
0
100
AcDbLine
 62
2
  6
CONTINUOUS
 10
13.5086870369
 20
2.4177306791
 11
13.5086870369
 21
2.4912273132
  0
LINE
  5
357
100
AcDbEntity
  8
0
100
AcDbLine
 62
2
  6
CONTINUOUS
 10
13.5086870369
 20
2.5159553269
 11
13.5086870369
 21
2.5306043351
  0
LINE
  5
358
100
AcDbEntity
  8
0
100
AcDbLine
 62
2
  6
CONTINUOUS
 10
13.5086870369
 20
2.5496073456
 11
13.5086870369
 21
2.5672823554
  0
LINE
  5
359
100
AcDbEntity
  8
0
100
AcDbLine
 62
2
  6
CONTINUOUS
 10
13.5086870369
 20
2.5920323691
 11
13.5086870369
 21
2.6630260019
  0
LINE
  5
35A
100
AcDbEntity
  8
0
100
AcDbLine
 62
2
  6
CONTINUOUS
 10
13.4886870258
 20
2.4131795254
 11
13.4886870258
 21
2.4912273132
  0
LINE
  5
35B
100
AcDbEntity
  8
0
100
AcDbLine
 62
2
  6
CONTINUOUS
 10
13.4886870258
 20
2.5159553269
 11
13.4886870258
 21
2.5306043351
  0
LINE
  5
35C
100
AcDbEntity
  8
0
100
AcDbLine
 62
2
  6
CONTINUOUS
 10
13.4886870258
 20
2.5496073456
 11
13.4886870258
 21
2.5672823554
  0
LINE
  5
35D
100
AcDbEntity
  8
0
100
AcDbLine
 62
2
  6
CONTINUOUS
 10
13.4886870258
 20
2.5920323691
 11
13.4886870258
 21
2.6675771555
  0
LINE
  5
35E
100
AcDbEntity
  8
0
100
AcDbLine
 62
2
  6
CONTINUOUS
 10
13.4686870147
 20
2.4088819672
 11
13.4686870147
 21
2.4912273132
  0
LINE
  5
35F
100
AcDbEntity
  8
0
100
AcDbLine
 62
2
  6
CONTINUOUS
 10
13.4686870147
 20
2.5920323691
 11
13.4686870147
 21
2.6718747138
  0
LINE
  5
360
100
AcDbEntity
  8
0
100
AcDbLine
 62
2
  6
CONTINUOUS
 10
13.4486870037
 20
2.4050092072
 11
13.4486870037
 21
2.4912273132
  0
LINE
  5
361
100
AcDbEntity
  8
0
100
AcDbLine
 62
2
  6
CONTINUOUS
 10
13.4486870037
 20
2.5920323691
 11
13.4486870037
 21
2.6757474738
  0
LINE
  5
362
100
AcDbEntity
  8
0
100
AcDbLine
 62
2
  6
CONTINUOUS
 10
13.4286869926
 20
2.4011364471
 11
13.4286869926
 21
2.4912273132
  0
LINE
  5
363
100
AcDbEntity
  8
0
100
AcDbLine
 62
2
  6
CONTINUOUS
 10
13.4286869926
 20
2.5920323691
 11
13.4286869926
 21
2.6796202339
  0
LINE
  5
364
100
AcDbEntity
  8
0
100
AcDbLine
 62
2
  6
CONTINUOUS
 10
13.4086869815
 20
2.3980226662
 11
13.4086869815
 21
2.4912273132
  0
LINE
  5
365
100
AcDbEntity
  8
0
100
AcDbLine
 62
2
  6
CONTINUOUS
 10
13.4086869815
 20
2.515977327
 11
13.4086869815
 21
2.5672823554
  0
LINE
  5
366
100
AcDbEntity
  8
0
100
AcDbLine
 62
2
  6
CONTINUOUS
 10
13.4086869815
 20
2.5920323691
 11
13.4086869815
 21
2.6827340148
  0
LINE
  5
367
100
AcDbEntity
  8
0
100
AcDbLine
 62
2
  6
CONTINUOUS
 10
13.3886869704
 20
2.3950052774
 11
13.3886869704
 21
2.6857514036
  0
LINE
  5
368
100
AcDbEntity
  8
0
100
AcDbLine
 62
2
  6
CONTINUOUS
 10
13.3686869593
 20
2.3919878885
 11
13.3686869593
 21
2.4912273132
  0
LINE
  5
369
100
AcDbEntity
  8
0
100
AcDbLine
 62
2
  6
CONTINUOUS
 10
13.3686869593
 20
2.5291773343
 11
13.3686869593
 21
2.5540823481
  0
LINE
  5
36A
100
AcDbEntity
  8
0
100
AcDbLine
 62
2
  6
CONTINUOUS
 10
13.3686869593
 20
2.5920323691
 11
13.3686869593
 21
2.6887687924
  0
LINE
  5
36B
100
AcDbEntity
  8
0
100
AcDbLine
 62
2
  6
CONTINUOUS
 10
13.3486869482
 20
2.3889704997
 11
13.3486869482
 21
2.4912273132
  0
LINE
  5
36C
100
AcDbEntity
  8
0
100
AcDbLine
 62
2
  6
CONTINUOUS
 10
13.3486869482
 20
2.5291773343
 11
13.3486869482
 21
2.5540823481
  0
LINE
  5
36D
100
AcDbEntity
  8
0
100
AcDbLine
 62
2
  6
CONTINUOUS
 10
13.3486869482
 20
2.5920323691
 11
13.3486869482
 21
2.6917861813
  0
LINE
  5
36E
100
AcDbEntity
  8
0
100
AcDbLine
 62
2
  6
CONTINUOUS
 10
13.3286869371
 20
2.3859531109
 11
13.3286869371
 21
2.4912273132
  0
LINE
  5
36F
100
AcDbEntity
  8
0
100
AcDbLine
 62
2
  6
CONTINUOUS
 10
13.3286869371
 20
2.5291773343
 11
13.3286869371
 21
2.5540823481
  0
LINE
  5
370
100
AcDbEntity
  8
0
100
AcDbLine
 62
2
  6
CONTINUOUS
 10
13.3286869371
 20
2.5920323691
 11
13.3286869371
 21
2.6948035701
  0
LINE
  5
371
100
AcDbEntity
  8
0
100
AcDbLine
 62
2
  6
CONTINUOUS
 10
13.308686926
 20
2.3833355437
 11
13.308686926
 21
2.4912273132
  0
LINE
  5
372
100
AcDbEntity
  8
0
100
AcDbLine
 62
2
  6
CONTINUOUS
 10
13.308686926
 20
2.515977327
 11
13.308686926
 21
2.5672823554
  0
LINE
  5
373
100
AcDbEntity
  8
0
100
AcDbLine
 62
2
  6
CONTINUOUS
 10
13.308686926
 20
2.5920323691
 11
13.308686926
 21
2.6974211373
  0
LINE
  5
374
100
AcDbEntity
  8
0
100
AcDbLine
 62
2
  6
CONTINUOUS
 10
13.2886869149
 20
2.3812612684
 11
13.2886869149
 21
2.4912273132
  0
LINE
  5
375
100
AcDbEntity
  8
0
100
AcDbLine
 62
2
  6
CONTINUOUS
 10
13.2886869149
 20
2.515977327
 11
13.2886869149
 21
2.5324773361
  0
LINE
  5
376
100
AcDbEntity
  8
0
100
AcDbLine
 62
2
  6
CONTINUOUS
 10
13.2886869149
 20
2.5507823463
 11
13.2886869149
 21
2.5672823554
  0
LINE
  5
377
100
AcDbEntity
  8
0
100
AcDbLine
 62
2
  6
CONTINUOUS
 10
13.2886869149
 20
2.5920323691
 11
13.2886869149
 21
2.6994954125
  0
LINE
  5
378
100
AcDbEntity
  8
0
100
AcDbLine
 62
2
  6
CONTINUOUS
 10
13.2686869038
 20
2.3791869932
 11
13.2686869038
 21
2.4912273132
  0
LINE
  5
379
100
AcDbEntity
  8
0
100
AcDbLine
 62
2
  6
CONTINUOUS
 10
13.2686869038
 20
2.515977327
 11
13.2686869038
 21
2.5324773361
  0
LINE
  5
37A
100
AcDbEntity
  8
0
100
AcDbLine
 62
2
  6
CONTINUOUS
 10
13.2686869038
 20
2.5507823463
 11
13.2686869038
 21
2.5672823554
  0
LINE
  5
37B
100
AcDbEntity
  8
0
100
AcDbLine
 62
2
  6
CONTINUOUS
 10
13.2686869038
 20
2.5920323691
 11
13.2686869038
 21
2.7015696878
  0
LINE
  5
37C
100
AcDbEntity
  8
0
100
AcDbLine
 62
2
  6
CONTINUOUS
 10
13.2486868927
 20
2.377112718
 11
13.2486868927
 21
2.4912273132
  0
LINE
  5
37D
100
AcDbEntity
  8
0
100
AcDbLine
 62
2
  6
CONTINUOUS
 10
13.2486868927
 20
2.5920323691
 11
13.2486868927
 21
2.703643963
  0
LINE
  5
37E
100
AcDbEntity
  8
0
100
AcDbLine
 62
2
  6
CONTINUOUS
 10
13.2286868817
 20
2.3750384428
 11
13.2286868817
 21
2.4912273132
  0
LINE
  5
37F
100
AcDbEntity
  8
0
100
AcDbLine
 62
2
  6
CONTINUOUS
 10
13.2286868817
 20
2.5920323691
 11
13.2286868817
 21
2.7057182382
  0
LINE
  5
380
100
AcDbEntity
  8
0
100
AcDbLine
 62
2
  6
CONTINUOUS
 10
13.2086868706
 20
2.3729641676
 11
13.2086868706
 21
2.4912273132
  0
LINE
  5
381
100
AcDbEntity
  8
0
100
AcDbLine
 62
2
  6
CONTINUOUS
 10
13.2086868706
 20
2.5920323691
 11
13.2086868706
 21
2.7077925134
  0
LINE
  5
382
100
AcDbEntity
  8
0
100
AcDbLine
 62
2
  6
CONTINUOUS
 10
13.1886868595
 20
2.3712344456
 11
13.1886868595
 21
2.4912273132
  0
LINE
  5
383
100
AcDbEntity
  8
0
100
AcDbLine
 62
2
  6
CONTINUOUS
 10
13.1886868595
 20
2.515977327
 11
13.1886868595
 21
2.5672823554
  0
LINE
  5
384
100
AcDbEntity
  8
0
100
AcDbLine
 62
2
  6
CONTINUOUS
 10
13.1886868595
 20
2.5920323691
 11
13.1886868595
 21
2.7095222354
  0
LINE
  5
385
100
AcDbEntity
  8
0
100
AcDbLine
 62
2
  6
CONTINUOUS
 10
13.1686868484
 20
2.3699682418
 11
13.1686868484
 21
2.4912273132
  0
LINE
  5
386
100
AcDbEntity
  8
0
100
AcDbLine
 62
2
  6
CONTINUOUS
 10
13.1686868484
 20
2.515977327
 11
13.1686868484
 21
2.5672823554
  0
LINE
  5
387
100
AcDbEntity
  8
0
100
AcDbLine
 62
2
  6
CONTINUOUS
 10
13.1686868484
 20
2.5920323691
 11
13.1686868484
 21
2.7107884392
  0
LINE
  5
388
100
AcDbEntity
  8
0
100
AcDbLine
 62
2
  6
CONTINUOUS
 10
13.1486868373
 20
2.3687020381
 11
13.1486868373
 21
2.7120546429
  0
LINE
  5
389
100
AcDbEntity
  8
0
100
AcDbLine
 62
2
  6
CONTINUOUS
 10
13.1286868262
 20
2.3674358343
 11
13.1286868262
 21
2.5672823554
  0
LINE
  5
38A
100
AcDbEntity
  8
0
100
AcDbLine
 62
2
  6
CONTINUOUS
 10
13.1286868262
 20
2.5920323691
 11
13.1286868262
 21
2.7133208466
  0
LINE
  5
38B
100
AcDbEntity
  8
0
100
AcDbLine
 62
2
  6
CONTINUOUS
 10
13.1086868151
 20
2.3661696306
 11
13.1086868151
 21
2.4912273132
  0
LINE
  5
38C
100
AcDbEntity
  8
0
100
AcDbLine
 62
2
  6
CONTINUOUS
 10
13.1086868151
 20
2.5920323691
 11
13.1086868151
 21
2.7145870504
  0
LINE
  5
38D
100
AcDbEntity
  8
0
100
AcDbLine
 62
2
  6
CONTINUOUS
 10
13.088686804
 20
2.3649034269
 11
13.088686804
 21
2.4912273132
  0
LINE
  5
38E
100
AcDbEntity
  8
0
100
AcDbLine
 62
2
  6
CONTINUOUS
 10
13.088686804
 20
2.5920323691
 11
13.088686804
 21
2.7158532541
  0
LINE
  5
38F
100
AcDbEntity
  8
0
100
AcDbLine
 62
2
  6
CONTINUOUS
 10
13.0686867929
 20
2.3636739922
 11
13.0686867929
 21
2.4912273132
  0
LINE
  5
390
100
AcDbEntity
  8
0
100
AcDbLine
 62
2
  6
CONTINUOUS
 10
13.0686867929
 20
2.5475272398
 11
13.0686867929
 21
2.5672823554
  0
LINE
  5
391
100
AcDbEntity
  8
0
100
AcDbLine
 62
2
  6
CONTINUOUS
 10
13.0686867929
 20
2.5920323691
 11
13.0686867929
 21
2.7170826887
  0
LINE
  5
392
100
AcDbEntity
  8
0
100
AcDbLine
 62
2
  6
CONTINUOUS
 10
13.0486867818
 20
2.363143203
 11
13.0486867818
 21
2.4912273132
  0
LINE
  5
393
100
AcDbEntity
  8
0
100
AcDbLine
 62
2
  6
CONTINUOUS
 10
13.0486867818
 20
2.5666100882
 11
13.0486867818
 21
2.717613478
  0
LINE
  5
394
100
AcDbEntity
  8
0
100
AcDbLine
 62
2
  6
CONTINUOUS
 10
13.0286867707
 20
2.3626124138
 11
13.0286867707
 21
2.50359263
  0
LINE
  5
395
100
AcDbEntity
  8
0
100
AcDbLine
 62
2
  6
CONTINUOUS
 10
13.0286867707
 20
2.5856929366
 11
13.0286867707
 21
2.7181442672
  0
LINE
  5
396
100
AcDbEntity
  8
0
100
AcDbLine
 62
2
  6
CONTINUOUS
 10
13.0086867596
 20
2.3620816246
 11
13.0086867596
 21
2.5226754472
  0
LINE
  5
397
100
AcDbEntity
  8
0
100
AcDbLine
 62
2
  6
CONTINUOUS
 10
13.0086867596
 20
2.5920323691
 11
13.0086867596
 21
2.7186750564
  0
LINE
  5
398
100
AcDbEntity
  8
0
100
AcDbLine
 62
2
  6
CONTINUOUS
 10
12.9886867486
 20
2.3615508354
 11
12.9886867486
 21
2.4912273132
  0
LINE
  5
399
100
AcDbEntity
  8
0
100
AcDbLine
 62
2
  6
CONTINUOUS
 10
12.9886867486
 20
2.515977327
 11
12.9886867486
 21
2.5417582644
  0
LINE
  5
39A
100
AcDbEntity
  8
0
100
AcDbLine
 62
2
  6
CONTINUOUS
 10
12.9886867486
 20
2.5920323691
 11
12.9886867486
 21
2.7192058456
  0
LINE
  5
39B
100
AcDbEntity
  8
0
100
AcDbLine
 62
2
  6
CONTINUOUS
 10
12.9686867375
 20
2.3610200462
 11
12.9686867375
 21
2.4912273132
  0
LINE
  5
39C
100
AcDbEntity
  8
0
100
AcDbLine
 62
2
  6
CONTINUOUS
 10
12.9686867375
 20
2.5920323691
 11
12.9686867375
 21
2.7197366348
  0
LINE
  5
39D
100
AcDbEntity
  8
0
100
AcDbLine
 62
2
  6
CONTINUOUS
 10
12.9486867264
 20
2.360489257
 11
12.9486867264
 21
2.4912273132
  0
LINE
  5
39E
100
AcDbEntity
  8
0
100
AcDbLine
 62
2
  6
CONTINUOUS
 10
12.9486867264
 20
2.5920323691
 11
12.9486867264
 21
2.720267424
  0
LINE
  5
39F
100
AcDbEntity
  8
0
100
AcDbLine
 62
2
  6
CONTINUOUS
 10
12.9286867153
 20
2.3602836008
 11
12.9286867153
 21
2.4912273132
  0
LINE
  5
3A0
100
AcDbEntity
  8
0
100
AcDbLine
 62
2
  6
CONTINUOUS
 10
12.9286867153
 20
2.515977327
 11
12.9286867153
 21
2.5672823554
  0
LINE
  5
3A1
100
AcDbEntity
  8
0
100
AcDbLine
 62
2
  6
CONTINUOUS
 10
12.9286867153
 20
2.5920323691
 11
12.9286867153
 21
2.7204730802
  0
LINE
  5
3A2
100
AcDbEntity
  8
0
100
AcDbLine
 62
2
  6
CONTINUOUS
 10
12.9086867042
 20
2.3604597639
 11
12.9086867042
 21
2.7202969171
  0
LINE
  5
3A3
100
AcDbEntity
  8
0
100
AcDbLine
 62
2
  6
CONTINUOUS
 10
12.8886866931
 20
2.360635927
 11
12.8886866931
 21
2.5672823554
  0
LINE
  5
3A4
100
AcDbEntity
  8
0
100
AcDbLine
 62
2
  6
CONTINUOUS
 10
12.8886866931
 20
2.5920323691
 11
12.8886866931
 21
2.720120754
  0
LINE
  5
3A5
100
AcDbEntity
  8
0
100
AcDbLine
 62
2
  6
CONTINUOUS
 10
12.868686682
 20
2.3608120901
 11
12.868686682
 21
2.491232357
  0
LINE
  5
3A6
100
AcDbEntity
  8
0
100
AcDbLine
 62
2
  6
CONTINUOUS
 10
12.868686682
 20
2.5920323691
 11
12.868686682
 21
2.7199445909
  0
LINE
  5
3A7
100
AcDbEntity
  8
0
100
AcDbLine
 62
2
  6
CONTINUOUS
 10
12.8486866709
 20
2.3609882532
 11
12.8486866709
 21
2.4912273132
  0
LINE
  5
3A8
100
AcDbEntity
  8
0
100
AcDbLine
 62
2
  6
CONTINUOUS
 10
12.8486866709
 20
2.5920323691
 11
12.8486866709
 21
2.7197684278
  0
LINE
  5
3A9
100
AcDbEntity
  8
0
100
AcDbLine
 62
2
  6
CONTINUOUS
 10
12.8286866598
 20
2.3611644163
 11
12.8286866598
 21
2.4912273132
  0
LINE
  5
3AA
100
AcDbEntity
  8
0
100
AcDbLine
 62
2
  6
CONTINUOUS
 10
12.8286866598
 20
2.5396527025
 11
12.8286866598
 21
2.5672823554
  0
LINE
  5
3AB
100
AcDbEntity
  8
0
100
AcDbLine
 62
2
  6
CONTINUOUS
 10
12.8286866598
 20
2.5920323691
 11
12.8286866598
 21
2.7195922647
  0
LINE
  5
3AC
100
AcDbEntity
  8
0
100
AcDbLine
 62
2
  6
CONTINUOUS
 10
12.8086866487
 20
2.3613405794
 11
12.8086866487
 21
2.4912273132
  0
LINE
  5
3AD
100
AcDbEntity
  8
0
100
AcDbLine
 62
2
  6
CONTINUOUS
 10
12.8086866487
 20
2.5587355508
 11
12.8086866487
 21
2.7194161016
  0
LINE
  5
3AE
100
AcDbEntity
  8
0
100
AcDbLine
 62
2
  6
CONTINUOUS
 10
12.7886866376
 20
2.3621089572
 11
12.7886866376
 21
2.4957181055
  0
LINE
  5
3AF
100
AcDbEntity
  8
0
100
AcDbLine
 62
2
  6
CONTINUOUS
 10
12.7886866376
 20
2.5778183992
 11
12.7886866376
 21
2.7186477238
  0
LINE
  5
3B0
100
AcDbEntity
  8
0
100
AcDbLine
 62
2
  6
CONTINUOUS
 10
12.7686866266
 20
2.3630013935
 11
12.7686866266
 21
2.5148009227
  0
LINE
  5
3B1
100
AcDbEntity
  8
0
100
AcDbLine
 62
2
  6
CONTINUOUS
 10
12.7686866266
 20
2.5920323691
 11
12.7686866266
 21
2.7177552874
  0
LINE
  5
3B2
100
AcDbEntity
  8
0
100
AcDbLine
 62
2
  6
CONTINUOUS
 10
12.7486866155
 20
2.3638938299
 11
12.7486866155
 21
2.4913263218
  0
LINE
  5
3B3
100
AcDbEntity
  8
0
100
AcDbLine
 62
2
  6
CONTINUOUS
 10
12.7486866155
 20
2.5158783184
 11
12.7486866155
 21
2.5338837399
  0
LINE
  5
3B4
100
AcDbEntity
  8
0
100
AcDbLine
 62
2
  6
CONTINUOUS
 10
12.7486866155
 20
2.5920323691
 11
12.7486866155
 21
2.7168628511
  0
LINE
  5
3B5
100
AcDbEntity
  8
0
100
AcDbLine
 62
2
  6
CONTINUOUS
 10
12.7286866044
 20
2.3647862663
 11
12.7286866044
 21
2.4912273132
  0
LINE
  5
3B6
100
AcDbEntity
  8
0
100
AcDbLine
 62
2
  6
CONTINUOUS
 10
12.7286866044
 20
2.515977327
 11
12.7286866044
 21
2.5527601554
  0
LINE
  5
3B7
100
AcDbEntity
  8
0
100
AcDbLine
 62
2
  6
CONTINUOUS
 10
12.7286866044
 20
2.5920323691
 11
12.7286866044
 21
2.7159704147
  0
LINE
  5
3B8
100
AcDbEntity
  8
0
100
AcDbLine
 62
2
  6
CONTINUOUS
 10
12.7086865933
 20
2.3656787026
 11
12.7086865933
 21
2.4912273132
  0
LINE
  5
3B9
100
AcDbEntity
  8
0
100
AcDbLine
 62
2
  6
CONTINUOUS
 10
12.7086865933
 20
2.5920323691
 11
12.7086865933
 21
2.7150779784
  0
LINE
  5
3BA
100
AcDbEntity
  8
0
100
AcDbLine
 62
2
  6
CONTINUOUS
 10
12.6886865822
 20
2.366571139
 11
12.6886865822
 21
2.4912273132
  0
LINE
  5
3BB
100
AcDbEntity
  8
0
100
AcDbLine
 62
2
  6
CONTINUOUS
 10
12.6886865822
 20
2.515977327
 11
12.6886865822
 21
2.5672823554
  0
LINE
  5
3BC
100
AcDbEntity
  8
0
100
AcDbLine
 62
2
  6
CONTINUOUS
 10
12.6886865822
 20
2.5920323691
 11
12.6886865822
 21
2.714185542
  0
LINE
  5
3BD
100
AcDbEntity
  8
0
100
AcDbLine
 62
2
  6
CONTINUOUS
 10
12.6686865711
 20
2.3677104027
 11
12.6686865711
 21
2.7130462783
  0
LINE
  5
3BE
100
AcDbEntity
  8
0
100
AcDbLine
 62
2
  6
CONTINUOUS
 10
12.64868656
 20
2.3693682721
 11
12.64868656
 21
2.7113884089
  0
LINE
  5
3BF
100
AcDbEntity
  8
0
100
AcDbLine
 62
2
  6
CONTINUOUS
 10
12.6286865489
 20
2.3710261415
 11
12.6286865489
 21
2.4912273132
  0
LINE
  5
3C0
100
AcDbEntity
  8
0
100
AcDbLine
 62
2
  6
CONTINUOUS
 10
12.6286865489
 20
2.515977327
 11
12.6286865489
 21
2.7097305395
  0
LINE
  5
3C1
100
AcDbEntity
  8
0
100
AcDbLine
 62
2
  6
CONTINUOUS
 10
12.6086865378
 20
2.372684011
 11
12.6086865378
 21
2.4912273132
  0
LINE
  5
3C2
100
AcDbEntity
  8
0
100
AcDbLine
 62
2
  6
CONTINUOUS
 10
12.6086865378
 20
2.5351122279
 11
12.6086865378
 21
2.70807267
  0
LINE
  5
3C3
100
AcDbEntity
  8
0
100
AcDbLine
 62
2
  6
CONTINUOUS
 10
12.5886865267
 20
2.3743418804
 11
12.5886865267
 21
2.4912273132
  0
LINE
  5
3C4
100
AcDbEntity
  8
0
100
AcDbLine
 62
2
  6
CONTINUOUS
 10
12.5886865267
 20
2.5660172622
 11
12.5886865267
 21
2.7064148006
  0
LINE
  5
3C5
100
AcDbEntity
  8
0
100
AcDbLine
 62
2
  6
CONTINUOUS
 10
12.5686865156
 20
2.3759997498
 11
12.5686865156
 21
2.4912273132
  0
LINE
  5
3C6
100
AcDbEntity
  8
0
100
AcDbLine
 62
2
  6
CONTINUOUS
 10
12.5686865156
 20
2.5920323691
 11
12.5686865156
 21
2.7047569312
  0
LINE
  5
3C7
100
AcDbEntity
  8
0
100
AcDbLine
 62
2
  6
CONTINUOUS
 10
12.5486865045
 20
2.3777575277
 11
12.5486865045
 21
2.4912273132
  0
LINE
  5
3C8
100
AcDbEntity
  8
0
100
AcDbLine
 62
2
  6
CONTINUOUS
 10
12.5486865045
 20
2.515977327
 11
12.5486865045
 21
2.5275118824
  0
LINE
  5
3C9
100
AcDbEntity
  8
0
100
AcDbLine
 62
2
  6
CONTINUOUS
 10
12.5486865045
 20
2.5920323691
 11
12.5486865045
 21
2.7029991533
  0
LINE
  5
3CA
100
AcDbEntity
  8
0
100
AcDbLine
 62
2
  6
CONTINUOUS
 10
12.5286864935
 20
2.3802813811
 11
12.5286864935
 21
2.5296213345
  0
LINE
  5
3CB
100
AcDbEntity
  8
0
100
AcDbLine
 62
2
  6
CONTINUOUS
 10
12.5286864935
 20
2.5505713461
 11
12.5286864935
 21
2.5667383551
  0
LINE
  5
3CC
100
AcDbEntity
  8
0
100
AcDbLine
 62
2
  6
CONTINUOUS
 10
12.5286864935
 20
2.5920323691
 11
12.5286864935
 21
2.7004752999
  0
LINE
  5
3CD
100
AcDbEntity
  8
0
100
AcDbLine
 62
2
  6
CONTINUOUS
 10
12.5086864824
 20
2.3828052346
 11
12.5086864824
 21
2.4912273132
  0
LINE
  5
3CE
100
AcDbEntity
  8
0
100
AcDbLine
 62
2
  6
CONTINUOUS
 10
12.5086864824
 20
2.515977327
 11
12.5086864824
 21
2.5279667721
  0
LINE
  5
3CF
100
AcDbEntity
  8
0
100
AcDbLine
 62
2
  6
CONTINUOUS
 10
12.5086864824
 20
2.5868602074
 11
12.5086864824
 21
2.6979514464
  0
LINE
  5
3D0
100
AcDbEntity
  8
0
100
AcDbLine
 62
2
  6
CONTINUOUS
 10
12.4886864713
 20
2.385329088
 11
12.4886864713
 21
2.4912273132
  0
LINE
  5
3D1
100
AcDbEntity
  8
0
100
AcDbLine
 62
2
  6
CONTINUOUS
 10
12.4886864713
 20
2.5553401045
 11
12.4886864713
 21
2.695427593
  0
LINE
  5
3D2
100
AcDbEntity
  8
0
100
AcDbLine
 62
2
  6
CONTINUOUS
 10
12.4686864602
 20
2.3878529415
 11
12.4686864602
 21
2.4912273132
  0
LINE
  5
3D3
100
AcDbEntity
  8
0
100
AcDbLine
 62
2
  6
CONTINUOUS
 10
12.4686864602
 20
2.5238200015
 11
12.4686864602
 21
2.6929037395
  0
LINE
  5
3D4
100
AcDbEntity
  8
0
100
AcDbLine
 62
2
  6
CONTINUOUS
 10
12.4486864491
 20
2.390376795
 11
12.4486864491
 21
2.4912273132
  0
LINE
  5
3D5
100
AcDbEntity
  8
0
100
AcDbLine
 62
2
  6
CONTINUOUS
 10
12.4486864491
 20
2.515977327
 11
12.4486864491
 21
2.690379886
  0
LINE
  5
3D6
100
AcDbEntity
  8
0
100
AcDbLine
 62
2
  6
CONTINUOUS
 10
12.428686438
 20
2.3931794042
 11
12.428686438
 21
2.6875772768
  0
LINE
  5
3D7
100
AcDbEntity
  8
0
100
AcDbLine
 62
2
  6
CONTINUOUS
 10
12.4086864269
 20
2.3964643301
 11
12.4086864269
 21
2.5013773986
  0
LINE
  5
3D8
100
AcDbEntity
  8
0
100
AcDbLine
 62
2
  6
CONTINUOUS
 10
12.4086864269
 20
2.5325739971
 11
12.4086864269
 21
2.5537224311
  0
LINE
  5
3D9
100
AcDbEntity
  8
0
100
AcDbLine
 62
2
  6
CONTINUOUS
 10
12.4086864269
 20
2.5791473398
 11
12.4086864269
 21
2.6842923509
  0
LINE
  5
3DA
100
AcDbEntity
  8
0
100
AcDbLine
 62
2
  6
CONTINUOUS
 10
12.3886864158
 20
2.399749256
 11
12.3886864158
 21
2.4921022658
  0
LINE
  5
3DB
100
AcDbEntity
  8
0
100
AcDbLine
 62
2
  6
CONTINUOUS
 10
12.3886864158
 20
2.5895929958
 11
12.3886864158
 21
2.681007425
  0
LINE
  5
3DC
100
AcDbEntity
  8
0
100
AcDbLine
 62
2
  6
CONTINUOUS
 10
12.3686864047
 20
2.403451877
 11
12.3686864047
 21
2.4912273132
  0
LINE
  5
3DD
100
AcDbEntity
  8
0
100
AcDbLine
 62
2
  6
CONTINUOUS
 10
12.3686864047
 20
2.5920323691
 11
12.3686864047
 21
2.677304804
  0
LINE
  5
3DE
100
AcDbEntity
  8
0
100
AcDbLine
 62
2
  6
CONTINUOUS
 10
12.3486863936
 20
2.407324637
 11
12.3486863936
 21
2.4912273132
  0
LINE
  5
3DF
100
AcDbEntity
  8
0
100
AcDbLine
 62
2
  6
CONTINUOUS
 10
12.3486863936
 20
2.5920323691
 11
12.3486863936
 21
2.673432044
  0
LINE
  5
3E0
100
AcDbEntity
  8
0
100
AcDbLine
 62
2
  6
CONTINUOUS
 10
12.3286863825
 20
2.4113493968
 11
12.3286863825
 21
2.4912273132
  0
LINE
  5
3E1
100
AcDbEntity
  8
0
100
AcDbLine
 62
2
  6
CONTINUOUS
 10
12.3286863825
 20
2.515977327
 11
12.3286863825
 21
2.5333023366
  0
LINE
  5
3E2
100
AcDbEntity
  8
0
100
AcDbLine
 62
2
  6
CONTINUOUS
 10
12.3286863825
 20
2.5499573458
 11
12.3286863825
 21
2.5672823554
  0
LINE
  5
3E3
100
AcDbEntity
  8
0
100
AcDbLine
 62
2
  6
CONTINUOUS
 10
12.3286863825
 20
2.5920323691
 11
12.3286863825
 21
2.6694072842
  0
LINE
  5
3E4
100
AcDbEntity
  8
0
100
AcDbLine
 62
2
  6
CONTINUOUS
 10
12.3086863715
 20
2.4159005505
 11
12.3086863715
 21
2.4912273132
  0
LINE
  5
3E5
100
AcDbEntity
  8
0
100
AcDbLine
 62
2
  6
CONTINUOUS
 10
12.3086863715
 20
2.515977327
 11
12.3086863715
 21
2.5333023366
  0
LINE
  5
3E6
100
AcDbEntity
  8
0
100
AcDbLine
 62
2
  6
CONTINUOUS
 10
12.3086863715
 20
2.5499573458
 11
12.3086863715
 21
2.5672823554
  0
LINE
  5
3E7
100
AcDbEntity
  8
0
100
AcDbLine
 62
2
  6
CONTINUOUS
 10
12.3086863715
 20
2.5920323691
 11
12.3086863715
 21
2.6648561305
  0
LINE
  5
3E8
100
AcDbEntity
  8
0
100
AcDbLine
 62
2
  6
CONTINUOUS
 10
12.2886863604
 20
2.4204517041
 11
12.2886863604
 21
2.4912273132
  0
LINE
  5
3E9
100
AcDbEntity
  8
0
100
AcDbLine
 62
2
  6
CONTINUOUS
 10
12.2886863604
 20
2.5920323691
 11
12.2886863604
 21
2.6603049769
  0
LINE
  5
3EA
100
AcDbEntity
  8
0
100
AcDbLine
 62
2
  6
CONTINUOUS
 10
12.2686863493
 20
2.4257438218
 11
12.2686863493
 21
2.4912273132
  0
LINE
  5
3EB
100
AcDbEntity
  8
0
100
AcDbLine
 62
2
  6
CONTINUOUS
 10
12.2686863493
 20
2.5920323691
 11
12.2686863493
 21
2.6550128592
  0
LINE
  5
3EC
100
AcDbEntity
  8
0
100
AcDbLine
 62
2
  6
CONTINUOUS
 10
12.2486863382
 20
2.4310978667
 11
12.2486863382
 21
2.4912273132
  0
LINE
  5
3ED
100
AcDbEntity
  8
0
100
AcDbLine
 62
2
  6
CONTINUOUS
 10
12.2486863382
 20
2.5920323691
 11
12.2486863382
 21
2.6496588142
  0
LINE
  5
3EE
100
AcDbEntity
  8
0
100
AcDbLine
 62
2
  6
CONTINUOUS
 10
12.2286863271
 20
2.4372566433
 11
12.2286863271
 21
2.4912273132
  0
LINE
  5
3EF
100
AcDbEntity
  8
0
100
AcDbLine
 62
2
  6
CONTINUOUS
 10
12.2286863271
 20
2.515977327
 11
12.2286863271
 21
2.5672823554
  0
LINE
  5
3F0
100
AcDbEntity
  8
0
100
AcDbLine
 62
2
  6
CONTINUOUS
 10
12.2286863271
 20
2.5920323691
 11
12.2286863271
 21
2.6435000377
  0
LINE
  5
3F1
100
AcDbEntity
  8
0
100
AcDbLine
 62
2
  6
CONTINUOUS
 10
12.208686316
 20
2.443589771
 11
12.208686316
 21
2.4912273132
  0
LINE
  5
3F2
100
AcDbEntity
  8
0
100
AcDbLine
 62
2
  6
CONTINUOUS
 10
12.208686316
 20
2.515977327
 11
12.208686316
 21
2.5672823554
  0
LINE
  5
3F3
100
AcDbEntity
  8
0
100
AcDbLine
 62
2
  6
CONTINUOUS
 10
12.208686316
 20
2.5920323691
 11
12.208686316
 21
2.63716691
  0
LINE
  5
3F4
100
AcDbEntity
  8
0
100
AcDbLine
 62
2
  6
CONTINUOUS
 10
12.1886863049
 20
2.4510806436
 11
12.1886863049
 21
2.6296760373
  0
LINE
  5
3F5
100
AcDbEntity
  8
0
100
AcDbLine
 62
2
  6
CONTINUOUS
 10
12.1686862938
 20
2.4591016523
 11
12.1686862938
 21
2.6216550287
  0
LINE
  5
3F6
100
AcDbEntity
  8
0
100
AcDbLine
 62
2
  6
CONTINUOUS
 10
12.1486862827
 20
2.468314272
 11
12.1486862827
 21
2.612442409
  0
LINE
  5
3F7
100
AcDbEntity
  8
0
100
AcDbLine
 62
2
  6
CONTINUOUS
 10
12.1286862716
 20
2.4794932339
 11
12.1286862716
 21
2.601263447
  0
LINE
  5
3F8
100
AcDbEntity
  8
0
100
AcDbLine
 62
2
  6
CONTINUOUS
 10
12.1086862605
 20
2.4934150665
 11
12.1086862605
 21
2.5873416144
  0
LINE
  5
3F9
100
AcDbEntity
  8
0
100
AcDbLine
 62
2
  6
CONTINUOUS
 10
12.0886862494
 20
2.5144449553
 11
12.0886862494
 21
2.5663117257
  0
ENDBLK
  5
3FA
100
AcDbEntity
  8
0
  6
BYBLOCK
 62
0
100
AcDbBlockEnd
  0
BLOCK
  5
3FB
100
AcDbEntity
  8
0
100
AcDbBlockBegin
  2
_FILLED
 70
64
 10
0.0
 20
0.0
  3
_FILLED
  1

  0
SOLID
  5
3FC
100
AcDbEntity
  8
0
  6
BYBLOCK
 62
0
100
AcDbTrace
 10
0.0
 20
0.0
 11
-1.0
 21
0.1666666667
 12
-1.0
 22
-0.1666666667
 13
-1.0
 23
-0.1666666667
  0
ENDBLK
  5
3FD
100
AcDbEntity
  8
0
  6
BYBLOCK
 62
0
100
AcDbBlockEnd
  0
BLOCK
  5
3FE
100
AcDbEntity
  8
SCHEME_DIMS
100
AcDbBlockBegin
 62
2
  6
CONTINUOUS
  2
*D0
 70
65
 10
0.0
 20
0.0
  3
*D0
  1

  0
MTEXT
  5
3FF
100
AcDbEntity
  8
SCHEME_DIMS
100
AcDbMText
 62
2
  6
CONTINUOUS
  7
STANDARD
 71
2
 72
1
 10
5.294175154
 20
5.3467853277
 30
0.0
 11
1.0
 21
0.0
 31
0.0
 44
0.9
  1
26\P[1.03]
 40
0.1
 41
0.6
  0
LINE
  5
400
100
AcDbEntity
  8
SCHEME_DIMS
100
AcDbLine
 62
2
  6
CONTINUOUS
 10
4.7258076406
 20
4.7092853277
 11
5.619175154
 21
4.7092853277
  0
LINE
  5
401
100
AcDbEntity
  8
SCHEME_DIMS
100
AcDbLine
 62
2
  6
CONTINUOUS
 10
5.229528654
 20
5.7342853277
 11
5.619175154
 21
5.7342853277
  0
LINE
  5
402
100
AcDbEntity
  8
SCHEME_DIMS
100
AcDbLine
 62
2
  6
CONTINUOUS
 10
5.494175154
 20
4.7092853277
 11
5.494175154
 21
4.9967853277
  0
LINE
  5
403
100
AcDbEntity
  8
SCHEME_DIMS
100
AcDbLine
 62
2
  6
CONTINUOUS
 10
5.494175154
 20
5.7342853277
 11
5.494175154
 21
5.4467853277
  0
INSERT
  5
404
100
AcDbEntity
  8
SCHEME_DIMS
100
AcDbBlockReference
 62
2
  6
CONTINUOUS
  2
_FILLED
 10
5.494175154
 20
4.7092853277
 41
0.1875
 42
0.1875
 43
0.1875
 50
270.0
  0
INSERT
  5
405
100
AcDbEntity
  8
SCHEME_DIMS
100
AcDbBlockReference
 62
2
  6
CONTINUOUS
  2
_FILLED
 10
5.494175154
 20
5.7342853277
 41
0.1875
 42
0.1875
 43
0.1875
 50
90.0
  0
ENDBLK
  5
406
100
AcDbEntity
  8
0
  6
BYBLOCK
 62
0
100
AcDbBlockEnd
  0
BLOCK
  5
407
100
AcDbEntity
  8
SCHEME_DIMS
100
AcDbBlockBegin
 62
2
  6
CONTINUOUS
  2
*D1
 70
65
 10
0.0
 20
0.0
  3
*D1
  1

  0
MTEXT
  5
408
100
AcDbEntity
  8
SCHEME_DIMS
100
AcDbMText
 62
2
  6
CONTINUOUS
  7
TEXTSTYLE_5
 71
2
 72
1
 10
4.302175154
 20
7.5215613629
 30
0.0
 11
1.0
 21
0.0
 31
0.0
 44
0.9
  1
{\Fgdt;n}\Ftxt;30,1\P[1.18]
 40
0.1
 41
0.6
  0
LINE
  5
409
100
AcDbEntity
  8
SCHEME_DIMS
100
AcDbLine
 62
2
  6
CONTINUOUS
 10
4.994175154
 20
8.5001289758
 11
4.994175154
 21
7.3465613629
  0
LINE
  5
40A
100
AcDbEntity
  8
SCHEME_DIMS
100
AcDbLine
 62
2
  6
CONTINUOUS
 10
3.810175154
 20
8.5018280324
 11
3.810175154
 21
7.3465613629
  0
LINE
  5
40B
100
AcDbEntity
  8
SCHEME_DIMS
100
AcDbLine
 62
2
  6
CONTINUOUS
 10
4.994175154
 20
7.4715613629
 11
5.394175154
 21
7.4715613629
  0
LINE
  5
40C
100
AcDbEntity
  8
SCHEME_DIMS
100
AcDbLine
 62
2
  6
CONTINUOUS
 10
3.810175154
 20
7.4715613629
 11
3.410175154
 21
7.4715613629
  0
INSERT
  5
40D
100
AcDbEntity
  8
SCHEME_DIMS
100
AcDbBlockReference
 62
2
  6
CONTINUOUS
  2
_FILLED
 10
4.994175154
 20
7.4715613629
 41
0.1875
 42
0.1875
 43
0.1875
 50
180.0
  0
INSERT
  5
40E
100
AcDbEntity
  8
SCHEME_DIMS
100
AcDbBlockReference
 62
2
  6
CONTINUOUS
  2
_FILLED
 10
3.810175154
 20
7.4715613629
 41
0.1875
 42
0.1875
 43
0.1875
  0
ENDBLK
  5
40F
100
AcDbEntity
  8
0
  6
BYBLOCK
 62
0
100
AcDbBlockEnd
  0
BLOCK
  5
410
100
AcDbEntity
  8
SCHEME_DIMS
100
AcDbBlockBegin
 62
2
  6
CONTINUOUS
  2
*D2
 70
65
 10
0.0
 20
0.0
  3
*D2
  1

  0
MTEXT
  5
411
100
AcDbEntity
  8
SCHEME_DIMS
100
AcDbMText
 62
2
  6
CONTINUOUS
  7
STANDARD
 71
3
 72
1
 10
7.2820636093
 20
6.8762827651
 30
0.0
 11
1.0
 21
0.0
 31
0.0
 44
0.9
  1
15\P[.59]
 40
0.1
 41
0.5
  0
LINE
  5
412
100
AcDbEntity
  8
SCHEME_DIMS
100
AcDbLine
 62
2
  6
CONTINUOUS
 10
8.0070636093
 20
6.140512349
 11
8.0070636093
 21
6.9512827651
  0
LINE
  5
413
100
AcDbEntity
  8
SCHEME_DIMS
100
AcDbLine
 62
2
  6
CONTINUOUS
 10
8.5970636093
 20
6.3453843803
 11
8.5970636093
 21
6.9512827651
  0
LINE
  5
414
100
AcDbEntity
  8
SCHEME_DIMS
100
AcDbLine
 62
2
  6
CONTINUOUS
 10
8.0070636093
 20
6.8262827651
 11
8.3020636093
 21
6.8262827651
  0
LINE
  5
415
100
AcDbEntity
  8
SCHEME_DIMS
100
AcDbLine
 62
2
  6
CONTINUOUS
 10
8.3020636093
 20
6.8262827651
 11
7.6820636093
 21
6.8262827651
  0
LINE
  5
416
100
AcDbEntity
  8
SCHEME_DIMS
100
AcDbLine
 62
2
  6
CONTINUOUS
 10
8.5970636093
 20
6.8262827651
 11
8.3020636093
 21
6.8262827651
  0
INSERT
  5
417
100
AcDbEntity
  8
SCHEME_DIMS
100
AcDbBlockReference
 62
2
  6
CONTINUOUS
  2
_FILLED
 10
8.0070636093
 20
6.8262827651
 41
0.1875
 42
0.1875
 43
0.1875
 50
180.0
  0
INSERT
  5
418
100
AcDbEntity
  8
SCHEME_DIMS
100
AcDbBlockReference
 62
2
  6
CONTINUOUS
  2
_FILLED
 10
8.5970636093
 20
6.8262827651
 41
0.1875
 42
0.1875
 43
0.1875
  0
ENDBLK
  5
419
100
AcDbEntity
  8
0
  6
BYBLOCK
 62
0
100
AcDbBlockEnd
  0
BLOCK
  5
41A
100
AcDbEntity
  8
SCHEME_DIMS
100
AcDbBlockBegin
 62
2
  6
CONTINUOUS
  2
*D3
 70
65
 10
0.0
 20
0.0
  3
*D3
  1

  0
MTEXT
  5
41B
100
AcDbEntity
  8
SCHEME_DIMS
100
AcDbMText
 62
2
  6
CONTINUOUS
  7
STANDARD
 71
2
 72
1
 10
8.4995636093
 20
7.3762827651
 30
0.0
 11
1.0
 21
0.0
 31
0.0
 44
0.9
  1
30,1\P[1.19]
 40
0.1
 41
0.6
  0
LINE
  5
41C
100
AcDbEntity
  8
SCHEME_DIMS
100
AcDbLine
 62
2
  6
CONTINUOUS
 10
8.0070636093
 20
6.1191078084
 11
8.0070636093
 21
7.4512827651
  0
LINE
  5
41D
100
AcDbEntity
  8
SCHEME_DIMS
100
AcDbLine
 62
2
  6
CONTINUOUS
 10
9.1920636093
 20
6.3484421718
 11
9.1920636093
 21
7.4512827651
  0
LINE
  5
41E
100
AcDbEntity
  8
SCHEME_DIMS
100
AcDbLine
 62
2
  6
CONTINUOUS
 10
8.0070636093
 20
7.3262827651
 11
7.6070636093
 21
7.3262827651
  0
LINE
  5
41F
100
AcDbEntity
  8
SCHEME_DIMS
100
AcDbLine
 62
2
  6
CONTINUOUS
 10
9.1920636093
 20
7.3262827651
 11
9.5920636093
 21
7.3262827651
  0
INSERT
  5
420
100
AcDbEntity
  8
SCHEME_DIMS
100
AcDbBlockReference
 62
2
  6
CONTINUOUS
  2
_FILLED
 10
8.0070636093
 20
7.3262827651
 41
0.1875
 42
0.1875
 43
0.1875
  0
INSERT
  5
421
100
AcDbEntity
  8
SCHEME_DIMS
100
AcDbBlockReference
 62
2
  6
CONTINUOUS
  2
_FILLED
 10
9.1920636093
 20
7.3262827651
 41
0.1875
 42
0.1875
 43
0.1875
 50
180.0
  0
ENDBLK
  5
422
100
AcDbEntity
  8
0
  6
BYBLOCK
 62
0
100
AcDbBlockEnd
  0
BLOCK
  5
423
100
AcDbEntity
  8
SCHEME_DIMS
100
AcDbBlockBegin
 62
2
  6
CONTINUOUS
  2
*D4
 70
65
 10
0.0
 20
0.0
  3
*D4
  1

  0
MTEXT
  5
424
100
AcDbEntity
  8
SCHEME_DIMS
100
AcDbMText
 62
2
  6
CONTINUOUS
  7
STANDARD
 71
2
 72
1
 10
11.1750923363
 20
5.6422853277
 30
0.0
 11
1.0
 21
0.0
 31
0.0
 44
0.9
  1
41\P[1.62]
 40
0.1
 41
0.6
  0
LINE
  5
425
100
AcDbEntity
  8
SCHEME_DIMS
100
AcDbLine
 62
2
  6
CONTINUOUS
 10
12.1434598498
 20
4.7092853277
 11
11.2500923363
 21
4.7092853277
  0
LINE
  5
426
100
AcDbEntity
  8
SCHEME_DIMS
100
AcDbLine
 62
2
  6
CONTINUOUS
 10
12.2413282465
 20
6.3252853277
 11
11.2500923363
 21
6.3252853277
  0
LINE
  5
427
100
AcDbEntity
  8
SCHEME_DIMS
100
AcDbLine
 62
2
  6
CONTINUOUS
 10
11.3750923363
 20
4.7092853277
 11
11.3750923363
 21
5.2922853277
  0
LINE
  5
428
100
AcDbEntity
  8
SCHEME_DIMS
100
AcDbLine
 62
2
  6
CONTINUOUS
 10
11.3750923363
 20
6.3252853277
 11
11.3750923363
 21
5.7422853277
  0
INSERT
  5
429
100
AcDbEntity
  8
SCHEME_DIMS
100
AcDbBlockReference
 62
2
  6
CONTINUOUS
  2
_FILLED
 10
11.3750923363
 20
4.7092853277
 41
0.1875
 42
0.1875
 43
0.1875
 50
270.0
  0
INSERT
  5
42A
100
AcDbEntity
  8
SCHEME_DIMS
100
AcDbBlockReference
 62
2
  6
CONTINUOUS
  2
_FILLED
 10
11.3750923363
 20
6.3252853277
 41
0.1875
 42
0.1875
 43
0.1875
 50
90.0
  0
ENDBLK
  5
42B
100
AcDbEntity
  8
0
  6
BYBLOCK
 62
0
100
AcDbBlockEnd
  0
ENDSEC
  0
SECTION
  2
ENTITIES
  0
MTEXT
  5
42C
100
AcDbEntity
  8
0
100
AcDbMText
 62
2
  6
CONTINUOUS
  7
TEXTSTYLE_2
 71
2
 72
1
 10
11.0287658475
 20
1.794867839
 30
0.0
 11
1.0
 21
0.0
 31
0.0
 44
0.9
  1
THIRD ANGLE PROJECTION
 40
0.1
 41
1.76
  0
MTEXT
  5
42D
100
AcDbEntity
  8
0
100
AcDbMText
 62
2
  6
CONTINUOUS
  7
STANDARD
 71
1
 72
1
 10
12.88
 20
1.457
 30
0.0
 11
1.0
 21
0.0
 31
0.0
 44
0.9
  1
DRAWING NO.
 40
0.08
 41
0.88
  0
MTEXT
  5
42E
100
AcDbEntity
  8
0
100
AcDbMText
 62
2
  6
CONTINUOUS
  7
TEXTSTYLE_3
 71
2
 72
1
 10
11.03
 20
2.516432
 30
0.0
 11
1.0
 21
0.0
 31
0.0
 44
0.9
  1
and is proprietary in general
 40
0.08
 41
1.972
  0
MTEXT
  5
42F
100
AcDbEntity
  8
0
100
AcDbMText
 62
2
  6
CONTINUOUS
  7
TEXTSTYLE_3
 71
2
 72
1
 10
11.03
 20
2.396432
 30
0.0
 11
1.0
 21
0.0
 31
0.0
 44
0.9
  1
and in detail.  Its contents
 40
0.08
 41
1.904
  0
MTEXT
  5
430
100
AcDbEntity
  8
0
100
AcDbMText
 62
2
  6
CONTINUOUS
  7
TEXTSTYLE_3
 71
2
 72
1
 10
11.03
 20
2.276432
 30
0.0
 11
1.0
 21
0.0
 31
0.0
 44
0.9
  1
shall not be revealed to
 40
0.08
 41
1.632
  0
MTEXT
  5
431
100
AcDbEntity
  8
0
100
AcDbMText
 62
2
  6
CONTINUOUS
  7
TEXTSTYLE_3
 71
2
 72
1
 10
11.03
 20
2.156432
 30
0.0
 11
1.0
 21
0.0
 31
0.0
 44
0.9
  1
outside parties without
 40
0.08
 41
1.564
  0
MTEXT
  5
432
100
AcDbEntity
  8
0
100
AcDbMText
 62
2
  6
CONTINUOUS
  7
TEXTSTYLE_3
 71
2
 72
1
 10
11.03
 20
2.036432
 30
0.0
 11
1.0
 21
0.0
 31
0.0
 44
0.9
  1
written consent of BANNER.
 40
0.08
 41
1.768
  0
MTEXT
  5
433
100
AcDbEntity
  8
0
100
AcDbMText
 62
2
  6
CONTINUOUS
  7
TEXTSTYLE_2
 71
1
 72
1
 10
12.08
 20
2.217
 30
0.0
 11
1.0
 21
0.0
 31
0.0
 44
0.9
  1
TITLE
 40
0.1
 41
0.4
  0
MTEXT
  5
434
100
AcDbEntity
  8
0
100
AcDbMText
 62
2
  6
CONTINUOUS
  7
STANDARD
 71
1
 72
1
 10
12.08
 20
1.457
 30
0.0
 11
1.0
 21
0.0
 31
0.0
 44
0.9
  1
SIZE
 40
0.08
 41
0.32
  0
MTEXT
  5
435
100
AcDbEntity
  8
0
100
AcDbMText
 62
2
  6
CONTINUOUS
  7
STANDARD
 71
1
 72
1
 10
12.08
 20
1.087
 30
0.0
 11
1.0
 21
0.0
 31
0.0
 44
0.9
  1
SCALE
 40
0.08
 41
0.4
  0
MTEXT
  5
436
100
AcDbEntity
  8
0
100
AcDbMText
 62
2
  6
CONTINUOUS
  7
TEXTSTYLE_2
 71
2
 72
1
 10
12.5
 20
1.337
 30
0.0
 11
1.0
 21
0.0
 31
0.0
 44
0.9
  1
B
 40
0.1
 41
0.08
  0
MTEXT
  5
437
100
AcDbEntity
  8
0
100
AcDbMText
 62
2
  6
CONTINUOUS
  7
TEXTSTYLE_3
 71
2
 72
1
 10
11.03
 20
2.636432
 30
0.0
 11
1.0
 21
0.0
 31
0.0
 44
0.9
  1
of BANNER ENGINEERING CORP.
 40
0.08
 41
1.836
  0
MTEXT
  5
438
100
AcDbEntity
  8
0
100
AcDbMText
 62
2
  6
CONTINUOUS
  7
TEXTSTYLE_3
 71
2
 72
1
 10
11.03
 20
2.756432
 30
0.0
 11
1.0
 21
0.0
 31
0.0
 44
0.9
  1
This drawing is the property
 40
0.08
 41
1.904
  0
MTEXT
  5
439
100
AcDbEntity
  8
0
100
AcDbMText
 62
2
  6
CONTINUOUS
  7
TEXTSTYLE_2
 71
2
 72
1
 10
15.03
 20
2.4134
 30
0.0
 11
1.0
 21
0.0
 31
0.0
 44
0.9
  1
MINNEAPOLIS, MN 55440
 40
0.1
 41
1.68
  0
MTEXT
  5
43A
100
AcDbEntity
  8
0
100
AcDbMText
 62
2
  6
CONTINUOUS
  7
STANDARD
 71
1
 72
1
 10
14.255
 20
1.087
 30
0.0
 11
1.0
 21
0.0
 31
0.0
 44
0.9
  1
SHEET
 40
0.08
 41
0.4
  0
MTEXT
  5
43B
100
AcDbEntity
  8
0
100
AcDbMText
 62
2
  6
CONTINUOUS
  7
STANDARD
 71
1
 72
1
 10
15.63
 20
1.457
 30
0.0
 11
1.0
 21
0.0
 31
0.0
 44
0.9
  1
REV.
 40
0.08
 41
0.32
  0
MTEXT
  5
43C
100
AcDbEntity
  8
0
100
AcDbMText
 62
2
  6
CONTINUOUS
  7
STANDARD
 71
3
 72
1
 10
16.38
 20
0.835443
 30
0.0
 11
1.0
 21
0.0
 31
0.0
 44
0.9
  1
PRO/E
 40
0.07
 41
0.35
  0
MTEXT
  5
43D
100
AcDbEntity
  8
0
100
AcDbMText
 62
2
  6
CONTINUOUS
  7
TEXTSTYLE_4
 71
2
 72
1
 10
15.03
 20
2.751049
 30
0.0
 11
1.0
 21
0.0
 31
0.0
 44
0.9
  1
BANNER ENGINEERING CORP.
 40
0.12
 41
2.6496
  0
MTEXT
  5
43E
100
AcDbEntity
  8
0
100
AcDbMText
 62
2
  6
CONTINUOUS
  7
TEXTSTYLE_2
 71
2
 72
1
 10
15.03
 20
2.5724
 30
0.0
 11
1.0
 21
0.0
 31
0.0
 44
0.9
  1
P.O. BOX 9414
 40
0.1
 41
1.04
  0
MTEXT
  5
43F
100
AcDbEntity
  8
0
100
AcDbMText
 62
2
  6
CONTINUOUS
  7
TEXTSTYLE_2
 71
2
 72
1
 10
9.485
 20
10.312
 30
0.0
 11
1.0
 21
0.0
 31
0.0
 44
0.9
  1
4
 40
0.1
 41
0.08
  0
MTEXT
  5
440
100
AcDbEntity
  8
0
100
AcDbMText
 62
2
  6
CONTINUOUS
  7
TEXTSTYLE_2
 71
2
 72
1
 10
11.455
 20
10.312
 30
0.0
 11
1.0
 21
0.0
 31
0.0
 44
0.9
  1
3
 40
0.1
 41
0.08
  0
MTEXT
  5
441
100
AcDbEntity
  8
0
100
AcDbMText
 62
2
  6
CONTINUOUS
  7
TEXTSTYLE_2
 71
2
 72
1
 10
13.425
 20
10.312
 30
0.0
 11
1.0
 21
0.0
 31
0.0
 44
0.9
  1
2
 40
0.1
 41
0.08
  0
MTEXT
  5
442
100
AcDbEntity
  8
0
100
AcDbMText
 62
2
  6
CONTINUOUS
  7
TEXTSTYLE_2
 71
2
 72
1
 10
15.395
 20
10.312
 30
0.0
 11
1.0
 21
0.0
 31
0.0
 44
0.9
  1
1
 40
0.1
 41
0.08
  0
MTEXT
  5
443
100
AcDbEntity
  8
0
100
AcDbMText
 62
2
  6
CONTINUOUS
  7
TEXTSTYLE_2
 71
2
 72
1
 10
3.575
 20
10.312
 30
0.0
 11
1.0
 21
0.0
 31
0.0
 44
0.9
  1
7
 40
0.1
 41
0.08
  0
MTEXT
  5
444
100
AcDbEntity
  8
0
100
AcDbMText
 62
2
  6
CONTINUOUS
  7
TEXTSTYLE_2
 71
2
 72
1
 10
5.545
 20
10.312
 30
0.0
 11
1.0
 21
0.0
 31
0.0
 44
0.9
  1
6
 40
0.1
 41
0.08
  0
MTEXT
  5
445
100
AcDbEntity
  8
0
100
AcDbMText
 62
2
  6
CONTINUOUS
  7
TEXTSTYLE_2
 71
2
 72
1
 10
7.515
 20
10.312
 30
0.0
 11
1.0
 21
0.0
 31
0.0
 44
0.9
  1
5
 40
0.1
 41
0.08
  0
MTEXT
  5
446
100
AcDbEntity
  8
0
100
AcDbMText
 62
2
  6
CONTINUOUS
  7
TEXTSTYLE_2
 71
2
 72
1
 10
1.605
 20
10.312
 30
0.0
 11
1.0
 21
0.0
 31
0.0
 44
0.9
  1
8
 40
0.1
 41
0.08
  0
MTEXT
  5
447
100
AcDbEntity
  8
0
100
AcDbMText
 62
2
  6
CONTINUOUS
  7
TEXTSTYLE_2
 71
2
 72
1
 10
1.605
 20
0.787
 30
0.0
 11
1.0
 21
0.0
 31
0.0
 44
0.9
  1
8
 40
0.1
 41
0.08
  0
MTEXT
  5
448
100
AcDbEntity
  8
0
100
AcDbMText
 62
2
  6
CONTINUOUS
  7
TEXTSTYLE_2
 71
2
 72
1
 10
3.575
 20
0.787
 30
0.0
 11
1.0
 21
0.0
 31
0.0
 44
0.9
  1
7
 40
0.1
 41
0.08
  0
MTEXT
  5
449
100
AcDbEntity
  8
0
100
AcDbMText
 62
2
  6
CONTINUOUS
  7
TEXTSTYLE_2
 71
2
 72
1
 10
5.545
 20
0.787
 30
0.0
 11
1.0
 21
0.0
 31
0.0
 44
0.9
  1
6
 40
0.1
 41
0.08
  0
MTEXT
  5
44A
100
AcDbEntity
  8
0
100
AcDbMText
 62
2
  6
CONTINUOUS
  7
TEXTSTYLE_2
 71
2
 72
1
 10
7.515
 20
0.787
 30
0.0
 11
1.0
 21
0.0
 31
0.0
 44
0.9
  1
5
 40
0.1
 41
0.08
  0
MTEXT
  5
44B
100
AcDbEntity
  8
0
100
AcDbMText
 62
2
  6
CONTINUOUS
  7
TEXTSTYLE_2
 71
2
 72
1
 10
9.485
 20
0.787
 30
0.0
 11
1.0
 21
0.0
 31
0.0
 44
0.9
  1
4
 40
0.1
 41
0.08
  0
MTEXT
  5
44C
100
AcDbEntity
  8
0
100
AcDbMText
 62
2
  6
CONTINUOUS
  7
TEXTSTYLE_2
 71
2
 72
1
 10
11.455
 20
0.787
 30
0.0
 11
1.0
 21
0.0
 31
0.0
 44
0.9
  1
3
 40
0.1
 41
0.08
  0
MTEXT
  5
44D
100
AcDbEntity
  8
0
100
AcDbMText
 62
2
  6
CONTINUOUS
  7
TEXTSTYLE_2
 71
2
 72
1
 10
13.425
 20
0.787
 30
0.0
 11
1.0
 21
0.0
 31
0.0
 44
0.9
  1
2
 40
0.1
 41
0.08
  0
MTEXT
  5
44E
100
AcDbEntity
  8
0
100
AcDbMText
 62
2
  6
CONTINUOUS
  7
TEXTSTYLE_2
 71
2
 72
1
 10
15.395
 20
0.787
 30
0.0
 11
1.0
 21
0.0
 31
0.0
 44
0.9
  1
1
 40
0.1
 41
0.08
  0
MTEXT
  5
44F
100
AcDbEntity
  8
0
100
AcDbMText
 62
2
  6
CONTINUOUS
  7
TEXTSTYLE_2
 71
3
 72
1
 10
0.52
 20
4.3995
 30
0.0
 11
1.0
 21
0.0
 31
0.0
 44
0.9
  1
B
 40
0.1
 41
0.08
  0
MTEXT
  5
450
100
AcDbEntity
  8
0
100
AcDbMText
 62
2
  6
CONTINUOUS
  7
TEXTSTYLE_2
 71
3
 72
1
 10
0.52
 20
2.0995
 30
0.0
 11
1.0
 21
0.0
 31
0.0
 44
0.9
  1
A
 40
0.1
 41
0.08
  0
MTEXT
  5
451
100
AcDbEntity
  8
0
100
AcDbMText
 62
2
  6
CONTINUOUS
  7
TEXTSTYLE_2
 71
3
 72
1
 10
0.52
 20
8.9995
 30
0.0
 11
1.0
 21
0.0
 31
0.0
 44
0.9
  1
D
 40
0.1
 41
0.08
  0
MTEXT
  5
452
100
AcDbEntity
  8
0
100
AcDbMText
 62
2
  6
CONTINUOUS
  7
TEXTSTYLE_2
 71
3
 72
1
 10
0.52
 20
6.6995
 30
0.0
 11
1.0
 21
0.0
 31
0.0
 44
0.9
  1
C
 40
0.1
 41
0.08
  0
MTEXT
  5
453
100
AcDbEntity
  8
0
100
AcDbMText
 62
2
  6
CONTINUOUS
  7
TEXTSTYLE_2
 71
1
 72
1
 10
16.48
 20
8.9995
 30
0.0
 11
1.0
 21
0.0
 31
0.0
 44
0.9
  1
D
 40
0.1
 41
0.08
  0
MTEXT
  5
454
100
AcDbEntity
  8
0
100
AcDbMText
 62
2
  6
CONTINUOUS
  7
TEXTSTYLE_2
 71
1
 72
1
 10
16.48
 20
6.6995
 30
0.0
 11
1.0
 21
0.0
 31
0.0
 44
0.9
  1
C
 40
0.1
 41
0.08
  0
MTEXT
  5
455
100
AcDbEntity
  8
0
100
AcDbMText
 62
2
  6
CONTINUOUS
  7
TEXTSTYLE_2
 71
1
 72
1
 10
16.48
 20
4.3995
 30
0.0
 11
1.0
 21
0.0
 31
0.0
 44
0.9
  1
B
 40
0.1
 41
0.08
  0
MTEXT
  5
456
100
AcDbEntity
  8
0
100
AcDbMText
 62
2
  6
CONTINUOUS
  7
TEXTSTYLE_2
 71
1
 72
1
 10
16.48
 20
2.0995
 30
0.0
 11
1.0
 21
0.0
 31
0.0
 44
0.9
  1
A
 40
0.1
 41
0.08
  0
MTEXT
  5
457
100
AcDbEntity
  8
0
100
AcDbMText
 62
2
  6
CONTINUOUS
  7
STANDARD
 71
1
 72
1
 10
14.819264911
 20
1.0627941725
 30
0.0
 11
1.0
 21
0.0
 31
0.0
 44
0.9
  1
1 OF 1
 40
0.1
 41
0.6
  0
MTEXT
  5
458
100
AcDbEntity
  8
0
100
AcDbMText
 62
7
  6
CONTINUOUS
  7
STANDARD
 71
1
 72
1
 10
13.8911999818
 20
1.3747321586
 30
0.0
 11
1.0
 21
0.0
 31
0.0
 44
0.9
  1
155310
 40
0.12
 41
0.72
  0
MTEXT
  5
459
100
AcDbEntity
  8
0
100
AcDbMText
 62
2
  6
CONTINUOUS
  7
STANDARD
 71
1
 72
1
 10
12.644264911
 20
1.0627941725
 30
0.0
 11
1.0
 21
0.0
 31
0.0
 44
0.9
  1
1:1
 40
0.1
 41
0.3
  0
MTEXT
  5
45A
100
AcDbEntity
  8
0
100
AcDbMText
 62
2
  6
CONTINUOUS
  7
STANDARD
 71
1
 72
1
 10
1.0597007627
 20
1.6202922458
 30
0.0
 11
1.0
 21
0.0
 31
0.0
 44
0.9
  1
NOTES:\P1. ALL DIMENSIONS ARE MILLIMETERS [INCHES] UNLESS OTHERWISE NOTED.
 40
0.1
 41
6.6
  0
INSERT
  5
45B
100
AcDbEntity
  8
0
100
AcDbBlockReference
 62
2
  6
CONTINUOUS
  2
BANNER_LOGO_TITLEBLOCK_BL0
 10
12.9086867042
 20
2.5403783405
  0
DIMENSION
  5
45C
100
AcDbEntity
  8
SCHEME_DIMS
100
AcDbDimension
 62
2
  6
CONTINUOUS
  2
*D0
 10
5.494175154
 20
5.7342853277
 11
5.419175154
 21
5.2217853277
 70
160
 71
2
 42
26.035
  3
DIMSTYLE_1
100
AcDbAlignedDimension
 13
4.7258076406
 23
4.7092853277
 14
5.229528654
 24
5.7342853277
 50
90.0
100
AcDbRotatedDimension
  0
DIMENSION
  5
45D
100
AcDbEntity
  8
SCHEME_DIMS
100
AcDbDimension
 62
2
  6
CONTINUOUS
  2
*D1
 10
3.810175154
 20
7.4715613629
 11
4.3438418207
 21
7.3965613629
 70
160
 71
2
 42
30.0736
  1
%%c<>
  3
DIMSTYLE_1
100
AcDbAlignedDimension
 13
4.994175154
 23
8.5001289758
 14
3.810175154
 24
8.5018280324
 50
180.0
100
AcDbRotatedDimension
  0
DIMENSION
  5
45E
100
AcDbEntity
  8
SCHEME_DIMS
100
AcDbDimension
 62
2
  6
CONTINUOUS
  2
*D2
 10
8.5970636093
 20
6.8262827651
 11
7.1820636093
 21
6.7512827651
 70
160
 71
3
 42
14.986
  3
DIMSTYLE_1
100
AcDbAlignedDimension
 13
8.0070636093
 23
6.140512349
 14
8.5970636093
 24
6.3453843803
100
AcDbRotatedDimension
  0
DIMENSION
  5
45F
100
AcDbEntity
  8
SCHEME_DIMS
100
AcDbDimension
 62
2
  6
CONTINUOUS
  2
*D3
 10
9.1920636093
 20
7.3262827651
 11
8.4745636093
 21
7.2512827651
 70
160
 71
2
 42
30.099
  3
DIMSTYLE_1
100
AcDbAlignedDimension
 13
8.0070636093
 23
6.1191078084
 14
9.1920636093
 24
6.3484421718
100
AcDbRotatedDimension
  0
DIMENSION
  5
460
100
AcDbEntity
  8
SCHEME_DIMS
100
AcDbDimension
 62
2
  6
CONTINUOUS
  2
*D4
 10
11.3750923363
 20
6.3252853277
 11
11.3000923363
 21
5.5172853277
 70
160
 71
2
 42
41.0464
  3
DIMSTYLE_1
100
AcDbAlignedDimension
 13
12.1434598498
 23
4.7092853277
 14
12.2413282465
 24
6.3252853277
 50
90.0
100
AcDbRotatedDimension
  0
LINE
  5
461
100
AcDbEntity
  8
0
100
AcDbLine
 62
2
  6
CONTINUOUS
 10
16.38
 20
0.887
 11
12.03
 21
0.887
  0
LINE
  5
462
100
AcDbEntity
  8
0
100
AcDbLine
 62
2
  6
CONTINUOUS
 10
16.38
 20
0.887
 11
16.38
 21
2.807
  0
LINE
  5
463
100
AcDbEntity
  8
0
100
AcDbLine
 62
2
  6
CONTINUOUS
 10
16.38
 20
2.807
 11
12.03
 21
2.807
  0
LINE
  5
464
100
AcDbEntity
  8
0
100
AcDbLine
 62
2
  6
CONTINUOUS
 10
12.03
 20
0.887
 11
12.03
 21
2.807
  0
MTEXT
  5
465
100
AcDbEntity
  8
NOTES
100
AcDbMText
 62
7
  6
CONTINUOUS
  7
STANDARD
 71
2
 72
1
 10
16.155
 20
1.367
 30
0.0
 11
1.0
 21
0.0
 31
0.0
 44
0.9
  1
1
 40
0.1
 41
0.1
  0
MTEXT
  5
466
100
AcDbEntity
  8
NOTES
100
AcDbMText
 62
7
  6
CONTINUOUS
  7
STANDARD
 71
2
 72
1
 10
14.205
 20
1.967
 30
0.0
 11
1.0
 21
0.0
 31
0.0
 44
0.9
  1
T18 SN6D/SP6D CABLE/PIGTAIL\PWEB CAD DRAWINGS 2D/3D
 40
0.1
 41
2.7
  0
MTEXT
  5
467
100
AcDbEntity
  8
NOTES
100
AcDbMText
 62
2
  6
CONTINUOUS
  7
STANDARD
 71
2
 72
1
 10
14.7687159018
 20
6.9208500481
 30
0.0
 11
1.0
 21
0.0
 31
0.0
 44
0.9
  1
ISOMETRIC VIEW\PSCALE  1:1
 40
0.1
 41
1.4
  0
LEADER
  5
468
100
AcDbEntity
  8
NOTES
100
AcDbLeader
 62
2
  6
CONTINUOUS
  3
STANDARD
 71
1
 72
0
 73
0
 75
0
 40
0.1
 41
0.9
 76
3
 10
8.1624528477
 20
5.409638314
 30
0.0
 10
7.9112855263
 20
4.9847349832
 30
0.0
 10
7.6612855263
 20
4.9847349832
 30
0.0
340
469
1001
ACAD
1000
DSTYLE
1002
{
1070
77
1070
0
1002
}
  0
MTEXT
  5
469
102
{ACAD_REACTORS
330
468
102
}
100
AcDbEntity
  8
NOTES
100
AcDbMText
 62
2
  6
CONTINUOUS
  7
STANDARD
 71
3
 72
1
 10
7.6612855263
 20
5.0347349832
 30
0.0
 11
1.0
 21
0.0
 31
0.0
 44
0.9
  1
M18 X 1 G
 40
0.1
 41
0.9
  0
LINE
  5
46A
100
AcDbEntity
  8
0
100
AcDbLine
 62
2
  6
CONTINUOUS
 10
0.47
 20
5.586103
 11
0.47
 21
5.412897
  0
LINE
  5
46B
100
AcDbEntity
  8
0
100
AcDbLine
 62
2
  6
CONTINUOUS
 10
0.62
 20
10.112
 11
0.62
 21
0.887
  0
LINE
  5
46C
100
AcDbEntity
  8
0
100
AcDbLine
 62
2
  6
CONTINUOUS
 10
2.59
 20
0.887
 11
2.59
 21
0.637
  0
LINE
  5
46D
100
AcDbEntity
  8
0
100
AcDbLine
 62
2
  6
CONTINUOUS
 10
2.59
 20
10.112
 11
2.59
 21
10.362
  0
LINE
  5
46E
100
AcDbEntity
  8
0
100
AcDbLine
 62
2
  6
CONTINUOUS
 10
8.413397
 20
0.737
 11
8.586603
 21
0.737
  0
LINE
  5
46F
100
AcDbEntity
  8
0
100
AcDbLine
 62
7
  6
CONTINUOUS
 10
11.1389508475
 20
1.425992839
 11
11.7453418475
 21
1.495385839
  0
LINE
  5
470
100
AcDbEntity
  8
0
100
AcDbLine
 62
2
  6
CONTINUOUS
 10
0.62
 20
0.887
 11
16.38
 21
0.887
  0
LINE
  5
471
100
AcDbEntity
  8
0
100
AcDbLine
 62
2
  6
CONTINUOUS
 10
12.03
 20
1.137
 11
16.38
 21
1.137
  0
LINE
  5
472
100
AcDbEntity
  8
0
100
AcDbLine
 62
7
  6
CONTINUOUS
 10
10.2121898475
 20
1.243294839
 11
10.4342808475
 21
1.243294839
  0
LINE
  5
473
100
AcDbEntity
  8
0
100
AcDbLine
 62
7
  6
CONTINUOUS
 10
10.4842808475
 20
1.243294839
 11
10.5842808475
 21
1.243294839
  0
LINE
  5
474
100
AcDbEntity
  8
0
100
AcDbLine
 62
7
  6
CONTINUOUS
 10
10.6342808475
 20
1.243294839
 11
10.8563718475
 21
1.243294839
  0
LINE
  5
475
100
AcDbEntity
  8
0
100
AcDbLine
 62
7
  6
CONTINUOUS
 10
11.0389508475
 20
1.243294839
 11
11.3171028475
 21
1.243294839
  0
LINE
  5
476
100
AcDbEntity
  8
0
100
AcDbLine
 62
7
  6
CONTINUOUS
 10
11.3671028475
 20
1.243294839
 11
11.5171888475
 21
1.243294839
  0
LINE
  5
477
100
AcDbEntity
  8
0
100
AcDbLine
 62
7
  6
CONTINUOUS
 10
11.5671888475
 20
1.243294839
 11
11.8453418475
 21
1.243294839
  0
LINE
  5
478
100
AcDbEntity
  8
0
100
AcDbLine
 62
7
  6
CONTINUOUS
 10
11.7453418475
 20
0.991203839
 11
11.1389508475
 21
1.060596839
  0
LINE
  5
479
100
AcDbEntity
  8
0
100
AcDbLine
 62
2
  6
CONTINUOUS
 10
4.56
 20
0.887
 11
4.56
 21
0.637
  0
LINE
  5
47A
100
AcDbEntity
  8
0
100
AcDbLine
 62
2
  6
CONTINUOUS
 10
4.56
 20
10.112
 11
4.56
 21
10.362
  0
LINE
  5
47B
100
AcDbEntity
  8
0
100
AcDbLine
 62
2
  6
CONTINUOUS
 10
0.47
 20
5.412897
 11
0.62
 21
5.4995
  0
LINE
  5
47C
100
AcDbEntity
  8
0
100
AcDbLine
 62
2
  6
CONTINUOUS
 10
12.03
 20
1.507
 11
16.38
 21
1.507
  0
LINE
  5
47D
100
AcDbEntity
  8
0
100
AcDbLine
 62
2
  6
CONTINUOUS
 10
10.03
 20
1.907
 11
12.03
 21
1.907
  0
LINE
  5
47E
100
AcDbEntity
  8
0
100
AcDbLine
 62
2
  6
CONTINUOUS
 10
0.62
 20
5.4995
 11
0.47
 21
5.586103
  0
LINE
  5
47F
100
AcDbEntity
  8
0
100
AcDbLine
 62
2
  6
CONTINUOUS
 10
12.03
 20
2.267
 11
16.38
 21
2.267
  0
LINE
  5
480
100
AcDbEntity
  8
0
100
AcDbLine
 62
2
  6
CONTINUOUS
 10
8.5
 20
10.112
 11
8.586603
 21
10.262
  0
LINE
  5
481
100
AcDbEntity
  8
0
100
AcDbLine
 62
2
  6
CONTINUOUS
 10
16.38
 20
2.807
 11
10.03
 21
2.807
  0
LINE
  5
482
100
AcDbEntity
  8
0
100
AcDbLine
 62
2
  6
CONTINUOUS
 10
0.62
 20
3.1995
 11
0.37
 21
3.1995
  0
LINE
  5
483
100
AcDbEntity
  8
0
100
AcDbLine
 62
2
  6
CONTINUOUS
 10
16.38
 20
3.1995
 11
16.63
 21
3.1995
  0
LINE
  5
484
100
AcDbEntity
  8
0
100
AcDbLine
 62
2
  6
CONTINUOUS
 10
8.586603
 20
0.737
 11
8.5
 21
0.887
  0
LINE
  5
485
100
AcDbEntity
  8
0
100
AcDbLine
 62
2
  6
CONTINUOUS
 10
6.53
 20
0.887
 11
6.53
 21
0.637
  0
LINE
  5
486
100
AcDbEntity
  8
0
100
AcDbLine
 62
2
  6
CONTINUOUS
 10
6.53
 20
10.112
 11
6.53
 21
10.362
  0
LINE
  5
487
100
AcDbEntity
  8
0
100
AcDbLine
 62
2
  6
CONTINUOUS
 10
8.5
 20
0.887
 11
8.5
 21
0.637
  0
LINE
  5
488
100
AcDbEntity
  8
0
100
AcDbLine
 62
2
  6
CONTINUOUS
 10
8.5
 20
10.112
 11
8.5
 21
10.362
  0
LINE
  5
489
100
AcDbEntity
  8
0
100
AcDbLine
 62
2
  6
CONTINUOUS
 10
0.62
 20
5.4995
 11
0.37
 21
5.4995
  0
LINE
  5
48A
100
AcDbEntity
  8
0
100
AcDbLine
 62
2
  6
CONTINUOUS
 10
16.38
 20
5.4995
 11
16.63
 21
5.4995
  0
LINE
  5
48B
100
AcDbEntity
  8
0
100
AcDbLine
 62
2
  6
CONTINUOUS
 10
10.03
 20
2.807
 11
10.03
 21
0.887
  0
LINE
  5
48C
100
AcDbEntity
  8
0
100
AcDbLine
 62
2
  6
CONTINUOUS
 10
10.47
 20
0.887
 11
10.47
 21
0.637
  0
LINE
  5
48D
100
AcDbEntity
  8
0
100
AcDbLine
 62
2
  6
CONTINUOUS
 10
10.47
 20
10.112
 11
10.47
 21
10.362
  0
LINE
  5
48E
100
AcDbEntity
  8
0
100
AcDbLine
 62
7
  6
CONTINUOUS
 10
10.5342808475
 20
1.143294839
 11
10.5342808475
 21
0.921203839
  0
LINE
  5
48F
100
AcDbEntity
  8
0
100
AcDbLine
 62
7
  6
CONTINUOUS
 10
10.5342808475
 20
1.193294839
 11
10.5342808475
 21
1.293294839
  0
LINE
  5
490
100
AcDbEntity
  8
0
100
AcDbLine
 62
7
  6
CONTINUOUS
 10
10.5342808475
 20
1.343294839
 11
10.5342808475
 21
1.565385839
  0
LINE
  5
491
100
AcDbEntity
  8
0
100
AcDbLine
 62
2
  6
CONTINUOUS
 10
8.5
 20
0.887
 11
8.413397
 21
0.737
  0
LINE
  5
492
100
AcDbEntity
  8
0
100
AcDbLine
 62
2
  6
CONTINUOUS
 10
0.62
 20
7.7995
 11
0.37
 21
7.7995
  0
LINE
  5
493
100
AcDbEntity
  8
0
100
AcDbLine
 62
2
  6
CONTINUOUS
 10
16.38
 20
7.7995
 11
16.63
 21
7.7995
  0
LINE
  5
494
100
AcDbEntity
  8
0
100
AcDbLine
 62
2
  6
CONTINUOUS
 10
8.413397
 20
10.262
 11
8.5
 21
10.112
  0
LINE
  5
495
100
AcDbEntity
  8
0
100
AcDbLine
 62
7
  6
CONTINUOUS
 10
11.1389508475
 20
1.060596839
 11
11.1389508475
 21
1.425992839
  0
LINE
  5
496
100
AcDbEntity
  8
0
100
AcDbLine
 62
7
  6
CONTINUOUS
 10
11.7453418475
 20
1.495385839
 11
11.7453418475
 21
0.991203839
  0
LINE
  5
497
100
AcDbEntity
  8
0
100
AcDbLine
 62
1
  6
CONTINUOUS
 10
12.03
 20
2.807
 11
12.03
 21
0.887
  0
LINE
  5
498
100
AcDbEntity
  8
0
100
AcDbLine
 62
2
  6
CONTINUOUS
 10
12.44
 20
0.887
 11
12.44
 21
0.637
  0
LINE
  5
499
100
AcDbEntity
  8
0
100
AcDbLine
 62
2
  6
CONTINUOUS
 10
12.44
 20
10.112
 11
12.44
 21
10.362
  0
LINE
  5
49A
100
AcDbEntity
  8
0
100
AcDbLine
 62
2
  6
CONTINUOUS
 10
16.53
 20
5.586103
 11
16.38
 21
5.4995
  0
LINE
  5
49B
100
AcDbEntity
  8
0
100
AcDbLine
 62
2
  6
CONTINUOUS
 10
16.38
 20
5.4995
 11
16.53
 21
5.412897
  0
LINE
  5
49C
100
AcDbEntity
  8
0
100
AcDbLine
 62
2
  6
CONTINUOUS
 10
12.83
 20
1.507
 11
12.83
 21
1.137
  0
LINE
  5
49D
100
AcDbEntity
  8
0
100
AcDbLine
 62
2
  6
CONTINUOUS
 10
16.38
 20
10.112
 11
0.62
 21
10.112
  0
LINE
  5
49E
100
AcDbEntity
  8
0
100
AcDbLine
 62
2
  6
CONTINUOUS
 10
8.586603
 20
10.262
 11
8.413397
 21
10.262
  0
LINE
  5
49F
100
AcDbEntity
  8
0
100
AcDbLine
 62
2
  6
CONTINUOUS
 10
14.205
 20
1.137
 11
14.205
 21
0.887
  0
LINE
  5
4A0
100
AcDbEntity
  8
0
100
AcDbLine
 62
2
  6
CONTINUOUS
 10
14.41
 20
0.887
 11
14.41
 21
0.637
  0
LINE
  5
4A1
100
AcDbEntity
  8
0
100
AcDbLine
 62
2
  6
CONTINUOUS
 10
14.41
 20
10.112
 11
14.41
 21
10.362
  0
LINE
  5
4A2
100
AcDbEntity
  8
0
100
AcDbLine
 62
2
  6
CONTINUOUS
 10
15.58
 20
1.507
 11
15.58
 21
1.137
  0
LINE
  5
4A3
100
AcDbEntity
  8
0
100
AcDbLine
 62
2
  6
CONTINUOUS
 10
16.38
 20
0.887
 11
16.38
 21
10.112
  0
LINE
  5
4A4
100
AcDbEntity
  8
0
100
AcDbLine
 62
2
  6
CONTINUOUS
 10
16.53
 20
5.412897
 11
16.53
 21
5.586103
  0
LWPOLYLINE
  5
4A5
100
AcDbEntity
  8
0
100
AcDbPolyline
 62
9
  6
CONTINUOUS
 90
19
 70
0
 10
14.7556511712
 20
9.2827889043
 10
14.7685023426
 20
9.2881028221
 10
14.7817897145
 20
9.2925532687
 10
14.7954914698
 20
9.2961329368
 10
14.8095851105
 20
9.2988359486
 10
14.8240474953
 20
9.3006578659
 10
14.8388548777
 20
9.3015956971
 10
14.8539829443
 20
9.3016479024
 10
14.8694068553
 20
9.300814396
 10
14.8851012853
 20
9.2990965465
 10
14.9010404645
 20
9.2964971746
 10
14.9171982214
 20
9.2930205483
 10
14.9335480255
 20
9.2886723762
 10
14.950063031
 20
9.2834597978
 10
14.9667161207
 20
9.2773913719
 10
14.983479951
 20
9.2704770628
 10
15.0003269961
 20
9.2627282235
 10
15.0172295938
 20
9.2541575772
 10
15.0341599906
 20
9.2447791968
  0
LWPOLYLINE
  5
4A6
100
AcDbEntity
  8
0
100
AcDbPolyline
 62
7
  6
CONTINUOUS
 90
7
 70
0
 10
14.4022869931
 20
9.0809980993
 10
14.3599703287
 20
9.049898407
 10
14.3237527223
 20
9.0085691343
 10
14.2950025857
 20
8.9575323745
 10
14.2747135124
 20
8.8972323619
 10
14.2639016158
 20
8.8294674519
 10
14.262845709
 20
8.7562463179
  0
LINE
  5
4A7
100
AcDbEntity
  8
0
100
AcDbLine
 62
7
  6
CONTINUOUS
 10
14.738536086
 20
9.2739756846
 11
14.7386613136
 21
9.2740480457
  0
LINE
  5
4A8
100
AcDbEntity
  8
0
100
AcDbLine
 62
7
  6
CONTINUOUS
 10
14.6709864513
 20
9.2361308778
 11
14.4022869931
 21
9.0809980993
  0
LINE
  5
4A9
100
AcDbEntity
  8
AXIS_COSMETIC_THREADS
100
AcDbLine
 62
7
  6
CONTINUOUS
 10
14.6820930066
 20
9.2413885134
 11
14.7386613136
 21
9.2740480457
  0
LWPOLYLINE
  5
4AA
100
AcDbEntity
  8
0
100
AcDbPolyline
 62
9
  6
CONTINUOUS
 90
3
 70
0
 10
14.7386613136
 20
9.2740480457
 10
14.7432573018
 20
9.2766202406
 10
14.7556511712
 20
9.2827889043
  0
LWPOLYLINE
  5
4AB
100
AcDbEntity
  8
AXIS_COSMETIC_THREADS
100
AcDbPolyline
 62
7
  6
CONTINUOUS
 90
10
 70
0
 10
14.6820899191
 20
9.2413861469
 10
14.7026378745
 20
9.2517046418
 10
14.7319551408
 20
9.2617753717
 10
14.763250128
 20
9.2675610706
 10
14.7962708675
 20
9.2690151555
 10
14.8307514955
 20
9.2661259188
 10
14.8664143944
 20
9.2589166232
 10
14.9029724274
 20
9.2474453135
 10
14.9401312509
 20
9.2318043499
 10
14.9775916837
 20
9.2121196645
  0
LWPOLYLINE
  5
4AC
100
AcDbEntity
  8
0
100
AcDbPolyline
 62
7
  6
CONTINUOUS
 90
23
 70
0
 10
14.6709755414
 20
9.2361235508
 10
14.7119145936
 20
9.2539769057
 10
14.7627631685
 20
9.2632921567
 10
14.8179322351
 20
9.2611864345
 10
14.8762546441
 20
9.2477042876
 10
14.9364965347
 20
9.2231309424
 10
14.9973834378
 20
9.1879862693
 10
15.0576272379
 20
9.1430137844
 10
15.1159534273
 20
9.0891649179
 10
15.1711280595
 20
9.0275788952
 10
15.2219838837
 20
8.9595586009
 10
15.2674449581
 20
8.886543129
 10
15.3065496201
 20
8.81007699
 10
15.3384703449
 20
8.7317784154
 10
15.3625322547
 20
8.6533026389
 10
15.3782256738
 20
8.576312255
 10
15.3852191953
 20
8.5024333467
 10
15.3833640884
 20
8.4332252397
 10
15.3726979427
 20
8.3701546147
 10
15.3534463946
 20
8.3145602315
 10
15.3260179914
 20
8.2676199381
 10
15.2909879295
 20
8.2303208906
 10
15.2629710919
 20
8.2107521747
  0
LINE
  5
4AD
100
AcDbEntity
  8
0
100
AcDbLine
 62
7
  6
CONTINUOUS
 10
14.0004843067
 20
8.5029800585
 11
13.9943934858
 21
8.4639331394
  0
LWPOLYLINE
  5
4AE
100
AcDbEntity
  8
0
100
AcDbPolyline
 62
7
  6
CONTINUOUS
 90
9
 70
0
 10
13.9943934858
 20
8.4639331394
 10
13.9944639512
 20
8.4136104292
 10
14.0014675249
 20
8.3633511634
 10
14.014868668
 20
8.3115859597
 10
14.0343472727
 20
8.2593613146
 10
14.0594122698
 20
8.2080450798
 10
14.0894553527
 20
8.1589583075
 10
14.1238430597
 20
8.1132785012
 10
14.1613160154
 20
8.072714734
  0
LINE
  5
4AF
100
AcDbEntity
  8
AXIS_COSMETIC_THREADS
100
AcDbLine
 62
7
  6
CONTINUOUS
 10
14.0371419021
 20
8.3365097237
 11
14.0371419021
 21
8.5020906967
  0
LWPOLYLINE
  5
4B0
100
AcDbEntity
  8
0
100
AcDbPolyline
 62
7
  6
CONTINUOUS
 90
3
 70
0
 10
14.0222925979
 20
8.427873266
 10
14.0255798291
 20
8.4693613771
 10
14.0353416418
 20
8.5057932112
  0
LWPOLYLINE
  5
4B1
100
AcDbEntity
  8
0
100
AcDbPolyline
 62
7
  6
CONTINUOUS
 90
6
 70
0
 10
14.0584938962
 20
8.4151379337
 10
14.0616814302
 20
8.4449400043
 10
14.0690123394
 20
8.4714191626
 10
14.0803153152
 20
8.4939549606
 10
14.0953258925
 20
8.5120193273
 10
14.1111754135
 20
8.5237914971
  0
LWPOLYLINE
  5
4B2
100
AcDbEntity
  8
AXIS
100
AcDbPolyline
 62
7
  6
CONTINUOUS
 90
7
 70
0
 10
14.0621681472
 20
8.4162826616
 10
14.0649972486
 20
8.441317739
 10
14.0708351624
 20
8.4639556519
 10
14.0795807481
 20
8.4838042032
 10
14.0910824901
 20
8.500519521
 10
14.1051411231
 20
8.5138120158
 10
14.1136704906
 20
8.5194572727
  0
LWPOLYLINE
  5
4B3
100
AcDbEntity
  8
0
100
AcDbPolyline
 62
7
  6
CONTINUOUS
 90
3
 70
0
 10
14.0353416418
 20
8.5057932112
 10
14.0512814283
 20
8.5360618054
 10
14.0729148662
 20
8.5592474639
  0
LWPOLYLINE
  5
4B4
100
AcDbEntity
  8
0
100
AcDbPolyline
 62
7
  6
CONTINUOUS
 90
6
 70
0
 10
14.0708613603
 20
8.6148322451
 10
14.0410288204
 20
8.5909077367
 10
14.0192696371
 20
8.5601955585
 10
14.0039914689
 20
8.5222636795
 10
13.9956093222
 20
8.4781833012
 10
13.9949579362
 20
8.4710536893
  0
LINE
  5
4B5
100
AcDbEntity
  8
0
100
AcDbLine
 62
7
  6
CONTINUOUS
 10
14.1151965446
 20
8.6380302256
 11
14.127426587
 21
8.647489999
  0
LWPOLYLINE
  5
4B6
100
AcDbEntity
  8
0
100
AcDbPolyline
 62
7
  6
CONTINUOUS
 90
3
 70
0
 10
14.0353416418
 20
8.3348859237
 10
14.0255798291
 20
8.3825894732
 10
14.0222925979
 20
8.427873266
  0
LINE
  5
4B7
100
AcDbEntity
  8
0
100
AcDbLine
 62
7
  6
CONTINUOUS
 10
14.1070770763
 20
8.515093348
 11
14.1130040858
 21
8.5222259903
  0
LINE
  5
4B8
100
AcDbEntity
  8
0
100
AcDbLine
 62
7
  6
CONTINUOUS
 10
14.2283331585
 20
8.7033492902
 11
14.240563201
 21
8.7128090636
  0
LINE
  5
4B9
100
AcDbEntity
  8
0
100
AcDbLine
 62
7
  6
CONTINUOUS
 10
14.3414697725
 20
8.7686683548
 11
14.3536998149
 21
8.7781281282
  0
LINE
  5
4BA
100
AcDbEntity
  8
0
100
AcDbLine
 62
7
  6
CONTINUOUS
 10
14.1427428776
 20
8.6543696143
 11
14.1556868892
 21
8.6638059902
  0
LINE
  5
4BB
100
AcDbEntity
  8
0
100
AcDbLine
 62
7
  6
CONTINUOUS
 10
14.2558794916
 20
8.7196886789
 11
14.2688235031
 21
8.7291250548
  0
LINE
  5
4BC
100
AcDbEntity
  8
0
100
AcDbLine
 62
7
  6
CONTINUOUS
 10
14.3690161055
 20
8.7850077435
 11
14.3819601171
 21
8.7944441195
  0
LINE
  5
4BD
100
AcDbEntity
  8
0
100
AcDbLine
 62
7
  6
CONTINUOUS
 10
14.0845967297
 20
8.6206007184
 11
14.0991212669
 21
8.6311480088
  0
LINE
  5
4BE
100
AcDbEntity
  8
0
100
AcDbLine
 62
7
  6
CONTINUOUS
 10
14.1993244509
 20
8.6870751981
 11
14.2122578809
 21
8.6964670734
  0
LINE
  5
4BF
100
AcDbEntity
  8
0
100
AcDbLine
 62
7
  6
CONTINUOUS
 10
14.3124610648
 20
8.7523942627
 11
14.3253944948
 21
8.761786138
  0
LINE
  5
4C0
100
AcDbEntity
  8
0
100
AcDbLine
 62
7
  6
CONTINUOUS
 10
14.1710528689
 20
8.6707963935
 11
14.1840035514
 21
8.6801545295
  0
LINE
  5
4C1
100
AcDbEntity
  8
0
100
AcDbLine
 62
7
  6
CONTINUOUS
 10
14.2841894828
 20
8.7361154581
 11
14.2971401654
 21
8.7454735941
  0
LINE
  5
4C2
100
AcDbEntity
  8
0
100
AcDbLine
 62
7
  6
CONTINUOUS
 10
14.3973260968
 20
8.8014345227
 11
14.4102767793
 21
8.8107926587
  0
LINE
  5
4C3
100
AcDbEntity
  8
0
100
AcDbLine
 62
7
  6
CONTINUOUS
 10
14.0729148662
 20
8.5592474639
 11
14.0856721811
 21
8.5679500174
  0
LWPOLYLINE
  5
4C4
100
AcDbEntity
  8
AXIS_COSMETIC_THREADS
100
AcDbPolyline
 62
7
  6
CONTINUOUS
 90
5
 70
0
 10
14.0874135009
 20
8.5649199964
 10
14.0823744434
 20
8.5618112165
 10
14.0639498726
 20
8.5463109222
 10
14.0487782036
 20
8.5262797691
 10
14.0371419021
 20
8.5020906967
  0
LINE
  5
4C5
100
AcDbEntity
  8
0
100
AcDbLine
 62
7
  6
CONTINUOUS
 10
14.3819601171
 20
8.7944441195
 11
14.3892097873
 21
8.7983179195
  0
LINE
  5
4C6
100
AcDbEntity
  8
0
100
AcDbLine
 62
7
  6
CONTINUOUS
 10
14.2688235031
 20
8.7291250548
 11
14.2760731734
 21
8.7329988549
  0
LINE
  5
4C7
100
AcDbEntity
  8
0
100
AcDbLine
 62
7
  6
CONTINUOUS
 10
14.1556868892
 20
8.6638059902
 11
14.1629365594
 21
8.6676797903
  0
LINE
  5
4C8
100
AcDbEntity
  8
0
100
AcDbLine
 62
7
  6
CONTINUOUS
 10
14.3253944948
 20
8.761786138
 11
14.3330553076
 21
8.7658612755
  0
LINE
  5
4C9
100
AcDbEntity
  8
0
100
AcDbLine
 62
7
  6
CONTINUOUS
 10
14.2122578809
 20
8.6964670734
 11
14.2199186937
 21
8.7005422109
  0
LINE
  5
4CA
100
AcDbEntity
  8
0
100
AcDbLine
 62
7
  6
CONTINUOUS
 10
14.0991212669
 20
8.6311480088
 11
14.1067820797
 21
8.6352231463
  0
LINE
  5
4CB
100
AcDbEntity
  8
0
100
AcDbLine
 62
7
  6
CONTINUOUS
 10
14.4102767793
 20
8.8107926587
 11
14.418216207
 21
8.8150005618
  0
LINE
  5
4CC
100
AcDbEntity
  8
0
100
AcDbLine
 62
7
  6
CONTINUOUS
 10
14.2971401654
 20
8.7454735941
 11
14.3050795931
 21
8.7496814972
  0
LINE
  5
4CD
100
AcDbEntity
  8
0
100
AcDbLine
 62
7
  6
CONTINUOUS
 10
14.1840035514
 20
8.6801545295
 11
14.1919429791
 21
8.6843624326
  0
LINE
  5
4CE
100
AcDbEntity
  8
0
100
AcDbLine
 62
7
  6
CONTINUOUS
 10
14.4564361259
 20
8.8356258532
 11
14.4385553232
 21
8.8271191864
  0
LWPOLYLINE
  5
4CF
100
AcDbEntity
  8
0
100
AcDbPolyline
 62
7
  6
CONTINUOUS
 90
6
 70
0
 10
14.4399695348
 20
8.827935677
 10
14.4614162391
 20
8.8377451971
 10
14.4971608329
 20
8.8449740224
 10
14.5363248133
 20
8.8430798079
 10
14.5778229601
 20
8.83212939
 10
14.6024371148
 20
8.821779863
  0
LINE
  5
4D0
100
AcDbEntity
  8
0
100
AcDbLine
 62
7
  6
CONTINUOUS
 10
14.3536998149
 20
8.7781281282
 11
14.384124996
 21
8.7907087419
  0
LINE
  5
4D1
100
AcDbEntity
  8
0
100
AcDbLine
 62
7
  6
CONTINUOUS
 10
14.3572550502
 20
8.7751954641
 11
14.3268298691
 21
8.7626148504
  0
LINE
  5
4D2
100
AcDbEntity
  8
0
100
AcDbLine
 62
7
  6
CONTINUOUS
 10
14.240563201
 20
8.7128090636
 11
14.270988382
 21
8.7253896773
  0
LINE
  5
4D3
100
AcDbEntity
  8
0
100
AcDbLine
 62
7
  6
CONTINUOUS
 10
14.2441184362
 20
8.7098763995
 11
14.2136932552
 21
8.6972957858
  0
LWPOLYLINE
  5
4D4
100
AcDbEntity
  8
0
100
AcDbPolyline
 62
7
  6
CONTINUOUS
 90
5
 70
0
 10
14.3892097873
 20
8.7983179195
 10
14.4228151069
 20
8.8094073464
 10
14.4600584407
 20
8.8116048109
 10
14.4995089117
 20
8.805076858
 10
14.5410863585
 20
8.7898825239
  0
LINE
  5
4D5
100
AcDbEntity
  8
0
100
AcDbLine
 62
7
  6
CONTINUOUS
 10
14.3959451611
 20
8.7938940685
 11
14.3834971379
 21
8.7897863426
  0
LINE
  5
4D6
100
AcDbEntity
  8
0
100
AcDbLine
 62
7
  6
CONTINUOUS
 10
14.4529683632
 20
8.8266378531
 11
14.4400822668
 21
8.8224361935
  0
LINE
  5
4D7
100
AcDbEntity
  8
0
100
AcDbLine
 62
7
  6
CONTINUOUS
 10
14.3330553076
 20
8.7658612755
 11
14.366701695
 21
8.7768320664
  0
LINE
  5
4D8
100
AcDbEntity
  8
0
100
AcDbLine
 62
7
  6
CONTINUOUS
 10
14.3398317492
 20
8.7613187885
 11
14.326919644
 21
8.7571086484
  0
LWPOLYLINE
  5
4D9
100
AcDbEntity
  8
0
100
AcDbPolyline
 62
7
  6
CONTINUOUS
 90
5
 70
0
 10
14.418216207
 20
8.8150005618
 10
14.4513050626
 20
8.8257754234
 10
14.4882177249
 20
8.8279417812
 10
14.5277399847
 20
8.8214207914
 10
14.5694905361
 20
8.8061569123
  0
LINE
  5
4DA
100
AcDbEntity
  8
0
100
AcDbLine
 62
7
  6
CONTINUOUS
 10
14.4244351168
 20
8.8102621456
 11
14.411790353
 21
8.8061445786
  0
LWPOLYLINE
  5
4DB
100
AcDbEntity
  8
0
100
AcDbPolyline
 62
7
  6
CONTINUOUS
 90
5
 70
0
 10
14.3050795931
 20
8.7496814972
 10
14.3381684487
 20
8.7604563588
 10
14.3750811109
 20
8.7626227166
 10
14.4146033707
 20
8.7561017267
 10
14.4563539221
 20
8.7408378477
  0
LWPOLYLINE
  5
4DC
100
AcDbEntity
  8
AXIS_COSMETIC_THREADS
100
AcDbPolyline
 62
7
  6
CONTINUOUS
 90
10
 70
0
 10
14.0371419021
 20
8.3365097237
 10
14.0487782036
 20
8.2988845117
 10
14.0639498726
 20
8.2613350204
 10
14.0823744434
 20
8.2245603457
 10
14.1037088876
 20
8.1892451575
 10
14.127556001
 20
8.1560469534
 10
14.1534717986
 20
8.1255838168
 10
14.1809737805
 20
8.0984229099
 10
14.2095499155
 20
8.0750699137
 10
14.2386681738
 20
8.055959614
  0
LINE
  5
4DD
100
AcDbEntity
  8
0
100
AcDbLine
 62
7
  6
CONTINUOUS
 10
14.1130040858
 20
8.5222259903
 11
14.1203413455
 21
8.5276765187
  0
LINE
  5
4DE
100
AcDbEntity
  8
AXIS_COSMETIC_THREADS
100
AcDbLine
 62
7
  6
CONTINUOUS
 10
14.1073764656
 20
8.5764471362
 11
14.0874188509
 21
8.5649246707
  0
LINE
  5
4DF
100
AcDbEntity
  8
AXIS
100
AcDbLine
 62
7
  6
CONTINUOUS
 10
14.1136687334
 20
8.5194582692
 11
14.1379510329
 21
8.5334775776
  0
LWPOLYLINE
  5
4E0
100
AcDbEntity
  8
0
100
AcDbPolyline
 62
7
  6
CONTINUOUS
 90
16
 70
0
 10
14.1111754135
 20
8.5237914971
 10
14.1136926469
 20
8.5251889898
 10
14.1349854426
 20
8.5331554277
 10
14.1587055348
 20
8.5357321245
 10
14.1842972889
 20
8.5328589453
 10
14.211161236
 20
8.5246035368
 10
14.2386681738
 20
8.5111597115
 10
14.2661751116
 20
8.4928419795
 10
14.2930390587
 20
8.4700782756
 10
14.3186308128
 20
8.443401311
 10
14.342350905
 20
8.4134356306
 10
14.3636437006
 20
8.3808829463
 10
14.3820104551
 20
8.3465056624
 10
14.3970210324
 20
8.3111089661
 10
14.4083240082
 20
8.2755219111
 10
14.4156549173
 20
8.2405779395
  0
LINE
  5
4E1
100
AcDbEntity
  8
AXIS
100
AcDbLine
 62
7
  6
CONTINUOUS
 10
14.1136704906
 20
8.5194572727
 11
14.1215130844
 21
8.5234513979
  0
LWPOLYLINE
  5
4E2
100
AcDbEntity
  8
0
100
AcDbPolyline
 62
7
  6
CONTINUOUS
 90
13
 70
0
 10
14.0856721811
 20
8.5679500174
 10
14.0995846346
 20
8.5746457021
 10
14.1304803858
 20
8.5817886523
 10
14.1646633683
 20
8.5804592796
 10
14.2010949493
 20
8.5706979763
 10
14.2386681738
 20
8.5528013348
 10
14.2762413982
 20
8.5273131353
 10
14.3126729793
 20
8.495007824
 10
14.3468559617
 20
8.4568669814
 10
14.377751713
 20
8.4140494976
 10
14.4044214813
 20
8.3678563603
 10
14.4260549193
 20
8.3196911245
 10
14.4419947058
 20
8.2710172666
  0
LINE
  5
4E3
100
AcDbEntity
  8
0
100
AcDbLine
 62
7
  6
CONTINUOUS
 10
14.127426587
 20
8.647489999
 11
14.1578517681
 21
8.6600706127
  0
LINE
  5
4E4
100
AcDbEntity
  8
0
100
AcDbLine
 62
7
  6
CONTINUOUS
 10
14.1309818223
 20
8.6445573349
 11
14.1005566412
 21
8.6319767212
  0
LINE
  5
4E5
100
AcDbEntity
  8
0
100
AcDbLine
 62
7
  6
CONTINUOUS
 10
14.1014240224
 20
8.6274489126
 11
14.0708613603
 21
8.6148322451
  0
LINE
  5
4E6
100
AcDbEntity
  8
0
100
AcDbLine
 62
7
  6
CONTINUOUS
 10
14.0722755625
 20
8.6156487303
 11
14.1051685238
 21
8.6288687077
  0
LWPOLYLINE
  5
4E7
100
AcDbEntity
  8
0
100
AcDbPolyline
 62
7
  6
CONTINUOUS
 90
5
 70
0
 10
14.2760731734
 20
8.7329988549
 10
14.309678493
 20
8.7440882817
 10
14.3469218268
 20
8.7462857463
 10
14.3863722977
 20
8.7397577934
 10
14.4279497446
 20
8.7245634593
  0
LINE
  5
4E8
100
AcDbEntity
  8
0
100
AcDbLine
 62
7
  6
CONTINUOUS
 10
14.2828085472
 20
8.7285750039
 11
14.2703605239
 21
8.724467278
  0
LWPOLYLINE
  5
4E9
100
AcDbEntity
  8
0
100
AcDbPolyline
 62
7
  6
CONTINUOUS
 90
5
 70
0
 10
14.1629365594
 20
8.6676797903
 10
14.196541879
 20
8.6787692171
 10
14.2337852128
 20
8.6809666817
 10
14.2732356837
 20
8.6744387288
 10
14.3148131306
 20
8.6592443947
  0
LINE
  5
4EA
100
AcDbEntity
  8
0
100
AcDbLine
 62
7
  6
CONTINUOUS
 10
14.1696719332
 20
8.6632559393
 11
14.15722391
 21
8.6591482133
  0
LINE
  5
4EB
100
AcDbEntity
  8
0
100
AcDbLine
 62
7
  6
CONTINUOUS
 10
14.2199186937
 20
8.7005422109
 11
14.2535650811
 21
8.7115130017
  0
LINE
  5
4EC
100
AcDbEntity
  8
0
100
AcDbLine
 62
7
  6
CONTINUOUS
 10
14.2266951353
 20
8.6959997239
 11
14.2137830301
 21
8.6917895838
  0
LINE
  5
4ED
100
AcDbEntity
  8
0
100
AcDbLine
 62
7
  6
CONTINUOUS
 10
14.1067820797
 20
8.6352231463
 11
14.1404284671
 21
8.6461939371
  0
LINE
  5
4EE
100
AcDbEntity
  8
0
100
AcDbLine
 62
7
  6
CONTINUOUS
 10
14.3112985028
 20
8.7449430809
 11
14.298653739
 21
8.7408255139
  0
LWPOLYLINE
  5
4EF
100
AcDbEntity
  8
0
100
AcDbPolyline
 62
7
  6
CONTINUOUS
 90
5
 70
0
 10
14.1919429791
 20
8.6843624326
 10
14.2250318347
 20
8.6951372942
 10
14.261944497
 20
8.697303652
 10
14.3014667568
 20
8.6907826621
 10
14.3432173081
 20
8.6755187831
  0
LINE
  5
4F0
100
AcDbEntity
  8
0
100
AcDbLine
 62
7
  6
CONTINUOUS
 10
14.1981618889
 20
8.6796240163
 11
14.1855171251
 21
8.6755064493
  0
LWPOLYLINE
  5
4F1
100
AcDbEntity
  8
0
100
AcDbPolyline
 62
7
  6
CONTINUOUS
 90
3
 70
0
 10
14.1613160154
 20
8.072714734
 10
14.1995101324
 20
8.040075693
 10
14.2386681738
 20
8.0139097395
  0
LINE
  5
4F2
100
AcDbEntity
  8
0
100
AcDbLine
 62
7
  6
CONTINUOUS
 10
14.0584938962
 20
8.4151379337
 11
14.0622862099
 21
8.417327414
  0
LINE
  5
4F3
100
AcDbEntity
  8
AXIS
100
AcDbLine
 62
7
  6
CONTINUOUS
 10
14.0621681472
 20
8.3934205939
 11
14.0649966349
 21
8.3950536123
  0
LINE
  5
4F4
100
AcDbEntity
  8
AXIS
100
AcDbLine
 62
7
  6
CONTINUOUS
 10
14.1215130844
 20
8.5234513979
 11
14.139914733
 21
8.5292706672
  0
LWPOLYLINE
  5
4F5
100
AcDbEntity
  8
0
100
AcDbPolyline
 62
7
  6
CONTINUOUS
 90
7
 70
0
 10
14.2386681738
 20
8.0139097395
 10
14.2728357627
 20
7.9975434645
 10
14.3079654192
 20
7.9865848507
 10
14.3409310122
 20
7.9822869778
 10
14.3710620152
 20
7.9843524604
 10
14.3985941966
 20
7.9925962185
 10
14.4237107803
 20
8.0074624917
  0
LWPOLYLINE
  5
4F6
100
AcDbEntity
  8
0
100
AcDbPolyline
 62
7
  6
CONTINUOUS
 90
8
 70
0
 10
14.2386681738
 20
8.0531018555
 10
14.2010949493
 20
8.078590055
 10
14.1646633683
 20
8.1108953663
 10
14.1304803858
 20
8.1490362089
 10
14.0995846346
 20
8.1918536927
 10
14.0729148662
 20
8.23804683
 10
14.0512814283
 20
8.2862120658
 10
14.0353416418
 20
8.3348859237
  0
LINE
  5
4F7
100
AcDbEntity
  8
0
100
AcDbLine
 62
7
  6
CONTINUOUS
 10
14.262845709
 20
8.7562463179
 11
14.2660642683
 21
8.7271135318
  0
LINE
  5
4F8
100
AcDbEntity
  8
0
100
AcDbLine
 62
7
  6
CONTINUOUS
 10
14.5997213649
 20
7.799806602
 11
14.6260737918
 21
7.7657853762
  0
LWPOLYLINE
  5
4F9
100
AcDbEntity
  8
0
100
AcDbPolyline
 62
7
  6
CONTINUOUS
 90
5
 70
0
 10
14.5997213649
 20
7.799806602
 10
14.5927400714
 20
7.8096466589
 10
14.5810827352
 20
7.8325675004
 10
14.5751940426
 20
7.8562128581
 10
14.5744550697
 20
7.8681578146
  0
LINE
  5
4FA
100
AcDbEntity
  8
0
100
AcDbLine
 62
7
  6
CONTINUOUS
 10
14.4156549173
 20
8.2405779395
 11
14.4188424514
 21
8.2070953049
  0
LINE
  5
4FB
100
AcDbEntity
  8
AXIS_COSMETIC_THREADS
100
AcDbLine
 62
7
  6
CONTINUOUS
 10
14.4401944454
 20
8.2693934666
 11
14.4401944454
 21
8.1038124936
  0
LWPOLYLINE
  5
4FC
100
AcDbEntity
  8
0
100
AcDbPolyline
 62
7
  6
CONTINUOUS
 90
8
 70
0
 10
14.4816601846
 20
8.1333543437
 10
14.4819632896
 20
8.1779540801
 10
14.4759283338
 20
8.2265852177
 10
14.4637803675
 20
8.2765970971
 10
14.4459713326
 20
8.3267217774
 10
14.4228510429
 20
8.3761239017
 10
14.3952676525
 20
8.423101148
 10
14.3639164076
 20
8.4666470835
  0
LWPOLYLINE
  5
4FD
100
AcDbEntity
  8
0
100
AcDbPolyline
 62
7
  6
CONTINUOUS
 90
5
 70
0
 10
14.4550437497
 20
8.1780299243
 10
14.4517565185
 20
8.1365418132
 10
14.4419947058
 20
8.1001099791
 10
14.4260549193
 20
8.0698413849
 10
14.4044214813
 20
8.0466557264
  0
LWPOLYLINE
  5
4FE
100
AcDbEntity
  8
0
100
AcDbPolyline
 62
7
  6
CONTINUOUS
 90
6
 70
0
 10
14.4188424514
 20
8.1907652566
 10
14.4156549173
 20
8.160963186
 10
14.4083240082
 20
8.1344840278
 10
14.3970210324
 20
8.1119482297
 10
14.3820104551
 20
8.093883863
 10
14.366160934
 20
8.0821116932
  0
LWPOLYLINE
  5
4FF
100
AcDbEntity
  8
AXIS
100
AcDbPolyline
 62
7
  6
CONTINUOUS
 90
5
 70
0
 10
14.4151682004
 20
8.1896205287
 10
14.412339099
 20
8.1645854513
 10
14.4065011851
 20
8.1419475384
 10
14.3977555995
 20
8.1220989871
 10
14.3862538575
 20
8.1053836693
  0
LWPOLYLINE
  5
500
100
AcDbEntity
  8
AXIS_COSMETIC_THREADS
100
AcDbPolyline
 62
7
  6
CONTINUOUS
 90
4
 70
0
 10
14.323864549
 20
8.027209742
 10
14.296362567
 20
8.03180467
 10
14.267786432
 20
8.0414478059
 10
14.2386681738
 20
8.055959614
  0
LWPOLYLINE
  5
501
100
AcDbEntity
  8
0
100
AcDbPolyline
 62
7
  6
CONTINUOUS
 90
14
 70
0
 10
14.5705777408
 20
7.8941382208
 10
14.5795072688
 20
7.8649012534
 10
14.5970947916
 20
7.8370036855
 10
14.6228059211
 20
7.8112931708
 10
14.6558594377
 20
7.7885509101
 10
14.6952510271
 20
7.7694679156
 10
14.7397837956
 20
7.7546240143
 10
14.7881046378
 20
7.7444702308
 10
14.8387453491
 20
7.7393150825
 10
14.8901672373
 20
7.7393152061
 10
14.9408078744
 20
7.7444705978
 10
14.9891285701
 20
7.7546246137
 10
15.0336611245
 20
7.769468729
 10
15.0730524386
 20
7.7885519129
  0
LWPOLYLINE
  5
502
100
AcDbEntity
  8
0
100
AcDbPolyline
 62
7
  6
CONTINUOUS
 90
3
 70
0
 10
14.4419947058
 20
8.2710172666
 10
14.4517565185
 20
8.2233137171
 10
14.4550437497
 20
8.1780299243
  0
LWPOLYLINE
  5
503
100
AcDbEntity
  8
0
100
AcDbPolyline
 62
7
  6
CONTINUOUS
 90
10
 70
0
 10
14.5087839239
 20
8.1698652044
 10
14.5044493665
 20
8.2201510012
 10
14.4930700989
 20
8.2731165834
 10
14.4749494268
 20
8.3272348892
 10
14.4505840426
 20
8.3809463947
 10
14.4206472601
 20
8.4327072982
 10
14.3859718564
 20
8.4810276073
 10
14.3475254541
 20
8.5245158508
 10
14.3063844283
 20
8.5619171746
 10
14.2637000955
 20
8.5921521948
  0
LWPOLYLINE
  5
504
100
AcDbEntity
  8
0
100
AcDbPolyline
 62
7
  6
CONTINUOUS
 90
11
 70
0
 10
14.5667664386
 20
8.203341225
 10
14.5626398371
 20
8.2522443302
 10
14.5516649301
 20
8.3043489332
 10
14.5341760355
 20
8.3575245756
 10
14.5109835091
 20
8.4096759056
 10
14.4822781736
 20
8.4604618308
 10
14.4486453234
 20
8.5085337663
 10
14.411419339
 20
8.5518852469
 10
14.3719854339
 20
8.5891061869
 10
14.330388765
 20
8.6201328145
 10
14.2913114264
 20
8.6421524353
  0
LWPOLYLINE
  5
505
100
AcDbEntity
  8
0
100
AcDbPolyline
 62
7
  6
CONTINUOUS
 90
11
 70
0
 10
14.5384822851
 20
8.1870114588
 10
14.5347360398
 20
8.2332991891
 10
14.5249839672
 20
8.2819374609
 10
14.5093598719
 20
8.3319940916
 10
14.4883093831
 20
8.3819082527
 10
14.4621451289
 20
8.4308185902
 10
14.4311949409
 20
8.4777821963
 10
14.3965285608
 20
8.5209711138
 10
14.3594954332
 20
8.5588368712
 10
14.320761821
 20
8.5908758857
 10
14.281094404
 20
8.6164881001
  0
LINE
  5
506
100
AcDbEntity
  8
0
100
AcDbLine
 62
7
  6
CONTINUOUS
 10
14.5694614691
 20
7.9089829373
 11
14.5705777408
 21
7.8941382208
  0
LINE
  5
507
100
AcDbEntity
  8
0
100
AcDbLine
 62
7
  6
CONTINUOUS
 10
14.5694550697
 20
7.9089829355
 11
14.5694550697
 21
8.086478173
  0
LINE
  5
508
100
AcDbEntity
  8
0
100
AcDbLine
 62
7
  6
CONTINUOUS
 10
14.5093208272
 20
8.1418150821
 11
14.5101981316
 21
8.1706816927
  0
LINE
  5
509
100
AcDbEntity
  8
0
100
AcDbLine
 62
7
  6
CONTINUOUS
 10
14.5376049807
 20
8.1581448483
 11
14.5384822851
 21
8.1870114588
  0
LINE
  5
50A
100
AcDbEntity
  8
0
100
AcDbLine
 62
7
  6
CONTINUOUS
 10
14.5658891342
 20
8.1744746144
 11
14.5667664386
 21
8.203341225
  0
LINE
  5
50B
100
AcDbEntity
  8
0
100
AcDbLine
 62
7
  6
CONTINUOUS
 10
14.5147735622
 20
8.1867171668
 11
14.5123051987
 21
8.1425969593
  0
LWPOLYLINE
  5
50C
100
AcDbEntity
  8
0
100
AcDbPolyline
 62
7
  6
CONTINUOUS
 90
4
 70
0
 10
14.5087839239
 20
8.1698652044
 10
14.506143265
 20
8.1248963981
 10
14.4967850909
 20
8.0849235146
 10
14.4811230292
 20
8.0514455921
  0
LWPOLYLINE
  5
50D
100
AcDbEntity
  8
0
100
AcDbPolyline
 62
7
  6
CONTINUOUS
 90
4
 70
0
 10
14.5370680774
 20
8.1861949705
 10
14.5344064528
 20
8.1410778053
 10
14.5248748679
 20
8.1006871906
 10
14.5087904673
 20
8.0667927265
  0
LWPOLYLINE
  5
50E
100
AcDbEntity
  8
0
100
AcDbPolyline
 62
7
  6
CONTINUOUS
 90
4
 70
0
 10
14.5653522309
 20
8.2025247367
 10
14.5626911364
 20
8.1574113146
 10
14.5531612681
 20
8.1170234666
 10
14.53707958
 20
8.0831303237
  0
LWPOLYLINE
  5
50F
100
AcDbEntity
  8
0
100
AcDbPolyline
 62
7
  6
CONTINUOUS
 90
4
 70
0
 10
14.4864602519
 20
8.1566559081
 10
14.4819611892
 20
8.1139561866
 10
14.4708327015
 20
8.0767551538
 10
14.4676858833
 20
8.0712212386
  0
LWPOLYLINE
  5
510
100
AcDbEntity
  8
0
100
AcDbPolyline
 62
7
  6
CONTINUOUS
 90
3
 70
0
 10
14.5417101509
 20
8.1682064453
 10
14.5339088551
 20
8.1276992376
 10
14.5306155333
 20
8.1198363159
  0
LWPOLYLINE
  5
511
100
AcDbEntity
  8
0
100
AcDbPolyline
 62
7
  6
CONTINUOUS
 90
3
 70
0
 10
14.5123051987
 20
8.1425969593
 10
14.5031426483
 20
8.103623222
 10
14.501588391
 20
8.1003590592
  0
LWPOLYLINE
  5
512
100
AcDbEntity
  8
AXIS_COSMETIC_THREADS
100
AcDbPolyline
 62
7
  6
CONTINUOUS
 90
5
 70
0
 10
14.4401944454
 20
8.1038124936
 10
14.4285581439
 20
8.0796234212
 10
14.4133864749
 20
8.0595922681
 10
14.3949619042
 20
8.0440919738
 10
14.3899228466
 20
8.0409831939
  0
LWPOLYLINE
  5
513
100
AcDbEntity
  8
0
100
AcDbPolyline
 62
9
  6
CONTINUOUS
 90
3
 70
0
 10
14.6092535471
 20
8.1081445025
 10
14.6281197075
 20
8.1057962368
 10
14.6558594377
 20
8.10943636
  0
LWPOLYLINE
  5
514
100
AcDbEntity
  8
0
100
AcDbPolyline
 62
7
  6
CONTINUOUS
 90
5
 70
0
 10
14.7976700458
 20
8.0303091776
 10
14.8457644305
 20
8.0233830061
 10
14.8998475175
 20
8.0246224164
 10
14.9494731628
 20
8.0355816938
 10
14.9942843428
 20
8.0556224911
  0
LINE
  5
515
100
AcDbEntity
  8
0
100
AcDbLine
 62
7
  6
CONTINUOUS
 10
14.7976120023
 20
8.0303217768
 11
14.797665233
 21
8.0303102222
  0
LINE
  5
516
100
AcDbEntity
  8
0
100
AcDbLine
 62
9
  6
CONTINUOUS
 10
14.6257541398
 20
8.119069838
 11
14.6558594377
 21
8.10943636
  0
LWPOLYLINE
  5
517
100
AcDbEntity
  8
0
100
AcDbPolyline
 62
9
  6
CONTINUOUS
 90
13
 70
0
 10
14.6558594377
 20
8.10943636
 10
14.7049610906
 20
8.0848043239
 10
14.7532226005
 20
8.0680260987
 10
14.7998181997
 20
8.0593887646
 10
14.8439506246
 20
8.0590401088
 10
14.8848647572
 20
8.0669860968
 10
14.9218605452
 20
8.0830907705
 10
14.9543049805
 20
8.1070785747
 10
14.9816429299
 20
8.1385390712
 10
15.0034066334
 20
8.1769339623
 10
15.019223708
 20
8.2216063007
 10
15.0288235192
 20
8.2717917303
 10
15.0320418115
 20
8.3266315645
  0
LINE
  5
518
100
AcDbEntity
  8
AXIS
100
AcDbLine
 62
7
  6
CONTINUOUS
 10
14.0621681472
 20
8.3934205939
 11
14.4151682004
 21
8.1896205287
  0
LINE
  5
519
100
AcDbEntity
  8
0
100
AcDbLine
 62
7
  6
CONTINUOUS
 10
14.0584938962
 20
8.3988078854
 11
14.4188424514
 21
8.1907652566
  0
LINE
  5
51A
100
AcDbEntity
  8
0
100
AcDbLine
 62
7
  6
CONTINUOUS
 10
14.0584938962
 20
8.4151379337
 11
14.4188424514
 21
8.2070953049
  0
LINE
  5
51B
100
AcDbEntity
  8
AXIS
100
AcDbLine
 62
7
  6
CONTINUOUS
 10
14.4151682004
 20
8.2124825964
 11
14.0621681472
 21
8.4162826616
  0
LINE
  5
51C
100
AcDbEntity
  8
0
100
AcDbLine
 62
9
  6
CONTINUOUS
 10
14.635126684
 20
8.1231720849
 11
14.6558594377
 21
8.10943636
  0
LWPOLYLINE
  5
51D
100
AcDbEntity
  8
0
100
AcDbPolyline
 62
9
  6
CONTINUOUS
 90
6
 70
0
 10
14.6558594377
 20
8.10943636
 10
14.6921846683
 20
8.0797830955
 10
14.7270990608
 20
8.057539343
 10
14.7597815493
 20
8.0419944581
 10
14.7900021569
 20
8.0321164199
 10
14.7976120023
 20
8.0303217768
  0
LWPOLYLINE
  5
51E
100
AcDbEntity
  8
0
100
AcDbPolyline
 62
9
  6
CONTINUOUS
 90
8
 70
0
 10
14.6558594377
 20
8.10943636
 10
14.6879050721
 20
8.0712799214
 10
14.721913068
 20
8.0417099256
 10
14.7561966023
 20
8.020763725
 10
14.7896661321
 20
8.0077054374
 10
14.8218575007
 20
8.0016158662
 10
14.8527899954
 20
8.001833095
 10
14.8827203552
 20
8.0082482208
  0
LWPOLYLINE
  5
51F
100
AcDbEntity
  8
0
100
AcDbPolyline
 62
7
  6
CONTINUOUS
 90
8
 70
0
 10
14.3639164076
 20
8.4666470835
 10
14.3973157659
 20
8.4205113034
 10
14.4262033036
 20
8.3710286485
 10
14.449775288
 20
8.3196257298
 10
14.4673798861
 20
8.2677840324
 10
14.478535792
 20
8.2169975804
 10
14.482945981
 20
8.1687302425
 10
14.4821392354
 20
8.1393900952
  0
LWPOLYLINE
  5
520
100
AcDbEntity
  8
0
100
AcDbPolyline
 62
7
  6
CONTINUOUS
 90
11
 70
0
 10
14.5950505921
 20
8.2196709911
 10
14.5908926725
 20
8.2687843608
 10
14.5798302782
 20
8.3211172616
 10
14.5622052388
 20
8.3745119664
 10
14.5388526848
 20
8.4268280146
 10
14.5102580241
 20
8.4772741999
 10
14.4771683594
 20
8.5245552217
 10
14.4402464518
 20
8.5676442135
 10
14.4007210504
 20
8.6050546076
 10
14.3589680143
 20
8.6362703641
 10
14.3195955799
 20
8.6584822015
  0
LWPOLYLINE
  5
521
100
AcDbEntity
  8
0
100
AcDbPolyline
 62
7
  6
CONTINUOUS
 90
11
 70
0
 10
14.6233347455
 20
8.2360007573
 10
14.6192178215
 20
8.2848387409
 10
14.6083010405
 20
8.3367574612
 10
14.5909551637
 20
8.3896384609
 10
14.5679388787
 20
8.4415655904
 10
14.5393021416
 20
8.4923968483
 10
14.5057028377
 20
8.5405614552
 10
14.4684658227
 20
8.5840421726
 10
14.429018882
 20
8.6213728045
 10
14.3874424862
 20
8.6524759551
 10
14.3478797334
 20
8.6748119676
  0
LWPOLYLINE
  5
522
100
AcDbEntity
  8
0
100
AcDbPolyline
 62
7
  6
CONTINUOUS
 90
11
 70
0
 10
14.651618899
 20
8.2523305234
 10
14.6478726538
 20
8.2986182538
 10
14.6381205811
 20
8.3472565256
 10
14.6224964859
 20
8.3973131562
 10
14.601445997
 20
8.4472273173
 10
14.5752817428
 20
8.4961376549
 10
14.5443315548
 20
8.5431012609
 10
14.5096651747
 20
8.5862901784
 10
14.4726320472
 20
8.6241559359
 10
14.4338984349
 20
8.6561949503
 10
14.394231018
 20
8.6818071647
  0
LINE
  5
523
100
AcDbEntity
  8
0
100
AcDbLine
 62
7
  6
CONTINUOUS
 10
14.5744550697
 20
7.881443111
 11
14.5744550697
 21
7.8681578146
  0
LINE
  5
524
100
AcDbEntity
  8
0
100
AcDbLine
 62
7
  6
CONTINUOUS
 10
14.5941732877
 20
8.1908043806
 11
14.5950505921
 21
8.2196709911
  0
LINE
  5
525
100
AcDbEntity
  8
0
100
AcDbLine
 62
7
  6
CONTINUOUS
 10
14.6224574412
 20
8.2071341467
 11
14.6233347455
 21
8.2360007573
  0
LINE
  5
526
100
AcDbEntity
  8
0
100
AcDbLine
 62
7
  6
CONTINUOUS
 10
14.6507415947
 20
8.2234639129
 11
14.651618899
 21
8.2523305234
  0
LWPOLYLINE
  5
527
100
AcDbEntity
  8
0
100
AcDbPolyline
 62
7
  6
CONTINUOUS
 90
4
 70
0
 10
14.5936363844
 20
8.2188545028
 10
14.5910180539
 20
8.1740444032
 10
14.581626187
 20
8.1338795538
 10
14.5656935387
 20
8.0999834406
  0
LWPOLYLINE
  5
528
100
AcDbEntity
  8
0
100
AcDbPolyline
 62
7
  6
CONTINUOUS
 90
4
 70
0
 10
14.6219205379
 20
8.235184269
 10
14.6192798789
 20
8.1902154627
 10
14.6099217048
 20
8.1502425792
 10
14.5942596432
 20
8.1167646567
  0
LWPOLYLINE
  5
529
100
AcDbEntity
  8
0
100
AcDbPolyline
 62
7
  6
CONTINUOUS
 90
4
 70
0
 10
14.6502046914
 20
8.2515140351
 10
14.6475430668
 20
8.2063968699
 10
14.6380114818
 20
8.1660062552
 10
14.6219270812
 20
8.1321117911
  0
LWPOLYLINE
  5
52A
100
AcDbEntity
  8
0
100
AcDbPolyline
 62
7
  6
CONTINUOUS
 90
3
 70
0
 10
14.5699943044
 20
8.1845362115
 10
14.5621930086
 20
8.1440290038
 10
14.5589421039
 20
8.1362673543
  0
LWPOLYLINE
  5
52B
100
AcDbEntity
  8
0
100
AcDbPolyline
 62
7
  6
CONTINUOUS
 90
3
 70
0
 10
14.5982784579
 20
8.2008659776
 10
14.5904771621
 20
8.16035877
 10
14.587245737
 20
8.1526436288
  0
LWPOLYLINE
  5
52C
100
AcDbEntity
  8
0
100
AcDbPolyline
 62
7
  6
CONTINUOUS
 90
3
 70
0
 10
14.6265626113
 20
8.2171957438
 10
14.6187613155
 20
8.1766885361
 10
14.6154674719
 20
8.1688243683
  0
LWPOLYLINE
  5
52D
100
AcDbEntity
  8
0
100
AcDbPolyline
 62
7
  6
CONTINUOUS
 90
4
 70
0
 10
14.4457761807
 20
8.029609354
 10
14.4632055248
 20
8.0584251751
 10
14.4750873407
 20
8.0923600644
 10
14.4816601846
 20
8.1333543437
  0
LWPOLYLINE
  5
52E
100
AcDbEntity
  8
AXIS
100
AcDbPolyline
 62
7
  6
CONTINUOUS
 90
3
 70
0
 10
14.3862538575
 20
8.1053836693
 10
14.3721952244
 20
8.0920911745
 10
14.363665857
 20
8.0864459176
  0
LINE
  5
52F
100
AcDbEntity
  8
AXIS_COSMETIC_THREADS
100
AcDbLine
 62
7
  6
CONTINUOUS
 10
14.4421016631
 20
8.2704945927
 11
14.4401944454
 21
8.2693934666
  0
LINE
  5
530
100
AcDbEntity
  8
AXIS
100
AcDbLine
 62
7
  6
CONTINUOUS
 10
14.4151682004
 20
8.2124825964
 11
14.4181648764
 21
8.2142127178
  0
LINE
  5
531
100
AcDbEntity
  8
AXIS
100
AcDbLine
 62
7
  6
CONTINUOUS
 10
14.4151682004
 20
8.1896205287
 11
14.4179966882
 21
8.1912535472
  0
LWPOLYLINE
  5
532
100
AcDbEntity
  8
0
100
AcDbPolyline
 62
7
  6
CONTINUOUS
 90
6
 70
0
 10
14.3639164076
 20
8.4666470835
 10
14.330453249
 20
8.5056604048
 10
14.2947902674
 20
8.5396514752
 10
14.2577064568
 20
8.5678800335
 10
14.2199609241
 20
8.5897021224
 10
14.1827089397
 20
8.6044054135
  0
LWPOLYLINE
  5
533
100
AcDbEntity
  8
0
100
AcDbPolyline
 62
7
  6
CONTINUOUS
 90
11
 70
0
 10
14.708187206
 20
8.2849900558
 10
14.7040292864
 20
8.3341034254
 10
14.6929668922
 20
8.3864363262
 10
14.6753418528
 20
8.4398310311
 10
14.6519892988
 20
8.4921470792
 10
14.623394638
 20
8.5425932645
 10
14.5903049734
 20
8.5898742863
 10
14.5533830658
 20
8.6329632782
 10
14.5138576644
 20
8.6703736722
 10
14.4721046282
 20
8.7015894287
 10
14.4327321939
 20
8.7238012661
  0
LWPOLYLINE
  5
534
100
AcDbEntity
  8
0
100
AcDbPolyline
 62
7
  6
CONTINUOUS
 90
11
 70
0
 10
14.6799030525
 20
8.2686602896
 10
14.6757764511
 20
8.3175633948
 10
14.6648015441
 20
8.3696679978
 10
14.6473126495
 20
8.4228436402
 10
14.624120123
 20
8.4749949702
 10
14.5954147876
 20
8.5257808954
 10
14.5617819374
 20
8.573852831
 10
14.5245559529
 20
8.6172043115
 10
14.4851220479
 20
8.6544252515
 10
14.443525379
 20
8.6854518791
 10
14.4044480404
 20
8.7074714999
  0
LWPOLYLINE
  5
535
100
AcDbEntity
  8
0
100
AcDbPolyline
 62
7
  6
CONTINUOUS
 90
11
 70
0
 10
14.7364713595
 20
8.3013198219
 10
14.7323544354
 20
8.3501578055
 10
14.7214376544
 20
8.4020765258
 10
14.7040917776
 20
8.4549575255
 10
14.6810754926
 20
8.506884655
 10
14.6524387555
 20
8.5577159129
 10
14.6188394516
 20
8.6058805198
 10
14.5816024367
 20
8.6493612372
 10
14.542155496
 20
8.6866918691
 10
14.5005791001
 20
8.7177950197
 10
14.4610163473
 20
8.7401310322
  0
LINE
  5
536
100
AcDbEntity
  8
0
100
AcDbLine
 62
7
  6
CONTINUOUS
 10
14.6790257482
 20
8.239793679
 11
14.6799030525
 21
8.2686602896
  0
LINE
  5
537
100
AcDbEntity
  8
0
100
AcDbLine
 62
7
  6
CONTINUOUS
 10
14.7073099017
 20
8.2561234452
 11
14.708187206
 21
8.2849900558
  0
LINE
  5
538
100
AcDbEntity
  8
0
100
AcDbLine
 62
7
  6
CONTINUOUS
 10
14.7355940551
 20
8.2724532114
 11
14.7364713595
 21
8.3013198219
  0
LWPOLYLINE
  5
539
100
AcDbEntity
  8
0
100
AcDbPolyline
 62
7
  6
CONTINUOUS
 90
4
 70
0
 10
14.7067729983
 20
8.2841735675
 10
14.7041546678
 20
8.2393634678
 10
14.694762801
 20
8.1991986184
 10
14.6788301527
 20
8.1653025052
  0
LWPOLYLINE
  5
53A
100
AcDbEntity
  8
0
100
AcDbPolyline
 62
7
  6
CONTINUOUS
 90
4
 70
0
 10
14.7350571518
 20
8.3005033336
 10
14.7324164929
 20
8.2555345273
 10
14.7230583188
 20
8.2155616438
 10
14.7073962571
 20
8.1820837213
  0
LINE
  5
53B
100
AcDbEntity
  8
0
100
AcDbLine
 62
7
  6
CONTINUOUS
 10
14.6784888448
 20
8.2678438013
 11
14.6758277504
 21
8.2227303792
  0
LINE
  5
53C
100
AcDbEntity
  8
0
100
AcDbLine
 62
7
  6
CONTINUOUS
 10
14.677284722
 20
8.22385019
 11
14.6790257482
 21
8.239793679
  0
LWPOLYLINE
  5
53D
100
AcDbEntity
  8
0
100
AcDbPolyline
 62
7
  6
CONTINUOUS
 90
3
 70
0
 10
14.6548467648
 20
8.2335255099
 10
14.647045469
 20
8.1930183023
 10
14.6437521473
 20
8.1851553805
  0
LWPOLYLINE
  5
53E
100
AcDbEntity
  8
0
100
AcDbPolyline
 62
7
  6
CONTINUOUS
 90
3
 70
0
 10
14.6831309183
 20
8.2498552761
 10
14.6753296225
 20
8.2093480684
 10
14.6720787178
 20
8.2015864189
  0
LWPOLYLINE
  5
53F
100
AcDbEntity
  8
0
100
AcDbPolyline
 62
7
  6
CONTINUOUS
 90
3
 70
0
 10
14.7114150718
 20
8.2661850422
 10
14.703613776
 20
8.2256778346
 10
14.700382351
 20
8.2179626934
  0
LWPOLYLINE
  5
540
100
AcDbEntity
  8
0
100
AcDbPolyline
 62
7
  6
CONTINUOUS
 90
3
 70
0
 10
14.7396992253
 20
8.2825148084
 10
14.7318979295
 20
8.2420076007
 10
14.7286040859
 20
8.234143433
  0
LINE
  5
541
100
AcDbEntity
  8
0
100
AcDbLine
 62
7
  6
CONTINUOUS
 10
14.6678928552
 20
8.1836853406
 11
14.677284722
 21
8.22385019
  0
LWPOLYLINE
  5
542
100
AcDbEntity
  8
0
100
AcDbPolyline
 62
7
  6
CONTINUOUS
 90
3
 70
0
 10
14.6758277504
 20
8.2227303792
 10
14.6662978821
 20
8.1823425312
 10
14.6502161939
 20
8.1484493883
  0
LINE
  5
543
100
AcDbEntity
  8
0
100
AcDbLine
 62
7
  6
CONTINUOUS
 10
14.4811230292
 20
8.0514455921
 11
14.4595696316
 21
8.0250681143
  0
LWPOLYLINE
  5
544
100
AcDbEntity
  8
0
100
AcDbPolyline
 62
7
  6
CONTINUOUS
 90
5
 70
0
 10
14.5458362997
 20
8.0748739011
 10
14.5673896974
 20
8.1012513788
 10
14.583051759
 20
8.1347293013
 10
14.5924099331
 20
8.1747021848
 10
14.5941732877
 20
8.1908043806
  0
LINE
  5
545
100
AcDbEntity
  8
0
100
AcDbLine
 62
7
  6
CONTINUOUS
 10
14.5942596432
 20
8.1167646567
 11
14.5727062455
 21
8.090387179
  0
LWPOLYLINE
  5
546
100
AcDbEntity
  8
0
100
AcDbPolyline
 62
7
  6
CONTINUOUS
 90
5
 70
0
 10
14.5170753817
 20
8.0581037721
 10
14.5388235929
 20
8.0844701627
 10
14.5547562412
 20
8.118366276
 10
14.5641481081
 20
8.1585311254
 10
14.5658891342
 20
8.1744746144
  0
LINE
  5
547
100
AcDbEntity
  8
0
100
AcDbLine
 62
7
  6
CONTINUOUS
 10
14.5656935387
 20
8.0999834406
 11
14.5439453275
 21
8.07361705
  0
LWPOLYLINE
  5
548
100
AcDbEntity
  8
0
100
AcDbPolyline
 62
7
  6
CONTINUOUS
 90
5
 70
0
 10
14.460101954
 20
8.0250738542
 10
14.4819205215
 20
8.0512794487
 10
14.4980049221
 20
8.0851739128
 10
14.507536507
 20
8.1255645274
 10
14.5093208272
 20
8.1418150821
  0
LINE
  5
549
100
AcDbEntity
  8
0
100
AcDbLine
 62
7
  6
CONTINUOUS
 10
14.5087904673
 20
8.0667927265
 11
14.4869718998
 21
8.0405871321
  0
LWPOLYLINE
  5
54A
100
AcDbEntity
  8
0
100
AcDbPolyline
 62
7
  6
CONTINUOUS
 90
5
 70
0
 10
14.488384054
 20
8.0414017518
 10
14.5102096341
 20
8.0676170458
 10
14.5262913223
 20
8.1015101888
 10
14.5358211906
 20
8.1418980367
 10
14.5376049807
 20
8.1581448483
  0
LINE
  5
54B
100
AcDbEntity
  8
0
100
AcDbLine
 62
7
  6
CONTINUOUS
 10
14.53707958
 20
8.0831303237
 11
14.5152539998
 21
8.0569150296
  0
LWPOLYLINE
  5
54C
100
AcDbEntity
  8
0
100
AcDbPolyline
 62
7
  6
CONTINUOUS
 90
5
 70
0
 10
14.5732385679
 20
8.0903929188
 10
14.5950571354
 20
8.1165985133
 10
14.611141536
 20
8.1504929774
 10
14.620673121
 20
8.190883592
 10
14.6224574412
 20
8.2071341467
  0
LINE
  5
54D
100
AcDbEntity
  8
0
100
AcDbLine
 62
7
  6
CONTINUOUS
 10
14.6219270812
 20
8.1321117911
 11
14.6001085137
 21
8.1059061967
  0
LWPOLYLINE
  5
54E
100
AcDbEntity
  8
0
100
AcDbPolyline
 62
7
  6
CONTINUOUS
 90
5
 70
0
 10
14.6015206679
 20
8.1067208164
 10
14.6233462481
 20
8.1329361105
 10
14.6394279363
 20
8.1668292534
 10
14.6489578046
 20
8.2072171013
 10
14.6507415947
 20
8.2234639129
  0
LINE
  5
54F
100
AcDbEntity
  8
0
100
AcDbLine
 62
7
  6
CONTINUOUS
 10
14.4237107803
 20
8.0074624917
 11
14.4457761807
 21
8.029609354
  0
LINE
  5
550
100
AcDbEntity
  8
0
100
AcDbLine
 62
7
  6
CONTINUOUS
 10
14.4044214813
 20
8.0466557264
 11
14.3916641664
 21
8.0379531729
  0
LINE
  5
551
100
AcDbEntity
  8
AXIS
100
AcDbLine
 62
7
  6
CONTINUOUS
 10
14.3636676142
 20
8.0864449211
 11
14.387043614
 21
8.0999409804
  0
LINE
  5
552
100
AcDbEntity
  8
AXIS_COSMETIC_THREADS
100
AcDbLine
 62
7
  6
CONTINUOUS
 10
14.4434978104
 20
8.1057196809
 11
14.4401944454
 21
8.1038124936
  0
LWPOLYLINE
  5
553
100
AcDbEntity
  8
0
100
AcDbPolyline
 62
7
  6
CONTINUOUS
 90
17
 70
0
 10
14.366160934
 20
8.0821116932
 10
14.3636437006
 20
8.0807142005
 10
14.342350905
 20
8.0727477626
 10
14.3186308128
 20
8.0701710658
 10
14.2930390587
 20
8.073044245
 10
14.2661751116
 20
8.0812996535
 10
14.2386681738
 20
8.0947434788
 10
14.211161236
 20
8.1130612108
 10
14.1842972889
 20
8.1358249147
 10
14.1587055348
 20
8.1625018793
 10
14.1349854426
 20
8.1924675597
 10
14.1136926469
 20
8.225020244
 10
14.0953258925
 20
8.259397528
 10
14.0803153152
 20
8.2947942242
 10
14.0690123394
 20
8.3303812793
 10
14.0616814302
 20
8.3653252508
 10
14.0584938962
 20
8.3988078854
  0
LWPOLYLINE
  5
554
100
AcDbEntity
  8
AXIS
100
AcDbPolyline
 62
7
  6
CONTINUOUS
 90
19
 70
0
 10
14.363665857
 20
8.0864459176
 10
14.3558232632
 20
8.0824517924
 10
14.3374216145
 20
8.0766325231
 10
14.3173090832
 20
8.0747341845
 10
14.2958341145
 20
8.0767896646
 10
14.2733687579
 20
8.0827633529
 10
14.250302221
 20
8.0925517564
 10
14.2270341266
 20
8.1059852931
 10
14.2039675896
 20
8.1228312297
 10
14.181502233
 20
8.1427977139
 10
14.1600272644
 20
8.1655388306
 10
14.139914733
 20
8.1906605947
 10
14.1215130844
 20
8.2177277768
 10
14.1051411231
 20
8.2462714438
 10
14.0910824901
 20
8.2757970825
 10
14.0795807481
 20
8.3057931675
 10
14.0708351624
 20
8.3357400228
 10
14.0649972486
 20
8.3651188255
 10
14.0621681472
 20
8.3934205939
  0
LWPOLYLINE
  5
555
100
AcDbEntity
  8
0
100
AcDbPolyline
 62
9
  6
CONTINUOUS
 90
17
 70
0
 10
14.80598704
 20
8.2290163386
 10
14.8086429359
 20
8.2294923795
 10
14.8387319769
 20
8.2441691946
 10
14.863865085
 20
8.2669990748
 10
14.8833532189
 20
8.2973783456
 10
14.8966510148
 20
8.3344819122
 10
14.9033863073
 20
8.3772661078
 10
14.9033851458
 20
8.4245690986
 10
14.8966476957
 20
8.475130554
 10
14.8833479183
 20
8.5275887045
 10
14.8638576931
 20
8.5804707431
 10
14.8387225469
 20
8.6323211263
 10
14.808632025
 20
8.6817398184
 10
14.774378857
 20
8.7274275989
 10
14.7368368611
 20
8.76818976
 10
14.6969698034
 20
8.8029217865
 10
14.6558594377
 20
8.83061212
  0
LWPOLYLINE
  5
556
100
AcDbEntity
  8
AXIS_COSMETIC_THREADS
100
AcDbPolyline
 62
7
  6
CONTINUOUS
 90
10
 70
0
 10
14.2386681738
 20
8.5499435763
 10
14.267786432
 20
8.5308332766
 10
14.296362567
 20
8.5074802805
 10
14.323864549
 20
8.4803193735
 10
14.3497803466
 20
8.4498562369
 10
14.37362746
 20
8.4166580328
 10
14.3949619042
 20
8.3813428447
 10
14.4133864749
 20
8.3445681699
 10
14.4285581439
 20
8.3070186787
 10
14.4401944454
 20
8.2693934666
  0
LWPOLYLINE
  5
557
100
AcDbEntity
  8
0
100
AcDbPolyline
 62
7
  6
CONTINUOUS
 90
11
 70
0
 10
14.82132382
 20
8.3503091204
 10
14.8171659004
 20
8.39942249
 10
14.8061035062
 20
8.4517553908
 10
14.7884784667
 20
8.5051500957
 10
14.7651259127
 20
8.5574661438
 10
14.736531252
 20
8.6079123291
 10
14.7034415873
 20
8.6551933509
 10
14.6665196797
 20
8.6982823428
 10
14.6269942783
 20
8.7356927368
 10
14.5852412422
 20
8.7669084933
 10
14.5458688078
 20
8.7891203307
  0
LWPOLYLINE
  5
558
100
AcDbEntity
  8
0
100
AcDbPolyline
 62
7
  6
CONTINUOUS
 90
11
 70
0
 10
14.7930396665
 20
8.3339793542
 10
14.788913065
 20
8.3828824595
 10
14.777938158
 20
8.4349870624
 10
14.7604492634
 20
8.4881627048
 10
14.737256737
 20
8.5403140348
 10
14.7085514015
 20
8.5910999601
 10
14.6749185513
 20
8.6391718956
 10
14.6376925669
 20
8.6825233761
 10
14.5982586618
 20
8.7197443162
 10
14.5566619929
 20
8.7507709438
 10
14.5175846543
 20
8.7727905645
  0
LWPOLYLINE
  5
559
100
AcDbEntity
  8
0
100
AcDbPolyline
 62
7
  6
CONTINUOUS
 90
11
 70
0
 10
14.764755513
 20
8.3176495881
 10
14.7610092677
 20
8.3639373184
 10
14.7512571951
 20
8.4125755902
 10
14.7356330998
 20
8.4626322209
 10
14.714582611
 20
8.5125463819
 10
14.6884183568
 20
8.5614567195
 10
14.6574681688
 20
8.6084203255
 10
14.6228017887
 20
8.651609243
 10
14.5857686611
 20
8.6894750005
 10
14.5470350489
 20
8.7215140149
 10
14.5073676319
 20
8.7471262293
  0
LINE
  5
55A
100
AcDbEntity
  8
AXIS_COSMETIC_THREADS
100
AcDbLine
 62
7
  6
CONTINUOUS
 10
14.7479550697
 20
7.6928338144
 11
14.7479550697
 21
7.300656489
  0
LINE
  5
55B
100
AcDbEntity
  8
0
100
AcDbLine
 62
7
  6
CONTINUOUS
 10
14.7638782086
 20
8.2887829775
 11
14.764755513
 21
8.3176495881
  0
LINE
  5
55C
100
AcDbEntity
  8
0
100
AcDbLine
 62
7
  6
CONTINUOUS
 10
14.7921623621
 20
8.3051127437
 11
14.7930396665
 21
8.3339793542
  0
LINE
  5
55D
100
AcDbEntity
  8
0
100
AcDbLine
 62
7
  6
CONTINUOUS
 10
14.8204465156
 20
8.3214425098
 11
14.82132382
 21
8.3503091204
  0
LWPOLYLINE
  5
55E
100
AcDbEntity
  8
0
100
AcDbPolyline
 62
7
  6
CONTINUOUS
 90
4
 70
0
 10
14.8199096123
 20
8.3494926321
 10
14.8172912818
 20
8.3046825324
 10
14.807899415
 20
8.2645176831
 10
14.7919667666
 20
8.2306215698
  0
LWPOLYLINE
  5
55F
100
AcDbEntity
  8
0
100
AcDbPolyline
 62
7
  6
CONTINUOUS
 90
4
 70
0
 10
14.7633413053
 20
8.3168330998
 10
14.7606796808
 20
8.2717159345
 10
14.7511480958
 20
8.2313253199
 10
14.7350636952
 20
8.1974308557
  0
LWPOLYLINE
  5
560
100
AcDbEntity
  8
0
100
AcDbPolyline
 62
7
  6
CONTINUOUS
 90
4
 70
0
 10
14.7916254588
 20
8.3331628659
 10
14.7889643643
 20
8.2880494438
 10
14.779434496
 20
8.2476615959
 10
14.7633528079
 20
8.2137684529
  0
LWPOLYLINE
  5
561
100
AcDbEntity
  8
0
100
AcDbPolyline
 62
7
  6
CONTINUOUS
 90
3
 70
0
 10
14.8259491059
 20
8.3572571083
 10
14.8221332209
 20
8.3140116484
 10
14.8129620036
 20
8.2809027306
  0
LWPOLYLINE
  5
562
100
AcDbEntity
  8
0
100
AcDbPolyline
 62
7
  6
CONTINUOUS
 90
3
 70
0
 10
14.797333028
 20
8.3293949715
 10
14.7917877359
 20
8.2874195298
 10
14.7859017286
 20
8.2698408984
  0
LWPOLYLINE
  5
563
100
AcDbEntity
  8
0
100
AcDbPolyline
 62
7
  6
CONTINUOUS
 90
3
 70
0
 10
14.7682702716
 20
8.3018281535
 10
14.7610073511
 20
8.261201972
 10
14.7571083011
 20
8.2514048611
  0
LWPOLYLINE
  5
564
100
AcDbEntity
  8
0
100
AcDbPolyline
 62
7
  6
CONTINUOUS
 90
5
 70
0
 10
14.6589729137
 20
8.1401929657
 10
14.6805263113
 20
8.1665704435
 10
14.696188373
 20
8.200048366
 10
14.7055465471
 20
8.2400212494
 10
14.7073099017
 20
8.2561234452
  0
LINE
  5
565
100
AcDbEntity
  8
0
100
AcDbLine
 62
7
  6
CONTINUOUS
 10
14.7073962571
 20
8.1820837213
 11
14.6858428595
 21
8.1557062436
  0
LWPOLYLINE
  5
566
100
AcDbEntity
  8
0
100
AcDbPolyline
 62
7
  6
CONTINUOUS
 90
5
 70
0
 10
14.7721095276
 20
8.2055120303
 10
14.7936629253
 20
8.2318895081
 10
14.8093249869
 20
8.2653674306
 10
14.818683161
 20
8.3053403141
 10
14.8204465156
 20
8.3214425098
  0
LWPOLYLINE
  5
567
100
AcDbEntity
  8
0
100
AcDbPolyline
 62
7
  6
CONTINUOUS
 90
3
 70
0
 10
14.6302119957
 20
8.1234228367
 10
14.6519602068
 20
8.1497892273
 10
14.6678928552
 20
8.1836853406
  0
LINE
  5
568
100
AcDbEntity
  8
0
100
AcDbLine
 62
7
  6
CONTINUOUS
 10
14.6788301527
 20
8.1653025052
 11
14.6570819415
 21
8.1389361146
  0
LWPOLYLINE
  5
569
100
AcDbEntity
  8
0
100
AcDbPolyline
 62
7
  6
CONTINUOUS
 90
5
 70
0
 10
14.7433486096
 20
8.1887419013
 10
14.7650968208
 20
8.215108292
 10
14.7810294691
 20
8.2490044052
 10
14.790421336
 20
8.2891692546
 10
14.7921623621
 20
8.3051127437
  0
LINE
  5
56A
100
AcDbEntity
  8
0
100
AcDbLine
 62
7
  6
CONTINUOUS
 10
14.7919667666
 20
8.2306215698
 11
14.7702185555
 21
8.2042551792
  0
LINE
  5
56B
100
AcDbEntity
  8
0
100
AcDbLine
 62
7
  6
CONTINUOUS
 10
14.6502161939
 20
8.1484493883
 11
14.6283906137
 21
8.1222340943
  0
LWPOLYLINE
  5
56C
100
AcDbEntity
  8
0
100
AcDbPolyline
 62
7
  6
CONTINUOUS
 90
5
 70
0
 10
14.6863751819
 20
8.1557119835
 10
14.7081937494
 20
8.1819175779
 10
14.72427815
 20
8.215812042
 10
14.7338097349
 20
8.2562026566
 10
14.7355940551
 20
8.2724532114
  0
LINE
  5
56D
100
AcDbEntity
  8
0
100
AcDbLine
 62
7
  6
CONTINUOUS
 10
14.7350636952
 20
8.1974308557
 11
14.7132451277
 21
8.1712252613
  0
LWPOLYLINE
  5
56E
100
AcDbEntity
  8
0
100
AcDbPolyline
 62
7
  6
CONTINUOUS
 90
5
 70
0
 10
14.7146572819
 20
8.172039881
 10
14.736482862
 20
8.1982551751
 10
14.7525645502
 20
8.232148318
 10
14.7620944185
 20
8.272536166
 10
14.7638782086
 20
8.2887829775
  0
LINE
  5
56F
100
AcDbEntity
  8
0
100
AcDbLine
 62
7
  6
CONTINUOUS
 10
14.7633528079
 20
8.2137684529
 11
14.7415272277
 21
8.1875531589
  0
LWPOLYLINE
  5
570
100
AcDbEntity
  8
0
100
AcDbPolyline
 62
7
  6
CONTINUOUS
 90
3
 70
0
 10
14.8206448627
 20
8.2461649533
 10
14.7980241256
 20
8.2197002925
 10
14.7798259562
 20
8.2066239409
  0
LINE
  5
571
100
AcDbEntity
  8
0
100
AcDbLine
 62
7
  6
CONTINUOUS
 10
14.4595696316
 20
8.0250681143
 11
14.4390277252
 21
8.0098651696
  0
LINE
  5
572
100
AcDbEntity
  8
0
100
AcDbLine
 62
7
  6
CONTINUOUS
 10
14.5252943933
 20
8.0596709564
 11
14.5458362997
 21
8.0748739011
  0
LINE
  5
573
100
AcDbEntity
  8
0
100
AcDbLine
 62
7
  6
CONTINUOUS
 10
14.5727062455
 20
8.090387179
 11
14.5521643392
 21
8.0751842342
  0
LINE
  5
574
100
AcDbEntity
  8
0
100
AcDbLine
 62
7
  6
CONTINUOUS
 10
14.6384310073
 20
8.124990021
 11
14.6589729137
 21
8.1401929657
  0
LINE
  5
575
100
AcDbEntity
  8
0
100
AcDbLine
 62
7
  6
CONTINUOUS
 10
14.6858428595
 20
8.1557062436
 11
14.6653009531
 21
8.1405032989
  0
LINE
  5
576
100
AcDbEntity
  8
0
100
AcDbLine
 62
7
  6
CONTINUOUS
 10
14.7515676212
 20
8.1903090856
 11
14.7721095276
 21
8.2055120303
  0
LINE
  5
577
100
AcDbEntity
  8
0
100
AcDbLine
 62
7
  6
CONTINUOUS
 10
14.4970087911
 20
8.0433403533
 11
14.5170753817
 21
8.0581037721
  0
LINE
  5
578
100
AcDbEntity
  8
0
100
AcDbLine
 62
7
  6
CONTINUOUS
 10
14.5439453275
 20
8.07361705
 11
14.5238787369
 21
8.0588536312
  0
LINE
  5
579
100
AcDbEntity
  8
0
100
AcDbLine
 62
7
  6
CONTINUOUS
 10
14.6101454051
 20
8.1086594179
 11
14.6302119957
 21
8.1234228367
  0
LINE
  5
57A
100
AcDbEntity
  8
0
100
AcDbLine
 62
7
  6
CONTINUOUS
 10
14.6570819415
 20
8.1389361146
 11
14.6370153509
 21
8.1241726958
  0
LINE
  5
57B
100
AcDbEntity
  8
0
100
AcDbLine
 62
7
  6
CONTINUOUS
 10
14.723282019
 20
8.1739784826
 11
14.7433486096
 21
8.1887419013
  0
LINE
  5
57C
100
AcDbEntity
  8
0
100
AcDbLine
 62
7
  6
CONTINUOUS
 10
14.7702185555
 20
8.2042551792
 11
14.7501519648
 21
8.1894917604
  0
LINE
  5
57D
100
AcDbEntity
  8
0
100
AcDbLine
 62
7
  6
CONTINUOUS
 10
14.4404341022
 20
8.0106771346
 11
14.460101954
 21
8.0250738542
  0
LINE
  5
57E
100
AcDbEntity
  8
0
100
AcDbLine
 62
7
  6
CONTINUOUS
 10
14.4869718998
 20
8.0405871321
 11
14.467304048
 21
8.0261904124
  0
LINE
  5
57F
100
AcDbEntity
  8
0
100
AcDbLine
 62
7
  6
CONTINUOUS
 10
14.4687049585
 20
8.0269992216
 11
14.488384054
 21
8.0414017518
  0
LINE
  5
580
100
AcDbEntity
  8
0
100
AcDbLine
 62
7
  6
CONTINUOUS
 10
14.5152539998
 20
8.0569150296
 11
14.4955749044
 21
8.0425124994
  0
LINE
  5
581
100
AcDbEntity
  8
0
100
AcDbLine
 62
7
  6
CONTINUOUS
 10
14.5535707162
 20
8.0759961992
 11
14.5732385679
 21
8.0903929188
  0
LINE
  5
582
100
AcDbEntity
  8
0
100
AcDbLine
 62
7
  6
CONTINUOUS
 10
14.6001085137
 20
8.1059061967
 11
14.580440662
 21
8.091509477
  0
LINE
  5
583
100
AcDbEntity
  8
0
100
AcDbLine
 62
7
  6
CONTINUOUS
 10
14.5818415725
 20
8.0923182862
 11
14.6015206679
 21
8.1067208164
  0
LINE
  5
584
100
AcDbEntity
  8
0
100
AcDbLine
 62
7
  6
CONTINUOUS
 10
14.6283906137
 20
8.1222340943
 11
14.6087115183
 21
8.107831564
  0
LINE
  5
585
100
AcDbEntity
  8
0
100
AcDbLine
 62
7
  6
CONTINUOUS
 10
14.6667073301
 20
8.1413152638
 11
14.6863751819
 21
8.1557119835
  0
LINE
  5
586
100
AcDbEntity
  8
0
100
AcDbLine
 62
7
  6
CONTINUOUS
 10
14.7132451277
 20
8.1712252613
 11
14.693577276
 21
8.1568285417
  0
LINE
  5
587
100
AcDbEntity
  8
0
100
AcDbLine
 62
7
  6
CONTINUOUS
 10
14.6949781865
 20
8.1576373508
 11
14.7146572819
 21
8.172039881
  0
LINE
  5
588
100
AcDbEntity
  8
0
100
AcDbLine
 62
7
  6
CONTINUOUS
 10
14.7415272277
 20
8.1875531589
 11
14.7218481323
 21
8.1731506286
  0
LWPOLYLINE
  5
589
100
AcDbEntity
  8
0
100
AcDbPolyline
 62
7
  6
CONTINUOUS
 90
5
 70
0
 10
14.7784117844
 20
8.2058074734
 10
14.7970644337
 20
8.2192855438
 10
14.8194931944
 20
8.2457563989
 10
14.8357782468
 20
8.2796743036
 10
14.8454425104
 20
8.320078027
  0
LWPOLYLINE
  5
58A
100
AcDbEntity
  8
0
100
AcDbPolyline
 62
9
  6
CONTINUOUS
 90
16
 70
0
 10
14.8219255447
 20
8.24881444
 10
14.8233878322
 20
8.2497314598
 10
14.8476253348
 20
8.2717487929
 10
14.8664190353
 20
8.3010462882
 10
14.8792430689
 20
8.3368282492
 10
14.8857385926
 20
8.3780883192
 10
14.8857378468
 20
8.4237061933
 10
14.8792409509
 20
8.4724665336
 10
14.8664156112
 20
8.5230561859
 10
14.8476203854
 20
8.5740549018
 10
14.8233812903
 20
8.6240590396
 10
14.7943632518
 20
8.6717184623
 10
14.7613306883
 20
8.7157802041
 10
14.7251262971
 20
8.7550922257
 10
14.6866793275
 20
8.7885890319
 10
14.6470206398
 20
8.8153027878
  0
LINE
  5
58B
100
AcDbEntity
  8
AXIS_COSMETIC_THREADS
100
AcDbLine
 62
7
  6
CONTINUOUS
 10
14.4098757692
 20
8.0525013648
 11
14.3899174966
 21
8.0409785196
  0
LWPOLYLINE
  5
58C
100
AcDbEntity
  8
0
100
AcDbPolyline
 62
7
  6
CONTINUOUS
 90
3
 70
0
 10
14.6653009531
 20
8.1405032989
 10
14.6586222871
 20
8.1369400219
 10
14.6514955339
 20
8.1346590007
  0
LWPOLYLINE
  5
58D
100
AcDbEntity
  8
0
100
AcDbPolyline
 62
7
  6
CONTINUOUS
 90
3
 70
0
 10
14.5521643392
 20
8.0751842342
 10
14.5454856731
 20
8.0716209572
 10
14.5383589199
 20
8.0693399361
  0
LWPOLYLINE
  5
58E
100
AcDbEntity
  8
0
100
AcDbPolyline
 62
7
  6
CONTINUOUS
 90
3
 70
0
 10
14.4390277252
 20
8.0098651696
 10
14.4323490592
 20
8.0063018926
 10
14.4092699118
 20
7.9989150754
  0
LWPOLYLINE
  5
58F
100
AcDbEntity
  8
0
100
AcDbPolyline
 62
7
  6
CONTINUOUS
 90
3
 70
0
 10
14.7501519648
 20
8.1894917604
 10
14.7428882587
 20
8.1856434674
 10
14.7363467889
 20
8.1835905125
  0
LWPOLYLINE
  5
590
100
AcDbEntity
  8
0
100
AcDbPolyline
 62
7
  6
CONTINUOUS
 90
3
 70
0
 10
14.6370153509
 20
8.1241726958
 10
14.6297516448
 20
8.1203244028
 10
14.6232101749
 20
8.1182714478
  0
LWPOLYLINE
  5
591
100
AcDbEntity
  8
0
100
AcDbPolyline
 62
7
  6
CONTINUOUS
 90
3
 70
0
 10
14.5238787369
 20
8.0588536312
 10
14.5166150308
 20
8.0550053382
 10
14.510073561
 20
8.0529523832
  0
LWPOLYLINE
  5
592
100
AcDbEntity
  8
0
100
AcDbPolyline
 62
7
  6
CONTINUOUS
 90
3
 70
0
 10
14.693577276
 20
8.1568285417
 10
14.6862499312
 20
8.1529500877
 10
14.6798443183
 20
8.1509314404
  0
LWPOLYLINE
  5
593
100
AcDbEntity
  8
0
100
AcDbPolyline
 62
7
  6
CONTINUOUS
 90
3
 70
0
 10
14.580440662
 20
8.091509477
 10
14.5731133172
 20
8.0876310231
 10
14.5667077043
 20
8.0856123758
  0
LWPOLYLINE
  5
594
100
AcDbEntity
  8
0
100
AcDbPolyline
 62
7
  6
CONTINUOUS
 90
3
 70
0
 10
14.467304048
 20
8.0261904124
 10
14.4599767033
 20
8.0223119585
 10
14.4535710904
 20
8.0202933112
  0
LWPOLYLINE
  5
595
100
AcDbEntity
  8
0
100
AcDbPolyline
 62
7
  6
CONTINUOUS
 90
3
 70
0
 10
14.7218481323
 20
8.1731506286
 10
14.7143266656
 20
8.1691799385
 10
14.7080726421
 20
8.1672207838
  0
LWPOLYLINE
  5
596
100
AcDbEntity
  8
0
100
AcDbPolyline
 62
7
  6
CONTINUOUS
 90
3
 70
0
 10
14.6087115183
 20
8.107831564
 10
14.6011900516
 20
8.1038608739
 10
14.5949360281
 20
8.1019017192
  0
LWPOLYLINE
  5
597
100
AcDbEntity
  8
0
100
AcDbPolyline
 62
7
  6
CONTINUOUS
 90
3
 70
0
 10
14.4955749044
 20
8.0425124994
 10
14.4880534377
 20
8.0385418092
 10
14.4817994142
 20
8.0365826546
  0
LWPOLYLINE
  5
598
100
AcDbEntity
  8
0
100
AcDbPolyline
 62
7
  6
CONTINUOUS
 90
6
 70
0
 10
14.3916641664
 20
8.0379531729
 10
14.377751713
 20
8.0312574883
 10
14.3468559617
 20
8.0241145381
 10
14.3126729793
 20
8.0254439107
 10
14.2762413982
 20
8.035205214
 10
14.2386681738
 20
8.0531018555
  0
LWPOLYLINE
  5
599
100
AcDbEntity
  8
AXIS_COSMETIC_THREADS
100
AcDbPolyline
 62
7
  6
CONTINUOUS
 90
4
 70
0
 10
14.3899228466
 20
8.0409831939
 10
14.37362746
 20
8.0334111225
 10
14.3497803466
 20
8.0277485701
 10
14.323864549
 20
8.027209742
  0
LWPOLYLINE
  5
59A
100
AcDbEntity
  8
0
100
AcDbPolyline
 62
7
  6
CONTINUOUS
 90
3
 70
0
 10
14.3746699986
 20
8.0884317676
 10
14.3600292862
 20
8.0829540504
 10
14.3559363619
 20
8.082509392
  0
LWPOLYLINE
  5
59B
100
AcDbEntity
  8
0
100
AcDbPolyline
 62
7
  6
CONTINUOUS
 90
3
 70
0
 10
14.7640007249
 20
8.1995107529
 10
14.769140163
 20
8.2010148546
 10
14.7784117844
 20
8.2058074734
  0
LWPOLYLINE
  5
59C
100
AcDbEntity
  8
AXIS_COSMETIC_THREADS
100
AcDbPolyline
 62
7
  6
CONTINUOUS
 90
7
 70
0
 10
14.2386681738
 20
8.5499435763
 10
14.2095499155
 20
8.5644553844
 10
14.1809737805
 20
8.5740985203
 10
14.1534717986
 20
8.5786934483
 10
14.127556001
 20
8.5781546202
 10
14.1037088876
 20
8.5724920678
 10
14.0874135009
 20
8.5649199964
  0
LWPOLYLINE
  5
59D
100
AcDbEntity
  8
0
100
AcDbPolyline
 62
7
  6
CONTINUOUS
 90
4
 70
0
 10
14.2637000955
 20
8.5921521948
 10
14.2206700709
 20
8.6143440563
 10
14.1785024519
 20
8.627845966
 10
14.1383796021
 20
8.6322603228
  0
LWPOLYLINE
  5
59E
100
AcDbEntity
  8
0
100
AcDbPolyline
 62
7
  6
CONTINUOUS
 90
11
 70
0
 10
14.2393077425
 20
8.6107296775
 10
14.2803740724
 20
8.5894599416
 10
14.3210969442
 20
8.560563201
 10
14.3603450623
 20
8.524869841
 10
14.3970288776
 20
8.4834026422
 10
14.4301314301
 20
8.4373478275
 10
14.4587371359
 20
8.3880214837
 10
14.4820577055
 20
8.336832306
 10
14.4994544582
 20
8.2852417219
 10
14.5104564011
 20
8.2347225215
 10
14.5147735622
 20
8.1867171668
  0
LWPOLYLINE
  5
59F
100
AcDbEntity
  8
0
100
AcDbPolyline
 62
7
  6
CONTINUOUS
 90
12
 70
0
 10
14.2473360643
 20
8.6034953885
 10
14.2696098618
 20
8.5917318156
 10
14.3106678479
 20
8.5639733638
 10
14.3504303502
 20
8.529195771
 10
14.3877828676
 20
8.4884054289
 10
14.4216797676
 20
8.4427805523
 10
14.4511741676
 20
8.3936375105
 10
14.4754449928
 20
8.3423932092
 10
14.4938204398
 20
8.290524601
 10
14.5057971745
 20
8.239526479
 10
14.5110547158
 20
8.1908687607
 10
14.5104233889
 20
8.1557198614
  0
LWPOLYLINE
  5
5A0
100
AcDbEntity
  8
0
100
AcDbPolyline
 62
7
  6
CONTINUOUS
 90
11
 70
0
 10
14.2347431194
 20
8.609492903
 10
14.2670893658
 20
8.5917517341
 10
14.3095141291
 20
8.561342261
 10
14.3503637887
 20
8.5238790793
 10
14.3885078433
 20
8.4804309462
 10
14.4228887918
 20
8.432238579
 10
14.4525552263
 20
8.3806781875
 10
14.4766904237
 20
8.327219897
 10
14.4946354601
 20
8.2733830108
 10
14.5059037955
 20
8.2207024976
 10
14.5101981316
 20
8.1706816927
  0
LWPOLYLINE
  5
5A1
100
AcDbEntity
  8
0
100
AcDbPolyline
 62
7
  6
CONTINUOUS
 90
11
 70
0
 10
14.2587307241
 20
8.6263602731
 10
14.301175818
 20
8.6026701683
 10
14.3427522139
 20
8.5715670177
 10
14.3821991546
 20
8.5342363858
 10
14.4194361695
 20
8.4907556684
 10
14.4530354734
 20
8.4425910615
 10
14.4816722105
 20
8.3917598036
 10
14.5046884955
 20
8.3398326741
 10
14.5220343723
 20
8.2869516744
 10
14.5329511534
 20
8.2350329541
 10
14.5370680774
 20
8.1861949705
  0
LWPOLYLINE
  5
5A2
100
AcDbEntity
  8
0
100
AcDbPolyline
 62
7
  6
CONTINUOUS
 90
11
 70
0
 10
14.3079643498
 20
8.6320013779
 10
14.3476317668
 20
8.6063891635
 10
14.386365379
 20
8.5743501491
 10
14.4233985066
 20
8.5364843916
 10
14.4580648867
 20
8.4932954741
 10
14.4890150747
 20
8.4463318681
 10
14.5151793289
 20
8.3974215305
 10
14.5362298178
 20
8.3475073695
 10
14.551853913
 20
8.2974507388
 10
14.5616059856
 20
8.248812467
 10
14.5653522309
 20
8.2025247367
  0
LWPOLYLINE
  5
5A3
100
AcDbEntity
  8
0
100
AcDbPolyline
 62
7
  6
CONTINUOUS
 90
11
 70
0
 10
14.2927616173
 20
8.6109765923
 10
14.3340372738
 20
8.5840478685
 10
14.3741474963
 20
8.549943663
 10
14.411960378
 20
8.5096577886
 10
14.4464101028
 20
8.4643618932
 10
14.4765276063
 20
8.4153717539
 10
14.501468454
 20
8.3641094245
 10
14.5205371348
 20
8.3120623256
 10
14.5332070687
 20
8.2607404542
 10
14.5391357564
 20
8.2116329437
 10
14.5387075424
 20
8.1720496275
  0
LWPOLYLINE
  5
5A4
100
AcDbEntity
  8
0
100
AcDbPolyline
 62
7
  6
CONTINUOUS
 90
11
 70
0
 10
14.2962971365
 20
8.6130178131
 10
14.337572793
 20
8.5860890892
 10
14.3776830154
 20
8.5519848838
 10
14.4154958972
 20
8.5116990094
 10
14.449945622
 20
8.466403114
 10
14.4800631255
 20
8.4174129747
 10
14.5050039732
 20
8.3661506453
 10
14.5240726539
 20
8.3141035464
 10
14.5367425879
 20
8.262781675
 10
14.5426712756
 20
8.2136741645
 10
14.5417101509
 20
8.1682064453
  0
LWPOLYLINE
  5
5A5
100
AcDbEntity
  8
0
100
AcDbPolyline
 62
9
  6
CONTINUOUS
 90
3
 70
0
 10
14.8760527576
 20
8.0240771171
 10
14.8786009766
 20
8.0187171473
 10
14.8827203552
 20
8.0082482208
  0
LWPOLYLINE
  5
5A6
100
AcDbEntity
  8
0
100
AcDbPolyline
 62
7
  6
CONTINUOUS
 90
11
 70
0
 10
14.8496079735
 20
8.3666388865
 10
14.8454910494
 20
8.4154768701
 10
14.8345742684
 20
8.4673955905
 10
14.8172283916
 20
8.5202765901
 10
14.7942121066
 20
8.5722037196
 10
14.7655753695
 20
8.6230349775
 10
14.7319760656
 20
8.6711995844
 10
14.6947390506
 20
8.7146803018
 10
14.65529211
 20
8.7520109337
 10
14.6137157141
 20
8.7831140843
 10
14.5741529613
 20
8.8054500969
  0
LINE
  5
5A7
100
AcDbEntity
  8
0
100
AcDbLine
 62
7
  6
CONTINUOUS
 10
14.8496079735
 20
8.3666388865
 11
14.8487306691
 21
8.337772276
  0
LINE
  5
5A8
100
AcDbEntity
  8
0
100
AcDbLine
 62
7
  6
CONTINUOUS
 10
14.8541175217
 20
8.3853928078
 11
14.8520395914
 21
8.3409589448
  0
LINE
  5
5A9
100
AcDbEntity
  8
0
100
AcDbLine
 62
7
  6
CONTINUOUS
 10
14.8454425104
 20
8.320078027
 11
14.8481937658
 21
8.3658223982
  0
LWPOLYLINE
  5
5AA
100
AcDbEntity
  8
0
100
AcDbPolyline
 62
7
  6
CONTINUOUS
 90
4
 70
0
 10
14.8487306691
 20
8.337772276
 10
14.8468287768
 20
8.3207012706
 10
14.8370753569
 20
8.2801565107
 10
14.8206448627
 20
8.2461649533
  0
LINE
  5
5AB
100
AcDbEntity
  8
0
100
AcDbLine
 62
7
  6
CONTINUOUS
 10
14.8520395914
 20
8.3409589448
 11
14.8512033073
 21
8.3372193247
  0
LINE
  5
5AC
100
AcDbEntity
  8
0
100
AcDbLine
 62
7
  6
CONTINUOUS
 10
14.1990389722
 20
8.6237579242
 11
14.2393077425
 21
8.6107296775
  0
LWPOLYLINE
  5
5AD
100
AcDbEntity
  8
0
100
AcDbPolyline
 62
7
  6
CONTINUOUS
 90
12
 70
0
 10
14.1827089397
 20
8.6044054135
 10
14.2233366918
 20
8.5888486907
 10
14.2644199037
 20
8.5652113449
 10
14.3048170798
 20
8.5341748816
 10
14.3434061441
 20
8.4966302563
 10
14.3791162036
 20
8.4536526541
 10
14.4109578629
 20
8.4064710536
 10
14.4380512307
 20
8.3564334379
 10
14.459650828
 20
8.3049686367
 10
14.4751666902
 20
8.2535458794
 10
14.4841810679
 20
8.2036332056
 10
14.4864602519
 20
8.1566559081
  0
LWPOLYLINE
  5
5AE
100
AcDbEntity
  8
0
100
AcDbPolyline
 62
7
  6
CONTINUOUS
 90
4
 70
0
 10
14.2630272729
 20
8.6258226691
 10
14.2414217006
 20
8.635056043
 10
14.2026748425
 20
8.6461177739
 10
14.1656481494
 20
8.649375857
  0
LWPOLYLINE
  5
5AF
100
AcDbEntity
  8
0
100
AcDbPolyline
 62
7
  6
CONTINUOUS
 90
12
 70
0
 10
14.2833056335
 20
8.6483134345
 10
14.32458129
 20
8.6293475793
 10
14.3658569465
 20
8.6024188554
 10
14.4059671689
 20
8.56831465
 10
14.4437800507
 20
8.5280287756
 10
14.4782297755
 20
8.4827328801
 10
14.5083472789
 20
8.4337427408
 10
14.5332881267
 20
8.3824804114
 10
14.5523568074
 20
8.3304333125
 10
14.5650267414
 20
8.2791114411
 10
14.5709554291
 20
8.2300039306
 10
14.5699943044
 20
8.1845362115
  0
LINE
  5
5B0
100
AcDbEntity
  8
0
100
AcDbLine
 62
7
  6
CONTINUOUS
 10
14.2553510227
 20
8.6318642895
 11
14.2962971365
 21
8.6130178131
  0
LINE
  5
5B1
100
AcDbEntity
  8
0
100
AcDbLine
 62
7
  6
CONTINUOUS
 10
14.2682916465
 20
8.6505693209
 11
14.3079643498
 21
8.6320013779
  0
LINE
  5
5B2
100
AcDbEntity
  8
0
100
AcDbLine
 62
7
  6
CONTINUOUS
 10
14.2756202178
 20
8.6198251546
 11
14.2927616173
 21
8.6109765923
  0
LWPOLYLINE
  5
5B3
100
AcDbEntity
  8
0
100
AcDbPolyline
 62
7
  6
CONTINUOUS
 90
12
 70
0
 10
14.3039043713
 20
8.6361549208
 10
14.3210457708
 20
8.6273063585
 10
14.3623214273
 20
8.6003776346
 10
14.4024316497
 20
8.5662734292
 10
14.4402445315
 20
8.5259875548
 10
14.4746942563
 20
8.4806916594
 10
14.5048117598
 20
8.4317015201
 10
14.5297526075
 20
8.3804391907
 10
14.5488212882
 20
8.3283920918
 10
14.5614912222
 20
8.2770702203
 10
14.5674199099
 20
8.2279627099
 10
14.5669916958
 20
8.1883793937
  0
LWPOLYLINE
  5
5B4
100
AcDbEntity
  8
0
100
AcDbPolyline
 62
7
  6
CONTINUOUS
 90
12
 70
0
 10
14.3321885247
 20
8.652484687
 10
14.3493299243
 20
8.6436361246
 10
14.3906055808
 20
8.6167074008
 10
14.4307158032
 20
8.5826031953
 10
14.468528685
 20
8.5423173209
 10
14.5029784098
 20
8.4970214255
 10
14.5330959132
 20
8.4480312862
 10
14.558036761
 20
8.3967689568
 10
14.5771054417
 20
8.3447218579
 10
14.5897753757
 20
8.2933999865
 10
14.5957040634
 20
8.244292476
 10
14.5952758493
 20
8.2047091598
  0
LINE
  5
5B5
100
AcDbEntity
  8
0
100
AcDbLine
 62
7
  6
CONTINUOUS
 10
14.281094404
 20
8.6164881001
 11
14.2630272729
 21
8.6258226691
  0
LWPOLYLINE
  5
5B6
100
AcDbEntity
  8
0
100
AcDbPolyline
 62
7
  6
CONTINUOUS
 90
11
 70
0
 10
14.3148131306
 20
8.6592443947
 10
14.3572587108
 20
8.6356460924
 10
14.3988553797
 20
8.6046194648
 10
14.4382892848
 20
8.5673985247
 10
14.4755152692
 20
8.5240470442
 10
14.5091481194
 20
8.4759751087
 10
14.5378534549
 20
8.4251891834
 10
14.5610459813
 20
8.3730378534
 10
14.5785348759
 20
8.319862211
 10
14.5895097829
 20
8.2677576081
 10
14.5936363844
 20
8.2188545028
  0
LWPOLYLINE
  5
5B7
100
AcDbEntity
  8
0
100
AcDbPolyline
 62
7
  6
CONTINUOUS
 90
11
 70
0
 10
14.3432173081
 20
8.6755187831
 10
14.3858379601
 20
8.6517836419
 10
14.4275909962
 20
8.6205678854
 10
14.4671163976
 20
8.5831574914
 10
14.5040383052
 20
8.5400684995
 10
14.5371279699
 20
8.4927874777
 10
14.5657226306
 20
8.4423412924
 10
14.5890751846
 20
8.3900252443
 10
14.6067002241
 20
8.3366305395
 10
14.6177626183
 20
8.2842976386
 10
14.6219205379
 20
8.235184269
  0
LWPOLYLINE
  5
5B8
100
AcDbEntity
  8
0
100
AcDbPolyline
 62
7
  6
CONTINUOUS
 90
11
 70
0
 10
14.4058982313
 20
8.676295657
 10
14.4471738878
 20
8.6493669331
 10
14.4872841102
 20
8.6152627277
 10
14.525096992
 20
8.5749768533
 10
14.5595467168
 20
8.5296809578
 10
14.5896642202
 20
8.4806908185
 10
14.614605068
 20
8.4294284891
 10
14.6336737487
 20
8.3773813902
 10
14.6463436827
 20
8.3260595188
 10
14.6522723703
 20
8.2769520083
 10
14.6518441563
 20
8.2373686921
  0
LWPOLYLINE
  5
5B9
100
AcDbEntity
  8
0
100
AcDbPolyline
 62
7
  6
CONTINUOUS
 90
11
 70
0
 10
14.4094337505
 20
8.6783368777
 10
14.4507094069
 20
8.6514081539
 10
14.4908196294
 20
8.6173039484
 10
14.5286325112
 20
8.577018074
 10
14.563082236
 20
8.5317221786
 10
14.5931997394
 20
8.4827320393
 10
14.6181405872
 20
8.4314697099
 10
14.6372092679
 20
8.379422611
 10
14.6498792018
 20
8.3281007396
 10
14.6558078895
 20
8.2789932291
 10
14.6548467648
 20
8.2335255099
  0
LINE
  5
5BA
100
AcDbEntity
  8
AXIS_COSMETIC_THREADS
100
AcDbLine
 62
7
  6
CONTINUOUS
 10
14.9809550697
 20
7.6926508605
 11
14.9809550697
 21
7.300656489
  0
LWPOLYLINE
  5
5BB
100
AcDbEntity
  8
0
100
AcDbPolyline
 62
7
  6
CONTINUOUS
 90
4
 70
0
 10
14.1827089397
 20
8.6044054135
 10
14.1582176868
 20
8.6106702913
 10
14.1337670085
 20
8.6135300598
 10
14.1085113759
 20
8.612414696
  0
LINE
  5
5BC
100
AcDbEntity
  8
0
100
AcDbLine
 62
7
  6
CONTINUOUS
 10
14.2551691539
 20
8.6556401562
 11
14.2833056335
 21
8.6483134345
  0
LINE
  5
5BD
100
AcDbEntity
  8
0
100
AcDbLine
 62
7
  6
CONTINUOUS
 10
14.2206173492
 20
8.6409954184
 11
14.2553510227
 21
8.6318642895
  0
LWPOLYLINE
  5
5BE
100
AcDbEntity
  8
0
100
AcDbPolyline
 62
7
  6
CONTINUOUS
 90
3
 70
0
 10
14.3195955799
 20
8.6584822015
 10
14.274596811
 20
8.6752693843
 10
14.2350745511
 20
8.6817903741
  0
LWPOLYLINE
  5
5BF
100
AcDbEntity
  8
0
100
AcDbPolyline
 62
7
  6
CONTINUOUS
 90
3
 70
0
 10
14.2913114264
 20
8.6421524353
 10
14.2463657379
 20
8.6589254509
 10
14.206915267
 20
8.6654534039
  0
LWPOLYLINE
  5
5C0
100
AcDbEntity
  8
0
100
AcDbPolyline
 62
7
  6
CONTINUOUS
 90
3
 70
0
 10
14.3478797334
 20
8.6748119676
 10
14.3034007826
 20
8.6914598163
 10
14.2639475665
 20
8.6980853748
  0
LWPOLYLINE
  5
5C1
100
AcDbEntity
  8
0
100
AcDbPolyline
 62
7
  6
CONTINUOUS
 90
4
 70
0
 10
14.3761638869
 20
8.6911417338
 10
14.3545583146
 20
8.7003751076
 10
14.3158114564
 20
8.7114368385
 10
14.2787847634
 20
8.7146949216
  0
LWPOLYLINE
  5
5C2
100
AcDbEntity
  8
0
100
AcDbPolyline
 62
7
  6
CONTINUOUS
 90
12
 70
0
 10
14.311589787
 20
8.6646432007
 10
14.3528654435
 20
8.6456773454
 10
14.3941411
 20
8.6187486215
 10
14.4342513224
 20
8.5846444161
 10
14.4720642042
 20
8.5443585417
 10
14.506513929
 20
8.4990626463
 10
14.5366314324
 20
8.450072507
 10
14.5615722802
 20
8.3988101776
 10
14.5806409609
 20
8.3467630787
 10
14.5933108949
 20
8.2954412073
 10
14.5992395825
 20
8.2463336968
 10
14.5982784579
 20
8.2008659776
  0
LWPOLYLINE
  5
5C3
100
AcDbEntity
  8
0
100
AcDbPolyline
 62
7
  6
CONTINUOUS
 90
12
 70
0
 10
14.3398739405
 20
8.6809729668
 10
14.381149597
 20
8.6620071116
 10
14.4224252535
 20
8.6350783877
 10
14.4625354759
 20
8.6009741823
 10
14.5003483577
 20
8.5606883079
 10
14.5347980825
 20
8.5153924125
 10
14.5649155859
 20
8.4664022731
 10
14.5898564337
 20
8.4151399438
 10
14.6089251144
 20
8.3630928449
 10
14.6215950484
 20
8.3117709734
 10
14.627523736
 20
8.2626634629
 10
14.6265626113
 20
8.2171957438
  0
LINE
  5
5C4
100
AcDbEntity
  8
0
100
AcDbLine
 62
7
  6
CONTINUOUS
 10
14.368158094
 20
8.697302733
 11
14.4094337505
 21
8.6783368777
  0
LWPOLYLINE
  5
5C5
100
AcDbEntity
  8
0
100
AcDbPolyline
 62
7
  6
CONTINUOUS
 90
12
 70
0
 10
14.3964422475
 20
8.7136324991
 10
14.4377179039
 20
8.6946666439
 10
14.4789935604
 20
8.66773792
 10
14.5191037829
 20
8.6336337146
 10
14.5569166647
 20
8.5933478402
 10
14.5913663895
 20
8.5480519448
 10
14.6214838929
 20
8.4990618055
 10
14.6464247406
 20
8.4477994761
 10
14.6654934214
 20
8.3957523772
 10
14.6781633553
 20
8.3444305057
 10
14.684092043
 20
8.2953229953
 10
14.6831309183
 20
8.2498552761
  0
LINE
  5
5C6
100
AcDbEntity
  8
0
100
AcDbLine
 62
7
  6
CONTINUOUS
 10
14.3814282604
 20
8.7158883855
 11
14.4211009638
 21
8.6973204425
  0
LWPOLYLINE
  5
5C7
100
AcDbEntity
  8
0
100
AcDbPolyline
 62
7
  6
CONTINUOUS
 90
12
 70
0
 10
14.3604726782
 20
8.6688144531
 10
14.3776140778
 20
8.6599658908
 10
14.4188897343
 20
8.6330371669
 10
14.4589999567
 20
8.5989329615
 10
14.4968128385
 20
8.5586470871
 10
14.5312625633
 20
8.5133511917
 10
14.5613800667
 20
8.4643610524
 10
14.5863209145
 20
8.413098723
 10
14.6053895952
 20
8.3610516241
 10
14.6180595292
 20
8.3097297527
 10
14.6239882169
 20
8.2606222422
 10
14.6235600028
 20
8.221038926
  0
LINE
  5
5C8
100
AcDbEntity
  8
0
100
AcDbLine
 62
7
  6
CONTINUOUS
 10
14.3887568317
 20
8.6851442193
 11
14.4058982313
 21
8.676295657
  0
LWPOLYLINE
  5
5C9
100
AcDbEntity
  8
0
100
AcDbPolyline
 62
7
  6
CONTINUOUS
 90
12
 70
0
 10
14.4170409852
 20
8.7014739854
 10
14.4341823848
 20
8.6926254231
 10
14.4754580412
 20
8.6656966992
 10
14.5155682637
 20
8.6315924938
 10
14.5533811455
 20
8.5913066194
 10
14.5878308703
 20
8.546010724
 10
14.6179483737
 20
8.4970205847
 10
14.6428892215
 20
8.4457582553
 10
14.6619579022
 20
8.3937111564
 10
14.6746278361
 20
8.342389285
 10
14.6805565238
 20
8.2932817745
 10
14.6801283098
 20
8.2536984583
  0
LINE
  5
5CA
100
AcDbEntity
  8
0
100
AcDbLine
 62
7
  6
CONTINUOUS
 10
14.394231018
 20
8.6818071647
 11
14.3761638869
 21
8.6911417338
  0
LWPOLYLINE
  5
5CB
100
AcDbEntity
  8
0
100
AcDbPolyline
 62
7
  6
CONTINUOUS
 90
11
 70
0
 10
14.4279497446
 20
8.7245634593
 10
14.4703953248
 20
8.700965157
 10
14.5119919937
 20
8.6699385294
 10
14.5514258987
 20
8.6327175893
 10
14.5886518832
 20
8.5893661088
 10
14.6222847334
 20
8.5412941733
 10
14.6509900688
 20
8.490508248
 10
14.6741825953
 20
8.4383569181
 10
14.6916714899
 20
8.3851812756
 10
14.7026463969
 20
8.3330766727
 10
14.7067729983
 20
8.2841735675
  0
LWPOLYLINE
  5
5CC
100
AcDbEntity
  8
0
100
AcDbPolyline
 62
7
  6
CONTINUOUS
 90
11
 70
0
 10
14.3718673381
 20
8.6916793377
 10
14.414312432
 20
8.6679892329
 10
14.4558888279
 20
8.6368860823
 10
14.4953357685
 20
8.5995554504
 10
14.5325727835
 20
8.556074733
 10
14.5661720874
 20
8.5079101261
 10
14.5948088245
 20
8.4570788682
 10
14.6178251095
 20
8.4051517387
 10
14.6351709863
 20
8.3522707391
 10
14.6460877673
 20
8.3003520187
 10
14.6502046914
 20
8.2515140351
  0
LWPOLYLINE
  5
5CD
100
AcDbEntity
  8
0
100
AcDbPolyline
 62
7
  6
CONTINUOUS
 90
11
 70
0
 10
14.4211009638
 20
8.6973204425
 10
14.4607683807
 20
8.6717082281
 10
14.499501993
 20
8.6396692137
 10
14.5365351206
 20
8.6018034563
 10
14.5712015007
 20
8.5586145387
 10
14.6021516887
 20
8.5116509327
 10
14.6283159429
 20
8.4627405951
 10
14.6493664317
 20
8.4128264341
 10
14.664990527
 20
8.3627698034
 10
14.6747425996
 20
8.3141315316
 10
14.6784888448
 20
8.2678438013
  0
LWPOLYLINE
  5
5CE
100
AcDbEntity
  8
0
100
AcDbPolyline
 62
9
  6
CONTINUOUS
 90
10
 70
0
 10
15.0320418115
 20
8.3266315645
 10
15.0279702053
 20
8.392718933
 10
15.0158435248
 20
8.462077089
 10
14.9959242759
 20
8.5332046379
 10
14.9686436502
 20
8.6045618831
 10
14.9345921909
 20
8.6746041557
 10
14.8945070093
 20
8.741815252
 10
14.8492558284
 20
8.8047402548
 10
14.7998181997
 20
8.8620170278
 10
14.7472642986
 20
8.9124057019
  0
LWPOLYLINE
  5
5CF
100
AcDbEntity
  8
AXIS
100
AcDbPolyline
 62
7
  6
CONTINUOUS
 90
5
 70
0
 10
14.9809498609
 20
7.300641603
 10
14.9807425511
 20
7.2965956899
 10
14.975680195
 20
7.2806465983
 10
14.9641538389
 20
7.2658604089
 10
14.9468333527
 20
7.2530964411
  0
LWPOLYLINE
  5
5D0
100
AcDbEntity
  8
0
100
AcDbPolyline
 62
9
  6
CONTINUOUS
 90
3
 70
0
 10
15.1041077049
 20
8.1190286602
 10
15.0917033347
 20
8.1092087508
 10
15.0730524386
 20
8.0972868621
  0
LWPOLYLINE
  5
5D1
100
AcDbEntity
  8
0
100
AcDbPolyline
 62
9
  6
CONTINUOUS
 90
8
 70
0
 10
14.9942843428
 20
8.0556224911
 10
15.0210686929
 20
8.0741786649
 10
15.0495310489
 20
8.1025645864
 10
15.0733499003
 20
8.1371077201
 10
15.0922103591
 20
8.1773514019
 10
15.1058630878
 20
8.2227636056
 10
15.1141275958
 20
8.2727439765
 10
15.1168946253
 20
8.3266317685
  0
LWPOLYLINE
  5
5D2
100
AcDbEntity
  8
AXIS_COSMETIC_THREADS
100
AcDbPolyline
 62
7
  6
CONTINUOUS
 90
28
 70
0
 10
15.2730934483
 20
8.217747325
 10
15.2796489927
 20
8.2217035074
 10
15.3043205047
 20
8.2400672008
 10
15.3263613883
 20
8.2623720567
 10
15.3455941834
 20
8.2884384894
 10
15.3618640387
 20
8.3180566274
 10
15.375039959
 20
8.3509880027
 10
15.3850158594
 20
8.3869674715
 10
15.3917114199
 20
8.4257053481
 10
15.3950727319
 20
8.4668897379
 10
15.3950727319
 20
8.5101890484
 10
15.3917114199
 20
8.5552546591
 10
15.3850158594
 20
8.6017237282
 10
15.375039959
 20
8.6492221139
 10
15.3618640387
 20
8.6973673874
 10
15.3455941834
 20
8.745771911
 10
15.3263613883
 20
8.7940459601
 10
15.3043205047
 20
8.8418008604
 10
15.2796489927
 20
8.8886521176
 10
15.2525454928
 20
8.9342225127
 10
15.2232282266
 20
8.9781451399
 10
15.1919332393
 20
9.02006636
 10
15.1589124999
 20
9.0596486479
 10
15.1244318718
 20
9.0965733103
 10
15.0887689729
 20
9.1305430516
 10
15.0522109399
 20
9.1612843673
 10
15.0150521165
 20
9.1885497466
 10
14.9775916837
 20
9.2121196645
  0
LINE
  5
5D3
100
AcDbEntity
  8
AXIS_COSMETIC_THREADS
100
AcDbLine
 62
7
  6
CONTINUOUS
 10
15.2730903607
 20
8.2177449585
 11
15.3328579597
 21
8.2522515919
  0
LINE
  5
5D4
100
AcDbEntity
  8
0
100
AcDbLine
 62
7
  6
CONTINUOUS
 10
15.2629838009
 20
8.2107552695
 11
14.9942843428
 21
8.0556224911
  0
LINE
  5
5D5
100
AcDbEntity
  8
0
100
AcDbLine
 62
7
  6
CONTINUOUS
 10
15.3328372478
 20
8.252239634
 11
15.3328006565
 21
8.2522185156
  0
LWPOLYLINE
  5
5D6
100
AcDbEntity
  8
0
100
AcDbPolyline
 62
9
  6
CONTINUOUS
 90
3
 70
0
 10
15.0730524386
 20
8.0972868621
 10
15.0442729498
 20
8.0811246842
 10
15.0099818823
 20
8.0629475847
  0
LWPOLYLINE
  5
5D7
100
AcDbEntity
  8
0
100
AcDbPolyline
 62
9
  6
CONTINUOUS
 90
4
 70
0
 10
15.0099818823
 20
8.0629475847
 10
14.9708306892
 20
8.043719493
 10
14.9279341793
 20
8.0249075127
 10
14.8827203552
 20
8.0082482208
  0
LWPOLYLINE
  5
5D8
100
AcDbEntity
  8
AXIS
100
AcDbPolyline
 62
7
  6
CONTINUOUS
 90
17
 70
0
 10
14.139914733
 20
8.5292706672
 10
14.1600272644
 20
8.5311690059
 10
14.181502233
 20
8.5291135257
 10
14.2039675896
 20
8.5231398374
 10
14.2270341266
 20
8.5133514339
 10
14.250302221
 20
8.4999178973
 10
14.2733687579
 20
8.4830719606
 10
14.2958341145
 20
8.4631054764
 10
14.3173090832
 20
8.4403643597
 10
14.3374216145
 20
8.4152425956
 10
14.3558232632
 20
8.3881754135
 10
14.3721952244
 20
8.3596317465
 10
14.3862538575
 20
8.3301061078
 10
14.3977555995
 20
8.3001100228
 10
14.4065011851
 20
8.2701631675
 10
14.412339099
 20
8.2407843648
 10
14.4151682004
 20
8.2124825964
  0
LWPOLYLINE
  5
5D9
100
AcDbEntity
  8
0
100
AcDbPolyline
 62
7
  6
CONTINUOUS
 90
3
 70
0
 10
14.1925180952
 20
8.6648891348
 10
14.2295447883
 20
8.6616310517
 10
14.2682916465
 20
8.6505693209
  0
LINE
  5
5DA
100
AcDbEntity
  8
0
100
AcDbLine
 62
7
  6
CONTINUOUS
 10
14.1936032845
 20
8.6243823196
 11
14.1990389722
 21
8.6237579242
  0
LINE
  5
5DB
100
AcDbEntity
  8
0
100
AcDbLine
 62
7
  6
CONTINUOUS
 10
14.2834130867
 20
8.6719803958
 11
14.311589787
 21
8.6646432007
  0
LINE
  5
5DC
100
AcDbEntity
  8
0
100
AcDbLine
 62
7
  6
CONTINUOUS
 10
14.3120871575
 20
8.6882086277
 11
14.3398739405
 21
8.6809729668
  0
LINE
  5
5DD
100
AcDbEntity
  8
0
100
AcDbLine
 62
7
  6
CONTINUOUS
 10
14.3358639893
 20
8.7057120976
 11
14.368158094
 21
8.697302733
  0
LINE
  5
5DE
100
AcDbEntity
  8
0
100
AcDbLine
 62
7
  6
CONTINUOUS
 10
14.3683057678
 20
8.7209592208
 11
14.3964422475
 21
8.7136324991
  0
LWPOLYLINE
  5
5DF
100
AcDbEntity
  8
0
100
AcDbPolyline
 62
7
  6
CONTINUOUS
 90
3
 70
0
 10
14.4327321939
 20
8.7238012661
 10
14.3877334249
 20
8.7405884489
 10
14.3482111651
 20
8.7471094387
  0
LWPOLYLINE
  5
5E0
100
AcDbEntity
  8
0
100
AcDbPolyline
 62
7
  6
CONTINUOUS
 90
3
 70
0
 10
14.4044480404
 20
8.7074714999
 10
14.3595023519
 20
8.7242445156
 10
14.3200518809
 20
8.7307724685
  0
LWPOLYLINE
  5
5E1
100
AcDbEntity
  8
0
100
AcDbPolyline
 62
7
  6
CONTINUOUS
 90
3
 70
0
 10
14.4610163473
 20
8.7401310322
 10
14.4165373966
 20
8.7567788809
 10
14.3770841804
 20
8.7634044394
  0
LWPOLYLINE
  5
5E2
100
AcDbEntity
  8
0
100
AcDbPolyline
 62
7
  6
CONTINUOUS
 90
12
 70
0
 10
14.424726401
 20
8.7299622653
 10
14.4660020574
 20
8.71099641
 10
14.5072777139
 20
8.6840676862
 10
14.5473879364
 20
8.6499634807
 10
14.5852008182
 20
8.6096776063
 10
14.619650543
 20
8.5643817109
 10
14.6497680464
 20
8.5153915716
 10
14.6747088941
 20
8.4641292422
 10
14.6937775749
 20
8.4120821433
 10
14.7064475088
 20
8.3607602719
 10
14.7123761965
 20
8.3116527614
 10
14.7114150718
 20
8.2661850422
  0
LWPOLYLINE
  5
5E3
100
AcDbEntity
  8
0
100
AcDbPolyline
 62
7
  6
CONTINUOUS
 90
12
 70
0
 10
14.4530105544
 20
8.7462920314
 10
14.4942862109
 20
8.7273261762
 10
14.5355618674
 20
8.7003974523
 10
14.5756720899
 20
8.6662932469
 10
14.6134849716
 20
8.6260073725
 10
14.6479346964
 20
8.5807114771
 10
14.6780521999
 20
8.5317213378
 10
14.7029930476
 20
8.4804590084
 10
14.7220617284
 20
8.4284119095
 10
14.7347316623
 20
8.377090038
 10
14.74066035
 20
8.3279825276
 10
14.7396992253
 20
8.2825148084
  0
LINE
  5
5E4
100
AcDbEntity
  8
0
100
AcDbLine
 62
7
  6
CONTINUOUS
 10
14.4812947079
 20
8.7626217976
 11
14.5225703644
 21
8.7436559423
  0
LWPOLYLINE
  5
5E5
100
AcDbEntity
  8
0
100
AcDbPolyline
 62
7
  6
CONTINUOUS
 90
12
 70
0
 10
14.4453251387
 20
8.7178037516
 10
14.4624665382
 20
8.7089551893
 10
14.5037421947
 20
8.6820264654
 10
14.5438524172
 20
8.64792226
 10
14.581665299
 20
8.6076363856
 10
14.6161150238
 20
8.5623404901
 10
14.6462325272
 20
8.5133503508
 10
14.6711733749
 20
8.4620880214
 10
14.6902420557
 20
8.4100409226
 10
14.7029119896
 20
8.3587190511
 10
14.7088406773
 20
8.3096115406
 10
14.7084124633
 20
8.2700282244
  0
LWPOLYLINE
  5
5E6
100
AcDbEntity
  8
0
100
AcDbPolyline
 62
7
  6
CONTINUOUS
 90
12
 70
0
 10
14.4736092922
 20
8.7341335177
 10
14.4907506917
 20
8.7252849554
 10
14.5320263482
 20
8.6983562316
 10
14.5721365707
 20
8.6642520261
 10
14.6099494525
 20
8.6239661517
 10
14.6443991773
 20
8.5786702563
 10
14.6745166807
 20
8.529680117
 10
14.6994575284
 20
8.4784177876
 10
14.7185262092
 20
8.4263706887
 10
14.7311961431
 20
8.3750488173
 10
14.7371248308
 20
8.3259413068
 10
14.7366966168
 20
8.2863579906
  0
LINE
  5
5E7
100
AcDbEntity
  8
0
100
AcDbLine
 62
7
  6
CONTINUOUS
 10
14.5018934457
 20
8.7504632839
 11
14.5190348452
 21
8.7416147216
  0
LINE
  5
5E8
100
AcDbEntity
  8
0
100
AcDbLine
 62
7
  6
CONTINUOUS
 10
14.5073676319
 20
8.7471262293
 11
14.4893005008
 21
8.7564607984
  0
LWPOLYLINE
  5
5E9
100
AcDbEntity
  8
0
100
AcDbPolyline
 62
7
  6
CONTINUOUS
 90
11
 70
0
 10
14.4563539221
 20
8.7408378477
 10
14.4989745741
 20
8.7171027066
 10
14.5407276102
 20
8.68588695
 10
14.5802530116
 20
8.648476556
 10
14.6171749192
 20
8.6053875641
 10
14.6502645838
 20
8.5581065424
 10
14.6788592446
 20
8.507660357
 10
14.7022117986
 20
8.4553443089
 10
14.719836838
 20
8.4019496041
 10
14.7308992322
 20
8.3496167032
 10
14.7350571518
 20
8.3005033336
  0
LWPOLYLINE
  5
5EA
100
AcDbEntity
  8
0
100
AcDbPolyline
 62
7
  6
CONTINUOUS
 90
11
 70
0
 10
14.485003952
 20
8.7569984024
 10
14.5274490459
 20
8.7333082976
 10
14.5690254418
 20
8.702205147
 10
14.6084723825
 20
8.6648745151
 10
14.6457093974
 20
8.6213937977
 10
14.6793087013
 20
8.5732291908
 10
14.7079454385
 20
8.5223979328
 10
14.7309617235
 20
8.4704708033
 10
14.7483076003
 20
8.4175898037
 10
14.7592243813
 20
8.3656710834
 10
14.7633413053
 20
8.3168330998
  0
LWPOLYLINE
  5
5EB
100
AcDbEntity
  8
0
100
AcDbPolyline
 62
7
  6
CONTINUOUS
 90
11
 70
0
 10
14.5342375777
 20
8.7626395071
 10
14.5739049947
 20
8.7370272928
 10
14.6126386069
 20
8.7049882783
 10
14.6496717345
 20
8.6671225209
 10
14.6843381146
 20
8.6239336034
 10
14.7152883026
 20
8.5769699973
 10
14.7414525568
 20
8.5280596597
 10
14.7625030457
 20
8.4781454987
 10
14.7781271409
 20
8.428088868
 10
14.7878792135
 20
8.3794505962
 10
14.7916254588
 20
8.3331628659
  0
LWPOLYLINE
  5
5EC
100
AcDbEntity
  8
0
100
AcDbPolyline
 62
7
  6
CONTINUOUS
 90
11
 70
0
 10
14.5225703644
 20
8.7436559423
 10
14.5635647075
 20
8.7169380239
 10
14.6034173924
 20
8.6831367156
 10
14.6410191551
 20
8.6432235541
 10
14.6753246008
 20
8.5983434978
 10
14.7053818662
 20
8.5497824386
 10
14.7303596289
 20
8.4989307157
 10
14.7495706953
 20
8.4472436652
 10
14.7624914998
 20
8.3962003249
 10
14.7687769606
 20
8.347261468
 10
14.7682702716
 20
8.3018281535
  0
LWPOLYLINE
  5
5ED
100
AcDbEntity
  8
0
100
AcDbPolyline
 62
7
  6
CONTINUOUS
 90
11
 70
0
 10
14.5190348452
 20
8.7416147216
 10
14.5602298044
 20
8.7147465082
 10
14.6002661835
 20
8.680729283
 10
14.6380186017
 20
8.6405504313
 10
14.6724271249
 20
8.5953739003
 10
14.7025276384
 20
8.5465068453
 10
14.7274794736
 20
8.4953621738
 10
14.7465894973
 20
8.4434180585
 10
14.7593319733
 20
8.3921755798
 10
14.7653636277
 20
8.3431157132
 10
14.7649807703
 20
8.3026877568
  0
LWPOLYLINE
  5
5EE
100
AcDbEntity
  8
0
100
AcDbPolyline
 62
7
  6
CONTINUOUS
 90
13
 70
0
 10
14.6978564042
 20
8.7536402994
 10
14.7343777031
 20
8.7142151533
 10
14.7678218604
 20
8.6701693697
 10
14.7975877213
 20
8.6222347237
 10
14.8225560459
 20
8.5721992842
 10
14.8420963746
 20
8.5215910795
 10
14.8559600335
 20
8.4713134312
 10
14.8638377073
 20
8.4226020152
 10
14.865556359
 20
8.3765449187
 10
14.8610030353
 20
8.3340831603
 10
14.8501517818
 20
8.2963883629
 10
14.8330642312
 20
8.2644675286
 10
14.825460723
 20
8.2561280493
  0
LWPOLYLINE
  5
5EF
100
AcDbEntity
  8
0
100
AcDbPolyline
 62
9
  6
CONTINUOUS
 90
18
 70
0
 10
15.1168946253
 20
8.3266317685
 10
15.1126178395
 20
8.3980195347
 10
15.0998748713
 20
8.4728869067
 10
15.0789261017
 20
8.5497040955
 10
15.0501995837
 20
8.6269014708
 10
15.0142822955
 20
8.7029016338
 10
14.9719081465
 20
8.7761516486
 10
14.9239429815
 20
8.8451547742
 10
14.871366888
 20
8.9085010476
 10
14.8152541702
 20
8.9648960939
 10
14.7567513974
 20
9.013187575
 10
14.6970539756
 20
9.0523887356
 10
14.6373817214
 20
9.0816985657
 10
14.578953937
 20
9.1005181682
 10
14.5229644963
 20
9.108462996
 10
14.4705574495
 20
9.10537071
 10
14.4228036466
 20
9.0913044957
 10
14.4022869931
 20
9.0809980993
  0
LINE
  5
5F0
100
AcDbEntity
  8
0
100
AcDbLine
 62
7
  6
CONTINUOUS
 10
15.1544550697
 20
7.8814432046
 11
15.1544550697
 21
7.8681578146
  0
LINE
  5
5F1
100
AcDbEntity
  8
0
100
AcDbLine
 62
7
  6
CONTINUOUS
 10
15.1594550697
 20
7.9089829355
 11
15.1594550697
 21
8.1509832855
  0
LWPOLYLINE
  5
5F2
100
AcDbEntity
  8
0
100
AcDbPolyline
 62
9
  6
CONTINUOUS
 90
4
 70
0
 10
15.356750039
 20
8.2689367588
 10
15.3466245429
 20
8.2611301507
 10
15.3361815519
 20
8.2542235087
 10
15.3328372478
 20
8.252239634
  0
LWPOLYLINE
  5
5F3
100
AcDbEntity
  8
0
100
AcDbPolyline
 62
7
  6
CONTINUOUS
 90
18
 70
0
 10
15.3328007412
 20
8.252218571
 10
15.3569050013
 20
8.2684842005
 10
15.3927301646
 20
8.3031427222
 10
15.4235450489
 20
8.3481307113
 10
15.4473776523
 20
8.4021975363
 10
15.462934283
 20
8.463870505
 10
15.4694547545
 20
8.5316486306
 10
15.4667600517
 20
8.603625691
 10
15.4553922252
 20
8.6782039607
 10
15.4358549328
 20
8.7539099456
 10
15.4086761
 20
8.8294944782
 10
15.3744358954
 20
8.9036841418
 10
15.3337887139
 20
8.9751832408
 10
15.2874609857
 20
9.0427112687
 10
15.2362585745
 20
9.1050077664
 10
15.1810424861
 20
9.1608736691
 10
15.1226963977
 20
9.2091940684
 10
15.0641582142
 20
9.2477516015
  0
LWPOLYLINE
  5
5F4
100
AcDbEntity
  8
0
100
AcDbPolyline
 62
7
  6
CONTINUOUS
 90
5
 70
0
 10
14.1051685238
 20
8.6288687077
 10
14.1421693949
 20
8.6330715703
 10
14.1822387014
 20
8.6281431142
 10
14.2242675115
 20
8.6142348413
 10
14.2347431194
 20
8.609492903
  0
LINE
  5
5F5
100
AcDbEntity
  8
0
100
AcDbLine
 62
7
  6
CONTINUOUS
 10
14.206915267
 20
8.6654534039
 11
14.1696719332
 21
8.6632559393
  0
LWPOLYLINE
  5
5F6
100
AcDbEntity
  8
0
100
AcDbPolyline
 62
7
  6
CONTINUOUS
 90
4
 70
0
 10
14.1404284671
 20
8.6461939371
 10
14.1776808983
 20
8.648279588
 10
14.2171341145
 20
8.6416540295
 10
14.2587307241
 20
8.6263602731
  0
LWPOLYLINE
  5
5F7
100
AcDbEntity
  8
0
100
AcDbPolyline
 62
7
  6
CONTINUOUS
 90
3
 70
0
 10
14.3056547092
 20
8.7302081994
 10
14.3426814022
 20
8.7269501163
 10
14.3814282604
 20
8.7158883855
  0
LINE
  5
5F8
100
AcDbEntity
  8
0
100
AcDbLine
 62
7
  6
CONTINUOUS
 10
14.3965497006
 20
8.7372994604
 11
14.424726401
 21
8.7299622653
  0
LINE
  5
5F9
100
AcDbEntity
  8
0
100
AcDbLine
 62
7
  6
CONTINUOUS
 10
14.4252237715
 20
8.7535276924
 11
14.4530105544
 21
8.7462920314
  0
LINE
  5
5FA
100
AcDbEntity
  8
0
100
AcDbLine
 62
7
  6
CONTINUOUS
 10
14.4490006032
 20
8.7710311623
 11
14.4812947079
 21
8.7626217976
  0
LINE
  5
5FB
100
AcDbEntity
  8
0
100
AcDbLine
 62
7
  6
CONTINUOUS
 10
14.5175008118
 20
8.8016175605
 11
14.5580512285
 21
8.7870068655
  0
LWPOLYLINE
  5
5FC
100
AcDbEntity
  8
0
100
AcDbPolyline
 62
7
  6
CONTINUOUS
 90
3
 70
0
 10
14.5458688078
 20
8.7891203307
 10
14.5008700389
 20
8.8059075135
 10
14.461347779
 20
8.8124285034
  0
LWPOLYLINE
  5
5FD
100
AcDbEntity
  8
0
100
AcDbPolyline
 62
7
  6
CONTINUOUS
 90
3
 70
0
 10
14.5175846543
 20
8.7727905645
 10
14.4726389658
 20
8.7895635802
 10
14.4331884949
 20
8.7960915331
  0
LWPOLYLINE
  5
5FE
100
AcDbEntity
  8
0
100
AcDbPolyline
 62
7
  6
CONTINUOUS
 90
12
 70
0
 10
14.4994913263
 20
8.7823487158
 10
14.5403011197
 20
8.7655953182
 10
14.5814048406
 20
8.7408256244
 10
14.6216577271
 20
8.7087549022
 10
14.6599391597
 20
8.6703055836
 10
14.695184458
 20
8.6265810907
 10
14.7264150911
 20
8.5788345269
 10
14.7527664425
 20
8.5284331205
 10
14.7735123434
 20
8.4768194297
 10
14.7880856781
 20
8.4254704111
 10
14.7960944747
 20
8.3758555112
 10
14.797333028
 20
8.3293949715
  0
LWPOLYLINE
  5
5FF
100
AcDbEntity
  8
0
100
AcDbPolyline
 62
7
  6
CONTINUOUS
 90
4
 70
0
 10
14.4893005008
 20
8.7564607984
 10
14.4676949285
 20
8.7656941723
 10
14.4289480704
 20
8.7767559031
 10
14.3919213773
 20
8.7800139862
  0
LINE
  5
600
100
AcDbEntity
  8
0
100
AcDbLine
 62
7
  6
CONTINUOUS
 10
14.4945648744
 20
8.7812074501
 11
14.5342375777
 21
8.7626395071
  0
LWPOLYLINE
  5
601
100
AcDbEntity
  8
0
100
AcDbPolyline
 62
7
  6
CONTINUOUS
 90
13
 70
0
 10
14.5867459061
 20
8.7994525823
 10
14.5948039353
 20
8.7954632815
 10
14.6360986599
 20
8.7702767141
 10
14.6764874308
 20
8.7377509345
 10
14.7148347693
 20
8.6988305908
 10
14.7500636938
 20
8.6546435673
 10
14.7811865813
 20
8.6064686653
 10
14.8073334668
 20
8.5556989585
 10
14.8277769729
 20
8.5038018749
 10
14.8419531526
 20
8.4522771474
 10
14.8494776491
 20
8.4026138391
 10
14.8501567096
 20
8.3562476742
 10
14.8498332307
 20
8.3516770552
  0
LWPOLYLINE
  5
602
100
AcDbEntity
  8
0
100
AcDbPolyline
 62
7
  6
CONTINUOUS
 90
12
 70
0
 10
14.5584617527
 20
8.7831228162
 10
14.5695468101
 20
8.7775567579
 10
14.6108145068
 20
8.7518055853
 10
14.6510918844
 20
8.7187774847
 10
14.6892466562
 20
8.6794314984
 10
14.7242073587
 20
8.6349077074
 10
14.7549940545
 20
8.586494563
 10
14.7807464125
 20
8.5355919658
 10
14.8007483603
 20
8.4836711519
 10
14.8144486038
 20
8.432232534
 10
14.8214764242
 20
8.3827627079
 10
14.8215490772
 20
8.3353472891
  0
LWPOLYLINE
  5
603
100
AcDbEntity
  8
0
100
AcDbPolyline
 62
7
  6
CONTINUOUS
 90
11
 70
0
 10
14.5758400082
 20
8.80788088
 10
14.6169362924
 20
8.787145197
 10
14.6577676125
 20
8.7587145113
 10
14.6971969362
 20
8.7234079702
 10
14.7341270119
 20
8.6822398208
 10
14.7675315039
 20
8.6363906311
 10
14.796484113
 20
8.587173792
 10
14.8201848611
 20
8.5359982502
 10
14.8379827893
 20
8.4843285299
 10
14.8493944294
 20
8.4336431773
 10
14.8541175217
 20
8.3853928078
  0
LWPOLYLINE
  5
604
100
AcDbEntity
  8
0
100
AcDbPolyline
 62
7
  6
CONTINUOUS
 90
12
 70
0
 10
14.5301775992
 20
8.76679305
 10
14.5442905991
 20
8.7596071533
 10
14.585525039
 20
8.7332954032
 10
14.6256849466
 20
8.6997701287
 10
14.6636414015
 20
8.6600046181
 10
14.6983286228
 20
8.6151509744
 10
14.7287745099
 20
8.5665071005
 10
14.7541284973
 20
8.5154795087
 10
14.7736859282
 20
8.4635430167
 10
14.786908246
 20
8.4121984867
 10
14.7934384268
 20
8.3629298181
 10
14.7932649238
 20
8.3190175229
  0
LINE
  5
605
100
AcDbEntity
  8
0
100
AcDbLine
 62
7
  6
CONTINUOUS
 10
14.6024371148
 20
8.821779863
 11
14.6205042459
 21
8.8124452939
  0
LINE
  5
606
100
AcDbEntity
  8
0
100
AcDbLine
 62
7
  6
CONTINUOUS
 10
14.6027817531
 20
8.8216163464
 11
14.6205042459
 21
8.8124452939
  0
LWPOLYLINE
  5
607
100
AcDbEntity
  8
0
100
AcDbPolyline
 62
7
  6
CONTINUOUS
 90
11
 70
0
 10
14.5580512285
 20
8.7870068655
 10
14.5991889509
 20
8.7642324928
 10
14.6397682525
 20
8.7339530938
 10
14.6786592516
 20
8.6970402721
 10
14.7147799719
 20
8.6545538526
 10
14.7471270424
 20
8.6077118086
 10
14.7748041683
 20
8.557855703
 10
14.7970475624
 20
8.5064126214
 10
14.813247618
 20
8.4548546793
 10
14.8229662059
 20
8.4046572514
 10
14.8259491059
 20
8.3572571083
  0
LWPOLYLINE
  5
608
100
AcDbEntity
  8
0
100
AcDbPolyline
 62
7
  6
CONTINUOUS
 90
11
 70
0
 10
14.5410863585
 20
8.7898825239
 10
14.5835319388
 20
8.7662842216
 10
14.6251286077
 20
8.735257594
 10
14.6645625127
 20
8.698036654
 10
14.7017884971
 20
8.6546851734
 10
14.7354213474
 20
8.6066132379
 10
14.7641266828
 20
8.5558273127
 10
14.7873192092
 20
8.5036759827
 10
14.8048081039
 20
8.4505003403
 10
14.8157830109
 20
8.3983957373
 10
14.8199096123
 20
8.3494926321
  0
LWPOLYLINE
  5
609
100
AcDbEntity
  8
0
100
AcDbPolyline
 62
7
  6
CONTINUOUS
 90
11
 70
0
 10
14.5694905361
 20
8.8061569123
 10
14.612111188
 20
8.7824217712
 10
14.6538642241
 20
8.7512060147
 10
14.6933896256
 20
8.7137956206
 10
14.7303115331
 20
8.6707066288
 10
14.7634011978
 20
8.623425607
 10
14.7919958586
 20
8.5729794216
 10
14.8153484125
 20
8.5206633735
 10
14.832973452
 20
8.4672686687
 10
14.8440358462
 20
8.4149357679
 10
14.8481937658
 20
8.3658223982
  0
LINE
  5
60A
100
AcDbEntity
  8
0
100
AcDbLine
 62
7
  6
CONTINUOUS
 10
14.6563229051
 20
8.78779333
 11
14.6137629818
 21
8.8145324754
  0
LWPOLYLINE
  5
60B
100
AcDbEntity
  8
0
100
AcDbPolyline
 62
7
  6
CONTINUOUS
 90
3
 70
0
 10
14.6205042459
 20
8.8124452939
 10
14.659662317
 20
8.7862793177
 10
14.6978564042
 20
8.7536402994
  0
LINE
  5
60C
100
AcDbEntity
  8
0
100
AcDbLine
 62
7
  6
CONTINUOUS
 10
14.6978564042
 20
8.7536402994
 11
14.6563229051
 21
8.78779333
  0
LWPOLYLINE
  5
60D
100
AcDbEntity
  8
0
100
AcDbPolyline
 62
7
  6
CONTINUOUS
 90
3
 70
0
 10
15.1494035063
 20
7.8649026232
 10
15.1583326127
 20
7.8941396336
 10
15.1594486703
 20
7.9089829337
  0
LWPOLYLINE
  5
60E
100
AcDbEntity
  8
0
100
AcDbPolyline
 62
7
  6
CONTINUOUS
 90
6
 70
0
 10
14.1085113759
 20
8.612414696
 10
14.0820942015
 20
8.6058571852
 10
14.055747755
 20
8.5919503263
 10
14.0321983525
 20
8.5699043706
 10
14.0133905789
 20
8.5399718495
 10
14.0004843067
 20
8.5029800585
  0
LINE
  5
60F
100
AcDbEntity
  8
0
100
AcDbLine
 62
7
  6
CONTINUOUS
 10
14.1656481494
 20
8.649375857
 11
14.1309818223
 21
8.6445573349
  0
LINE
  5
610
100
AcDbEntity
  8
0
100
AcDbLine
 62
7
  6
CONTINUOUS
 10
14.1578517681
 20
8.6600706127
 11
14.1925180952
 21
8.6648891348
  0
LINE
  5
611
100
AcDbEntity
  8
0
100
AcDbLine
 62
7
  6
CONTINUOUS
 10
14.2787847634
 20
8.7146949216
 11
14.2441184362
 21
8.7098763995
  0
LINE
  5
612
100
AcDbEntity
  8
0
100
AcDbLine
 62
7
  6
CONTINUOUS
 10
14.270988382
 20
8.7253896773
 11
14.3056547092
 21
8.7302081994
  0
LINE
  5
613
100
AcDbEntity
  8
0
100
AcDbLine
 62
7
  6
CONTINUOUS
 10
14.1383796021
 20
8.6322603228
 11
14.1014240224
 21
8.6274489126
  0
LINE
  5
614
100
AcDbEntity
  8
0
100
AcDbLine
 62
7
  6
CONTINUOUS
 10
14.3200518809
 20
8.7307724685
 11
14.2828085472
 21
8.7285750039
  0
LINE
  5
615
100
AcDbEntity
  8
0
100
AcDbLine
 62
7
  6
CONTINUOUS
 10
14.2350745511
 20
8.6817903741
 11
14.1981618889
 21
8.6796240163
  0
LINE
  5
616
100
AcDbEntity
  8
0
100
AcDbLine
 62
7
  6
CONTINUOUS
 10
14.3482111651
 20
8.7471094387
 11
14.3112985028
 21
8.7449430809
  0
LINE
  5
617
100
AcDbEntity
  8
0
100
AcDbLine
 62
7
  6
CONTINUOUS
 10
14.2639475665
 20
8.6980853748
 11
14.2266951353
 21
8.6959997239
  0
LWPOLYLINE
  5
618
100
AcDbEntity
  8
0
100
AcDbPolyline
 62
7
  6
CONTINUOUS
 90
4
 70
0
 10
14.2535650811
 20
8.7115130017
 10
14.2908175123
 20
8.7135986526
 10
14.3302707284
 20
8.7069730941
 10
14.3718673381
 20
8.6916793377
  0
LINE
  5
619
100
AcDbEntity
  8
0
100
AcDbLine
 62
7
  6
CONTINUOUS
 10
14.3770841804
 20
8.7634044394
 11
14.3398317492
 21
8.7613187885
  0
LWPOLYLINE
  5
61A
100
AcDbEntity
  8
0
100
AcDbPolyline
 62
7
  6
CONTINUOUS
 90
3
 70
0
 10
14.4187913231
 20
8.7955272641
 10
14.4558180162
 20
8.7922691809
 10
14.4945648744
 20
8.7812074501
  0
LINE
  5
61B
100
AcDbEntity
  8
0
100
AcDbLine
 62
7
  6
CONTINUOUS
 10
14.5087212192
 20
8.8029785623
 11
14.5175008118
 21
8.8016175605
  0
LINE
  5
61C
100
AcDbEntity
  8
0
100
AcDbLine
 62
7
  6
CONTINUOUS
 10
14.4823503553
 20
8.7859394442
 11
14.4994913263
 21
8.7823487158
  0
LINE
  5
61D
100
AcDbEntity
  8
0
100
AcDbLine
 62
7
  6
CONTINUOUS
 10
14.5356233105
 20
8.8203207562
 11
14.5758400082
 21
8.80788088
  0
LWPOLYLINE
  5
61E
100
AcDbEntity
  8
0
100
AcDbPolyline
 62
7
  6
CONTINUOUS
 90
4
 70
0
 10
14.5741529613
 20
8.8054500969
 10
14.5296740105
 20
8.8220979455
 10
14.4902207944
 20
8.828723504
 10
14.4529683632
 20
8.8266378531
  0
LWPOLYLINE
  5
61F
100
AcDbEntity
  8
0
100
AcDbPolyline
 62
7
  6
CONTINUOUS
 90
4
 70
0
 10
14.6137629818
 20
8.8145324754
 10
14.571349008
 20
8.8330948653
 10
14.5302484632
 20
8.8429480206
 10
14.4915904897
 20
8.8438039153
  0
LINE
  5
620
100
AcDbEntity
  8
0
100
AcDbLine
 62
7
  6
CONTINUOUS
 10
14.6027817999
 20
8.8216157014
 11
14.6024371148
 21
8.821779863
  0
LWPOLYLINE
  5
621
100
AcDbEntity
  8
0
100
AcDbPolyline
 62
9
  6
CONTINUOUS
 90
5
 70
0
 10
14.6470206398
 20
8.8153027878
 10
14.6073587734
 20
8.834383123
 10
14.5689089706
 20
8.8452799063
 10
14.5327029226
 20
8.8477707112
 10
14.5128661
 20
8.8442144177
  0
LWPOLYLINE
  5
622
100
AcDbEntity
  8
0
100
AcDbPolyline
 62
9
  6
CONTINUOUS
 90
7
 70
0
 10
14.6558594377
 20
8.83061212
 10
14.6147426618
 20
8.850393308
 10
14.5748726211
 20
8.8616940498
 10
14.5373289857
 20
8.8642784046
 10
14.5030759396
 20
8.8581389124
 10
14.4729868985
 20
8.8434620972
 10
14.4682045863
 20
8.8391180418
  0
LINE
  5
623
100
AcDbEntity
  8
0
100
AcDbLine
 62
9
  6
CONTINUOUS
 10
14.7472642986
 20
8.9124057019
 11
14.6927317582
 21
8.9548155143
  0
LWPOLYLINE
  5
624
100
AcDbEntity
  8
0
100
AcDbPolyline
 62
7
  6
CONTINUOUS
 90
5
 70
0
 10
15.1291887745
 20
7.799806602
 10
15.1361709119
 20
7.8096479652
 10
15.1478279175
 20
7.8325688627
 10
15.1537162691
 20
7.8562142487
 10
15.1544550697
 20
7.8681578146
  0
LINE
  5
625
100
AcDbEntity
  8
0
100
AcDbLine
 62
7
  6
CONTINUOUS
 10
15.1291887745
 20
7.799806602
 11
15.1028363477
 21
7.7657853762
  0
LWPOLYLINE
  5
626
100
AcDbEntity
  8
0
100
AcDbPolyline
 62
7
  6
CONTINUOUS
 90
4
 70
0
 10
15.0730524386
 20
7.7885519129
 10
15.1061056272
 20
7.8112943325
 10
15.1318163859
 20
7.8370049708
 10
15.1494035063
 20
7.8649026232
  0
LINE
  5
627
100
AcDbEntity
  8
0
100
AcDbLine
 62
7
  6
CONTINUOUS
 10
14.3919213773
 20
8.7800139862
 11
14.3572550502
 21
8.7751954641
  0
LINE
  5
628
100
AcDbEntity
  8
0
100
AcDbLine
 62
7
  6
CONTINUOUS
 10
14.384124996
 20
8.7907087419
 11
14.4187913231
 21
8.7955272641
  0
LINE
  5
629
100
AcDbEntity
  8
0
100
AcDbLine
 62
7
  6
CONTINUOUS
 10
14.4331884949
 20
8.7960915331
 11
14.3959451611
 21
8.7938940685
  0
LINE
  5
62A
100
AcDbEntity
  8
0
100
AcDbLine
 62
7
  6
CONTINUOUS
 10
14.461347779
 20
8.8124285034
 11
14.4244351168
 21
8.8102621456
  0
LWPOLYLINE
  5
62B
100
AcDbEntity
  8
0
100
AcDbPolyline
 62
7
  6
CONTINUOUS
 90
4
 70
0
 10
14.366701695
 20
8.7768320664
 10
14.4039541262
 20
8.7789177173
 10
14.4434073424
 20
8.7722921587
 10
14.485003952
 20
8.7569984024
  0
LINE
  5
62C
100
AcDbEntity
  8
0
100
AcDbLine
 62
7
  6
CONTINUOUS
 10
14.5339910372
 20
8.8204821429
 11
14.5356233105
 21
8.8203207562
  0
LWPOLYLINE
  5
62D
100
AcDbEntity
  8
0
100
AcDbPolyline
 62
9
  6
CONTINUOUS
 90
13
 70
0
 10
14.6927317582
 20
8.9548155143
 10
14.6374010435
 20
8.9883284208
 10
14.5824698973
 20
9.0122189681
 10
14.529127413
 20
9.025969998
 10
14.4785282943
 20
9.0292838422
 10
14.4317678593
 20
9.0220887661
 10
14.3898583303
 20
9.0045405213
 10
14.3537069219
 20
8.9770189743
 10
14.324096203
 20
8.9401198835
 10
14.3016671563
 20
8.8946420028
 10
14.2869053028
 20
8.8415697909
 10
14.2801301921
 20
8.7820521009
 10
14.281115968
 20
8.7351146167
  0
LWPOLYLINE
  5
62E
100
AcDbEntity
  8
0
100
AcDbPolyline
 62
7
  6
CONTINUOUS
 90
4
 70
0
 10
15.0491043905
 20
7.7207277704
 10
15.0745623342
 20
7.737807231
 10
15.0953268288
 20
7.7568865425
 10
15.1028318451
 20
7.7657837624
  0
LWPOLYLINE
  5
62F
100
AcDbEntity
  8
0
100
AcDbPolyline
 62
7
  6
CONTINUOUS
 90
4
 70
0
 10
15.06951689
 20
7.7497679958
 10
15.0966127531
 20
7.7678218017
 10
15.1189825553
 20
7.7879181594
 10
15.1291887745
 20
7.799806602
  0
LWPOLYLINE
  5
630
100
AcDbEntity
  8
0
100
AcDbPolyline
 62
7
  6
CONTINUOUS
 90
15
 70
0
 10
15.06951689
 20
7.7497679958
 10
15.0382465596
 20
7.7341242653
 10
15.0034383356
 20
7.7212090712
 10
14.9658008131
 20
7.7112853299
 10
14.9261001835
 20
7.7045550599
 10
14.8851446371
 20
7.7011552703
 10
14.8437679109
 20
7.7011551708
 10
14.8028123155
 20
7.7045547636
 10
14.7631115889
 20
7.7112848427
 10
14.7254739233
 20
7.7212084031
 10
14.690665513
 20
7.7341234298
 10
14.6593949569
 20
7.74976701
 10
14.6322988334
 20
7.7678206856
 10
14.6099287414
 20
7.7879169358
 10
14.5997213649
 20
7.799806602
  0
LWPOLYLINE
  5
631
100
AcDbEntity
  8
0
100
AcDbPolyline
 62
7
  6
CONTINUOUS
 90
14
 70
0
 10
15.0491043905
 20
7.7207277704
 10
15.0195216861
 20
7.7060296877
 10
14.9864750497
 20
7.6940413137
 10
14.9507026886
 20
7.6850304488
 10
14.9130036982
 20
7.6791983809
 10
14.8742202117
 20
7.6766753888
 10
14.835218588
 20
7.677517832
 10
14.7968700591
 20
7.6817068916
 10
14.7600312675
 20
7.689148991
 10
14.7255251312
 20
7.6996778859
 10
14.6941224601
 20
7.7130583783
 10
14.6665247381
 20
7.7289915701
 10
14.6433484526
 20
7.7471215401
 10
14.6260709486
 20
7.7657892735
  0
LINE
  5
632
100
AcDbEntity
  8
0
100
AcDbLine
 62
7
  6
CONTINUOUS
 10
14.4915904897
 20
8.8438039153
 11
14.4564361259
 21
8.8356258532
  0
LWPOLYLINE
  5
633
100
AcDbEntity
  8
AXIS
100
AcDbPolyline
 62
7
  6
CONTINUOUS
 90
11
 70
0
 10
14.9468333527
 20
7.2530964411
 10
14.9247253401
 20
7.2430964904
 10
14.8991146386
 20
7.2364417176
 10
14.8714896488
 20
7.2335188739
 10
14.8434558349
 20
7.2344978244
 10
14.8166424202
 20
7.239321676
 10
14.7926077029
 20
7.2477100839
 10
14.7727484933
 20
7.2591755445
 10
14.7582189367
 20
7.2730517268
 10
14.749863438
 20
7.2885321975
 10
14.7479602785
 20
7.3006713749
  0
LWPOLYLINE
  5
634
100
AcDbEntity
  8
0
100
AcDbPolyline
 62
7
  6
CONTINUOUS
 90
8
 70
0
 10
15.0641605388
 20
9.2477502581
 10
15.0113438909
 20
9.274425637
 10
14.9562772529
 20
9.294046939
 10
14.9024320103
 20
9.3047938837
 10
14.8512928019
 20
9.3065741286
 10
14.8035675915
 20
9.2997732126
 10
14.7597992615
 20
9.284879444
 10
14.738536148
 20
9.2739757158
  0
LWPOLYLINE
  5
635
100
AcDbEntity
  8
0
100
AcDbPolyline
 62
9
  6
CONTINUOUS
 90
57
 70
0
 10
15.0341599906
 20
9.2447791968
 10
15.0510893385
 20
9.2346091359
 10
15.0679908924
 20
9.2236635348
 10
15.084836904
 20
9.2119603636
 10
15.1015997162
 20
9.1995188361
 10
15.1182518084
 20
9.1863593783
 10
15.1347658419
 20
9.172503595
 10
15.1511147045
 20
9.157974234
 10
15.1672715553
 20
9.1427951491
 10
15.1832098687
 20
9.1269912607
 10
15.1989034776
 20
9.1105885151
 10
15.214326617
 20
9.0936138416
 10
15.2294539657
 20
9.0760951086
 10
15.2442606881
 20
9.0580610778
 10
15.2587224753
 20
9.0395413566
 10
15.2728155843
 20
9.0205663501
 10
15.2865168777
 20
9.0011672107
 10
15.2998038612
 20
8.9813757871
 10
15.3126547207
 20
8.9612245723
 10
15.3250483581
 20
8.9407466496
 10
15.3369644262
 20
8.919975639
 10
15.3483833614
 20
8.8989456415
 10
15.3592864168
 20
8.8776911831
 10
15.3696556918
 20
8.8562471594
 10
15.3794741625
 20
8.8346487763
 10
15.3887257099
 20
8.812931492
 10
15.3973951456
 20
8.7911309598
 10
15.405468236
 20
8.7692829719
 10
15.4129317248
 20
8.7474234035
 10
15.4197733606
 20
8.7255881387
 10
15.4259819248
 20
8.7038129748
 10
15.4315472076
 20
8.6821337131
 10
15.4364600529
 20
8.6605860366
 10
15.4407123912
 20
8.6392053854
 10
15.4442972843
 20
8.6180266733
 10
15.4472088846
 20
8.5970843433
 10
15.4494415903
 20
8.5764213234
 10
15.4509902671
 20
8.5561092641
 10
15.4518565986
 20
8.5361961551
 10
15.4520443273
 20
8.5167239427
 10
15.4515252425
 20
8.4976913173
 10
15.4502958749
 20
8.4790688398
 10
15.4483637507
 20
8.4608360105
 10
15.4457284866
 20
8.4429746763
 10
15.4423941796
 20
8.4255291789
 10
15.4383814675
 20
8.4086012475
 10
15.4337206861
 20
8.3922816924
 10
15.4284374307
 20
8.3766132879
 10
15.4225510475
 20
8.3616143828
 10
15.4160802242
 20
8.3473042605
 10
15.4090502447
 20
8.3337160143
 10
15.4014909126
 20
8.3208852964
 10
15.3934297601
 20
8.3088380495
 10
15.3848952185
 20
8.297598257
 10
15.3759167404
 20
8.2871881889
 10
15.3665246543
 20
8.277628222
 10
15.356750039
 20
8.2689367588
  0
LINE
  5
636
100
AcDbEntity
  8
AXIS
100
AcDbLine
 62
7
  6
CONTINUOUS
 10
4.518675154
 20
4.0642459576
 11
4.285675154
 21
4.0642459576
  0
LINE
  5
637
100
AcDbEntity
  8
0
100
AcDbLine
 62
7
  6
CONTINUOUS
 10
4.6633076406
 20
4.7092853277
 11
4.1410426675
 21
4.7092853277
  0
LINE
  5
638
100
AcDbEntity
  8
0
100
AcDbLine
 62
7
  6
CONTINUOUS
 10
4.692175154
 20
4.7592853277
 11
4.112175154
 21
4.7592853277
  0
LINE
  5
639
100
AcDbEntity
  8
0
100
AcDbLine
 62
7
  6
CONTINUOUS
 10
4.112175154
 20
4.7592853277
 11
4.1410426675
 21
4.7092853277
  0
LINE
  5
63A
100
AcDbEntity
  8
0
100
AcDbLine
 62
7
  6
CONTINUOUS
 10
4.107175154
 20
4.8092853277
 11
4.697175154
 21
4.8092853277
  0
LINE
  5
63B
100
AcDbEntity
  8
0
100
AcDbLine
 62
7
  6
CONTINUOUS
 10
4.107175154
 20
4.8092853277
 11
4.107175154
 21
5.1874041706
  0
LINE
  5
63C
100
AcDbEntity
  8
0
100
AcDbLine
 62
7
  6
CONTINUOUS
 10
4.112175154
 20
4.8092853277
 11
4.112175154
 21
4.7592853277
  0
LINE
  5
63D
100
AcDbEntity
  8
AXIS_COSMETIC_THREADS
100
AcDbLine
 62
7
  6
CONTINUOUS
 10
4.117175154
 20
5.6328888287
 11
4.117175154
 21
5.8356818267
  0
LWPOLYLINE
  5
63E
100
AcDbEntity
  8
0
100
AcDbPolyline
 62
9
  6
CONTINUOUS
 90
6
 70
0
 10
4.181064183
 20
5.1390509201
 10
4.1535800553
 20
5.1549674522
 10
4.1323947596
 20
5.1688600548
 10
4.1178246339
 20
5.1792954617
 10
4.1096609637
 20
5.1854739356
 10
4.107175154
 20
5.1874041706
  0
LINE
  5
63F
100
AcDbEntity
  8
AXIS
100
AcDbLine
 62
7
  6
CONTINUOUS
 10
4.285675154
 20
4.7092853277
 11
4.285675154
 21
4.0642459576
  0
LINE
  5
640
100
AcDbEntity
  8
AXIS_COSMETIC_THREADS
100
AcDbLine
 62
7
  6
CONTINUOUS
 10
4.285675154
 20
4.7092853277
 11
4.285675154
 21
4.0642459576
  0
LWPOLYLINE
  5
641
100
AcDbEntity
  8
0
100
AcDbPolyline
 62
9
  6
CONTINUOUS
 90
8
 70
0
 10
4.1605785976
 20
5.1938270926
 10
4.1830211238
 20
5.1858492257
 10
4.208103253
 20
5.180691857
 10
4.2367380709
 20
5.1781710467
 10
4.2698928864
 20
5.1784837103
 10
4.3083939831
 20
5.1821313671
 10
4.3526357274
 20
5.1898209942
 10
4.402175154
 20
5.2022853277
  0
LWPOLYLINE
  5
642
100
AcDbEntity
  8
0
100
AcDbPolyline
 62
9
  6
CONTINUOUS
 90
8
 70
0
 10
4.181064183
 20
5.1390509201
 10
4.2019911554
 20
5.1314311559
 10
4.2258868406
 20
5.1291421256
 10
4.2532783958
 20
5.1319715979
 10
4.2846839217
 20
5.1402257922
 10
4.3203396481
 20
5.1544660519
 10
4.3599006933
 20
5.1751681013
 10
4.402175154
 20
5.2022853277
  0
LINE
  5
643
100
AcDbEntity
  8
0
100
AcDbLine
 62
7
  6
CONTINUOUS
 10
4.0798438657
 20
5.2377306574
 11
4.0802064915
 21
5.2374933984
  0
LWPOLYLINE
  5
644
100
AcDbEntity
  8
0
100
AcDbPolyline
 62
9
  6
CONTINUOUS
 90
6
 70
0
 10
4.1605785976
 20
5.1938270926
 10
4.1696210316
 20
5.1877093755
 10
4.1765457481
 20
5.1785183136
 10
4.180915371
 20
5.1668344288
 10
4.1824539082
 20
5.1533956937
 10
4.181064183
 20
5.1390509201
  0
LINE
  5
645
100
AcDbEntity
  8
DEFAULT_1
100
AcDbLine
 62
7
  6
CENTER
 10
4.402175154
 20
5.7342853277
 11
4.402175154
 21
5.1303574012
  0
LINE
  5
646
100
AcDbEntity
  8
DEFAULT_1
100
AcDbLine
 62
7
  6
CENTER
 10
4.402175154
 20
5.7342853277
 11
4.402175154
 21
6.5161956553
  0
LWPOLYLINE
  5
647
100
AcDbEntity
  8
0
100
AcDbPolyline
 62
9
  6
CONTINUOUS
 90
8
 70
0
 10
4.402175154
 20
5.2022853277
 10
4.4517145806
 20
5.1898209942
 10
4.495956325
 20
5.1821313671
 10
4.5344574216
 20
5.1784837103
 10
4.5676122372
 20
5.1781710467
 10
4.5962470551
 20
5.180691857
 10
4.6213291843
 20
5.1858492257
 10
4.6437717105
 20
5.1938270926
  0
LWPOLYLINE
  5
648
100
AcDbEntity
  8
0
100
AcDbPolyline
 62
9
  6
CONTINUOUS
 90
8
 70
0
 10
4.402175154
 20
5.2022853277
 10
4.4444496147
 20
5.1751681013
 10
4.4840106599
 20
5.1544660519
 10
4.5196663864
 20
5.1402257922
 10
4.5510719123
 20
5.1319715979
 10
4.5784634674
 20
5.1291421256
 10
4.6023591526
 20
5.1314311559
 10
4.623286125
 20
5.1390509201
  0
LINE
  5
649
100
AcDbEntity
  8
AXIS
100
AcDbLine
 62
7
  6
CONTINUOUS
 10
4.518675154
 20
4.7092853277
 11
4.518675154
 21
4.0642459576
  0
LINE
  5
64A
100
AcDbEntity
  8
AXIS_COSMETIC_THREADS
100
AcDbLine
 62
7
  6
CONTINUOUS
 10
4.518675154
 20
4.7092853277
 11
4.518675154
 21
4.0642459576
  0
LWPOLYLINE
  5
64B
100
AcDbEntity
  8
0
100
AcDbPolyline
 62
9
  6
CONTINUOUS
 90
6
 70
0
 10
4.6437717105
 20
5.1938270926
 10
4.6347292765
 20
5.1877093755
 10
4.62780456
 20
5.1785183136
 10
4.623434937
 20
5.1668344288
 10
4.6218963999
 20
5.1533956937
 10
4.623286125
 20
5.1390509201
  0
LINE
  5
64C
100
AcDbEntity
  8
0
100
AcDbLine
 62
7
  6
CONTINUOUS
 10
4.7245064424
 20
5.2377306574
 11
4.7241460402
 21
5.2374948648
  0
LWPOLYLINE
  5
64D
100
AcDbEntity
  8
0
100
AcDbPolyline
 62
9
  6
CONTINUOUS
 90
6
 70
0
 10
4.697175154
 20
5.1874041706
 10
4.6946894751
 20
5.1854740365
 10
4.6865260895
 20
5.1792957699
 10
4.6719562008
 20
5.1688605056
 10
4.6507708475
 20
5.1549678219
 10
4.623286125
 20
5.1390509201
  0
LWPOLYLINE
  5
64E
100
AcDbEntity
  8
0
100
AcDbPolyline
 62
7
  6
CONTINUOUS
 90
17
 70
0
 10
4.402175154
 20
5.3802853277
 10
4.4504952205
 20
5.3844003741
 10
4.5001758503
 20
5.3958186428
 10
4.5467960449
 20
5.4138643831
 10
4.5894075407
 20
5.4376992565
 10
4.6283437629
 20
5.4672632975
 10
4.6638638283
 20
5.5032301371
 10
4.6950688869
 20
5.5459563289
 10
4.719717599
 20
5.5935721463
 10
4.7365209543
 20
5.6435348934
 10
4.7457570736
 20
5.6977138225
 10
4.746244974
 20
5.7532268611
 10
4.7377102932
 20
5.8085199407
 10
4.720530546
 20
5.861181642
 10
4.6953448722
 20
5.909978634
 10
4.662647981
 20
5.9541351729
 10
4.6236393386
 20
5.9921660813
  0
LINE
  5
64F
100
AcDbEntity
  8
AXIS_COSMETIC_THREADS
100
AcDbLine
 62
7
  6
CONTINUOUS
 10
4.687175154
 20
5.8356818267
 11
4.687175154
 21
5.6328888287
  0
LINE
  5
650
100
AcDbEntity
  8
0
100
AcDbLine
 62
7
  6
CONTINUOUS
 10
4.692175154
 20
4.8092853277
 11
4.692175154
 21
4.7592853277
  0
LINE
  5
651
100
AcDbEntity
  8
0
100
AcDbLine
 62
7
  6
CONTINUOUS
 10
4.697175154
 20
4.8092853277
 11
4.697175154
 21
5.1874041706
  0
LINE
  5
652
100
AcDbEntity
  8
0
100
AcDbLine
 62
7
  6
CONTINUOUS
 10
4.692175154
 20
4.7592853277
 11
4.6633076406
 21
4.7092853277
  0
LINE
  5
653
100
AcDbEntity
  8
AXIS
100
AcDbLine
 62
7
  6
CONTINUOUS
 10
4.1525674618
 20
5.7202853277
 11
4.6517828462
 21
5.7202853277
  0
LINE
  5
654
100
AcDbEntity
  8
0
100
AcDbLine
 62
7
  6
CONTINUOUS
 10
4.1473713079
 20
5.7242853277
 11
4.6569790001
 21
5.7242853277
  0
LINE
  5
655
100
AcDbEntity
  8
DEFAULT_1
100
AcDbLine
 62
7
  6
CENTER
 10
4.402175154
 20
5.7342853277
 11
3.6020684487
 21
5.7342853277
  0
LINE
  5
656
100
AcDbEntity
  8
DEFAULT_1
100
AcDbLine
 62
7
  6
CENTER
 10
4.402175154
 20
5.7342853277
 11
5.167028654
 21
5.7342853277
  0
LINE
  5
657
100
AcDbEntity
  8
0
100
AcDbLine
 62
7
  6
CONTINUOUS
 10
4.1473713079
 20
5.7442853277
 11
4.6569790001
 21
5.7442853277
  0
LINE
  5
658
100
AcDbEntity
  8
AXIS
100
AcDbLine
 62
7
  6
CONTINUOUS
 10
4.6517828462
 20
5.7482853277
 11
4.1525674618
 21
5.7482853277
  0
LINE
  5
659
100
AcDbEntity
  8
0
100
AcDbLine
 62
7
  6
CONTINUOUS
 10
4.5793021675
 20
6.0233303434
 11
4.6197355408
 21
5.9935762509
  0
LWPOLYLINE
  5
65A
100
AcDbEntity
  8
0
100
AcDbPolyline
 62
7
  6
CONTINUOUS
 90
18
 70
0
 10
4.3230371757
 20
6.0639187307
 10
4.288401458
 20
6.0542741375
 10
4.253823121
 20
6.0404878734
 10
4.2181064116
 20
6.0212639497
 10
4.1807470408
 20
5.9945535223
 10
4.1434876939
 20
5.9588920935
 10
4.1101839482
 20
5.915240169
 10
4.0835858505
 20
5.865282021
 10
4.0653337013
 20
5.8108509975
 10
4.0563670408
 20
5.7543784008
 10
4.0568196684
 20
5.6971398773
 10
4.0667241759
 20
5.6405376663
 10
4.0856761754
 20
5.5866147088
 10
4.1132229677
 20
5.5364263432
 10
4.1486700789
 20
5.4913005987
 10
4.1911572373
 20
5.4524252911
 10
4.2397885964
 20
5.4207946394
 10
4.292783138
 20
5.3976113209
  0
LWPOLYLINE
  5
65B
100
AcDbEntity
  8
0
100
AcDbPolyline
 62
7
  6
CONTINUOUS
 90
6
 70
0
 10
4.5793021675
 20
6.0233303434
 10
4.5319783118
 20
6.0474500451
 10
4.4815434495
 20
6.0638633513
 10
4.4290992399
 20
6.0722144528
 10
4.375719218
 20
6.0722514258
 10
4.3230371757
 20
6.0639187307
  0
LINE
  5
65C
100
AcDbEntity
  8
0
100
AcDbLine
 62
7
  6
CONTINUOUS
 10
4.6236393386
 20
5.9921660813
 11
4.5793021675
 21
6.0233303434
  0
LINE
  5
65D
100
AcDbEntity
  8
0
100
AcDbLine
 62
7
  6
CONTINUOUS
 10
4.3230371757
 20
6.0639187307
 11
4.3624823743
 21
6.0699366178
  0
LINE
  5
65E
100
AcDbEntity
  8
AXIS
100
AcDbLine
 62
7
  6
CONTINUOUS
 10
9.0085543421
 20
4.0642459576
 11
8.7755728766
 21
4.0642459576
  0
LINE
  5
65F
100
AcDbEntity
  8
0
100
AcDbLine
 62
7
  6
CONTINUOUS
 10
8.0249595393
 20
6.0882380284
 11
8.0084549353
 21
6.0732359364
  0
LINE
  5
660
100
AcDbEntity
  8
0
100
AcDbLine
 62
7
  6
CONTINUOUS
 10
8.0649595393
 20
6.0882380284
 11
8.0484549353
 21
6.0732359364
  0
LINE
  5
661
100
AcDbEntity
  8
0
100
AcDbLine
 62
7
  6
CONTINUOUS
 10
8.0250636099
 20
6.0882853277
 11
8.0249595393
 21
6.0882380284
  0
LINE
  5
662
100
AcDbEntity
  8
0
100
AcDbLine
 62
7
  6
CONTINUOUS
 10
8.0649595393
 20
6.0882380284
 11
8.0650636065
 21
6.0882853277
  0
LINE
  5
663
100
AcDbEntity
  8
0
100
AcDbLine
 62
7
  6
CONTINUOUS
 10
8.1049595393
 20
6.0882380284
 11
8.1050636093
 21
6.0882853277
  0
LINE
  5
664
100
AcDbEntity
  8
0
100
AcDbLine
 62
7
  6
CONTINUOUS
 10
8.1049595393
 20
6.0882380284
 11
8.0884549353
 21
6.0732359364
  0
LINE
  5
665
100
AcDbEntity
  8
0
100
AcDbLine
 62
7
  6
CONTINUOUS
 10
8.1449595393
 20
6.0882380284
 11
8.1284549353
 21
6.0732359364
  0
LINE
  5
666
100
AcDbEntity
  8
0
100
AcDbLine
 62
7
  6
CONTINUOUS
 10
8.1849595393
 20
6.0882380284
 11
8.1684549353
 21
6.0732359364
  0
LINE
  5
667
100
AcDbEntity
  8
0
100
AcDbLine
 62
7
  6
CONTINUOUS
 10
8.1449595393
 20
6.0882380284
 11
8.1450636059
 21
6.0882853277
  0
LINE
  5
668
100
AcDbEntity
  8
0
100
AcDbLine
 62
7
  6
CONTINUOUS
 10
8.1849595393
 20
6.0882380284
 11
8.185063606
 21
6.0882853277
  0
LINE
  5
669
100
AcDbEntity
  8
0
100
AcDbLine
 62
7
  6
CONTINUOUS
 10
8.2249595393
 20
6.0882380284
 11
8.2250636065
 21
6.0882853277
  0
LINE
  5
66A
100
AcDbEntity
  8
0
100
AcDbLine
 62
7
  6
CONTINUOUS
 10
8.2649595393
 20
6.0882380284
 11
8.2650636093
 21
6.0882853277
  0
LINE
  5
66B
100
AcDbEntity
  8
0
100
AcDbLine
 62
7
  6
CONTINUOUS
 10
8.3049595393
 20
6.0882380284
 11
8.3050636059
 21
6.0882853277
  0
LINE
  5
66C
100
AcDbEntity
  8
0
100
AcDbLine
 62
7
  6
CONTINUOUS
 10
8.2249595393
 20
6.0882380284
 11
8.2084549353
 21
6.0732359364
  0
LINE
  5
66D
100
AcDbEntity
  8
0
100
AcDbLine
 62
7
  6
CONTINUOUS
 10
8.2649595393
 20
6.0882380284
 11
8.2484549353
 21
6.0732359364
  0
LINE
  5
66E
100
AcDbEntity
  8
0
100
AcDbLine
 62
7
  6
CONTINUOUS
 10
8.3049595393
 20
6.0882380284
 11
8.2884549353
 21
6.0732359364
  0
LINE
  5
66F
100
AcDbEntity
  8
0
100
AcDbLine
 62
7
  6
CONTINUOUS
 10
8.3449595393
 20
6.0882380284
 11
8.345063606
 21
6.0882853277
  0
LINE
  5
670
100
AcDbEntity
  8
0
100
AcDbLine
 62
7
  6
CONTINUOUS
 10
8.3849595393
 20
6.0882380284
 11
8.3850636065
 21
6.0882853277
  0
LINE
  5
671
100
AcDbEntity
  8
0
100
AcDbLine
 62
7
  6
CONTINUOUS
 10
8.4249595393
 20
6.0882380284
 11
8.4250636093
 21
6.0882853277
  0
LINE
  5
672
100
AcDbEntity
  8
0
100
AcDbLine
 62
7
  6
CONTINUOUS
 10
8.4649595393
 20
6.0882380284
 11
8.4650636059
 21
6.0882853277
  0
LINE
  5
673
100
AcDbEntity
  8
0
100
AcDbLine
 62
7
  6
CONTINUOUS
 10
8.5049595393
 20
6.0882380284
 11
8.505063606
 21
6.0882853277
  0
LINE
  5
674
100
AcDbEntity
  8
0
100
AcDbLine
 62
7
  6
CONTINUOUS
 10
8.3449595393
 20
6.0882380284
 11
8.3284549353
 21
6.0732359364
  0
LINE
  5
675
100
AcDbEntity
  8
0
100
AcDbLine
 62
7
  6
CONTINUOUS
 10
8.3849595393
 20
6.0882380284
 11
8.3684549353
 21
6.0732359364
  0
LINE
  5
676
100
AcDbEntity
  8
0
100
AcDbLine
 62
7
  6
CONTINUOUS
 10
8.4249595393
 20
6.0882380284
 11
8.4084549353
 21
6.0732359364
  0
LINE
  5
677
100
AcDbEntity
  8
0
100
AcDbLine
 62
7
  6
CONTINUOUS
 10
8.5450636105
 20
6.0882853277
 11
8.5449595393
 21
6.0882380284
  0
LINE
  5
678
100
AcDbEntity
  8
0
100
AcDbLine
 62
7
  6
CONTINUOUS
 10
8.4649595393
 20
6.0882380284
 11
8.4484549353
 21
6.0732359364
  0
LINE
  5
679
100
AcDbEntity
  8
0
100
AcDbLine
 62
7
  6
CONTINUOUS
 10
8.5049595393
 20
6.0882380284
 11
8.4884549353
 21
6.0732359364
  0
LINE
  5
67A
100
AcDbEntity
  8
0
100
AcDbLine
 62
7
  6
CONTINUOUS
 10
8.5449595393
 20
6.0882380284
 11
8.5284549353
 21
6.0732359364
  0
LINE
  5
67B
100
AcDbEntity
  8
0
100
AcDbLine
 62
7
  6
CONTINUOUS
 10
8.0070636093
 20
5.3802853277
 11
8.0070636093
 21
6.0732757906
  0
LWPOLYLINE
  5
67C
100
AcDbEntity
  8
0
100
AcDbPolyline
 62
7
  6
CONTINUOUS
 90
9
 70
0
 10
8.0465358807
 20
5.3815009135
 10
8.0454783725
 20
5.3912036562
 10
8.0444338538
 20
5.4100608546
 10
8.043380262
 20
5.4379021452
 10
8.0423278697
 20
5.4737975477
 10
8.0412865655
 20
5.5163090087
 10
8.0402403774
 20
5.5648777056
 10
8.0391787157
 20
5.6188241646
 10
8.0381148433
 20
5.6760955021
  0
LWPOLYLINE
  5
67D
100
AcDbEntity
  8
0
100
AcDbPolyline
 62
7
  6
CONTINUOUS
 90
17
 70
0
 10
8.0070636093
 20
6.0233303434
 10
8.0081410741
 20
5.9893649597
 10
8.0092185389
 20
5.9481102936
 10
8.0102960037
 20
5.9007452591
 10
8.0113734685
 20
5.8486233828
 10
8.0124509333
 20
5.7932341255
 10
8.0135283981
 20
5.736160318
 10
8.0146058629
 20
5.6790329299
 10
8.0156833276
 20
5.6234844617
 10
8.0167607924
 20
5.5711022942
 10
8.0178382572
 20
5.5233833261
 10
8.018915722
 20
5.4816911984
 10
8.0199931868
 20
5.447217326
 10
8.0210706516
 20
5.4209468516
 10
8.0221481164
 20
5.4036304931
 10
8.0232255812
 20
5.3957630915
 10
8.0235636093
 20
5.3952853277
  0
LWPOLYLINE
  5
67E
100
AcDbEntity
  8
0
100
AcDbPolyline
 62
7
  6
CONTINUOUS
 90
10
 70
0
 10
8.0361111939
 20
5.6762956764
 10
8.0371626122
 20
5.6196710196
 10
8.0382061469
 20
5.5665514705
 10
8.0392488978
 20
5.5179631967
 10
8.0403045703
 20
5.4746766034
 10
8.041370475
 20
5.4382000907
 10
8.042431917
 20
5.4101041017
 10
8.0434783514
 20
5.3912039444
 10
8.0445314442
 20
5.3815214257
 10
8.0449595393
 20
5.380332627
  0
LWPOLYLINE
  5
67F
100
AcDbEntity
  8
0
100
AcDbPolyline
 62
7
  6
CONTINUOUS
 90
10
 70
0
 10
8.0760698492
 20
5.7893204009
 10
8.0750766576
 20
5.8429870639
 10
8.0740788287
 20
5.8942434559
 10
8.0730830361
 20
5.9414863984
 10
8.0720816794
 20
5.9838896157
 10
8.0710679026
 20
6.0205369547
 10
8.0700544181
 20
6.0499333377
 10
8.0690540233
 20
6.0711236716
 10
8.0680586057
 20
6.0839704173
 10
8.0671676793
 20
6.0882380284
  0
LWPOLYLINE
  5
680
100
AcDbEntity
  8
0
100
AcDbPolyline
 62
7
  6
CONTINUOUS
 90
10
 70
0
 10
8.0361111939
 20
5.6762956764
 10
8.0339866783
 20
5.7938841591
 10
8.0329097033
 20
5.8517838502
 10
8.031832735
 20
5.906328566
 10
8.0307558114
 20
5.9559594671
 10
8.0296788908
 20
5.9992619364
 10
8.0286019687
 20
6.0349999755
 10
8.0275250308
 20
6.062153606
 10
8.0264480943
 20
6.0799470347
 10
8.0253711223
 20
6.0878724177
  0
LWPOLYLINE
  5
681
100
AcDbEntity
  8
0
100
AcDbPolyline
 62
7
  6
CONTINUOUS
 90
11
 70
0
 10
8.0740167576
 20
5.7922347768
 10
8.0761148433
 20
5.6760955021
 10
8.0771787157
 20
5.6188241646
 10
8.0782403774
 20
5.5648777056
 10
8.0792865655
 20
5.5163090087
 10
8.0803278697
 20
5.4737975477
 10
8.081380262
 20
5.4379021452
 10
8.0824338538
 20
5.4100608546
 10
8.0834783725
 20
5.3912036562
 10
8.0845358807
 20
5.3815009135
 10
8.0849595393
 20
5.380332627
  0
LINE
  5
682
100
AcDbEntity
  8
0
100
AcDbLine
 62
7
  6
CONTINUOUS
 10
8.0071676793
 20
5.380332627
 11
8.0236722833
 21
5.395334719
  0
LINE
  5
683
100
AcDbEntity
  8
0
100
AcDbLine
 62
7
  6
CONTINUOUS
 10
8.0471676793
 20
5.380332627
 11
8.0636722833
 21
5.395334719
  0
LINE
  5
684
100
AcDbEntity
  8
0
100
AcDbLine
 62
7
  6
CONTINUOUS
 10
8.0274386093
 20
5.4005647211
 11
8.0284549353
 21
5.395334719
  0
LWPOLYLINE
  5
685
100
AcDbEntity
  8
0
100
AcDbPolyline
 62
7
  6
CONTINUOUS
 90
3
 70
0
 10
8.0671162409
 20
5.4040089358
 10
8.0681886093
 20
5.3958732858
 10
8.0684549353
 20
5.395334719
  0
LWPOLYLINE
  5
686
100
AcDbEntity
  8
0
100
AcDbPolyline
 62
7
  6
CONTINUOUS
 90
9
 70
0
 10
8.065601268
 20
6.0870235929
 10
8.0666556033
 20
6.0772742089
 10
8.0676981037
 20
6.0584039309
 10
8.0687549755
 20
6.030424443
 10
8.0698163574
 20
5.994131743
 10
8.0708677109
 20
5.9510741672
 10
8.0719069056
 20
5.9027124548
 10
8.072959667
 20
5.8491594722
 10
8.0740167576
 20
5.7922347768
  0
LWPOLYLINE
  5
687
100
AcDbEntity
  8
0
100
AcDbPolyline
 62
7
  6
CONTINUOUS
 90
10
 70
0
 10
8.0865263829
 20
5.381545036
 10
8.0854690877
 20
5.3913312575
 10
8.0844271373
 20
5.4102109622
 10
8.0833855381
 20
5.4377418134
 10
8.0823352142
 20
5.4735211703
 10
8.0812866528
 20
5.5163051808
 10
8.0802401036
 20
5.564891077
 10
8.0791785303
 20
5.6188339116
 10
8.0781147512
 20
5.6761005534
 10
8.0760698492
 20
5.7893204009
  0
LWPOLYLINE
  5
688
100
AcDbEntity
  8
0
100
AcDbPolyline
 62
7
  6
CONTINUOUS
 90
18
 70
0
 10
8.0092083462
 20
6.0715483142
 10
8.0102807146
 20
6.0610287624
 10
8.011353083
 20
6.0412599395
 10
8.0124254514
 20
6.0128014505
 10
8.0134978199
 20
5.9764588822
 10
8.0145701883
 20
5.9332609998
 10
8.0156425567
 20
5.8844306251
 10
8.0167149251
 20
5.8313500209
 10
8.0177872935
 20
5.7755217634
 10
8.018859662
 20
5.718526208
 10
8.0199320304
 20
5.6619767529
 10
8.0210043988
 20
5.6074741686
 10
8.0220767672
 20
5.556561284
 10
8.0231491357
 20
5.5106793126
 10
8.0242215041
 20
5.4711270556
 10
8.0252938725
 20
5.4390241364
 10
8.0263662409
 20
5.4152793064
 10
8.0274386093
 20
5.4005647211
  0
LWPOLYLINE
  5
689
100
AcDbEntity
  8
0
100
AcDbPolyline
 62
7
  6
CONTINUOUS
 90
9
 70
0
 10
8.1060586057
 20
6.0839704173
 10
8.1070540233
 20
6.0711236716
 10
8.1080544181
 20
6.0499333377
 10
8.1090679026
 20
6.0205369547
 10
8.1100816794
 20
5.9838896157
 10
8.1110830361
 20
5.9414863984
 10
8.1120788287
 20
5.8942434559
 10
8.1130766576
 20
5.8429870639
 10
8.1140698492
 20
5.7893204009
  0
LWPOLYLINE
  5
68A
100
AcDbEntity
  8
0
100
AcDbPolyline
 62
7
  6
CONTINUOUS
 90
10
 70
0
 10
8.1561072918
 20
5.6765097404
 10
8.1571635572
 20
5.6196213054
 10
8.1582218403
 20
5.5657835069
 10
8.1592692984
 20
5.517066355
 10
8.1603253885
 20
5.4738909935
 10
8.1613914959
 20
5.437561013
 10
8.1624528477
 20
5.409638314
 10
8.1634979878
 20
5.3909364805
 10
8.164541457
 20
5.3814753746
 10
8.1649595393
 20
5.380332627
  0
LWPOLYLINE
  5
68B
100
AcDbEntity
  8
0
100
AcDbPolyline
 62
7
  6
CONTINUOUS
 90
11
 70
0
 10
8.1140698492
 20
5.7893204009
 10
8.1161147512
 20
5.6761005534
 10
8.1171785303
 20
5.6188339116
 10
8.1182401036
 20
5.564891077
 10
8.1192866528
 20
5.5163051808
 10
8.1203352142
 20
5.4735211703
 10
8.1213855381
 20
5.4377418134
 10
8.1224271373
 20
5.4102109622
 10
8.1234690877
 20
5.3913312575
 10
8.1245263829
 20
5.381545036
 10
8.1249595393
 20
5.380332627
  0
LWPOLYLINE
  5
68C
100
AcDbEntity
  8
0
100
AcDbPolyline
 62
7
  6
CONTINUOUS
 90
11
 70
0
 10
8.1181072918
 20
5.6765097404
 10
8.1160154037
 20
5.7923090447
 10
8.1149546375
 20
5.8494239727
 10
8.1138960633
 20
5.9032425019
 10
8.1128521189
 20
5.9517589324
 10
8.1118009641
 20
5.9947122841
 10
8.1107404265
 20
6.0308669217
 10
8.1096850828
 20
6.0586943999
 10
8.1086436191
 20
6.077438515
 10
8.1075890991
 20
6.0870800284
 10
8.1071676793
 20
6.0882380284
  0
LWPOLYLINE
  5
68D
100
AcDbEntity
  8
0
100
AcDbPolyline
 62
7
  6
CONTINUOUS
 90
11
 70
0
 10
8.1581111939
 20
5.6762956764
 10
8.1560110329
 20
5.7925487892
 10
8.1549458511
 20
5.8498858764
 10
8.153882995
 20
5.9038807149
 10
8.1528354551
 20
5.9524893238
 10
8.1517907026
 20
5.9950984382
 10
8.1507475282
 20
6.0306511312
 10
8.1496998686
 20
6.0583644546
 10
8.1486552508
 20
6.077279059
 10
8.1475964966
 20
6.0870458745
 10
8.1471676793
 20
6.0882380284
  0
LINE
  5
68E
100
AcDbEntity
  8
0
100
AcDbLine
 62
7
  6
CONTINUOUS
 10
8.0871676793
 20
5.380332627
 11
8.1036722833
 21
5.395334719
  0
LINE
  5
68F
100
AcDbEntity
  8
0
100
AcDbLine
 62
7
  6
CONTINUOUS
 10
8.1271676793
 20
5.380332627
 11
8.1436722833
 21
5.395334719
  0
LINE
  5
690
100
AcDbEntity
  8
0
100
AcDbLine
 62
7
  6
CONTINUOUS
 10
8.1671676793
 20
5.380332627
 11
8.1836722833
 21
5.395334719
  0
LINE
  5
691
100
AcDbEntity
  8
0
100
AcDbLine
 62
7
  6
CONTINUOUS
 10
8.6309341825
 20
4.7092853277
 11
9.1531930361
 21
4.7092853277
  0
LINE
  5
692
100
AcDbEntity
  8
0
100
AcDbLine
 62
7
  6
CONTINUOUS
 10
8.6020636093
 20
4.7592853277
 11
9.1820636093
 21
4.7592853277
  0
LINE
  5
693
100
AcDbEntity
  8
0
100
AcDbLine
 62
7
  6
CONTINUOUS
 10
8.0470636053
 20
5.3802853277
 11
8.0465358807
 21
5.3815009135
  0
LWPOLYLINE
  5
694
100
AcDbEntity
  8
0
100
AcDbPolyline
 62
7
  6
CONTINUOUS
 90
9
 70
0
 10
8.126541457
 20
5.3814753746
 10
8.1254979878
 20
5.3909364805
 10
8.1244528477
 20
5.409638314
 10
8.1233914959
 20
5.437561013
 10
8.1223253885
 20
5.4738909935
 10
8.1212692984
 20
5.517066355
 10
8.1202218403
 20
5.5657835069
 10
8.1191635572
 20
5.6196213054
 10
8.1181072918
 20
5.6765097404
  0
LWPOLYLINE
  5
695
100
AcDbEntity
  8
0
100
AcDbPolyline
 62
7
  6
CONTINUOUS
 90
10
 70
0
 10
8.1455890991
 20
6.0870800284
 10
8.1466436191
 20
6.077438515
 10
8.1476850828
 20
6.0586943999
 10
8.1487404265
 20
6.0308669217
 10
8.1498009641
 20
5.9947122841
 10
8.1508521189
 20
5.9517589324
 10
8.1518960633
 20
5.9032425019
 10
8.1529546375
 20
5.8494239727
 10
8.1540154037
 20
5.7923090447
 10
8.1561072918
 20
5.6765097404
  0
LWPOLYLINE
  5
696
100
AcDbEntity
  8
0
100
AcDbPolyline
 62
7
  6
CONTINUOUS
 90
10
 70
0
 10
8.2065358807
 20
5.3815009135
 10
8.2054783725
 20
5.3912036562
 10
8.2044338538
 20
5.4100608546
 10
8.203380262
 20
5.4379021452
 10
8.2023278697
 20
5.4737975477
 10
8.2012865655
 20
5.5163090087
 10
8.2002403774
 20
5.5648777056
 10
8.1991787157
 20
5.6188241646
 10
8.1981148433
 20
5.6760955021
 10
8.1960167576
 20
5.7922347768
  0
LWPOLYLINE
  5
697
100
AcDbEntity
  8
0
100
AcDbPolyline
 62
7
  6
CONTINUOUS
 90
9
 70
0
 10
8.1665314442
 20
5.3815214257
 10
8.1654783514
 20
5.3912039444
 10
8.1644319171
 20
5.4101041017
 10
8.163370475
 20
5.4382000907
 10
8.1623045703
 20
5.4746766034
 10
8.1612488978
 20
5.5179631967
 10
8.1602061469
 20
5.5665514705
 10
8.1591626122
 20
5.6196710196
 10
8.1581111939
 20
5.6762956764
  0
LWPOLYLINE
  5
698
100
AcDbEntity
  8
0
100
AcDbPolyline
 62
7
  6
CONTINUOUS
 90
10
 70
0
 10
8.2465263829
 20
5.381545036
 10
8.2454690877
 20
5.3913312575
 10
8.2444271373
 20
5.4102109622
 10
8.2433855381
 20
5.4377418134
 10
8.2423352142
 20
5.4735211703
 10
8.2412866528
 20
5.5163051808
 10
8.2402401036
 20
5.564891077
 10
8.2391785303
 20
5.6188339116
 10
8.2381147512
 20
5.6761005534
 10
8.2360698492
 20
5.7893204009
  0
LWPOLYLINE
  5
699
100
AcDbEntity
  8
0
100
AcDbPolyline
 62
7
  6
CONTINUOUS
 90
10
 70
0
 10
8.1961111939
 20
5.6762956764
 10
8.1971626122
 20
5.6196710196
 10
8.1982061469
 20
5.5665514705
 10
8.1992488978
 20
5.5179631967
 10
8.2003045703
 20
5.4746766034
 10
8.201370475
 20
5.4382000907
 10
8.2024319171
 20
5.4101041017
 10
8.2034783514
 20
5.3912039444
 10
8.2045314442
 20
5.3815214257
 10
8.2049595393
 20
5.380332627
  0
LWPOLYLINE
  5
69A
100
AcDbEntity
  8
0
100
AcDbPolyline
 62
7
  6
CONTINUOUS
 90
10
 70
0
 10
8.1960167576
 20
5.7922347768
 10
8.194959667
 20
5.8491594722
 10
8.1939069056
 20
5.9027124548
 10
8.1928677109
 20
5.9510741672
 10
8.1918163574
 20
5.994131743
 10
8.1907549755
 20
6.030424443
 10
8.1896981037
 20
6.0584039309
 10
8.1886556033
 20
6.0772742089
 10
8.187601268
 20
6.0870235929
 10
8.1871676793
 20
6.0882380284
  0
LWPOLYLINE
  5
69B
100
AcDbEntity
  8
0
100
AcDbPolyline
 62
7
  6
CONTINUOUS
 90
10
 70
0
 10
8.2360698492
 20
5.7893204009
 10
8.2350766576
 20
5.8429870639
 10
8.2340788287
 20
5.8942434559
 10
8.2330830361
 20
5.9414863984
 10
8.2320816794
 20
5.9838896157
 10
8.2310679026
 20
6.0205369547
 10
8.2300544181
 20
6.0499333377
 10
8.2290540233
 20
6.0711236716
 10
8.2280586057
 20
6.0839704173
 10
8.2271676793
 20
6.0882380284
  0
LWPOLYLINE
  5
69C
100
AcDbEntity
  8
0
100
AcDbPolyline
 62
7
  6
CONTINUOUS
 90
11
 70
0
 10
8.2340167576
 20
5.7922347768
 10
8.2361148433
 20
5.6760955021
 10
8.2371787157
 20
5.6188241646
 10
8.2382403774
 20
5.5648777056
 10
8.2392865655
 20
5.5163090087
 10
8.2403278697
 20
5.4737975477
 10
8.241380262
 20
5.4379021452
 10
8.2424338538
 20
5.4100608546
 10
8.2434783725
 20
5.3912036562
 10
8.2445358807
 20
5.3815009135
 10
8.2449595393
 20
5.380332627
  0
LINE
  5
69D
100
AcDbEntity
  8
0
100
AcDbLine
 62
7
  6
CONTINUOUS
 10
8.2071676793
 20
5.380332627
 11
8.2236722833
 21
5.395334719
  0
LINE
  5
69E
100
AcDbEntity
  8
0
100
AcDbLine
 62
7
  6
CONTINUOUS
 10
8.2471676793
 20
5.380332627
 11
8.2636722833
 21
5.395334719
  0
LINE
  5
69F
100
AcDbEntity
  8
0
100
AcDbLine
 62
7
  6
CONTINUOUS
 10
8.2871676793
 20
5.380332627
 11
8.3036722833
 21
5.395334719
  0
LINE
  5
6A0
100
AcDbEntity
  8
0
100
AcDbLine
 62
7
  6
CONTINUOUS
 10
8.1671676793
 20
5.380332627
 11
8.1670642093
 21
5.3802853293
  0
LINE
  5
6A1
100
AcDbEntity
  8
0
100
AcDbLine
 62
7
  6
CONTINUOUS
 10
8.0070636093
 20
5.3802853277
 11
8.0071676793
 21
5.380332627
  0
LINE
  5
6A2
100
AcDbEntity
  8
0
100
AcDbLine
 62
7
  6
CONTINUOUS
 10
8.0471676793
 20
5.380332627
 11
8.0470636053
 21
5.3802853277
  0
LINE
  5
6A3
100
AcDbEntity
  8
0
100
AcDbLine
 62
7
  6
CONTINUOUS
 10
8.0871676793
 20
5.380332627
 11
8.0870636067
 21
5.3802853277
  0
LINE
  5
6A4
100
AcDbEntity
  8
0
100
AcDbLine
 62
7
  6
CONTINUOUS
 10
8.2071676793
 20
5.380332627
 11
8.2070636053
 21
5.3802853277
  0
LINE
  5
6A5
100
AcDbEntity
  8
0
100
AcDbLine
 62
7
  6
CONTINUOUS
 10
8.1271676793
 20
5.380332627
 11
8.1270630046
 21
5.3802853293
  0
LINE
  5
6A6
100
AcDbEntity
  8
0
100
AcDbLine
 62
7
  6
CONTINUOUS
 10
8.5970636093
 20
4.8092853277
 11
9.1870636093
 21
4.8092853277
  0
LINE
  5
6A7
100
AcDbEntity
  8
0
100
AcDbLine
 62
7
  6
CONTINUOUS
 10
8.1270630046
 20
5.3802853293
 11
8.126541457
 21
5.3814753746
  0
LINE
  5
6A8
100
AcDbEntity
  8
0
100
AcDbLine
 62
7
  6
CONTINUOUS
 10
8.0870636067
 20
5.3802853277
 11
8.0865263829
 21
5.381545036
  0
LINE
  5
6A9
100
AcDbEntity
  8
0
100
AcDbLine
 62
7
  6
CONTINUOUS
 10
8.1080230688
 20
5.3965065791
 11
8.1084549353
 21
5.395334719
  0
LINE
  5
6AA
100
AcDbEntity
  8
0
100
AcDbLine
 62
7
  6
CONTINUOUS
 10
8.1480230688
 20
5.3965065791
 11
8.1484549353
 21
5.395334719
  0
LWPOLYLINE
  5
6AB
100
AcDbEntity
  8
0
100
AcDbPolyline
 62
7
  6
CONTINUOUS
 90
20
 70
0
 10
8.0836722833
 20
6.0732359364
 10
8.0846446904
 20
6.0684091213
 10
8.0857257715
 20
6.0539207817
 10
8.0868068526
 20
6.0302371121
 10
8.0878879337
 20
5.9980394484
 10
8.0889690147
 20
5.9582540589
 10
8.0900500958
 20
5.9120254968
 10
8.0911311769
 20
5.8606836737
 10
8.092212258
 20
5.8057056002
 10
8.0932933391
 20
5.7486728956
 10
8.0943744201
 20
5.6912262868
 10
8.0954555012
 20
5.6350184082
 10
8.0965365823
 20
5.5816662582
 10
8.0976176634
 20
5.5327046809
 10
8.0986987445
 20
5.4895422118
 10
8.0997798256
 20
5.4534205566
 10
8.1008609066
 20
5.4253788695
 10
8.1019419877
 20
5.4062238587
 10
8.1030230688
 20
5.3965065791
 10
8.1035636093
 20
5.3952853277
  0
LWPOLYLINE
  5
6AC
100
AcDbEntity
  8
0
100
AcDbPolyline
 62
7
  6
CONTINUOUS
 90
20
 70
0
 10
8.0436722833
 20
6.0732359364
 10
8.0447748769
 20
6.0671677554
 10
8.0458523417
 20
6.0516124422
 10
8.0469298065
 20
6.0269890317
 10
8.0480072713
 20
5.9940011748
 10
8.0490847361
 20
5.9535915487
 10
8.0501622009
 20
5.9069149191
 10
8.0512396657
 20
5.8553051404
 10
8.0523171305
 20
5.8002370395
 10
8.0533945953
 20
5.7432842697
 10
8.05447206
 20
5.6860743417
 10
8.0555495248
 20
5.6302421147
 10
8.0566269896
 20
5.5773830783
 10
8.0577044544
 20
5.5290077586
 10
8.0587819192
 20
5.4864985526
 10
8.059859384
 20
5.4510702247
 10
8.0609368488
 20
5.4237351923
 10
8.0620143136
 20
5.4052745949
 10
8.0630917784
 20
5.3962159717
 10
8.0635636093
 20
5.3952853277
  0
LWPOLYLINE
  5
6AD
100
AcDbEntity
  8
0
100
AcDbPolyline
 62
7
  6
CONTINUOUS
 90
9
 70
0
 10
8.3265314442
 20
5.3815214257
 10
8.3254783514
 20
5.3912039444
 10
8.3244319171
 20
5.4101041017
 10
8.323370475
 20
5.4382000907
 10
8.3223045703
 20
5.4746766034
 10
8.3212488978
 20
5.5179631967
 10
8.3202061469
 20
5.5665514705
 10
8.3191626122
 20
5.6196710196
 10
8.3181111939
 20
5.6762956764
  0
LWPOLYLINE
  5
6AE
100
AcDbEntity
  8
0
100
AcDbPolyline
 62
7
  6
CONTINUOUS
 90
10
 70
0
 10
8.1855964966
 20
6.0870458745
 10
8.1866552508
 20
6.077279059
 10
8.1876998686
 20
6.0583644546
 10
8.1887475282
 20
6.0306511312
 10
8.1897907026
 20
5.9950984382
 10
8.1908354551
 20
5.9524893238
 10
8.191882995
 20
5.9038807149
 10
8.1929458511
 20
5.8498858764
 10
8.1940110329
 20
5.7925487892
 10
8.1961111939
 20
5.6762956764
  0
LWPOLYLINE
  5
6AF
100
AcDbEntity
  8
0
100
AcDbPolyline
 62
7
  6
CONTINUOUS
 90
9
 70
0
 10
8.225601268
 20
6.0870235929
 10
8.2266556033
 20
6.0772742089
 10
8.2276981037
 20
6.0584039309
 10
8.2287549755
 20
6.030424443
 10
8.2298163574
 20
5.994131743
 10
8.2308677109
 20
5.9510741672
 10
8.2319069056
 20
5.9027124548
 10
8.232959667
 20
5.8491594722
 10
8.2340167576
 20
5.7922347768
  0
LWPOLYLINE
  5
6B0
100
AcDbEntity
  8
0
100
AcDbPolyline
 62
7
  6
CONTINUOUS
 90
9
 70
0
 10
8.2660586057
 20
6.0839704173
 10
8.2670540233
 20
6.0711236716
 10
8.2680544181
 20
6.0499333377
 10
8.2690679026
 20
6.0205369547
 10
8.2700816794
 20
5.9838896157
 10
8.2710830361
 20
5.9414863984
 10
8.2720788287
 20
5.8942434559
 10
8.2730766576
 20
5.8429870639
 10
8.2740698492
 20
5.7893204009
  0
LWPOLYLINE
  5
6B1
100
AcDbEntity
  8
0
100
AcDbPolyline
 62
7
  6
CONTINUOUS
 90
10
 70
0
 10
8.3161072918
 20
5.6765097404
 10
8.3171635572
 20
5.6196213054
 10
8.3182218403
 20
5.5657835069
 10
8.3192692984
 20
5.517066355
 10
8.3203253885
 20
5.4738909935
 10
8.3213914959
 20
5.437561013
 10
8.3224528477
 20
5.409638314
 10
8.3234979878
 20
5.3909364805
 10
8.324541457
 20
5.3814753746
 10
8.3249595393
 20
5.380332627
  0
LWPOLYLINE
  5
6B2
100
AcDbEntity
  8
0
100
AcDbPolyline
 62
7
  6
CONTINUOUS
 90
11
 70
0
 10
8.2740698492
 20
5.7893204009
 10
8.2761147512
 20
5.6761005534
 10
8.2771785303
 20
5.6188339116
 10
8.2782401036
 20
5.564891077
 10
8.2792866528
 20
5.5163051808
 10
8.2803352142
 20
5.4735211703
 10
8.2813855381
 20
5.4377418134
 10
8.2824271373
 20
5.4102109622
 10
8.2834690877
 20
5.3913312575
 10
8.2845263829
 20
5.381545036
 10
8.2849595393
 20
5.380332627
  0
LWPOLYLINE
  5
6B3
100
AcDbEntity
  8
0
100
AcDbPolyline
 62
7
  6
CONTINUOUS
 90
11
 70
0
 10
8.2781072918
 20
5.6765097404
 10
8.2760154037
 20
5.7923090447
 10
8.2749546375
 20
5.8494239727
 10
8.2738960633
 20
5.9032425019
 10
8.2728521189
 20
5.9517589324
 10
8.2718009641
 20
5.9947122841
 10
8.2707404265
 20
6.0308669217
 10
8.2696850828
 20
6.0586943999
 10
8.2686436191
 20
6.077438515
 10
8.2675890991
 20
6.0870800284
 10
8.2671676793
 20
6.0882380284
  0
LWPOLYLINE
  5
6B4
100
AcDbEntity
  8
0
100
AcDbPolyline
 62
7
  6
CONTINUOUS
 90
11
 70
0
 10
8.3181111939
 20
5.6762956764
 10
8.3160110329
 20
5.7925487892
 10
8.3149458511
 20
5.8498858764
 10
8.313882995
 20
5.9038807149
 10
8.3128354551
 20
5.9524893238
 10
8.3117907026
 20
5.9950984382
 10
8.3107475282
 20
6.0306511312
 10
8.3096998686
 20
6.0583644546
 10
8.3086552508
 20
6.077279059
 10
8.3075964966
 20
6.0870458745
 10
8.3071676793
 20
6.0882380284
  0
LINE
  5
6B5
100
AcDbEntity
  8
0
100
AcDbLine
 62
7
  6
CONTINUOUS
 10
8.3271676793
 20
5.380332627
 11
8.3436722833
 21
5.395334719
  0
LINE
  5
6B6
100
AcDbEntity
  8
0
100
AcDbLine
 62
7
  6
CONTINUOUS
 10
8.3671676793
 20
5.380332627
 11
8.3836722833
 21
5.395334719
  0
LINE
  5
6B7
100
AcDbEntity
  8
0
100
AcDbLine
 62
7
  6
CONTINUOUS
 10
8.4071676793
 20
5.380332627
 11
8.4236722833
 21
5.395334719
  0
LINE
  5
6B8
100
AcDbEntity
  8
0
100
AcDbLine
 62
7
  6
CONTINUOUS
 10
8.3271676793
 20
5.380332627
 11
8.3270642093
 21
5.3802853293
  0
LINE
  5
6B9
100
AcDbEntity
  8
0
100
AcDbLine
 62
7
  6
CONTINUOUS
 10
8.2471676793
 20
5.380332627
 11
8.2470636067
 21
5.3802853277
  0
LINE
  5
6BA
100
AcDbEntity
  8
0
100
AcDbLine
 62
7
  6
CONTINUOUS
 10
8.3671676793
 20
5.380332627
 11
8.3670636053
 21
5.3802853277
  0
LINE
  5
6BB
100
AcDbEntity
  8
0
100
AcDbLine
 62
7
  6
CONTINUOUS
 10
8.4071676793
 20
5.380332627
 11
8.4070636067
 21
5.3802853277
  0
LINE
  5
6BC
100
AcDbEntity
  8
0
100
AcDbLine
 62
7
  6
CONTINUOUS
 10
8.2871676793
 20
5.380332627
 11
8.2870630046
 21
5.3802853293
  0
LINE
  5
6BD
100
AcDbEntity
  8
0
100
AcDbLine
 62
7
  6
CONTINUOUS
 10
8.2070636053
 20
5.3802853277
 11
8.2065358807
 21
5.3815009135
  0
LINE
  5
6BE
100
AcDbEntity
  8
0
100
AcDbLine
 62
7
  6
CONTINUOUS
 10
8.1670642093
 20
5.3802853293
 11
8.1665314442
 21
5.3815214257
  0
LINE
  5
6BF
100
AcDbEntity
  8
0
100
AcDbLine
 62
7
  6
CONTINUOUS
 10
8.2470636067
 20
5.3802853277
 11
8.2465263829
 21
5.381545036
  0
LINE
  5
6C0
100
AcDbEntity
  8
0
100
AcDbLine
 62
7
  6
CONTINUOUS
 10
8.0085636093
 20
6.0732853277
 11
8.0092083462
 21
6.0715483142
  0
LINE
  5
6C1
100
AcDbEntity
  8
0
100
AcDbLine
 62
7
  6
CONTINUOUS
 10
8.1880230688
 20
5.3965065791
 11
8.1884549353
 21
5.395334719
  0
LINE
  5
6C2
100
AcDbEntity
  8
0
100
AcDbLine
 62
7
  6
CONTINUOUS
 10
8.2280230688
 20
5.3965065791
 11
8.2284549353
 21
5.395334719
  0
LINE
  5
6C3
100
AcDbEntity
  8
0
100
AcDbLine
 62
7
  6
CONTINUOUS
 10
8.1050636093
 20
6.0882853277
 11
8.1060586057
 21
6.0839704173
  0
LWPOLYLINE
  5
6C4
100
AcDbEntity
  8
0
100
AcDbPolyline
 62
7
  6
CONTINUOUS
 90
19
 70
0
 10
8.0885636093
 20
6.0732853277
 10
8.0896446904
 20
6.0684091213
 10
8.0907257715
 20
6.0539207817
 10
8.0918068526
 20
6.0302371121
 10
8.0928879337
 20
5.9980394484
 10
8.0939690147
 20
5.9582540589
 10
8.0950500958
 20
5.9120254968
 10
8.0961311769
 20
5.8606836737
 10
8.097212258
 20
5.8057056002
 10
8.0982933391
 20
5.7486728956
 10
8.0993744201
 20
5.6912262868
 10
8.1004555012
 20
5.6350184082
 10
8.1015365823
 20
5.5816662582
 10
8.1026176634
 20
5.5327046809
 10
8.1036987445
 20
5.4895422118
 10
8.1047798256
 20
5.4534205566
 10
8.1058609066
 20
5.4253788695
 10
8.1069419877
 20
5.4062238587
 10
8.1080230688
 20
5.3965065791
  0
LWPOLYLINE
  5
6C5
100
AcDbEntity
  8
0
100
AcDbPolyline
 62
7
  6
CONTINUOUS
 90
19
 70
0
 10
8.1285636093
 20
6.0732853277
 10
8.1296446904
 20
6.0684091213
 10
8.1307257715
 20
6.0539207817
 10
8.1318068526
 20
6.0302371121
 10
8.1328879337
 20
5.9980394484
 10
8.1339690147
 20
5.9582540589
 10
8.1350500958
 20
5.9120254968
 10
8.1361311769
 20
5.8606836737
 10
8.137212258
 20
5.8057056002
 10
8.1382933391
 20
5.7486728956
 10
8.1393744201
 20
5.6912262868
 10
8.1404555012
 20
5.6350184082
 10
8.1415365823
 20
5.5816662582
 10
8.1426176634
 20
5.5327046809
 10
8.1436987445
 20
5.4895422118
 10
8.1447798256
 20
5.4534205566
 10
8.1458609066
 20
5.4253788695
 10
8.1469419877
 20
5.4062238587
 10
8.1480230688
 20
5.3965065791
  0
LWPOLYLINE
  5
6C6
100
AcDbEntity
  8
0
100
AcDbPolyline
 62
7
  6
CONTINUOUS
 90
20
 70
0
 10
8.1236722833
 20
6.0732359364
 10
8.1246446904
 20
6.0684091213
 10
8.1257257715
 20
6.0539207817
 10
8.1268068526
 20
6.0302371121
 10
8.1278879337
 20
5.9980394484
 10
8.1289690147
 20
5.9582540589
 10
8.1300500958
 20
5.9120254968
 10
8.1311311769
 20
5.8606836737
 10
8.132212258
 20
5.8057056002
 10
8.1332933391
 20
5.7486728956
 10
8.1343744201
 20
5.6912262868
 10
8.1354555012
 20
5.6350184082
 10
8.1365365823
 20
5.5816662582
 10
8.1376176634
 20
5.5327046809
 10
8.1386987445
 20
5.4895422118
 10
8.1397798256
 20
5.4534205566
 10
8.1408609066
 20
5.4253788695
 10
8.1419419877
 20
5.4062238587
 10
8.1430230688
 20
5.3965065791
 10
8.1435636093
 20
5.3952853277
  0
LWPOLYLINE
  5
6C7
100
AcDbEntity
  8
0
100
AcDbPolyline
 62
7
  6
CONTINUOUS
 90
20
 70
0
 10
8.1636722833
 20
6.0732359364
 10
8.1646446904
 20
6.0684091213
 10
8.1657257715
 20
6.0539207817
 10
8.1668068526
 20
6.0302371121
 10
8.1678879337
 20
5.9980394484
 10
8.1689690147
 20
5.9582540589
 10
8.1700500958
 20
5.9120254968
 10
8.1711311769
 20
5.8606836737
 10
8.172212258
 20
5.8057056002
 10
8.1732933391
 20
5.7486728956
 10
8.1743744201
 20
5.6912262868
 10
8.1754555012
 20
5.6350184082
 10
8.1765365823
 20
5.5816662582
 10
8.1776176634
 20
5.5327046809
 10
8.1786987445
 20
5.4895422118
 10
8.1797798256
 20
5.4534205566
 10
8.1808609066
 20
5.4253788695
 10
8.1819419877
 20
5.4062238587
 10
8.1830230688
 20
5.3965065791
 10
8.1835636093
 20
5.3952853277
  0
LWPOLYLINE
  5
6C8
100
AcDbEntity
  8
0
100
AcDbPolyline
 62
7
  6
CONTINUOUS
 90
9
 70
0
 10
8.286541457
 20
5.3814753746
 10
8.2854979878
 20
5.3909364805
 10
8.2844528477
 20
5.409638314
 10
8.2833914959
 20
5.437561013
 10
8.2823253885
 20
5.4738909935
 10
8.2812692984
 20
5.517066355
 10
8.2802218403
 20
5.5657835069
 10
8.2791635572
 20
5.6196213054
 10
8.2781072918
 20
5.6765097404
  0
LWPOLYLINE
  5
6C9
100
AcDbEntity
  8
0
100
AcDbPolyline
 62
7
  6
CONTINUOUS
 90
10
 70
0
 10
8.3055890991
 20
6.0870800284
 10
8.3066436191
 20
6.077438515
 10
8.3076850828
 20
6.0586943999
 10
8.3087404265
 20
6.0308669217
 10
8.3098009641
 20
5.9947122841
 10
8.3108521189
 20
5.9517589324
 10
8.3118960633
 20
5.9032425019
 10
8.3129546375
 20
5.8494239727
 10
8.3140154037
 20
5.7923090447
 10
8.3161072918
 20
5.6765097404
  0
LWPOLYLINE
  5
6CA
100
AcDbEntity
  8
0
100
AcDbPolyline
 62
7
  6
CONTINUOUS
 90
10
 70
0
 10
8.3665358807
 20
5.3815009135
 10
8.3654783725
 20
5.3912036562
 10
8.3644338538
 20
5.4100608546
 10
8.363380262
 20
5.4379021452
 10
8.3623278697
 20
5.4737975477
 10
8.3612865655
 20
5.5163090087
 10
8.3602403774
 20
5.5648777056
 10
8.3591787157
 20
5.6188241646
 10
8.3581148433
 20
5.6760955021
 10
8.3560167576
 20
5.7922347768
  0
LWPOLYLINE
  5
6CB
100
AcDbEntity
  8
0
100
AcDbPolyline
 62
7
  6
CONTINUOUS
 90
10
 70
0
 10
8.4065263829
 20
5.381545036
 10
8.4054690877
 20
5.3913312575
 10
8.4044271373
 20
5.4102109622
 10
8.4033855381
 20
5.4377418134
 10
8.4023352142
 20
5.4735211703
 10
8.4012866528
 20
5.5163051808
 10
8.4002401036
 20
5.564891077
 10
8.3991785303
 20
5.6188339116
 10
8.3981147512
 20
5.6761005534
 10
8.3960698492
 20
5.7893204009
  0
LWPOLYLINE
  5
6CC
100
AcDbEntity
  8
0
100
AcDbPolyline
 62
7
  6
CONTINUOUS
 90
10
 70
0
 10
8.3561111939
 20
5.6762956764
 10
8.3571626122
 20
5.6196710196
 10
8.3582061469
 20
5.5665514705
 10
8.3592488978
 20
5.5179631967
 10
8.3603045703
 20
5.4746766034
 10
8.361370475
 20
5.4382000907
 10
8.3624319171
 20
5.4101041017
 10
8.3634783514
 20
5.3912039444
 10
8.3645314442
 20
5.3815214257
 10
8.3649595393
 20
5.380332627
  0
LWPOLYLINE
  5
6CD
100
AcDbEntity
  8
0
100
AcDbPolyline
 62
7
  6
CONTINUOUS
 90
10
 70
0
 10
8.3560167576
 20
5.7922347768
 10
8.354959667
 20
5.8491594722
 10
8.3539069056
 20
5.9027124548
 10
8.3528677109
 20
5.9510741672
 10
8.3518163574
 20
5.994131743
 10
8.3507549755
 20
6.030424443
 10
8.3496981037
 20
6.0584039309
 10
8.3486556033
 20
6.0772742089
 10
8.347601268
 20
6.0870235929
 10
8.3471676793
 20
6.0882380284
  0
LWPOLYLINE
  5
6CE
100
AcDbEntity
  8
0
100
AcDbPolyline
 62
7
  6
CONTINUOUS
 90
10
 70
0
 10
8.3960698492
 20
5.7893204009
 10
8.3950766576
 20
5.8429870639
 10
8.3940788287
 20
5.8942434559
 10
8.3930830361
 20
5.9414863984
 10
8.3920816794
 20
5.9838896157
 10
8.3910679026
 20
6.0205369547
 10
8.3900544181
 20
6.0499333377
 10
8.3890540233
 20
6.0711236716
 10
8.3880586057
 20
6.0839704173
 10
8.3871676793
 20
6.0882380284
  0
LWPOLYLINE
  5
6CF
100
AcDbEntity
  8
0
100
AcDbPolyline
 62
7
  6
CONTINUOUS
 90
11
 70
0
 10
8.3940167576
 20
5.7922347768
 10
8.3961148433
 20
5.6760955021
 10
8.3971787157
 20
5.6188241646
 10
8.3982403774
 20
5.5648777056
 10
8.3992865655
 20
5.5163090087
 10
8.4003278697
 20
5.4737975477
 10
8.401380262
 20
5.4379021452
 10
8.4024338538
 20
5.4100608546
 10
8.4034783725
 20
5.3912036562
 10
8.4045358807
 20
5.3815009135
 10
8.4049595393
 20
5.380332627
  0
LINE
  5
6D0
100
AcDbEntity
  8
0
100
AcDbLine
 62
7
  6
CONTINUOUS
 10
8.4471676793
 20
5.380332627
 11
8.4636722833
 21
5.395334719
  0
LINE
  5
6D1
100
AcDbEntity
  8
0
100
AcDbLine
 62
7
  6
CONTINUOUS
 10
8.4871676793
 20
5.380332627
 11
8.5036722833
 21
5.395334719
  0
LINE
  5
6D2
100
AcDbEntity
  8
0
100
AcDbLine
 62
7
  6
CONTINUOUS
 10
8.5271676793
 20
5.380332627
 11
8.5436722833
 21
5.395334719
  0
LINE
  5
6D3
100
AcDbEntity
  8
0
100
AcDbLine
 62
7
  6
CONTINUOUS
 10
8.4871676793
 20
5.380332627
 11
8.4870642093
 21
5.3802853293
  0
LINE
  5
6D4
100
AcDbEntity
  8
0
100
AcDbLine
 62
7
  6
CONTINUOUS
 10
8.5270636087
 20
5.3802853277
 11
8.5271676793
 21
5.380332627
  0
LINE
  5
6D5
100
AcDbEntity
  8
0
100
AcDbLine
 62
7
  6
CONTINUOUS
 10
8.4471676793
 20
5.380332627
 11
8.4470630046
 21
5.3802853293
  0
LINE
  5
6D6
100
AcDbEntity
  8
0
100
AcDbLine
 62
7
  6
CONTINUOUS
 10
8.0284549353
 20
5.395334719
 11
8.0449595393
 21
5.380332627
  0
LINE
  5
6D7
100
AcDbEntity
  8
0
100
AcDbLine
 62
7
  6
CONTINUOUS
 10
8.0684549353
 20
5.395334719
 11
8.0849595393
 21
5.380332627
  0
LINE
  5
6D8
100
AcDbEntity
  8
0
100
AcDbLine
 62
7
  6
CONTINUOUS
 10
8.1084549353
 20
5.395334719
 11
8.1249595393
 21
5.380332627
  0
LINE
  5
6D9
100
AcDbEntity
  8
0
100
AcDbLine
 62
7
  6
CONTINUOUS
 10
8.6020636093
 20
4.7592853277
 11
8.6309311228
 21
4.7092853277
  0
LINE
  5
6DA
100
AcDbEntity
  8
0
100
AcDbLine
 62
7
  6
CONTINUOUS
 10
8.2870630046
 20
5.3802853293
 11
8.286541457
 21
5.3814753746
  0
LINE
  5
6DB
100
AcDbEntity
  8
0
100
AcDbLine
 62
7
  6
CONTINUOUS
 10
8.3270642093
 20
5.3802853293
 11
8.3265314442
 21
5.3815214257
  0
LINE
  5
6DC
100
AcDbEntity
  8
0
100
AcDbLine
 62
7
  6
CONTINUOUS
 10
8.2680230688
 20
5.3965065791
 11
8.2684549353
 21
5.395334719
  0
LINE
  5
6DD
100
AcDbEntity
  8
0
100
AcDbLine
 62
7
  6
CONTINUOUS
 10
8.3080230688
 20
5.3965065791
 11
8.3084549353
 21
5.395334719
  0
LINE
  5
6DE
100
AcDbEntity
  8
0
100
AcDbLine
 62
7
  6
CONTINUOUS
 10
8.3480230688
 20
5.3965065791
 11
8.3484549353
 21
5.395334719
  0
LWPOLYLINE
  5
6DF
100
AcDbEntity
  8
0
100
AcDbPolyline
 62
7
  6
CONTINUOUS
 90
19
 70
0
 10
8.1685636093
 20
6.0732853277
 10
8.1696446904
 20
6.0684091213
 10
8.1707257715
 20
6.0539207817
 10
8.1718068526
 20
6.0302371121
 10
8.1728879337
 20
5.9980394484
 10
8.1739690147
 20
5.9582540589
 10
8.1750500958
 20
5.9120254968
 10
8.1761311769
 20
5.8606836737
 10
8.177212258
 20
5.8057056002
 10
8.1782933391
 20
5.7486728956
 10
8.1793744201
 20
5.6912262868
 10
8.1804555012
 20
5.6350184082
 10
8.1815365823
 20
5.5816662582
 10
8.1826176634
 20
5.5327046809
 10
8.1836987445
 20
5.4895422118
 10
8.1847798256
 20
5.4534205566
 10
8.1858609066
 20
5.4253788695
 10
8.1869419877
 20
5.4062238587
 10
8.1880230688
 20
5.3965065791
  0
LWPOLYLINE
  5
6E0
100
AcDbEntity
  8
0
100
AcDbPolyline
 62
7
  6
CONTINUOUS
 90
19
 70
0
 10
8.2085636093
 20
6.0732853277
 10
8.2096446904
 20
6.0684091213
 10
8.2107257715
 20
6.0539207817
 10
8.2118068526
 20
6.0302371121
 10
8.2128879337
 20
5.9980394484
 10
8.2139690147
 20
5.9582540589
 10
8.2150500958
 20
5.9120254968
 10
8.2161311769
 20
5.8606836737
 10
8.217212258
 20
5.8057056002
 10
8.2182933391
 20
5.7486728956
 10
8.2193744201
 20
5.6912262868
 10
8.2204555012
 20
5.6350184082
 10
8.2215365823
 20
5.5816662582
 10
8.2226176634
 20
5.5327046809
 10
8.2236987445
 20
5.4895422118
 10
8.2247798256
 20
5.4534205566
 10
8.2258609066
 20
5.4253788695
 10
8.2269419877
 20
5.4062238587
 10
8.2280230688
 20
5.3965065791
  0
LWPOLYLINE
  5
6E1
100
AcDbEntity
  8
0
100
AcDbPolyline
 62
7
  6
CONTINUOUS
 90
20
 70
0
 10
8.2036722833
 20
6.0732359364
 10
8.2046446904
 20
6.0684091213
 10
8.2057257715
 20
6.0539207817
 10
8.2068068526
 20
6.0302371121
 10
8.2078879337
 20
5.9980394484
 10
8.2089690147
 20
5.9582540589
 10
8.2100500958
 20
5.9120254968
 10
8.2111311769
 20
5.8606836737
 10
8.212212258
 20
5.8057056002
 10
8.2132933391
 20
5.7486728956
 10
8.2143744201
 20
5.6912262868
 10
8.2154555012
 20
5.6350184082
 10
8.2165365823
 20
5.5816662582
 10
8.2176176634
 20
5.5327046809
 10
8.2186987445
 20
5.4895422118
 10
8.2197798256
 20
5.4534205566
 10
8.2208609066
 20
5.4253788695
 10
8.2219419877
 20
5.4062238587
 10
8.2230230688
 20
5.3965065791
 10
8.2235636093
 20
5.3952853277
  0
LWPOLYLINE
  5
6E2
100
AcDbEntity
  8
0
100
AcDbPolyline
 62
7
  6
CONTINUOUS
 90
20
 70
0
 10
8.2436722833
 20
6.0732359364
 10
8.2446446904
 20
6.0684091213
 10
8.2457257715
 20
6.0539207817
 10
8.2468068526
 20
6.0302371121
 10
8.2478879337
 20
5.9980394484
 10
8.2489690147
 20
5.9582540589
 10
8.2500500958
 20
5.9120254968
 10
8.2511311769
 20
5.8606836737
 10
8.252212258
 20
5.8057056002
 10
8.2532933391
 20
5.7486728956
 10
8.2543744201
 20
5.6912262868
 10
8.2554555012
 20
5.6350184082
 10
8.2565365823
 20
5.5816662582
 10
8.2576176634
 20
5.5327046809
 10
8.2586987445
 20
5.4895422118
 10
8.2597798256
 20
5.4534205566
 10
8.2608609066
 20
5.4253788695
 10
8.2619419877
 20
5.4062238587
 10
8.2630230688
 20
5.3965065791
 10
8.2635636093
 20
5.3952853277
  0
LWPOLYLINE
  5
6E3
100
AcDbEntity
  8
0
100
AcDbPolyline
 62
7
  6
CONTINUOUS
 90
9
 70
0
 10
8.4865314442
 20
5.3815214257
 10
8.4854783514
 20
5.3912039444
 10
8.484431917
 20
5.4101041017
 10
8.483370475
 20
5.4382000907
 10
8.4823045703
 20
5.4746766034
 10
8.4812488978
 20
5.5179631967
 10
8.4802061469
 20
5.5665514705
 10
8.4791626122
 20
5.6196710196
 10
8.4781111939
 20
5.6762956764
  0
LWPOLYLINE
  5
6E4
100
AcDbEntity
  8
0
100
AcDbPolyline
 62
7
  6
CONTINUOUS
 90
10
 70
0
 10
8.3455964966
 20
6.0870458745
 10
8.3466552508
 20
6.077279059
 10
8.3476998686
 20
6.0583644546
 10
8.3487475282
 20
6.0306511312
 10
8.3497907026
 20
5.9950984382
 10
8.3508354551
 20
5.9524893238
 10
8.351882995
 20
5.9038807149
 10
8.3529458511
 20
5.8498858764
 10
8.3540110329
 20
5.7925487892
 10
8.3561111939
 20
5.6762956764
  0
LWPOLYLINE
  5
6E5
100
AcDbEntity
  8
0
100
AcDbPolyline
 62
7
  6
CONTINUOUS
 90
9
 70
0
 10
8.385601268
 20
6.0870235929
 10
8.3866556033
 20
6.0772742089
 10
8.3876981037
 20
6.0584039309
 10
8.3887549755
 20
6.030424443
 10
8.3898163574
 20
5.994131743
 10
8.3908677109
 20
5.9510741672
 10
8.3919069056
 20
5.9027124548
 10
8.392959667
 20
5.8491594722
 10
8.3940167576
 20
5.7922347768
  0
LWPOLYLINE
  5
6E6
100
AcDbEntity
  8
0
100
AcDbPolyline
 62
7
  6
CONTINUOUS
 90
9
 70
0
 10
8.4260586057
 20
6.0839704173
 10
8.4270540233
 20
6.0711236716
 10
8.4280544181
 20
6.0499333377
 10
8.4290679026
 20
6.0205369547
 10
8.4300816794
 20
5.9838896157
 10
8.4310830361
 20
5.9414863984
 10
8.4320788287
 20
5.8942434559
 10
8.4330766576
 20
5.8429870639
 10
8.4340698492
 20
5.7893204009
  0
LWPOLYLINE
  5
6E7
100
AcDbEntity
  8
0
100
AcDbPolyline
 62
7
  6
CONTINUOUS
 90
10
 70
0
 10
8.4761072918
 20
5.6765097404
 10
8.4771635572
 20
5.6196213054
 10
8.4782218403
 20
5.5657835069
 10
8.4792692984
 20
5.517066355
 10
8.4803253885
 20
5.4738909935
 10
8.4813914959
 20
5.437561013
 10
8.4824528477
 20
5.409638314
 10
8.4834979878
 20
5.3909364805
 10
8.484541457
 20
5.3814753746
 10
8.4849595393
 20
5.380332627
  0
LWPOLYLINE
  5
6E8
100
AcDbEntity
  8
0
100
AcDbPolyline
 62
7
  6
CONTINUOUS
 90
11
 70
0
 10
8.4340698492
 20
5.7893204009
 10
8.4361147512
 20
5.6761005534
 10
8.4371785303
 20
5.6188339116
 10
8.4382401036
 20
5.564891077
 10
8.4392866528
 20
5.5163051808
 10
8.4403352142
 20
5.4735211703
 10
8.4413855381
 20
5.4377418134
 10
8.4424271373
 20
5.4102109622
 10
8.4434690877
 20
5.3913312575
 10
8.4445263829
 20
5.381545036
 10
8.4449595393
 20
5.380332627
  0
LWPOLYLINE
  5
6E9
100
AcDbEntity
  8
0
100
AcDbPolyline
 62
7
  6
CONTINUOUS
 90
11
 70
0
 10
8.4381072918
 20
5.6765097404
 10
8.4360154037
 20
5.7923090447
 10
8.4349546375
 20
5.8494239727
 10
8.4338960633
 20
5.9032425019
 10
8.4328521189
 20
5.9517589324
 10
8.4318009641
 20
5.9947122841
 10
8.4307404265
 20
6.0308669217
 10
8.4296850828
 20
6.0586943999
 10
8.4286436191
 20
6.077438515
 10
8.4275890991
 20
6.0870800284
 10
8.4271676793
 20
6.0882380284
  0
LWPOLYLINE
  5
6EA
100
AcDbEntity
  8
0
100
AcDbPolyline
 62
7
  6
CONTINUOUS
 90
11
 70
0
 10
8.4781111939
 20
5.6762956764
 10
8.4760110329
 20
5.7925487892
 10
8.4749458511
 20
5.8498858764
 10
8.473882995
 20
5.9038807149
 10
8.4728354551
 20
5.9524893238
 10
8.4717907026
 20
5.9950984382
 10
8.4707475282
 20
6.0306511312
 10
8.4696998686
 20
6.0583644546
 10
8.4686552508
 20
6.077279059
 10
8.4675964966
 20
6.0870458745
 10
8.4671676793
 20
6.0882380284
  0
LINE
  5
6EB
100
AcDbEntity
  8
0
100
AcDbLine
 62
7
  6
CONTINUOUS
 10
8.1484549353
 20
5.395334719
 11
8.1649595393
 21
5.380332627
  0
LINE
  5
6EC
100
AcDbEntity
  8
0
100
AcDbLine
 62
7
  6
CONTINUOUS
 10
8.1884549353
 20
5.395334719
 11
8.2049595393
 21
5.380332627
  0
LINE
  5
6ED
100
AcDbEntity
  8
0
100
AcDbLine
 62
7
  6
CONTINUOUS
 10
8.2284549353
 20
5.395334719
 11
8.2449595393
 21
5.380332627
  0
LINE
  5
6EE
100
AcDbEntity
  8
0
100
AcDbLine
 62
7
  6
CONTINUOUS
 10
8.2684549353
 20
5.395334719
 11
8.2849595393
 21
5.380332627
  0
LWPOLYLINE
  5
6EF
100
AcDbEntity
  8
0
100
AcDbPolyline
 62
7
  6
CONTINUOUS
 90
11
 70
0
 10
8.0271676793
 20
6.0882380284
 10
8.027420532
 20
6.0877291065
 10
8.0284920013
 20
6.0794120294
 10
8.0295634384
 20
6.0613423193
 10
8.0306349094
 20
6.0340294946
 10
8.0317063928
 20
5.9982453842
 10
8.0327778472
 20
5.9550027959
 10
8.033849263
 20
5.9055247621
 10
8.0349207156
 20
5.8512060373
 10
8.0359921804
 20
5.7935825518
 10
8.0381148433
 20
5.6760955021
  0
LINE
  5
6F0
100
AcDbEntity
  8
0
100
AcDbLine
 62
7
  6
CONTINUOUS
 10
8.3670636053
 20
5.3802853277
 11
8.3665358807
 21
5.3815009135
  0
LINE
  5
6F1
100
AcDbEntity
  8
0
100
AcDbLine
 62
7
  6
CONTINUOUS
 10
8.4070636067
 20
5.3802853277
 11
8.4065263829
 21
5.381545036
  0
LINE
  5
6F2
100
AcDbEntity
  8
0
100
AcDbLine
 62
7
  6
CONTINUOUS
 10
8.0650636065
 20
6.0882853277
 11
8.065601268
 21
6.0870235929
  0
LINE
  5
6F3
100
AcDbEntity
  8
0
100
AcDbLine
 62
7
  6
CONTINUOUS
 10
8.3880230688
 20
5.3965065791
 11
8.3884549353
 21
5.395334719
  0
LINE
  5
6F4
100
AcDbEntity
  8
0
100
AcDbLine
 62
7
  6
CONTINUOUS
 10
8.4278891907
 20
5.3971858035
 11
8.4284549353
 21
5.395334719
  0
LINE
  5
6F5
100
AcDbEntity
  8
0
100
AcDbLine
 62
7
  6
CONTINUOUS
 10
8.2650636093
 20
6.0882853277
 11
8.2660586057
 21
6.0839704173
  0
LINE
  5
6F6
100
AcDbEntity
  8
0
100
AcDbLine
 62
7
  6
CONTINUOUS
 10
8.4676139969
 20
5.3990497367
 11
8.4684549353
 21
5.395334719
  0
LWPOLYLINE
  5
6F7
100
AcDbEntity
  8
0
100
AcDbPolyline
 62
7
  6
CONTINUOUS
 90
19
 70
0
 10
8.2485636093
 20
6.0732853277
 10
8.2496446904
 20
6.0684091213
 10
8.2507257715
 20
6.0539207817
 10
8.2518068526
 20
6.0302371121
 10
8.2528879337
 20
5.9980394484
 10
8.2539690147
 20
5.9582540589
 10
8.2550500958
 20
5.9120254968
 10
8.2561311769
 20
5.8606836737
 10
8.257212258
 20
5.8057056002
 10
8.2582933391
 20
5.7486728956
 10
8.2593744201
 20
5.6912262868
 10
8.2604555012
 20
5.6350184082
 10
8.2615365823
 20
5.5816662582
 10
8.2626176634
 20
5.5327046809
 10
8.2636987445
 20
5.4895422118
 10
8.2647798256
 20
5.4534205566
 10
8.2658609066
 20
5.4253788695
 10
8.2669419877
 20
5.4062238587
 10
8.2680230688
 20
5.3965065791
  0
LWPOLYLINE
  5
6F8
100
AcDbEntity
  8
0
100
AcDbPolyline
 62
7
  6
CONTINUOUS
 90
19
 70
0
 10
8.2885636093
 20
6.0732853277
 10
8.2896446904
 20
6.0684091213
 10
8.2907257715
 20
6.0539207817
 10
8.2918068526
 20
6.0302371121
 10
8.2928879337
 20
5.9980394484
 10
8.2939690147
 20
5.9582540589
 10
8.2950500958
 20
5.9120254968
 10
8.2961311769
 20
5.8606836737
 10
8.297212258
 20
5.8057056002
 10
8.2982933391
 20
5.7486728956
 10
8.2993744201
 20
5.6912262868
 10
8.3004555012
 20
5.6350184082
 10
8.3015365823
 20
5.5816662582
 10
8.3026176634
 20
5.5327046809
 10
8.3036987445
 20
5.4895422119
 10
8.3047798256
 20
5.4534205566
 10
8.3058609066
 20
5.4253788695
 10
8.3069419877
 20
5.4062238587
 10
8.3080230688
 20
5.3965065791
  0
LWPOLYLINE
  5
6F9
100
AcDbEntity
  8
0
100
AcDbPolyline
 62
7
  6
CONTINUOUS
 90
19
 70
0
 10
8.3285636093
 20
6.0732853277
 10
8.3296446904
 20
6.0684091213
 10
8.3307257715
 20
6.0539207817
 10
8.3318068526
 20
6.0302371121
 10
8.3328879337
 20
5.9980394484
 10
8.3339690147
 20
5.9582540589
 10
8.3350500958
 20
5.9120254968
 10
8.3361311769
 20
5.8606836737
 10
8.337212258
 20
5.8057056002
 10
8.3382933391
 20
5.7486728956
 10
8.3393744201
 20
5.6912262868
 10
8.3404555012
 20
5.6350184082
 10
8.3415365823
 20
5.5816662582
 10
8.3426176634
 20
5.5327046809
 10
8.3436987445
 20
5.4895422119
 10
8.3447798256
 20
5.4534205566
 10
8.3458609066
 20
5.4253788695
 10
8.3469419877
 20
5.4062238587
 10
8.3480230688
 20
5.3965065791
  0
LWPOLYLINE
  5
6FA
100
AcDbEntity
  8
0
100
AcDbPolyline
 62
7
  6
CONTINUOUS
 90
20
 70
0
 10
8.2836722833
 20
6.0732359364
 10
8.2846446904
 20
6.0684091213
 10
8.2857257715
 20
6.0539207817
 10
8.2868068526
 20
6.0302371121
 10
8.2878879337
 20
5.9980394484
 10
8.2889690147
 20
5.9582540589
 10
8.2900500958
 20
5.9120254968
 10
8.2911311769
 20
5.8606836737
 10
8.292212258
 20
5.8057056002
 10
8.2932933391
 20
5.7486728956
 10
8.2943744201
 20
5.6912262868
 10
8.2954555012
 20
5.6350184082
 10
8.2965365823
 20
5.5816662582
 10
8.2976176634
 20
5.5327046809
 10
8.2986987445
 20
5.4895422119
 10
8.2997798256
 20
5.4534205566
 10
8.3008609066
 20
5.4253788695
 10
8.3019419877
 20
5.4062238587
 10
8.3030230688
 20
5.3965065791
 10
8.3035636093
 20
5.3952853277
  0
LWPOLYLINE
  5
6FB
100
AcDbEntity
  8
0
100
AcDbPolyline
 62
7
  6
CONTINUOUS
 90
20
 70
0
 10
8.3236722833
 20
6.0732359364
 10
8.3246446904
 20
6.0684091213
 10
8.3257257715
 20
6.0539207817
 10
8.3268068526
 20
6.0302371121
 10
8.3278879337
 20
5.9980394484
 10
8.3289690147
 20
5.9582540589
 10
8.3300500958
 20
5.9120254968
 10
8.3311311769
 20
5.8606836737
 10
8.332212258
 20
5.8057056002
 10
8.3332933391
 20
5.7486728956
 10
8.3343744201
 20
5.6912262868
 10
8.3354555012
 20
5.6350184082
 10
8.3365365823
 20
5.5816662582
 10
8.3376176634
 20
5.5327046809
 10
8.3386987445
 20
5.4895422119
 10
8.3397798256
 20
5.4534205566
 10
8.3408609066
 20
5.4253788695
 10
8.3419419877
 20
5.4062238587
 10
8.3430230688
 20
5.3965065791
 10
8.3435636093
 20
5.3952853277
  0
LWPOLYLINE
  5
6FC
100
AcDbEntity
  8
0
100
AcDbPolyline
 62
7
  6
CONTINUOUS
 90
9
 70
0
 10
8.446541457
 20
5.3814753746
 10
8.4454979878
 20
5.3909364805
 10
8.4444528477
 20
5.409638314
 10
8.4433914959
 20
5.437561013
 10
8.4423253885
 20
5.4738909935
 10
8.4412692984
 20
5.517066355
 10
8.4402218403
 20
5.5657835069
 10
8.4391635572
 20
5.6196213054
 10
8.4381072918
 20
5.6765097404
  0
LWPOLYLINE
  5
6FD
100
AcDbEntity
  8
0
100
AcDbPolyline
 62
7
  6
CONTINUOUS
 90
10
 70
0
 10
8.4655890991
 20
6.0870800284
 10
8.4666436191
 20
6.077438515
 10
8.4676850828
 20
6.0586943999
 10
8.4687404265
 20
6.0308669217
 10
8.4698009641
 20
5.9947122841
 10
8.4708521189
 20
5.9517589324
 10
8.4718960633
 20
5.9032425019
 10
8.4729546375
 20
5.8494239727
 10
8.4740154037
 20
5.7923090447
 10
8.4761072918
 20
5.6765097404
  0
LWPOLYLINE
  5
6FE
100
AcDbEntity
  8
0
100
AcDbPolyline
 62
7
  6
CONTINUOUS
 90
9
 70
0
 10
8.5055964966
 20
6.0870458745
 10
8.5066552508
 20
6.077279059
 10
8.5076998686
 20
6.0583644546
 10
8.5087475282
 20
6.0306511312
 10
8.5097907026
 20
5.9950984382
 10
8.5108354551
 20
5.9524893238
 10
8.511882995
 20
5.9038807149
 10
8.5129458511
 20
5.8498858764
 10
8.5140110329
 20
5.7925487892
  0
LWPOLYLINE
  5
6FF
100
AcDbEntity
  8
0
100
AcDbPolyline
 62
7
  6
CONTINUOUS
 90
10
 70
0
 10
8.5160167576
 20
5.7922347768
 10
8.514959667
 20
5.8491594722
 10
8.5139069056
 20
5.9027124548
 10
8.5128677109
 20
5.9510741672
 10
8.5118163574
 20
5.994131743
 10
8.5107549755
 20
6.030424443
 10
8.5096981037
 20
6.0584039309
 10
8.5086556033
 20
6.0772742089
 10
8.507601268
 20
6.0870235929
 10
8.5071676793
 20
6.0882380284
  0
LWPOLYLINE
  5
700
100
AcDbEntity
  8
0
100
AcDbPolyline
 62
7
  6
CONTINUOUS
 90
10
 70
0
 10
8.5160167576
 20
5.7922347768
 10
8.5181350525
 20
5.6749873243
 10
8.5192065391
 20
5.6173627293
 10
8.5202780188
 20
5.563042821
 10
8.5213494512
 20
5.5135643897
 10
8.5224208738
 20
5.4703234942
 10
8.5234923311
 20
5.4345405127
 10
8.524563793
 20
5.4072280652
 10
8.5256352346
 20
5.3891584137
 10
8.5267067112
 20
5.3808414725
  0
LINE
  5
701
100
AcDbEntity
  8
0
100
AcDbLine
 62
7
  6
CONTINUOUS
 10
8.5470636093
 20
6.0882853277
 11
8.5470636093
 21
5.3952755761
  0
LINE
  5
702
100
AcDbEntity
  8
0
100
AcDbLine
 62
9
  6
CONTINUOUS
 10
8.5845636093
 20
5.3955353277
 11
8.5845636093
 21
6.0730353277
  0
LINE
  5
703
100
AcDbEntity
  8
0
100
AcDbLine
 62
7
  6
CONTINUOUS
 10
8.5970636093
 20
4.8092853277
 11
8.5970636093
 21
6.2662807034
  0
LINE
  5
704
100
AcDbEntity
  8
0
100
AcDbLine
 62
7
  6
CONTINUOUS
 10
8.6020636093
 20
4.8092853277
 11
8.6020636093
 21
4.7592853277
  0
LWPOLYLINE
  5
705
100
AcDbEntity
  8
0
100
AcDbPolyline
 62
9
  6
CONTINUOUS
 90
6
 70
0
 10
8.8920636093
 20
5.1874041706
 10
8.8538487961
 20
5.1854740365
 10
8.8135171551
 20
5.1792957699
 10
8.7727187862
 20
5.1688605056
 10
8.7332392373
 20
5.1549678219
 10
8.6967819192
 20
5.1390509201
  0
LINE
  5
706
100
AcDbEntity
  8
0
100
AcDbLine
 62
7
  6
CONTINUOUS
 10
9.1910636093
 20
5.1432853277
 11
9.1789057234
 21
5.1432853277
  0
LINE
  5
707
100
AcDbEntity
  8
AXIS_COSMETIC_THREADS
100
AcDbLine
 62
7
  6
CONTINUOUS
 10
9.1789057234
 20
5.1432853277
 11
9.1910636093
 21
5.1432853277
  0
LINE
  5
708
100
AcDbEntity
  8
0
100
AcDbLine
 62
7
  6
CONTINUOUS
 10
8.0449595393
 20
5.380332627
 11
8.0450642093
 21
5.3802853293
  0
LINE
  5
709
100
AcDbEntity
  8
0
100
AcDbLine
 62
7
  6
CONTINUOUS
 10
8.2049595393
 20
5.380332627
 11
8.2050642093
 21
5.3802853293
  0
LINE
  5
70A
100
AcDbEntity
  8
0
100
AcDbLine
 62
7
  6
CONTINUOUS
 10
8.0849595393
 20
5.380332627
 11
8.0850636053
 21
5.3802853277
  0
LINE
  5
70B
100
AcDbEntity
  8
0
100
AcDbLine
 62
7
  6
CONTINUOUS
 10
8.1249595393
 20
5.380332627
 11
8.1250636067
 21
5.3802853277
  0
LINE
  5
70C
100
AcDbEntity
  8
0
100
AcDbLine
 62
7
  6
CONTINUOUS
 10
8.1649595393
 20
5.380332627
 11
8.1650630046
 21
5.3802853293
  0
LINE
  5
70D
100
AcDbEntity
  8
0
100
AcDbLine
 62
7
  6
CONTINUOUS
 10
8.3084549353
 20
5.395334719
 11
8.3249595393
 21
5.380332627
  0
LINE
  5
70E
100
AcDbEntity
  8
0
100
AcDbLine
 62
7
  6
CONTINUOUS
 10
8.3484549353
 20
5.395334719
 11
8.3649595393
 21
5.380332627
  0
LINE
  5
70F
100
AcDbEntity
  8
0
100
AcDbLine
 62
7
  6
CONTINUOUS
 10
8.3884549353
 20
5.395334719
 11
8.4049595393
 21
5.380332627
  0
LWPOLYLINE
  5
710
100
AcDbEntity
  8
0
100
AcDbPolyline
 62
7
  6
CONTINUOUS
 90
11
 70
0
 10
8.5249595393
 20
5.380332627
 10
8.5246638975
 20
5.3809828601
 10
8.5235971912
 20
5.389635241
 10
8.5225305043
 20
5.4079408536
 10
8.5214637765
 20
5.4353882629
 10
8.5203970353
 20
5.4712086128
 10
8.519330324
 20
5.5143969231
 10
8.5182636522
 20
5.5637424365
 10
8.5171969816
 20
5.6178644909
 10
8.5161302883
 20
5.675248519
 10
8.5140110329
 20
5.7925487892
  0
LINE
  5
711
100
AcDbEntity
  8
0
100
AcDbLine
 62
7
  6
CONTINUOUS
 10
8.4470630046
 20
5.3802853293
 11
8.446541457
 21
5.3814753746
  0
LINE
  5
712
100
AcDbEntity
  8
0
100
AcDbLine
 62
7
  6
CONTINUOUS
 10
8.1450636059
 20
6.0882853277
 11
8.1455890991
 21
6.0870800284
  0
LINE
  5
713
100
AcDbEntity
  8
0
100
AcDbLine
 62
7
  6
CONTINUOUS
 10
8.4870642093
 20
5.3802853293
 11
8.4865314442
 21
5.3815214257
  0
LINE
  5
714
100
AcDbEntity
  8
0
100
AcDbLine
 62
7
  6
CONTINUOUS
 10
8.185063606
 20
6.0882853277
 11
8.1855964966
 21
6.0870458745
  0
LINE
  5
715
100
AcDbEntity
  8
0
100
AcDbLine
 62
7
  6
CONTINUOUS
 10
8.2250636065
 20
6.0882853277
 11
8.225601268
 21
6.0870235929
  0
LWPOLYLINE
  5
716
100
AcDbEntity
  8
0
100
AcDbPolyline
 62
7
  6
CONTINUOUS
 90
19
 70
0
 10
8.4085636093
 20
6.0732853277
 10
8.4096372527
 20
6.068475827
 10
8.4107108962
 20
6.0541837929
 10
8.4117845396
 20
6.0308147565
 10
8.412858183
 20
5.9990318057
 10
8.4139318264
 20
5.9597367702
 10
8.4150054698
 20
5.9140446322
 10
8.4160791132
 20
5.8632518896
 10
8.4171527566
 20
5.8087997679
 10
8.4182264
 20
5.752233326
 10
8.4193000434
 20
5.6951576163
 10
8.4203736869
 20
5.6391921411
 10
8.4214473303
 20
5.5859249004
 10
8.4225209737
 20
5.5368673327
 10
8.4235946171
 20
5.4934114286
 10
8.4246682605
 20
5.4567902334
 10
8.4257419039
 20
5.4280428604
 10
8.4268155473
 20
5.4079850056
 10
8.4278891907
 20
5.3971858035
  0
LWPOLYLINE
  5
717
100
AcDbEntity
  8
0
100
AcDbPolyline
 62
7
  6
CONTINUOUS
 90
19
 70
0
 10
8.3685636093
 20
6.0732853277
 10
8.3696446904
 20
6.0684091213
 10
8.3707257715
 20
6.0539207817
 10
8.3718068526
 20
6.0302371121
 10
8.3728879337
 20
5.9980394484
 10
8.3739690147
 20
5.9582540589
 10
8.3750500958
 20
5.9120254968
 10
8.3761311769
 20
5.8606836737
 10
8.377212258
 20
5.8057056002
 10
8.3782933391
 20
5.7486728956
 10
8.3793744201
 20
5.6912262868
 10
8.3804555012
 20
5.6350184082
 10
8.3815365823
 20
5.5816662582
 10
8.3826176634
 20
5.5327046809
 10
8.3836987445
 20
5.4895422118
 10
8.3847798256
 20
5.4534205566
 10
8.3858609066
 20
5.4253788695
 10
8.3869419877
 20
5.4062238587
 10
8.3880230688
 20
5.3965065791
  0
LWPOLYLINE
  5
718
100
AcDbEntity
  8
0
100
AcDbPolyline
 62
7
  6
CONTINUOUS
 90
20
 70
0
 10
8.4036722833
 20
6.0732359364
 10
8.4046425567
 20
6.0684283044
 10
8.4057215041
 20
6.0539964127
 10
8.4068004514
 20
6.0304031984
 10
8.4078793988
 20
5.9983247252
 10
8.4089583462
 20
5.9586802019
 10
8.4100372935
 20
5.9126056425
 10
8.4111162409
 20
5.8614213136
 10
8.4121951883
 20
5.8065939025
 10
8.4132741357
 20
5.7496944889
 10
8.414353083
 20
5.6923535257
 10
8.4154320304
 20
5.6362141185
 10
8.4165109778
 20
5.5828849422
 10
8.4175899251
 20
5.5338941446
 10
8.4186688725
 20
5.4906455573
 10
8.4197478199
 20
5.4543784686
 10
8.4208267672
 20
5.4261321123
 10
8.4219057146
 20
5.4067158877
 10
8.422984662
 20
5.3966861669
 10
8.4235636093
 20
5.3952853277
  0
LWPOLYLINE
  5
719
100
AcDbEntity
  8
0
100
AcDbPolyline
 62
7
  6
CONTINUOUS
 90
20
 70
0
 10
8.3636722833
 20
6.0732359364
 10
8.3646446904
 20
6.0684091213
 10
8.3657257715
 20
6.0539207817
 10
8.3668068526
 20
6.0302371121
 10
8.3678879337
 20
5.9980394484
 10
8.3689690147
 20
5.9582540589
 10
8.3700500958
 20
5.9120254968
 10
8.3711311769
 20
5.8606836737
 10
8.372212258
 20
5.8057056002
 10
8.3732933391
 20
5.7486728956
 10
8.3743744201
 20
5.6912262868
 10
8.3754555012
 20
5.6350184082
 10
8.3765365823
 20
5.5816662582
 10
8.3776176634
 20
5.5327046809
 10
8.3786987445
 20
5.4895422118
 10
8.3797798256
 20
5.4534205566
 10
8.3808609066
 20
5.4253788695
 10
8.3819419877
 20
5.4062238587
 10
8.3830230688
 20
5.3965065791
 10
8.3835636093
 20
5.3952853277
  0
LINE
  5
71A
100
AcDbEntity
  8
0
100
AcDbLine
 62
7
  6
CONTINUOUS
 10
8.5073388031
 20
5.4015399946
 11
8.5084549353
 21
5.395334719
  0
LWPOLYLINE
  5
71B
100
AcDbEntity
  8
0
100
AcDbPolyline
 62
7
  6
CONTINUOUS
 90
8
 70
0
 10
8.5970636093
 20
5.2022853277
 10
8.5988956179
 20
5.1898209942
 10
8.6040301181
 20
5.1821313671
 10
8.6117489118
 20
5.1784837103
 10
8.6213323911
 20
5.1781710467
 10
8.6322434523
 20
5.180691857
 10
8.6441867663
 20
5.1858492257
 10
8.6570636093
 20
5.1938270926
  0
LWPOLYLINE
  5
71C
100
AcDbEntity
  8
0
100
AcDbPolyline
 62
9
  6
CONTINUOUS
 90
8
 70
0
 10
8.5970636093
 20
5.2022853277
 10
8.600108356
 20
5.1751681013
 10
8.6086417507
 20
5.1544660519
 10
8.6214701683
 20
5.1402257922
 10
8.6373976411
 20
5.1319715979
 10
8.6555315173
 20
5.1291421256
 10
8.6753809688
 20
5.1314311559
 10
8.6967819192
 20
5.1390509201
  0
LWPOLYLINE
  5
71D
100
AcDbEntity
  8
0
100
AcDbPolyline
 62
7
  6
CONTINUOUS
 90
3
 70
0
 10
8.5470636093
 20
6.0709593345
 10
8.5459970907
 20
6.0844865314
 10
8.5450636105
 20
6.0882853277
  0
LINE
  5
71E
100
AcDbEntity
  8
0
100
AcDbLine
 62
9
  6
CONTINUOUS
 10
8.6570636093
 20
5.1938270926
 11
8.6570636093
 21
6.3262853277
  0
LWPOLYLINE
  5
71F
100
AcDbEntity
  8
0
100
AcDbPolyline
 62
9
  6
CONTINUOUS
 90
6
 70
0
 10
8.8920636093
 20
5.2377306574
 10
8.8460762917
 20
5.235978143
 10
8.797541605
 20
5.2303684286
 10
8.7484452629
 20
5.2208934647
 10
8.7009359752
 20
5.2082792488
 10
8.6570636093
 20
5.1938270926
  0
LINE
  5
720
100
AcDbEntity
  8
0
100
AcDbLine
 62
7
  6
CONTINUOUS
 10
8.3649595393
 20
5.380332627
 11
8.3650642093
 21
5.3802853293
  0
LINE
  5
721
100
AcDbEntity
  8
0
100
AcDbLine
 62
7
  6
CONTINUOUS
 10
8.2449595393
 20
5.380332627
 11
8.2450636053
 21
5.3802853277
  0
LINE
  5
722
100
AcDbEntity
  8
0
100
AcDbLine
 62
7
  6
CONTINUOUS
 10
8.2849595393
 20
5.380332627
 11
8.2850636067
 21
5.3802853277
  0
LINE
  5
723
100
AcDbEntity
  8
0
100
AcDbLine
 62
7
  6
CONTINUOUS
 10
8.4049595393
 20
5.380332627
 11
8.4050636053
 21
5.3802853277
  0
LINE
  5
724
100
AcDbEntity
  8
0
100
AcDbLine
 62
7
  6
CONTINUOUS
 10
8.3249595393
 20
5.380332627
 11
8.3250630046
 21
5.3802853293
  0
LWPOLYLINE
  5
725
100
AcDbEntity
  8
0
100
AcDbPolyline
 62
9
  6
CONTINUOUS
 90
6
 70
0
 10
8.6570636093
 20
5.1938270926
 10
8.6674650328
 20
5.1877093755
 10
8.6772094859
 20
5.1785183136
 10
8.6856814936
 20
5.1668344288
 10
8.6923459506
 20
5.1533956937
 10
8.6967819192
 20
5.1390509201
  0
LINE
  5
726
100
AcDbEntity
  8
0
100
AcDbLine
 62
7
  6
CONTINUOUS
 10
8.4284549353
 20
5.395334719
 11
8.4449595393
 21
5.380332627
  0
LINE
  5
727
100
AcDbEntity
  8
0
100
AcDbLine
 62
7
  6
CONTINUOUS
 10
8.4684549353
 20
5.395334719
 11
8.4849595393
 21
5.380332627
  0
LINE
  5
728
100
AcDbEntity
  8
0
100
AcDbLine
 62
7
  6
CONTINUOUS
 10
8.5084549353
 20
5.395334719
 11
8.5249595393
 21
5.380332627
  0
LINE
  5
729
100
AcDbEntity
  8
0
100
AcDbLine
 62
7
  6
CONTINUOUS
 10
8.0253711223
 20
6.0878724177
 11
8.0250636099
 21
6.0882853277
  0
LWPOLYLINE
  5
72A
100
AcDbEntity
  8
0
100
AcDbPolyline
 62
7
  6
CONTINUOUS
 90
19
 70
0
 10
8.0485636093
 20
6.0732853277
 10
8.0488859778
 20
6.0728507958
 10
8.0499583462
 20
6.0651821344
 10
8.0510307146
 20
6.0481466306
 10
8.052103083
 20
6.022226516
 10
8.0531754514
 20
5.9881555226
 10
8.0542478199
 20
5.9468981132
 10
8.0553201883
 20
5.8996221796
 10
8.0563925567
 20
5.8476659825
 10
8.0574649251
 20
5.792500269
 10
8.0585372935
 20
5.7356866394
 10
8.059609662
 20
5.6788333422
 10
8.0606820304
 20
5.623549749
 10
8.0617543988
 20
5.5714007968
 10
8.0628267672
 20
5.5238626891
 10
8.0638991357
 20
5.4822811082
 10
8.0649715041
 20
5.4478331224
 10
8.0660438725
 20
5.4214938659
 10
8.0671162409
 20
5.4040089358
  0
LINE
  5
72B
100
AcDbEntity
  8
0
100
AcDbLine
 62
7
  6
CONTINUOUS
 10
8.5267067112
 20
5.3808414725
 11
8.5270636087
 21
5.3802853277
  0
LINE
  5
72C
100
AcDbEntity
  8
0
100
AcDbLine
 62
7
  6
CONTINUOUS
 10
8.3050636059
 20
6.0882853277
 11
8.3055890991
 21
6.0870800284
  0
LWPOLYLINE
  5
72D
100
AcDbEntity
  8
0
100
AcDbPolyline
 62
7
  6
CONTINUOUS
 90
20
 70
0
 10
8.4836722833
 20
6.0732359364
 10
8.484484662
 20
6.0697435551
 10
8.4855636093
 20
6.0566934867
 10
8.4866425567
 20
6.0344048111
 10
8.4877215041
 20
6.0035162103
 10
8.4888004514
 20
5.9649127974
 10
8.4898793988
 20
5.9197007533
 10
8.4909583462
 20
5.8691756294
 10
8.4920372935
 20
5.8147852232
 10
8.4931162409
 20
5.7580880923
 10
8.4941951883
 20
5.7007088929
 10
8.4952741357
 20
5.6442918265
 10
8.496353083
 20
5.5904535243
 10
8.4974320304
 20
5.540736723
 10
8.4985109778
 20
5.4965660578
 10
8.4995899251
 20
5.4592072394
 10
8.5006688725
 20
5.4297307848
 10
8.5017478199
 20
5.408981342
 10
8.5028267672
 20
5.3975534864
 10
8.5035636093
 20
5.3952853277
  0
LINE
  5
72E
100
AcDbEntity
  8
0
100
AcDbLine
 62
7
  6
CONTINUOUS
 10
8.4250636093
 20
6.0882853277
 11
8.4260586057
 21
6.0839704173
  0
LWPOLYLINE
  5
72F
100
AcDbEntity
  8
0
100
AcDbPolyline
 62
7
  6
CONTINUOUS
 90
20
 70
0
 10
8.4436722833
 20
6.0732359364
 10
8.4445636093
 20
6.0691116752
 10
8.4456425567
 20
6.0553696384
 10
8.4467215041
 20
6.0324269294
 10
8.4478004514
 20
6.0009409714
 10
8.4488793988
 20
5.9618139947
 10
8.4499583462
 20
5.9161671831
 10
8.4510372935
 20
5.8653085461
 10
8.4521162409
 20
5.8106954382
 10
8.4531951883
 20
5.7538927982
 10
8.4542741357
 20
5.6965283061
 10
8.455353083
 20
5.6402457416
 10
8.4564320304
 20
5.5866578819
 10
8.4575109778
 20
5.5373002873
 10
8.4585899251
 20
5.4935872999
 10
8.4596688725
 20
5.4567715155
 10
8.4607478199
 20
5.4279078907
 10
8.4618267672
 20
5.4078235127
 10
8.4629057146
 20
5.3970938994
 10
8.4635636093
 20
5.3952853277
  0
LINE
  5
730
100
AcDbEntity
  8
AXIS_COSMETIC_THREADS
100
AcDbLine
 62
7
  6
CONTINUOUS
 10
8.7755636093
 20
4.7092853277
 11
8.7755636093
 21
4.0642459576
  0
LWPOLYLINE
  5
731
100
AcDbEntity
  8
0
100
AcDbPolyline
 62
9
  6
CONTINUOUS
 90
7
 70
0
 10
9.0370636093
 20
5.2009336613
 10
9.0186166453
 20
5.1955851731
 10
8.9971186892
 20
5.1916697574
 10
8.9730335639
 20
5.1892372152
 10
8.9469891476
 20
5.1880001399
 10
8.9197413526
 20
5.1875160862
 10
8.8920636093
 20
5.1874041706
  0
LWPOLYLINE
  5
732
100
AcDbEntity
  8
0
100
AcDbPolyline
 62
7
  6
CONTINUOUS
 90
3
 70
0
 10
9.0370636093
 20
5.1976057212
 10
9.0778364065
 20
5.1851846701
 10
9.1137684828
 20
5.1720104386
  0
LWPOLYLINE
  5
733
100
AcDbEntity
  8
0
100
AcDbPolyline
 62
7
  6
CONTINUOUS
 90
5
 70
0
 10
9.1137684828
 20
5.1720104386
 10
9.1430476719
 20
5.1598351561
 10
9.1648516514
 20
5.1499794866
 10
9.1791451586
 20
5.1431712812
 10
9.1861886838
 20
5.1397186288
  0
LINE
  5
734
100
AcDbEntity
  8
0
100
AcDbLine
 62
7
  6
CONTINUOUS
 10
8.4449595393
 20
5.380332627
 11
8.4450636067
 21
5.3802853277
  0
LINE
  5
735
100
AcDbEntity
  8
0
100
AcDbLine
 62
7
  6
CONTINUOUS
 10
8.5250636102
 20
5.3802853277
 11
8.5249595393
 21
5.380332627
  0
LINE
  5
736
100
AcDbEntity
  8
0
100
AcDbLine
 62
7
  6
CONTINUOUS
 10
8.4849595393
 20
5.380332627
 11
8.4850630046
 21
5.3802853293
  0
LINE
  5
737
100
AcDbEntity
  8
0
100
AcDbLine
 62
7
  6
CONTINUOUS
 10
8.345063606
 20
6.0882853277
 11
8.3455964966
 21
6.0870458745
  0
LINE
  5
738
100
AcDbEntity
  8
0
100
AcDbLine
 62
7
  6
CONTINUOUS
 10
8.3850636065
 20
6.0882853277
 11
8.385601268
 21
6.0870235929
  0
LWPOLYLINE
  5
739
100
AcDbEntity
  8
0
100
AcDbPolyline
 62
7
  6
CONTINUOUS
 90
19
 70
0
 10
8.4485636093
 20
6.0732853277
 10
8.4493620589
 20
6.0706225487
 10
8.4504357024
 20
6.0587330027
 10
8.4515093458
 20
6.0376373723
 10
8.4525829892
 20
6.0079342383
 10
8.4536566326
 20
5.9704664163
 10
8.454730276
 20
5.926297042
 10
8.4558039194
 20
5.8766794054
 10
8.4568775628
 20
5.8230213888
 10
8.4579512062
 20
5.7668455188
 10
8.4590248496
 20
5.7097457653
 10
8.4600984931
 20
5.6533423129
 10
8.4611721365
 20
5.5992355891
 10
8.4622457799
 20
5.5489608523
 10
8.4633194233
 20
5.5039446298
 10
8.4643930667
 20
5.4654642407
 10
8.4654667101
 20
5.4346115518
 10
8.4665403535
 20
5.412261997
 10
8.4676139969
 20
5.3990497367
  0
LWPOLYLINE
  5
73A
100
AcDbEntity
  8
0
100
AcDbPolyline
 62
7
  6
CONTINUOUS
 90
20
 70
0
 10
8.5236722833
 20
6.0732359364
 10
8.5244057146
 20
6.0703238472
 10
8.525484662
 20
6.057967754
 10
8.5265636093
 20
6.0363365394
 10
8.5276425567
 20
6.006050046
 10
8.5287215041
 20
5.9679761334
 10
8.5298004514
 20
5.9232058097
 10
8.5308793988
 20
5.8730219688
 10
8.5319583462
 20
5.8188626288
 10
8.5330372935
 20
5.7622797258
 10
8.5341162409
 20
5.7048946433
 10
8.5351951883
 20
5.6483517509
 10
8.5362741357
 20
5.5942712856
 10
8.537353083
 20
5.5442029233
 10
8.5384320304
 20
5.4995813731
 10
8.5395109778
 20
5.4616852658
 10
8.5405899251
 20
5.4316005144
 10
8.5416688725
 20
5.4101891978
 10
8.5427478199
 20
5.3980648571
 10
8.5435636093
 20
5.3952853277
  0
LINE
  5
73B
100
AcDbEntity
  8
0
100
AcDbLine
 62
7
  6
CONTINUOUS
 10
8.5270636093
 20
5.3802853277
 11
8.5250636093
 21
5.3802853277
  0
LINE
  5
73C
100
AcDbEntity
  8
0
100
AcDbLine
 62
7
  6
CONTINUOUS
 10
8.4870636093
 20
5.3802853277
 11
8.4850636093
 21
5.3802853277
  0
LINE
  5
73D
100
AcDbEntity
  8
0
100
AcDbLine
 62
7
  6
CONTINUOUS
 10
8.4470636093
 20
5.3802853277
 11
8.4450636093
 21
5.3802853277
  0
LINE
  5
73E
100
AcDbEntity
  8
0
100
AcDbLine
 62
7
  6
CONTINUOUS
 10
8.4070636093
 20
5.3802853277
 11
8.4050636093
 21
5.3802853277
  0
LINE
  5
73F
100
AcDbEntity
  8
0
100
AcDbLine
 62
7
  6
CONTINUOUS
 10
8.3670636093
 20
5.3802853277
 11
8.3650636093
 21
5.3802853277
  0
LINE
  5
740
100
AcDbEntity
  8
0
100
AcDbLine
 62
7
  6
CONTINUOUS
 10
8.3270636093
 20
5.3802853277
 11
8.3250636093
 21
5.3802853277
  0
LINE
  5
741
100
AcDbEntity
  8
0
100
AcDbLine
 62
7
  6
CONTINUOUS
 10
8.2870636093
 20
5.3802853277
 11
8.2850636093
 21
5.3802853277
  0
LINE
  5
742
100
AcDbEntity
  8
0
100
AcDbLine
 62
7
  6
CONTINUOUS
 10
8.2470636093
 20
5.3802853277
 11
8.2450636093
 21
5.3802853277
  0
LINE
  5
743
100
AcDbEntity
  8
0
100
AcDbLine
 62
7
  6
CONTINUOUS
 10
8.2070636093
 20
5.3802853277
 11
8.2050636093
 21
5.3802853277
  0
LINE
  5
744
100
AcDbEntity
  8
0
100
AcDbLine
 62
7
  6
CONTINUOUS
 10
8.1670636093
 20
5.3802853277
 11
8.1650636093
 21
5.3802853277
  0
LINE
  5
745
100
AcDbEntity
  8
0
100
AcDbLine
 62
7
  6
CONTINUOUS
 10
8.1270636093
 20
5.3802853277
 11
8.1250636093
 21
5.3802853277
  0
LINE
  5
746
100
AcDbEntity
  8
0
100
AcDbLine
 62
7
  6
CONTINUOUS
 10
8.0870636093
 20
5.3802853277
 11
8.0850636093
 21
5.3802853277
  0
LINE
  5
747
100
AcDbEntity
  8
0
100
AcDbLine
 62
7
  6
CONTINUOUS
 10
8.0470636093
 20
5.3802853277
 11
8.0450636093
 21
5.3802853277
  0
LINE
  5
748
100
AcDbEntity
  8
0
100
AcDbLine
 62
7
  6
CONTINUOUS
 10
8.0235636093
 20
5.3952853277
 11
8.0285636093
 21
5.3952853277
  0
LINE
  5
749
100
AcDbEntity
  8
0
100
AcDbLine
 62
7
  6
CONTINUOUS
 10
8.0635636093
 20
5.3952853277
 11
8.0685636093
 21
5.3952853277
  0
LINE
  5
74A
100
AcDbEntity
  8
0
100
AcDbLine
 62
7
  6
CONTINUOUS
 10
8.1035636093
 20
5.3952853277
 11
8.1085636093
 21
5.3952853277
  0
LINE
  5
74B
100
AcDbEntity
  8
0
100
AcDbLine
 62
7
  6
CONTINUOUS
 10
8.1435636093
 20
5.3952853277
 11
8.1485636093
 21
5.3952853277
  0
LINE
  5
74C
100
AcDbEntity
  8
0
100
AcDbLine
 62
7
  6
CONTINUOUS
 10
8.1835636093
 20
5.3952853277
 11
8.1885636093
 21
5.3952853277
  0
LINE
  5
74D
100
AcDbEntity
  8
0
100
AcDbLine
 62
7
  6
CONTINUOUS
 10
8.2235636093
 20
5.3952853277
 11
8.2285636093
 21
5.3952853277
  0
LINE
  5
74E
100
AcDbEntity
  8
0
100
AcDbLine
 62
7
  6
CONTINUOUS
 10
8.2635636093
 20
5.3952853277
 11
8.2685636093
 21
5.3952853277
  0
LINE
  5
74F
100
AcDbEntity
  8
0
100
AcDbLine
 62
7
  6
CONTINUOUS
 10
8.3035636093
 20
5.3952853277
 11
8.3085636093
 21
5.3952853277
  0
LINE
  5
750
100
AcDbEntity
  8
0
100
AcDbLine
 62
7
  6
CONTINUOUS
 10
8.3435636093
 20
5.3952853277
 11
8.3485636093
 21
5.3952853277
  0
LINE
  5
751
100
AcDbEntity
  8
0
100
AcDbLine
 62
7
  6
CONTINUOUS
 10
8.3835636093
 20
5.3952853277
 11
8.3885636093
 21
5.3952853277
  0
LINE
  5
752
100
AcDbEntity
  8
0
100
AcDbLine
 62
7
  6
CONTINUOUS
 10
8.4235636093
 20
5.3952853277
 11
8.4285636093
 21
5.3952853277
  0
LINE
  5
753
100
AcDbEntity
  8
0
100
AcDbLine
 62
7
  6
CONTINUOUS
 10
8.4635636093
 20
5.3952853277
 11
8.4685636093
 21
5.3952853277
  0
LINE
  5
754
100
AcDbEntity
  8
0
100
AcDbLine
 62
7
  6
CONTINUOUS
 10
8.5035636093
 20
5.3952853277
 11
8.5085636093
 21
5.3952853277
  0
LINE
  5
755
100
AcDbEntity
  8
0
100
AcDbLine
 62
7
  6
CONTINUOUS
 10
8.5435636093
 20
5.3952853277
 11
8.5470636093
 21
5.3952853277
  0
LINE
  5
756
100
AcDbEntity
  8
0
100
AcDbLine
 62
7
  6
CONTINUOUS
 10
8.5845636093
 20
5.3955353277
 11
8.5470636093
 21
5.3955353277
  0
LINE
  5
757
100
AcDbEntity
  8
0
100
AcDbLine
 62
7
  6
CONTINUOUS
 10
9.1861886838
 20
5.1397186288
 11
9.1870636093
 21
5.13928705
  0
LWPOLYLINE
  5
758
100
AcDbEntity
  8
0
100
AcDbPolyline
 62
9
  6
CONTINUOUS
 90
7
 70
0
 10
9.0370636093
 20
5.2009336613
 10
9.025150363
 20
5.2090966146
 10
9.0076849154
 20
5.2175672892
 10
8.9846187246
 20
5.2255119625
 10
8.9566487591
 20
5.2320172402
 10
8.9251781769
 20
5.2362647513
 10
8.8920636093
 20
5.2377306574
  0
LWPOLYLINE
  5
759
100
AcDbEntity
  8
0
100
AcDbPolyline
 62
7
  6
CONTINUOUS
 90
19
 70
0
 10
8.4885636093
 20
6.0732853277
 10
8.4890868652
 20
6.0721408876
 10
8.4901605086
 20
6.0626760431
 10
8.491234152
 20
6.0438932319
 10
8.4923077954
 20
6.0163254094
 10
8.4933814388
 20
5.9807548024
 10
8.4944550822
 20
5.938190714
 10
8.4955287256
 20
5.8898408846
 10
8.496602369
 20
5.8370772231
 10
8.4976760124
 20
5.781396879
 10
8.4987496558
 20
5.7243797619
 10
8.4998232993
 20
5.6676437116
 10
8.5008969427
 20
5.6127985928
 10
8.5019705861
 20
5.5614006158
 10
8.5030442295
 20
5.5149081794
 10
8.5041178729
 20
5.4746404896
 10
8.5051915163
 20
5.4417401274
 10
8.5062651597
 20
5.4171406284
 10
8.5073388031
 20
5.4015399946
  0
LINE
  5
75A
100
AcDbEntity
  8
0
100
AcDbLine
 62
7
  6
CONTINUOUS
 10
8.4650636059
 20
6.0882853277
 11
8.4655890991
 21
6.0870800284
  0
LINE
  5
75B
100
AcDbEntity
  8
0
100
AcDbLine
 62
7
  6
CONTINUOUS
 10
8.505063606
 20
6.0882853277
 11
8.5055964966
 21
6.0870458745
  0
LINE
  5
75C
100
AcDbEntity
  8
0
100
AcDbLine
 62
7
  6
CONTINUOUS
 10
8.0436722833
 20
6.0732359364
 11
8.0271676793
 21
6.0882380284
  0
LINE
  5
75D
100
AcDbEntity
  8
0
100
AcDbLine
 62
7
  6
CONTINUOUS
 10
8.0836722833
 20
6.0732359364
 11
8.0671676793
 21
6.0882380284
  0
LINE
  5
75E
100
AcDbEntity
  8
0
100
AcDbLine
 62
7
  6
CONTINUOUS
 10
8.1236722833
 20
6.0732359364
 11
8.1071676793
 21
6.0882380284
  0
LINE
  5
75F
100
AcDbEntity
  8
AXIS_COSMETIC_THREADS
100
AcDbLine
 62
7
  6
CONTINUOUS
 10
9.0085636093
 20
4.7092853277
 11
9.0085636093
 21
4.0642459576
  0
LINE
  5
760
100
AcDbEntity
  8
0
100
AcDbLine
 62
7
  6
CONTINUOUS
 10
9.0370636093
 20
5.1976057212
 11
9.0370636093
 21
6.3262791067
  0
LINE
  5
761
100
AcDbEntity
  8
0
100
AcDbLine
 62
7
  6
CONTINUOUS
 10
8.1636722833
 20
6.0732359364
 11
8.1471676793
 21
6.0882380284
  0
LINE
  5
762
100
AcDbEntity
  8
0
100
AcDbLine
 62
7
  6
CONTINUOUS
 10
8.2036722833
 20
6.0732359364
 11
8.1871676793
 21
6.0882380284
  0
LINE
  5
763
100
AcDbEntity
  8
0
100
AcDbLine
 62
7
  6
CONTINUOUS
 10
8.2436722833
 20
6.0732359364
 11
8.2271676793
 21
6.0882380284
  0
LINE
  5
764
100
AcDbEntity
  8
0
100
AcDbLine
 62
7
  6
CONTINUOUS
 10
8.2836722833
 20
6.0732359364
 11
8.2671676793
 21
6.0882380284
  0
LINE
  5
765
100
AcDbEntity
  8
0
100
AcDbLine
 62
9
  6
CONTINUOUS
 10
9.1908968615
 20
5.1434746236
 11
9.1910636093
 21
5.1432853277
  0
LINE
  5
766
100
AcDbEntity
  8
AXIS_COSMETIC_THREADS
100
AcDbLine
 62
7
  6
CONTINUOUS
 10
9.0520636093
 20
5.1930361116
 11
9.0520636093
 21
6.3252853277
  0
LINE
  5
767
100
AcDbEntity
  8
0
100
AcDbLine
 62
7
  6
CONTINUOUS
 10
8.3236722833
 20
6.0732359364
 11
8.3071676793
 21
6.0882380284
  0
LINE
  5
768
100
AcDbEntity
  8
0
100
AcDbLine
 62
7
  6
CONTINUOUS
 10
8.3636722833
 20
6.0732359364
 11
8.3471676793
 21
6.0882380284
  0
LINE
  5
769
100
AcDbEntity
  8
0
100
AcDbLine
 62
7
  6
CONTINUOUS
 10
8.4036722833
 20
6.0732359364
 11
8.3871676793
 21
6.0882380284
  0
LINE
  5
76A
100
AcDbEntity
  8
0
100
AcDbLine
 62
9
  6
CONTINUOUS
 10
9.1320636093
 20
6.3252853277
 11
9.1320620914
 21
5.7342853278
  0
LINE
  5
76B
100
AcDbEntity
  8
0
100
AcDbLine
 62
7
  6
CONTINUOUS
 10
9.1820636093
 20
4.8092853277
 11
9.1820636093
 21
4.7592853277
  0
LINE
  5
76C
100
AcDbEntity
  8
0
100
AcDbLine
 62
7
  6
CONTINUOUS
 10
9.1870636093
 20
4.8092853277
 11
9.1870636093
 21
5.1397186317
  0
LINE
  5
76D
100
AcDbEntity
  8
0
100
AcDbLine
 62
7
  6
CONTINUOUS
 10
9.1920636093
 20
6.2652853277
 11
9.1920636093
 21
5.1442853277
  0
LWPOLYLINE
  5
76E
100
AcDbEntity
  8
0
100
AcDbPolyline
 62
9
  6
CONTINUOUS
 90
43
 70
0
 10
9.1320620914
 20
5.7342853278
 10
9.1320616657
 20
5.7290917578
 10
9.1320077037
 20
5.7054687372
 10
9.1318917288
 20
5.6819078201
 10
9.1317292988
 20
5.6583736639
 10
9.1315355999
 20
5.6348285791
 10
9.1313266605
 20
5.6113137415
 10
9.1311197521
 20
5.5879510642
 10
9.1309322956
 20
5.5648557952
 10
9.1307810199
 20
5.5420816918
 10
9.1306822634
 20
5.5196485674
 10
9.1306523968
 20
5.4975768827
 10
9.1307078292
 20
5.4759086377
 10
9.1308647088
 20
5.4546924226
 10
9.1311389488
 20
5.4339635654
 10
9.1315462481
 20
5.4137558441
 10
9.1321020648
 20
5.3941019015
 10
9.1328215955
 20
5.3750329424
 10
9.1337197584
 20
5.3565785626
 10
9.1348111878
 20
5.3387665324
 10
9.1361100602
 20
5.3216247895
 10
9.1376299769
 20
5.3051807867
 10
9.1393847938
 20
5.2894531202
 10
9.1413887895
 20
5.2744553119
 10
9.1436563539
 20
5.2602007988
 10
9.1461989911
 20
5.2467177098
 10
9.1490223178
 20
5.2340498969
 10
9.152152901
 20
5.2221477415
 10
9.1556431168
 20
5.2108616245
 10
9.1594039494
 20
5.2003213824
 10
9.1632969413
 20
5.1906854518
 10
9.1671789386
 20
5.1820647551
 10
9.1709173354
 20
5.1745157696
 10
9.1743978859
 20
5.1680495261
 10
9.1775425728
 20
5.1626189539
 10
9.1803680464
 20
5.1580454649
 10
9.1828689277
 20
5.1542267681
 10
9.1850405146
 20
5.1510824673
 10
9.1868811165
 20
5.1485444016
 10
9.1883878328
 20
5.1465585367
 10
9.1895594054
 20
5.1450779644
 10
9.1903956994
 20
5.1440617674
 10
9.1908968615
 20
5.1434746236
  0
LINE
  5
76F
100
AcDbEntity
  8
0
100
AcDbLine
 62
7
  6
CONTINUOUS
 10
8.02706361
 20
6.0882853277
 11
8.0271676793
 21
6.0882380284
  0
LINE
  5
770
100
AcDbEntity
  8
0
100
AcDbLine
 62
7
  6
CONTINUOUS
 10
8.0671676793
 20
6.0882380284
 11
8.0670636093
 21
6.0882853277
  0
LINE
  5
771
100
AcDbEntity
  8
0
100
AcDbLine
 62
7
  6
CONTINUOUS
 10
8.4436722833
 20
6.0732359364
 11
8.4271676793
 21
6.0882380284
  0
LINE
  5
772
100
AcDbEntity
  8
0
100
AcDbLine
 62
7
  6
CONTINUOUS
 10
8.4836722833
 20
6.0732359364
 11
8.4671676793
 21
6.0882380284
  0
LINE
  5
773
100
AcDbEntity
  8
0
100
AcDbLine
 62
7
  6
CONTINUOUS
 10
8.5236722833
 20
6.0732359364
 11
8.5071676793
 21
6.0882380284
  0
LWPOLYLINE
  5
774
100
AcDbEntity
  8
0
100
AcDbPolyline
 62
7
  6
CONTINUOUS
 90
19
 70
0
 10
8.5285636093
 20
6.0732853277
 10
8.5288116714
 20
6.0730280068
 10
8.5298853148
 20
6.0660055472
 10
8.5309589582
 20
6.0495706473
 10
8.5320326016
 20
6.0241896415
 10
8.533106245
 20
5.9905827066
 10
8.5341798884
 20
5.9497034271
 10
8.5352535318
 20
5.9027117375
 10
8.5363271752
 20
5.8509410101
 10
8.5374008186
 20
5.7958602202
 10
8.538474462
 20
5.7390322652
 10
8.5395481055
 20
5.6820696176
 10
8.5406217489
 20
5.6265885717
 10
8.5416953923
 20
5.5741633819
 10
8.5427690357
 20
5.526281594
 10
8.5438426791
 20
5.4843018361
 10
8.5449163225
 20
5.4494152686
 10
8.5459899659
 20
5.4226117851
 10
8.5470636093
 20
5.4046519247
  0
LINE
  5
775
100
AcDbEntity
  8
0
100
AcDbLine
 62
7
  6
CONTINUOUS
 10
8.1071676793
 20
6.0882380284
 11
8.1070636059
 21
6.0882853277
  0
LINE
  5
776
100
AcDbEntity
  8
0
100
AcDbLine
 62
7
  6
CONTINUOUS
 10
8.1471676793
 20
6.0882380284
 11
8.147063606
 21
6.0882853277
  0
LINE
  5
777
100
AcDbEntity
  8
0
100
AcDbLine
 62
7
  6
CONTINUOUS
 10
8.1871676793
 20
6.0882380284
 11
8.1870636065
 21
6.0882853277
  0
LINE
  5
778
100
AcDbEntity
  8
0
100
AcDbLine
 62
7
  6
CONTINUOUS
 10
8.2271676793
 20
6.0882380284
 11
8.2270636093
 21
6.0882853277
  0
LINE
  5
779
100
AcDbEntity
  8
0
100
AcDbLine
 62
7
  6
CONTINUOUS
 10
8.2671676793
 20
6.0882380284
 11
8.2670636059
 21
6.0882853277
  0
LINE
  5
77A
100
AcDbEntity
  8
0
100
AcDbLine
 62
7
  6
CONTINUOUS
 10
8.3071676793
 20
6.0882380284
 11
8.307063606
 21
6.0882853277
  0
LINE
  5
77B
100
AcDbEntity
  8
0
100
AcDbLine
 62
7
  6
CONTINUOUS
 10
9.1820636093
 20
4.7592853277
 11
9.1531960959
 21
4.7092853277
  0
LINE
  5
77C
100
AcDbEntity
  8
0
100
AcDbLine
 62
7
  6
CONTINUOUS
 10
8.3471676793
 20
6.0882380284
 11
8.3470636065
 21
6.0882853277
  0
LINE
  5
77D
100
AcDbEntity
  8
0
100
AcDbLine
 62
7
  6
CONTINUOUS
 10
8.3871676793
 20
6.0882380284
 11
8.3870636093
 21
6.0882853277
  0
LINE
  5
77E
100
AcDbEntity
  8
0
100
AcDbLine
 62
7
  6
CONTINUOUS
 10
8.4271676793
 20
6.0882380284
 11
8.4270636059
 21
6.0882853277
  0
LINE
  5
77F
100
AcDbEntity
  8
0
100
AcDbLine
 62
7
  6
CONTINUOUS
 10
8.4671676793
 20
6.0882380284
 11
8.467063606
 21
6.0882853277
  0
LINE
  5
780
100
AcDbEntity
  8
0
100
AcDbLine
 62
7
  6
CONTINUOUS
 10
8.5071676793
 20
6.0882380284
 11
8.5070636065
 21
6.0882853277
  0
LINE
  5
781
100
AcDbEntity
  8
0
100
AcDbLine
 62
7
  6
CONTINUOUS
 10
8.5845636093
 20
6.0730353277
 11
8.5470636093
 21
6.0730353277
  0
LINE
  5
782
100
AcDbEntity
  8
0
100
AcDbLine
 62
7
  6
CONTINUOUS
 10
8.5285636093
 20
6.0732853277
 11
8.5235636093
 21
6.0732853277
  0
LINE
  5
783
100
AcDbEntity
  8
0
100
AcDbLine
 62
7
  6
CONTINUOUS
 10
8.4885636093
 20
6.0732853277
 11
8.4835636093
 21
6.0732853277
  0
LINE
  5
784
100
AcDbEntity
  8
0
100
AcDbLine
 62
7
  6
CONTINUOUS
 10
8.4485636093
 20
6.0732853277
 11
8.4435636093
 21
6.0732853277
  0
LINE
  5
785
100
AcDbEntity
  8
0
100
AcDbLine
 62
7
  6
CONTINUOUS
 10
8.3685636093
 20
6.0732853277
 11
8.3635636093
 21
6.0732853277
  0
LINE
  5
786
100
AcDbEntity
  8
0
100
AcDbLine
 62
7
  6
CONTINUOUS
 10
8.3285636093
 20
6.0732853277
 11
8.3235636093
 21
6.0732853277
  0
LINE
  5
787
100
AcDbEntity
  8
0
100
AcDbLine
 62
7
  6
CONTINUOUS
 10
8.2885636093
 20
6.0732853277
 11
8.2835636093
 21
6.0732853277
  0
LINE
  5
788
100
AcDbEntity
  8
0
100
AcDbLine
 62
7
  6
CONTINUOUS
 10
8.2085636093
 20
6.0732853277
 11
8.2035636093
 21
6.0732853277
  0
LINE
  5
789
100
AcDbEntity
  8
0
100
AcDbLine
 62
7
  6
CONTINUOUS
 10
8.1685636093
 20
6.0732853277
 11
8.1635636093
 21
6.0732853277
  0
LINE
  5
78A
100
AcDbEntity
  8
0
100
AcDbLine
 62
7
  6
CONTINUOUS
 10
8.1285636093
 20
6.0732853277
 11
8.1235636093
 21
6.0732853277
  0
LINE
  5
78B
100
AcDbEntity
  8
0
100
AcDbLine
 62
7
  6
CONTINUOUS
 10
8.0485636093
 20
6.0732853277
 11
8.0435636093
 21
6.0732853277
  0
LINE
  5
78C
100
AcDbEntity
  8
0
100
AcDbLine
 62
7
  6
CONTINUOUS
 10
8.0085636093
 20
6.0732853277
 11
8.0070636093
 21
6.0732853277
  0
LINE
  5
78D
100
AcDbEntity
  8
0
100
AcDbLine
 62
7
  6
CONTINUOUS
 10
8.0835636093
 20
6.0732853277
 11
8.0885636093
 21
6.0732853277
  0
LINE
  5
78E
100
AcDbEntity
  8
0
100
AcDbLine
 62
7
  6
CONTINUOUS
 10
8.2435636093
 20
6.0732853277
 11
8.2485636093
 21
6.0732853277
  0
LINE
  5
78F
100
AcDbEntity
  8
0
100
AcDbLine
 62
7
  6
CONTINUOUS
 10
8.4035636093
 20
6.0732853277
 11
8.4085636093
 21
6.0732853277
  0
LINE
  5
790
100
AcDbEntity
  8
0
100
AcDbLine
 62
7
  6
CONTINUOUS
 10
8.5470636093
 20
6.0882853277
 11
8.5450636093
 21
6.0882853277
  0
LINE
  5
791
100
AcDbEntity
  8
0
100
AcDbLine
 62
7
  6
CONTINUOUS
 10
8.5070636093
 20
6.0882853277
 11
8.5050636093
 21
6.0882853277
  0
LINE
  5
792
100
AcDbEntity
  8
0
100
AcDbLine
 62
7
  6
CONTINUOUS
 10
8.4670636093
 20
6.0882853277
 11
8.4650636093
 21
6.0882853277
  0
LINE
  5
793
100
AcDbEntity
  8
0
100
AcDbLine
 62
7
  6
CONTINUOUS
 10
8.4270636093
 20
6.0882853277
 11
8.4250636093
 21
6.0882853277
  0
LINE
  5
794
100
AcDbEntity
  8
0
100
AcDbLine
 62
7
  6
CONTINUOUS
 10
8.3870636093
 20
6.0882853277
 11
8.3850636093
 21
6.0882853277
  0
LINE
  5
795
100
AcDbEntity
  8
0
100
AcDbLine
 62
7
  6
CONTINUOUS
 10
8.3470636093
 20
6.0882853277
 11
8.3450636093
 21
6.0882853277
  0
LINE
  5
796
100
AcDbEntity
  8
0
100
AcDbLine
 62
7
  6
CONTINUOUS
 10
8.3070636093
 20
6.0882853277
 11
8.3050636093
 21
6.0882853277
  0
LINE
  5
797
100
AcDbEntity
  8
0
100
AcDbLine
 62
7
  6
CONTINUOUS
 10
8.2670636093
 20
6.0882853277
 11
8.2650636093
 21
6.0882853277
  0
LINE
  5
798
100
AcDbEntity
  8
0
100
AcDbLine
 62
7
  6
CONTINUOUS
 10
8.2270636093
 20
6.0882853277
 11
8.2250636093
 21
6.0882853277
  0
LINE
  5
799
100
AcDbEntity
  8
0
100
AcDbLine
 62
7
  6
CONTINUOUS
 10
8.1870636093
 20
6.0882853277
 11
8.1850636093
 21
6.0882853277
  0
LINE
  5
79A
100
AcDbEntity
  8
0
100
AcDbLine
 62
7
  6
CONTINUOUS
 10
8.1470636093
 20
6.0882853277
 11
8.1450636093
 21
6.0882853277
  0
LINE
  5
79B
100
AcDbEntity
  8
0
100
AcDbLine
 62
7
  6
CONTINUOUS
 10
8.1070636093
 20
6.0882853277
 11
8.1050636093
 21
6.0882853277
  0
LINE
  5
79C
100
AcDbEntity
  8
0
100
AcDbLine
 62
7
  6
CONTINUOUS
 10
8.0670636093
 20
6.0882853277
 11
8.0650636093
 21
6.0882853277
  0
LINE
  5
79D
100
AcDbEntity
  8
0
100
AcDbLine
 62
7
  6
CONTINUOUS
 10
8.0270636093
 20
6.0882853277
 11
8.0250636093
 21
6.0882853277
  0
LINE
  5
79E
100
AcDbEntity
  8
0
100
AcDbLine
 62
7
  6
CONTINUOUS
 10
9.0370636093
 20
6.2982853277
 11
9.0520636093
 21
6.2982853277
  0
LINE
  5
79F
100
AcDbEntity
  8
0
100
AcDbLine
 62
7
  6
CONTINUOUS
 10
9.1320636093
 20
6.3252853277
 11
9.0520636093
 21
6.3252853277
  0
LINE
  5
7A0
100
AcDbEntity
  8
AXIS_COSMETIC_THREADS
100
AcDbLine
 62
7
  6
CONTINUOUS
 10
9.0520636093
 20
6.3252853277
 11
9.1320636093
 21
6.3252853277
  0
LINE
  5
7A1
100
AcDbEntity
  8
0
100
AcDbLine
 62
7
  6
CONTINUOUS
 10
9.0370636093
 20
6.3262853277
 11
8.6570636093
 21
6.3262853277
  0
LINE
  5
7A2
100
AcDbEntity
  8
AXIS
100
AcDbLine
 62
7
  6
CONTINUOUS
 10
12.5835923363
 20
4.0642459576
 11
12.3505923363
 21
4.0642459576
  0
LINE
  5
7A3
100
AcDbEntity
  8
0
100
AcDbLine
 62
7
  6
CONTINUOUS
 10
12.2059598498
 20
4.7092853277
 11
12.7282248229
 21
4.7092853277
  0
LINE
  5
7A4
100
AcDbEntity
  8
0
100
AcDbLine
 62
7
  6
CONTINUOUS
 10
12.1770923363
 20
4.7592853277
 11
12.7570923363
 21
4.7592853277
  0
LINE
  5
7A5
100
AcDbEntity
  8
0
100
AcDbLine
 62
7
  6
CONTINUOUS
 10
12.2059598498
 20
4.7092853277
 11
12.1770923363
 21
4.7592853277
  0
LINE
  5
7A6
100
AcDbEntity
  8
0
100
AcDbLine
 62
7
  6
CONTINUOUS
 10
12.1720923363
 20
4.8092853277
 11
12.7620923363
 21
4.8092853277
  0
LINE
  5
7A7
100
AcDbEntity
  8
0
100
AcDbLine
 62
7
  6
CONTINUOUS
 10
12.1720923363
 20
4.8092853277
 11
12.1720923363
 21
5.1874041706
  0
LINE
  5
7A8
100
AcDbEntity
  8
0
100
AcDbLine
 62
7
  6
CONTINUOUS
 10
12.1770923363
 20
4.8092853277
 11
12.1770923363
 21
4.7592853277
  0
LINE
  5
7A9
100
AcDbEntity
  8
0
100
AcDbLine
 62
7
  6
CONTINUOUS
 10
12.2101876848
 20
5.1976057212
 11
12.2101876848
 21
5.2009336613
  0
LINE
  5
7AA
100
AcDbEntity
  8
AXIS
100
AcDbLine
 62
7
  6
CONTINUOUS
 10
12.3505923363
 20
4.7092853277
 11
12.3505923363
 21
4.0642459576
  0
LINE
  5
7AB
100
AcDbEntity
  8
AXIS_COSMETIC_THREADS
100
AcDbLine
 62
7
  6
CONTINUOUS
 10
12.3505923363
 20
4.7092853277
 11
12.3505923363
 21
4.0642459576
  0
LINE
  5
7AC
100
AcDbEntity
  8
0
100
AcDbLine
 62
7
  6
CONTINUOUS
 10
12.3750923363
 20
5.8892853277
 11
12.3750923363
 21
5.7642853277
  0
LWPOLYLINE
  5
7AD
100
AcDbEntity
  8
0
100
AcDbPolyline
 62
9
  6
CONTINUOUS
 90
7
 70
0
 10
12.2101876848
 20
5.2009336613
 10
12.2006165793
 20
5.1955851731
 10
12.1914323461
 20
5.1916697574
 10
12.1834219881
 20
5.1892372152
 10
12.1772506809
 20
5.1880001399
 10
12.1733936089
 20
5.1875160862
 10
12.1720923363
 20
5.1874041706
  0
LWPOLYLINE
  5
7AE
100
AcDbEntity
  8
0
100
AcDbPolyline
 62
9
  6
CONTINUOUS
 90
82
 70
0
 10
12.4670923363
 20
5.1442853277
 10
12.4820222585
 20
5.1446410947
 10
12.4972951721
 20
5.1457278588
 10
12.5128984651
 20
5.1475752064
 10
12.528826231
 20
5.1502150276
 10
12.5450771285
 20
5.15368248
 10
12.5616470016
 20
5.1580151147
 10
12.5785351134
 20
5.1632542428
 10
12.5957634228
 20
5.169453073
 10
12.6133488821
 20
5.1766701099
 10
12.6313329167
 20
5.1849818409
 10
12.649891062
 20
5.1945477998
 10
12.6687773723
 20
5.2053139393
 10
12.6876896645
 20
5.2171317211
 10
12.7063631359
 20
5.2298034998
 10
12.7245595746
 20
5.2430835289
 10
12.7420856747
 20
5.2567010466
 10
12.7588598461
 20
5.2704579746
 10
12.7751405925
 20
5.2845239185
 10
12.7910375933
 20
5.2990018832
 10
12.8064979351
 20
5.3138582225
 10
12.8214956774
 20
5.3290804972
 10
12.8360283882
 20
5.3446801239
 10
12.8500912367
 20
5.3606694605
 10
12.8636735713
 20
5.3770575671
 10
12.87675398
 20
5.3938424129
 10
12.8893103936
 20
5.4110213309
 10
12.9013217135
 20
5.4285934029
 10
12.9127647798
 20
5.4465553813
 10
12.9236146992
 20
5.4649015656
 10
12.9338453124
 20
5.4836239806
 10
12.9434296578
 20
5.5027127299
 10
12.9523399355
 20
5.5221555069
 10
12.9605434989
 20
5.5419267597
 10
12.968007213
 20
5.5619928613
 10
12.9747106951
 20
5.5823506199
 10
12.980632908
 20
5.6030024201
 10
12.9857458635
 20
5.6239347777
 10
12.9900005291
 20
5.6450236484
 10
12.9933569926
 20
5.6660853157
 10
12.9958173581
 20
5.6870913239
 10
12.997392994
 20
5.7081728744
 10
12.9980674048
 20
5.7293607246
 10
12.9978391427
 20
5.7506771489
 10
12.996743028
 20
5.7721164379
 10
12.9947719834
 20
5.7935742186
 10
12.9919330376
 20
5.8149280228
 10
12.9882357759
 20
5.8361210458
 10
12.983682255
 20
5.8571505242
 10
12.9782800535
 20
5.8779798569
 10
12.972038488
 20
5.8985728316
 10
12.964968114
 20
5.918894943
 10
12.957080426
 20
5.9389134586
 10
12.9483881411
 20
5.9585961575
 10
12.9389055045
 20
5.9779107252
 10
12.928648163
 20
5.9968252653
 10
12.9176329588
 20
6.0153087208
 10
12.9058779783
 20
6.0333307429
 10
12.893402523
 20
6.0508617399
 10
12.8802270773
 20
6.0678729261
 10
12.8663732752
 20
6.0843363695
 10
12.8518638642
 20
6.1002250376
 10
12.8367226684
 20
6.1155128418
 10
12.8209745494
 20
6.1301746799
 10
12.8046453652
 20
6.1441864775
 10
12.7877619279
 20
6.1575252277
 10
12.7703519597
 20
6.1701690286
 10
12.7524440473
 20
6.1820971195
 10
12.7340675952
 20
6.1932899148
 10
12.7152527769
 20
6.2037290363
 10
12.696030486
 20
6.2133973432
 10
12.676432285
 20
6.2222789605
 10
12.6564903536
 20
6.2303593048
 10
12.6362374359
 20
6.2376251085
 10
12.6157067868
 20
6.2440644414
 10
12.5949321171
 20
6.2496667302
 10
12.5739475381
 20
6.2544227764
 10
12.5527875061
 20
6.2583247702
 10
12.5314867653
 20
6.2613663057
 10
12.5100802908
 20
6.2635423866
 10
12.4886032318
 20
6.264849445
 10
12.4670923363
 20
6.2652853277
  0
LINE
  5
7AF
100
AcDbEntity
  8
0
100
AcDbLine
 62
7
  6
CONTINUOUS
 10
12.5600923363
 20
5.7642853277
 11
12.5600923363
 21
5.8892853277
  0
LWPOLYLINE
  5
7B0
100
AcDbEntity
  8
0
100
AcDbPolyline
 62
9
  6
CONTINUOUS
 90
6
 70
0
 10
12.7620923363
 20
5.1874041706
 10
12.7607909354
 20
5.1875160907
 10
12.7569335794
 20
5.1880001663
 10
12.7507620028
 20
5.1892372779
 10
12.7427515628
 20
5.1916698324
 10
12.7335675547
 20
5.1955852078
  0
LINE
  5
7B1
100
AcDbEntity
  8
AXIS
100
AcDbLine
 62
7
  6
CONTINUOUS
 10
12.5835923363
 20
4.7092853277
 11
12.5835923363
 21
4.0642459576
  0
LINE
  5
7B2
100
AcDbEntity
  8
AXIS_COSMETIC_THREADS
100
AcDbLine
 62
7
  6
CONTINUOUS
 10
12.5835923363
 20
4.7092853277
 11
12.5835923363
 21
4.0642459576
  0
LINE
  5
7B3
100
AcDbEntity
  8
0
100
AcDbLine
 62
9
  6
CONTINUOUS
 10
12.7335675547
 20
5.1955852078
 11
12.7239969879
 21
5.2009336613
  0
LINE
  5
7B4
100
AcDbEntity
  8
0
100
AcDbLine
 62
7
  6
CONTINUOUS
 10
12.7239969879
 20
5.1976057212
 11
12.7239969879
 21
5.2009336613
  0
LINE
  5
7B5
100
AcDbEntity
  8
0
100
AcDbLine
 62
7
  6
CONTINUOUS
 10
12.7570923363
 20
4.8092853277
 11
12.7570923363
 21
4.7592853277
  0
LINE
  5
7B6
100
AcDbEntity
  8
0
100
AcDbLine
 62
7
  6
CONTINUOUS
 10
12.7620923363
 20
4.8092853277
 11
12.7620923363
 21
5.1874041706
  0
LINE
  5
7B7
100
AcDbEntity
  8
0
100
AcDbLine
 62
7
  6
CONTINUOUS
 10
12.7570923363
 20
4.7592853277
 11
12.7282248229
 21
4.7092853277
  0
LINE
  5
7B8
100
AcDbEntity
  8
0
100
AcDbLine
 62
7
  6
CONTINUOUS
 10
12.4050923363
 20
5.7342853277
 11
12.5300923363
 21
5.7342853277
  0
LINE
  5
7B9
100
AcDbEntity
  8
AXIS
100
AcDbLine
 62
7
  6
CONTINUOUS
 10
12.0793953763
 20
5.7622853277
 11
12.1747892964
 21
5.7622853277
  0
LINE
  5
7BA
100
AcDbEntity
  8
AXIS
100
AcDbLine
 62
7
  6
CONTINUOUS
 10
12.1747892964
 20
5.7922853277
 11
12.0793953763
 21
5.7922853277
  0
LINE
  5
7BB
100
AcDbEntity
  8
0
100
AcDbLine
 62
7
  6
CONTINUOUS
 10
12.2569138408
 20
5.7992853277
 11
12.2647597068
 21
5.7992853277
  0
LINE
  5
7BC
100
AcDbEntity
  8
0
100
AcDbLine
 62
7
  6
CONTINUOUS
 10
12.2518977224
 20
5.8392853277
 11
12.2422676732
 21
5.8392853277
  0
LINE
  5
7BD
100
AcDbEntity
  8
0
100
AcDbLine
 62
7
  6
CONTINUOUS
 10
12.5300923363
 20
5.9192853277
 11
12.4050923363
 21
5.9192853277
  0
LWPOLYLINE
  5
7BE
100
AcDbEntity
  8
0
100
AcDbPolyline
 62
9
  6
CONTINUOUS
 90
82
 70
0
 10
12.4670923363
 20
6.2652853277
 10
12.4455813434
 20
6.2648494399
 10
12.4241056663
 20
6.2635424922
 10
12.4027005631
 20
6.2613666303
 10
12.3814011759
 20
6.2583254264
 10
12.3602424732
 20
6.2544238734
 10
12.3392591925
 20
6.2496683768
 10
12.3184857833
 20
6.244066744
 10
12.2979563508
 20
6.2376281715
 10
12.2777045992
 20
6.2303632299
 10
12.2577637773
 20
6.2222838465
 10
12.2381666229
 20
6.2134032858
 10
12.2189453101
 20
6.2037361274
 10
12.2001313956
 20
6.1932982427
 10
12.1817557674
 20
6.182106768
 10
12.1638485939
 20
6.1701800772
 10
12.1464392744
 20
6.157537751
 10
12.1295563908
 20
6.1442005451
 10
12.1132276609
 20
6.1301903561
 10
12.0974798926
 20
6.1155301852
 10
12.0823389398
 20
6.1002441012
 10
12.0678296605
 20
6.0843571999
 10
12.0539758754
 20
6.0678955639
 10
12.0408003294
 20
6.0508862197
 10
12.0283246536
 20
6.0333570927
 10
12.0165693295
 20
6.0153369605
 10
12.0055536559
 20
5.9968554068
 10
11.9952957185
 20
5.9779427745
 10
11.9858123611
 20
5.9586301191
 10
11.9771191509
 20
5.9389491436
 10
11.9692303426
 20
5.9189321125
 10
11.9621589089
 20
5.8986119351
 10
11.9559164842
 20
5.8780220598
 10
11.9505133216
 20
5.8571963584
 10
11.945958237
 20
5.8361688421
 10
11.9422586607
 20
5.8149736968
 10
11.9394217106
 20
5.7936546016
 10
11.9374539103
 20
5.7722871389
 10
11.9363531206
 20
5.7509251858
 10
11.9361147835
 20
5.7296190409
 10
11.9367797623
 20
5.7083970053
 10
11.9383530029
 20
5.6872405665
 10
11.9408224229
 20
5.6661233727
 10
11.9441857824
 20
5.6450145673
 10
11.9484350784
 20
5.6239515062
 10
11.9535415104
 20
5.6030410379
 10
11.9594645912
 20
5.5823810912
 10
11.9661707941
 20
5.562011872
 10
11.9736356606
 20
5.5419407725
 10
11.9818369173
 20
5.5221734185
 10
11.9907455213
 20
5.5027325013
 10
12.000328514
 20
5.4836446703
 10
12.0105578036
 20
5.4649229587
 10
12.021406308
 20
5.4465774999
 10
12.0328479375
 20
5.4286161547
 10
12.0448578898
 20
5.4110445072
 10
12.0574128947
 20
5.393865986
 10
12.0704915032
 20
5.3770819449
 10
12.0840725964
 20
5.3606938618
 10
12.0981354331
 20
5.3447031537
 10
12.1126671801
 20
5.3291032619
 10
12.1276615785
 20
5.3138830671
 10
12.1431150734
 20
5.299031815
 10
12.1590085523
 20
5.2845554484
 10
12.1752973934
 20
5.2704809919
 10
12.1920596147
 20
5.2567328063
 10
12.2095796101
 20
5.2431177182
 10
12.2277852451
 20
5.2298291321
 10
12.2464747075
 20
5.2171449404
 10
12.2654029033
 20
5.2053165779
 10
12.2842995058
 20
5.1945446032
 10
12.3028657394
 20
5.1849750171
 10
12.3208476155
 20
5.176664958
 10
12.3384320164
 20
5.169448933
 10
12.355658582
 20
5.1632512247
 10
12.3725454106
 20
5.1580129055
 10
12.3891147246
 20
5.1536807775
 10
12.405364099
 20
5.1502139552
 10
12.42129068
 20
5.1475745725
 10
12.4368933385
 20
5.1457274861
 10
12.4521648638
 20
5.1446409977
 10
12.4670923363
 20
5.1442853277
  0
LINE
  5
7BF
100
AcDbEntity
  8
0
100
AcDbLine
 62
7
  6
CONTINUOUS
 10
4.751173491
 20
8.0004899339
 11
4.756175154
 21
8.0015613629
  0
LWPOLYLINE
  5
7C0
100
AcDbEntity
  8
0
100
AcDbPolyline
 62
7
  6
CONTINUOUS
 90
19
 70
0
 10
4.7561278547
 20
7.9994572929
 10
4.7511221117
 20
7.9984844318
 10
4.7361064302
 20
7.9974074568
 10
4.711556996
 20
7.9963304885
 10
4.6781761973
 20
7.9952535649
 10
4.6369162813
 20
7.9941766443
 10
4.5889549725
 20
7.9930997222
 10
4.5356607042
 20
7.9920227844
 10
4.4785556774
 20
7.9909458478
 10
4.4192681293
 20
7.9898688758
 10
4.3594917167
 20
7.9887918884
 10
4.3009349073
 20
7.9877149186
 10
4.2452698006
 20
7.9866379741
 10
4.1940838785
 20
7.9855610228
 10
4.1488389789
 20
7.9844840757
 10
4.110826403
 20
7.9834071222
 10
4.081131357
 20
7.9823301552
 10
4.0606018348
 20
7.9812531657
 10
4.0498247148
 20
7.9801761807
  0
LINE
  5
7C1
100
AcDbEntity
  8
0
100
AcDbLine
 62
7
  6
CONTINUOUS
 10
4.0482224533
 20
7.9794572929
 11
4.0553995925
 21
7.9715613629
  0
LINE
  5
7C2
100
AcDbEntity
  8
0
100
AcDbLine
 62
7
  6
CONTINUOUS
 10
4.0482224533
 20
8.0194572929
 11
4.0632245453
 21
8.0029526889
  0
LINE
  5
7C3
100
AcDbEntity
  8
0
100
AcDbLine
 62
7
  6
CONTINUOUS
 10
3.810175154
 20
9.0015613629
 11
3.810175154
 21
8.6215613629
  0
LINE
  5
7C4
100
AcDbEntity
  8
AXIS_COSMETIC_THREADS
100
AcDbLine
 62
7
  6
CONTINUOUS
 10
3.811175154
 20
9.0165613629
 11
3.811175154
 21
9.0965597389
  0
LINE
  5
7C5
100
AcDbEntity
  8
0
100
AcDbLine
 62
7
  6
CONTINUOUS
 10
3.838175154
 20
9.0015613629
 11
3.838175154
 21
9.0165613629
  0
LINE
  5
7C6
100
AcDbEntity
  8
0
100
AcDbLine
 62
7
  6
CONTINUOUS
 10
4.756175154
 20
8.0415613629
 11
4.7518709371
 21
8.0405676027
  0
LINE
  5
7C7
100
AcDbEntity
  8
0
100
AcDbLine
 62
7
  6
CONTINUOUS
 10
4.7361392548
 20
8.0219626787
 11
4.7411257627
 21
8.0229526889
  0
LWPOLYLINE
  5
7C8
100
AcDbEntity
  8
0
100
AcDbPolyline
 62
7
  6
CONTINUOUS
 90
7
 70
0
 10
4.5793021675
 20
7.9715613629
 10
4.6254583405
 20
7.9726388277
 10
4.6652338622
 20
7.9737162924
 10
4.6974920876
 20
7.9747937572
 10
4.7213111895
 20
7.975871222
 10
4.7360105015
 20
7.9769486868
 10
4.741175154
 20
7.9780613629
  0
LWPOLYLINE
  5
7C9
100
AcDbEntity
  8
0
100
AcDbPolyline
 62
7
  6
CONTINUOUS
 90
12
 70
0
 10
4.3230371757
 20
7.9715613629
 10
4.379420895
 20
7.9726337313
 10
4.4364487292
 20
7.9737060997
 10
4.4925063661
 20
7.9747784681
 10
4.5460069575
 20
7.9758508366
 10
4.5954360382
 20
7.976923205
 10
4.6393943976
 20
7.9779955734
 10
4.6766376868
 20
7.9790679418
 10
4.7061116436
 20
7.9801403102
 10
4.7269819356
 20
7.9812126787
 10
4.7386577782
 20
7.9822850471
 10
4.7411257627
 20
7.9829526889
  0
LINE
  5
7CA
100
AcDbEntity
  8
0
100
AcDbLine
 62
7
  6
CONTINUOUS
 10
4.7471269753
 20
7.9715613629
 11
4.055403243
 21
7.9715613629
  0
LINE
  5
7CB
100
AcDbEntity
  8
0
100
AcDbLine
 62
7
  6
CONTINUOUS
 10
4.0482224533
 20
8.0594572929
 11
4.0632245453
 21
8.0429526889
  0
LINE
  5
7CC
100
AcDbEntity
  8
0
100
AcDbLine
 62
7
  6
CONTINUOUS
 10
4.0482224533
 20
8.0994572929
 11
4.0632245453
 21
8.0829526889
  0
LINE
  5
7CD
100
AcDbEntity
  8
0
100
AcDbLine
 62
7
  6
CONTINUOUS
 10
4.048175154
 20
7.9795613559
 11
4.0482224533
 21
7.9794572929
  0
LINE
  5
7CE
100
AcDbEntity
  8
0
100
AcDbLine
 62
7
  6
CONTINUOUS
 10
4.756175154
 20
8.0815613629
 11
4.7513874795
 21
8.0805131572
  0
LINE
  5
7CF
100
AcDbEntity
  8
0
100
AcDbLine
 62
7
  6
CONTINUOUS
 10
4.756175154
 20
8.1215613629
 11
4.7513475599
 21
8.1205087864
  0
LWPOLYLINE
  5
7D0
100
AcDbEntity
  8
0
100
AcDbPolyline
 62
7
  6
CONTINUOUS
 90
3
 70
0
 10
4.73356638
 20
8.1017100115
 10
4.7408697036
 20
8.1027910926
 10
4.7411257627
 20
8.1029526889
  0
LWPOLYLINE
  5
7D1
100
AcDbEntity
  8
0
100
AcDbPolyline
 62
7
  6
CONTINUOUS
 90
20
 70
0
 10
4.0639721312
 20
7.9984979826
 10
4.0727176416
 20
7.9995754474
 10
4.0908778935
 20
8.0006529122
 10
4.1179339307
 20
8.001730377
 10
4.1531125863
 20
8.0028078417
 10
4.1954085776
 20
8.0038853065
 10
4.2436132333
 20
8.0049627713
 10
4.2963490332
 20
8.0060402361
 10
4.352108973
 20
8.0071177009
 10
4.4092996289
 20
8.0081951657
 10
4.4662866922
 20
8.0092726305
 10
4.5214416723
 20
8.0103500953
 10
4.5731884331
 20
8.01142756
 10
4.6200482335
 20
8.0125050248
 10
4.6606819846
 20
8.0135824896
 10
4.6939285159
 20
8.0146599544
 10
4.7188377583
 20
8.0157374192
 10
4.7346978927
 20
8.016814884
 10
4.741055692
 20
8.0178923488
 10
4.741175154
 20
8.0180613629
  0
LWPOLYLINE
  5
7D2
100
AcDbEntity
  8
0
100
AcDbPolyline
 62
7
  6
CONTINUOUS
 90
18
 70
0
 10
4.0503971224
 20
7.9822750204
 10
4.0620016391
 20
7.9833465065
 10
4.0832198064
 20
7.984417993
 10
4.113451097
 20
7.9854894523
 10
4.151841899
 20
7.9865609189
 10
4.1973080157
 20
7.9876324056
 10
4.2485634623
 20
7.9887038837
 10
4.3041583459
 20
7.9897753297
 10
4.3625243516
 20
7.9908467989
 10
4.4220118688
 20
7.9919182856
 10
4.4809378343
 20
7.9929897548
 10
4.5376363081
 20
7.9940611919
 10
4.5905084607
 20
7.995132663
 10
4.6380587876
 20
7.9962041463
 10
4.6789418414
 20
7.9972756008
 10
4.7120026159
 20
7.9983470166
 10
4.7363091805
 20
7.9994184691
 10
4.751173491
 20
8.0004899339
  0
LWPOLYLINE
  5
7D3
100
AcDbEntity
  8
0
100
AcDbPolyline
 62
7
  6
CONTINUOUS
 90
9
 70
0
 10
4.7518709371
 20
8.0405676027
 10
4.7390726645
 20
8.0395744111
 10
4.7179747696
 20
8.0385765822
 10
4.689200791
 20
8.0375807897
 10
4.6532004504
 20
8.0365794329
 10
4.6104442253
 20
8.0355656562
 10
4.5624322406
 20
8.0345521717
 10
4.5110600938
 20
8.0335517769
 10
4.4572781314
 20
8.0325563593
  0
LWPOLYLINE
  5
7D4
100
AcDbEntity
  8
0
100
AcDbPolyline
 62
7
  6
CONTINUOUS
 90
19
 70
0
 10
4.052962069
 20
8.0206094852
 10
4.0674206788
 20
8.0216702136
 10
4.0910950993
 20
8.0227288286
 10
4.1228499211
 20
8.0237727823
 10
4.1623985753
 20
8.0248240587
 10
4.2089206296
 20
8.0258849926
 10
4.2605472866
 20
8.0269410184
 10
4.3153004357
 20
8.0279829191
 10
4.3730722126
 20
8.0290373956
 10
4.432036773
 20
8.0300990215
 10
4.4897801046
 20
8.0311533568
 10
4.5445237791
 20
8.0321958572
 10
4.5961277884
 20
8.0332527291
 10
4.6425828088
 20
8.034314111
 10
4.6820297575
 20
8.0353654644
 10
4.7135403783
 20
8.0364046592
 10
4.7370182978
 20
8.0374574205
 10
4.7513998114
 20
8.0385145111
 10
4.7561278547
 20
8.0394572929
  0
LWPOLYLINE
  5
7D5
100
AcDbEntity
  8
0
100
AcDbPolyline
 62
7
  6
CONTINUOUS
 90
19
 70
0
 10
4.7513874795
 20
8.0805131572
 10
4.7369274392
 20
8.079452391
 10
4.7132530756
 20
8.0783938168
 10
4.6814979624
 20
8.0773498724
 10
4.6419538028
 20
8.0762987176
 10
4.5954504967
 20
8.07523818
 10
4.5438605586
 20
8.0741828364
 10
4.4891342826
 20
8.0731413726
 10
4.4313624654
 20
8.0720868526
 10
4.3723972291
 20
8.0710252147
 10
4.3146523962
 20
8.0699708945
 10
4.2599037382
 20
8.068928385
 10
4.2082908407
 20
8.0678714653
 10
4.1618273161
 20
8.0668100801
 10
4.1223713631
 20
8.0657587532
 10
4.0908395589
 20
8.0647191863
 10
4.0673403431
 20
8.063665767
 10
4.0529513068
 20
8.0626083036
 10
4.0482224533
 20
8.0616654329
  0
LWPOLYLINE
  5
7D6
100
AcDbEntity
  8
0
100
AcDbPolyline
 62
7
  6
CONTINUOUS
 90
11
 70
0
 10
4.3450736828
 20
8.0469838981
 10
4.4594664321
 20
8.0491424439
 10
4.5151095444
 20
8.050223525
 10
4.56750374
 20
8.0513046061
 10
4.6151417331
 20
8.0523856872
 10
4.6566530655
 20
8.0534667683
 10
4.6908435317
 20
8.0545478494
 10
4.7167295343
 20
8.0556289304
 10
4.73356638
 20
8.0567100115
 10
4.7408697036
 20
8.0577910926
 10
4.741175154
 20
8.0580613629
  0
LWPOLYLINE
  5
7D7
100
AcDbEntity
  8
0
100
AcDbPolyline
 62
7
  6
CONTINUOUS
 90
11
 70
0
 10
4.3453412051
 20
8.0519889944
 10
4.4594664321
 20
8.0541424439
 10
4.5151095444
 20
8.055223525
 10
4.56750374
 20
8.0563046061
 10
4.6151417331
 20
8.0573856872
 10
4.6566530655
 20
8.0584667683
 10
4.6908435317
 20
8.0595478494
 10
4.7167295343
 20
8.0606289304
 10
4.73356638
 20
8.0617100115
 10
4.7408697036
 20
8.0627910926
 10
4.7411257627
 20
8.0629526889
  0
LWPOLYLINE
  5
7D8
100
AcDbEntity
  8
0
100
AcDbPolyline
 62
7
  6
CONTINUOUS
 90
11
 70
0
 10
4.4572781314
 20
8.0325563593
 10
4.3470648342
 20
8.0305662328
 10
4.2932644918
 20
8.0295704627
 10
4.2419012969
 20
8.0285702158
 10
4.1938894194
 20
8.027556699
 10
4.1511368526
 20
8.0265429611
 10
4.1151359278
 20
8.0255415185
 10
4.0863712479
 20
8.0245459728
 10
4.0652798992
 20
8.0235484467
 10
4.052480344
 20
8.0225552356
 10
4.0482224533
 20
8.0216654329
  0
LINE
  5
7D9
100
AcDbEntity
  8
0
100
AcDbLine
 62
7
  6
CONTINUOUS
 10
4.0482224533
 20
8.1394572929
 11
4.0632245453
 21
8.1229526889
  0
LINE
  5
7DA
100
AcDbEntity
  8
0
100
AcDbLine
 62
7
  6
CONTINUOUS
 10
4.0482224533
 20
8.1794572929
 11
4.0632245453
 21
8.1629526889
  0
LINE
  5
7DB
100
AcDbEntity
  8
0
100
AcDbLine
 62
7
  6
CONTINUOUS
 10
4.0482224533
 20
7.9816654329
 11
4.0503971224
 21
7.9822750204
  0
LINE
  5
7DC
100
AcDbEntity
  8
0
100
AcDbLine
 62
7
  6
CONTINUOUS
 10
4.756175154
 20
8.1615613629
 11
4.7513998114
 21
8.1605145111
  0
LINE
  5
7DD
100
AcDbEntity
  8
0
100
AcDbLine
 62
7
  6
CONTINUOUS
 10
4.048175154
 20
8.0195613629
 11
4.052962069
 21
8.0206094852
  0
LWPOLYLINE
  5
7DE
100
AcDbEntity
  8
0
100
AcDbPolyline
 62
7
  6
CONTINUOUS
 90
3
 70
0
 10
4.73356638
 20
8.1417100115
 10
4.7408697036
 20
8.1427910926
 10
4.7411257627
 20
8.1429526889
  0
LWPOLYLINE
  5
7DF
100
AcDbEntity
  8
0
100
AcDbPolyline
 62
7
  6
CONTINUOUS
 90
9
 70
0
 10
4.052480344
 20
8.0605552356
 10
4.0652798992
 20
8.0615484467
 10
4.0863712479
 20
8.0625459728
 10
4.1151359278
 20
8.0635415185
 10
4.1511368526
 20
8.0645429611
 10
4.1938894194
 20
8.065556699
 10
4.2419012969
 20
8.0665702158
 10
4.2932644918
 20
8.0675704627
 10
4.3470648342
 20
8.0685662328
  0
LWPOLYLINE
  5
7E0
100
AcDbEntity
  8
0
100
AcDbPolyline
 62
7
  6
CONTINUOUS
 90
19
 70
0
 10
4.7513475599
 20
8.1205087864
 10
4.73676821
 20
8.1194436046
 10
4.7129055913
 20
8.1183807485
 10
4.6809277613
 20
8.1173332087
 10
4.6415337164
 20
8.1162884561
 10
4.5957812245
 20
8.1152452817
 10
4.5446136303
 20
8.1141976221
 10
4.4897611134
 20
8.1131530043
 10
4.4317723946
 20
8.1120942502
 10
4.3725639591
 20
8.1110282237
 10
4.3145786972
 20
8.1099695266
 10
4.2597305488
 20
8.1089249832
 10
4.2085757655
 20
8.1078775875
 10
4.1628243714
 20
8.1068344595
 10
4.1234228118
 20
8.1057895248
 10
4.0914435475
 20
8.1047419333
 10
4.0675803509
 20
8.1036790249
 10
4.0530020973
 20
8.1026138682
 10
4.0482224533
 20
8.1016654329
  0
LWPOLYLINE
  5
7E1
100
AcDbEntity
  8
0
100
AcDbPolyline
 62
7
  6
CONTINUOUS
 90
11
 70
0
 10
4.3448838759
 20
8.0869802818
 10
4.4594664321
 20
8.0891424439
 10
4.5151095444
 20
8.090223525
 10
4.56750374
 20
8.0913046061
 10
4.6151417331
 20
8.0923856872
 10
4.6566530655
 20
8.0934667683
 10
4.6908435317
 20
8.0945478494
 10
4.7167295343
 20
8.0956289304
 10
4.73356638
 20
8.0967100115
 10
4.7408697036
 20
8.0977910926
 10
4.741175154
 20
8.0980613629
  0
LWPOLYLINE
  5
7E2
100
AcDbEntity
  8
0
100
AcDbPolyline
 62
7
  6
CONTINUOUS
 90
9
 70
0
 10
4.3448838759
 20
8.0919802818
 10
4.4594664321
 20
8.0941424439
 10
4.5151095444
 20
8.095223525
 10
4.56750374
 20
8.0963046061
 10
4.6151417331
 20
8.0973856872
 10
4.6566530655
 20
8.0984667683
 10
4.6908435317
 20
8.0995478494
 10
4.7167295343
 20
8.1006289304
 10
4.73356638
 20
8.1017100115
  0
LWPOLYLINE
  5
7E3
100
AcDbEntity
  8
0
100
AcDbPolyline
 62
7
  6
CONTINUOUS
 90
11
 70
0
 10
4.3470648342
 20
8.0685662328
 10
4.4572781314
 20
8.0705563593
 10
4.5110600938
 20
8.0715517769
 10
4.5624322406
 20
8.0725521717
 10
4.6104442253
 20
8.0735656562
 10
4.6532004504
 20
8.0745794329
 10
4.689200791
 20
8.0755807897
 10
4.7179747696
 20
8.0765765822
 10
4.7390726645
 20
8.0775744111
 10
4.7518709371
 20
8.0785676027
 10
4.7561278547
 20
8.0794572929
  0
LINE
  5
7E4
100
AcDbEntity
  8
0
100
AcDbLine
 62
7
  6
CONTINUOUS
 10
4.0482224533
 20
8.2194572929
 11
4.0632245453
 21
8.2029526889
  0
LINE
  5
7E5
100
AcDbEntity
  8
0
100
AcDbLine
 62
7
  6
CONTINUOUS
 10
4.0482224533
 20
8.2594572929
 11
4.0632245453
 21
8.2429526889
  0
LINE
  5
7E6
100
AcDbEntity
  8
0
100
AcDbLine
 62
7
  6
CONTINUOUS
 10
4.0482224533
 20
8.2994572929
 11
4.0632245453
 21
8.2829526889
  0
LINE
  5
7E7
100
AcDbEntity
  8
0
100
AcDbLine
 62
7
  6
CONTINUOUS
 10
4.756175154
 20
8.2015613629
 11
4.7518709371
 21
8.2005676027
  0
LINE
  5
7E8
100
AcDbEntity
  8
0
100
AcDbLine
 62
7
  6
CONTINUOUS
 10
4.048175154
 20
8.0595613629
 11
4.052480344
 21
8.0605552356
  0
LINE
  5
7E9
100
AcDbEntity
  8
0
100
AcDbLine
 62
7
  6
CONTINUOUS
 10
4.756175154
 20
8.2415613629
 11
4.7513874795
 21
8.2405131572
  0
LWPOLYLINE
  5
7EA
100
AcDbEntity
  8
0
100
AcDbPolyline
 62
7
  6
CONTINUOUS
 90
9
 70
0
 10
4.0634806045
 20
8.0783316331
 10
4.070783928
 20
8.0794127142
 10
4.0876207738
 20
8.0804937953
 10
4.1135067763
 20
8.0815748764
 10
4.1476972425
 20
8.0826559575
 10
4.1892085749
 20
8.0837370385
 10
4.2368465681
 20
8.0848181196
 10
4.2892407636
 20
8.0858992007
 10
4.3448838759
 20
8.0869802818
  0
LWPOLYLINE
  5
7EB
100
AcDbEntity
  8
0
100
AcDbPolyline
 62
7
  6
CONTINUOUS
 90
3
 70
0
 10
4.73356638
 20
8.1817100115
 10
4.7408697036
 20
8.1827910926
 10
4.7411257627
 20
8.1829526889
  0
LWPOLYLINE
  5
7EC
100
AcDbEntity
  8
0
100
AcDbPolyline
 62
7
  6
CONTINUOUS
 90
9
 70
0
 10
4.0634806045
 20
8.1183316331
 10
4.070783928
 20
8.1194127142
 10
4.0876207738
 20
8.1204937953
 10
4.1135067763
 20
8.1215748764
 10
4.1476972425
 20
8.1226559575
 10
4.1892085749
 20
8.1237370385
 10
4.2368465681
 20
8.1248181196
 10
4.2892407636
 20
8.1258992007
 10
4.3448838759
 20
8.1269802818
  0
LWPOLYLINE
  5
7ED
100
AcDbEntity
  8
0
100
AcDbPolyline
 62
7
  6
CONTINUOUS
 90
9
 70
0
 10
4.7518709371
 20
8.2005676027
 10
4.7390726645
 20
8.1995744111
 10
4.7179747696
 20
8.1985765822
 10
4.689200791
 20
8.1975807897
 10
4.6532004504
 20
8.1965794329
 10
4.6104442253
 20
8.1955656562
 10
4.5624322406
 20
8.1945521717
 10
4.5110600938
 20
8.1935517769
 10
4.4572781314
 20
8.1925563593
  0
LWPOLYLINE
  5
7EE
100
AcDbEntity
  8
0
100
AcDbPolyline
 62
7
  6
CONTINUOUS
 90
19
 70
0
 10
4.0529513068
 20
8.1006083036
 10
4.0673403431
 20
8.101665767
 10
4.0908395589
 20
8.1027191863
 10
4.1223713631
 20
8.1037587532
 10
4.1618273161
 20
8.1048100801
 10
4.2082908407
 20
8.1058714653
 10
4.2599037382
 20
8.106928385
 10
4.3146523962
 20
8.1079708945
 10
4.3723972291
 20
8.1090252147
 10
4.4313624654
 20
8.1100868526
 10
4.4891342826
 20
8.1111413726
 10
4.5438605586
 20
8.1121828364
 10
4.5954504967
 20
8.11323818
 10
4.6419538028
 20
8.1142987176
 10
4.6814979624
 20
8.1153498724
 10
4.7132530756
 20
8.1163938168
 10
4.7369274392
 20
8.117452391
 10
4.7513874795
 20
8.1185131572
 10
4.7561278547
 20
8.1194572929
  0
LWPOLYLINE
  5
7EF
100
AcDbEntity
  8
0
100
AcDbPolyline
 62
7
  6
CONTINUOUS
 90
19
 70
0
 10
4.7513998114
 20
8.1605145111
 10
4.7370182978
 20
8.1594574205
 10
4.7135403783
 20
8.1584046592
 10
4.6820297575
 20
8.1573654644
 10
4.6425828088
 20
8.156314111
 10
4.5961277884
 20
8.1552527291
 10
4.5445237791
 20
8.1541958572
 10
4.4897801046
 20
8.1531533568
 10
4.432036773
 20
8.1520990215
 10
4.3730722126
 20
8.1510373956
 10
4.3153004357
 20
8.1499829191
 10
4.2605472866
 20
8.1489410184
 10
4.2089206296
 20
8.1478849926
 10
4.1623985753
 20
8.1468240587
 10
4.1228499211
 20
8.1457727823
 10
4.0910950993
 20
8.1447288286
 10
4.0674206788
 20
8.1436702136
 10
4.052962069
 20
8.1426094852
 10
4.0482224533
 20
8.1416654329
  0
LWPOLYLINE
  5
7F0
100
AcDbEntity
  8
0
100
AcDbPolyline
 62
7
  6
CONTINUOUS
 90
19
 70
0
 10
4.0530020973
 20
8.1406138682
 10
4.0675803509
 20
8.1416790249
 10
4.0914435475
 20
8.1427419333
 10
4.1234228118
 20
8.1437895248
 10
4.1628243714
 20
8.1448344595
 10
4.2085757655
 20
8.1458775875
 10
4.2597305488
 20
8.1469249832
 10
4.3145786972
 20
8.1479695266
 10
4.3725639591
 20
8.1490282237
 10
4.4317723946
 20
8.1500942502
 10
4.4897611134
 20
8.1511530043
 10
4.5446136303
 20
8.1521976221
 10
4.5957812245
 20
8.1532452817
 10
4.6415337164
 20
8.1542884561
 10
4.6809277613
 20
8.1553332087
 10
4.7129055913
 20
8.1563807485
 10
4.73676821
 20
8.1574436046
 10
4.7513475599
 20
8.1585087864
 10
4.7561278547
 20
8.1594572929
  0
LWPOLYLINE
  5
7F1
100
AcDbEntity
  8
0
100
AcDbPolyline
 62
7
  6
CONTINUOUS
 90
11
 70
0
 10
4.3448838759
 20
8.1269802818
 10
4.4594664321
 20
8.1291424439
 10
4.5151095444
 20
8.130223525
 10
4.56750374
 20
8.1313046061
 10
4.6151417331
 20
8.1323856872
 10
4.6566530655
 20
8.1334667683
 10
4.6908435317
 20
8.1345478494
 10
4.7167295343
 20
8.1356289304
 10
4.73356638
 20
8.1367100115
 10
4.7408697036
 20
8.1377910926
 10
4.741175154
 20
8.1380613629
  0
LWPOLYLINE
  5
7F2
100
AcDbEntity
  8
0
100
AcDbPolyline
 62
7
  6
CONTINUOUS
 90
9
 70
0
 10
4.3448838759
 20
8.1319802818
 10
4.4594664321
 20
8.1341424439
 10
4.5151095444
 20
8.135223525
 10
4.56750374
 20
8.1363046061
 10
4.6151417331
 20
8.1373856872
 10
4.6566530655
 20
8.1384667683
 10
4.6908435317
 20
8.1395478494
 10
4.7167295343
 20
8.1406289304
 10
4.73356638
 20
8.1417100115
  0
LWPOLYLINE
  5
7F3
100
AcDbEntity
  8
0
100
AcDbPolyline
 62
7
  6
CONTINUOUS
 90
11
 70
0
 10
4.3448838759
 20
8.1669802818
 10
4.4594664321
 20
8.1691424439
 10
4.5151095444
 20
8.170223525
 10
4.56750374
 20
8.1713046061
 10
4.6151417331
 20
8.1723856872
 10
4.6566530655
 20
8.1734667683
 10
4.6908435317
 20
8.1745478494
 10
4.7167295343
 20
8.1756289304
 10
4.73356638
 20
8.1767100115
 10
4.7408697036
 20
8.1777910926
 10
4.741175154
 20
8.1780613629
  0
LWPOLYLINE
  5
7F4
100
AcDbEntity
  8
0
100
AcDbPolyline
 62
7
  6
CONTINUOUS
 90
9
 70
0
 10
4.3448838759
 20
8.1719802818
 10
4.4594664321
 20
8.1741424439
 10
4.5151095444
 20
8.175223525
 10
4.56750374
 20
8.1763046061
 10
4.6151417331
 20
8.1773856872
 10
4.6566530655
 20
8.1784667683
 10
4.6908435317
 20
8.1795478494
 10
4.7167295343
 20
8.1806289304
 10
4.73356638
 20
8.1817100115
  0
LINE
  5
7F5
100
AcDbEntity
  8
0
100
AcDbLine
 62
7
  6
CONTINUOUS
 10
4.0482224533
 20
8.3394572929
 11
4.0632245453
 21
8.3229526889
  0
LINE
  5
7F6
100
AcDbEntity
  8
0
100
AcDbLine
 62
7
  6
CONTINUOUS
 10
4.0482224533
 20
8.3794572929
 11
4.0632245453
 21
8.3629526889
  0
LINE
  5
7F7
100
AcDbEntity
  8
0
100
AcDbLine
 62
7
  6
CONTINUOUS
 10
4.048175154
 20
8.5015613629
 11
4.048175154
 21
8.4995613629
  0
LINE
  5
7F8
100
AcDbEntity
  8
0
100
AcDbLine
 62
7
  6
CONTINUOUS
 10
4.048175154
 20
8.4615613629
 11
4.048175154
 21
8.4595613629
  0
LINE
  5
7F9
100
AcDbEntity
  8
0
100
AcDbLine
 62
7
  6
CONTINUOUS
 10
4.048175154
 20
8.4215613629
 11
4.048175154
 21
8.4195613629
  0
LINE
  5
7FA
100
AcDbEntity
  8
0
100
AcDbLine
 62
7
  6
CONTINUOUS
 10
4.048175154
 20
8.3815613629
 11
4.048175154
 21
8.3795613629
  0
LINE
  5
7FB
100
AcDbEntity
  8
0
100
AcDbLine
 62
7
  6
CONTINUOUS
 10
4.048175154
 20
8.3415613629
 11
4.048175154
 21
8.3395613629
  0
LINE
  5
7FC
100
AcDbEntity
  8
0
100
AcDbLine
 62
7
  6
CONTINUOUS
 10
4.048175154
 20
8.3015613629
 11
4.048175154
 21
8.2995613629
  0
LINE
  5
7FD
100
AcDbEntity
  8
0
100
AcDbLine
 62
7
  6
CONTINUOUS
 10
4.048175154
 20
8.2615613629
 11
4.048175154
 21
8.2595613629
  0
LINE
  5
7FE
100
AcDbEntity
  8
0
100
AcDbLine
 62
7
  6
CONTINUOUS
 10
4.048175154
 20
8.2215613629
 11
4.048175154
 21
8.2195613629
  0
LINE
  5
7FF
100
AcDbEntity
  8
0
100
AcDbLine
 62
7
  6
CONTINUOUS
 10
4.048175154
 20
8.1815613629
 11
4.048175154
 21
8.1795613629
  0
LINE
  5
800
100
AcDbEntity
  8
0
100
AcDbLine
 62
7
  6
CONTINUOUS
 10
4.048175154
 20
8.1415613629
 11
4.048175154
 21
8.1395613629
  0
LINE
  5
801
100
AcDbEntity
  8
0
100
AcDbLine
 62
7
  6
CONTINUOUS
 10
4.048175154
 20
8.1015613629
 11
4.048175154
 21
8.0995613629
  0
LINE
  5
802
100
AcDbEntity
  8
0
100
AcDbLine
 62
7
  6
CONTINUOUS
 10
4.048175154
 20
8.0615613629
 11
4.048175154
 21
8.0595613629
  0
LINE
  5
803
100
AcDbEntity
  8
0
100
AcDbLine
 62
7
  6
CONTINUOUS
 10
4.048175154
 20
8.0215613629
 11
4.048175154
 21
8.0195613629
  0
LINE
  5
804
100
AcDbEntity
  8
0
100
AcDbLine
 62
7
  6
CONTINUOUS
 10
4.048175154
 20
7.9815613629
 11
4.048175154
 21
7.9795613629
  0
LINE
  5
805
100
AcDbEntity
  8
0
100
AcDbLine
 62
7
  6
CONTINUOUS
 10
4.063175154
 20
8.4830613629
 11
4.063175154
 21
8.4780613629
  0
LINE
  5
806
100
AcDbEntity
  8
0
100
AcDbLine
 62
7
  6
CONTINUOUS
 10
4.063175154
 20
8.4430613629
 11
4.063175154
 21
8.4380613629
  0
LINE
  5
807
100
AcDbEntity
  8
0
100
AcDbLine
 62
7
  6
CONTINUOUS
 10
4.063175154
 20
8.4030613629
 11
4.063175154
 21
8.3980613629
  0
LINE
  5
808
100
AcDbEntity
  8
0
100
AcDbLine
 62
7
  6
CONTINUOUS
 10
4.063175154
 20
8.3630613629
 11
4.063175154
 21
8.3580613629
  0
LINE
  5
809
100
AcDbEntity
  8
0
100
AcDbLine
 62
7
  6
CONTINUOUS
 10
4.063175154
 20
8.3230613629
 11
4.063175154
 21
8.3180613629
  0
LINE
  5
80A
100
AcDbEntity
  8
0
100
AcDbLine
 62
7
  6
CONTINUOUS
 10
4.063175154
 20
8.2830613629
 11
4.063175154
 21
8.2780613629
  0
LINE
  5
80B
100
AcDbEntity
  8
0
100
AcDbLine
 62
7
  6
CONTINUOUS
 10
4.063175154
 20
8.2430613629
 11
4.063175154
 21
8.2380613629
  0
LINE
  5
80C
100
AcDbEntity
  8
0
100
AcDbLine
 62
7
  6
CONTINUOUS
 10
4.063175154
 20
8.2030613629
 11
4.063175154
 21
8.1980613629
  0
LINE
  5
80D
100
AcDbEntity
  8
0
100
AcDbLine
 62
7
  6
CONTINUOUS
 10
4.063175154
 20
8.1630613629
 11
4.063175154
 21
8.1580613629
  0
LINE
  5
80E
100
AcDbEntity
  8
0
100
AcDbLine
 62
7
  6
CONTINUOUS
 10
4.063175154
 20
8.1230613629
 11
4.063175154
 21
8.1180613629
  0
LINE
  5
80F
100
AcDbEntity
  8
0
100
AcDbLine
 62
7
  6
CONTINUOUS
 10
4.063175154
 20
8.0830613629
 11
4.063175154
 21
8.0780613629
  0
LINE
  5
810
100
AcDbEntity
  8
0
100
AcDbLine
 62
7
  6
CONTINUOUS
 10
4.063175154
 20
8.0430613629
 11
4.063175154
 21
8.0380613629
  0
LINE
  5
811
100
AcDbEntity
  8
0
100
AcDbLine
 62
7
  6
CONTINUOUS
 10
4.063175154
 20
8.0030613629
 11
4.063175154
 21
7.9980613629
  0
LINE
  5
812
100
AcDbEntity
  8
0
100
AcDbLine
 62
7
  6
CONTINUOUS
 10
4.063425154
 20
8.5490613629
 11
4.063425154
 21
8.5115613629
  0
LINE
  5
813
100
AcDbEntity
  8
0
100
AcDbLine
 62
7
  6
CONTINUOUS
 10
4.048175154
 20
8.0995613629
 11
4.0529513068
 21
8.1006083036
  0
LINE
  5
814
100
AcDbEntity
  8
0
100
AcDbLine
 62
7
  6
CONTINUOUS
 10
4.756175154
 20
8.2815613629
 11
4.7513475599
 21
8.2805087864
  0
LINE
  5
815
100
AcDbEntity
  8
0
100
AcDbLine
 62
7
  6
CONTINUOUS
 10
4.048175154
 20
8.1395613629
 11
4.0530020973
 21
8.1406138682
  0
LWPOLYLINE
  5
816
100
AcDbEntity
  8
0
100
AcDbPolyline
 62
7
  6
CONTINUOUS
 90
9
 70
0
 10
4.0634806045
 20
8.1583316331
 10
4.070783928
 20
8.1594127142
 10
4.0876207738
 20
8.1604937953
 10
4.1135067763
 20
8.1615748764
 10
4.1476972425
 20
8.1626559575
 10
4.1892085749
 20
8.1637370385
 10
4.2368465681
 20
8.1648181196
 10
4.2892407636
 20
8.1658992007
 10
4.3448838759
 20
8.1669802818
  0
LWPOLYLINE
  5
817
100
AcDbEntity
  8
0
100
AcDbPolyline
 62
7
  6
CONTINUOUS
 90
3
 70
0
 10
4.73356638
 20
8.2617100115
 10
4.7408697036
 20
8.2627910926
 10
4.7411257627
 20
8.2629526889
  0
LWPOLYLINE
  5
818
100
AcDbEntity
  8
0
100
AcDbPolyline
 62
7
  6
CONTINUOUS
 90
19
 70
0
 10
4.052962069
 20
8.1806094852
 10
4.0674206788
 20
8.1816702136
 10
4.0910950993
 20
8.1827288286
 10
4.1228499211
 20
8.1837727823
 10
4.1623985753
 20
8.1848240587
 10
4.2089206296
 20
8.1858849926
 10
4.2605472866
 20
8.1869410184
 10
4.3153004357
 20
8.1879829191
 10
4.3730722126
 20
8.1890373956
 10
4.432036773
 20
8.1900990215
 10
4.4897801046
 20
8.1911533568
 10
4.5445237791
 20
8.1921958572
 10
4.5961277884
 20
8.1932527291
 10
4.6425828088
 20
8.194314111
 10
4.6820297575
 20
8.1953654644
 10
4.7135403783
 20
8.1964046592
 10
4.7370182978
 20
8.1974574205
 10
4.7513998114
 20
8.1985145111
 10
4.7561278547
 20
8.1994572929
  0
LWPOLYLINE
  5
819
100
AcDbEntity
  8
0
100
AcDbPolyline
 62
7
  6
CONTINUOUS
 90
19
 70
0
 10
4.7513874795
 20
8.2405131572
 10
4.7369274392
 20
8.239452391
 10
4.7132530756
 20
8.2383938168
 10
4.6814979624
 20
8.2373498724
 10
4.6419538028
 20
8.2362987176
 10
4.5954504967
 20
8.23523818
 10
4.5438605586
 20
8.2341828364
 10
4.4891342826
 20
8.2331413726
 10
4.4313624654
 20
8.2320868526
 10
4.3723972291
 20
8.2310252147
 10
4.3146523962
 20
8.2299708945
 10
4.2599037382
 20
8.228928385
 10
4.2082908407
 20
8.2278714653
 10
4.1618273161
 20
8.2268100801
 10
4.1223713631
 20
8.2257587532
 10
4.0908395589
 20
8.2247191863
 10
4.0673403431
 20
8.223665767
 10
4.0529513068
 20
8.2226083036
 10
4.0482224533
 20
8.2216654329
  0
LWPOLYLINE
  5
81A
100
AcDbEntity
  8
0
100
AcDbPolyline
 62
7
  6
CONTINUOUS
 90
11
 70
0
 10
4.3448838759
 20
8.2069802818
 10
4.4594664321
 20
8.2091424439
 10
4.5151095444
 20
8.210223525
 10
4.56750374
 20
8.2113046061
 10
4.6151417331
 20
8.2123856872
 10
4.6566530655
 20
8.2134667683
 10
4.6908435317
 20
8.2145478494
 10
4.7167295343
 20
8.2156289304
 10
4.73356638
 20
8.2167100115
 10
4.7408697036
 20
8.2177910926
 10
4.741175154
 20
8.2180613629
  0
LWPOLYLINE
  5
81B
100
AcDbEntity
  8
0
100
AcDbPolyline
 62
7
  6
CONTINUOUS
 90
11
 70
0
 10
4.3448838759
 20
8.2119802818
 10
4.4594664321
 20
8.2141424439
 10
4.5151095444
 20
8.215223525
 10
4.56750374
 20
8.2163046061
 10
4.6151417331
 20
8.2173856872
 10
4.6566530655
 20
8.2184667683
 10
4.6908435317
 20
8.2195478494
 10
4.7167295343
 20
8.2206289304
 10
4.73356638
 20
8.2217100115
 10
4.7408697036
 20
8.2227910926
 10
4.7411257627
 20
8.2229526889
  0
LWPOLYLINE
  5
81C
100
AcDbEntity
  8
0
100
AcDbPolyline
 62
7
  6
CONTINUOUS
 90
11
 70
0
 10
4.4572781314
 20
8.1925563593
 10
4.3470648342
 20
8.1905662328
 10
4.2932644918
 20
8.1895704627
 10
4.2419012969
 20
8.1885702158
 10
4.1938894194
 20
8.187556699
 10
4.1511368526
 20
8.1865429611
 10
4.1151359278
 20
8.1855415185
 10
4.0863712479
 20
8.1845459728
 10
4.0652798992
 20
8.1835484467
 10
4.052480344
 20
8.1825552356
 10
4.0482224533
 20
8.1816654329
  0
LWPOLYLINE
  5
81D
100
AcDbEntity
  8
0
100
AcDbPolyline
 62
7
  6
CONTINUOUS
 90
11
 70
0
 10
4.3470648342
 20
8.2285662328
 10
4.4572781314
 20
8.2305563593
 10
4.5110600938
 20
8.2315517769
 10
4.5624322406
 20
8.2325521717
 10
4.6104442253
 20
8.2335656562
 10
4.6532004504
 20
8.2345794329
 10
4.689200791
 20
8.2355807897
 10
4.7179747696
 20
8.2365765822
 10
4.7390726645
 20
8.2375744111
 10
4.7518709371
 20
8.2385676027
 10
4.7561278547
 20
8.2394572929
  0
LINE
  5
81E
100
AcDbEntity
  8
0
100
AcDbLine
 62
7
  6
CONTINUOUS
 10
4.0482224533
 20
8.4194572929
 11
4.0632245453
 21
8.4029526889
  0
LINE
  5
81F
100
AcDbEntity
  8
0
100
AcDbLine
 62
7
  6
CONTINUOUS
 10
4.0482224533
 20
8.4594572929
 11
4.0632245453
 21
8.4429526889
  0
LINE
  5
820
100
AcDbEntity
  8
0
100
AcDbLine
 62
7
  6
CONTINUOUS
 10
4.048175154
 20
8.4995613692
 11
4.0482224533
 21
8.4994572929
  0
LINE
  5
821
100
AcDbEntity
  8
0
100
AcDbLine
 62
7
  6
CONTINUOUS
 10
4.0482224533
 20
8.4616654329
 11
4.048175154
 21
8.4615613629
  0
LINE
  5
822
100
AcDbEntity
  8
0
100
AcDbLine
 62
7
  6
CONTINUOUS
 10
4.048175154
 20
8.5015613704
 11
4.0482224533
 21
8.5016654329
  0
LINE
  5
823
100
AcDbEntity
  8
0
100
AcDbLine
 62
7
  6
CONTINUOUS
 10
4.756175154
 20
8.3615613629
 11
4.7518709371
 21
8.3605676027
  0
LINE
  5
824
100
AcDbEntity
  8
0
100
AcDbLine
 62
7
  6
CONTINUOUS
 10
4.756175154
 20
8.3215613629
 11
4.7513998114
 21
8.3205145111
  0
LINE
  5
825
100
AcDbEntity
  8
0
100
AcDbLine
 62
7
  6
CONTINUOUS
 10
4.048175154
 20
8.1795613629
 11
4.052962069
 21
8.1806094852
  0
LWPOLYLINE
  5
826
100
AcDbEntity
  8
0
100
AcDbPolyline
 62
7
  6
CONTINUOUS
 90
3
 70
0
 10
4.73356638
 20
8.3017100115
 10
4.7408697036
 20
8.3027910926
 10
4.7411257627
 20
8.3029526889
  0
LWPOLYLINE
  5
827
100
AcDbEntity
  8
0
100
AcDbPolyline
 62
7
  6
CONTINUOUS
 90
9
 70
0
 10
4.0634806045
 20
8.2383316331
 10
4.070783928
 20
8.2394127142
 10
4.0876207738
 20
8.2404937953
 10
4.1135067763
 20
8.2415748764
 10
4.1476972425
 20
8.2426559575
 10
4.1892085749
 20
8.2437370385
 10
4.2368465681
 20
8.2448181196
 10
4.2892407636
 20
8.2458992007
 10
4.3448838759
 20
8.2469802818
  0
LWPOLYLINE
  5
828
100
AcDbEntity
  8
0
100
AcDbPolyline
 62
7
  6
CONTINUOUS
 90
9
 70
0
 10
4.052480344
 20
8.2205552356
 10
4.0652798992
 20
8.2215484467
 10
4.0863712479
 20
8.2225459728
 10
4.1151359278
 20
8.2235415185
 10
4.1511368526
 20
8.2245429611
 10
4.1938894194
 20
8.225556699
 10
4.2419012969
 20
8.2265702158
 10
4.2932644918
 20
8.2275704627
 10
4.3470648342
 20
8.2285662328
  0
LWPOLYLINE
  5
829
100
AcDbEntity
  8
0
100
AcDbPolyline
 62
7
  6
CONTINUOUS
 90
19
 70
0
 10
4.0529513068
 20
8.2606083036
 10
4.0673403431
 20
8.261665767
 10
4.0908395589
 20
8.2627191863
 10
4.1223713631
 20
8.2637587532
 10
4.1618273161
 20
8.2648100801
 10
4.2082908407
 20
8.2658714653
 10
4.2599037382
 20
8.266928385
 10
4.3146523962
 20
8.2679708945
 10
4.3723972291
 20
8.2690252147
 10
4.4313624654
 20
8.2700868526
 10
4.4891342826
 20
8.2711413726
 10
4.5438605586
 20
8.2721828364
 10
4.5954504967
 20
8.27323818
 10
4.6419538028
 20
8.2742987176
 10
4.6814979624
 20
8.2753498724
 10
4.7132530756
 20
8.2763938168
 10
4.7369274392
 20
8.277452391
 10
4.7513874795
 20
8.2785131572
 10
4.7561278547
 20
8.2794572929
  0
LWPOLYLINE
  5
82A
100
AcDbEntity
  8
0
100
AcDbPolyline
 62
7
  6
CONTINUOUS
 90
19
 70
0
 10
4.7513475599
 20
8.2805087864
 10
4.73676821
 20
8.2794436046
 10
4.7129055913
 20
8.2783807485
 10
4.6809277613
 20
8.2773332087
 10
4.6415337164
 20
8.2762884561
 10
4.5957812245
 20
8.2752452817
 10
4.5446136303
 20
8.2741976221
 10
4.4897611134
 20
8.2731530043
 10
4.4317723946
 20
8.2720942502
 10
4.3725639591
 20
8.2710282237
 10
4.3145786972
 20
8.2699695266
 10
4.2597305488
 20
8.2689249832
 10
4.2085757655
 20
8.2678775875
 10
4.1628243714
 20
8.2668344595
 10
4.1234228118
 20
8.2657895248
 10
4.0914435475
 20
8.2647419333
 10
4.0675803509
 20
8.2636790249
 10
4.0530020973
 20
8.2626138682
 10
4.0482224533
 20
8.2616654329
  0
LWPOLYLINE
  5
82B
100
AcDbEntity
  8
0
100
AcDbPolyline
 62
7
  6
CONTINUOUS
 90
11
 70
0
 10
4.3448838759
 20
8.2469802818
 10
4.4594664321
 20
8.2491424439
 10
4.5151095444
 20
8.250223525
 10
4.56750374
 20
8.2513046061
 10
4.6151417331
 20
8.2523856872
 10
4.6566530655
 20
8.2534667683
 10
4.6908435317
 20
8.2545478494
 10
4.7167295343
 20
8.2556289304
 10
4.73356638
 20
8.2567100115
 10
4.7408697036
 20
8.2577910926
 10
4.741175154
 20
8.2580613629
  0
LWPOLYLINE
  5
82C
100
AcDbEntity
  8
0
100
AcDbPolyline
 62
7
  6
CONTINUOUS
 90
9
 70
0
 10
4.3448838759
 20
8.2519802818
 10
4.4594664321
 20
8.2541424439
 10
4.5151095444
 20
8.255223525
 10
4.56750374
 20
8.2563046061
 10
4.6151417331
 20
8.2573856872
 10
4.6566530655
 20
8.2584667683
 10
4.6908435317
 20
8.2595478494
 10
4.7167295343
 20
8.2606289304
 10
4.73356638
 20
8.2617100115
  0
LWPOLYLINE
  5
82D
100
AcDbEntity
  8
0
100
AcDbPolyline
 62
7
  6
CONTINUOUS
 90
11
 70
0
 10
4.3448838759
 20
8.2869802818
 10
4.4594664321
 20
8.2891424439
 10
4.5151095444
 20
8.290223525
 10
4.56750374
 20
8.2913046061
 10
4.6151417331
 20
8.2923856872
 10
4.6566530655
 20
8.2934667683
 10
4.6908435317
 20
8.2945478494
 10
4.7167295343
 20
8.2956289304
 10
4.73356638
 20
8.2967100115
 10
4.7408697036
 20
8.2977910926
 10
4.741175154
 20
8.2980613629
  0
LINE
  5
82E
100
AcDbEntity
  8
0
100
AcDbLine
 62
7
  6
CONTINUOUS
 10
4.0482224533
 20
8.4994572929
 11
4.0632245453
 21
8.4829526889
  0
LINE
  5
82F
100
AcDbEntity
  8
0
100
AcDbLine
 62
7
  6
CONTINUOUS
 10
4.0482224533
 20
8.4216654329
 11
4.048175154
 21
8.4215613629
  0
LINE
  5
830
100
AcDbEntity
  8
0
100
AcDbLine
 62
7
  6
CONTINUOUS
 10
4.0482224533
 20
8.3816654329
 11
4.048175154
 21
8.3815613629
  0
LINE
  5
831
100
AcDbEntity
  8
0
100
AcDbLine
 62
7
  6
CONTINUOUS
 10
4.0482224533
 20
8.3416654329
 11
4.048175154
 21
8.3415613629
  0
LINE
  5
832
100
AcDbEntity
  8
0
100
AcDbLine
 62
7
  6
CONTINUOUS
 10
4.0572175199
 20
8.5115613629
 11
4.0482224533
 21
8.5016654329
  0
LINE
  5
833
100
AcDbEntity
  8
0
100
AcDbLine
 62
7
  6
CONTINUOUS
 10
4.048175154
 20
8.2195613629
 11
4.052480344
 21
8.2205552356
  0
LINE
  5
834
100
AcDbEntity
  8
0
100
AcDbLine
 62
7
  6
CONTINUOUS
 10
4.048175154
 20
8.2595613629
 11
4.0529513068
 21
8.2606083036
  0
LINE
  5
835
100
AcDbEntity
  8
0
100
AcDbLine
 62
7
  6
CONTINUOUS
 10
4.756175154
 20
8.4015613629
 11
4.7513874795
 21
8.4005131572
  0
LWPOLYLINE
  5
836
100
AcDbEntity
  8
0
100
AcDbPolyline
 62
7
  6
CONTINUOUS
 90
3
 70
0
 10
4.73356638
 20
8.3417100115
 10
4.7408697036
 20
8.3427910926
 10
4.7411257627
 20
8.3429526889
  0
LWPOLYLINE
  5
837
100
AcDbEntity
  8
0
100
AcDbPolyline
 62
7
  6
CONTINUOUS
 90
9
 70
0
 10
4.0634806045
 20
8.2783316331
 10
4.070783928
 20
8.2794127142
 10
4.0876207738
 20
8.2804937953
 10
4.1135067763
 20
8.2815748764
 10
4.1476972425
 20
8.2826559575
 10
4.1892085749
 20
8.2837370385
 10
4.2368465681
 20
8.2848181196
 10
4.2892407636
 20
8.2858992007
 10
4.3448838759
 20
8.2869802818
  0
LWPOLYLINE
  5
838
100
AcDbEntity
  8
0
100
AcDbPolyline
 62
7
  6
CONTINUOUS
 90
9
 70
0
 10
4.7518709371
 20
8.3605676027
 10
4.7390726645
 20
8.3595744111
 10
4.7179747696
 20
8.3585765822
 10
4.689200791
 20
8.3575807897
 10
4.6532004504
 20
8.3565794329
 10
4.6104442253
 20
8.3555656562
 10
4.5624322406
 20
8.3545521717
 10
4.5110600938
 20
8.3535517769
 10
4.4572781314
 20
8.3525563593
  0
LWPOLYLINE
  5
839
100
AcDbEntity
  8
0
100
AcDbPolyline
 62
7
  6
CONTINUOUS
 90
19
 70
0
 10
4.7513998114
 20
8.3205145111
 10
4.7370182978
 20
8.3194574205
 10
4.7135403783
 20
8.3184046592
 10
4.6820297575
 20
8.3173654644
 10
4.6425828088
 20
8.316314111
 10
4.5961277884
 20
8.3152527291
 10
4.5445237791
 20
8.3141958572
 10
4.4897801046
 20
8.3131533568
 10
4.432036773
 20
8.3120990215
 10
4.3730722126
 20
8.3110373956
 10
4.3153004357
 20
8.3099829191
 10
4.2605472866
 20
8.3089410184
 10
4.2089206296
 20
8.3078849926
 10
4.1623985753
 20
8.3068240587
 10
4.1228499211
 20
8.3057727823
 10
4.0910950993
 20
8.3047288286
 10
4.0674206788
 20
8.3036702136
 10
4.052962069
 20
8.3026094852
 10
4.0482224533
 20
8.3016654329
  0
LWPOLYLINE
  5
83A
100
AcDbEntity
  8
0
100
AcDbPolyline
 62
7
  6
CONTINUOUS
 90
19
 70
0
 10
4.0530020973
 20
8.3006138682
 10
4.0675803509
 20
8.3016790249
 10
4.0914435475
 20
8.3027419333
 10
4.1234228118
 20
8.3037895248
 10
4.1628243714
 20
8.3048344595
 10
4.2085757655
 20
8.3058775875
 10
4.2597305488
 20
8.3069249832
 10
4.3145786972
 20
8.3079695266
 10
4.3725639591
 20
8.3090282237
 10
4.4317723946
 20
8.3100942502
 10
4.4897611134
 20
8.3111530043
 10
4.5446136303
 20
8.3121976221
 10
4.5957812245
 20
8.3132452817
 10
4.6415337164
 20
8.3142884561
 10
4.6809277613
 20
8.3153332087
 10
4.7129055913
 20
8.3163807485
 10
4.73676821
 20
8.3174436046
 10
4.7513475599
 20
8.3185087864
 10
4.7561278547
 20
8.3194572929
  0
LWPOLYLINE
  5
83B
100
AcDbEntity
  8
0
100
AcDbPolyline
 62
7
  6
CONTINUOUS
 90
9
 70
0
 10
4.3448838759
 20
8.2919802818
 10
4.4594664321
 20
8.2941424439
 10
4.5151095444
 20
8.295223525
 10
4.56750374
 20
8.2963046061
 10
4.6151417331
 20
8.2973856872
 10
4.6566530655
 20
8.2984667683
 10
4.6908435317
 20
8.2995478494
 10
4.7167295343
 20
8.3006289304
 10
4.73356638
 20
8.3017100115
  0
LWPOLYLINE
  5
83C
100
AcDbEntity
  8
0
100
AcDbPolyline
 62
7
  6
CONTINUOUS
 90
11
 70
0
 10
4.3448838759
 20
8.3269802818
 10
4.4594664321
 20
8.3291424439
 10
4.5151095444
 20
8.330223525
 10
4.56750374
 20
8.3313046061
 10
4.6151417331
 20
8.3323856872
 10
4.6566530655
 20
8.3334667683
 10
4.6908435317
 20
8.3345478494
 10
4.7167295343
 20
8.3356289304
 10
4.73356638
 20
8.3367100115
 10
4.7408697036
 20
8.3377910926
 10
4.741175154
 20
8.3380613629
  0
LWPOLYLINE
  5
83D
100
AcDbEntity
  8
0
100
AcDbPolyline
 62
7
  6
CONTINUOUS
 90
9
 70
0
 10
4.3448838759
 20
8.3319802818
 10
4.4594664321
 20
8.3341424439
 10
4.5151095444
 20
8.335223525
 10
4.56750374
 20
8.3363046061
 10
4.6151417331
 20
8.3373856872
 10
4.6566530655
 20
8.3384667683
 10
4.6908435317
 20
8.3395478494
 10
4.7167295343
 20
8.3406289304
 10
4.73356638
 20
8.3417100115
  0
LINE
  5
83E
100
AcDbEntity
  8
0
100
AcDbLine
 62
7
  6
CONTINUOUS
 10
4.0482224533
 20
8.3016654329
 11
4.048175154
 21
8.3015613629
  0
LINE
  5
83F
100
AcDbEntity
  8
0
100
AcDbLine
 62
7
  6
CONTINUOUS
 10
4.0482224533
 20
8.2616654329
 11
4.048175154
 21
8.2615613629
  0
LINE
  5
840
100
AcDbEntity
  8
0
100
AcDbLine
 62
7
  6
CONTINUOUS
 10
4.0482224533
 20
8.2216654329
 11
4.048175154
 21
8.2215613629
  0
LINE
  5
841
100
AcDbEntity
  8
0
100
AcDbLine
 62
7
  6
CONTINUOUS
 10
4.0482224533
 20
8.1816654329
 11
4.048175154
 21
8.1815613629
  0
LINE
  5
842
100
AcDbEntity
  8
0
100
AcDbLine
 62
7
  6
CONTINUOUS
 10
4.0632245453
 20
8.4781700369
 11
4.0482224533
 21
8.4616654329
  0
LINE
  5
843
100
AcDbEntity
  8
0
100
AcDbLine
 62
7
  6
CONTINUOUS
 10
4.0632245453
 20
8.4381700369
 11
4.0482224533
 21
8.4216654329
  0
LINE
  5
844
100
AcDbEntity
  8
0
100
AcDbLine
 62
7
  6
CONTINUOUS
 10
4.0484873512
 20
8.4998287496
 11
4.048175154
 21
8.4995613692
  0
LINE
  5
845
100
AcDbEntity
  8
0
100
AcDbLine
 62
7
  6
CONTINUOUS
 10
4.7378855973
 20
8.462173766
 11
4.7411257627
 21
8.4629526889
  0
LINE
  5
846
100
AcDbEntity
  8
0
100
AcDbLine
 62
7
  6
CONTINUOUS
 10
4.756175154
 20
8.4415613629
 11
4.7513475599
 21
8.4405087864
  0
LINE
  5
847
100
AcDbEntity
  8
0
100
AcDbLine
 62
7
  6
CONTINUOUS
 10
4.048175154
 20
8.2995613629
 11
4.0530020973
 21
8.3006138682
  0
LWPOLYLINE
  5
848
100
AcDbEntity
  8
0
100
AcDbPolyline
 62
7
  6
CONTINUOUS
 90
9
 70
0
 10
4.0634806045
 20
8.3183316331
 10
4.070783928
 20
8.3194127142
 10
4.0876207738
 20
8.3204937953
 10
4.1135067763
 20
8.3215748764
 10
4.1476972425
 20
8.3226559575
 10
4.1892085749
 20
8.3237370385
 10
4.2368465681
 20
8.3248181196
 10
4.2892407636
 20
8.3258992007
 10
4.3448838759
 20
8.3269802818
  0
LWPOLYLINE
  5
849
100
AcDbEntity
  8
0
100
AcDbPolyline
 62
7
  6
CONTINUOUS
 90
19
 70
0
 10
4.052962069
 20
8.3406094852
 10
4.0674206788
 20
8.3416702136
 10
4.0910950993
 20
8.3427288286
 10
4.1228499211
 20
8.3437727823
 10
4.1623985753
 20
8.3448240587
 10
4.2089206296
 20
8.3458849926
 10
4.2605472866
 20
8.3469410184
 10
4.3153004357
 20
8.3479829191
 10
4.3730722126
 20
8.3490373956
 10
4.432036773
 20
8.3500990215
 10
4.4897801046
 20
8.3511533568
 10
4.5445237791
 20
8.3521958572
 10
4.5961277884
 20
8.3532527291
 10
4.6425828088
 20
8.354314111
 10
4.6820297575
 20
8.3553654644
 10
4.7135403783
 20
8.3564046592
 10
4.7370182978
 20
8.3574574205
 10
4.7513998114
 20
8.3585145111
 10
4.7561278547
 20
8.3594572929
  0
LWPOLYLINE
  5
84A
100
AcDbEntity
  8
0
100
AcDbPolyline
 62
7
  6
CONTINUOUS
 90
19
 70
0
 10
4.7513874795
 20
8.4005131572
 10
4.7369274392
 20
8.399452391
 10
4.7132530756
 20
8.3983938168
 10
4.6814979624
 20
8.3973498724
 10
4.6419538028
 20
8.3962987176
 10
4.5954504967
 20
8.39523818
 10
4.5438605586
 20
8.3941828364
 10
4.4891342826
 20
8.3931413726
 10
4.4313624654
 20
8.3920868526
 10
4.3723972291
 20
8.3910252147
 10
4.3146523962
 20
8.3899708945
 10
4.2599037382
 20
8.388928385
 10
4.2082908407
 20
8.3878714653
 10
4.1618273161
 20
8.3868100801
 10
4.1223713631
 20
8.3857587532
 10
4.0908395589
 20
8.3847191863
 10
4.0673403431
 20
8.383665767
 10
4.0529513068
 20
8.3826083036
 10
4.0482224533
 20
8.3816654329
  0
LWPOLYLINE
  5
84B
100
AcDbEntity
  8
0
100
AcDbPolyline
 62
7
  6
CONTINUOUS
 90
11
 70
0
 10
4.3448838759
 20
8.3669802818
 10
4.459354443
 20
8.3691403102
 10
4.5148952593
 20
8.3702192576
 10
4.5672060804
 20
8.371298205
 10
4.6147879395
 20
8.3723771523
 10
4.6562773784
 20
8.3734560997
 10
4.6904855169
 20
8.3745350471
 10
4.7164321207
 20
8.3756139944
 10
4.7333736897
 20
8.3766929418
 10
4.7408247631
 20
8.3777718892
 10
4.741175154
 20
8.3780613629
  0
LWPOLYLINE
  5
84C
100
AcDbEntity
  8
0
100
AcDbPolyline
 62
7
  6
CONTINUOUS
 90
11
 70
0
 10
4.3448838759
 20
8.3719802818
 10
4.4590760341
 20
8.3741350063
 10
4.5143623725
 20
8.3752086497
 10
4.5664654394
 20
8.3762822931
 10
4.6139068295
 20
8.3773559365
 10
4.6553404105
 20
8.3784295799
 10
4.6895905197
 20
8.3795032233
 10
4.7156853228
 20
8.3805768667
 10
4.7328843892
 20
8.3816505102
 10
4.7406997017
 20
8.3827241536
 10
4.7411257627
 20
8.3829526889
  0
LWPOLYLINE
  5
84D
100
AcDbEntity
  8
0
100
AcDbPolyline
 62
7
  6
CONTINUOUS
 90
11
 70
0
 10
4.4572781314
 20
8.3525563593
 10
4.3470648342
 20
8.3505662328
 10
4.2932644918
 20
8.3495704627
 10
4.2419012969
 20
8.3485702158
 10
4.1938894194
 20
8.347556699
 10
4.1511368526
 20
8.3465429611
 10
4.1151359278
 20
8.3455415185
 10
4.0863712479
 20
8.3445459728
 10
4.0652798992
 20
8.3435484467
 10
4.052480344
 20
8.3425552356
 10
4.0482224533
 20
8.3416654329
  0
LWPOLYLINE
  5
84E
100
AcDbEntity
  8
0
100
AcDbPolyline
 62
7
  6
CONTINUOUS
 90
11
 70
0
 10
4.3470648342
 20
8.3885662328
 10
4.4572781314
 20
8.3905563593
 10
4.5110600938
 20
8.3915517769
 10
4.5624322406
 20
8.3925521717
 10
4.6104442253
 20
8.3935656562
 10
4.6532004504
 20
8.3945794329
 10
4.689200791
 20
8.3955807897
 10
4.7179747696
 20
8.3965765822
 10
4.7390726645
 20
8.3975744111
 10
4.7518709371
 20
8.3985676027
 10
4.7561278547
 20
8.3994572929
  0
LINE
  5
84F
100
AcDbEntity
  8
0
100
AcDbLine
 62
7
  6
CONTINUOUS
 10
4.0482224533
 20
8.1416654329
 11
4.048175154
 21
8.1415613629
  0
LINE
  5
850
100
AcDbEntity
  8
0
100
AcDbLine
 62
7
  6
CONTINUOUS
 10
4.0482224533
 20
8.1016654329
 11
4.048175154
 21
8.1015613629
  0
LINE
  5
851
100
AcDbEntity
  8
0
100
AcDbLine
 62
7
  6
CONTINUOUS
 10
4.0482224533
 20
8.0616654329
 11
4.048175154
 21
8.0615613629
  0
LINE
  5
852
100
AcDbEntity
  8
0
100
AcDbLine
 62
7
  6
CONTINUOUS
 10
4.0632245453
 20
8.3981700369
 11
4.0482224533
 21
8.3816654329
  0
LINE
  5
853
100
AcDbEntity
  8
0
100
AcDbLine
 62
7
  6
CONTINUOUS
 10
4.0632245453
 20
8.3581700369
 11
4.0482224533
 21
8.3416654329
  0
LINE
  5
854
100
AcDbEntity
  8
0
100
AcDbLine
 62
7
  6
CONTINUOUS
 10
4.756175154
 20
8.4815613629
 11
4.7513998114
 21
8.4805145111
  0
LINE
  5
855
100
AcDbEntity
  8
0
100
AcDbLine
 62
7
  6
CONTINUOUS
 10
4.048175154
 20
8.3395613629
 11
4.052962069
 21
8.3406094852
  0
LINE
  5
856
100
AcDbEntity
  8
0
100
AcDbLine
 62
7
  6
CONTINUOUS
 10
4.7355361185
 20
8.5018985722
 11
4.7411257627
 21
8.5029526889
  0
LWPOLYLINE
  5
857
100
AcDbEntity
  8
0
100
AcDbPolyline
 62
7
  6
CONTINUOUS
 90
20
 70
0
 10
4.0632245453
 20
8.3981700369
 10
4.0701054074
 20
8.3993508366
 10
4.0863657752
 20
8.4004297839
 10
4.1116756621
 20
8.4015087313
 10
4.1453098132
 20
8.4025876787
 10
4.1863044418
 20
8.403666626
 10
4.2334848466
 20
8.4047455734
 10
4.2854990729
 20
8.4058245208
 10
4.3408566529
 20
8.4069034681
 10
4.3979713148
 20
8.4079824155
 10
4.4552064377
 20
8.4090613629
 10
4.5109219489
 20
8.4101403102
 10
4.5635213203
 20
8.4112192576
 10
4.6114973165
 20
8.412298205
 10
4.6534751852
 20
8.4133771523
 10
4.6882520505
 20
8.4144560997
 10
4.714831381
 20
8.4155350471
 10
4.7324515459
 20
8.4166139944
 10
4.7406076393
 20
8.4176929418
 10
4.741175154
 20
8.4180613629
  0
LWPOLYLINE
  5
858
100
AcDbEntity
  8
0
100
AcDbPolyline
 62
7
  6
CONTINUOUS
 90
9
 70
0
 10
4.052480344
 20
8.3805552356
 10
4.0652798992
 20
8.3815484467
 10
4.0863712479
 20
8.3825459728
 10
4.1151359278
 20
8.3835415185
 10
4.1511368526
 20
8.3845429611
 10
4.1938894194
 20
8.385556699
 10
4.2419012969
 20
8.3865702158
 10
4.2932644918
 20
8.3875704627
 10
4.3470648342
 20
8.3885662328
  0
LWPOLYLINE
  5
859
100
AcDbEntity
  8
0
100
AcDbPolyline
 62
7
  6
CONTINUOUS
 90
19
 70
0
 10
4.0529513068
 20
8.4206083036
 10
4.0673403431
 20
8.421665767
 10
4.0908395589
 20
8.4227191863
 10
4.1223713631
 20
8.4237587532
 10
4.1618273161
 20
8.4248100801
 10
4.2082908407
 20
8.4258714653
 10
4.2599037382
 20
8.426928385
 10
4.3146523962
 20
8.4279708945
 10
4.3723972291
 20
8.4290252147
 10
4.4313624654
 20
8.4300868526
 10
4.4891342826
 20
8.4311413726
 10
4.5438605586
 20
8.4321828364
 10
4.5954504967
 20
8.43323818
 10
4.6419538028
 20
8.4342987176
 10
4.6814979624
 20
8.4353498724
 10
4.7132530756
 20
8.4363938168
 10
4.7369274392
 20
8.437452391
 10
4.7513874795
 20
8.4385131572
 10
4.7561278547
 20
8.4394572929
  0
LWPOLYLINE
  5
85A
100
AcDbEntity
  8
0
100
AcDbPolyline
 62
7
  6
CONTINUOUS
 90
19
 70
0
 10
4.7513998114
 20
8.4805145111
 10
4.7370182978
 20
8.4794574205
 10
4.7135403783
 20
8.4784046592
 10
4.6820297575
 20
8.4773654644
 10
4.6425828088
 20
8.476314111
 10
4.5961277884
 20
8.4752527291
 10
4.5445237791
 20
8.4741958572
 10
4.4897801046
 20
8.4731533568
 10
4.432036773
 20
8.4720990215
 10
4.3730722126
 20
8.4710373956
 10
4.3153004357
 20
8.4699829191
 10
4.2605472866
 20
8.4689410184
 10
4.2089206296
 20
8.4678849926
 10
4.1623985753
 20
8.4668240587
 10
4.1228499211
 20
8.4657727823
 10
4.0910950993
 20
8.4647288286
 10
4.0674206788
 20
8.4636702136
 10
4.052962069
 20
8.4626094852
 10
4.0482224533
 20
8.4616654329
  0
LWPOLYLINE
  5
85B
100
AcDbEntity
  8
0
100
AcDbPolyline
 62
7
  6
CONTINUOUS
 90
19
 70
0
 10
4.7513475599
 20
8.4405087864
 10
4.73676821
 20
8.4394436046
 10
4.7129055913
 20
8.4383807485
 10
4.6809277613
 20
8.4373332087
 10
4.6415337164
 20
8.4362884561
 10
4.5957812245
 20
8.4352452817
 10
4.5446136303
 20
8.4341976221
 10
4.4897611134
 20
8.4331530043
 10
4.4317723946
 20
8.4320942502
 10
4.3725639591
 20
8.4310282237
 10
4.3145786972
 20
8.4299695266
 10
4.2597305488
 20
8.4289249832
 10
4.2085757655
 20
8.4278775875
 10
4.1628243714
 20
8.4268344595
 10
4.1234228118
 20
8.4257895248
 10
4.0914435475
 20
8.4247419333
 10
4.0675803509
 20
8.4236790249
 10
4.0530020973
 20
8.4226138682
 10
4.0482224533
 20
8.4216654329
  0
LINE
  5
85C
100
AcDbEntity
  8
0
100
AcDbLine
 62
7
  6
CONTINUOUS
 10
4.7471327881
 20
7.9715613629
 11
4.7411257627
 21
7.9781700369
  0
LINE
  5
85D
100
AcDbEntity
  8
0
100
AcDbLine
 62
7
  6
CONTINUOUS
 10
4.7561278547
 20
8.0016654329
 11
4.7411257627
 21
8.0181700369
  0
LINE
  5
85E
100
AcDbEntity
  8
0
100
AcDbLine
 62
7
  6
CONTINUOUS
 10
4.0482224533
 20
8.0216654329
 11
4.048175154
 21
8.0215613629
  0
LINE
  5
85F
100
AcDbEntity
  8
0
100
AcDbLine
 62
7
  6
CONTINUOUS
 10
4.048175154
 20
7.981561356
 11
4.0482224533
 21
7.9816654329
  0
LINE
  5
860
100
AcDbEntity
  8
0
100
AcDbLine
 62
7
  6
CONTINUOUS
 10
4.0632245453
 20
8.3181700369
 11
4.0482224533
 21
8.3016654329
  0
LINE
  5
861
100
AcDbEntity
  8
0
100
AcDbLine
 62
7
  6
CONTINUOUS
 10
4.0632245453
 20
8.2781700369
 11
4.0482224533
 21
8.2616654329
  0
LWPOLYLINE
  5
862
100
AcDbEntity
  8
0
100
AcDbPolyline
 62
7
  6
CONTINUOUS
 90
10
 70
0
 10
4.063175154
 20
8.3630613629
 10
4.0634806045
 20
8.3633316331
 10
4.070783928
 20
8.3644127142
 10
4.0876207738
 20
8.3654937953
 10
4.1135067763
 20
8.3665748764
 10
4.1476972425
 20
8.3676559575
 10
4.1892085749
 20
8.3687370385
 10
4.2368465681
 20
8.3698181196
 10
4.2892407636
 20
8.3708992007
 10
4.3448838759
 20
8.3719802818
  0
LWPOLYLINE
  5
863
100
AcDbEntity
  8
0
100
AcDbPolyline
 62
7
  6
CONTINUOUS
 90
11
 70
0
 10
4.0482224533
 20
8.5016654329
 10
4.0487340731
 20
8.5019191503
 10
4.057057919
 20
8.5029905198
 10
4.0751331568
 20
8.5040618965
 10
4.1024490746
 20
8.5051332743
 10
4.1382338487
 20
8.5062046524
 10
4.1814769571
 20
8.507276044
 10
4.2309558586
 20
8.5083474304
 10
4.285270524
 20
8.5094187755
 10
4.3428862209
 20
8.5104900851
 10
4.402175154
 20
8.5115613629
  0
LWPOLYLINE
  5
864
100
AcDbEntity
  8
0
100
AcDbPolyline
 62
7
  6
CONTINUOUS
 90
19
 70
0
 10
4.063175154
 20
8.4830613629
 10
4.064606742
 20
8.4836466342
 10
4.0746197036
 20
8.4847202776
 10
4.0939269317
 20
8.485793921
 10
4.1219805906
 20
8.4868675644
 10
4.157984668
 20
8.4879412078
 10
4.2009175614
 20
8.4890148512
 10
4.2495610655
 20
8.4900884946
 10
4.3025349388
 20
8.4911621381
 10
4.3583360667
 20
8.4922357815
 10
4.4153811128
 20
8.4933094249
 10
4.4720514447
 20
8.4943830683
 10
4.5267390623
 20
8.4954567117
 10
4.5778922244
 20
8.4965303551
 10
4.6240594788
 20
8.4976039985
 10
4.6639308464
 20
8.4986776419
 10
4.6963749917
 20
8.4997512853
 10
4.7204713239
 20
8.5008249288
 10
4.7355361185
 20
8.5018985722
  0
LINE
  5
865
100
AcDbEntity
  8
0
100
AcDbLine
 62
7
  6
CONTINUOUS
 10
4.048175154
 20
8.3795613629
 11
4.052480344
 21
8.3805552356
  0
LINE
  5
866
100
AcDbEntity
  8
0
100
AcDbLine
 62
7
  6
CONTINUOUS
 10
4.048175154
 20
8.4195613629
 11
4.0529513068
 21
8.4206083036
  0
LWPOLYLINE
  5
867
100
AcDbEntity
  8
0
100
AcDbPolyline
 62
7
  6
CONTINUOUS
 90
19
 70
0
 10
4.063175154
 20
8.4030613629
 10
4.0685547949
 20
8.4041970218
 10
4.0833847072
 20
8.4052706652
 10
4.1072601822
 20
8.4063443086
 10
4.1395037619
 20
8.407417952
 10
4.1792005466
 20
8.4084915954
 10
4.2252241544
 20
8.4095652388
 10
4.2762686822
 20
8.4106388822
 10
4.3308857603
 20
8.4117125257
 10
4.3875256489
 20
8.4127861691
 10
4.4445812118
 20
8.4138598125
 10
4.5004335184
 20
8.4149334559
 10
4.5534977796
 20
8.4160070993
 10
4.6022683166
 20
8.4170807427
 10
4.6453612832
 20
8.4181543861
 10
4.681553932
 20
8.4192280295
 10
4.7098193099
 20
8.4203016729
 10
4.7293553971
 20
8.4213753164
 10
4.7396078643
 20
8.4224489598
  0
LWPOLYLINE
  5
868
100
AcDbEntity
  8
0
100
AcDbPolyline
 62
7
  6
CONTINUOUS
 90
20
 70
0
 10
4.0632245453
 20
8.4381700369
 10
4.0692852633
 20
8.4392718892
 10
4.0848619292
 20
8.4403508366
 10
4.109531207
 20
8.4414297839
 10
4.1425861983
 20
8.4425087313
 10
4.1830797124
 20
8.4435876787
 10
4.2298514073
 20
8.444666626
 10
4.2815610399
 20
8.4457455734
 10
4.3367268705
 20
8.4468245208
 10
4.393768122
 20
8.4479034681
 10
4.451050277
 20
8.4489824155
 10
4.5069319151
 20
8.4500613629
 10
4.5598117478
 20
8.4511403102
 10
4.6081745032
 20
8.4522192576
 10
4.6506343463
 20
8.453298205
 10
4.6859745902
 20
8.4543771523
 10
4.7131825599
 20
8.4554560997
 10
4.7314786111
 20
8.4565350471
 10
4.7403384702
 20
8.4576139944
 10
4.741175154
 20
8.4580613629
  0
LWPOLYLINE
  5
869
100
AcDbEntity
  8
0
100
AcDbPolyline
 62
7
  6
CONTINUOUS
 90
19
 70
0
 10
4.0530020973
 20
8.4606138682
 10
4.0675803509
 20
8.4616790249
 10
4.0914435475
 20
8.4627419333
 10
4.1234228118
 20
8.4637895248
 10
4.1628243714
 20
8.4648344595
 10
4.2085757655
 20
8.4658775875
 10
4.2597305488
 20
8.4669249832
 10
4.3145786972
 20
8.4679695266
 10
4.3725639591
 20
8.4690282237
 10
4.4317723946
 20
8.4700942502
 10
4.4897611134
 20
8.4711530043
 10
4.5446136303
 20
8.4721976221
 10
4.5957812245
 20
8.4732452817
 10
4.6415337164
 20
8.4742884561
 10
4.6809277613
 20
8.4753332087
 10
4.7129055913
 20
8.4763807485
 10
4.73676821
 20
8.4774436046
 10
4.7513475599
 20
8.4785087864
 10
4.7561278547
 20
8.4794572929
  0
LINE
  5
86A
100
AcDbEntity
  8
0
100
AcDbLine
 62
7
  6
CONTINUOUS
 10
4.51156717
 20
8.5115613629
 11
4.4538966867
 21
8.5104948442
  0
LWPOLYLINE
  5
86B
100
AcDbEntity
  8
0
100
AcDbPolyline
 62
7
  6
CONTINUOUS
 90
11
 70
0
 10
4.4538966867
 20
8.5104948442
 10
4.3947746857
 20
8.509428266
 10
4.3358591027
 20
8.5083616729
 10
4.2788009746
 20
8.5072950862
 10
4.2251971626
 20
8.5062284865
 10
4.1765482126
 20
8.5051618565
 10
4.1342182395
 20
8.5040952283
 10
4.0993929982
 20
8.5030286124
 10
4.0730470342
 20
8.501961986
 10
4.0559185159
 20
8.5008953545
 10
4.0484873512
 20
8.4998287496
  0
LINE
  5
86C
100
AcDbEntity
  8
0
100
AcDbLine
 62
7
  6
CONTINUOUS
 10
4.0572178815
 20
8.5115613629
 11
4.748953084
 21
8.5115613629
  0
LINE
  5
86D
100
AcDbEntity
  8
0
100
AcDbLine
 62
7
  6
CONTINUOUS
 10
4.7561278547
 20
8.0416654329
 11
4.7411257627
 21
8.0581700369
  0
LINE
  5
86E
100
AcDbEntity
  8
0
100
AcDbLine
 62
7
  6
CONTINUOUS
 10
4.7561278547
 20
8.0816654329
 11
4.7411257627
 21
8.0981700369
  0
LINE
  5
86F
100
AcDbEntity
  8
0
100
AcDbLine
 62
7
  6
CONTINUOUS
 10
4.0632245453
 20
8.2381700369
 11
4.0482224533
 21
8.2216654329
  0
LINE
  5
870
100
AcDbEntity
  8
0
100
AcDbLine
 62
7
  6
CONTINUOUS
 10
4.0632245453
 20
8.1981700369
 11
4.0482224533
 21
8.1816654329
  0
LWPOLYLINE
  5
871
100
AcDbEntity
  8
0
100
AcDbPolyline
 62
7
  6
CONTINUOUS
 90
10
 70
0
 10
4.063175154
 20
8.3230613629
 10
4.0634806045
 20
8.3233316331
 10
4.070783928
 20
8.3244127142
 10
4.0876207738
 20
8.3254937953
 10
4.1135067763
 20
8.3265748764
 10
4.1476972425
 20
8.3276559575
 10
4.1892085749
 20
8.3287370385
 10
4.2368465681
 20
8.3298181196
 10
4.2892407636
 20
8.3308992007
 10
4.3448838759
 20
8.3319802818
  0
LWPOLYLINE
  5
872
100
AcDbEntity
  8
0
100
AcDbPolyline
 62
7
  6
CONTINUOUS
 90
10
 70
0
 10
4.063175154
 20
8.2830613629
 10
4.0634806045
 20
8.2833316331
 10
4.070783928
 20
8.2844127142
 10
4.0876207738
 20
8.2854937953
 10
4.1135067763
 20
8.2865748764
 10
4.1476972425
 20
8.2876559575
 10
4.1892085749
 20
8.2887370385
 10
4.2368465681
 20
8.2898181196
 10
4.2892407636
 20
8.2908992007
 10
4.3448838759
 20
8.2919802818
  0
LWPOLYLINE
  5
873
100
AcDbEntity
  8
0
100
AcDbPolyline
 62
7
  6
CONTINUOUS
 90
10
 70
0
 10
4.0632245453
 20
8.3581700369
 10
4.0634806045
 20
8.3583316331
 10
4.070783928
 20
8.3594127142
 10
4.0876207738
 20
8.3604937953
 10
4.1135067763
 20
8.3615748764
 10
4.1476972425
 20
8.3626559575
 10
4.1892085749
 20
8.3637370385
 10
4.2368465681
 20
8.3648181196
 10
4.2892407636
 20
8.3658992007
 10
4.3448838759
 20
8.3669802818
  0
LWPOLYLINE
  5
874
100
AcDbEntity
  8
0
100
AcDbPolyline
 62
7
  6
CONTINUOUS
 90
19
 70
0
 10
4.063175154
 20
8.4430613629
 10
4.0662669778
 20
8.443921828
 10
4.0787000292
 20
8.4449954714
 10
4.1003115692
 20
8.4460691148
 10
4.1304883784
 20
8.4471427582
 10
4.1683742007
 20
8.4482164016
 10
4.2128940398
 20
8.449290045
 10
4.2627846614
 20
8.4503636884
 10
4.3166304374
 20
8.4514373319
 10
4.3729035135
 20
8.4525109753
 10
4.4300071618
 20
8.4535846187
 10
4.4863210869
 20
8.4546582621
 10
4.540247402
 20
8.4557319055
 10
4.5902559673
 20
8.4568055489
 10
4.6349278082
 20
8.4578791923
 10
4.6729953775
 20
8.4589528357
 10
4.7033785217
 20
8.4600264791
 10
4.7252151302
 20
8.4611001226
 10
4.7378855973
 20
8.462173766
  0
LINE
  5
875
100
AcDbEntity
  8
0
100
AcDbLine
 62
7
  6
CONTINUOUS
 10
4.048175154
 20
8.4595613629
 11
4.0530020973
 21
8.4606138682
  0
LWPOLYLINE
  5
876
100
AcDbEntity
  8
0
100
AcDbPolyline
 62
7
  6
CONTINUOUS
 90
20
 70
0
 10
4.0632245453
 20
8.4781700369
 10
4.0685163121
 20
8.4791929418
 10
4.0834068808
 20
8.4802718892
 10
4.1074317557
 20
8.4813508366
 10
4.139902504
 20
8.4824297839
 10
4.1798886762
 20
8.4835087313
 10
4.2262444685
 20
8.4845876787
 10
4.2776415554
 20
8.485666626
 10
4.332607153
 20
8.4867455734
 10
4.3895662221
 20
8.4878245208
 10
4.4468866001
 20
8.4889034681
 10
4.5029257715
 20
8.4899824155
 10
4.5560779334
 20
8.4910613629
 10
4.6048200106
 20
8.4921403102
 10
4.6477552984
 20
8.4932192576
 10
4.6836534862
 20
8.494298205
 10
4.7114859111
 20
8.4953771523
 10
4.7304550348
 20
8.4964560997
 10
4.7400172972
 20
8.4975350471
 10
4.741175154
 20
8.4980613629
  0
LINE
  5
877
100
AcDbEntity
  8
0
100
AcDbLine
 62
9
  6
CONTINUOUS
 10
4.740925154
 20
8.5490613629
 11
4.063425154
 21
8.5490613629
  0
LINE
  5
878
100
AcDbEntity
  8
0
100
AcDbLine
 62
7
  6
CONTINUOUS
 10
4.934175154
 20
8.5615613629
 11
3.8701797784
 21
8.5615613629
  0
LINE
  5
879
100
AcDbEntity
  8
0
100
AcDbLine
 62
7
  6
CONTINUOUS
 10
4.7561278547
 20
8.1216654329
 11
4.7411257627
 21
8.1381700369
  0
LINE
  5
87A
100
AcDbEntity
  8
0
100
AcDbLine
 62
7
  6
CONTINUOUS
 10
4.7561278547
 20
8.1616654329
 11
4.7411257627
 21
8.1781700369
  0
LINE
  5
87B
100
AcDbEntity
  8
0
100
AcDbLine
 62
7
  6
CONTINUOUS
 10
4.0632245453
 20
8.1581700369
 11
4.0482224533
 21
8.1416654329
  0
LINE
  5
87C
100
AcDbEntity
  8
0
100
AcDbLine
 62
7
  6
CONTINUOUS
 10
4.0632245453
 20
8.1181700369
 11
4.0482224533
 21
8.1016654329
  0
LWPOLYLINE
  5
87D
100
AcDbEntity
  8
0
100
AcDbPolyline
 62
7
  6
CONTINUOUS
 90
10
 70
0
 10
4.063175154
 20
8.2430613629
 10
4.0634806045
 20
8.2433316331
 10
4.070783928
 20
8.2444127142
 10
4.0876207738
 20
8.2454937953
 10
4.1135067763
 20
8.2465748764
 10
4.1476972425
 20
8.2476559575
 10
4.1892085749
 20
8.2487370385
 10
4.2368465681
 20
8.2498181196
 10
4.2892407636
 20
8.2508992007
 10
4.3448838759
 20
8.2519802818
  0
LWPOLYLINE
  5
87E
100
AcDbEntity
  8
0
100
AcDbPolyline
 62
7
  6
CONTINUOUS
 90
10
 70
0
 10
4.063175154
 20
8.2030613629
 10
4.0634806045
 20
8.2033316331
 10
4.070783928
 20
8.2044127142
 10
4.0876207738
 20
8.2054937953
 10
4.1135067763
 20
8.2065748764
 10
4.1476972425
 20
8.2076559575
 10
4.1892085749
 20
8.2087370385
 10
4.2368465681
 20
8.2098181196
 10
4.2892407636
 20
8.2108992007
 10
4.3448838759
 20
8.2119802818
  0
LINE
  5
87F
100
AcDbEntity
  8
0
100
AcDbLine
 62
7
  6
CONTINUOUS
 10
4.0632245453
 20
8.3181700369
 11
4.0634806045
 21
8.3183316331
  0
LINE
  5
880
100
AcDbEntity
  8
0
100
AcDbLine
 62
7
  6
CONTINUOUS
 10
4.0632245453
 20
8.2781700369
 11
4.0634806045
 21
8.2783316331
  0
LINE
  5
881
100
AcDbEntity
  8
0
100
AcDbLine
 62
9
  6
CONTINUOUS
 10
4.994175154
 20
8.6215613629
 11
3.810175154
 21
8.6215613629
  0
LINE
  5
882
100
AcDbEntity
  8
0
100
AcDbLine
 62
7
  6
CONTINUOUS
 10
4.7561278547
 20
8.2016654329
 11
4.7411257627
 21
8.2181700369
  0
LINE
  5
883
100
AcDbEntity
  8
0
100
AcDbLine
 62
7
  6
CONTINUOUS
 10
4.7561278547
 20
8.2416654329
 11
4.7411257627
 21
8.2581700369
  0
LINE
  5
884
100
AcDbEntity
  8
0
100
AcDbLine
 62
7
  6
CONTINUOUS
 10
4.0632245453
 20
8.0781700369
 11
4.0482224533
 21
8.0616654329
  0
LINE
  5
885
100
AcDbEntity
  8
0
100
AcDbLine
 62
7
  6
CONTINUOUS
 10
4.0632245453
 20
8.0381700369
 11
4.0482224533
 21
8.0216654329
  0
LWPOLYLINE
  5
886
100
AcDbEntity
  8
0
100
AcDbPolyline
 62
7
  6
CONTINUOUS
 90
10
 70
0
 10
4.063175154
 20
8.1630613629
 10
4.0634806045
 20
8.1633316331
 10
4.070783928
 20
8.1644127142
 10
4.0876207738
 20
8.1654937953
 10
4.1135067763
 20
8.1665748764
 10
4.1476972425
 20
8.1676559575
 10
4.1892085749
 20
8.1687370385
 10
4.2368465681
 20
8.1698181196
 10
4.2892407636
 20
8.1708992007
 10
4.3448838759
 20
8.1719802818
  0
LWPOLYLINE
  5
887
100
AcDbEntity
  8
0
100
AcDbPolyline
 62
7
  6
CONTINUOUS
 90
10
 70
0
 10
4.063175154
 20
8.1230613629
 10
4.0634806045
 20
8.1233316331
 10
4.070783928
 20
8.1244127142
 10
4.0876207738
 20
8.1254937953
 10
4.1135067763
 20
8.1265748764
 10
4.1476972425
 20
8.1276559575
 10
4.1892085749
 20
8.1287370385
 10
4.2368465681
 20
8.1298181196
 10
4.2892407636
 20
8.1308992007
 10
4.3448838759
 20
8.1319802818
  0
LINE
  5
888
100
AcDbEntity
  8
0
100
AcDbLine
 62
7
  6
CONTINUOUS
 10
4.0632245453
 20
8.2381700369
 11
4.0634806045
 21
8.2383316331
  0
LINE
  5
889
100
AcDbEntity
  8
0
100
AcDbLine
 62
7
  6
CONTINUOUS
 10
4.7561278547
 20
8.2816654329
 11
4.7411257627
 21
8.2981700369
  0
LINE
  5
88A
100
AcDbEntity
  8
0
100
AcDbLine
 62
7
  6
CONTINUOUS
 10
4.7561278547
 20
8.3216654329
 11
4.7411257627
 21
8.3381700369
  0
LINE
  5
88B
100
AcDbEntity
  8
0
100
AcDbLine
 62
7
  6
CONTINUOUS
 10
4.0632245453
 20
7.9981700369
 11
4.0482224533
 21
7.9816654329
  0
LWPOLYLINE
  5
88C
100
AcDbEntity
  8
0
100
AcDbPolyline
 62
7
  6
CONTINUOUS
 90
10
 70
0
 10
4.063175154
 20
8.0830613629
 10
4.0634806045
 20
8.0833316331
 10
4.070783928
 20
8.0844127142
 10
4.0876207738
 20
8.0854937953
 10
4.1135067763
 20
8.0865748764
 10
4.1476972425
 20
8.0876559575
 10
4.1892085749
 20
8.0887370385
 10
4.2368465681
 20
8.0898181196
 10
4.2892407636
 20
8.0908992007
 10
4.3448838759
 20
8.0919802818
  0
LWPOLYLINE
  5
88D
100
AcDbEntity
  8
0
100
AcDbPolyline
 62
7
  6
CONTINUOUS
 90
10
 70
0
 10
4.0632245453
 20
8.1981700369
 10
4.0634806045
 20
8.1983316331
 10
4.070783928
 20
8.1994127142
 10
4.0876207738
 20
8.2004937953
 10
4.1135067763
 20
8.2015748764
 10
4.1476972425
 20
8.2026559575
 10
4.1892085749
 20
8.2037370385
 10
4.2368465681
 20
8.2048181196
 10
4.2892407636
 20
8.2058992007
 10
4.3448838759
 20
8.2069802818
  0
LINE
  5
88E
100
AcDbEntity
  8
0
100
AcDbLine
 62
7
  6
CONTINUOUS
 10
4.0632245453
 20
8.1581700369
 11
4.0634806045
 21
8.1583316331
  0
LINE
  5
88F
100
AcDbEntity
  8
0
100
AcDbLine
 62
7
  6
CONTINUOUS
 10
4.7561278547
 20
8.3616654329
 11
4.7411257627
 21
8.3781700369
  0
LINE
  5
890
100
AcDbEntity
  8
0
100
AcDbLine
 62
7
  6
CONTINUOUS
 10
4.7561278547
 20
8.4016654329
 11
4.7411257627
 21
8.4181700369
  0
LINE
  5
891
100
AcDbEntity
  8
0
100
AcDbLine
 62
7
  6
CONTINUOUS
 10
4.0632245453
 20
8.1181700369
 11
4.0634806045
 21
8.1183316331
  0
LINE
  5
892
100
AcDbEntity
  8
0
100
AcDbLine
 62
7
  6
CONTINUOUS
 10
4.0632245453
 20
8.0781700369
 11
4.0634806045
 21
8.0783316331
  0
LINE
  5
893
100
AcDbEntity
  8
0
100
AcDbLine
 62
7
  6
CONTINUOUS
 10
4.7561278547
 20
8.4416654329
 11
4.7411257627
 21
8.4581700369
  0
LINE
  5
894
100
AcDbEntity
  8
0
100
AcDbLine
 62
7
  6
CONTINUOUS
 10
4.7561278547
 20
8.4816654329
 11
4.7411257627
 21
8.4981700369
  0
LWPOLYLINE
  5
895
100
AcDbEntity
  8
0
100
AcDbPolyline
 62
7
  6
CONTINUOUS
 90
10
 70
0
 10
4.063175154
 20
8.0430613629
 10
4.0636835071
 20
8.0434100471
 10
4.0715857303
 20
8.0444824155
 10
4.0888460947
 20
8.0455547839
 10
4.1149760035
 20
8.0466271523
 10
4.1492357858
 20
8.0476995208
 10
4.1906556348
 20
8.0487718892
 10
4.2380630605
 20
8.0498442576
 10
4.2901160799
 20
8.050916626
 10
4.3453412051
 20
8.0519889944
  0
LWPOLYLINE
  5
896
100
AcDbEntity
  8
0
100
AcDbPolyline
 62
7
  6
CONTINUOUS
 90
10
 70
0
 10
4.0632245453
 20
8.0381700369
 10
4.0635585855
 20
8.0383641798
 10
4.0711119087
 20
8.0394416446
 10
4.0881258596
 20
8.0405191093
 10
4.1141142392
 20
8.0415965741
 10
4.1483343907
 20
8.0426740389
 10
4.1898084219
 20
8.0437515037
 10
4.2373511505
 20
8.0448289685
 10
4.2896039716
 20
8.0459064333
 10
4.3450736828
 20
8.0469838981
  0
LINE
  5
897
100
AcDbEntity
  8
0
100
AcDbLine
 62
7
  6
CONTINUOUS
 10
4.7396078643
 20
8.4224489598
 11
4.7411257627
 21
8.4229526889
  0
LINE
  5
898
100
AcDbEntity
  8
0
100
AcDbLine
 62
7
  6
CONTINUOUS
 10
4.740925154
 20
8.5490613629
 11
4.740925154
 21
8.5115613629
  0
LINE
  5
899
100
AcDbEntity
  8
0
100
AcDbLine
 62
7
  6
CONTINUOUS
 10
4.741175154
 20
7.9780613629
 11
4.741175154
 21
7.9830613629
  0
LINE
  5
89A
100
AcDbEntity
  8
0
100
AcDbLine
 62
7
  6
CONTINUOUS
 10
4.741175154
 20
8.0180613629
 11
4.741175154
 21
8.0230613629
  0
LINE
  5
89B
100
AcDbEntity
  8
0
100
AcDbLine
 62
7
  6
CONTINUOUS
 10
4.741175154
 20
8.0580613629
 11
4.741175154
 21
8.0630613629
  0
LINE
  5
89C
100
AcDbEntity
  8
0
100
AcDbLine
 62
7
  6
CONTINUOUS
 10
4.741175154
 20
8.0980613629
 11
4.741175154
 21
8.1030613629
  0
LINE
  5
89D
100
AcDbEntity
  8
0
100
AcDbLine
 62
7
  6
CONTINUOUS
 10
4.741175154
 20
8.1380613629
 11
4.741175154
 21
8.1430613629
  0
LINE
  5
89E
100
AcDbEntity
  8
0
100
AcDbLine
 62
7
  6
CONTINUOUS
 10
4.741175154
 20
8.1780613629
 11
4.741175154
 21
8.1830613629
  0
LINE
  5
89F
100
AcDbEntity
  8
0
100
AcDbLine
 62
7
  6
CONTINUOUS
 10
4.741175154
 20
8.2180613629
 11
4.741175154
 21
8.2230613629
  0
LINE
  5
8A0
100
AcDbEntity
  8
0
100
AcDbLine
 62
7
  6
CONTINUOUS
 10
4.741175154
 20
8.2580613629
 11
4.741175154
 21
8.2630613629
  0
LINE
  5
8A1
100
AcDbEntity
  8
0
100
AcDbLine
 62
7
  6
CONTINUOUS
 10
4.741175154
 20
8.2980613629
 11
4.741175154
 21
8.3030613629
  0
LINE
  5
8A2
100
AcDbEntity
  8
0
100
AcDbLine
 62
7
  6
CONTINUOUS
 10
4.741175154
 20
8.3380613629
 11
4.741175154
 21
8.3430613629
  0
LINE
  5
8A3
100
AcDbEntity
  8
0
100
AcDbLine
 62
7
  6
CONTINUOUS
 10
4.741175154
 20
8.3780613629
 11
4.741175154
 21
8.3830613629
  0
LINE
  5
8A4
100
AcDbEntity
  8
0
100
AcDbLine
 62
7
  6
CONTINUOUS
 10
4.741175154
 20
8.4180613629
 11
4.741175154
 21
8.4230613629
  0
LINE
  5
8A5
100
AcDbEntity
  8
0
100
AcDbLine
 62
7
  6
CONTINUOUS
 10
4.741175154
 20
8.4580613629
 11
4.741175154
 21
8.4630613629
  0
LINE
  5
8A6
100
AcDbEntity
  8
0
100
AcDbLine
 62
7
  6
CONTINUOUS
 10
4.741175154
 20
8.4980613629
 11
4.741175154
 21
8.5030613629
  0
LINE
  5
8A7
100
AcDbEntity
  8
0
100
AcDbLine
 62
7
  6
CONTINUOUS
 10
4.7411257627
 20
8.5029526889
 11
4.7489507155
 21
8.5115613629
  0
LINE
  5
8A8
100
AcDbEntity
  8
0
100
AcDbLine
 62
7
  6
CONTINUOUS
 10
4.7411257627
 20
8.4629526889
 11
4.7561278547
 21
8.4794572929
  0
LINE
  5
8A9
100
AcDbEntity
  8
0
100
AcDbLine
 62
7
  6
CONTINUOUS
 10
4.756175154
 20
8.4815613629
 11
4.756175154
 21
8.4795613629
  0
LINE
  5
8AA
100
AcDbEntity
  8
0
100
AcDbLine
 62
7
  6
CONTINUOUS
 10
4.756175154
 20
8.4415613629
 11
4.756175154
 21
8.4395613629
  0
LINE
  5
8AB
100
AcDbEntity
  8
0
100
AcDbLine
 62
7
  6
CONTINUOUS
 10
4.756175154
 20
8.4015613629
 11
4.756175154
 21
8.3995613629
  0
LINE
  5
8AC
100
AcDbEntity
  8
0
100
AcDbLine
 62
7
  6
CONTINUOUS
 10
4.756175154
 20
8.3615613629
 11
4.756175154
 21
8.3595613629
  0
LINE
  5
8AD
100
AcDbEntity
  8
0
100
AcDbLine
 62
7
  6
CONTINUOUS
 10
4.756175154
 20
8.3215613629
 11
4.756175154
 21
8.3195613629
  0
LINE
  5
8AE
100
AcDbEntity
  8
0
100
AcDbLine
 62
7
  6
CONTINUOUS
 10
4.756175154
 20
8.2815613629
 11
4.756175154
 21
8.2795613629
  0
LINE
  5
8AF
100
AcDbEntity
  8
0
100
AcDbLine
 62
7
  6
CONTINUOUS
 10
4.756175154
 20
8.2415613629
 11
4.756175154
 21
8.2395613629
  0
LINE
  5
8B0
100
AcDbEntity
  8
0
100
AcDbLine
 62
7
  6
CONTINUOUS
 10
4.756175154
 20
8.2015613629
 11
4.756175154
 21
8.1995613629
  0
LINE
  5
8B1
100
AcDbEntity
  8
0
100
AcDbLine
 62
7
  6
CONTINUOUS
 10
4.756175154
 20
8.1615613629
 11
4.756175154
 21
8.1595613629
  0
LINE
  5
8B2
100
AcDbEntity
  8
0
100
AcDbLine
 62
7
  6
CONTINUOUS
 10
4.756175154
 20
8.1215613629
 11
4.756175154
 21
8.1195613629
  0
LINE
  5
8B3
100
AcDbEntity
  8
0
100
AcDbLine
 62
7
  6
CONTINUOUS
 10
4.756175154
 20
8.0815613629
 11
4.756175154
 21
8.0795613629
  0
LINE
  5
8B4
100
AcDbEntity
  8
0
100
AcDbLine
 62
7
  6
CONTINUOUS
 10
4.756175154
 20
8.0415613629
 11
4.756175154
 21
8.0395613629
  0
LINE
  5
8B5
100
AcDbEntity
  8
0
100
AcDbLine
 62
7
  6
CONTINUOUS
 10
4.756175154
 20
8.0015613629
 11
4.756175154
 21
7.9995613629
  0
LINE
  5
8B6
100
AcDbEntity
  8
0
100
AcDbLine
 62
7
  6
CONTINUOUS
 10
4.7561278547
 20
8.4794572929
 11
4.756175154
 21
8.4795613629
  0
LINE
  5
8B7
100
AcDbEntity
  8
0
100
AcDbLine
 62
7
  6
CONTINUOUS
 10
4.7561278547
 20
8.4394572929
 11
4.756175154
 21
8.4395613629
  0
LINE
  5
8B8
100
AcDbEntity
  8
0
100
AcDbLine
 62
7
  6
CONTINUOUS
 10
4.7561278547
 20
8.3994572929
 11
4.756175154
 21
8.3995613629
  0
LINE
  5
8B9
100
AcDbEntity
  8
0
100
AcDbLine
 62
7
  6
CONTINUOUS
 10
4.7411257627
 20
8.4229526889
 11
4.7561278547
 21
8.4394572929
  0
LINE
  5
8BA
100
AcDbEntity
  8
0
100
AcDbLine
 62
7
  6
CONTINUOUS
 10
4.7411257627
 20
8.3829526889
 11
4.7561278547
 21
8.3994572929
  0
LINE
  5
8BB
100
AcDbEntity
  8
0
100
AcDbLine
 62
7
  6
CONTINUOUS
 10
4.0632245453
 20
7.9981700369
 11
4.0639721312
 21
7.9984979826
  0
LINE
  5
8BC
100
AcDbEntity
  8
0
100
AcDbLine
 62
7
  6
CONTINUOUS
 10
4.7561278547
 20
8.3594572929
 11
4.756175154
 21
8.3595613629
  0
LINE
  5
8BD
100
AcDbEntity
  8
0
100
AcDbLine
 62
7
  6
CONTINUOUS
 10
4.7561278547
 20
8.3194572929
 11
4.756175154
 21
8.3195613629
  0
LINE
  5
8BE
100
AcDbEntity
  8
0
100
AcDbLine
 62
7
  6
CONTINUOUS
 10
4.7561278547
 20
8.2794572929
 11
4.756175154
 21
8.2795613629
  0
LINE
  5
8BF
100
AcDbEntity
  8
0
100
AcDbLine
 62
7
  6
CONTINUOUS
 10
4.7411257627
 20
8.3429526889
 11
4.7561278547
 21
8.3594572929
  0
LINE
  5
8C0
100
AcDbEntity
  8
0
100
AcDbLine
 62
7
  6
CONTINUOUS
 10
4.7411257627
 20
8.3029526889
 11
4.7561278547
 21
8.3194572929
  0
LINE
  5
8C1
100
AcDbEntity
  8
0
100
AcDbLine
 62
7
  6
CONTINUOUS
 10
4.7411257627
 20
8.2629526889
 11
4.7561278547
 21
8.2794572929
  0
LINE
  5
8C2
100
AcDbEntity
  8
0
100
AcDbLine
 62
7
  6
CONTINUOUS
 10
4.0498247148
 20
7.9801761807
 11
4.048175154
 21
7.9795613559
  0
LWPOLYLINE
  5
8C3
100
AcDbEntity
  8
0
100
AcDbPolyline
 62
7
  6
CONTINUOUS
 90
19
 70
0
 10
4.063175154
 20
8.0030613629
 10
4.0650567244
 20
8.0037324155
 10
4.0758079097
 20
8.0048047839
 10
4.095797717
 20
8.0058771523
 10
4.1244602861
 20
8.0069495208
 10
4.160984253
 20
8.0080218892
 10
4.2043357174
 20
8.0090942576
 10
4.2532875104
 20
8.010166626
 10
4.3064539318
 20
8.0112389944
 10
4.3623299763
 20
8.0123113629
 10
4.4193339358
 20
8.0133837313
 10
4.4758521741
 20
8.0144560997
 10
4.5302848044
 20
8.0155284681
 10
4.5810909781
 20
8.0166008366
 10
4.6268325023
 20
8.017673205
 10
4.6662145515
 20
8.0187455734
 10
4.6981223206
 20
8.0198179418
 10
4.7216525822
 20
8.0208903102
 10
4.7361392548
 20
8.0219626787
  0
LINE
  5
8C4
100
AcDbEntity
  8
0
100
AcDbLine
 62
7
  6
CONTINUOUS
 10
3.8101793594
 20
9.0015613629
 11
4.9941708697
 21
9.0015613629
  0
LINE
  5
8C5
100
AcDbEntity
  8
AXIS_COSMETIC_THREADS
100
AcDbLine
 62
7
  6
CONTINUOUS
 10
3.8111760526
 20
9.0165613629
 11
4.9931742555
 21
9.0165613629
  0
LINE
  5
8C6
100
AcDbEntity
  8
0
100
AcDbLine
 62
7
  6
CONTINUOUS
 10
4.7561278547
 20
8.2394572929
 11
4.756175154
 21
8.2395613629
  0
LINE
  5
8C7
100
AcDbEntity
  8
0
100
AcDbLine
 62
7
  6
CONTINUOUS
 10
4.7561278547
 20
8.1994572929
 11
4.756175154
 21
8.1995613629
  0
LINE
  5
8C8
100
AcDbEntity
  8
0
100
AcDbLine
 62
7
  6
CONTINUOUS
 10
4.7561278547
 20
8.1594572929
 11
4.756175154
 21
8.1595613629
  0
LINE
  5
8C9
100
AcDbEntity
  8
0
100
AcDbLine
 62
7
  6
CONTINUOUS
 10
4.7561278547
 20
8.1194572929
 11
4.756175154
 21
8.1195613629
  0
LINE
  5
8CA
100
AcDbEntity
  8
0
100
AcDbLine
 62
7
  6
CONTINUOUS
 10
4.7411257627
 20
8.2229526889
 11
4.7561278547
 21
8.2394572929
  0
LINE
  5
8CB
100
AcDbEntity
  8
0
100
AcDbLine
 62
7
  6
CONTINUOUS
 10
4.7411257627
 20
8.1829526889
 11
4.7561278547
 21
8.1994572929
  0
LINE
  5
8CC
100
AcDbEntity
  8
0
100
AcDbLine
 62
7
  6
CONTINUOUS
 10
4.966175154
 20
9.0015613629
 11
4.966175154
 21
9.0165613629
  0
LINE
  5
8CD
100
AcDbEntity
  8
0
100
AcDbLine
 62
7
  6
CONTINUOUS
 10
4.7561278547
 20
8.0794572929
 11
4.756175154
 21
8.0795613629
  0
LINE
  5
8CE
100
AcDbEntity
  8
0
100
AcDbLine
 62
7
  6
CONTINUOUS
 10
4.7561278547
 20
8.0394572929
 11
4.756175154
 21
8.0395613629
  0
LINE
  5
8CF
100
AcDbEntity
  8
0
100
AcDbLine
 62
7
  6
CONTINUOUS
 10
4.756175154
 20
7.9995613629
 11
4.7561278547
 21
7.9994572929
  0
LINE
  5
8D0
100
AcDbEntity
  8
0
100
AcDbLine
 62
7
  6
CONTINUOUS
 10
4.7411257627
 20
8.1429526889
 11
4.7561278547
 21
8.1594572929
  0
LINE
  5
8D1
100
AcDbEntity
  8
0
100
AcDbLine
 62
7
  6
CONTINUOUS
 10
4.7411257627
 20
8.1029526889
 11
4.7561278547
 21
8.1194572929
  0
LINE
  5
8D2
100
AcDbEntity
  8
0
100
AcDbLine
 62
9
  6
CONTINUOUS
 10
4.9928849026
 20
9.0965613629
 11
4.993175154
 21
9.0965633587
  0
LWPOLYLINE
  5
8D3
100
AcDbEntity
  8
0
100
AcDbPolyline
 62
9
  6
CONTINUOUS
 90
5
 70
0
 10
3.811175154
 20
9.0965633882
 10
3.8114568401
 20
9.0965612436
 10
3.8126770306
 20
9.0965613915
 10
3.8148707468
 20
9.0965613561
 10
4.9928849026
 20
9.0965613629
  0
LINE
  5
8D4
100
AcDbEntity
  8
AXIS_COSMETIC_THREADS
100
AcDbLine
 62
7
  6
CONTINUOUS
 10
4.993175154
 20
9.0165613629
 11
4.993175154
 21
9.0965598448
  0
LINE
  5
8D5
100
AcDbEntity
  8
0
100
AcDbLine
 62
7
  6
CONTINUOUS
 10
4.994175154
 20
9.0015613629
 11
4.994175154
 21
8.6215613629
  0
LINE
  5
8D6
100
AcDbEntity
  8
0
100
AcDbLine
 62
7
  6
CONTINUOUS
 10
4.7411257627
 20
8.0629526889
 11
4.7561278547
 21
8.0794572929
  0
LINE
  5
8D7
100
AcDbEntity
  8
0
100
AcDbLine
 62
7
  6
CONTINUOUS
 10
4.7411257627
 20
8.0229526889
 11
4.7561278547
 21
8.0394572929
  0
LINE
  5
8D8
100
AcDbEntity
  8
0
100
AcDbLine
 62
7
  6
CONTINUOUS
 10
3.8711733064
 20
9.1565613629
 11
4.9331770458
 21
9.1565613629
  0
LWPOLYLINE
  5
8D9
100
AcDbEntity
  8
0
100
AcDbPolyline
 62
7
  6
CONTINUOUS
 90
8
 70
0
 10
4.9931751743
 20
9.0965626525
 10
4.992396295
 20
9.1061988756
 10
4.9885268472
 20
9.1197182121
 10
4.9816169089
 20
9.1319655841
 10
4.9720460533
 20
9.1422682177
 10
4.9603400225
 20
9.1500601712
 10
4.9471418466
 20
9.1549134192
 10
4.9331765188
 20
9.1565613629
  0
LINE
  5
8DA
100
AcDbEntity
  8
0
100
AcDbLine
 62
7
  6
CONTINUOUS
 10
4.7411257627
 20
7.9829526889
 11
4.7561278547
 21
7.9994572929
  0
LWPOLYLINE
  5
8DB
100
AcDbEntity
  8
0
100
AcDbPolyline
 62
7
  6
CONTINUOUS
 90
8
 70
0
 10
3.8711738422
 20
9.1565613629
 10
3.8572085068
 20
9.1549134188
 10
3.8440103231
 20
9.1500601701
 10
3.8323042842
 20
9.1422682154
 10
3.8227334202
 20
9.1319655798
 10
3.8158234731
 20
9.1197182049
 10
3.8119540162
 20
9.1061988632
 10
3.8111751311
 20
9.0965626008
  0
CIRCLE
  5
8DC
100
AcDbEntity
  8
0
100
AcDbCircle
 62
7
  6
CONTINUOUS
 10
10.5342808475
 20
1.243294839
 40
0.252091
  0
CIRCLE
  5
8DD
100
AcDbEntity
  8
0
100
AcDbCircle
 62
7
  6
CONTINUOUS
 10
10.5342808475
 20
1.243294839
 40
0.182698
  0
ARC
  5
8DE
100
AcDbEntity
  8
0
100
AcDbCircle
 62
7
  6
CONTINUOUS
 10
4.047175154
 20
5.1874041706
 40
0.06
100
AcDbArc
 50
0.0
 51
56.5971483035
  0
ARC
  5
8DF
100
AcDbEntity
  8
0
100
AcDbCircle
 62
7
  6
CONTINUOUS
 10
4.757175154
 20
5.1874041706
 40
0.06
100
AcDbArc
 50
123.4003081433
 51
180.0
  0
ARC
  5
8E0
100
AcDbEntity
  8
0
100
AcDbCircle
 62
7
  6
CONTINUOUS
 10
4.402175154
 20
5.7342853277
 40
0.592
100
AcDbArc
 50
294.0856793311
 51
245.9143206689
  0
CIRCLE
  5
8E1
100
AcDbEntity
  8
0
100
AcDbCircle
 62
9
  6
CONTINUOUS
 10
4.402175154
 20
5.7342853277
 40
0.532
  0
ARC
  5
8E2
100
AcDbEntity
  8
0
100
AcDbCircle
 62
7
  6
CONTINUOUS
 10
4.402175154
 20
5.7342853277
 40
0.354
100
AcDbArc
 50
272.3271152994
 51
277.337176733
  0
ARC
  5
8E3
100
AcDbEntity
  8
0
100
AcDbCircle
 62
7
  6
CONTINUOUS
 10
4.402175154
 20
5.7342853277
 40
0.354
100
AcDbArc
 50
278.5927319311
 51
270.0
  0
CIRCLE
  5
8E4
100
AcDbEntity
  8
0
100
AcDbCircle
 62
7
  6
CONTINUOUS
 10
4.402175154
 20
5.7342853277
 40
0.306
  0
CIRCLE
  5
8E5
100
AcDbEntity
  8
AXIS_COSMETIC_THREADS
100
AcDbCircle
 62
7
  6
CONTINUOUS
 10
4.402175154
 20
5.7342853277
 40
0.3025
  0
ARC
  5
8E6
100
AcDbEntity
  8
0
100
AcDbCircle
 62
7
  6
CONTINUOUS
 10
4.402175154
 20
5.7342853277
 40
0.255
100
AcDbArc
 50
182.2474696181
 51
357.7525303819
  0
ARC
  5
8E7
100
AcDbEntity
  8
0
100
AcDbCircle
 62
7
  6
CONTINUOUS
 10
4.402175154
 20
5.7342853277
 40
0.255
100
AcDbArc
 50
2.2474696181
 51
177.7525303819
  0
ARC
  5
8E8
100
AcDbEntity
  8
AXIS
100
AcDbCircle
 62
7
  6
CONTINUOUS
 10
4.402175154
 20
5.7342853277
 40
0.25
100
AcDbArc
 50
183.210243033
 51
356.789756967
  0
ARC
  5
8E9
100
AcDbEntity
  8
AXIS
100
AcDbCircle
 62
7
  6
CONTINUOUS
 10
4.402175154
 20
5.7342853277
 40
0.25
100
AcDbArc
 50
3.210243033
 51
176.789756967
  0
ARC
  5
8EA
100
AcDbEntity
  8
0
100
AcDbCircle
 62
7
  6
CONTINUOUS
 10
9.1320636093
 20
6.2652853277
 40
0.06
100
AcDbArc
 50
0.0
 51
90.0
  0
ARC
  5
8EB
100
AcDbEntity
  8
0
100
AcDbCircle
 62
7
  6
CONTINUOUS
 10
8.6570636093
 20
6.2662853277
 40
0.06
100
AcDbArc
 50
90.0
 51
180.0
  0
ARC
  5
8EC
100
AcDbEntity
  8
0
100
AcDbCircle
 62
7
  6
CONTINUOUS
 10
9.1361384125
 20
6.1342853277
 40
0.0575
100
AcDbArc
 50
347.2959531578
 51
12.7040468422
  0
ARC
  5
8ED
100
AcDbEntity
  8
0
100
AcDbCircle
 62
7
  6
CONTINUOUS
 10
8.5845636093
 20
5.3830353277
 40
0.0125
100
AcDbArc
 50
0.0000000012
 51
90.0
  0
ARC
  5
8EE
100
AcDbEntity
  8
0
100
AcDbCircle
 62
7
  6
CONTINUOUS
 10
8.5845636093
 20
6.0855353277
 40
0.0125
100
AcDbArc
 50
270.0
 51
359.9999999996
  0
ARC
  5
8EF
100
AcDbEntity
  8
0
100
AcDbCircle
 62
7
  6
CONTINUOUS
 10
9.1910635574
 20
5.1442853846
 40
0.0010000519
100
AcDbArc
 50
270.0029759244
 51
359.9967384197
  0
ARC
  5
8F0
100
AcDbEntity
  8
0
100
AcDbCircle
 62
7
  6
CONTINUOUS
 10
12.1120923363
 20
5.1874041706
 40
0.06
100
AcDbArc
 50
0.0
 51
54.6046913338
  0
CIRCLE
  5
8F1
100
AcDbEntity
  8
0
100
AcDbCircle
 62
7
  6
CONTINUOUS
 10
12.1270923363
 20
5.7772853277
 40
0.16
  0
CIRCLE
  5
8F2
100
AcDbEntity
  8
0
100
AcDbCircle
 62
7
  6
CONTINUOUS
 10
12.1270923363
 20
5.7772853277
 40
0.14
  0
CIRCLE
  5
8F3
100
AcDbEntity
  8
0
100
AcDbCircle
 62
7
  6
CONTINUOUS
 10
12.1270923363
 20
5.7772853277
 40
0.131
  0
CIRCLE
  5
8F4
100
AcDbEntity
  8
0
100
AcDbCircle
 62
9
  6
CONTINUOUS
 10
12.1270923363
 20
5.7772853277
 40
0.116
  0
CIRCLE
  5
8F5
100
AcDbEntity
  8
0
100
AcDbCircle
 62
7
  6
CONTINUOUS
 10
12.3420923363
 20
6.1342853277
 40
0.094
  0
CIRCLE
  5
8F6
100
AcDbEntity
  8
0
100
AcDbCircle
 62
7
  6
CONTINUOUS
 10
12.3420923363
 20
6.1342853277
 40
0.064
  0
CIRCLE
  5
8F7
100
AcDbEntity
  8
0
100
AcDbCircle
 62
7
  6
CONTINUOUS
 10
12.3420923363
 20
6.1342853277
 40
0.0575
  0
CIRCLE
  5
8F8
100
AcDbEntity
  8
AXIS
100
AcDbCircle
 62
7
  6
CONTINUOUS
 10
12.1270923363
 20
5.7772853277
 40
0.05
  0
ARC
  5
8F9
100
AcDbEntity
  8
0
100
AcDbCircle
 62
7
  6
CONTINUOUS
 10
12.4050923363
 20
5.7642853277
 40
0.03
100
AcDbArc
 50
180.0
 51
270.0
  0
ARC
  5
8FA
100
AcDbEntity
  8
0
100
AcDbCircle
 62
7
  6
CONTINUOUS
 10
12.4050923363
 20
5.8892853277
 40
0.03
100
AcDbArc
 50
90.0
 51
180.0
  0
ARC
  5
8FB
100
AcDbEntity
  8
0
100
AcDbCircle
 62
7
  6
CONTINUOUS
 10
12.8220923363
 20
5.1874041706
 40
0.06
100
AcDbArc
 50
125.3974888522
 51
180.0
  0
ARC
  5
8FC
100
AcDbEntity
  8
0
100
AcDbCircle
 62
7
  6
CONTINUOUS
 10
12.4670923363
 20
5.7342853277
 40
0.595
100
AcDbArc
 50
244.419898358
 51
295.580101642
  0
ARC
  5
8FD
100
AcDbEntity
  8
0
100
AcDbCircle
 62
7
  6
CONTINUOUS
 10
12.4670923363
 20
5.7342853277
 40
0.592
100
AcDbArc
 50
295.7191711305
 51
244.2808288695
  0
CIRCLE
  5
8FE
100
AcDbEntity
  8
0
100
AcDbCircle
 62
7
  6
CONTINUOUS
 10
12.4670923363
 20
5.7342853277
 40
0.591
  0
ARC
  5
8FF
100
AcDbEntity
  8
0
100
AcDbCircle
 62
9
  6
CONTINUOUS
 10
12.4670923363
 20
5.7342853277
 40
0.336
100
AcDbArc
 50
149.0511342432
 51
150.5969935945
  0
ARC
  5
900
100
AcDbEntity
  8
0
100
AcDbCircle
 62
9
  6
CONTINUOUS
 10
12.4670923363
 20
5.7342853277
 40
0.336
100
AcDbArc
 50
195.0184242713
 51
196.4660688372
  0
ARC
  5
901
100
AcDbEntity
  8
0
100
AcDbCircle
 62
7
  6
CONTINUOUS
 10
12.4670923363
 20
5.7342853277
 40
0.306
100
AcDbArc
 50
148.7819715422
 51
150.4476026476
  0
ARC
  5
902
100
AcDbEntity
  8
0
100
AcDbCircle
 62
7
  6
CONTINUOUS
 10
12.4670923363
 20
5.7342853277
 40
0.306
100
AcDbArc
 50
195.10095178
 51
196.7320018955
  0
ARC
  5
903
100
AcDbEntity
  8
AXIS_COSMETIC_THREADS
100
AcDbCircle
 62
7
  6
CONTINUOUS
 10
12.4670923363
 20
5.7342853277
 40
0.29
100
AcDbArc
 50
149.211776353
 51
150.8841088463
  0
ARC
  5
904
100
AcDbEntity
  8
AXIS_COSMETIC_THREADS
100
AcDbCircle
 62
7
  6
CONTINUOUS
 10
12.4670923363
 20
5.7342853277
 40
0.29
100
AcDbArc
 50
194.6638452469
 51
196.4173070349
  0
ARC
  5
905
100
AcDbEntity
  8
AXIS_COSMETIC_THREADS
100
AcDbCircle
 62
7
  6
CONTINUOUS
 10
12.4670923363
 20
5.7342853277
 40
0.265
100
AcDbArc
 50
150.6763070496
 51
152.7302349324
  0
ARC
  5
906
100
AcDbEntity
  8
AXIS_COSMETIC_THREADS
100
AcDbCircle
 62
7
  6
CONTINUOUS
 10
12.4670923363
 20
5.7342853277
 40
0.265
100
AcDbArc
 50
192.8807480398
 51
194.9585192686
  0
ARC
  5
907
100
AcDbEntity
  8
AXIS_COSMETIC_THREADS
100
AcDbCircle
 62
7
  6
CONTINUOUS
 10
12.4670923363
 20
5.7342853277
 40
0.255
100
AcDbArc
 50
151.7317040246
 51
153.9254878406
  0
ARC
  5
908
100
AcDbEntity
  8
AXIS_COSMETIC_THREADS
100
AcDbCircle
 62
7
  6
CONTINUOUS
 10
12.4670923363
 20
5.7342853277
 40
0.255
100
AcDbArc
 50
191.6138240513
 51
193.7748313846
  0
ARC
  5
909
100
AcDbEntity
  8
0
100
AcDbCircle
 62
7
  6
CONTINUOUS
 10
12.4670923363
 20
5.7342853277
 40
0.22
100
AcDbArc
 50
181.8117657551
 51
186.7035325905
  0
ARC
  5
90A
100
AcDbEntity
  8
0
100
AcDbCircle
 62
7
  6
CONTINUOUS
 10
12.4670923363
 20
5.7342853277
 40
0.22
100
AcDbArc
 50
162.8152040989
 51
163.3827187754
  0
CIRCLE
  5
90B
100
AcDbEntity
  8
AXIS_COSMETIC_THREADS
100
AcDbCircle
 62
7
  6
CONTINUOUS
 10
12.4670923363
 20
5.8262853277
 40
0.035
  0
CIRCLE
  5
90C
100
AcDbEntity
  8
AXIS_COSMETIC_THREADS
100
AcDbCircle
 62
7
  6
CONTINUOUS
 10
12.4670923363
 20
5.8262853277
 40
0.01
  0
ARC
  5
90D
100
AcDbEntity
  8
0
100
AcDbCircle
 62
7
  6
CONTINUOUS
 10
12.5300923363
 20
5.8892853277
 40
0.03
100
AcDbArc
 50
0.0
 51
90.0
  0
ARC
  5
90E
100
AcDbEntity
  8
0
100
AcDbCircle
 62
7
  6
CONTINUOUS
 10
12.5300923363
 20
5.7642853277
 40
0.03
100
AcDbArc
 50
270.0
 51
360.0
  0
CIRCLE
  5
90F
100
AcDbEntity
  8
0
100
AcDbCircle
 62
7
  6
CONTINUOUS
 10
12.5920923363
 20
6.1342853277
 40
0.094
  0
CIRCLE
  5
910
100
AcDbEntity
  8
0
100
AcDbCircle
 62
7
  6
CONTINUOUS
 10
12.5920923363
 20
6.1342853277
 40
0.064
  0
CIRCLE
  5
911
100
AcDbEntity
  8
0
100
AcDbCircle
 62
7
  6
CONTINUOUS
 10
12.5920923363
 20
6.1342853277
 40
0.0575
  0
ARC
  5
912
100
AcDbEntity
  8
0
100
AcDbCircle
 62
7
  6
CONTINUOUS
 10
4.934175154
 20
8.6215613629
 40
0.06
100
AcDbArc
 50
270.0
 51
360.0
  0
ARC
  5
913
100
AcDbEntity
  8
0
100
AcDbCircle
 62
7
  6
CONTINUOUS
 10
3.870175154
 20
8.6215613629
 40
0.06
100
AcDbArc
 50
180.0
 51
270.0
  0
ARC
  5
914
100
AcDbEntity
  8
0
100
AcDbCircle
 62
7
  6
CONTINUOUS
 10
4.527175154
 20
9.100636166
 40
0.0575
100
AcDbArc
 50
77.2959531578
 51
102.7040468422
  0
ARC
  5
915
100
AcDbEntity
  8
0
100
AcDbCircle
 62
7
  6
CONTINUOUS
 10
4.277175154
 20
9.100636166
 40
0.0575
100
AcDbArc
 50
77.2959531578
 51
102.7040468422
  0
ARC
  5
916
100
AcDbEntity
  8
0
100
AcDbCircle
 62
7
  6
CONTINUOUS
 10
4.753425154
 20
8.5490613629
 40
0.0125
100
AcDbArc
 50
90.0000089257
 51
180.0
  0
ARC
  5
917
100
AcDbEntity
  8
0
100
AcDbCircle
 62
7
  6
CONTINUOUS
 10
4.050925154
 20
8.5490613629
 40
0.0125
100
AcDbArc
 50
0.0
 51
89.9999910743
  0
ELLIPSE
  5
918
100
AcDbEntity
  8
0
100
AcDbEllipse
 62
7
  6
CONTINUOUS
 10
4.402175154
 20
6.4524671459
 30
0.0
 11
0.0
 21
0.8618181818
 31
0.0
 40
0.5527707984
 41
-2.5907352734
 42
-2.577243152
  0
ELLIPSE
  5
919
100
AcDbEntity
  8
0
100
AcDbEllipse
 62
7
  6
CONTINUOUS
 10
4.402175154
 20
6.4524671459
 30
0.0
 11
0.0
 21
0.8618181818
 31
0.0
 40
0.5527707984
 41
-3.7059421551
 42
-3.6924500333
  0
ELLIPSE
  5
91A
100
AcDbEntity
  8
0
100
AcDbEllipse
 62
7
  6
CONTINUOUS
 10
4.402175154
 20
5.0161035095
 30
0.0
 11
-0.0
 21
0.8618181818
 31
0.0
 40
0.5527707984
 41
-0.5643495016
 42
-0.5508573797
  0
ELLIPSE
  5
91B
100
AcDbEntity
  8
0
100
AcDbEllipse
 62
7
  6
CONTINUOUS
 10
4.402175154
 20
5.0161035095
 30
0.0
 11
0.0
 21
0.8618181818
 31
0.0
 40
0.5527707984
 41
0.5508573802
 42
0.5643495016
  0
ENDSEC
  0
SECTION
  2
OBJECTS
  0
DICTIONARY
  5
C
100
AcDbDictionary
280
0
281
1
  3
ACAD_GROUP
350
D
  3
ACAD_MLINESTYLE
350
17
  3
ACAD_LAYOUT
350
1A
  3
ACAD_PLOTSETTINGS
350
19
  3
ACAD_PLOTSTYLENAME
350
E
  0
DICTIONARY
  5
D
102
{ACAD_REACTORS
330
C
102
}
100
AcDbDictionary
280
0
281
1
  0
ACDBDICTIONARYWDFLT
  5
E
102
{ACAD_REACTORS
330
C
102
}
100
AcDbDictionary
281
1
  3
Normal
350
F
100
AcDbDictionaryWithDefault
340
F
  0
DICTIONARY
  5
17
102
{ACAD_REACTORS
330
C
102
}
100
AcDbDictionary
280
0
281
1
  3
Standard
350
18
  0
DICTIONARY
  5
19
102
{ACAD_REACTORS
330
C
102
}
100
AcDbDictionary
281
1
  0
DICTIONARY
  5
1A
102
{ACAD_REACTORS
330
C
102
}
100
AcDbDictionary
281
1
  3
Model
350
91C
  3
Layout1
350
91D
  0
ACDBPLACEHOLDER
  5
F
102
{ACAD_REACTORS
330
E
102
}
  0
MLINESTYLE
  5
18
102
{ACAD_REACTORS
330
17
102
}
100
AcDbMlineStyle
  2
STANDARD
 70
0
  3

 62
256
 51
90.0
 52
90.0
 71
2
 49
0.5
 62
256
  6
BYLAYER
 49
-0.5
 62
256
  6
BYLAYER
  0
LAYOUT
  5
91C
102
{ACAD_REACTORS
330
1A
102
}
100
AcDbPlotSettings
  1

  2
none_device
  4
ANSI_B_(17.00_x_11.00_Inches)
  6

 40
0.0
 41
0.0
 42
0.0
 43
0.0
 44
431.8
 45
279.4
 46
0.0
 47
0.0
 48
0.0
 49
0.0
140
0.0
141
0.0
142
1.0
143
1.0
 70
1024
 72
0
 73
0
 74
0
  7

 75
0
147
1.0
148
0.0
149
0.0
100
AcDbLayout
  1
Model
 70
0
 71
0
 10
0.0
 20
0.0
 11
17.0
 21
11.0
 12
0.0
 22
0.0
 32
0.0
 14
0.0
 24
0.0
 34
0.0
 15
0.0
 25
0.0
 35
0.0
146
0.0
 13
0.0
 23
0.0
 33
0.0
 16
1.0
 26
0.0
 36
0.0
 17
0.0
 27
1.0
 37
0.0
 76
0
330
22D
345
0
346
0
  0
LAYOUT
  5
91D
102
{ACAD_REACTORS
330
1A
102
}
100
AcDbPlotSettings
  1

  2
none_device
  4
ANSI_B_(17.00_x_11.00_Inches)
  6

 40
0.0
 41
0.0
 42
0.0
 43
0.0
 44
431.8
 45
279.4
 46
0.0
 47
0.0
 48
0.0
 49
0.0
140
0.0
141
0.0
142
1.0
143
1.0
 70
0
 72
0
 73
0
 74
0
  7

 75
0
147
1.0
148
0.0
149
0.0
100
AcDbLayout
  1
Layout1
 70
0
 71
1
 10
0.0
 20
0.0
 11
17.0
 21
11.0
 12
0.0
 22
0.0
 32
0.0
 14
0.0
 24
0.0
 34
0.0
 15
0.0
 25
0.0
 35
0.0
146
0.0
 13
0.0
 23
0.0
 33
0.0
 16
1.0
 26
0.0
 36
0.0
 17
0.0
 27
1.0
 37
0.0
 76
0
330
22E
345
0
346
0
  0
ENDSEC
  0
EOF
