999
DXF file: 155306_1.dxf
999
Pro/ENGINEER 2009141 by Parametric Technology Corporation
  0
SECTION
  2
HEADER
  9
$ACADVER
  1
AC1015
  9
$DWGCODEPAGE
  3
ANSI_1252
  9
$EXTMAX
 10
17.0
 20
11.0
 30
0.0
  9
$EXTMIN
 10
0.0
 20
0.0
 30
0.0
  9
$LIMMIN
 10
0.0
 20
0.0
  9
$LIMMAX
 10
17.0
 20
11.0
  9
$VIEWCTR
 10
8.5
 20
5.5
  9
$VIEWSIZE
 40
11.0
  9
$CLAYER
  8
0
  9
$LTSCALE
 40
0.935
  9
$CELTYPE
  6
BYLAYER
  9
$DIMSCALE
 40
1.0
  9
$DIMASZ
 40
0.1875
  9
$DIMEXO
 40
0.10625
  9
$DIMDLI
 40
0.646
  9
$DIMEXE
 40
0.306
  9
$DIMCEN
 40
0.153
  9
$DIMLFAC
 40
1.0
  9
$DIMBLK
  1
_FILLED
  9
$DIMTXT
 40
0.1
  9
$DIMTOL
 70
1
  9
$DIMLIM
 70
0
  9
$DIMTFAC
 40
1.0
  9
$DIMTP
 40
0.005
  9
$DIMTM
 40
0.005
  9
$PDMODE
 70
3
  9
$PDSIZE
 40
0.3125
  9
$HANDSEED
  5
8E3
  9
$TILEMODE
 70
1
  9
$MEASUREMENT
 70
0
  9
$INSUNITS
 70
1
  0
ENDSEC
  0
SECTION
  2
CLASSES
  0
CLASS
  1
ACDBDICTIONARYWDFLT
  2
AcDbDictionaryWithDefault
  3
AutoCAD 2000
 90
0
280
0
281
0
  0
CLASS
  1
ACDBPLACEHOLDER
  2
AcDbPlaceHolder
  3
AutoCAD 2000
 90
0
280
0
281
0
  0
CLASS
  1
LAYOUT
  2
AcDbLayout
  3
AutoCAD 2000
 90
0
280
0
281
0
  0
ENDSEC
  0
SECTION
  2
TABLES
  0
TABLE
  2
VPORT
  5
8
100
AcDbSymbolTable
 70
2
  0
VPORT
  5
1F4
100
AcDbSymbolTableRecord
100
AcDbViewportTableRecord
  2
*ACTIVE
 70
0
 10
0.0
 20
0.0
 11
1.0
 21
1.0
 12
8.5
 22
5.5
 13
0.0
 23
0.0
 14
1.0
 24
1.0
 15
0.0
 25
0.0
 16
0.0
 26
0.0
 36
1.0
 17
0.0
 27
0.0
 37
0.0
 40
11.0
 41
1.5454545455
 42
50.0
 43
0.0
 44
0.0
 50
0.0
 51
0.0
 71
0
 72
100
 73
1
 74
1
 75
0
 76
0
 77
0
 78
0
  0
ENDTAB
  0
TABLE
  2
LTYPE
  5
5
100
AcDbSymbolTable
 70
6
  0
LTYPE
  5
14
100
AcDbSymbolTableRecord
100
AcDbLinetypeTableRecord
  2
BYBLOCK
 70
0
  3

 72
65
 73
0
 40
0.0
  0
LTYPE
  5
15
100
AcDbSymbolTableRecord
100
AcDbLinetypeTableRecord
  2
BYLAYER
 70
0
  3

 72
65
 73
0
 40
0.0
  0
LTYPE
  5
16
100
AcDbSymbolTableRecord
100
AcDbLinetypeTableRecord
  2
CONTINUOUS
 70
64
  3
Solid line
 72
65
 73
0
 40
0.0
  0
LTYPE
  5
1F5
100
AcDbSymbolTableRecord
100
AcDbLinetypeTableRecord
  2
CENTER
 70
64
  3
____ _ ____ _ ____ _ ____ _ ____ _ ____ _ ____
 72
65
 73
4
 40
0.6
 49
0.375
 74
0
 49
-0.075
 74
0
 49
0.075
 74
0
 49
-0.075
 74
0
  0
LTYPE
  5
1F6
100
AcDbSymbolTableRecord
100
AcDbLinetypeTableRecord
  2
HIDDEN
 70
64
  3
- - - - - - - - - - - - - - - - - - - -
 72
65
 73
2
 40
0.2
 49
0.1
 74
0
 49
-0.1
 74
0
  0
LTYPE
  5
1F7
100
AcDbSymbolTableRecord
100
AcDbLinetypeTableRecord
  2
PHANTOM
 70
64
  3
_____ _ _ _____ _ _ _____ _ _ _____
 72
65
 73
6
 40
0.8
 49
0.45
 74
0
 49
-0.05
 74
0
 49
0.1
 74
0
 49
-0.05
 74
0
 49
0.1
 74
0
 49
-0.05
 74
0
  0
LTYPE
  5
1F8
100
AcDbSymbolTableRecord
100
AcDbLinetypeTableRecord
  2
DOT
 70
64
  3
. . . . . . . . . . . . . . . . . . . .
 72
65
 73
2
 40
0.2
 49
0.1
 74
0
 49
-0.1
 74
0
  0
LTYPE
  5
1F9
100
AcDbSymbolTableRecord
100
AcDbLinetypeTableRecord
  2
DASHED
 70
64
  3
- - - - - - - - - - - - - - - - - - - -
 72
65
 73
2
 40
0.2
 49
0.1
 74
0
 49
-0.1
 74
0
  0
ENDTAB
  0
TABLE
  2
LAYER
  5
2
100
AcDbSymbolTable
 70
36
  0
LAYER
  5
10
100
AcDbSymbolTableRecord
100
AcDbLayerTableRecord
  2
0
 70
0
 62
7
  6
CONTINUOUS
370
-3
390
F
  0
LAYER
  5
1FA
100
AcDbSymbolTableRecord
100
AcDbLayerTableRecord
  2
DEFAULT_1
 70
0
 62
7
  6
CENTER
370
-3
390
F
  0
LAYER
  5
1FB
100
AcDbSymbolTableRecord
100
AcDbLayerTableRecord
  2
DEFAULT_2
 70
0
 62
8
  6
HIDDEN
370
-3
390
F
  0
LAYER
  5
1FC
100
AcDbSymbolTableRecord
100
AcDbLayerTableRecord
  2
DEFAULT_3
 70
0
 62
7
  6
PHANTOM
370
-3
390
F
  0
LAYER
  5
1FD
100
AcDbSymbolTableRecord
100
AcDbLayerTableRecord
  2
1
 70
0
 62
7
  6
CONTINUOUS
370
-3
390
F
  0
LAYER
  5
1FE
100
AcDbSymbolTableRecord
100
AcDbLayerTableRecord
  2
10
 70
0
 62
7
  6
CONTINUOUS
370
-3
390
F
  0
LAYER
  5
1FF
100
AcDbSymbolTableRecord
100
AcDbLayerTableRecord
  2
11
 70
0
 62
7
  6
CONTINUOUS
370
-3
390
F
  0
LAYER
  5
200
100
AcDbSymbolTableRecord
100
AcDbLayerTableRecord
  2
12
 70
0
 62
7
  6
CONTINUOUS
370
-3
390
F
  0
LAYER
  5
201
100
AcDbSymbolTableRecord
100
AcDbLayerTableRecord
  2
13
 70
0
 62
7
  6
CONTINUOUS
370
-3
390
F
  0
LAYER
  5
202
100
AcDbSymbolTableRecord
100
AcDbLayerTableRecord
  2
14
 70
0
 62
7
  6
CONTINUOUS
370
-3
390
F
  0
LAYER
  5
203
100
AcDbSymbolTableRecord
100
AcDbLayerTableRecord
  2
15
 70
0
 62
7
  6
CONTINUOUS
370
-3
390
F
  0
LAYER
  5
204
100
AcDbSymbolTableRecord
100
AcDbLayerTableRecord
  2
16
 70
0
 62
7
  6
CONTINUOUS
370
-3
390
F
  0
LAYER
  5
205
100
AcDbSymbolTableRecord
100
AcDbLayerTableRecord
  2
17
 70
0
 62
7
  6
CONTINUOUS
370
-3
390
F
  0
LAYER
  5
206
100
AcDbSymbolTableRecord
100
AcDbLayerTableRecord
  2
18
 70
0
 62
7
  6
CONTINUOUS
370
-3
390
F
  0
LAYER
  5
207
100
AcDbSymbolTableRecord
100
AcDbLayerTableRecord
  2
19
 70
0
 62
7
  6
CONTINUOUS
370
-3
390
F
  0
LAYER
  5
208
100
AcDbSymbolTableRecord
100
AcDbLayerTableRecord
  2
2
 70
0
 62
7
  6
CONTINUOUS
370
-3
390
F
  0
LAYER
  5
209
100
AcDbSymbolTableRecord
100
AcDbLayerTableRecord
  2
20
 70
0
 62
7
  6
CONTINUOUS
370
-3
390
F
  0
LAYER
  5
20A
100
AcDbSymbolTableRecord
100
AcDbLayerTableRecord
  2
21
 70
0
 62
7
  6
CONTINUOUS
370
-3
390
F
  0
LAYER
  5
20B
100
AcDbSymbolTableRecord
100
AcDbLayerTableRecord
  2
22
 70
0
 62
7
  6
CONTINUOUS
370
-3
390
F
  0
LAYER
  5
20C
100
AcDbSymbolTableRecord
100
AcDbLayerTableRecord
  2
23
 70
0
 62
7
  6
CONTINUOUS
370
-3
390
F
  0
LAYER
  5
20D
100
AcDbSymbolTableRecord
100
AcDbLayerTableRecord
  2
24
 70
0
 62
7
  6
CONTINUOUS
370
-3
390
F
  0
LAYER
  5
20E
100
AcDbSymbolTableRecord
100
AcDbLayerTableRecord
  2
25
 70
0
 62
7
  6
CONTINUOUS
370
-3
390
F
  0
LAYER
  5
20F
100
AcDbSymbolTableRecord
100
AcDbLayerTableRecord
  2
26
 70
0
 62
7
  6
CONTINUOUS
370
-3
390
F
  0
LAYER
  5
210
100
AcDbSymbolTableRecord
100
AcDbLayerTableRecord
  2
27
 70
0
 62
7
  6
CONTINUOUS
370
-3
390
F
  0
LAYER
  5
211
100
AcDbSymbolTableRecord
100
AcDbLayerTableRecord
  2
28
 70
0
 62
7
  6
CONTINUOUS
370
-3
390
F
  0
LAYER
  5
212
100
AcDbSymbolTableRecord
100
AcDbLayerTableRecord
  2
29
 70
0
 62
7
  6
CONTINUOUS
370
-3
390
F
  0
LAYER
  5
213
100
AcDbSymbolTableRecord
100
AcDbLayerTableRecord
  2
3
 70
0
 62
7
  6
CONTINUOUS
370
-3
390
F
  0
LAYER
  5
214
100
AcDbSymbolTableRecord
100
AcDbLayerTableRecord
  2
30
 70
0
 62
7
  6
CONTINUOUS
370
-3
390
F
  0
LAYER
  5
215
100
AcDbSymbolTableRecord
100
AcDbLayerTableRecord
  2
31
 70
0
 62
7
  6
CONTINUOUS
370
-3
390
F
  0
LAYER
  5
216
100
AcDbSymbolTableRecord
100
AcDbLayerTableRecord
  2
32
 70
0
 62
7
  6
CONTINUOUS
370
-3
390
F
  0
LAYER
  5
217
100
AcDbSymbolTableRecord
100
AcDbLayerTableRecord
  2
4
 70
0
 62
7
  6
CONTINUOUS
370
-3
390
F
  0
LAYER
  5
218
100
AcDbSymbolTableRecord
100
AcDbLayerTableRecord
  2
5
 70
0
 62
7
  6
CONTINUOUS
370
-3
390
F
  0
LAYER
  5
219
100
AcDbSymbolTableRecord
100
AcDbLayerTableRecord
  2
6
 70
0
 62
7
  6
CONTINUOUS
370
-3
390
F
  0
LAYER
  5
21A
100
AcDbSymbolTableRecord
100
AcDbLayerTableRecord
  2
7
 70
0
 62
7
  6
CONTINUOUS
370
-3
390
F
  0
LAYER
  5
21B
100
AcDbSymbolTableRecord
100
AcDbLayerTableRecord
  2
8
 70
0
 62
7
  6
CONTINUOUS
370
-3
390
F
  0
LAYER
  5
21C
100
AcDbSymbolTableRecord
100
AcDbLayerTableRecord
  2
9
 70
0
 62
7
  6
CONTINUOUS
370
-3
390
F
  0
LAYER
  5
21D
100
AcDbSymbolTableRecord
100
AcDbLayerTableRecord
  2
AXIS
 70
0
 62
7
  6
CONTINUOUS
370
-3
390
F
  0
LAYER
  5
21E
100
AcDbSymbolTableRecord
100
AcDbLayerTableRecord
  2
AXIS_COSMETIC_THREADS
 70
0
 62
7
  6
CONTINUOUS
370
-3
390
F
  0
LAYER
  5
21F
100
AcDbSymbolTableRecord
100
AcDbLayerTableRecord
  2
DATUM_CURVES
 70
0
 62
7
  6
CONTINUOUS
370
-3
390
F
  0
LAYER
  5
220
100
AcDbSymbolTableRecord
100
AcDbLayerTableRecord
  2
DATUM_PLANES
 70
0
 62
7
  6
CONTINUOUS
370
-3
390
F
  0
LAYER
  5
221
100
AcDbSymbolTableRecord
100
AcDbLayerTableRecord
  2
MATTE_OUTLINE
 70
0
 62
7
  6
CONTINUOUS
370
-3
390
F
  0
LAYER
  5
222
100
AcDbSymbolTableRecord
100
AcDbLayerTableRecord
  2
NOTES
 70
0
 62
7
  6
CONTINUOUS
370
-3
390
F
  0
LAYER
  5
223
100
AcDbSymbolTableRecord
100
AcDbLayerTableRecord
  2
QUILTS
 70
0
 62
7
  6
CONTINUOUS
370
-3
390
F
  0
LAYER
  5
224
100
AcDbSymbolTableRecord
100
AcDbLayerTableRecord
  2
SCHEME_DIMS
 70
0
 62
7
  6
CONTINUOUS
370
-3
390
F
  0
LAYER
  5
225
100
AcDbSymbolTableRecord
100
AcDbLayerTableRecord
  2
SYMBOLS
 70
0
 62
7
  6
CONTINUOUS
370
-3
390
F
  0
LAYER
  5
226
100
AcDbSymbolTableRecord
100
AcDbLayerTableRecord
  2
XSEC_DATUMS
 70
0
 62
7
  6
CONTINUOUS
370
-3
390
F
  0
ENDTAB
  0
TABLE
  2
STYLE
  5
3
100
AcDbSymbolTable
 70
1
  0
STYLE
  5
11
100
AcDbSymbolTableRecord
100
AcDbTextStyleTableRecord
  2
STANDARD
 70
0
 40
0.0
 41
1.0
 50
0.0
 71
0
 42
0.2
  3
txt
  4

  0
STYLE
  5
227
100
AcDbSymbolTableRecord
100
AcDbTextStyleTableRecord
  2
TEXTSTYLE_1
 70
0
 40
0.0
 41
0.8
 50
0.0
 71
0
 42
0.2
  3
gdt
  4

  0
STYLE
  5
228
100
AcDbSymbolTableRecord
100
AcDbTextStyleTableRecord
  2
TEXTSTYLE_2
 70
0
 40
0.0
 41
0.8
 50
0.0
 71
0
 42
0.2
  3
txt
  4

  0
STYLE
  5
229
100
AcDbSymbolTableRecord
100
AcDbTextStyleTableRecord
  2
TEXTSTYLE_3
 70
0
 40
0.0
 41
0.85
 50
0.0
 71
0
 42
0.2
  3
txt
  4

  0
STYLE
  5
22A
100
AcDbSymbolTableRecord
100
AcDbTextStyleTableRecord
  2
TEXTSTYLE_4
 70
0
 40
0.0
 41
0.92
 50
0.0
 71
0
 42
0.2
  3
txt
  4

  0
STYLE
  5
22B
100
AcDbSymbolTableRecord
100
AcDbTextStyleTableRecord
  2
TEXTSTYLE_5
 70
0
 40
0.0
 41
1.0
 50
0.0
 71
0
 42
0.2
  3
gdt
  4

  0
ENDTAB
  0
TABLE
  2
VIEW
  5
6
100
AcDbSymbolTable
 70
0
  0
ENDTAB
  0
TABLE
  2
UCS
  5
7
100
AcDbSymbolTable
 70
0
  0
ENDTAB
  0
TABLE
  2
APPID
  5
9
100
AcDbSymbolTable
 70
1
  0
APPID
  5
22C
100
AcDbSymbolTableRecord
100
AcDbRegAppTableRecord
  2
ACAD
 70
0
  0
ENDTAB
  0
TABLE
  2
BLOCK_RECORD
  5
1
100
AcDbSymbolTable
 70
0
  0
BLOCK_RECORD
  5
22D
100
AcDbSymbolTableRecord
100
AcDbBlockTableRecord
  2
*Model_Space
  0
BLOCK_RECORD
  5
22E
100
AcDbSymbolTableRecord
100
AcDbBlockTableRecord
  2
*Paper_Space
  0
BLOCK_RECORD
  5
22F
100
AcDbSymbolTableRecord
100
AcDbBlockTableRecord
  2
_FILLED
  0
BLOCK_RECORD
  5
230
100
AcDbSymbolTableRecord
100
AcDbBlockTableRecord
  2
*D0
  0
BLOCK_RECORD
  5
231
100
AcDbSymbolTableRecord
100
AcDbBlockTableRecord
  2
*D1
  0
BLOCK_RECORD
  5
232
100
AcDbSymbolTableRecord
100
AcDbBlockTableRecord
  2
*D2
  0
BLOCK_RECORD
  5
233
100
AcDbSymbolTableRecord
100
AcDbBlockTableRecord
  2
*D3
  0
BLOCK_RECORD
  5
234
100
AcDbSymbolTableRecord
100
AcDbBlockTableRecord
  2
*D4
  0
BLOCK_RECORD
  5
235
100
AcDbSymbolTableRecord
100
AcDbBlockTableRecord
  2
BANNER_LOGO_TITLEBLOCK_BL0
  0
ENDTAB
  0
TABLE
  2
DIMSTYLE
  5
A
100
AcDbSymbolTable
 70
1
100
AcDbDimStyleTable
 71
0
  0
DIMSTYLE
105
236
100
AcDbSymbolTableRecord
100
AcDbDimStyleTableRecord
  2
STANDARD
 70
0
  3

  4

 40
1.0
 41
0.1875
 42
0.0625
 43
0.38
 44
0.18
 45
0.0
 46
0.0
 47
0.005
 48
0.005
140
0.1
141
0.09
142
0.0
143
25.4
144
1.0
145
0.0
146
1.0
147
0.09
 71
1.0
 72
0.0
 73
1
 74
1
 75
0
 76
0
 77
0
 78
4
170
0
171
2
172
0
173
0
174
0
175
0
176
0
177
0
178
0
270
2
271
3
272
3
273
2
274
2
275
0
280
0
281
0
282
0
283
1
284
4
285
0
286
0
287
3
288
0
340
11
341
22F
342
22F
343
22F
344
22F
  0
DIMSTYLE
105
237
100
AcDbSymbolTableRecord
100
AcDbDimStyleTableRecord
  2
DIMSTYLE_1
 70
0
  3

  4

 40
1.0
 41
0.1875
 42
0.0625
 43
0.38
 44
0.18
 45
0.0
 46
0.0
 47
0.1
 48
0.1
140
0.1
141
0.09
142
0.0
143
25.4
144
1.0
145
0.0
146
1.0
147
0.09
 71
0.0
 72
0.0
 73
1
 74
1
 75
0
 76
0
 77
0
 78
4
170
0
171
2
172
0
173
0
174
0
175
0
176
0
177
0
178
0
270
2
271
1
272
1
273
2
274
2
275
0
280
0
281
0
282
0
283
1
284
4
285
0
286
0
287
3
288
0
340
11
341
22F
342
22F
343
22F
344
22F
  0
ENDTAB
  0
ENDSEC
  0
SECTION
  2
BLOCKS
  0
BLOCK
  5
20
100
AcDbEntity
  8
0
100
AcDbBlockBegin
  2
*Model_Space
 70
0
 10
0.0
 20
0.0
 30
0.0
  3
*Model_Space
  1

  0
ENDBLK
  5
21
100
AcDbEntity
  8
0
100
AcDbBlockEnd
  0
BLOCK
  5
1C
100
AcDbEntity
  8
0
100
AcDbBlockBegin
  2
*Paper_Space
 70
0
 10
0.0
 20
0.0
 30
0.0
  3
*Paper_Space
  1

  0
ENDBLK
  5
1D
100
AcDbEntity
  8
0
100
AcDbBlockEnd
  0
BLOCK
  5
238
100
AcDbEntity
  8
0
100
AcDbBlockBegin
 62
2
  6
CONTINUOUS
  2
BANNER_LOGO_TITLEBLOCK_BL0
 70
64
 10
12.9086867042
 20
2.5403783405
  3
BANNER_LOGO_TITLEBLOCK_BL0
  1

  0
ELLIPSE
  5
239
100
AcDbEntity
  8
0
100
AcDbEllipse
 62
2
  6
CONTINUOUS
 10
12.9046654608
 20
2.5403783405
 30
0.0
 11
-0.8250004575
 21
0.0
 31
0.0
 40
0.218572
 41
0.0
 42
6.2831853072
  0
ARC
  5
23A
100
AcDbEntity
  8
0
100
AcDbCircle
 62
2
  6
CONTINUOUS
 10
12.400005721
 20
2.5168763464
 40
0.0153945295
100
AcDbArc
 50
354.0454548824
 51
5.1878013979
  0
ARC
  5
23B
100
AcDbEntity
  8
0
100
AcDbCircle
 62
2
  6
CONTINUOUS
 10
12.3931760319
 20
2.5166878286
 40
0.0222174455
100
AcDbArc
 50
4.0793399388
 51
69.834329283
  0
LINE
  5
23C
100
AcDbEntity
  8
0
100
AcDbLine
 62
2
  6
CONTINUOUS
 10
12.4008351814
 20
2.5375433389
 11
12.3907841758
 21
2.5410923409
  0
LINE
  5
23D
100
AcDbEntity
  8
0
100
AcDbLine
 62
2
  6
CONTINUOUS
 10
12.3907841758
 20
2.5410923409
 11
12.3990241804
 21
2.5458683435
  0
ARC
  5
23E
100
AcDbEntity
  8
0
100
AcDbCircle
 62
2
  6
CONTINUOUS
 10
12.3771587979
 20
2.5826952352
 40
0.0428289026
100
AcDbArc
 50
300.6990502959
 51
319.0591802498
  0
ARC
  5
23F
100
AcDbEntity
  8
0
100
AcDbCircle
 62
2
  6
CONTINUOUS
 10
12.3971873948
 20
2.5665668817
 40
0.0171568255
100
AcDbArc
 50
315.9145124245
 51
16.0049121282
  0
ARC
  5
240
100
AcDbEntity
  8
0
100
AcDbCircle
 62
2
  6
CONTINUOUS
 10
12.3922357827
 20
2.5632132173
 40
0.0229166529
100
AcDbArc
 50
20.6563876465
 51
62.3316896973
  0
ARC
  5
241
100
AcDbEntity
  8
0
100
AcDbCircle
 62
2
  6
CONTINUOUS
 10
12.371573659
 20
2.5302846524
 40
0.061747717
100
AcDbArc
 50
59.5385584989
 51
90.0050977555
  0
LINE
  5
242
100
AcDbEntity
  8
0
100
AcDbLine
 62
2
  6
CONTINUOUS
 10
12.3715681652
 20
2.5920323691
 11
12.2055050731
 21
2.5920323691
  0
ARC
  5
243
100
AcDbEntity
  8
0
100
AcDbCircle
 62
2
  6
CONTINUOUS
 10
12.2055050712
 20
2.5895573696
 40
0.0024749995
100
AcDbArc
 50
89.9999571957
 51
180.0000428043
  0
LINE
  5
244
100
AcDbEntity
  8
0
100
AcDbLine
 62
2
  6
CONTINUOUS
 10
12.2030300717
 20
2.5895573678
 11
12.2030300717
 21
2.5697573568
  0
ARC
  5
245
100
AcDbEntity
  8
0
100
AcDbCircle
 62
2
  6
CONTINUOUS
 10
12.2055050712
 20
2.5697573549
 40
0.0024749995
100
AcDbArc
 50
179.9999571957
 51
270.0000428043
  0
LINE
  5
246
100
AcDbEntity
  8
0
100
AcDbLine
 62
2
  6
CONTINUOUS
 10
12.2055050731
 20
2.5672823554
 11
12.2294470864
 21
2.5672823554
  0
ARC
  5
247
100
AcDbEntity
  8
0
100
AcDbCircle
 62
2
  6
CONTINUOUS
 10
12.2294470882
 20
2.5648073559
 40
0.0024749995
100
AcDbArc
 50
359.9999571957
 51
90.0000428043
  0
LINE
  5
248
100
AcDbEntity
  8
0
100
AcDbLine
 62
2
  6
CONTINUOUS
 10
12.2319220877
 20
2.564807354
 11
12.2319220877
 21
2.5184523283
  0
ARC
  5
249
100
AcDbEntity
  8
0
100
AcDbCircle
 62
2
  6
CONTINUOUS
 10
12.2294470882
 20
2.5184523265
 40
0.0024749995
100
AcDbArc
 50
269.9999571957
 51
0.0000428043
  0
LINE
  5
24A
100
AcDbEntity
  8
0
100
AcDbLine
 62
2
  6
CONTINUOUS
 10
12.2294470864
 20
2.515977327
 11
12.2055050731
 21
2.515977327
  0
ARC
  5
24B
100
AcDbEntity
  8
0
100
AcDbCircle
 62
2
  6
CONTINUOUS
 10
12.2055050712
 20
2.5135023274
 40
0.0024749995
100
AcDbArc
 50
89.9999571957
 51
180.0000428043
  0
LINE
  5
24C
100
AcDbEntity
  8
0
100
AcDbLine
 62
2
  6
CONTINUOUS
 10
12.2030300717
 20
2.5135023256
 11
12.2030300717
 21
2.4937023146
  0
ARC
  5
24D
100
AcDbEntity
  8
0
100
AcDbCircle
 62
2
  6
CONTINUOUS
 10
12.2055050712
 20
2.4937023128
 40
0.0024749995
100
AcDbArc
 50
179.9999571957
 51
270.0000428043
  0
LINE
  5
24E
100
AcDbEntity
  8
0
100
AcDbLine
 62
2
  6
CONTINUOUS
 10
12.2055050731
 20
2.4912273132
 11
12.3819511709
 21
2.4912273132
  0
ARC
  5
24F
100
AcDbEntity
  8
0
100
AcDbCircle
 62
2
  6
CONTINUOUS
 10
12.3792298263
 20
2.539634765
 40
0.048483885
100
AcDbArc
 50
273.21763719
 51
303.0749121182
  0
ARC
  5
250
100
AcDbEntity
  8
0
100
AcDbCircle
 62
2
  6
CONTINUOUS
 10
12.3940692204
 20
2.5168671561
 40
0.0213072145
100
AcDbArc
 50
303.0488228549
 51
355.7263138674
  0
LINE
  5
251
100
AcDbEntity
  8
0
100
AcDbLine
 62
2
  6
CONTINUOUS
 10
12.2949101227
 20
2.5499573458
 11
12.3362731456
 21
2.5499573458
  0
ARC
  5
252
100
AcDbEntity
  8
0
100
AcDbCircle
 62
2
  6
CONTINUOUS
 10
12.3362731456
 20
2.5586198506
 40
0.0086625048
100
AcDbArc
 50
270.0
 51
90.0
  0
LINE
  5
253
100
AcDbEntity
  8
0
100
AcDbLine
 62
2
  6
CONTINUOUS
 10
12.3362731456
 20
2.5672823554
 11
12.2949101227
 21
2.5672823554
  0
ARC
  5
254
100
AcDbEntity
  8
0
100
AcDbCircle
 62
2
  6
CONTINUOUS
 10
12.2949101208
 20
2.5648073559
 40
0.0024749995
100
AcDbArc
 50
89.9999571957
 51
180.0000428043
  0
LINE
  5
255
100
AcDbEntity
  8
0
100
AcDbLine
 62
2
  6
CONTINUOUS
 10
12.2924351213
 20
2.564807354
 11
12.2924351213
 21
2.5524323472
  0
ARC
  5
256
100
AcDbEntity
  8
0
100
AcDbCircle
 62
2
  6
CONTINUOUS
 10
12.2949101208
 20
2.5524323453
 40
0.0024749995
100
AcDbArc
 50
179.9999571957
 51
270.0000428043
  0
LINE
  5
257
100
AcDbEntity
  8
0
100
AcDbLine
 62
2
  6
CONTINUOUS
 10
12.2924351213
 20
2.5184523283
 11
12.2924351213
 21
2.5308273352
  0
ARC
  5
258
100
AcDbEntity
  8
0
100
AcDbCircle
 62
2
  6
CONTINUOUS
 10
12.2949101208
 20
2.530827337
 40
0.0024749995
100
AcDbArc
 50
89.9999571957
 51
180.0000428043
  0
LINE
  5
259
100
AcDbEntity
  8
0
100
AcDbLine
 62
2
  6
CONTINUOUS
 10
12.2949101227
 20
2.5333023366
 11
12.3362731456
 21
2.5333023366
  0
ARC
  5
25A
100
AcDbEntity
  8
0
100
AcDbCircle
 62
2
  6
CONTINUOUS
 10
12.3362731456
 20
2.5246398318
 40
0.0086625048
100
AcDbArc
 50
270.0
 51
90.0
  0
LINE
  5
25B
100
AcDbEntity
  8
0
100
AcDbLine
 62
2
  6
CONTINUOUS
 10
12.3362731456
 20
2.515977327
 11
12.2949101227
 21
2.515977327
  0
ARC
  5
25C
100
AcDbEntity
  8
0
100
AcDbCircle
 62
2
  6
CONTINUOUS
 10
12.2949101208
 20
2.5184523265
 40
0.0024749995
100
AcDbArc
 50
179.9999571957
 51
270.0000428043
  0
ARC
  5
25D
100
AcDbEntity
  8
0
100
AcDbCircle
 62
2
  6
CONTINUOUS
 10
13.5806801742
 20
2.5212486481
 40
0.044722495
100
AcDbArc
 50
195.531588407
 51
204.7624440448
  0
LINE
  5
25E
100
AcDbEntity
  8
0
100
AcDbLine
 62
2
  6
CONTINUOUS
 10
13.5375908118
 20
2.5092733232
 11
13.5357868108
 21
2.5153423266
  0
ARC
  5
25F
100
AcDbEntity
  8
0
100
AcDbCircle
 62
2
  6
CONTINUOUS
 10
13.4974076135
 20
2.5055452462
 40
0.0396099176
100
AcDbArc
 50
14.3201081283
 51
22.4984722084
  0
ARC
  5
260
100
AcDbEntity
  8
0
100
AcDbCircle
 62
2
  6
CONTINUOUS
 10
13.5201739219
 20
2.5145168728
 40
0.0151491919
100
AcDbArc
 50
24.098260853
 51
63.0369451818
  0
ARC
  5
261
100
AcDbEntity
  8
0
100
AcDbCircle
 62
2
  6
CONTINUOUS
 10
13.5161192671
 20
2.5062372524
 40
0.0243676582
100
AcDbArc
 50
63.3666028271
 51
90.3937697637
  0
LINE
  5
262
100
AcDbEntity
  8
0
100
AcDbLine
 62
2
  6
CONTINUOUS
 10
13.5159517998
 20
2.5306043351
 11
13.4883447845
 21
2.5306043351
  0
ARC
  5
263
100
AcDbEntity
  8
0
100
AcDbCircle
 62
2
  6
CONTINUOUS
 10
13.4883447827
 20
2.5281293355
 40
0.0024749995
100
AcDbArc
 50
89.9999571957
 51
180.0000428043
  0
LINE
  5
264
100
AcDbEntity
  8
0
100
AcDbLine
 62
2
  6
CONTINUOUS
 10
13.4858697831
 20
2.5281293337
 11
13.4858697831
 21
2.5184303283
  0
ARC
  5
265
100
AcDbEntity
  8
0
100
AcDbCircle
 62
2
  6
CONTINUOUS
 10
13.4883447827
 20
2.5184303265
 40
0.0024749995
100
AcDbArc
 50
179.9999571957
 51
270.0000428043
  0
LINE
  5
266
100
AcDbEntity
  8
0
100
AcDbLine
 62
2
  6
CONTINUOUS
 10
13.4883447845
 20
2.5159553269
 11
13.5130037982
 21
2.5159553269
  0
ARC
  5
267
100
AcDbEntity
  8
0
100
AcDbCircle
 62
2
  6
CONTINUOUS
 10
13.5130038
 20
2.5134803274
 40
0.0024749995
100
AcDbArc
 50
359.9999571957
 51
90.0000428043
  0
LINE
  5
268
100
AcDbEntity
  8
0
100
AcDbLine
 62
2
  6
CONTINUOUS
 10
13.5154787995
 20
2.5134803256
 11
13.5154787995
 21
2.4937023146
  0
ARC
  5
269
100
AcDbEntity
  8
0
100
AcDbCircle
 62
2
  6
CONTINUOUS
 10
13.5130038
 20
2.4937023128
 40
0.0024749995
100
AcDbArc
 50
269.9999571957
 51
0.0000428043
  0
LINE
  5
26A
100
AcDbEntity
  8
0
100
AcDbLine
 62
2
  6
CONTINUOUS
 10
13.5130037982
 20
2.4912273132
 11
13.3994327352
 21
2.4912273132
  0
ARC
  5
26B
100
AcDbEntity
  8
0
100
AcDbCircle
 62
2
  6
CONTINUOUS
 10
13.3994327333
 20
2.4937023128
 40
0.0024749995
100
AcDbArc
 50
179.9999571957
 51
270.0000428043
  0
LINE
  5
26C
100
AcDbEntity
  8
0
100
AcDbLine
 62
2
  6
CONTINUOUS
 10
13.3969577338
 20
2.4937023146
 11
13.3969577338
 21
2.5135023256
  0
ARC
  5
26D
100
AcDbEntity
  8
0
100
AcDbCircle
 62
2
  6
CONTINUOUS
 10
13.3994327333
 20
2.5135023274
 40
0.0024749995
100
AcDbArc
 50
89.9999571957
 51
180.0000428043
  0
LINE
  5
26E
100
AcDbEntity
  8
0
100
AcDbLine
 62
2
  6
CONTINUOUS
 10
13.3994327352
 20
2.515977327
 11
13.4221787478
 21
2.515977327
  0
ARC
  5
26F
100
AcDbEntity
  8
0
100
AcDbCircle
 62
2
  6
CONTINUOUS
 10
13.4221787497
 20
2.5184523265
 40
0.0024749995
100
AcDbArc
 50
269.9999571957
 51
0.0000428042
  0
LINE
  5
270
100
AcDbEntity
  8
0
100
AcDbLine
 62
2
  6
CONTINUOUS
 10
13.4246537492
 20
2.5184523283
 11
13.4246537492
 21
2.564807354
  0
ARC
  5
271
100
AcDbEntity
  8
0
100
AcDbCircle
 62
2
  6
CONTINUOUS
 10
13.4221787497
 20
2.5648073559
 40
0.0024749995
100
AcDbArc
 50
359.9999571957
 51
90.0000428043
  0
LINE
  5
272
100
AcDbEntity
  8
0
100
AcDbLine
 62
2
  6
CONTINUOUS
 10
13.4221787478
 20
2.5672823554
 11
13.3994327352
 21
2.5672823554
  0
ARC
  5
273
100
AcDbEntity
  8
0
100
AcDbCircle
 62
2
  6
CONTINUOUS
 10
13.3994327333
 20
2.5697573549
 40
0.0024749995
100
AcDbArc
 50
179.9999571957
 51
270.0000428043
  0
LINE
  5
274
100
AcDbEntity
  8
0
100
AcDbLine
 62
2
  6
CONTINUOUS
 10
13.3969577338
 20
2.5697573568
 11
13.3969577338
 21
2.5895573678
  0
ARC
  5
275
100
AcDbEntity
  8
0
100
AcDbCircle
 62
2
  6
CONTINUOUS
 10
13.3994327333
 20
2.5895573696
 40
0.0024749995
100
AcDbArc
 50
89.9999571957
 51
180.0000428043
  0
LINE
  5
276
100
AcDbEntity
  8
0
100
AcDbLine
 62
2
  6
CONTINUOUS
 10
13.3994327352
 20
2.5920323691
 11
13.5490138181
 21
2.5920323691
  0
ARC
  5
277
100
AcDbEntity
  8
0
100
AcDbCircle
 62
2
  6
CONTINUOUS
 10
13.5463505148
 20
2.4094934586
 40
0.1825583387
100
AcDbArc
 50
79.8618509324
 51
89.1640948679
  0
ARC
  5
278
100
AcDbEntity
  8
0
100
AcDbCircle
 62
2
  6
CONTINUOUS
 10
13.5726548052
 20
2.5503169747
 40
0.039319019
100
AcDbArc
 50
59.1202086415
 51
81.4730239328
  0
ARC
  5
279
100
AcDbEntity
  8
0
100
AcDbCircle
 62
2
  6
CONTINUOUS
 10
13.5783142014
 20
2.5566516438
 40
0.0310192946
100
AcDbArc
 50
34.7540871
 51
62.0879016178
  0
ARC
  5
27A
100
AcDbEntity
  8
0
100
AcDbCircle
 62
2
  6
CONTINUOUS
 10
13.5900029525
 20
2.565201245
 40
0.0165459396
100
AcDbArc
 50
1.548452892
 51
33.5033152417
  0
ARC
  5
27B
100
AcDbEntity
  8
0
100
AcDbCircle
 62
2
  6
CONTINUOUS
 10
13.5932995477
 20
2.5653696972
 40
0.0132462337
100
AcDbArc
 50
331.1510006998
 51
1.205404301
  0
ARC
  5
27C
100
AcDbEntity
  8
0
100
AcDbCircle
 62
2
  6
CONTINUOUS
 10
13.5822888914
 20
2.5720482849
 40
0.0261183659
100
AcDbArc
 50
305.6373831893
 51
329.9727629745
  0
ARC
  5
27D
100
AcDbEntity
  8
0
100
AcDbCircle
 62
2
  6
CONTINUOUS
 10
13.5519569538
 20
2.6152551345
 40
0.0789082104
100
AcDbArc
 50
292.906155071
 51
305.2574666259
  0
ARC
  5
27E
100
AcDbEntity
  8
0
100
AcDbCircle
 62
2
  6
CONTINUOUS
 10
13.5282557878
 20
2.4386010294
 40
0.117346916
100
AcDbArc
 50
58.614769177
 51
62.3737227606
  0
ARC
  5
27F
100
AcDbEntity
  8
0
100
AcDbCircle
 62
2
  6
CONTINUOUS
 10
13.5761387404
 20
2.5167282896
 40
0.0257145923
100
AcDbArc
 50
39.3804255939
 51
59.0361096173
  0
ARC
  5
280
100
AcDbEntity
  8
0
100
AcDbCircle
 62
2
  6
CONTINUOUS
 10
13.5750183849
 20
2.5166552064
 40
0.0266349791
100
AcDbArc
 50
20.3630922153
 51
37.9727053099
  0
ARC
  5
281
100
AcDbEntity
  8
0
100
AcDbCircle
 62
2
  6
CONTINUOUS
 10
13.5571178432
 20
2.509473798
 40
0.0459185159
100
AcDbArc
 50
15.6740290068
 51
20.9917271228
  0
ARC
  5
282
100
AcDbEntity
  8
0
100
AcDbCircle
 62
2
  6
CONTINUOUS
 10
13.6156881783
 20
2.525116781
 40
0.0147197649
100
AcDbArc
 50
192.7054516565
 51
206.0594861022
  0
ARC
  5
283
100
AcDbEntity
  8
0
100
AcDbCircle
 62
2
  6
CONTINUOUS
 10
13.6071938412
 20
2.5209082945
 40
0.0052403997
100
AcDbArc
 50
205.5232099488
 51
227.5054868079
  0
ARC
  5
284
100
AcDbEntity
  8
0
100
AcDbCircle
 62
2
  6
CONTINUOUS
 10
13.6054655419
 20
2.5190929218
 40
0.0027347709
100
AcDbArc
 50
228.5117626737
 51
266.1485845754
  0
LINE
  5
285
100
AcDbEntity
  8
0
100
AcDbLine
 62
2
  6
CONTINUOUS
 10
13.6052818493
 20
2.5163643272
 11
13.60639085
 21
2.5163643272
  0
ARC
  5
286
100
AcDbEntity
  8
0
100
AcDbCircle
 62
2
  6
CONTINUOUS
 10
13.6063292954
 20
2.5296129864
 40
0.0132488022
100
AcDbArc
 50
270.266200055
 51
281.2404888597
  0
ARC
  5
287
100
AcDbEntity
  8
0
100
AcDbCircle
 62
2
  6
CONTINUOUS
 10
13.6075235364
 20
2.5238762928
 40
0.0073895522
100
AcDbArc
 50
280.8288201977
 51
305.0837508495
  0
ARC
  5
288
100
AcDbEntity
  8
0
100
AcDbCircle
 62
2
  6
CONTINUOUS
 10
13.607924718
 20
2.5230254464
 40
0.0064647042
100
AcDbArc
 50
306.5086174083
 51
340.2162360092
  0
ARC
  5
289
100
AcDbEntity
  8
0
100
AcDbCircle
 62
2
  6
CONTINUOUS
 10
13.6027235414
 20
2.524769508
 40
0.0119498009
100
AcDbArc
 50
340.7883861657
 51
1.1691452593
  0
LINE
  5
28A
100
AcDbEntity
  8
0
100
AcDbLine
 62
2
  6
CONTINUOUS
 10
13.6146708546
 20
2.525013332
 11
13.6146708546
 21
2.5276393334
  0
ARC
  5
28B
100
AcDbEntity
  8
0
100
AcDbCircle
 62
2
  6
CONTINUOUS
 10
13.6171458541
 20
2.5276393353
 40
0.0024749995
100
AcDbArc
 50
89.9999571957
 51
180.0000428043
  0
LINE
  5
28C
100
AcDbEntity
  8
0
100
AcDbLine
 62
2
  6
CONTINUOUS
 10
13.6171458559
 20
2.5301143348
 11
13.6292558626
 21
2.5301143348
  0
ARC
  5
28D
100
AcDbEntity
  8
0
100
AcDbCircle
 62
2
  6
CONTINUOUS
 10
13.6292558645
 20
2.5276393353
 40
0.0024749995
100
AcDbArc
 50
359.9999571957
 51
90.0000428043
  0
LINE
  5
28E
100
AcDbEntity
  8
0
100
AcDbLine
 62
2
  6
CONTINUOUS
 10
13.631730864
 20
2.5276393334
 11
13.631730864
 21
2.516087327
  0
ARC
  5
28F
100
AcDbEntity
  8
0
100
AcDbCircle
 62
2
  6
CONTINUOUS
 10
13.6141751675
 20
2.5161916447
 40
0.0175560065
100
AcDbArc
 50
332.2279060967
 51
359.6595469939
  0
ARC
  5
290
100
AcDbEntity
  8
0
100
AcDbCircle
 62
2
  6
CONTINUOUS
 10
13.6048681567
 20
2.5210861501
 40
0.0280715479
100
AcDbArc
 50
308.5071794988
 51
332.2400656899
  0
ARC
  5
291
100
AcDbEntity
  8
0
100
AcDbCircle
 62
2
  6
CONTINUOUS
 10
13.5978759713
 20
2.5286873679
 40
0.0383802683
100
AcDbArc
 50
288.7656836787
 51
309.6104317088
  0
ARC
  5
292
100
AcDbEntity
  8
0
100
AcDbCircle
 62
2
  6
CONTINUOUS
 10
13.6036139387
 20
2.5111006186
 40
0.0198837666
100
AcDbArc
 50
271.8586572978
 51
289.4131338543
  0
LINE
  5
293
100
AcDbEntity
  8
0
100
AcDbLine
 62
2
  6
CONTINUOUS
 10
13.6042588488
 20
2.4912273132
 11
13.5568948225
 21
2.4912273132
  0
ARC
  5
294
100
AcDbEntity
  8
0
100
AcDbCircle
 62
2
  6
CONTINUOUS
 10
13.5577001432
 20
2.5085494649
 40
0.0173408616
100
AcDbArc
 50
232.4713476722
 51
267.338189944
  0
ARC
  5
295
100
AcDbEntity
  8
0
100
AcDbCircle
 62
2
  6
CONTINUOUS
 10
13.5607987082
 20
2.5143997688
 40
0.0238935861
100
AcDbArc
 50
209.8247607259
 51
235.1255079367
  0
ARC
  5
296
100
AcDbEntity
  8
0
100
AcDbCircle
 62
2
  6
CONTINUOUS
 10
13.5295131508
 20
2.5629115009
 40
0.0110815393
100
AcDbArc
 50
306.758405961
 51
320.4502234234
  0
ARC
  5
297
100
AcDbEntity
  8
0
100
AcDbCircle
 62
2
  6
CONTINUOUS
 10
13.5238839599
 20
2.5706523294
 40
0.0206523367
100
AcDbArc
 50
289.6883413472
 51
306.4184925496
  0
ARC
  5
298
100
AcDbEntity
  8
0
100
AcDbCircle
 62
2
  6
CONTINUOUS
 10
13.5219564542
 20
2.5750459767
 40
0.0254407115
100
AcDbArc
 50
270.7327484175
 51
290.441894219
  0
LINE
  5
299
100
AcDbEntity
  8
0
100
AcDbLine
 62
2
  6
CONTINUOUS
 10
13.5222818033
 20
2.5496073456
 11
13.4883447845
 21
2.5496073456
  0
ARC
  5
29A
100
AcDbEntity
  8
0
100
AcDbCircle
 62
2
  6
CONTINUOUS
 10
13.4883447827
 20
2.5520823451
 40
0.0024749995
100
AcDbArc
 50
179.9999571957
 51
270.0000428043
  0
LINE
  5
29B
100
AcDbEntity
  8
0
100
AcDbLine
 62
2
  6
CONTINUOUS
 10
13.4858697831
 20
2.552082347
 11
13.4858697831
 21
2.564807354
  0
ARC
  5
29C
100
AcDbEntity
  8
0
100
AcDbCircle
 62
2
  6
CONTINUOUS
 10
13.4883447827
 20
2.5648073559
 40
0.0024749995
100
AcDbArc
 50
89.9999571957
 51
180.0000428043
  0
LINE
  5
29D
100
AcDbEntity
  8
0
100
AcDbLine
 62
2
  6
CONTINUOUS
 10
13.4883447845
 20
2.5672823554
 11
13.5251458049
 21
2.5672823554
  0
ARC
  5
29E
100
AcDbEntity
  8
0
100
AcDbCircle
 62
2
  6
CONTINUOUS
 10
13.5236009174
 20
2.5388278764
 40
0.0284963867
100
AcDbArc
 50
70.3834917948
 51
86.8922743861
  0
ARC
  5
29F
100
AcDbEntity
  8
0
100
AcDbCircle
 62
2
  6
CONTINUOUS
 10
13.5284605274
 20
2.5518696094
 40
0.0145814632
100
AcDbArc
 50
54.6746025112
 51
71.1660573124
  0
ARC
  5
2A0
100
AcDbEntity
  8
0
100
AcDbCircle
 62
2
  6
CONTINUOUS
 10
13.5335900184
 20
2.5587235346
 40
0.0060275915
100
AcDbArc
 50
20.9055592135
 51
56.7851676243
  0
ARC
  5
2A1
100
AcDbEntity
  8
0
100
AcDbCircle
 62
2
  6
CONTINUOUS
 10
13.5348905773
 20
2.5593838168
 40
0.0045795888
100
AcDbArc
 50
355.6235353944
 51
18.9942678268
  0
ARC
  5
2A2
100
AcDbEntity
  8
0
100
AcDbCircle
 62
2
  6
CONTINUOUS
 10
13.533683767
 20
2.559677593
 40
0.0058087709
100
AcDbArc
 50
318.8515287446
 51
353.6422345323
  0
LINE
  5
2A3
100
AcDbEntity
  8
0
100
AcDbLine
 62
2
  6
CONTINUOUS
 10
12.672340332
 20
2.5920323691
 11
12.7727983877
 21
2.5920323691
  0
ARC
  5
2A4
100
AcDbEntity
  8
0
100
AcDbCircle
 62
2
  6
CONTINUOUS
 10
12.7727985224
 20
2.5895582013
 40
0.0024741678
100
AcDbArc
 50
46.3477981899
 51
90.0031206038
  0
LINE
  5
2A5
100
AcDbEntity
  8
0
100
AcDbLine
 62
2
  6
CONTINUOUS
 10
12.7745063886
 20
2.5913483688
 11
12.8345394219
 21
2.534068337
  0
ARC
  5
2A6
100
AcDbEntity
  8
0
100
AcDbCircle
 62
2
  6
CONTINUOUS
 10
12.8362481229
 20
2.5358592748
 40
0.0024753014
100
AcDbArc
 50
226.3461263059
 51
0.0014637321
  0
LINE
  5
2A7
100
AcDbEntity
  8
0
100
AcDbLine
 62
2
  6
CONTINUOUS
 10
12.8387234242
 20
2.535859338
 11
12.8387234242
 21
2.564807354
  0
ARC
  5
2A8
100
AcDbEntity
  8
0
100
AcDbCircle
 62
2
  6
CONTINUOUS
 10
12.8362484247
 20
2.5648073559
 40
0.0024749995
100
AcDbArc
 50
359.9999571957
 51
90.0000428043
  0
LINE
  5
2A9
100
AcDbEntity
  8
0
100
AcDbLine
 62
2
  6
CONTINUOUS
 10
12.8362484229
 20
2.5672823554
 11
12.8174724125
 21
2.5672823554
  0
ARC
  5
2AA
100
AcDbEntity
  8
0
100
AcDbCircle
 62
2
  6
CONTINUOUS
 10
12.8174724106
 20
2.5697573549
 40
0.0024749995
100
AcDbArc
 50
179.9999571957
 51
270.0000428043
  0
LINE
  5
2AB
100
AcDbEntity
  8
0
100
AcDbLine
 62
2
  6
CONTINUOUS
 10
12.8149974111
 20
2.5697573568
 11
12.8149974111
 21
2.5895573678
  0
ARC
  5
2AC
100
AcDbEntity
  8
0
100
AcDbCircle
 62
2
  6
CONTINUOUS
 10
12.8174724106
 20
2.5895573696
 40
0.0024749995
100
AcDbArc
 50
89.9999571957
 51
180.0000428043
  0
LINE
  5
2AD
100
AcDbEntity
  8
0
100
AcDbLine
 62
2
  6
CONTINUOUS
 10
12.8174724125
 20
2.5920323691
 11
12.8914734535
 21
2.5920323691
  0
ARC
  5
2AE
100
AcDbEntity
  8
0
100
AcDbCircle
 62
2
  6
CONTINUOUS
 10
12.8914734553
 20
2.5895573696
 40
0.0024749995
100
AcDbArc
 50
359.9999571957
 51
90.0000428043
  0
LINE
  5
2AF
100
AcDbEntity
  8
0
100
AcDbLine
 62
2
  6
CONTINUOUS
 10
12.8939484549
 20
2.5895573678
 11
12.8939484549
 21
2.5697573568
  0
ARC
  5
2B0
100
AcDbEntity
  8
0
100
AcDbCircle
 62
2
  6
CONTINUOUS
 10
12.8914734553
 20
2.5697573549
 40
0.0024749995
100
AcDbArc
 50
269.9999571957
 51
0.0000428043
  0
LINE
  5
2B1
100
AcDbEntity
  8
0
100
AcDbLine
 62
2
  6
CONTINUOUS
 10
12.8914734535
 20
2.5672823554
 11
12.8735404436
 21
2.5672823554
  0
ARC
  5
2B2
100
AcDbEntity
  8
0
100
AcDbCircle
 62
2
  6
CONTINUOUS
 10
12.8735404417
 20
2.5648073559
 40
0.0024749995
100
AcDbArc
 50
89.9999571957
 51
180.0000428043
  0
LINE
  5
2B3
100
AcDbEntity
  8
0
100
AcDbLine
 62
2
  6
CONTINUOUS
 10
12.8710654422
 20
2.564807354
 11
12.8710654422
 21
2.4937023146
  0
ARC
  5
2B4
100
AcDbEntity
  8
0
100
AcDbCircle
 62
2
  6
CONTINUOUS
 10
12.8685904427
 20
2.4937023128
 40
0.0024749995
100
AcDbArc
 50
269.9999571957
 51
0.0000428043
  0
LINE
  5
2B5
100
AcDbEntity
  8
0
100
AcDbLine
 62
2
  6
CONTINUOUS
 10
12.8685904408
 20
2.4912273132
 11
12.7943853997
 21
2.4912273132
  0
ARC
  5
2B6
100
AcDbEntity
  8
0
100
AcDbCircle
 62
2
  6
CONTINUOUS
 10
12.7943847649
 20
2.4937027294
 40
0.0024754162
100
AcDbArc
 50
226.3593695813
 51
270.0146919953
  0
LINE
  5
2B7
100
AcDbEntity
  8
0
100
AcDbLine
 62
2
  6
CONTINUOUS
 10
12.7926763987
 20
2.4919113136
 11
12.7293963636
 21
2.5522893471
  0
ARC
  5
2B8
100
AcDbEntity
  8
0
100
AcDbCircle
 62
2
  6
CONTINUOUS
 10
12.7276876627
 20
2.5504984093
 40
0.0024753014
100
AcDbArc
 50
46.3461263059
 51
180.0014637321
  0
LINE
  5
2B9
100
AcDbEntity
  8
0
100
AcDbLine
 62
2
  6
CONTINUOUS
 10
12.7252123613
 20
2.5504983461
 11
12.7252123613
 21
2.5184523283
  0
ARC
  5
2BA
100
AcDbEntity
  8
0
100
AcDbCircle
 62
2
  6
CONTINUOUS
 10
12.7276873608
 20
2.5184523265
 40
0.0024749995
100
AcDbArc
 50
179.9999571957
 51
270.0000428043
  0
LINE
  5
2BB
100
AcDbEntity
  8
0
100
AcDbLine
 62
2
  6
CONTINUOUS
 10
12.7276873627
 20
2.515977327
 11
12.7480043739
 21
2.515977327
  0
ARC
  5
2BC
100
AcDbEntity
  8
0
100
AcDbCircle
 62
2
  6
CONTINUOUS
 10
12.7480043758
 20
2.5135023274
 40
0.0024749995
100
AcDbArc
 50
359.9999571957
 51
90.0000428043
  0
LINE
  5
2BD
100
AcDbEntity
  8
0
100
AcDbLine
 62
2
  6
CONTINUOUS
 10
12.7504793753
 20
2.5135023256
 11
12.7504793753
 21
2.4937023146
  0
ARC
  5
2BE
100
AcDbEntity
  8
0
100
AcDbCircle
 62
2
  6
CONTINUOUS
 10
12.7480043758
 20
2.4937023128
 40
0.0024749995
100
AcDbArc
 50
269.9999571957
 51
0.0000428043
  0
LINE
  5
2BF
100
AcDbEntity
  8
0
100
AcDbLine
 62
2
  6
CONTINUOUS
 10
12.7480043739
 20
2.4912273132
 11
12.672340332
 21
2.4912273132
  0
ARC
  5
2C0
100
AcDbEntity
  8
0
100
AcDbCircle
 62
2
  6
CONTINUOUS
 10
12.6723403301
 20
2.4937023128
 40
0.0024749995
100
AcDbArc
 50
179.9999571957
 51
270.0000428043
  0
LINE
  5
2C1
100
AcDbEntity
  8
0
100
AcDbLine
 62
2
  6
CONTINUOUS
 10
12.6698653306
 20
2.4937023146
 11
12.6698653306
 21
2.5135023256
  0
ARC
  5
2C2
100
AcDbEntity
  8
0
100
AcDbCircle
 62
2
  6
CONTINUOUS
 10
12.6723403301
 20
2.5135023274
 40
0.0024749995
100
AcDbArc
 50
89.9999571957
 51
180.0000428043
  0
LINE
  5
2C3
100
AcDbEntity
  8
0
100
AcDbLine
 62
2
  6
CONTINUOUS
 10
12.672340332
 20
2.515977327
 11
12.6909873423
 21
2.515977327
  0
ARC
  5
2C4
100
AcDbEntity
  8
0
100
AcDbCircle
 62
2
  6
CONTINUOUS
 10
12.6909873442
 20
2.5184523265
 40
0.0024749995
100
AcDbArc
 50
269.9999571957
 51
0.0000428043
  0
LINE
  5
2C5
100
AcDbEntity
  8
0
100
AcDbLine
 62
2
  6
CONTINUOUS
 10
12.6934623437
 20
2.5184523283
 11
12.6934623437
 21
2.564807354
  0
ARC
  5
2C6
100
AcDbEntity
  8
0
100
AcDbCircle
 62
2
  6
CONTINUOUS
 10
12.6909873442
 20
2.5648073559
 40
0.0024749995
100
AcDbArc
 50
359.9999571957
 51
90.0000428043
  0
LINE
  5
2C7
100
AcDbEntity
  8
0
100
AcDbLine
 62
2
  6
CONTINUOUS
 10
12.6909873423
 20
2.5672823554
 11
12.672340332
 21
2.5672823554
  0
ARC
  5
2C8
100
AcDbEntity
  8
0
100
AcDbCircle
 62
2
  6
CONTINUOUS
 10
12.6723403301
 20
2.5697573549
 40
0.0024749995
100
AcDbArc
 50
179.9999571957
 51
270.0000428043
  0
LINE
  5
2C9
100
AcDbEntity
  8
0
100
AcDbLine
 62
2
  6
CONTINUOUS
 10
12.6698653306
 20
2.5697573568
 11
12.6698653306
 21
2.5895573678
  0
ARC
  5
2CA
100
AcDbEntity
  8
0
100
AcDbCircle
 62
2
  6
CONTINUOUS
 10
12.6723403301
 20
2.5895573696
 40
0.0024749995
100
AcDbArc
 50
89.9999571957
 51
180.0000428043
  0
LINE
  5
2CB
100
AcDbEntity
  8
0
100
AcDbLine
 62
2
  6
CONTINUOUS
 10
12.5246402501
 20
2.5655893545
 11
12.5175232461
 21
2.5543723483
  0
ARC
  5
2CC
100
AcDbEntity
  8
0
100
AcDbCircle
 62
2
  6
CONTINUOUS
 10
12.519613138
 20
2.5530463862
 40
0.0024750401
100
AcDbArc
 50
147.6063258012
 51
270.0025305754
  0
LINE
  5
2CD
100
AcDbEntity
  8
0
100
AcDbLine
 62
2
  6
CONTINUOUS
 10
12.5196132473
 20
2.5505713461
 11
12.5401702587
 21
2.5505713461
  0
ARC
  5
2CE
100
AcDbEntity
  8
0
100
AcDbCircle
 62
2
  6
CONTINUOUS
 10
12.5401702375
 20
2.5530465533
 40
0.0024752071
100
AcDbArc
 50
270.0004896793
 51
32.9089806818
  0
LINE
  5
2CF
100
AcDbEntity
  8
0
100
AcDbLine
 62
2
  6
CONTINUOUS
 10
12.5422482598
 20
2.5543913483
 11
12.5349892558
 21
2.5656073545
  0
ARC
  5
2D0
100
AcDbEntity
  8
0
100
AcDbCircle
 62
2
  6
CONTINUOUS
 10
12.532910715
 20
2.564262895
 40
0.0024754602
100
AcDbArc
 50
32.8959418573
 51
89.9875097202
  0
LINE
  5
2D1
100
AcDbEntity
  8
0
100
AcDbLine
 62
2
  6
CONTINUOUS
 10
12.5329112547
 20
2.5667383551
 11
12.5267302512
 21
2.5667383551
  0
ARC
  5
2D2
100
AcDbEntity
  8
0
100
AcDbCircle
 62
2
  6
CONTINUOUS
 10
12.5267301809
 20
2.5642631548
 40
0.0024752003
100
AcDbArc
 50
89.998372645
 51
147.602165307
  0
LINE
  5
2D3
100
AcDbEntity
  8
0
100
AcDbLine
 62
2
  6
CONTINUOUS
 10
12.548053263
 20
2.5284903339
 11
12.5536792662
 21
2.5197973291
  0
ARC
  5
2D4
100
AcDbEntity
  8
0
100
AcDbCircle
 62
2
  6
CONTINUOUS
 10
12.5516012439
 20
2.5184525341
 40
0.0024752071
100
AcDbArc
 50
270.0004896794
 51
32.9089806818
  0
LINE
  5
2D5
100
AcDbEntity
  8
0
100
AcDbLine
 62
2
  6
CONTINUOUS
 10
12.551601265
 20
2.515977327
 11
12.537150257
 21
2.515977327
  0
ARC
  5
2D6
100
AcDbEntity
  8
0
100
AcDbCircle
 62
2
  6
CONTINUOUS
 10
12.5371502552
 20
2.5135023274
 40
0.0024749995
100
AcDbArc
 50
89.9999571957
 51
180.0000428043
  0
LINE
  5
2D7
100
AcDbEntity
  8
0
100
AcDbLine
 62
2
  6
CONTINUOUS
 10
12.5346752556
 20
2.5135023256
 11
12.5346752556
 21
2.4937023146
  0
ARC
  5
2D8
100
AcDbEntity
  8
0
100
AcDbCircle
 62
2
  6
CONTINUOUS
 10
12.5371502552
 20
2.4937023128
 40
0.0024749995
100
AcDbArc
 50
179.9999571957
 51
270.0000428043
  0
LINE
  5
2D9
100
AcDbEntity
  8
0
100
AcDbLine
 62
2
  6
CONTINUOUS
 10
12.537150257
 20
2.4912273132
 11
12.6424313154
 21
2.4912273132
  0
ARC
  5
2DA
100
AcDbEntity
  8
0
100
AcDbCircle
 62
2
  6
CONTINUOUS
 10
12.6424313172
 20
2.4937023128
 40
0.0024749995
100
AcDbArc
 50
269.9999571957
 51
0.0000428043
  0
LINE
  5
2DB
100
AcDbEntity
  8
0
100
AcDbLine
 62
2
  6
CONTINUOUS
 10
12.6449063168
 20
2.4937023146
 11
12.6449063168
 21
2.5135023256
  0
ARC
  5
2DC
100
AcDbEntity
  8
0
100
AcDbCircle
 62
2
  6
CONTINUOUS
 10
12.6424313172
 20
2.5135023274
 40
0.0024749995
100
AcDbArc
 50
359.9999571957
 51
90.0000428043
  0
LINE
  5
2DD
100
AcDbEntity
  8
0
100
AcDbLine
 62
2
  6
CONTINUOUS
 10
12.6424313154
 20
2.515977327
 11
12.6224153043
 21
2.515977327
  0
ARC
  5
2DE
100
AcDbEntity
  8
0
100
AcDbCircle
 62
2
  6
CONTINUOUS
 10
12.6224154248
 20
2.518451368
 40
0.002474041
100
AcDbArc
 50
212.9056413127
 51
269.9972091756
  0
LINE
  5
2DF
100
AcDbEntity
  8
0
100
AcDbLine
 62
2
  6
CONTINUOUS
 10
12.6203383031
 20
2.5171073276
 11
12.5725822767
 21
2.5909023685
  0
ARC
  5
2E0
100
AcDbEntity
  8
0
100
AcDbCircle
 62
2
  6
CONTINUOUS
 10
12.570504655
 20
2.589557409
 40
0.0024749602
100
AcDbArc
 50
32.9172174468
 51
90.0087853097
  0
LINE
  5
2E1
100
AcDbEntity
  8
0
100
AcDbLine
 62
2
  6
CONTINUOUS
 10
12.5705042755
 20
2.5920323691
 11
12.5133292438
 21
2.5920323691
  0
ARC
  5
2E2
100
AcDbEntity
  8
0
100
AcDbCircle
 62
2
  6
CONTINUOUS
 10
12.5133291735
 20
2.5895571688
 40
0.0024752003
100
AcDbArc
 50
89.9983726451
 51
147.602165307
  0
LINE
  5
2E3
100
AcDbEntity
  8
0
100
AcDbLine
 62
2
  6
CONTINUOUS
 10
12.5112392426
 20
2.5908833685
 11
12.4644392167
 21
2.5171263276
  0
ARC
  5
2E4
100
AcDbEntity
  8
0
100
AcDbCircle
 62
2
  6
CONTINUOUS
 10
12.4623492858
 20
2.5184525273
 40
0.0024752003
100
AcDbArc
 50
269.9983726451
 51
327.602165307
  0
LINE
  5
2E5
100
AcDbEntity
  8
0
100
AcDbLine
 62
2
  6
CONTINUOUS
 10
12.4623492155
 20
2.515977327
 11
12.4394882028
 21
2.515977327
  0
ARC
  5
2E6
100
AcDbEntity
  8
0
100
AcDbCircle
 62
2
  6
CONTINUOUS
 10
12.439488201
 20
2.5135023274
 40
0.0024749995
100
AcDbArc
 50
89.9999571957
 51
180.0000428043
  0
LINE
  5
2E7
100
AcDbEntity
  8
0
100
AcDbLine
 62
2
  6
CONTINUOUS
 10
12.4370132015
 20
2.5135023256
 11
12.4370132015
 21
2.4937023146
  0
ARC
  5
2E8
100
AcDbEntity
  8
0
100
AcDbCircle
 62
2
  6
CONTINUOUS
 10
12.439488201
 20
2.4937023128
 40
0.0024749995
100
AcDbArc
 50
179.9999571957
 51
270.0000428043
  0
LINE
  5
2E9
100
AcDbEntity
  8
0
100
AcDbLine
 62
2
  6
CONTINUOUS
 10
12.4394882028
 20
2.4912273132
 11
12.5168642458
 21
2.4912273132
  0
ARC
  5
2EA
100
AcDbEntity
  8
0
100
AcDbCircle
 62
2
  6
CONTINUOUS
 10
12.5168642476
 20
2.4937023128
 40
0.0024749995
100
AcDbArc
 50
269.9999571957
 51
0.0000428043
  0
LINE
  5
2EB
100
AcDbEntity
  8
0
100
AcDbLine
 62
2
  6
CONTINUOUS
 10
12.5193392471
 20
2.4937023146
 11
12.5193392471
 21
2.5135023256
  0
ARC
  5
2EC
100
AcDbEntity
  8
0
100
AcDbCircle
 62
2
  6
CONTINUOUS
 10
12.5168642476
 20
2.5135023274
 40
0.0024749995
100
AcDbArc
 50
359.9999571957
 51
90.0000428043
  0
LINE
  5
2ED
100
AcDbEntity
  8
0
100
AcDbLine
 62
2
  6
CONTINUOUS
 10
12.5168642458
 20
2.515977327
 11
12.5055812395
 21
2.515977327
  0
ARC
  5
2EE
100
AcDbEntity
  8
0
100
AcDbCircle
 62
2
  6
CONTINUOUS
 10
12.5055811302
 20
2.518452367
 40
0.0024750401
100
AcDbArc
 50
147.6063258011
 51
270.0025305754
  0
LINE
  5
2EF
100
AcDbEntity
  8
0
100
AcDbLine
 62
2
  6
CONTINUOUS
 10
12.5034912383
 20
2.5197783291
 11
12.5090072414
 21
2.5284723339
  0
ARC
  5
2F0
100
AcDbEntity
  8
0
100
AcDbCircle
 62
2
  6
CONTINUOUS
 10
12.5110971723
 20
2.5271461342
 40
0.0024752003
100
AcDbArc
 50
89.998372645
 51
147.602165307
  0
LINE
  5
2F1
100
AcDbEntity
  8
0
100
AcDbLine
 62
2
  6
CONTINUOUS
 10
12.5110972426
 20
2.5296213345
 11
12.5459752619
 21
2.5296213345
  0
ARC
  5
2F2
100
AcDbEntity
  8
0
100
AcDbCircle
 62
2
  6
CONTINUOUS
 10
12.5459747223
 20
2.5271458744
 40
0.0024754602
100
AcDbArc
 50
32.8959418573
 51
89.9875097202
  0
LINE
  5
2F3
100
AcDbEntity
  8
0
100
AcDbLine
 62
2
  6
CONTINUOUS
 10
12.9205934696
 20
2.5920323691
 11
13.0210515254
 21
2.5920323691
  0
ARC
  5
2F4
100
AcDbEntity
  8
0
100
AcDbCircle
 62
2
  6
CONTINUOUS
 10
13.0210516601
 20
2.5895582013
 40
0.0024741678
100
AcDbArc
 50
46.3477981899
 51
90.0031206038
  0
LINE
  5
2F5
100
AcDbEntity
  8
0
100
AcDbLine
 62
2
  6
CONTINUOUS
 10
13.0227595263
 20
2.5913483688
 11
13.0827925596
 21
2.534068337
  0
ARC
  5
2F6
100
AcDbEntity
  8
0
100
AcDbCircle
 62
2
  6
CONTINUOUS
 10
13.0845012605
 20
2.5358592748
 40
0.0024753014
100
AcDbArc
 50
226.3461263059
 51
0.0014637321
  0
LINE
  5
2F7
100
AcDbEntity
  8
0
100
AcDbLine
 62
2
  6
CONTINUOUS
 10
13.0869765619
 20
2.535859338
 11
13.0869765619
 21
2.564807354
  0
ARC
  5
2F8
100
AcDbEntity
  8
0
100
AcDbCircle
 62
2
  6
CONTINUOUS
 10
13.0845015624
 20
2.5648073559
 40
0.0024749995
100
AcDbArc
 50
359.9999571957
 51
90.0000428043
  0
LINE
  5
2F9
100
AcDbEntity
  8
0
100
AcDbLine
 62
2
  6
CONTINUOUS
 10
13.0845015605
 20
2.5672823554
 11
13.0657255501
 21
2.5672823554
  0
ARC
  5
2FA
100
AcDbEntity
  8
0
100
AcDbCircle
 62
2
  6
CONTINUOUS
 10
13.0657255483
 20
2.5697573549
 40
0.0024749995
100
AcDbArc
 50
179.9999571957
 51
270.0000428043
  0
LINE
  5
2FB
100
AcDbEntity
  8
0
100
AcDbLine
 62
2
  6
CONTINUOUS
 10
13.0632505488
 20
2.5697573568
 11
13.0632505488
 21
2.5895573678
  0
ARC
  5
2FC
100
AcDbEntity
  8
0
100
AcDbCircle
 62
2
  6
CONTINUOUS
 10
13.0657255483
 20
2.5895573696
 40
0.0024749995
100
AcDbArc
 50
89.9999571957
 51
180.0000428043
  0
LINE
  5
2FD
100
AcDbEntity
  8
0
100
AcDbLine
 62
2
  6
CONTINUOUS
 10
13.0657255501
 20
2.5920323691
 11
13.1397265912
 21
2.5920323691
  0
ARC
  5
2FE
100
AcDbEntity
  8
0
100
AcDbCircle
 62
2
  6
CONTINUOUS
 10
13.139726593
 20
2.5895573696
 40
0.0024749995
100
AcDbArc
 50
359.9999571957
 51
90.0000428043
  0
LINE
  5
2FF
100
AcDbEntity
  8
0
100
AcDbLine
 62
2
  6
CONTINUOUS
 10
13.1422015925
 20
2.5895573678
 11
13.1422015925
 21
2.5697573568
  0
ARC
  5
300
100
AcDbEntity
  8
0
100
AcDbCircle
 62
2
  6
CONTINUOUS
 10
13.139726593
 20
2.5697573549
 40
0.0024749995
100
AcDbArc
 50
269.9999571957
 51
0.0000428042
  0
LINE
  5
301
100
AcDbEntity
  8
0
100
AcDbLine
 62
2
  6
CONTINUOUS
 10
13.1397265912
 20
2.5672823554
 11
13.1217935812
 21
2.5672823554
  0
ARC
  5
302
100
AcDbEntity
  8
0
100
AcDbCircle
 62
2
  6
CONTINUOUS
 10
13.1217935794
 20
2.5648073559
 40
0.0024749995
100
AcDbArc
 50
89.9999571957
 51
180.0000428042
  0
LINE
  5
303
100
AcDbEntity
  8
0
100
AcDbLine
 62
2
  6
CONTINUOUS
 10
13.1193185799
 20
2.564807354
 11
13.1193185799
 21
2.4937023146
  0
ARC
  5
304
100
AcDbEntity
  8
0
100
AcDbCircle
 62
2
  6
CONTINUOUS
 10
13.1168435803
 20
2.4937023128
 40
0.0024749995
100
AcDbArc
 50
269.9999571957
 51
0.0000428043
  0
LINE
  5
305
100
AcDbEntity
  8
0
100
AcDbLine
 62
2
  6
CONTINUOUS
 10
13.1168435785
 20
2.4912273132
 11
13.0426375373
 21
2.4912273132
  0
ARC
  5
306
100
AcDbEntity
  8
0
100
AcDbCircle
 62
2
  6
CONTINUOUS
 10
13.0426374026
 20
2.493701481
 40
0.0024741678
100
AcDbArc
 50
226.3477981898
 51
270.0031206038
  0
LINE
  5
307
100
AcDbEntity
  8
0
100
AcDbLine
 62
2
  6
CONTINUOUS
 10
13.0409295364
 20
2.4919113136
 11
12.9776495013
 21
2.5522893471
  0
ARC
  5
308
100
AcDbEntity
  8
0
100
AcDbCircle
 62
2
  6
CONTINUOUS
 10
12.9759408003
 20
2.5504984093
 40
0.0024753014
100
AcDbArc
 50
46.3461263059
 51
180.0014637321
  0
LINE
  5
309
100
AcDbEntity
  8
0
100
AcDbLine
 62
2
  6
CONTINUOUS
 10
12.973465499
 20
2.5504983461
 11
12.973465499
 21
2.5184523283
  0
ARC
  5
30A
100
AcDbEntity
  8
0
100
AcDbCircle
 62
2
  6
CONTINUOUS
 10
12.9759404985
 20
2.5184523265
 40
0.0024749995
100
AcDbArc
 50
179.9999571957
 51
270.0000428043
  0
LINE
  5
30B
100
AcDbEntity
  8
0
100
AcDbLine
 62
2
  6
CONTINUOUS
 10
12.9759405003
 20
2.515977327
 11
12.9962575116
 21
2.515977327
  0
ARC
  5
30C
100
AcDbEntity
  8
0
100
AcDbCircle
 62
2
  6
CONTINUOUS
 10
12.9962575135
 20
2.5135023274
 40
0.0024749995
100
AcDbArc
 50
359.9999571957
 51
90.0000428043
  0
LINE
  5
30D
100
AcDbEntity
  8
0
100
AcDbLine
 62
2
  6
CONTINUOUS
 10
12.998732513
 20
2.5135023256
 11
12.998732513
 21
2.4937023146
  0
ARC
  5
30E
100
AcDbEntity
  8
0
100
AcDbCircle
 62
2
  6
CONTINUOUS
 10
12.9962575135
 20
2.4937023128
 40
0.0024749995
100
AcDbArc
 50
269.9999571957
 51
0.0000428043
  0
LINE
  5
30F
100
AcDbEntity
  8
0
100
AcDbLine
 62
2
  6
CONTINUOUS
 10
12.9962575116
 20
2.4912273132
 11
12.9205934696
 21
2.4912273132
  0
ARC
  5
310
100
AcDbEntity
  8
0
100
AcDbCircle
 62
2
  6
CONTINUOUS
 10
12.9205934678
 20
2.4937023128
 40
0.0024749995
100
AcDbArc
 50
179.9999571957
 51
270.0000428043
  0
LINE
  5
311
100
AcDbEntity
  8
0
100
AcDbLine
 62
2
  6
CONTINUOUS
 10
12.9181184683
 20
2.4937023146
 11
12.9181184683
 21
2.5135023256
  0
ARC
  5
312
100
AcDbEntity
  8
0
100
AcDbCircle
 62
2
  6
CONTINUOUS
 10
12.9205934678
 20
2.5135023274
 40
0.0024749995
100
AcDbArc
 50
89.9999571957
 51
180.0000428042
  0
LINE
  5
313
100
AcDbEntity
  8
0
100
AcDbLine
 62
2
  6
CONTINUOUS
 10
12.9205934696
 20
2.515977327
 11
12.93923948
 21
2.515977327
  0
ARC
  5
314
100
AcDbEntity
  8
0
100
AcDbCircle
 62
2
  6
CONTINUOUS
 10
12.9392394818
 20
2.5184523265
 40
0.0024749995
100
AcDbArc
 50
269.9999571957
 51
0.0000428043
  0
LINE
  5
315
100
AcDbEntity
  8
0
100
AcDbLine
 62
2
  6
CONTINUOUS
 10
12.9417144814
 20
2.5184523283
 11
12.9417144814
 21
2.564807354
  0
ARC
  5
316
100
AcDbEntity
  8
0
100
AcDbCircle
 62
2
  6
CONTINUOUS
 10
12.9392394818
 20
2.5648073559
 40
0.0024749995
100
AcDbArc
 50
359.9999571957
 51
90.0000428043
  0
LINE
  5
317
100
AcDbEntity
  8
0
100
AcDbLine
 62
2
  6
CONTINUOUS
 10
12.93923948
 20
2.5672823554
 11
12.9205934696
 21
2.5672823554
  0
ARC
  5
318
100
AcDbEntity
  8
0
100
AcDbCircle
 62
2
  6
CONTINUOUS
 10
12.9205934678
 20
2.5697573549
 40
0.0024749995
100
AcDbArc
 50
179.9999571957
 51
270.0000428043
  0
LINE
  5
319
100
AcDbEntity
  8
0
100
AcDbLine
 62
2
  6
CONTINUOUS
 10
12.9181184683
 20
2.5697573568
 11
12.9181184683
 21
2.5895573678
  0
ARC
  5
31A
100
AcDbEntity
  8
0
100
AcDbCircle
 62
2
  6
CONTINUOUS
 10
12.9205934678
 20
2.5895573696
 40
0.0024749995
100
AcDbArc
 50
89.9999571957
 51
180.0000428042
  0
LINE
  5
31B
100
AcDbEntity
  8
0
100
AcDbLine
 62
2
  6
CONTINUOUS
 10
13.2934226764
 20
2.5324773361
 11
13.2582556569
 21
2.5324773361
  0
ARC
  5
31C
100
AcDbEntity
  8
0
100
AcDbCircle
 62
2
  6
CONTINUOUS
 10
13.2582556551
 20
2.5300023366
 40
0.0024749995
100
AcDbArc
 50
89.9999571957
 51
180.0000428043
  0
LINE
  5
31D
100
AcDbEntity
  8
0
100
AcDbLine
 62
2
  6
CONTINUOUS
 10
13.2557806555
 20
2.5300023347
 11
13.2557806555
 21
2.5184523283
  0
ARC
  5
31E
100
AcDbEntity
  8
0
100
AcDbCircle
 62
2
  6
CONTINUOUS
 10
13.2582556551
 20
2.5184523265
 40
0.0024749995
100
AcDbArc
 50
179.9999571957
 51
270.0000428043
  0
LINE
  5
31F
100
AcDbEntity
  8
0
100
AcDbLine
 62
2
  6
CONTINUOUS
 10
13.2582556569
 20
2.515977327
 11
13.3232596929
 21
2.515977327
  0
ARC
  5
320
100
AcDbEntity
  8
0
100
AcDbCircle
 62
2
  6
CONTINUOUS
 10
13.3232596948
 20
2.5184523265
 40
0.0024749995
100
AcDbArc
 50
269.9999571957
 51
0.0000428043
  0
LINE
  5
321
100
AcDbEntity
  8
0
100
AcDbLine
 62
2
  6
CONTINUOUS
 10
13.3257346943
 20
2.5184523283
 11
13.3257346943
 21
2.5267023329
  0
ARC
  5
322
100
AcDbEntity
  8
0
100
AcDbCircle
 62
2
  6
CONTINUOUS
 10
13.3282096938
 20
2.5267023348
 40
0.0024749995
100
AcDbArc
 50
89.9999571957
 51
180.0000428043
  0
LINE
  5
323
100
AcDbEntity
  8
0
100
AcDbLine
 62
2
  6
CONTINUOUS
 10
13.3282096957
 20
2.5291773343
 11
13.3705287192
 21
2.5291773343
  0
ARC
  5
324
100
AcDbEntity
  8
0
100
AcDbCircle
 62
2
  6
CONTINUOUS
 10
13.370528721
 20
2.5267023348
 40
0.0024749995
100
AcDbArc
 50
359.9999571957
 51
90.0000428043
  0
LINE
  5
325
100
AcDbEntity
  8
0
100
AcDbLine
 62
2
  6
CONTINUOUS
 10
13.3730037205
 20
2.5267023329
 11
13.3730037205
 21
2.4937023146
  0
ARC
  5
326
100
AcDbEntity
  8
0
100
AcDbCircle
 62
2
  6
CONTINUOUS
 10
13.370528721
 20
2.4937023128
 40
0.0024749995
100
AcDbArc
 50
269.9999571957
 51
0.0000428043
  0
LINE
  5
327
100
AcDbEntity
  8
0
100
AcDbLine
 62
2
  6
CONTINUOUS
 10
13.3705287192
 20
2.4912273132
 11
13.1673166065
 21
2.4912273132
  0
ARC
  5
328
100
AcDbEntity
  8
0
100
AcDbCircle
 62
2
  6
CONTINUOUS
 10
13.1673166046
 20
2.4937023128
 40
0.0024749995
100
AcDbArc
 50
179.9999571957
 51
270.0000428043
  0
LINE
  5
329
100
AcDbEntity
  8
0
100
AcDbLine
 62
2
  6
CONTINUOUS
 10
13.1648416051
 20
2.4937023146
 11
13.1648416051
 21
2.5135023256
  0
ARC
  5
32A
100
AcDbEntity
  8
0
100
AcDbCircle
 62
2
  6
CONTINUOUS
 10
13.1673166046
 20
2.5135023274
 40
0.0024749995
100
AcDbArc
 50
89.9999571957
 51
180.0000428043
  0
LINE
  5
32B
100
AcDbEntity
  8
0
100
AcDbLine
 62
2
  6
CONTINUOUS
 10
13.1673166065
 20
2.515977327
 11
13.1912396197
 21
2.515977327
  0
ARC
  5
32C
100
AcDbEntity
  8
0
100
AcDbCircle
 62
2
  6
CONTINUOUS
 10
13.1912396216
 20
2.5184523265
 40
0.0024749995
100
AcDbArc
 50
269.9999571957
 51
0.0000428042
  0
LINE
  5
32D
100
AcDbEntity
  8
0
100
AcDbLine
 62
2
  6
CONTINUOUS
 10
13.1937146211
 20
2.5184523283
 11
13.1937146211
 21
2.564807354
  0
ARC
  5
32E
100
AcDbEntity
  8
0
100
AcDbCircle
 62
2
  6
CONTINUOUS
 10
13.1912396216
 20
2.5648073559
 40
0.0024749995
100
AcDbArc
 50
359.9999571957
 51
90.0000428043
  0
LINE
  5
32F
100
AcDbEntity
  8
0
100
AcDbLine
 62
2
  6
CONTINUOUS
 10
13.1912396197
 20
2.5672823554
 11
13.1673166065
 21
2.5672823554
  0
ARC
  5
330
100
AcDbEntity
  8
0
100
AcDbCircle
 62
2
  6
CONTINUOUS
 10
13.1673166046
 20
2.5697573549
 40
0.0024749995
100
AcDbArc
 50
179.9999571957
 51
270.0000428043
  0
LINE
  5
331
100
AcDbEntity
  8
0
100
AcDbLine
 62
2
  6
CONTINUOUS
 10
13.1648416051
 20
2.5697573568
 11
13.1648416051
 21
2.5895573678
  0
ARC
  5
332
100
AcDbEntity
  8
0
100
AcDbCircle
 62
2
  6
CONTINUOUS
 10
13.1673166046
 20
2.5895573696
 40
0.0024749995
100
AcDbArc
 50
89.9999571957
 51
180.0000428043
  0
LINE
  5
333
100
AcDbEntity
  8
0
100
AcDbLine
 62
2
  6
CONTINUOUS
 10
13.1673166065
 20
2.5920323691
 11
13.3691097184
 21
2.5920323691
  0
ARC
  5
334
100
AcDbEntity
  8
0
100
AcDbCircle
 62
2
  6
CONTINUOUS
 10
13.3691097202
 20
2.5895573696
 40
0.0024749995
100
AcDbArc
 50
359.9999571957
 51
90.0000428043
  0
LINE
  5
335
100
AcDbEntity
  8
0
100
AcDbLine
 62
2
  6
CONTINUOUS
 10
13.3715847197
 20
2.5895573678
 11
13.3715847197
 21
2.5565573495
  0
ARC
  5
336
100
AcDbEntity
  8
0
100
AcDbCircle
 62
2
  6
CONTINUOUS
 10
13.3691097202
 20
2.5565573476
 40
0.0024749995
100
AcDbArc
 50
269.9999571957
 51
0.0000428042
  0
LINE
  5
337
100
AcDbEntity
  8
0
100
AcDbLine
 62
2
  6
CONTINUOUS
 10
13.3691097184
 20
2.5540823481
 11
13.3272456952
 21
2.5540823481
  0
ARC
  5
338
100
AcDbEntity
  8
0
100
AcDbCircle
 62
2
  6
CONTINUOUS
 10
13.3272456933
 20
2.5565573476
 40
0.0024749995
100
AcDbArc
 50
179.9999571957
 51
270.0000428043
  0
LINE
  5
339
100
AcDbEntity
  8
0
100
AcDbLine
 62
2
  6
CONTINUOUS
 10
13.3247706938
 20
2.5565573495
 11
13.3247706938
 21
2.564807354
  0
ARC
  5
33A
100
AcDbEntity
  8
0
100
AcDbCircle
 62
2
  6
CONTINUOUS
 10
13.3222956943
 20
2.5648073559
 40
0.0024749995
100
AcDbArc
 50
359.9999571957
 51
90.0000428043
  0
LINE
  5
33B
100
AcDbEntity
  8
0
100
AcDbLine
 62
2
  6
CONTINUOUS
 10
13.3222956924
 20
2.5672823554
 11
13.2582556569
 21
2.5672823554
  0
ARC
  5
33C
100
AcDbEntity
  8
0
100
AcDbCircle
 62
2
  6
CONTINUOUS
 10
13.2582556551
 20
2.5648073559
 40
0.0024749995
100
AcDbArc
 50
89.9999571957
 51
180.0000428043
  0
LINE
  5
33D
100
AcDbEntity
  8
0
100
AcDbLine
 62
2
  6
CONTINUOUS
 10
13.2557806555
 20
2.564807354
 11
13.2557806555
 21
2.5532573476
  0
ARC
  5
33E
100
AcDbEntity
  8
0
100
AcDbCircle
 62
2
  6
CONTINUOUS
 10
13.2582556551
 20
2.5532573458
 40
0.0024749995
100
AcDbArc
 50
179.9999571957
 51
270.0000428043
  0
LINE
  5
33F
100
AcDbEntity
  8
0
100
AcDbLine
 62
2
  6
CONTINUOUS
 10
13.2582556569
 20
2.5507823463
 11
13.2934226764
 21
2.5507823463
  0
ARC
  5
340
100
AcDbEntity
  8
0
100
AcDbCircle
 62
2
  6
CONTINUOUS
 10
13.2934226783
 20
2.5483073467
 40
0.0024749995
100
AcDbArc
 50
359.9999571957
 51
90.0000428043
  0
LINE
  5
341
100
AcDbEntity
  8
0
100
AcDbLine
 62
2
  6
CONTINUOUS
 10
13.2958976778
 20
2.5483073449
 11
13.2958976778
 21
2.5349523375
  0
ARC
  5
342
100
AcDbEntity
  8
0
100
AcDbCircle
 62
2
  6
CONTINUOUS
 10
13.2934226783
 20
2.5349523356
 40
0.0024749995
100
AcDbArc
 50
269.9999571957
 51
0.0000428042
  0
LINE
  5
343
100
AcDbEntity
  8
0
100
AcDbLine
 62
2
  6
CONTINUOUS
 10
13.7286871589
 20
2.5350697372
 11
13.7286871589
 21
2.5456869438
  0
LINE
  5
344
100
AcDbEntity
  8
0
100
AcDbLine
 62
2
  6
CONTINUOUS
 10
13.7086871478
 20
2.5004302075
 11
13.7086871478
 21
2.5803264735
  0
LINE
  5
345
100
AcDbEntity
  8
0
100
AcDbLine
 62
2
  6
CONTINUOUS
 10
13.6886871368
 20
2.4843919416
 11
13.6886871368
 21
2.5963647394
  0
LINE
  5
346
100
AcDbEntity
  8
0
100
AcDbLine
 62
2
  6
CONTINUOUS
 10
13.6686871257
 20
2.4726017898
 11
13.6686871257
 21
2.6081548911
  0
LINE
  5
347
100
AcDbEntity
  8
0
100
AcDbLine
 62
2
  6
CONTINUOUS
 10
13.6486871146
 20
2.4628062688
 11
13.6486871146
 21
2.6179504122
  0
LINE
  5
348
100
AcDbEntity
  8
0
100
AcDbLine
 62
2
  6
CONTINUOUS
 10
13.6286871035
 20
2.4541253507
 11
13.6286871035
 21
2.5062483056
  0
LINE
  5
349
100
AcDbEntity
  8
0
100
AcDbLine
 62
2
  6
CONTINUOUS
 10
13.6286871035
 20
2.5301143348
 11
13.6286871035
 21
2.6266313303
  0
LINE
  5
34A
100
AcDbEntity
  8
0
100
AcDbLine
 62
2
  6
CONTINUOUS
 10
13.6086870924
 20
2.4465537903
 11
13.6086870924
 21
2.4918774918
  0
LINE
  5
34B
100
AcDbEntity
  8
0
100
AcDbLine
 62
2
  6
CONTINUOUS
 10
13.6086870924
 20
2.5165781173
 11
13.6086870924
 21
2.6342028907
  0
LINE
  5
34C
100
AcDbEntity
  8
0
100
AcDbLine
 62
2
  6
CONTINUOUS
 10
13.5886870813
 20
2.4398033466
 11
13.5886870813
 21
2.4912273132
  0
LINE
  5
34D
100
AcDbEntity
  8
0
100
AcDbLine
 62
2
  6
CONTINUOUS
 10
13.5886870813
 20
2.5391840845
 11
13.5886870813
 21
2.5454298327
  0
LINE
  5
34E
100
AcDbEntity
  8
0
100
AcDbLine
 62
2
  6
CONTINUOUS
 10
13.5886870813
 20
2.5862063472
 11
13.5886870813
 21
2.6409533343
  0
LINE
  5
34F
100
AcDbEntity
  8
0
100
AcDbLine
 62
2
  6
CONTINUOUS
 10
13.5686870702
 20
2.4334702189
 11
13.5686870702
 21
2.4912273132
  0
LINE
  5
350
100
AcDbEntity
  8
0
100
AcDbLine
 62
2
  6
CONTINUOUS
 10
13.5686870702
 20
2.5906587765
 11
13.5686870702
 21
2.647286462
  0
LINE
  5
351
100
AcDbEntity
  8
0
100
AcDbLine
 62
2
  6
CONTINUOUS
 10
13.5486870591
 20
2.4278968124
 11
13.5486870591
 21
2.4937461006
  0
LINE
  5
352
100
AcDbEntity
  8
0
100
AcDbLine
 62
2
  6
CONTINUOUS
 10
13.5486870591
 20
2.5920323691
 11
13.5486870591
 21
2.6528598686
  0
LINE
  5
353
100
AcDbEntity
  8
0
100
AcDbLine
 62
2
  6
CONTINUOUS
 10
13.528687048
 20
2.4225427674
 11
13.528687048
 21
2.5270426993
  0
LINE
  5
354
100
AcDbEntity
  8
0
100
AcDbLine
 62
2
  6
CONTINUOUS
 10
13.528687048
 20
2.5505166259
 11
13.528687048
 21
2.5668657091
  0
LINE
  5
355
100
AcDbEntity
  8
0
100
AcDbLine
 62
2
  6
CONTINUOUS
 10
13.528687048
 20
2.5920323691
 11
13.528687048
 21
2.6582139136
  0
LINE
  5
356
100
AcDbEntity
  8
0
100
AcDbLine
 62
2
  6
CONTINUOUS
 10
13.5086870369
 20
2.4177306791
 11
13.5086870369
 21
2.4912273132
  0
LINE
  5
357
100
AcDbEntity
  8
0
100
AcDbLine
 62
2
  6
CONTINUOUS
 10
13.5086870369
 20
2.5159553269
 11
13.5086870369
 21
2.5306043351
  0
LINE
  5
358
100
AcDbEntity
  8
0
100
AcDbLine
 62
2
  6
CONTINUOUS
 10
13.5086870369
 20
2.5496073456
 11
13.5086870369
 21
2.5672823554
  0
LINE
  5
359
100
AcDbEntity
  8
0
100
AcDbLine
 62
2
  6
CONTINUOUS
 10
13.5086870369
 20
2.5920323691
 11
13.5086870369
 21
2.6630260019
  0
LINE
  5
35A
100
AcDbEntity
  8
0
100
AcDbLine
 62
2
  6
CONTINUOUS
 10
13.4886870258
 20
2.4131795254
 11
13.4886870258
 21
2.4912273132
  0
LINE
  5
35B
100
AcDbEntity
  8
0
100
AcDbLine
 62
2
  6
CONTINUOUS
 10
13.4886870258
 20
2.5159553269
 11
13.4886870258
 21
2.5306043351
  0
LINE
  5
35C
100
AcDbEntity
  8
0
100
AcDbLine
 62
2
  6
CONTINUOUS
 10
13.4886870258
 20
2.5496073456
 11
13.4886870258
 21
2.5672823554
  0
LINE
  5
35D
100
AcDbEntity
  8
0
100
AcDbLine
 62
2
  6
CONTINUOUS
 10
13.4886870258
 20
2.5920323691
 11
13.4886870258
 21
2.6675771555
  0
LINE
  5
35E
100
AcDbEntity
  8
0
100
AcDbLine
 62
2
  6
CONTINUOUS
 10
13.4686870147
 20
2.4088819672
 11
13.4686870147
 21
2.4912273132
  0
LINE
  5
35F
100
AcDbEntity
  8
0
100
AcDbLine
 62
2
  6
CONTINUOUS
 10
13.4686870147
 20
2.5920323691
 11
13.4686870147
 21
2.6718747138
  0
LINE
  5
360
100
AcDbEntity
  8
0
100
AcDbLine
 62
2
  6
CONTINUOUS
 10
13.4486870037
 20
2.4050092072
 11
13.4486870037
 21
2.4912273132
  0
LINE
  5
361
100
AcDbEntity
  8
0
100
AcDbLine
 62
2
  6
CONTINUOUS
 10
13.4486870037
 20
2.5920323691
 11
13.4486870037
 21
2.6757474738
  0
LINE
  5
362
100
AcDbEntity
  8
0
100
AcDbLine
 62
2
  6
CONTINUOUS
 10
13.4286869926
 20
2.4011364471
 11
13.4286869926
 21
2.4912273132
  0
LINE
  5
363
100
AcDbEntity
  8
0
100
AcDbLine
 62
2
  6
CONTINUOUS
 10
13.4286869926
 20
2.5920323691
 11
13.4286869926
 21
2.6796202339
  0
LINE
  5
364
100
AcDbEntity
  8
0
100
AcDbLine
 62
2
  6
CONTINUOUS
 10
13.4086869815
 20
2.3980226662
 11
13.4086869815
 21
2.4912273132
  0
LINE
  5
365
100
AcDbEntity
  8
0
100
AcDbLine
 62
2
  6
CONTINUOUS
 10
13.4086869815
 20
2.515977327
 11
13.4086869815
 21
2.5672823554
  0
LINE
  5
366
100
AcDbEntity
  8
0
100
AcDbLine
 62
2
  6
CONTINUOUS
 10
13.4086869815
 20
2.5920323691
 11
13.4086869815
 21
2.6827340148
  0
LINE
  5
367
100
AcDbEntity
  8
0
100
AcDbLine
 62
2
  6
CONTINUOUS
 10
13.3886869704
 20
2.3950052774
 11
13.3886869704
 21
2.6857514036
  0
LINE
  5
368
100
AcDbEntity
  8
0
100
AcDbLine
 62
2
  6
CONTINUOUS
 10
13.3686869593
 20
2.3919878885
 11
13.3686869593
 21
2.4912273132
  0
LINE
  5
369
100
AcDbEntity
  8
0
100
AcDbLine
 62
2
  6
CONTINUOUS
 10
13.3686869593
 20
2.5291773343
 11
13.3686869593
 21
2.5540823481
  0
LINE
  5
36A
100
AcDbEntity
  8
0
100
AcDbLine
 62
2
  6
CONTINUOUS
 10
13.3686869593
 20
2.5920323691
 11
13.3686869593
 21
2.6887687924
  0
LINE
  5
36B
100
AcDbEntity
  8
0
100
AcDbLine
 62
2
  6
CONTINUOUS
 10
13.3486869482
 20
2.3889704997
 11
13.3486869482
 21
2.4912273132
  0
LINE
  5
36C
100
AcDbEntity
  8
0
100
AcDbLine
 62
2
  6
CONTINUOUS
 10
13.3486869482
 20
2.5291773343
 11
13.3486869482
 21
2.5540823481
  0
LINE
  5
36D
100
AcDbEntity
  8
0
100
AcDbLine
 62
2
  6
CONTINUOUS
 10
13.3486869482
 20
2.5920323691
 11
13.3486869482
 21
2.6917861813
  0
LINE
  5
36E
100
AcDbEntity
  8
0
100
AcDbLine
 62
2
  6
CONTINUOUS
 10
13.3286869371
 20
2.3859531109
 11
13.3286869371
 21
2.4912273132
  0
LINE
  5
36F
100
AcDbEntity
  8
0
100
AcDbLine
 62
2
  6
CONTINUOUS
 10
13.3286869371
 20
2.5291773343
 11
13.3286869371
 21
2.5540823481
  0
LINE
  5
370
100
AcDbEntity
  8
0
100
AcDbLine
 62
2
  6
CONTINUOUS
 10
13.3286869371
 20
2.5920323691
 11
13.3286869371
 21
2.6948035701
  0
LINE
  5
371
100
AcDbEntity
  8
0
100
AcDbLine
 62
2
  6
CONTINUOUS
 10
13.308686926
 20
2.3833355437
 11
13.308686926
 21
2.4912273132
  0
LINE
  5
372
100
AcDbEntity
  8
0
100
AcDbLine
 62
2
  6
CONTINUOUS
 10
13.308686926
 20
2.515977327
 11
13.308686926
 21
2.5672823554
  0
LINE
  5
373
100
AcDbEntity
  8
0
100
AcDbLine
 62
2
  6
CONTINUOUS
 10
13.308686926
 20
2.5920323691
 11
13.308686926
 21
2.6974211373
  0
LINE
  5
374
100
AcDbEntity
  8
0
100
AcDbLine
 62
2
  6
CONTINUOUS
 10
13.2886869149
 20
2.3812612684
 11
13.2886869149
 21
2.4912273132
  0
LINE
  5
375
100
AcDbEntity
  8
0
100
AcDbLine
 62
2
  6
CONTINUOUS
 10
13.2886869149
 20
2.515977327
 11
13.2886869149
 21
2.5324773361
  0
LINE
  5
376
100
AcDbEntity
  8
0
100
AcDbLine
 62
2
  6
CONTINUOUS
 10
13.2886869149
 20
2.5507823463
 11
13.2886869149
 21
2.5672823554
  0
LINE
  5
377
100
AcDbEntity
  8
0
100
AcDbLine
 62
2
  6
CONTINUOUS
 10
13.2886869149
 20
2.5920323691
 11
13.2886869149
 21
2.6994954125
  0
LINE
  5
378
100
AcDbEntity
  8
0
100
AcDbLine
 62
2
  6
CONTINUOUS
 10
13.2686869038
 20
2.3791869932
 11
13.2686869038
 21
2.4912273132
  0
LINE
  5
379
100
AcDbEntity
  8
0
100
AcDbLine
 62
2
  6
CONTINUOUS
 10
13.2686869038
 20
2.515977327
 11
13.2686869038
 21
2.5324773361
  0
LINE
  5
37A
100
AcDbEntity
  8
0
100
AcDbLine
 62
2
  6
CONTINUOUS
 10
13.2686869038
 20
2.5507823463
 11
13.2686869038
 21
2.5672823554
  0
LINE
  5
37B
100
AcDbEntity
  8
0
100
AcDbLine
 62
2
  6
CONTINUOUS
 10
13.2686869038
 20
2.5920323691
 11
13.2686869038
 21
2.7015696878
  0
LINE
  5
37C
100
AcDbEntity
  8
0
100
AcDbLine
 62
2
  6
CONTINUOUS
 10
13.2486868927
 20
2.377112718
 11
13.2486868927
 21
2.4912273132
  0
LINE
  5
37D
100
AcDbEntity
  8
0
100
AcDbLine
 62
2
  6
CONTINUOUS
 10
13.2486868927
 20
2.5920323691
 11
13.2486868927
 21
2.703643963
  0
LINE
  5
37E
100
AcDbEntity
  8
0
100
AcDbLine
 62
2
  6
CONTINUOUS
 10
13.2286868817
 20
2.3750384428
 11
13.2286868817
 21
2.4912273132
  0
LINE
  5
37F
100
AcDbEntity
  8
0
100
AcDbLine
 62
2
  6
CONTINUOUS
 10
13.2286868817
 20
2.5920323691
 11
13.2286868817
 21
2.7057182382
  0
LINE
  5
380
100
AcDbEntity
  8
0
100
AcDbLine
 62
2
  6
CONTINUOUS
 10
13.2086868706
 20
2.3729641676
 11
13.2086868706
 21
2.4912273132
  0
LINE
  5
381
100
AcDbEntity
  8
0
100
AcDbLine
 62
2
  6
CONTINUOUS
 10
13.2086868706
 20
2.5920323691
 11
13.2086868706
 21
2.7077925134
  0
LINE
  5
382
100
AcDbEntity
  8
0
100
AcDbLine
 62
2
  6
CONTINUOUS
 10
13.1886868595
 20
2.3712344456
 11
13.1886868595
 21
2.4912273132
  0
LINE
  5
383
100
AcDbEntity
  8
0
100
AcDbLine
 62
2
  6
CONTINUOUS
 10
13.1886868595
 20
2.515977327
 11
13.1886868595
 21
2.5672823554
  0
LINE
  5
384
100
AcDbEntity
  8
0
100
AcDbLine
 62
2
  6
CONTINUOUS
 10
13.1886868595
 20
2.5920323691
 11
13.1886868595
 21
2.7095222354
  0
LINE
  5
385
100
AcDbEntity
  8
0
100
AcDbLine
 62
2
  6
CONTINUOUS
 10
13.1686868484
 20
2.3699682418
 11
13.1686868484
 21
2.4912273132
  0
LINE
  5
386
100
AcDbEntity
  8
0
100
AcDbLine
 62
2
  6
CONTINUOUS
 10
13.1686868484
 20
2.515977327
 11
13.1686868484
 21
2.5672823554
  0
LINE
  5
387
100
AcDbEntity
  8
0
100
AcDbLine
 62
2
  6
CONTINUOUS
 10
13.1686868484
 20
2.5920323691
 11
13.1686868484
 21
2.7107884392
  0
LINE
  5
388
100
AcDbEntity
  8
0
100
AcDbLine
 62
2
  6
CONTINUOUS
 10
13.1486868373
 20
2.3687020381
 11
13.1486868373
 21
2.7120546429
  0
LINE
  5
389
100
AcDbEntity
  8
0
100
AcDbLine
 62
2
  6
CONTINUOUS
 10
13.1286868262
 20
2.3674358343
 11
13.1286868262
 21
2.5672823554
  0
LINE
  5
38A
100
AcDbEntity
  8
0
100
AcDbLine
 62
2
  6
CONTINUOUS
 10
13.1286868262
 20
2.5920323691
 11
13.1286868262
 21
2.7133208466
  0
LINE
  5
38B
100
AcDbEntity
  8
0
100
AcDbLine
 62
2
  6
CONTINUOUS
 10
13.1086868151
 20
2.3661696306
 11
13.1086868151
 21
2.4912273132
  0
LINE
  5
38C
100
AcDbEntity
  8
0
100
AcDbLine
 62
2
  6
CONTINUOUS
 10
13.1086868151
 20
2.5920323691
 11
13.1086868151
 21
2.7145870504
  0
LINE
  5
38D
100
AcDbEntity
  8
0
100
AcDbLine
 62
2
  6
CONTINUOUS
 10
13.088686804
 20
2.3649034269
 11
13.088686804
 21
2.4912273132
  0
LINE
  5
38E
100
AcDbEntity
  8
0
100
AcDbLine
 62
2
  6
CONTINUOUS
 10
13.088686804
 20
2.5920323691
 11
13.088686804
 21
2.7158532541
  0
LINE
  5
38F
100
AcDbEntity
  8
0
100
AcDbLine
 62
2
  6
CONTINUOUS
 10
13.0686867929
 20
2.3636739922
 11
13.0686867929
 21
2.4912273132
  0
LINE
  5
390
100
AcDbEntity
  8
0
100
AcDbLine
 62
2
  6
CONTINUOUS
 10
13.0686867929
 20
2.5475272398
 11
13.0686867929
 21
2.5672823554
  0
LINE
  5
391
100
AcDbEntity
  8
0
100
AcDbLine
 62
2
  6
CONTINUOUS
 10
13.0686867929
 20
2.5920323691
 11
13.0686867929
 21
2.7170826887
  0
LINE
  5
392
100
AcDbEntity
  8
0
100
AcDbLine
 62
2
  6
CONTINUOUS
 10
13.0486867818
 20
2.363143203
 11
13.0486867818
 21
2.4912273132
  0
LINE
  5
393
100
AcDbEntity
  8
0
100
AcDbLine
 62
2
  6
CONTINUOUS
 10
13.0486867818
 20
2.5666100882
 11
13.0486867818
 21
2.717613478
  0
LINE
  5
394
100
AcDbEntity
  8
0
100
AcDbLine
 62
2
  6
CONTINUOUS
 10
13.0286867707
 20
2.3626124138
 11
13.0286867707
 21
2.50359263
  0
LINE
  5
395
100
AcDbEntity
  8
0
100
AcDbLine
 62
2
  6
CONTINUOUS
 10
13.0286867707
 20
2.5856929366
 11
13.0286867707
 21
2.7181442672
  0
LINE
  5
396
100
AcDbEntity
  8
0
100
AcDbLine
 62
2
  6
CONTINUOUS
 10
13.0086867596
 20
2.3620816246
 11
13.0086867596
 21
2.5226754472
  0
LINE
  5
397
100
AcDbEntity
  8
0
100
AcDbLine
 62
2
  6
CONTINUOUS
 10
13.0086867596
 20
2.5920323691
 11
13.0086867596
 21
2.7186750564
  0
LINE
  5
398
100
AcDbEntity
  8
0
100
AcDbLine
 62
2
  6
CONTINUOUS
 10
12.9886867486
 20
2.3615508354
 11
12.9886867486
 21
2.4912273132
  0
LINE
  5
399
100
AcDbEntity
  8
0
100
AcDbLine
 62
2
  6
CONTINUOUS
 10
12.9886867486
 20
2.515977327
 11
12.9886867486
 21
2.5417582644
  0
LINE
  5
39A
100
AcDbEntity
  8
0
100
AcDbLine
 62
2
  6
CONTINUOUS
 10
12.9886867486
 20
2.5920323691
 11
12.9886867486
 21
2.7192058456
  0
LINE
  5
39B
100
AcDbEntity
  8
0
100
AcDbLine
 62
2
  6
CONTINUOUS
 10
12.9686867375
 20
2.3610200462
 11
12.9686867375
 21
2.4912273132
  0
LINE
  5
39C
100
AcDbEntity
  8
0
100
AcDbLine
 62
2
  6
CONTINUOUS
 10
12.9686867375
 20
2.5920323691
 11
12.9686867375
 21
2.7197366348
  0
LINE
  5
39D
100
AcDbEntity
  8
0
100
AcDbLine
 62
2
  6
CONTINUOUS
 10
12.9486867264
 20
2.360489257
 11
12.9486867264
 21
2.4912273132
  0
LINE
  5
39E
100
AcDbEntity
  8
0
100
AcDbLine
 62
2
  6
CONTINUOUS
 10
12.9486867264
 20
2.5920323691
 11
12.9486867264
 21
2.720267424
  0
LINE
  5
39F
100
AcDbEntity
  8
0
100
AcDbLine
 62
2
  6
CONTINUOUS
 10
12.9286867153
 20
2.3602836008
 11
12.9286867153
 21
2.4912273132
  0
LINE
  5
3A0
100
AcDbEntity
  8
0
100
AcDbLine
 62
2
  6
CONTINUOUS
 10
12.9286867153
 20
2.515977327
 11
12.9286867153
 21
2.5672823554
  0
LINE
  5
3A1
100
AcDbEntity
  8
0
100
AcDbLine
 62
2
  6
CONTINUOUS
 10
12.9286867153
 20
2.5920323691
 11
12.9286867153
 21
2.7204730802
  0
LINE
  5
3A2
100
AcDbEntity
  8
0
100
AcDbLine
 62
2
  6
CONTINUOUS
 10
12.9086867042
 20
2.3604597639
 11
12.9086867042
 21
2.7202969171
  0
LINE
  5
3A3
100
AcDbEntity
  8
0
100
AcDbLine
 62
2
  6
CONTINUOUS
 10
12.8886866931
 20
2.360635927
 11
12.8886866931
 21
2.5672823554
  0
LINE
  5
3A4
100
AcDbEntity
  8
0
100
AcDbLine
 62
2
  6
CONTINUOUS
 10
12.8886866931
 20
2.5920323691
 11
12.8886866931
 21
2.720120754
  0
LINE
  5
3A5
100
AcDbEntity
  8
0
100
AcDbLine
 62
2
  6
CONTINUOUS
 10
12.868686682
 20
2.3608120901
 11
12.868686682
 21
2.491232357
  0
LINE
  5
3A6
100
AcDbEntity
  8
0
100
AcDbLine
 62
2
  6
CONTINUOUS
 10
12.868686682
 20
2.5920323691
 11
12.868686682
 21
2.7199445909
  0
LINE
  5
3A7
100
AcDbEntity
  8
0
100
AcDbLine
 62
2
  6
CONTINUOUS
 10
12.8486866709
 20
2.3609882532
 11
12.8486866709
 21
2.4912273132
  0
LINE
  5
3A8
100
AcDbEntity
  8
0
100
AcDbLine
 62
2
  6
CONTINUOUS
 10
12.8486866709
 20
2.5920323691
 11
12.8486866709
 21
2.7197684278
  0
LINE
  5
3A9
100
AcDbEntity
  8
0
100
AcDbLine
 62
2
  6
CONTINUOUS
 10
12.8286866598
 20
2.3611644163
 11
12.8286866598
 21
2.4912273132
  0
LINE
  5
3AA
100
AcDbEntity
  8
0
100
AcDbLine
 62
2
  6
CONTINUOUS
 10
12.8286866598
 20
2.5396527025
 11
12.8286866598
 21
2.5672823554
  0
LINE
  5
3AB
100
AcDbEntity
  8
0
100
AcDbLine
 62
2
  6
CONTINUOUS
 10
12.8286866598
 20
2.5920323691
 11
12.8286866598
 21
2.7195922647
  0
LINE
  5
3AC
100
AcDbEntity
  8
0
100
AcDbLine
 62
2
  6
CONTINUOUS
 10
12.8086866487
 20
2.3613405794
 11
12.8086866487
 21
2.4912273132
  0
LINE
  5
3AD
100
AcDbEntity
  8
0
100
AcDbLine
 62
2
  6
CONTINUOUS
 10
12.8086866487
 20
2.5587355508
 11
12.8086866487
 21
2.7194161016
  0
LINE
  5
3AE
100
AcDbEntity
  8
0
100
AcDbLine
 62
2
  6
CONTINUOUS
 10
12.7886866376
 20
2.3621089572
 11
12.7886866376
 21
2.4957181055
  0
LINE
  5
3AF
100
AcDbEntity
  8
0
100
AcDbLine
 62
2
  6
CONTINUOUS
 10
12.7886866376
 20
2.5778183992
 11
12.7886866376
 21
2.7186477238
  0
LINE
  5
3B0
100
AcDbEntity
  8
0
100
AcDbLine
 62
2
  6
CONTINUOUS
 10
12.7686866266
 20
2.3630013935
 11
12.7686866266
 21
2.5148009227
  0
LINE
  5
3B1
100
AcDbEntity
  8
0
100
AcDbLine
 62
2
  6
CONTINUOUS
 10
12.7686866266
 20
2.5920323691
 11
12.7686866266
 21
2.7177552874
  0
LINE
  5
3B2
100
AcDbEntity
  8
0
100
AcDbLine
 62
2
  6
CONTINUOUS
 10
12.7486866155
 20
2.3638938299
 11
12.7486866155
 21
2.4913263218
  0
LINE
  5
3B3
100
AcDbEntity
  8
0
100
AcDbLine
 62
2
  6
CONTINUOUS
 10
12.7486866155
 20
2.5158783184
 11
12.7486866155
 21
2.5338837399
  0
LINE
  5
3B4
100
AcDbEntity
  8
0
100
AcDbLine
 62
2
  6
CONTINUOUS
 10
12.7486866155
 20
2.5920323691
 11
12.7486866155
 21
2.7168628511
  0
LINE
  5
3B5
100
AcDbEntity
  8
0
100
AcDbLine
 62
2
  6
CONTINUOUS
 10
12.7286866044
 20
2.3647862663
 11
12.7286866044
 21
2.4912273132
  0
LINE
  5
3B6
100
AcDbEntity
  8
0
100
AcDbLine
 62
2
  6
CONTINUOUS
 10
12.7286866044
 20
2.515977327
 11
12.7286866044
 21
2.5527601554
  0
LINE
  5
3B7
100
AcDbEntity
  8
0
100
AcDbLine
 62
2
  6
CONTINUOUS
 10
12.7286866044
 20
2.5920323691
 11
12.7286866044
 21
2.7159704147
  0
LINE
  5
3B8
100
AcDbEntity
  8
0
100
AcDbLine
 62
2
  6
CONTINUOUS
 10
12.7086865933
 20
2.3656787026
 11
12.7086865933
 21
2.4912273132
  0
LINE
  5
3B9
100
AcDbEntity
  8
0
100
AcDbLine
 62
2
  6
CONTINUOUS
 10
12.7086865933
 20
2.5920323691
 11
12.7086865933
 21
2.7150779784
  0
LINE
  5
3BA
100
AcDbEntity
  8
0
100
AcDbLine
 62
2
  6
CONTINUOUS
 10
12.6886865822
 20
2.366571139
 11
12.6886865822
 21
2.4912273132
  0
LINE
  5
3BB
100
AcDbEntity
  8
0
100
AcDbLine
 62
2
  6
CONTINUOUS
 10
12.6886865822
 20
2.515977327
 11
12.6886865822
 21
2.5672823554
  0
LINE
  5
3BC
100
AcDbEntity
  8
0
100
AcDbLine
 62
2
  6
CONTINUOUS
 10
12.6886865822
 20
2.5920323691
 11
12.6886865822
 21
2.714185542
  0
LINE
  5
3BD
100
AcDbEntity
  8
0
100
AcDbLine
 62
2
  6
CONTINUOUS
 10
12.6686865711
 20
2.3677104027
 11
12.6686865711
 21
2.7130462783
  0
LINE
  5
3BE
100
AcDbEntity
  8
0
100
AcDbLine
 62
2
  6
CONTINUOUS
 10
12.64868656
 20
2.3693682721
 11
12.64868656
 21
2.7113884089
  0
LINE
  5
3BF
100
AcDbEntity
  8
0
100
AcDbLine
 62
2
  6
CONTINUOUS
 10
12.6286865489
 20
2.3710261415
 11
12.6286865489
 21
2.4912273132
  0
LINE
  5
3C0
100
AcDbEntity
  8
0
100
AcDbLine
 62
2
  6
CONTINUOUS
 10
12.6286865489
 20
2.515977327
 11
12.6286865489
 21
2.7097305395
  0
LINE
  5
3C1
100
AcDbEntity
  8
0
100
AcDbLine
 62
2
  6
CONTINUOUS
 10
12.6086865378
 20
2.372684011
 11
12.6086865378
 21
2.4912273132
  0
LINE
  5
3C2
100
AcDbEntity
  8
0
100
AcDbLine
 62
2
  6
CONTINUOUS
 10
12.6086865378
 20
2.5351122279
 11
12.6086865378
 21
2.70807267
  0
LINE
  5
3C3
100
AcDbEntity
  8
0
100
AcDbLine
 62
2
  6
CONTINUOUS
 10
12.5886865267
 20
2.3743418804
 11
12.5886865267
 21
2.4912273132
  0
LINE
  5
3C4
100
AcDbEntity
  8
0
100
AcDbLine
 62
2
  6
CONTINUOUS
 10
12.5886865267
 20
2.5660172622
 11
12.5886865267
 21
2.7064148006
  0
LINE
  5
3C5
100
AcDbEntity
  8
0
100
AcDbLine
 62
2
  6
CONTINUOUS
 10
12.5686865156
 20
2.3759997498
 11
12.5686865156
 21
2.4912273132
  0
LINE
  5
3C6
100
AcDbEntity
  8
0
100
AcDbLine
 62
2
  6
CONTINUOUS
 10
12.5686865156
 20
2.5920323691
 11
12.5686865156
 21
2.7047569312
  0
LINE
  5
3C7
100
AcDbEntity
  8
0
100
AcDbLine
 62
2
  6
CONTINUOUS
 10
12.5486865045
 20
2.3777575277
 11
12.5486865045
 21
2.4912273132
  0
LINE
  5
3C8
100
AcDbEntity
  8
0
100
AcDbLine
 62
2
  6
CONTINUOUS
 10
12.5486865045
 20
2.515977327
 11
12.5486865045
 21
2.5275118824
  0
LINE
  5
3C9
100
AcDbEntity
  8
0
100
AcDbLine
 62
2
  6
CONTINUOUS
 10
12.5486865045
 20
2.5920323691
 11
12.5486865045
 21
2.7029991533
  0
LINE
  5
3CA
100
AcDbEntity
  8
0
100
AcDbLine
 62
2
  6
CONTINUOUS
 10
12.5286864935
 20
2.3802813811
 11
12.5286864935
 21
2.5296213345
  0
LINE
  5
3CB
100
AcDbEntity
  8
0
100
AcDbLine
 62
2
  6
CONTINUOUS
 10
12.5286864935
 20
2.5505713461
 11
12.5286864935
 21
2.5667383551
  0
LINE
  5
3CC
100
AcDbEntity
  8
0
100
AcDbLine
 62
2
  6
CONTINUOUS
 10
12.5286864935
 20
2.5920323691
 11
12.5286864935
 21
2.7004752999
  0
LINE
  5
3CD
100
AcDbEntity
  8
0
100
AcDbLine
 62
2
  6
CONTINUOUS
 10
12.5086864824
 20
2.3828052346
 11
12.5086864824
 21
2.4912273132
  0
LINE
  5
3CE
100
AcDbEntity
  8
0
100
AcDbLine
 62
2
  6
CONTINUOUS
 10
12.5086864824
 20
2.515977327
 11
12.5086864824
 21
2.5279667721
  0
LINE
  5
3CF
100
AcDbEntity
  8
0
100
AcDbLine
 62
2
  6
CONTINUOUS
 10
12.5086864824
 20
2.5868602074
 11
12.5086864824
 21
2.6979514464
  0
LINE
  5
3D0
100
AcDbEntity
  8
0
100
AcDbLine
 62
2
  6
CONTINUOUS
 10
12.4886864713
 20
2.385329088
 11
12.4886864713
 21
2.4912273132
  0
LINE
  5
3D1
100
AcDbEntity
  8
0
100
AcDbLine
 62
2
  6
CONTINUOUS
 10
12.4886864713
 20
2.5553401045
 11
12.4886864713
 21
2.695427593
  0
LINE
  5
3D2
100
AcDbEntity
  8
0
100
AcDbLine
 62
2
  6
CONTINUOUS
 10
12.4686864602
 20
2.3878529415
 11
12.4686864602
 21
2.4912273132
  0
LINE
  5
3D3
100
AcDbEntity
  8
0
100
AcDbLine
 62
2
  6
CONTINUOUS
 10
12.4686864602
 20
2.5238200015
 11
12.4686864602
 21
2.6929037395
  0
LINE
  5
3D4
100
AcDbEntity
  8
0
100
AcDbLine
 62
2
  6
CONTINUOUS
 10
12.4486864491
 20
2.390376795
 11
12.4486864491
 21
2.4912273132
  0
LINE
  5
3D5
100
AcDbEntity
  8
0
100
AcDbLine
 62
2
  6
CONTINUOUS
 10
12.4486864491
 20
2.515977327
 11
12.4486864491
 21
2.690379886
  0
LINE
  5
3D6
100
AcDbEntity
  8
0
100
AcDbLine
 62
2
  6
CONTINUOUS
 10
12.428686438
 20
2.3931794042
 11
12.428686438
 21
2.6875772768
  0
LINE
  5
3D7
100
AcDbEntity
  8
0
100
AcDbLine
 62
2
  6
CONTINUOUS
 10
12.4086864269
 20
2.3964643301
 11
12.4086864269
 21
2.5013773986
  0
LINE
  5
3D8
100
AcDbEntity
  8
0
100
AcDbLine
 62
2
  6
CONTINUOUS
 10
12.4086864269
 20
2.5325739971
 11
12.4086864269
 21
2.5537224311
  0
LINE
  5
3D9
100
AcDbEntity
  8
0
100
AcDbLine
 62
2
  6
CONTINUOUS
 10
12.4086864269
 20
2.5791473398
 11
12.4086864269
 21
2.6842923509
  0
LINE
  5
3DA
100
AcDbEntity
  8
0
100
AcDbLine
 62
2
  6
CONTINUOUS
 10
12.3886864158
 20
2.399749256
 11
12.3886864158
 21
2.4921022658
  0
LINE
  5
3DB
100
AcDbEntity
  8
0
100
AcDbLine
 62
2
  6
CONTINUOUS
 10
12.3886864158
 20
2.5895929958
 11
12.3886864158
 21
2.681007425
  0
LINE
  5
3DC
100
AcDbEntity
  8
0
100
AcDbLine
 62
2
  6
CONTINUOUS
 10
12.3686864047
 20
2.403451877
 11
12.3686864047
 21
2.4912273132
  0
LINE
  5
3DD
100
AcDbEntity
  8
0
100
AcDbLine
 62
2
  6
CONTINUOUS
 10
12.3686864047
 20
2.5920323691
 11
12.3686864047
 21
2.677304804
  0
LINE
  5
3DE
100
AcDbEntity
  8
0
100
AcDbLine
 62
2
  6
CONTINUOUS
 10
12.3486863936
 20
2.407324637
 11
12.3486863936
 21
2.4912273132
  0
LINE
  5
3DF
100
AcDbEntity
  8
0
100
AcDbLine
 62
2
  6
CONTINUOUS
 10
12.3486863936
 20
2.5920323691
 11
12.3486863936
 21
2.673432044
  0
LINE
  5
3E0
100
AcDbEntity
  8
0
100
AcDbLine
 62
2
  6
CONTINUOUS
 10
12.3286863825
 20
2.4113493968
 11
12.3286863825
 21
2.4912273132
  0
LINE
  5
3E1
100
AcDbEntity
  8
0
100
AcDbLine
 62
2
  6
CONTINUOUS
 10
12.3286863825
 20
2.515977327
 11
12.3286863825
 21
2.5333023366
  0
LINE
  5
3E2
100
AcDbEntity
  8
0
100
AcDbLine
 62
2
  6
CONTINUOUS
 10
12.3286863825
 20
2.5499573458
 11
12.3286863825
 21
2.5672823554
  0
LINE
  5
3E3
100
AcDbEntity
  8
0
100
AcDbLine
 62
2
  6
CONTINUOUS
 10
12.3286863825
 20
2.5920323691
 11
12.3286863825
 21
2.6694072842
  0
LINE
  5
3E4
100
AcDbEntity
  8
0
100
AcDbLine
 62
2
  6
CONTINUOUS
 10
12.3086863715
 20
2.4159005505
 11
12.3086863715
 21
2.4912273132
  0
LINE
  5
3E5
100
AcDbEntity
  8
0
100
AcDbLine
 62
2
  6
CONTINUOUS
 10
12.3086863715
 20
2.515977327
 11
12.3086863715
 21
2.5333023366
  0
LINE
  5
3E6
100
AcDbEntity
  8
0
100
AcDbLine
 62
2
  6
CONTINUOUS
 10
12.3086863715
 20
2.5499573458
 11
12.3086863715
 21
2.5672823554
  0
LINE
  5
3E7
100
AcDbEntity
  8
0
100
AcDbLine
 62
2
  6
CONTINUOUS
 10
12.3086863715
 20
2.5920323691
 11
12.3086863715
 21
2.6648561305
  0
LINE
  5
3E8
100
AcDbEntity
  8
0
100
AcDbLine
 62
2
  6
CONTINUOUS
 10
12.2886863604
 20
2.4204517041
 11
12.2886863604
 21
2.4912273132
  0
LINE
  5
3E9
100
AcDbEntity
  8
0
100
AcDbLine
 62
2
  6
CONTINUOUS
 10
12.2886863604
 20
2.5920323691
 11
12.2886863604
 21
2.6603049769
  0
LINE
  5
3EA
100
AcDbEntity
  8
0
100
AcDbLine
 62
2
  6
CONTINUOUS
 10
12.2686863493
 20
2.4257438218
 11
12.2686863493
 21
2.4912273132
  0
LINE
  5
3EB
100
AcDbEntity
  8
0
100
AcDbLine
 62
2
  6
CONTINUOUS
 10
12.2686863493
 20
2.5920323691
 11
12.2686863493
 21
2.6550128592
  0
LINE
  5
3EC
100
AcDbEntity
  8
0
100
AcDbLine
 62
2
  6
CONTINUOUS
 10
12.2486863382
 20
2.4310978667
 11
12.2486863382
 21
2.4912273132
  0
LINE
  5
3ED
100
AcDbEntity
  8
0
100
AcDbLine
 62
2
  6
CONTINUOUS
 10
12.2486863382
 20
2.5920323691
 11
12.2486863382
 21
2.6496588142
  0
LINE
  5
3EE
100
AcDbEntity
  8
0
100
AcDbLine
 62
2
  6
CONTINUOUS
 10
12.2286863271
 20
2.4372566433
 11
12.2286863271
 21
2.4912273132
  0
LINE
  5
3EF
100
AcDbEntity
  8
0
100
AcDbLine
 62
2
  6
CONTINUOUS
 10
12.2286863271
 20
2.515977327
 11
12.2286863271
 21
2.5672823554
  0
LINE
  5
3F0
100
AcDbEntity
  8
0
100
AcDbLine
 62
2
  6
CONTINUOUS
 10
12.2286863271
 20
2.5920323691
 11
12.2286863271
 21
2.6435000377
  0
LINE
  5
3F1
100
AcDbEntity
  8
0
100
AcDbLine
 62
2
  6
CONTINUOUS
 10
12.208686316
 20
2.443589771
 11
12.208686316
 21
2.4912273132
  0
LINE
  5
3F2
100
AcDbEntity
  8
0
100
AcDbLine
 62
2
  6
CONTINUOUS
 10
12.208686316
 20
2.515977327
 11
12.208686316
 21
2.5672823554
  0
LINE
  5
3F3
100
AcDbEntity
  8
0
100
AcDbLine
 62
2
  6
CONTINUOUS
 10
12.208686316
 20
2.5920323691
 11
12.208686316
 21
2.63716691
  0
LINE
  5
3F4
100
AcDbEntity
  8
0
100
AcDbLine
 62
2
  6
CONTINUOUS
 10
12.1886863049
 20
2.4510806436
 11
12.1886863049
 21
2.6296760373
  0
LINE
  5
3F5
100
AcDbEntity
  8
0
100
AcDbLine
 62
2
  6
CONTINUOUS
 10
12.1686862938
 20
2.4591016523
 11
12.1686862938
 21
2.6216550287
  0
LINE
  5
3F6
100
AcDbEntity
  8
0
100
AcDbLine
 62
2
  6
CONTINUOUS
 10
12.1486862827
 20
2.468314272
 11
12.1486862827
 21
2.612442409
  0
LINE
  5
3F7
100
AcDbEntity
  8
0
100
AcDbLine
 62
2
  6
CONTINUOUS
 10
12.1286862716
 20
2.4794932339
 11
12.1286862716
 21
2.601263447
  0
LINE
  5
3F8
100
AcDbEntity
  8
0
100
AcDbLine
 62
2
  6
CONTINUOUS
 10
12.1086862605
 20
2.4934150665
 11
12.1086862605
 21
2.5873416144
  0
LINE
  5
3F9
100
AcDbEntity
  8
0
100
AcDbLine
 62
2
  6
CONTINUOUS
 10
12.0886862494
 20
2.5144449553
 11
12.0886862494
 21
2.5663117257
  0
ENDBLK
  5
3FA
100
AcDbEntity
  8
0
  6
BYBLOCK
 62
0
100
AcDbBlockEnd
  0
BLOCK
  5
3FB
100
AcDbEntity
  8
0
100
AcDbBlockBegin
  2
_FILLED
 70
64
 10
0.0
 20
0.0
  3
_FILLED
  1

  0
SOLID
  5
3FC
100
AcDbEntity
  8
0
  6
BYBLOCK
 62
0
100
AcDbTrace
 10
0.0
 20
0.0
 11
-1.0
 21
0.1666666667
 12
-1.0
 22
-0.1666666667
 13
-1.0
 23
-0.1666666667
  0
ENDBLK
  5
3FD
100
AcDbEntity
  8
0
  6
BYBLOCK
 62
0
100
AcDbBlockEnd
  0
BLOCK
  5
3FE
100
AcDbEntity
  8
SCHEME_DIMS
100
AcDbBlockBegin
 62
2
  6
CONTINUOUS
  2
*D0
 70
65
 10
0.0
 20
0.0
  3
*D0
  1

  0
MTEXT
  5
3FF
100
AcDbEntity
  8
SCHEME_DIMS
100
AcDbMText
 62
2
  6
CONTINUOUS
  7
STANDARD
 71
2
 72
1
 10
5.4934839155
 20
5.2656005407
 30
0.0
 11
1.0
 21
0.0
 31
0.0
 44
0.9
  1
26\P[1.03]
 40
0.1
 41
0.6
  0
LINE
  5
400
100
AcDbEntity
  8
SCHEME_DIMS
100
AcDbLine
 62
2
  6
CONTINUOUS
 10
4.925116402
 20
4.6281005407
 11
5.8184839155
 21
4.6281005407
  0
LINE
  5
401
100
AcDbEntity
  8
SCHEME_DIMS
100
AcDbLine
 62
2
  6
CONTINUOUS
 10
5.3559839155
 20
5.6531005407
 11
5.8184839155
 21
5.6531005407
  0
LINE
  5
402
100
AcDbEntity
  8
SCHEME_DIMS
100
AcDbLine
 62
2
  6
CONTINUOUS
 10
5.6934839155
 20
4.6281005407
 11
5.6934839155
 21
4.9156005407
  0
LINE
  5
403
100
AcDbEntity
  8
SCHEME_DIMS
100
AcDbLine
 62
2
  6
CONTINUOUS
 10
5.6934839155
 20
5.6531005407
 11
5.6934839155
 21
5.3656005407
  0
INSERT
  5
404
100
AcDbEntity
  8
SCHEME_DIMS
100
AcDbBlockReference
 62
2
  6
CONTINUOUS
  2
_FILLED
 10
5.6934839155
 20
4.6281005407
 41
0.1875
 42
0.1875
 43
0.1875
 50
270.0
  0
INSERT
  5
405
100
AcDbEntity
  8
SCHEME_DIMS
100
AcDbBlockReference
 62
2
  6
CONTINUOUS
  2
_FILLED
 10
5.6934839155
 20
5.6531005407
 41
0.1875
 42
0.1875
 43
0.1875
 50
90.0
  0
ENDBLK
  5
406
100
AcDbEntity
  8
0
  6
BYBLOCK
 62
0
100
AcDbBlockEnd
  0
BLOCK
  5
407
100
AcDbEntity
  8
SCHEME_DIMS
100
AcDbBlockBegin
 62
2
  6
CONTINUOUS
  2
*D1
 70
65
 10
0.0
 20
0.0
  3
*D1
  1

  0
MTEXT
  5
408
100
AcDbEntity
  8
SCHEME_DIMS
100
AcDbMText
 62
2
  6
CONTINUOUS
  7
STANDARD
 71
3
 72
1
 10
7.2610404812
 20
6.7950979781
 30
0.0
 11
1.0
 21
0.0
 31
0.0
 44
0.9
  1
15\P[.59]
 40
0.1
 41
0.5
  0
LINE
  5
409
100
AcDbEntity
  8
SCHEME_DIMS
100
AcDbLine
 62
2
  6
CONTINUOUS
 10
7.9860404812
 20
6.0563554187
 11
7.9860404812
 21
6.8700979781
  0
LINE
  5
40A
100
AcDbEntity
  8
SCHEME_DIMS
100
AcDbLine
 62
2
  6
CONTINUOUS
 10
8.5760404812
 20
6.255111867
 11
8.5760404812
 21
6.8700979781
  0
LINE
  5
40B
100
AcDbEntity
  8
SCHEME_DIMS
100
AcDbLine
 62
2
  6
CONTINUOUS
 10
7.9860404812
 20
6.7450979781
 11
8.2810404812
 21
6.7450979781
  0
LINE
  5
40C
100
AcDbEntity
  8
SCHEME_DIMS
100
AcDbLine
 62
2
  6
CONTINUOUS
 10
8.2810404812
 20
6.7450979781
 11
7.6610404812
 21
6.7450979781
  0
LINE
  5
40D
100
AcDbEntity
  8
SCHEME_DIMS
100
AcDbLine
 62
2
  6
CONTINUOUS
 10
8.5760404812
 20
6.7450979781
 11
8.2810404812
 21
6.7450979781
  0
INSERT
  5
40E
100
AcDbEntity
  8
SCHEME_DIMS
100
AcDbBlockReference
 62
2
  6
CONTINUOUS
  2
_FILLED
 10
7.9860404812
 20
6.7450979781
 41
0.1875
 42
0.1875
 43
0.1875
 50
180.0
  0
INSERT
  5
40F
100
AcDbEntity
  8
SCHEME_DIMS
100
AcDbBlockReference
 62
2
  6
CONTINUOUS
  2
_FILLED
 10
8.5760404812
 20
6.7450979781
 41
0.1875
 42
0.1875
 43
0.1875
  0
ENDBLK
  5
410
100
AcDbEntity
  8
0
  6
BYBLOCK
 62
0
100
AcDbBlockEnd
  0
BLOCK
  5
411
100
AcDbEntity
  8
SCHEME_DIMS
100
AcDbBlockBegin
 62
2
  6
CONTINUOUS
  2
*D2
 70
65
 10
0.0
 20
0.0
  3
*D2
  1

  0
MTEXT
  5
412
100
AcDbEntity
  8
SCHEME_DIMS
100
AcDbMText
 62
2
  6
CONTINUOUS
  7
STANDARD
 71
2
 72
1
 10
8.4785404812
 20
7.2950979781
 30
0.0
 11
1.0
 21
0.0
 31
0.0
 44
0.9
  1
30,1\P[1.19]
 40
0.1
 41
0.6
  0
LINE
  5
413
100
AcDbEntity
  8
SCHEME_DIMS
100
AcDbLine
 62
2
  6
CONTINUOUS
 10
7.9860404812
 20
6.0598673216
 11
7.9860404812
 21
7.3700979781
  0
LINE
  5
414
100
AcDbEntity
  8
SCHEME_DIMS
100
AcDbLine
 62
2
  6
CONTINUOUS
 10
9.1710404812
 20
6.2673430331
 11
9.1710404812
 21
7.3700979781
  0
LINE
  5
415
100
AcDbEntity
  8
SCHEME_DIMS
100
AcDbLine
 62
2
  6
CONTINUOUS
 10
7.9860404812
 20
7.2450979781
 11
7.5860404812
 21
7.2450979781
  0
LINE
  5
416
100
AcDbEntity
  8
SCHEME_DIMS
100
AcDbLine
 62
2
  6
CONTINUOUS
 10
9.1710404812
 20
7.2450979781
 11
9.5710404812
 21
7.2450979781
  0
INSERT
  5
417
100
AcDbEntity
  8
SCHEME_DIMS
100
AcDbBlockReference
 62
2
  6
CONTINUOUS
  2
_FILLED
 10
7.9860404812
 20
7.2450979781
 41
0.1875
 42
0.1875
 43
0.1875
  0
INSERT
  5
418
100
AcDbEntity
  8
SCHEME_DIMS
100
AcDbBlockReference
 62
2
  6
CONTINUOUS
  2
_FILLED
 10
9.1710404812
 20
7.2450979781
 41
0.1875
 42
0.1875
 43
0.1875
 50
180.0
  0
ENDBLK
  5
419
100
AcDbEntity
  8
0
  6
BYBLOCK
 62
0
100
AcDbBlockEnd
  0
BLOCK
  5
41A
100
AcDbEntity
  8
SCHEME_DIMS
100
AcDbBlockBegin
 62
2
  6
CONTINUOUS
  2
*D3
 70
65
 10
0.0
 20
0.0
  3
*D3
  1

  0
MTEXT
  5
41B
100
AcDbEntity
  8
SCHEME_DIMS
100
AcDbMText
 62
2
  6
CONTINUOUS
  7
TEXTSTYLE_5
 71
2
 72
1
 10
4.5014839155
 20
7.4539094933
 30
0.0
 11
1.0
 21
0.0
 31
0.0
 44
0.9
  1
{\Fgdt;n}\Ftxt;30,1\P[1.18]
 40
0.1
 41
0.6
  0
LINE
  5
41C
100
AcDbEntity
  8
SCHEME_DIMS
100
AcDbLine
 62
2
  6
CONTINUOUS
 10
5.1934839155
 20
8.4560815856
 11
5.1934839155
 21
7.2789094933
  0
LINE
  5
41D
100
AcDbEntity
  8
SCHEME_DIMS
100
AcDbLine
 62
2
  6
CONTINUOUS
 10
4.0094839155
 20
8.4623094002
 11
4.0094839155
 21
7.2789094933
  0
LINE
  5
41E
100
AcDbEntity
  8
SCHEME_DIMS
100
AcDbLine
 62
2
  6
CONTINUOUS
 10
5.1934839155
 20
7.4039094933
 11
5.5934839155
 21
7.4039094933
  0
LINE
  5
41F
100
AcDbEntity
  8
SCHEME_DIMS
100
AcDbLine
 62
2
  6
CONTINUOUS
 10
4.0094839155
 20
7.4039094933
 11
3.6094839155
 21
7.4039094933
  0
INSERT
  5
420
100
AcDbEntity
  8
SCHEME_DIMS
100
AcDbBlockReference
 62
2
  6
CONTINUOUS
  2
_FILLED
 10
5.1934839155
 20
7.4039094933
 41
0.1875
 42
0.1875
 43
0.1875
 50
180.0
  0
INSERT
  5
421
100
AcDbEntity
  8
SCHEME_DIMS
100
AcDbBlockReference
 62
2
  6
CONTINUOUS
  2
_FILLED
 10
4.0094839155
 20
7.4039094933
 41
0.1875
 42
0.1875
 43
0.1875
  0
ENDBLK
  5
422
100
AcDbEntity
  8
0
  6
BYBLOCK
 62
0
100
AcDbBlockEnd
  0
BLOCK
  5
423
100
AcDbEntity
  8
SCHEME_DIMS
100
AcDbBlockBegin
 62
2
  6
CONTINUOUS
  2
*D4
 70
65
 10
0.0
 20
0.0
  3
*D4
  1

  0
MTEXT
  5
424
100
AcDbEntity
  8
SCHEME_DIMS
100
AcDbMText
 62
2
  6
CONTINUOUS
  7
STANDARD
 71
2
 72
1
 10
10.9461285369
 20
5.5611005407
 30
0.0
 11
1.0
 21
0.0
 31
0.0
 44
0.9
  1
41\P[1.62]
 40
0.1
 41
0.6
  0
LINE
  5
425
100
AcDbEntity
  8
SCHEME_DIMS
100
AcDbLine
 62
2
  6
CONTINUOUS
 10
11.9144960503
 20
4.6281005407
 11
11.0211285369
 21
4.6281005407
  0
LINE
  5
426
100
AcDbEntity
  8
SCHEME_DIMS
100
AcDbLine
 62
2
  6
CONTINUOUS
 10
11.9740643517
 20
6.2441005407
 11
11.0211285369
 21
6.2441005407
  0
LINE
  5
427
100
AcDbEntity
  8
SCHEME_DIMS
100
AcDbLine
 62
2
  6
CONTINUOUS
 10
11.1461285369
 20
4.6281005407
 11
11.1461285369
 21
5.2111005407
  0
LINE
  5
428
100
AcDbEntity
  8
SCHEME_DIMS
100
AcDbLine
 62
2
  6
CONTINUOUS
 10
11.1461285369
 20
6.2441005407
 11
11.1461285369
 21
5.6611005407
  0
INSERT
  5
429
100
AcDbEntity
  8
SCHEME_DIMS
100
AcDbBlockReference
 62
2
  6
CONTINUOUS
  2
_FILLED
 10
11.1461285369
 20
4.6281005407
 41
0.1875
 42
0.1875
 43
0.1875
 50
270.0
  0
INSERT
  5
42A
100
AcDbEntity
  8
SCHEME_DIMS
100
AcDbBlockReference
 62
2
  6
CONTINUOUS
  2
_FILLED
 10
11.1461285369
 20
6.2441005407
 41
0.1875
 42
0.1875
 43
0.1875
 50
90.0
  0
ENDBLK
  5
42B
100
AcDbEntity
  8
0
  6
BYBLOCK
 62
0
100
AcDbBlockEnd
  0
ENDSEC
  0
SECTION
  2
ENTITIES
  0
MTEXT
  5
42C
100
AcDbEntity
  8
0
100
AcDbMText
 62
2
  6
CONTINUOUS
  7
TEXTSTYLE_2
 71
2
 72
1
 10
11.0287658475
 20
1.794867839
 30
0.0
 11
1.0
 21
0.0
 31
0.0
 44
0.9
  1
THIRD ANGLE PROJECTION
 40
0.1
 41
1.76
  0
MTEXT
  5
42D
100
AcDbEntity
  8
0
100
AcDbMText
 62
2
  6
CONTINUOUS
  7
STANDARD
 71
1
 72
1
 10
12.88
 20
1.457
 30
0.0
 11
1.0
 21
0.0
 31
0.0
 44
0.9
  1
DRAWING NO.
 40
0.08
 41
0.88
  0
MTEXT
  5
42E
100
AcDbEntity
  8
0
100
AcDbMText
 62
2
  6
CONTINUOUS
  7
TEXTSTYLE_3
 71
2
 72
1
 10
11.03
 20
2.516432
 30
0.0
 11
1.0
 21
0.0
 31
0.0
 44
0.9
  1
and is proprietary in general
 40
0.08
 41
1.972
  0
MTEXT
  5
42F
100
AcDbEntity
  8
0
100
AcDbMText
 62
2
  6
CONTINUOUS
  7
TEXTSTYLE_3
 71
2
 72
1
 10
11.03
 20
2.396432
 30
0.0
 11
1.0
 21
0.0
 31
0.0
 44
0.9
  1
and in detail.  Its contents
 40
0.08
 41
1.904
  0
MTEXT
  5
430
100
AcDbEntity
  8
0
100
AcDbMText
 62
2
  6
CONTINUOUS
  7
TEXTSTYLE_3
 71
2
 72
1
 10
11.03
 20
2.276432
 30
0.0
 11
1.0
 21
0.0
 31
0.0
 44
0.9
  1
shall not be revealed to
 40
0.08
 41
1.632
  0
MTEXT
  5
431
100
AcDbEntity
  8
0
100
AcDbMText
 62
2
  6
CONTINUOUS
  7
TEXTSTYLE_3
 71
2
 72
1
 10
11.03
 20
2.156432
 30
0.0
 11
1.0
 21
0.0
 31
0.0
 44
0.9
  1
outside parties without
 40
0.08
 41
1.564
  0
MTEXT
  5
432
100
AcDbEntity
  8
0
100
AcDbMText
 62
2
  6
CONTINUOUS
  7
TEXTSTYLE_3
 71
2
 72
1
 10
11.03
 20
2.036432
 30
0.0
 11
1.0
 21
0.0
 31
0.0
 44
0.9
  1
written consent of BANNER.
 40
0.08
 41
1.768
  0
MTEXT
  5
433
100
AcDbEntity
  8
0
100
AcDbMText
 62
2
  6
CONTINUOUS
  7
TEXTSTYLE_2
 71
1
 72
1
 10
12.08
 20
2.217
 30
0.0
 11
1.0
 21
0.0
 31
0.0
 44
0.9
  1
TITLE
 40
0.1
 41
0.4
  0
MTEXT
  5
434
100
AcDbEntity
  8
0
100
AcDbMText
 62
2
  6
CONTINUOUS
  7
STANDARD
 71
1
 72
1
 10
12.08
 20
1.457
 30
0.0
 11
1.0
 21
0.0
 31
0.0
 44
0.9
  1
SIZE
 40
0.08
 41
0.32
  0
MTEXT
  5
435
100
AcDbEntity
  8
0
100
AcDbMText
 62
2
  6
CONTINUOUS
  7
STANDARD
 71
1
 72
1
 10
12.08
 20
1.087
 30
0.0
 11
1.0
 21
0.0
 31
0.0
 44
0.9
  1
SCALE
 40
0.08
 41
0.4
  0
MTEXT
  5
436
100
AcDbEntity
  8
0
100
AcDbMText
 62
2
  6
CONTINUOUS
  7
TEXTSTYLE_2
 71
2
 72
1
 10
12.5
 20
1.337
 30
0.0
 11
1.0
 21
0.0
 31
0.0
 44
0.9
  1
B
 40
0.1
 41
0.08
  0
MTEXT
  5
437
100
AcDbEntity
  8
0
100
AcDbMText
 62
2
  6
CONTINUOUS
  7
TEXTSTYLE_3
 71
2
 72
1
 10
11.03
 20
2.636432
 30
0.0
 11
1.0
 21
0.0
 31
0.0
 44
0.9
  1
of BANNER ENGINEERING CORP.
 40
0.08
 41
1.836
  0
MTEXT
  5
438
100
AcDbEntity
  8
0
100
AcDbMText
 62
2
  6
CONTINUOUS
  7
TEXTSTYLE_3
 71
2
 72
1
 10
11.03
 20
2.756432
 30
0.0
 11
1.0
 21
0.0
 31
0.0
 44
0.9
  1
This drawing is the property
 40
0.08
 41
1.904
  0
MTEXT
  5
439
100
AcDbEntity
  8
0
100
AcDbMText
 62
2
  6
CONTINUOUS
  7
TEXTSTYLE_2
 71
2
 72
1
 10
15.03
 20
2.4134
 30
0.0
 11
1.0
 21
0.0
 31
0.0
 44
0.9
  1
MINNEAPOLIS, MN 55440
 40
0.1
 41
1.68
  0
MTEXT
  5
43A
100
AcDbEntity
  8
0
100
AcDbMText
 62
2
  6
CONTINUOUS
  7
STANDARD
 71
1
 72
1
 10
14.255
 20
1.087
 30
0.0
 11
1.0
 21
0.0
 31
0.0
 44
0.9
  1
SHEET
 40
0.08
 41
0.4
  0
MTEXT
  5
43B
100
AcDbEntity
  8
0
100
AcDbMText
 62
2
  6
CONTINUOUS
  7
STANDARD
 71
1
 72
1
 10
15.63
 20
1.457
 30
0.0
 11
1.0
 21
0.0
 31
0.0
 44
0.9
  1
REV.
 40
0.08
 41
0.32
  0
MTEXT
  5
43C
100
AcDbEntity
  8
0
100
AcDbMText
 62
2
  6
CONTINUOUS
  7
STANDARD
 71
3
 72
1
 10
16.38
 20
0.835443
 30
0.0
 11
1.0
 21
0.0
 31
0.0
 44
0.9
  1
PRO/E
 40
0.07
 41
0.35
  0
MTEXT
  5
43D
100
AcDbEntity
  8
0
100
AcDbMText
 62
2
  6
CONTINUOUS
  7
TEXTSTYLE_4
 71
2
 72
1
 10
15.03
 20
2.751049
 30
0.0
 11
1.0
 21
0.0
 31
0.0
 44
0.9
  1
BANNER ENGINEERING CORP.
 40
0.12
 41
2.6496
  0
MTEXT
  5
43E
100
AcDbEntity
  8
0
100
AcDbMText
 62
2
  6
CONTINUOUS
  7
TEXTSTYLE_2
 71
2
 72
1
 10
15.03
 20
2.5724
 30
0.0
 11
1.0
 21
0.0
 31
0.0
 44
0.9
  1
P.O. BOX 9414
 40
0.1
 41
1.04
  0
MTEXT
  5
43F
100
AcDbEntity
  8
0
100
AcDbMText
 62
2
  6
CONTINUOUS
  7
TEXTSTYLE_2
 71
2
 72
1
 10
9.485
 20
10.312
 30
0.0
 11
1.0
 21
0.0
 31
0.0
 44
0.9
  1
4
 40
0.1
 41
0.08
  0
MTEXT
  5
440
100
AcDbEntity
  8
0
100
AcDbMText
 62
2
  6
CONTINUOUS
  7
TEXTSTYLE_2
 71
2
 72
1
 10
11.455
 20
10.312
 30
0.0
 11
1.0
 21
0.0
 31
0.0
 44
0.9
  1
3
 40
0.1
 41
0.08
  0
MTEXT
  5
441
100
AcDbEntity
  8
0
100
AcDbMText
 62
2
  6
CONTINUOUS
  7
TEXTSTYLE_2
 71
2
 72
1
 10
13.425
 20
10.312
 30
0.0
 11
1.0
 21
0.0
 31
0.0
 44
0.9
  1
2
 40
0.1
 41
0.08
  0
MTEXT
  5
442
100
AcDbEntity
  8
0
100
AcDbMText
 62
2
  6
CONTINUOUS
  7
TEXTSTYLE_2
 71
2
 72
1
 10
15.395
 20
10.312
 30
0.0
 11
1.0
 21
0.0
 31
0.0
 44
0.9
  1
1
 40
0.1
 41
0.08
  0
MTEXT
  5
443
100
AcDbEntity
  8
0
100
AcDbMText
 62
2
  6
CONTINUOUS
  7
TEXTSTYLE_2
 71
2
 72
1
 10
3.575
 20
10.312
 30
0.0
 11
1.0
 21
0.0
 31
0.0
 44
0.9
  1
7
 40
0.1
 41
0.08
  0
MTEXT
  5
444
100
AcDbEntity
  8
0
100
AcDbMText
 62
2
  6
CONTINUOUS
  7
TEXTSTYLE_2
 71
2
 72
1
 10
5.545
 20
10.312
 30
0.0
 11
1.0
 21
0.0
 31
0.0
 44
0.9
  1
6
 40
0.1
 41
0.08
  0
MTEXT
  5
445
100
AcDbEntity
  8
0
100
AcDbMText
 62
2
  6
CONTINUOUS
  7
TEXTSTYLE_2
 71
2
 72
1
 10
7.515
 20
10.312
 30
0.0
 11
1.0
 21
0.0
 31
0.0
 44
0.9
  1
5
 40
0.1
 41
0.08
  0
MTEXT
  5
446
100
AcDbEntity
  8
0
100
AcDbMText
 62
2
  6
CONTINUOUS
  7
TEXTSTYLE_2
 71
2
 72
1
 10
1.605
 20
10.312
 30
0.0
 11
1.0
 21
0.0
 31
0.0
 44
0.9
  1
8
 40
0.1
 41
0.08
  0
MTEXT
  5
447
100
AcDbEntity
  8
0
100
AcDbMText
 62
2
  6
CONTINUOUS
  7
TEXTSTYLE_2
 71
2
 72
1
 10
1.605
 20
0.787
 30
0.0
 11
1.0
 21
0.0
 31
0.0
 44
0.9
  1
8
 40
0.1
 41
0.08
  0
MTEXT
  5
448
100
AcDbEntity
  8
0
100
AcDbMText
 62
2
  6
CONTINUOUS
  7
TEXTSTYLE_2
 71
2
 72
1
 10
3.575
 20
0.787
 30
0.0
 11
1.0
 21
0.0
 31
0.0
 44
0.9
  1
7
 40
0.1
 41
0.08
  0
MTEXT
  5
449
100
AcDbEntity
  8
0
100
AcDbMText
 62
2
  6
CONTINUOUS
  7
TEXTSTYLE_2
 71
2
 72
1
 10
5.545
 20
0.787
 30
0.0
 11
1.0
 21
0.0
 31
0.0
 44
0.9
  1
6
 40
0.1
 41
0.08
  0
MTEXT
  5
44A
100
AcDbEntity
  8
0
100
AcDbMText
 62
2
  6
CONTINUOUS
  7
TEXTSTYLE_2
 71
2
 72
1
 10
7.515
 20
0.787
 30
0.0
 11
1.0
 21
0.0
 31
0.0
 44
0.9
  1
5
 40
0.1
 41
0.08
  0
MTEXT
  5
44B
100
AcDbEntity
  8
0
100
AcDbMText
 62
2
  6
CONTINUOUS
  7
TEXTSTYLE_2
 71
2
 72
1
 10
9.485
 20
0.787
 30
0.0
 11
1.0
 21
0.0
 31
0.0
 44
0.9
  1
4
 40
0.1
 41
0.08
  0
MTEXT
  5
44C
100
AcDbEntity
  8
0
100
AcDbMText
 62
2
  6
CONTINUOUS
  7
TEXTSTYLE_2
 71
2
 72
1
 10
11.455
 20
0.787
 30
0.0
 11
1.0
 21
0.0
 31
0.0
 44
0.9
  1
3
 40
0.1
 41
0.08
  0
MTEXT
  5
44D
100
AcDbEntity
  8
0
100
AcDbMText
 62
2
  6
CONTINUOUS
  7
TEXTSTYLE_2
 71
2
 72
1
 10
13.425
 20
0.787
 30
0.0
 11
1.0
 21
0.0
 31
0.0
 44
0.9
  1
2
 40
0.1
 41
0.08
  0
MTEXT
  5
44E
100
AcDbEntity
  8
0
100
AcDbMText
 62
2
  6
CONTINUOUS
  7
TEXTSTYLE_2
 71
2
 72
1
 10
15.395
 20
0.787
 30
0.0
 11
1.0
 21
0.0
 31
0.0
 44
0.9
  1
1
 40
0.1
 41
0.08
  0
MTEXT
  5
44F
100
AcDbEntity
  8
0
100
AcDbMText
 62
2
  6
CONTINUOUS
  7
TEXTSTYLE_2
 71
3
 72
1
 10
0.52
 20
4.3995
 30
0.0
 11
1.0
 21
0.0
 31
0.0
 44
0.9
  1
B
 40
0.1
 41
0.08
  0
MTEXT
  5
450
100
AcDbEntity
  8
0
100
AcDbMText
 62
2
  6
CONTINUOUS
  7
TEXTSTYLE_2
 71
3
 72
1
 10
0.52
 20
2.0995
 30
0.0
 11
1.0
 21
0.0
 31
0.0
 44
0.9
  1
A
 40
0.1
 41
0.08
  0
MTEXT
  5
451
100
AcDbEntity
  8
0
100
AcDbMText
 62
2
  6
CONTINUOUS
  7
TEXTSTYLE_2
 71
3
 72
1
 10
0.52
 20
8.9995
 30
0.0
 11
1.0
 21
0.0
 31
0.0
 44
0.9
  1
D
 40
0.1
 41
0.08
  0
MTEXT
  5
452
100
AcDbEntity
  8
0
100
AcDbMText
 62
2
  6
CONTINUOUS
  7
TEXTSTYLE_2
 71
3
 72
1
 10
0.52
 20
6.6995
 30
0.0
 11
1.0
 21
0.0
 31
0.0
 44
0.9
  1
C
 40
0.1
 41
0.08
  0
MTEXT
  5
453
100
AcDbEntity
  8
0
100
AcDbMText
 62
2
  6
CONTINUOUS
  7
TEXTSTYLE_2
 71
1
 72
1
 10
16.48
 20
8.9995
 30
0.0
 11
1.0
 21
0.0
 31
0.0
 44
0.9
  1
D
 40
0.1
 41
0.08
  0
MTEXT
  5
454
100
AcDbEntity
  8
0
100
AcDbMText
 62
2
  6
CONTINUOUS
  7
TEXTSTYLE_2
 71
1
 72
1
 10
16.48
 20
6.6995
 30
0.0
 11
1.0
 21
0.0
 31
0.0
 44
0.9
  1
C
 40
0.1
 41
0.08
  0
MTEXT
  5
455
100
AcDbEntity
  8
0
100
AcDbMText
 62
2
  6
CONTINUOUS
  7
TEXTSTYLE_2
 71
1
 72
1
 10
16.48
 20
4.3995
 30
0.0
 11
1.0
 21
0.0
 31
0.0
 44
0.9
  1
B
 40
0.1
 41
0.08
  0
MTEXT
  5
456
100
AcDbEntity
  8
0
100
AcDbMText
 62
2
  6
CONTINUOUS
  7
TEXTSTYLE_2
 71
1
 72
1
 10
16.48
 20
2.0995
 30
0.0
 11
1.0
 21
0.0
 31
0.0
 44
0.9
  1
A
 40
0.1
 41
0.08
  0
MTEXT
  5
457
100
AcDbEntity
  8
0
100
AcDbMText
 62
2
  6
CONTINUOUS
  7
STANDARD
 71
1
 72
1
 10
14.819264911
 20
1.0627941725
 30
0.0
 11
1.0
 21
0.0
 31
0.0
 44
0.9
  1
1 OF 1
 40
0.1
 41
0.6
  0
MTEXT
  5
458
100
AcDbEntity
  8
0
100
AcDbMText
 62
7
  6
CONTINUOUS
  7
STANDARD
 71
1
 72
1
 10
13.8911999818
 20
1.3747321586
 30
0.0
 11
1.0
 21
0.0
 31
0.0
 44
0.9
  1
155306
 40
0.12
 41
0.72
  0
MTEXT
  5
459
100
AcDbEntity
  8
0
100
AcDbMText
 62
2
  6
CONTINUOUS
  7
STANDARD
 71
1
 72
1
 10
12.644264911
 20
1.0627941725
 30
0.0
 11
1.0
 21
0.0
 31
0.0
 44
0.9
  1
1:1
 40
0.1
 41
0.3
  0
MTEXT
  5
45A
100
AcDbEntity
  8
0
100
AcDbMText
 62
2
  6
CONTINUOUS
  7
STANDARD
 71
1
 72
1
 10
1.0597007627
 20
1.6202922458
 30
0.0
 11
1.0
 21
0.0
 31
0.0
 44
0.9
  1
NOTES:\P1. ALL DIMENSIONS ARE MILLIMETERS [INCHES] UNLESS OTHERWISE NOTED.
 40
0.1
 41
6.6
  0
INSERT
  5
45B
100
AcDbEntity
  8
0
100
AcDbBlockReference
 62
2
  6
CONTINUOUS
  2
BANNER_LOGO_TITLEBLOCK_BL0
 10
12.9086867042
 20
2.5403783405
  0
DIMENSION
  5
45C
100
AcDbEntity
  8
SCHEME_DIMS
100
AcDbDimension
 62
2
  6
CONTINUOUS
  2
*D0
 10
5.6934839155
 20
5.6531005407
 11
5.6184839155
 21
5.1406005407
 70
160
 71
2
 42
26.035
  3
DIMSTYLE_1
100
AcDbAlignedDimension
 13
4.925116402
 23
4.6281005407
 14
5.3559839155
 24
5.6531005407
 50
90.0
100
AcDbRotatedDimension
  0
DIMENSION
  5
45D
100
AcDbEntity
  8
SCHEME_DIMS
100
AcDbDimension
 62
2
  6
CONTINUOUS
  2
*D1
 10
8.5760404812
 20
6.7450979781
 11
7.1610404812
 21
6.6700979781
 70
160
 71
3
 42
14.986
  3
DIMSTYLE_1
100
AcDbAlignedDimension
 13
7.9860404812
 23
6.0563554187
 14
8.5760404812
 24
6.255111867
100
AcDbRotatedDimension
  0
DIMENSION
  5
45E
100
AcDbEntity
  8
SCHEME_DIMS
100
AcDbDimension
 62
2
  6
CONTINUOUS
  2
*D2
 10
9.1710404812
 20
7.2450979781
 11
8.4535404812
 21
7.1700979781
 70
160
 71
2
 42
30.099
  3
DIMSTYLE_1
100
AcDbAlignedDimension
 13
7.9860404812
 23
6.0598673216
 14
9.1710404812
 24
6.2673430331
100
AcDbRotatedDimension
  0
DIMENSION
  5
45F
100
AcDbEntity
  8
SCHEME_DIMS
100
AcDbDimension
 62
2
  6
CONTINUOUS
  2
*D3
 10
4.0094839155
 20
7.4039094933
 11
4.5431505821
 21
7.3289094933
 70
160
 71
2
 42
30.0736
  1
%%c<>
  3
DIMSTYLE_1
100
AcDbAlignedDimension
 13
5.1934839155
 23
8.4560815856
 14
4.0094839155
 24
8.4623094002
 50
180.0
100
AcDbRotatedDimension
  0
DIMENSION
  5
460
100
AcDbEntity
  8
SCHEME_DIMS
100
AcDbDimension
 62
2
  6
CONTINUOUS
  2
*D4
 10
11.1461285369
 20
6.2441005407
 11
11.0711285369
 21
5.4361005407
 70
160
 71
2
 42
41.0464
  3
DIMSTYLE_1
100
AcDbAlignedDimension
 13
11.9144960503
 23
4.6281005407
 14
11.9740643517
 24
6.2441005407
 50
90.0
100
AcDbRotatedDimension
  0
LINE
  5
461
100
AcDbEntity
  8
0
100
AcDbLine
 62
2
  6
CONTINUOUS
 10
16.38
 20
0.887
 11
12.03
 21
0.887
  0
LINE
  5
462
100
AcDbEntity
  8
0
100
AcDbLine
 62
2
  6
CONTINUOUS
 10
16.38
 20
0.887
 11
16.38
 21
2.807
  0
LINE
  5
463
100
AcDbEntity
  8
0
100
AcDbLine
 62
2
  6
CONTINUOUS
 10
16.38
 20
2.807
 11
12.03
 21
2.807
  0
LINE
  5
464
100
AcDbEntity
  8
0
100
AcDbLine
 62
2
  6
CONTINUOUS
 10
12.03
 20
0.887
 11
12.03
 21
2.807
  0
MTEXT
  5
465
100
AcDbEntity
  8
NOTES
100
AcDbMText
 62
7
  6
CONTINUOUS
  7
STANDARD
 71
2
 72
1
 10
16.155
 20
1.367
 30
0.0
 11
1.0
 21
0.0
 31
0.0
 44
0.9
  1
1
 40
0.1
 41
0.1
  0
MTEXT
  5
466
100
AcDbEntity
  8
NOTES
100
AcDbMText
 62
7
  6
CONTINUOUS
  7
STANDARD
 71
2
 72
1
 10
14.205
 20
1.967
 30
0.0
 11
1.0
 21
0.0
 31
0.0
 44
0.9
  1
T18 SN6R/SP6R CABLE/PIGTAIL\PWEB CAD DRAWINGS 2D/3D
 40
0.1
 41
2.7
  0
MTEXT
  5
467
100
AcDbEntity
  8
NOTES
100
AcDbMText
 62
2
  6
CONTINUOUS
  7
STANDARD
 71
2
 72
1
 10
14.4726135642
 20
6.9018425107
 30
0.0
 11
1.0
 21
0.0
 31
0.0
 44
0.9
  1
ISOMETRIC VIEW\PSCALE  1:1
 40
0.1
 41
1.4
  0
LEADER
  5
468
100
AcDbEntity
  8
NOTES
100
AcDbLeader
 62
2
  6
CONTINUOUS
  3
STANDARD
 71
1
 72
0
 73
0
 75
0
 40
0.1
 41
0.9
 76
3
 10
8.1445891376
 20
5.3004143887
 30
0.0
 10
7.8798570393
 20
4.9223511245
 30
0.0
 10
7.6298570393
 20
4.9223511245
 30
0.0
340
469
1001
ACAD
1000
DSTYLE
1002
{
1070
77
1070
0
1002
}
  0
MTEXT
  5
469
102
{ACAD_REACTORS
330
468
102
}
100
AcDbEntity
  8
NOTES
100
AcDbMText
 62
2
  6
CONTINUOUS
  7
STANDARD
 71
3
 72
1
 10
7.6298570393
 20
4.9723511245
 30
0.0
 11
1.0
 21
0.0
 31
0.0
 44
0.9
  1
M18 X 1 G
 40
0.1
 41
0.9
  0
LINE
  5
46A
100
AcDbEntity
  8
0
100
AcDbLine
 62
2
  6
CONTINUOUS
 10
0.47
 20
5.586103
 11
0.47
 21
5.412897
  0
LINE
  5
46B
100
AcDbEntity
  8
0
100
AcDbLine
 62
2
  6
CONTINUOUS
 10
0.62
 20
10.112
 11
0.62
 21
0.887
  0
LINE
  5
46C
100
AcDbEntity
  8
0
100
AcDbLine
 62
2
  6
CONTINUOUS
 10
2.59
 20
0.887
 11
2.59
 21
0.637
  0
LINE
  5
46D
100
AcDbEntity
  8
0
100
AcDbLine
 62
2
  6
CONTINUOUS
 10
2.59
 20
10.112
 11
2.59
 21
10.362
  0
LINE
  5
46E
100
AcDbEntity
  8
0
100
AcDbLine
 62
2
  6
CONTINUOUS
 10
8.413397
 20
0.737
 11
8.586603
 21
0.737
  0
LINE
  5
46F
100
AcDbEntity
  8
0
100
AcDbLine
 62
7
  6
CONTINUOUS
 10
11.1389508475
 20
1.425992839
 11
11.7453418475
 21
1.495385839
  0
LINE
  5
470
100
AcDbEntity
  8
0
100
AcDbLine
 62
2
  6
CONTINUOUS
 10
0.62
 20
0.887
 11
16.38
 21
0.887
  0
LINE
  5
471
100
AcDbEntity
  8
0
100
AcDbLine
 62
2
  6
CONTINUOUS
 10
12.03
 20
1.137
 11
16.38
 21
1.137
  0
LINE
  5
472
100
AcDbEntity
  8
0
100
AcDbLine
 62
7
  6
CONTINUOUS
 10
10.2121898475
 20
1.243294839
 11
10.4342808475
 21
1.243294839
  0
LINE
  5
473
100
AcDbEntity
  8
0
100
AcDbLine
 62
7
  6
CONTINUOUS
 10
10.4842808475
 20
1.243294839
 11
10.5842808475
 21
1.243294839
  0
LINE
  5
474
100
AcDbEntity
  8
0
100
AcDbLine
 62
7
  6
CONTINUOUS
 10
10.6342808475
 20
1.243294839
 11
10.8563718475
 21
1.243294839
  0
LINE
  5
475
100
AcDbEntity
  8
0
100
AcDbLine
 62
7
  6
CONTINUOUS
 10
11.0389508475
 20
1.243294839
 11
11.3171028475
 21
1.243294839
  0
LINE
  5
476
100
AcDbEntity
  8
0
100
AcDbLine
 62
7
  6
CONTINUOUS
 10
11.3671028475
 20
1.243294839
 11
11.5171888475
 21
1.243294839
  0
LINE
  5
477
100
AcDbEntity
  8
0
100
AcDbLine
 62
7
  6
CONTINUOUS
 10
11.5671888475
 20
1.243294839
 11
11.8453418475
 21
1.243294839
  0
LINE
  5
478
100
AcDbEntity
  8
0
100
AcDbLine
 62
7
  6
CONTINUOUS
 10
11.7453418475
 20
0.991203839
 11
11.1389508475
 21
1.060596839
  0
LINE
  5
479
100
AcDbEntity
  8
0
100
AcDbLine
 62
2
  6
CONTINUOUS
 10
4.56
 20
0.887
 11
4.56
 21
0.637
  0
LINE
  5
47A
100
AcDbEntity
  8
0
100
AcDbLine
 62
2
  6
CONTINUOUS
 10
4.56
 20
10.112
 11
4.56
 21
10.362
  0
LINE
  5
47B
100
AcDbEntity
  8
0
100
AcDbLine
 62
2
  6
CONTINUOUS
 10
0.47
 20
5.412897
 11
0.62
 21
5.4995
  0
LINE
  5
47C
100
AcDbEntity
  8
0
100
AcDbLine
 62
2
  6
CONTINUOUS
 10
12.03
 20
1.507
 11
16.38
 21
1.507
  0
LINE
  5
47D
100
AcDbEntity
  8
0
100
AcDbLine
 62
2
  6
CONTINUOUS
 10
10.03
 20
1.907
 11
12.03
 21
1.907
  0
LINE
  5
47E
100
AcDbEntity
  8
0
100
AcDbLine
 62
2
  6
CONTINUOUS
 10
0.62
 20
5.4995
 11
0.47
 21
5.586103
  0
LINE
  5
47F
100
AcDbEntity
  8
0
100
AcDbLine
 62
2
  6
CONTINUOUS
 10
12.03
 20
2.267
 11
16.38
 21
2.267
  0
LINE
  5
480
100
AcDbEntity
  8
0
100
AcDbLine
 62
2
  6
CONTINUOUS
 10
8.5
 20
10.112
 11
8.586603
 21
10.262
  0
LINE
  5
481
100
AcDbEntity
  8
0
100
AcDbLine
 62
2
  6
CONTINUOUS
 10
16.38
 20
2.807
 11
10.03
 21
2.807
  0
LINE
  5
482
100
AcDbEntity
  8
0
100
AcDbLine
 62
2
  6
CONTINUOUS
 10
0.62
 20
3.1995
 11
0.37
 21
3.1995
  0
LINE
  5
483
100
AcDbEntity
  8
0
100
AcDbLine
 62
2
  6
CONTINUOUS
 10
16.38
 20
3.1995
 11
16.63
 21
3.1995
  0
LINE
  5
484
100
AcDbEntity
  8
0
100
AcDbLine
 62
2
  6
CONTINUOUS
 10
8.586603
 20
0.737
 11
8.5
 21
0.887
  0
LINE
  5
485
100
AcDbEntity
  8
0
100
AcDbLine
 62
2
  6
CONTINUOUS
 10
6.53
 20
0.887
 11
6.53
 21
0.637
  0
LINE
  5
486
100
AcDbEntity
  8
0
100
AcDbLine
 62
2
  6
CONTINUOUS
 10
6.53
 20
10.112
 11
6.53
 21
10.362
  0
LINE
  5
487
100
AcDbEntity
  8
0
100
AcDbLine
 62
2
  6
CONTINUOUS
 10
8.5
 20
0.887
 11
8.5
 21
0.637
  0
LINE
  5
488
100
AcDbEntity
  8
0
100
AcDbLine
 62
2
  6
CONTINUOUS
 10
8.5
 20
10.112
 11
8.5
 21
10.362
  0
LINE
  5
489
100
AcDbEntity
  8
0
100
AcDbLine
 62
2
  6
CONTINUOUS
 10
0.62
 20
5.4995
 11
0.37
 21
5.4995
  0
LINE
  5
48A
100
AcDbEntity
  8
0
100
AcDbLine
 62
2
  6
CONTINUOUS
 10
16.38
 20
5.4995
 11
16.63
 21
5.4995
  0
LINE
  5
48B
100
AcDbEntity
  8
0
100
AcDbLine
 62
2
  6
CONTINUOUS
 10
10.03
 20
2.807
 11
10.03
 21
0.887
  0
LINE
  5
48C
100
AcDbEntity
  8
0
100
AcDbLine
 62
2
  6
CONTINUOUS
 10
10.47
 20
0.887
 11
10.47
 21
0.637
  0
LINE
  5
48D
100
AcDbEntity
  8
0
100
AcDbLine
 62
2
  6
CONTINUOUS
 10
10.47
 20
10.112
 11
10.47
 21
10.362
  0
LINE
  5
48E
100
AcDbEntity
  8
0
100
AcDbLine
 62
7
  6
CONTINUOUS
 10
10.5342808475
 20
1.143294839
 11
10.5342808475
 21
0.921203839
  0
LINE
  5
48F
100
AcDbEntity
  8
0
100
AcDbLine
 62
7
  6
CONTINUOUS
 10
10.5342808475
 20
1.193294839
 11
10.5342808475
 21
1.293294839
  0
LINE
  5
490
100
AcDbEntity
  8
0
100
AcDbLine
 62
7
  6
CONTINUOUS
 10
10.5342808475
 20
1.343294839
 11
10.5342808475
 21
1.565385839
  0
LINE
  5
491
100
AcDbEntity
  8
0
100
AcDbLine
 62
2
  6
CONTINUOUS
 10
8.5
 20
0.887
 11
8.413397
 21
0.737
  0
LINE
  5
492
100
AcDbEntity
  8
0
100
AcDbLine
 62
2
  6
CONTINUOUS
 10
0.62
 20
7.7995
 11
0.37
 21
7.7995
  0
LINE
  5
493
100
AcDbEntity
  8
0
100
AcDbLine
 62
2
  6
CONTINUOUS
 10
16.38
 20
7.7995
 11
16.63
 21
7.7995
  0
LINE
  5
494
100
AcDbEntity
  8
0
100
AcDbLine
 62
2
  6
CONTINUOUS
 10
8.413397
 20
10.262
 11
8.5
 21
10.112
  0
LINE
  5
495
100
AcDbEntity
  8
0
100
AcDbLine
 62
7
  6
CONTINUOUS
 10
11.1389508475
 20
1.060596839
 11
11.1389508475
 21
1.425992839
  0
LINE
  5
496
100
AcDbEntity
  8
0
100
AcDbLine
 62
7
  6
CONTINUOUS
 10
11.7453418475
 20
1.495385839
 11
11.7453418475
 21
0.991203839
  0
LINE
  5
497
100
AcDbEntity
  8
0
100
AcDbLine
 62
1
  6
CONTINUOUS
 10
12.03
 20
2.807
 11
12.03
 21
0.887
  0
LINE
  5
498
100
AcDbEntity
  8
0
100
AcDbLine
 62
2
  6
CONTINUOUS
 10
12.44
 20
0.887
 11
12.44
 21
0.637
  0
LINE
  5
499
100
AcDbEntity
  8
0
100
AcDbLine
 62
2
  6
CONTINUOUS
 10
12.44
 20
10.112
 11
12.44
 21
10.362
  0
LINE
  5
49A
100
AcDbEntity
  8
0
100
AcDbLine
 62
2
  6
CONTINUOUS
 10
16.53
 20
5.586103
 11
16.38
 21
5.4995
  0
LINE
  5
49B
100
AcDbEntity
  8
0
100
AcDbLine
 62
2
  6
CONTINUOUS
 10
16.38
 20
5.4995
 11
16.53
 21
5.412897
  0
LINE
  5
49C
100
AcDbEntity
  8
0
100
AcDbLine
 62
2
  6
CONTINUOUS
 10
12.83
 20
1.507
 11
12.83
 21
1.137
  0
LINE
  5
49D
100
AcDbEntity
  8
0
100
AcDbLine
 62
2
  6
CONTINUOUS
 10
16.38
 20
10.112
 11
0.62
 21
10.112
  0
LINE
  5
49E
100
AcDbEntity
  8
0
100
AcDbLine
 62
2
  6
CONTINUOUS
 10
8.586603
 20
10.262
 11
8.413397
 21
10.262
  0
LINE
  5
49F
100
AcDbEntity
  8
0
100
AcDbLine
 62
2
  6
CONTINUOUS
 10
14.205
 20
1.137
 11
14.205
 21
0.887
  0
LINE
  5
4A0
100
AcDbEntity
  8
0
100
AcDbLine
 62
2
  6
CONTINUOUS
 10
14.41
 20
0.887
 11
14.41
 21
0.637
  0
LINE
  5
4A1
100
AcDbEntity
  8
0
100
AcDbLine
 62
2
  6
CONTINUOUS
 10
14.41
 20
10.112
 11
14.41
 21
10.362
  0
LINE
  5
4A2
100
AcDbEntity
  8
0
100
AcDbLine
 62
2
  6
CONTINUOUS
 10
15.58
 20
1.507
 11
15.58
 21
1.137
  0
LINE
  5
4A3
100
AcDbEntity
  8
0
100
AcDbLine
 62
2
  6
CONTINUOUS
 10
16.38
 20
0.887
 11
16.38
 21
10.112
  0
LINE
  5
4A4
100
AcDbEntity
  8
0
100
AcDbLine
 62
2
  6
CONTINUOUS
 10
16.53
 20
5.412897
 11
16.53
 21
5.586103
  0
LWPOLYLINE
  5
4A5
100
AcDbEntity
  8
0
100
AcDbPolyline
 62
9
  6
CONTINUOUS
 90
19
 70
0
 10
14.4198262904
 20
9.1785542514
 10
14.4326774617
 20
9.1838681691
 10
14.4459648337
 20
9.1883186158
 10
14.4596665889
 20
9.1918982839
 10
14.4737602296
 20
9.1946012957
 10
14.4882226145
 20
9.196423213
 10
14.5030299968
 20
9.1973610442
 10
14.5181580634
 20
9.1974132494
 10
14.5335819744
 20
9.196579743
 10
14.5492764044
 20
9.1948618936
 10
14.5652155837
 20
9.1922625216
 10
14.5813733406
 20
9.1887858954
 10
14.5977231447
 20
9.1844377233
 10
14.6142381501
 20
9.1792251449
 10
14.6308912398
 20
9.173156719
 10
14.6476550701
 20
9.1662424099
 10
14.6645021152
 20
9.1584935706
 10
14.6814047129
 20
9.1499229243
 10
14.6983351098
 20
9.1405445439
  0
LWPOLYLINE
  5
4A6
100
AcDbEntity
  8
0
100
AcDbPolyline
 62
7
  6
CONTINUOUS
 90
7
 70
0
 10
14.0664621123
 20
8.9767634464
 10
14.0241454478
 20
8.945663754
 10
13.9879278414
 20
8.9043344813
 10
13.9591777048
 20
8.8532977216
 10
13.9388886315
 20
8.792997709
 10
13.9280767349
 20
8.7252327989
 10
13.9270208281
 20
8.6520116649
  0
LINE
  5
4A7
100
AcDbEntity
  8
0
100
AcDbLine
 62
7
  6
CONTINUOUS
 10
14.4027112051
 20
9.1697410317
 11
14.4028364327
 21
9.1698133928
  0
LINE
  5
4A8
100
AcDbEntity
  8
0
100
AcDbLine
 62
7
  6
CONTINUOUS
 10
14.3351615704
 20
9.1318962248
 11
14.0664621123
 21
8.9767634464
  0
LINE
  5
4A9
100
AcDbEntity
  8
AXIS_COSMETIC_THREADS
100
AcDbLine
 62
7
  6
CONTINUOUS
 10
14.3462681257
 20
9.1371538605
 11
14.4028364327
 21
9.1698133928
  0
LWPOLYLINE
  5
4AA
100
AcDbEntity
  8
0
100
AcDbPolyline
 62
9
  6
CONTINUOUS
 90
3
 70
0
 10
14.4028364327
 20
9.1698133928
 10
14.4074324209
 20
9.1723855877
 10
14.4198262904
 20
9.1785542514
  0
LWPOLYLINE
  5
4AB
100
AcDbEntity
  8
AXIS_COSMETIC_THREADS
100
AcDbPolyline
 62
7
  6
CONTINUOUS
 90
10
 70
0
 10
14.3462650382
 20
9.137151494
 10
14.3668129936
 20
9.1474699889
 10
14.3961302599
 20
9.1575407188
 10
14.4274252472
 20
9.1633264177
 10
14.4604459866
 20
9.1647805025
 10
14.4949266146
 20
9.1618912659
 10
14.5305895135
 20
9.1546819702
 10
14.5671475466
 20
9.1432106605
 10
14.60430637
 20
9.127569697
 10
14.6417668028
 20
9.1078850116
  0
LWPOLYLINE
  5
4AC
100
AcDbEntity
  8
0
100
AcDbPolyline
 62
7
  6
CONTINUOUS
 90
23
 70
0
 10
14.3351506605
 20
9.1318888978
 10
14.3760897128
 20
9.1497422528
 10
14.4269382877
 20
9.1590575038
 10
14.4821073542
 20
9.1569517816
 10
14.5404297633
 20
9.1434696347
 10
14.6006716538
 20
9.1188962895
 10
14.661558557
 20
9.0837516163
 10
14.7218023571
 20
9.0387791315
 10
14.7801285465
 20
8.984930265
 10
14.8353031787
 20
8.9233442422
 10
14.8861590029
 20
8.855323948
 10
14.9316200772
 20
8.7823084761
 10
14.9707247392
 20
8.7058423371
 10
15.0026454641
 20
8.6275437625
 10
15.0267073739
 20
8.5490679859
 10
15.0424007929
 20
8.4720776021
 10
15.0493943144
 20
8.3981986938
 10
15.0475392075
 20
8.3289905868
 10
15.0368730619
 20
8.2659199618
 10
15.0176215138
 20
8.2103255786
 10
14.9901931106
 20
8.1633852852
 10
14.9551630486
 20
8.1260862377
 10
14.9271462111
 20
8.1065175217
  0
LINE
  5
4AD
100
AcDbEntity
  8
0
100
AcDbLine
 62
7
  6
CONTINUOUS
 10
13.6646594258
 20
8.3987454055
 11
13.658568605
 21
8.3596984865
  0
LWPOLYLINE
  5
4AE
100
AcDbEntity
  8
0
100
AcDbPolyline
 62
7
  6
CONTINUOUS
 90
9
 70
0
 10
13.658568605
 20
8.3596984865
 10
13.6586390704
 20
8.3093757763
 10
13.665642644
 20
8.2591165105
 10
13.6790437871
 20
8.2073513068
 10
13.6985223919
 20
8.1551266617
 10
13.7235873889
 20
8.1038104269
 10
13.7536304718
 20
8.0547236546
 10
13.7880181788
 20
8.0090438483
 10
13.8254911345
 20
7.9684800811
  0
LINE
  5
4AF
100
AcDbEntity
  8
AXIS_COSMETIC_THREADS
100
AcDbLine
 62
7
  6
CONTINUOUS
 10
13.7013170212
 20
8.2322750708
 11
13.7013170212
 21
8.3978560438
  0
LWPOLYLINE
  5
4B0
100
AcDbEntity
  8
0
100
AcDbPolyline
 62
7
  6
CONTINUOUS
 90
3
 70
0
 10
13.686467717
 20
8.3236386131
 10
13.6897549482
 20
8.3651267242
 10
13.6995167609
 20
8.4015585583
  0
LWPOLYLINE
  5
4B1
100
AcDbEntity
  8
0
100
AcDbPolyline
 62
7
  6
CONTINUOUS
 90
3
 70
0
 10
13.6995167609
 20
8.4015585583
 10
13.7154565474
 20
8.4318271525
 10
13.7370899854
 20
8.455012811
  0
LWPOLYLINE
  5
4B2
100
AcDbEntity
  8
0
100
AcDbPolyline
 62
7
  6
CONTINUOUS
 90
6
 70
0
 10
13.7350364794
 20
8.5105975922
 10
13.7052039395
 20
8.4866730837
 10
13.6834447562
 20
8.4559609056
 10
13.668166588
 20
8.4180290266
 10
13.6597844414
 20
8.3739486483
 10
13.6591330553
 20
8.3668190363
  0
LWPOLYLINE
  5
4B3
100
AcDbEntity
  8
0
100
AcDbPolyline
 62
7
  6
CONTINUOUS
 90
3
 70
0
 10
13.6995167609
 20
8.2306512708
 10
13.6897549482
 20
8.2783548203
 10
13.686467717
 20
8.3236386131
  0
LINE
  5
4B4
100
AcDbEntity
  8
0
100
AcDbLine
 62
7
  6
CONTINUOUS
 10
13.7793716637
 20
8.5337955727
 11
13.7916017061
 21
8.5432553461
  0
LINE
  5
4B5
100
AcDbEntity
  8
0
100
AcDbLine
 62
7
  6
CONTINUOUS
 10
13.8925082776
 20
8.5991146373
 11
13.9047383201
 21
8.6085744107
  0
LINE
  5
4B6
100
AcDbEntity
  8
0
100
AcDbLine
 62
7
  6
CONTINUOUS
 10
14.0056448916
 20
8.6644337019
 11
14.0178749341
 21
8.6738934753
  0
LINE
  5
4B7
100
AcDbEntity
  8
0
100
AcDbLine
 62
7
  6
CONTINUOUS
 10
13.8069179968
 20
8.5501349614
 11
13.8198620083
 21
8.5595713373
  0
LINE
  5
4B8
100
AcDbEntity
  8
0
100
AcDbLine
 62
7
  6
CONTINUOUS
 10
13.9200546107
 20
8.615454026
 11
13.9329986222
 21
8.6248904019
  0
LINE
  5
4B9
100
AcDbEntity
  8
0
100
AcDbLine
 62
7
  6
CONTINUOUS
 10
14.0331912247
 20
8.6807730906
 11
14.0461352362
 21
8.6902094665
  0
LINE
  5
4BA
100
AcDbEntity
  8
0
100
AcDbLine
 62
7
  6
CONTINUOUS
 10
13.7487718489
 20
8.5163660654
 11
13.7632963861
 21
8.5269133559
  0
LINE
  5
4BB
100
AcDbEntity
  8
0
100
AcDbLine
 62
7
  6
CONTINUOUS
 10
13.86349957
 20
8.5828405452
 11
13.876433
 21
8.5922324205
  0
LINE
  5
4BC
100
AcDbEntity
  8
0
100
AcDbLine
 62
7
  6
CONTINUOUS
 10
13.976636184
 20
8.6481596098
 11
13.989569614
 21
8.6575514851
  0
LINE
  5
4BD
100
AcDbEntity
  8
0
100
AcDbLine
 62
7
  6
CONTINUOUS
 10
13.835227988
 20
8.5665617405
 11
13.8481786705
 21
8.5759198766
  0
LINE
  5
4BE
100
AcDbEntity
  8
0
100
AcDbLine
 62
7
  6
CONTINUOUS
 10
13.948364602
 20
8.6318808052
 11
13.9613152845
 21
8.6412389412
  0
LINE
  5
4BF
100
AcDbEntity
  8
0
100
AcDbLine
 62
7
  6
CONTINUOUS
 10
14.0615012159
 20
8.6971998698
 11
14.0744518984
 21
8.7065580058
  0
LINE
  5
4C0
100
AcDbEntity
  8
0
100
AcDbLine
 62
7
  6
CONTINUOUS
 10
13.7370899854
 20
8.455012811
 11
13.7498473002
 21
8.4637153645
  0
LWPOLYLINE
  5
4C1
100
AcDbEntity
  8
AXIS_COSMETIC_THREADS
100
AcDbPolyline
 62
7
  6
CONTINUOUS
 90
5
 70
0
 10
13.7515886201
 20
8.4606853435
 10
13.7465495625
 20
8.4575765636
 10
13.7281249918
 20
8.4420762693
 10
13.7129533228
 20
8.4220451162
 10
13.7013170212
 20
8.3978560438
  0
LINE
  5
4C2
100
AcDbEntity
  8
0
100
AcDbLine
 62
7
  6
CONTINUOUS
 10
14.0461352362
 20
8.6902094665
 11
14.0533849065
 21
8.6940832666
  0
LINE
  5
4C3
100
AcDbEntity
  8
0
100
AcDbLine
 62
7
  6
CONTINUOUS
 10
13.9329986222
 20
8.6248904019
 11
13.9402482925
 21
8.628764202
  0
LINE
  5
4C4
100
AcDbEntity
  8
0
100
AcDbLine
 62
7
  6
CONTINUOUS
 10
13.8198620083
 20
8.5595713373
 11
13.8271116786
 21
8.5634451374
  0
LINE
  5
4C5
100
AcDbEntity
  8
0
100
AcDbLine
 62
7
  6
CONTINUOUS
 10
13.989569614
 20
8.6575514851
 11
13.9972304268
 21
8.6616266226
  0
LINE
  5
4C6
100
AcDbEntity
  8
0
100
AcDbLine
 62
7
  6
CONTINUOUS
 10
13.876433
 20
8.5922324205
 11
13.8840938128
 21
8.596307558
  0
LINE
  5
4C7
100
AcDbEntity
  8
0
100
AcDbLine
 62
7
  6
CONTINUOUS
 10
13.7632963861
 20
8.5269133559
 11
13.7709571989
 21
8.5309884934
  0
LINE
  5
4C8
100
AcDbEntity
  8
0
100
AcDbLine
 62
7
  6
CONTINUOUS
 10
14.0744518984
 20
8.7065580058
 11
14.0823913262
 21
8.7107659089
  0
LINE
  5
4C9
100
AcDbEntity
  8
0
100
AcDbLine
 62
7
  6
CONTINUOUS
 10
13.9613152845
 20
8.6412389412
 11
13.9692547122
 21
8.6454468443
  0
LINE
  5
4CA
100
AcDbEntity
  8
0
100
AcDbLine
 62
7
  6
CONTINUOUS
 10
13.8481786705
 20
8.5759198766
 11
13.8561180983
 21
8.5801277797
  0
LINE
  5
4CB
100
AcDbEntity
  8
0
100
AcDbLine
 62
7
  6
CONTINUOUS
 10
14.120611245
 20
8.7313912003
 11
14.1027304423
 21
8.7228845335
  0
LWPOLYLINE
  5
4CC
100
AcDbEntity
  8
0
100
AcDbPolyline
 62
7
  6
CONTINUOUS
 90
6
 70
0
 10
14.104144654
 20
8.7237010241
 10
14.1255913583
 20
8.7335105442
 10
14.1613359521
 20
8.7407393695
 10
14.2004999324
 20
8.738845155
 10
14.2419980792
 20
8.7278947371
 10
14.2666122339
 20
8.7175452101
  0
LINE
  5
4CD
100
AcDbEntity
  8
0
100
AcDbLine
 62
7
  6
CONTINUOUS
 10
14.0178749341
 20
8.6738934753
 11
14.0483001151
 21
8.686474089
  0
LINE
  5
4CE
100
AcDbEntity
  8
0
100
AcDbLine
 62
7
  6
CONTINUOUS
 10
14.0214301693
 20
8.6709608112
 11
13.9910049882
 21
8.6583801975
  0
LINE
  5
4CF
100
AcDbEntity
  8
0
100
AcDbLine
 62
7
  6
CONTINUOUS
 10
13.9047383201
 20
8.6085744107
 11
13.9351635012
 21
8.6211550244
  0
LINE
  5
4D0
100
AcDbEntity
  8
0
100
AcDbLine
 62
7
  6
CONTINUOUS
 10
13.9082935554
 20
8.6056417466
 11
13.8778683743
 21
8.5930611329
  0
LWPOLYLINE
  5
4D1
100
AcDbEntity
  8
0
100
AcDbPolyline
 62
7
  6
CONTINUOUS
 90
5
 70
0
 10
14.0533849065
 20
8.6940832666
 10
14.0869902261
 20
8.7051726934
 10
14.1242335598
 20
8.707370158
 10
14.1636840308
 20
8.7008422051
 10
14.2052614777
 20
8.685647871
  0
LINE
  5
4D2
100
AcDbEntity
  8
0
100
AcDbLine
 62
7
  6
CONTINUOUS
 10
14.0601202803
 20
8.6896594156
 11
14.047672257
 21
8.6855516897
  0
LINE
  5
4D3
100
AcDbEntity
  8
0
100
AcDbLine
 62
7
  6
CONTINUOUS
 10
14.1171434823
 20
8.7224032002
 11
14.1042573859
 21
8.7182015406
  0
LINE
  5
4D4
100
AcDbEntity
  8
0
100
AcDbLine
 62
7
  6
CONTINUOUS
 10
13.9972304268
 20
8.6616266226
 11
14.0308768142
 21
8.6725974134
  0
LINE
  5
4D5
100
AcDbEntity
  8
0
100
AcDbLine
 62
7
  6
CONTINUOUS
 10
14.0040068684
 20
8.6570841356
 11
13.9910947632
 21
8.6528739955
  0
LWPOLYLINE
  5
4D6
100
AcDbEntity
  8
0
100
AcDbPolyline
 62
7
  6
CONTINUOUS
 90
5
 70
0
 10
14.0823913262
 20
8.7107659089
 10
14.1154801817
 20
8.7215407705
 10
14.152392844
 20
8.7237071283
 10
14.1919151038
 20
8.7171861384
 10
14.2336656552
 20
8.7019222594
  0
LINE
  5
4D7
100
AcDbEntity
  8
0
100
AcDbLine
 62
7
  6
CONTINUOUS
 10
14.0886102359
 20
8.7060274926
 11
14.0759654721
 21
8.7019099256
  0
LWPOLYLINE
  5
4D8
100
AcDbEntity
  8
0
100
AcDbPolyline
 62
7
  6
CONTINUOUS
 90
5
 70
0
 10
13.9692547122
 20
8.6454468443
 10
14.0023435678
 20
8.6562217059
 10
14.03925623
 20
8.6583880637
 10
14.0787784899
 20
8.6518670738
 10
14.1205290412
 20
8.6366031948
  0
LWPOLYLINE
  5
4D9
100
AcDbEntity
  8
AXIS_COSMETIC_THREADS
100
AcDbPolyline
 62
7
  6
CONTINUOUS
 90
10
 70
0
 10
13.7013170212
 20
8.2322750708
 10
13.7129533228
 20
8.1946498587
 10
13.7281249918
 20
8.1571003675
 10
13.7465495625
 20
8.1203256927
 10
13.7678840067
 20
8.0850105046
 10
13.7917311201
 20
8.0518123005
 10
13.8176469177
 20
8.0213491639
 10
13.8451488997
 20
7.9941882569
 10
13.8737250347
 20
7.9708352608
 10
13.9028432929
 20
7.9517249611
  0
LINE
  5
4DA
100
AcDbEntity
  8
AXIS_COSMETIC_THREADS
100
AcDbLine
 62
7
  6
CONTINUOUS
 10
13.7715515848
 20
8.4722124833
 11
13.75159397
 21
8.4606900178
  0
LWPOLYLINE
  5
4DB
100
AcDbEntity
  8
0
100
AcDbPolyline
 62
7
  6
CONTINUOUS
 90
15
 70
0
 10
13.7498473002
 20
8.4637153645
 10
13.7637597537
 20
8.4704110491
 10
13.794655505
 20
8.4775539993
 10
13.8288384874
 20
8.4762246267
 10
13.8652700685
 20
8.4664633234
 10
13.9028432929
 20
8.4485666819
 10
13.9404165174
 20
8.4230784824
 10
13.9768480984
 20
8.3907731711
 10
14.0110310809
 20
8.3526323285
 10
14.0419268321
 20
8.3098148447
 10
14.0685966004
 20
8.2636217074
 10
14.0902300384
 20
8.2154564716
 10
14.1061698249
 20
8.1667826137
 10
14.1159316376
 20
8.1190790642
 10
14.1192188688
 20
8.0737952714
  0
LINE
  5
4DC
100
AcDbEntity
  8
0
100
AcDbLine
 62
7
  6
CONTINUOUS
 10
13.7916017061
 20
8.5432553461
 11
13.8220268872
 21
8.5558359598
  0
LINE
  5
4DD
100
AcDbEntity
  8
0
100
AcDbLine
 62
7
  6
CONTINUOUS
 10
13.7951569414
 20
8.5403226819
 11
13.7647317603
 21
8.5277420682
  0
LINE
  5
4DE
100
AcDbEntity
  8
0
100
AcDbLine
 62
7
  6
CONTINUOUS
 10
13.7655991415
 20
8.5232142596
 11
13.7350364794
 21
8.5105975922
  0
LINE
  5
4DF
100
AcDbEntity
  8
0
100
AcDbLine
 62
7
  6
CONTINUOUS
 10
13.7364506816
 20
8.5114140774
 11
13.769343643
 21
8.5246340548
  0
LWPOLYLINE
  5
4E0
100
AcDbEntity
  8
0
100
AcDbPolyline
 62
7
  6
CONTINUOUS
 90
5
 70
0
 10
13.9402482925
 20
8.628764202
 10
13.9738536121
 20
8.6398536288
 10
14.0110969459
 20
8.6420510934
 10
14.0505474168
 20
8.6355231405
 10
14.0921248637
 20
8.6203288064
  0
LINE
  5
4E1
100
AcDbEntity
  8
0
100
AcDbLine
 62
7
  6
CONTINUOUS
 10
13.9469836663
 20
8.624340351
 11
13.9345356431
 21
8.620232625
  0
LWPOLYLINE
  5
4E2
100
AcDbEntity
  8
0
100
AcDbPolyline
 62
7
  6
CONTINUOUS
 90
5
 70
0
 10
13.8271116786
 20
8.5634451374
 10
13.8607169982
 20
8.5745345642
 10
13.8979603319
 20
8.5767320288
 10
13.9374108029
 20
8.5702040759
 10
13.9789882498
 20
8.5550097417
  0
LINE
  5
4E3
100
AcDbEntity
  8
0
100
AcDbLine
 62
7
  6
CONTINUOUS
 10
13.8338470524
 20
8.5590212864
 11
13.8213990291
 21
8.5549135604
  0
LINE
  5
4E4
100
AcDbEntity
  8
0
100
AcDbLine
 62
7
  6
CONTINUOUS
 10
13.8840938128
 20
8.596307558
 11
13.9177402002
 21
8.6072783488
  0
LINE
  5
4E5
100
AcDbEntity
  8
0
100
AcDbLine
 62
7
  6
CONTINUOUS
 10
13.8908702544
 20
8.591765071
 11
13.8779581492
 21
8.5875549309
  0
LINE
  5
4E6
100
AcDbEntity
  8
0
100
AcDbLine
 62
7
  6
CONTINUOUS
 10
13.7709571989
 20
8.5309884934
 11
13.8046035863
 21
8.5419592842
  0
LINE
  5
4E7
100
AcDbEntity
  8
0
100
AcDbLine
 62
7
  6
CONTINUOUS
 10
13.975473622
 20
8.640708428
 11
13.9628288582
 21
8.636590861
  0
LWPOLYLINE
  5
4E8
100
AcDbEntity
  8
0
100
AcDbPolyline
 62
7
  6
CONTINUOUS
 90
5
 70
0
 10
13.8561180983
 20
8.5801277797
 10
13.8892069538
 20
8.5909026413
 10
13.9261196161
 20
8.5930689991
 10
13.9656418759
 20
8.5865480092
 10
14.0073924273
 20
8.5712841302
  0
LINE
  5
4E9
100
AcDbEntity
  8
0
100
AcDbLine
 62
7
  6
CONTINUOUS
 10
13.862337008
 20
8.5753893634
 11
13.8496922442
 21
8.5712717964
  0
LWPOLYLINE
  5
4EA
100
AcDbEntity
  8
0
100
AcDbPolyline
 62
7
  6
CONTINUOUS
 90
3
 70
0
 10
13.8254911345
 20
7.9684800811
 10
13.8636852516
 20
7.9358410401
 10
13.9028432929
 20
7.9096750866
  0
LWPOLYLINE
  5
4EB
100
AcDbEntity
  8
0
100
AcDbPolyline
 62
7
  6
CONTINUOUS
 90
7
 70
0
 10
13.9028432929
 20
7.9096750866
 10
13.9370108818
 20
7.8933088115
 10
13.9721405383
 20
7.8823501978
 10
14.0051061313
 20
7.8780523249
 10
14.0352371344
 20
7.8801178074
 10
14.0627693157
 20
7.8883615656
 10
14.0878858995
 20
7.9032278388
  0
LWPOLYLINE
  5
4EC
100
AcDbEntity
  8
0
100
AcDbPolyline
 62
7
  6
CONTINUOUS
 90
8
 70
0
 10
13.9028432929
 20
7.9488672026
 10
13.8652700685
 20
7.9743554021
 10
13.8288384874
 20
8.0066607134
 10
13.794655505
 20
8.044801556
 10
13.7637597537
 20
8.0876190398
 10
13.7370899854
 20
8.1338121771
 10
13.7154565474
 20
8.1819774129
 10
13.6995167609
 20
8.2306512708
  0
LINE
  5
4ED
100
AcDbEntity
  8
0
100
AcDbLine
 62
7
  6
CONTINUOUS
 10
13.9270208281
 20
8.6520116649
 11
13.9302393875
 21
8.6228788789
  0
LINE
  5
4EE
100
AcDbEntity
  8
0
100
AcDbLine
 62
7
  6
CONTINUOUS
 10
14.263896484
 20
7.6955719491
 11
14.2902489109
 21
7.6615507232
  0
LWPOLYLINE
  5
4EF
100
AcDbEntity
  8
0
100
AcDbPolyline
 62
7
  6
CONTINUOUS
 90
5
 70
0
 10
14.263896484
 20
7.6955719491
 10
14.2569151905
 20
7.705412006
 10
14.2452578544
 20
7.7283328475
 10
14.2393691617
 20
7.7519782052
 10
14.2386301888
 20
7.7639231617
  0
LINE
  5
4F0
100
AcDbEntity
  8
AXIS_COSMETIC_THREADS
100
AcDbLine
 62
7
  6
CONTINUOUS
 10
14.1043695646
 20
8.1651588137
 11
14.1043695646
 21
7.9995778407
  0
LWPOLYLINE
  5
4F1
100
AcDbEntity
  8
0
100
AcDbPolyline
 62
7
  6
CONTINUOUS
 90
8
 70
0
 10
14.1458353038
 20
8.0291196908
 10
14.1461384087
 20
8.0737194272
 10
14.1401034529
 20
8.1223505648
 10
14.1279554866
 20
8.1723624441
 10
14.1101464518
 20
8.2224871245
 10
14.087026162
 20
8.2718892488
 10
14.0594427716
 20
8.318866495
 10
14.0280915267
 20
8.3624124306
  0
LWPOLYLINE
  5
4F2
100
AcDbEntity
  8
0
100
AcDbPolyline
 62
7
  6
CONTINUOUS
 90
5
 70
0
 10
14.1192188688
 20
8.0737952714
 10
14.1159316376
 20
8.0323071603
 10
14.1061698249
 20
7.9958753262
 10
14.0902300384
 20
7.965606732
 10
14.0685966004
 20
7.9424210735
  0
LWPOLYLINE
  5
4F3
100
AcDbEntity
  8
AXIS_COSMETIC_THREADS
100
AcDbPolyline
 62
7
  6
CONTINUOUS
 90
4
 70
0
 10
13.9880396681
 20
7.9229750891
 10
13.9605376862
 20
7.9275700171
 10
13.9319615511
 20
7.937213153
 10
13.9028432929
 20
7.9517249611
  0
LWPOLYLINE
  5
4F4
100
AcDbEntity
  8
0
100
AcDbPolyline
 62
7
  6
CONTINUOUS
 90
14
 70
0
 10
14.23475286
 20
7.7899035679
 10
14.243682388
 20
7.7606666004
 10
14.2612699107
 20
7.7327690326
 10
14.2869810402
 20
7.7070585179
 10
14.3200345569
 20
7.6843162572
 10
14.3594261462
 20
7.6652332626
 10
14.4039589148
 20
7.6503893614
 10
14.4522797569
 20
7.6402355779
 10
14.5029204683
 20
7.6350804296
 10
14.5543423565
 20
7.6350805532
 10
14.6049829935
 20
7.6402359449
 10
14.6533036892
 20
7.6503899607
 10
14.6978362436
 20
7.6652340761
 10
14.7372275578
 20
7.68431726
  0
LWPOLYLINE
  5
4F5
100
AcDbEntity
  8
0
100
AcDbPolyline
 62
7
  6
CONTINUOUS
 90
10
 70
0
 10
14.1729590431
 20
8.0656305514
 10
14.1686244856
 20
8.1159163483
 10
14.157245218
 20
8.1688819305
 10
14.1391245459
 20
8.2230002363
 10
14.1147591618
 20
8.2767117417
 10
14.0848223792
 20
8.3284726452
 10
14.0501469755
 20
8.3767929543
 10
14.0117005733
 20
8.4202811979
 10
13.9705595475
 20
8.4576825217
 10
13.9278752146
 20
8.4879175419
  0
LWPOLYLINE
  5
4F6
100
AcDbEntity
  8
0
100
AcDbPolyline
 62
7
  6
CONTINUOUS
 90
11
 70
0
 10
14.2309415577
 20
8.0991065721
 10
14.2268149563
 20
8.1480096773
 10
14.2158400493
 20
8.2001142803
 10
14.1983511546
 20
8.2532899227
 10
14.1751586282
 20
8.3054412526
 10
14.1464532928
 20
8.3562271779
 10
14.1128204425
 20
8.4042991134
 10
14.0755944581
 20
8.447650594
 10
14.0361605531
 20
8.484871534
 10
13.9945638842
 20
8.5158981616
 10
13.9554865455
 20
8.5379177824
  0
LWPOLYLINE
  5
4F7
100
AcDbEntity
  8
0
100
AcDbPolyline
 62
7
  6
CONTINUOUS
 90
11
 70
0
 10
14.2026574042
 20
8.0827768059
 10
14.1989111589
 20
8.1290645362
 10
14.1891590863
 20
8.177702808
 10
14.1735349911
 20
8.2277594387
 10
14.1524845022
 20
8.2776735997
 10
14.126320248
 20
8.3265839373
 10
14.09537006
 20
8.3735475434
 10
14.0607036799
 20
8.4167364609
 10
14.0236705523
 20
8.4546022183
 10
13.9849369401
 20
8.4866412328
 10
13.9452695231
 20
8.5122534471
  0
LINE
  5
4F8
100
AcDbEntity
  8
0
100
AcDbLine
 62
7
  6
CONTINUOUS
 10
14.2336365883
 20
7.8047482844
 11
14.23475286
 21
7.7899035679
  0
LINE
  5
4F9
100
AcDbEntity
  8
0
100
AcDbLine
 62
7
  6
CONTINUOUS
 10
14.2336301888
 20
7.8047482826
 11
14.2336301888
 21
7.9822435201
  0
LINE
  5
4FA
100
AcDbEntity
  8
0
100
AcDbLine
 62
7
  6
CONTINUOUS
 10
14.1734959464
 20
8.0375804292
 11
14.1743732507
 21
8.0664470398
  0
LINE
  5
4FB
100
AcDbEntity
  8
0
100
AcDbLine
 62
7
  6
CONTINUOUS
 10
14.2017800999
 20
8.0539101954
 11
14.2026574042
 21
8.0827768059
  0
LINE
  5
4FC
100
AcDbEntity
  8
0
100
AcDbLine
 62
7
  6
CONTINUOUS
 10
14.2300642533
 20
8.0702399615
 11
14.2309415577
 21
8.0991065721
  0
LINE
  5
4FD
100
AcDbEntity
  8
0
100
AcDbLine
 62
7
  6
CONTINUOUS
 10
14.1789486814
 20
8.0824825139
 11
14.1764803178
 21
8.0383623064
  0
LWPOLYLINE
  5
4FE
100
AcDbEntity
  8
0
100
AcDbPolyline
 62
7
  6
CONTINUOUS
 90
4
 70
0
 10
14.1729590431
 20
8.0656305514
 10
14.1703183841
 20
8.0206617451
 10
14.16096021
 20
7.9806888616
 10
14.1452981483
 20
7.9472109392
  0
LWPOLYLINE
  5
4FF
100
AcDbEntity
  8
0
100
AcDbPolyline
 62
7
  6
CONTINUOUS
 90
4
 70
0
 10
14.2012431965
 20
8.0819603176
 10
14.198581572
 20
8.0368431523
 10
14.189049987
 20
7.9964525377
 10
14.1729655864
 20
7.9625580736
  0
LWPOLYLINE
  5
500
100
AcDbEntity
  8
0
100
AcDbPolyline
 62
7
  6
CONTINUOUS
 90
4
 70
0
 10
14.22952735
 20
8.0982900838
 10
14.2268662555
 20
8.0531766616
 10
14.2173363873
 20
8.0127888137
 10
14.2012546991
 20
7.9788956708
  0
LWPOLYLINE
  5
501
100
AcDbEntity
  8
0
100
AcDbPolyline
 62
7
  6
CONTINUOUS
 90
4
 70
0
 10
14.150635371
 20
8.0524212552
 10
14.1461363083
 20
8.0097215337
 10
14.1350078207
 20
7.9725205009
 10
14.1318610024
 20
7.9669865857
  0
LWPOLYLINE
  5
502
100
AcDbEntity
  8
0
100
AcDbPolyline
 62
7
  6
CONTINUOUS
 90
3
 70
0
 10
14.20588527
 20
8.0639717924
 10
14.1980839742
 20
8.0234645847
 10
14.1947906525
 20
8.015601663
  0
LWPOLYLINE
  5
503
100
AcDbEntity
  8
0
100
AcDbPolyline
 62
7
  6
CONTINUOUS
 90
3
 70
0
 10
14.1764803178
 20
8.0383623064
 10
14.1673177675
 20
7.9993885691
 10
14.1657635101
 20
7.9961244063
  0
LWPOLYLINE
  5
504
100
AcDbEntity
  8
AXIS_COSMETIC_THREADS
100
AcDbPolyline
 62
7
  6
CONTINUOUS
 90
5
 70
0
 10
14.1043695646
 20
7.9995778407
 10
14.0927332631
 20
7.9753887683
 10
14.077561594
 20
7.9553576152
 10
14.0591370233
 20
7.9398573209
 10
14.0540979657
 20
7.936748541
  0
LWPOLYLINE
  5
505
100
AcDbEntity
  8
0
100
AcDbPolyline
 62
9
  6
CONTINUOUS
 90
3
 70
0
 10
14.2734286663
 20
8.0039098496
 10
14.2922948266
 20
8.0015615839
 10
14.3200345569
 20
8.0052017071
  0
LWPOLYLINE
  5
506
100
AcDbEntity
  8
0
100
AcDbPolyline
 62
7
  6
CONTINUOUS
 90
5
 70
0
 10
14.4618451649
 20
7.9260745247
 10
14.5099395496
 20
7.9191483532
 10
14.5640226366
 20
7.9203877635
 10
14.613648282
 20
7.9313470409
 10
14.6584594619
 20
7.9513878381
  0
LINE
  5
507
100
AcDbEntity
  8
0
100
AcDbLine
 62
7
  6
CONTINUOUS
 10
14.4617871215
 20
7.9260871239
 11
14.4618403522
 21
7.9260755693
  0
LINE
  5
508
100
AcDbEntity
  8
0
100
AcDbLine
 62
9
  6
CONTINUOUS
 10
14.2899292589
 20
8.0148351851
 11
14.3200345569
 21
8.0052017071
  0
LWPOLYLINE
  5
509
100
AcDbEntity
  8
0
100
AcDbPolyline
 62
9
  6
CONTINUOUS
 90
13
 70
0
 10
14.3200345569
 20
8.0052017071
 10
14.3691362097
 20
7.980569671
 10
14.4173977196
 20
7.9637914458
 10
14.4639933189
 20
7.9551541117
 10
14.5081257438
 20
7.9548054558
 10
14.5490398763
 20
7.9627514438
 10
14.5860356643
 20
7.9788561176
 10
14.6184800997
 20
8.0028439218
 10
14.645818049
 20
8.0343044183
 10
14.6675817525
 20
8.0726993093
 10
14.6833988271
 20
8.1173716477
 10
14.6929986383
 20
8.1675570774
 10
14.6962169306
 20
8.2223969116
  0
LINE
  5
50A
100
AcDbEntity
  8
0
100
AcDbLine
 62
9
  6
CONTINUOUS
 10
14.2993018032
 20
8.018937432
 11
14.3200345569
 21
8.0052017071
  0
LWPOLYLINE
  5
50B
100
AcDbEntity
  8
0
100
AcDbPolyline
 62
9
  6
CONTINUOUS
 90
6
 70
0
 10
14.3200345569
 20
8.0052017071
 10
14.3563597875
 20
7.9755484426
 10
14.39127418
 20
7.95330469
 10
14.4239566685
 20
7.9377598051
 10
14.454177276
 20
7.927881767
 10
14.4617871215
 20
7.9260871239
  0
LWPOLYLINE
  5
50C
100
AcDbEntity
  8
0
100
AcDbPolyline
 62
9
  6
CONTINUOUS
 90
8
 70
0
 10
14.3200345569
 20
8.0052017071
 10
14.3520801912
 20
7.9670452684
 10
14.3860881871
 20
7.9374752726
 10
14.4203717214
 20
7.9165290721
 10
14.4538412513
 20
7.9034707845
 10
14.4860326198
 20
7.8973812133
 10
14.5169651145
 20
7.8975984421
 10
14.5468954743
 20
7.9040135679
  0
LWPOLYLINE
  5
50D
100
AcDbEntity
  8
0
100
AcDbPolyline
 62
7
  6
CONTINUOUS
 90
8
 70
0
 10
14.0280915267
 20
8.3624124306
 10
14.061490885
 20
8.3162766505
 10
14.0903784227
 20
8.2667939956
 10
14.1139504071
 20
8.2153910769
 10
14.1315550052
 20
8.1635493795
 10
14.1427109112
 20
8.1127629274
 10
14.1471211001
 20
8.0644955896
 10
14.1463143545
 20
8.0351554423
  0
LWPOLYLINE
  5
50E
100
AcDbEntity
  8
0
100
AcDbPolyline
 62
7
  6
CONTINUOUS
 90
11
 70
0
 10
14.2592257112
 20
8.1154363382
 10
14.2550677916
 20
8.1645497079
 10
14.2440053974
 20
8.2168826087
 10
14.2263803579
 20
8.2702773135
 10
14.203027804
 20
8.3225933616
 10
14.1744331432
 20
8.373039547
 10
14.1413434786
 20
8.4203205687
 10
14.104421571
 20
8.4634095606
 10
14.0648961695
 20
8.5008199546
 10
14.0231431334
 20
8.5320357112
 10
13.983770699
 20
8.5542475485
  0
LWPOLYLINE
  5
50F
100
AcDbEntity
  8
0
100
AcDbPolyline
 62
7
  6
CONTINUOUS
 90
11
 70
0
 10
14.2875098647
 20
8.1317661044
 10
14.2833929406
 20
8.180604088
 10
14.2724761596
 20
8.2325228083
 10
14.2551302828
 20
8.2854038079
 10
14.2321139978
 20
8.3373309375
 10
14.2034772607
 20
8.3881621954
 10
14.1698779568
 20
8.4363268023
 10
14.1326409418
 20
8.4798075197
 10
14.0931940012
 20
8.5171381516
 10
14.0516176053
 20
8.5482413022
 10
14.0120548525
 20
8.5705773147
  0
LWPOLYLINE
  5
510
100
AcDbEntity
  8
0
100
AcDbPolyline
 62
7
  6
CONTINUOUS
 90
11
 70
0
 10
14.3157940182
 20
8.1480958705
 10
14.3120477729
 20
8.1943836008
 10
14.3022957003
 20
8.2430218726
 10
14.286671605
 20
8.2930785033
 10
14.2656211162
 20
8.3429926644
 10
14.239456862
 20
8.3919030019
 10
14.208506674
 20
8.438866608
 10
14.1738402939
 20
8.4820555255
 10
14.1368071663
 20
8.5199212829
 10
14.098073554
 20
8.5519602974
 10
14.0584061371
 20
8.5775725118
  0
LINE
  5
511
100
AcDbEntity
  8
0
100
AcDbLine
 62
7
  6
CONTINUOUS
 10
14.2386301888
 20
7.7772084581
 11
14.2386301888
 21
7.7639231617
  0
LINE
  5
512
100
AcDbEntity
  8
0
100
AcDbLine
 62
7
  6
CONTINUOUS
 10
14.2583484068
 20
8.0865697277
 11
14.2592257112
 21
8.1154363382
  0
LINE
  5
513
100
AcDbEntity
  8
0
100
AcDbLine
 62
7
  6
CONTINUOUS
 10
14.2866325603
 20
8.1028994938
 11
14.2875098647
 21
8.1317661044
  0
LINE
  5
514
100
AcDbEntity
  8
0
100
AcDbLine
 62
7
  6
CONTINUOUS
 10
14.3149167138
 20
8.11922926
 11
14.3157940182
 21
8.1480958705
  0
LWPOLYLINE
  5
515
100
AcDbEntity
  8
0
100
AcDbPolyline
 62
7
  6
CONTINUOUS
 90
4
 70
0
 10
14.2578115035
 20
8.1146198499
 10
14.255193173
 20
8.0698097503
 10
14.2458013062
 20
8.0296449009
 10
14.2298686578
 20
7.9957487876
  0
LWPOLYLINE
  5
516
100
AcDbEntity
  8
0
100
AcDbPolyline
 62
7
  6
CONTINUOUS
 90
4
 70
0
 10
14.286095657
 20
8.1309496161
 10
14.2834549981
 20
8.0859808098
 10
14.2740968239
 20
8.0460079263
 10
14.2584347623
 20
8.0125300038
  0
LWPOLYLINE
  5
517
100
AcDbEntity
  8
0
100
AcDbPolyline
 62
7
  6
CONTINUOUS
 90
4
 70
0
 10
14.3143798105
 20
8.1472793822
 10
14.3117181859
 20
8.102162217
 10
14.302186601
 20
8.0617716023
 10
14.2861022004
 20
8.0278771382
  0
LWPOLYLINE
  5
518
100
AcDbEntity
  8
0
100
AcDbPolyline
 62
7
  6
CONTINUOUS
 90
3
 70
0
 10
14.2341694235
 20
8.0803015585
 10
14.2263681277
 20
8.0397943509
 10
14.223117223
 20
8.0320327013
  0
LWPOLYLINE
  5
519
100
AcDbEntity
  8
0
100
AcDbPolyline
 62
7
  6
CONTINUOUS
 90
3
 70
0
 10
14.262453577
 20
8.0966313247
 10
14.2546522812
 20
8.056124117
 10
14.2514208562
 20
8.0484089759
  0
LWPOLYLINE
  5
51A
100
AcDbEntity
  8
0
100
AcDbPolyline
 62
7
  6
CONTINUOUS
 90
3
 70
0
 10
14.2907377305
 20
8.1129610909
 10
14.2829364347
 20
8.0724538832
 10
14.2796425911
 20
8.0645897154
  0
LWPOLYLINE
  5
51B
100
AcDbEntity
  8
0
100
AcDbPolyline
 62
7
  6
CONTINUOUS
 90
4
 70
0
 10
14.1099512998
 20
7.925374701
 10
14.1273806439
 20
7.9541905222
 10
14.1392624599
 20
7.9881254115
 10
14.1458353038
 20
8.0291196908
  0
LINE
  5
51C
100
AcDbEntity
  8
AXIS_COSMETIC_THREADS
100
AcDbLine
 62
7
  6
CONTINUOUS
 10
14.1062767822
 20
8.1662599397
 11
14.1043695646
 21
8.1651588137
  0
LWPOLYLINE
  5
51D
100
AcDbEntity
  8
0
100
AcDbPolyline
 62
7
  6
CONTINUOUS
 90
6
 70
0
 10
14.0280915267
 20
8.3624124306
 10
13.9946283681
 20
8.4014257519
 10
13.9589653865
 20
8.4354168223
 10
13.9218815759
 20
8.4636453806
 10
13.8841360433
 20
8.4854674695
 10
13.8468840588
 20
8.5001707606
  0
LWPOLYLINE
  5
51E
100
AcDbEntity
  8
0
100
AcDbPolyline
 62
7
  6
CONTINUOUS
 90
11
 70
0
 10
14.3723623251
 20
8.1807554028
 10
14.3682044056
 20
8.2298687725
 10
14.3571420113
 20
8.2822016733
 10
14.3395169719
 20
8.3355963781
 10
14.3161644179
 20
8.3879124263
 10
14.2875697571
 20
8.4383586116
 10
14.2544800925
 20
8.4856396334
 10
14.2175581849
 20
8.5287286252
 10
14.1780327835
 20
8.5661390193
 10
14.1362797474
 20
8.5973547758
 10
14.096907313
 20
8.6195666132
  0
LWPOLYLINE
  5
51F
100
AcDbEntity
  8
0
100
AcDbPolyline
 62
7
  6
CONTINUOUS
 90
11
 70
0
 10
14.3440781717
 20
8.1644256367
 10
14.3399515702
 20
8.2133287419
 10
14.3289766632
 20
8.2654333449
 10
14.3114877686
 20
8.3186089873
 10
14.2882952422
 20
8.3707603173
 10
14.2595899067
 20
8.4215462425
 10
14.2259570565
 20
8.469618178
 10
14.1887310721
 20
8.5129696586
 10
14.149297167
 20
8.5501905986
 10
14.1077004981
 20
8.5812172262
 10
14.0686231595
 20
8.603236847
  0
LWPOLYLINE
  5
520
100
AcDbEntity
  8
0
100
AcDbPolyline
 62
7
  6
CONTINUOUS
 90
11
 70
0
 10
14.4006464786
 20
8.197085169
 10
14.3965295546
 20
8.2459231526
 10
14.3856127736
 20
8.2978418729
 10
14.3682668968
 20
8.3507228726
 10
14.3452506118
 20
8.4026500021
 10
14.3166138746
 20
8.45348126
 10
14.2830145708
 20
8.5016458669
 10
14.2457775558
 20
8.5451265843
 10
14.2063306151
 20
8.5824572162
 10
14.1647542192
 20
8.6135603668
 10
14.1251914665
 20
8.6358963793
  0
LINE
  5
521
100
AcDbEntity
  8
0
100
AcDbLine
 62
7
  6
CONTINUOUS
 10
14.3432008673
 20
8.1355590261
 11
14.3440781717
 21
8.1644256367
  0
LINE
  5
522
100
AcDbEntity
  8
0
100
AcDbLine
 62
7
  6
CONTINUOUS
 10
14.3714850208
 20
8.1518887923
 11
14.3723623251
 21
8.1807554028
  0
LINE
  5
523
100
AcDbEntity
  8
0
100
AcDbLine
 62
7
  6
CONTINUOUS
 10
14.3997691743
 20
8.1682185584
 11
14.4006464786
 21
8.197085169
  0
LWPOLYLINE
  5
524
100
AcDbEntity
  8
0
100
AcDbPolyline
 62
7
  6
CONTINUOUS
 90
4
 70
0
 10
14.3709481175
 20
8.1799389145
 10
14.368329787
 20
8.1351288149
 10
14.3589379201
 20
8.0949639655
 10
14.3430052718
 20
8.0610678523
  0
LWPOLYLINE
  5
525
100
AcDbEntity
  8
0
100
AcDbPolyline
 62
7
  6
CONTINUOUS
 90
4
 70
0
 10
14.399232271
 20
8.1962686807
 10
14.396591612
 20
8.1512998744
 10
14.3872334379
 20
8.1113269909
 10
14.3715713763
 20
8.0778490684
  0
LINE
  5
526
100
AcDbEntity
  8
0
100
AcDbLine
 62
7
  6
CONTINUOUS
 10
14.342663964
 20
8.1636091484
 11
14.3400028695
 21
8.1184957263
  0
LINE
  5
527
100
AcDbEntity
  8
0
100
AcDbLine
 62
7
  6
CONTINUOUS
 10
14.3414598411
 20
8.1196155371
 11
14.3432008673
 21
8.1355590261
  0
LWPOLYLINE
  5
528
100
AcDbEntity
  8
0
100
AcDbPolyline
 62
7
  6
CONTINUOUS
 90
3
 70
0
 10
14.319021884
 20
8.129290857
 10
14.3112205882
 20
8.0887836494
 10
14.3079272664
 20
8.0809207276
  0
LWPOLYLINE
  5
529
100
AcDbEntity
  8
0
100
AcDbPolyline
 62
7
  6
CONTINUOUS
 90
3
 70
0
 10
14.3473060375
 20
8.1456206232
 10
14.3395047417
 20
8.1051134155
 10
14.336253837
 20
8.097351766
  0
LWPOLYLINE
  5
52A
100
AcDbEntity
  8
0
100
AcDbPolyline
 62
7
  6
CONTINUOUS
 90
3
 70
0
 10
14.3755901909
 20
8.1619503893
 10
14.3677888951
 20
8.1214431817
 10
14.3645574701
 20
8.1137280405
  0
LWPOLYLINE
  5
52B
100
AcDbEntity
  8
0
100
AcDbPolyline
 62
7
  6
CONTINUOUS
 90
3
 70
0
 10
14.4038743444
 20
8.1782801555
 10
14.3960730486
 20
8.1377729478
 10
14.392779205
 20
8.12990878
  0
LINE
  5
52C
100
AcDbEntity
  8
0
100
AcDbLine
 62
7
  6
CONTINUOUS
 10
14.3320679743
 20
8.0794506877
 11
14.3414598411
 21
8.1196155371
  0
LWPOLYLINE
  5
52D
100
AcDbEntity
  8
0
100
AcDbPolyline
 62
7
  6
CONTINUOUS
 90
3
 70
0
 10
14.3400028695
 20
8.1184957263
 10
14.3304730012
 20
8.0781078783
 10
14.314391313
 20
8.0442147354
  0
LINE
  5
52E
100
AcDbEntity
  8
0
100
AcDbLine
 62
7
  6
CONTINUOUS
 10
14.1452981483
 20
7.9472109392
 11
14.1237447507
 21
7.9208334614
  0
LWPOLYLINE
  5
52F
100
AcDbEntity
  8
0
100
AcDbPolyline
 62
7
  6
CONTINUOUS
 90
5
 70
0
 10
14.2100114188
 20
7.9706392482
 10
14.2315648165
 20
7.9970167259
 10
14.2472268781
 20
8.0304946484
 10
14.2565850523
 20
8.0704675319
 10
14.2583484068
 20
8.0865697277
  0
LINE
  5
530
100
AcDbEntity
  8
0
100
AcDbLine
 62
7
  6
CONTINUOUS
 10
14.2584347623
 20
8.0125300038
 11
14.2368813646
 21
7.986152526
  0
LWPOLYLINE
  5
531
100
AcDbEntity
  8
0
100
AcDbPolyline
 62
7
  6
CONTINUOUS
 90
5
 70
0
 10
14.1812505009
 20
7.9538691192
 10
14.202998712
 20
7.9802355098
 10
14.2189313604
 20
8.0141316231
 10
14.2283232272
 20
8.0542964724
 10
14.2300642533
 20
8.0702399615
  0
LINE
  5
532
100
AcDbEntity
  8
0
100
AcDbLine
 62
7
  6
CONTINUOUS
 10
14.2298686578
 20
7.9957487876
 11
14.2081204467
 21
7.969382397
  0
LWPOLYLINE
  5
533
100
AcDbEntity
  8
0
100
AcDbPolyline
 62
7
  6
CONTINUOUS
 90
5
 70
0
 10
14.1242770731
 20
7.9208392013
 10
14.1460956406
 20
7.9470447957
 10
14.1621800412
 20
7.9809392599
 10
14.1717116262
 20
8.0213298745
 10
14.1734959464
 20
8.0375804292
  0
LINE
  5
534
100
AcDbEntity
  8
0
100
AcDbLine
 62
7
  6
CONTINUOUS
 10
14.1729655864
 20
7.9625580736
 11
14.1511470189
 21
7.9363524792
  0
LWPOLYLINE
  5
535
100
AcDbEntity
  8
0
100
AcDbPolyline
 62
7
  6
CONTINUOUS
 90
5
 70
0
 10
14.1525591731
 20
7.9371670989
 10
14.1743847533
 20
7.9633823929
 10
14.1904664414
 20
7.9972755359
 10
14.1999963097
 20
8.0376633838
 10
14.2017800999
 20
8.0539101954
  0
LINE
  5
536
100
AcDbEntity
  8
0
100
AcDbLine
 62
7
  6
CONTINUOUS
 10
14.2012546991
 20
7.9788956708
 11
14.1794291189
 21
7.9526803767
  0
LWPOLYLINE
  5
537
100
AcDbEntity
  8
0
100
AcDbPolyline
 62
7
  6
CONTINUOUS
 90
5
 70
0
 10
14.237413687
 20
7.9861582659
 10
14.2592322545
 20
8.0123638604
 10
14.2753166551
 20
8.0462583245
 10
14.2848482401
 20
8.0866489391
 10
14.2866325603
 20
8.1028994938
  0
LINE
  5
538
100
AcDbEntity
  8
0
100
AcDbLine
 62
7
  6
CONTINUOUS
 10
14.2861022004
 20
8.0278771382
 11
14.2642836329
 21
8.0016715438
  0
LWPOLYLINE
  5
539
100
AcDbEntity
  8
0
100
AcDbPolyline
 62
7
  6
CONTINUOUS
 90
5
 70
0
 10
14.2656957871
 20
8.0024861635
 10
14.2875213672
 20
8.0287014575
 10
14.3036030554
 20
8.0625946005
 10
14.3131329237
 20
8.1029824484
 10
14.3149167138
 20
8.11922926
  0
LINE
  5
53A
100
AcDbEntity
  8
0
100
AcDbLine
 62
7
  6
CONTINUOUS
 10
14.0878858995
 20
7.9032278388
 11
14.1099512998
 21
7.925374701
  0
LINE
  5
53B
100
AcDbEntity
  8
0
100
AcDbLine
 62
7
  6
CONTINUOUS
 10
14.0685966004
 20
7.9424210735
 11
14.0558392856
 21
7.93371852
  0
LINE
  5
53C
100
AcDbEntity
  8
AXIS_COSMETIC_THREADS
100
AcDbLine
 62
7
  6
CONTINUOUS
 10
14.1076729295
 20
8.001485028
 11
14.1043695646
 21
7.9995778407
  0
LWPOLYLINE
  5
53D
100
AcDbEntity
  8
0
100
AcDbPolyline
 62
9
  6
CONTINUOUS
 90
17
 70
0
 10
14.4701621591
 20
8.1247816857
 10
14.472818055
 20
8.1252577266
 10
14.5029070961
 20
8.1399345417
 10
14.5280402041
 20
8.1627644219
 10
14.547528338
 20
8.1931436927
 10
14.5608261339
 20
8.2302472593
 10
14.5675614264
 20
8.2730314548
 10
14.5675602649
 20
8.3203344456
 10
14.5608228149
 20
8.3708959011
 10
14.5475230374
 20
8.4233540516
 10
14.5280328123
 20
8.4762360902
 10
14.502897666
 20
8.5280864734
 10
14.4728071441
 20
8.5775051655
 10
14.4385539761
 20
8.623192946
 10
14.4010119802
 20
8.6639551071
 10
14.3611449226
 20
8.6986871336
 10
14.3200345569
 20
8.726377467
  0
LWPOLYLINE
  5
53E
100
AcDbEntity
  8
AXIS_COSMETIC_THREADS
100
AcDbPolyline
 62
7
  6
CONTINUOUS
 90
10
 70
0
 10
13.9028432929
 20
8.4457089234
 10
13.9319615511
 20
8.4265986237
 10
13.9605376862
 20
8.4032456275
 10
13.9880396681
 20
8.3760847206
 10
14.0139554657
 20
8.345621584
 10
14.0378025791
 20
8.3124233799
 10
14.0591370233
 20
8.2771081917
 10
14.077561594
 20
8.240333517
 10
14.0927332631
 20
8.2027840257
 10
14.1043695646
 20
8.1651588137
  0
LWPOLYLINE
  5
53F
100
AcDbEntity
  8
0
100
AcDbPolyline
 62
7
  6
CONTINUOUS
 90
11
 70
0
 10
14.4854989391
 20
8.2460744675
 10
14.4813410195
 20
8.2951878371
 10
14.4702786253
 20
8.3475207379
 10
14.4526535859
 20
8.4009154428
 10
14.4293010319
 20
8.4532314909
 10
14.4007063711
 20
8.5036776762
 10
14.3676167065
 20
8.550958698
 10
14.3306947989
 20
8.5940476899
 10
14.2911693975
 20
8.6314580839
 10
14.2494163613
 20
8.6626738404
 10
14.2100439269
 20
8.6848856778
  0
LWPOLYLINE
  5
540
100
AcDbEntity
  8
0
100
AcDbPolyline
 62
7
  6
CONTINUOUS
 90
11
 70
0
 10
14.4572147856
 20
8.2297447013
 10
14.4530881842
 20
8.2786478065
 10
14.4421132772
 20
8.3307524095
 10
14.4246243826
 20
8.3839280519
 10
14.4014318561
 20
8.4360793819
 10
14.3727265207
 20
8.4868653071
 10
14.3390936705
 20
8.5349372427
 10
14.301867686
 20
8.5782887232
 10
14.262433781
 20
8.6155096632
 10
14.2208371121
 20
8.6465362908
 10
14.1817597735
 20
8.6685559116
  0
LWPOLYLINE
  5
541
100
AcDbEntity
  8
0
100
AcDbPolyline
 62
7
  6
CONTINUOUS
 90
11
 70
0
 10
14.4289306321
 20
8.2134149351
 10
14.4251843869
 20
8.2597026655
 10
14.4154323142
 20
8.3083409373
 10
14.399808219
 20
8.3583975679
 10
14.3787577301
 20
8.408311729
 10
14.3525934759
 20
8.4572220666
 10
14.3216432879
 20
8.5041856726
 10
14.2869769078
 20
8.5473745901
 10
14.2499437803
 20
8.5852403476
 10
14.211210168
 20
8.617279362
 10
14.171542751
 20
8.6428915764
  0
LINE
  5
542
100
AcDbEntity
  8
AXIS_COSMETIC_THREADS
100
AcDbLine
 62
7
  6
CONTINUOUS
 10
14.4121301888
 20
7.5885991614
 11
14.4121301888
 21
7.2045868602
  0
LINE
  5
543
100
AcDbEntity
  8
0
100
AcDbLine
 62
7
  6
CONTINUOUS
 10
14.4280533278
 20
8.1845483246
 11
14.4289306321
 21
8.2134149351
  0
LINE
  5
544
100
AcDbEntity
  8
0
100
AcDbLine
 62
7
  6
CONTINUOUS
 10
14.4563374813
 20
8.2008780907
 11
14.4572147856
 21
8.2297447013
  0
LINE
  5
545
100
AcDbEntity
  8
0
100
AcDbLine
 62
7
  6
CONTINUOUS
 10
14.4846216347
 20
8.2172078569
 11
14.4854989391
 21
8.2460744675
  0
LWPOLYLINE
  5
546
100
AcDbEntity
  8
0
100
AcDbPolyline
 62
7
  6
CONTINUOUS
 90
4
 70
0
 10
14.4840847314
 20
8.2452579792
 10
14.4814664009
 20
8.2004478795
 10
14.4720745341
 20
8.1602830301
 10
14.4561418857
 20
8.1263869169
  0
LWPOLYLINE
  5
547
100
AcDbEntity
  8
0
100
AcDbPolyline
 62
7
  6
CONTINUOUS
 90
4
 70
0
 10
14.4275164244
 20
8.2125984468
 10
14.4248547999
 20
8.1674812816
 10
14.4153232149
 20
8.1270906669
 10
14.3992388143
 20
8.0931962028
  0
LWPOLYLINE
  5
548
100
AcDbEntity
  8
0
100
AcDbPolyline
 62
7
  6
CONTINUOUS
 90
4
 70
0
 10
14.4558005779
 20
8.228928213
 10
14.4531394835
 20
8.1838147909
 10
14.4436096152
 20
8.1434269429
 10
14.427527927
 20
8.1095338
  0
LWPOLYLINE
  5
549
100
AcDbEntity
  8
0
100
AcDbPolyline
 62
7
  6
CONTINUOUS
 90
3
 70
0
 10
14.4901242251
 20
8.2530224553
 10
14.48630834
 20
8.2097769955
 10
14.4771371227
 20
8.1766680777
  0
LWPOLYLINE
  5
54A
100
AcDbEntity
  8
0
100
AcDbPolyline
 62
7
  6
CONTINUOUS
 90
3
 70
0
 10
14.4615081471
 20
8.2251603186
 10
14.455962855
 20
8.1831848768
 10
14.4500768478
 20
8.1656062455
  0
LWPOLYLINE
  5
54B
100
AcDbEntity
  8
0
100
AcDbPolyline
 62
7
  6
CONTINUOUS
 90
3
 70
0
 10
14.4324453907
 20
8.1975935006
 10
14.4251824702
 20
8.1569673191
 10
14.4212834202
 20
8.1471702082
  0
LWPOLYLINE
  5
54C
100
AcDbEntity
  8
0
100
AcDbPolyline
 62
7
  6
CONTINUOUS
 90
5
 70
0
 10
14.3231480328
 20
8.0359583128
 10
14.3447014304
 20
8.0623357905
 10
14.3603634921
 20
8.095813713
 10
14.3697216662
 20
8.1357865965
 10
14.3714850208
 20
8.1518887923
  0
LINE
  5
54D
100
AcDbEntity
  8
0
100
AcDbLine
 62
7
  6
CONTINUOUS
 10
14.3715713763
 20
8.0778490684
 11
14.3500179786
 21
8.0514715907
  0
LWPOLYLINE
  5
54E
100
AcDbEntity
  8
0
100
AcDbPolyline
 62
7
  6
CONTINUOUS
 90
5
 70
0
 10
14.4362846467
 20
8.1012773774
 10
14.4578380444
 20
8.1276548552
 10
14.473500106
 20
8.1611327777
 10
14.4828582802
 20
8.2011056611
 10
14.4846216347
 20
8.2172078569
  0
LWPOLYLINE
  5
54F
100
AcDbEntity
  8
0
100
AcDbPolyline
 62
7
  6
CONTINUOUS
 90
3
 70
0
 10
14.2943871148
 20
8.0191881838
 10
14.316135326
 20
8.0455545744
 10
14.3320679743
 20
8.0794506877
  0
LINE
  5
550
100
AcDbEntity
  8
0
100
AcDbLine
 62
7
  6
CONTINUOUS
 10
14.3430052718
 20
8.0610678523
 11
14.3212570606
 21
8.0347014616
  0
LWPOLYLINE
  5
551
100
AcDbEntity
  8
0
100
AcDbPolyline
 62
7
  6
CONTINUOUS
 90
5
 70
0
 10
14.4075237288
 20
8.0845072484
 10
14.4292719399
 20
8.110873639
 10
14.4452045883
 20
8.1447697523
 10
14.4545964551
 20
8.1849346017
 10
14.4563374813
 20
8.2008780907
  0
LINE
  5
552
100
AcDbEntity
  8
0
100
AcDbLine
 62
7
  6
CONTINUOUS
 10
14.4561418857
 20
8.1263869169
 11
14.4343936746
 21
8.1000205263
  0
LINE
  5
553
100
AcDbEntity
  8
0
100
AcDbLine
 62
7
  6
CONTINUOUS
 10
14.314391313
 20
8.0442147354
 11
14.2925657329
 21
8.0179994413
  0
LWPOLYLINE
  5
554
100
AcDbEntity
  8
0
100
AcDbPolyline
 62
7
  6
CONTINUOUS
 90
5
 70
0
 10
14.350550301
 20
8.0514773305
 10
14.3723688685
 20
8.077682925
 10
14.3884532691
 20
8.1115773891
 10
14.3979848541
 20
8.1519680037
 10
14.3997691743
 20
8.1682185584
  0
LINE
  5
555
100
AcDbEntity
  8
0
100
AcDbLine
 62
7
  6
CONTINUOUS
 10
14.3992388143
 20
8.0931962028
 11
14.3774202468
 21
8.0669906084
  0
LWPOLYLINE
  5
556
100
AcDbEntity
  8
0
100
AcDbPolyline
 62
7
  6
CONTINUOUS
 90
5
 70
0
 10
14.378832401
 20
8.0678052281
 10
14.4006579812
 20
8.0940205222
 10
14.4167396694
 20
8.1279136651
 10
14.4262695376
 20
8.168301513
 10
14.4280533278
 20
8.1845483246
  0
LINE
  5
557
100
AcDbEntity
  8
0
100
AcDbLine
 62
7
  6
CONTINUOUS
 10
14.427527927
 20
8.1095338
 11
14.4057023468
 21
8.083318506
  0
LWPOLYLINE
  5
558
100
AcDbEntity
  8
0
100
AcDbPolyline
 62
7
  6
CONTINUOUS
 90
3
 70
0
 10
14.4848199818
 20
8.1419303003
 10
14.4621992447
 20
8.1154656396
 10
14.4440010753
 20
8.102389288
  0
LINE
  5
559
100
AcDbEntity
  8
0
100
AcDbLine
 62
7
  6
CONTINUOUS
 10
14.1237447507
 20
7.9208334614
 11
14.1032028443
 21
7.9056305167
  0
LINE
  5
55A
100
AcDbEntity
  8
0
100
AcDbLine
 62
7
  6
CONTINUOUS
 10
14.1894695125
 20
7.9554363035
 11
14.2100114188
 21
7.9706392482
  0
LINE
  5
55B
100
AcDbEntity
  8
0
100
AcDbLine
 62
7
  6
CONTINUOUS
 10
14.2368813646
 20
7.986152526
 11
14.2163394583
 21
7.9709495813
  0
LINE
  5
55C
100
AcDbEntity
  8
0
100
AcDbLine
 62
7
  6
CONTINUOUS
 10
14.3026061264
 20
8.0207553681
 11
14.3231480328
 21
8.0359583128
  0
LINE
  5
55D
100
AcDbEntity
  8
0
100
AcDbLine
 62
7
  6
CONTINUOUS
 10
14.3500179786
 20
8.0514715907
 11
14.3294760722
 21
8.0362686459
  0
LINE
  5
55E
100
AcDbEntity
  8
0
100
AcDbLine
 62
7
  6
CONTINUOUS
 10
14.4157427404
 20
8.0860744327
 11
14.4362846467
 21
8.1012773774
  0
LINE
  5
55F
100
AcDbEntity
  8
0
100
AcDbLine
 62
7
  6
CONTINUOUS
 10
14.1611839103
 20
7.9391057004
 11
14.1812505009
 21
7.9538691192
  0
LINE
  5
560
100
AcDbEntity
  8
0
100
AcDbLine
 62
7
  6
CONTINUOUS
 10
14.2081204467
 20
7.969382397
 11
14.1880538561
 21
7.9546189782
  0
LINE
  5
561
100
AcDbEntity
  8
0
100
AcDbLine
 62
7
  6
CONTINUOUS
 10
14.2743205242
 20
8.004424765
 11
14.2943871148
 21
8.0191881838
  0
LINE
  5
562
100
AcDbEntity
  8
0
100
AcDbLine
 62
7
  6
CONTINUOUS
 10
14.3212570606
 20
8.0347014616
 11
14.30119047
 21
8.0199380429
  0
LINE
  5
563
100
AcDbEntity
  8
0
100
AcDbLine
 62
7
  6
CONTINUOUS
 10
14.3874571382
 20
8.0697438296
 11
14.4075237288
 21
8.0845072484
  0
LINE
  5
564
100
AcDbEntity
  8
0
100
AcDbLine
 62
7
  6
CONTINUOUS
 10
14.4343936746
 20
8.1000205263
 11
14.414327084
 21
8.0852571075
  0
LINE
  5
565
100
AcDbEntity
  8
0
100
AcDbLine
 62
7
  6
CONTINUOUS
 10
14.1046092214
 20
7.9064424816
 11
14.1242770731
 21
7.9208392013
  0
LINE
  5
566
100
AcDbEntity
  8
0
100
AcDbLine
 62
7
  6
CONTINUOUS
 10
14.1511470189
 20
7.9363524792
 11
14.1314791672
 21
7.9219557595
  0
LINE
  5
567
100
AcDbEntity
  8
0
100
AcDbLine
 62
7
  6
CONTINUOUS
 10
14.1328800777
 20
7.9227645686
 11
14.1525591731
 21
7.9371670989
  0
LINE
  5
568
100
AcDbEntity
  8
0
100
AcDbLine
 62
7
  6
CONTINUOUS
 10
14.1794291189
 20
7.9526803767
 11
14.1597500235
 21
7.9382778465
  0
LINE
  5
569
100
AcDbEntity
  8
0
100
AcDbLine
 62
7
  6
CONTINUOUS
 10
14.2177458353
 20
7.9717615463
 11
14.237413687
 21
7.9861582659
  0
LINE
  5
56A
100
AcDbEntity
  8
0
100
AcDbLine
 62
7
  6
CONTINUOUS
 10
14.2642836329
 20
8.0016715438
 11
14.2446157811
 21
7.9872748241
  0
LINE
  5
56B
100
AcDbEntity
  8
0
100
AcDbLine
 62
7
  6
CONTINUOUS
 10
14.2460166916
 20
7.9880836333
 11
14.2656957871
 21
8.0024861635
  0
LINE
  5
56C
100
AcDbEntity
  8
0
100
AcDbLine
 62
7
  6
CONTINUOUS
 10
14.2925657329
 20
8.0179994413
 11
14.2728866374
 21
8.0035969111
  0
LINE
  5
56D
100
AcDbEntity
  8
0
100
AcDbLine
 62
7
  6
CONTINUOUS
 10
14.3308824493
 20
8.0370806109
 11
14.350550301
 21
8.0514773305
  0
LINE
  5
56E
100
AcDbEntity
  8
0
100
AcDbLine
 62
7
  6
CONTINUOUS
 10
14.3774202468
 20
8.0669906084
 11
14.3577523951
 21
8.0525938887
  0
LINE
  5
56F
100
AcDbEntity
  8
0
100
AcDbLine
 62
7
  6
CONTINUOUS
 10
14.3591533056
 20
8.0534026979
 11
14.378832401
 21
8.0678052281
  0
LINE
  5
570
100
AcDbEntity
  8
0
100
AcDbLine
 62
7
  6
CONTINUOUS
 10
14.4057023468
 20
8.083318506
 11
14.3860232514
 21
8.0689159757
  0
LWPOLYLINE
  5
571
100
AcDbEntity
  8
0
100
AcDbPolyline
 62
7
  6
CONTINUOUS
 90
5
 70
0
 10
14.4425869036
 20
8.1015728204
 10
14.4612395528
 20
8.1150508909
 10
14.4836683135
 20
8.141521746
 10
14.499953366
 20
8.1754396507
 10
14.5096176295
 20
8.2158433741
  0
LWPOLYLINE
  5
572
100
AcDbEntity
  8
0
100
AcDbPolyline
 62
9
  6
CONTINUOUS
 90
16
 70
0
 10
14.4861006638
 20
8.1445797871
 10
14.4875629513
 20
8.1454968069
 10
14.5118004539
 20
8.1675141399
 10
14.5305941544
 20
8.1968116353
 10
14.543418188
 20
8.2325935963
 10
14.5499137117
 20
8.2738536663
 10
14.549912966
 20
8.3194715404
 10
14.54341607
 20
8.3682318807
 10
14.5305907304
 20
8.418821533
 10
14.5117955045
 20
8.4698202489
 10
14.4875564094
 20
8.5198243866
 10
14.4585383709
 20
8.5674838094
 10
14.4255058075
 20
8.6115455511
 10
14.3893014163
 20
8.6508575728
 10
14.3508544466
 20
8.684354379
 10
14.3111957589
 20
8.7110681349
  0
LINE
  5
573
100
AcDbEntity
  8
AXIS_COSMETIC_THREADS
100
AcDbLine
 62
7
  6
CONTINUOUS
 10
14.0740508883
 20
7.9482667119
 11
14.0540926158
 21
7.9367438667
  0
LWPOLYLINE
  5
574
100
AcDbEntity
  8
0
100
AcDbPolyline
 62
7
  6
CONTINUOUS
 90
3
 70
0
 10
14.3294760722
 20
8.0362686459
 10
14.3227974062
 20
8.0327053689
 10
14.315670653
 20
8.0304243478
  0
LWPOLYLINE
  5
575
100
AcDbEntity
  8
0
100
AcDbPolyline
 62
7
  6
CONTINUOUS
 90
3
 70
0
 10
14.2163394583
 20
7.9709495813
 10
14.2096607923
 20
7.9673863043
 10
14.2025340391
 20
7.9651052832
  0
LWPOLYLINE
  5
576
100
AcDbEntity
  8
0
100
AcDbPolyline
 62
7
  6
CONTINUOUS
 90
3
 70
0
 10
14.1032028443
 20
7.9056305167
 10
14.0965241783
 20
7.9020672397
 10
14.0734450309
 20
7.8946804225
  0
LWPOLYLINE
  5
577
100
AcDbEntity
  8
0
100
AcDbPolyline
 62
7
  6
CONTINUOUS
 90
3
 70
0
 10
14.414327084
 20
8.0852571075
 10
14.4070633779
 20
8.0814088145
 10
14.400521908
 20
8.0793558595
  0
LWPOLYLINE
  5
578
100
AcDbEntity
  8
0
100
AcDbPolyline
 62
7
  6
CONTINUOUS
 90
3
 70
0
 10
14.30119047
 20
8.0199380429
 10
14.2939267639
 20
8.0160897499
 10
14.2873852941
 20
8.0140367949
  0
LWPOLYLINE
  5
579
100
AcDbEntity
  8
0
100
AcDbPolyline
 62
7
  6
CONTINUOUS
 90
3
 70
0
 10
14.1880538561
 20
7.9546189782
 10
14.18079015
 20
7.9507706853
 10
14.1742486801
 20
7.9487177303
  0
LWPOLYLINE
  5
57A
100
AcDbEntity
  8
0
100
AcDbPolyline
 62
7
  6
CONTINUOUS
 90
3
 70
0
 10
14.3577523951
 20
8.0525938887
 10
14.3504250503
 20
8.0487154348
 10
14.3440194374
 20
8.0466967875
  0
LWPOLYLINE
  5
57B
100
AcDbEntity
  8
0
100
AcDbPolyline
 62
7
  6
CONTINUOUS
 90
3
 70
0
 10
14.2446157811
 20
7.9872748241
 10
14.2372884364
 20
7.9833963702
 10
14.2308828235
 20
7.9813777229
  0
LWPOLYLINE
  5
57C
100
AcDbEntity
  8
0
100
AcDbPolyline
 62
7
  6
CONTINUOUS
 90
3
 70
0
 10
14.1314791672
 20
7.9219557595
 10
14.1241518224
 20
7.9180773056
 10
14.1177462095
 20
7.9160586582
  0
LWPOLYLINE
  5
57D
100
AcDbEntity
  8
0
100
AcDbPolyline
 62
7
  6
CONTINUOUS
 90
3
 70
0
 10
14.3860232514
 20
8.0689159757
 10
14.3785017847
 20
8.0649452856
 10
14.3722477612
 20
8.0629861309
  0
LWPOLYLINE
  5
57E
100
AcDbEntity
  8
0
100
AcDbPolyline
 62
7
  6
CONTINUOUS
 90
3
 70
0
 10
14.2728866374
 20
8.0035969111
 10
14.2653651707
 20
7.9996262209
 10
14.2591111472
 20
7.9976670663
  0
LWPOLYLINE
  5
57F
100
AcDbEntity
  8
0
100
AcDbPolyline
 62
7
  6
CONTINUOUS
 90
3
 70
0
 10
14.1597500235
 20
7.9382778465
 10
14.1522285568
 20
7.9343071563
 10
14.1459745333
 20
7.9323480017
  0
LWPOLYLINE
  5
580
100
AcDbEntity
  8
0
100
AcDbPolyline
 62
7
  6
CONTINUOUS
 90
6
 70
0
 10
14.0558392856
 20
7.93371852
 10
14.0419268321
 20
7.9270228353
 10
14.0110310809
 20
7.9198798851
 10
13.9768480984
 20
7.9212092578
 10
13.9404165174
 20
7.9309705611
 10
13.9028432929
 20
7.9488672026
  0
LWPOLYLINE
  5
581
100
AcDbEntity
  8
AXIS_COSMETIC_THREADS
100
AcDbPolyline
 62
7
  6
CONTINUOUS
 90
4
 70
0
 10
14.0540979657
 20
7.936748541
 10
14.0378025791
 20
7.9291764696
 10
14.0139554657
 20
7.9235139172
 10
13.9880396681
 20
7.9229750891
  0
LWPOLYLINE
  5
582
100
AcDbEntity
  8
0
100
AcDbPolyline
 62
7
  6
CONTINUOUS
 90
3
 70
0
 10
14.428175844
 20
8.0952761
 10
14.4333152821
 20
8.0967802017
 10
14.4425869036
 20
8.1015728204
  0
LWPOLYLINE
  5
583
100
AcDbEntity
  8
AXIS_COSMETIC_THREADS
100
AcDbPolyline
 62
7
  6
CONTINUOUS
 90
7
 70
0
 10
13.9028432929
 20
8.4457089234
 10
13.8737250347
 20
8.4602207315
 10
13.8451488997
 20
8.4698638674
 10
13.8176469177
 20
8.4744587954
 10
13.7917311201
 20
8.4739199673
 10
13.7678840067
 20
8.4682574149
 10
13.7515886201
 20
8.4606853435
  0
LWPOLYLINE
  5
584
100
AcDbEntity
  8
0
100
AcDbPolyline
 62
7
  6
CONTINUOUS
 90
4
 70
0
 10
13.9278752146
 20
8.4879175419
 10
13.88484519
 20
8.5101094034
 10
13.8426775711
 20
8.5236113131
 10
13.8025547212
 20
8.5280256698
  0
LWPOLYLINE
  5
585
100
AcDbEntity
  8
0
100
AcDbPolyline
 62
7
  6
CONTINUOUS
 90
11
 70
0
 10
13.9034828616
 20
8.5064950246
 10
13.9445491916
 20
8.4852252887
 10
13.9852720634
 20
8.456328548
 10
14.0245201814
 20
8.4206351881
 10
14.0612039967
 20
8.3791679893
 10
14.0943065492
 20
8.3331131746
 10
14.122912255
 20
8.2837868308
 10
14.1462328247
 20
8.2325976531
 10
14.1636295773
 20
8.181007069
 10
14.1746315202
 20
8.1304878686
 10
14.1789486814
 20
8.0824825139
  0
LWPOLYLINE
  5
586
100
AcDbEntity
  8
0
100
AcDbPolyline
 62
7
  6
CONTINUOUS
 90
12
 70
0
 10
13.9115111834
 20
8.4992607356
 10
13.9337849809
 20
8.4874971627
 10
13.9748429671
 20
8.4597387109
 10
14.0146054694
 20
8.4249611181
 10
14.0519579867
 20
8.3841707759
 10
14.0858548868
 20
8.3385458994
 10
14.1153492868
 20
8.2894028576
 10
14.1396201119
 20
8.2381585563
 10
14.1579955589
 20
8.1862899481
 10
14.1699722937
 20
8.1352918261
 10
14.1752298349
 20
8.0866341078
 10
14.174598508
 20
8.0514852084
  0
LWPOLYLINE
  5
587
100
AcDbEntity
  8
0
100
AcDbPolyline
 62
7
  6
CONTINUOUS
 90
11
 70
0
 10
13.8989182386
 20
8.5052582501
 10
13.931264485
 20
8.4875170812
 10
13.9736892483
 20
8.4571076081
 10
14.0145389078
 20
8.4196444264
 10
14.0526829624
 20
8.3761962933
 10
14.0870639109
 20
8.3280039261
 10
14.1167303454
 20
8.2764435345
 10
14.1408655428
 20
8.2229852441
 10
14.1588105793
 20
8.1691483579
 10
14.1700789146
 20
8.1164678447
 10
14.1743732507
 20
8.0664470398
  0
LWPOLYLINE
  5
588
100
AcDbEntity
  8
0
100
AcDbPolyline
 62
7
  6
CONTINUOUS
 90
11
 70
0
 10
13.9229058432
 20
8.5221256202
 10
13.9653509371
 20
8.4984355154
 10
14.006927333
 20
8.4673323648
 10
14.0463742737
 20
8.4300017329
 10
14.0836112887
 20
8.3865210155
 10
14.1172105926
 20
8.3383564086
 10
14.1458473297
 20
8.2875251507
 10
14.1688636147
 20
8.2355980212
 10
14.1862094915
 20
8.1827170215
 10
14.1971262725
 20
8.1307983012
 10
14.2012431965
 20
8.0819603176
  0
LWPOLYLINE
  5
589
100
AcDbEntity
  8
0
100
AcDbPolyline
 62
7
  6
CONTINUOUS
 90
11
 70
0
 10
13.972139469
 20
8.527766725
 10
14.0118068859
 20
8.5021545106
 10
14.0505404982
 20
8.4701154962
 10
14.0875736257
 20
8.4322497387
 10
14.1222400058
 20
8.3890608212
 10
14.1531901938
 20
8.3420972152
 10
14.179354448
 20
8.2931868776
 10
14.2004049369
 20
8.2432727165
 10
14.2160290321
 20
8.1932160859
 10
14.2257811048
 20
8.1445778141
 10
14.22952735
 20
8.0982900838
  0
LWPOLYLINE
  5
58A
100
AcDbEntity
  8
0
100
AcDbPolyline
 62
7
  6
CONTINUOUS
 90
11
 70
0
 10
13.9569367365
 20
8.5067419394
 10
13.9982123929
 20
8.4798132155
 10
14.0383226154
 20
8.4457090101
 10
14.0761354972
 20
8.4054231357
 10
14.110585222
 20
8.3601272403
 10
14.1407027254
 20
8.311137101
 10
14.1656435731
 20
8.2598747716
 10
14.1847122539
 20
8.2078276727
 10
14.1973821878
 20
8.1565058013
 10
14.2033108755
 20
8.1073982908
 10
14.2028826615
 20
8.0678149746
  0
LWPOLYLINE
  5
58B
100
AcDbEntity
  8
0
100
AcDbPolyline
 62
7
  6
CONTINUOUS
 90
11
 70
0
 10
13.9604722556
 20
8.5087831602
 10
14.0017479121
 20
8.4818544363
 10
14.0418581346
 20
8.4477502309
 10
14.0796710164
 20
8.4074643565
 10
14.1141207412
 20
8.3621684611
 10
14.1442382446
 20
8.3131783218
 10
14.1691790923
 20
8.2619159924
 10
14.1882477731
 20
8.2098688935
 10
14.200917707
 20
8.158547022
 10
14.2068463947
 20
8.1094395116
 10
14.20588527
 20
8.0639717924
  0
LWPOLYLINE
  5
58C
100
AcDbEntity
  8
0
100
AcDbPolyline
 62
9
  6
CONTINUOUS
 90
3
 70
0
 10
14.5402278767
 20
7.9198424642
 10
14.5427760958
 20
7.9144824944
 10
14.5468954743
 20
7.9040135679
  0
LWPOLYLINE
  5
58D
100
AcDbEntity
  8
0
100
AcDbPolyline
 62
7
  6
CONTINUOUS
 90
11
 70
0
 10
14.5137830926
 20
8.2624042336
 10
14.5096661685
 20
8.3112422172
 10
14.4987493875
 20
8.3631609375
 10
14.4814035107
 20
8.4160419372
 10
14.4583872257
 20
8.4679690667
 10
14.4297504886
 20
8.5188003246
 10
14.3961511847
 20
8.5669649315
 10
14.3589141698
 20
8.6104456489
 10
14.3194672291
 20
8.6477762808
 10
14.2778908332
 20
8.6788794314
 10
14.2383280804
 20
8.7012154439
  0
LINE
  5
58E
100
AcDbEntity
  8
0
100
AcDbLine
 62
7
  6
CONTINUOUS
 10
14.5137830926
 20
8.2624042336
 11
14.5129057882
 21
8.2335376231
  0
LINE
  5
58F
100
AcDbEntity
  8
0
100
AcDbLine
 62
7
  6
CONTINUOUS
 10
14.5182926408
 20
8.2811581549
 11
14.5162147105
 21
8.2367242919
  0
LINE
  5
590
100
AcDbEntity
  8
0
100
AcDbLine
 62
7
  6
CONTINUOUS
 10
14.5096176295
 20
8.2158433741
 11
14.5123688849
 21
8.2615877453
  0
LWPOLYLINE
  5
591
100
AcDbEntity
  8
0
100
AcDbPolyline
 62
7
  6
CONTINUOUS
 90
4
 70
0
 10
14.5129057882
 20
8.2335376231
 10
14.511003896
 20
8.2164666177
 10
14.501250476
 20
8.1759218578
 10
14.4848199818
 20
8.1419303003
  0
LINE
  5
592
100
AcDbEntity
  8
0
100
AcDbLine
 62
7
  6
CONTINUOUS
 10
14.5162147105
 20
8.2367242919
 11
14.5153784264
 21
8.2329846717
  0
LINE
  5
593
100
AcDbEntity
  8
0
100
AcDbLine
 62
7
  6
CONTINUOUS
 10
13.8632140913
 20
8.5195232712
 11
13.9034828616
 21
8.5064950246
  0
LWPOLYLINE
  5
594
100
AcDbEntity
  8
0
100
AcDbPolyline
 62
7
  6
CONTINUOUS
 90
12
 70
0
 10
13.8468840588
 20
8.5001707606
 10
13.8875118109
 20
8.4846140378
 10
13.9285950229
 20
8.460976692
 10
13.968992199
 20
8.4299402287
 10
14.0075812632
 20
8.3923956034
 10
14.0432913228
 20
8.3494180012
 10
14.075132982
 20
8.3022364007
 10
14.1022263498
 20
8.252198785
 10
14.1238259471
 20
8.2007339837
 10
14.1393418094
 20
8.1493112265
 10
14.1483561871
 20
8.0993985527
 10
14.150635371
 20
8.0524212552
  0
LWPOLYLINE
  5
595
100
AcDbEntity
  8
0
100
AcDbPolyline
 62
7
  6
CONTINUOUS
 90
4
 70
0
 10
13.9272023921
 20
8.5215880162
 10
13.9055968198
 20
8.5308213901
 10
13.8668499616
 20
8.5418831209
 10
13.8298232686
 20
8.545141204
  0
LWPOLYLINE
  5
596
100
AcDbEntity
  8
0
100
AcDbPolyline
 62
7
  6
CONTINUOUS
 90
12
 70
0
 10
13.9474807526
 20
8.5440787816
 10
13.9887564091
 20
8.5251129263
 10
14.0300320656
 20
8.4981842025
 10
14.0701422881
 20
8.464079997
 10
14.1079551698
 20
8.4237941226
 10
14.1424048947
 20
8.3784982272
 10
14.1725223981
 20
8.3295080879
 10
14.1974632458
 20
8.2782457585
 10
14.2165319266
 20
8.2261986596
 10
14.2292018605
 20
8.1748767882
 10
14.2351305482
 20
8.1257692777
 10
14.2341694235
 20
8.0803015585
  0
LWPOLYLINE
  5
597
100
AcDbEntity
  8
0
100
AcDbPolyline
 62
7
  6
CONTINUOUS
 90
12
 70
0
 10
13.9757649061
 20
8.5604085478
 10
14.0170405626
 20
8.5414426925
 10
14.0583162191
 20
8.5145139686
 10
14.0984264415
 20
8.4804097632
 10
14.1362393233
 20
8.4401238888
 10
14.1706890481
 20
8.3948279934
 10
14.2008065516
 20
8.3458378541
 10
14.2257473993
 20
8.2945755247
 10
14.24481608
 20
8.2425284258
 10
14.257486014
 20
8.1912065543
 10
14.2634147017
 20
8.1420990439
 10
14.262453577
 20
8.0966313247
  0
LINE
  5
598
100
AcDbEntity
  8
0
100
AcDbLine
 62
7
  6
CONTINUOUS
 10
13.9195261418
 20
8.5276296366
 11
13.9604722556
 21
8.5087831602
  0
LINE
  5
599
100
AcDbEntity
  8
0
100
AcDbLine
 62
7
  6
CONTINUOUS
 10
13.9324667656
 20
8.5463346679
 11
13.972139469
 21
8.527766725
  0
LINE
  5
59A
100
AcDbEntity
  8
0
100
AcDbLine
 62
7
  6
CONTINUOUS
 10
13.9397953369
 20
8.5155905017
 11
13.9569367365
 21
8.5067419394
  0
LWPOLYLINE
  5
59B
100
AcDbEntity
  8
0
100
AcDbPolyline
 62
7
  6
CONTINUOUS
 90
12
 70
0
 10
13.9680794904
 20
8.5319202679
 10
13.9852208899
 20
8.5230717056
 10
14.0264965464
 20
8.4961429817
 10
14.0666067689
 20
8.4620387763
 10
14.1044196507
 20
8.4217529019
 10
14.1388693755
 20
8.3764570064
 10
14.1689868789
 20
8.3274668671
 10
14.1939277266
 20
8.2762045378
 10
14.2129964074
 20
8.2241574389
 10
14.2256663413
 20
8.1728355674
 10
14.231595029
 20
8.1237280569
 10
14.231166815
 20
8.0841447407
  0
LWPOLYLINE
  5
59C
100
AcDbEntity
  8
0
100
AcDbPolyline
 62
7
  6
CONTINUOUS
 90
12
 70
0
 10
13.9963636439
 20
8.548250034
 10
14.0135050434
 20
8.5394014717
 10
14.0547806999
 20
8.5124727479
 10
14.0948909224
 20
8.4783685424
 10
14.1327038041
 20
8.438082668
 10
14.167153529
 20
8.3927867726
 10
14.1972710324
 20
8.3437966333
 10
14.2222118801
 20
8.2925343039
 10
14.2412805609
 20
8.240487205
 10
14.2539504948
 20
8.1891653336
 10
14.2598791825
 20
8.1400578231
 10
14.2594509685
 20
8.1004745069
  0
LWPOLYLINE
  5
59D
100
AcDbEntity
  8
0
100
AcDbPolyline
 62
7
  6
CONTINUOUS
 90
12
 70
0
 10
14.0246477974
 20
8.5645798002
 10
14.0417891969
 20
8.5557312379
 10
14.0830648534
 20
8.528802514
 10
14.1231750758
 20
8.4946983086
 10
14.1609879576
 20
8.4544124342
 10
14.1954376824
 20
8.4091165388
 10
14.2255551859
 20
8.3601263995
 10
14.2504960336
 20
8.3088640701
 10
14.2695647144
 20
8.2568169712
 10
14.2822346483
 20
8.2054950997
 10
14.288163336
 20
8.1563875893
 10
14.287735122
 20
8.1168042731
  0
LINE
  5
59E
100
AcDbEntity
  8
0
100
AcDbLine
 62
7
  6
CONTINUOUS
 10
13.9452695231
 20
8.5122534471
 11
13.9272023921
 21
8.5215880162
  0
LWPOLYLINE
  5
59F
100
AcDbEntity
  8
0
100
AcDbPolyline
 62
7
  6
CONTINUOUS
 90
11
 70
0
 10
13.9789882498
 20
8.5550097417
 10
14.02143383
 20
8.5314114395
 10
14.0630304989
 20
8.5003848119
 10
14.1024644039
 20
8.4631638718
 10
14.1396903884
 20
8.4198123913
 10
14.1733232386
 20
8.3717404557
 10
14.202028574
 20
8.3209545305
 10
14.2252211005
 20
8.2688032005
 10
14.2427099951
 20
8.2156275581
 10
14.2536849021
 20
8.1635229551
 10
14.2578115035
 20
8.1146198499
  0
LWPOLYLINE
  5
5A0
100
AcDbEntity
  8
0
100
AcDbPolyline
 62
7
  6
CONTINUOUS
 90
11
 70
0
 10
14.0073924273
 20
8.5712841302
 10
14.0500130792
 20
8.547548989
 10
14.0917661154
 20
8.5163332325
 10
14.1312915168
 20
8.4789228385
 10
14.1682134244
 20
8.4358338466
 10
14.201303089
 20
8.3885528248
 10
14.2298977498
 20
8.3381066395
 10
14.2532503038
 20
8.2857905914
 10
14.2708753432
 20
8.2323958865
 10
14.2819377374
 20
8.1800629857
 10
14.286095657
 20
8.1309496161
  0
LWPOLYLINE
  5
5A1
100
AcDbEntity
  8
0
100
AcDbPolyline
 62
7
  6
CONTINUOUS
 90
11
 70
0
 10
14.0700733504
 20
8.572061004
 10
14.1113490069
 20
8.5451322802
 10
14.1514592293
 20
8.5110280747
 10
14.1892721111
 20
8.4707422003
 10
14.2237218359
 20
8.4254463049
 10
14.2538393394
 20
8.3764561656
 10
14.2787801871
 20
8.3251938362
 10
14.2978488678
 20
8.2731467373
 10
14.3105188018
 20
8.2218248659
 10
14.3164474895
 20
8.1727173554
 10
14.3160192754
 20
8.1331340392
  0
LWPOLYLINE
  5
5A2
100
AcDbEntity
  8
0
100
AcDbPolyline
 62
7
  6
CONTINUOUS
 90
11
 70
0
 10
14.0736088696
 20
8.5741022248
 10
14.1148845261
 20
8.5471735009
 10
14.1549947485
 20
8.5130692955
 10
14.1928076303
 20
8.4727834211
 10
14.2272573551
 20
8.4274875257
 10
14.2573748585
 20
8.3784973864
 10
14.2823157063
 20
8.327235057
 10
14.301384387
 20
8.2751879581
 10
14.314054321
 20
8.2238660867
 10
14.3199830087
 20
8.1747585762
 10
14.319021884
 20
8.129290857
  0
LINE
  5
5A3
100
AcDbEntity
  8
AXIS_COSMETIC_THREADS
100
AcDbLine
 62
7
  6
CONTINUOUS
 10
14.6451301888
 20
7.5884162075
 11
14.6451301888
 21
7.2045868602
  0
LWPOLYLINE
  5
5A4
100
AcDbEntity
  8
0
100
AcDbPolyline
 62
7
  6
CONTINUOUS
 90
4
 70
0
 10
13.8468840588
 20
8.5001707606
 10
13.822392806
 20
8.5064356384
 10
13.7979421276
 20
8.5092954069
 10
13.7726864951
 20
8.5081800431
  0
LINE
  5
5A5
100
AcDbEntity
  8
0
100
AcDbLine
 62
7
  6
CONTINUOUS
 10
13.919344273
 20
8.5514055033
 11
13.9474807526
 21
8.5440787816
  0
LINE
  5
5A6
100
AcDbEntity
  8
0
100
AcDbLine
 62
7
  6
CONTINUOUS
 10
13.8847924683
 20
8.5367607655
 11
13.9195261418
 21
8.5276296366
  0
LWPOLYLINE
  5
5A7
100
AcDbEntity
  8
0
100
AcDbPolyline
 62
7
  6
CONTINUOUS
 90
3
 70
0
 10
13.983770699
 20
8.5542475485
 10
13.9387719301
 20
8.5710347314
 10
13.8992496703
 20
8.5775557212
  0
LWPOLYLINE
  5
5A8
100
AcDbEntity
  8
0
100
AcDbPolyline
 62
7
  6
CONTINUOUS
 90
3
 70
0
 10
13.9554865455
 20
8.5379177824
 10
13.9105408571
 20
8.554690798
 10
13.8710903861
 20
8.5612187509
  0
LWPOLYLINE
  5
5A9
100
AcDbEntity
  8
0
100
AcDbPolyline
 62
7
  6
CONTINUOUS
 90
3
 70
0
 10
14.0120548525
 20
8.5705773147
 10
13.9675759017
 20
8.5872251633
 10
13.9281226856
 20
8.5938507219
  0
LWPOLYLINE
  5
5AA
100
AcDbEntity
  8
0
100
AcDbPolyline
 62
7
  6
CONTINUOUS
 90
4
 70
0
 10
14.040339006
 20
8.5869070808
 10
14.0187334337
 20
8.5961404547
 10
13.9799865755
 20
8.6072021856
 10
13.9429598825
 20
8.6104602687
  0
LWPOLYLINE
  5
5AB
100
AcDbEntity
  8
0
100
AcDbPolyline
 62
7
  6
CONTINUOUS
 90
12
 70
0
 10
14.0040490596
 20
8.5767383139
 10
14.0453247161
 20
8.5577724587
 10
14.0866003726
 20
8.5308437348
 10
14.126710595
 20
8.4967395294
 10
14.1645234768
 20
8.456453655
 10
14.1989732016
 20
8.4111577595
 10
14.2290907051
 20
8.3621676202
 10
14.2540315528
 20
8.3109052908
 10
14.2731002335
 20
8.2588581919
 10
14.2857701675
 20
8.2075363205
 10
14.2916988552
 20
8.15842881
 10
14.2907377305
 20
8.1129610909
  0
LINE
  5
5AC
100
AcDbEntity
  8
0
100
AcDbLine
 62
7
  6
CONTINUOUS
 10
14.0323332131
 20
8.5930680801
 11
14.0736088696
 21
8.5741022248
  0
LWPOLYLINE
  5
5AD
100
AcDbEntity
  8
0
100
AcDbPolyline
 62
7
  6
CONTINUOUS
 90
12
 70
0
 10
14.0606173666
 20
8.6093978462
 10
14.1018930231
 20
8.590431991
 10
14.1431686796
 20
8.5635032671
 10
14.183278902
 20
8.5293990617
 10
14.2210917838
 20
8.4891131873
 10
14.2555415086
 20
8.4438172918
 10
14.285659012
 20
8.3948271525
 10
14.3105998598
 20
8.3435648231
 10
14.3296685405
 20
8.2915177242
 10
14.3423384745
 20
8.2401958528
 10
14.3482671621
 20
8.1910883423
 10
14.3473060375
 20
8.1456206232
  0
LINE
  5
5AE
100
AcDbEntity
  8
0
100
AcDbLine
 62
7
  6
CONTINUOUS
 10
14.0456033795
 20
8.6116537326
 11
14.0852760829
 21
8.5930857896
  0
LINE
  5
5AF
100
AcDbEntity
  8
0
100
AcDbLine
 62
7
  6
CONTINUOUS
 10
14.0529319509
 20
8.5809095663
 11
14.0700733504
 21
8.572061004
  0
LWPOLYLINE
  5
5B0
100
AcDbEntity
  8
0
100
AcDbPolyline
 62
7
  6
CONTINUOUS
 90
12
 70
0
 10
14.0812161043
 20
8.5972393325
 10
14.0983575039
 20
8.5883907702
 10
14.1396331604
 20
8.5614620463
 10
14.1797433828
 20
8.5273578409
 10
14.2175562646
 20
8.4870719665
 10
14.2520059894
 20
8.4417760711
 10
14.2821234928
 20
8.3927859318
 10
14.3070643406
 20
8.3415236024
 10
14.3261330213
 20
8.2894765035
 10
14.3388029553
 20
8.238154632
 10
14.344731643
 20
8.1890471216
 10
14.3443034289
 20
8.1494638054
  0
LWPOLYLINE
  5
5B1
100
AcDbEntity
  8
0
100
AcDbPolyline
 62
7
  6
CONTINUOUS
 90
12
 70
0
 10
14.1095002578
 20
8.6135690987
 10
14.1266416574
 20
8.6047205363
 10
14.1679173139
 20
8.5777918125
 10
14.2080275363
 20
8.5436876071
 10
14.2458404181
 20
8.5034017326
 10
14.2802901429
 20
8.4581058372
 10
14.3104076463
 20
8.4091156979
 10
14.3353484941
 20
8.3578533685
 10
14.3544171748
 20
8.3058062696
 10
14.3670871088
 20
8.2544843982
 10
14.3730157964
 20
8.2053768877
 10
14.3725875824
 20
8.1657935715
  0
LINE
  5
5B2
100
AcDbEntity
  8
0
100
AcDbLine
 62
7
  6
CONTINUOUS
 10
14.0584061371
 20
8.5775725118
 11
14.040339006
 21
8.5869070808
  0
LWPOLYLINE
  5
5B3
100
AcDbEntity
  8
0
100
AcDbPolyline
 62
7
  6
CONTINUOUS
 90
11
 70
0
 10
14.0921248637
 20
8.6203288064
 10
14.1345704439
 20
8.5967305041
 10
14.1761671128
 20
8.5657038765
 10
14.2156010179
 20
8.5284829364
 10
14.2528270023
 20
8.4851314559
 10
14.2864598525
 20
8.4370595204
 10
14.315165188
 20
8.3862735951
 10
14.3383577144
 20
8.3341222651
 10
14.355846609
 20
8.2809466227
 10
14.366821516
 20
8.2288420198
 10
14.3709481175
 20
8.1799389145
  0
LWPOLYLINE
  5
5B4
100
AcDbEntity
  8
0
100
AcDbPolyline
 62
7
  6
CONTINUOUS
 90
11
 70
0
 10
14.0360424572
 20
8.5874446848
 10
14.0784875511
 20
8.56375458
 10
14.120063947
 20
8.5326514294
 10
14.1595108877
 20
8.4953207975
 10
14.1967479026
 20
8.4518400801
 10
14.2303472065
 20
8.4036754732
 10
14.2589839436
 20
8.3528442153
 10
14.2820002286
 20
8.3009170858
 10
14.2993461054
 20
8.2480360861
 10
14.3102628864
 20
8.1961173658
 10
14.3143798105
 20
8.1472793822
  0
LWPOLYLINE
  5
5B5
100
AcDbEntity
  8
0
100
AcDbPolyline
 62
7
  6
CONTINUOUS
 90
11
 70
0
 10
14.0852760829
 20
8.5930857896
 10
14.1249434999
 20
8.5674735752
 10
14.1636771121
 20
8.5354345608
 10
14.2007102397
 20
8.4975688033
 10
14.2353766198
 20
8.4543798858
 10
14.2663268078
 20
8.4074162798
 10
14.292491062
 20
8.3585059422
 10
14.3135415508
 20
8.3085917812
 10
14.3291656461
 20
8.2585351505
 10
14.3389177187
 20
8.2098968787
 10
14.342663964
 20
8.1636091484
  0
LWPOLYLINE
  5
5B6
100
AcDbEntity
  8
0
100
AcDbPolyline
 62
9
  6
CONTINUOUS
 90
10
 70
0
 10
14.6962169306
 20
8.2223969116
 10
14.6921453245
 20
8.2884842801
 10
14.6800186439
 20
8.3578424361
 10
14.660099395
 20
8.428969985
 10
14.6328187693
 20
8.5003272302
 10
14.5987673101
 20
8.5703695028
 10
14.5586821284
 20
8.6375805991
 10
14.5134309475
 20
8.7005056019
 10
14.4639933189
 20
8.7577823749
 10
14.4114394177
 20
8.8081710489
  0
LWPOLYLINE
  5
5B7
100
AcDbEntity
  8
AXIS
100
AcDbPolyline
 62
7
  6
CONTINUOUS
 90
5
 70
0
 10
14.64512498
 20
7.2045719743
 10
14.6449176702
 20
7.2005260612
 10
14.6398553141
 20
7.1845769696
 10
14.628328958
 20
7.1697907801
 10
14.6110084718
 20
7.1570268123
  0
LWPOLYLINE
  5
5B8
100
AcDbEntity
  8
0
100
AcDbPolyline
 62
9
  6
CONTINUOUS
 90
8
 70
0
 10
14.6584594619
 20
7.9513878381
 10
14.685243812
 20
7.9699440119
 10
14.7137061681
 20
7.9983299334
 10
14.7375250195
 20
8.0328730672
 10
14.7563854783
 20
8.073116749
 10
14.770038207
 20
8.1185289527
 10
14.7783027149
 20
8.1685093236
 10
14.7810697444
 20
8.2223971156
  0
LWPOLYLINE
  5
5B9
100
AcDbEntity
  8
AXIS_COSMETIC_THREADS
100
AcDbPolyline
 62
7
  6
CONTINUOUS
 90
28
 70
0
 10
14.9372685674
 20
8.113512672
 10
14.9438241118
 20
8.1174688545
 10
14.9684956238
 20
8.1358325479
 10
14.9905365075
 20
8.1581374038
 10
15.0097693025
 20
8.1842038365
 10
15.0260391578
 20
8.2138219744
 10
15.0392150781
 20
8.2467533498
 10
15.0491909785
 20
8.2827328186
 10
15.0558865391
 20
8.3214706952
 10
15.059247851
 20
8.362655085
 10
15.059247851
 20
8.4059543955
 10
15.0558865391
 20
8.4510200062
 10
15.0491909785
 20
8.4974890752
 10
15.0392150781
 20
8.544987461
 10
15.0260391578
 20
8.5931327344
 10
15.0097693025
 20
8.6415372581
 10
14.9905365075
 20
8.6898113072
 10
14.9684956238
 20
8.7375662075
 10
14.9438241118
 20
8.7844174646
 10
14.9167206119
 20
8.8299878598
 10
14.8874033457
 20
8.873910487
 10
14.8561083584
 20
8.9158317071
 10
14.823087619
 20
8.955413995
 10
14.788606991
 20
8.9923386574
 10
14.7529440921
 20
9.0263083987
 10
14.716386059
 20
9.0570497144
 10
14.6792272356
 20
9.0843150936
 10
14.6417668028
 20
9.1078850116
  0
LINE
  5
5BA
100
AcDbEntity
  8
AXIS_COSMETIC_THREADS
100
AcDbLine
 62
7
  6
CONTINUOUS
 10
14.9372654799
 20
8.1135103056
 11
14.9970330788
 21
8.148016939
  0
LINE
  5
5BB
100
AcDbEntity
  8
0
100
AcDbLine
 62
7
  6
CONTINUOUS
 10
14.9271589201
 20
8.1065206166
 11
14.6584594619
 21
7.9513878381
  0
LINE
  5
5BC
100
AcDbEntity
  8
0
100
AcDbLine
 62
7
  6
CONTINUOUS
 10
14.9970123669
 20
8.1480049811
 11
14.9969757757
 21
8.1479838626
  0
LWPOLYLINE
  5
5BD
100
AcDbEntity
  8
0
100
AcDbPolyline
 62
9
  6
CONTINUOUS
 90
3
 70
0
 10
14.7372275578
 20
7.9930522092
 10
14.708448069
 20
7.9768900313
 10
14.6741570015
 20
7.9587129317
  0
LWPOLYLINE
  5
5BE
100
AcDbEntity
  8
0
100
AcDbPolyline
 62
9
  6
CONTINUOUS
 90
4
 70
0
 10
14.6741570015
 20
7.9587129317
 10
14.6350058083
 20
7.9394848401
 10
14.5921092984
 20
7.9206728598
 10
14.5468954743
 20
7.9040135679
  0
LWPOLYLINE
  5
5BF
100
AcDbEntity
  8
0
100
AcDbPolyline
 62
7
  6
CONTINUOUS
 90
3
 70
0
 10
13.8566932144
 20
8.5606544819
 10
13.8937199074
 20
8.5573963988
 10
13.9324667656
 20
8.5463346679
  0
LINE
  5
5C0
100
AcDbEntity
  8
0
100
AcDbLine
 62
7
  6
CONTINUOUS
 10
13.8577784037
 20
8.5201476667
 11
13.8632140913
 21
8.5195232712
  0
LINE
  5
5C1
100
AcDbEntity
  8
0
100
AcDbLine
 62
7
  6
CONTINUOUS
 10
13.9475882058
 20
8.5677457429
 11
13.9757649061
 21
8.5604085478
  0
LINE
  5
5C2
100
AcDbEntity
  8
0
100
AcDbLine
 62
7
  6
CONTINUOUS
 10
13.9762622766
 20
8.5839739748
 11
14.0040490596
 21
8.5767383139
  0
LINE
  5
5C3
100
AcDbEntity
  8
0
100
AcDbLine
 62
7
  6
CONTINUOUS
 10
14.0000391084
 20
8.6014774447
 11
14.0323332131
 21
8.5930680801
  0
LINE
  5
5C4
100
AcDbEntity
  8
0
100
AcDbLine
 62
7
  6
CONTINUOUS
 10
14.032480887
 20
8.6167245679
 11
14.0606173666
 21
8.6093978462
  0
LWPOLYLINE
  5
5C5
100
AcDbEntity
  8
0
100
AcDbPolyline
 62
7
  6
CONTINUOUS
 90
3
 70
0
 10
14.096907313
 20
8.6195666132
 10
14.051908544
 20
8.636353796
 10
14.0123862842
 20
8.6428747858
  0
LWPOLYLINE
  5
5C6
100
AcDbEntity
  8
0
100
AcDbPolyline
 62
7
  6
CONTINUOUS
 90
3
 70
0
 10
14.0686231595
 20
8.603236847
 10
14.023677471
 20
8.6200098626
 10
13.9842270001
 20
8.6265378156
  0
LWPOLYLINE
  5
5C7
100
AcDbEntity
  8
0
100
AcDbPolyline
 62
7
  6
CONTINUOUS
 90
3
 70
0
 10
14.1251914665
 20
8.6358963793
 10
14.0807125157
 20
8.652544228
 10
14.0412592996
 20
8.6591697865
  0
LWPOLYLINE
  5
5C8
100
AcDbEntity
  8
0
100
AcDbPolyline
 62
7
  6
CONTINUOUS
 90
4
 70
0
 10
14.15347562
 20
8.6522261455
 10
14.1318700477
 20
8.6614595193
 10
14.0931231895
 20
8.6725212502
 10
14.0560964965
 20
8.6757793333
  0
LWPOLYLINE
  5
5C9
100
AcDbEntity
  8
0
100
AcDbPolyline
 62
7
  6
CONTINUOUS
 90
12
 70
0
 10
14.0889015201
 20
8.6257276124
 10
14.1301771766
 20
8.6067617571
 10
14.1714528331
 20
8.5798330332
 10
14.2115630555
 20
8.5457288278
 10
14.2493759373
 20
8.5054429534
 10
14.2838256621
 20
8.460147058
 10
14.3139431655
 20
8.4111569187
 10
14.3388840133
 20
8.3598945893
 10
14.357952694
 20
8.3078474904
 10
14.370622628
 20
8.256525619
 10
14.3765513156
 20
8.2074181085
 10
14.3755901909
 20
8.1619503893
  0
LWPOLYLINE
  5
5CA
100
AcDbEntity
  8
0
100
AcDbPolyline
 62
7
  6
CONTINUOUS
 90
12
 70
0
 10
14.1171856736
 20
8.6420573785
 10
14.1584613301
 20
8.6230915233
 10
14.1997369865
 20
8.5961627994
 10
14.239847209
 20
8.562058594
 10
14.2776600908
 20
8.5217727196
 10
14.3121098156
 20
8.4764768241
 10
14.342227319
 20
8.4274866848
 10
14.3671681668
 20
8.3762243555
 10
14.3862368475
 20
8.3241772566
 10
14.3989067814
 20
8.2728553851
 10
14.4048354691
 20
8.2237478746
 10
14.4038743444
 20
8.1782801555
  0
LINE
  5
5CB
100
AcDbEntity
  8
0
100
AcDbLine
 62
7
  6
CONTINUOUS
 10
14.1454698271
 20
8.6583871447
 11
14.1867454835
 21
8.6394212894
  0
LWPOLYLINE
  5
5CC
100
AcDbEntity
  8
0
100
AcDbPolyline
 62
7
  6
CONTINUOUS
 90
12
 70
0
 10
14.1943527183
 20
8.6625583971
 10
14.2084657182
 20
8.6553725003
 10
14.2497001581
 20
8.6290607503
 10
14.2898600658
 20
8.5955354757
 10
14.3278165206
 20
8.5557699652
 10
14.3625037419
 20
8.5109163215
 10
14.392949629
 20
8.4622724476
 10
14.4183036164
 20
8.4112448558
 10
14.4378610473
 20
8.3593083638
 10
14.4510833651
 20
8.3079638337
 10
14.4576135459
 20
8.2586951651
 10
14.4574400429
 20
8.21478287
  0
LWPOLYLINE
  5
5CD
100
AcDbEntity
  8
0
100
AcDbPolyline
 62
7
  6
CONTINUOUS
 90
12
 70
0
 10
14.1377844113
 20
8.6298988648
 10
14.1549258109
 20
8.6210503025
 10
14.1962014674
 20
8.5941215786
 10
14.2363116898
 20
8.5600173732
 10
14.2741245716
 20
8.5197314988
 10
14.3085742964
 20
8.4744356034
 10
14.3386917998
 20
8.4254454641
 10
14.3636326476
 20
8.3741831347
 10
14.3827013283
 20
8.3221360358
 10
14.3953712623
 20
8.2708141644
 10
14.4012999499
 20
8.2217066539
 10
14.4008717359
 20
8.1821233377
  0
LINE
  5
5CE
100
AcDbEntity
  8
0
100
AcDbLine
 62
7
  6
CONTINUOUS
 10
14.1660685648
 20
8.646228631
 11
14.1832099644
 21
8.6373800687
  0
LINE
  5
5CF
100
AcDbEntity
  8
0
100
AcDbLine
 62
7
  6
CONTINUOUS
 10
14.171542751
 20
8.6428915764
 11
14.15347562
 21
8.6522261455
  0
LWPOLYLINE
  5
5D0
100
AcDbEntity
  8
0
100
AcDbPolyline
 62
7
  6
CONTINUOUS
 90
11
 70
0
 10
14.1205290412
 20
8.6366031948
 10
14.1631496932
 20
8.6128680536
 10
14.2049027293
 20
8.5816522971
 10
14.2444281307
 20
8.5442419031
 10
14.2813500383
 20
8.5011529112
 10
14.314439703
 20
8.4538718894
 10
14.3430343637
 20
8.4034257041
 10
14.3663869177
 20
8.351109656
 10
14.3840119571
 20
8.2977149512
 10
14.3950743514
 20
8.2453820503
 10
14.399232271
 20
8.1962686807
  0
LWPOLYLINE
  5
5D1
100
AcDbEntity
  8
0
100
AcDbPolyline
 62
7
  6
CONTINUOUS
 90
11
 70
0
 10
14.1491790711
 20
8.6527637494
 10
14.1916241651
 20
8.6290736446
 10
14.2332005609
 20
8.597970494
 10
14.2726475016
 20
8.5606398621
 10
14.3098845166
 20
8.5171591447
 10
14.3434838205
 20
8.4689945378
 10
14.3721205576
 20
8.4181632799
 10
14.3951368426
 20
8.3662361504
 10
14.4124827194
 20
8.3133551508
 10
14.4233995004
 20
8.2614364304
 10
14.4275164244
 20
8.2125984468
  0
LWPOLYLINE
  5
5D2
100
AcDbEntity
  8
0
100
AcDbPolyline
 62
7
  6
CONTINUOUS
 90
11
 70
0
 10
14.1984126969
 20
8.6584048542
 10
14.2380801138
 20
8.6327926398
 10
14.2768137261
 20
8.6007536254
 10
14.3138468536
 20
8.562887868
 10
14.3485132337
 20
8.5196989504
 10
14.3794634217
 20
8.4727353444
 10
14.4056276759
 20
8.4238250068
 10
14.4266781648
 20
8.3739108458
 10
14.44230226
 20
8.3238542151
 10
14.4520543327
 20
8.2752159433
 10
14.4558005779
 20
8.228928213
  0
LWPOLYLINE
  5
5D3
100
AcDbEntity
  8
0
100
AcDbPolyline
 62
7
  6
CONTINUOUS
 90
11
 70
0
 10
14.1867454835
 20
8.6394212894
 10
14.2277398266
 20
8.6127033709
 10
14.2675925115
 20
8.5789020627
 10
14.3051942742
 20
8.5389889012
 10
14.3394997199
 20
8.4941088449
 10
14.3695569853
 20
8.4455477857
 10
14.394534748
 20
8.3946960628
 10
14.4137458144
 20
8.3430090122
 10
14.4266666189
 20
8.291965672
 10
14.4329520798
 20
8.2430268151
 10
14.4324453907
 20
8.1975935006
  0
LWPOLYLINE
  5
5D4
100
AcDbEntity
  8
0
100
AcDbPolyline
 62
7
  6
CONTINUOUS
 90
11
 70
0
 10
14.1832099644
 20
8.6373800687
 10
14.2244049235
 20
8.6105118553
 10
14.2644413026
 20
8.57649463
 10
14.3021937208
 20
8.5363157784
 10
14.336602244
 20
8.4911392474
 10
14.3667027575
 20
8.4422721924
 10
14.3916545928
 20
8.3911275209
 10
14.4107646164
 20
8.3391834056
 10
14.4235070925
 20
8.2879409269
 10
14.4295387468
 20
8.2388810603
 10
14.4291558894
 20
8.1984531038
  0
LINE
  5
5D5
100
AcDbEntity
  8
0
100
AcDbLine
 62
7
  6
CONTINUOUS
 10
14.3620315234
 20
8.6494056465
 11
14.3204980243
 21
8.6835586771
  0
LWPOLYLINE
  5
5D6
100
AcDbEntity
  8
0
100
AcDbPolyline
 62
7
  6
CONTINUOUS
 90
13
 70
0
 10
14.3620315234
 20
8.6494056465
 10
14.3985528222
 20
8.6099805004
 10
14.4319969795
 20
8.5659347168
 10
14.4617628404
 20
8.5180000708
 10
14.486731165
 20
8.4679646313
 10
14.5062714937
 20
8.4173564266
 10
14.5201351526
 20
8.3670787783
 10
14.5280128264
 20
8.3183673623
 10
14.5297314781
 20
8.2723102658
 10
14.5251781544
 20
8.2298485074
 10
14.514326901
 20
8.19215371
 10
14.4972393504
 20
8.1602328757
 10
14.4896358421
 20
8.1518933964
  0
LWPOLYLINE
  5
5D7
100
AcDbEntity
  8
0
100
AcDbPolyline
 62
9
  6
CONTINUOUS
 90
18
 70
0
 10
14.7810697444
 20
8.2223971156
 10
14.7767929587
 20
8.2937848817
 10
14.7640499904
 20
8.3686522538
 10
14.7431012208
 20
8.4454694426
 10
14.7143747028
 20
8.5226668179
 10
14.6784574146
 20
8.5986669809
 10
14.6360832656
 20
8.6719169957
 10
14.5881181006
 20
8.7409201213
 10
14.5355420071
 20
8.8042663947
 10
14.4794292893
 20
8.860661441
 10
14.4209265166
 20
8.9089529221
 10
14.3612290947
 20
8.9481540827
 10
14.3015568405
 20
8.9774639128
 10
14.2431290562
 20
8.9962835152
 10
14.1871396155
 20
9.0042283431
 10
14.1347325687
 20
9.001136057
 10
14.0869787658
 20
8.9870698428
 10
14.0664621123
 20
8.9767634464
  0
LINE
  5
5D8
100
AcDbEntity
  8
0
100
AcDbLine
 62
7
  6
CONTINUOUS
 10
14.8186301888
 20
7.7772085517
 11
14.8186301888
 21
7.7639231617
  0
LINE
  5
5D9
100
AcDbEntity
  8
0
100
AcDbLine
 62
7
  6
CONTINUOUS
 10
14.8236301888
 20
7.8047482826
 11
14.8236301888
 21
8.0467486326
  0
LWPOLYLINE
  5
5DA
100
AcDbEntity
  8
0
100
AcDbPolyline
 62
9
  6
CONTINUOUS
 90
3
 70
0
 10
14.768282824
 20
8.0147940073
 10
14.7558784538
 20
8.0049740979
 10
14.7372275578
 20
7.9930522092
  0
LWPOLYLINE
  5
5DB
100
AcDbEntity
  8
0
100
AcDbPolyline
 62
9
  6
CONTINUOUS
 90
4
 70
0
 10
15.0209251581
 20
8.1647021059
 10
15.0107996621
 20
8.1568954978
 10
15.0003566711
 20
8.1499888558
 10
14.9970123669
 20
8.1480049811
  0
LWPOLYLINE
  5
5DC
100
AcDbEntity
  8
0
100
AcDbPolyline
 62
7
  6
CONTINUOUS
 90
18
 70
0
 10
14.9969758603
 20
8.1479839181
 10
15.0210801204
 20
8.1642495475
 10
15.0569052837
 20
8.1989080693
 10
15.0877201681
 20
8.2438960584
 10
15.1115527715
 20
8.2979628834
 10
15.1271094022
 20
8.3596358521
 10
15.1336298736
 20
8.4274139777
 10
15.1309351708
 20
8.499391038
 10
15.1195673444
 20
8.5739693078
 10
15.100030052
 20
8.6496752927
 10
15.0728512192
 20
8.7252598253
 10
15.0386110145
 20
8.7994494889
 10
14.9979638331
 20
8.8709485879
 10
14.9516361048
 20
8.9384766158
 10
14.9004336937
 20
9.0007731135
 10
14.8452176052
 20
9.0566390162
 10
14.7868715168
 20
9.1049594155
 10
14.7283333334
 20
9.1435169486
  0
LINE
  5
5DD
100
AcDbEntity
  8
0
100
AcDbLine
 62
7
  6
CONTINUOUS
 10
13.8025547212
 20
8.5280256698
 11
13.7655991415
 21
8.5232142596
  0
LWPOLYLINE
  5
5DE
100
AcDbEntity
  8
0
100
AcDbPolyline
 62
7
  6
CONTINUOUS
 90
5
 70
0
 10
13.769343643
 20
8.5246340548
 10
13.8063445141
 20
8.5288369173
 10
13.8464138205
 20
8.5239084613
 10
13.8884426307
 20
8.5100001884
 10
13.8989182386
 20
8.5052582501
  0
LINE
  5
5DF
100
AcDbEntity
  8
0
100
AcDbLine
 62
7
  6
CONTINUOUS
 10
13.8710903861
 20
8.5612187509
 11
13.8338470524
 21
8.5590212864
  0
LWPOLYLINE
  5
5E0
100
AcDbEntity
  8
0
100
AcDbPolyline
 62
7
  6
CONTINUOUS
 90
4
 70
0
 10
13.8046035863
 20
8.5419592842
 10
13.8418560175
 20
8.5440449351
 10
13.8813092336
 20
8.5374193766
 10
13.9229058432
 20
8.5221256202
  0
LWPOLYLINE
  5
5E1
100
AcDbEntity
  8
0
100
AcDbPolyline
 62
7
  6
CONTINUOUS
 90
3
 70
0
 10
13.9698298283
 20
8.6259735465
 10
14.0068565214
 20
8.6227154634
 10
14.0456033795
 20
8.6116537326
  0
LINE
  5
5E2
100
AcDbEntity
  8
0
100
AcDbLine
 62
7
  6
CONTINUOUS
 10
14.0607248198
 20
8.6330648075
 11
14.0889015201
 21
8.6257276124
  0
LINE
  5
5E3
100
AcDbEntity
  8
0
100
AcDbLine
 62
7
  6
CONTINUOUS
 10
14.0893988906
 20
8.6492930394
 11
14.1171856736
 21
8.6420573785
  0
LINE
  5
5E4
100
AcDbEntity
  8
0
100
AcDbLine
 62
7
  6
CONTINUOUS
 10
14.1131757223
 20
8.6667965093
 11
14.1454698271
 21
8.6583871447
  0
LINE
  5
5E5
100
AcDbEntity
  8
0
100
AcDbLine
 62
7
  6
CONTINUOUS
 10
14.1816759309
 20
8.6973829076
 11
14.2222263477
 21
8.6827722126
  0
LWPOLYLINE
  5
5E6
100
AcDbEntity
  8
0
100
AcDbPolyline
 62
7
  6
CONTINUOUS
 90
3
 70
0
 10
14.2100439269
 20
8.6848856778
 10
14.165045158
 20
8.7016728606
 10
14.1255228982
 20
8.7081938504
  0
LWPOLYLINE
  5
5E7
100
AcDbEntity
  8
0
100
AcDbPolyline
 62
7
  6
CONTINUOUS
 90
3
 70
0
 10
14.1817597735
 20
8.6685559116
 10
14.136814085
 20
8.6853289273
 10
14.097363614
 20
8.6918568802
  0
LWPOLYLINE
  5
5E8
100
AcDbEntity
  8
0
100
AcDbPolyline
 62
7
  6
CONTINUOUS
 90
12
 70
0
 10
14.1636664454
 20
8.6781140628
 10
14.2044762389
 20
8.6613606653
 10
14.2455799597
 20
8.6365909715
 10
14.2858328462
 20
8.6045202493
 10
14.3241142788
 20
8.5660709307
 10
14.3593595772
 20
8.5223464378
 10
14.3905902103
 20
8.474599874
 10
14.4169415616
 20
8.4241984675
 10
14.4376874626
 20
8.3725847768
 10
14.4522607972
 20
8.3212357582
 10
14.4602695938
 20
8.2716208583
 10
14.4615081471
 20
8.2251603186
  0
LINE
  5
5E9
100
AcDbEntity
  8
0
100
AcDbLine
 62
7
  6
CONTINUOUS
 10
14.1587399935
 20
8.6769727972
 11
14.1984126969
 21
8.6584048542
  0
LWPOLYLINE
  5
5EA
100
AcDbEntity
  8
0
100
AcDbPolyline
 62
7
  6
CONTINUOUS
 90
13
 70
0
 10
14.2509210253
 20
8.6952179294
 10
14.2589790545
 20
8.6912286286
 10
14.300273779
 20
8.6660420612
 10
14.3406625499
 20
8.6335162816
 10
14.3790098884
 20
8.5945959378
 10
14.414238813
 20
8.5504089144
 10
14.4453617004
 20
8.5022340123
 10
14.4715085859
 20
8.4514643055
 10
14.491952092
 20
8.3995672219
 10
14.5061282718
 20
8.3480424945
 10
14.5136527683
 20
8.2983791862
 10
14.5143318288
 20
8.2520130213
 10
14.5140083499
 20
8.2474424023
  0
LWPOLYLINE
  5
5EB
100
AcDbEntity
  8
0
100
AcDbPolyline
 62
7
  6
CONTINUOUS
 90
12
 70
0
 10
14.2226368718
 20
8.6788881633
 10
14.2337219293
 20
8.673322105
 10
14.274989626
 20
8.6475709324
 10
14.3152670036
 20
8.6145428318
 10
14.3534217753
 20
8.5751968454
 10
14.3883824778
 20
8.5306730545
 10
14.4191691736
 20
8.4822599101
 10
14.4449215316
 20
8.4313573129
 10
14.4649234794
 20
8.379436499
 10
14.478623723
 20
8.3279978811
 10
14.4856515433
 20
8.278528055
 10
14.4857241964
 20
8.2311126361
  0
LWPOLYLINE
  5
5EC
100
AcDbEntity
  8
0
100
AcDbPolyline
 62
7
  6
CONTINUOUS
 90
11
 70
0
 10
14.2400151273
 20
8.7036462271
 10
14.2811114115
 20
8.682910544
 10
14.3219427317
 20
8.6544798584
 10
14.3613720553
 20
8.6191733173
 10
14.3983021311
 20
8.5780051679
 10
14.431706623
 20
8.5321559782
 10
14.4606592322
 20
8.4829391391
 10
14.4843599802
 20
8.4317635973
 10
14.5021579085
 20
8.3800938769
 10
14.5135695486
 20
8.3294085244
 10
14.5182926408
 20
8.2811581549
  0
LINE
  5
5ED
100
AcDbEntity
  8
0
100
AcDbLine
 62
7
  6
CONTINUOUS
 10
14.2666122339
 20
8.7175452101
 11
14.284679365
 21
8.708210641
  0
LINE
  5
5EE
100
AcDbEntity
  8
0
100
AcDbLine
 62
7
  6
CONTINUOUS
 10
14.2669568722
 20
8.7173816934
 11
14.284679365
 21
8.708210641
  0
LWPOLYLINE
  5
5EF
100
AcDbEntity
  8
0
100
AcDbPolyline
 62
7
  6
CONTINUOUS
 90
11
 70
0
 10
14.2222263477
 20
8.6827722126
 10
14.2633640701
 20
8.6599978399
 10
14.3039433716
 20
8.6297184409
 10
14.3428343708
 20
8.5928056192
 10
14.3789550911
 20
8.5503191997
 10
14.4113021616
 20
8.5034771557
 10
14.4389792874
 20
8.4536210501
 10
14.4612226815
 20
8.4021779685
 10
14.4774227371
 20
8.3506200264
 10
14.487141325
 20
8.3004225985
 10
14.4901242251
 20
8.2530224553
  0
LWPOLYLINE
  5
5F0
100
AcDbEntity
  8
0
100
AcDbPolyline
 62
7
  6
CONTINUOUS
 90
11
 70
0
 10
14.2052614777
 20
8.685647871
 10
14.2477070579
 20
8.6620495687
 10
14.2893037268
 20
8.6310229411
 10
14.3287376318
 20
8.593802001
 10
14.3659636163
 20
8.5504505205
 10
14.3995964665
 20
8.502378585
 10
14.4283018019
 20
8.4515926597
 10
14.4514943284
 20
8.3994413298
 10
14.468983223
 20
8.3462656873
 10
14.47995813
 20
8.2941610844
 10
14.4840847314
 20
8.2452579792
  0
LWPOLYLINE
  5
5F1
100
AcDbEntity
  8
0
100
AcDbPolyline
 62
7
  6
CONTINUOUS
 90
11
 70
0
 10
14.2336656552
 20
8.7019222594
 10
14.2762863071
 20
8.6781871183
 10
14.3180393433
 20
8.6469713617
 10
14.3575647447
 20
8.6095609677
 10
14.3944866523
 20
8.5664719758
 10
14.4275763169
 20
8.5191909541
 10
14.4561709777
 20
8.4687447687
 10
14.4795235317
 20
8.4164287206
 10
14.4971485711
 20
8.3630340158
 10
14.5082109653
 20
8.3107011149
 10
14.5123688849
 20
8.2615877453
  0
LINE
  5
5F2
100
AcDbEntity
  8
0
100
AcDbLine
 62
7
  6
CONTINUOUS
 10
14.3204980243
 20
8.6835586771
 11
14.2779381009
 21
8.7102978225
  0
LWPOLYLINE
  5
5F3
100
AcDbEntity
  8
0
100
AcDbPolyline
 62
7
  6
CONTINUOUS
 90
3
 70
0
 10
14.284679365
 20
8.708210641
 10
14.3238374361
 20
8.6820446648
 10
14.3620315234
 20
8.6494056465
  0
LWPOLYLINE
  5
5F4
100
AcDbEntity
  8
0
100
AcDbPolyline
 62
7
  6
CONTINUOUS
 90
3
 70
0
 10
14.8135786255
 20
7.7606679703
 10
14.8225077318
 20
7.7899049807
 10
14.8236237894
 20
7.8047482808
  0
LWPOLYLINE
  5
5F5
100
AcDbEntity
  8
0
100
AcDbPolyline
 62
7
  6
CONTINUOUS
 90
6
 70
0
 10
13.7726864951
 20
8.5081800431
 10
13.7462693206
 20
8.5016225323
 10
13.7199228741
 20
8.4877156734
 10
13.6963734716
 20
8.4656697177
 10
13.6775656981
 20
8.4357371966
 10
13.6646594258
 20
8.3987454055
  0
LINE
  5
5F6
100
AcDbEntity
  8
0
100
AcDbLine
 62
7
  6
CONTINUOUS
 10
13.8298232686
 20
8.545141204
 11
13.7951569414
 21
8.5403226819
  0
LINE
  5
5F7
100
AcDbEntity
  8
0
100
AcDbLine
 62
7
  6
CONTINUOUS
 10
13.8220268872
 20
8.5558359598
 11
13.8566932144
 21
8.5606544819
  0
LINE
  5
5F8
100
AcDbEntity
  8
0
100
AcDbLine
 62
7
  6
CONTINUOUS
 10
13.9429598825
 20
8.6104602687
 11
13.9082935554
 21
8.6056417466
  0
LINE
  5
5F9
100
AcDbEntity
  8
0
100
AcDbLine
 62
7
  6
CONTINUOUS
 10
13.9351635012
 20
8.6211550244
 11
13.9698298283
 21
8.6259735465
  0
LINE
  5
5FA
100
AcDbEntity
  8
0
100
AcDbLine
 62
7
  6
CONTINUOUS
 10
13.9842270001
 20
8.6265378156
 11
13.9469836663
 21
8.624340351
  0
LINE
  5
5FB
100
AcDbEntity
  8
0
100
AcDbLine
 62
7
  6
CONTINUOUS
 10
13.8992496703
 20
8.5775557212
 11
13.862337008
 21
8.5753893634
  0
LINE
  5
5FC
100
AcDbEntity
  8
0
100
AcDbLine
 62
7
  6
CONTINUOUS
 10
14.0123862842
 20
8.6428747858
 11
13.975473622
 21
8.640708428
  0
LINE
  5
5FD
100
AcDbEntity
  8
0
100
AcDbLine
 62
7
  6
CONTINUOUS
 10
13.9281226856
 20
8.5938507219
 11
13.8908702544
 21
8.591765071
  0
LWPOLYLINE
  5
5FE
100
AcDbEntity
  8
0
100
AcDbPolyline
 62
7
  6
CONTINUOUS
 90
4
 70
0
 10
13.9177402002
 20
8.6072783488
 10
13.9549926314
 20
8.6093639997
 10
13.9944458476
 20
8.6027384412
 10
14.0360424572
 20
8.5874446848
  0
LINE
  5
5FF
100
AcDbEntity
  8
0
100
AcDbLine
 62
7
  6
CONTINUOUS
 10
14.0412592996
 20
8.6591697865
 11
14.0040068684
 21
8.6570841356
  0
LWPOLYLINE
  5
600
100
AcDbEntity
  8
0
100
AcDbPolyline
 62
7
  6
CONTINUOUS
 90
3
 70
0
 10
14.0829664423
 20
8.6912926111
 10
14.1199931353
 20
8.688034528
 10
14.1587399935
 20
8.6769727972
  0
LINE
  5
601
100
AcDbEntity
  8
0
100
AcDbLine
 62
7
  6
CONTINUOUS
 10
14.1728963383
 20
8.6987439094
 11
14.1816759309
 21
8.6973829076
  0
LINE
  5
602
100
AcDbEntity
  8
0
100
AcDbLine
 62
7
  6
CONTINUOUS
 10
14.1465254744
 20
8.6817047913
 11
14.1636664454
 21
8.6781140628
  0
LINE
  5
603
100
AcDbEntity
  8
0
100
AcDbLine
 62
7
  6
CONTINUOUS
 10
14.1997984296
 20
8.7160861033
 11
14.2400151273
 21
8.7036462271
  0
LWPOLYLINE
  5
604
100
AcDbEntity
  8
0
100
AcDbPolyline
 62
7
  6
CONTINUOUS
 90
4
 70
0
 10
14.2383280804
 20
8.7012154439
 10
14.1938491297
 20
8.7178632926
 10
14.1543959135
 20
8.7244888511
 10
14.1171434823
 20
8.7224032002
  0
LWPOLYLINE
  5
605
100
AcDbEntity
  8
0
100
AcDbPolyline
 62
7
  6
CONTINUOUS
 90
4
 70
0
 10
14.2779381009
 20
8.7102978225
 10
14.2355241272
 20
8.7288602124
 10
14.1944235823
 20
8.7387133677
 10
14.1557656088
 20
8.7395692624
  0
LINE
  5
606
100
AcDbEntity
  8
0
100
AcDbLine
 62
7
  6
CONTINUOUS
 10
14.266956919
 20
8.7173810484
 11
14.2666122339
 21
8.7175452101
  0
LWPOLYLINE
  5
607
100
AcDbEntity
  8
0
100
AcDbPolyline
 62
9
  6
CONTINUOUS
 90
5
 70
0
 10
14.3111957589
 20
8.7110681349
 10
14.2715338925
 20
8.73014847
 10
14.2330840898
 20
8.7410452534
 10
14.1968780418
 20
8.7435360582
 10
14.1770412191
 20
8.7399797648
  0
LWPOLYLINE
  5
608
100
AcDbEntity
  8
0
100
AcDbPolyline
 62
9
  6
CONTINUOUS
 90
7
 70
0
 10
14.3200345569
 20
8.726377467
 10
14.278917781
 20
8.746158655
 10
14.2390477403
 20
8.7574593969
 10
14.2015041048
 20
8.7600437517
 10
14.1672510587
 20
8.7539042594
 10
14.1371620177
 20
8.7392274443
 10
14.1323797055
 20
8.7348833889
  0
LINE
  5
609
100
AcDbEntity
  8
0
100
AcDbLine
 62
9
  6
CONTINUOUS
 10
14.4114394177
 20
8.8081710489
 11
14.3569068774
 21
8.8505808614
  0
LWPOLYLINE
  5
60A
100
AcDbEntity
  8
0
100
AcDbPolyline
 62
7
  6
CONTINUOUS
 90
5
 70
0
 10
14.7933638937
 20
7.6955719491
 10
14.800346031
 20
7.7054133122
 10
14.8120030366
 20
7.7283342098
 10
14.8178913882
 20
7.7519795957
 10
14.8186301888
 20
7.7639231617
  0
LWPOLYLINE
  5
60B
100
AcDbEntity
  8
0
100
AcDbPolyline
 62
7
  6
CONTINUOUS
 90
4
 70
0
 10
14.7372275578
 20
7.68431726
 10
14.7702807464
 20
7.7070596796
 10
14.7959915051
 20
7.7327703179
 10
14.8135786255
 20
7.7606679703
  0
LINE
  5
60C
100
AcDbEntity
  8
0
100
AcDbLine
 62
7
  6
CONTINUOUS
 10
14.0560964965
 20
8.6757793333
 11
14.0214301693
 21
8.6709608112
  0
LINE
  5
60D
100
AcDbEntity
  8
0
100
AcDbLine
 62
7
  6
CONTINUOUS
 10
14.0483001151
 20
8.686474089
 11
14.0829664423
 21
8.6912926111
  0
LINE
  5
60E
100
AcDbEntity
  8
0
100
AcDbLine
 62
7
  6
CONTINUOUS
 10
14.097363614
 20
8.6918568802
 11
14.0601202803
 21
8.6896594156
  0
LINE
  5
60F
100
AcDbEntity
  8
0
100
AcDbLine
 62
7
  6
CONTINUOUS
 10
14.1255228982
 20
8.7081938504
 11
14.0886102359
 21
8.7060274926
  0
LWPOLYLINE
  5
610
100
AcDbEntity
  8
0
100
AcDbPolyline
 62
7
  6
CONTINUOUS
 90
4
 70
0
 10
14.0308768142
 20
8.6725974134
 10
14.0681292454
 20
8.6746830643
 10
14.1075824615
 20
8.6680575058
 10
14.1491790711
 20
8.6527637494
  0
LINE
  5
611
100
AcDbEntity
  8
0
100
AcDbLine
 62
7
  6
CONTINUOUS
 10
14.1981661563
 20
8.7162474899
 11
14.1997984296
 21
8.7160861033
  0
LWPOLYLINE
  5
612
100
AcDbEntity
  8
0
100
AcDbPolyline
 62
9
  6
CONTINUOUS
 90
13
 70
0
 10
14.3569068774
 20
8.8505808614
 10
14.3015761627
 20
8.8840937678
 10
14.2466450164
 20
8.9079843151
 10
14.1933025321
 20
8.9217353451
 10
14.1427034134
 20
8.9250491893
 10
14.0959429784
 20
8.9178541132
 10
14.0540334494
 20
8.9003058684
 10
14.017882041
 20
8.8727843214
 10
13.9882713222
 20
8.8358852306
 10
13.9658422754
 20
8.7904073499
 10
13.9510804219
 20
8.737335138
 10
13.9443053112
 20
8.677817448
 10
13.9452910871
 20
8.6308799637
  0
LINE
  5
613
100
AcDbEntity
  8
0
100
AcDbLine
 62
7
  6
CONTINUOUS
 10
14.7933638937
 20
7.6955719491
 11
14.7670114668
 21
7.6615507232
  0
LWPOLYLINE
  5
614
100
AcDbEntity
  8
0
100
AcDbPolyline
 62
7
  6
CONTINUOUS
 90
4
 70
0
 10
14.7132795096
 20
7.6164931175
 10
14.7387374533
 20
7.6335725781
 10
14.7595019479
 20
7.6526518896
 10
14.7670069642
 20
7.6615491095
  0
LWPOLYLINE
  5
615
100
AcDbEntity
  8
0
100
AcDbPolyline
 62
7
  6
CONTINUOUS
 90
4
 70
0
 10
14.7336920091
 20
7.6455333429
 10
14.7607878723
 20
7.6635871488
 10
14.7831576745
 20
7.6836835065
 10
14.7933638937
 20
7.6955719491
  0
LWPOLYLINE
  5
616
100
AcDbEntity
  8
0
100
AcDbPolyline
 62
7
  6
CONTINUOUS
 90
15
 70
0
 10
14.7336920091
 20
7.6455333429
 10
14.7024216787
 20
7.6298896123
 10
14.6676134547
 20
7.6169744183
 10
14.6299759322
 20
7.607050677
 10
14.5902753026
 20
7.600320407
 10
14.5493197563
 20
7.5969206173
 10
14.50794303
 20
7.5969205179
 10
14.4669874347
 20
7.6003201107
 10
14.427286708
 20
7.6070501898
 10
14.3896490424
 20
7.6169737502
 10
14.3548406321
 20
7.6298887769
 10
14.3235700761
 20
7.6455323571
 10
14.2964739525
 20
7.6635860327
 10
14.2741038605
 20
7.6836822829
 10
14.263896484
 20
7.6955719491
  0
LWPOLYLINE
  5
617
100
AcDbEntity
  8
0
100
AcDbPolyline
 62
7
  6
CONTINUOUS
 90
14
 70
0
 10
14.7132795096
 20
7.6164931175
 10
14.6836968052
 20
7.6017950348
 10
14.6506501688
 20
7.5898066607
 10
14.6148778077
 20
7.5807957959
 10
14.5771788173
 20
7.574963728
 10
14.5383953308
 20
7.5724407359
 10
14.4993937072
 20
7.5732831791
 10
14.4610451782
 20
7.5774722387
 10
14.4242063867
 20
7.584914338
 10
14.3897002503
 20
7.595443233
 10
14.3582975793
 20
7.6088237254
 10
14.3306998572
 20
7.6247569172
 10
14.3075235717
 20
7.6428868872
 10
14.2902460678
 20
7.6615546205
  0
LINE
  5
618
100
AcDbEntity
  8
0
100
AcDbLine
 62
7
  6
CONTINUOUS
 10
14.1557656088
 20
8.7395692624
 11
14.120611245
 21
8.7313912003
  0
LWPOLYLINE
  5
619
100
AcDbEntity
  8
AXIS
100
AcDbPolyline
 62
7
  6
CONTINUOUS
 90
11
 70
0
 10
14.6110084718
 20
7.1570268123
 10
14.5889004593
 20
7.1470268616
 10
14.5632897577
 20
7.1403720889
 10
14.5356647679
 20
7.1374492452
 10
14.507630954
 20
7.1384281956
 10
14.4808175393
 20
7.1432520472
 10
14.456782822
 20
7.1516404552
 10
14.4369236125
 20
7.1631059158
 10
14.4223940559
 20
7.176982098
 10
14.4140385571
 20
7.1924625688
 10
14.4121353977
 20
7.2046017461
  0
LWPOLYLINE
  5
61A
100
AcDbEntity
  8
0
100
AcDbPolyline
 62
7
  6
CONTINUOUS
 90
8
 70
0
 10
14.728335658
 20
9.1435156052
 10
14.67551901
 20
9.1701909841
 10
14.6204523721
 20
9.1898122861
 10
14.5666071294
 20
9.2005592308
 10
14.515467921
 20
9.2023394757
 10
14.4677427106
 20
9.1955385597
 10
14.4239743806
 20
9.1806447911
 10
14.4027112671
 20
9.1697410629
  0
LWPOLYLINE
  5
61B
100
AcDbEntity
  8
0
100
AcDbPolyline
 62
9
  6
CONTINUOUS
 90
57
 70
0
 10
14.6983351098
 20
9.1405445439
 10
14.7152644576
 20
9.1303744829
 10
14.7321660115
 20
9.1194288818
 10
14.7490120231
 20
9.1077257106
 10
14.7657748353
 20
9.0952841831
 10
14.7824269275
 20
9.0821247254
 10
14.798940961
 20
9.0682689421
 10
14.8152898236
 20
9.0537395811
 10
14.8314466745
 20
9.0385604962
 10
14.8473849878
 20
9.0227566078
 10
14.8630785968
 20
9.0063538622
 10
14.8785017361
 20
8.9893791887
 10
14.8936290848
 20
8.9718604557
 10
14.9084358073
 20
8.9538264248
 10
14.9228975944
 20
8.9353067037
 10
14.9369907035
 20
8.9163316972
 10
14.9506919968
 20
8.8969325578
 10
14.9639789803
 20
8.8771411342
 10
14.9768298398
 20
8.8569899194
 10
14.9892234773
 20
8.8365119967
 10
15.0011395453
 20
8.8157409861
 10
15.0125584806
 20
8.7947109885
 10
15.0234615359
 20
8.7734565302
 10
15.0338308109
 20
8.7520125065
 10
15.0436492816
 20
8.7304141234
 10
15.052900829
 20
8.7086968391
 10
15.0615702647
 20
8.6868963069
 10
15.0696433551
 20
8.665048319
 10
15.077106844
 20
8.6431887506
 10
15.0839484797
 20
8.6213534858
 10
15.0901570439
 20
8.5995783219
 10
15.0957223267
 20
8.5778990602
 10
15.100635172
 20
8.5563513837
 10
15.1048875103
 20
8.5349707325
 10
15.1084724035
 20
8.5137920204
 10
15.1113840038
 20
8.4928496904
 10
15.1136167094
 20
8.4721866704
 10
15.1151653862
 20
8.4518746112
 10
15.1160317178
 20
8.4319615022
 10
15.1162194465
 20
8.4124892898
 10
15.1157003616
 20
8.3934566644
 10
15.1144709941
 20
8.3748341869
 10
15.1125388698
 20
8.3566013576
 10
15.1099036057
 20
8.3387400234
 10
15.1065692988
 20
8.321294526
 10
15.1025565866
 20
8.3043665946
 10
15.0978958052
 20
8.2880470394
 10
15.0926125499
 20
8.272378635
 10
15.0867261667
 20
8.2573797299
 10
15.0802553433
 20
8.2430696076
 10
15.0732253639
 20
8.2294813614
 10
15.0656660318
 20
8.2166506434
 10
15.0576048793
 20
8.2046033966
 10
15.0490703377
 20
8.1933636041
 10
15.0400918596
 20
8.182953536
 10
15.0306997735
 20
8.1733935691
 10
15.0209251581
 20
8.1647021059
  0
LINE
  5
61C
100
AcDbEntity
  8
AXIS
100
AcDbLine
 62
7
  6
CONTINUOUS
 10
4.7179839155
 20
3.9930611706
 11
4.4849839155
 21
3.9930611706
  0
LINE
  5
61D
100
AcDbEntity
  8
0
100
AcDbLine
 62
7
  6
CONTINUOUS
 10
4.862616402
 20
4.6281005407
 11
4.3403514289
 21
4.6281005407
  0
LINE
  5
61E
100
AcDbEntity
  8
0
100
AcDbLine
 62
7
  6
CONTINUOUS
 10
4.8914839155
 20
4.6781005407
 11
4.3114839155
 21
4.6781005407
  0
LINE
  5
61F
100
AcDbEntity
  8
0
100
AcDbLine
 62
7
  6
CONTINUOUS
 10
4.3114839155
 20
4.6781005407
 11
4.3403514289
 21
4.6281005407
  0
LINE
  5
620
100
AcDbEntity
  8
0
100
AcDbLine
 62
7
  6
CONTINUOUS
 10
4.3064839155
 20
4.7281005407
 11
4.8964839155
 21
4.7281005407
  0
LINE
  5
621
100
AcDbEntity
  8
0
100
AcDbLine
 62
7
  6
CONTINUOUS
 10
4.3064839155
 20
4.7281005407
 11
4.3064839155
 21
5.1062193836
  0
LINE
  5
622
100
AcDbEntity
  8
0
100
AcDbLine
 62
7
  6
CONTINUOUS
 10
4.3114839155
 20
4.7281005407
 11
4.3114839155
 21
4.6781005407
  0
LINE
  5
623
100
AcDbEntity
  8
AXIS_COSMETIC_THREADS
100
AcDbLine
 62
7
  6
CONTINUOUS
 10
4.3164839155
 20
5.5517040417
 11
4.3164839155
 21
5.7544970396
  0
LWPOLYLINE
  5
624
100
AcDbEntity
  8
0
100
AcDbPolyline
 62
9
  6
CONTINUOUS
 90
6
 70
0
 10
4.3803729445
 20
5.0578661331
 10
4.3528888168
 20
5.0737826652
 10
4.3317035211
 20
5.0876752678
 10
4.3171333953
 20
5.0981106747
 10
4.3089697251
 20
5.1042891485
 10
4.3064839155
 20
5.1062193836
  0
LINE
  5
625
100
AcDbEntity
  8
AXIS
100
AcDbLine
 62
7
  6
CONTINUOUS
 10
4.4849839155
 20
4.6281005407
 11
4.4849839155
 21
3.9930611706
  0
LINE
  5
626
100
AcDbEntity
  8
AXIS_COSMETIC_THREADS
100
AcDbLine
 62
7
  6
CONTINUOUS
 10
4.4849839155
 20
4.6281005407
 11
4.4849839155
 21
3.9930611706
  0
LWPOLYLINE
  5
627
100
AcDbEntity
  8
0
100
AcDbPolyline
 62
9
  6
CONTINUOUS
 90
8
 70
0
 10
4.359887359
 20
5.1126423055
 10
4.3823298852
 20
5.1046644387
 10
4.4074120144
 20
5.09950707
 10
4.4360468323
 20
5.0969862596
 10
4.4692016479
 20
5.0972989233
 10
4.5077027445
 20
5.1009465801
 10
4.5519444889
 20
5.1086362072
 10
4.6014839155
 20
5.1211005407
  0
LWPOLYLINE
  5
628
100
AcDbEntity
  8
0
100
AcDbPolyline
 62
9
  6
CONTINUOUS
 90
8
 70
0
 10
4.3803729445
 20
5.0578661331
 10
4.4012999169
 20
5.0502463689
 10
4.4251956021
 20
5.0479573385
 10
4.4525871573
 20
5.0507868109
 10
4.4839926831
 20
5.0590410052
 10
4.5196484096
 20
5.0732812648
 10
4.5592094548
 20
5.0939833142
 10
4.6014839155
 20
5.1211005407
  0
LINE
  5
629
100
AcDbEntity
  8
0
100
AcDbLine
 62
7
  6
CONTINUOUS
 10
4.2791526271
 20
5.1565458704
 11
4.2795152529
 21
5.1563086114
  0
LWPOLYLINE
  5
62A
100
AcDbEntity
  8
0
100
AcDbPolyline
 62
9
  6
CONTINUOUS
 90
6
 70
0
 10
4.359887359
 20
5.1126423055
 10
4.368929793
 20
5.1065245885
 10
4.3758545095
 20
5.0973335266
 10
4.3802241325
 20
5.0856496418
 10
4.3817626696
 20
5.0722109067
 10
4.3803729445
 20
5.0578661331
  0
LINE
  5
62B
100
AcDbEntity
  8
DEFAULT_1
100
AcDbLine
 62
7
  6
CENTER
 10
4.6014839155
 20
5.6531005407
 11
4.6014839155
 21
4.9611005407
  0
LINE
  5
62C
100
AcDbEntity
  8
DEFAULT_1
100
AcDbLine
 62
7
  6
CENTER
 10
4.6014839155
 20
5.6531005407
 11
4.6014839155
 21
6.3451005407
  0
LWPOLYLINE
  5
62D
100
AcDbEntity
  8
0
100
AcDbPolyline
 62
9
  6
CONTINUOUS
 90
8
 70
0
 10
4.6014839155
 20
5.1211005407
 10
4.6510233421
 20
5.1086362072
 10
4.6952650864
 20
5.1009465801
 10
4.7337661831
 20
5.0972989233
 10
4.7669209986
 20
5.0969862596
 10
4.7955558165
 20
5.09950707
 10
4.8206379457
 20
5.1046644387
 10
4.8430804719
 20
5.1126423055
  0
LWPOLYLINE
  5
62E
100
AcDbEntity
  8
0
100
AcDbPolyline
 62
9
  6
CONTINUOUS
 90
8
 70
0
 10
4.6014839155
 20
5.1211005407
 10
4.6437583762
 20
5.0939833142
 10
4.6833194214
 20
5.0732812648
 10
4.7189751478
 20
5.0590410052
 10
4.7503806737
 20
5.0507868109
 10
4.7777722289
 20
5.0479573385
 10
4.8016679141
 20
5.0502463689
 10
4.8225948865
 20
5.0578661331
  0
LINE
  5
62F
100
AcDbEntity
  8
AXIS
100
AcDbLine
 62
7
  6
CONTINUOUS
 10
4.7179839155
 20
4.6281005407
 11
4.7179839155
 21
3.9930611706
  0
LINE
  5
630
100
AcDbEntity
  8
AXIS_COSMETIC_THREADS
100
AcDbLine
 62
7
  6
CONTINUOUS
 10
4.7179839155
 20
4.6281005407
 11
4.7179839155
 21
3.9930611706
  0
LWPOLYLINE
  5
631
100
AcDbEntity
  8
0
100
AcDbPolyline
 62
9
  6
CONTINUOUS
 90
6
 70
0
 10
4.8430804719
 20
5.1126423055
 10
4.8340380379
 20
5.1065245885
 10
4.8271133214
 20
5.0973335266
 10
4.8227436985
 20
5.0856496418
 10
4.8212051613
 20
5.0722109067
 10
4.8225948865
 20
5.0578661331
  0
LINE
  5
632
100
AcDbEntity
  8
0
100
AcDbLine
 62
7
  6
CONTINUOUS
 10
4.9238152038
 20
5.1565458704
 11
4.9234548017
 21
5.1563100777
  0
LWPOLYLINE
  5
633
100
AcDbEntity
  8
0
100
AcDbPolyline
 62
7
  6
CONTINUOUS
 90
17
 70
0
 10
4.6014839155
 20
5.2991005407
 10
4.649803982
 20
5.3032155871
 10
4.6994846117
 20
5.3146338558
 10
4.7461048063
 20
5.3326795961
 10
4.7887163021
 20
5.3565144695
 10
4.8276525243
 20
5.3860785104
 10
4.8631725898
 20
5.4220453501
 10
4.8943776483
 20
5.4647715419
 10
4.9190263605
 20
5.5123873593
 10
4.9358297158
 20
5.5623501064
 10
4.945065835
 20
5.6165290354
 10
4.9455537354
 20
5.6720420741
 10
4.9370190546
 20
5.7273351537
 10
4.9198393074
 20
5.7799968549
 10
4.8946536337
 20
5.8287938469
 10
4.8619567424
 20
5.8729503858
 10
4.8229481
 20
5.9109812942
  0
LWPOLYLINE
  5
634
100
AcDbEntity
  8
0
100
AcDbPolyline
 62
9
  6
CONTINUOUS
 90
6
 70
0
 10
4.8964839155
 20
5.1062193836
 10
4.8939982366
 20
5.1042892494
 10
4.885834851
 20
5.0981109828
 10
4.8712649623
 20
5.0876757186
 10
4.850079609
 20
5.0737830349
 10
4.8225948865
 20
5.0578661331
  0
LINE
  5
635
100
AcDbEntity
  8
AXIS_COSMETIC_THREADS
100
AcDbLine
 62
7
  6
CONTINUOUS
 10
4.8864839155
 20
5.7544970396
 11
4.8864839155
 21
5.5517040417
  0
LINE
  5
636
100
AcDbEntity
  8
0
100
AcDbLine
 62
7
  6
CONTINUOUS
 10
4.8914839155
 20
4.7281005407
 11
4.8914839155
 21
4.6781005407
  0
LINE
  5
637
100
AcDbEntity
  8
0
100
AcDbLine
 62
7
  6
CONTINUOUS
 10
4.8964839155
 20
4.7281005407
 11
4.8964839155
 21
5.1062193836
  0
LINE
  5
638
100
AcDbEntity
  8
0
100
AcDbLine
 62
7
  6
CONTINUOUS
 10
4.8914839155
 20
4.6781005407
 11
4.862616402
 21
4.6281005407
  0
LINE
  5
639
100
AcDbEntity
  8
DEFAULT_1
100
AcDbLine
 62
7
  6
CENTER
 10
4.6014839155
 20
5.6531005407
 11
3.9094839155
 21
5.6531005407
  0
LINE
  5
63A
100
AcDbEntity
  8
DEFAULT_1
100
AcDbLine
 62
7
  6
CENTER
 10
4.6014839155
 20
5.6531005407
 11
5.2934839155
 21
5.6531005407
  0
LINE
  5
63B
100
AcDbEntity
  8
0
100
AcDbLine
 62
7
  6
CONTINUOUS
 10
4.7786109289
 20
5.9421455564
 11
4.8190443022
 21
5.9123914639
  0
LWPOLYLINE
  5
63C
100
AcDbEntity
  8
0
100
AcDbPolyline
 62
7
  6
CONTINUOUS
 90
18
 70
0
 10
4.5223459371
 20
5.9827339437
 10
4.4877102194
 20
5.9730893504
 10
4.4531318825
 20
5.9593030864
 10
4.4174151731
 20
5.9400791627
 10
4.3800558023
 20
5.9133687353
 10
4.3427964554
 20
5.8777073065
 10
4.3094927096
 20
5.8340553819
 10
4.2828946119
 20
5.784097234
 10
4.2646424627
 20
5.7296662105
 10
4.2556758022
 20
5.6731936138
 10
4.2561284298
 20
5.6159550903
 10
4.2660329374
 20
5.5593528793
 10
4.2849849369
 20
5.5054299217
 10
4.3125317292
 20
5.4552415562
 10
4.3479788403
 20
5.4101158117
 10
4.3904659987
 20
5.3712405041
 10
4.4390973579
 20
5.3396098523
 10
4.4920918995
 20
5.3164265339
  0
LWPOLYLINE
  5
63D
100
AcDbEntity
  8
0
100
AcDbPolyline
 62
7
  6
CONTINUOUS
 90
6
 70
0
 10
4.7786109289
 20
5.9421455564
 10
4.7312870732
 20
5.9662652581
 10
4.680852211
 20
5.9826785643
 10
4.6284080014
 20
5.9910296658
 10
4.5750279795
 20
5.9910666387
 10
4.5223459371
 20
5.9827339437
  0
LINE
  5
63E
100
AcDbEntity
  8
0
100
AcDbLine
 62
7
  6
CONTINUOUS
 10
4.8229481
 20
5.9109812942
 11
4.7786109289
 21
5.9421455564
  0
LINE
  5
63F
100
AcDbEntity
  8
0
100
AcDbLine
 62
7
  6
CONTINUOUS
 10
4.5223459371
 20
5.9827339437
 11
4.5617911357
 21
5.9887518307
  0
LINE
  5
640
100
AcDbEntity
  8
AXIS
100
AcDbLine
 62
7
  6
CONTINUOUS
 10
8.987531214
 20
3.9930611706
 11
8.7545497484
 21
3.9930611706
  0
LINE
  5
641
100
AcDbEntity
  8
0
100
AcDbLine
 62
7
  6
CONTINUOUS
 10
8.0039364112
 20
6.0070532414
 11
7.9874318072
 21
5.9920511494
  0
LINE
  5
642
100
AcDbEntity
  8
0
100
AcDbLine
 62
7
  6
CONTINUOUS
 10
8.0040404818
 20
6.0071005407
 11
8.0039364112
 21
6.0070532414
  0
LINE
  5
643
100
AcDbEntity
  8
0
100
AcDbLine
 62
7
  6
CONTINUOUS
 10
8.0439364112
 20
6.0070532414
 11
8.0440404784
 21
6.0071005407
  0
LINE
  5
644
100
AcDbEntity
  8
0
100
AcDbLine
 62
7
  6
CONTINUOUS
 10
8.0439364112
 20
6.0070532414
 11
8.0274318072
 21
5.9920511494
  0
LINE
  5
645
100
AcDbEntity
  8
0
100
AcDbLine
 62
7
  6
CONTINUOUS
 10
8.0839364112
 20
6.0070532414
 11
8.0674318072
 21
5.9920511494
  0
LINE
  5
646
100
AcDbEntity
  8
0
100
AcDbLine
 62
7
  6
CONTINUOUS
 10
8.1239364112
 20
6.0070532414
 11
8.1074318072
 21
5.9920511494
  0
LINE
  5
647
100
AcDbEntity
  8
0
100
AcDbLine
 62
7
  6
CONTINUOUS
 10
8.1639364112
 20
6.0070532414
 11
8.1474318072
 21
5.9920511494
  0
LINE
  5
648
100
AcDbEntity
  8
0
100
AcDbLine
 62
7
  6
CONTINUOUS
 10
8.0839364112
 20
6.0070532414
 11
8.0840404812
 21
6.0071005407
  0
LINE
  5
649
100
AcDbEntity
  8
0
100
AcDbLine
 62
7
  6
CONTINUOUS
 10
8.1239364112
 20
6.0070532414
 11
8.1240404778
 21
6.0071005407
  0
LINE
  5
64A
100
AcDbEntity
  8
0
100
AcDbLine
 62
7
  6
CONTINUOUS
 10
8.1639364112
 20
6.0070532414
 11
8.1640404778
 21
6.0071005407
  0
LINE
  5
64B
100
AcDbEntity
  8
0
100
AcDbLine
 62
7
  6
CONTINUOUS
 10
8.2039364112
 20
6.0070532414
 11
8.2040404784
 21
6.0071005407
  0
LINE
  5
64C
100
AcDbEntity
  8
0
100
AcDbLine
 62
7
  6
CONTINUOUS
 10
8.2439364112
 20
6.0070532414
 11
8.2440404812
 21
6.0071005407
  0
LINE
  5
64D
100
AcDbEntity
  8
0
100
AcDbLine
 62
7
  6
CONTINUOUS
 10
8.2039364112
 20
6.0070532414
 11
8.1874318072
 21
5.9920511494
  0
LINE
  5
64E
100
AcDbEntity
  8
0
100
AcDbLine
 62
7
  6
CONTINUOUS
 10
8.2439364112
 20
6.0070532414
 11
8.2274318072
 21
5.9920511494
  0
LINE
  5
64F
100
AcDbEntity
  8
0
100
AcDbLine
 62
7
  6
CONTINUOUS
 10
8.2839364112
 20
6.0070532414
 11
8.2674318072
 21
5.9920511494
  0
LINE
  5
650
100
AcDbEntity
  8
0
100
AcDbLine
 62
7
  6
CONTINUOUS
 10
8.2839364112
 20
6.0070532414
 11
8.2840404778
 21
6.0071005407
  0
LINE
  5
651
100
AcDbEntity
  8
0
100
AcDbLine
 62
7
  6
CONTINUOUS
 10
8.3239364112
 20
6.0070532414
 11
8.3240404778
 21
6.0071005407
  0
LINE
  5
652
100
AcDbEntity
  8
0
100
AcDbLine
 62
7
  6
CONTINUOUS
 10
8.3639364112
 20
6.0070532414
 11
8.3640404784
 21
6.0071005407
  0
LINE
  5
653
100
AcDbEntity
  8
0
100
AcDbLine
 62
7
  6
CONTINUOUS
 10
8.4039364112
 20
6.0070532414
 11
8.4040404812
 21
6.0071005407
  0
LINE
  5
654
100
AcDbEntity
  8
0
100
AcDbLine
 62
7
  6
CONTINUOUS
 10
8.4439364112
 20
6.0070532414
 11
8.4440404778
 21
6.0071005407
  0
LINE
  5
655
100
AcDbEntity
  8
0
100
AcDbLine
 62
7
  6
CONTINUOUS
 10
8.4839364112
 20
6.0070532414
 11
8.4840404778
 21
6.0071005407
  0
LINE
  5
656
100
AcDbEntity
  8
0
100
AcDbLine
 62
7
  6
CONTINUOUS
 10
8.3239364112
 20
6.0070532414
 11
8.3074318072
 21
5.9920511494
  0
LINE
  5
657
100
AcDbEntity
  8
0
100
AcDbLine
 62
7
  6
CONTINUOUS
 10
8.3639364112
 20
6.0070532414
 11
8.3474318072
 21
5.9920511494
  0
LINE
  5
658
100
AcDbEntity
  8
0
100
AcDbLine
 62
7
  6
CONTINUOUS
 10
8.4039364112
 20
6.0070532414
 11
8.3874318072
 21
5.9920511494
  0
LINE
  5
659
100
AcDbEntity
  8
0
100
AcDbLine
 62
7
  6
CONTINUOUS
 10
8.5240404823
 20
6.0071005407
 11
8.5239364112
 21
6.0070532414
  0
LINE
  5
65A
100
AcDbEntity
  8
0
100
AcDbLine
 62
7
  6
CONTINUOUS
 10
8.4439364112
 20
6.0070532414
 11
8.4274318072
 21
5.9920511494
  0
LINE
  5
65B
100
AcDbEntity
  8
0
100
AcDbLine
 62
7
  6
CONTINUOUS
 10
8.4839364112
 20
6.0070532414
 11
8.4674318072
 21
5.9920511494
  0
LINE
  5
65C
100
AcDbEntity
  8
0
100
AcDbLine
 62
7
  6
CONTINUOUS
 10
8.5239364112
 20
6.0070532414
 11
8.5074318072
 21
5.9920511494
  0
LWPOLYLINE
  5
65D
100
AcDbEntity
  8
0
100
AcDbPolyline
 62
7
  6
CONTINUOUS
 90
9
 70
0
 10
8.0255127526
 20
5.3003161264
 10
8.0244552443
 20
5.3100188691
 10
8.0234107256
 20
5.3288760676
 10
8.0223571338
 20
5.3567173581
 10
8.0213047415
 20
5.3926127607
 10
8.0202634373
 20
5.4351242216
 10
8.0192172493
 20
5.4836929186
 10
8.0181555876
 20
5.5376393776
 10
8.0170917151
 20
5.5949107151
  0
LWPOLYLINE
  5
65E
100
AcDbEntity
  8
0
100
AcDbPolyline
 62
7
  6
CONTINUOUS
 90
17
 70
0
 10
7.9860404812
 20
5.9421455564
 10
7.987117946
 20
5.9081801726
 10
7.9881954108
 20
5.8669255066
 10
7.9892728756
 20
5.819560472
 10
7.9903503404
 20
5.7674385958
 10
7.9914278051
 20
5.7120493384
 10
7.9925052699
 20
5.654975531
 10
7.9935827347
 20
5.5978481428
 10
7.9946601995
 20
5.5422996747
 10
7.9957376643
 20
5.4899175071
 10
7.9968151291
 20
5.442198539
 10
7.9978925939
 20
5.4005064113
 10
7.9989700587
 20
5.366032539
 10
8.0000475234
 20
5.3397620645
 10
8.0011249882
 20
5.322445706
 10
8.002202453
 20
5.3145783044
 10
8.0025404812
 20
5.3141005407
  0
LWPOLYLINE
  5
65F
100
AcDbEntity
  8
0
100
AcDbPolyline
 62
7
  6
CONTINUOUS
 90
10
 70
0
 10
8.0150880658
 20
5.5951108894
 10
8.0161394841
 20
5.5384862325
 10
8.0171830188
 20
5.4853666835
 10
8.0182257697
 20
5.4367784097
 10
8.0192814422
 20
5.3934918164
 10
8.0203473469
 20
5.3570153037
 10
8.0214087889
 20
5.3289193147
 10
8.0224552233
 20
5.3100191573
 10
8.0235083161
 20
5.3003366387
 10
8.0239364112
 20
5.29914784
  0
LWPOLYLINE
  5
660
100
AcDbEntity
  8
0
100
AcDbPolyline
 62
7
  6
CONTINUOUS
 90
10
 70
0
 10
8.055046721
 20
5.7081356139
 10
8.0540535294
 20
5.7618022768
 10
8.0530557006
 20
5.8130586688
 10
8.052059908
 20
5.8603016114
 10
8.0510585512
 20
5.9027048287
 10
8.0500447745
 20
5.9393521677
 10
8.04903129
 20
5.9687485507
 10
8.0480308952
 20
5.9899388845
 10
8.0470354776
 20
6.0027856303
 10
8.0461445512
 20
6.0070532414
  0
LWPOLYLINE
  5
661
100
AcDbEntity
  8
0
100
AcDbPolyline
 62
7
  6
CONTINUOUS
 90
10
 70
0
 10
8.0150880658
 20
5.5951108894
 10
8.0129635501
 20
5.7126993721
 10
8.0118865751
 20
5.7705990632
 10
8.0108096068
 20
5.825143779
 10
8.0097326833
 20
5.8747746801
 10
8.0086557627
 20
5.9180771494
 10
8.0075788405
 20
5.9538151885
 10
8.0065019027
 20
5.9809688189
 10
8.0054249661
 20
5.9987622476
 10
8.0043479942
 20
6.0066876306
  0
LWPOLYLINE
  5
662
100
AcDbEntity
  8
0
100
AcDbPolyline
 62
7
  6
CONTINUOUS
 90
11
 70
0
 10
8.0529936295
 20
5.7110499897
 10
8.0550917151
 20
5.5949107151
 10
8.0561555876
 20
5.5376393776
 10
8.0572172493
 20
5.4836929186
 10
8.0582634373
 20
5.4351242216
 10
8.0593047415
 20
5.3926127607
 10
8.0603571338
 20
5.3567173581
 10
8.0614107256
 20
5.3288760676
 10
8.0624552443
 20
5.3100188691
 10
8.0635127526
 20
5.3003161264
 10
8.0639364112
 20
5.29914784
  0
LINE
  5
663
100
AcDbEntity
  8
0
100
AcDbLine
 62
7
  6
CONTINUOUS
 10
7.9860404812
 20
5.2991005407
 11
7.9860404812
 21
5.9920910035
  0
LINE
  5
664
100
AcDbEntity
  8
0
100
AcDbLine
 62
7
  6
CONTINUOUS
 10
7.9861445512
 20
5.29914784
 11
8.0026491552
 21
5.3141499319
  0
LINE
  5
665
100
AcDbEntity
  8
0
100
AcDbLine
 62
7
  6
CONTINUOUS
 10
8.0064154812
 20
5.3193799341
 11
8.0074318072
 21
5.3141499319
  0
LWPOLYLINE
  5
666
100
AcDbEntity
  8
0
100
AcDbPolyline
 62
7
  6
CONTINUOUS
 90
9
 70
0
 10
8.0445781398
 20
6.0058388058
 10
8.0456324751
 20
5.9960894219
 10
8.0466749755
 20
5.9772191439
 10
8.0477318474
 20
5.949239656
 10
8.0487932293
 20
5.912946956
 10
8.0498445828
 20
5.8698893802
 10
8.0508837775
 20
5.8215276677
 10
8.0519365388
 20
5.7679746852
 10
8.0529936295
 20
5.7110499897
  0
LWPOLYLINE
  5
667
100
AcDbEntity
  8
0
100
AcDbPolyline
 62
7
  6
CONTINUOUS
 90
10
 70
0
 10
8.0655032548
 20
5.300360249
 10
8.0644459595
 20
5.3101464705
 10
8.0634040091
 20
5.3290261752
 10
8.06236241
 20
5.3565570264
 10
8.0613120861
 20
5.3923363833
 10
8.0602635247
 20
5.4351203938
 10
8.0592169754
 20
5.48370629
 10
8.0581554022
 20
5.5376491245
 10
8.057091623
 20
5.5949157664
 10
8.055046721
 20
5.7081356139
  0
LWPOLYLINE
  5
668
100
AcDbEntity
  8
0
100
AcDbPolyline
 62
7
  6
CONTINUOUS
 90
18
 70
0
 10
7.988185218
 20
5.9903635271
 10
7.9892575865
 20
5.9798439754
 10
7.9903299549
 20
5.9600751525
 10
7.9914023233
 20
5.9316166634
 10
7.9924746917
 20
5.8952740951
 10
7.9935470601
 20
5.8520762128
 10
7.9946194286
 20
5.803245838
 10
7.995691797
 20
5.7501652338
 10
7.9967641654
 20
5.6943369764
 10
7.9978365338
 20
5.6373414209
 10
7.9989089022
 20
5.5807919658
 10
7.9999812707
 20
5.5262893816
 10
8.0010536391
 20
5.475376497
 10
8.0021260075
 20
5.4294945255
 10
8.0031983759
 20
5.3899422686
 10
8.0042707444
 20
5.3578393493
 10
8.0053431128
 20
5.3340945194
 10
8.0064154812
 20
5.3193799341
  0
LWPOLYLINE
  5
669
100
AcDbEntity
  8
0
100
AcDbPolyline
 62
7
  6
CONTINUOUS
 90
10
 70
0
 10
8.1350841636
 20
5.5953249534
 10
8.136140429
 20
5.5384365183
 10
8.1371987122
 20
5.4845987199
 10
8.1382461702
 20
5.435881568
 10
8.1393022604
 20
5.3927062065
 10
8.1403683677
 20
5.3563762259
 10
8.1414297195
 20
5.3284535269
 10
8.1424748597
 20
5.3097516935
 10
8.1435183288
 20
5.3002905876
 10
8.1439364112
 20
5.29914784
  0
LWPOLYLINE
  5
66A
100
AcDbEntity
  8
0
100
AcDbPolyline
 62
7
  6
CONTINUOUS
 90
11
 70
0
 10
8.093046721
 20
5.7081356139
 10
8.095091623
 20
5.5949157664
 10
8.0961554022
 20
5.5376491245
 10
8.0972169754
 20
5.48370629
 10
8.0982635247
 20
5.4351203938
 10
8.0993120861
 20
5.3923363833
 10
8.10036241
 20
5.3565570264
 10
8.1014040091
 20
5.3290261752
 10
8.1024459595
 20
5.3101464705
 10
8.1035032548
 20
5.300360249
 10
8.1039364112
 20
5.29914784
  0
LWPOLYLINE
  5
66B
100
AcDbEntity
  8
0
100
AcDbPolyline
 62
7
  6
CONTINUOUS
 90
11
 70
0
 10
8.0970841636
 20
5.5953249534
 10
8.0949922756
 20
5.7111242577
 10
8.0939315093
 20
5.7682391857
 10
8.0928729351
 20
5.8220577148
 10
8.0918289908
 20
5.8705741453
 10
8.090777836
 20
5.913527497
 10
8.0897172983
 20
5.9496821347
 10
8.0886619547
 20
5.9775096129
 10
8.0876204909
 20
5.996253728
 10
8.0865659709
 20
6.0058952414
 10
8.0861445512
 20
6.0070532414
  0
LWPOLYLINE
  5
66C
100
AcDbEntity
  8
0
100
AcDbPolyline
 62
7
  6
CONTINUOUS
 90
11
 70
0
 10
8.1370880658
 20
5.5951108894
 10
8.1349879047
 20
5.7113640022
 10
8.1339227229
 20
5.7687010894
 10
8.1328598668
 20
5.8226959279
 10
8.131812327
 20
5.8713045368
 10
8.1307675745
 20
5.9139136512
 10
8.1297244001
 20
5.9494663442
 10
8.1286767405
 20
5.9771796675
 10
8.1276321226
 20
5.996094272
 10
8.1265733685
 20
6.0058610874
 10
8.1261445512
 20
6.0070532414
  0
LINE
  5
66D
100
AcDbEntity
  8
0
100
AcDbLine
 62
7
  6
CONTINUOUS
 10
8.0261445512
 20
5.29914784
 11
8.0426491552
 21
5.3141499319
  0
LINE
  5
66E
100
AcDbEntity
  8
0
100
AcDbLine
 62
7
  6
CONTINUOUS
 10
8.0661445512
 20
5.29914784
 11
8.0826491552
 21
5.3141499319
  0
LINE
  5
66F
100
AcDbEntity
  8
0
100
AcDbLine
 62
7
  6
CONTINUOUS
 10
8.1061445512
 20
5.29914784
 11
8.1226491552
 21
5.3141499319
  0
LINE
  5
670
100
AcDbEntity
  8
0
100
AcDbLine
 62
7
  6
CONTINUOUS
 10
8.1461445512
 20
5.29914784
 11
8.1626491552
 21
5.3141499319
  0
LINE
  5
671
100
AcDbEntity
  8
0
100
AcDbLine
 62
7
  6
CONTINUOUS
 10
8.6099110544
 20
4.6281005407
 11
9.132169908
 21
4.6281005407
  0
LINE
  5
672
100
AcDbEntity
  8
0
100
AcDbLine
 62
7
  6
CONTINUOUS
 10
8.5810404812
 20
4.6781005407
 11
9.1610404812
 21
4.6781005407
  0
LINE
  5
673
100
AcDbEntity
  8
0
100
AcDbLine
 62
7
  6
CONTINUOUS
 10
8.0260404772
 20
5.2991005407
 11
8.0255127526
 21
5.3003161264
  0
LWPOLYLINE
  5
674
100
AcDbEntity
  8
0
100
AcDbPolyline
 62
7
  6
CONTINUOUS
 90
3
 70
0
 10
8.0460931128
 20
5.3228241488
 10
8.0471654812
 20
5.3146884988
 10
8.0474318072
 20
5.3141499319
  0
LWPOLYLINE
  5
675
100
AcDbEntity
  8
0
100
AcDbPolyline
 62
7
  6
CONTINUOUS
 90
9
 70
0
 10
8.1055183288
 20
5.3002905876
 10
8.1044748597
 20
5.3097516935
 10
8.1034297195
 20
5.3284535269
 10
8.1023683677
 20
5.3563762259
 10
8.1013022604
 20
5.3927062065
 10
8.1002461702
 20
5.435881568
 10
8.0991987122
 20
5.4845987199
 10
8.098140429
 20
5.5384365183
 10
8.0970841636
 20
5.5953249534
  0
LWPOLYLINE
  5
676
100
AcDbEntity
  8
0
100
AcDbPolyline
 62
7
  6
CONTINUOUS
 90
10
 70
0
 10
8.1245659709
 20
6.0058952414
 10
8.1256204909
 20
5.996253728
 10
8.1266619547
 20
5.9775096129
 10
8.1277172983
 20
5.9496821347
 10
8.128777836
 20
5.913527497
 10
8.1298289908
 20
5.8705741453
 10
8.1308729351
 20
5.8220577148
 10
8.1319315093
 20
5.7682391857
 10
8.1329922756
 20
5.7111242577
 10
8.1350841636
 20
5.5953249534
  0
LWPOLYLINE
  5
677
100
AcDbEntity
  8
0
100
AcDbPolyline
 62
7
  6
CONTINUOUS
 90
10
 70
0
 10
8.1855127526
 20
5.3003161264
 10
8.1844552443
 20
5.3100188691
 10
8.1834107256
 20
5.3288760676
 10
8.1823571338
 20
5.3567173581
 10
8.1813047415
 20
5.3926127607
 10
8.1802634373
 20
5.4351242216
 10
8.1792172493
 20
5.4836929186
 10
8.1781555876
 20
5.5376393776
 10
8.1770917151
 20
5.5949107151
 10
8.1749936295
 20
5.7110499897
  0
LWPOLYLINE
  5
678
100
AcDbEntity
  8
0
100
AcDbPolyline
 62
7
  6
CONTINUOUS
 90
9
 70
0
 10
8.1455083161
 20
5.3003366387
 10
8.1444552233
 20
5.3100191573
 10
8.1434087889
 20
5.3289193147
 10
8.1423473469
 20
5.3570153037
 10
8.1412814422
 20
5.3934918164
 10
8.1402257697
 20
5.4367784097
 10
8.1391830188
 20
5.4853666835
 10
8.1381394841
 20
5.5384862325
 10
8.1370880658
 20
5.5951108894
  0
LWPOLYLINE
  5
679
100
AcDbEntity
  8
0
100
AcDbPolyline
 62
7
  6
CONTINUOUS
 90
9
 70
0
 10
8.0850354776
 20
6.0027856303
 10
8.0860308952
 20
5.9899388845
 10
8.08703129
 20
5.9687485507
 10
8.0880447745
 20
5.9393521677
 10
8.0890585512
 20
5.9027048287
 10
8.090059908
 20
5.8603016114
 10
8.0910557006
 20
5.8130586688
 10
8.0920535294
 20
5.7618022768
 10
8.093046721
 20
5.7081356139
  0
LWPOLYLINE
  5
67A
100
AcDbEntity
  8
0
100
AcDbPolyline
 62
7
  6
CONTINUOUS
 90
10
 70
0
 10
8.1750880658
 20
5.5951108894
 10
8.1761394841
 20
5.5384862325
 10
8.1771830188
 20
5.4853666835
 10
8.1782257697
 20
5.4367784097
 10
8.1792814422
 20
5.3934918164
 10
8.1803473469
 20
5.3570153037
 10
8.1814087889
 20
5.3289193147
 10
8.1824552233
 20
5.3100191573
 10
8.1835083161
 20
5.3003366387
 10
8.1839364112
 20
5.29914784
  0
LWPOLYLINE
  5
67B
100
AcDbEntity
  8
0
100
AcDbPolyline
 62
7
  6
CONTINUOUS
 90
10
 70
0
 10
8.1749936295
 20
5.7110499897
 10
8.1739365388
 20
5.7679746852
 10
8.1728837775
 20
5.8215276677
 10
8.1718445828
 20
5.8698893802
 10
8.1707932293
 20
5.912946956
 10
8.1697318474
 20
5.949239656
 10
8.1686749755
 20
5.9772191439
 10
8.1676324751
 20
5.9960894219
 10
8.1665781398
 20
6.0058388058
 10
8.1661445512
 20
6.0070532414
  0
LWPOLYLINE
  5
67C
100
AcDbEntity
  8
0
100
AcDbPolyline
 62
7
  6
CONTINUOUS
 90
10
 70
0
 10
8.215046721
 20
5.7081356139
 10
8.2140535294
 20
5.7618022768
 10
8.2130557006
 20
5.8130586688
 10
8.212059908
 20
5.8603016114
 10
8.2110585512
 20
5.9027048287
 10
8.2100447745
 20
5.9393521677
 10
8.20903129
 20
5.9687485507
 10
8.2080308952
 20
5.9899388845
 10
8.2070354776
 20
6.0027856303
 10
8.2061445512
 20
6.0070532414
  0
LWPOLYLINE
  5
67D
100
AcDbEntity
  8
0
100
AcDbPolyline
 62
7
  6
CONTINUOUS
 90
11
 70
0
 10
8.2129936295
 20
5.7110499897
 10
8.2150917151
 20
5.5949107151
 10
8.2161555876
 20
5.5376393776
 10
8.2172172493
 20
5.4836929186
 10
8.2182634373
 20
5.4351242216
 10
8.2193047415
 20
5.3926127607
 10
8.2203571338
 20
5.3567173581
 10
8.2214107256
 20
5.3288760676
 10
8.2224552443
 20
5.3100188691
 10
8.2235127526
 20
5.3003161264
 10
8.2239364112
 20
5.29914784
  0
LINE
  5
67E
100
AcDbEntity
  8
0
100
AcDbLine
 62
7
  6
CONTINUOUS
 10
8.1861445512
 20
5.29914784
 11
8.2026491552
 21
5.3141499319
  0
LINE
  5
67F
100
AcDbEntity
  8
0
100
AcDbLine
 62
7
  6
CONTINUOUS
 10
8.2261445512
 20
5.29914784
 11
8.2426491552
 21
5.3141499319
  0
LINE
  5
680
100
AcDbEntity
  8
0
100
AcDbLine
 62
7
  6
CONTINUOUS
 10
8.2661445512
 20
5.29914784
 11
8.2826491552
 21
5.3141499319
  0
LINE
  5
681
100
AcDbEntity
  8
0
100
AcDbLine
 62
7
  6
CONTINUOUS
 10
8.1461445512
 20
5.29914784
 11
8.1460410811
 21
5.2991005422
  0
LINE
  5
682
100
AcDbEntity
  8
0
100
AcDbLine
 62
7
  6
CONTINUOUS
 10
7.9860404812
 20
5.2991005407
 11
7.9861445512
 21
5.29914784
  0
LINE
  5
683
100
AcDbEntity
  8
0
100
AcDbLine
 62
7
  6
CONTINUOUS
 10
8.0261445512
 20
5.29914784
 11
8.0260404772
 21
5.2991005407
  0
LINE
  5
684
100
AcDbEntity
  8
0
100
AcDbLine
 62
7
  6
CONTINUOUS
 10
8.0661445512
 20
5.29914784
 11
8.0660404785
 21
5.2991005407
  0
LINE
  5
685
100
AcDbEntity
  8
0
100
AcDbLine
 62
7
  6
CONTINUOUS
 10
8.1061445512
 20
5.29914784
 11
8.1060398764
 21
5.2991005423
  0
LINE
  5
686
100
AcDbEntity
  8
0
100
AcDbLine
 62
7
  6
CONTINUOUS
 10
8.5760404812
 20
4.7281005407
 11
9.1660404812
 21
4.7281005407
  0
LINE
  5
687
100
AcDbEntity
  8
0
100
AcDbLine
 62
7
  6
CONTINUOUS
 10
8.1060398764
 20
5.2991005423
 11
8.1055183288
 21
5.3002905876
  0
LINE
  5
688
100
AcDbEntity
  8
0
100
AcDbLine
 62
7
  6
CONTINUOUS
 10
8.0660404785
 20
5.2991005407
 11
8.0655032548
 21
5.300360249
  0
LINE
  5
689
100
AcDbEntity
  8
0
100
AcDbLine
 62
7
  6
CONTINUOUS
 10
8.0869999407
 20
5.3153217921
 11
8.0874318072
 21
5.3141499319
  0
LINE
  5
68A
100
AcDbEntity
  8
0
100
AcDbLine
 62
7
  6
CONTINUOUS
 10
8.1269999407
 20
5.3153217921
 11
8.1274318072
 21
5.3141499319
  0
LWPOLYLINE
  5
68B
100
AcDbEntity
  8
0
100
AcDbPolyline
 62
7
  6
CONTINUOUS
 90
20
 70
0
 10
8.0226491552
 20
5.9920511494
 10
8.0237517488
 20
5.9859829684
 10
8.0248292136
 20
5.9704276552
 10
8.0259066784
 20
5.9458042447
 10
8.0269841432
 20
5.9128163877
 10
8.028061608
 20
5.8724067617
 10
8.0291390727
 20
5.825730132
 10
8.0302165375
 20
5.7741203534
 10
8.0312940023
 20
5.7190522525
 10
8.0323714671
 20
5.6620994827
 10
8.0334489319
 20
5.6048895546
 10
8.0345263967
 20
5.5490573277
 10
8.0356038615
 20
5.4961982913
 10
8.0366813263
 20
5.4478229715
 10
8.0377587911
 20
5.4053137656
 10
8.0388362558
 20
5.3698854377
 10
8.0399137206
 20
5.3425504053
 10
8.0409911854
 20
5.3240898079
 10
8.0420686502
 20
5.3150311846
 10
8.0425404812
 20
5.3141005407
  0
LWPOLYLINE
  5
68C
100
AcDbEntity
  8
0
100
AcDbPolyline
 62
7
  6
CONTINUOUS
 90
10
 70
0
 10
8.1645733685
 20
6.0058610874
 10
8.1656321226
 20
5.996094272
 10
8.1666767405
 20
5.9771796675
 10
8.1677244001
 20
5.9494663442
 10
8.1687675745
 20
5.9139136512
 10
8.169812327
 20
5.8713045368
 10
8.1708598668
 20
5.8226959279
 10
8.1719227229
 20
5.7687010894
 10
8.1729879047
 20
5.7113640022
 10
8.1750880658
 20
5.5951108894
  0
LWPOLYLINE
  5
68D
100
AcDbEntity
  8
0
100
AcDbPolyline
 62
7
  6
CONTINUOUS
 90
9
 70
0
 10
8.2045781398
 20
6.0058388058
 10
8.2056324751
 20
5.9960894219
 10
8.2066749755
 20
5.9772191439
 10
8.2077318474
 20
5.949239656
 10
8.2087932293
 20
5.912946956
 10
8.2098445828
 20
5.8698893802
 10
8.2108837775
 20
5.8215276677
 10
8.2119365388
 20
5.7679746852
 10
8.2129936295
 20
5.7110499897
  0
LWPOLYLINE
  5
68E
100
AcDbEntity
  8
0
100
AcDbPolyline
 62
7
  6
CONTINUOUS
 90
10
 70
0
 10
8.2255032548
 20
5.300360249
 10
8.2244459595
 20
5.3101464705
 10
8.2234040091
 20
5.3290261752
 10
8.22236241
 20
5.3565570264
 10
8.2213120861
 20
5.3923363833
 10
8.2202635247
 20
5.4351203938
 10
8.2192169754
 20
5.48370629
 10
8.2181554022
 20
5.5376491245
 10
8.217091623
 20
5.5949157664
 10
8.215046721
 20
5.7081356139
  0
LWPOLYLINE
  5
68F
100
AcDbEntity
  8
0
100
AcDbPolyline
 62
7
  6
CONTINUOUS
 90
9
 70
0
 10
8.2450354776
 20
6.0027856303
 10
8.2460308952
 20
5.9899388845
 10
8.24703129
 20
5.9687485507
 10
8.2480447745
 20
5.9393521677
 10
8.2490585512
 20
5.9027048287
 10
8.250059908
 20
5.8603016114
 10
8.2510557006
 20
5.8130586688
 10
8.2520535294
 20
5.7618022768
 10
8.253046721
 20
5.7081356139
  0
LWPOLYLINE
  5
690
100
AcDbEntity
  8
0
100
AcDbPolyline
 62
7
  6
CONTINUOUS
 90
10
 70
0
 10
8.2950841636
 20
5.5953249534
 10
8.296140429
 20
5.5384365183
 10
8.2971987122
 20
5.4845987199
 10
8.2982461702
 20
5.435881568
 10
8.2993022604
 20
5.3927062065
 10
8.3003683677
 20
5.3563762259
 10
8.3014297195
 20
5.3284535269
 10
8.3024748597
 20
5.3097516935
 10
8.3035183288
 20
5.3002905876
 10
8.3039364112
 20
5.29914784
  0
LWPOLYLINE
  5
691
100
AcDbEntity
  8
0
100
AcDbPolyline
 62
7
  6
CONTINUOUS
 90
11
 70
0
 10
8.253046721
 20
5.7081356139
 10
8.255091623
 20
5.5949157664
 10
8.2561554022
 20
5.5376491245
 10
8.2572169754
 20
5.48370629
 10
8.2582635247
 20
5.4351203938
 10
8.2593120861
 20
5.3923363833
 10
8.26036241
 20
5.3565570264
 10
8.2614040091
 20
5.3290261752
 10
8.2624459595
 20
5.3101464705
 10
8.2635032548
 20
5.300360249
 10
8.2639364112
 20
5.29914784
  0
LWPOLYLINE
  5
692
100
AcDbEntity
  8
0
100
AcDbPolyline
 62
7
  6
CONTINUOUS
 90
11
 70
0
 10
8.2570841636
 20
5.5953249534
 10
8.2549922756
 20
5.7111242577
 10
8.2539315093
 20
5.7682391857
 10
8.2528729351
 20
5.8220577148
 10
8.2518289908
 20
5.8705741453
 10
8.250777836
 20
5.913527497
 10
8.2497172983
 20
5.9496821347
 10
8.2486619547
 20
5.9775096129
 10
8.2476204909
 20
5.996253728
 10
8.2465659709
 20
6.0058952414
 10
8.2461445512
 20
6.0070532414
  0
LWPOLYLINE
  5
693
100
AcDbEntity
  8
0
100
AcDbPolyline
 62
7
  6
CONTINUOUS
 90
11
 70
0
 10
8.2970880658
 20
5.5951108894
 10
8.2949879047
 20
5.7113640022
 10
8.2939227229
 20
5.7687010894
 10
8.2928598668
 20
5.8226959279
 10
8.291812327
 20
5.8713045368
 10
8.2907675745
 20
5.9139136512
 10
8.2897244001
 20
5.9494663442
 10
8.2886767405
 20
5.9771796675
 10
8.2876321226
 20
5.996094272
 10
8.2865733685
 20
6.0058610874
 10
8.2861445512
 20
6.0070532414
  0
LINE
  5
694
100
AcDbEntity
  8
0
100
AcDbLine
 62
7
  6
CONTINUOUS
 10
8.3061445512
 20
5.29914784
 11
8.3226491552
 21
5.3141499319
  0
LINE
  5
695
100
AcDbEntity
  8
0
100
AcDbLine
 62
7
  6
CONTINUOUS
 10
8.3461445512
 20
5.29914784
 11
8.3626491552
 21
5.3141499319
  0
LINE
  5
696
100
AcDbEntity
  8
0
100
AcDbLine
 62
7
  6
CONTINUOUS
 10
8.3861445512
 20
5.29914784
 11
8.4026491552
 21
5.3141499319
  0
LINE
  5
697
100
AcDbEntity
  8
0
100
AcDbLine
 62
7
  6
CONTINUOUS
 10
8.3061445512
 20
5.29914784
 11
8.3060410811
 21
5.2991005422
  0
LINE
  5
698
100
AcDbEntity
  8
0
100
AcDbLine
 62
7
  6
CONTINUOUS
 10
8.1861445512
 20
5.29914784
 11
8.1860404772
 21
5.2991005407
  0
LINE
  5
699
100
AcDbEntity
  8
0
100
AcDbLine
 62
7
  6
CONTINUOUS
 10
8.2261445512
 20
5.29914784
 11
8.2260404785
 21
5.2991005407
  0
LINE
  5
69A
100
AcDbEntity
  8
0
100
AcDbLine
 62
7
  6
CONTINUOUS
 10
8.3461445512
 20
5.29914784
 11
8.3460404772
 21
5.2991005407
  0
LINE
  5
69B
100
AcDbEntity
  8
0
100
AcDbLine
 62
7
  6
CONTINUOUS
 10
8.2661445512
 20
5.29914784
 11
8.2660398764
 21
5.2991005423
  0
LINE
  5
69C
100
AcDbEntity
  8
0
100
AcDbLine
 62
7
  6
CONTINUOUS
 10
8.1860404772
 20
5.2991005407
 11
8.1855127526
 21
5.3003161264
  0
LINE
  5
69D
100
AcDbEntity
  8
0
100
AcDbLine
 62
7
  6
CONTINUOUS
 10
8.1460410811
 20
5.2991005422
 11
8.1455083161
 21
5.3003366387
  0
LINE
  5
69E
100
AcDbEntity
  8
0
100
AcDbLine
 62
7
  6
CONTINUOUS
 10
8.1669999407
 20
5.3153217921
 11
8.1674318072
 21
5.3141499319
  0
LINE
  5
69F
100
AcDbEntity
  8
0
100
AcDbLine
 62
7
  6
CONTINUOUS
 10
8.2069999407
 20
5.3153217921
 11
8.2074318072
 21
5.3141499319
  0
LINE
  5
6A0
100
AcDbEntity
  8
0
100
AcDbLine
 62
7
  6
CONTINUOUS
 10
8.0840404812
 20
6.0071005407
 11
8.0850354776
 21
6.0027856303
  0
LWPOLYLINE
  5
6A1
100
AcDbEntity
  8
0
100
AcDbPolyline
 62
7
  6
CONTINUOUS
 90
19
 70
0
 10
8.0675404812
 20
5.9921005407
 10
8.0686215623
 20
5.9872243343
 10
8.0697026434
 20
5.9727359947
 10
8.0707837244
 20
5.949052325
 10
8.0718648055
 20
5.9168546614
 10
8.0729458866
 20
5.8770692719
 10
8.0740269677
 20
5.8308407098
 10
8.0751080488
 20
5.7794988866
 10
8.0761891298
 20
5.7245208132
 10
8.0772702109
 20
5.6674881086
 10
8.078351292
 20
5.6100414998
 10
8.0794323731
 20
5.5538336212
 10
8.0805134542
 20
5.5004814712
 10
8.0815945353
 20
5.4515198939
 10
8.0826756163
 20
5.4083574248
 10
8.0837566974
 20
5.3722357696
 10
8.0848377785
 20
5.3441940824
 10
8.0859188596
 20
5.3250390717
 10
8.0869999407
 20
5.3153217921
  0
LWPOLYLINE
  5
6A2
100
AcDbEntity
  8
0
100
AcDbPolyline
 62
7
  6
CONTINUOUS
 90
19
 70
0
 10
8.1075404812
 20
5.9921005407
 10
8.1086215623
 20
5.9872243343
 10
8.1097026434
 20
5.9727359947
 10
8.1107837244
 20
5.949052325
 10
8.1118648055
 20
5.9168546614
 10
8.1129458866
 20
5.8770692719
 10
8.1140269677
 20
5.8308407098
 10
8.1151080488
 20
5.7794988866
 10
8.1161891298
 20
5.7245208132
 10
8.1172702109
 20
5.6674881086
 10
8.118351292
 20
5.6100414998
 10
8.1194323731
 20
5.5538336212
 10
8.1205134542
 20
5.5004814712
 10
8.1215945353
 20
5.4515198939
 10
8.1226756163
 20
5.4083574248
 10
8.1237566974
 20
5.3722357696
 10
8.1248377785
 20
5.3441940824
 10
8.1259188596
 20
5.3250390717
 10
8.1269999407
 20
5.3153217921
  0
LWPOLYLINE
  5
6A3
100
AcDbEntity
  8
0
100
AcDbPolyline
 62
7
  6
CONTINUOUS
 90
20
 70
0
 10
8.0626491552
 20
5.9920511494
 10
8.0636215623
 20
5.9872243343
 10
8.0647026434
 20
5.9727359947
 10
8.0657837244
 20
5.949052325
 10
8.0668648055
 20
5.9168546614
 10
8.0679458866
 20
5.8770692719
 10
8.0690269677
 20
5.8308407098
 10
8.0701080488
 20
5.7794988866
 10
8.0711891298
 20
5.7245208132
 10
8.0722702109
 20
5.6674881086
 10
8.073351292
 20
5.6100414998
 10
8.0744323731
 20
5.5538336212
 10
8.0755134542
 20
5.5004814712
 10
8.0765945353
 20
5.4515198939
 10
8.0776756163
 20
5.4083574248
 10
8.0787566974
 20
5.3722357696
 10
8.0798377785
 20
5.3441940824
 10
8.0809188596
 20
5.3250390717
 10
8.0819999407
 20
5.3153217921
 10
8.0825404812
 20
5.3141005407
  0
LWPOLYLINE
  5
6A4
100
AcDbEntity
  8
0
100
AcDbPolyline
 62
7
  6
CONTINUOUS
 90
20
 70
0
 10
8.1026491552
 20
5.9920511494
 10
8.1036215623
 20
5.9872243343
 10
8.1047026434
 20
5.9727359947
 10
8.1057837244
 20
5.949052325
 10
8.1068648055
 20
5.9168546614
 10
8.1079458866
 20
5.8770692719
 10
8.1090269677
 20
5.8308407098
 10
8.1101080488
 20
5.7794988866
 10
8.1111891298
 20
5.7245208132
 10
8.1122702109
 20
5.6674881086
 10
8.113351292
 20
5.6100414998
 10
8.1144323731
 20
5.5538336212
 10
8.1155134542
 20
5.5004814712
 10
8.1165945353
 20
5.4515198939
 10
8.1176756163
 20
5.4083574248
 10
8.1187566974
 20
5.3722357696
 10
8.1198377785
 20
5.3441940824
 10
8.1209188596
 20
5.3250390717
 10
8.1219999407
 20
5.3153217921
 10
8.1225404812
 20
5.3141005407
  0
LWPOLYLINE
  5
6A5
100
AcDbEntity
  8
0
100
AcDbPolyline
 62
7
  6
CONTINUOUS
 90
9
 70
0
 10
8.2655183288
 20
5.3002905876
 10
8.2644748597
 20
5.3097516935
 10
8.2634297195
 20
5.3284535269
 10
8.2623683677
 20
5.3563762259
 10
8.2613022604
 20
5.3927062065
 10
8.2602461702
 20
5.435881568
 10
8.2591987122
 20
5.4845987199
 10
8.258140429
 20
5.5384365183
 10
8.2570841636
 20
5.5953249534
  0
LWPOLYLINE
  5
6A6
100
AcDbEntity
  8
0
100
AcDbPolyline
 62
7
  6
CONTINUOUS
 90
10
 70
0
 10
8.2845659709
 20
6.0058952414
 10
8.2856204909
 20
5.996253728
 10
8.2866619547
 20
5.9775096129
 10
8.2877172983
 20
5.9496821347
 10
8.288777836
 20
5.913527497
 10
8.2898289908
 20
5.8705741453
 10
8.2908729351
 20
5.8220577148
 10
8.2919315093
 20
5.7682391857
 10
8.2929922756
 20
5.7111242577
 10
8.2950841636
 20
5.5953249534
  0
LWPOLYLINE
  5
6A7
100
AcDbEntity
  8
0
100
AcDbPolyline
 62
7
  6
CONTINUOUS
 90
10
 70
0
 10
8.3455127526
 20
5.3003161264
 10
8.3444552443
 20
5.3100188691
 10
8.3434107256
 20
5.3288760676
 10
8.3423571338
 20
5.3567173581
 10
8.3413047415
 20
5.3926127607
 10
8.3402634373
 20
5.4351242216
 10
8.3392172493
 20
5.4836929186
 10
8.3381555876
 20
5.5376393776
 10
8.3370917151
 20
5.5949107151
 10
8.3349936295
 20
5.7110499897
  0
LWPOLYLINE
  5
6A8
100
AcDbEntity
  8
0
100
AcDbPolyline
 62
7
  6
CONTINUOUS
 90
9
 70
0
 10
8.3055083161
 20
5.3003366387
 10
8.3044552233
 20
5.3100191573
 10
8.3034087889
 20
5.3289193147
 10
8.3023473469
 20
5.3570153037
 10
8.3012814422
 20
5.3934918164
 10
8.3002257697
 20
5.4367784097
 10
8.2991830188
 20
5.4853666835
 10
8.2981394841
 20
5.5384862325
 10
8.2970880658
 20
5.5951108894
  0
LWPOLYLINE
  5
6A9
100
AcDbEntity
  8
0
100
AcDbPolyline
 62
7
  6
CONTINUOUS
 90
10
 70
0
 10
8.3855032548
 20
5.300360249
 10
8.3844459595
 20
5.3101464705
 10
8.3834040091
 20
5.3290261752
 10
8.38236241
 20
5.3565570264
 10
8.3813120861
 20
5.3923363833
 10
8.3802635247
 20
5.4351203938
 10
8.3792169754
 20
5.48370629
 10
8.3781554022
 20
5.5376491245
 10
8.377091623
 20
5.5949157664
 10
8.375046721
 20
5.7081356139
  0
LWPOLYLINE
  5
6AA
100
AcDbEntity
  8
0
100
AcDbPolyline
 62
7
  6
CONTINUOUS
 90
10
 70
0
 10
8.3350880658
 20
5.5951108894
 10
8.3361394841
 20
5.5384862325
 10
8.3371830188
 20
5.4853666835
 10
8.3382257697
 20
5.4367784097
 10
8.3392814422
 20
5.3934918164
 10
8.3403473469
 20
5.3570153037
 10
8.3414087889
 20
5.3289193147
 10
8.3424552233
 20
5.3100191573
 10
8.3435083161
 20
5.3003366387
 10
8.3439364112
 20
5.29914784
  0
LWPOLYLINE
  5
6AB
100
AcDbEntity
  8
0
100
AcDbPolyline
 62
7
  6
CONTINUOUS
 90
10
 70
0
 10
8.3349936295
 20
5.7110499897
 10
8.3339365388
 20
5.7679746852
 10
8.3328837775
 20
5.8215276677
 10
8.3318445828
 20
5.8698893802
 10
8.3307932293
 20
5.912946956
 10
8.3297318474
 20
5.949239656
 10
8.3286749755
 20
5.9772191439
 10
8.3276324751
 20
5.9960894219
 10
8.3265781398
 20
6.0058388058
 10
8.3261445512
 20
6.0070532414
  0
LWPOLYLINE
  5
6AC
100
AcDbEntity
  8
0
100
AcDbPolyline
 62
7
  6
CONTINUOUS
 90
10
 70
0
 10
8.375046721
 20
5.7081356139
 10
8.3740535294
 20
5.7618022768
 10
8.3730557006
 20
5.8130586688
 10
8.372059908
 20
5.8603016114
 10
8.3710585512
 20
5.9027048287
 10
8.3700447745
 20
5.9393521677
 10
8.36903129
 20
5.9687485507
 10
8.3680308952
 20
5.9899388845
 10
8.3670354776
 20
6.0027856303
 10
8.3661445512
 20
6.0070532414
  0
LWPOLYLINE
  5
6AD
100
AcDbEntity
  8
0
100
AcDbPolyline
 62
7
  6
CONTINUOUS
 90
11
 70
0
 10
8.3729936295
 20
5.7110499897
 10
8.3750917151
 20
5.5949107151
 10
8.3761555876
 20
5.5376393776
 10
8.3772172493
 20
5.4836929186
 10
8.3782634373
 20
5.4351242216
 10
8.3793047415
 20
5.3926127607
 10
8.3803571338
 20
5.3567173581
 10
8.3814107256
 20
5.3288760676
 10
8.3824552443
 20
5.3100188691
 10
8.3835127526
 20
5.3003161264
 10
8.3839364112
 20
5.29914784
  0
LINE
  5
6AE
100
AcDbEntity
  8
0
100
AcDbLine
 62
7
  6
CONTINUOUS
 10
8.4261445512
 20
5.29914784
 11
8.4426491552
 21
5.3141499319
  0
LINE
  5
6AF
100
AcDbEntity
  8
0
100
AcDbLine
 62
7
  6
CONTINUOUS
 10
8.4661445512
 20
5.29914784
 11
8.4826491552
 21
5.3141499319
  0
LINE
  5
6B0
100
AcDbEntity
  8
0
100
AcDbLine
 62
7
  6
CONTINUOUS
 10
8.5061445512
 20
5.29914784
 11
8.5226491552
 21
5.3141499319
  0
LINE
  5
6B1
100
AcDbEntity
  8
0
100
AcDbLine
 62
7
  6
CONTINUOUS
 10
8.4661445512
 20
5.29914784
 11
8.4660410811
 21
5.2991005422
  0
LINE
  5
6B2
100
AcDbEntity
  8
0
100
AcDbLine
 62
7
  6
CONTINUOUS
 10
8.3861445512
 20
5.29914784
 11
8.3860404785
 21
5.2991005407
  0
LINE
  5
6B3
100
AcDbEntity
  8
0
100
AcDbLine
 62
7
  6
CONTINUOUS
 10
8.5060404806
 20
5.2991005407
 11
8.5061445512
 21
5.29914784
  0
LINE
  5
6B4
100
AcDbEntity
  8
0
100
AcDbLine
 62
7
  6
CONTINUOUS
 10
8.4261445512
 20
5.29914784
 11
8.4260398764
 21
5.2991005423
  0
LINE
  5
6B5
100
AcDbEntity
  8
0
100
AcDbLine
 62
7
  6
CONTINUOUS
 10
8.0074318072
 20
5.3141499319
 11
8.0239364112
 21
5.29914784
  0
LINE
  5
6B6
100
AcDbEntity
  8
0
100
AcDbLine
 62
7
  6
CONTINUOUS
 10
8.0474318072
 20
5.3141499319
 11
8.0639364112
 21
5.29914784
  0
LINE
  5
6B7
100
AcDbEntity
  8
0
100
AcDbLine
 62
7
  6
CONTINUOUS
 10
8.0874318072
 20
5.3141499319
 11
8.1039364112
 21
5.29914784
  0
LINE
  5
6B8
100
AcDbEntity
  8
0
100
AcDbLine
 62
7
  6
CONTINUOUS
 10
8.5810404812
 20
4.6781005407
 11
8.6099079947
 21
4.6281005407
  0
LINE
  5
6B9
100
AcDbEntity
  8
0
100
AcDbLine
 62
7
  6
CONTINUOUS
 10
8.2660398764
 20
5.2991005423
 11
8.2655183288
 21
5.3002905876
  0
LINE
  5
6BA
100
AcDbEntity
  8
0
100
AcDbLine
 62
7
  6
CONTINUOUS
 10
8.3060410811
 20
5.2991005422
 11
8.3055083161
 21
5.3003366387
  0
LINE
  5
6BB
100
AcDbEntity
  8
0
100
AcDbLine
 62
7
  6
CONTINUOUS
 10
8.2260404785
 20
5.2991005407
 11
8.2255032548
 21
5.300360249
  0
LINE
  5
6BC
100
AcDbEntity
  8
0
100
AcDbLine
 62
7
  6
CONTINUOUS
 10
7.9875404812
 20
5.9921005407
 11
7.988185218
 21
5.9903635271
  0
LINE
  5
6BD
100
AcDbEntity
  8
0
100
AcDbLine
 62
7
  6
CONTINUOUS
 10
8.2469999407
 20
5.3153217921
 11
8.2474318072
 21
5.3141499319
  0
LINE
  5
6BE
100
AcDbEntity
  8
0
100
AcDbLine
 62
7
  6
CONTINUOUS
 10
8.2869999407
 20
5.3153217921
 11
8.2874318072
 21
5.3141499319
  0
LWPOLYLINE
  5
6BF
100
AcDbEntity
  8
0
100
AcDbPolyline
 62
7
  6
CONTINUOUS
 90
19
 70
0
 10
8.1475404812
 20
5.9921005407
 10
8.1486215623
 20
5.9872243343
 10
8.1497026434
 20
5.9727359947
 10
8.1507837244
 20
5.949052325
 10
8.1518648055
 20
5.9168546614
 10
8.1529458866
 20
5.8770692719
 10
8.1540269677
 20
5.8308407098
 10
8.1551080488
 20
5.7794988866
 10
8.1561891298
 20
5.7245208132
 10
8.1572702109
 20
5.6674881086
 10
8.158351292
 20
5.6100414998
 10
8.1594323731
 20
5.5538336212
 10
8.1605134542
 20
5.5004814712
 10
8.1615945353
 20
5.4515198939
 10
8.1626756163
 20
5.4083574248
 10
8.1637566974
 20
5.3722357696
 10
8.1648377785
 20
5.3441940824
 10
8.1659188596
 20
5.3250390717
 10
8.1669999407
 20
5.3153217921
  0
LWPOLYLINE
  5
6C0
100
AcDbEntity
  8
0
100
AcDbPolyline
 62
7
  6
CONTINUOUS
 90
19
 70
0
 10
8.1875404812
 20
5.9921005407
 10
8.1886215623
 20
5.9872243343
 10
8.1897026434
 20
5.9727359947
 10
8.1907837244
 20
5.949052325
 10
8.1918648055
 20
5.9168546614
 10
8.1929458866
 20
5.8770692719
 10
8.1940269677
 20
5.8308407098
 10
8.1951080488
 20
5.7794988866
 10
8.1961891298
 20
5.7245208132
 10
8.1972702109
 20
5.6674881086
 10
8.198351292
 20
5.6100414998
 10
8.1994323731
 20
5.5538336212
 10
8.2005134542
 20
5.5004814712
 10
8.2015945353
 20
5.4515198939
 10
8.2026756163
 20
5.4083574248
 10
8.2037566974
 20
5.3722357696
 10
8.2048377785
 20
5.3441940824
 10
8.2059188596
 20
5.3250390717
 10
8.2069999407
 20
5.3153217921
  0
LWPOLYLINE
  5
6C1
100
AcDbEntity
  8
0
100
AcDbPolyline
 62
7
  6
CONTINUOUS
 90
20
 70
0
 10
8.1426491552
 20
5.9920511494
 10
8.1436215623
 20
5.9872243343
 10
8.1447026434
 20
5.9727359947
 10
8.1457837244
 20
5.949052325
 10
8.1468648055
 20
5.9168546614
 10
8.1479458866
 20
5.8770692719
 10
8.1490269677
 20
5.8308407098
 10
8.1501080488
 20
5.7794988866
 10
8.1511891298
 20
5.7245208132
 10
8.1522702109
 20
5.6674881086
 10
8.153351292
 20
5.6100414998
 10
8.1544323731
 20
5.5538336212
 10
8.1555134542
 20
5.5004814712
 10
8.1565945353
 20
5.4515198939
 10
8.1576756163
 20
5.4083574248
 10
8.1587566974
 20
5.3722357696
 10
8.1598377785
 20
5.3441940824
 10
8.1609188596
 20
5.3250390717
 10
8.1619999407
 20
5.3153217921
 10
8.1625404812
 20
5.3141005407
  0
LWPOLYLINE
  5
6C2
100
AcDbEntity
  8
0
100
AcDbPolyline
 62
7
  6
CONTINUOUS
 90
20
 70
0
 10
8.1826491552
 20
5.9920511494
 10
8.1836215623
 20
5.9872243343
 10
8.1847026434
 20
5.9727359947
 10
8.1857837244
 20
5.949052325
 10
8.1868648055
 20
5.9168546614
 10
8.1879458866
 20
5.8770692719
 10
8.1890269677
 20
5.8308407098
 10
8.1901080488
 20
5.7794988866
 10
8.1911891298
 20
5.7245208132
 10
8.1922702109
 20
5.6674881086
 10
8.193351292
 20
5.6100414998
 10
8.1944323731
 20
5.5538336212
 10
8.1955134542
 20
5.5004814712
 10
8.1965945353
 20
5.4515198939
 10
8.1976756163
 20
5.4083574248
 10
8.1987566974
 20
5.3722357696
 10
8.1998377785
 20
5.3441940824
 10
8.2009188596
 20
5.3250390717
 10
8.2019999407
 20
5.3153217921
 10
8.2025404812
 20
5.3141005407
  0
LWPOLYLINE
  5
6C3
100
AcDbEntity
  8
0
100
AcDbPolyline
 62
7
  6
CONTINUOUS
 90
20
 70
0
 10
8.2226491552
 20
5.9920511494
 10
8.2236215623
 20
5.9872243343
 10
8.2247026434
 20
5.9727359947
 10
8.2257837244
 20
5.949052325
 10
8.2268648055
 20
5.9168546614
 10
8.2279458866
 20
5.8770692719
 10
8.2290269677
 20
5.8308407098
 10
8.2301080488
 20
5.7794988866
 10
8.2311891298
 20
5.7245208132
 10
8.2322702109
 20
5.6674881086
 10
8.233351292
 20
5.6100414998
 10
8.2344323731
 20
5.5538336212
 10
8.2355134542
 20
5.5004814712
 10
8.2365945353
 20
5.4515198939
 10
8.2376756163
 20
5.4083574248
 10
8.2387566974
 20
5.3722357696
 10
8.2398377785
 20
5.3441940824
 10
8.2409188596
 20
5.3250390717
 10
8.2419999407
 20
5.3153217921
 10
8.2425404812
 20
5.3141005407
  0
LWPOLYLINE
  5
6C4
100
AcDbEntity
  8
0
100
AcDbPolyline
 62
7
  6
CONTINUOUS
 90
9
 70
0
 10
8.4655083161
 20
5.3003366387
 10
8.4644552233
 20
5.3100191573
 10
8.4634087889
 20
5.3289193147
 10
8.4623473469
 20
5.3570153037
 10
8.4612814422
 20
5.3934918164
 10
8.4602257697
 20
5.4367784097
 10
8.4591830188
 20
5.4853666835
 10
8.4581394841
 20
5.5384862325
 10
8.4570880658
 20
5.5951108894
  0
LWPOLYLINE
  5
6C5
100
AcDbEntity
  8
0
100
AcDbPolyline
 62
7
  6
CONTINUOUS
 90
10
 70
0
 10
8.3245733685
 20
6.0058610874
 10
8.3256321226
 20
5.996094272
 10
8.3266767405
 20
5.9771796675
 10
8.3277244001
 20
5.9494663442
 10
8.3287675745
 20
5.9139136512
 10
8.329812327
 20
5.8713045368
 10
8.3308598668
 20
5.8226959279
 10
8.3319227229
 20
5.7687010894
 10
8.3329879047
 20
5.7113640022
 10
8.3350880658
 20
5.5951108894
  0
LWPOLYLINE
  5
6C6
100
AcDbEntity
  8
0
100
AcDbPolyline
 62
7
  6
CONTINUOUS
 90
9
 70
0
 10
8.3645781398
 20
6.0058388058
 10
8.3656324751
 20
5.9960894219
 10
8.3666749755
 20
5.9772191439
 10
8.3677318474
 20
5.949239656
 10
8.3687932293
 20
5.912946956
 10
8.3698445828
 20
5.8698893802
 10
8.3708837775
 20
5.8215276677
 10
8.3719365388
 20
5.7679746852
 10
8.3729936295
 20
5.7110499897
  0
LWPOLYLINE
  5
6C7
100
AcDbEntity
  8
0
100
AcDbPolyline
 62
7
  6
CONTINUOUS
 90
9
 70
0
 10
8.4050354776
 20
6.0027856303
 10
8.4060308952
 20
5.9899388845
 10
8.40703129
 20
5.9687485507
 10
8.4080447745
 20
5.9393521677
 10
8.4090585512
 20
5.9027048287
 10
8.410059908
 20
5.8603016114
 10
8.4110557006
 20
5.8130586688
 10
8.4120535294
 20
5.7618022768
 10
8.413046721
 20
5.7081356139
  0
LWPOLYLINE
  5
6C8
100
AcDbEntity
  8
0
100
AcDbPolyline
 62
7
  6
CONTINUOUS
 90
10
 70
0
 10
8.4550841636
 20
5.5953249534
 10
8.456140429
 20
5.5384365183
 10
8.4571987122
 20
5.4845987199
 10
8.4582461702
 20
5.435881568
 10
8.4593022604
 20
5.3927062065
 10
8.4603683677
 20
5.3563762259
 10
8.4614297195
 20
5.3284535269
 10
8.4624748597
 20
5.3097516935
 10
8.4635183288
 20
5.3002905876
 10
8.4639364112
 20
5.29914784
  0
LWPOLYLINE
  5
6C9
100
AcDbEntity
  8
0
100
AcDbPolyline
 62
7
  6
CONTINUOUS
 90
11
 70
0
 10
8.413046721
 20
5.7081356139
 10
8.415091623
 20
5.5949157664
 10
8.4161554022
 20
5.5376491245
 10
8.4172169754
 20
5.48370629
 10
8.4182635247
 20
5.4351203938
 10
8.4193120861
 20
5.3923363833
 10
8.42036241
 20
5.3565570264
 10
8.4214040091
 20
5.3290261752
 10
8.4224459595
 20
5.3101464705
 10
8.4235032548
 20
5.300360249
 10
8.4239364112
 20
5.29914784
  0
LWPOLYLINE
  5
6CA
100
AcDbEntity
  8
0
100
AcDbPolyline
 62
7
  6
CONTINUOUS
 90
11
 70
0
 10
8.4170841636
 20
5.5953249534
 10
8.4149922756
 20
5.7111242577
 10
8.4139315093
 20
5.7682391857
 10
8.4128729351
 20
5.8220577148
 10
8.4118289908
 20
5.8705741453
 10
8.410777836
 20
5.913527497
 10
8.4097172983
 20
5.9496821347
 10
8.4086619547
 20
5.9775096129
 10
8.4076204909
 20
5.996253728
 10
8.4065659709
 20
6.0058952414
 10
8.4061445512
 20
6.0070532414
  0
LWPOLYLINE
  5
6CB
100
AcDbEntity
  8
0
100
AcDbPolyline
 62
7
  6
CONTINUOUS
 90
11
 70
0
 10
8.4570880658
 20
5.5951108894
 10
8.4549879047
 20
5.7113640022
 10
8.4539227229
 20
5.7687010894
 10
8.4528598668
 20
5.8226959279
 10
8.451812327
 20
5.8713045368
 10
8.4507675745
 20
5.9139136512
 10
8.4497244001
 20
5.9494663442
 10
8.4486767405
 20
5.9771796675
 10
8.4476321226
 20
5.996094272
 10
8.4465733685
 20
6.0058610874
 10
8.4461445512
 20
6.0070532414
  0
LINE
  5
6CC
100
AcDbEntity
  8
0
100
AcDbLine
 62
7
  6
CONTINUOUS
 10
8.1274318072
 20
5.3141499319
 11
8.1439364112
 21
5.29914784
  0
LINE
  5
6CD
100
AcDbEntity
  8
0
100
AcDbLine
 62
7
  6
CONTINUOUS
 10
8.1674318072
 20
5.3141499319
 11
8.1839364112
 21
5.29914784
  0
LINE
  5
6CE
100
AcDbEntity
  8
0
100
AcDbLine
 62
7
  6
CONTINUOUS
 10
8.2074318072
 20
5.3141499319
 11
8.2239364112
 21
5.29914784
  0
LWPOLYLINE
  5
6CF
100
AcDbEntity
  8
0
100
AcDbPolyline
 62
7
  6
CONTINUOUS
 90
11
 70
0
 10
8.0061445512
 20
6.0070532414
 10
8.0063974039
 20
6.0065443194
 10
8.0074688731
 20
5.9982272423
 10
8.0085403103
 20
5.9801575323
 10
8.0096117813
 20
5.9528447076
 10
8.0106832647
 20
5.9170605972
 10
8.0117547191
 20
5.8738180089
 10
8.0128261349
 20
5.8243399751
 10
8.0138975874
 20
5.7700212502
 10
8.0149690522
 20
5.7123977648
 10
8.0170917151
 20
5.5949107151
  0
LINE
  5
6D0
100
AcDbEntity
  8
0
100
AcDbLine
 62
7
  6
CONTINUOUS
 10
8.3460404772
 20
5.2991005407
 11
8.3455127526
 21
5.3003161264
  0
LINE
  5
6D1
100
AcDbEntity
  8
0
100
AcDbLine
 62
7
  6
CONTINUOUS
 10
8.3860404785
 20
5.2991005407
 11
8.3855032548
 21
5.300360249
  0
LINE
  5
6D2
100
AcDbEntity
  8
0
100
AcDbLine
 62
7
  6
CONTINUOUS
 10
8.0440404784
 20
6.0071005407
 11
8.0445781398
 21
6.0058388058
  0
LINE
  5
6D3
100
AcDbEntity
  8
0
100
AcDbLine
 62
7
  6
CONTINUOUS
 10
8.3269999407
 20
5.3153217921
 11
8.3274318072
 21
5.3141499319
  0
LINE
  5
6D4
100
AcDbEntity
  8
0
100
AcDbLine
 62
7
  6
CONTINUOUS
 10
8.3669999407
 20
5.3153217921
 11
8.3674318072
 21
5.3141499319
  0
LINE
  5
6D5
100
AcDbEntity
  8
0
100
AcDbLine
 62
7
  6
CONTINUOUS
 10
8.4068660626
 20
5.3160010164
 11
8.4074318072
 21
5.3141499319
  0
LINE
  5
6D6
100
AcDbEntity
  8
0
100
AcDbLine
 62
7
  6
CONTINUOUS
 10
8.2440404812
 20
6.0071005407
 11
8.2450354776
 21
6.0027856303
  0
LINE
  5
6D7
100
AcDbEntity
  8
0
100
AcDbLine
 62
7
  6
CONTINUOUS
 10
8.4465908688
 20
5.3178649497
 11
8.4474318072
 21
5.3141499319
  0
LWPOLYLINE
  5
6D8
100
AcDbEntity
  8
0
100
AcDbPolyline
 62
7
  6
CONTINUOUS
 90
19
 70
0
 10
8.2275404812
 20
5.9921005407
 10
8.2286215623
 20
5.9872243343
 10
8.2297026434
 20
5.9727359947
 10
8.2307837244
 20
5.949052325
 10
8.2318648055
 20
5.9168546614
 10
8.2329458866
 20
5.8770692719
 10
8.2340269677
 20
5.8308407098
 10
8.2351080488
 20
5.7794988866
 10
8.2361891298
 20
5.7245208132
 10
8.2372702109
 20
5.6674881086
 10
8.238351292
 20
5.6100414998
 10
8.2394323731
 20
5.5538336212
 10
8.2405134542
 20
5.5004814712
 10
8.2415945353
 20
5.4515198939
 10
8.2426756163
 20
5.4083574248
 10
8.2437566974
 20
5.3722357696
 10
8.2448377785
 20
5.3441940824
 10
8.2459188596
 20
5.3250390717
 10
8.2469999407
 20
5.3153217921
  0
LWPOLYLINE
  5
6D9
100
AcDbEntity
  8
0
100
AcDbPolyline
 62
7
  6
CONTINUOUS
 90
19
 70
0
 10
8.2675404812
 20
5.9921005407
 10
8.2686215623
 20
5.9872243343
 10
8.2697026434
 20
5.9727359947
 10
8.2707837244
 20
5.949052325
 10
8.2718648055
 20
5.9168546614
 10
8.2729458866
 20
5.8770692719
 10
8.2740269677
 20
5.8308407098
 10
8.2751080488
 20
5.7794988866
 10
8.2761891298
 20
5.7245208132
 10
8.2772702109
 20
5.6674881086
 10
8.278351292
 20
5.6100414998
 10
8.2794323731
 20
5.5538336212
 10
8.2805134542
 20
5.5004814712
 10
8.2815945353
 20
5.4515198939
 10
8.2826756163
 20
5.4083574248
 10
8.2837566974
 20
5.3722357696
 10
8.2848377785
 20
5.3441940824
 10
8.2859188596
 20
5.3250390717
 10
8.2869999407
 20
5.3153217921
  0
LWPOLYLINE
  5
6DA
100
AcDbEntity
  8
0
100
AcDbPolyline
 62
7
  6
CONTINUOUS
 90
20
 70
0
 10
8.2626491552
 20
5.9920511494
 10
8.2636215623
 20
5.9872243343
 10
8.2647026434
 20
5.9727359947
 10
8.2657837244
 20
5.949052325
 10
8.2668648055
 20
5.9168546614
 10
8.2679458866
 20
5.8770692719
 10
8.2690269677
 20
5.8308407098
 10
8.2701080488
 20
5.7794988866
 10
8.2711891298
 20
5.7245208132
 10
8.2722702109
 20
5.6674881086
 10
8.273351292
 20
5.6100414998
 10
8.2744323731
 20
5.5538336212
 10
8.2755134542
 20
5.5004814712
 10
8.2765945353
 20
5.4515198939
 10
8.2776756163
 20
5.4083574248
 10
8.2787566974
 20
5.3722357696
 10
8.2798377785
 20
5.3441940824
 10
8.2809188596
 20
5.3250390717
 10
8.2819999407
 20
5.3153217921
 10
8.2825404812
 20
5.3141005407
  0
LWPOLYLINE
  5
6DB
100
AcDbEntity
  8
0
100
AcDbPolyline
 62
7
  6
CONTINUOUS
 90
20
 70
0
 10
8.3026491552
 20
5.9920511494
 10
8.3036215623
 20
5.9872243343
 10
8.3047026434
 20
5.9727359947
 10
8.3057837244
 20
5.949052325
 10
8.3068648055
 20
5.9168546614
 10
8.3079458866
 20
5.8770692719
 10
8.3090269677
 20
5.8308407098
 10
8.3101080488
 20
5.7794988866
 10
8.3111891298
 20
5.7245208132
 10
8.3122702109
 20
5.6674881086
 10
8.313351292
 20
5.6100414998
 10
8.3144323731
 20
5.5538336212
 10
8.3155134542
 20
5.5004814712
 10
8.3165945352
 20
5.4515198939
 10
8.3176756163
 20
5.4083574248
 10
8.3187566974
 20
5.3722357696
 10
8.3198377785
 20
5.3441940824
 10
8.3209188596
 20
5.3250390717
 10
8.3219999407
 20
5.3153217921
 10
8.3225404812
 20
5.3141005407
  0
LWPOLYLINE
  5
6DC
100
AcDbEntity
  8
0
100
AcDbPolyline
 62
7
  6
CONTINUOUS
 90
9
 70
0
 10
8.4255183288
 20
5.3002905876
 10
8.4244748597
 20
5.3097516935
 10
8.4234297195
 20
5.3284535269
 10
8.4223683677
 20
5.3563762259
 10
8.4213022604
 20
5.3927062065
 10
8.4202461702
 20
5.435881568
 10
8.4191987122
 20
5.4845987199
 10
8.418140429
 20
5.5384365183
 10
8.4170841636
 20
5.5953249534
  0
LWPOLYLINE
  5
6DD
100
AcDbEntity
  8
0
100
AcDbPolyline
 62
7
  6
CONTINUOUS
 90
10
 70
0
 10
8.4445659709
 20
6.0058952414
 10
8.4456204909
 20
5.996253728
 10
8.4466619547
 20
5.9775096129
 10
8.4477172983
 20
5.9496821347
 10
8.448777836
 20
5.913527497
 10
8.4498289908
 20
5.8705741453
 10
8.4508729351
 20
5.8220577148
 10
8.4519315093
 20
5.7682391857
 10
8.4529922756
 20
5.7111242577
 10
8.4550841636
 20
5.5953249534
  0
LWPOLYLINE
  5
6DE
100
AcDbEntity
  8
0
100
AcDbPolyline
 62
7
  6
CONTINUOUS
 90
10
 70
0
 10
8.4949936295
 20
5.7110499897
 10
8.4939365388
 20
5.7679746852
 10
8.4928837775
 20
5.8215276677
 10
8.4918445828
 20
5.8698893802
 10
8.4907932293
 20
5.912946956
 10
8.4897318474
 20
5.949239656
 10
8.4886749755
 20
5.9772191439
 10
8.4876324751
 20
5.9960894219
 10
8.4865781398
 20
6.0058388058
 10
8.4861445512
 20
6.0070532414
  0
LWPOLYLINE
  5
6DF
100
AcDbEntity
  8
0
100
AcDbPolyline
 62
7
  6
CONTINUOUS
 90
10
 70
0
 10
8.4949936295
 20
5.7110499897
 10
8.4971119244
 20
5.5938025373
 10
8.4981834109
 20
5.5361779423
 10
8.4992548906
 20
5.481858034
 10
8.5003263231
 20
5.4323796027
 10
8.5013977457
 20
5.3891387072
 10
8.502469203
 20
5.3533557257
 10
8.5035406649
 20
5.3260432782
 10
8.5046121064
 20
5.3079736266
 10
8.505683583
 20
5.2996566855
  0
LINE
  5
6E0
100
AcDbEntity
  8
0
100
AcDbLine
 62
7
  6
CONTINUOUS
 10
8.5260404812
 20
6.0071005407
 11
8.5260404812
 21
5.3140907891
  0
LINE
  5
6E1
100
AcDbEntity
  8
0
100
AcDbLine
 62
9
  6
CONTINUOUS
 10
8.5635404812
 20
5.3143505407
 11
8.5635404812
 21
5.9918505407
  0
LINE
  5
6E2
100
AcDbEntity
  8
0
100
AcDbLine
 62
7
  6
CONTINUOUS
 10
8.5760404812
 20
4.7281005407
 11
8.5760404812
 21
6.1850959163
  0
LWPOLYLINE
  5
6E3
100
AcDbEntity
  8
0
100
AcDbPolyline
 62
9
  6
CONTINUOUS
 90
6
 70
0
 10
8.8710404812
 20
5.1062193836
 10
8.832825668
 20
5.1042892494
 10
8.7924940269
 20
5.0981109828
 10
8.7516956581
 20
5.0876757186
 10
8.7122161091
 20
5.0737830349
 10
8.6757587911
 20
5.0578661331
  0
LINE
  5
6E4
100
AcDbEntity
  8
0
100
AcDbLine
 62
7
  6
CONTINUOUS
 10
9.1700404812
 20
5.0621005407
 11
9.1578825953
 21
5.0621005407
  0
LINE
  5
6E5
100
AcDbEntity
  8
AXIS_COSMETIC_THREADS
100
AcDbLine
 62
7
  6
CONTINUOUS
 10
9.1578825953
 20
5.0621005407
 11
9.1700404812
 21
5.0621005407
  0
LINE
  5
6E6
100
AcDbEntity
  8
0
100
AcDbLine
 62
7
  6
CONTINUOUS
 10
8.0239364112
 20
5.29914784
 11
8.0240410811
 21
5.2991005422
  0
LINE
  5
6E7
100
AcDbEntity
  8
0
100
AcDbLine
 62
7
  6
CONTINUOUS
 10
8.1839364112
 20
5.29914784
 11
8.1840410811
 21
5.2991005422
  0
LINE
  5
6E8
100
AcDbEntity
  8
0
100
AcDbLine
 62
7
  6
CONTINUOUS
 10
8.0639364112
 20
5.29914784
 11
8.0640404772
 21
5.2991005407
  0
LINE
  5
6E9
100
AcDbEntity
  8
0
100
AcDbLine
 62
7
  6
CONTINUOUS
 10
8.1039364112
 20
5.29914784
 11
8.1040404785
 21
5.2991005407
  0
LINE
  5
6EA
100
AcDbEntity
  8
0
100
AcDbLine
 62
7
  6
CONTINUOUS
 10
8.1439364112
 20
5.29914784
 11
8.1440398764
 21
5.2991005423
  0
LINE
  5
6EB
100
AcDbEntity
  8
0
100
AcDbLine
 62
7
  6
CONTINUOUS
 10
8.2474318072
 20
5.3141499319
 11
8.2639364112
 21
5.29914784
  0
LINE
  5
6EC
100
AcDbEntity
  8
0
100
AcDbLine
 62
7
  6
CONTINUOUS
 10
8.2874318072
 20
5.3141499319
 11
8.3039364112
 21
5.29914784
  0
LINE
  5
6ED
100
AcDbEntity
  8
0
100
AcDbLine
 62
7
  6
CONTINUOUS
 10
8.3274318072
 20
5.3141499319
 11
8.3439364112
 21
5.29914784
  0
LINE
  5
6EE
100
AcDbEntity
  8
0
100
AcDbLine
 62
7
  6
CONTINUOUS
 10
8.3674318072
 20
5.3141499319
 11
8.3839364112
 21
5.29914784
  0
LINE
  5
6EF
100
AcDbEntity
  8
0
100
AcDbLine
 62
7
  6
CONTINUOUS
 10
8.4260398764
 20
5.2991005423
 11
8.4255183288
 21
5.3002905876
  0
LINE
  5
6F0
100
AcDbEntity
  8
0
100
AcDbLine
 62
7
  6
CONTINUOUS
 10
8.1240404778
 20
6.0071005407
 11
8.1245659709
 21
6.0058952414
  0
LINE
  5
6F1
100
AcDbEntity
  8
0
100
AcDbLine
 62
7
  6
CONTINUOUS
 10
8.4660410811
 20
5.2991005422
 11
8.4655083161
 21
5.3003366387
  0
LINE
  5
6F2
100
AcDbEntity
  8
0
100
AcDbLine
 62
7
  6
CONTINUOUS
 10
8.1640404778
 20
6.0071005407
 11
8.1645733685
 21
6.0058610874
  0
LWPOLYLINE
  5
6F3
100
AcDbEntity
  8
0
100
AcDbPolyline
 62
7
  6
CONTINUOUS
 90
19
 70
0
 10
8.3075404812
 20
5.9921005407
 10
8.3086215623
 20
5.9872243343
 10
8.3097026434
 20
5.9727359947
 10
8.3107837244
 20
5.949052325
 10
8.3118648055
 20
5.9168546614
 10
8.3129458866
 20
5.8770692719
 10
8.3140269677
 20
5.8308407098
 10
8.3151080488
 20
5.7794988866
 10
8.3161891298
 20
5.7245208132
 10
8.3172702109
 20
5.6674881086
 10
8.318351292
 20
5.6100414998
 10
8.3194323731
 20
5.5538336212
 10
8.3205134542
 20
5.5004814712
 10
8.3215945352
 20
5.4515198939
 10
8.3226756163
 20
5.4083574248
 10
8.3237566974
 20
5.3722357696
 10
8.3248377785
 20
5.3441940824
 10
8.3259188596
 20
5.3250390717
 10
8.3269999407
 20
5.3153217921
  0
LWPOLYLINE
  5
6F4
100
AcDbEntity
  8
0
100
AcDbPolyline
 62
7
  6
CONTINUOUS
 90
19
 70
0
 10
8.3475404812
 20
5.9921005407
 10
8.3486215623
 20
5.9872243343
 10
8.3497026434
 20
5.9727359947
 10
8.3507837244
 20
5.949052325
 10
8.3518648055
 20
5.9168546614
 10
8.3529458866
 20
5.8770692719
 10
8.3540269677
 20
5.8308407098
 10
8.3551080488
 20
5.7794988866
 10
8.3561891298
 20
5.7245208132
 10
8.3572702109
 20
5.6674881086
 10
8.358351292
 20
5.6100414998
 10
8.3594323731
 20
5.5538336212
 10
8.3605134542
 20
5.5004814712
 10
8.3615945352
 20
5.4515198939
 10
8.3626756163
 20
5.4083574248
 10
8.3637566974
 20
5.3722357696
 10
8.3648377785
 20
5.3441940824
 10
8.3659188596
 20
5.3250390717
 10
8.3669999407
 20
5.3153217921
  0
LWPOLYLINE
  5
6F5
100
AcDbEntity
  8
0
100
AcDbPolyline
 62
7
  6
CONTINUOUS
 90
20
 70
0
 10
8.3826491552
 20
5.9920511494
 10
8.3836194286
 20
5.9872435174
 10
8.3846983759
 20
5.9728116257
 10
8.3857773233
 20
5.9492184114
 10
8.3868562707
 20
5.9171399382
 10
8.387935218
 20
5.8774954149
 10
8.3890141654
 20
5.8314208554
 10
8.3900931128
 20
5.7802365266
 10
8.3911720601
 20
5.7254091155
 10
8.3922510075
 20
5.6685097019
 10
8.3933299549
 20
5.6111687387
 10
8.3944089022
 20
5.5550293314
 10
8.3954878496
 20
5.5017001551
 10
8.396566797
 20
5.4527093576
 10
8.3976457444
 20
5.4094607702
 10
8.3987246917
 20
5.3731936816
 10
8.3998036391
 20
5.3449473253
 10
8.4008825865
 20
5.3255311007
 10
8.4019615338
 20
5.3155013799
 10
8.4025404812
 20
5.3141005407
  0
LWPOLYLINE
  5
6F6
100
AcDbEntity
  8
0
100
AcDbPolyline
 62
7
  6
CONTINUOUS
 90
20
 70
0
 10
8.3426491552
 20
5.9920511494
 10
8.3436215623
 20
5.9872243343
 10
8.3447026434
 20
5.9727359947
 10
8.3457837244
 20
5.949052325
 10
8.3468648055
 20
5.9168546614
 10
8.3479458866
 20
5.8770692719
 10
8.3490269677
 20
5.8308407098
 10
8.3501080488
 20
5.7794988866
 10
8.3511891298
 20
5.7245208132
 10
8.3522702109
 20
5.6674881086
 10
8.353351292
 20
5.6100414998
 10
8.3544323731
 20
5.5538336212
 10
8.3555134542
 20
5.5004814712
 10
8.3565945352
 20
5.4515198939
 10
8.3576756163
 20
5.4083574248
 10
8.3587566974
 20
5.3722357696
 10
8.3598377785
 20
5.3441940824
 10
8.3609188596
 20
5.3250390717
 10
8.3619999407
 20
5.3153217921
 10
8.3625404812
 20
5.3141005407
  0
LINE
  5
6F7
100
AcDbEntity
  8
0
100
AcDbLine
 62
7
  6
CONTINUOUS
 10
8.486315675
 20
5.3203552076
 11
8.4874318072
 21
5.3141499319
  0
LWPOLYLINE
  5
6F8
100
AcDbEntity
  8
0
100
AcDbPolyline
 62
7
  6
CONTINUOUS
 90
8
 70
0
 10
8.5760404812
 20
5.1211005407
 10
8.5778724898
 20
5.1086362072
 10
8.58300699
 20
5.1009465801
 10
8.5907257836
 20
5.0972989233
 10
8.600309263
 20
5.0969862596
 10
8.6112203241
 20
5.09950707
 10
8.6231636382
 20
5.1046644387
 10
8.6360404812
 20
5.1126423055
  0
LWPOLYLINE
  5
6F9
100
AcDbEntity
  8
0
100
AcDbPolyline
 62
9
  6
CONTINUOUS
 90
8
 70
0
 10
8.5760404812
 20
5.1211005407
 10
8.5790852278
 20
5.0939833142
 10
8.5876186225
 20
5.0732812648
 10
8.6004470402
 20
5.0590410052
 10
8.6163745129
 20
5.0507868109
 10
8.6345083892
 20
5.0479573385
 10
8.6543578407
 20
5.0502463689
 10
8.6757587911
 20
5.0578661331
  0
LWPOLYLINE
  5
6FA
100
AcDbEntity
  8
0
100
AcDbPolyline
 62
7
  6
CONTINUOUS
 90
9
 70
0
 10
8.4845733685
 20
6.0058610874
 10
8.4856321226
 20
5.996094272
 10
8.4866767405
 20
5.9771796675
 10
8.4877244001
 20
5.9494663442
 10
8.4887675745
 20
5.9139136512
 10
8.489812327
 20
5.8713045368
 10
8.4908598668
 20
5.8226959279
 10
8.4919227229
 20
5.7687010894
 10
8.4929879047
 20
5.7113640022
  0
LWPOLYLINE
  5
6FB
100
AcDbEntity
  8
0
100
AcDbPolyline
 62
7
  6
CONTINUOUS
 90
3
 70
0
 10
8.5260404812
 20
5.9897745474
 10
8.5249739625
 20
6.0033017444
 10
8.5240404823
 20
6.0071005407
  0
LINE
  5
6FC
100
AcDbEntity
  8
0
100
AcDbLine
 62
7
  6
CONTINUOUS
 10
8.5810404812
 20
4.7281005407
 11
8.5810404812
 21
4.6781005407
  0
LINE
  5
6FD
100
AcDbEntity
  8
0
100
AcDbLine
 62
9
  6
CONTINUOUS
 10
8.6360404812
 20
5.1126423055
 11
8.6360404812
 21
6.2451005407
  0
LWPOLYLINE
  5
6FE
100
AcDbEntity
  8
0
100
AcDbPolyline
 62
9
  6
CONTINUOUS
 90
6
 70
0
 10
8.8710404812
 20
5.1565458704
 10
8.8250531636
 20
5.154793356
 10
8.7765184769
 20
5.1491836415
 10
8.7274221348
 20
5.1397086777
 10
8.679912847
 20
5.1270944618
 10
8.6360404812
 20
5.1126423055
  0
LINE
  5
6FF
100
AcDbEntity
  8
0
100
AcDbLine
 62
7
  6
CONTINUOUS
 10
8.3439364112
 20
5.29914784
 11
8.3440410811
 21
5.2991005422
  0
LINE
  5
700
100
AcDbEntity
  8
0
100
AcDbLine
 62
7
  6
CONTINUOUS
 10
8.2239364112
 20
5.29914784
 11
8.2240404772
 21
5.2991005407
  0
LINE
  5
701
100
AcDbEntity
  8
0
100
AcDbLine
 62
7
  6
CONTINUOUS
 10
8.2639364112
 20
5.29914784
 11
8.2640404785
 21
5.2991005407
  0
LINE
  5
702
100
AcDbEntity
  8
0
100
AcDbLine
 62
7
  6
CONTINUOUS
 10
8.3839364112
 20
5.29914784
 11
8.3840404772
 21
5.2991005407
  0
LINE
  5
703
100
AcDbEntity
  8
0
100
AcDbLine
 62
7
  6
CONTINUOUS
 10
8.3039364112
 20
5.29914784
 11
8.3040398764
 21
5.2991005423
  0
LWPOLYLINE
  5
704
100
AcDbEntity
  8
0
100
AcDbPolyline
 62
9
  6
CONTINUOUS
 90
6
 70
0
 10
8.6360404812
 20
5.1126423055
 10
8.6464419046
 20
5.1065245885
 10
8.6561863577
 20
5.0973335266
 10
8.6646583655
 20
5.0856496418
 10
8.6713228225
 20
5.0722109067
 10
8.6757587911
 20
5.0578661331
  0
LINE
  5
705
100
AcDbEntity
  8
0
100
AcDbLine
 62
7
  6
CONTINUOUS
 10
8.4074318072
 20
5.3141499319
 11
8.4239364112
 21
5.29914784
  0
LINE
  5
706
100
AcDbEntity
  8
0
100
AcDbLine
 62
7
  6
CONTINUOUS
 10
8.4474318072
 20
5.3141499319
 11
8.4639364112
 21
5.29914784
  0
LINE
  5
707
100
AcDbEntity
  8
0
100
AcDbLine
 62
7
  6
CONTINUOUS
 10
8.4874318072
 20
5.3141499319
 11
8.5039364112
 21
5.29914784
  0
LINE
  5
708
100
AcDbEntity
  8
0
100
AcDbLine
 62
7
  6
CONTINUOUS
 10
8.0043479942
 20
6.0066876306
 11
8.0040404818
 21
6.0071005407
  0
LWPOLYLINE
  5
709
100
AcDbEntity
  8
0
100
AcDbPolyline
 62
7
  6
CONTINUOUS
 90
19
 70
0
 10
8.0275404812
 20
5.9921005407
 10
8.0278628496
 20
5.9916660088
 10
8.028935218
 20
5.9839973474
 10
8.0300075865
 20
5.9669618436
 10
8.0310799549
 20
5.9410417289
 10
8.0321523233
 20
5.9069707356
 10
8.0332246917
 20
5.8657133262
 10
8.0342970601
 20
5.8184373926
 10
8.0353694286
 20
5.7664811955
 10
8.036441797
 20
5.711315482
 10
8.0375141654
 20
5.6545018524
 10
8.0385865338
 20
5.5976485552
 10
8.0396589022
 20
5.5423649619
 10
8.0407312707
 20
5.4902160097
 10
8.0418036391
 20
5.4426779021
 10
8.0428760075
 20
5.4010963212
 10
8.0439483759
 20
5.3666483353
 10
8.0450207444
 20
5.3403090789
 10
8.0460931128
 20
5.3228241488
  0
LINE
  5
70A
100
AcDbEntity
  8
0
100
AcDbLine
 62
7
  6
CONTINUOUS
 10
8.505683583
 20
5.2996566855
 11
8.5060404806
 21
5.2991005407
  0
LWPOLYLINE
  5
70B
100
AcDbEntity
  8
0
100
AcDbPolyline
 62
7
  6
CONTINUOUS
 90
11
 70
0
 10
8.5039364112
 20
5.29914784
 10
8.5036407694
 20
5.299798073
 10
8.502574063
 20
5.3084504539
 10
8.5015073761
 20
5.3267560665
 10
8.5004406483
 20
5.3542034759
 10
8.4993739072
 20
5.3900238258
 10
8.4983071958
 20
5.4332121361
 10
8.4972405241
 20
5.4825576495
 10
8.4961738534
 20
5.5366797039
 10
8.4951071601
 20
5.594063732
 10
8.4929879047
 20
5.7113640022
  0
LINE
  5
70C
100
AcDbEntity
  8
0
100
AcDbLine
 62
7
  6
CONTINUOUS
 10
8.2840404778
 20
6.0071005407
 11
8.2845659709
 21
6.0058952414
  0
LINE
  5
70D
100
AcDbEntity
  8
0
100
AcDbLine
 62
7
  6
CONTINUOUS
 10
8.2040404784
 20
6.0071005407
 11
8.2045781398
 21
6.0058388058
  0
LWPOLYLINE
  5
70E
100
AcDbEntity
  8
0
100
AcDbPolyline
 62
7
  6
CONTINUOUS
 90
20
 70
0
 10
8.4626491552
 20
5.9920511494
 10
8.4634615338
 20
5.9885587681
 10
8.4645404812
 20
5.9755086997
 10
8.4656194286
 20
5.953220024
 10
8.4666983759
 20
5.9223314233
 10
8.4677773233
 20
5.8837280104
 10
8.4688562707
 20
5.8385159663
 10
8.469935218
 20
5.7879908423
 10
8.4710141654
 20
5.7336004362
 10
8.4720931128
 20
5.6769033052
 10
8.4731720601
 20
5.6195241059
 10
8.4742510075
 20
5.5631070395
 10
8.4753299549
 20
5.5092687372
 10
8.4764089022
 20
5.459551936
 10
8.4774878496
 20
5.4153812708
 10
8.478566797
 20
5.3780224524
 10
8.4796457444
 20
5.3485459978
 10
8.4807246917
 20
5.327796555
 10
8.4818036391
 20
5.3163686994
 10
8.4825404812
 20
5.3141005407
  0
LINE
  5
70F
100
AcDbEntity
  8
0
100
AcDbLine
 62
7
  6
CONTINUOUS
 10
8.4040404812
 20
6.0071005407
 11
8.4050354776
 21
6.0027856303
  0
LWPOLYLINE
  5
710
100
AcDbEntity
  8
0
100
AcDbPolyline
 62
7
  6
CONTINUOUS
 90
19
 70
0
 10
8.3875404812
 20
5.9921005407
 10
8.3886141246
 20
5.98729104
 10
8.389687768
 20
5.9729990058
 10
8.3907614114
 20
5.9496299694
 10
8.3918350548
 20
5.9178470187
 10
8.3929086983
 20
5.8785519832
 10
8.3939823417
 20
5.8328598452
 10
8.3950559851
 20
5.7820671026
 10
8.3961296285
 20
5.7276149808
 10
8.3972032719
 20
5.671048539
 10
8.3982769153
 20
5.6139728293
 10
8.3993505587
 20
5.5580073541
 10
8.4004242021
 20
5.5047401134
 10
8.4014978455
 20
5.4556825457
 10
8.4025714889
 20
5.4122266415
 10
8.4036451324
 20
5.3756054464
 10
8.4047187758
 20
5.3468580734
 10
8.4057924192
 20
5.3268002186
 10
8.4068660626
 20
5.3160010164
  0
LWPOLYLINE
  5
711
100
AcDbEntity
  8
0
100
AcDbPolyline
 62
7
  6
CONTINUOUS
 90
20
 70
0
 10
8.4226491552
 20
5.9920511494
 10
8.4235404812
 20
5.9879268881
 10
8.4246194286
 20
5.9741848514
 10
8.4256983759
 20
5.9512421423
 10
8.4267773233
 20
5.9197561843
 10
8.4278562707
 20
5.8806292077
 10
8.428935218
 20
5.8349823961
 10
8.4300141654
 20
5.7841237591
 10
8.4310931128
 20
5.7295106512
 10
8.4321720601
 20
5.6727080112
 10
8.4332510075
 20
5.6153435191
 10
8.4343299549
 20
5.5590609546
 10
8.4354089022
 20
5.5054730949
 10
8.4364878496
 20
5.4561155002
 10
8.437566797
 20
5.4124025128
 10
8.4386457444
 20
5.3755867285
 10
8.4397246917
 20
5.3467231037
 10
8.4408036391
 20
5.3266387257
 10
8.4418825865
 20
5.3159091124
 10
8.4425404812
 20
5.3141005407
  0
LWPOLYLINE
  5
712
100
AcDbEntity
  8
0
100
AcDbPolyline
 62
9
  6
CONTINUOUS
 90
7
 70
0
 10
9.0160404812
 20
5.1197488743
 10
8.9975935171
 20
5.1144003861
 10
8.976095561
 20
5.1104849704
 10
8.9520104357
 20
5.1080524281
 10
8.9259660194
 20
5.1068153529
 10
8.8987182245
 20
5.1063312992
 10
8.8710404812
 20
5.1062193836
  0
LINE
  5
713
100
AcDbEntity
  8
0
100
AcDbLine
 62
7
  6
CONTINUOUS
 10
8.5060404812
 20
5.2991005407
 11
8.5040404812
 21
5.2991005407
  0
LINE
  5
714
100
AcDbEntity
  8
0
100
AcDbLine
 62
7
  6
CONTINUOUS
 10
8.4660404812
 20
5.2991005407
 11
8.4640404812
 21
5.2991005407
  0
LINE
  5
715
100
AcDbEntity
  8
0
100
AcDbLine
 62
7
  6
CONTINUOUS
 10
8.4260404812
 20
5.2991005407
 11
8.4240404812
 21
5.2991005407
  0
LINE
  5
716
100
AcDbEntity
  8
0
100
AcDbLine
 62
7
  6
CONTINUOUS
 10
8.3860404812
 20
5.2991005407
 11
8.3840404812
 21
5.2991005407
  0
LINE
  5
717
100
AcDbEntity
  8
0
100
AcDbLine
 62
7
  6
CONTINUOUS
 10
8.3460404812
 20
5.2991005407
 11
8.3440404812
 21
5.2991005407
  0
LINE
  5
718
100
AcDbEntity
  8
0
100
AcDbLine
 62
7
  6
CONTINUOUS
 10
8.3060404812
 20
5.2991005407
 11
8.3040404812
 21
5.2991005407
  0
LINE
  5
719
100
AcDbEntity
  8
0
100
AcDbLine
 62
7
  6
CONTINUOUS
 10
8.2660404812
 20
5.2991005407
 11
8.2640404812
 21
5.2991005407
  0
LINE
  5
71A
100
AcDbEntity
  8
0
100
AcDbLine
 62
7
  6
CONTINUOUS
 10
8.2260404812
 20
5.2991005407
 11
8.2240404812
 21
5.2991005407
  0
LINE
  5
71B
100
AcDbEntity
  8
0
100
AcDbLine
 62
7
  6
CONTINUOUS
 10
8.1860404812
 20
5.2991005407
 11
8.1840404812
 21
5.2991005407
  0
LINE
  5
71C
100
AcDbEntity
  8
0
100
AcDbLine
 62
7
  6
CONTINUOUS
 10
8.1460404812
 20
5.2991005407
 11
8.1440404812
 21
5.2991005407
  0
LINE
  5
71D
100
AcDbEntity
  8
0
100
AcDbLine
 62
7
  6
CONTINUOUS
 10
8.1060404812
 20
5.2991005407
 11
8.1040404812
 21
5.2991005407
  0
LINE
  5
71E
100
AcDbEntity
  8
0
100
AcDbLine
 62
7
  6
CONTINUOUS
 10
8.0660404812
 20
5.2991005407
 11
8.0640404812
 21
5.2991005407
  0
LINE
  5
71F
100
AcDbEntity
  8
0
100
AcDbLine
 62
7
  6
CONTINUOUS
 10
8.0260404812
 20
5.2991005407
 11
8.0240404812
 21
5.2991005407
  0
LWPOLYLINE
  5
720
100
AcDbEntity
  8
0
100
AcDbPolyline
 62
7
  6
CONTINUOUS
 90
3
 70
0
 10
9.0160404812
 20
5.1164209342
 10
9.0568132784
 20
5.1039998831
 10
9.0927453546
 20
5.0908256516
  0
LWPOLYLINE
  5
721
100
AcDbEntity
  8
0
100
AcDbPolyline
 62
7
  6
CONTINUOUS
 90
5
 70
0
 10
9.0927453546
 20
5.0908256516
 10
9.1220245438
 20
5.0786503691
 10
9.1438285233
 20
5.0687946996
 10
9.1581220304
 20
5.0619864942
 10
9.1651655556
 20
5.0585338418
  0
LINE
  5
722
100
AcDbEntity
  8
0
100
AcDbLine
 62
7
  6
CONTINUOUS
 10
8.4239364112
 20
5.29914784
 11
8.4240404785
 21
5.2991005407
  0
LINE
  5
723
100
AcDbEntity
  8
0
100
AcDbLine
 62
7
  6
CONTINUOUS
 10
8.5040404821
 20
5.2991005407
 11
8.5039364112
 21
5.29914784
  0
LINE
  5
724
100
AcDbEntity
  8
0
100
AcDbLine
 62
7
  6
CONTINUOUS
 10
8.4639364112
 20
5.29914784
 11
8.4640398764
 21
5.2991005423
  0
LINE
  5
725
100
AcDbEntity
  8
0
100
AcDbLine
 62
7
  6
CONTINUOUS
 10
8.3240404778
 20
6.0071005407
 11
8.3245733685
 21
6.0058610874
  0
LINE
  5
726
100
AcDbEntity
  8
0
100
AcDbLine
 62
7
  6
CONTINUOUS
 10
8.3640404784
 20
6.0071005407
 11
8.3645781398
 21
6.0058388058
  0
LWPOLYLINE
  5
727
100
AcDbEntity
  8
0
100
AcDbPolyline
 62
7
  6
CONTINUOUS
 90
19
 70
0
 10
8.4275404812
 20
5.9921005407
 10
8.4283389308
 20
5.9894377617
 10
8.4294125742
 20
5.9775482157
 10
8.4304862176
 20
5.9564525853
 10
8.431559861
 20
5.9267494513
 10
8.4326335045
 20
5.8892816292
 10
8.4337071479
 20
5.845112255
 10
8.4347807913
 20
5.7954946184
 10
8.4358544347
 20
5.7418366018
 10
8.4369280781
 20
5.6856607318
 10
8.4380017215
 20
5.6285609783
 10
8.4390753649
 20
5.5721575259
 10
8.4401490083
 20
5.518050802
 10
8.4412226517
 20
5.4677760652
 10
8.4422962951
 20
5.4227598428
 10
8.4433699386
 20
5.3842794537
 10
8.444443582
 20
5.3534267648
 10
8.4455172254
 20
5.33107721
 10
8.4465908688
 20
5.3178649497
  0
LWPOLYLINE
  5
728
100
AcDbEntity
  8
0
100
AcDbPolyline
 62
7
  6
CONTINUOUS
 90
20
 70
0
 10
8.5026491552
 20
5.9920511494
 10
8.5033825865
 20
5.9891390602
 10
8.5044615338
 20
5.976782967
 10
8.5055404812
 20
5.9551517524
 10
8.5066194286
 20
5.924865259
 10
8.5076983759
 20
5.8867913464
 10
8.5087773233
 20
5.8420210227
 10
8.5098562707
 20
5.7918371817
 10
8.510935218
 20
5.7376778417
 10
8.5120141654
 20
5.6810949388
 10
8.5130931128
 20
5.6237098562
 10
8.5141720601
 20
5.5671669639
 10
8.5152510075
 20
5.5130864986
 10
8.5163299549
 20
5.4630181362
 10
8.5174089022
 20
5.418396586
 10
8.5184878496
 20
5.3805004787
 10
8.519566797
 20
5.3504157274
 10
8.5206457444
 20
5.3290044107
 10
8.5217246917
 20
5.3168800701
 10
8.5225404812
 20
5.3141005407
  0
LINE
  5
729
100
AcDbEntity
  8
AXIS_COSMETIC_THREADS
100
AcDbLine
 62
7
  6
CONTINUOUS
 10
8.7545404812
 20
4.6281005407
 11
8.7545404812
 21
3.9930611706
  0
LINE
  5
72A
100
AcDbEntity
  8
0
100
AcDbLine
 62
7
  6
CONTINUOUS
 10
8.0025404812
 20
5.3141005407
 11
8.0075404812
 21
5.3141005407
  0
LINE
  5
72B
100
AcDbEntity
  8
0
100
AcDbLine
 62
7
  6
CONTINUOUS
 10
8.0425404812
 20
5.3141005407
 11
8.0475404812
 21
5.3141005407
  0
LINE
  5
72C
100
AcDbEntity
  8
0
100
AcDbLine
 62
7
  6
CONTINUOUS
 10
8.0825404812
 20
5.3141005407
 11
8.0875404812
 21
5.3141005407
  0
LINE
  5
72D
100
AcDbEntity
  8
0
100
AcDbLine
 62
7
  6
CONTINUOUS
 10
8.1225404812
 20
5.3141005407
 11
8.1275404812
 21
5.3141005407
  0
LINE
  5
72E
100
AcDbEntity
  8
0
100
AcDbLine
 62
7
  6
CONTINUOUS
 10
8.1625404812
 20
5.3141005407
 11
8.1675404812
 21
5.3141005407
  0
LINE
  5
72F
100
AcDbEntity
  8
0
100
AcDbLine
 62
7
  6
CONTINUOUS
 10
8.2025404812
 20
5.3141005407
 11
8.2075404812
 21
5.3141005407
  0
LINE
  5
730
100
AcDbEntity
  8
0
100
AcDbLine
 62
7
  6
CONTINUOUS
 10
8.2425404812
 20
5.3141005407
 11
8.2475404812
 21
5.3141005407
  0
LINE
  5
731
100
AcDbEntity
  8
0
100
AcDbLine
 62
7
  6
CONTINUOUS
 10
8.2825404812
 20
5.3141005407
 11
8.2875404812
 21
5.3141005407
  0
LINE
  5
732
100
AcDbEntity
  8
0
100
AcDbLine
 62
7
  6
CONTINUOUS
 10
8.3225404812
 20
5.3141005407
 11
8.3275404812
 21
5.3141005407
  0
LINE
  5
733
100
AcDbEntity
  8
0
100
AcDbLine
 62
7
  6
CONTINUOUS
 10
8.3625404812
 20
5.3141005407
 11
8.3675404812
 21
5.3141005407
  0
LINE
  5
734
100
AcDbEntity
  8
0
100
AcDbLine
 62
7
  6
CONTINUOUS
 10
8.4025404812
 20
5.3141005407
 11
8.4075404812
 21
5.3141005407
  0
LINE
  5
735
100
AcDbEntity
  8
0
100
AcDbLine
 62
7
  6
CONTINUOUS
 10
8.4425404812
 20
5.3141005407
 11
8.4475404812
 21
5.3141005407
  0
LINE
  5
736
100
AcDbEntity
  8
0
100
AcDbLine
 62
7
  6
CONTINUOUS
 10
8.4825404812
 20
5.3141005407
 11
8.4875404812
 21
5.3141005407
  0
LINE
  5
737
100
AcDbEntity
  8
0
100
AcDbLine
 62
7
  6
CONTINUOUS
 10
8.5225404812
 20
5.3141005407
 11
8.5260404812
 21
5.3141005407
  0
LINE
  5
738
100
AcDbEntity
  8
0
100
AcDbLine
 62
7
  6
CONTINUOUS
 10
8.5635404812
 20
5.3143505407
 11
8.5260404812
 21
5.3143505407
  0
LINE
  5
739
100
AcDbEntity
  8
0
100
AcDbLine
 62
7
  6
CONTINUOUS
 10
9.1651655556
 20
5.0585338418
 11
9.1660404812
 21
5.058102263
  0
LWPOLYLINE
  5
73A
100
AcDbEntity
  8
0
100
AcDbPolyline
 62
9
  6
CONTINUOUS
 90
7
 70
0
 10
9.0160404812
 20
5.1197488743
 10
9.0041272348
 20
5.1279118275
 10
8.9866617873
 20
5.1363825022
 10
8.9635955965
 20
5.1443271754
 10
8.935625631
 20
5.1508324532
 10
8.9041550488
 20
5.1550799643
 10
8.8710404812
 20
5.1565458704
  0
LINE
  5
73B
100
AcDbEntity
  8
0
100
AcDbLine
 62
7
  6
CONTINUOUS
 10
8.4440404778
 20
6.0071005407
 11
8.4445659709
 21
6.0058952414
  0
LINE
  5
73C
100
AcDbEntity
  8
0
100
AcDbLine
 62
7
  6
CONTINUOUS
 10
8.0226491552
 20
5.9920511494
 11
8.0061445512
 21
6.0070532414
  0
LINE
  5
73D
100
AcDbEntity
  8
0
100
AcDbLine
 62
7
  6
CONTINUOUS
 10
8.0626491552
 20
5.9920511494
 11
8.0461445512
 21
6.0070532414
  0
LINE
  5
73E
100
AcDbEntity
  8
0
100
AcDbLine
 62
7
  6
CONTINUOUS
 10
8.1026491552
 20
5.9920511494
 11
8.0861445512
 21
6.0070532414
  0
LWPOLYLINE
  5
73F
100
AcDbEntity
  8
0
100
AcDbPolyline
 62
7
  6
CONTINUOUS
 90
19
 70
0
 10
8.4675404812
 20
5.9921005407
 10
8.468063737
 20
5.9909561006
 10
8.4691373804
 20
5.9814912561
 10
8.4702110238
 20
5.9627084449
 10
8.4712846672
 20
5.9351406223
 10
8.4723583107
 20
5.8995700154
 10
8.4734319541
 20
5.857005927
 10
8.4745055975
 20
5.8086560976
 10
8.4755792409
 20
5.7558924361
 10
8.4766528843
 20
5.700212092
 10
8.4777265277
 20
5.6431949749
 10
8.4788001711
 20
5.5864589246
 10
8.4798738145
 20
5.5316138058
 10
8.4809474579
 20
5.4802158288
 10
8.4820211014
 20
5.4337233924
 10
8.4830947448
 20
5.3934557026
 10
8.4841683882
 20
5.3605553403
 10
8.4852420316
 20
5.3359558414
 10
8.486315675
 20
5.3203552076
  0
LINE
  5
740
100
AcDbEntity
  8
0
100
AcDbLine
 62
7
  6
CONTINUOUS
 10
8.4840404778
 20
6.0071005407
 11
8.4845733685
 21
6.0058610874
  0
LINE
  5
741
100
AcDbEntity
  8
AXIS_COSMETIC_THREADS
100
AcDbLine
 62
7
  6
CONTINUOUS
 10
8.9875404812
 20
4.6281005407
 11
8.9875404812
 21
3.9930611706
  0
LINE
  5
742
100
AcDbEntity
  8
0
100
AcDbLine
 62
7
  6
CONTINUOUS
 10
8.1426491552
 20
5.9920511494
 11
8.1261445512
 21
6.0070532414
  0
LINE
  5
743
100
AcDbEntity
  8
0
100
AcDbLine
 62
7
  6
CONTINUOUS
 10
8.1826491552
 20
5.9920511494
 11
8.1661445512
 21
6.0070532414
  0
LINE
  5
744
100
AcDbEntity
  8
0
100
AcDbLine
 62
7
  6
CONTINUOUS
 10
8.2226491552
 20
5.9920511494
 11
8.2061445512
 21
6.0070532414
  0
LINE
  5
745
100
AcDbEntity
  8
0
100
AcDbLine
 62
9
  6
CONTINUOUS
 10
9.1698737334
 20
5.0622898365
 11
9.1700404812
 21
5.0621005407
  0
LINE
  5
746
100
AcDbEntity
  8
0
100
AcDbLine
 62
7
  6
CONTINUOUS
 10
9.0160404812
 20
5.1164209342
 11
9.0160404812
 21
6.2450943197
  0
LINE
  5
747
100
AcDbEntity
  8
AXIS_COSMETIC_THREADS
100
AcDbLine
 62
7
  6
CONTINUOUS
 10
9.0310404812
 20
5.1118513246
 11
9.0310404812
 21
6.2441005407
  0
LINE
  5
748
100
AcDbEntity
  8
0
100
AcDbLine
 62
7
  6
CONTINUOUS
 10
8.2626491552
 20
5.9920511494
 11
8.2461445512
 21
6.0070532414
  0
LINE
  5
749
100
AcDbEntity
  8
0
100
AcDbLine
 62
7
  6
CONTINUOUS
 10
8.3026491552
 20
5.9920511494
 11
8.2861445512
 21
6.0070532414
  0
LINE
  5
74A
100
AcDbEntity
  8
0
100
AcDbLine
 62
7
  6
CONTINUOUS
 10
8.3426491552
 20
5.9920511494
 11
8.3261445512
 21
6.0070532414
  0
LINE
  5
74B
100
AcDbEntity
  8
0
100
AcDbLine
 62
7
  6
CONTINUOUS
 10
8.3826491552
 20
5.9920511494
 11
8.3661445512
 21
6.0070532414
  0
LINE
  5
74C
100
AcDbEntity
  8
0
100
AcDbLine
 62
9
  6
CONTINUOUS
 10
9.1110404812
 20
6.2441005407
 11
9.1110389632
 21
5.6531005408
  0
LINE
  5
74D
100
AcDbEntity
  8
0
100
AcDbLine
 62
7
  6
CONTINUOUS
 10
9.1610404812
 20
4.7281005407
 11
9.1610404812
 21
4.6781005407
  0
LINE
  5
74E
100
AcDbEntity
  8
0
100
AcDbLine
 62
7
  6
CONTINUOUS
 10
9.1660404812
 20
4.7281005407
 11
9.1660404812
 21
5.0585338447
  0
LINE
  5
74F
100
AcDbEntity
  8
0
100
AcDbLine
 62
7
  6
CONTINUOUS
 10
9.1710404812
 20
6.1841005407
 11
9.1710404812
 21
5.0631005407
  0
LWPOLYLINE
  5
750
100
AcDbEntity
  8
0
100
AcDbPolyline
 62
9
  6
CONTINUOUS
 90
43
 70
0
 10
9.1110389632
 20
5.6531005408
 10
9.1110385375
 20
5.6479069708
 10
9.1109845756
 20
5.6242839501
 10
9.1108686006
 20
5.6007230331
 10
9.1107061706
 20
5.5771888769
 10
9.1105124718
 20
5.5536437921
 10
9.1103035324
 20
5.5301289545
 10
9.1100966239
 20
5.5067662771
 10
9.1099091675
 20
5.4836710082
 10
9.1097578917
 20
5.4608969048
 10
9.1096591353
 20
5.4384637803
 10
9.1096292686
 20
5.4163920957
 10
9.109684701
 20
5.3947238507
 10
9.1098415806
 20
5.3735076356
 10
9.1101158206
 20
5.3527787784
 10
9.1105231199
 20
5.3325710571
 10
9.1110789367
 20
5.3129171144
 10
9.1117984673
 20
5.2938481554
 10
9.1126966302
 20
5.2753937756
 10
9.1137880597
 20
5.2575817454
 10
9.115086932
 20
5.2404400025
 10
9.1166068487
 20
5.2239959997
 10
9.1183616657
 20
5.2082683332
 10
9.1203656614
 20
5.1932705249
 10
9.1226332258
 20
5.1790160117
 10
9.125175863
 20
5.1655329227
 10
9.1279991896
 20
5.1528651099
 10
9.1311297728
 20
5.1409629545
 10
9.1346199887
 20
5.1296768375
 10
9.1383808213
 20
5.1191365954
 10
9.1422738131
 20
5.1095006648
 10
9.1461558104
 20
5.1008799681
 10
9.1498942072
 20
5.0933309826
 10
9.1533747578
 20
5.0868647391
 10
9.1565194446
 20
5.0814341669
 10
9.1593449182
 20
5.0768606779
 10
9.1618457996
 20
5.0730419811
 10
9.1640173864
 20
5.0698976802
 10
9.1658579884
 20
5.0673596145
 10
9.1673647047
 20
5.0653737496
 10
9.1685362773
 20
5.0638931774
 10
9.1693725712
 20
5.0628769804
 10
9.1698737334
 20
5.0622898365
  0
LINE
  5
751
100
AcDbEntity
  8
0
100
AcDbLine
 62
7
  6
CONTINUOUS
 10
8.0060404818
 20
6.0071005407
 11
8.0061445512
 21
6.0070532414
  0
LINE
  5
752
100
AcDbEntity
  8
0
100
AcDbLine
 62
7
  6
CONTINUOUS
 10
8.0461445512
 20
6.0070532414
 11
8.0460404812
 21
6.0071005407
  0
LINE
  5
753
100
AcDbEntity
  8
0
100
AcDbLine
 62
7
  6
CONTINUOUS
 10
8.4226491552
 20
5.9920511494
 11
8.4061445512
 21
6.0070532414
  0
LINE
  5
754
100
AcDbEntity
  8
0
100
AcDbLine
 62
7
  6
CONTINUOUS
 10
8.4626491552
 20
5.9920511494
 11
8.4461445512
 21
6.0070532414
  0
LINE
  5
755
100
AcDbEntity
  8
0
100
AcDbLine
 62
7
  6
CONTINUOUS
 10
8.5026491552
 20
5.9920511494
 11
8.4861445512
 21
6.0070532414
  0
LWPOLYLINE
  5
756
100
AcDbEntity
  8
0
100
AcDbPolyline
 62
7
  6
CONTINUOUS
 90
19
 70
0
 10
8.5075404812
 20
5.9921005407
 10
8.5077885432
 20
5.9918432198
 10
8.5088621866
 20
5.9848207601
 10
8.50993583
 20
5.9683858603
 10
8.5110094734
 20
5.9430048545
 10
8.5120831169
 20
5.9093979196
 10
8.5131567603
 20
5.86851864
 10
8.5142304037
 20
5.8215269505
 10
8.5153040471
 20
5.769756223
 10
8.5163776905
 20
5.7146754332
 10
8.5174513339
 20
5.6578474781
 10
8.5185249773
 20
5.6008848305
 10
8.5195986207
 20
5.5454037846
 10
8.5206722641
 20
5.4929785949
 10
8.5217459076
 20
5.445096807
 10
8.522819551
 20
5.4031170491
 10
8.5238931944
 20
5.3682304816
 10
8.5249668378
 20
5.3414269981
 10
8.5260404812
 20
5.3234671377
  0
LINE
  5
757
100
AcDbEntity
  8
0
100
AcDbLine
 62
7
  6
CONTINUOUS
 10
8.0861445512
 20
6.0070532414
 11
8.0860404778
 21
6.0071005407
  0
LINE
  5
758
100
AcDbEntity
  8
0
100
AcDbLine
 62
7
  6
CONTINUOUS
 10
8.1261445512
 20
6.0070532414
 11
8.1260404778
 21
6.0071005407
  0
LINE
  5
759
100
AcDbEntity
  8
0
100
AcDbLine
 62
7
  6
CONTINUOUS
 10
8.1661445512
 20
6.0070532414
 11
8.1660404784
 21
6.0071005407
  0
LINE
  5
75A
100
AcDbEntity
  8
0
100
AcDbLine
 62
7
  6
CONTINUOUS
 10
8.2061445512
 20
6.0070532414
 11
8.2060404812
 21
6.0071005407
  0
LINE
  5
75B
100
AcDbEntity
  8
0
100
AcDbLine
 62
7
  6
CONTINUOUS
 10
8.2461445512
 20
6.0070532414
 11
8.2460404778
 21
6.0071005407
  0
LINE
  5
75C
100
AcDbEntity
  8
0
100
AcDbLine
 62
7
  6
CONTINUOUS
 10
8.2861445512
 20
6.0070532414
 11
8.2860404778
 21
6.0071005407
  0
LINE
  5
75D
100
AcDbEntity
  8
0
100
AcDbLine
 62
7
  6
CONTINUOUS
 10
9.1610404812
 20
4.6781005407
 11
9.1321729677
 21
4.6281005407
  0
LINE
  5
75E
100
AcDbEntity
  8
0
100
AcDbLine
 62
7
  6
CONTINUOUS
 10
8.3261445512
 20
6.0070532414
 11
8.3260404784
 21
6.0071005407
  0
LINE
  5
75F
100
AcDbEntity
  8
0
100
AcDbLine
 62
7
  6
CONTINUOUS
 10
8.3661445512
 20
6.0070532414
 11
8.3660404812
 21
6.0071005407
  0
LINE
  5
760
100
AcDbEntity
  8
0
100
AcDbLine
 62
7
  6
CONTINUOUS
 10
8.4061445512
 20
6.0070532414
 11
8.4060404778
 21
6.0071005407
  0
LINE
  5
761
100
AcDbEntity
  8
0
100
AcDbLine
 62
7
  6
CONTINUOUS
 10
8.4461445512
 20
6.0070532414
 11
8.4460404778
 21
6.0071005407
  0
LINE
  5
762
100
AcDbEntity
  8
0
100
AcDbLine
 62
7
  6
CONTINUOUS
 10
8.4861445512
 20
6.0070532414
 11
8.4860404784
 21
6.0071005407
  0
LINE
  5
763
100
AcDbEntity
  8
0
100
AcDbLine
 62
7
  6
CONTINUOUS
 10
8.5635404812
 20
5.9918505407
 11
8.5260404812
 21
5.9918505407
  0
LINE
  5
764
100
AcDbEntity
  8
0
100
AcDbLine
 62
7
  6
CONTINUOUS
 10
8.5075404812
 20
5.9921005407
 11
8.5025404812
 21
5.9921005407
  0
LINE
  5
765
100
AcDbEntity
  8
0
100
AcDbLine
 62
7
  6
CONTINUOUS
 10
8.4675404812
 20
5.9921005407
 11
8.4625404812
 21
5.9921005407
  0
LINE
  5
766
100
AcDbEntity
  8
0
100
AcDbLine
 62
7
  6
CONTINUOUS
 10
8.4275404812
 20
5.9921005407
 11
8.4225404812
 21
5.9921005407
  0
LINE
  5
767
100
AcDbEntity
  8
0
100
AcDbLine
 62
7
  6
CONTINUOUS
 10
8.3475404812
 20
5.9921005407
 11
8.3425404812
 21
5.9921005407
  0
LINE
  5
768
100
AcDbEntity
  8
0
100
AcDbLine
 62
7
  6
CONTINUOUS
 10
8.3075404812
 20
5.9921005407
 11
8.3025404812
 21
5.9921005407
  0
LINE
  5
769
100
AcDbEntity
  8
0
100
AcDbLine
 62
7
  6
CONTINUOUS
 10
8.2675404812
 20
5.9921005407
 11
8.2625404812
 21
5.9921005407
  0
LINE
  5
76A
100
AcDbEntity
  8
0
100
AcDbLine
 62
7
  6
CONTINUOUS
 10
8.1875404812
 20
5.9921005407
 11
8.1825404812
 21
5.9921005407
  0
LINE
  5
76B
100
AcDbEntity
  8
0
100
AcDbLine
 62
7
  6
CONTINUOUS
 10
8.1475404812
 20
5.9921005407
 11
8.1425404812
 21
5.9921005407
  0
LINE
  5
76C
100
AcDbEntity
  8
0
100
AcDbLine
 62
7
  6
CONTINUOUS
 10
8.1075404812
 20
5.9921005407
 11
8.1025404812
 21
5.9921005407
  0
LINE
  5
76D
100
AcDbEntity
  8
0
100
AcDbLine
 62
7
  6
CONTINUOUS
 10
8.0275404812
 20
5.9921005407
 11
8.0225404812
 21
5.9921005407
  0
LINE
  5
76E
100
AcDbEntity
  8
0
100
AcDbLine
 62
7
  6
CONTINUOUS
 10
7.9875404812
 20
5.9921005407
 11
7.9860404812
 21
5.9921005407
  0
LINE
  5
76F
100
AcDbEntity
  8
0
100
AcDbLine
 62
7
  6
CONTINUOUS
 10
8.0625404812
 20
5.9921005407
 11
8.0675404812
 21
5.9921005407
  0
LINE
  5
770
100
AcDbEntity
  8
0
100
AcDbLine
 62
7
  6
CONTINUOUS
 10
8.2225404812
 20
5.9921005407
 11
8.2275404812
 21
5.9921005407
  0
LINE
  5
771
100
AcDbEntity
  8
0
100
AcDbLine
 62
7
  6
CONTINUOUS
 10
8.3825404812
 20
5.9921005407
 11
8.3875404812
 21
5.9921005407
  0
LINE
  5
772
100
AcDbEntity
  8
0
100
AcDbLine
 62
7
  6
CONTINUOUS
 10
8.5260404812
 20
6.0071005407
 11
8.5240404812
 21
6.0071005407
  0
LINE
  5
773
100
AcDbEntity
  8
0
100
AcDbLine
 62
7
  6
CONTINUOUS
 10
8.4860404812
 20
6.0071005407
 11
8.4840404812
 21
6.0071005407
  0
LINE
  5
774
100
AcDbEntity
  8
0
100
AcDbLine
 62
7
  6
CONTINUOUS
 10
8.4460404812
 20
6.0071005407
 11
8.4440404812
 21
6.0071005407
  0
LINE
  5
775
100
AcDbEntity
  8
0
100
AcDbLine
 62
7
  6
CONTINUOUS
 10
8.4060404812
 20
6.0071005407
 11
8.4040404812
 21
6.0071005407
  0
LINE
  5
776
100
AcDbEntity
  8
0
100
AcDbLine
 62
7
  6
CONTINUOUS
 10
8.3660404812
 20
6.0071005407
 11
8.3640404812
 21
6.0071005407
  0
LINE
  5
777
100
AcDbEntity
  8
0
100
AcDbLine
 62
7
  6
CONTINUOUS
 10
8.3260404812
 20
6.0071005407
 11
8.3240404812
 21
6.0071005407
  0
LINE
  5
778
100
AcDbEntity
  8
0
100
AcDbLine
 62
7
  6
CONTINUOUS
 10
8.2860404812
 20
6.0071005407
 11
8.2840404812
 21
6.0071005407
  0
LINE
  5
779
100
AcDbEntity
  8
0
100
AcDbLine
 62
7
  6
CONTINUOUS
 10
8.2460404812
 20
6.0071005407
 11
8.2440404812
 21
6.0071005407
  0
LINE
  5
77A
100
AcDbEntity
  8
0
100
AcDbLine
 62
7
  6
CONTINUOUS
 10
8.2060404812
 20
6.0071005407
 11
8.2040404812
 21
6.0071005407
  0
LINE
  5
77B
100
AcDbEntity
  8
0
100
AcDbLine
 62
7
  6
CONTINUOUS
 10
8.1660404812
 20
6.0071005407
 11
8.1640404812
 21
6.0071005407
  0
LINE
  5
77C
100
AcDbEntity
  8
0
100
AcDbLine
 62
7
  6
CONTINUOUS
 10
8.1260404812
 20
6.0071005407
 11
8.1240404812
 21
6.0071005407
  0
LINE
  5
77D
100
AcDbEntity
  8
0
100
AcDbLine
 62
7
  6
CONTINUOUS
 10
8.0860404812
 20
6.0071005407
 11
8.0840404812
 21
6.0071005407
  0
LINE
  5
77E
100
AcDbEntity
  8
0
100
AcDbLine
 62
7
  6
CONTINUOUS
 10
8.0460404812
 20
6.0071005407
 11
8.0440404812
 21
6.0071005407
  0
LINE
  5
77F
100
AcDbEntity
  8
0
100
AcDbLine
 62
7
  6
CONTINUOUS
 10
8.0060404812
 20
6.0071005407
 11
8.0040404812
 21
6.0071005407
  0
LINE
  5
780
100
AcDbEntity
  8
0
100
AcDbLine
 62
7
  6
CONTINUOUS
 10
9.0160404812
 20
6.2171005407
 11
9.0310404812
 21
6.2171005407
  0
LINE
  5
781
100
AcDbEntity
  8
0
100
AcDbLine
 62
7
  6
CONTINUOUS
 10
9.1110404812
 20
6.2441005407
 11
9.0310404812
 21
6.2441005407
  0
LINE
  5
782
100
AcDbEntity
  8
AXIS_COSMETIC_THREADS
100
AcDbLine
 62
7
  6
CONTINUOUS
 10
9.0310404812
 20
6.2441005407
 11
9.1110404812
 21
6.2441005407
  0
LINE
  5
783
100
AcDbEntity
  8
0
100
AcDbLine
 62
7
  6
CONTINUOUS
 10
9.0160404812
 20
6.2451005407
 11
8.6360404812
 21
6.2451005407
  0
LINE
  5
784
100
AcDbEntity
  8
AXIS
100
AcDbLine
 62
7
  6
CONTINUOUS
 10
12.3546285369
 20
3.9930611706
 11
12.1216285369
 21
3.9930611706
  0
LINE
  5
785
100
AcDbEntity
  8
0
100
AcDbLine
 62
7
  6
CONTINUOUS
 10
11.9769960503
 20
4.6281005407
 11
12.4992610234
 21
4.6281005407
  0
LINE
  5
786
100
AcDbEntity
  8
0
100
AcDbLine
 62
7
  6
CONTINUOUS
 10
11.9481285369
 20
4.6781005407
 11
12.5281285369
 21
4.6781005407
  0
LINE
  5
787
100
AcDbEntity
  8
0
100
AcDbLine
 62
7
  6
CONTINUOUS
 10
11.9769960503
 20
4.6281005407
 11
11.9481285369
 21
4.6781005407
  0
LINE
  5
788
100
AcDbEntity
  8
0
100
AcDbLine
 62
7
  6
CONTINUOUS
 10
11.9431285369
 20
4.7281005407
 11
12.5331285369
 21
4.7281005407
  0
LINE
  5
789
100
AcDbEntity
  8
0
100
AcDbLine
 62
7
  6
CONTINUOUS
 10
11.9431285369
 20
4.7281005407
 11
11.9431285369
 21
5.1062193836
  0
LINE
  5
78A
100
AcDbEntity
  8
0
100
AcDbLine
 62
7
  6
CONTINUOUS
 10
11.9481285369
 20
4.7281005407
 11
11.9481285369
 21
4.6781005407
  0
LINE
  5
78B
100
AcDbEntity
  8
0
100
AcDbLine
 62
7
  6
CONTINUOUS
 10
11.9812238853
 20
5.1164209342
 11
11.9812238853
 21
5.1197488743
  0
LINE
  5
78C
100
AcDbEntity
  8
AXIS
100
AcDbLine
 62
7
  6
CONTINUOUS
 10
12.1216285369
 20
4.6281005407
 11
12.1216285369
 21
3.9930611706
  0
LINE
  5
78D
100
AcDbEntity
  8
AXIS_COSMETIC_THREADS
100
AcDbLine
 62
7
  6
CONTINUOUS
 10
12.1216285369
 20
4.6281005407
 11
12.1216285369
 21
3.9930611706
  0
LINE
  5
78E
100
AcDbEntity
  8
0
100
AcDbLine
 62
7
  6
CONTINUOUS
 10
12.1461285369
 20
5.8081005407
 11
12.1461285369
 21
5.6831005407
  0
LWPOLYLINE
  5
78F
100
AcDbEntity
  8
0
100
AcDbPolyline
 62
9
  6
CONTINUOUS
 90
7
 70
0
 10
11.9812238853
 20
5.1197488743
 10
11.9716527798
 20
5.1144003861
 10
11.9624685467
 20
5.1104849704
 10
11.9544581886
 20
5.1080524281
 10
11.9482868814
 20
5.1068153529
 10
11.9444298094
 20
5.1063312992
 10
11.9431285369
 20
5.1062193836
  0
LWPOLYLINE
  5
790
100
AcDbEntity
  8
0
100
AcDbPolyline
 62
9
  6
CONTINUOUS
 90
82
 70
0
 10
12.2381285369
 20
5.0631005407
 10
12.253058459
 20
5.0634563077
 10
12.2683313727
 20
5.0645430718
 10
12.2839346656
 20
5.0663904194
 10
12.2998624315
 20
5.0690302406
 10
12.3161133291
 20
5.0724976929
 10
12.3326832021
 20
5.0768303276
 10
12.3495713139
 20
5.0820694557
 10
12.3667996233
 20
5.088268286
 10
12.3843850827
 20
5.0954853228
 10
12.4023691172
 20
5.1037970539
 10
12.4209272625
 20
5.1133630128
 10
12.4398135728
 20
5.1241291523
 10
12.458725865
 20
5.135946934
 10
12.4773993364
 20
5.1486187128
 10
12.4955957751
 20
5.1618987418
 10
12.5131218752
 20
5.1755162596
 10
12.5298960466
 20
5.1892731876
 10
12.546176793
 20
5.2033391315
 10
12.5620737938
 20
5.2178170962
 10
12.5775341356
 20
5.2326734354
 10
12.5925318779
 20
5.2478957102
 10
12.6070645888
 20
5.2634953369
 10
12.6211274372
 20
5.2794846735
 10
12.6347097718
 20
5.29587278
 10
12.6477901805
 20
5.3126576259
 10
12.6603465942
 20
5.3298365439
 10
12.672357914
 20
5.3474086159
 10
12.6838009804
 20
5.3653705942
 10
12.6946508997
 20
5.3837167786
 10
12.704881513
 20
5.4024391936
 10
12.7144658583
 20
5.4215279429
 10
12.723376136
 20
5.4409707199
 10
12.7315796994
 20
5.4607419726
 10
12.7390434135
 20
5.4808080743
 10
12.7457468956
 20
5.5011658329
 10
12.7516691085
 20
5.5218176331
 10
12.756782064
 20
5.5427499906
 10
12.7610367296
 20
5.5638388614
 10
12.7643931931
 20
5.5849005287
 10
12.7668535586
 20
5.6059065369
 10
12.7684291945
 20
5.6269880874
 10
12.7691036053
 20
5.6481759376
 10
12.7688753432
 20
5.6694923618
 10
12.7677792285
 20
5.6909316509
 10
12.7658081839
 20
5.7123894316
 10
12.7629692381
 20
5.7337432357
 10
12.7592719765
 20
5.7549362587
 10
12.7547184555
 20
5.7759657372
 10
12.749316254
 20
5.7967950699
 10
12.7430746886
 20
5.8173880445
 10
12.7360043145
 20
5.837710156
 10
12.7281166266
 20
5.8577286716
 10
12.7194243416
 20
5.8774113705
 10
12.7099417051
 20
5.8967259382
 10
12.6996843636
 20
5.9156404783
 10
12.6886691593
 20
5.9341239338
 10
12.6769141789
 20
5.9521459559
 10
12.6644387235
 20
5.9696769528
 10
12.6512632778
 20
5.986688139
 10
12.6374094757
 20
6.0031515824
 10
12.6229000647
 20
6.0190402506
 10
12.607758869
 20
6.0343280548
 10
12.5920107499
 20
6.0489898929
 10
12.5756815657
 20
6.0630016905
 10
12.5587981284
 20
6.0763404407
 10
12.5413881602
 20
6.0889842416
 10
12.5234802478
 20
6.1009123325
 10
12.5051037957
 20
6.1121051278
 10
12.4862889774
 20
6.1225442493
 10
12.4670666865
 20
6.1322125562
 10
12.4474684855
 20
6.1410941735
 10
12.4275265541
 20
6.1491745178
 10
12.4072736365
 20
6.1564403215
 10
12.3867429874
 20
6.1628796544
 10
12.3659683176
 20
6.1684819432
 10
12.3449837387
 20
6.1732379893
 10
12.3238237066
 20
6.1771399832
 10
12.3025229659
 20
6.1801815187
 10
12.2811164913
 20
6.1823575996
 10
12.2596394323
 20
6.183664658
 10
12.2381285369
 20
6.1841005407
  0
LINE
  5
791
100
AcDbEntity
  8
0
100
AcDbLine
 62
7
  6
CONTINUOUS
 10
12.3311285369
 20
5.6831005407
 11
12.3311285369
 21
5.8081005407
  0
LWPOLYLINE
  5
792
100
AcDbEntity
  8
0
100
AcDbPolyline
 62
9
  6
CONTINUOUS
 90
6
 70
0
 10
12.5331285369
 20
5.1062193836
 10
12.531827136
 20
5.1063313037
 10
12.5279697799
 20
5.1068153792
 10
12.5217982033
 20
5.1080524909
 10
12.5137877633
 20
5.1104850454
 10
12.5046037552
 20
5.1144004207
  0
LINE
  5
793
100
AcDbEntity
  8
AXIS
100
AcDbLine
 62
7
  6
CONTINUOUS
 10
12.3546285369
 20
4.6281005407
 11
12.3546285369
 21
3.9930611706
  0
LINE
  5
794
100
AcDbEntity
  8
AXIS_COSMETIC_THREADS
100
AcDbLine
 62
7
  6
CONTINUOUS
 10
12.3546285369
 20
4.6281005407
 11
12.3546285369
 21
3.9930611706
  0
LINE
  5
795
100
AcDbEntity
  8
0
100
AcDbLine
 62
9
  6
CONTINUOUS
 10
12.5046037552
 20
5.1144004207
 11
12.4950331884
 21
5.1197488743
  0
LINE
  5
796
100
AcDbEntity
  8
0
100
AcDbLine
 62
7
  6
CONTINUOUS
 10
12.4950331884
 20
5.1164209342
 11
12.4950331884
 21
5.1197488743
  0
LINE
  5
797
100
AcDbEntity
  8
0
100
AcDbLine
 62
7
  6
CONTINUOUS
 10
12.5281285369
 20
4.7281005407
 11
12.5281285369
 21
4.6781005407
  0
LINE
  5
798
100
AcDbEntity
  8
0
100
AcDbLine
 62
7
  6
CONTINUOUS
 10
12.5331285369
 20
4.7281005407
 11
12.5331285369
 21
5.1062193836
  0
LINE
  5
799
100
AcDbEntity
  8
0
100
AcDbLine
 62
7
  6
CONTINUOUS
 10
12.5281285369
 20
4.6781005407
 11
12.4992610234
 21
4.6281005407
  0
LINE
  5
79A
100
AcDbEntity
  8
0
100
AcDbLine
 62
7
  6
CONTINUOUS
 10
12.1761285369
 20
5.6531005407
 11
12.3011285369
 21
5.6531005407
  0
LINE
  5
79B
100
AcDbEntity
  8
0
100
AcDbLine
 62
7
  6
CONTINUOUS
 10
12.3011285369
 20
5.8381005407
 11
12.1761285369
 21
5.8381005407
  0
LWPOLYLINE
  5
79C
100
AcDbEntity
  8
0
100
AcDbPolyline
 62
9
  6
CONTINUOUS
 90
82
 70
0
 10
12.2381285369
 20
6.1841005407
 10
12.2166175439
 20
6.1836646529
 10
12.1951418668
 20
6.1823577052
 10
12.1737367637
 20
6.1801818433
 10
12.1524373764
 20
6.1771406393
 10
12.1312786737
 20
6.1732390864
 10
12.110295393
 20
6.1684835898
 10
12.0895219839
 20
6.162881957
 10
12.0689925513
 20
6.1564433845
 10
12.0487407998
 20
6.1491784429
 10
12.0287999778
 20
6.1410990595
 10
12.0092028234
 20
6.1322184987
 10
11.9899815106
 20
6.1225513404
 10
11.9711675961
 20
6.1121134556
 10
11.9527919679
 20
6.100921981
 10
11.9348847944
 20
6.0889952902
 10
11.9174754749
 20
6.076352964
 10
11.9005925913
 20
6.0630157581
 10
11.8842638614
 20
6.049005569
 10
11.8685160931
 20
6.0343453982
 10
11.8533751404
 20
6.0190593141
 10
11.8388658611
 20
6.0031724129
 10
11.8250120759
 20
5.9867107768
 10
11.8118365299
 20
5.9697014327
 10
11.7993608542
 20
5.9521723057
 10
11.78760553
 20
5.9341521735
 10
11.7765898564
 20
5.9156706198
 10
11.766331919
 20
5.8967579875
 10
11.7568485616
 20
5.877445332
 10
11.7481553514
 20
5.8577643566
 10
11.7402665431
 20
5.8377473255
 10
11.7331951095
 20
5.817427148
 10
11.7269526847
 20
5.7968372728
 10
11.7215495221
 20
5.7760115714
 10
11.7169944375
 20
5.754984055
 10
11.7132948612
 20
5.7337889098
 10
11.7104579111
 20
5.7124698146
 10
11.7084901108
 20
5.6911023519
 10
11.7073893211
 20
5.6697403988
 10
11.707150984
 20
5.6484342539
 10
11.7078159628
 20
5.6272122182
 10
11.7093892034
 20
5.6060557795
 10
11.7118586234
 20
5.5849385857
 10
11.715221983
 20
5.5638297802
 10
11.7194712789
 20
5.5427667192
 10
11.7245777109
 20
5.5218562509
 10
11.7305007918
 20
5.5011963041
 10
11.7372069946
 20
5.480827085
 10
11.7446718611
 20
5.4607559855
 10
11.7528731178
 20
5.4409886314
 10
11.7617817218
 20
5.4215477143
 10
11.7713647145
 20
5.4024598833
 10
11.7815940041
 20
5.3837381716
 10
11.7924425085
 20
5.3653927128
 10
11.8038841381
 20
5.3474313676
 10
11.8158940904
 20
5.3298597202
 10
11.8284490952
 20
5.3126811989
 10
11.8415277037
 20
5.2958971578
 10
11.8551087969
 20
5.2795090747
 10
11.8691716336
 20
5.2635183666
 10
11.8837033807
 20
5.2479184749
 10
11.898697779
 20
5.23269828
 10
11.9141512739
 20
5.2178470279
 10
11.9300447528
 20
5.2033706614
 10
11.9463335939
 20
5.1892962049
 10
11.9630958152
 20
5.1755480193
 10
11.9806158106
 20
5.1619329312
 10
11.9988214457
 20
5.148644345
 10
12.0175109081
 20
5.1359601534
 10
12.0364391038
 20
5.1241317908
 10
12.0553357063
 20
5.1133598161
 10
12.0739019399
 20
5.1037902301
 10
12.091883816
 20
5.095480171
 10
12.109468217
 20
5.088264146
 10
12.1266947826
 20
5.0820664376
 10
12.1435816111
 20
5.0768281185
 10
12.1601509251
 20
5.0724959904
 10
12.1764002996
 20
5.0690291681
 10
12.1923268805
 20
5.0663897855
 10
12.207929539
 20
5.0645426991
 10
12.2232010643
 20
5.0634562107
 10
12.2381285369
 20
5.0631005407
  0
LINE
  5
79D
100
AcDbEntity
  8
0
100
AcDbLine
 62
7
  6
CONTINUOUS
 10
4.9504822525
 20
7.956622483
 11
4.9554839155
 21
7.9576939119
  0
LINE
  5
79E
100
AcDbEntity
  8
0
100
AcDbLine
 62
7
  6
CONTINUOUS
 10
4.2475312148
 20
7.9355898419
 11
4.254708354
 21
7.9276939119
  0
LINE
  5
79F
100
AcDbEntity
  8
0
100
AcDbLine
 62
7
  6
CONTINUOUS
 10
4.2475312148
 20
7.9755898419
 11
4.2625333068
 21
7.9590852379
  0
LINE
  5
7A0
100
AcDbEntity
  8
0
100
AcDbLine
 62
7
  6
CONTINUOUS
 10
4.0094839155
 20
8.9576939119
 11
4.0094839155
 21
8.5776939119
  0
LINE
  5
7A1
100
AcDbEntity
  8
AXIS_COSMETIC_THREADS
100
AcDbLine
 62
7
  6
CONTINUOUS
 10
4.0104839155
 20
8.9726939119
 11
4.0104839155
 21
9.0526922879
  0
LINE
  5
7A2
100
AcDbEntity
  8
0
100
AcDbLine
 62
7
  6
CONTINUOUS
 10
4.0374839155
 20
8.9576939119
 11
4.0374839155
 21
8.9726939119
  0
LINE
  5
7A3
100
AcDbEntity
  8
0
100
AcDbLine
 62
7
  6
CONTINUOUS
 10
4.9554839155
 20
7.9976939119
 11
4.9511796986
 21
7.9967001518
  0
LINE
  5
7A4
100
AcDbEntity
  8
0
100
AcDbLine
 62
7
  6
CONTINUOUS
 10
4.9354480163
 20
7.9780952277
 11
4.9404345242
 21
7.9790852379
  0
LWPOLYLINE
  5
7A5
100
AcDbEntity
  8
0
100
AcDbPolyline
 62
7
  6
CONTINUOUS
 90
19
 70
0
 10
4.9554366162
 20
7.9555898419
 10
4.9504308732
 20
7.9546169809
 10
4.9354151917
 20
7.9535400059
 10
4.9108657575
 20
7.9524630376
 10
4.8774849588
 20
7.951386114
 10
4.8362250428
 20
7.9503091934
 10
4.7882637339
 20
7.9492322713
 10
4.7349694657
 20
7.9481553334
 10
4.6778644388
 20
7.9470783969
 10
4.6185768908
 20
7.9460014249
 10
4.5588004782
 20
7.9449244375
 10
4.5002436687
 20
7.9438474676
 10
4.4445785621
 20
7.9427705231
 10
4.3933926399
 20
7.9416935719
 10
4.3481477404
 20
7.9406166247
 10
4.3101351645
 20
7.9395396712
 10
4.2804401185
 20
7.9384627043
 10
4.2599105962
 20
7.9373857148
 10
4.2491334762
 20
7.9363087297
  0
LWPOLYLINE
  5
7A6
100
AcDbEntity
  8
0
100
AcDbPolyline
 62
7
  6
CONTINUOUS
 90
7
 70
0
 10
4.7786109289
 20
7.9276939119
 10
4.8247671019
 20
7.9287713767
 10
4.8645426237
 20
7.9298488415
 10
4.8968008491
 20
7.9309263063
 10
4.920619951
 20
7.9320037711
 10
4.935319263
 20
7.9330812359
 10
4.9404839155
 20
7.9341939119
  0
LWPOLYLINE
  5
7A7
100
AcDbEntity
  8
0
100
AcDbPolyline
 62
7
  6
CONTINUOUS
 90
12
 70
0
 10
4.5223459371
 20
7.9276939119
 10
4.5787296565
 20
7.9287662804
 10
4.6357574907
 20
7.9298386488
 10
4.6918151276
 20
7.9309110172
 10
4.7453157189
 20
7.9319833856
 10
4.7947447997
 20
7.9330557541
 10
4.8387031591
 20
7.9341281225
 10
4.8759464483
 20
7.9352004909
 10
4.905420405
 20
7.9362728593
 10
4.926290697
 20
7.9373452277
 10
4.9379665396
 20
7.9384175962
 10
4.9404345242
 20
7.9390852379
  0
LINE
  5
7A8
100
AcDbEntity
  8
0
100
AcDbLine
 62
7
  6
CONTINUOUS
 10
4.9464357367
 20
7.9276939119
 11
4.2547120045
 21
7.9276939119
  0
LINE
  5
7A9
100
AcDbEntity
  8
0
100
AcDbLine
 62
7
  6
CONTINUOUS
 10
4.2475312148
 20
8.0155898419
 11
4.2625333068
 21
7.9990852379
  0
LINE
  5
7AA
100
AcDbEntity
  8
0
100
AcDbLine
 62
7
  6
CONTINUOUS
 10
4.2475312148
 20
8.0555898419
 11
4.2625333068
 21
8.0390852379
  0
LINE
  5
7AB
100
AcDbEntity
  8
0
100
AcDbLine
 62
7
  6
CONTINUOUS
 10
4.2474839155
 20
7.935693905
 11
4.2475312148
 21
7.9355898419
  0
LINE
  5
7AC
100
AcDbEntity
  8
0
100
AcDbLine
 62
7
  6
CONTINUOUS
 10
4.9554839155
 20
8.0376939119
 11
4.950696241
 21
8.0366457063
  0
LWPOLYLINE
  5
7AD
100
AcDbEntity
  8
0
100
AcDbPolyline
 62
7
  6
CONTINUOUS
 90
20
 70
0
 10
4.2632808927
 20
7.9546305317
 10
4.2720264031
 20
7.9557079965
 10
4.290186655
 20
7.9567854612
 10
4.3172426921
 20
7.957862926
 10
4.3524213477
 20
7.9589403908
 10
4.394717339
 20
7.9600178556
 10
4.4429219947
 20
7.9610953204
 10
4.4956577947
 20
7.9621727852
 10
4.5514177345
 20
7.96325025
 10
4.6086083903
 20
7.9643277148
 10
4.6655954536
 20
7.9654051796
 10
4.7207504338
 20
7.9664826443
 10
4.7724971946
 20
7.9675601091
 10
4.819356995
 20
7.9686375739
 10
4.859990746
 20
7.9697150387
 10
4.8932372774
 20
7.9707925035
 10
4.9181465197
 20
7.9718699683
 10
4.9340066541
 20
7.9729474331
 10
4.9403644535
 20
7.9740248979
 10
4.9404839155
 20
7.9741939119
  0
LWPOLYLINE
  5
7AE
100
AcDbEntity
  8
0
100
AcDbPolyline
 62
7
  6
CONTINUOUS
 90
18
 70
0
 10
4.2497058839
 20
7.9384075695
 10
4.2613104005
 20
7.9394790556
 10
4.2825285679
 20
7.9405505421
 10
4.3127598584
 20
7.9416220014
 10
4.3511506604
 20
7.942693468
 10
4.3966167771
 20
7.9437649546
 10
4.4478722238
 20
7.9448364328
 10
4.5034671074
 20
7.9459078788
 10
4.561833113
 20
7.9469793479
 10
4.6213206302
 20
7.9480508346
 10
4.6802465957
 20
7.9491223039
 10
4.7369450695
 20
7.950193741
 10
4.7898172222
 20
7.9512652121
 10
4.837367549
 20
7.9523366954
 10
4.8782506029
 20
7.9534081499
 10
4.9113113773
 20
7.9544795656
 10
4.935617942
 20
7.9555510182
 10
4.9504822525
 20
7.956622483
  0
LWPOLYLINE
  5
7AF
100
AcDbEntity
  8
0
100
AcDbPolyline
 62
7
  6
CONTINUOUS
 90
9
 70
0
 10
4.9511796986
 20
7.9967001518
 10
4.9383814259
 20
7.9957069602
 10
4.9172835311
 20
7.9947091313
 10
4.8885095525
 20
7.9937133388
 10
4.8525092118
 20
7.992711982
 10
4.8097529867
 20
7.9916982052
 10
4.761741002
 20
7.9906847207
 10
4.7103688553
 20
7.9896843259
 10
4.6565868929
 20
7.9886889083
  0
LWPOLYLINE
  5
7B0
100
AcDbEntity
  8
0
100
AcDbPolyline
 62
7
  6
CONTINUOUS
 90
19
 70
0
 10
4.2522708305
 20
7.9767420342
 10
4.2667294403
 20
7.9778027627
 10
4.2904038607
 20
7.9788613776
 10
4.3221586826
 20
7.9799053314
 10
4.3617073368
 20
7.9809566078
 10
4.408229391
 20
7.9820175417
 10
4.4598560481
 20
7.9830735675
 10
4.5146091972
 20
7.9841154681
 10
4.572380974
 20
7.9851699447
 10
4.6313455345
 20
7.9862315706
 10
4.6890888661
 20
7.9872859059
 10
4.7438325406
 20
7.9883284063
 10
4.7954365499
 20
7.9893852782
 10
4.8418915702
 20
7.9904466601
 10
4.8813385189
 20
7.9914980135
 10
4.9128491397
 20
7.9925372083
 10
4.9363270592
 20
7.9935899696
 10
4.9507085729
 20
7.9946470602
 10
4.9554366162
 20
7.9955898419
  0
LWPOLYLINE
  5
7B1
100
AcDbEntity
  8
0
100
AcDbPolyline
 62
7
  6
CONTINUOUS
 90
11
 70
0
 10
4.5443824443
 20
8.0031164472
 10
4.6587751936
 20
8.005274993
 10
4.7144183059
 20
8.0063560741
 10
4.7668125014
 20
8.0074371552
 10
4.8144504946
 20
8.0085182363
 10
4.855961827
 20
8.0095993174
 10
4.8901522932
 20
8.0106803984
 10
4.9160382957
 20
8.0117614795
 10
4.9328751415
 20
8.0128425606
 10
4.940178465
 20
8.0139236417
 10
4.9404839155
 20
8.0141939119
  0
LWPOLYLINE
  5
7B2
100
AcDbEntity
  8
0
100
AcDbPolyline
 62
7
  6
CONTINUOUS
 90
11
 70
0
 10
4.6565868929
 20
7.9886889083
 10
4.5463735957
 20
7.9866987819
 10
4.4925732533
 20
7.9857030118
 10
4.4412100584
 20
7.9847027649
 10
4.3931981809
 20
7.9836892481
 10
4.3504456141
 20
7.9826755102
 10
4.3144446893
 20
7.9816740676
 10
4.2856800094
 20
7.9806785218
 10
4.2645886607
 20
7.9796809958
 10
4.2517891054
 20
7.9786877847
 10
4.2475312148
 20
7.977797982
  0
LINE
  5
7B3
100
AcDbEntity
  8
0
100
AcDbLine
 62
7
  6
CONTINUOUS
 10
4.2475312148
 20
8.0955898419
 11
4.2625333068
 21
8.0790852379
  0
LINE
  5
7B4
100
AcDbEntity
  8
0
100
AcDbLine
 62
7
  6
CONTINUOUS
 10
4.2475312148
 20
8.1355898419
 11
4.2625333068
 21
8.1190852379
  0
LINE
  5
7B5
100
AcDbEntity
  8
0
100
AcDbLine
 62
7
  6
CONTINUOUS
 10
4.2475312148
 20
7.937797982
 11
4.2497058839
 21
7.9384075695
  0
LINE
  5
7B6
100
AcDbEntity
  8
0
100
AcDbLine
 62
7
  6
CONTINUOUS
 10
4.9554839155
 20
8.1176939119
 11
4.9507085729
 21
8.1166470602
  0
LINE
  5
7B7
100
AcDbEntity
  8
0
100
AcDbLine
 62
7
  6
CONTINUOUS
 10
4.2474839155
 20
7.9756939119
 11
4.2522708305
 21
7.9767420342
  0
LINE
  5
7B8
100
AcDbEntity
  8
0
100
AcDbLine
 62
7
  6
CONTINUOUS
 10
4.9554839155
 20
8.0776939119
 11
4.9506563214
 21
8.0766413355
  0
LWPOLYLINE
  5
7B9
100
AcDbEntity
  8
0
100
AcDbPolyline
 62
7
  6
CONTINUOUS
 90
3
 70
0
 10
4.9328751415
 20
8.0578425606
 10
4.940178465
 20
8.0589236417
 10
4.9404345242
 20
8.0590852379
  0
LWPOLYLINE
  5
7BA
100
AcDbEntity
  8
0
100
AcDbPolyline
 62
7
  6
CONTINUOUS
 90
3
 70
0
 10
4.9328751415
 20
8.0978425606
 10
4.940178465
 20
8.0989236417
 10
4.9404345242
 20
8.0990852379
  0
LWPOLYLINE
  5
7BB
100
AcDbEntity
  8
0
100
AcDbPolyline
 62
7
  6
CONTINUOUS
 90
10
 70
0
 10
4.2517891054
 20
8.0166877847
 10
4.2645886607
 20
8.0176809958
 10
4.2856800094
 20
8.0186785218
 10
4.3144446893
 20
8.0196740676
 10
4.3504456141
 20
8.0206755102
 10
4.3931981809
 20
8.0216892481
 10
4.4412100584
 20
8.0227027649
 10
4.4925732533
 20
8.0237030118
 10
4.5463735957
 20
8.0246987819
 10
4.6565868929
 20
8.0266889083
  0
LWPOLYLINE
  5
7BC
100
AcDbEntity
  8
0
100
AcDbPolyline
 62
7
  6
CONTINUOUS
 90
19
 70
0
 10
4.950696241
 20
8.0366457063
 10
4.9362362006
 20
8.0355849401
 10
4.9125618371
 20
8.0345263659
 10
4.8808067238
 20
8.0334824215
 10
4.8412625642
 20
8.0324312667
 10
4.7947592581
 20
8.0313707291
 10
4.7431693201
 20
8.0303153854
 10
4.688443044
 20
8.0292739217
 10
4.6306712269
 20
8.0282194017
 10
4.5717059906
 20
8.0271577638
 10
4.5139611576
 20
8.0261034435
 10
4.4592124997
 20
8.025060934
 10
4.4075996021
 20
8.0240040143
 10
4.3611360776
 20
8.0229426292
 10
4.3216801246
 20
8.0218913023
 10
4.2901483203
 20
8.0208517354
 10
4.2666491046
 20
8.0197983161
 10
4.2522600683
 20
8.0187408527
 10
4.2475312148
 20
8.017797982
  0
LWPOLYLINE
  5
7BD
100
AcDbEntity
  8
0
100
AcDbPolyline
 62
7
  6
CONTINUOUS
 90
19
 70
0
 10
4.9506563214
 20
8.0766413355
 10
4.9360769715
 20
8.0755761537
 10
4.9122143527
 20
8.0745132976
 10
4.8802365228
 20
8.0734657578
 10
4.8408424779
 20
8.0724210052
 10
4.7950899859
 20
8.0713778308
 10
4.7439223917
 20
8.0703301712
 10
4.6890698748
 20
8.0692855534
 10
4.6310811561
 20
8.0682267992
 10
4.5718727205
 20
8.0671607728
 10
4.5138874587
 20
8.0661020757
 10
4.4590393102
 20
8.0650575323
 10
4.4078845269
 20
8.0640101366
 10
4.3621331328
 20
8.0629670086
 10
4.3227315732
 20
8.0619220739
 10
4.2907523089
 20
8.0608744824
 10
4.2668891123
 20
8.059811574
 10
4.2523108588
 20
8.0587464173
 10
4.2475312148
 20
8.057797982
  0
LWPOLYLINE
  5
7BE
100
AcDbEntity
  8
0
100
AcDbPolyline
 62
7
  6
CONTINUOUS
 90
11
 70
0
 10
4.5446499665
 20
8.0081215435
 10
4.6587751936
 20
8.010274993
 10
4.7144183059
 20
8.0113560741
 10
4.7668125014
 20
8.0124371552
 10
4.8144504946
 20
8.0135182363
 10
4.855961827
 20
8.0145993174
 10
4.8901522932
 20
8.0156803984
 10
4.9160382957
 20
8.0167614795
 10
4.9328751415
 20
8.0178425606
 10
4.940178465
 20
8.0189236417
 10
4.9404345242
 20
8.0190852379
  0
LWPOLYLINE
  5
7BF
100
AcDbEntity
  8
0
100
AcDbPolyline
 62
7
  6
CONTINUOUS
 90
11
 70
0
 10
4.5441926374
 20
8.0431128309
 10
4.6587751936
 20
8.045274993
 10
4.7144183059
 20
8.0463560741
 10
4.7668125014
 20
8.0474371552
 10
4.8144504946
 20
8.0485182363
 10
4.855961827
 20
8.0495993174
 10
4.8901522932
 20
8.0506803984
 10
4.9160382957
 20
8.0517614795
 10
4.9328751415
 20
8.0528425606
 10
4.940178465
 20
8.0539236417
 10
4.9404839155
 20
8.0541939119
  0
LWPOLYLINE
  5
7C0
100
AcDbEntity
  8
0
100
AcDbPolyline
 62
7
  6
CONTINUOUS
 90
9
 70
0
 10
4.5441926374
 20
8.0481128309
 10
4.6587751936
 20
8.050274993
 10
4.7144183059
 20
8.0513560741
 10
4.7668125014
 20
8.0524371552
 10
4.8144504946
 20
8.0535182363
 10
4.855961827
 20
8.0545993174
 10
4.8901522932
 20
8.0556803984
 10
4.9160382957
 20
8.0567614795
 10
4.9328751415
 20
8.0578425606
  0
LWPOLYLINE
  5
7C1
100
AcDbEntity
  8
0
100
AcDbPolyline
 62
7
  6
CONTINUOUS
 90
10
 70
0
 10
4.6565868929
 20
8.0266889083
 10
4.7103688553
 20
8.0276843259
 10
4.761741002
 20
8.0286847207
 10
4.8097529867
 20
8.0296982052
 10
4.8525092118
 20
8.030711982
 10
4.8885095525
 20
8.0317133388
 10
4.9172835311
 20
8.0327091313
 10
4.9383814259
 20
8.0337069602
 10
4.9511796986
 20
8.0347001518
 10
4.9554366162
 20
8.0355898419
  0
LINE
  5
7C2
100
AcDbEntity
  8
0
100
AcDbLine
 62
7
  6
CONTINUOUS
 10
4.2475312148
 20
8.1755898419
 11
4.2625333068
 21
8.1590852379
  0
LINE
  5
7C3
100
AcDbEntity
  8
0
100
AcDbLine
 62
7
  6
CONTINUOUS
 10
4.2475312148
 20
8.2155898419
 11
4.2625333068
 21
8.1990852379
  0
LINE
  5
7C4
100
AcDbEntity
  8
0
100
AcDbLine
 62
7
  6
CONTINUOUS
 10
4.9554839155
 20
8.1576939119
 11
4.9511796986
 21
8.1567001518
  0
LINE
  5
7C5
100
AcDbEntity
  8
0
100
AcDbLine
 62
7
  6
CONTINUOUS
 10
4.2474839155
 20
8.0156939119
 11
4.2517891054
 21
8.0166877847
  0
LWPOLYLINE
  5
7C6
100
AcDbEntity
  8
0
100
AcDbPolyline
 62
7
  6
CONTINUOUS
 90
9
 70
0
 10
4.2627893659
 20
8.0344641822
 10
4.2700926895
 20
8.0355452633
 10
4.2869295352
 20
8.0366263444
 10
4.3128155378
 20
8.0377074255
 10
4.347006004
 20
8.0387885065
 10
4.3885173364
 20
8.0398695876
 10
4.4361553295
 20
8.0409506687
 10
4.4885495251
 20
8.0420317498
 10
4.5441926374
 20
8.0431128309
  0
LWPOLYLINE
  5
7C7
100
AcDbEntity
  8
0
100
AcDbPolyline
 62
7
  6
CONTINUOUS
 90
3
 70
0
 10
4.9328751415
 20
8.1378425606
 10
4.940178465
 20
8.1389236417
 10
4.9404345242
 20
8.1390852379
  0
LWPOLYLINE
  5
7C8
100
AcDbEntity
  8
0
100
AcDbPolyline
 62
7
  6
CONTINUOUS
 90
19
 70
0
 10
4.2522600683
 20
8.0567408527
 10
4.2666491046
 20
8.0577983161
 10
4.2901483203
 20
8.0588517354
 10
4.3216801246
 20
8.0598913023
 10
4.3611360776
 20
8.0609426292
 10
4.4075996021
 20
8.0620040143
 10
4.4592124997
 20
8.063060934
 10
4.5139611576
 20
8.0641034435
 10
4.5717059906
 20
8.0651577638
 10
4.6306712269
 20
8.0662194017
 10
4.688443044
 20
8.0672739217
 10
4.7431693201
 20
8.0683153854
 10
4.7947592581
 20
8.0693707291
 10
4.8412625642
 20
8.0704312667
 10
4.8808067238
 20
8.0714824215
 10
4.9125618371
 20
8.0725263659
 10
4.9362362006
 20
8.0735849401
 10
4.950696241
 20
8.0746457063
 10
4.9554366162
 20
8.0755898419
  0
LWPOLYLINE
  5
7C9
100
AcDbEntity
  8
0
100
AcDbPolyline
 62
7
  6
CONTINUOUS
 90
19
 70
0
 10
4.9507085729
 20
8.1166470602
 10
4.9363270592
 20
8.1155899696
 10
4.9128491397
 20
8.1145372083
 10
4.8813385189
 20
8.1134980135
 10
4.8418915702
 20
8.1124466601
 10
4.7954365499
 20
8.1113852782
 10
4.7438325406
 20
8.1103284063
 10
4.6890888661
 20
8.1092859059
 10
4.6313455345
 20
8.1082315706
 10
4.572380974
 20
8.1071699447
 10
4.5146091972
 20
8.1061154681
 10
4.4598560481
 20
8.1050735675
 10
4.408229391
 20
8.1040175417
 10
4.3617073368
 20
8.1029566078
 10
4.3221586826
 20
8.1019053314
 10
4.2904038607
 20
8.1008613776
 10
4.2667294403
 20
8.0998027627
 10
4.2522708305
 20
8.0987420342
 10
4.2475312148
 20
8.097797982
  0
LWPOLYLINE
  5
7CA
100
AcDbEntity
  8
0
100
AcDbPolyline
 62
7
  6
CONTINUOUS
 90
11
 70
0
 10
4.5441926374
 20
8.0831128309
 10
4.6587751936
 20
8.085274993
 10
4.7144183059
 20
8.0863560741
 10
4.7668125014
 20
8.0874371552
 10
4.8144504946
 20
8.0885182363
 10
4.855961827
 20
8.0895993174
 10
4.8901522932
 20
8.0906803984
 10
4.9160382957
 20
8.0917614795
 10
4.9328751415
 20
8.0928425606
 10
4.940178465
 20
8.0939236417
 10
4.9404839155
 20
8.0941939119
  0
LWPOLYLINE
  5
7CB
100
AcDbEntity
  8
0
100
AcDbPolyline
 62
7
  6
CONTINUOUS
 90
9
 70
0
 10
4.5441926374
 20
8.0881128309
 10
4.6587751936
 20
8.090274993
 10
4.7144183059
 20
8.0913560741
 10
4.7668125014
 20
8.0924371552
 10
4.8144504946
 20
8.0935182363
 10
4.855961827
 20
8.0945993174
 10
4.8901522932
 20
8.0956803984
 10
4.9160382957
 20
8.0967614795
 10
4.9328751415
 20
8.0978425606
  0
LINE
  5
7CC
100
AcDbEntity
  8
0
100
AcDbLine
 62
7
  6
CONTINUOUS
 10
4.2475312148
 20
8.2555898419
 11
4.2625333068
 21
8.2390852379
  0
LINE
  5
7CD
100
AcDbEntity
  8
0
100
AcDbLine
 62
7
  6
CONTINUOUS
 10
4.2475312148
 20
8.2955898419
 11
4.2625333068
 21
8.2790852379
  0
LINE
  5
7CE
100
AcDbEntity
  8
0
100
AcDbLine
 62
7
  6
CONTINUOUS
 10
4.2474839155
 20
8.4576939119
 11
4.2474839155
 21
8.4556939119
  0
LINE
  5
7CF
100
AcDbEntity
  8
0
100
AcDbLine
 62
7
  6
CONTINUOUS
 10
4.2474839155
 20
8.4176939119
 11
4.2474839155
 21
8.4156939119
  0
LINE
  5
7D0
100
AcDbEntity
  8
0
100
AcDbLine
 62
7
  6
CONTINUOUS
 10
4.2474839155
 20
8.3776939119
 11
4.2474839155
 21
8.3756939119
  0
LINE
  5
7D1
100
AcDbEntity
  8
0
100
AcDbLine
 62
7
  6
CONTINUOUS
 10
4.2474839155
 20
8.3376939119
 11
4.2474839155
 21
8.3356939119
  0
LINE
  5
7D2
100
AcDbEntity
  8
0
100
AcDbLine
 62
7
  6
CONTINUOUS
 10
4.2474839155
 20
8.2976939119
 11
4.2474839155
 21
8.2956939119
  0
LINE
  5
7D3
100
AcDbEntity
  8
0
100
AcDbLine
 62
7
  6
CONTINUOUS
 10
4.2474839155
 20
8.2576939119
 11
4.2474839155
 21
8.2556939119
  0
LINE
  5
7D4
100
AcDbEntity
  8
0
100
AcDbLine
 62
7
  6
CONTINUOUS
 10
4.2474839155
 20
8.2176939119
 11
4.2474839155
 21
8.2156939119
  0
LINE
  5
7D5
100
AcDbEntity
  8
0
100
AcDbLine
 62
7
  6
CONTINUOUS
 10
4.2474839155
 20
8.1776939119
 11
4.2474839155
 21
8.1756939119
  0
LINE
  5
7D6
100
AcDbEntity
  8
0
100
AcDbLine
 62
7
  6
CONTINUOUS
 10
4.2474839155
 20
8.1376939119
 11
4.2474839155
 21
8.1356939119
  0
LINE
  5
7D7
100
AcDbEntity
  8
0
100
AcDbLine
 62
7
  6
CONTINUOUS
 10
4.2474839155
 20
8.0976939119
 11
4.2474839155
 21
8.0956939119
  0
LINE
  5
7D8
100
AcDbEntity
  8
0
100
AcDbLine
 62
7
  6
CONTINUOUS
 10
4.2474839155
 20
8.0576939119
 11
4.2474839155
 21
8.0556939119
  0
LINE
  5
7D9
100
AcDbEntity
  8
0
100
AcDbLine
 62
7
  6
CONTINUOUS
 10
4.2474839155
 20
8.0176939119
 11
4.2474839155
 21
8.0156939119
  0
LINE
  5
7DA
100
AcDbEntity
  8
0
100
AcDbLine
 62
7
  6
CONTINUOUS
 10
4.2474839155
 20
7.9776939119
 11
4.2474839155
 21
7.9756939119
  0
LINE
  5
7DB
100
AcDbEntity
  8
0
100
AcDbLine
 62
7
  6
CONTINUOUS
 10
4.2474839155
 20
7.9376939119
 11
4.2474839155
 21
7.9356939119
  0
LINE
  5
7DC
100
AcDbEntity
  8
0
100
AcDbLine
 62
7
  6
CONTINUOUS
 10
4.2624839155
 20
8.4391939119
 11
4.2624839155
 21
8.4341939119
  0
LINE
  5
7DD
100
AcDbEntity
  8
0
100
AcDbLine
 62
7
  6
CONTINUOUS
 10
4.2624839155
 20
8.3991939119
 11
4.2624839155
 21
8.3941939119
  0
LINE
  5
7DE
100
AcDbEntity
  8
0
100
AcDbLine
 62
7
  6
CONTINUOUS
 10
4.2624839155
 20
8.3591939119
 11
4.2624839155
 21
8.3541939119
  0
LINE
  5
7DF
100
AcDbEntity
  8
0
100
AcDbLine
 62
7
  6
CONTINUOUS
 10
4.2624839155
 20
8.3191939119
 11
4.2624839155
 21
8.3141939119
  0
LINE
  5
7E0
100
AcDbEntity
  8
0
100
AcDbLine
 62
7
  6
CONTINUOUS
 10
4.2624839155
 20
8.2791939119
 11
4.2624839155
 21
8.2741939119
  0
LINE
  5
7E1
100
AcDbEntity
  8
0
100
AcDbLine
 62
7
  6
CONTINUOUS
 10
4.2624839155
 20
8.2391939119
 11
4.2624839155
 21
8.2341939119
  0
LINE
  5
7E2
100
AcDbEntity
  8
0
100
AcDbLine
 62
7
  6
CONTINUOUS
 10
4.2624839155
 20
8.1991939119
 11
4.2624839155
 21
8.1941939119
  0
LINE
  5
7E3
100
AcDbEntity
  8
0
100
AcDbLine
 62
7
  6
CONTINUOUS
 10
4.2624839155
 20
8.1591939119
 11
4.2624839155
 21
8.1541939119
  0
LINE
  5
7E4
100
AcDbEntity
  8
0
100
AcDbLine
 62
7
  6
CONTINUOUS
 10
4.2624839155
 20
8.1191939119
 11
4.2624839155
 21
8.1141939119
  0
LINE
  5
7E5
100
AcDbEntity
  8
0
100
AcDbLine
 62
7
  6
CONTINUOUS
 10
4.2624839155
 20
8.0791939119
 11
4.2624839155
 21
8.0741939119
  0
LINE
  5
7E6
100
AcDbEntity
  8
0
100
AcDbLine
 62
7
  6
CONTINUOUS
 10
4.2624839155
 20
8.0391939119
 11
4.2624839155
 21
8.0341939119
  0
LINE
  5
7E7
100
AcDbEntity
  8
0
100
AcDbLine
 62
7
  6
CONTINUOUS
 10
4.2624839155
 20
7.9991939119
 11
4.2624839155
 21
7.9941939119
  0
LINE
  5
7E8
100
AcDbEntity
  8
0
100
AcDbLine
 62
7
  6
CONTINUOUS
 10
4.2624839155
 20
7.9591939119
 11
4.2624839155
 21
7.9541939119
  0
LINE
  5
7E9
100
AcDbEntity
  8
0
100
AcDbLine
 62
7
  6
CONTINUOUS
 10
4.2627339155
 20
8.5051939119
 11
4.2627339155
 21
8.4676939119
  0
LINE
  5
7EA
100
AcDbEntity
  8
0
100
AcDbLine
 62
7
  6
CONTINUOUS
 10
4.2474839155
 20
8.0556939119
 11
4.2522600683
 21
8.0567408527
  0
LINE
  5
7EB
100
AcDbEntity
  8
0
100
AcDbLine
 62
7
  6
CONTINUOUS
 10
4.9554839155
 20
8.1976939119
 11
4.950696241
 21
8.1966457063
  0
LINE
  5
7EC
100
AcDbEntity
  8
0
100
AcDbLine
 62
7
  6
CONTINUOUS
 10
4.9554839155
 20
8.2376939119
 11
4.9506563214
 21
8.2366413355
  0
LWPOLYLINE
  5
7ED
100
AcDbEntity
  8
0
100
AcDbPolyline
 62
7
  6
CONTINUOUS
 90
9
 70
0
 10
4.2627893659
 20
8.0744641822
 10
4.2700926895
 20
8.0755452633
 10
4.2869295352
 20
8.0766263444
 10
4.3128155378
 20
8.0777074255
 10
4.347006004
 20
8.0787885065
 10
4.3885173364
 20
8.0798695876
 10
4.4361553295
 20
8.0809506687
 10
4.4885495251
 20
8.0820317498
 10
4.5441926374
 20
8.0831128309
  0
LWPOLYLINE
  5
7EE
100
AcDbEntity
  8
0
100
AcDbPolyline
 62
7
  6
CONTINUOUS
 90
9
 70
0
 10
4.2627893659
 20
8.1144641822
 10
4.2700926895
 20
8.1155452633
 10
4.2869295352
 20
8.1166263444
 10
4.3128155378
 20
8.1177074255
 10
4.347006004
 20
8.1187885065
 10
4.3885173364
 20
8.1198695876
 10
4.4361553295
 20
8.1209506687
 10
4.4885495251
 20
8.1220317498
 10
4.5441926374
 20
8.1231128309
  0
LWPOLYLINE
  5
7EF
100
AcDbEntity
  8
0
100
AcDbPolyline
 62
7
  6
CONTINUOUS
 90
3
 70
0
 10
4.9328751415
 20
8.2178425606
 10
4.940178465
 20
8.2189236417
 10
4.9404345242
 20
8.2190852379
  0
LWPOLYLINE
  5
7F0
100
AcDbEntity
  8
0
100
AcDbPolyline
 62
7
  6
CONTINUOUS
 90
9
 70
0
 10
4.9511796986
 20
8.1567001518
 10
4.9383814259
 20
8.1557069602
 10
4.9172835311
 20
8.1547091313
 10
4.8885095525
 20
8.1537133388
 10
4.8525092118
 20
8.152711982
 10
4.8097529867
 20
8.1516982052
 10
4.761741002
 20
8.1506847207
 10
4.7103688553
 20
8.1496843259
 10
4.6565868929
 20
8.1486889083
  0
LWPOLYLINE
  5
7F1
100
AcDbEntity
  8
0
100
AcDbPolyline
 62
7
  6
CONTINUOUS
 90
19
 70
0
 10
4.2522708305
 20
8.1367420342
 10
4.2667294403
 20
8.1378027627
 10
4.2904038607
 20
8.1388613776
 10
4.3221586826
 20
8.1399053314
 10
4.3617073368
 20
8.1409566078
 10
4.408229391
 20
8.1420175417
 10
4.4598560481
 20
8.1430735675
 10
4.5146091972
 20
8.1441154681
 10
4.572380974
 20
8.1451699447
 10
4.6313455345
 20
8.1462315706
 10
4.6890888661
 20
8.1472859059
 10
4.7438325406
 20
8.1483284063
 10
4.7954365499
 20
8.1493852782
 10
4.8418915702
 20
8.1504466601
 10
4.8813385189
 20
8.1514980135
 10
4.9128491397
 20
8.1525372083
 10
4.9363270592
 20
8.1535899696
 10
4.9507085729
 20
8.1546470602
 10
4.9554366162
 20
8.1555898419
  0
LWPOLYLINE
  5
7F2
100
AcDbEntity
  8
0
100
AcDbPolyline
 62
7
  6
CONTINUOUS
 90
19
 70
0
 10
4.950696241
 20
8.1966457063
 10
4.9362362006
 20
8.1955849401
 10
4.9125618371
 20
8.1945263659
 10
4.8808067238
 20
8.1934824215
 10
4.8412625642
 20
8.1924312667
 10
4.7947592581
 20
8.1913707291
 10
4.7431693201
 20
8.1903153854
 10
4.688443044
 20
8.1892739217
 10
4.6306712269
 20
8.1882194017
 10
4.5717059906
 20
8.1871577638
 10
4.5139611576
 20
8.1861034435
 10
4.4592124997
 20
8.185060934
 10
4.4075996021
 20
8.1840040143
 10
4.3611360776
 20
8.1829426292
 10
4.3216801246
 20
8.1818913023
 10
4.2901483203
 20
8.1808517354
 10
4.2666491046
 20
8.1797983161
 10
4.2522600683
 20
8.1787408527
 10
4.2475312148
 20
8.177797982
  0
LWPOLYLINE
  5
7F3
100
AcDbEntity
  8
0
100
AcDbPolyline
 62
7
  6
CONTINUOUS
 90
19
 70
0
 10
4.2523108588
 20
8.0967464173
 10
4.2668891123
 20
8.097811574
 10
4.2907523089
 20
8.0988744824
 10
4.3227315732
 20
8.0999220739
 10
4.3621331328
 20
8.1009670086
 10
4.4078845269
 20
8.1020101366
 10
4.4590393102
 20
8.1030575323
 10
4.5138874587
 20
8.1041020757
 10
4.5718727205
 20
8.1051607728
 10
4.6310811561
 20
8.1062267992
 10
4.6890698748
 20
8.1072855534
 10
4.7439223917
 20
8.1083301712
 10
4.7950899859
 20
8.1093778308
 10
4.8408424779
 20
8.1104210052
 10
4.8802365228
 20
8.1114657578
 10
4.9122143527
 20
8.1125132976
 10
4.9360769715
 20
8.1135761537
 10
4.9506563214
 20
8.1146413355
 10
4.9554366162
 20
8.1155898419
  0
LWPOLYLINE
  5
7F4
100
AcDbEntity
  8
0
100
AcDbPolyline
 62
7
  6
CONTINUOUS
 90
11
 70
0
 10
4.5441926374
 20
8.1231128309
 10
4.6587751936
 20
8.125274993
 10
4.7144183059
 20
8.1263560741
 10
4.7668125014
 20
8.1274371552
 10
4.8144504946
 20
8.1285182363
 10
4.855961827
 20
8.1295993174
 10
4.8901522932
 20
8.1306803984
 10
4.9160382957
 20
8.1317614795
 10
4.9328751415
 20
8.1328425606
 10
4.940178465
 20
8.1339236417
 10
4.9404839155
 20
8.1341939119
  0
LWPOLYLINE
  5
7F5
100
AcDbEntity
  8
0
100
AcDbPolyline
 62
7
  6
CONTINUOUS
 90
9
 70
0
 10
4.5441926374
 20
8.1281128309
 10
4.6587751936
 20
8.130274993
 10
4.7144183059
 20
8.1313560741
 10
4.7668125014
 20
8.1324371552
 10
4.8144504946
 20
8.1335182363
 10
4.855961827
 20
8.1345993174
 10
4.8901522932
 20
8.1356803984
 10
4.9160382957
 20
8.1367614795
 10
4.9328751415
 20
8.1378425606
  0
LWPOLYLINE
  5
7F6
100
AcDbEntity
  8
0
100
AcDbPolyline
 62
7
  6
CONTINUOUS
 90
11
 70
0
 10
4.5441926374
 20
8.1631128309
 10
4.6587751936
 20
8.165274993
 10
4.7144183059
 20
8.1663560741
 10
4.7668125014
 20
8.1674371552
 10
4.8144504946
 20
8.1685182363
 10
4.855961827
 20
8.1695993174
 10
4.8901522932
 20
8.1706803984
 10
4.9160382957
 20
8.1717614795
 10
4.9328751415
 20
8.1728425606
 10
4.940178465
 20
8.1739236417
 10
4.9404839155
 20
8.1741939119
  0
LWPOLYLINE
  5
7F7
100
AcDbEntity
  8
0
100
AcDbPolyline
 62
7
  6
CONTINUOUS
 90
11
 70
0
 10
4.5441926374
 20
8.1681128309
 10
4.6587751936
 20
8.170274993
 10
4.7144183059
 20
8.1713560741
 10
4.7668125014
 20
8.1724371552
 10
4.8144504946
 20
8.1735182363
 10
4.855961827
 20
8.1745993174
 10
4.8901522932
 20
8.1756803984
 10
4.9160382957
 20
8.1767614795
 10
4.9328751415
 20
8.1778425606
 10
4.940178465
 20
8.1789236417
 10
4.9404345242
 20
8.1790852379
  0
LWPOLYLINE
  5
7F8
100
AcDbEntity
  8
0
100
AcDbPolyline
 62
7
  6
CONTINUOUS
 90
11
 70
0
 10
4.6565868929
 20
8.1486889083
 10
4.5463735957
 20
8.1466987819
 10
4.4925732533
 20
8.1457030118
 10
4.4412100584
 20
8.1447027649
 10
4.3931981809
 20
8.1436892481
 10
4.3504456141
 20
8.1426755102
 10
4.3144446893
 20
8.1416740676
 10
4.2856800094
 20
8.1406785218
 10
4.2645886607
 20
8.1396809958
 10
4.2517891054
 20
8.1386877847
 10
4.2475312148
 20
8.137797982
  0
LINE
  5
7F9
100
AcDbEntity
  8
0
100
AcDbLine
 62
7
  6
CONTINUOUS
 10
4.2475312148
 20
8.3355898419
 11
4.2625333068
 21
8.3190852379
  0
LINE
  5
7FA
100
AcDbEntity
  8
0
100
AcDbLine
 62
7
  6
CONTINUOUS
 10
4.2475312148
 20
8.3755898419
 11
4.2625333068
 21
8.3590852379
  0
LINE
  5
7FB
100
AcDbEntity
  8
0
100
AcDbLine
 62
7
  6
CONTINUOUS
 10
4.2474839155
 20
8.4556939183
 11
4.2475312148
 21
8.4555898419
  0
LINE
  5
7FC
100
AcDbEntity
  8
0
100
AcDbLine
 62
7
  6
CONTINUOUS
 10
4.2475312148
 20
8.417797982
 11
4.2474839155
 21
8.4176939119
  0
LINE
  5
7FD
100
AcDbEntity
  8
0
100
AcDbLine
 62
7
  6
CONTINUOUS
 10
4.2474839155
 20
8.4576939195
 11
4.2475312148
 21
8.457797982
  0
LINE
  5
7FE
100
AcDbEntity
  8
0
100
AcDbLine
 62
7
  6
CONTINUOUS
 10
4.9554839155
 20
8.2776939119
 11
4.9507085729
 21
8.2766470602
  0
LINE
  5
7FF
100
AcDbEntity
  8
0
100
AcDbLine
 62
7
  6
CONTINUOUS
 10
4.2474839155
 20
8.1356939119
 11
4.2522708305
 21
8.1367420342
  0
LINE
  5
800
100
AcDbEntity
  8
0
100
AcDbLine
 62
7
  6
CONTINUOUS
 10
4.2474839155
 20
8.0956939119
 11
4.2523108588
 21
8.0967464173
  0
LWPOLYLINE
  5
801
100
AcDbEntity
  8
0
100
AcDbPolyline
 62
7
  6
CONTINUOUS
 90
3
 70
0
 10
4.9328751415
 20
8.2578425606
 10
4.940178465
 20
8.2589236417
 10
4.9404345242
 20
8.2590852379
  0
LWPOLYLINE
  5
802
100
AcDbEntity
  8
0
100
AcDbPolyline
 62
7
  6
CONTINUOUS
 90
9
 70
0
 10
4.2517891054
 20
8.1766877847
 10
4.2645886607
 20
8.1776809958
 10
4.2856800094
 20
8.1786785218
 10
4.3144446893
 20
8.1796740676
 10
4.3504456141
 20
8.1806755102
 10
4.3931981809
 20
8.1816892481
 10
4.4412100584
 20
8.1827027649
 10
4.4925732533
 20
8.1837030118
 10
4.5463735957
 20
8.1846987819
  0
LWPOLYLINE
  5
803
100
AcDbEntity
  8
0
100
AcDbPolyline
 62
7
  6
CONTINUOUS
 90
19
 70
0
 10
4.9506563214
 20
8.2366413355
 10
4.9360769715
 20
8.2355761537
 10
4.9122143527
 20
8.2345132976
 10
4.8802365228
 20
8.2334657578
 10
4.8408424779
 20
8.2324210052
 10
4.7950899859
 20
8.2313778308
 10
4.7439223917
 20
8.2303301712
 10
4.6890698748
 20
8.2292855534
 10
4.6310811561
 20
8.2282267992
 10
4.5718727205
 20
8.2271607728
 10
4.5138874587
 20
8.2261020757
 10
4.4590393102
 20
8.2250575323
 10
4.4078845269
 20
8.2240101366
 10
4.3621331328
 20
8.2229670086
 10
4.3227315732
 20
8.2219220739
 10
4.2907523089
 20
8.2208744824
 10
4.2668891123
 20
8.219811574
 10
4.2523108588
 20
8.2187464173
 10
4.2475312148
 20
8.217797982
  0
LWPOLYLINE
  5
804
100
AcDbEntity
  8
0
100
AcDbPolyline
 62
7
  6
CONTINUOUS
 90
11
 70
0
 10
4.5441926374
 20
8.2031128309
 10
4.6587751936
 20
8.205274993
 10
4.7144183059
 20
8.2063560741
 10
4.7668125014
 20
8.2074371552
 10
4.8144504946
 20
8.2085182363
 10
4.855961827
 20
8.2095993174
 10
4.8901522932
 20
8.2106803984
 10
4.9160382957
 20
8.2117614795
 10
4.9328751415
 20
8.2128425606
 10
4.940178465
 20
8.2139236417
 10
4.9404839155
 20
8.2141939119
  0
LWPOLYLINE
  5
805
100
AcDbEntity
  8
0
100
AcDbPolyline
 62
7
  6
CONTINUOUS
 90
9
 70
0
 10
4.5441926374
 20
8.2081128309
 10
4.6587751936
 20
8.210274993
 10
4.7144183059
 20
8.2113560741
 10
4.7668125014
 20
8.2124371552
 10
4.8144504946
 20
8.2135182363
 10
4.855961827
 20
8.2145993174
 10
4.8901522932
 20
8.2156803984
 10
4.9160382957
 20
8.2167614795
 10
4.9328751415
 20
8.2178425606
  0
LWPOLYLINE
  5
806
100
AcDbEntity
  8
0
100
AcDbPolyline
 62
7
  6
CONTINUOUS
 90
11
 70
0
 10
4.5463735957
 20
8.1846987819
 10
4.6565868929
 20
8.1866889083
 10
4.7103688553
 20
8.1876843259
 10
4.761741002
 20
8.1886847207
 10
4.8097529867
 20
8.1896982052
 10
4.8525092118
 20
8.190711982
 10
4.8885095525
 20
8.1917133388
 10
4.9172835311
 20
8.1927091313
 10
4.9383814259
 20
8.1937069602
 10
4.9511796986
 20
8.1947001518
 10
4.9554366162
 20
8.1955898419
  0
LINE
  5
807
100
AcDbEntity
  8
0
100
AcDbLine
 62
7
  6
CONTINUOUS
 10
4.2475312148
 20
8.4155898419
 11
4.2625333068
 21
8.3990852379
  0
LINE
  5
808
100
AcDbEntity
  8
0
100
AcDbLine
 62
7
  6
CONTINUOUS
 10
4.2475312148
 20
8.4555898419
 11
4.2625333068
 21
8.4390852379
  0
LINE
  5
809
100
AcDbEntity
  8
0
100
AcDbLine
 62
7
  6
CONTINUOUS
 10
4.2475312148
 20
8.377797982
 11
4.2474839155
 21
8.3776939119
  0
LINE
  5
80A
100
AcDbEntity
  8
0
100
AcDbLine
 62
7
  6
CONTINUOUS
 10
4.2475312148
 20
8.337797982
 11
4.2474839155
 21
8.3376939119
  0
LINE
  5
80B
100
AcDbEntity
  8
0
100
AcDbLine
 62
7
  6
CONTINUOUS
 10
4.2475312148
 20
8.297797982
 11
4.2474839155
 21
8.2976939119
  0
LINE
  5
80C
100
AcDbEntity
  8
0
100
AcDbLine
 62
7
  6
CONTINUOUS
 10
4.2475312148
 20
8.257797982
 11
4.2474839155
 21
8.2576939119
  0
LINE
  5
80D
100
AcDbEntity
  8
0
100
AcDbLine
 62
7
  6
CONTINUOUS
 10
4.2565262814
 20
8.4676939119
 11
4.2475312148
 21
8.457797982
  0
LINE
  5
80E
100
AcDbEntity
  8
0
100
AcDbLine
 62
7
  6
CONTINUOUS
 10
4.9554839155
 20
8.3176939119
 11
4.9511796986
 21
8.3167001518
  0
LINE
  5
80F
100
AcDbEntity
  8
0
100
AcDbLine
 62
7
  6
CONTINUOUS
 10
4.2474839155
 20
8.1756939119
 11
4.2517891054
 21
8.1766877847
  0
LINE
  5
810
100
AcDbEntity
  8
0
100
AcDbLine
 62
7
  6
CONTINUOUS
 10
4.9554839155
 20
8.3576939119
 11
4.950696241
 21
8.3566457063
  0
LWPOLYLINE
  5
811
100
AcDbEntity
  8
0
100
AcDbPolyline
 62
7
  6
CONTINUOUS
 90
9
 70
0
 10
4.2627893659
 20
8.1944641822
 10
4.2700926895
 20
8.1955452633
 10
4.2869295352
 20
8.1966263444
 10
4.3128155378
 20
8.1977074255
 10
4.347006004
 20
8.1987885065
 10
4.3885173364
 20
8.1998695876
 10
4.4361553295
 20
8.2009506687
 10
4.4885495251
 20
8.2020317498
 10
4.5441926374
 20
8.2031128309
  0
LWPOLYLINE
  5
812
100
AcDbEntity
  8
0
100
AcDbPolyline
 62
7
  6
CONTINUOUS
 90
3
 70
0
 10
4.9328751415
 20
8.2978425606
 10
4.940178465
 20
8.2989236417
 10
4.9404345242
 20
8.2990852379
  0
LWPOLYLINE
  5
813
100
AcDbEntity
  8
0
100
AcDbPolyline
 62
7
  6
CONTINUOUS
 90
9
 70
0
 10
4.2627893659
 20
8.2344641822
 10
4.2700926895
 20
8.2355452633
 10
4.2869295352
 20
8.2366263444
 10
4.3128155378
 20
8.2377074255
 10
4.347006004
 20
8.2387885065
 10
4.3885173364
 20
8.2398695876
 10
4.4361553295
 20
8.2409506687
 10
4.4885495251
 20
8.2420317498
 10
4.5441926374
 20
8.2431128309
  0
LWPOLYLINE
  5
814
100
AcDbEntity
  8
0
100
AcDbPolyline
 62
7
  6
CONTINUOUS
 90
9
 70
0
 10
4.9511796986
 20
8.3167001518
 10
4.9383814259
 20
8.3157069602
 10
4.9172835311
 20
8.3147091313
 10
4.8885095525
 20
8.3137133388
 10
4.8525092118
 20
8.312711982
 10
4.8097529867
 20
8.3116982052
 10
4.761741002
 20
8.3106847207
 10
4.7103688553
 20
8.3096843259
 10
4.6565868929
 20
8.3086889083
  0
LWPOLYLINE
  5
815
100
AcDbEntity
  8
0
100
AcDbPolyline
 62
7
  6
CONTINUOUS
 90
19
 70
0
 10
4.2522600683
 20
8.2167408527
 10
4.2666491046
 20
8.2177983161
 10
4.2901483203
 20
8.2188517354
 10
4.3216801246
 20
8.2198913023
 10
4.3611360776
 20
8.2209426292
 10
4.4075996021
 20
8.2220040143
 10
4.4592124997
 20
8.223060934
 10
4.5139611576
 20
8.2241034435
 10
4.5717059906
 20
8.2251577638
 10
4.6306712269
 20
8.2262194017
 10
4.688443044
 20
8.2272739217
 10
4.7431693201
 20
8.2283153854
 10
4.7947592581
 20
8.2293707291
 10
4.8412625642
 20
8.2304312667
 10
4.8808067238
 20
8.2314824215
 10
4.9125618371
 20
8.2325263659
 10
4.9362362006
 20
8.2335849401
 10
4.950696241
 20
8.2346457063
 10
4.9554366162
 20
8.2355898419
  0
LWPOLYLINE
  5
816
100
AcDbEntity
  8
0
100
AcDbPolyline
 62
7
  6
CONTINUOUS
 90
19
 70
0
 10
4.9507085729
 20
8.2766470602
 10
4.9363270592
 20
8.2755899696
 10
4.9128491397
 20
8.2745372083
 10
4.8813385189
 20
8.2734980135
 10
4.8418915702
 20
8.2724466601
 10
4.7954365499
 20
8.2713852782
 10
4.7438325406
 20
8.2703284063
 10
4.6890888661
 20
8.2692859059
 10
4.6313455345
 20
8.2682315706
 10
4.572380974
 20
8.2671699447
 10
4.5146091972
 20
8.2661154681
 10
4.4598560481
 20
8.2650735675
 10
4.408229391
 20
8.2640175417
 10
4.3617073368
 20
8.2629566078
 10
4.3221586826
 20
8.2619053314
 10
4.2904038607
 20
8.2608613776
 10
4.2667294403
 20
8.2598027627
 10
4.2522708305
 20
8.2587420342
 10
4.2475312148
 20
8.257797982
  0
LWPOLYLINE
  5
817
100
AcDbEntity
  8
0
100
AcDbPolyline
 62
7
  6
CONTINUOUS
 90
19
 70
0
 10
4.2523108588
 20
8.2567464173
 10
4.2668891123
 20
8.257811574
 10
4.2907523089
 20
8.2588744824
 10
4.3227315732
 20
8.2599220739
 10
4.3621331328
 20
8.2609670086
 10
4.4078845269
 20
8.2620101366
 10
4.4590393102
 20
8.2630575323
 10
4.5138874587
 20
8.2641020757
 10
4.5718727205
 20
8.2651607728
 10
4.6310811561
 20
8.2662267992
 10
4.6890698748
 20
8.2672855534
 10
4.7439223917
 20
8.2683301712
 10
4.7950899859
 20
8.2693778308
 10
4.8408424779
 20
8.2704210052
 10
4.8802365228
 20
8.2714657578
 10
4.9122143527
 20
8.2725132976
 10
4.9360769715
 20
8.2735761537
 10
4.9506563214
 20
8.2746413355
 10
4.9554366162
 20
8.2755898419
  0
LWPOLYLINE
  5
818
100
AcDbEntity
  8
0
100
AcDbPolyline
 62
7
  6
CONTINUOUS
 90
11
 70
0
 10
4.5441926374
 20
8.2431128309
 10
4.6587751936
 20
8.245274993
 10
4.7144183059
 20
8.2463560741
 10
4.7668125014
 20
8.2474371552
 10
4.8144504946
 20
8.2485182363
 10
4.855961827
 20
8.2495993174
 10
4.8901522932
 20
8.2506803984
 10
4.9160382957
 20
8.2517614795
 10
4.9328751415
 20
8.2528425606
 10
4.940178465
 20
8.2539236417
 10
4.9404839155
 20
8.2541939119
  0
LWPOLYLINE
  5
819
100
AcDbEntity
  8
0
100
AcDbPolyline
 62
7
  6
CONTINUOUS
 90
9
 70
0
 10
4.5441926374
 20
8.2481128309
 10
4.6587751936
 20
8.250274993
 10
4.7144183059
 20
8.2513560741
 10
4.7668125014
 20
8.2524371552
 10
4.8144504946
 20
8.2535182363
 10
4.855961827
 20
8.2545993174
 10
4.8901522932
 20
8.2556803984
 10
4.9160382957
 20
8.2567614795
 10
4.9328751415
 20
8.2578425606
  0
LWPOLYLINE
  5
81A
100
AcDbEntity
  8
0
100
AcDbPolyline
 62
7
  6
CONTINUOUS
 90
11
 70
0
 10
4.5441926374
 20
8.2831128309
 10
4.6587751936
 20
8.285274993
 10
4.7144183059
 20
8.2863560741
 10
4.7668125014
 20
8.2874371552
 10
4.8144504946
 20
8.2885182363
 10
4.855961827
 20
8.2895993174
 10
4.8901522932
 20
8.2906803984
 10
4.9160382957
 20
8.2917614795
 10
4.9328751415
 20
8.2928425606
 10
4.940178465
 20
8.2939236417
 10
4.9404839155
 20
8.2941939119
  0
LWPOLYLINE
  5
81B
100
AcDbEntity
  8
0
100
AcDbPolyline
 62
7
  6
CONTINUOUS
 90
9
 70
0
 10
4.5441926374
 20
8.2881128309
 10
4.6587751936
 20
8.290274993
 10
4.7144183059
 20
8.2913560741
 10
4.7668125014
 20
8.2924371552
 10
4.8144504946
 20
8.2935182363
 10
4.855961827
 20
8.2945993174
 10
4.8901522932
 20
8.2956803984
 10
4.9160382957
 20
8.2967614795
 10
4.9328751415
 20
8.2978425606
  0
LINE
  5
81C
100
AcDbEntity
  8
0
100
AcDbLine
 62
7
  6
CONTINUOUS
 10
4.2475312148
 20
8.217797982
 11
4.2474839155
 21
8.2176939119
  0
LINE
  5
81D
100
AcDbEntity
  8
0
100
AcDbLine
 62
7
  6
CONTINUOUS
 10
4.2475312148
 20
8.177797982
 11
4.2474839155
 21
8.1776939119
  0
LINE
  5
81E
100
AcDbEntity
  8
0
100
AcDbLine
 62
7
  6
CONTINUOUS
 10
4.2475312148
 20
8.137797982
 11
4.2474839155
 21
8.1376939119
  0
LINE
  5
81F
100
AcDbEntity
  8
0
100
AcDbLine
 62
7
  6
CONTINUOUS
 10
4.2625333068
 20
8.4343025859
 11
4.2475312148
 21
8.417797982
  0
LINE
  5
820
100
AcDbEntity
  8
0
100
AcDbLine
 62
7
  6
CONTINUOUS
 10
4.2625333068
 20
8.3943025859
 11
4.2475312148
 21
8.377797982
  0
LINE
  5
821
100
AcDbEntity
  8
0
100
AcDbLine
 62
7
  6
CONTINUOUS
 10
4.2477961127
 20
8.4559612987
 11
4.2474839155
 21
8.4556939183
  0
LINE
  5
822
100
AcDbEntity
  8
0
100
AcDbLine
 62
7
  6
CONTINUOUS
 10
4.9371943588
 20
8.418306315
 11
4.9404345242
 21
8.4190852379
  0
LINE
  5
823
100
AcDbEntity
  8
0
100
AcDbLine
 62
7
  6
CONTINUOUS
 10
4.2474839155
 20
8.2156939119
 11
4.2522600683
 21
8.2167408527
  0
LINE
  5
824
100
AcDbEntity
  8
0
100
AcDbLine
 62
7
  6
CONTINUOUS
 10
4.9554839155
 20
8.3976939119
 11
4.9506563214
 21
8.3966413355
  0
LINE
  5
825
100
AcDbEntity
  8
0
100
AcDbLine
 62
7
  6
CONTINUOUS
 10
4.2474839155
 20
8.2556939119
 11
4.2523108588
 21
8.2567464173
  0
LWPOLYLINE
  5
826
100
AcDbEntity
  8
0
100
AcDbPolyline
 62
7
  6
CONTINUOUS
 90
9
 70
0
 10
4.2627893659
 20
8.2744641822
 10
4.2700926895
 20
8.2755452633
 10
4.2869295352
 20
8.2766263444
 10
4.3128155378
 20
8.2777074255
 10
4.347006004
 20
8.2787885065
 10
4.3885173364
 20
8.2798695876
 10
4.4361553295
 20
8.2809506687
 10
4.4885495251
 20
8.2820317498
 10
4.5441926374
 20
8.2831128309
  0
LWPOLYLINE
  5
827
100
AcDbEntity
  8
0
100
AcDbPolyline
 62
7
  6
CONTINUOUS
 90
19
 70
0
 10
4.2522708305
 20
8.2967420342
 10
4.2667294403
 20
8.2978027627
 10
4.2904038607
 20
8.2988613776
 10
4.3221586826
 20
8.2999053314
 10
4.3617073368
 20
8.3009566078
 10
4.408229391
 20
8.3020175417
 10
4.4598560481
 20
8.3030735675
 10
4.5146091972
 20
8.3041154681
 10
4.572380974
 20
8.3051699447
 10
4.6313455345
 20
8.3062315706
 10
4.6890888661
 20
8.3072859059
 10
4.7438325406
 20
8.3083284063
 10
4.7954365499
 20
8.3093852782
 10
4.8418915702
 20
8.3104466601
 10
4.8813385189
 20
8.3114980135
 10
4.9128491397
 20
8.3125372083
 10
4.9363270592
 20
8.3135899696
 10
4.9507085729
 20
8.3146470602
 10
4.9554366162
 20
8.3155898419
  0
LWPOLYLINE
  5
828
100
AcDbEntity
  8
0
100
AcDbPolyline
 62
7
  6
CONTINUOUS
 90
19
 70
0
 10
4.950696241
 20
8.3566457063
 10
4.9362362006
 20
8.3555849401
 10
4.9125618371
 20
8.3545263659
 10
4.8808067238
 20
8.3534824215
 10
4.8412625642
 20
8.3524312667
 10
4.7947592581
 20
8.3513707291
 10
4.7431693201
 20
8.3503153854
 10
4.688443044
 20
8.3492739217
 10
4.6306712269
 20
8.3482194017
 10
4.5717059906
 20
8.3471577638
 10
4.5139611576
 20
8.3461034435
 10
4.4592124997
 20
8.345060934
 10
4.4075996021
 20
8.3440040143
 10
4.3611360776
 20
8.3429426292
 10
4.3216801246
 20
8.3418913023
 10
4.2901483203
 20
8.3408517354
 10
4.2666491046
 20
8.3397983161
 10
4.2522600683
 20
8.3387408527
 10
4.2475312148
 20
8.337797982
  0
LWPOLYLINE
  5
829
100
AcDbEntity
  8
0
100
AcDbPolyline
 62
7
  6
CONTINUOUS
 90
11
 70
0
 10
4.5441926374
 20
8.3231128309
 10
4.6586632045
 20
8.3252728593
 10
4.7142040207
 20
8.3263518067
 10
4.7665148418
 20
8.3274307541
 10
4.814096701
 20
8.3285097014
 10
4.8555861399
 20
8.3295886488
 10
4.8897942784
 20
8.3306675962
 10
4.9157408821
 20
8.3317465435
 10
4.9326824511
 20
8.3328254909
 10
4.9401335246
 20
8.3339044383
 10
4.9404839155
 20
8.3341939119
  0
LWPOLYLINE
  5
82A
100
AcDbEntity
  8
0
100
AcDbPolyline
 62
7
  6
CONTINUOUS
 90
11
 70
0
 10
4.5441926374
 20
8.3281128309
 10
4.6583847956
 20
8.3302675554
 10
4.7136711339
 20
8.3313411988
 10
4.7657742009
 20
8.3324148422
 10
4.8132155909
 20
8.3334884856
 10
4.8546491719
 20
8.334562129
 10
4.8888992812
 20
8.3356357724
 10
4.9149940842
 20
8.3367094158
 10
4.9321931506
 20
8.3377830592
 10
4.9400084631
 20
8.3388567026
 10
4.9404345242
 20
8.3390852379
  0
LWPOLYLINE
  5
82B
100
AcDbEntity
  8
0
100
AcDbPolyline
 62
7
  6
CONTINUOUS
 90
11
 70
0
 10
4.6565868929
 20
8.3086889083
 10
4.5463735957
 20
8.3066987819
 10
4.4925732533
 20
8.3057030118
 10
4.4412100584
 20
8.3047027649
 10
4.3931981809
 20
8.3036892481
 10
4.3504456141
 20
8.3026755102
 10
4.3144446893
 20
8.3016740676
 10
4.2856800094
 20
8.3006785218
 10
4.2645886607
 20
8.2996809958
 10
4.2517891054
 20
8.2986877847
 10
4.2475312148
 20
8.297797982
  0
LWPOLYLINE
  5
82C
100
AcDbEntity
  8
0
100
AcDbPolyline
 62
7
  6
CONTINUOUS
 90
11
 70
0
 10
4.5463735957
 20
8.3446987819
 10
4.6565868929
 20
8.3466889083
 10
4.7103688553
 20
8.3476843259
 10
4.761741002
 20
8.3486847207
 10
4.8097529867
 20
8.3496982052
 10
4.8525092118
 20
8.350711982
 10
4.8885095525
 20
8.3517133388
 10
4.9172835311
 20
8.3527091313
 10
4.9383814259
 20
8.3537069602
 10
4.9511796986
 20
8.3547001518
 10
4.9554366162
 20
8.3555898419
  0
LINE
  5
82D
100
AcDbEntity
  8
0
100
AcDbLine
 62
7
  6
CONTINUOUS
 10
4.2475312148
 20
8.097797982
 11
4.2474839155
 21
8.0976939119
  0
LINE
  5
82E
100
AcDbEntity
  8
0
100
AcDbLine
 62
7
  6
CONTINUOUS
 10
4.2475312148
 20
8.057797982
 11
4.2474839155
 21
8.0576939119
  0
LINE
  5
82F
100
AcDbEntity
  8
0
100
AcDbLine
 62
7
  6
CONTINUOUS
 10
4.2475312148
 20
8.017797982
 11
4.2474839155
 21
8.0176939119
  0
LINE
  5
830
100
AcDbEntity
  8
0
100
AcDbLine
 62
7
  6
CONTINUOUS
 10
4.2625333068
 20
8.3543025859
 11
4.2475312148
 21
8.337797982
  0
LINE
  5
831
100
AcDbEntity
  8
0
100
AcDbLine
 62
7
  6
CONTINUOUS
 10
4.2625333068
 20
8.3143025859
 11
4.2475312148
 21
8.297797982
  0
LWPOLYLINE
  5
832
100
AcDbEntity
  8
0
100
AcDbPolyline
 62
7
  6
CONTINUOUS
 90
11
 70
0
 10
4.2475312148
 20
8.457797982
 10
4.2480428345
 20
8.4580516994
 10
4.2563666805
 20
8.4591230689
 10
4.2744419182
 20
8.4601944456
 10
4.3017578361
 20
8.4612658234
 10
4.3375426101
 20
8.4623372015
 10
4.3807857186
 20
8.4634085931
 10
4.43026462
 20
8.4644799794
 10
4.4845792854
 20
8.4655513245
 10
4.5421949823
 20
8.4666226342
 10
4.6014839155
 20
8.4676939119
  0
LINE
  5
833
100
AcDbEntity
  8
0
100
AcDbLine
 62
7
  6
CONTINUOUS
 10
4.9554839155
 20
8.4376939119
 11
4.9507085729
 21
8.4366470602
  0
LINE
  5
834
100
AcDbEntity
  8
0
100
AcDbLine
 62
7
  6
CONTINUOUS
 10
4.2474839155
 20
8.2956939119
 11
4.2522708305
 21
8.2967420342
  0
LINE
  5
835
100
AcDbEntity
  8
0
100
AcDbLine
 62
7
  6
CONTINUOUS
 10
4.9348448799
 20
8.4580311212
 11
4.9404345242
 21
8.4590852379
  0
LWPOLYLINE
  5
836
100
AcDbEntity
  8
0
100
AcDbPolyline
 62
7
  6
CONTINUOUS
 90
9
 70
0
 10
4.2517891054
 20
8.3366877847
 10
4.2645886607
 20
8.3376809958
 10
4.2856800094
 20
8.3386785218
 10
4.3144446893
 20
8.3396740676
 10
4.3504456141
 20
8.3406755102
 10
4.3931981809
 20
8.3416892481
 10
4.4412100584
 20
8.3427027649
 10
4.4925732533
 20
8.3437030118
 10
4.5463735957
 20
8.3446987819
  0
LWPOLYLINE
  5
837
100
AcDbEntity
  8
0
100
AcDbPolyline
 62
7
  6
CONTINUOUS
 90
19
 70
0
 10
4.2522600683
 20
8.3767408527
 10
4.2666491046
 20
8.3777983161
 10
4.2901483203
 20
8.3788517354
 10
4.3216801246
 20
8.3798913023
 10
4.3611360776
 20
8.3809426292
 10
4.4075996021
 20
8.3820040143
 10
4.4592124997
 20
8.383060934
 10
4.5139611576
 20
8.3841034435
 10
4.5717059906
 20
8.3851577638
 10
4.6306712269
 20
8.3862194017
 10
4.688443044
 20
8.3872739217
 10
4.7431693201
 20
8.3883153854
 10
4.7947592581
 20
8.3893707291
 10
4.8412625642
 20
8.3904312667
 10
4.8808067238
 20
8.3914824215
 10
4.9125618371
 20
8.3925263659
 10
4.9362362006
 20
8.3935849401
 10
4.950696241
 20
8.3946457063
 10
4.9554366162
 20
8.3955898419
  0
LWPOLYLINE
  5
838
100
AcDbEntity
  8
0
100
AcDbPolyline
 62
7
  6
CONTINUOUS
 90
19
 70
0
 10
4.9506563214
 20
8.3966413355
 10
4.9360769715
 20
8.3955761537
 10
4.9122143527
 20
8.3945132976
 10
4.8802365228
 20
8.3934657578
 10
4.8408424779
 20
8.3924210052
 10
4.7950899859
 20
8.3913778308
 10
4.7439223917
 20
8.3903301712
 10
4.6890698748
 20
8.3892855534
 10
4.6310811561
 20
8.3882267992
 10
4.5718727205
 20
8.3871607728
 10
4.5138874587
 20
8.3861020757
 10
4.4590393102
 20
8.3850575323
 10
4.4078845269
 20
8.3840101366
 10
4.3621331328
 20
8.3829670086
 10
4.3227315732
 20
8.3819220739
 10
4.2907523089
 20
8.3808744824
 10
4.2668891123
 20
8.379811574
 10
4.2523108588
 20
8.3787464173
 10
4.2475312148
 20
8.377797982
  0
LINE
  5
839
100
AcDbEntity
  8
0
100
AcDbLine
 62
7
  6
CONTINUOUS
 10
4.9464415496
 20
7.9276939119
 11
4.9404345242
 21
7.9343025859
  0
LINE
  5
83A
100
AcDbEntity
  8
0
100
AcDbLine
 62
7
  6
CONTINUOUS
 10
4.9554366162
 20
7.957797982
 11
4.9404345242
 21
7.9743025859
  0
LINE
  5
83B
100
AcDbEntity
  8
0
100
AcDbLine
 62
7
  6
CONTINUOUS
 10
4.2475312148
 20
7.977797982
 11
4.2474839155
 21
7.9776939119
  0
LINE
  5
83C
100
AcDbEntity
  8
0
100
AcDbLine
 62
7
  6
CONTINUOUS
 10
4.2474839155
 20
7.9376939051
 11
4.2475312148
 21
7.937797982
  0
LINE
  5
83D
100
AcDbEntity
  8
0
100
AcDbLine
 62
7
  6
CONTINUOUS
 10
4.2625333068
 20
8.2743025859
 11
4.2475312148
 21
8.257797982
  0
LINE
  5
83E
100
AcDbEntity
  8
0
100
AcDbLine
 62
7
  6
CONTINUOUS
 10
4.2625333068
 20
8.2343025859
 11
4.2475312148
 21
8.217797982
  0
LWPOLYLINE
  5
83F
100
AcDbEntity
  8
0
100
AcDbPolyline
 62
7
  6
CONTINUOUS
 90
10
 70
0
 10
4.2624839155
 20
8.3191939119
 10
4.2627893659
 20
8.3194641822
 10
4.2700926895
 20
8.3205452633
 10
4.2869295352
 20
8.3216263444
 10
4.3128155378
 20
8.3227074255
 10
4.347006004
 20
8.3237885065
 10
4.3885173364
 20
8.3248695876
 10
4.4361553295
 20
8.3259506687
 10
4.4885495251
 20
8.3270317498
 10
4.5441926374
 20
8.3281128309
  0
LWPOLYLINE
  5
840
100
AcDbEntity
  8
0
100
AcDbPolyline
 62
7
  6
CONTINUOUS
 90
10
 70
0
 10
4.2624839155
 20
8.2791939119
 10
4.2627893659
 20
8.2794641822
 10
4.2700926895
 20
8.2805452633
 10
4.2869295352
 20
8.2816263444
 10
4.3128155378
 20
8.2827074255
 10
4.347006004
 20
8.2837885065
 10
4.3885173364
 20
8.2848695876
 10
4.4361553295
 20
8.2859506687
 10
4.4885495251
 20
8.2870317498
 10
4.5441926374
 20
8.2881128309
  0
LWPOLYLINE
  5
841
100
AcDbEntity
  8
0
100
AcDbPolyline
 62
7
  6
CONTINUOUS
 90
19
 70
0
 10
4.2624839155
 20
8.4391939119
 10
4.2639155034
 20
8.4397791833
 10
4.2739284651
 20
8.4408528267
 10
4.2932356931
 20
8.4419264701
 10
4.321289352
 20
8.4430001135
 10
4.3572934294
 20
8.4440737569
 10
4.4002263228
 20
8.4451474003
 10
4.448869827
 20
8.4462210437
 10
4.5018437002
 20
8.4472946871
 10
4.5576448282
 20
8.4483683306
 10
4.6146898743
 20
8.449441974
 10
4.6713602061
 20
8.4505156174
 10
4.7260478237
 20
8.4515892608
 10
4.7772009859
 20
8.4526629042
 10
4.8233682402
 20
8.4537365476
 10
4.8632396078
 20
8.454810191
 10
4.8956837531
 20
8.4558838344
 10
4.9197800854
 20
8.4569574778
 10
4.9348448799
 20
8.4580311212
  0
LINE
  5
842
100
AcDbEntity
  8
0
100
AcDbLine
 62
7
  6
CONTINUOUS
 10
4.2474839155
 20
8.3356939119
 11
4.2517891054
 21
8.3366877847
  0
LINE
  5
843
100
AcDbEntity
  8
0
100
AcDbLine
 62
7
  6
CONTINUOUS
 10
4.2474839155
 20
8.3756939119
 11
4.2522600683
 21
8.3767408527
  0
LWPOLYLINE
  5
844
100
AcDbEntity
  8
0
100
AcDbPolyline
 62
7
  6
CONTINUOUS
 90
19
 70
0
 10
4.2624839155
 20
8.3591939119
 10
4.2678635563
 20
8.3603295709
 10
4.2826934687
 20
8.3614032143
 10
4.3065689437
 20
8.3624768577
 10
4.3388125234
 20
8.3635505011
 10
4.378509308
 20
8.3646241445
 10
4.4245329158
 20
8.3656977879
 10
4.4755774437
 20
8.3667714313
 10
4.5301945217
 20
8.3678450747
 10
4.5868344103
 20
8.3689187181
 10
4.6438899733
 20
8.3699923616
 10
4.6997422798
 20
8.371066005
 10
4.7528065411
 20
8.3721396484
 10
4.8015770781
 20
8.3732132918
 10
4.8446700446
 20
8.3742869352
 10
4.8808626934
 20
8.3753605786
 10
4.9091280713
 20
8.376434222
 10
4.9286641586
 20
8.3775078654
 10
4.9389166257
 20
8.3785815088
  0
LWPOLYLINE
  5
845
100
AcDbEntity
  8
0
100
AcDbPolyline
 62
7
  6
CONTINUOUS
 90
20
 70
0
 10
4.2625333068
 20
8.3943025859
 10
4.2685940248
 20
8.3954044383
 10
4.2841706907
 20
8.3964833856
 10
4.3088399684
 20
8.397562333
 10
4.3418949598
 20
8.3986412804
 10
4.3823884738
 20
8.3997202277
 10
4.4291601687
 20
8.4007991751
 10
4.4808698014
 20
8.4018781225
 10
4.536035632
 20
8.4029570698
 10
4.5930768834
 20
8.4040360172
 10
4.6503590384
 20
8.4051149646
 10
4.7062406766
 20
8.4061939119
 10
4.7591205093
 20
8.4072728593
 10
4.8074832646
 20
8.4083518067
 10
4.8499431078
 20
8.4094307541
 10
4.8852833516
 20
8.4105097014
 10
4.9124913214
 20
8.4115886488
 10
4.9307873725
 20
8.4126675962
 10
4.9396472316
 20
8.4137465435
 10
4.9404839155
 20
8.4141939119
  0
LWPOLYLINE
  5
846
100
AcDbEntity
  8
0
100
AcDbPolyline
 62
7
  6
CONTINUOUS
 90
20
 70
0
 10
4.2625333068
 20
8.3543025859
 10
4.2694141689
 20
8.3554833856
 10
4.2856745366
 20
8.356562333
 10
4.3109844235
 20
8.3576412804
 10
4.3446185746
 20
8.3587202277
 10
4.3856132032
 20
8.3597991751
 10
4.4327936081
 20
8.3608781225
 10
4.4848078344
 20
8.3619570698
 10
4.5401654143
 20
8.3630360172
 10
4.5972800762
 20
8.3641149646
 10
4.6545151991
 20
8.3651939119
 10
4.7102307104
 20
8.3662728593
 10
4.7628300817
 20
8.3673518067
 10
4.810806078
 20
8.3684307541
 10
4.8527839467
 20
8.3695097014
 10
4.8875608119
 20
8.3705886488
 10
4.9141401424
 20
8.3716675962
 10
4.9317603073
 20
8.3727465435
 10
4.9399164008
 20
8.3738254909
 10
4.9404839155
 20
8.3741939119
  0
LWPOLYLINE
  5
847
100
AcDbEntity
  8
0
100
AcDbPolyline
 62
7
  6
CONTINUOUS
 90
19
 70
0
 10
4.9507085729
 20
8.4366470602
 10
4.9363270592
 20
8.4355899696
 10
4.9128491397
 20
8.4345372083
 10
4.8813385189
 20
8.4334980135
 10
4.8418915702
 20
8.4324466601
 10
4.7954365499
 20
8.4313852782
 10
4.7438325406
 20
8.4303284063
 10
4.6890888661
 20
8.4292859059
 10
4.6313455345
 20
8.4282315706
 10
4.572380974
 20
8.4271699447
 10
4.5146091972
 20
8.4261154681
 10
4.4598560481
 20
8.4250735675
 10
4.408229391
 20
8.4240175417
 10
4.3617073368
 20
8.4229566078
 10
4.3221586826
 20
8.4219053314
 10
4.2904038607
 20
8.4208613776
 10
4.2667294403
 20
8.4198027627
 10
4.2522708305
 20
8.4187420342
 10
4.2475312148
 20
8.417797982
  0
LWPOLYLINE
  5
848
100
AcDbEntity
  8
0
100
AcDbPolyline
 62
7
  6
CONTINUOUS
 90
19
 70
0
 10
4.2523108588
 20
8.4167464173
 10
4.2668891123
 20
8.417811574
 10
4.2907523089
 20
8.4188744824
 10
4.3227315732
 20
8.4199220739
 10
4.3621331328
 20
8.4209670086
 10
4.4078845269
 20
8.4220101366
 10
4.4590393102
 20
8.4230575323
 10
4.5138874587
 20
8.4241020757
 10
4.5718727205
 20
8.4251607728
 10
4.6310811561
 20
8.4262267992
 10
4.6890698748
 20
8.4272855534
 10
4.7439223917
 20
8.4283301712
 10
4.7950899859
 20
8.4293778308
 10
4.8408424779
 20
8.4304210052
 10
4.8802365228
 20
8.4314657578
 10
4.9122143527
 20
8.4325132976
 10
4.9360769715
 20
8.4335761537
 10
4.9506563214
 20
8.4346413355
 10
4.9554366162
 20
8.4355898419
  0
LINE
  5
849
100
AcDbEntity
  8
0
100
AcDbLine
 62
7
  6
CONTINUOUS
 10
4.9554366162
 20
7.997797982
 11
4.9404345242
 21
8.0143025859
  0
LINE
  5
84A
100
AcDbEntity
  8
0
100
AcDbLine
 62
7
  6
CONTINUOUS
 10
4.9554366162
 20
8.037797982
 11
4.9404345242
 21
8.0543025859
  0
LINE
  5
84B
100
AcDbEntity
  8
0
100
AcDbLine
 62
7
  6
CONTINUOUS
 10
4.2625333068
 20
8.1943025859
 11
4.2475312148
 21
8.177797982
  0
LINE
  5
84C
100
AcDbEntity
  8
0
100
AcDbLine
 62
7
  6
CONTINUOUS
 10
4.2625333068
 20
8.1543025859
 11
4.2475312148
 21
8.137797982
  0
LWPOLYLINE
  5
84D
100
AcDbEntity
  8
0
100
AcDbPolyline
 62
7
  6
CONTINUOUS
 90
10
 70
0
 10
4.2624839155
 20
8.2391939119
 10
4.2627893659
 20
8.2394641822
 10
4.2700926895
 20
8.2405452633
 10
4.2869295352
 20
8.2416263444
 10
4.3128155378
 20
8.2427074255
 10
4.347006004
 20
8.2437885065
 10
4.3885173364
 20
8.2448695876
 10
4.4361553295
 20
8.2459506687
 10
4.4885495251
 20
8.2470317498
 10
4.5441926374
 20
8.2481128309
  0
LWPOLYLINE
  5
84E
100
AcDbEntity
  8
0
100
AcDbPolyline
 62
7
  6
CONTINUOUS
 90
10
 70
0
 10
4.2624839155
 20
8.1991939119
 10
4.2627893659
 20
8.1994641822
 10
4.2700926895
 20
8.2005452633
 10
4.2869295352
 20
8.2016263444
 10
4.3128155378
 20
8.2027074255
 10
4.347006004
 20
8.2037885065
 10
4.3885173364
 20
8.2048695876
 10
4.4361553295
 20
8.2059506687
 10
4.4885495251
 20
8.2070317498
 10
4.5441926374
 20
8.2081128309
  0
LWPOLYLINE
  5
84F
100
AcDbEntity
  8
0
100
AcDbPolyline
 62
7
  6
CONTINUOUS
 90
10
 70
0
 10
4.2625333068
 20
8.3143025859
 10
4.2627893659
 20
8.3144641822
 10
4.2700926895
 20
8.3155452633
 10
4.2869295352
 20
8.3166263444
 10
4.3128155378
 20
8.3177074255
 10
4.347006004
 20
8.3187885065
 10
4.3885173364
 20
8.3198695876
 10
4.4361553295
 20
8.3209506687
 10
4.4885495251
 20
8.3220317498
 10
4.5441926374
 20
8.3231128309
  0
LWPOLYLINE
  5
850
100
AcDbEntity
  8
0
100
AcDbPolyline
 62
7
  6
CONTINUOUS
 90
19
 70
0
 10
4.2624839155
 20
8.3991939119
 10
4.2655757392
 20
8.4000543771
 10
4.2780087906
 20
8.4011280205
 10
4.2996203307
 20
8.4022016639
 10
4.3297971399
 20
8.4032753073
 10
4.3676829622
 20
8.4043489507
 10
4.4122028012
 20
8.4054225941
 10
4.4620934229
 20
8.4064962375
 10
4.5159391989
 20
8.4075698809
 10
4.572212275
 20
8.4086435243
 10
4.6293159232
 20
8.4097171678
 10
4.6856298484
 20
8.4107908112
 10
4.7395561634
 20
8.4118644546
 10
4.7895647288
 20
8.412938098
 10
4.8342365697
 20
8.4140117414
 10
4.872304139
 20
8.4150853848
 10
4.9026872832
 20
8.4161590282
 10
4.9245238917
 20
8.4172326716
 10
4.9371943588
 20
8.418306315
  0
LINE
  5
851
100
AcDbEntity
  8
0
100
AcDbLine
 62
7
  6
CONTINUOUS
 10
4.2474839155
 20
8.4156939119
 11
4.2523108588
 21
8.4167464173
  0
LWPOLYLINE
  5
852
100
AcDbEntity
  8
0
100
AcDbPolyline
 62
7
  6
CONTINUOUS
 90
20
 70
0
 10
4.2625333068
 20
8.4343025859
 10
4.2678250736
 20
8.4353254909
 10
4.2827156422
 20
8.4364044383
 10
4.3067405171
 20
8.4374833856
 10
4.3392112654
 20
8.438562333
 10
4.3791974377
 20
8.4396412804
 10
4.42555323
 20
8.4407202277
 10
4.4769503168
 20
8.4417991751
 10
4.5319159145
 20
8.4428781225
 10
4.5888749835
 20
8.4439570698
 10
4.6461953616
 20
8.4450360172
 10
4.7022345329
 20
8.4461149646
 10
4.7553866949
 20
8.4471939119
 10
4.804128772
 20
8.4482728593
 10
4.8470640599
 20
8.4493518067
 10
4.8829622476
 20
8.4504307541
 10
4.9107946725
 20
8.4515097014
 10
4.9297637963
 20
8.4525886488
 10
4.9393260586
 20
8.4536675962
 10
4.9404839155
 20
8.4541939119
  0
LINE
  5
853
100
AcDbEntity
  8
0
100
AcDbLine
 62
7
  6
CONTINUOUS
 10
4.7108759315
 20
8.4676939119
 11
4.6532054481
 21
8.4666273933
  0
LWPOLYLINE
  5
854
100
AcDbEntity
  8
0
100
AcDbPolyline
 62
7
  6
CONTINUOUS
 90
11
 70
0
 10
4.6532054481
 20
8.4666273933
 10
4.5940834472
 20
8.4655608151
 10
4.5351678642
 20
8.464494222
 10
4.4781097361
 20
8.4634276353
 10
4.424505924
 20
8.4623610356
 10
4.3758569741
 20
8.4612944056
 10
4.3335270009
 20
8.4602277774
 10
4.2987017596
 20
8.4591611615
 10
4.2723557956
 20
8.458094535
 10
4.2552272774
 20
8.4570279036
 10
4.2477961127
 20
8.4559612987
  0
LINE
  5
855
100
AcDbEntity
  8
0
100
AcDbLine
 62
7
  6
CONTINUOUS
 10
4.256526643
 20
8.4676939119
 11
4.9482618454
 21
8.4676939119
  0
LINE
  5
856
100
AcDbEntity
  8
0
100
AcDbLine
 62
9
  6
CONTINUOUS
 10
4.9402339155
 20
8.5051939119
 11
4.2627339155
 21
8.5051939119
  0
LINE
  5
857
100
AcDbEntity
  8
0
100
AcDbLine
 62
7
  6
CONTINUOUS
 10
4.9554366162
 20
8.077797982
 11
4.9404345242
 21
8.0943025859
  0
LINE
  5
858
100
AcDbEntity
  8
0
100
AcDbLine
 62
7
  6
CONTINUOUS
 10
4.9554366162
 20
8.117797982
 11
4.9404345242
 21
8.1343025859
  0
LINE
  5
859
100
AcDbEntity
  8
0
100
AcDbLine
 62
7
  6
CONTINUOUS
 10
4.2625333068
 20
8.1143025859
 11
4.2475312148
 21
8.097797982
  0
LINE
  5
85A
100
AcDbEntity
  8
0
100
AcDbLine
 62
7
  6
CONTINUOUS
 10
4.2625333068
 20
8.0743025859
 11
4.2475312148
 21
8.057797982
  0
LWPOLYLINE
  5
85B
100
AcDbEntity
  8
0
100
AcDbPolyline
 62
7
  6
CONTINUOUS
 90
10
 70
0
 10
4.2624839155
 20
8.1591939119
 10
4.2627893659
 20
8.1594641822
 10
4.2700926895
 20
8.1605452633
 10
4.2869295352
 20
8.1616263444
 10
4.3128155378
 20
8.1627074255
 10
4.347006004
 20
8.1637885065
 10
4.3885173364
 20
8.1648695876
 10
4.4361553295
 20
8.1659506687
 10
4.4885495251
 20
8.1670317498
 10
4.5441926374
 20
8.1681128309
  0
LINE
  5
85C
100
AcDbEntity
  8
0
100
AcDbLine
 62
7
  6
CONTINUOUS
 10
4.2625333068
 20
8.2743025859
 11
4.2627893659
 21
8.2744641822
  0
LINE
  5
85D
100
AcDbEntity
  8
0
100
AcDbLine
 62
7
  6
CONTINUOUS
 10
4.2625333068
 20
8.2343025859
 11
4.2627893659
 21
8.2344641822
  0
LINE
  5
85E
100
AcDbEntity
  8
0
100
AcDbLine
 62
7
  6
CONTINUOUS
 10
5.1334839155
 20
8.5176939119
 11
4.0694885398
 21
8.5176939119
  0
LINE
  5
85F
100
AcDbEntity
  8
0
100
AcDbLine
 62
7
  6
CONTINUOUS
 10
4.9554366162
 20
8.157797982
 11
4.9404345242
 21
8.1743025859
  0
LINE
  5
860
100
AcDbEntity
  8
0
100
AcDbLine
 62
7
  6
CONTINUOUS
 10
4.9554366162
 20
8.197797982
 11
4.9404345242
 21
8.2143025859
  0
LINE
  5
861
100
AcDbEntity
  8
0
100
AcDbLine
 62
7
  6
CONTINUOUS
 10
4.2625333068
 20
8.0343025859
 11
4.2475312148
 21
8.017797982
  0
LINE
  5
862
100
AcDbEntity
  8
0
100
AcDbLine
 62
7
  6
CONTINUOUS
 10
4.2625333068
 20
7.9943025859
 11
4.2475312148
 21
7.977797982
  0
LWPOLYLINE
  5
863
100
AcDbEntity
  8
0
100
AcDbPolyline
 62
7
  6
CONTINUOUS
 90
10
 70
0
 10
4.2624839155
 20
8.1191939119
 10
4.2627893659
 20
8.1194641822
 10
4.2700926895
 20
8.1205452633
 10
4.2869295352
 20
8.1216263444
 10
4.3128155378
 20
8.1227074255
 10
4.347006004
 20
8.1237885065
 10
4.3885173364
 20
8.1248695876
 10
4.4361553295
 20
8.1259506687
 10
4.4885495251
 20
8.1270317498
 10
4.5441926374
 20
8.1281128309
  0
LWPOLYLINE
  5
864
100
AcDbEntity
  8
0
100
AcDbPolyline
 62
7
  6
CONTINUOUS
 90
10
 70
0
 10
4.2624839155
 20
8.0791939119
 10
4.2627893659
 20
8.0794641822
 10
4.2700926895
 20
8.0805452633
 10
4.2869295352
 20
8.0816263444
 10
4.3128155378
 20
8.0827074255
 10
4.347006004
 20
8.0837885065
 10
4.3885173364
 20
8.0848695876
 10
4.4361553295
 20
8.0859506687
 10
4.4885495251
 20
8.0870317498
 10
4.5441926374
 20
8.0881128309
  0
LINE
  5
865
100
AcDbEntity
  8
0
100
AcDbLine
 62
7
  6
CONTINUOUS
 10
4.2625333068
 20
8.1943025859
 11
4.2627893659
 21
8.1944641822
  0
LWPOLYLINE
  5
866
100
AcDbEntity
  8
0
100
AcDbPolyline
 62
7
  6
CONTINUOUS
 90
10
 70
0
 10
4.2625333068
 20
8.1543025859
 10
4.2627893659
 20
8.1544641822
 10
4.2700926895
 20
8.1555452633
 10
4.2869295352
 20
8.1566263444
 10
4.3128155378
 20
8.1577074255
 10
4.347006004
 20
8.1587885065
 10
4.3885173364
 20
8.1598695876
 10
4.4361553295
 20
8.1609506687
 10
4.4885495251
 20
8.1620317498
 10
4.5441926374
 20
8.1631128309
  0
LINE
  5
867
100
AcDbEntity
  8
0
100
AcDbLine
 62
9
  6
CONTINUOUS
 10
5.1934839155
 20
8.5776939119
 11
4.0094839155
 21
8.5776939119
  0
LINE
  5
868
100
AcDbEntity
  8
0
100
AcDbLine
 62
7
  6
CONTINUOUS
 10
4.9554366162
 20
8.237797982
 11
4.9404345242
 21
8.2543025859
  0
LINE
  5
869
100
AcDbEntity
  8
0
100
AcDbLine
 62
7
  6
CONTINUOUS
 10
4.9554366162
 20
8.277797982
 11
4.9404345242
 21
8.2943025859
  0
LINE
  5
86A
100
AcDbEntity
  8
0
100
AcDbLine
 62
7
  6
CONTINUOUS
 10
4.2625333068
 20
7.9543025859
 11
4.2475312148
 21
7.937797982
  0
LWPOLYLINE
  5
86B
100
AcDbEntity
  8
0
100
AcDbPolyline
 62
7
  6
CONTINUOUS
 90
10
 70
0
 10
4.2624839155
 20
8.0391939119
 10
4.2627893659
 20
8.0394641822
 10
4.2700926895
 20
8.0405452633
 10
4.2869295352
 20
8.0416263444
 10
4.3128155378
 20
8.0427074255
 10
4.347006004
 20
8.0437885065
 10
4.3885173364
 20
8.0448695876
 10
4.4361553295
 20
8.0459506687
 10
4.4885495251
 20
8.0470317498
 10
4.5441926374
 20
8.0481128309
  0
LINE
  5
86C
100
AcDbEntity
  8
0
100
AcDbLine
 62
7
  6
CONTINUOUS
 10
4.2625333068
 20
8.1143025859
 11
4.2627893659
 21
8.1144641822
  0
LINE
  5
86D
100
AcDbEntity
  8
0
100
AcDbLine
 62
7
  6
CONTINUOUS
 10
4.9554366162
 20
8.317797982
 11
4.9404345242
 21
8.3343025859
  0
LINE
  5
86E
100
AcDbEntity
  8
0
100
AcDbLine
 62
7
  6
CONTINUOUS
 10
4.9554366162
 20
8.357797982
 11
4.9404345242
 21
8.3743025859
  0
LWPOLYLINE
  5
86F
100
AcDbEntity
  8
0
100
AcDbPolyline
 62
7
  6
CONTINUOUS
 90
10
 70
0
 10
4.2624839155
 20
7.9991939119
 10
4.2629922685
 20
7.9995425962
 10
4.2708944918
 20
8.0006149646
 10
4.2881548561
 20
8.001687333
 10
4.314284765
 20
8.0027597014
 10
4.3485445473
 20
8.0038320698
 10
4.3899643963
 20
8.0049044383
 10
4.4373718219
 20
8.0059768067
 10
4.4894248413
 20
8.0070491751
 10
4.5446499665
 20
8.0081215435
  0
LINE
  5
870
100
AcDbEntity
  8
0
100
AcDbLine
 62
7
  6
CONTINUOUS
 10
4.2625333068
 20
8.0743025859
 11
4.2627893659
 21
8.0744641822
  0
LINE
  5
871
100
AcDbEntity
  8
0
100
AcDbLine
 62
7
  6
CONTINUOUS
 10
4.2625333068
 20
8.0343025859
 11
4.2627893659
 21
8.0344641822
  0
LINE
  5
872
100
AcDbEntity
  8
0
100
AcDbLine
 62
7
  6
CONTINUOUS
 10
4.9389166257
 20
8.3785815088
 11
4.9404345242
 21
8.3790852379
  0
LINE
  5
873
100
AcDbEntity
  8
0
100
AcDbLine
 62
7
  6
CONTINUOUS
 10
4.9554366162
 20
8.397797982
 11
4.9404345242
 21
8.4143025859
  0
LINE
  5
874
100
AcDbEntity
  8
0
100
AcDbLine
 62
7
  6
CONTINUOUS
 10
4.9554366162
 20
8.437797982
 11
4.9404345242
 21
8.4543025859
  0
LINE
  5
875
100
AcDbEntity
  8
0
100
AcDbLine
 62
7
  6
CONTINUOUS
 10
4.9404345242
 20
8.4590852379
 11
4.948259477
 21
8.4676939119
  0
LWPOLYLINE
  5
876
100
AcDbEntity
  8
0
100
AcDbPolyline
 62
7
  6
CONTINUOUS
 90
10
 70
0
 10
4.2625333068
 20
7.9943025859
 10
4.262867347
 20
7.9944967288
 10
4.2704206701
 20
7.9955741936
 10
4.287434621
 20
7.9966516584
 10
4.3134230007
 20
7.9977291232
 10
4.3476431521
 20
7.998806588
 10
4.3891171834
 20
7.9998840528
 10
4.4366599119
 20
8.0009615176
 10
4.4889127331
 20
8.0020389824
 10
4.5443824443
 20
8.0031164472
  0
LINE
  5
877
100
AcDbEntity
  8
0
100
AcDbLine
 62
7
  6
CONTINUOUS
 10
4.9402339155
 20
8.5051939119
 11
4.9402339155
 21
8.4676939119
  0
LINE
  5
878
100
AcDbEntity
  8
0
100
AcDbLine
 62
7
  6
CONTINUOUS
 10
4.9404839155
 20
7.9341939119
 11
4.9404839155
 21
7.9391939119
  0
LINE
  5
879
100
AcDbEntity
  8
0
100
AcDbLine
 62
7
  6
CONTINUOUS
 10
4.9404839155
 20
7.9741939119
 11
4.9404839155
 21
7.9791939119
  0
LINE
  5
87A
100
AcDbEntity
  8
0
100
AcDbLine
 62
7
  6
CONTINUOUS
 10
4.9404839155
 20
8.0141939119
 11
4.9404839155
 21
8.0191939119
  0
LINE
  5
87B
100
AcDbEntity
  8
0
100
AcDbLine
 62
7
  6
CONTINUOUS
 10
4.9404839155
 20
8.0541939119
 11
4.9404839155
 21
8.0591939119
  0
LINE
  5
87C
100
AcDbEntity
  8
0
100
AcDbLine
 62
7
  6
CONTINUOUS
 10
4.9404839155
 20
8.0941939119
 11
4.9404839155
 21
8.0991939119
  0
LINE
  5
87D
100
AcDbEntity
  8
0
100
AcDbLine
 62
7
  6
CONTINUOUS
 10
4.9404839155
 20
8.1341939119
 11
4.9404839155
 21
8.1391939119
  0
LINE
  5
87E
100
AcDbEntity
  8
0
100
AcDbLine
 62
7
  6
CONTINUOUS
 10
4.9404839155
 20
8.1741939119
 11
4.9404839155
 21
8.1791939119
  0
LINE
  5
87F
100
AcDbEntity
  8
0
100
AcDbLine
 62
7
  6
CONTINUOUS
 10
4.9404839155
 20
8.2141939119
 11
4.9404839155
 21
8.2191939119
  0
LINE
  5
880
100
AcDbEntity
  8
0
100
AcDbLine
 62
7
  6
CONTINUOUS
 10
4.9404839155
 20
8.2541939119
 11
4.9404839155
 21
8.2591939119
  0
LINE
  5
881
100
AcDbEntity
  8
0
100
AcDbLine
 62
7
  6
CONTINUOUS
 10
4.9404839155
 20
8.2941939119
 11
4.9404839155
 21
8.2991939119
  0
LINE
  5
882
100
AcDbEntity
  8
0
100
AcDbLine
 62
7
  6
CONTINUOUS
 10
4.9404839155
 20
8.3341939119
 11
4.9404839155
 21
8.3391939119
  0
LINE
  5
883
100
AcDbEntity
  8
0
100
AcDbLine
 62
7
  6
CONTINUOUS
 10
4.9404839155
 20
8.3741939119
 11
4.9404839155
 21
8.3791939119
  0
LINE
  5
884
100
AcDbEntity
  8
0
100
AcDbLine
 62
7
  6
CONTINUOUS
 10
4.9404839155
 20
8.4141939119
 11
4.9404839155
 21
8.4191939119
  0
LINE
  5
885
100
AcDbEntity
  8
0
100
AcDbLine
 62
7
  6
CONTINUOUS
 10
4.9404839155
 20
8.4541939119
 11
4.9404839155
 21
8.4591939119
  0
LINE
  5
886
100
AcDbEntity
  8
0
100
AcDbLine
 62
7
  6
CONTINUOUS
 10
4.9404345242
 20
8.4190852379
 11
4.9554366162
 21
8.4355898419
  0
LINE
  5
887
100
AcDbEntity
  8
0
100
AcDbLine
 62
7
  6
CONTINUOUS
 10
4.9404345242
 20
8.3790852379
 11
4.9554366162
 21
8.3955898419
  0
LINE
  5
888
100
AcDbEntity
  8
0
100
AcDbLine
 62
7
  6
CONTINUOUS
 10
4.9554839155
 20
8.4376939119
 11
4.9554839155
 21
8.4356939119
  0
LINE
  5
889
100
AcDbEntity
  8
0
100
AcDbLine
 62
7
  6
CONTINUOUS
 10
4.9554839155
 20
8.3976939119
 11
4.9554839155
 21
8.3956939119
  0
LINE
  5
88A
100
AcDbEntity
  8
0
100
AcDbLine
 62
7
  6
CONTINUOUS
 10
4.9554839155
 20
8.3576939119
 11
4.9554839155
 21
8.3556939119
  0
LINE
  5
88B
100
AcDbEntity
  8
0
100
AcDbLine
 62
7
  6
CONTINUOUS
 10
4.9554839155
 20
8.3176939119
 11
4.9554839155
 21
8.3156939119
  0
LINE
  5
88C
100
AcDbEntity
  8
0
100
AcDbLine
 62
7
  6
CONTINUOUS
 10
4.9554839155
 20
8.2776939119
 11
4.9554839155
 21
8.2756939119
  0
LINE
  5
88D
100
AcDbEntity
  8
0
100
AcDbLine
 62
7
  6
CONTINUOUS
 10
4.9554839155
 20
8.2376939119
 11
4.9554839155
 21
8.2356939119
  0
LINE
  5
88E
100
AcDbEntity
  8
0
100
AcDbLine
 62
7
  6
CONTINUOUS
 10
4.9554839155
 20
8.1976939119
 11
4.9554839155
 21
8.1956939119
  0
LINE
  5
88F
100
AcDbEntity
  8
0
100
AcDbLine
 62
7
  6
CONTINUOUS
 10
4.9554839155
 20
8.1576939119
 11
4.9554839155
 21
8.1556939119
  0
LINE
  5
890
100
AcDbEntity
  8
0
100
AcDbLine
 62
7
  6
CONTINUOUS
 10
4.9554839155
 20
8.1176939119
 11
4.9554839155
 21
8.1156939119
  0
LINE
  5
891
100
AcDbEntity
  8
0
100
AcDbLine
 62
7
  6
CONTINUOUS
 10
4.9554839155
 20
8.0776939119
 11
4.9554839155
 21
8.0756939119
  0
LINE
  5
892
100
AcDbEntity
  8
0
100
AcDbLine
 62
7
  6
CONTINUOUS
 10
4.9554839155
 20
8.0376939119
 11
4.9554839155
 21
8.0356939119
  0
LINE
  5
893
100
AcDbEntity
  8
0
100
AcDbLine
 62
7
  6
CONTINUOUS
 10
4.9554839155
 20
7.9976939119
 11
4.9554839155
 21
7.9956939119
  0
LINE
  5
894
100
AcDbEntity
  8
0
100
AcDbLine
 62
7
  6
CONTINUOUS
 10
4.9554839155
 20
7.9576939119
 11
4.9554839155
 21
7.9556939119
  0
LINE
  5
895
100
AcDbEntity
  8
0
100
AcDbLine
 62
7
  6
CONTINUOUS
 10
4.9554366162
 20
8.4355898419
 11
4.9554839155
 21
8.4356939119
  0
LINE
  5
896
100
AcDbEntity
  8
0
100
AcDbLine
 62
7
  6
CONTINUOUS
 10
4.9554366162
 20
8.3955898419
 11
4.9554839155
 21
8.3956939119
  0
LINE
  5
897
100
AcDbEntity
  8
0
100
AcDbLine
 62
7
  6
CONTINUOUS
 10
4.9554366162
 20
8.3555898419
 11
4.9554839155
 21
8.3556939119
  0
LINE
  5
898
100
AcDbEntity
  8
0
100
AcDbLine
 62
7
  6
CONTINUOUS
 10
4.9554366162
 20
8.3155898419
 11
4.9554839155
 21
8.3156939119
  0
LINE
  5
899
100
AcDbEntity
  8
0
100
AcDbLine
 62
7
  6
CONTINUOUS
 10
4.9404345242
 20
8.3390852379
 11
4.9554366162
 21
8.3555898419
  0
LINE
  5
89A
100
AcDbEntity
  8
0
100
AcDbLine
 62
7
  6
CONTINUOUS
 10
4.9404345242
 20
8.2990852379
 11
4.9554366162
 21
8.3155898419
  0
LINE
  5
89B
100
AcDbEntity
  8
0
100
AcDbLine
 62
7
  6
CONTINUOUS
 10
4.2625333068
 20
7.9543025859
 11
4.2632808927
 21
7.9546305317
  0
LINE
  5
89C
100
AcDbEntity
  8
0
100
AcDbLine
 62
7
  6
CONTINUOUS
 10
4.9554366162
 20
8.2755898419
 11
4.9554839155
 21
8.2756939119
  0
LINE
  5
89D
100
AcDbEntity
  8
0
100
AcDbLine
 62
7
  6
CONTINUOUS
 10
4.9554366162
 20
8.2355898419
 11
4.9554839155
 21
8.2356939119
  0
LINE
  5
89E
100
AcDbEntity
  8
0
100
AcDbLine
 62
7
  6
CONTINUOUS
 10
4.9554366162
 20
8.1955898419
 11
4.9554839155
 21
8.1956939119
  0
LINE
  5
89F
100
AcDbEntity
  8
0
100
AcDbLine
 62
7
  6
CONTINUOUS
 10
4.9404345242
 20
8.2590852379
 11
4.9554366162
 21
8.2755898419
  0
LINE
  5
8A0
100
AcDbEntity
  8
0
100
AcDbLine
 62
7
  6
CONTINUOUS
 10
4.9404345242
 20
8.2190852379
 11
4.9554366162
 21
8.2355898419
  0
LINE
  5
8A1
100
AcDbEntity
  8
0
100
AcDbLine
 62
7
  6
CONTINUOUS
 10
4.2491334762
 20
7.9363087297
 11
4.2474839155
 21
7.935693905
  0
LWPOLYLINE
  5
8A2
100
AcDbEntity
  8
0
100
AcDbPolyline
 62
7
  6
CONTINUOUS
 90
19
 70
0
 10
4.2624839155
 20
7.9591939119
 10
4.2643654859
 20
7.9598649646
 10
4.2751166711
 20
7.960937333
 10
4.2951064785
 20
7.9620097014
 10
4.3237690476
 20
7.9630820698
 10
4.3602930144
 20
7.9641544383
 10
4.4036444789
 20
7.9652268067
 10
4.4525962719
 20
7.9662991751
 10
4.5057626933
 20
7.9673715435
 10
4.5616387377
 20
7.9684439119
 10
4.6186426973
 20
7.9695162804
 10
4.6751609356
 20
7.9705886488
 10
4.7295935659
 20
7.9716610172
 10
4.7803997395
 20
7.9727333856
 10
4.8261412638
 20
7.9738057541
 10
4.865523313
 20
7.9748781225
 10
4.8974310821
 20
7.9759504909
 10
4.9209613437
 20
7.9770228593
 10
4.9354480163
 20
7.9780952277
  0
LINE
  5
8A3
100
AcDbEntity
  8
0
100
AcDbLine
 62
7
  6
CONTINUOUS
 10
4.0094881208
 20
8.9576939119
 11
5.1934796312
 21
8.9576939119
  0
LINE
  5
8A4
100
AcDbEntity
  8
0
100
AcDbLine
 62
7
  6
CONTINUOUS
 10
4.9554366162
 20
8.1555898419
 11
4.9554839155
 21
8.1556939119
  0
LINE
  5
8A5
100
AcDbEntity
  8
0
100
AcDbLine
 62
7
  6
CONTINUOUS
 10
4.9554366162
 20
8.1155898419
 11
4.9554839155
 21
8.1156939119
  0
LINE
  5
8A6
100
AcDbEntity
  8
0
100
AcDbLine
 62
7
  6
CONTINUOUS
 10
4.9554366162
 20
8.0755898419
 11
4.9554839155
 21
8.0756939119
  0
LINE
  5
8A7
100
AcDbEntity
  8
0
100
AcDbLine
 62
7
  6
CONTINUOUS
 10
4.9404345242
 20
8.1790852379
 11
4.9554366162
 21
8.1955898419
  0
LINE
  5
8A8
100
AcDbEntity
  8
0
100
AcDbLine
 62
7
  6
CONTINUOUS
 10
4.9404345242
 20
8.1390852379
 11
4.9554366162
 21
8.1555898419
  0
LINE
  5
8A9
100
AcDbEntity
  8
AXIS_COSMETIC_THREADS
100
AcDbLine
 62
7
  6
CONTINUOUS
 10
4.010484814
 20
8.9726939119
 11
5.1924830169
 21
8.9726939119
  0
LINE
  5
8AA
100
AcDbEntity
  8
0
100
AcDbLine
 62
7
  6
CONTINUOUS
 10
5.1654839155
 20
8.9576939119
 11
5.1654839155
 21
8.9726939119
  0
LINE
  5
8AB
100
AcDbEntity
  8
0
100
AcDbLine
 62
7
  6
CONTINUOUS
 10
4.9554366162
 20
8.0355898419
 11
4.9554839155
 21
8.0356939119
  0
LINE
  5
8AC
100
AcDbEntity
  8
0
100
AcDbLine
 62
7
  6
CONTINUOUS
 10
4.9554366162
 20
7.9955898419
 11
4.9554839155
 21
7.9956939119
  0
LINE
  5
8AD
100
AcDbEntity
  8
0
100
AcDbLine
 62
7
  6
CONTINUOUS
 10
4.9554839155
 20
7.9556939119
 11
4.9554366162
 21
7.9555898419
  0
LINE
  5
8AE
100
AcDbEntity
  8
0
100
AcDbLine
 62
7
  6
CONTINUOUS
 10
4.9404345242
 20
8.0990852379
 11
4.9554366162
 21
8.1155898419
  0
LINE
  5
8AF
100
AcDbEntity
  8
0
100
AcDbLine
 62
7
  6
CONTINUOUS
 10
4.9404345242
 20
8.0590852379
 11
4.9554366162
 21
8.0755898419
  0
LINE
  5
8B0
100
AcDbEntity
  8
0
100
AcDbLine
 62
9
  6
CONTINUOUS
 10
5.1921936641
 20
9.052693912
 11
5.1924839155
 21
9.0526959078
  0
LWPOLYLINE
  5
8B1
100
AcDbEntity
  8
0
100
AcDbPolyline
 62
9
  6
CONTINUOUS
 90
5
 70
0
 10
4.0104839155
 20
9.0526959373
 10
4.0107656016
 20
9.0526937926
 10
4.0119857921
 20
9.0526939405
 10
4.0141795083
 20
9.0526939052
 10
5.1921936641
 20
9.052693912
  0
LINE
  5
8B2
100
AcDbEntity
  8
AXIS_COSMETIC_THREADS
100
AcDbLine
 62
7
  6
CONTINUOUS
 10
5.1924839155
 20
8.9726939119
 11
5.1924839155
 21
9.0526923939
  0
LINE
  5
8B3
100
AcDbEntity
  8
0
100
AcDbLine
 62
7
  6
CONTINUOUS
 10
5.1934839155
 20
8.9576939119
 11
5.1934839155
 21
8.5776939119
  0
LINE
  5
8B4
100
AcDbEntity
  8
0
100
AcDbLine
 62
7
  6
CONTINUOUS
 10
4.9404345242
 20
8.0190852379
 11
4.9554366162
 21
8.0355898419
  0
LINE
  5
8B5
100
AcDbEntity
  8
0
100
AcDbLine
 62
7
  6
CONTINUOUS
 10
4.9404345242
 20
7.9790852379
 11
4.9554366162
 21
7.9955898419
  0
LINE
  5
8B6
100
AcDbEntity
  8
0
100
AcDbLine
 62
7
  6
CONTINUOUS
 10
4.0704820678
 20
9.1126939119
 11
5.1324858073
 21
9.1126939119
  0
LWPOLYLINE
  5
8B7
100
AcDbEntity
  8
0
100
AcDbPolyline
 62
7
  6
CONTINUOUS
 90
8
 70
0
 10
5.1924839357
 20
9.0526952016
 10
5.1917050565
 20
9.0623314247
 10
5.1878356087
 20
9.0758507612
 10
5.1809256704
 20
9.0880981332
 10
5.1713548147
 20
9.0984007668
 10
5.1596487839
 20
9.1061927203
 10
5.146450608
 20
9.1110459682
 10
5.1324852802
 20
9.1126939119
  0
LINE
  5
8B8
100
AcDbEntity
  8
0
100
AcDbLine
 62
7
  6
CONTINUOUS
 10
4.9404345242
 20
7.9390852379
 11
4.9554366162
 21
7.9555898419
  0
LWPOLYLINE
  5
8B9
100
AcDbEntity
  8
0
100
AcDbPolyline
 62
7
  6
CONTINUOUS
 90
8
 70
0
 10
4.0704826036
 20
9.1126939119
 10
4.0565172683
 20
9.1110459679
 10
4.0433190845
 20
9.1061927192
 10
4.0316130457
 20
9.0984007644
 10
4.0220421816
 20
9.0880981289
 10
4.0151322345
 20
9.075850754
 10
4.0112627776
 20
9.0623314123
 10
4.0104838925
 20
9.0526951498
  0
CIRCLE
  5
8BA
100
AcDbEntity
  8
0
100
AcDbCircle
 62
7
  6
CONTINUOUS
 10
10.5342808475
 20
1.243294839
 40
0.252091
  0
CIRCLE
  5
8BB
100
AcDbEntity
  8
0
100
AcDbCircle
 62
7
  6
CONTINUOUS
 10
10.5342808475
 20
1.243294839
 40
0.182698
  0
ARC
  5
8BC
100
AcDbEntity
  8
0
100
AcDbCircle
 62
7
  6
CONTINUOUS
 10
4.2464839155
 20
5.1062193836
 40
0.06
100
AcDbArc
 50
0.0
 51
56.5971483035
  0
ARC
  5
8BD
100
AcDbEntity
  8
0
100
AcDbCircle
 62
7
  6
CONTINUOUS
 10
4.9564839155
 20
5.1062193836
 40
0.06
100
AcDbArc
 50
123.4003081433
 51
180.0
  0
ARC
  5
8BE
100
AcDbEntity
  8
0
100
AcDbCircle
 62
7
  6
CONTINUOUS
 10
4.6014839155
 20
5.6531005407
 40
0.592
100
AcDbArc
 50
294.0856793311
 51
245.9143206689
  0
CIRCLE
  5
8BF
100
AcDbEntity
  8
0
100
AcDbCircle
 62
9
  6
CONTINUOUS
 10
4.6014839155
 20
5.6531005407
 40
0.532
  0
ARC
  5
8C0
100
AcDbEntity
  8
0
100
AcDbCircle
 62
7
  6
CONTINUOUS
 10
4.6014839155
 20
5.6531005407
 40
0.354
100
AcDbArc
 50
272.3271152994
 51
277.337176733
  0
ARC
  5
8C1
100
AcDbEntity
  8
0
100
AcDbCircle
 62
7
  6
CONTINUOUS
 10
4.6014839155
 20
5.6531005407
 40
0.354
100
AcDbArc
 50
278.5927319311
 51
270.0
  0
CIRCLE
  5
8C2
100
AcDbEntity
  8
0
100
AcDbCircle
 62
7
  6
CONTINUOUS
 10
4.6014839155
 20
5.6531005407
 40
0.306
  0
CIRCLE
  5
8C3
100
AcDbEntity
  8
AXIS_COSMETIC_THREADS
100
AcDbCircle
 62
7
  6
CONTINUOUS
 10
4.6014839155
 20
5.6531005407
 40
0.3025
  0
ARC
  5
8C4
100
AcDbEntity
  8
0
100
AcDbCircle
 62
7
  6
CONTINUOUS
 10
9.1110404812
 20
6.1841005407
 40
0.06
100
AcDbArc
 50
0.0
 51
90.0
  0
ARC
  5
8C5
100
AcDbEntity
  8
0
100
AcDbCircle
 62
7
  6
CONTINUOUS
 10
8.6360404812
 20
6.1851005407
 40
0.06
100
AcDbArc
 50
90.0
 51
180.0
  0
ARC
  5
8C6
100
AcDbEntity
  8
0
100
AcDbCircle
 62
7
  6
CONTINUOUS
 10
9.1151152843
 20
6.0531005407
 40
0.0575
100
AcDbArc
 50
347.2959531578
 51
12.7040468422
  0
ARC
  5
8C7
100
AcDbEntity
  8
0
100
AcDbCircle
 62
7
  6
CONTINUOUS
 10
8.5635404812
 20
5.3018505407
 40
0.0125
100
AcDbArc
 50
0.0000000012
 51
90.0
  0
ARC
  5
8C8
100
AcDbEntity
  8
0
100
AcDbCircle
 62
7
  6
CONTINUOUS
 10
8.5635404812
 20
6.0043505407
 40
0.0125
100
AcDbArc
 50
270.0
 51
359.9999999996
  0
ARC
  5
8C9
100
AcDbEntity
  8
0
100
AcDbCircle
 62
7
  6
CONTINUOUS
 10
9.1700404293
 20
5.0631005976
 40
0.0010000519
100
AcDbArc
 50
270.0029759244
 51
359.9967384197
  0
ARC
  5
8CA
100
AcDbEntity
  8
0
100
AcDbCircle
 62
7
  6
CONTINUOUS
 10
11.8831285369
 20
5.1062193836
 40
0.06
100
AcDbArc
 50
0.0
 51
54.6046913338
  0
CIRCLE
  5
8CB
100
AcDbEntity
  8
0
100
AcDbCircle
 62
7
  6
CONTINUOUS
 10
12.1131285369
 20
6.0531005407
 40
0.094
  0
CIRCLE
  5
8CC
100
AcDbEntity
  8
0
100
AcDbCircle
 62
7
  6
CONTINUOUS
 10
12.1131285369
 20
6.0531005407
 40
0.064
  0
CIRCLE
  5
8CD
100
AcDbEntity
  8
0
100
AcDbCircle
 62
7
  6
CONTINUOUS
 10
12.1131285369
 20
6.0531005407
 40
0.0575
  0
ARC
  5
8CE
100
AcDbEntity
  8
0
100
AcDbCircle
 62
7
  6
CONTINUOUS
 10
12.1761285369
 20
5.6831005407
 40
0.03
100
AcDbArc
 50
180.0
 51
270.0
  0
ARC
  5
8CF
100
AcDbEntity
  8
0
100
AcDbCircle
 62
7
  6
CONTINUOUS
 10
12.1761285369
 20
5.8081005407
 40
0.03
100
AcDbArc
 50
90.0
 51
180.0
  0
ARC
  5
8D0
100
AcDbEntity
  8
0
100
AcDbCircle
 62
7
  6
CONTINUOUS
 10
12.5931285369
 20
5.1062193836
 40
0.06
100
AcDbArc
 50
125.3974888522
 51
180.0
  0
ARC
  5
8D1
100
AcDbEntity
  8
0
100
AcDbCircle
 62
7
  6
CONTINUOUS
 10
12.2381285369
 20
5.6531005407
 40
0.595
100
AcDbArc
 50
244.419898358
 51
295.580101642
  0
ARC
  5
8D2
100
AcDbEntity
  8
0
100
AcDbCircle
 62
7
  6
CONTINUOUS
 10
12.2381285369
 20
5.6531005407
 40
0.592
100
AcDbArc
 50
295.7191711305
 51
244.2808288695
  0
CIRCLE
  5
8D3
100
AcDbEntity
  8
0
100
AcDbCircle
 62
7
  6
CONTINUOUS
 10
12.2381285369
 20
5.6531005407
 40
0.591
  0
CIRCLE
  5
8D4
100
AcDbEntity
  8
0
100
AcDbCircle
 62
7
  6
CONTINUOUS
 10
12.3631285369
 20
6.0531005407
 40
0.094
  0
CIRCLE
  5
8D5
100
AcDbEntity
  8
0
100
AcDbCircle
 62
7
  6
CONTINUOUS
 10
12.3631285369
 20
6.0531005407
 40
0.064
  0
CIRCLE
  5
8D6
100
AcDbEntity
  8
0
100
AcDbCircle
 62
7
  6
CONTINUOUS
 10
12.3631285369
 20
6.0531005407
 40
0.0575
  0
CIRCLE
  5
8D7
100
AcDbEntity
  8
AXIS_COSMETIC_THREADS
100
AcDbCircle
 62
7
  6
CONTINUOUS
 10
12.2381285369
 20
5.7451005407
 40
0.035
  0
ARC
  5
8D8
100
AcDbEntity
  8
0
100
AcDbCircle
 62
7
  6
CONTINUOUS
 10
12.3011285369
 20
5.8081005407
 40
0.03
100
AcDbArc
 50
0.0
 51
90.0
  0
ARC
  5
8D9
100
AcDbEntity
  8
0
100
AcDbCircle
 62
7
  6
CONTINUOUS
 10
12.3011285369
 20
5.6831005407
 40
0.03
100
AcDbArc
 50
270.0
 51
360.0
  0
CIRCLE
  5
8DA
100
AcDbEntity
  8
AXIS_COSMETIC_THREADS
100
AcDbCircle
 62
7
  6
CONTINUOUS
 10
12.2381285369
 20
5.7451005407
 40
0.01
  0
ARC
  5
8DB
100
AcDbEntity
  8
0
100
AcDbCircle
 62
7
  6
CONTINUOUS
 10
5.1334839155
 20
8.5776939119
 40
0.06
100
AcDbArc
 50
270.0
 51
360.0
  0
ARC
  5
8DC
100
AcDbEntity
  8
0
100
AcDbCircle
 62
7
  6
CONTINUOUS
 10
4.0694839155
 20
8.5776939119
 40
0.06
100
AcDbArc
 50
180.0
 51
270.0
  0
ARC
  5
8DD
100
AcDbEntity
  8
0
100
AcDbCircle
 62
7
  6
CONTINUOUS
 10
4.4764839155
 20
9.0567687151
 40
0.0575
100
AcDbArc
 50
77.2959531578
 51
102.7040468422
  0
ARC
  5
8DE
100
AcDbEntity
  8
0
100
AcDbCircle
 62
7
  6
CONTINUOUS
 10
4.7264839155
 20
9.0567687151
 40
0.0575
100
AcDbArc
 50
77.2959531578
 51
102.7040468422
  0
ARC
  5
8DF
100
AcDbEntity
  8
0
100
AcDbCircle
 62
7
  6
CONTINUOUS
 10
4.9527339155
 20
8.5051939119
 40
0.0125
100
AcDbArc
 50
90.0000089257
 51
180.0
  0
ARC
  5
8E0
100
AcDbEntity
  8
0
100
AcDbCircle
 62
7
  6
CONTINUOUS
 10
4.2502339155
 20
8.5051939119
 40
0.0125
100
AcDbArc
 50
0.0
 51
89.9999910743
  0
ENDSEC
  0
SECTION
  2
OBJECTS
  0
DICTIONARY
  5
C
100
AcDbDictionary
280
0
281
1
  3
ACAD_GROUP
350
D
  3
ACAD_MLINESTYLE
350
17
  3
ACAD_LAYOUT
350
1A
  3
ACAD_PLOTSETTINGS
350
19
  3
ACAD_PLOTSTYLENAME
350
E
  0
DICTIONARY
  5
D
102
{ACAD_REACTORS
330
C
102
}
100
AcDbDictionary
280
0
281
1
  0
ACDBDICTIONARYWDFLT
  5
E
102
{ACAD_REACTORS
330
C
102
}
100
AcDbDictionary
281
1
  3
Normal
350
F
100
AcDbDictionaryWithDefault
340
F
  0
DICTIONARY
  5
17
102
{ACAD_REACTORS
330
C
102
}
100
AcDbDictionary
280
0
281
1
  3
Standard
350
18
  0
DICTIONARY
  5
19
102
{ACAD_REACTORS
330
C
102
}
100
AcDbDictionary
281
1
  0
DICTIONARY
  5
1A
102
{ACAD_REACTORS
330
C
102
}
100
AcDbDictionary
281
1
  3
Model
350
8E1
  3
Layout1
350
8E2
  0
ACDBPLACEHOLDER
  5
F
102
{ACAD_REACTORS
330
E
102
}
  0
MLINESTYLE
  5
18
102
{ACAD_REACTORS
330
17
102
}
100
AcDbMlineStyle
  2
STANDARD
 70
0
  3

 62
256
 51
90.0
 52
90.0
 71
2
 49
0.5
 62
256
  6
BYLAYER
 49
-0.5
 62
256
  6
BYLAYER
  0
LAYOUT
  5
8E1
102
{ACAD_REACTORS
330
1A
102
}
100
AcDbPlotSettings
  1

  2
none_device
  4
ANSI_B_(17.00_x_11.00_Inches)
  6

 40
0.0
 41
0.0
 42
0.0
 43
0.0
 44
431.8
 45
279.4
 46
0.0
 47
0.0
 48
0.0
 49
0.0
140
0.0
141
0.0
142
1.0
143
1.0
 70
1024
 72
0
 73
0
 74
0
  7

 75
0
147
1.0
148
0.0
149
0.0
100
AcDbLayout
  1
Model
 70
0
 71
0
 10
0.0
 20
0.0
 11
17.0
 21
11.0
 12
0.0
 22
0.0
 32
0.0
 14
0.0
 24
0.0
 34
0.0
 15
0.0
 25
0.0
 35
0.0
146
0.0
 13
0.0
 23
0.0
 33
0.0
 16
1.0
 26
0.0
 36
0.0
 17
0.0
 27
1.0
 37
0.0
 76
0
330
22D
345
0
346
0
  0
LAYOUT
  5
8E2
102
{ACAD_REACTORS
330
1A
102
}
100
AcDbPlotSettings
  1

  2
none_device
  4
ANSI_B_(17.00_x_11.00_Inches)
  6

 40
0.0
 41
0.0
 42
0.0
 43
0.0
 44
431.8
 45
279.4
 46
0.0
 47
0.0
 48
0.0
 49
0.0
140
0.0
141
0.0
142
1.0
143
1.0
 70
0
 72
0
 73
0
 74
0
  7

 75
0
147
1.0
148
0.0
149
0.0
100
AcDbLayout
  1
Layout1
 70
0
 71
1
 10
0.0
 20
0.0
 11
17.0
 21
11.0
 12
0.0
 22
0.0
 32
0.0
 14
0.0
 24
0.0
 34
0.0
 15
0.0
 25
0.0
 35
0.0
146
0.0
 13
0.0
 23
0.0
 33
0.0
 16
1.0
 26
0.0
 36
0.0
 17
0.0
 27
1.0
 37
0.0
 76
0
330
22E
345
0
346
0
  0
ENDSEC
  0
EOF
