999
DXF file: 155304_1.dxf
999
Pro/ENGINEER 2009141 by Parametric Technology Corporation
  0
SECTION
  2
HEADER
  9
$ACADVER
  1
AC1015
  9
$DWGCODEPAGE
  3
ANSI_1252
  9
$EXTMAX
 10
17.0
 20
11.0
 30
0.0
  9
$EXTMIN
 10
0.0
 20
0.0
 30
0.0
  9
$LIMMIN
 10
0.0
 20
0.0
  9
$LIMMAX
 10
17.0
 20
11.0
  9
$VIEWCTR
 10
8.5
 20
5.5
  9
$VIEWSIZE
 40
11.0
  9
$CLAYER
  8
0
  9
$LTSCALE
 40
0.935
  9
$CELTYPE
  6
BYLAYER
  9
$DIMSCALE
 40
1.0
  9
$DIMASZ
 40
0.1875
  9
$DIMEXO
 40
0.10625
  9
$DIMDLI
 40
0.646
  9
$DIMEXE
 40
0.306
  9
$DIMCEN
 40
0.153
  9
$DIMLFAC
 40
1.0
  9
$DIMBLK
  1
_FILLED
  9
$DIMTXT
 40
0.1
  9
$DIMTOL
 70
1
  9
$DIMLIM
 70
0
  9
$DIMTFAC
 40
1.0
  9
$DIMTP
 40
0.005
  9
$DIMTM
 40
0.005
  9
$PDMODE
 70
3
  9
$PDSIZE
 40
0.3125
  9
$HANDSEED
  5
8DF
  9
$TILEMODE
 70
1
  9
$MEASUREMENT
 70
0
  9
$INSUNITS
 70
1
  0
ENDSEC
  0
SECTION
  2
CLASSES
  0
CLASS
  1
ACDBDICTIONARYWDFLT
  2
AcDbDictionaryWithDefault
  3
AutoCAD 2000
 90
0
280
0
281
0
  0
CLASS
  1
ACDBPLACEHOLDER
  2
AcDbPlaceHolder
  3
AutoCAD 2000
 90
0
280
0
281
0
  0
CLASS
  1
LAYOUT
  2
AcDbLayout
  3
AutoCAD 2000
 90
0
280
0
281
0
  0
ENDSEC
  0
SECTION
  2
TABLES
  0
TABLE
  2
VPORT
  5
8
100
AcDbSymbolTable
 70
2
  0
VPORT
  5
1F4
100
AcDbSymbolTableRecord
100
AcDbViewportTableRecord
  2
*ACTIVE
 70
0
 10
0.0
 20
0.0
 11
1.0
 21
1.0
 12
8.5
 22
5.5
 13
0.0
 23
0.0
 14
1.0
 24
1.0
 15
0.0
 25
0.0
 16
0.0
 26
0.0
 36
1.0
 17
0.0
 27
0.0
 37
0.0
 40
11.0
 41
1.5454545455
 42
50.0
 43
0.0
 44
0.0
 50
0.0
 51
0.0
 71
0
 72
100
 73
1
 74
1
 75
0
 76
0
 77
0
 78
0
  0
ENDTAB
  0
TABLE
  2
LTYPE
  5
5
100
AcDbSymbolTable
 70
6
  0
LTYPE
  5
14
100
AcDbSymbolTableRecord
100
AcDbLinetypeTableRecord
  2
BYBLOCK
 70
0
  3

 72
65
 73
0
 40
0.0
  0
LTYPE
  5
15
100
AcDbSymbolTableRecord
100
AcDbLinetypeTableRecord
  2
BYLAYER
 70
0
  3

 72
65
 73
0
 40
0.0
  0
LTYPE
  5
16
100
AcDbSymbolTableRecord
100
AcDbLinetypeTableRecord
  2
CONTINUOUS
 70
64
  3
Solid line
 72
65
 73
0
 40
0.0
  0
LTYPE
  5
1F5
100
AcDbSymbolTableRecord
100
AcDbLinetypeTableRecord
  2
CENTER
 70
64
  3
____ _ ____ _ ____ _ ____ _ ____ _ ____ _ ____
 72
65
 73
4
 40
0.6
 49
0.375
 74
0
 49
-0.075
 74
0
 49
0.075
 74
0
 49
-0.075
 74
0
  0
LTYPE
  5
1F6
100
AcDbSymbolTableRecord
100
AcDbLinetypeTableRecord
  2
HIDDEN
 70
64
  3
- - - - - - - - - - - - - - - - - - - -
 72
65
 73
2
 40
0.2
 49
0.1
 74
0
 49
-0.1
 74
0
  0
LTYPE
  5
1F7
100
AcDbSymbolTableRecord
100
AcDbLinetypeTableRecord
  2
PHANTOM
 70
64
  3
_____ _ _ _____ _ _ _____ _ _ _____
 72
65
 73
6
 40
0.8
 49
0.45
 74
0
 49
-0.05
 74
0
 49
0.1
 74
0
 49
-0.05
 74
0
 49
0.1
 74
0
 49
-0.05
 74
0
  0
LTYPE
  5
1F8
100
AcDbSymbolTableRecord
100
AcDbLinetypeTableRecord
  2
DOT
 70
64
  3
. . . . . . . . . . . . . . . . . . . .
 72
65
 73
2
 40
0.2
 49
0.1
 74
0
 49
-0.1
 74
0
  0
LTYPE
  5
1F9
100
AcDbSymbolTableRecord
100
AcDbLinetypeTableRecord
  2
DASHED
 70
64
  3
- - - - - - - - - - - - - - - - - - - -
 72
65
 73
2
 40
0.2
 49
0.1
 74
0
 49
-0.1
 74
0
  0
ENDTAB
  0
TABLE
  2
LAYER
  5
2
100
AcDbSymbolTable
 70
36
  0
LAYER
  5
10
100
AcDbSymbolTableRecord
100
AcDbLayerTableRecord
  2
0
 70
0
 62
7
  6
CONTINUOUS
370
-3
390
F
  0
LAYER
  5
1FA
100
AcDbSymbolTableRecord
100
AcDbLayerTableRecord
  2
DEFAULT_1
 70
0
 62
7
  6
CENTER
370
-3
390
F
  0
LAYER
  5
1FB
100
AcDbSymbolTableRecord
100
AcDbLayerTableRecord
  2
DEFAULT_2
 70
0
 62
8
  6
HIDDEN
370
-3
390
F
  0
LAYER
  5
1FC
100
AcDbSymbolTableRecord
100
AcDbLayerTableRecord
  2
DEFAULT_3
 70
0
 62
7
  6
PHANTOM
370
-3
390
F
  0
LAYER
  5
1FD
100
AcDbSymbolTableRecord
100
AcDbLayerTableRecord
  2
1
 70
0
 62
7
  6
CONTINUOUS
370
-3
390
F
  0
LAYER
  5
1FE
100
AcDbSymbolTableRecord
100
AcDbLayerTableRecord
  2
10
 70
0
 62
7
  6
CONTINUOUS
370
-3
390
F
  0
LAYER
  5
1FF
100
AcDbSymbolTableRecord
100
AcDbLayerTableRecord
  2
11
 70
0
 62
7
  6
CONTINUOUS
370
-3
390
F
  0
LAYER
  5
200
100
AcDbSymbolTableRecord
100
AcDbLayerTableRecord
  2
12
 70
0
 62
7
  6
CONTINUOUS
370
-3
390
F
  0
LAYER
  5
201
100
AcDbSymbolTableRecord
100
AcDbLayerTableRecord
  2
13
 70
0
 62
7
  6
CONTINUOUS
370
-3
390
F
  0
LAYER
  5
202
100
AcDbSymbolTableRecord
100
AcDbLayerTableRecord
  2
14
 70
0
 62
7
  6
CONTINUOUS
370
-3
390
F
  0
LAYER
  5
203
100
AcDbSymbolTableRecord
100
AcDbLayerTableRecord
  2
15
 70
0
 62
7
  6
CONTINUOUS
370
-3
390
F
  0
LAYER
  5
204
100
AcDbSymbolTableRecord
100
AcDbLayerTableRecord
  2
16
 70
0
 62
7
  6
CONTINUOUS
370
-3
390
F
  0
LAYER
  5
205
100
AcDbSymbolTableRecord
100
AcDbLayerTableRecord
  2
17
 70
0
 62
7
  6
CONTINUOUS
370
-3
390
F
  0
LAYER
  5
206
100
AcDbSymbolTableRecord
100
AcDbLayerTableRecord
  2
18
 70
0
 62
7
  6
CONTINUOUS
370
-3
390
F
  0
LAYER
  5
207
100
AcDbSymbolTableRecord
100
AcDbLayerTableRecord
  2
19
 70
0
 62
7
  6
CONTINUOUS
370
-3
390
F
  0
LAYER
  5
208
100
AcDbSymbolTableRecord
100
AcDbLayerTableRecord
  2
2
 70
0
 62
7
  6
CONTINUOUS
370
-3
390
F
  0
LAYER
  5
209
100
AcDbSymbolTableRecord
100
AcDbLayerTableRecord
  2
20
 70
0
 62
7
  6
CONTINUOUS
370
-3
390
F
  0
LAYER
  5
20A
100
AcDbSymbolTableRecord
100
AcDbLayerTableRecord
  2
21
 70
0
 62
7
  6
CONTINUOUS
370
-3
390
F
  0
LAYER
  5
20B
100
AcDbSymbolTableRecord
100
AcDbLayerTableRecord
  2
22
 70
0
 62
7
  6
CONTINUOUS
370
-3
390
F
  0
LAYER
  5
20C
100
AcDbSymbolTableRecord
100
AcDbLayerTableRecord
  2
23
 70
0
 62
7
  6
CONTINUOUS
370
-3
390
F
  0
LAYER
  5
20D
100
AcDbSymbolTableRecord
100
AcDbLayerTableRecord
  2
24
 70
0
 62
7
  6
CONTINUOUS
370
-3
390
F
  0
LAYER
  5
20E
100
AcDbSymbolTableRecord
100
AcDbLayerTableRecord
  2
25
 70
0
 62
7
  6
CONTINUOUS
370
-3
390
F
  0
LAYER
  5
20F
100
AcDbSymbolTableRecord
100
AcDbLayerTableRecord
  2
26
 70
0
 62
7
  6
CONTINUOUS
370
-3
390
F
  0
LAYER
  5
210
100
AcDbSymbolTableRecord
100
AcDbLayerTableRecord
  2
27
 70
0
 62
7
  6
CONTINUOUS
370
-3
390
F
  0
LAYER
  5
211
100
AcDbSymbolTableRecord
100
AcDbLayerTableRecord
  2
28
 70
0
 62
7
  6
CONTINUOUS
370
-3
390
F
  0
LAYER
  5
212
100
AcDbSymbolTableRecord
100
AcDbLayerTableRecord
  2
29
 70
0
 62
7
  6
CONTINUOUS
370
-3
390
F
  0
LAYER
  5
213
100
AcDbSymbolTableRecord
100
AcDbLayerTableRecord
  2
3
 70
0
 62
7
  6
CONTINUOUS
370
-3
390
F
  0
LAYER
  5
214
100
AcDbSymbolTableRecord
100
AcDbLayerTableRecord
  2
30
 70
0
 62
7
  6
CONTINUOUS
370
-3
390
F
  0
LAYER
  5
215
100
AcDbSymbolTableRecord
100
AcDbLayerTableRecord
  2
31
 70
0
 62
7
  6
CONTINUOUS
370
-3
390
F
  0
LAYER
  5
216
100
AcDbSymbolTableRecord
100
AcDbLayerTableRecord
  2
32
 70
0
 62
7
  6
CONTINUOUS
370
-3
390
F
  0
LAYER
  5
217
100
AcDbSymbolTableRecord
100
AcDbLayerTableRecord
  2
4
 70
0
 62
7
  6
CONTINUOUS
370
-3
390
F
  0
LAYER
  5
218
100
AcDbSymbolTableRecord
100
AcDbLayerTableRecord
  2
5
 70
0
 62
7
  6
CONTINUOUS
370
-3
390
F
  0
LAYER
  5
219
100
AcDbSymbolTableRecord
100
AcDbLayerTableRecord
  2
6
 70
0
 62
7
  6
CONTINUOUS
370
-3
390
F
  0
LAYER
  5
21A
100
AcDbSymbolTableRecord
100
AcDbLayerTableRecord
  2
7
 70
0
 62
7
  6
CONTINUOUS
370
-3
390
F
  0
LAYER
  5
21B
100
AcDbSymbolTableRecord
100
AcDbLayerTableRecord
  2
8
 70
0
 62
7
  6
CONTINUOUS
370
-3
390
F
  0
LAYER
  5
21C
100
AcDbSymbolTableRecord
100
AcDbLayerTableRecord
  2
9
 70
0
 62
7
  6
CONTINUOUS
370
-3
390
F
  0
LAYER
  5
21D
100
AcDbSymbolTableRecord
100
AcDbLayerTableRecord
  2
AXIS
 70
0
 62
7
  6
CONTINUOUS
370
-3
390
F
  0
LAYER
  5
21E
100
AcDbSymbolTableRecord
100
AcDbLayerTableRecord
  2
AXIS_COSMETIC_THREADS
 70
0
 62
7
  6
CONTINUOUS
370
-3
390
F
  0
LAYER
  5
21F
100
AcDbSymbolTableRecord
100
AcDbLayerTableRecord
  2
DATUM_CURVES
 70
0
 62
7
  6
CONTINUOUS
370
-3
390
F
  0
LAYER
  5
220
100
AcDbSymbolTableRecord
100
AcDbLayerTableRecord
  2
DATUM_PLANES
 70
0
 62
7
  6
CONTINUOUS
370
-3
390
F
  0
LAYER
  5
221
100
AcDbSymbolTableRecord
100
AcDbLayerTableRecord
  2
MATTE_OUTLINE
 70
0
 62
7
  6
CONTINUOUS
370
-3
390
F
  0
LAYER
  5
222
100
AcDbSymbolTableRecord
100
AcDbLayerTableRecord
  2
NOTES
 70
0
 62
7
  6
CONTINUOUS
370
-3
390
F
  0
LAYER
  5
223
100
AcDbSymbolTableRecord
100
AcDbLayerTableRecord
  2
QUILTS
 70
0
 62
7
  6
CONTINUOUS
370
-3
390
F
  0
LAYER
  5
224
100
AcDbSymbolTableRecord
100
AcDbLayerTableRecord
  2
SCHEME_DIMS
 70
0
 62
7
  6
CONTINUOUS
370
-3
390
F
  0
LAYER
  5
225
100
AcDbSymbolTableRecord
100
AcDbLayerTableRecord
  2
SYMBOLS
 70
0
 62
7
  6
CONTINUOUS
370
-3
390
F
  0
LAYER
  5
226
100
AcDbSymbolTableRecord
100
AcDbLayerTableRecord
  2
XSEC_DATUMS
 70
0
 62
7
  6
CONTINUOUS
370
-3
390
F
  0
ENDTAB
  0
TABLE
  2
STYLE
  5
3
100
AcDbSymbolTable
 70
1
  0
STYLE
  5
11
100
AcDbSymbolTableRecord
100
AcDbTextStyleTableRecord
  2
STANDARD
 70
0
 40
0.0
 41
1.0
 50
0.0
 71
0
 42
0.2
  3
txt
  4

  0
STYLE
  5
227
100
AcDbSymbolTableRecord
100
AcDbTextStyleTableRecord
  2
TEXTSTYLE_1
 70
0
 40
0.0
 41
0.8
 50
0.0
 71
0
 42
0.2
  3
gdt
  4

  0
STYLE
  5
228
100
AcDbSymbolTableRecord
100
AcDbTextStyleTableRecord
  2
TEXTSTYLE_2
 70
0
 40
0.0
 41
0.8
 50
0.0
 71
0
 42
0.2
  3
txt
  4

  0
STYLE
  5
229
100
AcDbSymbolTableRecord
100
AcDbTextStyleTableRecord
  2
TEXTSTYLE_3
 70
0
 40
0.0
 41
0.85
 50
0.0
 71
0
 42
0.2
  3
txt
  4

  0
STYLE
  5
22A
100
AcDbSymbolTableRecord
100
AcDbTextStyleTableRecord
  2
TEXTSTYLE_4
 70
0
 40
0.0
 41
0.92
 50
0.0
 71
0
 42
0.2
  3
txt
  4

  0
STYLE
  5
22B
100
AcDbSymbolTableRecord
100
AcDbTextStyleTableRecord
  2
TEXTSTYLE_5
 70
0
 40
0.0
 41
1.0
 50
0.0
 71
0
 42
0.2
  3
gdt
  4

  0
ENDTAB
  0
TABLE
  2
VIEW
  5
6
100
AcDbSymbolTable
 70
0
  0
ENDTAB
  0
TABLE
  2
UCS
  5
7
100
AcDbSymbolTable
 70
0
  0
ENDTAB
  0
TABLE
  2
APPID
  5
9
100
AcDbSymbolTable
 70
1
  0
APPID
  5
22C
100
AcDbSymbolTableRecord
100
AcDbRegAppTableRecord
  2
ACAD
 70
0
  0
ENDTAB
  0
TABLE
  2
BLOCK_RECORD
  5
1
100
AcDbSymbolTable
 70
0
  0
BLOCK_RECORD
  5
22D
100
AcDbSymbolTableRecord
100
AcDbBlockTableRecord
  2
*Model_Space
  0
BLOCK_RECORD
  5
22E
100
AcDbSymbolTableRecord
100
AcDbBlockTableRecord
  2
*Paper_Space
  0
BLOCK_RECORD
  5
22F
100
AcDbSymbolTableRecord
100
AcDbBlockTableRecord
  2
_FILLED
  0
BLOCK_RECORD
  5
230
100
AcDbSymbolTableRecord
100
AcDbBlockTableRecord
  2
*D0
  0
BLOCK_RECORD
  5
231
100
AcDbSymbolTableRecord
100
AcDbBlockTableRecord
  2
*D1
  0
BLOCK_RECORD
  5
232
100
AcDbSymbolTableRecord
100
AcDbBlockTableRecord
  2
*D2
  0
BLOCK_RECORD
  5
233
100
AcDbSymbolTableRecord
100
AcDbBlockTableRecord
  2
*D3
  0
BLOCK_RECORD
  5
234
100
AcDbSymbolTableRecord
100
AcDbBlockTableRecord
  2
*D4
  0
BLOCK_RECORD
  5
235
100
AcDbSymbolTableRecord
100
AcDbBlockTableRecord
  2
BANNER_LOGO_TITLEBLOCK_BL0
  0
ENDTAB
  0
TABLE
  2
DIMSTYLE
  5
A
100
AcDbSymbolTable
 70
1
100
AcDbDimStyleTable
 71
0
  0
DIMSTYLE
105
236
100
AcDbSymbolTableRecord
100
AcDbDimStyleTableRecord
  2
STANDARD
 70
0
  3

  4

 40
1.0
 41
0.1875
 42
0.0625
 43
0.38
 44
0.18
 45
0.0
 46
0.0
 47
0.005
 48
0.005
140
0.1
141
0.09
142
0.0
143
25.4
144
1.0
145
0.0
146
1.0
147
0.09
 71
1.0
 72
0.0
 73
1
 74
1
 75
0
 76
0
 77
0
 78
4
170
0
171
2
172
0
173
0
174
0
175
0
176
0
177
0
178
0
270
2
271
3
272
3
273
2
274
2
275
0
280
0
281
0
282
0
283
1
284
4
285
0
286
0
287
3
288
0
340
11
341
22F
342
22F
343
22F
344
22F
  0
DIMSTYLE
105
237
100
AcDbSymbolTableRecord
100
AcDbDimStyleTableRecord
  2
DIMSTYLE_1
 70
0
  3

  4

 40
1.0
 41
0.1875
 42
0.0625
 43
0.38
 44
0.18
 45
0.0
 46
0.0
 47
0.1
 48
0.1
140
0.1
141
0.09
142
0.0
143
25.4
144
1.0
145
0.0
146
1.0
147
0.09
 71
0.0
 72
0.0
 73
1
 74
1
 75
0
 76
0
 77
0
 78
4
170
0
171
2
172
0
173
0
174
0
175
0
176
0
177
0
178
0
270
2
271
1
272
1
273
2
274
2
275
0
280
0
281
0
282
0
283
1
284
4
285
0
286
0
287
3
288
0
340
11
341
22F
342
22F
343
22F
344
22F
  0
ENDTAB
  0
ENDSEC
  0
SECTION
  2
BLOCKS
  0
BLOCK
  5
20
100
AcDbEntity
  8
0
100
AcDbBlockBegin
  2
*Model_Space
 70
0
 10
0.0
 20
0.0
 30
0.0
  3
*Model_Space
  1

  0
ENDBLK
  5
21
100
AcDbEntity
  8
0
100
AcDbBlockEnd
  0
BLOCK
  5
1C
100
AcDbEntity
  8
0
100
AcDbBlockBegin
  2
*Paper_Space
 70
0
 10
0.0
 20
0.0
 30
0.0
  3
*Paper_Space
  1

  0
ENDBLK
  5
1D
100
AcDbEntity
  8
0
100
AcDbBlockEnd
  0
BLOCK
  5
238
100
AcDbEntity
  8
0
100
AcDbBlockBegin
 62
2
  6
CONTINUOUS
  2
BANNER_LOGO_TITLEBLOCK_BL0
 70
64
 10
12.9086867042
 20
2.5403783405
  3
BANNER_LOGO_TITLEBLOCK_BL0
  1

  0
ELLIPSE
  5
239
100
AcDbEntity
  8
0
100
AcDbEllipse
 62
2
  6
CONTINUOUS
 10
12.9046654608
 20
2.5403783405
 30
0.0
 11
-0.8250004575
 21
0.0
 31
0.0
 40
0.218572
 41
0.0
 42
6.2831853072
  0
ARC
  5
23A
100
AcDbEntity
  8
0
100
AcDbCircle
 62
2
  6
CONTINUOUS
 10
12.400005721
 20
2.5168763464
 40
0.0153945295
100
AcDbArc
 50
354.0454548824
 51
5.1878013979
  0
ARC
  5
23B
100
AcDbEntity
  8
0
100
AcDbCircle
 62
2
  6
CONTINUOUS
 10
12.3931760319
 20
2.5166878286
 40
0.0222174455
100
AcDbArc
 50
4.0793399388
 51
69.834329283
  0
LINE
  5
23C
100
AcDbEntity
  8
0
100
AcDbLine
 62
2
  6
CONTINUOUS
 10
12.4008351814
 20
2.5375433389
 11
12.3907841758
 21
2.5410923409
  0
LINE
  5
23D
100
AcDbEntity
  8
0
100
AcDbLine
 62
2
  6
CONTINUOUS
 10
12.3907841758
 20
2.5410923409
 11
12.3990241804
 21
2.5458683435
  0
ARC
  5
23E
100
AcDbEntity
  8
0
100
AcDbCircle
 62
2
  6
CONTINUOUS
 10
12.3771587979
 20
2.5826952352
 40
0.0428289026
100
AcDbArc
 50
300.6990502959
 51
319.0591802498
  0
ARC
  5
23F
100
AcDbEntity
  8
0
100
AcDbCircle
 62
2
  6
CONTINUOUS
 10
12.3971873948
 20
2.5665668817
 40
0.0171568255
100
AcDbArc
 50
315.9145124245
 51
16.0049121282
  0
ARC
  5
240
100
AcDbEntity
  8
0
100
AcDbCircle
 62
2
  6
CONTINUOUS
 10
12.3922357827
 20
2.5632132173
 40
0.0229166529
100
AcDbArc
 50
20.6563876465
 51
62.3316896973
  0
ARC
  5
241
100
AcDbEntity
  8
0
100
AcDbCircle
 62
2
  6
CONTINUOUS
 10
12.371573659
 20
2.5302846524
 40
0.061747717
100
AcDbArc
 50
59.5385584989
 51
90.0050977555
  0
LINE
  5
242
100
AcDbEntity
  8
0
100
AcDbLine
 62
2
  6
CONTINUOUS
 10
12.3715681652
 20
2.5920323691
 11
12.2055050731
 21
2.5920323691
  0
ARC
  5
243
100
AcDbEntity
  8
0
100
AcDbCircle
 62
2
  6
CONTINUOUS
 10
12.2055050712
 20
2.5895573696
 40
0.0024749995
100
AcDbArc
 50
89.9999571957
 51
180.0000428043
  0
LINE
  5
244
100
AcDbEntity
  8
0
100
AcDbLine
 62
2
  6
CONTINUOUS
 10
12.2030300717
 20
2.5895573678
 11
12.2030300717
 21
2.5697573568
  0
ARC
  5
245
100
AcDbEntity
  8
0
100
AcDbCircle
 62
2
  6
CONTINUOUS
 10
12.2055050712
 20
2.5697573549
 40
0.0024749995
100
AcDbArc
 50
179.9999571957
 51
270.0000428043
  0
LINE
  5
246
100
AcDbEntity
  8
0
100
AcDbLine
 62
2
  6
CONTINUOUS
 10
12.2055050731
 20
2.5672823554
 11
12.2294470864
 21
2.5672823554
  0
ARC
  5
247
100
AcDbEntity
  8
0
100
AcDbCircle
 62
2
  6
CONTINUOUS
 10
12.2294470882
 20
2.5648073559
 40
0.0024749995
100
AcDbArc
 50
359.9999571957
 51
90.0000428043
  0
LINE
  5
248
100
AcDbEntity
  8
0
100
AcDbLine
 62
2
  6
CONTINUOUS
 10
12.2319220877
 20
2.564807354
 11
12.2319220877
 21
2.5184523283
  0
ARC
  5
249
100
AcDbEntity
  8
0
100
AcDbCircle
 62
2
  6
CONTINUOUS
 10
12.2294470882
 20
2.5184523265
 40
0.0024749995
100
AcDbArc
 50
269.9999571957
 51
0.0000428043
  0
LINE
  5
24A
100
AcDbEntity
  8
0
100
AcDbLine
 62
2
  6
CONTINUOUS
 10
12.2294470864
 20
2.515977327
 11
12.2055050731
 21
2.515977327
  0
ARC
  5
24B
100
AcDbEntity
  8
0
100
AcDbCircle
 62
2
  6
CONTINUOUS
 10
12.2055050712
 20
2.5135023274
 40
0.0024749995
100
AcDbArc
 50
89.9999571957
 51
180.0000428043
  0
LINE
  5
24C
100
AcDbEntity
  8
0
100
AcDbLine
 62
2
  6
CONTINUOUS
 10
12.2030300717
 20
2.5135023256
 11
12.2030300717
 21
2.4937023146
  0
ARC
  5
24D
100
AcDbEntity
  8
0
100
AcDbCircle
 62
2
  6
CONTINUOUS
 10
12.2055050712
 20
2.4937023128
 40
0.0024749995
100
AcDbArc
 50
179.9999571957
 51
270.0000428043
  0
LINE
  5
24E
100
AcDbEntity
  8
0
100
AcDbLine
 62
2
  6
CONTINUOUS
 10
12.2055050731
 20
2.4912273132
 11
12.3819511709
 21
2.4912273132
  0
ARC
  5
24F
100
AcDbEntity
  8
0
100
AcDbCircle
 62
2
  6
CONTINUOUS
 10
12.3792298263
 20
2.539634765
 40
0.048483885
100
AcDbArc
 50
273.21763719
 51
303.0749121182
  0
ARC
  5
250
100
AcDbEntity
  8
0
100
AcDbCircle
 62
2
  6
CONTINUOUS
 10
12.3940692204
 20
2.5168671561
 40
0.0213072145
100
AcDbArc
 50
303.0488228549
 51
355.7263138674
  0
LINE
  5
251
100
AcDbEntity
  8
0
100
AcDbLine
 62
2
  6
CONTINUOUS
 10
12.2949101227
 20
2.5499573458
 11
12.3362731456
 21
2.5499573458
  0
ARC
  5
252
100
AcDbEntity
  8
0
100
AcDbCircle
 62
2
  6
CONTINUOUS
 10
12.3362731456
 20
2.5586198506
 40
0.0086625048
100
AcDbArc
 50
270.0
 51
90.0
  0
LINE
  5
253
100
AcDbEntity
  8
0
100
AcDbLine
 62
2
  6
CONTINUOUS
 10
12.3362731456
 20
2.5672823554
 11
12.2949101227
 21
2.5672823554
  0
ARC
  5
254
100
AcDbEntity
  8
0
100
AcDbCircle
 62
2
  6
CONTINUOUS
 10
12.2949101208
 20
2.5648073559
 40
0.0024749995
100
AcDbArc
 50
89.9999571957
 51
180.0000428043
  0
LINE
  5
255
100
AcDbEntity
  8
0
100
AcDbLine
 62
2
  6
CONTINUOUS
 10
12.2924351213
 20
2.564807354
 11
12.2924351213
 21
2.5524323472
  0
ARC
  5
256
100
AcDbEntity
  8
0
100
AcDbCircle
 62
2
  6
CONTINUOUS
 10
12.2949101208
 20
2.5524323453
 40
0.0024749995
100
AcDbArc
 50
179.9999571957
 51
270.0000428043
  0
LINE
  5
257
100
AcDbEntity
  8
0
100
AcDbLine
 62
2
  6
CONTINUOUS
 10
12.2924351213
 20
2.5184523283
 11
12.2924351213
 21
2.5308273352
  0
ARC
  5
258
100
AcDbEntity
  8
0
100
AcDbCircle
 62
2
  6
CONTINUOUS
 10
12.2949101208
 20
2.530827337
 40
0.0024749995
100
AcDbArc
 50
89.9999571957
 51
180.0000428043
  0
LINE
  5
259
100
AcDbEntity
  8
0
100
AcDbLine
 62
2
  6
CONTINUOUS
 10
12.2949101227
 20
2.5333023366
 11
12.3362731456
 21
2.5333023366
  0
ARC
  5
25A
100
AcDbEntity
  8
0
100
AcDbCircle
 62
2
  6
CONTINUOUS
 10
12.3362731456
 20
2.5246398318
 40
0.0086625048
100
AcDbArc
 50
270.0
 51
90.0
  0
LINE
  5
25B
100
AcDbEntity
  8
0
100
AcDbLine
 62
2
  6
CONTINUOUS
 10
12.3362731456
 20
2.515977327
 11
12.2949101227
 21
2.515977327
  0
ARC
  5
25C
100
AcDbEntity
  8
0
100
AcDbCircle
 62
2
  6
CONTINUOUS
 10
12.2949101208
 20
2.5184523265
 40
0.0024749995
100
AcDbArc
 50
179.9999571957
 51
270.0000428043
  0
ARC
  5
25D
100
AcDbEntity
  8
0
100
AcDbCircle
 62
2
  6
CONTINUOUS
 10
13.5806801742
 20
2.5212486481
 40
0.044722495
100
AcDbArc
 50
195.531588407
 51
204.7624440448
  0
LINE
  5
25E
100
AcDbEntity
  8
0
100
AcDbLine
 62
2
  6
CONTINUOUS
 10
13.5375908118
 20
2.5092733232
 11
13.5357868108
 21
2.5153423266
  0
ARC
  5
25F
100
AcDbEntity
  8
0
100
AcDbCircle
 62
2
  6
CONTINUOUS
 10
13.4974076135
 20
2.5055452462
 40
0.0396099176
100
AcDbArc
 50
14.3201081283
 51
22.4984722084
  0
ARC
  5
260
100
AcDbEntity
  8
0
100
AcDbCircle
 62
2
  6
CONTINUOUS
 10
13.5201739219
 20
2.5145168728
 40
0.0151491919
100
AcDbArc
 50
24.098260853
 51
63.0369451818
  0
ARC
  5
261
100
AcDbEntity
  8
0
100
AcDbCircle
 62
2
  6
CONTINUOUS
 10
13.5161192671
 20
2.5062372524
 40
0.0243676582
100
AcDbArc
 50
63.3666028271
 51
90.3937697637
  0
LINE
  5
262
100
AcDbEntity
  8
0
100
AcDbLine
 62
2
  6
CONTINUOUS
 10
13.5159517998
 20
2.5306043351
 11
13.4883447845
 21
2.5306043351
  0
ARC
  5
263
100
AcDbEntity
  8
0
100
AcDbCircle
 62
2
  6
CONTINUOUS
 10
13.4883447827
 20
2.5281293355
 40
0.0024749995
100
AcDbArc
 50
89.9999571957
 51
180.0000428043
  0
LINE
  5
264
100
AcDbEntity
  8
0
100
AcDbLine
 62
2
  6
CONTINUOUS
 10
13.4858697831
 20
2.5281293337
 11
13.4858697831
 21
2.5184303283
  0
ARC
  5
265
100
AcDbEntity
  8
0
100
AcDbCircle
 62
2
  6
CONTINUOUS
 10
13.4883447827
 20
2.5184303265
 40
0.0024749995
100
AcDbArc
 50
179.9999571957
 51
270.0000428043
  0
LINE
  5
266
100
AcDbEntity
  8
0
100
AcDbLine
 62
2
  6
CONTINUOUS
 10
13.4883447845
 20
2.5159553269
 11
13.5130037982
 21
2.5159553269
  0
ARC
  5
267
100
AcDbEntity
  8
0
100
AcDbCircle
 62
2
  6
CONTINUOUS
 10
13.5130038
 20
2.5134803274
 40
0.0024749995
100
AcDbArc
 50
359.9999571957
 51
90.0000428043
  0
LINE
  5
268
100
AcDbEntity
  8
0
100
AcDbLine
 62
2
  6
CONTINUOUS
 10
13.5154787995
 20
2.5134803256
 11
13.5154787995
 21
2.4937023146
  0
ARC
  5
269
100
AcDbEntity
  8
0
100
AcDbCircle
 62
2
  6
CONTINUOUS
 10
13.5130038
 20
2.4937023128
 40
0.0024749995
100
AcDbArc
 50
269.9999571957
 51
0.0000428043
  0
LINE
  5
26A
100
AcDbEntity
  8
0
100
AcDbLine
 62
2
  6
CONTINUOUS
 10
13.5130037982
 20
2.4912273132
 11
13.3994327352
 21
2.4912273132
  0
ARC
  5
26B
100
AcDbEntity
  8
0
100
AcDbCircle
 62
2
  6
CONTINUOUS
 10
13.3994327333
 20
2.4937023128
 40
0.0024749995
100
AcDbArc
 50
179.9999571957
 51
270.0000428043
  0
LINE
  5
26C
100
AcDbEntity
  8
0
100
AcDbLine
 62
2
  6
CONTINUOUS
 10
13.3969577338
 20
2.4937023146
 11
13.3969577338
 21
2.5135023256
  0
ARC
  5
26D
100
AcDbEntity
  8
0
100
AcDbCircle
 62
2
  6
CONTINUOUS
 10
13.3994327333
 20
2.5135023274
 40
0.0024749995
100
AcDbArc
 50
89.9999571957
 51
180.0000428043
  0
LINE
  5
26E
100
AcDbEntity
  8
0
100
AcDbLine
 62
2
  6
CONTINUOUS
 10
13.3994327352
 20
2.515977327
 11
13.4221787478
 21
2.515977327
  0
ARC
  5
26F
100
AcDbEntity
  8
0
100
AcDbCircle
 62
2
  6
CONTINUOUS
 10
13.4221787497
 20
2.5184523265
 40
0.0024749995
100
AcDbArc
 50
269.9999571957
 51
0.0000428042
  0
LINE
  5
270
100
AcDbEntity
  8
0
100
AcDbLine
 62
2
  6
CONTINUOUS
 10
13.4246537492
 20
2.5184523283
 11
13.4246537492
 21
2.564807354
  0
ARC
  5
271
100
AcDbEntity
  8
0
100
AcDbCircle
 62
2
  6
CONTINUOUS
 10
13.4221787497
 20
2.5648073559
 40
0.0024749995
100
AcDbArc
 50
359.9999571957
 51
90.0000428043
  0
LINE
  5
272
100
AcDbEntity
  8
0
100
AcDbLine
 62
2
  6
CONTINUOUS
 10
13.4221787478
 20
2.5672823554
 11
13.3994327352
 21
2.5672823554
  0
ARC
  5
273
100
AcDbEntity
  8
0
100
AcDbCircle
 62
2
  6
CONTINUOUS
 10
13.3994327333
 20
2.5697573549
 40
0.0024749995
100
AcDbArc
 50
179.9999571957
 51
270.0000428043
  0
LINE
  5
274
100
AcDbEntity
  8
0
100
AcDbLine
 62
2
  6
CONTINUOUS
 10
13.3969577338
 20
2.5697573568
 11
13.3969577338
 21
2.5895573678
  0
ARC
  5
275
100
AcDbEntity
  8
0
100
AcDbCircle
 62
2
  6
CONTINUOUS
 10
13.3994327333
 20
2.5895573696
 40
0.0024749995
100
AcDbArc
 50
89.9999571957
 51
180.0000428043
  0
LINE
  5
276
100
AcDbEntity
  8
0
100
AcDbLine
 62
2
  6
CONTINUOUS
 10
13.3994327352
 20
2.5920323691
 11
13.5490138181
 21
2.5920323691
  0
ARC
  5
277
100
AcDbEntity
  8
0
100
AcDbCircle
 62
2
  6
CONTINUOUS
 10
13.5463505148
 20
2.4094934586
 40
0.1825583387
100
AcDbArc
 50
79.8618509324
 51
89.1640948679
  0
ARC
  5
278
100
AcDbEntity
  8
0
100
AcDbCircle
 62
2
  6
CONTINUOUS
 10
13.5726548052
 20
2.5503169747
 40
0.039319019
100
AcDbArc
 50
59.1202086415
 51
81.4730239328
  0
ARC
  5
279
100
AcDbEntity
  8
0
100
AcDbCircle
 62
2
  6
CONTINUOUS
 10
13.5783142014
 20
2.5566516438
 40
0.0310192946
100
AcDbArc
 50
34.7540871
 51
62.0879016178
  0
ARC
  5
27A
100
AcDbEntity
  8
0
100
AcDbCircle
 62
2
  6
CONTINUOUS
 10
13.5900029525
 20
2.565201245
 40
0.0165459396
100
AcDbArc
 50
1.548452892
 51
33.5033152417
  0
ARC
  5
27B
100
AcDbEntity
  8
0
100
AcDbCircle
 62
2
  6
CONTINUOUS
 10
13.5932995477
 20
2.5653696972
 40
0.0132462337
100
AcDbArc
 50
331.1510006998
 51
1.205404301
  0
ARC
  5
27C
100
AcDbEntity
  8
0
100
AcDbCircle
 62
2
  6
CONTINUOUS
 10
13.5822888914
 20
2.5720482849
 40
0.0261183659
100
AcDbArc
 50
305.6373831893
 51
329.9727629745
  0
ARC
  5
27D
100
AcDbEntity
  8
0
100
AcDbCircle
 62
2
  6
CONTINUOUS
 10
13.5519569538
 20
2.6152551345
 40
0.0789082104
100
AcDbArc
 50
292.906155071
 51
305.2574666259
  0
ARC
  5
27E
100
AcDbEntity
  8
0
100
AcDbCircle
 62
2
  6
CONTINUOUS
 10
13.5282557878
 20
2.4386010294
 40
0.117346916
100
AcDbArc
 50
58.614769177
 51
62.3737227606
  0
ARC
  5
27F
100
AcDbEntity
  8
0
100
AcDbCircle
 62
2
  6
CONTINUOUS
 10
13.5761387404
 20
2.5167282896
 40
0.0257145923
100
AcDbArc
 50
39.3804255939
 51
59.0361096173
  0
ARC
  5
280
100
AcDbEntity
  8
0
100
AcDbCircle
 62
2
  6
CONTINUOUS
 10
13.5750183849
 20
2.5166552064
 40
0.0266349791
100
AcDbArc
 50
20.3630922153
 51
37.9727053099
  0
ARC
  5
281
100
AcDbEntity
  8
0
100
AcDbCircle
 62
2
  6
CONTINUOUS
 10
13.5571178432
 20
2.509473798
 40
0.0459185159
100
AcDbArc
 50
15.6740290068
 51
20.9917271228
  0
ARC
  5
282
100
AcDbEntity
  8
0
100
AcDbCircle
 62
2
  6
CONTINUOUS
 10
13.6156881783
 20
2.525116781
 40
0.0147197649
100
AcDbArc
 50
192.7054516565
 51
206.0594861022
  0
ARC
  5
283
100
AcDbEntity
  8
0
100
AcDbCircle
 62
2
  6
CONTINUOUS
 10
13.6071938412
 20
2.5209082945
 40
0.0052403997
100
AcDbArc
 50
205.5232099488
 51
227.5054868079
  0
ARC
  5
284
100
AcDbEntity
  8
0
100
AcDbCircle
 62
2
  6
CONTINUOUS
 10
13.6054655419
 20
2.5190929218
 40
0.0027347709
100
AcDbArc
 50
228.5117626737
 51
266.1485845754
  0
LINE
  5
285
100
AcDbEntity
  8
0
100
AcDbLine
 62
2
  6
CONTINUOUS
 10
13.6052818493
 20
2.5163643272
 11
13.60639085
 21
2.5163643272
  0
ARC
  5
286
100
AcDbEntity
  8
0
100
AcDbCircle
 62
2
  6
CONTINUOUS
 10
13.6063292954
 20
2.5296129864
 40
0.0132488022
100
AcDbArc
 50
270.266200055
 51
281.2404888597
  0
ARC
  5
287
100
AcDbEntity
  8
0
100
AcDbCircle
 62
2
  6
CONTINUOUS
 10
13.6075235364
 20
2.5238762928
 40
0.0073895522
100
AcDbArc
 50
280.8288201977
 51
305.0837508495
  0
ARC
  5
288
100
AcDbEntity
  8
0
100
AcDbCircle
 62
2
  6
CONTINUOUS
 10
13.607924718
 20
2.5230254464
 40
0.0064647042
100
AcDbArc
 50
306.5086174083
 51
340.2162360092
  0
ARC
  5
289
100
AcDbEntity
  8
0
100
AcDbCircle
 62
2
  6
CONTINUOUS
 10
13.6027235414
 20
2.524769508
 40
0.0119498009
100
AcDbArc
 50
340.7883861657
 51
1.1691452593
  0
LINE
  5
28A
100
AcDbEntity
  8
0
100
AcDbLine
 62
2
  6
CONTINUOUS
 10
13.6146708546
 20
2.525013332
 11
13.6146708546
 21
2.5276393334
  0
ARC
  5
28B
100
AcDbEntity
  8
0
100
AcDbCircle
 62
2
  6
CONTINUOUS
 10
13.6171458541
 20
2.5276393353
 40
0.0024749995
100
AcDbArc
 50
89.9999571957
 51
180.0000428043
  0
LINE
  5
28C
100
AcDbEntity
  8
0
100
AcDbLine
 62
2
  6
CONTINUOUS
 10
13.6171458559
 20
2.5301143348
 11
13.6292558626
 21
2.5301143348
  0
ARC
  5
28D
100
AcDbEntity
  8
0
100
AcDbCircle
 62
2
  6
CONTINUOUS
 10
13.6292558645
 20
2.5276393353
 40
0.0024749995
100
AcDbArc
 50
359.9999571957
 51
90.0000428043
  0
LINE
  5
28E
100
AcDbEntity
  8
0
100
AcDbLine
 62
2
  6
CONTINUOUS
 10
13.631730864
 20
2.5276393334
 11
13.631730864
 21
2.516087327
  0
ARC
  5
28F
100
AcDbEntity
  8
0
100
AcDbCircle
 62
2
  6
CONTINUOUS
 10
13.6141751675
 20
2.5161916447
 40
0.0175560065
100
AcDbArc
 50
332.2279060967
 51
359.6595469939
  0
ARC
  5
290
100
AcDbEntity
  8
0
100
AcDbCircle
 62
2
  6
CONTINUOUS
 10
13.6048681567
 20
2.5210861501
 40
0.0280715479
100
AcDbArc
 50
308.5071794988
 51
332.2400656899
  0
ARC
  5
291
100
AcDbEntity
  8
0
100
AcDbCircle
 62
2
  6
CONTINUOUS
 10
13.5978759713
 20
2.5286873679
 40
0.0383802683
100
AcDbArc
 50
288.7656836787
 51
309.6104317088
  0
ARC
  5
292
100
AcDbEntity
  8
0
100
AcDbCircle
 62
2
  6
CONTINUOUS
 10
13.6036139387
 20
2.5111006186
 40
0.0198837666
100
AcDbArc
 50
271.8586572978
 51
289.4131338543
  0
LINE
  5
293
100
AcDbEntity
  8
0
100
AcDbLine
 62
2
  6
CONTINUOUS
 10
13.6042588488
 20
2.4912273132
 11
13.5568948225
 21
2.4912273132
  0
ARC
  5
294
100
AcDbEntity
  8
0
100
AcDbCircle
 62
2
  6
CONTINUOUS
 10
13.5577001432
 20
2.5085494649
 40
0.0173408616
100
AcDbArc
 50
232.4713476722
 51
267.338189944
  0
ARC
  5
295
100
AcDbEntity
  8
0
100
AcDbCircle
 62
2
  6
CONTINUOUS
 10
13.5607987082
 20
2.5143997688
 40
0.0238935861
100
AcDbArc
 50
209.8247607259
 51
235.1255079367
  0
ARC
  5
296
100
AcDbEntity
  8
0
100
AcDbCircle
 62
2
  6
CONTINUOUS
 10
13.5295131508
 20
2.5629115009
 40
0.0110815393
100
AcDbArc
 50
306.758405961
 51
320.4502234234
  0
ARC
  5
297
100
AcDbEntity
  8
0
100
AcDbCircle
 62
2
  6
CONTINUOUS
 10
13.5238839599
 20
2.5706523294
 40
0.0206523367
100
AcDbArc
 50
289.6883413472
 51
306.4184925496
  0
ARC
  5
298
100
AcDbEntity
  8
0
100
AcDbCircle
 62
2
  6
CONTINUOUS
 10
13.5219564542
 20
2.5750459767
 40
0.0254407115
100
AcDbArc
 50
270.7327484175
 51
290.441894219
  0
LINE
  5
299
100
AcDbEntity
  8
0
100
AcDbLine
 62
2
  6
CONTINUOUS
 10
13.5222818033
 20
2.5496073456
 11
13.4883447845
 21
2.5496073456
  0
ARC
  5
29A
100
AcDbEntity
  8
0
100
AcDbCircle
 62
2
  6
CONTINUOUS
 10
13.4883447827
 20
2.5520823451
 40
0.0024749995
100
AcDbArc
 50
179.9999571957
 51
270.0000428043
  0
LINE
  5
29B
100
AcDbEntity
  8
0
100
AcDbLine
 62
2
  6
CONTINUOUS
 10
13.4858697831
 20
2.552082347
 11
13.4858697831
 21
2.564807354
  0
ARC
  5
29C
100
AcDbEntity
  8
0
100
AcDbCircle
 62
2
  6
CONTINUOUS
 10
13.4883447827
 20
2.5648073559
 40
0.0024749995
100
AcDbArc
 50
89.9999571957
 51
180.0000428043
  0
LINE
  5
29D
100
AcDbEntity
  8
0
100
AcDbLine
 62
2
  6
CONTINUOUS
 10
13.4883447845
 20
2.5672823554
 11
13.5251458049
 21
2.5672823554
  0
ARC
  5
29E
100
AcDbEntity
  8
0
100
AcDbCircle
 62
2
  6
CONTINUOUS
 10
13.5236009174
 20
2.5388278764
 40
0.0284963867
100
AcDbArc
 50
70.3834917948
 51
86.8922743861
  0
ARC
  5
29F
100
AcDbEntity
  8
0
100
AcDbCircle
 62
2
  6
CONTINUOUS
 10
13.5284605274
 20
2.5518696094
 40
0.0145814632
100
AcDbArc
 50
54.6746025112
 51
71.1660573124
  0
ARC
  5
2A0
100
AcDbEntity
  8
0
100
AcDbCircle
 62
2
  6
CONTINUOUS
 10
13.5335900184
 20
2.5587235346
 40
0.0060275915
100
AcDbArc
 50
20.9055592135
 51
56.7851676243
  0
ARC
  5
2A1
100
AcDbEntity
  8
0
100
AcDbCircle
 62
2
  6
CONTINUOUS
 10
13.5348905773
 20
2.5593838168
 40
0.0045795888
100
AcDbArc
 50
355.6235353944
 51
18.9942678268
  0
ARC
  5
2A2
100
AcDbEntity
  8
0
100
AcDbCircle
 62
2
  6
CONTINUOUS
 10
13.533683767
 20
2.559677593
 40
0.0058087709
100
AcDbArc
 50
318.8515287446
 51
353.6422345323
  0
LINE
  5
2A3
100
AcDbEntity
  8
0
100
AcDbLine
 62
2
  6
CONTINUOUS
 10
12.672340332
 20
2.5920323691
 11
12.7727983877
 21
2.5920323691
  0
ARC
  5
2A4
100
AcDbEntity
  8
0
100
AcDbCircle
 62
2
  6
CONTINUOUS
 10
12.7727985224
 20
2.5895582013
 40
0.0024741678
100
AcDbArc
 50
46.3477981899
 51
90.0031206038
  0
LINE
  5
2A5
100
AcDbEntity
  8
0
100
AcDbLine
 62
2
  6
CONTINUOUS
 10
12.7745063886
 20
2.5913483688
 11
12.8345394219
 21
2.534068337
  0
ARC
  5
2A6
100
AcDbEntity
  8
0
100
AcDbCircle
 62
2
  6
CONTINUOUS
 10
12.8362481229
 20
2.5358592748
 40
0.0024753014
100
AcDbArc
 50
226.3461263059
 51
0.0014637321
  0
LINE
  5
2A7
100
AcDbEntity
  8
0
100
AcDbLine
 62
2
  6
CONTINUOUS
 10
12.8387234242
 20
2.535859338
 11
12.8387234242
 21
2.564807354
  0
ARC
  5
2A8
100
AcDbEntity
  8
0
100
AcDbCircle
 62
2
  6
CONTINUOUS
 10
12.8362484247
 20
2.5648073559
 40
0.0024749995
100
AcDbArc
 50
359.9999571957
 51
90.0000428043
  0
LINE
  5
2A9
100
AcDbEntity
  8
0
100
AcDbLine
 62
2
  6
CONTINUOUS
 10
12.8362484229
 20
2.5672823554
 11
12.8174724125
 21
2.5672823554
  0
ARC
  5
2AA
100
AcDbEntity
  8
0
100
AcDbCircle
 62
2
  6
CONTINUOUS
 10
12.8174724106
 20
2.5697573549
 40
0.0024749995
100
AcDbArc
 50
179.9999571957
 51
270.0000428043
  0
LINE
  5
2AB
100
AcDbEntity
  8
0
100
AcDbLine
 62
2
  6
CONTINUOUS
 10
12.8149974111
 20
2.5697573568
 11
12.8149974111
 21
2.5895573678
  0
ARC
  5
2AC
100
AcDbEntity
  8
0
100
AcDbCircle
 62
2
  6
CONTINUOUS
 10
12.8174724106
 20
2.5895573696
 40
0.0024749995
100
AcDbArc
 50
89.9999571957
 51
180.0000428043
  0
LINE
  5
2AD
100
AcDbEntity
  8
0
100
AcDbLine
 62
2
  6
CONTINUOUS
 10
12.8174724125
 20
2.5920323691
 11
12.8914734535
 21
2.5920323691
  0
ARC
  5
2AE
100
AcDbEntity
  8
0
100
AcDbCircle
 62
2
  6
CONTINUOUS
 10
12.8914734553
 20
2.5895573696
 40
0.0024749995
100
AcDbArc
 50
359.9999571957
 51
90.0000428043
  0
LINE
  5
2AF
100
AcDbEntity
  8
0
100
AcDbLine
 62
2
  6
CONTINUOUS
 10
12.8939484549
 20
2.5895573678
 11
12.8939484549
 21
2.5697573568
  0
ARC
  5
2B0
100
AcDbEntity
  8
0
100
AcDbCircle
 62
2
  6
CONTINUOUS
 10
12.8914734553
 20
2.5697573549
 40
0.0024749995
100
AcDbArc
 50
269.9999571957
 51
0.0000428043
  0
LINE
  5
2B1
100
AcDbEntity
  8
0
100
AcDbLine
 62
2
  6
CONTINUOUS
 10
12.8914734535
 20
2.5672823554
 11
12.8735404436
 21
2.5672823554
  0
ARC
  5
2B2
100
AcDbEntity
  8
0
100
AcDbCircle
 62
2
  6
CONTINUOUS
 10
12.8735404417
 20
2.5648073559
 40
0.0024749995
100
AcDbArc
 50
89.9999571957
 51
180.0000428043
  0
LINE
  5
2B3
100
AcDbEntity
  8
0
100
AcDbLine
 62
2
  6
CONTINUOUS
 10
12.8710654422
 20
2.564807354
 11
12.8710654422
 21
2.4937023146
  0
ARC
  5
2B4
100
AcDbEntity
  8
0
100
AcDbCircle
 62
2
  6
CONTINUOUS
 10
12.8685904427
 20
2.4937023128
 40
0.0024749995
100
AcDbArc
 50
269.9999571957
 51
0.0000428043
  0
LINE
  5
2B5
100
AcDbEntity
  8
0
100
AcDbLine
 62
2
  6
CONTINUOUS
 10
12.8685904408
 20
2.4912273132
 11
12.7943853997
 21
2.4912273132
  0
ARC
  5
2B6
100
AcDbEntity
  8
0
100
AcDbCircle
 62
2
  6
CONTINUOUS
 10
12.7943847649
 20
2.4937027294
 40
0.0024754162
100
AcDbArc
 50
226.3593695813
 51
270.0146919953
  0
LINE
  5
2B7
100
AcDbEntity
  8
0
100
AcDbLine
 62
2
  6
CONTINUOUS
 10
12.7926763987
 20
2.4919113136
 11
12.7293963636
 21
2.5522893471
  0
ARC
  5
2B8
100
AcDbEntity
  8
0
100
AcDbCircle
 62
2
  6
CONTINUOUS
 10
12.7276876627
 20
2.5504984093
 40
0.0024753014
100
AcDbArc
 50
46.3461263059
 51
180.0014637321
  0
LINE
  5
2B9
100
AcDbEntity
  8
0
100
AcDbLine
 62
2
  6
CONTINUOUS
 10
12.7252123613
 20
2.5504983461
 11
12.7252123613
 21
2.5184523283
  0
ARC
  5
2BA
100
AcDbEntity
  8
0
100
AcDbCircle
 62
2
  6
CONTINUOUS
 10
12.7276873608
 20
2.5184523265
 40
0.0024749995
100
AcDbArc
 50
179.9999571957
 51
270.0000428043
  0
LINE
  5
2BB
100
AcDbEntity
  8
0
100
AcDbLine
 62
2
  6
CONTINUOUS
 10
12.7276873627
 20
2.515977327
 11
12.7480043739
 21
2.515977327
  0
ARC
  5
2BC
100
AcDbEntity
  8
0
100
AcDbCircle
 62
2
  6
CONTINUOUS
 10
12.7480043758
 20
2.5135023274
 40
0.0024749995
100
AcDbArc
 50
359.9999571957
 51
90.0000428043
  0
LINE
  5
2BD
100
AcDbEntity
  8
0
100
AcDbLine
 62
2
  6
CONTINUOUS
 10
12.7504793753
 20
2.5135023256
 11
12.7504793753
 21
2.4937023146
  0
ARC
  5
2BE
100
AcDbEntity
  8
0
100
AcDbCircle
 62
2
  6
CONTINUOUS
 10
12.7480043758
 20
2.4937023128
 40
0.0024749995
100
AcDbArc
 50
269.9999571957
 51
0.0000428043
  0
LINE
  5
2BF
100
AcDbEntity
  8
0
100
AcDbLine
 62
2
  6
CONTINUOUS
 10
12.7480043739
 20
2.4912273132
 11
12.672340332
 21
2.4912273132
  0
ARC
  5
2C0
100
AcDbEntity
  8
0
100
AcDbCircle
 62
2
  6
CONTINUOUS
 10
12.6723403301
 20
2.4937023128
 40
0.0024749995
100
AcDbArc
 50
179.9999571957
 51
270.0000428043
  0
LINE
  5
2C1
100
AcDbEntity
  8
0
100
AcDbLine
 62
2
  6
CONTINUOUS
 10
12.6698653306
 20
2.4937023146
 11
12.6698653306
 21
2.5135023256
  0
ARC
  5
2C2
100
AcDbEntity
  8
0
100
AcDbCircle
 62
2
  6
CONTINUOUS
 10
12.6723403301
 20
2.5135023274
 40
0.0024749995
100
AcDbArc
 50
89.9999571957
 51
180.0000428043
  0
LINE
  5
2C3
100
AcDbEntity
  8
0
100
AcDbLine
 62
2
  6
CONTINUOUS
 10
12.672340332
 20
2.515977327
 11
12.6909873423
 21
2.515977327
  0
ARC
  5
2C4
100
AcDbEntity
  8
0
100
AcDbCircle
 62
2
  6
CONTINUOUS
 10
12.6909873442
 20
2.5184523265
 40
0.0024749995
100
AcDbArc
 50
269.9999571957
 51
0.0000428043
  0
LINE
  5
2C5
100
AcDbEntity
  8
0
100
AcDbLine
 62
2
  6
CONTINUOUS
 10
12.6934623437
 20
2.5184523283
 11
12.6934623437
 21
2.564807354
  0
ARC
  5
2C6
100
AcDbEntity
  8
0
100
AcDbCircle
 62
2
  6
CONTINUOUS
 10
12.6909873442
 20
2.5648073559
 40
0.0024749995
100
AcDbArc
 50
359.9999571957
 51
90.0000428043
  0
LINE
  5
2C7
100
AcDbEntity
  8
0
100
AcDbLine
 62
2
  6
CONTINUOUS
 10
12.6909873423
 20
2.5672823554
 11
12.672340332
 21
2.5672823554
  0
ARC
  5
2C8
100
AcDbEntity
  8
0
100
AcDbCircle
 62
2
  6
CONTINUOUS
 10
12.6723403301
 20
2.5697573549
 40
0.0024749995
100
AcDbArc
 50
179.9999571957
 51
270.0000428043
  0
LINE
  5
2C9
100
AcDbEntity
  8
0
100
AcDbLine
 62
2
  6
CONTINUOUS
 10
12.6698653306
 20
2.5697573568
 11
12.6698653306
 21
2.5895573678
  0
ARC
  5
2CA
100
AcDbEntity
  8
0
100
AcDbCircle
 62
2
  6
CONTINUOUS
 10
12.6723403301
 20
2.5895573696
 40
0.0024749995
100
AcDbArc
 50
89.9999571957
 51
180.0000428043
  0
LINE
  5
2CB
100
AcDbEntity
  8
0
100
AcDbLine
 62
2
  6
CONTINUOUS
 10
12.5246402501
 20
2.5655893545
 11
12.5175232461
 21
2.5543723483
  0
ARC
  5
2CC
100
AcDbEntity
  8
0
100
AcDbCircle
 62
2
  6
CONTINUOUS
 10
12.519613138
 20
2.5530463862
 40
0.0024750401
100
AcDbArc
 50
147.6063258012
 51
270.0025305754
  0
LINE
  5
2CD
100
AcDbEntity
  8
0
100
AcDbLine
 62
2
  6
CONTINUOUS
 10
12.5196132473
 20
2.5505713461
 11
12.5401702587
 21
2.5505713461
  0
ARC
  5
2CE
100
AcDbEntity
  8
0
100
AcDbCircle
 62
2
  6
CONTINUOUS
 10
12.5401702375
 20
2.5530465533
 40
0.0024752071
100
AcDbArc
 50
270.0004896793
 51
32.9089806818
  0
LINE
  5
2CF
100
AcDbEntity
  8
0
100
AcDbLine
 62
2
  6
CONTINUOUS
 10
12.5422482598
 20
2.5543913483
 11
12.5349892558
 21
2.5656073545
  0
ARC
  5
2D0
100
AcDbEntity
  8
0
100
AcDbCircle
 62
2
  6
CONTINUOUS
 10
12.532910715
 20
2.564262895
 40
0.0024754602
100
AcDbArc
 50
32.8959418573
 51
89.9875097202
  0
LINE
  5
2D1
100
AcDbEntity
  8
0
100
AcDbLine
 62
2
  6
CONTINUOUS
 10
12.5329112547
 20
2.5667383551
 11
12.5267302512
 21
2.5667383551
  0
ARC
  5
2D2
100
AcDbEntity
  8
0
100
AcDbCircle
 62
2
  6
CONTINUOUS
 10
12.5267301809
 20
2.5642631548
 40
0.0024752003
100
AcDbArc
 50
89.998372645
 51
147.602165307
  0
LINE
  5
2D3
100
AcDbEntity
  8
0
100
AcDbLine
 62
2
  6
CONTINUOUS
 10
12.548053263
 20
2.5284903339
 11
12.5536792662
 21
2.5197973291
  0
ARC
  5
2D4
100
AcDbEntity
  8
0
100
AcDbCircle
 62
2
  6
CONTINUOUS
 10
12.5516012439
 20
2.5184525341
 40
0.0024752071
100
AcDbArc
 50
270.0004896794
 51
32.9089806818
  0
LINE
  5
2D5
100
AcDbEntity
  8
0
100
AcDbLine
 62
2
  6
CONTINUOUS
 10
12.551601265
 20
2.515977327
 11
12.537150257
 21
2.515977327
  0
ARC
  5
2D6
100
AcDbEntity
  8
0
100
AcDbCircle
 62
2
  6
CONTINUOUS
 10
12.5371502552
 20
2.5135023274
 40
0.0024749995
100
AcDbArc
 50
89.9999571957
 51
180.0000428043
  0
LINE
  5
2D7
100
AcDbEntity
  8
0
100
AcDbLine
 62
2
  6
CONTINUOUS
 10
12.5346752556
 20
2.5135023256
 11
12.5346752556
 21
2.4937023146
  0
ARC
  5
2D8
100
AcDbEntity
  8
0
100
AcDbCircle
 62
2
  6
CONTINUOUS
 10
12.5371502552
 20
2.4937023128
 40
0.0024749995
100
AcDbArc
 50
179.9999571957
 51
270.0000428043
  0
LINE
  5
2D9
100
AcDbEntity
  8
0
100
AcDbLine
 62
2
  6
CONTINUOUS
 10
12.537150257
 20
2.4912273132
 11
12.6424313154
 21
2.4912273132
  0
ARC
  5
2DA
100
AcDbEntity
  8
0
100
AcDbCircle
 62
2
  6
CONTINUOUS
 10
12.6424313172
 20
2.4937023128
 40
0.0024749995
100
AcDbArc
 50
269.9999571957
 51
0.0000428043
  0
LINE
  5
2DB
100
AcDbEntity
  8
0
100
AcDbLine
 62
2
  6
CONTINUOUS
 10
12.6449063168
 20
2.4937023146
 11
12.6449063168
 21
2.5135023256
  0
ARC
  5
2DC
100
AcDbEntity
  8
0
100
AcDbCircle
 62
2
  6
CONTINUOUS
 10
12.6424313172
 20
2.5135023274
 40
0.0024749995
100
AcDbArc
 50
359.9999571957
 51
90.0000428043
  0
LINE
  5
2DD
100
AcDbEntity
  8
0
100
AcDbLine
 62
2
  6
CONTINUOUS
 10
12.6424313154
 20
2.515977327
 11
12.6224153043
 21
2.515977327
  0
ARC
  5
2DE
100
AcDbEntity
  8
0
100
AcDbCircle
 62
2
  6
CONTINUOUS
 10
12.6224154248
 20
2.518451368
 40
0.002474041
100
AcDbArc
 50
212.9056413127
 51
269.9972091756
  0
LINE
  5
2DF
100
AcDbEntity
  8
0
100
AcDbLine
 62
2
  6
CONTINUOUS
 10
12.6203383031
 20
2.5171073276
 11
12.5725822767
 21
2.5909023685
  0
ARC
  5
2E0
100
AcDbEntity
  8
0
100
AcDbCircle
 62
2
  6
CONTINUOUS
 10
12.570504655
 20
2.589557409
 40
0.0024749602
100
AcDbArc
 50
32.9172174468
 51
90.0087853097
  0
LINE
  5
2E1
100
AcDbEntity
  8
0
100
AcDbLine
 62
2
  6
CONTINUOUS
 10
12.5705042755
 20
2.5920323691
 11
12.5133292438
 21
2.5920323691
  0
ARC
  5
2E2
100
AcDbEntity
  8
0
100
AcDbCircle
 62
2
  6
CONTINUOUS
 10
12.5133291735
 20
2.5895571688
 40
0.0024752003
100
AcDbArc
 50
89.9983726451
 51
147.602165307
  0
LINE
  5
2E3
100
AcDbEntity
  8
0
100
AcDbLine
 62
2
  6
CONTINUOUS
 10
12.5112392426
 20
2.5908833685
 11
12.4644392167
 21
2.5171263276
  0
ARC
  5
2E4
100
AcDbEntity
  8
0
100
AcDbCircle
 62
2
  6
CONTINUOUS
 10
12.4623492858
 20
2.5184525273
 40
0.0024752003
100
AcDbArc
 50
269.9983726451
 51
327.602165307
  0
LINE
  5
2E5
100
AcDbEntity
  8
0
100
AcDbLine
 62
2
  6
CONTINUOUS
 10
12.4623492155
 20
2.515977327
 11
12.4394882028
 21
2.515977327
  0
ARC
  5
2E6
100
AcDbEntity
  8
0
100
AcDbCircle
 62
2
  6
CONTINUOUS
 10
12.439488201
 20
2.5135023274
 40
0.0024749995
100
AcDbArc
 50
89.9999571957
 51
180.0000428043
  0
LINE
  5
2E7
100
AcDbEntity
  8
0
100
AcDbLine
 62
2
  6
CONTINUOUS
 10
12.4370132015
 20
2.5135023256
 11
12.4370132015
 21
2.4937023146
  0
ARC
  5
2E8
100
AcDbEntity
  8
0
100
AcDbCircle
 62
2
  6
CONTINUOUS
 10
12.439488201
 20
2.4937023128
 40
0.0024749995
100
AcDbArc
 50
179.9999571957
 51
270.0000428043
  0
LINE
  5
2E9
100
AcDbEntity
  8
0
100
AcDbLine
 62
2
  6
CONTINUOUS
 10
12.4394882028
 20
2.4912273132
 11
12.5168642458
 21
2.4912273132
  0
ARC
  5
2EA
100
AcDbEntity
  8
0
100
AcDbCircle
 62
2
  6
CONTINUOUS
 10
12.5168642476
 20
2.4937023128
 40
0.0024749995
100
AcDbArc
 50
269.9999571957
 51
0.0000428043
  0
LINE
  5
2EB
100
AcDbEntity
  8
0
100
AcDbLine
 62
2
  6
CONTINUOUS
 10
12.5193392471
 20
2.4937023146
 11
12.5193392471
 21
2.5135023256
  0
ARC
  5
2EC
100
AcDbEntity
  8
0
100
AcDbCircle
 62
2
  6
CONTINUOUS
 10
12.5168642476
 20
2.5135023274
 40
0.0024749995
100
AcDbArc
 50
359.9999571957
 51
90.0000428043
  0
LINE
  5
2ED
100
AcDbEntity
  8
0
100
AcDbLine
 62
2
  6
CONTINUOUS
 10
12.5168642458
 20
2.515977327
 11
12.5055812395
 21
2.515977327
  0
ARC
  5
2EE
100
AcDbEntity
  8
0
100
AcDbCircle
 62
2
  6
CONTINUOUS
 10
12.5055811302
 20
2.518452367
 40
0.0024750401
100
AcDbArc
 50
147.6063258011
 51
270.0025305754
  0
LINE
  5
2EF
100
AcDbEntity
  8
0
100
AcDbLine
 62
2
  6
CONTINUOUS
 10
12.5034912383
 20
2.5197783291
 11
12.5090072414
 21
2.5284723339
  0
ARC
  5
2F0
100
AcDbEntity
  8
0
100
AcDbCircle
 62
2
  6
CONTINUOUS
 10
12.5110971723
 20
2.5271461342
 40
0.0024752003
100
AcDbArc
 50
89.998372645
 51
147.602165307
  0
LINE
  5
2F1
100
AcDbEntity
  8
0
100
AcDbLine
 62
2
  6
CONTINUOUS
 10
12.5110972426
 20
2.5296213345
 11
12.5459752619
 21
2.5296213345
  0
ARC
  5
2F2
100
AcDbEntity
  8
0
100
AcDbCircle
 62
2
  6
CONTINUOUS
 10
12.5459747223
 20
2.5271458744
 40
0.0024754602
100
AcDbArc
 50
32.8959418573
 51
89.9875097202
  0
LINE
  5
2F3
100
AcDbEntity
  8
0
100
AcDbLine
 62
2
  6
CONTINUOUS
 10
12.9205934696
 20
2.5920323691
 11
13.0210515254
 21
2.5920323691
  0
ARC
  5
2F4
100
AcDbEntity
  8
0
100
AcDbCircle
 62
2
  6
CONTINUOUS
 10
13.0210516601
 20
2.5895582013
 40
0.0024741678
100
AcDbArc
 50
46.3477981899
 51
90.0031206038
  0
LINE
  5
2F5
100
AcDbEntity
  8
0
100
AcDbLine
 62
2
  6
CONTINUOUS
 10
13.0227595263
 20
2.5913483688
 11
13.0827925596
 21
2.534068337
  0
ARC
  5
2F6
100
AcDbEntity
  8
0
100
AcDbCircle
 62
2
  6
CONTINUOUS
 10
13.0845012605
 20
2.5358592748
 40
0.0024753014
100
AcDbArc
 50
226.3461263059
 51
0.0014637321
  0
LINE
  5
2F7
100
AcDbEntity
  8
0
100
AcDbLine
 62
2
  6
CONTINUOUS
 10
13.0869765619
 20
2.535859338
 11
13.0869765619
 21
2.564807354
  0
ARC
  5
2F8
100
AcDbEntity
  8
0
100
AcDbCircle
 62
2
  6
CONTINUOUS
 10
13.0845015624
 20
2.5648073559
 40
0.0024749995
100
AcDbArc
 50
359.9999571957
 51
90.0000428043
  0
LINE
  5
2F9
100
AcDbEntity
  8
0
100
AcDbLine
 62
2
  6
CONTINUOUS
 10
13.0845015605
 20
2.5672823554
 11
13.0657255501
 21
2.5672823554
  0
ARC
  5
2FA
100
AcDbEntity
  8
0
100
AcDbCircle
 62
2
  6
CONTINUOUS
 10
13.0657255483
 20
2.5697573549
 40
0.0024749995
100
AcDbArc
 50
179.9999571957
 51
270.0000428043
  0
LINE
  5
2FB
100
AcDbEntity
  8
0
100
AcDbLine
 62
2
  6
CONTINUOUS
 10
13.0632505488
 20
2.5697573568
 11
13.0632505488
 21
2.5895573678
  0
ARC
  5
2FC
100
AcDbEntity
  8
0
100
AcDbCircle
 62
2
  6
CONTINUOUS
 10
13.0657255483
 20
2.5895573696
 40
0.0024749995
100
AcDbArc
 50
89.9999571957
 51
180.0000428043
  0
LINE
  5
2FD
100
AcDbEntity
  8
0
100
AcDbLine
 62
2
  6
CONTINUOUS
 10
13.0657255501
 20
2.5920323691
 11
13.1397265912
 21
2.5920323691
  0
ARC
  5
2FE
100
AcDbEntity
  8
0
100
AcDbCircle
 62
2
  6
CONTINUOUS
 10
13.139726593
 20
2.5895573696
 40
0.0024749995
100
AcDbArc
 50
359.9999571957
 51
90.0000428043
  0
LINE
  5
2FF
100
AcDbEntity
  8
0
100
AcDbLine
 62
2
  6
CONTINUOUS
 10
13.1422015925
 20
2.5895573678
 11
13.1422015925
 21
2.5697573568
  0
ARC
  5
300
100
AcDbEntity
  8
0
100
AcDbCircle
 62
2
  6
CONTINUOUS
 10
13.139726593
 20
2.5697573549
 40
0.0024749995
100
AcDbArc
 50
269.9999571957
 51
0.0000428042
  0
LINE
  5
301
100
AcDbEntity
  8
0
100
AcDbLine
 62
2
  6
CONTINUOUS
 10
13.1397265912
 20
2.5672823554
 11
13.1217935812
 21
2.5672823554
  0
ARC
  5
302
100
AcDbEntity
  8
0
100
AcDbCircle
 62
2
  6
CONTINUOUS
 10
13.1217935794
 20
2.5648073559
 40
0.0024749995
100
AcDbArc
 50
89.9999571957
 51
180.0000428042
  0
LINE
  5
303
100
AcDbEntity
  8
0
100
AcDbLine
 62
2
  6
CONTINUOUS
 10
13.1193185799
 20
2.564807354
 11
13.1193185799
 21
2.4937023146
  0
ARC
  5
304
100
AcDbEntity
  8
0
100
AcDbCircle
 62
2
  6
CONTINUOUS
 10
13.1168435803
 20
2.4937023128
 40
0.0024749995
100
AcDbArc
 50
269.9999571957
 51
0.0000428043
  0
LINE
  5
305
100
AcDbEntity
  8
0
100
AcDbLine
 62
2
  6
CONTINUOUS
 10
13.1168435785
 20
2.4912273132
 11
13.0426375373
 21
2.4912273132
  0
ARC
  5
306
100
AcDbEntity
  8
0
100
AcDbCircle
 62
2
  6
CONTINUOUS
 10
13.0426374026
 20
2.493701481
 40
0.0024741678
100
AcDbArc
 50
226.3477981898
 51
270.0031206038
  0
LINE
  5
307
100
AcDbEntity
  8
0
100
AcDbLine
 62
2
  6
CONTINUOUS
 10
13.0409295364
 20
2.4919113136
 11
12.9776495013
 21
2.5522893471
  0
ARC
  5
308
100
AcDbEntity
  8
0
100
AcDbCircle
 62
2
  6
CONTINUOUS
 10
12.9759408003
 20
2.5504984093
 40
0.0024753014
100
AcDbArc
 50
46.3461263059
 51
180.0014637321
  0
LINE
  5
309
100
AcDbEntity
  8
0
100
AcDbLine
 62
2
  6
CONTINUOUS
 10
12.973465499
 20
2.5504983461
 11
12.973465499
 21
2.5184523283
  0
ARC
  5
30A
100
AcDbEntity
  8
0
100
AcDbCircle
 62
2
  6
CONTINUOUS
 10
12.9759404985
 20
2.5184523265
 40
0.0024749995
100
AcDbArc
 50
179.9999571957
 51
270.0000428043
  0
LINE
  5
30B
100
AcDbEntity
  8
0
100
AcDbLine
 62
2
  6
CONTINUOUS
 10
12.9759405003
 20
2.515977327
 11
12.9962575116
 21
2.515977327
  0
ARC
  5
30C
100
AcDbEntity
  8
0
100
AcDbCircle
 62
2
  6
CONTINUOUS
 10
12.9962575135
 20
2.5135023274
 40
0.0024749995
100
AcDbArc
 50
359.9999571957
 51
90.0000428043
  0
LINE
  5
30D
100
AcDbEntity
  8
0
100
AcDbLine
 62
2
  6
CONTINUOUS
 10
12.998732513
 20
2.5135023256
 11
12.998732513
 21
2.4937023146
  0
ARC
  5
30E
100
AcDbEntity
  8
0
100
AcDbCircle
 62
2
  6
CONTINUOUS
 10
12.9962575135
 20
2.4937023128
 40
0.0024749995
100
AcDbArc
 50
269.9999571957
 51
0.0000428043
  0
LINE
  5
30F
100
AcDbEntity
  8
0
100
AcDbLine
 62
2
  6
CONTINUOUS
 10
12.9962575116
 20
2.4912273132
 11
12.9205934696
 21
2.4912273132
  0
ARC
  5
310
100
AcDbEntity
  8
0
100
AcDbCircle
 62
2
  6
CONTINUOUS
 10
12.9205934678
 20
2.4937023128
 40
0.0024749995
100
AcDbArc
 50
179.9999571957
 51
270.0000428043
  0
LINE
  5
311
100
AcDbEntity
  8
0
100
AcDbLine
 62
2
  6
CONTINUOUS
 10
12.9181184683
 20
2.4937023146
 11
12.9181184683
 21
2.5135023256
  0
ARC
  5
312
100
AcDbEntity
  8
0
100
AcDbCircle
 62
2
  6
CONTINUOUS
 10
12.9205934678
 20
2.5135023274
 40
0.0024749995
100
AcDbArc
 50
89.9999571957
 51
180.0000428042
  0
LINE
  5
313
100
AcDbEntity
  8
0
100
AcDbLine
 62
2
  6
CONTINUOUS
 10
12.9205934696
 20
2.515977327
 11
12.93923948
 21
2.515977327
  0
ARC
  5
314
100
AcDbEntity
  8
0
100
AcDbCircle
 62
2
  6
CONTINUOUS
 10
12.9392394818
 20
2.5184523265
 40
0.0024749995
100
AcDbArc
 50
269.9999571957
 51
0.0000428043
  0
LINE
  5
315
100
AcDbEntity
  8
0
100
AcDbLine
 62
2
  6
CONTINUOUS
 10
12.9417144814
 20
2.5184523283
 11
12.9417144814
 21
2.564807354
  0
ARC
  5
316
100
AcDbEntity
  8
0
100
AcDbCircle
 62
2
  6
CONTINUOUS
 10
12.9392394818
 20
2.5648073559
 40
0.0024749995
100
AcDbArc
 50
359.9999571957
 51
90.0000428043
  0
LINE
  5
317
100
AcDbEntity
  8
0
100
AcDbLine
 62
2
  6
CONTINUOUS
 10
12.93923948
 20
2.5672823554
 11
12.9205934696
 21
2.5672823554
  0
ARC
  5
318
100
AcDbEntity
  8
0
100
AcDbCircle
 62
2
  6
CONTINUOUS
 10
12.9205934678
 20
2.5697573549
 40
0.0024749995
100
AcDbArc
 50
179.9999571957
 51
270.0000428043
  0
LINE
  5
319
100
AcDbEntity
  8
0
100
AcDbLine
 62
2
  6
CONTINUOUS
 10
12.9181184683
 20
2.5697573568
 11
12.9181184683
 21
2.5895573678
  0
ARC
  5
31A
100
AcDbEntity
  8
0
100
AcDbCircle
 62
2
  6
CONTINUOUS
 10
12.9205934678
 20
2.5895573696
 40
0.0024749995
100
AcDbArc
 50
89.9999571957
 51
180.0000428042
  0
LINE
  5
31B
100
AcDbEntity
  8
0
100
AcDbLine
 62
2
  6
CONTINUOUS
 10
13.2934226764
 20
2.5324773361
 11
13.2582556569
 21
2.5324773361
  0
ARC
  5
31C
100
AcDbEntity
  8
0
100
AcDbCircle
 62
2
  6
CONTINUOUS
 10
13.2582556551
 20
2.5300023366
 40
0.0024749995
100
AcDbArc
 50
89.9999571957
 51
180.0000428043
  0
LINE
  5
31D
100
AcDbEntity
  8
0
100
AcDbLine
 62
2
  6
CONTINUOUS
 10
13.2557806555
 20
2.5300023347
 11
13.2557806555
 21
2.5184523283
  0
ARC
  5
31E
100
AcDbEntity
  8
0
100
AcDbCircle
 62
2
  6
CONTINUOUS
 10
13.2582556551
 20
2.5184523265
 40
0.0024749995
100
AcDbArc
 50
179.9999571957
 51
270.0000428043
  0
LINE
  5
31F
100
AcDbEntity
  8
0
100
AcDbLine
 62
2
  6
CONTINUOUS
 10
13.2582556569
 20
2.515977327
 11
13.3232596929
 21
2.515977327
  0
ARC
  5
320
100
AcDbEntity
  8
0
100
AcDbCircle
 62
2
  6
CONTINUOUS
 10
13.3232596948
 20
2.5184523265
 40
0.0024749995
100
AcDbArc
 50
269.9999571957
 51
0.0000428043
  0
LINE
  5
321
100
AcDbEntity
  8
0
100
AcDbLine
 62
2
  6
CONTINUOUS
 10
13.3257346943
 20
2.5184523283
 11
13.3257346943
 21
2.5267023329
  0
ARC
  5
322
100
AcDbEntity
  8
0
100
AcDbCircle
 62
2
  6
CONTINUOUS
 10
13.3282096938
 20
2.5267023348
 40
0.0024749995
100
AcDbArc
 50
89.9999571957
 51
180.0000428043
  0
LINE
  5
323
100
AcDbEntity
  8
0
100
AcDbLine
 62
2
  6
CONTINUOUS
 10
13.3282096957
 20
2.5291773343
 11
13.3705287192
 21
2.5291773343
  0
ARC
  5
324
100
AcDbEntity
  8
0
100
AcDbCircle
 62
2
  6
CONTINUOUS
 10
13.370528721
 20
2.5267023348
 40
0.0024749995
100
AcDbArc
 50
359.9999571957
 51
90.0000428043
  0
LINE
  5
325
100
AcDbEntity
  8
0
100
AcDbLine
 62
2
  6
CONTINUOUS
 10
13.3730037205
 20
2.5267023329
 11
13.3730037205
 21
2.4937023146
  0
ARC
  5
326
100
AcDbEntity
  8
0
100
AcDbCircle
 62
2
  6
CONTINUOUS
 10
13.370528721
 20
2.4937023128
 40
0.0024749995
100
AcDbArc
 50
269.9999571957
 51
0.0000428043
  0
LINE
  5
327
100
AcDbEntity
  8
0
100
AcDbLine
 62
2
  6
CONTINUOUS
 10
13.3705287192
 20
2.4912273132
 11
13.1673166065
 21
2.4912273132
  0
ARC
  5
328
100
AcDbEntity
  8
0
100
AcDbCircle
 62
2
  6
CONTINUOUS
 10
13.1673166046
 20
2.4937023128
 40
0.0024749995
100
AcDbArc
 50
179.9999571957
 51
270.0000428043
  0
LINE
  5
329
100
AcDbEntity
  8
0
100
AcDbLine
 62
2
  6
CONTINUOUS
 10
13.1648416051
 20
2.4937023146
 11
13.1648416051
 21
2.5135023256
  0
ARC
  5
32A
100
AcDbEntity
  8
0
100
AcDbCircle
 62
2
  6
CONTINUOUS
 10
13.1673166046
 20
2.5135023274
 40
0.0024749995
100
AcDbArc
 50
89.9999571957
 51
180.0000428043
  0
LINE
  5
32B
100
AcDbEntity
  8
0
100
AcDbLine
 62
2
  6
CONTINUOUS
 10
13.1673166065
 20
2.515977327
 11
13.1912396197
 21
2.515977327
  0
ARC
  5
32C
100
AcDbEntity
  8
0
100
AcDbCircle
 62
2
  6
CONTINUOUS
 10
13.1912396216
 20
2.5184523265
 40
0.0024749995
100
AcDbArc
 50
269.9999571957
 51
0.0000428042
  0
LINE
  5
32D
100
AcDbEntity
  8
0
100
AcDbLine
 62
2
  6
CONTINUOUS
 10
13.1937146211
 20
2.5184523283
 11
13.1937146211
 21
2.564807354
  0
ARC
  5
32E
100
AcDbEntity
  8
0
100
AcDbCircle
 62
2
  6
CONTINUOUS
 10
13.1912396216
 20
2.5648073559
 40
0.0024749995
100
AcDbArc
 50
359.9999571957
 51
90.0000428043
  0
LINE
  5
32F
100
AcDbEntity
  8
0
100
AcDbLine
 62
2
  6
CONTINUOUS
 10
13.1912396197
 20
2.5672823554
 11
13.1673166065
 21
2.5672823554
  0
ARC
  5
330
100
AcDbEntity
  8
0
100
AcDbCircle
 62
2
  6
CONTINUOUS
 10
13.1673166046
 20
2.5697573549
 40
0.0024749995
100
AcDbArc
 50
179.9999571957
 51
270.0000428043
  0
LINE
  5
331
100
AcDbEntity
  8
0
100
AcDbLine
 62
2
  6
CONTINUOUS
 10
13.1648416051
 20
2.5697573568
 11
13.1648416051
 21
2.5895573678
  0
ARC
  5
332
100
AcDbEntity
  8
0
100
AcDbCircle
 62
2
  6
CONTINUOUS
 10
13.1673166046
 20
2.5895573696
 40
0.0024749995
100
AcDbArc
 50
89.9999571957
 51
180.0000428043
  0
LINE
  5
333
100
AcDbEntity
  8
0
100
AcDbLine
 62
2
  6
CONTINUOUS
 10
13.1673166065
 20
2.5920323691
 11
13.3691097184
 21
2.5920323691
  0
ARC
  5
334
100
AcDbEntity
  8
0
100
AcDbCircle
 62
2
  6
CONTINUOUS
 10
13.3691097202
 20
2.5895573696
 40
0.0024749995
100
AcDbArc
 50
359.9999571957
 51
90.0000428043
  0
LINE
  5
335
100
AcDbEntity
  8
0
100
AcDbLine
 62
2
  6
CONTINUOUS
 10
13.3715847197
 20
2.5895573678
 11
13.3715847197
 21
2.5565573495
  0
ARC
  5
336
100
AcDbEntity
  8
0
100
AcDbCircle
 62
2
  6
CONTINUOUS
 10
13.3691097202
 20
2.5565573476
 40
0.0024749995
100
AcDbArc
 50
269.9999571957
 51
0.0000428042
  0
LINE
  5
337
100
AcDbEntity
  8
0
100
AcDbLine
 62
2
  6
CONTINUOUS
 10
13.3691097184
 20
2.5540823481
 11
13.3272456952
 21
2.5540823481
  0
ARC
  5
338
100
AcDbEntity
  8
0
100
AcDbCircle
 62
2
  6
CONTINUOUS
 10
13.3272456933
 20
2.5565573476
 40
0.0024749995
100
AcDbArc
 50
179.9999571957
 51
270.0000428043
  0
LINE
  5
339
100
AcDbEntity
  8
0
100
AcDbLine
 62
2
  6
CONTINUOUS
 10
13.3247706938
 20
2.5565573495
 11
13.3247706938
 21
2.564807354
  0
ARC
  5
33A
100
AcDbEntity
  8
0
100
AcDbCircle
 62
2
  6
CONTINUOUS
 10
13.3222956943
 20
2.5648073559
 40
0.0024749995
100
AcDbArc
 50
359.9999571957
 51
90.0000428043
  0
LINE
  5
33B
100
AcDbEntity
  8
0
100
AcDbLine
 62
2
  6
CONTINUOUS
 10
13.3222956924
 20
2.5672823554
 11
13.2582556569
 21
2.5672823554
  0
ARC
  5
33C
100
AcDbEntity
  8
0
100
AcDbCircle
 62
2
  6
CONTINUOUS
 10
13.2582556551
 20
2.5648073559
 40
0.0024749995
100
AcDbArc
 50
89.9999571957
 51
180.0000428043
  0
LINE
  5
33D
100
AcDbEntity
  8
0
100
AcDbLine
 62
2
  6
CONTINUOUS
 10
13.2557806555
 20
2.564807354
 11
13.2557806555
 21
2.5532573476
  0
ARC
  5
33E
100
AcDbEntity
  8
0
100
AcDbCircle
 62
2
  6
CONTINUOUS
 10
13.2582556551
 20
2.5532573458
 40
0.0024749995
100
AcDbArc
 50
179.9999571957
 51
270.0000428043
  0
LINE
  5
33F
100
AcDbEntity
  8
0
100
AcDbLine
 62
2
  6
CONTINUOUS
 10
13.2582556569
 20
2.5507823463
 11
13.2934226764
 21
2.5507823463
  0
ARC
  5
340
100
AcDbEntity
  8
0
100
AcDbCircle
 62
2
  6
CONTINUOUS
 10
13.2934226783
 20
2.5483073467
 40
0.0024749995
100
AcDbArc
 50
359.9999571957
 51
90.0000428043
  0
LINE
  5
341
100
AcDbEntity
  8
0
100
AcDbLine
 62
2
  6
CONTINUOUS
 10
13.2958976778
 20
2.5483073449
 11
13.2958976778
 21
2.5349523375
  0
ARC
  5
342
100
AcDbEntity
  8
0
100
AcDbCircle
 62
2
  6
CONTINUOUS
 10
13.2934226783
 20
2.5349523356
 40
0.0024749995
100
AcDbArc
 50
269.9999571957
 51
0.0000428042
  0
LINE
  5
343
100
AcDbEntity
  8
0
100
AcDbLine
 62
2
  6
CONTINUOUS
 10
13.7286871589
 20
2.5350697372
 11
13.7286871589
 21
2.5456869438
  0
LINE
  5
344
100
AcDbEntity
  8
0
100
AcDbLine
 62
2
  6
CONTINUOUS
 10
13.7086871478
 20
2.5004302075
 11
13.7086871478
 21
2.5803264735
  0
LINE
  5
345
100
AcDbEntity
  8
0
100
AcDbLine
 62
2
  6
CONTINUOUS
 10
13.6886871368
 20
2.4843919416
 11
13.6886871368
 21
2.5963647394
  0
LINE
  5
346
100
AcDbEntity
  8
0
100
AcDbLine
 62
2
  6
CONTINUOUS
 10
13.6686871257
 20
2.4726017898
 11
13.6686871257
 21
2.6081548911
  0
LINE
  5
347
100
AcDbEntity
  8
0
100
AcDbLine
 62
2
  6
CONTINUOUS
 10
13.6486871146
 20
2.4628062688
 11
13.6486871146
 21
2.6179504122
  0
LINE
  5
348
100
AcDbEntity
  8
0
100
AcDbLine
 62
2
  6
CONTINUOUS
 10
13.6286871035
 20
2.4541253507
 11
13.6286871035
 21
2.5062483056
  0
LINE
  5
349
100
AcDbEntity
  8
0
100
AcDbLine
 62
2
  6
CONTINUOUS
 10
13.6286871035
 20
2.5301143348
 11
13.6286871035
 21
2.6266313303
  0
LINE
  5
34A
100
AcDbEntity
  8
0
100
AcDbLine
 62
2
  6
CONTINUOUS
 10
13.6086870924
 20
2.4465537903
 11
13.6086870924
 21
2.4918774918
  0
LINE
  5
34B
100
AcDbEntity
  8
0
100
AcDbLine
 62
2
  6
CONTINUOUS
 10
13.6086870924
 20
2.5165781173
 11
13.6086870924
 21
2.6342028907
  0
LINE
  5
34C
100
AcDbEntity
  8
0
100
AcDbLine
 62
2
  6
CONTINUOUS
 10
13.5886870813
 20
2.4398033466
 11
13.5886870813
 21
2.4912273132
  0
LINE
  5
34D
100
AcDbEntity
  8
0
100
AcDbLine
 62
2
  6
CONTINUOUS
 10
13.5886870813
 20
2.5391840845
 11
13.5886870813
 21
2.5454298327
  0
LINE
  5
34E
100
AcDbEntity
  8
0
100
AcDbLine
 62
2
  6
CONTINUOUS
 10
13.5886870813
 20
2.5862063472
 11
13.5886870813
 21
2.6409533343
  0
LINE
  5
34F
100
AcDbEntity
  8
0
100
AcDbLine
 62
2
  6
CONTINUOUS
 10
13.5686870702
 20
2.4334702189
 11
13.5686870702
 21
2.4912273132
  0
LINE
  5
350
100
AcDbEntity
  8
0
100
AcDbLine
 62
2
  6
CONTINUOUS
 10
13.5686870702
 20
2.5906587765
 11
13.5686870702
 21
2.647286462
  0
LINE
  5
351
100
AcDbEntity
  8
0
100
AcDbLine
 62
2
  6
CONTINUOUS
 10
13.5486870591
 20
2.4278968124
 11
13.5486870591
 21
2.4937461006
  0
LINE
  5
352
100
AcDbEntity
  8
0
100
AcDbLine
 62
2
  6
CONTINUOUS
 10
13.5486870591
 20
2.5920323691
 11
13.5486870591
 21
2.6528598686
  0
LINE
  5
353
100
AcDbEntity
  8
0
100
AcDbLine
 62
2
  6
CONTINUOUS
 10
13.528687048
 20
2.4225427674
 11
13.528687048
 21
2.5270426993
  0
LINE
  5
354
100
AcDbEntity
  8
0
100
AcDbLine
 62
2
  6
CONTINUOUS
 10
13.528687048
 20
2.5505166259
 11
13.528687048
 21
2.5668657091
  0
LINE
  5
355
100
AcDbEntity
  8
0
100
AcDbLine
 62
2
  6
CONTINUOUS
 10
13.528687048
 20
2.5920323691
 11
13.528687048
 21
2.6582139136
  0
LINE
  5
356
100
AcDbEntity
  8
0
100
AcDbLine
 62
2
  6
CONTINUOUS
 10
13.5086870369
 20
2.4177306791
 11
13.5086870369
 21
2.4912273132
  0
LINE
  5
357
100
AcDbEntity
  8
0
100
AcDbLine
 62
2
  6
CONTINUOUS
 10
13.5086870369
 20
2.5159553269
 11
13.5086870369
 21
2.5306043351
  0
LINE
  5
358
100
AcDbEntity
  8
0
100
AcDbLine
 62
2
  6
CONTINUOUS
 10
13.5086870369
 20
2.5496073456
 11
13.5086870369
 21
2.5672823554
  0
LINE
  5
359
100
AcDbEntity
  8
0
100
AcDbLine
 62
2
  6
CONTINUOUS
 10
13.5086870369
 20
2.5920323691
 11
13.5086870369
 21
2.6630260019
  0
LINE
  5
35A
100
AcDbEntity
  8
0
100
AcDbLine
 62
2
  6
CONTINUOUS
 10
13.4886870258
 20
2.4131795254
 11
13.4886870258
 21
2.4912273132
  0
LINE
  5
35B
100
AcDbEntity
  8
0
100
AcDbLine
 62
2
  6
CONTINUOUS
 10
13.4886870258
 20
2.5159553269
 11
13.4886870258
 21
2.5306043351
  0
LINE
  5
35C
100
AcDbEntity
  8
0
100
AcDbLine
 62
2
  6
CONTINUOUS
 10
13.4886870258
 20
2.5496073456
 11
13.4886870258
 21
2.5672823554
  0
LINE
  5
35D
100
AcDbEntity
  8
0
100
AcDbLine
 62
2
  6
CONTINUOUS
 10
13.4886870258
 20
2.5920323691
 11
13.4886870258
 21
2.6675771555
  0
LINE
  5
35E
100
AcDbEntity
  8
0
100
AcDbLine
 62
2
  6
CONTINUOUS
 10
13.4686870147
 20
2.4088819672
 11
13.4686870147
 21
2.4912273132
  0
LINE
  5
35F
100
AcDbEntity
  8
0
100
AcDbLine
 62
2
  6
CONTINUOUS
 10
13.4686870147
 20
2.5920323691
 11
13.4686870147
 21
2.6718747138
  0
LINE
  5
360
100
AcDbEntity
  8
0
100
AcDbLine
 62
2
  6
CONTINUOUS
 10
13.4486870037
 20
2.4050092072
 11
13.4486870037
 21
2.4912273132
  0
LINE
  5
361
100
AcDbEntity
  8
0
100
AcDbLine
 62
2
  6
CONTINUOUS
 10
13.4486870037
 20
2.5920323691
 11
13.4486870037
 21
2.6757474738
  0
LINE
  5
362
100
AcDbEntity
  8
0
100
AcDbLine
 62
2
  6
CONTINUOUS
 10
13.4286869926
 20
2.4011364471
 11
13.4286869926
 21
2.4912273132
  0
LINE
  5
363
100
AcDbEntity
  8
0
100
AcDbLine
 62
2
  6
CONTINUOUS
 10
13.4286869926
 20
2.5920323691
 11
13.4286869926
 21
2.6796202339
  0
LINE
  5
364
100
AcDbEntity
  8
0
100
AcDbLine
 62
2
  6
CONTINUOUS
 10
13.4086869815
 20
2.3980226662
 11
13.4086869815
 21
2.4912273132
  0
LINE
  5
365
100
AcDbEntity
  8
0
100
AcDbLine
 62
2
  6
CONTINUOUS
 10
13.4086869815
 20
2.515977327
 11
13.4086869815
 21
2.5672823554
  0
LINE
  5
366
100
AcDbEntity
  8
0
100
AcDbLine
 62
2
  6
CONTINUOUS
 10
13.4086869815
 20
2.5920323691
 11
13.4086869815
 21
2.6827340148
  0
LINE
  5
367
100
AcDbEntity
  8
0
100
AcDbLine
 62
2
  6
CONTINUOUS
 10
13.3886869704
 20
2.3950052774
 11
13.3886869704
 21
2.6857514036
  0
LINE
  5
368
100
AcDbEntity
  8
0
100
AcDbLine
 62
2
  6
CONTINUOUS
 10
13.3686869593
 20
2.3919878885
 11
13.3686869593
 21
2.4912273132
  0
LINE
  5
369
100
AcDbEntity
  8
0
100
AcDbLine
 62
2
  6
CONTINUOUS
 10
13.3686869593
 20
2.5291773343
 11
13.3686869593
 21
2.5540823481
  0
LINE
  5
36A
100
AcDbEntity
  8
0
100
AcDbLine
 62
2
  6
CONTINUOUS
 10
13.3686869593
 20
2.5920323691
 11
13.3686869593
 21
2.6887687924
  0
LINE
  5
36B
100
AcDbEntity
  8
0
100
AcDbLine
 62
2
  6
CONTINUOUS
 10
13.3486869482
 20
2.3889704997
 11
13.3486869482
 21
2.4912273132
  0
LINE
  5
36C
100
AcDbEntity
  8
0
100
AcDbLine
 62
2
  6
CONTINUOUS
 10
13.3486869482
 20
2.5291773343
 11
13.3486869482
 21
2.5540823481
  0
LINE
  5
36D
100
AcDbEntity
  8
0
100
AcDbLine
 62
2
  6
CONTINUOUS
 10
13.3486869482
 20
2.5920323691
 11
13.3486869482
 21
2.6917861813
  0
LINE
  5
36E
100
AcDbEntity
  8
0
100
AcDbLine
 62
2
  6
CONTINUOUS
 10
13.3286869371
 20
2.3859531109
 11
13.3286869371
 21
2.4912273132
  0
LINE
  5
36F
100
AcDbEntity
  8
0
100
AcDbLine
 62
2
  6
CONTINUOUS
 10
13.3286869371
 20
2.5291773343
 11
13.3286869371
 21
2.5540823481
  0
LINE
  5
370
100
AcDbEntity
  8
0
100
AcDbLine
 62
2
  6
CONTINUOUS
 10
13.3286869371
 20
2.5920323691
 11
13.3286869371
 21
2.6948035701
  0
LINE
  5
371
100
AcDbEntity
  8
0
100
AcDbLine
 62
2
  6
CONTINUOUS
 10
13.308686926
 20
2.3833355437
 11
13.308686926
 21
2.4912273132
  0
LINE
  5
372
100
AcDbEntity
  8
0
100
AcDbLine
 62
2
  6
CONTINUOUS
 10
13.308686926
 20
2.515977327
 11
13.308686926
 21
2.5672823554
  0
LINE
  5
373
100
AcDbEntity
  8
0
100
AcDbLine
 62
2
  6
CONTINUOUS
 10
13.308686926
 20
2.5920323691
 11
13.308686926
 21
2.6974211373
  0
LINE
  5
374
100
AcDbEntity
  8
0
100
AcDbLine
 62
2
  6
CONTINUOUS
 10
13.2886869149
 20
2.3812612684
 11
13.2886869149
 21
2.4912273132
  0
LINE
  5
375
100
AcDbEntity
  8
0
100
AcDbLine
 62
2
  6
CONTINUOUS
 10
13.2886869149
 20
2.515977327
 11
13.2886869149
 21
2.5324773361
  0
LINE
  5
376
100
AcDbEntity
  8
0
100
AcDbLine
 62
2
  6
CONTINUOUS
 10
13.2886869149
 20
2.5507823463
 11
13.2886869149
 21
2.5672823554
  0
LINE
  5
377
100
AcDbEntity
  8
0
100
AcDbLine
 62
2
  6
CONTINUOUS
 10
13.2886869149
 20
2.5920323691
 11
13.2886869149
 21
2.6994954125
  0
LINE
  5
378
100
AcDbEntity
  8
0
100
AcDbLine
 62
2
  6
CONTINUOUS
 10
13.2686869038
 20
2.3791869932
 11
13.2686869038
 21
2.4912273132
  0
LINE
  5
379
100
AcDbEntity
  8
0
100
AcDbLine
 62
2
  6
CONTINUOUS
 10
13.2686869038
 20
2.515977327
 11
13.2686869038
 21
2.5324773361
  0
LINE
  5
37A
100
AcDbEntity
  8
0
100
AcDbLine
 62
2
  6
CONTINUOUS
 10
13.2686869038
 20
2.5507823463
 11
13.2686869038
 21
2.5672823554
  0
LINE
  5
37B
100
AcDbEntity
  8
0
100
AcDbLine
 62
2
  6
CONTINUOUS
 10
13.2686869038
 20
2.5920323691
 11
13.2686869038
 21
2.7015696878
  0
LINE
  5
37C
100
AcDbEntity
  8
0
100
AcDbLine
 62
2
  6
CONTINUOUS
 10
13.2486868927
 20
2.377112718
 11
13.2486868927
 21
2.4912273132
  0
LINE
  5
37D
100
AcDbEntity
  8
0
100
AcDbLine
 62
2
  6
CONTINUOUS
 10
13.2486868927
 20
2.5920323691
 11
13.2486868927
 21
2.703643963
  0
LINE
  5
37E
100
AcDbEntity
  8
0
100
AcDbLine
 62
2
  6
CONTINUOUS
 10
13.2286868817
 20
2.3750384428
 11
13.2286868817
 21
2.4912273132
  0
LINE
  5
37F
100
AcDbEntity
  8
0
100
AcDbLine
 62
2
  6
CONTINUOUS
 10
13.2286868817
 20
2.5920323691
 11
13.2286868817
 21
2.7057182382
  0
LINE
  5
380
100
AcDbEntity
  8
0
100
AcDbLine
 62
2
  6
CONTINUOUS
 10
13.2086868706
 20
2.3729641676
 11
13.2086868706
 21
2.4912273132
  0
LINE
  5
381
100
AcDbEntity
  8
0
100
AcDbLine
 62
2
  6
CONTINUOUS
 10
13.2086868706
 20
2.5920323691
 11
13.2086868706
 21
2.7077925134
  0
LINE
  5
382
100
AcDbEntity
  8
0
100
AcDbLine
 62
2
  6
CONTINUOUS
 10
13.1886868595
 20
2.3712344456
 11
13.1886868595
 21
2.4912273132
  0
LINE
  5
383
100
AcDbEntity
  8
0
100
AcDbLine
 62
2
  6
CONTINUOUS
 10
13.1886868595
 20
2.515977327
 11
13.1886868595
 21
2.5672823554
  0
LINE
  5
384
100
AcDbEntity
  8
0
100
AcDbLine
 62
2
  6
CONTINUOUS
 10
13.1886868595
 20
2.5920323691
 11
13.1886868595
 21
2.7095222354
  0
LINE
  5
385
100
AcDbEntity
  8
0
100
AcDbLine
 62
2
  6
CONTINUOUS
 10
13.1686868484
 20
2.3699682418
 11
13.1686868484
 21
2.4912273132
  0
LINE
  5
386
100
AcDbEntity
  8
0
100
AcDbLine
 62
2
  6
CONTINUOUS
 10
13.1686868484
 20
2.515977327
 11
13.1686868484
 21
2.5672823554
  0
LINE
  5
387
100
AcDbEntity
  8
0
100
AcDbLine
 62
2
  6
CONTINUOUS
 10
13.1686868484
 20
2.5920323691
 11
13.1686868484
 21
2.7107884392
  0
LINE
  5
388
100
AcDbEntity
  8
0
100
AcDbLine
 62
2
  6
CONTINUOUS
 10
13.1486868373
 20
2.3687020381
 11
13.1486868373
 21
2.7120546429
  0
LINE
  5
389
100
AcDbEntity
  8
0
100
AcDbLine
 62
2
  6
CONTINUOUS
 10
13.1286868262
 20
2.3674358343
 11
13.1286868262
 21
2.5672823554
  0
LINE
  5
38A
100
AcDbEntity
  8
0
100
AcDbLine
 62
2
  6
CONTINUOUS
 10
13.1286868262
 20
2.5920323691
 11
13.1286868262
 21
2.7133208466
  0
LINE
  5
38B
100
AcDbEntity
  8
0
100
AcDbLine
 62
2
  6
CONTINUOUS
 10
13.1086868151
 20
2.3661696306
 11
13.1086868151
 21
2.4912273132
  0
LINE
  5
38C
100
AcDbEntity
  8
0
100
AcDbLine
 62
2
  6
CONTINUOUS
 10
13.1086868151
 20
2.5920323691
 11
13.1086868151
 21
2.7145870504
  0
LINE
  5
38D
100
AcDbEntity
  8
0
100
AcDbLine
 62
2
  6
CONTINUOUS
 10
13.088686804
 20
2.3649034269
 11
13.088686804
 21
2.4912273132
  0
LINE
  5
38E
100
AcDbEntity
  8
0
100
AcDbLine
 62
2
  6
CONTINUOUS
 10
13.088686804
 20
2.5920323691
 11
13.088686804
 21
2.7158532541
  0
LINE
  5
38F
100
AcDbEntity
  8
0
100
AcDbLine
 62
2
  6
CONTINUOUS
 10
13.0686867929
 20
2.3636739922
 11
13.0686867929
 21
2.4912273132
  0
LINE
  5
390
100
AcDbEntity
  8
0
100
AcDbLine
 62
2
  6
CONTINUOUS
 10
13.0686867929
 20
2.5475272398
 11
13.0686867929
 21
2.5672823554
  0
LINE
  5
391
100
AcDbEntity
  8
0
100
AcDbLine
 62
2
  6
CONTINUOUS
 10
13.0686867929
 20
2.5920323691
 11
13.0686867929
 21
2.7170826887
  0
LINE
  5
392
100
AcDbEntity
  8
0
100
AcDbLine
 62
2
  6
CONTINUOUS
 10
13.0486867818
 20
2.363143203
 11
13.0486867818
 21
2.4912273132
  0
LINE
  5
393
100
AcDbEntity
  8
0
100
AcDbLine
 62
2
  6
CONTINUOUS
 10
13.0486867818
 20
2.5666100882
 11
13.0486867818
 21
2.717613478
  0
LINE
  5
394
100
AcDbEntity
  8
0
100
AcDbLine
 62
2
  6
CONTINUOUS
 10
13.0286867707
 20
2.3626124138
 11
13.0286867707
 21
2.50359263
  0
LINE
  5
395
100
AcDbEntity
  8
0
100
AcDbLine
 62
2
  6
CONTINUOUS
 10
13.0286867707
 20
2.5856929366
 11
13.0286867707
 21
2.7181442672
  0
LINE
  5
396
100
AcDbEntity
  8
0
100
AcDbLine
 62
2
  6
CONTINUOUS
 10
13.0086867596
 20
2.3620816246
 11
13.0086867596
 21
2.5226754472
  0
LINE
  5
397
100
AcDbEntity
  8
0
100
AcDbLine
 62
2
  6
CONTINUOUS
 10
13.0086867596
 20
2.5920323691
 11
13.0086867596
 21
2.7186750564
  0
LINE
  5
398
100
AcDbEntity
  8
0
100
AcDbLine
 62
2
  6
CONTINUOUS
 10
12.9886867486
 20
2.3615508354
 11
12.9886867486
 21
2.4912273132
  0
LINE
  5
399
100
AcDbEntity
  8
0
100
AcDbLine
 62
2
  6
CONTINUOUS
 10
12.9886867486
 20
2.515977327
 11
12.9886867486
 21
2.5417582644
  0
LINE
  5
39A
100
AcDbEntity
  8
0
100
AcDbLine
 62
2
  6
CONTINUOUS
 10
12.9886867486
 20
2.5920323691
 11
12.9886867486
 21
2.7192058456
  0
LINE
  5
39B
100
AcDbEntity
  8
0
100
AcDbLine
 62
2
  6
CONTINUOUS
 10
12.9686867375
 20
2.3610200462
 11
12.9686867375
 21
2.4912273132
  0
LINE
  5
39C
100
AcDbEntity
  8
0
100
AcDbLine
 62
2
  6
CONTINUOUS
 10
12.9686867375
 20
2.5920323691
 11
12.9686867375
 21
2.7197366348
  0
LINE
  5
39D
100
AcDbEntity
  8
0
100
AcDbLine
 62
2
  6
CONTINUOUS
 10
12.9486867264
 20
2.360489257
 11
12.9486867264
 21
2.4912273132
  0
LINE
  5
39E
100
AcDbEntity
  8
0
100
AcDbLine
 62
2
  6
CONTINUOUS
 10
12.9486867264
 20
2.5920323691
 11
12.9486867264
 21
2.720267424
  0
LINE
  5
39F
100
AcDbEntity
  8
0
100
AcDbLine
 62
2
  6
CONTINUOUS
 10
12.9286867153
 20
2.3602836008
 11
12.9286867153
 21
2.4912273132
  0
LINE
  5
3A0
100
AcDbEntity
  8
0
100
AcDbLine
 62
2
  6
CONTINUOUS
 10
12.9286867153
 20
2.515977327
 11
12.9286867153
 21
2.5672823554
  0
LINE
  5
3A1
100
AcDbEntity
  8
0
100
AcDbLine
 62
2
  6
CONTINUOUS
 10
12.9286867153
 20
2.5920323691
 11
12.9286867153
 21
2.7204730802
  0
LINE
  5
3A2
100
AcDbEntity
  8
0
100
AcDbLine
 62
2
  6
CONTINUOUS
 10
12.9086867042
 20
2.3604597639
 11
12.9086867042
 21
2.7202969171
  0
LINE
  5
3A3
100
AcDbEntity
  8
0
100
AcDbLine
 62
2
  6
CONTINUOUS
 10
12.8886866931
 20
2.360635927
 11
12.8886866931
 21
2.5672823554
  0
LINE
  5
3A4
100
AcDbEntity
  8
0
100
AcDbLine
 62
2
  6
CONTINUOUS
 10
12.8886866931
 20
2.5920323691
 11
12.8886866931
 21
2.720120754
  0
LINE
  5
3A5
100
AcDbEntity
  8
0
100
AcDbLine
 62
2
  6
CONTINUOUS
 10
12.868686682
 20
2.3608120901
 11
12.868686682
 21
2.491232357
  0
LINE
  5
3A6
100
AcDbEntity
  8
0
100
AcDbLine
 62
2
  6
CONTINUOUS
 10
12.868686682
 20
2.5920323691
 11
12.868686682
 21
2.7199445909
  0
LINE
  5
3A7
100
AcDbEntity
  8
0
100
AcDbLine
 62
2
  6
CONTINUOUS
 10
12.8486866709
 20
2.3609882532
 11
12.8486866709
 21
2.4912273132
  0
LINE
  5
3A8
100
AcDbEntity
  8
0
100
AcDbLine
 62
2
  6
CONTINUOUS
 10
12.8486866709
 20
2.5920323691
 11
12.8486866709
 21
2.7197684278
  0
LINE
  5
3A9
100
AcDbEntity
  8
0
100
AcDbLine
 62
2
  6
CONTINUOUS
 10
12.8286866598
 20
2.3611644163
 11
12.8286866598
 21
2.4912273132
  0
LINE
  5
3AA
100
AcDbEntity
  8
0
100
AcDbLine
 62
2
  6
CONTINUOUS
 10
12.8286866598
 20
2.5396527025
 11
12.8286866598
 21
2.5672823554
  0
LINE
  5
3AB
100
AcDbEntity
  8
0
100
AcDbLine
 62
2
  6
CONTINUOUS
 10
12.8286866598
 20
2.5920323691
 11
12.8286866598
 21
2.7195922647
  0
LINE
  5
3AC
100
AcDbEntity
  8
0
100
AcDbLine
 62
2
  6
CONTINUOUS
 10
12.8086866487
 20
2.3613405794
 11
12.8086866487
 21
2.4912273132
  0
LINE
  5
3AD
100
AcDbEntity
  8
0
100
AcDbLine
 62
2
  6
CONTINUOUS
 10
12.8086866487
 20
2.5587355508
 11
12.8086866487
 21
2.7194161016
  0
LINE
  5
3AE
100
AcDbEntity
  8
0
100
AcDbLine
 62
2
  6
CONTINUOUS
 10
12.7886866376
 20
2.3621089572
 11
12.7886866376
 21
2.4957181055
  0
LINE
  5
3AF
100
AcDbEntity
  8
0
100
AcDbLine
 62
2
  6
CONTINUOUS
 10
12.7886866376
 20
2.5778183992
 11
12.7886866376
 21
2.7186477238
  0
LINE
  5
3B0
100
AcDbEntity
  8
0
100
AcDbLine
 62
2
  6
CONTINUOUS
 10
12.7686866266
 20
2.3630013935
 11
12.7686866266
 21
2.5148009227
  0
LINE
  5
3B1
100
AcDbEntity
  8
0
100
AcDbLine
 62
2
  6
CONTINUOUS
 10
12.7686866266
 20
2.5920323691
 11
12.7686866266
 21
2.7177552874
  0
LINE
  5
3B2
100
AcDbEntity
  8
0
100
AcDbLine
 62
2
  6
CONTINUOUS
 10
12.7486866155
 20
2.3638938299
 11
12.7486866155
 21
2.4913263218
  0
LINE
  5
3B3
100
AcDbEntity
  8
0
100
AcDbLine
 62
2
  6
CONTINUOUS
 10
12.7486866155
 20
2.5158783184
 11
12.7486866155
 21
2.5338837399
  0
LINE
  5
3B4
100
AcDbEntity
  8
0
100
AcDbLine
 62
2
  6
CONTINUOUS
 10
12.7486866155
 20
2.5920323691
 11
12.7486866155
 21
2.7168628511
  0
LINE
  5
3B5
100
AcDbEntity
  8
0
100
AcDbLine
 62
2
  6
CONTINUOUS
 10
12.7286866044
 20
2.3647862663
 11
12.7286866044
 21
2.4912273132
  0
LINE
  5
3B6
100
AcDbEntity
  8
0
100
AcDbLine
 62
2
  6
CONTINUOUS
 10
12.7286866044
 20
2.515977327
 11
12.7286866044
 21
2.5527601554
  0
LINE
  5
3B7
100
AcDbEntity
  8
0
100
AcDbLine
 62
2
  6
CONTINUOUS
 10
12.7286866044
 20
2.5920323691
 11
12.7286866044
 21
2.7159704147
  0
LINE
  5
3B8
100
AcDbEntity
  8
0
100
AcDbLine
 62
2
  6
CONTINUOUS
 10
12.7086865933
 20
2.3656787026
 11
12.7086865933
 21
2.4912273132
  0
LINE
  5
3B9
100
AcDbEntity
  8
0
100
AcDbLine
 62
2
  6
CONTINUOUS
 10
12.7086865933
 20
2.5920323691
 11
12.7086865933
 21
2.7150779784
  0
LINE
  5
3BA
100
AcDbEntity
  8
0
100
AcDbLine
 62
2
  6
CONTINUOUS
 10
12.6886865822
 20
2.366571139
 11
12.6886865822
 21
2.4912273132
  0
LINE
  5
3BB
100
AcDbEntity
  8
0
100
AcDbLine
 62
2
  6
CONTINUOUS
 10
12.6886865822
 20
2.515977327
 11
12.6886865822
 21
2.5672823554
  0
LINE
  5
3BC
100
AcDbEntity
  8
0
100
AcDbLine
 62
2
  6
CONTINUOUS
 10
12.6886865822
 20
2.5920323691
 11
12.6886865822
 21
2.714185542
  0
LINE
  5
3BD
100
AcDbEntity
  8
0
100
AcDbLine
 62
2
  6
CONTINUOUS
 10
12.6686865711
 20
2.3677104027
 11
12.6686865711
 21
2.7130462783
  0
LINE
  5
3BE
100
AcDbEntity
  8
0
100
AcDbLine
 62
2
  6
CONTINUOUS
 10
12.64868656
 20
2.3693682721
 11
12.64868656
 21
2.7113884089
  0
LINE
  5
3BF
100
AcDbEntity
  8
0
100
AcDbLine
 62
2
  6
CONTINUOUS
 10
12.6286865489
 20
2.3710261415
 11
12.6286865489
 21
2.4912273132
  0
LINE
  5
3C0
100
AcDbEntity
  8
0
100
AcDbLine
 62
2
  6
CONTINUOUS
 10
12.6286865489
 20
2.515977327
 11
12.6286865489
 21
2.7097305395
  0
LINE
  5
3C1
100
AcDbEntity
  8
0
100
AcDbLine
 62
2
  6
CONTINUOUS
 10
12.6086865378
 20
2.372684011
 11
12.6086865378
 21
2.4912273132
  0
LINE
  5
3C2
100
AcDbEntity
  8
0
100
AcDbLine
 62
2
  6
CONTINUOUS
 10
12.6086865378
 20
2.5351122279
 11
12.6086865378
 21
2.70807267
  0
LINE
  5
3C3
100
AcDbEntity
  8
0
100
AcDbLine
 62
2
  6
CONTINUOUS
 10
12.5886865267
 20
2.3743418804
 11
12.5886865267
 21
2.4912273132
  0
LINE
  5
3C4
100
AcDbEntity
  8
0
100
AcDbLine
 62
2
  6
CONTINUOUS
 10
12.5886865267
 20
2.5660172622
 11
12.5886865267
 21
2.7064148006
  0
LINE
  5
3C5
100
AcDbEntity
  8
0
100
AcDbLine
 62
2
  6
CONTINUOUS
 10
12.5686865156
 20
2.3759997498
 11
12.5686865156
 21
2.4912273132
  0
LINE
  5
3C6
100
AcDbEntity
  8
0
100
AcDbLine
 62
2
  6
CONTINUOUS
 10
12.5686865156
 20
2.5920323691
 11
12.5686865156
 21
2.7047569312
  0
LINE
  5
3C7
100
AcDbEntity
  8
0
100
AcDbLine
 62
2
  6
CONTINUOUS
 10
12.5486865045
 20
2.3777575277
 11
12.5486865045
 21
2.4912273132
  0
LINE
  5
3C8
100
AcDbEntity
  8
0
100
AcDbLine
 62
2
  6
CONTINUOUS
 10
12.5486865045
 20
2.515977327
 11
12.5486865045
 21
2.5275118824
  0
LINE
  5
3C9
100
AcDbEntity
  8
0
100
AcDbLine
 62
2
  6
CONTINUOUS
 10
12.5486865045
 20
2.5920323691
 11
12.5486865045
 21
2.7029991533
  0
LINE
  5
3CA
100
AcDbEntity
  8
0
100
AcDbLine
 62
2
  6
CONTINUOUS
 10
12.5286864935
 20
2.3802813811
 11
12.5286864935
 21
2.5296213345
  0
LINE
  5
3CB
100
AcDbEntity
  8
0
100
AcDbLine
 62
2
  6
CONTINUOUS
 10
12.5286864935
 20
2.5505713461
 11
12.5286864935
 21
2.5667383551
  0
LINE
  5
3CC
100
AcDbEntity
  8
0
100
AcDbLine
 62
2
  6
CONTINUOUS
 10
12.5286864935
 20
2.5920323691
 11
12.5286864935
 21
2.7004752999
  0
LINE
  5
3CD
100
AcDbEntity
  8
0
100
AcDbLine
 62
2
  6
CONTINUOUS
 10
12.5086864824
 20
2.3828052346
 11
12.5086864824
 21
2.4912273132
  0
LINE
  5
3CE
100
AcDbEntity
  8
0
100
AcDbLine
 62
2
  6
CONTINUOUS
 10
12.5086864824
 20
2.515977327
 11
12.5086864824
 21
2.5279667721
  0
LINE
  5
3CF
100
AcDbEntity
  8
0
100
AcDbLine
 62
2
  6
CONTINUOUS
 10
12.5086864824
 20
2.5868602074
 11
12.5086864824
 21
2.6979514464
  0
LINE
  5
3D0
100
AcDbEntity
  8
0
100
AcDbLine
 62
2
  6
CONTINUOUS
 10
12.4886864713
 20
2.385329088
 11
12.4886864713
 21
2.4912273132
  0
LINE
  5
3D1
100
AcDbEntity
  8
0
100
AcDbLine
 62
2
  6
CONTINUOUS
 10
12.4886864713
 20
2.5553401045
 11
12.4886864713
 21
2.695427593
  0
LINE
  5
3D2
100
AcDbEntity
  8
0
100
AcDbLine
 62
2
  6
CONTINUOUS
 10
12.4686864602
 20
2.3878529415
 11
12.4686864602
 21
2.4912273132
  0
LINE
  5
3D3
100
AcDbEntity
  8
0
100
AcDbLine
 62
2
  6
CONTINUOUS
 10
12.4686864602
 20
2.5238200015
 11
12.4686864602
 21
2.6929037395
  0
LINE
  5
3D4
100
AcDbEntity
  8
0
100
AcDbLine
 62
2
  6
CONTINUOUS
 10
12.4486864491
 20
2.390376795
 11
12.4486864491
 21
2.4912273132
  0
LINE
  5
3D5
100
AcDbEntity
  8
0
100
AcDbLine
 62
2
  6
CONTINUOUS
 10
12.4486864491
 20
2.515977327
 11
12.4486864491
 21
2.690379886
  0
LINE
  5
3D6
100
AcDbEntity
  8
0
100
AcDbLine
 62
2
  6
CONTINUOUS
 10
12.428686438
 20
2.3931794042
 11
12.428686438
 21
2.6875772768
  0
LINE
  5
3D7
100
AcDbEntity
  8
0
100
AcDbLine
 62
2
  6
CONTINUOUS
 10
12.4086864269
 20
2.3964643301
 11
12.4086864269
 21
2.5013773986
  0
LINE
  5
3D8
100
AcDbEntity
  8
0
100
AcDbLine
 62
2
  6
CONTINUOUS
 10
12.4086864269
 20
2.5325739971
 11
12.4086864269
 21
2.5537224311
  0
LINE
  5
3D9
100
AcDbEntity
  8
0
100
AcDbLine
 62
2
  6
CONTINUOUS
 10
12.4086864269
 20
2.5791473398
 11
12.4086864269
 21
2.6842923509
  0
LINE
  5
3DA
100
AcDbEntity
  8
0
100
AcDbLine
 62
2
  6
CONTINUOUS
 10
12.3886864158
 20
2.399749256
 11
12.3886864158
 21
2.4921022658
  0
LINE
  5
3DB
100
AcDbEntity
  8
0
100
AcDbLine
 62
2
  6
CONTINUOUS
 10
12.3886864158
 20
2.5895929958
 11
12.3886864158
 21
2.681007425
  0
LINE
  5
3DC
100
AcDbEntity
  8
0
100
AcDbLine
 62
2
  6
CONTINUOUS
 10
12.3686864047
 20
2.403451877
 11
12.3686864047
 21
2.4912273132
  0
LINE
  5
3DD
100
AcDbEntity
  8
0
100
AcDbLine
 62
2
  6
CONTINUOUS
 10
12.3686864047
 20
2.5920323691
 11
12.3686864047
 21
2.677304804
  0
LINE
  5
3DE
100
AcDbEntity
  8
0
100
AcDbLine
 62
2
  6
CONTINUOUS
 10
12.3486863936
 20
2.407324637
 11
12.3486863936
 21
2.4912273132
  0
LINE
  5
3DF
100
AcDbEntity
  8
0
100
AcDbLine
 62
2
  6
CONTINUOUS
 10
12.3486863936
 20
2.5920323691
 11
12.3486863936
 21
2.673432044
  0
LINE
  5
3E0
100
AcDbEntity
  8
0
100
AcDbLine
 62
2
  6
CONTINUOUS
 10
12.3286863825
 20
2.4113493968
 11
12.3286863825
 21
2.4912273132
  0
LINE
  5
3E1
100
AcDbEntity
  8
0
100
AcDbLine
 62
2
  6
CONTINUOUS
 10
12.3286863825
 20
2.515977327
 11
12.3286863825
 21
2.5333023366
  0
LINE
  5
3E2
100
AcDbEntity
  8
0
100
AcDbLine
 62
2
  6
CONTINUOUS
 10
12.3286863825
 20
2.5499573458
 11
12.3286863825
 21
2.5672823554
  0
LINE
  5
3E3
100
AcDbEntity
  8
0
100
AcDbLine
 62
2
  6
CONTINUOUS
 10
12.3286863825
 20
2.5920323691
 11
12.3286863825
 21
2.6694072842
  0
LINE
  5
3E4
100
AcDbEntity
  8
0
100
AcDbLine
 62
2
  6
CONTINUOUS
 10
12.3086863715
 20
2.4159005505
 11
12.3086863715
 21
2.4912273132
  0
LINE
  5
3E5
100
AcDbEntity
  8
0
100
AcDbLine
 62
2
  6
CONTINUOUS
 10
12.3086863715
 20
2.515977327
 11
12.3086863715
 21
2.5333023366
  0
LINE
  5
3E6
100
AcDbEntity
  8
0
100
AcDbLine
 62
2
  6
CONTINUOUS
 10
12.3086863715
 20
2.5499573458
 11
12.3086863715
 21
2.5672823554
  0
LINE
  5
3E7
100
AcDbEntity
  8
0
100
AcDbLine
 62
2
  6
CONTINUOUS
 10
12.3086863715
 20
2.5920323691
 11
12.3086863715
 21
2.6648561305
  0
LINE
  5
3E8
100
AcDbEntity
  8
0
100
AcDbLine
 62
2
  6
CONTINUOUS
 10
12.2886863604
 20
2.4204517041
 11
12.2886863604
 21
2.4912273132
  0
LINE
  5
3E9
100
AcDbEntity
  8
0
100
AcDbLine
 62
2
  6
CONTINUOUS
 10
12.2886863604
 20
2.5920323691
 11
12.2886863604
 21
2.6603049769
  0
LINE
  5
3EA
100
AcDbEntity
  8
0
100
AcDbLine
 62
2
  6
CONTINUOUS
 10
12.2686863493
 20
2.4257438218
 11
12.2686863493
 21
2.4912273132
  0
LINE
  5
3EB
100
AcDbEntity
  8
0
100
AcDbLine
 62
2
  6
CONTINUOUS
 10
12.2686863493
 20
2.5920323691
 11
12.2686863493
 21
2.6550128592
  0
LINE
  5
3EC
100
AcDbEntity
  8
0
100
AcDbLine
 62
2
  6
CONTINUOUS
 10
12.2486863382
 20
2.4310978667
 11
12.2486863382
 21
2.4912273132
  0
LINE
  5
3ED
100
AcDbEntity
  8
0
100
AcDbLine
 62
2
  6
CONTINUOUS
 10
12.2486863382
 20
2.5920323691
 11
12.2486863382
 21
2.6496588142
  0
LINE
  5
3EE
100
AcDbEntity
  8
0
100
AcDbLine
 62
2
  6
CONTINUOUS
 10
12.2286863271
 20
2.4372566433
 11
12.2286863271
 21
2.4912273132
  0
LINE
  5
3EF
100
AcDbEntity
  8
0
100
AcDbLine
 62
2
  6
CONTINUOUS
 10
12.2286863271
 20
2.515977327
 11
12.2286863271
 21
2.5672823554
  0
LINE
  5
3F0
100
AcDbEntity
  8
0
100
AcDbLine
 62
2
  6
CONTINUOUS
 10
12.2286863271
 20
2.5920323691
 11
12.2286863271
 21
2.6435000377
  0
LINE
  5
3F1
100
AcDbEntity
  8
0
100
AcDbLine
 62
2
  6
CONTINUOUS
 10
12.208686316
 20
2.443589771
 11
12.208686316
 21
2.4912273132
  0
LINE
  5
3F2
100
AcDbEntity
  8
0
100
AcDbLine
 62
2
  6
CONTINUOUS
 10
12.208686316
 20
2.515977327
 11
12.208686316
 21
2.5672823554
  0
LINE
  5
3F3
100
AcDbEntity
  8
0
100
AcDbLine
 62
2
  6
CONTINUOUS
 10
12.208686316
 20
2.5920323691
 11
12.208686316
 21
2.63716691
  0
LINE
  5
3F4
100
AcDbEntity
  8
0
100
AcDbLine
 62
2
  6
CONTINUOUS
 10
12.1886863049
 20
2.4510806436
 11
12.1886863049
 21
2.6296760373
  0
LINE
  5
3F5
100
AcDbEntity
  8
0
100
AcDbLine
 62
2
  6
CONTINUOUS
 10
12.1686862938
 20
2.4591016523
 11
12.1686862938
 21
2.6216550287
  0
LINE
  5
3F6
100
AcDbEntity
  8
0
100
AcDbLine
 62
2
  6
CONTINUOUS
 10
12.1486862827
 20
2.468314272
 11
12.1486862827
 21
2.612442409
  0
LINE
  5
3F7
100
AcDbEntity
  8
0
100
AcDbLine
 62
2
  6
CONTINUOUS
 10
12.1286862716
 20
2.4794932339
 11
12.1286862716
 21
2.601263447
  0
LINE
  5
3F8
100
AcDbEntity
  8
0
100
AcDbLine
 62
2
  6
CONTINUOUS
 10
12.1086862605
 20
2.4934150665
 11
12.1086862605
 21
2.5873416144
  0
LINE
  5
3F9
100
AcDbEntity
  8
0
100
AcDbLine
 62
2
  6
CONTINUOUS
 10
12.0886862494
 20
2.5144449553
 11
12.0886862494
 21
2.5663117257
  0
ENDBLK
  5
3FA
100
AcDbEntity
  8
0
  6
BYBLOCK
 62
0
100
AcDbBlockEnd
  0
BLOCK
  5
3FB
100
AcDbEntity
  8
0
100
AcDbBlockBegin
  2
_FILLED
 70
64
 10
0.0
 20
0.0
  3
_FILLED
  1

  0
SOLID
  5
3FC
100
AcDbEntity
  8
0
  6
BYBLOCK
 62
0
100
AcDbTrace
 10
0.0
 20
0.0
 11
-1.0
 21
0.1666666667
 12
-1.0
 22
-0.1666666667
 13
-1.0
 23
-0.1666666667
  0
ENDBLK
  5
3FD
100
AcDbEntity
  8
0
  6
BYBLOCK
 62
0
100
AcDbBlockEnd
  0
BLOCK
  5
3FE
100
AcDbEntity
  8
SCHEME_DIMS
100
AcDbBlockBegin
 62
2
  6
CONTINUOUS
  2
*D0
 70
65
 10
0.0
 20
0.0
  3
*D0
  1

  0
MTEXT
  5
3FF
100
AcDbEntity
  8
SCHEME_DIMS
100
AcDbMText
 62
2
  6
CONTINUOUS
  7
STANDARD
 71
2
 72
1
 10
5.0950248736
 20
5.2296464977
 30
0.0
 11
1.0
 21
0.0
 31
0.0
 44
0.9
  1
26\P[1.03]
 40
0.1
 41
0.6
  0
LINE
  5
400
100
AcDbEntity
  8
SCHEME_DIMS
100
AcDbLine
 62
2
  6
CONTINUOUS
 10
4.4265538152
 20
4.6671464977
 11
5.4200248736
 21
4.6671464977
  0
LINE
  5
401
100
AcDbEntity
  8
SCHEME_DIMS
100
AcDbLine
 62
2
  6
CONTINUOUS
 10
4.3470590585
 20
5.6921464977
 11
5.4200248736
 21
5.6921464977
  0
LINE
  5
402
100
AcDbEntity
  8
SCHEME_DIMS
100
AcDbLine
 62
2
  6
CONTINUOUS
 10
5.2950248736
 20
4.6671464977
 11
5.2950248736
 21
4.8796464977
  0
LINE
  5
403
100
AcDbEntity
  8
SCHEME_DIMS
100
AcDbLine
 62
2
  6
CONTINUOUS
 10
5.2950248736
 20
5.6921464977
 11
5.2950248736
 21
5.3296464977
  0
INSERT
  5
404
100
AcDbEntity
  8
SCHEME_DIMS
100
AcDbBlockReference
 62
2
  6
CONTINUOUS
  2
_FILLED
 10
5.2950248736
 20
4.6671464977
 41
0.1875
 42
0.1875
 43
0.1875
 50
270.0
  0
INSERT
  5
405
100
AcDbEntity
  8
SCHEME_DIMS
100
AcDbBlockReference
 62
2
  6
CONTINUOUS
  2
_FILLED
 10
5.2950248736
 20
5.6921464977
 41
0.1875
 42
0.1875
 43
0.1875
 50
90.0
  0
ENDBLK
  5
406
100
AcDbEntity
  8
0
  6
BYBLOCK
 62
0
100
AcDbBlockEnd
  0
BLOCK
  5
407
100
AcDbEntity
  8
SCHEME_DIMS
100
AcDbBlockBegin
 62
2
  6
CONTINUOUS
  2
*D1
 70
65
 10
0.0
 20
0.0
  3
*D1
  1

  0
MTEXT
  5
408
100
AcDbEntity
  8
SCHEME_DIMS
100
AcDbMText
 62
2
  6
CONTINUOUS
  7
STANDARD
 71
3
 72
1
 10
7.2127279385
 20
6.8341439351
 30
0.0
 11
1.0
 21
0.0
 31
0.0
 44
0.9
  1
15\P[.59]
 40
0.1
 41
0.5
  0
LINE
  5
409
100
AcDbEntity
  8
SCHEME_DIMS
100
AcDbLine
 62
2
  6
CONTINUOUS
 10
7.9377279385
 20
6.1091219281
 11
7.9377279385
 21
6.9091439351
  0
LINE
  5
40A
100
AcDbEntity
  8
SCHEME_DIMS
100
AcDbLine
 62
2
  6
CONTINUOUS
 10
8.5277279385
 20
6.3105061659
 11
8.5277279385
 21
6.9091439351
  0
LINE
  5
40B
100
AcDbEntity
  8
SCHEME_DIMS
100
AcDbLine
 62
2
  6
CONTINUOUS
 10
7.9377279385
 20
6.7841439351
 11
8.2327279385
 21
6.7841439351
  0
LINE
  5
40C
100
AcDbEntity
  8
SCHEME_DIMS
100
AcDbLine
 62
2
  6
CONTINUOUS
 10
8.2327279385
 20
6.7841439351
 11
7.6127279385
 21
6.7841439351
  0
LINE
  5
40D
100
AcDbEntity
  8
SCHEME_DIMS
100
AcDbLine
 62
2
  6
CONTINUOUS
 10
8.5277279385
 20
6.7841439351
 11
8.2327279385
 21
6.7841439351
  0
INSERT
  5
40E
100
AcDbEntity
  8
SCHEME_DIMS
100
AcDbBlockReference
 62
2
  6
CONTINUOUS
  2
_FILLED
 10
7.9377279385
 20
6.7841439351
 41
0.1875
 42
0.1875
 43
0.1875
 50
180.0
  0
INSERT
  5
40F
100
AcDbEntity
  8
SCHEME_DIMS
100
AcDbBlockReference
 62
2
  6
CONTINUOUS
  2
_FILLED
 10
8.5277279385
 20
6.7841439351
 41
0.1875
 42
0.1875
 43
0.1875
  0
ENDBLK
  5
410
100
AcDbEntity
  8
0
  6
BYBLOCK
 62
0
100
AcDbBlockEnd
  0
BLOCK
  5
411
100
AcDbEntity
  8
SCHEME_DIMS
100
AcDbBlockBegin
 62
2
  6
CONTINUOUS
  2
*D2
 70
65
 10
0.0
 20
0.0
  3
*D2
  1

  0
MTEXT
  5
412
100
AcDbEntity
  8
SCHEME_DIMS
100
AcDbMText
 62
2
  6
CONTINUOUS
  7
STANDARD
 71
2
 72
1
 10
8.4302279385
 20
7.3341439351
 30
0.0
 11
1.0
 21
0.0
 31
0.0
 44
0.9
  1
30,1\P[1.19]
 40
0.1
 41
0.6
  0
LINE
  5
413
100
AcDbEntity
  8
SCHEME_DIMS
100
AcDbLine
 62
2
  6
CONTINUOUS
 10
9.1227279385
 20
6.3080599327
 11
9.1227279385
 21
7.4091439351
  0
LINE
  5
414
100
AcDbEntity
  8
SCHEME_DIMS
100
AcDbLine
 62
2
  6
CONTINUOUS
 10
7.9377279385
 20
6.0976552099
 11
7.9377279385
 21
7.4091439351
  0
LINE
  5
415
100
AcDbEntity
  8
SCHEME_DIMS
100
AcDbLine
 62
2
  6
CONTINUOUS
 10
9.1227279385
 20
7.2841439351
 11
9.5227279385
 21
7.2841439351
  0
LINE
  5
416
100
AcDbEntity
  8
SCHEME_DIMS
100
AcDbLine
 62
2
  6
CONTINUOUS
 10
7.9377279385
 20
7.2841439351
 11
7.5377279385
 21
7.2841439351
  0
INSERT
  5
417
100
AcDbEntity
  8
SCHEME_DIMS
100
AcDbBlockReference
 62
2
  6
CONTINUOUS
  2
_FILLED
 10
9.1227279385
 20
7.2841439351
 41
0.1875
 42
0.1875
 43
0.1875
 50
180.0
  0
INSERT
  5
418
100
AcDbEntity
  8
SCHEME_DIMS
100
AcDbBlockReference
 62
2
  6
CONTINUOUS
  2
_FILLED
 10
7.9377279385
 20
7.2841439351
 41
0.1875
 42
0.1875
 43
0.1875
  0
ENDBLK
  5
419
100
AcDbEntity
  8
0
  6
BYBLOCK
 62
0
100
AcDbBlockEnd
  0
BLOCK
  5
41A
100
AcDbEntity
  8
SCHEME_DIMS
100
AcDbBlockBegin
 62
2
  6
CONTINUOUS
  2
*D3
 70
65
 10
0.0
 20
0.0
  3
*D3
  1

  0
MTEXT
  5
41B
100
AcDbEntity
  8
SCHEME_DIMS
100
AcDbMText
 62
2
  6
CONTINUOUS
  7
TEXTSTYLE_5
 71
2
 72
1
 10
4.0029213287
 20
7.4171808537
 30
0.0
 11
1.0
 21
0.0
 31
0.0
 44
0.9
  1
{\Fgdt;n}\Ftxt;30,1\P[1.18]
 40
0.1
 41
0.6
  0
LINE
  5
41C
100
AcDbEntity
  8
SCHEME_DIMS
100
AcDbLine
 62
2
  6
CONTINUOUS
 10
4.6949213287
 20
8.3551319611
 11
4.6949213287
 21
7.2421808537
  0
LINE
  5
41D
100
AcDbEntity
  8
SCHEME_DIMS
100
AcDbLine
 62
2
  6
CONTINUOUS
 10
3.5109213287
 20
8.3599097603
 11
3.5109213287
 21
7.2421808537
  0
LINE
  5
41E
100
AcDbEntity
  8
SCHEME_DIMS
100
AcDbLine
 62
2
  6
CONTINUOUS
 10
4.6949213287
 20
7.3671808537
 11
5.0949213287
 21
7.3671808537
  0
LINE
  5
41F
100
AcDbEntity
  8
SCHEME_DIMS
100
AcDbLine
 62
2
  6
CONTINUOUS
 10
3.5109213287
 20
7.3671808537
 11
3.1109213287
 21
7.3671808537
  0
INSERT
  5
420
100
AcDbEntity
  8
SCHEME_DIMS
100
AcDbBlockReference
 62
2
  6
CONTINUOUS
  2
_FILLED
 10
4.6949213287
 20
7.3671808537
 41
0.1875
 42
0.1875
 43
0.1875
 50
180.0
  0
INSERT
  5
421
100
AcDbEntity
  8
SCHEME_DIMS
100
AcDbBlockReference
 62
2
  6
CONTINUOUS
  2
_FILLED
 10
3.5109213287
 20
7.3671808537
 41
0.1875
 42
0.1875
 43
0.1875
  0
ENDBLK
  5
422
100
AcDbEntity
  8
0
  6
BYBLOCK
 62
0
100
AcDbBlockEnd
  0
BLOCK
  5
423
100
AcDbEntity
  8
SCHEME_DIMS
100
AcDbBlockBegin
 62
2
  6
CONTINUOUS
  2
*D4
 70
65
 10
0.0
 20
0.0
  3
*D4
  1

  0
MTEXT
  5
424
100
AcDbEntity
  8
SCHEME_DIMS
100
AcDbMText
 62
2
  6
CONTINUOUS
  7
STANDARD
 71
2
 72
1
 10
11.0999358427
 20
5.5251464977
 30
0.0
 11
1.0
 21
0.0
 31
0.0
 44
0.9
  1
41\P[1.62]
 40
0.1
 41
0.6
  0
LINE
  5
425
100
AcDbEntity
  8
SCHEME_DIMS
100
AcDbLine
 62
2
  6
CONTINUOUS
 10
12.0683033561
 20
4.6671464977
 11
11.1749358427
 21
4.6671464977
  0
LINE
  5
426
100
AcDbEntity
  8
SCHEME_DIMS
100
AcDbLine
 62
2
  6
CONTINUOUS
 10
12.1656664952
 20
6.2831464977
 11
11.1749358427
 21
6.2831464977
  0
LINE
  5
427
100
AcDbEntity
  8
SCHEME_DIMS
100
AcDbLine
 62
2
  6
CONTINUOUS
 10
11.2999358427
 20
4.6671464977
 11
11.2999358427
 21
5.1751464977
  0
LINE
  5
428
100
AcDbEntity
  8
SCHEME_DIMS
100
AcDbLine
 62
2
  6
CONTINUOUS
 10
11.2999358427
 20
6.2831464977
 11
11.2999358427
 21
5.6251464977
  0
INSERT
  5
429
100
AcDbEntity
  8
SCHEME_DIMS
100
AcDbBlockReference
 62
2
  6
CONTINUOUS
  2
_FILLED
 10
11.2999358427
 20
4.6671464977
 41
0.1875
 42
0.1875
 43
0.1875
 50
270.0
  0
INSERT
  5
42A
100
AcDbEntity
  8
SCHEME_DIMS
100
AcDbBlockReference
 62
2
  6
CONTINUOUS
  2
_FILLED
 10
11.2999358427
 20
6.2831464977
 41
0.1875
 42
0.1875
 43
0.1875
 50
90.0
  0
ENDBLK
  5
42B
100
AcDbEntity
  8
0
  6
BYBLOCK
 62
0
100
AcDbBlockEnd
  0
ENDSEC
  0
SECTION
  2
ENTITIES
  0
MTEXT
  5
42C
100
AcDbEntity
  8
0
100
AcDbMText
 62
2
  6
CONTINUOUS
  7
TEXTSTYLE_2
 71
2
 72
1
 10
11.0287658475
 20
1.794867839
 30
0.0
 11
1.0
 21
0.0
 31
0.0
 44
0.9
  1
THIRD ANGLE PROJECTION
 40
0.1
 41
1.76
  0
MTEXT
  5
42D
100
AcDbEntity
  8
0
100
AcDbMText
 62
2
  6
CONTINUOUS
  7
STANDARD
 71
1
 72
1
 10
12.88
 20
1.457
 30
0.0
 11
1.0
 21
0.0
 31
0.0
 44
0.9
  1
DRAWING NO.
 40
0.08
 41
0.88
  0
MTEXT
  5
42E
100
AcDbEntity
  8
0
100
AcDbMText
 62
2
  6
CONTINUOUS
  7
TEXTSTYLE_3
 71
2
 72
1
 10
11.03
 20
2.516432
 30
0.0
 11
1.0
 21
0.0
 31
0.0
 44
0.9
  1
and is proprietary in general
 40
0.08
 41
1.972
  0
MTEXT
  5
42F
100
AcDbEntity
  8
0
100
AcDbMText
 62
2
  6
CONTINUOUS
  7
TEXTSTYLE_3
 71
2
 72
1
 10
11.03
 20
2.396432
 30
0.0
 11
1.0
 21
0.0
 31
0.0
 44
0.9
  1
and in detail.  Its contents
 40
0.08
 41
1.904
  0
MTEXT
  5
430
100
AcDbEntity
  8
0
100
AcDbMText
 62
2
  6
CONTINUOUS
  7
TEXTSTYLE_3
 71
2
 72
1
 10
11.03
 20
2.276432
 30
0.0
 11
1.0
 21
0.0
 31
0.0
 44
0.9
  1
shall not be revealed to
 40
0.08
 41
1.632
  0
MTEXT
  5
431
100
AcDbEntity
  8
0
100
AcDbMText
 62
2
  6
CONTINUOUS
  7
TEXTSTYLE_3
 71
2
 72
1
 10
11.03
 20
2.156432
 30
0.0
 11
1.0
 21
0.0
 31
0.0
 44
0.9
  1
outside parties without
 40
0.08
 41
1.564
  0
MTEXT
  5
432
100
AcDbEntity
  8
0
100
AcDbMText
 62
2
  6
CONTINUOUS
  7
TEXTSTYLE_3
 71
2
 72
1
 10
11.03
 20
2.036432
 30
0.0
 11
1.0
 21
0.0
 31
0.0
 44
0.9
  1
written consent of BANNER.
 40
0.08
 41
1.768
  0
MTEXT
  5
433
100
AcDbEntity
  8
0
100
AcDbMText
 62
2
  6
CONTINUOUS
  7
TEXTSTYLE_2
 71
1
 72
1
 10
12.08
 20
2.217
 30
0.0
 11
1.0
 21
0.0
 31
0.0
 44
0.9
  1
TITLE
 40
0.1
 41
0.4
  0
MTEXT
  5
434
100
AcDbEntity
  8
0
100
AcDbMText
 62
2
  6
CONTINUOUS
  7
STANDARD
 71
1
 72
1
 10
12.08
 20
1.457
 30
0.0
 11
1.0
 21
0.0
 31
0.0
 44
0.9
  1
SIZE
 40
0.08
 41
0.32
  0
MTEXT
  5
435
100
AcDbEntity
  8
0
100
AcDbMText
 62
2
  6
CONTINUOUS
  7
STANDARD
 71
1
 72
1
 10
12.08
 20
1.087
 30
0.0
 11
1.0
 21
0.0
 31
0.0
 44
0.9
  1
SCALE
 40
0.08
 41
0.4
  0
MTEXT
  5
436
100
AcDbEntity
  8
0
100
AcDbMText
 62
2
  6
CONTINUOUS
  7
TEXTSTYLE_2
 71
2
 72
1
 10
12.5
 20
1.337
 30
0.0
 11
1.0
 21
0.0
 31
0.0
 44
0.9
  1
B
 40
0.1
 41
0.08
  0
MTEXT
  5
437
100
AcDbEntity
  8
0
100
AcDbMText
 62
2
  6
CONTINUOUS
  7
TEXTSTYLE_3
 71
2
 72
1
 10
11.03
 20
2.636432
 30
0.0
 11
1.0
 21
0.0
 31
0.0
 44
0.9
  1
of BANNER ENGINEERING CORP.
 40
0.08
 41
1.836
  0
MTEXT
  5
438
100
AcDbEntity
  8
0
100
AcDbMText
 62
2
  6
CONTINUOUS
  7
TEXTSTYLE_3
 71
2
 72
1
 10
11.03
 20
2.756432
 30
0.0
 11
1.0
 21
0.0
 31
0.0
 44
0.9
  1
This drawing is the property
 40
0.08
 41
1.904
  0
MTEXT
  5
439
100
AcDbEntity
  8
0
100
AcDbMText
 62
2
  6
CONTINUOUS
  7
TEXTSTYLE_2
 71
2
 72
1
 10
15.03
 20
2.4134
 30
0.0
 11
1.0
 21
0.0
 31
0.0
 44
0.9
  1
MINNEAPOLIS, MN 55440
 40
0.1
 41
1.68
  0
MTEXT
  5
43A
100
AcDbEntity
  8
0
100
AcDbMText
 62
2
  6
CONTINUOUS
  7
STANDARD
 71
1
 72
1
 10
14.255
 20
1.087
 30
0.0
 11
1.0
 21
0.0
 31
0.0
 44
0.9
  1
SHEET
 40
0.08
 41
0.4
  0
MTEXT
  5
43B
100
AcDbEntity
  8
0
100
AcDbMText
 62
2
  6
CONTINUOUS
  7
STANDARD
 71
1
 72
1
 10
15.63
 20
1.457
 30
0.0
 11
1.0
 21
0.0
 31
0.0
 44
0.9
  1
REV.
 40
0.08
 41
0.32
  0
MTEXT
  5
43C
100
AcDbEntity
  8
0
100
AcDbMText
 62
2
  6
CONTINUOUS
  7
STANDARD
 71
3
 72
1
 10
16.38
 20
0.835443
 30
0.0
 11
1.0
 21
0.0
 31
0.0
 44
0.9
  1
PRO/E
 40
0.07
 41
0.35
  0
MTEXT
  5
43D
100
AcDbEntity
  8
0
100
AcDbMText
 62
2
  6
CONTINUOUS
  7
TEXTSTYLE_4
 71
2
 72
1
 10
15.03
 20
2.751049
 30
0.0
 11
1.0
 21
0.0
 31
0.0
 44
0.9
  1
BANNER ENGINEERING CORP.
 40
0.12
 41
2.6496
  0
MTEXT
  5
43E
100
AcDbEntity
  8
0
100
AcDbMText
 62
2
  6
CONTINUOUS
  7
TEXTSTYLE_2
 71
2
 72
1
 10
15.03
 20
2.5724
 30
0.0
 11
1.0
 21
0.0
 31
0.0
 44
0.9
  1
P.O. BOX 9414
 40
0.1
 41
1.04
  0
MTEXT
  5
43F
100
AcDbEntity
  8
0
100
AcDbMText
 62
2
  6
CONTINUOUS
  7
TEXTSTYLE_2
 71
2
 72
1
 10
9.485
 20
10.312
 30
0.0
 11
1.0
 21
0.0
 31
0.0
 44
0.9
  1
4
 40
0.1
 41
0.08
  0
MTEXT
  5
440
100
AcDbEntity
  8
0
100
AcDbMText
 62
2
  6
CONTINUOUS
  7
TEXTSTYLE_2
 71
2
 72
1
 10
11.455
 20
10.312
 30
0.0
 11
1.0
 21
0.0
 31
0.0
 44
0.9
  1
3
 40
0.1
 41
0.08
  0
MTEXT
  5
441
100
AcDbEntity
  8
0
100
AcDbMText
 62
2
  6
CONTINUOUS
  7
TEXTSTYLE_2
 71
2
 72
1
 10
13.425
 20
10.312
 30
0.0
 11
1.0
 21
0.0
 31
0.0
 44
0.9
  1
2
 40
0.1
 41
0.08
  0
MTEXT
  5
442
100
AcDbEntity
  8
0
100
AcDbMText
 62
2
  6
CONTINUOUS
  7
TEXTSTYLE_2
 71
2
 72
1
 10
15.395
 20
10.312
 30
0.0
 11
1.0
 21
0.0
 31
0.0
 44
0.9
  1
1
 40
0.1
 41
0.08
  0
MTEXT
  5
443
100
AcDbEntity
  8
0
100
AcDbMText
 62
2
  6
CONTINUOUS
  7
TEXTSTYLE_2
 71
2
 72
1
 10
3.575
 20
10.312
 30
0.0
 11
1.0
 21
0.0
 31
0.0
 44
0.9
  1
7
 40
0.1
 41
0.08
  0
MTEXT
  5
444
100
AcDbEntity
  8
0
100
AcDbMText
 62
2
  6
CONTINUOUS
  7
TEXTSTYLE_2
 71
2
 72
1
 10
5.545
 20
10.312
 30
0.0
 11
1.0
 21
0.0
 31
0.0
 44
0.9
  1
6
 40
0.1
 41
0.08
  0
MTEXT
  5
445
100
AcDbEntity
  8
0
100
AcDbMText
 62
2
  6
CONTINUOUS
  7
TEXTSTYLE_2
 71
2
 72
1
 10
7.515
 20
10.312
 30
0.0
 11
1.0
 21
0.0
 31
0.0
 44
0.9
  1
5
 40
0.1
 41
0.08
  0
MTEXT
  5
446
100
AcDbEntity
  8
0
100
AcDbMText
 62
2
  6
CONTINUOUS
  7
TEXTSTYLE_2
 71
2
 72
1
 10
1.605
 20
10.312
 30
0.0
 11
1.0
 21
0.0
 31
0.0
 44
0.9
  1
8
 40
0.1
 41
0.08
  0
MTEXT
  5
447
100
AcDbEntity
  8
0
100
AcDbMText
 62
2
  6
CONTINUOUS
  7
TEXTSTYLE_2
 71
2
 72
1
 10
1.605
 20
0.787
 30
0.0
 11
1.0
 21
0.0
 31
0.0
 44
0.9
  1
8
 40
0.1
 41
0.08
  0
MTEXT
  5
448
100
AcDbEntity
  8
0
100
AcDbMText
 62
2
  6
CONTINUOUS
  7
TEXTSTYLE_2
 71
2
 72
1
 10
3.575
 20
0.787
 30
0.0
 11
1.0
 21
0.0
 31
0.0
 44
0.9
  1
7
 40
0.1
 41
0.08
  0
MTEXT
  5
449
100
AcDbEntity
  8
0
100
AcDbMText
 62
2
  6
CONTINUOUS
  7
TEXTSTYLE_2
 71
2
 72
1
 10
5.545
 20
0.787
 30
0.0
 11
1.0
 21
0.0
 31
0.0
 44
0.9
  1
6
 40
0.1
 41
0.08
  0
MTEXT
  5
44A
100
AcDbEntity
  8
0
100
AcDbMText
 62
2
  6
CONTINUOUS
  7
TEXTSTYLE_2
 71
2
 72
1
 10
7.515
 20
0.787
 30
0.0
 11
1.0
 21
0.0
 31
0.0
 44
0.9
  1
5
 40
0.1
 41
0.08
  0
MTEXT
  5
44B
100
AcDbEntity
  8
0
100
AcDbMText
 62
2
  6
CONTINUOUS
  7
TEXTSTYLE_2
 71
2
 72
1
 10
9.485
 20
0.787
 30
0.0
 11
1.0
 21
0.0
 31
0.0
 44
0.9
  1
4
 40
0.1
 41
0.08
  0
MTEXT
  5
44C
100
AcDbEntity
  8
0
100
AcDbMText
 62
2
  6
CONTINUOUS
  7
TEXTSTYLE_2
 71
2
 72
1
 10
11.455
 20
0.787
 30
0.0
 11
1.0
 21
0.0
 31
0.0
 44
0.9
  1
3
 40
0.1
 41
0.08
  0
MTEXT
  5
44D
100
AcDbEntity
  8
0
100
AcDbMText
 62
2
  6
CONTINUOUS
  7
TEXTSTYLE_2
 71
2
 72
1
 10
13.425
 20
0.787
 30
0.0
 11
1.0
 21
0.0
 31
0.0
 44
0.9
  1
2
 40
0.1
 41
0.08
  0
MTEXT
  5
44E
100
AcDbEntity
  8
0
100
AcDbMText
 62
2
  6
CONTINUOUS
  7
TEXTSTYLE_2
 71
2
 72
1
 10
15.395
 20
0.787
 30
0.0
 11
1.0
 21
0.0
 31
0.0
 44
0.9
  1
1
 40
0.1
 41
0.08
  0
MTEXT
  5
44F
100
AcDbEntity
  8
0
100
AcDbMText
 62
2
  6
CONTINUOUS
  7
TEXTSTYLE_2
 71
3
 72
1
 10
0.52
 20
4.3995
 30
0.0
 11
1.0
 21
0.0
 31
0.0
 44
0.9
  1
B
 40
0.1
 41
0.08
  0
MTEXT
  5
450
100
AcDbEntity
  8
0
100
AcDbMText
 62
2
  6
CONTINUOUS
  7
TEXTSTYLE_2
 71
3
 72
1
 10
0.52
 20
2.0995
 30
0.0
 11
1.0
 21
0.0
 31
0.0
 44
0.9
  1
A
 40
0.1
 41
0.08
  0
MTEXT
  5
451
100
AcDbEntity
  8
0
100
AcDbMText
 62
2
  6
CONTINUOUS
  7
TEXTSTYLE_2
 71
3
 72
1
 10
0.52
 20
8.9995
 30
0.0
 11
1.0
 21
0.0
 31
0.0
 44
0.9
  1
D
 40
0.1
 41
0.08
  0
MTEXT
  5
452
100
AcDbEntity
  8
0
100
AcDbMText
 62
2
  6
CONTINUOUS
  7
TEXTSTYLE_2
 71
3
 72
1
 10
0.52
 20
6.6995
 30
0.0
 11
1.0
 21
0.0
 31
0.0
 44
0.9
  1
C
 40
0.1
 41
0.08
  0
MTEXT
  5
453
100
AcDbEntity
  8
0
100
AcDbMText
 62
2
  6
CONTINUOUS
  7
TEXTSTYLE_2
 71
1
 72
1
 10
16.48
 20
8.9995
 30
0.0
 11
1.0
 21
0.0
 31
0.0
 44
0.9
  1
D
 40
0.1
 41
0.08
  0
MTEXT
  5
454
100
AcDbEntity
  8
0
100
AcDbMText
 62
2
  6
CONTINUOUS
  7
TEXTSTYLE_2
 71
1
 72
1
 10
16.48
 20
6.6995
 30
0.0
 11
1.0
 21
0.0
 31
0.0
 44
0.9
  1
C
 40
0.1
 41
0.08
  0
MTEXT
  5
455
100
AcDbEntity
  8
0
100
AcDbMText
 62
2
  6
CONTINUOUS
  7
TEXTSTYLE_2
 71
1
 72
1
 10
16.48
 20
4.3995
 30
0.0
 11
1.0
 21
0.0
 31
0.0
 44
0.9
  1
B
 40
0.1
 41
0.08
  0
MTEXT
  5
456
100
AcDbEntity
  8
0
100
AcDbMText
 62
2
  6
CONTINUOUS
  7
TEXTSTYLE_2
 71
1
 72
1
 10
16.48
 20
2.0995
 30
0.0
 11
1.0
 21
0.0
 31
0.0
 44
0.9
  1
A
 40
0.1
 41
0.08
  0
MTEXT
  5
457
100
AcDbEntity
  8
0
100
AcDbMText
 62
2
  6
CONTINUOUS
  7
STANDARD
 71
1
 72
1
 10
14.819264911
 20
1.0627941725
 30
0.0
 11
1.0
 21
0.0
 31
0.0
 44
0.9
  1
1 OF 1
 40
0.1
 41
0.6
  0
MTEXT
  5
458
100
AcDbEntity
  8
0
100
AcDbMText
 62
7
  6
CONTINUOUS
  7
STANDARD
 71
1
 72
1
 10
13.8911999818
 20
1.3747321586
 30
0.0
 11
1.0
 21
0.0
 31
0.0
 44
0.9
  1
155304
 40
0.12
 41
0.72
  0
MTEXT
  5
459
100
AcDbEntity
  8
0
100
AcDbMText
 62
2
  6
CONTINUOUS
  7
STANDARD
 71
1
 72
1
 10
12.644264911
 20
1.0627941725
 30
0.0
 11
1.0
 21
0.0
 31
0.0
 44
0.9
  1
1:1
 40
0.1
 41
0.3
  0
MTEXT
  5
45A
100
AcDbEntity
  8
0
100
AcDbMText
 62
2
  6
CONTINUOUS
  7
STANDARD
 71
1
 72
1
 10
1.0597007627
 20
1.6202922458
 30
0.0
 11
1.0
 21
0.0
 31
0.0
 44
0.9
  1
NOTES:\P1. ALL DIMENSIONS ARE MILLIMETERS [INCHES] UNLESS OTHERWISE NOTED.
 40
0.1
 41
6.6
  0
INSERT
  5
45B
100
AcDbEntity
  8
0
100
AcDbBlockReference
 62
2
  6
CONTINUOUS
  2
BANNER_LOGO_TITLEBLOCK_BL0
 10
12.9086867042
 20
2.5403783405
  0
DIMENSION
  5
45C
100
AcDbEntity
  8
SCHEME_DIMS
100
AcDbDimension
 62
2
  6
CONTINUOUS
  2
*D0
 10
5.2950248736
 20
5.6921464977
 11
5.2200248736
 21
5.1046464977
 70
160
 71
2
 42
26.035
  3
DIMSTYLE_1
100
AcDbAlignedDimension
 13
4.4265538152
 23
4.6671464977
 14
4.3470590585
 24
5.6921464977
 50
90.0
100
AcDbRotatedDimension
  0
DIMENSION
  5
45D
100
AcDbEntity
  8
SCHEME_DIMS
100
AcDbDimension
 62
2
  6
CONTINUOUS
  2
*D1
 10
8.5277279385
 20
6.7841439351
 11
7.1127279385
 21
6.7091439351
 70
160
 71
3
 42
14.986
  3
DIMSTYLE_1
100
AcDbAlignedDimension
 13
7.9377279385
 23
6.1091219281
 14
8.5277279385
 24
6.3105061659
100
AcDbRotatedDimension
  0
DIMENSION
  5
45E
100
AcDbEntity
  8
SCHEME_DIMS
100
AcDbDimension
 62
2
  6
CONTINUOUS
  2
*D2
 10
7.9377279385
 20
7.2841439351
 11
8.4052279385
 21
7.2091439351
 70
160
 71
2
 42
30.099
  3
DIMSTYLE_1
100
AcDbAlignedDimension
 13
9.1227279385
 23
6.3080599327
 14
7.9377279385
 24
6.0976552099
 50
180.0
100
AcDbRotatedDimension
  0
DIMENSION
  5
45F
100
AcDbEntity
  8
SCHEME_DIMS
100
AcDbDimension
 62
2
  6
CONTINUOUS
  2
*D3
 10
3.5109213287
 20
7.3671808537
 11
4.0445879953
 21
7.2921808537
 70
160
 71
2
 42
30.0736
  1
%%c<>
  3
DIMSTYLE_1
100
AcDbAlignedDimension
 13
4.6949213287
 23
8.3551319611
 14
3.5109213287
 24
8.3599097603
 50
180.0
100
AcDbRotatedDimension
  0
DIMENSION
  5
460
100
AcDbEntity
  8
SCHEME_DIMS
100
AcDbDimension
 62
2
  6
CONTINUOUS
  2
*D4
 10
11.2999358427
 20
6.2831464977
 11
11.2249358427
 21
5.4001464977
 70
160
 71
2
 42
41.0464
  3
DIMSTYLE_1
100
AcDbAlignedDimension
 13
12.0683033561
 23
4.6671464977
 14
12.1656664952
 24
6.2831464977
 50
90.0
100
AcDbRotatedDimension
  0
LINE
  5
461
100
AcDbEntity
  8
0
100
AcDbLine
 62
2
  6
CONTINUOUS
 10
16.38
 20
0.887
 11
12.03
 21
0.887
  0
LINE
  5
462
100
AcDbEntity
  8
0
100
AcDbLine
 62
2
  6
CONTINUOUS
 10
16.38
 20
0.887
 11
16.38
 21
2.807
  0
LINE
  5
463
100
AcDbEntity
  8
0
100
AcDbLine
 62
2
  6
CONTINUOUS
 10
16.38
 20
2.807
 11
12.03
 21
2.807
  0
LINE
  5
464
100
AcDbEntity
  8
0
100
AcDbLine
 62
2
  6
CONTINUOUS
 10
12.03
 20
0.887
 11
12.03
 21
2.807
  0
MTEXT
  5
465
100
AcDbEntity
  8
NOTES
100
AcDbMText
 62
7
  6
CONTINUOUS
  7
STANDARD
 71
2
 72
1
 10
16.155
 20
1.367
 30
0.0
 11
1.0
 21
0.0
 31
0.0
 44
0.9
  1
1
 40
0.1
 41
0.1
  0
MTEXT
  5
466
100
AcDbEntity
  8
NOTES
100
AcDbMText
 62
7
  6
CONTINUOUS
  7
STANDARD
 71
2
 72
1
 10
14.205
 20
1.967
 30
0.0
 11
1.0
 21
0.0
 31
0.0
 44
0.9
  1
T186E CABLE/PIGTAIL\PWEB CAD DRAWINGS 2D/3D
 40
0.1
 41
2.2
  0
MTEXT
  5
467
100
AcDbEntity
  8
NOTES
100
AcDbMText
 62
2
  6
CONTINUOUS
  7
STANDARD
 71
2
 72
1
 10
14.5453205294
 20
6.9883154437
 30
0.0
 11
1.0
 21
0.0
 31
0.0
 44
0.9
  1
ISOMETRIC\PSCALE  1:1
 40
0.1
 41
1.0
  0
LEADER
  5
468
100
AcDbEntity
  8
NOTES
100
AcDbLeader
 62
2
  6
CONTINUOUS
  3
STANDARD
 71
1
 72
0
 73
0
 75
0
 40
0.1
 41
0.9
 76
3
 10
8.056305219
 20
5.3396009157
 30
0.0
 10
7.7579257598
 20
4.910154009
 30
0.0
 10
7.5970483011
 20
4.910154009
 30
0.0
340
469
1001
ACAD
1000
DSTYLE
1002
{
1070
77
1070
0
1002
}
  0
MTEXT
  5
469
102
{ACAD_REACTORS
330
468
102
}
100
AcDbEntity
  8
NOTES
100
AcDbMText
 62
2
  6
CONTINUOUS
  7
STANDARD
 71
3
 72
1
 10
7.5970483011
 20
4.960154009
 30
0.0
 11
1.0
 21
0.0
 31
0.0
 44
0.9
  1
M18 X 1 G
 40
0.1
 41
0.9
  0
LINE
  5
46A
100
AcDbEntity
  8
0
100
AcDbLine
 62
2
  6
CONTINUOUS
 10
0.47
 20
5.586103
 11
0.47
 21
5.412897
  0
LINE
  5
46B
100
AcDbEntity
  8
0
100
AcDbLine
 62
2
  6
CONTINUOUS
 10
0.62
 20
10.112
 11
0.62
 21
0.887
  0
LINE
  5
46C
100
AcDbEntity
  8
0
100
AcDbLine
 62
2
  6
CONTINUOUS
 10
2.59
 20
0.887
 11
2.59
 21
0.637
  0
LINE
  5
46D
100
AcDbEntity
  8
0
100
AcDbLine
 62
2
  6
CONTINUOUS
 10
2.59
 20
10.112
 11
2.59
 21
10.362
  0
LINE
  5
46E
100
AcDbEntity
  8
0
100
AcDbLine
 62
2
  6
CONTINUOUS
 10
8.413397
 20
0.737
 11
8.586603
 21
0.737
  0
LINE
  5
46F
100
AcDbEntity
  8
0
100
AcDbLine
 62
7
  6
CONTINUOUS
 10
11.1389508475
 20
1.425992839
 11
11.7453418475
 21
1.495385839
  0
LINE
  5
470
100
AcDbEntity
  8
0
100
AcDbLine
 62
2
  6
CONTINUOUS
 10
0.62
 20
0.887
 11
16.38
 21
0.887
  0
LINE
  5
471
100
AcDbEntity
  8
0
100
AcDbLine
 62
2
  6
CONTINUOUS
 10
12.03
 20
1.137
 11
16.38
 21
1.137
  0
LINE
  5
472
100
AcDbEntity
  8
0
100
AcDbLine
 62
7
  6
CONTINUOUS
 10
10.2121898475
 20
1.243294839
 11
10.4342808475
 21
1.243294839
  0
LINE
  5
473
100
AcDbEntity
  8
0
100
AcDbLine
 62
7
  6
CONTINUOUS
 10
10.4842808475
 20
1.243294839
 11
10.5842808475
 21
1.243294839
  0
LINE
  5
474
100
AcDbEntity
  8
0
100
AcDbLine
 62
7
  6
CONTINUOUS
 10
10.6342808475
 20
1.243294839
 11
10.8563718475
 21
1.243294839
  0
LINE
  5
475
100
AcDbEntity
  8
0
100
AcDbLine
 62
7
  6
CONTINUOUS
 10
11.0389508475
 20
1.243294839
 11
11.3171028475
 21
1.243294839
  0
LINE
  5
476
100
AcDbEntity
  8
0
100
AcDbLine
 62
7
  6
CONTINUOUS
 10
11.3671028475
 20
1.243294839
 11
11.5171888475
 21
1.243294839
  0
LINE
  5
477
100
AcDbEntity
  8
0
100
AcDbLine
 62
7
  6
CONTINUOUS
 10
11.5671888475
 20
1.243294839
 11
11.8453418475
 21
1.243294839
  0
LINE
  5
478
100
AcDbEntity
  8
0
100
AcDbLine
 62
7
  6
CONTINUOUS
 10
11.7453418475
 20
0.991203839
 11
11.1389508475
 21
1.060596839
  0
LINE
  5
479
100
AcDbEntity
  8
0
100
AcDbLine
 62
2
  6
CONTINUOUS
 10
4.56
 20
0.887
 11
4.56
 21
0.637
  0
LINE
  5
47A
100
AcDbEntity
  8
0
100
AcDbLine
 62
2
  6
CONTINUOUS
 10
4.56
 20
10.112
 11
4.56
 21
10.362
  0
LINE
  5
47B
100
AcDbEntity
  8
0
100
AcDbLine
 62
2
  6
CONTINUOUS
 10
0.47
 20
5.412897
 11
0.62
 21
5.4995
  0
LINE
  5
47C
100
AcDbEntity
  8
0
100
AcDbLine
 62
2
  6
CONTINUOUS
 10
12.03
 20
1.507
 11
16.38
 21
1.507
  0
LINE
  5
47D
100
AcDbEntity
  8
0
100
AcDbLine
 62
2
  6
CONTINUOUS
 10
10.03
 20
1.907
 11
12.03
 21
1.907
  0
LINE
  5
47E
100
AcDbEntity
  8
0
100
AcDbLine
 62
2
  6
CONTINUOUS
 10
0.62
 20
5.4995
 11
0.47
 21
5.586103
  0
LINE
  5
47F
100
AcDbEntity
  8
0
100
AcDbLine
 62
2
  6
CONTINUOUS
 10
12.03
 20
2.267
 11
16.38
 21
2.267
  0
LINE
  5
480
100
AcDbEntity
  8
0
100
AcDbLine
 62
2
  6
CONTINUOUS
 10
8.5
 20
10.112
 11
8.586603
 21
10.262
  0
LINE
  5
481
100
AcDbEntity
  8
0
100
AcDbLine
 62
2
  6
CONTINUOUS
 10
16.38
 20
2.807
 11
10.03
 21
2.807
  0
LINE
  5
482
100
AcDbEntity
  8
0
100
AcDbLine
 62
2
  6
CONTINUOUS
 10
0.62
 20
3.1995
 11
0.37
 21
3.1995
  0
LINE
  5
483
100
AcDbEntity
  8
0
100
AcDbLine
 62
2
  6
CONTINUOUS
 10
16.38
 20
3.1995
 11
16.63
 21
3.1995
  0
LINE
  5
484
100
AcDbEntity
  8
0
100
AcDbLine
 62
2
  6
CONTINUOUS
 10
8.586603
 20
0.737
 11
8.5
 21
0.887
  0
LINE
  5
485
100
AcDbEntity
  8
0
100
AcDbLine
 62
2
  6
CONTINUOUS
 10
6.53
 20
0.887
 11
6.53
 21
0.637
  0
LINE
  5
486
100
AcDbEntity
  8
0
100
AcDbLine
 62
2
  6
CONTINUOUS
 10
6.53
 20
10.112
 11
6.53
 21
10.362
  0
LINE
  5
487
100
AcDbEntity
  8
0
100
AcDbLine
 62
2
  6
CONTINUOUS
 10
8.5
 20
0.887
 11
8.5
 21
0.637
  0
LINE
  5
488
100
AcDbEntity
  8
0
100
AcDbLine
 62
2
  6
CONTINUOUS
 10
8.5
 20
10.112
 11
8.5
 21
10.362
  0
LINE
  5
489
100
AcDbEntity
  8
0
100
AcDbLine
 62
2
  6
CONTINUOUS
 10
0.62
 20
5.4995
 11
0.37
 21
5.4995
  0
LINE
  5
48A
100
AcDbEntity
  8
0
100
AcDbLine
 62
2
  6
CONTINUOUS
 10
16.38
 20
5.4995
 11
16.63
 21
5.4995
  0
LINE
  5
48B
100
AcDbEntity
  8
0
100
AcDbLine
 62
2
  6
CONTINUOUS
 10
10.03
 20
2.807
 11
10.03
 21
0.887
  0
LINE
  5
48C
100
AcDbEntity
  8
0
100
AcDbLine
 62
2
  6
CONTINUOUS
 10
10.47
 20
0.887
 11
10.47
 21
0.637
  0
LINE
  5
48D
100
AcDbEntity
  8
0
100
AcDbLine
 62
2
  6
CONTINUOUS
 10
10.47
 20
10.112
 11
10.47
 21
10.362
  0
LINE
  5
48E
100
AcDbEntity
  8
0
100
AcDbLine
 62
7
  6
CONTINUOUS
 10
10.5342808475
 20
1.143294839
 11
10.5342808475
 21
0.921203839
  0
LINE
  5
48F
100
AcDbEntity
  8
0
100
AcDbLine
 62
7
  6
CONTINUOUS
 10
10.5342808475
 20
1.193294839
 11
10.5342808475
 21
1.293294839
  0
LINE
  5
490
100
AcDbEntity
  8
0
100
AcDbLine
 62
7
  6
CONTINUOUS
 10
10.5342808475
 20
1.343294839
 11
10.5342808475
 21
1.565385839
  0
LINE
  5
491
100
AcDbEntity
  8
0
100
AcDbLine
 62
2
  6
CONTINUOUS
 10
8.5
 20
0.887
 11
8.413397
 21
0.737
  0
LINE
  5
492
100
AcDbEntity
  8
0
100
AcDbLine
 62
2
  6
CONTINUOUS
 10
0.62
 20
7.7995
 11
0.37
 21
7.7995
  0
LINE
  5
493
100
AcDbEntity
  8
0
100
AcDbLine
 62
2
  6
CONTINUOUS
 10
16.38
 20
7.7995
 11
16.63
 21
7.7995
  0
LINE
  5
494
100
AcDbEntity
  8
0
100
AcDbLine
 62
2
  6
CONTINUOUS
 10
8.413397
 20
10.262
 11
8.5
 21
10.112
  0
LINE
  5
495
100
AcDbEntity
  8
0
100
AcDbLine
 62
7
  6
CONTINUOUS
 10
11.1389508475
 20
1.060596839
 11
11.1389508475
 21
1.425992839
  0
LINE
  5
496
100
AcDbEntity
  8
0
100
AcDbLine
 62
7
  6
CONTINUOUS
 10
11.7453418475
 20
1.495385839
 11
11.7453418475
 21
0.991203839
  0
LINE
  5
497
100
AcDbEntity
  8
0
100
AcDbLine
 62
1
  6
CONTINUOUS
 10
12.03
 20
2.807
 11
12.03
 21
0.887
  0
LINE
  5
498
100
AcDbEntity
  8
0
100
AcDbLine
 62
2
  6
CONTINUOUS
 10
12.44
 20
0.887
 11
12.44
 21
0.637
  0
LINE
  5
499
100
AcDbEntity
  8
0
100
AcDbLine
 62
2
  6
CONTINUOUS
 10
12.44
 20
10.112
 11
12.44
 21
10.362
  0
LINE
  5
49A
100
AcDbEntity
  8
0
100
AcDbLine
 62
2
  6
CONTINUOUS
 10
16.53
 20
5.586103
 11
16.38
 21
5.4995
  0
LINE
  5
49B
100
AcDbEntity
  8
0
100
AcDbLine
 62
2
  6
CONTINUOUS
 10
16.38
 20
5.4995
 11
16.53
 21
5.412897
  0
LINE
  5
49C
100
AcDbEntity
  8
0
100
AcDbLine
 62
2
  6
CONTINUOUS
 10
12.83
 20
1.507
 11
12.83
 21
1.137
  0
LINE
  5
49D
100
AcDbEntity
  8
0
100
AcDbLine
 62
2
  6
CONTINUOUS
 10
16.38
 20
10.112
 11
0.62
 21
10.112
  0
LINE
  5
49E
100
AcDbEntity
  8
0
100
AcDbLine
 62
2
  6
CONTINUOUS
 10
8.586603
 20
10.262
 11
8.413397
 21
10.262
  0
LINE
  5
49F
100
AcDbEntity
  8
0
100
AcDbLine
 62
2
  6
CONTINUOUS
 10
14.205
 20
1.137
 11
14.205
 21
0.887
  0
LINE
  5
4A0
100
AcDbEntity
  8
0
100
AcDbLine
 62
2
  6
CONTINUOUS
 10
14.41
 20
0.887
 11
14.41
 21
0.637
  0
LINE
  5
4A1
100
AcDbEntity
  8
0
100
AcDbLine
 62
2
  6
CONTINUOUS
 10
14.41
 20
10.112
 11
14.41
 21
10.362
  0
LINE
  5
4A2
100
AcDbEntity
  8
0
100
AcDbLine
 62
2
  6
CONTINUOUS
 10
15.58
 20
1.507
 11
15.58
 21
1.137
  0
LINE
  5
4A3
100
AcDbEntity
  8
0
100
AcDbLine
 62
2
  6
CONTINUOUS
 10
16.38
 20
0.887
 11
16.38
 21
10.112
  0
LINE
  5
4A4
100
AcDbEntity
  8
0
100
AcDbLine
 62
2
  6
CONTINUOUS
 10
16.53
 20
5.412897
 11
16.53
 21
5.586103
  0
LWPOLYLINE
  5
4A5
100
AcDbEntity
  8
0
100
AcDbPolyline
 62
9
  6
CONTINUOUS
 90
19
 70
0
 10
14.4936620889
 20
9.2096723112
 10
14.5065132602
 20
9.214986229
 10
14.5198006322
 20
9.2194366757
 10
14.5335023874
 20
9.2230163438
 10
14.5475960281
 20
9.2257193556
 10
14.562058413
 20
9.2275412729
 10
14.5768657954
 20
9.2284791041
 10
14.5919938619
 20
9.2285313093
 10
14.607417773
 20
9.2276978029
 10
14.623112203
 20
9.2259799534
 10
14.6390513822
 20
9.2233805815
 10
14.6552091391
 20
9.2199039553
 10
14.6715589432
 20
9.2155557831
 10
14.6880739486
 20
9.2103432047
 10
14.7047270384
 20
9.2042747789
 10
14.7214908686
 20
9.1973604698
 10
14.7383379137
 20
9.1896116304
 10
14.7552405115
 20
9.1810409842
 10
14.7721709083
 20
9.1716626037
  0
LWPOLYLINE
  5
4A6
100
AcDbEntity
  8
0
100
AcDbPolyline
 62
7
  6
CONTINUOUS
 90
7
 70
0
 10
14.1402979108
 20
9.0078815063
 10
14.0979812464
 20
8.9767818139
 10
14.0617636399
 20
8.9354525412
 10
14.0330135034
 20
8.8844157814
 10
14.01272443
 20
8.8241157689
 10
14.0019125334
 20
8.7563508588
 10
14.0008566267
 20
8.6831297248
  0
LINE
  5
4A7
100
AcDbEntity
  8
0
100
AcDbLine
 62
7
  6
CONTINUOUS
 10
14.4765470037
 20
9.2008590916
 11
14.4766722312
 21
9.2009314526
  0
LINE
  5
4A8
100
AcDbEntity
  8
0
100
AcDbLine
 62
7
  6
CONTINUOUS
 10
14.4089973689
 20
9.1630142847
 11
14.1402979108
 21
9.0078815063
  0
LINE
  5
4A9
100
AcDbEntity
  8
AXIS_COSMETIC_THREADS
100
AcDbLine
 62
7
  6
CONTINUOUS
 10
14.4201039243
 20
9.1682719203
 11
14.4766722312
 21
9.2009314526
  0
LWPOLYLINE
  5
4AA
100
AcDbEntity
  8
0
100
AcDbPolyline
 62
9
  6
CONTINUOUS
 90
3
 70
0
 10
14.4766722312
 20
9.2009314526
 10
14.4812682195
 20
9.2035036476
 10
14.4936620889
 20
9.2096723112
  0
LWPOLYLINE
  5
4AB
100
AcDbEntity
  8
AXIS_COSMETIC_THREADS
100
AcDbPolyline
 62
7
  6
CONTINUOUS
 90
10
 70
0
 10
14.4201008367
 20
9.1682695539
 10
14.4406487922
 20
9.1785880487
 10
14.4699660584
 20
9.1886587787
 10
14.5012610457
 20
9.1944444776
 10
14.5342817851
 20
9.1958985624
 10
14.5687624132
 20
9.1930093258
 10
14.6044253121
 20
9.1858000301
 10
14.6409833451
 20
9.1743287204
 10
14.6781421685
 20
9.1586877569
 10
14.7156026013
 20
9.1390030714
  0
LWPOLYLINE
  5
4AC
100
AcDbEntity
  8
0
100
AcDbPolyline
 62
7
  6
CONTINUOUS
 90
23
 70
0
 10
14.408986459
 20
9.1630069577
 10
14.4499255113
 20
9.1808603127
 10
14.5007740862
 20
9.1901755637
 10
14.5559431528
 20
9.1880698415
 10
14.6142655618
 20
9.1745876946
 10
14.6745074524
 20
9.1500143494
 10
14.7353943555
 20
9.1148696762
 10
14.7956381556
 20
9.0698971914
 10
14.853964345
 20
9.0160483249
 10
14.9091389772
 20
8.9544623021
 10
14.9599948014
 20
8.8864420079
 10
15.0054558758
 20
8.813426536
 10
15.0445605378
 20
8.736960397
 10
15.0764812626
 20
8.6586618224
 10
15.1005431724
 20
8.5801860458
 10
15.1162365915
 20
8.503195662
 10
15.123230113
 20
8.4293167536
 10
15.1213750061
 20
8.3601086467
 10
15.1107088604
 20
8.2970380217
 10
15.0914573123
 20
8.2414436384
 10
15.0640289091
 20
8.1945033451
 10
15.0289988471
 20
8.1572042976
 10
15.0009820096
 20
8.1376355816
  0
LINE
  5
4AD
100
AcDbEntity
  8
0
100
AcDbLine
 62
7
  6
CONTINUOUS
 10
13.7384952244
 20
8.4298634654
 11
13.7324044035
 21
8.3908165463
  0
LWPOLYLINE
  5
4AE
100
AcDbEntity
  8
0
100
AcDbPolyline
 62
7
  6
CONTINUOUS
 90
9
 70
0
 10
13.7324044035
 20
8.3908165463
 10
13.7324748689
 20
8.3404938361
 10
13.7394784425
 20
8.2902345704
 10
13.7528795857
 20
8.2384693667
 10
13.7723581904
 20
8.1862447216
 10
13.7974231874
 20
8.1349284868
 10
13.8274662703
 20
8.0858417145
 10
13.8618539773
 20
8.0401619082
 10
13.8993269331
 20
7.999598141
  0
LINE
  5
4AF
100
AcDbEntity
  8
AXIS_COSMETIC_THREADS
100
AcDbLine
 62
7
  6
CONTINUOUS
 10
13.7751528198
 20
8.2633931307
 11
13.7751528198
 21
8.4289741036
  0
LWPOLYLINE
  5
4B0
100
AcDbEntity
  8
0
100
AcDbPolyline
 62
7
  6
CONTINUOUS
 90
3
 70
0
 10
13.7603035156
 20
8.354756673
 10
13.7635907467
 20
8.3962447841
 10
13.7733525595
 20
8.4326766182
  0
LWPOLYLINE
  5
4B1
100
AcDbEntity
  8
0
100
AcDbPolyline
 62
7
  6
CONTINUOUS
 90
3
 70
0
 10
13.7733525595
 20
8.4326766182
 10
13.789292346
 20
8.4629452124
 10
13.8109257839
 20
8.4861308708
  0
LWPOLYLINE
  5
4B2
100
AcDbEntity
  8
0
100
AcDbPolyline
 62
7
  6
CONTINUOUS
 90
6
 70
0
 10
13.8088722779
 20
8.5417156521
 10
13.779039738
 20
8.5177911436
 10
13.7572805548
 20
8.4870789654
 10
13.7420023866
 20
8.4491470865
 10
13.7336202399
 20
8.4050667082
 10
13.7329688539
 20
8.3979370962
  0
LWPOLYLINE
  5
4B3
100
AcDbEntity
  8
0
100
AcDbPolyline
 62
7
  6
CONTINUOUS
 90
3
 70
0
 10
13.7733525595
 20
8.2617693307
 10
13.7635907467
 20
8.3094728801
 10
13.7603035156
 20
8.354756673
  0
LINE
  5
4B4
100
AcDbEntity
  8
0
100
AcDbLine
 62
7
  6
CONTINUOUS
 10
13.8532074622
 20
8.5649136326
 11
13.8654375047
 21
8.574373406
  0
LINE
  5
4B5
100
AcDbEntity
  8
0
100
AcDbLine
 62
7
  6
CONTINUOUS
 10
13.9663440762
 20
8.6302326972
 11
13.9785741186
 21
8.6396924706
  0
LINE
  5
4B6
100
AcDbEntity
  8
0
100
AcDbLine
 62
7
  6
CONTINUOUS
 10
14.0794806901
 20
8.6955517618
 11
14.0917107326
 21
8.7050115352
  0
LINE
  5
4B7
100
AcDbEntity
  8
0
100
AcDbLine
 62
7
  6
CONTINUOUS
 10
13.8807537953
 20
8.5812530212
 11
13.8936978068
 21
8.5906893972
  0
LINE
  5
4B8
100
AcDbEntity
  8
0
100
AcDbLine
 62
7
  6
CONTINUOUS
 10
13.9938904093
 20
8.6465720859
 11
14.0068344208
 21
8.6560084618
  0
LINE
  5
4B9
100
AcDbEntity
  8
0
100
AcDbLine
 62
7
  6
CONTINUOUS
 10
14.1070270232
 20
8.7118911505
 11
14.1199710347
 21
8.7213275264
  0
LINE
  5
4BA
100
AcDbEntity
  8
0
100
AcDbLine
 62
7
  6
CONTINUOUS
 10
13.8226076474
 20
8.5474841253
 11
13.8371321846
 21
8.5580314158
  0
LINE
  5
4BB
100
AcDbEntity
  8
0
100
AcDbLine
 62
7
  6
CONTINUOUS
 10
13.9373353685
 20
8.613958605
 11
13.9502687986
 21
8.6233504804
  0
LINE
  5
4BC
100
AcDbEntity
  8
0
100
AcDbLine
 62
7
  6
CONTINUOUS
 10
14.0504719825
 20
8.6792776697
 11
14.0634054125
 21
8.688669545
  0
LINE
  5
4BD
100
AcDbEntity
  8
0
100
AcDbLine
 62
7
  6
CONTINUOUS
 10
13.9090637865
 20
8.5976798004
 11
13.9220144691
 21
8.6070379365
  0
LINE
  5
4BE
100
AcDbEntity
  8
0
100
AcDbLine
 62
7
  6
CONTINUOUS
 10
14.0222004005
 20
8.662998865
 11
14.035151083
 21
8.6723570011
  0
LINE
  5
4BF
100
AcDbEntity
  8
0
100
AcDbLine
 62
7
  6
CONTINUOUS
 10
14.1353370144
 20
8.7283179297
 11
14.148287697
 21
8.7376760657
  0
LINE
  5
4C0
100
AcDbEntity
  8
0
100
AcDbLine
 62
7
  6
CONTINUOUS
 10
13.8109257839
 20
8.4861308708
 11
13.8236830988
 21
8.4948334244
  0
LWPOLYLINE
  5
4C1
100
AcDbEntity
  8
AXIS_COSMETIC_THREADS
100
AcDbPolyline
 62
7
  6
CONTINUOUS
 90
5
 70
0
 10
13.8254244186
 20
8.4918034034
 10
13.8203853611
 20
8.4886946235
 10
13.8019607903
 20
8.4731943292
 10
13.7867891213
 20
8.453163176
 10
13.7751528198
 20
8.4289741036
  0
LINE
  5
4C2
100
AcDbEntity
  8
0
100
AcDbLine
 62
7
  6
CONTINUOUS
 10
14.1199710347
 20
8.7213275264
 11
14.127220705
 21
8.7252013265
  0
LINE
  5
4C3
100
AcDbEntity
  8
0
100
AcDbLine
 62
7
  6
CONTINUOUS
 10
14.0068344208
 20
8.6560084618
 11
14.0140840911
 21
8.6598822619
  0
LINE
  5
4C4
100
AcDbEntity
  8
0
100
AcDbLine
 62
7
  6
CONTINUOUS
 10
13.8936978068
 20
8.5906893972
 11
13.9009474771
 21
8.5945631973
  0
LINE
  5
4C5
100
AcDbEntity
  8
0
100
AcDbLine
 62
7
  6
CONTINUOUS
 10
14.0634054125
 20
8.688669545
 11
14.0710662253
 21
8.6927446825
  0
LINE
  5
4C6
100
AcDbEntity
  8
0
100
AcDbLine
 62
7
  6
CONTINUOUS
 10
13.9502687986
 20
8.6233504804
 11
13.9579296114
 21
8.6274256179
  0
LINE
  5
4C7
100
AcDbEntity
  8
0
100
AcDbLine
 62
7
  6
CONTINUOUS
 10
13.8371321846
 20
8.5580314158
 11
13.8447929974
 21
8.5621065533
  0
LINE
  5
4C8
100
AcDbEntity
  8
0
100
AcDbLine
 62
7
  6
CONTINUOUS
 10
14.148287697
 20
8.7376760657
 11
14.1562271247
 21
8.7418839688
  0
LINE
  5
4C9
100
AcDbEntity
  8
0
100
AcDbLine
 62
7
  6
CONTINUOUS
 10
14.035151083
 20
8.6723570011
 11
14.0430905108
 21
8.6765649042
  0
LINE
  5
4CA
100
AcDbEntity
  8
0
100
AcDbLine
 62
7
  6
CONTINUOUS
 10
13.9220144691
 20
8.6070379365
 11
13.9299538968
 21
8.6112458396
  0
LINE
  5
4CB
100
AcDbEntity
  8
0
100
AcDbLine
 62
7
  6
CONTINUOUS
 10
14.1944470435
 20
8.7625092602
 11
14.1765662408
 21
8.7540025934
  0
LWPOLYLINE
  5
4CC
100
AcDbEntity
  8
0
100
AcDbPolyline
 62
7
  6
CONTINUOUS
 90
6
 70
0
 10
14.1779804525
 20
8.754819084
 10
14.1994271568
 20
8.7646286041
 10
14.2351717506
 20
8.7718574294
 10
14.274335731
 20
8.7699632149
 10
14.3158338777
 20
8.759012797
 10
14.3404480325
 20
8.74866327
  0
LINE
  5
4CD
100
AcDbEntity
  8
0
100
AcDbLine
 62
7
  6
CONTINUOUS
 10
14.0917107326
 20
8.7050115352
 11
14.1221359137
 21
8.7175921489
  0
LINE
  5
4CE
100
AcDbEntity
  8
0
100
AcDbLine
 62
7
  6
CONTINUOUS
 10
14.0952659679
 20
8.702078871
 11
14.0648407868
 21
8.6894982574
  0
LINE
  5
4CF
100
AcDbEntity
  8
0
100
AcDbLine
 62
7
  6
CONTINUOUS
 10
13.9785741186
 20
8.6396924706
 11
14.0089992997
 21
8.6522730843
  0
LINE
  5
4D0
100
AcDbEntity
  8
0
100
AcDbLine
 62
7
  6
CONTINUOUS
 10
13.9821293539
 20
8.6367598064
 11
13.9517041728
 21
8.6241791927
  0
LWPOLYLINE
  5
4D1
100
AcDbEntity
  8
0
100
AcDbPolyline
 62
7
  6
CONTINUOUS
 90
5
 70
0
 10
14.127220705
 20
8.7252013265
 10
14.1608260246
 20
8.7362907533
 10
14.1980693584
 20
8.7384882179
 10
14.2375198293
 20
8.731960265
 10
14.2790972762
 20
8.7167659309
  0
LINE
  5
4D2
100
AcDbEntity
  8
0
100
AcDbLine
 62
7
  6
CONTINUOUS
 10
14.1339560788
 20
8.7207774755
 11
14.1215080556
 21
8.7166697495
  0
LINE
  5
4D3
100
AcDbEntity
  8
0
100
AcDbLine
 62
7
  6
CONTINUOUS
 10
14.1909792808
 20
8.7535212601
 11
14.1780931844
 21
8.7493196004
  0
LINE
  5
4D4
100
AcDbEntity
  8
0
100
AcDbLine
 62
7
  6
CONTINUOUS
 10
14.0710662253
 20
8.6927446825
 11
14.1047126127
 21
8.7037154733
  0
LINE
  5
4D5
100
AcDbEntity
  8
0
100
AcDbLine
 62
7
  6
CONTINUOUS
 10
14.0778426669
 20
8.6882021955
 11
14.0649305617
 21
8.6839920554
  0
LWPOLYLINE
  5
4D6
100
AcDbEntity
  8
0
100
AcDbPolyline
 62
7
  6
CONTINUOUS
 90
5
 70
0
 10
14.1562271247
 20
8.7418839688
 10
14.1893159803
 20
8.7526588304
 10
14.2262286425
 20
8.7548251882
 10
14.2657509024
 20
8.7483041983
 10
14.3075014537
 20
8.7330403193
  0
LINE
  5
4D7
100
AcDbEntity
  8
0
100
AcDbLine
 62
7
  6
CONTINUOUS
 10
14.1624460345
 20
8.7371455525
 11
14.1498012707
 21
8.7330279855
  0
LWPOLYLINE
  5
4D8
100
AcDbEntity
  8
0
100
AcDbPolyline
 62
7
  6
CONTINUOUS
 90
5
 70
0
 10
14.0430905108
 20
8.6765649042
 10
14.0761793663
 20
8.6873397658
 10
14.1130920286
 20
8.6895061236
 10
14.1526142884
 20
8.6829851337
 10
14.1943648398
 20
8.6677212547
  0
LWPOLYLINE
  5
4D9
100
AcDbEntity
  8
AXIS_COSMETIC_THREADS
100
AcDbPolyline
 62
7
  6
CONTINUOUS
 90
10
 70
0
 10
13.7751528198
 20
8.2633931307
 10
13.7867891213
 20
8.2257679186
 10
13.8019607903
 20
8.1882184274
 10
13.8203853611
 20
8.1514437526
 10
13.8417198052
 20
8.1161285645
 10
13.8655669187
 20
8.0829303604
 10
13.8914827162
 20
8.0524672238
 10
13.9189846982
 20
8.0253063168
 10
13.9475608332
 20
8.0019533207
 10
13.9766790914
 20
7.9828430209
  0
LINE
  5
4DA
100
AcDbEntity
  8
AXIS_COSMETIC_THREADS
100
AcDbLine
 62
7
  6
CONTINUOUS
 10
13.8453873833
 20
8.5033305432
 11
13.8254297686
 21
8.4918080777
  0
LWPOLYLINE
  5
4DB
100
AcDbEntity
  8
0
100
AcDbPolyline
 62
7
  6
CONTINUOUS
 90
15
 70
0
 10
13.8236830988
 20
8.4948334244
 10
13.8375955522
 20
8.501529109
 10
13.8684913035
 20
8.5086720592
 10
13.902674286
 20
8.5073426865
 10
13.939105867
 20
8.4975813833
 10
13.9766790914
 20
8.4796847418
 10
14.0142523159
 20
8.4541965423
 10
14.0506838969
 20
8.421891231
 10
14.0848668794
 20
8.3837503883
 10
14.1157626307
 20
8.3409329046
 10
14.142432399
 20
8.2947397672
 10
14.1640658369
 20
8.2465745315
 10
14.1800056234
 20
8.1979006736
 10
14.1897674362
 20
8.1501971241
 10
14.1930546673
 20
8.1049133312
  0
LINE
  5
4DC
100
AcDbEntity
  8
0
100
AcDbLine
 62
7
  6
CONTINUOUS
 10
13.8654375047
 20
8.574373406
 11
13.8958626858
 21
8.5869540197
  0
LINE
  5
4DD
100
AcDbEntity
  8
0
100
AcDbLine
 62
7
  6
CONTINUOUS
 10
13.8689927399
 20
8.5714407418
 11
13.8385675589
 21
8.5588601281
  0
LINE
  5
4DE
100
AcDbEntity
  8
0
100
AcDbLine
 62
7
  6
CONTINUOUS
 10
13.8394349401
 20
8.5543323195
 11
13.8088722779
 21
8.5417156521
  0
LINE
  5
4DF
100
AcDbEntity
  8
0
100
AcDbLine
 62
7
  6
CONTINUOUS
 10
13.8102864802
 20
8.5425321372
 11
13.8431794415
 21
8.5557521146
  0
LWPOLYLINE
  5
4E0
100
AcDbEntity
  8
0
100
AcDbPolyline
 62
7
  6
CONTINUOUS
 90
5
 70
0
 10
14.0140840911
 20
8.6598822619
 10
14.0476894107
 20
8.6709716887
 10
14.0849327444
 20
8.6731691533
 10
14.1243832154
 20
8.6666412004
 10
14.1659606622
 20
8.6514468662
  0
LINE
  5
4E1
100
AcDbEntity
  8
0
100
AcDbLine
 62
7
  6
CONTINUOUS
 10
14.0208194648
 20
8.6554584109
 11
14.0083714416
 21
8.6513506849
  0
LWPOLYLINE
  5
4E2
100
AcDbEntity
  8
0
100
AcDbPolyline
 62
7
  6
CONTINUOUS
 90
5
 70
0
 10
13.9009474771
 20
8.5945631973
 10
13.9345527967
 20
8.6056526241
 10
13.9717961305
 20
8.6078500887
 10
14.0112466014
 20
8.6013221357
 10
14.0528240483
 20
8.5861278016
  0
LINE
  5
4E3
100
AcDbEntity
  8
0
100
AcDbLine
 62
7
  6
CONTINUOUS
 10
13.9076828509
 20
8.5901393462
 11
13.8952348276
 21
8.5860316203
  0
LINE
  5
4E4
100
AcDbEntity
  8
0
100
AcDbLine
 62
7
  6
CONTINUOUS
 10
13.9579296114
 20
8.6274256179
 11
13.9915759988
 21
8.6383964087
  0
LINE
  5
4E5
100
AcDbEntity
  8
0
100
AcDbLine
 62
7
  6
CONTINUOUS
 10
13.9647060529
 20
8.6228831309
 11
13.9517939478
 21
8.6186729907
  0
LINE
  5
4E6
100
AcDbEntity
  8
0
100
AcDbLine
 62
7
  6
CONTINUOUS
 10
13.8447929974
 20
8.5621065533
 11
13.8784393848
 21
8.5730773441
  0
LINE
  5
4E7
100
AcDbEntity
  8
0
100
AcDbLine
 62
7
  6
CONTINUOUS
 10
14.0493094205
 20
8.6718264879
 11
14.0366646567
 21
8.6677089209
  0
LWPOLYLINE
  5
4E8
100
AcDbEntity
  8
0
100
AcDbPolyline
 62
7
  6
CONTINUOUS
 90
5
 70
0
 10
13.9299538968
 20
8.6112458396
 10
13.9630427524
 20
8.6220207011
 10
13.9999554146
 20
8.6241870589
 10
14.0394776744
 20
8.6176660691
 10
14.0812282258
 20
8.6024021901
  0
LINE
  5
4E9
100
AcDbEntity
  8
0
100
AcDbLine
 62
7
  6
CONTINUOUS
 10
13.9361728066
 20
8.6065074233
 11
13.9235280427
 21
8.6023898563
  0
LWPOLYLINE
  5
4EA
100
AcDbEntity
  8
0
100
AcDbPolyline
 62
7
  6
CONTINUOUS
 90
3
 70
0
 10
13.8993269331
 20
7.999598141
 10
13.9375210501
 20
7.9669591
 10
13.9766790914
 20
7.9407931465
  0
LWPOLYLINE
  5
4EB
100
AcDbEntity
  8
0
100
AcDbPolyline
 62
7
  6
CONTINUOUS
 90
7
 70
0
 10
13.9766790914
 20
7.9407931465
 10
14.0108466804
 20
7.9244268714
 10
14.0459763368
 20
7.9134682576
 10
14.0789419298
 20
7.9091703848
 10
14.1090729329
 20
7.9112358673
 10
14.1366051143
 20
7.9194796255
 10
14.161721698
 20
7.9343458986
  0
LWPOLYLINE
  5
4EC
100
AcDbEntity
  8
0
100
AcDbPolyline
 62
7
  6
CONTINUOUS
 90
8
 70
0
 10
13.9766790914
 20
7.9799852625
 10
13.939105867
 20
8.0054734619
 10
13.902674286
 20
8.0377787733
 10
13.8684913035
 20
8.0759196159
 10
13.8375955522
 20
8.1187370997
 10
13.8109257839
 20
8.164930237
 10
13.789292346
 20
8.2130954728
 10
13.7733525595
 20
8.2617693307
  0
LINE
  5
4ED
100
AcDbEntity
  8
0
100
AcDbLine
 62
7
  6
CONTINUOUS
 10
14.0008566267
 20
8.6831297248
 11
14.004075186
 21
8.6539969388
  0
LINE
  5
4EE
100
AcDbEntity
  8
0
100
AcDbLine
 62
7
  6
CONTINUOUS
 10
14.3377322826
 20
7.726690009
 11
14.3640847094
 21
7.6926687831
  0
LWPOLYLINE
  5
4EF
100
AcDbEntity
  8
0
100
AcDbPolyline
 62
7
  6
CONTINUOUS
 90
5
 70
0
 10
14.3377322826
 20
7.726690009
 10
14.3307509891
 20
7.7365300659
 10
14.3190936529
 20
7.7594509074
 10
14.3132049603
 20
7.783096265
 10
14.3124659874
 20
7.7950412216
  0
LINE
  5
4F0
100
AcDbEntity
  8
AXIS_COSMETIC_THREADS
100
AcDbLine
 62
7
  6
CONTINUOUS
 10
14.1782053631
 20
8.1962768736
 11
14.1782053631
 21
8.0306959006
  0
LWPOLYLINE
  5
4F1
100
AcDbEntity
  8
0
100
AcDbPolyline
 62
7
  6
CONTINUOUS
 90
8
 70
0
 10
14.2196711023
 20
8.0602377507
 10
14.2199742073
 20
8.1048374871
 10
14.2139392515
 20
8.1534686247
 10
14.2017912852
 20
8.203480504
 10
14.1839822503
 20
8.2536051844
 10
14.1608619605
 20
8.3030073087
 10
14.1332785701
 20
8.3499845549
 10
14.1019273252
 20
8.3935304905
  0
LWPOLYLINE
  5
4F2
100
AcDbEntity
  8
0
100
AcDbPolyline
 62
7
  6
CONTINUOUS
 90
5
 70
0
 10
14.1930546673
 20
8.1049133312
 10
14.1897674362
 20
8.0634252201
 10
14.1800056234
 20
8.0269933861
 10
14.1640658369
 20
7.9967247918
 10
14.142432399
 20
7.9735391334
  0
LWPOLYLINE
  5
4F3
100
AcDbEntity
  8
AXIS_COSMETIC_THREADS
100
AcDbPolyline
 62
7
  6
CONTINUOUS
 90
4
 70
0
 10
14.0618754667
 20
7.954093149
 10
14.0343734847
 20
7.958688077
 10
14.0057973497
 20
7.9683312129
 10
13.9766790914
 20
7.9828430209
  0
LWPOLYLINE
  5
4F4
100
AcDbEntity
  8
0
100
AcDbPolyline
 62
7
  6
CONTINUOUS
 90
14
 70
0
 10
14.3085886585
 20
7.8210216278
 10
14.3175181865
 20
7.7917846603
 10
14.3351057093
 20
7.7638870925
 10
14.3608168388
 20
7.7381765777
 10
14.3938703554
 20
7.7154343171
 10
14.4332619447
 20
7.6963513225
 10
14.4777947133
 20
7.6815074213
 10
14.5261155554
 20
7.6713536377
 10
14.5767562668
 20
7.6661984895
 10
14.628178155
 20
7.6661986131
 10
14.678818792
 20
7.6713540048
 10
14.7271394877
 20
7.6815080206
 10
14.7716720422
 20
7.696352136
 10
14.8110633563
 20
7.7154353199
  0
LWPOLYLINE
  5
4F5
100
AcDbEntity
  8
0
100
AcDbPolyline
 62
7
  6
CONTINUOUS
 90
10
 70
0
 10
14.2467948416
 20
8.0967486113
 10
14.2424602842
 20
8.1470344082
 10
14.2310810166
 20
8.1999999904
 10
14.2129603445
 20
8.2541182962
 10
14.1885949603
 20
8.3078298016
 10
14.1586581778
 20
8.3595907051
 10
14.123982774
 20
8.4079110142
 10
14.0855363718
 20
8.4513992578
 10
14.044395346
 20
8.4888005815
 10
14.0017110132
 20
8.5190356018
  0
LWPOLYLINE
  5
4F6
100
AcDbEntity
  8
0
100
AcDbPolyline
 62
7
  6
CONTINUOUS
 90
11
 70
0
 10
14.3047773562
 20
8.1302246319
 10
14.3006507548
 20
8.1791277372
 10
14.2896758478
 20
8.2312323401
 10
14.2721869532
 20
8.2844079826
 10
14.2489944267
 20
8.3365593125
 10
14.2202890913
 20
8.3873452378
 10
14.1866562411
 20
8.4354171733
 10
14.1494302567
 20
8.4787686538
 10
14.1099963516
 20
8.5159895939
 10
14.0683996827
 20
8.5470162215
 10
14.0293223441
 20
8.5690358423
  0
LWPOLYLINE
  5
4F7
100
AcDbEntity
  8
0
100
AcDbPolyline
 62
7
  6
CONTINUOUS
 90
11
 70
0
 10
14.2764932028
 20
8.1138948658
 10
14.2727469575
 20
8.1601825961
 10
14.2629948849
 20
8.2088208679
 10
14.2473707896
 20
8.2588774986
 10
14.2263203008
 20
8.3087916596
 10
14.2001560466
 20
8.3577019972
 10
14.1692058586
 20
8.4046656032
 10
14.1345394785
 20
8.4478545208
 10
14.0975063509
 20
8.4857202782
 10
14.0587727386
 20
8.5177592926
 10
14.0191053217
 20
8.543371507
  0
LINE
  5
4F8
100
AcDbEntity
  8
0
100
AcDbLine
 62
7
  6
CONTINUOUS
 10
14.3074723868
 20
7.8358663443
 11
14.3085886585
 21
7.8210216278
  0
LINE
  5
4F9
100
AcDbEntity
  8
0
100
AcDbLine
 62
7
  6
CONTINUOUS
 10
14.3074659874
 20
7.8358663425
 11
14.3074659874
 21
8.0133615799
  0
LINE
  5
4FA
100
AcDbEntity
  8
0
100
AcDbLine
 62
7
  6
CONTINUOUS
 10
14.2473317449
 20
8.0686984891
 11
14.2482090493
 21
8.0975650996
  0
LINE
  5
4FB
100
AcDbEntity
  8
0
100
AcDbLine
 62
7
  6
CONTINUOUS
 10
14.2756158984
 20
8.0850282552
 11
14.2764932028
 21
8.1138948658
  0
LINE
  5
4FC
100
AcDbEntity
  8
0
100
AcDbLine
 62
7
  6
CONTINUOUS
 10
14.3039000519
 20
8.1013580214
 11
14.3047773562
 21
8.1302246319
  0
LINE
  5
4FD
100
AcDbEntity
  8
0
100
AcDbLine
 62
7
  6
CONTINUOUS
 10
14.2527844799
 20
8.1136005738
 11
14.2503161163
 21
8.0694803663
  0
LWPOLYLINE
  5
4FE
100
AcDbEntity
  8
0
100
AcDbPolyline
 62
7
  6
CONTINUOUS
 90
4
 70
0
 10
14.2467948416
 20
8.0967486113
 10
14.2441541827
 20
8.051779805
 10
14.2347960085
 20
8.0118069215
 10
14.2191339469
 20
7.978328999
  0
LWPOLYLINE
  5
4FF
100
AcDbEntity
  8
0
100
AcDbPolyline
 62
7
  6
CONTINUOUS
 90
4
 70
0
 10
14.2750789951
 20
8.1130783775
 10
14.2724173705
 20
8.0679612122
 10
14.2628857855
 20
8.0275705976
 10
14.2468013849
 20
7.9936761335
  0
LWPOLYLINE
  5
500
100
AcDbEntity
  8
0
100
AcDbPolyline
 62
7
  6
CONTINUOUS
 90
4
 70
0
 10
14.3033631486
 20
8.1294081436
 10
14.3007020541
 20
8.0842947215
 10
14.2911721858
 20
8.0439068736
 10
14.2750904976
 20
8.0100137307
  0
LWPOLYLINE
  5
501
100
AcDbEntity
  8
0
100
AcDbPolyline
 62
7
  6
CONTINUOUS
 90
4
 70
0
 10
14.2244711696
 20
8.083539315
 10
14.2199721069
 20
8.0408395936
 10
14.2088436192
 20
8.0036385608
 10
14.205696801
 20
7.9981046456
  0
LWPOLYLINE
  5
502
100
AcDbEntity
  8
0
100
AcDbPolyline
 62
7
  6
CONTINUOUS
 90
3
 70
0
 10
14.2797210686
 20
8.0950898523
 10
14.2719197728
 20
8.0545826446
 10
14.268626451
 20
8.0467197228
  0
LWPOLYLINE
  5
503
100
AcDbEntity
  8
0
100
AcDbPolyline
 62
7
  6
CONTINUOUS
 90
3
 70
0
 10
14.2503161163
 20
8.0694803663
 10
14.241153566
 20
8.030506629
 10
14.2395993087
 20
8.0272424662
  0
LWPOLYLINE
  5
504
100
AcDbEntity
  8
AXIS_COSMETIC_THREADS
100
AcDbPolyline
 62
7
  6
CONTINUOUS
 90
5
 70
0
 10
14.1782053631
 20
8.0306959006
 10
14.1665690616
 20
8.0065068282
 10
14.1513973926
 20
7.986475675
 10
14.1329728218
 20
7.9709753807
 10
14.1279337643
 20
7.9678666009
  0
LWPOLYLINE
  5
505
100
AcDbEntity
  8
0
100
AcDbPolyline
 62
9
  6
CONTINUOUS
 90
3
 70
0
 10
14.3472644648
 20
8.0350279095
 10
14.3661306251
 20
8.0326796438
 10
14.3938703554
 20
8.036319767
  0
LWPOLYLINE
  5
506
100
AcDbEntity
  8
0
100
AcDbPolyline
 62
7
  6
CONTINUOUS
 90
5
 70
0
 10
14.5356809635
 20
7.9571925845
 10
14.5837753482
 20
7.9502664131
 10
14.6378584352
 20
7.9515058234
 10
14.6874840805
 20
7.9624651008
 10
14.7322952605
 20
7.982505898
  0
LINE
  5
507
100
AcDbEntity
  8
0
100
AcDbLine
 62
7
  6
CONTINUOUS
 10
14.53562292
 20
7.9572051838
 11
14.5356761507
 21
7.9571936291
  0
LINE
  5
508
100
AcDbEntity
  8
0
100
AcDbLine
 62
9
  6
CONTINUOUS
 10
14.3637650574
 20
8.045953245
 11
14.3938703554
 21
8.036319767
  0
LWPOLYLINE
  5
509
100
AcDbEntity
  8
0
100
AcDbPolyline
 62
9
  6
CONTINUOUS
 90
13
 70
0
 10
14.3938703554
 20
8.036319767
 10
14.4429720082
 20
8.0116877308
 10
14.4912335182
 20
7.9949095057
 10
14.5378291174
 20
7.9862721716
 10
14.5819615423
 20
7.9859235157
 10
14.6228756748
 20
7.9938695037
 10
14.6598714629
 20
8.0099741775
 10
14.6923158982
 20
8.0339619816
 10
14.7196538476
 20
8.0654224782
 10
14.741417551
 20
8.1038173692
 10
14.7572346256
 20
8.1484897076
 10
14.7668344368
 20
8.1986751373
 10
14.7700527292
 20
8.2535149715
  0
LINE
  5
50A
100
AcDbEntity
  8
0
100
AcDbLine
 62
9
  6
CONTINUOUS
 10
14.3731376017
 20
8.0500554919
 11
14.3938703554
 21
8.036319767
  0
LWPOLYLINE
  5
50B
100
AcDbEntity
  8
0
100
AcDbPolyline
 62
9
  6
CONTINUOUS
 90
6
 70
0
 10
14.3938703554
 20
8.036319767
 10
14.430195586
 20
8.0066665024
 10
14.4651099785
 20
7.9844227499
 10
14.497792467
 20
7.968877865
 10
14.5280130745
 20
7.9589998269
 10
14.53562292
 20
7.9572051838
  0
LWPOLYLINE
  5
50C
100
AcDbEntity
  8
0
100
AcDbPolyline
 62
9
  6
CONTINUOUS
 90
8
 70
0
 10
14.3938703554
 20
8.036319767
 10
14.4259159897
 20
7.9981633283
 10
14.4599239856
 20
7.9685933325
 10
14.4942075199
 20
7.9476471319
 10
14.5276770498
 20
7.9345888444
 10
14.5598684184
 20
7.9284992732
 10
14.590800913
 20
7.928716502
 10
14.6207312729
 20
7.9351316277
  0
LWPOLYLINE
  5
50D
100
AcDbEntity
  8
0
100
AcDbPolyline
 62
7
  6
CONTINUOUS
 90
8
 70
0
 10
14.1019273252
 20
8.3935304905
 10
14.1353266835
 20
8.3473947104
 10
14.1642142213
 20
8.2979120555
 10
14.1877862056
 20
8.2465091367
 10
14.2053908037
 20
8.1946674393
 10
14.2165467097
 20
8.1438809873
 10
14.2209568986
 20
8.0956136495
 10
14.2201501531
 20
8.0662735022
  0
LWPOLYLINE
  5
50E
100
AcDbEntity
  8
0
100
AcDbPolyline
 62
7
  6
CONTINUOUS
 90
11
 70
0
 10
14.3330615097
 20
8.1465543981
 10
14.3289035902
 20
8.1956677677
 10
14.3178411959
 20
8.2480006686
 10
14.3002161565
 20
8.3013953734
 10
14.2768636025
 20
8.3537114215
 10
14.2482689417
 20
8.4041576069
 10
14.2151792771
 20
8.4514386286
 10
14.1782573695
 20
8.4945276205
 10
14.1387319681
 20
8.5319380145
 10
14.096978932
 20
8.563153771
 10
14.0576064976
 20
8.5853656084
  0
LWPOLYLINE
  5
50F
100
AcDbEntity
  8
0
100
AcDbPolyline
 62
7
  6
CONTINUOUS
 90
11
 70
0
 10
14.3613456632
 20
8.1628841643
 10
14.3572287392
 20
8.2117221479
 10
14.3463119582
 20
8.2636408682
 10
14.3289660814
 20
8.3165218678
 10
14.3059497964
 20
8.3684489973
 10
14.2773130592
 20
8.4192802553
 10
14.2437137553
 20
8.4674448621
 10
14.2064767404
 20
8.5109255795
 10
14.1670297997
 20
8.5482562115
 10
14.1254534038
 20
8.5793593621
 10
14.0858906511
 20
8.6016953746
  0
LWPOLYLINE
  5
510
100
AcDbEntity
  8
0
100
AcDbPolyline
 62
7
  6
CONTINUOUS
 90
11
 70
0
 10
14.3896298167
 20
8.1792139304
 10
14.3858835714
 20
8.2255016607
 10
14.3761314988
 20
8.2741399325
 10
14.3605074036
 20
8.3241965632
 10
14.3394569147
 20
8.3741107242
 10
14.3132926605
 20
8.4230210618
 10
14.2823424725
 20
8.4699846679
 10
14.2476760924
 20
8.5131735854
 10
14.2106429648
 20
8.5510393428
 10
14.1719093526
 20
8.5830783573
 10
14.1322419356
 20
8.6086905716
  0
LINE
  5
511
100
AcDbEntity
  8
0
100
AcDbLine
 62
7
  6
CONTINUOUS
 10
14.3124659874
 20
7.808326518
 11
14.3124659874
 21
7.7950412216
  0
LINE
  5
512
100
AcDbEntity
  8
0
100
AcDbLine
 62
7
  6
CONTINUOUS
 10
14.3321842054
 20
8.1176877875
 11
14.3330615097
 21
8.1465543981
  0
LINE
  5
513
100
AcDbEntity
  8
0
100
AcDbLine
 62
7
  6
CONTINUOUS
 10
14.3604683589
 20
8.1340175537
 11
14.3613456632
 21
8.1628841643
  0
LINE
  5
514
100
AcDbEntity
  8
0
100
AcDbLine
 62
7
  6
CONTINUOUS
 10
14.3887525124
 20
8.1503473199
 11
14.3896298167
 21
8.1792139304
  0
LWPOLYLINE
  5
515
100
AcDbEntity
  8
0
100
AcDbPolyline
 62
7
  6
CONTINUOUS
 90
4
 70
0
 10
14.3316473021
 20
8.1457379098
 10
14.3290289715
 20
8.1009278102
 10
14.3196371047
 20
8.0607629608
 10
14.3037044564
 20
8.0268668475
  0
LWPOLYLINE
  5
516
100
AcDbEntity
  8
0
100
AcDbPolyline
 62
7
  6
CONTINUOUS
 90
4
 70
0
 10
14.3599314555
 20
8.1620676759
 10
14.3572907966
 20
8.1170988696
 10
14.3479326225
 20
8.0771259861
 10
14.3322705608
 20
8.0436480637
  0
LWPOLYLINE
  5
517
100
AcDbEntity
  8
0
100
AcDbPolyline
 62
7
  6
CONTINUOUS
 90
4
 70
0
 10
14.388215609
 20
8.1783974421
 10
14.3855539845
 20
8.1332802768
 10
14.3760223995
 20
8.0928896622
 10
14.3599379989
 20
8.0589951981
  0
LWPOLYLINE
  5
518
100
AcDbEntity
  8
0
100
AcDbPolyline
 62
7
  6
CONTINUOUS
 90
3
 70
0
 10
14.308005222
 20
8.1114196184
 10
14.3002039262
 20
8.0709124108
 10
14.2969530216
 20
8.0631507612
  0
LWPOLYLINE
  5
519
100
AcDbEntity
  8
0
100
AcDbPolyline
 62
7
  6
CONTINUOUS
 90
3
 70
0
 10
14.3362893755
 20
8.1277493846
 10
14.3284880797
 20
8.0872421769
 10
14.3252566547
 20
8.0795270358
  0
LWPOLYLINE
  5
51A
100
AcDbEntity
  8
0
100
AcDbPolyline
 62
7
  6
CONTINUOUS
 90
3
 70
0
 10
14.364573529
 20
8.1440791507
 10
14.3567722332
 20
8.1035719431
 10
14.3534783896
 20
8.0957077753
  0
LWPOLYLINE
  5
51B
100
AcDbEntity
  8
0
100
AcDbPolyline
 62
7
  6
CONTINUOUS
 90
4
 70
0
 10
14.1837870984
 20
7.9564927609
 10
14.2012164424
 20
7.9853085821
 10
14.2130982584
 20
8.0192434714
 10
14.2196711023
 20
8.0602377507
  0
LINE
  5
51C
100
AcDbEntity
  8
AXIS_COSMETIC_THREADS
100
AcDbLine
 62
7
  6
CONTINUOUS
 10
14.1801125808
 20
8.1973779996
 11
14.1782053631
 21
8.1962768736
  0
LWPOLYLINE
  5
51D
100
AcDbEntity
  8
0
100
AcDbPolyline
 62
7
  6
CONTINUOUS
 90
6
 70
0
 10
14.1019273252
 20
8.3935304905
 10
14.0684641666
 20
8.4325438118
 10
14.0328011851
 20
8.4665348822
 10
13.9957173744
 20
8.4947634404
 10
13.9579718418
 20
8.5165855294
 10
13.9207198573
 20
8.5312888204
  0
LWPOLYLINE
  5
51E
100
AcDbEntity
  8
0
100
AcDbPolyline
 62
7
  6
CONTINUOUS
 90
11
 70
0
 10
14.4461981237
 20
8.2118734627
 10
14.4420402041
 20
8.2609868324
 10
14.4309778099
 20
8.3133197332
 10
14.4133527704
 20
8.366714438
 10
14.3900002165
 20
8.4190304861
 10
14.3614055557
 20
8.4694766715
 10
14.328315891
 20
8.5167576932
 10
14.2913939835
 20
8.5598466851
 10
14.251868582
 20
8.5972570791
 10
14.2101155459
 20
8.6284728357
 10
14.1707431115
 20
8.650684673
  0
LWPOLYLINE
  5
51F
100
AcDbEntity
  8
0
100
AcDbPolyline
 62
7
  6
CONTINUOUS
 90
11
 70
0
 10
14.4179139702
 20
8.1955436966
 10
14.4137873688
 20
8.2444468018
 10
14.4028124618
 20
8.2965514047
 10
14.3853235671
 20
8.3497270472
 10
14.3621310407
 20
8.4018783771
 10
14.3334257053
 20
8.4526643024
 10
14.299792855
 20
8.5007362379
 10
14.2625668706
 20
8.5440877184
 10
14.2231329656
 20
8.5813086585
 10
14.1815362967
 20
8.6123352861
 10
14.142458958
 20
8.6343549069
  0
LWPOLYLINE
  5
520
100
AcDbEntity
  8
0
100
AcDbPolyline
 62
7
  6
CONTINUOUS
 90
11
 70
0
 10
14.4744822772
 20
8.2282032289
 10
14.4703653531
 20
8.2770412125
 10
14.4594485721
 20
8.3289599328
 10
14.4421026953
 20
8.3818409324
 10
14.4190864103
 20
8.433768062
 10
14.3904496732
 20
8.4845993199
 10
14.3568503693
 20
8.5327639268
 10
14.3196133543
 20
8.5762446442
 10
14.2801664137
 20
8.6135752761
 10
14.2385900178
 20
8.6446784267
 10
14.199027265
 20
8.6670144392
  0
LINE
  5
521
100
AcDbEntity
  8
0
100
AcDbLine
 62
7
  6
CONTINUOUS
 10
14.4170366658
 20
8.166677086
 11
14.4179139702
 21
8.1955436966
  0
LINE
  5
522
100
AcDbEntity
  8
0
100
AcDbLine
 62
7
  6
CONTINUOUS
 10
14.4453208193
 20
8.1830068522
 11
14.4461981237
 21
8.2118734627
  0
LINE
  5
523
100
AcDbEntity
  8
0
100
AcDbLine
 62
7
  6
CONTINUOUS
 10
14.4736049728
 20
8.1993366183
 11
14.4744822772
 21
8.2282032289
  0
LWPOLYLINE
  5
524
100
AcDbEntity
  8
0
100
AcDbPolyline
 62
7
  6
CONTINUOUS
 90
4
 70
0
 10
14.444783916
 20
8.2110569744
 10
14.4421655855
 20
8.1662468748
 10
14.4327737187
 20
8.1260820254
 10
14.4168410703
 20
8.0921859121
  0
LWPOLYLINE
  5
525
100
AcDbEntity
  8
0
100
AcDbPolyline
 62
7
  6
CONTINUOUS
 90
4
 70
0
 10
14.4730680695
 20
8.2273867406
 10
14.4704274106
 20
8.1824179343
 10
14.4610692364
 20
8.1424450508
 10
14.4454071748
 20
8.1089671283
  0
LINE
  5
526
100
AcDbEntity
  8
0
100
AcDbLine
 62
7
  6
CONTINUOUS
 10
14.4164997625
 20
8.1947272083
 11
14.413838668
 21
8.1496137861
  0
LINE
  5
527
100
AcDbEntity
  8
0
100
AcDbLine
 62
7
  6
CONTINUOUS
 10
14.4152956397
 20
8.1507335969
 11
14.4170366658
 21
8.166677086
  0
LWPOLYLINE
  5
528
100
AcDbEntity
  8
0
100
AcDbPolyline
 62
7
  6
CONTINUOUS
 90
3
 70
0
 10
14.3928576825
 20
8.1604089169
 10
14.3850563867
 20
8.1199017092
 10
14.381763065
 20
8.1120387875
  0
LWPOLYLINE
  5
529
100
AcDbEntity
  8
0
100
AcDbPolyline
 62
7
  6
CONTINUOUS
 90
3
 70
0
 10
14.421141836
 20
8.176738683
 10
14.4133405402
 20
8.1362314754
 10
14.4100896355
 20
8.1284698258
  0
LWPOLYLINE
  5
52A
100
AcDbEntity
  8
0
100
AcDbPolyline
 62
7
  6
CONTINUOUS
 90
3
 70
0
 10
14.4494259895
 20
8.1930684492
 10
14.4416246937
 20
8.1525612415
 10
14.4383932687
 20
8.1448461004
  0
LWPOLYLINE
  5
52B
100
AcDbEntity
  8
0
100
AcDbPolyline
 62
7
  6
CONTINUOUS
 90
3
 70
0
 10
14.477710143
 20
8.2093982154
 10
14.4699088472
 20
8.1688910077
 10
14.4666150036
 20
8.1610268399
  0
LINE
  5
52C
100
AcDbEntity
  8
0
100
AcDbLine
 62
7
  6
CONTINUOUS
 10
14.4059037729
 20
8.1105687476
 11
14.4152956397
 21
8.1507335969
  0
LWPOLYLINE
  5
52D
100
AcDbEntity
  8
0
100
AcDbPolyline
 62
7
  6
CONTINUOUS
 90
3
 70
0
 10
14.413838668
 20
8.1496137861
 10
14.4043087998
 20
8.1092259382
 10
14.3882271116
 20
8.0753327953
  0
LINE
  5
52E
100
AcDbEntity
  8
0
100
AcDbLine
 62
7
  6
CONTINUOUS
 10
14.2191339469
 20
7.978328999
 11
14.1975805492
 21
7.9519515213
  0
LWPOLYLINE
  5
52F
100
AcDbEntity
  8
0
100
AcDbPolyline
 62
7
  6
CONTINUOUS
 90
5
 70
0
 10
14.2838472174
 20
8.0017573081
 10
14.305400615
 20
8.0281347858
 10
14.3210626767
 20
8.0616127083
 10
14.3304208508
 20
8.1015855918
 10
14.3321842054
 20
8.1176877875
  0
LINE
  5
530
100
AcDbEntity
  8
0
100
AcDbLine
 62
7
  6
CONTINUOUS
 10
14.3322705608
 20
8.0436480637
 11
14.3107171632
 21
8.0172705859
  0
LWPOLYLINE
  5
531
100
AcDbEntity
  8
0
100
AcDbPolyline
 62
7
  6
CONTINUOUS
 90
5
 70
0
 10
14.2550862994
 20
7.9849871791
 10
14.2768345106
 20
8.0113535697
 10
14.2927671589
 20
8.0452496829
 10
14.3021590257
 20
8.0854145323
 10
14.3039000519
 20
8.1013580214
  0
LINE
  5
532
100
AcDbEntity
  8
0
100
AcDbLine
 62
7
  6
CONTINUOUS
 10
14.3037044564
 20
8.0268668475
 11
14.2819562452
 21
8.0005004569
  0
LWPOLYLINE
  5
533
100
AcDbEntity
  8
0
100
AcDbPolyline
 62
7
  6
CONTINUOUS
 90
5
 70
0
 10
14.1981128716
 20
7.9519572612
 10
14.2199314391
 20
7.9781628556
 10
14.2360158397
 20
8.0120573197
 10
14.2455474247
 20
8.0524479344
 10
14.2473317449
 20
8.0686984891
  0
LINE
  5
534
100
AcDbEntity
  8
0
100
AcDbLine
 62
7
  6
CONTINUOUS
 10
14.2468013849
 20
7.9936761335
 11
14.2249828174
 21
7.967470539
  0
LWPOLYLINE
  5
535
100
AcDbEntity
  8
0
100
AcDbPolyline
 62
7
  6
CONTINUOUS
 90
5
 70
0
 10
14.2263949716
 20
7.9682851588
 10
14.2482205518
 20
7.9945004528
 10
14.26430224
 20
8.0283935957
 10
14.2738321083
 20
8.0687814437
 10
14.2756158984
 20
8.0850282552
  0
LINE
  5
536
100
AcDbEntity
  8
0
100
AcDbLine
 62
7
  6
CONTINUOUS
 10
14.2750904976
 20
8.0100137307
 11
14.2532649175
 21
7.9837984366
  0
LWPOLYLINE
  5
537
100
AcDbEntity
  8
0
100
AcDbPolyline
 62
7
  6
CONTINUOUS
 90
5
 70
0
 10
14.3112494856
 20
8.0172763258
 10
14.3330680531
 20
8.0434819202
 10
14.3491524537
 20
8.0773763844
 10
14.3586840387
 20
8.117766999
 10
14.3604683589
 20
8.1340175537
  0
LINE
  5
538
100
AcDbEntity
  8
0
100
AcDbLine
 62
7
  6
CONTINUOUS
 10
14.3599379989
 20
8.0589951981
 11
14.3381194314
 21
8.0327896036
  0
LWPOLYLINE
  5
539
100
AcDbEntity
  8
0
100
AcDbPolyline
 62
7
  6
CONTINUOUS
 90
5
 70
0
 10
14.3395315856
 20
8.0336042234
 10
14.3613571658
 20
8.0598195174
 10
14.3774388539
 20
8.0937126604
 10
14.3869687222
 20
8.1341005083
 10
14.3887525124
 20
8.1503473199
  0
LINE
  5
53A
100
AcDbEntity
  8
0
100
AcDbLine
 62
7
  6
CONTINUOUS
 10
14.161721698
 20
7.9343458986
 11
14.1837870984
 21
7.9564927609
  0
LINE
  5
53B
100
AcDbEntity
  8
0
100
AcDbLine
 62
7
  6
CONTINUOUS
 10
14.142432399
 20
7.9735391334
 11
14.1296750841
 21
7.9648365799
  0
LINE
  5
53C
100
AcDbEntity
  8
AXIS_COSMETIC_THREADS
100
AcDbLine
 62
7
  6
CONTINUOUS
 10
14.1815087281
 20
8.0326030879
 11
14.1782053631
 21
8.0306959006
  0
LWPOLYLINE
  5
53D
100
AcDbEntity
  8
0
100
AcDbPolyline
 62
9
  6
CONTINUOUS
 90
17
 70
0
 10
14.5439979577
 20
8.1558997456
 10
14.5466538535
 20
8.1563757865
 10
14.5767428946
 20
8.1710526016
 10
14.6018760026
 20
8.1938824817
 10
14.6213641365
 20
8.2242617526
 10
14.6346619324
 20
8.2613653192
 10
14.641397225
 20
8.3041495147
 10
14.6413960635
 20
8.3514525055
 10
14.6346586134
 20
8.402013961
 10
14.621358836
 20
8.4544721115
 10
14.6018686108
 20
8.50735415
 10
14.5767334646
 20
8.5592045333
 10
14.5466429427
 20
8.6086232253
 10
14.5123897747
 20
8.6543110059
 10
14.4748477788
 20
8.695073167
 10
14.4349807211
 20
8.7298051935
 10
14.3938703554
 20
8.7574955269
  0
LWPOLYLINE
  5
53E
100
AcDbEntity
  8
AXIS_COSMETIC_THREADS
100
AcDbPolyline
 62
7
  6
CONTINUOUS
 90
10
 70
0
 10
13.9766790914
 20
8.4768269833
 10
14.0057973497
 20
8.4577166836
 10
14.0343734847
 20
8.4343636874
 10
14.0618754667
 20
8.4072027805
 10
14.0877912642
 20
8.3767396439
 10
14.1116383777
 20
8.3435414398
 10
14.1329728218
 20
8.3082262516
 10
14.1513973926
 20
8.2714515769
 10
14.1665690616
 20
8.2339020856
 10
14.1782053631
 20
8.1962768736
  0
LWPOLYLINE
  5
53F
100
AcDbEntity
  8
0
100
AcDbPolyline
 62
7
  6
CONTINUOUS
 90
11
 70
0
 10
14.5593347376
 20
8.2771925273
 10
14.5551768181
 20
8.326305897
 10
14.5441144238
 20
8.3786387978
 10
14.5264893844
 20
8.4320335026
 10
14.5031368304
 20
8.4843495508
 10
14.4745421696
 20
8.5347957361
 10
14.441452505
 20
8.5820767579
 10
14.4045305974
 20
8.6251657497
 10
14.365005196
 20
8.6625761438
 10
14.3232521599
 20
8.6937919003
 10
14.2838797255
 20
8.7160037377
  0
LWPOLYLINE
  5
540
100
AcDbEntity
  8
0
100
AcDbPolyline
 62
7
  6
CONTINUOUS
 90
11
 70
0
 10
14.5310505842
 20
8.2608627612
 10
14.5269239827
 20
8.3097658664
 10
14.5159490757
 20
8.3618704694
 10
14.4984601811
 20
8.4150461118
 10
14.4752676546
 20
8.4671974418
 10
14.4465623192
 20
8.517983367
 10
14.412929469
 20
8.5660553025
 10
14.3757034846
 20
8.6094067831
 10
14.3362695795
 20
8.6466277231
 10
14.2946729106
 20
8.6776543507
 10
14.255595572
 20
8.6996739715
  0
LWPOLYLINE
  5
541
100
AcDbEntity
  8
0
100
AcDbPolyline
 62
7
  6
CONTINUOUS
 90
11
 70
0
 10
14.5027664307
 20
8.244532995
 10
14.4990201854
 20
8.2908207253
 10
14.4892681128
 20
8.3394589971
 10
14.4736440175
 20
8.3895156278
 10
14.4525935287
 20
8.4394297889
 10
14.4264292745
 20
8.4883401264
 10
14.3954790865
 20
8.5353037325
 10
14.3608127064
 20
8.57849265
 10
14.3237795788
 20
8.6163584074
 10
14.2850459665
 20
8.6483974219
 10
14.2453785496
 20
8.6740096363
  0
LINE
  5
542
100
AcDbEntity
  8
AXIS_COSMETIC_THREADS
100
AcDbLine
 62
7
  6
CONTINUOUS
 10
14.4859659874
 20
7.6197172213
 11
14.4859659874
 21
7.2357049201
  0
LINE
  5
543
100
AcDbEntity
  8
0
100
AcDbLine
 62
7
  6
CONTINUOUS
 10
14.5018891263
 20
8.2156663845
 11
14.5027664307
 21
8.244532995
  0
LINE
  5
544
100
AcDbEntity
  8
0
100
AcDbLine
 62
7
  6
CONTINUOUS
 10
14.5301732798
 20
8.2319961506
 11
14.5310505842
 21
8.2608627612
  0
LINE
  5
545
100
AcDbEntity
  8
0
100
AcDbLine
 62
7
  6
CONTINUOUS
 10
14.5584574333
 20
8.2483259168
 11
14.5593347376
 21
8.2771925273
  0
LWPOLYLINE
  5
546
100
AcDbEntity
  8
0
100
AcDbPolyline
 62
7
  6
CONTINUOUS
 90
4
 70
0
 10
14.55792053
 20
8.276376039
 10
14.5553021995
 20
8.2315659394
 10
14.5459103326
 20
8.19140109
 10
14.5299776843
 20
8.1575049768
  0
LWPOLYLINE
  5
547
100
AcDbEntity
  8
0
100
AcDbPolyline
 62
7
  6
CONTINUOUS
 90
4
 70
0
 10
14.501352223
 20
8.2437165067
 10
14.4986905984
 20
8.1985993414
 10
14.4891590135
 20
8.1582087268
 10
14.4730746129
 20
8.1243142627
  0
LWPOLYLINE
  5
548
100
AcDbEntity
  8
0
100
AcDbPolyline
 62
7
  6
CONTINUOUS
 90
4
 70
0
 10
14.5296363765
 20
8.2600462729
 10
14.526975282
 20
8.2149328508
 10
14.5174454137
 20
8.1745450028
 10
14.5013637255
 20
8.1406518599
  0
LWPOLYLINE
  5
549
100
AcDbEntity
  8
0
100
AcDbPolyline
 62
7
  6
CONTINUOUS
 90
3
 70
0
 10
14.5639600236
 20
8.2841405152
 10
14.5601441386
 20
8.2408950554
 10
14.5509729212
 20
8.2077861376
  0
LWPOLYLINE
  5
54A
100
AcDbEntity
  8
0
100
AcDbPolyline
 62
7
  6
CONTINUOUS
 90
3
 70
0
 10
14.5353439457
 20
8.2562783785
 10
14.5297986536
 20
8.2143029367
 10
14.5239126463
 20
8.1967243054
  0
LWPOLYLINE
  5
54B
100
AcDbEntity
  8
0
100
AcDbPolyline
 62
7
  6
CONTINUOUS
 90
3
 70
0
 10
14.5062811892
 20
8.2287115605
 10
14.4990182688
 20
8.1880853789
 10
14.4951192188
 20
8.1782882681
  0
LWPOLYLINE
  5
54C
100
AcDbEntity
  8
0
100
AcDbPolyline
 62
7
  6
CONTINUOUS
 90
5
 70
0
 10
14.3969838313
 20
8.0670763727
 10
14.418537229
 20
8.0934538504
 10
14.4341992906
 20
8.1269317729
 10
14.4435574648
 20
8.1669046564
 10
14.4453208193
 20
8.1830068522
  0
LINE
  5
54D
100
AcDbEntity
  8
0
100
AcDbLine
 62
7
  6
CONTINUOUS
 10
14.4454071748
 20
8.1089671283
 11
14.4238537771
 21
8.0825896505
  0
LWPOLYLINE
  5
54E
100
AcDbEntity
  8
0
100
AcDbPolyline
 62
7
  6
CONTINUOUS
 90
5
 70
0
 10
14.5101204453
 20
8.1323954373
 10
14.5316738429
 20
8.158772915
 10
14.5473359046
 20
8.1922508375
 10
14.5566940787
 20
8.232223721
 10
14.5584574333
 20
8.2483259168
  0
LWPOLYLINE
  5
54F
100
AcDbEntity
  8
0
100
AcDbPolyline
 62
7
  6
CONTINUOUS
 90
3
 70
0
 10
14.3682229134
 20
8.0503062437
 10
14.3899711245
 20
8.0766726343
 10
14.4059037729
 20
8.1105687476
  0
LINE
  5
550
100
AcDbEntity
  8
0
100
AcDbLine
 62
7
  6
CONTINUOUS
 10
14.4168410703
 20
8.0921859121
 11
14.3950928592
 21
8.0658195215
  0
LWPOLYLINE
  5
551
100
AcDbEntity
  8
0
100
AcDbPolyline
 62
7
  6
CONTINUOUS
 90
5
 70
0
 10
14.4813595273
 20
8.1156253083
 10
14.5031077385
 20
8.1419916989
 10
14.5190403868
 20
8.1758878122
 10
14.5284322536
 20
8.2160526616
 10
14.5301732798
 20
8.2319961506
  0
LINE
  5
552
100
AcDbEntity
  8
0
100
AcDbLine
 62
7
  6
CONTINUOUS
 10
14.5299776843
 20
8.1575049768
 11
14.5082294731
 21
8.1311385861
  0
LINE
  5
553
100
AcDbEntity
  8
0
100
AcDbLine
 62
7
  6
CONTINUOUS
 10
14.3882271116
 20
8.0753327953
 11
14.3664015314
 21
8.0491175012
  0
LWPOLYLINE
  5
554
100
AcDbEntity
  8
0
100
AcDbPolyline
 62
7
  6
CONTINUOUS
 90
5
 70
0
 10
14.4243860995
 20
8.0825953904
 10
14.446204667
 20
8.1088009849
 10
14.4622890676
 20
8.142695449
 10
14.4718206526
 20
8.1830860636
 10
14.4736049728
 20
8.1993366183
  0
LINE
  5
555
100
AcDbEntity
  8
0
100
AcDbLine
 62
7
  6
CONTINUOUS
 10
14.4730746129
 20
8.1243142627
 11
14.4512560454
 21
8.0981086683
  0
LWPOLYLINE
  5
556
100
AcDbEntity
  8
0
100
AcDbPolyline
 62
7
  6
CONTINUOUS
 90
5
 70
0
 10
14.4526681996
 20
8.098923288
 10
14.4744937797
 20
8.125138582
 10
14.4905754679
 20
8.159031725
 10
14.5001053362
 20
8.1994195729
 10
14.5018891263
 20
8.2156663845
  0
LINE
  5
557
100
AcDbEntity
  8
0
100
AcDbLine
 62
7
  6
CONTINUOUS
 10
14.5013637255
 20
8.1406518599
 11
14.4795381454
 21
8.1144365658
  0
LWPOLYLINE
  5
558
100
AcDbEntity
  8
0
100
AcDbPolyline
 62
7
  6
CONTINUOUS
 90
3
 70
0
 10
14.5586557803
 20
8.1730483602
 10
14.5360350432
 20
8.1465836995
 10
14.5178368738
 20
8.1335073479
  0
LINE
  5
559
100
AcDbEntity
  8
0
100
AcDbLine
 62
7
  6
CONTINUOUS
 10
14.1975805492
 20
7.9519515213
 11
14.1770386429
 21
7.9367485766
  0
LINE
  5
55A
100
AcDbEntity
  8
0
100
AcDbLine
 62
7
  6
CONTINUOUS
 10
14.263305311
 20
7.9865543633
 11
14.2838472174
 21
8.0017573081
  0
LINE
  5
55B
100
AcDbEntity
  8
0
100
AcDbLine
 62
7
  6
CONTINUOUS
 10
14.3107171632
 20
8.0172705859
 11
14.2901752568
 21
8.0020676412
  0
LINE
  5
55C
100
AcDbEntity
  8
0
100
AcDbLine
 62
7
  6
CONTINUOUS
 10
14.376441925
 20
8.051873428
 11
14.3969838313
 21
8.0670763727
  0
LINE
  5
55D
100
AcDbEntity
  8
0
100
AcDbLine
 62
7
  6
CONTINUOUS
 10
14.4238537771
 20
8.0825896505
 11
14.4033118708
 21
8.0673867058
  0
LINE
  5
55E
100
AcDbEntity
  8
0
100
AcDbLine
 62
7
  6
CONTINUOUS
 10
14.4895785389
 20
8.1171924926
 11
14.5101204453
 21
8.1323954373
  0
LINE
  5
55F
100
AcDbEntity
  8
0
100
AcDbLine
 62
7
  6
CONTINUOUS
 10
14.2350197088
 20
7.9702237603
 11
14.2550862994
 21
7.9849871791
  0
LINE
  5
560
100
AcDbEntity
  8
0
100
AcDbLine
 62
7
  6
CONTINUOUS
 10
14.2819562452
 20
8.0005004569
 11
14.2618896546
 21
7.9857370381
  0
LINE
  5
561
100
AcDbEntity
  8
0
100
AcDbLine
 62
7
  6
CONTINUOUS
 10
14.3481563228
 20
8.0355428249
 11
14.3682229134
 21
8.0503062437
  0
LINE
  5
562
100
AcDbEntity
  8
0
100
AcDbLine
 62
7
  6
CONTINUOUS
 10
14.3950928592
 20
8.0658195215
 11
14.3750262686
 21
8.0510561027
  0
LINE
  5
563
100
AcDbEntity
  8
0
100
AcDbLine
 62
7
  6
CONTINUOUS
 10
14.4612929367
 20
8.1008618895
 11
14.4813595273
 21
8.1156253083
  0
LINE
  5
564
100
AcDbEntity
  8
0
100
AcDbLine
 62
7
  6
CONTINUOUS
 10
14.5082294731
 20
8.1311385861
 11
14.4881628825
 21
8.1163751674
  0
LINE
  5
565
100
AcDbEntity
  8
0
100
AcDbLine
 62
7
  6
CONTINUOUS
 10
14.1784450199
 20
7.9375605415
 11
14.1981128716
 21
7.9519572612
  0
LINE
  5
566
100
AcDbEntity
  8
0
100
AcDbLine
 62
7
  6
CONTINUOUS
 10
14.2249828174
 20
7.967470539
 11
14.2053149657
 21
7.9530738194
  0
LINE
  5
567
100
AcDbEntity
  8
0
100
AcDbLine
 62
7
  6
CONTINUOUS
 10
14.2067158762
 20
7.9538826285
 11
14.2263949716
 21
7.9682851588
  0
LINE
  5
568
100
AcDbEntity
  8
0
100
AcDbLine
 62
7
  6
CONTINUOUS
 10
14.2532649175
 20
7.9837984366
 11
14.233585822
 21
7.9693959064
  0
LINE
  5
569
100
AcDbEntity
  8
0
100
AcDbLine
 62
7
  6
CONTINUOUS
 10
14.2915816339
 20
8.0028796061
 11
14.3112494856
 21
8.0172763258
  0
LINE
  5
56A
100
AcDbEntity
  8
0
100
AcDbLine
 62
7
  6
CONTINUOUS
 10
14.3381194314
 20
8.0327896036
 11
14.3184515797
 21
8.018392884
  0
LINE
  5
56B
100
AcDbEntity
  8
0
100
AcDbLine
 62
7
  6
CONTINUOUS
 10
14.3198524902
 20
8.0192016931
 11
14.3395315856
 21
8.0336042234
  0
LINE
  5
56C
100
AcDbEntity
  8
0
100
AcDbLine
 62
7
  6
CONTINUOUS
 10
14.3664015314
 20
8.0491175012
 11
14.346722436
 21
8.034714971
  0
LINE
  5
56D
100
AcDbEntity
  8
0
100
AcDbLine
 62
7
  6
CONTINUOUS
 10
14.4047182478
 20
8.0681986708
 11
14.4243860995
 21
8.0825953904
  0
LINE
  5
56E
100
AcDbEntity
  8
0
100
AcDbLine
 62
7
  6
CONTINUOUS
 10
14.4512560454
 20
8.0981086683
 11
14.4315881936
 21
8.0837119486
  0
LINE
  5
56F
100
AcDbEntity
  8
0
100
AcDbLine
 62
7
  6
CONTINUOUS
 10
14.4329891041
 20
8.0845207578
 11
14.4526681996
 21
8.098923288
  0
LINE
  5
570
100
AcDbEntity
  8
0
100
AcDbLine
 62
7
  6
CONTINUOUS
 10
14.4795381454
 20
8.1144365658
 11
14.4598590499
 21
8.1000340356
  0
LWPOLYLINE
  5
571
100
AcDbEntity
  8
0
100
AcDbPolyline
 62
7
  6
CONTINUOUS
 90
5
 70
0
 10
14.5164227021
 20
8.1326908803
 10
14.5350753514
 20
8.1461689508
 10
14.5575041121
 20
8.1726398059
 10
14.5737891645
 20
8.2065577106
 10
14.583453428
 20
8.246961434
  0
LWPOLYLINE
  5
572
100
AcDbEntity
  8
0
100
AcDbPolyline
 62
9
  6
CONTINUOUS
 90
16
 70
0
 10
14.5599364623
 20
8.1756978469
 10
14.5613987498
 20
8.1766148668
 10
14.5856362525
 20
8.1986321998
 10
14.604429953
 20
8.2279296952
 10
14.6172539865
 20
8.2637116561
 10
14.6237495103
 20
8.3049717262
 10
14.6237487645
 20
8.3505896003
 10
14.6172518686
 20
8.3993499406
 10
14.6044265289
 20
8.4499395929
 10
14.585631303
 20
8.5009383088
 10
14.5613922079
 20
8.5509424465
 10
14.5323741695
 20
8.5986018692
 10
14.499341606
 20
8.642663611
 10
14.4631372148
 20
8.6819756327
 10
14.4246902452
 20
8.7154724389
 10
14.3850315574
 20
8.7421861948
  0
LINE
  5
573
100
AcDbEntity
  8
AXIS_COSMETIC_THREADS
100
AcDbLine
 62
7
  6
CONTINUOUS
 10
14.1478866868
 20
7.9793847718
 11
14.1279284143
 21
7.9678619265
  0
LWPOLYLINE
  5
574
100
AcDbEntity
  8
0
100
AcDbPolyline
 62
7
  6
CONTINUOUS
 90
3
 70
0
 10
14.4033118708
 20
8.0673867058
 10
14.3966332047
 20
8.0638234288
 10
14.3895064516
 20
8.0615424077
  0
LWPOLYLINE
  5
575
100
AcDbEntity
  8
0
100
AcDbPolyline
 62
7
  6
CONTINUOUS
 90
3
 70
0
 10
14.2901752568
 20
8.0020676412
 10
14.2834965908
 20
7.9985043642
 10
14.2763698376
 20
7.9962233431
  0
LWPOLYLINE
  5
576
100
AcDbEntity
  8
0
100
AcDbPolyline
 62
7
  6
CONTINUOUS
 90
3
 70
0
 10
14.1770386429
 20
7.9367485766
 10
14.1703599768
 20
7.9331852996
 10
14.1472808294
 20
7.9257984824
  0
LWPOLYLINE
  5
577
100
AcDbEntity
  8
0
100
AcDbPolyline
 62
7
  6
CONTINUOUS
 90
3
 70
0
 10
14.4881628825
 20
8.1163751674
 10
14.4808991764
 20
8.1125268744
 10
14.4743577066
 20
8.1104739194
  0
LWPOLYLINE
  5
578
100
AcDbEntity
  8
0
100
AcDbPolyline
 62
7
  6
CONTINUOUS
 90
3
 70
0
 10
14.3750262686
 20
8.0510561027
 10
14.3677625625
 20
8.0472078098
 10
14.3612210926
 20
8.0451548548
  0
LWPOLYLINE
  5
579
100
AcDbEntity
  8
0
100
AcDbPolyline
 62
7
  6
CONTINUOUS
 90
3
 70
0
 10
14.2618896546
 20
7.9857370381
 10
14.2546259485
 20
7.9818887452
 10
14.2480844787
 20
7.9798357902
  0
LWPOLYLINE
  5
57A
100
AcDbEntity
  8
0
100
AcDbPolyline
 62
7
  6
CONTINUOUS
 90
3
 70
0
 10
14.4315881936
 20
8.0837119486
 10
14.4242608489
 20
8.0798334947
 10
14.417855236
 20
8.0778148474
  0
LWPOLYLINE
  5
57B
100
AcDbEntity
  8
0
100
AcDbPolyline
 62
7
  6
CONTINUOUS
 90
3
 70
0
 10
14.3184515797
 20
8.018392884
 10
14.3111242349
 20
8.0145144301
 10
14.304718622
 20
8.0124957827
  0
LWPOLYLINE
  5
57C
100
AcDbEntity
  8
0
100
AcDbPolyline
 62
7
  6
CONTINUOUS
 90
3
 70
0
 10
14.2053149657
 20
7.9530738194
 10
14.197987621
 20
7.9491953654
 10
14.1915820081
 20
7.9471767181
  0
LWPOLYLINE
  5
57D
100
AcDbEntity
  8
0
100
AcDbPolyline
 62
7
  6
CONTINUOUS
 90
3
 70
0
 10
14.4598590499
 20
8.1000340356
 10
14.4523375832
 20
8.0960633454
 10
14.4460835597
 20
8.0941041908
  0
LWPOLYLINE
  5
57E
100
AcDbEntity
  8
0
100
AcDbPolyline
 62
7
  6
CONTINUOUS
 90
3
 70
0
 10
14.346722436
 20
8.034714971
 10
14.3392009693
 20
8.0307442808
 10
14.3329469458
 20
8.0287851262
  0
LWPOLYLINE
  5
57F
100
AcDbEntity
  8
0
100
AcDbPolyline
 62
7
  6
CONTINUOUS
 90
3
 70
0
 10
14.233585822
 20
7.9693959064
 10
14.2260643553
 20
7.9654252162
 10
14.2198103318
 20
7.9634660615
  0
LWPOLYLINE
  5
580
100
AcDbEntity
  8
0
100
AcDbPolyline
 62
7
  6
CONTINUOUS
 90
6
 70
0
 10
14.1296750841
 20
7.9648365799
 10
14.1157626307
 20
7.9581408952
 10
14.0848668794
 20
7.950997945
 10
14.0506838969
 20
7.9523273177
 10
14.0142523159
 20
7.9620886209
 10
13.9766790914
 20
7.9799852625
  0
LWPOLYLINE
  5
581
100
AcDbEntity
  8
AXIS_COSMETIC_THREADS
100
AcDbPolyline
 62
7
  6
CONTINUOUS
 90
4
 70
0
 10
14.1279337643
 20
7.9678666009
 10
14.1116383777
 20
7.9602945295
 10
14.0877912642
 20
7.9546319771
 10
14.0618754667
 20
7.954093149
  0
LWPOLYLINE
  5
582
100
AcDbEntity
  8
0
100
AcDbPolyline
 62
7
  6
CONTINUOUS
 90
3
 70
0
 10
14.5020116426
 20
8.1263941598
 10
14.5071510807
 20
8.1278982616
 10
14.5164227021
 20
8.1326908803
  0
LWPOLYLINE
  5
583
100
AcDbEntity
  8
AXIS_COSMETIC_THREADS
100
AcDbPolyline
 62
7
  6
CONTINUOUS
 90
7
 70
0
 10
13.9766790914
 20
8.4768269833
 10
13.9475608332
 20
8.4913387914
 10
13.9189846982
 20
8.5009819273
 10
13.8914827162
 20
8.5055768553
 10
13.8655669187
 20
8.5050380271
 10
13.8417198052
 20
8.4993754748
 10
13.8254244186
 20
8.4918034034
  0
LWPOLYLINE
  5
584
100
AcDbEntity
  8
0
100
AcDbPolyline
 62
7
  6
CONTINUOUS
 90
4
 70
0
 10
14.0017110132
 20
8.5190356018
 10
13.9586809886
 20
8.5412274633
 10
13.9165133696
 20
8.554729373
 10
13.8763905197
 20
8.5591437297
  0
LWPOLYLINE
  5
585
100
AcDbEntity
  8
0
100
AcDbPolyline
 62
7
  6
CONTINUOUS
 90
11
 70
0
 10
13.9773186601
 20
8.5376130845
 10
14.0183849901
 20
8.5163433486
 10
14.0591078619
 20
8.4874466079
 10
14.09835598
 20
8.451753248
 10
14.1350397953
 20
8.4102860491
 10
14.1681423477
 20
8.3642312345
 10
14.1967480536
 20
8.3149048907
 10
14.2200686232
 20
8.263715713
 10
14.2374653759
 20
8.2121251289
 10
14.2484673188
 20
8.1616059284
 10
14.2527844799
 20
8.1136005738
  0
LWPOLYLINE
  5
586
100
AcDbEntity
  8
0
100
AcDbPolyline
 62
7
  6
CONTINUOUS
 90
12
 70
0
 10
13.985346982
 20
8.5303787955
 10
14.0076207794
 20
8.5186152226
 10
14.0486787656
 20
8.4908567708
 10
14.0884412679
 20
8.456079178
 10
14.1257937852
 20
8.4152888358
 10
14.1596906853
 20
8.3696639593
 10
14.1891850853
 20
8.3205209174
 10
14.2134559105
 20
8.2692766162
 10
14.2318313574
 20
8.217408008
 10
14.2438080922
 20
8.166409886
 10
14.2490656335
 20
8.1177521676
 10
14.2484343065
 20
8.0826032683
  0
LWPOLYLINE
  5
587
100
AcDbEntity
  8
0
100
AcDbPolyline
 62
7
  6
CONTINUOUS
 90
11
 70
0
 10
13.9727540371
 20
8.53637631
 10
14.0051002835
 20
8.5186351411
 10
14.0475250468
 20
8.488225668
 10
14.0883747063
 20
8.4507624862
 10
14.1265187609
 20
8.4073143532
 10
14.1608997095
 20
8.359121986
 10
14.190566144
 20
8.3075615944
 10
14.2147013413
 20
8.254103304
 10
14.2326463778
 20
8.2002664178
 10
14.2439147132
 20
8.1475859045
 10
14.2482090493
 20
8.0975650996
  0
LWPOLYLINE
  5
588
100
AcDbEntity
  8
0
100
AcDbPolyline
 62
7
  6
CONTINUOUS
 90
11
 70
0
 10
13.9967416418
 20
8.5532436801
 10
14.0391867357
 20
8.5295535753
 10
14.0807631316
 20
8.4984504247
 10
14.1202100722
 20
8.4611197928
 10
14.1574470872
 20
8.4176390754
 10
14.1910463911
 20
8.3694744685
 10
14.2196831282
 20
8.3186432106
 10
14.2426994132
 20
8.266716081
 10
14.26004529
 20
8.2138350814
 10
14.270962071
 20
8.1619163611
 10
14.2750789951
 20
8.1130783775
  0
LWPOLYLINE
  5
589
100
AcDbEntity
  8
0
100
AcDbPolyline
 62
7
  6
CONTINUOUS
 90
11
 70
0
 10
14.0459752675
 20
8.5588847849
 10
14.0856426844
 20
8.5332725705
 10
14.1243762967
 20
8.501233556
 10
14.1614094243
 20
8.4633677986
 10
14.1960758044
 20
8.4201788811
 10
14.2270259924
 20
8.3732152751
 10
14.2531902466
 20
8.3243049375
 10
14.2742407354
 20
8.2743907764
 10
14.2898648307
 20
8.2243341457
 10
14.2996169033
 20
8.1756958739
 10
14.3033631486
 20
8.1294081436
  0
LWPOLYLINE
  5
58A
100
AcDbEntity
  8
0
100
AcDbPolyline
 62
7
  6
CONTINUOUS
 90
11
 70
0
 10
14.030772535
 20
8.5378599993
 10
14.0720481915
 20
8.5109312754
 10
14.1121584139
 20
8.47682707
 10
14.1499712957
 20
8.4365411956
 10
14.1844210205
 20
8.3912453002
 10
14.2145385239
 20
8.3422551609
 10
14.2394793717
 20
8.2909928315
 10
14.2585480524
 20
8.2389457326
 10
14.2712179864
 20
8.1876238611
 10
14.2771466741
 20
8.1385163507
 10
14.27671846
 20
8.0989330345
  0
LWPOLYLINE
  5
58B
100
AcDbEntity
  8
0
100
AcDbPolyline
 62
7
  6
CONTINUOUS
 90
11
 70
0
 10
14.0343080542
 20
8.5399012201
 10
14.0755837107
 20
8.5129724962
 10
14.1156939331
 20
8.4788682908
 10
14.1535068149
 20
8.4385824164
 10
14.1879565397
 20
8.3932865209
 10
14.2180740431
 20
8.3442963816
 10
14.2430148909
 20
8.2930340522
 10
14.2620835716
 20
8.2409869533
 10
14.2747535056
 20
8.1896650819
 10
14.2806821932
 20
8.1405575714
 10
14.2797210686
 20
8.0950898523
  0
LWPOLYLINE
  5
58C
100
AcDbEntity
  8
0
100
AcDbPolyline
 62
9
  6
CONTINUOUS
 90
3
 70
0
 10
14.6140636752
 20
7.950960524
 10
14.6166118943
 20
7.9456005543
 10
14.6207312729
 20
7.9351316277
  0
LWPOLYLINE
  5
58D
100
AcDbEntity
  8
0
100
AcDbPolyline
 62
7
  6
CONTINUOUS
 90
11
 70
0
 10
14.5876188911
 20
8.2935222935
 10
14.5835019671
 20
8.3423602771
 10
14.5725851861
 20
8.3942789974
 10
14.5552393093
 20
8.4471599971
 10
14.5322230243
 20
8.4990871266
 10
14.5035862871
 20
8.5499183845
 10
14.4699869833
 20
8.5980829914
 10
14.4327499683
 20
8.6415637088
 10
14.3933030276
 20
8.6788943407
 10
14.3517266317
 20
8.7099974913
 10
14.312163879
 20
8.7323335038
  0
LINE
  5
58E
100
AcDbEntity
  8
0
100
AcDbLine
 62
7
  6
CONTINUOUS
 10
14.5876188911
 20
8.2935222935
 11
14.5867415868
 21
8.2646556829
  0
LINE
  5
58F
100
AcDbEntity
  8
0
100
AcDbLine
 62
7
  6
CONTINUOUS
 10
14.5921284393
 20
8.3122762148
 11
14.590050509
 21
8.2678423518
  0
LINE
  5
590
100
AcDbEntity
  8
0
100
AcDbLine
 62
7
  6
CONTINUOUS
 10
14.583453428
 20
8.246961434
 11
14.5862046835
 21
8.2927058052
  0
LWPOLYLINE
  5
591
100
AcDbEntity
  8
0
100
AcDbPolyline
 62
7
  6
CONTINUOUS
 90
4
 70
0
 10
14.5867415868
 20
8.2646556829
 10
14.5848396945
 20
8.2475846776
 10
14.5750862746
 20
8.2070399177
 10
14.5586557803
 20
8.1730483602
  0
LINE
  5
592
100
AcDbEntity
  8
0
100
AcDbLine
 62
7
  6
CONTINUOUS
 10
14.590050509
 20
8.2678423518
 11
14.589214225
 21
8.2641027316
  0
LINE
  5
593
100
AcDbEntity
  8
0
100
AcDbLine
 62
7
  6
CONTINUOUS
 10
13.9370498899
 20
8.5506413311
 11
13.9773186601
 21
8.5376130845
  0
LWPOLYLINE
  5
594
100
AcDbEntity
  8
0
100
AcDbPolyline
 62
7
  6
CONTINUOUS
 90
12
 70
0
 10
13.9207198573
 20
8.5312888204
 10
13.9613476094
 20
8.5157320977
 10
14.0024308214
 20
8.4920947519
 10
14.0428279975
 20
8.4610582886
 10
14.0814170617
 20
8.4235136633
 10
14.1171271213
 20
8.3805360611
 10
14.1489687805
 20
8.3333544605
 10
14.1760621483
 20
8.2833168449
 10
14.1976617456
 20
8.2318520436
 10
14.2131776079
 20
8.1804292864
 10
14.2221919856
 20
8.1305166126
 10
14.2244711696
 20
8.083539315
  0
LWPOLYLINE
  5
595
100
AcDbEntity
  8
0
100
AcDbPolyline
 62
7
  6
CONTINUOUS
 90
4
 70
0
 10
14.0010381906
 20
8.5527060761
 10
13.9794326183
 20
8.56193945
 10
13.9406857601
 20
8.5730011808
 10
13.9036590671
 20
8.5762592639
  0
LWPOLYLINE
  5
596
100
AcDbEntity
  8
0
100
AcDbPolyline
 62
7
  6
CONTINUOUS
 90
12
 70
0
 10
14.0213165512
 20
8.5751968415
 10
14.0625922077
 20
8.5562309862
 10
14.1038678642
 20
8.5293022624
 10
14.1439780866
 20
8.4951980569
 10
14.1817909684
 20
8.4549121825
 10
14.2162406932
 20
8.4096162871
 10
14.2463581966
 20
8.3606261478
 10
14.2712990444
 20
8.3093638184
 10
14.2903677251
 20
8.2573167195
 10
14.3030376591
 20
8.2059948481
 10
14.3089663467
 20
8.1568873376
 10
14.308005222
 20
8.1114196184
  0
LWPOLYLINE
  5
597
100
AcDbEntity
  8
0
100
AcDbPolyline
 62
7
  6
CONTINUOUS
 90
12
 70
0
 10
14.0496007047
 20
8.5915266076
 10
14.0908763612
 20
8.5725607524
 10
14.1321520176
 20
8.5456320285
 10
14.1722622401
 20
8.5115278231
 10
14.2100751219
 20
8.4712419487
 10
14.2445248467
 20
8.4259460533
 10
14.2746423501
 20
8.3769559139
 10
14.2995831979
 20
8.3256935846
 10
14.3186518786
 20
8.2736464857
 10
14.3313218125
 20
8.2223246142
 10
14.3372505002
 20
8.1732171037
 10
14.3362893755
 20
8.1277493846
  0
LINE
  5
598
100
AcDbEntity
  8
0
100
AcDbLine
 62
7
  6
CONTINUOUS
 10
13.9933619403
 20
8.5587476965
 11
14.0343080542
 21
8.5399012201
  0
LINE
  5
599
100
AcDbEntity
  8
0
100
AcDbLine
 62
7
  6
CONTINUOUS
 10
14.0063025641
 20
8.5774527278
 11
14.0459752675
 21
8.5588847849
  0
LINE
  5
59A
100
AcDbEntity
  8
0
100
AcDbLine
 62
7
  6
CONTINUOUS
 10
14.0136311354
 20
8.5467085616
 11
14.030772535
 21
8.5378599993
  0
LWPOLYLINE
  5
59B
100
AcDbEntity
  8
0
100
AcDbPolyline
 62
7
  6
CONTINUOUS
 90
12
 70
0
 10
14.0419152889
 20
8.5630383278
 10
14.0590566885
 20
8.5541897655
 10
14.100332345
 20
8.5272610416
 10
14.1404425674
 20
8.4931568362
 10
14.1782554492
 20
8.4528709618
 10
14.212705174
 20
8.4075750663
 10
14.2428226774
 20
8.358584927
 10
14.2677635252
 20
8.3073225976
 10
14.2868322059
 20
8.2552754987
 10
14.2995021399
 20
8.2039536273
 10
14.3054308275
 20
8.1548461168
 10
14.3050026135
 20
8.1152628006
  0
LWPOLYLINE
  5
59C
100
AcDbEntity
  8
0
100
AcDbPolyline
 62
7
  6
CONTINUOUS
 90
12
 70
0
 10
14.0701994424
 20
8.5793680939
 10
14.087340842
 20
8.5705195316
 10
14.1286164985
 20
8.5435908077
 10
14.1687267209
 20
8.5094866023
 10
14.2065396027
 20
8.4692007279
 10
14.2409893275
 20
8.4239048325
 10
14.2711068309
 20
8.3749146932
 10
14.2960476787
 20
8.3236523638
 10
14.3151163594
 20
8.2716052649
 10
14.3277862934
 20
8.2202833935
 10
14.333714981
 20
8.171175883
 10
14.333286767
 20
8.1315925668
  0
LWPOLYLINE
  5
59D
100
AcDbEntity
  8
0
100
AcDbPolyline
 62
7
  6
CONTINUOUS
 90
12
 70
0
 10
14.0984835959
 20
8.5956978601
 10
14.1156249955
 20
8.5868492978
 10
14.1569006519
 20
8.5599205739
 10
14.1970108744
 20
8.5258163685
 10
14.2348237562
 20
8.4855304941
 10
14.269273481
 20
8.4402345986
 10
14.2993909844
 20
8.3912444593
 10
14.3243318322
 20
8.3399821299
 10
14.3434005129
 20
8.287935031
 10
14.3560704468
 20
8.2366131596
 10
14.3619991345
 20
8.1875056491
 10
14.3615709205
 20
8.1479223329
  0
LINE
  5
59E
100
AcDbEntity
  8
0
100
AcDbLine
 62
7
  6
CONTINUOUS
 10
14.0191053217
 20
8.543371507
 11
14.0010381906
 21
8.5527060761
  0
LWPOLYLINE
  5
59F
100
AcDbEntity
  8
0
100
AcDbPolyline
 62
7
  6
CONTINUOUS
 90
11
 70
0
 10
14.0528240483
 20
8.5861278016
 10
14.0952696285
 20
8.5625294993
 10
14.1368662974
 20
8.5315028717
 10
14.1763002025
 20
8.4942819317
 10
14.2135261869
 20
8.4509304511
 10
14.2471590371
 20
8.4028585156
 10
14.2758643726
 20
8.3520725904
 10
14.299056899
 20
8.2999212604
 10
14.3165457936
 20
8.246745618
 10
14.3275207006
 20
8.194641015
 10
14.3316473021
 20
8.1457379098
  0
LWPOLYLINE
  5
5A0
100
AcDbEntity
  8
0
100
AcDbPolyline
 62
7
  6
CONTINUOUS
 90
11
 70
0
 10
14.0812282258
 20
8.6024021901
 10
14.1238488778
 20
8.5786670489
 10
14.1656019139
 20
8.5474512924
 10
14.2051273153
 20
8.5100408984
 10
14.2420492229
 20
8.4669519065
 10
14.2751388875
 20
8.4196708847
 10
14.3037335483
 20
8.3692246994
 10
14.3270861023
 20
8.3169086513
 10
14.3447111417
 20
8.2635139464
 10
14.355773536
 20
8.2111810456
 10
14.3599314555
 20
8.1620676759
  0
LWPOLYLINE
  5
5A1
100
AcDbEntity
  8
0
100
AcDbPolyline
 62
7
  6
CONTINUOUS
 90
11
 70
0
 10
14.143909149
 20
8.6031790639
 10
14.1851848054
 20
8.57625034
 10
14.2252950279
 20
8.5421461346
 10
14.2631079097
 20
8.5018602602
 10
14.2975576345
 20
8.4565643648
 10
14.3276751379
 20
8.4075742255
 10
14.3526159856
 20
8.3563118961
 10
14.3716846664
 20
8.3042647972
 10
14.3843546003
 20
8.2529429258
 10
14.390283288
 20
8.2038354153
 10
14.389855074
 20
8.1642520991
  0
LWPOLYLINE
  5
5A2
100
AcDbEntity
  8
0
100
AcDbPolyline
 62
7
  6
CONTINUOUS
 90
11
 70
0
 10
14.1474446681
 20
8.6052202847
 10
14.1887203246
 20
8.5782915608
 10
14.2288305471
 20
8.5441873554
 10
14.2666434289
 20
8.503901481
 10
14.3010931537
 20
8.4586055856
 10
14.3312106571
 20
8.4096154463
 10
14.3561515048
 20
8.3583531169
 10
14.3752201856
 20
8.306306018
 10
14.3878901195
 20
8.2549841465
 10
14.3938188072
 20
8.2058766361
 10
14.3928576825
 20
8.1604089169
  0
LINE
  5
5A3
100
AcDbEntity
  8
AXIS_COSMETIC_THREADS
100
AcDbLine
 62
7
  6
CONTINUOUS
 10
14.7189659874
 20
7.6195342674
 11
14.7189659874
 21
7.2357049201
  0
LWPOLYLINE
  5
5A4
100
AcDbEntity
  8
0
100
AcDbPolyline
 62
7
  6
CONTINUOUS
 90
4
 70
0
 10
13.9207198573
 20
8.5312888204
 10
13.8962286045
 20
8.5375536983
 10
13.8717779262
 20
8.5404134667
 10
13.8465222936
 20
8.5392981029
  0
LINE
  5
5A5
100
AcDbEntity
  8
0
100
AcDbLine
 62
7
  6
CONTINUOUS
 10
13.9931800716
 20
8.5825235632
 11
14.0213165512
 21
8.5751968415
  0
LINE
  5
5A6
100
AcDbEntity
  8
0
100
AcDbLine
 62
7
  6
CONTINUOUS
 10
13.9586282669
 20
8.5678788254
 11
13.9933619403
 21
8.5587476965
  0
LWPOLYLINE
  5
5A7
100
AcDbEntity
  8
0
100
AcDbPolyline
 62
7
  6
CONTINUOUS
 90
3
 70
0
 10
14.0576064976
 20
8.5853656084
 10
14.0126077286
 20
8.6021527912
 10
13.9730854688
 20
8.6086737811
  0
LWPOLYLINE
  5
5A8
100
AcDbEntity
  8
0
100
AcDbPolyline
 62
7
  6
CONTINUOUS
 90
3
 70
0
 10
14.0293223441
 20
8.5690358423
 10
13.9843766556
 20
8.5858088579
 10
13.9449261847
 20
8.5923368108
  0
LWPOLYLINE
  5
5A9
100
AcDbEntity
  8
0
100
AcDbPolyline
 62
7
  6
CONTINUOUS
 90
3
 70
0
 10
14.0858906511
 20
8.6016953746
 10
14.0414117003
 20
8.6183432232
 10
14.0019584841
 20
8.6249687818
  0
LWPOLYLINE
  5
5AA
100
AcDbEntity
  8
0
100
AcDbPolyline
 62
7
  6
CONTINUOUS
 90
4
 70
0
 10
14.1141748046
 20
8.6180251407
 10
14.0925692323
 20
8.6272585146
 10
14.0538223741
 20
8.6383202454
 10
14.0167956811
 20
8.6415783285
  0
LWPOLYLINE
  5
5AB
100
AcDbEntity
  8
0
100
AcDbPolyline
 62
7
  6
CONTINUOUS
 90
12
 70
0
 10
14.0778848582
 20
8.6078563738
 10
14.1191605146
 20
8.5888905185
 10
14.1604361711
 20
8.5619617947
 10
14.2005463936
 20
8.5278575892
 10
14.2383592754
 20
8.4875717148
 10
14.2728090002
 20
8.4422758194
 10
14.3029265036
 20
8.3932856801
 10
14.3278673513
 20
8.3420233507
 10
14.3469360321
 20
8.2899762518
 10
14.359605966
 20
8.2386543804
 10
14.3655346537
 20
8.1895468699
 10
14.364573529
 20
8.1440791507
  0
LINE
  5
5AC
100
AcDbEntity
  8
0
100
AcDbLine
 62
7
  6
CONTINUOUS
 10
14.1061690117
 20
8.6241861399
 11
14.1474446681
 21
8.6052202847
  0
LWPOLYLINE
  5
5AD
100
AcDbEntity
  8
0
100
AcDbPolyline
 62
7
  6
CONTINUOUS
 90
12
 70
0
 10
14.1344531651
 20
8.6405159061
 10
14.1757288216
 20
8.6215500508
 10
14.2170044781
 20
8.594621327
 10
14.2571147006
 20
8.5605171215
 10
14.2949275823
 20
8.5202312471
 10
14.3293773071
 20
8.4749353517
 10
14.3594948106
 20
8.4259452124
 10
14.3844356583
 20
8.374682883
 10
14.4035043391
 20
8.3226357841
 10
14.416174273
 20
8.2713139127
 10
14.4221029607
 20
8.2222064022
 10
14.421141836
 20
8.176738683
  0
LINE
  5
5AE
100
AcDbEntity
  8
0
100
AcDbLine
 62
7
  6
CONTINUOUS
 10
14.1194391781
 20
8.6427717924
 11
14.1591118815
 21
8.6242038495
  0
LINE
  5
5AF
100
AcDbEntity
  8
0
100
AcDbLine
 62
7
  6
CONTINUOUS
 10
14.1267677494
 20
8.6120276262
 11
14.143909149
 21
8.6031790639
  0
LWPOLYLINE
  5
5B0
100
AcDbEntity
  8
0
100
AcDbPolyline
 62
7
  6
CONTINUOUS
 90
12
 70
0
 10
14.1550519029
 20
8.6283573924
 10
14.1721933024
 20
8.6195088301
 10
14.2134689589
 20
8.5925801062
 10
14.2535791814
 20
8.5584759008
 10
14.2913920632
 20
8.5181900264
 10
14.325841788
 20
8.472894131
 10
14.3559592914
 20
8.4239039916
 10
14.3809001391
 20
8.3726416623
 10
14.3999688199
 20
8.3205945634
 10
14.4126387538
 20
8.2692726919
 10
14.4185674415
 20
8.2201651814
 10
14.4181392275
 20
8.1805818652
  0
LWPOLYLINE
  5
5B1
100
AcDbEntity
  8
0
100
AcDbPolyline
 62
7
  6
CONTINUOUS
 90
12
 70
0
 10
14.1833360564
 20
8.6446871585
 10
14.2004774559
 20
8.6358385962
 10
14.2417531124
 20
8.6089098724
 10
14.2818633349
 20
8.5748056669
 10
14.3196762166
 20
8.5345197925
 10
14.3541259414
 20
8.4892238971
 10
14.3842434449
 20
8.4402337578
 10
14.4091842926
 20
8.3889714284
 10
14.4282529734
 20
8.3369243295
 10
14.4409229073
 20
8.2856024581
 10
14.446851595
 20
8.2364949476
 10
14.446423381
 20
8.1969116314
  0
LINE
  5
5B2
100
AcDbEntity
  8
0
100
AcDbLine
 62
7
  6
CONTINUOUS
 10
14.1322419356
 20
8.6086905716
 11
14.1141748046
 21
8.6180251407
  0
LWPOLYLINE
  5
5B3
100
AcDbEntity
  8
0
100
AcDbPolyline
 62
7
  6
CONTINUOUS
 90
11
 70
0
 10
14.1659606622
 20
8.6514468662
 10
14.2084062425
 20
8.627848564
 10
14.2500029114
 20
8.5968219364
 10
14.2894368164
 20
8.5596009963
 10
14.3266628009
 20
8.5162495158
 10
14.3602956511
 20
8.4681775802
 10
14.3890009865
 20
8.417391655
 10
14.412193513
 20
8.365240325
 10
14.4296824076
 20
8.3120646826
 10
14.4406573146
 20
8.2599600796
 10
14.444783916
 20
8.2110569744
  0
LWPOLYLINE
  5
5B4
100
AcDbEntity
  8
0
100
AcDbPolyline
 62
7
  6
CONTINUOUS
 90
11
 70
0
 10
14.1098782557
 20
8.6185627447
 10
14.1523233496
 20
8.5948726399
 10
14.1938997455
 20
8.5637694893
 10
14.2333466862
 20
8.5264388574
 10
14.2705837012
 20
8.48295814
 10
14.3041830051
 20
8.4347935331
 10
14.3328197422
 20
8.3839622752
 10
14.3558360272
 20
8.3320351457
 10
14.373181904
 20
8.279154146
 10
14.384098685
 20
8.2272354257
 10
14.388215609
 20
8.1783974421
  0
LWPOLYLINE
  5
5B5
100
AcDbEntity
  8
0
100
AcDbPolyline
 62
7
  6
CONTINUOUS
 90
11
 70
0
 10
14.1591118815
 20
8.6242038495
 10
14.1987792984
 20
8.5985916351
 10
14.2375129107
 20
8.5665526207
 10
14.2745460382
 20
8.5286868632
 10
14.3092124183
 20
8.4854979457
 10
14.3401626063
 20
8.4385343397
 10
14.3663268605
 20
8.3896240021
 10
14.3873773494
 20
8.339709841
 10
14.4030014446
 20
8.2896532104
 10
14.4127535173
 20
8.2410149386
 10
14.4164997625
 20
8.1947272083
  0
LWPOLYLINE
  5
5B6
100
AcDbEntity
  8
0
100
AcDbPolyline
 62
9
  6
CONTINUOUS
 90
10
 70
0
 10
14.7700527292
 20
8.2535149715
 10
14.765981123
 20
8.31960234
 10
14.7538544425
 20
8.3889604959
 10
14.7339351936
 20
8.4600880449
 10
14.7066545679
 20
8.53144529
 10
14.6726031086
 20
8.6014875626
 10
14.6325179269
 20
8.668698659
 10
14.5872667461
 20
8.7316236618
 10
14.5378291174
 20
8.7889004348
 10
14.4852752163
 20
8.8392891088
  0
LWPOLYLINE
  5
5B7
100
AcDbEntity
  8
AXIS
100
AcDbPolyline
 62
7
  6
CONTINUOUS
 90
5
 70
0
 10
14.7189607786
 20
7.2356900342
 10
14.7187534687
 20
7.2316441211
 10
14.7136911126
 20
7.2156950295
 10
14.7021647565
 20
7.20090884
 10
14.6848442704
 20
7.1881448722
  0
LWPOLYLINE
  5
5B8
100
AcDbEntity
  8
0
100
AcDbPolyline
 62
9
  6
CONTINUOUS
 90
8
 70
0
 10
14.7322952605
 20
7.982505898
 10
14.7590796105
 20
8.0010620718
 10
14.7875419666
 20
8.0294479933
 10
14.811360818
 20
8.0639911271
 10
14.8302212768
 20
8.1042348089
 10
14.8438740055
 20
8.1496470125
 10
14.8521385135
 20
8.1996273835
 10
14.8549055429
 20
8.2535151755
  0
LWPOLYLINE
  5
5B9
100
AcDbEntity
  8
AXIS_COSMETIC_THREADS
100
AcDbPolyline
 62
7
  6
CONTINUOUS
 90
28
 70
0
 10
15.0111043659
 20
8.1446307319
 10
15.0176599103
 20
8.1485869144
 10
15.0423314223
 20
8.1669506078
 10
15.064372306
 20
8.1892554637
 10
15.0836051011
 20
8.2153218964
 10
15.0998749564
 20
8.2449400343
 10
15.1130508766
 20
8.2778714097
 10
15.1230267771
 20
8.3138508785
 10
15.1297223376
 20
8.352588755
 10
15.1330836495
 20
8.3937731448
 10
15.1330836495
 20
8.4370724554
 10
15.1297223376
 20
8.4821380661
 10
15.1230267771
 20
8.5286071351
 10
15.1130508766
 20
8.5761055209
 10
15.0998749564
 20
8.6242507943
 10
15.0836051011
 20
8.672655318
 10
15.064372306
 20
8.7209293671
 10
15.0423314223
 20
8.7686842674
 10
15.0176599103
 20
8.8155355245
 10
14.9905564105
 20
8.8611059197
 10
14.9612391442
 20
8.9050285469
 10
14.929944157
 20
8.9469497669
 10
14.8969234175
 20
8.9865320548
 10
14.8624427895
 20
9.0234567173
 10
14.8267798906
 20
9.0574264585
 10
14.7902218576
 20
9.0881677743
 10
14.7530630341
 20
9.1154331535
 10
14.7156026013
 20
9.1390030714
  0
LINE
  5
5BA
100
AcDbEntity
  8
AXIS_COSMETIC_THREADS
100
AcDbLine
 62
7
  6
CONTINUOUS
 10
15.0111012784
 20
8.1446283655
 11
15.0708688774
 21
8.1791349989
  0
LINE
  5
5BB
100
AcDbEntity
  8
0
100
AcDbLine
 62
7
  6
CONTINUOUS
 10
15.0009947186
 20
8.1376386765
 11
14.7322952605
 21
7.982505898
  0
LINE
  5
5BC
100
AcDbEntity
  8
0
100
AcDbLine
 62
7
  6
CONTINUOUS
 10
15.0708481655
 20
8.179123041
 11
15.0708115742
 21
8.1791019225
  0
LWPOLYLINE
  5
5BD
100
AcDbEntity
  8
0
100
AcDbPolyline
 62
9
  6
CONTINUOUS
 90
3
 70
0
 10
14.8110633563
 20
8.0241702691
 10
14.7822838675
 20
8.0080080912
 10
14.7479928
 20
7.9898309916
  0
LWPOLYLINE
  5
5BE
100
AcDbEntity
  8
0
100
AcDbPolyline
 62
9
  6
CONTINUOUS
 90
4
 70
0
 10
14.7479928
 20
7.9898309916
 10
14.7088416069
 20
7.9706028999
 10
14.665945097
 20
7.9517909196
 10
14.6207312729
 20
7.9351316277
  0
LWPOLYLINE
  5
5BF
100
AcDbEntity
  8
0
100
AcDbPolyline
 62
7
  6
CONTINUOUS
 90
3
 70
0
 10
13.9305290129
 20
8.5917725418
 10
13.9675557059
 20
8.5885144587
 10
14.0063025641
 20
8.5774527278
  0
LINE
  5
5C0
100
AcDbEntity
  8
0
100
AcDbLine
 62
7
  6
CONTINUOUS
 10
13.9316142022
 20
8.5512657265
 11
13.9370498899
 21
8.5506413311
  0
LINE
  5
5C1
100
AcDbEntity
  8
0
100
AcDbLine
 62
7
  6
CONTINUOUS
 10
14.0214240044
 20
8.5988638028
 11
14.0496007047
 21
8.5915266076
  0
LINE
  5
5C2
100
AcDbEntity
  8
0
100
AcDbLine
 62
7
  6
CONTINUOUS
 10
14.0500980752
 20
8.6150920347
 11
14.0778848582
 21
8.6078563738
  0
LINE
  5
5C3
100
AcDbEntity
  8
0
100
AcDbLine
 62
7
  6
CONTINUOUS
 10
14.0738749069
 20
8.6325955046
 11
14.1061690117
 21
8.6241861399
  0
LINE
  5
5C4
100
AcDbEntity
  8
0
100
AcDbLine
 62
7
  6
CONTINUOUS
 10
14.1063166855
 20
8.6478426278
 11
14.1344531651
 21
8.6405159061
  0
LWPOLYLINE
  5
5C5
100
AcDbEntity
  8
0
100
AcDbPolyline
 62
7
  6
CONTINUOUS
 90
3
 70
0
 10
14.1707431115
 20
8.650684673
 10
14.1257443426
 20
8.6674718559
 10
14.0862220828
 20
8.6739928457
  0
LWPOLYLINE
  5
5C6
100
AcDbEntity
  8
0
100
AcDbPolyline
 62
7
  6
CONTINUOUS
 90
3
 70
0
 10
14.142458958
 20
8.6343549069
 10
14.0975132696
 20
8.6511279225
 10
14.0580627986
 20
8.6576558754
  0
LWPOLYLINE
  5
5C7
100
AcDbEntity
  8
0
100
AcDbPolyline
 62
7
  6
CONTINUOUS
 90
3
 70
0
 10
14.199027265
 20
8.6670144392
 10
14.1545483142
 20
8.6836622878
 10
14.1150950981
 20
8.6902878464
  0
LWPOLYLINE
  5
5C8
100
AcDbEntity
  8
0
100
AcDbPolyline
 62
7
  6
CONTINUOUS
 90
4
 70
0
 10
14.2273114185
 20
8.6833442053
 10
14.2057058462
 20
8.6925775792
 10
14.166958988
 20
8.7036393101
 10
14.129932295
 20
8.7068973932
  0
LWPOLYLINE
  5
5C9
100
AcDbEntity
  8
0
100
AcDbPolyline
 62
7
  6
CONTINUOUS
 90
12
 70
0
 10
14.1627373186
 20
8.6568456723
 10
14.2040129751
 20
8.637879817
 10
14.2452886316
 20
8.6109510931
 10
14.285398854
 20
8.5768468877
 10
14.3232117358
 20
8.5365610133
 10
14.3576614606
 20
8.4912651179
 10
14.3877789641
 20
8.4422749786
 10
14.4127198118
 20
8.3910126492
 10
14.4317884925
 20
8.3389655503
 10
14.4444584265
 20
8.2876436788
 10
14.4503871142
 20
8.2385361684
 10
14.4494259895
 20
8.1930684492
  0
LWPOLYLINE
  5
5CA
100
AcDbEntity
  8
0
100
AcDbPolyline
 62
7
  6
CONTINUOUS
 90
12
 70
0
 10
14.1910214721
 20
8.6731754384
 10
14.2322971286
 20
8.6542095832
 10
14.2735727851
 20
8.6272808593
 10
14.3136830075
 20
8.5931766539
 10
14.3514958893
 20
8.5528907795
 10
14.3859456141
 20
8.507594884
 10
14.4160631175
 20
8.4586047447
 10
14.4410039653
 20
8.4073424153
 10
14.460072646
 20
8.3552953164
 10
14.47274258
 20
8.303973445
 10
14.4786712677
 20
8.2548659345
 10
14.477710143
 20
8.2093982154
  0
LINE
  5
5CB
100
AcDbEntity
  8
0
100
AcDbLine
 62
7
  6
CONTINUOUS
 10
14.2193056256
 20
8.6895052046
 11
14.2605812821
 21
8.6705393493
  0
LWPOLYLINE
  5
5CC
100
AcDbEntity
  8
0
100
AcDbPolyline
 62
7
  6
CONTINUOUS
 90
12
 70
0
 10
14.2681885168
 20
8.693676457
 10
14.2823015168
 20
8.6864905602
 10
14.3235359566
 20
8.6601788102
 10
14.3636958643
 20
8.6266535356
 10
14.4016523191
 20
8.5868880251
 10
14.4363395405
 20
8.5420343813
 10
14.4667854275
 20
8.4933905075
 10
14.492139415
 20
8.4423629157
 10
14.5116968459
 20
8.3904264237
 10
14.5249191637
 20
8.3390818936
 10
14.5314493445
 20
8.289813225
 10
14.5312758414
 20
8.2459009299
  0
LWPOLYLINE
  5
5CD
100
AcDbEntity
  8
0
100
AcDbPolyline
 62
7
  6
CONTINUOUS
 90
12
 70
0
 10
14.2116202099
 20
8.6610169247
 10
14.2287616094
 20
8.6521683624
 10
14.2700372659
 20
8.6252396385
 10
14.3101474883
 20
8.5911354331
 10
14.3479603701
 20
8.5508495587
 10
14.3824100949
 20
8.5055536633
 10
14.4125275984
 20
8.456563524
 10
14.4374684461
 20
8.4053011946
 10
14.4565371268
 20
8.3532540957
 10
14.4692070608
 20
8.3019322242
 10
14.4751357485
 20
8.2528247138
 10
14.4747075344
 20
8.2132413976
  0
LINE
  5
5CE
100
AcDbEntity
  8
0
100
AcDbLine
 62
7
  6
CONTINUOUS
 10
14.2399043634
 20
8.6773466908
 11
14.2570457629
 21
8.6684981285
  0
LINE
  5
5CF
100
AcDbEntity
  8
0
100
AcDbLine
 62
7
  6
CONTINUOUS
 10
14.2453785496
 20
8.6740096363
 11
14.2273114185
 21
8.6833442053
  0
LWPOLYLINE
  5
5D0
100
AcDbEntity
  8
0
100
AcDbPolyline
 62
7
  6
CONTINUOUS
 90
11
 70
0
 10
14.1943648398
 20
8.6677212547
 10
14.2369854917
 20
8.6439861135
 10
14.2787385279
 20
8.612770357
 10
14.3182639293
 20
8.575359963
 10
14.3551858369
 20
8.5322709711
 10
14.3882755015
 20
8.4849899493
 10
14.4168701623
 20
8.434543764
 10
14.4402227163
 20
8.3822277159
 10
14.4578477557
 20
8.328833011
 10
14.4689101499
 20
8.2765001102
 10
14.4730680695
 20
8.2273867406
  0
LWPOLYLINE
  5
5D1
100
AcDbEntity
  8
0
100
AcDbPolyline
 62
7
  6
CONTINUOUS
 90
11
 70
0
 10
14.2230148697
 20
8.6838818093
 10
14.2654599636
 20
8.6601917045
 10
14.3070363595
 20
8.6290885539
 10
14.3464833002
 20
8.591757922
 10
14.3837203151
 20
8.5482772046
 10
14.417319619
 20
8.5001125977
 10
14.4459563561
 20
8.4492813398
 10
14.4689726411
 20
8.3973542103
 10
14.4863185179
 20
8.3444732106
 10
14.4972352989
 20
8.2925544903
 10
14.501352223
 20
8.2437165067
  0
LWPOLYLINE
  5
5D2
100
AcDbEntity
  8
0
100
AcDbPolyline
 62
7
  6
CONTINUOUS
 90
11
 70
0
 10
14.2722484954
 20
8.6895229141
 10
14.3119159124
 20
8.6639106997
 10
14.3506495246
 20
8.6318716853
 10
14.3876826522
 20
8.5940059278
 10
14.4223490323
 20
8.5508170103
 10
14.4532992203
 20
8.5038534043
 10
14.4794634745
 20
8.4549430667
 10
14.5005139633
 20
8.4050289057
 10
14.5161380586
 20
8.354972275
 10
14.5258901312
 20
8.3063340032
 10
14.5296363765
 20
8.2600462729
  0
LWPOLYLINE
  5
5D3
100
AcDbEntity
  8
0
100
AcDbPolyline
 62
7
  6
CONTINUOUS
 90
11
 70
0
 10
14.2605812821
 20
8.6705393493
 10
14.3015756251
 20
8.6438214308
 10
14.34142831
 20
8.6100201225
 10
14.3790300728
 20
8.5701069611
 10
14.4133355184
 20
8.5252269047
 10
14.4433927839
 20
8.4766658455
 10
14.4683705466
 20
8.4258141227
 10
14.487581613
 20
8.3741270721
 10
14.5005024175
 20
8.3230837319
 10
14.5067878783
 20
8.274144875
 10
14.5062811892
 20
8.2287115605
  0
LWPOLYLINE
  5
5D4
100
AcDbEntity
  8
0
100
AcDbPolyline
 62
7
  6
CONTINUOUS
 90
11
 70
0
 10
14.2570457629
 20
8.6684981285
 10
14.2982407221
 20
8.6416299152
 10
14.3382771012
 20
8.6076126899
 10
14.3760295193
 20
8.5674338383
 10
14.4104380425
 20
8.5222573072
 10
14.4405385561
 20
8.4733902523
 10
14.4654903913
 20
8.4222455808
 10
14.484600415
 20
8.3703014654
 10
14.497342891
 20
8.3190589868
 10
14.5033745453
 20
8.2699991202
 10
14.5029916879
 20
8.2295711637
  0
LINE
  5
5D5
100
AcDbEntity
  8
0
100
AcDbLine
 62
7
  6
CONTINUOUS
 10
14.4358673219
 20
8.6805237064
 11
14.3943338228
 21
8.714676737
  0
LWPOLYLINE
  5
5D6
100
AcDbEntity
  8
0
100
AcDbPolyline
 62
7
  6
CONTINUOUS
 90
13
 70
0
 10
14.4358673219
 20
8.6805237064
 10
14.4723886207
 20
8.6410985603
 10
14.5058327781
 20
8.5970527766
 10
14.5355986389
 20
8.5491181307
 10
14.5605669635
 20
8.4990826912
 10
14.5801072923
 20
8.4484744865
 10
14.5939709511
 20
8.3981968381
 10
14.6018486249
 20
8.3494854221
 10
14.6035672767
 20
8.3034283257
 10
14.5990139529
 20
8.2609665673
 10
14.5881626995
 20
8.2232717698
 10
14.5710751489
 20
8.1913509356
 10
14.5634716406
 20
8.1830114563
  0
LWPOLYLINE
  5
5D7
100
AcDbEntity
  8
0
100
AcDbPolyline
 62
9
  6
CONTINUOUS
 90
18
 70
0
 10
14.8549055429
 20
8.2535151755
 10
14.8506287572
 20
8.3249029416
 10
14.8378857889
 20
8.3997703137
 10
14.8169370194
 20
8.4765875025
 10
14.7882105014
 20
8.5537848778
 10
14.7522932131
 20
8.6297850407
 10
14.7099190642
 20
8.7030350556
 10
14.6619538991
 20
8.7720381812
 10
14.6093778056
 20
8.8353844546
 10
14.5532650879
 20
8.8917795008
 10
14.4947623151
 20
8.940070982
 10
14.4350648933
 20
8.9792721425
 10
14.375392639
 20
9.0085819726
 10
14.3169648547
 20
9.0274015751
 10
14.260975414
 20
9.0353464029
 10
14.2085683672
 20
9.0322541169
 10
14.1608145643
 20
9.0181879027
 10
14.1402979108
 20
9.0078815063
  0
LINE
  5
5D8
100
AcDbEntity
  8
0
100
AcDbLine
 62
7
  6
CONTINUOUS
 10
14.8924659874
 20
7.8083266116
 11
14.8924659874
 21
7.7950412216
  0
LINE
  5
5D9
100
AcDbEntity
  8
0
100
AcDbLine
 62
7
  6
CONTINUOUS
 10
14.8974659874
 20
7.8358663425
 11
14.8974659874
 21
8.0778666924
  0
LWPOLYLINE
  5
5DA
100
AcDbEntity
  8
0
100
AcDbPolyline
 62
9
  6
CONTINUOUS
 90
3
 70
0
 10
14.8421186225
 20
8.0459120672
 10
14.8297142523
 20
8.0360921578
 10
14.8110633563
 20
8.0241702691
  0
LWPOLYLINE
  5
5DB
100
AcDbEntity
  8
0
100
AcDbPolyline
 62
9
  6
CONTINUOUS
 90
4
 70
0
 10
15.0947609566
 20
8.1958201658
 10
15.0846354606
 20
8.1880135576
 10
15.0741924696
 20
8.1811069156
 10
15.0708481655
 20
8.179123041
  0
LWPOLYLINE
  5
5DC
100
AcDbEntity
  8
0
100
AcDbPolyline
 62
7
  6
CONTINUOUS
 90
18
 70
0
 10
15.0708116589
 20
8.179101978
 10
15.0949159189
 20
8.1953676074
 10
15.1307410822
 20
8.2300261291
 10
15.1615559666
 20
8.2750141183
 10
15.18538857
 20
8.3290809433
 10
15.2009452007
 20
8.390753912
 10
15.2074656722
 20
8.4585320376
 10
15.2047709693
 20
8.5305090979
 10
15.1934031429
 20
8.6050873677
 10
15.1738658505
 20
8.6807933526
 10
15.1466870177
 20
8.7563778851
 10
15.1124468131
 20
8.8305675487
 10
15.0717996316
 20
8.9020666478
 10
15.0254719034
 20
8.9695946757
 10
14.9742694922
 20
9.0318911734
 10
14.9190534038
 20
9.087757076
 10
14.8607073153
 20
9.1360774753
 10
14.8021691319
 20
9.1746350085
  0
LINE
  5
5DD
100
AcDbEntity
  8
0
100
AcDbLine
 62
7
  6
CONTINUOUS
 10
13.8763905197
 20
8.5591437297
 11
13.8394349401
 21
8.5543323195
  0
LWPOLYLINE
  5
5DE
100
AcDbEntity
  8
0
100
AcDbPolyline
 62
7
  6
CONTINUOUS
 90
5
 70
0
 10
13.8431794415
 20
8.5557521146
 10
13.8801803126
 20
8.5599549772
 10
13.9202496191
 20
8.5550265212
 10
13.9622784292
 20
8.5411182483
 10
13.9727540371
 20
8.53637631
  0
LINE
  5
5DF
100
AcDbEntity
  8
0
100
AcDbLine
 62
7
  6
CONTINUOUS
 10
13.9449261847
 20
8.5923368108
 11
13.9076828509
 21
8.5901393462
  0
LWPOLYLINE
  5
5E0
100
AcDbEntity
  8
0
100
AcDbPolyline
 62
7
  6
CONTINUOUS
 90
4
 70
0
 10
13.8784393848
 20
8.5730773441
 10
13.915691816
 20
8.575162995
 10
13.9551450321
 20
8.5685374364
 10
13.9967416418
 20
8.5532436801
  0
LWPOLYLINE
  5
5E1
100
AcDbEntity
  8
0
100
AcDbPolyline
 62
7
  6
CONTINUOUS
 90
3
 70
0
 10
14.0436656269
 20
8.6570916064
 10
14.0806923199
 20
8.6538335233
 10
14.1194391781
 20
8.6427717924
  0
LINE
  5
5E2
100
AcDbEntity
  8
0
100
AcDbLine
 62
7
  6
CONTINUOUS
 10
14.1345606183
 20
8.6641828674
 11
14.1627373186
 21
8.6568456723
  0
LINE
  5
5E3
100
AcDbEntity
  8
0
100
AcDbLine
 62
7
  6
CONTINUOUS
 10
14.1632346891
 20
8.6804110993
 11
14.1910214721
 21
8.6731754384
  0
LINE
  5
5E4
100
AcDbEntity
  8
0
100
AcDbLine
 62
7
  6
CONTINUOUS
 10
14.1870115209
 20
8.6979145692
 11
14.2193056256
 21
8.6895052046
  0
LINE
  5
5E5
100
AcDbEntity
  8
0
100
AcDbLine
 62
7
  6
CONTINUOUS
 10
14.2555117294
 20
8.7285009674
 11
14.2960621462
 21
8.7138902725
  0
LWPOLYLINE
  5
5E6
100
AcDbEntity
  8
0
100
AcDbPolyline
 62
7
  6
CONTINUOUS
 90
3
 70
0
 10
14.2838797255
 20
8.7160037377
 10
14.2388809565
 20
8.7327909205
 10
14.1993586967
 20
8.7393119103
  0
LWPOLYLINE
  5
5E7
100
AcDbEntity
  8
0
100
AcDbPolyline
 62
7
  6
CONTINUOUS
 90
3
 70
0
 10
14.255595572
 20
8.6996739715
 10
14.2106498835
 20
8.7164469871
 10
14.1711994126
 20
8.7229749401
  0
LWPOLYLINE
  5
5E8
100
AcDbEntity
  8
0
100
AcDbPolyline
 62
7
  6
CONTINUOUS
 90
12
 70
0
 10
14.237502244
 20
8.7092321227
 10
14.2783120374
 20
8.6924787252
 10
14.3194157582
 20
8.6677090314
 10
14.3596686447
 20
8.6356383092
 10
14.3979500773
 20
8.5971889905
 10
14.4331953757
 20
8.5534644976
 10
14.4644260088
 20
8.5057179339
 10
14.4907773601
 20
8.4553165274
 10
14.5115232611
 20
8.4037028366
 10
14.5260965957
 20
8.352353818
 10
14.5341053924
 20
8.3027389181
 10
14.5353439457
 20
8.2562783785
  0
LINE
  5
5E9
100
AcDbEntity
  8
0
100
AcDbLine
 62
7
  6
CONTINUOUS
 10
14.232575792
 20
8.7080908571
 11
14.2722484954
 21
8.6895229141
  0
LWPOLYLINE
  5
5EA
100
AcDbEntity
  8
0
100
AcDbPolyline
 62
7
  6
CONTINUOUS
 90
13
 70
0
 10
14.3247568238
 20
8.7263359893
 10
14.332814853
 20
8.7223466884
 10
14.3741095776
 20
8.6971601211
 10
14.4144983485
 20
8.6646343415
 10
14.4528456869
 20
8.6257139977
 10
14.4880746115
 20
8.5815269743
 10
14.519197499
 20
8.5333520722
 10
14.5453443844
 20
8.4825823654
 10
14.5657878906
 20
8.4306852818
 10
14.5799640703
 20
8.3791605543
 10
14.5874885668
 20
8.3294972461
 10
14.5881676273
 20
8.2831310812
 10
14.5878441484
 20
8.2785604622
  0
LWPOLYLINE
  5
5EB
100
AcDbEntity
  8
0
100
AcDbPolyline
 62
7
  6
CONTINUOUS
 90
12
 70
0
 10
14.2964726703
 20
8.7100062232
 10
14.3075577278
 20
8.7044401649
 10
14.3488254245
 20
8.6786889923
 10
14.3891028021
 20
8.6456608917
 10
14.4272575739
 20
8.6063149053
 10
14.4622182764
 20
8.5617911143
 10
14.4930049722
 20
8.5133779699
 10
14.5187573301
 20
8.4624753728
 10
14.538759278
 20
8.4105545588
 10
14.5524595215
 20
8.359115941
 10
14.5594873419
 20
8.3096461149
 10
14.5595599949
 20
8.262230696
  0
LWPOLYLINE
  5
5EC
100
AcDbEntity
  8
0
100
AcDbPolyline
 62
7
  6
CONTINUOUS
 90
11
 70
0
 10
14.3138509258
 20
8.734764287
 10
14.3549472101
 20
8.7140286039
 10
14.3957785302
 20
8.6855979183
 10
14.4352078538
 20
8.6502913772
 10
14.4721379296
 20
8.6091232278
 10
14.5055424215
 20
8.5632740381
 10
14.5344950307
 20
8.514057199
 10
14.5581957787
 20
8.4628816571
 10
14.575993707
 20
8.4112119368
 10
14.5874053471
 20
8.3605265843
 10
14.5921284393
 20
8.3122762148
  0
LINE
  5
5ED
100
AcDbEntity
  8
0
100
AcDbLine
 62
7
  6
CONTINUOUS
 10
14.3404480325
 20
8.74866327
 11
14.3585151635
 21
8.7393287009
  0
LINE
  5
5EE
100
AcDbEntity
  8
0
100
AcDbLine
 62
7
  6
CONTINUOUS
 10
14.3407926708
 20
8.7484997533
 11
14.3585151635
 21
8.7393287009
  0
LWPOLYLINE
  5
5EF
100
AcDbEntity
  8
0
100
AcDbPolyline
 62
7
  6
CONTINUOUS
 90
11
 70
0
 10
14.2960621462
 20
8.7138902725
 10
14.3371998686
 20
8.6911158998
 10
14.3777791701
 20
8.6608365007
 10
14.4166701693
 20
8.6239236791
 10
14.4527908896
 20
8.5814372595
 10
14.4851379601
 20
8.5345952156
 10
14.5128150859
 20
8.48473911
 10
14.5350584801
 20
8.4332960284
 10
14.5512585357
 20
8.3817380863
 10
14.5609771235
 20
8.3315406584
 10
14.5639600236
 20
8.2841405152
  0
LWPOLYLINE
  5
5F0
100
AcDbEntity
  8
0
100
AcDbPolyline
 62
7
  6
CONTINUOUS
 90
11
 70
0
 10
14.2790972762
 20
8.7167659309
 10
14.3215428564
 20
8.6931676286
 10
14.3631395253
 20
8.662141001
 10
14.4025734304
 20
8.6249200609
 10
14.4397994148
 20
8.5815685804
 10
14.473432265
 20
8.5334966449
 10
14.5021376005
 20
8.4827107196
 10
14.5253301269
 20
8.4305593896
 10
14.5428190215
 20
8.3773837472
 10
14.5537939285
 20
8.3252791443
 10
14.55792053
 20
8.276376039
  0
LWPOLYLINE
  5
5F1
100
AcDbEntity
  8
0
100
AcDbPolyline
 62
7
  6
CONTINUOUS
 90
11
 70
0
 10
14.3075014537
 20
8.7330403193
 10
14.3501221057
 20
8.7093051781
 10
14.3918751418
 20
8.6780894216
 10
14.4314005432
 20
8.6406790276
 10
14.4683224508
 20
8.5975900357
 10
14.5014121154
 20
8.5503090139
 10
14.5300067762
 20
8.4998628286
 10
14.5533593302
 20
8.4475467805
 10
14.5709843696
 20
8.3941520757
 10
14.5820467639
 20
8.3418191748
 10
14.5862046835
 20
8.2927058052
  0
LINE
  5
5F2
100
AcDbEntity
  8
0
100
AcDbLine
 62
7
  6
CONTINUOUS
 10
14.3943338228
 20
8.714676737
 11
14.3517738995
 21
8.7414158824
  0
LWPOLYLINE
  5
5F3
100
AcDbEntity
  8
0
100
AcDbPolyline
 62
7
  6
CONTINUOUS
 90
3
 70
0
 10
14.3585151635
 20
8.7393287009
 10
14.3976732347
 20
8.7131627247
 10
14.4358673219
 20
8.6805237064
  0
LWPOLYLINE
  5
5F4
100
AcDbEntity
  8
0
100
AcDbPolyline
 62
7
  6
CONTINUOUS
 90
3
 70
0
 10
14.887414424
 20
7.7917860302
 10
14.8963435304
 20
7.8210230406
 10
14.897459588
 20
7.8358663406
  0
LWPOLYLINE
  5
5F5
100
AcDbEntity
  8
0
100
AcDbPolyline
 62
7
  6
CONTINUOUS
 90
6
 70
0
 10
13.8465222936
 20
8.5392981029
 10
13.8201051192
 20
8.5327405921
 10
13.7937586726
 20
8.5188337332
 10
13.7702092701
 20
8.4967877776
 10
13.7514014966
 20
8.4668552565
 10
13.7384952244
 20
8.4298634654
  0
LINE
  5
5F6
100
AcDbEntity
  8
0
100
AcDbLine
 62
7
  6
CONTINUOUS
 10
13.9036590671
 20
8.5762592639
 11
13.8689927399
 21
8.5714407418
  0
LINE
  5
5F7
100
AcDbEntity
  8
0
100
AcDbLine
 62
7
  6
CONTINUOUS
 10
13.8958626858
 20
8.5869540197
 11
13.9305290129
 21
8.5917725418
  0
LINE
  5
5F8
100
AcDbEntity
  8
0
100
AcDbLine
 62
7
  6
CONTINUOUS
 10
14.0167956811
 20
8.6415783285
 11
13.9821293539
 21
8.6367598064
  0
LINE
  5
5F9
100
AcDbEntity
  8
0
100
AcDbLine
 62
7
  6
CONTINUOUS
 10
14.0089992997
 20
8.6522730843
 11
14.0436656269
 21
8.6570916064
  0
LINE
  5
5FA
100
AcDbEntity
  8
0
100
AcDbLine
 62
7
  6
CONTINUOUS
 10
14.0580627986
 20
8.6576558754
 11
14.0208194648
 21
8.6554584109
  0
LINE
  5
5FB
100
AcDbEntity
  8
0
100
AcDbLine
 62
7
  6
CONTINUOUS
 10
13.9730854688
 20
8.6086737811
 11
13.9361728066
 21
8.6065074233
  0
LINE
  5
5FC
100
AcDbEntity
  8
0
100
AcDbLine
 62
7
  6
CONTINUOUS
 10
14.0862220828
 20
8.6739928457
 11
14.0493094205
 21
8.6718264879
  0
LINE
  5
5FD
100
AcDbEntity
  8
0
100
AcDbLine
 62
7
  6
CONTINUOUS
 10
14.0019584841
 20
8.6249687818
 11
13.9647060529
 21
8.6228831309
  0
LWPOLYLINE
  5
5FE
100
AcDbEntity
  8
0
100
AcDbPolyline
 62
7
  6
CONTINUOUS
 90
4
 70
0
 10
13.9915759988
 20
8.6383964087
 10
14.02882843
 20
8.6404820596
 10
14.0682816461
 20
8.6338565011
 10
14.1098782557
 20
8.6185627447
  0
LINE
  5
5FF
100
AcDbEntity
  8
0
100
AcDbLine
 62
7
  6
CONTINUOUS
 10
14.1150950981
 20
8.6902878464
 11
14.0778426669
 21
8.6882021955
  0
LWPOLYLINE
  5
600
100
AcDbEntity
  8
0
100
AcDbPolyline
 62
7
  6
CONTINUOUS
 90
3
 70
0
 10
14.1568022408
 20
8.722410671
 10
14.1938289339
 20
8.7191525879
 10
14.232575792
 20
8.7080908571
  0
LINE
  5
601
100
AcDbEntity
  8
0
100
AcDbLine
 62
7
  6
CONTINUOUS
 10
14.2467321369
 20
8.7298619693
 11
14.2555117294
 21
8.7285009674
  0
LINE
  5
602
100
AcDbEntity
  8
0
100
AcDbLine
 62
7
  6
CONTINUOUS
 10
14.220361273
 20
8.7128228511
 11
14.237502244
 21
8.7092321227
  0
LINE
  5
603
100
AcDbEntity
  8
0
100
AcDbLine
 62
7
  6
CONTINUOUS
 10
14.2736342282
 20
8.7472041631
 11
14.3138509258
 21
8.734764287
  0
LWPOLYLINE
  5
604
100
AcDbEntity
  8
0
100
AcDbPolyline
 62
7
  6
CONTINUOUS
 90
4
 70
0
 10
14.312163879
 20
8.7323335038
 10
14.2676849282
 20
8.7489813525
 10
14.228231712
 20
8.755606911
 10
14.1909792808
 20
8.7535212601
  0
LWPOLYLINE
  5
605
100
AcDbEntity
  8
0
100
AcDbPolyline
 62
7
  6
CONTINUOUS
 90
4
 70
0
 10
14.3517738995
 20
8.7414158824
 10
14.3093599257
 20
8.7599782723
 10
14.2682593809
 20
8.7698314276
 10
14.2296014074
 20
8.7706873223
  0
LINE
  5
606
100
AcDbEntity
  8
0
100
AcDbLine
 62
7
  6
CONTINUOUS
 10
14.3407927176
 20
8.7484991083
 11
14.3404480325
 21
8.74866327
  0
LWPOLYLINE
  5
607
100
AcDbEntity
  8
0
100
AcDbPolyline
 62
9
  6
CONTINUOUS
 90
5
 70
0
 10
14.3850315574
 20
8.7421861948
 10
14.3453696911
 20
8.7612665299
 10
14.3069198883
 20
8.7721633133
 10
14.2707138403
 20
8.7746541181
 10
14.2508770176
 20
8.7710978247
  0
LWPOLYLINE
  5
608
100
AcDbEntity
  8
0
100
AcDbPolyline
 62
9
  6
CONTINUOUS
 90
7
 70
0
 10
14.3938703554
 20
8.7574955269
 10
14.3527535795
 20
8.7772767149
 10
14.3128835388
 20
8.7885774568
 10
14.2753399034
 20
8.7911618116
 10
14.2410868573
 20
8.7850223193
 10
14.2109978162
 20
8.7703455042
 10
14.206215504
 20
8.7660014488
  0
LINE
  5
609
100
AcDbEntity
  8
0
100
AcDbLine
 62
9
  6
CONTINUOUS
 10
14.4852752163
 20
8.8392891088
 11
14.4307426759
 21
8.8816989212
  0
LWPOLYLINE
  5
60A
100
AcDbEntity
  8
0
100
AcDbPolyline
 62
7
  6
CONTINUOUS
 90
5
 70
0
 10
14.8671996922
 20
7.726690009
 10
14.8741818296
 20
7.7365313721
 10
14.8858388352
 20
7.7594522697
 10
14.8917271868
 20
7.7830976556
 10
14.8924659874
 20
7.7950412216
  0
LWPOLYLINE
  5
60B
100
AcDbEntity
  8
0
100
AcDbPolyline
 62
7
  6
CONTINUOUS
 90
4
 70
0
 10
14.8110633563
 20
7.7154353199
 10
14.8441165449
 20
7.7381777394
 10
14.8698273036
 20
7.7638883778
 10
14.887414424
 20
7.7917860302
  0
LINE
  5
60C
100
AcDbEntity
  8
0
100
AcDbLine
 62
7
  6
CONTINUOUS
 10
14.129932295
 20
8.7068973932
 11
14.0952659679
 21
8.702078871
  0
LINE
  5
60D
100
AcDbEntity
  8
0
100
AcDbLine
 62
7
  6
CONTINUOUS
 10
14.1221359137
 20
8.7175921489
 11
14.1568022408
 21
8.722410671
  0
LINE
  5
60E
100
AcDbEntity
  8
0
100
AcDbLine
 62
7
  6
CONTINUOUS
 10
14.1711994126
 20
8.7229749401
 11
14.1339560788
 21
8.7207774755
  0
LINE
  5
60F
100
AcDbEntity
  8
0
100
AcDbLine
 62
7
  6
CONTINUOUS
 10
14.1993586967
 20
8.7393119103
 11
14.1624460345
 21
8.7371455525
  0
LWPOLYLINE
  5
610
100
AcDbEntity
  8
0
100
AcDbPolyline
 62
7
  6
CONTINUOUS
 90
4
 70
0
 10
14.1047126127
 20
8.7037154733
 10
14.1419650439
 20
8.7058011242
 10
14.1814182601
 20
8.6991755657
 10
14.2230148697
 20
8.6838818093
  0
LINE
  5
611
100
AcDbEntity
  8
0
100
AcDbLine
 62
7
  6
CONTINUOUS
 10
14.2720019548
 20
8.7473655498
 11
14.2736342282
 21
8.7472041631
  0
LWPOLYLINE
  5
612
100
AcDbEntity
  8
0
100
AcDbPolyline
 62
9
  6
CONTINUOUS
 90
13
 70
0
 10
14.4307426759
 20
8.8816989212
 10
14.3754119612
 20
8.9152118277
 10
14.320480815
 20
8.939102375
 10
14.2671383306
 20
8.9528534049
 10
14.2165392119
 20
8.9561672492
 10
14.169778777
 20
8.9489721731
 10
14.1278692479
 20
8.9314239283
 10
14.0917178396
 20
8.9039023813
 10
14.0621071207
 20
8.8670032905
 10
14.0396780739
 20
8.8215254097
 10
14.0249162205
 20
8.7684531978
 10
14.0181411098
 20
8.7089355079
 10
14.0191268856
 20
8.6619980236
  0
LINE
  5
613
100
AcDbEntity
  8
0
100
AcDbLine
 62
7
  6
CONTINUOUS
 10
14.8671996922
 20
7.726690009
 11
14.8408472653
 21
7.6926687831
  0
LWPOLYLINE
  5
614
100
AcDbEntity
  8
0
100
AcDbPolyline
 62
7
  6
CONTINUOUS
 90
4
 70
0
 10
14.7871153082
 20
7.6476111774
 10
14.8125732519
 20
7.664690638
 10
14.8333377465
 20
7.6837699495
 10
14.8408427628
 20
7.6926671694
  0
LWPOLYLINE
  5
615
100
AcDbEntity
  8
0
100
AcDbPolyline
 62
7
  6
CONTINUOUS
 90
4
 70
0
 10
14.8075278077
 20
7.6766514028
 10
14.8346236708
 20
7.6947052086
 10
14.856993473
 20
7.7148015664
 10
14.8671996922
 20
7.726690009
  0
LWPOLYLINE
  5
616
100
AcDbEntity
  8
0
100
AcDbPolyline
 62
7
  6
CONTINUOUS
 90
15
 70
0
 10
14.8075278077
 20
7.6766514028
 10
14.7762574772
 20
7.6610076722
 10
14.7414492532
 20
7.6480924782
 10
14.7038117307
 20
7.6381687368
 10
14.6641111011
 20
7.6314384669
 10
14.6231555548
 20
7.6280386772
 10
14.5817788286
 20
7.6280385778
 10
14.5408232332
 20
7.6314381705
 10
14.5011225066
 20
7.6381682496
 10
14.4634848409
 20
7.6480918101
 10
14.4286764307
 20
7.6610068367
 10
14.3974058746
 20
7.676650417
 10
14.3703097511
 20
7.6947040926
 10
14.347939659
 20
7.7148003428
 10
14.3377322826
 20
7.726690009
  0
LWPOLYLINE
  5
617
100
AcDbEntity
  8
0
100
AcDbPolyline
 62
7
  6
CONTINUOUS
 90
14
 70
0
 10
14.7871153082
 20
7.6476111774
 10
14.7575326038
 20
7.6329130947
 10
14.7244859674
 20
7.6209247206
 10
14.6887136063
 20
7.6119138558
 10
14.6510146159
 20
7.6060817879
 10
14.6122311294
 20
7.6035587958
 10
14.5732295057
 20
7.6044012389
 10
14.5348809767
 20
7.6085902985
 10
14.4980421852
 20
7.6160323979
 10
14.4635360489
 20
7.6265612929
 10
14.4321333778
 20
7.6399417853
 10
14.4045356558
 20
7.6558749771
 10
14.3813593703
 20
7.6740049471
 10
14.3640818663
 20
7.6926726804
  0
LINE
  5
618
100
AcDbEntity
  8
0
100
AcDbLine
 62
7
  6
CONTINUOUS
 10
14.2296014074
 20
8.7706873223
 11
14.1944470435
 21
8.7625092602
  0
LWPOLYLINE
  5
619
100
AcDbEntity
  8
AXIS
100
AcDbPolyline
 62
7
  6
CONTINUOUS
 90
11
 70
0
 10
14.6848442704
 20
7.1881448722
 10
14.6627362578
 20
7.1781449215
 10
14.6371255562
 20
7.1714901487
 10
14.6095005665
 20
7.1685673051
 10
14.5814667526
 20
7.1695462555
 10
14.5546533379
 20
7.1743701071
 10
14.5306186205
 20
7.1827585151
 10
14.510759411
 20
7.1942239756
 10
14.4962298544
 20
7.2081001579
 10
14.4878743557
 20
7.2235806287
 10
14.4859711962
 20
7.235719806
  0
LWPOLYLINE
  5
61A
100
AcDbEntity
  8
0
100
AcDbPolyline
 62
7
  6
CONTINUOUS
 90
8
 70
0
 10
14.8021714565
 20
9.174633665
 10
14.7493548085
 20
9.201309044
 10
14.6942881706
 20
9.220930346
 10
14.640442928
 20
9.2316772906
 10
14.5893037196
 20
9.2334575356
 10
14.5415785092
 20
9.2266566196
 10
14.4978101791
 20
9.2117628509
 10
14.4765470656
 20
9.2008591227
  0
LWPOLYLINE
  5
61B
100
AcDbEntity
  8
0
100
AcDbPolyline
 62
9
  6
CONTINUOUS
 90
57
 70
0
 10
14.7721709083
 20
9.1716626037
 10
14.7891002562
 20
9.1614925428
 10
14.8060018101
 20
9.1505469417
 10
14.8228478217
 20
9.1388437705
 10
14.8396106339
 20
9.126402243
 10
14.8562627261
 20
9.1132427853
 10
14.8727767596
 20
9.099387002
 10
14.8891256222
 20
9.084857641
 10
14.905282473
 20
9.0696785561
 10
14.9212207864
 20
9.0538746677
 10
14.9369143953
 20
9.037471922
 10
14.9523375347
 20
9.0204972485
 10
14.9674648833
 20
9.0029785156
 10
14.9822716058
 20
8.9849444847
 10
14.996733393
 20
8.9664247635
 10
15.010826502
 20
8.947449757
 10
15.0245277954
 20
8.9280506176
 10
15.0378147789
 20
8.9082591941
 10
15.0506656384
 20
8.8881079792
 10
15.0630592758
 20
8.8676300566
 10
15.0749753438
 20
8.846859046
 10
15.0863942791
 20
8.8258290484
 10
15.0972973345
 20
8.8045745901
 10
15.1076666094
 20
8.7831305664
 10
15.1174850802
 20
8.7615321833
 10
15.1267366276
 20
8.739814899
 10
15.1354060633
 20
8.7180143668
 10
15.1434791537
 20
8.6961663788
 10
15.1509426425
 20
8.6743068105
 10
15.1577842783
 20
8.6524715456
 10
15.1639928425
 20
8.6306963818
 10
15.1695581253
 20
8.6090171201
 10
15.1744709706
 20
8.5874694436
 10
15.1787233089
 20
8.5660887924
 10
15.182308202
 20
8.5449100802
 10
15.1852198023
 20
8.5239677502
 10
15.187452508
 20
8.5033047303
 10
15.1890011847
 20
8.4829926711
 10
15.1898675163
 20
8.4630795621
 10
15.190055245
 20
8.4436073497
 10
15.1895361601
 20
8.4245747243
 10
15.1883067926
 20
8.4059522467
 10
15.1863746683
 20
8.3877194175
 10
15.1837394043
 20
8.3698580833
 10
15.1804050973
 20
8.3524125859
 10
15.1763923851
 20
8.3354846545
 10
15.1717316038
 20
8.3191650993
 10
15.1664483484
 20
8.3034966949
 10
15.1605619652
 20
8.2884977898
 10
15.1540911419
 20
8.2741876674
 10
15.1470611624
 20
8.2605994212
 10
15.1395018303
 20
8.2477687033
 10
15.1314406778
 20
8.2357214564
 10
15.1229061362
 20
8.224481664
 10
15.1139276581
 20
8.2140715959
 10
15.104535572
 20
8.204511629
 10
15.0947609566
 20
8.1958201658
  0
LINE
  5
61C
100
AcDbEntity
  8
AXIS
100
AcDbLine
 62
7
  6
CONTINUOUS
 10
4.2194213287
 20
4.0321071276
 11
3.9864213287
 21
4.0321071276
  0
LINE
  5
61D
100
AcDbEntity
  8
0
100
AcDbLine
 62
7
  6
CONTINUOUS
 10
4.3640538152
 20
4.6671464977
 11
3.8417888421
 21
4.6671464977
  0
LINE
  5
61E
100
AcDbEntity
  8
0
100
AcDbLine
 62
7
  6
CONTINUOUS
 10
4.3929213287
 20
4.7171464977
 11
3.8129213287
 21
4.7171464977
  0
LINE
  5
61F
100
AcDbEntity
  8
0
100
AcDbLine
 62
7
  6
CONTINUOUS
 10
3.8129213287
 20
4.7171464977
 11
3.8417888421
 21
4.6671464977
  0
LINE
  5
620
100
AcDbEntity
  8
0
100
AcDbLine
 62
7
  6
CONTINUOUS
 10
3.8079213287
 20
4.7671464977
 11
4.3979213287
 21
4.7671464977
  0
LINE
  5
621
100
AcDbEntity
  8
0
100
AcDbLine
 62
7
  6
CONTINUOUS
 10
3.8079213287
 20
4.7671464977
 11
3.8079213287
 21
5.1452653406
  0
LINE
  5
622
100
AcDbEntity
  8
0
100
AcDbLine
 62
7
  6
CONTINUOUS
 10
3.8129213287
 20
4.7671464977
 11
3.8129213287
 21
4.7171464977
  0
LINE
  5
623
100
AcDbEntity
  8
AXIS_COSMETIC_THREADS
100
AcDbLine
 62
7
  6
CONTINUOUS
 10
3.8179213287
 20
5.5907499987
 11
3.8179213287
 21
5.7935429966
  0
LWPOLYLINE
  5
624
100
AcDbEntity
  8
0
100
AcDbPolyline
 62
9
  6
CONTINUOUS
 90
6
 70
0
 10
3.8818103577
 20
5.0969120901
 10
3.85432623
 20
5.1128286222
 10
3.8331409343
 20
5.1267212248
 10
3.8185708085
 20
5.1371566317
 10
3.8104071383
 20
5.1433351056
 10
3.8079213287
 20
5.1452653406
  0
LINE
  5
625
100
AcDbEntity
  8
AXIS
100
AcDbLine
 62
7
  6
CONTINUOUS
 10
3.9864213287
 20
4.6671464977
 11
3.9864213287
 21
4.0321071276
  0
LINE
  5
626
100
AcDbEntity
  8
AXIS_COSMETIC_THREADS
100
AcDbLine
 62
7
  6
CONTINUOUS
 10
3.9864213287
 20
4.6671464977
 11
3.9864213287
 21
4.0321071276
  0
LWPOLYLINE
  5
627
100
AcDbEntity
  8
0
100
AcDbPolyline
 62
9
  6
CONTINUOUS
 90
8
 70
0
 10
3.8613247722
 20
5.1516882626
 10
3.8837672984
 20
5.1437103957
 10
3.9088494276
 20
5.138553027
 10
3.9374842455
 20
5.1360322167
 10
3.970639061
 20
5.1363448803
 10
4.0091401577
 20
5.1399925371
 10
4.053381902
 20
5.1476821642
 10
4.1029213287
 20
5.1601464977
  0
LWPOLYLINE
  5
628
100
AcDbEntity
  8
0
100
AcDbPolyline
 62
9
  6
CONTINUOUS
 90
8
 70
0
 10
3.8818103577
 20
5.0969120901
 10
3.90273733
 20
5.0892923259
 10
3.9266330152
 20
5.0870032955
 10
3.9540245704
 20
5.0898327679
 10
3.9854300963
 20
5.0980869622
 10
4.0210858228
 20
5.1123272219
 10
4.0606468679
 20
5.1330292712
 10
4.1029213287
 20
5.1601464977
  0
LINE
  5
629
100
AcDbEntity
  8
0
100
AcDbLine
 62
7
  6
CONTINUOUS
 10
3.7805900403
 20
5.1955918274
 11
3.7809526661
 21
5.1953545684
  0
LWPOLYLINE
  5
62A
100
AcDbEntity
  8
0
100
AcDbPolyline
 62
9
  6
CONTINUOUS
 90
6
 70
0
 10
3.8613247722
 20
5.1516882626
 10
3.8703672062
 20
5.1455705455
 10
3.8772919227
 20
5.1363794836
 10
3.8816615457
 20
5.1246955988
 10
3.8832000828
 20
5.1112568637
 10
3.8818103577
 20
5.0969120901
  0
LINE
  5
62B
100
AcDbEntity
  8
DEFAULT_1
100
AcDbLine
 62
7
  6
CENTER
 10
4.1029213287
 20
5.6921464977
 11
4.1029213287
 21
5.4778825232
  0
LINE
  5
62C
100
AcDbEntity
  8
DEFAULT_1
100
AcDbLine
 62
7
  6
CENTER
 10
4.1029213287
 20
5.6921464977
 11
4.1029213287
 21
5.9002332293
  0
LWPOLYLINE
  5
62D
100
AcDbEntity
  8
0
100
AcDbPolyline
 62
9
  6
CONTINUOUS
 90
8
 70
0
 10
4.1029213287
 20
5.1601464977
 10
4.1524607553
 20
5.1476821642
 10
4.1967024996
 20
5.1399925371
 10
4.2352035963
 20
5.1363448803
 10
4.2683584118
 20
5.1360322167
 10
4.2969932297
 20
5.138553027
 10
4.3220753589
 20
5.1437103957
 10
4.3445178851
 20
5.1516882626
  0
LWPOLYLINE
  5
62E
100
AcDbEntity
  8
0
100
AcDbPolyline
 62
9
  6
CONTINUOUS
 90
8
 70
0
 10
4.1029213287
 20
5.1601464977
 10
4.1451957894
 20
5.1330292712
 10
4.1847568345
 20
5.1123272219
 10
4.220412561
 20
5.0980869622
 10
4.2518180869
 20
5.0898327679
 10
4.2792096421
 20
5.0870032955
 10
4.3031053273
 20
5.0892923259
 10
4.3240322997
 20
5.0969120901
  0
LINE
  5
62F
100
AcDbEntity
  8
AXIS
100
AcDbLine
 62
7
  6
CONTINUOUS
 10
4.2194213287
 20
4.6671464977
 11
4.2194213287
 21
4.0321071276
  0
LINE
  5
630
100
AcDbEntity
  8
AXIS_COSMETIC_THREADS
100
AcDbLine
 62
7
  6
CONTINUOUS
 10
4.2194213287
 20
4.6671464977
 11
4.2194213287
 21
4.0321071276
  0
LWPOLYLINE
  5
631
100
AcDbEntity
  8
0
100
AcDbPolyline
 62
9
  6
CONTINUOUS
 90
6
 70
0
 10
4.3445178851
 20
5.1516882626
 10
4.3354754511
 20
5.1455705455
 10
4.3285507346
 20
5.1363794836
 10
4.3241811116
 20
5.1246955988
 10
4.3226425745
 20
5.1112568637
 10
4.3240322997
 20
5.0969120901
  0
LINE
  5
632
100
AcDbEntity
  8
0
100
AcDbLine
 62
7
  6
CONTINUOUS
 10
4.425252617
 20
5.1955918274
 11
4.4248922149
 21
5.1953560348
  0
LWPOLYLINE
  5
633
100
AcDbEntity
  8
0
100
AcDbPolyline
 62
7
  6
CONTINUOUS
 90
17
 70
0
 10
4.1029213287
 20
5.3381464977
 10
4.1512413951
 20
5.3422615441
 10
4.2009220249
 20
5.3536798128
 10
4.2475422195
 20
5.3717255531
 10
4.2901537153
 20
5.3955604265
 10
4.3290899375
 20
5.4251244675
 10
4.3646100029
 20
5.4610913071
 10
4.3958150615
 20
5.5038174989
 10
4.4204637736
 20
5.5514333163
 10
4.437267129
 20
5.6013960634
 10
4.4465032482
 20
5.6555749924
 10
4.4469911486
 20
5.7110880311
 10
4.4384564678
 20
5.7663811107
 10
4.4212767206
 20
5.819042812
 10
4.3960910469
 20
5.867839804
 10
4.3633941556
 20
5.9119963429
 10
4.3243855132
 20
5.9500272513
  0
LWPOLYLINE
  5
634
100
AcDbEntity
  8
0
100
AcDbPolyline
 62
9
  6
CONTINUOUS
 90
6
 70
0
 10
4.3979213287
 20
5.1452653406
 10
4.3954356498
 20
5.1433352065
 10
4.3872722642
 20
5.1371569399
 10
4.3727023754
 20
5.1267216756
 10
4.3515170222
 20
5.1128289919
 10
4.3240322997
 20
5.0969120901
  0
LINE
  5
635
100
AcDbEntity
  8
AXIS_COSMETIC_THREADS
100
AcDbLine
 62
7
  6
CONTINUOUS
 10
4.3879213287
 20
5.7935429966
 11
4.3879213287
 21
5.5907499987
  0
LINE
  5
636
100
AcDbEntity
  8
0
100
AcDbLine
 62
7
  6
CONTINUOUS
 10
4.3929213287
 20
4.7671464977
 11
4.3929213287
 21
4.7171464977
  0
LINE
  5
637
100
AcDbEntity
  8
0
100
AcDbLine
 62
7
  6
CONTINUOUS
 10
4.3979213287
 20
4.7671464977
 11
4.3979213287
 21
5.1452653406
  0
LINE
  5
638
100
AcDbEntity
  8
0
100
AcDbLine
 62
7
  6
CONTINUOUS
 10
4.3929213287
 20
4.7171464977
 11
4.3640538152
 21
4.6671464977
  0
LINE
  5
639
100
AcDbEntity
  8
DEFAULT_1
100
AcDbLine
 62
7
  6
CENTER
 10
4.1029213287
 20
5.6921464977
 11
3.9074602138
 21
5.6921464977
  0
LINE
  5
63A
100
AcDbEntity
  8
DEFAULT_1
100
AcDbLine
 62
7
  6
CENTER
 10
4.1029213287
 20
5.6921464977
 11
4.2845590585
 21
5.6921464977
  0
LINE
  5
63B
100
AcDbEntity
  8
0
100
AcDbLine
 62
7
  6
CONTINUOUS
 10
4.2800483421
 20
5.9811915134
 11
4.3204817154
 21
5.9514374209
  0
LWPOLYLINE
  5
63C
100
AcDbEntity
  8
0
100
AcDbPolyline
 62
7
  6
CONTINUOUS
 90
18
 70
0
 10
4.0237833503
 20
6.0217799007
 10
3.9891476326
 20
6.0121353075
 10
3.9545692957
 20
5.9983490434
 10
3.9188525863
 20
5.9791251197
 10
3.8814932154
 20
5.9524146923
 10
3.8442338685
 20
5.9167532635
 10
3.8109301228
 20
5.873101339
 10
3.7843320251
 20
5.823143191
 10
3.7660798759
 20
5.7687121675
 10
3.7571132154
 20
5.7122395708
 10
3.757565843
 20
5.6550010473
 10
3.7674703506
 20
5.5983988363
 10
3.78642235
 20
5.5444758788
 10
3.8139691424
 20
5.4942875132
 10
3.8494162535
 20
5.4491617687
 10
3.8919034119
 20
5.4102864611
 10
3.940534771
 20
5.3786558094
 10
3.9935293126
 20
5.3554724909
  0
LWPOLYLINE
  5
63D
100
AcDbEntity
  8
0
100
AcDbPolyline
 62
7
  6
CONTINUOUS
 90
6
 70
0
 10
4.2800483421
 20
5.9811915134
 10
4.2327244864
 20
6.0053112151
 10
4.1822896242
 20
6.0217245213
 10
4.1298454146
 20
6.0300756228
 10
4.0764653926
 20
6.0301125958
 10
4.0237833503
 20
6.0217799007
  0
LINE
  5
63E
100
AcDbEntity
  8
0
100
AcDbLine
 62
7
  6
CONTINUOUS
 10
4.3243855132
 20
5.9500272513
 11
4.2800483421
 21
5.9811915134
  0
LINE
  5
63F
100
AcDbEntity
  8
0
100
AcDbLine
 62
7
  6
CONTINUOUS
 10
4.0237833503
 20
6.0217799007
 11
4.0632285489
 21
6.0277977878
  0
LINE
  5
640
100
AcDbEntity
  8
0
100
AcDbLine
 62
7
  6
CONTINUOUS
 10
4.4519196656
 20
7.8326866507
 11
4.4569213287
 21
7.8337580797
  0
LINE
  5
641
100
AcDbEntity
  8
0
100
AcDbLine
 62
7
  6
CONTINUOUS
 10
3.7489686279
 20
7.8116540097
 11
3.7561457672
 21
7.8037580797
  0
LINE
  5
642
100
AcDbEntity
  8
0
100
AcDbLine
 62
7
  6
CONTINUOUS
 10
3.7489686279
 20
7.8516540097
 11
3.7639707199
 21
7.8351494057
  0
LINE
  5
643
100
AcDbEntity
  8
0
100
AcDbLine
 62
7
  6
CONTINUOUS
 10
3.5109213287
 20
8.8337580797
 11
3.5109213287
 21
8.4537580797
  0
LINE
  5
644
100
AcDbEntity
  8
AXIS_COSMETIC_THREADS
100
AcDbLine
 62
7
  6
CONTINUOUS
 10
3.5119213287
 20
8.8487580797
 11
3.5119213287
 21
8.9287564557
  0
LINE
  5
645
100
AcDbEntity
  8
0
100
AcDbLine
 62
7
  6
CONTINUOUS
 10
3.5389213287
 20
8.8337580797
 11
3.5389213287
 21
8.8487580797
  0
LINE
  5
646
100
AcDbEntity
  8
0
100
AcDbLine
 62
7
  6
CONTINUOUS
 10
4.4569213287
 20
7.8737580797
 11
4.4526171117
 21
7.8727643195
  0
LINE
  5
647
100
AcDbEntity
  8
0
100
AcDbLine
 62
7
  6
CONTINUOUS
 10
4.4368854294
 20
7.8541593955
 11
4.4418719374
 21
7.8551494057
  0
LWPOLYLINE
  5
648
100
AcDbEntity
  8
0
100
AcDbPolyline
 62
7
  6
CONTINUOUS
 90
19
 70
0
 10
4.4568740294
 20
7.8316540097
 10
4.4518682864
 20
7.8306811486
 10
4.4368526048
 20
7.8296041736
 10
4.4123031706
 20
7.8285272053
 10
4.378922372
 20
7.8274502817
 10
4.337662456
 20
7.8263733611
 10
4.2897011471
 20
7.825296439
 10
4.2364068788
 20
7.8242195012
 10
4.179301852
 20
7.8231425646
 10
4.1200143039
 20
7.8220655926
 10
4.0602378914
 20
7.8209886052
 10
4.0016810819
 20
7.8199116354
 10
3.9460159752
 20
7.8188346909
 10
3.8948300531
 20
7.8177577396
 10
3.8495851535
 20
7.8166807925
 10
3.8115725776
 20
7.815603839
 10
3.7818775317
 20
7.814526872
 10
3.7613480094
 20
7.8134498825
 10
3.7505708894
 20
7.8123728975
  0
LWPOLYLINE
  5
649
100
AcDbEntity
  8
0
100
AcDbPolyline
 62
7
  6
CONTINUOUS
 90
7
 70
0
 10
4.2800483421
 20
7.8037580797
 10
4.3262045151
 20
7.8048355445
 10
4.3659800369
 20
7.8059130092
 10
4.3982382622
 20
7.806990474
 10
4.4220573642
 20
7.8080679388
 10
4.4367566762
 20
7.8091454036
 10
4.4419213287
 20
7.8102580797
  0
LWPOLYLINE
  5
64A
100
AcDbEntity
  8
0
100
AcDbPolyline
 62
7
  6
CONTINUOUS
 90
12
 70
0
 10
4.0237833503
 20
7.8037580797
 10
4.0801670696
 20
7.8048304481
 10
4.1371949038
 20
7.8059028165
 10
4.1932525408
 20
7.8069751849
 10
4.2467531321
 20
7.8080475534
 10
4.2961822129
 20
7.8091199218
 10
4.3401405722
 20
7.8101922902
 10
4.3773838614
 20
7.8112646586
 10
4.4068578182
 20
7.812337027
 10
4.4277281102
 20
7.8134093955
 10
4.4394039528
 20
7.8144817639
 10
4.4418719374
 20
7.8151494057
  0
LINE
  5
64B
100
AcDbEntity
  8
0
100
AcDbLine
 62
7
  6
CONTINUOUS
 10
4.4478731499
 20
7.8037580797
 11
3.7561494177
 21
7.8037580797
  0
LINE
  5
64C
100
AcDbEntity
  8
0
100
AcDbLine
 62
7
  6
CONTINUOUS
 10
3.7489686279
 20
7.8916540097
 11
3.7639707199
 21
7.8751494057
  0
LINE
  5
64D
100
AcDbEntity
  8
0
100
AcDbLine
 62
7
  6
CONTINUOUS
 10
3.7489686279
 20
7.9316540097
 11
3.7639707199
 21
7.9151494057
  0
LINE
  5
64E
100
AcDbEntity
  8
0
100
AcDbLine
 62
7
  6
CONTINUOUS
 10
3.7489213287
 20
7.8117580727
 11
3.7489686279
 21
7.8116540097
  0
LINE
  5
64F
100
AcDbEntity
  8
0
100
AcDbLine
 62
7
  6
CONTINUOUS
 10
4.4569213287
 20
7.9137580797
 11
4.4521336541
 21
7.912709874
  0
LWPOLYLINE
  5
650
100
AcDbEntity
  8
0
100
AcDbPolyline
 62
7
  6
CONTINUOUS
 90
20
 70
0
 10
3.7647183059
 20
7.8306946994
 10
3.7734638162
 20
7.8317721642
 10
3.7916240682
 20
7.832849629
 10
3.8186801053
 20
7.8339270938
 10
3.8538587609
 20
7.8350045585
 10
3.8961547522
 20
7.8360820233
 10
3.9443594079
 20
7.8371594881
 10
3.9970952079
 20
7.8382369529
 10
4.0528551476
 20
7.8393144177
 10
4.1100458035
 20
7.8403918825
 10
4.1670328668
 20
7.8414693473
 10
4.2221878469
 20
7.8425468121
 10
4.2739346078
 20
7.8436242769
 10
4.3207944082
 20
7.8447017416
 10
4.3614281592
 20
7.8457792064
 10
4.3946746906
 20
7.8468566712
 10
4.4195839329
 20
7.847934136
 10
4.4354440673
 20
7.8490116008
 10
4.4418018667
 20
7.8500890656
 10
4.4419213287
 20
7.8502580797
  0
LWPOLYLINE
  5
651
100
AcDbEntity
  8
0
100
AcDbPolyline
 62
7
  6
CONTINUOUS
 90
18
 70
0
 10
3.7511432971
 20
7.8144717372
 10
3.7627478137
 20
7.8155432233
 10
3.7839659811
 20
7.8166147098
 10
3.8141972716
 20
7.8176861691
 10
3.8525880736
 20
7.8187576357
 10
3.8980541903
 20
7.8198291224
 10
3.9493096369
 20
7.8209006005
 10
4.0049045206
 20
7.8219720465
 10
4.0632705262
 20
7.8230435157
 10
4.1227580434
 20
7.8241150024
 10
4.1816840089
 20
7.8251864716
 10
4.2383824827
 20
7.8262579087
 10
4.2912546354
 20
7.8273293798
 10
4.3388049622
 20
7.8284008631
 10
4.379688016
 20
7.8294723176
 10
4.4127487905
 20
7.8305437334
 10
4.4370553552
 20
7.8316151859
 10
4.4519196656
 20
7.8326866507
  0
LWPOLYLINE
  5
652
100
AcDbEntity
  8
0
100
AcDbPolyline
 62
7
  6
CONTINUOUS
 90
9
 70
0
 10
4.4526171117
 20
7.8727643195
 10
4.4398188391
 20
7.8717711279
 10
4.4187209443
 20
7.870773299
 10
4.3899469657
 20
7.8697775065
 10
4.353946625
 20
7.8687761497
 10
4.3111903999
 20
7.867762373
 10
4.2631784152
 20
7.8667488885
 10
4.2118062684
 20
7.8657484937
 10
4.158024306
 20
7.8647530761
  0
LWPOLYLINE
  5
653
100
AcDbEntity
  8
0
100
AcDbPolyline
 62
7
  6
CONTINUOUS
 90
19
 70
0
 10
3.7537082437
 20
7.852806202
 10
3.7681668535
 20
7.8538669304
 10
3.7918412739
 20
7.8549255454
 10
3.8235960958
 20
7.8559694991
 10
3.86314475
 20
7.8570207755
 10
3.9096668042
 20
7.8580817094
 10
3.9612934612
 20
7.8591377352
 10
4.0160466104
 20
7.8601796359
 10
4.0738183872
 20
7.8612341124
 10
4.1327829477
 20
7.8622957383
 10
4.1905262793
 20
7.8633500736
 10
4.2452699538
 20
7.864392574
 10
4.296873963
 20
7.8654494459
 10
4.3433289834
 20
7.8665108278
 10
4.3827759321
 20
7.8675621812
 10
4.4142865529
 20
7.868601376
 10
4.4377644724
 20
7.8696541373
 10
4.4521459861
 20
7.8707112279
 10
4.4568740294
 20
7.8716540097
  0
LWPOLYLINE
  5
654
100
AcDbEntity
  8
0
100
AcDbPolyline
 62
7
  6
CONTINUOUS
 90
11
 70
0
 10
4.0458198574
 20
7.8791806149
 10
4.1602126067
 20
7.8813391608
 10
4.2158557191
 20
7.8824202418
 10
4.2682499146
 20
7.8835013229
 10
4.3158879077
 20
7.884582404
 10
4.3573992401
 20
7.8856634851
 10
4.3915897063
 20
7.8867445662
 10
4.4174757089
 20
7.8878256472
 10
4.4343125547
 20
7.8889067283
 10
4.4416158782
 20
7.8899878094
 10
4.4419213287
 20
7.8902580797
  0
LWPOLYLINE
  5
655
100
AcDbEntity
  8
0
100
AcDbPolyline
 62
7
  6
CONTINUOUS
 90
11
 70
0
 10
4.158024306
 20
7.8647530761
 10
4.0478110089
 20
7.8627629496
 10
3.9940106665
 20
7.8617671795
 10
3.9426474716
 20
7.8607669326
 10
3.8946355941
 20
7.8597534158
 10
3.8518830272
 20
7.8587396779
 10
3.8158821025
 20
7.8577382353
 10
3.7871174226
 20
7.8567426896
 10
3.7660260739
 20
7.8557451635
 10
3.7532265186
 20
7.8547519524
 10
3.7489686279
 20
7.8538621497
  0
LINE
  5
656
100
AcDbEntity
  8
0
100
AcDbLine
 62
7
  6
CONTINUOUS
 10
3.7489686279
 20
7.9716540097
 11
3.7639707199
 21
7.9551494057
  0
LINE
  5
657
100
AcDbEntity
  8
0
100
AcDbLine
 62
7
  6
CONTINUOUS
 10
3.7489686279
 20
8.0116540097
 11
3.7639707199
 21
7.9951494057
  0
LINE
  5
658
100
AcDbEntity
  8
0
100
AcDbLine
 62
7
  6
CONTINUOUS
 10
3.7489686279
 20
7.8138621497
 11
3.7511432971
 21
7.8144717372
  0
LINE
  5
659
100
AcDbEntity
  8
0
100
AcDbLine
 62
7
  6
CONTINUOUS
 10
4.4569213287
 20
7.9937580797
 11
4.4521459861
 21
7.9927112279
  0
LINE
  5
65A
100
AcDbEntity
  8
0
100
AcDbLine
 62
7
  6
CONTINUOUS
 10
3.7489213287
 20
7.8517580797
 11
3.7537082437
 21
7.852806202
  0
LINE
  5
65B
100
AcDbEntity
  8
0
100
AcDbLine
 62
7
  6
CONTINUOUS
 10
4.4569213287
 20
7.9537580797
 11
4.4520937346
 21
7.9527055032
  0
LWPOLYLINE
  5
65C
100
AcDbEntity
  8
0
100
AcDbPolyline
 62
7
  6
CONTINUOUS
 90
3
 70
0
 10
4.4343125547
 20
7.9339067283
 10
4.4416158782
 20
7.9349878094
 10
4.4418719374
 20
7.9351494057
  0
LWPOLYLINE
  5
65D
100
AcDbEntity
  8
0
100
AcDbPolyline
 62
7
  6
CONTINUOUS
 90
3
 70
0
 10
4.4343125547
 20
7.9739067283
 10
4.4416158782
 20
7.9749878094
 10
4.4418719374
 20
7.9751494057
  0
LWPOLYLINE
  5
65E
100
AcDbEntity
  8
0
100
AcDbPolyline
 62
7
  6
CONTINUOUS
 90
10
 70
0
 10
3.7532265186
 20
7.8927519524
 10
3.7660260739
 20
7.8937451635
 10
3.7871174226
 20
7.8947426896
 10
3.8158821025
 20
7.8957382353
 10
3.8518830272
 20
7.8967396779
 10
3.8946355941
 20
7.8977534158
 10
3.9426474716
 20
7.8987669326
 10
3.9940106665
 20
7.8997671795
 10
4.0478110089
 20
7.9007629496
 10
4.158024306
 20
7.9027530761
  0
LWPOLYLINE
  5
65F
100
AcDbEntity
  8
0
100
AcDbPolyline
 62
7
  6
CONTINUOUS
 90
19
 70
0
 10
4.4521336541
 20
7.912709874
 10
4.4376736138
 20
7.9116491078
 10
4.4139992502
 20
7.9105905336
 10
4.382244137
 20
7.9095465892
 10
4.3426999774
 20
7.9084954344
 10
4.2961966713
 20
7.9074348968
 10
4.2446067333
 20
7.9063795532
 10
4.1898804572
 20
7.9053380894
 10
4.13210864
 20
7.9042835694
 10
4.0731434038
 20
7.9032219315
 10
4.0153985708
 20
7.9021676113
 10
3.9606499129
 20
7.9011251018
 10
3.9090370153
 20
7.9000681821
 10
3.8625734907
 20
7.8990067969
 10
3.8231175378
 20
7.89795547
 10
3.7915857335
 20
7.8969159031
 10
3.7680865178
 20
7.8958624838
 10
3.7536974815
 20
7.8948050204
 10
3.7489686279
 20
7.8938621497
  0
LWPOLYLINE
  5
660
100
AcDbEntity
  8
0
100
AcDbPolyline
 62
7
  6
CONTINUOUS
 90
19
 70
0
 10
4.4520937346
 20
7.9527055032
 10
4.4375143847
 20
7.9516403214
 10
4.4136517659
 20
7.9505774653
 10
4.3816739359
 20
7.9495299255
 10
4.3422798911
 20
7.9484851729
 10
4.2965273991
 20
7.9474419985
 10
4.2453598049
 20
7.9463943389
 10
4.190507288
 20
7.9453497211
 10
4.1325185692
 20
7.944290967
 10
4.0733101337
 20
7.9432249406
 10
4.0153248719
 20
7.9421662434
 10
3.9604767234
 20
7.9411217
 10
3.9093219401
 20
7.9400743043
 10
3.863570546
 20
7.9390311763
 10
3.8241689864
 20
7.9379862416
 10
3.7921897221
 20
7.9369386502
 10
3.7683265255
 20
7.9358757417
 10
3.753748272
 20
7.934810585
 10
3.7489686279
 20
7.9338621497
  0
LWPOLYLINE
  5
661
100
AcDbEntity
  8
0
100
AcDbPolyline
 62
7
  6
CONTINUOUS
 90
11
 70
0
 10
4.0460873797
 20
7.8841857113
 10
4.1602126067
 20
7.8863391608
 10
4.2158557191
 20
7.8874202418
 10
4.2682499146
 20
7.8885013229
 10
4.3158879077
 20
7.889582404
 10
4.3573992401
 20
7.8906634851
 10
4.3915897063
 20
7.8917445662
 10
4.4174757089
 20
7.8928256472
 10
4.4343125547
 20
7.8939067283
 10
4.4416158782
 20
7.8949878094
 10
4.4418719374
 20
7.8951494057
  0
LWPOLYLINE
  5
662
100
AcDbEntity
  8
0
100
AcDbPolyline
 62
7
  6
CONTINUOUS
 90
11
 70
0
 10
4.0456300506
 20
7.9191769986
 10
4.1602126067
 20
7.9213391608
 10
4.2158557191
 20
7.9224202418
 10
4.2682499146
 20
7.9235013229
 10
4.3158879077
 20
7.924582404
 10
4.3573992401
 20
7.9256634851
 10
4.3915897063
 20
7.9267445662
 10
4.4174757089
 20
7.9278256472
 10
4.4343125547
 20
7.9289067283
 10
4.4416158782
 20
7.9299878094
 10
4.4419213287
 20
7.9302580797
  0
LWPOLYLINE
  5
663
100
AcDbEntity
  8
0
100
AcDbPolyline
 62
7
  6
CONTINUOUS
 90
9
 70
0
 10
4.0456300506
 20
7.9241769986
 10
4.1602126067
 20
7.9263391608
 10
4.2158557191
 20
7.9274202418
 10
4.2682499146
 20
7.9285013229
 10
4.3158879077
 20
7.929582404
 10
4.3573992401
 20
7.9306634851
 10
4.3915897063
 20
7.9317445662
 10
4.4174757089
 20
7.9328256472
 10
4.4343125547
 20
7.9339067283
  0
LWPOLYLINE
  5
664
100
AcDbEntity
  8
0
100
AcDbPolyline
 62
7
  6
CONTINUOUS
 90
10
 70
0
 10
4.158024306
 20
7.9027530761
 10
4.2118062684
 20
7.9037484937
 10
4.2631784152
 20
7.9047488885
 10
4.3111903999
 20
7.905762373
 10
4.353946625
 20
7.9067761497
 10
4.3899469657
 20
7.9077775065
 10
4.4187209443
 20
7.908773299
 10
4.4398188391
 20
7.9097711279
 10
4.4526171117
 20
7.9107643195
 10
4.4568740294
 20
7.9116540097
  0
LINE
  5
665
100
AcDbEntity
  8
0
100
AcDbLine
 62
7
  6
CONTINUOUS
 10
3.7489686279
 20
8.0516540097
 11
3.7639707199
 21
8.0351494057
  0
LINE
  5
666
100
AcDbEntity
  8
0
100
AcDbLine
 62
7
  6
CONTINUOUS
 10
3.7489686279
 20
8.0916540097
 11
3.7639707199
 21
8.0751494057
  0
LINE
  5
667
100
AcDbEntity
  8
0
100
AcDbLine
 62
7
  6
CONTINUOUS
 10
4.4569213287
 20
8.0337580797
 11
4.4526171117
 21
8.0327643195
  0
LINE
  5
668
100
AcDbEntity
  8
0
100
AcDbLine
 62
7
  6
CONTINUOUS
 10
3.7489213287
 20
7.8917580797
 11
3.7532265186
 21
7.8927519524
  0
LWPOLYLINE
  5
669
100
AcDbEntity
  8
0
100
AcDbPolyline
 62
7
  6
CONTINUOUS
 90
9
 70
0
 10
3.7642267791
 20
7.9105283499
 10
3.7715301027
 20
7.911609431
 10
3.7883669484
 20
7.9126905121
 10
3.814252951
 20
7.9137715932
 10
3.8484434172
 20
7.9148526743
 10
3.8899547496
 20
7.9159337553
 10
3.9375927427
 20
7.9170148364
 10
3.9899869382
 20
7.9180959175
 10
4.0456300506
 20
7.9191769986
  0
LWPOLYLINE
  5
66A
100
AcDbEntity
  8
0
100
AcDbPolyline
 62
7
  6
CONTINUOUS
 90
3
 70
0
 10
4.4343125547
 20
8.0139067283
 10
4.4416158782
 20
8.0149878094
 10
4.4418719374
 20
8.0151494057
  0
LWPOLYLINE
  5
66B
100
AcDbEntity
  8
0
100
AcDbPolyline
 62
7
  6
CONTINUOUS
 90
19
 70
0
 10
3.7536974815
 20
7.9328050204
 10
3.7680865178
 20
7.9338624838
 10
3.7915857335
 20
7.9349159031
 10
3.8231175378
 20
7.93595547
 10
3.8625734907
 20
7.9370067969
 10
3.9090370153
 20
7.9380681821
 10
3.9606499129
 20
7.9391251018
 10
4.0153985708
 20
7.9401676113
 10
4.0731434038
 20
7.9412219315
 10
4.13210864
 20
7.9422835694
 10
4.1898804572
 20
7.9433380894
 10
4.2446067333
 20
7.9443795532
 10
4.2961966713
 20
7.9454348968
 10
4.3426999774
 20
7.9464954344
 10
4.382244137
 20
7.9475465892
 10
4.4139992502
 20
7.9485905336
 10
4.4376736138
 20
7.9496491078
 10
4.4521336541
 20
7.950709874
 10
4.4568740294
 20
7.9516540097
  0
LWPOLYLINE
  5
66C
100
AcDbEntity
  8
0
100
AcDbPolyline
 62
7
  6
CONTINUOUS
 90
19
 70
0
 10
4.4521459861
 20
7.9927112279
 10
4.4377644724
 20
7.9916541373
 10
4.4142865529
 20
7.990601376
 10
4.3827759321
 20
7.9895621812
 10
4.3433289834
 20
7.9885108278
 10
4.296873963
 20
7.9874494459
 10
4.2452699538
 20
7.986392574
 10
4.1905262793
 20
7.9853500736
 10
4.1327829477
 20
7.9842957383
 10
4.0738183872
 20
7.9832341124
 10
4.0160466104
 20
7.9821796359
 10
3.9612934612
 20
7.9811377352
 10
3.9096668042
 20
7.9800817094
 10
3.86314475
 20
7.9790207755
 10
3.8235960958
 20
7.9779694991
 10
3.7918412739
 20
7.9769255454
 10
3.7681668535
 20
7.9758669304
 10
3.7537082437
 20
7.974806202
 10
3.7489686279
 20
7.9738621497
  0
LWPOLYLINE
  5
66D
100
AcDbEntity
  8
0
100
AcDbPolyline
 62
7
  6
CONTINUOUS
 90
11
 70
0
 10
4.0456300506
 20
7.9591769986
 10
4.1602126067
 20
7.9613391608
 10
4.2158557191
 20
7.9624202418
 10
4.2682499146
 20
7.9635013229
 10
4.3158879077
 20
7.964582404
 10
4.3573992401
 20
7.9656634851
 10
4.3915897063
 20
7.9667445662
 10
4.4174757089
 20
7.9678256472
 10
4.4343125547
 20
7.9689067283
 10
4.4416158782
 20
7.9699878094
 10
4.4419213287
 20
7.9702580797
  0
LWPOLYLINE
  5
66E
100
AcDbEntity
  8
0
100
AcDbPolyline
 62
7
  6
CONTINUOUS
 90
9
 70
0
 10
4.0456300506
 20
7.9641769986
 10
4.1602126067
 20
7.9663391608
 10
4.2158557191
 20
7.9674202418
 10
4.2682499146
 20
7.9685013229
 10
4.3158879077
 20
7.969582404
 10
4.3573992401
 20
7.9706634851
 10
4.3915897063
 20
7.9717445662
 10
4.4174757089
 20
7.9728256472
 10
4.4343125547
 20
7.9739067283
  0
LINE
  5
66F
100
AcDbEntity
  8
0
100
AcDbLine
 62
7
  6
CONTINUOUS
 10
3.7489686279
 20
8.1316540097
 11
3.7639707199
 21
8.1151494057
  0
LINE
  5
670
100
AcDbEntity
  8
0
100
AcDbLine
 62
7
  6
CONTINUOUS
 10
3.7489686279
 20
8.1716540097
 11
3.7639707199
 21
8.1551494057
  0
LINE
  5
671
100
AcDbEntity
  8
0
100
AcDbLine
 62
7
  6
CONTINUOUS
 10
3.7489213287
 20
8.3337580797
 11
3.7489213287
 21
8.3317580797
  0
LINE
  5
672
100
AcDbEntity
  8
0
100
AcDbLine
 62
7
  6
CONTINUOUS
 10
3.7489213287
 20
8.2937580797
 11
3.7489213287
 21
8.2917580797
  0
LINE
  5
673
100
AcDbEntity
  8
0
100
AcDbLine
 62
7
  6
CONTINUOUS
 10
3.7489213287
 20
8.2537580797
 11
3.7489213287
 21
8.2517580797
  0
LINE
  5
674
100
AcDbEntity
  8
0
100
AcDbLine
 62
7
  6
CONTINUOUS
 10
3.7489213287
 20
8.2137580797
 11
3.7489213287
 21
8.2117580797
  0
LINE
  5
675
100
AcDbEntity
  8
0
100
AcDbLine
 62
7
  6
CONTINUOUS
 10
3.7489213287
 20
8.1737580797
 11
3.7489213287
 21
8.1717580797
  0
LINE
  5
676
100
AcDbEntity
  8
0
100
AcDbLine
 62
7
  6
CONTINUOUS
 10
3.7489213287
 20
8.1337580797
 11
3.7489213287
 21
8.1317580797
  0
LINE
  5
677
100
AcDbEntity
  8
0
100
AcDbLine
 62
7
  6
CONTINUOUS
 10
3.7489213287
 20
8.0937580797
 11
3.7489213287
 21
8.0917580797
  0
LINE
  5
678
100
AcDbEntity
  8
0
100
AcDbLine
 62
7
  6
CONTINUOUS
 10
3.7489213287
 20
8.0537580797
 11
3.7489213287
 21
8.0517580797
  0
LINE
  5
679
100
AcDbEntity
  8
0
100
AcDbLine
 62
7
  6
CONTINUOUS
 10
3.7489213287
 20
8.0137580797
 11
3.7489213287
 21
8.0117580797
  0
LINE
  5
67A
100
AcDbEntity
  8
0
100
AcDbLine
 62
7
  6
CONTINUOUS
 10
3.7489213287
 20
7.9737580797
 11
3.7489213287
 21
7.9717580797
  0
LINE
  5
67B
100
AcDbEntity
  8
0
100
AcDbLine
 62
7
  6
CONTINUOUS
 10
3.7489213287
 20
7.9337580797
 11
3.7489213287
 21
7.9317580797
  0
LINE
  5
67C
100
AcDbEntity
  8
0
100
AcDbLine
 62
7
  6
CONTINUOUS
 10
3.7489213287
 20
7.8937580797
 11
3.7489213287
 21
7.8917580797
  0
LINE
  5
67D
100
AcDbEntity
  8
0
100
AcDbLine
 62
7
  6
CONTINUOUS
 10
3.7489213287
 20
7.8537580797
 11
3.7489213287
 21
7.8517580797
  0
LINE
  5
67E
100
AcDbEntity
  8
0
100
AcDbLine
 62
7
  6
CONTINUOUS
 10
3.7489213287
 20
7.8137580797
 11
3.7489213287
 21
7.8117580797
  0
LINE
  5
67F
100
AcDbEntity
  8
0
100
AcDbLine
 62
7
  6
CONTINUOUS
 10
3.7639213287
 20
8.3152580797
 11
3.7639213287
 21
8.3102580797
  0
LINE
  5
680
100
AcDbEntity
  8
0
100
AcDbLine
 62
7
  6
CONTINUOUS
 10
3.7639213287
 20
8.2752580797
 11
3.7639213287
 21
8.2702580797
  0
LINE
  5
681
100
AcDbEntity
  8
0
100
AcDbLine
 62
7
  6
CONTINUOUS
 10
3.7639213287
 20
8.2352580797
 11
3.7639213287
 21
8.2302580797
  0
LINE
  5
682
100
AcDbEntity
  8
0
100
AcDbLine
 62
7
  6
CONTINUOUS
 10
3.7639213287
 20
8.1952580797
 11
3.7639213287
 21
8.1902580797
  0
LINE
  5
683
100
AcDbEntity
  8
0
100
AcDbLine
 62
7
  6
CONTINUOUS
 10
3.7639213287
 20
8.1552580797
 11
3.7639213287
 21
8.1502580797
  0
LINE
  5
684
100
AcDbEntity
  8
0
100
AcDbLine
 62
7
  6
CONTINUOUS
 10
3.7639213287
 20
8.1152580797
 11
3.7639213287
 21
8.1102580797
  0
LINE
  5
685
100
AcDbEntity
  8
0
100
AcDbLine
 62
7
  6
CONTINUOUS
 10
3.7639213287
 20
8.0752580797
 11
3.7639213287
 21
8.0702580797
  0
LINE
  5
686
100
AcDbEntity
  8
0
100
AcDbLine
 62
7
  6
CONTINUOUS
 10
3.7639213287
 20
8.0352580797
 11
3.7639213287
 21
8.0302580797
  0
LINE
  5
687
100
AcDbEntity
  8
0
100
AcDbLine
 62
7
  6
CONTINUOUS
 10
3.7639213287
 20
7.9952580797
 11
3.7639213287
 21
7.9902580797
  0
LINE
  5
688
100
AcDbEntity
  8
0
100
AcDbLine
 62
7
  6
CONTINUOUS
 10
3.7639213287
 20
7.9552580797
 11
3.7639213287
 21
7.9502580797
  0
LINE
  5
689
100
AcDbEntity
  8
0
100
AcDbLine
 62
7
  6
CONTINUOUS
 10
3.7639213287
 20
7.9152580797
 11
3.7639213287
 21
7.9102580797
  0
LINE
  5
68A
100
AcDbEntity
  8
0
100
AcDbLine
 62
7
  6
CONTINUOUS
 10
3.7639213287
 20
7.8752580797
 11
3.7639213287
 21
7.8702580797
  0
LINE
  5
68B
100
AcDbEntity
  8
0
100
AcDbLine
 62
7
  6
CONTINUOUS
 10
3.7639213287
 20
7.8352580797
 11
3.7639213287
 21
7.8302580797
  0
LINE
  5
68C
100
AcDbEntity
  8
0
100
AcDbLine
 62
7
  6
CONTINUOUS
 10
3.7641713287
 20
8.3812580797
 11
3.7641713287
 21
8.3437580797
  0
LINE
  5
68D
100
AcDbEntity
  8
0
100
AcDbLine
 62
7
  6
CONTINUOUS
 10
3.7489213287
 20
7.9317580797
 11
3.7536974815
 21
7.9328050204
  0
LINE
  5
68E
100
AcDbEntity
  8
0
100
AcDbLine
 62
7
  6
CONTINUOUS
 10
4.4569213287
 20
8.0737580797
 11
4.4521336541
 21
8.072709874
  0
LINE
  5
68F
100
AcDbEntity
  8
0
100
AcDbLine
 62
7
  6
CONTINUOUS
 10
4.4569213287
 20
8.1137580797
 11
4.4520937346
 21
8.1127055032
  0
LWPOLYLINE
  5
690
100
AcDbEntity
  8
0
100
AcDbPolyline
 62
7
  6
CONTINUOUS
 90
9
 70
0
 10
3.7642267791
 20
7.9505283499
 10
3.7715301026
 20
7.951609431
 10
3.7883669484
 20
7.9526905121
 10
3.814252951
 20
7.9537715932
 10
3.8484434172
 20
7.9548526743
 10
3.8899547496
 20
7.9559337553
 10
3.9375927427
 20
7.9570148364
 10
3.9899869382
 20
7.9580959175
 10
4.0456300506
 20
7.9591769986
  0
LWPOLYLINE
  5
691
100
AcDbEntity
  8
0
100
AcDbPolyline
 62
7
  6
CONTINUOUS
 90
9
 70
0
 10
3.7642267791
 20
7.9905283499
 10
3.7715301026
 20
7.991609431
 10
3.7883669484
 20
7.9926905121
 10
3.814252951
 20
7.9937715932
 10
3.8484434172
 20
7.9948526743
 10
3.8899547496
 20
7.9959337553
 10
3.9375927427
 20
7.9970148364
 10
3.9899869382
 20
7.9980959175
 10
4.0456300506
 20
7.9991769986
  0
LWPOLYLINE
  5
692
100
AcDbEntity
  8
0
100
AcDbPolyline
 62
7
  6
CONTINUOUS
 90
3
 70
0
 10
4.4343125547
 20
8.0939067283
 10
4.4416158782
 20
8.0949878094
 10
4.4418719374
 20
8.0951494057
  0
LWPOLYLINE
  5
693
100
AcDbEntity
  8
0
100
AcDbPolyline
 62
7
  6
CONTINUOUS
 90
9
 70
0
 10
4.4526171117
 20
8.0327643195
 10
4.4398188391
 20
8.0317711279
 10
4.4187209443
 20
8.030773299
 10
4.3899469657
 20
8.0297775065
 10
4.353946625
 20
8.0287761497
 10
4.3111903999
 20
8.027762373
 10
4.2631784152
 20
8.0267488885
 10
4.2118062684
 20
8.0257484937
 10
4.158024306
 20
8.0247530761
  0
LWPOLYLINE
  5
694
100
AcDbEntity
  8
0
100
AcDbPolyline
 62
7
  6
CONTINUOUS
 90
19
 70
0
 10
3.7537082437
 20
8.012806202
 10
3.7681668535
 20
8.0138669304
 10
3.7918412739
 20
8.0149255454
 10
3.8235960958
 20
8.0159694991
 10
3.86314475
 20
8.0170207755
 10
3.9096668042
 20
8.0180817094
 10
3.9612934612
 20
8.0191377352
 10
4.0160466104
 20
8.0201796359
 10
4.0738183872
 20
8.0212341124
 10
4.1327829477
 20
8.0222957383
 10
4.1905262793
 20
8.0233500736
 10
4.2452699538
 20
8.024392574
 10
4.296873963
 20
8.0254494459
 10
4.3433289834
 20
8.0265108278
 10
4.3827759321
 20
8.0275621812
 10
4.4142865529
 20
8.028601376
 10
4.4377644724
 20
8.0296541373
 10
4.4521459861
 20
8.0307112279
 10
4.4568740294
 20
8.0316540097
  0
LWPOLYLINE
  5
695
100
AcDbEntity
  8
0
100
AcDbPolyline
 62
7
  6
CONTINUOUS
 90
19
 70
0
 10
4.4521336541
 20
8.072709874
 10
4.4376736138
 20
8.0716491078
 10
4.4139992502
 20
8.0705905336
 10
4.382244137
 20
8.0695465892
 10
4.3426999774
 20
8.0684954344
 10
4.2961966713
 20
8.0674348968
 10
4.2446067333
 20
8.0663795532
 10
4.1898804572
 20
8.0653380894
 10
4.13210864
 20
8.0642835694
 10
4.0731434038
 20
8.0632219315
 10
4.0153985708
 20
8.0621676113
 10
3.9606499129
 20
8.0611251018
 10
3.9090370153
 20
8.0600681821
 10
3.8625734907
 20
8.0590067969
 10
3.8231175378
 20
8.05795547
 10
3.7915857335
 20
8.0569159031
 10
3.7680865178
 20
8.0558624838
 10
3.7536974815
 20
8.0548050204
 10
3.7489686279
 20
8.0538621497
  0
LWPOLYLINE
  5
696
100
AcDbEntity
  8
0
100
AcDbPolyline
 62
7
  6
CONTINUOUS
 90
19
 70
0
 10
3.753748272
 20
7.972810585
 10
3.7683265255
 20
7.9738757417
 10
3.7921897221
 20
7.9749386502
 10
3.8241689864
 20
7.9759862416
 10
3.863570546
 20
7.9770311763
 10
3.9093219401
 20
7.9780743043
 10
3.9604767234
 20
7.9791217
 10
4.0153248719
 20
7.9801662434
 10
4.0733101337
 20
7.9812249406
 10
4.1325185692
 20
7.982290967
 10
4.190507288
 20
7.9833497211
 10
4.2453598049
 20
7.9843943389
 10
4.2965273991
 20
7.9854419985
 10
4.3422798911
 20
7.9864851729
 10
4.3816739359
 20
7.9875299255
 10
4.4136517659
 20
7.9885774653
 10
4.4375143847
 20
7.9896403214
 10
4.4520937346
 20
7.9907055032
 10
4.4568740294
 20
7.9916540097
  0
LWPOLYLINE
  5
697
100
AcDbEntity
  8
0
100
AcDbPolyline
 62
7
  6
CONTINUOUS
 90
11
 70
0
 10
4.0456300506
 20
7.9991769986
 10
4.1602126067
 20
8.0013391608
 10
4.2158557191
 20
8.0024202418
 10
4.2682499146
 20
8.0035013229
 10
4.3158879077
 20
8.004582404
 10
4.3573992401
 20
8.0056634851
 10
4.3915897063
 20
8.0067445662
 10
4.4174757089
 20
8.0078256472
 10
4.4343125547
 20
8.0089067283
 10
4.4416158782
 20
8.0099878094
 10
4.4419213287
 20
8.0102580797
  0
LWPOLYLINE
  5
698
100
AcDbEntity
  8
0
100
AcDbPolyline
 62
7
  6
CONTINUOUS
 90
9
 70
0
 10
4.0456300506
 20
8.0041769986
 10
4.1602126067
 20
8.0063391608
 10
4.2158557191
 20
8.0074202418
 10
4.2682499146
 20
8.0085013229
 10
4.3158879077
 20
8.009582404
 10
4.3573992401
 20
8.0106634851
 10
4.3915897063
 20
8.0117445662
 10
4.4174757089
 20
8.0128256472
 10
4.4343125547
 20
8.0139067283
  0
LWPOLYLINE
  5
699
100
AcDbEntity
  8
0
100
AcDbPolyline
 62
7
  6
CONTINUOUS
 90
11
 70
0
 10
4.0456300506
 20
8.0391769986
 10
4.1602126067
 20
8.0413391608
 10
4.2158557191
 20
8.0424202418
 10
4.2682499146
 20
8.0435013229
 10
4.3158879077
 20
8.044582404
 10
4.3573992401
 20
8.0456634851
 10
4.3915897063
 20
8.0467445662
 10
4.4174757089
 20
8.0478256472
 10
4.4343125547
 20
8.0489067283
 10
4.4416158782
 20
8.0499878094
 10
4.4419213287
 20
8.0502580797
  0
LWPOLYLINE
  5
69A
100
AcDbEntity
  8
0
100
AcDbPolyline
 62
7
  6
CONTINUOUS
 90
11
 70
0
 10
4.0456300506
 20
8.0441769986
 10
4.1602126067
 20
8.0463391608
 10
4.2158557191
 20
8.0474202418
 10
4.2682499146
 20
8.0485013229
 10
4.3158879077
 20
8.049582404
 10
4.3573992401
 20
8.0506634851
 10
4.3915897063
 20
8.0517445662
 10
4.4174757089
 20
8.0528256472
 10
4.4343125547
 20
8.0539067283
 10
4.4416158782
 20
8.0549878094
 10
4.4418719374
 20
8.0551494057
  0
LWPOLYLINE
  5
69B
100
AcDbEntity
  8
0
100
AcDbPolyline
 62
7
  6
CONTINUOUS
 90
11
 70
0
 10
4.158024306
 20
8.0247530761
 10
4.0478110089
 20
8.0227629496
 10
3.9940106665
 20
8.0217671795
 10
3.9426474716
 20
8.0207669326
 10
3.8946355941
 20
8.0197534158
 10
3.8518830272
 20
8.0187396779
 10
3.8158821025
 20
8.0177382353
 10
3.7871174226
 20
8.0167426896
 10
3.7660260739
 20
8.0157451635
 10
3.7532265186
 20
8.0147519524
 10
3.7489686279
 20
8.0138621497
  0
LINE
  5
69C
100
AcDbEntity
  8
0
100
AcDbLine
 62
7
  6
CONTINUOUS
 10
3.7489686279
 20
8.2116540097
 11
3.7639707199
 21
8.1951494057
  0
LINE
  5
69D
100
AcDbEntity
  8
0
100
AcDbLine
 62
7
  6
CONTINUOUS
 10
3.7489686279
 20
8.2516540097
 11
3.7639707199
 21
8.2351494057
  0
LINE
  5
69E
100
AcDbEntity
  8
0
100
AcDbLine
 62
7
  6
CONTINUOUS
 10
3.7489213287
 20
8.331758086
 11
3.7489686279
 21
8.3316540097
  0
LINE
  5
69F
100
AcDbEntity
  8
0
100
AcDbLine
 62
7
  6
CONTINUOUS
 10
3.7489686279
 20
8.2938621497
 11
3.7489213287
 21
8.2937580797
  0
LINE
  5
6A0
100
AcDbEntity
  8
0
100
AcDbLine
 62
7
  6
CONTINUOUS
 10
3.7489213287
 20
8.3337580872
 11
3.7489686279
 21
8.3338621497
  0
LINE
  5
6A1
100
AcDbEntity
  8
0
100
AcDbLine
 62
7
  6
CONTINUOUS
 10
4.4569213287
 20
8.1537580797
 11
4.4521459861
 21
8.1527112279
  0
LINE
  5
6A2
100
AcDbEntity
  8
0
100
AcDbLine
 62
7
  6
CONTINUOUS
 10
3.7489213287
 20
8.0117580797
 11
3.7537082437
 21
8.012806202
  0
LINE
  5
6A3
100
AcDbEntity
  8
0
100
AcDbLine
 62
7
  6
CONTINUOUS
 10
3.7489213287
 20
7.9717580797
 11
3.753748272
 21
7.972810585
  0
LWPOLYLINE
  5
6A4
100
AcDbEntity
  8
0
100
AcDbPolyline
 62
7
  6
CONTINUOUS
 90
3
 70
0
 10
4.4343125547
 20
8.1339067283
 10
4.4416158782
 20
8.1349878094
 10
4.4418719374
 20
8.1351494057
  0
LWPOLYLINE
  5
6A5
100
AcDbEntity
  8
0
100
AcDbPolyline
 62
7
  6
CONTINUOUS
 90
9
 70
0
 10
3.7532265186
 20
8.0527519524
 10
3.7660260739
 20
8.0537451635
 10
3.7871174226
 20
8.0547426896
 10
3.8158821025
 20
8.0557382353
 10
3.8518830272
 20
8.0567396779
 10
3.8946355941
 20
8.0577534158
 10
3.9426474716
 20
8.0587669326
 10
3.9940106665
 20
8.0597671795
 10
4.0478110089
 20
8.0607629496
  0
LWPOLYLINE
  5
6A6
100
AcDbEntity
  8
0
100
AcDbPolyline
 62
7
  6
CONTINUOUS
 90
19
 70
0
 10
4.4520937346
 20
8.1127055032
 10
4.4375143847
 20
8.1116403214
 10
4.4136517659
 20
8.1105774653
 10
4.3816739359
 20
8.1095299255
 10
4.3422798911
 20
8.1084851729
 10
4.2965273991
 20
8.1074419985
 10
4.2453598049
 20
8.1063943389
 10
4.190507288
 20
8.1053497211
 10
4.1325185692
 20
8.104290967
 10
4.0733101337
 20
8.1032249406
 10
4.0153248719
 20
8.1021662434
 10
3.9604767234
 20
8.1011217
 10
3.9093219401
 20
8.1000743043
 10
3.863570546
 20
8.0990311763
 10
3.8241689864
 20
8.0979862416
 10
3.7921897221
 20
8.0969386502
 10
3.7683265255
 20
8.0958757417
 10
3.753748272
 20
8.094810585
 10
3.7489686279
 20
8.0938621497
  0
LWPOLYLINE
  5
6A7
100
AcDbEntity
  8
0
100
AcDbPolyline
 62
7
  6
CONTINUOUS
 90
11
 70
0
 10
4.0456300506
 20
8.0791769986
 10
4.1602126067
 20
8.0813391608
 10
4.2158557191
 20
8.0824202418
 10
4.2682499146
 20
8.0835013229
 10
4.3158879077
 20
8.084582404
 10
4.3573992401
 20
8.0856634851
 10
4.3915897063
 20
8.0867445662
 10
4.4174757089
 20
8.0878256472
 10
4.4343125547
 20
8.0889067283
 10
4.4416158782
 20
8.0899878094
 10
4.4419213287
 20
8.0902580797
  0
LWPOLYLINE
  5
6A8
100
AcDbEntity
  8
0
100
AcDbPolyline
 62
7
  6
CONTINUOUS
 90
9
 70
0
 10
4.0456300506
 20
8.0841769986
 10
4.1602126067
 20
8.0863391608
 10
4.2158557191
 20
8.0874202418
 10
4.2682499146
 20
8.0885013229
 10
4.3158879077
 20
8.089582404
 10
4.3573992401
 20
8.0906634851
 10
4.3915897063
 20
8.0917445662
 10
4.4174757089
 20
8.0928256472
 10
4.4343125547
 20
8.0939067283
  0
LWPOLYLINE
  5
6A9
100
AcDbEntity
  8
0
100
AcDbPolyline
 62
7
  6
CONTINUOUS
 90
11
 70
0
 10
4.0478110089
 20
8.0607629496
 10
4.158024306
 20
8.0627530761
 10
4.2118062684
 20
8.0637484937
 10
4.2631784152
 20
8.0647488885
 10
4.3111903999
 20
8.065762373
 10
4.353946625
 20
8.0667761497
 10
4.3899469657
 20
8.0677775065
 10
4.4187209443
 20
8.068773299
 10
4.4398188391
 20
8.0697711279
 10
4.4526171117
 20
8.0707643195
 10
4.4568740294
 20
8.0716540097
  0
LINE
  5
6AA
100
AcDbEntity
  8
0
100
AcDbLine
 62
7
  6
CONTINUOUS
 10
3.7489686279
 20
8.2916540097
 11
3.7639707199
 21
8.2751494057
  0
LINE
  5
6AB
100
AcDbEntity
  8
0
100
AcDbLine
 62
7
  6
CONTINUOUS
 10
3.7489686279
 20
8.3316540097
 11
3.7639707199
 21
8.3151494057
  0
LINE
  5
6AC
100
AcDbEntity
  8
0
100
AcDbLine
 62
7
  6
CONTINUOUS
 10
3.7489686279
 20
8.2538621497
 11
3.7489213287
 21
8.2537580797
  0
LINE
  5
6AD
100
AcDbEntity
  8
0
100
AcDbLine
 62
7
  6
CONTINUOUS
 10
3.7489686279
 20
8.2138621497
 11
3.7489213287
 21
8.2137580797
  0
LINE
  5
6AE
100
AcDbEntity
  8
0
100
AcDbLine
 62
7
  6
CONTINUOUS
 10
3.7489686279
 20
8.1738621497
 11
3.7489213287
 21
8.1737580797
  0
LINE
  5
6AF
100
AcDbEntity
  8
0
100
AcDbLine
 62
7
  6
CONTINUOUS
 10
3.7489686279
 20
8.1338621497
 11
3.7489213287
 21
8.1337580797
  0
LINE
  5
6B0
100
AcDbEntity
  8
0
100
AcDbLine
 62
7
  6
CONTINUOUS
 10
3.7579636946
 20
8.3437580797
 11
3.7489686279
 21
8.3338621497
  0
LINE
  5
6B1
100
AcDbEntity
  8
0
100
AcDbLine
 62
7
  6
CONTINUOUS
 10
4.4569213287
 20
8.1937580797
 11
4.4526171117
 21
8.1927643195
  0
LINE
  5
6B2
100
AcDbEntity
  8
0
100
AcDbLine
 62
7
  6
CONTINUOUS
 10
3.7489213287
 20
8.0517580797
 11
3.7532265186
 21
8.0527519524
  0
LINE
  5
6B3
100
AcDbEntity
  8
0
100
AcDbLine
 62
7
  6
CONTINUOUS
 10
4.4569213287
 20
8.2337580797
 11
4.4521336541
 21
8.232709874
  0
LWPOLYLINE
  5
6B4
100
AcDbEntity
  8
0
100
AcDbPolyline
 62
7
  6
CONTINUOUS
 90
9
 70
0
 10
3.7642267791
 20
8.0705283499
 10
3.7715301026
 20
8.071609431
 10
3.7883669484
 20
8.0726905121
 10
3.814252951
 20
8.0737715932
 10
3.8484434172
 20
8.0748526743
 10
3.8899547496
 20
8.0759337553
 10
3.9375927427
 20
8.0770148364
 10
3.9899869382
 20
8.0780959175
 10
4.0456300506
 20
8.0791769986
  0
LWPOLYLINE
  5
6B5
100
AcDbEntity
  8
0
100
AcDbPolyline
 62
7
  6
CONTINUOUS
 90
3
 70
0
 10
4.4343125547
 20
8.1739067283
 10
4.4416158782
 20
8.1749878094
 10
4.4418719374
 20
8.1751494057
  0
LWPOLYLINE
  5
6B6
100
AcDbEntity
  8
0
100
AcDbPolyline
 62
7
  6
CONTINUOUS
 90
9
 70
0
 10
3.7642267791
 20
8.1105283499
 10
3.7715301026
 20
8.111609431
 10
3.7883669484
 20
8.1126905121
 10
3.814252951
 20
8.1137715932
 10
3.8484434172
 20
8.1148526743
 10
3.8899547496
 20
8.1159337553
 10
3.9375927427
 20
8.1170148364
 10
3.9899869382
 20
8.1180959175
 10
4.0456300506
 20
8.1191769986
  0
LWPOLYLINE
  5
6B7
100
AcDbEntity
  8
0
100
AcDbPolyline
 62
7
  6
CONTINUOUS
 90
9
 70
0
 10
4.4526171117
 20
8.1927643195
 10
4.4398188391
 20
8.1917711279
 10
4.4187209443
 20
8.190773299
 10
4.3899469657
 20
8.1897775065
 10
4.353946625
 20
8.1887761497
 10
4.3111903999
 20
8.187762373
 10
4.2631784152
 20
8.1867488885
 10
4.2118062684
 20
8.1857484937
 10
4.158024306
 20
8.1847530761
  0
LWPOLYLINE
  5
6B8
100
AcDbEntity
  8
0
100
AcDbPolyline
 62
7
  6
CONTINUOUS
 90
19
 70
0
 10
3.7536974815
 20
8.0928050204
 10
3.7680865178
 20
8.0938624838
 10
3.7915857335
 20
8.0949159031
 10
3.8231175378
 20
8.09595547
 10
3.8625734907
 20
8.0970067969
 10
3.9090370153
 20
8.0980681821
 10
3.9606499129
 20
8.0991251018
 10
4.0153985708
 20
8.1001676113
 10
4.0731434038
 20
8.1012219315
 10
4.13210864
 20
8.1022835694
 10
4.1898804572
 20
8.1033380894
 10
4.2446067333
 20
8.1043795532
 10
4.2961966713
 20
8.1054348968
 10
4.3426999774
 20
8.1064954344
 10
4.382244137
 20
8.1075465892
 10
4.4139992502
 20
8.1085905336
 10
4.4376736138
 20
8.1096491078
 10
4.4521336541
 20
8.110709874
 10
4.4568740294
 20
8.1116540097
  0
LWPOLYLINE
  5
6B9
100
AcDbEntity
  8
0
100
AcDbPolyline
 62
7
  6
CONTINUOUS
 90
19
 70
0
 10
4.4521459861
 20
8.1527112279
 10
4.4377644724
 20
8.1516541373
 10
4.4142865529
 20
8.150601376
 10
4.3827759321
 20
8.1495621812
 10
4.3433289834
 20
8.1485108278
 10
4.296873963
 20
8.1474494459
 10
4.2452699538
 20
8.146392574
 10
4.1905262793
 20
8.1453500736
 10
4.1327829477
 20
8.1442957383
 10
4.0738183872
 20
8.1432341124
 10
4.0160466104
 20
8.1421796359
 10
3.9612934612
 20
8.1411377352
 10
3.9096668042
 20
8.1400817094
 10
3.86314475
 20
8.1390207755
 10
3.8235960958
 20
8.1379694991
 10
3.7918412739
 20
8.1369255454
 10
3.7681668535
 20
8.1358669304
 10
3.7537082437
 20
8.134806202
 10
3.7489686279
 20
8.1338621497
  0
LWPOLYLINE
  5
6BA
100
AcDbEntity
  8
0
100
AcDbPolyline
 62
7
  6
CONTINUOUS
 90
19
 70
0
 10
3.753748272
 20
8.132810585
 10
3.7683265255
 20
8.1338757417
 10
3.7921897221
 20
8.1349386502
 10
3.8241689864
 20
8.1359862416
 10
3.863570546
 20
8.1370311763
 10
3.9093219401
 20
8.1380743043
 10
3.9604767234
 20
8.1391217
 10
4.0153248719
 20
8.1401662434
 10
4.0733101337
 20
8.1412249406
 10
4.1325185692
 20
8.142290967
 10
4.190507288
 20
8.1433497211
 10
4.2453598049
 20
8.1443943389
 10
4.2965273991
 20
8.1454419985
 10
4.3422798911
 20
8.1464851729
 10
4.3816739359
 20
8.1475299255
 10
4.4136517659
 20
8.1485774653
 10
4.4375143847
 20
8.1496403214
 10
4.4520937346
 20
8.1507055032
 10
4.4568740294
 20
8.1516540097
  0
LWPOLYLINE
  5
6BB
100
AcDbEntity
  8
0
100
AcDbPolyline
 62
7
  6
CONTINUOUS
 90
11
 70
0
 10
4.0456300506
 20
8.1191769986
 10
4.1602126067
 20
8.1213391608
 10
4.2158557191
 20
8.1224202418
 10
4.2682499146
 20
8.1235013229
 10
4.3158879077
 20
8.124582404
 10
4.3573992401
 20
8.1256634851
 10
4.3915897063
 20
8.1267445662
 10
4.4174757089
 20
8.1278256472
 10
4.4343125547
 20
8.1289067283
 10
4.4416158782
 20
8.1299878094
 10
4.4419213287
 20
8.1302580797
  0
LWPOLYLINE
  5
6BC
100
AcDbEntity
  8
0
100
AcDbPolyline
 62
7
  6
CONTINUOUS
 90
9
 70
0
 10
4.0456300506
 20
8.1241769986
 10
4.1602126067
 20
8.1263391608
 10
4.2158557191
 20
8.1274202418
 10
4.2682499146
 20
8.1285013229
 10
4.3158879077
 20
8.129582404
 10
4.3573992401
 20
8.1306634851
 10
4.3915897063
 20
8.1317445662
 10
4.4174757089
 20
8.1328256472
 10
4.4343125547
 20
8.1339067283
  0
LWPOLYLINE
  5
6BD
100
AcDbEntity
  8
0
100
AcDbPolyline
 62
7
  6
CONTINUOUS
 90
11
 70
0
 10
4.0456300506
 20
8.1591769986
 10
4.1602126067
 20
8.1613391608
 10
4.2158557191
 20
8.1624202418
 10
4.2682499146
 20
8.1635013229
 10
4.3158879077
 20
8.164582404
 10
4.3573992401
 20
8.1656634851
 10
4.3915897063
 20
8.1667445662
 10
4.4174757089
 20
8.1678256472
 10
4.4343125547
 20
8.1689067283
 10
4.4416158782
 20
8.1699878094
 10
4.4419213287
 20
8.1702580797
  0
LWPOLYLINE
  5
6BE
100
AcDbEntity
  8
0
100
AcDbPolyline
 62
7
  6
CONTINUOUS
 90
9
 70
0
 10
4.0456300506
 20
8.1641769986
 10
4.1602126067
 20
8.1663391608
 10
4.2158557191
 20
8.1674202418
 10
4.2682499146
 20
8.1685013229
 10
4.3158879077
 20
8.169582404
 10
4.3573992401
 20
8.1706634851
 10
4.3915897063
 20
8.1717445662
 10
4.4174757089
 20
8.1728256472
 10
4.4343125547
 20
8.1739067283
  0
LINE
  5
6BF
100
AcDbEntity
  8
0
100
AcDbLine
 62
7
  6
CONTINUOUS
 10
3.7489686279
 20
8.0938621497
 11
3.7489213287
 21
8.0937580797
  0
LINE
  5
6C0
100
AcDbEntity
  8
0
100
AcDbLine
 62
7
  6
CONTINUOUS
 10
3.7489686279
 20
8.0538621497
 11
3.7489213287
 21
8.0537580797
  0
LINE
  5
6C1
100
AcDbEntity
  8
0
100
AcDbLine
 62
7
  6
CONTINUOUS
 10
3.7489686279
 20
8.0138621497
 11
3.7489213287
 21
8.0137580797
  0
LINE
  5
6C2
100
AcDbEntity
  8
0
100
AcDbLine
 62
7
  6
CONTINUOUS
 10
3.7639707199
 20
8.3103667537
 11
3.7489686279
 21
8.2938621497
  0
LINE
  5
6C3
100
AcDbEntity
  8
0
100
AcDbLine
 62
7
  6
CONTINUOUS
 10
3.7639707199
 20
8.2703667537
 11
3.7489686279
 21
8.2538621497
  0
LINE
  5
6C4
100
AcDbEntity
  8
0
100
AcDbLine
 62
7
  6
CONTINUOUS
 10
3.7492335259
 20
8.3320254664
 11
3.7489213287
 21
8.331758086
  0
LINE
  5
6C5
100
AcDbEntity
  8
0
100
AcDbLine
 62
7
  6
CONTINUOUS
 10
4.4386317719
 20
8.2943704828
 11
4.4418719374
 21
8.2951494057
  0
LINE
  5
6C6
100
AcDbEntity
  8
0
100
AcDbLine
 62
7
  6
CONTINUOUS
 10
3.7489213287
 20
8.0917580797
 11
3.7536974815
 21
8.0928050204
  0
LINE
  5
6C7
100
AcDbEntity
  8
0
100
AcDbLine
 62
7
  6
CONTINUOUS
 10
4.4569213287
 20
8.2737580797
 11
4.4520937346
 21
8.2727055032
  0
LINE
  5
6C8
100
AcDbEntity
  8
0
100
AcDbLine
 62
7
  6
CONTINUOUS
 10
3.7489213287
 20
8.1317580797
 11
3.753748272
 21
8.132810585
  0
LWPOLYLINE
  5
6C9
100
AcDbEntity
  8
0
100
AcDbPolyline
 62
7
  6
CONTINUOUS
 90
9
 70
0
 10
3.7642267791
 20
8.1505283499
 10
3.7715301026
 20
8.151609431
 10
3.7883669484
 20
8.1526905121
 10
3.814252951
 20
8.1537715932
 10
3.8484434172
 20
8.1548526743
 10
3.8899547496
 20
8.1559337553
 10
3.9375927427
 20
8.1570148364
 10
3.9899869382
 20
8.1580959175
 10
4.0456300506
 20
8.1591769986
  0
LWPOLYLINE
  5
6CA
100
AcDbEntity
  8
0
100
AcDbPolyline
 62
7
  6
CONTINUOUS
 90
19
 70
0
 10
3.7537082437
 20
8.172806202
 10
3.7681668535
 20
8.1738669304
 10
3.7918412739
 20
8.1749255454
 10
3.8235960958
 20
8.1759694991
 10
3.86314475
 20
8.1770207755
 10
3.9096668042
 20
8.1780817094
 10
3.9612934612
 20
8.1791377352
 10
4.0160466104
 20
8.1801796359
 10
4.0738183872
 20
8.1812341124
 10
4.1327829477
 20
8.1822957383
 10
4.1905262793
 20
8.1833500736
 10
4.2452699538
 20
8.184392574
 10
4.296873963
 20
8.1854494459
 10
4.3433289834
 20
8.1865108278
 10
4.3827759321
 20
8.1875621812
 10
4.4142865529
 20
8.188601376
 10
4.4377644724
 20
8.1896541373
 10
4.4521459861
 20
8.1907112279
 10
4.4568740294
 20
8.1916540097
  0
LWPOLYLINE
  5
6CB
100
AcDbEntity
  8
0
100
AcDbPolyline
 62
7
  6
CONTINUOUS
 90
19
 70
0
 10
4.4521336541
 20
8.232709874
 10
4.4376736138
 20
8.2316491078
 10
4.4139992502
 20
8.2305905336
 10
4.382244137
 20
8.2295465892
 10
4.3426999774
 20
8.2284954344
 10
4.2961966713
 20
8.2274348968
 10
4.2446067333
 20
8.2263795532
 10
4.1898804572
 20
8.2253380894
 10
4.13210864
 20
8.2242835694
 10
4.0731434038
 20
8.2232219315
 10
4.0153985708
 20
8.2221676113
 10
3.9606499129
 20
8.2211251018
 10
3.9090370153
 20
8.2200681821
 10
3.8625734907
 20
8.2190067969
 10
3.8231175378
 20
8.21795547
 10
3.7915857335
 20
8.2169159031
 10
3.7680865178
 20
8.2158624838
 10
3.7536974815
 20
8.2148050204
 10
3.7489686279
 20
8.2138621497
  0
LWPOLYLINE
  5
6CC
100
AcDbEntity
  8
0
100
AcDbPolyline
 62
7
  6
CONTINUOUS
 90
11
 70
0
 10
4.0456300506
 20
8.1991769986
 10
4.1601006177
 20
8.201337027
 10
4.2156414339
 20
8.2024159744
 10
4.267952255
 20
8.2034949218
 10
4.3155341142
 20
8.2045738691
 10
4.357023553
 20
8.2056528165
 10
4.3912316915
 20
8.2067317639
 10
4.4171782953
 20
8.2078107113
 10
4.4341198643
 20
8.2088896586
 10
4.4415709378
 20
8.209968606
 10
4.4419213287
 20
8.2102580797
  0
LWPOLYLINE
  5
6CD
100
AcDbEntity
  8
0
100
AcDbPolyline
 62
7
  6
CONTINUOUS
 90
11
 70
0
 10
4.0456300506
 20
8.2041769986
 10
4.1598222087
 20
8.2063317231
 10
4.2151085471
 20
8.2074053665
 10
4.2672116141
 20
8.2084790099
 10
4.3146530041
 20
8.2095526533
 10
4.3560865851
 20
8.2106262967
 10
4.3903366943
 20
8.2116999401
 10
4.4164314974
 20
8.2127735835
 10
4.4336305638
 20
8.213847227
 10
4.4414458763
 20
8.2149208704
 10
4.4418719374
 20
8.2151494057
  0
LWPOLYLINE
  5
6CE
100
AcDbEntity
  8
0
100
AcDbPolyline
 62
7
  6
CONTINUOUS
 90
11
 70
0
 10
4.158024306
 20
8.1847530761
 10
4.0478110089
 20
8.1827629496
 10
3.9940106665
 20
8.1817671795
 10
3.9426474716
 20
8.1807669326
 10
3.8946355941
 20
8.1797534158
 10
3.8518830272
 20
8.1787396779
 10
3.8158821025
 20
8.1777382353
 10
3.7871174226
 20
8.1767426896
 10
3.7660260739
 20
8.1757451635
 10
3.7532265186
 20
8.1747519524
 10
3.7489686279
 20
8.1738621497
  0
LWPOLYLINE
  5
6CF
100
AcDbEntity
  8
0
100
AcDbPolyline
 62
7
  6
CONTINUOUS
 90
11
 70
0
 10
4.0478110089
 20
8.2207629496
 10
4.158024306
 20
8.2227530761
 10
4.2118062684
 20
8.2237484937
 10
4.2631784152
 20
8.2247488885
 10
4.3111903999
 20
8.225762373
 10
4.353946625
 20
8.2267761497
 10
4.3899469657
 20
8.2277775065
 10
4.4187209443
 20
8.228773299
 10
4.4398188391
 20
8.2297711279
 10
4.4526171117
 20
8.2307643195
 10
4.4568740294
 20
8.2316540097
  0
LINE
  5
6D0
100
AcDbEntity
  8
0
100
AcDbLine
 62
7
  6
CONTINUOUS
 10
3.7489686279
 20
7.9738621497
 11
3.7489213287
 21
7.9737580797
  0
LINE
  5
6D1
100
AcDbEntity
  8
0
100
AcDbLine
 62
7
  6
CONTINUOUS
 10
3.7489686279
 20
7.9338621497
 11
3.7489213287
 21
7.9337580797
  0
LINE
  5
6D2
100
AcDbEntity
  8
0
100
AcDbLine
 62
7
  6
CONTINUOUS
 10
3.7489686279
 20
7.8938621497
 11
3.7489213287
 21
7.8937580797
  0
LINE
  5
6D3
100
AcDbEntity
  8
0
100
AcDbLine
 62
7
  6
CONTINUOUS
 10
3.7639707199
 20
8.2303667537
 11
3.7489686279
 21
8.2138621497
  0
LINE
  5
6D4
100
AcDbEntity
  8
0
100
AcDbLine
 62
7
  6
CONTINUOUS
 10
3.7639707199
 20
8.1903667537
 11
3.7489686279
 21
8.1738621497
  0
LWPOLYLINE
  5
6D5
100
AcDbEntity
  8
0
100
AcDbPolyline
 62
7
  6
CONTINUOUS
 90
11
 70
0
 10
3.7489686279
 20
8.3338621497
 10
3.7494802477
 20
8.3341158671
 10
3.7578040936
 20
8.3351872366
 10
3.7758793314
 20
8.3362586133
 10
3.8031952492
 20
8.3373299911
 10
3.8389800233
 20
8.3384013692
 10
3.8822231317
 20
8.3394727608
 10
3.9317020332
 20
8.3405441472
 10
3.9860166986
 20
8.3416154923
 10
4.0436323955
 20
8.342686802
 10
4.1029213287
 20
8.3437580797
  0
LINE
  5
6D6
100
AcDbEntity
  8
0
100
AcDbLine
 62
7
  6
CONTINUOUS
 10
4.4569213287
 20
8.3137580797
 11
4.4521459861
 21
8.3127112279
  0
LINE
  5
6D7
100
AcDbEntity
  8
0
100
AcDbLine
 62
7
  6
CONTINUOUS
 10
3.7489213287
 20
8.1717580797
 11
3.7537082437
 21
8.172806202
  0
LINE
  5
6D8
100
AcDbEntity
  8
0
100
AcDbLine
 62
7
  6
CONTINUOUS
 10
4.4362822931
 20
8.334095289
 11
4.4418719374
 21
8.3351494057
  0
LWPOLYLINE
  5
6D9
100
AcDbEntity
  8
0
100
AcDbPolyline
 62
7
  6
CONTINUOUS
 90
9
 70
0
 10
3.7532265186
 20
8.2127519524
 10
3.7660260739
 20
8.2137451635
 10
3.7871174226
 20
8.2147426896
 10
3.8158821025
 20
8.2157382353
 10
3.8518830272
 20
8.2167396779
 10
3.8946355941
 20
8.2177534158
 10
3.9426474716
 20
8.2187669326
 10
3.9940106665
 20
8.2197671795
 10
4.0478110089
 20
8.2207629496
  0
LWPOLYLINE
  5
6DA
100
AcDbEntity
  8
0
100
AcDbPolyline
 62
7
  6
CONTINUOUS
 90
19
 70
0
 10
3.7536974815
 20
8.2528050204
 10
3.7680865178
 20
8.2538624838
 10
3.7915857335
 20
8.2549159031
 10
3.8231175378
 20
8.25595547
 10
3.8625734907
 20
8.2570067969
 10
3.9090370153
 20
8.2580681821
 10
3.9606499129
 20
8.2591251018
 10
4.0153985708
 20
8.2601676113
 10
4.0731434038
 20
8.2612219315
 10
4.13210864
 20
8.2622835694
 10
4.1898804572
 20
8.2633380894
 10
4.2446067333
 20
8.2643795532
 10
4.2961966713
 20
8.2654348968
 10
4.3426999774
 20
8.2664954344
 10
4.382244137
 20
8.2675465892
 10
4.4139992502
 20
8.2685905336
 10
4.4376736138
 20
8.2696491078
 10
4.4521336541
 20
8.270709874
 10
4.4568740294
 20
8.2716540097
  0
LWPOLYLINE
  5
6DB
100
AcDbEntity
  8
0
100
AcDbPolyline
 62
7
  6
CONTINUOUS
 90
19
 70
0
 10
4.4520937346
 20
8.2727055032
 10
4.4375143847
 20
8.2716403214
 10
4.4136517659
 20
8.2705774653
 10
4.3816739359
 20
8.2695299255
 10
4.3422798911
 20
8.2684851729
 10
4.2965273991
 20
8.2674419985
 10
4.2453598049
 20
8.2663943389
 10
4.190507288
 20
8.2653497211
 10
4.1325185692
 20
8.264290967
 10
4.0733101337
 20
8.2632249406
 10
4.0153248719
 20
8.2621662434
 10
3.9604767234
 20
8.2611217
 10
3.9093219401
 20
8.2600743043
 10
3.863570546
 20
8.2590311763
 10
3.8241689864
 20
8.2579862416
 10
3.7921897221
 20
8.2569386502
 10
3.7683265255
 20
8.2558757417
 10
3.753748272
 20
8.254810585
 10
3.7489686279
 20
8.2538621497
  0
LINE
  5
6DC
100
AcDbEntity
  8
0
100
AcDbLine
 62
7
  6
CONTINUOUS
 10
4.4478789627
 20
7.8037580797
 11
4.4418719374
 21
7.8103667537
  0
LINE
  5
6DD
100
AcDbEntity
  8
0
100
AcDbLine
 62
7
  6
CONTINUOUS
 10
4.4568740294
 20
7.8338621497
 11
4.4418719374
 21
7.8503667537
  0
LINE
  5
6DE
100
AcDbEntity
  8
0
100
AcDbLine
 62
7
  6
CONTINUOUS
 10
3.7489686279
 20
7.8538621497
 11
3.7489213287
 21
7.8537580797
  0
LINE
  5
6DF
100
AcDbEntity
  8
0
100
AcDbLine
 62
7
  6
CONTINUOUS
 10
3.7489213287
 20
7.8137580728
 11
3.7489686279
 21
7.8138621497
  0
LINE
  5
6E0
100
AcDbEntity
  8
0
100
AcDbLine
 62
7
  6
CONTINUOUS
 10
3.7639707199
 20
8.1503667537
 11
3.7489686279
 21
8.1338621497
  0
LINE
  5
6E1
100
AcDbEntity
  8
0
100
AcDbLine
 62
7
  6
CONTINUOUS
 10
3.7639707199
 20
8.1103667537
 11
3.7489686279
 21
8.0938621497
  0
LWPOLYLINE
  5
6E2
100
AcDbEntity
  8
0
100
AcDbPolyline
 62
7
  6
CONTINUOUS
 90
10
 70
0
 10
3.7639213287
 20
8.1952580797
 10
3.7642267791
 20
8.1955283499
 10
3.7715301027
 20
8.196609431
 10
3.7883669484
 20
8.1976905121
 10
3.814252951
 20
8.1987715932
 10
3.8484434172
 20
8.1998526743
 10
3.8899547496
 20
8.2009337553
 10
3.9375927427
 20
8.2020148364
 10
3.9899869382
 20
8.2030959175
 10
4.0456300506
 20
8.2041769986
  0
LWPOLYLINE
  5
6E3
100
AcDbEntity
  8
0
100
AcDbPolyline
 62
7
  6
CONTINUOUS
 90
10
 70
0
 10
3.7639213287
 20
8.1552580797
 10
3.7642267791
 20
8.1555283499
 10
3.7715301026
 20
8.156609431
 10
3.7883669484
 20
8.1576905121
 10
3.814252951
 20
8.1587715932
 10
3.8484434172
 20
8.1598526743
 10
3.8899547496
 20
8.1609337553
 10
3.9375927427
 20
8.1620148364
 10
3.9899869382
 20
8.1630959175
 10
4.0456300506
 20
8.1641769986
  0
LWPOLYLINE
  5
6E4
100
AcDbEntity
  8
0
100
AcDbPolyline
 62
7
  6
CONTINUOUS
 90
19
 70
0
 10
3.7639213287
 20
8.3152580797
 10
3.7653529166
 20
8.315843351
 10
3.7753658782
 20
8.3169169944
 10
3.7946731063
 20
8.3179906378
 10
3.8227267652
 20
8.3190642812
 10
3.8587308426
 20
8.3201379246
 10
3.901663736
 20
8.321211568
 10
3.9503072401
 20
8.3222852115
 10
4.0032811134
 20
8.3233588549
 10
4.0590822414
 20
8.3244324983
 10
4.1161272875
 20
8.3255061417
 10
4.1727976193
 20
8.3265797851
 10
4.2274852369
 20
8.3276534285
 10
4.278638399
 20
8.3287270719
 10
4.3248056534
 20
8.3298007153
 10
4.364677021
 20
8.3308743587
 10
4.3971211663
 20
8.3319480022
 10
4.4212174985
 20
8.3330216456
 10
4.4362822931
 20
8.334095289
  0
LINE
  5
6E5
100
AcDbEntity
  8
0
100
AcDbLine
 62
7
  6
CONTINUOUS
 10
3.7489213287
 20
8.2117580797
 11
3.7532265186
 21
8.2127519524
  0
LINE
  5
6E6
100
AcDbEntity
  8
0
100
AcDbLine
 62
7
  6
CONTINUOUS
 10
3.7489213287
 20
8.2517580797
 11
3.7536974815
 21
8.2528050204
  0
LWPOLYLINE
  5
6E7
100
AcDbEntity
  8
0
100
AcDbPolyline
 62
7
  6
CONTINUOUS
 90
19
 70
0
 10
3.7639213287
 20
8.2352580797
 10
3.7693009695
 20
8.2363937386
 10
3.7841308818
 20
8.237467382
 10
3.8080063568
 20
8.2385410254
 10
3.8402499366
 20
8.2396146688
 10
3.8799467212
 20
8.2406883122
 10
3.925970329
 20
8.2417619556
 10
3.9770148568
 20
8.2428355991
 10
4.0316319349
 20
8.2439092425
 10
4.0882718235
 20
8.2449828859
 10
4.1453273864
 20
8.2460565293
 10
4.201179693
 20
8.2471301727
 10
4.2542439543
 20
8.2482038161
 10
4.3030144913
 20
8.2492774595
 10
4.3461074578
 20
8.2503511029
 10
4.3823001066
 20
8.2514247463
 10
4.4105654845
 20
8.2524983897
 10
4.4301015717
 20
8.2535720332
 10
4.4403540389
 20
8.2546456766
  0
LWPOLYLINE
  5
6E8
100
AcDbEntity
  8
0
100
AcDbPolyline
 62
7
  6
CONTINUOUS
 90
20
 70
0
 10
3.7639707199
 20
8.2703667537
 10
3.770031438
 20
8.271468606
 10
3.7856081038
 20
8.2725475534
 10
3.8102773816
 20
8.2736265007
 10
3.843332373
 20
8.2747054481
 10
3.883825887
 20
8.2757843955
 10
3.9305975819
 20
8.2768633428
 10
3.9823072146
 20
8.2779422902
 10
4.0374730452
 20
8.2790212376
 10
4.0945142966
 20
8.2801001849
 10
4.1517964516
 20
8.2811791323
 10
4.2076780897
 20
8.2822580797
 10
4.2605579224
 20
8.283337027
 10
4.3089206778
 20
8.2844159744
 10
4.3513805209
 20
8.2854949218
 10
4.3867207648
 20
8.2865738691
 10
4.4139287345
 20
8.2876528165
 10
4.4322247857
 20
8.2887317639
 10
4.4410846448
 20
8.2898107113
 10
4.4419213287
 20
8.2902580797
  0
LWPOLYLINE
  5
6E9
100
AcDbEntity
  8
0
100
AcDbPolyline
 62
7
  6
CONTINUOUS
 90
20
 70
0
 10
3.7639707199
 20
8.2303667537
 10
3.7708515821
 20
8.2315475534
 10
3.7871119498
 20
8.2326265007
 10
3.8124218367
 20
8.2337054481
 10
3.8460559878
 20
8.2347843955
 10
3.8870506164
 20
8.2358633428
 10
3.9342310212
 20
8.2369422902
 10
3.9862452476
 20
8.2380212376
 10
4.0416028275
 20
8.2391001849
 10
4.0987174894
 20
8.2401791323
 10
4.1559526123
 20
8.2412580797
 10
4.2116681235
 20
8.242337027
 10
4.2642674949
 20
8.2434159744
 10
4.3122434911
 20
8.2444949218
 10
4.3542213599
 20
8.2455738691
 10
4.3889982251
 20
8.2466528165
 10
4.4155775556
 20
8.2477317639
 10
4.4331977205
 20
8.2488107113
 10
4.4413538139
 20
8.2498896586
 10
4.4419213287
 20
8.2502580797
  0
LWPOLYLINE
  5
6EA
100
AcDbEntity
  8
0
100
AcDbPolyline
 62
7
  6
CONTINUOUS
 90
19
 70
0
 10
4.4521459861
 20
8.3127112279
 10
4.4377644724
 20
8.3116541373
 10
4.4142865529
 20
8.310601376
 10
4.3827759321
 20
8.3095621812
 10
4.3433289834
 20
8.3085108278
 10
4.296873963
 20
8.3074494459
 10
4.2452699538
 20
8.306392574
 10
4.1905262793
 20
8.3053500736
 10
4.1327829477
 20
8.3042957383
 10
4.0738183872
 20
8.3032341124
 10
4.0160466104
 20
8.3021796359
 10
3.9612934612
 20
8.3011377352
 10
3.9096668042
 20
8.3000817094
 10
3.86314475
 20
8.2990207755
 10
3.8235960958
 20
8.2979694991
 10
3.7918412739
 20
8.2969255454
 10
3.7681668535
 20
8.2958669304
 10
3.7537082437
 20
8.294806202
 10
3.7489686279
 20
8.2938621497
  0
LWPOLYLINE
  5
6EB
100
AcDbEntity
  8
0
100
AcDbPolyline
 62
7
  6
CONTINUOUS
 90
19
 70
0
 10
3.753748272
 20
8.292810585
 10
3.7683265255
 20
8.2938757417
 10
3.7921897221
 20
8.2949386502
 10
3.8241689864
 20
8.2959862416
 10
3.863570546
 20
8.2970311763
 10
3.9093219401
 20
8.2980743043
 10
3.9604767234
 20
8.2991217
 10
4.0153248719
 20
8.3001662434
 10
4.0733101337
 20
8.3012249406
 10
4.1325185692
 20
8.302290967
 10
4.190507288
 20
8.3033497211
 10
4.2453598049
 20
8.3043943389
 10
4.2965273991
 20
8.3054419985
 10
4.3422798911
 20
8.3064851729
 10
4.3816739359
 20
8.3075299255
 10
4.4136517659
 20
8.3085774653
 10
4.4375143847
 20
8.3096403214
 10
4.4520937346
 20
8.3107055032
 10
4.4568740294
 20
8.3116540097
  0
LINE
  5
6EC
100
AcDbEntity
  8
0
100
AcDbLine
 62
7
  6
CONTINUOUS
 10
4.4568740294
 20
7.8738621497
 11
4.4418719374
 21
7.8903667537
  0
LINE
  5
6ED
100
AcDbEntity
  8
0
100
AcDbLine
 62
7
  6
CONTINUOUS
 10
4.4568740294
 20
7.9138621497
 11
4.4418719374
 21
7.9303667537
  0
LINE
  5
6EE
100
AcDbEntity
  8
0
100
AcDbLine
 62
7
  6
CONTINUOUS
 10
3.7639707199
 20
8.0703667537
 11
3.7489686279
 21
8.0538621497
  0
LINE
  5
6EF
100
AcDbEntity
  8
0
100
AcDbLine
 62
7
  6
CONTINUOUS
 10
3.7639707199
 20
8.0303667537
 11
3.7489686279
 21
8.0138621497
  0
LWPOLYLINE
  5
6F0
100
AcDbEntity
  8
0
100
AcDbPolyline
 62
7
  6
CONTINUOUS
 90
10
 70
0
 10
3.7639213287
 20
8.1152580797
 10
3.7642267791
 20
8.1155283499
 10
3.7715301026
 20
8.116609431
 10
3.7883669484
 20
8.1176905121
 10
3.814252951
 20
8.1187715932
 10
3.8484434172
 20
8.1198526743
 10
3.8899547496
 20
8.1209337553
 10
3.9375927427
 20
8.1220148364
 10
3.9899869382
 20
8.1230959175
 10
4.0456300506
 20
8.1241769986
  0
LWPOLYLINE
  5
6F1
100
AcDbEntity
  8
0
100
AcDbPolyline
 62
7
  6
CONTINUOUS
 90
10
 70
0
 10
3.7639213287
 20
8.0752580797
 10
3.7642267791
 20
8.0755283499
 10
3.7715301026
 20
8.076609431
 10
3.7883669484
 20
8.0776905121
 10
3.814252951
 20
8.0787715932
 10
3.8484434172
 20
8.0798526743
 10
3.8899547496
 20
8.0809337553
 10
3.9375927427
 20
8.0820148364
 10
3.9899869382
 20
8.0830959175
 10
4.0456300506
 20
8.0841769986
  0
LWPOLYLINE
  5
6F2
100
AcDbEntity
  8
0
100
AcDbPolyline
 62
7
  6
CONTINUOUS
 90
10
 70
0
 10
3.7639707199
 20
8.1903667537
 10
3.7642267791
 20
8.1905283499
 10
3.7715301027
 20
8.191609431
 10
3.7883669484
 20
8.1926905121
 10
3.814252951
 20
8.1937715932
 10
3.8484434172
 20
8.1948526743
 10
3.8899547496
 20
8.1959337553
 10
3.9375927427
 20
8.1970148364
 10
3.9899869382
 20
8.1980959175
 10
4.0456300506
 20
8.1991769986
  0
LWPOLYLINE
  5
6F3
100
AcDbEntity
  8
0
100
AcDbPolyline
 62
7
  6
CONTINUOUS
 90
19
 70
0
 10
3.7639213287
 20
8.2752580797
 10
3.7670131524
 20
8.2761185448
 10
3.7794462038
 20
8.2771921882
 10
3.8010577439
 20
8.2782658316
 10
3.831234553
 20
8.279339475
 10
3.8691203753
 20
8.2804131184
 10
3.9136402144
 20
8.2814867618
 10
3.963530836
 20
8.2825604053
 10
4.017376612
 20
8.2836340487
 10
4.0736496882
 20
8.2847076921
 10
4.1307533364
 20
8.2857813355
 10
4.1870672616
 20
8.2868549789
 10
4.2409935766
 20
8.2879286223
 10
4.291002142
 20
8.2890022657
 10
4.3356739829
 20
8.2900759091
 10
4.3737415521
 20
8.2911495525
 10
4.4041246963
 20
8.292223196
 10
4.4259613049
 20
8.2932968394
 10
4.4386317719
 20
8.2943704828
  0
LINE
  5
6F4
100
AcDbEntity
  8
0
100
AcDbLine
 62
7
  6
CONTINUOUS
 10
3.7489213287
 20
8.2917580797
 11
3.753748272
 21
8.292810585
  0
LWPOLYLINE
  5
6F5
100
AcDbEntity
  8
0
100
AcDbPolyline
 62
7
  6
CONTINUOUS
 90
20
 70
0
 10
3.7639707199
 20
8.3103667537
 10
3.7692624868
 20
8.3113896586
 10
3.7841530554
 20
8.312468606
 10
3.8081779303
 20
8.3135475534
 10
3.8406486786
 20
8.3146265007
 10
3.8806348509
 20
8.3157054481
 10
3.9269906431
 20
8.3167843955
 10
3.97838773
 20
8.3178633428
 10
4.0333533276
 20
8.3189422902
 10
4.0903123967
 20
8.3200212376
 10
4.1476327747
 20
8.3211001849
 10
4.2036719461
 20
8.3221791323
 10
4.2568241081
 20
8.3232580797
 10
4.3055661852
 20
8.324337027
 10
4.3485014731
 20
8.3254159744
 10
4.3843996608
 20
8.3264949218
 10
4.4122320857
 20
8.3275738691
 10
4.4312012095
 20
8.3286528165
 10
4.4407634718
 20
8.3297317639
 10
4.4419213287
 20
8.3302580797
  0
LINE
  5
6F6
100
AcDbEntity
  8
0
100
AcDbLine
 62
7
  6
CONTINUOUS
 10
4.2123133447
 20
8.3437580797
 11
4.1546428613
 21
8.342691561
  0
LWPOLYLINE
  5
6F7
100
AcDbEntity
  8
0
100
AcDbPolyline
 62
7
  6
CONTINUOUS
 90
11
 70
0
 10
4.1546428613
 20
8.342691561
 10
4.0955208603
 20
8.3416249828
 10
4.0366052774
 20
8.3405583897
 10
3.9795471493
 20
8.339491803
 10
3.9259433372
 20
8.3384252034
 10
3.8772943873
 20
8.3373585733
 10
3.8349644141
 20
8.3362919451
 10
3.8001391728
 20
8.3352253292
 10
3.7737932088
 20
8.3341587028
 10
3.7566646905
 20
8.3330920713
 10
3.7492335259
 20
8.3320254664
  0
LINE
  5
6F8
100
AcDbEntity
  8
0
100
AcDbLine
 62
7
  6
CONTINUOUS
 10
3.7579640562
 20
8.3437580797
 11
4.4496992586
 21
8.3437580797
  0
LINE
  5
6F9
100
AcDbEntity
  8
0
100
AcDbLine
 62
9
  6
CONTINUOUS
 10
4.4416713287
 20
8.3812580797
 11
3.7641713287
 21
8.3812580797
  0
LINE
  5
6FA
100
AcDbEntity
  8
0
100
AcDbLine
 62
7
  6
CONTINUOUS
 10
4.4568740294
 20
7.9538621497
 11
4.4418719374
 21
7.9703667537
  0
LINE
  5
6FB
100
AcDbEntity
  8
0
100
AcDbLine
 62
7
  6
CONTINUOUS
 10
4.4568740294
 20
7.9938621497
 11
4.4418719374
 21
8.0103667537
  0
LINE
  5
6FC
100
AcDbEntity
  8
0
100
AcDbLine
 62
7
  6
CONTINUOUS
 10
3.7639707199
 20
7.9903667537
 11
3.7489686279
 21
7.9738621497
  0
LINE
  5
6FD
100
AcDbEntity
  8
0
100
AcDbLine
 62
7
  6
CONTINUOUS
 10
3.7639707199
 20
7.9503667537
 11
3.7489686279
 21
7.9338621497
  0
LWPOLYLINE
  5
6FE
100
AcDbEntity
  8
0
100
AcDbPolyline
 62
7
  6
CONTINUOUS
 90
10
 70
0
 10
3.7639213287
 20
8.0352580797
 10
3.7642267791
 20
8.0355283499
 10
3.7715301027
 20
8.036609431
 10
3.7883669484
 20
8.0376905121
 10
3.814252951
 20
8.0387715932
 10
3.8484434172
 20
8.0398526743
 10
3.8899547496
 20
8.0409337553
 10
3.9375927427
 20
8.0420148364
 10
3.9899869382
 20
8.0430959175
 10
4.0456300506
 20
8.0441769986
  0
LINE
  5
6FF
100
AcDbEntity
  8
0
100
AcDbLine
 62
7
  6
CONTINUOUS
 10
3.7639707199
 20
8.1503667537
 11
3.7642267791
 21
8.1505283499
  0
LINE
  5
700
100
AcDbEntity
  8
0
100
AcDbLine
 62
7
  6
CONTINUOUS
 10
3.7639707199
 20
8.1103667537
 11
3.7642267791
 21
8.1105283499
  0
LINE
  5
701
100
AcDbEntity
  8
0
100
AcDbLine
 62
7
  6
CONTINUOUS
 10
4.6349213287
 20
8.3937580797
 11
3.570925953
 21
8.3937580797
  0
LINE
  5
702
100
AcDbEntity
  8
0
100
AcDbLine
 62
7
  6
CONTINUOUS
 10
4.4568740294
 20
8.0338621497
 11
4.4418719374
 21
8.0503667537
  0
LINE
  5
703
100
AcDbEntity
  8
0
100
AcDbLine
 62
7
  6
CONTINUOUS
 10
4.4568740294
 20
8.0738621497
 11
4.4418719374
 21
8.0903667537
  0
LINE
  5
704
100
AcDbEntity
  8
0
100
AcDbLine
 62
7
  6
CONTINUOUS
 10
3.7639707199
 20
7.9103667537
 11
3.7489686279
 21
7.8938621497
  0
LINE
  5
705
100
AcDbEntity
  8
0
100
AcDbLine
 62
7
  6
CONTINUOUS
 10
3.7639707199
 20
7.8703667537
 11
3.7489686279
 21
7.8538621497
  0
LWPOLYLINE
  5
706
100
AcDbEntity
  8
0
100
AcDbPolyline
 62
7
  6
CONTINUOUS
 90
10
 70
0
 10
3.7639213287
 20
7.9952580797
 10
3.7642267791
 20
7.9955283499
 10
3.7715301026
 20
7.996609431
 10
3.7883669484
 20
7.9976905121
 10
3.814252951
 20
7.9987715932
 10
3.8484434172
 20
7.9998526743
 10
3.8899547496
 20
8.0009337553
 10
3.9375927427
 20
8.0020148364
 10
3.9899869382
 20
8.0030959175
 10
4.0456300506
 20
8.0041769986
  0
LWPOLYLINE
  5
707
100
AcDbEntity
  8
0
100
AcDbPolyline
 62
7
  6
CONTINUOUS
 90
10
 70
0
 10
3.7639213287
 20
7.9552580797
 10
3.7642267791
 20
7.9555283499
 10
3.7715301026
 20
7.956609431
 10
3.7883669484
 20
7.9576905121
 10
3.814252951
 20
7.9587715932
 10
3.8484434172
 20
7.9598526743
 10
3.8899547496
 20
7.9609337553
 10
3.9375927427
 20
7.9620148364
 10
3.9899869382
 20
7.9630959175
 10
4.0456300506
 20
7.9641769986
  0
LINE
  5
708
100
AcDbEntity
  8
0
100
AcDbLine
 62
7
  6
CONTINUOUS
 10
3.7639707199
 20
8.0703667537
 11
3.7642267791
 21
8.0705283499
  0
LWPOLYLINE
  5
709
100
AcDbEntity
  8
0
100
AcDbPolyline
 62
7
  6
CONTINUOUS
 90
10
 70
0
 10
3.7639707199
 20
8.0303667537
 10
3.7642267791
 20
8.0305283499
 10
3.7715301027
 20
8.031609431
 10
3.7883669484
 20
8.0326905121
 10
3.814252951
 20
8.0337715932
 10
3.8484434172
 20
8.0348526743
 10
3.8899547496
 20
8.0359337553
 10
3.9375927427
 20
8.0370148364
 10
3.9899869382
 20
8.0380959175
 10
4.0456300506
 20
8.0391769986
  0
LINE
  5
70A
100
AcDbEntity
  8
0
100
AcDbLine
 62
9
  6
CONTINUOUS
 10
4.6949213287
 20
8.4537580797
 11
3.5109213287
 21
8.4537580797
  0
LINE
  5
70B
100
AcDbEntity
  8
0
100
AcDbLine
 62
7
  6
CONTINUOUS
 10
4.4568740294
 20
8.1138621497
 11
4.4418719374
 21
8.1303667537
  0
LINE
  5
70C
100
AcDbEntity
  8
0
100
AcDbLine
 62
7
  6
CONTINUOUS
 10
4.4568740294
 20
8.1538621497
 11
4.4418719374
 21
8.1703667537
  0
LINE
  5
70D
100
AcDbEntity
  8
0
100
AcDbLine
 62
7
  6
CONTINUOUS
 10
3.7639707199
 20
7.8303667537
 11
3.7489686279
 21
7.8138621497
  0
LWPOLYLINE
  5
70E
100
AcDbEntity
  8
0
100
AcDbPolyline
 62
7
  6
CONTINUOUS
 90
10
 70
0
 10
3.7639213287
 20
7.9152580797
 10
3.7642267791
 20
7.9155283499
 10
3.7715301027
 20
7.916609431
 10
3.7883669484
 20
7.9176905121
 10
3.814252951
 20
7.9187715932
 10
3.8484434172
 20
7.9198526743
 10
3.8899547496
 20
7.9209337553
 10
3.9375927427
 20
7.9220148364
 10
3.9899869382
 20
7.9230959175
 10
4.0456300506
 20
7.9241769986
  0
LINE
  5
70F
100
AcDbEntity
  8
0
100
AcDbLine
 62
7
  6
CONTINUOUS
 10
3.7639707199
 20
7.9903667537
 11
3.7642267791
 21
7.9905283499
  0
LINE
  5
710
100
AcDbEntity
  8
0
100
AcDbLine
 62
7
  6
CONTINUOUS
 10
4.4568740294
 20
8.1938621497
 11
4.4418719374
 21
8.2103667537
  0
LINE
  5
711
100
AcDbEntity
  8
0
100
AcDbLine
 62
7
  6
CONTINUOUS
 10
4.4568740294
 20
8.2338621497
 11
4.4418719374
 21
8.2503667537
  0
LWPOLYLINE
  5
712
100
AcDbEntity
  8
0
100
AcDbPolyline
 62
7
  6
CONTINUOUS
 90
10
 70
0
 10
3.7639213287
 20
7.8752580797
 10
3.7644296817
 20
7.8756067639
 10
3.7723319049
 20
7.8766791323
 10
3.7895922693
 20
7.8777515007
 10
3.8157221781
 20
7.8788238691
 10
3.8499819604
 20
7.8798962376
 10
3.8914018094
 20
7.880968606
 10
3.9388092351
 20
7.8820409744
 10
3.9908622545
 20
7.8831133428
 10
4.0460873797
 20
7.8841857113
  0
LINE
  5
713
100
AcDbEntity
  8
0
100
AcDbLine
 62
7
  6
CONTINUOUS
 10
3.7639707199
 20
7.9503667537
 11
3.7642267791
 21
7.9505283499
  0
LINE
  5
714
100
AcDbEntity
  8
0
100
AcDbLine
 62
7
  6
CONTINUOUS
 10
3.7639707199
 20
7.9103667537
 11
3.7642267791
 21
7.9105283499
  0
LINE
  5
715
100
AcDbEntity
  8
0
100
AcDbLine
 62
7
  6
CONTINUOUS
 10
4.4403540389
 20
8.2546456766
 11
4.4418719374
 21
8.2551494057
  0
LINE
  5
716
100
AcDbEntity
  8
0
100
AcDbLine
 62
7
  6
CONTINUOUS
 10
4.4568740294
 20
8.2738621497
 11
4.4418719374
 21
8.2903667537
  0
LINE
  5
717
100
AcDbEntity
  8
0
100
AcDbLine
 62
7
  6
CONTINUOUS
 10
4.4568740294
 20
8.3138621497
 11
4.4418719374
 21
8.3303667537
  0
LINE
  5
718
100
AcDbEntity
  8
0
100
AcDbLine
 62
7
  6
CONTINUOUS
 10
4.4418719374
 20
8.3351494057
 11
4.4496968901
 21
8.3437580797
  0
LWPOLYLINE
  5
719
100
AcDbEntity
  8
0
100
AcDbPolyline
 62
7
  6
CONTINUOUS
 90
10
 70
0
 10
3.7639707199
 20
7.8703667537
 10
3.7643047602
 20
7.8705608966
 10
3.7718580833
 20
7.8716383614
 10
3.7888720342
 20
7.8727158262
 10
3.8148604138
 20
7.8737932909
 10
3.8490805653
 20
7.8748707557
 10
3.8905545966
 20
7.8759482205
 10
3.9380973251
 20
7.8770256853
 10
3.9903501462
 20
7.8781031501
 10
4.0458198574
 20
7.8791806149
  0
LINE
  5
71A
100
AcDbEntity
  8
0
100
AcDbLine
 62
7
  6
CONTINUOUS
 10
4.4416713287
 20
8.3812580797
 11
4.4416713287
 21
8.3437580797
  0
LINE
  5
71B
100
AcDbEntity
  8
0
100
AcDbLine
 62
7
  6
CONTINUOUS
 10
4.4419213287
 20
7.8102580797
 11
4.4419213287
 21
7.8152580797
  0
LINE
  5
71C
100
AcDbEntity
  8
0
100
AcDbLine
 62
7
  6
CONTINUOUS
 10
4.4419213287
 20
7.8502580797
 11
4.4419213287
 21
7.8552580797
  0
LINE
  5
71D
100
AcDbEntity
  8
0
100
AcDbLine
 62
7
  6
CONTINUOUS
 10
4.4419213287
 20
7.8902580797
 11
4.4419213287
 21
7.8952580797
  0
LINE
  5
71E
100
AcDbEntity
  8
0
100
AcDbLine
 62
7
  6
CONTINUOUS
 10
4.4419213287
 20
7.9302580797
 11
4.4419213287
 21
7.9352580797
  0
LINE
  5
71F
100
AcDbEntity
  8
0
100
AcDbLine
 62
7
  6
CONTINUOUS
 10
4.4419213287
 20
7.9702580797
 11
4.4419213287
 21
7.9752580797
  0
LINE
  5
720
100
AcDbEntity
  8
0
100
AcDbLine
 62
7
  6
CONTINUOUS
 10
4.4419213287
 20
8.0102580797
 11
4.4419213287
 21
8.0152580797
  0
LINE
  5
721
100
AcDbEntity
  8
0
100
AcDbLine
 62
7
  6
CONTINUOUS
 10
4.4419213287
 20
8.0502580797
 11
4.4419213287
 21
8.0552580797
  0
LINE
  5
722
100
AcDbEntity
  8
0
100
AcDbLine
 62
7
  6
CONTINUOUS
 10
4.4419213287
 20
8.0902580797
 11
4.4419213287
 21
8.0952580797
  0
LINE
  5
723
100
AcDbEntity
  8
0
100
AcDbLine
 62
7
  6
CONTINUOUS
 10
4.4419213287
 20
8.1302580797
 11
4.4419213287
 21
8.1352580797
  0
LINE
  5
724
100
AcDbEntity
  8
0
100
AcDbLine
 62
7
  6
CONTINUOUS
 10
4.4419213287
 20
8.1702580797
 11
4.4419213287
 21
8.1752580797
  0
LINE
  5
725
100
AcDbEntity
  8
0
100
AcDbLine
 62
7
  6
CONTINUOUS
 10
4.4419213287
 20
8.2102580797
 11
4.4419213287
 21
8.2152580797
  0
LINE
  5
726
100
AcDbEntity
  8
0
100
AcDbLine
 62
7
  6
CONTINUOUS
 10
4.4419213287
 20
8.2502580797
 11
4.4419213287
 21
8.2552580797
  0
LINE
  5
727
100
AcDbEntity
  8
0
100
AcDbLine
 62
7
  6
CONTINUOUS
 10
4.4419213287
 20
8.2902580797
 11
4.4419213287
 21
8.2952580797
  0
LINE
  5
728
100
AcDbEntity
  8
0
100
AcDbLine
 62
7
  6
CONTINUOUS
 10
4.4419213287
 20
8.3302580797
 11
4.4419213287
 21
8.3352580797
  0
LINE
  5
729
100
AcDbEntity
  8
0
100
AcDbLine
 62
7
  6
CONTINUOUS
 10
4.4418719374
 20
8.2951494057
 11
4.4568740294
 21
8.3116540097
  0
LINE
  5
72A
100
AcDbEntity
  8
0
100
AcDbLine
 62
7
  6
CONTINUOUS
 10
4.4418719374
 20
8.2551494057
 11
4.4568740294
 21
8.2716540097
  0
LINE
  5
72B
100
AcDbEntity
  8
0
100
AcDbLine
 62
7
  6
CONTINUOUS
 10
4.4569213287
 20
8.3137580797
 11
4.4569213287
 21
8.3117580797
  0
LINE
  5
72C
100
AcDbEntity
  8
0
100
AcDbLine
 62
7
  6
CONTINUOUS
 10
4.4569213287
 20
8.2737580797
 11
4.4569213287
 21
8.2717580797
  0
LINE
  5
72D
100
AcDbEntity
  8
0
100
AcDbLine
 62
7
  6
CONTINUOUS
 10
4.4569213287
 20
8.2337580797
 11
4.4569213287
 21
8.2317580797
  0
LINE
  5
72E
100
AcDbEntity
  8
0
100
AcDbLine
 62
7
  6
CONTINUOUS
 10
4.4569213287
 20
8.1937580797
 11
4.4569213287
 21
8.1917580797
  0
LINE
  5
72F
100
AcDbEntity
  8
0
100
AcDbLine
 62
7
  6
CONTINUOUS
 10
4.4569213287
 20
8.1537580797
 11
4.4569213287
 21
8.1517580797
  0
LINE
  5
730
100
AcDbEntity
  8
0
100
AcDbLine
 62
7
  6
CONTINUOUS
 10
4.4569213287
 20
8.1137580797
 11
4.4569213287
 21
8.1117580797
  0
LINE
  5
731
100
AcDbEntity
  8
0
100
AcDbLine
 62
7
  6
CONTINUOUS
 10
4.4569213287
 20
8.0737580797
 11
4.4569213287
 21
8.0717580797
  0
LINE
  5
732
100
AcDbEntity
  8
0
100
AcDbLine
 62
7
  6
CONTINUOUS
 10
4.4569213287
 20
8.0337580797
 11
4.4569213287
 21
8.0317580797
  0
LINE
  5
733
100
AcDbEntity
  8
0
100
AcDbLine
 62
7
  6
CONTINUOUS
 10
4.4569213287
 20
7.9937580797
 11
4.4569213287
 21
7.9917580797
  0
LINE
  5
734
100
AcDbEntity
  8
0
100
AcDbLine
 62
7
  6
CONTINUOUS
 10
4.4569213287
 20
7.9537580797
 11
4.4569213287
 21
7.9517580797
  0
LINE
  5
735
100
AcDbEntity
  8
0
100
AcDbLine
 62
7
  6
CONTINUOUS
 10
4.4569213287
 20
7.9137580797
 11
4.4569213287
 21
7.9117580797
  0
LINE
  5
736
100
AcDbEntity
  8
0
100
AcDbLine
 62
7
  6
CONTINUOUS
 10
4.4569213287
 20
7.8737580797
 11
4.4569213287
 21
7.8717580797
  0
LINE
  5
737
100
AcDbEntity
  8
0
100
AcDbLine
 62
7
  6
CONTINUOUS
 10
4.4569213287
 20
7.8337580797
 11
4.4569213287
 21
7.8317580797
  0
LINE
  5
738
100
AcDbEntity
  8
0
100
AcDbLine
 62
7
  6
CONTINUOUS
 10
4.4568740294
 20
8.3116540097
 11
4.4569213287
 21
8.3117580797
  0
LINE
  5
739
100
AcDbEntity
  8
0
100
AcDbLine
 62
7
  6
CONTINUOUS
 10
4.4568740294
 20
8.2716540097
 11
4.4569213287
 21
8.2717580797
  0
LINE
  5
73A
100
AcDbEntity
  8
0
100
AcDbLine
 62
7
  6
CONTINUOUS
 10
4.4568740294
 20
8.2316540097
 11
4.4569213287
 21
8.2317580797
  0
LINE
  5
73B
100
AcDbEntity
  8
0
100
AcDbLine
 62
7
  6
CONTINUOUS
 10
4.4568740294
 20
8.1916540097
 11
4.4569213287
 21
8.1917580797
  0
LINE
  5
73C
100
AcDbEntity
  8
0
100
AcDbLine
 62
7
  6
CONTINUOUS
 10
4.4418719374
 20
8.2151494057
 11
4.4568740294
 21
8.2316540097
  0
LINE
  5
73D
100
AcDbEntity
  8
0
100
AcDbLine
 62
7
  6
CONTINUOUS
 10
4.4418719374
 20
8.1751494057
 11
4.4568740294
 21
8.1916540097
  0
LINE
  5
73E
100
AcDbEntity
  8
0
100
AcDbLine
 62
7
  6
CONTINUOUS
 10
3.7639707199
 20
7.8303667537
 11
3.7647183059
 21
7.8306946994
  0
LINE
  5
73F
100
AcDbEntity
  8
0
100
AcDbLine
 62
7
  6
CONTINUOUS
 10
4.4568740294
 20
8.1516540097
 11
4.4569213287
 21
8.1517580797
  0
LINE
  5
740
100
AcDbEntity
  8
0
100
AcDbLine
 62
7
  6
CONTINUOUS
 10
4.4568740294
 20
8.1116540097
 11
4.4569213287
 21
8.1117580797
  0
LINE
  5
741
100
AcDbEntity
  8
0
100
AcDbLine
 62
7
  6
CONTINUOUS
 10
4.4568740294
 20
8.0716540097
 11
4.4569213287
 21
8.0717580797
  0
LINE
  5
742
100
AcDbEntity
  8
0
100
AcDbLine
 62
7
  6
CONTINUOUS
 10
4.4418719374
 20
8.1351494057
 11
4.4568740294
 21
8.1516540097
  0
LINE
  5
743
100
AcDbEntity
  8
0
100
AcDbLine
 62
7
  6
CONTINUOUS
 10
4.4418719374
 20
8.0951494057
 11
4.4568740294
 21
8.1116540097
  0
LINE
  5
744
100
AcDbEntity
  8
0
100
AcDbLine
 62
7
  6
CONTINUOUS
 10
3.7505708894
 20
7.8123728975
 11
3.7489213287
 21
7.8117580727
  0
LWPOLYLINE
  5
745
100
AcDbEntity
  8
0
100
AcDbPolyline
 62
7
  6
CONTINUOUS
 90
19
 70
0
 10
3.7639213287
 20
7.8352580797
 10
3.765802899
 20
7.8359291323
 10
3.7765540843
 20
7.8370015007
 10
3.7965438916
 20
7.8380738691
 10
3.8252064608
 20
7.8391462376
 10
3.8617304276
 20
7.840218606
 10
3.9050818921
 20
7.8412909744
 10
3.954033685
 20
7.8423633428
 10
4.0072001065
 20
7.8434357113
 10
4.0630761509
 20
7.8445080797
 10
4.1200801105
 20
7.8455804481
 10
4.1765983488
 20
7.8466528165
 10
4.231030979
 20
7.8477251849
 10
4.2818371527
 20
7.8487975534
 10
4.3275786769
 20
7.8498699218
 10
4.3669607262
 20
7.8509422902
 10
4.3988684952
 20
7.8520146586
 10
4.4223987568
 20
7.853087027
 10
4.4368854294
 20
7.8541593955
  0
LINE
  5
746
100
AcDbEntity
  8
0
100
AcDbLine
 62
7
  6
CONTINUOUS
 10
3.510925534
 20
8.8337580797
 11
4.6949170444
 21
8.8337580797
  0
LINE
  5
747
100
AcDbEntity
  8
0
100
AcDbLine
 62
7
  6
CONTINUOUS
 10
4.4568740294
 20
8.0316540097
 11
4.4569213287
 21
8.0317580797
  0
LINE
  5
748
100
AcDbEntity
  8
0
100
AcDbLine
 62
7
  6
CONTINUOUS
 10
4.4568740294
 20
7.9916540097
 11
4.4569213287
 21
7.9917580797
  0
LINE
  5
749
100
AcDbEntity
  8
0
100
AcDbLine
 62
7
  6
CONTINUOUS
 10
4.4568740294
 20
7.9516540097
 11
4.4569213287
 21
7.9517580797
  0
LINE
  5
74A
100
AcDbEntity
  8
0
100
AcDbLine
 62
7
  6
CONTINUOUS
 10
4.4418719374
 20
8.0551494057
 11
4.4568740294
 21
8.0716540097
  0
LINE
  5
74B
100
AcDbEntity
  8
0
100
AcDbLine
 62
7
  6
CONTINUOUS
 10
4.4418719374
 20
8.0151494057
 11
4.4568740294
 21
8.0316540097
  0
LINE
  5
74C
100
AcDbEntity
  8
AXIS_COSMETIC_THREADS
100
AcDbLine
 62
7
  6
CONTINUOUS
 10
3.5119222272
 20
8.8487580797
 11
4.6939204301
 21
8.8487580797
  0
LINE
  5
74D
100
AcDbEntity
  8
0
100
AcDbLine
 62
7
  6
CONTINUOUS
 10
4.6669213287
 20
8.8337580797
 11
4.6669213287
 21
8.8487580797
  0
LINE
  5
74E
100
AcDbEntity
  8
0
100
AcDbLine
 62
7
  6
CONTINUOUS
 10
4.4568740294
 20
7.9116540097
 11
4.4569213287
 21
7.9117580797
  0
LINE
  5
74F
100
AcDbEntity
  8
0
100
AcDbLine
 62
7
  6
CONTINUOUS
 10
4.4568740294
 20
7.8716540097
 11
4.4569213287
 21
7.8717580797
  0
LINE
  5
750
100
AcDbEntity
  8
0
100
AcDbLine
 62
7
  6
CONTINUOUS
 10
4.4569213287
 20
7.8317580797
 11
4.4568740294
 21
7.8316540097
  0
LINE
  5
751
100
AcDbEntity
  8
0
100
AcDbLine
 62
7
  6
CONTINUOUS
 10
4.4418719374
 20
7.9751494057
 11
4.4568740294
 21
7.9916540097
  0
LINE
  5
752
100
AcDbEntity
  8
0
100
AcDbLine
 62
7
  6
CONTINUOUS
 10
4.4418719374
 20
7.9351494057
 11
4.4568740294
 21
7.9516540097
  0
LINE
  5
753
100
AcDbEntity
  8
0
100
AcDbLine
 62
9
  6
CONTINUOUS
 10
4.6936310772
 20
8.9287580797
 11
4.6939213287
 21
8.9287600755
  0
LWPOLYLINE
  5
754
100
AcDbEntity
  8
0
100
AcDbPolyline
 62
9
  6
CONTINUOUS
 90
5
 70
0
 10
3.5119213287
 20
8.928760105
 10
3.5122030148
 20
8.9287579604
 10
3.5134232052
 20
8.9287581083
 10
3.5156169215
 20
8.9287580729
 10
4.6936310772
 20
8.9287580797
  0
LINE
  5
755
100
AcDbEntity
  8
AXIS_COSMETIC_THREADS
100
AcDbLine
 62
7
  6
CONTINUOUS
 10
4.6939213287
 20
8.8487580797
 11
4.6939213287
 21
8.9287565617
  0
LINE
  5
756
100
AcDbEntity
  8
0
100
AcDbLine
 62
7
  6
CONTINUOUS
 10
4.6949213287
 20
8.8337580797
 11
4.6949213287
 21
8.4537580797
  0
LINE
  5
757
100
AcDbEntity
  8
0
100
AcDbLine
 62
7
  6
CONTINUOUS
 10
4.4418719374
 20
7.8951494057
 11
4.4568740294
 21
7.9116540097
  0
LINE
  5
758
100
AcDbEntity
  8
0
100
AcDbLine
 62
7
  6
CONTINUOUS
 10
4.4418719374
 20
7.8551494057
 11
4.4568740294
 21
7.8716540097
  0
LINE
  5
759
100
AcDbEntity
  8
0
100
AcDbLine
 62
7
  6
CONTINUOUS
 10
3.571919481
 20
8.9887580797
 11
4.6339232205
 21
8.9887580797
  0
LWPOLYLINE
  5
75A
100
AcDbEntity
  8
0
100
AcDbPolyline
 62
7
  6
CONTINUOUS
 90
8
 70
0
 10
4.6939213489
 20
8.9287593693
 10
4.6931424697
 20
8.9383955924
 10
4.6892730218
 20
8.9519149289
 10
4.6823630836
 20
8.9641623009
 10
4.6727922279
 20
8.9744649345
 10
4.6610861971
 20
8.982256888
 10
4.6478880212
 20
8.987110136
 10
4.6339226934
 20
8.9887580797
  0
LINE
  5
75B
100
AcDbEntity
  8
0
100
AcDbLine
 62
7
  6
CONTINUOUS
 10
4.4418719374
 20
7.8151494057
 11
4.4568740294
 21
7.8316540097
  0
LWPOLYLINE
  5
75C
100
AcDbEntity
  8
0
100
AcDbPolyline
 62
7
  6
CONTINUOUS
 90
8
 70
0
 10
3.5719200168
 20
8.9887580797
 10
3.5579546815
 20
8.9871101356
 10
3.5447564977
 20
8.9822568869
 10
3.5330504589
 20
8.9744649322
 10
3.5234795948
 20
8.9641622966
 10
3.5165696477
 20
8.9519149217
 10
3.5127001908
 20
8.93839558
 10
3.5119213057
 20
8.9287593176
  0
LINE
  5
75D
100
AcDbEntity
  8
AXIS
100
AcDbLine
 62
7
  6
CONTINUOUS
 10
8.9392186713
 20
4.0321071276
 11
8.7062372057
 21
4.0321071276
  0
LINE
  5
75E
100
AcDbEntity
  8
0
100
AcDbLine
 62
7
  6
CONTINUOUS
 10
7.9556238685
 20
6.0460991984
 11
7.9391192645
 21
6.0310971064
  0
LINE
  5
75F
100
AcDbEntity
  8
0
100
AcDbLine
 62
7
  6
CONTINUOUS
 10
7.9557279391
 20
6.0461464977
 11
7.9556238685
 21
6.0460991984
  0
LINE
  5
760
100
AcDbEntity
  8
0
100
AcDbLine
 62
7
  6
CONTINUOUS
 10
7.9956238685
 20
6.0460991984
 11
7.9957279357
 21
6.0461464977
  0
LINE
  5
761
100
AcDbEntity
  8
0
100
AcDbLine
 62
7
  6
CONTINUOUS
 10
7.9956238685
 20
6.0460991984
 11
7.9791192645
 21
6.0310971064
  0
LINE
  5
762
100
AcDbEntity
  8
0
100
AcDbLine
 62
7
  6
CONTINUOUS
 10
8.0356238685
 20
6.0460991984
 11
8.0191192645
 21
6.0310971064
  0
LINE
  5
763
100
AcDbEntity
  8
0
100
AcDbLine
 62
7
  6
CONTINUOUS
 10
8.0756238685
 20
6.0460991984
 11
8.0591192645
 21
6.0310971064
  0
LINE
  5
764
100
AcDbEntity
  8
0
100
AcDbLine
 62
7
  6
CONTINUOUS
 10
8.1156238685
 20
6.0460991984
 11
8.0991192645
 21
6.0310971064
  0
LINE
  5
765
100
AcDbEntity
  8
0
100
AcDbLine
 62
7
  6
CONTINUOUS
 10
8.0356238685
 20
6.0460991984
 11
8.0357279385
 21
6.0461464977
  0
LINE
  5
766
100
AcDbEntity
  8
0
100
AcDbLine
 62
7
  6
CONTINUOUS
 10
8.0756238685
 20
6.0460991984
 11
8.0757279351
 21
6.0461464977
  0
LINE
  5
767
100
AcDbEntity
  8
0
100
AcDbLine
 62
7
  6
CONTINUOUS
 10
8.1156238685
 20
6.0460991984
 11
8.1157279352
 21
6.0461464977
  0
LINE
  5
768
100
AcDbEntity
  8
0
100
AcDbLine
 62
7
  6
CONTINUOUS
 10
8.1556238685
 20
6.0460991984
 11
8.1557279357
 21
6.0461464977
  0
LINE
  5
769
100
AcDbEntity
  8
0
100
AcDbLine
 62
7
  6
CONTINUOUS
 10
8.1956238685
 20
6.0460991984
 11
8.1957279385
 21
6.0461464977
  0
LINE
  5
76A
100
AcDbEntity
  8
0
100
AcDbLine
 62
7
  6
CONTINUOUS
 10
8.1556238685
 20
6.0460991984
 11
8.1391192645
 21
6.0310971064
  0
LINE
  5
76B
100
AcDbEntity
  8
0
100
AcDbLine
 62
7
  6
CONTINUOUS
 10
8.1956238685
 20
6.0460991984
 11
8.1791192645
 21
6.0310971064
  0
LINE
  5
76C
100
AcDbEntity
  8
0
100
AcDbLine
 62
7
  6
CONTINUOUS
 10
8.2356238685
 20
6.0460991984
 11
8.2191192645
 21
6.0310971064
  0
LINE
  5
76D
100
AcDbEntity
  8
0
100
AcDbLine
 62
7
  6
CONTINUOUS
 10
8.2356238685
 20
6.0460991984
 11
8.2357279351
 21
6.0461464977
  0
LINE
  5
76E
100
AcDbEntity
  8
0
100
AcDbLine
 62
7
  6
CONTINUOUS
 10
8.2756238685
 20
6.0460991984
 11
8.2757279352
 21
6.0461464977
  0
LINE
  5
76F
100
AcDbEntity
  8
0
100
AcDbLine
 62
7
  6
CONTINUOUS
 10
8.3156238685
 20
6.0460991984
 11
8.3157279357
 21
6.0461464977
  0
LINE
  5
770
100
AcDbEntity
  8
0
100
AcDbLine
 62
7
  6
CONTINUOUS
 10
8.3556238685
 20
6.0460991984
 11
8.3557279385
 21
6.0461464977
  0
LINE
  5
771
100
AcDbEntity
  8
0
100
AcDbLine
 62
7
  6
CONTINUOUS
 10
8.3956238685
 20
6.0460991984
 11
8.3957279351
 21
6.0461464977
  0
LINE
  5
772
100
AcDbEntity
  8
0
100
AcDbLine
 62
7
  6
CONTINUOUS
 10
8.4356238685
 20
6.0460991984
 11
8.4357279352
 21
6.0461464977
  0
LINE
  5
773
100
AcDbEntity
  8
0
100
AcDbLine
 62
7
  6
CONTINUOUS
 10
8.2756238685
 20
6.0460991984
 11
8.2591192645
 21
6.0310971064
  0
LINE
  5
774
100
AcDbEntity
  8
0
100
AcDbLine
 62
7
  6
CONTINUOUS
 10
8.3156238685
 20
6.0460991984
 11
8.2991192645
 21
6.0310971064
  0
LINE
  5
775
100
AcDbEntity
  8
0
100
AcDbLine
 62
7
  6
CONTINUOUS
 10
8.3556238685
 20
6.0460991984
 11
8.3391192645
 21
6.0310971064
  0
LINE
  5
776
100
AcDbEntity
  8
0
100
AcDbLine
 62
7
  6
CONTINUOUS
 10
8.4757279396
 20
6.0461464977
 11
8.4756238685
 21
6.0460991984
  0
LINE
  5
777
100
AcDbEntity
  8
0
100
AcDbLine
 62
7
  6
CONTINUOUS
 10
8.3956238685
 20
6.0460991984
 11
8.3791192645
 21
6.0310971064
  0
LINE
  5
778
100
AcDbEntity
  8
0
100
AcDbLine
 62
7
  6
CONTINUOUS
 10
8.4356238685
 20
6.0460991984
 11
8.4191192645
 21
6.0310971064
  0
LINE
  5
779
100
AcDbEntity
  8
0
100
AcDbLine
 62
7
  6
CONTINUOUS
 10
8.4756238685
 20
6.0460991984
 11
8.4591192645
 21
6.0310971064
  0
LWPOLYLINE
  5
77A
100
AcDbEntity
  8
0
100
AcDbPolyline
 62
7
  6
CONTINUOUS
 90
9
 70
0
 10
7.9772002099
 20
5.3393620835
 10
7.9761427016
 20
5.3490648262
 10
7.975098183
 20
5.3679220246
 10
7.9740445911
 20
5.3957633152
 10
7.9729921989
 20
5.4316587177
 10
7.9719508946
 20
5.4741701787
 10
7.9709047066
 20
5.5227388756
 10
7.9698430449
 20
5.5766853346
 10
7.9687791724
 20
5.6339566721
  0
LWPOLYLINE
  5
77B
100
AcDbEntity
  8
0
100
AcDbPolyline
 62
7
  6
CONTINUOUS
 90
17
 70
0
 10
7.9377279385
 20
5.9811915134
 10
7.9388054033
 20
5.9472261297
 10
7.9398828681
 20
5.9059714636
 10
7.9409603329
 20
5.858606429
 10
7.9420377977
 20
5.8064845528
 10
7.9431152625
 20
5.7510952955
 10
7.9441927272
 20
5.694021488
 10
7.945270192
 20
5.6368940998
 10
7.9463476568
 20
5.5813456317
 10
7.9474251216
 20
5.5289634642
 10
7.9485025864
 20
5.4812444961
 10
7.9495800512
 20
5.4395523684
 10
7.950657516
 20
5.405078496
 10
7.9517349808
 20
5.3788080216
 10
7.9528124456
 20
5.3614916631
 10
7.9538899103
 20
5.3536242615
 10
7.9542279385
 20
5.3531464977
  0
LWPOLYLINE
  5
77C
100
AcDbEntity
  8
0
100
AcDbPolyline
 62
7
  6
CONTINUOUS
 90
10
 70
0
 10
7.9667755231
 20
5.6341568464
 10
7.9678269414
 20
5.5775321896
 10
7.9688704761
 20
5.5244126405
 10
7.969913227
 20
5.4758243667
 10
7.9709688995
 20
5.4325377734
 10
7.9720348042
 20
5.3960612607
 10
7.9730962462
 20
5.3679652717
 10
7.9741426806
 20
5.3490651144
 10
7.9751957734
 20
5.3393825957
 10
7.9756238685
 20
5.338193797
  0
LWPOLYLINE
  5
77D
100
AcDbEntity
  8
0
100
AcDbPolyline
 62
7
  6
CONTINUOUS
 90
10
 70
0
 10
8.0067341783
 20
5.7471815709
 10
8.0057409867
 20
5.8008482339
 10
8.0047431579
 20
5.8521046259
 10
8.0037473653
 20
5.8993475684
 10
8.0027460086
 20
5.9417507857
 10
8.0017322318
 20
5.9783981247
 10
8.0007187473
 20
6.0077945077
 10
7.9997183525
 20
6.0289848416
 10
7.9987229349
 20
6.0418315873
 10
7.9978320085
 20
6.0460991984
  0
LWPOLYLINE
  5
77E
100
AcDbEntity
  8
0
100
AcDbPolyline
 62
7
  6
CONTINUOUS
 90
10
 70
0
 10
7.9667755231
 20
5.6341568464
 10
7.9646510074
 20
5.7517453291
 10
7.9635740324
 20
5.8096450202
 10
7.9624970641
 20
5.864189736
 10
7.9614201406
 20
5.9138206371
 10
7.96034322
 20
5.9571231064
 10
7.9592662978
 20
5.9928611455
 10
7.95818936
 20
6.020014776
 10
7.9571124235
 20
6.0378082047
 10
7.9560354515
 20
6.0457335877
  0
LWPOLYLINE
  5
77F
100
AcDbEntity
  8
0
100
AcDbPolyline
 62
7
  6
CONTINUOUS
 90
11
 70
0
 10
8.0046810868
 20
5.7500959468
 10
8.0067791724
 20
5.6339566721
 10
8.0078430449
 20
5.5766853346
 10
8.0089047066
 20
5.5227388756
 10
8.0099508946
 20
5.4741701787
 10
8.0109921989
 20
5.4316587177
 10
8.0120445911
 20
5.3957633152
 10
8.013098183
 20
5.3679220246
 10
8.0141427016
 20
5.3490648262
 10
8.0152002099
 20
5.3393620835
 10
8.0156238685
 20
5.338193797
  0
LINE
  5
780
100
AcDbEntity
  8
0
100
AcDbLine
 62
7
  6
CONTINUOUS
 10
7.9377279385
 20
5.3381464977
 11
7.9377279385
 21
6.0311369606
  0
LINE
  5
781
100
AcDbEntity
  8
0
100
AcDbLine
 62
7
  6
CONTINUOUS
 10
7.9378320085
 20
5.338193797
 11
7.9543366125
 21
5.353195889
  0
LINE
  5
782
100
AcDbEntity
  8
0
100
AcDbLine
 62
7
  6
CONTINUOUS
 10
7.9581029385
 20
5.3584258911
 11
7.9591192645
 21
5.353195889
  0
LWPOLYLINE
  5
783
100
AcDbEntity
  8
0
100
AcDbPolyline
 62
7
  6
CONTINUOUS
 90
9
 70
0
 10
7.9962655971
 20
6.0448847629
 10
7.9973199325
 20
6.0351353789
 10
7.9983624329
 20
6.0162651009
 10
7.9994193047
 20
5.988285613
 10
8.0004806866
 20
5.951992913
 10
8.0015320401
 20
5.9089353372
 10
8.0025712348
 20
5.8605736248
 10
8.0036239962
 20
5.8070206422
 10
8.0046810868
 20
5.7500959468
  0
LWPOLYLINE
  5
784
100
AcDbEntity
  8
0
100
AcDbPolyline
 62
7
  6
CONTINUOUS
 90
10
 70
0
 10
8.0171907121
 20
5.339406206
 10
8.0161334168
 20
5.3491924275
 10
8.0150914664
 20
5.3680721322
 10
8.0140498673
 20
5.3956029834
 10
8.0129995434
 20
5.4313823403
 10
8.011950982
 20
5.4741663508
 10
8.0109044328
 20
5.522752247
 10
8.0098428595
 20
5.5766950816
 10
8.0087790803
 20
5.6339617234
 10
8.0067341783
 20
5.7471815709
  0
LWPOLYLINE
  5
785
100
AcDbEntity
  8
0
100
AcDbPolyline
 62
7
  6
CONTINUOUS
 90
18
 70
0
 10
7.9398726754
 20
6.0294094842
 10
7.9409450438
 20
6.0188899324
 10
7.9420174122
 20
5.9991211095
 10
7.9430897806
 20
5.9706626205
 10
7.944162149
 20
5.9343200522
 10
7.9452345175
 20
5.8911221698
 10
7.9463068859
 20
5.8422917951
 10
7.9473792543
 20
5.7892111909
 10
7.9484516227
 20
5.7333829334
 10
7.9495239911
 20
5.676387378
 10
7.9505963596
 20
5.6198379229
 10
7.951668728
 20
5.5653353386
 10
7.9527410964
 20
5.514422454
 10
7.9538134648
 20
5.4685404826
 10
7.9548858332
 20
5.4289882256
 10
7.9559582017
 20
5.3968853064
 10
7.9570305701
 20
5.3731404764
 10
7.9581029385
 20
5.3584258911
  0
LWPOLYLINE
  5
786
100
AcDbEntity
  8
0
100
AcDbPolyline
 62
7
  6
CONTINUOUS
 90
10
 70
0
 10
8.086771621
 20
5.6343709104
 10
8.0878278864
 20
5.5774824754
 10
8.0888861695
 20
5.5236446769
 10
8.0899336276
 20
5.474927525
 10
8.0909897177
 20
5.4317521635
 10
8.0920558251
 20
5.395422183
 10
8.0931171768
 20
5.367499484
 10
8.094162317
 20
5.3487976505
 10
8.0952057861
 20
5.3393365446
 10
8.0956238685
 20
5.338193797
  0
LWPOLYLINE
  5
787
100
AcDbEntity
  8
0
100
AcDbPolyline
 62
7
  6
CONTINUOUS
 90
11
 70
0
 10
8.0447341783
 20
5.7471815709
 10
8.0467790803
 20
5.6339617234
 10
8.0478428595
 20
5.5766950816
 10
8.0489044328
 20
5.522752247
 10
8.049950982
 20
5.4741663508
 10
8.0509995434
 20
5.4313823403
 10
8.0520498673
 20
5.3956029834
 10
8.0530914664
 20
5.3680721322
 10
8.0541334168
 20
5.3491924275
 10
8.0551907121
 20
5.339406206
 10
8.0556238685
 20
5.338193797
  0
LWPOLYLINE
  5
788
100
AcDbEntity
  8
0
100
AcDbPolyline
 62
7
  6
CONTINUOUS
 90
11
 70
0
 10
8.048771621
 20
5.6343709104
 10
8.0466797329
 20
5.7501702147
 10
8.0456189667
 20
5.8072851427
 10
8.0445603924
 20
5.8611036719
 10
8.0435164481
 20
5.9096201024
 10
8.0424652933
 20
5.9525734541
 10
8.0414047556
 20
5.9887280917
 10
8.040349412
 20
6.0165555699
 10
8.0393079483
 20
6.035299685
 10
8.0382534283
 20
6.0449411984
 10
8.0378320085
 20
6.0460991984
  0
LWPOLYLINE
  5
789
100
AcDbEntity
  8
0
100
AcDbPolyline
 62
7
  6
CONTINUOUS
 90
11
 70
0
 10
8.0887755231
 20
5.6341568464
 10
8.0866753621
 20
5.7504099592
 10
8.0856101803
 20
5.8077470464
 10
8.0845473241
 20
5.8617418849
 10
8.0834997843
 20
5.9103504938
 10
8.0824550318
 20
5.9529596082
 10
8.0814118574
 20
5.9885123012
 10
8.0803641978
 20
6.0162256246
 10
8.07931958
 20
6.035140229
 10
8.0782608258
 20
6.0449070445
 10
8.0778320085
 20
6.0460991984
  0
LINE
  5
78A
100
AcDbEntity
  8
0
100
AcDbLine
 62
7
  6
CONTINUOUS
 10
7.9778320085
 20
5.338193797
 11
7.9943366125
 21
5.353195889
  0
LINE
  5
78B
100
AcDbEntity
  8
0
100
AcDbLine
 62
7
  6
CONTINUOUS
 10
8.0178320085
 20
5.338193797
 11
8.0343366125
 21
5.353195889
  0
LINE
  5
78C
100
AcDbEntity
  8
0
100
AcDbLine
 62
7
  6
CONTINUOUS
 10
8.0578320085
 20
5.338193797
 11
8.0743366125
 21
5.353195889
  0
LINE
  5
78D
100
AcDbEntity
  8
0
100
AcDbLine
 62
7
  6
CONTINUOUS
 10
8.0978320085
 20
5.338193797
 11
8.1143366125
 21
5.353195889
  0
LINE
  5
78E
100
AcDbEntity
  8
0
100
AcDbLine
 62
7
  6
CONTINUOUS
 10
8.5615985117
 20
4.6671464977
 11
9.0838573653
 21
4.6671464977
  0
LINE
  5
78F
100
AcDbEntity
  8
0
100
AcDbLine
 62
7
  6
CONTINUOUS
 10
8.5327279385
 20
4.7171464977
 11
9.1127279385
 21
4.7171464977
  0
LINE
  5
790
100
AcDbEntity
  8
0
100
AcDbLine
 62
7
  6
CONTINUOUS
 10
7.9777279345
 20
5.3381464977
 11
7.9772002099
 21
5.3393620835
  0
LWPOLYLINE
  5
791
100
AcDbEntity
  8
0
100
AcDbPolyline
 62
7
  6
CONTINUOUS
 90
3
 70
0
 10
7.9977805701
 20
5.3618701058
 10
7.9988529385
 20
5.3537344558
 10
7.9991192645
 20
5.353195889
  0
LWPOLYLINE
  5
792
100
AcDbEntity
  8
0
100
AcDbPolyline
 62
7
  6
CONTINUOUS
 90
9
 70
0
 10
8.0572057861
 20
5.3393365446
 10
8.056162317
 20
5.3487976505
 10
8.0551171768
 20
5.367499484
 10
8.0540558251
 20
5.395422183
 10
8.0529897177
 20
5.4317521635
 10
8.0519336276
 20
5.474927525
 10
8.0508861695
 20
5.5236446769
 10
8.0498278864
 20
5.5774824754
 10
8.048771621
 20
5.6343709104
  0
LWPOLYLINE
  5
793
100
AcDbEntity
  8
0
100
AcDbPolyline
 62
7
  6
CONTINUOUS
 90
10
 70
0
 10
8.0762534283
 20
6.0449411984
 10
8.0773079483
 20
6.035299685
 10
8.078349412
 20
6.0165555699
 10
8.0794047556
 20
5.9887280917
 10
8.0804652933
 20
5.9525734541
 10
8.0815164481
 20
5.9096201024
 10
8.0825603924
 20
5.8611036719
 10
8.0836189667
 20
5.8072851427
 10
8.0846797329
 20
5.7501702147
 10
8.086771621
 20
5.6343709104
  0
LWPOLYLINE
  5
794
100
AcDbEntity
  8
0
100
AcDbPolyline
 62
7
  6
CONTINUOUS
 90
10
 70
0
 10
8.1372002099
 20
5.3393620835
 10
8.1361427016
 20
5.3490648262
 10
8.135098183
 20
5.3679220246
 10
8.1340445911
 20
5.3957633152
 10
8.1329921989
 20
5.4316587177
 10
8.1319508946
 20
5.4741701787
 10
8.1309047066
 20
5.5227388756
 10
8.1298430449
 20
5.5766853346
 10
8.1287791724
 20
5.6339566721
 10
8.1266810868
 20
5.7500959468
  0
LWPOLYLINE
  5
795
100
AcDbEntity
  8
0
100
AcDbPolyline
 62
7
  6
CONTINUOUS
 90
9
 70
0
 10
8.0971957734
 20
5.3393825957
 10
8.0961426806
 20
5.3490651144
 10
8.0950962462
 20
5.3679652717
 10
8.0940348042
 20
5.3960612607
 10
8.0929688995
 20
5.4325377734
 10
8.091913227
 20
5.4758243667
 10
8.0908704761
 20
5.5244126405
 10
8.0898269414
 20
5.5775321896
 10
8.0887755231
 20
5.6341568464
  0
LWPOLYLINE
  5
796
100
AcDbEntity
  8
0
100
AcDbPolyline
 62
7
  6
CONTINUOUS
 90
9
 70
0
 10
8.0367229349
 20
6.0418315873
 10
8.0377183525
 20
6.0289848416
 10
8.0387187473
 20
6.0077945077
 10
8.0397322318
 20
5.9783981247
 10
8.0407460086
 20
5.9417507857
 10
8.0417473653
 20
5.8993475684
 10
8.0427431579
 20
5.8521046259
 10
8.0437409867
 20
5.8008482339
 10
8.0447341783
 20
5.7471815709
  0
LWPOLYLINE
  5
797
100
AcDbEntity
  8
0
100
AcDbPolyline
 62
7
  6
CONTINUOUS
 90
10
 70
0
 10
8.1267755231
 20
5.6341568464
 10
8.1278269414
 20
5.5775321896
 10
8.1288704761
 20
5.5244126405
 10
8.129913227
 20
5.4758243667
 10
8.1309688995
 20
5.4325377734
 10
8.1320348042
 20
5.3960612607
 10
8.1330962462
 20
5.3679652717
 10
8.1341426806
 20
5.3490651144
 10
8.1351957734
 20
5.3393825957
 10
8.1356238685
 20
5.338193797
  0
LWPOLYLINE
  5
798
100
AcDbEntity
  8
0
100
AcDbPolyline
 62
7
  6
CONTINUOUS
 90
10
 70
0
 10
8.1266810868
 20
5.7500959468
 10
8.1256239962
 20
5.8070206422
 10
8.1245712348
 20
5.8605736248
 10
8.1235320401
 20
5.9089353372
 10
8.1224806866
 20
5.951992913
 10
8.1214193047
 20
5.988285613
 10
8.1203624329
 20
6.0162651009
 10
8.1193199325
 20
6.0351353789
 10
8.1182655971
 20
6.0448847629
 10
8.1178320085
 20
6.0460991984
  0
LWPOLYLINE
  5
799
100
AcDbEntity
  8
0
100
AcDbPolyline
 62
7
  6
CONTINUOUS
 90
10
 70
0
 10
8.1667341783
 20
5.7471815709
 10
8.1657409867
 20
5.8008482339
 10
8.1647431579
 20
5.8521046259
 10
8.1637473653
 20
5.8993475684
 10
8.1627460086
 20
5.9417507857
 10
8.1617322318
 20
5.9783981247
 10
8.1607187473
 20
6.0077945077
 10
8.1597183525
 20
6.0289848416
 10
8.1587229349
 20
6.0418315873
 10
8.1578320085
 20
6.0460991984
  0
LWPOLYLINE
  5
79A
100
AcDbEntity
  8
0
100
AcDbPolyline
 62
7
  6
CONTINUOUS
 90
11
 70
0
 10
8.1646810868
 20
5.7500959468
 10
8.1667791724
 20
5.6339566721
 10
8.1678430449
 20
5.5766853346
 10
8.1689047066
 20
5.5227388756
 10
8.1699508946
 20
5.4741701787
 10
8.1709921989
 20
5.4316587177
 10
8.1720445911
 20
5.3957633152
 10
8.173098183
 20
5.3679220246
 10
8.1741427016
 20
5.3490648262
 10
8.1752002099
 20
5.3393620835
 10
8.1756238685
 20
5.338193797
  0
LINE
  5
79B
100
AcDbEntity
  8
0
100
AcDbLine
 62
7
  6
CONTINUOUS
 10
8.1378320085
 20
5.338193797
 11
8.1543366125
 21
5.353195889
  0
LINE
  5
79C
100
AcDbEntity
  8
0
100
AcDbLine
 62
7
  6
CONTINUOUS
 10
8.1778320085
 20
5.338193797
 11
8.1943366125
 21
5.353195889
  0
LINE
  5
79D
100
AcDbEntity
  8
0
100
AcDbLine
 62
7
  6
CONTINUOUS
 10
8.2178320085
 20
5.338193797
 11
8.2343366125
 21
5.353195889
  0
LINE
  5
79E
100
AcDbEntity
  8
0
100
AcDbLine
 62
7
  6
CONTINUOUS
 10
8.0978320085
 20
5.338193797
 11
8.0977285384
 21
5.3381464993
  0
LINE
  5
79F
100
AcDbEntity
  8
0
100
AcDbLine
 62
7
  6
CONTINUOUS
 10
7.9377279385
 20
5.3381464977
 11
7.9378320085
 21
5.338193797
  0
LINE
  5
7A0
100
AcDbEntity
  8
0
100
AcDbLine
 62
7
  6
CONTINUOUS
 10
7.9778320085
 20
5.338193797
 11
7.9777279345
 21
5.3381464977
  0
LINE
  5
7A1
100
AcDbEntity
  8
0
100
AcDbLine
 62
7
  6
CONTINUOUS
 10
8.0178320085
 20
5.338193797
 11
8.0177279359
 21
5.3381464977
  0
LINE
  5
7A2
100
AcDbEntity
  8
0
100
AcDbLine
 62
7
  6
CONTINUOUS
 10
8.0578320085
 20
5.338193797
 11
8.0577273337
 21
5.3381464993
  0
LINE
  5
7A3
100
AcDbEntity
  8
0
100
AcDbLine
 62
7
  6
CONTINUOUS
 10
8.5277279385
 20
4.7671464977
 11
9.1177279385
 21
4.7671464977
  0
LINE
  5
7A4
100
AcDbEntity
  8
0
100
AcDbLine
 62
7
  6
CONTINUOUS
 10
8.0577273337
 20
5.3381464993
 11
8.0572057861
 21
5.3393365446
  0
LINE
  5
7A5
100
AcDbEntity
  8
0
100
AcDbLine
 62
7
  6
CONTINUOUS
 10
8.0177279359
 20
5.3381464977
 11
8.0171907121
 21
5.339406206
  0
LINE
  5
7A6
100
AcDbEntity
  8
0
100
AcDbLine
 62
7
  6
CONTINUOUS
 10
8.038687398
 20
5.3543677491
 11
8.0391192645
 21
5.353195889
  0
LINE
  5
7A7
100
AcDbEntity
  8
0
100
AcDbLine
 62
7
  6
CONTINUOUS
 10
8.078687398
 20
5.3543677491
 11
8.0791192645
 21
5.353195889
  0
LWPOLYLINE
  5
7A8
100
AcDbEntity
  8
0
100
AcDbPolyline
 62
7
  6
CONTINUOUS
 90
20
 70
0
 10
7.9743366125
 20
6.0310971064
 10
7.9754392061
 20
6.0250289254
 10
7.9765166709
 20
6.0094736122
 10
7.9775941357
 20
5.9848502017
 10
7.9786716005
 20
5.9518623448
 10
7.9797490653
 20
5.9114527187
 10
7.9808265301
 20
5.8647760891
 10
7.9819039948
 20
5.8131663104
 10
7.9829814596
 20
5.7580982095
 10
7.9840589244
 20
5.7011454397
 10
7.9851363892
 20
5.6439355117
 10
7.986213854
 20
5.5881032847
 10
7.9872913188
 20
5.5352442483
 10
7.9883687836
 20
5.4868689286
 10
7.9894462484
 20
5.4443597226
 10
7.9905237132
 20
5.4089313947
 10
7.9916011779
 20
5.3815963623
 10
7.9926786427
 20
5.3631357649
 10
7.9937561075
 20
5.3540771417
 10
7.9942279385
 20
5.3531464977
  0
LWPOLYLINE
  5
7A9
100
AcDbEntity
  8
0
100
AcDbPolyline
 62
7
  6
CONTINUOUS
 90
10
 70
0
 10
8.1162608258
 20
6.0449070445
 10
8.11731958
 20
6.035140229
 10
8.1183641978
 20
6.0162256246
 10
8.1194118574
 20
5.9885123012
 10
8.1204550318
 20
5.9529596082
 10
8.1214997843
 20
5.9103504938
 10
8.1225473241
 20
5.8617418849
 10
8.1236101803
 20
5.8077470464
 10
8.1246753621
 20
5.7504099592
 10
8.1267755231
 20
5.6341568464
  0
LWPOLYLINE
  5
7AA
100
AcDbEntity
  8
0
100
AcDbPolyline
 62
7
  6
CONTINUOUS
 90
9
 70
0
 10
8.1562655971
 20
6.0448847629
 10
8.1573199325
 20
6.0351353789
 10
8.1583624329
 20
6.0162651009
 10
8.1594193047
 20
5.988285613
 10
8.1604806866
 20
5.951992913
 10
8.1615320401
 20
5.9089353372
 10
8.1625712348
 20
5.8605736248
 10
8.1636239962
 20
5.8070206422
 10
8.1646810868
 20
5.7500959468
  0
LWPOLYLINE
  5
7AB
100
AcDbEntity
  8
0
100
AcDbPolyline
 62
7
  6
CONTINUOUS
 90
10
 70
0
 10
8.1771907121
 20
5.339406206
 10
8.1761334168
 20
5.3491924275
 10
8.1750914664
 20
5.3680721322
 10
8.1740498673
 20
5.3956029834
 10
8.1729995434
 20
5.4313823403
 10
8.171950982
 20
5.4741663508
 10
8.1709044328
 20
5.522752247
 10
8.1698428595
 20
5.5766950816
 10
8.1687790803
 20
5.6339617234
 10
8.1667341783
 20
5.7471815709
  0
LWPOLYLINE
  5
7AC
100
AcDbEntity
  8
0
100
AcDbPolyline
 62
7
  6
CONTINUOUS
 90
9
 70
0
 10
8.1967229349
 20
6.0418315873
 10
8.1977183525
 20
6.0289848416
 10
8.1987187473
 20
6.0077945077
 10
8.1997322318
 20
5.9783981247
 10
8.2007460086
 20
5.9417507857
 10
8.2017473653
 20
5.8993475684
 10
8.2027431579
 20
5.8521046259
 10
8.2037409867
 20
5.8008482339
 10
8.2047341783
 20
5.7471815709
  0
LWPOLYLINE
  5
7AD
100
AcDbEntity
  8
0
100
AcDbPolyline
 62
7
  6
CONTINUOUS
 90
10
 70
0
 10
8.246771621
 20
5.6343709104
 10
8.2478278864
 20
5.5774824754
 10
8.2488861695
 20
5.5236446769
 10
8.2499336276
 20
5.474927525
 10
8.2509897177
 20
5.4317521635
 10
8.2520558251
 20
5.395422183
 10
8.2531171768
 20
5.367499484
 10
8.254162317
 20
5.3487976505
 10
8.2552057861
 20
5.3393365446
 10
8.2556238685
 20
5.338193797
  0
LWPOLYLINE
  5
7AE
100
AcDbEntity
  8
0
100
AcDbPolyline
 62
7
  6
CONTINUOUS
 90
11
 70
0
 10
8.2047341783
 20
5.7471815709
 10
8.2067790803
 20
5.6339617234
 10
8.2078428595
 20
5.5766950816
 10
8.2089044328
 20
5.522752247
 10
8.209950982
 20
5.4741663508
 10
8.2109995434
 20
5.4313823403
 10
8.2120498673
 20
5.3956029834
 10
8.2130914664
 20
5.3680721322
 10
8.2141334168
 20
5.3491924275
 10
8.2151907121
 20
5.339406206
 10
8.2156238685
 20
5.338193797
  0
LWPOLYLINE
  5
7AF
100
AcDbEntity
  8
0
100
AcDbPolyline
 62
7
  6
CONTINUOUS
 90
11
 70
0
 10
8.208771621
 20
5.6343709104
 10
8.2066797329
 20
5.7501702147
 10
8.2056189667
 20
5.8072851427
 10
8.2045603924
 20
5.8611036719
 10
8.2035164481
 20
5.9096201024
 10
8.2024652933
 20
5.9525734541
 10
8.2014047556
 20
5.9887280917
 10
8.200349412
 20
6.0165555699
 10
8.1993079483
 20
6.035299685
 10
8.1982534283
 20
6.0449411984
 10
8.1978320085
 20
6.0460991984
  0
LWPOLYLINE
  5
7B0
100
AcDbEntity
  8
0
100
AcDbPolyline
 62
7
  6
CONTINUOUS
 90
11
 70
0
 10
8.2487755231
 20
5.6341568464
 10
8.2466753621
 20
5.7504099592
 10
8.2456101803
 20
5.8077470464
 10
8.2445473241
 20
5.8617418849
 10
8.2434997843
 20
5.9103504938
 10
8.2424550318
 20
5.9529596082
 10
8.2414118574
 20
5.9885123012
 10
8.2403641978
 20
6.0162256246
 10
8.23931958
 20
6.035140229
 10
8.2382608258
 20
6.0449070445
 10
8.2378320085
 20
6.0460991984
  0
LINE
  5
7B1
100
AcDbEntity
  8
0
100
AcDbLine
 62
7
  6
CONTINUOUS
 10
8.2578320085
 20
5.338193797
 11
8.2743366125
 21
5.353195889
  0
LINE
  5
7B2
100
AcDbEntity
  8
0
100
AcDbLine
 62
7
  6
CONTINUOUS
 10
8.2978320085
 20
5.338193797
 11
8.3143366125
 21
5.353195889
  0
LINE
  5
7B3
100
AcDbEntity
  8
0
100
AcDbLine
 62
7
  6
CONTINUOUS
 10
8.3378320085
 20
5.338193797
 11
8.3543366125
 21
5.353195889
  0
LINE
  5
7B4
100
AcDbEntity
  8
0
100
AcDbLine
 62
7
  6
CONTINUOUS
 10
8.2578320085
 20
5.338193797
 11
8.2577285384
 21
5.3381464993
  0
LINE
  5
7B5
100
AcDbEntity
  8
0
100
AcDbLine
 62
7
  6
CONTINUOUS
 10
8.1378320085
 20
5.338193797
 11
8.1377279345
 21
5.3381464977
  0
LINE
  5
7B6
100
AcDbEntity
  8
0
100
AcDbLine
 62
7
  6
CONTINUOUS
 10
8.1778320085
 20
5.338193797
 11
8.1777279359
 21
5.3381464977
  0
LINE
  5
7B7
100
AcDbEntity
  8
0
100
AcDbLine
 62
7
  6
CONTINUOUS
 10
8.2978320085
 20
5.338193797
 11
8.2977279345
 21
5.3381464977
  0
LINE
  5
7B8
100
AcDbEntity
  8
0
100
AcDbLine
 62
7
  6
CONTINUOUS
 10
8.2178320085
 20
5.338193797
 11
8.2177273337
 21
5.3381464993
  0
LINE
  5
7B9
100
AcDbEntity
  8
0
100
AcDbLine
 62
7
  6
CONTINUOUS
 10
8.1377279345
 20
5.3381464977
 11
8.1372002099
 21
5.3393620835
  0
LINE
  5
7BA
100
AcDbEntity
  8
0
100
AcDbLine
 62
7
  6
CONTINUOUS
 10
8.0977285384
 20
5.3381464993
 11
8.0971957734
 21
5.3393825957
  0
LINE
  5
7BB
100
AcDbEntity
  8
0
100
AcDbLine
 62
7
  6
CONTINUOUS
 10
8.118687398
 20
5.3543677491
 11
8.1191192645
 21
5.353195889
  0
LINE
  5
7BC
100
AcDbEntity
  8
0
100
AcDbLine
 62
7
  6
CONTINUOUS
 10
8.158687398
 20
5.3543677491
 11
8.1591192645
 21
5.353195889
  0
LINE
  5
7BD
100
AcDbEntity
  8
0
100
AcDbLine
 62
7
  6
CONTINUOUS
 10
8.0357279385
 20
6.0461464977
 11
8.0367229349
 21
6.0418315873
  0
LWPOLYLINE
  5
7BE
100
AcDbEntity
  8
0
100
AcDbPolyline
 62
7
  6
CONTINUOUS
 90
19
 70
0
 10
8.0192279385
 20
6.0311464977
 10
8.0203090196
 20
6.0262702913
 10
8.0213901007
 20
6.0117819517
 10
8.0224711818
 20
5.9880982821
 10
8.0235522628
 20
5.9559006184
 10
8.0246333439
 20
5.9161152289
 10
8.025714425
 20
5.8698866668
 10
8.0267955061
 20
5.8185448437
 10
8.0278765872
 20
5.7635667702
 10
8.0289576682
 20
5.7065340656
 10
8.0300387493
 20
5.6490874568
 10
8.0311198304
 20
5.5928795782
 10
8.0322009115
 20
5.5395274282
 10
8.0332819926
 20
5.4905658509
 10
8.0343630736
 20
5.4474033818
 10
8.0354441547
 20
5.4112817266
 10
8.0365252358
 20
5.3832400395
 10
8.0376063169
 20
5.3640850287
 10
8.038687398
 20
5.3543677491
  0
LWPOLYLINE
  5
7BF
100
AcDbEntity
  8
0
100
AcDbPolyline
 62
7
  6
CONTINUOUS
 90
19
 70
0
 10
8.0592279385
 20
6.0311464977
 10
8.0603090196
 20
6.0262702913
 10
8.0613901007
 20
6.0117819517
 10
8.0624711818
 20
5.9880982821
 10
8.0635522628
 20
5.9559006184
 10
8.0646333439
 20
5.9161152289
 10
8.065714425
 20
5.8698866668
 10
8.0667955061
 20
5.8185448437
 10
8.0678765872
 20
5.7635667702
 10
8.0689576682
 20
5.7065340656
 10
8.0700387493
 20
5.6490874568
 10
8.0711198304
 20
5.5928795782
 10
8.0722009115
 20
5.5395274282
 10
8.0732819926
 20
5.4905658509
 10
8.0743630736
 20
5.4474033818
 10
8.0754441547
 20
5.4112817266
 10
8.0765252358
 20
5.3832400395
 10
8.0776063169
 20
5.3640850287
 10
8.078687398
 20
5.3543677491
  0
LWPOLYLINE
  5
7C0
100
AcDbEntity
  8
0
100
AcDbPolyline
 62
7
  6
CONTINUOUS
 90
20
 70
0
 10
8.0143366125
 20
6.0310971064
 10
8.0153090196
 20
6.0262702913
 10
8.0163901007
 20
6.0117819517
 10
8.0174711818
 20
5.9880982821
 10
8.0185522628
 20
5.9559006184
 10
8.0196333439
 20
5.9161152289
 10
8.020714425
 20
5.8698866668
 10
8.0217955061
 20
5.8185448437
 10
8.0228765872
 20
5.7635667702
 10
8.0239576682
 20
5.7065340656
 10
8.0250387493
 20
5.6490874568
 10
8.0261198304
 20
5.5928795782
 10
8.0272009115
 20
5.5395274282
 10
8.0282819926
 20
5.4905658509
 10
8.0293630736
 20
5.4474033818
 10
8.0304441547
 20
5.4112817266
 10
8.0315252358
 20
5.3832400395
 10
8.0326063169
 20
5.3640850287
 10
8.033687398
 20
5.3543677491
 10
8.0342279385
 20
5.3531464977
  0
LWPOLYLINE
  5
7C1
100
AcDbEntity
  8
0
100
AcDbPolyline
 62
7
  6
CONTINUOUS
 90
20
 70
0
 10
8.0543366125
 20
6.0310971064
 10
8.0553090196
 20
6.0262702913
 10
8.0563901007
 20
6.0117819517
 10
8.0574711818
 20
5.9880982821
 10
8.0585522628
 20
5.9559006184
 10
8.0596333439
 20
5.9161152289
 10
8.060714425
 20
5.8698866668
 10
8.0617955061
 20
5.8185448437
 10
8.0628765872
 20
5.7635667702
 10
8.0639576682
 20
5.7065340656
 10
8.0650387493
 20
5.6490874568
 10
8.0661198304
 20
5.5928795782
 10
8.0672009115
 20
5.5395274282
 10
8.0682819926
 20
5.4905658509
 10
8.0693630736
 20
5.4474033818
 10
8.0704441547
 20
5.4112817266
 10
8.0715252358
 20
5.3832400395
 10
8.0726063169
 20
5.3640850287
 10
8.073687398
 20
5.3543677491
 10
8.0742279385
 20
5.3531464977
  0
LWPOLYLINE
  5
7C2
100
AcDbEntity
  8
0
100
AcDbPolyline
 62
7
  6
CONTINUOUS
 90
9
 70
0
 10
8.2172057861
 20
5.3393365446
 10
8.216162317
 20
5.3487976505
 10
8.2151171768
 20
5.367499484
 10
8.2140558251
 20
5.395422183
 10
8.2129897177
 20
5.4317521635
 10
8.2119336276
 20
5.474927525
 10
8.2108861695
 20
5.5236446769
 10
8.2098278864
 20
5.5774824754
 10
8.208771621
 20
5.6343709104
  0
LWPOLYLINE
  5
7C3
100
AcDbEntity
  8
0
100
AcDbPolyline
 62
7
  6
CONTINUOUS
 90
10
 70
0
 10
8.2362534283
 20
6.0449411984
 10
8.2373079483
 20
6.035299685
 10
8.238349412
 20
6.0165555699
 10
8.2394047556
 20
5.9887280917
 10
8.2404652933
 20
5.9525734541
 10
8.2415164481
 20
5.9096201024
 10
8.2425603924
 20
5.8611036719
 10
8.2436189667
 20
5.8072851427
 10
8.2446797329
 20
5.7501702147
 10
8.246771621
 20
5.6343709104
  0
LWPOLYLINE
  5
7C4
100
AcDbEntity
  8
0
100
AcDbPolyline
 62
7
  6
CONTINUOUS
 90
10
 70
0
 10
8.2972002099
 20
5.3393620835
 10
8.2961427016
 20
5.3490648262
 10
8.295098183
 20
5.3679220246
 10
8.2940445911
 20
5.3957633152
 10
8.2929921989
 20
5.4316587177
 10
8.2919508946
 20
5.4741701787
 10
8.2909047066
 20
5.5227388756
 10
8.2898430449
 20
5.5766853346
 10
8.2887791724
 20
5.6339566721
 10
8.2866810868
 20
5.7500959468
  0
LWPOLYLINE
  5
7C5
100
AcDbEntity
  8
0
100
AcDbPolyline
 62
7
  6
CONTINUOUS
 90
9
 70
0
 10
8.2571957734
 20
5.3393825957
 10
8.2561426806
 20
5.3490651144
 10
8.2550962462
 20
5.3679652717
 10
8.2540348042
 20
5.3960612607
 10
8.2529688995
 20
5.4325377734
 10
8.251913227
 20
5.4758243667
 10
8.2508704761
 20
5.5244126405
 10
8.2498269414
 20
5.5775321896
 10
8.2487755231
 20
5.6341568464
  0
LWPOLYLINE
  5
7C6
100
AcDbEntity
  8
0
100
AcDbPolyline
 62
7
  6
CONTINUOUS
 90
10
 70
0
 10
8.3371907121
 20
5.339406206
 10
8.3361334168
 20
5.3491924275
 10
8.3350914664
 20
5.3680721322
 10
8.3340498673
 20
5.3956029834
 10
8.3329995434
 20
5.4313823403
 10
8.331950982
 20
5.4741663508
 10
8.3309044328
 20
5.522752247
 10
8.3298428595
 20
5.5766950816
 10
8.3287790803
 20
5.6339617234
 10
8.3267341783
 20
5.7471815709
  0
LWPOLYLINE
  5
7C7
100
AcDbEntity
  8
0
100
AcDbPolyline
 62
7
  6
CONTINUOUS
 90
10
 70
0
 10
8.2867755231
 20
5.6341568464
 10
8.2878269414
 20
5.5775321896
 10
8.2888704761
 20
5.5244126405
 10
8.289913227
 20
5.4758243667
 10
8.2909688995
 20
5.4325377734
 10
8.2920348042
 20
5.3960612607
 10
8.2930962462
 20
5.3679652717
 10
8.2941426806
 20
5.3490651144
 10
8.2951957734
 20
5.3393825957
 10
8.2956238685
 20
5.338193797
  0
LWPOLYLINE
  5
7C8
100
AcDbEntity
  8
0
100
AcDbPolyline
 62
7
  6
CONTINUOUS
 90
10
 70
0
 10
8.2866810868
 20
5.7500959468
 10
8.2856239962
 20
5.8070206422
 10
8.2845712348
 20
5.8605736248
 10
8.2835320401
 20
5.9089353372
 10
8.2824806866
 20
5.951992913
 10
8.2814193047
 20
5.988285613
 10
8.2803624329
 20
6.0162651009
 10
8.2793199325
 20
6.0351353789
 10
8.2782655971
 20
6.0448847629
 10
8.2778320085
 20
6.0460991984
  0
LWPOLYLINE
  5
7C9
100
AcDbEntity
  8
0
100
AcDbPolyline
 62
7
  6
CONTINUOUS
 90
10
 70
0
 10
8.3267341783
 20
5.7471815709
 10
8.3257409867
 20
5.8008482339
 10
8.3247431579
 20
5.8521046259
 10
8.3237473653
 20
5.8993475684
 10
8.3227460085
 20
5.9417507857
 10
8.3217322318
 20
5.9783981247
 10
8.3207187473
 20
6.0077945077
 10
8.3197183525
 20
6.0289848416
 10
8.3187229349
 20
6.0418315873
 10
8.3178320085
 20
6.0460991984
  0
LWPOLYLINE
  5
7CA
100
AcDbEntity
  8
0
100
AcDbPolyline
 62
7
  6
CONTINUOUS
 90
11
 70
0
 10
8.3246810868
 20
5.7500959468
 10
8.3267791724
 20
5.6339566721
 10
8.3278430449
 20
5.5766853346
 10
8.3289047066
 20
5.5227388756
 10
8.3299508946
 20
5.4741701787
 10
8.3309921989
 20
5.4316587177
 10
8.3320445911
 20
5.3957633152
 10
8.333098183
 20
5.3679220246
 10
8.3341427016
 20
5.3490648262
 10
8.3352002099
 20
5.3393620835
 10
8.3356238685
 20
5.338193797
  0
LINE
  5
7CB
100
AcDbEntity
  8
0
100
AcDbLine
 62
7
  6
CONTINUOUS
 10
8.3778320085
 20
5.338193797
 11
8.3943366125
 21
5.353195889
  0
LINE
  5
7CC
100
AcDbEntity
  8
0
100
AcDbLine
 62
7
  6
CONTINUOUS
 10
8.4178320085
 20
5.338193797
 11
8.4343366125
 21
5.353195889
  0
LINE
  5
7CD
100
AcDbEntity
  8
0
100
AcDbLine
 62
7
  6
CONTINUOUS
 10
8.4578320085
 20
5.338193797
 11
8.4743366125
 21
5.353195889
  0
LINE
  5
7CE
100
AcDbEntity
  8
0
100
AcDbLine
 62
7
  6
CONTINUOUS
 10
8.4178320085
 20
5.338193797
 11
8.4177285384
 21
5.3381464993
  0
LINE
  5
7CF
100
AcDbEntity
  8
0
100
AcDbLine
 62
7
  6
CONTINUOUS
 10
8.3378320085
 20
5.338193797
 11
8.3377279359
 21
5.3381464977
  0
LINE
  5
7D0
100
AcDbEntity
  8
0
100
AcDbLine
 62
7
  6
CONTINUOUS
 10
8.4577279379
 20
5.3381464977
 11
8.4578320085
 21
5.338193797
  0
LINE
  5
7D1
100
AcDbEntity
  8
0
100
AcDbLine
 62
7
  6
CONTINUOUS
 10
8.3778320085
 20
5.338193797
 11
8.3777273337
 21
5.3381464993
  0
LINE
  5
7D2
100
AcDbEntity
  8
0
100
AcDbLine
 62
7
  6
CONTINUOUS
 10
7.9591192645
 20
5.353195889
 11
7.9756238685
 21
5.338193797
  0
LINE
  5
7D3
100
AcDbEntity
  8
0
100
AcDbLine
 62
7
  6
CONTINUOUS
 10
7.9991192645
 20
5.353195889
 11
8.0156238685
 21
5.338193797
  0
LINE
  5
7D4
100
AcDbEntity
  8
0
100
AcDbLine
 62
7
  6
CONTINUOUS
 10
8.0391192645
 20
5.353195889
 11
8.0556238685
 21
5.338193797
  0
LINE
  5
7D5
100
AcDbEntity
  8
0
100
AcDbLine
 62
7
  6
CONTINUOUS
 10
8.5327279385
 20
4.7171464977
 11
8.561595452
 21
4.6671464977
  0
LINE
  5
7D6
100
AcDbEntity
  8
0
100
AcDbLine
 62
7
  6
CONTINUOUS
 10
8.2177273337
 20
5.3381464993
 11
8.2172057861
 21
5.3393365446
  0
LINE
  5
7D7
100
AcDbEntity
  8
0
100
AcDbLine
 62
7
  6
CONTINUOUS
 10
8.2577285384
 20
5.3381464993
 11
8.2571957734
 21
5.3393825957
  0
LINE
  5
7D8
100
AcDbEntity
  8
0
100
AcDbLine
 62
7
  6
CONTINUOUS
 10
8.1777279359
 20
5.3381464977
 11
8.1771907121
 21
5.339406206
  0
LINE
  5
7D9
100
AcDbEntity
  8
0
100
AcDbLine
 62
7
  6
CONTINUOUS
 10
7.9392279385
 20
6.0311464977
 11
7.9398726754
 21
6.0294094842
  0
LINE
  5
7DA
100
AcDbEntity
  8
0
100
AcDbLine
 62
7
  6
CONTINUOUS
 10
8.198687398
 20
5.3543677491
 11
8.1991192645
 21
5.353195889
  0
LINE
  5
7DB
100
AcDbEntity
  8
0
100
AcDbLine
 62
7
  6
CONTINUOUS
 10
8.238687398
 20
5.3543677491
 11
8.2391192645
 21
5.353195889
  0
LWPOLYLINE
  5
7DC
100
AcDbEntity
  8
0
100
AcDbPolyline
 62
7
  6
CONTINUOUS
 90
19
 70
0
 10
8.0992279385
 20
6.0311464977
 10
8.1003090196
 20
6.0262702913
 10
8.1013901007
 20
6.0117819517
 10
8.1024711818
 20
5.9880982821
 10
8.1035522628
 20
5.9559006184
 10
8.1046333439
 20
5.9161152289
 10
8.105714425
 20
5.8698866668
 10
8.1067955061
 20
5.8185448437
 10
8.1078765872
 20
5.7635667702
 10
8.1089576682
 20
5.7065340656
 10
8.1100387493
 20
5.6490874568
 10
8.1111198304
 20
5.5928795782
 10
8.1122009115
 20
5.5395274282
 10
8.1132819926
 20
5.4905658509
 10
8.1143630736
 20
5.4474033818
 10
8.1154441547
 20
5.4112817266
 10
8.1165252358
 20
5.3832400395
 10
8.1176063169
 20
5.3640850287
 10
8.118687398
 20
5.3543677491
  0
LWPOLYLINE
  5
7DD
100
AcDbEntity
  8
0
100
AcDbPolyline
 62
7
  6
CONTINUOUS
 90
19
 70
0
 10
8.1392279385
 20
6.0311464977
 10
8.1403090196
 20
6.0262702913
 10
8.1413901007
 20
6.0117819517
 10
8.1424711818
 20
5.9880982821
 10
8.1435522628
 20
5.9559006184
 10
8.1446333439
 20
5.9161152289
 10
8.145714425
 20
5.8698866668
 10
8.1467955061
 20
5.8185448437
 10
8.1478765872
 20
5.7635667702
 10
8.1489576682
 20
5.7065340656
 10
8.1500387493
 20
5.6490874568
 10
8.1511198304
 20
5.5928795782
 10
8.1522009115
 20
5.5395274282
 10
8.1532819926
 20
5.4905658509
 10
8.1543630736
 20
5.4474033818
 10
8.1554441547
 20
5.4112817266
 10
8.1565252358
 20
5.3832400395
 10
8.1576063169
 20
5.3640850287
 10
8.158687398
 20
5.3543677491
  0
LWPOLYLINE
  5
7DE
100
AcDbEntity
  8
0
100
AcDbPolyline
 62
7
  6
CONTINUOUS
 90
20
 70
0
 10
8.0943366125
 20
6.0310971064
 10
8.0953090196
 20
6.0262702913
 10
8.0963901007
 20
6.0117819517
 10
8.0974711818
 20
5.9880982821
 10
8.0985522628
 20
5.9559006184
 10
8.0996333439
 20
5.9161152289
 10
8.100714425
 20
5.8698866668
 10
8.1017955061
 20
5.8185448437
 10
8.1028765872
 20
5.7635667702
 10
8.1039576682
 20
5.7065340656
 10
8.1050387493
 20
5.6490874568
 10
8.1061198304
 20
5.5928795782
 10
8.1072009115
 20
5.5395274282
 10
8.1082819926
 20
5.4905658509
 10
8.1093630736
 20
5.4474033818
 10
8.1104441547
 20
5.4112817266
 10
8.1115252358
 20
5.3832400395
 10
8.1126063169
 20
5.3640850287
 10
8.113687398
 20
5.3543677491
 10
8.1142279385
 20
5.3531464977
  0
LWPOLYLINE
  5
7DF
100
AcDbEntity
  8
0
100
AcDbPolyline
 62
7
  6
CONTINUOUS
 90
20
 70
0
 10
8.1343366125
 20
6.0310971064
 10
8.1353090196
 20
6.0262702913
 10
8.1363901007
 20
6.0117819517
 10
8.1374711818
 20
5.9880982821
 10
8.1385522628
 20
5.9559006184
 10
8.1396333439
 20
5.9161152289
 10
8.140714425
 20
5.8698866668
 10
8.1417955061
 20
5.8185448437
 10
8.1428765872
 20
5.7635667702
 10
8.1439576682
 20
5.7065340656
 10
8.1450387493
 20
5.6490874568
 10
8.1461198304
 20
5.5928795782
 10
8.1472009115
 20
5.5395274282
 10
8.1482819926
 20
5.4905658509
 10
8.1493630736
 20
5.4474033818
 10
8.1504441547
 20
5.4112817266
 10
8.1515252358
 20
5.3832400395
 10
8.1526063169
 20
5.3640850287
 10
8.153687398
 20
5.3543677491
 10
8.1542279385
 20
5.3531464977
  0
LWPOLYLINE
  5
7E0
100
AcDbEntity
  8
0
100
AcDbPolyline
 62
7
  6
CONTINUOUS
 90
20
 70
0
 10
8.1743366125
 20
6.0310971064
 10
8.1753090196
 20
6.0262702913
 10
8.1763901007
 20
6.0117819517
 10
8.1774711818
 20
5.9880982821
 10
8.1785522628
 20
5.9559006184
 10
8.1796333439
 20
5.9161152289
 10
8.180714425
 20
5.8698866668
 10
8.1817955061
 20
5.8185448437
 10
8.1828765872
 20
5.7635667702
 10
8.1839576682
 20
5.7065340656
 10
8.1850387493
 20
5.6490874568
 10
8.1861198304
 20
5.5928795782
 10
8.1872009115
 20
5.5395274282
 10
8.1882819926
 20
5.4905658509
 10
8.1893630736
 20
5.4474033818
 10
8.1904441547
 20
5.4112817266
 10
8.1915252358
 20
5.3832400395
 10
8.1926063169
 20
5.3640850287
 10
8.193687398
 20
5.3543677491
 10
8.1942279385
 20
5.3531464977
  0
LWPOLYLINE
  5
7E1
100
AcDbEntity
  8
0
100
AcDbPolyline
 62
7
  6
CONTINUOUS
 90
9
 70
0
 10
8.4171957734
 20
5.3393825957
 10
8.4161426806
 20
5.3490651144
 10
8.4150962462
 20
5.3679652717
 10
8.4140348042
 20
5.3960612607
 10
8.4129688995
 20
5.4325377734
 10
8.411913227
 20
5.4758243667
 10
8.4108704761
 20
5.5244126405
 10
8.4098269414
 20
5.5775321896
 10
8.4087755231
 20
5.6341568464
  0
LWPOLYLINE
  5
7E2
100
AcDbEntity
  8
0
100
AcDbPolyline
 62
7
  6
CONTINUOUS
 90
10
 70
0
 10
8.2762608258
 20
6.0449070445
 10
8.27731958
 20
6.035140229
 10
8.2783641978
 20
6.0162256246
 10
8.2794118574
 20
5.9885123012
 10
8.2804550318
 20
5.9529596082
 10
8.2814997843
 20
5.9103504938
 10
8.2825473241
 20
5.8617418849
 10
8.2836101803
 20
5.8077470464
 10
8.2846753621
 20
5.7504099592
 10
8.2867755231
 20
5.6341568464
  0
LWPOLYLINE
  5
7E3
100
AcDbEntity
  8
0
100
AcDbPolyline
 62
7
  6
CONTINUOUS
 90
9
 70
0
 10
8.3162655971
 20
6.0448847629
 10
8.3173199325
 20
6.0351353789
 10
8.3183624329
 20
6.0162651009
 10
8.3194193047
 20
5.988285613
 10
8.3204806866
 20
5.951992913
 10
8.3215320401
 20
5.9089353372
 10
8.3225712348
 20
5.8605736248
 10
8.3236239962
 20
5.8070206422
 10
8.3246810868
 20
5.7500959468
  0
LWPOLYLINE
  5
7E4
100
AcDbEntity
  8
0
100
AcDbPolyline
 62
7
  6
CONTINUOUS
 90
9
 70
0
 10
8.3567229349
 20
6.0418315873
 10
8.3577183525
 20
6.0289848416
 10
8.3587187473
 20
6.0077945077
 10
8.3597322318
 20
5.9783981247
 10
8.3607460085
 20
5.9417507857
 10
8.3617473653
 20
5.8993475684
 10
8.3627431579
 20
5.8521046259
 10
8.3637409867
 20
5.8008482339
 10
8.3647341783
 20
5.7471815709
  0
LWPOLYLINE
  5
7E5
100
AcDbEntity
  8
0
100
AcDbPolyline
 62
7
  6
CONTINUOUS
 90
10
 70
0
 10
8.406771621
 20
5.6343709104
 10
8.4078278864
 20
5.5774824754
 10
8.4088861695
 20
5.5236446769
 10
8.4099336276
 20
5.474927525
 10
8.4109897177
 20
5.4317521635
 10
8.4120558251
 20
5.395422183
 10
8.4131171768
 20
5.367499484
 10
8.414162317
 20
5.3487976505
 10
8.4152057861
 20
5.3393365446
 10
8.4156238685
 20
5.338193797
  0
LWPOLYLINE
  5
7E6
100
AcDbEntity
  8
0
100
AcDbPolyline
 62
7
  6
CONTINUOUS
 90
11
 70
0
 10
8.3647341783
 20
5.7471815709
 10
8.3667790803
 20
5.6339617234
 10
8.3678428595
 20
5.5766950816
 10
8.3689044328
 20
5.522752247
 10
8.369950982
 20
5.4741663508
 10
8.3709995434
 20
5.4313823403
 10
8.3720498673
 20
5.3956029834
 10
8.3730914664
 20
5.3680721322
 10
8.3741334168
 20
5.3491924275
 10
8.3751907121
 20
5.339406206
 10
8.3756238685
 20
5.338193797
  0
LWPOLYLINE
  5
7E7
100
AcDbEntity
  8
0
100
AcDbPolyline
 62
7
  6
CONTINUOUS
 90
11
 70
0
 10
8.368771621
 20
5.6343709104
 10
8.3666797329
 20
5.7501702147
 10
8.3656189667
 20
5.8072851427
 10
8.3645603924
 20
5.8611036719
 10
8.3635164481
 20
5.9096201024
 10
8.3624652933
 20
5.9525734541
 10
8.3614047556
 20
5.9887280917
 10
8.360349412
 20
6.0165555699
 10
8.3593079483
 20
6.035299685
 10
8.3582534283
 20
6.0449411984
 10
8.3578320085
 20
6.0460991984
  0
LWPOLYLINE
  5
7E8
100
AcDbEntity
  8
0
100
AcDbPolyline
 62
7
  6
CONTINUOUS
 90
11
 70
0
 10
8.4087755231
 20
5.6341568464
 10
8.4066753621
 20
5.7504099592
 10
8.4056101803
 20
5.8077470464
 10
8.4045473241
 20
5.8617418849
 10
8.4034997843
 20
5.9103504938
 10
8.4024550318
 20
5.9529596082
 10
8.4014118574
 20
5.9885123012
 10
8.4003641978
 20
6.0162256246
 10
8.39931958
 20
6.035140229
 10
8.3982608258
 20
6.0449070445
 10
8.3978320085
 20
6.0460991984
  0
LINE
  5
7E9
100
AcDbEntity
  8
0
100
AcDbLine
 62
7
  6
CONTINUOUS
 10
8.0791192645
 20
5.353195889
 11
8.0956238685
 21
5.338193797
  0
LINE
  5
7EA
100
AcDbEntity
  8
0
100
AcDbLine
 62
7
  6
CONTINUOUS
 10
8.1191192645
 20
5.353195889
 11
8.1356238685
 21
5.338193797
  0
LINE
  5
7EB
100
AcDbEntity
  8
0
100
AcDbLine
 62
7
  6
CONTINUOUS
 10
8.1591192645
 20
5.353195889
 11
8.1756238685
 21
5.338193797
  0
LWPOLYLINE
  5
7EC
100
AcDbEntity
  8
0
100
AcDbPolyline
 62
7
  6
CONTINUOUS
 90
11
 70
0
 10
7.9578320085
 20
6.0460991984
 10
7.9580848612
 20
6.0455902765
 10
7.9591563305
 20
6.0372731994
 10
7.9602277676
 20
6.0192034893
 10
7.9612992386
 20
5.9918906646
 10
7.962370722
 20
5.9561065542
 10
7.9634421764
 20
5.9128639659
 10
7.9645135922
 20
5.8633859321
 10
7.9655850448
 20
5.8090672073
 10
7.9666565096
 20
5.7514437218
 10
7.9687791724
 20
5.6339566721
  0
LINE
  5
7ED
100
AcDbEntity
  8
0
100
AcDbLine
 62
7
  6
CONTINUOUS
 10
8.2977279345
 20
5.3381464977
 11
8.2972002099
 21
5.3393620835
  0
LINE
  5
7EE
100
AcDbEntity
  8
0
100
AcDbLine
 62
7
  6
CONTINUOUS
 10
8.3377279359
 20
5.3381464977
 11
8.3371907121
 21
5.339406206
  0
LINE
  5
7EF
100
AcDbEntity
  8
0
100
AcDbLine
 62
7
  6
CONTINUOUS
 10
7.9957279357
 20
6.0461464977
 11
7.9962655971
 21
6.0448847629
  0
LINE
  5
7F0
100
AcDbEntity
  8
0
100
AcDbLine
 62
7
  6
CONTINUOUS
 10
8.278687398
 20
5.3543677491
 11
8.2791192645
 21
5.353195889
  0
LINE
  5
7F1
100
AcDbEntity
  8
0
100
AcDbLine
 62
7
  6
CONTINUOUS
 10
8.318687398
 20
5.3543677491
 11
8.3191192645
 21
5.353195889
  0
LINE
  5
7F2
100
AcDbEntity
  8
0
100
AcDbLine
 62
7
  6
CONTINUOUS
 10
8.3585535199
 20
5.3550469735
 11
8.3591192645
 21
5.353195889
  0
LINE
  5
7F3
100
AcDbEntity
  8
0
100
AcDbLine
 62
7
  6
CONTINUOUS
 10
8.1957279385
 20
6.0461464977
 11
8.1967229349
 21
6.0418315873
  0
LINE
  5
7F4
100
AcDbEntity
  8
0
100
AcDbLine
 62
7
  6
CONTINUOUS
 10
8.3982783261
 20
5.3569109067
 11
8.3991192645
 21
5.353195889
  0
LWPOLYLINE
  5
7F5
100
AcDbEntity
  8
0
100
AcDbPolyline
 62
7
  6
CONTINUOUS
 90
19
 70
0
 10
8.1792279385
 20
6.0311464977
 10
8.1803090196
 20
6.0262702913
 10
8.1813901007
 20
6.0117819517
 10
8.1824711818
 20
5.9880982821
 10
8.1835522628
 20
5.9559006184
 10
8.1846333439
 20
5.9161152289
 10
8.185714425
 20
5.8698866668
 10
8.1867955061
 20
5.8185448437
 10
8.1878765872
 20
5.7635667702
 10
8.1889576682
 20
5.7065340656
 10
8.1900387493
 20
5.6490874568
 10
8.1911198304
 20
5.5928795782
 10
8.1922009115
 20
5.5395274282
 10
8.1932819926
 20
5.4905658509
 10
8.1943630736
 20
5.4474033818
 10
8.1954441547
 20
5.4112817266
 10
8.1965252358
 20
5.3832400395
 10
8.1976063169
 20
5.3640850287
 10
8.198687398
 20
5.3543677491
  0
LWPOLYLINE
  5
7F6
100
AcDbEntity
  8
0
100
AcDbPolyline
 62
7
  6
CONTINUOUS
 90
19
 70
0
 10
8.2192279385
 20
6.0311464977
 10
8.2203090196
 20
6.0262702913
 10
8.2213901007
 20
6.0117819517
 10
8.2224711818
 20
5.9880982821
 10
8.2235522628
 20
5.9559006184
 10
8.2246333439
 20
5.9161152289
 10
8.225714425
 20
5.8698866668
 10
8.2267955061
 20
5.8185448437
 10
8.2278765872
 20
5.7635667702
 10
8.2289576682
 20
5.7065340656
 10
8.2300387493
 20
5.6490874568
 10
8.2311198304
 20
5.5928795782
 10
8.2322009115
 20
5.5395274282
 10
8.2332819926
 20
5.4905658509
 10
8.2343630736
 20
5.4474033818
 10
8.2354441547
 20
5.4112817266
 10
8.2365252358
 20
5.3832400395
 10
8.2376063169
 20
5.3640850287
 10
8.238687398
 20
5.3543677491
  0
LWPOLYLINE
  5
7F7
100
AcDbEntity
  8
0
100
AcDbPolyline
 62
7
  6
CONTINUOUS
 90
20
 70
0
 10
8.2143366125
 20
6.0310971064
 10
8.2153090196
 20
6.0262702913
 10
8.2163901007
 20
6.0117819517
 10
8.2174711818
 20
5.9880982821
 10
8.2185522628
 20
5.9559006184
 10
8.2196333439
 20
5.9161152289
 10
8.220714425
 20
5.8698866668
 10
8.2217955061
 20
5.8185448437
 10
8.2228765872
 20
5.7635667702
 10
8.2239576682
 20
5.7065340656
 10
8.2250387493
 20
5.6490874568
 10
8.2261198304
 20
5.5928795782
 10
8.2272009115
 20
5.5395274282
 10
8.2282819926
 20
5.4905658509
 10
8.2293630736
 20
5.4474033818
 10
8.2304441547
 20
5.4112817266
 10
8.2315252358
 20
5.3832400395
 10
8.2326063169
 20
5.3640850287
 10
8.233687398
 20
5.3543677491
 10
8.2342279385
 20
5.3531464977
  0
LWPOLYLINE
  5
7F8
100
AcDbEntity
  8
0
100
AcDbPolyline
 62
7
  6
CONTINUOUS
 90
20
 70
0
 10
8.2543366125
 20
6.0310971064
 10
8.2553090196
 20
6.0262702913
 10
8.2563901007
 20
6.0117819517
 10
8.2574711818
 20
5.9880982821
 10
8.2585522628
 20
5.9559006184
 10
8.2596333439
 20
5.9161152289
 10
8.260714425
 20
5.8698866668
 10
8.2617955061
 20
5.8185448437
 10
8.2628765872
 20
5.7635667702
 10
8.2639576682
 20
5.7065340656
 10
8.2650387493
 20
5.6490874568
 10
8.2661198304
 20
5.5928795782
 10
8.2672009115
 20
5.5395274282
 10
8.2682819926
 20
5.4905658509
 10
8.2693630736
 20
5.4474033818
 10
8.2704441547
 20
5.4112817266
 10
8.2715252358
 20
5.3832400395
 10
8.2726063169
 20
5.3640850287
 10
8.273687398
 20
5.3543677491
 10
8.2742279385
 20
5.3531464977
  0
LWPOLYLINE
  5
7F9
100
AcDbEntity
  8
0
100
AcDbPolyline
 62
7
  6
CONTINUOUS
 90
9
 70
0
 10
8.3772057861
 20
5.3393365446
 10
8.376162317
 20
5.3487976505
 10
8.3751171768
 20
5.367499484
 10
8.3740558251
 20
5.395422183
 10
8.3729897177
 20
5.4317521635
 10
8.3719336276
 20
5.474927525
 10
8.3708861695
 20
5.5236446769
 10
8.3698278864
 20
5.5774824754
 10
8.368771621
 20
5.6343709104
  0
LWPOLYLINE
  5
7FA
100
AcDbEntity
  8
0
100
AcDbPolyline
 62
7
  6
CONTINUOUS
 90
10
 70
0
 10
8.3962534283
 20
6.0449411984
 10
8.3973079483
 20
6.035299685
 10
8.398349412
 20
6.0165555699
 10
8.3994047556
 20
5.9887280917
 10
8.4004652933
 20
5.9525734541
 10
8.4015164481
 20
5.9096201024
 10
8.4025603924
 20
5.8611036719
 10
8.4036189667
 20
5.8072851427
 10
8.4046797329
 20
5.7501702147
 10
8.406771621
 20
5.6343709104
  0
LWPOLYLINE
  5
7FB
100
AcDbEntity
  8
0
100
AcDbPolyline
 62
7
  6
CONTINUOUS
 90
10
 70
0
 10
8.4466810868
 20
5.7500959468
 10
8.4456239962
 20
5.8070206422
 10
8.4445712348
 20
5.8605736248
 10
8.4435320401
 20
5.9089353372
 10
8.4424806866
 20
5.951992913
 10
8.4414193047
 20
5.988285613
 10
8.4403624329
 20
6.0162651009
 10
8.4393199325
 20
6.0351353789
 10
8.4382655971
 20
6.0448847629
 10
8.4378320085
 20
6.0460991984
  0
LWPOLYLINE
  5
7FC
100
AcDbEntity
  8
0
100
AcDbPolyline
 62
7
  6
CONTINUOUS
 90
10
 70
0
 10
8.4466810868
 20
5.7500959468
 10
8.4487993817
 20
5.6328484943
 10
8.4498708683
 20
5.5752238993
 10
8.4509423479
 20
5.520903991
 10
8.4520137804
 20
5.4714255597
 10
8.453085203
 20
5.4281846642
 10
8.4541566603
 20
5.3924016827
 10
8.4552281222
 20
5.3650892352
 10
8.4562995637
 20
5.3470195837
 10
8.4573710403
 20
5.3387026425
  0
LINE
  5
7FD
100
AcDbEntity
  8
0
100
AcDbLine
 62
7
  6
CONTINUOUS
 10
8.4777279385
 20
6.0461464977
 11
8.4777279385
 21
5.3531367461
  0
LINE
  5
7FE
100
AcDbEntity
  8
0
100
AcDbLine
 62
9
  6
CONTINUOUS
 10
8.5152279385
 20
5.3533964977
 11
8.5152279385
 21
6.0308964977
  0
LINE
  5
7FF
100
AcDbEntity
  8
0
100
AcDbLine
 62
7
  6
CONTINUOUS
 10
8.5277279385
 20
4.7671464977
 11
8.5277279385
 21
6.2241418734
  0
LWPOLYLINE
  5
800
100
AcDbEntity
  8
0
100
AcDbPolyline
 62
9
  6
CONTINUOUS
 90
6
 70
0
 10
8.8227279385
 20
5.1452653406
 10
8.7845131253
 20
5.1433352065
 10
8.7441814842
 20
5.1371569399
 10
8.7033831154
 20
5.1267216756
 10
8.6639035665
 20
5.1128289919
 10
8.6274462484
 20
5.0969120901
  0
LINE
  5
801
100
AcDbEntity
  8
0
100
AcDbLine
 62
7
  6
CONTINUOUS
 10
9.1217279385
 20
5.1011464977
 11
9.1095700526
 21
5.1011464977
  0
LINE
  5
802
100
AcDbEntity
  8
AXIS_COSMETIC_THREADS
100
AcDbLine
 62
7
  6
CONTINUOUS
 10
9.1095700526
 20
5.1011464977
 11
9.1217279385
 21
5.1011464977
  0
LINE
  5
803
100
AcDbEntity
  8
0
100
AcDbLine
 62
7
  6
CONTINUOUS
 10
7.9756238685
 20
5.338193797
 11
7.9757285384
 21
5.3381464993
  0
LINE
  5
804
100
AcDbEntity
  8
0
100
AcDbLine
 62
7
  6
CONTINUOUS
 10
8.1356238685
 20
5.338193797
 11
8.1357285384
 21
5.3381464993
  0
LINE
  5
805
100
AcDbEntity
  8
0
100
AcDbLine
 62
7
  6
CONTINUOUS
 10
8.0156238685
 20
5.338193797
 11
8.0157279345
 21
5.3381464977
  0
LINE
  5
806
100
AcDbEntity
  8
0
100
AcDbLine
 62
7
  6
CONTINUOUS
 10
8.0556238685
 20
5.338193797
 11
8.0557279359
 21
5.3381464977
  0
LINE
  5
807
100
AcDbEntity
  8
0
100
AcDbLine
 62
7
  6
CONTINUOUS
 10
8.0956238685
 20
5.338193797
 11
8.0957273337
 21
5.3381464993
  0
LINE
  5
808
100
AcDbEntity
  8
0
100
AcDbLine
 62
7
  6
CONTINUOUS
 10
8.1991192645
 20
5.353195889
 11
8.2156238685
 21
5.338193797
  0
LINE
  5
809
100
AcDbEntity
  8
0
100
AcDbLine
 62
7
  6
CONTINUOUS
 10
8.2391192645
 20
5.353195889
 11
8.2556238685
 21
5.338193797
  0
LINE
  5
80A
100
AcDbEntity
  8
0
100
AcDbLine
 62
7
  6
CONTINUOUS
 10
8.2791192645
 20
5.353195889
 11
8.2956238685
 21
5.338193797
  0
LINE
  5
80B
100
AcDbEntity
  8
0
100
AcDbLine
 62
7
  6
CONTINUOUS
 10
8.3191192645
 20
5.353195889
 11
8.3356238685
 21
5.338193797
  0
LINE
  5
80C
100
AcDbEntity
  8
0
100
AcDbLine
 62
7
  6
CONTINUOUS
 10
8.3777273337
 20
5.3381464993
 11
8.3772057861
 21
5.3393365446
  0
LINE
  5
80D
100
AcDbEntity
  8
0
100
AcDbLine
 62
7
  6
CONTINUOUS
 10
8.0757279351
 20
6.0461464977
 11
8.0762534283
 21
6.0449411984
  0
LINE
  5
80E
100
AcDbEntity
  8
0
100
AcDbLine
 62
7
  6
CONTINUOUS
 10
8.4177285384
 20
5.3381464993
 11
8.4171957734
 21
5.3393825957
  0
LINE
  5
80F
100
AcDbEntity
  8
0
100
AcDbLine
 62
7
  6
CONTINUOUS
 10
8.1157279352
 20
6.0461464977
 11
8.1162608258
 21
6.0449070445
  0
LWPOLYLINE
  5
810
100
AcDbEntity
  8
0
100
AcDbPolyline
 62
7
  6
CONTINUOUS
 90
19
 70
0
 10
8.2592279385
 20
6.0311464977
 10
8.2603090196
 20
6.0262702913
 10
8.2613901007
 20
6.0117819517
 10
8.2624711818
 20
5.9880982821
 10
8.2635522628
 20
5.9559006184
 10
8.2646333439
 20
5.9161152289
 10
8.265714425
 20
5.8698866668
 10
8.2667955061
 20
5.8185448437
 10
8.2678765872
 20
5.7635667702
 10
8.2689576682
 20
5.7065340656
 10
8.2700387493
 20
5.6490874568
 10
8.2711198304
 20
5.5928795782
 10
8.2722009115
 20
5.5395274282
 10
8.2732819926
 20
5.4905658509
 10
8.2743630736
 20
5.4474033818
 10
8.2754441547
 20
5.4112817266
 10
8.2765252358
 20
5.3832400395
 10
8.2776063169
 20
5.3640850287
 10
8.278687398
 20
5.3543677491
  0
LWPOLYLINE
  5
811
100
AcDbEntity
  8
0
100
AcDbPolyline
 62
7
  6
CONTINUOUS
 90
19
 70
0
 10
8.2992279385
 20
6.0311464977
 10
8.3003090196
 20
6.0262702913
 10
8.3013901007
 20
6.0117819517
 10
8.3024711818
 20
5.9880982821
 10
8.3035522628
 20
5.9559006184
 10
8.3046333439
 20
5.9161152289
 10
8.305714425
 20
5.8698866668
 10
8.3067955061
 20
5.8185448437
 10
8.3078765872
 20
5.7635667702
 10
8.3089576682
 20
5.7065340656
 10
8.3100387493
 20
5.6490874568
 10
8.3111198304
 20
5.5928795782
 10
8.3122009115
 20
5.5395274282
 10
8.3132819926
 20
5.4905658509
 10
8.3143630736
 20
5.4474033818
 10
8.3154441547
 20
5.4112817266
 10
8.3165252358
 20
5.3832400395
 10
8.3176063169
 20
5.3640850287
 10
8.318687398
 20
5.3543677491
  0
LWPOLYLINE
  5
812
100
AcDbEntity
  8
0
100
AcDbPolyline
 62
7
  6
CONTINUOUS
 90
20
 70
0
 10
8.3343366125
 20
6.0310971064
 10
8.3353068859
 20
6.0262894744
 10
8.3363858332
 20
6.0118575827
 10
8.3374647806
 20
5.9882643684
 10
8.338543728
 20
5.9561858952
 10
8.3396226754
 20
5.9165413719
 10
8.3407016227
 20
5.8704668124
 10
8.3417805701
 20
5.8192824836
 10
8.3428595175
 20
5.7644550725
 10
8.3439384648
 20
5.7075556589
 10
8.3450174122
 20
5.6502146957
 10
8.3460963596
 20
5.5940752885
 10
8.3471753069
 20
5.5407461122
 10
8.3482542543
 20
5.4917553146
 10
8.3493332017
 20
5.4485067273
 10
8.350412149
 20
5.4122396386
 10
8.3514910964
 20
5.3839932823
 10
8.3525700438
 20
5.3645770577
 10
8.3536489911
 20
5.3545473369
 10
8.3542279385
 20
5.3531464977
  0
LWPOLYLINE
  5
813
100
AcDbEntity
  8
0
100
AcDbPolyline
 62
7
  6
CONTINUOUS
 90
20
 70
0
 10
8.2943366125
 20
6.0310971064
 10
8.2953090196
 20
6.0262702913
 10
8.2963901007
 20
6.0117819517
 10
8.2974711818
 20
5.9880982821
 10
8.2985522628
 20
5.9559006184
 10
8.2996333439
 20
5.9161152289
 10
8.300714425
 20
5.8698866668
 10
8.3017955061
 20
5.8185448437
 10
8.3028765872
 20
5.7635667702
 10
8.3039576682
 20
5.7065340656
 10
8.3050387493
 20
5.6490874568
 10
8.3061198304
 20
5.5928795782
 10
8.3072009115
 20
5.5395274282
 10
8.3082819926
 20
5.4905658509
 10
8.3093630736
 20
5.4474033818
 10
8.3104441547
 20
5.4112817266
 10
8.3115252358
 20
5.3832400395
 10
8.3126063169
 20
5.3640850287
 10
8.313687398
 20
5.3543677491
 10
8.3142279385
 20
5.3531464977
  0
LINE
  5
814
100
AcDbEntity
  8
0
100
AcDbLine
 62
7
  6
CONTINUOUS
 10
8.4380031323
 20
5.3594011646
 11
8.4391192645
 21
5.353195889
  0
LWPOLYLINE
  5
815
100
AcDbEntity
  8
0
100
AcDbPolyline
 62
7
  6
CONTINUOUS
 90
8
 70
0
 10
8.5277279385
 20
5.1601464977
 10
8.5295599471
 20
5.1476821642
 10
8.5346944473
 20
5.1399925371
 10
8.542413241
 20
5.1363448803
 10
8.5519967203
 20
5.1360322167
 10
8.5629077815
 20
5.138553027
 10
8.5748510955
 20
5.1437103957
 10
8.5877279385
 20
5.1516882626
  0
LWPOLYLINE
  5
816
100
AcDbEntity
  8
0
100
AcDbPolyline
 62
9
  6
CONTINUOUS
 90
8
 70
0
 10
8.5277279385
 20
5.1601464977
 10
8.5307726851
 20
5.1330292712
 10
8.5393060798
 20
5.1123272219
 10
8.5521344975
 20
5.0980869622
 10
8.5680619703
 20
5.0898327679
 10
8.5861958465
 20
5.0870032955
 10
8.606045298
 20
5.0892923259
 10
8.6274462484
 20
5.0969120901
  0
LWPOLYLINE
  5
817
100
AcDbEntity
  8
0
100
AcDbPolyline
 62
7
  6
CONTINUOUS
 90
9
 70
0
 10
8.4362608258
 20
6.0449070445
 10
8.43731958
 20
6.035140229
 10
8.4383641978
 20
6.0162256246
 10
8.4394118574
 20
5.9885123012
 10
8.4404550318
 20
5.9529596082
 10
8.4414997843
 20
5.9103504938
 10
8.4425473241
 20
5.8617418849
 10
8.4436101803
 20
5.8077470464
 10
8.4446753621
 20
5.7504099592
  0
LWPOLYLINE
  5
818
100
AcDbEntity
  8
0
100
AcDbPolyline
 62
7
  6
CONTINUOUS
 90
3
 70
0
 10
8.4777279385
 20
6.0288205045
 10
8.4766614198
 20
6.0423477014
 10
8.4757279396
 20
6.0461464977
  0
LINE
  5
819
100
AcDbEntity
  8
0
100
AcDbLine
 62
7
  6
CONTINUOUS
 10
8.5327279385
 20
4.7671464977
 11
8.5327279385
 21
4.7171464977
  0
LINE
  5
81A
100
AcDbEntity
  8
0
100
AcDbLine
 62
9
  6
CONTINUOUS
 10
8.5877279385
 20
5.1516882626
 11
8.5877279385
 21
6.2841464977
  0
LWPOLYLINE
  5
81B
100
AcDbEntity
  8
0
100
AcDbPolyline
 62
9
  6
CONTINUOUS
 90
6
 70
0
 10
8.8227279385
 20
5.1955918274
 10
8.7767406209
 20
5.193839313
 10
8.7282059342
 20
5.1882295986
 10
8.6791095921
 20
5.1787546347
 10
8.6316003043
 20
5.1661404188
 10
8.5877279385
 20
5.1516882626
  0
LINE
  5
81C
100
AcDbEntity
  8
0
100
AcDbLine
 62
7
  6
CONTINUOUS
 10
8.2956238685
 20
5.338193797
 11
8.2957285384
 21
5.3381464993
  0
LINE
  5
81D
100
AcDbEntity
  8
0
100
AcDbLine
 62
7
  6
CONTINUOUS
 10
8.1756238685
 20
5.338193797
 11
8.1757279345
 21
5.3381464977
  0
LINE
  5
81E
100
AcDbEntity
  8
0
100
AcDbLine
 62
7
  6
CONTINUOUS
 10
8.2156238685
 20
5.338193797
 11
8.2157279359
 21
5.3381464977
  0
LINE
  5
81F
100
AcDbEntity
  8
0
100
AcDbLine
 62
7
  6
CONTINUOUS
 10
8.3356238685
 20
5.338193797
 11
8.3357279345
 21
5.3381464977
  0
LINE
  5
820
100
AcDbEntity
  8
0
100
AcDbLine
 62
7
  6
CONTINUOUS
 10
8.2556238685
 20
5.338193797
 11
8.2557273337
 21
5.3381464993
  0
LWPOLYLINE
  5
821
100
AcDbEntity
  8
0
100
AcDbPolyline
 62
9
  6
CONTINUOUS
 90
6
 70
0
 10
8.5877279385
 20
5.1516882626
 10
8.5981293619
 20
5.1455705455
 10
8.6078738151
 20
5.1363794836
 10
8.6163458228
 20
5.1246955988
 10
8.6230102798
 20
5.1112568637
 10
8.6274462484
 20
5.0969120901
  0
LINE
  5
822
100
AcDbEntity
  8
0
100
AcDbLine
 62
7
  6
CONTINUOUS
 10
8.3591192645
 20
5.353195889
 11
8.3756238685
 21
5.338193797
  0
LINE
  5
823
100
AcDbEntity
  8
0
100
AcDbLine
 62
7
  6
CONTINUOUS
 10
8.3991192645
 20
5.353195889
 11
8.4156238685
 21
5.338193797
  0
LINE
  5
824
100
AcDbEntity
  8
0
100
AcDbLine
 62
7
  6
CONTINUOUS
 10
8.4391192645
 20
5.353195889
 11
8.4556238685
 21
5.338193797
  0
LINE
  5
825
100
AcDbEntity
  8
0
100
AcDbLine
 62
7
  6
CONTINUOUS
 10
7.9560354515
 20
6.0457335877
 11
7.9557279391
 21
6.0461464977
  0
LWPOLYLINE
  5
826
100
AcDbEntity
  8
0
100
AcDbPolyline
 62
7
  6
CONTINUOUS
 90
19
 70
0
 10
7.9792279385
 20
6.0311464977
 10
7.9795503069
 20
6.0307119658
 10
7.9806226754
 20
6.0230433044
 10
7.9816950438
 20
6.0060078006
 10
7.9827674122
 20
5.980087686
 10
7.9838397806
 20
5.9460166926
 10
7.984912149
 20
5.9047592832
 10
7.9859845175
 20
5.8574833496
 10
7.9870568859
 20
5.8055271525
 10
7.9881292543
 20
5.750361439
 10
7.9892016227
 20
5.6935478094
 10
7.9902739911
 20
5.6366945122
 10
7.9913463596
 20
5.581410919
 10
7.992418728
 20
5.5292619667
 10
7.9934910964
 20
5.4817238591
 10
7.9945634648
 20
5.4401422782
 10
7.9956358332
 20
5.4056942924
 10
7.9967082017
 20
5.3793550359
 10
7.9977805701
 20
5.3618701058
  0
LINE
  5
827
100
AcDbEntity
  8
0
100
AcDbLine
 62
7
  6
CONTINUOUS
 10
8.4573710403
 20
5.3387026425
 11
8.4577279379
 21
5.3381464977
  0
LWPOLYLINE
  5
828
100
AcDbEntity
  8
0
100
AcDbPolyline
 62
7
  6
CONTINUOUS
 90
11
 70
0
 10
8.4556238685
 20
5.338193797
 10
8.4553282267
 20
5.3388440301
 10
8.4542615203
 20
5.347496411
 10
8.4531948334
 20
5.3658020236
 10
8.4521281056
 20
5.3932494329
 10
8.4510613645
 20
5.4290697828
 10
8.4499946531
 20
5.4722580931
 10
8.4489279814
 20
5.5216036065
 10
8.4478613108
 20
5.5757256609
 10
8.4467946174
 20
5.633109689
 10
8.4446753621
 20
5.7504099592
  0
LINE
  5
829
100
AcDbEntity
  8
0
100
AcDbLine
 62
7
  6
CONTINUOUS
 10
8.2357279351
 20
6.0461464977
 11
8.2362534283
 21
6.0449411984
  0
LINE
  5
82A
100
AcDbEntity
  8
0
100
AcDbLine
 62
7
  6
CONTINUOUS
 10
8.1557279357
 20
6.0461464977
 11
8.1562655971
 21
6.0448847629
  0
LWPOLYLINE
  5
82B
100
AcDbEntity
  8
0
100
AcDbPolyline
 62
7
  6
CONTINUOUS
 90
20
 70
0
 10
8.4143366125
 20
6.0310971064
 10
8.4151489911
 20
6.0276047251
 10
8.4162279385
 20
6.0145546567
 10
8.4173068859
 20
5.9922659811
 10
8.4183858332
 20
5.9613773803
 10
8.4194647806
 20
5.9227739674
 10
8.420543728
 20
5.8775619233
 10
8.4216226754
 20
5.8270367994
 10
8.4227016227
 20
5.7726463932
 10
8.4237805701
 20
5.7159492623
 10
8.4248595175
 20
5.6585700629
 10
8.4259384648
 20
5.6021529965
 10
8.4270174122
 20
5.5483146943
 10
8.4280963596
 20
5.498597893
 10
8.4291753069
 20
5.4544272278
 10
8.4302542543
 20
5.4170684094
 10
8.4313332017
 20
5.3875919548
 10
8.432412149
 20
5.366842512
 10
8.4334910964
 20
5.3554146564
 10
8.4342279385
 20
5.3531464977
  0
LINE
  5
82C
100
AcDbEntity
  8
0
100
AcDbLine
 62
7
  6
CONTINUOUS
 10
8.3557279385
 20
6.0461464977
 11
8.3567229349
 21
6.0418315873
  0
LWPOLYLINE
  5
82D
100
AcDbEntity
  8
0
100
AcDbPolyline
 62
7
  6
CONTINUOUS
 90
19
 70
0
 10
8.3392279385
 20
6.0311464977
 10
8.3403015819
 20
6.026336997
 10
8.3413752253
 20
6.0120449629
 10
8.3424488687
 20
5.9886759265
 10
8.3435225122
 20
5.9568929757
 10
8.3445961556
 20
5.9175979402
 10
8.345669799
 20
5.8719058022
 10
8.3467434424
 20
5.8211130596
 10
8.3478170858
 20
5.7666609379
 10
8.3488907292
 20
5.710094496
 10
8.3499643726
 20
5.6530187863
 10
8.351038016
 20
5.5970533111
 10
8.3521116594
 20
5.5437860704
 10
8.3531853029
 20
5.4947285027
 10
8.3542589463
 20
5.4512725986
 10
8.3553325897
 20
5.4146514034
 10
8.3564062331
 20
5.3859040304
 10
8.3574798765
 20
5.3658461756
 10
8.3585535199
 20
5.3550469735
  0
LWPOLYLINE
  5
82E
100
AcDbEntity
  8
0
100
AcDbPolyline
 62
7
  6
CONTINUOUS
 90
20
 70
0
 10
8.3743366125
 20
6.0310971064
 10
8.3752279385
 20
6.0269728452
 10
8.3763068859
 20
6.0132308084
 10
8.3773858332
 20
5.9902880994
 10
8.3784647806
 20
5.9588021414
 10
8.379543728
 20
5.9196751647
 10
8.3806226754
 20
5.8740283531
 10
8.3817016227
 20
5.8231697161
 10
8.3827805701
 20
5.7685566082
 10
8.3838595175
 20
5.7117539682
 10
8.3849384648
 20
5.6543894761
 10
8.3860174122
 20
5.5981069116
 10
8.3870963596
 20
5.5445190519
 10
8.3881753069
 20
5.4951614573
 10
8.3892542543
 20
5.4514484699
 10
8.3903332017
 20
5.4146326855
 10
8.391412149
 20
5.3857690607
 10
8.3924910964
 20
5.3656846827
 10
8.3935700438
 20
5.3549550694
 10
8.3942279385
 20
5.3531464977
  0
LWPOLYLINE
  5
82F
100
AcDbEntity
  8
0
100
AcDbPolyline
 62
9
  6
CONTINUOUS
 90
7
 70
0
 10
8.9677279385
 20
5.1587948313
 10
8.9492809744
 20
5.1534463431
 10
8.9277830183
 20
5.1495309274
 10
8.9036978931
 20
5.1470983852
 10
8.8776534768
 20
5.1458613099
 10
8.8504056818
 20
5.1453772562
 10
8.8227279385
 20
5.1452653406
  0
LINE
  5
830
100
AcDbEntity
  8
0
100
AcDbLine
 62
7
  6
CONTINUOUS
 10
8.4577279385
 20
5.3381464977
 11
8.4557279385
 21
5.3381464977
  0
LINE
  5
831
100
AcDbEntity
  8
0
100
AcDbLine
 62
7
  6
CONTINUOUS
 10
8.4177279385
 20
5.3381464977
 11
8.4157279385
 21
5.3381464977
  0
LINE
  5
832
100
AcDbEntity
  8
0
100
AcDbLine
 62
7
  6
CONTINUOUS
 10
8.3777279385
 20
5.3381464977
 11
8.3757279385
 21
5.3381464977
  0
LINE
  5
833
100
AcDbEntity
  8
0
100
AcDbLine
 62
7
  6
CONTINUOUS
 10
8.3377279385
 20
5.3381464977
 11
8.3357279385
 21
5.3381464977
  0
LINE
  5
834
100
AcDbEntity
  8
0
100
AcDbLine
 62
7
  6
CONTINUOUS
 10
8.2977279385
 20
5.3381464977
 11
8.2957279385
 21
5.3381464977
  0
LINE
  5
835
100
AcDbEntity
  8
0
100
AcDbLine
 62
7
  6
CONTINUOUS
 10
8.2577279385
 20
5.3381464977
 11
8.2557279385
 21
5.3381464977
  0
LINE
  5
836
100
AcDbEntity
  8
0
100
AcDbLine
 62
7
  6
CONTINUOUS
 10
8.2177279385
 20
5.3381464977
 11
8.2157279385
 21
5.3381464977
  0
LINE
  5
837
100
AcDbEntity
  8
0
100
AcDbLine
 62
7
  6
CONTINUOUS
 10
8.1777279385
 20
5.3381464977
 11
8.1757279385
 21
5.3381464977
  0
LINE
  5
838
100
AcDbEntity
  8
0
100
AcDbLine
 62
7
  6
CONTINUOUS
 10
8.1377279385
 20
5.3381464977
 11
8.1357279385
 21
5.3381464977
  0
LINE
  5
839
100
AcDbEntity
  8
0
100
AcDbLine
 62
7
  6
CONTINUOUS
 10
8.0977279385
 20
5.3381464977
 11
8.0957279385
 21
5.3381464977
  0
LINE
  5
83A
100
AcDbEntity
  8
0
100
AcDbLine
 62
7
  6
CONTINUOUS
 10
8.0577279385
 20
5.3381464977
 11
8.0557279385
 21
5.3381464977
  0
LINE
  5
83B
100
AcDbEntity
  8
0
100
AcDbLine
 62
7
  6
CONTINUOUS
 10
8.0177279385
 20
5.3381464977
 11
8.0157279385
 21
5.3381464977
  0
LINE
  5
83C
100
AcDbEntity
  8
0
100
AcDbLine
 62
7
  6
CONTINUOUS
 10
7.9777279385
 20
5.3381464977
 11
7.9757279385
 21
5.3381464977
  0
LWPOLYLINE
  5
83D
100
AcDbEntity
  8
0
100
AcDbPolyline
 62
7
  6
CONTINUOUS
 90
3
 70
0
 10
8.9677279385
 20
5.1554668912
 10
9.0085007357
 20
5.1430458401
 10
9.0444328119
 20
5.1298716086
  0
LWPOLYLINE
  5
83E
100
AcDbEntity
  8
0
100
AcDbPolyline
 62
7
  6
CONTINUOUS
 90
5
 70
0
 10
9.0444328119
 20
5.1298716086
 10
9.0737120011
 20
5.1176963261
 10
9.0955159806
 20
5.1078406566
 10
9.1098094877
 20
5.1010324512
 10
9.1168530129
 20
5.0975797988
  0
LINE
  5
83F
100
AcDbEntity
  8
0
100
AcDbLine
 62
7
  6
CONTINUOUS
 10
8.3756238685
 20
5.338193797
 11
8.3757279359
 21
5.3381464977
  0
LINE
  5
840
100
AcDbEntity
  8
0
100
AcDbLine
 62
7
  6
CONTINUOUS
 10
8.4557279394
 20
5.3381464977
 11
8.4556238685
 21
5.338193797
  0
LINE
  5
841
100
AcDbEntity
  8
0
100
AcDbLine
 62
7
  6
CONTINUOUS
 10
8.4156238685
 20
5.338193797
 11
8.4157273337
 21
5.3381464993
  0
LINE
  5
842
100
AcDbEntity
  8
0
100
AcDbLine
 62
7
  6
CONTINUOUS
 10
8.2757279352
 20
6.0461464977
 11
8.2762608258
 21
6.0449070445
  0
LINE
  5
843
100
AcDbEntity
  8
0
100
AcDbLine
 62
7
  6
CONTINUOUS
 10
8.3157279357
 20
6.0461464977
 11
8.3162655971
 21
6.0448847629
  0
LWPOLYLINE
  5
844
100
AcDbEntity
  8
0
100
AcDbPolyline
 62
7
  6
CONTINUOUS
 90
19
 70
0
 10
8.3792279385
 20
6.0311464977
 10
8.3800263881
 20
6.0284837187
 10
8.3811000315
 20
6.0165941727
 10
8.3821736749
 20
5.9954985423
 10
8.3832473184
 20
5.9657954083
 10
8.3843209618
 20
5.9283275863
 10
8.3853946052
 20
5.884158212
 10
8.3864682486
 20
5.8345405754
 10
8.387541892
 20
5.7808825588
 10
8.3886155354
 20
5.7247066888
 10
8.3896891788
 20
5.6676069353
 10
8.3907628222
 20
5.6112034829
 10
8.3918364656
 20
5.5570967591
 10
8.3929101091
 20
5.5068220223
 10
8.3939837525
 20
5.4618057998
 10
8.3950573959
 20
5.4233254107
 10
8.3961310393
 20
5.3924727218
 10
8.3972046827
 20
5.370123167
 10
8.3982783261
 20
5.3569109067
  0
LWPOLYLINE
  5
845
100
AcDbEntity
  8
0
100
AcDbPolyline
 62
7
  6
CONTINUOUS
 90
20
 70
0
 10
8.4543366125
 20
6.0310971064
 10
8.4550700438
 20
6.0281850172
 10
8.4561489911
 20
6.015828924
 10
8.4572279385
 20
5.9941977094
 10
8.4583068859
 20
5.963911216
 10
8.4593858332
 20
5.9258373034
 10
8.4604647806
 20
5.8810669797
 10
8.461543728
 20
5.8308831388
 10
8.4626226754
 20
5.7767237988
 10
8.4637016227
 20
5.7201408958
 10
8.4647805701
 20
5.6627558133
 10
8.4658595175
 20
5.6062129209
 10
8.4669384648
 20
5.5521324556
 10
8.4680174122
 20
5.5020640933
 10
8.4690963596
 20
5.4574425431
 10
8.4701753069
 20
5.4195464358
 10
8.4712542543
 20
5.3894616844
 10
8.4723332017
 20
5.3680503678
 10
8.473412149
 20
5.3559260271
 10
8.4742279385
 20
5.3531464977
  0
LINE
  5
846
100
AcDbEntity
  8
AXIS_COSMETIC_THREADS
100
AcDbLine
 62
7
  6
CONTINUOUS
 10
8.7062279385
 20
4.6671464977
 11
8.7062279385
 21
4.0321071276
  0
LINE
  5
847
100
AcDbEntity
  8
0
100
AcDbLine
 62
7
  6
CONTINUOUS
 10
7.9542279385
 20
5.3531464977
 11
7.9592279385
 21
5.3531464977
  0
LINE
  5
848
100
AcDbEntity
  8
0
100
AcDbLine
 62
7
  6
CONTINUOUS
 10
7.9942279385
 20
5.3531464977
 11
7.9992279385
 21
5.3531464977
  0
LINE
  5
849
100
AcDbEntity
  8
0
100
AcDbLine
 62
7
  6
CONTINUOUS
 10
8.0342279385
 20
5.3531464977
 11
8.0392279385
 21
5.3531464977
  0
LINE
  5
84A
100
AcDbEntity
  8
0
100
AcDbLine
 62
7
  6
CONTINUOUS
 10
8.0742279385
 20
5.3531464977
 11
8.0792279385
 21
5.3531464977
  0
LINE
  5
84B
100
AcDbEntity
  8
0
100
AcDbLine
 62
7
  6
CONTINUOUS
 10
8.1142279385
 20
5.3531464977
 11
8.1192279385
 21
5.3531464977
  0
LINE
  5
84C
100
AcDbEntity
  8
0
100
AcDbLine
 62
7
  6
CONTINUOUS
 10
8.1542279385
 20
5.3531464977
 11
8.1592279385
 21
5.3531464977
  0
LINE
  5
84D
100
AcDbEntity
  8
0
100
AcDbLine
 62
7
  6
CONTINUOUS
 10
8.1942279385
 20
5.3531464977
 11
8.1992279385
 21
5.3531464977
  0
LINE
  5
84E
100
AcDbEntity
  8
0
100
AcDbLine
 62
7
  6
CONTINUOUS
 10
8.2342279385
 20
5.3531464977
 11
8.2392279385
 21
5.3531464977
  0
LINE
  5
84F
100
AcDbEntity
  8
0
100
AcDbLine
 62
7
  6
CONTINUOUS
 10
8.2742279385
 20
5.3531464977
 11
8.2792279385
 21
5.3531464977
  0
LINE
  5
850
100
AcDbEntity
  8
0
100
AcDbLine
 62
7
  6
CONTINUOUS
 10
8.3142279385
 20
5.3531464977
 11
8.3192279385
 21
5.3531464977
  0
LINE
  5
851
100
AcDbEntity
  8
0
100
AcDbLine
 62
7
  6
CONTINUOUS
 10
8.3542279385
 20
5.3531464977
 11
8.3592279385
 21
5.3531464977
  0
LINE
  5
852
100
AcDbEntity
  8
0
100
AcDbLine
 62
7
  6
CONTINUOUS
 10
8.3942279385
 20
5.3531464977
 11
8.3992279385
 21
5.3531464977
  0
LINE
  5
853
100
AcDbEntity
  8
0
100
AcDbLine
 62
7
  6
CONTINUOUS
 10
8.4342279385
 20
5.3531464977
 11
8.4392279385
 21
5.3531464977
  0
LINE
  5
854
100
AcDbEntity
  8
0
100
AcDbLine
 62
7
  6
CONTINUOUS
 10
8.4742279385
 20
5.3531464977
 11
8.4777279385
 21
5.3531464977
  0
LINE
  5
855
100
AcDbEntity
  8
0
100
AcDbLine
 62
7
  6
CONTINUOUS
 10
8.5152279385
 20
5.3533964977
 11
8.4777279385
 21
5.3533964977
  0
LINE
  5
856
100
AcDbEntity
  8
0
100
AcDbLine
 62
7
  6
CONTINUOUS
 10
9.1168530129
 20
5.0975797988
 11
9.1177279385
 21
5.09714822
  0
LWPOLYLINE
  5
857
100
AcDbEntity
  8
0
100
AcDbPolyline
 62
9
  6
CONTINUOUS
 90
7
 70
0
 10
8.9677279385
 20
5.1587948313
 10
8.9558146921
 20
5.1669577846
 10
8.9383492446
 20
5.1754284592
 10
8.9152830538
 20
5.1833731325
 10
8.8873130883
 20
5.1898784102
 10
8.8558425061
 20
5.1941259213
 10
8.8227279385
 20
5.1955918274
  0
LINE
  5
858
100
AcDbEntity
  8
0
100
AcDbLine
 62
7
  6
CONTINUOUS
 10
8.3957279351
 20
6.0461464977
 11
8.3962534283
 21
6.0449411984
  0
LINE
  5
859
100
AcDbEntity
  8
0
100
AcDbLine
 62
7
  6
CONTINUOUS
 10
7.9743366125
 20
6.0310971064
 11
7.9578320085
 21
6.0460991984
  0
LINE
  5
85A
100
AcDbEntity
  8
0
100
AcDbLine
 62
7
  6
CONTINUOUS
 10
8.0143366125
 20
6.0310971064
 11
7.9978320085
 21
6.0460991984
  0
LINE
  5
85B
100
AcDbEntity
  8
0
100
AcDbLine
 62
7
  6
CONTINUOUS
 10
8.0543366125
 20
6.0310971064
 11
8.0378320085
 21
6.0460991984
  0
LWPOLYLINE
  5
85C
100
AcDbEntity
  8
0
100
AcDbPolyline
 62
7
  6
CONTINUOUS
 90
19
 70
0
 10
8.4192279385
 20
6.0311464977
 10
8.4197511943
 20
6.0300020576
 10
8.4208248377
 20
6.0205372131
 10
8.4218984811
 20
6.0017544019
 10
8.4229721246
 20
5.9741865794
 10
8.424045768
 20
5.9386159724
 10
8.4251194114
 20
5.896051884
 10
8.4261930548
 20
5.8477020546
 10
8.4272666982
 20
5.7949383931
 10
8.4283403416
 20
5.739258049
 10
8.429413985
 20
5.6822409319
 10
8.4304876284
 20
5.6255048816
 10
8.4315612718
 20
5.5706597628
 10
8.4326349153
 20
5.5192617858
 10
8.4337085587
 20
5.4727693494
 10
8.4347822021
 20
5.4325016596
 10
8.4358558455
 20
5.3996012974
 10
8.4369294889
 20
5.3750017984
 10
8.4380031323
 20
5.3594011646
  0
LINE
  5
85D
100
AcDbEntity
  8
0
100
AcDbLine
 62
7
  6
CONTINUOUS
 10
8.4357279352
 20
6.0461464977
 11
8.4362608258
 21
6.0449070445
  0
LINE
  5
85E
100
AcDbEntity
  8
AXIS_COSMETIC_THREADS
100
AcDbLine
 62
7
  6
CONTINUOUS
 10
8.9392279385
 20
4.6671464977
 11
8.9392279385
 21
4.0321071276
  0
LINE
  5
85F
100
AcDbEntity
  8
0
100
AcDbLine
 62
7
  6
CONTINUOUS
 10
8.0943366125
 20
6.0310971064
 11
8.0778320085
 21
6.0460991984
  0
LINE
  5
860
100
AcDbEntity
  8
0
100
AcDbLine
 62
7
  6
CONTINUOUS
 10
8.1343366125
 20
6.0310971064
 11
8.1178320085
 21
6.0460991984
  0
LINE
  5
861
100
AcDbEntity
  8
0
100
AcDbLine
 62
7
  6
CONTINUOUS
 10
8.1743366125
 20
6.0310971064
 11
8.1578320085
 21
6.0460991984
  0
LINE
  5
862
100
AcDbEntity
  8
0
100
AcDbLine
 62
9
  6
CONTINUOUS
 10
9.1215611907
 20
5.1013357935
 11
9.1217279385
 21
5.1011464977
  0
LINE
  5
863
100
AcDbEntity
  8
0
100
AcDbLine
 62
7
  6
CONTINUOUS
 10
8.9677279385
 20
5.1554668912
 11
8.9677279385
 21
6.2841402767
  0
LINE
  5
864
100
AcDbEntity
  8
AXIS_COSMETIC_THREADS
100
AcDbLine
 62
7
  6
CONTINUOUS
 10
8.9827279385
 20
5.1508972816
 11
8.9827279385
 21
6.2831464977
  0
LINE
  5
865
100
AcDbEntity
  8
0
100
AcDbLine
 62
7
  6
CONTINUOUS
 10
8.2143366125
 20
6.0310971064
 11
8.1978320085
 21
6.0460991984
  0
LINE
  5
866
100
AcDbEntity
  8
0
100
AcDbLine
 62
7
  6
CONTINUOUS
 10
8.2543366125
 20
6.0310971064
 11
8.2378320085
 21
6.0460991984
  0
LINE
  5
867
100
AcDbEntity
  8
0
100
AcDbLine
 62
7
  6
CONTINUOUS
 10
8.2943366125
 20
6.0310971064
 11
8.2778320085
 21
6.0460991984
  0
LINE
  5
868
100
AcDbEntity
  8
0
100
AcDbLine
 62
7
  6
CONTINUOUS
 10
8.3343366125
 20
6.0310971064
 11
8.3178320085
 21
6.0460991984
  0
LINE
  5
869
100
AcDbEntity
  8
0
100
AcDbLine
 62
9
  6
CONTINUOUS
 10
9.0627279385
 20
6.2831464977
 11
9.0627264205
 21
5.6921464978
  0
LINE
  5
86A
100
AcDbEntity
  8
0
100
AcDbLine
 62
7
  6
CONTINUOUS
 10
9.1127279385
 20
4.7671464977
 11
9.1127279385
 21
4.7171464977
  0
LINE
  5
86B
100
AcDbEntity
  8
0
100
AcDbLine
 62
7
  6
CONTINUOUS
 10
9.1177279385
 20
4.7671464977
 11
9.1177279385
 21
5.0975798017
  0
LINE
  5
86C
100
AcDbEntity
  8
0
100
AcDbLine
 62
7
  6
CONTINUOUS
 10
9.1227279385
 20
6.2231464977
 11
9.1227279385
 21
5.1021464977
  0
LWPOLYLINE
  5
86D
100
AcDbEntity
  8
0
100
AcDbPolyline
 62
9
  6
CONTINUOUS
 90
43
 70
0
 10
9.0627264205
 20
5.6921464978
 10
9.0627259949
 20
5.6869529278
 10
9.0626720329
 20
5.6633299072
 10
9.0625560579
 20
5.6397689901
 10
9.0623936279
 20
5.6162348339
 10
9.0621999291
 20
5.5926897491
 10
9.0619909897
 20
5.5691749115
 10
9.0617840813
 20
5.5458122342
 10
9.0615966248
 20
5.5227169652
 10
9.0614453491
 20
5.4999428618
 10
9.0613465926
 20
5.4775097374
 10
9.061316726
 20
5.4554380527
 10
9.0613721583
 20
5.4337698077
 10
9.0615290379
 20
5.4125535926
 10
9.0618032779
 20
5.3918247354
 10
9.0622105773
 20
5.3716170141
 10
9.062766394
 20
5.3519630715
 10
9.0634859247
 20
5.3328941124
 10
9.0643840876
 20
5.3144397326
 10
9.065475517
 20
5.2966277024
 10
9.0667743893
 20
5.2794859595
 10
9.068294306
 20
5.2630419567
 10
9.070049123
 20
5.2473142902
 10
9.0720531187
 20
5.2323164819
 10
9.0743206831
 20
5.2180619688
 10
9.0768633203
 20
5.2045788798
 10
9.079686647
 20
5.1919110669
 10
9.0828172301
 20
5.1800089115
 10
9.086307446
 20
5.1687227945
 10
9.0900682786
 20
5.1581825524
 10
9.0939612705
 20
5.1485466218
 10
9.0978432678
 20
5.1399259251
 10
9.1015816646
 20
5.1323769396
 10
9.1050622151
 20
5.1259106961
 10
9.1082069019
 20
5.1204801239
 10
9.1110323756
 20
5.1159066349
 10
9.1135332569
 20
5.1120879381
 10
9.1157048437
 20
5.1089436373
 10
9.1175454457
 20
5.1064055716
 10
9.119052162
 20
5.1044197067
 10
9.1202237346
 20
5.1029391344
 10
9.1210600285
 20
5.1019229374
 10
9.1215611907
 20
5.1013357935
  0
LINE
  5
86E
100
AcDbEntity
  8
0
100
AcDbLine
 62
7
  6
CONTINUOUS
 10
7.9577279392
 20
6.0461464977
 11
7.9578320085
 21
6.0460991984
  0
LINE
  5
86F
100
AcDbEntity
  8
0
100
AcDbLine
 62
7
  6
CONTINUOUS
 10
7.9978320085
 20
6.0460991984
 11
7.9977279385
 21
6.0461464977
  0
LINE
  5
870
100
AcDbEntity
  8
0
100
AcDbLine
 62
7
  6
CONTINUOUS
 10
8.3743366125
 20
6.0310971064
 11
8.3578320085
 21
6.0460991984
  0
LINE
  5
871
100
AcDbEntity
  8
0
100
AcDbLine
 62
7
  6
CONTINUOUS
 10
8.4143366125
 20
6.0310971064
 11
8.3978320085
 21
6.0460991984
  0
LINE
  5
872
100
AcDbEntity
  8
0
100
AcDbLine
 62
7
  6
CONTINUOUS
 10
8.4543366125
 20
6.0310971064
 11
8.4378320085
 21
6.0460991984
  0
LWPOLYLINE
  5
873
100
AcDbEntity
  8
0
100
AcDbPolyline
 62
7
  6
CONTINUOUS
 90
19
 70
0
 10
8.4592279385
 20
6.0311464977
 10
8.4594760005
 20
6.0308891768
 10
8.4605496439
 20
6.0238667172
 10
8.4616232873
 20
6.0074318173
 10
8.4626969308
 20
5.9820508115
 10
8.4637705742
 20
5.9484438766
 10
8.4648442176
 20
5.9075645971
 10
8.465917861
 20
5.8605729075
 10
8.4669915044
 20
5.8088021801
 10
8.4680651478
 20
5.7537213902
 10
8.4691387912
 20
5.6968934352
 10
8.4702124346
 20
5.6399307876
 10
8.471286078
 20
5.5844497417
 10
8.4723597215
 20
5.5320245519
 10
8.4734333649
 20
5.484142764
 10
8.4745070083
 20
5.4421630061
 10
8.4755806517
 20
5.4072764386
 10
8.4766542951
 20
5.3804729551
 10
8.4777279385
 20
5.3625130947
  0
LINE
  5
874
100
AcDbEntity
  8
0
100
AcDbLine
 62
7
  6
CONTINUOUS
 10
8.0378320085
 20
6.0460991984
 11
8.0377279351
 21
6.0461464977
  0
LINE
  5
875
100
AcDbEntity
  8
0
100
AcDbLine
 62
7
  6
CONTINUOUS
 10
8.0778320085
 20
6.0460991984
 11
8.0777279352
 21
6.0461464977
  0
LINE
  5
876
100
AcDbEntity
  8
0
100
AcDbLine
 62
7
  6
CONTINUOUS
 10
8.1178320085
 20
6.0460991984
 11
8.1177279357
 21
6.0461464977
  0
LINE
  5
877
100
AcDbEntity
  8
0
100
AcDbLine
 62
7
  6
CONTINUOUS
 10
8.1578320085
 20
6.0460991984
 11
8.1577279385
 21
6.0461464977
  0
LINE
  5
878
100
AcDbEntity
  8
0
100
AcDbLine
 62
7
  6
CONTINUOUS
 10
8.1978320085
 20
6.0460991984
 11
8.1977279351
 21
6.0461464977
  0
LINE
  5
879
100
AcDbEntity
  8
0
100
AcDbLine
 62
7
  6
CONTINUOUS
 10
8.2378320085
 20
6.0460991984
 11
8.2377279352
 21
6.0461464977
  0
LINE
  5
87A
100
AcDbEntity
  8
0
100
AcDbLine
 62
7
  6
CONTINUOUS
 10
9.1127279385
 20
4.7171464977
 11
9.0838604251
 21
4.6671464977
  0
LINE
  5
87B
100
AcDbEntity
  8
0
100
AcDbLine
 62
7
  6
CONTINUOUS
 10
8.2778320085
 20
6.0460991984
 11
8.2777279357
 21
6.0461464977
  0
LINE
  5
87C
100
AcDbEntity
  8
0
100
AcDbLine
 62
7
  6
CONTINUOUS
 10
8.3178320085
 20
6.0460991984
 11
8.3177279385
 21
6.0461464977
  0
LINE
  5
87D
100
AcDbEntity
  8
0
100
AcDbLine
 62
7
  6
CONTINUOUS
 10
8.3578320085
 20
6.0460991984
 11
8.3577279351
 21
6.0461464977
  0
LINE
  5
87E
100
AcDbEntity
  8
0
100
AcDbLine
 62
7
  6
CONTINUOUS
 10
8.3978320085
 20
6.0460991984
 11
8.3977279352
 21
6.0461464977
  0
LINE
  5
87F
100
AcDbEntity
  8
0
100
AcDbLine
 62
7
  6
CONTINUOUS
 10
8.4378320085
 20
6.0460991984
 11
8.4377279357
 21
6.0461464977
  0
LINE
  5
880
100
AcDbEntity
  8
0
100
AcDbLine
 62
7
  6
CONTINUOUS
 10
8.5152279385
 20
6.0308964977
 11
8.4777279385
 21
6.0308964977
  0
LINE
  5
881
100
AcDbEntity
  8
0
100
AcDbLine
 62
7
  6
CONTINUOUS
 10
8.4592279385
 20
6.0311464977
 11
8.4542279385
 21
6.0311464977
  0
LINE
  5
882
100
AcDbEntity
  8
0
100
AcDbLine
 62
7
  6
CONTINUOUS
 10
8.4192279385
 20
6.0311464977
 11
8.4142279385
 21
6.0311464977
  0
LINE
  5
883
100
AcDbEntity
  8
0
100
AcDbLine
 62
7
  6
CONTINUOUS
 10
8.3792279385
 20
6.0311464977
 11
8.3742279385
 21
6.0311464977
  0
LINE
  5
884
100
AcDbEntity
  8
0
100
AcDbLine
 62
7
  6
CONTINUOUS
 10
8.2992279385
 20
6.0311464977
 11
8.2942279385
 21
6.0311464977
  0
LINE
  5
885
100
AcDbEntity
  8
0
100
AcDbLine
 62
7
  6
CONTINUOUS
 10
8.2592279385
 20
6.0311464977
 11
8.2542279385
 21
6.0311464977
  0
LINE
  5
886
100
AcDbEntity
  8
0
100
AcDbLine
 62
7
  6
CONTINUOUS
 10
8.2192279385
 20
6.0311464977
 11
8.2142279385
 21
6.0311464977
  0
LINE
  5
887
100
AcDbEntity
  8
0
100
AcDbLine
 62
7
  6
CONTINUOUS
 10
8.1392279385
 20
6.0311464977
 11
8.1342279385
 21
6.0311464977
  0
LINE
  5
888
100
AcDbEntity
  8
0
100
AcDbLine
 62
7
  6
CONTINUOUS
 10
8.0992279385
 20
6.0311464977
 11
8.0942279385
 21
6.0311464977
  0
LINE
  5
889
100
AcDbEntity
  8
0
100
AcDbLine
 62
7
  6
CONTINUOUS
 10
8.0592279385
 20
6.0311464977
 11
8.0542279385
 21
6.0311464977
  0
LINE
  5
88A
100
AcDbEntity
  8
0
100
AcDbLine
 62
7
  6
CONTINUOUS
 10
7.9792279385
 20
6.0311464977
 11
7.9742279385
 21
6.0311464977
  0
LINE
  5
88B
100
AcDbEntity
  8
0
100
AcDbLine
 62
7
  6
CONTINUOUS
 10
7.9392279385
 20
6.0311464977
 11
7.9377279385
 21
6.0311464977
  0
LINE
  5
88C
100
AcDbEntity
  8
0
100
AcDbLine
 62
7
  6
CONTINUOUS
 10
8.0142279385
 20
6.0311464977
 11
8.0192279385
 21
6.0311464977
  0
LINE
  5
88D
100
AcDbEntity
  8
0
100
AcDbLine
 62
7
  6
CONTINUOUS
 10
8.1742279385
 20
6.0311464977
 11
8.1792279385
 21
6.0311464977
  0
LINE
  5
88E
100
AcDbEntity
  8
0
100
AcDbLine
 62
7
  6
CONTINUOUS
 10
8.3342279385
 20
6.0311464977
 11
8.3392279385
 21
6.0311464977
  0
LINE
  5
88F
100
AcDbEntity
  8
0
100
AcDbLine
 62
7
  6
CONTINUOUS
 10
8.4777279385
 20
6.0461464977
 11
8.4757279385
 21
6.0461464977
  0
LINE
  5
890
100
AcDbEntity
  8
0
100
AcDbLine
 62
7
  6
CONTINUOUS
 10
8.4377279385
 20
6.0461464977
 11
8.4357279385
 21
6.0461464977
  0
LINE
  5
891
100
AcDbEntity
  8
0
100
AcDbLine
 62
7
  6
CONTINUOUS
 10
8.3977279385
 20
6.0461464977
 11
8.3957279385
 21
6.0461464977
  0
LINE
  5
892
100
AcDbEntity
  8
0
100
AcDbLine
 62
7
  6
CONTINUOUS
 10
8.3577279385
 20
6.0461464977
 11
8.3557279385
 21
6.0461464977
  0
LINE
  5
893
100
AcDbEntity
  8
0
100
AcDbLine
 62
7
  6
CONTINUOUS
 10
8.3177279385
 20
6.0461464977
 11
8.3157279385
 21
6.0461464977
  0
LINE
  5
894
100
AcDbEntity
  8
0
100
AcDbLine
 62
7
  6
CONTINUOUS
 10
8.2777279385
 20
6.0461464977
 11
8.2757279385
 21
6.0461464977
  0
LINE
  5
895
100
AcDbEntity
  8
0
100
AcDbLine
 62
7
  6
CONTINUOUS
 10
8.2377279385
 20
6.0461464977
 11
8.2357279385
 21
6.0461464977
  0
LINE
  5
896
100
AcDbEntity
  8
0
100
AcDbLine
 62
7
  6
CONTINUOUS
 10
8.1977279385
 20
6.0461464977
 11
8.1957279385
 21
6.0461464977
  0
LINE
  5
897
100
AcDbEntity
  8
0
100
AcDbLine
 62
7
  6
CONTINUOUS
 10
8.1577279385
 20
6.0461464977
 11
8.1557279385
 21
6.0461464977
  0
LINE
  5
898
100
AcDbEntity
  8
0
100
AcDbLine
 62
7
  6
CONTINUOUS
 10
8.1177279385
 20
6.0461464977
 11
8.1157279385
 21
6.0461464977
  0
LINE
  5
899
100
AcDbEntity
  8
0
100
AcDbLine
 62
7
  6
CONTINUOUS
 10
8.0777279385
 20
6.0461464977
 11
8.0757279385
 21
6.0461464977
  0
LINE
  5
89A
100
AcDbEntity
  8
0
100
AcDbLine
 62
7
  6
CONTINUOUS
 10
8.0377279385
 20
6.0461464977
 11
8.0357279385
 21
6.0461464977
  0
LINE
  5
89B
100
AcDbEntity
  8
0
100
AcDbLine
 62
7
  6
CONTINUOUS
 10
7.9977279385
 20
6.0461464977
 11
7.9957279385
 21
6.0461464977
  0
LINE
  5
89C
100
AcDbEntity
  8
0
100
AcDbLine
 62
7
  6
CONTINUOUS
 10
7.9577279385
 20
6.0461464977
 11
7.9557279385
 21
6.0461464977
  0
LINE
  5
89D
100
AcDbEntity
  8
0
100
AcDbLine
 62
7
  6
CONTINUOUS
 10
8.9677279385
 20
6.2561464977
 11
8.9827279385
 21
6.2561464977
  0
LINE
  5
89E
100
AcDbEntity
  8
0
100
AcDbLine
 62
7
  6
CONTINUOUS
 10
9.0627279385
 20
6.2831464977
 11
8.9827279385
 21
6.2831464977
  0
LINE
  5
89F
100
AcDbEntity
  8
AXIS_COSMETIC_THREADS
100
AcDbLine
 62
7
  6
CONTINUOUS
 10
8.9827279385
 20
6.2831464977
 11
9.0627279385
 21
6.2831464977
  0
LINE
  5
8A0
100
AcDbEntity
  8
0
100
AcDbLine
 62
7
  6
CONTINUOUS
 10
8.9677279385
 20
6.2841464977
 11
8.5877279385
 21
6.2841464977
  0
LINE
  5
8A1
100
AcDbEntity
  8
AXIS
100
AcDbLine
 62
7
  6
CONTINUOUS
 10
12.5084358427
 20
4.0321071276
 11
12.2754358427
 21
4.0321071276
  0
LINE
  5
8A2
100
AcDbEntity
  8
0
100
AcDbLine
 62
7
  6
CONTINUOUS
 10
12.1308033561
 20
4.6671464977
 11
12.6530683292
 21
4.6671464977
  0
LINE
  5
8A3
100
AcDbEntity
  8
0
100
AcDbLine
 62
7
  6
CONTINUOUS
 10
12.1019358427
 20
4.7171464977
 11
12.6819358427
 21
4.7171464977
  0
LINE
  5
8A4
100
AcDbEntity
  8
0
100
AcDbLine
 62
7
  6
CONTINUOUS
 10
12.1308033561
 20
4.6671464977
 11
12.1019358427
 21
4.7171464977
  0
LINE
  5
8A5
100
AcDbEntity
  8
0
100
AcDbLine
 62
7
  6
CONTINUOUS
 10
12.0969358427
 20
4.7671464977
 11
12.6869358427
 21
4.7671464977
  0
LINE
  5
8A6
100
AcDbEntity
  8
0
100
AcDbLine
 62
7
  6
CONTINUOUS
 10
12.0969358427
 20
4.7671464977
 11
12.0969358427
 21
5.1452653406
  0
LINE
  5
8A7
100
AcDbEntity
  8
0
100
AcDbLine
 62
7
  6
CONTINUOUS
 10
12.1019358427
 20
4.7671464977
 11
12.1019358427
 21
4.7171464977
  0
LINE
  5
8A8
100
AcDbEntity
  8
0
100
AcDbLine
 62
7
  6
CONTINUOUS
 10
12.1350311911
 20
5.1554668912
 11
12.1350311911
 21
5.1587948313
  0
LINE
  5
8A9
100
AcDbEntity
  8
AXIS
100
AcDbLine
 62
7
  6
CONTINUOUS
 10
12.2754358427
 20
4.6671464977
 11
12.2754358427
 21
4.0321071276
  0
LINE
  5
8AA
100
AcDbEntity
  8
AXIS_COSMETIC_THREADS
100
AcDbLine
 62
7
  6
CONTINUOUS
 10
12.2754358427
 20
4.6671464977
 11
12.2754358427
 21
4.0321071276
  0
LINE
  5
8AB
100
AcDbEntity
  8
0
100
AcDbLine
 62
7
  6
CONTINUOUS
 10
12.2999358427
 20
5.8471464977
 11
12.2999358427
 21
5.7221464977
  0
LWPOLYLINE
  5
8AC
100
AcDbEntity
  8
0
100
AcDbPolyline
 62
9
  6
CONTINUOUS
 90
7
 70
0
 10
12.1350311911
 20
5.1587948313
 10
12.1254600856
 20
5.1534463431
 10
12.1162758525
 20
5.1495309274
 10
12.1082654945
 20
5.1470983852
 10
12.1020941872
 20
5.1458613099
 10
12.0982371152
 20
5.1453772562
 10
12.0969358427
 20
5.1452653406
  0
LWPOLYLINE
  5
8AD
100
AcDbEntity
  8
0
100
AcDbPolyline
 62
9
  6
CONTINUOUS
 90
82
 70
0
 10
12.3919358427
 20
5.1021464977
 10
12.4068657648
 20
5.1025022647
 10
12.4221386785
 20
5.1035890288
 10
12.4377419714
 20
5.1054363764
 10
12.4536697373
 20
5.1080761976
 10
12.4699206349
 20
5.11154365
 10
12.4864905079
 20
5.1158762847
 10
12.5033786197
 20
5.1211154128
 10
12.5206069291
 20
5.127314243
 10
12.5381923885
 20
5.1345312799
 10
12.556176423
 20
5.1428430109
 10
12.5747345683
 20
5.1524089698
 10
12.5936208786
 20
5.1631751093
 10
12.6125331709
 20
5.174992891
 10
12.6312066423
 20
5.1876646698
 10
12.6494030809
 20
5.2009446989
 10
12.666929181
 20
5.2145622166
 10
12.6837033524
 20
5.2283191446
 10
12.6999840988
 20
5.2423850885
 10
12.7158810996
 20
5.2568630532
 10
12.7313414414
 20
5.2717193925
 10
12.7463391837
 20
5.2869416672
 10
12.7608718946
 20
5.3025412939
 10
12.774934743
 20
5.3185306305
 10
12.7885170776
 20
5.3349187371
 10
12.8015974863
 20
5.3517035829
 10
12.8141539
 20
5.3688825009
 10
12.8261652198
 20
5.3864545729
 10
12.8376082862
 20
5.4044165513
 10
12.8484582055
 20
5.4227627356
 10
12.8586888188
 20
5.4414851506
 10
12.8682731641
 20
5.4605738999
 10
12.8771834418
 20
5.4800166769
 10
12.8853870052
 20
5.4997879296
 10
12.8928507193
 20
5.5198540313
 10
12.8995542014
 20
5.5402117899
 10
12.9054764143
 20
5.5608635901
 10
12.9105893698
 20
5.5817959477
 10
12.9148440354
 20
5.6028848184
 10
12.9182004989
 20
5.6239464857
 10
12.9206608644
 20
5.6449524939
 10
12.9222365003
 20
5.6660340444
 10
12.9229109112
 20
5.6872218946
 10
12.922682649
 20
5.7085383188
 10
12.9215865343
 20
5.7299776079
 10
12.9196154897
 20
5.7514353886
 10
12.9167765439
 20
5.7727891928
 10
12.9130792823
 20
5.7939822158
 10
12.9085257613
 20
5.8150116942
 10
12.9031235598
 20
5.8358410269
 10
12.8968819944
 20
5.8564340016
 10
12.8898116203
 20
5.876756113
 10
12.8819239324
 20
5.8967746286
 10
12.8732316474
 20
5.9164573275
 10
12.8637490109
 20
5.9357718952
 10
12.8534916694
 20
5.9546864353
 10
12.8424764651
 20
5.9731698908
 10
12.8307214847
 20
5.9911919129
 10
12.8182460293
 20
6.0087229099
 10
12.8050705836
 20
6.0257340961
 10
12.7912167815
 20
6.0421975395
 10
12.7767073705
 20
6.0580862076
 10
12.7615661748
 20
6.0733740118
 10
12.7458180558
 20
6.0880358499
 10
12.7294888715
 20
6.1020476475
 10
12.7126054342
 20
6.1153863977
 10
12.695195466
 20
6.1280301986
 10
12.6772875536
 20
6.1399582895
 10
12.6589111015
 20
6.1511510848
 10
12.6400962832
 20
6.1615902063
 10
12.6208739923
 20
6.1712585132
 10
12.6012757913
 20
6.1801401305
 10
12.5813338599
 20
6.1882204748
 10
12.5610809423
 20
6.1954862785
 10
12.5405502932
 20
6.2019256114
 10
12.5197756234
 20
6.2075279002
 10
12.4987910445
 20
6.2122839464
 10
12.4776310124
 20
6.2161859402
 10
12.4563302717
 20
6.2192274757
 10
12.4349237971
 20
6.2214035566
 10
12.4134467381
 20
6.222710615
 10
12.3919358427
 20
6.2231464977
  0
LINE
  5
8AE
100
AcDbEntity
  8
0
100
AcDbLine
 62
7
  6
CONTINUOUS
 10
12.4849358427
 20
5.7221464977
 11
12.4849358427
 21
5.8471464977
  0
LWPOLYLINE
  5
8AF
100
AcDbEntity
  8
0
100
AcDbPolyline
 62
9
  6
CONTINUOUS
 90
6
 70
0
 10
12.6869358427
 20
5.1452653406
 10
12.6856344418
 20
5.1453772607
 10
12.6817770857
 20
5.1458613363
 10
12.6756055091
 20
5.1470984479
 10
12.6675950691
 20
5.1495310024
 10
12.658411061
 20
5.1534463778
  0
LINE
  5
8B0
100
AcDbEntity
  8
AXIS
100
AcDbLine
 62
7
  6
CONTINUOUS
 10
12.5084358427
 20
4.6671464977
 11
12.5084358427
 21
4.0321071276
  0
LINE
  5
8B1
100
AcDbEntity
  8
AXIS_COSMETIC_THREADS
100
AcDbLine
 62
7
  6
CONTINUOUS
 10
12.5084358427
 20
4.6671464977
 11
12.5084358427
 21
4.0321071276
  0
LINE
  5
8B2
100
AcDbEntity
  8
0
100
AcDbLine
 62
9
  6
CONTINUOUS
 10
12.658411061
 20
5.1534463778
 11
12.6488404943
 21
5.1587948313
  0
LINE
  5
8B3
100
AcDbEntity
  8
0
100
AcDbLine
 62
7
  6
CONTINUOUS
 10
12.6488404943
 20
5.1554668912
 11
12.6488404943
 21
5.1587948313
  0
LINE
  5
8B4
100
AcDbEntity
  8
0
100
AcDbLine
 62
7
  6
CONTINUOUS
 10
12.6819358427
 20
4.7671464977
 11
12.6819358427
 21
4.7171464977
  0
LINE
  5
8B5
100
AcDbEntity
  8
0
100
AcDbLine
 62
7
  6
CONTINUOUS
 10
12.6869358427
 20
4.7671464977
 11
12.6869358427
 21
5.1452653406
  0
LINE
  5
8B6
100
AcDbEntity
  8
0
100
AcDbLine
 62
7
  6
CONTINUOUS
 10
12.6819358427
 20
4.7171464977
 11
12.6530683292
 21
4.6671464977
  0
LINE
  5
8B7
100
AcDbEntity
  8
0
100
AcDbLine
 62
7
  6
CONTINUOUS
 10
12.3299358427
 20
5.6921464977
 11
12.4549358427
 21
5.6921464977
  0
LINE
  5
8B8
100
AcDbEntity
  8
0
100
AcDbLine
 62
7
  6
CONTINUOUS
 10
12.4549358427
 20
5.8771464977
 11
12.3299358427
 21
5.8771464977
  0
LWPOLYLINE
  5
8B9
100
AcDbEntity
  8
0
100
AcDbPolyline
 62
9
  6
CONTINUOUS
 90
82
 70
0
 10
12.3919358427
 20
6.2231464977
 10
12.3704248497
 20
6.2227106099
 10
12.3489491726
 20
6.2214036622
 10
12.3275440695
 20
6.2192278003
 10
12.3062446822
 20
6.2161865964
 10
12.2850859795
 20
6.2122850434
 10
12.2641026988
 20
6.2075295468
 10
12.2433292897
 20
6.201927914
 10
12.2227998571
 20
6.1954893415
 10
12.2025481056
 20
6.1882243999
 10
12.1826072836
 20
6.1801450165
 10
12.1630101293
 20
6.1712644558
 10
12.1437888164
 20
6.1615972974
 10
12.1249749019
 20
6.1511594127
 10
12.1065992737
 20
6.139967938
 10
12.0886921002
 20
6.1280412472
 10
12.0712827807
 20
6.115398921
 10
12.0543998971
 20
6.1020617151
 10
12.0380711672
 20
6.088051526
 10
12.0223233989
 20
6.0733913552
 10
12.0071824462
 20
6.0581052712
 10
11.9926731669
 20
6.0422183699
 10
11.9788193817
 20
6.0257567339
 10
11.9656438357
 20
6.0087473897
 10
11.95316816
 20
5.9912182627
 10
11.9414128358
 20
5.9731981305
 10
11.9303971622
 20
5.9547165768
 10
11.9201392248
 20
5.9358039445
 10
11.9106558674
 20
5.9164912891
 10
11.9019626572
 20
5.8968103136
 10
11.8940738489
 20
5.8767932825
 10
11.8870024153
 20
5.8564731051
 10
11.8807599905
 20
5.8358832298
 10
11.8753568279
 20
5.8150575284
 10
11.8708017433
 20
5.7940300121
 10
11.867102167
 20
5.7728348668
 10
11.8642652169
 20
5.7515157716
 10
11.8622974166
 20
5.7301483089
 10
11.8611966269
 20
5.7087863558
 10
11.8609582898
 20
5.6874802109
 10
11.8616232686
 20
5.6662581753
 10
11.8631965092
 20
5.6451017365
 10
11.8656659292
 20
5.6239845427
 10
11.8690292888
 20
5.6028757373
 10
11.8732785847
 20
5.5818126762
 10
11.8783850167
 20
5.5609022079
 10
11.8843080976
 20
5.5402422612
 10
11.8910143004
 20
5.519873042
 10
11.898479167
 20
5.4998019425
 10
11.9066804236
 20
5.4800345885
 10
11.9155890276
 20
5.4605936713
 10
11.9251720204
 20
5.4415058403
 10
11.9354013099
 20
5.4227841287
 10
11.9462498144
 20
5.4044386699
 10
11.9576914439
 20
5.3864773247
 10
11.9697013962
 20
5.3689056772
 10
11.982256401
 20
5.351727156
 10
11.9953350095
 20
5.3349431149
 10
12.0089161028
 20
5.3185550318
 10
12.0229789394
 20
5.3025643237
 10
12.0375106865
 20
5.2869644319
 10
12.0525050848
 20
5.271744237
 10
12.0679585797
 20
5.2568929849
 10
12.0838520586
 20
5.2424166184
 10
12.1001408998
 20
5.2283421619
 10
12.1169031211
 20
5.2145939763
 10
12.1344231164
 20
5.2009788882
 10
12.1526287515
 20
5.1876903021
 10
12.1713182139
 20
5.1750061104
 10
12.1902464096
 20
5.1631777479
 10
12.2091430121
 20
5.1524057732
 10
12.2277092457
 20
5.1428361871
 10
12.2456911218
 20
5.134526128
 10
12.2632755228
 20
5.127310103
 10
12.2805020884
 20
5.1211123947
 10
12.2973889169
 20
5.1158740755
 10
12.3139582309
 20
5.1115419475
 10
12.3302076054
 20
5.1080751252
 10
12.3461341863
 20
5.1054357425
 10
12.3617368448
 20
5.1035886561
 10
12.3770083701
 20
5.1025021677
 10
12.3919358427
 20
5.1021464977
  0
CIRCLE
  5
8BA
100
AcDbEntity
  8
0
100
AcDbCircle
 62
7
  6
CONTINUOUS
 10
10.5342808475
 20
1.243294839
 40
0.252091
  0
CIRCLE
  5
8BB
100
AcDbEntity
  8
0
100
AcDbCircle
 62
7
  6
CONTINUOUS
 10
10.5342808475
 20
1.243294839
 40
0.182698
  0
ARC
  5
8BC
100
AcDbEntity
  8
0
100
AcDbCircle
 62
7
  6
CONTINUOUS
 10
3.7479213287
 20
5.1452653406
 40
0.06
100
AcDbArc
 50
0.0
 51
56.5971483035
  0
ARC
  5
8BD
100
AcDbEntity
  8
0
100
AcDbCircle
 62
7
  6
CONTINUOUS
 10
4.4579213287
 20
5.1452653406
 40
0.06
100
AcDbArc
 50
123.4003081433
 51
180.0
  0
ARC
  5
8BE
100
AcDbEntity
  8
0
100
AcDbCircle
 62
7
  6
CONTINUOUS
 10
4.1029213287
 20
5.6921464977
 40
0.592
100
AcDbArc
 50
294.0856793311
 51
245.9143206689
  0
CIRCLE
  5
8BF
100
AcDbEntity
  8
0
100
AcDbCircle
 62
9
  6
CONTINUOUS
 10
4.1029213287
 20
5.6921464977
 40
0.532
  0
ARC
  5
8C0
100
AcDbEntity
  8
0
100
AcDbCircle
 62
7
  6
CONTINUOUS
 10
4.1029213287
 20
5.6921464977
 40
0.354
100
AcDbArc
 50
272.3271152994
 51
277.337176733
  0
ARC
  5
8C1
100
AcDbEntity
  8
0
100
AcDbCircle
 62
7
  6
CONTINUOUS
 10
4.1029213287
 20
5.6921464977
 40
0.354
100
AcDbArc
 50
278.5927319311
 51
270.0
  0
CIRCLE
  5
8C2
100
AcDbEntity
  8
0
100
AcDbCircle
 62
7
  6
CONTINUOUS
 10
4.1029213287
 20
5.6921464977
 40
0.306
  0
CIRCLE
  5
8C3
100
AcDbEntity
  8
AXIS_COSMETIC_THREADS
100
AcDbCircle
 62
7
  6
CONTINUOUS
 10
4.1029213287
 20
5.6921464977
 40
0.3025
  0
ARC
  5
8C4
100
AcDbEntity
  8
0
100
AcDbCircle
 62
7
  6
CONTINUOUS
 10
4.6349213287
 20
8.4537580797
 40
0.06
100
AcDbArc
 50
270.0
 51
360.0
  0
ARC
  5
8C5
100
AcDbEntity
  8
0
100
AcDbCircle
 62
7
  6
CONTINUOUS
 10
3.5709213287
 20
8.4537580797
 40
0.06
100
AcDbArc
 50
180.0
 51
270.0
  0
ARC
  5
8C6
100
AcDbEntity
  8
0
100
AcDbCircle
 62
7
  6
CONTINUOUS
 10
4.2279213287
 20
8.9328328828
 40
0.0575
100
AcDbArc
 50
77.2959531578
 51
102.7040468422
  0
ARC
  5
8C7
100
AcDbEntity
  8
0
100
AcDbCircle
 62
7
  6
CONTINUOUS
 10
4.4541713287
 20
8.3812580797
 40
0.0125
100
AcDbArc
 50
90.0000089257
 51
180.0
  0
ARC
  5
8C8
100
AcDbEntity
  8
0
100
AcDbCircle
 62
7
  6
CONTINUOUS
 10
3.7516713287
 20
8.3812580797
 40
0.0125
100
AcDbArc
 50
0.0
 51
89.9999910743
  0
ARC
  5
8C9
100
AcDbEntity
  8
0
100
AcDbCircle
 62
7
  6
CONTINUOUS
 10
9.0627279385
 20
6.2231464977
 40
0.06
100
AcDbArc
 50
0.0
 51
90.0
  0
ARC
  5
8CA
100
AcDbEntity
  8
0
100
AcDbCircle
 62
7
  6
CONTINUOUS
 10
8.5877279385
 20
6.2241464977
 40
0.06
100
AcDbArc
 50
90.0
 51
180.0
  0
ARC
  5
8CB
100
AcDbEntity
  8
0
100
AcDbCircle
 62
7
  6
CONTINUOUS
 10
9.0668027417
 20
6.0921464977
 40
0.0575
100
AcDbArc
 50
347.2959531578
 51
12.7040468422
  0
ARC
  5
8CC
100
AcDbEntity
  8
0
100
AcDbCircle
 62
7
  6
CONTINUOUS
 10
8.5152279385
 20
5.3408964977
 40
0.0125
100
AcDbArc
 50
0.0000000012
 51
90.0
  0
ARC
  5
8CD
100
AcDbEntity
  8
0
100
AcDbCircle
 62
7
  6
CONTINUOUS
 10
8.5152279385
 20
6.0433964977
 40
0.0125
100
AcDbArc
 50
270.0
 51
359.9999999996
  0
ARC
  5
8CE
100
AcDbEntity
  8
0
100
AcDbCircle
 62
7
  6
CONTINUOUS
 10
9.1217278866
 20
5.1021465546
 40
0.0010000519
100
AcDbArc
 50
270.0029759244
 51
359.9967384197
  0
ARC
  5
8CF
100
AcDbEntity
  8
0
100
AcDbCircle
 62
7
  6
CONTINUOUS
 10
12.3919358427
 20
5.6921464977
 40
0.595
100
AcDbArc
 50
244.419898358
 51
295.580101642
  0
ARC
  5
8D0
100
AcDbEntity
  8
0
100
AcDbCircle
 62
7
  6
CONTINUOUS
 10
12.3919358427
 20
5.6921464977
 40
0.592
100
AcDbArc
 50
295.7191711305
 51
244.2808288695
  0
CIRCLE
  5
8D1
100
AcDbEntity
  8
0
100
AcDbCircle
 62
7
  6
CONTINUOUS
 10
12.3919358427
 20
5.6921464977
 40
0.591
  0
CIRCLE
  5
8D2
100
AcDbEntity
  8
0
100
AcDbCircle
 62
7
  6
CONTINUOUS
 10
12.2669358427
 20
6.0921464977
 40
0.094
  0
CIRCLE
  5
8D3
100
AcDbEntity
  8
0
100
AcDbCircle
 62
7
  6
CONTINUOUS
 10
12.2669358427
 20
6.0921464977
 40
0.064
  0
ARC
  5
8D4
100
AcDbEntity
  8
0
100
AcDbCircle
 62
7
  6
CONTINUOUS
 10
12.7469358427
 20
5.1452653406
 40
0.06
100
AcDbArc
 50
125.3974888522
 51
180.0
  0
ARC
  5
8D5
100
AcDbEntity
  8
0
100
AcDbCircle
 62
7
  6
CONTINUOUS
 10
12.0369358427
 20
5.1452653406
 40
0.06
100
AcDbArc
 50
0.0
 51
54.6046913338
  0
CIRCLE
  5
8D6
100
AcDbEntity
  8
0
100
AcDbCircle
 62
7
  6
CONTINUOUS
 10
12.2669358427
 20
6.0921464977
 40
0.0575
  0
CIRCLE
  5
8D7
100
AcDbEntity
  8
AXIS_COSMETIC_THREADS
100
AcDbCircle
 62
7
  6
CONTINUOUS
 10
12.3919358427
 20
5.7841464977
 40
0.035
  0
ARC
  5
8D8
100
AcDbEntity
  8
0
100
AcDbCircle
 62
7
  6
CONTINUOUS
 10
12.4549358427
 20
5.8471464977
 40
0.03
100
AcDbArc
 50
0.0
 51
90.0
  0
ARC
  5
8D9
100
AcDbEntity
  8
0
100
AcDbCircle
 62
7
  6
CONTINUOUS
 10
12.4549358427
 20
5.7221464977
 40
0.03
100
AcDbArc
 50
270.0
 51
360.0
  0
ARC
  5
8DA
100
AcDbEntity
  8
0
100
AcDbCircle
 62
7
  6
CONTINUOUS
 10
12.3299358427
 20
5.7221464977
 40
0.03
100
AcDbArc
 50
180.0
 51
270.0
  0
ARC
  5
8DB
100
AcDbEntity
  8
0
100
AcDbCircle
 62
7
  6
CONTINUOUS
 10
12.3299358427
 20
5.8471464977
 40
0.03
100
AcDbArc
 50
90.0
 51
180.0
  0
CIRCLE
  5
8DC
100
AcDbEntity
  8
AXIS_COSMETIC_THREADS
100
AcDbCircle
 62
7
  6
CONTINUOUS
 10
12.3919358427
 20
5.7841464977
 40
0.01
  0
ENDSEC
  0
SECTION
  2
OBJECTS
  0
DICTIONARY
  5
C
100
AcDbDictionary
280
0
281
1
  3
ACAD_GROUP
350
D
  3
ACAD_MLINESTYLE
350
17
  3
ACAD_LAYOUT
350
1A
  3
ACAD_PLOTSETTINGS
350
19
  3
ACAD_PLOTSTYLENAME
350
E
  0
DICTIONARY
  5
D
102
{ACAD_REACTORS
330
C
102
}
100
AcDbDictionary
280
0
281
1
  0
ACDBDICTIONARYWDFLT
  5
E
102
{ACAD_REACTORS
330
C
102
}
100
AcDbDictionary
281
1
  3
Normal
350
F
100
AcDbDictionaryWithDefault
340
F
  0
DICTIONARY
  5
17
102
{ACAD_REACTORS
330
C
102
}
100
AcDbDictionary
280
0
281
1
  3
Standard
350
18
  0
DICTIONARY
  5
19
102
{ACAD_REACTORS
330
C
102
}
100
AcDbDictionary
281
1
  0
DICTIONARY
  5
1A
102
{ACAD_REACTORS
330
C
102
}
100
AcDbDictionary
281
1
  3
Model
350
8DD
  3
Layout1
350
8DE
  0
ACDBPLACEHOLDER
  5
F
102
{ACAD_REACTORS
330
E
102
}
  0
MLINESTYLE
  5
18
102
{ACAD_REACTORS
330
17
102
}
100
AcDbMlineStyle
  2
STANDARD
 70
0
  3

 62
256
 51
90.0
 52
90.0
 71
2
 49
0.5
 62
256
  6
BYLAYER
 49
-0.5
 62
256
  6
BYLAYER
  0
LAYOUT
  5
8DD
102
{ACAD_REACTORS
330
1A
102
}
100
AcDbPlotSettings
  1

  2
none_device
  4
ANSI_B_(17.00_x_11.00_Inches)
  6

 40
0.0
 41
0.0
 42
0.0
 43
0.0
 44
431.8
 45
279.4
 46
0.0
 47
0.0
 48
0.0
 49
0.0
140
0.0
141
0.0
142
1.0
143
1.0
 70
1024
 72
0
 73
0
 74
0
  7

 75
0
147
1.0
148
0.0
149
0.0
100
AcDbLayout
  1
Model
 70
0
 71
0
 10
0.0
 20
0.0
 11
17.0
 21
11.0
 12
0.0
 22
0.0
 32
0.0
 14
0.0
 24
0.0
 34
0.0
 15
0.0
 25
0.0
 35
0.0
146
0.0
 13
0.0
 23
0.0
 33
0.0
 16
1.0
 26
0.0
 36
0.0
 17
0.0
 27
1.0
 37
0.0
 76
0
330
22D
345
0
346
0
  0
LAYOUT
  5
8DE
102
{ACAD_REACTORS
330
1A
102
}
100
AcDbPlotSettings
  1

  2
none_device
  4
ANSI_B_(17.00_x_11.00_Inches)
  6

 40
0.0
 41
0.0
 42
0.0
 43
0.0
 44
431.8
 45
279.4
 46
0.0
 47
0.0
 48
0.0
 49
0.0
140
0.0
141
0.0
142
1.0
143
1.0
 70
0
 72
0
 73
0
 74
0
  7

 75
0
147
1.0
148
0.0
149
0.0
100
AcDbLayout
  1
Layout1
 70
0
 71
1
 10
0.0
 20
0.0
 11
17.0
 21
11.0
 12
0.0
 22
0.0
 32
0.0
 14
0.0
 24
0.0
 34
0.0
 15
0.0
 25
0.0
 35
0.0
146
0.0
 13
0.0
 23
0.0
 33
0.0
 16
1.0
 26
0.0
 36
0.0
 17
0.0
 27
1.0
 37
0.0
 76
0
330
22E
345
0
346
0
  0
ENDSEC
  0
EOF
