999
DXF file: 154438_1.dxf
999
Pro/ENGINEER 2009141 by Parametric Technology Corporation
  0
SECTION
  2
HEADER
  9
$ACADVER
  1
AC1015
  9
$DWGCODEPAGE
  3
ANSI_1252
  9
$EXTMAX
 10
17.0
 20
11.0
 30
0.0
  9
$EXTMIN
 10
0.0
 20
0.0
 30
0.0
  9
$LIMMIN
 10
0.0
 20
0.0
  9
$LIMMAX
 10
17.0
 20
11.0
  9
$VIEWCTR
 10
8.5
 20
5.5
  9
$VIEWSIZE
 40
11.0
  9
$CLAYER
  8
0
  9
$LTSCALE
 40
0.935
  9
$CELTYPE
  6
BYLAYER
  9
$DIMSCALE
 40
1.0
  9
$DIMASZ
 40
0.1875
  9
$DIMEXO
 40
0.10625
  9
$DIMDLI
 40
0.646
  9
$DIMEXE
 40
0.306
  9
$DIMCEN
 40
0.153
  9
$DIMLFAC
 40
1.0
  9
$DIMBLK
  1
_FILLED
  9
$DIMTXT
 40
0.1
  9
$DIMTOL
 70
1
  9
$DIMLIM
 70
0
  9
$DIMTFAC
 40
1.0
  9
$DIMTP
 40
0.005
  9
$DIMTM
 40
0.005
  9
$PDMODE
 70
3
  9
$PDSIZE
 40
0.3125
  9
$HANDSEED
  5
94B
  9
$TILEMODE
 70
1
  9
$MEASUREMENT
 70
0
  9
$INSUNITS
 70
1
  0
ENDSEC
  0
SECTION
  2
CLASSES
  0
CLASS
  1
ACDBDICTIONARYWDFLT
  2
AcDbDictionaryWithDefault
  3
AutoCAD 2000
 90
0
280
0
281
0
  0
CLASS
  1
ACDBPLACEHOLDER
  2
AcDbPlaceHolder
  3
AutoCAD 2000
 90
0
280
0
281
0
  0
CLASS
  1
LAYOUT
  2
AcDbLayout
  3
AutoCAD 2000
 90
0
280
0
281
0
  0
ENDSEC
  0
SECTION
  2
TABLES
  0
TABLE
  2
VPORT
  5
8
100
AcDbSymbolTable
 70
2
  0
VPORT
  5
1F4
100
AcDbSymbolTableRecord
100
AcDbViewportTableRecord
  2
*ACTIVE
 70
0
 10
0.0
 20
0.0
 11
1.0
 21
1.0
 12
8.5
 22
5.5
 13
0.0
 23
0.0
 14
1.0
 24
1.0
 15
0.0
 25
0.0
 16
0.0
 26
0.0
 36
1.0
 17
0.0
 27
0.0
 37
0.0
 40
11.0
 41
1.5454545455
 42
50.0
 43
0.0
 44
0.0
 50
0.0
 51
0.0
 71
0
 72
100
 73
1
 74
1
 75
0
 76
0
 77
0
 78
0
  0
ENDTAB
  0
TABLE
  2
LTYPE
  5
5
100
AcDbSymbolTable
 70
6
  0
LTYPE
  5
14
100
AcDbSymbolTableRecord
100
AcDbLinetypeTableRecord
  2
BYBLOCK
 70
0
  3

 72
65
 73
0
 40
0.0
  0
LTYPE
  5
15
100
AcDbSymbolTableRecord
100
AcDbLinetypeTableRecord
  2
BYLAYER
 70
0
  3

 72
65
 73
0
 40
0.0
  0
LTYPE
  5
16
100
AcDbSymbolTableRecord
100
AcDbLinetypeTableRecord
  2
CONTINUOUS
 70
64
  3
Solid line
 72
65
 73
0
 40
0.0
  0
LTYPE
  5
1F5
100
AcDbSymbolTableRecord
100
AcDbLinetypeTableRecord
  2
CENTER
 70
64
  3
____ _ ____ _ ____ _ ____ _ ____ _ ____ _ ____
 72
65
 73
4
 40
0.6
 49
0.375
 74
0
 49
-0.075
 74
0
 49
0.075
 74
0
 49
-0.075
 74
0
  0
LTYPE
  5
1F6
100
AcDbSymbolTableRecord
100
AcDbLinetypeTableRecord
  2
HIDDEN
 70
64
  3
- - - - - - - - - - - - - - - - - - - -
 72
65
 73
2
 40
0.2
 49
0.1
 74
0
 49
-0.1
 74
0
  0
LTYPE
  5
1F7
100
AcDbSymbolTableRecord
100
AcDbLinetypeTableRecord
  2
PHANTOM
 70
64
  3
_____ _ _ _____ _ _ _____ _ _ _____
 72
65
 73
6
 40
0.8
 49
0.45
 74
0
 49
-0.05
 74
0
 49
0.1
 74
0
 49
-0.05
 74
0
 49
0.1
 74
0
 49
-0.05
 74
0
  0
LTYPE
  5
1F8
100
AcDbSymbolTableRecord
100
AcDbLinetypeTableRecord
  2
DOT
 70
64
  3
. . . . . . . . . . . . . . . . . . . .
 72
65
 73
2
 40
0.2
 49
0.1
 74
0
 49
-0.1
 74
0
  0
LTYPE
  5
1F9
100
AcDbSymbolTableRecord
100
AcDbLinetypeTableRecord
  2
DASHED
 70
64
  3
- - - - - - - - - - - - - - - - - - - -
 72
65
 73
2
 40
0.2
 49
0.1
 74
0
 49
-0.1
 74
0
  0
ENDTAB
  0
TABLE
  2
LAYER
  5
2
100
AcDbSymbolTable
 70
36
  0
LAYER
  5
10
100
AcDbSymbolTableRecord
100
AcDbLayerTableRecord
  2
0
 70
0
 62
7
  6
CONTINUOUS
370
-3
390
F
  0
LAYER
  5
1FA
100
AcDbSymbolTableRecord
100
AcDbLayerTableRecord
  2
DEFAULT_1
 70
0
 62
7
  6
CENTER
370
-3
390
F
  0
LAYER
  5
1FB
100
AcDbSymbolTableRecord
100
AcDbLayerTableRecord
  2
DEFAULT_2
 70
0
 62
8
  6
HIDDEN
370
-3
390
F
  0
LAYER
  5
1FC
100
AcDbSymbolTableRecord
100
AcDbLayerTableRecord
  2
DEFAULT_3
 70
0
 62
7
  6
PHANTOM
370
-3
390
F
  0
LAYER
  5
1FD
100
AcDbSymbolTableRecord
100
AcDbLayerTableRecord
  2
01___PRT_ALL_DTM_PLN
 70
0
 62
7
  6
CONTINUOUS
370
-3
390
F
  0
LAYER
  5
1FE
100
AcDbSymbolTableRecord
100
AcDbLayerTableRecord
  2
01___PRT_DEF_DTM_PLN
 70
0
 62
7
  6
CONTINUOUS
370
-3
390
F
  0
LAYER
  5
1FF
100
AcDbSymbolTableRecord
100
AcDbLayerTableRecord
  2
02___PRT_ALL_AXES
 70
0
 62
7
  6
CONTINUOUS
370
-3
390
F
  0
LAYER
  5
200
100
AcDbSymbolTableRecord
100
AcDbLayerTableRecord
  2
03___PRT_ALL_CURVES
 70
0
 62
7
  6
CONTINUOUS
370
-3
390
F
  0
LAYER
  5
201
100
AcDbSymbolTableRecord
100
AcDbLayerTableRecord
  2
04___PRT_ALL_DTM_PNT
 70
0
 62
7
  6
CONTINUOUS
370
-3
390
F
  0
LAYER
  5
202
100
AcDbSymbolTableRecord
100
AcDbLayerTableRecord
  2
05___PRT_ALL_DTM_CSYS
 70
0
 62
7
  6
CONTINUOUS
370
-3
390
F
  0
LAYER
  5
203
100
AcDbSymbolTableRecord
100
AcDbLayerTableRecord
  2
05___PRT_DEF_DTM_CSYS
 70
0
 62
7
  6
CONTINUOUS
370
-3
390
F
  0
LAYER
  5
204
100
AcDbSymbolTableRecord
100
AcDbLayerTableRecord
  2
06___PRT_ALL_SURFS
 70
0
 62
7
  6
CONTINUOUS
370
-3
390
F
  0
LAYER
  5
205
100
AcDbSymbolTableRecord
100
AcDbLayerTableRecord
  2
AXIS
 70
0
 62
7
  6
CONTINUOUS
370
-3
390
F
  0
LAYER
  5
206
100
AcDbSymbolTableRecord
100
AcDbLayerTableRecord
  2
AXIS_COSMETIC_THREADS
 70
0
 62
7
  6
CONTINUOUS
370
-3
390
F
  0
LAYER
  5
207
100
AcDbSymbolTableRecord
100
AcDbLayerTableRecord
  2
DATUM_PLANES
 70
0
 62
7
  6
CONTINUOUS
370
-3
390
F
  0
LAYER
  5
208
100
AcDbSymbolTableRecord
100
AcDbLayerTableRecord
  2
NOTES
 70
0
 62
7
  6
CONTINUOUS
370
-3
390
F
  0
LAYER
  5
209
100
AcDbSymbolTableRecord
100
AcDbLayerTableRecord
  2
QUILTS
 70
0
 62
7
  6
CONTINUOUS
370
-3
390
F
  0
LAYER
  5
20A
100
AcDbSymbolTableRecord
100
AcDbLayerTableRecord
  2
SCHEME_DIMS
 70
0
 62
7
  6
CONTINUOUS
370
-3
390
F
  0
LAYER
  5
20B
100
AcDbSymbolTableRecord
100
AcDbLayerTableRecord
  2
SYMBOLS
 70
0
 62
7
  6
CONTINUOUS
370
-3
390
F
  0
ENDTAB
  0
TABLE
  2
STYLE
  5
3
100
AcDbSymbolTable
 70
1
  0
STYLE
  5
11
100
AcDbSymbolTableRecord
100
AcDbTextStyleTableRecord
  2
STANDARD
 70
0
 40
0.0
 41
1.0
 50
0.0
 71
0
 42
0.2
  3
txt
  4

  0
STYLE
  5
20C
100
AcDbSymbolTableRecord
100
AcDbTextStyleTableRecord
  2
TEXTSTYLE_1
 70
0
 40
0.0
 41
0.8
 50
0.0
 71
0
 42
0.2
  3
gdt
  4

  0
STYLE
  5
20D
100
AcDbSymbolTableRecord
100
AcDbTextStyleTableRecord
  2
TEXTSTYLE_2
 70
0
 40
0.0
 41
0.8
 50
0.0
 71
0
 42
0.2
  3
txt
  4

  0
STYLE
  5
20E
100
AcDbSymbolTableRecord
100
AcDbTextStyleTableRecord
  2
TEXTSTYLE_3
 70
0
 40
0.0
 41
0.85
 50
0.0
 71
0
 42
0.2
  3
txt
  4

  0
STYLE
  5
20F
100
AcDbSymbolTableRecord
100
AcDbTextStyleTableRecord
  2
TEXTSTYLE_4
 70
0
 40
0.0
 41
0.92
 50
0.0
 71
0
 42
0.2
  3
txt
  4

  0
STYLE
  5
210
100
AcDbSymbolTableRecord
100
AcDbTextStyleTableRecord
  2
TEXTSTYLE_5
 70
0
 40
0.0
 41
1.0
 50
0.0
 71
0
 42
0.2
  3
gdt
  4

  0
ENDTAB
  0
TABLE
  2
VIEW
  5
6
100
AcDbSymbolTable
 70
0
  0
ENDTAB
  0
TABLE
  2
UCS
  5
7
100
AcDbSymbolTable
 70
0
  0
ENDTAB
  0
TABLE
  2
APPID
  5
9
100
AcDbSymbolTable
 70
1
  0
APPID
  5
211
100
AcDbSymbolTableRecord
100
AcDbRegAppTableRecord
  2
ACAD
 70
0
  0
ENDTAB
  0
TABLE
  2
BLOCK_RECORD
  5
1
100
AcDbSymbolTable
 70
0
  0
BLOCK_RECORD
  5
212
100
AcDbSymbolTableRecord
100
AcDbBlockTableRecord
  2
*Model_Space
  0
BLOCK_RECORD
  5
213
100
AcDbSymbolTableRecord
100
AcDbBlockTableRecord
  2
*Paper_Space
  0
BLOCK_RECORD
  5
214
100
AcDbSymbolTableRecord
100
AcDbBlockTableRecord
  2
_FILLED
  0
BLOCK_RECORD
  5
215
100
AcDbSymbolTableRecord
100
AcDbBlockTableRecord
  2
*D0
  0
BLOCK_RECORD
  5
216
100
AcDbSymbolTableRecord
100
AcDbBlockTableRecord
  2
*D1
  0
BLOCK_RECORD
  5
217
100
AcDbSymbolTableRecord
100
AcDbBlockTableRecord
  2
BANNER_LOGO_TITLEBLOCK_BL0
  0
ENDTAB
  0
TABLE
  2
DIMSTYLE
  5
A
100
AcDbSymbolTable
 70
1
100
AcDbDimStyleTable
 71
0
  0
DIMSTYLE
105
218
100
AcDbSymbolTableRecord
100
AcDbDimStyleTableRecord
  2
STANDARD
 70
0
  3

  4

 40
1.0
 41
0.1875
 42
0.0625
 43
0.38
 44
0.18
 45
0.0
 46
0.0
 47
0.005
 48
0.005
140
0.1
141
0.09
142
0.0
143
25.4
144
1.0
145
0.0
146
1.0
147
0.09
 71
1.0
 72
0.0
 73
1
 74
1
 75
0
 76
0
 77
0
 78
4
170
0
171
2
172
0
173
0
174
0
175
0
176
0
177
0
178
0
270
2
271
3
272
3
273
2
274
2
275
0
280
0
281
0
282
0
283
1
284
4
285
0
286
0
287
3
288
0
340
11
341
214
342
214
343
214
344
214
  0
DIMSTYLE
105
219
100
AcDbSymbolTableRecord
100
AcDbDimStyleTableRecord
  2
DIMSTYLE_1
 70
0
  3

  4

 40
1.0
 41
0.1875
 42
0.0625
 43
0.38
 44
0.18
 45
0.0
 46
0.0
 47
0.1
 48
0.1
140
0.1
141
0.09
142
0.0
143
25.4
144
1.0
145
0.0
146
1.0
147
0.09
 71
0.0
 72
0.0
 73
1
 74
1
 75
0
 76
0
 77
0
 78
4
170
0
171
2
172
0
173
0
174
0
175
0
176
0
177
0
178
0
270
2
271
1
272
1
273
2
274
2
275
0
280
0
281
0
282
0
283
1
284
4
285
0
286
0
287
3
288
0
340
11
341
214
342
214
343
214
344
214
  0
ENDTAB
  0
ENDSEC
  0
SECTION
  2
BLOCKS
  0
BLOCK
  5
20
100
AcDbEntity
  8
0
100
AcDbBlockBegin
  2
*Model_Space
 70
0
 10
0.0
 20
0.0
 30
0.0
  3
*Model_Space
  1

  0
ENDBLK
  5
21
100
AcDbEntity
  8
0
100
AcDbBlockEnd
  0
BLOCK
  5
1C
100
AcDbEntity
  8
0
100
AcDbBlockBegin
  2
*Paper_Space
 70
0
 10
0.0
 20
0.0
 30
0.0
  3
*Paper_Space
  1

  0
ENDBLK
  5
1D
100
AcDbEntity
  8
0
100
AcDbBlockEnd
  0
BLOCK
  5
21A
100
AcDbEntity
  8
0
100
AcDbBlockBegin
 62
2
  6
CONTINUOUS
  2
BANNER_LOGO_TITLEBLOCK_BL0
 70
64
 10
12.9086867042
 20
2.5403783405
  3
BANNER_LOGO_TITLEBLOCK_BL0
  1

  0
ELLIPSE
  5
21B
100
AcDbEntity
  8
0
100
AcDbEllipse
 62
2
  6
CONTINUOUS
 10
12.9046654608
 20
2.5403783405
 30
0.0
 11
-0.8250004575
 21
0.0
 31
0.0
 40
0.218572
 41
0.0
 42
6.2831853072
  0
ARC
  5
21C
100
AcDbEntity
  8
0
100
AcDbCircle
 62
2
  6
CONTINUOUS
 10
12.400005721
 20
2.5168763464
 40
0.0153945295
100
AcDbArc
 50
354.0454548824
 51
5.1878013979
  0
ARC
  5
21D
100
AcDbEntity
  8
0
100
AcDbCircle
 62
2
  6
CONTINUOUS
 10
12.3931760319
 20
2.5166878286
 40
0.0222174455
100
AcDbArc
 50
4.0793399388
 51
69.834329283
  0
LINE
  5
21E
100
AcDbEntity
  8
0
100
AcDbLine
 62
2
  6
CONTINUOUS
 10
12.4008351814
 20
2.5375433389
 11
12.3907841758
 21
2.5410923409
  0
LINE
  5
21F
100
AcDbEntity
  8
0
100
AcDbLine
 62
2
  6
CONTINUOUS
 10
12.3907841758
 20
2.5410923409
 11
12.3990241804
 21
2.5458683435
  0
ARC
  5
220
100
AcDbEntity
  8
0
100
AcDbCircle
 62
2
  6
CONTINUOUS
 10
12.3771587979
 20
2.5826952352
 40
0.0428289026
100
AcDbArc
 50
300.6990502959
 51
319.0591802498
  0
ARC
  5
221
100
AcDbEntity
  8
0
100
AcDbCircle
 62
2
  6
CONTINUOUS
 10
12.3971873948
 20
2.5665668817
 40
0.0171568255
100
AcDbArc
 50
315.9145124245
 51
16.0049121282
  0
ARC
  5
222
100
AcDbEntity
  8
0
100
AcDbCircle
 62
2
  6
CONTINUOUS
 10
12.3922357827
 20
2.5632132173
 40
0.0229166529
100
AcDbArc
 50
20.6563876465
 51
62.3316896973
  0
ARC
  5
223
100
AcDbEntity
  8
0
100
AcDbCircle
 62
2
  6
CONTINUOUS
 10
12.371573659
 20
2.5302846524
 40
0.061747717
100
AcDbArc
 50
59.5385584989
 51
90.0050977555
  0
LINE
  5
224
100
AcDbEntity
  8
0
100
AcDbLine
 62
2
  6
CONTINUOUS
 10
12.3715681652
 20
2.5920323691
 11
12.2055050731
 21
2.5920323691
  0
ARC
  5
225
100
AcDbEntity
  8
0
100
AcDbCircle
 62
2
  6
CONTINUOUS
 10
12.2055050712
 20
2.5895573696
 40
0.0024749995
100
AcDbArc
 50
89.9999571957
 51
180.0000428043
  0
LINE
  5
226
100
AcDbEntity
  8
0
100
AcDbLine
 62
2
  6
CONTINUOUS
 10
12.2030300717
 20
2.5895573678
 11
12.2030300717
 21
2.5697573568
  0
ARC
  5
227
100
AcDbEntity
  8
0
100
AcDbCircle
 62
2
  6
CONTINUOUS
 10
12.2055050712
 20
2.5697573549
 40
0.0024749995
100
AcDbArc
 50
179.9999571957
 51
270.0000428043
  0
LINE
  5
228
100
AcDbEntity
  8
0
100
AcDbLine
 62
2
  6
CONTINUOUS
 10
12.2055050731
 20
2.5672823554
 11
12.2294470864
 21
2.5672823554
  0
ARC
  5
229
100
AcDbEntity
  8
0
100
AcDbCircle
 62
2
  6
CONTINUOUS
 10
12.2294470882
 20
2.5648073559
 40
0.0024749995
100
AcDbArc
 50
359.9999571957
 51
90.0000428043
  0
LINE
  5
22A
100
AcDbEntity
  8
0
100
AcDbLine
 62
2
  6
CONTINUOUS
 10
12.2319220877
 20
2.564807354
 11
12.2319220877
 21
2.5184523283
  0
ARC
  5
22B
100
AcDbEntity
  8
0
100
AcDbCircle
 62
2
  6
CONTINUOUS
 10
12.2294470882
 20
2.5184523265
 40
0.0024749995
100
AcDbArc
 50
269.9999571957
 51
0.0000428043
  0
LINE
  5
22C
100
AcDbEntity
  8
0
100
AcDbLine
 62
2
  6
CONTINUOUS
 10
12.2294470864
 20
2.515977327
 11
12.2055050731
 21
2.515977327
  0
ARC
  5
22D
100
AcDbEntity
  8
0
100
AcDbCircle
 62
2
  6
CONTINUOUS
 10
12.2055050712
 20
2.5135023274
 40
0.0024749995
100
AcDbArc
 50
89.9999571957
 51
180.0000428043
  0
LINE
  5
22E
100
AcDbEntity
  8
0
100
AcDbLine
 62
2
  6
CONTINUOUS
 10
12.2030300717
 20
2.5135023256
 11
12.2030300717
 21
2.4937023146
  0
ARC
  5
22F
100
AcDbEntity
  8
0
100
AcDbCircle
 62
2
  6
CONTINUOUS
 10
12.2055050712
 20
2.4937023128
 40
0.0024749995
100
AcDbArc
 50
179.9999571957
 51
270.0000428043
  0
LINE
  5
230
100
AcDbEntity
  8
0
100
AcDbLine
 62
2
  6
CONTINUOUS
 10
12.2055050731
 20
2.4912273132
 11
12.3819511709
 21
2.4912273132
  0
ARC
  5
231
100
AcDbEntity
  8
0
100
AcDbCircle
 62
2
  6
CONTINUOUS
 10
12.3792298263
 20
2.539634765
 40
0.048483885
100
AcDbArc
 50
273.21763719
 51
303.0749121182
  0
ARC
  5
232
100
AcDbEntity
  8
0
100
AcDbCircle
 62
2
  6
CONTINUOUS
 10
12.3940692204
 20
2.5168671561
 40
0.0213072145
100
AcDbArc
 50
303.0488228549
 51
355.7263138674
  0
LINE
  5
233
100
AcDbEntity
  8
0
100
AcDbLine
 62
2
  6
CONTINUOUS
 10
12.2949101227
 20
2.5499573458
 11
12.3362731456
 21
2.5499573458
  0
ARC
  5
234
100
AcDbEntity
  8
0
100
AcDbCircle
 62
2
  6
CONTINUOUS
 10
12.3362731456
 20
2.5586198506
 40
0.0086625048
100
AcDbArc
 50
270.0
 51
90.0
  0
LINE
  5
235
100
AcDbEntity
  8
0
100
AcDbLine
 62
2
  6
CONTINUOUS
 10
12.3362731456
 20
2.5672823554
 11
12.2949101227
 21
2.5672823554
  0
ARC
  5
236
100
AcDbEntity
  8
0
100
AcDbCircle
 62
2
  6
CONTINUOUS
 10
12.2949101208
 20
2.5648073559
 40
0.0024749995
100
AcDbArc
 50
89.9999571957
 51
180.0000428043
  0
LINE
  5
237
100
AcDbEntity
  8
0
100
AcDbLine
 62
2
  6
CONTINUOUS
 10
12.2924351213
 20
2.564807354
 11
12.2924351213
 21
2.5524323472
  0
ARC
  5
238
100
AcDbEntity
  8
0
100
AcDbCircle
 62
2
  6
CONTINUOUS
 10
12.2949101208
 20
2.5524323453
 40
0.0024749995
100
AcDbArc
 50
179.9999571957
 51
270.0000428043
  0
LINE
  5
239
100
AcDbEntity
  8
0
100
AcDbLine
 62
2
  6
CONTINUOUS
 10
12.2924351213
 20
2.5184523283
 11
12.2924351213
 21
2.5308273352
  0
ARC
  5
23A
100
AcDbEntity
  8
0
100
AcDbCircle
 62
2
  6
CONTINUOUS
 10
12.2949101208
 20
2.530827337
 40
0.0024749995
100
AcDbArc
 50
89.9999571957
 51
180.0000428043
  0
LINE
  5
23B
100
AcDbEntity
  8
0
100
AcDbLine
 62
2
  6
CONTINUOUS
 10
12.2949101227
 20
2.5333023366
 11
12.3362731456
 21
2.5333023366
  0
ARC
  5
23C
100
AcDbEntity
  8
0
100
AcDbCircle
 62
2
  6
CONTINUOUS
 10
12.3362731456
 20
2.5246398318
 40
0.0086625048
100
AcDbArc
 50
270.0
 51
90.0
  0
LINE
  5
23D
100
AcDbEntity
  8
0
100
AcDbLine
 62
2
  6
CONTINUOUS
 10
12.3362731456
 20
2.515977327
 11
12.2949101227
 21
2.515977327
  0
ARC
  5
23E
100
AcDbEntity
  8
0
100
AcDbCircle
 62
2
  6
CONTINUOUS
 10
12.2949101208
 20
2.5184523265
 40
0.0024749995
100
AcDbArc
 50
179.9999571957
 51
270.0000428043
  0
ARC
  5
23F
100
AcDbEntity
  8
0
100
AcDbCircle
 62
2
  6
CONTINUOUS
 10
13.5806801742
 20
2.5212486481
 40
0.044722495
100
AcDbArc
 50
195.531588407
 51
204.7624440448
  0
LINE
  5
240
100
AcDbEntity
  8
0
100
AcDbLine
 62
2
  6
CONTINUOUS
 10
13.5375908118
 20
2.5092733232
 11
13.5357868108
 21
2.5153423266
  0
ARC
  5
241
100
AcDbEntity
  8
0
100
AcDbCircle
 62
2
  6
CONTINUOUS
 10
13.4974076135
 20
2.5055452462
 40
0.0396099176
100
AcDbArc
 50
14.3201081283
 51
22.4984722084
  0
ARC
  5
242
100
AcDbEntity
  8
0
100
AcDbCircle
 62
2
  6
CONTINUOUS
 10
13.5201739219
 20
2.5145168728
 40
0.0151491919
100
AcDbArc
 50
24.098260853
 51
63.0369451818
  0
ARC
  5
243
100
AcDbEntity
  8
0
100
AcDbCircle
 62
2
  6
CONTINUOUS
 10
13.5161192671
 20
2.5062372524
 40
0.0243676582
100
AcDbArc
 50
63.3666028271
 51
90.3937697637
  0
LINE
  5
244
100
AcDbEntity
  8
0
100
AcDbLine
 62
2
  6
CONTINUOUS
 10
13.5159517998
 20
2.5306043351
 11
13.4883447845
 21
2.5306043351
  0
ARC
  5
245
100
AcDbEntity
  8
0
100
AcDbCircle
 62
2
  6
CONTINUOUS
 10
13.4883447827
 20
2.5281293355
 40
0.0024749995
100
AcDbArc
 50
89.9999571957
 51
180.0000428043
  0
LINE
  5
246
100
AcDbEntity
  8
0
100
AcDbLine
 62
2
  6
CONTINUOUS
 10
13.4858697831
 20
2.5281293337
 11
13.4858697831
 21
2.5184303283
  0
ARC
  5
247
100
AcDbEntity
  8
0
100
AcDbCircle
 62
2
  6
CONTINUOUS
 10
13.4883447827
 20
2.5184303265
 40
0.0024749995
100
AcDbArc
 50
179.9999571957
 51
270.0000428043
  0
LINE
  5
248
100
AcDbEntity
  8
0
100
AcDbLine
 62
2
  6
CONTINUOUS
 10
13.4883447845
 20
2.5159553269
 11
13.5130037982
 21
2.5159553269
  0
ARC
  5
249
100
AcDbEntity
  8
0
100
AcDbCircle
 62
2
  6
CONTINUOUS
 10
13.5130038
 20
2.5134803274
 40
0.0024749995
100
AcDbArc
 50
359.9999571957
 51
90.0000428043
  0
LINE
  5
24A
100
AcDbEntity
  8
0
100
AcDbLine
 62
2
  6
CONTINUOUS
 10
13.5154787995
 20
2.5134803256
 11
13.5154787995
 21
2.4937023146
  0
ARC
  5
24B
100
AcDbEntity
  8
0
100
AcDbCircle
 62
2
  6
CONTINUOUS
 10
13.5130038
 20
2.4937023128
 40
0.0024749995
100
AcDbArc
 50
269.9999571957
 51
0.0000428043
  0
LINE
  5
24C
100
AcDbEntity
  8
0
100
AcDbLine
 62
2
  6
CONTINUOUS
 10
13.5130037982
 20
2.4912273132
 11
13.3994327352
 21
2.4912273132
  0
ARC
  5
24D
100
AcDbEntity
  8
0
100
AcDbCircle
 62
2
  6
CONTINUOUS
 10
13.3994327333
 20
2.4937023128
 40
0.0024749995
100
AcDbArc
 50
179.9999571957
 51
270.0000428043
  0
LINE
  5
24E
100
AcDbEntity
  8
0
100
AcDbLine
 62
2
  6
CONTINUOUS
 10
13.3969577338
 20
2.4937023146
 11
13.3969577338
 21
2.5135023256
  0
ARC
  5
24F
100
AcDbEntity
  8
0
100
AcDbCircle
 62
2
  6
CONTINUOUS
 10
13.3994327333
 20
2.5135023274
 40
0.0024749995
100
AcDbArc
 50
89.9999571957
 51
180.0000428043
  0
LINE
  5
250
100
AcDbEntity
  8
0
100
AcDbLine
 62
2
  6
CONTINUOUS
 10
13.3994327352
 20
2.515977327
 11
13.4221787478
 21
2.515977327
  0
ARC
  5
251
100
AcDbEntity
  8
0
100
AcDbCircle
 62
2
  6
CONTINUOUS
 10
13.4221787497
 20
2.5184523265
 40
0.0024749995
100
AcDbArc
 50
269.9999571957
 51
0.0000428042
  0
LINE
  5
252
100
AcDbEntity
  8
0
100
AcDbLine
 62
2
  6
CONTINUOUS
 10
13.4246537492
 20
2.5184523283
 11
13.4246537492
 21
2.564807354
  0
ARC
  5
253
100
AcDbEntity
  8
0
100
AcDbCircle
 62
2
  6
CONTINUOUS
 10
13.4221787497
 20
2.5648073559
 40
0.0024749995
100
AcDbArc
 50
359.9999571957
 51
90.0000428043
  0
LINE
  5
254
100
AcDbEntity
  8
0
100
AcDbLine
 62
2
  6
CONTINUOUS
 10
13.4221787478
 20
2.5672823554
 11
13.3994327352
 21
2.5672823554
  0
ARC
  5
255
100
AcDbEntity
  8
0
100
AcDbCircle
 62
2
  6
CONTINUOUS
 10
13.3994327333
 20
2.5697573549
 40
0.0024749995
100
AcDbArc
 50
179.9999571957
 51
270.0000428043
  0
LINE
  5
256
100
AcDbEntity
  8
0
100
AcDbLine
 62
2
  6
CONTINUOUS
 10
13.3969577338
 20
2.5697573568
 11
13.3969577338
 21
2.5895573678
  0
ARC
  5
257
100
AcDbEntity
  8
0
100
AcDbCircle
 62
2
  6
CONTINUOUS
 10
13.3994327333
 20
2.5895573696
 40
0.0024749995
100
AcDbArc
 50
89.9999571957
 51
180.0000428043
  0
LINE
  5
258
100
AcDbEntity
  8
0
100
AcDbLine
 62
2
  6
CONTINUOUS
 10
13.3994327352
 20
2.5920323691
 11
13.5490138181
 21
2.5920323691
  0
ARC
  5
259
100
AcDbEntity
  8
0
100
AcDbCircle
 62
2
  6
CONTINUOUS
 10
13.5463505148
 20
2.4094934586
 40
0.1825583387
100
AcDbArc
 50
79.8618509324
 51
89.1640948679
  0
ARC
  5
25A
100
AcDbEntity
  8
0
100
AcDbCircle
 62
2
  6
CONTINUOUS
 10
13.5726548052
 20
2.5503169747
 40
0.039319019
100
AcDbArc
 50
59.1202086415
 51
81.4730239328
  0
ARC
  5
25B
100
AcDbEntity
  8
0
100
AcDbCircle
 62
2
  6
CONTINUOUS
 10
13.5783142014
 20
2.5566516438
 40
0.0310192946
100
AcDbArc
 50
34.7540871
 51
62.0879016178
  0
ARC
  5
25C
100
AcDbEntity
  8
0
100
AcDbCircle
 62
2
  6
CONTINUOUS
 10
13.5900029525
 20
2.565201245
 40
0.0165459396
100
AcDbArc
 50
1.548452892
 51
33.5033152417
  0
ARC
  5
25D
100
AcDbEntity
  8
0
100
AcDbCircle
 62
2
  6
CONTINUOUS
 10
13.5932995477
 20
2.5653696972
 40
0.0132462337
100
AcDbArc
 50
331.1510006998
 51
1.205404301
  0
ARC
  5
25E
100
AcDbEntity
  8
0
100
AcDbCircle
 62
2
  6
CONTINUOUS
 10
13.5822888914
 20
2.5720482849
 40
0.0261183659
100
AcDbArc
 50
305.6373831893
 51
329.9727629745
  0
ARC
  5
25F
100
AcDbEntity
  8
0
100
AcDbCircle
 62
2
  6
CONTINUOUS
 10
13.5519569538
 20
2.6152551345
 40
0.0789082104
100
AcDbArc
 50
292.906155071
 51
305.2574666259
  0
ARC
  5
260
100
AcDbEntity
  8
0
100
AcDbCircle
 62
2
  6
CONTINUOUS
 10
13.5282557878
 20
2.4386010294
 40
0.117346916
100
AcDbArc
 50
58.614769177
 51
62.3737227606
  0
ARC
  5
261
100
AcDbEntity
  8
0
100
AcDbCircle
 62
2
  6
CONTINUOUS
 10
13.5761387404
 20
2.5167282896
 40
0.0257145923
100
AcDbArc
 50
39.3804255939
 51
59.0361096173
  0
ARC
  5
262
100
AcDbEntity
  8
0
100
AcDbCircle
 62
2
  6
CONTINUOUS
 10
13.5750183849
 20
2.5166552064
 40
0.0266349791
100
AcDbArc
 50
20.3630922153
 51
37.9727053099
  0
ARC
  5
263
100
AcDbEntity
  8
0
100
AcDbCircle
 62
2
  6
CONTINUOUS
 10
13.5571178432
 20
2.509473798
 40
0.0459185159
100
AcDbArc
 50
15.6740290068
 51
20.9917271228
  0
ARC
  5
264
100
AcDbEntity
  8
0
100
AcDbCircle
 62
2
  6
CONTINUOUS
 10
13.6156881783
 20
2.525116781
 40
0.0147197649
100
AcDbArc
 50
192.7054516565
 51
206.0594861022
  0
ARC
  5
265
100
AcDbEntity
  8
0
100
AcDbCircle
 62
2
  6
CONTINUOUS
 10
13.6071938412
 20
2.5209082945
 40
0.0052403997
100
AcDbArc
 50
205.5232099488
 51
227.5054868079
  0
ARC
  5
266
100
AcDbEntity
  8
0
100
AcDbCircle
 62
2
  6
CONTINUOUS
 10
13.6054655419
 20
2.5190929218
 40
0.0027347709
100
AcDbArc
 50
228.5117626737
 51
266.1485845754
  0
LINE
  5
267
100
AcDbEntity
  8
0
100
AcDbLine
 62
2
  6
CONTINUOUS
 10
13.6052818493
 20
2.5163643272
 11
13.60639085
 21
2.5163643272
  0
ARC
  5
268
100
AcDbEntity
  8
0
100
AcDbCircle
 62
2
  6
CONTINUOUS
 10
13.6063292954
 20
2.5296129864
 40
0.0132488022
100
AcDbArc
 50
270.266200055
 51
281.2404888597
  0
ARC
  5
269
100
AcDbEntity
  8
0
100
AcDbCircle
 62
2
  6
CONTINUOUS
 10
13.6075235364
 20
2.5238762928
 40
0.0073895522
100
AcDbArc
 50
280.8288201977
 51
305.0837508495
  0
ARC
  5
26A
100
AcDbEntity
  8
0
100
AcDbCircle
 62
2
  6
CONTINUOUS
 10
13.607924718
 20
2.5230254464
 40
0.0064647042
100
AcDbArc
 50
306.5086174083
 51
340.2162360092
  0
ARC
  5
26B
100
AcDbEntity
  8
0
100
AcDbCircle
 62
2
  6
CONTINUOUS
 10
13.6027235414
 20
2.524769508
 40
0.0119498009
100
AcDbArc
 50
340.7883861657
 51
1.1691452593
  0
LINE
  5
26C
100
AcDbEntity
  8
0
100
AcDbLine
 62
2
  6
CONTINUOUS
 10
13.6146708546
 20
2.525013332
 11
13.6146708546
 21
2.5276393334
  0
ARC
  5
26D
100
AcDbEntity
  8
0
100
AcDbCircle
 62
2
  6
CONTINUOUS
 10
13.6171458541
 20
2.5276393353
 40
0.0024749995
100
AcDbArc
 50
89.9999571957
 51
180.0000428043
  0
LINE
  5
26E
100
AcDbEntity
  8
0
100
AcDbLine
 62
2
  6
CONTINUOUS
 10
13.6171458559
 20
2.5301143348
 11
13.6292558626
 21
2.5301143348
  0
ARC
  5
26F
100
AcDbEntity
  8
0
100
AcDbCircle
 62
2
  6
CONTINUOUS
 10
13.6292558645
 20
2.5276393353
 40
0.0024749995
100
AcDbArc
 50
359.9999571957
 51
90.0000428043
  0
LINE
  5
270
100
AcDbEntity
  8
0
100
AcDbLine
 62
2
  6
CONTINUOUS
 10
13.631730864
 20
2.5276393334
 11
13.631730864
 21
2.516087327
  0
ARC
  5
271
100
AcDbEntity
  8
0
100
AcDbCircle
 62
2
  6
CONTINUOUS
 10
13.6141751675
 20
2.5161916447
 40
0.0175560065
100
AcDbArc
 50
332.2279060967
 51
359.6595469939
  0
ARC
  5
272
100
AcDbEntity
  8
0
100
AcDbCircle
 62
2
  6
CONTINUOUS
 10
13.6048681567
 20
2.5210861501
 40
0.0280715479
100
AcDbArc
 50
308.5071794988
 51
332.2400656899
  0
ARC
  5
273
100
AcDbEntity
  8
0
100
AcDbCircle
 62
2
  6
CONTINUOUS
 10
13.5978759713
 20
2.5286873679
 40
0.0383802683
100
AcDbArc
 50
288.7656836787
 51
309.6104317088
  0
ARC
  5
274
100
AcDbEntity
  8
0
100
AcDbCircle
 62
2
  6
CONTINUOUS
 10
13.6036139387
 20
2.5111006186
 40
0.0198837666
100
AcDbArc
 50
271.8586572978
 51
289.4131338543
  0
LINE
  5
275
100
AcDbEntity
  8
0
100
AcDbLine
 62
2
  6
CONTINUOUS
 10
13.6042588488
 20
2.4912273132
 11
13.5568948225
 21
2.4912273132
  0
ARC
  5
276
100
AcDbEntity
  8
0
100
AcDbCircle
 62
2
  6
CONTINUOUS
 10
13.5577001432
 20
2.5085494649
 40
0.0173408616
100
AcDbArc
 50
232.4713476722
 51
267.338189944
  0
ARC
  5
277
100
AcDbEntity
  8
0
100
AcDbCircle
 62
2
  6
CONTINUOUS
 10
13.5607987082
 20
2.5143997688
 40
0.0238935861
100
AcDbArc
 50
209.8247607259
 51
235.1255079367
  0
ARC
  5
278
100
AcDbEntity
  8
0
100
AcDbCircle
 62
2
  6
CONTINUOUS
 10
13.5295131508
 20
2.5629115009
 40
0.0110815393
100
AcDbArc
 50
306.758405961
 51
320.4502234234
  0
ARC
  5
279
100
AcDbEntity
  8
0
100
AcDbCircle
 62
2
  6
CONTINUOUS
 10
13.5238839599
 20
2.5706523294
 40
0.0206523367
100
AcDbArc
 50
289.6883413472
 51
306.4184925496
  0
ARC
  5
27A
100
AcDbEntity
  8
0
100
AcDbCircle
 62
2
  6
CONTINUOUS
 10
13.5219564542
 20
2.5750459767
 40
0.0254407115
100
AcDbArc
 50
270.7327484175
 51
290.441894219
  0
LINE
  5
27B
100
AcDbEntity
  8
0
100
AcDbLine
 62
2
  6
CONTINUOUS
 10
13.5222818033
 20
2.5496073456
 11
13.4883447845
 21
2.5496073456
  0
ARC
  5
27C
100
AcDbEntity
  8
0
100
AcDbCircle
 62
2
  6
CONTINUOUS
 10
13.4883447827
 20
2.5520823451
 40
0.0024749995
100
AcDbArc
 50
179.9999571957
 51
270.0000428043
  0
LINE
  5
27D
100
AcDbEntity
  8
0
100
AcDbLine
 62
2
  6
CONTINUOUS
 10
13.4858697831
 20
2.552082347
 11
13.4858697831
 21
2.564807354
  0
ARC
  5
27E
100
AcDbEntity
  8
0
100
AcDbCircle
 62
2
  6
CONTINUOUS
 10
13.4883447827
 20
2.5648073559
 40
0.0024749995
100
AcDbArc
 50
89.9999571957
 51
180.0000428043
  0
LINE
  5
27F
100
AcDbEntity
  8
0
100
AcDbLine
 62
2
  6
CONTINUOUS
 10
13.4883447845
 20
2.5672823554
 11
13.5251458049
 21
2.5672823554
  0
ARC
  5
280
100
AcDbEntity
  8
0
100
AcDbCircle
 62
2
  6
CONTINUOUS
 10
13.5236009174
 20
2.5388278764
 40
0.0284963867
100
AcDbArc
 50
70.3834917948
 51
86.8922743861
  0
ARC
  5
281
100
AcDbEntity
  8
0
100
AcDbCircle
 62
2
  6
CONTINUOUS
 10
13.5284605274
 20
2.5518696094
 40
0.0145814632
100
AcDbArc
 50
54.6746025112
 51
71.1660573124
  0
ARC
  5
282
100
AcDbEntity
  8
0
100
AcDbCircle
 62
2
  6
CONTINUOUS
 10
13.5335900184
 20
2.5587235346
 40
0.0060275915
100
AcDbArc
 50
20.9055592135
 51
56.7851676243
  0
ARC
  5
283
100
AcDbEntity
  8
0
100
AcDbCircle
 62
2
  6
CONTINUOUS
 10
13.5348905773
 20
2.5593838168
 40
0.0045795888
100
AcDbArc
 50
355.6235353944
 51
18.9942678268
  0
ARC
  5
284
100
AcDbEntity
  8
0
100
AcDbCircle
 62
2
  6
CONTINUOUS
 10
13.533683767
 20
2.559677593
 40
0.0058087709
100
AcDbArc
 50
318.8515287446
 51
353.6422345323
  0
LINE
  5
285
100
AcDbEntity
  8
0
100
AcDbLine
 62
2
  6
CONTINUOUS
 10
12.672340332
 20
2.5920323691
 11
12.7727983877
 21
2.5920323691
  0
ARC
  5
286
100
AcDbEntity
  8
0
100
AcDbCircle
 62
2
  6
CONTINUOUS
 10
12.7727985224
 20
2.5895582013
 40
0.0024741678
100
AcDbArc
 50
46.3477981899
 51
90.0031206038
  0
LINE
  5
287
100
AcDbEntity
  8
0
100
AcDbLine
 62
2
  6
CONTINUOUS
 10
12.7745063886
 20
2.5913483688
 11
12.8345394219
 21
2.534068337
  0
ARC
  5
288
100
AcDbEntity
  8
0
100
AcDbCircle
 62
2
  6
CONTINUOUS
 10
12.8362481229
 20
2.5358592748
 40
0.0024753014
100
AcDbArc
 50
226.3461263059
 51
0.0014637321
  0
LINE
  5
289
100
AcDbEntity
  8
0
100
AcDbLine
 62
2
  6
CONTINUOUS
 10
12.8387234242
 20
2.535859338
 11
12.8387234242
 21
2.564807354
  0
ARC
  5
28A
100
AcDbEntity
  8
0
100
AcDbCircle
 62
2
  6
CONTINUOUS
 10
12.8362484247
 20
2.5648073559
 40
0.0024749995
100
AcDbArc
 50
359.9999571957
 51
90.0000428043
  0
LINE
  5
28B
100
AcDbEntity
  8
0
100
AcDbLine
 62
2
  6
CONTINUOUS
 10
12.8362484229
 20
2.5672823554
 11
12.8174724125
 21
2.5672823554
  0
ARC
  5
28C
100
AcDbEntity
  8
0
100
AcDbCircle
 62
2
  6
CONTINUOUS
 10
12.8174724106
 20
2.5697573549
 40
0.0024749995
100
AcDbArc
 50
179.9999571957
 51
270.0000428043
  0
LINE
  5
28D
100
AcDbEntity
  8
0
100
AcDbLine
 62
2
  6
CONTINUOUS
 10
12.8149974111
 20
2.5697573568
 11
12.8149974111
 21
2.5895573678
  0
ARC
  5
28E
100
AcDbEntity
  8
0
100
AcDbCircle
 62
2
  6
CONTINUOUS
 10
12.8174724106
 20
2.5895573696
 40
0.0024749995
100
AcDbArc
 50
89.9999571957
 51
180.0000428043
  0
LINE
  5
28F
100
AcDbEntity
  8
0
100
AcDbLine
 62
2
  6
CONTINUOUS
 10
12.8174724125
 20
2.5920323691
 11
12.8914734535
 21
2.5920323691
  0
ARC
  5
290
100
AcDbEntity
  8
0
100
AcDbCircle
 62
2
  6
CONTINUOUS
 10
12.8914734553
 20
2.5895573696
 40
0.0024749995
100
AcDbArc
 50
359.9999571957
 51
90.0000428043
  0
LINE
  5
291
100
AcDbEntity
  8
0
100
AcDbLine
 62
2
  6
CONTINUOUS
 10
12.8939484549
 20
2.5895573678
 11
12.8939484549
 21
2.5697573568
  0
ARC
  5
292
100
AcDbEntity
  8
0
100
AcDbCircle
 62
2
  6
CONTINUOUS
 10
12.8914734553
 20
2.5697573549
 40
0.0024749995
100
AcDbArc
 50
269.9999571957
 51
0.0000428043
  0
LINE
  5
293
100
AcDbEntity
  8
0
100
AcDbLine
 62
2
  6
CONTINUOUS
 10
12.8914734535
 20
2.5672823554
 11
12.8735404436
 21
2.5672823554
  0
ARC
  5
294
100
AcDbEntity
  8
0
100
AcDbCircle
 62
2
  6
CONTINUOUS
 10
12.8735404417
 20
2.5648073559
 40
0.0024749995
100
AcDbArc
 50
89.9999571957
 51
180.0000428043
  0
LINE
  5
295
100
AcDbEntity
  8
0
100
AcDbLine
 62
2
  6
CONTINUOUS
 10
12.8710654422
 20
2.564807354
 11
12.8710654422
 21
2.4937023146
  0
ARC
  5
296
100
AcDbEntity
  8
0
100
AcDbCircle
 62
2
  6
CONTINUOUS
 10
12.8685904427
 20
2.4937023128
 40
0.0024749995
100
AcDbArc
 50
269.9999571957
 51
0.0000428043
  0
LINE
  5
297
100
AcDbEntity
  8
0
100
AcDbLine
 62
2
  6
CONTINUOUS
 10
12.8685904408
 20
2.4912273132
 11
12.7943853997
 21
2.4912273132
  0
ARC
  5
298
100
AcDbEntity
  8
0
100
AcDbCircle
 62
2
  6
CONTINUOUS
 10
12.7943847649
 20
2.4937027294
 40
0.0024754162
100
AcDbArc
 50
226.3593695813
 51
270.0146919953
  0
LINE
  5
299
100
AcDbEntity
  8
0
100
AcDbLine
 62
2
  6
CONTINUOUS
 10
12.7926763987
 20
2.4919113136
 11
12.7293963636
 21
2.5522893471
  0
ARC
  5
29A
100
AcDbEntity
  8
0
100
AcDbCircle
 62
2
  6
CONTINUOUS
 10
12.7276876627
 20
2.5504984093
 40
0.0024753014
100
AcDbArc
 50
46.3461263059
 51
180.0014637321
  0
LINE
  5
29B
100
AcDbEntity
  8
0
100
AcDbLine
 62
2
  6
CONTINUOUS
 10
12.7252123613
 20
2.5504983461
 11
12.7252123613
 21
2.5184523283
  0
ARC
  5
29C
100
AcDbEntity
  8
0
100
AcDbCircle
 62
2
  6
CONTINUOUS
 10
12.7276873608
 20
2.5184523265
 40
0.0024749995
100
AcDbArc
 50
179.9999571957
 51
270.0000428043
  0
LINE
  5
29D
100
AcDbEntity
  8
0
100
AcDbLine
 62
2
  6
CONTINUOUS
 10
12.7276873627
 20
2.515977327
 11
12.7480043739
 21
2.515977327
  0
ARC
  5
29E
100
AcDbEntity
  8
0
100
AcDbCircle
 62
2
  6
CONTINUOUS
 10
12.7480043758
 20
2.5135023274
 40
0.0024749995
100
AcDbArc
 50
359.9999571957
 51
90.0000428043
  0
LINE
  5
29F
100
AcDbEntity
  8
0
100
AcDbLine
 62
2
  6
CONTINUOUS
 10
12.7504793753
 20
2.5135023256
 11
12.7504793753
 21
2.4937023146
  0
ARC
  5
2A0
100
AcDbEntity
  8
0
100
AcDbCircle
 62
2
  6
CONTINUOUS
 10
12.7480043758
 20
2.4937023128
 40
0.0024749995
100
AcDbArc
 50
269.9999571957
 51
0.0000428043
  0
LINE
  5
2A1
100
AcDbEntity
  8
0
100
AcDbLine
 62
2
  6
CONTINUOUS
 10
12.7480043739
 20
2.4912273132
 11
12.672340332
 21
2.4912273132
  0
ARC
  5
2A2
100
AcDbEntity
  8
0
100
AcDbCircle
 62
2
  6
CONTINUOUS
 10
12.6723403301
 20
2.4937023128
 40
0.0024749995
100
AcDbArc
 50
179.9999571957
 51
270.0000428043
  0
LINE
  5
2A3
100
AcDbEntity
  8
0
100
AcDbLine
 62
2
  6
CONTINUOUS
 10
12.6698653306
 20
2.4937023146
 11
12.6698653306
 21
2.5135023256
  0
ARC
  5
2A4
100
AcDbEntity
  8
0
100
AcDbCircle
 62
2
  6
CONTINUOUS
 10
12.6723403301
 20
2.5135023274
 40
0.0024749995
100
AcDbArc
 50
89.9999571957
 51
180.0000428043
  0
LINE
  5
2A5
100
AcDbEntity
  8
0
100
AcDbLine
 62
2
  6
CONTINUOUS
 10
12.672340332
 20
2.515977327
 11
12.6909873423
 21
2.515977327
  0
ARC
  5
2A6
100
AcDbEntity
  8
0
100
AcDbCircle
 62
2
  6
CONTINUOUS
 10
12.6909873442
 20
2.5184523265
 40
0.0024749995
100
AcDbArc
 50
269.9999571957
 51
0.0000428043
  0
LINE
  5
2A7
100
AcDbEntity
  8
0
100
AcDbLine
 62
2
  6
CONTINUOUS
 10
12.6934623437
 20
2.5184523283
 11
12.6934623437
 21
2.564807354
  0
ARC
  5
2A8
100
AcDbEntity
  8
0
100
AcDbCircle
 62
2
  6
CONTINUOUS
 10
12.6909873442
 20
2.5648073559
 40
0.0024749995
100
AcDbArc
 50
359.9999571957
 51
90.0000428043
  0
LINE
  5
2A9
100
AcDbEntity
  8
0
100
AcDbLine
 62
2
  6
CONTINUOUS
 10
12.6909873423
 20
2.5672823554
 11
12.672340332
 21
2.5672823554
  0
ARC
  5
2AA
100
AcDbEntity
  8
0
100
AcDbCircle
 62
2
  6
CONTINUOUS
 10
12.6723403301
 20
2.5697573549
 40
0.0024749995
100
AcDbArc
 50
179.9999571957
 51
270.0000428043
  0
LINE
  5
2AB
100
AcDbEntity
  8
0
100
AcDbLine
 62
2
  6
CONTINUOUS
 10
12.6698653306
 20
2.5697573568
 11
12.6698653306
 21
2.5895573678
  0
ARC
  5
2AC
100
AcDbEntity
  8
0
100
AcDbCircle
 62
2
  6
CONTINUOUS
 10
12.6723403301
 20
2.5895573696
 40
0.0024749995
100
AcDbArc
 50
89.9999571957
 51
180.0000428043
  0
LINE
  5
2AD
100
AcDbEntity
  8
0
100
AcDbLine
 62
2
  6
CONTINUOUS
 10
12.5246402501
 20
2.5655893545
 11
12.5175232461
 21
2.5543723483
  0
ARC
  5
2AE
100
AcDbEntity
  8
0
100
AcDbCircle
 62
2
  6
CONTINUOUS
 10
12.519613138
 20
2.5530463862
 40
0.0024750401
100
AcDbArc
 50
147.6063258012
 51
270.0025305754
  0
LINE
  5
2AF
100
AcDbEntity
  8
0
100
AcDbLine
 62
2
  6
CONTINUOUS
 10
12.5196132473
 20
2.5505713461
 11
12.5401702587
 21
2.5505713461
  0
ARC
  5
2B0
100
AcDbEntity
  8
0
100
AcDbCircle
 62
2
  6
CONTINUOUS
 10
12.5401702375
 20
2.5530465533
 40
0.0024752071
100
AcDbArc
 50
270.0004896793
 51
32.9089806818
  0
LINE
  5
2B1
100
AcDbEntity
  8
0
100
AcDbLine
 62
2
  6
CONTINUOUS
 10
12.5422482598
 20
2.5543913483
 11
12.5349892558
 21
2.5656073545
  0
ARC
  5
2B2
100
AcDbEntity
  8
0
100
AcDbCircle
 62
2
  6
CONTINUOUS
 10
12.532910715
 20
2.564262895
 40
0.0024754602
100
AcDbArc
 50
32.8959418573
 51
89.9875097202
  0
LINE
  5
2B3
100
AcDbEntity
  8
0
100
AcDbLine
 62
2
  6
CONTINUOUS
 10
12.5329112547
 20
2.5667383551
 11
12.5267302512
 21
2.5667383551
  0
ARC
  5
2B4
100
AcDbEntity
  8
0
100
AcDbCircle
 62
2
  6
CONTINUOUS
 10
12.5267301809
 20
2.5642631548
 40
0.0024752003
100
AcDbArc
 50
89.998372645
 51
147.602165307
  0
LINE
  5
2B5
100
AcDbEntity
  8
0
100
AcDbLine
 62
2
  6
CONTINUOUS
 10
12.548053263
 20
2.5284903339
 11
12.5536792662
 21
2.5197973291
  0
ARC
  5
2B6
100
AcDbEntity
  8
0
100
AcDbCircle
 62
2
  6
CONTINUOUS
 10
12.5516012439
 20
2.5184525341
 40
0.0024752071
100
AcDbArc
 50
270.0004896794
 51
32.9089806818
  0
LINE
  5
2B7
100
AcDbEntity
  8
0
100
AcDbLine
 62
2
  6
CONTINUOUS
 10
12.551601265
 20
2.515977327
 11
12.537150257
 21
2.515977327
  0
ARC
  5
2B8
100
AcDbEntity
  8
0
100
AcDbCircle
 62
2
  6
CONTINUOUS
 10
12.5371502552
 20
2.5135023274
 40
0.0024749995
100
AcDbArc
 50
89.9999571957
 51
180.0000428043
  0
LINE
  5
2B9
100
AcDbEntity
  8
0
100
AcDbLine
 62
2
  6
CONTINUOUS
 10
12.5346752556
 20
2.5135023256
 11
12.5346752556
 21
2.4937023146
  0
ARC
  5
2BA
100
AcDbEntity
  8
0
100
AcDbCircle
 62
2
  6
CONTINUOUS
 10
12.5371502552
 20
2.4937023128
 40
0.0024749995
100
AcDbArc
 50
179.9999571957
 51
270.0000428043
  0
LINE
  5
2BB
100
AcDbEntity
  8
0
100
AcDbLine
 62
2
  6
CONTINUOUS
 10
12.537150257
 20
2.4912273132
 11
12.6424313154
 21
2.4912273132
  0
ARC
  5
2BC
100
AcDbEntity
  8
0
100
AcDbCircle
 62
2
  6
CONTINUOUS
 10
12.6424313172
 20
2.4937023128
 40
0.0024749995
100
AcDbArc
 50
269.9999571957
 51
0.0000428043
  0
LINE
  5
2BD
100
AcDbEntity
  8
0
100
AcDbLine
 62
2
  6
CONTINUOUS
 10
12.6449063168
 20
2.4937023146
 11
12.6449063168
 21
2.5135023256
  0
ARC
  5
2BE
100
AcDbEntity
  8
0
100
AcDbCircle
 62
2
  6
CONTINUOUS
 10
12.6424313172
 20
2.5135023274
 40
0.0024749995
100
AcDbArc
 50
359.9999571957
 51
90.0000428043
  0
LINE
  5
2BF
100
AcDbEntity
  8
0
100
AcDbLine
 62
2
  6
CONTINUOUS
 10
12.6424313154
 20
2.515977327
 11
12.6224153043
 21
2.515977327
  0
ARC
  5
2C0
100
AcDbEntity
  8
0
100
AcDbCircle
 62
2
  6
CONTINUOUS
 10
12.6224154248
 20
2.518451368
 40
0.002474041
100
AcDbArc
 50
212.9056413127
 51
269.9972091756
  0
LINE
  5
2C1
100
AcDbEntity
  8
0
100
AcDbLine
 62
2
  6
CONTINUOUS
 10
12.6203383031
 20
2.5171073276
 11
12.5725822767
 21
2.5909023685
  0
ARC
  5
2C2
100
AcDbEntity
  8
0
100
AcDbCircle
 62
2
  6
CONTINUOUS
 10
12.570504655
 20
2.589557409
 40
0.0024749602
100
AcDbArc
 50
32.9172174468
 51
90.0087853097
  0
LINE
  5
2C3
100
AcDbEntity
  8
0
100
AcDbLine
 62
2
  6
CONTINUOUS
 10
12.5705042755
 20
2.5920323691
 11
12.5133292438
 21
2.5920323691
  0
ARC
  5
2C4
100
AcDbEntity
  8
0
100
AcDbCircle
 62
2
  6
CONTINUOUS
 10
12.5133291735
 20
2.5895571688
 40
0.0024752003
100
AcDbArc
 50
89.9983726451
 51
147.602165307
  0
LINE
  5
2C5
100
AcDbEntity
  8
0
100
AcDbLine
 62
2
  6
CONTINUOUS
 10
12.5112392426
 20
2.5908833685
 11
12.4644392167
 21
2.5171263276
  0
ARC
  5
2C6
100
AcDbEntity
  8
0
100
AcDbCircle
 62
2
  6
CONTINUOUS
 10
12.4623492858
 20
2.5184525273
 40
0.0024752003
100
AcDbArc
 50
269.9983726451
 51
327.602165307
  0
LINE
  5
2C7
100
AcDbEntity
  8
0
100
AcDbLine
 62
2
  6
CONTINUOUS
 10
12.4623492155
 20
2.515977327
 11
12.4394882028
 21
2.515977327
  0
ARC
  5
2C8
100
AcDbEntity
  8
0
100
AcDbCircle
 62
2
  6
CONTINUOUS
 10
12.439488201
 20
2.5135023274
 40
0.0024749995
100
AcDbArc
 50
89.9999571957
 51
180.0000428043
  0
LINE
  5
2C9
100
AcDbEntity
  8
0
100
AcDbLine
 62
2
  6
CONTINUOUS
 10
12.4370132015
 20
2.5135023256
 11
12.4370132015
 21
2.4937023146
  0
ARC
  5
2CA
100
AcDbEntity
  8
0
100
AcDbCircle
 62
2
  6
CONTINUOUS
 10
12.439488201
 20
2.4937023128
 40
0.0024749995
100
AcDbArc
 50
179.9999571957
 51
270.0000428043
  0
LINE
  5
2CB
100
AcDbEntity
  8
0
100
AcDbLine
 62
2
  6
CONTINUOUS
 10
12.4394882028
 20
2.4912273132
 11
12.5168642458
 21
2.4912273132
  0
ARC
  5
2CC
100
AcDbEntity
  8
0
100
AcDbCircle
 62
2
  6
CONTINUOUS
 10
12.5168642476
 20
2.4937023128
 40
0.0024749995
100
AcDbArc
 50
269.9999571957
 51
0.0000428043
  0
LINE
  5
2CD
100
AcDbEntity
  8
0
100
AcDbLine
 62
2
  6
CONTINUOUS
 10
12.5193392471
 20
2.4937023146
 11
12.5193392471
 21
2.5135023256
  0
ARC
  5
2CE
100
AcDbEntity
  8
0
100
AcDbCircle
 62
2
  6
CONTINUOUS
 10
12.5168642476
 20
2.5135023274
 40
0.0024749995
100
AcDbArc
 50
359.9999571957
 51
90.0000428043
  0
LINE
  5
2CF
100
AcDbEntity
  8
0
100
AcDbLine
 62
2
  6
CONTINUOUS
 10
12.5168642458
 20
2.515977327
 11
12.5055812395
 21
2.515977327
  0
ARC
  5
2D0
100
AcDbEntity
  8
0
100
AcDbCircle
 62
2
  6
CONTINUOUS
 10
12.5055811302
 20
2.518452367
 40
0.0024750401
100
AcDbArc
 50
147.6063258011
 51
270.0025305754
  0
LINE
  5
2D1
100
AcDbEntity
  8
0
100
AcDbLine
 62
2
  6
CONTINUOUS
 10
12.5034912383
 20
2.5197783291
 11
12.5090072414
 21
2.5284723339
  0
ARC
  5
2D2
100
AcDbEntity
  8
0
100
AcDbCircle
 62
2
  6
CONTINUOUS
 10
12.5110971723
 20
2.5271461342
 40
0.0024752003
100
AcDbArc
 50
89.998372645
 51
147.602165307
  0
LINE
  5
2D3
100
AcDbEntity
  8
0
100
AcDbLine
 62
2
  6
CONTINUOUS
 10
12.5110972426
 20
2.5296213345
 11
12.5459752619
 21
2.5296213345
  0
ARC
  5
2D4
100
AcDbEntity
  8
0
100
AcDbCircle
 62
2
  6
CONTINUOUS
 10
12.5459747223
 20
2.5271458744
 40
0.0024754602
100
AcDbArc
 50
32.8959418573
 51
89.9875097202
  0
LINE
  5
2D5
100
AcDbEntity
  8
0
100
AcDbLine
 62
2
  6
CONTINUOUS
 10
12.9205934696
 20
2.5920323691
 11
13.0210515254
 21
2.5920323691
  0
ARC
  5
2D6
100
AcDbEntity
  8
0
100
AcDbCircle
 62
2
  6
CONTINUOUS
 10
13.0210516601
 20
2.5895582013
 40
0.0024741678
100
AcDbArc
 50
46.3477981899
 51
90.0031206038
  0
LINE
  5
2D7
100
AcDbEntity
  8
0
100
AcDbLine
 62
2
  6
CONTINUOUS
 10
13.0227595263
 20
2.5913483688
 11
13.0827925596
 21
2.534068337
  0
ARC
  5
2D8
100
AcDbEntity
  8
0
100
AcDbCircle
 62
2
  6
CONTINUOUS
 10
13.0845012605
 20
2.5358592748
 40
0.0024753014
100
AcDbArc
 50
226.3461263059
 51
0.0014637321
  0
LINE
  5
2D9
100
AcDbEntity
  8
0
100
AcDbLine
 62
2
  6
CONTINUOUS
 10
13.0869765619
 20
2.535859338
 11
13.0869765619
 21
2.564807354
  0
ARC
  5
2DA
100
AcDbEntity
  8
0
100
AcDbCircle
 62
2
  6
CONTINUOUS
 10
13.0845015624
 20
2.5648073559
 40
0.0024749995
100
AcDbArc
 50
359.9999571957
 51
90.0000428043
  0
LINE
  5
2DB
100
AcDbEntity
  8
0
100
AcDbLine
 62
2
  6
CONTINUOUS
 10
13.0845015605
 20
2.5672823554
 11
13.0657255501
 21
2.5672823554
  0
ARC
  5
2DC
100
AcDbEntity
  8
0
100
AcDbCircle
 62
2
  6
CONTINUOUS
 10
13.0657255483
 20
2.5697573549
 40
0.0024749995
100
AcDbArc
 50
179.9999571957
 51
270.0000428043
  0
LINE
  5
2DD
100
AcDbEntity
  8
0
100
AcDbLine
 62
2
  6
CONTINUOUS
 10
13.0632505488
 20
2.5697573568
 11
13.0632505488
 21
2.5895573678
  0
ARC
  5
2DE
100
AcDbEntity
  8
0
100
AcDbCircle
 62
2
  6
CONTINUOUS
 10
13.0657255483
 20
2.5895573696
 40
0.0024749995
100
AcDbArc
 50
89.9999571957
 51
180.0000428043
  0
LINE
  5
2DF
100
AcDbEntity
  8
0
100
AcDbLine
 62
2
  6
CONTINUOUS
 10
13.0657255501
 20
2.5920323691
 11
13.1397265912
 21
2.5920323691
  0
ARC
  5
2E0
100
AcDbEntity
  8
0
100
AcDbCircle
 62
2
  6
CONTINUOUS
 10
13.139726593
 20
2.5895573696
 40
0.0024749995
100
AcDbArc
 50
359.9999571957
 51
90.0000428043
  0
LINE
  5
2E1
100
AcDbEntity
  8
0
100
AcDbLine
 62
2
  6
CONTINUOUS
 10
13.1422015925
 20
2.5895573678
 11
13.1422015925
 21
2.5697573568
  0
ARC
  5
2E2
100
AcDbEntity
  8
0
100
AcDbCircle
 62
2
  6
CONTINUOUS
 10
13.139726593
 20
2.5697573549
 40
0.0024749995
100
AcDbArc
 50
269.9999571957
 51
0.0000428042
  0
LINE
  5
2E3
100
AcDbEntity
  8
0
100
AcDbLine
 62
2
  6
CONTINUOUS
 10
13.1397265912
 20
2.5672823554
 11
13.1217935812
 21
2.5672823554
  0
ARC
  5
2E4
100
AcDbEntity
  8
0
100
AcDbCircle
 62
2
  6
CONTINUOUS
 10
13.1217935794
 20
2.5648073559
 40
0.0024749995
100
AcDbArc
 50
89.9999571957
 51
180.0000428042
  0
LINE
  5
2E5
100
AcDbEntity
  8
0
100
AcDbLine
 62
2
  6
CONTINUOUS
 10
13.1193185799
 20
2.564807354
 11
13.1193185799
 21
2.4937023146
  0
ARC
  5
2E6
100
AcDbEntity
  8
0
100
AcDbCircle
 62
2
  6
CONTINUOUS
 10
13.1168435803
 20
2.4937023128
 40
0.0024749995
100
AcDbArc
 50
269.9999571957
 51
0.0000428043
  0
LINE
  5
2E7
100
AcDbEntity
  8
0
100
AcDbLine
 62
2
  6
CONTINUOUS
 10
13.1168435785
 20
2.4912273132
 11
13.0426375373
 21
2.4912273132
  0
ARC
  5
2E8
100
AcDbEntity
  8
0
100
AcDbCircle
 62
2
  6
CONTINUOUS
 10
13.0426374026
 20
2.493701481
 40
0.0024741678
100
AcDbArc
 50
226.3477981898
 51
270.0031206038
  0
LINE
  5
2E9
100
AcDbEntity
  8
0
100
AcDbLine
 62
2
  6
CONTINUOUS
 10
13.0409295364
 20
2.4919113136
 11
12.9776495013
 21
2.5522893471
  0
ARC
  5
2EA
100
AcDbEntity
  8
0
100
AcDbCircle
 62
2
  6
CONTINUOUS
 10
12.9759408003
 20
2.5504984093
 40
0.0024753014
100
AcDbArc
 50
46.3461263059
 51
180.0014637321
  0
LINE
  5
2EB
100
AcDbEntity
  8
0
100
AcDbLine
 62
2
  6
CONTINUOUS
 10
12.973465499
 20
2.5504983461
 11
12.973465499
 21
2.5184523283
  0
ARC
  5
2EC
100
AcDbEntity
  8
0
100
AcDbCircle
 62
2
  6
CONTINUOUS
 10
12.9759404985
 20
2.5184523265
 40
0.0024749995
100
AcDbArc
 50
179.9999571957
 51
270.0000428043
  0
LINE
  5
2ED
100
AcDbEntity
  8
0
100
AcDbLine
 62
2
  6
CONTINUOUS
 10
12.9759405003
 20
2.515977327
 11
12.9962575116
 21
2.515977327
  0
ARC
  5
2EE
100
AcDbEntity
  8
0
100
AcDbCircle
 62
2
  6
CONTINUOUS
 10
12.9962575135
 20
2.5135023274
 40
0.0024749995
100
AcDbArc
 50
359.9999571957
 51
90.0000428043
  0
LINE
  5
2EF
100
AcDbEntity
  8
0
100
AcDbLine
 62
2
  6
CONTINUOUS
 10
12.998732513
 20
2.5135023256
 11
12.998732513
 21
2.4937023146
  0
ARC
  5
2F0
100
AcDbEntity
  8
0
100
AcDbCircle
 62
2
  6
CONTINUOUS
 10
12.9962575135
 20
2.4937023128
 40
0.0024749995
100
AcDbArc
 50
269.9999571957
 51
0.0000428043
  0
LINE
  5
2F1
100
AcDbEntity
  8
0
100
AcDbLine
 62
2
  6
CONTINUOUS
 10
12.9962575116
 20
2.4912273132
 11
12.9205934696
 21
2.4912273132
  0
ARC
  5
2F2
100
AcDbEntity
  8
0
100
AcDbCircle
 62
2
  6
CONTINUOUS
 10
12.9205934678
 20
2.4937023128
 40
0.0024749995
100
AcDbArc
 50
179.9999571957
 51
270.0000428043
  0
LINE
  5
2F3
100
AcDbEntity
  8
0
100
AcDbLine
 62
2
  6
CONTINUOUS
 10
12.9181184683
 20
2.4937023146
 11
12.9181184683
 21
2.5135023256
  0
ARC
  5
2F4
100
AcDbEntity
  8
0
100
AcDbCircle
 62
2
  6
CONTINUOUS
 10
12.9205934678
 20
2.5135023274
 40
0.0024749995
100
AcDbArc
 50
89.9999571957
 51
180.0000428042
  0
LINE
  5
2F5
100
AcDbEntity
  8
0
100
AcDbLine
 62
2
  6
CONTINUOUS
 10
12.9205934696
 20
2.515977327
 11
12.93923948
 21
2.515977327
  0
ARC
  5
2F6
100
AcDbEntity
  8
0
100
AcDbCircle
 62
2
  6
CONTINUOUS
 10
12.9392394818
 20
2.5184523265
 40
0.0024749995
100
AcDbArc
 50
269.9999571957
 51
0.0000428043
  0
LINE
  5
2F7
100
AcDbEntity
  8
0
100
AcDbLine
 62
2
  6
CONTINUOUS
 10
12.9417144814
 20
2.5184523283
 11
12.9417144814
 21
2.564807354
  0
ARC
  5
2F8
100
AcDbEntity
  8
0
100
AcDbCircle
 62
2
  6
CONTINUOUS
 10
12.9392394818
 20
2.5648073559
 40
0.0024749995
100
AcDbArc
 50
359.9999571957
 51
90.0000428043
  0
LINE
  5
2F9
100
AcDbEntity
  8
0
100
AcDbLine
 62
2
  6
CONTINUOUS
 10
12.93923948
 20
2.5672823554
 11
12.9205934696
 21
2.5672823554
  0
ARC
  5
2FA
100
AcDbEntity
  8
0
100
AcDbCircle
 62
2
  6
CONTINUOUS
 10
12.9205934678
 20
2.5697573549
 40
0.0024749995
100
AcDbArc
 50
179.9999571957
 51
270.0000428043
  0
LINE
  5
2FB
100
AcDbEntity
  8
0
100
AcDbLine
 62
2
  6
CONTINUOUS
 10
12.9181184683
 20
2.5697573568
 11
12.9181184683
 21
2.5895573678
  0
ARC
  5
2FC
100
AcDbEntity
  8
0
100
AcDbCircle
 62
2
  6
CONTINUOUS
 10
12.9205934678
 20
2.5895573696
 40
0.0024749995
100
AcDbArc
 50
89.9999571957
 51
180.0000428042
  0
LINE
  5
2FD
100
AcDbEntity
  8
0
100
AcDbLine
 62
2
  6
CONTINUOUS
 10
13.2934226764
 20
2.5324773361
 11
13.2582556569
 21
2.5324773361
  0
ARC
  5
2FE
100
AcDbEntity
  8
0
100
AcDbCircle
 62
2
  6
CONTINUOUS
 10
13.2582556551
 20
2.5300023366
 40
0.0024749995
100
AcDbArc
 50
89.9999571957
 51
180.0000428043
  0
LINE
  5
2FF
100
AcDbEntity
  8
0
100
AcDbLine
 62
2
  6
CONTINUOUS
 10
13.2557806555
 20
2.5300023347
 11
13.2557806555
 21
2.5184523283
  0
ARC
  5
300
100
AcDbEntity
  8
0
100
AcDbCircle
 62
2
  6
CONTINUOUS
 10
13.2582556551
 20
2.5184523265
 40
0.0024749995
100
AcDbArc
 50
179.9999571957
 51
270.0000428043
  0
LINE
  5
301
100
AcDbEntity
  8
0
100
AcDbLine
 62
2
  6
CONTINUOUS
 10
13.2582556569
 20
2.515977327
 11
13.3232596929
 21
2.515977327
  0
ARC
  5
302
100
AcDbEntity
  8
0
100
AcDbCircle
 62
2
  6
CONTINUOUS
 10
13.3232596948
 20
2.5184523265
 40
0.0024749995
100
AcDbArc
 50
269.9999571957
 51
0.0000428043
  0
LINE
  5
303
100
AcDbEntity
  8
0
100
AcDbLine
 62
2
  6
CONTINUOUS
 10
13.3257346943
 20
2.5184523283
 11
13.3257346943
 21
2.5267023329
  0
ARC
  5
304
100
AcDbEntity
  8
0
100
AcDbCircle
 62
2
  6
CONTINUOUS
 10
13.3282096938
 20
2.5267023348
 40
0.0024749995
100
AcDbArc
 50
89.9999571957
 51
180.0000428043
  0
LINE
  5
305
100
AcDbEntity
  8
0
100
AcDbLine
 62
2
  6
CONTINUOUS
 10
13.3282096957
 20
2.5291773343
 11
13.3705287192
 21
2.5291773343
  0
ARC
  5
306
100
AcDbEntity
  8
0
100
AcDbCircle
 62
2
  6
CONTINUOUS
 10
13.370528721
 20
2.5267023348
 40
0.0024749995
100
AcDbArc
 50
359.9999571957
 51
90.0000428043
  0
LINE
  5
307
100
AcDbEntity
  8
0
100
AcDbLine
 62
2
  6
CONTINUOUS
 10
13.3730037205
 20
2.5267023329
 11
13.3730037205
 21
2.4937023146
  0
ARC
  5
308
100
AcDbEntity
  8
0
100
AcDbCircle
 62
2
  6
CONTINUOUS
 10
13.370528721
 20
2.4937023128
 40
0.0024749995
100
AcDbArc
 50
269.9999571957
 51
0.0000428043
  0
LINE
  5
309
100
AcDbEntity
  8
0
100
AcDbLine
 62
2
  6
CONTINUOUS
 10
13.3705287192
 20
2.4912273132
 11
13.1673166065
 21
2.4912273132
  0
ARC
  5
30A
100
AcDbEntity
  8
0
100
AcDbCircle
 62
2
  6
CONTINUOUS
 10
13.1673166046
 20
2.4937023128
 40
0.0024749995
100
AcDbArc
 50
179.9999571957
 51
270.0000428043
  0
LINE
  5
30B
100
AcDbEntity
  8
0
100
AcDbLine
 62
2
  6
CONTINUOUS
 10
13.1648416051
 20
2.4937023146
 11
13.1648416051
 21
2.5135023256
  0
ARC
  5
30C
100
AcDbEntity
  8
0
100
AcDbCircle
 62
2
  6
CONTINUOUS
 10
13.1673166046
 20
2.5135023274
 40
0.0024749995
100
AcDbArc
 50
89.9999571957
 51
180.0000428043
  0
LINE
  5
30D
100
AcDbEntity
  8
0
100
AcDbLine
 62
2
  6
CONTINUOUS
 10
13.1673166065
 20
2.515977327
 11
13.1912396197
 21
2.515977327
  0
ARC
  5
30E
100
AcDbEntity
  8
0
100
AcDbCircle
 62
2
  6
CONTINUOUS
 10
13.1912396216
 20
2.5184523265
 40
0.0024749995
100
AcDbArc
 50
269.9999571957
 51
0.0000428042
  0
LINE
  5
30F
100
AcDbEntity
  8
0
100
AcDbLine
 62
2
  6
CONTINUOUS
 10
13.1937146211
 20
2.5184523283
 11
13.1937146211
 21
2.564807354
  0
ARC
  5
310
100
AcDbEntity
  8
0
100
AcDbCircle
 62
2
  6
CONTINUOUS
 10
13.1912396216
 20
2.5648073559
 40
0.0024749995
100
AcDbArc
 50
359.9999571957
 51
90.0000428043
  0
LINE
  5
311
100
AcDbEntity
  8
0
100
AcDbLine
 62
2
  6
CONTINUOUS
 10
13.1912396197
 20
2.5672823554
 11
13.1673166065
 21
2.5672823554
  0
ARC
  5
312
100
AcDbEntity
  8
0
100
AcDbCircle
 62
2
  6
CONTINUOUS
 10
13.1673166046
 20
2.5697573549
 40
0.0024749995
100
AcDbArc
 50
179.9999571957
 51
270.0000428043
  0
LINE
  5
313
100
AcDbEntity
  8
0
100
AcDbLine
 62
2
  6
CONTINUOUS
 10
13.1648416051
 20
2.5697573568
 11
13.1648416051
 21
2.5895573678
  0
ARC
  5
314
100
AcDbEntity
  8
0
100
AcDbCircle
 62
2
  6
CONTINUOUS
 10
13.1673166046
 20
2.5895573696
 40
0.0024749995
100
AcDbArc
 50
89.9999571957
 51
180.0000428043
  0
LINE
  5
315
100
AcDbEntity
  8
0
100
AcDbLine
 62
2
  6
CONTINUOUS
 10
13.1673166065
 20
2.5920323691
 11
13.3691097184
 21
2.5920323691
  0
ARC
  5
316
100
AcDbEntity
  8
0
100
AcDbCircle
 62
2
  6
CONTINUOUS
 10
13.3691097202
 20
2.5895573696
 40
0.0024749995
100
AcDbArc
 50
359.9999571957
 51
90.0000428043
  0
LINE
  5
317
100
AcDbEntity
  8
0
100
AcDbLine
 62
2
  6
CONTINUOUS
 10
13.3715847197
 20
2.5895573678
 11
13.3715847197
 21
2.5565573495
  0
ARC
  5
318
100
AcDbEntity
  8
0
100
AcDbCircle
 62
2
  6
CONTINUOUS
 10
13.3691097202
 20
2.5565573476
 40
0.0024749995
100
AcDbArc
 50
269.9999571957
 51
0.0000428042
  0
LINE
  5
319
100
AcDbEntity
  8
0
100
AcDbLine
 62
2
  6
CONTINUOUS
 10
13.3691097184
 20
2.5540823481
 11
13.3272456952
 21
2.5540823481
  0
ARC
  5
31A
100
AcDbEntity
  8
0
100
AcDbCircle
 62
2
  6
CONTINUOUS
 10
13.3272456933
 20
2.5565573476
 40
0.0024749995
100
AcDbArc
 50
179.9999571957
 51
270.0000428043
  0
LINE
  5
31B
100
AcDbEntity
  8
0
100
AcDbLine
 62
2
  6
CONTINUOUS
 10
13.3247706938
 20
2.5565573495
 11
13.3247706938
 21
2.564807354
  0
ARC
  5
31C
100
AcDbEntity
  8
0
100
AcDbCircle
 62
2
  6
CONTINUOUS
 10
13.3222956943
 20
2.5648073559
 40
0.0024749995
100
AcDbArc
 50
359.9999571957
 51
90.0000428043
  0
LINE
  5
31D
100
AcDbEntity
  8
0
100
AcDbLine
 62
2
  6
CONTINUOUS
 10
13.3222956924
 20
2.5672823554
 11
13.2582556569
 21
2.5672823554
  0
ARC
  5
31E
100
AcDbEntity
  8
0
100
AcDbCircle
 62
2
  6
CONTINUOUS
 10
13.2582556551
 20
2.5648073559
 40
0.0024749995
100
AcDbArc
 50
89.9999571957
 51
180.0000428043
  0
LINE
  5
31F
100
AcDbEntity
  8
0
100
AcDbLine
 62
2
  6
CONTINUOUS
 10
13.2557806555
 20
2.564807354
 11
13.2557806555
 21
2.5532573476
  0
ARC
  5
320
100
AcDbEntity
  8
0
100
AcDbCircle
 62
2
  6
CONTINUOUS
 10
13.2582556551
 20
2.5532573458
 40
0.0024749995
100
AcDbArc
 50
179.9999571957
 51
270.0000428043
  0
LINE
  5
321
100
AcDbEntity
  8
0
100
AcDbLine
 62
2
  6
CONTINUOUS
 10
13.2582556569
 20
2.5507823463
 11
13.2934226764
 21
2.5507823463
  0
ARC
  5
322
100
AcDbEntity
  8
0
100
AcDbCircle
 62
2
  6
CONTINUOUS
 10
13.2934226783
 20
2.5483073467
 40
0.0024749995
100
AcDbArc
 50
359.9999571957
 51
90.0000428043
  0
LINE
  5
323
100
AcDbEntity
  8
0
100
AcDbLine
 62
2
  6
CONTINUOUS
 10
13.2958976778
 20
2.5483073449
 11
13.2958976778
 21
2.5349523375
  0
ARC
  5
324
100
AcDbEntity
  8
0
100
AcDbCircle
 62
2
  6
CONTINUOUS
 10
13.2934226783
 20
2.5349523356
 40
0.0024749995
100
AcDbArc
 50
269.9999571957
 51
0.0000428042
  0
LINE
  5
325
100
AcDbEntity
  8
0
100
AcDbLine
 62
2
  6
CONTINUOUS
 10
13.7286871589
 20
2.5350697372
 11
13.7286871589
 21
2.5456869438
  0
LINE
  5
326
100
AcDbEntity
  8
0
100
AcDbLine
 62
2
  6
CONTINUOUS
 10
13.7086871478
 20
2.5004302075
 11
13.7086871478
 21
2.5803264735
  0
LINE
  5
327
100
AcDbEntity
  8
0
100
AcDbLine
 62
2
  6
CONTINUOUS
 10
13.6886871368
 20
2.4843919416
 11
13.6886871368
 21
2.5963647394
  0
LINE
  5
328
100
AcDbEntity
  8
0
100
AcDbLine
 62
2
  6
CONTINUOUS
 10
13.6686871257
 20
2.4726017898
 11
13.6686871257
 21
2.6081548911
  0
LINE
  5
329
100
AcDbEntity
  8
0
100
AcDbLine
 62
2
  6
CONTINUOUS
 10
13.6486871146
 20
2.4628062688
 11
13.6486871146
 21
2.6179504122
  0
LINE
  5
32A
100
AcDbEntity
  8
0
100
AcDbLine
 62
2
  6
CONTINUOUS
 10
13.6286871035
 20
2.4541253507
 11
13.6286871035
 21
2.5062483056
  0
LINE
  5
32B
100
AcDbEntity
  8
0
100
AcDbLine
 62
2
  6
CONTINUOUS
 10
13.6286871035
 20
2.5301143348
 11
13.6286871035
 21
2.6266313303
  0
LINE
  5
32C
100
AcDbEntity
  8
0
100
AcDbLine
 62
2
  6
CONTINUOUS
 10
13.6086870924
 20
2.4465537903
 11
13.6086870924
 21
2.4918774918
  0
LINE
  5
32D
100
AcDbEntity
  8
0
100
AcDbLine
 62
2
  6
CONTINUOUS
 10
13.6086870924
 20
2.5165781173
 11
13.6086870924
 21
2.6342028907
  0
LINE
  5
32E
100
AcDbEntity
  8
0
100
AcDbLine
 62
2
  6
CONTINUOUS
 10
13.5886870813
 20
2.4398033466
 11
13.5886870813
 21
2.4912273132
  0
LINE
  5
32F
100
AcDbEntity
  8
0
100
AcDbLine
 62
2
  6
CONTINUOUS
 10
13.5886870813
 20
2.5391840845
 11
13.5886870813
 21
2.5454298327
  0
LINE
  5
330
100
AcDbEntity
  8
0
100
AcDbLine
 62
2
  6
CONTINUOUS
 10
13.5886870813
 20
2.5862063472
 11
13.5886870813
 21
2.6409533343
  0
LINE
  5
331
100
AcDbEntity
  8
0
100
AcDbLine
 62
2
  6
CONTINUOUS
 10
13.5686870702
 20
2.4334702189
 11
13.5686870702
 21
2.4912273132
  0
LINE
  5
332
100
AcDbEntity
  8
0
100
AcDbLine
 62
2
  6
CONTINUOUS
 10
13.5686870702
 20
2.5906587765
 11
13.5686870702
 21
2.647286462
  0
LINE
  5
333
100
AcDbEntity
  8
0
100
AcDbLine
 62
2
  6
CONTINUOUS
 10
13.5486870591
 20
2.4278968124
 11
13.5486870591
 21
2.4937461006
  0
LINE
  5
334
100
AcDbEntity
  8
0
100
AcDbLine
 62
2
  6
CONTINUOUS
 10
13.5486870591
 20
2.5920323691
 11
13.5486870591
 21
2.6528598686
  0
LINE
  5
335
100
AcDbEntity
  8
0
100
AcDbLine
 62
2
  6
CONTINUOUS
 10
13.528687048
 20
2.4225427674
 11
13.528687048
 21
2.5270426993
  0
LINE
  5
336
100
AcDbEntity
  8
0
100
AcDbLine
 62
2
  6
CONTINUOUS
 10
13.528687048
 20
2.5505166259
 11
13.528687048
 21
2.5668657091
  0
LINE
  5
337
100
AcDbEntity
  8
0
100
AcDbLine
 62
2
  6
CONTINUOUS
 10
13.528687048
 20
2.5920323691
 11
13.528687048
 21
2.6582139136
  0
LINE
  5
338
100
AcDbEntity
  8
0
100
AcDbLine
 62
2
  6
CONTINUOUS
 10
13.5086870369
 20
2.4177306791
 11
13.5086870369
 21
2.4912273132
  0
LINE
  5
339
100
AcDbEntity
  8
0
100
AcDbLine
 62
2
  6
CONTINUOUS
 10
13.5086870369
 20
2.5159553269
 11
13.5086870369
 21
2.5306043351
  0
LINE
  5
33A
100
AcDbEntity
  8
0
100
AcDbLine
 62
2
  6
CONTINUOUS
 10
13.5086870369
 20
2.5496073456
 11
13.5086870369
 21
2.5672823554
  0
LINE
  5
33B
100
AcDbEntity
  8
0
100
AcDbLine
 62
2
  6
CONTINUOUS
 10
13.5086870369
 20
2.5920323691
 11
13.5086870369
 21
2.6630260019
  0
LINE
  5
33C
100
AcDbEntity
  8
0
100
AcDbLine
 62
2
  6
CONTINUOUS
 10
13.4886870258
 20
2.4131795254
 11
13.4886870258
 21
2.4912273132
  0
LINE
  5
33D
100
AcDbEntity
  8
0
100
AcDbLine
 62
2
  6
CONTINUOUS
 10
13.4886870258
 20
2.5159553269
 11
13.4886870258
 21
2.5306043351
  0
LINE
  5
33E
100
AcDbEntity
  8
0
100
AcDbLine
 62
2
  6
CONTINUOUS
 10
13.4886870258
 20
2.5496073456
 11
13.4886870258
 21
2.5672823554
  0
LINE
  5
33F
100
AcDbEntity
  8
0
100
AcDbLine
 62
2
  6
CONTINUOUS
 10
13.4886870258
 20
2.5920323691
 11
13.4886870258
 21
2.6675771555
  0
LINE
  5
340
100
AcDbEntity
  8
0
100
AcDbLine
 62
2
  6
CONTINUOUS
 10
13.4686870147
 20
2.4088819672
 11
13.4686870147
 21
2.4912273132
  0
LINE
  5
341
100
AcDbEntity
  8
0
100
AcDbLine
 62
2
  6
CONTINUOUS
 10
13.4686870147
 20
2.5920323691
 11
13.4686870147
 21
2.6718747138
  0
LINE
  5
342
100
AcDbEntity
  8
0
100
AcDbLine
 62
2
  6
CONTINUOUS
 10
13.4486870037
 20
2.4050092072
 11
13.4486870037
 21
2.4912273132
  0
LINE
  5
343
100
AcDbEntity
  8
0
100
AcDbLine
 62
2
  6
CONTINUOUS
 10
13.4486870037
 20
2.5920323691
 11
13.4486870037
 21
2.6757474738
  0
LINE
  5
344
100
AcDbEntity
  8
0
100
AcDbLine
 62
2
  6
CONTINUOUS
 10
13.4286869926
 20
2.4011364471
 11
13.4286869926
 21
2.4912273132
  0
LINE
  5
345
100
AcDbEntity
  8
0
100
AcDbLine
 62
2
  6
CONTINUOUS
 10
13.4286869926
 20
2.5920323691
 11
13.4286869926
 21
2.6796202339
  0
LINE
  5
346
100
AcDbEntity
  8
0
100
AcDbLine
 62
2
  6
CONTINUOUS
 10
13.4086869815
 20
2.3980226662
 11
13.4086869815
 21
2.4912273132
  0
LINE
  5
347
100
AcDbEntity
  8
0
100
AcDbLine
 62
2
  6
CONTINUOUS
 10
13.4086869815
 20
2.515977327
 11
13.4086869815
 21
2.5672823554
  0
LINE
  5
348
100
AcDbEntity
  8
0
100
AcDbLine
 62
2
  6
CONTINUOUS
 10
13.4086869815
 20
2.5920323691
 11
13.4086869815
 21
2.6827340148
  0
LINE
  5
349
100
AcDbEntity
  8
0
100
AcDbLine
 62
2
  6
CONTINUOUS
 10
13.3886869704
 20
2.3950052774
 11
13.3886869704
 21
2.6857514036
  0
LINE
  5
34A
100
AcDbEntity
  8
0
100
AcDbLine
 62
2
  6
CONTINUOUS
 10
13.3686869593
 20
2.3919878885
 11
13.3686869593
 21
2.4912273132
  0
LINE
  5
34B
100
AcDbEntity
  8
0
100
AcDbLine
 62
2
  6
CONTINUOUS
 10
13.3686869593
 20
2.5291773343
 11
13.3686869593
 21
2.5540823481
  0
LINE
  5
34C
100
AcDbEntity
  8
0
100
AcDbLine
 62
2
  6
CONTINUOUS
 10
13.3686869593
 20
2.5920323691
 11
13.3686869593
 21
2.6887687924
  0
LINE
  5
34D
100
AcDbEntity
  8
0
100
AcDbLine
 62
2
  6
CONTINUOUS
 10
13.3486869482
 20
2.3889704997
 11
13.3486869482
 21
2.4912273132
  0
LINE
  5
34E
100
AcDbEntity
  8
0
100
AcDbLine
 62
2
  6
CONTINUOUS
 10
13.3486869482
 20
2.5291773343
 11
13.3486869482
 21
2.5540823481
  0
LINE
  5
34F
100
AcDbEntity
  8
0
100
AcDbLine
 62
2
  6
CONTINUOUS
 10
13.3486869482
 20
2.5920323691
 11
13.3486869482
 21
2.6917861813
  0
LINE
  5
350
100
AcDbEntity
  8
0
100
AcDbLine
 62
2
  6
CONTINUOUS
 10
13.3286869371
 20
2.3859531109
 11
13.3286869371
 21
2.4912273132
  0
LINE
  5
351
100
AcDbEntity
  8
0
100
AcDbLine
 62
2
  6
CONTINUOUS
 10
13.3286869371
 20
2.5291773343
 11
13.3286869371
 21
2.5540823481
  0
LINE
  5
352
100
AcDbEntity
  8
0
100
AcDbLine
 62
2
  6
CONTINUOUS
 10
13.3286869371
 20
2.5920323691
 11
13.3286869371
 21
2.6948035701
  0
LINE
  5
353
100
AcDbEntity
  8
0
100
AcDbLine
 62
2
  6
CONTINUOUS
 10
13.308686926
 20
2.3833355437
 11
13.308686926
 21
2.4912273132
  0
LINE
  5
354
100
AcDbEntity
  8
0
100
AcDbLine
 62
2
  6
CONTINUOUS
 10
13.308686926
 20
2.515977327
 11
13.308686926
 21
2.5672823554
  0
LINE
  5
355
100
AcDbEntity
  8
0
100
AcDbLine
 62
2
  6
CONTINUOUS
 10
13.308686926
 20
2.5920323691
 11
13.308686926
 21
2.6974211373
  0
LINE
  5
356
100
AcDbEntity
  8
0
100
AcDbLine
 62
2
  6
CONTINUOUS
 10
13.2886869149
 20
2.3812612684
 11
13.2886869149
 21
2.4912273132
  0
LINE
  5
357
100
AcDbEntity
  8
0
100
AcDbLine
 62
2
  6
CONTINUOUS
 10
13.2886869149
 20
2.515977327
 11
13.2886869149
 21
2.5324773361
  0
LINE
  5
358
100
AcDbEntity
  8
0
100
AcDbLine
 62
2
  6
CONTINUOUS
 10
13.2886869149
 20
2.5507823463
 11
13.2886869149
 21
2.5672823554
  0
LINE
  5
359
100
AcDbEntity
  8
0
100
AcDbLine
 62
2
  6
CONTINUOUS
 10
13.2886869149
 20
2.5920323691
 11
13.2886869149
 21
2.6994954125
  0
LINE
  5
35A
100
AcDbEntity
  8
0
100
AcDbLine
 62
2
  6
CONTINUOUS
 10
13.2686869038
 20
2.3791869932
 11
13.2686869038
 21
2.4912273132
  0
LINE
  5
35B
100
AcDbEntity
  8
0
100
AcDbLine
 62
2
  6
CONTINUOUS
 10
13.2686869038
 20
2.515977327
 11
13.2686869038
 21
2.5324773361
  0
LINE
  5
35C
100
AcDbEntity
  8
0
100
AcDbLine
 62
2
  6
CONTINUOUS
 10
13.2686869038
 20
2.5507823463
 11
13.2686869038
 21
2.5672823554
  0
LINE
  5
35D
100
AcDbEntity
  8
0
100
AcDbLine
 62
2
  6
CONTINUOUS
 10
13.2686869038
 20
2.5920323691
 11
13.2686869038
 21
2.7015696878
  0
LINE
  5
35E
100
AcDbEntity
  8
0
100
AcDbLine
 62
2
  6
CONTINUOUS
 10
13.2486868927
 20
2.377112718
 11
13.2486868927
 21
2.4912273132
  0
LINE
  5
35F
100
AcDbEntity
  8
0
100
AcDbLine
 62
2
  6
CONTINUOUS
 10
13.2486868927
 20
2.5920323691
 11
13.2486868927
 21
2.703643963
  0
LINE
  5
360
100
AcDbEntity
  8
0
100
AcDbLine
 62
2
  6
CONTINUOUS
 10
13.2286868817
 20
2.3750384428
 11
13.2286868817
 21
2.4912273132
  0
LINE
  5
361
100
AcDbEntity
  8
0
100
AcDbLine
 62
2
  6
CONTINUOUS
 10
13.2286868817
 20
2.5920323691
 11
13.2286868817
 21
2.7057182382
  0
LINE
  5
362
100
AcDbEntity
  8
0
100
AcDbLine
 62
2
  6
CONTINUOUS
 10
13.2086868706
 20
2.3729641676
 11
13.2086868706
 21
2.4912273132
  0
LINE
  5
363
100
AcDbEntity
  8
0
100
AcDbLine
 62
2
  6
CONTINUOUS
 10
13.2086868706
 20
2.5920323691
 11
13.2086868706
 21
2.7077925134
  0
LINE
  5
364
100
AcDbEntity
  8
0
100
AcDbLine
 62
2
  6
CONTINUOUS
 10
13.1886868595
 20
2.3712344456
 11
13.1886868595
 21
2.4912273132
  0
LINE
  5
365
100
AcDbEntity
  8
0
100
AcDbLine
 62
2
  6
CONTINUOUS
 10
13.1886868595
 20
2.515977327
 11
13.1886868595
 21
2.5672823554
  0
LINE
  5
366
100
AcDbEntity
  8
0
100
AcDbLine
 62
2
  6
CONTINUOUS
 10
13.1886868595
 20
2.5920323691
 11
13.1886868595
 21
2.7095222354
  0
LINE
  5
367
100
AcDbEntity
  8
0
100
AcDbLine
 62
2
  6
CONTINUOUS
 10
13.1686868484
 20
2.3699682418
 11
13.1686868484
 21
2.4912273132
  0
LINE
  5
368
100
AcDbEntity
  8
0
100
AcDbLine
 62
2
  6
CONTINUOUS
 10
13.1686868484
 20
2.515977327
 11
13.1686868484
 21
2.5672823554
  0
LINE
  5
369
100
AcDbEntity
  8
0
100
AcDbLine
 62
2
  6
CONTINUOUS
 10
13.1686868484
 20
2.5920323691
 11
13.1686868484
 21
2.7107884392
  0
LINE
  5
36A
100
AcDbEntity
  8
0
100
AcDbLine
 62
2
  6
CONTINUOUS
 10
13.1486868373
 20
2.3687020381
 11
13.1486868373
 21
2.7120546429
  0
LINE
  5
36B
100
AcDbEntity
  8
0
100
AcDbLine
 62
2
  6
CONTINUOUS
 10
13.1286868262
 20
2.3674358343
 11
13.1286868262
 21
2.5672823554
  0
LINE
  5
36C
100
AcDbEntity
  8
0
100
AcDbLine
 62
2
  6
CONTINUOUS
 10
13.1286868262
 20
2.5920323691
 11
13.1286868262
 21
2.7133208466
  0
LINE
  5
36D
100
AcDbEntity
  8
0
100
AcDbLine
 62
2
  6
CONTINUOUS
 10
13.1086868151
 20
2.3661696306
 11
13.1086868151
 21
2.4912273132
  0
LINE
  5
36E
100
AcDbEntity
  8
0
100
AcDbLine
 62
2
  6
CONTINUOUS
 10
13.1086868151
 20
2.5920323691
 11
13.1086868151
 21
2.7145870504
  0
LINE
  5
36F
100
AcDbEntity
  8
0
100
AcDbLine
 62
2
  6
CONTINUOUS
 10
13.088686804
 20
2.3649034269
 11
13.088686804
 21
2.4912273132
  0
LINE
  5
370
100
AcDbEntity
  8
0
100
AcDbLine
 62
2
  6
CONTINUOUS
 10
13.088686804
 20
2.5920323691
 11
13.088686804
 21
2.7158532541
  0
LINE
  5
371
100
AcDbEntity
  8
0
100
AcDbLine
 62
2
  6
CONTINUOUS
 10
13.0686867929
 20
2.3636739922
 11
13.0686867929
 21
2.4912273132
  0
LINE
  5
372
100
AcDbEntity
  8
0
100
AcDbLine
 62
2
  6
CONTINUOUS
 10
13.0686867929
 20
2.5475272398
 11
13.0686867929
 21
2.5672823554
  0
LINE
  5
373
100
AcDbEntity
  8
0
100
AcDbLine
 62
2
  6
CONTINUOUS
 10
13.0686867929
 20
2.5920323691
 11
13.0686867929
 21
2.7170826887
  0
LINE
  5
374
100
AcDbEntity
  8
0
100
AcDbLine
 62
2
  6
CONTINUOUS
 10
13.0486867818
 20
2.363143203
 11
13.0486867818
 21
2.4912273132
  0
LINE
  5
375
100
AcDbEntity
  8
0
100
AcDbLine
 62
2
  6
CONTINUOUS
 10
13.0486867818
 20
2.5666100882
 11
13.0486867818
 21
2.717613478
  0
LINE
  5
376
100
AcDbEntity
  8
0
100
AcDbLine
 62
2
  6
CONTINUOUS
 10
13.0286867707
 20
2.3626124138
 11
13.0286867707
 21
2.50359263
  0
LINE
  5
377
100
AcDbEntity
  8
0
100
AcDbLine
 62
2
  6
CONTINUOUS
 10
13.0286867707
 20
2.5856929366
 11
13.0286867707
 21
2.7181442672
  0
LINE
  5
378
100
AcDbEntity
  8
0
100
AcDbLine
 62
2
  6
CONTINUOUS
 10
13.0086867596
 20
2.3620816246
 11
13.0086867596
 21
2.5226754472
  0
LINE
  5
379
100
AcDbEntity
  8
0
100
AcDbLine
 62
2
  6
CONTINUOUS
 10
13.0086867596
 20
2.5920323691
 11
13.0086867596
 21
2.7186750564
  0
LINE
  5
37A
100
AcDbEntity
  8
0
100
AcDbLine
 62
2
  6
CONTINUOUS
 10
12.9886867486
 20
2.3615508354
 11
12.9886867486
 21
2.4912273132
  0
LINE
  5
37B
100
AcDbEntity
  8
0
100
AcDbLine
 62
2
  6
CONTINUOUS
 10
12.9886867486
 20
2.515977327
 11
12.9886867486
 21
2.5417582644
  0
LINE
  5
37C
100
AcDbEntity
  8
0
100
AcDbLine
 62
2
  6
CONTINUOUS
 10
12.9886867486
 20
2.5920323691
 11
12.9886867486
 21
2.7192058456
  0
LINE
  5
37D
100
AcDbEntity
  8
0
100
AcDbLine
 62
2
  6
CONTINUOUS
 10
12.9686867375
 20
2.3610200462
 11
12.9686867375
 21
2.4912273132
  0
LINE
  5
37E
100
AcDbEntity
  8
0
100
AcDbLine
 62
2
  6
CONTINUOUS
 10
12.9686867375
 20
2.5920323691
 11
12.9686867375
 21
2.7197366348
  0
LINE
  5
37F
100
AcDbEntity
  8
0
100
AcDbLine
 62
2
  6
CONTINUOUS
 10
12.9486867264
 20
2.360489257
 11
12.9486867264
 21
2.4912273132
  0
LINE
  5
380
100
AcDbEntity
  8
0
100
AcDbLine
 62
2
  6
CONTINUOUS
 10
12.9486867264
 20
2.5920323691
 11
12.9486867264
 21
2.720267424
  0
LINE
  5
381
100
AcDbEntity
  8
0
100
AcDbLine
 62
2
  6
CONTINUOUS
 10
12.9286867153
 20
2.3602836008
 11
12.9286867153
 21
2.4912273132
  0
LINE
  5
382
100
AcDbEntity
  8
0
100
AcDbLine
 62
2
  6
CONTINUOUS
 10
12.9286867153
 20
2.515977327
 11
12.9286867153
 21
2.5672823554
  0
LINE
  5
383
100
AcDbEntity
  8
0
100
AcDbLine
 62
2
  6
CONTINUOUS
 10
12.9286867153
 20
2.5920323691
 11
12.9286867153
 21
2.7204730802
  0
LINE
  5
384
100
AcDbEntity
  8
0
100
AcDbLine
 62
2
  6
CONTINUOUS
 10
12.9086867042
 20
2.3604597639
 11
12.9086867042
 21
2.7202969171
  0
LINE
  5
385
100
AcDbEntity
  8
0
100
AcDbLine
 62
2
  6
CONTINUOUS
 10
12.8886866931
 20
2.360635927
 11
12.8886866931
 21
2.5672823554
  0
LINE
  5
386
100
AcDbEntity
  8
0
100
AcDbLine
 62
2
  6
CONTINUOUS
 10
12.8886866931
 20
2.5920323691
 11
12.8886866931
 21
2.720120754
  0
LINE
  5
387
100
AcDbEntity
  8
0
100
AcDbLine
 62
2
  6
CONTINUOUS
 10
12.868686682
 20
2.3608120901
 11
12.868686682
 21
2.491232357
  0
LINE
  5
388
100
AcDbEntity
  8
0
100
AcDbLine
 62
2
  6
CONTINUOUS
 10
12.868686682
 20
2.5920323691
 11
12.868686682
 21
2.7199445909
  0
LINE
  5
389
100
AcDbEntity
  8
0
100
AcDbLine
 62
2
  6
CONTINUOUS
 10
12.8486866709
 20
2.3609882532
 11
12.8486866709
 21
2.4912273132
  0
LINE
  5
38A
100
AcDbEntity
  8
0
100
AcDbLine
 62
2
  6
CONTINUOUS
 10
12.8486866709
 20
2.5920323691
 11
12.8486866709
 21
2.7197684278
  0
LINE
  5
38B
100
AcDbEntity
  8
0
100
AcDbLine
 62
2
  6
CONTINUOUS
 10
12.8286866598
 20
2.3611644163
 11
12.8286866598
 21
2.4912273132
  0
LINE
  5
38C
100
AcDbEntity
  8
0
100
AcDbLine
 62
2
  6
CONTINUOUS
 10
12.8286866598
 20
2.5396527025
 11
12.8286866598
 21
2.5672823554
  0
LINE
  5
38D
100
AcDbEntity
  8
0
100
AcDbLine
 62
2
  6
CONTINUOUS
 10
12.8286866598
 20
2.5920323691
 11
12.8286866598
 21
2.7195922647
  0
LINE
  5
38E
100
AcDbEntity
  8
0
100
AcDbLine
 62
2
  6
CONTINUOUS
 10
12.8086866487
 20
2.3613405794
 11
12.8086866487
 21
2.4912273132
  0
LINE
  5
38F
100
AcDbEntity
  8
0
100
AcDbLine
 62
2
  6
CONTINUOUS
 10
12.8086866487
 20
2.5587355508
 11
12.8086866487
 21
2.7194161016
  0
LINE
  5
390
100
AcDbEntity
  8
0
100
AcDbLine
 62
2
  6
CONTINUOUS
 10
12.7886866376
 20
2.3621089572
 11
12.7886866376
 21
2.4957181055
  0
LINE
  5
391
100
AcDbEntity
  8
0
100
AcDbLine
 62
2
  6
CONTINUOUS
 10
12.7886866376
 20
2.5778183992
 11
12.7886866376
 21
2.7186477238
  0
LINE
  5
392
100
AcDbEntity
  8
0
100
AcDbLine
 62
2
  6
CONTINUOUS
 10
12.7686866266
 20
2.3630013935
 11
12.7686866266
 21
2.5148009227
  0
LINE
  5
393
100
AcDbEntity
  8
0
100
AcDbLine
 62
2
  6
CONTINUOUS
 10
12.7686866266
 20
2.5920323691
 11
12.7686866266
 21
2.7177552874
  0
LINE
  5
394
100
AcDbEntity
  8
0
100
AcDbLine
 62
2
  6
CONTINUOUS
 10
12.7486866155
 20
2.3638938299
 11
12.7486866155
 21
2.4913263218
  0
LINE
  5
395
100
AcDbEntity
  8
0
100
AcDbLine
 62
2
  6
CONTINUOUS
 10
12.7486866155
 20
2.5158783184
 11
12.7486866155
 21
2.5338837399
  0
LINE
  5
396
100
AcDbEntity
  8
0
100
AcDbLine
 62
2
  6
CONTINUOUS
 10
12.7486866155
 20
2.5920323691
 11
12.7486866155
 21
2.7168628511
  0
LINE
  5
397
100
AcDbEntity
  8
0
100
AcDbLine
 62
2
  6
CONTINUOUS
 10
12.7286866044
 20
2.3647862663
 11
12.7286866044
 21
2.4912273132
  0
LINE
  5
398
100
AcDbEntity
  8
0
100
AcDbLine
 62
2
  6
CONTINUOUS
 10
12.7286866044
 20
2.515977327
 11
12.7286866044
 21
2.5527601554
  0
LINE
  5
399
100
AcDbEntity
  8
0
100
AcDbLine
 62
2
  6
CONTINUOUS
 10
12.7286866044
 20
2.5920323691
 11
12.7286866044
 21
2.7159704147
  0
LINE
  5
39A
100
AcDbEntity
  8
0
100
AcDbLine
 62
2
  6
CONTINUOUS
 10
12.7086865933
 20
2.3656787026
 11
12.7086865933
 21
2.4912273132
  0
LINE
  5
39B
100
AcDbEntity
  8
0
100
AcDbLine
 62
2
  6
CONTINUOUS
 10
12.7086865933
 20
2.5920323691
 11
12.7086865933
 21
2.7150779784
  0
LINE
  5
39C
100
AcDbEntity
  8
0
100
AcDbLine
 62
2
  6
CONTINUOUS
 10
12.6886865822
 20
2.366571139
 11
12.6886865822
 21
2.4912273132
  0
LINE
  5
39D
100
AcDbEntity
  8
0
100
AcDbLine
 62
2
  6
CONTINUOUS
 10
12.6886865822
 20
2.515977327
 11
12.6886865822
 21
2.5672823554
  0
LINE
  5
39E
100
AcDbEntity
  8
0
100
AcDbLine
 62
2
  6
CONTINUOUS
 10
12.6886865822
 20
2.5920323691
 11
12.6886865822
 21
2.714185542
  0
LINE
  5
39F
100
AcDbEntity
  8
0
100
AcDbLine
 62
2
  6
CONTINUOUS
 10
12.6686865711
 20
2.3677104027
 11
12.6686865711
 21
2.7130462783
  0
LINE
  5
3A0
100
AcDbEntity
  8
0
100
AcDbLine
 62
2
  6
CONTINUOUS
 10
12.64868656
 20
2.3693682721
 11
12.64868656
 21
2.7113884089
  0
LINE
  5
3A1
100
AcDbEntity
  8
0
100
AcDbLine
 62
2
  6
CONTINUOUS
 10
12.6286865489
 20
2.3710261415
 11
12.6286865489
 21
2.4912273132
  0
LINE
  5
3A2
100
AcDbEntity
  8
0
100
AcDbLine
 62
2
  6
CONTINUOUS
 10
12.6286865489
 20
2.515977327
 11
12.6286865489
 21
2.7097305395
  0
LINE
  5
3A3
100
AcDbEntity
  8
0
100
AcDbLine
 62
2
  6
CONTINUOUS
 10
12.6086865378
 20
2.372684011
 11
12.6086865378
 21
2.4912273132
  0
LINE
  5
3A4
100
AcDbEntity
  8
0
100
AcDbLine
 62
2
  6
CONTINUOUS
 10
12.6086865378
 20
2.5351122279
 11
12.6086865378
 21
2.70807267
  0
LINE
  5
3A5
100
AcDbEntity
  8
0
100
AcDbLine
 62
2
  6
CONTINUOUS
 10
12.5886865267
 20
2.3743418804
 11
12.5886865267
 21
2.4912273132
  0
LINE
  5
3A6
100
AcDbEntity
  8
0
100
AcDbLine
 62
2
  6
CONTINUOUS
 10
12.5886865267
 20
2.5660172622
 11
12.5886865267
 21
2.7064148006
  0
LINE
  5
3A7
100
AcDbEntity
  8
0
100
AcDbLine
 62
2
  6
CONTINUOUS
 10
12.5686865156
 20
2.3759997498
 11
12.5686865156
 21
2.4912273132
  0
LINE
  5
3A8
100
AcDbEntity
  8
0
100
AcDbLine
 62
2
  6
CONTINUOUS
 10
12.5686865156
 20
2.5920323691
 11
12.5686865156
 21
2.7047569312
  0
LINE
  5
3A9
100
AcDbEntity
  8
0
100
AcDbLine
 62
2
  6
CONTINUOUS
 10
12.5486865045
 20
2.3777575277
 11
12.5486865045
 21
2.4912273132
  0
LINE
  5
3AA
100
AcDbEntity
  8
0
100
AcDbLine
 62
2
  6
CONTINUOUS
 10
12.5486865045
 20
2.515977327
 11
12.5486865045
 21
2.5275118824
  0
LINE
  5
3AB
100
AcDbEntity
  8
0
100
AcDbLine
 62
2
  6
CONTINUOUS
 10
12.5486865045
 20
2.5920323691
 11
12.5486865045
 21
2.7029991533
  0
LINE
  5
3AC
100
AcDbEntity
  8
0
100
AcDbLine
 62
2
  6
CONTINUOUS
 10
12.5286864935
 20
2.3802813811
 11
12.5286864935
 21
2.5296213345
  0
LINE
  5
3AD
100
AcDbEntity
  8
0
100
AcDbLine
 62
2
  6
CONTINUOUS
 10
12.5286864935
 20
2.5505713461
 11
12.5286864935
 21
2.5667383551
  0
LINE
  5
3AE
100
AcDbEntity
  8
0
100
AcDbLine
 62
2
  6
CONTINUOUS
 10
12.5286864935
 20
2.5920323691
 11
12.5286864935
 21
2.7004752999
  0
LINE
  5
3AF
100
AcDbEntity
  8
0
100
AcDbLine
 62
2
  6
CONTINUOUS
 10
12.5086864824
 20
2.3828052346
 11
12.5086864824
 21
2.4912273132
  0
LINE
  5
3B0
100
AcDbEntity
  8
0
100
AcDbLine
 62
2
  6
CONTINUOUS
 10
12.5086864824
 20
2.515977327
 11
12.5086864824
 21
2.5279667721
  0
LINE
  5
3B1
100
AcDbEntity
  8
0
100
AcDbLine
 62
2
  6
CONTINUOUS
 10
12.5086864824
 20
2.5868602074
 11
12.5086864824
 21
2.6979514464
  0
LINE
  5
3B2
100
AcDbEntity
  8
0
100
AcDbLine
 62
2
  6
CONTINUOUS
 10
12.4886864713
 20
2.385329088
 11
12.4886864713
 21
2.4912273132
  0
LINE
  5
3B3
100
AcDbEntity
  8
0
100
AcDbLine
 62
2
  6
CONTINUOUS
 10
12.4886864713
 20
2.5553401045
 11
12.4886864713
 21
2.695427593
  0
LINE
  5
3B4
100
AcDbEntity
  8
0
100
AcDbLine
 62
2
  6
CONTINUOUS
 10
12.4686864602
 20
2.3878529415
 11
12.4686864602
 21
2.4912273132
  0
LINE
  5
3B5
100
AcDbEntity
  8
0
100
AcDbLine
 62
2
  6
CONTINUOUS
 10
12.4686864602
 20
2.5238200015
 11
12.4686864602
 21
2.6929037395
  0
LINE
  5
3B6
100
AcDbEntity
  8
0
100
AcDbLine
 62
2
  6
CONTINUOUS
 10
12.4486864491
 20
2.390376795
 11
12.4486864491
 21
2.4912273132
  0
LINE
  5
3B7
100
AcDbEntity
  8
0
100
AcDbLine
 62
2
  6
CONTINUOUS
 10
12.4486864491
 20
2.515977327
 11
12.4486864491
 21
2.690379886
  0
LINE
  5
3B8
100
AcDbEntity
  8
0
100
AcDbLine
 62
2
  6
CONTINUOUS
 10
12.428686438
 20
2.3931794042
 11
12.428686438
 21
2.6875772768
  0
LINE
  5
3B9
100
AcDbEntity
  8
0
100
AcDbLine
 62
2
  6
CONTINUOUS
 10
12.4086864269
 20
2.3964643301
 11
12.4086864269
 21
2.5013773986
  0
LINE
  5
3BA
100
AcDbEntity
  8
0
100
AcDbLine
 62
2
  6
CONTINUOUS
 10
12.4086864269
 20
2.5325739971
 11
12.4086864269
 21
2.5537224311
  0
LINE
  5
3BB
100
AcDbEntity
  8
0
100
AcDbLine
 62
2
  6
CONTINUOUS
 10
12.4086864269
 20
2.5791473398
 11
12.4086864269
 21
2.6842923509
  0
LINE
  5
3BC
100
AcDbEntity
  8
0
100
AcDbLine
 62
2
  6
CONTINUOUS
 10
12.3886864158
 20
2.399749256
 11
12.3886864158
 21
2.4921022658
  0
LINE
  5
3BD
100
AcDbEntity
  8
0
100
AcDbLine
 62
2
  6
CONTINUOUS
 10
12.3886864158
 20
2.5895929958
 11
12.3886864158
 21
2.681007425
  0
LINE
  5
3BE
100
AcDbEntity
  8
0
100
AcDbLine
 62
2
  6
CONTINUOUS
 10
12.3686864047
 20
2.403451877
 11
12.3686864047
 21
2.4912273132
  0
LINE
  5
3BF
100
AcDbEntity
  8
0
100
AcDbLine
 62
2
  6
CONTINUOUS
 10
12.3686864047
 20
2.5920323691
 11
12.3686864047
 21
2.677304804
  0
LINE
  5
3C0
100
AcDbEntity
  8
0
100
AcDbLine
 62
2
  6
CONTINUOUS
 10
12.3486863936
 20
2.407324637
 11
12.3486863936
 21
2.4912273132
  0
LINE
  5
3C1
100
AcDbEntity
  8
0
100
AcDbLine
 62
2
  6
CONTINUOUS
 10
12.3486863936
 20
2.5920323691
 11
12.3486863936
 21
2.673432044
  0
LINE
  5
3C2
100
AcDbEntity
  8
0
100
AcDbLine
 62
2
  6
CONTINUOUS
 10
12.3286863825
 20
2.4113493968
 11
12.3286863825
 21
2.4912273132
  0
LINE
  5
3C3
100
AcDbEntity
  8
0
100
AcDbLine
 62
2
  6
CONTINUOUS
 10
12.3286863825
 20
2.515977327
 11
12.3286863825
 21
2.5333023366
  0
LINE
  5
3C4
100
AcDbEntity
  8
0
100
AcDbLine
 62
2
  6
CONTINUOUS
 10
12.3286863825
 20
2.5499573458
 11
12.3286863825
 21
2.5672823554
  0
LINE
  5
3C5
100
AcDbEntity
  8
0
100
AcDbLine
 62
2
  6
CONTINUOUS
 10
12.3286863825
 20
2.5920323691
 11
12.3286863825
 21
2.6694072842
  0
LINE
  5
3C6
100
AcDbEntity
  8
0
100
AcDbLine
 62
2
  6
CONTINUOUS
 10
12.3086863715
 20
2.4159005505
 11
12.3086863715
 21
2.4912273132
  0
LINE
  5
3C7
100
AcDbEntity
  8
0
100
AcDbLine
 62
2
  6
CONTINUOUS
 10
12.3086863715
 20
2.515977327
 11
12.3086863715
 21
2.5333023366
  0
LINE
  5
3C8
100
AcDbEntity
  8
0
100
AcDbLine
 62
2
  6
CONTINUOUS
 10
12.3086863715
 20
2.5499573458
 11
12.3086863715
 21
2.5672823554
  0
LINE
  5
3C9
100
AcDbEntity
  8
0
100
AcDbLine
 62
2
  6
CONTINUOUS
 10
12.3086863715
 20
2.5920323691
 11
12.3086863715
 21
2.6648561305
  0
LINE
  5
3CA
100
AcDbEntity
  8
0
100
AcDbLine
 62
2
  6
CONTINUOUS
 10
12.2886863604
 20
2.4204517041
 11
12.2886863604
 21
2.4912273132
  0
LINE
  5
3CB
100
AcDbEntity
  8
0
100
AcDbLine
 62
2
  6
CONTINUOUS
 10
12.2886863604
 20
2.5920323691
 11
12.2886863604
 21
2.6603049769
  0
LINE
  5
3CC
100
AcDbEntity
  8
0
100
AcDbLine
 62
2
  6
CONTINUOUS
 10
12.2686863493
 20
2.4257438218
 11
12.2686863493
 21
2.4912273132
  0
LINE
  5
3CD
100
AcDbEntity
  8
0
100
AcDbLine
 62
2
  6
CONTINUOUS
 10
12.2686863493
 20
2.5920323691
 11
12.2686863493
 21
2.6550128592
  0
LINE
  5
3CE
100
AcDbEntity
  8
0
100
AcDbLine
 62
2
  6
CONTINUOUS
 10
12.2486863382
 20
2.4310978667
 11
12.2486863382
 21
2.4912273132
  0
LINE
  5
3CF
100
AcDbEntity
  8
0
100
AcDbLine
 62
2
  6
CONTINUOUS
 10
12.2486863382
 20
2.5920323691
 11
12.2486863382
 21
2.6496588142
  0
LINE
  5
3D0
100
AcDbEntity
  8
0
100
AcDbLine
 62
2
  6
CONTINUOUS
 10
12.2286863271
 20
2.4372566433
 11
12.2286863271
 21
2.4912273132
  0
LINE
  5
3D1
100
AcDbEntity
  8
0
100
AcDbLine
 62
2
  6
CONTINUOUS
 10
12.2286863271
 20
2.515977327
 11
12.2286863271
 21
2.5672823554
  0
LINE
  5
3D2
100
AcDbEntity
  8
0
100
AcDbLine
 62
2
  6
CONTINUOUS
 10
12.2286863271
 20
2.5920323691
 11
12.2286863271
 21
2.6435000377
  0
LINE
  5
3D3
100
AcDbEntity
  8
0
100
AcDbLine
 62
2
  6
CONTINUOUS
 10
12.208686316
 20
2.443589771
 11
12.208686316
 21
2.4912273132
  0
LINE
  5
3D4
100
AcDbEntity
  8
0
100
AcDbLine
 62
2
  6
CONTINUOUS
 10
12.208686316
 20
2.515977327
 11
12.208686316
 21
2.5672823554
  0
LINE
  5
3D5
100
AcDbEntity
  8
0
100
AcDbLine
 62
2
  6
CONTINUOUS
 10
12.208686316
 20
2.5920323691
 11
12.208686316
 21
2.63716691
  0
LINE
  5
3D6
100
AcDbEntity
  8
0
100
AcDbLine
 62
2
  6
CONTINUOUS
 10
12.1886863049
 20
2.4510806436
 11
12.1886863049
 21
2.6296760373
  0
LINE
  5
3D7
100
AcDbEntity
  8
0
100
AcDbLine
 62
2
  6
CONTINUOUS
 10
12.1686862938
 20
2.4591016523
 11
12.1686862938
 21
2.6216550287
  0
LINE
  5
3D8
100
AcDbEntity
  8
0
100
AcDbLine
 62
2
  6
CONTINUOUS
 10
12.1486862827
 20
2.468314272
 11
12.1486862827
 21
2.612442409
  0
LINE
  5
3D9
100
AcDbEntity
  8
0
100
AcDbLine
 62
2
  6
CONTINUOUS
 10
12.1286862716
 20
2.4794932339
 11
12.1286862716
 21
2.601263447
  0
LINE
  5
3DA
100
AcDbEntity
  8
0
100
AcDbLine
 62
2
  6
CONTINUOUS
 10
12.1086862605
 20
2.4934150665
 11
12.1086862605
 21
2.5873416144
  0
LINE
  5
3DB
100
AcDbEntity
  8
0
100
AcDbLine
 62
2
  6
CONTINUOUS
 10
12.0886862494
 20
2.5144449553
 11
12.0886862494
 21
2.5663117257
  0
ENDBLK
  5
3DC
100
AcDbEntity
  8
0
  6
BYBLOCK
 62
0
100
AcDbBlockEnd
  0
BLOCK
  5
3DD
100
AcDbEntity
  8
0
100
AcDbBlockBegin
  2
_FILLED
 70
64
 10
0.0
 20
0.0
  3
_FILLED
  1

  0
SOLID
  5
3DE
100
AcDbEntity
  8
0
  6
BYBLOCK
 62
0
100
AcDbTrace
 10
0.0
 20
0.0
 11
-1.0
 21
0.1666666667
 12
-1.0
 22
-0.1666666667
 13
-1.0
 23
-0.1666666667
  0
ENDBLK
  5
3DF
100
AcDbEntity
  8
0
  6
BYBLOCK
 62
0
100
AcDbBlockEnd
  0
BLOCK
  5
3E0
100
AcDbEntity
  8
SCHEME_DIMS
100
AcDbBlockBegin
 62
2
  6
CONTINUOUS
  2
*D0
 70
65
 10
0.0
 20
0.0
  3
*D0
  1

  0
MTEXT
  5
3E1
100
AcDbEntity
  8
SCHEME_DIMS
100
AcDbMText
 62
2
  6
CONTINUOUS
  7
STANDARD
 71
2
 72
1
 10
9.7455575623
 20
5.95023732
 30
0.0
 11
1.0
 21
0.0
 31
0.0
 44
0.9
  1
60,4\P[2.38]
 40
0.1
 41
0.6
  0
LINE
  5
3E2
100
AcDbEntity
  8
SCHEME_DIMS
100
AcDbLine
 62
2
  6
CONTINUOUS
 10
8.8469094896
 20
6.468777929
 11
9.9705575623
 21
6.468777929
  0
LINE
  5
3E3
100
AcDbEntity
  8
SCHEME_DIMS
100
AcDbLine
 62
2
  6
CONTINUOUS
 10
8.7519409166
 20
4.0908251731
 11
9.9705575623
 21
4.0908251731
  0
LINE
  5
3E4
100
AcDbEntity
  8
SCHEME_DIMS
100
AcDbLine
 62
2
  6
CONTINUOUS
 10
9.8455575623
 20
6.468777929
 11
9.8455575623
 21
6.05023732
  0
LINE
  5
3E5
100
AcDbEntity
  8
SCHEME_DIMS
100
AcDbLine
 62
2
  6
CONTINUOUS
 10
9.8455575623
 20
4.0908251731
 11
9.8455575623
 21
5.60023732
  0
INSERT
  5
3E6
100
AcDbEntity
  8
SCHEME_DIMS
100
AcDbBlockReference
 62
2
  6
CONTINUOUS
  2
_FILLED
 10
9.8455575623
 20
6.468777929
 41
0.1875
 42
0.1875
 43
0.1875
 50
90.0
  0
INSERT
  5
3E7
100
AcDbEntity
  8
SCHEME_DIMS
100
AcDbBlockReference
 62
2
  6
CONTINUOUS
  2
_FILLED
 10
9.8455575623
 20
4.0908251731
 41
0.1875
 42
0.1875
 43
0.1875
 50
270.0
  0
ENDBLK
  5
3E8
100
AcDbEntity
  8
0
  6
BYBLOCK
 62
0
100
AcDbBlockEnd
  0
BLOCK
  5
3E9
100
AcDbEntity
  8
SCHEME_DIMS
100
AcDbBlockBegin
 62
2
  6
CONTINUOUS
  2
*D1
 70
65
 10
0.0
 20
0.0
  3
*D1
  1

  0
MTEXT
  5
3EA
100
AcDbEntity
  8
SCHEME_DIMS
100
AcDbMText
 62
2
  6
CONTINUOUS
  7
STANDARD
 71
2
 72
1
 10
9.1455575623
 20
5.6368881652
 30
0.0
 11
1.0
 21
0.0
 31
0.0
 44
0.9
  1
30\P[1.18]
 40
0.1
 41
0.6
  0
LINE
  5
3EB
100
AcDbEntity
  8
SCHEME_DIMS
100
AcDbLine
 62
2
  6
CONTINUOUS
 10
8.902877086
 20
6.1774393463
 11
9.4705575623
 21
6.1774393463
  0
LINE
  5
3EC
100
AcDbEntity
  8
SCHEME_DIMS
100
AcDbLine
 62
2
  6
CONTINUOUS
 10
8.902877086
 20
4.9963369841
 11
9.4705575623
 21
4.9963369841
  0
LINE
  5
3ED
100
AcDbEntity
  8
SCHEME_DIMS
100
AcDbLine
 62
2
  6
CONTINUOUS
 10
9.3455575623
 20
6.1774393463
 11
9.3455575623
 21
5.7368881652
  0
LINE
  5
3EE
100
AcDbEntity
  8
SCHEME_DIMS
100
AcDbLine
 62
2
  6
CONTINUOUS
 10
9.3455575623
 20
4.9963369841
 11
9.3455575623
 21
5.2868881652
  0
INSERT
  5
3EF
100
AcDbEntity
  8
SCHEME_DIMS
100
AcDbBlockReference
 62
2
  6
CONTINUOUS
  2
_FILLED
 10
9.3455575623
 20
6.1774393463
 41
0.1875
 42
0.1875
 43
0.1875
 50
90.0
  0
INSERT
  5
3F0
100
AcDbEntity
  8
SCHEME_DIMS
100
AcDbBlockReference
 62
2
  6
CONTINUOUS
  2
_FILLED
 10
9.3455575623
 20
4.9963369841
 41
0.1875
 42
0.1875
 43
0.1875
 50
270.0
  0
ENDBLK
  5
3F1
100
AcDbEntity
  8
0
  6
BYBLOCK
 62
0
100
AcDbBlockEnd
  0
ENDSEC
  0
SECTION
  2
ENTITIES
  0
MTEXT
  5
3F2
100
AcDbEntity
  8
0
100
AcDbMText
 62
2
  6
CONTINUOUS
  7
TEXTSTYLE_2
 71
2
 72
1
 10
11.0287658475
 20
1.794867839
 30
0.0
 11
1.0
 21
0.0
 31
0.0
 44
0.9
  1
THIRD ANGLE PROJECTION
 40
0.1
 41
1.76
  0
MTEXT
  5
3F3
100
AcDbEntity
  8
0
100
AcDbMText
 62
2
  6
CONTINUOUS
  7
STANDARD
 71
1
 72
1
 10
12.88
 20
1.457
 30
0.0
 11
1.0
 21
0.0
 31
0.0
 44
0.9
  1
DRAWING NO.
 40
0.08
 41
0.88
  0
MTEXT
  5
3F4
100
AcDbEntity
  8
0
100
AcDbMText
 62
2
  6
CONTINUOUS
  7
TEXTSTYLE_3
 71
2
 72
1
 10
11.03
 20
2.516432
 30
0.0
 11
1.0
 21
0.0
 31
0.0
 44
0.9
  1
and is proprietary in general
 40
0.08
 41
1.972
  0
MTEXT
  5
3F5
100
AcDbEntity
  8
0
100
AcDbMText
 62
2
  6
CONTINUOUS
  7
TEXTSTYLE_3
 71
2
 72
1
 10
11.03
 20
2.396432
 30
0.0
 11
1.0
 21
0.0
 31
0.0
 44
0.9
  1
and in detail.  Its contents
 40
0.08
 41
1.904
  0
MTEXT
  5
3F6
100
AcDbEntity
  8
0
100
AcDbMText
 62
2
  6
CONTINUOUS
  7
TEXTSTYLE_3
 71
2
 72
1
 10
11.03
 20
2.276432
 30
0.0
 11
1.0
 21
0.0
 31
0.0
 44
0.9
  1
shall not be revealed to
 40
0.08
 41
1.632
  0
MTEXT
  5
3F7
100
AcDbEntity
  8
0
100
AcDbMText
 62
2
  6
CONTINUOUS
  7
TEXTSTYLE_3
 71
2
 72
1
 10
11.03
 20
2.156432
 30
0.0
 11
1.0
 21
0.0
 31
0.0
 44
0.9
  1
outside parties without
 40
0.08
 41
1.564
  0
MTEXT
  5
3F8
100
AcDbEntity
  8
0
100
AcDbMText
 62
2
  6
CONTINUOUS
  7
TEXTSTYLE_3
 71
2
 72
1
 10
11.03
 20
2.036432
 30
0.0
 11
1.0
 21
0.0
 31
0.0
 44
0.9
  1
written consent of BANNER.
 40
0.08
 41
1.768
  0
MTEXT
  5
3F9
100
AcDbEntity
  8
0
100
AcDbMText
 62
2
  6
CONTINUOUS
  7
TEXTSTYLE_2
 71
1
 72
1
 10
12.08
 20
2.217
 30
0.0
 11
1.0
 21
0.0
 31
0.0
 44
0.9
  1
TITLE
 40
0.1
 41
0.4
  0
MTEXT
  5
3FA
100
AcDbEntity
  8
0
100
AcDbMText
 62
2
  6
CONTINUOUS
  7
STANDARD
 71
1
 72
1
 10
12.08
 20
1.457
 30
0.0
 11
1.0
 21
0.0
 31
0.0
 44
0.9
  1
SIZE
 40
0.08
 41
0.32
  0
MTEXT
  5
3FB
100
AcDbEntity
  8
0
100
AcDbMText
 62
2
  6
CONTINUOUS
  7
STANDARD
 71
1
 72
1
 10
12.08
 20
1.087
 30
0.0
 11
1.0
 21
0.0
 31
0.0
 44
0.9
  1
SCALE
 40
0.08
 41
0.4
  0
MTEXT
  5
3FC
100
AcDbEntity
  8
0
100
AcDbMText
 62
2
  6
CONTINUOUS
  7
TEXTSTYLE_2
 71
2
 72
1
 10
12.5
 20
1.337
 30
0.0
 11
1.0
 21
0.0
 31
0.0
 44
0.9
  1
B
 40
0.1
 41
0.08
  0
MTEXT
  5
3FD
100
AcDbEntity
  8
0
100
AcDbMText
 62
2
  6
CONTINUOUS
  7
TEXTSTYLE_3
 71
2
 72
1
 10
11.03
 20
2.636432
 30
0.0
 11
1.0
 21
0.0
 31
0.0
 44
0.9
  1
of BANNER ENGINEERING CORP.
 40
0.08
 41
1.836
  0
MTEXT
  5
3FE
100
AcDbEntity
  8
0
100
AcDbMText
 62
2
  6
CONTINUOUS
  7
TEXTSTYLE_3
 71
2
 72
1
 10
11.03
 20
2.756432
 30
0.0
 11
1.0
 21
0.0
 31
0.0
 44
0.9
  1
This drawing is the property
 40
0.08
 41
1.904
  0
MTEXT
  5
3FF
100
AcDbEntity
  8
0
100
AcDbMText
 62
2
  6
CONTINUOUS
  7
TEXTSTYLE_2
 71
2
 72
1
 10
15.03
 20
2.4134
 30
0.0
 11
1.0
 21
0.0
 31
0.0
 44
0.9
  1
MINNEAPOLIS, MN 55440
 40
0.1
 41
1.68
  0
MTEXT
  5
400
100
AcDbEntity
  8
0
100
AcDbMText
 62
2
  6
CONTINUOUS
  7
STANDARD
 71
1
 72
1
 10
14.255
 20
1.087
 30
0.0
 11
1.0
 21
0.0
 31
0.0
 44
0.9
  1
SHEET
 40
0.08
 41
0.4
  0
MTEXT
  5
401
100
AcDbEntity
  8
0
100
AcDbMText
 62
2
  6
CONTINUOUS
  7
STANDARD
 71
1
 72
1
 10
15.63
 20
1.457
 30
0.0
 11
1.0
 21
0.0
 31
0.0
 44
0.9
  1
REV.
 40
0.08
 41
0.32
  0
MTEXT
  5
402
100
AcDbEntity
  8
0
100
AcDbMText
 62
2
  6
CONTINUOUS
  7
STANDARD
 71
3
 72
1
 10
16.38
 20
0.835443
 30
0.0
 11
1.0
 21
0.0
 31
0.0
 44
0.9
  1
PRO/E
 40
0.07
 41
0.35
  0
MTEXT
  5
403
100
AcDbEntity
  8
0
100
AcDbMText
 62
2
  6
CONTINUOUS
  7
TEXTSTYLE_4
 71
2
 72
1
 10
15.03
 20
2.751049
 30
0.0
 11
1.0
 21
0.0
 31
0.0
 44
0.9
  1
BANNER ENGINEERING CORP.
 40
0.12
 41
2.6496
  0
MTEXT
  5
404
100
AcDbEntity
  8
0
100
AcDbMText
 62
2
  6
CONTINUOUS
  7
TEXTSTYLE_2
 71
2
 72
1
 10
15.03
 20
2.5724
 30
0.0
 11
1.0
 21
0.0
 31
0.0
 44
0.9
  1
P.O. BOX 9414
 40
0.1
 41
1.04
  0
MTEXT
  5
405
100
AcDbEntity
  8
0
100
AcDbMText
 62
2
  6
CONTINUOUS
  7
TEXTSTYLE_2
 71
2
 72
1
 10
9.485
 20
10.312
 30
0.0
 11
1.0
 21
0.0
 31
0.0
 44
0.9
  1
4
 40
0.1
 41
0.08
  0
MTEXT
  5
406
100
AcDbEntity
  8
0
100
AcDbMText
 62
2
  6
CONTINUOUS
  7
TEXTSTYLE_2
 71
2
 72
1
 10
11.455
 20
10.312
 30
0.0
 11
1.0
 21
0.0
 31
0.0
 44
0.9
  1
3
 40
0.1
 41
0.08
  0
MTEXT
  5
407
100
AcDbEntity
  8
0
100
AcDbMText
 62
2
  6
CONTINUOUS
  7
TEXTSTYLE_2
 71
2
 72
1
 10
13.425
 20
10.312
 30
0.0
 11
1.0
 21
0.0
 31
0.0
 44
0.9
  1
2
 40
0.1
 41
0.08
  0
MTEXT
  5
408
100
AcDbEntity
  8
0
100
AcDbMText
 62
2
  6
CONTINUOUS
  7
TEXTSTYLE_2
 71
2
 72
1
 10
15.395
 20
10.312
 30
0.0
 11
1.0
 21
0.0
 31
0.0
 44
0.9
  1
1
 40
0.1
 41
0.08
  0
MTEXT
  5
409
100
AcDbEntity
  8
0
100
AcDbMText
 62
2
  6
CONTINUOUS
  7
TEXTSTYLE_2
 71
2
 72
1
 10
3.575
 20
10.312
 30
0.0
 11
1.0
 21
0.0
 31
0.0
 44
0.9
  1
7
 40
0.1
 41
0.08
  0
MTEXT
  5
40A
100
AcDbEntity
  8
0
100
AcDbMText
 62
2
  6
CONTINUOUS
  7
TEXTSTYLE_2
 71
2
 72
1
 10
5.545
 20
10.312
 30
0.0
 11
1.0
 21
0.0
 31
0.0
 44
0.9
  1
6
 40
0.1
 41
0.08
  0
MTEXT
  5
40B
100
AcDbEntity
  8
0
100
AcDbMText
 62
2
  6
CONTINUOUS
  7
TEXTSTYLE_2
 71
2
 72
1
 10
7.515
 20
10.312
 30
0.0
 11
1.0
 21
0.0
 31
0.0
 44
0.9
  1
5
 40
0.1
 41
0.08
  0
MTEXT
  5
40C
100
AcDbEntity
  8
0
100
AcDbMText
 62
2
  6
CONTINUOUS
  7
TEXTSTYLE_2
 71
2
 72
1
 10
1.605
 20
10.312
 30
0.0
 11
1.0
 21
0.0
 31
0.0
 44
0.9
  1
8
 40
0.1
 41
0.08
  0
MTEXT
  5
40D
100
AcDbEntity
  8
0
100
AcDbMText
 62
2
  6
CONTINUOUS
  7
TEXTSTYLE_2
 71
2
 72
1
 10
1.605
 20
0.787
 30
0.0
 11
1.0
 21
0.0
 31
0.0
 44
0.9
  1
8
 40
0.1
 41
0.08
  0
MTEXT
  5
40E
100
AcDbEntity
  8
0
100
AcDbMText
 62
2
  6
CONTINUOUS
  7
TEXTSTYLE_2
 71
2
 72
1
 10
3.575
 20
0.787
 30
0.0
 11
1.0
 21
0.0
 31
0.0
 44
0.9
  1
7
 40
0.1
 41
0.08
  0
MTEXT
  5
40F
100
AcDbEntity
  8
0
100
AcDbMText
 62
2
  6
CONTINUOUS
  7
TEXTSTYLE_2
 71
2
 72
1
 10
5.545
 20
0.787
 30
0.0
 11
1.0
 21
0.0
 31
0.0
 44
0.9
  1
6
 40
0.1
 41
0.08
  0
MTEXT
  5
410
100
AcDbEntity
  8
0
100
AcDbMText
 62
2
  6
CONTINUOUS
  7
TEXTSTYLE_2
 71
2
 72
1
 10
7.515
 20
0.787
 30
0.0
 11
1.0
 21
0.0
 31
0.0
 44
0.9
  1
5
 40
0.1
 41
0.08
  0
MTEXT
  5
411
100
AcDbEntity
  8
0
100
AcDbMText
 62
2
  6
CONTINUOUS
  7
TEXTSTYLE_2
 71
2
 72
1
 10
9.485
 20
0.787
 30
0.0
 11
1.0
 21
0.0
 31
0.0
 44
0.9
  1
4
 40
0.1
 41
0.08
  0
MTEXT
  5
412
100
AcDbEntity
  8
0
100
AcDbMText
 62
2
  6
CONTINUOUS
  7
TEXTSTYLE_2
 71
2
 72
1
 10
11.455
 20
0.787
 30
0.0
 11
1.0
 21
0.0
 31
0.0
 44
0.9
  1
3
 40
0.1
 41
0.08
  0
MTEXT
  5
413
100
AcDbEntity
  8
0
100
AcDbMText
 62
2
  6
CONTINUOUS
  7
TEXTSTYLE_2
 71
2
 72
1
 10
13.425
 20
0.787
 30
0.0
 11
1.0
 21
0.0
 31
0.0
 44
0.9
  1
2
 40
0.1
 41
0.08
  0
MTEXT
  5
414
100
AcDbEntity
  8
0
100
AcDbMText
 62
2
  6
CONTINUOUS
  7
TEXTSTYLE_2
 71
2
 72
1
 10
15.395
 20
0.787
 30
0.0
 11
1.0
 21
0.0
 31
0.0
 44
0.9
  1
1
 40
0.1
 41
0.08
  0
MTEXT
  5
415
100
AcDbEntity
  8
0
100
AcDbMText
 62
2
  6
CONTINUOUS
  7
TEXTSTYLE_2
 71
3
 72
1
 10
0.52
 20
4.3995
 30
0.0
 11
1.0
 21
0.0
 31
0.0
 44
0.9
  1
B
 40
0.1
 41
0.08
  0
MTEXT
  5
416
100
AcDbEntity
  8
0
100
AcDbMText
 62
2
  6
CONTINUOUS
  7
TEXTSTYLE_2
 71
3
 72
1
 10
0.52
 20
2.0995
 30
0.0
 11
1.0
 21
0.0
 31
0.0
 44
0.9
  1
A
 40
0.1
 41
0.08
  0
MTEXT
  5
417
100
AcDbEntity
  8
0
100
AcDbMText
 62
2
  6
CONTINUOUS
  7
TEXTSTYLE_2
 71
3
 72
1
 10
0.52
 20
8.9995
 30
0.0
 11
1.0
 21
0.0
 31
0.0
 44
0.9
  1
D
 40
0.1
 41
0.08
  0
MTEXT
  5
418
100
AcDbEntity
  8
0
100
AcDbMText
 62
2
  6
CONTINUOUS
  7
TEXTSTYLE_2
 71
3
 72
1
 10
0.52
 20
6.6995
 30
0.0
 11
1.0
 21
0.0
 31
0.0
 44
0.9
  1
C
 40
0.1
 41
0.08
  0
MTEXT
  5
419
100
AcDbEntity
  8
0
100
AcDbMText
 62
2
  6
CONTINUOUS
  7
TEXTSTYLE_2
 71
1
 72
1
 10
16.48
 20
8.9995
 30
0.0
 11
1.0
 21
0.0
 31
0.0
 44
0.9
  1
D
 40
0.1
 41
0.08
  0
MTEXT
  5
41A
100
AcDbEntity
  8
0
100
AcDbMText
 62
2
  6
CONTINUOUS
  7
TEXTSTYLE_2
 71
1
 72
1
 10
16.48
 20
6.6995
 30
0.0
 11
1.0
 21
0.0
 31
0.0
 44
0.9
  1
C
 40
0.1
 41
0.08
  0
MTEXT
  5
41B
100
AcDbEntity
  8
0
100
AcDbMText
 62
2
  6
CONTINUOUS
  7
TEXTSTYLE_2
 71
1
 72
1
 10
16.48
 20
4.3995
 30
0.0
 11
1.0
 21
0.0
 31
0.0
 44
0.9
  1
B
 40
0.1
 41
0.08
  0
MTEXT
  5
41C
100
AcDbEntity
  8
0
100
AcDbMText
 62
2
  6
CONTINUOUS
  7
TEXTSTYLE_2
 71
1
 72
1
 10
16.48
 20
2.0995
 30
0.0
 11
1.0
 21
0.0
 31
0.0
 44
0.9
  1
A
 40
0.1
 41
0.08
  0
MTEXT
  5
41D
100
AcDbEntity
  8
0
100
AcDbMText
 62
2
  6
CONTINUOUS
  7
STANDARD
 71
1
 72
1
 10
14.819264911
 20
1.0627941725
 30
0.0
 11
1.0
 21
0.0
 31
0.0
 44
0.9
  1
1 OF 1
 40
0.1
 41
0.6
  0
MTEXT
  5
41E
100
AcDbEntity
  8
0
100
AcDbMText
 62
7
  6
CONTINUOUS
  7
STANDARD
 71
1
 72
1
 10
13.8911999818
 20
1.3747321586
 30
0.0
 11
1.0
 21
0.0
 31
0.0
 44
0.9
  1
154438
 40
0.12
 41
0.72
  0
MTEXT
  5
41F
100
AcDbEntity
  8
0
100
AcDbMText
 62
2
  6
CONTINUOUS
  7
STANDARD
 71
1
 72
1
 10
12.644264911
 20
1.0627941725
 30
0.0
 11
1.0
 21
0.0
 31
0.0
 44
0.9
  1
1:1
 40
0.1
 41
0.3
  0
MTEXT
  5
420
100
AcDbEntity
  8
0
100
AcDbMText
 62
2
  6
CONTINUOUS
  7
STANDARD
 71
1
 72
1
 10
1.0597007627
 20
1.6202922458
 30
0.0
 11
1.0
 21
0.0
 31
0.0
 44
0.9
  1
NOTES:\P1. ALL DIMENSIONS ARE MILLIMETERS [INCHES] UNLESS OTHERWISE NOTED.
 40
0.1
 41
6.6
  0
INSERT
  5
421
100
AcDbEntity
  8
0
100
AcDbBlockReference
 62
2
  6
CONTINUOUS
  2
BANNER_LOGO_TITLEBLOCK_BL0
 10
12.9086867042
 20
2.5403783405
  0
DIMENSION
  5
422
100
AcDbEntity
  8
SCHEME_DIMS
100
AcDbDimension
 62
2
  6
CONTINUOUS
  2
*D0
 10
9.8455575623
 20
4.0908251731
 11
9.7205575623
 21
5.82523732
 70
160
 71
2
 42
60.4
  3
DIMSTYLE_1
100
AcDbAlignedDimension
 13
8.8469094896
 23
6.468777929
 14
8.7519409166
 24
4.0908251731
 50
270.0
100
AcDbRotatedDimension
  0
DIMENSION
  5
423
100
AcDbEntity
  8
SCHEME_DIMS
100
AcDbDimension
 62
2
  6
CONTINUOUS
  2
*D1
 10
9.3455575623
 20
4.9963369841
 11
9.2705575623
 21
5.5118881652
 70
160
 71
2
 42
30.0
  3
DIMSTYLE_1
100
AcDbAlignedDimension
 13
8.902877086
 23
6.1774393463
 14
8.902877086
 24
4.9963369841
 50
270.0
100
AcDbRotatedDimension
  0
LINE
  5
424
100
AcDbEntity
  8
0
100
AcDbLine
 62
2
  6
CONTINUOUS
 10
16.38
 20
0.887
 11
12.03
 21
0.887
  0
LINE
  5
425
100
AcDbEntity
  8
0
100
AcDbLine
 62
2
  6
CONTINUOUS
 10
16.38
 20
0.887
 11
16.38
 21
2.807
  0
LINE
  5
426
100
AcDbEntity
  8
0
100
AcDbLine
 62
2
  6
CONTINUOUS
 10
16.38
 20
2.807
 11
12.03
 21
2.807
  0
LINE
  5
427
100
AcDbEntity
  8
0
100
AcDbLine
 62
2
  6
CONTINUOUS
 10
12.03
 20
0.887
 11
12.03
 21
2.807
  0
MTEXT
  5
428
100
AcDbEntity
  8
NOTES
100
AcDbMText
 62
7
  6
CONTINUOUS
  7
STANDARD
 71
2
 72
1
 10
16.155
 20
1.367
 30
0.0
 11
1.0
 21
0.0
 31
0.0
 44
0.9
  1
-
 40
0.1
 41
0.1
  0
MTEXT
  5
429
100
AcDbEntity
  8
NOTES
100
AcDbMText
 62
7
  6
CONTINUOUS
  7
STANDARD
 71
2
 72
1
 10
14.205
 20
1.967
 30
0.0
 11
1.0
 21
0.0
 31
0.0
 44
0.9
  1
M18 EZ-LIGHT QD\PWEB CAD DRAWINGS 2D/3D
 40
0.1
 41
2.2
  0
MTEXT
  5
42A
100
AcDbEntity
  8
NOTES
100
AcDbMText
 62
2
  6
CONTINUOUS
  7
STANDARD
 71
2
 72
1
 10
14.3472949999
 20
6.4938668856
 30
0.0
 11
1.0
 21
0.0
 31
0.0
 44
0.9
  1
ISOMETRIC VIEW\PSCALE  1:1
 40
0.1
 41
1.4
  0
LEADER
  5
42B
100
AcDbEntity
  8
NOTES
100
AcDbLeader
 62
2
  6
CONTINUOUS
  3
STANDARD
 71
1
 72
0
 73
0
 75
0
 40
0.1
 41
0.7
 76
3
 10
8.1526960306
 20
5.6399475078
 30
0.0
 10
7.8592560334
 20
5.3541363992
 30
0.0
 10
7.6092560334
 20
5.3541363992
 30
0.0
340
42C
1001
ACAD
1000
DSTYLE
1002
{
1070
77
1070
0
1002
}
  0
MTEXT
  5
42C
102
{ACAD_REACTORS
330
42B
102
}
100
AcDbEntity
  8
NOTES
100
AcDbMText
 62
2
  6
CONTINUOUS
  7
STANDARD
 71
3
 72
1
 10
7.6092560334
 20
5.4041363992
 30
0.0
 11
1.0
 21
0.0
 31
0.0
 44
0.9
  1
M18 X 1
 40
0.1
 41
0.7
  0
LEADER
  5
42D
100
AcDbEntity
  8
NOTES
100
AcDbLeader
 62
2
  6
CONTINUOUS
  3
STANDARD
 71
1
 72
0
 73
0
 75
0
 40
0.1
 41
0.7
 76
3
 10
8.2451638615
 20
4.2876755668
 30
0.0
 10
7.8713231964
 20
4.0689835366
 30
0.0
 10
7.6213231964
 20
4.0689835366
 30
0.0
340
42E
1001
ACAD
1000
DSTYLE
1002
{
1070
77
1070
0
1002
}
  0
MTEXT
  5
42E
102
{ACAD_REACTORS
330
42D
102
}
100
AcDbEntity
  8
NOTES
100
AcDbMText
 62
2
  6
CONTINUOUS
  7
STANDARD
 71
3
 72
1
 10
7.6213231964
 20
4.1189835366
 30
0.0
 11
1.0
 21
0.0
 31
0.0
 44
0.9
  1
M12 X 1
 40
0.1
 41
0.7
  0
LEADER
  5
42F
100
AcDbEntity
  8
NOTES
100
AcDbLeader
 62
2
  6
CONTINUOUS
  3
STANDARD
 71
1
 72
0
 73
0
 75
0
 40
0.1
 41
0.15
 76
3
 10
8.7403652059
 20
8.1110459334
 30
0.0
 10
8.896471596
 20
7.8805058341
 30
0.0
 10
9.146471596
 20
7.8805058341
 30
0.0
340
430
1001
ACAD
1000
DSTYLE
1002
{
1070
77
1070
0
1002
}
  0
MTEXT
  5
430
102
{ACAD_REACTORS
330
42F
102
}
100
AcDbEntity
  8
NOTES
100
AcDbMText
 62
2
  6
CONTINUOUS
  7
TEXTSTYLE_5
 71
1
 72
1
 10
9.146471596
 20
7.9305058341
 30
0.0
 11
1.0
 21
0.0
 31
0.0
 44
0.9
  1
{\Fgdt;n}\Ftxt;16.5\P[.65]
 40
0.1
 41
0.55
  0
LINE
  5
431
100
AcDbEntity
  8
0
100
AcDbLine
 62
2
  6
CONTINUOUS
 10
0.47
 20
5.586103
 11
0.47
 21
5.412897
  0
LINE
  5
432
100
AcDbEntity
  8
0
100
AcDbLine
 62
2
  6
CONTINUOUS
 10
0.62
 20
10.112
 11
0.62
 21
0.887
  0
LINE
  5
433
100
AcDbEntity
  8
0
100
AcDbLine
 62
2
  6
CONTINUOUS
 10
2.59
 20
0.887
 11
2.59
 21
0.637
  0
LINE
  5
434
100
AcDbEntity
  8
0
100
AcDbLine
 62
2
  6
CONTINUOUS
 10
2.59
 20
10.112
 11
2.59
 21
10.362
  0
LINE
  5
435
100
AcDbEntity
  8
0
100
AcDbLine
 62
2
  6
CONTINUOUS
 10
8.413397
 20
0.737
 11
8.586603
 21
0.737
  0
LINE
  5
436
100
AcDbEntity
  8
0
100
AcDbLine
 62
7
  6
CONTINUOUS
 10
11.1389508475
 20
1.425992839
 11
11.7453418475
 21
1.495385839
  0
LINE
  5
437
100
AcDbEntity
  8
0
100
AcDbLine
 62
2
  6
CONTINUOUS
 10
0.62
 20
0.887
 11
16.38
 21
0.887
  0
LINE
  5
438
100
AcDbEntity
  8
0
100
AcDbLine
 62
2
  6
CONTINUOUS
 10
12.03
 20
1.137
 11
16.38
 21
1.137
  0
LINE
  5
439
100
AcDbEntity
  8
0
100
AcDbLine
 62
7
  6
CONTINUOUS
 10
10.2121898475
 20
1.243294839
 11
10.4342808475
 21
1.243294839
  0
LINE
  5
43A
100
AcDbEntity
  8
0
100
AcDbLine
 62
7
  6
CONTINUOUS
 10
10.4842808475
 20
1.243294839
 11
10.5842808475
 21
1.243294839
  0
LINE
  5
43B
100
AcDbEntity
  8
0
100
AcDbLine
 62
7
  6
CONTINUOUS
 10
10.6342808475
 20
1.243294839
 11
10.8563718475
 21
1.243294839
  0
LINE
  5
43C
100
AcDbEntity
  8
0
100
AcDbLine
 62
7
  6
CONTINUOUS
 10
11.0389508475
 20
1.243294839
 11
11.3171028475
 21
1.243294839
  0
LINE
  5
43D
100
AcDbEntity
  8
0
100
AcDbLine
 62
7
  6
CONTINUOUS
 10
11.3671028475
 20
1.243294839
 11
11.5171888475
 21
1.243294839
  0
LINE
  5
43E
100
AcDbEntity
  8
0
100
AcDbLine
 62
7
  6
CONTINUOUS
 10
11.5671888475
 20
1.243294839
 11
11.8453418475
 21
1.243294839
  0
LINE
  5
43F
100
AcDbEntity
  8
0
100
AcDbLine
 62
7
  6
CONTINUOUS
 10
11.7453418475
 20
0.991203839
 11
11.1389508475
 21
1.060596839
  0
LINE
  5
440
100
AcDbEntity
  8
0
100
AcDbLine
 62
2
  6
CONTINUOUS
 10
4.56
 20
0.887
 11
4.56
 21
0.637
  0
LINE
  5
441
100
AcDbEntity
  8
0
100
AcDbLine
 62
2
  6
CONTINUOUS
 10
4.56
 20
10.112
 11
4.56
 21
10.362
  0
LINE
  5
442
100
AcDbEntity
  8
0
100
AcDbLine
 62
2
  6
CONTINUOUS
 10
0.47
 20
5.412897
 11
0.62
 21
5.4995
  0
LINE
  5
443
100
AcDbEntity
  8
0
100
AcDbLine
 62
2
  6
CONTINUOUS
 10
12.03
 20
1.507
 11
16.38
 21
1.507
  0
LINE
  5
444
100
AcDbEntity
  8
0
100
AcDbLine
 62
2
  6
CONTINUOUS
 10
10.03
 20
1.907
 11
12.03
 21
1.907
  0
LINE
  5
445
100
AcDbEntity
  8
0
100
AcDbLine
 62
2
  6
CONTINUOUS
 10
0.62
 20
5.4995
 11
0.47
 21
5.586103
  0
LINE
  5
446
100
AcDbEntity
  8
0
100
AcDbLine
 62
2
  6
CONTINUOUS
 10
12.03
 20
2.267
 11
16.38
 21
2.267
  0
LINE
  5
447
100
AcDbEntity
  8
0
100
AcDbLine
 62
2
  6
CONTINUOUS
 10
8.5
 20
10.112
 11
8.586603
 21
10.262
  0
LINE
  5
448
100
AcDbEntity
  8
0
100
AcDbLine
 62
2
  6
CONTINUOUS
 10
16.38
 20
2.807
 11
10.03
 21
2.807
  0
LINE
  5
449
100
AcDbEntity
  8
0
100
AcDbLine
 62
2
  6
CONTINUOUS
 10
0.62
 20
3.1995
 11
0.37
 21
3.1995
  0
LINE
  5
44A
100
AcDbEntity
  8
0
100
AcDbLine
 62
2
  6
CONTINUOUS
 10
16.38
 20
3.1995
 11
16.63
 21
3.1995
  0
LINE
  5
44B
100
AcDbEntity
  8
0
100
AcDbLine
 62
2
  6
CONTINUOUS
 10
8.586603
 20
0.737
 11
8.5
 21
0.887
  0
LINE
  5
44C
100
AcDbEntity
  8
0
100
AcDbLine
 62
2
  6
CONTINUOUS
 10
6.53
 20
0.887
 11
6.53
 21
0.637
  0
LINE
  5
44D
100
AcDbEntity
  8
0
100
AcDbLine
 62
2
  6
CONTINUOUS
 10
6.53
 20
10.112
 11
6.53
 21
10.362
  0
LINE
  5
44E
100
AcDbEntity
  8
0
100
AcDbLine
 62
2
  6
CONTINUOUS
 10
8.5
 20
0.887
 11
8.5
 21
0.637
  0
LINE
  5
44F
100
AcDbEntity
  8
0
100
AcDbLine
 62
2
  6
CONTINUOUS
 10
8.5
 20
10.112
 11
8.5
 21
10.362
  0
LINE
  5
450
100
AcDbEntity
  8
0
100
AcDbLine
 62
2
  6
CONTINUOUS
 10
0.62
 20
5.4995
 11
0.37
 21
5.4995
  0
LINE
  5
451
100
AcDbEntity
  8
0
100
AcDbLine
 62
2
  6
CONTINUOUS
 10
16.38
 20
5.4995
 11
16.63
 21
5.4995
  0
LINE
  5
452
100
AcDbEntity
  8
0
100
AcDbLine
 62
2
  6
CONTINUOUS
 10
10.03
 20
2.807
 11
10.03
 21
0.887
  0
LINE
  5
453
100
AcDbEntity
  8
0
100
AcDbLine
 62
2
  6
CONTINUOUS
 10
10.47
 20
0.887
 11
10.47
 21
0.637
  0
LINE
  5
454
100
AcDbEntity
  8
0
100
AcDbLine
 62
2
  6
CONTINUOUS
 10
10.47
 20
10.112
 11
10.47
 21
10.362
  0
LINE
  5
455
100
AcDbEntity
  8
0
100
AcDbLine
 62
7
  6
CONTINUOUS
 10
10.5342808475
 20
1.143294839
 11
10.5342808475
 21
0.921203839
  0
LINE
  5
456
100
AcDbEntity
  8
0
100
AcDbLine
 62
7
  6
CONTINUOUS
 10
10.5342808475
 20
1.193294839
 11
10.5342808475
 21
1.293294839
  0
LINE
  5
457
100
AcDbEntity
  8
0
100
AcDbLine
 62
7
  6
CONTINUOUS
 10
10.5342808475
 20
1.343294839
 11
10.5342808475
 21
1.565385839
  0
LINE
  5
458
100
AcDbEntity
  8
0
100
AcDbLine
 62
2
  6
CONTINUOUS
 10
8.5
 20
0.887
 11
8.413397
 21
0.737
  0
LINE
  5
459
100
AcDbEntity
  8
0
100
AcDbLine
 62
2
  6
CONTINUOUS
 10
0.62
 20
7.7995
 11
0.37
 21
7.7995
  0
LINE
  5
45A
100
AcDbEntity
  8
0
100
AcDbLine
 62
2
  6
CONTINUOUS
 10
16.38
 20
7.7995
 11
16.63
 21
7.7995
  0
LINE
  5
45B
100
AcDbEntity
  8
0
100
AcDbLine
 62
2
  6
CONTINUOUS
 10
8.413397
 20
10.262
 11
8.5
 21
10.112
  0
LINE
  5
45C
100
AcDbEntity
  8
0
100
AcDbLine
 62
7
  6
CONTINUOUS
 10
11.1389508475
 20
1.060596839
 11
11.1389508475
 21
1.425992839
  0
LINE
  5
45D
100
AcDbEntity
  8
0
100
AcDbLine
 62
7
  6
CONTINUOUS
 10
11.7453418475
 20
1.495385839
 11
11.7453418475
 21
0.991203839
  0
LINE
  5
45E
100
AcDbEntity
  8
0
100
AcDbLine
 62
1
  6
CONTINUOUS
 10
12.03
 20
2.807
 11
12.03
 21
0.887
  0
LINE
  5
45F
100
AcDbEntity
  8
0
100
AcDbLine
 62
2
  6
CONTINUOUS
 10
12.44
 20
0.887
 11
12.44
 21
0.637
  0
LINE
  5
460
100
AcDbEntity
  8
0
100
AcDbLine
 62
2
  6
CONTINUOUS
 10
12.44
 20
10.112
 11
12.44
 21
10.362
  0
LINE
  5
461
100
AcDbEntity
  8
0
100
AcDbLine
 62
2
  6
CONTINUOUS
 10
16.53
 20
5.586103
 11
16.38
 21
5.4995
  0
LINE
  5
462
100
AcDbEntity
  8
0
100
AcDbLine
 62
2
  6
CONTINUOUS
 10
16.38
 20
5.4995
 11
16.53
 21
5.412897
  0
LINE
  5
463
100
AcDbEntity
  8
0
100
AcDbLine
 62
2
  6
CONTINUOUS
 10
12.83
 20
1.507
 11
12.83
 21
1.137
  0
LINE
  5
464
100
AcDbEntity
  8
0
100
AcDbLine
 62
2
  6
CONTINUOUS
 10
16.38
 20
10.112
 11
0.62
 21
10.112
  0
LINE
  5
465
100
AcDbEntity
  8
0
100
AcDbLine
 62
2
  6
CONTINUOUS
 10
8.586603
 20
10.262
 11
8.413397
 21
10.262
  0
LINE
  5
466
100
AcDbEntity
  8
0
100
AcDbLine
 62
2
  6
CONTINUOUS
 10
14.205
 20
1.137
 11
14.205
 21
0.887
  0
LINE
  5
467
100
AcDbEntity
  8
0
100
AcDbLine
 62
2
  6
CONTINUOUS
 10
14.41
 20
0.887
 11
14.41
 21
0.637
  0
LINE
  5
468
100
AcDbEntity
  8
0
100
AcDbLine
 62
2
  6
CONTINUOUS
 10
14.41
 20
10.112
 11
14.41
 21
10.362
  0
LINE
  5
469
100
AcDbEntity
  8
0
100
AcDbLine
 62
2
  6
CONTINUOUS
 10
15.58
 20
1.507
 11
15.58
 21
1.137
  0
LINE
  5
46A
100
AcDbEntity
  8
0
100
AcDbLine
 62
2
  6
CONTINUOUS
 10
16.38
 20
0.887
 11
16.38
 21
10.112
  0
LINE
  5
46B
100
AcDbEntity
  8
0
100
AcDbLine
 62
2
  6
CONTINUOUS
 10
16.53
 20
5.412897
 11
16.53
 21
5.586103
  0
LWPOLYLINE
  5
46C
100
AcDbEntity
  8
0
100
AcDbPolyline
 62
7
  6
CONTINUOUS
 90
7
 70
0
 10
14.0817658059
 20
8.9565980235
 10
14.0484594848
 20
8.9341168335
 10
14.020922716
 20
8.9086217241
 10
13.9998215231
 20
8.8811477419
 10
13.9851514342
 20
8.8525993527
 10
13.9765337657
 20
8.8234507406
 10
13.9736865635
 20
8.7939694879
  0
LWPOLYLINE
  5
46D
100
AcDbEntity
  8
0
100
AcDbPolyline
 62
9
  6
CONTINUOUS
 90
23
 70
0
 10
14.1171987182
 20
8.953088429
 10
14.0940241601
 20
8.9376473933
 10
14.0748933163
 20
8.9204610347
 10
14.0601914689
 20
8.9018752689
 10
14.0502213149
 20
8.8822718232
 10
14.0451847872
 20
8.862048576
 10
14.0451846263
 20
8.8416164497
 10
14.0502210683
 20
8.8213925516
 10
14.0601913261
 20
8.8017886834
 10
14.0748925911
 20
8.7832034395
 10
14.0940256557
 20
8.7660152079
 10
14.1172008584
 20
8.7505740634
 10
14.1439464508
 20
8.7371942979
 10
14.1737180443
 20
8.7261482607
 10
14.2059092873
 20
8.7176609065
 10
14.2398647804
 20
8.7119049721
 10
14.2748941271
 20
8.7089975395
 10
14.3102840783
 20
8.7089979444
 10
14.3453121673
 20
8.7119060483
 10
14.3792666165
 20
8.7176625204
 10
14.4114583186
 20
8.7261507881
 10
14.4412260841
 20
8.7371960562
 10
14.4679696843
 20
8.7505752988
  0
LWPOLYLINE
  5
46E
100
AcDbEntity
  8
0
100
AcDbPolyline
 62
7
  6
CONTINUOUS
 90
5
 70
0
 10
13.9736865635
 20
8.6813855619
 10
13.957417574
 20
8.6601446921
 10
13.9438977805
 20
8.6309230759
 10
13.9383832367
 20
8.6008664121
 10
13.9382534926
 20
8.5954693816
  0
LWPOLYLINE
  5
46F
100
AcDbEntity
  8
0
100
AcDbPolyline
 62
7
  6
CONTINUOUS
 90
9
 70
0
 10
13.9736865635
 20
8.666118256
 10
13.9723795544
 20
8.663742212
 10
13.9646121347
 20
8.6347657158
 10
13.9644274909
 20
8.607138439
 10
13.970287899
 20
8.5822878769
 10
13.980591287
 20
8.5601583259
 10
13.994433862
 20
8.540198901
 10
14.011587158
 20
8.5218154587
 10
14.0321300622
 20
8.5047012385
  0
LWPOLYLINE
  5
470
100
AcDbEntity
  8
0
100
AcDbPolyline
 62
9
  6
CONTINUOUS
 90
23
 70
0
 10
14.4679696843
 20
8.7505752988
 10
14.4911442424
 20
8.7660163345
 10
14.5102750862
 20
8.7832026931
 10
14.5249769337
 20
8.8017884589
 10
14.5349470876
 20
8.8213919045
 10
14.5399836153
 20
8.8416151518
 10
14.5399837762
 20
8.862047278
 10
14.5349473342
 20
8.8822711762
 10
14.5249770765
 20
8.9018750444
 10
14.5102758115
 20
8.9204602882
 10
14.4911427468
 20
8.9376485198
 10
14.4679675441
 20
8.9530896644
 10
14.4412219517
 20
8.9664694299
 10
14.4114503582
 20
8.977515467
 10
14.3792591152
 20
8.9860028212
 10
14.3453036221
 20
8.9917587556
 10
14.3102742754
 20
8.9946661883
 10
14.2748843242
 20
8.9946657834
 10
14.2398562352
 20
8.9917576794
 10
14.205901786
 20
8.9860012074
 10
14.1737100839
 20
8.9775129397
 10
14.1439423184
 20
8.9664676716
 10
14.1171987182
 20
8.953088429
  0
LWPOLYLINE
  5
471
100
AcDbEntity
  8
02___PRT_ALL_AXES
100
AcDbPolyline
 62
7
  6
CONTINUOUS
 90
14
 70
0
 10
14.0301070137
 20
7.1831891158
 10
14.0470317431
 20
7.1594503148
 10
14.0696274363
 20
7.1381622855
 10
14.097713065
 20
7.119177104
 10
14.1305970679
 20
7.1029622486
 10
14.1674697315
 20
7.0899169828
 10
14.2074231287
 20
7.0803625243
 10
14.2494734741
 20
7.0745341357
 10
14.2925853486
 20
7.0725753311
 10
14.335697195
 20
7.074534343
 10
14.3777474563
 20
7.0803629338
 10
14.4177007156
 20
7.0899175843
 10
14.4545731912
 20
7.1029630274
 10
14.4874569602
 20
7.1191780409
  0
LWPOLYLINE
  5
472
100
AcDbEntity
  8
02___PRT_ALL_AXES
100
AcDbPolyline
 62
7
  6
CONTINUOUS
 90
15
 70
0
 10
13.983234373
 20
7.2677547801
 10
13.9948824345
 20
7.2499185826
 10
14.017566234
 20
7.2251394035
 10
14.0463934803
 20
7.2025888912
 10
14.0807202206
 20
7.1827707868
 10
14.1197796521
 20
7.1661277941
 10
14.1626992517
 20
7.1530316899
 10
14.2085202664
 20
7.1437750196
 10
14.2562191306
 20
7.138564562
 10
14.3047303303
 20
7.1375167101
 10
14.3529702055
 20
7.1406548711
 10
14.3998611572
 20
7.1479089436
 10
14.444355719
 20
7.1591168838
 10
14.4854599559
 20
7.1740283247
 10
14.5222556671
 20
7.1923101695
  0
LINE
  5
473
100
AcDbEntity
  8
02___PRT_ALL_AXES
100
AcDbLine
 62
7
  6
CONTINUOUS
 10
13.983234373
 20
7.2677547801
 11
14.0301055591
 21
7.1831916499
  0
LINE
  5
474
100
AcDbEntity
  8
0
100
AcDbLine
 62
7
  6
CONTINUOUS
 10
14.0587550816
 20
7.0339649403
 11
14.0495726686
 21
7.0550849903
  0
LINE
  5
475
100
AcDbEntity
  8
0
100
AcDbLine
 62
7
  6
CONTINUOUS
 10
14.0585350523
 20
6.9700482192
 11
14.0495595243
 21
6.9908395085
  0
LWPOLYLINE
  5
476
100
AcDbEntity
  8
0
100
AcDbPolyline
 62
7
  6
CONTINUOUS
 90
14
 70
0
 10
14.0495463143
 20
6.926594359
 10
14.0585569335
 20
6.9057192514
 10
14.0733304686
 20
6.8859257236
 10
14.0935029707
 20
6.8677204536
 10
14.1185779815
 20
6.8515711517
 10
14.1479376503
 20
6.8378954798
 10
14.1808593084
 20
6.8270497971
 10
14.2165329199
 20
6.8193208857
 10
14.2540808674
 20
6.8149190075
 10
14.2925770895
 20
6.8139727323
 10
14.3310720081
 20
6.8165249953
 10
14.3686186339
 20
6.8225325291
 10
14.4042932053
 20
6.8318672995
 10
14.4372162631
 20
6.8443189199
  0
LWPOLYLINE
  5
477
100
AcDbEntity
  8
0
100
AcDbPolyline
 62
9
  6
CONTINUOUS
 90
7
 70
0
 10
14.5180798223
 20
8.6637824756
 10
14.5478783937
 20
8.6836373612
 10
14.5724744452
 20
8.7057340322
 10
14.5913760879
 20
8.7296298764
 10
14.604194265
 20
8.7548340811
 10
14.6106693365
 20
8.7808351138
 10
14.611481839
 20
8.7939694376
  0
LWPOLYLINE
  5
478
100
AcDbEntity
  8
02___PRT_ALL_AXES
100
AcDbPolyline
 62
7
  6
CONTINUOUS
 90
4
 70
0
 10
13.9677810516
 20
7.3249080523
 10
13.9698234971
 20
7.3039114175
 10
13.9788488006
 20
7.2763729025
 10
13.983234373
 20
7.2677547801
  0
LWPOLYLINE
  5
479
100
AcDbEntity
  8
02___PRT_ALL_AXES
100
AcDbPolyline
 62
7
  6
CONTINUOUS
 90
14
 70
0
 10
14.5180798223
 20
8.4837661947
 10
14.4867178363
 20
8.4678870061
 10
14.45203417
 20
8.4545070508
 10
14.4146222705
 20
8.4438552633
 10
14.3751222658
 20
8.4361138989
 10
14.334210012
 20
8.4314154143
 10
14.292585529
 20
8.429840202
 10
14.2509610232
 20
8.4314152142
 10
14.2100487016
 20
8.4361135021
 10
14.1705485853
 20
8.4438546767
 10
14.1331365322
 20
8.4545062842
 10
14.0984526729
 20
8.4678860728
 10
14.0670904579
 20
8.4837651106
 10
14.0395865034
 20
8.5018717028
  0
LWPOLYLINE
  5
47A
100
AcDbEntity
  8
0
100
AcDbPolyline
 62
7
  6
CONTINUOUS
 90
16
 70
0
 10
13.940571625
 20
7.6710042141
 10
13.9504825577
 20
7.6418481159
 10
13.9680385011
 20
7.6137963873
 10
13.9927117076
 20
7.5876812721
 10
14.0240878902
 20
7.5639282587
 10
14.0618067956
 20
7.542957231
 10
14.1047360887
 20
7.5255025184
 10
14.1514734931
 20
7.5120738041
 10
14.2014468018
 20
7.5027988761
 10
14.2532980497
 20
7.4979399829
 10
14.3061631027
 20
7.4975935004
 10
14.3585992424
 20
7.5017876828
 10
14.4095320507
 20
7.5104315808
 10
14.4579708872
 20
7.5233829718
 10
14.5030043607
 20
7.5404784689
 10
14.5431348913
 20
7.5611831253
  0
LWPOLYLINE
  5
47B
100
AcDbEntity
  8
0
100
AcDbPolyline
 62
7
  6
CONTINUOUS
 90
16
 70
0
 10
13.940436924
 20
7.7359652083
 10
13.9503601823
 20
7.7063954443
 10
13.9680078383
 20
7.6781272288
 10
13.9927480801
 20
7.6519404316
 10
14.0242455245
 20
7.6281176634
 10
14.0616095036
 20
7.6073428439
 10
14.1042482665
 20
7.5899621489
 10
14.1509224493
 20
7.5764951006
 10
14.2007066511
 20
7.5671935752
 10
14.2528747968
 20
7.5622527724
 10
14.3061301477
 20
7.5618838243
 10
14.3587074915
 20
7.5660926639
 10
14.4098310537
 20
7.574788129
 10
14.4582621394
 20
7.5877681038
 10
14.5030552232
 20
7.6047925889
 10
14.5431348913
 20
7.6254746542
  0
LWPOLYLINE
  5
47C
100
AcDbEntity
  8
0
100
AcDbPolyline
 62
7
  6
CONTINUOUS
 90
16
 70
0
 10
13.9404394049
 20
7.7038069283
 10
13.9501790684
 20
7.674630776
 10
13.96757293
 20
7.6465415712
 10
13.9921597857
 20
7.6203199343
 10
14.0237283802
 20
7.5963074689
 10
14.0613795722
 20
7.5753069089
 10
14.103837899
 20
7.5579582829
 10
14.1503967144
 20
7.5444737365
 10
14.2003147419
 20
7.5351028378
 10
14.2521415762
 20
7.5301445407
 10
14.3050018372
 20
7.5296978748
 10
14.3574728927
 20
7.5337946745
 10
14.4088788226
 20
7.5424359057
 10
14.4580016746
 20
7.5555386212
 10
14.5031705351
 20
7.5726980718
 10
14.5431348913
 20
7.5933288897
  0
LINE
  5
47D
100
AcDbEntity
  8
0
100
AcDbLine
 62
7
  6
CONTINUOUS
 10
14.05179961
 20
7.0162306708
 11
14.0467362497
 21
7.0387121937
  0
LINE
  5
47E
100
AcDbEntity
  8
0
100
AcDbLine
 62
7
  6
CONTINUOUS
 10
14.0517224873
 20
6.952143627
 11
14.0467109389
 21
6.9747679283
  0
LINE
  5
47F
100
AcDbEntity
  8
0
100
AcDbLine
 62
7
  6
CONTINUOUS
 10
13.940571625
 20
7.6404657379
 11
13.9382534926
 21
7.6632450164
  0
LINE
  5
480
100
AcDbEntity
  8
0
100
AcDbLine
 62
7
  6
CONTINUOUS
 10
13.9382534926
 20
7.6937834926
 11
13.940571625
 21
7.6710042141
  0
LINE
  5
481
100
AcDbEntity
  8
0
100
AcDbLine
 62
7
  6
CONTINUOUS
 10
13.940571625
 20
7.7690487957
 11
13.9382534926
 21
7.7918280742
  0
LINE
  5
482
100
AcDbEntity
  8
0
100
AcDbLine
 62
7
  6
CONTINUOUS
 10
13.9382534926
 20
7.8223665504
 11
13.940571625
 21
7.7995872719
  0
LINE
  5
483
100
AcDbEntity
  8
0
100
AcDbLine
 62
7
  6
CONTINUOUS
 10
13.940571625
 20
7.8976318535
 11
13.9382534926
 21
7.920411132
  0
LINE
  5
484
100
AcDbEntity
  8
0
100
AcDbLine
 62
7
  6
CONTINUOUS
 10
13.9382534926
 20
7.9509496083
 11
13.940571625
 21
7.9281703298
  0
LINE
  5
485
100
AcDbEntity
  8
0
100
AcDbLine
 62
7
  6
CONTINUOUS
 10
13.940571625
 20
8.0262149113
 11
13.9382534926
 21
8.0489941898
  0
LINE
  5
486
100
AcDbEntity
  8
0
100
AcDbLine
 62
7
  6
CONTINUOUS
 10
13.9382534926
 20
8.0795326661
 11
13.940571625
 21
8.0567533876
  0
LINE
  5
487
100
AcDbEntity
  8
0
100
AcDbLine
 62
7
  6
CONTINUOUS
 10
13.940571625
 20
8.1547979692
 11
13.9382534926
 21
8.1775772477
  0
LINE
  5
488
100
AcDbEntity
  8
0
100
AcDbLine
 62
7
  6
CONTINUOUS
 10
13.9382534926
 20
8.2081157239
 11
13.940571625
 21
8.1853364454
  0
LINE
  5
489
100
AcDbEntity
  8
0
100
AcDbLine
 62
7
  6
CONTINUOUS
 10
13.940571625
 20
8.283381027
 11
13.9382534926
 21
8.3061603055
  0
LINE
  5
48A
100
AcDbEntity
  8
0
100
AcDbLine
 62
7
  6
CONTINUOUS
 10
13.9382534926
 20
8.3366987817
 11
13.940571625
 21
8.3139195032
  0
LWPOLYLINE
  5
48B
100
AcDbEntity
  8
0
100
AcDbPolyline
 62
7
  6
CONTINUOUS
 90
17
 70
0
 10
13.9382534932
 20
7.6616468654
 10
13.940486859
 20
7.6392773683
 10
13.9503714799
 20
7.6099344787
 10
13.9678041293
 20
7.5819517
 10
13.9924536996
 20
7.5557655207
 10
14.023887099
 20
7.531912785
 10
14.0611956736
 20
7.5111033615
 10
14.1037883547
 20
7.4936839158
 10
14.1504724162
 20
7.4801642591
 10
14.2007682026
 20
7.4707476646
 10
14.2533128957
 20
7.4657934781
 10
14.3063203167
 20
7.4654535088
 10
14.3586973453
 20
7.4696541088
 10
14.4098216941
 20
7.4783487977
 10
14.4582563754
 20
7.491328956
 10
14.5030525881
 20
7.5083541249
 10
14.5431348913
 20
7.5290373608
  0
LINE
  5
48C
100
AcDbEntity
  8
0
100
AcDbLine
 62
7
  6
CONTINUOUS
 10
13.940486859
 20
7.7373219499
 11
13.9382534932
 21
7.759691447
  0
LINE
  5
48D
100
AcDbEntity
  8
0
100
AcDbLine
 62
7
  6
CONTINUOUS
 10
13.9382534932
 20
7.7902299232
 11
13.940486859
 21
7.7678604261
  0
LINE
  5
48E
100
AcDbEntity
  8
0
100
AcDbLine
 62
7
  6
CONTINUOUS
 10
13.940486859
 20
7.8659050077
 11
13.9382534932
 21
7.8882745048
  0
LINE
  5
48F
100
AcDbEntity
  8
0
100
AcDbLine
 62
7
  6
CONTINUOUS
 10
13.9382534932
 20
7.918812981
 11
13.940486859
 21
7.8964434839
  0
LINE
  5
490
100
AcDbEntity
  8
0
100
AcDbLine
 62
7
  6
CONTINUOUS
 10
13.940486859
 20
7.9944880655
 11
13.9382534932
 21
8.0168575626
  0
LINE
  5
491
100
AcDbEntity
  8
0
100
AcDbLine
 62
7
  6
CONTINUOUS
 10
13.9382534932
 20
8.0473960388
 11
13.940486859
 21
8.0250265418
  0
LINE
  5
492
100
AcDbEntity
  8
0
100
AcDbLine
 62
7
  6
CONTINUOUS
 10
13.940486859
 20
8.1230711233
 11
13.9382534932
 21
8.1454406204
  0
LINE
  5
493
100
AcDbEntity
  8
0
100
AcDbLine
 62
7
  6
CONTINUOUS
 10
13.9382534932
 20
8.1759790967
 11
13.940486859
 21
8.1536095996
  0
LINE
  5
494
100
AcDbEntity
  8
0
100
AcDbLine
 62
7
  6
CONTINUOUS
 10
13.940486859
 20
8.2516541812
 11
13.9382534932
 21
8.2740236782
  0
LINE
  5
495
100
AcDbEntity
  8
0
100
AcDbLine
 62
7
  6
CONTINUOUS
 10
13.9382534932
 20
8.3045621545
 11
13.940486859
 21
8.2821926574
  0
LINE
  5
496
100
AcDbEntity
  8
0
100
AcDbLine
 62
7
  6
CONTINUOUS
 10
13.940486859
 20
8.380237239
 11
13.9382534932
 21
8.4026067361
  0
LINE
  5
497
100
AcDbEntity
  8
0
100
AcDbLine
 62
7
  6
CONTINUOUS
 10
13.9382534932
 20
8.4331452123
 11
13.940486859
 21
8.4107757152
  0
LINE
  5
498
100
AcDbEntity
  8
0
100
AcDbLine
 62
7
  6
CONTINUOUS
 10
13.9404394049
 20
7.6732684521
 11
13.9382534926
 21
7.6953911077
  0
LINE
  5
499
100
AcDbEntity
  8
0
100
AcDbLine
 62
7
  6
CONTINUOUS
 10
13.9382534926
 20
7.725929584
 11
13.9404394049
 21
7.7038069283
  0
LINE
  5
49A
100
AcDbEntity
  8
0
100
AcDbLine
 62
7
  6
CONTINUOUS
 10
13.9404394049
 20
7.8018515099
 11
13.9382534926
 21
7.8239741655
  0
LINE
  5
49B
100
AcDbEntity
  8
0
100
AcDbLine
 62
7
  6
CONTINUOUS
 10
13.9382534926
 20
7.8545126418
 11
13.9404394049
 21
7.8323899861
  0
LINE
  5
49C
100
AcDbEntity
  8
0
100
AcDbLine
 62
7
  6
CONTINUOUS
 10
13.9404394049
 20
7.9304345677
 11
13.9382534926
 21
7.9525572234
  0
LINE
  5
49D
100
AcDbEntity
  8
0
100
AcDbLine
 62
7
  6
CONTINUOUS
 10
13.9382534926
 20
7.9830956996
 11
13.9404394049
 21
7.9609730439
  0
LINE
  5
49E
100
AcDbEntity
  8
0
100
AcDbLine
 62
7
  6
CONTINUOUS
 10
13.9404394049
 20
8.0590176255
 11
13.9382534926
 21
8.0811402812
  0
LINE
  5
49F
100
AcDbEntity
  8
0
100
AcDbLine
 62
7
  6
CONTINUOUS
 10
13.9382534926
 20
8.1116787574
 11
13.9404394049
 21
8.0895561018
  0
LINE
  5
4A0
100
AcDbEntity
  8
0
100
AcDbLine
 62
7
  6
CONTINUOUS
 10
13.9404394049
 20
8.1876006833
 11
13.9382534926
 21
8.209723339
  0
LINE
  5
4A1
100
AcDbEntity
  8
0
100
AcDbLine
 62
7
  6
CONTINUOUS
 10
13.9382534926
 20
8.2402618152
 11
13.9404394049
 21
8.2181391596
  0
LINE
  5
4A2
100
AcDbEntity
  8
0
100
AcDbLine
 62
7
  6
CONTINUOUS
 10
13.9404394049
 20
8.3161837412
 11
13.9382534926
 21
8.3383063968
  0
LINE
  5
4A3
100
AcDbEntity
  8
0
100
AcDbLine
 62
7
  6
CONTINUOUS
 10
13.9382534926
 20
8.368844873
 11
13.9404394049
 21
8.3467222174
  0
LINE
  5
4A4
100
AcDbEntity
  8
0
100
AcDbLine
 62
7
  6
CONTINUOUS
 10
13.940436924
 20
7.7054267321
 11
13.9382534944
 21
7.7275537903
  0
LINE
  5
4A5
100
AcDbEntity
  8
0
100
AcDbLine
 62
7
  6
CONTINUOUS
 10
13.9382534944
 20
7.7580922666
 11
13.940436924
 21
7.7359652083
  0
LINE
  5
4A6
100
AcDbEntity
  8
0
100
AcDbLine
 62
7
  6
CONTINUOUS
 10
13.940436924
 20
7.8340097899
 11
13.9382534944
 21
7.8561368481
  0
LINE
  5
4A7
100
AcDbEntity
  8
0
100
AcDbLine
 62
7
  6
CONTINUOUS
 10
13.9382534944
 20
7.8866753244
 11
13.940436924
 21
7.8645482661
  0
LINE
  5
4A8
100
AcDbEntity
  8
0
100
AcDbLine
 62
7
  6
CONTINUOUS
 10
13.940436924
 20
7.9625928477
 11
13.9382534944
 21
7.984719906
  0
LINE
  5
4A9
100
AcDbEntity
  8
0
100
AcDbLine
 62
7
  6
CONTINUOUS
 10
13.9382534944
 20
8.0152583822
 11
13.940436924
 21
7.993131324
  0
LINE
  5
4AA
100
AcDbEntity
  8
0
100
AcDbLine
 62
7
  6
CONTINUOUS
 10
13.940436924
 20
8.0911759055
 11
13.9382534944
 21
8.1133029638
  0
LINE
  5
4AB
100
AcDbEntity
  8
0
100
AcDbLine
 62
7
  6
CONTINUOUS
 10
13.9382534944
 20
8.14384144
 11
13.940436924
 21
8.1217143818
  0
LINE
  5
4AC
100
AcDbEntity
  8
0
100
AcDbLine
 62
7
  6
CONTINUOUS
 10
13.940436924
 20
8.2197589634
 11
13.9382534944
 21
8.2418860216
  0
LINE
  5
4AD
100
AcDbEntity
  8
0
100
AcDbLine
 62
7
  6
CONTINUOUS
 10
13.9382534944
 20
8.2724244978
 11
13.940436924
 21
8.2502974396
  0
LINE
  5
4AE
100
AcDbEntity
  8
0
100
AcDbLine
 62
7
  6
CONTINUOUS
 10
13.940436924
 20
8.3483420212
 11
13.9382534944
 21
8.3704690794
  0
LINE
  5
4AF
100
AcDbEntity
  8
0
100
AcDbLine
 62
7
  6
CONTINUOUS
 10
13.9382534944
 20
8.4010075556
 11
13.940436924
 21
8.3788804974
  0
LINE
  5
4B0
100
AcDbEntity
  8
02___PRT_ALL_AXES
100
AcDbLine
 62
7
  6
CONTINUOUS
 10
13.9677810516
 20
7.5819887441
 11
13.9677810516
 21
7.3249080523
  0
LINE
  5
4B1
100
AcDbEntity
  8
02___PRT_ALL_AXES
100
AcDbLine
 62
7
  6
CONTINUOUS
 10
13.9736865635
 20
8.6139532069
 11
13.9736865635
 21
8.7939694879
  0
LWPOLYLINE
  5
4B2
100
AcDbEntity
  8
0
100
AcDbPolyline
 62
7
  6
CONTINUOUS
 90
3
 70
0
 10
13.9382534926
 20
8.5633264211
 10
13.9384701801
 20
8.5702979171
 10
13.9400169991
 20
8.5782145495
  0
LWPOLYLINE
  5
4B3
100
AcDbEntity
  8
0
100
AcDbPolyline
 62
7
  6
CONTINUOUS
 90
3
 70
0
 10
13.9382534926
 20
8.4347433633
 10
13.9384701801
 20
8.4417148593
 10
13.9399046598
 20
8.4490565382
  0
LWPOLYLINE
  5
4B4
100
AcDbEntity
  8
0
100
AcDbPolyline
 62
7
  6
CONTINUOUS
 90
3
 70
0
 10
13.9382534926
 20
8.3061603055
 10
13.9384701801
 20
8.3131318015
 10
13.9399046598
 20
8.3204734804
  0
LWPOLYLINE
  5
4B5
100
AcDbEntity
  8
0
100
AcDbPolyline
 62
7
  6
CONTINUOUS
 90
3
 70
0
 10
13.9382534926
 20
8.1775772477
 10
13.9384701801
 20
8.1845487437
 10
13.9399046598
 20
8.1918904226
  0
LWPOLYLINE
  5
4B6
100
AcDbEntity
  8
0
100
AcDbPolyline
 62
7
  6
CONTINUOUS
 90
3
 70
0
 10
13.9382534926
 20
8.0489941898
 10
13.9384701801
 20
8.0559656859
 10
13.9399046598
 20
8.0633073647
  0
LWPOLYLINE
  5
4B7
100
AcDbEntity
  8
0
100
AcDbPolyline
 62
7
  6
CONTINUOUS
 90
3
 70
0
 10
13.9382534926
 20
7.920411132
 10
13.9384701801
 20
7.9273826281
 10
13.9399046598
 20
7.9347243069
  0
LWPOLYLINE
  5
4B8
100
AcDbEntity
  8
0
100
AcDbPolyline
 62
7
  6
CONTINUOUS
 90
3
 70
0
 10
13.9382534926
 20
7.7918280742
 10
13.9384701801
 20
7.7987995702
 10
13.9399046598
 20
7.8061412491
  0
LWPOLYLINE
  5
4B9
100
AcDbEntity
  8
0
100
AcDbPolyline
 62
7
  6
CONTINUOUS
 90
3
 70
0
 10
13.9382534926
 20
7.6632450164
 10
13.9384701801
 20
7.6702165124
 10
13.9399046598
 20
7.6775581913
  0
LWPOLYLINE
  5
4BA
100
AcDbEntity
  8
0
100
AcDbPolyline
 62
7
  6
CONTINUOUS
 90
3
 70
0
 10
13.9382534932
 20
8.5311897939
 10
13.9385118383
 20
8.5387928751
 10
13.9398703082
 20
8.5455341752
  0
LWPOLYLINE
  5
4BB
100
AcDbEntity
  8
0
100
AcDbPolyline
 62
7
  6
CONTINUOUS
 90
3
 70
0
 10
13.9382534926
 20
8.4668894546
 10
13.9385135367
 20
8.4745263259
 10
13.9398571428
 20
8.4811980935
  0
LWPOLYLINE
  5
4BC
100
AcDbEntity
  8
0
100
AcDbPolyline
 62
7
  6
CONTINUOUS
 90
3
 70
0
 10
13.9382534932
 20
8.4026067361
 10
13.9385118383
 20
8.4102098172
 10
13.9398703082
 20
8.4169511174
  0
LWPOLYLINE
  5
4BD
100
AcDbEntity
  8
0
100
AcDbPolyline
 62
7
  6
CONTINUOUS
 90
3
 70
0
 10
13.9382534926
 20
8.3383063968
 10
13.9385135367
 20
8.3459432681
 10
13.9398571428
 20
8.3526150357
  0
LWPOLYLINE
  5
4BE
100
AcDbEntity
  8
0
100
AcDbPolyline
 62
7
  6
CONTINUOUS
 90
3
 70
0
 10
13.9382534932
 20
8.2740236782
 10
13.9385118383
 20
8.2816267594
 10
13.9398703082
 20
8.2883680596
  0
LWPOLYLINE
  5
4BF
100
AcDbEntity
  8
0
100
AcDbPolyline
 62
7
  6
CONTINUOUS
 90
3
 70
0
 10
13.9382534926
 20
8.209723339
 10
13.9385135367
 20
8.2173602103
 10
13.9398571428
 20
8.2240319778
  0
LWPOLYLINE
  5
4C0
100
AcDbEntity
  8
0
100
AcDbPolyline
 62
7
  6
CONTINUOUS
 90
3
 70
0
 10
13.9382534932
 20
8.1454406204
 10
13.9385118383
 20
8.1530437016
 10
13.9398703082
 20
8.1597850018
  0
LWPOLYLINE
  5
4C1
100
AcDbEntity
  8
0
100
AcDbPolyline
 62
7
  6
CONTINUOUS
 90
3
 70
0
 10
13.9382534926
 20
8.0811402812
 10
13.9385135367
 20
8.0887771524
 10
13.9398571428
 20
8.09544892
  0
LWPOLYLINE
  5
4C2
100
AcDbEntity
  8
0
100
AcDbPolyline
 62
7
  6
CONTINUOUS
 90
3
 70
0
 10
13.9382534932
 20
8.0168575626
 10
13.9385118383
 20
8.0244606438
 10
13.9398703082
 20
8.031201944
  0
LWPOLYLINE
  5
4C3
100
AcDbEntity
  8
0
100
AcDbPolyline
 62
7
  6
CONTINUOUS
 90
3
 70
0
 10
13.9382534926
 20
7.9525572234
 10
13.9385135367
 20
7.9601940946
 10
13.9398571428
 20
7.9668658622
  0
LWPOLYLINE
  5
4C4
100
AcDbEntity
  8
0
100
AcDbPolyline
 62
7
  6
CONTINUOUS
 90
3
 70
0
 10
13.9382534932
 20
7.8882745048
 10
13.9385118383
 20
7.895877586
 10
13.9398703082
 20
7.9026188862
  0
LWPOLYLINE
  5
4C5
100
AcDbEntity
  8
0
100
AcDbPolyline
 62
7
  6
CONTINUOUS
 90
3
 70
0
 10
13.9382534926
 20
7.8239741655
 10
13.9385135367
 20
7.8316110368
 10
13.9398571428
 20
7.8382828044
  0
LWPOLYLINE
  5
4C6
100
AcDbEntity
  8
0
100
AcDbPolyline
 62
7
  6
CONTINUOUS
 90
3
 70
0
 10
13.9382534932
 20
7.759691447
 10
13.9385118383
 20
7.7672945282
 10
13.9398703082
 20
7.7740358283
  0
LWPOLYLINE
  5
4C7
100
AcDbEntity
  8
0
100
AcDbPolyline
 62
7
  6
CONTINUOUS
 90
3
 70
0
 10
13.9382534926
 20
7.6953911077
 10
13.9385135367
 20
7.703027979
 10
13.9398571428
 20
7.7096997466
  0
LWPOLYLINE
  5
4C8
100
AcDbEntity
  8
0
100
AcDbPolyline
 62
7
  6
CONTINUOUS
 90
3
 70
0
 10
13.9382534944
 20
8.4990521372
 10
13.9385204421
 20
8.5067728264
 10
13.939854026
 20
8.5133706927
  0
LWPOLYLINE
  5
4C9
100
AcDbEntity
  8
0
100
AcDbPolyline
 62
7
  6
CONTINUOUS
 90
3
 70
0
 10
13.9382534944
 20
8.3704690794
 10
13.9385204421
 20
8.3781897686
 10
13.939854026
 20
8.3847876349
  0
LWPOLYLINE
  5
4CA
100
AcDbEntity
  8
0
100
AcDbPolyline
 62
7
  6
CONTINUOUS
 90
3
 70
0
 10
13.9382534944
 20
8.2418860216
 10
13.9385204421
 20
8.2496067108
 10
13.939854026
 20
8.2562045771
  0
LWPOLYLINE
  5
4CB
100
AcDbEntity
  8
0
100
AcDbPolyline
 62
7
  6
CONTINUOUS
 90
3
 70
0
 10
13.9382534944
 20
8.1133029638
 10
13.9385204421
 20
8.121023653
 10
13.939854026
 20
8.1276215193
  0
LWPOLYLINE
  5
4CC
100
AcDbEntity
  8
0
100
AcDbPolyline
 62
7
  6
CONTINUOUS
 90
3
 70
0
 10
13.9382534944
 20
7.984719906
 10
13.9385204421
 20
7.9924405952
 10
13.939854026
 20
7.9990384615
  0
LWPOLYLINE
  5
4CD
100
AcDbEntity
  8
0
100
AcDbPolyline
 62
7
  6
CONTINUOUS
 90
3
 70
0
 10
13.9382534944
 20
7.8561368481
 10
13.9385204421
 20
7.8638575374
 10
13.939854026
 20
7.8704554037
  0
LWPOLYLINE
  5
4CE
100
AcDbEntity
  8
0
100
AcDbPolyline
 62
7
  6
CONTINUOUS
 90
3
 70
0
 10
13.9382534944
 20
7.7275537903
 10
13.9385204421
 20
7.7352744796
 10
13.939854026
 20
7.7418723458
  0
LWPOLYLINE
  5
4CF
100
AcDbEntity
  8
02___PRT_ALL_AXES
100
AcDbPolyline
 62
7
  6
CONTINUOUS
 90
7
 70
0
 10
14.5180798223
 20
8.4837661947
 10
14.5455835157
 20
8.5018729191
 10
14.5687583206
 20
8.5218973683
 10
14.5872077099
 20
8.5434969184
 10
14.6006160092
 20
8.5663019952
 10
14.6087537988
 20
8.5899223974
 10
14.611481839
 20
8.6139532091
  0
LWPOLYLINE
  5
4D0
100
AcDbEntity
  8
0
100
AcDbPolyline
 62
7
  6
CONTINUOUS
 90
16
 70
0
 10
14.5431348913
 20
8.4307260537
 10
14.5030043607
 20
8.4100213974
 10
14.4579708872
 20
8.3929259003
 10
14.4095320507
 20
8.3799745093
 10
14.3585992424
 20
8.3713306113
 10
14.3061631027
 20
8.3671364289
 10
14.2532980497
 20
8.3674829114
 10
14.2014468018
 20
8.3723418046
 10
14.1514734931
 20
8.3816167326
 10
14.1047360887
 20
8.3950454469
 10
14.0618067956
 20
8.4125001595
 10
14.0240878902
 20
8.4334711872
 10
13.9927117076
 20
8.4572242005
 10
13.9680385011
 20
8.4833393158
 10
13.9504825577
 20
8.5113910444
 10
13.940571625
 20
8.5405471426
  0
LWPOLYLINE
  5
4D1
100
AcDbEntity
  8
0
100
AcDbPolyline
 62
7
  6
CONTINUOUS
 90
16
 70
0
 10
14.5431348913
 20
8.3985802893
 10
14.5030525881
 20
8.3778970534
 10
14.4582563754
 20
8.3608718845
 10
14.4098216941
 20
8.3478917261
 10
14.3586973453
 20
8.3391970373
 10
14.3063203167
 20
8.3349964373
 10
14.2533128957
 20
8.3353364066
 10
14.2007682026
 20
8.3402905931
 10
14.1504724162
 20
8.3497071876
 10
14.1037883547
 20
8.3632268442
 10
14.0611956736
 20
8.38064629
 10
14.023887099
 20
8.4014557134
 10
13.9924536996
 20
8.4253084492
 10
13.9678041293
 20
8.4514946285
 10
13.9503714799
 20
8.4794774072
 10
13.940486859
 20
8.5088202968
  0
LWPOLYLINE
  5
4D2
100
AcDbEntity
  8
0
100
AcDbPolyline
 62
7
  6
CONTINUOUS
 90
16
 70
0
 10
13.940571625
 20
7.7995872719
 10
13.9504825577
 20
7.7704311737
 10
13.9680385011
 20
7.7423794451
 10
13.9927117076
 20
7.7162643299
 10
14.0240878902
 20
7.6925113165
 10
14.0618067956
 20
7.6715402889
 10
14.1047360887
 20
7.6540855762
 10
14.1514734931
 20
7.640656862
 10
14.2014468018
 20
7.6313819339
 10
14.2532980497
 20
7.6265230408
 10
14.3061631027
 20
7.6261765582
 10
14.3585992424
 20
7.6303707406
 10
14.4095320507
 20
7.6390146386
 10
14.4579708872
 20
7.6519660297
 10
14.5030043607
 20
7.6690615267
 10
14.5431348913
 20
7.6897661831
  0
LWPOLYLINE
  5
4D3
100
AcDbEntity
  8
0
100
AcDbPolyline
 62
7
  6
CONTINUOUS
 90
16
 70
0
 10
13.940571625
 20
7.9281703298
 10
13.9504825577
 20
7.8990142315
 10
13.9680385011
 20
7.870962503
 10
13.9927117076
 20
7.8448473877
 10
14.0240878902
 20
7.8210943743
 10
14.0618067956
 20
7.8001233467
 10
14.1047360887
 20
7.782668634
 10
14.1514734931
 20
7.7692399198
 10
14.2014468018
 20
7.7599649917
 10
14.2532980497
 20
7.7551060986
 10
14.3061631027
 20
7.754759616
 10
14.3585992424
 20
7.7589537984
 10
14.4095320507
 20
7.7675976964
 10
14.4579708872
 20
7.7805490875
 10
14.5030043607
 20
7.7976445845
 10
14.5431348913
 20
7.8183492409
  0
LWPOLYLINE
  5
4D4
100
AcDbEntity
  8
0
100
AcDbPolyline
 62
7
  6
CONTINUOUS
 90
16
 70
0
 10
13.940486859
 20
7.7678604261
 10
13.9503714799
 20
7.7385175365
 10
13.9678041293
 20
7.7105347578
 10
13.9924536996
 20
7.6843485785
 10
14.023887099
 20
7.6604958428
 10
14.0611956736
 20
7.6396864193
 10
14.1037883547
 20
7.6222669736
 10
14.1504724162
 20
7.608747317
 10
14.2007682026
 20
7.5993307225
 10
14.2533128957
 20
7.594376536
 10
14.3063203167
 20
7.5940365666
 10
14.3586973453
 20
7.5982371666
 10
14.4098216941
 20
7.6069318555
 10
14.4582563754
 20
7.6199120139
 10
14.5030525881
 20
7.6369371827
 10
14.5431348913
 20
7.6576204186
  0
LWPOLYLINE
  5
4D5
100
AcDbEntity
  8
0
100
AcDbPolyline
 62
7
  6
CONTINUOUS
 90
16
 70
0
 10
13.940486859
 20
7.8964434839
 10
13.9503714799
 20
7.8671005943
 10
13.9678041293
 20
7.8391178157
 10
13.9924536996
 20
7.8129316363
 10
14.023887099
 20
7.7890789006
 10
14.0611956736
 20
7.7682694771
 10
14.1037883547
 20
7.7508500314
 10
14.1504724162
 20
7.7373303748
 10
14.2007682026
 20
7.7279137803
 10
14.2533128957
 20
7.7229595938
 10
14.3063203167
 20
7.7226196244
 10
14.3586973453
 20
7.7268202244
 10
14.4098216941
 20
7.7355149133
 10
14.4582563754
 20
7.7484950717
 10
14.5030525881
 20
7.7655202405
 10
14.5431348913
 20
7.7862034764
  0
LWPOLYLINE
  5
4D6
100
AcDbEntity
  8
0
100
AcDbPolyline
 62
7
  6
CONTINUOUS
 90
16
 70
0
 10
13.940436924
 20
7.8645482661
 10
13.9503601823
 20
7.8349785021
 10
13.9680078383
 20
7.8067102866
 10
13.9927480801
 20
7.7805234894
 10
14.0242455245
 20
7.7567007212
 10
14.0616095036
 20
7.7359259017
 10
14.1042482665
 20
7.7185452067
 10
14.1509224493
 20
7.7050781584
 10
14.2007066511
 20
7.695776633
 10
14.2528747968
 20
7.6908358302
 10
14.3061301477
 20
7.6904668822
 10
14.3587074915
 20
7.6946757217
 10
14.4098310537
 20
7.7033711868
 10
14.4582621394
 20
7.7163511616
 10
14.5030552232
 20
7.7333756467
 10
14.5431348913
 20
7.754057712
  0
LWPOLYLINE
  5
4D7
100
AcDbEntity
  8
0
100
AcDbPolyline
 62
7
  6
CONTINUOUS
 90
16
 70
0
 10
13.940436924
 20
7.993131324
 10
13.9503601823
 20
7.9635615599
 10
13.9680078383
 20
7.9352933444
 10
13.9927480801
 20
7.9091065472
 10
14.0242455245
 20
7.885283779
 10
14.0616095036
 20
7.8645089595
 10
14.1042482665
 20
7.8471282645
 10
14.1509224493
 20
7.8336612162
 10
14.2007066511
 20
7.8243596908
 10
14.2528747968
 20
7.819418888
 10
14.3061301477
 20
7.81904994
 10
14.3587074915
 20
7.8232587795
 10
14.4098310537
 20
7.8319542446
 10
14.4582621394
 20
7.8449342194
 10
14.5030552232
 20
7.8619587045
 10
14.5431348913
 20
7.8826407698
  0
LWPOLYLINE
  5
4D8
100
AcDbEntity
  8
0
100
AcDbPolyline
 62
7
  6
CONTINUOUS
 90
16
 70
0
 10
13.9404394049
 20
7.8323899861
 10
13.9501790684
 20
7.8032138338
 10
13.96757293
 20
7.775124629
 10
13.9921597857
 20
7.7489029922
 10
14.0237283802
 20
7.7248905268
 10
14.0613795722
 20
7.7038899667
 10
14.103837899
 20
7.6865413407
 10
14.1503967144
 20
7.6730567943
 10
14.2003147419
 20
7.6636858957
 10
14.2521415762
 20
7.6587275985
 10
14.3050018372
 20
7.6582809327
 10
14.3574728927
 20
7.6623777323
 10
14.4088788226
 20
7.6710189635
 10
14.4580016746
 20
7.684121679
 10
14.5031705351
 20
7.7012811297
 10
14.5431348913
 20
7.7219119475
  0
LWPOLYLINE
  5
4D9
100
AcDbEntity
  8
0
100
AcDbPolyline
 62
7
  6
CONTINUOUS
 90
16
 70
0
 10
13.9404394049
 20
7.9609730439
 10
13.9501790684
 20
7.9317968916
 10
13.96757293
 20
7.9037076868
 10
13.9921597857
 20
7.87748605
 10
14.0237283802
 20
7.8534735846
 10
14.0613795722
 20
7.8324730246
 10
14.103837899
 20
7.8151243985
 10
14.1503967144
 20
7.8016398521
 10
14.2003147419
 20
7.7922689535
 10
14.2521415762
 20
7.7873106564
 10
14.3050018372
 20
7.7868639905
 10
14.3574728927
 20
7.7909607901
 10
14.4088788226
 20
7.7996020213
 10
14.4580016746
 20
7.8127047368
 10
14.5031705351
 20
7.8298641875
 10
14.5431348913
 20
7.8504950053
  0
LINE
  5
4DA
100
AcDbEntity
  8
0
100
AcDbLine
 62
7
  6
CONTINUOUS
 10
14.0495726686
 20
7.0550849903
 11
14.0465212091
 21
7.0765831685
  0
LWPOLYLINE
  5
4DB
100
AcDbEntity
  8
0
100
AcDbPolyline
 62
7
  6
CONTINUOUS
 90
16
 70
0
 10
14.0465212091
 20
7.1071216448
 10
14.0495726686
 20
7.0856234665
 10
14.0587550816
 20
7.0645034165
 10
14.0736126148
 20
7.0447413738
 10
14.0936663517
 20
7.0267180649
 10
14.1186128825
 20
7.0106735631
 10
14.1480102114
 20
6.9969884488
 10
14.1808050658
 20
6.9861860293
 10
14.2164656953
 20
6.9784535693
 10
14.2544780313
 20
6.9740127657
 10
14.2934589575
 20
6.9731134999
 10
14.3319367422
 20
6.9757447118
 10
14.3691712217
 20
6.9817702202
 10
14.4045304046
 20
6.9910642396
 10
14.4373654287
 20
7.0035069074
 10
14.466577736
 20
7.0187222183
  0
LINE
  5
4DC
100
AcDbEntity
  8
0
100
AcDbLine
 62
7
  6
CONTINUOUS
 10
14.0495595243
 20
6.9908395085
 11
14.0465212091
 21
7.0122904141
  0
LWPOLYLINE
  5
4DD
100
AcDbEntity
  8
0
100
AcDbPolyline
 62
7
  6
CONTINUOUS
 90
16
 70
0
 10
14.0465212091
 20
7.0428288904
 10
14.0495595243
 20
7.0213779847
 10
14.0585350523
 20
7.0005866954
 10
14.0731865978
 20
6.9809124463
 10
14.0932836509
 20
6.9627172818
 10
14.1186170887
 20
6.9463797301
 10
14.1483304839
 20
6.9325711113
 10
14.1812424723
 20
6.9217762491
 10
14.2166567034
 20
6.9141303926
 10
14.2538954095
 20
6.9097621136
 10
14.2921120644
 20
6.9087933301
 10
14.3303283348
 20
6.911272028
 10
14.3678267726
 20
6.9171975481
 10
14.4039201142
 20
6.926579082
 10
14.4372355641
 20
6.939157518
 10
14.466577736
 20
6.9544306893
  0
LINE
  5
4DE
100
AcDbEntity
  8
0
100
AcDbLine
 62
7
  6
CONTINUOUS
 10
14.049554054
 20
7.1194417596
 11
14.0465212091
 21
7.1408736116
  0
LWPOLYLINE
  5
4DF
100
AcDbEntity
  8
0
100
AcDbPolyline
 62
7
  6
CONTINUOUS
 90
16
 70
0
 10
14.0483957895
 20
7.1581652088
 10
14.049554054
 20
7.1499802359
 10
14.058612701
 20
7.1290370619
 10
14.0733213517
 20
7.1093487027
 10
14.0934195641
 20
7.0911968951
 10
14.1187315735
 20
7.0749001187
 10
14.1484034735
 20
7.0611255596
 10
14.1812600915
 20
7.0503545567
 10
14.2164947433
 20
7.0427402789
 10
14.2538241328
 20
7.0383502286
 10
14.2923306209
 20
7.037380746
 10
14.3306005411
 20
7.0398852992
 10
14.3680287364
 20
7.0458225216
 10
14.4040470179
 20
7.0552022997
 10
14.437292792
 20
7.067766064
 10
14.466577736
 20
7.0830137472
  0
LINE
  5
4E0
100
AcDbEntity
  8
0
100
AcDbLine
 62
7
  6
CONTINUOUS
 10
14.0465212091
 20
6.9479989431
 11
14.0495463143
 21
6.926594359
  0
LWPOLYLINE
  5
4E1
100
AcDbEntity
  8
0
100
AcDbPolyline
 62
7
  6
CONTINUOUS
 90
16
 70
0
 10
14.0465212092
 20
6.9785399305
 10
14.0495156304
 20
6.9572409648
 10
14.058656085
 20
6.9360885386
 10
14.0734900836
 20
6.9162909203
 10
14.0936047386
 20
6.8981817048
 10
14.1186073786
 20
6.8820935203
 10
14.1477641506
 20
6.8685023499
 10
14.1804660575
 20
6.8576950507
 10
14.2161382352
 20
6.8499249968
 10
14.254179499
 20
6.8454505503
 10
14.293202705
 20
6.8445246651
 10
14.3317291227
 20
6.8471379135
 10
14.3691247893
 20
6.8531773696
 10
14.4047564904
 20
6.8625532317
 10
14.4374318308
 20
6.8749534642
 10
14.466577736
 20
6.8901391604
  0
LINE
  5
4E2
100
AcDbEntity
  8
0
100
AcDbLine
 62
7
  6
CONTINUOUS
 10
14.0494792861
 20
7.0875601206
 11
14.0465212092
 21
7.1087307501
  0
LWPOLYLINE
  5
4E3
100
AcDbEntity
  8
0
100
AcDbPolyline
 62
7
  6
CONTINUOUS
 90
16
 70
0
 10
14.0465212092
 20
7.1392692263
 10
14.0494792861
 20
7.1180985969
 10
14.0585583596
 20
7.0969841111
 10
14.0733125007
 20
7.0772125669
 10
14.0933877585
 20
7.0590753195
 10
14.1185119872
 20
7.0428746308
 10
14.1477688448
 20
7.02922932
 10
14.1803075624
 20
7.0184670513
 10
14.2158864767
 20
7.0106959056
 10
14.2538338929
 20
7.006203771
 10
14.2927719946
 20
7.0052441246
 10
14.3312295569
 20
7.0078100455
 10
14.3686580392
 20
7.0138080829
 10
14.4045233985
 20
7.0232077741
 10
14.4374993796
 20
7.0357124331
 10
14.466577736
 20
7.0508679827
  0
LINE
  5
4E4
100
AcDbEntity
  8
0
100
AcDbLine
 62
7
  6
CONTINUOUS
 10
13.940571625
 20
8.4119640848
 11
13.9382534926
 21
8.4347433633
  0
LINE
  5
4E5
100
AcDbEntity
  8
0
100
AcDbLine
 62
7
  6
CONTINUOUS
 10
13.9382534926
 20
8.4652818395
 11
13.940571625
 21
8.442502561
  0
LINE
  5
4E6
100
AcDbEntity
  8
0
100
AcDbLine
 62
7
  6
CONTINUOUS
 10
13.940571625
 20
8.5405471426
 11
13.9382534926
 21
8.5633264211
  0
LINE
  5
4E7
100
AcDbEntity
  8
0
100
AcDbLine
 62
7
  6
CONTINUOUS
 10
13.940486859
 20
8.5088202968
 11
13.9382534932
 21
8.5311897939
  0
LINE
  5
4E8
100
AcDbEntity
  8
0
100
AcDbLine
 62
7
  6
CONTINUOUS
 10
13.9382534932
 20
8.5617282701
 11
13.940486859
 21
8.539358773
  0
LINE
  5
4E9
100
AcDbEntity
  8
0
100
AcDbLine
 62
7
  6
CONTINUOUS
 10
13.9404394049
 20
8.444766799
 11
13.9382534926
 21
8.4668894546
  0
LINE
  5
4EA
100
AcDbEntity
  8
0
100
AcDbLine
 62
7
  6
CONTINUOUS
 10
13.9382534926
 20
8.4974279309
 11
13.9404394049
 21
8.4753052752
  0
LINE
  5
4EB
100
AcDbEntity
  8
0
100
AcDbLine
 62
7
  6
CONTINUOUS
 10
13.940436924
 20
8.476925079
 11
13.9382534944
 21
8.4990521372
  0
LINE
  5
4EC
100
AcDbEntity
  8
0
100
AcDbLine
 62
7
  6
CONTINUOUS
 10
13.9382534944
 20
8.5295906135
 11
13.940436924
 21
8.5074635552
  0
LWPOLYLINE
  5
4ED
100
AcDbEntity
  8
0
100
AcDbPolyline
 62
9
  6
CONTINUOUS
 90
18
 70
0
 10
13.9736865635
 20
8.7939694879
 10
13.9744991651
 20
8.7808343143
 10
13.9809747288
 20
8.7548325119
 10
13.993793596
 20
8.729627893
 10
14.0126950147
 20
8.7057329142
 10
14.0372943056
 20
8.6836340473
 10
14.0670905074
 20
8.663781363
 10
14.1014771173
 20
8.6465789382
 10
14.139754241
 20
8.6323769274
 10
14.1811423196
 20
8.6214645528
 10
14.2247987333
 20
8.6140639039
 10
14.2698358655
 20
8.6103255173
 10
14.3153367163
 20
8.6103256899
 10
14.3603724323
 20
8.6140642509
 10
14.4040278918
 20
8.6214649423
 10
14.4454171485
 20
8.632377869
 10
14.4836900319
 20
8.6465783965
 10
14.5180798223
 20
8.6637824756
  0
LWPOLYLINE
  5
4EE
100
AcDbEntity
  8
0
100
AcDbPolyline
 62
7
  6
CONTINUOUS
 90
16
 70
0
 10
14.0465212115
 20
6.9464106815
 10
14.0467418935
 20
6.9405930185
 10
14.0518908995
 20
6.9179460295
 10
14.063664716
 20
6.8962146213
 10
14.0814222391
 20
6.8762180101
 10
14.1050111568
 20
6.8580463647
 10
14.1339598105
 20
6.8422402023
 10
14.1671161843
 20
6.8294838081
 10
14.2033453693
 20
6.8201386086
 10
14.242519853
 20
6.8142888609
 10
14.2832455576
 20
6.8122737239
 10
14.32384305
 20
6.8141682633
 10
14.3630682553
 20
6.8198049032
 10
14.4007733698
 20
6.8291631695
 10
14.4357470877
 20
6.8420624659
 10
14.466577736
 20
6.857993396
  0
LINE
  5
4EF
100
AcDbEntity
  8
0
100
AcDbLine
 62
7
  6
CONTINUOUS
 10
14.0467362497
 20
7.0387121937
 11
14.0465212098
 21
7.0444465783
  0
LWPOLYLINE
  5
4F0
100
AcDbEntity
  8
0
100
AcDbPolyline
 62
7
  6
CONTINUOUS
 90
16
 70
0
 10
14.0465212098
 20
7.0749850545
 10
14.0467362497
 20
7.06925067
 10
14.05179961
 20
7.046769147
 10
14.0633321312
 20
7.0252685026
 10
14.0809161254
 20
7.0052711787
 10
14.104530574
 20
6.9869417491
 10
14.133520301
 20
6.9710257764
 10
14.1666975876
 20
6.9582003174
 10
14.202882635
 20
6.9488156156
 10
14.2419325007
 20
6.9429303422
 10
14.2824625297
 20
6.9408583788
 10
14.3228058927
 20
6.9426541889
 10
14.3622905866
 20
6.9482376645
 10
14.4004355798
 20
6.9576431252
 10
14.4356654791
 20
6.9706097476
 10
14.466577736
 20
6.9865764538
  0
LINE
  5
4F1
100
AcDbEntity
  8
0
100
AcDbLine
 62
7
  6
CONTINUOUS
 10
14.0467109389
 20
6.9747679283
 11
14.0465212118
 21
6.9801648576
  0
LWPOLYLINE
  5
4F2
100
AcDbEntity
  8
0
100
AcDbPolyline
 62
7
  6
CONTINUOUS
 90
16
 70
0
 10
14.0465212118
 20
7.0107033338
 10
14.0467109389
 20
7.0053064046
 10
14.0517224873
 20
6.9826821032
 10
14.0633495208
 20
6.9609522278
 10
14.0809947691
 20
6.9409063144
 10
14.1045943862
 20
6.9226086365
 10
14.1335523946
 20
6.9067194258
 10
14.166685132
 20
6.8939127692
 10
14.2027976001
 20
6.8845414181
 10
14.2418335572
 20
6.8786487395
 10
14.2824584364
 20
6.876566862
 10
14.3230019001
 20
6.8783808176
 10
14.3624527537
 20
6.8839773426
 10
14.4005379339
 20
6.8933827978
 10
14.4357115584
 20
6.9063384156
 10
14.466577736
 20
6.9222849249
  0
LWPOLYLINE
  5
4F3
100
AcDbEntity
  8
0
100
AcDbPolyline
 62
7
  6
CONTINUOUS
 90
6
 70
0
 10
14.5431348913
 20
8.4291187655
 10
14.5777199784
 20
8.4530925014
 10
14.6061703259
 20
8.4800693661
 10
14.627429752
 20
8.5091808994
 10
14.6409418141
 20
8.5394447931
 10
14.6425415047
 20
8.5480593696
  0
LWPOLYLINE
  5
4F4
100
AcDbEntity
  8
0
100
AcDbPolyline
 62
7
  6
CONTINUOUS
 90
6
 70
0
 10
14.5431348913
 20
8.3648272366
 10
14.5775477325
 20
8.3886621016
 10
14.605661638
 20
8.4152059127
 10
14.6268113989
 20
8.4438394819
 10
14.6405831812
 20
8.4740286638
 10
14.6424819187
 20
8.4837888707
  0
LWPOLYLINE
  5
4F5
100
AcDbEntity
  8
0
100
AcDbPolyline
 62
7
  6
CONTINUOUS
 90
5
 70
0
 10
14.5431348913
 20
8.3969730011
 10
14.5761984741
 20
8.4197281109
 10
14.6034931476
 20
8.4449598274
 10
14.6245523477
 20
8.4722922667
 10
14.6388356157
 20
8.5011128422
  0
LWPOLYLINE
  5
4F6
100
AcDbEntity
  8
0
100
AcDbPolyline
 62
7
  6
CONTINUOUS
 90
16
 70
0
 10
14.5431348913
 20
8.3342887604
 10
14.5031705351
 20
8.3136579425
 10
14.4580016746
 20
8.2964984919
 10
14.4088788226
 20
8.2833957763
 10
14.3574728927
 20
8.2747545452
 10
14.3050018372
 20
8.2706577455
 10
14.2521415762
 20
8.2711044114
 10
14.2003147419
 20
8.2760627085
 10
14.1503967144
 20
8.2854336071
 10
14.103837899
 20
8.2989181535
 10
14.0613795722
 20
8.3162667796
 10
14.0237283802
 20
8.3372673396
 10
13.9921597857
 20
8.361279805
 10
13.96757293
 20
8.3875014419
 10
13.9501790684
 20
8.4155906467
 10
13.9404394049
 20
8.444766799
  0
LWPOLYLINE
  5
4F7
100
AcDbEntity
  8
0
100
AcDbPolyline
 62
7
  6
CONTINUOUS
 90
16
 70
0
 10
14.5431348913
 20
8.3664345248
 10
14.5030552232
 20
8.3457524596
 10
14.4582621394
 20
8.3287279745
 10
14.4098310537
 20
8.3157479996
 10
14.3587074915
 20
8.3070525346
 10
14.3061301477
 20
8.302843695
 10
14.2528747968
 20
8.3032126431
 10
14.2007066511
 20
8.3081534459
 10
14.1509224493
 20
8.3174549712
 10
14.1042482665
 20
8.3309220196
 10
14.0616095036
 20
8.3483027146
 10
14.0242455245
 20
8.3690775341
 10
13.9927480801
 20
8.3929003022
 10
13.9680078383
 20
8.4190870994
 10
13.9503601823
 20
8.4473553149
 10
13.940436924
 20
8.476925079
  0
LWPOLYLINE
  5
4F8
100
AcDbEntity
  8
0
100
AcDbPolyline
 62
7
  6
CONTINUOUS
 90
16
 70
0
 10
14.5431348913
 20
8.3021429959
 10
14.5030043607
 20
8.2814383395
 10
14.4579708872
 20
8.2643428425
 10
14.4095320507
 20
8.2513914514
 10
14.3585992424
 20
8.2427475535
 10
14.3061631027
 20
8.2385533711
 10
14.2532980497
 20
8.2388998536
 10
14.2014468018
 20
8.2437587467
 10
14.1514734931
 20
8.2530336748
 10
14.1047360887
 20
8.2664623891
 10
14.0618067956
 20
8.2839171017
 10
14.0240878902
 20
8.3048881294
 10
13.9927117076
 20
8.3286411427
 10
13.9680385011
 20
8.354756258
 10
13.9504825577
 20
8.3828079865
 10
13.940571625
 20
8.4119640848
  0
LWPOLYLINE
  5
4F9
100
AcDbEntity
  8
0
100
AcDbPolyline
 62
7
  6
CONTINUOUS
 90
16
 70
0
 10
13.940571625
 20
8.0567533876
 10
13.9504825577
 20
8.0275972893
 10
13.9680385011
 20
7.9995455608
 10
13.9927117076
 20
7.9734304455
 10
14.0240878902
 20
7.9496774321
 10
14.0618067956
 20
7.9287064045
 10
14.1047360887
 20
7.9112516918
 10
14.1514734931
 20
7.8978229776
 10
14.2014468018
 20
7.8885480495
 10
14.2532980497
 20
7.8836891564
 10
14.3061631027
 20
7.8833426739
 10
14.3585992424
 20
7.8875368563
 10
14.4095320507
 20
7.8961807542
 10
14.4579708872
 20
7.9091321453
 10
14.5030043607
 20
7.9262276423
 10
14.5431348913
 20
7.9469322987
  0
LWPOLYLINE
  5
4FA
100
AcDbEntity
  8
0
100
AcDbPolyline
 62
7
  6
CONTINUOUS
 90
16
 70
0
 10
13.940571625
 20
8.1853364454
 10
13.9504825577
 20
8.1561803471
 10
13.9680385011
 20
8.1281286186
 10
13.9927117076
 20
8.1020135033
 10
14.0240878902
 20
8.07826049
 10
14.0618067956
 20
8.0572894623
 10
14.1047360887
 20
8.0398347497
 10
14.1514734931
 20
8.0264060354
 10
14.2014468018
 20
8.0171311073
 10
14.2532980497
 20
8.0122722142
 10
14.3061631027
 20
8.0119257317
 10
14.3585992424
 20
8.0161199141
 10
14.4095320507
 20
8.024763812
 10
14.4579708872
 20
8.0377152031
 10
14.5030043607
 20
8.0548107001
 10
14.5431348913
 20
8.0755153565
  0
LWPOLYLINE
  5
4FB
100
AcDbEntity
  8
0
100
AcDbPolyline
 62
7
  6
CONTINUOUS
 90
16
 70
0
 10
13.940486859
 20
8.0250265418
 10
13.9503714799
 20
7.9956836521
 10
13.9678041293
 20
7.9677008735
 10
13.9924536996
 20
7.9415146941
 10
14.023887099
 20
7.9176619584
 10
14.0611956736
 20
7.896852535
 10
14.1037883547
 20
7.8794330892
 10
14.1504724162
 20
7.8659134326
 10
14.2007682026
 20
7.8564968381
 10
14.2533128957
 20
7.8515426516
 10
14.3063203167
 20
7.8512026822
 10
14.3586973453
 20
7.8554032823
 10
14.4098216941
 20
7.8640979711
 10
14.4582563754
 20
7.8770781295
 10
14.5030525881
 20
7.8941032984
 10
14.5431348913
 20
7.9147865342
  0
LWPOLYLINE
  5
4FC
100
AcDbEntity
  8
0
100
AcDbPolyline
 62
7
  6
CONTINUOUS
 90
16
 70
0
 10
13.940486859
 20
8.1536095996
 10
13.9503714799
 20
8.1242667099
 10
13.9678041293
 20
8.0962839313
 10
13.9924536996
 20
8.0700977519
 10
14.023887099
 20
8.0462450162
 10
14.0611956736
 20
8.0254355928
 10
14.1037883547
 20
8.008016147
 10
14.1504724162
 20
7.9944964904
 10
14.2007682026
 20
7.9850798959
 10
14.2533128957
 20
7.9801257094
 10
14.3063203167
 20
7.9797857401
 10
14.3586973453
 20
7.9839863401
 10
14.4098216941
 20
7.9926810289
 10
14.4582563754
 20
8.0056611873
 10
14.5030525881
 20
8.0226863562
 10
14.5431348913
 20
8.0433695921
  0
LWPOLYLINE
  5
4FD
100
AcDbEntity
  8
0
100
AcDbPolyline
 62
7
  6
CONTINUOUS
 90
16
 70
0
 10
13.940436924
 20
8.1217143818
 10
13.9503601823
 20
8.0921446177
 10
13.9680078383
 20
8.0638764022
 10
13.9927480801
 20
8.037689605
 10
14.0242455245
 20
8.0138668368
 10
14.0616095036
 20
7.9930920174
 10
14.1042482665
 20
7.9757113223
 10
14.1509224493
 20
7.962244274
 10
14.2007066511
 20
7.9529427487
 10
14.2528747968
 20
7.9480019459
 10
14.3061301477
 20
7.9476329978
 10
14.3587074915
 20
7.9518418373
 10
14.4098310537
 20
7.9605373024
 10
14.4582621394
 20
7.9735172772
 10
14.5030552232
 20
7.9905417623
 10
14.5431348913
 20
8.0112238276
  0
LWPOLYLINE
  5
4FE
100
AcDbEntity
  8
0
100
AcDbPolyline
 62
7
  6
CONTINUOUS
 90
16
 70
0
 10
13.940436924
 20
8.2502974396
 10
13.9503601823
 20
8.2207276755
 10
13.9680078383
 20
8.19245946
 10
13.9927480801
 20
8.1662726628
 10
14.0242455245
 20
8.1424498947
 10
14.0616095036
 20
8.1216750752
 10
14.1042482665
 20
8.1042943802
 10
14.1509224493
 20
8.0908273318
 10
14.2007066511
 20
8.0815258065
 10
14.2528747968
 20
8.0765850037
 10
14.3061301477
 20
8.0762160556
 10
14.3587074915
 20
8.0804248952
 10
14.4098310537
 20
8.0891203602
 10
14.4582621394
 20
8.1021003351
 10
14.5030552232
 20
8.1191248202
 10
14.5431348913
 20
8.1398068854
  0
LWPOLYLINE
  5
4FF
100
AcDbEntity
  8
0
100
AcDbPolyline
 62
7
  6
CONTINUOUS
 90
16
 70
0
 10
13.9404394049
 20
8.0895561018
 10
13.9501790684
 20
8.0603799494
 10
13.96757293
 20
8.0322907447
 10
13.9921597857
 20
8.0060691078
 10
14.0237283802
 20
7.9820566424
 10
14.0613795722
 20
7.9610560824
 10
14.103837899
 20
7.9437074563
 10
14.1503967144
 20
7.9302229099
 10
14.2003147419
 20
7.9208520113
 10
14.2521415762
 20
7.9158937142
 10
14.3050018372
 20
7.9154470483
 10
14.3574728927
 20
7.919543848
 10
14.4088788226
 20
7.9281850791
 10
14.4580016746
 20
7.9412877946
 10
14.5031705351
 20
7.9584472453
 10
14.5431348913
 20
7.9790780632
  0
LWPOLYLINE
  5
500
100
AcDbEntity
  8
0
100
AcDbPolyline
 62
7
  6
CONTINUOUS
 90
16
 70
0
 10
13.9404394049
 20
8.2181391596
 10
13.9501790684
 20
8.1889630073
 10
13.96757293
 20
8.1608738025
 10
13.9921597857
 20
8.1346521656
 10
14.0237283802
 20
8.1106397002
 10
14.0613795722
 20
8.0896391402
 10
14.103837899
 20
8.0722905141
 10
14.1503967144
 20
8.0588059677
 10
14.2003147419
 20
8.0494350691
 10
14.2521415762
 20
8.044476772
 10
14.3050018372
 20
8.0440301061
 10
14.3574728927
 20
8.0481269058
 10
14.4088788226
 20
8.0567681369
 10
14.4580016746
 20
8.0698708525
 10
14.5031705351
 20
8.0870303031
 10
14.5431348913
 20
8.107661121
  0
LWPOLYLINE
  5
501
100
AcDbEntity
  8
0
100
AcDbPolyline
 62
7
  6
CONTINUOUS
 90
20
 70
0
 10
13.9382534926
 20
8.5954693816
 10
13.9410006496
 20
8.5706824567
 10
13.9516899207
 20
8.5410823561
 10
13.9702057992
 20
8.5127631483
 10
13.99612305
 20
8.48639312
 10
14.02884737
 20
8.4625950035
 10
14.0676269845
 20
8.4419335397
 10
14.1115706931
 20
8.4249011924
 10
14.1596701603
 20
8.4119064331
 10
14.210821595
 20
8.4032653308
 10
14.263850023
 20
8.3991942236
 10
14.3175384141
 20
8.3998043682
 10
14.3706538036
 20
8.4050995914
 10
14.4219774657
 20
8.4149762966
 10
14.4703307802
 20
8.4292256631
 10
14.5146026446
 20
8.4475380878
 10
14.5537758336
 20
8.4695102721
 10
14.5869499991
 20
8.4946538897
 10
14.6133673216
 20
8.5224114923
 10
14.6324211455
 20
8.5521635614
  0
LWPOLYLINE
  5
502
100
AcDbEntity
  8
0
100
AcDbPolyline
 62
7
  6
CONTINUOUS
 90
3
 70
0
 10
14.0465212098
 20
7.0444465783
 10
14.048381547
 20
7.0612426392
 10
14.0484803614
 20
7.061506744
  0
LWPOLYLINE
  5
503
100
AcDbEntity
  8
0
100
AcDbPolyline
 62
7
  6
CONTINUOUS
 90
6
 70
0
 10
14.5431348913
 20
8.3005357077
 10
14.5777199784
 20
8.3245094436
 10
14.6061703259
 20
8.3514863083
 10
14.627429752
 20
8.3805978416
 10
14.6409418141
 20
8.4108617353
 10
14.6425415047
 20
8.4194763118
  0
LWPOLYLINE
  5
504
100
AcDbEntity
  8
0
100
AcDbPolyline
 62
7
  6
CONTINUOUS
 90
6
 70
0
 10
14.5431348913
 20
8.3326814721
 10
14.5776748093
 20
8.3566187684
 10
14.6058608298
 20
8.3832835982
 10
14.6270240234
 20
8.4120527227
 10
14.6407420705
 20
8.4423770023
 10
14.64250807
 20
8.4516498776
  0
LWPOLYLINE
  5
505
100
AcDbEntity
  8
0
100
AcDbPolyline
 62
7
  6
CONTINUOUS
 90
5
 70
0
 10
14.5431348913
 20
8.2683899432
 10
14.5761984741
 20
8.2911450531
 10
14.6034931476
 20
8.3163767696
 10
14.6245523477
 20
8.3437092089
 10
14.6388356157
 20
8.3725297843
  0
LWPOLYLINE
  5
506
100
AcDbEntity
  8
0
100
AcDbPolyline
 62
7
  6
CONTINUOUS
 90
16
 70
0
 10
14.5431348913
 20
8.2057057026
 10
14.5031705351
 20
8.1850748847
 10
14.4580016746
 20
8.167915434
 10
14.4088788226
 20
8.1548127185
 10
14.3574728927
 20
8.1461714874
 10
14.3050018372
 20
8.1420746877
 10
14.2521415762
 20
8.1425213536
 10
14.2003147419
 20
8.1474796507
 10
14.1503967144
 20
8.1568505493
 10
14.103837899
 20
8.1703350957
 10
14.0613795722
 20
8.1876837218
 10
14.0237283802
 20
8.2086842818
 10
13.9921597857
 20
8.2326967472
 10
13.96757293
 20
8.2589183841
 10
13.9501790684
 20
8.2870075888
 10
13.9404394049
 20
8.3161837412
  0
LWPOLYLINE
  5
507
100
AcDbEntity
  8
0
100
AcDbPolyline
 62
7
  6
CONTINUOUS
 90
16
 70
0
 10
14.5431348913
 20
8.2699972315
 10
14.5030525881
 20
8.2493139956
 10
14.4582563754
 20
8.2322888267
 10
14.4098216941
 20
8.2193086683
 10
14.3586973453
 20
8.2106139795
 10
14.3063203167
 20
8.2064133795
 10
14.2533128957
 20
8.2067533488
 10
14.2007682026
 20
8.2117075353
 10
14.1504724162
 20
8.2211241298
 10
14.1037883547
 20
8.2346437864
 10
14.0611956736
 20
8.2520632322
 10
14.023887099
 20
8.2728726556
 10
13.9924536996
 20
8.2967253913
 10
13.9678041293
 20
8.3229115707
 10
13.9503714799
 20
8.3508943493
 10
13.940486859
 20
8.380237239
  0
LWPOLYLINE
  5
508
100
AcDbEntity
  8
0
100
AcDbPolyline
 62
7
  6
CONTINUOUS
 90
16
 70
0
 10
14.5431348913
 20
8.237851467
 10
14.5030552232
 20
8.2171694017
 10
14.4582621394
 20
8.2001449166
 10
14.4098310537
 20
8.1871649418
 10
14.3587074915
 20
8.1784694767
 10
14.3061301477
 20
8.1742606372
 10
14.2528747968
 20
8.1746295853
 10
14.2007066511
 20
8.1795703881
 10
14.1509224493
 20
8.1888719134
 10
14.1042482665
 20
8.2023389617
 10
14.0616095036
 20
8.2197196568
 10
14.0242455245
 20
8.2404944762
 10
13.9927480801
 20
8.2643172444
 10
13.9680078383
 20
8.2905040416
 10
13.9503601823
 20
8.3187722571
 10
13.940436924
 20
8.3483420212
  0
LWPOLYLINE
  5
509
100
AcDbEntity
  8
0
100
AcDbPolyline
 62
7
  6
CONTINUOUS
 90
16
 70
0
 10
13.940571625
 20
8.3139195032
 10
13.9504825577
 20
8.284763405
 10
13.9680385011
 20
8.2567116764
 10
13.9927117076
 20
8.2305965611
 10
14.0240878902
 20
8.2068435478
 10
14.0618067956
 20
8.1858725201
 10
14.1047360887
 20
8.1684178075
 10
14.1514734931
 20
8.1549890932
 10
14.2014468018
 20
8.1457141652
 10
14.2532980497
 20
8.140855272
 10
14.3061631027
 20
8.1405087895
 10
14.3585992424
 20
8.1447029719
 10
14.4095320507
 20
8.1533468699
 10
14.4579708872
 20
8.1662982609
 10
14.5030043607
 20
8.183393758
 10
14.5431348913
 20
8.2040984143
  0
LWPOLYLINE
  5
50A
100
AcDbEntity
  8
0
100
AcDbPolyline
 62
7
  6
CONTINUOUS
 90
16
 70
0
 10
13.940571625
 20
8.442502561
 10
13.9504825577
 20
8.4133464628
 10
13.9680385011
 20
8.3852947342
 10
13.9927117076
 20
8.3591796189
 10
14.0240878902
 20
8.3354266056
 10
14.0618067956
 20
8.3144555779
 10
14.1047360887
 20
8.2970008653
 10
14.1514734931
 20
8.283572151
 10
14.2014468018
 20
8.274297223
 10
14.2532980497
 20
8.2694383298
 10
14.3061631027
 20
8.2690918473
 10
14.3585992424
 20
8.2732860297
 10
14.4095320507
 20
8.2819299277
 10
14.4579708872
 20
8.2948813187
 10
14.5030043607
 20
8.3119768158
 10
14.5431348913
 20
8.3326814721
  0
LWPOLYLINE
  5
50B
100
AcDbEntity
  8
0
100
AcDbPolyline
 62
7
  6
CONTINUOUS
 90
16
 70
0
 10
13.940486859
 20
8.2821926574
 10
13.9503714799
 20
8.2528497678
 10
13.9678041293
 20
8.2248669891
 10
13.9924536996
 20
8.1986808098
 10
14.023887099
 20
8.174828074
 10
14.0611956736
 20
8.1540186506
 10
14.1037883547
 20
8.1365992048
 10
14.1504724162
 20
8.1230795482
 10
14.2007682026
 20
8.1136629537
 10
14.2533128957
 20
8.1087087672
 10
14.3063203167
 20
8.1083687979
 10
14.3586973453
 20
8.1125693979
 10
14.4098216941
 20
8.1212640867
 10
14.4582563754
 20
8.1342442451
 10
14.5030525881
 20
8.151269414
 10
14.5431348913
 20
8.1719526499
  0
LWPOLYLINE
  5
50C
100
AcDbEntity
  8
0
100
AcDbPolyline
 62
7
  6
CONTINUOUS
 90
16
 70
0
 10
13.940486859
 20
8.4107757152
 10
13.9503714799
 20
8.3814328256
 10
13.9678041293
 20
8.3534500469
 10
13.9924536996
 20
8.3272638676
 10
14.023887099
 20
8.3034111318
 10
14.0611956736
 20
8.2826017084
 10
14.1037883547
 20
8.2651822626
 10
14.1504724162
 20
8.251662606
 10
14.2007682026
 20
8.2422460115
 10
14.2533128957
 20
8.237291825
 10
14.3063203167
 20
8.2369518557
 10
14.3586973453
 20
8.2411524557
 10
14.4098216941
 20
8.2498471446
 10
14.4582563754
 20
8.2628273029
 10
14.5030525881
 20
8.2798524718
 10
14.5431348913
 20
8.3005357077
  0
LWPOLYLINE
  5
50D
100
AcDbEntity
  8
0
100
AcDbPolyline
 62
7
  6
CONTINUOUS
 90
16
 70
0
 10
13.940436924
 20
8.3788804974
 10
13.9503601823
 20
8.3493107333
 10
13.9680078383
 20
8.3210425178
 10
13.9927480801
 20
8.2948557206
 10
14.0242455245
 20
8.2710329525
 10
14.0616095036
 20
8.250258133
 10
14.1042482665
 20
8.232877438
 10
14.1509224493
 20
8.2194103897
 10
14.2007066511
 20
8.2101088643
 10
14.2528747968
 20
8.2051680615
 10
14.3061301477
 20
8.2047991134
 10
14.3587074915
 20
8.209007953
 10
14.4098310537
 20
8.217703418
 10
14.4582621394
 20
8.2306833929
 10
14.5030552232
 20
8.247707878
 10
14.5431348913
 20
8.2683899432
  0
LWPOLYLINE
  5
50E
100
AcDbEntity
  8
0
100
AcDbPolyline
 62
7
  6
CONTINUOUS
 90
16
 70
0
 10
13.9404394049
 20
8.3467222174
 10
13.9501790684
 20
8.3175460651
 10
13.96757293
 20
8.2894568603
 10
13.9921597857
 20
8.2632352234
 10
14.0237283802
 20
8.239222758
 10
14.0613795722
 20
8.218222198
 10
14.103837899
 20
8.200873572
 10
14.1503967144
 20
8.1873890255
 10
14.2003147419
 20
8.1780181269
 10
14.2521415762
 20
8.1730598298
 10
14.3050018372
 20
8.1726131639
 10
14.3574728927
 20
8.1767099636
 10
14.4088788226
 20
8.1853511947
 10
14.4580016746
 20
8.1984539103
 10
14.5031705351
 20
8.2156133609
 10
14.5431348913
 20
8.2362441788
  0
LWPOLYLINE
  5
50F
100
AcDbEntity
  8
0
100
AcDbPolyline
 62
7
  6
CONTINUOUS
 90
16
 70
0
 10
13.9404394049
 20
8.4753052752
 10
13.9501790684
 20
8.4461291229
 10
13.96757293
 20
8.4180399181
 10
13.9921597857
 20
8.3918182812
 10
14.0237283802
 20
8.3678058158
 10
14.0613795722
 20
8.3468052558
 10
14.103837899
 20
8.3294566298
 10
14.1503967144
 20
8.3159720834
 10
14.2003147419
 20
8.3066011847
 10
14.2521415762
 20
8.3016428876
 10
14.3050018372
 20
8.3011962217
 10
14.3574728927
 20
8.3052930214
 10
14.4088788226
 20
8.3139342525
 10
14.4580016746
 20
8.3270369681
 10
14.5031705351
 20
8.3441964187
 10
14.5431348913
 20
8.3648272366
  0
LWPOLYLINE
  5
510
100
AcDbEntity
  8
0
100
AcDbPolyline
 62
7
  6
CONTINUOUS
 90
3
 70
0
 10
14.0465212118
 20
6.9801648576
 10
14.0484672684
 20
6.9973323783
 10
14.0484735845
 20
6.9973490584
  0
LINE
  5
511
100
AcDbEntity
  8
0
100
AcDbLine
 62
7
  6
CONTINUOUS
 10
14.0465212091
 20
7.0122904141
 11
14.0486608292
 21
7.0277228904
  0
LINE
  5
512
100
AcDbEntity
  8
0
100
AcDbLine
 62
7
  6
CONTINUOUS
 10
14.0465212091
 20
7.1408736116
 11
14.0486678209
 21
7.1562428763
  0
LINE
  5
513
100
AcDbEntity
  8
0
100
AcDbLine
 62
7
  6
CONTINUOUS
 10
14.0486754287
 20
6.9632172207
 11
14.0465212091
 21
6.9479989431
  0
LINE
  5
514
100
AcDbEntity
  8
0
100
AcDbLine
 62
7
  6
CONTINUOUS
 10
14.0465212091
 20
7.0765831685
 11
14.0486943932
 21
7.0918111023
  0
LINE
  5
515
100
AcDbEntity
  8
0
100
AcDbLine
 62
7
  6
CONTINUOUS
 10
14.0465212092
 20
7.1087307501
 11
14.0486913349
 21
7.1237378768
  0
LWPOLYLINE
  5
516
100
AcDbEntity
  8
0
100
AcDbPolyline
 62
7
  6
CONTINUOUS
 90
6
 70
0
 10
14.5431348913
 20
8.1719526499
 10
14.5777199784
 20
8.1959263858
 10
14.6061703259
 20
8.2229032505
 10
14.627429752
 20
8.2520147838
 10
14.6409418141
 20
8.2822786775
 10
14.6425415047
 20
8.2908932539
  0
LWPOLYLINE
  5
517
100
AcDbEntity
  8
0
100
AcDbPolyline
 62
7
  6
CONTINUOUS
 90
6
 70
0
 10
14.5431348913
 20
8.2040984143
 10
14.5776748093
 20
8.2280357106
 10
14.6058608298
 20
8.2547005404
 10
14.6270240234
 20
8.2834696649
 10
14.6407420705
 20
8.3137939445
 10
14.64250807
 20
8.3230668198
  0
LWPOLYLINE
  5
518
100
AcDbEntity
  8
0
100
AcDbPolyline
 62
7
  6
CONTINUOUS
 90
6
 70
0
 10
14.5431348913
 20
8.2362441788
 10
14.5775477325
 20
8.2600790438
 10
14.605661638
 20
8.2866228549
 10
14.6268113989
 20
8.3152564241
 10
14.6405831812
 20
8.345445606
 10
14.6424819187
 20
8.3552058129
  0
LWPOLYLINE
  5
519
100
AcDbEntity
  8
0
100
AcDbPolyline
 62
7
  6
CONTINUOUS
 90
16
 70
0
 10
14.5431348913
 20
8.1735599381
 10
14.5030043607
 20
8.1528552817
 10
14.4579708872
 20
8.1357597847
 10
14.4095320507
 20
8.1228083936
 10
14.3585992424
 20
8.1141644957
 10
14.3061631027
 20
8.1099703133
 10
14.2532980497
 20
8.1103167958
 10
14.2014468018
 20
8.1151756889
 10
14.1514734931
 20
8.124450617
 10
14.1047360887
 20
8.1378793312
 10
14.0618067956
 20
8.1553340439
 10
14.0240878902
 20
8.1763050715
 10
13.9927117076
 20
8.2000580849
 10
13.9680385011
 20
8.2261732002
 10
13.9504825577
 20
8.2542249287
 10
13.940571625
 20
8.283381027
  0
LWPOLYLINE
  5
51A
100
AcDbEntity
  8
0
100
AcDbPolyline
 62
7
  6
CONTINUOUS
 90
16
 70
0
 10
14.5431348913
 20
8.1414141736
 10
14.5030525881
 20
8.1207309378
 10
14.4582563754
 20
8.1037057689
 10
14.4098216941
 20
8.0907256105
 10
14.3586973453
 20
8.0820309217
 10
14.3063203167
 20
8.0778303216
 10
14.2533128957
 20
8.078170291
 10
14.2007682026
 20
8.0831244775
 10
14.1504724162
 20
8.092541072
 10
14.1037883547
 20
8.1060607286
 10
14.0611956736
 20
8.1234801744
 10
14.023887099
 20
8.1442895978
 10
13.9924536996
 20
8.1681423335
 10
13.9678041293
 20
8.1943285129
 10
13.9503714799
 20
8.2223112915
 10
13.940486859
 20
8.2516541812
  0
LWPOLYLINE
  5
51B
100
AcDbEntity
  8
0
100
AcDbPolyline
 62
7
  6
CONTINUOUS
 90
16
 70
0
 10
14.5431348913
 20
8.1092684092
 10
14.5030552232
 20
8.0885863439
 10
14.4582621394
 20
8.0715618588
 10
14.4098310537
 20
8.058581884
 10
14.3587074915
 20
8.0498864189
 10
14.3061301477
 20
8.0456775794
 10
14.2528747968
 20
8.0460465274
 10
14.2007066511
 20
8.0509873302
 10
14.1509224493
 20
8.0602888556
 10
14.1042482665
 20
8.0737559039
 10
14.0616095036
 20
8.0911365989
 10
14.0242455245
 20
8.1119114184
 10
13.9927480801
 20
8.1357341866
 10
13.9680078383
 20
8.1619209838
 10
13.9503601823
 20
8.1901891993
 10
13.940436924
 20
8.2197589634
  0
LWPOLYLINE
  5
51C
100
AcDbEntity
  8
0
100
AcDbPolyline
 62
7
  6
CONTINUOUS
 90
3
 70
0
 10
13.951927323
 20
8.5390063941
 10
13.9410937933
 20
8.5686601851
 10
13.9382534926
 20
8.5938620932
  0
LWPOLYLINE
  5
51D
100
AcDbEntity
  8
0
100
AcDbPolyline
 62
7
  6
CONTINUOUS
 90
16
 70
0
 10
13.940486859
 20
8.539358773
 10
13.9503714799
 20
8.5100158834
 10
13.9678041293
 20
8.4820331047
 10
13.9924536996
 20
8.4558469254
 10
14.023887099
 20
8.4319941897
 10
14.0611956736
 20
8.4111847662
 10
14.1037883547
 20
8.3937653205
 10
14.1504724162
 20
8.3802456638
 10
14.2007682026
 20
8.3708290693
 10
14.2533128957
 20
8.3658748828
 10
14.3063203167
 20
8.3655349135
 10
14.3586973453
 20
8.3697355135
 10
14.4098216941
 20
8.3784302024
 10
14.4582563754
 20
8.3914103607
 10
14.5030525881
 20
8.4084355296
 10
14.5431348913
 20
8.4291187655
  0
LWPOLYLINE
  5
51E
100
AcDbEntity
  8
0
100
AcDbPolyline
 62
7
  6
CONTINUOUS
 90
16
 70
0
 10
13.940436924
 20
8.5074635552
 10
13.9503601823
 20
8.4778937912
 10
13.9680078383
 20
8.4496255757
 10
13.9927480801
 20
8.4234387784
 10
14.0242455245
 20
8.3996160103
 10
14.0616095036
 20
8.3788411908
 10
14.1042482665
 20
8.3614604958
 10
14.1509224493
 20
8.3479934475
 10
14.2007066511
 20
8.3386919221
 10
14.2528747968
 20
8.3337511193
 10
14.3061301477
 20
8.3333821712
 10
14.3587074915
 20
8.3375910108
 10
14.4098310537
 20
8.3462864759
 10
14.4582621394
 20
8.3592664507
 10
14.5030552232
 20
8.3762909358
 10
14.5431348913
 20
8.3969730011
  0
LWPOLYLINE
  5
51F
100
AcDbEntity
  8
0
100
AcDbPolyline
 62
7
  6
CONTINUOUS
 90
6
 70
0
 10
14.5431348913
 20
8.0755153565
 10
14.5776748093
 20
8.0994526527
 10
14.6058608298
 20
8.1261174826
 10
14.6270240234
 20
8.1548866071
 10
14.6407420705
 20
8.1852108867
 10
14.64250807
 20
8.194483762
  0
LWPOLYLINE
  5
520
100
AcDbEntity
  8
0
100
AcDbPolyline
 62
7
  6
CONTINUOUS
 90
6
 70
0
 10
14.5431348913
 20
8.107661121
 10
14.5775477325
 20
8.1314959859
 10
14.605661638
 20
8.1580397971
 10
14.6268113989
 20
8.1866733663
 10
14.6405831812
 20
8.2168625482
 10
14.6424819187
 20
8.226622755
  0
LWPOLYLINE
  5
521
100
AcDbEntity
  8
0
100
AcDbPolyline
 62
7
  6
CONTINUOUS
 90
5
 70
0
 10
14.5431348913
 20
8.1398068854
 10
14.5761984741
 20
8.1625619953
 10
14.6034931476
 20
8.1877937118
 10
14.6245523477
 20
8.2151261511
 10
14.6388356157
 20
8.2439467265
  0
LWPOLYLINE
  5
522
100
AcDbEntity
  8
0
100
AcDbPolyline
 62
7
  6
CONTINUOUS
 90
16
 70
0
 10
14.5431348913
 20
8.0771226447
 10
14.5031705351
 20
8.0564918269
 10
14.4580016746
 20
8.0393323762
 10
14.4088788226
 20
8.0262296607
 10
14.3574728927
 20
8.0175884295
 10
14.3050018372
 20
8.0134916299
 10
14.2521415762
 20
8.0139382958
 10
14.2003147419
 20
8.0188965929
 10
14.1503967144
 20
8.0282674915
 10
14.103837899
 20
8.0417520379
 10
14.0613795722
 20
8.059100664
 10
14.0237283802
 20
8.080101224
 10
13.9921597857
 20
8.1041136894
 10
13.96757293
 20
8.1303353262
 10
13.9501790684
 20
8.158424531
 10
13.9404394049
 20
8.1876006833
  0
LWPOLYLINE
  5
523
100
AcDbEntity
  8
0
100
AcDbPolyline
 62
7
  6
CONTINUOUS
 90
16
 70
0
 10
14.5431348913
 20
8.0449768803
 10
14.5030043607
 20
8.0242722239
 10
14.4579708872
 20
8.0071767269
 10
14.4095320507
 20
7.9942253358
 10
14.3585992424
 20
7.9855814378
 10
14.3061631027
 20
7.9813872554
 10
14.2532980497
 20
7.981733738
 10
14.2014468018
 20
7.9865926311
 10
14.1514734931
 20
7.9958675592
 10
14.1047360887
 20
8.0092962734
 10
14.0618067956
 20
8.0267509861
 10
14.0240878902
 20
8.0477220137
 10
13.9927117076
 20
8.0714750271
 10
13.9680385011
 20
8.0975901424
 10
13.9504825577
 20
8.1256418709
 10
13.940571625
 20
8.1547979692
  0
LWPOLYLINE
  5
524
100
AcDbEntity
  8
0
100
AcDbPolyline
 62
7
  6
CONTINUOUS
 90
5
 70
0
 10
14.6409418141
 20
8.5089063169
 10
14.627429752
 20
8.4786424232
 10
14.6061703259
 20
8.4495308899
 10
14.5777199784
 20
8.4225540252
 10
14.5431348913
 20
8.3985802893
  0
LWPOLYLINE
  5
525
100
AcDbEntity
  8
0
100
AcDbPolyline
 62
7
  6
CONTINUOUS
 90
6
 70
0
 10
14.5431348913
 20
8.0433695921
 10
14.5777199784
 20
8.067343328
 10
14.6061703259
 20
8.0943201927
 10
14.627429752
 20
8.123431726
 10
14.6409418141
 20
8.1536956197
 10
14.6425415047
 20
8.1623101961
  0
LWPOLYLINE
  5
526
100
AcDbEntity
  8
0
100
AcDbPolyline
 62
7
  6
CONTINUOUS
 90
6
 70
0
 10
14.5431348913
 20
7.9790780632
 10
14.5775477325
 20
8.0029129281
 10
14.605661638
 20
8.0294567393
 10
14.6268113989
 20
8.0580903085
 10
14.6405831812
 20
8.0882794904
 10
14.6424819187
 20
8.0980396972
  0
LWPOLYLINE
  5
527
100
AcDbEntity
  8
0
100
AcDbPolyline
 62
7
  6
CONTINUOUS
 90
5
 70
0
 10
14.5431348913
 20
8.0112238276
 10
14.5761984741
 20
8.0339789375
 10
14.6034931476
 20
8.059210654
 10
14.6245523477
 20
8.0865430933
 10
14.6388356157
 20
8.1153636687
  0
LWPOLYLINE
  5
528
100
AcDbEntity
  8
0
100
AcDbPolyline
 62
7
  6
CONTINUOUS
 90
16
 70
0
 10
14.5431348913
 20
7.9485395869
 10
14.5031705351
 20
7.9279087691
 10
14.4580016746
 20
7.9107493184
 10
14.4088788226
 20
7.8976466029
 10
14.3574728927
 20
7.8890053717
 10
14.3050018372
 20
7.8849085721
 10
14.2521415762
 20
7.8853552379
 10
14.2003147419
 20
7.8903135351
 10
14.1503967144
 20
7.8996844337
 10
14.103837899
 20
7.9131689801
 10
14.0613795722
 20
7.9305176061
 10
14.0237283802
 20
7.9515181662
 10
13.9921597857
 20
7.9755306316
 10
13.96757293
 20
8.0017522684
 10
13.9501790684
 20
8.0298414732
 10
13.9404394049
 20
8.0590176255
  0
LWPOLYLINE
  5
529
100
AcDbEntity
  8
0
100
AcDbPolyline
 62
7
  6
CONTINUOUS
 90
16
 70
0
 10
14.5431348913
 20
8.0128311158
 10
14.5030525881
 20
7.9921478799
 10
14.4582563754
 20
7.9751227111
 10
14.4098216941
 20
7.9621425527
 10
14.3586973453
 20
7.9534478638
 10
14.3063203167
 20
7.9492472638
 10
14.2533128957
 20
7.9495872332
 10
14.2007682026
 20
7.9545414197
 10
14.1504724162
 20
7.9639580142
 10
14.1037883547
 20
7.9774776708
 10
14.0611956736
 20
7.9948971165
 10
14.023887099
 20
8.01570654
 10
13.9924536996
 20
8.0395592757
 10
13.9678041293
 20
8.0657454551
 10
13.9503714799
 20
8.0937282337
 10
13.940486859
 20
8.1230711233
  0
LWPOLYLINE
  5
52A
100
AcDbEntity
  8
0
100
AcDbPolyline
 62
7
  6
CONTINUOUS
 90
16
 70
0
 10
14.5431348913
 20
7.9806853514
 10
14.5030552232
 20
7.9600032861
 10
14.4582621394
 20
7.942978801
 10
14.4098310537
 20
7.9299988262
 10
14.3587074915
 20
7.9213033611
 10
14.3061301477
 20
7.9170945216
 10
14.2528747968
 20
7.9174634696
 10
14.2007066511
 20
7.9224042724
 10
14.1509224493
 20
7.9317057978
 10
14.1042482665
 20
7.9451728461
 10
14.0616095036
 20
7.9625535411
 10
14.0242455245
 20
7.9833283606
 10
13.9927480801
 20
8.0071511288
 10
13.9680078383
 20
8.033337926
 10
13.9503601823
 20
8.0616061415
 10
13.940436924
 20
8.0911759055
  0
LWPOLYLINE
  5
52B
100
AcDbEntity
  8
0
100
AcDbPolyline
 62
7
  6
CONTINUOUS
 90
3
 70
0
 10
14.5368831171
 20
7.0740070536
 10
14.5384387842
 20
7.0665654189
 10
14.538647191
 20
7.0604886915
  0
LWPOLYLINE
  5
52C
100
AcDbEntity
  8
0
100
AcDbPolyline
 62
7
  6
CONTINUOUS
 90
3
 70
0
 10
14.5368810731
 20
7.1383097884
 10
14.5384394318
 20
7.130847535
 10
14.5386471915
 20
7.1247826547
  0
LWPOLYLINE
  5
52D
100
AcDbEntity
  8
0
100
AcDbPolyline
 62
7
  6
CONTINUOUS
 90
19
 70
0
 10
14.6440784497
 20
8.583454464
 10
14.6332500956
 20
8.5522460302
 10
14.6145652904
 20
8.5223350564
 10
14.5884549862
 20
8.4943935228
 10
14.5555214364
 20
8.4690479286
 10
14.5165219404
 20
8.446863718
 10
14.4723565953
 20
8.4283356581
 10
14.4240451773
 20
8.4138737259
 10
14.3727019346
 20
8.4037934265
 10
14.3195108375
 20
8.3983092294
 10
14.265698531
 20
8.3975296873
 10
14.2125065921
 20
8.4014548341
 10
14.1611614153
 20
8.4099762231
 10
14.1128476387
 20
8.4228793051
 10
14.0686786973
 20
8.4398488694
 10
14.0296741156
 20
8.4604754221
 10
13.9967341593
 20
8.4842647658
 10
13.9706178962
 20
8.5106504679
 10
13.951927323
 20
8.5390063941
  0
LINE
  5
52E
100
AcDbEntity
  8
0
100
AcDbLine
 62
7
  6
CONTINUOUS
 10
14.6324211455
 20
8.5521635614
 11
14.6436740472
 21
8.5832447724
  0
LWPOLYLINE
  5
52F
100
AcDbEntity
  8
0
100
AcDbPolyline
 62
7
  6
CONTINUOUS
 90
5
 70
0
 10
14.6409418141
 20
8.3803232591
 10
14.627429752
 20
8.3500593654
 10
14.6061703259
 20
8.3209478321
 10
14.5777199784
 20
8.2939709674
 10
14.5431348913
 20
8.2699972315
  0
LWPOLYLINE
  5
530
100
AcDbEntity
  8
0
100
AcDbPolyline
 62
7
  6
CONTINUOUS
 90
6
 70
0
 10
14.5431348913
 20
7.9147865342
 10
14.5777199784
 20
7.9387602702
 10
14.6061703259
 20
7.9657371349
 10
14.627429752
 20
7.9948486681
 10
14.6409418141
 20
8.0251125619
 10
14.6425415047
 20
8.0337271383
  0
LWPOLYLINE
  5
531
100
AcDbEntity
  8
0
100
AcDbPolyline
 62
7
  6
CONTINUOUS
 90
6
 70
0
 10
14.5431348913
 20
7.9469322987
 10
14.5776748093
 20
7.9708695949
 10
14.6058608298
 20
7.9975344248
 10
14.6270240234
 20
8.0263035493
 10
14.6407420705
 20
8.0566278289
 10
14.64250807
 20
8.0659007042
  0
LWPOLYLINE
  5
532
100
AcDbEntity
  8
0
100
AcDbPolyline
 62
7
  6
CONTINUOUS
 90
5
 70
0
 10
14.5431348913
 20
7.8826407698
 10
14.5761984741
 20
7.9053958797
 10
14.6034931476
 20
7.9306275961
 10
14.6245523477
 20
7.9579600355
 10
14.6388356157
 20
7.9867806109
  0
LWPOLYLINE
  5
533
100
AcDbEntity
  8
0
100
AcDbPolyline
 62
7
  6
CONTINUOUS
 90
16
 70
0
 10
14.5431348913
 20
7.9163938225
 10
14.5030043607
 20
7.8956891661
 10
14.4579708872
 20
7.8785936691
 10
14.4095320507
 20
7.865642278
 10
14.3585992424
 20
7.85699838
 10
14.3061631027
 20
7.8528041976
 10
14.2532980497
 20
7.8531506802
 10
14.2014468018
 20
7.8580095733
 10
14.1514734931
 20
7.8672845014
 10
14.1047360887
 20
7.8807132156
 10
14.0618067956
 20
7.8981679283
 10
14.0240878902
 20
7.9191389559
 10
13.9927117076
 20
7.9428919693
 10
13.9680385011
 20
7.9690070845
 10
13.9504825577
 20
7.9970588131
 10
13.940571625
 20
8.0262149113
  0
LWPOLYLINE
  5
534
100
AcDbEntity
  8
0
100
AcDbPolyline
 62
7
  6
CONTINUOUS
 90
16
 70
0
 10
14.5431348913
 20
7.884248058
 10
14.5030525881
 20
7.8635648221
 10
14.4582563754
 20
7.8465396533
 10
14.4098216941
 20
7.8335594949
 10
14.3586973453
 20
7.824864806
 10
14.3063203167
 20
7.820664206
 10
14.2533128957
 20
7.8210041754
 10
14.2007682026
 20
7.8259583619
 10
14.1504724162
 20
7.8353749564
 10
14.1037883547
 20
7.848894613
 10
14.0611956736
 20
7.8663140587
 10
14.023887099
 20
7.8871234822
 10
13.9924536996
 20
7.9109762179
 10
13.9678041293
 20
7.9371623972
 10
13.9503714799
 20
7.9651451759
 10
13.940486859
 20
7.9944880655
  0
LWPOLYLINE
  5
535
100
AcDbEntity
  8
0
100
AcDbPolyline
 62
7
  6
CONTINUOUS
 90
16
 70
0
 10
14.5431348913
 20
7.8521022936
 10
14.5030552232
 20
7.8314202283
 10
14.4582621394
 20
7.8143957432
 10
14.4098310537
 20
7.8014157684
 10
14.3587074915
 20
7.7927203033
 10
14.3061301477
 20
7.7885114637
 10
14.2528747968
 20
7.7888804118
 10
14.2007066511
 20
7.7938212146
 10
14.1509224493
 20
7.80312274
 10
14.1042482665
 20
7.8165897883
 10
14.0616095036
 20
7.8339704833
 10
14.0242455245
 20
7.8547453028
 10
13.9927480801
 20
7.878568071
 10
13.9680078383
 20
7.9047548682
 10
13.9503601823
 20
7.9330230837
 10
13.940436924
 20
7.9625928477
  0
LINE
  5
536
100
AcDbEntity
  8
0
100
AcDbLine
 62
7
  6
CONTINUOUS
 10
14.5366447229
 20
6.979179581
 11
14.5386471934
 21
6.9640713211
  0
LINE
  5
537
100
AcDbEntity
  8
0
100
AcDbLine
 62
7
  6
CONTINUOUS
 10
14.5366283302
 20
7.0114460712
 11
14.5386471934
 21
6.9962170852
  0
LINE
  5
538
100
AcDbEntity
  8
0
100
AcDbLine
 62
7
  6
CONTINUOUS
 10
14.5366542516
 20
7.1077376036
 11
14.5386471934
 21
7.0926549199
  0
LINE
  5
539
100
AcDbEntity
  8
0
100
AcDbLine
 62
7
  6
CONTINUOUS
 10
14.5382909389
 20
7.1596664305
 11
14.5386471933
 21
7.1569438997
  0
LINE
  5
53A
100
AcDbEntity
  8
0
100
AcDbLine
 62
7
  6
CONTINUOUS
 10
14.5366270565
 20
7.0439111752
 11
14.5386471933
 21
7.0283599793
  0
LINE
  5
53B
100
AcDbEntity
  8
0
100
AcDbLine
 62
7
  6
CONTINUOUS
 10
14.6466970842
 20
8.5398993197
 11
14.6409418141
 21
8.5089063169
  0
LWPOLYLINE
  5
53C
100
AcDbEntity
  8
0
100
AcDbPolyline
 62
7
  6
CONTINUOUS
 90
3
 70
0
 10
14.6388356157
 20
8.5011128422
 10
14.6460120345
 20
8.5306836127
 10
14.6469149099
 20
8.5456437744
  0
LWPOLYLINE
  5
53D
100
AcDbEntity
  8
0
100
AcDbPolyline
 62
7
  6
CONTINUOUS
 90
6
 70
0
 10
14.6460120345
 20
8.5001451365
 10
14.6388356157
 20
8.4705743659
 10
14.6245523477
 20
8.4417537905
 10
14.6034931476
 20
8.4144213512
 10
14.5761984741
 20
8.3891896347
 10
14.5431348913
 20
8.3664345248
  0
LWPOLYLINE
  5
53E
100
AcDbEntity
  8
0
100
AcDbPolyline
 62
7
  6
CONTINUOUS
 90
3
 70
0
 10
14.6388356157
 20
8.3725297843
 10
14.6460120345
 20
8.4021005549
 10
14.6469149099
 20
8.4170607166
  0
LWPOLYLINE
  5
53F
100
AcDbEntity
  8
0
100
AcDbPolyline
 62
7
  6
CONTINUOUS
 90
6
 70
0
 10
14.6460120345
 20
8.3715620787
 10
14.6388356157
 20
8.3419913081
 10
14.6245523477
 20
8.3131707327
 10
14.6034931476
 20
8.2858382934
 10
14.5761984741
 20
8.2606065769
 10
14.5431348913
 20
8.237851467
  0
LWPOLYLINE
  5
540
100
AcDbEntity
  8
0
100
AcDbPolyline
 62
7
  6
CONTINUOUS
 90
5
 70
0
 10
14.6409418141
 20
8.2517402013
 10
14.627429752
 20
8.2214763075
 10
14.6061703259
 20
8.1923647743
 10
14.5777199784
 20
8.1653879096
 10
14.5431348913
 20
8.1414141736
  0
LWPOLYLINE
  5
541
100
AcDbEntity
  8
0
100
AcDbPolyline
 62
7
  6
CONTINUOUS
 90
5
 70
0
 10
14.6409418141
 20
8.1231571434
 10
14.627429752
 20
8.0928932497
 10
14.6061703259
 20
8.0637817164
 10
14.5777199784
 20
8.0368048517
 10
14.5431348913
 20
8.0128311158
  0
LWPOLYLINE
  5
542
100
AcDbEntity
  8
0
100
AcDbPolyline
 62
7
  6
CONTINUOUS
 90
6
 70
0
 10
14.5431348913
 20
7.7862034764
 10
14.5777199784
 20
7.8101772123
 10
14.6061703259
 20
7.837154077
 10
14.627429752
 20
7.8662656103
 10
14.6409418141
 20
7.896529504
 10
14.6425415047
 20
7.9051440805
  0
LWPOLYLINE
  5
543
100
AcDbEntity
  8
0
100
AcDbPolyline
 62
7
  6
CONTINUOUS
 90
6
 70
0
 10
14.5431348913
 20
7.8183492409
 10
14.5776748093
 20
7.8422865371
 10
14.6058608298
 20
7.8689513669
 10
14.6270240234
 20
7.8977204915
 10
14.6407420705
 20
7.928044771
 10
14.64250807
 20
7.9373176463
  0
LWPOLYLINE
  5
544
100
AcDbEntity
  8
0
100
AcDbPolyline
 62
7
  6
CONTINUOUS
 90
6
 70
0
 10
14.5431348913
 20
7.8504950053
 10
14.5775477325
 20
7.8743298703
 10
14.605661638
 20
7.9008736815
 10
14.6268113989
 20
7.9295072507
 10
14.6405831812
 20
7.9596964326
 10
14.6424819187
 20
7.9694566394
  0
LWPOLYLINE
  5
545
100
AcDbEntity
  8
0
100
AcDbPolyline
 62
7
  6
CONTINUOUS
 90
16
 70
0
 10
14.5431348913
 20
7.8199565291
 10
14.5031705351
 20
7.7993257112
 10
14.4580016746
 20
7.7821662606
 10
14.4088788226
 20
7.7690635451
 10
14.3574728927
 20
7.7604223139
 10
14.3050018372
 20
7.7563255142
 10
14.2521415762
 20
7.7567721801
 10
14.2003147419
 20
7.7617304772
 10
14.1503967144
 20
7.7711013759
 10
14.103837899
 20
7.7845859223
 10
14.0613795722
 20
7.8019345483
 10
14.0237283802
 20
7.8229351083
 10
13.9921597857
 20
7.8469475737
 10
13.96757293
 20
7.8731692106
 10
13.9501790684
 20
7.9012584154
 10
13.9404394049
 20
7.9304345677
  0
LWPOLYLINE
  5
546
100
AcDbEntity
  8
0
100
AcDbPolyline
 62
7
  6
CONTINUOUS
 90
16
 70
0
 10
14.5431348913
 20
7.7878107647
 10
14.5030043607
 20
7.7671061083
 10
14.4579708872
 20
7.7500106112
 10
14.4095320507
 20
7.7370592202
 10
14.3585992424
 20
7.7284153222
 10
14.3061631027
 20
7.7242211398
 10
14.2532980497
 20
7.7245676223
 10
14.2014468018
 20
7.7294265155
 10
14.1514734931
 20
7.7387014435
 10
14.1047360887
 20
7.7521301578
 10
14.0618067956
 20
7.7695848704
 10
14.0240878902
 20
7.7905558981
 10
13.9927117076
 20
7.8143089115
 10
13.9680385011
 20
7.8404240267
 10
13.9504825577
 20
7.8684757553
 10
13.940571625
 20
7.8976318535
  0
LINE
  5
547
100
AcDbEntity
  8
02___PRT_ALL_AXES
100
AcDbLine
 62
7
  6
CONTINUOUS
 10
14.611481839
 20
8.6139532069
 11
14.611481839
 21
8.7939694879
  0
LINE
  5
548
100
AcDbEntity
  8
0
100
AcDbLine
 62
7
  6
CONTINUOUS
 10
14.6469149099
 20
8.5151052982
 11
14.6460120345
 21
8.5001451365
  0
LINE
  5
549
100
AcDbEntity
  8
0
100
AcDbLine
 62
7
  6
CONTINUOUS
 10
14.6469149099
 20
8.6099349787
 11
14.6440784497
 21
8.583454464
  0
LINE
  5
54A
100
AcDbEntity
  8
0
100
AcDbLine
 62
7
  6
CONTINUOUS
 10
14.6436740472
 20
8.5832447724
 11
14.6469149099
 21
8.6115422545
  0
LINE
  5
54B
100
AcDbEntity
  8
0
100
AcDbLine
 62
7
  6
CONTINUOUS
 10
14.6466970842
 20
8.4113162619
 11
14.6409418141
 21
8.3803232591
  0
LINE
  5
54C
100
AcDbEntity
  8
0
100
AcDbLine
 62
7
  6
CONTINUOUS
 10
14.6466970842
 20
8.2827332041
 11
14.6409418141
 21
8.2517402013
  0
LINE
  5
54D
100
AcDbEntity
  8
0
100
AcDbLine
 62
7
  6
CONTINUOUS
 10
14.6466970842
 20
8.1541501463
 11
14.6409418141
 21
8.1231571434
  0
LWPOLYLINE
  5
54E
100
AcDbEntity
  8
0
100
AcDbPolyline
 62
7
  6
CONTINUOUS
 90
3
 70
0
 10
14.6388356157
 20
8.2439467265
 10
14.6460120345
 20
8.2735174971
 10
14.6469149099
 20
8.2884776588
  0
LWPOLYLINE
  5
54F
100
AcDbEntity
  8
0
100
AcDbPolyline
 62
7
  6
CONTINUOUS
 90
6
 70
0
 10
14.6460120345
 20
8.2429790209
 10
14.6388356157
 20
8.2134082503
 10
14.6245523477
 20
8.1845876749
 10
14.6034931476
 20
8.1572552355
 10
14.5761984741
 20
8.1320235191
 10
14.5431348913
 20
8.1092684092
  0
LWPOLYLINE
  5
550
100
AcDbEntity
  8
0
100
AcDbPolyline
 62
7
  6
CONTINUOUS
 90
3
 70
0
 10
14.6388356157
 20
8.1153636687
 10
14.6460120345
 20
8.1449344393
 10
14.6469149099
 20
8.159894601
  0
LWPOLYLINE
  5
551
100
AcDbEntity
  8
0
100
AcDbPolyline
 62
7
  6
CONTINUOUS
 90
6
 70
0
 10
14.6460120345
 20
8.114395963
 10
14.6388356157
 20
8.0848251925
 10
14.6245523477
 20
8.0560046171
 10
14.6034931476
 20
8.0286721777
 10
14.5761984741
 20
8.0034404613
 10
14.5431348913
 20
7.9806853514
  0
LWPOLYLINE
  5
552
100
AcDbEntity
  8
0
100
AcDbPolyline
 62
7
  6
CONTINUOUS
 90
3
 70
0
 10
14.6388356157
 20
7.9867806109
 10
14.6460120345
 20
8.0163513815
 10
14.6469149099
 20
8.0313115432
  0
LWPOLYLINE
  5
553
100
AcDbEntity
  8
0
100
AcDbPolyline
 62
7
  6
CONTINUOUS
 90
5
 70
0
 10
14.6409418141
 20
7.9945740856
 10
14.627429752
 20
7.9643101919
 10
14.6061703259
 20
7.9351986586
 10
14.5777199784
 20
7.9082217939
 10
14.5431348913
 20
7.884248058
  0
LWPOLYLINE
  5
554
100
AcDbEntity
  8
0
100
AcDbPolyline
 62
7
  6
CONTINUOUS
 90
3
 70
0
 10
14.5431348913
 20
7.6897661831
 10
14.5776748093
 20
7.7137034793
 10
14.6058608298
 20
7.7403683091
  0
LWPOLYLINE
  5
555
100
AcDbEntity
  8
0
100
AcDbPolyline
 62
7
  6
CONTINUOUS
 90
6
 70
0
 10
14.5431348913
 20
7.7219119475
 10
14.5775477325
 20
7.7457468125
 10
14.605661638
 20
7.7722906236
 10
14.6268113989
 20
7.8009241929
 10
14.6405831812
 20
7.8311133747
 10
14.6424819187
 20
7.8408735816
  0
LWPOLYLINE
  5
556
100
AcDbEntity
  8
0
100
AcDbPolyline
 62
7
  6
CONTINUOUS
 90
5
 70
0
 10
14.5431348913
 20
7.754057712
 10
14.5761984741
 20
7.7768128219
 10
14.6034931476
 20
7.8020445383
 10
14.6245523477
 20
7.8293769777
 10
14.6388356157
 20
7.8581975531
  0
LWPOLYLINE
  5
557
100
AcDbEntity
  8
0
100
AcDbPolyline
 62
7
  6
CONTINUOUS
 90
16
 70
0
 10
14.5431348913
 20
7.6913734713
 10
14.5031705351
 20
7.6707426534
 10
14.4580016746
 20
7.6535832028
 10
14.4088788226
 20
7.6404804872
 10
14.3574728927
 20
7.6318392561
 10
14.3050018372
 20
7.6277424564
 10
14.2521415762
 20
7.6281891223
 10
14.2003147419
 20
7.6331474194
 10
14.1503967144
 20
7.6425183181
 10
14.103837899
 20
7.6560028645
 10
14.0613795722
 20
7.6733514905
 10
14.0237283802
 20
7.6943520505
 10
13.9921597857
 20
7.7183645159
 10
13.96757293
 20
7.7445861528
 10
13.9501790684
 20
7.7726753576
 10
13.9404394049
 20
7.8018515099
  0
LWPOLYLINE
  5
558
100
AcDbEntity
  8
0
100
AcDbPolyline
 62
7
  6
CONTINUOUS
 90
16
 70
0
 10
14.5431348913
 20
7.7556650002
 10
14.5030525881
 20
7.7349817643
 10
14.4582563754
 20
7.7179565954
 10
14.4098216941
 20
7.7049764371
 10
14.3586973453
 20
7.6962817482
 10
14.3063203167
 20
7.6920811482
 10
14.2533128957
 20
7.6924211175
 10
14.2007682026
 20
7.697375304
 10
14.1504724162
 20
7.7067918985
 10
14.1037883547
 20
7.7203115552
 10
14.0611956736
 20
7.7377310009
 10
14.023887099
 20
7.7585404244
 10
13.9924536996
 20
7.7823931601
 10
13.9678041293
 20
7.8085793394
 10
13.9503714799
 20
7.8365621181
 10
13.940486859
 20
7.8659050077
  0
LWPOLYLINE
  5
559
100
AcDbEntity
  8
0
100
AcDbPolyline
 62
7
  6
CONTINUOUS
 90
16
 70
0
 10
14.5431348913
 20
7.7235192357
 10
14.5030552232
 20
7.7028371705
 10
14.4582621394
 20
7.6858126854
 10
14.4098310537
 20
7.6728327105
 10
14.3587074915
 20
7.6641372455
 10
14.3061301477
 20
7.6599284059
 10
14.2528747968
 20
7.660297354
 10
14.2007066511
 20
7.6652381568
 10
14.1509224493
 20
7.6745396822
 10
14.1042482665
 20
7.6880067305
 10
14.0616095036
 20
7.7053874255
 10
14.0242455245
 20
7.726162245
 10
13.9927480801
 20
7.7499850131
 10
13.9680078383
 20
7.7761718103
 10
13.9503601823
 20
7.8044400258
 10
13.940436924
 20
7.8340097899
  0
LWPOLYLINE
  5
55A
100
AcDbEntity
  8
02___PRT_ALL_AXES
100
AcDbPolyline
 62
7
  6
CONTINUOUS
 90
6
 70
0
 10
14.0395865034
 20
8.5018717028
 10
14.0164114096
 20
8.5218960406
 10
13.9979617088
 20
8.5434955021
 10
13.9845530806
 20
8.5663005144
 10
13.9764149503
 20
8.5899208775
 10
13.9736865635
 20
8.6139532047
  0
LWPOLYLINE
  5
55B
100
AcDbEntity
  8
0
100
AcDbPolyline
 62
7
  6
CONTINUOUS
 90
3
 70
0
 10
14.6459394602
 20
7.7588862202
 10
14.6460069384
 20
7.7586085434
 10
14.6469149099
 20
7.7436069513
  0
LINE
  5
55C
100
AcDbEntity
  8
0
100
AcDbLine
 62
7
  6
CONTINUOUS
 10
14.6453678912
 20
7.7917815429
 11
14.6469149099
 21
7.7757488997
  0
LINE
  5
55D
100
AcDbEntity
  8
0
100
AcDbLine
 62
7
  6
CONTINUOUS
 10
14.6453678912
 20
7.9203646007
 11
14.6469149099
 21
7.9043319576
  0
LINE
  5
55E
100
AcDbEntity
  8
0
100
AcDbLine
 62
7
  6
CONTINUOUS
 10
14.6453678912
 20
8.0489476585
 11
14.6469149099
 21
8.0329150154
  0
LINE
  5
55F
100
AcDbEntity
  8
0
100
AcDbLine
 62
7
  6
CONTINUOUS
 10
14.6453678912
 20
8.1775307163
 11
14.6469149099
 21
8.1614980732
  0
LINE
  5
560
100
AcDbEntity
  8
0
100
AcDbLine
 62
7
  6
CONTINUOUS
 10
14.6453678912
 20
8.3061137741
 11
14.6469149099
 21
8.290081131
  0
LINE
  5
561
100
AcDbEntity
  8
0
100
AcDbLine
 62
7
  6
CONTINUOUS
 10
14.6453983533
 20
7.6953277735
 11
14.6469149099
 21
7.6793122574
  0
LINE
  5
562
100
AcDbEntity
  8
0
100
AcDbLine
 62
7
  6
CONTINUOUS
 10
14.6453983533
 20
7.8239108313
 11
14.6469149099
 21
7.8078953152
  0
LINE
  5
563
100
AcDbEntity
  8
0
100
AcDbLine
 62
7
  6
CONTINUOUS
 10
14.6453983533
 20
7.9524938891
 11
14.6469149099
 21
7.936478373
  0
LINE
  5
564
100
AcDbEntity
  8
0
100
AcDbLine
 62
7
  6
CONTINUOUS
 10
14.6453983533
 20
8.081076947
 11
14.6469149099
 21
8.0650614308
  0
LINE
  5
565
100
AcDbEntity
  8
0
100
AcDbLine
 62
7
  6
CONTINUOUS
 10
14.6453983533
 20
8.2096600048
 11
14.6469149099
 21
8.1936444886
  0
LINE
  5
566
100
AcDbEntity
  8
0
100
AcDbLine
 62
7
  6
CONTINUOUS
 10
14.6453983533
 20
8.3382430626
 11
14.6469149099
 21
8.3222275464
  0
LINE
  5
567
100
AcDbEntity
  8
0
100
AcDbLine
 62
7
  6
CONTINUOUS
 10
14.64541458
 20
7.7273654779
 11
14.6469149056
 21
7.7114281365
  0
LINE
  5
568
100
AcDbEntity
  8
0
100
AcDbLine
 62
7
  6
CONTINUOUS
 10
14.64541458
 20
7.8559485357
 11
14.6469149056
 21
7.8400111943
  0
LINE
  5
569
100
AcDbEntity
  8
0
100
AcDbLine
 62
7
  6
CONTINUOUS
 10
14.64541458
 20
7.9845315935
 11
14.6469149056
 21
7.9685942521
  0
LINE
  5
56A
100
AcDbEntity
  8
0
100
AcDbLine
 62
7
  6
CONTINUOUS
 10
14.64541458
 20
8.1131146513
 11
14.6469149056
 21
8.0971773099
  0
LINE
  5
56B
100
AcDbEntity
  8
0
100
AcDbLine
 62
7
  6
CONTINUOUS
 10
14.64541458
 20
8.2416977091
 11
14.6469149056
 21
8.2257603677
  0
LINE
  5
56C
100
AcDbEntity
  8
0
100
AcDbLine
 62
7
  6
CONTINUOUS
 10
14.64541458
 20
8.3702807669
 11
14.6469149056
 21
8.3543434256
  0
LWPOLYLINE
  5
56D
100
AcDbEntity
  8
0
100
AcDbPolyline
 62
7
  6
CONTINUOUS
 90
5
 70
0
 10
14.6469149099
 20
8.6115422545
 10
14.6468678487
 20
8.6149596719
 10
14.6419292328
 20
8.6465980079
 10
14.6289719445
 20
8.6774507108
 10
14.611481839
 20
8.702298612
  0
LINE
  5
56E
100
AcDbEntity
  8
02___PRT_ALL_AXES
100
AcDbLine
 62
7
  6
CONTINUOUS
 10
14.6173873509
 20
7.5826651656
 11
14.6173873509
 21
7.3249080523
  0
LINE
  5
56F
100
AcDbEntity
  8
0
100
AcDbLine
 62
7
  6
CONTINUOUS
 10
14.6469149099
 20
8.5472472466
 11
14.6466970842
 21
8.5398993197
  0
LINE
  5
570
100
AcDbEntity
  8
0
100
AcDbLine
 62
7
  6
CONTINUOUS
 10
14.6469149099
 20
8.4186641888
 11
14.6466970842
 21
8.4113162619
  0
LINE
  5
571
100
AcDbEntity
  8
0
100
AcDbLine
 62
7
  6
CONTINUOUS
 10
14.6469149099
 20
8.290081131
 11
14.6466970842
 21
8.2827332041
  0
LINE
  5
572
100
AcDbEntity
  8
0
100
AcDbLine
 62
7
  6
CONTINUOUS
 10
14.6469149099
 20
8.1614980732
 11
14.6466970842
 21
8.1541501463
  0
LINE
  5
573
100
AcDbEntity
  8
0
100
AcDbLine
 62
7
  6
CONTINUOUS
 10
14.6469149099
 20
8.0329150154
 11
14.6466970842
 21
8.0255670885
  0
LINE
  5
574
100
AcDbEntity
  8
0
100
AcDbLine
 62
7
  6
CONTINUOUS
 10
14.6469149099
 20
7.9043319576
 11
14.6466970842
 21
7.8969840307
  0
LINE
  5
575
100
AcDbEntity
  8
0
100
AcDbLine
 62
7
  6
CONTINUOUS
 10
14.6469149099
 20
7.7757488997
 11
14.6466970842
 21
7.7684009728
  0
LWPOLYLINE
  5
576
100
AcDbEntity
  8
0
100
AcDbPolyline
 62
7
  6
CONTINUOUS
 90
7
 70
0
 10
14.6469149099
 20
8.5793936621
 10
14.6466649184
 20
8.571521157
 10
14.6407420705
 20
8.5404215839
 10
14.6270240234
 20
8.5100973043
 10
14.6058608298
 20
8.4813281798
 10
14.5776748093
 20
8.45466335
 10
14.5431348913
 20
8.4307260537
  0
LWPOLYLINE
  5
577
100
AcDbEntity
  8
0
100
AcDbPolyline
 62
7
  6
CONTINUOUS
 90
7
 70
0
 10
14.6469149099
 20
8.4508106043
 10
14.6466649184
 20
8.4429380992
 10
14.6407420705
 20
8.4118385261
 10
14.6270240234
 20
8.3815142465
 10
14.6058608298
 20
8.352745122
 10
14.5776748093
 20
8.3260802921
 10
14.5431348913
 20
8.3021429959
  0
LWPOLYLINE
  5
578
100
AcDbEntity
  8
0
100
AcDbPolyline
 62
7
  6
CONTINUOUS
 90
7
 70
0
 10
14.6469149099
 20
8.3222275464
 10
14.6466649184
 20
8.3143550413
 10
14.6407420705
 20
8.2832554683
 10
14.6270240234
 20
8.2529311887
 10
14.6058608298
 20
8.2241620642
 10
14.5776748093
 20
8.1974972343
 10
14.5431348913
 20
8.1735599381
  0
LWPOLYLINE
  5
579
100
AcDbEntity
  8
0
100
AcDbPolyline
 62
7
  6
CONTINUOUS
 90
7
 70
0
 10
14.6469149099
 20
8.1936444886
 10
14.6466649184
 20
8.1857719835
 10
14.6407420705
 20
8.1546724104
 10
14.6270240234
 20
8.1243481309
 10
14.6058608298
 20
8.0955790063
 10
14.5776748093
 20
8.0689141765
 10
14.5431348913
 20
8.0449768803
  0
LWPOLYLINE
  5
57A
100
AcDbEntity
  8
0
100
AcDbPolyline
 62
7
  6
CONTINUOUS
 90
7
 70
0
 10
14.6469149099
 20
8.0650614308
 10
14.6466649184
 20
8.0571889257
 10
14.6407420705
 20
8.0260893526
 10
14.6270240234
 20
7.995765073
 10
14.6058608298
 20
7.9669959485
 10
14.5776748093
 20
7.9403311187
 10
14.5431348913
 20
7.9163938225
  0
LWPOLYLINE
  5
57B
100
AcDbEntity
  8
0
100
AcDbPolyline
 62
7
  6
CONTINUOUS
 90
7
 70
0
 10
14.6469149099
 20
7.936478373
 10
14.6466649184
 20
7.9286058679
 10
14.6407420705
 20
7.8975062948
 10
14.6270240234
 20
7.8671820152
 10
14.6058608298
 20
7.8384128907
 10
14.5776748093
 20
7.8117480609
 10
14.5431348913
 20
7.7878107647
  0
LWPOLYLINE
  5
57C
100
AcDbEntity
  8
0
100
AcDbPolyline
 62
7
  6
CONTINUOUS
 90
7
 70
0
 10
14.6469149099
 20
7.8078953152
 10
14.6466649184
 20
7.8000228101
 10
14.6407420705
 20
7.768923237
 10
14.6270240234
 20
7.7385989574
 10
14.6058608298
 20
7.7098298329
 10
14.5776748093
 20
7.6831650031
 10
14.5431348913
 20
7.6592277068
  0
LWPOLYLINE
  5
57D
100
AcDbEntity
  8
0
100
AcDbPolyline
 62
7
  6
CONTINUOUS
 90
7
 70
0
 10
14.6469149099
 20
7.6793122574
 10
14.6466649184
 20
7.6714397523
 10
14.6407420705
 20
7.6403401792
 10
14.6270240234
 20
7.6100158996
 10
14.6058608298
 20
7.5812467751
 10
14.5776748093
 20
7.5545819452
 10
14.5431348913
 20
7.530644649
  0
LWPOLYLINE
  5
57E
100
AcDbEntity
  8
02___PRT_ALL_AXES
100
AcDbPolyline
 62
7
  6
CONTINUOUS
 90
4
 70
0
 10
14.6173873509
 20
7.3249080523
 10
14.6171602681
 20
7.3178971421
 10
14.6117251379
 20
7.2900462092
 10
14.6019340295
 20
7.2677547801
  0
LWPOLYLINE
  5
57F
100
AcDbEntity
  8
0
100
AcDbPolyline
 62
7
  6
CONTINUOUS
 90
7
 70
0
 10
14.6469149056
 20
8.4829264834
 10
14.6466321818
 20
8.4745842678
 10
14.6405831812
 20
8.4434901876
 10
14.6268113989
 20
8.4133010057
 10
14.605661638
 20
8.3846674365
 10
14.5775477325
 20
8.3581236253
 10
14.5431348913
 20
8.3342887604
  0
LWPOLYLINE
  5
580
100
AcDbEntity
  8
0
100
AcDbPolyline
 62
7
  6
CONTINUOUS
 90
7
 70
0
 10
14.6469149056
 20
8.3543434256
 10
14.6466321818
 20
8.34600121
 10
14.6405831812
 20
8.3149071298
 10
14.6268113989
 20
8.2847179479
 10
14.605661638
 20
8.2560843787
 10
14.5775477325
 20
8.2295405675
 10
14.5431348913
 20
8.2057057026
  0
LWPOLYLINE
  5
581
100
AcDbEntity
  8
0
100
AcDbPolyline
 62
7
  6
CONTINUOUS
 90
7
 70
0
 10
14.6469149056
 20
8.2257603677
 10
14.6466321818
 20
8.2174181522
 10
14.6405831812
 20
8.186324072
 10
14.6268113989
 20
8.1561348901
 10
14.605661638
 20
8.1275013209
 10
14.5775477325
 20
8.1009575097
 10
14.5431348913
 20
8.0771226447
  0
LWPOLYLINE
  5
582
100
AcDbEntity
  8
0
100
AcDbPolyline
 62
7
  6
CONTINUOUS
 90
7
 70
0
 10
14.6469149056
 20
8.0971773099
 10
14.6466321818
 20
8.0888350944
 10
14.6405831812
 20
8.0577410141
 10
14.6268113989
 20
8.0275518323
 10
14.605661638
 20
7.998918263
 10
14.5775477325
 20
7.9723744519
 10
14.5431348913
 20
7.9485395869
  0
LWPOLYLINE
  5
583
100
AcDbEntity
  8
0
100
AcDbPolyline
 62
7
  6
CONTINUOUS
 90
7
 70
0
 10
14.6469149056
 20
7.9685942521
 10
14.6466321818
 20
7.9602520365
 10
14.6405831812
 20
7.9291579563
 10
14.6268113989
 20
7.8989687745
 10
14.605661638
 20
7.8703352052
 10
14.5775477325
 20
7.8437913941
 10
14.5431348913
 20
7.8199565291
  0
LWPOLYLINE
  5
584
100
AcDbEntity
  8
0
100
AcDbPolyline
 62
7
  6
CONTINUOUS
 90
4
 70
0
 10
14.6469149056
 20
7.8400111943
 10
14.6466321818
 20
7.8316689787
 10
14.6405831812
 20
7.8005748985
 10
14.6268113989
 20
7.7703857166
  0
LWPOLYLINE
  5
585
100
AcDbEntity
  8
0
100
AcDbPolyline
 62
7
  6
CONTINUOUS
 90
7
 70
0
 10
14.6469149056
 20
7.7114281365
 10
14.6466321818
 20
7.7030859209
 10
14.6405831812
 20
7.6719918407
 10
14.6268113989
 20
7.6418026588
 10
14.605661638
 20
7.6131690896
 10
14.5775477325
 20
7.5866252785
 10
14.5431348913
 20
7.5627904135
  0
LINE
  5
586
100
AcDbEntity
  8
0
100
AcDbLine
 62
7
  6
CONTINUOUS
 10
14.6469149099
 20
8.3865222404
 11
14.6460120345
 21
8.3715620787
  0
LINE
  5
587
100
AcDbEntity
  8
0
100
AcDbLine
 62
7
  6
CONTINUOUS
 10
14.6469149099
 20
8.2579391826
 11
14.6460120345
 21
8.2429790209
  0
LINE
  5
588
100
AcDbEntity
  8
0
100
AcDbLine
 62
7
  6
CONTINUOUS
 10
14.6469149099
 20
8.1293561248
 11
14.6460120345
 21
8.114395963
  0
LINE
  5
589
100
AcDbEntity
  8
0
100
AcDbLine
 62
7
  6
CONTINUOUS
 10
14.6469149099
 20
8.0007730669
 11
14.6460120345
 21
7.9858129052
  0
LINE
  5
58A
100
AcDbEntity
  8
0
100
AcDbLine
 62
7
  6
CONTINUOUS
 10
14.6469149099
 20
7.8721900091
 11
14.6460120345
 21
7.8572298474
  0
LINE
  5
58B
100
AcDbEntity
  8
0
100
AcDbLine
 62
7
  6
CONTINUOUS
 10
14.6469149099
 20
7.7436069513
 11
14.6460120345
 21
7.7286467896
  0
LINE
  5
58C
100
AcDbEntity
  8
0
100
AcDbLine
 62
7
  6
CONTINUOUS
 10
14.538647191
 20
7.0604886915
 11
14.5367669231
 21
7.0423475161
  0
LINE
  5
58D
100
AcDbEntity
  8
0
100
AcDbLine
 62
7
  6
CONTINUOUS
 10
14.5386471915
 20
7.1247826547
 11
14.536760131
 21
7.1066063924
  0
LWPOLYLINE
  5
58E
100
AcDbEntity
  8
0
100
AcDbPolyline
 62
7
  6
CONTINUOUS
 90
6
 70
0
 10
14.5386471934
 20
7.0926549199
 10
14.5357363109
 20
7.0700802538
 10
14.5268623097
 20
7.047626979
 10
14.5120190671
 20
7.0259747254
 10
14.4916401212
 20
7.005927088
 10
14.466577736
 20
6.988183742
  0
LWPOLYLINE
  5
58F
100
AcDbEntity
  8
0
100
AcDbPolyline
 62
7
  6
CONTINUOUS
 90
6
 70
0
 10
14.5386471934
 20
6.9640713211
 10
14.5356990137
 20
6.9413538577
 10
14.5268051626
 20
6.9189374377
 10
14.5119623753
 20
6.897324594
 10
14.4916035196
 20
6.8773136639
 10
14.466577736
 20
6.8596006842
  0
LWPOLYLINE
  5
590
100
AcDbEntity
  8
0
100
AcDbPolyline
 62
7
  6
CONTINUOUS
 90
4
 70
0
 10
14.5386471934
 20
6.9962170852
 10
14.5356036631
 20
6.9731373161
 10
14.5266135311
 20
6.9507281294
 10
14.5117345942
 20
6.9292017064
  0
LINE
  5
591
100
AcDbEntity
  8
0
100
AcDbLine
 62
7
  6
CONTINUOUS
 10
14.5386471933
 20
7.1569438997
 11
14.5355042604
 21
7.1334945347
  0
LWPOLYLINE
  5
592
100
AcDbEntity
  8
0
100
AcDbPolyline
 62
7
  6
CONTINUOUS
 90
6
 70
0
 10
14.5386471933
 20
7.0283599793
 10
14.5354689889
 20
7.0047810607
 10
14.526403406
 20
6.9824880272
 10
14.5116814442
 20
6.9612849769
 10
14.4915341076
 20
6.9415476494
 10
14.466577736
 20
6.9238922131
  0
LINE
  5
593
100
AcDbEntity
  8
0
100
AcDbLine
 62
7
  6
CONTINUOUS
 10
14.6466970842
 20
8.0255670885
 11
14.6409418141
 21
7.9945740856
  0
LINE
  5
594
100
AcDbEntity
  8
0
100
AcDbLine
 62
7
  6
CONTINUOUS
 10
14.6466970842
 20
7.8969840307
 11
14.6409418141
 21
7.8659910278
  0
LINE
  5
595
100
AcDbEntity
  8
0
100
AcDbLine
 62
7
  6
CONTINUOUS
 10
14.6466970842
 20
7.7684009728
 11
14.6409418141
 21
7.73740797
  0
LWPOLYLINE
  5
596
100
AcDbEntity
  8
0
100
AcDbPolyline
 62
7
  6
CONTINUOUS
 90
17
 70
0
 10
14.6397902129
 20
7.636784068
 10
14.636520979
 20
7.620392826
 10
14.6265271896
 20
7.596631484
 10
14.6114129139
 20
7.5735358044
 10
14.5894394189
 20
7.5498059624
 10
14.5600699085
 20
7.5266191142
 10
14.5249121062
 20
7.5060043862
 10
14.4851765749
 20
7.4887020902
 10
14.4420613607
 20
7.4751033528
 10
14.3960598822
 20
7.4652820457
 10
14.3478919123
 20
7.459425311
 10
14.2987291061
 20
7.4577223339
 10
14.2499962056
 20
7.4602039139
 10
14.2046909839
 20
7.4663972498
 10
14.1652816964
 20
7.4751565819
 10
14.1316172578
 20
7.4855289926
 10
14.1307313626
 20
7.4858812481
  0
LWPOLYLINE
  5
597
100
AcDbEntity
  8
0
100
AcDbPolyline
 62
7
  6
CONTINUOUS
 90
6
 70
0
 10
14.6460120345
 20
7.9858129052
 10
14.6388356157
 20
7.9562421347
 10
14.6245523477
 20
7.9274215592
 10
14.6034931476
 20
7.9000891199
 10
14.5761984741
 20
7.8748574035
 10
14.5431348913
 20
7.8521022936
  0
LWPOLYLINE
  5
598
100
AcDbEntity
  8
0
100
AcDbPolyline
 62
7
  6
CONTINUOUS
 90
3
 70
0
 10
14.6388356157
 20
7.8581975531
 10
14.6460120345
 20
7.8877683236
 10
14.6469149099
 20
7.9027284854
  0
LWPOLYLINE
  5
599
100
AcDbEntity
  8
0
100
AcDbPolyline
 62
7
  6
CONTINUOUS
 90
6
 70
0
 10
14.6460120345
 20
7.8572298474
 10
14.6388356157
 20
7.8276590769
 10
14.6245523477
 20
7.7988385014
 10
14.6034931476
 20
7.7715060621
 10
14.5761984741
 20
7.7462743456
 10
14.5431348913
 20
7.7235192357
  0
LWPOLYLINE
  5
59A
100
AcDbEntity
  8
0
100
AcDbPolyline
 62
7
  6
CONTINUOUS
 90
3
 70
0
 10
14.6388356157
 20
7.7296144953
 10
14.6460120345
 20
7.7591852658
 10
14.6469149099
 20
7.7741454275
  0
LWPOLYLINE
  5
59B
100
AcDbEntity
  8
0
100
AcDbPolyline
 62
7
  6
CONTINUOUS
 90
6
 70
0
 10
14.6460120345
 20
7.7286467896
 10
14.6388356157
 20
7.699076019
 10
14.6245523477
 20
7.6702554436
 10
14.6034931476
 20
7.6429230043
 10
14.5761984741
 20
7.6176912878
 10
14.5431348913
 20
7.5949361779
  0
LWPOLYLINE
  5
59C
100
AcDbEntity
  8
0
100
AcDbPolyline
 62
7
  6
CONTINUOUS
 90
5
 70
0
 10
14.6409418141
 20
7.8659910278
 10
14.627429752
 20
7.8357271341
 10
14.6061703259
 20
7.8066156008
 10
14.5777199784
 20
7.7796387361
 10
14.5431348913
 20
7.7556650002
  0
LWPOLYLINE
  5
59D
100
AcDbEntity
  8
0
100
AcDbPolyline
 62
7
  6
CONTINUOUS
 90
5
 70
0
 10
14.6409418141
 20
7.73740797
 10
14.627429752
 20
7.7071440763
 10
14.6061703259
 20
7.678032543
 10
14.5777199784
 20
7.6510556783
 10
14.5431348913
 20
7.6270819424
  0
LWPOLYLINE
  5
59E
100
AcDbEntity
  8
0
100
AcDbPolyline
 62
7
  6
CONTINUOUS
 90
4
 70
0
 10
14.6058608298
 20
7.7403683091
 10
14.6270240234
 20
7.7691374336
 10
14.6407420705
 20
7.7994617132
 10
14.64250807
 20
7.8087345885
  0
LINE
  5
59F
100
AcDbEntity
  8
0
100
AcDbLine
 62
7
  6
CONTINUOUS
 10
14.6268113989
 20
7.7703857166
 11
14.605661638
 21
7.7417521474
  0
LWPOLYLINE
  5
5A0
100
AcDbEntity
  8
0
100
AcDbPolyline
 62
7
  6
CONTINUOUS
 90
3
 70
0
 10
14.605661638
 20
7.7417521474
 10
14.5775477325
 20
7.7152083363
 10
14.5431348913
 20
7.6913734713
  0
LWPOLYLINE
  5
5A1
100
AcDbEntity
  8
0
100
AcDbPolyline
 62
7
  6
CONTINUOUS
 90
6
 70
0
 10
14.5431348913
 20
7.6576204186
 10
14.5777199784
 20
7.6815941545
 10
14.6061703259
 20
7.7085710192
 10
14.627429752
 20
7.7376825525
 10
14.6409418141
 20
7.7679464462
 10
14.6425415047
 20
7.7765610227
  0
LWPOLYLINE
  5
5A2
100
AcDbEntity
  8
0
100
AcDbPolyline
 62
7
  6
CONTINUOUS
 90
6
 70
0
 10
14.5431348913
 20
7.5933288897
 10
14.5775477325
 20
7.6171637547
 10
14.605661638
 20
7.6437075658
 10
14.6268113989
 20
7.6723411351
 10
14.6405831812
 20
7.7025303169
 10
14.6424819187
 20
7.7122905238
  0
LWPOLYLINE
  5
5A3
100
AcDbEntity
  8
0
100
AcDbPolyline
 62
7
  6
CONTINUOUS
 90
5
 70
0
 10
14.5431348913
 20
7.6254746542
 10
14.5761984741
 20
7.6482297641
 10
14.6034931476
 20
7.6734614805
 10
14.6245523477
 20
7.7007939198
 10
14.6388356157
 20
7.7296144953
  0
LWPOLYLINE
  5
5A4
100
AcDbEntity
  8
0
100
AcDbPolyline
 62
7
  6
CONTINUOUS
 90
16
 70
0
 10
14.5431348913
 20
7.6592277068
 10
14.5030043607
 20
7.6385230505
 10
14.4579708872
 20
7.6214275534
 10
14.4095320507
 20
7.6084761624
 10
14.3585992424
 20
7.5998322644
 10
14.3061631027
 20
7.595638082
 10
14.2532980497
 20
7.5959845645
 10
14.2014468018
 20
7.6008434577
 10
14.1514734931
 20
7.6101183857
 10
14.1047360887
 20
7.6235471
 10
14.0618067956
 20
7.6410018126
 10
14.0240878902
 20
7.6619728403
 10
13.9927117076
 20
7.6857258536
 10
13.9680385011
 20
7.7118409689
 10
13.9504825577
 20
7.7398926975
 10
13.940571625
 20
7.7690487957
  0
LWPOLYLINE
  5
5A5
100
AcDbEntity
  8
0
100
AcDbPolyline
 62
7
  6
CONTINUOUS
 90
16
 70
0
 10
14.5431348913
 20
7.6270819424
 10
14.5030525881
 20
7.6063987065
 10
14.4582563754
 20
7.5893735376
 10
14.4098216941
 20
7.5763933792
 10
14.3586973453
 20
7.5676986904
 10
14.3063203167
 20
7.5634980904
 10
14.2533128957
 20
7.5638380597
 10
14.2007682026
 20
7.5687922462
 10
14.1504724162
 20
7.5782088407
 10
14.1037883547
 20
7.5917284973
 10
14.0611956736
 20
7.6091479431
 10
14.023887099
 20
7.6299573665
 10
13.9924536996
 20
7.6538101023
 10
13.9678041293
 20
7.6799962816
 10
13.9503714799
 20
7.7079790603
 10
13.940486859
 20
7.7373219499
  0
LWPOLYLINE
  5
5A6
100
AcDbEntity
  8
0
100
AcDbPolyline
 62
7
  6
CONTINUOUS
 90
16
 70
0
 10
14.5431348913
 20
7.5949361779
 10
14.5030552232
 20
7.5742541127
 10
14.4582621394
 20
7.5572296276
 10
14.4098310537
 20
7.5442496527
 10
14.3587074915
 20
7.5355541877
 10
14.3061301477
 20
7.5313453481
 10
14.2528747968
 20
7.5317142962
 10
14.2007066511
 20
7.536655099
 10
14.1509224493
 20
7.5459566244
 10
14.1042482665
 20
7.5594236727
 10
14.0616095036
 20
7.5768043677
 10
14.0242455245
 20
7.5975791872
 10
13.9927480801
 20
7.6214019553
 10
13.9680078383
 20
7.6475887525
 10
13.9503601823
 20
7.675856968
 10
13.940436924
 20
7.7054267321
  0
LWPOLYLINE
  5
5A7
100
AcDbEntity
  8
0
100
AcDbPolyline
 62
7
  6
CONTINUOUS
 90
22
 70
0
 10
14.0321300622
 20
8.5047012385
 10
14.0596416595
 20
8.4844014458
 10
14.0917531729
 20
8.466475
 10
14.1278321843
 20
8.4512582031
 10
14.1674049781
 20
8.438969796
 10
14.2097797221
 20
8.4298770879
 10
14.2537949297
 20
8.4242316916
 10
14.2982437586
 20
8.4220994382
 10
14.3435324
 20
8.4234760926
 10
14.3900799035
 20
8.4286924875
 10
14.4375646218
 20
8.4383173932
 10
14.4833332743
 20
8.4523936415
 10
14.5233046281
 20
8.4695692453
 10
14.5566717432
 20
8.4887177001
 10
14.5861827506
 20
8.5112299895
 10
14.6099762191
 20
8.5360916724
 10
14.6271716744
 20
8.5622238317
 10
14.6378175018
 20
8.5892375058
 10
14.641933596
 20
8.6173432512
 10
14.6389439654
 20
8.6467207449
 10
14.6278445208
 20
8.6770760178
 10
14.611481839
 20
8.701976389
  0
LWPOLYLINE
  5
5A8
100
AcDbEntity
  8
0
100
AcDbPolyline
 62
7
  6
CONTINUOUS
 90
3
 70
0
 10
14.6459394602
 20
7.887469278
 10
14.6460069384
 20
7.8871916012
 10
14.6469149099
 20
7.8721900091
  0
LWPOLYLINE
  5
5A9
100
AcDbEntity
  8
0
100
AcDbPolyline
 62
7
  6
CONTINUOUS
 90
3
 70
0
 10
14.6459394602
 20
8.0160523358
 10
14.6460069384
 20
8.015774659
 10
14.6469149099
 20
8.0007730669
  0
LINE
  5
5AA
100
AcDbEntity
  8
0
100
AcDbLine
 62
7
  6
CONTINUOUS
 10
14.6453678912
 20
8.434696832
 11
14.6469149099
 21
8.4186641888
  0
LWPOLYLINE
  5
5AB
100
AcDbEntity
  8
0
100
AcDbPolyline
 62
7
  6
CONTINUOUS
 90
17
 70
0
 10
14.611481839
 20
8.7939694879
 10
14.6086418566
 20
8.8234135603
 10
14.5999525177
 20
8.8527599684
 10
14.5849604294
 20
8.8817545755
 10
14.5635421123
 20
8.9093876317
 10
14.5357581642
 20
8.9348638028
 10
14.5020914118
 20
8.9573507105
 10
14.4641778606
 20
8.9758394669
 10
14.4232100856
 20
8.9901226703
 10
14.3800860837
 20
9.0002200425
 10
14.335635014
 20
9.0061736273
 10
14.2906389035
 20
9.0080308528
 10
14.2457343808
 20
9.0058286141
 10
14.2016427742
 20
8.9995786632
 10
14.159100328
 20
8.9892861918
 10
14.118877268
 20
8.9749571186
 10
14.0817658059
 20
8.9565980235
  0
LINE
  5
5AC
100
AcDbEntity
  8
0
100
AcDbLine
 62
7
  6
CONTINUOUS
 10
14.6453678912
 20
8.5632798898
 11
14.6469149099
 21
8.5472472466
  0
LINE
  5
5AD
100
AcDbEntity
  8
0
100
AcDbLine
 62
7
  6
CONTINUOUS
 10
14.6453983533
 20
8.4668261204
 11
14.6469149099
 21
8.4508106043
  0
LINE
  5
5AE
100
AcDbEntity
  8
0
100
AcDbLine
 62
7
  6
CONTINUOUS
 10
14.6453798779
 20
8.5956042869
 11
14.6469149099
 21
8.5793936621
  0
LINE
  5
5AF
100
AcDbEntity
  8
0
100
AcDbLine
 62
7
  6
CONTINUOUS
 10
14.64541458
 20
8.4988638248
 11
14.6469149056
 21
8.4829264834
  0
LWPOLYLINE
  5
5B0
100
AcDbEntity
  8
0
100
AcDbPolyline
 62
7
  6
CONTINUOUS
 90
7
 70
0
 10
14.5431348913
 20
7.5290373608
 10
14.5777199784
 20
7.5530110967
 10
14.6061703259
 20
7.5799879614
 10
14.627429752
 20
7.6090994947
 10
14.6409418141
 20
7.6393633884
 10
14.6466970842
 20
7.6703563913
 10
14.6469149099
 20
7.6777043182
  0
LWPOLYLINE
  5
5B1
100
AcDbEntity
  8
0
100
AcDbPolyline
 62
7
  6
CONTINUOUS
 90
6
 70
0
 10
14.5431348913
 20
7.5611831253
 10
14.5776748093
 20
7.5851204215
 10
14.6058608298
 20
7.6117852513
 10
14.6270240234
 20
7.6405543758
 10
14.6407420705
 20
7.6708786554
 10
14.64250807
 20
7.6801515307
  0
LWPOLYLINE
  5
5B2
100
AcDbEntity
  8
0
100
AcDbPolyline
 62
7
  6
CONTINUOUS
 90
16
 70
0
 10
14.5431348913
 20
7.5627904135
 10
14.5031705351
 20
7.5421595956
 10
14.4580016746
 20
7.525000145
 10
14.4088788226
 20
7.5118974294
 10
14.3574728927
 20
7.5032561983
 10
14.3050018372
 20
7.4991593986
 10
14.2521415762
 20
7.4996060645
 10
14.2003147419
 20
7.5045643616
 10
14.1503967144
 20
7.5139352602
 10
14.103837899
 20
7.5274198066
 10
14.0613795722
 20
7.5447684327
 10
14.0237283802
 20
7.5657689927
 10
13.9921597857
 20
7.5897814581
 10
13.96757293
 20
7.616003095
 10
13.9501790684
 20
7.6440922998
 10
13.9404394049
 20
7.6732684521
  0
LWPOLYLINE
  5
5B3
100
AcDbEntity
  8
0
100
AcDbPolyline
 62
7
  6
CONTINUOUS
 90
16
 70
0
 10
14.5431348913
 20
7.530644649
 10
14.5030043607
 20
7.5099399926
 10
14.4579708872
 20
7.4928444956
 10
14.4095320507
 20
7.4798931045
 10
14.3585992424
 20
7.4712492066
 10
14.3061631027
 20
7.4670550242
 10
14.2532980497
 20
7.4674015067
 10
14.2014468018
 20
7.4722603998
 10
14.1514734931
 20
7.4815353279
 10
14.1047360887
 20
7.4949640422
 10
14.0618067956
 20
7.5124187548
 10
14.0240878902
 20
7.5333897825
 10
13.9927117076
 20
7.5571427958
 10
13.9680385011
 20
7.5832579111
 10
13.9504825577
 20
7.6113096396
 10
13.940571625
 20
7.6404657379
  0
LWPOLYLINE
  5
5B4
100
AcDbEntity
  8
0
100
AcDbPolyline
 62
7
  6
CONTINUOUS
 90
3
 70
0
 10
14.6459394602
 20
8.1446353937
 10
14.6460069384
 20
8.1443577168
 10
14.6469149099
 20
8.1293561248
  0
LWPOLYLINE
  5
5B5
100
AcDbEntity
  8
0
100
AcDbPolyline
 62
7
  6
CONTINUOUS
 90
3
 70
0
 10
14.6459394602
 20
8.2732184515
 10
14.6460069384
 20
8.2729407746
 10
14.6469149099
 20
8.2579391826
  0
LWPOLYLINE
  5
5B6
100
AcDbEntity
  8
0
100
AcDbPolyline
 62
7
  6
CONTINUOUS
 90
3
 70
0
 10
14.6459394602
 20
8.4018015093
 10
14.6460069384
 20
8.4015238325
 10
14.6469149099
 20
8.3865222404
  0
LWPOLYLINE
  5
5B7
100
AcDbEntity
  8
0
100
AcDbPolyline
 62
7
  6
CONTINUOUS
 90
5
 70
0
 10
14.5367669231
 20
7.0423475161
 10
14.5285351667
 20
7.0187301542
 10
14.5137176299
 20
6.9958787324
 10
14.4927486242
 20
6.9747086065
 10
14.466577736
 20
6.9560379776
  0
LWPOLYLINE
  5
5B8
100
AcDbEntity
  8
0
100
AcDbPolyline
 62
7
  6
CONTINUOUS
 90
5
 70
0
 10
14.536760131
 20
7.1066063924
 10
14.5285198647
 20
7.0829907165
 10
14.5137016516
 20
7.0601506054
 10
14.4927380888
 20
7.0389912522
 10
14.466577736
 20
7.0203295065
  0
LWPOLYLINE
  5
5B9
100
AcDbEntity
  8
0
100
AcDbPolyline
 62
7
  6
CONTINUOUS
 90
5
 70
0
 10
14.5355042604
 20
7.1334945347
 10
14.5264278939
 20
7.1111158694
 10
14.5115718224
 20
7.08973937
 10
14.4914769372
 20
7.0700833551
 10
14.466577736
 20
7.0524752709
  0
LWPOLYLINE
  5
5BA
100
AcDbEntity
  8
0
100
AcDbPolyline
 62
7
  6
CONTINUOUS
 90
3
 70
0
 10
14.6459394602
 20
8.5303845671
 10
14.6460069384
 20
8.5301068903
 10
14.6469149099
 20
8.5151052982
  0
LINE
  5
5BB
100
AcDbEntity
  8
02___PRT_ALL_AXES
100
AcDbLine
 62
7
  6
CONTINUOUS
 10
14.6019340295
 20
7.2677547801
 11
14.5550628434
 21
7.1831916499
  0
LWPOLYLINE
  5
5BC
100
AcDbEntity
  8
02___PRT_ALL_AXES
100
AcDbPolyline
 62
7
  6
CONTINUOUS
 90
5
 70
0
 10
14.6019340295
 20
7.2677547801
 10
14.5991609264
 20
7.2629740322
 10
14.5797482976
 20
7.2372853589
 10
14.5539208973
 20
7.2135540318
 10
14.5222556671
 20
7.1923101695
  0
LINE
  5
5BD
100
AcDbEntity
  8
02___PRT_ALL_AXES
100
AcDbLine
 62
7
  6
CONTINUOUS
 10
14.5550613914
 20
7.1831891201
 11
14.5381377013
 21
7.1594514953
  0
LWPOLYLINE
  5
5BE
100
AcDbEntity
  8
02___PRT_ALL_AXES
100
AcDbPolyline
 62
7
  6
CONTINUOUS
 90
3
 70
0
 10
14.5381377013
 20
7.1594514953
 10
14.5155423151
 20
7.1381633573
 10
14.4874569602
 20
7.1191780409
  0
LWPOLYLINE
  5
5BF
100
AcDbEntity
  8
0
100
AcDbPolyline
 62
7
  6
CONTINUOUS
 90
5
 70
0
 10
14.466577736
 20
7.0830137472
 10
14.4914769372
 20
7.1006218314
 10
14.5115718224
 20
7.1202778463
 10
14.5264278939
 20
7.1416543457
 10
14.5308683417
 20
7.152602702
  0
LWPOLYLINE
  5
5C0
100
AcDbEntity
  8
0
100
AcDbPolyline
 62
7
  6
CONTINUOUS
 90
5
 70
0
 10
14.4916035196
 20
6.9078521402
 10
14.5119623753
 20
6.9278630703
 10
14.5268051626
 20
6.949475914
 10
14.5356990137
 20
6.9718923339
 10
14.5386471934
 20
6.9946097974
  0
LWPOLYLINE
  5
5C1
100
AcDbEntity
  8
0
100
AcDbPolyline
 62
7
  6
CONTINUOUS
 90
3
 70
0
 10
14.5117345942
 20
6.9292017064
 10
14.4914557175
 20
6.9093369672
 10
14.466577736
 20
6.8917464487
  0
LWPOLYLINE
  5
5C2
100
AcDbEntity
  8
0
100
AcDbPolyline
 62
7
  6
CONTINUOUS
 90
6
 70
0
 10
14.466577736
 20
7.0508679827
 10
14.4927380888
 20
7.0695297284
 10
14.5137016516
 20
7.0906890816
 10
14.5285198647
 20
7.1135291927
 10
14.536760131
 20
7.1371448686
 10
14.5386471915
 20
7.1553211309
  0
LWPOLYLINE
  5
5C3
100
AcDbEntity
  8
0
100
AcDbPolyline
 62
7
  6
CONTINUOUS
 90
6
 70
0
 10
14.466577736
 20
6.9865764538
 10
14.4927486242
 20
7.0052470827
 10
14.5137176299
 20
7.0264172086
 10
14.5285351667
 20
7.0492686304
 10
14.5367669231
 20
7.0728859923
 10
14.538647191
 20
7.0910271678
  0
LWPOLYLINE
  5
5C4
100
AcDbEntity
  8
0
100
AcDbPolyline
 62
7
  6
CONTINUOUS
 90
6
 70
0
 10
14.466577736
 20
7.0187222183
 10
14.4916401212
 20
7.0364655642
 10
14.5120190671
 20
7.0565132017
 10
14.5268623097
 20
7.0781654552
 10
14.5357363109
 20
7.1006187301
 10
14.5386471934
 20
7.1231933961
  0
LWPOLYLINE
  5
5C5
100
AcDbEntity
  8
0
100
AcDbPolyline
 62
7
  6
CONTINUOUS
 90
15
 70
0
 10
14.466577736
 20
7.0203295065
 10
14.4374993796
 20
7.0051739568
 10
14.4045233985
 20
6.9926692979
 10
14.3686580392
 20
6.9832696067
 10
14.3312295569
 20
6.9772715692
 10
14.2927719946
 20
6.9747056484
 10
14.2538338929
 20
6.9756652947
 10
14.2158864767
 20
6.9801574294
 10
14.1803075624
 20
6.9879285751
 10
14.1477688448
 20
6.9986908438
 10
14.1185119872
 20
7.0123361545
 10
14.0933877585
 20
7.0285368433
 10
14.0733125007
 20
7.0466740907
 10
14.0585583596
 20
7.0664456348
 10
14.0494792861
 20
7.0875601206
  0
LWPOLYLINE
  5
5C6
100
AcDbEntity
  8
0
100
AcDbPolyline
 62
7
  6
CONTINUOUS
 90
15
 70
0
 10
14.466577736
 20
7.0524752709
 10
14.437292792
 20
7.0372275878
 10
14.4040470179
 20
7.0246638234
 10
14.3680287364
 20
7.0152840453
 10
14.3306005411
 20
7.009346823
 10
14.2923306209
 20
7.0068422698
 10
14.2538241328
 20
7.0078117524
 10
14.2164947433
 20
7.0122018027
 10
14.1812600915
 20
7.0198160804
 10
14.1484034735
 20
7.0305870834
 10
14.1187315735
 20
7.0443616425
 10
14.0934195641
 20
7.0606584188
 10
14.0733213517
 20
7.0788102264
 10
14.058612701
 20
7.0984985857
 10
14.049554054
 20
7.1194417596
  0
LINE
  5
5C7
100
AcDbEntity
  8
0
100
AcDbLine
 62
7
  6
CONTINUOUS
 10
14.466577736
 20
6.8901391604
 11
14.4916035196
 21
6.9078521402
  0
LWPOLYLINE
  5
5C8
100
AcDbEntity
  8
0
100
AcDbPolyline
 62
7
  6
CONTINUOUS
 90
6
 70
0
 10
14.466577736
 20
6.9544306893
 10
14.4915341076
 20
6.9720861256
 10
14.5116814442
 20
6.9918234531
 10
14.526403406
 20
7.0130265034
 10
14.5354689889
 20
7.0353195369
 10
14.5386471933
 20
7.0588984555
  0
LWPOLYLINE
  5
5C9
100
AcDbEntity
  8
0
100
AcDbPolyline
 62
7
  6
CONTINUOUS
 90
6
 70
0
 10
14.466577736
 20
6.9222849249
 10
14.4914557175
 20
6.9398754435
 10
14.5117345942
 20
6.9597401826
 10
14.5266135311
 20
6.9812666056
 10
14.5356036631
 20
7.0036757923
 10
14.5386471934
 20
7.0267555615
  0
LWPOLYLINE
  5
5CA
100
AcDbEntity
  8
0
100
AcDbPolyline
 62
7
  6
CONTINUOUS
 90
14
 70
0
 10
14.466577736
 20
6.988183742
 10
14.4373654287
 20
6.9729684312
 10
14.4045304046
 20
6.9605257634
 10
14.3691712217
 20
6.9512317439
 10
14.3319367422
 20
6.9452062356
 10
14.2934589575
 20
6.9425750237
 10
14.2544780313
 20
6.9434742894
 10
14.2164656953
 20
6.9479150931
 10
14.1808050658
 20
6.9556475531
 10
14.1480102114
 20
6.9664499726
 10
14.1186128825
 20
6.9801350868
 10
14.0936663517
 20
6.9961795887
 10
14.0736126148
 20
7.0142028975
 10
14.0587550816
 20
7.0339649403
  0
LWPOLYLINE
  5
5CB
100
AcDbEntity
  8
0
100
AcDbPolyline
 62
7
  6
CONTINUOUS
 90
14
 70
0
 10
14.466577736
 20
6.9560379776
 10
14.4356654791
 20
6.9400712713
 10
14.4004355798
 20
6.927104649
 10
14.3622905866
 20
6.9176991882
 10
14.3228058927
 20
6.9121157126
 10
14.2824625297
 20
6.9103199026
 10
14.2419325007
 20
6.912391866
 10
14.202882635
 20
6.9182771394
 10
14.1666975876
 20
6.9276618412
 10
14.133520301
 20
6.9404873001
 10
14.104530574
 20
6.9564032729
 10
14.0809161254
 20
6.9747327024
 10
14.0633321312
 20
6.9947300264
 10
14.05179961
 20
7.0162306708
  0
LWPOLYLINE
  5
5CC
100
AcDbEntity
  8
0
100
AcDbPolyline
 62
7
  6
CONTINUOUS
 90
6
 70
0
 10
14.466577736
 20
6.857993396
 10
14.4916250872
 20
6.8757242672
 10
14.5119957858
 20
6.8957568245
 10
14.5268388822
 20
6.9173929466
 10
14.5357206046
 20
6.9398294333
 10
14.5386471934
 20
6.9624642108
  0
LWPOLYLINE
  5
5CD
100
AcDbEntity
  8
0
100
AcDbPolyline
 62
7
  6
CONTINUOUS
 90
5
 70
0
 10
14.436650848
 20
6.8270526553
 10
14.4556871081
 20
6.8397363975
 10
14.4714030633
 20
6.8538551392
 10
14.4834787822
 20
6.8691214635
 10
14.4841431929
 20
6.8704278786
  0
LWPOLYLINE
  5
5CE
100
AcDbEntity
  8
0
100
AcDbPolyline
 62
7
  6
CONTINUOUS
 90
14
 70
0
 10
14.466577736
 20
6.9238922131
 10
14.4372355641
 20
6.9086190418
 10
14.4039201142
 20
6.8960406058
 10
14.3678267726
 20
6.8866590718
 10
14.3303283348
 20
6.8807335518
 10
14.2921120644
 20
6.8782548538
 10
14.2538954095
 20
6.8792236374
 10
14.2166567034
 20
6.8835919163
 10
14.1812424723
 20
6.8912377728
 10
14.1483304839
 20
6.9020326351
 10
14.1186170887
 20
6.9158412538
 10
14.0932836509
 20
6.9321788056
 10
14.0731865978
 20
6.95037397
 10
14.0585350523
 20
6.9700482192
  0
LINE
  5
5CF
100
AcDbEntity
  8
0
100
AcDbLine
 62
7
  6
CONTINUOUS
 10
14.4372162631
 20
6.8443189199
 11
14.466577736
 21
6.8596006842
  0
LWPOLYLINE
  5
5D0
100
AcDbEntity
  8
0
100
AcDbPolyline
 62
7
  6
CONTINUOUS
 90
14
 70
0
 10
14.466577736
 20
6.8917464487
 10
14.4357115584
 20
6.8757999393
 10
14.4005379339
 20
6.8628443216
 10
14.3624527537
 20
6.8534388663
 10
14.3230019001
 20
6.8478423414
 10
14.2824584364
 20
6.8460283858
 10
14.2418335572
 20
6.8481102633
 10
14.2027976001
 20
6.8540029419
 10
14.166685132
 20
6.8633742929
 10
14.1335523946
 20
6.8761809495
 10
14.1045943862
 20
6.8920701603
 10
14.0809947691
 20
6.9103678382
 10
14.0633495208
 20
6.9304137516
 10
14.0517224873
 20
6.952143627
  0
LWPOLYLINE
  5
5D1
100
AcDbEntity
  8
0
100
AcDbPolyline
 62
7
  6
CONTINUOUS
 90
14
 70
0
 10
14.436650848
 20
6.8270526553
 10
14.4146818065
 20
6.8160621169
 10
14.3902272098
 20
6.806988518
 10
14.363784883
 20
6.800016571
 10
14.3358931157
 20
6.7952882046
 10
14.3071197038
 20
6.7928996747
 10
14.2780503909
 20
6.7928996048
 10
14.2492769446
 20
6.7952879964
 10
14.221385109
 20
6.8000162288
 10
14.1949426817
 20
6.8069880486
 10
14.1704879542
 20
6.8160615299
 10
14.1485187541
 20
6.8270519627
 10
14.1294823111
 20
6.8397356134
 10
14.1154355368
 20
6.8523545821
  0
LINE
  5
5D2
100
AcDbEntity
  8
0
100
AcDbLine
 62
7
  6
CONTINUOUS
 10
8.6971248759
 20
4.1301952518
 11
8.6993118078
 21
4.1308013037
  0
LINE
  5
5D3
100
AcDbEntity
  8
0
100
AcDbLine
 62
7
  6
CONTINUOUS
 10
8.6949670111
 20
4.0908251731
 11
8.2874866962
 21
4.0908251731
  0
LINE
  5
5D4
100
AcDbEntity
  8
0
100
AcDbLine
 62
7
  6
CONTINUOUS
 10
8.702044302
 20
4.1301952518
 11
8.2451638615
 21
4.1301952518
  0
LWPOLYLINE
  5
5D5
100
AcDbEntity
  8
0
100
AcDbPolyline
 62
7
  6
CONTINUOUS
 90
8
 70
0
 10
8.2481591537
 20
4.1705440076
 10
8.2570663554
 20
4.1715222079
 10
8.27170533
 20
4.1725024666
 10
8.2916934757
 20
4.1734821816
 10
8.3167023939
 20
4.1744674149
 10
8.3464122421
 20
4.1754650988
 10
8.3797796634
 20
4.1764626105
 10
8.415501313
 20
4.1774477012
  0
LWPOLYLINE
  5
5D6
100
AcDbEntity
  8
0
100
AcDbPolyline
 62
7
  6
CONTINUOUS
 90
8
 70
0
 10
8.7342639467
 20
4.2296052778
 10
8.7251162326
 20
4.2286097284
 10
8.71008953
 20
4.227614894
 10
8.6898490557
 20
4.2266326228
 10
8.6648847668
 20
4.2256556438
 10
8.6356975726
 20
4.2246783595
 10
8.6030393752
 20
4.2237021118
 10
8.5676566198
 20
4.2227254388
  0
LWPOLYLINE
  5
5D7
100
AcDbEntity
  8
0
100
AcDbPolyline
 62
7
  6
CONTINUOUS
 90
8
 70
0
 10
8.7339631412
 20
4.190187358
 10
8.7239150828
 20
4.1891434424
 10
8.7074622162
 20
4.1881015954
 10
8.6853930603
 20
4.1870741547
 10
8.6579115301
 20
4.1860396646
 10
8.6255916965
 20
4.1849958908
 10
8.5897331299
 20
4.183957148
 10
8.5516949529
 20
4.1829320966
  0
LWPOLYLINE
  5
5D8
100
AcDbEntity
  8
0
100
AcDbPolyline
 62
7
  6
CONTINUOUS
 90
8
 70
0
 10
8.2484992622
 20
4.131228118
 10
8.2585738427
 20
4.1322734392
 10
8.2750701432
 20
4.1333167246
 10
8.2971952468
 20
4.1343455476
 10
8.3247566906
 20
4.1353818829
 10
8.3571807205
 20
4.1364279178
 10
8.3931631728
 20
4.1374692715
 10
8.4312359947
 20
4.1384945632
  0
LWPOLYLINE
  5
5D9
100
AcDbEntity
  8
0
100
AcDbPolyline
 62
7
  6
CONTINUOUS
 90
9
 70
0
 10
8.5337474437
 20
4.1619941616
 10
8.567499155
 20
4.1630541252
 10
8.5990734571
 20
4.1641140889
 10
8.6275689717
 20
4.1651740525
 10
8.6521722137
 20
4.1662340162
 10
8.6721808135
 20
4.1672939799
 10
8.687023569
 20
4.1683539435
 10
8.6962767516
 20
4.1694139072
 10
8.6993118078
 20
4.1701713824
  0
LWPOLYLINE
  5
5DA
100
AcDbEntity
  8
0
100
AcDbPolyline
 62
7
  6
CONTINUOUS
 90
10
 70
0
 10
8.4586158107
 20
4.1990928896
 10
8.5288036421
 20
4.2012128169
 10
8.5627888682
 20
4.2022727806
 10
8.5947311535
 20
4.2033327442
 10
8.6237186148
 20
4.2043927079
 10
8.6489237227
 20
4.2054526716
 10
8.669626926
 20
4.2065126352
 10
8.6852371929
 20
4.2075725989
 10
8.695308884
 20
4.2086325625
 10
8.6993118078
 20
4.2095414612
  0
LINE
  5
5DB
100
AcDbEntity
  8
0
100
AcDbLine
 62
7
  6
CONTINUOUS
 10
8.4292080084
 20
4.1588142706
 11
8.5337474437
 21
4.1619941616
  0
LWPOLYLINE
  5
5DC
100
AcDbEntity
  8
0
100
AcDbPolyline
 62
7
  6
CONTINUOUS
 90
8
 70
0
 10
8.5672479069
 20
4.1439743351
 10
8.6029234271
 20
4.1449586402
 10
8.635849539
 20
4.1459429839
 10
8.6652139107
 20
4.1469273281
 10
8.6902924625
 20
4.1479116342
 10
8.7104685859
 20
4.1488959271
 10
8.7252459133
 20
4.1498802292
 10
8.7342602155
 20
4.1508645128
  0
LWPOLYLINE
  5
5DD
100
AcDbEntity
  8
0
100
AcDbPolyline
 62
7
  6
CONTINUOUS
 90
9
 70
0
 10
8.5668278142
 20
4.1813646653
 10
8.6025533838
 20
4.1823496441
 10
8.6359303172
 20
4.1833471016
 10
8.6656557399
 20
4.1843448341
 10
8.690682887
 20
4.1853301544
 10
8.7107097803
 20
4.1863110591
 10
8.7254061569
 20
4.1872950517
 10
8.7343017735
 20
4.1882728755
 10
8.73696799
 20
4.1889298491
  0
LWPOLYLINE
  5
5DE
100
AcDbEntity
  8
0
100
AcDbPolyline
 62
7
  6
CONTINUOUS
 90
9
 70
0
 10
8.5521808432
 20
4.1416062818
 10
8.5902717296
 20
4.1426335402
 10
8.62617855
 20
4.1436751632
 10
8.6584901419
 20
4.1447211415
 10
8.6859127112
 20
4.145757162
 10
8.7077679406
 20
4.1467793655
 10
8.7240001745
 20
4.1478115332
 10
8.7339702959
 20
4.1488498877
 10
8.73696799
 20
4.1495597704
  0
LWPOLYLINE
  5
5DF
100
AcDbEntity
  8
0
100
AcDbPolyline
 62
7
  6
CONTINUOUS
 90
9
 70
0
 10
8.4304265087
 20
4.179811882
 10
8.3923719737
 20
4.1787858698
 10
8.3564963712
 20
4.1777456969
 10
8.3241988108
 20
4.1767011469
 10
8.2967700827
 20
4.1756664934
 10
8.2748376921
 20
4.1746428963
 10
8.2584894913
 20
4.1736054151
 10
8.2484837354
 20
4.1725642884
 10
8.2454857172
 20
4.1718543553
  0
LINE
  5
5E0
100
AcDbEntity
  8
0
100
AcDbLine
 62
7
  6
CONTINUOUS
 10
8.4312359947
 20
4.1384945632
 11
8.5521808432
 21
4.1416062818
  0
LINE
  5
5E1
100
AcDbEntity
  8
0
100
AcDbLine
 62
7
  6
CONTINUOUS
 10
8.4151672801
 20
4.1400371844
 11
8.5672479069
 21
4.1439743351
  0
LINE
  5
5E2
100
AcDbEntity
  8
0
100
AcDbLine
 62
7
  6
CONTINUOUS
 10
8.415501313
 20
4.1774477012
 11
8.5668278142
 21
4.1813646653
  0
LINE
  5
5E3
100
AcDbEntity
  8
0
100
AcDbLine
 62
7
  6
CONTINUOUS
 10
8.5516949529
 20
4.1829320966
 11
8.4304265087
 21
4.179811882
  0
LINE
  5
5E4
100
AcDbEntity
  8
0
100
AcDbLine
 62
7
  6
CONTINUOUS
 10
8.2454857173
 20
4.1692448097
 11
8.2823828334
 21
4.1508645434
  0
LINE
  5
5E5
100
AcDbEntity
  8
0
100
AcDbLine
 62
7
  6
CONTINUOUS
 10
8.2454857173
 20
4.2086148885
 11
8.2823828334
 21
4.1902346221
  0
LWPOLYLINE
  5
5E6
100
AcDbEntity
  8
0
100
AcDbPolyline
 62
7
  6
CONTINUOUS
 90
9
 70
0
 10
8.2454857172
 20
4.1324842765
 10
8.2481872426
 20
4.1331470203
 10
8.2571954585
 20
4.134131305
 10
8.2719667982
 20
4.1351155959
 10
8.2921374403
 20
4.1360998853
 10
8.3172111513
 20
4.1370841911
 10
8.3465713825
 20
4.138068535
 10
8.3794941801
 20
4.139052879
 10
8.4151672801
 20
4.1400371844
  0
LWPOLYLINE
  5
5E7
100
AcDbEntity
  8
0
100
AcDbPolyline
 62
7
  6
CONTINUOUS
 90
9
 70
0
 10
8.2831418996
 20
4.190612822
 10
8.2882318692
 20
4.191673144
 10
8.2991161872
 20
4.1927331077
 10
8.3154848495
 20
4.1937930713
 10
8.3368705661
 20
4.194853035
 10
8.362662821
 20
4.1959129986
 10
8.392125301
 20
4.1969729623
 10
8.4244169162
 20
4.198032926
 10
8.4586158107
 20
4.1990928896
  0
LWPOLYLINE
  5
5E8
100
AcDbEntity
  8
0
100
AcDbPolyline
 62
7
  6
CONTINUOUS
 90
8
 70
0
 10
8.7342889991
 20
4.3083495242
 10
8.7253280662
 20
4.3073673251
 10
8.7107318634
 20
4.3063910434
 10
8.690805976
 20
4.3054142501
 10
8.6658363888
 20
4.3044300997
 10
8.636174635
 20
4.3034335374
 10
8.6028604363
 20
4.3024371551
 10
8.5671899993
 20
4.3014530997
  0
LWPOLYLINE
  5
5E9
100
AcDbEntity
  8
0
100
AcDbPolyline
 62
7
  6
CONTINUOUS
 90
8
 70
0
 10
8.248189382
 20
4.2492891011
 10
8.2573364046
 20
4.2502846245
 10
8.2723632749
 20
4.2512794964
 10
8.2926038822
 20
4.2522617847
 10
8.317527625
 20
4.2532373116
 10
8.3466396765
 20
4.2542124168
 10
8.3794310496
 20
4.2551928068
 10
8.4148655251
 20
4.2561708352
  0
LWPOLYLINE
  5
5EA
100
AcDbEntity
  8
0
100
AcDbPolyline
 62
7
  6
CONTINUOUS
 90
8
 70
0
 10
8.2484837354
 20
4.2099658632
 10
8.2584894913
 20
4.2110069899
 10
8.2748376921
 20
4.2120444711
 10
8.2967700827
 20
4.2130680682
 10
8.3241988108
 20
4.2141027217
 10
8.3564963712
 20
4.2151472717
 10
8.3923719737
 20
4.2161874446
 10
8.4304265087
 20
4.2172134568
  0
LWPOLYLINE
  5
5EB
100
AcDbEntity
  8
0
100
AcDbPolyline
 62
7
  6
CONTINUOUS
 90
8
 70
0
 10
8.733953852
 20
4.2689260731
 10
8.7238780213
 20
4.2678806998
 10
8.7073814609
 20
4.2668374465
 10
8.6852716706
 20
4.2658092826
 10
8.6579145437
 20
4.2647799264
 10
8.6256763924
 20
4.2637386231
 10
8.5898168112
 20
4.2626996311
 10
8.5517090048
 20
4.2616726232
  0
LWPOLYLINE
  5
5EC
100
AcDbEntity
  8
0
100
AcDbPolyline
 62
7
  6
CONTINUOUS
 90
8
 70
0
 10
8.5550100492
 20
4.2807657162
 10
8.587649698
 20
4.2818303153
 10
8.6175126128
 20
4.2828949144
 10
8.643738817
 20
4.2839595134
 10
8.6655730624
 20
4.2850241125
 10
8.6823865778
 20
4.2860887116
 10
8.6936951764
 20
4.2871533106
 10
8.6993118078
 20
4.2882816187
  0
LWPOLYLINE
  5
5ED
100
AcDbEntity
  8
0
100
AcDbPolyline
 62
7
  6
CONTINUOUS
 90
9
 70
0
 10
8.5238378967
 20
4.2404314723
 10
8.5580367911
 20
4.2414914359
 10
8.5903284063
 20
4.2425513996
 10
8.6197908864
 20
4.2436113633
 10
8.6455831413
 20
4.2446713269
 10
8.6669688578
 20
4.2457312906
 10
8.6833375201
 20
4.2467912542
 10
8.6942218382
 20
4.2478512179
 10
8.6993118078
 20
4.2489115399
  0
LINE
  5
5EE
100
AcDbEntity
  8
0
100
AcDbLine
 62
7
  6
CONTINUOUS
 10
8.4500659755
 20
4.277571919
 11
8.5550100492
 21
4.2807657162
  0
LWPOLYLINE
  5
5EF
100
AcDbEntity
  8
0
100
AcDbPolyline
 62
7
  6
CONTINUOUS
 90
9
 70
0
 10
8.4148655251
 20
4.2187692604
 10
8.3794310496
 20
4.217791232
 10
8.3466396765
 20
4.216810842
 10
8.317527625
 20
4.2158357368
 10
8.2926038822
 20
4.2148602099
 10
8.2723632749
 20
4.2138779216
 10
8.2573364046
 20
4.2128830497
 10
8.248189382
 20
4.2118875263
 10
8.2454857172
 20
4.211224434
  0
LWPOLYLINE
  5
5F0
100
AcDbEntity
  8
0
100
AcDbPolyline
 62
7
  6
CONTINUOUS
 90
9
 70
0
 10
8.5676566198
 20
4.2601270136
 10
8.6030393752
 20
4.2611036866
 10
8.6356975726
 20
4.2620799343
 10
8.6648847668
 20
4.2630572186
 10
8.6898490557
 20
4.2640341976
 10
8.71008953
 20
4.2650164688
 10
8.7251162326
 20
4.2660113032
 10
8.7342639467
 20
4.2670068526
 10
8.73696799
 20
4.2676700066
  0
LWPOLYLINE
  5
5F1
100
AcDbEntity
  8
0
100
AcDbPolyline
 62
7
  6
CONTINUOUS
 90
9
 70
0
 10
8.5516949529
 20
4.2203336714
 10
8.5897331299
 20
4.2213587228
 10
8.6255916965
 20
4.2223974656
 10
8.6579115301
 20
4.2234412394
 10
8.6853930603
 20
4.2244757295
 10
8.7074622162
 20
4.2255031702
 10
8.7239150828
 20
4.2265450173
 10
8.7339631412
 20
4.2275889328
 10
8.73696799
 20
4.2282999278
  0
LWPOLYLINE
  5
5F2
100
AcDbEntity
  8
0
100
AcDbPolyline
 62
7
  6
CONTINUOUS
 90
9
 70
0
 10
8.4302771556
 20
4.2585481142
 10
8.3923281509
 20
4.2575248086
 10
8.3568109177
 20
4.2564954219
 10
8.3246579245
 20
4.2554572069
 10
8.2971940151
 20
4.2544242367
 10
8.2750716378
 20
4.2533955444
 10
8.2585746053
 20
4.252352239
 10
8.2484994583
 20
4.2513068886
 10
8.2454857172
 20
4.2505945128
  0
LWPOLYLINE
  5
5F3
100
AcDbEntity
  8
0
100
AcDbPolyline
 62
7
  6
CONTINUOUS
 90
9
 70
0
 10
8.5517090048
 20
4.2990741981
 10
8.5898168112
 20
4.3001012059
 10
8.6256763924
 20
4.3011401979
 10
8.6579145437
 20
4.3021815012
 10
8.6852716706
 20
4.3032108574
 10
8.7073814609
 20
4.3042390213
 10
8.7238780213
 20
4.3052822746
 10
8.733953852
 20
4.3063276479
 10
8.73696799
 20
4.3070400853
  0
LINE
  5
5F4
100
AcDbEntity
  8
0
100
AcDbLine
 62
7
  6
CONTINUOUS
 10
8.4304265087
 20
4.2172134568
 11
8.5516949529
 21
4.2203336714
  0
LINE
  5
5F5
100
AcDbEntity
  8
0
100
AcDbLine
 62
7
  6
CONTINUOUS
 10
8.5676566198
 20
4.2227254388
 11
8.4148655251
 21
4.2187692604
  0
LINE
  5
5F6
100
AcDbEntity
  8
0
100
AcDbLine
 62
7
  6
CONTINUOUS
 10
8.4148655251
 20
4.2561708352
 11
8.5676566198
 21
4.2601270136
  0
LINE
  5
5F7
100
AcDbEntity
  8
0
100
AcDbLine
 62
7
  6
CONTINUOUS
 10
8.5517090048
 20
4.2616726232
 11
8.4302771556
 21
4.2585481142
  0
LINE
  5
5F8
100
AcDbEntity
  8
0
100
AcDbLine
 62
7
  6
CONTINUOUS
 10
8.4302771556
 20
4.295949689
 11
8.5517090048
 21
4.2990741981
  0
LINE
  5
5F9
100
AcDbEntity
  8
0
100
AcDbLine
 62
7
  6
CONTINUOUS
 10
8.2454857173
 20
4.2479849672
 11
8.2823828334
 21
4.2296047009
  0
LINE
  5
5FA
100
AcDbEntity
  8
0
100
AcDbLine
 62
7
  6
CONTINUOUS
 10
8.2454857173
 20
4.2873550459
 11
8.2823828334
 21
4.2689747796
  0
LINE
  5
5FB
100
AcDbEntity
  8
0
100
AcDbLine
 62
7
  6
CONTINUOUS
 10
8.1694696348
 20
6.16879223
 11
8.1370622373
 21
6.1500721531
  0
LWPOLYLINE
  5
5FC
100
AcDbEntity
  8
0
100
AcDbPolyline
 62
7
  6
CONTINUOUS
 90
9
 70
0
 10
8.2831418996
 20
4.2693529795
 10
8.2862327772
 20
4.2701197255
 10
8.2955894405
 20
4.2711843246
 10
8.3105799666
 20
4.2722489237
 10
8.3307726663
 20
4.2733135227
 10
8.3555860409
 20
4.2743781218
 10
8.3843055279
 20
4.2754427209
 10
8.4161040788
 20
4.27650732
 10
8.4500659755
 20
4.277571919
  0
LWPOLYLINE
  5
5FD
100
AcDbEntity
  8
0
100
AcDbPolyline
 62
7
  6
CONTINUOUS
 90
10
 70
0
 10
8.2831418996
 20
4.2299829008
 10
8.2871448234
 20
4.2308917994
 10
8.2972165145
 20
4.231951763
 10
8.3128267814
 20
4.2330117267
 10
8.3335299846
 20
4.2340716903
 10
8.3587350926
 20
4.235131654
 10
8.3877225539
 20
4.2361916177
 10
8.4196648392
 20
4.2372515813
 10
8.4536500653
 20
4.238311545
 10
8.5238378967
 20
4.2404314723
  0
LWPOLYLINE
  5
5FE
100
AcDbEntity
  8
0
100
AcDbPolyline
 62
7
  6
CONTINUOUS
 90
8
 70
0
 10
8.2481377916
 20
4.3280208193
 10
8.2570843654
 20
4.329004015
 10
8.2718748169
 20
4.3299923207
 10
8.2919540688
 20
4.3309738224
 10
8.3169895393
 20
4.3319580939
 10
8.3467075019
 20
4.3329547086
 10
8.3800637563
 20
4.3339510372
 10
8.4157572118
 20
4.3349348638
  0
LWPOLYLINE
  5
5FF
100
AcDbEntity
  8
0
100
AcDbPolyline
 62
7
  6
CONTINUOUS
 90
8
 70
0
 10
8.7343147438
 20
4.3477238225
 10
8.7253256429
 20
4.3467372035
 10
8.7104873941
 20
4.3457473759
 10
8.6903861874
 20
4.34476609
 10
8.6653516794
 20
4.343782685
 10
8.6356471424
 20
4.3427870095
 10
8.6023170711
 20
4.3417917171
 10
8.5666583228
 20
4.3408089493
  0
LWPOLYLINE
  5
600
100
AcDbEntity
  8
0
100
AcDbPolyline
 62
7
  6
CONTINUOUS
 90
8
 70
0
 10
8.7342749979
 20
4.3870873944
 10
8.7251604057
 20
4.3860936677
 10
8.7101864066
 20
4.3851006114
 10
8.6900115468
 20
4.384119953
 10
8.6650395381
 20
4.3831415243
 10
8.6356391403
 20
4.3821568366
 10
8.6028876568
 20
4.3811780904
 10
8.5676753995
 20
4.3802062569
  0
LWPOLYLINE
  5
601
100
AcDbEntity
  8
0
100
AcDbPolyline
 62
7
  6
CONTINUOUS
 90
8
 70
0
 10
8.2484994583
 20
4.2887084634
 10
8.2585746053
 20
4.2897538138
 10
8.2750716378
 20
4.2907971192
 10
8.2971940151
 20
4.2918258116
 10
8.3246579245
 20
4.2928587817
 10
8.3568109177
 20
4.2938969967
 10
8.3923281509
 20
4.2949263834
 10
8.4302771556
 20
4.295949689
  0
LWPOLYLINE
  5
602
100
AcDbEntity
  8
0
100
AcDbPolyline
 62
7
  6
CONTINUOUS
 90
8
 70
0
 10
8.5556459476
 20
4.3201558817
 10
8.5882416949
 20
4.3212204808
 10
8.61804366
 20
4.3222850799
 10
8.6441936218
 20
4.3233496789
 10
8.6659385275
 20
4.324414278
 10
8.6826521787
 20
4.3254788771
 10
8.6938532647
 20
4.3265434761
 10
8.6993118078
 20
4.3276516974
  0
LWPOLYLINE
  5
603
100
AcDbEntity
  8
0
100
AcDbPolyline
 62
7
  6
CONTINUOUS
 90
8
 70
0
 10
8.556281184
 20
4.3595460473
 10
8.5888326947
 20
4.3606106463
 10
8.618573404
 20
4.3616752454
 10
8.6446468546
 20
4.3627398445
 10
8.6663021972
 20
4.3638044435
 10
8.6829158126
 20
4.3648690426
 10
8.6940092706
 20
4.3659336417
 10
8.6993118078
 20
4.3670217761
  0
LINE
  5
604
100
AcDbEntity
  8
0
100
AcDbLine
 62
7
  6
CONTINUOUS
 10
8.4507213061
 20
4.3169620845
 11
8.5556459476
 21
4.3201558817
  0
LINE
  5
605
100
AcDbEntity
  8
0
100
AcDbLine
 62
7
  6
CONTINUOUS
 10
8.4513770529
 20
4.35635225
 11
8.556281184
 21
4.3595460473
  0
LWPOLYLINE
  5
606
100
AcDbEntity
  8
0
100
AcDbPolyline
 62
7
  6
CONTINUOUS
 90
9
 70
0
 10
8.4157572118
 20
4.297533289
 10
8.3800637563
 20
4.2965494624
 10
8.3467075019
 20
4.2955531338
 10
8.3169895393
 20
4.2945565191
 10
8.2919540688
 20
4.2935722476
 10
8.2718748169
 20
4.2925907459
 10
8.2570843654
 20
4.2916024402
 10
8.2481377916
 20
4.2906192445
 10
8.2454857172
 20
4.2899645915
  0
LWPOLYLINE
  5
607
100
AcDbEntity
  8
0
100
AcDbPolyline
 62
7
  6
CONTINUOUS
 90
9
 70
0
 10
8.5671899993
 20
4.3388546745
 10
8.6028604363
 20
4.3398387299
 10
8.636174635
 20
4.3408351122
 10
8.6658363888
 20
4.3418316745
 10
8.690805976
 20
4.3428158249
 10
8.7107318634
 20
4.3437926182
 10
8.7253280662
 20
4.3447688999
 10
8.7342889991
 20
4.345751099
 10
8.73696799
 20
4.3464101641
  0
LWPOLYLINE
  5
608
100
AcDbEntity
  8
0
100
AcDbPolyline
 62
7
  6
CONTINUOUS
 90
9
 70
0
 10
8.415129629
 20
4.3368865699
 10
8.379498293
 20
4.3359033902
 10
8.3462228133
 20
4.3349079491
 10
8.3165965678
 20
4.3339124099
 10
8.2916538551
 20
4.332929276
 10
8.2717602582
 20
4.3319543801
 10
8.2571446201
 20
4.330977503
 10
8.2481644565
 20
4.3299936942
 10
8.2454857172
 20
4.3293346702
  0
LWPOLYLINE
  5
609
100
AcDbEntity
  8
0
100
AcDbPolyline
 62
7
  6
CONTINUOUS
 90
9
 70
0
 10
8.5666583228
 20
4.3782105241
 10
8.6023170711
 20
4.3791932919
 10
8.6356471424
 20
4.3801885843
 10
8.6653516794
 20
4.3811842598
 10
8.6903861874
 20
4.3821676648
 10
8.7104873941
 20
4.3831489507
 10
8.7253256429
 20
4.3841387783
 10
8.7343147438
 20
4.3851253973
 10
8.73696799
 20
4.3857802428
  0
LWPOLYLINE
  5
60A
100
AcDbEntity
  8
0
100
AcDbPolyline
 62
7
  6
CONTINUOUS
 90
9
 70
0
 10
8.4151481771
 20
4.3762571453
 10
8.3796548667
 20
4.3752779432
 10
8.3466114117
 20
4.3742902674
 10
8.3172509875
 20
4.3733060982
 10
8.2924394841
 20
4.3723334271
 10
8.2722664511
 20
4.371352837
 10
8.257292232
 20
4.3703597403
 10
8.2481783314
 20
4.3693660397
 10
8.2454857172
 20
4.368704749
  0
LINE
  5
60B
100
AcDbEntity
  8
0
100
AcDbLine
 62
7
  6
CONTINUOUS
 10
8.5671899993
 20
4.3014530997
 11
8.4157572118
 21
4.297533289
  0
LINE
  5
60C
100
AcDbEntity
  8
0
100
AcDbLine
 62
7
  6
CONTINUOUS
 10
8.4157572118
 20
4.3349348638
 11
8.5671899993
 21
4.3388546745
  0
LINE
  5
60D
100
AcDbEntity
  8
0
100
AcDbLine
 62
7
  6
CONTINUOUS
 10
8.5666583228
 20
4.3408089493
 11
8.415129629
 21
4.3368865699
  0
LINE
  5
60E
100
AcDbEntity
  8
0
100
AcDbLine
 62
7
  6
CONTINUOUS
 10
8.415129629
 20
4.3742881447
 11
8.5666583228
 21
4.3782105241
  0
LINE
  5
60F
100
AcDbEntity
  8
0
100
AcDbLine
 62
7
  6
CONTINUOUS
 10
8.5676753995
 20
4.3802062569
 11
8.4151481771
 21
4.3762571453
  0
LINE
  5
610
100
AcDbEntity
  8
0
100
AcDbLine
 62
7
  6
CONTINUOUS
 10
8.2454857173
 20
4.3267251247
 11
8.2823828334
 21
4.3083448584
  0
LINE
  5
611
100
AcDbEntity
  8
0
100
AcDbLine
 62
7
  6
CONTINUOUS
 10
8.2454857173
 20
4.3660952034
 11
8.2823828334
 21
4.3477149371
  0
LINE
  5
612
100
AcDbEntity
  8
0
100
AcDbLine
 62
7
  6
CONTINUOUS
 10
8.7369679901
 20
4.1521693159
 11
8.7000708739
 21
4.1705495828
  0
LINE
  5
613
100
AcDbEntity
  8
0
100
AcDbLine
 62
7
  6
CONTINUOUS
 10
8.7020461297
 20
4.1301952518
 11
8.7000708478
 21
4.131179491
  0
LINE
  5
614
100
AcDbEntity
  8
0
100
AcDbLine
 62
7
  6
CONTINUOUS
 10
8.2454857173
 20
4.1692448097
 11
8.2451638615
 21
4.1695653306
  0
LINE
  5
615
100
AcDbEntity
  8
0
100
AcDbLine
 62
7
  6
CONTINUOUS
 10
8.2454857173
 20
4.2086148885
 11
8.2451638615
 21
4.2089354093
  0
LINE
  5
616
100
AcDbEntity
  8
0
100
AcDbLine
 62
7
  6
CONTINUOUS
 10
8.2454857173
 20
4.2479849672
 11
8.2451638615
 21
4.248305488
  0
LINE
  5
617
100
AcDbEntity
  8
0
100
AcDbLine
 62
7
  6
CONTINUOUS
 10
8.136896145
 20
6.1498802912
 11
8.1370622373
 21
6.1500721531
  0
LINE
  5
618
100
AcDbEntity
  8
0
100
AcDbLine
 62
7
  6
CONTINUOUS
 10
8.1694696348
 20
6.1294221512
 11
8.1370622373
 21
6.1107020744
  0
LINE
  5
619
100
AcDbEntity
  8
0
100
AcDbLine
 62
7
  6
CONTINUOUS
 10
8.1694696348
 20
6.0900520725
 11
8.1370622373
 21
6.0713319956
  0
LINE
  5
61A
100
AcDbEntity
  8
0
100
AcDbLine
 62
7
  6
CONTINUOUS
 10
8.1694696348
 20
6.0506819938
 11
8.1370622373
 21
6.0319619169
  0
LWPOLYLINE
  5
61B
100
AcDbEntity
  8
0
100
AcDbPolyline
 62
7
  6
CONTINUOUS
 90
9
 70
0
 10
8.2831418996
 20
4.3087230583
 10
8.2863552629
 20
4.3095098911
 10
8.2958212446
 20
4.3105744901
 10
8.3109144138
 20
4.3116390892
 10
8.3312001253
 20
4.3127036883
 10
8.356094202
 20
4.3137682873
 10
8.3848797573
 20
4.3148328864
 10
8.4167278401
 20
4.3158974855
 10
8.4507213061
 20
4.3169620845
  0
LWPOLYLINE
  5
61C
100
AcDbEntity
  8
0
100
AcDbPolyline
 62
7
  6
CONTINUOUS
 90
9
 70
0
 10
8.2831418996
 20
4.348093137
 10
8.2864798539
 20
4.3489000566
 10
8.2960550568
 20
4.3499646556
 10
8.3112507139
 20
4.3510292547
 10
8.3316292288
 20
4.3520938538
 10
8.3566037517
 20
4.3531584528
 10
8.3854550796
 20
4.3542230519
 10
8.417352367
 20
4.355287651
 10
8.4513770529
 20
4.35635225
  0
LWPOLYLINE
  5
61D
100
AcDbEntity
  8
0
100
AcDbPolyline
 62
7
  6
CONTINUOUS
 90
10
 70
0
 10
8.2831418996
 20
4.3874632157
 10
8.2866065491
 20
4.3882902221
 10
8.2962908747
 20
4.3893548212
 10
8.3115888636
 20
4.3904194202
 10
8.3320599724
 20
4.3914840193
 10
8.3571146849
 20
4.3925486184
 10
8.3860314888
 20
4.3936132174
 10
8.4179776531
 20
4.3946778165
 10
8.4520332093
 20
4.3957424156
 10
8.5225171381
 20
4.3978716137
  0
LWPOLYLINE
  5
61E
100
AcDbEntity
  8
0
100
AcDbPolyline
 62
7
  6
CONTINUOUS
 90
8
 70
0
 10
8.2481644565
 20
4.367395269
 10
8.2571446201
 20
4.3683790778
 10
8.2717602582
 20
4.3693559549
 10
8.2916538551
 20
4.3703308508
 10
8.3165965678
 20
4.3713139847
 10
8.3462228133
 20
4.3723095239
 10
8.379498293
 20
4.373304965
 10
8.415129629
 20
4.3742881447
  0
LWPOLYLINE
  5
61F
100
AcDbEntity
  8
0
100
AcDbPolyline
 62
7
  6
CONTINUOUS
 90
9
 70
0
 10
8.5225171381
 20
4.3978716137
 10
8.5569157519
 20
4.3989362128
 10
8.5894226915
 20
4.4000008118
 10
8.6191018393
 20
4.4010654109
 10
8.6450985108
 20
4.40213001
 10
8.6666640677
 20
4.403194609
 10
8.6831774765
 20
4.4042592081
 10
8.6941631926
 20
4.4053238072
 10
8.6993118078
 20
4.4063918549
  0
LWPOLYLINE
  5
620
100
AcDbEntity
  8
0
100
AcDbPolyline
 62
7
  6
CONTINUOUS
 90
9
 70
0
 10
8.5676753995
 20
4.4176078317
 10
8.6028876568
 20
4.4185796652
 10
8.6356391403
 20
4.4195584114
 10
8.6650395381
 20
4.4205430991
 10
8.6900115468
 20
4.4215215278
 10
8.7101864066
 20
4.4225021862
 10
8.7251604057
 20
4.4234952425
 10
8.7342749979
 20
4.4244889692
 10
8.73696799
 20
4.4251503215
  0
LINE
  5
621
100
AcDbEntity
  8
0
100
AcDbLine
 62
7
  6
CONTINUOUS
 10
8.4151481771
 20
4.4136587201
 11
8.5676753995
 21
4.4176078317
  0
LINE
  5
622
100
AcDbEntity
  8
0
100
AcDbLine
 62
7
  6
CONTINUOUS
 10
8.2454857173
 20
4.4054652822
 11
8.2823828334
 21
4.3870850158
  0
LINE
  5
623
100
AcDbEntity
  8
0
100
AcDbLine
 62
7
  6
CONTINUOUS
 10
8.7369679901
 20
4.1915393946
 11
8.7000708739
 21
4.2099196615
  0
LINE
  5
624
100
AcDbEntity
  8
0
100
AcDbLine
 62
7
  6
CONTINUOUS
 10
8.7369679901
 20
4.2309094734
 11
8.7000708739
 21
4.2492897403
  0
LINE
  5
625
100
AcDbEntity
  8
0
100
AcDbLine
 62
7
  6
CONTINUOUS
 10
8.2454857173
 20
4.2873550459
 11
8.2451638615
 21
4.2876755668
  0
LINE
  5
626
100
AcDbEntity
  8
0
100
AcDbLine
 62
7
  6
CONTINUOUS
 10
8.2454857173
 20
4.3267251247
 11
8.2451638615
 21
4.3270456455
  0
LINE
  5
627
100
AcDbEntity
  8
0
100
AcDbLine
 62
7
  6
CONTINUOUS
 10
8.2454857173
 20
4.3660952034
 11
8.2451638615
 21
4.3664157243
  0
LINE
  5
628
100
AcDbEntity
  8
0
100
AcDbLine
 62
7
  6
CONTINUOUS
 10
8.1370622373
 20
6.1107020744
 11
8.136896145
 21
6.1105102124
  0
LINE
  5
629
100
AcDbEntity
  8
0
100
AcDbLine
 62
7
  6
CONTINUOUS
 10
8.1370622373
 20
6.0713319956
 11
8.136896145
 21
6.0711401337
  0
LINE
  5
62A
100
AcDbEntity
  8
0
100
AcDbLine
 62
7
  6
CONTINUOUS
 10
8.1370622373
 20
6.0319619169
 11
8.136896145
 21
6.031770055
  0
LINE
  5
62B
100
AcDbEntity
  8
0
100
AcDbLine
 62
7
  6
CONTINUOUS
 10
8.1370622373
 20
5.9925918381
 11
8.136896145
 21
5.9923999762
  0
LINE
  5
62C
100
AcDbEntity
  8
0
100
AcDbLine
 62
7
  6
CONTINUOUS
 10
8.1694696348
 20
6.011311915
 11
8.1370622373
 21
5.9925918381
  0
LINE
  5
62D
100
AcDbEntity
  8
0
100
AcDbLine
 62
7
  6
CONTINUOUS
 10
8.1694696348
 20
5.9719418363
 11
8.1370622373
 21
5.9532217594
  0
LINE
  5
62E
100
AcDbEntity
  8
0
100
AcDbLine
 62
7
  6
CONTINUOUS
 10
8.843484005
 20
6.1688871161
 11
8.8455575623
 21
6.1695653373
  0
LINE
  5
62F
100
AcDbEntity
  8
02___PRT_ALL_AXES
100
AcDbLine
 62
7
  6
CONTINUOUS
 10
8.2156363025
 20
4.4845259605
 11
8.7668174048
 21
4.4845259605
  0
LINE
  5
630
100
AcDbEntity
  8
0
100
AcDbLine
 62
7
  6
CONTINUOUS
 10
8.7369679901
 20
4.2702795521
 11
8.7000708739
 21
4.288659819
  0
LINE
  5
631
100
AcDbEntity
  8
0
100
AcDbLine
 62
7
  6
CONTINUOUS
 10
8.7369679901
 20
4.3096496309
 11
8.7000708739
 21
4.3280298977
  0
LINE
  5
632
100
AcDbEntity
  8
0
100
AcDbLine
 62
7
  6
CONTINUOUS
 10
8.2454857173
 20
4.4054652822
 11
8.2451638615
 21
4.405785803
  0
LINE
  5
633
100
AcDbEntity
  8
0
100
AcDbLine
 62
7
  6
CONTINUOUS
 10
8.1370622373
 20
5.9532217594
 11
8.136896145
 21
5.9530298975
  0
LINE
  5
634
100
AcDbEntity
  8
0
100
AcDbLine
 62
7
  6
CONTINUOUS
 10
8.1370622373
 20
5.9138516807
 11
8.136896145
 21
5.9136598187
  0
LINE
  5
635
100
AcDbEntity
  8
0
100
AcDbLine
 62
7
  6
CONTINUOUS
 10
8.1370622373
 20
5.8744816019
 11
8.136896145
 21
5.87428974
  0
LINE
  5
636
100
AcDbEntity
  8
0
100
AcDbLine
 62
7
  6
CONTINUOUS
 10
8.1694696348
 20
5.9325717575
 11
8.1370622373
 21
5.9138516807
  0
LINE
  5
637
100
AcDbEntity
  8
0
100
AcDbLine
 62
7
  6
CONTINUOUS
 10
8.1694696348
 20
5.8932016788
 11
8.1370622373
 21
5.8744816019
  0
LINE
  5
638
100
AcDbEntity
  8
0
100
AcDbLine
 62
7
  6
CONTINUOUS
 10
8.1694696348
 20
5.8538316001
 11
8.1370622373
 21
5.8351115232
  0
LINE
  5
639
100
AcDbEntity
  8
02___PRT_ALL_AXES
100
AcDbLine
 62
7
  6
CONTINUOUS
 10
8.1664237041
 20
4.5986991888
 11
8.8160300033
 21
4.5986991888
  0
LINE
  5
63A
100
AcDbEntity
  8
0
100
AcDbLine
 62
7
  6
CONTINUOUS
 10
8.7369679901
 20
4.3490197096
 11
8.7000708739
 21
4.3673999765
  0
LINE
  5
63B
100
AcDbEntity
  8
0
100
AcDbLine
 62
7
  6
CONTINUOUS
 10
8.7369679901
 20
4.3883897884
 11
8.7000708739
 21
4.4067700552
  0
LINE
  5
63C
100
AcDbEntity
  8
0
100
AcDbLine
 62
7
  6
CONTINUOUS
 10
8.1370622373
 20
5.8351115232
 11
8.136896145
 21
5.8349196613
  0
LINE
  5
63D
100
AcDbEntity
  8
0
100
AcDbLine
 62
7
  6
CONTINUOUS
 10
8.1370622373
 20
5.7957414444
 11
8.136896145
 21
5.7955495825
  0
LINE
  5
63E
100
AcDbEntity
  8
0
100
AcDbLine
 62
7
  6
CONTINUOUS
 10
8.1370622373
 20
5.7563713657
 11
8.136896145
 21
5.7561795038
  0
LINE
  5
63F
100
AcDbEntity
  8
0
100
AcDbLine
 62
7
  6
CONTINUOUS
 10
8.1694696348
 20
5.8144615213
 11
8.1370622373
 21
5.7957414444
  0
LINE
  5
640
100
AcDbEntity
  8
0
100
AcDbLine
 62
7
  6
CONTINUOUS
 10
8.8129840725
 20
6.1486848878
 11
8.84539147
 21
6.1674049647
  0
LINE
  5
641
100
AcDbEntity
  8
0
100
AcDbLine
 62
7
  6
CONTINUOUS
 10
8.1694696348
 20
5.7750914426
 11
8.1370622373
 21
5.7563713657
  0
LINE
  5
642
100
AcDbEntity
  8
0
100
AcDbLine
 62
7
  6
CONTINUOUS
 10
8.7369679901
 20
4.1521693159
 11
8.7372898458
 21
4.1518487951
  0
LINE
  5
643
100
AcDbEntity
  8
0
100
AcDbLine
 62
7
  6
CONTINUOUS
 10
8.7369679901
 20
4.1915393946
 11
8.7372898458
 21
4.1912188739
  0
LINE
  5
644
100
AcDbEntity
  8
0
100
AcDbLine
 62
7
  6
CONTINUOUS
 10
8.7369679901
 20
4.2309094734
 11
8.7372898458
 21
4.2305889526
  0
LINE
  5
645
100
AcDbEntity
  8
02___PRT_ALL_AXES
100
AcDbLine
 62
7
  6
CONTINUOUS
 10
8.1664237041
 20
4.5986991888
 11
8.2156363025
 21
4.4845259605
  0
LINE
  5
646
100
AcDbEntity
  8
0
100
AcDbLine
 62
7
  6
CONTINUOUS
 10
8.1370622373
 20
5.717001287
 11
8.136896145
 21
5.716809425
  0
LINE
  5
647
100
AcDbEntity
  8
0
100
AcDbLine
 62
7
  6
CONTINUOUS
 10
8.1370622373
 20
5.6776312082
 11
8.136896145
 21
5.6774393463
  0
LINE
  5
648
100
AcDbEntity
  8
0
100
AcDbLine
 62
7
  6
CONTINUOUS
 10
8.1370622373
 20
5.6382611295
 11
8.136896145
 21
5.6380692676
  0
LINE
  5
649
100
AcDbEntity
  8
0
100
AcDbLine
 62
7
  6
CONTINUOUS
 10
8.8129840725
 20
6.1093148091
 11
8.84539147
 21
6.128034886
  0
LINE
  5
64A
100
AcDbEntity
  8
0
100
AcDbLine
 62
7
  6
CONTINUOUS
 10
8.1694696348
 20
5.7357213638
 11
8.1370622373
 21
5.717001287
  0
LINE
  5
64B
100
AcDbEntity
  8
0
100
AcDbLine
 62
7
  6
CONTINUOUS
 10
8.8129840725
 20
6.0699447303
 11
8.84539147
 21
6.0886648072
  0
LINE
  5
64C
100
AcDbEntity
  8
0
100
AcDbLine
 62
7
  6
CONTINUOUS
 10
8.1694696348
 20
5.6963512851
 11
8.1370622373
 21
5.6776312082
  0
LINE
  5
64D
100
AcDbEntity
  8
0
100
AcDbLine
 62
7
  6
CONTINUOUS
 10
8.8129840725
 20
6.0305746516
 11
8.84539147
 21
6.0492947285
  0
LINE
  5
64E
100
AcDbEntity
  8
0
100
AcDbLine
 62
7
  6
CONTINUOUS
 10
8.1694696348
 20
5.6569812064
 11
8.1370622373
 21
5.6382611295
  0
LINE
  5
64F
100
AcDbEntity
  8
0
100
AcDbLine
 62
7
  6
CONTINUOUS
 10
8.7369679901
 20
4.2702795521
 11
8.7372898458
 21
4.2699590313
  0
LINE
  5
650
100
AcDbEntity
  8
0
100
AcDbLine
 62
7
  6
CONTINUOUS
 10
8.7369679901
 20
4.3096496309
 11
8.7372898458
 21
4.3093291101
  0
LINE
  5
651
100
AcDbEntity
  8
0
100
AcDbLine
 62
7
  6
CONTINUOUS
 10
8.7369679901
 20
4.3490197096
 11
8.7372898458
 21
4.3486991888
  0
LINE
  5
652
100
AcDbEntity
  8
0
100
AcDbLine
 62
7
  6
CONTINUOUS
 10
8.1370622373
 20
5.5988910507
 11
8.136896145
 21
5.5986991888
  0
LINE
  5
653
100
AcDbEntity
  8
0
100
AcDbLine
 62
7
  6
CONTINUOUS
 10
8.1370622373
 20
5.559520972
 11
8.136896145
 21
5.5593291101
  0
LINE
  5
654
100
AcDbEntity
  8
0
100
AcDbLine
 62
7
  6
CONTINUOUS
 10
8.1370622373
 20
5.5201508933
 11
8.136896145
 21
5.5199590313
  0
LINE
  5
655
100
AcDbEntity
  8
0
100
AcDbLine
 62
7
  6
CONTINUOUS
 10
8.8129840725
 20
5.9912045729
 11
8.84539147
 21
6.0099246498
  0
LINE
  5
656
100
AcDbEntity
  8
0
100
AcDbLine
 62
7
  6
CONTINUOUS
 10
8.1694696348
 20
5.6176111276
 11
8.1370622373
 21
5.5988910507
  0
LINE
  5
657
100
AcDbEntity
  8
0
100
AcDbLine
 62
7
  6
CONTINUOUS
 10
8.8129840725
 20
5.9518344941
 11
8.84539147
 21
5.970554571
  0
LINE
  5
658
100
AcDbEntity
  8
0
100
AcDbLine
 62
7
  6
CONTINUOUS
 10
8.1694696348
 20
5.5782410489
 11
8.1370622373
 21
5.559520972
  0
LINE
  5
659
100
AcDbEntity
  8
0
100
AcDbLine
 62
7
  6
CONTINUOUS
 10
8.1370622373
 20
5.0059876419
 11
8.1537694443
 21
4.9963369841
  0
LINE
  5
65A
100
AcDbEntity
  8
0
100
AcDbLine
 62
7
  6
CONTINUOUS
 10
8.7369679901
 20
4.3883897884
 11
8.7372898458
 21
4.3880692676
  0
LINE
  5
65B
100
AcDbEntity
  8
0
100
AcDbLine
 62
7
  6
CONTINUOUS
 10
8.1370622373
 20
5.0059876419
 11
8.136896145
 21
5.0061795038
  0
LINE
  5
65C
100
AcDbEntity
  8
0
100
AcDbLine
 62
7
  6
CONTINUOUS
 10
8.1370622373
 20
5.0453577206
 11
8.136896145
 21
5.0455495825
  0
LINE
  5
65D
100
AcDbEntity
  8
0
100
AcDbLine
 62
7
  6
CONTINUOUS
 10
8.136896145
 20
5.0061795038
 11
8.136896145
 21
5.0081480077
  0
LINE
  5
65E
100
AcDbEntity
  8
AXIS_COSMETIC_THREADS
100
AcDbLine
 62
7
  6
CONTINUOUS
 10
8.136896145
 20
5.0061795038
 11
8.136896145
 21
5.0081480077
  0
LINE
  5
65F
100
AcDbEntity
  8
0
100
AcDbLine
 62
7
  6
CONTINUOUS
 10
8.136896145
 20
5.0455495825
 11
8.136896145
 21
5.0475180865
  0
LINE
  5
660
100
AcDbEntity
  8
AXIS_COSMETIC_THREADS
100
AcDbLine
 62
7
  6
CONTINUOUS
 10
8.136896145
 20
5.0455495825
 11
8.136896145
 21
5.0475180865
  0
LINE
  5
661
100
AcDbEntity
  8
0
100
AcDbLine
 62
7
  6
CONTINUOUS
 10
8.136896145
 20
5.0849196613
 11
8.136896145
 21
5.0868881652
  0
LINE
  5
662
100
AcDbEntity
  8
AXIS_COSMETIC_THREADS
100
AcDbLine
 62
7
  6
CONTINUOUS
 10
8.136896145
 20
5.0849196613
 11
8.136896145
 21
5.0868881652
  0
LINE
  5
663
100
AcDbEntity
  8
0
100
AcDbLine
 62
7
  6
CONTINUOUS
 10
8.136896145
 20
5.12428974
 11
8.136896145
 21
5.1262582439
  0
LINE
  5
664
100
AcDbEntity
  8
AXIS_COSMETIC_THREADS
100
AcDbLine
 62
7
  6
CONTINUOUS
 10
8.136896145
 20
5.12428974
 11
8.136896145
 21
5.1262582439
  0
LINE
  5
665
100
AcDbEntity
  8
0
100
AcDbLine
 62
7
  6
CONTINUOUS
 10
8.136896145
 20
5.1636598187
 11
8.136896145
 21
5.1656283227
  0
LINE
  5
666
100
AcDbEntity
  8
AXIS_COSMETIC_THREADS
100
AcDbLine
 62
7
  6
CONTINUOUS
 10
8.136896145
 20
5.1636598187
 11
8.136896145
 21
5.1656283227
  0
LINE
  5
667
100
AcDbEntity
  8
0
100
AcDbLine
 62
7
  6
CONTINUOUS
 10
8.136896145
 20
5.2030298975
 11
8.136896145
 21
5.2049984014
  0
LINE
  5
668
100
AcDbEntity
  8
AXIS_COSMETIC_THREADS
100
AcDbLine
 62
7
  6
CONTINUOUS
 10
8.136896145
 20
5.2030298975
 11
8.136896145
 21
5.2049984014
  0
LINE
  5
669
100
AcDbEntity
  8
0
100
AcDbLine
 62
7
  6
CONTINUOUS
 10
8.136896145
 20
5.2423999762
 11
8.136896145
 21
5.2443684802
  0
LINE
  5
66A
100
AcDbEntity
  8
AXIS_COSMETIC_THREADS
100
AcDbLine
 62
7
  6
CONTINUOUS
 10
8.136896145
 20
5.2423999762
 11
8.136896145
 21
5.2443684802
  0
LINE
  5
66B
100
AcDbEntity
  8
0
100
AcDbLine
 62
7
  6
CONTINUOUS
 10
8.136896145
 20
5.281770055
 11
8.136896145
 21
5.2837385589
  0
LINE
  5
66C
100
AcDbEntity
  8
AXIS_COSMETIC_THREADS
100
AcDbLine
 62
7
  6
CONTINUOUS
 10
8.136896145
 20
5.281770055
 11
8.136896145
 21
5.2837385589
  0
LINE
  5
66D
100
AcDbEntity
  8
0
100
AcDbLine
 62
7
  6
CONTINUOUS
 10
8.136896145
 20
5.3211401337
 11
8.136896145
 21
5.3231086376
  0
LINE
  5
66E
100
AcDbEntity
  8
AXIS_COSMETIC_THREADS
100
AcDbLine
 62
7
  6
CONTINUOUS
 10
8.136896145
 20
5.3211401337
 11
8.136896145
 21
5.3231086376
  0
LINE
  5
66F
100
AcDbEntity
  8
0
100
AcDbLine
 62
7
  6
CONTINUOUS
 10
8.136896145
 20
5.3605102124
 11
8.136896145
 21
5.3624787164
  0
LINE
  5
670
100
AcDbEntity
  8
AXIS_COSMETIC_THREADS
100
AcDbLine
 62
7
  6
CONTINUOUS
 10
8.136896145
 20
5.3605102124
 11
8.136896145
 21
5.3624787164
  0
LINE
  5
671
100
AcDbEntity
  8
0
100
AcDbLine
 62
7
  6
CONTINUOUS
 10
8.136896145
 20
5.3998802912
 11
8.136896145
 21
5.4018487951
  0
LINE
  5
672
100
AcDbEntity
  8
AXIS_COSMETIC_THREADS
100
AcDbLine
 62
7
  6
CONTINUOUS
 10
8.136896145
 20
5.3998802912
 11
8.136896145
 21
5.4018487951
  0
LINE
  5
673
100
AcDbEntity
  8
0
100
AcDbLine
 62
7
  6
CONTINUOUS
 10
8.136896145
 20
5.4392503699
 11
8.136896145
 21
5.4412188739
  0
LINE
  5
674
100
AcDbEntity
  8
AXIS_COSMETIC_THREADS
100
AcDbLine
 62
7
  6
CONTINUOUS
 10
8.136896145
 20
5.4392503699
 11
8.136896145
 21
5.4412188739
  0
LINE
  5
675
100
AcDbEntity
  8
0
100
AcDbLine
 62
7
  6
CONTINUOUS
 10
8.136896145
 20
5.4786204487
 11
8.136896145
 21
5.4805889526
  0
LINE
  5
676
100
AcDbEntity
  8
AXIS_COSMETIC_THREADS
100
AcDbLine
 62
7
  6
CONTINUOUS
 10
8.136896145
 20
5.4786204487
 11
8.136896145
 21
5.4805889526
  0
LINE
  5
677
100
AcDbEntity
  8
0
100
AcDbLine
 62
7
  6
CONTINUOUS
 10
8.136896145
 20
5.5179905274
 11
8.136896145
 21
5.5199590313
  0
LINE
  5
678
100
AcDbEntity
  8
AXIS_COSMETIC_THREADS
100
AcDbLine
 62
7
  6
CONTINUOUS
 10
8.136896145
 20
5.5179905274
 11
8.136896145
 21
5.5199590313
  0
LINE
  5
679
100
AcDbEntity
  8
0
100
AcDbLine
 62
7
  6
CONTINUOUS
 10
8.136896145
 20
5.5573606061
 11
8.136896145
 21
5.5593291101
  0
LINE
  5
67A
100
AcDbEntity
  8
AXIS_COSMETIC_THREADS
100
AcDbLine
 62
7
  6
CONTINUOUS
 10
8.136896145
 20
5.5573606061
 11
8.136896145
 21
5.5593291101
  0
LINE
  5
67B
100
AcDbEntity
  8
0
100
AcDbLine
 62
7
  6
CONTINUOUS
 10
8.136896145
 20
5.5967306849
 11
8.136896145
 21
5.5986991888
  0
LINE
  5
67C
100
AcDbEntity
  8
AXIS_COSMETIC_THREADS
100
AcDbLine
 62
7
  6
CONTINUOUS
 10
8.136896145
 20
5.5967306849
 11
8.136896145
 21
5.5986991888
  0
LINE
  5
67D
100
AcDbEntity
  8
0
100
AcDbLine
 62
7
  6
CONTINUOUS
 10
8.136896145
 20
5.6361007636
 11
8.136896145
 21
5.6380692676
  0
LINE
  5
67E
100
AcDbEntity
  8
AXIS_COSMETIC_THREADS
100
AcDbLine
 62
7
  6
CONTINUOUS
 10
8.136896145
 20
5.6361007636
 11
8.136896145
 21
5.6380692676
  0
LINE
  5
67F
100
AcDbEntity
  8
0
100
AcDbLine
 62
7
  6
CONTINUOUS
 10
8.136896145
 20
5.6754708424
 11
8.136896145
 21
5.6774393463
  0
LINE
  5
680
100
AcDbEntity
  8
AXIS_COSMETIC_THREADS
100
AcDbLine
 62
7
  6
CONTINUOUS
 10
8.136896145
 20
5.6754708424
 11
8.136896145
 21
5.6774393463
  0
LINE
  5
681
100
AcDbEntity
  8
0
100
AcDbLine
 62
7
  6
CONTINUOUS
 10
8.136896145
 20
5.7148409211
 11
8.136896145
 21
5.716809425
  0
LINE
  5
682
100
AcDbEntity
  8
AXIS_COSMETIC_THREADS
100
AcDbLine
 62
7
  6
CONTINUOUS
 10
8.136896145
 20
5.7148409211
 11
8.136896145
 21
5.716809425
  0
LINE
  5
683
100
AcDbEntity
  8
0
100
AcDbLine
 62
7
  6
CONTINUOUS
 10
8.136896145
 20
5.7542109998
 11
8.136896145
 21
5.7561795038
  0
LINE
  5
684
100
AcDbEntity
  8
AXIS_COSMETIC_THREADS
100
AcDbLine
 62
7
  6
CONTINUOUS
 10
8.136896145
 20
5.7542109998
 11
8.136896145
 21
5.7561795038
  0
LINE
  5
685
100
AcDbEntity
  8
0
100
AcDbLine
 62
7
  6
CONTINUOUS
 10
8.136896145
 20
5.7935810786
 11
8.136896145
 21
5.7955495825
  0
LINE
  5
686
100
AcDbEntity
  8
AXIS_COSMETIC_THREADS
100
AcDbLine
 62
7
  6
CONTINUOUS
 10
8.136896145
 20
5.7935810786
 11
8.136896145
 21
5.7955495825
  0
LINE
  5
687
100
AcDbEntity
  8
0
100
AcDbLine
 62
7
  6
CONTINUOUS
 10
8.136896145
 20
5.8329511573
 11
8.136896145
 21
5.8349196613
  0
LINE
  5
688
100
AcDbEntity
  8
AXIS_COSMETIC_THREADS
100
AcDbLine
 62
7
  6
CONTINUOUS
 10
8.136896145
 20
5.8329511573
 11
8.136896145
 21
5.8349196613
  0
LINE
  5
689
100
AcDbEntity
  8
0
100
AcDbLine
 62
7
  6
CONTINUOUS
 10
8.136896145
 20
5.8723212361
 11
8.136896145
 21
5.87428974
  0
LINE
  5
68A
100
AcDbEntity
  8
AXIS_COSMETIC_THREADS
100
AcDbLine
 62
7
  6
CONTINUOUS
 10
8.136896145
 20
5.8723212361
 11
8.136896145
 21
5.87428974
  0
LINE
  5
68B
100
AcDbEntity
  8
0
100
AcDbLine
 62
7
  6
CONTINUOUS
 10
8.136896145
 20
5.9116913148
 11
8.136896145
 21
5.9136598187
  0
LINE
  5
68C
100
AcDbEntity
  8
AXIS_COSMETIC_THREADS
100
AcDbLine
 62
7
  6
CONTINUOUS
 10
8.136896145
 20
5.9116913148
 11
8.136896145
 21
5.9136598187
  0
LINE
  5
68D
100
AcDbEntity
  8
0
100
AcDbLine
 62
7
  6
CONTINUOUS
 10
8.136896145
 20
5.9510613935
 11
8.136896145
 21
5.9530298975
  0
LINE
  5
68E
100
AcDbEntity
  8
AXIS_COSMETIC_THREADS
100
AcDbLine
 62
7
  6
CONTINUOUS
 10
8.136896145
 20
5.9510613935
 11
8.136896145
 21
5.9530298975
  0
LINE
  5
68F
100
AcDbEntity
  8
0
100
AcDbLine
 62
7
  6
CONTINUOUS
 10
8.136896145
 20
5.9904314723
 11
8.136896145
 21
5.9923999762
  0
LINE
  5
690
100
AcDbEntity
  8
AXIS_COSMETIC_THREADS
100
AcDbLine
 62
7
  6
CONTINUOUS
 10
8.136896145
 20
5.9904314723
 11
8.136896145
 21
5.9923999762
  0
LINE
  5
691
100
AcDbEntity
  8
0
100
AcDbLine
 62
7
  6
CONTINUOUS
 10
8.136896145
 20
6.029801551
 11
8.136896145
 21
6.031770055
  0
LINE
  5
692
100
AcDbEntity
  8
AXIS_COSMETIC_THREADS
100
AcDbLine
 62
7
  6
CONTINUOUS
 10
8.136896145
 20
6.029801551
 11
8.136896145
 21
6.031770055
  0
LINE
  5
693
100
AcDbEntity
  8
0
100
AcDbLine
 62
7
  6
CONTINUOUS
 10
8.136896145
 20
6.0691716298
 11
8.136896145
 21
6.0711401337
  0
LINE
  5
694
100
AcDbEntity
  8
AXIS_COSMETIC_THREADS
100
AcDbLine
 62
7
  6
CONTINUOUS
 10
8.136896145
 20
6.0691716298
 11
8.136896145
 21
6.0711401337
  0
LINE
  5
695
100
AcDbEntity
  8
0
100
AcDbLine
 62
7
  6
CONTINUOUS
 10
8.136896145
 20
6.1085417085
 11
8.136896145
 21
6.1105102124
  0
LINE
  5
696
100
AcDbEntity
  8
AXIS_COSMETIC_THREADS
100
AcDbLine
 62
7
  6
CONTINUOUS
 10
8.136896145
 20
6.1085417085
 11
8.136896145
 21
6.1105102124
  0
LINE
  5
697
100
AcDbEntity
  8
0
100
AcDbLine
 62
7
  6
CONTINUOUS
 10
8.136896145
 20
6.1479117872
 11
8.136896145
 21
6.1498802912
  0
LINE
  5
698
100
AcDbEntity
  8
AXIS_COSMETIC_THREADS
100
AcDbLine
 62
7
  6
CONTINUOUS
 10
8.136896145
 20
6.1479117872
 11
8.136896145
 21
6.1498802912
  0
LINE
  5
699
100
AcDbEntity
  8
02___PRT_ALL_AXES
100
AcDbLine
 62
7
  6
CONTINUOUS
 10
8.1664237041
 20
4.9963369841
 11
8.1664237041
 21
4.5986991888
  0
LINE
  5
69A
100
AcDbEntity
  8
0
100
AcDbLine
 62
7
  6
CONTINUOUS
 10
8.1370622373
 20
5.4807808145
 11
8.136896145
 21
5.4805889526
  0
LINE
  5
69B
100
AcDbEntity
  8
0
100
AcDbLine
 62
7
  6
CONTINUOUS
 10
8.1370622373
 20
5.4414107358
 11
8.136896145
 21
5.4412188739
  0
LINE
  5
69C
100
AcDbEntity
  8
0
100
AcDbLine
 62
7
  6
CONTINUOUS
 10
8.1370622373
 20
5.402040657
 11
8.136896145
 21
5.4018487951
  0
LINE
  5
69D
100
AcDbEntity
  8
0
100
AcDbLine
 62
7
  6
CONTINUOUS
 10
8.1370622373
 20
5.3626705783
 11
8.136896145
 21
5.3624787164
  0
LINE
  5
69E
100
AcDbEntity
  8
0
100
AcDbLine
 62
7
  6
CONTINUOUS
 10
8.8129840725
 20
5.9124644154
 11
8.84539147
 21
5.9311844923
  0
LINE
  5
69F
100
AcDbEntity
  8
0
100
AcDbLine
 62
7
  6
CONTINUOUS
 10
8.1694696348
 20
5.5388709701
 11
8.1370622373
 21
5.5201508933
  0
LINE
  5
6A0
100
AcDbEntity
  8
0
100
AcDbLine
 62
7
  6
CONTINUOUS
 10
8.8129840725
 20
5.8730943366
 11
8.84539147
 21
5.8918144135
  0
LINE
  5
6A1
100
AcDbEntity
  8
0
100
AcDbLine
 62
7
  6
CONTINUOUS
 10
8.1694696348
 20
5.4995008914
 11
8.1370622373
 21
5.4807808145
  0
LINE
  5
6A2
100
AcDbEntity
  8
0
100
AcDbLine
 62
7
  6
CONTINUOUS
 10
8.8455575623
 20
5.0278330471
 11
8.8416018787
 21
5.0268958894
  0
LWPOLYLINE
  5
6A3
100
AcDbEntity
  8
0
100
AcDbPolyline
 62
7
  6
CONTINUOUS
 90
9
 70
0
 10
8.8129840725
 20
5.0069526044
 10
8.8092032328
 20
5.0061795038
 10
8.7974099835
 20
5.0051952518
 10
8.7780774894
 20
5.0042109998
 10
8.7516817806
 20
5.0032267479
 10
8.7188728071
 20
5.0022424959
 10
8.6804584347
 20
5.0012582439
 10
8.6373845528
 20
5.000273992
 10
8.5907117832
 20
4.99928974
  0
LINE
  5
6A4
100
AcDbEntity
  8
0
100
AcDbLine
 62
7
  6
CONTINUOUS
 10
8.1370622373
 20
5.0453577206
 11
8.1691041115
 21
5.0268487951
  0
LINE
  5
6A5
100
AcDbEntity
  8
0
100
AcDbLine
 62
7
  6
CONTINUOUS
 10
8.1370622373
 20
5.0847277994
 11
8.1691041115
 21
5.0662188738
  0
LINE
  5
6A6
100
AcDbEntity
  8
0
100
AcDbLine
 62
7
  6
CONTINUOUS
 10
8.1370622373
 20
5.0847277994
 11
8.136896145
 21
5.0849196613
  0
LINE
  5
6A7
100
AcDbEntity
  8
0
100
AcDbLine
 62
7
  6
CONTINUOUS
 10
8.1370622373
 20
5.1240978781
 11
8.136896145
 21
5.12428974
  0
LINE
  5
6A8
100
AcDbEntity
  8
0
100
AcDbLine
 62
7
  6
CONTINUOUS
 10
8.1370622373
 20
5.1634679568
 11
8.136896145
 21
5.1636598187
  0
LINE
  5
6A9
100
AcDbEntity
  8
02___PRT_ALL_AXES
100
AcDbLine
 62
7
  6
CONTINUOUS
 10
8.1723292159
 20
6.1774393463
 11
8.1723292159
 21
6.3979117872
  0
LINE
  5
6AA
100
AcDbEntity
  8
0
100
AcDbLine
 62
7
  6
CONTINUOUS
 10
8.1723292159
 20
6.1774393463
 11
8.1723292159
 21
6.3979117872
  0
LINE
  5
6AB
100
AcDbEntity
  8
0
100
AcDbLine
 62
7
  6
CONTINUOUS
 10
8.2451638615
 20
4.4845259605
 11
8.2451638615
 21
4.405785803
  0
LINE
  5
6AC
100
AcDbEntity
  8
02___PRT_ALL_AXES
100
AcDbLine
 62
7
  6
CONTINUOUS
 10
8.2451638615
 20
4.4845259605
 11
8.2451638615
 21
4.405785803
  0
LINE
  5
6AD
100
AcDbEntity
  8
0
100
AcDbLine
 62
7
  6
CONTINUOUS
 10
8.2451638615
 20
4.3683842282
 11
8.2451638615
 21
4.3664157243
  0
LINE
  5
6AE
100
AcDbEntity
  8
02___PRT_ALL_AXES
100
AcDbLine
 62
7
  6
CONTINUOUS
 10
8.2451638615
 20
4.3683842282
 11
8.2451638615
 21
4.3664157243
  0
LINE
  5
6AF
100
AcDbEntity
  8
0
100
AcDbLine
 62
7
  6
CONTINUOUS
 10
8.2451638615
 20
4.3290141495
 11
8.2451638615
 21
4.3270456455
  0
LINE
  5
6B0
100
AcDbEntity
  8
02___PRT_ALL_AXES
100
AcDbLine
 62
7
  6
CONTINUOUS
 10
8.2451638615
 20
4.3290141495
 11
8.2451638615
 21
4.3270456455
  0
LINE
  5
6B1
100
AcDbEntity
  8
0
100
AcDbLine
 62
7
  6
CONTINUOUS
 10
8.2451638615
 20
4.2896440707
 11
8.2451638615
 21
4.2876755668
  0
LINE
  5
6B2
100
AcDbEntity
  8
02___PRT_ALL_AXES
100
AcDbLine
 62
7
  6
CONTINUOUS
 10
8.2451638615
 20
4.2896440707
 11
8.2451638615
 21
4.2876755668
  0
LINE
  5
6B3
100
AcDbEntity
  8
0
100
AcDbLine
 62
7
  6
CONTINUOUS
 10
8.2451638615
 20
4.250273992
 11
8.2451638615
 21
4.248305488
  0
LINE
  5
6B4
100
AcDbEntity
  8
02___PRT_ALL_AXES
100
AcDbLine
 62
7
  6
CONTINUOUS
 10
8.2451638615
 20
4.250273992
 11
8.2451638615
 21
4.248305488
  0
LINE
  5
6B5
100
AcDbEntity
  8
0
100
AcDbLine
 62
7
  6
CONTINUOUS
 10
8.2451638615
 20
4.2109039132
 11
8.2451638615
 21
4.2089354093
  0
LINE
  5
6B6
100
AcDbEntity
  8
02___PRT_ALL_AXES
100
AcDbLine
 62
7
  6
CONTINUOUS
 10
8.2451638615
 20
4.2109039132
 11
8.2451638615
 21
4.2089354093
  0
LINE
  5
6B7
100
AcDbEntity
  8
0
100
AcDbLine
 62
7
  6
CONTINUOUS
 10
8.2451638615
 20
4.1715338345
 11
8.2451638615
 21
4.1695653306
  0
LINE
  5
6B8
100
AcDbEntity
  8
02___PRT_ALL_AXES
100
AcDbLine
 62
7
  6
CONTINUOUS
 10
8.2451638615
 20
4.1715338345
 11
8.2451638615
 21
4.1695653306
  0
LINE
  5
6B9
100
AcDbEntity
  8
02___PRT_ALL_AXES
100
AcDbLine
 62
7
  6
CONTINUOUS
 10
8.2451638615
 20
4.1321637558
 11
8.2451638615
 21
4.1301952518
  0
LINE
  5
6BA
100
AcDbEntity
  8
0
100
AcDbLine
 62
7
  6
CONTINUOUS
 10
8.8455575623
 20
6.1675968309
 11
8.84539147
 21
6.1674049647
  0
LINE
  5
6BB
100
AcDbEntity
  8
0
100
AcDbLine
 62
7
  6
CONTINUOUS
 10
8.1370622373
 20
5.3233004996
 11
8.136896145
 21
5.3231086376
  0
LINE
  5
6BC
100
AcDbEntity
  8
0
100
AcDbLine
 62
7
  6
CONTINUOUS
 10
8.84539147
 20
6.128034886
 11
8.8455575623
 21
6.1282267479
  0
LINE
  5
6BD
100
AcDbEntity
  8
0
100
AcDbLine
 62
7
  6
CONTINUOUS
 10
8.1370622373
 20
5.2839304208
 11
8.136896145
 21
5.2837385589
  0
LINE
  5
6BE
100
AcDbEntity
  8
0
100
AcDbLine
 62
7
  6
CONTINUOUS
 10
8.84539147
 20
6.0886648072
 11
8.8455575623
 21
6.0888566691
  0
LINE
  5
6BF
100
AcDbEntity
  8
0
100
AcDbLine
 62
7
  6
CONTINUOUS
 10
8.1370622373
 20
5.2445603421
 11
8.136896145
 21
5.2443684802
  0
LINE
  5
6C0
100
AcDbEntity
  8
0
100
AcDbLine
 62
7
  6
CONTINUOUS
 10
8.8129840725
 20
5.8337242579
 11
8.84539147
 21
5.8524443348
  0
LINE
  5
6C1
100
AcDbEntity
  8
0
100
AcDbLine
 62
7
  6
CONTINUOUS
 10
8.1694696348
 20
5.4601308127
 11
8.1370622373
 21
5.4414107358
  0
LINE
  5
6C2
100
AcDbEntity
  8
0
100
AcDbLine
 62
7
  6
CONTINUOUS
 10
8.8129840725
 20
5.7943541792
 11
8.84539147
 21
5.8130742561
  0
LINE
  5
6C3
100
AcDbEntity
  8
0
100
AcDbLine
 62
7
  6
CONTINUOUS
 10
8.1694696348
 20
5.4207607339
 11
8.1370622373
 21
5.402040657
  0
LINE
  5
6C4
100
AcDbEntity
  8
0
100
AcDbLine
 62
7
  6
CONTINUOUS
 10
8.8129840725
 20
5.7549841004
 11
8.84539147
 21
5.7737041773
  0
LINE
  5
6C5
100
AcDbEntity
  8
0
100
AcDbLine
 62
7
  6
CONTINUOUS
 10
8.1694696348
 20
5.3813906552
 11
8.1370622373
 21
5.3626705783
  0
LINE
  5
6C6
100
AcDbEntity
  8
0
100
AcDbLine
 62
7
  6
CONTINUOUS
 10
8.8455575623
 20
5.0672031258
 11
8.8416326012
 21
5.0662696214
  0
LINE
  5
6C7
100
AcDbEntity
  8
0
100
AcDbLine
 62
7
  6
CONTINUOUS
 10
8.8455575623
 20
5.1065732046
 11
8.8416112935
 21
5.1056371649
  0
LWPOLYLINE
  5
6C8
100
AcDbEntity
  8
0
100
AcDbPolyline
 62
7
  6
CONTINUOUS
 90
9
 70
0
 10
8.8129840725
 20
5.0463226831
 10
8.8092032328
 20
5.0455495825
 10
8.7974099835
 20
5.0445653306
 10
8.7780774894
 20
5.0435810786
 10
8.7516817806
 20
5.0425968266
 10
8.7188728071
 20
5.0416125747
 10
8.6804584347
 20
5.0406283227
 10
8.6373845528
 20
5.0396440707
 10
8.5907117832
 20
5.0386598187
  0
LWPOLYLINE
  5
6C9
100
AcDbEntity
  8
0
100
AcDbPolyline
 62
7
  6
CONTINUOUS
 90
9
 70
0
 10
8.8129840725
 20
5.0856927618
 10
8.8092032328
 20
5.0849196613
 10
8.7974099835
 20
5.0839354093
 10
8.7780774894
 20
5.0829511573
 10
8.7516817806
 20
5.0819669054
 10
8.7188728071
 20
5.0809826534
 10
8.6804584347
 20
5.0799984014
 10
8.6373845528
 20
5.0790141495
 10
8.5907117832
 20
5.0780298975
  0
LWPOLYLINE
  5
6CA
100
AcDbEntity
  8
0
100
AcDbPolyline
 62
7
  6
CONTINUOUS
 90
9
 70
0
 10
8.1408429211
 20
5.0071156037
 10
8.1526036663
 20
5.0080522046
 10
8.171890331
 20
5.008987754
 10
8.1983305914
 20
5.009924811
 10
8.2312929816
 20
5.0108614478
 10
8.2703418684
 20
5.0118046285
 10
8.314208878
 20
5.0127441926
 10
8.3617415341
 20
5.0136779248
 10
8.4121775516
 20
5.0146122614
  0
LWPOLYLINE
  5
6CB
100
AcDbEntity
  8
0
100
AcDbPolyline
 62
7
  6
CONTINUOUS
 90
9
 70
0
 10
8.8416326012
 20
5.0662696214
 10
8.8297651163
 20
5.0653253312
 10
8.8101293849
 20
5.0643772162
 10
8.7834217667
 20
5.0634358365
 10
8.7504021825
 20
5.0625014769
 10
8.7115407228
 20
5.0615650953
 10
8.6678867725
 20
5.0606311302
 10
8.6201755403
 20
5.0596945132
 10
8.5698053521
 20
5.0587618287
  0
LWPOLYLINE
  5
6CC
100
AcDbEntity
  8
0
100
AcDbPolyline
 62
7
  6
CONTINUOUS
 90
9
 70
0
 10
8.8416018787
 20
5.0268958894
 10
8.8297548372
 20
5.0259546368
 10
8.8104302931
 20
5.0250193707
 10
8.7840685239
 20
5.0240860248
 10
8.7511931818
 20
5.0231519477
 10
8.712451066
 20
5.0222155981
 10
8.668901742
 20
5.0212817768
 10
8.6212690092
 20
5.0203452083
 10
8.5708388961
 20
5.0194105002
  0
LWPOLYLINE
  5
6CD
100
AcDbEntity
  8
0
100
AcDbPolyline
 62
7
  6
CONTINUOUS
 90
9
 70
0
 10
8.3917419241
 20
5.0347228109
 10
8.3450691546
 20
5.0337385589
 10
8.3019952726
 20
5.0327543069
 10
8.2635809002
 20
5.031770055
 10
8.2307719268
 20
5.030785803
 10
8.204376218
 20
5.029801551
 10
8.1850437238
 20
5.0288172991
 10
8.1732504745
 20
5.0278330471
 10
8.1694696348
 20
5.0270599465
  0
LINE
  5
6CE
100
AcDbEntity
  8
0
100
AcDbLine
 62
7
  6
CONTINUOUS
 10
8.5907117832
 20
4.99928974
 11
8.4408643428
 21
4.9963369841
  0
LINE
  5
6CF
100
AcDbEntity
  8
0
100
AcDbLine
 62
7
  6
CONTINUOUS
 10
8.5907117832
 20
5.0386598187
 11
8.3917419241
 21
5.0347228109
  0
LWPOLYLINE
  5
6D0
100
AcDbEntity
  8
0
100
AcDbPolyline
 62
7
  6
CONTINUOUS
 90
10
 70
0
 10
8.5697482646
 20
5.0174222107
 10
8.6202525138
 20
5.018357392
 10
8.6682936719
 20
5.0193008515
 10
8.7124627346
 20
5.0202473584
 10
8.7513000613
 20
5.021186226
 10
8.7841247289
 20
5.0221192866
 10
8.8105633929
 20
5.0230562937
 10
8.8298500489
 20
5.0239918428
 10
8.8416108059
 20
5.0249284456
 10
8.84539147
 20
5.0256726812
  0
LWPOLYLINE
  5
6D1
100
AcDbEntity
  8
0
100
AcDbPolyline
 62
7
  6
CONTINUOUS
 90
10
 70
0
 10
8.4126502763
 20
5.0165893397
 10
8.3622863544
 20
5.0156567758
 10
8.3145792806
 20
5.0147202553
 10
8.2709281289
 20
5.0137863802
 10
8.2320683968
 20
5.0128500942
 10
8.1990490767
 20
5.0119158328
 10
8.1723384044
 20
5.0109744886
 10
8.1526960306
 20
5.010026248
 10
8.1408222538
 20
5.0090816489
 10
8.1370622373
 20
5.0083398696
  0
LINE
  5
6D2
100
AcDbEntity
  8
0
100
AcDbLine
 62
7
  6
CONTINUOUS
 10
8.4121775516
 20
5.0146122614
 11
8.5697482646
 21
5.0174222107
  0
LINE
  5
6D3
100
AcDbEntity
  8
0
100
AcDbLine
 62
7
  6
CONTINUOUS
 10
8.5708388961
 20
5.0194105002
 11
8.4126502763
 21
5.0165893397
  0
LINE
  5
6D4
100
AcDbEntity
  8
0
100
AcDbLine
 62
7
  6
CONTINUOUS
 10
8.8320792102
 20
4.9963369841
 11
8.5236840632
 21
4.9963369841
  0
LINE
  5
6D5
100
AcDbEntity
  8
0
100
AcDbLine
 62
7
  6
CONTINUOUS
 10
8.3613976562
 20
4.9963369841
 11
8.1537684248
 21
4.9963369841
  0
LINE
  5
6D6
100
AcDbEntity
  8
02___PRT_ALL_AXES
100
AcDbLine
 62
7
  6
CONTINUOUS
 10
8.3613976562
 20
4.9963369841
 11
8.5236840632
 21
4.9963369841
  0
LINE
  5
6D7
100
AcDbEntity
  8
0
100
AcDbLine
 62
7
  6
CONTINUOUS
 10
8.1370622373
 20
5.1240978781
 11
8.1691041115
 21
5.1055889526
  0
LINE
  5
6D8
100
AcDbEntity
  8
0
100
AcDbLine
 62
7
  6
CONTINUOUS
 10
8.1370622373
 20
5.1634679568
 11
8.1691041115
 21
5.1449590313
  0
LINE
  5
6D9
100
AcDbEntity
  8
0
100
AcDbLine
 62
7
  6
CONTINUOUS
 10
8.1370622373
 20
5.2028380356
 11
8.1691041115
 21
5.1843291101
  0
LINE
  5
6DA
100
AcDbEntity
  8
0
100
AcDbLine
 62
7
  6
CONTINUOUS
 10
8.1370622373
 20
5.2028380356
 11
8.136896145
 21
5.2030298975
  0
LINE
  5
6DB
100
AcDbEntity
  8
0
100
AcDbLine
 62
7
  6
CONTINUOUS
 10
8.1370622373
 20
5.2422081143
 11
8.136896145
 21
5.2423999762
  0
LINE
  5
6DC
100
AcDbEntity
  8
0
100
AcDbLine
 62
7
  6
CONTINUOUS
 10
8.1370622373
 20
5.2815781931
 11
8.136896145
 21
5.281770055
  0
LINE
  5
6DD
100
AcDbEntity
  8
0
100
AcDbLine
 62
7
  6
CONTINUOUS
 10
8.1370622373
 20
5.3209482718
 11
8.136896145
 21
5.3211401337
  0
LINE
  5
6DE
100
AcDbEntity
  8
0
100
AcDbLine
 62
7
  6
CONTINUOUS
 10
8.2874866962
 20
4.1301952518
 11
8.2874866962
 21
4.0908251731
  0
LINE
  5
6DF
100
AcDbEntity
  8
0
100
AcDbLine
 62
7
  6
CONTINUOUS
 10
8.84539147
 20
6.0492947285
 11
8.8455575623
 21
6.0494865904
  0
LINE
  5
6E0
100
AcDbEntity
  8
0
100
AcDbLine
 62
7
  6
CONTINUOUS
 10
8.1370622373
 20
5.2051902633
 11
8.136896145
 21
5.2049984014
  0
LINE
  5
6E1
100
AcDbEntity
  8
0
100
AcDbLine
 62
7
  6
CONTINUOUS
 10
8.84539147
 20
6.0099246498
 11
8.8455575623
 21
6.0101165117
  0
LINE
  5
6E2
100
AcDbEntity
  8
0
100
AcDbLine
 62
7
  6
CONTINUOUS
 10
8.1370622373
 20
5.1658201846
 11
8.136896145
 21
5.1656283227
  0
LINE
  5
6E3
100
AcDbEntity
  8
0
100
AcDbLine
 62
7
  6
CONTINUOUS
 10
8.84539147
 20
5.970554571
 11
8.8455575623
 21
5.9707464329
  0
LINE
  5
6E4
100
AcDbEntity
  8
0
100
AcDbLine
 62
7
  6
CONTINUOUS
 10
8.1370622373
 20
5.1264501059
 11
8.136896145
 21
5.1262582439
  0
LINE
  5
6E5
100
AcDbEntity
  8
0
100
AcDbLine
 62
7
  6
CONTINUOUS
 10
8.84539147
 20
5.9311844923
 11
8.8455575623
 21
5.9313763542
  0
LINE
  5
6E6
100
AcDbEntity
  8
0
100
AcDbLine
 62
7
  6
CONTINUOUS
 10
8.8129840725
 20
5.7156140217
 11
8.84539147
 21
5.7343340986
  0
LINE
  5
6E7
100
AcDbEntity
  8
0
100
AcDbLine
 62
7
  6
CONTINUOUS
 10
8.1694696348
 20
5.3420205764
 11
8.1370622373
 21
5.3233004996
  0
LINE
  5
6E8
100
AcDbEntity
  8
0
100
AcDbLine
 62
7
  6
CONTINUOUS
 10
8.8129840725
 20
5.6762439429
 11
8.84539147
 21
5.6949640198
  0
LINE
  5
6E9
100
AcDbEntity
  8
0
100
AcDbLine
 62
7
  6
CONTINUOUS
 10
8.1694696348
 20
5.3026504977
 11
8.1370622373
 21
5.2839304208
  0
LINE
  5
6EA
100
AcDbEntity
  8
0
100
AcDbLine
 62
7
  6
CONTINUOUS
 10
8.8455575623
 20
5.1459432833
 11
8.8416108059
 21
5.1450071857
  0
LINE
  5
6EB
100
AcDbEntity
  8
0
100
AcDbLine
 62
7
  6
CONTINUOUS
 10
8.136896145
 20
5.0061795038
 11
8.1408429211
 21
5.0071156037
  0
LINE
  5
6EC
100
AcDbEntity
  8
0
100
AcDbLine
 62
7
  6
CONTINUOUS
 10
8.8455575623
 20
5.1853133621
 11
8.8416018787
 21
5.1843762044
  0
LWPOLYLINE
  5
6ED
100
AcDbEntity
  8
0
100
AcDbPolyline
 62
7
  6
CONTINUOUS
 90
9
 70
0
 10
8.8129840725
 20
5.1250628406
 10
8.8092032328
 20
5.12428974
 10
8.7974099835
 20
5.123305488
 10
8.7780774894
 20
5.1223212361
 10
8.7516817806
 20
5.1213369841
 10
8.7188728071
 20
5.1203527321
 10
8.6804584347
 20
5.1193684802
 10
8.6373845528
 20
5.1183842282
 10
8.5907117832
 20
5.1173999762
  0
LWPOLYLINE
  5
6EE
100
AcDbEntity
  8
0
100
AcDbPolyline
 62
7
  6
CONTINUOUS
 90
9
 70
0
 10
8.8129840725
 20
5.1644329193
 10
8.8092032328
 20
5.1636598187
 10
8.7974099835
 20
5.1626755668
 10
8.7780774894
 20
5.1616913148
 10
8.7516817806
 20
5.1607070628
 10
8.7188728071
 20
5.1597228109
 10
8.6804584347
 20
5.1587385589
 10
8.6373845528
 20
5.1577543069
 10
8.5907117832
 20
5.156770055
  0
LWPOLYLINE
  5
6EF
100
AcDbEntity
  8
0
100
AcDbPolyline
 62
7
  6
CONTINUOUS
 90
9
 70
0
 10
8.1408222538
 20
5.0464832237
 10
8.1526960306
 20
5.0474278228
 10
8.1723384044
 20
5.0483760634
 10
8.1990490767
 20
5.0493174076
 10
8.2320683968
 20
5.050251669
 10
8.2709281289
 20
5.051187955
 10
8.3145792806
 20
5.0521218301
 10
8.3622863544
 20
5.0530583506
 10
8.4126502763
 20
5.0539909145
  0
LWPOLYLINE
  5
6F0
100
AcDbEntity
  8
0
100
AcDbPolyline
 62
7
  6
CONTINUOUS
 90
9
 70
0
 10
8.8416112935
 20
5.1056371649
 10
8.8298519688
 20
5.1047006195
 10
8.8105676906
 20
5.1037651305
 10
8.7841305407
 20
5.1028281307
 10
8.7511707716
 20
5.101891522
 10
8.7121182089
 20
5.1009482239
 10
8.6682384673
 20
5.1000083859
 10
8.6207097995
 20
5.0990747385
 10
8.5702778893
 20
5.0981404784
  0
LWPOLYLINE
  5
6F1
100
AcDbEntity
  8
0
100
AcDbPolyline
 62
7
  6
CONTINUOUS
 90
9
 70
0
 10
8.8416108059
 20
5.1450071857
 10
8.8298500489
 20
5.1440705829
 10
8.8105633929
 20
5.1431350338
 10
8.7841247289
 20
5.1421980268
 10
8.7513000613
 20
5.1412649661
 10
8.7124627346
 20
5.1403260985
 10
8.6682936719
 20
5.1393795916
 10
8.6202525138
 20
5.1384361322
 10
8.5697482646
 20
5.1375009509
  0
LWPOLYLINE
  5
6F2
100
AcDbEntity
  8
0
100
AcDbPolyline
 62
7
  6
CONTINUOUS
 90
9
 70
0
 10
8.1408521318
 20
5.0858568549
 10
8.1526974357
 20
5.0867979856
 10
8.1720177788
 20
5.0877331081
 10
8.1983838736
 20
5.0886666425
 10
8.231262803
 20
5.08960082
 10
8.2700092567
 20
5.09053726
 10
8.3135639042
 20
5.0914711756
 10
8.3612024083
 20
5.0924078367
 10
8.4116379615
 20
5.0933426283
  0
LWPOLYLINE
  5
6F3
100
AcDbEntity
  8
0
100
AcDbPolyline
 62
7
  6
CONTINUOUS
 90
9
 70
0
 10
8.3917419241
 20
5.0740928896
 10
8.3450691546
 20
5.0731086376
 10
8.3019952726
 20
5.0721243857
 10
8.2635809003
 20
5.0711401337
 10
8.2307719268
 20
5.0701558817
 10
8.204376218
 20
5.0691716298
 10
8.1850437238
 20
5.0681873778
 10
8.1732504745
 20
5.0672031258
 10
8.1694696348
 20
5.0664300253
  0
LWPOLYLINE
  5
6F4
100
AcDbEntity
  8
0
100
AcDbPolyline
 62
7
  6
CONTINUOUS
 90
9
 70
0
 10
8.3917419241
 20
5.1134629684
 10
8.3450691546
 20
5.1124787164
 10
8.3019952726
 20
5.1114944644
 10
8.2635809003
 20
5.1105102124
 10
8.2307719268
 20
5.1095259605
 10
8.204376218
 20
5.1085417085
 10
8.1850437238
 20
5.1075574565
 10
8.1732504745
 20
5.1065732046
 10
8.1694696348
 20
5.105800104
  0
LINE
  5
6F5
100
AcDbEntity
  8
0
100
AcDbLine
 62
7
  6
CONTINUOUS
 10
8.5907117832
 20
5.0780298975
 11
8.3917419241
 21
5.0740928896
  0
LINE
  5
6F6
100
AcDbEntity
  8
0
100
AcDbLine
 62
7
  6
CONTINUOUS
 10
8.5907117832
 20
5.1173999762
 11
8.3917419241
 21
5.1134629684
  0
LWPOLYLINE
  5
6F7
100
AcDbEntity
  8
0
100
AcDbPolyline
 62
7
  6
CONTINUOUS
 90
10
 70
0
 10
8.5708388961
 20
5.056812075
 10
8.6212690092
 20
5.0577467831
 10
8.668901742
 20
5.0586833516
 10
8.712451066
 20
5.0596171729
 10
8.7511931818
 20
5.0605535225
 10
8.7840685239
 20
5.0614875996
 10
8.8104302931
 20
5.0624209455
 10
8.8297548372
 20
5.0633562116
 10
8.8416018787
 20
5.0642974642
 10
8.84539147
 20
5.06504276
  0
LWPOLYLINE
  5
6F8
100
AcDbEntity
  8
0
100
AcDbPolyline
 62
7
  6
CONTINUOUS
 90
10
 70
0
 10
8.4116379615
 20
5.0559410535
 10
8.3612024083
 20
5.0550062619
 10
8.3135639042
 20
5.0540696008
 10
8.2700092567
 20
5.0531356852
 10
8.231262803
 20
5.0521992451
 10
8.1983838736
 20
5.0512650677
 10
8.1720177788
 20
5.0503315333
 10
8.1526974357
 20
5.0493964108
 10
8.1408521318
 20
5.0484552801
 10
8.1370622373
 20
5.0477099484
  0
LWPOLYLINE
  5
6F9
100
AcDbEntity
  8
0
100
AcDbPolyline
 62
7
  6
CONTINUOUS
 90
10
 70
0
 10
8.5698053521
 20
5.0961634035
 10
8.6201755403
 20
5.097096088
 10
8.6678867725
 20
5.098032705
 10
8.7115407228
 20
5.0989666701
 10
8.7504021825
 20
5.0999030517
 10
8.7834217667
 20
5.1008374113
 10
8.8101293849
 20
5.101778791
 10
8.8297651163
 20
5.102726906
 10
8.8416326012
 20
5.1036711962
 10
8.84539147
 20
5.1044128387
  0
LWPOLYLINE
  5
6FA
100
AcDbEntity
  8
0
100
AcDbPolyline
 62
7
  6
CONTINUOUS
 90
10
 70
0
 10
8.4127168476
 20
5.0953307045
 10
8.3622151726
 20
5.0943955817
 10
8.3141711259
 20
5.0934520833
 10
8.2699917782
 20
5.0925053682
 10
8.2311411415
 20
5.0915661568
 10
8.1983214619
 20
5.0906331855
 10
8.1718861211
 20
5.0896962436
 10
8.1526017464
 20
5.0887607507
 10
8.1408424336
 20
5.0878242072
 10
8.1370622373
 20
5.0870800271
  0
LINE
  5
6FB
100
AcDbEntity
  8
0
100
AcDbLine
 62
7
  6
CONTINUOUS
 10
8.4126502763
 20
5.0539909145
 11
8.5708388961
 21
5.056812075
  0
LINE
  5
6FC
100
AcDbEntity
  8
0
100
AcDbLine
 62
7
  6
CONTINUOUS
 10
8.5698053521
 20
5.0587618287
 11
8.4116379615
 21
5.0559410535
  0
LINE
  5
6FD
100
AcDbEntity
  8
0
100
AcDbLine
 62
7
  6
CONTINUOUS
 10
8.4116379615
 20
5.0933426283
 11
8.5698053521
 21
5.0961634035
  0
LINE
  5
6FE
100
AcDbEntity
  8
0
100
AcDbLine
 62
7
  6
CONTINUOUS
 10
8.5702778893
 20
5.0981404784
 11
8.4127168476
 21
5.0953307045
  0
LINE
  5
6FF
100
AcDbEntity
  8
0
100
AcDbLine
 62
7
  6
CONTINUOUS
 10
8.1370622373
 20
5.2422081143
 11
8.1691041115
 21
5.2236991888
  0
LINE
  5
700
100
AcDbEntity
  8
0
100
AcDbLine
 62
7
  6
CONTINUOUS
 10
8.1370622373
 20
5.2815781931
 11
8.1691041115
 21
5.2630692675
  0
LINE
  5
701
100
AcDbEntity
  8
0
100
AcDbLine
 62
7
  6
CONTINUOUS
 10
8.1370622373
 20
5.3603183505
 11
8.136896145
 21
5.3605102124
  0
LINE
  5
702
100
AcDbEntity
  8
0
100
AcDbLine
 62
7
  6
CONTINUOUS
 10
8.1370622373
 20
5.3996884293
 11
8.136896145
 21
5.3998802912
  0
LINE
  5
703
100
AcDbEntity
  8
0
100
AcDbLine
 62
7
  6
CONTINUOUS
 10
8.1370622373
 20
5.439058508
 11
8.136896145
 21
5.4392503699
  0
LINE
  5
704
100
AcDbEntity
  8
0
100
AcDbLine
 62
7
  6
CONTINUOUS
 10
8.1370622373
 20
5.0870800271
 11
8.136896145
 21
5.0868881652
  0
LINE
  5
705
100
AcDbEntity
  8
0
100
AcDbLine
 62
7
  6
CONTINUOUS
 10
8.84539147
 20
5.8918144135
 11
8.8455575623
 21
5.8920062754
  0
LINE
  5
706
100
AcDbEntity
  8
0
100
AcDbLine
 62
7
  6
CONTINUOUS
 10
8.1370622373
 20
5.0477099484
 11
8.136896145
 21
5.0475180865
  0
LINE
  5
707
100
AcDbEntity
  8
0
100
AcDbLine
 62
7
  6
CONTINUOUS
 10
8.84539147
 20
5.8524443348
 11
8.8455575623
 21
5.8526361967
  0
LINE
  5
708
100
AcDbEntity
  8
0
100
AcDbLine
 62
7
  6
CONTINUOUS
 10
8.1370622373
 20
5.0083398696
 11
8.136896145
 21
5.0081480077
  0
LINE
  5
709
100
AcDbEntity
  8
0
100
AcDbLine
 62
7
  6
CONTINUOUS
 10
8.84539147
 20
5.8130742561
 11
8.8455575623
 21
5.813266118
  0
LINE
  5
70A
100
AcDbEntity
  8
0
100
AcDbLine
 62
7
  6
CONTINUOUS
 10
8.8129840725
 20
5.6368738642
 11
8.84539147
 21
5.6555939411
  0
LINE
  5
70B
100
AcDbEntity
  8
0
100
AcDbLine
 62
7
  6
CONTINUOUS
 10
8.1694696348
 20
5.263280419
 11
8.1370622373
 21
5.2445603421
  0
LINE
  5
70C
100
AcDbEntity
  8
0
100
AcDbLine
 62
7
  6
CONTINUOUS
 10
8.8129840725
 20
5.5975037855
 11
8.84539147
 21
5.6162238624
  0
LINE
  5
70D
100
AcDbEntity
  8
0
100
AcDbLine
 62
7
  6
CONTINUOUS
 10
8.1694696348
 20
5.2239103402
 11
8.1370622373
 21
5.2051902633
  0
LINE
  5
70E
100
AcDbEntity
  8
0
100
AcDbLine
 62
7
  6
CONTINUOUS
 10
8.8129840725
 20
5.5581337067
 11
8.84539147
 21
5.5768537836
  0
LINE
  5
70F
100
AcDbEntity
  8
0
100
AcDbLine
 62
7
  6
CONTINUOUS
 10
8.1694696348
 20
5.1845402615
 11
8.1370622373
 21
5.1658201846
  0
LINE
  5
710
100
AcDbEntity
  8
0
100
AcDbLine
 62
7
  6
CONTINUOUS
 10
8.8455575623
 20
5.2246834408
 11
8.8416326012
 21
5.2237499363
  0
LINE
  5
711
100
AcDbEntity
  8
0
100
AcDbLine
 62
7
  6
CONTINUOUS
 10
8.136896145
 20
5.0455495825
 11
8.1408222538
 21
5.0464832237
  0
LINE
  5
712
100
AcDbEntity
  8
0
100
AcDbLine
 62
7
  6
CONTINUOUS
 10
8.8455575623
 20
5.2640535195
 11
8.8416112935
 21
5.2631174799
  0
LINE
  5
713
100
AcDbEntity
  8
0
100
AcDbLine
 62
7
  6
CONTINUOUS
 10
8.136896145
 20
5.0849196613
 11
8.1408521318
 21
5.0858568549
  0
LWPOLYLINE
  5
714
100
AcDbEntity
  8
0
100
AcDbPolyline
 62
7
  6
CONTINUOUS
 90
9
 70
0
 10
8.8129840725
 20
5.2038029981
 10
8.8092032328
 20
5.2030298975
 10
8.7974099835
 20
5.2020456455
 10
8.7780774894
 20
5.2010613935
 10
8.7516817806
 20
5.2000771416
 10
8.7188728071
 20
5.1990928896
 10
8.6804584347
 20
5.1981086376
 10
8.6373845528
 20
5.1971243857
 10
8.5907117832
 20
5.1961401337
  0
LWPOLYLINE
  5
715
100
AcDbEntity
  8
0
100
AcDbPolyline
 62
7
  6
CONTINUOUS
 90
9
 70
0
 10
8.8129840725
 20
5.2431730768
 10
8.8092032328
 20
5.2423999762
 10
8.7974099835
 20
5.2414157243
 10
8.7780774894
 20
5.2404314723
 10
8.7516817806
 20
5.2394472203
 10
8.7188728071
 20
5.2384629684
 10
8.6804584347
 20
5.2374787164
 10
8.6373845528
 20
5.2364944644
 10
8.5907117832
 20
5.2355102124
  0
LWPOLYLINE
  5
716
100
AcDbEntity
  8
0
100
AcDbPolyline
 62
7
  6
CONTINUOUS
 90
9
 70
0
 10
8.1408424336
 20
5.125225782
 10
8.1526017464
 20
5.1261623255
 10
8.1718861211
 20
5.1270978184
 10
8.1983214619
 20
5.1280347603
 10
8.2311411415
 20
5.1289677316
 10
8.2699917782
 20
5.129906943
 10
8.3141711259
 20
5.1308536581
 10
8.3622151726
 20
5.1317971566
 10
8.4127168476
 20
5.1327322793
  0
LWPOLYLINE
  5
717
100
AcDbEntity
  8
0
100
AcDbPolyline
 62
7
  6
CONTINUOUS
 90
9
 70
0
 10
8.1408429211
 20
5.1645959187
 10
8.1526036663
 20
5.1655325196
 10
8.171890331
 20
5.1664680689
 10
8.1983305914
 20
5.167405126
 10
8.2312929816
 20
5.1683417628
 10
8.2703418684
 20
5.1692849435
 10
8.314208878
 20
5.1702245075
 10
8.3617415341
 20
5.1711582397
 10
8.4121775516
 20
5.1720925763
  0
LWPOLYLINE
  5
718
100
AcDbEntity
  8
0
100
AcDbPolyline
 62
7
  6
CONTINUOUS
 90
9
 70
0
 10
8.8416326012
 20
5.2237499363
 10
8.8297651163
 20
5.2228056461
 10
8.8101293849
 20
5.2218575312
 10
8.7834217667
 20
5.2209161514
 10
8.7504021825
 20
5.2199817919
 10
8.7115407228
 20
5.2190454102
 10
8.6678867725
 20
5.2181114451
 10
8.6201755403
 20
5.2171748282
 10
8.5698053521
 20
5.2162421437
  0
LWPOLYLINE
  5
719
100
AcDbEntity
  8
0
100
AcDbPolyline
 62
7
  6
CONTINUOUS
 90
9
 70
0
 10
8.8416018787
 20
5.1843762044
 10
8.8297548372
 20
5.1834349518
 10
8.8104302931
 20
5.1824996856
 10
8.7840685239
 20
5.1815663397
 10
8.7511931818
 20
5.1806322626
 10
8.712451066
 20
5.1796959131
 10
8.668901742
 20
5.1787620917
 10
8.6212690092
 20
5.1778255233
 10
8.5708388961
 20
5.1768908151
  0
LWPOLYLINE
  5
71A
100
AcDbEntity
  8
0
100
AcDbPolyline
 62
7
  6
CONTINUOUS
 90
9
 70
0
 10
8.3917419241
 20
5.1528330471
 10
8.3450691546
 20
5.1518487951
 10
8.3019952726
 20
5.1508645432
 10
8.2635809002
 20
5.1498802912
 10
8.2307719268
 20
5.1488960392
 10
8.204376218
 20
5.1479117872
 10
8.1850437238
 20
5.1469275353
 10
8.1732504745
 20
5.1459432833
 10
8.1694696348
 20
5.1451701827
  0
LWPOLYLINE
  5
71B
100
AcDbEntity
  8
0
100
AcDbPolyline
 62
7
  6
CONTINUOUS
 90
9
 70
0
 10
8.3917419241
 20
5.1922031258
 10
8.3450691546
 20
5.1912188739
 10
8.3019952726
 20
5.1902346219
 10
8.2635809002
 20
5.1892503699
 10
8.2307719268
 20
5.188266118
 10
8.204376218
 20
5.187281866
 10
8.1850437238
 20
5.186297614
 10
8.1732504745
 20
5.1853133621
 10
8.1694696348
 20
5.1845402615
  0
LINE
  5
71C
100
AcDbEntity
  8
0
100
AcDbLine
 62
7
  6
CONTINUOUS
 10
8.5907117832
 20
5.156770055
 11
8.3917419241
 21
5.1528330471
  0
LINE
  5
71D
100
AcDbEntity
  8
0
100
AcDbLine
 62
7
  6
CONTINUOUS
 10
8.5907117832
 20
5.1961401337
 11
8.3917419241
 21
5.1922031258
  0
LWPOLYLINE
  5
71E
100
AcDbEntity
  8
0
100
AcDbPolyline
 62
7
  6
CONTINUOUS
 90
10
 70
0
 10
8.5702778893
 20
5.1355420532
 10
8.6207097995
 20
5.1364763133
 10
8.6682384673
 20
5.1374099607
 10
8.7121182089
 20
5.1383497987
 10
8.7511707716
 20
5.1392930968
 10
8.7841305407
 20
5.1402297055
 10
8.8105676906
 20
5.1411667053
 10
8.8298519688
 20
5.1421021943
 10
8.8416112935
 20
5.1430387397
 10
8.84539147
 20
5.1437829175
  0
LWPOLYLINE
  5
71F
100
AcDbEntity
  8
0
100
AcDbPolyline
 62
7
  6
CONTINUOUS
 90
10
 70
0
 10
8.4121775516
 20
5.1346910015
 10
8.3617415341
 20
5.1337566649
 10
8.314208878
 20
5.1328229327
 10
8.2703418684
 20
5.1318833687
 10
8.2312929816
 20
5.130940188
 10
8.1983305914
 20
5.1300035512
 10
8.171890331
 20
5.1290664941
 10
8.1526036663
 20
5.1281309448
 10
8.1408429211
 20
5.1271943439
 10
8.1370622373
 20
5.1264501059
  0
LWPOLYLINE
  5
720
100
AcDbEntity
  8
0
100
AcDbPolyline
 62
7
  6
CONTINUOUS
 90
10
 70
0
 10
8.5697482646
 20
5.1749025257
 10
8.6202525138
 20
5.175837707
 10
8.6682936719
 20
5.1767811664
 10
8.7124627346
 20
5.1777276733
 10
8.7513000613
 20
5.1786665409
 10
8.7841247289
 20
5.1795996016
 10
8.8105633929
 20
5.1805366086
 10
8.8298500489
 20
5.1814721577
 10
8.8416108059
 20
5.1824087605
 10
8.84539147
 20
5.1831529962
  0
LWPOLYLINE
  5
721
100
AcDbEntity
  8
0
100
AcDbPolyline
 62
7
  6
CONTINUOUS
 90
10
 70
0
 10
8.4126502763
 20
5.1740696547
 10
8.3622863544
 20
5.1731370907
 10
8.3145792806
 20
5.1722005702
 10
8.2709281289
 20
5.1712666952
 10
8.2320683968
 20
5.1703304092
 10
8.1990490767
 20
5.1693961477
 10
8.1723384044
 20
5.1684548036
 10
8.1526960306
 20
5.1675065629
 10
8.1408222538
 20
5.1665619639
 10
8.1370622373
 20
5.1658201846
  0
LINE
  5
722
100
AcDbEntity
  8
0
100
AcDbLine
 62
7
  6
CONTINUOUS
 10
8.4127168476
 20
5.1327322793
 11
8.5702778893
 21
5.1355420532
  0
LINE
  5
723
100
AcDbEntity
  8
0
100
AcDbLine
 62
7
  6
CONTINUOUS
 10
8.5697482646
 20
5.1375009509
 11
8.4121775516
 21
5.1346910015
  0
LINE
  5
724
100
AcDbEntity
  8
0
100
AcDbLine
 62
7
  6
CONTINUOUS
 10
8.4121775516
 20
5.1720925763
 11
8.5697482646
 21
5.1749025257
  0
LINE
  5
725
100
AcDbEntity
  8
0
100
AcDbLine
 62
7
  6
CONTINUOUS
 10
8.5708388961
 20
5.1768908151
 11
8.4126502763
 21
5.1740696547
  0
LINE
  5
726
100
AcDbEntity
  8
0
100
AcDbLine
 62
7
  6
CONTINUOUS
 10
8.1370622373
 20
5.3209482718
 11
8.1691041115
 21
5.3024393463
  0
LINE
  5
727
100
AcDbEntity
  8
0
100
AcDbLine
 62
7
  6
CONTINUOUS
 10
8.1370622373
 20
5.3603183505
 11
8.1691041115
 21
5.341809425
  0
LINE
  5
728
100
AcDbEntity
  8
0
100
AcDbLine
 62
7
  6
CONTINUOUS
 10
8.8320920693
 20
4.9963369841
 11
8.8133495959
 21
5.0071637557
  0
LINE
  5
729
100
AcDbEntity
  8
0
100
AcDbLine
 62
7
  6
CONTINUOUS
 10
8.1370622373
 20
5.3996884293
 11
8.1691041115
 21
5.3811795038
  0
LINE
  5
72A
100
AcDbEntity
  8
0
100
AcDbLine
 62
7
  6
CONTINUOUS
 10
8.1370622373
 20
5.4784285868
 11
8.136896145
 21
5.4786204487
  0
LINE
  5
72B
100
AcDbEntity
  8
0
100
AcDbLine
 62
7
  6
CONTINUOUS
 10
8.1370622373
 20
5.5177986655
 11
8.136896145
 21
5.5179905274
  0
LINE
  5
72C
100
AcDbEntity
  8
0
100
AcDbLine
 62
7
  6
CONTINUOUS
 10
8.1370622373
 20
5.5571687442
 11
8.136896145
 21
5.5573606061
  0
LINE
  5
72D
100
AcDbEntity
  8
0
100
AcDbLine
 62
7
  6
CONTINUOUS
 10
8.84539147
 20
5.7737041773
 11
8.8455575623
 21
5.7738960392
  0
LINE
  5
72E
100
AcDbEntity
  8
0
100
AcDbLine
 62
7
  6
CONTINUOUS
 10
8.84539147
 20
5.7343340986
 11
8.8455575623
 21
5.7345259605
  0
LINE
  5
72F
100
AcDbEntity
  8
0
100
AcDbLine
 62
7
  6
CONTINUOUS
 10
8.84539147
 20
5.6949640198
 11
8.8455575623
 21
5.6951558817
  0
LINE
  5
730
100
AcDbEntity
  8
0
100
AcDbLine
 62
7
  6
CONTINUOUS
 10
8.8129840725
 20
5.518763628
 11
8.84539147
 21
5.5374837049
  0
LINE
  5
731
100
AcDbEntity
  8
0
100
AcDbLine
 62
7
  6
CONTINUOUS
 10
8.1694696348
 20
5.1451701827
 11
8.1370622373
 21
5.1264501059
  0
LINE
  5
732
100
AcDbEntity
  8
0
100
AcDbLine
 62
7
  6
CONTINUOUS
 10
8.8129840725
 20
5.4793935492
 11
8.84539147
 21
5.4981136261
  0
LINE
  5
733
100
AcDbEntity
  8
0
100
AcDbLine
 62
7
  6
CONTINUOUS
 10
8.1694696348
 20
5.105800104
 11
8.1370622373
 21
5.0870800271
  0
LINE
  5
734
100
AcDbEntity
  8
0
100
AcDbLine
 62
7
  6
CONTINUOUS
 10
8.136896145
 20
5.2030298975
 11
8.1408222538
 21
5.2039635387
  0
LINE
  5
735
100
AcDbEntity
  8
0
100
AcDbLine
 62
7
  6
CONTINUOUS
 10
8.136896145
 20
5.12428974
 11
8.1408424336
 21
5.125225782
  0
LINE
  5
736
100
AcDbEntity
  8
0
100
AcDbLine
 62
7
  6
CONTINUOUS
 10
8.8455575623
 20
5.3034235983
 11
8.8416108059
 21
5.3024875007
  0
LINE
  5
737
100
AcDbEntity
  8
0
100
AcDbLine
 62
7
  6
CONTINUOUS
 10
8.136896145
 20
5.1636598187
 11
8.1408429211
 21
5.1645959187
  0
LINE
  5
738
100
AcDbEntity
  8
0
100
AcDbLine
 62
7
  6
CONTINUOUS
 10
8.8455575623
 20
5.342793677
 11
8.8416018787
 21
5.3418565194
  0
LWPOLYLINE
  5
739
100
AcDbEntity
  8
0
100
AcDbPolyline
 62
7
  6
CONTINUOUS
 90
9
 70
0
 10
8.8129840725
 20
5.2825431555
 10
8.8092032328
 20
5.281770055
 10
8.7974099835
 20
5.280785803
 10
8.7780774894
 20
5.279801551
 10
8.7516817806
 20
5.2788172991
 10
8.7188728071
 20
5.2778330471
 10
8.6804584347
 20
5.2768487951
 10
8.6373845528
 20
5.2758645432
 10
8.5907117832
 20
5.2748802912
  0
LWPOLYLINE
  5
73A
100
AcDbEntity
  8
0
100
AcDbPolyline
 62
7
  6
CONTINUOUS
 90
9
 70
0
 10
8.8129840725
 20
5.3219132343
 10
8.8092032328
 20
5.3211401337
 10
8.7974099835
 20
5.3201558817
 10
8.7780774894
 20
5.3191716298
 10
8.7516817806
 20
5.3181873778
 10
8.7188728071
 20
5.3172031258
 10
8.6804584347
 20
5.3162188739
 10
8.6373845528
 20
5.3152346219
 10
8.5907117832
 20
5.3142503699
  0
LWPOLYLINE
  5
73B
100
AcDbEntity
  8
0
100
AcDbPolyline
 62
7
  6
CONTINUOUS
 90
9
 70
0
 10
8.1408222538
 20
5.2039635387
 10
8.1526960306
 20
5.2049081377
 10
8.1723384044
 20
5.2058563784
 10
8.1990490767
 20
5.2067977225
 10
8.2320683968
 20
5.207731984
 10
8.2709281289
 20
5.20866827
 10
8.3145792806
 20
5.209602145
 10
8.3622863544
 20
5.2105386655
 10
8.4126502763
 20
5.2114712295
  0
LWPOLYLINE
  5
73C
100
AcDbEntity
  8
0
100
AcDbPolyline
 62
7
  6
CONTINUOUS
 90
9
 70
0
 10
8.8416112935
 20
5.2631174799
 10
8.8298519688
 20
5.2621809345
 10
8.8105676906
 20
5.2612454454
 10
8.7841305407
 20
5.2603084456
 10
8.7511707716
 20
5.2593718369
 10
8.7121182089
 20
5.2584285389
 10
8.6682384673
 20
5.2574887009
 10
8.6207097995
 20
5.2565550535
 10
8.5702778893
 20
5.2556207934
  0
LWPOLYLINE
  5
73D
100
AcDbEntity
  8
0
100
AcDbPolyline
 62
7
  6
CONTINUOUS
 90
9
 70
0
 10
8.8416108059
 20
5.3024875007
 10
8.8298500489
 20
5.3015508979
 10
8.8105633929
 20
5.3006153488
 10
8.7841247289
 20
5.2996783417
 10
8.7513000613
 20
5.2987452811
 10
8.7124627346
 20
5.2978064135
 10
8.6682936719
 20
5.2968599066
 10
8.6202525138
 20
5.2959164472
 10
8.5697482646
 20
5.2949812658
  0
LWPOLYLINE
  5
73E
100
AcDbEntity
  8
0
100
AcDbPolyline
 62
7
  6
CONTINUOUS
 90
9
 70
0
 10
8.1408521318
 20
5.2433371699
 10
8.1526974357
 20
5.2442783006
 10
8.1720177788
 20
5.2452134231
 10
8.1983838736
 20
5.2461469574
 10
8.231262803
 20
5.2470811349
 10
8.2700092567
 20
5.2480175749
 10
8.3135639042
 20
5.2489514906
 10
8.3612024083
 20
5.2498881517
 10
8.4116379615
 20
5.2508229433
  0
LWPOLYLINE
  5
73F
100
AcDbEntity
  8
0
100
AcDbPolyline
 62
7
  6
CONTINUOUS
 90
9
 70
0
 10
8.3917419241
 20
5.2315732046
 10
8.3450691546
 20
5.2305889526
 10
8.3019952726
 20
5.2296047006
 10
8.2635809003
 20
5.2286204487
 10
8.2307719268
 20
5.2276361967
 10
8.204376218
 20
5.2266519447
 10
8.1850437238
 20
5.2256676928
 10
8.1732504745
 20
5.2246834408
 10
8.1694696348
 20
5.2239103402
  0
LWPOLYLINE
  5
740
100
AcDbEntity
  8
0
100
AcDbPolyline
 62
7
  6
CONTINUOUS
 90
9
 70
0
 10
8.3917419241
 20
5.2709432833
 10
8.3450691546
 20
5.2699590313
 10
8.3019952726
 20
5.2689747794
 10
8.2635809003
 20
5.2679905274
 10
8.2307719268
 20
5.2670062754
 10
8.204376218
 20
5.2660220235
 10
8.1850437238
 20
5.2650377715
 10
8.1732504745
 20
5.2640535195
 10
8.1694696348
 20
5.263280419
  0
LINE
  5
741
100
AcDbEntity
  8
0
100
AcDbLine
 62
7
  6
CONTINUOUS
 10
8.5907117832
 20
5.2355102124
 11
8.3917419241
 21
5.2315732046
  0
LINE
  5
742
100
AcDbEntity
  8
0
100
AcDbLine
 62
7
  6
CONTINUOUS
 10
8.5907117832
 20
5.2748802912
 11
8.3917419241
 21
5.2709432833
  0
LWPOLYLINE
  5
743
100
AcDbEntity
  8
0
100
AcDbPolyline
 62
7
  6
CONTINUOUS
 90
10
 70
0
 10
8.5708388961
 20
5.2142923899
 10
8.6212690092
 20
5.2152270981
 10
8.668901742
 20
5.2161636665
 10
8.712451066
 20
5.2170974879
 10
8.7511931818
 20
5.2180338374
 10
8.7840685239
 20
5.2189679145
 10
8.8104302931
 20
5.2199012604
 10
8.8297548372
 20
5.2208365266
 10
8.8416018787
 20
5.2217777792
 10
8.84539147
 20
5.2225230749
  0
LWPOLYLINE
  5
744
100
AcDbEntity
  8
0
100
AcDbPolyline
 62
7
  6
CONTINUOUS
 90
10
 70
0
 10
8.4116379615
 20
5.2134213685
 10
8.3612024083
 20
5.2124865769
 10
8.3135639042
 20
5.2115499158
 10
8.2700092567
 20
5.2106160001
 10
8.231262803
 20
5.2096795601
 10
8.1983838736
 20
5.2087453826
 10
8.1720177788
 20
5.2078118483
 10
8.1526974357
 20
5.2068767258
 10
8.1408521318
 20
5.2059355951
 10
8.1370622373
 20
5.2051902633
  0
LWPOLYLINE
  5
745
100
AcDbEntity
  8
0
100
AcDbPolyline
 62
7
  6
CONTINUOUS
 90
10
 70
0
 10
8.5698053521
 20
5.2536437185
 10
8.6201755403
 20
5.254576403
 10
8.6678867725
 20
5.2555130199
 10
8.7115407228
 20
5.256446985
 10
8.7504021825
 20
5.2573833667
 10
8.7834217667
 20
5.2583177262
 10
8.8101293849
 20
5.259259106
 10
8.8297651163
 20
5.2602072209
 10
8.8416326012
 20
5.2611515111
 10
8.84539147
 20
5.2618931537
  0
LWPOLYLINE
  5
746
100
AcDbEntity
  8
0
100
AcDbPolyline
 62
7
  6
CONTINUOUS
 90
10
 70
0
 10
8.4127168476
 20
5.2528110194
 10
8.3622151726
 20
5.2518758967
 10
8.3141711259
 20
5.2509323983
 10
8.2699917782
 20
5.2499856832
 10
8.2311411415
 20
5.2490464718
 10
8.1983214619
 20
5.2481135005
 10
8.1718861211
 20
5.2471765585
 10
8.1526017464
 20
5.2462410657
 10
8.1408424336
 20
5.2453045222
 10
8.1370622373
 20
5.2445603421
  0
LINE
  5
747
100
AcDbEntity
  8
0
100
AcDbLine
 62
7
  6
CONTINUOUS
 10
8.4126502763
 20
5.2114712295
 11
8.5708388961
 21
5.2142923899
  0
LINE
  5
748
100
AcDbEntity
  8
0
100
AcDbLine
 62
7
  6
CONTINUOUS
 10
8.5698053521
 20
5.2162421437
 11
8.4116379615
 21
5.2134213685
  0
LINE
  5
749
100
AcDbEntity
  8
0
100
AcDbLine
 62
7
  6
CONTINUOUS
 10
8.4116379615
 20
5.2508229433
 11
8.5698053521
 21
5.2536437185
  0
LINE
  5
74A
100
AcDbEntity
  8
0
100
AcDbLine
 62
7
  6
CONTINUOUS
 10
8.5702778893
 20
5.2556207934
 11
8.4127168476
 21
5.2528110194
  0
LINE
  5
74B
100
AcDbEntity
  8
0
100
AcDbLine
 62
7
  6
CONTINUOUS
 10
8.84539147
 20
5.028024909
 11
8.8133495959
 21
5.0465338345
  0
LINE
  5
74C
100
AcDbEntity
  8
0
100
AcDbLine
 62
7
  6
CONTINUOUS
 10
8.1370622373
 20
5.439058508
 11
8.1691041115
 21
5.4205495825
  0
LINE
  5
74D
100
AcDbEntity
  8
0
100
AcDbLine
 62
7
  6
CONTINUOUS
 10
8.84539147
 20
5.0673949877
 11
8.8133495959
 21
5.0859039132
  0
LINE
  5
74E
100
AcDbEntity
  8
0
100
AcDbLine
 62
7
  6
CONTINUOUS
 10
8.1370622373
 20
5.4784285868
 11
8.1691041115
 21
5.4599196612
  0
LINE
  5
74F
100
AcDbEntity
  8
0
100
AcDbLine
 62
7
  6
CONTINUOUS
 10
8.1370622373
 20
5.596538823
 11
8.136896145
 21
5.5967306849
  0
LINE
  5
750
100
AcDbEntity
  8
0
100
AcDbLine
 62
7
  6
CONTINUOUS
 10
8.1370622373
 20
5.6359089017
 11
8.136896145
 21
5.6361007636
  0
LINE
  5
751
100
AcDbEntity
  8
0
100
AcDbLine
 62
7
  6
CONTINUOUS
 10
8.1370622373
 20
5.6752789805
 11
8.136896145
 21
5.6754708424
  0
LINE
  5
752
100
AcDbEntity
  8
0
100
AcDbLine
 62
7
  6
CONTINUOUS
 10
8.84539147
 20
5.6555939411
 11
8.8455575623
 21
5.655785803
  0
LINE
  5
753
100
AcDbEntity
  8
0
100
AcDbLine
 62
7
  6
CONTINUOUS
 10
8.84539147
 20
5.6162238624
 11
8.8455575623
 21
5.6164157243
  0
LINE
  5
754
100
AcDbEntity
  8
0
100
AcDbLine
 62
7
  6
CONTINUOUS
 10
8.84539147
 20
5.5768537836
 11
8.8455575623
 21
5.5770456455
  0
LINE
  5
755
100
AcDbEntity
  8
0
100
AcDbLine
 62
7
  6
CONTINUOUS
 10
8.8129840725
 20
5.4400234705
 11
8.84539147
 21
5.4587435474
  0
LINE
  5
756
100
AcDbEntity
  8
0
100
AcDbLine
 62
7
  6
CONTINUOUS
 10
8.1694696348
 20
5.0664300253
 11
8.1370622373
 21
5.0477099484
  0
LINE
  5
757
100
AcDbEntity
  8
0
100
AcDbLine
 62
7
  6
CONTINUOUS
 10
8.8129840725
 20
5.4006533918
 11
8.84539147
 21
5.4193734687
  0
LINE
  5
758
100
AcDbEntity
  8
0
100
AcDbLine
 62
7
  6
CONTINUOUS
 10
8.1694696348
 20
5.0270599465
 11
8.1370622373
 21
5.0083398696
  0
LINE
  5
759
100
AcDbEntity
  8
0
100
AcDbLine
 62
7
  6
CONTINUOUS
 10
8.8129840725
 20
5.361283313
 11
8.84539147
 21
5.3800033899
  0
LINE
  5
75A
100
AcDbEntity
  8
0
100
AcDbLine
 62
7
  6
CONTINUOUS
 10
8.8455575623
 20
5.3821637558
 11
8.8416326012
 21
5.3812302513
  0
LINE
  5
75B
100
AcDbEntity
  8
0
100
AcDbLine
 62
7
  6
CONTINUOUS
 10
8.8455575623
 20
5.4215338345
 11
8.8416112935
 21
5.4205977948
  0
LINE
  5
75C
100
AcDbEntity
  8
0
100
AcDbLine
 62
7
  6
CONTINUOUS
 10
8.136896145
 20
5.281770055
 11
8.1408424336
 21
5.282706097
  0
LINE
  5
75D
100
AcDbEntity
  8
0
100
AcDbLine
 62
7
  6
CONTINUOUS
 10
8.136896145
 20
5.2423999762
 11
8.1408521318
 21
5.2433371699
  0
LWPOLYLINE
  5
75E
100
AcDbEntity
  8
0
100
AcDbPolyline
 62
7
  6
CONTINUOUS
 90
9
 70
0
 10
8.8129840725
 20
5.361283313
 10
8.8092032328
 20
5.3605102124
 10
8.7974099835
 20
5.3595259605
 10
8.7780774894
 20
5.3585417085
 10
8.7516817806
 20
5.3575574565
 10
8.7188728071
 20
5.3565732046
 10
8.6804584347
 20
5.3555889526
 10
8.6373845528
 20
5.3546047006
 10
8.5907117832
 20
5.3536204487
  0
LWPOLYLINE
  5
75F
100
AcDbEntity
  8
0
100
AcDbPolyline
 62
7
  6
CONTINUOUS
 90
9
 70
0
 10
8.8129840725
 20
5.4006533918
 10
8.8092032328
 20
5.3998802912
 10
8.7974099835
 20
5.3988960392
 10
8.7780774894
 20
5.3979117872
 10
8.7516817806
 20
5.3969275353
 10
8.7188728071
 20
5.3959432833
 10
8.6804584347
 20
5.3949590313
 10
8.6373845528
 20
5.3939747794
 10
8.5907117832
 20
5.3929905274
  0
LWPOLYLINE
  5
760
100
AcDbEntity
  8
0
100
AcDbPolyline
 62
7
  6
CONTINUOUS
 90
9
 70
0
 10
8.8129840725
 20
5.4400234705
 10
8.8092032328
 20
5.4392503699
 10
8.7974099835
 20
5.438266118
 10
8.7780774894
 20
5.437281866
 10
8.7516817806
 20
5.436297614
 10
8.7188728071
 20
5.4353133621
 10
8.6804584347
 20
5.4343291101
 10
8.6373845528
 20
5.4333448581
 10
8.5907117832
 20
5.4323606061
  0
LWPOLYLINE
  5
761
100
AcDbEntity
  8
0
100
AcDbPolyline
 62
7
  6
CONTINUOUS
 90
9
 70
0
 10
8.1408424336
 20
5.282706097
 10
8.1526017464
 20
5.2836426405
 10
8.1718861211
 20
5.2845781333
 10
8.1983214619
 20
5.2855150753
 10
8.2311411415
 20
5.2864480466
 10
8.2699917782
 20
5.287387258
 10
8.3141711259
 20
5.2883339731
 10
8.3622151726
 20
5.2892774715
 10
8.4127168476
 20
5.2902125942
  0
LWPOLYLINE
  5
762
100
AcDbEntity
  8
0
100
AcDbPolyline
 62
7
  6
CONTINUOUS
 90
9
 70
0
 10
8.1408429211
 20
5.3220762336
 10
8.1526036663
 20
5.3230128345
 10
8.171890331
 20
5.3239483839
 10
8.1983305914
 20
5.3248854409
 10
8.2312929816
 20
5.3258220777
 10
8.2703418684
 20
5.3267652584
 10
8.314208878
 20
5.3277048225
 10
8.3617415341
 20
5.3286385547
 10
8.4121775516
 20
5.3295728913
  0
LWPOLYLINE
  5
763
100
AcDbEntity
  8
0
100
AcDbPolyline
 62
7
  6
CONTINUOUS
 90
9
 70
0
 10
8.8416326012
 20
5.3812302513
 10
8.8297651163
 20
5.3802859611
 10
8.8101293849
 20
5.3793378462
 10
8.7834217667
 20
5.3783964664
 10
8.7504021825
 20
5.3774621068
 10
8.7115407228
 20
5.3765257252
 10
8.6678867725
 20
5.3755917601
 10
8.6201755403
 20
5.3746551432
 10
8.5698053521
 20
5.3737224586
  0
LWPOLYLINE
  5
764
100
AcDbEntity
  8
0
100
AcDbPolyline
 62
7
  6
CONTINUOUS
 90
9
 70
0
 10
8.8416018787
 20
5.3418565194
 10
8.8297548372
 20
5.3409152667
 10
8.8104302931
 20
5.3399800006
 10
8.7840685239
 20
5.3390466547
 10
8.7511931818
 20
5.3381125776
 10
8.712451066
 20
5.3371762281
 10
8.668901742
 20
5.3362424067
 10
8.6212690092
 20
5.3353058382
 10
8.5708388961
 20
5.3343711301
  0
LWPOLYLINE
  5
765
100
AcDbEntity
  8
0
100
AcDbPolyline
 62
7
  6
CONTINUOUS
 90
9
 70
0
 10
8.3917419241
 20
5.3103133621
 10
8.3450691546
 20
5.3093291101
 10
8.3019952726
 20
5.3083448581
 10
8.2635809002
 20
5.3073606061
 10
8.2307719268
 20
5.3063763542
 10
8.204376218
 20
5.3053921022
 10
8.1850437238
 20
5.3044078502
 10
8.1732504745
 20
5.3034235983
 10
8.1694696348
 20
5.3026504977
  0
LWPOLYLINE
  5
766
100
AcDbEntity
  8
0
100
AcDbPolyline
 62
7
  6
CONTINUOUS
 90
9
 70
0
 10
8.3917419241
 20
5.3496834408
 10
8.3450691546
 20
5.3486991888
 10
8.3019952726
 20
5.3477149369
 10
8.2635809002
 20
5.3467306849
 10
8.2307719267
 20
5.3457464329
 10
8.204376218
 20
5.344762181
 10
8.1850437238
 20
5.343777929
 10
8.1732504745
 20
5.342793677
 10
8.1694696348
 20
5.3420205764
  0
LINE
  5
767
100
AcDbEntity
  8
0
100
AcDbLine
 62
7
  6
CONTINUOUS
 10
8.5907117832
 20
5.3142503699
 11
8.3917419241
 21
5.3103133621
  0
LINE
  5
768
100
AcDbEntity
  8
0
100
AcDbLine
 62
7
  6
CONTINUOUS
 10
8.5907117832
 20
5.3536204487
 11
8.3917419241
 21
5.3496834408
  0
LWPOLYLINE
  5
769
100
AcDbEntity
  8
0
100
AcDbPolyline
 62
7
  6
CONTINUOUS
 90
10
 70
0
 10
8.5702778893
 20
5.2930223682
 10
8.6207097995
 20
5.2939566283
 10
8.6682384673
 20
5.2948902757
 10
8.7121182089
 20
5.2958301137
 10
8.7511707716
 20
5.2967734117
 10
8.7841305407
 20
5.2977100204
 10
8.8105676906
 20
5.2986470202
 10
8.8298519688
 20
5.2995825093
 10
8.8416112935
 20
5.3005190547
 10
8.84539147
 20
5.3012632324
  0
LWPOLYLINE
  5
76A
100
AcDbEntity
  8
0
100
AcDbPolyline
 62
7
  6
CONTINUOUS
 90
10
 70
0
 10
8.4121775516
 20
5.2921713165
 10
8.3617415341
 20
5.2912369799
 10
8.314208878
 20
5.2903032477
 10
8.2703418684
 20
5.2893636836
 10
8.2312929816
 20
5.2884205029
 10
8.1983305914
 20
5.2874838661
 10
8.171890331
 20
5.2865468091
 10
8.1526036663
 20
5.2856112597
 10
8.1408429211
 20
5.2846746588
 10
8.1370622373
 20
5.2839304208
  0
LWPOLYLINE
  5
76B
100
AcDbEntity
  8
0
100
AcDbPolyline
 62
7
  6
CONTINUOUS
 90
10
 70
0
 10
8.5697482646
 20
5.3323828406
 10
8.6202525138
 20
5.333318022
 10
8.6682936719
 20
5.3342614814
 10
8.7124627346
 20
5.3352079883
 10
8.7513000613
 20
5.3361468559
 10
8.7841247289
 20
5.3370799165
 10
8.8105633929
 20
5.3380169236
 10
8.8298500489
 20
5.3389524727
 10
8.8416108059
 20
5.3398890755
 10
8.84539147
 20
5.3406333112
  0
LWPOLYLINE
  5
76C
100
AcDbEntity
  8
0
100
AcDbPolyline
 62
7
  6
CONTINUOUS
 90
10
 70
0
 10
8.4126502763
 20
5.3315499696
 10
8.3622863544
 20
5.3306174057
 10
8.3145792806
 20
5.3296808852
 10
8.2709281289
 20
5.3287470102
 10
8.2320683968
 20
5.3278107241
 10
8.1990490767
 20
5.3268764627
 10
8.1723384044
 20
5.3259351185
 10
8.1526960306
 20
5.3249868779
 10
8.1408222538
 20
5.3240422788
 10
8.1370622373
 20
5.3233004996
  0
LWPOLYLINE
  5
76D
100
AcDbEntity
  8
0
100
AcDbPolyline
 62
7
  6
CONTINUOUS
 90
10
 70
0
 10
8.5708388961
 20
5.3717727049
 10
8.6212690092
 20
5.372707413
 10
8.668901742
 20
5.3736439815
 10
8.712451066
 20
5.3745778029
 10
8.7511931818
 20
5.3755141524
 10
8.7840685239
 20
5.3764482295
 10
8.8104302931
 20
5.3773815754
 10
8.8297548372
 20
5.3783168415
 10
8.8416018787
 20
5.3792580942
 10
8.84539147
 20
5.3800033899
  0
LWPOLYLINE
  5
76E
100
AcDbEntity
  8
0
100
AcDbPolyline
 62
7
  6
CONTINUOUS
 90
10
 70
0
 10
8.4116379615
 20
5.3709016834
 10
8.3612024083
 20
5.3699668918
 10
8.3135639042
 20
5.3690302307
 10
8.2700092567
 20
5.3680963151
 10
8.231262803
 20
5.3671598751
 10
8.1983838736
 20
5.3662256976
 10
8.1720177788
 20
5.3652921632
 10
8.1526974357
 20
5.3643570408
 10
8.1408521318
 20
5.36341591
 10
8.1370622373
 20
5.3626705783
  0
LINE
  5
76F
100
AcDbEntity
  8
0
100
AcDbLine
 62
7
  6
CONTINUOUS
 10
8.4127168476
 20
5.2902125942
 11
8.5702778893
 21
5.2930223682
  0
LINE
  5
770
100
AcDbEntity
  8
0
100
AcDbLine
 62
7
  6
CONTINUOUS
 10
8.5697482646
 20
5.2949812658
 11
8.4121775516
 21
5.2921713165
  0
LINE
  5
771
100
AcDbEntity
  8
0
100
AcDbLine
 62
7
  6
CONTINUOUS
 10
8.4121775516
 20
5.3295728913
 11
8.5697482646
 21
5.3323828406
  0
LINE
  5
772
100
AcDbEntity
  8
0
100
AcDbLine
 62
7
  6
CONTINUOUS
 10
8.5708388961
 20
5.3343711301
 11
8.4126502763
 21
5.3315499696
  0
LINE
  5
773
100
AcDbEntity
  8
0
100
AcDbLine
 62
7
  6
CONTINUOUS
 10
8.4126502763
 20
5.3689515444
 11
8.5708388961
 21
5.3717727049
  0
LINE
  5
774
100
AcDbEntity
  8
0
100
AcDbLine
 62
7
  6
CONTINUOUS
 10
8.5698053521
 20
5.3737224586
 11
8.4116379615
 21
5.3709016834
  0
LINE
  5
775
100
AcDbEntity
  8
0
100
AcDbLine
 62
7
  6
CONTINUOUS
 10
8.84539147
 20
5.1067650665
 11
8.8133495959
 21
5.1252739919
  0
LINE
  5
776
100
AcDbEntity
  8
0
100
AcDbLine
 62
7
  6
CONTINUOUS
 10
8.1370622373
 20
5.5177986655
 11
8.1691041115
 21
5.49928974
  0
LINE
  5
777
100
AcDbEntity
  8
0
100
AcDbLine
 62
7
  6
CONTINUOUS
 10
8.84539147
 20
5.1461351452
 11
8.8133495959
 21
5.1646440707
  0
LINE
  5
778
100
AcDbEntity
  8
0
100
AcDbLine
 62
7
  6
CONTINUOUS
 10
8.1370622373
 20
5.5571687442
 11
8.1691041115
 21
5.5386598187
  0
LINE
  5
779
100
AcDbEntity
  8
0
100
AcDbLine
 62
7
  6
CONTINUOUS
 10
8.1370622373
 20
5.7146490592
 11
8.136896145
 21
5.7148409211
  0
LINE
  5
77A
100
AcDbEntity
  8
0
100
AcDbLine
 62
7
  6
CONTINUOUS
 10
8.1370622373
 20
5.7540191379
 11
8.136896145
 21
5.7542109998
  0
LINE
  5
77B
100
AcDbEntity
  8
0
100
AcDbLine
 62
7
  6
CONTINUOUS
 10
8.1370622373
 20
5.7933892167
 11
8.136896145
 21
5.7935810786
  0
LINE
  5
77C
100
AcDbEntity
  8
0
100
AcDbLine
 62
7
  6
CONTINUOUS
 10
8.84539147
 20
5.5374837049
 11
8.8455575623
 21
5.5376755668
  0
LINE
  5
77D
100
AcDbEntity
  8
0
100
AcDbLine
 62
7
  6
CONTINUOUS
 10
8.84539147
 20
5.4981136261
 11
8.8455575623
 21
5.498305488
  0
LINE
  5
77E
100
AcDbEntity
  8
0
100
AcDbLine
 62
7
  6
CONTINUOUS
 10
8.84539147
 20
5.4587435474
 11
8.8455575623
 21
5.4589354093
  0
LINE
  5
77F
100
AcDbEntity
  8
0
100
AcDbLine
 62
7
  6
CONTINUOUS
 10
8.84539147
 20
5.4193734687
 11
8.8455575623
 21
5.4195653306
  0
LINE
  5
780
100
AcDbEntity
  8
0
100
AcDbLine
 62
7
  6
CONTINUOUS
 10
8.8129840725
 20
5.3219132343
 11
8.84539147
 21
5.3406333112
  0
LINE
  5
781
100
AcDbEntity
  8
0
100
AcDbLine
 62
7
  6
CONTINUOUS
 10
8.8129840725
 20
5.2825431555
 11
8.84539147
 21
5.3012632324
  0
LINE
  5
782
100
AcDbEntity
  8
0
100
AcDbLine
 62
7
  6
CONTINUOUS
 10
8.8455575623
 20
5.5396440707
 11
8.8416326012
 21
5.5387105662
  0
LINE
  5
783
100
AcDbEntity
  8
0
100
AcDbLine
 62
7
  6
CONTINUOUS
 10
8.136896145
 20
5.3605102124
 11
8.1408222538
 21
5.3614438537
  0
LINE
  5
784
100
AcDbEntity
  8
0
100
AcDbLine
 62
7
  6
CONTINUOUS
 10
8.8455575623
 20
5.4609039132
 11
8.8416108059
 21
5.4599678157
  0
LINE
  5
785
100
AcDbEntity
  8
0
100
AcDbLine
 62
7
  6
CONTINUOUS
 10
8.136896145
 20
5.3211401337
 11
8.1408429211
 21
5.3220762336
  0
LINE
  5
786
100
AcDbEntity
  8
0
100
AcDbLine
 62
7
  6
CONTINUOUS
 10
8.8455575623
 20
5.500273992
 11
8.8416018787
 21
5.4993368343
  0
LWPOLYLINE
  5
787
100
AcDbEntity
  8
0
100
AcDbPolyline
 62
7
  6
CONTINUOUS
 90
9
 70
0
 10
8.8129840725
 20
5.4793935492
 10
8.8092032328
 20
5.4786204487
 10
8.7974099835
 20
5.4776361967
 10
8.7780774894
 20
5.4766519447
 10
8.7516817806
 20
5.4756676928
 10
8.7188728071
 20
5.4746834408
 10
8.6804584347
 20
5.4736991888
 10
8.6373845528
 20
5.4727149369
 10
8.5907117832
 20
5.4717306849
  0
LWPOLYLINE
  5
788
100
AcDbEntity
  8
0
100
AcDbPolyline
 62
7
  6
CONTINUOUS
 90
9
 70
0
 10
8.8129840725
 20
5.518763628
 10
8.8092032328
 20
5.5179905274
 10
8.7974099835
 20
5.5170062754
 10
8.7780774894
 20
5.5160220235
 10
8.7516817806
 20
5.5150377715
 10
8.7188728071
 20
5.5140535195
 10
8.6804584347
 20
5.5130692676
 10
8.6373845528
 20
5.5120850156
 10
8.5907117832
 20
5.5111007636
  0
LWPOLYLINE
  5
789
100
AcDbEntity
  8
0
100
AcDbPolyline
 62
7
  6
CONTINUOUS
 90
9
 70
0
 10
8.1408222538
 20
5.3614438537
 10
8.1526960306
 20
5.3623884527
 10
8.1723384044
 20
5.3633366933
 10
8.1990490767
 20
5.3642780375
 10
8.2320683968
 20
5.3652122989
 10
8.2709281289
 20
5.366148585
 10
8.3145792806
 20
5.36708246
 10
8.3622863544
 20
5.3680189805
 10
8.4126502763
 20
5.3689515444
  0
LWPOLYLINE
  5
78A
100
AcDbEntity
  8
0
100
AcDbPolyline
 62
7
  6
CONTINUOUS
 90
9
 70
0
 10
8.8416112935
 20
5.4205977948
 10
8.8298519688
 20
5.4196612494
 10
8.8105676906
 20
5.4187257604
 10
8.7841305407
 20
5.4177887606
 10
8.7511707716
 20
5.4168521519
 10
8.7121182089
 20
5.4159088538
 10
8.6682384673
 20
5.4149690158
 10
8.6207097995
 20
5.4140353684
 10
8.5702778893
 20
5.4131011084
  0
LWPOLYLINE
  5
78B
100
AcDbEntity
  8
0
100
AcDbPolyline
 62
7
  6
CONTINUOUS
 90
9
 70
0
 10
8.8416108059
 20
5.4599678157
 10
8.8298500489
 20
5.4590312129
 10
8.8105633929
 20
5.4580956637
 10
8.7841247289
 20
5.4571586567
 10
8.7513000613
 20
5.456225596
 10
8.7124627346
 20
5.4552867284
 10
8.6682936719
 20
5.4543402216
 10
8.6202525138
 20
5.4533967621
 10
8.5697482646
 20
5.4524615808
  0
LWPOLYLINE
  5
78C
100
AcDbEntity
  8
0
100
AcDbPolyline
 62
7
  6
CONTINUOUS
 90
9
 70
0
 10
8.1408521318
 20
5.4008174848
 10
8.1526974357
 20
5.4017586156
 10
8.1720177788
 20
5.402693738
 10
8.1983838736
 20
5.4036272724
 10
8.231262803
 20
5.4045614499
 10
8.2700092567
 20
5.4054978899
 10
8.3135639042
 20
5.4064318055
 10
8.3612024083
 20
5.4073684666
 10
8.4116379615
 20
5.4083032583
  0
LWPOLYLINE
  5
78D
100
AcDbEntity
  8
0
100
AcDbPolyline
 62
7
  6
CONTINUOUS
 90
9
 70
0
 10
8.3917419241
 20
5.3890535195
 10
8.3450691546
 20
5.3880692676
 10
8.3019952726
 20
5.3870850156
 10
8.2635809002
 20
5.3861007636
 10
8.2307719267
 20
5.3851165117
 10
8.204376218
 20
5.3841322597
 10
8.1850437238
 20
5.3831480077
 10
8.1732504745
 20
5.3821637558
 10
8.1694696348
 20
5.3813906552
  0
LWPOLYLINE
  5
78E
100
AcDbEntity
  8
0
100
AcDbPolyline
 62
7
  6
CONTINUOUS
 90
9
 70
0
 10
8.3917419241
 20
5.4284235983
 10
8.3450691546
 20
5.4274393463
 10
8.3019952726
 20
5.4264550943
 10
8.2635809002
 20
5.4254708424
 10
8.2307719268
 20
5.4244865904
 10
8.204376218
 20
5.4235023384
 10
8.1850437238
 20
5.4225180865
 10
8.1732504745
 20
5.4215338345
 10
8.1694696348
 20
5.4207607339
  0
LINE
  5
78F
100
AcDbEntity
  8
0
100
AcDbLine
 62
7
  6
CONTINUOUS
 10
8.5907117832
 20
5.3929905274
 11
8.3917419241
 21
5.3890535195
  0
LINE
  5
790
100
AcDbEntity
  8
0
100
AcDbLine
 62
7
  6
CONTINUOUS
 10
8.5907117832
 20
5.4323606061
 11
8.3917419241
 21
5.4284235983
  0
LWPOLYLINE
  5
791
100
AcDbEntity
  8
0
100
AcDbPolyline
 62
7
  6
CONTINUOUS
 90
10
 70
0
 10
8.5698053521
 20
5.4111240334
 10
8.6201755403
 20
5.412056718
 10
8.6678867725
 20
5.4129933349
 10
8.7115407228
 20
5.4139273
 10
8.7504021825
 20
5.4148636816
 10
8.7834217667
 20
5.4157980412
 10
8.8101293849
 20
5.416739421
 10
8.8297651163
 20
5.4176875359
 10
8.8416326012
 20
5.4186318261
 10
8.84539147
 20
5.4193734687
  0
LWPOLYLINE
  5
792
100
AcDbEntity
  8
0
100
AcDbPolyline
 62
7
  6
CONTINUOUS
 90
10
 70
0
 10
8.4127168476
 20
5.4102913344
 10
8.3622151726
 20
5.4093562117
 10
8.3141711259
 20
5.4084127132
 10
8.2699917782
 20
5.4074659982
 10
8.2311411415
 20
5.4065267867
 10
8.1983214619
 20
5.4055938155
 10
8.1718861211
 20
5.4046568735
 10
8.1526017464
 20
5.4037213807
 10
8.1408424336
 20
5.4027848371
 10
8.1370622373
 20
5.402040657
  0
LWPOLYLINE
  5
793
100
AcDbEntity
  8
0
100
AcDbPolyline
 62
7
  6
CONTINUOUS
 90
10
 70
0
 10
8.5702778893
 20
5.4505026832
 10
8.6207097995
 20
5.4514369432
 10
8.6682384673
 20
5.4523705906
 10
8.7121182089
 20
5.4533104286
 10
8.7511707716
 20
5.4542537267
 10
8.7841305407
 20
5.4551903354
 10
8.8105676906
 20
5.4561273352
 10
8.8298519688
 20
5.4570628242
 10
8.8416112935
 20
5.4579993696
 10
8.84539147
 20
5.4587435474
  0
LWPOLYLINE
  5
794
100
AcDbEntity
  8
0
100
AcDbPolyline
 62
7
  6
CONTINUOUS
 90
10
 70
0
 10
8.4121775516
 20
5.4496516314
 10
8.3617415341
 20
5.4487172948
 10
8.314208878
 20
5.4477835626
 10
8.2703418684
 20
5.4468439986
 10
8.2312929816
 20
5.4459008179
 10
8.1983305914
 20
5.4449641811
 10
8.171890331
 20
5.444027124
 10
8.1526036663
 20
5.4430915747
 10
8.1408429211
 20
5.4421549738
 10
8.1370622373
 20
5.4414107358
  0
LINE
  5
795
100
AcDbEntity
  8
0
100
AcDbLine
 62
7
  6
CONTINUOUS
 10
8.4116379615
 20
5.4083032583
 11
8.5698053521
 21
5.4111240334
  0
LINE
  5
796
100
AcDbEntity
  8
0
100
AcDbLine
 62
7
  6
CONTINUOUS
 10
8.5702778893
 20
5.4131011084
 11
8.4127168476
 21
5.4102913344
  0
LINE
  5
797
100
AcDbEntity
  8
0
100
AcDbLine
 62
7
  6
CONTINUOUS
 10
8.4127168476
 20
5.4476929092
 11
8.5702778893
 21
5.4505026832
  0
LINE
  5
798
100
AcDbEntity
  8
0
100
AcDbLine
 62
7
  6
CONTINUOUS
 10
8.5697482646
 20
5.4524615808
 11
8.4121775516
 21
5.4496516314
  0
LINE
  5
799
100
AcDbEntity
  8
0
100
AcDbLine
 62
7
  6
CONTINUOUS
 10
8.84539147
 20
5.185505224
 11
8.8133495959
 21
5.2040141494
  0
LINE
  5
79A
100
AcDbEntity
  8
0
100
AcDbLine
 62
7
  6
CONTINUOUS
 10
8.1370622373
 20
5.596538823
 11
8.1691041115
 21
5.5780298975
  0
LINE
  5
79B
100
AcDbEntity
  8
0
100
AcDbLine
 62
7
  6
CONTINUOUS
 10
8.84539147
 20
5.2248753027
 11
8.8133495959
 21
5.2433842282
  0
LINE
  5
79C
100
AcDbEntity
  8
0
100
AcDbLine
 62
7
  6
CONTINUOUS
 10
8.1370622373
 20
5.6359089017
 11
8.1691041115
 21
5.6173999762
  0
LINE
  5
79D
100
AcDbEntity
  8
0
100
AcDbLine
 62
7
  6
CONTINUOUS
 10
8.84539147
 20
5.2642453814
 11
8.8133495959
 21
5.2827543069
  0
LINE
  5
79E
100
AcDbEntity
  8
0
100
AcDbLine
 62
7
  6
CONTINUOUS
 10
8.1370622373
 20
5.6752789805
 11
8.1691041115
 21
5.6567700549
  0
LINE
  5
79F
100
AcDbEntity
  8
0
100
AcDbLine
 62
7
  6
CONTINUOUS
 10
8.1370622373
 20
5.8327592954
 11
8.136896145
 21
5.8329511573
  0
LINE
  5
7A0
100
AcDbEntity
  8
0
100
AcDbLine
 62
7
  6
CONTINUOUS
 10
8.84539147
 20
5.028024909
 11
8.8455575623
 21
5.0278330471
  0
LINE
  5
7A1
100
AcDbEntity
  8
0
100
AcDbLine
 62
7
  6
CONTINUOUS
 10
8.1370622373
 20
5.8721293742
 11
8.136896145
 21
5.8723212361
  0
LINE
  5
7A2
100
AcDbEntity
  8
0
100
AcDbLine
 62
7
  6
CONTINUOUS
 10
8.84539147
 20
5.0673949877
 11
8.8455575623
 21
5.0672031258
  0
LINE
  5
7A3
100
AcDbEntity
  8
0
100
AcDbLine
 62
7
  6
CONTINUOUS
 10
8.1370622373
 20
5.9114994529
 11
8.136896145
 21
5.9116913148
  0
LINE
  5
7A4
100
AcDbEntity
  8
0
100
AcDbLine
 62
7
  6
CONTINUOUS
 10
8.84539147
 20
5.1067650665
 11
8.8455575623
 21
5.1065732046
  0
LINE
  5
7A5
100
AcDbEntity
  8
0
100
AcDbLine
 62
7
  6
CONTINUOUS
 10
8.1370622373
 20
5.9508695316
 11
8.136896145
 21
5.9510613935
  0
LINE
  5
7A6
100
AcDbEntity
  8
0
100
AcDbLine
 62
7
  6
CONTINUOUS
 10
8.6949670111
 20
4.1301952518
 11
8.6949670111
 21
4.0908251731
  0
LINE
  5
7A7
100
AcDbEntity
  8
0
100
AcDbLine
 62
7
  6
CONTINUOUS
 10
8.7372898458
 20
4.4845259605
 11
8.7372898458
 21
4.4254708424
  0
LINE
  5
7A8
100
AcDbEntity
  8
02___PRT_ALL_AXES
100
AcDbLine
 62
7
  6
CONTINUOUS
 10
8.7372898458
 20
4.4845259605
 11
8.7372898458
 21
4.4254708424
  0
LINE
  5
7A9
100
AcDbEntity
  8
0
100
AcDbLine
 62
7
  6
CONTINUOUS
 10
8.7372898458
 20
4.3880692676
 11
8.7372898458
 21
4.3861007636
  0
LINE
  5
7AA
100
AcDbEntity
  8
02___PRT_ALL_AXES
100
AcDbLine
 62
7
  6
CONTINUOUS
 10
8.7372898458
 20
4.3880692676
 11
8.7372898458
 21
4.3861007636
  0
LINE
  5
7AB
100
AcDbEntity
  8
0
100
AcDbLine
 62
7
  6
CONTINUOUS
 10
8.7372898458
 20
4.3486991888
 11
8.7372898458
 21
4.3467306849
  0
LINE
  5
7AC
100
AcDbEntity
  8
02___PRT_ALL_AXES
100
AcDbLine
 62
7
  6
CONTINUOUS
 10
8.7372898458
 20
4.3486991888
 11
8.7372898458
 21
4.3467306849
  0
LINE
  5
7AD
100
AcDbEntity
  8
0
100
AcDbLine
 62
7
  6
CONTINUOUS
 10
8.7372898458
 20
4.3093291101
 11
8.7372898458
 21
4.3073606061
  0
LINE
  5
7AE
100
AcDbEntity
  8
02___PRT_ALL_AXES
100
AcDbLine
 62
7
  6
CONTINUOUS
 10
8.7372898458
 20
4.3093291101
 11
8.7372898458
 21
4.3073606061
  0
LINE
  5
7AF
100
AcDbEntity
  8
0
100
AcDbLine
 62
7
  6
CONTINUOUS
 10
8.7372898458
 20
4.2699590313
 11
8.7372898458
 21
4.2679905274
  0
LINE
  5
7B0
100
AcDbEntity
  8
02___PRT_ALL_AXES
100
AcDbLine
 62
7
  6
CONTINUOUS
 10
8.7372898458
 20
4.2699590313
 11
8.7372898458
 21
4.2679905274
  0
LINE
  5
7B1
100
AcDbEntity
  8
0
100
AcDbLine
 62
7
  6
CONTINUOUS
 10
8.7372898458
 20
4.2305889526
 11
8.7372898458
 21
4.2286204487
  0
LINE
  5
7B2
100
AcDbEntity
  8
02___PRT_ALL_AXES
100
AcDbLine
 62
7
  6
CONTINUOUS
 10
8.7372898458
 20
4.2305889526
 11
8.7372898458
 21
4.2286204487
  0
LINE
  5
7B3
100
AcDbEntity
  8
0
100
AcDbLine
 62
7
  6
CONTINUOUS
 10
8.7372898458
 20
4.1912188739
 11
8.7372898458
 21
4.1892503699
  0
LINE
  5
7B4
100
AcDbEntity
  8
02___PRT_ALL_AXES
100
AcDbLine
 62
7
  6
CONTINUOUS
 10
8.7372898458
 20
4.1912188739
 11
8.7372898458
 21
4.1892503699
  0
LINE
  5
7B5
100
AcDbEntity
  8
0
100
AcDbLine
 62
7
  6
CONTINUOUS
 10
8.7372898458
 20
4.1518487951
 11
8.7372898458
 21
4.1498802912
  0
LINE
  5
7B6
100
AcDbEntity
  8
02___PRT_ALL_AXES
100
AcDbLine
 62
7
  6
CONTINUOUS
 10
8.7372898458
 20
4.1518487951
 11
8.7372898458
 21
4.1498802912
  0
LINE
  5
7B7
100
AcDbEntity
  8
0
100
AcDbLine
 62
7
  6
CONTINUOUS
 10
8.84539147
 20
5.3800033899
 11
8.8455575623
 21
5.3801952518
  0
LINE
  5
7B8
100
AcDbEntity
  8
0
100
AcDbLine
 62
7
  6
CONTINUOUS
 10
8.84539147
 20
5.3406333112
 11
8.8455575623
 21
5.3408251731
  0
LINE
  5
7B9
100
AcDbEntity
  8
0
100
AcDbLine
 62
7
  6
CONTINUOUS
 10
8.84539147
 20
5.3012632324
 11
8.8455575623
 21
5.3014550943
  0
LINE
  5
7BA
100
AcDbEntity
  8
0
100
AcDbLine
 62
7
  6
CONTINUOUS
 10
8.8129840725
 20
5.2431730768
 11
8.84539147
 21
5.2618931537
  0
LINE
  5
7BB
100
AcDbEntity
  8
0
100
AcDbLine
 62
7
  6
CONTINUOUS
 10
8.8129840725
 20
5.2038029981
 11
8.84539147
 21
5.2225230749
  0
LINE
  5
7BC
100
AcDbEntity
  8
0
100
AcDbLine
 62
7
  6
CONTINUOUS
 10
8.8455575623
 20
5.5790141495
 11
8.8416112935
 21
5.5780781098
  0
LINE
  5
7BD
100
AcDbEntity
  8
0
100
AcDbLine
 62
7
  6
CONTINUOUS
 10
8.136896145
 20
5.4392503699
 11
8.1408424336
 21
5.4401864119
  0
LINE
  5
7BE
100
AcDbEntity
  8
0
100
AcDbLine
 62
7
  6
CONTINUOUS
 10
8.8455575623
 20
5.6183842282
 11
8.8416108059
 21
5.6174481306
  0
LINE
  5
7BF
100
AcDbEntity
  8
0
100
AcDbLine
 62
7
  6
CONTINUOUS
 10
8.136896145
 20
5.3998802912
 11
8.1408521318
 21
5.4008174848
  0
LWPOLYLINE
  5
7C0
100
AcDbEntity
  8
0
100
AcDbPolyline
 62
7
  6
CONTINUOUS
 90
9
 70
0
 10
8.8129840725
 20
5.5581337067
 10
8.8092032328
 20
5.5573606061
 10
8.7974099835
 20
5.5563763542
 10
8.7780774894
 20
5.5553921022
 10
8.7516817806
 20
5.5544078502
 10
8.7188728071
 20
5.5534235983
 10
8.6804584347
 20
5.5524393463
 10
8.6373845528
 20
5.5514550943
 10
8.5907117832
 20
5.5504708424
  0
LWPOLYLINE
  5
7C1
100
AcDbEntity
  8
0
100
AcDbPolyline
 62
7
  6
CONTINUOUS
 90
9
 70
0
 10
8.8129840725
 20
5.5975037855
 10
8.8092032328
 20
5.5967306849
 10
8.7974099835
 20
5.5957464329
 10
8.7780774894
 20
5.594762181
 10
8.7516817806
 20
5.593777929
 10
8.7188728071
 20
5.592793677
 10
8.6804584347
 20
5.591809425
 10
8.6373845528
 20
5.5908251731
 10
8.5907117832
 20
5.5898409211
  0
LWPOLYLINE
  5
7C2
100
AcDbEntity
  8
0
100
AcDbPolyline
 62
7
  6
CONTINUOUS
 90
9
 70
0
 10
8.1408424336
 20
5.4401864119
 10
8.1526017464
 20
5.4411229555
 10
8.1718861211
 20
5.4420584483
 10
8.1983214619
 20
5.4429953903
 10
8.2311411415
 20
5.4439283615
 10
8.2699917782
 20
5.444867573
 10
8.3141711259
 20
5.445814288
 10
8.3622151726
 20
5.4467577865
 10
8.4127168476
 20
5.4476929092
  0
LWPOLYLINE
  5
7C3
100
AcDbEntity
  8
0
100
AcDbPolyline
 62
7
  6
CONTINUOUS
 90
9
 70
0
 10
8.1408429211
 20
5.4795565486
 10
8.1526036663
 20
5.4804931495
 10
8.171890331
 20
5.4814286988
 10
8.1983305914
 20
5.4823657559
 10
8.2312929816
 20
5.4833023927
 10
8.2703418684
 20
5.4842455734
 10
8.314208878
 20
5.4851851375
 10
8.3617415341
 20
5.4861188696
 10
8.4121775516
 20
5.4870532062
  0
LWPOLYLINE
  5
7C4
100
AcDbEntity
  8
0
100
AcDbPolyline
 62
7
  6
CONTINUOUS
 90
9
 70
0
 10
8.8416326012
 20
5.5387105662
 10
8.8297651163
 20
5.5377662761
 10
8.8101293849
 20
5.5368181611
 10
8.7834217667
 20
5.5358767814
 10
8.7504021825
 20
5.5349424218
 10
8.7115407228
 20
5.5340060401
 10
8.6678867725
 20
5.533072075
 10
8.6201755403
 20
5.5321354581
 10
8.5698053521
 20
5.5312027736
  0
LWPOLYLINE
  5
7C5
100
AcDbEntity
  8
0
100
AcDbPolyline
 62
7
  6
CONTINUOUS
 90
9
 70
0
 10
8.8416018787
 20
5.4993368343
 10
8.8297548372
 20
5.4983955817
 10
8.8104302931
 20
5.4974603156
 10
8.7840685239
 20
5.4965269696
 10
8.7511931818
 20
5.4955928926
 10
8.712451066
 20
5.494656543
 10
8.668901742
 20
5.4937227217
 10
8.6212690092
 20
5.4927861532
 10
8.5708388961
 20
5.491851445
  0
LWPOLYLINE
  5
7C6
100
AcDbEntity
  8
0
100
AcDbPolyline
 62
7
  6
CONTINUOUS
 90
9
 70
0
 10
8.3917419241
 20
5.467793677
 10
8.3450691546
 20
5.466809425
 10
8.3019952726
 20
5.4658251731
 10
8.2635809003
 20
5.4648409211
 10
8.2307719268
 20
5.4638566691
 10
8.204376218
 20
5.4628724172
 10
8.1850437238
 20
5.4618881652
 10
8.1732504745
 20
5.4609039132
 10
8.1694696348
 20
5.4601308127
  0
LWPOLYLINE
  5
7C7
100
AcDbEntity
  8
0
100
AcDbPolyline
 62
7
  6
CONTINUOUS
 90
9
 70
0
 10
8.3917419241
 20
5.5071637558
 10
8.3450691546
 20
5.5061795038
 10
8.3019952726
 20
5.5051952518
 10
8.2635809003
 20
5.5042109998
 10
8.2307719268
 20
5.5032267479
 10
8.204376218
 20
5.5022424959
 10
8.1850437238
 20
5.5012582439
 10
8.1732504745
 20
5.500273992
 10
8.1694696348
 20
5.4995008914
  0
LINE
  5
7C8
100
AcDbEntity
  8
0
100
AcDbLine
 62
7
  6
CONTINUOUS
 10
8.5907117832
 20
5.4717306849
 11
8.3917419241
 21
5.467793677
  0
LINE
  5
7C9
100
AcDbEntity
  8
0
100
AcDbLine
 62
7
  6
CONTINUOUS
 10
8.5907117832
 20
5.5111007636
 11
8.3917419241
 21
5.5071637558
  0
LWPOLYLINE
  5
7CA
100
AcDbEntity
  8
0
100
AcDbPolyline
 62
7
  6
CONTINUOUS
 90
10
 70
0
 10
8.5697482646
 20
5.4898631556
 10
8.6202525138
 20
5.4907983369
 10
8.6682936719
 20
5.4917417964
 10
8.7124627346
 20
5.4926883032
 10
8.7513000613
 20
5.4936271708
 10
8.7841247289
 20
5.4945602315
 10
8.8105633929
 20
5.4954972385
 10
8.8298500489
 20
5.4964327877
 10
8.8416108059
 20
5.4973693905
 10
8.84539147
 20
5.4981136261
  0
LWPOLYLINE
  5
7CB
100
AcDbEntity
  8
0
100
AcDbPolyline
 62
7
  6
CONTINUOUS
 90
10
 70
0
 10
8.4126502763
 20
5.4890302846
 10
8.3622863544
 20
5.4880977206
 10
8.3145792806
 20
5.4871612001
 10
8.2709281289
 20
5.4862273251
 10
8.2320683968
 20
5.4852910391
 10
8.1990490767
 20
5.4843567776
 10
8.1723384044
 20
5.4834154335
 10
8.1526960306
 20
5.4824671928
 10
8.1408222538
 20
5.4815225938
 10
8.1370622373
 20
5.4807808145
  0
LWPOLYLINE
  5
7CC
100
AcDbEntity
  8
0
100
AcDbPolyline
 62
7
  6
CONTINUOUS
 90
10
 70
0
 10
8.5708388961
 20
5.5292530198
 10
8.6212690092
 20
5.530187728
 10
8.668901742
 20
5.5311242965
 10
8.712451066
 20
5.5320581178
 10
8.7511931818
 20
5.5329944674
 10
8.7840685239
 20
5.5339285444
 10
8.8104302931
 20
5.5348618904
 10
8.8297548372
 20
5.5357971565
 10
8.8416018787
 20
5.5367384091
 10
8.84539147
 20
5.5374837049
  0
LWPOLYLINE
  5
7CD
100
AcDbEntity
  8
0
100
AcDbPolyline
 62
7
  6
CONTINUOUS
 90
10
 70
0
 10
8.4116379615
 20
5.5283819984
 10
8.3612024083
 20
5.5274472068
 10
8.3135639042
 20
5.5265105457
 10
8.2700092567
 20
5.5255766301
 10
8.231262803
 20
5.52464019
 10
8.1983838736
 20
5.5237060125
 10
8.1720177788
 20
5.5227724782
 10
8.1526974357
 20
5.5218373557
 10
8.1408521318
 20
5.520896225
 10
8.1370622373
 20
5.5201508933
  0
LINE
  5
7CE
100
AcDbEntity
  8
0
100
AcDbLine
 62
7
  6
CONTINUOUS
 10
8.4121775516
 20
5.4870532062
 11
8.5697482646
 21
5.4898631556
  0
LINE
  5
7CF
100
AcDbEntity
  8
0
100
AcDbLine
 62
7
  6
CONTINUOUS
 10
8.5708388961
 20
5.491851445
 11
8.4126502763
 21
5.4890302846
  0
LINE
  5
7D0
100
AcDbEntity
  8
0
100
AcDbLine
 62
7
  6
CONTINUOUS
 10
8.4126502763
 20
5.5264318594
 11
8.5708388961
 21
5.5292530198
  0
LINE
  5
7D1
100
AcDbEntity
  8
0
100
AcDbLine
 62
7
  6
CONTINUOUS
 10
8.5698053521
 20
5.5312027736
 11
8.4116379615
 21
5.5283819984
  0
LINE
  5
7D2
100
AcDbEntity
  8
0
100
AcDbLine
 62
7
  6
CONTINUOUS
 10
8.84539147
 20
5.3036154602
 11
8.8133495959
 21
5.3221243856
  0
LINE
  5
7D3
100
AcDbEntity
  8
0
100
AcDbLine
 62
7
  6
CONTINUOUS
 10
8.1370622373
 20
5.7146490592
 11
8.1691041115
 21
5.6961401337
  0
LINE
  5
7D4
100
AcDbEntity
  8
0
100
AcDbLine
 62
7
  6
CONTINUOUS
 10
8.84539147
 20
5.3429855389
 11
8.8133495959
 21
5.3614944644
  0
LINE
  5
7D5
100
AcDbEntity
  8
0
100
AcDbLine
 62
7
  6
CONTINUOUS
 10
8.1370622373
 20
5.7540191379
 11
8.1691041115
 21
5.7355102124
  0
LINE
  5
7D6
100
AcDbEntity
  8
0
100
AcDbLine
 62
7
  6
CONTINUOUS
 10
8.84539147
 20
5.1461351452
 11
8.8455575623
 21
5.1459432833
  0
LINE
  5
7D7
100
AcDbEntity
  8
0
100
AcDbLine
 62
7
  6
CONTINUOUS
 10
8.1370622373
 20
5.9902396104
 11
8.136896145
 21
5.9904314723
  0
LINE
  5
7D8
100
AcDbEntity
  8
0
100
AcDbLine
 62
7
  6
CONTINUOUS
 10
8.84539147
 20
5.185505224
 11
8.8455575623
 21
5.1853133621
  0
LINE
  5
7D9
100
AcDbEntity
  8
0
100
AcDbLine
 62
7
  6
CONTINUOUS
 10
8.1370622373
 20
6.0296096891
 11
8.136896145
 21
6.029801551
  0
LINE
  5
7DA
100
AcDbEntity
  8
0
100
AcDbLine
 62
7
  6
CONTINUOUS
 10
8.84539147
 20
5.2248753027
 11
8.8455575623
 21
5.2246834408
  0
LINE
  5
7DB
100
AcDbEntity
  8
0
100
AcDbLine
 62
7
  6
CONTINUOUS
 10
8.1370622373
 20
6.0689797679
 11
8.136896145
 21
6.0691716298
  0
LINE
  5
7DC
100
AcDbEntity
  8
0
100
AcDbLine
 62
7
  6
CONTINUOUS
 10
8.84539147
 20
5.2642453814
 11
8.8455575623
 21
5.2640535195
  0
LINE
  5
7DD
100
AcDbEntity
  8
02___PRT_ALL_AXES
100
AcDbLine
 62
7
  6
CONTINUOUS
 10
8.8101244915
 20
6.1774393463
 11
8.8101244915
 21
6.3979117872
  0
LINE
  5
7DE
100
AcDbEntity
  8
0
100
AcDbLine
 62
7
  6
CONTINUOUS
 10
8.8101244915
 20
6.1774393463
 11
8.8101244915
 21
6.3979117872
  0
LINE
  5
7DF
100
AcDbEntity
  8
02___PRT_ALL_AXES
100
AcDbLine
 62
7
  6
CONTINUOUS
 10
8.8160300033
 20
4.9963369841
 11
8.8160300033
 21
4.5986991888
  0
LINE
  5
7E0
100
AcDbEntity
  8
0
100
AcDbLine
 62
7
  6
CONTINUOUS
 10
8.84539147
 20
5.2618931537
 11
8.8455575623
 21
5.2620850156
  0
LINE
  5
7E1
100
AcDbEntity
  8
0
100
AcDbLine
 62
7
  6
CONTINUOUS
 10
8.84539147
 20
5.2225230749
 11
8.8455575623
 21
5.2227149369
  0
LINE
  5
7E2
100
AcDbEntity
  8
0
100
AcDbLine
 62
7
  6
CONTINUOUS
 10
8.84539147
 20
5.1831529962
 11
8.8455575623
 21
5.1833448581
  0
LINE
  5
7E3
100
AcDbEntity
  8
0
100
AcDbLine
 62
7
  6
CONTINUOUS
 10
8.8129840725
 20
5.1644329193
 11
8.84539147
 21
5.1831529962
  0
LINE
  5
7E4
100
AcDbEntity
  8
0
100
AcDbLine
 62
7
  6
CONTINUOUS
 10
8.8129840725
 20
5.1250628406
 11
8.84539147
 21
5.1437829175
  0
LINE
  5
7E5
100
AcDbEntity
  8
0
100
AcDbLine
 62
7
  6
CONTINUOUS
 10
8.8129840725
 20
5.0856927618
 11
8.84539147
 21
5.1044128387
  0
LINE
  5
7E6
100
AcDbEntity
  8
0
100
AcDbLine
 62
7
  6
CONTINUOUS
 10
8.8455575623
 20
5.6971243857
 11
8.8416326012
 21
5.6961908812
  0
LINE
  5
7E7
100
AcDbEntity
  8
0
100
AcDbLine
 62
7
  6
CONTINUOUS
 10
8.136896145
 20
5.5179905274
 11
8.1408222538
 21
5.5189241686
  0
LINE
  5
7E8
100
AcDbEntity
  8
0
100
AcDbLine
 62
7
  6
CONTINUOUS
 10
8.136896145
 20
5.4786204487
 11
8.1408429211
 21
5.4795565486
  0
LINE
  5
7E9
100
AcDbEntity
  8
0
100
AcDbLine
 62
7
  6
CONTINUOUS
 10
8.8455575623
 20
5.6577543069
 11
8.8416018787
 21
5.6568171493
  0
LWPOLYLINE
  5
7EA
100
AcDbEntity
  8
0
100
AcDbPolyline
 62
7
  6
CONTINUOUS
 90
9
 70
0
 10
8.8129840725
 20
5.6368738642
 10
8.8092032328
 20
5.6361007636
 10
8.7974099835
 20
5.6351165117
 10
8.7780774894
 20
5.6341322597
 10
8.7516817806
 20
5.6331480077
 10
8.7188728071
 20
5.6321637558
 10
8.6804584347
 20
5.6311795038
 10
8.6373845528
 20
5.6301952518
 10
8.5907117832
 20
5.6292109998
  0
LWPOLYLINE
  5
7EB
100
AcDbEntity
  8
0
100
AcDbPolyline
 62
7
  6
CONTINUOUS
 90
9
 70
0
 10
8.8129840725
 20
5.6762439429
 10
8.8092032328
 20
5.6754708424
 10
8.7974099835
 20
5.6744865904
 10
8.7780774894
 20
5.6735023384
 10
8.7516817806
 20
5.6725180865
 10
8.7188728071
 20
5.6715338345
 10
8.6804584347
 20
5.6705495825
 10
8.6373845528
 20
5.6695653306
 10
8.5907117832
 20
5.6685810786
  0
LWPOLYLINE
  5
7EC
100
AcDbEntity
  8
0
100
AcDbPolyline
 62
7
  6
CONTINUOUS
 90
9
 70
0
 10
8.1408222538
 20
5.5189241686
 10
8.1526960306
 20
5.5198687676
 10
8.1723384044
 20
5.5208170083
 10
8.1990490767
 20
5.5217583524
 10
8.2320683968
 20
5.5226926139
 10
8.2709281289
 20
5.5236288999
 10
8.3145792806
 20
5.5245627749
 10
8.3622863544
 20
5.5254992954
 10
8.4126502763
 20
5.5264318594
  0
LWPOLYLINE
  5
7ED
100
AcDbEntity
  8
0
100
AcDbPolyline
 62
7
  6
CONTINUOUS
 90
9
 70
0
 10
8.8416112935
 20
5.5780781098
 10
8.8298519688
 20
5.5771415644
 10
8.8105676906
 20
5.5762060753
 10
8.7841305407
 20
5.5752690756
 10
8.7511707716
 20
5.5743324668
 10
8.7121182089
 20
5.5733891688
 10
8.6682384673
 20
5.5724493308
 10
8.6207097995
 20
5.5715156834
 10
8.5702778893
 20
5.5705814233
  0
LWPOLYLINE
  5
7EE
100
AcDbEntity
  8
0
100
AcDbPolyline
 62
7
  6
CONTINUOUS
 90
9
 70
0
 10
8.8416108059
 20
5.6174481306
 10
8.8298500489
 20
5.6165115278
 10
8.8105633929
 20
5.6155759787
 10
8.7841247289
 20
5.6146389717
 10
8.7513000613
 20
5.613705911
 10
8.7124627346
 20
5.6127670434
 10
8.6682936719
 20
5.6118205365
 10
8.6202525138
 20
5.6108770771
 10
8.5697482646
 20
5.6099418958
  0
LWPOLYLINE
  5
7EF
100
AcDbEntity
  8
0
100
AcDbPolyline
 62
7
  6
CONTINUOUS
 90
9
 70
0
 10
8.1408521318
 20
5.5582977998
 10
8.1526974357
 20
5.5592389305
 10
8.1720177788
 20
5.560174053
 10
8.1983838736
 20
5.5611075873
 10
8.231262803
 20
5.5620417648
 10
8.2700092567
 20
5.5629782049
 10
8.3135639042
 20
5.5639121205
 10
8.3612024083
 20
5.5648487816
 10
8.4116379615
 20
5.5657835732
  0
LWPOLYLINE
  5
7F0
100
AcDbEntity
  8
0
100
AcDbPolyline
 62
7
  6
CONTINUOUS
 90
9
 70
0
 10
8.3917419241
 20
5.5465338345
 10
8.3450691546
 20
5.5455495825
 10
8.3019952726
 20
5.5445653306
 10
8.2635809002
 20
5.5435810786
 10
8.2307719268
 20
5.5425968266
 10
8.204376218
 20
5.5416125747
 10
8.1850437238
 20
5.5406283227
 10
8.1732504745
 20
5.5396440707
 10
8.1694696348
 20
5.5388709701
  0
LWPOLYLINE
  5
7F1
100
AcDbEntity
  8
0
100
AcDbPolyline
 62
7
  6
CONTINUOUS
 90
9
 70
0
 10
8.3917419241
 20
5.5859039132
 10
8.3450691546
 20
5.5849196613
 10
8.3019952726
 20
5.5839354093
 10
8.2635809002
 20
5.5829511573
 10
8.2307719268
 20
5.5819669054
 10
8.204376218
 20
5.5809826534
 10
8.1850437238
 20
5.5799984014
 10
8.1732504745
 20
5.5790141495
 10
8.1694696348
 20
5.5782410489
  0
LINE
  5
7F2
100
AcDbEntity
  8
0
100
AcDbLine
 62
7
  6
CONTINUOUS
 10
8.5907117832
 20
5.5504708424
 11
8.3917419241
 21
5.5465338345
  0
LINE
  5
7F3
100
AcDbEntity
  8
0
100
AcDbLine
 62
7
  6
CONTINUOUS
 10
8.5907117832
 20
5.5898409211
 11
8.3917419241
 21
5.5859039132
  0
LWPOLYLINE
  5
7F4
100
AcDbEntity
  8
0
100
AcDbPolyline
 62
7
  6
CONTINUOUS
 90
10
 70
0
 10
8.5698053521
 20
5.5686043484
 10
8.6201755403
 20
5.5695370329
 10
8.6678867725
 20
5.5704736498
 10
8.7115407228
 20
5.5714076149
 10
8.7504021825
 20
5.5723439966
 10
8.7834217667
 20
5.5732783562
 10
8.8101293849
 20
5.5742197359
 10
8.8297651163
 20
5.5751678509
 10
8.8416326012
 20
5.576112141
 10
8.84539147
 20
5.5768537836
  0
LWPOLYLINE
  5
7F5
100
AcDbEntity
  8
0
100
AcDbPolyline
 62
7
  6
CONTINUOUS
 90
10
 70
0
 10
8.4127168476
 20
5.5677716493
 10
8.3622151726
 20
5.5668365266
 10
8.3141711259
 20
5.5658930282
 10
8.2699917782
 20
5.5649463131
 10
8.2311411415
 20
5.5640071017
 10
8.1983214619
 20
5.5630741304
 10
8.1718861211
 20
5.5621371885
 10
8.1526017464
 20
5.5612016956
 10
8.1408424336
 20
5.5602651521
 10
8.1370622373
 20
5.559520972
  0
LWPOLYLINE
  5
7F6
100
AcDbEntity
  8
0
100
AcDbPolyline
 62
7
  6
CONTINUOUS
 90
10
 70
0
 10
8.5702778893
 20
5.6079829981
 10
8.6207097995
 20
5.6089172582
 10
8.6682384673
 20
5.6098509056
 10
8.7121182089
 20
5.6107907436
 10
8.7511707716
 20
5.6117340416
 10
8.7841305407
 20
5.6126706504
 10
8.8105676906
 20
5.6136076501
 10
8.8298519688
 20
5.6145431392
 10
8.8416112935
 20
5.6154796846
 10
8.84539147
 20
5.6162238624
  0
LWPOLYLINE
  5
7F7
100
AcDbEntity
  8
0
100
AcDbPolyline
 62
7
  6
CONTINUOUS
 90
10
 70
0
 10
8.4121775516
 20
5.6071319464
 10
8.3617415341
 20
5.6061976098
 10
8.314208878
 20
5.6052638776
 10
8.2703418684
 20
5.6043243135
 10
8.2312929816
 20
5.6033811329
 10
8.1983305914
 20
5.602444496
 10
8.171890331
 20
5.601507439
 10
8.1526036663
 20
5.6005718897
 10
8.1408429211
 20
5.5996352887
 10
8.1370622373
 20
5.5988910507
  0
LINE
  5
7F8
100
AcDbEntity
  8
0
100
AcDbLine
 62
7
  6
CONTINUOUS
 10
8.4116379615
 20
5.5657835732
 11
8.5698053521
 21
5.5686043484
  0
LINE
  5
7F9
100
AcDbEntity
  8
0
100
AcDbLine
 62
7
  6
CONTINUOUS
 10
8.5702778893
 20
5.5705814233
 11
8.4127168476
 21
5.5677716493
  0
LINE
  5
7FA
100
AcDbEntity
  8
0
100
AcDbLine
 62
7
  6
CONTINUOUS
 10
8.4127168476
 20
5.6051732241
 11
8.5702778893
 21
5.6079829981
  0
LINE
  5
7FB
100
AcDbEntity
  8
0
100
AcDbLine
 62
7
  6
CONTINUOUS
 10
8.5697482646
 20
5.6099418958
 11
8.4121775516
 21
5.6071319464
  0
LINE
  5
7FC
100
AcDbEntity
  8
0
100
AcDbLine
 62
7
  6
CONTINUOUS
 10
8.84539147
 20
5.3823556177
 11
8.8133495959
 21
5.4008645431
  0
LINE
  5
7FD
100
AcDbEntity
  8
0
100
AcDbLine
 62
7
  6
CONTINUOUS
 10
8.1370622373
 20
5.7933892167
 11
8.1691041115
 21
5.7748802912
  0
LINE
  5
7FE
100
AcDbEntity
  8
0
100
AcDbLine
 62
7
  6
CONTINUOUS
 10
8.84539147
 20
5.4217256964
 11
8.8133495959
 21
5.4402346219
  0
LINE
  5
7FF
100
AcDbEntity
  8
0
100
AcDbLine
 62
7
  6
CONTINUOUS
 10
8.1370622373
 20
5.8327592954
 11
8.1691041115
 21
5.8142503699
  0
LINE
  5
800
100
AcDbEntity
  8
0
100
AcDbLine
 62
7
  6
CONTINUOUS
 10
8.84539147
 20
5.4610957751
 11
8.8133495959
 21
5.4796047006
  0
LINE
  5
801
100
AcDbEntity
  8
0
100
AcDbLine
 62
7
  6
CONTINUOUS
 10
8.1370622373
 20
5.8721293742
 11
8.1691041115
 21
5.8536204486
  0
LINE
  5
802
100
AcDbEntity
  8
0
100
AcDbLine
 62
7
  6
CONTINUOUS
 10
8.1370622373
 20
6.1083498466
 11
8.136896145
 21
6.1085417085
  0
LINE
  5
803
100
AcDbEntity
  8
0
100
AcDbLine
 62
7
  6
CONTINUOUS
 10
8.84539147
 20
5.3036154602
 11
8.8455575623
 21
5.3034235983
  0
LINE
  5
804
100
AcDbEntity
  8
0
100
AcDbLine
 62
7
  6
CONTINUOUS
 10
8.1370622373
 20
6.1477199253
 11
8.136896145
 21
6.1479117872
  0
LINE
  5
805
100
AcDbEntity
  8
0
100
AcDbLine
 62
7
  6
CONTINUOUS
 10
8.84539147
 20
5.3429855389
 11
8.8455575623
 21
5.342793677
  0
LINE
  5
806
100
AcDbEntity
  8
0
100
AcDbLine
 62
7
  6
CONTINUOUS
 10
8.84539147
 20
5.3823556177
 11
8.8455575623
 21
5.3821637558
  0
LINE
  5
807
100
AcDbEntity
  8
0
100
AcDbLine
 62
7
  6
CONTINUOUS
 10
8.8455575623
 20
5.0258645432
 11
8.8455575623
 21
5.0278330471
  0
LINE
  5
808
100
AcDbEntity
  8
AXIS_COSMETIC_THREADS
100
AcDbLine
 62
7
  6
CONTINUOUS
 10
8.8455575623
 20
5.0258645432
 11
8.8455575623
 21
5.0278330471
  0
LINE
  5
809
100
AcDbEntity
  8
0
100
AcDbLine
 62
7
  6
CONTINUOUS
 10
8.8455575623
 20
5.0652346219
 11
8.8455575623
 21
5.0672031258
  0
LINE
  5
80A
100
AcDbEntity
  8
AXIS_COSMETIC_THREADS
100
AcDbLine
 62
7
  6
CONTINUOUS
 10
8.8455575623
 20
5.0652346219
 11
8.8455575623
 21
5.0672031258
  0
LINE
  5
80B
100
AcDbEntity
  8
0
100
AcDbLine
 62
7
  6
CONTINUOUS
 10
8.8455575623
 20
5.1046047006
 11
8.8455575623
 21
5.1065732046
  0
LINE
  5
80C
100
AcDbEntity
  8
AXIS_COSMETIC_THREADS
100
AcDbLine
 62
7
  6
CONTINUOUS
 10
8.8455575623
 20
5.1046047006
 11
8.8455575623
 21
5.1065732046
  0
LINE
  5
80D
100
AcDbEntity
  8
0
100
AcDbLine
 62
7
  6
CONTINUOUS
 10
8.8455575623
 20
5.1439747794
 11
8.8455575623
 21
5.1459432833
  0
LINE
  5
80E
100
AcDbEntity
  8
AXIS_COSMETIC_THREADS
100
AcDbLine
 62
7
  6
CONTINUOUS
 10
8.8455575623
 20
5.1439747794
 11
8.8455575623
 21
5.1459432833
  0
LINE
  5
80F
100
AcDbEntity
  8
0
100
AcDbLine
 62
7
  6
CONTINUOUS
 10
8.8455575623
 20
5.1833448581
 11
8.8455575623
 21
5.1853133621
  0
LINE
  5
810
100
AcDbEntity
  8
AXIS_COSMETIC_THREADS
100
AcDbLine
 62
7
  6
CONTINUOUS
 10
8.8455575623
 20
5.1833448581
 11
8.8455575623
 21
5.1853133621
  0
LINE
  5
811
100
AcDbEntity
  8
0
100
AcDbLine
 62
7
  6
CONTINUOUS
 10
8.8455575623
 20
5.2227149369
 11
8.8455575623
 21
5.2246834408
  0
LINE
  5
812
100
AcDbEntity
  8
AXIS_COSMETIC_THREADS
100
AcDbLine
 62
7
  6
CONTINUOUS
 10
8.8455575623
 20
5.2227149369
 11
8.8455575623
 21
5.2246834408
  0
LINE
  5
813
100
AcDbEntity
  8
0
100
AcDbLine
 62
7
  6
CONTINUOUS
 10
8.8455575623
 20
5.2620850156
 11
8.8455575623
 21
5.2640535195
  0
LINE
  5
814
100
AcDbEntity
  8
AXIS_COSMETIC_THREADS
100
AcDbLine
 62
7
  6
CONTINUOUS
 10
8.8455575623
 20
5.2620850156
 11
8.8455575623
 21
5.2640535195
  0
LINE
  5
815
100
AcDbEntity
  8
0
100
AcDbLine
 62
7
  6
CONTINUOUS
 10
8.8455575623
 20
5.3014550943
 11
8.8455575623
 21
5.3034235983
  0
LINE
  5
816
100
AcDbEntity
  8
AXIS_COSMETIC_THREADS
100
AcDbLine
 62
7
  6
CONTINUOUS
 10
8.8455575623
 20
5.3014550943
 11
8.8455575623
 21
5.3034235983
  0
LINE
  5
817
100
AcDbEntity
  8
0
100
AcDbLine
 62
7
  6
CONTINUOUS
 10
8.8455575623
 20
5.3408251731
 11
8.8455575623
 21
5.342793677
  0
LINE
  5
818
100
AcDbEntity
  8
AXIS_COSMETIC_THREADS
100
AcDbLine
 62
7
  6
CONTINUOUS
 10
8.8455575623
 20
5.3408251731
 11
8.8455575623
 21
5.342793677
  0
LINE
  5
819
100
AcDbEntity
  8
0
100
AcDbLine
 62
7
  6
CONTINUOUS
 10
8.8455575623
 20
5.3801952518
 11
8.8455575623
 21
5.3821637558
  0
LINE
  5
81A
100
AcDbEntity
  8
AXIS_COSMETIC_THREADS
100
AcDbLine
 62
7
  6
CONTINUOUS
 10
8.8455575623
 20
5.3801952518
 11
8.8455575623
 21
5.3821637558
  0
LINE
  5
81B
100
AcDbEntity
  8
0
100
AcDbLine
 62
7
  6
CONTINUOUS
 10
8.8455575623
 20
5.4195653306
 11
8.8455575623
 21
5.4215338345
  0
LINE
  5
81C
100
AcDbEntity
  8
AXIS_COSMETIC_THREADS
100
AcDbLine
 62
7
  6
CONTINUOUS
 10
8.8455575623
 20
5.4195653306
 11
8.8455575623
 21
5.4215338345
  0
LINE
  5
81D
100
AcDbEntity
  8
0
100
AcDbLine
 62
7
  6
CONTINUOUS
 10
8.8455575623
 20
5.4589354093
 11
8.8455575623
 21
5.4609039132
  0
LINE
  5
81E
100
AcDbEntity
  8
AXIS_COSMETIC_THREADS
100
AcDbLine
 62
7
  6
CONTINUOUS
 10
8.8455575623
 20
5.4589354093
 11
8.8455575623
 21
5.4609039132
  0
LINE
  5
81F
100
AcDbEntity
  8
0
100
AcDbLine
 62
7
  6
CONTINUOUS
 10
8.8455575623
 20
5.498305488
 11
8.8455575623
 21
5.500273992
  0
LINE
  5
820
100
AcDbEntity
  8
AXIS_COSMETIC_THREADS
100
AcDbLine
 62
7
  6
CONTINUOUS
 10
8.8455575623
 20
5.498305488
 11
8.8455575623
 21
5.500273992
  0
LINE
  5
821
100
AcDbEntity
  8
0
100
AcDbLine
 62
7
  6
CONTINUOUS
 10
8.8455575623
 20
5.5376755668
 11
8.8455575623
 21
5.5396440707
  0
LINE
  5
822
100
AcDbEntity
  8
AXIS_COSMETIC_THREADS
100
AcDbLine
 62
7
  6
CONTINUOUS
 10
8.8455575623
 20
5.5376755668
 11
8.8455575623
 21
5.5396440707
  0
LINE
  5
823
100
AcDbEntity
  8
0
100
AcDbLine
 62
7
  6
CONTINUOUS
 10
8.8455575623
 20
5.5770456455
 11
8.8455575623
 21
5.5790141495
  0
LINE
  5
824
100
AcDbEntity
  8
AXIS_COSMETIC_THREADS
100
AcDbLine
 62
7
  6
CONTINUOUS
 10
8.8455575623
 20
5.5770456455
 11
8.8455575623
 21
5.5790141495
  0
LINE
  5
825
100
AcDbEntity
  8
0
100
AcDbLine
 62
7
  6
CONTINUOUS
 10
8.8455575623
 20
5.6164157243
 11
8.8455575623
 21
5.6183842282
  0
LINE
  5
826
100
AcDbEntity
  8
AXIS_COSMETIC_THREADS
100
AcDbLine
 62
7
  6
CONTINUOUS
 10
8.8455575623
 20
5.6164157243
 11
8.8455575623
 21
5.6183842282
  0
LINE
  5
827
100
AcDbEntity
  8
0
100
AcDbLine
 62
7
  6
CONTINUOUS
 10
8.8455575623
 20
5.655785803
 11
8.8455575623
 21
5.6577543069
  0
LINE
  5
828
100
AcDbEntity
  8
AXIS_COSMETIC_THREADS
100
AcDbLine
 62
7
  6
CONTINUOUS
 10
8.8455575623
 20
5.655785803
 11
8.8455575623
 21
5.6577543069
  0
LINE
  5
829
100
AcDbEntity
  8
0
100
AcDbLine
 62
7
  6
CONTINUOUS
 10
8.8455575623
 20
5.6951558817
 11
8.8455575623
 21
5.6971243857
  0
LINE
  5
82A
100
AcDbEntity
  8
AXIS_COSMETIC_THREADS
100
AcDbLine
 62
7
  6
CONTINUOUS
 10
8.8455575623
 20
5.6951558817
 11
8.8455575623
 21
5.6971243857
  0
LINE
  5
82B
100
AcDbEntity
  8
0
100
AcDbLine
 62
7
  6
CONTINUOUS
 10
8.8455575623
 20
5.7345259605
 11
8.8455575623
 21
5.7364944644
  0
LINE
  5
82C
100
AcDbEntity
  8
AXIS_COSMETIC_THREADS
100
AcDbLine
 62
7
  6
CONTINUOUS
 10
8.8455575623
 20
5.7345259605
 11
8.8455575623
 21
5.7364944644
  0
LINE
  5
82D
100
AcDbEntity
  8
0
100
AcDbLine
 62
7
  6
CONTINUOUS
 10
8.8455575623
 20
5.7738960392
 11
8.8455575623
 21
5.7758645432
  0
LINE
  5
82E
100
AcDbEntity
  8
AXIS_COSMETIC_THREADS
100
AcDbLine
 62
7
  6
CONTINUOUS
 10
8.8455575623
 20
5.7738960392
 11
8.8455575623
 21
5.7758645432
  0
LINE
  5
82F
100
AcDbEntity
  8
0
100
AcDbLine
 62
7
  6
CONTINUOUS
 10
8.8455575623
 20
5.813266118
 11
8.8455575623
 21
5.8152346219
  0
LINE
  5
830
100
AcDbEntity
  8
AXIS_COSMETIC_THREADS
100
AcDbLine
 62
7
  6
CONTINUOUS
 10
8.8455575623
 20
5.813266118
 11
8.8455575623
 21
5.8152346219
  0
LINE
  5
831
100
AcDbEntity
  8
0
100
AcDbLine
 62
7
  6
CONTINUOUS
 10
8.8455575623
 20
5.8526361967
 11
8.8455575623
 21
5.8546047006
  0
LINE
  5
832
100
AcDbEntity
  8
AXIS_COSMETIC_THREADS
100
AcDbLine
 62
7
  6
CONTINUOUS
 10
8.8455575623
 20
5.8526361967
 11
8.8455575623
 21
5.8546047006
  0
LINE
  5
833
100
AcDbEntity
  8
0
100
AcDbLine
 62
7
  6
CONTINUOUS
 10
8.8455575623
 20
5.8920062754
 11
8.8455575623
 21
5.8939747794
  0
LINE
  5
834
100
AcDbEntity
  8
AXIS_COSMETIC_THREADS
100
AcDbLine
 62
7
  6
CONTINUOUS
 10
8.8455575623
 20
5.8920062754
 11
8.8455575623
 21
5.8939747794
  0
LINE
  5
835
100
AcDbEntity
  8
0
100
AcDbLine
 62
7
  6
CONTINUOUS
 10
8.8455575623
 20
5.9313763542
 11
8.8455575623
 21
5.9333448581
  0
LINE
  5
836
100
AcDbEntity
  8
AXIS_COSMETIC_THREADS
100
AcDbLine
 62
7
  6
CONTINUOUS
 10
8.8455575623
 20
5.9313763542
 11
8.8455575623
 21
5.9333448581
  0
LINE
  5
837
100
AcDbEntity
  8
0
100
AcDbLine
 62
7
  6
CONTINUOUS
 10
8.8455575623
 20
5.9707464329
 11
8.8455575623
 21
5.9727149369
  0
LINE
  5
838
100
AcDbEntity
  8
AXIS_COSMETIC_THREADS
100
AcDbLine
 62
7
  6
CONTINUOUS
 10
8.8455575623
 20
5.9707464329
 11
8.8455575623
 21
5.9727149369
  0
LINE
  5
839
100
AcDbEntity
  8
0
100
AcDbLine
 62
7
  6
CONTINUOUS
 10
8.8455575623
 20
6.0101165117
 11
8.8455575623
 21
6.0120850156
  0
LINE
  5
83A
100
AcDbEntity
  8
0
100
AcDbLine
 62
7
  6
CONTINUOUS
 10
8.8455575623
 20
6.0494865904
 11
8.8455575623
 21
6.0514550943
  0
LINE
  5
83B
100
AcDbEntity
  8
AXIS_COSMETIC_THREADS
100
AcDbLine
 62
7
  6
CONTINUOUS
 10
8.8455575623
 20
6.0494865904
 11
8.8455575623
 21
6.0514550943
  0
LINE
  5
83C
100
AcDbEntity
  8
0
100
AcDbLine
 62
7
  6
CONTINUOUS
 10
8.8455575623
 20
6.0888566691
 11
8.8455575623
 21
6.0908251731
  0
LINE
  5
83D
100
AcDbEntity
  8
AXIS_COSMETIC_THREADS
100
AcDbLine
 62
7
  6
CONTINUOUS
 10
8.8455575623
 20
6.0888566691
 11
8.8455575623
 21
6.0908251731
  0
LINE
  5
83E
100
AcDbEntity
  8
0
100
AcDbLine
 62
7
  6
CONTINUOUS
 10
8.8455575623
 20
6.1282267479
 11
8.8455575623
 21
6.1301952518
  0
LINE
  5
83F
100
AcDbEntity
  8
AXIS_COSMETIC_THREADS
100
AcDbLine
 62
7
  6
CONTINUOUS
 10
8.8455575623
 20
6.1282267479
 11
8.8455575623
 21
6.1301952518
  0
LINE
  5
840
100
AcDbEntity
  8
AXIS_COSMETIC_THREADS
100
AcDbLine
 62
7
  6
CONTINUOUS
 10
8.8455575623
 20
6.1675968266
 11
8.8455575623
 21
6.1695653306
  0
LINE
  5
841
100
AcDbEntity
  8
0
100
AcDbLine
 62
7
  6
CONTINUOUS
 10
8.84539147
 20
5.1437829175
 11
8.8455575623
 21
5.1439747794
  0
LINE
  5
842
100
AcDbEntity
  8
0
100
AcDbLine
 62
7
  6
CONTINUOUS
 10
8.84539147
 20
5.1044128387
 11
8.8455575623
 21
5.1046047006
  0
LINE
  5
843
100
AcDbEntity
  8
0
100
AcDbLine
 62
7
  6
CONTINUOUS
 10
8.84539147
 20
5.06504276
 11
8.8455575623
 21
5.0652346219
  0
LINE
  5
844
100
AcDbEntity
  8
0
100
AcDbLine
 62
7
  6
CONTINUOUS
 10
8.8129840725
 20
5.0463226831
 11
8.84539147
 21
5.06504276
  0
LINE
  5
845
100
AcDbEntity
  8
0
100
AcDbLine
 62
7
  6
CONTINUOUS
 10
8.8129840725
 20
5.0069526044
 11
8.84539147
 21
5.0256726812
  0
LINE
  5
846
100
AcDbEntity
  8
0
100
AcDbLine
 62
7
  6
CONTINUOUS
 10
8.8455575623
 20
5.7364944644
 11
8.8416112935
 21
5.7355584248
  0
LINE
  5
847
100
AcDbEntity
  8
0
100
AcDbLine
 62
7
  6
CONTINUOUS
 10
8.136896145
 20
5.5967306849
 11
8.1408424336
 21
5.5976667269
  0
LINE
  5
848
100
AcDbEntity
  8
0
100
AcDbLine
 62
7
  6
CONTINUOUS
 10
8.8455575623
 20
5.7758645432
 11
8.8416108059
 21
5.7749284456
  0
LINE
  5
849
100
AcDbEntity
  8
0
100
AcDbLine
 62
7
  6
CONTINUOUS
 10
8.136896145
 20
5.5573606061
 11
8.1408521318
 21
5.5582977998
  0
LWPOLYLINE
  5
84A
100
AcDbEntity
  8
0
100
AcDbPolyline
 62
7
  6
CONTINUOUS
 90
9
 70
0
 10
8.8129840725
 20
5.7156140217
 10
8.8092032328
 20
5.7148409211
 10
8.7974099835
 20
5.7138566691
 10
8.7780774894
 20
5.7128724172
 10
8.7516817806
 20
5.7118881652
 10
8.7188728071
 20
5.7109039132
 10
8.6804584347
 20
5.7099196613
 10
8.6373845528
 20
5.7089354093
 10
8.5907117832
 20
5.7079511573
  0
LWPOLYLINE
  5
84B
100
AcDbEntity
  8
0
100
AcDbPolyline
 62
7
  6
CONTINUOUS
 90
9
 70
0
 10
8.8129840725
 20
5.7549841004
 10
8.8092032328
 20
5.7542109998
 10
8.7974099835
 20
5.7532267479
 10
8.7780774894
 20
5.7522424959
 10
8.7516817806
 20
5.7512582439
 10
8.7188728071
 20
5.750273992
 10
8.6804584347
 20
5.74928974
 10
8.6373845528
 20
5.748305488
 10
8.5907117832
 20
5.7473212361
  0
LWPOLYLINE
  5
84C
100
AcDbEntity
  8
0
100
AcDbPolyline
 62
7
  6
CONTINUOUS
 90
9
 70
0
 10
8.1408424336
 20
5.5976667269
 10
8.1526017464
 20
5.5986032704
 10
8.1718861211
 20
5.5995387633
 10
8.1983214619
 20
5.6004757052
 10
8.2311411415
 20
5.6014086765
 10
8.2699917782
 20
5.6023478879
 10
8.3141711259
 20
5.603294603
 10
8.3622151726
 20
5.6042381014
 10
8.4127168476
 20
5.6051732241
  0
LWPOLYLINE
  5
84D
100
AcDbEntity
  8
0
100
AcDbPolyline
 62
7
  6
CONTINUOUS
 90
9
 70
0
 10
8.1408429211
 20
5.6370368635
 10
8.1526036663
 20
5.6379734645
 10
8.171890331
 20
5.6389090138
 10
8.1983305914
 20
5.6398460708
 10
8.2312929816
 20
5.6407827077
 10
8.2703418684
 20
5.6417258883
 10
8.314208878
 20
5.6426654524
 10
8.3617415341
 20
5.6435991846
 10
8.4121775516
 20
5.6445335212
  0
LWPOLYLINE
  5
84E
100
AcDbEntity
  8
0
100
AcDbPolyline
 62
7
  6
CONTINUOUS
 90
9
 70
0
 10
8.8416326012
 20
5.6961908812
 10
8.8297651163
 20
5.695246591
 10
8.8101293849
 20
5.6942984761
 10
8.7834217667
 20
5.6933570963
 10
8.7504021825
 20
5.6924227367
 10
8.7115407228
 20
5.6914863551
 10
8.6678867725
 20
5.69055239
 10
8.6201755403
 20
5.6896157731
 10
8.5698053521
 20
5.6886830885
  0
LWPOLYLINE
  5
84F
100
AcDbEntity
  8
0
100
AcDbPolyline
 62
7
  6
CONTINUOUS
 90
9
 70
0
 10
8.1408222538
 20
5.6764044836
 10
8.1526960306
 20
5.6773490826
 10
8.1723384044
 20
5.6782973233
 10
8.1990490767
 20
5.6792386674
 10
8.2320683968
 20
5.6801729288
 10
8.2709281289
 20
5.6811092149
 10
8.3145792806
 20
5.6820430899
 10
8.3622863544
 20
5.6829796104
 10
8.4126502763
 20
5.6839121743
  0
LWPOLYLINE
  5
850
100
AcDbEntity
  8
0
100
AcDbPolyline
 62
7
  6
CONTINUOUS
 90
9
 70
0
 10
8.8416018787
 20
5.6568171493
 10
8.8297548372
 20
5.6558758967
 10
8.8104302931
 20
5.6549406305
 10
8.7840685239
 20
5.6540072846
 10
8.7511931818
 20
5.6530732075
 10
8.712451066
 20
5.652136858
 10
8.668901742
 20
5.6512030366
 10
8.6212690092
 20
5.6502664682
 10
8.5708388961
 20
5.64933176
  0
LWPOLYLINE
  5
851
100
AcDbEntity
  8
0
100
AcDbPolyline
 62
7
  6
CONTINUOUS
 90
9
 70
0
 10
8.3917419241
 20
5.625273992
 10
8.3450691546
 20
5.62428974
 10
8.3019952726
 20
5.623305488
 10
8.2635809003
 20
5.6223212361
 10
8.2307719268
 20
5.6213369841
 10
8.204376218
 20
5.6203527321
 10
8.1850437238
 20
5.6193684802
 10
8.1732504745
 20
5.6183842282
 10
8.1694696348
 20
5.6176111276
  0
LWPOLYLINE
  5
852
100
AcDbEntity
  8
0
100
AcDbPolyline
 62
7
  6
CONTINUOUS
 90
9
 70
0
 10
8.3917419241
 20
5.6646440707
 10
8.3450691546
 20
5.6636598187
 10
8.3019952726
 20
5.6626755668
 10
8.2635809003
 20
5.6616913148
 10
8.2307719268
 20
5.6607070628
 10
8.204376218
 20
5.6597228109
 10
8.1850437238
 20
5.6587385589
 10
8.1732504745
 20
5.6577543069
 10
8.1694696348
 20
5.6569812064
  0
LINE
  5
853
100
AcDbEntity
  8
0
100
AcDbLine
 62
7
  6
CONTINUOUS
 10
8.5907117832
 20
5.6292109998
 11
8.3917419241
 21
5.625273992
  0
LINE
  5
854
100
AcDbEntity
  8
0
100
AcDbLine
 62
7
  6
CONTINUOUS
 10
8.5907117832
 20
5.6685810786
 11
8.3917419241
 21
5.6646440707
  0
LWPOLYLINE
  5
855
100
AcDbEntity
  8
0
100
AcDbPolyline
 62
7
  6
CONTINUOUS
 90
10
 70
0
 10
8.5697482646
 20
5.6473434706
 10
8.6202525138
 20
5.6482786519
 10
8.6682936719
 20
5.6492221113
 10
8.7124627346
 20
5.6501686182
 10
8.7513000613
 20
5.6511074858
 10
8.7841247289
 20
5.6520405465
 10
8.8105633929
 20
5.6529775535
 10
8.8298500489
 20
5.6539131026
 10
8.8416108059
 20
5.6548497054
 10
8.84539147
 20
5.6555939411
  0
LWPOLYLINE
  5
856
100
AcDbEntity
  8
0
100
AcDbPolyline
 62
7
  6
CONTINUOUS
 90
10
 70
0
 10
8.4126502763
 20
5.6465105995
 10
8.3622863544
 20
5.6455780356
 10
8.3145792806
 20
5.6446415151
 10
8.2709281289
 20
5.6437076401
 10
8.2320683968
 20
5.642771354
 10
8.1990490767
 20
5.6418370926
 10
8.1723384044
 20
5.6408957484
 10
8.1526960306
 20
5.6399475078
 10
8.1408222538
 20
5.6390029088
 10
8.1370622373
 20
5.6382611295
  0
LWPOLYLINE
  5
857
100
AcDbEntity
  8
0
100
AcDbPolyline
 62
7
  6
CONTINUOUS
 90
10
 70
0
 10
8.5708388961
 20
5.6867333348
 10
8.6212690092
 20
5.687668043
 10
8.668901742
 20
5.6886046114
 10
8.712451066
 20
5.6895384328
 10
8.7511931818
 20
5.6904747823
 10
8.7840685239
 20
5.6914088594
 10
8.8104302931
 20
5.6923422053
 10
8.8297548372
 20
5.6932774715
 10
8.8416018787
 20
5.6942187241
 10
8.84539147
 20
5.6949640198
  0
LWPOLYLINE
  5
858
100
AcDbEntity
  8
0
100
AcDbPolyline
 62
7
  6
CONTINUOUS
 90
10
 70
0
 10
8.4116379615
 20
5.6858623134
 10
8.3612024083
 20
5.6849275218
 10
8.3135639042
 20
5.6839908606
 10
8.2700092567
 20
5.683056945
 10
8.231262803
 20
5.682120505
 10
8.1983838736
 20
5.6811863275
 10
8.1720177788
 20
5.6802527931
 10
8.1526974357
 20
5.6793176707
 10
8.1408521318
 20
5.6783765399
 10
8.1370622373
 20
5.6776312082
  0
LINE
  5
859
100
AcDbEntity
  8
0
100
AcDbLine
 62
7
  6
CONTINUOUS
 10
8.4121775516
 20
5.6445335212
 11
8.5697482646
 21
5.6473434706
  0
LINE
  5
85A
100
AcDbEntity
  8
0
100
AcDbLine
 62
7
  6
CONTINUOUS
 10
8.5708388961
 20
5.64933176
 11
8.4126502763
 21
5.6465105995
  0
LINE
  5
85B
100
AcDbEntity
  8
0
100
AcDbLine
 62
7
  6
CONTINUOUS
 10
8.4126502763
 20
5.6839121743
 11
8.5708388961
 21
5.6867333348
  0
LINE
  5
85C
100
AcDbEntity
  8
0
100
AcDbLine
 62
7
  6
CONTINUOUS
 10
8.5698053521
 20
5.6886830885
 11
8.4116379615
 21
5.6858623134
  0
LINE
  5
85D
100
AcDbEntity
  8
0
100
AcDbLine
 62
7
  6
CONTINUOUS
 10
8.84539147
 20
5.5004658539
 11
8.8133495959
 21
5.5189747793
  0
LINE
  5
85E
100
AcDbEntity
  8
0
100
AcDbLine
 62
7
  6
CONTINUOUS
 10
8.1370622373
 20
5.9114994529
 11
8.1691041115
 21
5.8929905274
  0
LINE
  5
85F
100
AcDbEntity
  8
0
100
AcDbLine
 62
7
  6
CONTINUOUS
 10
8.84539147
 20
5.5398359326
 11
8.8133495959
 21
5.5583448581
  0
LINE
  5
860
100
AcDbEntity
  8
0
100
AcDbLine
 62
7
  6
CONTINUOUS
 10
8.1370622373
 20
5.9508695316
 11
8.1691041115
 21
5.9323606061
  0
LINE
  5
861
100
AcDbEntity
  8
0
100
AcDbLine
 62
7
  6
CONTINUOUS
 10
8.84539147
 20
5.4217256964
 11
8.8455575623
 21
5.4215338345
  0
LINE
  5
862
100
AcDbEntity
  8
0
100
AcDbLine
 62
7
  6
CONTINUOUS
 10
8.84539147
 20
5.4610957751
 11
8.8455575623
 21
5.4609039132
  0
LINE
  5
863
100
AcDbEntity
  8
0
100
AcDbLine
 62
7
  6
CONTINUOUS
 10
8.84539147
 20
5.5004658539
 11
8.8455575623
 21
5.500273992
  0
LINE
  5
864
100
AcDbEntity
  8
0
100
AcDbLine
 62
7
  6
CONTINUOUS
 10
8.84539147
 20
5.0256726812
 11
8.8455575623
 21
5.0258645432
  0
LINE
  5
865
100
AcDbEntity
  8
0
100
AcDbLine
 62
7
  6
CONTINUOUS
 10
8.2454857172
 20
4.368704749
 11
8.2451638615
 21
4.3683842282
  0
LINE
  5
866
100
AcDbEntity
  8
0
100
AcDbLine
 62
7
  6
CONTINUOUS
 10
8.2454857172
 20
4.3293346702
 11
8.2451638615
 21
4.3290141495
  0
LINE
  5
867
100
AcDbEntity
  8
0
100
AcDbLine
 62
7
  6
CONTINUOUS
 10
8.8455575623
 20
5.8546047006
 11
8.8416326012
 21
5.8536711962
  0
LINE
  5
868
100
AcDbEntity
  8
0
100
AcDbLine
 62
7
  6
CONTINUOUS
 10
8.136896145
 20
5.6754708424
 11
8.1408222538
 21
5.6764044836
  0
LINE
  5
869
100
AcDbEntity
  8
0
100
AcDbLine
 62
7
  6
CONTINUOUS
 10
8.136896145
 20
5.6361007636
 11
8.1408429211
 21
5.6370368635
  0
LINE
  5
86A
100
AcDbEntity
  8
0
100
AcDbLine
 62
7
  6
CONTINUOUS
 10
8.8455575623
 20
5.8152346219
 11
8.8416018787
 21
5.8142974642
  0
LINE
  5
86B
100
AcDbEntity
  8
0
100
AcDbLine
 62
7
  6
CONTINUOUS
 10
8.136896145
 20
5.7148409211
 11
8.1408521318
 21
5.7157781147
  0
LWPOLYLINE
  5
86C
100
AcDbEntity
  8
0
100
AcDbPolyline
 62
7
  6
CONTINUOUS
 90
9
 70
0
 10
8.8129840725
 20
5.7943541792
 10
8.8092032328
 20
5.7935810786
 10
8.7974099835
 20
5.7925968266
 10
8.7780774894
 20
5.7916125747
 10
8.7516817806
 20
5.7906283227
 10
8.7188728071
 20
5.7896440707
 10
8.6804584347
 20
5.7886598187
 10
8.6373845528
 20
5.7876755668
 10
8.5907117832
 20
5.7866913148
  0
LWPOLYLINE
  5
86D
100
AcDbEntity
  8
0
100
AcDbPolyline
 62
7
  6
CONTINUOUS
 90
9
 70
0
 10
8.8129840725
 20
5.8337242579
 10
8.8092032328
 20
5.8329511573
 10
8.7974099835
 20
5.8319669054
 10
8.7780774894
 20
5.8309826534
 10
8.7516817806
 20
5.8299984014
 10
8.7188728071
 20
5.8290141495
 10
8.6804584347
 20
5.8280298975
 10
8.6373845528
 20
5.8270456455
 10
8.5907117832
 20
5.8260613935
  0
LWPOLYLINE
  5
86E
100
AcDbEntity
  8
0
100
AcDbPolyline
 62
7
  6
CONTINUOUS
 90
9
 70
0
 10
8.8416112935
 20
5.7355584248
 10
8.8298519688
 20
5.7346218794
 10
8.8105676906
 20
5.7336863903
 10
8.7841305407
 20
5.7327493905
 10
8.7511707716
 20
5.7318127818
 10
8.7121182089
 20
5.7308694838
 10
8.6682384673
 20
5.7299296458
 10
8.6207097995
 20
5.7289959984
 10
8.5702778893
 20
5.7280617383
  0
LWPOLYLINE
  5
86F
100
AcDbEntity
  8
0
100
AcDbPolyline
 62
7
  6
CONTINUOUS
 90
9
 70
0
 10
8.8416108059
 20
5.7749284456
 10
8.8298500489
 20
5.7739918428
 10
8.8105633929
 20
5.7730562937
 10
8.7841247289
 20
5.7721192866
 10
8.7513000613
 20
5.771186226
 10
8.7124627346
 20
5.7702473584
 10
8.6682936719
 20
5.7693008515
 10
8.6202525138
 20
5.768357392
 10
8.5697482646
 20
5.7674222107
  0
LWPOLYLINE
  5
870
100
AcDbEntity
  8
0
100
AcDbPolyline
 62
7
  6
CONTINUOUS
 90
9
 70
0
 10
8.1408424336
 20
5.7551470418
 10
8.1526017464
 20
5.7560835854
 10
8.1718861211
 20
5.7570190782
 10
8.1983214619
 20
5.7579560202
 10
8.2311411415
 20
5.7588889914
 10
8.2699917782
 20
5.7598282029
 10
8.3141711259
 20
5.7607749179
 10
8.3622151726
 20
5.7617184164
 10
8.4127168476
 20
5.7626535391
  0
LWPOLYLINE
  5
871
100
AcDbEntity
  8
0
100
AcDbPolyline
 62
7
  6
CONTINUOUS
 90
9
 70
0
 10
8.1408521318
 20
5.7157781147
 10
8.1526974357
 20
5.7167192455
 10
8.1720177788
 20
5.7176543679
 10
8.1983838736
 20
5.7185879023
 10
8.231262803
 20
5.7195220798
 10
8.2700092567
 20
5.7204585198
 10
8.3135639042
 20
5.7213924354
 10
8.3612024083
 20
5.7223290966
 10
8.4116379615
 20
5.7232638882
  0
LWPOLYLINE
  5
872
100
AcDbEntity
  8
0
100
AcDbPolyline
 62
7
  6
CONTINUOUS
 90
9
 70
0
 10
8.8416018787
 20
5.8142974642
 10
8.8297548372
 20
5.8133562116
 10
8.8104302931
 20
5.8124209455
 10
8.7840685239
 20
5.8114875996
 10
8.7511931818
 20
5.8105535225
 10
8.712451066
 20
5.8096171729
 10
8.668901742
 20
5.8086833516
 10
8.6212690092
 20
5.8077467831
 10
8.5708388961
 20
5.806812075
  0
LWPOLYLINE
  5
873
100
AcDbEntity
  8
0
100
AcDbPolyline
 62
7
  6
CONTINUOUS
 90
9
 70
0
 10
8.3917419241
 20
5.7040141495
 10
8.3450691546
 20
5.7030298975
 10
8.3019952726
 20
5.7020456455
 10
8.2635809002
 20
5.7010613935
 10
8.2307719268
 20
5.7000771416
 10
8.204376218
 20
5.6990928896
 10
8.1850437238
 20
5.6981086376
 10
8.1732504745
 20
5.6971243857
 10
8.1694696348
 20
5.6963512851
  0
LWPOLYLINE
  5
874
100
AcDbEntity
  8
0
100
AcDbPolyline
 62
7
  6
CONTINUOUS
 90
9
 70
0
 10
8.3917419241
 20
5.7433842282
 10
8.3450691546
 20
5.7423999762
 10
8.3019952726
 20
5.7414157243
 10
8.2635809002
 20
5.7404314723
 10
8.2307719268
 20
5.7394472203
 10
8.204376218
 20
5.7384629684
 10
8.1850437238
 20
5.7374787164
 10
8.1732504745
 20
5.7364944644
 10
8.1694696348
 20
5.7357213638
  0
LWPOLYLINE
  5
875
100
AcDbEntity
  8
0
100
AcDbPolyline
 62
7
  6
CONTINUOUS
 90
9
 70
0
 10
8.3917419241
 20
5.7827543069
 10
8.3450691546
 20
5.781770055
 10
8.3019952726
 20
5.780785803
 10
8.2635809003
 20
5.779801551
 10
8.2307719268
 20
5.7788172991
 10
8.204376218
 20
5.7778330471
 10
8.1850437238
 20
5.7768487951
 10
8.1732504745
 20
5.7758645432
 10
8.1694696348
 20
5.7750914426
  0
LINE
  5
876
100
AcDbEntity
  8
0
100
AcDbLine
 62
7
  6
CONTINUOUS
 10
8.5907117832
 20
5.7079511573
 11
8.3917419241
 21
5.7040141495
  0
LINE
  5
877
100
AcDbEntity
  8
0
100
AcDbLine
 62
7
  6
CONTINUOUS
 10
8.5907117832
 20
5.7473212361
 11
8.3917419241
 21
5.7433842282
  0
LINE
  5
878
100
AcDbEntity
  8
0
100
AcDbLine
 62
7
  6
CONTINUOUS
 10
8.5907117832
 20
5.7866913148
 11
8.3917419241
 21
5.7827543069
  0
LWPOLYLINE
  5
879
100
AcDbEntity
  8
0
100
AcDbPolyline
 62
7
  6
CONTINUOUS
 90
10
 70
0
 10
8.5698053521
 20
5.7260846633
 10
8.6201755403
 20
5.7270173479
 10
8.6678867725
 20
5.7279539648
 10
8.7115407228
 20
5.7288879299
 10
8.7504021825
 20
5.7298243115
 10
8.7834217667
 20
5.7307586711
 10
8.8101293849
 20
5.7317000509
 10
8.8297651163
 20
5.7326481658
 10
8.8416326012
 20
5.733592456
 10
8.84539147
 20
5.7343340986
  0
LWPOLYLINE
  5
87A
100
AcDbEntity
  8
0
100
AcDbPolyline
 62
7
  6
CONTINUOUS
 90
10
 70
0
 10
8.4127168476
 20
5.7252519643
 10
8.3622151726
 20
5.7243168416
 10
8.3141711259
 20
5.7233733431
 10
8.2699917782
 20
5.7224266281
 10
8.2311411415
 20
5.7214874166
 10
8.1983214619
 20
5.7205544454
 10
8.1718861211
 20
5.7196175034
 10
8.1526017464
 20
5.7186820106
 10
8.1408424336
 20
5.717745467
 10
8.1370622373
 20
5.717001287
  0
LWPOLYLINE
  5
87B
100
AcDbEntity
  8
0
100
AcDbPolyline
 62
7
  6
CONTINUOUS
 90
10
 70
0
 10
8.5702778893
 20
5.7654633131
 10
8.6207097995
 20
5.7663975732
 10
8.6682384673
 20
5.7673312206
 10
8.7121182089
 20
5.7682710586
 10
8.7511707716
 20
5.7692143566
 10
8.7841305407
 20
5.7701509653
 10
8.8105676906
 20
5.7710879651
 10
8.8298519688
 20
5.7720234542
 10
8.8416112935
 20
5.7729599996
 10
8.84539147
 20
5.7737041773
  0
LWPOLYLINE
  5
87C
100
AcDbEntity
  8
0
100
AcDbPolyline
 62
7
  6
CONTINUOUS
 90
10
 70
0
 10
8.4121775516
 20
5.7646122614
 10
8.3617415341
 20
5.7636779248
 10
8.314208878
 20
5.7627441926
 10
8.2703418684
 20
5.7618046285
 10
8.2312929816
 20
5.7608614478
 10
8.1983305914
 20
5.759924811
 10
8.171890331
 20
5.758987754
 10
8.1526036663
 20
5.7580522046
 10
8.1408429211
 20
5.7571156037
 10
8.1370622373
 20
5.7563713657
  0
LINE
  5
87D
100
AcDbEntity
  8
0
100
AcDbLine
 62
7
  6
CONTINUOUS
 10
8.4116379615
 20
5.7232638882
 11
8.5698053521
 21
5.7260846633
  0
LINE
  5
87E
100
AcDbEntity
  8
0
100
AcDbLine
 62
7
  6
CONTINUOUS
 10
8.5702778893
 20
5.7280617383
 11
8.4127168476
 21
5.7252519643
  0
LINE
  5
87F
100
AcDbEntity
  8
0
100
AcDbLine
 62
7
  6
CONTINUOUS
 10
8.4127168476
 20
5.7626535391
 11
8.5702778893
 21
5.7654633131
  0
LINE
  5
880
100
AcDbEntity
  8
0
100
AcDbLine
 62
7
  6
CONTINUOUS
 10
8.5697482646
 20
5.7674222107
 11
8.4121775516
 21
5.7646122614
  0
LINE
  5
881
100
AcDbEntity
  8
0
100
AcDbLine
 62
7
  6
CONTINUOUS
 10
8.84539147
 20
5.5792060114
 11
8.8133495959
 21
5.5977149368
  0
LINE
  5
882
100
AcDbEntity
  8
0
100
AcDbLine
 62
7
  6
CONTINUOUS
 10
8.1370622373
 20
5.9902396104
 11
8.1691041115
 21
5.9717306849
  0
LINE
  5
883
100
AcDbEntity
  8
0
100
AcDbLine
 62
7
  6
CONTINUOUS
 10
8.84539147
 20
5.6185760901
 11
8.8133495959
 21
5.6370850156
  0
LINE
  5
884
100
AcDbEntity
  8
0
100
AcDbLine
 62
7
  6
CONTINUOUS
 10
8.1370622373
 20
6.0296096891
 11
8.1691041115
 21
6.0111007636
  0
LINE
  5
885
100
AcDbEntity
  8
0
100
AcDbLine
 62
7
  6
CONTINUOUS
 10
8.84539147
 20
5.6579461688
 11
8.8133495959
 21
5.6764550943
  0
LINE
  5
886
100
AcDbEntity
  8
0
100
AcDbLine
 62
7
  6
CONTINUOUS
 10
8.1370622373
 20
6.0689797679
 11
8.1691041115
 21
6.0504708423
  0
LINE
  5
887
100
AcDbEntity
  8
0
100
AcDbLine
 62
7
  6
CONTINUOUS
 10
8.84539147
 20
5.5398359326
 11
8.8455575623
 21
5.5396440707
  0
LINE
  5
888
100
AcDbEntity
  8
0
100
AcDbLine
 62
7
  6
CONTINUOUS
 10
8.84539147
 20
5.5792060114
 11
8.8455575623
 21
5.5790141495
  0
LINE
  5
889
100
AcDbEntity
  8
0
100
AcDbLine
 62
7
  6
CONTINUOUS
 10
8.84539147
 20
5.6185760901
 11
8.8455575623
 21
5.6183842282
  0
LINE
  5
88A
100
AcDbEntity
  8
02___PRT_ALL_AXES
100
AcDbLine
 62
7
  6
CONTINUOUS
 10
8.8160300033
 20
4.5986991888
 11
8.7668174048
 21
4.4845259605
  0
LINE
  5
88B
100
AcDbEntity
  8
0
100
AcDbLine
 62
7
  6
CONTINUOUS
 10
8.2454857172
 20
4.2899645915
 11
8.2451638615
 21
4.2896440707
  0
LINE
  5
88C
100
AcDbEntity
  8
0
100
AcDbLine
 62
7
  6
CONTINUOUS
 10
8.2454857172
 20
4.2505945128
 11
8.2451638615
 21
4.250273992
  0
LINE
  5
88D
100
AcDbEntity
  8
0
100
AcDbLine
 62
7
  6
CONTINUOUS
 10
8.2454857172
 20
4.211224434
 11
8.2451638615
 21
4.2109039132
  0
LINE
  5
88E
100
AcDbEntity
  8
0
100
AcDbLine
 62
7
  6
CONTINUOUS
 10
8.8455575623
 20
5.8939747794
 11
8.8416112935
 21
5.8930387397
  0
LINE
  5
88F
100
AcDbEntity
  8
0
100
AcDbLine
 62
7
  6
CONTINUOUS
 10
8.136896145
 20
5.7542109998
 11
8.1408424336
 21
5.7551470418
  0
LINE
  5
890
100
AcDbEntity
  8
0
100
AcDbLine
 62
7
  6
CONTINUOUS
 10
8.8455575623
 20
5.9333448581
 11
8.8416108059
 21
5.9324087605
  0
LINE
  5
891
100
AcDbEntity
  8
0
100
AcDbLine
 62
7
  6
CONTINUOUS
 10
8.136896145
 20
5.7935810786
 11
8.1408429211
 21
5.7945171785
  0
LWPOLYLINE
  5
892
100
AcDbEntity
  8
0
100
AcDbPolyline
 62
7
  6
CONTINUOUS
 90
9
 70
0
 10
8.8129840725
 20
5.8730943366
 10
8.8092032328
 20
5.8723212361
 10
8.7974099835
 20
5.8713369841
 10
8.7780774894
 20
5.8703527321
 10
8.7516817806
 20
5.8693684802
 10
8.7188728071
 20
5.8683842282
 10
8.6804584347
 20
5.8673999762
 10
8.6373845528
 20
5.8664157243
 10
8.5907117832
 20
5.8654314723
  0
LWPOLYLINE
  5
893
100
AcDbEntity
  8
0
100
AcDbPolyline
 62
7
  6
CONTINUOUS
 90
9
 70
0
 10
8.8129840725
 20
5.9124644154
 10
8.8092032328
 20
5.9116913148
 10
8.7974099835
 20
5.9107070628
 10
8.7780774894
 20
5.9097228109
 10
8.7516817806
 20
5.9087385589
 10
8.7188728071
 20
5.9077543069
 10
8.6804584347
 20
5.906770055
 10
8.6373845528
 20
5.905785803
 10
8.5907117832
 20
5.904801551
  0
LWPOLYLINE
  5
894
100
AcDbEntity
  8
0
100
AcDbPolyline
 62
7
  6
CONTINUOUS
 90
9
 70
0
 10
8.1408429211
 20
5.7945171785
 10
8.1526036663
 20
5.7954537794
 10
8.171890331
 20
5.7963893288
 10
8.1983305914
 20
5.7973263858
 10
8.2312929816
 20
5.7982630226
 10
8.2703418684
 20
5.7992062033
 10
8.314208878
 20
5.8001457674
 10
8.3617415341
 20
5.8010794996
 10
8.4121775516
 20
5.8020138362
  0
LWPOLYLINE
  5
895
100
AcDbEntity
  8
0
100
AcDbPolyline
 62
7
  6
CONTINUOUS
 90
9
 70
0
 10
8.8416326012
 20
5.8536711962
 10
8.8297651163
 20
5.852726906
 10
8.8101293849
 20
5.851778791
 10
8.7834217667
 20
5.8508374113
 10
8.7504021825
 20
5.8499030517
 10
8.7115407228
 20
5.8489666701
 10
8.6678867725
 20
5.848032705
 10
8.6201755403
 20
5.847096088
 10
8.5698053521
 20
5.8461634035
  0
LWPOLYLINE
  5
896
100
AcDbEntity
  8
0
100
AcDbPolyline
 62
7
  6
CONTINUOUS
 90
9
 70
0
 10
8.1408222538
 20
5.8338847985
 10
8.1526960306
 20
5.8348293976
 10
8.1723384044
 20
5.8357776382
 10
8.1990490767
 20
5.8367189824
 10
8.2320683968
 20
5.8376532438
 10
8.2709281289
 20
5.8385895298
 10
8.3145792806
 20
5.8395234049
 10
8.3622863544
 20
5.8404599254
 10
8.4126502763
 20
5.8413924893
  0
LWPOLYLINE
  5
897
100
AcDbEntity
  8
0
100
AcDbPolyline
 62
7
  6
CONTINUOUS
 90
9
 70
0
 10
8.8416112935
 20
5.8930387397
 10
8.8298519688
 20
5.8921021943
 10
8.8105676906
 20
5.8911667053
 10
8.7841305407
 20
5.8902297055
 10
8.7511707716
 20
5.8892930968
 10
8.7121182089
 20
5.8883497987
 10
8.6682384673
 20
5.8874099607
 10
8.6207097995
 20
5.8864763133
 10
8.5702778893
 20
5.8855420532
  0
LWPOLYLINE
  5
898
100
AcDbEntity
  8
0
100
AcDbPolyline
 62
7
  6
CONTINUOUS
 90
9
 70
0
 10
8.3917419241
 20
5.8221243857
 10
8.3450691546
 20
5.8211401337
 10
8.3019952726
 20
5.8201558817
 10
8.2635809003
 20
5.8191716298
 10
8.2307719268
 20
5.8181873778
 10
8.204376218
 20
5.8172031258
 10
8.1850437238
 20
5.8162188739
 10
8.1732504745
 20
5.8152346219
 10
8.1694696348
 20
5.8144615213
  0
LWPOLYLINE
  5
899
100
AcDbEntity
  8
0
100
AcDbPolyline
 62
7
  6
CONTINUOUS
 90
9
 70
0
 10
8.3917419241
 20
5.8614944644
 10
8.3450691546
 20
5.8605102124
 10
8.3019952726
 20
5.8595259605
 10
8.2635809003
 20
5.8585417085
 10
8.2307719268
 20
5.8575574565
 10
8.204376218
 20
5.8565732046
 10
8.1850437238
 20
5.8555889526
 10
8.1732504745
 20
5.8546047006
 10
8.1694696348
 20
5.8538316001
  0
LINE
  5
89A
100
AcDbEntity
  8
0
100
AcDbLine
 62
7
  6
CONTINUOUS
 10
8.5907117832
 20
5.8260613935
 11
8.3917419241
 21
5.8221243857
  0
LINE
  5
89B
100
AcDbEntity
  8
0
100
AcDbLine
 62
7
  6
CONTINUOUS
 10
8.5907117832
 20
5.8654314723
 11
8.3917419241
 21
5.8614944644
  0
LWPOLYLINE
  5
89C
100
AcDbEntity
  8
0
100
AcDbPolyline
 62
7
  6
CONTINUOUS
 90
10
 70
0
 10
8.5697482646
 20
5.8048237855
 10
8.6202525138
 20
5.8057589668
 10
8.6682936719
 20
5.8067024263
 10
8.7124627346
 20
5.8076489332
 10
8.7513000613
 20
5.8085878008
 10
8.7841247289
 20
5.8095208614
 10
8.8105633929
 20
5.8104578685
 10
8.8298500489
 20
5.8113934176
 10
8.8416108059
 20
5.8123300204
 10
8.84539147
 20
5.8130742561
  0
LWPOLYLINE
  5
89D
100
AcDbEntity
  8
0
100
AcDbPolyline
 62
7
  6
CONTINUOUS
 90
10
 70
0
 10
8.4126502763
 20
5.8039909145
 10
8.3622863544
 20
5.8030583506
 10
8.3145792806
 20
5.8021218301
 10
8.2709281289
 20
5.801187955
 10
8.2320683968
 20
5.800251669
 10
8.1990490767
 20
5.7993174076
 10
8.1723384044
 20
5.7983760634
 10
8.1526960306
 20
5.7974278228
 10
8.1408222538
 20
5.7964832237
 10
8.1370622373
 20
5.7957414444
  0
LWPOLYLINE
  5
89E
100
AcDbEntity
  8
0
100
AcDbPolyline
 62
7
  6
CONTINUOUS
 90
10
 70
0
 10
8.5708388961
 20
5.8442136498
 10
8.6212690092
 20
5.8451483579
 10
8.668901742
 20
5.8460849264
 10
8.712451066
 20
5.8470187477
 10
8.7511931818
 20
5.8479550973
 10
8.7840685239
 20
5.8488891744
 10
8.8104302931
 20
5.8498225203
 10
8.8297548372
 20
5.8507577864
 10
8.8416018787
 20
5.8516990391
 10
8.84539147
 20
5.8524443348
  0
LWPOLYLINE
  5
89F
100
AcDbEntity
  8
0
100
AcDbPolyline
 62
7
  6
CONTINUOUS
 90
10
 70
0
 10
8.4116379615
 20
5.8433426283
 10
8.3612024083
 20
5.8424078367
 10
8.3135639042
 20
5.8414711756
 10
8.2700092567
 20
5.84053726
 10
8.231262803
 20
5.83960082
 10
8.1983838736
 20
5.8386666425
 10
8.1720177788
 20
5.8377331081
 10
8.1526974357
 20
5.8367979856
 10
8.1408521318
 20
5.8358568549
 10
8.1370622373
 20
5.8351115232
  0
LINE
  5
8A0
100
AcDbEntity
  8
0
100
AcDbLine
 62
7
  6
CONTINUOUS
 10
8.4121775516
 20
5.8020138362
 11
8.5697482646
 21
5.8048237855
  0
LINE
  5
8A1
100
AcDbEntity
  8
0
100
AcDbLine
 62
7
  6
CONTINUOUS
 10
8.5708388961
 20
5.806812075
 11
8.4126502763
 21
5.8039909145
  0
LINE
  5
8A2
100
AcDbEntity
  8
0
100
AcDbLine
 62
7
  6
CONTINUOUS
 10
8.4126502763
 20
5.8413924893
 11
8.5708388961
 21
5.8442136498
  0
LINE
  5
8A3
100
AcDbEntity
  8
0
100
AcDbLine
 62
7
  6
CONTINUOUS
 10
8.5698053521
 20
5.8461634035
 11
8.4116379615
 21
5.8433426283
  0
LINE
  5
8A4
100
AcDbEntity
  8
0
100
AcDbLine
 62
7
  6
CONTINUOUS
 10
8.84539147
 20
5.6973162476
 11
8.8133495959
 21
5.715825173
  0
LINE
  5
8A5
100
AcDbEntity
  8
0
100
AcDbLine
 62
7
  6
CONTINUOUS
 10
8.1370622373
 20
6.1083498466
 11
8.1691041115
 21
6.0898409211
  0
LINE
  5
8A6
100
AcDbEntity
  8
0
100
AcDbLine
 62
7
  6
CONTINUOUS
 10
8.84539147
 20
5.7366863263
 11
8.8133495959
 21
5.7551952518
  0
LINE
  5
8A7
100
AcDbEntity
  8
0
100
AcDbLine
 62
7
  6
CONTINUOUS
 10
8.1370622373
 20
6.1477199253
 11
8.1691041115
 21
6.1292109998
  0
LINE
  5
8A8
100
AcDbEntity
  8
0
100
AcDbLine
 62
7
  6
CONTINUOUS
 10
8.84539147
 20
5.6579461688
 11
8.8455575623
 21
5.6577543069
  0
LINE
  5
8A9
100
AcDbEntity
  8
0
100
AcDbLine
 62
7
  6
CONTINUOUS
 10
8.84539147
 20
5.6973162476
 11
8.8455575623
 21
5.6971243857
  0
LINE
  5
8AA
100
AcDbEntity
  8
0
100
AcDbLine
 62
7
  6
CONTINUOUS
 10
8.84539147
 20
5.7366863263
 11
8.8455575623
 21
5.7364944644
  0
LINE
  5
8AB
100
AcDbEntity
  8
0
100
AcDbLine
 62
7
  6
CONTINUOUS
 10
8.2454857172
 20
4.1718543553
 11
8.2451638615
 21
4.1715338345
  0
LINE
  5
8AC
100
AcDbEntity
  8
0
100
AcDbLine
 62
7
  6
CONTINUOUS
 10
8.2451638615
 20
4.1321637555
 11
8.2454857172
 21
4.1324842765
  0
LINE
  5
8AD
100
AcDbEntity
  8
0
100
AcDbLine
 62
7
  6
CONTINUOUS
 10
8.8455575623
 20
6.0120850156
 11
8.8416326012
 21
6.0111515111
  0
LINE
  5
8AE
100
AcDbEntity
  8
0
100
AcDbLine
 62
7
  6
CONTINUOUS
 10
8.136896145
 20
5.8329511573
 11
8.1408222538
 21
5.8338847985
  0
LINE
  5
8AF
100
AcDbEntity
  8
0
100
AcDbLine
 62
7
  6
CONTINUOUS
 10
8.8455575623
 20
6.0514550943
 11
8.8416112935
 21
6.0505190547
  0
LINE
  5
8B0
100
AcDbEntity
  8
0
100
AcDbLine
 62
7
  6
CONTINUOUS
 10
8.8455575623
 20
5.9727149369
 11
8.8416018787
 21
5.9717777792
  0
LINE
  5
8B1
100
AcDbEntity
  8
0
100
AcDbLine
 62
7
  6
CONTINUOUS
 10
8.136896145
 20
5.8723212361
 11
8.1408521318
 21
5.8732584297
  0
LWPOLYLINE
  5
8B2
100
AcDbEntity
  8
0
100
AcDbPolyline
 62
7
  6
CONTINUOUS
 90
9
 70
0
 10
8.8129840725
 20
5.9518344941
 10
8.8092032328
 20
5.9510613935
 10
8.7974099835
 20
5.9500771416
 10
8.7780774894
 20
5.9490928896
 10
8.7516817806
 20
5.9481086376
 10
8.7188728071
 20
5.9471243857
 10
8.6804584347
 20
5.9461401337
 10
8.6373845528
 20
5.9451558817
 10
8.5907117832
 20
5.9441716298
  0
LWPOLYLINE
  5
8B3
100
AcDbEntity
  8
0
100
AcDbPolyline
 62
7
  6
CONTINUOUS
 90
9
 70
0
 10
8.8129840725
 20
5.9912045729
 10
8.8092032328
 20
5.9904314723
 10
8.7974099835
 20
5.9894472203
 10
8.7780774894
 20
5.9884629684
 10
8.7516817806
 20
5.9874787164
 10
8.7188728071
 20
5.9864944644
 10
8.6804584347
 20
5.9855102124
 10
8.6373845528
 20
5.9845259605
 10
8.5907117832
 20
5.9835417085
  0
LWPOLYLINE
  5
8B4
100
AcDbEntity
  8
0
100
AcDbPolyline
 62
7
  6
CONTINUOUS
 90
9
 70
0
 10
8.8129840725
 20
6.0305746516
 10
8.8092032328
 20
6.029801551
 10
8.7974099835
 20
6.0288172991
 10
8.7780774894
 20
6.0278330471
 10
8.7516817806
 20
6.0268487951
 10
8.7188728071
 20
6.0258645432
 10
8.6804584347
 20
6.0248802912
 10
8.6373845528
 20
6.0238960392
 10
8.5907117832
 20
6.0229117872
  0
LWPOLYLINE
  5
8B5
100
AcDbEntity
  8
0
100
AcDbPolyline
 62
7
  6
CONTINUOUS
 90
9
 70
0
 10
8.8416108059
 20
5.9324087605
 10
8.8298500489
 20
5.9314721577
 10
8.8105633929
 20
5.9305366086
 10
8.7841247289
 20
5.9295996016
 10
8.7513000613
 20
5.9286665409
 10
8.7124627346
 20
5.9277276733
 10
8.6682936719
 20
5.9267811664
 10
8.6202525138
 20
5.925837707
 10
8.5697482646
 20
5.9249025257
  0
LWPOLYLINE
  5
8B6
100
AcDbEntity
  8
0
100
AcDbPolyline
 62
7
  6
CONTINUOUS
 90
9
 70
0
 10
8.1408424336
 20
5.9126273568
 10
8.1526017464
 20
5.9135639003
 10
8.1718861211
 20
5.9144993932
 10
8.1983214619
 20
5.9154363351
 10
8.2311411415
 20
5.9163693064
 10
8.2699917782
 20
5.9173085178
 10
8.3141711259
 20
5.9182552329
 10
8.3622151726
 20
5.9191987314
 10
8.4127168476
 20
5.9201338541
  0
LWPOLYLINE
  5
8B7
100
AcDbEntity
  8
0
100
AcDbPolyline
 62
7
  6
CONTINUOUS
 90
9
 70
0
 10
8.1408521318
 20
5.8732584297
 10
8.1526974357
 20
5.8741995604
 10
8.1720177788
 20
5.8751346829
 10
8.1983838736
 20
5.8760682173
 10
8.231262803
 20
5.8770023948
 10
8.2700092567
 20
5.8779388348
 10
8.3135639042
 20
5.8788727504
 10
8.3612024083
 20
5.8798094115
 10
8.4116379615
 20
5.8807442031
  0
LWPOLYLINE
  5
8B8
100
AcDbEntity
  8
0
100
AcDbPolyline
 62
7
  6
CONTINUOUS
 90
9
 70
0
 10
8.8416018787
 20
5.9717777792
 10
8.8297548372
 20
5.9708365266
 10
8.8104302931
 20
5.9699012604
 10
8.7840685239
 20
5.9689679145
 10
8.7511931818
 20
5.9680338374
 10
8.712451066
 20
5.9670974879
 10
8.668901742
 20
5.9661636665
 10
8.6212690092
 20
5.9652270981
 10
8.5708388961
 20
5.9642923899
  0
LWPOLYLINE
  5
8B9
100
AcDbEntity
  8
0
100
AcDbPolyline
 62
7
  6
CONTINUOUS
 90
9
 70
0
 10
8.3917419241
 20
5.9008645432
 10
8.3450691546
 20
5.8998802912
 10
8.3019952726
 20
5.8988960392
 10
8.2635809003
 20
5.8979117872
 10
8.2307719268
 20
5.8969275353
 10
8.204376218
 20
5.8959432833
 10
8.1850437238
 20
5.8949590313
 10
8.1732504745
 20
5.8939747794
 10
8.1694696348
 20
5.8932016788
  0
LWPOLYLINE
  5
8BA
100
AcDbEntity
  8
0
100
AcDbPolyline
 62
7
  6
CONTINUOUS
 90
9
 70
0
 10
8.3917419241
 20
5.9402346219
 10
8.3450691546
 20
5.9392503699
 10
8.3019952726
 20
5.938266118
 10
8.2635809003
 20
5.937281866
 10
8.2307719268
 20
5.936297614
 10
8.204376218
 20
5.9353133621
 10
8.1850437238
 20
5.9343291101
 10
8.1732504745
 20
5.9333448581
 10
8.1694696348
 20
5.9325717575
  0
LINE
  5
8BB
100
AcDbEntity
  8
0
100
AcDbLine
 62
7
  6
CONTINUOUS
 10
8.5907117832
 20
5.904801551
 11
8.3917419241
 21
5.9008645432
  0
LINE
  5
8BC
100
AcDbEntity
  8
0
100
AcDbLine
 62
7
  6
CONTINUOUS
 10
8.5907117832
 20
5.9441716298
 11
8.3917419241
 21
5.9402346219
  0
LWPOLYLINE
  5
8BD
100
AcDbEntity
  8
0
100
AcDbPolyline
 62
7
  6
CONTINUOUS
 90
10
 70
0
 10
8.5698053521
 20
5.8835649783
 10
8.6201755403
 20
5.8844976629
 10
8.6678867725
 20
5.8854342798
 10
8.7115407228
 20
5.8863682449
 10
8.7504021825
 20
5.8873046265
 10
8.7834217667
 20
5.8882389861
 10
8.8101293849
 20
5.8891803658
 10
8.8297651163
 20
5.8901284808
 10
8.8416326012
 20
5.891072771
 10
8.84539147
 20
5.8918144135
  0
LWPOLYLINE
  5
8BE
100
AcDbEntity
  8
0
100
AcDbPolyline
 62
7
  6
CONTINUOUS
 90
10
 70
0
 10
8.4127168476
 20
5.8827322793
 10
8.3622151726
 20
5.8817971566
 10
8.3141711259
 20
5.8808536581
 10
8.2699917782
 20
5.879906943
 10
8.2311411415
 20
5.8789677316
 10
8.1983214619
 20
5.8780347603
 10
8.1718861211
 20
5.8770978184
 10
8.1526017464
 20
5.8761623255
 10
8.1408424336
 20
5.875225782
 10
8.1370622373
 20
5.8744816019
  0
LWPOLYLINE
  5
8BF
100
AcDbEntity
  8
0
100
AcDbPolyline
 62
7
  6
CONTINUOUS
 90
10
 70
0
 10
8.5702778893
 20
5.9229436281
 10
8.6207097995
 20
5.9238778881
 10
8.6682384673
 20
5.9248115355
 10
8.7121182089
 20
5.9257513735
 10
8.7511707716
 20
5.9266946716
 10
8.7841305407
 20
5.9276312803
 10
8.8105676906
 20
5.9285682801
 10
8.8298519688
 20
5.9295037691
 10
8.8416112935
 20
5.9304403145
 10
8.84539147
 20
5.9311844923
  0
LWPOLYLINE
  5
8C0
100
AcDbEntity
  8
0
100
AcDbPolyline
 62
7
  6
CONTINUOUS
 90
10
 70
0
 10
8.4121775516
 20
5.9220925763
 10
8.3617415341
 20
5.9211582397
 10
8.314208878
 20
5.9202245075
 10
8.2703418684
 20
5.9192849435
 10
8.2312929816
 20
5.9183417628
 10
8.1983305914
 20
5.917405126
 10
8.171890331
 20
5.9164680689
 10
8.1526036663
 20
5.9155325196
 10
8.1408429211
 20
5.9145959187
 10
8.1370622373
 20
5.9138516807
  0
LINE
  5
8C1
100
AcDbEntity
  8
0
100
AcDbLine
 62
7
  6
CONTINUOUS
 10
8.4116379615
 20
5.8807442031
 11
8.5698053521
 21
5.8835649783
  0
LINE
  5
8C2
100
AcDbEntity
  8
0
100
AcDbLine
 62
7
  6
CONTINUOUS
 10
8.5702778893
 20
5.8855420532
 11
8.4127168476
 21
5.8827322793
  0
LINE
  5
8C3
100
AcDbEntity
  8
0
100
AcDbLine
 62
7
  6
CONTINUOUS
 10
8.4127168476
 20
5.9201338541
 11
8.5702778893
 21
5.9229436281
  0
LINE
  5
8C4
100
AcDbEntity
  8
0
100
AcDbLine
 62
7
  6
CONTINUOUS
 10
8.5697482646
 20
5.9249025257
 11
8.4121775516
 21
5.9220925763
  0
LINE
  5
8C5
100
AcDbEntity
  8
0
100
AcDbLine
 62
7
  6
CONTINUOUS
 10
8.84539147
 20
5.7760564051
 11
8.8133495959
 21
5.7945653305
  0
LINE
  5
8C6
100
AcDbEntity
  8
0
100
AcDbLine
 62
7
  6
CONTINUOUS
 10
8.1537694443
 20
6.1774393463
 11
8.1691041115
 21
6.1685810786
  0
LINE
  5
8C7
100
AcDbEntity
  8
0
100
AcDbLine
 62
7
  6
CONTINUOUS
 10
8.84539147
 20
5.8154264838
 11
8.8133495959
 21
5.8339354093
  0
LINE
  5
8C8
100
AcDbEntity
  8
0
100
AcDbLine
 62
7
  6
CONTINUOUS
 10
8.84539147
 20
5.7760564051
 11
8.8455575623
 21
5.7758645432
  0
LINE
  5
8C9
100
AcDbEntity
  8
0
100
AcDbLine
 62
7
  6
CONTINUOUS
 10
8.84539147
 20
5.8154264838
 11
8.8455575623
 21
5.8152346219
  0
LINE
  5
8CA
100
AcDbEntity
  8
0
100
AcDbLine
 62
7
  6
CONTINUOUS
 10
8.84539147
 20
5.8547965625
 11
8.8455575623
 21
5.8546047006
  0
LINE
  5
8CB
100
AcDbEntity
  8
0
100
AcDbLine
 62
7
  6
CONTINUOUS
 10
8.84539147
 20
5.8941666413
 11
8.8455575623
 21
5.8939747794
  0
LINE
  5
8CC
100
AcDbEntity
  8
0
100
AcDbLine
 62
7
  6
CONTINUOUS
 10
8.2831418996
 20
4.3874632157
 11
8.2454857172
 21
4.368704749
  0
LINE
  5
8CD
100
AcDbEntity
  8
0
100
AcDbLine
 62
7
  6
CONTINUOUS
 10
8.2831418996
 20
4.348093137
 11
8.2454857172
 21
4.3293346702
  0
LWPOLYLINE
  5
8CE
100
AcDbEntity
  8
0
100
AcDbPolyline
 62
7
  6
CONTINUOUS
 90
9
 70
0
 10
8.2451638615
 20
4.405785803
 10
8.2481783314
 20
4.4067676145
 10
8.257292232
 20
4.4077613151
 10
8.2722664511
 20
4.4087544118
 10
8.2924394841
 20
4.4097350019
 10
8.3172509875
 20
4.410707673
 10
8.3466114117
 20
4.4116918422
 10
8.3796548667
 20
4.412679518
 10
8.4151481771
 20
4.4136587201
  0
LINE
  5
8CF
100
AcDbEntity
  8
0
100
AcDbLine
 62
7
  6
CONTINUOUS
 10
8.136896145
 20
5.9116913148
 11
8.1408424336
 21
5.9126273568
  0
LINE
  5
8D0
100
AcDbEntity
  8
0
100
AcDbLine
 62
7
  6
CONTINUOUS
 10
8.8455575623
 20
6.0908251731
 11
8.8416108059
 21
6.0898890755
  0
LINE
  5
8D1
100
AcDbEntity
  8
0
100
AcDbLine
 62
7
  6
CONTINUOUS
 10
8.136896145
 20
5.9510613935
 11
8.1408429211
 21
5.9519974935
  0
LINE
  5
8D2
100
AcDbEntity
  8
0
100
AcDbLine
 62
7
  6
CONTINUOUS
 10
8.8455575623
 20
6.1301952518
 11
8.8416018787
 21
6.1292580942
  0
LWPOLYLINE
  5
8D3
100
AcDbEntity
  8
0
100
AcDbPolyline
 62
7
  6
CONTINUOUS
 90
9
 70
0
 10
8.8129840725
 20
6.0699447303
 10
8.8092032328
 20
6.0691716298
 10
8.7974099835
 20
6.0681873778
 10
8.7780774894
 20
6.0672031258
 10
8.7516817806
 20
6.0662188739
 10
8.7188728071
 20
6.0652346219
 10
8.6804584347
 20
6.0642503699
 10
8.6373845528
 20
6.063266118
 10
8.5907117832
 20
6.062281866
  0
LWPOLYLINE
  5
8D4
100
AcDbEntity
  8
0
100
AcDbPolyline
 62
7
  6
CONTINUOUS
 90
9
 70
0
 10
8.8129840725
 20
6.1093148091
 10
8.8092032328
 20
6.1085417085
 10
8.7974099835
 20
6.1075574565
 10
8.7780774894
 20
6.1065732046
 10
8.7516817806
 20
6.1055889526
 10
8.7188728071
 20
6.1046047006
 10
8.6804584347
 20
6.1036204487
 10
8.6373845528
 20
6.1026361967
 10
8.5907117832
 20
6.1016519447
  0
LWPOLYLINE
  5
8D5
100
AcDbEntity
  8
0
100
AcDbPolyline
 62
7
  6
CONTINUOUS
 90
9
 70
0
 10
8.1408429211
 20
5.9519974935
 10
8.1526036663
 20
5.9529340944
 10
8.171890331
 20
5.9538696437
 10
8.1983305914
 20
5.9548067008
 10
8.2312929816
 20
5.9557433376
 10
8.2703418684
 20
5.9566865183
 10
8.314208878
 20
5.9576260823
 10
8.3617415341
 20
5.9585598145
 10
8.4121775516
 20
5.9594941511
  0
LWPOLYLINE
  5
8D6
100
AcDbEntity
  8
0
100
AcDbPolyline
 62
7
  6
CONTINUOUS
 90
9
 70
0
 10
8.8416326012
 20
6.0111515111
 10
8.8297651163
 20
6.0102072209
 10
8.8101293849
 20
6.009259106
 10
8.7834217667
 20
6.0083177262
 10
8.7504021825
 20
6.0073833667
 10
8.7115407228
 20
6.006446985
 10
8.6678867725
 20
6.0055130199
 10
8.6201755403
 20
6.004576403
 10
8.5698053521
 20
6.0036437185
  0
LWPOLYLINE
  5
8D7
100
AcDbEntity
  8
0
100
AcDbPolyline
 62
7
  6
CONTINUOUS
 90
9
 70
0
 10
8.1408222538
 20
5.9913651135
 10
8.1526960306
 20
5.9923097125
 10
8.1723384044
 20
5.9932579532
 10
8.1990490767
 20
5.9941992973
 10
8.2320683968
 20
5.9951335588
 10
8.2709281289
 20
5.9960698448
 10
8.3145792806
 20
5.9970037198
 10
8.3622863544
 20
5.9979402403
 10
8.4126502763
 20
5.9988728043
  0
LWPOLYLINE
  5
8D8
100
AcDbEntity
  8
0
100
AcDbPolyline
 62
7
  6
CONTINUOUS
 90
9
 70
0
 10
8.8416112935
 20
6.0505190547
 10
8.8298519688
 20
6.0495825093
 10
8.8105676906
 20
6.0486470202
 10
8.7841305407
 20
6.0477100204
 10
8.7511707716
 20
6.0467734117
 10
8.7121182089
 20
6.0458301137
 10
8.6682384673
 20
6.0448902757
 10
8.6207097995
 20
6.0439566283
 10
8.5702778893
 20
6.0430223682
  0
LWPOLYLINE
  5
8D9
100
AcDbEntity
  8
0
100
AcDbPolyline
 62
7
  6
CONTINUOUS
 90
9
 70
0
 10
8.3917419241
 20
5.9796047006
 10
8.3450691546
 20
5.9786204487
 10
8.3019952726
 20
5.9776361967
 10
8.2635809003
 20
5.9766519447
 10
8.2307719268
 20
5.9756676928
 10
8.204376218
 20
5.9746834408
 10
8.1850437238
 20
5.9736991888
 10
8.1732504745
 20
5.9727149369
 10
8.1694696348
 20
5.9719418363
  0
LWPOLYLINE
  5
8DA
100
AcDbEntity
  8
0
100
AcDbPolyline
 62
7
  6
CONTINUOUS
 90
9
 70
0
 10
8.3917419241
 20
6.0189747794
 10
8.3450691546
 20
6.0179905274
 10
8.3019952726
 20
6.0170062754
 10
8.2635809003
 20
6.0160220235
 10
8.2307719268
 20
6.0150377715
 10
8.204376218
 20
6.0140535195
 10
8.1850437238
 20
6.0130692676
 10
8.1732504745
 20
6.0120850156
 10
8.1694696348
 20
6.011311915
  0
LINE
  5
8DB
100
AcDbEntity
  8
0
100
AcDbLine
 62
7
  6
CONTINUOUS
 10
8.5907117832
 20
5.9835417085
 11
8.3917419241
 21
5.9796047006
  0
LINE
  5
8DC
100
AcDbEntity
  8
0
100
AcDbLine
 62
7
  6
CONTINUOUS
 10
8.5907117832
 20
6.0229117872
 11
8.3917419241
 21
6.0189747794
  0
LWPOLYLINE
  5
8DD
100
AcDbEntity
  8
0
100
AcDbPolyline
 62
7
  6
CONTINUOUS
 90
10
 70
0
 10
8.5697482646
 20
5.9623041005
 10
8.6202525138
 20
5.9632392818
 10
8.6682936719
 20
5.9641827412
 10
8.7124627346
 20
5.9651292481
 10
8.7513000613
 20
5.9660681157
 10
8.7841247289
 20
5.9670011764
 10
8.8105633929
 20
5.9679381834
 10
8.8298500489
 20
5.9688737325
 10
8.8416108059
 20
5.9698103353
 10
8.84539147
 20
5.970554571
  0
LWPOLYLINE
  5
8DE
100
AcDbEntity
  8
0
100
AcDbPolyline
 62
7
  6
CONTINUOUS
 90
10
 70
0
 10
8.4126502763
 20
5.9614712295
 10
8.3622863544
 20
5.9605386655
 10
8.3145792806
 20
5.959602145
 10
8.2709281289
 20
5.95866827
 10
8.2320683968
 20
5.957731984
 10
8.1990490767
 20
5.9567977225
 10
8.1723384044
 20
5.9558563784
 10
8.1526960306
 20
5.9549081377
 10
8.1408222538
 20
5.9539635387
 10
8.1370622373
 20
5.9532217594
  0
LWPOLYLINE
  5
8DF
100
AcDbEntity
  8
0
100
AcDbPolyline
 62
7
  6
CONTINUOUS
 90
10
 70
0
 10
8.5708388961
 20
6.0016939647
 10
8.6212690092
 20
6.0026286729
 10
8.668901742
 20
6.0035652413
 10
8.712451066
 20
6.0044990627
 10
8.7511931818
 20
6.0054354122
 10
8.7840685239
 20
6.0063694893
 10
8.8104302931
 20
6.0073028352
 10
8.8297548372
 20
6.0082381014
 10
8.8416018787
 20
6.009179354
 10
8.84539147
 20
6.0099246498
  0
LWPOLYLINE
  5
8E0
100
AcDbEntity
  8
0
100
AcDbPolyline
 62
7
  6
CONTINUOUS
 90
10
 70
0
 10
8.4116379615
 20
6.0008229433
 10
8.3612024083
 20
5.9998881517
 10
8.3135639042
 20
5.9989514906
 10
8.2700092567
 20
5.9980175749
 10
8.231262803
 20
5.9970811349
 10
8.1983838736
 20
5.9961469574
 10
8.1720177788
 20
5.9952134231
 10
8.1526974357
 20
5.9942783006
 10
8.1408521318
 20
5.9933371699
 10
8.1370622373
 20
5.9925918381
  0
LINE
  5
8E1
100
AcDbEntity
  8
0
100
AcDbLine
 62
7
  6
CONTINUOUS
 10
8.4121775516
 20
5.9594941511
 11
8.5697482646
 21
5.9623041005
  0
LINE
  5
8E2
100
AcDbEntity
  8
0
100
AcDbLine
 62
7
  6
CONTINUOUS
 10
8.5708388961
 20
5.9642923899
 11
8.4126502763
 21
5.9614712295
  0
LINE
  5
8E3
100
AcDbEntity
  8
0
100
AcDbLine
 62
7
  6
CONTINUOUS
 10
8.4126502763
 20
5.9988728043
 11
8.5708388961
 21
6.0016939647
  0
LINE
  5
8E4
100
AcDbEntity
  8
0
100
AcDbLine
 62
7
  6
CONTINUOUS
 10
8.5698053521
 20
6.0036437185
 11
8.4116379615
 21
6.0008229433
  0
LINE
  5
8E5
100
AcDbEntity
  8
0
100
AcDbLine
 62
7
  6
CONTINUOUS
 10
8.84539147
 20
5.8547965625
 11
8.8133495959
 21
5.873305488
  0
LINE
  5
8E6
100
AcDbEntity
  8
0
100
AcDbLine
 62
7
  6
CONTINUOUS
 10
8.84539147
 20
5.8941666413
 11
8.8133495959
 21
5.9126755667
  0
LINE
  5
8E7
100
AcDbEntity
  8
0
100
AcDbLine
 62
7
  6
CONTINUOUS
 10
8.84539147
 20
5.93353672
 11
8.8133495959
 21
5.9520456455
  0
LINE
  5
8E8
100
AcDbEntity
  8
0
100
AcDbLine
 62
7
  6
CONTINUOUS
 10
8.84539147
 20
5.93353672
 11
8.8455575623
 21
5.9333448581
  0
LINE
  5
8E9
100
AcDbEntity
  8
0
100
AcDbLine
 62
7
  6
CONTINUOUS
 10
8.84539147
 20
5.9729067988
 11
8.8455575623
 21
5.9727149369
  0
LINE
  5
8EA
100
AcDbEntity
  8
0
100
AcDbLine
 62
7
  6
CONTINUOUS
 10
8.84539147
 20
6.0122768775
 11
8.8455575623
 21
6.0120850156
  0
LINE
  5
8EB
100
AcDbEntity
  8
0
100
AcDbLine
 62
7
  6
CONTINUOUS
 10
8.73696799
 20
4.4251503215
 11
8.7372898458
 21
4.4254708424
  0
LINE
  5
8EC
100
AcDbEntity
  8
0
100
AcDbLine
 62
7
  6
CONTINUOUS
 10
8.73696799
 20
4.3857802428
 11
8.7372898458
 21
4.3861007636
  0
LINE
  5
8ED
100
AcDbEntity
  8
0
100
AcDbLine
 62
7
  6
CONTINUOUS
 10
8.73696799
 20
4.3464101641
 11
8.7372898458
 21
4.3467306849
  0
LINE
  5
8EE
100
AcDbEntity
  8
0
100
AcDbLine
 62
7
  6
CONTINUOUS
 10
8.2831418996
 20
4.3087230583
 11
8.2454857172
 21
4.2899645915
  0
LINE
  5
8EF
100
AcDbEntity
  8
0
100
AcDbLine
 62
7
  6
CONTINUOUS
 10
8.2831418996
 20
4.2693529795
 11
8.2454857172
 21
4.2505945128
  0
LINE
  5
8F0
100
AcDbEntity
  8
0
100
AcDbLine
 62
7
  6
CONTINUOUS
 10
8.2451638615
 20
4.3270456455
 11
8.2481377916
 21
4.3280208193
  0
LINE
  5
8F1
100
AcDbEntity
  8
0
100
AcDbLine
 62
7
  6
CONTINUOUS
 10
8.2451638615
 20
4.3664157243
 11
8.2481644565
 21
4.367395269
  0
LWPOLYLINE
  5
8F2
100
AcDbEntity
  8
0
100
AcDbPolyline
 62
7
  6
CONTINUOUS
 90
10
 70
0
 10
8.84539147
 20
6.1674049647
 10
8.8437422323
 20
6.1669622846
 10
8.8342523096
 20
6.1660097471
 10
8.8168506463
 20
6.1650572171
 10
8.7919387189
 20
6.1641046922
 10
8.7600910461
 20
6.1631521677
 10
8.7220420468
 20
6.1621996403
 10
8.6786696183
 20
6.1612471176
 10
8.6309737688
 20
6.1602945915
 10
8.5800549453
 20
6.1593420695
  0
LINE
  5
8F3
100
AcDbEntity
  8
0
100
AcDbLine
 62
7
  6
CONTINUOUS
 10
8.136896145
 20
5.9904314723
 11
8.1408222538
 21
5.9913651135
  0
LINE
  5
8F4
100
AcDbEntity
  8
0
100
AcDbLine
 62
7
  6
CONTINUOUS
 10
8.136896145
 20
6.029801551
 11
8.1408521318
 21
6.0307387447
  0
LWPOLYLINE
  5
8F5
100
AcDbEntity
  8
0
100
AcDbPolyline
 62
7
  6
CONTINUOUS
 90
9
 70
0
 10
8.8129840725
 20
6.1486848878
 10
8.8092032328
 20
6.1479117872
 10
8.7974099835
 20
6.1469275353
 10
8.7780774894
 20
6.1459432833
 10
8.7516817806
 20
6.1449590313
 10
8.7188728071
 20
6.1439747794
 10
8.6804584347
 20
6.1429905274
 10
8.6373845528
 20
6.1420062754
 10
8.5907117832
 20
6.1410220235
  0
LWPOLYLINE
  5
8F6
100
AcDbEntity
  8
0
100
AcDbPolyline
 62
7
  6
CONTINUOUS
 90
9
 70
0
 10
8.8416108059
 20
6.0898890755
 10
8.8298500489
 20
6.0889524727
 10
8.8105633929
 20
6.0880169236
 10
8.7841247289
 20
6.0870799165
 10
8.7513000613
 20
6.0861468559
 10
8.7124627346
 20
6.0852079883
 10
8.6682936719
 20
6.0842614814
 10
8.6202525138
 20
6.083318022
 10
8.5697482646
 20
6.0823828406
  0
LWPOLYLINE
  5
8F7
100
AcDbEntity
  8
0
100
AcDbPolyline
 62
7
  6
CONTINUOUS
 90
9
 70
0
 10
8.1408424336
 20
6.0701076718
 10
8.1526017464
 20
6.0710442153
 10
8.1718861211
 20
6.0719797081
 10
8.1983214619
 20
6.0729166501
 10
8.2311411415
 20
6.0738496214
 10
8.2699917782
 20
6.0747888328
 10
8.3141711259
 20
6.0757355479
 10
8.3622151726
 20
6.0766790463
 10
8.4127168476
 20
6.077614169
  0
LWPOLYLINE
  5
8F8
100
AcDbEntity
  8
0
100
AcDbPolyline
 62
7
  6
CONTINUOUS
 90
9
 70
0
 10
8.1408521318
 20
6.0307387447
 10
8.1526974357
 20
6.0316798754
 10
8.1720177788
 20
6.0326149979
 10
8.1983838736
 20
6.0335485322
 10
8.231262803
 20
6.0344827097
 10
8.2700092567
 20
6.0354191497
 10
8.3135639042
 20
6.0363530654
 10
8.3612024083
 20
6.0372897265
 10
8.4116379615
 20
6.0382245181
  0
LWPOLYLINE
  5
8F9
100
AcDbEntity
  8
0
100
AcDbPolyline
 62
7
  6
CONTINUOUS
 90
9
 70
0
 10
8.8416018787
 20
6.1292580942
 10
8.8297548372
 20
6.1283168415
 10
8.8104302931
 20
6.1273815754
 10
8.7840685239
 20
6.1264482295
 10
8.7511931818
 20
6.1255141524
 10
8.712451066
 20
6.1245778029
 10
8.668901742
 20
6.1236439815
 10
8.6212690092
 20
6.122707413
 10
8.5708388961
 20
6.1217727049
  0
LWPOLYLINE
  5
8FA
100
AcDbEntity
  8
0
100
AcDbPolyline
 62
7
  6
CONTINUOUS
 90
9
 70
0
 10
8.3917419241
 20
6.0583448581
 10
8.3450691546
 20
6.0573606061
 10
8.3019952726
 20
6.0563763542
 10
8.2635809003
 20
6.0553921022
 10
8.2307719268
 20
6.0544078502
 10
8.204376218
 20
6.0534235983
 10
8.1850437238
 20
6.0524393463
 10
8.1732504745
 20
6.0514550943
 10
8.1694696348
 20
6.0506819938
  0
LWPOLYLINE
  5
8FB
100
AcDbEntity
  8
0
100
AcDbPolyline
 62
7
  6
CONTINUOUS
 90
9
 70
0
 10
8.3917419241
 20
6.0977149369
 10
8.3450691546
 20
6.0967306849
 10
8.3019952726
 20
6.0957464329
 10
8.2635809003
 20
6.094762181
 10
8.2307719268
 20
6.093777929
 10
8.204376218
 20
6.092793677
 10
8.1850437238
 20
6.091809425
 10
8.1732504745
 20
6.0908251731
 10
8.1694696348
 20
6.0900520725
  0
LINE
  5
8FC
100
AcDbEntity
  8
0
100
AcDbLine
 62
7
  6
CONTINUOUS
 10
8.5907117832
 20
6.062281866
 11
8.3917419241
 21
6.0583448581
  0
LINE
  5
8FD
100
AcDbEntity
  8
0
100
AcDbLine
 62
7
  6
CONTINUOUS
 10
8.5907117832
 20
6.1016519447
 11
8.3917419241
 21
6.0977149369
  0
LWPOLYLINE
  5
8FE
100
AcDbEntity
  8
0
100
AcDbPolyline
 62
7
  6
CONTINUOUS
 90
10
 70
0
 10
8.5698053521
 20
6.0410452933
 10
8.6201755403
 20
6.0419779778
 10
8.6678867725
 20
6.0429145947
 10
8.7115407228
 20
6.0438485598
 10
8.7504021825
 20
6.0447849415
 10
8.7834217667
 20
6.045719301
 10
8.8101293849
 20
6.0466606808
 10
8.8297651163
 20
6.0476087958
 10
8.8416326012
 20
6.0485530859
 10
8.84539147
 20
6.0492947285
  0
LWPOLYLINE
  5
8FF
100
AcDbEntity
  8
0
100
AcDbPolyline
 62
7
  6
CONTINUOUS
 90
10
 70
0
 10
8.4127168476
 20
6.0402125942
 10
8.3622151726
 20
6.0392774715
 10
8.3141711259
 20
6.0383339731
 10
8.2699917782
 20
6.037387258
 10
8.2311411415
 20
6.0364480466
 10
8.1983214619
 20
6.0355150753
 10
8.1718861211
 20
6.0345781333
 10
8.1526017464
 20
6.0336426405
 10
8.1408424336
 20
6.032706097
 10
8.1370622373
 20
6.0319619169
  0
LWPOLYLINE
  5
900
100
AcDbEntity
  8
0
100
AcDbPolyline
 62
7
  6
CONTINUOUS
 90
10
 70
0
 10
8.5702778893
 20
6.080423943
 10
8.6207097995
 20
6.0813582031
 10
8.6682384673
 20
6.0822918505
 10
8.7121182089
 20
6.0832316885
 10
8.7511707716
 20
6.0841749865
 10
8.7841305407
 20
6.0851115952
 10
8.8105676906
 20
6.086048595
 10
8.8298519688
 20
6.0869840841
 10
8.8416112935
 20
6.0879206295
 10
8.84539147
 20
6.0886648072
  0
LWPOLYLINE
  5
901
100
AcDbEntity
  8
0
100
AcDbPolyline
 62
7
  6
CONTINUOUS
 90
10
 70
0
 10
8.4121775516
 20
6.0795728913
 10
8.3617415341
 20
6.0786385547
 10
8.314208878
 20
6.0777048225
 10
8.2703418684
 20
6.0767652584
 10
8.2312929816
 20
6.0758220777
 10
8.1983305914
 20
6.0748854409
 10
8.171890331
 20
6.0739483839
 10
8.1526036663
 20
6.0730128345
 10
8.1408429211
 20
6.0720762336
 10
8.1370622373
 20
6.0713319956
  0
LINE
  5
902
100
AcDbEntity
  8
0
100
AcDbLine
 62
7
  6
CONTINUOUS
 10
8.4116379615
 20
6.0382245181
 11
8.5698053521
 21
6.0410452933
  0
LINE
  5
903
100
AcDbEntity
  8
0
100
AcDbLine
 62
7
  6
CONTINUOUS
 10
8.5702778893
 20
6.0430223682
 11
8.4127168476
 21
6.0402125942
  0
LINE
  5
904
100
AcDbEntity
  8
0
100
AcDbLine
 62
7
  6
CONTINUOUS
 10
8.4127168476
 20
6.077614169
 11
8.5702778893
 21
6.080423943
  0
LINE
  5
905
100
AcDbEntity
  8
0
100
AcDbLine
 62
7
  6
CONTINUOUS
 10
8.5697482646
 20
6.0823828406
 11
8.4121775516
 21
6.0795728913
  0
LINE
  5
906
100
AcDbEntity
  8
0
100
AcDbLine
 62
7
  6
CONTINUOUS
 10
8.84539147
 20
5.9729067988
 11
8.8133495959
 21
5.9914157242
  0
LINE
  5
907
100
AcDbEntity
  8
0
100
AcDbLine
 62
7
  6
CONTINUOUS
 10
8.84539147
 20
6.0122768775
 11
8.8133495959
 21
6.030785803
  0
LINE
  5
908
100
AcDbEntity
  8
0
100
AcDbLine
 62
7
  6
CONTINUOUS
 10
8.84539147
 20
6.0516469562
 11
8.8455575623
 21
6.0514550943
  0
LINE
  5
909
100
AcDbEntity
  8
0
100
AcDbLine
 62
7
  6
CONTINUOUS
 10
8.84539147
 20
6.091017035
 11
8.8455575623
 21
6.0908251731
  0
LINE
  5
90A
100
AcDbEntity
  8
0
100
AcDbLine
 62
7
  6
CONTINUOUS
 10
8.84539147
 20
6.1303871137
 11
8.8455575623
 21
6.1301952518
  0
LINE
  5
90B
100
AcDbEntity
  8
0
100
AcDbLine
 62
7
  6
CONTINUOUS
 10
8.73696799
 20
4.3070400853
 11
8.7372898458
 21
4.3073606061
  0
LINE
  5
90C
100
AcDbEntity
  8
0
100
AcDbLine
 62
7
  6
CONTINUOUS
 10
8.73696799
 20
4.2676700066
 11
8.7372898458
 21
4.2679905274
  0
LINE
  5
90D
100
AcDbEntity
  8
0
100
AcDbLine
 62
7
  6
CONTINUOUS
 10
8.73696799
 20
4.2282999278
 11
8.7372898458
 21
4.2286204487
  0
LINE
  5
90E
100
AcDbEntity
  8
0
100
AcDbLine
 62
7
  6
CONTINUOUS
 10
8.2831418996
 20
4.2299829008
 11
8.2454857172
 21
4.211224434
  0
LINE
  5
90F
100
AcDbEntity
  8
0
100
AcDbLine
 62
7
  6
CONTINUOUS
 10
8.6993118078
 20
4.4063918549
 11
8.73696799
 21
4.4251503215
  0
LINE
  5
910
100
AcDbEntity
  8
0
100
AcDbLine
 62
7
  6
CONTINUOUS
 10
8.2831418996
 20
4.190612822
 11
8.2454857172
 21
4.1718543553
  0
LINE
  5
911
100
AcDbEntity
  8
0
100
AcDbLine
 62
7
  6
CONTINUOUS
 10
8.6993118078
 20
4.3670217761
 11
8.73696799
 21
4.3857802428
  0
LINE
  5
912
100
AcDbEntity
  8
0
100
AcDbLine
 62
7
  6
CONTINUOUS
 10
8.2831418996
 20
4.1512427433
 11
8.2454857172
 21
4.1324842765
  0
LINE
  5
913
100
AcDbEntity
  8
0
100
AcDbLine
 62
7
  6
CONTINUOUS
 10
8.2451638615
 20
4.248305488
 11
8.248189382
 21
4.2492891011
  0
LINE
  5
914
100
AcDbEntity
  8
0
100
AcDbLine
 62
7
  6
CONTINUOUS
 10
8.2451638615
 20
4.2876755668
 11
8.2484994583
 21
4.2887084634
  0
LINE
  5
915
100
AcDbEntity
  8
0
100
AcDbLine
 62
7
  6
CONTINUOUS
 10
8.136896145
 20
6.0691716298
 11
8.1408424336
 21
6.0701076718
  0
LINE
  5
916
100
AcDbEntity
  8
0
100
AcDbLine
 62
7
  6
CONTINUOUS
 10
8.136896145
 20
6.1085417085
 11
8.1408429211
 21
6.1094778084
  0
LWPOLYLINE
  5
917
100
AcDbEntity
  8
0
100
AcDbPolyline
 62
7
  6
CONTINUOUS
 90
9
 70
0
 10
8.1408429211
 20
6.1094778084
 10
8.1526036663
 20
6.1104144094
 10
8.171890331
 20
6.1113499587
 10
8.1983305914
 20
6.1122870157
 10
8.2312929816
 20
6.1132236525
 10
8.2703418684
 20
6.1141668332
 10
8.314208878
 20
6.1151063973
 10
8.3617415341
 20
6.1160401295
 10
8.4121775516
 20
6.1169744661
  0
LWPOLYLINE
  5
918
100
AcDbEntity
  8
0
100
AcDbPolyline
 62
7
  6
CONTINUOUS
 90
9
 70
0
 10
8.3917419241
 20
6.1370850156
 10
8.3450691546
 20
6.1361007636
 10
8.3019952726
 20
6.1351165117
 10
8.2635809003
 20
6.1341322597
 10
8.2307719268
 20
6.1331480077
 10
8.204376218
 20
6.1321637558
 10
8.1850437238
 20
6.1311795038
 10
8.1732504745
 20
6.1301952518
 10
8.1694696348
 20
6.1294221512
  0
LWPOLYLINE
  5
919
100
AcDbEntity
  8
0
100
AcDbPolyline
 62
7
  6
CONTINUOUS
 90
10
 70
0
 10
8.4408643428
 20
6.1774393463
 10
8.3917419241
 20
6.1764550943
 10
8.3450691546
 20
6.1754708424
 10
8.3019952726
 20
6.1744865904
 10
8.2635809002
 20
6.1735023384
 10
8.2307719268
 20
6.1725180865
 10
8.204376218
 20
6.1715338345
 10
8.1850437238
 20
6.1705495825
 10
8.1732504745
 20
6.1695653306
 10
8.1694696348
 20
6.16879223
  0
LINE
  5
91A
100
AcDbEntity
  8
0
100
AcDbLine
 62
7
  6
CONTINUOUS
 10
8.5907117832
 20
6.1410220235
 11
8.3917419241
 21
6.1370850156
  0
LWPOLYLINE
  5
91B
100
AcDbEntity
  8
0
100
AcDbPolyline
 62
7
  6
CONTINUOUS
 90
9
 70
0
 10
8.5786179859
 20
6.1612843384
 10
8.629495364
 20
6.1622346729
 10
8.6771986528
 20
6.1631850154
 10
8.7206320433
 20
6.1641353542
 10
8.7587987076
 20
6.1650856976
 10
8.7908221114
 20
6.1660360397
 10
8.8159673767
 20
6.1669863946
 10
8.8336568415
 20
6.1679367594
 10
8.843484005
 20
6.1688871161
  0
LWPOLYLINE
  5
91C
100
AcDbEntity
  8
0
100
AcDbPolyline
 62
7
  6
CONTINUOUS
 90
10
 70
0
 10
8.5697482646
 20
6.1197844155
 10
8.6202525138
 20
6.1207195968
 10
8.6682936719
 20
6.1216630562
 10
8.7124627346
 20
6.1226095631
 10
8.7513000613
 20
6.1235484307
 10
8.7841247289
 20
6.1244814913
 10
8.8105633929
 20
6.1254184984
 10
8.8298500489
 20
6.1263540475
 10
8.8416108059
 20
6.1272906503
 10
8.84539147
 20
6.128034886
  0
LWPOLYLINE
  5
91D
100
AcDbEntity
  8
0
100
AcDbPolyline
 62
7
  6
CONTINUOUS
 90
10
 70
0
 10
8.4126502763
 20
6.1189515444
 10
8.3622863544
 20
6.1180189805
 10
8.3145792806
 20
6.11708246
 10
8.2709281289
 20
6.116148585
 10
8.2320683968
 20
6.1152122989
 10
8.1990490767
 20
6.1142780375
 10
8.1723384044
 20
6.1133366933
 10
8.1526960306
 20
6.1123884527
 10
8.1408222538
 20
6.1114438537
 10
8.1370622373
 20
6.1107020744
  0
LWPOLYLINE
  5
91E
100
AcDbEntity
  8
0
100
AcDbPolyline
 62
7
  6
CONTINUOUS
 90
9
 70
0
 10
8.4199100407
 20
6.1564844747
 10
8.3681743665
 20
6.1555319614
 10
8.3192764166
 20
6.1545794412
 10
8.2743446966
 20
6.1536269281
 10
8.2344149635
 20
6.152674411
 10
8.2004085703
 20
6.1517219004
 10
8.173109125
 20
6.1507693729
 10
8.1531466301
 20
6.1498168274
 10
8.1409821957
 20
6.1488642919
  0
LINE
  5
91F
100
AcDbEntity
  8
0
100
AcDbLine
 62
7
  6
CONTINUOUS
 10
8.4121775516
 20
6.1169744661
 11
8.5697482646
 21
6.1197844155
  0
LINE
  5
920
100
AcDbEntity
  8
0
100
AcDbLine
 62
7
  6
CONTINUOUS
 10
8.5708388961
 20
6.1217727049
 11
8.4126502763
 21
6.1189515444
  0
LINE
  5
921
100
AcDbEntity
  8
0
100
AcDbLine
 62
7
  6
CONTINUOUS
 10
8.5800549453
 20
6.1593420695
 11
8.4199100407
 21
6.1564844747
  0
LINE
  5
922
100
AcDbEntity
  8
0
100
AcDbLine
 62
7
  6
CONTINUOUS
 10
8.4188200554
 20
6.1584332944
 11
8.5786179859
 21
6.1612843384
  0
LINE
  5
923
100
AcDbEntity
  8
0
100
AcDbLine
 62
7
  6
CONTINUOUS
 10
8.1537670257
 20
6.1774393463
 11
8.8321494462
 21
6.1774393463
  0
LINE
  5
924
100
AcDbEntity
  8
0
100
AcDbLine
 62
7
  6
CONTINUOUS
 10
8.84539147
 20
6.0516469562
 11
8.8133495959
 21
6.0701558817
  0
LINE
  5
925
100
AcDbEntity
  8
0
100
AcDbLine
 62
7
  6
CONTINUOUS
 10
8.84539147
 20
6.091017035
 11
8.8133495959
 21
6.1095259604
  0
LINE
  5
926
100
AcDbEntity
  8
0
100
AcDbLine
 62
7
  6
CONTINUOUS
 10
8.84539147
 20
6.1303871137
 11
8.8133495959
 21
6.1488960392
  0
LINE
  5
927
100
AcDbEntity
  8
0
100
AcDbLine
 62
7
  6
CONTINUOUS
 10
8.8455575623
 20
6.1695653373
 11
8.84539147
 21
6.1697571925
  0
LINE
  5
928
100
AcDbEntity
  8
0
100
AcDbLine
 62
7
  6
CONTINUOUS
 10
8.73696799
 20
4.1889298491
 11
8.7372898458
 21
4.1892503699
  0
LINE
  5
929
100
AcDbEntity
  8
0
100
AcDbLine
 62
7
  6
CONTINUOUS
 10
8.73696799
 20
4.1495597704
 11
8.7372898458
 21
4.1498802912
  0
LINE
  5
92A
100
AcDbEntity
  8
0
100
AcDbLine
 62
7
  6
CONTINUOUS
 10
8.6993118078
 20
4.3276516974
 11
8.73696799
 21
4.3464101641
  0
LINE
  5
92B
100
AcDbEntity
  8
0
100
AcDbLine
 62
7
  6
CONTINUOUS
 10
8.6993118078
 20
4.2882816187
 11
8.73696799
 21
4.3070400853
  0
LWPOLYLINE
  5
92C
100
AcDbEntity
  8
0
100
AcDbPolyline
 62
7
  6
CONTINUOUS
 90
9
 70
0
 10
8.2831418996
 20
4.1512427433
 10
8.2835075204
 20
4.151394525
 10
8.2894374583
 20
4.1524544886
 10
8.3011280472
 20
4.1535144523
 10
8.318245546
 20
4.154574416
 10
8.3403012873
 20
4.1556343796
 10
8.3666656271
 20
4.1566943433
 10
8.3965859207
 20
4.1577543069
 10
8.4292080084
 20
4.1588142706
  0
LINE
  5
92D
100
AcDbEntity
  8
0
100
AcDbLine
 62
7
  6
CONTINUOUS
 10
8.7372898458
 20
4.3486991888
 11
8.7343147438
 21
4.3477238225
  0
LINE
  5
92E
100
AcDbEntity
  8
0
100
AcDbLine
 62
7
  6
CONTINUOUS
 10
8.2451638615
 20
4.1695653306
 11
8.2481591537
 21
4.1705440076
  0
LINE
  5
92F
100
AcDbEntity
  8
0
100
AcDbLine
 62
7
  6
CONTINUOUS
 10
8.7372898458
 20
4.3093291101
 11
8.7342889991
 21
4.3083495242
  0
LINE
  5
930
100
AcDbEntity
  8
0
100
AcDbLine
 62
7
  6
CONTINUOUS
 10
8.7372898458
 20
4.3880692676
 11
8.7342749979
 21
4.3870873944
  0
LINE
  5
931
100
AcDbEntity
  8
0
100
AcDbLine
 62
7
  6
CONTINUOUS
 10
8.2451638615
 20
4.2089354093
 11
8.2484837354
 21
4.2099658632
  0
LINE
  5
932
100
AcDbEntity
  8
0
100
AcDbLine
 62
7
  6
CONTINUOUS
 10
8.1409821957
 20
6.1488642919
 11
8.136896145
 21
6.1479117872
  0
LWPOLYLINE
  5
933
100
AcDbEntity
  8
0
100
AcDbPolyline
 62
7
  6
CONTINUOUS
 90
10
 70
0
 10
8.1370622373
 20
6.1500721531
 10
8.1409636179
 20
6.1508306239
 10
8.1530728472
 20
6.1517809681
 10
8.1729454381
 20
6.1527312971
 10
8.2001251906
 20
6.1536816235
 10
8.2339882668
 20
6.154631953
 10
8.2737574364
 20
6.1555822889
 10
8.3185192104
 20
6.1565326202
 10
8.3672464789
 20
6.1574829586
 10
8.4188200554
 20
6.1584332944
  0
LINE
  5
934
100
AcDbEntity
  8
0
100
AcDbLine
 62
7
  6
CONTINUOUS
 10
8.84539147
 20
6.1697571925
 11
8.8320920693
 21
6.1774393463
  0
LINE
  5
935
100
AcDbEntity
  8
0
100
AcDbLine
 62
7
  6
CONTINUOUS
 10
8.6993118078
 20
4.2489115399
 11
8.73696799
 21
4.2676700066
  0
LINE
  5
936
100
AcDbEntity
  8
0
100
AcDbLine
 62
7
  6
CONTINUOUS
 10
8.6993118078
 20
4.2095414612
 11
8.73696799
 21
4.2282999278
  0
LINE
  5
937
100
AcDbEntity
  8
0
100
AcDbLine
 62
7
  6
CONTINUOUS
 10
8.6993118078
 20
4.1701713824
 11
8.73696799
 21
4.1889298491
  0
LINE
  5
938
100
AcDbEntity
  8
0
100
AcDbLine
 62
7
  6
CONTINUOUS
 10
8.7372898458
 20
4.2305889526
 11
8.7342639467
 21
4.2296052778
  0
LINE
  5
939
100
AcDbEntity
  8
0
100
AcDbLine
 62
7
  6
CONTINUOUS
 10
8.2451638615
 20
4.1301952518
 11
8.2484992622
 21
4.131228118
  0
LINE
  5
93A
100
AcDbEntity
  8
0
100
AcDbLine
 62
7
  6
CONTINUOUS
 10
8.7372898458
 20
4.2699590313
 11
8.733953852
 21
4.2689260731
  0
LINE
  5
93B
100
AcDbEntity
  8
0
100
AcDbLine
 62
7
  6
CONTINUOUS
 10
8.6993118078
 20
4.1308013037
 11
8.73696799
 21
4.1495597704
  0
LINE
  5
93C
100
AcDbEntity
  8
0
100
AcDbLine
 62
7
  6
CONTINUOUS
 10
8.7342602155
 20
4.1508645128
 11
8.7372898458
 21
4.1518487951
  0
LINE
  5
93D
100
AcDbEntity
  8
0
100
AcDbLine
 62
7
  6
CONTINUOUS
 10
8.7372898458
 20
4.1912188739
 11
8.7339631412
 21
4.190187358
  0
LINE
  5
93E
100
AcDbEntity
  8
0
100
AcDbLine
 62
9
  6
CONTINUOUS
 10
8.1723292159
 20
6.3979117872
 11
8.8101244915
 21
6.3979117872
  0
LINE
  5
93F
100
AcDbEntity
  8
0
100
AcDbLine
 62
7
  6
CONTINUOUS
 10
8.2431953576
 20
6.468777929
 11
8.7392583497
 21
6.468777929
  0
LWPOLYLINE
  5
940
100
AcDbEntity
  8
0
100
AcDbPolyline
 62
7
  6
CONTINUOUS
 90
22
 70
0
 10
8.4408643428
 20
8.0450225906
 10
8.4851803797
 20
8.0396136206
 10
8.5298422882
 20
8.0403640672
 10
8.5739909908
 20
8.0472386365
 10
8.6170236143
 20
8.0601702695
 10
8.6581235683
 20
8.0789971604
 10
8.6961613898
 20
8.1032061849
 10
8.7302030819
 20
8.1320246077
 10
8.7605410532
 20
8.1657344613
 10
8.787066428
 20
8.2050372505
 10
8.8088551607
 20
8.2504021486
 10
8.8239786324
 20
8.3000054695
 10
8.8312068196
 20
8.3493054882
 10
8.8313488217
 20
8.396351908
 10
8.8246442517
 20
8.4447915746
 10
8.8110193176
 20
8.492065808
 10
8.7911728388
 20
8.5362305994
 10
8.7656154128
 20
8.5768437744
 10
8.7341032267
 20
8.6141772833
 10
8.6960089306
 20
8.6480439029
 10
8.6509825639
 20
8.6773735941
 10
8.6007210643
 20
8.6999874991
  0
LWPOLYLINE
  5
941
100
AcDbEntity
  8
0
100
AcDbPolyline
 62
7
  6
CONTINUOUS
 90
24
 70
0
 10
8.4912268537
 20
8.7173296784
 10
8.4519912746
 20
8.7139347987
 10
8.4134113649
 20
8.7061986442
 10
8.375930769
 20
8.694199539
 10
8.3400201593
 20
8.678068805
 10
8.3061122359
 20
8.6579726091
 10
8.2748438102
 20
8.634299406
 10
8.2462215748
 20
8.6070060609
 10
8.2198263408
 20
8.5751565559
 10
8.1956888099
 20
8.5372114367
 10
8.1752737702
 20
8.4926194471
 10
8.1609550531
 20
8.4431917085
 10
8.1542644423
 20
8.3921228027
 10
8.1553582601
 20
8.3411556948
 10
8.1641011088
 20
8.291095791
 10
8.180293249
 20
8.2430006003
 10
8.2038275873
 20
8.1975609895
 10
8.233824344
 20
8.156579147
 10
8.2675304891
 20
8.1226115944
 10
8.3021103475
 20
8.0963193512
 10
8.336499302
 20
8.076501362
 10
8.3707329725
 20
8.0618438454
 10
8.4053774896
 20
8.0514575646
 10
8.4408643428
 20
8.0450225906
  0
CIRCLE
  5
942
100
AcDbEntity
  8
0
100
AcDbCircle
 62
7
  6
CONTINUOUS
 10
10.5342808475
 20
1.243294839
 40
0.252091
  0
CIRCLE
  5
943
100
AcDbEntity
  8
0
100
AcDbCircle
 62
7
  6
CONTINUOUS
 10
10.5342808475
 20
1.243294839
 40
0.182698
  0
ARC
  5
944
100
AcDbEntity
  8
0
100
AcDbCircle
 62
7
  6
CONTINUOUS
 10
8.7392583497
 20
6.3979117872
 40
0.0708661417
100
AcDbArc
 50
0.0
 51
90.0
  0
ARC
  5
945
100
AcDbEntity
  8
0
100
AcDbCircle
 62
7
  6
CONTINUOUS
 10
8.2431953576
 20
6.3979117872
 40
0.0708661417
100
AcDbArc
 50
90.0
 51
180.0
  0
ARC
  5
946
100
AcDbEntity
  8
0
100
AcDbCircle
 62
7
  6
CONTINUOUS
 10
8.4912268537
 20
8.3629989697
 40
0.3543307087
100
AcDbArc
 50
91.845973356
 51
89.9999999992
  0
CIRCLE
  5
947
100
AcDbEntity
  8
0
100
AcDbCircle
 62
7
  6
CONTINUOUS
 10
8.4912268537
 20
8.3629989697
 40
0.3188976378
  0
CIRCLE
  5
948
100
AcDbEntity
  8
0
100
AcDbCircle
 62
9
  6
CONTINUOUS
 10
8.4912268537
 20
8.3629989697
 40
0.248031496
  0
ENDSEC
  0
SECTION
  2
OBJECTS
  0
DICTIONARY
  5
C
100
AcDbDictionary
280
0
281
1
  3
ACAD_GROUP
350
D
  3
ACAD_MLINESTYLE
350
17
  3
ACAD_LAYOUT
350
1A
  3
ACAD_PLOTSETTINGS
350
19
  3
ACAD_PLOTSTYLENAME
350
E
  0
DICTIONARY
  5
D
102
{ACAD_REACTORS
330
C
102
}
100
AcDbDictionary
280
0
281
1
  0
ACDBDICTIONARYWDFLT
  5
E
102
{ACAD_REACTORS
330
C
102
}
100
AcDbDictionary
281
1
  3
Normal
350
F
100
AcDbDictionaryWithDefault
340
F
  0
DICTIONARY
  5
17
102
{ACAD_REACTORS
330
C
102
}
100
AcDbDictionary
280
0
281
1
  3
Standard
350
18
  0
DICTIONARY
  5
19
102
{ACAD_REACTORS
330
C
102
}
100
AcDbDictionary
281
1
  0
DICTIONARY
  5
1A
102
{ACAD_REACTORS
330
C
102
}
100
AcDbDictionary
281
1
  3
Model
350
949
  3
Layout1
350
94A
  0
ACDBPLACEHOLDER
  5
F
102
{ACAD_REACTORS
330
E
102
}
  0
MLINESTYLE
  5
18
102
{ACAD_REACTORS
330
17
102
}
100
AcDbMlineStyle
  2
STANDARD
 70
0
  3

 62
256
 51
90.0
 52
90.0
 71
2
 49
0.5
 62
256
  6
BYLAYER
 49
-0.5
 62
256
  6
BYLAYER
  0
LAYOUT
  5
949
102
{ACAD_REACTORS
330
1A
102
}
100
AcDbPlotSettings
  1

  2
none_device
  4
ANSI_B_(17.00_x_11.00_Inches)
  6

 40
0.0
 41
0.0
 42
0.0
 43
0.0
 44
431.8
 45
279.4
 46
0.0
 47
0.0
 48
0.0
 49
0.0
140
0.0
141
0.0
142
1.0
143
1.0
 70
1024
 72
0
 73
0
 74
0
  7

 75
0
147
1.0
148
0.0
149
0.0
100
AcDbLayout
  1
Model
 70
0
 71
0
 10
0.0
 20
0.0
 11
17.0
 21
11.0
 12
0.0
 22
0.0
 32
0.0
 14
0.0
 24
0.0
 34
0.0
 15
0.0
 25
0.0
 35
0.0
146
0.0
 13
0.0
 23
0.0
 33
0.0
 16
1.0
 26
0.0
 36
0.0
 17
0.0
 27
1.0
 37
0.0
 76
0
330
212
345
0
346
0
  0
LAYOUT
  5
94A
102
{ACAD_REACTORS
330
1A
102
}
100
AcDbPlotSettings
  1

  2
none_device
  4
ANSI_B_(17.00_x_11.00_Inches)
  6

 40
0.0
 41
0.0
 42
0.0
 43
0.0
 44
431.8
 45
279.4
 46
0.0
 47
0.0
 48
0.0
 49
0.0
140
0.0
141
0.0
142
1.0
143
1.0
 70
0
 72
0
 73
0
 74
0
  7

 75
0
147
1.0
148
0.0
149
0.0
100
AcDbLayout
  1
Layout1
 70
0
 71
1
 10
0.0
 20
0.0
 11
17.0
 21
11.0
 12
0.0
 22
0.0
 32
0.0
 14
0.0
 24
0.0
 34
0.0
 15
0.0
 25
0.0
 35
0.0
146
0.0
 13
0.0
 23
0.0
 33
0.0
 16
1.0
 26
0.0
 36
0.0
 17
0.0
 27
1.0
 37
0.0
 76
0
330
213
345
0
346
0
  0
ENDSEC
  0
EOF
