999
DXF file: 154435_1.dxf
999
Pro/ENGINEER 2009141 by Parametric Technology Corporation
  0
SECTION
  2
HEADER
  9
$ACADVER
  1
AC1015
  9
$DWGCODEPAGE
  3
ANSI_1252
  9
$EXTMAX
 10
17.0
 20
11.0
 30
0.0
  9
$EXTMIN
 10
0.0
 20
0.0
 30
0.0
  9
$LIMMIN
 10
0.0
 20
0.0
  9
$LIMMAX
 10
17.0
 20
11.0
  9
$VIEWCTR
 10
8.5
 20
5.5
  9
$VIEWSIZE
 40
11.0
  9
$CLAYER
  8
0
  9
$LTSCALE
 40
0.935
  9
$CELTYPE
  6
BYLAYER
  9
$DIMSCALE
 40
1.0
  9
$DIMASZ
 40
0.1875
  9
$DIMEXO
 40
0.10625
  9
$DIMDLI
 40
0.646
  9
$DIMEXE
 40
0.306
  9
$DIMCEN
 40
0.153
  9
$DIMLFAC
 40
1.0
  9
$DIMBLK
  1
_FILLED
  9
$DIMTXT
 40
0.1
  9
$DIMTOL
 70
1
  9
$DIMLIM
 70
0
  9
$DIMTFAC
 40
1.0
  9
$DIMTP
 40
0.005
  9
$DIMTM
 40
0.005
  9
$PDMODE
 70
3
  9
$PDSIZE
 40
0.3125
  9
$HANDSEED
  5
870
  9
$TILEMODE
 70
1
  9
$MEASUREMENT
 70
0
  9
$INSUNITS
 70
1
  0
ENDSEC
  0
SECTION
  2
CLASSES
  0
CLASS
  1
ACDBDICTIONARYWDFLT
  2
AcDbDictionaryWithDefault
  3
AutoCAD 2000
 90
0
280
0
281
0
  0
CLASS
  1
ACDBPLACEHOLDER
  2
AcDbPlaceHolder
  3
AutoCAD 2000
 90
0
280
0
281
0
  0
CLASS
  1
LAYOUT
  2
AcDbLayout
  3
AutoCAD 2000
 90
0
280
0
281
0
  0
ENDSEC
  0
SECTION
  2
TABLES
  0
TABLE
  2
VPORT
  5
8
100
AcDbSymbolTable
 70
2
  0
VPORT
  5
1F4
100
AcDbSymbolTableRecord
100
AcDbViewportTableRecord
  2
*ACTIVE
 70
0
 10
0.0
 20
0.0
 11
1.0
 21
1.0
 12
8.5
 22
5.5
 13
0.0
 23
0.0
 14
1.0
 24
1.0
 15
0.0
 25
0.0
 16
0.0
 26
0.0
 36
1.0
 17
0.0
 27
0.0
 37
0.0
 40
11.0
 41
1.5454545455
 42
50.0
 43
0.0
 44
0.0
 50
0.0
 51
0.0
 71
0
 72
100
 73
1
 74
1
 75
0
 76
0
 77
0
 78
0
  0
ENDTAB
  0
TABLE
  2
LTYPE
  5
5
100
AcDbSymbolTable
 70
6
  0
LTYPE
  5
14
100
AcDbSymbolTableRecord
100
AcDbLinetypeTableRecord
  2
BYBLOCK
 70
0
  3

 72
65
 73
0
 40
0.0
  0
LTYPE
  5
15
100
AcDbSymbolTableRecord
100
AcDbLinetypeTableRecord
  2
BYLAYER
 70
0
  3

 72
65
 73
0
 40
0.0
  0
LTYPE
  5
16
100
AcDbSymbolTableRecord
100
AcDbLinetypeTableRecord
  2
CONTINUOUS
 70
64
  3
Solid line
 72
65
 73
0
 40
0.0
  0
LTYPE
  5
1F5
100
AcDbSymbolTableRecord
100
AcDbLinetypeTableRecord
  2
CENTER
 70
64
  3
____ _ ____ _ ____ _ ____ _ ____ _ ____ _ ____
 72
65
 73
4
 40
0.6
 49
0.375
 74
0
 49
-0.075
 74
0
 49
0.075
 74
0
 49
-0.075
 74
0
  0
LTYPE
  5
1F6
100
AcDbSymbolTableRecord
100
AcDbLinetypeTableRecord
  2
HIDDEN
 70
64
  3
- - - - - - - - - - - - - - - - - - - -
 72
65
 73
2
 40
0.2
 49
0.1
 74
0
 49
-0.1
 74
0
  0
LTYPE
  5
1F7
100
AcDbSymbolTableRecord
100
AcDbLinetypeTableRecord
  2
PHANTOM
 70
64
  3
_____ _ _ _____ _ _ _____ _ _ _____
 72
65
 73
6
 40
0.8
 49
0.45
 74
0
 49
-0.05
 74
0
 49
0.1
 74
0
 49
-0.05
 74
0
 49
0.1
 74
0
 49
-0.05
 74
0
  0
LTYPE
  5
1F8
100
AcDbSymbolTableRecord
100
AcDbLinetypeTableRecord
  2
DOT
 70
64
  3
. . . . . . . . . . . . . . . . . . . .
 72
65
 73
2
 40
0.2
 49
0.1
 74
0
 49
-0.1
 74
0
  0
LTYPE
  5
1F9
100
AcDbSymbolTableRecord
100
AcDbLinetypeTableRecord
  2
DASHED
 70
64
  3
- - - - - - - - - - - - - - - - - - - -
 72
65
 73
2
 40
0.2
 49
0.1
 74
0
 49
-0.1
 74
0
  0
ENDTAB
  0
TABLE
  2
LAYER
  5
2
100
AcDbSymbolTable
 70
36
  0
LAYER
  5
10
100
AcDbSymbolTableRecord
100
AcDbLayerTableRecord
  2
0
 70
0
 62
7
  6
CONTINUOUS
370
-3
390
F
  0
LAYER
  5
1FA
100
AcDbSymbolTableRecord
100
AcDbLayerTableRecord
  2
DEFAULT_1
 70
0
 62
7
  6
CENTER
370
-3
390
F
  0
LAYER
  5
1FB
100
AcDbSymbolTableRecord
100
AcDbLayerTableRecord
  2
DEFAULT_2
 70
0
 62
8
  6
HIDDEN
370
-3
390
F
  0
LAYER
  5
1FC
100
AcDbSymbolTableRecord
100
AcDbLayerTableRecord
  2
DEFAULT_3
 70
0
 62
7
  6
PHANTOM
370
-3
390
F
  0
LAYER
  5
1FD
100
AcDbSymbolTableRecord
100
AcDbLayerTableRecord
  2
01___PRT_ALL_DTM_PLN
 70
0
 62
7
  6
CONTINUOUS
370
-3
390
F
  0
LAYER
  5
1FE
100
AcDbSymbolTableRecord
100
AcDbLayerTableRecord
  2
01___PRT_DEF_DTM_PLN
 70
0
 62
7
  6
CONTINUOUS
370
-3
390
F
  0
LAYER
  5
1FF
100
AcDbSymbolTableRecord
100
AcDbLayerTableRecord
  2
02___PRT_ALL_AXES
 70
0
 62
7
  6
CONTINUOUS
370
-3
390
F
  0
LAYER
  5
200
100
AcDbSymbolTableRecord
100
AcDbLayerTableRecord
  2
03___PRT_ALL_CURVES
 70
0
 62
7
  6
CONTINUOUS
370
-3
390
F
  0
LAYER
  5
201
100
AcDbSymbolTableRecord
100
AcDbLayerTableRecord
  2
04___PRT_ALL_DTM_PNT
 70
0
 62
7
  6
CONTINUOUS
370
-3
390
F
  0
LAYER
  5
202
100
AcDbSymbolTableRecord
100
AcDbLayerTableRecord
  2
05___PRT_ALL_DTM_CSYS
 70
0
 62
7
  6
CONTINUOUS
370
-3
390
F
  0
LAYER
  5
203
100
AcDbSymbolTableRecord
100
AcDbLayerTableRecord
  2
05___PRT_DEF_DTM_CSYS
 70
0
 62
7
  6
CONTINUOUS
370
-3
390
F
  0
LAYER
  5
204
100
AcDbSymbolTableRecord
100
AcDbLayerTableRecord
  2
06___PRT_ALL_SURFS
 70
0
 62
7
  6
CONTINUOUS
370
-3
390
F
  0
LAYER
  5
205
100
AcDbSymbolTableRecord
100
AcDbLayerTableRecord
  2
1
 70
0
 62
7
  6
CONTINUOUS
370
-3
390
F
  0
LAYER
  5
206
100
AcDbSymbolTableRecord
100
AcDbLayerTableRecord
  2
10
 70
0
 62
7
  6
CONTINUOUS
370
-3
390
F
  0
LAYER
  5
207
100
AcDbSymbolTableRecord
100
AcDbLayerTableRecord
  2
11
 70
0
 62
7
  6
CONTINUOUS
370
-3
390
F
  0
LAYER
  5
208
100
AcDbSymbolTableRecord
100
AcDbLayerTableRecord
  2
12
 70
0
 62
7
  6
CONTINUOUS
370
-3
390
F
  0
LAYER
  5
209
100
AcDbSymbolTableRecord
100
AcDbLayerTableRecord
  2
13
 70
0
 62
7
  6
CONTINUOUS
370
-3
390
F
  0
LAYER
  5
20A
100
AcDbSymbolTableRecord
100
AcDbLayerTableRecord
  2
14
 70
0
 62
7
  6
CONTINUOUS
370
-3
390
F
  0
LAYER
  5
20B
100
AcDbSymbolTableRecord
100
AcDbLayerTableRecord
  2
15
 70
0
 62
7
  6
CONTINUOUS
370
-3
390
F
  0
LAYER
  5
20C
100
AcDbSymbolTableRecord
100
AcDbLayerTableRecord
  2
16
 70
0
 62
7
  6
CONTINUOUS
370
-3
390
F
  0
LAYER
  5
20D
100
AcDbSymbolTableRecord
100
AcDbLayerTableRecord
  2
17
 70
0
 62
7
  6
CONTINUOUS
370
-3
390
F
  0
LAYER
  5
20E
100
AcDbSymbolTableRecord
100
AcDbLayerTableRecord
  2
18
 70
0
 62
7
  6
CONTINUOUS
370
-3
390
F
  0
LAYER
  5
20F
100
AcDbSymbolTableRecord
100
AcDbLayerTableRecord
  2
19
 70
0
 62
7
  6
CONTINUOUS
370
-3
390
F
  0
LAYER
  5
210
100
AcDbSymbolTableRecord
100
AcDbLayerTableRecord
  2
2
 70
0
 62
7
  6
CONTINUOUS
370
-3
390
F
  0
LAYER
  5
211
100
AcDbSymbolTableRecord
100
AcDbLayerTableRecord
  2
20
 70
0
 62
7
  6
CONTINUOUS
370
-3
390
F
  0
LAYER
  5
212
100
AcDbSymbolTableRecord
100
AcDbLayerTableRecord
  2
21
 70
0
 62
7
  6
CONTINUOUS
370
-3
390
F
  0
LAYER
  5
213
100
AcDbSymbolTableRecord
100
AcDbLayerTableRecord
  2
22
 70
0
 62
7
  6
CONTINUOUS
370
-3
390
F
  0
LAYER
  5
214
100
AcDbSymbolTableRecord
100
AcDbLayerTableRecord
  2
23
 70
0
 62
7
  6
CONTINUOUS
370
-3
390
F
  0
LAYER
  5
215
100
AcDbSymbolTableRecord
100
AcDbLayerTableRecord
  2
24
 70
0
 62
7
  6
CONTINUOUS
370
-3
390
F
  0
LAYER
  5
216
100
AcDbSymbolTableRecord
100
AcDbLayerTableRecord
  2
25
 70
0
 62
7
  6
CONTINUOUS
370
-3
390
F
  0
LAYER
  5
217
100
AcDbSymbolTableRecord
100
AcDbLayerTableRecord
  2
26
 70
0
 62
7
  6
CONTINUOUS
370
-3
390
F
  0
LAYER
  5
218
100
AcDbSymbolTableRecord
100
AcDbLayerTableRecord
  2
27
 70
0
 62
7
  6
CONTINUOUS
370
-3
390
F
  0
LAYER
  5
219
100
AcDbSymbolTableRecord
100
AcDbLayerTableRecord
  2
28
 70
0
 62
7
  6
CONTINUOUS
370
-3
390
F
  0
LAYER
  5
21A
100
AcDbSymbolTableRecord
100
AcDbLayerTableRecord
  2
29
 70
0
 62
7
  6
CONTINUOUS
370
-3
390
F
  0
LAYER
  5
21B
100
AcDbSymbolTableRecord
100
AcDbLayerTableRecord
  2
3
 70
0
 62
7
  6
CONTINUOUS
370
-3
390
F
  0
LAYER
  5
21C
100
AcDbSymbolTableRecord
100
AcDbLayerTableRecord
  2
30
 70
0
 62
7
  6
CONTINUOUS
370
-3
390
F
  0
LAYER
  5
21D
100
AcDbSymbolTableRecord
100
AcDbLayerTableRecord
  2
31
 70
0
 62
7
  6
CONTINUOUS
370
-3
390
F
  0
LAYER
  5
21E
100
AcDbSymbolTableRecord
100
AcDbLayerTableRecord
  2
32
 70
0
 62
7
  6
CONTINUOUS
370
-3
390
F
  0
LAYER
  5
21F
100
AcDbSymbolTableRecord
100
AcDbLayerTableRecord
  2
4
 70
0
 62
7
  6
CONTINUOUS
370
-3
390
F
  0
LAYER
  5
220
100
AcDbSymbolTableRecord
100
AcDbLayerTableRecord
  2
5
 70
0
 62
7
  6
CONTINUOUS
370
-3
390
F
  0
LAYER
  5
221
100
AcDbSymbolTableRecord
100
AcDbLayerTableRecord
  2
6
 70
0
 62
7
  6
CONTINUOUS
370
-3
390
F
  0
LAYER
  5
222
100
AcDbSymbolTableRecord
100
AcDbLayerTableRecord
  2
7
 70
0
 62
7
  6
CONTINUOUS
370
-3
390
F
  0
LAYER
  5
223
100
AcDbSymbolTableRecord
100
AcDbLayerTableRecord
  2
8
 70
0
 62
7
  6
CONTINUOUS
370
-3
390
F
  0
LAYER
  5
224
100
AcDbSymbolTableRecord
100
AcDbLayerTableRecord
  2
9
 70
0
 62
7
  6
CONTINUOUS
370
-3
390
F
  0
LAYER
  5
225
100
AcDbSymbolTableRecord
100
AcDbLayerTableRecord
  2
AXIS
 70
0
 62
7
  6
CONTINUOUS
370
-3
390
F
  0
LAYER
  5
226
100
AcDbSymbolTableRecord
100
AcDbLayerTableRecord
  2
AXIS_COSMETIC_THREADS
 70
0
 62
7
  6
CONTINUOUS
370
-3
390
F
  0
LAYER
  5
227
100
AcDbSymbolTableRecord
100
AcDbLayerTableRecord
  2
DATUM_CURVES
 70
0
 62
7
  6
CONTINUOUS
370
-3
390
F
  0
LAYER
  5
228
100
AcDbSymbolTableRecord
100
AcDbLayerTableRecord
  2
DATUM_PLANES
 70
0
 62
7
  6
CONTINUOUS
370
-3
390
F
  0
LAYER
  5
229
100
AcDbSymbolTableRecord
100
AcDbLayerTableRecord
  2
NOTES
 70
0
 62
7
  6
CONTINUOUS
370
-3
390
F
  0
LAYER
  5
22A
100
AcDbSymbolTableRecord
100
AcDbLayerTableRecord
  2
QUILTS
 70
0
 62
7
  6
CONTINUOUS
370
-3
390
F
  0
LAYER
  5
22B
100
AcDbSymbolTableRecord
100
AcDbLayerTableRecord
  2
SCHEME_DIMS
 70
0
 62
7
  6
CONTINUOUS
370
-3
390
F
  0
LAYER
  5
22C
100
AcDbSymbolTableRecord
100
AcDbLayerTableRecord
  2
SYMBOLS
 70
0
 62
7
  6
CONTINUOUS
370
-3
390
F
  0
LAYER
  5
22D
100
AcDbSymbolTableRecord
100
AcDbLayerTableRecord
  2
XSEC_DATUMS
 70
0
 62
7
  6
CONTINUOUS
370
-3
390
F
  0
ENDTAB
  0
TABLE
  2
STYLE
  5
3
100
AcDbSymbolTable
 70
1
  0
STYLE
  5
11
100
AcDbSymbolTableRecord
100
AcDbTextStyleTableRecord
  2
STANDARD
 70
0
 40
0.0
 41
1.0
 50
0.0
 71
0
 42
0.2
  3
txt
  4

  0
STYLE
  5
22E
100
AcDbSymbolTableRecord
100
AcDbTextStyleTableRecord
  2
TEXTSTYLE_1
 70
0
 40
0.0
 41
0.8
 50
0.0
 71
0
 42
0.2
  3
gdt
  4

  0
STYLE
  5
22F
100
AcDbSymbolTableRecord
100
AcDbTextStyleTableRecord
  2
TEXTSTYLE_2
 70
0
 40
0.0
 41
0.8
 50
0.0
 71
0
 42
0.2
  3
txt
  4

  0
STYLE
  5
230
100
AcDbSymbolTableRecord
100
AcDbTextStyleTableRecord
  2
TEXTSTYLE_3
 70
0
 40
0.0
 41
0.85
 50
0.0
 71
0
 42
0.2
  3
txt
  4

  0
STYLE
  5
231
100
AcDbSymbolTableRecord
100
AcDbTextStyleTableRecord
  2
TEXTSTYLE_4
 70
0
 40
0.0
 41
0.92
 50
0.0
 71
0
 42
0.2
  3
txt
  4

  0
STYLE
  5
232
100
AcDbSymbolTableRecord
100
AcDbTextStyleTableRecord
  2
TEXTSTYLE_5
 70
0
 40
0.0
 41
1.0
 50
0.0
 71
0
 42
0.2
  3
gdt
  4

  0
ENDTAB
  0
TABLE
  2
VIEW
  5
6
100
AcDbSymbolTable
 70
0
  0
ENDTAB
  0
TABLE
  2
UCS
  5
7
100
AcDbSymbolTable
 70
0
  0
ENDTAB
  0
TABLE
  2
APPID
  5
9
100
AcDbSymbolTable
 70
1
  0
APPID
  5
233
100
AcDbSymbolTableRecord
100
AcDbRegAppTableRecord
  2
ACAD
 70
0
  0
ENDTAB
  0
TABLE
  2
BLOCK_RECORD
  5
1
100
AcDbSymbolTable
 70
0
  0
BLOCK_RECORD
  5
234
100
AcDbSymbolTableRecord
100
AcDbBlockTableRecord
  2
*Model_Space
  0
BLOCK_RECORD
  5
235
100
AcDbSymbolTableRecord
100
AcDbBlockTableRecord
  2
*Paper_Space
  0
BLOCK_RECORD
  5
236
100
AcDbSymbolTableRecord
100
AcDbBlockTableRecord
  2
_FILLED
  0
BLOCK_RECORD
  5
237
100
AcDbSymbolTableRecord
100
AcDbBlockTableRecord
  2
*D0
  0
BLOCK_RECORD
  5
238
100
AcDbSymbolTableRecord
100
AcDbBlockTableRecord
  2
*D1
  0
BLOCK_RECORD
  5
239
100
AcDbSymbolTableRecord
100
AcDbBlockTableRecord
  2
*D2
  0
BLOCK_RECORD
  5
23A
100
AcDbSymbolTableRecord
100
AcDbBlockTableRecord
  2
*D3
  0
BLOCK_RECORD
  5
23B
100
AcDbSymbolTableRecord
100
AcDbBlockTableRecord
  2
*D4
  0
BLOCK_RECORD
  5
23C
100
AcDbSymbolTableRecord
100
AcDbBlockTableRecord
  2
*D5
  0
BLOCK_RECORD
  5
23D
100
AcDbSymbolTableRecord
100
AcDbBlockTableRecord
  2
BANNER_LOGO_TITLEBLOCK_BL0
  0
ENDTAB
  0
TABLE
  2
DIMSTYLE
  5
A
100
AcDbSymbolTable
 70
1
100
AcDbDimStyleTable
 71
0
  0
DIMSTYLE
105
23E
100
AcDbSymbolTableRecord
100
AcDbDimStyleTableRecord
  2
STANDARD
 70
0
  3

  4

 40
1.0
 41
0.1875
 42
0.0625
 43
0.38
 44
0.18
 45
0.0
 46
0.0
 47
0.005
 48
0.005
140
0.1
141
0.09
142
0.0
143
25.4
144
1.0
145
0.0
146
1.0
147
0.09
 71
1.0
 72
0.0
 73
1
 74
1
 75
0
 76
0
 77
0
 78
4
170
0
171
2
172
0
173
0
174
0
175
0
176
0
177
0
178
0
270
2
271
3
272
3
273
2
274
2
275
0
280
0
281
0
282
0
283
1
284
4
285
0
286
0
287
3
288
0
340
11
341
236
342
236
343
236
344
236
  0
DIMSTYLE
105
23F
100
AcDbSymbolTableRecord
100
AcDbDimStyleTableRecord
  2
DIMSTYLE_1
 70
0
  3

  4

 40
1.0
 41
0.1875
 42
0.0625
 43
0.38
 44
0.18
 45
0.0
 46
0.0
 47
0.1
 48
0.1
140
0.1
141
0.09
142
0.0
143
25.4
144
1.0
145
0.0
146
1.0
147
0.09
 71
0.0
 72
0.0
 73
1
 74
1
 75
0
 76
0
 77
0
 78
4
170
0
171
2
172
0
173
0
174
0
175
0
176
0
177
0
178
0
270
2
271
1
272
1
273
2
274
2
275
0
280
0
281
0
282
0
283
1
284
4
285
0
286
0
287
3
288
0
340
11
341
236
342
236
343
236
344
236
  0
ENDTAB
  0
ENDSEC
  0
SECTION
  2
BLOCKS
  0
BLOCK
  5
20
100
AcDbEntity
  8
0
100
AcDbBlockBegin
  2
*Model_Space
 70
0
 10
0.0
 20
0.0
 30
0.0
  3
*Model_Space
  1

  0
ENDBLK
  5
21
100
AcDbEntity
  8
0
100
AcDbBlockEnd
  0
BLOCK
  5
1C
100
AcDbEntity
  8
0
100
AcDbBlockBegin
  2
*Paper_Space
 70
0
 10
0.0
 20
0.0
 30
0.0
  3
*Paper_Space
  1

  0
ENDBLK
  5
1D
100
AcDbEntity
  8
0
100
AcDbBlockEnd
  0
BLOCK
  5
240
100
AcDbEntity
  8
0
100
AcDbBlockBegin
 62
2
  6
CONTINUOUS
  2
BANNER_LOGO_TITLEBLOCK_BL0
 70
64
 10
12.9086867042
 20
2.5403783405
  3
BANNER_LOGO_TITLEBLOCK_BL0
  1

  0
ELLIPSE
  5
241
100
AcDbEntity
  8
0
100
AcDbEllipse
 62
2
  6
CONTINUOUS
 10
12.9046654608
 20
2.5403783405
 30
0.0
 11
-0.8250004575
 21
0.0
 31
0.0
 40
0.218572
 41
0.0
 42
6.2831853072
  0
ARC
  5
242
100
AcDbEntity
  8
0
100
AcDbCircle
 62
2
  6
CONTINUOUS
 10
12.400005721
 20
2.5168763464
 40
0.0153945295
100
AcDbArc
 50
354.0454548824
 51
5.1878013979
  0
ARC
  5
243
100
AcDbEntity
  8
0
100
AcDbCircle
 62
2
  6
CONTINUOUS
 10
12.3931760319
 20
2.5166878286
 40
0.0222174455
100
AcDbArc
 50
4.0793399388
 51
69.834329283
  0
LINE
  5
244
100
AcDbEntity
  8
0
100
AcDbLine
 62
2
  6
CONTINUOUS
 10
12.4008351814
 20
2.5375433389
 11
12.3907841758
 21
2.5410923409
  0
LINE
  5
245
100
AcDbEntity
  8
0
100
AcDbLine
 62
2
  6
CONTINUOUS
 10
12.3907841758
 20
2.5410923409
 11
12.3990241804
 21
2.5458683435
  0
ARC
  5
246
100
AcDbEntity
  8
0
100
AcDbCircle
 62
2
  6
CONTINUOUS
 10
12.3771587979
 20
2.5826952352
 40
0.0428289026
100
AcDbArc
 50
300.6990502959
 51
319.0591802498
  0
ARC
  5
247
100
AcDbEntity
  8
0
100
AcDbCircle
 62
2
  6
CONTINUOUS
 10
12.3971873948
 20
2.5665668817
 40
0.0171568255
100
AcDbArc
 50
315.9145124245
 51
16.0049121282
  0
ARC
  5
248
100
AcDbEntity
  8
0
100
AcDbCircle
 62
2
  6
CONTINUOUS
 10
12.3922357827
 20
2.5632132173
 40
0.0229166529
100
AcDbArc
 50
20.6563876465
 51
62.3316896973
  0
ARC
  5
249
100
AcDbEntity
  8
0
100
AcDbCircle
 62
2
  6
CONTINUOUS
 10
12.371573659
 20
2.5302846524
 40
0.061747717
100
AcDbArc
 50
59.5385584989
 51
90.0050977555
  0
LINE
  5
24A
100
AcDbEntity
  8
0
100
AcDbLine
 62
2
  6
CONTINUOUS
 10
12.3715681652
 20
2.5920323691
 11
12.2055050731
 21
2.5920323691
  0
ARC
  5
24B
100
AcDbEntity
  8
0
100
AcDbCircle
 62
2
  6
CONTINUOUS
 10
12.2055050712
 20
2.5895573696
 40
0.0024749995
100
AcDbArc
 50
89.9999571957
 51
180.0000428043
  0
LINE
  5
24C
100
AcDbEntity
  8
0
100
AcDbLine
 62
2
  6
CONTINUOUS
 10
12.2030300717
 20
2.5895573678
 11
12.2030300717
 21
2.5697573568
  0
ARC
  5
24D
100
AcDbEntity
  8
0
100
AcDbCircle
 62
2
  6
CONTINUOUS
 10
12.2055050712
 20
2.5697573549
 40
0.0024749995
100
AcDbArc
 50
179.9999571957
 51
270.0000428043
  0
LINE
  5
24E
100
AcDbEntity
  8
0
100
AcDbLine
 62
2
  6
CONTINUOUS
 10
12.2055050731
 20
2.5672823554
 11
12.2294470864
 21
2.5672823554
  0
ARC
  5
24F
100
AcDbEntity
  8
0
100
AcDbCircle
 62
2
  6
CONTINUOUS
 10
12.2294470882
 20
2.5648073559
 40
0.0024749995
100
AcDbArc
 50
359.9999571957
 51
90.0000428043
  0
LINE
  5
250
100
AcDbEntity
  8
0
100
AcDbLine
 62
2
  6
CONTINUOUS
 10
12.2319220877
 20
2.564807354
 11
12.2319220877
 21
2.5184523283
  0
ARC
  5
251
100
AcDbEntity
  8
0
100
AcDbCircle
 62
2
  6
CONTINUOUS
 10
12.2294470882
 20
2.5184523265
 40
0.0024749995
100
AcDbArc
 50
269.9999571957
 51
0.0000428043
  0
LINE
  5
252
100
AcDbEntity
  8
0
100
AcDbLine
 62
2
  6
CONTINUOUS
 10
12.2294470864
 20
2.515977327
 11
12.2055050731
 21
2.515977327
  0
ARC
  5
253
100
AcDbEntity
  8
0
100
AcDbCircle
 62
2
  6
CONTINUOUS
 10
12.2055050712
 20
2.5135023274
 40
0.0024749995
100
AcDbArc
 50
89.9999571957
 51
180.0000428043
  0
LINE
  5
254
100
AcDbEntity
  8
0
100
AcDbLine
 62
2
  6
CONTINUOUS
 10
12.2030300717
 20
2.5135023256
 11
12.2030300717
 21
2.4937023146
  0
ARC
  5
255
100
AcDbEntity
  8
0
100
AcDbCircle
 62
2
  6
CONTINUOUS
 10
12.2055050712
 20
2.4937023128
 40
0.0024749995
100
AcDbArc
 50
179.9999571957
 51
270.0000428043
  0
LINE
  5
256
100
AcDbEntity
  8
0
100
AcDbLine
 62
2
  6
CONTINUOUS
 10
12.2055050731
 20
2.4912273132
 11
12.3819511709
 21
2.4912273132
  0
ARC
  5
257
100
AcDbEntity
  8
0
100
AcDbCircle
 62
2
  6
CONTINUOUS
 10
12.3792298263
 20
2.539634765
 40
0.048483885
100
AcDbArc
 50
273.21763719
 51
303.0749121182
  0
ARC
  5
258
100
AcDbEntity
  8
0
100
AcDbCircle
 62
2
  6
CONTINUOUS
 10
12.3940692204
 20
2.5168671561
 40
0.0213072145
100
AcDbArc
 50
303.0488228549
 51
355.7263138674
  0
LINE
  5
259
100
AcDbEntity
  8
0
100
AcDbLine
 62
2
  6
CONTINUOUS
 10
12.2949101227
 20
2.5499573458
 11
12.3362731456
 21
2.5499573458
  0
ARC
  5
25A
100
AcDbEntity
  8
0
100
AcDbCircle
 62
2
  6
CONTINUOUS
 10
12.3362731456
 20
2.5586198506
 40
0.0086625048
100
AcDbArc
 50
270.0
 51
90.0
  0
LINE
  5
25B
100
AcDbEntity
  8
0
100
AcDbLine
 62
2
  6
CONTINUOUS
 10
12.3362731456
 20
2.5672823554
 11
12.2949101227
 21
2.5672823554
  0
ARC
  5
25C
100
AcDbEntity
  8
0
100
AcDbCircle
 62
2
  6
CONTINUOUS
 10
12.2949101208
 20
2.5648073559
 40
0.0024749995
100
AcDbArc
 50
89.9999571957
 51
180.0000428043
  0
LINE
  5
25D
100
AcDbEntity
  8
0
100
AcDbLine
 62
2
  6
CONTINUOUS
 10
12.2924351213
 20
2.564807354
 11
12.2924351213
 21
2.5524323472
  0
ARC
  5
25E
100
AcDbEntity
  8
0
100
AcDbCircle
 62
2
  6
CONTINUOUS
 10
12.2949101208
 20
2.5524323453
 40
0.0024749995
100
AcDbArc
 50
179.9999571957
 51
270.0000428043
  0
LINE
  5
25F
100
AcDbEntity
  8
0
100
AcDbLine
 62
2
  6
CONTINUOUS
 10
12.2924351213
 20
2.5184523283
 11
12.2924351213
 21
2.5308273352
  0
ARC
  5
260
100
AcDbEntity
  8
0
100
AcDbCircle
 62
2
  6
CONTINUOUS
 10
12.2949101208
 20
2.530827337
 40
0.0024749995
100
AcDbArc
 50
89.9999571957
 51
180.0000428043
  0
LINE
  5
261
100
AcDbEntity
  8
0
100
AcDbLine
 62
2
  6
CONTINUOUS
 10
12.2949101227
 20
2.5333023366
 11
12.3362731456
 21
2.5333023366
  0
ARC
  5
262
100
AcDbEntity
  8
0
100
AcDbCircle
 62
2
  6
CONTINUOUS
 10
12.3362731456
 20
2.5246398318
 40
0.0086625048
100
AcDbArc
 50
270.0
 51
90.0
  0
LINE
  5
263
100
AcDbEntity
  8
0
100
AcDbLine
 62
2
  6
CONTINUOUS
 10
12.3362731456
 20
2.515977327
 11
12.2949101227
 21
2.515977327
  0
ARC
  5
264
100
AcDbEntity
  8
0
100
AcDbCircle
 62
2
  6
CONTINUOUS
 10
12.2949101208
 20
2.5184523265
 40
0.0024749995
100
AcDbArc
 50
179.9999571957
 51
270.0000428043
  0
ARC
  5
265
100
AcDbEntity
  8
0
100
AcDbCircle
 62
2
  6
CONTINUOUS
 10
13.5806801742
 20
2.5212486481
 40
0.044722495
100
AcDbArc
 50
195.531588407
 51
204.7624440448
  0
LINE
  5
266
100
AcDbEntity
  8
0
100
AcDbLine
 62
2
  6
CONTINUOUS
 10
13.5375908118
 20
2.5092733232
 11
13.5357868108
 21
2.5153423266
  0
ARC
  5
267
100
AcDbEntity
  8
0
100
AcDbCircle
 62
2
  6
CONTINUOUS
 10
13.4974076135
 20
2.5055452462
 40
0.0396099176
100
AcDbArc
 50
14.3201081283
 51
22.4984722084
  0
ARC
  5
268
100
AcDbEntity
  8
0
100
AcDbCircle
 62
2
  6
CONTINUOUS
 10
13.5201739219
 20
2.5145168728
 40
0.0151491919
100
AcDbArc
 50
24.098260853
 51
63.0369451818
  0
ARC
  5
269
100
AcDbEntity
  8
0
100
AcDbCircle
 62
2
  6
CONTINUOUS
 10
13.5161192671
 20
2.5062372524
 40
0.0243676582
100
AcDbArc
 50
63.3666028271
 51
90.3937697637
  0
LINE
  5
26A
100
AcDbEntity
  8
0
100
AcDbLine
 62
2
  6
CONTINUOUS
 10
13.5159517998
 20
2.5306043351
 11
13.4883447845
 21
2.5306043351
  0
ARC
  5
26B
100
AcDbEntity
  8
0
100
AcDbCircle
 62
2
  6
CONTINUOUS
 10
13.4883447827
 20
2.5281293355
 40
0.0024749995
100
AcDbArc
 50
89.9999571957
 51
180.0000428043
  0
LINE
  5
26C
100
AcDbEntity
  8
0
100
AcDbLine
 62
2
  6
CONTINUOUS
 10
13.4858697831
 20
2.5281293337
 11
13.4858697831
 21
2.5184303283
  0
ARC
  5
26D
100
AcDbEntity
  8
0
100
AcDbCircle
 62
2
  6
CONTINUOUS
 10
13.4883447827
 20
2.5184303265
 40
0.0024749995
100
AcDbArc
 50
179.9999571957
 51
270.0000428043
  0
LINE
  5
26E
100
AcDbEntity
  8
0
100
AcDbLine
 62
2
  6
CONTINUOUS
 10
13.4883447845
 20
2.5159553269
 11
13.5130037982
 21
2.5159553269
  0
ARC
  5
26F
100
AcDbEntity
  8
0
100
AcDbCircle
 62
2
  6
CONTINUOUS
 10
13.5130038
 20
2.5134803274
 40
0.0024749995
100
AcDbArc
 50
359.9999571957
 51
90.0000428043
  0
LINE
  5
270
100
AcDbEntity
  8
0
100
AcDbLine
 62
2
  6
CONTINUOUS
 10
13.5154787995
 20
2.5134803256
 11
13.5154787995
 21
2.4937023146
  0
ARC
  5
271
100
AcDbEntity
  8
0
100
AcDbCircle
 62
2
  6
CONTINUOUS
 10
13.5130038
 20
2.4937023128
 40
0.0024749995
100
AcDbArc
 50
269.9999571957
 51
0.0000428043
  0
LINE
  5
272
100
AcDbEntity
  8
0
100
AcDbLine
 62
2
  6
CONTINUOUS
 10
13.5130037982
 20
2.4912273132
 11
13.3994327352
 21
2.4912273132
  0
ARC
  5
273
100
AcDbEntity
  8
0
100
AcDbCircle
 62
2
  6
CONTINUOUS
 10
13.3994327333
 20
2.4937023128
 40
0.0024749995
100
AcDbArc
 50
179.9999571957
 51
270.0000428043
  0
LINE
  5
274
100
AcDbEntity
  8
0
100
AcDbLine
 62
2
  6
CONTINUOUS
 10
13.3969577338
 20
2.4937023146
 11
13.3969577338
 21
2.5135023256
  0
ARC
  5
275
100
AcDbEntity
  8
0
100
AcDbCircle
 62
2
  6
CONTINUOUS
 10
13.3994327333
 20
2.5135023274
 40
0.0024749995
100
AcDbArc
 50
89.9999571957
 51
180.0000428043
  0
LINE
  5
276
100
AcDbEntity
  8
0
100
AcDbLine
 62
2
  6
CONTINUOUS
 10
13.3994327352
 20
2.515977327
 11
13.4221787478
 21
2.515977327
  0
ARC
  5
277
100
AcDbEntity
  8
0
100
AcDbCircle
 62
2
  6
CONTINUOUS
 10
13.4221787497
 20
2.5184523265
 40
0.0024749995
100
AcDbArc
 50
269.9999571957
 51
0.0000428042
  0
LINE
  5
278
100
AcDbEntity
  8
0
100
AcDbLine
 62
2
  6
CONTINUOUS
 10
13.4246537492
 20
2.5184523283
 11
13.4246537492
 21
2.564807354
  0
ARC
  5
279
100
AcDbEntity
  8
0
100
AcDbCircle
 62
2
  6
CONTINUOUS
 10
13.4221787497
 20
2.5648073559
 40
0.0024749995
100
AcDbArc
 50
359.9999571957
 51
90.0000428043
  0
LINE
  5
27A
100
AcDbEntity
  8
0
100
AcDbLine
 62
2
  6
CONTINUOUS
 10
13.4221787478
 20
2.5672823554
 11
13.3994327352
 21
2.5672823554
  0
ARC
  5
27B
100
AcDbEntity
  8
0
100
AcDbCircle
 62
2
  6
CONTINUOUS
 10
13.3994327333
 20
2.5697573549
 40
0.0024749995
100
AcDbArc
 50
179.9999571957
 51
270.0000428043
  0
LINE
  5
27C
100
AcDbEntity
  8
0
100
AcDbLine
 62
2
  6
CONTINUOUS
 10
13.3969577338
 20
2.5697573568
 11
13.3969577338
 21
2.5895573678
  0
ARC
  5
27D
100
AcDbEntity
  8
0
100
AcDbCircle
 62
2
  6
CONTINUOUS
 10
13.3994327333
 20
2.5895573696
 40
0.0024749995
100
AcDbArc
 50
89.9999571957
 51
180.0000428043
  0
LINE
  5
27E
100
AcDbEntity
  8
0
100
AcDbLine
 62
2
  6
CONTINUOUS
 10
13.3994327352
 20
2.5920323691
 11
13.5490138181
 21
2.5920323691
  0
ARC
  5
27F
100
AcDbEntity
  8
0
100
AcDbCircle
 62
2
  6
CONTINUOUS
 10
13.5463505148
 20
2.4094934586
 40
0.1825583387
100
AcDbArc
 50
79.8618509324
 51
89.1640948679
  0
ARC
  5
280
100
AcDbEntity
  8
0
100
AcDbCircle
 62
2
  6
CONTINUOUS
 10
13.5726548052
 20
2.5503169747
 40
0.039319019
100
AcDbArc
 50
59.1202086415
 51
81.4730239328
  0
ARC
  5
281
100
AcDbEntity
  8
0
100
AcDbCircle
 62
2
  6
CONTINUOUS
 10
13.5783142014
 20
2.5566516438
 40
0.0310192946
100
AcDbArc
 50
34.7540871
 51
62.0879016178
  0
ARC
  5
282
100
AcDbEntity
  8
0
100
AcDbCircle
 62
2
  6
CONTINUOUS
 10
13.5900029525
 20
2.565201245
 40
0.0165459396
100
AcDbArc
 50
1.548452892
 51
33.5033152417
  0
ARC
  5
283
100
AcDbEntity
  8
0
100
AcDbCircle
 62
2
  6
CONTINUOUS
 10
13.5932995477
 20
2.5653696972
 40
0.0132462337
100
AcDbArc
 50
331.1510006998
 51
1.205404301
  0
ARC
  5
284
100
AcDbEntity
  8
0
100
AcDbCircle
 62
2
  6
CONTINUOUS
 10
13.5822888914
 20
2.5720482849
 40
0.0261183659
100
AcDbArc
 50
305.6373831893
 51
329.9727629745
  0
ARC
  5
285
100
AcDbEntity
  8
0
100
AcDbCircle
 62
2
  6
CONTINUOUS
 10
13.5519569538
 20
2.6152551345
 40
0.0789082104
100
AcDbArc
 50
292.906155071
 51
305.2574666259
  0
ARC
  5
286
100
AcDbEntity
  8
0
100
AcDbCircle
 62
2
  6
CONTINUOUS
 10
13.5282557878
 20
2.4386010294
 40
0.117346916
100
AcDbArc
 50
58.614769177
 51
62.3737227606
  0
ARC
  5
287
100
AcDbEntity
  8
0
100
AcDbCircle
 62
2
  6
CONTINUOUS
 10
13.5761387404
 20
2.5167282896
 40
0.0257145923
100
AcDbArc
 50
39.3804255939
 51
59.0361096173
  0
ARC
  5
288
100
AcDbEntity
  8
0
100
AcDbCircle
 62
2
  6
CONTINUOUS
 10
13.5750183849
 20
2.5166552064
 40
0.0266349791
100
AcDbArc
 50
20.3630922153
 51
37.9727053099
  0
ARC
  5
289
100
AcDbEntity
  8
0
100
AcDbCircle
 62
2
  6
CONTINUOUS
 10
13.5571178432
 20
2.509473798
 40
0.0459185159
100
AcDbArc
 50
15.6740290068
 51
20.9917271228
  0
ARC
  5
28A
100
AcDbEntity
  8
0
100
AcDbCircle
 62
2
  6
CONTINUOUS
 10
13.6156881783
 20
2.525116781
 40
0.0147197649
100
AcDbArc
 50
192.7054516565
 51
206.0594861022
  0
ARC
  5
28B
100
AcDbEntity
  8
0
100
AcDbCircle
 62
2
  6
CONTINUOUS
 10
13.6071938412
 20
2.5209082945
 40
0.0052403997
100
AcDbArc
 50
205.5232099488
 51
227.5054868079
  0
ARC
  5
28C
100
AcDbEntity
  8
0
100
AcDbCircle
 62
2
  6
CONTINUOUS
 10
13.6054655419
 20
2.5190929218
 40
0.0027347709
100
AcDbArc
 50
228.5117626737
 51
266.1485845754
  0
LINE
  5
28D
100
AcDbEntity
  8
0
100
AcDbLine
 62
2
  6
CONTINUOUS
 10
13.6052818493
 20
2.5163643272
 11
13.60639085
 21
2.5163643272
  0
ARC
  5
28E
100
AcDbEntity
  8
0
100
AcDbCircle
 62
2
  6
CONTINUOUS
 10
13.6063292954
 20
2.5296129864
 40
0.0132488022
100
AcDbArc
 50
270.266200055
 51
281.2404888597
  0
ARC
  5
28F
100
AcDbEntity
  8
0
100
AcDbCircle
 62
2
  6
CONTINUOUS
 10
13.6075235364
 20
2.5238762928
 40
0.0073895522
100
AcDbArc
 50
280.8288201977
 51
305.0837508495
  0
ARC
  5
290
100
AcDbEntity
  8
0
100
AcDbCircle
 62
2
  6
CONTINUOUS
 10
13.607924718
 20
2.5230254464
 40
0.0064647042
100
AcDbArc
 50
306.5086174083
 51
340.2162360092
  0
ARC
  5
291
100
AcDbEntity
  8
0
100
AcDbCircle
 62
2
  6
CONTINUOUS
 10
13.6027235414
 20
2.524769508
 40
0.0119498009
100
AcDbArc
 50
340.7883861657
 51
1.1691452593
  0
LINE
  5
292
100
AcDbEntity
  8
0
100
AcDbLine
 62
2
  6
CONTINUOUS
 10
13.6146708546
 20
2.525013332
 11
13.6146708546
 21
2.5276393334
  0
ARC
  5
293
100
AcDbEntity
  8
0
100
AcDbCircle
 62
2
  6
CONTINUOUS
 10
13.6171458541
 20
2.5276393353
 40
0.0024749995
100
AcDbArc
 50
89.9999571957
 51
180.0000428043
  0
LINE
  5
294
100
AcDbEntity
  8
0
100
AcDbLine
 62
2
  6
CONTINUOUS
 10
13.6171458559
 20
2.5301143348
 11
13.6292558626
 21
2.5301143348
  0
ARC
  5
295
100
AcDbEntity
  8
0
100
AcDbCircle
 62
2
  6
CONTINUOUS
 10
13.6292558645
 20
2.5276393353
 40
0.0024749995
100
AcDbArc
 50
359.9999571957
 51
90.0000428043
  0
LINE
  5
296
100
AcDbEntity
  8
0
100
AcDbLine
 62
2
  6
CONTINUOUS
 10
13.631730864
 20
2.5276393334
 11
13.631730864
 21
2.516087327
  0
ARC
  5
297
100
AcDbEntity
  8
0
100
AcDbCircle
 62
2
  6
CONTINUOUS
 10
13.6141751675
 20
2.5161916447
 40
0.0175560065
100
AcDbArc
 50
332.2279060967
 51
359.6595469939
  0
ARC
  5
298
100
AcDbEntity
  8
0
100
AcDbCircle
 62
2
  6
CONTINUOUS
 10
13.6048681567
 20
2.5210861501
 40
0.0280715479
100
AcDbArc
 50
308.5071794988
 51
332.2400656899
  0
ARC
  5
299
100
AcDbEntity
  8
0
100
AcDbCircle
 62
2
  6
CONTINUOUS
 10
13.5978759713
 20
2.5286873679
 40
0.0383802683
100
AcDbArc
 50
288.7656836787
 51
309.6104317088
  0
ARC
  5
29A
100
AcDbEntity
  8
0
100
AcDbCircle
 62
2
  6
CONTINUOUS
 10
13.6036139387
 20
2.5111006186
 40
0.0198837666
100
AcDbArc
 50
271.8586572978
 51
289.4131338543
  0
LINE
  5
29B
100
AcDbEntity
  8
0
100
AcDbLine
 62
2
  6
CONTINUOUS
 10
13.6042588488
 20
2.4912273132
 11
13.5568948225
 21
2.4912273132
  0
ARC
  5
29C
100
AcDbEntity
  8
0
100
AcDbCircle
 62
2
  6
CONTINUOUS
 10
13.5577001432
 20
2.5085494649
 40
0.0173408616
100
AcDbArc
 50
232.4713476722
 51
267.338189944
  0
ARC
  5
29D
100
AcDbEntity
  8
0
100
AcDbCircle
 62
2
  6
CONTINUOUS
 10
13.5607987082
 20
2.5143997688
 40
0.0238935861
100
AcDbArc
 50
209.8247607259
 51
235.1255079367
  0
ARC
  5
29E
100
AcDbEntity
  8
0
100
AcDbCircle
 62
2
  6
CONTINUOUS
 10
13.5295131508
 20
2.5629115009
 40
0.0110815393
100
AcDbArc
 50
306.758405961
 51
320.4502234234
  0
ARC
  5
29F
100
AcDbEntity
  8
0
100
AcDbCircle
 62
2
  6
CONTINUOUS
 10
13.5238839599
 20
2.5706523294
 40
0.0206523367
100
AcDbArc
 50
289.6883413472
 51
306.4184925496
  0
ARC
  5
2A0
100
AcDbEntity
  8
0
100
AcDbCircle
 62
2
  6
CONTINUOUS
 10
13.5219564542
 20
2.5750459767
 40
0.0254407115
100
AcDbArc
 50
270.7327484175
 51
290.441894219
  0
LINE
  5
2A1
100
AcDbEntity
  8
0
100
AcDbLine
 62
2
  6
CONTINUOUS
 10
13.5222818033
 20
2.5496073456
 11
13.4883447845
 21
2.5496073456
  0
ARC
  5
2A2
100
AcDbEntity
  8
0
100
AcDbCircle
 62
2
  6
CONTINUOUS
 10
13.4883447827
 20
2.5520823451
 40
0.0024749995
100
AcDbArc
 50
179.9999571957
 51
270.0000428043
  0
LINE
  5
2A3
100
AcDbEntity
  8
0
100
AcDbLine
 62
2
  6
CONTINUOUS
 10
13.4858697831
 20
2.552082347
 11
13.4858697831
 21
2.564807354
  0
ARC
  5
2A4
100
AcDbEntity
  8
0
100
AcDbCircle
 62
2
  6
CONTINUOUS
 10
13.4883447827
 20
2.5648073559
 40
0.0024749995
100
AcDbArc
 50
89.9999571957
 51
180.0000428043
  0
LINE
  5
2A5
100
AcDbEntity
  8
0
100
AcDbLine
 62
2
  6
CONTINUOUS
 10
13.4883447845
 20
2.5672823554
 11
13.5251458049
 21
2.5672823554
  0
ARC
  5
2A6
100
AcDbEntity
  8
0
100
AcDbCircle
 62
2
  6
CONTINUOUS
 10
13.5236009174
 20
2.5388278764
 40
0.0284963867
100
AcDbArc
 50
70.3834917948
 51
86.8922743861
  0
ARC
  5
2A7
100
AcDbEntity
  8
0
100
AcDbCircle
 62
2
  6
CONTINUOUS
 10
13.5284605274
 20
2.5518696094
 40
0.0145814632
100
AcDbArc
 50
54.6746025112
 51
71.1660573124
  0
ARC
  5
2A8
100
AcDbEntity
  8
0
100
AcDbCircle
 62
2
  6
CONTINUOUS
 10
13.5335900184
 20
2.5587235346
 40
0.0060275915
100
AcDbArc
 50
20.9055592135
 51
56.7851676243
  0
ARC
  5
2A9
100
AcDbEntity
  8
0
100
AcDbCircle
 62
2
  6
CONTINUOUS
 10
13.5348905773
 20
2.5593838168
 40
0.0045795888
100
AcDbArc
 50
355.6235353944
 51
18.9942678268
  0
ARC
  5
2AA
100
AcDbEntity
  8
0
100
AcDbCircle
 62
2
  6
CONTINUOUS
 10
13.533683767
 20
2.559677593
 40
0.0058087709
100
AcDbArc
 50
318.8515287446
 51
353.6422345323
  0
LINE
  5
2AB
100
AcDbEntity
  8
0
100
AcDbLine
 62
2
  6
CONTINUOUS
 10
12.672340332
 20
2.5920323691
 11
12.7727983877
 21
2.5920323691
  0
ARC
  5
2AC
100
AcDbEntity
  8
0
100
AcDbCircle
 62
2
  6
CONTINUOUS
 10
12.7727985224
 20
2.5895582013
 40
0.0024741678
100
AcDbArc
 50
46.3477981899
 51
90.0031206038
  0
LINE
  5
2AD
100
AcDbEntity
  8
0
100
AcDbLine
 62
2
  6
CONTINUOUS
 10
12.7745063886
 20
2.5913483688
 11
12.8345394219
 21
2.534068337
  0
ARC
  5
2AE
100
AcDbEntity
  8
0
100
AcDbCircle
 62
2
  6
CONTINUOUS
 10
12.8362481229
 20
2.5358592748
 40
0.0024753014
100
AcDbArc
 50
226.3461263059
 51
0.0014637321
  0
LINE
  5
2AF
100
AcDbEntity
  8
0
100
AcDbLine
 62
2
  6
CONTINUOUS
 10
12.8387234242
 20
2.535859338
 11
12.8387234242
 21
2.564807354
  0
ARC
  5
2B0
100
AcDbEntity
  8
0
100
AcDbCircle
 62
2
  6
CONTINUOUS
 10
12.8362484247
 20
2.5648073559
 40
0.0024749995
100
AcDbArc
 50
359.9999571957
 51
90.0000428043
  0
LINE
  5
2B1
100
AcDbEntity
  8
0
100
AcDbLine
 62
2
  6
CONTINUOUS
 10
12.8362484229
 20
2.5672823554
 11
12.8174724125
 21
2.5672823554
  0
ARC
  5
2B2
100
AcDbEntity
  8
0
100
AcDbCircle
 62
2
  6
CONTINUOUS
 10
12.8174724106
 20
2.5697573549
 40
0.0024749995
100
AcDbArc
 50
179.9999571957
 51
270.0000428043
  0
LINE
  5
2B3
100
AcDbEntity
  8
0
100
AcDbLine
 62
2
  6
CONTINUOUS
 10
12.8149974111
 20
2.5697573568
 11
12.8149974111
 21
2.5895573678
  0
ARC
  5
2B4
100
AcDbEntity
  8
0
100
AcDbCircle
 62
2
  6
CONTINUOUS
 10
12.8174724106
 20
2.5895573696
 40
0.0024749995
100
AcDbArc
 50
89.9999571957
 51
180.0000428043
  0
LINE
  5
2B5
100
AcDbEntity
  8
0
100
AcDbLine
 62
2
  6
CONTINUOUS
 10
12.8174724125
 20
2.5920323691
 11
12.8914734535
 21
2.5920323691
  0
ARC
  5
2B6
100
AcDbEntity
  8
0
100
AcDbCircle
 62
2
  6
CONTINUOUS
 10
12.8914734553
 20
2.5895573696
 40
0.0024749995
100
AcDbArc
 50
359.9999571957
 51
90.0000428043
  0
LINE
  5
2B7
100
AcDbEntity
  8
0
100
AcDbLine
 62
2
  6
CONTINUOUS
 10
12.8939484549
 20
2.5895573678
 11
12.8939484549
 21
2.5697573568
  0
ARC
  5
2B8
100
AcDbEntity
  8
0
100
AcDbCircle
 62
2
  6
CONTINUOUS
 10
12.8914734553
 20
2.5697573549
 40
0.0024749995
100
AcDbArc
 50
269.9999571957
 51
0.0000428043
  0
LINE
  5
2B9
100
AcDbEntity
  8
0
100
AcDbLine
 62
2
  6
CONTINUOUS
 10
12.8914734535
 20
2.5672823554
 11
12.8735404436
 21
2.5672823554
  0
ARC
  5
2BA
100
AcDbEntity
  8
0
100
AcDbCircle
 62
2
  6
CONTINUOUS
 10
12.8735404417
 20
2.5648073559
 40
0.0024749995
100
AcDbArc
 50
89.9999571957
 51
180.0000428043
  0
LINE
  5
2BB
100
AcDbEntity
  8
0
100
AcDbLine
 62
2
  6
CONTINUOUS
 10
12.8710654422
 20
2.564807354
 11
12.8710654422
 21
2.4937023146
  0
ARC
  5
2BC
100
AcDbEntity
  8
0
100
AcDbCircle
 62
2
  6
CONTINUOUS
 10
12.8685904427
 20
2.4937023128
 40
0.0024749995
100
AcDbArc
 50
269.9999571957
 51
0.0000428043
  0
LINE
  5
2BD
100
AcDbEntity
  8
0
100
AcDbLine
 62
2
  6
CONTINUOUS
 10
12.8685904408
 20
2.4912273132
 11
12.7943853997
 21
2.4912273132
  0
ARC
  5
2BE
100
AcDbEntity
  8
0
100
AcDbCircle
 62
2
  6
CONTINUOUS
 10
12.7943847649
 20
2.4937027294
 40
0.0024754162
100
AcDbArc
 50
226.3593695813
 51
270.0146919953
  0
LINE
  5
2BF
100
AcDbEntity
  8
0
100
AcDbLine
 62
2
  6
CONTINUOUS
 10
12.7926763987
 20
2.4919113136
 11
12.7293963636
 21
2.5522893471
  0
ARC
  5
2C0
100
AcDbEntity
  8
0
100
AcDbCircle
 62
2
  6
CONTINUOUS
 10
12.7276876627
 20
2.5504984093
 40
0.0024753014
100
AcDbArc
 50
46.3461263059
 51
180.0014637321
  0
LINE
  5
2C1
100
AcDbEntity
  8
0
100
AcDbLine
 62
2
  6
CONTINUOUS
 10
12.7252123613
 20
2.5504983461
 11
12.7252123613
 21
2.5184523283
  0
ARC
  5
2C2
100
AcDbEntity
  8
0
100
AcDbCircle
 62
2
  6
CONTINUOUS
 10
12.7276873608
 20
2.5184523265
 40
0.0024749995
100
AcDbArc
 50
179.9999571957
 51
270.0000428043
  0
LINE
  5
2C3
100
AcDbEntity
  8
0
100
AcDbLine
 62
2
  6
CONTINUOUS
 10
12.7276873627
 20
2.515977327
 11
12.7480043739
 21
2.515977327
  0
ARC
  5
2C4
100
AcDbEntity
  8
0
100
AcDbCircle
 62
2
  6
CONTINUOUS
 10
12.7480043758
 20
2.5135023274
 40
0.0024749995
100
AcDbArc
 50
359.9999571957
 51
90.0000428043
  0
LINE
  5
2C5
100
AcDbEntity
  8
0
100
AcDbLine
 62
2
  6
CONTINUOUS
 10
12.7504793753
 20
2.5135023256
 11
12.7504793753
 21
2.4937023146
  0
ARC
  5
2C6
100
AcDbEntity
  8
0
100
AcDbCircle
 62
2
  6
CONTINUOUS
 10
12.7480043758
 20
2.4937023128
 40
0.0024749995
100
AcDbArc
 50
269.9999571957
 51
0.0000428043
  0
LINE
  5
2C7
100
AcDbEntity
  8
0
100
AcDbLine
 62
2
  6
CONTINUOUS
 10
12.7480043739
 20
2.4912273132
 11
12.672340332
 21
2.4912273132
  0
ARC
  5
2C8
100
AcDbEntity
  8
0
100
AcDbCircle
 62
2
  6
CONTINUOUS
 10
12.6723403301
 20
2.4937023128
 40
0.0024749995
100
AcDbArc
 50
179.9999571957
 51
270.0000428043
  0
LINE
  5
2C9
100
AcDbEntity
  8
0
100
AcDbLine
 62
2
  6
CONTINUOUS
 10
12.6698653306
 20
2.4937023146
 11
12.6698653306
 21
2.5135023256
  0
ARC
  5
2CA
100
AcDbEntity
  8
0
100
AcDbCircle
 62
2
  6
CONTINUOUS
 10
12.6723403301
 20
2.5135023274
 40
0.0024749995
100
AcDbArc
 50
89.9999571957
 51
180.0000428043
  0
LINE
  5
2CB
100
AcDbEntity
  8
0
100
AcDbLine
 62
2
  6
CONTINUOUS
 10
12.672340332
 20
2.515977327
 11
12.6909873423
 21
2.515977327
  0
ARC
  5
2CC
100
AcDbEntity
  8
0
100
AcDbCircle
 62
2
  6
CONTINUOUS
 10
12.6909873442
 20
2.5184523265
 40
0.0024749995
100
AcDbArc
 50
269.9999571957
 51
0.0000428043
  0
LINE
  5
2CD
100
AcDbEntity
  8
0
100
AcDbLine
 62
2
  6
CONTINUOUS
 10
12.6934623437
 20
2.5184523283
 11
12.6934623437
 21
2.564807354
  0
ARC
  5
2CE
100
AcDbEntity
  8
0
100
AcDbCircle
 62
2
  6
CONTINUOUS
 10
12.6909873442
 20
2.5648073559
 40
0.0024749995
100
AcDbArc
 50
359.9999571957
 51
90.0000428043
  0
LINE
  5
2CF
100
AcDbEntity
  8
0
100
AcDbLine
 62
2
  6
CONTINUOUS
 10
12.6909873423
 20
2.5672823554
 11
12.672340332
 21
2.5672823554
  0
ARC
  5
2D0
100
AcDbEntity
  8
0
100
AcDbCircle
 62
2
  6
CONTINUOUS
 10
12.6723403301
 20
2.5697573549
 40
0.0024749995
100
AcDbArc
 50
179.9999571957
 51
270.0000428043
  0
LINE
  5
2D1
100
AcDbEntity
  8
0
100
AcDbLine
 62
2
  6
CONTINUOUS
 10
12.6698653306
 20
2.5697573568
 11
12.6698653306
 21
2.5895573678
  0
ARC
  5
2D2
100
AcDbEntity
  8
0
100
AcDbCircle
 62
2
  6
CONTINUOUS
 10
12.6723403301
 20
2.5895573696
 40
0.0024749995
100
AcDbArc
 50
89.9999571957
 51
180.0000428043
  0
LINE
  5
2D3
100
AcDbEntity
  8
0
100
AcDbLine
 62
2
  6
CONTINUOUS
 10
12.5246402501
 20
2.5655893545
 11
12.5175232461
 21
2.5543723483
  0
ARC
  5
2D4
100
AcDbEntity
  8
0
100
AcDbCircle
 62
2
  6
CONTINUOUS
 10
12.519613138
 20
2.5530463862
 40
0.0024750401
100
AcDbArc
 50
147.6063258012
 51
270.0025305754
  0
LINE
  5
2D5
100
AcDbEntity
  8
0
100
AcDbLine
 62
2
  6
CONTINUOUS
 10
12.5196132473
 20
2.5505713461
 11
12.5401702587
 21
2.5505713461
  0
ARC
  5
2D6
100
AcDbEntity
  8
0
100
AcDbCircle
 62
2
  6
CONTINUOUS
 10
12.5401702375
 20
2.5530465533
 40
0.0024752071
100
AcDbArc
 50
270.0004896793
 51
32.9089806818
  0
LINE
  5
2D7
100
AcDbEntity
  8
0
100
AcDbLine
 62
2
  6
CONTINUOUS
 10
12.5422482598
 20
2.5543913483
 11
12.5349892558
 21
2.5656073545
  0
ARC
  5
2D8
100
AcDbEntity
  8
0
100
AcDbCircle
 62
2
  6
CONTINUOUS
 10
12.532910715
 20
2.564262895
 40
0.0024754602
100
AcDbArc
 50
32.8959418573
 51
89.9875097202
  0
LINE
  5
2D9
100
AcDbEntity
  8
0
100
AcDbLine
 62
2
  6
CONTINUOUS
 10
12.5329112547
 20
2.5667383551
 11
12.5267302512
 21
2.5667383551
  0
ARC
  5
2DA
100
AcDbEntity
  8
0
100
AcDbCircle
 62
2
  6
CONTINUOUS
 10
12.5267301809
 20
2.5642631548
 40
0.0024752003
100
AcDbArc
 50
89.998372645
 51
147.602165307
  0
LINE
  5
2DB
100
AcDbEntity
  8
0
100
AcDbLine
 62
2
  6
CONTINUOUS
 10
12.548053263
 20
2.5284903339
 11
12.5536792662
 21
2.5197973291
  0
ARC
  5
2DC
100
AcDbEntity
  8
0
100
AcDbCircle
 62
2
  6
CONTINUOUS
 10
12.5516012439
 20
2.5184525341
 40
0.0024752071
100
AcDbArc
 50
270.0004896794
 51
32.9089806818
  0
LINE
  5
2DD
100
AcDbEntity
  8
0
100
AcDbLine
 62
2
  6
CONTINUOUS
 10
12.551601265
 20
2.515977327
 11
12.537150257
 21
2.515977327
  0
ARC
  5
2DE
100
AcDbEntity
  8
0
100
AcDbCircle
 62
2
  6
CONTINUOUS
 10
12.5371502552
 20
2.5135023274
 40
0.0024749995
100
AcDbArc
 50
89.9999571957
 51
180.0000428043
  0
LINE
  5
2DF
100
AcDbEntity
  8
0
100
AcDbLine
 62
2
  6
CONTINUOUS
 10
12.5346752556
 20
2.5135023256
 11
12.5346752556
 21
2.4937023146
  0
ARC
  5
2E0
100
AcDbEntity
  8
0
100
AcDbCircle
 62
2
  6
CONTINUOUS
 10
12.5371502552
 20
2.4937023128
 40
0.0024749995
100
AcDbArc
 50
179.9999571957
 51
270.0000428043
  0
LINE
  5
2E1
100
AcDbEntity
  8
0
100
AcDbLine
 62
2
  6
CONTINUOUS
 10
12.537150257
 20
2.4912273132
 11
12.6424313154
 21
2.4912273132
  0
ARC
  5
2E2
100
AcDbEntity
  8
0
100
AcDbCircle
 62
2
  6
CONTINUOUS
 10
12.6424313172
 20
2.4937023128
 40
0.0024749995
100
AcDbArc
 50
269.9999571957
 51
0.0000428043
  0
LINE
  5
2E3
100
AcDbEntity
  8
0
100
AcDbLine
 62
2
  6
CONTINUOUS
 10
12.6449063168
 20
2.4937023146
 11
12.6449063168
 21
2.5135023256
  0
ARC
  5
2E4
100
AcDbEntity
  8
0
100
AcDbCircle
 62
2
  6
CONTINUOUS
 10
12.6424313172
 20
2.5135023274
 40
0.0024749995
100
AcDbArc
 50
359.9999571957
 51
90.0000428043
  0
LINE
  5
2E5
100
AcDbEntity
  8
0
100
AcDbLine
 62
2
  6
CONTINUOUS
 10
12.6424313154
 20
2.515977327
 11
12.6224153043
 21
2.515977327
  0
ARC
  5
2E6
100
AcDbEntity
  8
0
100
AcDbCircle
 62
2
  6
CONTINUOUS
 10
12.6224154248
 20
2.518451368
 40
0.002474041
100
AcDbArc
 50
212.9056413127
 51
269.9972091756
  0
LINE
  5
2E7
100
AcDbEntity
  8
0
100
AcDbLine
 62
2
  6
CONTINUOUS
 10
12.6203383031
 20
2.5171073276
 11
12.5725822767
 21
2.5909023685
  0
ARC
  5
2E8
100
AcDbEntity
  8
0
100
AcDbCircle
 62
2
  6
CONTINUOUS
 10
12.570504655
 20
2.589557409
 40
0.0024749602
100
AcDbArc
 50
32.9172174468
 51
90.0087853097
  0
LINE
  5
2E9
100
AcDbEntity
  8
0
100
AcDbLine
 62
2
  6
CONTINUOUS
 10
12.5705042755
 20
2.5920323691
 11
12.5133292438
 21
2.5920323691
  0
ARC
  5
2EA
100
AcDbEntity
  8
0
100
AcDbCircle
 62
2
  6
CONTINUOUS
 10
12.5133291735
 20
2.5895571688
 40
0.0024752003
100
AcDbArc
 50
89.9983726451
 51
147.602165307
  0
LINE
  5
2EB
100
AcDbEntity
  8
0
100
AcDbLine
 62
2
  6
CONTINUOUS
 10
12.5112392426
 20
2.5908833685
 11
12.4644392167
 21
2.5171263276
  0
ARC
  5
2EC
100
AcDbEntity
  8
0
100
AcDbCircle
 62
2
  6
CONTINUOUS
 10
12.4623492858
 20
2.5184525273
 40
0.0024752003
100
AcDbArc
 50
269.9983726451
 51
327.602165307
  0
LINE
  5
2ED
100
AcDbEntity
  8
0
100
AcDbLine
 62
2
  6
CONTINUOUS
 10
12.4623492155
 20
2.515977327
 11
12.4394882028
 21
2.515977327
  0
ARC
  5
2EE
100
AcDbEntity
  8
0
100
AcDbCircle
 62
2
  6
CONTINUOUS
 10
12.439488201
 20
2.5135023274
 40
0.0024749995
100
AcDbArc
 50
89.9999571957
 51
180.0000428043
  0
LINE
  5
2EF
100
AcDbEntity
  8
0
100
AcDbLine
 62
2
  6
CONTINUOUS
 10
12.4370132015
 20
2.5135023256
 11
12.4370132015
 21
2.4937023146
  0
ARC
  5
2F0
100
AcDbEntity
  8
0
100
AcDbCircle
 62
2
  6
CONTINUOUS
 10
12.439488201
 20
2.4937023128
 40
0.0024749995
100
AcDbArc
 50
179.9999571957
 51
270.0000428043
  0
LINE
  5
2F1
100
AcDbEntity
  8
0
100
AcDbLine
 62
2
  6
CONTINUOUS
 10
12.4394882028
 20
2.4912273132
 11
12.5168642458
 21
2.4912273132
  0
ARC
  5
2F2
100
AcDbEntity
  8
0
100
AcDbCircle
 62
2
  6
CONTINUOUS
 10
12.5168642476
 20
2.4937023128
 40
0.0024749995
100
AcDbArc
 50
269.9999571957
 51
0.0000428043
  0
LINE
  5
2F3
100
AcDbEntity
  8
0
100
AcDbLine
 62
2
  6
CONTINUOUS
 10
12.5193392471
 20
2.4937023146
 11
12.5193392471
 21
2.5135023256
  0
ARC
  5
2F4
100
AcDbEntity
  8
0
100
AcDbCircle
 62
2
  6
CONTINUOUS
 10
12.5168642476
 20
2.5135023274
 40
0.0024749995
100
AcDbArc
 50
359.9999571957
 51
90.0000428043
  0
LINE
  5
2F5
100
AcDbEntity
  8
0
100
AcDbLine
 62
2
  6
CONTINUOUS
 10
12.5168642458
 20
2.515977327
 11
12.5055812395
 21
2.515977327
  0
ARC
  5
2F6
100
AcDbEntity
  8
0
100
AcDbCircle
 62
2
  6
CONTINUOUS
 10
12.5055811302
 20
2.518452367
 40
0.0024750401
100
AcDbArc
 50
147.6063258011
 51
270.0025305754
  0
LINE
  5
2F7
100
AcDbEntity
  8
0
100
AcDbLine
 62
2
  6
CONTINUOUS
 10
12.5034912383
 20
2.5197783291
 11
12.5090072414
 21
2.5284723339
  0
ARC
  5
2F8
100
AcDbEntity
  8
0
100
AcDbCircle
 62
2
  6
CONTINUOUS
 10
12.5110971723
 20
2.5271461342
 40
0.0024752003
100
AcDbArc
 50
89.998372645
 51
147.602165307
  0
LINE
  5
2F9
100
AcDbEntity
  8
0
100
AcDbLine
 62
2
  6
CONTINUOUS
 10
12.5110972426
 20
2.5296213345
 11
12.5459752619
 21
2.5296213345
  0
ARC
  5
2FA
100
AcDbEntity
  8
0
100
AcDbCircle
 62
2
  6
CONTINUOUS
 10
12.5459747223
 20
2.5271458744
 40
0.0024754602
100
AcDbArc
 50
32.8959418573
 51
89.9875097202
  0
LINE
  5
2FB
100
AcDbEntity
  8
0
100
AcDbLine
 62
2
  6
CONTINUOUS
 10
12.9205934696
 20
2.5920323691
 11
13.0210515254
 21
2.5920323691
  0
ARC
  5
2FC
100
AcDbEntity
  8
0
100
AcDbCircle
 62
2
  6
CONTINUOUS
 10
13.0210516601
 20
2.5895582013
 40
0.0024741678
100
AcDbArc
 50
46.3477981899
 51
90.0031206038
  0
LINE
  5
2FD
100
AcDbEntity
  8
0
100
AcDbLine
 62
2
  6
CONTINUOUS
 10
13.0227595263
 20
2.5913483688
 11
13.0827925596
 21
2.534068337
  0
ARC
  5
2FE
100
AcDbEntity
  8
0
100
AcDbCircle
 62
2
  6
CONTINUOUS
 10
13.0845012605
 20
2.5358592748
 40
0.0024753014
100
AcDbArc
 50
226.3461263059
 51
0.0014637321
  0
LINE
  5
2FF
100
AcDbEntity
  8
0
100
AcDbLine
 62
2
  6
CONTINUOUS
 10
13.0869765619
 20
2.535859338
 11
13.0869765619
 21
2.564807354
  0
ARC
  5
300
100
AcDbEntity
  8
0
100
AcDbCircle
 62
2
  6
CONTINUOUS
 10
13.0845015624
 20
2.5648073559
 40
0.0024749995
100
AcDbArc
 50
359.9999571957
 51
90.0000428043
  0
LINE
  5
301
100
AcDbEntity
  8
0
100
AcDbLine
 62
2
  6
CONTINUOUS
 10
13.0845015605
 20
2.5672823554
 11
13.0657255501
 21
2.5672823554
  0
ARC
  5
302
100
AcDbEntity
  8
0
100
AcDbCircle
 62
2
  6
CONTINUOUS
 10
13.0657255483
 20
2.5697573549
 40
0.0024749995
100
AcDbArc
 50
179.9999571957
 51
270.0000428043
  0
LINE
  5
303
100
AcDbEntity
  8
0
100
AcDbLine
 62
2
  6
CONTINUOUS
 10
13.0632505488
 20
2.5697573568
 11
13.0632505488
 21
2.5895573678
  0
ARC
  5
304
100
AcDbEntity
  8
0
100
AcDbCircle
 62
2
  6
CONTINUOUS
 10
13.0657255483
 20
2.5895573696
 40
0.0024749995
100
AcDbArc
 50
89.9999571957
 51
180.0000428043
  0
LINE
  5
305
100
AcDbEntity
  8
0
100
AcDbLine
 62
2
  6
CONTINUOUS
 10
13.0657255501
 20
2.5920323691
 11
13.1397265912
 21
2.5920323691
  0
ARC
  5
306
100
AcDbEntity
  8
0
100
AcDbCircle
 62
2
  6
CONTINUOUS
 10
13.139726593
 20
2.5895573696
 40
0.0024749995
100
AcDbArc
 50
359.9999571957
 51
90.0000428043
  0
LINE
  5
307
100
AcDbEntity
  8
0
100
AcDbLine
 62
2
  6
CONTINUOUS
 10
13.1422015925
 20
2.5895573678
 11
13.1422015925
 21
2.5697573568
  0
ARC
  5
308
100
AcDbEntity
  8
0
100
AcDbCircle
 62
2
  6
CONTINUOUS
 10
13.139726593
 20
2.5697573549
 40
0.0024749995
100
AcDbArc
 50
269.9999571957
 51
0.0000428042
  0
LINE
  5
309
100
AcDbEntity
  8
0
100
AcDbLine
 62
2
  6
CONTINUOUS
 10
13.1397265912
 20
2.5672823554
 11
13.1217935812
 21
2.5672823554
  0
ARC
  5
30A
100
AcDbEntity
  8
0
100
AcDbCircle
 62
2
  6
CONTINUOUS
 10
13.1217935794
 20
2.5648073559
 40
0.0024749995
100
AcDbArc
 50
89.9999571957
 51
180.0000428042
  0
LINE
  5
30B
100
AcDbEntity
  8
0
100
AcDbLine
 62
2
  6
CONTINUOUS
 10
13.1193185799
 20
2.564807354
 11
13.1193185799
 21
2.4937023146
  0
ARC
  5
30C
100
AcDbEntity
  8
0
100
AcDbCircle
 62
2
  6
CONTINUOUS
 10
13.1168435803
 20
2.4937023128
 40
0.0024749995
100
AcDbArc
 50
269.9999571957
 51
0.0000428043
  0
LINE
  5
30D
100
AcDbEntity
  8
0
100
AcDbLine
 62
2
  6
CONTINUOUS
 10
13.1168435785
 20
2.4912273132
 11
13.0426375373
 21
2.4912273132
  0
ARC
  5
30E
100
AcDbEntity
  8
0
100
AcDbCircle
 62
2
  6
CONTINUOUS
 10
13.0426374026
 20
2.493701481
 40
0.0024741678
100
AcDbArc
 50
226.3477981898
 51
270.0031206038
  0
LINE
  5
30F
100
AcDbEntity
  8
0
100
AcDbLine
 62
2
  6
CONTINUOUS
 10
13.0409295364
 20
2.4919113136
 11
12.9776495013
 21
2.5522893471
  0
ARC
  5
310
100
AcDbEntity
  8
0
100
AcDbCircle
 62
2
  6
CONTINUOUS
 10
12.9759408003
 20
2.5504984093
 40
0.0024753014
100
AcDbArc
 50
46.3461263059
 51
180.0014637321
  0
LINE
  5
311
100
AcDbEntity
  8
0
100
AcDbLine
 62
2
  6
CONTINUOUS
 10
12.973465499
 20
2.5504983461
 11
12.973465499
 21
2.5184523283
  0
ARC
  5
312
100
AcDbEntity
  8
0
100
AcDbCircle
 62
2
  6
CONTINUOUS
 10
12.9759404985
 20
2.5184523265
 40
0.0024749995
100
AcDbArc
 50
179.9999571957
 51
270.0000428043
  0
LINE
  5
313
100
AcDbEntity
  8
0
100
AcDbLine
 62
2
  6
CONTINUOUS
 10
12.9759405003
 20
2.515977327
 11
12.9962575116
 21
2.515977327
  0
ARC
  5
314
100
AcDbEntity
  8
0
100
AcDbCircle
 62
2
  6
CONTINUOUS
 10
12.9962575135
 20
2.5135023274
 40
0.0024749995
100
AcDbArc
 50
359.9999571957
 51
90.0000428043
  0
LINE
  5
315
100
AcDbEntity
  8
0
100
AcDbLine
 62
2
  6
CONTINUOUS
 10
12.998732513
 20
2.5135023256
 11
12.998732513
 21
2.4937023146
  0
ARC
  5
316
100
AcDbEntity
  8
0
100
AcDbCircle
 62
2
  6
CONTINUOUS
 10
12.9962575135
 20
2.4937023128
 40
0.0024749995
100
AcDbArc
 50
269.9999571957
 51
0.0000428043
  0
LINE
  5
317
100
AcDbEntity
  8
0
100
AcDbLine
 62
2
  6
CONTINUOUS
 10
12.9962575116
 20
2.4912273132
 11
12.9205934696
 21
2.4912273132
  0
ARC
  5
318
100
AcDbEntity
  8
0
100
AcDbCircle
 62
2
  6
CONTINUOUS
 10
12.9205934678
 20
2.4937023128
 40
0.0024749995
100
AcDbArc
 50
179.9999571957
 51
270.0000428043
  0
LINE
  5
319
100
AcDbEntity
  8
0
100
AcDbLine
 62
2
  6
CONTINUOUS
 10
12.9181184683
 20
2.4937023146
 11
12.9181184683
 21
2.5135023256
  0
ARC
  5
31A
100
AcDbEntity
  8
0
100
AcDbCircle
 62
2
  6
CONTINUOUS
 10
12.9205934678
 20
2.5135023274
 40
0.0024749995
100
AcDbArc
 50
89.9999571957
 51
180.0000428042
  0
LINE
  5
31B
100
AcDbEntity
  8
0
100
AcDbLine
 62
2
  6
CONTINUOUS
 10
12.9205934696
 20
2.515977327
 11
12.93923948
 21
2.515977327
  0
ARC
  5
31C
100
AcDbEntity
  8
0
100
AcDbCircle
 62
2
  6
CONTINUOUS
 10
12.9392394818
 20
2.5184523265
 40
0.0024749995
100
AcDbArc
 50
269.9999571957
 51
0.0000428043
  0
LINE
  5
31D
100
AcDbEntity
  8
0
100
AcDbLine
 62
2
  6
CONTINUOUS
 10
12.9417144814
 20
2.5184523283
 11
12.9417144814
 21
2.564807354
  0
ARC
  5
31E
100
AcDbEntity
  8
0
100
AcDbCircle
 62
2
  6
CONTINUOUS
 10
12.9392394818
 20
2.5648073559
 40
0.0024749995
100
AcDbArc
 50
359.9999571957
 51
90.0000428043
  0
LINE
  5
31F
100
AcDbEntity
  8
0
100
AcDbLine
 62
2
  6
CONTINUOUS
 10
12.93923948
 20
2.5672823554
 11
12.9205934696
 21
2.5672823554
  0
ARC
  5
320
100
AcDbEntity
  8
0
100
AcDbCircle
 62
2
  6
CONTINUOUS
 10
12.9205934678
 20
2.5697573549
 40
0.0024749995
100
AcDbArc
 50
179.9999571957
 51
270.0000428043
  0
LINE
  5
321
100
AcDbEntity
  8
0
100
AcDbLine
 62
2
  6
CONTINUOUS
 10
12.9181184683
 20
2.5697573568
 11
12.9181184683
 21
2.5895573678
  0
ARC
  5
322
100
AcDbEntity
  8
0
100
AcDbCircle
 62
2
  6
CONTINUOUS
 10
12.9205934678
 20
2.5895573696
 40
0.0024749995
100
AcDbArc
 50
89.9999571957
 51
180.0000428042
  0
LINE
  5
323
100
AcDbEntity
  8
0
100
AcDbLine
 62
2
  6
CONTINUOUS
 10
13.2934226764
 20
2.5324773361
 11
13.2582556569
 21
2.5324773361
  0
ARC
  5
324
100
AcDbEntity
  8
0
100
AcDbCircle
 62
2
  6
CONTINUOUS
 10
13.2582556551
 20
2.5300023366
 40
0.0024749995
100
AcDbArc
 50
89.9999571957
 51
180.0000428043
  0
LINE
  5
325
100
AcDbEntity
  8
0
100
AcDbLine
 62
2
  6
CONTINUOUS
 10
13.2557806555
 20
2.5300023347
 11
13.2557806555
 21
2.5184523283
  0
ARC
  5
326
100
AcDbEntity
  8
0
100
AcDbCircle
 62
2
  6
CONTINUOUS
 10
13.2582556551
 20
2.5184523265
 40
0.0024749995
100
AcDbArc
 50
179.9999571957
 51
270.0000428043
  0
LINE
  5
327
100
AcDbEntity
  8
0
100
AcDbLine
 62
2
  6
CONTINUOUS
 10
13.2582556569
 20
2.515977327
 11
13.3232596929
 21
2.515977327
  0
ARC
  5
328
100
AcDbEntity
  8
0
100
AcDbCircle
 62
2
  6
CONTINUOUS
 10
13.3232596948
 20
2.5184523265
 40
0.0024749995
100
AcDbArc
 50
269.9999571957
 51
0.0000428043
  0
LINE
  5
329
100
AcDbEntity
  8
0
100
AcDbLine
 62
2
  6
CONTINUOUS
 10
13.3257346943
 20
2.5184523283
 11
13.3257346943
 21
2.5267023329
  0
ARC
  5
32A
100
AcDbEntity
  8
0
100
AcDbCircle
 62
2
  6
CONTINUOUS
 10
13.3282096938
 20
2.5267023348
 40
0.0024749995
100
AcDbArc
 50
89.9999571957
 51
180.0000428043
  0
LINE
  5
32B
100
AcDbEntity
  8
0
100
AcDbLine
 62
2
  6
CONTINUOUS
 10
13.3282096957
 20
2.5291773343
 11
13.3705287192
 21
2.5291773343
  0
ARC
  5
32C
100
AcDbEntity
  8
0
100
AcDbCircle
 62
2
  6
CONTINUOUS
 10
13.370528721
 20
2.5267023348
 40
0.0024749995
100
AcDbArc
 50
359.9999571957
 51
90.0000428043
  0
LINE
  5
32D
100
AcDbEntity
  8
0
100
AcDbLine
 62
2
  6
CONTINUOUS
 10
13.3730037205
 20
2.5267023329
 11
13.3730037205
 21
2.4937023146
  0
ARC
  5
32E
100
AcDbEntity
  8
0
100
AcDbCircle
 62
2
  6
CONTINUOUS
 10
13.370528721
 20
2.4937023128
 40
0.0024749995
100
AcDbArc
 50
269.9999571957
 51
0.0000428043
  0
LINE
  5
32F
100
AcDbEntity
  8
0
100
AcDbLine
 62
2
  6
CONTINUOUS
 10
13.3705287192
 20
2.4912273132
 11
13.1673166065
 21
2.4912273132
  0
ARC
  5
330
100
AcDbEntity
  8
0
100
AcDbCircle
 62
2
  6
CONTINUOUS
 10
13.1673166046
 20
2.4937023128
 40
0.0024749995
100
AcDbArc
 50
179.9999571957
 51
270.0000428043
  0
LINE
  5
331
100
AcDbEntity
  8
0
100
AcDbLine
 62
2
  6
CONTINUOUS
 10
13.1648416051
 20
2.4937023146
 11
13.1648416051
 21
2.5135023256
  0
ARC
  5
332
100
AcDbEntity
  8
0
100
AcDbCircle
 62
2
  6
CONTINUOUS
 10
13.1673166046
 20
2.5135023274
 40
0.0024749995
100
AcDbArc
 50
89.9999571957
 51
180.0000428043
  0
LINE
  5
333
100
AcDbEntity
  8
0
100
AcDbLine
 62
2
  6
CONTINUOUS
 10
13.1673166065
 20
2.515977327
 11
13.1912396197
 21
2.515977327
  0
ARC
  5
334
100
AcDbEntity
  8
0
100
AcDbCircle
 62
2
  6
CONTINUOUS
 10
13.1912396216
 20
2.5184523265
 40
0.0024749995
100
AcDbArc
 50
269.9999571957
 51
0.0000428042
  0
LINE
  5
335
100
AcDbEntity
  8
0
100
AcDbLine
 62
2
  6
CONTINUOUS
 10
13.1937146211
 20
2.5184523283
 11
13.1937146211
 21
2.564807354
  0
ARC
  5
336
100
AcDbEntity
  8
0
100
AcDbCircle
 62
2
  6
CONTINUOUS
 10
13.1912396216
 20
2.5648073559
 40
0.0024749995
100
AcDbArc
 50
359.9999571957
 51
90.0000428043
  0
LINE
  5
337
100
AcDbEntity
  8
0
100
AcDbLine
 62
2
  6
CONTINUOUS
 10
13.1912396197
 20
2.5672823554
 11
13.1673166065
 21
2.5672823554
  0
ARC
  5
338
100
AcDbEntity
  8
0
100
AcDbCircle
 62
2
  6
CONTINUOUS
 10
13.1673166046
 20
2.5697573549
 40
0.0024749995
100
AcDbArc
 50
179.9999571957
 51
270.0000428043
  0
LINE
  5
339
100
AcDbEntity
  8
0
100
AcDbLine
 62
2
  6
CONTINUOUS
 10
13.1648416051
 20
2.5697573568
 11
13.1648416051
 21
2.5895573678
  0
ARC
  5
33A
100
AcDbEntity
  8
0
100
AcDbCircle
 62
2
  6
CONTINUOUS
 10
13.1673166046
 20
2.5895573696
 40
0.0024749995
100
AcDbArc
 50
89.9999571957
 51
180.0000428043
  0
LINE
  5
33B
100
AcDbEntity
  8
0
100
AcDbLine
 62
2
  6
CONTINUOUS
 10
13.1673166065
 20
2.5920323691
 11
13.3691097184
 21
2.5920323691
  0
ARC
  5
33C
100
AcDbEntity
  8
0
100
AcDbCircle
 62
2
  6
CONTINUOUS
 10
13.3691097202
 20
2.5895573696
 40
0.0024749995
100
AcDbArc
 50
359.9999571957
 51
90.0000428043
  0
LINE
  5
33D
100
AcDbEntity
  8
0
100
AcDbLine
 62
2
  6
CONTINUOUS
 10
13.3715847197
 20
2.5895573678
 11
13.3715847197
 21
2.5565573495
  0
ARC
  5
33E
100
AcDbEntity
  8
0
100
AcDbCircle
 62
2
  6
CONTINUOUS
 10
13.3691097202
 20
2.5565573476
 40
0.0024749995
100
AcDbArc
 50
269.9999571957
 51
0.0000428042
  0
LINE
  5
33F
100
AcDbEntity
  8
0
100
AcDbLine
 62
2
  6
CONTINUOUS
 10
13.3691097184
 20
2.5540823481
 11
13.3272456952
 21
2.5540823481
  0
ARC
  5
340
100
AcDbEntity
  8
0
100
AcDbCircle
 62
2
  6
CONTINUOUS
 10
13.3272456933
 20
2.5565573476
 40
0.0024749995
100
AcDbArc
 50
179.9999571957
 51
270.0000428043
  0
LINE
  5
341
100
AcDbEntity
  8
0
100
AcDbLine
 62
2
  6
CONTINUOUS
 10
13.3247706938
 20
2.5565573495
 11
13.3247706938
 21
2.564807354
  0
ARC
  5
342
100
AcDbEntity
  8
0
100
AcDbCircle
 62
2
  6
CONTINUOUS
 10
13.3222956943
 20
2.5648073559
 40
0.0024749995
100
AcDbArc
 50
359.9999571957
 51
90.0000428043
  0
LINE
  5
343
100
AcDbEntity
  8
0
100
AcDbLine
 62
2
  6
CONTINUOUS
 10
13.3222956924
 20
2.5672823554
 11
13.2582556569
 21
2.5672823554
  0
ARC
  5
344
100
AcDbEntity
  8
0
100
AcDbCircle
 62
2
  6
CONTINUOUS
 10
13.2582556551
 20
2.5648073559
 40
0.0024749995
100
AcDbArc
 50
89.9999571957
 51
180.0000428043
  0
LINE
  5
345
100
AcDbEntity
  8
0
100
AcDbLine
 62
2
  6
CONTINUOUS
 10
13.2557806555
 20
2.564807354
 11
13.2557806555
 21
2.5532573476
  0
ARC
  5
346
100
AcDbEntity
  8
0
100
AcDbCircle
 62
2
  6
CONTINUOUS
 10
13.2582556551
 20
2.5532573458
 40
0.0024749995
100
AcDbArc
 50
179.9999571957
 51
270.0000428043
  0
LINE
  5
347
100
AcDbEntity
  8
0
100
AcDbLine
 62
2
  6
CONTINUOUS
 10
13.2582556569
 20
2.5507823463
 11
13.2934226764
 21
2.5507823463
  0
ARC
  5
348
100
AcDbEntity
  8
0
100
AcDbCircle
 62
2
  6
CONTINUOUS
 10
13.2934226783
 20
2.5483073467
 40
0.0024749995
100
AcDbArc
 50
359.9999571957
 51
90.0000428043
  0
LINE
  5
349
100
AcDbEntity
  8
0
100
AcDbLine
 62
2
  6
CONTINUOUS
 10
13.2958976778
 20
2.5483073449
 11
13.2958976778
 21
2.5349523375
  0
ARC
  5
34A
100
AcDbEntity
  8
0
100
AcDbCircle
 62
2
  6
CONTINUOUS
 10
13.2934226783
 20
2.5349523356
 40
0.0024749995
100
AcDbArc
 50
269.9999571957
 51
0.0000428042
  0
LINE
  5
34B
100
AcDbEntity
  8
0
100
AcDbLine
 62
2
  6
CONTINUOUS
 10
13.7286871589
 20
2.5350697372
 11
13.7286871589
 21
2.5456869438
  0
LINE
  5
34C
100
AcDbEntity
  8
0
100
AcDbLine
 62
2
  6
CONTINUOUS
 10
13.7086871478
 20
2.5004302075
 11
13.7086871478
 21
2.5803264735
  0
LINE
  5
34D
100
AcDbEntity
  8
0
100
AcDbLine
 62
2
  6
CONTINUOUS
 10
13.6886871368
 20
2.4843919416
 11
13.6886871368
 21
2.5963647394
  0
LINE
  5
34E
100
AcDbEntity
  8
0
100
AcDbLine
 62
2
  6
CONTINUOUS
 10
13.6686871257
 20
2.4726017898
 11
13.6686871257
 21
2.6081548911
  0
LINE
  5
34F
100
AcDbEntity
  8
0
100
AcDbLine
 62
2
  6
CONTINUOUS
 10
13.6486871146
 20
2.4628062688
 11
13.6486871146
 21
2.6179504122
  0
LINE
  5
350
100
AcDbEntity
  8
0
100
AcDbLine
 62
2
  6
CONTINUOUS
 10
13.6286871035
 20
2.4541253507
 11
13.6286871035
 21
2.5062483056
  0
LINE
  5
351
100
AcDbEntity
  8
0
100
AcDbLine
 62
2
  6
CONTINUOUS
 10
13.6286871035
 20
2.5301143348
 11
13.6286871035
 21
2.6266313303
  0
LINE
  5
352
100
AcDbEntity
  8
0
100
AcDbLine
 62
2
  6
CONTINUOUS
 10
13.6086870924
 20
2.4465537903
 11
13.6086870924
 21
2.4918774918
  0
LINE
  5
353
100
AcDbEntity
  8
0
100
AcDbLine
 62
2
  6
CONTINUOUS
 10
13.6086870924
 20
2.5165781173
 11
13.6086870924
 21
2.6342028907
  0
LINE
  5
354
100
AcDbEntity
  8
0
100
AcDbLine
 62
2
  6
CONTINUOUS
 10
13.5886870813
 20
2.4398033466
 11
13.5886870813
 21
2.4912273132
  0
LINE
  5
355
100
AcDbEntity
  8
0
100
AcDbLine
 62
2
  6
CONTINUOUS
 10
13.5886870813
 20
2.5391840845
 11
13.5886870813
 21
2.5454298327
  0
LINE
  5
356
100
AcDbEntity
  8
0
100
AcDbLine
 62
2
  6
CONTINUOUS
 10
13.5886870813
 20
2.5862063472
 11
13.5886870813
 21
2.6409533343
  0
LINE
  5
357
100
AcDbEntity
  8
0
100
AcDbLine
 62
2
  6
CONTINUOUS
 10
13.5686870702
 20
2.4334702189
 11
13.5686870702
 21
2.4912273132
  0
LINE
  5
358
100
AcDbEntity
  8
0
100
AcDbLine
 62
2
  6
CONTINUOUS
 10
13.5686870702
 20
2.5906587765
 11
13.5686870702
 21
2.647286462
  0
LINE
  5
359
100
AcDbEntity
  8
0
100
AcDbLine
 62
2
  6
CONTINUOUS
 10
13.5486870591
 20
2.4278968124
 11
13.5486870591
 21
2.4937461006
  0
LINE
  5
35A
100
AcDbEntity
  8
0
100
AcDbLine
 62
2
  6
CONTINUOUS
 10
13.5486870591
 20
2.5920323691
 11
13.5486870591
 21
2.6528598686
  0
LINE
  5
35B
100
AcDbEntity
  8
0
100
AcDbLine
 62
2
  6
CONTINUOUS
 10
13.528687048
 20
2.4225427674
 11
13.528687048
 21
2.5270426993
  0
LINE
  5
35C
100
AcDbEntity
  8
0
100
AcDbLine
 62
2
  6
CONTINUOUS
 10
13.528687048
 20
2.5505166259
 11
13.528687048
 21
2.5668657091
  0
LINE
  5
35D
100
AcDbEntity
  8
0
100
AcDbLine
 62
2
  6
CONTINUOUS
 10
13.528687048
 20
2.5920323691
 11
13.528687048
 21
2.6582139136
  0
LINE
  5
35E
100
AcDbEntity
  8
0
100
AcDbLine
 62
2
  6
CONTINUOUS
 10
13.5086870369
 20
2.4177306791
 11
13.5086870369
 21
2.4912273132
  0
LINE
  5
35F
100
AcDbEntity
  8
0
100
AcDbLine
 62
2
  6
CONTINUOUS
 10
13.5086870369
 20
2.5159553269
 11
13.5086870369
 21
2.5306043351
  0
LINE
  5
360
100
AcDbEntity
  8
0
100
AcDbLine
 62
2
  6
CONTINUOUS
 10
13.5086870369
 20
2.5496073456
 11
13.5086870369
 21
2.5672823554
  0
LINE
  5
361
100
AcDbEntity
  8
0
100
AcDbLine
 62
2
  6
CONTINUOUS
 10
13.5086870369
 20
2.5920323691
 11
13.5086870369
 21
2.6630260019
  0
LINE
  5
362
100
AcDbEntity
  8
0
100
AcDbLine
 62
2
  6
CONTINUOUS
 10
13.4886870258
 20
2.4131795254
 11
13.4886870258
 21
2.4912273132
  0
LINE
  5
363
100
AcDbEntity
  8
0
100
AcDbLine
 62
2
  6
CONTINUOUS
 10
13.4886870258
 20
2.5159553269
 11
13.4886870258
 21
2.5306043351
  0
LINE
  5
364
100
AcDbEntity
  8
0
100
AcDbLine
 62
2
  6
CONTINUOUS
 10
13.4886870258
 20
2.5496073456
 11
13.4886870258
 21
2.5672823554
  0
LINE
  5
365
100
AcDbEntity
  8
0
100
AcDbLine
 62
2
  6
CONTINUOUS
 10
13.4886870258
 20
2.5920323691
 11
13.4886870258
 21
2.6675771555
  0
LINE
  5
366
100
AcDbEntity
  8
0
100
AcDbLine
 62
2
  6
CONTINUOUS
 10
13.4686870147
 20
2.4088819672
 11
13.4686870147
 21
2.4912273132
  0
LINE
  5
367
100
AcDbEntity
  8
0
100
AcDbLine
 62
2
  6
CONTINUOUS
 10
13.4686870147
 20
2.5920323691
 11
13.4686870147
 21
2.6718747138
  0
LINE
  5
368
100
AcDbEntity
  8
0
100
AcDbLine
 62
2
  6
CONTINUOUS
 10
13.4486870037
 20
2.4050092072
 11
13.4486870037
 21
2.4912273132
  0
LINE
  5
369
100
AcDbEntity
  8
0
100
AcDbLine
 62
2
  6
CONTINUOUS
 10
13.4486870037
 20
2.5920323691
 11
13.4486870037
 21
2.6757474738
  0
LINE
  5
36A
100
AcDbEntity
  8
0
100
AcDbLine
 62
2
  6
CONTINUOUS
 10
13.4286869926
 20
2.4011364471
 11
13.4286869926
 21
2.4912273132
  0
LINE
  5
36B
100
AcDbEntity
  8
0
100
AcDbLine
 62
2
  6
CONTINUOUS
 10
13.4286869926
 20
2.5920323691
 11
13.4286869926
 21
2.6796202339
  0
LINE
  5
36C
100
AcDbEntity
  8
0
100
AcDbLine
 62
2
  6
CONTINUOUS
 10
13.4086869815
 20
2.3980226662
 11
13.4086869815
 21
2.4912273132
  0
LINE
  5
36D
100
AcDbEntity
  8
0
100
AcDbLine
 62
2
  6
CONTINUOUS
 10
13.4086869815
 20
2.515977327
 11
13.4086869815
 21
2.5672823554
  0
LINE
  5
36E
100
AcDbEntity
  8
0
100
AcDbLine
 62
2
  6
CONTINUOUS
 10
13.4086869815
 20
2.5920323691
 11
13.4086869815
 21
2.6827340148
  0
LINE
  5
36F
100
AcDbEntity
  8
0
100
AcDbLine
 62
2
  6
CONTINUOUS
 10
13.3886869704
 20
2.3950052774
 11
13.3886869704
 21
2.6857514036
  0
LINE
  5
370
100
AcDbEntity
  8
0
100
AcDbLine
 62
2
  6
CONTINUOUS
 10
13.3686869593
 20
2.3919878885
 11
13.3686869593
 21
2.4912273132
  0
LINE
  5
371
100
AcDbEntity
  8
0
100
AcDbLine
 62
2
  6
CONTINUOUS
 10
13.3686869593
 20
2.5291773343
 11
13.3686869593
 21
2.5540823481
  0
LINE
  5
372
100
AcDbEntity
  8
0
100
AcDbLine
 62
2
  6
CONTINUOUS
 10
13.3686869593
 20
2.5920323691
 11
13.3686869593
 21
2.6887687924
  0
LINE
  5
373
100
AcDbEntity
  8
0
100
AcDbLine
 62
2
  6
CONTINUOUS
 10
13.3486869482
 20
2.3889704997
 11
13.3486869482
 21
2.4912273132
  0
LINE
  5
374
100
AcDbEntity
  8
0
100
AcDbLine
 62
2
  6
CONTINUOUS
 10
13.3486869482
 20
2.5291773343
 11
13.3486869482
 21
2.5540823481
  0
LINE
  5
375
100
AcDbEntity
  8
0
100
AcDbLine
 62
2
  6
CONTINUOUS
 10
13.3486869482
 20
2.5920323691
 11
13.3486869482
 21
2.6917861813
  0
LINE
  5
376
100
AcDbEntity
  8
0
100
AcDbLine
 62
2
  6
CONTINUOUS
 10
13.3286869371
 20
2.3859531109
 11
13.3286869371
 21
2.4912273132
  0
LINE
  5
377
100
AcDbEntity
  8
0
100
AcDbLine
 62
2
  6
CONTINUOUS
 10
13.3286869371
 20
2.5291773343
 11
13.3286869371
 21
2.5540823481
  0
LINE
  5
378
100
AcDbEntity
  8
0
100
AcDbLine
 62
2
  6
CONTINUOUS
 10
13.3286869371
 20
2.5920323691
 11
13.3286869371
 21
2.6948035701
  0
LINE
  5
379
100
AcDbEntity
  8
0
100
AcDbLine
 62
2
  6
CONTINUOUS
 10
13.308686926
 20
2.3833355437
 11
13.308686926
 21
2.4912273132
  0
LINE
  5
37A
100
AcDbEntity
  8
0
100
AcDbLine
 62
2
  6
CONTINUOUS
 10
13.308686926
 20
2.515977327
 11
13.308686926
 21
2.5672823554
  0
LINE
  5
37B
100
AcDbEntity
  8
0
100
AcDbLine
 62
2
  6
CONTINUOUS
 10
13.308686926
 20
2.5920323691
 11
13.308686926
 21
2.6974211373
  0
LINE
  5
37C
100
AcDbEntity
  8
0
100
AcDbLine
 62
2
  6
CONTINUOUS
 10
13.2886869149
 20
2.3812612684
 11
13.2886869149
 21
2.4912273132
  0
LINE
  5
37D
100
AcDbEntity
  8
0
100
AcDbLine
 62
2
  6
CONTINUOUS
 10
13.2886869149
 20
2.515977327
 11
13.2886869149
 21
2.5324773361
  0
LINE
  5
37E
100
AcDbEntity
  8
0
100
AcDbLine
 62
2
  6
CONTINUOUS
 10
13.2886869149
 20
2.5507823463
 11
13.2886869149
 21
2.5672823554
  0
LINE
  5
37F
100
AcDbEntity
  8
0
100
AcDbLine
 62
2
  6
CONTINUOUS
 10
13.2886869149
 20
2.5920323691
 11
13.2886869149
 21
2.6994954125
  0
LINE
  5
380
100
AcDbEntity
  8
0
100
AcDbLine
 62
2
  6
CONTINUOUS
 10
13.2686869038
 20
2.3791869932
 11
13.2686869038
 21
2.4912273132
  0
LINE
  5
381
100
AcDbEntity
  8
0
100
AcDbLine
 62
2
  6
CONTINUOUS
 10
13.2686869038
 20
2.515977327
 11
13.2686869038
 21
2.5324773361
  0
LINE
  5
382
100
AcDbEntity
  8
0
100
AcDbLine
 62
2
  6
CONTINUOUS
 10
13.2686869038
 20
2.5507823463
 11
13.2686869038
 21
2.5672823554
  0
LINE
  5
383
100
AcDbEntity
  8
0
100
AcDbLine
 62
2
  6
CONTINUOUS
 10
13.2686869038
 20
2.5920323691
 11
13.2686869038
 21
2.7015696878
  0
LINE
  5
384
100
AcDbEntity
  8
0
100
AcDbLine
 62
2
  6
CONTINUOUS
 10
13.2486868927
 20
2.377112718
 11
13.2486868927
 21
2.4912273132
  0
LINE
  5
385
100
AcDbEntity
  8
0
100
AcDbLine
 62
2
  6
CONTINUOUS
 10
13.2486868927
 20
2.5920323691
 11
13.2486868927
 21
2.703643963
  0
LINE
  5
386
100
AcDbEntity
  8
0
100
AcDbLine
 62
2
  6
CONTINUOUS
 10
13.2286868817
 20
2.3750384428
 11
13.2286868817
 21
2.4912273132
  0
LINE
  5
387
100
AcDbEntity
  8
0
100
AcDbLine
 62
2
  6
CONTINUOUS
 10
13.2286868817
 20
2.5920323691
 11
13.2286868817
 21
2.7057182382
  0
LINE
  5
388
100
AcDbEntity
  8
0
100
AcDbLine
 62
2
  6
CONTINUOUS
 10
13.2086868706
 20
2.3729641676
 11
13.2086868706
 21
2.4912273132
  0
LINE
  5
389
100
AcDbEntity
  8
0
100
AcDbLine
 62
2
  6
CONTINUOUS
 10
13.2086868706
 20
2.5920323691
 11
13.2086868706
 21
2.7077925134
  0
LINE
  5
38A
100
AcDbEntity
  8
0
100
AcDbLine
 62
2
  6
CONTINUOUS
 10
13.1886868595
 20
2.3712344456
 11
13.1886868595
 21
2.4912273132
  0
LINE
  5
38B
100
AcDbEntity
  8
0
100
AcDbLine
 62
2
  6
CONTINUOUS
 10
13.1886868595
 20
2.515977327
 11
13.1886868595
 21
2.5672823554
  0
LINE
  5
38C
100
AcDbEntity
  8
0
100
AcDbLine
 62
2
  6
CONTINUOUS
 10
13.1886868595
 20
2.5920323691
 11
13.1886868595
 21
2.7095222354
  0
LINE
  5
38D
100
AcDbEntity
  8
0
100
AcDbLine
 62
2
  6
CONTINUOUS
 10
13.1686868484
 20
2.3699682418
 11
13.1686868484
 21
2.4912273132
  0
LINE
  5
38E
100
AcDbEntity
  8
0
100
AcDbLine
 62
2
  6
CONTINUOUS
 10
13.1686868484
 20
2.515977327
 11
13.1686868484
 21
2.5672823554
  0
LINE
  5
38F
100
AcDbEntity
  8
0
100
AcDbLine
 62
2
  6
CONTINUOUS
 10
13.1686868484
 20
2.5920323691
 11
13.1686868484
 21
2.7107884392
  0
LINE
  5
390
100
AcDbEntity
  8
0
100
AcDbLine
 62
2
  6
CONTINUOUS
 10
13.1486868373
 20
2.3687020381
 11
13.1486868373
 21
2.7120546429
  0
LINE
  5
391
100
AcDbEntity
  8
0
100
AcDbLine
 62
2
  6
CONTINUOUS
 10
13.1286868262
 20
2.3674358343
 11
13.1286868262
 21
2.5672823554
  0
LINE
  5
392
100
AcDbEntity
  8
0
100
AcDbLine
 62
2
  6
CONTINUOUS
 10
13.1286868262
 20
2.5920323691
 11
13.1286868262
 21
2.7133208466
  0
LINE
  5
393
100
AcDbEntity
  8
0
100
AcDbLine
 62
2
  6
CONTINUOUS
 10
13.1086868151
 20
2.3661696306
 11
13.1086868151
 21
2.4912273132
  0
LINE
  5
394
100
AcDbEntity
  8
0
100
AcDbLine
 62
2
  6
CONTINUOUS
 10
13.1086868151
 20
2.5920323691
 11
13.1086868151
 21
2.7145870504
  0
LINE
  5
395
100
AcDbEntity
  8
0
100
AcDbLine
 62
2
  6
CONTINUOUS
 10
13.088686804
 20
2.3649034269
 11
13.088686804
 21
2.4912273132
  0
LINE
  5
396
100
AcDbEntity
  8
0
100
AcDbLine
 62
2
  6
CONTINUOUS
 10
13.088686804
 20
2.5920323691
 11
13.088686804
 21
2.7158532541
  0
LINE
  5
397
100
AcDbEntity
  8
0
100
AcDbLine
 62
2
  6
CONTINUOUS
 10
13.0686867929
 20
2.3636739922
 11
13.0686867929
 21
2.4912273132
  0
LINE
  5
398
100
AcDbEntity
  8
0
100
AcDbLine
 62
2
  6
CONTINUOUS
 10
13.0686867929
 20
2.5475272398
 11
13.0686867929
 21
2.5672823554
  0
LINE
  5
399
100
AcDbEntity
  8
0
100
AcDbLine
 62
2
  6
CONTINUOUS
 10
13.0686867929
 20
2.5920323691
 11
13.0686867929
 21
2.7170826887
  0
LINE
  5
39A
100
AcDbEntity
  8
0
100
AcDbLine
 62
2
  6
CONTINUOUS
 10
13.0486867818
 20
2.363143203
 11
13.0486867818
 21
2.4912273132
  0
LINE
  5
39B
100
AcDbEntity
  8
0
100
AcDbLine
 62
2
  6
CONTINUOUS
 10
13.0486867818
 20
2.5666100882
 11
13.0486867818
 21
2.717613478
  0
LINE
  5
39C
100
AcDbEntity
  8
0
100
AcDbLine
 62
2
  6
CONTINUOUS
 10
13.0286867707
 20
2.3626124138
 11
13.0286867707
 21
2.50359263
  0
LINE
  5
39D
100
AcDbEntity
  8
0
100
AcDbLine
 62
2
  6
CONTINUOUS
 10
13.0286867707
 20
2.5856929366
 11
13.0286867707
 21
2.7181442672
  0
LINE
  5
39E
100
AcDbEntity
  8
0
100
AcDbLine
 62
2
  6
CONTINUOUS
 10
13.0086867596
 20
2.3620816246
 11
13.0086867596
 21
2.5226754472
  0
LINE
  5
39F
100
AcDbEntity
  8
0
100
AcDbLine
 62
2
  6
CONTINUOUS
 10
13.0086867596
 20
2.5920323691
 11
13.0086867596
 21
2.7186750564
  0
LINE
  5
3A0
100
AcDbEntity
  8
0
100
AcDbLine
 62
2
  6
CONTINUOUS
 10
12.9886867486
 20
2.3615508354
 11
12.9886867486
 21
2.4912273132
  0
LINE
  5
3A1
100
AcDbEntity
  8
0
100
AcDbLine
 62
2
  6
CONTINUOUS
 10
12.9886867486
 20
2.515977327
 11
12.9886867486
 21
2.5417582644
  0
LINE
  5
3A2
100
AcDbEntity
  8
0
100
AcDbLine
 62
2
  6
CONTINUOUS
 10
12.9886867486
 20
2.5920323691
 11
12.9886867486
 21
2.7192058456
  0
LINE
  5
3A3
100
AcDbEntity
  8
0
100
AcDbLine
 62
2
  6
CONTINUOUS
 10
12.9686867375
 20
2.3610200462
 11
12.9686867375
 21
2.4912273132
  0
LINE
  5
3A4
100
AcDbEntity
  8
0
100
AcDbLine
 62
2
  6
CONTINUOUS
 10
12.9686867375
 20
2.5920323691
 11
12.9686867375
 21
2.7197366348
  0
LINE
  5
3A5
100
AcDbEntity
  8
0
100
AcDbLine
 62
2
  6
CONTINUOUS
 10
12.9486867264
 20
2.360489257
 11
12.9486867264
 21
2.4912273132
  0
LINE
  5
3A6
100
AcDbEntity
  8
0
100
AcDbLine
 62
2
  6
CONTINUOUS
 10
12.9486867264
 20
2.5920323691
 11
12.9486867264
 21
2.720267424
  0
LINE
  5
3A7
100
AcDbEntity
  8
0
100
AcDbLine
 62
2
  6
CONTINUOUS
 10
12.9286867153
 20
2.3602836008
 11
12.9286867153
 21
2.4912273132
  0
LINE
  5
3A8
100
AcDbEntity
  8
0
100
AcDbLine
 62
2
  6
CONTINUOUS
 10
12.9286867153
 20
2.515977327
 11
12.9286867153
 21
2.5672823554
  0
LINE
  5
3A9
100
AcDbEntity
  8
0
100
AcDbLine
 62
2
  6
CONTINUOUS
 10
12.9286867153
 20
2.5920323691
 11
12.9286867153
 21
2.7204730802
  0
LINE
  5
3AA
100
AcDbEntity
  8
0
100
AcDbLine
 62
2
  6
CONTINUOUS
 10
12.9086867042
 20
2.3604597639
 11
12.9086867042
 21
2.7202969171
  0
LINE
  5
3AB
100
AcDbEntity
  8
0
100
AcDbLine
 62
2
  6
CONTINUOUS
 10
12.8886866931
 20
2.360635927
 11
12.8886866931
 21
2.5672823554
  0
LINE
  5
3AC
100
AcDbEntity
  8
0
100
AcDbLine
 62
2
  6
CONTINUOUS
 10
12.8886866931
 20
2.5920323691
 11
12.8886866931
 21
2.720120754
  0
LINE
  5
3AD
100
AcDbEntity
  8
0
100
AcDbLine
 62
2
  6
CONTINUOUS
 10
12.868686682
 20
2.3608120901
 11
12.868686682
 21
2.491232357
  0
LINE
  5
3AE
100
AcDbEntity
  8
0
100
AcDbLine
 62
2
  6
CONTINUOUS
 10
12.868686682
 20
2.5920323691
 11
12.868686682
 21
2.7199445909
  0
LINE
  5
3AF
100
AcDbEntity
  8
0
100
AcDbLine
 62
2
  6
CONTINUOUS
 10
12.8486866709
 20
2.3609882532
 11
12.8486866709
 21
2.4912273132
  0
LINE
  5
3B0
100
AcDbEntity
  8
0
100
AcDbLine
 62
2
  6
CONTINUOUS
 10
12.8486866709
 20
2.5920323691
 11
12.8486866709
 21
2.7197684278
  0
LINE
  5
3B1
100
AcDbEntity
  8
0
100
AcDbLine
 62
2
  6
CONTINUOUS
 10
12.8286866598
 20
2.3611644163
 11
12.8286866598
 21
2.4912273132
  0
LINE
  5
3B2
100
AcDbEntity
  8
0
100
AcDbLine
 62
2
  6
CONTINUOUS
 10
12.8286866598
 20
2.5396527025
 11
12.8286866598
 21
2.5672823554
  0
LINE
  5
3B3
100
AcDbEntity
  8
0
100
AcDbLine
 62
2
  6
CONTINUOUS
 10
12.8286866598
 20
2.5920323691
 11
12.8286866598
 21
2.7195922647
  0
LINE
  5
3B4
100
AcDbEntity
  8
0
100
AcDbLine
 62
2
  6
CONTINUOUS
 10
12.8086866487
 20
2.3613405794
 11
12.8086866487
 21
2.4912273132
  0
LINE
  5
3B5
100
AcDbEntity
  8
0
100
AcDbLine
 62
2
  6
CONTINUOUS
 10
12.8086866487
 20
2.5587355508
 11
12.8086866487
 21
2.7194161016
  0
LINE
  5
3B6
100
AcDbEntity
  8
0
100
AcDbLine
 62
2
  6
CONTINUOUS
 10
12.7886866376
 20
2.3621089572
 11
12.7886866376
 21
2.4957181055
  0
LINE
  5
3B7
100
AcDbEntity
  8
0
100
AcDbLine
 62
2
  6
CONTINUOUS
 10
12.7886866376
 20
2.5778183992
 11
12.7886866376
 21
2.7186477238
  0
LINE
  5
3B8
100
AcDbEntity
  8
0
100
AcDbLine
 62
2
  6
CONTINUOUS
 10
12.7686866266
 20
2.3630013935
 11
12.7686866266
 21
2.5148009227
  0
LINE
  5
3B9
100
AcDbEntity
  8
0
100
AcDbLine
 62
2
  6
CONTINUOUS
 10
12.7686866266
 20
2.5920323691
 11
12.7686866266
 21
2.7177552874
  0
LINE
  5
3BA
100
AcDbEntity
  8
0
100
AcDbLine
 62
2
  6
CONTINUOUS
 10
12.7486866155
 20
2.3638938299
 11
12.7486866155
 21
2.4913263218
  0
LINE
  5
3BB
100
AcDbEntity
  8
0
100
AcDbLine
 62
2
  6
CONTINUOUS
 10
12.7486866155
 20
2.5158783184
 11
12.7486866155
 21
2.5338837399
  0
LINE
  5
3BC
100
AcDbEntity
  8
0
100
AcDbLine
 62
2
  6
CONTINUOUS
 10
12.7486866155
 20
2.5920323691
 11
12.7486866155
 21
2.7168628511
  0
LINE
  5
3BD
100
AcDbEntity
  8
0
100
AcDbLine
 62
2
  6
CONTINUOUS
 10
12.7286866044
 20
2.3647862663
 11
12.7286866044
 21
2.4912273132
  0
LINE
  5
3BE
100
AcDbEntity
  8
0
100
AcDbLine
 62
2
  6
CONTINUOUS
 10
12.7286866044
 20
2.515977327
 11
12.7286866044
 21
2.5527601554
  0
LINE
  5
3BF
100
AcDbEntity
  8
0
100
AcDbLine
 62
2
  6
CONTINUOUS
 10
12.7286866044
 20
2.5920323691
 11
12.7286866044
 21
2.7159704147
  0
LINE
  5
3C0
100
AcDbEntity
  8
0
100
AcDbLine
 62
2
  6
CONTINUOUS
 10
12.7086865933
 20
2.3656787026
 11
12.7086865933
 21
2.4912273132
  0
LINE
  5
3C1
100
AcDbEntity
  8
0
100
AcDbLine
 62
2
  6
CONTINUOUS
 10
12.7086865933
 20
2.5920323691
 11
12.7086865933
 21
2.7150779784
  0
LINE
  5
3C2
100
AcDbEntity
  8
0
100
AcDbLine
 62
2
  6
CONTINUOUS
 10
12.6886865822
 20
2.366571139
 11
12.6886865822
 21
2.4912273132
  0
LINE
  5
3C3
100
AcDbEntity
  8
0
100
AcDbLine
 62
2
  6
CONTINUOUS
 10
12.6886865822
 20
2.515977327
 11
12.6886865822
 21
2.5672823554
  0
LINE
  5
3C4
100
AcDbEntity
  8
0
100
AcDbLine
 62
2
  6
CONTINUOUS
 10
12.6886865822
 20
2.5920323691
 11
12.6886865822
 21
2.714185542
  0
LINE
  5
3C5
100
AcDbEntity
  8
0
100
AcDbLine
 62
2
  6
CONTINUOUS
 10
12.6686865711
 20
2.3677104027
 11
12.6686865711
 21
2.7130462783
  0
LINE
  5
3C6
100
AcDbEntity
  8
0
100
AcDbLine
 62
2
  6
CONTINUOUS
 10
12.64868656
 20
2.3693682721
 11
12.64868656
 21
2.7113884089
  0
LINE
  5
3C7
100
AcDbEntity
  8
0
100
AcDbLine
 62
2
  6
CONTINUOUS
 10
12.6286865489
 20
2.3710261415
 11
12.6286865489
 21
2.4912273132
  0
LINE
  5
3C8
100
AcDbEntity
  8
0
100
AcDbLine
 62
2
  6
CONTINUOUS
 10
12.6286865489
 20
2.515977327
 11
12.6286865489
 21
2.7097305395
  0
LINE
  5
3C9
100
AcDbEntity
  8
0
100
AcDbLine
 62
2
  6
CONTINUOUS
 10
12.6086865378
 20
2.372684011
 11
12.6086865378
 21
2.4912273132
  0
LINE
  5
3CA
100
AcDbEntity
  8
0
100
AcDbLine
 62
2
  6
CONTINUOUS
 10
12.6086865378
 20
2.5351122279
 11
12.6086865378
 21
2.70807267
  0
LINE
  5
3CB
100
AcDbEntity
  8
0
100
AcDbLine
 62
2
  6
CONTINUOUS
 10
12.5886865267
 20
2.3743418804
 11
12.5886865267
 21
2.4912273132
  0
LINE
  5
3CC
100
AcDbEntity
  8
0
100
AcDbLine
 62
2
  6
CONTINUOUS
 10
12.5886865267
 20
2.5660172622
 11
12.5886865267
 21
2.7064148006
  0
LINE
  5
3CD
100
AcDbEntity
  8
0
100
AcDbLine
 62
2
  6
CONTINUOUS
 10
12.5686865156
 20
2.3759997498
 11
12.5686865156
 21
2.4912273132
  0
LINE
  5
3CE
100
AcDbEntity
  8
0
100
AcDbLine
 62
2
  6
CONTINUOUS
 10
12.5686865156
 20
2.5920323691
 11
12.5686865156
 21
2.7047569312
  0
LINE
  5
3CF
100
AcDbEntity
  8
0
100
AcDbLine
 62
2
  6
CONTINUOUS
 10
12.5486865045
 20
2.3777575277
 11
12.5486865045
 21
2.4912273132
  0
LINE
  5
3D0
100
AcDbEntity
  8
0
100
AcDbLine
 62
2
  6
CONTINUOUS
 10
12.5486865045
 20
2.515977327
 11
12.5486865045
 21
2.5275118824
  0
LINE
  5
3D1
100
AcDbEntity
  8
0
100
AcDbLine
 62
2
  6
CONTINUOUS
 10
12.5486865045
 20
2.5920323691
 11
12.5486865045
 21
2.7029991533
  0
LINE
  5
3D2
100
AcDbEntity
  8
0
100
AcDbLine
 62
2
  6
CONTINUOUS
 10
12.5286864935
 20
2.3802813811
 11
12.5286864935
 21
2.5296213345
  0
LINE
  5
3D3
100
AcDbEntity
  8
0
100
AcDbLine
 62
2
  6
CONTINUOUS
 10
12.5286864935
 20
2.5505713461
 11
12.5286864935
 21
2.5667383551
  0
LINE
  5
3D4
100
AcDbEntity
  8
0
100
AcDbLine
 62
2
  6
CONTINUOUS
 10
12.5286864935
 20
2.5920323691
 11
12.5286864935
 21
2.7004752999
  0
LINE
  5
3D5
100
AcDbEntity
  8
0
100
AcDbLine
 62
2
  6
CONTINUOUS
 10
12.5086864824
 20
2.3828052346
 11
12.5086864824
 21
2.4912273132
  0
LINE
  5
3D6
100
AcDbEntity
  8
0
100
AcDbLine
 62
2
  6
CONTINUOUS
 10
12.5086864824
 20
2.515977327
 11
12.5086864824
 21
2.5279667721
  0
LINE
  5
3D7
100
AcDbEntity
  8
0
100
AcDbLine
 62
2
  6
CONTINUOUS
 10
12.5086864824
 20
2.5868602074
 11
12.5086864824
 21
2.6979514464
  0
LINE
  5
3D8
100
AcDbEntity
  8
0
100
AcDbLine
 62
2
  6
CONTINUOUS
 10
12.4886864713
 20
2.385329088
 11
12.4886864713
 21
2.4912273132
  0
LINE
  5
3D9
100
AcDbEntity
  8
0
100
AcDbLine
 62
2
  6
CONTINUOUS
 10
12.4886864713
 20
2.5553401045
 11
12.4886864713
 21
2.695427593
  0
LINE
  5
3DA
100
AcDbEntity
  8
0
100
AcDbLine
 62
2
  6
CONTINUOUS
 10
12.4686864602
 20
2.3878529415
 11
12.4686864602
 21
2.4912273132
  0
LINE
  5
3DB
100
AcDbEntity
  8
0
100
AcDbLine
 62
2
  6
CONTINUOUS
 10
12.4686864602
 20
2.5238200015
 11
12.4686864602
 21
2.6929037395
  0
LINE
  5
3DC
100
AcDbEntity
  8
0
100
AcDbLine
 62
2
  6
CONTINUOUS
 10
12.4486864491
 20
2.390376795
 11
12.4486864491
 21
2.4912273132
  0
LINE
  5
3DD
100
AcDbEntity
  8
0
100
AcDbLine
 62
2
  6
CONTINUOUS
 10
12.4486864491
 20
2.515977327
 11
12.4486864491
 21
2.690379886
  0
LINE
  5
3DE
100
AcDbEntity
  8
0
100
AcDbLine
 62
2
  6
CONTINUOUS
 10
12.428686438
 20
2.3931794042
 11
12.428686438
 21
2.6875772768
  0
LINE
  5
3DF
100
AcDbEntity
  8
0
100
AcDbLine
 62
2
  6
CONTINUOUS
 10
12.4086864269
 20
2.3964643301
 11
12.4086864269
 21
2.5013773986
  0
LINE
  5
3E0
100
AcDbEntity
  8
0
100
AcDbLine
 62
2
  6
CONTINUOUS
 10
12.4086864269
 20
2.5325739971
 11
12.4086864269
 21
2.5537224311
  0
LINE
  5
3E1
100
AcDbEntity
  8
0
100
AcDbLine
 62
2
  6
CONTINUOUS
 10
12.4086864269
 20
2.5791473398
 11
12.4086864269
 21
2.6842923509
  0
LINE
  5
3E2
100
AcDbEntity
  8
0
100
AcDbLine
 62
2
  6
CONTINUOUS
 10
12.3886864158
 20
2.399749256
 11
12.3886864158
 21
2.4921022658
  0
LINE
  5
3E3
100
AcDbEntity
  8
0
100
AcDbLine
 62
2
  6
CONTINUOUS
 10
12.3886864158
 20
2.5895929958
 11
12.3886864158
 21
2.681007425
  0
LINE
  5
3E4
100
AcDbEntity
  8
0
100
AcDbLine
 62
2
  6
CONTINUOUS
 10
12.3686864047
 20
2.403451877
 11
12.3686864047
 21
2.4912273132
  0
LINE
  5
3E5
100
AcDbEntity
  8
0
100
AcDbLine
 62
2
  6
CONTINUOUS
 10
12.3686864047
 20
2.5920323691
 11
12.3686864047
 21
2.677304804
  0
LINE
  5
3E6
100
AcDbEntity
  8
0
100
AcDbLine
 62
2
  6
CONTINUOUS
 10
12.3486863936
 20
2.407324637
 11
12.3486863936
 21
2.4912273132
  0
LINE
  5
3E7
100
AcDbEntity
  8
0
100
AcDbLine
 62
2
  6
CONTINUOUS
 10
12.3486863936
 20
2.5920323691
 11
12.3486863936
 21
2.673432044
  0
LINE
  5
3E8
100
AcDbEntity
  8
0
100
AcDbLine
 62
2
  6
CONTINUOUS
 10
12.3286863825
 20
2.4113493968
 11
12.3286863825
 21
2.4912273132
  0
LINE
  5
3E9
100
AcDbEntity
  8
0
100
AcDbLine
 62
2
  6
CONTINUOUS
 10
12.3286863825
 20
2.515977327
 11
12.3286863825
 21
2.5333023366
  0
LINE
  5
3EA
100
AcDbEntity
  8
0
100
AcDbLine
 62
2
  6
CONTINUOUS
 10
12.3286863825
 20
2.5499573458
 11
12.3286863825
 21
2.5672823554
  0
LINE
  5
3EB
100
AcDbEntity
  8
0
100
AcDbLine
 62
2
  6
CONTINUOUS
 10
12.3286863825
 20
2.5920323691
 11
12.3286863825
 21
2.6694072842
  0
LINE
  5
3EC
100
AcDbEntity
  8
0
100
AcDbLine
 62
2
  6
CONTINUOUS
 10
12.3086863715
 20
2.4159005505
 11
12.3086863715
 21
2.4912273132
  0
LINE
  5
3ED
100
AcDbEntity
  8
0
100
AcDbLine
 62
2
  6
CONTINUOUS
 10
12.3086863715
 20
2.515977327
 11
12.3086863715
 21
2.5333023366
  0
LINE
  5
3EE
100
AcDbEntity
  8
0
100
AcDbLine
 62
2
  6
CONTINUOUS
 10
12.3086863715
 20
2.5499573458
 11
12.3086863715
 21
2.5672823554
  0
LINE
  5
3EF
100
AcDbEntity
  8
0
100
AcDbLine
 62
2
  6
CONTINUOUS
 10
12.3086863715
 20
2.5920323691
 11
12.3086863715
 21
2.6648561305
  0
LINE
  5
3F0
100
AcDbEntity
  8
0
100
AcDbLine
 62
2
  6
CONTINUOUS
 10
12.2886863604
 20
2.4204517041
 11
12.2886863604
 21
2.4912273132
  0
LINE
  5
3F1
100
AcDbEntity
  8
0
100
AcDbLine
 62
2
  6
CONTINUOUS
 10
12.2886863604
 20
2.5920323691
 11
12.2886863604
 21
2.6603049769
  0
LINE
  5
3F2
100
AcDbEntity
  8
0
100
AcDbLine
 62
2
  6
CONTINUOUS
 10
12.2686863493
 20
2.4257438218
 11
12.2686863493
 21
2.4912273132
  0
LINE
  5
3F3
100
AcDbEntity
  8
0
100
AcDbLine
 62
2
  6
CONTINUOUS
 10
12.2686863493
 20
2.5920323691
 11
12.2686863493
 21
2.6550128592
  0
LINE
  5
3F4
100
AcDbEntity
  8
0
100
AcDbLine
 62
2
  6
CONTINUOUS
 10
12.2486863382
 20
2.4310978667
 11
12.2486863382
 21
2.4912273132
  0
LINE
  5
3F5
100
AcDbEntity
  8
0
100
AcDbLine
 62
2
  6
CONTINUOUS
 10
12.2486863382
 20
2.5920323691
 11
12.2486863382
 21
2.6496588142
  0
LINE
  5
3F6
100
AcDbEntity
  8
0
100
AcDbLine
 62
2
  6
CONTINUOUS
 10
12.2286863271
 20
2.4372566433
 11
12.2286863271
 21
2.4912273132
  0
LINE
  5
3F7
100
AcDbEntity
  8
0
100
AcDbLine
 62
2
  6
CONTINUOUS
 10
12.2286863271
 20
2.515977327
 11
12.2286863271
 21
2.5672823554
  0
LINE
  5
3F8
100
AcDbEntity
  8
0
100
AcDbLine
 62
2
  6
CONTINUOUS
 10
12.2286863271
 20
2.5920323691
 11
12.2286863271
 21
2.6435000377
  0
LINE
  5
3F9
100
AcDbEntity
  8
0
100
AcDbLine
 62
2
  6
CONTINUOUS
 10
12.208686316
 20
2.443589771
 11
12.208686316
 21
2.4912273132
  0
LINE
  5
3FA
100
AcDbEntity
  8
0
100
AcDbLine
 62
2
  6
CONTINUOUS
 10
12.208686316
 20
2.515977327
 11
12.208686316
 21
2.5672823554
  0
LINE
  5
3FB
100
AcDbEntity
  8
0
100
AcDbLine
 62
2
  6
CONTINUOUS
 10
12.208686316
 20
2.5920323691
 11
12.208686316
 21
2.63716691
  0
LINE
  5
3FC
100
AcDbEntity
  8
0
100
AcDbLine
 62
2
  6
CONTINUOUS
 10
12.1886863049
 20
2.4510806436
 11
12.1886863049
 21
2.6296760373
  0
LINE
  5
3FD
100
AcDbEntity
  8
0
100
AcDbLine
 62
2
  6
CONTINUOUS
 10
12.1686862938
 20
2.4591016523
 11
12.1686862938
 21
2.6216550287
  0
LINE
  5
3FE
100
AcDbEntity
  8
0
100
AcDbLine
 62
2
  6
CONTINUOUS
 10
12.1486862827
 20
2.468314272
 11
12.1486862827
 21
2.612442409
  0
LINE
  5
3FF
100
AcDbEntity
  8
0
100
AcDbLine
 62
2
  6
CONTINUOUS
 10
12.1286862716
 20
2.4794932339
 11
12.1286862716
 21
2.601263447
  0
LINE
  5
400
100
AcDbEntity
  8
0
100
AcDbLine
 62
2
  6
CONTINUOUS
 10
12.1086862605
 20
2.4934150665
 11
12.1086862605
 21
2.5873416144
  0
LINE
  5
401
100
AcDbEntity
  8
0
100
AcDbLine
 62
2
  6
CONTINUOUS
 10
12.0886862494
 20
2.5144449553
 11
12.0886862494
 21
2.5663117257
  0
ENDBLK
  5
402
100
AcDbEntity
  8
0
  6
BYBLOCK
 62
0
100
AcDbBlockEnd
  0
BLOCK
  5
403
100
AcDbEntity
  8
0
100
AcDbBlockBegin
  2
_FILLED
 70
64
 10
0.0
 20
0.0
  3
_FILLED
  1

  0
SOLID
  5
404
100
AcDbEntity
  8
0
  6
BYBLOCK
 62
0
100
AcDbTrace
 10
0.0
 20
0.0
 11
-1.0
 21
0.1666666667
 12
-1.0
 22
-0.1666666667
 13
-1.0
 23
-0.1666666667
  0
ENDBLK
  5
405
100
AcDbEntity
  8
0
  6
BYBLOCK
 62
0
100
AcDbBlockEnd
  0
BLOCK
  5
406
100
AcDbEntity
  8
SCHEME_DIMS
100
AcDbBlockBegin
 62
2
  6
CONTINUOUS
  2
*D0
 70
65
 10
0.0
 20
0.0
  3
*D0
  1

  0
MTEXT
  5
407
100
AcDbEntity
  8
SCHEME_DIMS
100
AcDbMText
 62
2
  6
CONTINUOUS
  7
TEXTSTYLE_5
 71
2
 72
1
 10
3.9115454012
 20
7.7746939878
 30
0.0
 11
1.0
 21
0.0
 31
0.0
 44
0.9
  1
{\Fgdt;n}\Ftxt;30,1\P[1.18]
 40
0.1
 41
0.6
  0
LINE
  5
408
100
AcDbEntity
  8
SCHEME_DIMS
100
AcDbLine
 62
2
  6
CONTINUOUS
 10
3.4195454012
 20
8.9045325705
 11
3.4195454012
 21
7.5996939878
  0
LINE
  5
409
100
AcDbEntity
  8
SCHEME_DIMS
100
AcDbLine
 62
2
  6
CONTINUOUS
 10
4.6035454012
 20
8.9045325705
 11
4.6035454012
 21
7.5996939878
  0
LINE
  5
40A
100
AcDbEntity
  8
SCHEME_DIMS
100
AcDbLine
 62
2
  6
CONTINUOUS
 10
3.4195454012
 20
7.7246939878
 11
3.0195454012
 21
7.7246939878
  0
LINE
  5
40B
100
AcDbEntity
  8
SCHEME_DIMS
100
AcDbLine
 62
2
  6
CONTINUOUS
 10
4.6035454012
 20
7.7246939878
 11
5.0035454012
 21
7.7246939878
  0
INSERT
  5
40C
100
AcDbEntity
  8
SCHEME_DIMS
100
AcDbBlockReference
 62
2
  6
CONTINUOUS
  2
_FILLED
 10
3.4195454012
 20
7.7246939878
 41
0.1875
 42
0.1875
 43
0.1875
  0
INSERT
  5
40D
100
AcDbEntity
  8
SCHEME_DIMS
100
AcDbBlockReference
 62
2
  6
CONTINUOUS
  2
_FILLED
 10
4.6035454012
 20
7.7246939878
 41
0.1875
 42
0.1875
 43
0.1875
 50
180.0
  0
ENDBLK
  5
40E
100
AcDbEntity
  8
0
  6
BYBLOCK
 62
0
100
AcDbBlockEnd
  0
BLOCK
  5
40F
100
AcDbEntity
  8
SCHEME_DIMS
100
AcDbBlockBegin
 62
2
  6
CONTINUOUS
  2
*D1
 70
65
 10
0.0
 20
0.0
  3
*D1
  1

  0
MTEXT
  5
410
100
AcDbEntity
  8
SCHEME_DIMS
100
AcDbMText
 62
2
  6
CONTINUOUS
  7
STANDARD
 71
2
 72
1
 10
8.3775300209
 20
7.5248701462
 30
0.0
 11
1.0
 21
0.0
 31
0.0
 44
0.9
  1
32,4\P[1.28]
 40
0.1
 41
0.6
  0
LINE
  5
411
100
AcDbEntity
  8
SCHEME_DIMS
100
AcDbLine
 62
2
  6
CONTINUOUS
 10
9.1161993122
 20
6.4763727088
 11
9.1161993122
 21
7.5998701462
  0
LINE
  5
412
100
AcDbEntity
  8
SCHEME_DIMS
100
AcDbLine
 62
2
  6
CONTINUOUS
 10
7.8388607296
 20
6.1844552603
 11
7.8388607296
 21
7.5998701462
  0
LINE
  5
413
100
AcDbEntity
  8
SCHEME_DIMS
100
AcDbLine
 62
2
  6
CONTINUOUS
 10
9.1161993122
 20
7.4748701462
 11
9.5161993122
 21
7.4748701462
  0
LINE
  5
414
100
AcDbEntity
  8
SCHEME_DIMS
100
AcDbLine
 62
2
  6
CONTINUOUS
 10
7.8388607296
 20
7.4748701462
 11
7.4388607296
 21
7.4748701462
  0
INSERT
  5
415
100
AcDbEntity
  8
SCHEME_DIMS
100
AcDbBlockReference
 62
2
  6
CONTINUOUS
  2
_FILLED
 10
9.1161993122
 20
7.4748701462
 41
0.1875
 42
0.1875
 43
0.1875
 50
180.0
  0
INSERT
  5
416
100
AcDbEntity
  8
SCHEME_DIMS
100
AcDbBlockReference
 62
2
  6
CONTINUOUS
  2
_FILLED
 10
7.8388607296
 20
7.4748701462
 41
0.1875
 42
0.1875
 43
0.1875
  0
ENDBLK
  5
417
100
AcDbEntity
  8
0
  6
BYBLOCK
 62
0
100
AcDbBlockEnd
  0
BLOCK
  5
418
100
AcDbEntity
  8
SCHEME_DIMS
100
AcDbBlockBegin
 62
2
  6
CONTINUOUS
  2
*D2
 70
65
 10
0.0
 20
0.0
  3
*D2
  1

  0
MTEXT
  5
419
100
AcDbEntity
  8
SCHEME_DIMS
100
AcDbMText
 62
2
  6
CONTINUOUS
  7
STANDARD
 71
2
 72
1
 10
4.9035454012
 20
5.4203727088
 30
0.0
 11
1.0
 21
0.0
 31
0.0
 44
0.9
  1
26\P[1.03]
 40
0.1
 41
0.6
  0
LINE
  5
41A
100
AcDbEntity
  8
SCHEME_DIMS
100
AcDbLine
 62
2
  6
CONTINUOUS
 10
4.5207009379
 20
5.8828727088
 11
5.2285454012
 21
5.8828727088
  0
LINE
  5
41B
100
AcDbEntity
  8
SCHEME_DIMS
100
AcDbLine
 62
2
  6
CONTINUOUS
 10
4.3351778877
 20
4.8578727088
 11
5.2285454012
 21
4.8578727088
  0
LINE
  5
41C
100
AcDbEntity
  8
SCHEME_DIMS
100
AcDbLine
 62
2
  6
CONTINUOUS
 10
5.1035454012
 20
5.8828727088
 11
5.1035454012
 21
5.5203727088
  0
LINE
  5
41D
100
AcDbEntity
  8
SCHEME_DIMS
100
AcDbLine
 62
2
  6
CONTINUOUS
 10
5.1035454012
 20
4.8578727088
 11
5.1035454012
 21
5.0703727088
  0
INSERT
  5
41E
100
AcDbEntity
  8
SCHEME_DIMS
100
AcDbBlockReference
 62
2
  6
CONTINUOUS
  2
_FILLED
 10
5.1035454012
 20
5.8828727088
 41
0.1875
 42
0.1875
 43
0.1875
 50
90.0
  0
INSERT
  5
41F
100
AcDbEntity
  8
SCHEME_DIMS
100
AcDbBlockReference
 62
2
  6
CONTINUOUS
  2
_FILLED
 10
5.1035454012
 20
4.8578727088
 41
0.1875
 42
0.1875
 43
0.1875
 50
270.0
  0
ENDBLK
  5
420
100
AcDbEntity
  8
0
  6
BYBLOCK
 62
0
100
AcDbBlockEnd
  0
BLOCK
  5
421
100
AcDbEntity
  8
SCHEME_DIMS
100
AcDbBlockBegin
 62
2
  6
CONTINUOUS
  2
*D3
 70
65
 10
0.0
 20
0.0
  3
*D3
  1

  0
MTEXT
  5
422
100
AcDbEntity
  8
SCHEME_DIMS
100
AcDbMText
 62
2
  6
CONTINUOUS
  7
STANDARD
 71
3
 72
1
 10
7.3466452199
 20
7.0248701462
 30
0.0
 11
1.0
 21
0.0
 31
0.0
 44
0.9
  1
17,3\P[.68]
 40
0.1
 41
0.5
  0
LINE
  5
423
100
AcDbEntity
  8
SCHEME_DIMS
100
AcDbLine
 62
2
  6
CONTINUOUS
 10
7.8388607296
 20
6.1934042048
 11
7.8388607296
 21
7.0998701462
  0
LINE
  5
424
100
AcDbEntity
  8
SCHEME_DIMS
100
AcDbLine
 62
2
  6
CONTINUOUS
 10
8.5211993122
 20
6.4773727088
 11
8.5211993122
 21
7.0998701462
  0
LINE
  5
425
100
AcDbEntity
  8
SCHEME_DIMS
100
AcDbLine
 62
2
  6
CONTINUOUS
 10
7.8388607296
 20
6.9748701462
 11
8.1800300209
 21
6.9748701462
  0
LINE
  5
426
100
AcDbEntity
  8
SCHEME_DIMS
100
AcDbLine
 62
2
  6
CONTINUOUS
 10
8.1800300209
 20
6.9748701462
 11
7.5466452199
 21
6.9748701462
  0
LINE
  5
427
100
AcDbEntity
  8
SCHEME_DIMS
100
AcDbLine
 62
2
  6
CONTINUOUS
 10
8.5211993122
 20
6.9748701462
 11
8.1800300209
 21
6.9748701462
  0
INSERT
  5
428
100
AcDbEntity
  8
SCHEME_DIMS
100
AcDbBlockReference
 62
2
  6
CONTINUOUS
  2
_FILLED
 10
7.8388607296
 20
6.9748701462
 41
0.1875
 42
0.1875
 43
0.1875
 50
180.0
  0
INSERT
  5
429
100
AcDbEntity
  8
SCHEME_DIMS
100
AcDbBlockReference
 62
2
  6
CONTINUOUS
  2
_FILLED
 10
8.5211993122
 20
6.9748701462
 41
0.1875
 42
0.1875
 43
0.1875
  0
ENDBLK
  5
42A
100
AcDbEntity
  8
0
  6
BYBLOCK
 62
0
100
AcDbBlockEnd
  0
BLOCK
  5
42B
100
AcDbEntity
  8
SCHEME_DIMS
100
AcDbBlockBegin
 62
2
  6
CONTINUOUS
  2
*D4
 70
65
 10
0.0
 20
0.0
  3
*D4
  1

  0
MTEXT
  5
42C
100
AcDbEntity
  8
SCHEME_DIMS
100
AcDbMText
 62
2
  6
CONTINUOUS
  7
STANDARD
 71
2
 72
1
 10
10.8689177488
 20
5.7255760363
 30
0.0
 11
1.0
 21
0.0
 31
0.0
 44
0.9
  1
41\P[1.62]
 40
0.1
 41
0.6
  0
LINE
  5
42D
100
AcDbEntity
  8
SCHEME_DIMS
100
AcDbLine
 62
2
  6
CONTINUOUS
 10
11.8372852623
 20
4.8675760363
 11
10.9439177488
 21
4.8675760363
  0
LINE
  5
42E
100
AcDbEntity
  8
SCHEME_DIMS
100
AcDbLine
 62
2
  6
CONTINUOUS
 10
12.0984177488
 20
6.4835760363
 11
10.9439177488
 21
6.4835760363
  0
LINE
  5
42F
100
AcDbEntity
  8
SCHEME_DIMS
100
AcDbLine
 62
2
  6
CONTINUOUS
 10
11.0689177488
 20
4.8675760363
 11
11.0689177488
 21
5.3755760363
  0
LINE
  5
430
100
AcDbEntity
  8
SCHEME_DIMS
100
AcDbLine
 62
2
  6
CONTINUOUS
 10
11.0689177488
 20
6.4835760363
 11
11.0689177488
 21
5.8255760363
  0
INSERT
  5
431
100
AcDbEntity
  8
SCHEME_DIMS
100
AcDbBlockReference
 62
2
  6
CONTINUOUS
  2
_FILLED
 10
11.0689177488
 20
4.8675760363
 41
0.1875
 42
0.1875
 43
0.1875
 50
270.0
  0
INSERT
  5
432
100
AcDbEntity
  8
SCHEME_DIMS
100
AcDbBlockReference
 62
2
  6
CONTINUOUS
  2
_FILLED
 10
11.0689177488
 20
6.4835760363
 41
0.1875
 42
0.1875
 43
0.1875
 50
90.0
  0
ENDBLK
  5
433
100
AcDbEntity
  8
0
  6
BYBLOCK
 62
0
100
AcDbBlockEnd
  0
BLOCK
  5
434
100
AcDbEntity
  8
SCHEME_DIMS
100
AcDbBlockBegin
 62
2
  6
CONTINUOUS
  2
*D5
 70
65
 10
0.0
 20
0.0
  3
*D5
  1

  0
MTEXT
  5
435
100
AcDbEntity
  8
SCHEME_DIMS
100
AcDbMText
 62
2
  6
CONTINUOUS
  7
TEXTSTYLE_5
 71
2
 72
1
 10
7.1850238844
 20
6.0302133005
 30
0.0
 11
1.0
 21
0.0
 31
0.0
 44
0.9
  1
{\Fgdt;n}\Ftxt;16,2\P[.64]
 40
0.1
 41
0.5333333333
  0
LINE
  5
436
100
AcDbEntity
  8
SCHEME_DIMS
100
AcDbLine
 62
2
  6
CONTINUOUS
 10
7.8472268713
 20
6.2017703465
 11
7.1100238844
 21
6.2017703465
  0
LINE
  5
437
100
AcDbEntity
  8
SCHEME_DIMS
100
AcDbLine
 62
2
  6
CONTINUOUS
 10
7.8472268713
 20
5.563975071
 11
7.1100238844
 21
5.563975071
  0
LINE
  5
438
100
AcDbEntity
  8
SCHEME_DIMS
100
AcDbLine
 62
2
  6
CONTINUOUS
 10
7.2350238844
 20
6.2017703465
 11
7.2350238844
 21
6.6017703465
  0
LINE
  5
439
100
AcDbEntity
  8
SCHEME_DIMS
100
AcDbLine
 62
2
  6
CONTINUOUS
 10
7.2350238844
 20
5.563975071
 11
7.2350238844
 21
5.163975071
  0
INSERT
  5
43A
100
AcDbEntity
  8
SCHEME_DIMS
100
AcDbBlockReference
 62
2
  6
CONTINUOUS
  2
_FILLED
 10
7.2350238844
 20
6.2017703465
 41
0.1875
 42
0.1875
 43
0.1875
 50
270.0
  0
INSERT
  5
43B
100
AcDbEntity
  8
SCHEME_DIMS
100
AcDbBlockReference
 62
2
  6
CONTINUOUS
  2
_FILLED
 10
7.2350238844
 20
5.563975071
 41
0.1875
 42
0.1875
 43
0.1875
 50
90.0
  0
ENDBLK
  5
43C
100
AcDbEntity
  8
0
  6
BYBLOCK
 62
0
100
AcDbBlockEnd
  0
ENDSEC
  0
SECTION
  2
ENTITIES
  0
MTEXT
  5
43D
100
AcDbEntity
  8
0
100
AcDbMText
 62
2
  6
CONTINUOUS
  7
TEXTSTYLE_2
 71
2
 72
1
 10
11.0287658475
 20
1.794867839
 30
0.0
 11
1.0
 21
0.0
 31
0.0
 44
0.9
  1
THIRD ANGLE PROJECTION
 40
0.1
 41
1.76
  0
MTEXT
  5
43E
100
AcDbEntity
  8
0
100
AcDbMText
 62
2
  6
CONTINUOUS
  7
STANDARD
 71
1
 72
1
 10
12.88
 20
1.457
 30
0.0
 11
1.0
 21
0.0
 31
0.0
 44
0.9
  1
DRAWING NO.
 40
0.08
 41
0.88
  0
MTEXT
  5
43F
100
AcDbEntity
  8
0
100
AcDbMText
 62
2
  6
CONTINUOUS
  7
TEXTSTYLE_3
 71
2
 72
1
 10
11.03
 20
2.516432
 30
0.0
 11
1.0
 21
0.0
 31
0.0
 44
0.9
  1
and is proprietary in general
 40
0.08
 41
1.972
  0
MTEXT
  5
440
100
AcDbEntity
  8
0
100
AcDbMText
 62
2
  6
CONTINUOUS
  7
TEXTSTYLE_3
 71
2
 72
1
 10
11.03
 20
2.396432
 30
0.0
 11
1.0
 21
0.0
 31
0.0
 44
0.9
  1
and in detail.  Its contents
 40
0.08
 41
1.904
  0
MTEXT
  5
441
100
AcDbEntity
  8
0
100
AcDbMText
 62
2
  6
CONTINUOUS
  7
TEXTSTYLE_3
 71
2
 72
1
 10
11.03
 20
2.276432
 30
0.0
 11
1.0
 21
0.0
 31
0.0
 44
0.9
  1
shall not be revealed to
 40
0.08
 41
1.632
  0
MTEXT
  5
442
100
AcDbEntity
  8
0
100
AcDbMText
 62
2
  6
CONTINUOUS
  7
TEXTSTYLE_3
 71
2
 72
1
 10
11.03
 20
2.156432
 30
0.0
 11
1.0
 21
0.0
 31
0.0
 44
0.9
  1
outside parties without
 40
0.08
 41
1.564
  0
MTEXT
  5
443
100
AcDbEntity
  8
0
100
AcDbMText
 62
2
  6
CONTINUOUS
  7
TEXTSTYLE_3
 71
2
 72
1
 10
11.03
 20
2.036432
 30
0.0
 11
1.0
 21
0.0
 31
0.0
 44
0.9
  1
written consent of BANNER.
 40
0.08
 41
1.768
  0
MTEXT
  5
444
100
AcDbEntity
  8
0
100
AcDbMText
 62
2
  6
CONTINUOUS
  7
TEXTSTYLE_2
 71
1
 72
1
 10
12.08
 20
2.217
 30
0.0
 11
1.0
 21
0.0
 31
0.0
 44
0.9
  1
TITLE
 40
0.1
 41
0.4
  0
MTEXT
  5
445
100
AcDbEntity
  8
0
100
AcDbMText
 62
2
  6
CONTINUOUS
  7
STANDARD
 71
1
 72
1
 10
12.08
 20
1.457
 30
0.0
 11
1.0
 21
0.0
 31
0.0
 44
0.9
  1
SIZE
 40
0.08
 41
0.32
  0
MTEXT
  5
446
100
AcDbEntity
  8
0
100
AcDbMText
 62
2
  6
CONTINUOUS
  7
STANDARD
 71
1
 72
1
 10
12.08
 20
1.087
 30
0.0
 11
1.0
 21
0.0
 31
0.0
 44
0.9
  1
SCALE
 40
0.08
 41
0.4
  0
MTEXT
  5
447
100
AcDbEntity
  8
0
100
AcDbMText
 62
2
  6
CONTINUOUS
  7
TEXTSTYLE_2
 71
2
 72
1
 10
12.5
 20
1.337
 30
0.0
 11
1.0
 21
0.0
 31
0.0
 44
0.9
  1
B
 40
0.1
 41
0.08
  0
MTEXT
  5
448
100
AcDbEntity
  8
0
100
AcDbMText
 62
2
  6
CONTINUOUS
  7
TEXTSTYLE_3
 71
2
 72
1
 10
11.03
 20
2.636432
 30
0.0
 11
1.0
 21
0.0
 31
0.0
 44
0.9
  1
of BANNER ENGINEERING CORP.
 40
0.08
 41
1.836
  0
MTEXT
  5
449
100
AcDbEntity
  8
0
100
AcDbMText
 62
2
  6
CONTINUOUS
  7
TEXTSTYLE_3
 71
2
 72
1
 10
11.03
 20
2.756432
 30
0.0
 11
1.0
 21
0.0
 31
0.0
 44
0.9
  1
This drawing is the property
 40
0.08
 41
1.904
  0
MTEXT
  5
44A
100
AcDbEntity
  8
0
100
AcDbMText
 62
2
  6
CONTINUOUS
  7
TEXTSTYLE_2
 71
2
 72
1
 10
15.03
 20
2.4134
 30
0.0
 11
1.0
 21
0.0
 31
0.0
 44
0.9
  1
MINNEAPOLIS, MN 55440
 40
0.1
 41
1.68
  0
MTEXT
  5
44B
100
AcDbEntity
  8
0
100
AcDbMText
 62
2
  6
CONTINUOUS
  7
STANDARD
 71
1
 72
1
 10
14.255
 20
1.087
 30
0.0
 11
1.0
 21
0.0
 31
0.0
 44
0.9
  1
SHEET
 40
0.08
 41
0.4
  0
MTEXT
  5
44C
100
AcDbEntity
  8
0
100
AcDbMText
 62
2
  6
CONTINUOUS
  7
STANDARD
 71
1
 72
1
 10
15.63
 20
1.457
 30
0.0
 11
1.0
 21
0.0
 31
0.0
 44
0.9
  1
REV.
 40
0.08
 41
0.32
  0
MTEXT
  5
44D
100
AcDbEntity
  8
0
100
AcDbMText
 62
2
  6
CONTINUOUS
  7
STANDARD
 71
3
 72
1
 10
16.38
 20
0.835443
 30
0.0
 11
1.0
 21
0.0
 31
0.0
 44
0.9
  1
PRO/E
 40
0.07
 41
0.35
  0
MTEXT
  5
44E
100
AcDbEntity
  8
0
100
AcDbMText
 62
2
  6
CONTINUOUS
  7
TEXTSTYLE_4
 71
2
 72
1
 10
15.03
 20
2.751049
 30
0.0
 11
1.0
 21
0.0
 31
0.0
 44
0.9
  1
BANNER ENGINEERING CORP.
 40
0.12
 41
2.6496
  0
MTEXT
  5
44F
100
AcDbEntity
  8
0
100
AcDbMText
 62
2
  6
CONTINUOUS
  7
TEXTSTYLE_2
 71
2
 72
1
 10
15.03
 20
2.5724
 30
0.0
 11
1.0
 21
0.0
 31
0.0
 44
0.9
  1
P.O. BOX 9414
 40
0.1
 41
1.04
  0
MTEXT
  5
450
100
AcDbEntity
  8
0
100
AcDbMText
 62
2
  6
CONTINUOUS
  7
TEXTSTYLE_2
 71
2
 72
1
 10
9.485
 20
10.312
 30
0.0
 11
1.0
 21
0.0
 31
0.0
 44
0.9
  1
4
 40
0.1
 41
0.08
  0
MTEXT
  5
451
100
AcDbEntity
  8
0
100
AcDbMText
 62
2
  6
CONTINUOUS
  7
TEXTSTYLE_2
 71
2
 72
1
 10
11.455
 20
10.312
 30
0.0
 11
1.0
 21
0.0
 31
0.0
 44
0.9
  1
3
 40
0.1
 41
0.08
  0
MTEXT
  5
452
100
AcDbEntity
  8
0
100
AcDbMText
 62
2
  6
CONTINUOUS
  7
TEXTSTYLE_2
 71
2
 72
1
 10
13.425
 20
10.312
 30
0.0
 11
1.0
 21
0.0
 31
0.0
 44
0.9
  1
2
 40
0.1
 41
0.08
  0
MTEXT
  5
453
100
AcDbEntity
  8
0
100
AcDbMText
 62
2
  6
CONTINUOUS
  7
TEXTSTYLE_2
 71
2
 72
1
 10
15.395
 20
10.312
 30
0.0
 11
1.0
 21
0.0
 31
0.0
 44
0.9
  1
1
 40
0.1
 41
0.08
  0
MTEXT
  5
454
100
AcDbEntity
  8
0
100
AcDbMText
 62
2
  6
CONTINUOUS
  7
TEXTSTYLE_2
 71
2
 72
1
 10
3.575
 20
10.312
 30
0.0
 11
1.0
 21
0.0
 31
0.0
 44
0.9
  1
7
 40
0.1
 41
0.08
  0
MTEXT
  5
455
100
AcDbEntity
  8
0
100
AcDbMText
 62
2
  6
CONTINUOUS
  7
TEXTSTYLE_2
 71
2
 72
1
 10
5.545
 20
10.312
 30
0.0
 11
1.0
 21
0.0
 31
0.0
 44
0.9
  1
6
 40
0.1
 41
0.08
  0
MTEXT
  5
456
100
AcDbEntity
  8
0
100
AcDbMText
 62
2
  6
CONTINUOUS
  7
TEXTSTYLE_2
 71
2
 72
1
 10
7.515
 20
10.312
 30
0.0
 11
1.0
 21
0.0
 31
0.0
 44
0.9
  1
5
 40
0.1
 41
0.08
  0
MTEXT
  5
457
100
AcDbEntity
  8
0
100
AcDbMText
 62
2
  6
CONTINUOUS
  7
TEXTSTYLE_2
 71
2
 72
1
 10
1.605
 20
10.312
 30
0.0
 11
1.0
 21
0.0
 31
0.0
 44
0.9
  1
8
 40
0.1
 41
0.08
  0
MTEXT
  5
458
100
AcDbEntity
  8
0
100
AcDbMText
 62
2
  6
CONTINUOUS
  7
TEXTSTYLE_2
 71
2
 72
1
 10
1.605
 20
0.787
 30
0.0
 11
1.0
 21
0.0
 31
0.0
 44
0.9
  1
8
 40
0.1
 41
0.08
  0
MTEXT
  5
459
100
AcDbEntity
  8
0
100
AcDbMText
 62
2
  6
CONTINUOUS
  7
TEXTSTYLE_2
 71
2
 72
1
 10
3.575
 20
0.787
 30
0.0
 11
1.0
 21
0.0
 31
0.0
 44
0.9
  1
7
 40
0.1
 41
0.08
  0
MTEXT
  5
45A
100
AcDbEntity
  8
0
100
AcDbMText
 62
2
  6
CONTINUOUS
  7
TEXTSTYLE_2
 71
2
 72
1
 10
5.545
 20
0.787
 30
0.0
 11
1.0
 21
0.0
 31
0.0
 44
0.9
  1
6
 40
0.1
 41
0.08
  0
MTEXT
  5
45B
100
AcDbEntity
  8
0
100
AcDbMText
 62
2
  6
CONTINUOUS
  7
TEXTSTYLE_2
 71
2
 72
1
 10
7.515
 20
0.787
 30
0.0
 11
1.0
 21
0.0
 31
0.0
 44
0.9
  1
5
 40
0.1
 41
0.08
  0
MTEXT
  5
45C
100
AcDbEntity
  8
0
100
AcDbMText
 62
2
  6
CONTINUOUS
  7
TEXTSTYLE_2
 71
2
 72
1
 10
9.485
 20
0.787
 30
0.0
 11
1.0
 21
0.0
 31
0.0
 44
0.9
  1
4
 40
0.1
 41
0.08
  0
MTEXT
  5
45D
100
AcDbEntity
  8
0
100
AcDbMText
 62
2
  6
CONTINUOUS
  7
TEXTSTYLE_2
 71
2
 72
1
 10
11.455
 20
0.787
 30
0.0
 11
1.0
 21
0.0
 31
0.0
 44
0.9
  1
3
 40
0.1
 41
0.08
  0
MTEXT
  5
45E
100
AcDbEntity
  8
0
100
AcDbMText
 62
2
  6
CONTINUOUS
  7
TEXTSTYLE_2
 71
2
 72
1
 10
13.425
 20
0.787
 30
0.0
 11
1.0
 21
0.0
 31
0.0
 44
0.9
  1
2
 40
0.1
 41
0.08
  0
MTEXT
  5
45F
100
AcDbEntity
  8
0
100
AcDbMText
 62
2
  6
CONTINUOUS
  7
TEXTSTYLE_2
 71
2
 72
1
 10
15.395
 20
0.787
 30
0.0
 11
1.0
 21
0.0
 31
0.0
 44
0.9
  1
1
 40
0.1
 41
0.08
  0
MTEXT
  5
460
100
AcDbEntity
  8
0
100
AcDbMText
 62
2
  6
CONTINUOUS
  7
TEXTSTYLE_2
 71
3
 72
1
 10
0.52
 20
4.3995
 30
0.0
 11
1.0
 21
0.0
 31
0.0
 44
0.9
  1
B
 40
0.1
 41
0.08
  0
MTEXT
  5
461
100
AcDbEntity
  8
0
100
AcDbMText
 62
2
  6
CONTINUOUS
  7
TEXTSTYLE_2
 71
3
 72
1
 10
0.52
 20
2.0995
 30
0.0
 11
1.0
 21
0.0
 31
0.0
 44
0.9
  1
A
 40
0.1
 41
0.08
  0
MTEXT
  5
462
100
AcDbEntity
  8
0
100
AcDbMText
 62
2
  6
CONTINUOUS
  7
TEXTSTYLE_2
 71
3
 72
1
 10
0.52
 20
8.9995
 30
0.0
 11
1.0
 21
0.0
 31
0.0
 44
0.9
  1
D
 40
0.1
 41
0.08
  0
MTEXT
  5
463
100
AcDbEntity
  8
0
100
AcDbMText
 62
2
  6
CONTINUOUS
  7
TEXTSTYLE_2
 71
3
 72
1
 10
0.52
 20
6.6995
 30
0.0
 11
1.0
 21
0.0
 31
0.0
 44
0.9
  1
C
 40
0.1
 41
0.08
  0
MTEXT
  5
464
100
AcDbEntity
  8
0
100
AcDbMText
 62
2
  6
CONTINUOUS
  7
TEXTSTYLE_2
 71
1
 72
1
 10
16.48
 20
8.9995
 30
0.0
 11
1.0
 21
0.0
 31
0.0
 44
0.9
  1
D
 40
0.1
 41
0.08
  0
MTEXT
  5
465
100
AcDbEntity
  8
0
100
AcDbMText
 62
2
  6
CONTINUOUS
  7
TEXTSTYLE_2
 71
1
 72
1
 10
16.48
 20
6.6995
 30
0.0
 11
1.0
 21
0.0
 31
0.0
 44
0.9
  1
C
 40
0.1
 41
0.08
  0
MTEXT
  5
466
100
AcDbEntity
  8
0
100
AcDbMText
 62
2
  6
CONTINUOUS
  7
TEXTSTYLE_2
 71
1
 72
1
 10
16.48
 20
4.3995
 30
0.0
 11
1.0
 21
0.0
 31
0.0
 44
0.9
  1
B
 40
0.1
 41
0.08
  0
MTEXT
  5
467
100
AcDbEntity
  8
0
100
AcDbMText
 62
2
  6
CONTINUOUS
  7
TEXTSTYLE_2
 71
1
 72
1
 10
16.48
 20
2.0995
 30
0.0
 11
1.0
 21
0.0
 31
0.0
 44
0.9
  1
A
 40
0.1
 41
0.08
  0
MTEXT
  5
468
100
AcDbEntity
  8
0
100
AcDbMText
 62
2
  6
CONTINUOUS
  7
STANDARD
 71
1
 72
1
 10
14.819264911
 20
1.0627941725
 30
0.0
 11
1.0
 21
0.0
 31
0.0
 44
0.9
  1
1 OF 1
 40
0.1
 41
0.6
  0
MTEXT
  5
469
100
AcDbEntity
  8
0
100
AcDbMText
 62
7
  6
CONTINUOUS
  7
STANDARD
 71
1
 72
1
 10
13.8911999818
 20
1.3747321586
 30
0.0
 11
1.0
 21
0.0
 31
0.0
 44
0.9
  1
154435
 40
0.12
 41
0.72
  0
MTEXT
  5
46A
100
AcDbEntity
  8
0
100
AcDbMText
 62
2
  6
CONTINUOUS
  7
STANDARD
 71
1
 72
1
 10
12.644264911
 20
1.0627941725
 30
0.0
 11
1.0
 21
0.0
 31
0.0
 44
0.9
  1
1:1
 40
0.1
 41
0.3
  0
MTEXT
  5
46B
100
AcDbEntity
  8
0
100
AcDbMText
 62
2
  6
CONTINUOUS
  7
STANDARD
 71
1
 72
1
 10
1.0597007627
 20
1.6202922458
 30
0.0
 11
1.0
 21
0.0
 31
0.0
 44
0.9
  1
NOTES:\P1. ALL DIMENSIONS ARE MILLIMETERS [INCHES] UNLESS OTHERWISE NOTED.
 40
0.1
 41
6.6
  0
INSERT
  5
46C
100
AcDbEntity
  8
0
100
AcDbBlockReference
 62
2
  6
CONTINUOUS
  2
BANNER_LOGO_TITLEBLOCK_BL0
 10
12.9086867042
 20
2.5403783405
  0
DIMENSION
  5
46D
100
AcDbEntity
  8
SCHEME_DIMS
100
AcDbDimension
 62
2
  6
CONTINUOUS
  2
*D0
 10
4.6035454012
 20
7.7246939878
 11
3.9532120679
 21
7.6496939878
 70
160
 71
2
 42
30.0736
  1
%%c<>
  3
DIMSTYLE_1
100
AcDbAlignedDimension
 13
3.4195454012
 23
8.9045325705
 14
4.6035454012
 24
8.9045325705
100
AcDbRotatedDimension
  0
DIMENSION
  5
46E
100
AcDbEntity
  8
SCHEME_DIMS
100
AcDbDimension
 62
2
  6
CONTINUOUS
  2
*D1
 10
7.8388607296
 20
7.4748701462
 11
8.3525300209
 21
7.3998701462
 70
160
 71
2
 42
32.4444
  3
DIMSTYLE_1
100
AcDbAlignedDimension
 13
9.1161993122
 23
6.4763727088
 14
7.8388607296
 24
6.1844552603
 50
180.0
100
AcDbRotatedDimension
  0
DIMENSION
  5
46F
100
AcDbEntity
  8
SCHEME_DIMS
100
AcDbDimension
 62
2
  6
CONTINUOUS
  2
*D2
 10
5.1035454012
 20
4.8578727088
 11
5.0285454012
 21
5.2953727088
 70
160
 71
2
 42
26.035
  3
DIMSTYLE_1
100
AcDbAlignedDimension
 13
4.5207009379
 23
5.8828727088
 14
4.3351778877
 24
4.8578727088
 50
270.0
100
AcDbRotatedDimension
  0
DIMENSION
  5
470
100
AcDbEntity
  8
SCHEME_DIMS
100
AcDbDimension
 62
2
  6
CONTINUOUS
  2
*D3
 10
8.5211993122
 20
6.9748701462
 11
6.9466452199
 21
6.8998701462
 70
160
 71
3
 42
17.3314
  3
DIMSTYLE_1
100
AcDbAlignedDimension
 13
7.8388607296
 23
6.1934042048
 14
8.5211993122
 24
6.4773727088
100
AcDbRotatedDimension
  0
DIMENSION
  5
471
100
AcDbEntity
  8
SCHEME_DIMS
100
AcDbDimension
 62
2
  6
CONTINUOUS
  2
*D4
 10
11.0689177488
 20
6.4835760363
 11
10.9939177488
 21
5.6005760363
 70
160
 71
2
 42
41.0464
  3
DIMSTYLE_1
100
AcDbAlignedDimension
 13
11.8372852623
 23
4.8675760363
 14
12.0984177488
 24
6.4835760363
 50
90.0
100
AcDbRotatedDimension
  0
DIMENSION
  5
472
100
AcDbEntity
  8
SCHEME_DIMS
100
AcDbDimension
 62
2
  6
CONTINUOUS
  2
*D5
 10
7.2350238844
 20
5.563975071
 11
7.1766905511
 21
5.9052133005
 70
160
 71
2
 42
16.2
  1
%%c<>
  3
DIMSTYLE_1
100
AcDbAlignedDimension
 13
7.8472268713
 23
6.2017703465
 14
7.8472268713
 24
5.563975071
 50
270.0
100
AcDbRotatedDimension
  0
LINE
  5
473
100
AcDbEntity
  8
0
100
AcDbLine
 62
2
  6
CONTINUOUS
 10
16.38
 20
0.887
 11
12.03
 21
0.887
  0
LINE
  5
474
100
AcDbEntity
  8
0
100
AcDbLine
 62
2
  6
CONTINUOUS
 10
16.38
 20
0.887
 11
16.38
 21
2.807
  0
LINE
  5
475
100
AcDbEntity
  8
0
100
AcDbLine
 62
2
  6
CONTINUOUS
 10
16.38
 20
2.807
 11
12.03
 21
2.807
  0
LINE
  5
476
100
AcDbEntity
  8
0
100
AcDbLine
 62
2
  6
CONTINUOUS
 10
12.03
 20
0.887
 11
12.03
 21
2.807
  0
MTEXT
  5
477
100
AcDbEntity
  8
NOTES
100
AcDbMText
 62
7
  6
CONTINUOUS
  7
STANDARD
 71
2
 72
1
 10
16.155
 20
1.367
 30
0.0
 11
1.0
 21
0.0
 31
0.0
 44
0.9
  1
1
 40
0.1
 41
0.1
  0
MTEXT
  5
478
100
AcDbEntity
  8
NOTES
100
AcDbMText
 62
7
  6
CONTINUOUS
  7
STANDARD
 71
2
 72
1
 10
14.205
 20
1.967
 30
0.0
 11
1.0
 21
0.0
 31
0.0
 44
0.9
  1
T18 EZ-LIGHT CABLE/PIGTAIL\PWEB CAD DRAWINGS 2D/3D
 40
0.1
 41
2.6
  0
MTEXT
  5
479
100
AcDbEntity
  8
NOTES
100
AcDbMText
 62
2
  6
CONTINUOUS
  7
STANDARD
 71
2
 72
1
 10
14.8755336997
 20
6.2456348838
 30
0.0
 11
1.0
 21
0.0
 31
0.0
 44
0.9
  1
ISOMETRIC VIEW\PSCALE  1:1
 40
0.1
 41
1.4
  0
LEADER
  5
47A
100
AcDbEntity
  8
NOTES
100
AcDbLeader
 62
2
  6
CONTINUOUS
  3
STANDARD
 71
1
 72
0
 73
0
 75
0
 40
0.1
 41
0.5
 76
3
 10
8.1912071247
 20
5.5448853469
 30
0.0
 10
7.5697661867
 20
4.8624409151
 30
0.0
 10
7.3197661867
 20
4.8624409151
 30
0.0
340
47B
1001
ACAD
1000
DSTYLE
1002
{
1070
77
1070
0
1002
}
  0
MTEXT
  5
47B
102
{ACAD_REACTORS
330
47A
102
}
100
AcDbEntity
  8
NOTES
100
AcDbMText
 62
2
  6
CONTINUOUS
  7
STANDARD
 71
3
 72
1
 10
7.3197661867
 20
4.9124409151
 30
0.0
 11
1.0
 21
0.0
 31
0.0
 44
0.9
  1
M18-1
 40
0.1
 41
0.5
  0
LINE
  5
47C
100
AcDbEntity
  8
0
100
AcDbLine
 62
2
  6
CONTINUOUS
 10
0.47
 20
5.586103
 11
0.47
 21
5.412897
  0
LINE
  5
47D
100
AcDbEntity
  8
0
100
AcDbLine
 62
2
  6
CONTINUOUS
 10
0.62
 20
10.112
 11
0.62
 21
0.887
  0
LINE
  5
47E
100
AcDbEntity
  8
0
100
AcDbLine
 62
2
  6
CONTINUOUS
 10
2.59
 20
0.887
 11
2.59
 21
0.637
  0
LINE
  5
47F
100
AcDbEntity
  8
0
100
AcDbLine
 62
2
  6
CONTINUOUS
 10
2.59
 20
10.112
 11
2.59
 21
10.362
  0
LINE
  5
480
100
AcDbEntity
  8
0
100
AcDbLine
 62
2
  6
CONTINUOUS
 10
8.413397
 20
0.737
 11
8.586603
 21
0.737
  0
LINE
  5
481
100
AcDbEntity
  8
0
100
AcDbLine
 62
7
  6
CONTINUOUS
 10
11.1389508475
 20
1.425992839
 11
11.7453418475
 21
1.495385839
  0
LINE
  5
482
100
AcDbEntity
  8
0
100
AcDbLine
 62
2
  6
CONTINUOUS
 10
0.62
 20
0.887
 11
16.38
 21
0.887
  0
LINE
  5
483
100
AcDbEntity
  8
0
100
AcDbLine
 62
2
  6
CONTINUOUS
 10
12.03
 20
1.137
 11
16.38
 21
1.137
  0
LINE
  5
484
100
AcDbEntity
  8
0
100
AcDbLine
 62
7
  6
CONTINUOUS
 10
10.2121898475
 20
1.243294839
 11
10.4342808475
 21
1.243294839
  0
LINE
  5
485
100
AcDbEntity
  8
0
100
AcDbLine
 62
7
  6
CONTINUOUS
 10
10.4842808475
 20
1.243294839
 11
10.5842808475
 21
1.243294839
  0
LINE
  5
486
100
AcDbEntity
  8
0
100
AcDbLine
 62
7
  6
CONTINUOUS
 10
10.6342808475
 20
1.243294839
 11
10.8563718475
 21
1.243294839
  0
LINE
  5
487
100
AcDbEntity
  8
0
100
AcDbLine
 62
7
  6
CONTINUOUS
 10
11.0389508475
 20
1.243294839
 11
11.3171028475
 21
1.243294839
  0
LINE
  5
488
100
AcDbEntity
  8
0
100
AcDbLine
 62
7
  6
CONTINUOUS
 10
11.3671028475
 20
1.243294839
 11
11.5171888475
 21
1.243294839
  0
LINE
  5
489
100
AcDbEntity
  8
0
100
AcDbLine
 62
7
  6
CONTINUOUS
 10
11.5671888475
 20
1.243294839
 11
11.8453418475
 21
1.243294839
  0
LINE
  5
48A
100
AcDbEntity
  8
0
100
AcDbLine
 62
7
  6
CONTINUOUS
 10
11.7453418475
 20
0.991203839
 11
11.1389508475
 21
1.060596839
  0
LINE
  5
48B
100
AcDbEntity
  8
0
100
AcDbLine
 62
2
  6
CONTINUOUS
 10
4.56
 20
0.887
 11
4.56
 21
0.637
  0
LINE
  5
48C
100
AcDbEntity
  8
0
100
AcDbLine
 62
2
  6
CONTINUOUS
 10
4.56
 20
10.112
 11
4.56
 21
10.362
  0
LINE
  5
48D
100
AcDbEntity
  8
0
100
AcDbLine
 62
2
  6
CONTINUOUS
 10
0.47
 20
5.412897
 11
0.62
 21
5.4995
  0
LINE
  5
48E
100
AcDbEntity
  8
0
100
AcDbLine
 62
2
  6
CONTINUOUS
 10
12.03
 20
1.507
 11
16.38
 21
1.507
  0
LINE
  5
48F
100
AcDbEntity
  8
0
100
AcDbLine
 62
2
  6
CONTINUOUS
 10
10.03
 20
1.907
 11
12.03
 21
1.907
  0
LINE
  5
490
100
AcDbEntity
  8
0
100
AcDbLine
 62
2
  6
CONTINUOUS
 10
0.62
 20
5.4995
 11
0.47
 21
5.586103
  0
LINE
  5
491
100
AcDbEntity
  8
0
100
AcDbLine
 62
2
  6
CONTINUOUS
 10
12.03
 20
2.267
 11
16.38
 21
2.267
  0
LINE
  5
492
100
AcDbEntity
  8
0
100
AcDbLine
 62
2
  6
CONTINUOUS
 10
8.5
 20
10.112
 11
8.586603
 21
10.262
  0
LINE
  5
493
100
AcDbEntity
  8
0
100
AcDbLine
 62
2
  6
CONTINUOUS
 10
16.38
 20
2.807
 11
10.03
 21
2.807
  0
LINE
  5
494
100
AcDbEntity
  8
0
100
AcDbLine
 62
2
  6
CONTINUOUS
 10
0.62
 20
3.1995
 11
0.37
 21
3.1995
  0
LINE
  5
495
100
AcDbEntity
  8
0
100
AcDbLine
 62
2
  6
CONTINUOUS
 10
16.38
 20
3.1995
 11
16.63
 21
3.1995
  0
LINE
  5
496
100
AcDbEntity
  8
0
100
AcDbLine
 62
2
  6
CONTINUOUS
 10
8.586603
 20
0.737
 11
8.5
 21
0.887
  0
LINE
  5
497
100
AcDbEntity
  8
0
100
AcDbLine
 62
2
  6
CONTINUOUS
 10
6.53
 20
0.887
 11
6.53
 21
0.637
  0
LINE
  5
498
100
AcDbEntity
  8
0
100
AcDbLine
 62
2
  6
CONTINUOUS
 10
6.53
 20
10.112
 11
6.53
 21
10.362
  0
LINE
  5
499
100
AcDbEntity
  8
0
100
AcDbLine
 62
2
  6
CONTINUOUS
 10
8.5
 20
0.887
 11
8.5
 21
0.637
  0
LINE
  5
49A
100
AcDbEntity
  8
0
100
AcDbLine
 62
2
  6
CONTINUOUS
 10
8.5
 20
10.112
 11
8.5
 21
10.362
  0
LINE
  5
49B
100
AcDbEntity
  8
0
100
AcDbLine
 62
2
  6
CONTINUOUS
 10
0.62
 20
5.4995
 11
0.37
 21
5.4995
  0
LINE
  5
49C
100
AcDbEntity
  8
0
100
AcDbLine
 62
2
  6
CONTINUOUS
 10
16.38
 20
5.4995
 11
16.63
 21
5.4995
  0
LINE
  5
49D
100
AcDbEntity
  8
0
100
AcDbLine
 62
2
  6
CONTINUOUS
 10
10.03
 20
2.807
 11
10.03
 21
0.887
  0
LINE
  5
49E
100
AcDbEntity
  8
0
100
AcDbLine
 62
2
  6
CONTINUOUS
 10
10.47
 20
0.887
 11
10.47
 21
0.637
  0
LINE
  5
49F
100
AcDbEntity
  8
0
100
AcDbLine
 62
2
  6
CONTINUOUS
 10
10.47
 20
10.112
 11
10.47
 21
10.362
  0
LINE
  5
4A0
100
AcDbEntity
  8
0
100
AcDbLine
 62
7
  6
CONTINUOUS
 10
10.5342808475
 20
1.143294839
 11
10.5342808475
 21
0.921203839
  0
LINE
  5
4A1
100
AcDbEntity
  8
0
100
AcDbLine
 62
7
  6
CONTINUOUS
 10
10.5342808475
 20
1.193294839
 11
10.5342808475
 21
1.293294839
  0
LINE
  5
4A2
100
AcDbEntity
  8
0
100
AcDbLine
 62
7
  6
CONTINUOUS
 10
10.5342808475
 20
1.343294839
 11
10.5342808475
 21
1.565385839
  0
LINE
  5
4A3
100
AcDbEntity
  8
0
100
AcDbLine
 62
2
  6
CONTINUOUS
 10
8.5
 20
0.887
 11
8.413397
 21
0.737
  0
LINE
  5
4A4
100
AcDbEntity
  8
0
100
AcDbLine
 62
2
  6
CONTINUOUS
 10
0.62
 20
7.7995
 11
0.37
 21
7.7995
  0
LINE
  5
4A5
100
AcDbEntity
  8
0
100
AcDbLine
 62
2
  6
CONTINUOUS
 10
16.38
 20
7.7995
 11
16.63
 21
7.7995
  0
LINE
  5
4A6
100
AcDbEntity
  8
0
100
AcDbLine
 62
2
  6
CONTINUOUS
 10
8.413397
 20
10.262
 11
8.5
 21
10.112
  0
LINE
  5
4A7
100
AcDbEntity
  8
0
100
AcDbLine
 62
7
  6
CONTINUOUS
 10
11.1389508475
 20
1.060596839
 11
11.1389508475
 21
1.425992839
  0
LINE
  5
4A8
100
AcDbEntity
  8
0
100
AcDbLine
 62
7
  6
CONTINUOUS
 10
11.7453418475
 20
1.495385839
 11
11.7453418475
 21
0.991203839
  0
LINE
  5
4A9
100
AcDbEntity
  8
0
100
AcDbLine
 62
1
  6
CONTINUOUS
 10
12.03
 20
2.807
 11
12.03
 21
0.887
  0
LINE
  5
4AA
100
AcDbEntity
  8
0
100
AcDbLine
 62
2
  6
CONTINUOUS
 10
12.44
 20
0.887
 11
12.44
 21
0.637
  0
LINE
  5
4AB
100
AcDbEntity
  8
0
100
AcDbLine
 62
2
  6
CONTINUOUS
 10
12.44
 20
10.112
 11
12.44
 21
10.362
  0
LINE
  5
4AC
100
AcDbEntity
  8
0
100
AcDbLine
 62
2
  6
CONTINUOUS
 10
16.53
 20
5.586103
 11
16.38
 21
5.4995
  0
LINE
  5
4AD
100
AcDbEntity
  8
0
100
AcDbLine
 62
2
  6
CONTINUOUS
 10
16.38
 20
5.4995
 11
16.53
 21
5.412897
  0
LINE
  5
4AE
100
AcDbEntity
  8
0
100
AcDbLine
 62
2
  6
CONTINUOUS
 10
12.83
 20
1.507
 11
12.83
 21
1.137
  0
LINE
  5
4AF
100
AcDbEntity
  8
0
100
AcDbLine
 62
2
  6
CONTINUOUS
 10
16.38
 20
10.112
 11
0.62
 21
10.112
  0
LINE
  5
4B0
100
AcDbEntity
  8
0
100
AcDbLine
 62
2
  6
CONTINUOUS
 10
8.586603
 20
10.262
 11
8.413397
 21
10.262
  0
LINE
  5
4B1
100
AcDbEntity
  8
0
100
AcDbLine
 62
2
  6
CONTINUOUS
 10
14.205
 20
1.137
 11
14.205
 21
0.887
  0
LINE
  5
4B2
100
AcDbEntity
  8
0
100
AcDbLine
 62
2
  6
CONTINUOUS
 10
14.41
 20
0.887
 11
14.41
 21
0.637
  0
LINE
  5
4B3
100
AcDbEntity
  8
0
100
AcDbLine
 62
2
  6
CONTINUOUS
 10
14.41
 20
10.112
 11
14.41
 21
10.362
  0
LINE
  5
4B4
100
AcDbEntity
  8
0
100
AcDbLine
 62
2
  6
CONTINUOUS
 10
15.58
 20
1.507
 11
15.58
 21
1.137
  0
LINE
  5
4B5
100
AcDbEntity
  8
0
100
AcDbLine
 62
2
  6
CONTINUOUS
 10
16.38
 20
0.887
 11
16.38
 21
10.112
  0
LINE
  5
4B6
100
AcDbEntity
  8
0
100
AcDbLine
 62
2
  6
CONTINUOUS
 10
16.53
 20
5.412897
 11
16.53
 21
5.586103
  0
LINE
  5
4B7
100
AcDbEntity
  8
0
100
AcDbLine
 62
7
  6
CONTINUOUS
 10
14.7989875059
 20
9.0415390951
 11
14.7991127335
 21
9.0416114562
  0
LINE
  5
4B8
100
AcDbEntity
  8
0
100
AcDbLine
 62
7
  6
CONTINUOUS
 10
14.7314378712
 20
9.0036942882
 11
14.462738413
 21
8.8485615098
  0
LINE
  5
4B9
100
AcDbEntity
  8
AXIS_COSMETIC_THREADS
100
AcDbLine
 62
7
  6
CONTINUOUS
 10
14.7425444265
 20
9.0089519238
 11
14.7991127335
 21
9.0416114562
  0
LWPOLYLINE
  5
4BA
100
AcDbEntity
  8
0
100
AcDbPolyline
 62
9
  6
CONTINUOUS
 90
3
 70
0
 10
14.7991127335
 20
9.0416114562
 10
14.8037087217
 20
9.0441836511
 10
14.8161025912
 20
9.0503523148
  0
LWPOLYLINE
  5
4BB
100
AcDbEntity
  8
AXIS_COSMETIC_THREADS
100
AcDbPolyline
 62
7
  6
CONTINUOUS
 90
10
 70
0
 10
14.742541339
 20
9.0089495574
 10
14.7630892944
 20
9.0192680523
 10
14.7924065607
 20
9.0293387822
 10
14.8237015479
 20
9.0351244811
 10
14.8567222874
 20
9.0365785659
 10
14.8912029154
 20
9.0336893293
 10
14.9268658143
 20
9.0264800336
 10
14.9634238473
 20
9.0150087239
 10
15.0005826708
 20
8.9993677604
 10
15.0380431036
 20
8.979683075
  0
LWPOLYLINE
  5
4BC
100
AcDbEntity
  8
0
100
AcDbPolyline
 62
7
  6
CONTINUOUS
 90
23
 70
0
 10
14.7314269904
 20
9.0036869866
 10
14.7723905228
 20
9.0215479127
 10
14.8232419744
 20
9.030857428
 10
14.8784134039
 20
9.0287457575
 10
14.9367375945
 20
9.0152575763
 10
14.9969806288
 20
8.9906782427
 10
15.0578679941
 20
8.9555277615
 10
15.118111546
 20
8.9105497829
 10
15.1764367612
 20
8.8566958689
 10
15.2316096994
 20
8.7951053644
 10
15.2824631156
 20
8.7270812844
 10
15.3279211354
 20
8.6540627749
 10
15.3670220658
 20
8.577594582
 10
15.3989386252
 20
8.499294606
 10
15.4229956834
 20
8.4208190822
 10
15.4386841381
 20
8.3438288093
 10
15.4456722214
 20
8.2699519892
 10
15.4438118885
 20
8.2007504239
 10
15.4331420809
 20
8.1376891482
 10
15.4138883082
 20
8.0821027633
 10
15.3864592429
 20
8.0351696348
 10
15.3514299573
 20
7.9978764672
 10
15.323422522
 20
7.9783155925
  0
LWPOLYLINE
  5
4BD
100
AcDbEntity
  8
0
100
AcDbPolyline
 62
9
  6
CONTINUOUS
 90
3
 70
0
 10
14.8161025912
 20
9.0503523148
 10
14.8289537625
 20
9.0556662325
 10
14.8422411344
 20
9.0601166792
  0
LWPOLYLINE
  5
4BE
100
AcDbEntity
  8
0
100
AcDbPolyline
 62
7
  6
CONTINUOUS
 90
7
 70
0
 10
14.462738413
 20
8.8485615098
 10
14.4204217486
 20
8.8174618174
 10
14.3842041422
 20
8.7761325447
 10
14.3554540056
 20
8.725095785
 10
14.3351649323
 20
8.6647957724
 10
14.3243530357
 20
8.5970308623
 10
14.3232971289
 20
8.5238097283
  0
LWPOLYLINE
  5
4BF
100
AcDbEntity
  8
0
100
AcDbPolyline
 62
9
  6
CONTINUOUS
 90
9
 70
0
 10
14.512927507
 20
8.7942201178
 10
14.4699626445
 20
8.781885858
 10
14.4320121833
 20
8.7599745226
 10
14.3998485518
 20
8.7289320859
 10
14.3741264191
 20
8.689390341
 10
14.3553693759
 20
8.6421540478
 10
14.34395928
 20
8.5881845648
 10
14.3401284841
 20
8.5285802944
 10
14.3416883962
 20
8.5024802723
  0
LINE
  5
4C0
100
AcDbEntity
  8
0
100
AcDbLine
 62
7
  6
CONTINUOUS
 10
14.4004839468
 20
8.5358159426
 11
14.4134220852
 21
8.5452705626
  0
LINE
  5
4C1
100
AcDbEntity
  8
0
100
AcDbLine
 62
7
  6
CONTINUOUS
 10
14.3722186345
 20
8.5195009124
 11
14.3851360525
 21
8.5289397109
  0
LINE
  5
4C2
100
AcDbEntity
  8
0
100
AcDbLine
 62
7
  6
CONTINUOUS
 10
14.3439365886
 20
8.50321329
 11
14.3568499408
 21
8.5126088135
  0
LINE
  5
4C3
100
AcDbEntity
  8
0
100
AcDbLine
 62
7
  6
CONTINUOUS
 10
14.3155828269
 20
8.4868655039
 11
14.3285736932
 21
8.4962836143
  0
LINE
  5
4C4
100
AcDbEntity
  8
0
100
AcDbLine
 62
7
  6
CONTINUOUS
 10
14.4287949779
 20
8.5522532417
 11
14.4417199624
 21
8.5616082553
  0
LINE
  5
4C5
100
AcDbEntity
  8
0
100
AcDbLine
 62
7
  6
CONTINUOUS
 10
14.2894622129
 20
8.4721264504
 11
14.3003162788
 21
8.4799692884
  0
LINE
  5
4C6
100
AcDbEntity
  8
0
100
AcDbLine
 62
7
  6
CONTINUOUS
 10
14.4570735018
 20
8.5685913908
 11
14.4700216336
 21
8.5779481358
  0
LWPOLYLINE
  5
4C7
100
AcDbEntity
  8
0
100
AcDbPolyline
 62
7
  6
CONTINUOUS
 90
7
 70
0
 10
14.1244882432
 20
8.3379228748
 10
14.1005141393
 20
8.3208328702
 10
14.0795688393
 20
8.2988362604
 10
14.0621112966
 20
8.2718055647
 10
14.0488145468
 20
8.2396937974
 10
14.0404904583
 20
8.2030184906
 10
14.0376847236
 20
8.1630055722
  0
LWPOLYLINE
  5
4C8
100
AcDbEntity
  8
0
100
AcDbPolyline
 62
7
  6
CONTINUOUS
 90
5
 70
0
 10
14.272026396
 20
8.4636362146
 10
14.2568636902
 20
8.4533230107
 10
14.2325770867
 20
8.4281257378
 10
14.2139913217
 20
8.3957330854
 10
14.2115794522
 20
8.3882047076
  0
LWPOLYLINE
  5
4C9
100
AcDbEntity
  8
0
100
AcDbPolyline
 62
7
  6
CONTINUOUS
 90
3
 70
0
 10
14.4982996408
 20
8.5942743536
 10
14.4841952555
 20
8.5847912939
 10
14.4837508451
 20
8.5843364326
  0
LINE
  5
4CA
100
AcDbEntity
  8
02___PRT_ALL_AXES
100
AcDbLine
 62
7
  6
CONTINUOUS
 10
14.2803851522
 20
8.4279294599
 11
14.1244882432
 21
8.3379228748
  0
LINE
  5
4CB
100
AcDbEntity
  8
0
100
AcDbLine
 62
7
  6
CONTINUOUS
 10
14.4134220852
 20
8.5452705626
 11
14.4204975857
 21
8.5490582533
  0
LINE
  5
4CC
100
AcDbEntity
  8
0
100
AcDbLine
 62
7
  6
CONTINUOUS
 10
14.3851360525
 20
8.5289397109
 11
14.3923397272
 21
8.5327908495
  0
LINE
  5
4CD
100
AcDbEntity
  8
0
100
AcDbLine
 62
7
  6
CONTINUOUS
 10
14.3285736932
 20
8.4962836143
 11
14.336090604
 21
8.5002881348
  0
LINE
  5
4CE
100
AcDbEntity
  8
0
100
AcDbLine
 62
7
  6
CONTINUOUS
 10
14.3568499408
 20
8.5126088135
 11
14.3644458912
 21
8.5166526957
  0
LINE
  5
4CF
100
AcDbEntity
  8
0
100
AcDbLine
 62
7
  6
CONTINUOUS
 10
14.4417199624
 20
8.5616082553
 11
14.4496795544
 21
8.5658275052
  0
LINE
  5
4D0
100
AcDbEntity
  8
0
100
AcDbLine
 62
7
  6
CONTINUOUS
 10
14.4700216336
 20
8.5779481358
 11
14.477967458
 21
8.5821590884
  0
LINE
  5
4D1
100
AcDbEntity
  8
0
100
AcDbLine
 62
7
  6
CONTINUOUS
 10
14.3003162788
 20
8.4799692884
 11
14.3083051366
 21
8.4842011212
  0
LINE
  5
4D2
100
AcDbEntity
  8
0
100
AcDbLine
 62
7
  6
CONTINUOUS
 10
14.2862282648
 20
8.4706700741
 11
14.272026396
 21
8.4636362146
  0
LINE
  5
4D3
100
AcDbEntity
  8
0
100
AcDbLine
 62
7
  6
CONTINUOUS
 10
14.5145864266
 20
8.6021592632
 11
14.4982996408
 21
8.5942743536
  0
LWPOLYLINE
  5
4D4
100
AcDbEntity
  8
0
100
AcDbPolyline
 62
7
  6
CONTINUOUS
 90
6
 70
0
 10
14.4997138323
 20
8.5950908326
 10
14.5249338415
 20
8.6061510736
 10
14.559759905
 20
8.612305504
 10
14.5976935493
 20
8.6099692107
 10
14.6377576103
 20
8.59921519
 10
14.6621814309
 20
8.5889350293
  0
LWPOLYLINE
  5
4D5
100
AcDbEntity
  8
02___PRT_ALL_AXES
100
AcDbPolyline
 62
7
  6
CONTINUOUS
 90
19
 70
0
 10
14.2803851483
 20
8.4279294577
 10
14.3025602208
 20
8.4375823157
 10
14.3270854468
 20
8.4423453924
 10
14.3535398191
 20
8.442136397
 10
14.381470696
 20
8.4369589056
 10
14.4104001725
 20
8.4269015064
 10
14.4398332573
 20
8.4121362843
 10
14.4692663421
 20
8.3929158764
 10
14.4981958186
 20
8.3695691492
 10
14.5261266955
 20
8.3424955716
 10
14.5525810678
 20
8.3121583801
 10
14.5771062938
 20
8.2790766524
 10
14.59928274
 20
8.2438164261
 10
14.6187309614
 20
8.2069810134
 10
14.6351181935
 20
8.1692006784
 10
14.6481640462
 20
8.1311218532
 10
14.6576453013
 20
8.0933960769
 10
14.663399732
 20
8.0566688482
 10
14.6653288783
 20
8.02156858
  0
LWPOLYLINE
  5
4D6
100
AcDbEntity
  8
0
100
AcDbPolyline
 62
7
  6
CONTINUOUS
 90
5
 70
0
 10
14.2928336316
 20
8.4577645468
 10
14.266146984
 20
8.4466510589
 10
14.2416589206
 20
8.427865731
 10
14.2210627602
 20
8.4010461193
 10
14.2166378953
 20
8.3911251837
  0
LWPOLYLINE
  5
4D7
100
AcDbEntity
  8
0
100
AcDbPolyline
 62
7
  6
CONTINUOUS
 90
5
 70
0
 10
14.4204975857
 20
8.5490582533
 10
14.4541817866
 20
8.5602152384
 10
14.4915288334
 20
8.5624296169
 10
14.5310244181
 20
8.5558874722
 10
14.5722508629
 20
8.5408440606
  0
LINE
  5
4D8
100
AcDbEntity
  8
0
100
AcDbLine
 62
7
  6
CONTINUOUS
 10
14.4273118408
 20
8.5447019606
 11
14.4004839468
 21
8.5358159426
  0
LWPOLYLINE
  5
4D9
100
AcDbEntity
  8
0
100
AcDbPolyline
 62
7
  6
CONTINUOUS
 90
5
 70
0
 10
14.3923397272
 20
8.5327908495
 10
14.4261728585
 20
8.543936829
 10
14.4636841696
 20
8.54607375
 10
14.5033749789
 20
8.5393870589
 10
14.5447199933
 20
8.5241666668
  0
LINE
  5
4DA
100
AcDbEntity
  8
0
100
AcDbLine
 62
7
  6
CONTINUOUS
 10
14.3993029127
 20
8.5284235512
 11
14.3722186345
 21
8.5195009124
  0
LINE
  5
4DB
100
AcDbEntity
  8
0
100
AcDbLine
 62
7
  6
CONTINUOUS
 10
14.5122751538
 20
8.593712013
 11
14.4837508451
 21
8.5843364326
  0
LWPOLYLINE
  5
4DC
100
AcDbEntity
  8
0
100
AcDbPolyline
 62
7
  6
CONTINUOUS
 90
5
 70
0
 10
14.336090604
 20
8.5002881348
 10
14.3694379775
 20
8.5112462827
 10
14.4065417033
 20
8.5134480921
 10
14.4460133413
 20
8.5069405105
 10
14.4876523107
 20
8.4917378733
  0
LINE
  5
4DD
100
AcDbEntity
  8
0
100
AcDbLine
 62
7
  6
CONTINUOUS
 10
14.3425680317
 20
8.4957330048
 11
14.3155828269
 21
8.4868655039
  0
LWPOLYLINE
  5
4DE
100
AcDbEntity
  8
0
100
AcDbPolyline
 62
7
  6
CONTINUOUS
 90
5
 70
0
 10
14.3644458912
 20
8.5166526957
 10
14.3982441906
 20
8.5276725486
 10
14.4356877726
 20
8.5297262886
 10
14.4753218122
 20
8.522994701
 10
14.5168895695
 20
8.5076262791
  0
LINE
  5
4DF
100
AcDbEntity
  8
0
100
AcDbLine
 62
7
  6
CONTINUOUS
 10
14.3713742447
 20
8.5121592708
 11
14.3439365886
 21
8.50321329
  0
LWPOLYLINE
  5
4E0
100
AcDbEntity
  8
0
100
AcDbPolyline
 62
7
  6
CONTINUOUS
 90
5
 70
0
 10
14.477967458
 20
8.5821590884
 10
14.5110575528
 20
8.5929321048
 10
14.5479426236
 20
8.5950980597
 10
14.5874573151
 20
8.5885831549
 10
14.6292045346
 20
8.573326073
  0
LINE
  5
4E1
100
AcDbEntity
  8
0
100
AcDbLine
 62
7
  6
CONTINUOUS
 10
14.484187607
 20
8.5774188269
 11
14.4570735018
 21
8.5685913908
  0
LWPOLYLINE
  5
4E2
100
AcDbEntity
  8
0
100
AcDbPolyline
 62
7
  6
CONTINUOUS
 90
5
 70
0
 10
14.3083051366
 20
8.4842011212
 10
14.3414338673
 20
8.4949685369
 10
14.3782702079
 20
8.4971175998
 10
14.4177794409
 20
8.4905973445
 10
14.45953058
 20
8.4753331822
  0
LWPOLYLINE
  5
4E3
100
AcDbEntity
  8
0
100
AcDbPolyline
 62
7
  6
CONTINUOUS
 90
5
 70
0
 10
14.4496795544
 20
8.5658275052
 10
14.4831573111
 20
8.5766729264
 10
14.5200188596
 20
8.5787472959
 10
14.5594407626
 20
8.5721818606
 10
14.601143728
 20
8.5568931149
  0
LINE
  5
4E4
100
AcDbEntity
  8
0
100
AcDbLine
 62
7
  6
CONTINUOUS
 10
14.4562873653
 20
8.5611596485
 11
14.4287949779
 21
8.5522532417
  0
LWPOLYLINE
  5
4E5
100
AcDbEntity
  8
0
100
AcDbPolyline
 62
7
  6
CONTINUOUS
 90
17
 70
0
 10
14.0376847236
 20
8.1630055722
 10
14.0404318583
 20
8.1209678465
 10
14.0484571197
 20
8.0779761136
 10
14.0613192522
 20
8.0350886469
 10
14.078509465
 20
7.9931944381
 10
14.0996338406
 20
7.9528420484
 10
14.1242782558
 20
7.914688909
 10
14.1520992783
 20
7.879308384
 10
14.1827339798
 20
7.8473476153
 10
14.2156731651
 20
7.8195939463
 10
14.2504244553
 20
7.7967589542
 10
14.2861534401
 20
7.7796532773
 10
14.3213221063
 20
7.7689708593
 10
14.355044635
 20
7.7646098461
 10
14.3869536267
 20
7.7661999236
 10
14.4163606572
 20
7.7732766241
 10
14.4433844534
 20
7.7855751395
  0
LWPOLYLINE
  5
4E6
100
AcDbEntity
  8
0
100
AcDbPolyline
 62
9
  6
CONTINUOUS
 90
23
 70
0
 10
14.0584411445
 20
8.1340748842
 10
14.0602262893
 20
8.1042229453
 10
14.0655448237
 20
8.072920328
 10
14.0742898142
 20
8.0407971369
 10
14.0862820203
 20
8.0085133542
 10
14.1012778318
 20
7.9767240999
 10
14.1189727447
 20
7.9460754259
 10
14.1390056466
 20
7.9171930701
 10
14.1609685076
 20
7.8906650712
 10
14.1844147247
 20
7.8670307825
 10
14.2088669947
 20
7.8467714185
 10
14.2338273071
 20
7.8302996109
 10
14.2587875972
 20
7.8179506196
 10
14.2832398034
 20
7.80997582
 10
14.3066859283
 20
7.8065376064
 10
14.3286486729
 20
7.8077058865
 10
14.3486814387
 20
7.8134569815
 10
14.366376211
 20
7.8236739948
 10
14.3813718734
 20
7.8381481563
 10
14.3933639171
 20
7.8565849916
 10
14.4021087416
 20
7.8786107074
 10
14.4074271287
 20
7.9037722344
 10
14.4092121106
 20
7.931561754
  0
LWPOLYLINE
  5
4E7
100
AcDbEntity
  8
0
100
AcDbPolyline
 62
9
  6
CONTINUOUS
 90
23
 70
0
 10
14.4092121106
 20
7.931561754
 10
14.4074269658
 20
7.9614136929
 10
14.4021084314
 20
7.9927163102
 10
14.3933634409
 20
8.0248395012
 10
14.3813712347
 20
8.0571232839
 10
14.3663754233
 20
8.0889125382
 10
14.3486805104
 20
8.1195612122
 10
14.3286476085
 20
8.1484435681
 10
14.3066847475
 20
8.174971567
 10
14.2832385304
 20
8.1986058556
 10
14.2587862604
 20
8.2188652197
 10
14.233825948
 20
8.2353370273
 10
14.2088656579
 20
8.2476860185
 10
14.1844134517
 20
8.2556608182
 10
14.1609673267
 20
8.2590990318
 10
14.1390045822
 20
8.2579307516
 10
14.1189718164
 20
8.2521796567
 10
14.1012770441
 20
8.2419626434
 10
14.0862813817
 20
8.2274884818
 10
14.074289338
 20
8.2090516465
 10
14.0655445135
 20
8.1870259307
 10
14.0602261263
 20
8.1618644038
 10
14.0584411445
 20
8.1340748842
  0
LINE
  5
4E8
100
AcDbEntity
  8
0
100
AcDbLine
 62
7
  6
CONTINUOUS
 10
14.3232971289
 20
8.5238097283
 11
14.32650396
 21
8.4947831003
  0
LWPOLYLINE
  5
4E9
100
AcDbEntity
  8
0
100
AcDbPolyline
 62
9
  6
CONTINUOUS
 90
18
 70
0
 10
14.5094319693
 20
7.9315619949
 10
14.5071362979
 20
7.9699470301
 10
14.5002978741
 20
8.0101929226
 10
14.4890540701
 20
8.0514937463
 10
14.4736354185
 20
8.0930009578
 10
14.4543551045
 20
8.1338722943
 10
14.4316046341
 20
8.1732771506
 10
14.405848282
 20
8.2104110396
 10
14.3776106426
 20
8.2445179453
 10
14.3474659001
 20
8.2749044457
 10
14.3160276985
 20
8.3009518724
 10
14.2839362988
 20
8.3221297278
 10
14.2518449008
 20
8.3380069735
 10
14.2204067016
 20
8.3482604165
 10
14.1902619613
 20
8.3526812611
 10
14.1620243311
 20
8.3511796167
 10
14.1362679935
 20
8.343785913
 10
14.1244882432
 20
8.3379228748
  0
LWPOLYLINE
  5
4EA
100
AcDbEntity
  8
02___PRT_ALL_AXES
100
AcDbPolyline
 62
7
  6
CONTINUOUS
 90
7
 70
0
 10
14.5992813663
 20
7.8755817269
 10
14.6187309614
 20
7.889961569
 10
14.6351181935
 20
7.9088199863
 10
14.6481640462
 20
7.9318350993
 10
14.6576453013
 20
7.9586131128
 10
14.663399732
 20
7.9886958477
 10
14.6653288783
 20
8.02156858
  0
LWPOLYLINE
  5
4EB
100
AcDbEntity
  8
0
100
AcDbPolyline
 62
9
  6
CONTINUOUS
 90
7
 70
0
 10
14.4433844959
 20
7.7855751641
 10
14.4543551685
 20
7.7928475905
 10
14.4736354789
 20
7.811456467
 10
14.489054112
 20
7.8351601639
 10
14.5002979058
 20
7.8634780794
 10
14.5071363135
 20
7.8958278287
 10
14.5094319693
 20
7.9315619949
  0
LINE
  5
4EC
100
AcDbEntity
  8
0
100
AcDbLine
 62
7
  6
CONTINUOUS
 10
14.6601727848
 20
7.5673700125
 11
14.6865252117
 21
7.5333487866
  0
LWPOLYLINE
  5
4ED
100
AcDbEntity
  8
0
100
AcDbPolyline
 62
7
  6
CONTINUOUS
 90
5
 70
0
 10
14.6601727848
 20
7.5673700125
 10
14.6531914913
 20
7.5772100694
 10
14.6415341551
 20
7.6001309109
 10
14.6356454625
 20
7.6237762685
 10
14.6349064896
 20
7.6357212251
  0
LINE
  5
4EE
100
AcDbEntity
  8
0
100
AcDbLine
 62
7
  6
CONTINUOUS
 10
14.629912889
 20
7.6765463478
 11
14.6310291607
 21
7.6617016313
  0
LINE
  5
4EF
100
AcDbEntity
  8
0
100
AcDbLine
 62
7
  6
CONTINUOUS
 10
14.6299064896
 20
7.676546346
 11
14.6299064896
 21
7.8539033665
  0
LINE
  5
4F0
100
AcDbEntity
  8
0
100
AcDbLine
 62
7
  6
CONTINUOUS
 10
14.6349064896
 20
7.6490065215
 11
14.6349064896
 21
7.6357212251
  0
LWPOLYLINE
  5
4F1
100
AcDbEntity
  8
0
100
AcDbPolyline
 62
7
  6
CONTINUOUS
 90
8
 70
0
 10
14.6828190614
 20
7.9821625297
 10
14.683215556
 20
8.0252553308
 10
14.6773183169
 20
8.0741629396
 10
14.6652727569
 20
8.1243041364
 10
14.6473782351
 20
8.1749366811
 10
14.6243113249
 20
8.2243665215
 10
14.5967502042
 20
8.2714171999
 10
14.5650814911
 20
8.3154510806
  0
LWPOLYLINE
  5
4F2
100
AcDbEntity
  8
0
100
AcDbPolyline
 62
7
  6
CONTINUOUS
 90
4
 70
0
 10
14.7099490074
 20
8.0186692015
 10
14.7072940818
 20
7.9735993704
 10
14.6978732976
 20
7.9335029162
 10
14.682111624
 20
7.8999665629
  0
LWPOLYLINE
  5
4F3
100
AcDbEntity
  8
0
100
AcDbPolyline
 62
7
  6
CONTINUOUS
 90
4
 70
0
 10
14.6876474189
 20
8.0064109845
 10
14.6833052141
 20
7.9636851525
 10
14.6723533818
 20
7.9264106276
 10
14.6690216728
 20
7.920463152
  0
LWPOLYLINE
  5
4F4
100
AcDbEntity
  8
0
100
AcDbPolyline
 62
7
  6
CONTINUOUS
 90
4
 70
0
 10
14.6473099531
 20
7.8788896157
 10
14.664245039
 20
7.9069597908
 10
14.6760189448
 20
7.9402441723
 10
14.6828190614
 20
7.9821625297
  0
LWPOLYLINE
  5
4F5
100
AcDbEntity
  8
0
100
AcDbPolyline
 62
7
  6
CONTINUOUS
 90
5
 70
0
 10
14.7795219814
 20
7.9441435253
 10
14.7992153852
 20
7.9703459563
 10
14.8136496041
 20
8.0033347983
 10
14.8221547529
 20
8.0419994586
 10
14.8236225247
 20
8.0559381438
  0
LINE
  5
4F6
100
AcDbEntity
  8
0
100
AcDbLine
 62
7
  6
CONTINUOUS
 10
14.826085331
 20
7.9858592342
 11
14.8063919272
 21
7.9596568032
  0
LWPOLYLINE
  5
4F7
100
AcDbEntity
  8
0
100
AcDbPolyline
 62
7
  6
CONTINUOUS
 90
5
 70
0
 10
14.831815621
 20
7.9726317125
 10
14.8534451959
 20
7.9991057332
 10
14.8691897911
 20
8.0328764806
 10
14.8784480993
 20
8.0726420336
 10
14.8801908317
 20
8.0885976761
  0
LWPOLYLINE
  5
4F8
100
AcDbEntity
  8
0
100
AcDbPolyline
 62
7
  6
CONTINUOUS
 90
5
 70
0
 10
14.8033728612
 20
7.9561550395
 10
14.8250093728
 20
7.9825323802
 10
14.8407340963
 20
8.0160435754
 10
14.8501312262
 20
8.0560800319
 10
14.8519066782
 20
8.07226791
  0
LINE
  5
4F9
100
AcDbEntity
  8
0
100
AcDbLine
 62
7
  6
CONTINUOUS
 10
14.8518793186
 20
7.998045658
 11
14.830242807
 21
7.9716683173
  0
LINE
  5
4FA
100
AcDbEntity
  8
0
100
AcDbLine
 62
7
  6
CONTINUOUS
 10
14.682111624
 20
7.8999665629
 11
14.6604778465
 21
7.8736342504
  0
LWPOLYLINE
  5
4FB
100
AcDbEntity
  8
0
100
AcDbPolyline
 62
7
  6
CONTINUOUS
 90
5
 70
0
 10
14.6900107563
 20
7.8906280449
 10
14.7116886915
 20
7.9169191559
 10
14.7276149834
 20
7.9507756294
 10
14.7370266304
 20
7.9909882074
 10
14.7387700642
 20
8.0069488454
  0
LINE
  5
4FC
100
AcDbEntity
  8
0
100
AcDbLine
 62
7
  6
CONTINUOUS
 10
14.7385586373
 20
7.9324324338
 11
14.7168807021
 21
7.9061413227
  0
LWPOLYLINE
  5
4FD
100
AcDbEntity
  8
0
100
AcDbPolyline
 62
7
  6
CONTINUOUS
 90
5
 70
0
 10
14.6612136153
 20
7.8738292682
 10
14.6832240047
 20
7.9003024183
 10
14.6992409076
 20
7.9341837193
 10
14.708680886
 20
7.9742226339
 10
14.7104859107
 20
7.9906190792
  0
LINE
  5
4FE
100
AcDbEntity
  8
0
100
AcDbLine
 62
7
  6
CONTINUOUS
 10
14.7100939505
 20
7.9158156961
 11
14.6880835611
 21
7.8893425461
  0
LWPOLYLINE
  5
4FF
100
AcDbEntity
  8
0
100
AcDbPolyline
 62
7
  6
CONTINUOUS
 90
5
 70
0
 10
14.7460693344
 20
7.9228215285
 10
14.7679104138
 20
7.9490291005
 10
14.7840103274
 20
7.982932051
 10
14.7935512234
 20
8.0233378624
 10
14.7953383712
 20
8.0396083777
  0
LINE
  5
500
100
AcDbEntity
  8
0
100
AcDbLine
 62
7
  6
CONTINUOUS
 10
14.7947803596
 20
7.9645423784
 11
14.7729392802
 21
7.9383348063
  0
LWPOLYLINE
  5
501
100
AcDbEntity
  8
0
100
AcDbPolyline
 62
7
  6
CONTINUOUS
 90
5
 70
0
 10
14.7177395533
 20
7.9064503121
 10
14.7396038393
 20
7.932663972
 10
14.7557160891
 20
7.9665730932
 10
14.7652646861
 20
8.0069912778
 10
14.7670542177
 20
8.0232786115
  0
LINE
  5
502
100
AcDbEntity
  8
0
100
AcDbLine
 62
7
  6
CONTINUOUS
 10
14.7664737851
 20
7.9481772499
 11
14.7446094991
 21
7.9219635899
  0
LINE
  5
503
100
AcDbEntity
  8
0
100
AcDbLine
 62
7
  6
CONTINUOUS
 10
14.6257102413
 20
7.8569191104
 11
14.6473099531
 21
7.8788896157
  0
LINE
  5
504
100
AcDbEntity
  8
0
100
AcDbLine
 62
7
  6
CONTINUOUS
 10
14.7547277127
 20
7.9247955257
 11
14.7795219814
 21
7.9441435253
  0
LINE
  5
505
100
AcDbEntity
  8
0
100
AcDbLine
 62
7
  6
CONTINUOUS
 10
14.8063919272
 20
7.9596568032
 11
14.7815976585
 21
7.9403088036
  0
LINE
  5
506
100
AcDbEntity
  8
0
100
AcDbLine
 62
7
  6
CONTINUOUS
 10
14.82382856
 20
7.9667234215
 11
14.831815621
 21
7.9726317125
  0
LINE
  5
507
100
AcDbEntity
  8
0
100
AcDbLine
 62
7
  6
CONTINUOUS
 10
14.7960844591
 20
7.9507740488
 11
14.8033728612
 21
7.9561550395
  0
LINE
  5
508
100
AcDbEntity
  8
0
100
AcDbLine
 62
7
  6
CONTINUOUS
 10
14.830242807
 20
7.9716683173
 11
14.8098984454
 21
7.9566481772
  0
LINE
  5
509
100
AcDbEntity
  8
0
100
AcDbLine
 62
7
  6
CONTINUOUS
 10
14.6604778465
 20
7.8736342504
 11
14.640193937
 21
7.8586698185
  0
LINE
  5
50A
100
AcDbEntity
  8
0
100
AcDbLine
 62
7
  6
CONTINUOUS
 10
14.6829724352
 20
7.8854464109
 11
14.6900107563
 21
7.8906280449
  0
LINE
  5
50B
100
AcDbEntity
  8
0
100
AcDbLine
 62
7
  6
CONTINUOUS
 10
14.7168807021
 20
7.9061413227
 11
14.6967578274
 21
7.8913267995
  0
LINE
  5
50C
100
AcDbEntity
  8
0
100
AcDbLine
 62
7
  6
CONTINUOUS
 10
14.6546026929
 20
7.8689928263
 11
14.6612136153
 21
7.8738292682
  0
LINE
  5
50D
100
AcDbEntity
  8
0
100
AcDbLine
 62
7
  6
CONTINUOUS
 10
14.6880835611
 20
7.8893425461
 11
14.6684785982
 21
7.874999878
  0
LINE
  5
50E
100
AcDbEntity
  8
0
100
AcDbLine
 62
7
  6
CONTINUOUS
 10
14.7395641844
 20
7.9180635571
 11
14.7460693344
 21
7.9228215285
  0
LINE
  5
50F
100
AcDbEntity
  8
0
100
AcDbLine
 62
7
  6
CONTINUOUS
 10
14.7729392802
 20
7.9383348063
 11
14.7533059646
 21
7.9239746833
  0
LINE
  5
510
100
AcDbEntity
  8
0
100
AcDbLine
 62
7
  6
CONTINUOUS
 10
14.7112438085
 20
7.9017019084
 11
14.7177395533
 21
7.9064503121
  0
LINE
  5
511
100
AcDbEntity
  8
0
100
AcDbLine
 62
7
  6
CONTINUOUS
 10
14.7446094991
 20
7.9219635899
 11
14.7250216158
 21
7.9076448044
  0
LINE
  5
512
100
AcDbEntity
  8
0
100
AcDbLine
 62
7
  6
CONTINUOUS
 10
14.8381560931
 20
7.9729626354
 11
14.8570121308
 21
7.9866218434
  0
LWPOLYLINE
  5
513
100
AcDbEntity
  8
0
100
AcDbPolyline
 62
9
  6
CONTINUOUS
 90
20
 70
0
 10
14.882254299
 20
8.016360797
 10
14.8853134531
 20
8.0183131218
 10
14.9079187702
 20
8.0391242078
 10
14.9266670487
 20
8.0681926018
 10
14.9396201884
 20
8.104096205
 10
14.946140173
 20
8.1449952119
 10
14.946276544
 20
8.1899669651
 10
14.9400328543
 20
8.2382595877
 10
14.9273491261
 20
8.2890620873
 10
14.9088016344
 20
8.3398976009
 10
14.886270575
 20
8.3871051253
 10
14.8618802373
 20
8.4285843498
 10
14.8374346616
 20
8.463583231
 10
14.8141522012
 20
8.492330176
 10
14.7925301473
 20
8.5157332529
 10
14.7727014435
 20
8.5347537205
 10
14.7545728557
 20
8.5502731866
 10
14.7379000507
 20
8.5630582863
 10
14.722343373
 20
8.5737468647
 10
14.7074720597
 20
8.5828661983
  0
LINE
  5
514
100
AcDbEntity
  8
0
100
AcDbLine
 62
7
  6
CONTINUOUS
 10
14.6006775128
 20
7.8418033387
 11
14.6257102413
 21
7.8569191104
  0
LINE
  5
515
100
AcDbEntity
  8
02___PRT_ALL_AXES
100
AcDbLine
 62
7
  6
CONTINUOUS
 10
14.5992813623
 20
7.8755817246
 11
14.4433844534
 21
7.7855751395
  0
LWPOLYLINE
  5
516
100
AcDbEntity
  8
0
100
AcDbPolyline
 62
7
  6
CONTINUOUS
 90
3
 70
0
 10
14.8098984454
 20
7.9566481772
 10
14.8029183127
 20
7.9529373764
 10
14.7960844591
 20
7.9507740488
  0
LWPOLYLINE
  5
517
100
AcDbEntity
  8
0
100
AcDbPolyline
 62
7
  6
CONTINUOUS
 90
3
 70
0
 10
14.640193937
 20
7.8586698185
 10
14.6331518959
 20
7.8549288354
 10
14.6106279693
 20
7.8478118259
  0
LWPOLYLINE
  5
518
100
AcDbEntity
  8
0
100
AcDbPolyline
 62
7
  6
CONTINUOUS
 90
3
 70
0
 10
14.6967578274
 20
7.8913267995
 10
14.6896846992
 20
7.8875711011
 10
14.6829724352
 20
7.8854464109
  0
LWPOLYLINE
  5
519
100
AcDbEntity
  8
0
100
AcDbPolyline
 62
7
  6
CONTINUOUS
 90
3
 70
0
 10
14.7533059646
 20
7.9239746833
 10
14.7459110493
 20
7.9200651142
 10
14.7395641844
 20
7.9180635571
  0
LWPOLYLINE
  5
51A
100
AcDbEntity
  8
0
100
AcDbPolyline
 62
7
  6
CONTINUOUS
 90
3
 70
0
 10
14.7250216158
 20
7.9076448044
 10
14.717382721
 20
7.9036180278
 10
14.7112438085
 20
7.9017019084
  0
LWPOLYLINE
  5
51B
100
AcDbEntity
  8
0
100
AcDbPolyline
 62
7
  6
CONTINUOUS
 90
3
 70
0
 10
14.6684785982
 20
7.874999878
 10
14.6603305466
 20
7.8707281357
 10
14.6546026929
 20
7.8689928263
  0
LINE
  5
51C
100
AcDbEntity
  8
0
100
AcDbLine
 62
7
  6
CONTINUOUS
 10
14.7815976585
 20
7.9403088036
 11
14.7678853938
 21
7.9350630118
  0
LWPOLYLINE
  5
51D
100
AcDbEntity
  8
0
100
AcDbPolyline
 62
7
  6
CONTINUOUS
 90
3
 70
0
 10
14.82382856
 20
7.9667234215
 10
14.8291901338
 20
7.9683110148
 10
14.8381560931
 20
7.9729626354
  0
LWPOLYLINE
  5
51E
100
AcDbEntity
  8
0
100
AcDbPolyline
 62
7
  6
CONTINUOUS
 90
14
 70
0
 10
14.6310291607
 20
7.6617016313
 10
14.6399586887
 20
7.6324646638
 10
14.6575462115
 20
7.604567096
 10
14.683257341
 20
7.5788565813
 10
14.7163108576
 20
7.5561143206
 10
14.755702447
 20
7.537031326
 10
14.8002352155
 20
7.5221874248
 10
14.8485560577
 20
7.5120336413
 10
14.899196769
 20
7.506878493
 10
14.9506186573
 20
7.5068786166
 10
15.0012592943
 20
7.5120340083
 10
15.04957999
 20
7.5221880241
 10
15.0941125444
 20
7.5370321395
 10
15.1335038585
 20
7.5561153234
  0
LWPOLYLINE
  5
51F
100
AcDbEntity
  8
0
100
AcDbPolyline
 62
7
  6
CONTINUOUS
 90
11
 70
0
 10
14.7396473686
 20
8.0358154559
 10
14.7355092271
 20
8.0847961246
 10
14.724501859
 20
8.1369857763
 10
14.7069617432
 20
8.1902447107
 10
14.683705766
 20
8.2424649402
 10
14.6549718938
 20
8.2932330812
 10
14.6213982118
 20
8.3411730788
 10
14.5843380886
 20
8.3843197735
 10
14.5449529794
 20
8.4215073316
 10
14.5032935953
 20
8.4525914921
 10
14.4641923564
 20
8.4746266662
  0
LWPOLYLINE
  5
520
100
AcDbEntity
  8
0
100
AcDbPolyline
 62
7
  6
CONTINUOUS
 90
11
 70
0
 10
14.7679315221
 20
8.0521452221
 10
14.7638486401
 20
8.1007535624
 10
14.7531016378
 20
8.1521442359
 10
14.7358442301
 20
8.205023621
 10
14.712741076
 20
8.2573003684
 10
14.6840222132
 20
8.3083448833
 10
14.6502947206
 20
8.3567122492
 10
14.6129001477
 20
8.400357535
 10
14.5733498513
 20
8.4377419311
 10
14.5321862203
 20
8.4685244246
 10
14.4924765099
 20
8.4909564324
  0
LWPOLYLINE
  5
521
100
AcDbEntity
  8
0
100
AcDbPolyline
 62
7
  6
CONTINUOUS
 90
10
 70
0
 10
14.7099490074
 20
8.0186692015
 10
14.7059016022
 20
8.0670372733
 10
14.6953132605
 20
8.1179420505
 10
14.6784451906
 20
8.1700219758
 10
14.6557257597
 20
8.2218848646
 10
14.6277369311
 20
8.2721479536
 10
14.5951990635
 20
8.3194712953
 10
14.5589549018
 20
8.3625892802
 10
14.5199457957
 20
8.4003479767
 10
14.4791830391
 20
8.4317383942
  0
LINE
  5
522
100
AcDbEntity
  8
0
100
AcDbLine
 62
7
  6
CONTINUOUS
 10
14.7104859107
 20
7.9906190792
 11
14.7113632151
 21
8.0194856898
  0
LINE
  5
523
100
AcDbEntity
  8
0
100
AcDbLine
 62
7
  6
CONTINUOUS
 10
14.7387700642
 20
8.0069488454
 11
14.7396473686
 21
8.0358154559
  0
LINE
  5
524
100
AcDbEntity
  8
0
100
AcDbLine
 62
7
  6
CONTINUOUS
 10
14.7670542177
 20
8.0232786115
 11
14.7679315221
 21
8.0521452221
  0
LINE
  5
525
100
AcDbEntity
  8
0
100
AcDbLine
 62
7
  6
CONTINUOUS
 10
14.7953383712
 20
8.0396083777
 11
14.7962156756
 21
8.0684749882
  0
LWPOLYLINE
  5
526
100
AcDbEntity
  8
0
100
AcDbPolyline
 62
7
  6
CONTINUOUS
 90
4
 70
0
 10
14.7665173144
 20
8.0513287338
 10
14.7638965762
 20
8.0065014853
 10
14.7544849292
 20
7.9662889073
 10
14.7385586373
 20
7.9324324338
  0
LWPOLYLINE
  5
527
100
AcDbEntity
  8
0
100
AcDbPolyline
 62
7
  6
CONTINUOUS
 90
4
 70
0
 10
14.7948014679
 20
8.0676584999
 10
14.7921346319
 20
8.0225045556
 10
14.7825860349
 20
7.9820863711
 10
14.7664737851
 20
7.9481772499
  0
LWPOLYLINE
  5
528
100
AcDbEntity
  8
0
100
AcDbPolyline
 62
7
  6
CONTINUOUS
 90
4
 70
0
 10
14.7382331609
 20
8.0349989676
 10
14.7355508318
 20
7.9897359118
 10
14.7261108534
 20
7.9496969971
 10
14.7100939505
 20
7.9158156961
  0
LINE
  5
529
100
AcDbEntity
  8
0
100
AcDbLine
 62
7
  6
CONTINUOUS
 10
14.800816766
 20
8.0830615566
 11
14.7981326475
 21
8.0390599892
  0
LWPOLYLINE
  5
52A
100
AcDbEntity
  8
0
100
AcDbPolyline
 62
7
  6
CONTINUOUS
 90
3
 70
0
 10
14.7724664971
 20
8.0540075722
 10
14.7678967736
 20
8.0113327387
 10
14.7604774118
 20
7.9867272601
  0
LWPOLYLINE
  5
52B
100
AcDbEntity
  8
0
100
AcDbPolyline
 62
7
  6
CONTINUOUS
 90
3
 70
0
 10
14.7435872118
 20
8.0252884477
 10
14.7371436563
 20
7.9840356043
 10
14.7323304265
 20
7.9709230195
  0
LWPOLYLINE
  5
52C
100
AcDbEntity
  8
0
100
AcDbPolyline
 62
7
  6
CONTINUOUS
 90
3
 70
0
 10
14.8278464982
 20
8.0671919036
 10
14.8203131851
 20
8.0268143966
 10
14.8170661255
 20
8.0188664065
  0
LWPOLYLINE
  5
52D
100
AcDbEntity
  8
0
100
AcDbPolyline
 62
7
  6
CONTINUOUS
 90
3
 70
0
 10
14.7981326475
 20
8.0390599892
 10
14.7887526379
 20
8.0002489678
 10
14.7874811446
 20
7.9976310045
  0
LINE
  5
52E
100
AcDbEntity
  8
0
100
AcDbLine
 62
7
  6
CONTINUOUS
 10
14.8977377985
 20
8.0499893689
 11
14.8824455104
 21
8.0166006177
  0
LWPOLYLINE
  5
52F
100
AcDbEntity
  8
0
100
AcDbPolyline
 62
7
  6
CONTINUOUS
 90
3
 70
0
 10
14.8793549523
 20
8.0130950508
 10
14.8955753713
 20
8.0469808947
 10
14.9051994367
 20
8.0873207572
  0
LWPOLYLINE
  5
530
100
AcDbEntity
  8
0
100
AcDbPolyline
 62
7
  6
CONTINUOUS
 90
3
 70
0
 10
14.8824455104
 20
8.0166006177
 10
14.8613378845
 20
7.9901270611
 10
14.8395702539
 20
7.9737790966
  0
LINE
  5
531
100
AcDbEntity
  8
0
100
AcDbLine
 62
7
  6
CONTINUOUS
 10
14.8570121308
 20
7.9866218434
 11
14.8793549523
 21
8.0130950508
  0
LWPOLYLINE
  5
532
100
AcDbEntity
  8
0
100
AcDbPolyline
 62
9
  6
CONTINUOUS
 90
8
 70
0
 10
14.7163108576
 20
7.8769997705
 10
14.7483892086
 20
7.8388100133
 10
14.7824156284
 20
7.8092358952
 10
14.8166996695
 20
7.7883015554
 10
14.8501553331
 20
7.7752580102
 10
14.8823266499
 20
7.7691776671
 10
14.913243091
 20
7.7693966863
 10
14.9431717751
 20
7.7758116312
  0
LWPOLYLINE
  5
533
100
AcDbEntity
  8
0
100
AcDbPolyline
 62
7
  6
CONTINUOUS
 90
11
 70
0
 10
14.8244998291
 20
8.0848047544
 10
14.8203603324
 20
8.1337945249
 10
14.8093777022
 20
8.1858886879
 10
14.7919243567
 20
8.2389495166
 10
14.768771885
 20
8.2910302383
 10
14.7399740611
 20
8.3419848912
 10
14.7062028839
 20
8.3902239589
 10
14.668800361
 20
8.4337183118
 10
14.6292067193
 20
8.4710010878
 10
14.5876252847
 20
8.5019191075
 10
14.5490448169
 20
8.5236159647
  0
LWPOLYLINE
  5
534
100
AcDbEntity
  8
0
100
AcDbPolyline
 62
7
  6
CONTINUOUS
 90
11
 70
0
 10
14.8527839825
 20
8.1011345205
 10
14.8486366566
 20
8.1501768486
 10
14.8376036269
 20
8.2024334647
 10
14.8200235796
 20
8.2557566434
 10
14.7967321957
 20
8.3080023391
 10
14.7682937153
 20
8.3582583052
 10
14.7350722113
 20
8.4057984885
 10
14.6980281156
 20
8.4490569129
 10
14.6585280454
 20
8.4864558702
 10
14.6168363667
 20
8.517645853
 10
14.5773289704
 20
8.5399457309
  0
LWPOLYLINE
  5
535
100
AcDbEntity
  8
0
100
AcDbPolyline
 62
7
  6
CONTINUOUS
 90
11
 70
0
 10
14.7962156756
 20
8.0684749882
 10
14.792084074
 20
8.1174117129
 10
14.7812377273
 20
8.1690248928
 10
14.7640622785
 20
8.2215254002
 10
14.7409441871
 20
8.2737918565
 10
14.7121281804
 20
8.324958477
 10
14.6782865785
 20
8.3734197372
 10
14.6407718013
 20
8.4171205701
 10
14.6010732621
 20
8.4545445148
 10
14.5596657813
 20
8.4853785766
 10
14.5207606634
 20
8.5072861985
  0
LINE
  5
536
100
AcDbEntity
  8
AXIS_COSMETIC_THREADS
100
AcDbLine
 62
7
  6
CONTINUOUS
 10
14.8084064896
 20
7.4603972248
 11
14.8084064896
 21
6.5498373019
  0
LINE
  5
537
100
AcDbEntity
  8
0
100
AcDbLine
 62
7
  6
CONTINUOUS
 10
14.8236225247
 20
8.0559381438
 11
14.8244998291
 21
8.0848047544
  0
LINE
  5
538
100
AcDbEntity
  8
0
100
AcDbLine
 62
7
  6
CONTINUOUS
 10
14.8519066782
 20
8.07226791
 11
14.8527839825
 21
8.1011345205
  0
LINE
  5
539
100
AcDbEntity
  8
0
100
AcDbLine
 62
7
  6
CONTINUOUS
 10
14.8801908317
 20
8.0885976761
 11
14.881068136
 21
8.1174642867
  0
LINE
  5
53A
100
AcDbEntity
  8
0
100
AcDbLine
 62
7
  6
CONTINUOUS
 10
14.9093522895
 20
8.1337940529
 11
14.9084749852
 21
8.1049274423
  0
LWPOLYLINE
  5
53B
100
AcDbEntity
  8
0
100
AcDbPolyline
 62
7
  6
CONTINUOUS
 90
4
 70
0
 10
14.8513697749
 20
8.1003180322
 10
14.8490246987
 20
8.0575127365
 10
14.84051955
 20
8.0188480762
 10
14.826085331
 20
7.9858592342
  0
LWPOLYLINE
  5
53C
100
AcDbEntity
  8
0
100
AcDbPolyline
 62
7
  6
CONTINUOUS
 90
4
 70
0
 10
14.8796539284
 20
8.1166477984
 10
14.877001172
 20
8.0715933097
 10
14.8676040421
 20
8.0315568533
 10
14.8518793186
 20
7.998045658
  0
LWPOLYLINE
  5
53D
100
AcDbEntity
  8
0
100
AcDbPolyline
 62
7
  6
CONTINUOUS
 90
4
 70
0
 10
14.8230856214
 20
8.0839882661
 10
14.8204211692
 20
8.0388511403
 10
14.8108802732
 20
7.9984453289
 10
14.7947803596
 20
7.9645423784
  0
LINE
  5
53E
100
AcDbEntity
  8
0
100
AcDbLine
 62
7
  6
CONTINUOUS
 10
14.9051994367
 20
8.0873207572
 11
14.9079380818
 21
8.1329775645
  0
LWPOLYLINE
  5
53F
100
AcDbEntity
  8
0
100
AcDbPolyline
 62
7
  6
CONTINUOUS
 90
3
 70
0
 10
14.8857020954
 20
8.1255982455
 10
14.8820687336
 20
8.0822662733
 10
14.8722948124
 20
8.0462129228
  0
LWPOLYLINE
  5
540
100
AcDbEntity
  8
0
100
AcDbPolyline
 62
7
  6
CONTINUOUS
 90
3
 70
0
 10
14.9084749852
 20
8.1049274423
 10
14.9067925153
 20
8.0894036788
 10
14.8977377985
 20
8.0499893689
  0
LWPOLYLINE
  5
541
100
AcDbEntity
  8
0
100
AcDbPolyline
 62
7
  6
CONTINUOUS
 90
3
 70
0
 10
14.8570592588
 20
8.0961842529
 10
14.851466839
 20
8.0542873147
 10
14.8456584079
 20
8.0370235971
  0
LWPOLYLINE
  5
542
100
AcDbEntity
  8
0
100
AcDbPolyline
 62
7
  6
CONTINUOUS
 90
3
 70
0
 10
14.9121058392
 20
8.1106989823
 10
14.9037235322
 20
8.0710434344
 10
14.9013361512
 20
8.0656526514
  0
LWPOLYLINE
  5
543
100
AcDbEntity
  8
AXIS_COSMETIC_THREADS
100
AcDbPolyline
 62
7
  6
CONTINUOUS
 90
28
 70
0
 10
15.3335448682
 20
7.9853107354
 10
15.3401004126
 20
7.9892669179
 10
15.3647719246
 20
8.0076306113
 10
15.3868128082
 20
8.0299354672
 10
15.4060456033
 20
8.0560018999
 10
15.4223154586
 20
8.0856200378
 10
15.4354913789
 20
8.1185514132
 10
15.4454672793
 20
8.154530882
 10
15.4521628399
 20
8.1932687585
 10
15.4555241518
 20
8.2344531484
 10
15.4555241518
 20
8.2777524589
 10
15.4521628399
 20
8.3228180696
 10
15.4454672793
 20
8.3692871386
 10
15.4354913789
 20
8.4167855244
 10
15.4223154586
 20
8.4649307978
 10
15.4060456033
 20
8.5133353215
 10
15.3868128082
 20
8.5616093706
 10
15.3647719246
 20
8.6093642709
 10
15.3401004126
 20
8.656215528
 10
15.3129969127
 20
8.7017859232
 10
15.2836796465
 20
8.7457085504
 10
15.2523846592
 20
8.7876297705
 10
15.2193639198
 20
8.8272120583
 10
15.1848832917
 20
8.8641367208
 10
15.1492203928
 20
8.898106462
 10
15.1126623598
 20
8.9288477778
 10
15.0755035364
 20
8.956113157
 10
15.0380431036
 20
8.979683075
  0
LINE
  5
544
100
AcDbEntity
  8
AXIS_COSMETIC_THREADS
100
AcDbLine
 62
7
  6
CONTINUOUS
 10
15.3335417806
 20
7.985308369
 11
15.3933093796
 21
8.0198150024
  0
LINE
  5
545
100
AcDbEntity
  8
0
100
AcDbLine
 62
7
  6
CONTINUOUS
 10
15.3234352209
 20
7.97831868
 11
15.0547357627
 21
7.8231859015
  0
LINE
  5
546
100
AcDbEntity
  8
0
100
AcDbLine
 62
7
  6
CONTINUOUS
 10
15.3932886677
 20
8.0198030445
 11
15.3932520764
 21
8.019781926
  0
LWPOLYLINE
  5
547
100
AcDbEntity
  8
0
100
AcDbPolyline
 62
9
  6
CONTINUOUS
 90
3
 70
0
 10
15.1335038585
 20
7.8648502726
 10
15.1047243538
 20
7.848688086
 10
15.0704332743
 20
7.8305109808
  0
LWPOLYLINE
  5
548
100
AcDbEntity
  8
0
100
AcDbPolyline
 62
9
  6
CONTINUOUS
 90
4
 70
0
 10
15.0704332743
 20
7.8305109808
 10
15.0312820755
 20
7.8112828877
 10
14.9883855727
 20
7.7924709124
 10
14.9431717751
 20
7.7758116312
  0
LWPOLYLINE
  5
549
100
AcDbEntity
  8
0
100
AcDbPolyline
 62
9
  6
CONTINUOUS
 90
3
 70
0
 10
14.6697102371
 20
7.8757109556
 10
14.6885466904
 20
7.8733593257
 10
14.7163108576
 20
7.8769997705
  0
LWPOLYLINE
  5
54A
100
AcDbEntity
  8
0
100
AcDbPolyline
 62
7
  6
CONTINUOUS
 90
4
 70
0
 10
14.5258880742
 20
7.8332083428
 10
14.5425749325
 20
7.83107584
 10
14.5729134305
 20
7.8332808753
 10
14.6006775128
 20
7.8418033387
  0
LWPOLYLINE
  5
54B
100
AcDbEntity
  8
0
100
AcDbPolyline
 62
7
  6
CONTINUOUS
 90
5
 70
0
 10
14.8581214799
 20
7.797872585
 10
14.9062158504
 20
7.7909464166
 10
14.9602989374
 20
7.7921858269
 10
15.0099245827
 20
7.8031451043
 10
15.0547357627
 20
7.8231859015
  0
LINE
  5
54C
100
AcDbEntity
  8
0
100
AcDbLine
 62
7
  6
CONTINUOUS
 10
14.8580637444
 20
7.7978851173
 11
14.8581166617
 21
7.7978736307
  0
LINE
  5
54D
100
AcDbEntity
  8
0
100
AcDbLine
 62
9
  6
CONTINUOUS
 10
14.6864659947
 20
7.8865522571
 11
14.7163108576
 21
7.8769997705
  0
LWPOLYLINE
  5
54E
100
AcDbEntity
  8
0
100
AcDbPolyline
 62
9
  6
CONTINUOUS
 90
13
 70
0
 10
14.7163108576
 20
7.8769997705
 10
14.7654125105
 20
7.8523677344
 10
14.8136740204
 20
7.8355895092
 10
14.8602696196
 20
7.8269521751
 10
14.9044020445
 20
7.8266035192
 10
14.9453161771
 20
7.8345495072
 10
14.9823119651
 20
7.850654181
 10
15.0147564004
 20
7.8746419852
 10
15.0420943498
 20
7.9061024817
 10
15.0638580533
 20
7.9444973727
 10
15.0796751279
 20
7.9891697111
 10
15.0892749391
 20
8.0393551408
 10
15.0924932314
 20
8.094194975
  0
LINE
  5
54F
100
AcDbEntity
  8
0
100
AcDbLine
 62
9
  6
CONTINUOUS
 10
14.6955626555
 20
7.8906921856
 11
14.7163108576
 21
7.8769997705
  0
LWPOLYLINE
  5
550
100
AcDbEntity
  8
0
100
AcDbPolyline
 62
9
  6
CONTINUOUS
 90
6
 70
0
 10
14.7163108576
 20
7.8769997705
 10
14.7526712211
 20
7.8473211173
 10
14.7876008738
 20
7.8250748973
 10
14.8202807335
 20
7.809538835
 10
14.8504869525
 20
7.7996713421
 10
14.8580637444
 20
7.7978851173
  0
LWPOLYLINE
  5
551
100
AcDbEntity
  8
0
100
AcDbPolyline
 62
7
  6
CONTINUOUS
 90
11
 70
0
 10
14.881068136
 20
8.1174642867
 10
14.8769108236
 20
8.1665735869
 10
14.8658499002
 20
8.2189029002
 10
14.8482264549
 20
8.2722958073
 10
14.8248718166
 20
8.3246181695
 10
14.7961918937
 20
8.3752000225
 10
14.762982013
 20
8.4226116923
 10
14.7262049339
 20
8.4654996812
 10
14.686705241
 20
8.5028761102
 10
14.6449529261
 20
8.5340849345
 10
14.6056131239
 20
8.556275497
  0
LWPOLYLINE
  5
552
100
AcDbEntity
  8
0
100
AcDbPolyline
 62
7
  6
CONTINUOUS
 90
11
 70
0
 10
14.9093522895
 20
8.1337940529
 10
14.9052160039
 20
8.1827622545
 10
14.8942138201
 20
8.2349383697
 10
14.8766817731
 20
8.2881843126
 10
14.8534357016
 20
8.3403939388
 10
14.8247045214
 20
8.3911677436
 10
14.7911164938
 20
8.4391344553
 10
14.754021643
 20
8.4823208028
 10
14.7146331706
 20
8.5195067992
 10
14.6729832045
 20
8.5505800536
 10
14.6338972774
 20
8.5726052632
  0
LWPOLYLINE
  5
553
100
AcDbEntity
  8
0
100
AcDbPolyline
 62
9
  6
CONTINUOUS
 90
3
 70
0
 10
15.1645591209
 20
7.8865920685
 10
15.1521547578
 20
7.8767721638
 10
15.1335038585
 20
7.8648502726
  0
LWPOLYLINE
  5
554
100
AcDbEntity
  8
0
100
AcDbPolyline
 62
9
  6
CONTINUOUS
 90
4
 70
0
 10
15.4172014589
 20
8.0365001693
 10
15.4070759628
 20
8.0286935612
 10
15.3966329718
 20
8.0217869192
 10
15.3932886677
 20
8.0198030445
  0
LWPOLYLINE
  5
555
100
AcDbEntity
  8
0
100
AcDbPolyline
 62
9
  6
CONTINUOUS
 90
8
 70
0
 10
15.0547357627
 20
7.8231859015
 10
15.0815201128
 20
7.8417420753
 10
15.1099824688
 20
7.8701279968
 10
15.1338013202
 20
7.9046711306
 10
15.152661779
 20
7.9449148124
 10
15.1663145077
 20
7.990327016
 10
15.1745790157
 20
8.040307387
 10
15.1773460452
 20
8.094195179
  0
LWPOLYLINE
  5
556
100
AcDbEntity
  8
0
100
AcDbPolyline
 62
7
  6
CONTINUOUS
 90
18
 70
0
 10
15.3932521611
 20
8.0197819815
 10
15.4173564212
 20
8.0360476109
 10
15.4531815845
 20
8.0707061327
 10
15.4839964688
 20
8.1156941218
 10
15.5078290722
 20
8.1697609468
 10
15.5233857029
 20
8.2314339155
 10
15.5299061744
 20
8.2992120411
 10
15.5272114716
 20
8.3711891014
 10
15.5158436451
 20
8.4457673712
 10
15.4963063527
 20
8.5214733561
 10
15.4691275199
 20
8.5970578887
 10
15.4348873153
 20
8.6712475522
 10
15.3942401338
 20
8.7427466513
 10
15.3479124056
 20
8.8102746792
 10
15.2967099944
 20
8.8725711769
 10
15.241493906
 20
8.9284370796
 10
15.1831478176
 20
8.9767574788
 10
15.1246096341
 20
9.015315012
  0
LWPOLYLINE
  5
557
100
AcDbEntity
  8
0
100
AcDbPolyline
 62
9
  6
CONTINUOUS
 90
21
 70
0
 10
14.866805741
 20
7.9969849431
 10
14.8754616308
 20
7.9993135385
 10
14.9007121042
 20
8.0127884561
 10
14.9241526112
 20
8.0343674724
 10
14.9435940384
 20
8.0645099119
 10
14.9570258883
 20
8.1017409394
 10
14.9637862957
 20
8.1441519822
 10
14.9639267759
 20
8.1907862705
 10
14.9574510513
 20
8.2408641873
 10
14.944297135
 20
8.2935439195
 10
14.9250636696
 20
8.3462551444
 10
14.9017011227
 20
8.3952019022
 10
14.8764116879
 20
8.4382084057
 10
14.8510653385
 20
8.4744959391
 10
14.8269248497
 20
8.5043017562
 10
14.8045057063
 20
8.5285672772
 10
14.7839458438
 20
8.5482889224
 10
14.765148635
 20
8.5643806696
 10
14.7478607773
 20
8.5776373229
 10
14.7317301205
 20
8.5887202154
 10
14.7163108576
 20
8.5981755304
  0
LWPOLYLINE
  5
558
100
AcDbEntity
  8
0
100
AcDbPolyline
 62
7
  6
CONTINUOUS
 90
6
 70
0
 10
14.5650814911
 20
8.3154510806
 10
14.5301076299
 20
8.3560526733
 10
14.4924871461
 20
8.3913907949
 10
14.4547120371
 20
8.4194261255
 10
14.4185091756
 20
8.4397637186
 10
14.3838740232
 20
8.4532094106
  0
LWPOLYLINE
  5
559
100
AcDbEntity
  8
0
100
AcDbPolyline
 62
7
  6
CONTINUOUS
 90
8
 70
0
 10
14.5650814911
 20
8.3154510806
 10
14.5979245704
 20
8.2701677742
 10
14.6264292298
 20
8.2216313999
 10
14.649830144
 20
8.1711921651
 10
14.6675027137
 20
8.1202527449
 10
14.6789802871
 20
8.0702296058
 10
14.6839670272
 20
8.0225139498
 10
14.6833043189
 20
7.9881940923
  0
LWPOLYLINE
  5
55A
100
AcDbEntity
  8
0
100
AcDbPolyline
 62
9
  6
CONTINUOUS
 90
3
 70
0
 10
14.9365041775
 20
7.7916405276
 10
14.9390523965
 20
7.7862805578
 10
14.9431717751
 20
7.7758116312
  0
LINE
  5
55B
100
AcDbEntity
  8
AXIS_COSMETIC_THREADS
100
AcDbLine
 62
7
  6
CONTINUOUS
 10
15.0414064896
 20
7.4602142709
 11
15.0414064896
 21
6.5498373019
  0
LINE
  5
55C
100
AcDbEntity
  8
0
100
AcDbLine
 62
9
  6
CONTINUOUS
 10
15.4363681603
 20
8.0547515994
 11
15.4269760742
 21
8.0451916325
  0
LINE
  5
55D
100
AcDbEntity
  8
0
100
AcDbLine
 62
9
  6
CONTINUOUS
 10
15.4269760742
 20
8.0451916325
 11
15.4172014589
 21
8.0365001693
  0
LWPOLYLINE
  5
55E
100
AcDbEntity
  8
0
100
AcDbPolyline
 62
9
  6
CONTINUOUS
 90
18
 70
0
 10
15.1773460452
 20
8.094195179
 10
15.1730692594
 20
8.1655829451
 10
15.1603262912
 20
8.2404503172
 10
15.1393775216
 20
8.317267506
 10
15.1106510036
 20
8.3944648813
 10
15.0747337154
 20
8.4704650443
 10
15.0323595664
 20
8.5437150591
 10
14.9843944014
 20
8.6127181847
 10
14.9318183079
 20
8.6760644581
 10
14.8757055901
 20
8.7324595044
 10
14.8172028173
 20
8.7807509855
 10
14.7575053955
 20
8.819952146
 10
14.6978331413
 20
8.8492619762
 10
14.6394053569
 20
8.8680815786
 10
14.5834159162
 20
8.8760264065
 10
14.5310088694
 20
8.8729341204
 10
14.4832550666
 20
8.8588679062
 10
14.462738413
 20
8.8485615098
  0
LWPOLYLINE
  5
55F
100
AcDbEntity
  8
0
100
AcDbPolyline
 62
9
  6
CONTINUOUS
 90
12
 70
0
 10
15.0924932314
 20
8.094194975
 10
15.0886633755
 20
8.1582316321
 10
15.0772523806
 20
8.2253839672
 10
15.0584927565
 20
8.2942866114
 10
15.0327668702
 20
8.3635360978
 10
15.0005987708
 20
8.4317226692
 10
14.9626435858
 20
8.4974583119
 10
14.9196741779
 20
8.559404994
 10
14.8725654093
 20
8.6163018844
 10
14.8222763331
 20
8.6669909982
 10
14.7698306746
 20
8.7104407475
 10
14.7162959995
 20
8.7457669201
  0
LWPOLYLINE
  5
560
100
AcDbEntity
  8
AXIS
100
AcDbPolyline
 62
7
  6
CONTINUOUS
 90
5
 70
0
 10
15.0414012808
 20
6.5498224159
 10
15.041193971
 20
6.5457765028
 10
15.0361316149
 20
6.5298274112
 10
15.0246052588
 20
6.5150412217
 10
15.0072847726
 20
6.502277254
  0
LWPOLYLINE
  5
561
100
AcDbEntity
  8
0
100
AcDbPolyline
 62
7
  6
CONTINUOUS
 90
4
 70
0
 10
15.1335038585
 20
7.5561153234
 10
15.1665570471
 20
7.578857743
 10
15.1922678058
 20
7.6045683813
 10
15.2098549262
 20
7.6324660337
  0
LWPOLYLINE
  5
562
100
AcDbEntity
  8
0
100
AcDbPolyline
 62
7
  6
CONTINUOUS
 90
4
 70
0
 10
15.1299683099
 20
7.5173314063
 10
15.157064173
 20
7.5353852122
 10
15.1794339752
 20
7.5554815699
 10
15.1896401944
 20
7.5673700125
  0
LWPOLYLINE
  5
563
100
AcDbEntity
  8
0
100
AcDbPolyline
 62
7
  6
CONTINUOUS
 90
15
 70
0
 10
15.1299683099
 20
7.5173314063
 10
15.0986979795
 20
7.5016876757
 10
15.0638897555
 20
7.4887724817
 10
15.026252233
 20
7.4788487404
 10
14.9865516034
 20
7.4721184704
 10
14.945596057
 20
7.4687186807
 10
14.9042193308
 20
7.4687185813
 10
14.8632637354
 20
7.472118174
 10
14.8235630088
 20
7.4788482531
 10
14.7859253432
 20
7.4887718136
 10
14.7511169329
 20
7.5016868403
 10
14.7198463768
 20
7.5173304205
 10
14.6927502533
 20
7.5353840961
 10
14.6703801613
 20
7.5554803463
 10
14.6601727848
 20
7.5673700125
  0
LWPOLYLINE
  5
564
100
AcDbEntity
  8
0
100
AcDbPolyline
 62
7
  6
CONTINUOUS
 90
14
 70
0
 10
15.1095558104
 20
7.4882911809
 10
15.079973106
 20
7.4735930982
 10
15.0469264696
 20
7.4616047241
 10
15.0111541085
 20
7.4525938593
 10
14.9734551181
 20
7.4467617914
 10
14.9346716316
 20
7.4442387993
 10
14.8956700079
 20
7.4450812425
 10
14.857321479
 20
7.4492703021
 10
14.8204826874
 20
7.4567124014
 10
14.7859765511
 20
7.4672412964
 10
14.75457388
 20
7.4806217888
 10
14.726976158
 20
7.4965549806
 10
14.7037998725
 20
7.5146849506
 10
14.6865223685
 20
7.5333526839
  0
LINE
  5
565
100
AcDbEntity
  8
0
100
AcDbLine
 62
7
  6
CONTINUOUS
 10
14.4791830391
 20
8.4317383942
 11
14.4377271381
 21
8.4559171308
  0
LINE
  5
566
100
AcDbEntity
  8
0
100
AcDbLine
 62
7
  6
CONTINUOUS
 10
15.2149064896
 20
7.6490066151
 11
15.2149064896
 21
7.6357212251
  0
LINE
  5
567
100
AcDbEntity
  8
0
100
AcDbLine
 62
7
  6
CONTINUOUS
 10
15.2199064896
 20
7.676546346
 11
15.2199064896
 21
7.9185466959
  0
LWPOLYLINE
  5
568
100
AcDbEntity
  8
0
100
AcDbPolyline
 62
7
  6
CONTINUOUS
 90
3
 70
0
 10
15.2098549262
 20
7.6324660337
 10
15.2187840326
 20
7.6617030441
 10
15.2199000902
 20
7.6765463442
  0
LWPOLYLINE
  5
569
100
AcDbEntity
  8
0
100
AcDbPolyline
 62
7
  6
CONTINUOUS
 90
5
 70
0
 10
15.1896401944
 20
7.5673700125
 10
15.1966223318
 20
7.5772113756
 10
15.2082793374
 20
7.6001322732
 10
15.214167689
 20
7.6237776591
 10
15.2149064896
 20
7.6357212251
  0
LINE
  5
56A
100
AcDbEntity
  8
0
100
AcDbLine
 62
7
  6
CONTINUOUS
 10
15.1896401944
 20
7.5673700125
 11
15.1632877676
 21
7.5333487866
  0
LWPOLYLINE
  5
56B
100
AcDbEntity
  8
0
100
AcDbPolyline
 62
7
  6
CONTINUOUS
 90
4
 70
0
 10
15.1095558104
 20
7.4882911809
 10
15.1350137541
 20
7.5053706415
 10
15.1557782487
 20
7.524449953
 10
15.163283265
 20
7.5333471729
  0
LWPOLYLINE
  5
56C
100
AcDbEntity
  8
0
100
AcDbPolyline
 62
7
  6
CONTINUOUS
 90
12
 70
0
 10
14.3838740232
 20
8.4532094106
 10
14.4244230841
 20
8.4376904262
 10
14.4654280424
 20
8.4141206122
 10
14.5057539303
 20
8.3831769417
 10
14.5442849294
 20
8.345744325
 10
14.5799558357
 20
8.3028906557
 10
14.6117820979
 20
8.2558366975
 10
14.6388875808
 20
8.2059216588
 10
14.6605292715
 20
8.1545654284
 10
14.6761182321
 20
8.1032285358
 10
14.6852362074
 20
8.0533709651
 10
14.6876474189
 20
8.0064109845
  0
LWPOLYLINE
  5
56D
100
AcDbEntity
  8
0
100
AcDbPolyline
 62
7
  6
CONTINUOUS
 90
4
 70
0
 10
14.4377271381
 20
8.4559171308
 10
14.3966578922
 20
8.472231901
 10
14.3570440197
 20
8.4802398912
 10
14.3199128976
 20
8.4797185591
  0
LWPOLYLINE
  5
56E
100
AcDbEntity
  8
0
100
AcDbPolyline
 62
7
  6
CONTINUOUS
 90
12
 70
0
 10
14.4518065431
 20
8.4823241075
 10
14.4927024298
 20
8.4644159203
 10
14.5337307239
 20
8.4385883363
 10
14.5737501722
 20
8.4055857322
 10
14.6116481125
 20
8.3663558271
 10
14.6463720069
 20
8.3220228239
 10
14.6769592709
 20
8.2738555488
 10
14.7025645536
 20
8.2232314927
 10
14.7224836951
 20
8.1715977726
 10
14.7361736826
 20
8.1204301194
 10
14.7432680395
 20
8.0711910559
 10
14.7435872118
 20
8.0252884477
  0
LWPOLYLINE
  5
56F
100
AcDbEntity
  8
0
100
AcDbPolyline
 62
7
  6
CONTINUOUS
 90
12
 70
0
 10
14.435908203
 20
8.4582969001
 10
14.4401592226
 20
8.4562317637
 10
14.4815096611
 20
8.4319362371
 10
14.5221467981
 20
8.4004808221
 10
14.5610184217
 20
8.3627066107
 10
14.5971211216
 20
8.3196189365
 10
14.6295228237
 20
8.2723643187
 10
14.6573892694
 20
8.2221985912
 10
14.6800053413
 20
8.1704547735
 10
14.6967949194
 20
8.1185052023
 10
14.7073337791
 20
8.0677316917
 10
14.7113632151
 20
8.0194856898
  0
LWPOLYLINE
  5
570
100
AcDbEntity
  8
0
100
AcDbPolyline
 62
7
  6
CONTINUOUS
 90
13
 70
0
 10
14.4374984821
 20
8.4607671504
 10
14.4784663475
 20
8.4401270445
 10
14.5191771195
 20
8.4118356203
 10
14.5585041261
 20
8.3767029967
 10
14.5953597165
 20
8.3357322094
 10
14.6287259323
 20
8.290090926
 10
14.6576832126
 20
8.2410785187
 10
14.6814363252
 20
8.1900894226
 10
14.6993367918
 20
8.1385738144
 10
14.7109011743
 20
8.0879967178
 10
14.7158247073
 20
8.0397966911
 10
14.7139898929
 20
7.9953452612
 10
14.7128581143
 20
7.9901065819
  0
LWPOLYLINE
  5
571
100
AcDbEntity
  8
0
100
AcDbPolyline
 62
7
  6
CONTINUOUS
 90
12
 70
0
 10
14.4767853013
 20
8.4686291517
 10
14.4891669106
 20
8.4623746995
 10
14.5301952048
 20
8.4365471155
 10
14.5702146531
 20
8.4035445115
 10
14.6081125934
 20
8.3643146064
 10
14.6428364877
 20
8.3199816031
 10
14.6734237517
 20
8.271814328
 10
14.6990290344
 20
8.2211902719
 10
14.7189481759
 20
8.1695565518
 10
14.7326381634
 20
8.1183888987
 10
14.7397325203
 20
8.0691498351
 10
14.7398726259
 20
8.0208536246
  0
LWPOLYLINE
  5
572
100
AcDbEntity
  8
0
100
AcDbPolyline
 62
7
  6
CONTINUOUS
 90
12
 70
0
 10
14.5333536083
 20
8.501288684
 10
14.5639285921
 20
8.4845513986
 10
14.6046505936
 20
8.4554467731
 10
14.6438663313
 20
8.4195625762
 10
14.6804859204
 20
8.3779281924
 10
14.7134930518
 20
8.3317359681
 10
14.7419737949
 20
8.2823074207
 10
14.765142498
 20
8.2310557859
 10
14.7823640548
 20
8.1794459665
 10
14.793171903
 20
8.128953016
 10
14.7972812468
 20
8.0810203359
 10
14.7964409328
 20
8.0535131569
  0
LWPOLYLINE
  5
573
100
AcDbEntity
  8
0
100
AcDbPolyline
 62
7
  6
CONTINUOUS
 90
11
 70
0
 10
14.4876523107
 20
8.4917378733
 10
14.5301635412
 20
8.4681047699
 10
14.5718229252
 20
8.4370206094
 10
14.6112080345
 20
8.3998330514
 10
14.6482681576
 20
8.3566863567
 10
14.6818418396
 20
8.3087463591
 10
14.7105757118
 20
8.257978218
 10
14.733831689
 20
8.2057579885
 10
14.7513718048
 20
8.1524990541
 10
14.7623791729
 20
8.1003094025
 10
14.7665173144
 20
8.0513287338
  0
LWPOLYLINE
  5
574
100
AcDbEntity
  8
0
100
AcDbPolyline
 62
7
  6
CONTINUOUS
 90
11
 70
0
 10
14.45953058
 20
8.4753331822
 10
14.5021516593
 20
8.4515976388
 10
14.5439051784
 20
8.4203812653
 10
14.5834146003
 20
8.3829873716
 10
14.6202429061
 20
8.340022668
 10
14.6533803419
 20
8.2926976121
 10
14.6820314917
 20
8.2421634317
 10
14.7053874812
 20
8.1898407834
 10
14.7230130612
 20
8.1364444491
 10
14.7340753573
 20
8.0841115599
 10
14.7382331609
 20
8.0349989676
  0
LWPOLYLINE
  5
575
100
AcDbEntity
  8
0
100
AcDbPolyline
 62
7
  6
CONTINUOUS
 90
11
 70
0
 10
14.5168895695
 20
8.5076262791
 10
14.5590561661
 20
8.4840377024
 10
14.6002197971
 20
8.453255209
 10
14.6397700936
 20
8.4158708129
 10
14.6771646664
 20
8.3722255271
 10
14.710892159
 20
8.3238581611
 10
14.7396110218
 20
8.2728136462
 10
14.762714176
 20
8.2205368988
 10
14.7799715837
 20
8.1676575137
 10
14.7907185859
 20
8.1162668403
 10
14.7948014679
 20
8.0676584999
  0
LWPOLYLINE
  5
576
100
AcDbEntity
  8
0
100
AcDbPolyline
 62
7
  6
CONTINUOUS
 90
12
 70
0
 10
14.4485011478
 20
8.4522993856
 10
14.4863966564
 20
8.4309096534
 10
14.5263874153
 20
8.4009909187
 10
14.5647344501
 20
8.3646288879
 10
14.6004010519
 20
8.322838085
 10
14.632424419
 20
8.2767827216
 10
14.6599422051
 20
8.2277445962
 10
14.682216296
 20
8.1770877508
 10
14.6986531622
 20
8.1262208608
 10
14.7088202241
 20
8.0765583927
 10
14.7124577793
 20
8.0294816038
 10
14.7115884724
 20
8.0045238584
  0
LWPOLYLINE
  5
577
100
AcDbEntity
  8
0
100
AcDbPolyline
 62
7
  6
CONTINUOUS
 90
12
 70
0
 10
14.5050694548
 20
8.4849589179
 10
14.5470888744
 20
8.4608378752
 10
14.5875034084
 20
8.4297494322
 10
14.6261020503
 20
8.3921503604
 10
14.6618124041
 20
8.3491186445
 10
14.6936439289
 20
8.3018862318
 10
14.720716011
 20
8.2518041189
 10
14.7422829207
 20
8.2003040639
 10
14.7577549471
 20
8.1488580096
 10
14.7667151101
 20
8.0989363687
 10
14.7689309779
 20
8.0519663514
 10
14.7681567794
 20
8.0371833908
  0
LINE
  5
578
100
AcDbEntity
  8
0
100
AcDbLine
 62
7
  6
CONTINUOUS
 10
14.7945971343
 20
8.4828955797
 11
14.755144192
 21
8.5230501979
  0
LWPOLYLINE
  5
579
100
AcDbEntity
  8
0
100
AcDbPolyline
 62
7
  6
CONTINUOUS
 90
13
 70
0
 10
14.7945971343
 20
8.4828955797
 10
14.8205067898
 20
8.4496633622
 10
14.8463094966
 20
8.4109007247
 10
14.8715468653
 20
8.3653682269
 10
14.8938950848
 20
8.3148663458
 10
14.9105087842
 20
8.2649102134
 10
14.920863565
 20
8.2192651439
 10
14.9259847975
 20
8.177427188
 10
14.9264382961
 20
8.1384308261
 10
14.9221889256
 20
8.1016848776
 10
14.9131356918
 20
8.0683882651
 10
14.8995124376
 20
8.0396902038
 10
14.8830996604
 20
8.0180288702
  0
LWPOLYLINE
  5
57A
100
AcDbEntity
  8
0
100
AcDbPolyline
 62
7
  6
CONTINUOUS
 90
3
 70
0
 10
14.3838740232
 20
8.4532094106
 10
14.3515231131
 20
8.4607817133
 10
14.3212203352
 20
8.4622862303
  0
LINE
  5
57B
100
AcDbEntity
  8
0
100
AcDbLine
 62
7
  6
CONTINUOUS
 10
14.4288316871
 20
8.4878140797
 11
14.4518065431
 21
8.4823241075
  0
LINE
  5
57C
100
AcDbEntity
  8
0
100
AcDbLine
 62
7
  6
CONTINUOUS
 10
14.4003412263
 20
8.4722545812
 11
14.4374984821
 21
8.4607671504
  0
LINE
  5
57D
100
AcDbEntity
  8
0
100
AcDbLine
 62
7
  6
CONTINUOUS
 10
14.4860421982
 20
8.5213300233
 11
14.5263684186
 21
8.5080804244
  0
LWPOLYLINE
  5
57E
100
AcDbEntity
  8
0
100
AcDbPolyline
 62
7
  6
CONTINUOUS
 90
3
 70
0
 10
14.4641923564
 20
8.4746266662
 10
14.4191433955
 20
8.4914272326
 10
14.3796717575
 20
8.4979348143
  0
LWPOLYLINE
  5
57F
100
AcDbEntity
  8
0
100
AcDbPolyline
 62
7
  6
CONTINUOUS
 90
3
 70
0
 10
14.5207606634
 20
8.5072861985
 10
14.476505033
 20
8.5238737811
 10
14.4368142238
 20
8.5305604721
  0
LWPOLYLINE
  5
580
100
AcDbEntity
  8
0
100
AcDbPolyline
 62
7
  6
CONTINUOUS
 90
3
 70
0
 10
14.4924765099
 20
8.4909564324
 10
14.4484518663
 20
8.5074814231
 10
14.4088178268
 20
8.5142130107
  0
LWPOLYLINE
  5
581
100
AcDbEntity
  8
0
100
AcDbPolyline
 62
7
  6
CONTINUOUS
 90
12
 70
0
 10
14.4688626984
 20
8.5021600463
 10
14.5095178267
 20
8.4865634393
 10
14.5506243936
 20
8.462879096
 10
14.5910389276
 20
8.4317906529
 10
14.6296375695
 20
8.3941915812
 10
14.6653479233
 20
8.3511598653
 10
14.6971794481
 20
8.3039274526
 10
14.7242515302
 20
8.2538453397
 10
14.7458184399
 20
8.2023452847
 10
14.7612904663
 20
8.1508992304
 10
14.7702506293
 20
8.1009775895
 10
14.7724664971
 20
8.0540075722
  0
LWPOLYLINE
  5
582
100
AcDbEntity
  8
0
100
AcDbPolyline
 62
7
  6
CONTINUOUS
 90
12
 70
0
 10
14.5432789998
 20
8.5289551449
 10
14.5842746953
 20
8.5097123223
 10
14.6252158671
 20
8.4826567877
 10
14.6649637313
 20
8.4485677183
 10
14.7024133224
 20
8.4084236239
 10
14.7365248089
 20
8.3633746159
 10
14.7663529621
 20
8.3147098122
 10
14.7910739447
 20
8.2638208041
 10
14.810008658
 20
8.2121622171
 10
14.8226419882
 20
8.1612104871
 10
14.8286374049
 20
8.1124220174
 10
14.8278464982
 20
8.0671919036
  0
LWPOLYLINE
  5
583
100
AcDbEntity
  8
0
100
AcDbPolyline
 62
7
  6
CONTINUOUS
 90
13
 70
0
 10
14.5899219152
 20
8.5339482164
 10
14.594491495
 20
8.5317231301
 10
14.6354562395
 20
8.5074360796
 10
14.6756360537
 20
8.4758589837
 10
14.7139205525
 20
8.4378935302
 10
14.7492527331
 20
8.3946213386
 10
14.7806587469
 20
8.3472734962
 10
14.8072753281
 20
8.2971958832
 10
14.828374108
 20
8.2458112655
 10
14.8433821302
 20
8.1945792219
 10
14.8518979884
 20
8.1449550333
 10
14.8537031317
 20
8.098348695
 10
14.8530092398
 20
8.0861726892
  0
LWPOLYLINE
  5
584
100
AcDbEntity
  8
0
100
AcDbPolyline
 62
7
  6
CONTINUOUS
 90
12
 70
0
 10
14.5616377617
 20
8.5176184502
 10
14.5807391761
 20
8.5076711015
 10
14.6216803479
 20
8.4806155669
 10
14.6614282121
 20
8.4465264975
 10
14.6988778032
 20
8.4063824032
 10
14.7329892897
 20
8.3613333951
 10
14.762817443
 20
8.3126685915
 10
14.7875384255
 20
8.2617795833
 10
14.8064731388
 20
8.2101209963
 10
14.819106469
 20
8.1591692663
 10
14.8251018857
 20
8.1103807966
 10
14.8247250863
 20
8.0698429231
  0
LWPOLYLINE
  5
585
100
AcDbEntity
  8
0
100
AcDbPolyline
 62
7
  6
CONTINUOUS
 90
11
 70
0
 10
14.5263684186
 20
8.5080804244
 10
14.5674641112
 20
8.4865926193
 10
14.6081861128
 20
8.4574879938
 10
14.6474018505
 20
8.421603797
 10
14.6840214396
 20
8.3799694131
 10
14.717028571
 20
8.3337771889
 10
14.745509314
 20
8.2843486415
 10
14.7686780172
 20
8.2330970067
 10
14.785899574
 20
8.1814871872
 10
14.7967074222
 20
8.1309942368
 10
14.800816766
 20
8.0830615566
  0
LWPOLYLINE
  5
586
100
AcDbEntity
  8
0
100
AcDbPolyline
 62
7
  6
CONTINUOUS
 90
12
 70
0
 10
14.6182060687
 20
8.5502779825
 10
14.6476052552
 20
8.5342646628
 10
14.6882294013
 20
8.50546767
 10
14.7273917657
 20
8.4699034568
 10
14.7640106204
 20
8.4285860106
 10
14.7970758766
 20
8.3826913617
 10
14.8256775349
 20
8.3335244605
 10
14.8490313158
 20
8.2824824222
 10
14.8665007495
 20
8.2310151763
 10
14.8776151022
 20
8.1805846288
 10
14.8820826353
 20
8.1326234861
 10
14.8812933933
 20
8.1025024554
  0
LWPOLYLINE
  5
587
100
AcDbEntity
  8
0
100
AcDbPolyline
 62
7
  6
CONTINUOUS
 90
11
 70
0
 10
14.6171081076
 20
8.5544755933
 10
14.658207419
 20
8.5318577527
 10
14.6987695178
 20
8.5017352072
 10
14.7376670759
 20
8.4649734975
 10
14.7738199085
 20
8.4226262005
 10
14.8062255675
 20
8.3759050894
 10
14.8339877336
 20
8.3261458138
 10
14.8563416012
 20
8.2747700707
 10
14.8726755403
 20
8.2232453394
 10
14.8825484185
 20
8.1730433188
 10
14.8857020954
 20
8.1255982455
  0
LWPOLYLINE
  5
588
100
AcDbEntity
  8
0
100
AcDbPolyline
 62
7
  6
CONTINUOUS
 90
11
 70
0
 10
14.5722508629
 20
8.5408440606
 10
14.6144952306
 20
8.5174323853
 10
14.6560766651
 20
8.4865143656
 10
14.6956703068
 20
8.4492315897
 10
14.7330728297
 20
8.4057372367
 10
14.7668440069
 20
8.357498169
 10
14.7956418309
 20
8.3065435162
 10
14.8187943025
 20
8.2544627945
 10
14.836247648
 20
8.2014019657
 10
14.8472302782
 20
8.1493078027
 10
14.8513697749
 20
8.1003180322
  0
LWPOLYLINE
  5
589
100
AcDbEntity
  8
0
100
AcDbPolyline
 62
7
  6
CONTINUOUS
 90
11
 70
0
 10
14.5447199933
 20
8.5241666668
 10
14.5865357271
 20
8.5008918544
 10
14.6279432079
 20
8.4700577927
 10
14.6676417471
 20
8.4326338479
 10
14.7051565243
 20
8.388933015
 10
14.7389981262
 20
8.3404717549
 10
14.7678141329
 20
8.2893051343
 10
14.7909322243
 20
8.2370386781
 10
14.8081076731
 20
8.1845381707
 10
14.8189540198
 20
8.1329249908
 10
14.8230856214
 20
8.0839882661
  0
LWPOLYLINE
  5
58A
100
AcDbEntity
  8
0
100
AcDbPolyline
 62
7
  6
CONTINUOUS
 90
11
 70
0
 10
14.601143728
 20
8.5568931149
 10
14.6437063126
 20
8.5331591308
 10
14.6853979912
 20
8.5019691481
 10
14.7248980614
 20
8.4645701908
 10
14.7619421571
 20
8.4213117663
 10
14.7951636611
 20
8.373771583
 10
14.8236021415
 20
8.323515617
 10
14.8468935255
 20
8.2712699213
 10
14.8644735727
 20
8.2179467426
 10
14.8755066025
 20
8.1656901264
 10
14.8796539284
 20
8.1166477984
  0
LWPOLYLINE
  5
58B
100
AcDbEntity
  8
0
100
AcDbPolyline
 62
7
  6
CONTINUOUS
 90
3
 70
0
 10
14.755144192
 20
8.5230501979
 10
14.7135998726
 20
8.5567214595
 10
14.6711011598
 20
8.5829577317
  0
LWPOLYLINE
  5
58C
100
AcDbEntity
  8
0
100
AcDbPolyline
 62
7
  6
CONTINUOUS
 90
3
 70
0
 10
14.7201138472
 20
8.5538426444
 10
14.7583076119
 20
8.5212039121
 10
14.7945971343
 20
8.4828955797
  0
LWPOLYLINE
  5
58D
100
AcDbEntity
  8
0
100
AcDbPolyline
 62
7
  6
CONTINUOUS
 90
4
 70
0
 10
14.3224643321
 20
8.4806840858
 10
14.3595948733
 20
8.4809418252
 10
14.3991671912
 20
8.4727153122
 10
14.435908203
 20
8.4582969001
  0
LINE
  5
58E
100
AcDbEntity
  8
0
100
AcDbLine
 62
7
  6
CONTINUOUS
 10
14.4819918589
 20
8.5218172478
 11
14.4860421982
 21
8.5213300233
  0
LINE
  5
58F
100
AcDbEntity
  8
0
100
AcDbLine
 62
7
  6
CONTINUOUS
 10
14.4568512204
 20
8.5043286606
 11
14.4688626984
 21
8.5021600463
  0
LINE
  5
590
100
AcDbEntity
  8
0
100
AcDbLine
 62
7
  6
CONTINUOUS
 10
14.5422337513
 20
8.5530582501
 11
14.559977906
 21
8.5492710177
  0
LINE
  5
591
100
AcDbEntity
  8
0
100
AcDbLine
 62
7
  6
CONTINUOUS
 10
14.5116937066
 20
8.5375596867
 11
14.5432789998
 21
8.5289551449
  0
LINE
  5
592
100
AcDbEntity
  8
0
100
AcDbLine
 62
7
  6
CONTINUOUS
 10
14.5766141272
 20
8.5689357384
 11
14.6171081076
 21
8.5544755933
  0
LWPOLYLINE
  5
593
100
AcDbEntity
  8
0
100
AcDbPolyline
 62
7
  6
CONTINUOUS
 90
3
 70
0
 10
14.6056131239
 20
8.556275497
 10
14.5605873692
 20
8.573069877
 10
14.5210726777
 20
8.5795847818
  0
LWPOLYLINE
  5
594
100
AcDbEntity
  8
0
100
AcDbPolyline
 62
7
  6
CONTINUOUS
 90
4
 70
0
 10
14.6338972774
 20
8.5726052632
 10
14.5888535532
 20
8.5894044337
 10
14.5493879896
 20
8.5959127623
 10
14.5122751538
 20
8.593712013
  0
LWPOLYLINE
  5
595
100
AcDbEntity
  8
0
100
AcDbPolyline
 62
7
  6
CONTINUOUS
 90
3
 70
0
 10
14.5490448169
 20
8.5236159647
 10
14.5041544723
 20
8.5403741943
 10
14.4646588875
 20
8.546916339
  0
LWPOLYLINE
  5
596
100
AcDbEntity
  8
0
100
AcDbPolyline
 62
7
  6
CONTINUOUS
 90
3
 70
0
 10
14.5773289704
 20
8.5399457309
 10
14.5325708167
 20
8.5566685828
 10
14.4931489138
 20
8.563234018
  0
LWPOLYLINE
  5
597
100
AcDbEntity
  8
0
100
AcDbPolyline
 62
7
  6
CONTINUOUS
 90
12
 70
0
 10
14.559977906
 20
8.5492710177
 10
14.6007653689
 20
8.5323842652
 10
14.6418262025
 20
8.5075066047
 10
14.6820189534
 20
8.47535503
 10
14.720226754
 20
8.4368525484
 10
14.755388955
 20
8.3931020395
 10
14.7865311653
 20
8.3453550185
 10
14.8127928492
 20
8.2949761911
 10
14.8334516982
 20
8.2434048016
 10
14.847944089
 20
8.1921138702
 10
14.8558810461
 20
8.1425684741
 10
14.8570592588
 20
8.0961842529
  0
LWPOLYLINE
  5
598
100
AcDbEntity
  8
0
100
AcDbPolyline
 62
7
  6
CONTINUOUS
 90
3
 70
0
 10
14.6711011598
 20
8.5829577317
 10
14.6288139691
 20
8.6010135032
 10
14.587897576
 20
8.6103727193
  0
LWPOLYLINE
  5
599
100
AcDbEntity
  8
0
100
AcDbPolyline
 62
7
  6
CONTINUOUS
 90
12
 70
0
 10
14.6335021599
 20
8.5758753986
 10
14.6745430962
 20
8.5555727315
 10
14.7153789801
 20
8.5275525866
 10
14.7548747291
 20
8.4926209598
 10
14.7919332163
 20
8.451779596
 10
14.8255263437
 20
8.406197617
 10
14.8547241598
 20
8.3571784094
 10
14.8787211985
 20
8.3061227101
 10
14.8968592913
 20
8.254488934
 10
14.9086462082
 20
8.2037518682
 10
14.9137695989
 20
8.1553609031
 10
14.9121058392
 20
8.1106989823
  0
LWPOLYLINE
  5
59A
100
AcDbEntity
  8
0
100
AcDbPolyline
 62
7
  6
CONTINUOUS
 90
12
 70
0
 10
14.6464902222
 20
8.5666077487
 10
14.6597013894
 20
8.5599087524
 10
14.7005946417
 20
8.5340203497
 10
14.7404660711
 20
8.5010156069
 10
14.7782139782
 20
8.4618364223
 10
14.8127964738
 20
8.417598601
 10
14.8432608246
 20
8.3695604277
 10
14.8687702871
 20
8.3190872263
 10
14.8886276754
 20
8.2676129048
 10
14.9022949978
 20
8.2165995682
 10
14.9094086093
 20
8.1674963378
 10
14.9095775468
 20
8.1188322215
  0
LWPOLYLINE
  5
59B
100
AcDbEntity
  8
0
100
AcDbPolyline
 62
7
  6
CONTINUOUS
 90
3
 70
0
 10
14.6621814309
 20
8.5889350293
 10
14.6789190428
 20
8.5803369867
 10
14.7201138472
 20
8.5538426444
  0
LWPOLYLINE
  5
59C
100
AcDbEntity
  8
0
100
AcDbPolyline
 62
9
  6
CONTINUOUS
 90
9
 70
0
 10
14.7074720597
 20
8.5828661983
 10
14.6926423234
 20
8.5908973679
 10
14.677153849
 20
8.5981455334
 10
14.6605798662
 20
8.604587033
 10
14.6425773404
 20
8.6099882717
 10
14.6228960625
 20
8.613880091
 10
14.6014333202
 20
8.6155077272
 10
14.5783086216
 20
8.6137797811
 10
14.5703944714
 20
8.6116505322
  0
LWPOLYLINE
  5
59D
100
AcDbEntity
  8
0
100
AcDbPolyline
 62
9
  6
CONTINUOUS
 90
11
 70
0
 10
14.7163108576
 20
8.5981755304
 10
14.7009347258
 20
8.6065026369
 10
14.6848747963
 20
8.6140182838
 10
14.6676893947
 20
8.6206974969
 10
14.6490228411
 20
8.6262980724
 10
14.6286156957
 20
8.6303335944
 10
14.6063614314
 20
8.6320215155
 10
14.5823838981
 20
8.6302302494
 10
14.5571600845
 20
8.6234445744
 10
14.531909611
 20
8.6099696567
 10
14.528433412
 20
8.6067695145
  0
LWPOLYLINE
  5
59E
100
AcDbEntity
  8
0
100
AcDbPolyline
 62
7
  6
CONTINUOUS
 90
11
 70
0
 10
14.6292045346
 20
8.573326073
 10
14.6718228719
 20
8.5495982123
 10
14.7135751869
 20
8.518389388
 10
14.7530748797
 20
8.481012959
 10
14.7898519588
 20
8.4381249701
 10
14.8230618395
 20
8.3907133003
 10
14.8517417624
 20
8.3401314474
 10
14.8750964007
 20
8.2878090852
 10
14.892719846
 20
8.234416178
 10
14.9037807694
 20
8.1820868647
 10
14.9079380818
 20
8.1329775645
  0
LINE
  5
59F
100
AcDbEntity
  8
0
100
AcDbLine
 62
7
  6
CONTINUOUS
 10
14.3199128976
 20
8.4797185591
 11
14.2862282648
 21
8.4706700741
  0
LINE
  5
5A0
100
AcDbEntity
  8
0
100
AcDbLine
 62
7
  6
CONTINUOUS
 10
14.2894622129
 20
8.4721264504
 11
14.3224643321
 21
8.4806840858
  0
LINE
  5
5A1
100
AcDbEntity
  8
0
100
AcDbLine
 62
7
  6
CONTINUOUS
 10
14.3212203352
 20
8.4622862303
 11
14.2928336316
 21
8.4577645468
  0
LINE
  5
5A2
100
AcDbEntity
  8
0
100
AcDbLine
 62
7
  6
CONTINUOUS
 10
14.3796717575
 20
8.4979348143
 11
14.3425680317
 21
8.4957330048
  0
LINE
  5
5A3
100
AcDbEntity
  8
0
100
AcDbLine
 62
7
  6
CONTINUOUS
 10
14.4646588875
 20
8.546916339
 11
14.4273118408
 21
8.5447019606
  0
LINE
  5
5A4
100
AcDbEntity
  8
0
100
AcDbLine
 62
7
  6
CONTINUOUS
 10
14.4368142238
 20
8.5305604721
 11
14.3993029127
 21
8.5284235512
  0
LINE
  5
5A5
100
AcDbEntity
  8
0
100
AcDbLine
 62
7
  6
CONTINUOUS
 10
14.4931489138
 20
8.563234018
 11
14.4562873653
 21
8.5611596485
  0
LINE
  5
5A6
100
AcDbEntity
  8
0
100
AcDbLine
 62
7
  6
CONTINUOUS
 10
14.4088178268
 20
8.5142130107
 11
14.3713742447
 21
8.5121592708
  0
LWPOLYLINE
  5
5A7
100
AcDbEntity
  8
0
100
AcDbPolyline
 62
7
  6
CONTINUOUS
 90
3
 70
0
 10
14.5928245992
 20
8.5879234221
 10
14.5933970614
 20
8.5878731682
 10
14.6335021599
 20
8.5758753986
  0
LINE
  5
5A8
100
AcDbEntity
  8
0
100
AcDbLine
 62
7
  6
CONTINUOUS
 10
14.5682823204
 20
8.570199699
 11
14.5766141272
 21
8.5689357384
  0
LINE
  5
5A9
100
AcDbEntity
  8
0
100
AcDbLine
 62
7
  6
CONTINUOUS
 10
14.549471518
 20
8.6107624036
 11
14.5145864266
 21
8.6021592632
  0
LINE
  5
5AA
100
AcDbEntity
  8
0
100
AcDbLine
 62
7
  6
CONTINUOUS
 10
14.5210726777
 20
8.5795847818
 11
14.484187607
 21
8.5774188269
  0
LINE
  5
5AB
100
AcDbEntity
  8
0
100
AcDbLine
 62
7
  6
CONTINUOUS
 10
14.587897576
 20
8.6103727193
 11
14.549471518
 21
8.6107624036
  0
LWPOLYLINE
  5
5AC
100
AcDbEntity
  8
0
100
AcDbPolyline
 62
9
  6
CONTINUOUS
 90
5
 70
0
 10
14.7162959995
 20
8.7457669201
 10
14.6627619924
 20
8.7722506591
 10
14.6103182866
 20
8.7893530786
 10
14.5600322974
 20
8.7967262186
 10
14.512927507
 20
8.7942201178
  0
LWPOLYLINE
  5
5AD
100
AcDbEntity
  8
AXIS
100
AcDbPolyline
 62
7
  6
CONTINUOUS
 90
11
 70
0
 10
15.0072847726
 20
6.502277254
 10
14.98517676
 20
6.4922773033
 10
14.9595660585
 20
6.4856225305
 10
14.9319410687
 20
6.4826996868
 10
14.9039072548
 20
6.4836786373
 10
14.8770938401
 20
6.4885024889
 10
14.8530591228
 20
6.4968908968
 10
14.8331999133
 20
6.5083563574
 10
14.8186703566
 20
6.5222325397
 10
14.8103148579
 20
6.5377130104
 10
14.8084116984
 20
6.5498521878
  0
LWPOLYLINE
  5
5AE
100
AcDbEntity
  8
0
100
AcDbPolyline
 62
9
  6
CONTINUOUS
 90
17
 70
0
 10
14.8422411344
 20
9.0601166792
 10
14.8559428897
 20
9.0636963473
 10
14.8700365304
 20
9.0663993591
 10
14.8844989153
 20
9.0682212764
 10
14.8993062976
 20
9.0691591076
 10
14.9144343642
 20
9.0692113128
 10
14.9298582752
 20
9.0683778064
 10
14.9455527052
 20
9.0666599569
 10
14.9614918845
 20
9.064060585
 10
14.9776496413
 20
9.0605839588
 10
14.9939994454
 20
9.0562357867
 10
15.0105144509
 20
9.0510232082
 10
15.0271675406
 20
9.0449547824
 10
15.0439313709
 20
9.0380404733
 10
15.060778416
 20
9.0302916339
 10
15.0776810137
 20
9.0217209877
 10
15.0946114105
 20
9.0123426073
  0
LWPOLYLINE
  5
5AF
100
AcDbEntity
  8
0
100
AcDbPolyline
 62
7
  6
CONTINUOUS
 90
8
 70
0
 10
15.1246119587
 20
9.0153136686
 10
15.0717953108
 20
9.0419890475
 10
15.0167286728
 20
9.0616103495
 10
14.9628834302
 20
9.0723572942
 10
14.9117442218
 20
9.0741375391
 10
14.8640190114
 20
9.0673366231
 10
14.8202506814
 20
9.0524428545
 10
14.7989875679
 20
9.0415391262
  0
LWPOLYLINE
  5
5B0
100
AcDbEntity
  8
0
100
AcDbPolyline
 62
9
  6
CONTINUOUS
 90
55
 70
0
 10
15.0946114105
 20
9.0123426073
 10
15.1115407584
 20
9.0021725463
 10
15.1284423123
 20
8.9912269452
 10
15.1452883239
 20
8.979523774
 10
15.1620511361
 20
8.9670822465
 10
15.1787032283
 20
8.9539227888
 10
15.1952172618
 20
8.9400670055
 10
15.2115661244
 20
8.9255376445
 10
15.2277229752
 20
8.9103585596
 10
15.2436612886
 20
8.8945546712
 10
15.2593548975
 20
8.8781519255
 10
15.2747780369
 20
8.8611772521
 10
15.2899053856
 20
8.8436585191
 10
15.304712108
 20
8.8256244882
 10
15.3191738952
 20
8.8071047671
 10
15.3332670042
 20
8.7881297606
 10
15.3469682976
 20
8.7687306211
 10
15.3602552811
 20
8.7489391976
 10
15.3731061406
 20
8.7287879827
 10
15.385499778
 20
8.7083100601
 10
15.3974158461
 20
8.6875390495
 10
15.4088347813
 20
8.6665090519
 10
15.4197378367
 20
8.6452545936
 10
15.4301071117
 20
8.6238105699
 10
15.4399255824
 20
8.6022121868
 10
15.4491771298
 20
8.5804949025
 10
15.4578465655
 20
8.5586943703
 10
15.4659196559
 20
8.5368463824
 10
15.4733831447
 20
8.514986814
 10
15.4802247805
 20
8.4931515492
 10
15.4864333447
 20
8.4713763853
 10
15.4919986275
 20
8.4496971236
 10
15.4969114728
 20
8.4281494471
 10
15.5011638111
 20
8.4067687959
 10
15.5047487042
 20
8.3855900838
 10
15.5076603045
 20
8.3646477538
 10
15.5098930102
 20
8.3439847338
 10
15.511441687
 20
8.3236726746
 10
15.5123080185
 20
8.3037595656
 10
15.5124957472
 20
8.2842873532
 10
15.5119766624
 20
8.2652547278
 10
15.5107472948
 20
8.2466322503
 10
15.5088151706
 20
8.228399421
 10
15.5061799065
 20
8.2105380868
 10
15.5028455995
 20
8.1930925894
 10
15.4988328874
 20
8.176164658
 10
15.494172106
 20
8.1598451028
 10
15.4888888506
 20
8.1441766984
 10
15.4830024674
 20
8.1291777933
 10
15.4765316441
 20
8.114867671
 10
15.4695016646
 20
8.1012794247
 10
15.4619423325
 20
8.0884487068
 10
15.45388118
 20
8.07640146
 10
15.4453466384
 20
8.0651616675
 10
15.4363681603
 20
8.0547515994
  0
LINE
  5
5B1
100
AcDbEntity
  8
AXIS
100
AcDbLine
 62
7
  6
CONTINUOUS
 10
4.1280454012
 20
3.5779514489
 11
3.8950454012
 21
3.5779514489
  0
LWPOLYLINE
  5
5B2
100
AcDbEntity
  8
0
100
AcDbPolyline
 62
7
  6
CONTINUOUS
 90
18
 70
0
 10
3.9324074229
 20
6.2125061118
 10
3.8866565175
 20
6.1989053175
 10
3.8438020965
 20
6.179321292
 10
3.8036574024
 20
6.1537115898
 10
3.7659169406
 20
6.1212307522
 10
3.7312857334
 20
6.0809085224
 10
3.7021584853
 20
6.0334983241
 10
3.6809920556
 20
5.9818165411
 10
3.6685222091
 20
5.927941205
 10
3.6647920177
 20
5.8731640678
 10
3.6697374931
 20
5.8185720227
 10
3.683460344
 20
5.7646702245
 10
3.7058353201
 20
5.7131562448
 10
3.7363563691
 20
5.6656456912
 10
3.7738422899
 20
5.6239059384
 10
3.8149842238
 20
5.5903919778
 10
3.8576233736
 20
5.5649665766
 10
3.9021533852
 20
5.546198702
  0
LINE
  5
5B3
100
AcDbEntity
  8
0
100
AcDbLine
 62
7
  6
CONTINUOUS
 10
3.7215454012
 20
4.9078727088
 11
3.7504129147
 21
4.8578727088
  0
LINE
  5
5B4
100
AcDbEntity
  8
0
100
AcDbLine
 62
7
  6
CONTINUOUS
 10
3.7165454012
 20
4.9578727088
 11
3.7165454012
 21
5.3359915516
  0
LINE
  5
5B5
100
AcDbEntity
  8
0
100
AcDbLine
 62
7
  6
CONTINUOUS
 10
3.7215454012
 20
4.9578727088
 11
3.7215454012
 21
4.9078727088
  0
LINE
  5
5B6
100
AcDbEntity
  8
AXIS
100
AcDbLine
 62
7
  6
CONTINUOUS
 10
3.8950454012
 20
4.8578727088
 11
3.8950454012
 21
3.5779514489
  0
LINE
  5
5B7
100
AcDbEntity
  8
AXIS_COSMETIC_THREADS
100
AcDbLine
 62
7
  6
CONTINUOUS
 10
3.8950454012
 20
4.8578727088
 11
3.8950454012
 21
3.5779514489
  0
LWPOLYLINE
  5
5B8
100
AcDbEntity
  8
0
100
AcDbPolyline
 62
9
  6
CONTINUOUS
 90
6
 70
0
 10
4.2531419576
 20
5.3424144736
 10
4.2440995236
 20
5.3362967566
 10
4.2371748071
 20
5.3271056947
 10
4.2328051842
 20
5.3154218099
 10
4.2312666471
 20
5.3019830748
 10
4.2326563722
 20
5.2876383011
  0
LINE
  5
5B9
100
AcDbEntity
  8
0
100
AcDbLine
 62
7
  6
CONTINUOUS
 10
4.3338766895
 20
5.3863180385
 11
4.3335173282
 21
5.3860829321
  0
LINE
  5
5BA
100
AcDbEntity
  8
0
100
AcDbLine
 62
7
  6
CONTINUOUS
 10
4.2726778877
 20
4.8578727088
 11
3.7504129147
 21
4.8578727088
  0
LINE
  5
5BB
100
AcDbEntity
  8
0
100
AcDbLine
 62
7
  6
CONTINUOUS
 10
4.3015454012
 20
4.9078727088
 11
3.7215454012
 21
4.9078727088
  0
LINE
  5
5BC
100
AcDbEntity
  8
02___PRT_ALL_AXES
100
AcDbLine
 62
7
  6
CENTER
 10
4.0115454012
 20
5.8828727088
 11
4.0115454012
 21
5.463975071
  0
LINE
  5
5BD
100
AcDbEntity
  8
02___PRT_ALL_AXES
100
AcDbLine
 62
7
  6
CENTER
 10
4.0115454012
 20
5.8828727088
 11
4.0115454012
 21
6.318930318
  0
LWPOLYLINE
  5
5BE
100
AcDbEntity
  8
0
100
AcDbPolyline
 62
9
  6
CONTINUOUS
 90
6
 70
0
 10
4.3065454012
 20
5.3359915516
 10
4.3040597197
 20
5.3340614155
 10
4.2958963281
 20
5.3278831446
 10
4.2813264334
 20
5.3174478766
 10
4.2601410801
 20
5.3035551939
 10
4.2326563722
 20
5.2876383011
  0
LINE
  5
5BF
100
AcDbEntity
  8
0
100
AcDbLine
 62
7
  6
CONTINUOUS
 10
3.7165454012
 20
4.9578727088
 11
4.3065454012
 21
4.9578727088
  0
LINE
  5
5C0
100
AcDbEntity
  8
AXIS
100
AcDbLine
 62
7
  6
CONTINUOUS
 10
4.1280454012
 20
4.8578727088
 11
4.1280454012
 21
3.5779514489
  0
LINE
  5
5C1
100
AcDbEntity
  8
AXIS_COSMETIC_THREADS
100
AcDbLine
 62
7
  6
CONTINUOUS
 10
4.1280454012
 20
4.8578727088
 11
4.1280454012
 21
3.5779514489
  0
LWPOLYLINE
  5
5C2
100
AcDbEntity
  8
0
100
AcDbPolyline
 62
9
  6
CONTINUOUS
 90
6
 70
0
 10
3.7904344302
 20
5.2876383011
 10
3.7629503172
 20
5.3035548242
 10
3.7417650214
 20
5.3174474258
 10
3.7271948896
 20
5.3278828364
 10
3.7190312134
 20
5.3340613146
 10
3.7165454012
 20
5.3359915516
  0
LWPOLYLINE
  5
5C3
100
AcDbEntity
  8
0
100
AcDbPolyline
 62
9
  6
CONTINUOUS
 90
8
 70
0
 10
3.7699488448
 20
5.3424144736
 10
3.7923900682
 20
5.3344369654
 10
3.8174584888
 20
5.3292813993
 10
3.8460729804
 20
5.3267597689
 10
3.8792088923
 20
5.3270682467
 10
3.9177027166
 20
5.3307105115
 10
3.9619598122
 20
5.3383986001
 10
4.0115454012
 20
5.3508727088
  0
LWPOLYLINE
  5
5C4
100
AcDbEntity
  8
0
100
AcDbPolyline
 62
9
  6
CONTINUOUS
 90
8
 70
0
 10
3.7904344302
 20
5.2876383011
 10
3.8113601708
 20
5.2800188053
 10
3.8352427222
 20
5.2777293642
 10
3.8626149279
 20
5.2805527052
 10
3.8940032452
 20
5.2887962475
 10
3.9296537805
 20
5.3030275302
 10
3.969230527
 20
5.3237319549
 10
4.0115454012
 20
5.3508727088
  0
LINE
  5
5C5
100
AcDbEntity
  8
0
100
AcDbLine
 62
7
  6
CONTINUOUS
 10
3.6892141129
 20
5.3863180385
 11
3.6895755733
 21
5.386081548
  0
LWPOLYLINE
  5
5C6
100
AcDbEntity
  8
0
100
AcDbPolyline
 62
9
  6
CONTINUOUS
 90
6
 70
0
 10
3.7699488448
 20
5.3424144736
 10
3.7789912788
 20
5.3362967566
 10
3.7859159953
 20
5.3271056947
 10
3.7902856182
 20
5.3154218099
 10
3.7918241553
 20
5.3019830748
 10
3.7904344302
 20
5.2876383011
  0
LINE
  5
5C7
100
AcDbEntity
  8
0
100
AcDbLine
 62
7
  6
CONTINUOUS
 10
4.3015454012
 20
4.9578727088
 11
4.3015454012
 21
4.9078727088
  0
LINE
  5
5C8
100
AcDbEntity
  8
0
100
AcDbLine
 62
7
  6
CONTINUOUS
 10
4.3065454012
 20
4.9578727088
 11
4.3065454012
 21
5.3359915516
  0
LINE
  5
5C9
100
AcDbEntity
  8
0
100
AcDbLine
 62
7
  6
CONTINUOUS
 10
4.3015454012
 20
4.9078727088
 11
4.2726778877
 21
4.8578727088
  0
LWPOLYLINE
  5
5CA
100
AcDbEntity
  8
0
100
AcDbPolyline
 62
9
  6
CONTINUOUS
 90
8
 70
0
 10
4.0115454012
 20
5.3508727088
 10
4.0611309902
 20
5.3383986001
 10
4.1053880858
 20
5.3307105115
 10
4.1438819101
 20
5.3270682467
 10
4.177017822
 20
5.3267597689
 10
4.2056323136
 20
5.3292813993
 10
4.2307007342
 20
5.3344369654
 10
4.2531419576
 20
5.3424144736
  0
LWPOLYLINE
  5
5CB
100
AcDbEntity
  8
0
100
AcDbPolyline
 62
9
  6
CONTINUOUS
 90
8
 70
0
 10
4.0115454012
 20
5.3508727088
 10
4.0538602754
 20
5.3237319549
 10
4.0934370219
 20
5.3030275302
 10
4.1290875572
 20
5.2887962475
 10
4.1604758745
 20
5.2805527052
 10
4.1878480802
 20
5.2777293642
 10
4.2117306316
 20
5.2800188053
 10
4.2326563722
 20
5.2876383011
  0
LWPOLYLINE
  5
5CC
100
AcDbEntity
  8
0
100
AcDbPolyline
 62
7
  6
CONTINUOUS
 90
16
 70
0
 10
4.0602046731
 20
5.5330404461
 10
4.1101358054
 20
5.544587883
 10
4.1568434668
 20
5.5627718066
 10
4.1997484035
 20
5.586924312
 10
4.2390125818
 20
5.6169936671
 10
4.2744140585
 20
5.6532067838
 10
4.3049605368
 20
5.6953877032
 10
4.3289102651
 20
5.741740818
 10
4.345561013
 20
5.7908305629
 10
4.3549074556
 20
5.8439369951
 10
4.3557385159
 20
5.9000354202
 10
4.3473985951
 20
5.9557644815
 10
4.3303636717
 20
6.0086569726
 10
4.3050571017
 20
6.0580155178
 10
4.2724357002
 20
6.1022437455
 10
4.2334585518
 20
6.1403803356
  0
LINE
  5
5CD
100
AcDbEntity
  8
0
100
AcDbLine
 62
7
  6
CONTINUOUS
 10
4.0115454012
 20
5.5288727088
 11
4.0602046731
 21
5.5330404461
  0
LINE
  5
5CE
100
AcDbEntity
  8
02___PRT_ALL_AXES
100
AcDbLine
 62
7
  6
CENTER
 10
4.0115454012
 20
5.8828727088
 11
3.5833316183
 21
5.8828727088
  0
LINE
  5
5CF
100
AcDbEntity
  8
02___PRT_ALL_AXES
100
AcDbLine
 62
7
  6
CENTER
 10
4.0115454012
 20
5.8828727088
 11
4.4582009379
 21
5.8828727088
  0
LINE
  5
5D0
100
AcDbEntity
  8
0
100
AcDbLine
 62
7
  6
CONTINUOUS
 10
4.2334585518
 20
6.1403803356
 11
4.1886724146
 21
6.1719177245
  0
LINE
  5
5D1
100
AcDbEntity
  8
0
100
AcDbLine
 62
7
  6
CONTINUOUS
 10
4.1886724146
 20
6.1719177245
 11
4.2160025404
 21
6.1518692776
  0
LINE
  5
5D2
100
AcDbEntity
  8
0
100
AcDbLine
 62
7
  6
CONTINUOUS
 10
4.1392121117
 20
6.1969144433
 11
4.0860089349
 21
6.2135934099
  0
LINE
  5
5D3
100
AcDbEntity
  8
0
100
AcDbLine
 62
7
  6
CONTINUOUS
 10
4.1886724146
 20
6.1719177245
 11
4.1392121117
 21
6.1969144433
  0
LINE
  5
5D4
100
AcDbEntity
  8
0
100
AcDbLine
 62
7
  6
CONTINUOUS
 10
3.9813887212
 20
6.2205287092
 11
3.9324074229
 21
6.2125061118
  0
LINE
  5
5D5
100
AcDbEntity
  8
0
100
AcDbLine
 62
7
  6
CONTINUOUS
 10
3.9324074229
 20
6.2125061118
 11
3.9677409347
 21
6.2179025449
  0
LINE
  5
5D6
100
AcDbEntity
  8
0
100
AcDbLine
 62
7
  6
CONTINUOUS
 10
4.0325870859
 20
6.2212190513
 11
3.9813887212
 21
6.2205287092
  0
LINE
  5
5D7
100
AcDbEntity
  8
0
100
AcDbLine
 62
7
  6
CONTINUOUS
 10
4.0860089349
 20
6.2135934099
 11
4.0325870859
 21
6.2212190513
  0
LINE
  5
5D8
100
AcDbEntity
  8
AXIS
100
AcDbLine
 62
7
  6
CONTINUOUS
 10
8.932690045
 20
3.5779514489
 11
8.6997085795
 21
3.5779514489
  0
LINE
  5
5D9
100
AcDbEntity
  8
0
100
AcDbLine
 62
7
  6
CONTINUOUS
 10
8.3480952422
 20
6.2368254095
 11
8.3481988187
 21
6.2368727077
  0
LINE
  5
5DA
100
AcDbEntity
  8
0
100
AcDbLine
 62
7
  6
CONTINUOUS
 10
8.3080952422
 20
6.2368254095
 11
8.3081992165
 21
6.2368727087
  0
LINE
  5
5DB
100
AcDbEntity
  8
0
100
AcDbLine
 62
7
  6
CONTINUOUS
 10
8.1481993114
 20
6.2368727088
 11
8.1480952422
 21
6.2368254095
  0
LINE
  5
5DC
100
AcDbEntity
  8
0
100
AcDbLine
 62
7
  6
CONTINUOUS
 10
8.1880952422
 20
6.2368254095
 11
8.1881993089
 21
6.2368727088
  0
LINE
  5
5DD
100
AcDbEntity
  8
0
100
AcDbLine
 62
7
  6
CONTINUOUS
 10
8.2280952422
 20
6.2368254095
 11
8.2281993081
 21
6.2368727088
  0
LINE
  5
5DE
100
AcDbEntity
  8
0
100
AcDbLine
 62
7
  6
CONTINUOUS
 10
8.2680952422
 20
6.2368254095
 11
8.2681998943
 21
6.2368727073
  0
LINE
  5
5DF
100
AcDbEntity
  8
0
100
AcDbLine
 62
7
  6
CONTINUOUS
 10
8.1480952422
 20
6.2368254095
 11
8.1315906382
 21
6.2218233175
  0
LINE
  5
5E0
100
AcDbEntity
  8
0
100
AcDbLine
 62
7
  6
CONTINUOUS
 10
8.1880952422
 20
6.2368254095
 11
8.1715906382
 21
6.2218233175
  0
LINE
  5
5E1
100
AcDbEntity
  8
0
100
AcDbLine
 62
7
  6
CONTINUOUS
 10
8.2280952422
 20
6.2368254095
 11
8.2115906382
 21
6.2218233175
  0
LINE
  5
5E2
100
AcDbEntity
  8
0
100
AcDbLine
 62
7
  6
CONTINUOUS
 10
8.3880952422
 20
6.2368254095
 11
8.3881993097
 21
6.2368727088
  0
LINE
  5
5E3
100
AcDbEntity
  8
0
100
AcDbLine
 62
7
  6
CONTINUOUS
 10
8.4280952422
 20
6.2368254095
 11
8.4281993088
 21
6.2368727088
  0
LINE
  5
5E4
100
AcDbEntity
  8
0
100
AcDbLine
 62
7
  6
CONTINUOUS
 10
8.4681993135
 20
6.2368727088
 11
8.4680952422
 21
6.2368254095
  0
LINE
  5
5E5
100
AcDbEntity
  8
0
100
AcDbLine
 62
7
  6
CONTINUOUS
 10
8.2680952422
 20
6.2368254095
 11
8.2515906382
 21
6.2218233175
  0
LINE
  5
5E6
100
AcDbEntity
  8
0
100
AcDbLine
 62
7
  6
CONTINUOUS
 10
8.3080952422
 20
6.2368254095
 11
8.2915906382
 21
6.2218233175
  0
LINE
  5
5E7
100
AcDbEntity
  8
0
100
AcDbLine
 62
7
  6
CONTINUOUS
 10
8.3480952422
 20
6.2368254095
 11
8.3315906382
 21
6.2218233175
  0
LINE
  5
5E8
100
AcDbEntity
  8
0
100
AcDbLine
 62
7
  6
CONTINUOUS
 10
8.3880952422
 20
6.2368254095
 11
8.3715906382
 21
6.2218233175
  0
LINE
  5
5E9
100
AcDbEntity
  8
0
100
AcDbLine
 62
7
  6
CONTINUOUS
 10
8.4280952422
 20
6.2368254095
 11
8.4115906382
 21
6.2218233175
  0
LINE
  5
5EA
100
AcDbEntity
  8
0
100
AcDbLine
 62
7
  6
CONTINUOUS
 10
8.4680952422
 20
6.2368254095
 11
8.4515906382
 21
6.2218233175
  0
LINE
  5
5EB
100
AcDbEntity
  8
0
100
AcDbLine
 62
7
  6
CONTINUOUS
 10
7.8388607296
 20
5.6348412129
 11
7.8388607296
 21
6.1309042046
  0
LINE
  5
5EC
100
AcDbEntity
  8
0
100
AcDbLine
 62
9
  6
CONTINUOUS
 10
7.9097268713
 20
5.563975071
 11
7.9097268713
 21
6.2017703465
  0
LINE
  5
5ED
100
AcDbEntity
  8
0
100
AcDbLine
 62
7
  6
CONTINUOUS
 10
8.1303033822
 20
5.528920008
 11
8.1468079862
 21
5.5439221
  0
LINE
  5
5EE
100
AcDbEntity
  8
0
100
AcDbLine
 62
7
  6
CONTINUOUS
 10
8.1703033822
 20
5.528920008
 11
8.1868079862
 21
5.5439221
  0
LINE
  5
5EF
100
AcDbEntity
  8
0
100
AcDbLine
 62
7
  6
CONTINUOUS
 10
8.2103033822
 20
5.528920008
 11
8.2268079862
 21
5.5439221
  0
LINE
  5
5F0
100
AcDbEntity
  8
0
100
AcDbLine
 62
7
  6
CONTINUOUS
 10
8.2503033822
 20
5.528920008
 11
8.2668079862
 21
5.5439221
  0
LINE
  5
5F1
100
AcDbEntity
  8
0
100
AcDbLine
 62
7
  6
CONTINUOUS
 10
8.3303033822
 20
5.528920008
 11
8.3301995671
 21
5.528872709
  0
LINE
  5
5F2
100
AcDbEntity
  8
0
100
AcDbLine
 62
7
  6
CONTINUOUS
 10
8.1301993122
 20
5.5288727088
 11
8.1303033822
 21
5.528920008
  0
LINE
  5
5F3
100
AcDbEntity
  8
0
100
AcDbLine
 62
7
  6
CONTINUOUS
 10
8.2103033822
 20
5.528920008
 11
8.2101993093
 21
5.5288727088
  0
LINE
  5
5F4
100
AcDbEntity
  8
0
100
AcDbLine
 62
7
  6
CONTINUOUS
 10
8.2503033822
 20
5.528920008
 11
8.2501993093
 21
5.5288727088
  0
LINE
  5
5F5
100
AcDbEntity
  8
0
100
AcDbLine
 62
7
  6
CONTINUOUS
 10
8.2903033822
 20
5.528920008
 11
8.2901993084
 21
5.5288727088
  0
LINE
  5
5F6
100
AcDbEntity
  8
0
100
AcDbLine
 62
7
  6
CONTINUOUS
 10
8.1703033822
 20
5.528920008
 11
8.1701988073
 21
5.5288727099
  0
LINE
  5
5F7
100
AcDbEntity
  8
0
100
AcDbLine
 62
7
  6
CONTINUOUS
 10
8.2903033822
 20
5.528920008
 11
8.3068079862
 21
5.5439221
  0
LINE
  5
5F8
100
AcDbEntity
  8
0
100
AcDbLine
 62
7
  6
CONTINUOUS
 10
8.3303033822
 20
5.528920008
 11
8.3468079862
 21
5.5439221
  0
LINE
  5
5F9
100
AcDbEntity
  8
0
100
AcDbLine
 62
7
  6
CONTINUOUS
 10
8.3703033822
 20
5.528920008
 11
8.3868079862
 21
5.5439221
  0
LINE
  5
5FA
100
AcDbEntity
  8
0
100
AcDbLine
 62
7
  6
CONTINUOUS
 10
8.4103033822
 20
5.528920008
 11
8.4268079862
 21
5.5439221
  0
LINE
  5
5FB
100
AcDbEntity
  8
0
100
AcDbLine
 62
7
  6
CONTINUOUS
 10
8.3703033822
 20
5.528920008
 11
8.370199633
 21
5.5288727092
  0
LINE
  5
5FC
100
AcDbEntity
  8
0
100
AcDbLine
 62
7
  6
CONTINUOUS
 10
8.450199313
 20
5.5288727088
 11
8.4503033822
 21
5.528920008
  0
LINE
  5
5FD
100
AcDbEntity
  8
0
100
AcDbLine
 62
7
  6
CONTINUOUS
 10
8.4103033822
 20
5.528920008
 11
8.4101987338
 21
5.5288727102
  0
LWPOLYLINE
  5
5FE
100
AcDbEntity
  8
0
100
AcDbPolyline
 62
7
  6
CONTINUOUS
 90
17
 70
0
 10
8.1301993122
 20
6.1719177245
 10
8.1312576456
 20
6.13862219
 10
8.1323159789
 20
6.0982748711
 10
8.1333743122
 20
6.0519882649
 10
8.1344326456
 20
6.0010386328
 10
8.1354909789
 20
5.9468308098
 10
8.1365493122
 20
5.890859469
 10
8.1376076456
 20
5.8346679092
 10
8.1386659789
 20
5.7798055011
 10
8.1397243122
 20
5.7277849667
 10
8.1407826456
 20
5.6800406692
 10
8.1418409789
 20
5.6378890626
 10
8.1428993122
 20
5.6024923941
 10
8.1439576456
 20
5.5748266564
 10
8.1450159789
 20
5.5556546774
 10
8.1460743122
 20
5.5455050864
 10
8.1466993122
 20
5.5438727088
  0
LWPOLYLINE
  5
5FF
100
AcDbEntity
  8
0
100
AcDbPolyline
 62
7
  6
CONTINUOUS
 90
9
 70
0
 10
8.1571622327
 20
5.9402860237
 10
8.1561251137
 20
5.9961811701
 10
8.1550880055
 20
6.0490752457
 10
8.1540509457
 20
6.0975660465
 10
8.1530139015
 20
6.1403715833
 10
8.1519768274
 20
6.1763601748
 10
8.1509397495
 20
6.2045776499
 10
8.1499026962
 20
6.2242763338
 10
8.148865609
 20
6.2349356089
  0
LWPOLYLINE
  5
600
100
AcDbEntity
  8
0
100
AcDbPolyline
 62
7
  6
CONTINUOUS
 90
11
 70
0
 10
8.1571622327
 20
5.9402860237
 10
8.1592493817
 20
5.8247467563
 10
8.1603046991
 20
5.7679225881
 10
8.1613516819
 20
5.7146575945
 10
8.1623956028
 20
5.6660666308
 10
8.1634531393
 20
5.6227781345
 10
8.1645207585
 20
5.5863438483
 10
8.1655837143
 20
5.5583330085
 10
8.166631431
 20
5.5395544743
 10
8.1676833728
 20
5.5300346196
 10
8.1680952422
 20
5.528920008
  0
LINE
  5
601
100
AcDbEntity
  8
0
100
AcDbLine
 62
7
  6
CONTINUOUS
 10
8.1301993122
 20
5.5288727088
 11
8.1301993122
 21
6.2218933863
  0
LINE
  5
602
100
AcDbEntity
  8
0
100
AcDbLine
 62
7
  6
CONTINUOUS
 10
8.4503033822
 20
5.528920008
 11
8.4668079862
 21
5.5439221
  0
LWPOLYLINE
  5
603
100
AcDbEntity
  8
0
100
AcDbPolyline
 62
7
  6
CONTINUOUS
 90
9
 70
0
 10
8.2096694428
 20
5.5300981713
 10
8.2086143392
 20
5.5397874211
 10
8.2075720499
 20
5.5585926068
 10
8.2065157147
 20
5.5864971331
 10
8.2054543989
 20
5.6227306236
 10
8.204402676
 20
5.6657558463
 10
8.2033584222
 20
5.7143279053
 10
8.2023011038
 20
5.7681116962
 10
8.2012434162
 20
5.8250739946
  0
LWPOLYLINE
  5
604
100
AcDbEntity
  8
0
100
AcDbPolyline
 62
7
  6
CONTINUOUS
 90
18
 70
0
 10
8.1323399372
 20
6.2201577617
 10
8.1334102497
 20
6.2097035057
 10
8.1344805622
 20
6.1900328625
 10
8.1355508747
 20
6.1617005298
 10
8.1366211872
 20
6.1255054585
 10
8.1376914997
 20
6.0824683228
 10
8.1387618122
 20
6.0338027382
 10
8.1398321247
 20
5.9808810382
 10
8.1409024372
 20
5.9251955757
 10
8.1419727497
 20
5.8683166397
 10
8.1430430622
 20
5.811848174
 10
8.1441133747
 20
5.7573825477
 10
8.1451836872
 20
5.7064556513
 10
8.1462539997
 20
5.6605035857
 10
8.1473243122
 20
5.6208221651
 10
8.1483946247
 20
5.5885303763
 10
8.1494649372
 20
5.5645388239
 10
8.1505352497
 20
5.549524052
  0
LWPOLYLINE
  5
605
100
AcDbEntity
  8
0
100
AcDbPolyline
 62
7
  6
CONTINUOUS
 90
10
 70
0
 10
8.2392434162
 20
5.8250739946
 10
8.2403011038
 20
5.7681116962
 10
8.2413584222
 20
5.7143279053
 10
8.242402676
 20
5.6657558463
 10
8.2434543989
 20
5.6227306236
 10
8.2445157147
 20
5.5864971331
 10
8.2455720499
 20
5.5585926068
 10
8.2466143392
 20
5.5397874211
 10
8.2476694428
 20
5.5300981713
 10
8.2480952422
 20
5.528920008
  0
LWPOLYLINE
  5
606
100
AcDbEntity
  8
0
100
AcDbPolyline
 62
7
  6
CONTINUOUS
 90
10
 70
0
 10
8.2391572356
 20
5.9405602011
 10
8.2381105553
 20
5.9969478165
 10
8.2370576955
 20
6.0505614755
 10
8.2360117082
 20
6.099296746
 10
8.2349562313
 20
6.1425615586
 10
8.2338905328
 20
6.1790162611
 10
8.2328293817
 20
6.2070901741
 10
8.2317844571
 20
6.2259556418
 10
8.2307406553
 20
6.2355936323
 10
8.2303033822
 20
6.2368254095
  0
LWPOLYLINE
  5
607
100
AcDbEntity
  8
0
100
AcDbPolyline
 62
7
  6
CONTINUOUS
 90
11
 70
0
 10
8.1971467519
 20
5.9411352841
 10
8.1992541363
 20
5.8244859758
 10
8.2003085591
 20
5.7677196011
 10
8.2013684292
 20
5.7138387816
 10
8.2024245407
 20
5.6647968419
 10
8.2034922527
 20
5.621307656
 10
8.2045696392
 20
5.5848679835
 10
8.2056415555
 20
5.5570618345
 10
8.2066973711
 20
5.5386789714
 10
8.2077509846
 20
5.5297501633
 10
8.2080952422
 20
5.528920008
  0
LWPOLYLINE
  5
608
100
AcDbEntity
  8
0
100
AcDbPolyline
 62
7
  6
CONTINUOUS
 90
11
 70
0
 10
8.2012434162
 20
5.8250739946
 10
8.1991494942
 20
5.9409848732
 10
8.1980870823
 20
5.9981826561
 10
8.1970268797
 20
6.0520686066
 10
8.1959814437
 20
6.1006260472
 10
8.1949303523
 20
6.1435373767
 10
8.1938723249
 20
6.1795697521
 10
8.1928218151
 20
6.207258866
 10
8.1917815532
 20
6.2259953981
 10
8.1907254011
 20
6.2356646611
 10
8.1903033822
 20
6.2368254095
  0
LINE
  5
609
100
AcDbEntity
  8
0
100
AcDbLine
 62
7
  6
CONTINUOUS
 10
8.1505352497
 20
5.549524052
 11
8.1515906382
 21
5.5439221
  0
LWPOLYLINE
  5
60A
100
AcDbEntity
  8
0
100
AcDbPolyline
 62
7
  6
CONTINUOUS
 90
10
 70
0
 10
8.1697509846
 20
5.5297501633
 10
8.1686973711
 20
5.5386789714
 10
8.1676415555
 20
5.5570618345
 10
8.1665696392
 20
5.5848679835
 10
8.1654922527
 20
5.621307656
 10
8.1644245407
 20
5.6647968419
 10
8.1633684292
 20
5.7138387816
 10
8.1623085591
 20
5.7677196011
 10
8.1612541363
 20
5.8244859758
 10
8.159164772
 20
5.9401466869
  0
LWPOLYLINE
  5
60B
100
AcDbEntity
  8
0
100
AcDbPolyline
 62
7
  6
CONTINUOUS
 90
10
 70
0
 10
8.2287254011
 20
6.2356646611
 10
8.2297815532
 20
6.2259953981
 10
8.2308218151
 20
6.207258866
 10
8.2318723249
 20
6.1795697521
 10
8.2329303523
 20
6.1435373767
 10
8.2339814437
 20
6.1006260472
 10
8.2350268797
 20
6.0520686066
 10
8.2360870823
 20
5.9981826561
 10
8.2371494942
 20
5.9409848732
 10
8.2392434162
 20
5.8250739946
  0
LWPOLYLINE
  5
60C
100
AcDbEntity
  8
0
100
AcDbPolyline
 62
7
  6
CONTINUOUS
 90
10
 70
0
 10
8.2496684134
 20
5.5301029346
 10
8.2486100189
 20
5.5398466958
 10
8.2475668197
 20
5.5587093618
 10
8.2465246581
 20
5.5862254628
 10
8.2454751609
 20
5.6219490131
 10
8.2444263421
 20
5.6647179438
 10
8.2433788442
 20
5.7133301557
 10
8.2423162518
 20
5.7673151882
 10
8.2412514511
 20
5.8246332487
 10
8.2391572356
 20
5.9405602011
  0
LWPOLYLINE
  5
60D
100
AcDbEntity
  8
0
100
AcDbPolyline
 62
7
  6
CONTINUOUS
 90
9
 70
0
 10
8.1887322265
 20
6.2356331301
 10
8.1897909939
 20
6.2258658873
 10
8.1908351786
 20
6.2069606255
 10
8.1918800191
 20
6.179336157
 10
8.1929243755
 20
6.1437621301
 10
8.1939710072
 20
6.1010833085
 10
8.1950186812
 20
6.0524689112
 10
8.1960815698
 20
5.9984724267
 10
8.1971467519
 20
5.9411352841
  0
LWPOLYLINE
  5
60E
100
AcDbEntity
  8
0
100
AcDbPolyline
 62
7
  6
CONTINUOUS
 90
10
 70
0
 10
8.2896637185
 20
5.5301247764
 10
8.2886058035
 20
5.5399046825
 10
8.2875614595
 20
5.5588292447
 10
8.2865115096
 20
5.5866250721
 10
8.2854665195
 20
5.6222739932
 10
8.2844244021
 20
5.664802912
 10
8.2833776069
 20
5.713390556
 10
8.2823154201
 20
5.7673589028
 10
8.2812510373
 20
5.8246559463
 10
8.2791504077
 20
5.9409347641
  0
LWPOLYLINE
  5
60F
100
AcDbEntity
  8
0
100
AcDbPolyline
 62
7
  6
CONTINUOUS
 90
19
 70
0
 10
8.2473489473
 20
6.2201092251
 10
8.24842194
 20
6.2095376611
 10
8.2494949327
 20
6.1897083036
 10
8.2505679254
 20
6.1611831234
 10
8.2516409181
 20
6.1247705334
 10
8.2527139108
 20
6.0815024786
 10
8.2537869035
 20
6.0326051901
 10
8.2548598962
 20
5.9794644332
 10
8.2559328889
 20
5.9235862347
 10
8.2570058816
 20
5.8665542014
 10
8.2580788743
 20
5.80998464
 10
8.259151867
 20
5.7554807507
 10
8.2602248597
 20
5.7045871918
 10
8.2612978524
 20
5.6587463038
 10
8.2623708451
 20
5.6192572327
 10
8.2634438378
 20
5.5872391119
 10
8.2645168305
 20
5.5635993455
 10
8.2655898232
 20
5.5490078925
 10
8.2666993122
 20
5.5438727088
  0
LWPOLYLINE
  5
610
100
AcDbEntity
  8
0
100
AcDbPolyline
 62
7
  6
CONTINUOUS
 90
6
 70
0
 10
8.3295395396
 20
5.530772093
 10
8.3284732043
 20
5.541805334
 10
8.3274139548
 20
5.5622181019
 10
8.3263395348
 20
5.5919674264
 10
8.3252628763
 20
5.6300701181
 10
8.3241993122
 20
5.6747967294
  0
LWPOLYLINE
  5
611
100
AcDbEntity
  8
0
100
AcDbPolyline
 62
7
  6
CONTINUOUS
 90
7
 70
0
 10
8.3406993122
 20
5.6836135082
 10
8.3417689844
 20
5.6405545226
 10
8.3428386565
 20
5.6043205759
 10
8.3439083286
 20
5.5759322193
 10
8.3449780008
 20
5.5561890281
 10
8.3460476729
 20
5.5456470814
 10
8.3466993122
 20
5.5438727088
  0
LWPOLYLINE
  5
612
100
AcDbEntity
  8
0
100
AcDbPolyline
 62
7
  6
CONTINUOUS
 90
7
 70
0
 10
8.3456993122
 20
5.6836135082
 10
8.3467719618
 20
5.6404436718
 10
8.3478446114
 20
5.6041399718
 10
8.348917261
 20
5.5757306109
 10
8.3499899105
 20
5.5560202061
 10
8.3510625601
 20
5.5455670005
 10
8.3515906382
 20
5.5439221
  0
LWPOLYLINE
  5
613
100
AcDbEntity
  8
0
100
AcDbPolyline
 62
7
  6
CONTINUOUS
 90
7
 70
0
 10
8.3621993122
 20
5.6747967294
 10
8.3632628763
 20
5.6300701181
 10
8.3643395348
 20
5.5919674264
 10
8.3654139548
 20
5.5622181019
 10
8.3664732043
 20
5.541805334
 10
8.3675395396
 20
5.530772093
 10
8.3680952422
 20
5.528920008
  0
LWPOLYLINE
  5
614
100
AcDbEntity
  8
0
100
AcDbPolyline
 62
7
  6
CONTINUOUS
 90
5
 70
0
 10
8.3241993122
 20
5.6747967294
 10
8.3232064701
 20
5.7218055345
 10
8.3222004527
 20
5.7734203827
 10
8.3211938516
 20
5.8277948332
 10
8.3201993122
 20
5.8828727088
  0
LWPOLYLINE
  5
615
100
AcDbEntity
  8
0
100
AcDbPolyline
 62
7
  6
CONTINUOUS
 90
11
 70
0
 10
8.2956336188
 20
5.9393562142
 10
8.2977796042
 20
5.8256228468
 10
8.2988525969
 20
5.770384151
 10
8.2999255896
 20
5.7183334183
 10
8.3009985823
 20
5.6709457839
 10
8.302071575
 20
5.629564229
 10
8.3031445677
 20
5.5953615207
 10
8.3042175604
 20
5.5693069751
 10
8.3052905531
 20
5.5521389867
 10
8.3063635458
 20
5.5443441019
 10
8.3066993122
 20
5.5438727088
  0
LWPOLYLINE
  5
616
100
AcDbEntity
  8
0
100
AcDbPolyline
 62
7
  6
CONTINUOUS
 90
9
 70
0
 10
8.3006336188
 20
5.9393562142
 10
8.3027796042
 20
5.8256228468
 10
8.3038525969
 20
5.770384151
 10
8.3049255896
 20
5.7183334183
 10
8.3059985823
 20
5.6709457839
 10
8.307071575
 20
5.629564229
 10
8.3081445677
 20
5.5953615207
 10
8.3092175604
 20
5.5693069751
 10
8.3102905531
 20
5.5521389867
  0
LWPOLYLINE
  5
617
100
AcDbEntity
  8
0
100
AcDbPolyline
 62
7
  6
CONTINUOUS
 90
10
 70
0
 10
8.2791504077
 20
5.9409347641
 10
8.278099514
 20
5.9975288594
 10
8.2770542778
 20
6.0507288218
 10
8.2760084343
 20
6.0994407826
 10
8.2749502042
 20
6.1427892066
 10
8.2738818375
 20
6.1792808877
 10
8.2728181519
 20
6.2073403708
 10
8.2717700143
 20
6.2261526678
 10
8.270720485
 20
6.2356871205
 10
8.2703033822
 20
6.2368254095
  0
LWPOLYLINE
  5
618
100
AcDbEntity
  8
0
100
AcDbPolyline
 62
7
  6
CONTINUOUS
 90
11
 70
0
 10
8.2771572356
 20
5.9405602011
 10
8.2792514511
 20
5.8246332487
 10
8.2803162518
 20
5.7673151882
 10
8.2813788442
 20
5.7133301557
 10
8.2824263421
 20
5.6647179438
 10
8.2834751609
 20
5.6219490131
 10
8.2845246581
 20
5.5862254628
 10
8.2855668197
 20
5.5587093618
 10
8.2866100189
 20
5.5398466958
 10
8.2876684134
 20
5.5301029346
 10
8.2880952422
 20
5.528920008
  0
LWPOLYLINE
  5
619
100
AcDbEntity
  8
0
100
AcDbPolyline
 62
7
  6
CONTINUOUS
 90
11
 70
0
 10
8.3171504077
 20
5.9409347641
 10
8.3192510373
 20
5.8246559463
 10
8.3203154201
 20
5.7673589028
 10
8.3213776069
 20
5.713390556
 10
8.3224244021
 20
5.664802912
 10
8.3234665195
 20
5.6222739932
 10
8.3245115096
 20
5.5866250721
 10
8.3255614595
 20
5.5588292447
 10
8.3266058035
 20
5.5399046825
 10
8.3276637185
 20
5.5301247764
 10
8.3280952422
 20
5.528920008
  0
LWPOLYLINE
  5
61A
100
AcDbEntity
  8
0
100
AcDbPolyline
 62
7
  6
CONTINUOUS
 90
11
 70
0
 10
8.3201993122
 20
5.8828727088
 10
8.319149305
 20
5.9409952514
 10
8.3180888131
 20
5.9980916579
 10
8.317032533
 20
6.0517924129
 10
8.3159900339
 20
6.1002492438
 10
8.3149354015
 20
6.1433473224
 10
8.3138709053
 20
6.1796128023
 10
8.312811198
 20
6.2074947973
 10
8.3117661343
 20
6.2262052974
 10
8.3107123478
 20
6.2357238332
 10
8.3103033822
 20
6.2368254095
  0
LWPOLYLINE
  5
61B
100
AcDbEntity
  8
0
100
AcDbPolyline
 62
7
  6
CONTINUOUS
 90
5
 70
0
 10
8.3581993122
 20
5.8828727088
 10
8.3591938516
 20
5.8277948332
 10
8.3602004527
 20
5.7734203827
 10
8.3612064701
 20
5.7218055345
 10
8.3621993122
 20
5.6747967294
  0
LWPOLYLINE
  5
61C
100
AcDbEntity
  8
0
100
AcDbPolyline
 62
7
  6
CONTINUOUS
 90
11
 70
0
 10
8.3612490043
 20
5.824767458
 10
8.3591482124
 20
5.9410551771
 10
8.3580845054
 20
5.9983181241
 10
8.357023047
 20
6.0522557777
 10
8.3559770194
 20
6.1008199637
 10
8.3549365994
 20
6.1433022101
 10
8.3538883018
 20
6.1790842089
 10
8.3528368868
 20
6.2069224003
 10
8.3517928506
 20
6.2258403276
 10
8.350735583
 20
6.2356174754
 10
8.3503033822
 20
6.2368254095
  0
LWPOLYLINE
  5
61D
100
AcDbEntity
  8
0
100
AcDbPolyline
 62
9
  6
CONTINUOUS
 90
7
 70
0
 10
8.9611993122
 20
5.3495210424
 10
8.9427523518
 20
5.3441725579
 10
8.9212543989
 20
5.3402571424
 10
8.8971692755
 20
5.3378245988
 10
8.8711248588
 20
5.3365875221
 10
8.8438770606
 20
5.3361034675
 10
8.8161993122
 20
5.3359915516
  0
LINE
  5
61E
100
AcDbEntity
  8
0
100
AcDbLine
 62
7
  6
CONTINUOUS
 10
8.5550698854
 20
4.8578727088
 11
9.077328739
 21
4.8578727088
  0
LINE
  5
61F
100
AcDbEntity
  8
0
100
AcDbLine
 62
7
  6
CONTINUOUS
 10
8.5261993122
 20
4.9078727088
 11
9.1061993122
 21
4.9078727088
  0
LINE
  5
620
100
AcDbEntity
  8
0
100
AcDbLine
 62
7
  6
CONTINUOUS
 10
8.2308890933
 20
5.5466144597
 11
8.2315906382
 21
5.5439221
  0
LINE
  5
621
100
AcDbEntity
  8
0
100
AcDbLine
 62
7
  6
CONTINUOUS
 10
8.2705898232
 20
5.5490078925
 11
8.2715906382
 21
5.5439221
  0
LWPOLYLINE
  5
622
100
AcDbEntity
  8
0
100
AcDbPolyline
 62
7
  6
CONTINUOUS
 90
3
 70
0
 10
8.3102905531
 20
5.5521389867
 10
8.3113635458
 20
5.5443441019
 10
8.3115906382
 20
5.5439221
  0
LWPOLYLINE
  5
623
100
AcDbEntity
  8
0
100
AcDbPolyline
 62
7
  6
CONTINUOUS
 90
20
 70
0
 10
8.1672409789
 20
6.2206463666
 10
8.1682993122
 20
6.2112224004
 10
8.1693576456
 20
6.1927448429
 10
8.1704159789
 20
6.1657231761
 10
8.1714743122
 20
6.1309024689
 10
8.1725326456
 20
6.0892428332
 10
8.1735909789
 20
6.0418929507
 10
8.1746493122
 20
5.9901584006
 10
8.1757076456
 20
5.9354656604
 10
8.1767659789
 20
5.8793227739
 10
8.1778243122
 20
5.8232777699
 10
8.1788826456
 20
5.768875978
 10
8.1799409789
 20
5.7176174198
 10
8.1809993122
 20
5.6709154483
 10
8.1820576456
 20
5.6300577777
 10
8.1831159789
 20
5.5961709772
 10
8.1841743122
 20
5.5701894081
 10
8.1852326456
 20
5.5528294607
 10
8.1862909789
 20
5.544569801
 10
8.1866993122
 20
5.5438727088
  0
LWPOLYLINE
  5
624
100
AcDbEntity
  8
0
100
AcDbPolyline
 62
7
  6
CONTINUOUS
 90
9
 70
0
 10
8.4096616288
 20
5.5301345599
 10
8.4086182839
 20
5.5397334394
 10
8.407572051
 20
5.5585925825
 10
8.4065097006
 20
5.5866801504
 10
8.4054428378
 20
5.6231670542
 10
8.4043862395
 20
5.6664784537
 10
8.4033397315
 20
5.7152425878
 10
8.4022882695
 20
5.7687870556
 10
8.4012432934
 20
5.8250807314
  0
LWPOLYLINE
  5
625
100
AcDbEntity
  8
0
100
AcDbPolyline
 62
7
  6
CONTINUOUS
 90
9
 70
0
 10
8.2687406553
 20
6.2355936323
 10
8.2697844571
 20
6.2259556418
 10
8.2708293817
 20
6.2070901741
 10
8.2718905328
 20
6.1790162611
 10
8.2729562313
 20
6.1425615586
 10
8.2740117082
 20
6.099296746
 10
8.2750576955
 20
6.0505614755
 10
8.2761105553
 20
5.9969478165
 10
8.2771572356
 20
5.9405602011
  0
LWPOLYLINE
  5
626
100
AcDbEntity
  8
0
100
AcDbPolyline
 62
7
  6
CONTINUOUS
 90
10
 70
0
 10
8.3992490043
 20
5.824767458
 10
8.4003025569
 20
5.7680352616
 10
8.4013481882
 20
5.7148285583
 10
8.4023930335
 20
5.6661795893
 10
8.4034509568
 20
5.6228604732
 10
8.4045190091
 20
5.5863969926
 10
8.4055824172
 20
5.5583618222
 10
8.4066304442
 20
5.5395678566
 10
8.4076814865
 20
5.5300431265
 10
8.4080952422
 20
5.528920008
  0
LWPOLYLINE
  5
627
100
AcDbEntity
  8
0
100
AcDbPolyline
 62
7
  6
CONTINUOUS
 90
9
 70
0
 10
8.4412326832
 20
5.8256628901
 10
8.4422660965
 20
5.7699549132
 10
8.4432995033
 20
5.7172161648
 10
8.4443328672
 20
5.6688348052
 10
8.4453662504
 20
5.6260797888
 10
8.4463996568
 20
5.5900754155
 10
8.4474330456
 20
5.5617697623
 10
8.4484663985
 20
5.5419068862
 10
8.4494997831
 20
5.531007658
  0
LWPOLYLINE
  5
628
100
AcDbEntity
  8
0
100
AcDbPolyline
 62
7
  6
CONTINUOUS
 90
11
 70
0
 10
8.4012432934
 20
5.8250807314
 10
8.3991468204
 20
5.941131531
 10
8.3980817074
 20
5.9984651956
 10
8.3970188857
 20
6.0524589251
 10
8.3959712217
 20
6.1010739176
 10
8.3949235865
 20
6.1437917838
 10
8.3938771693
 20
6.1794227259
 10
8.3928339624
 20
6.2069878272
 10
8.3917900942
 20
6.2258782621
 10
8.3907313815
 20
6.2356370559
 10
8.3903033822
 20
6.2368254095
  0
LWPOLYLINE
  5
629
100
AcDbEntity
  8
0
100
AcDbPolyline
 62
7
  6
CONTINUOUS
 90
11
 70
0
 10
8.4412326832
 20
5.8256628901
 10
8.4391497533
 20
5.9409706574
 10
8.4380876033
 20
5.9981552658
 10
8.4370276546
 20
6.0520307565
 10
8.4359824487
 20
6.100581985
 10
8.4349312865
 20
6.1435022253
 10
8.4338727218
 20
6.179557712
 10
8.4328212336
 20
6.2072718133
 10
8.4317809161
 20
6.2260041101
 10
8.4307250173
 20
6.2356664222
 10
8.4303033822
 20
6.2368254095
  0
LINE
  5
62A
100
AcDbEntity
  8
0
100
AcDbLine
 62
7
  6
CONTINUOUS
 10
8.4711993122
 20
6.2360088273
 11
8.4711993122
 21
5.5438676903
  0
LINE
  5
62B
100
AcDbEntity
  8
0
100
AcDbLine
 62
7
  6
CONTINUOUS
 10
8.5211993122
 20
4.9578727088
 11
9.1111993122
 21
4.9578727088
  0
LINE
  5
62C
100
AcDbEntity
  8
0
100
AcDbLine
 62
7
  6
CONTINUOUS
 10
8.5261993122
 20
4.9078727088
 11
8.5550668257
 21
4.8578727088
  0
LINE
  5
62D
100
AcDbEntity
  8
0
100
AcDbLine
 62
7
  6
CONTINUOUS
 10
8.1701988073
 20
5.5288727099
 11
8.1697509846
 21
5.5297501633
  0
LINE
  5
62E
100
AcDbEntity
  8
0
100
AcDbLine
 62
7
  6
CONTINUOUS
 10
8.2101993093
 20
5.5288727088
 11
8.2096694428
 21
5.5300981713
  0
LINE
  5
62F
100
AcDbEntity
  8
0
100
AcDbLine
 62
7
  6
CONTINUOUS
 10
8.2501993093
 20
5.5288727088
 11
8.2496684134
 21
5.5301029346
  0
LINE
  5
630
100
AcDbEntity
  8
0
100
AcDbLine
 62
7
  6
CONTINUOUS
 10
8.1912071247
 20
5.5448853469
 11
8.1915906382
 21
5.5439221
  0
LWPOLYLINE
  5
631
100
AcDbEntity
  8
0
100
AcDbPolyline
 62
7
  6
CONTINUOUS
 90
20
 70
0
 10
8.2068079862
 20
6.2218233175
 10
8.2076482173
 20
6.2181138949
 10
8.20872121
 20
6.2049186294
 10
8.2097942027
 20
6.1825964753
 10
8.2108671954
 20
6.15178005
 10
8.2119401881
 20
6.1133427012
 10
8.2130131808
 20
6.0683737562
 10
8.2140861735
 20
6.0181476497
 10
8.2151591662
 20
5.9640878065
 10
8.2162321589
 20
5.9077263003
 10
8.2173051516
 20
5.8506604351
 10
8.2183781444
 20
5.7945074765
 10
8.2194511371
 20
5.7408588179
 10
8.2205241298
 20
5.6912348802
 10
8.2215971225
 20
5.6470420224
 10
8.2226701152
 20
5.6095326846
 10
8.2237431079
 20
5.5797698941
 10
8.2248161006
 20
5.5585971381
 10
8.2258890933
 20
5.5466144597
 10
8.2266993122
 20
5.5438727088
  0
LWPOLYLINE
  5
632
100
AcDbEntity
  8
0
100
AcDbPolyline
 62
7
  6
CONTINUOUS
 90
9
 70
0
 10
8.2870496772
 20
6.2213594443
 10
8.2881226699
 20
6.2134349393
 10
8.2891956626
 20
6.1961421907
 10
8.2902686553
 20
6.1699712807
 10
8.291341648
 20
6.1356639018
 10
8.2924146407
 20
6.0941923363
 10
8.2934876334
 20
6.0467319023
 10
8.2945606261
 20
5.9946276443
 10
8.2956336188
 20
5.9393562142
  0
LWPOLYLINE
  5
633
100
AcDbEntity
  8
0
100
AcDbPolyline
 62
7
  6
CONTINUOUS
 90
10
 70
0
 10
8.3487123478
 20
6.2357238332
 10
8.3497661343
 20
6.2262052974
 10
8.350811198
 20
6.2074947973
 10
8.3518709053
 20
6.1796128023
 10
8.3529354015
 20
6.1433473224
 10
8.3539900339
 20
6.1002492438
 10
8.355032533
 20
6.0517924129
 10
8.3560888131
 20
5.9980916579
 10
8.357149305
 20
5.9409952514
 10
8.3581993122
 20
5.8828727088
  0
LWPOLYLINE
  5
634
100
AcDbEntity
  8
0
100
AcDbPolyline
 62
7
  6
CONTINUOUS
 90
9
 70
0
 10
8.3696814865
 20
5.5300431265
 10
8.3686304442
 20
5.5395678566
 10
8.3675824172
 20
5.5583618222
 10
8.3665190091
 20
5.5863969926
 10
8.3654509568
 20
5.6228604732
 10
8.3643930335
 20
5.6661795893
 10
8.3633481882
 20
5.7148285583
 10
8.3623025569
 20
5.7680352616
 10
8.3612490043
 20
5.824767458
  0
LWPOLYLINE
  5
635
100
AcDbEntity
  8
0
100
AcDbPolyline
 62
7
  6
CONTINUOUS
 90
9
 70
0
 10
8.308720485
 20
6.2356871205
 10
8.3097700143
 20
6.2261526678
 10
8.3108181519
 20
6.2073403708
 10
8.3118818375
 20
6.1792808877
 10
8.3129502042
 20
6.1427892066
 10
8.3140084343
 20
6.0994407826
 10
8.3150542778
 20
6.0507288218
 10
8.316099514
 20
5.9975288594
 10
8.3171504077
 20
5.9409347641
  0
LWPOLYLINE
  5
636
100
AcDbEntity
  8
0
100
AcDbPolyline
 62
7
  6
CONTINUOUS
 90
9
 70
0
 10
8.4287313815
 20
6.2356370559
 10
8.4297900942
 20
6.2258782621
 10
8.4308339624
 20
6.2069878272
 10
8.4318771693
 20
6.1794227259
 10
8.4329235865
 20
6.1437917838
 10
8.4339712217
 20
6.1010739176
 10
8.4350188857
 20
6.0524589251
 10
8.4360817074
 20
5.9984651956
 10
8.4371468204
 20
5.941131531
  0
LWPOLYLINE
  5
637
100
AcDbEntity
  8
0
100
AcDbPolyline
 62
7
  6
CONTINUOUS
 90
10
 70
0
 10
8.388735583
 20
6.2356174754
 10
8.3897928506
 20
6.2258403276
 10
8.3908368868
 20
6.2069224003
 10
8.3918883018
 20
6.1790842089
 10
8.3929365994
 20
6.1433022101
 10
8.3939770194
 20
6.1008199637
 10
8.395023047
 20
6.0522557777
 10
8.3960845054
 20
5.9983181241
 10
8.3971482124
 20
5.9410551771
 10
8.3992490043
 20
5.824767458
  0
LINE
  5
638
100
AcDbEntity
  8
0
100
AcDbLine
 62
7
  6
CONTINUOUS
 10
8.4701349431
 20
6.2206355588
 11
8.4690705376
 21
6.2335629518
  0
LINE
  5
639
100
AcDbEntity
  8
0
100
AcDbLine
 62
7
  6
CONTINUOUS
 10
8.4711993122
 20
6.1982890183
 11
8.4701349431
 21
6.2206355588
  0
LINE
  5
63A
100
AcDbEntity
  8
0
100
AcDbLine
 62
9
  6
CONTINUOUS
 10
8.5086993122
 20
5.5441227088
 11
8.5086993122
 21
6.2216227088
  0
LINE
  5
63B
100
AcDbEntity
  8
0
100
AcDbLine
 62
7
  6
CONTINUOUS
 10
8.5211993122
 20
4.9578727088
 11
8.5211993122
 21
6.4148727087
  0
LINE
  5
63C
100
AcDbEntity
  8
0
100
AcDbLine
 62
7
  6
CONTINUOUS
 10
8.5261993122
 20
4.9578727088
 11
8.5261993122
 21
4.9078727088
  0
LINE
  5
63D
100
AcDbEntity
  8
0
100
AcDbLine
 62
9
  6
CONTINUOUS
 10
8.5811993122
 20
5.3424144736
 11
8.5811993122
 21
6.4748727088
  0
LINE
  5
63E
100
AcDbEntity
  8
0
100
AcDbLine
 62
7
  6
CONTINUOUS
 10
8.370199633
 20
5.5288727092
 11
8.3696814865
 21
5.5300431265
  0
LINE
  5
63F
100
AcDbEntity
  8
0
100
AcDbLine
 62
7
  6
CONTINUOUS
 10
8.2901993084
 20
5.5288727088
 11
8.2896637185
 21
5.5301247764
  0
LINE
  5
640
100
AcDbEntity
  8
0
100
AcDbLine
 62
7
  6
CONTINUOUS
 10
8.1316993122
 20
6.2218727088
 11
8.1323399372
 21
6.2201577617
  0
LINE
  5
641
100
AcDbEntity
  8
0
100
AcDbLine
 62
7
  6
CONTINUOUS
 10
8.3301995671
 20
5.528872709
 11
8.3295395396
 21
5.530772093
  0
LINE
  5
642
100
AcDbEntity
  8
0
100
AcDbLine
 62
7
  6
CONTINUOUS
 10
8.148865609
 20
6.2349356089
 11
8.1481993114
 21
6.2368727088
  0
LWPOLYLINE
  5
643
100
AcDbEntity
  8
0
100
AcDbPolyline
 62
7
  6
CONTINUOUS
 90
10
 70
0
 10
8.1503033822
 20
6.2368254095
 10
8.1508885316
 20
6.2348001646
 10
8.1519230737
 20
6.223975006
 10
8.1529575796
 20
6.2041626559
 10
8.1539920877
 20
6.1758848474
 10
8.1550265951
 20
6.1398867105
 10
8.1560611094
 20
6.0971164106
 10
8.1570956278
 20
6.048700898
 10
8.1581301937
 20
5.9959135136
 10
8.159164772
 20
5.9401466869
  0
LWPOLYLINE
  5
644
100
AcDbEntity
  8
0
100
AcDbPolyline
 62
7
  6
CONTINUOUS
 90
19
 70
0
 10
8.2116993122
 20
6.2218727088
 10
8.2126482173
 20
6.2181138949
 10
8.21372121
 20
6.2049186294
 10
8.2147942027
 20
6.1825964753
 10
8.2158671954
 20
6.15178005
 10
8.2169401881
 20
6.1133427012
 10
8.2180131808
 20
6.0683737562
 10
8.2190861735
 20
6.0181476497
 10
8.2201591662
 20
5.9640878065
 10
8.2212321589
 20
5.9077263003
 10
8.2223051516
 20
5.8506604351
 10
8.2233781444
 20
5.7945074765
 10
8.2244511371
 20
5.7408588179
 10
8.2255241298
 20
5.6912348802
 10
8.2265971225
 20
5.6470420224
 10
8.2276701152
 20
5.6095326846
 10
8.2287431079
 20
5.5797698941
 10
8.2298161006
 20
5.5585971381
 10
8.2308890933
 20
5.5466144597
  0
LINE
  5
645
100
AcDbEntity
  8
0
100
AcDbLine
 62
7
  6
CONTINUOUS
 10
8.3907505943
 20
5.5476300427
 11
8.3915906382
 21
5.5439221
  0
LWPOLYLINE
  5
646
100
AcDbEntity
  8
0
100
AcDbPolyline
 62
7
  6
CONTINUOUS
 90
14
 70
0
 10
8.3316993122
 20
6.2218727088
 10
8.3328233998
 20
6.2166018531
 10
8.3338963925
 20
6.201883921
 10
8.3349693852
 20
6.178125105
 10
8.3360423779
 20
6.1459987378
 10
8.3371153706
 20
6.1064152915
 10
8.3381883633
 20
6.0604965741
 10
8.339261356
 20
6.0095439372
 10
8.3403343487
 20
5.9550013955
 10
8.3414073414
 20
5.8984147029
 10
8.3424803341
 20
5.841387545
 10
8.3435533268
 20
5.7855360904
 10
8.3446263195
 20
5.732443188
 10
8.3456993122
 20
5.6836135082
  0
LWPOLYLINE
  5
647
100
AcDbEntity
  8
0
100
AcDbPolyline
 62
7
  6
CONTINUOUS
 90
14
 70
0
 10
8.3268079862
 20
6.2218233175
 10
8.3278233998
 20
6.2166018531
 10
8.3288963925
 20
6.201883921
 10
8.3299693852
 20
6.178125105
 10
8.3310423779
 20
6.1459987378
 10
8.3321153706
 20
6.1064152915
 10
8.3331883633
 20
6.0604965741
 10
8.334261356
 20
6.0095439372
 10
8.3353343487
 20
5.9550013955
 10
8.3364073414
 20
5.8984147029
 10
8.3374803341
 20
5.841387545
 10
8.3385533268
 20
5.7855360904
 10
8.3396263195
 20
5.732443188
 10
8.3406993122
 20
5.6836135082
  0
LINE
  5
648
100
AcDbEntity
  8
0
100
AcDbLine
 62
7
  6
CONTINUOUS
 10
8.4304386285
 20
5.5504979557
 11
8.4315906382
 21
5.5439221
  0
LWPOLYLINE
  5
649
100
AcDbEntity
  8
0
100
AcDbPolyline
 62
7
  6
CONTINUOUS
 90
8
 70
0
 10
8.5211993122
 20
5.3508727088
 10
8.5230348435
 20
5.3383986001
 10
8.5281755737
 20
5.3307105115
 10
8.5358979222
 20
5.3270682467
 10
8.5454799567
 20
5.3267597689
 10
8.5563855978
 20
5.3292813993
 10
8.5683231539
 20
5.3344369654
 10
8.5811993122
 20
5.3424144736
  0
LWPOLYLINE
  5
64A
100
AcDbEntity
  8
0
100
AcDbPolyline
 62
7
  6
CONTINUOUS
 90
20
 70
0
 10
8.4070189844
 20
6.2214454138
 10
8.4080886565
 20
6.213831806
 10
8.4091583286
 20
6.196896534
 10
8.4102280008
 20
6.1711165901
 10
8.4112976729
 20
6.1372180822
 10
8.412367345
 20
6.0961557822
 10
8.4134370172
 20
6.0490862349
 10
8.4145066893
 20
5.9973351825
 10
8.4155763614
 20
5.9423602251
 10
8.4166460335
 20
5.8857097656
 10
8.4177157057
 20
5.8289793986
 10
8.4187853778
 20
5.7737669695
 10
8.4198550499
 20
5.7216275698
 10
8.4209247221
 20
5.6740297375
 10
8.4219943942
 20
5.6323140944
 10
8.4230640663
 20
5.5976555869
 10
8.4241337385
 20
5.571030393
 10
8.4252034106
 20
5.5531884275
 10
8.4262730827
 20
5.5446322201
 10
8.4266993122
 20
5.5438727088
  0
LWPOLYLINE
  5
64B
100
AcDbEntity
  8
0
100
AcDbPolyline
 62
9
  6
CONTINUOUS
 90
8
 70
0
 10
8.5211993122
 20
5.3508727088
 10
8.5242499135
 20
5.3237319549
 10
8.5327936622
 20
5.3030275302
 10
8.5456279879
 20
5.2887962475
 10
8.5615530593
 20
5.2805527052
 10
8.5796779276
 20
5.2777293642
 10
8.5995178097
 20
5.2800188053
 10
8.6209176221
 20
5.2876383011
  0
LINE
  5
64C
100
AcDbEntity
  8
AXIS_COSMETIC_THREADS
100
AcDbLine
 62
7
  6
CONTINUOUS
 10
8.6996993122
 20
4.8578727088
 11
8.6996993122
 21
3.5779514489
  0
LINE
  5
64D
100
AcDbEntity
  8
0
100
AcDbLine
 62
7
  6
CONTINUOUS
 10
8.1515906382
 20
5.5439221
 11
8.1680952422
 21
5.528920008
  0
LINE
  5
64E
100
AcDbEntity
  8
0
100
AcDbLine
 62
7
  6
CONTINUOUS
 10
8.1915906382
 20
5.5439221
 11
8.2080952422
 21
5.528920008
  0
LINE
  5
64F
100
AcDbEntity
  8
0
100
AcDbLine
 62
7
  6
CONTINUOUS
 10
8.2315906382
 20
5.5439221
 11
8.2480952422
 21
5.528920008
  0
LWPOLYLINE
  5
650
100
AcDbEntity
  8
0
100
AcDbPolyline
 62
7
  6
CONTINUOUS
 90
11
 70
0
 10
8.4480952422
 20
5.528920008
 10
8.4477802582
 20
5.529639357
 10
8.4467157271
 20
5.5384418194
 10
8.4456511904
 20
5.5568526991
 10
8.4445866072
 20
5.5843597669
 10
8.4435220102
 20
5.620195526
 10
8.4424574438
 20
5.6633585353
 10
8.4413929087
 20
5.7126440267
 10
8.44032836
 20
5.7666789918
 10
8.4392638332
 20
5.8239542171
 10
8.4371468204
 20
5.941131531
  0
LINE
  5
651
100
AcDbEntity
  8
0
100
AcDbLine
 62
7
  6
CONTINUOUS
 10
8.1881993089
 20
6.2368727088
 11
8.1887322265
 21
6.2356331301
  0
LINE
  5
652
100
AcDbEntity
  8
0
100
AcDbLine
 62
7
  6
CONTINUOUS
 10
8.4101987338
 20
5.5288727102
 11
8.4096616288
 21
5.5301345599
  0
LWPOLYLINE
  5
653
100
AcDbEntity
  8
0
100
AcDbPolyline
 62
7
  6
CONTINUOUS
 90
19
 70
0
 10
8.2516993122
 20
6.2218727088
 10
8.2523489473
 20
6.2201092251
 10
8.25342194
 20
6.2095376611
 10
8.2544949327
 20
6.1897083036
 10
8.2555679254
 20
6.1611831234
 10
8.2566409181
 20
6.1247705334
 10
8.2577139108
 20
6.0815024786
 10
8.2587869035
 20
6.0326051901
 10
8.2598598962
 20
5.9794644332
 10
8.2609328889
 20
5.9235862347
 10
8.2620058816
 20
5.8665542014
 10
8.2630788743
 20
5.80998464
 10
8.264151867
 20
5.7554807507
 10
8.2652248597
 20
5.7045871918
 10
8.2662978524
 20
5.6587463038
 10
8.2673708451
 20
5.6192572327
 10
8.2684438378
 20
5.5872391119
 10
8.2695168305
 20
5.5635993455
 10
8.2705898232
 20
5.5490078925
  0
LINE
  5
654
100
AcDbEntity
  8
0
100
AcDbLine
 62
7
  6
CONTINUOUS
 10
8.1668079862
 20
6.2218233175
 11
8.1672409789
 21
6.2206463666
  0
LINE
  5
655
100
AcDbEntity
  8
0
100
AcDbLine
 62
7
  6
CONTINUOUS
 10
8.4494997831
 20
5.531007658
 11
8.450199313
 21
5.5288727088
  0
LINE
  5
656
100
AcDbEntity
  8
0
100
AcDbLine
 62
7
  6
CONTINUOUS
 10
8.2468079862
 20
6.2218233175
 11
8.2473489473
 21
6.2201092251
  0
LWPOLYLINE
  5
657
100
AcDbEntity
  8
0
100
AcDbPolyline
 62
7
  6
CONTINUOUS
 90
20
 70
0
 10
8.3668079862
 20
6.2218233175
 10
8.3674411155
 20
6.2195739388
 10
8.3685107876
 20
6.2082412576
 10
8.3695804598
 20
6.1877443734
 10
8.3706501319
 20
6.1586605936
 10
8.371719804
 20
6.1218090804
 10
8.3727894762
 20
6.078227779
 10
8.3738591483
 20
6.0291441834
 10
8.3749288204
 20
5.9759407628
 10
8.3759984926
 20
5.9201160239
 10
8.3770681647
 20
5.8632423043
 10
8.3781378368
 20
5.8069214871
 10
8.379207509
 20
5.7527398822
 10
8.3802771811
 20
5.7022235474
 10
8.3813468532
 20
5.656795306
 10
8.3824165253
 20
5.6177346721
 10
8.3834861975
 20
5.5861418121
 10
8.3845558696
 20
5.5629065582
 10
8.3856255417
 20
5.5486833453
 10
8.3866993122
 20
5.5438727088
  0
LWPOLYLINE
  5
658
100
AcDbEntity
  8
0
100
AcDbPolyline
 62
9
  6
CONTINUOUS
 90
6
 70
0
 10
8.8161993122
 20
5.3359915516
 10
8.777984479
 20
5.3340614155
 10
8.737652827
 20
5.3278831446
 10
8.6968544562
 20
5.3174478766
 10
8.6573749173
 20
5.3035551939
 10
8.6209176221
 20
5.2876383011
  0
LINE
  5
659
100
AcDbEntity
  8
0
100
AcDbLine
 62
7
  6
CONTINUOUS
 10
9.1151993122
 20
5.2918727088
 11
9.1030414266
 21
5.2918727088
  0
LINE
  5
65A
100
AcDbEntity
  8
AXIS_COSMETIC_THREADS
100
AcDbLine
 62
7
  6
CONTINUOUS
 10
9.1030414266
 20
5.2918727088
 11
9.1151993122
 21
5.2918727088
  0
LINE
  5
65B
100
AcDbEntity
  8
0
100
AcDbLine
 62
7
  6
CONTINUOUS
 10
8.1680952422
 20
5.528920008
 11
8.1681997858
 21
5.5288727097
  0
LWPOLYLINE
  5
65C
100
AcDbEntity
  8
0
100
AcDbPolyline
 62
9
  6
CONTINUOUS
 90
6
 70
0
 10
8.5811993122
 20
5.3424144736
 10
8.5916007357
 20
5.3362967566
 10
8.6013451888
 20
5.3271056947
 10
8.6098171965
 20
5.3154218099
 10
8.6164816535
 20
5.3019830748
 10
8.6209176221
 20
5.2876383011
  0
LINE
  5
65D
100
AcDbEntity
  8
0
100
AcDbLine
 62
7
  6
CONTINUOUS
 10
8.2715906382
 20
5.5439221
 11
8.2880952422
 21
5.528920008
  0
LINE
  5
65E
100
AcDbEntity
  8
0
100
AcDbLine
 62
7
  6
CONTINUOUS
 10
8.3115906382
 20
5.5439221
 11
8.3280952422
 21
5.528920008
  0
LINE
  5
65F
100
AcDbEntity
  8
0
100
AcDbLine
 62
7
  6
CONTINUOUS
 10
8.3515906382
 20
5.5439221
 11
8.3680952422
 21
5.528920008
  0
LINE
  5
660
100
AcDbEntity
  8
0
100
AcDbLine
 62
7
  6
CONTINUOUS
 10
8.3915906382
 20
5.5439221
 11
8.4080952422
 21
5.528920008
  0
LINE
  5
661
100
AcDbEntity
  8
0
100
AcDbLine
 62
7
  6
CONTINUOUS
 10
8.2281993081
 20
6.2368727088
 11
8.2287254011
 21
6.2356646611
  0
LINE
  5
662
100
AcDbEntity
  8
0
100
AcDbLine
 62
7
  6
CONTINUOUS
 10
8.2681998943
 20
6.2368727073
 11
8.2687406553
 21
6.2355936323
  0
LWPOLYLINE
  5
663
100
AcDbEntity
  8
0
100
AcDbPolyline
 62
7
  6
CONTINUOUS
 90
19
 70
0
 10
8.3716993122
 20
6.2218727088
 10
8.3725155515
 20
6.2190901173
 10
8.3735882011
 20
6.207060021
 10
8.3746608507
 20
6.1858482098
 10
8.3757335003
 20
6.1560554498
 10
8.3768061498
 20
6.1185255392
 10
8.3778787994
 20
6.0743214095
 10
8.378951449
 20
6.0246950214
 10
8.3800240986
 20
5.9710519059
 10
8.3810967481
 20
5.9149113569
 10
8.3821693977
 20
5.8578634011
 10
8.3832420473
 20
5.8015237654
 10
8.3843146968
 20
5.7474881149
 10
8.3853873464
 20
5.6972868612
 10
8.386459996
 20
5.6523418167
 10
8.3875326456
 20
5.6139259264
 10
8.3886052951
 20
5.5831272148
 10
8.3896779447
 20
5.5608179709
 10
8.3907505943
 20
5.5476300427
  0
LINE
  5
664
100
AcDbEntity
  8
0
100
AcDbLine
 62
7
  6
CONTINUOUS
 10
8.4690705376
 20
6.2335629518
 11
8.4681993135
 21
6.2368727088
  0
LWPOLYLINE
  5
665
100
AcDbEntity
  8
0
100
AcDbPolyline
 62
7
  6
CONTINUOUS
 90
20
 70
0
 10
8.4468079862
 20
6.2218233175
 10
8.4476665253
 20
6.2179677337
 10
8.4487361975
 20
6.2046685073
 10
8.4498058696
 20
6.1823057066
 10
8.4508755417
 20
6.1515091935
 10
8.4519452139
 20
6.1131463706
 10
8.453014886
 20
6.0682977501
 10
8.4540845581
 20
6.0182265206
 10
8.4551542303
 20
5.9643429687
 10
8.4562239024
 20
5.9081647574
 10
8.4572935745
 20
5.8512741803
 10
8.4583632467
 20
5.7952735948
 10
8.4594329188
 20
5.7417402917
 10
8.4605025909
 20
5.6921820688
 10
8.4615722631
 20
5.6479947637
 10
8.4626419352
 20
5.6104229387
 10
8.4637116073
 20
5.580524827
 10
8.4647812794
 20
5.5591425272
 10
8.4658509516
 20
5.5468782847
 10
8.4666993122
 20
5.5438727088
  0
LINE
  5
666
100
AcDbEntity
  8
0
100
AcDbLine
 62
7
  6
CONTINUOUS
 10
8.4703033822
 20
6.2368254095
 11
8.4711993122
 21
6.2325143813
  0
LWPOLYLINE
  5
667
100
AcDbEntity
  8
0
100
AcDbPolyline
 62
9
  6
CONTINUOUS
 90
6
 70
0
 10
8.8161993122
 20
5.3863180385
 10
8.7702119706
 20
5.3845655222
 10
8.7216772706
 20
5.3789558039
 10
8.6725809261
 20
5.3694808366
 10
8.6250716505
 20
5.3568666216
 10
8.5811993122
 20
5.3424144736
  0
LINE
  5
668
100
AcDbEntity
  8
0
100
AcDbLine
 62
7
  6
CONTINUOUS
 10
8.4080952422
 20
5.528920008
 11
8.408199633
 21
5.5288727092
  0
LINE
  5
669
100
AcDbEntity
  8
0
100
AcDbLine
 62
7
  6
CONTINUOUS
 10
8.3680952422
 20
5.528920008
 11
8.3681995671
 21
5.528872709
  0
LINE
  5
66A
100
AcDbEntity
  8
0
100
AcDbLine
 62
7
  6
CONTINUOUS
 10
8.2480952422
 20
5.528920008
 11
8.2481993093
 21
5.5288727088
  0
LINE
  5
66B
100
AcDbEntity
  8
0
100
AcDbLine
 62
7
  6
CONTINUOUS
 10
8.2880952422
 20
5.528920008
 11
8.2881993093
 21
5.5288727088
  0
LINE
  5
66C
100
AcDbEntity
  8
0
100
AcDbLine
 62
7
  6
CONTINUOUS
 10
8.3280952422
 20
5.528920008
 11
8.3281993084
 21
5.5288727088
  0
LINE
  5
66D
100
AcDbEntity
  8
0
100
AcDbLine
 62
7
  6
CONTINUOUS
 10
8.2080952422
 20
5.528920008
 11
8.2081988073
 21
5.5288727099
  0
LINE
  5
66E
100
AcDbEntity
  8
0
100
AcDbLine
 62
7
  6
CONTINUOUS
 10
8.4315906382
 20
5.5439221
 11
8.4480952422
 21
5.528920008
  0
LINE
  5
66F
100
AcDbEntity
  8
0
100
AcDbLine
 62
7
  6
CONTINUOUS
 10
8.2868079862
 20
6.2218233175
 11
8.2870496772
 21
6.2213594443
  0
LINE
  5
670
100
AcDbEntity
  8
0
100
AcDbLine
 62
7
  6
CONTINUOUS
 10
8.3481988187
 20
6.2368727077
 11
8.3487123478
 21
6.2357238332
  0
LINE
  5
671
100
AcDbEntity
  8
0
100
AcDbLine
 62
7
  6
CONTINUOUS
 10
8.3081992165
 20
6.2368727087
 11
8.308720485
 21
6.2356871205
  0
LINE
  5
672
100
AcDbEntity
  8
0
100
AcDbLine
 62
7
  6
CONTINUOUS
 10
8.4281993088
 20
6.2368727088
 11
8.4287313815
 21
6.2356370559
  0
LINE
  5
673
100
AcDbEntity
  8
0
100
AcDbLine
 62
7
  6
CONTINUOUS
 10
8.3881993097
 20
6.2368727088
 11
8.388735583
 21
6.2356174754
  0
LINE
  5
674
100
AcDbEntity
  8
AXIS_COSMETIC_THREADS
100
AcDbLine
 62
7
  6
CONTINUOUS
 10
8.9326993122
 20
4.8578727088
 11
8.9326993122
 21
3.5779514489
  0
LINE
  5
675
100
AcDbEntity
  8
0
100
AcDbLine
 62
7
  6
CONTINUOUS
 10
8.9611993122
 20
5.3461931023
 11
8.9611993122
 21
6.4748664875
  0
LINE
  5
676
100
AcDbEntity
  8
AXIS_COSMETIC_THREADS
100
AcDbLine
 62
7
  6
CONTINUOUS
 10
8.9761993122
 20
5.3416234927
 11
8.9761993122
 21
6.4738727088
  0
LINE
  5
677
100
AcDbEntity
  8
0
100
AcDbLine
 62
7
  6
CONTINUOUS
 10
8.4501993122
 20
5.5288727088
 11
8.4481993122
 21
5.5288727088
  0
LINE
  5
678
100
AcDbEntity
  8
0
100
AcDbLine
 62
7
  6
CONTINUOUS
 10
8.4101993122
 20
5.5288727088
 11
8.4081993122
 21
5.5288727088
  0
LINE
  5
679
100
AcDbEntity
  8
0
100
AcDbLine
 62
7
  6
CONTINUOUS
 10
8.3701993122
 20
5.5288727088
 11
8.3681993122
 21
5.5288727088
  0
LINE
  5
67A
100
AcDbEntity
  8
0
100
AcDbLine
 62
7
  6
CONTINUOUS
 10
8.3301993122
 20
5.5288727088
 11
8.3281993122
 21
5.5288727088
  0
LINE
  5
67B
100
AcDbEntity
  8
0
100
AcDbLine
 62
7
  6
CONTINUOUS
 10
8.2901993122
 20
5.5288727088
 11
8.2881993122
 21
5.5288727088
  0
LINE
  5
67C
100
AcDbEntity
  8
0
100
AcDbLine
 62
7
  6
CONTINUOUS
 10
8.2501993122
 20
5.5288727088
 11
8.2481993122
 21
5.5288727088
  0
LINE
  5
67D
100
AcDbEntity
  8
0
100
AcDbLine
 62
7
  6
CONTINUOUS
 10
8.2101993122
 20
5.5288727088
 11
8.2081993122
 21
5.5288727088
  0
LINE
  5
67E
100
AcDbEntity
  8
0
100
AcDbLine
 62
7
  6
CONTINUOUS
 10
8.1701993122
 20
5.5288727088
 11
8.1681993122
 21
5.5288727088
  0
LINE
  5
67F
100
AcDbEntity
  8
0
100
AcDbLine
 62
7
  6
CONTINUOUS
 10
8.1466993122
 20
5.5438727088
 11
8.1516993122
 21
5.5438727088
  0
LINE
  5
680
100
AcDbEntity
  8
0
100
AcDbLine
 62
7
  6
CONTINUOUS
 10
8.1866993122
 20
5.5438727088
 11
8.1916993122
 21
5.5438727088
  0
LINE
  5
681
100
AcDbEntity
  8
0
100
AcDbLine
 62
7
  6
CONTINUOUS
 10
8.2266993122
 20
5.5438727088
 11
8.2316993122
 21
5.5438727088
  0
LINE
  5
682
100
AcDbEntity
  8
0
100
AcDbLine
 62
7
  6
CONTINUOUS
 10
8.2666993122
 20
5.5438727088
 11
8.2716993122
 21
5.5438727088
  0
LINE
  5
683
100
AcDbEntity
  8
0
100
AcDbLine
 62
7
  6
CONTINUOUS
 10
8.3066993122
 20
5.5438727088
 11
8.3116993122
 21
5.5438727088
  0
LINE
  5
684
100
AcDbEntity
  8
0
100
AcDbLine
 62
7
  6
CONTINUOUS
 10
8.3466993122
 20
5.5438727088
 11
8.3516993122
 21
5.5438727088
  0
LINE
  5
685
100
AcDbEntity
  8
0
100
AcDbLine
 62
7
  6
CONTINUOUS
 10
8.3866993122
 20
5.5438727088
 11
8.3916993122
 21
5.5438727088
  0
LINE
  5
686
100
AcDbEntity
  8
0
100
AcDbLine
 62
7
  6
CONTINUOUS
 10
8.4266993122
 20
5.5438727088
 11
8.4316993122
 21
5.5438727088
  0
LINE
  5
687
100
AcDbEntity
  8
0
100
AcDbLine
 62
7
  6
CONTINUOUS
 10
8.4666993122
 20
5.5438727088
 11
8.4711993122
 21
5.5438727088
  0
LINE
  5
688
100
AcDbEntity
  8
0
100
AcDbLine
 62
7
  6
CONTINUOUS
 10
8.5086993122
 20
5.5441227088
 11
8.4711993122
 21
5.5441227088
  0
LINE
  5
689
100
AcDbEntity
  8
02___PRT_ALL_AXES
100
AcDbLine
 62
7
  6
CONTINUOUS
 10
8.1301993122
 20
5.563975071
 11
7.9097268713
 21
5.563975071
  0
LWPOLYLINE
  5
68A
100
AcDbEntity
  8
0
100
AcDbPolyline
 62
7
  6
CONTINUOUS
 90
3
 70
0
 10
8.9611993122
 20
5.3461931023
 10
9.0019721069
 20
5.333772052
 10
9.0379041842
 20
5.3205978202
  0
LWPOLYLINE
  5
68B
100
AcDbEntity
  8
0
100
AcDbPolyline
 62
7
  6
CONTINUOUS
 90
3
 70
0
 10
9.0379041842
 20
5.3205978202
 10
9.0671833749
 20
5.3084225371
 10
9.0889873552
 20
5.2985668673
  0
LINE
  5
68C
100
AcDbEntity
  8
0
100
AcDbLine
 62
7
  6
CONTINUOUS
 10
8.4481993103
 20
5.5288727088
 11
8.4480952422
 21
5.528920008
  0
LWPOLYLINE
  5
68D
100
AcDbEntity
  8
0
100
AcDbPolyline
 62
7
  6
CONTINUOUS
 90
3
 70
0
 10
9.0889873552
 20
5.2985668673
 10
9.103280862
 20
5.291758662
 10
9.1103243865
 20
5.28830601
  0
LINE
  5
68E
100
AcDbEntity
  8
0
100
AcDbLine
 62
7
  6
CONTINUOUS
 10
9.1103243865
 20
5.28830601
 11
9.1111993122
 21
5.2878744311
  0
LWPOLYLINE
  5
68F
100
AcDbEntity
  8
0
100
AcDbPolyline
 62
9
  6
CONTINUOUS
 90
7
 70
0
 10
8.9611993122
 20
5.3495210424
 10
8.9492860667
 20
5.3576839931
 10
8.9318206227
 20
5.3661546666
 10
8.9087544355
 20
5.3740993401
 10
8.8807844711
 20
5.3806046192
 10
8.8493138858
 20
5.3848521317
 10
8.8161993122
 20
5.3863180385
  0
LWPOLYLINE
  5
690
100
AcDbEntity
  8
0
100
AcDbPolyline
 62
7
  6
CONTINUOUS
 90
10
 70
0
 10
8.2916993122
 20
6.2218727088
 10
8.2920496772
 20
6.2213594443
 10
8.2931226699
 20
6.2134349393
 10
8.2941956626
 20
6.1961421907
 10
8.2952686553
 20
6.1699712807
 10
8.296341648
 20
6.1356639018
 10
8.2974146407
 20
6.0941923363
 10
8.2984876334
 20
6.0467319023
 10
8.2995606261
 20
5.9946276443
 10
8.3006336188
 20
5.9393562142
  0
LINE
  5
691
100
AcDbEntity
  8
0
100
AcDbLine
 62
7
  6
CONTINUOUS
 10
8.4068079862
 20
6.2218233175
 11
8.4070189844
 21
6.2214454138
  0
LWPOLYLINE
  5
692
100
AcDbEntity
  8
0
100
AcDbPolyline
 62
7
  6
CONTINUOUS
 90
19
 70
0
 10
8.4116993122
 20
6.2218727088
 10
8.4122035857
 20
6.2208097543
 10
8.4132762353
 20
6.211525844
 10
8.4143488849
 20
6.1929337366
 10
8.4154215345
 20
6.1655600024
 10
8.416494184
 20
6.1301799273
 10
8.4175668336
 20
6.0877955545
 10
8.4186394832
 20
6.0396073052
 10
8.4197121327
 20
5.9869799789
 10
8.4207847823
 20
5.9314041003
 10
8.4218574319
 20
5.8744537033
 10
8.4229300815
 20
5.8177417516
 10
8.424002731
 20
5.7628744552
 10
8.4250753806
 20
5.7114057798
 10
8.4261480302
 20
5.664793434
 10
8.4272206798
 20
5.6243575845
 10
8.4282933293
 20
5.5912434658
 10
8.4293659789
 20
5.5663889442
 10
8.4304386285
 20
5.5504979557
  0
LWPOLYLINE
  5
693
100
AcDbEntity
  8
0
100
AcDbPolyline
 62
9
  6
CONTINUOUS
 90
28
 70
0
 10
9.055681951
 20
5.5623432252
 10
9.0562377677
 20
5.5426892825
 10
9.0569572984
 20
5.5236203235
 10
9.0578554613
 20
5.5051659437
 10
9.0589468907
 20
5.4873539135
 10
9.0602457631
 20
5.4702121706
 10
9.0617656798
 20
5.4537681678
 10
9.0635204967
 20
5.4380405013
 10
9.0655244924
 20
5.423042693
 10
9.0677920568
 20
5.4087881798
 10
9.070334694
 20
5.3953050908
 10
9.0731580207
 20
5.382637278
 10
9.0762886038
 20
5.3707351226
 10
9.0797788197
 20
5.3594490055
 10
9.0835396523
 20
5.3489087635
 10
9.0874326442
 20
5.3392728329
 10
9.0913146415
 20
5.3306521361
 10
9.0950530383
 20
5.3231031506
 10
9.0985335888
 20
5.3166369072
 10
9.1016782757
 20
5.311206335
 10
9.1045037493
 20
5.306632846
 10
9.1070046306
 20
5.3028141492
 10
9.1091762175
 20
5.2996698483
 10
9.1110168194
 20
5.2971317826
 10
9.1125235357
 20
5.2951459177
 10
9.1136951083
 20
5.2936653454
 10
9.1145314022
 20
5.2926491485
 10
9.1150325644
 20
5.2920620046
  0
LINE
  5
694
100
AcDbEntity
  8
0
100
AcDbLine
 62
7
  6
CONTINUOUS
 10
9.1061993122
 20
4.9578727088
 11
9.1061993122
 21
4.9078727088
  0
LINE
  5
695
100
AcDbEntity
  8
0
100
AcDbLine
 62
7
  6
CONTINUOUS
 10
9.1111993122
 20
4.9578727088
 11
9.1111993122
 21
5.2883060127
  0
LINE
  5
696
100
AcDbEntity
  8
0
100
AcDbLine
 62
7
  6
CONTINUOUS
 10
9.1161993122
 20
6.4138727088
 11
9.1161993122
 21
5.2928727088
  0
LINE
  5
697
100
AcDbEntity
  8
0
100
AcDbLine
 62
9
  6
CONTINUOUS
 10
9.0561993122
 20
6.4738727088
 11
9.0561977943
 21
5.8828727089
  0
LWPOLYLINE
  5
698
100
AcDbEntity
  8
0
100
AcDbPolyline
 62
9
  6
CONTINUOUS
 90
16
 70
0
 10
9.0561977943
 20
5.8828727089
 10
9.0561973686
 20
5.8776791389
 10
9.0561434066
 20
5.8540561182
 10
9.0560274317
 20
5.8304952011
 10
9.0558650017
 20
5.806961045
 10
9.0556713028
 20
5.7834159601
 10
9.0554623634
 20
5.7599011226
 10
9.055255455
 20
5.7365384452
 10
9.0550679985
 20
5.7134431763
 10
9.0549167228
 20
5.6906690728
 10
9.0548179663
 20
5.6682359484
 10
9.0547880997
 20
5.6461642638
 10
9.054843532
 20
5.6244960188
 10
9.0550004117
 20
5.6032798037
 10
9.0552746517
 20
5.5825509464
 10
9.055681951
 20
5.5623432252
  0
LINE
  5
699
100
AcDbEntity
  8
0
100
AcDbLine
 62
7
  6
CONTINUOUS
 10
9.1061993122
 20
4.9078727088
 11
9.0773317988
 21
4.8578727088
  0
LWPOLYLINE
  5
69A
100
AcDbEntity
  8
0
100
AcDbPolyline
 62
7
  6
CONTINUOUS
 90
20
 70
0
 10
8.1716993122
 20
6.2218727088
 10
8.1719414997
 20
6.2216274297
 10
8.1730118122
 20
6.2146936215
 10
8.1740821247
 20
6.1984027086
 10
8.1751524372
 20
6.1732140827
 10
8.1762227497
 20
6.1398380444
 10
8.1772930622
 20
6.0992157735
 10
8.1783633747
 20
6.0524927879
 10
8.1794336872
 20
6.0009866414
 10
8.1805039997
 20
5.9461497691
 10
8.1815743122
 20
5.8895285305
 10
8.1826446247
 20
5.8327196026
 10
8.1837149372
 20
5.7773249553
 10
8.1847852497
 20
5.7249066767
 10
8.1858555622
 20
5.6769429235
 10
8.1869258747
 20
5.6347862382
 10
8.1879961872
 20
5.5996254082
 10
8.1890664997
 20
5.5724519429
 10
8.1901368122
 20
5.5540321139
 10
8.1912071247
 20
5.5448853469
  0
LINE
  5
69B
100
AcDbEntity
  8
0
100
AcDbLine
 62
7
  6
CONTINUOUS
 10
8.1668079862
 20
6.2218233175
 11
8.1503033822
 21
6.2368254095
  0
LINE
  5
69C
100
AcDbEntity
  8
0
100
AcDbLine
 62
7
  6
CONTINUOUS
 10
8.2068079862
 20
6.2218233175
 11
8.1903033822
 21
6.2368254095
  0
LINE
  5
69D
100
AcDbEntity
  8
0
100
AcDbLine
 62
7
  6
CONTINUOUS
 10
8.2468079862
 20
6.2218233175
 11
8.2303033822
 21
6.2368254095
  0
LINE
  5
69E
100
AcDbEntity
  8
0
100
AcDbLine
 62
9
  6
CONTINUOUS
 10
9.1150325644
 20
5.2920620046
 11
9.1151993122
 21
5.2918727088
  0
LINE
  5
69F
100
AcDbEntity
  8
0
100
AcDbLine
 62
7
  6
CONTINUOUS
 10
8.2868079862
 20
6.2218233175
 11
8.2703033822
 21
6.2368254095
  0
LINE
  5
6A0
100
AcDbEntity
  8
0
100
AcDbLine
 62
7
  6
CONTINUOUS
 10
8.3268079862
 20
6.2218233175
 11
8.3103033822
 21
6.2368254095
  0
LINE
  5
6A1
100
AcDbEntity
  8
0
100
AcDbLine
 62
7
  6
CONTINUOUS
 10
8.3668079862
 20
6.2218233175
 11
8.3503033822
 21
6.2368254095
  0
LINE
  5
6A2
100
AcDbEntity
  8
0
100
AcDbLine
 62
7
  6
CONTINUOUS
 10
8.4068079862
 20
6.2218233175
 11
8.3903033822
 21
6.2368254095
  0
LWPOLYLINE
  5
6A3
100
AcDbEntity
  8
0
100
AcDbPolyline
 62
7
  6
CONTINUOUS
 90
20
 70
0
 10
8.4516993122
 20
6.2218727088
 10
8.4518916199
 20
6.2217180517
 10
8.4529642695
 20
6.2152026169
 10
8.4540369191
 20
6.1992748504
 10
8.4551095686
 20
6.1743858624
 10
8.4561822182
 20
6.1412405653
 10
8.4572548678
 20
6.1007777084
 10
8.4583275174
 20
6.0541432911
 10
8.4594001669
 20
6.002658105
 10
8.4604728165
 20
5.9477803267
 10
8.4615454661
 20
5.8910642184
 10
8.4626181157
 20
5.8341161081
 10
8.4636907652
 20
5.7785488945
 10
8.4647634148
 20
5.7259363664
 10
8.4658360644
 20
5.6777686291
 10
8.4669087139
 20
5.6354099013
 10
8.4679813635
 20
5.6000598777
 10
8.4690540131
 20
5.5727197506
 10
8.4701266627
 20
5.554163854
 10
8.4711993122
 20
5.5449177326
  0
LINE
  5
6A4
100
AcDbEntity
  8
0
100
AcDbLine
 62
7
  6
CONTINUOUS
 10
8.4468079862
 20
6.2218233175
 11
8.4303033822
 21
6.2368254095
  0
LINE
  5
6A5
100
AcDbEntity
  8
0
100
AcDbLine
 62
7
  6
CONTINUOUS
 10
8.4711993122
 20
6.2360110367
 11
8.4703033822
 21
6.2368254095
  0
LINE
  5
6A6
100
AcDbEntity
  8
0
100
AcDbLine
 62
7
  6
CONTINUOUS
 10
8.3103033822
 20
6.2368254095
 11
8.3101988187
 21
6.2368727077
  0
LINE
  5
6A7
100
AcDbEntity
  8
0
100
AcDbLine
 62
7
  6
CONTINUOUS
 10
8.2703033822
 20
6.2368254095
 11
8.2701992165
 21
6.2368727087
  0
LINE
  5
6A8
100
AcDbEntity
  8
0
100
AcDbLine
 62
7
  6
CONTINUOUS
 10
8.1501993113
 20
6.2368727088
 11
8.1503033822
 21
6.2368254095
  0
LINE
  5
6A9
100
AcDbEntity
  8
0
100
AcDbLine
 62
7
  6
CONTINUOUS
 10
8.1903033822
 20
6.2368254095
 11
8.1901993081
 21
6.2368727088
  0
LINE
  5
6AA
100
AcDbEntity
  8
0
100
AcDbLine
 62
7
  6
CONTINUOUS
 10
8.3503033822
 20
6.2368254095
 11
8.3501993097
 21
6.2368727088
  0
LINE
  5
6AB
100
AcDbEntity
  8
0
100
AcDbLine
 62
7
  6
CONTINUOUS
 10
8.3903033822
 20
6.2368254095
 11
8.3901993088
 21
6.2368727088
  0
LINE
  5
6AC
100
AcDbEntity
  8
0
100
AcDbLine
 62
7
  6
CONTINUOUS
 10
8.2303033822
 20
6.2368254095
 11
8.2301998943
 21
6.2368727073
  0
LINE
  5
6AD
100
AcDbEntity
  8
0
100
AcDbLine
 62
7
  6
CONTINUOUS
 10
8.4303033822
 20
6.2368254095
 11
8.4301993082
 21
6.2368727088
  0
LINE
  5
6AE
100
AcDbEntity
  8
0
100
AcDbLine
 62
7
  6
CONTINUOUS
 10
8.4701993126
 20
6.2368727088
 11
8.4703033822
 21
6.2368254095
  0
LINE
  5
6AF
100
AcDbEntity
  8
02___PRT_ALL_AXES
100
AcDbLine
 62
7
  6
CONTINUOUS
 10
8.1301993122
 20
6.2017703465
 11
7.9097268713
 21
6.2017703465
  0
LINE
  5
6B0
100
AcDbEntity
  8
0
100
AcDbLine
 62
7
  6
CONTINUOUS
 10
8.5086993122
 20
6.2216227088
 11
8.4711993122
 21
6.2216227088
  0
LINE
  5
6B1
100
AcDbEntity
  8
0
100
AcDbLine
 62
7
  6
CONTINUOUS
 10
8.4516993122
 20
6.2218727088
 11
8.4466993122
 21
6.2218727088
  0
LINE
  5
6B2
100
AcDbEntity
  8
0
100
AcDbLine
 62
7
  6
CONTINUOUS
 10
8.4116993122
 20
6.2218727088
 11
8.4066993122
 21
6.2218727088
  0
LINE
  5
6B3
100
AcDbEntity
  8
0
100
AcDbLine
 62
7
  6
CONTINUOUS
 10
8.3716993122
 20
6.2218727088
 11
8.3666993122
 21
6.2218727088
  0
LINE
  5
6B4
100
AcDbEntity
  8
0
100
AcDbLine
 62
7
  6
CONTINUOUS
 10
8.3316993122
 20
6.2218727088
 11
8.3266993122
 21
6.2218727088
  0
LINE
  5
6B5
100
AcDbEntity
  8
0
100
AcDbLine
 62
7
  6
CONTINUOUS
 10
8.2916993122
 20
6.2218727088
 11
8.2866993122
 21
6.2218727088
  0
LINE
  5
6B6
100
AcDbEntity
  8
0
100
AcDbLine
 62
7
  6
CONTINUOUS
 10
8.2516993122
 20
6.2218727088
 11
8.2466993122
 21
6.2218727088
  0
LINE
  5
6B7
100
AcDbEntity
  8
0
100
AcDbLine
 62
7
  6
CONTINUOUS
 10
8.2116993122
 20
6.2218727088
 11
8.2066993122
 21
6.2218727088
  0
LINE
  5
6B8
100
AcDbEntity
  8
0
100
AcDbLine
 62
7
  6
CONTINUOUS
 10
8.1716993122
 20
6.2218727088
 11
8.1666993122
 21
6.2218727088
  0
LINE
  5
6B9
100
AcDbEntity
  8
0
100
AcDbLine
 62
7
  6
CONTINUOUS
 10
8.1316993122
 20
6.2218727088
 11
8.1301993122
 21
6.2218727088
  0
LINE
  5
6BA
100
AcDbEntity
  8
0
100
AcDbLine
 62
7
  6
CONTINUOUS
 10
8.4701993122
 20
6.2368727088
 11
8.4681993122
 21
6.2368727088
  0
LINE
  5
6BB
100
AcDbEntity
  8
0
100
AcDbLine
 62
7
  6
CONTINUOUS
 10
8.4301993122
 20
6.2368727088
 11
8.4281993122
 21
6.2368727088
  0
LINE
  5
6BC
100
AcDbEntity
  8
0
100
AcDbLine
 62
7
  6
CONTINUOUS
 10
8.3901993122
 20
6.2368727088
 11
8.3881993122
 21
6.2368727088
  0
LINE
  5
6BD
100
AcDbEntity
  8
0
100
AcDbLine
 62
7
  6
CONTINUOUS
 10
8.3501993122
 20
6.2368727088
 11
8.3481993122
 21
6.2368727088
  0
LINE
  5
6BE
100
AcDbEntity
  8
0
100
AcDbLine
 62
7
  6
CONTINUOUS
 10
8.3101993122
 20
6.2368727088
 11
8.3081993122
 21
6.2368727088
  0
LINE
  5
6BF
100
AcDbEntity
  8
0
100
AcDbLine
 62
7
  6
CONTINUOUS
 10
8.2701993122
 20
6.2368727088
 11
8.2681993122
 21
6.2368727088
  0
LINE
  5
6C0
100
AcDbEntity
  8
0
100
AcDbLine
 62
7
  6
CONTINUOUS
 10
8.2301993122
 20
6.2368727088
 11
8.2281993122
 21
6.2368727088
  0
LINE
  5
6C1
100
AcDbEntity
  8
0
100
AcDbLine
 62
7
  6
CONTINUOUS
 10
8.1901993122
 20
6.2368727088
 11
8.1881993122
 21
6.2368727088
  0
LINE
  5
6C2
100
AcDbEntity
  8
0
100
AcDbLine
 62
7
  6
CONTINUOUS
 10
8.1501993122
 20
6.2368727088
 11
8.1481993122
 21
6.2368727088
  0
LINE
  5
6C3
100
AcDbEntity
  8
0
100
AcDbLine
 62
7
  6
CONTINUOUS
 10
8.9611993122
 20
6.4468727088
 11
8.9761993122
 21
6.4468727088
  0
LINE
  5
6C4
100
AcDbEntity
  8
0
100
AcDbLine
 62
7
  6
CONTINUOUS
 10
9.0561993122
 20
6.4738727088
 11
8.9761993122
 21
6.4738727088
  0
LINE
  5
6C5
100
AcDbEntity
  8
AXIS_COSMETIC_THREADS
100
AcDbLine
 62
7
  6
CONTINUOUS
 10
8.9761993122
 20
6.4738727088
 11
9.0561993122
 21
6.4738727088
  0
LINE
  5
6C6
100
AcDbEntity
  8
0
100
AcDbLine
 62
7
  6
CONTINUOUS
 10
8.9611993122
 20
6.4748727088
 11
8.5811993122
 21
6.4748727088
  0
LWPOLYLINE
  5
6C7
100
AcDbEntity
  8
0
100
AcDbPolyline
 62
7
  6
CONTINUOUS
 90
3
 70
0
 10
3.4202574627
 20
9.1299960065
 10
3.4202370792
 20
9.1299134734
 10
3.4202146519
 20
9.1295163062
  0
LINE
  5
6C8
100
AcDbEntity
  8
0
100
AcDbLine
 62
7
  6
CONTINUOUS
 10
3.4232293742
 20
9.1477461749
 11
3.423288005
 21
9.1478845557
  0
LWPOLYLINE
  5
6C9
100
AcDbEntity
  8
0
100
AcDbPolyline
 62
7
  6
CONTINUOUS
 90
3
 70
0
 10
3.4265271807
 20
9.1373845557
 10
3.4264459935
 20
9.137243593
 10
3.4263865523
 20
9.1368544714
  0
LINE
  5
6CA
100
AcDbEntity
  8
0
100
AcDbLine
 62
7
  6
CONTINUOUS
 10
3.4278961525
 20
9.1375232233
 11
3.4278078575
 21
9.1373845557
  0
LWPOLYLINE
  5
6CB
100
AcDbEntity
  8
0
100
AcDbPolyline
 62
7
  6
CONTINUOUS
 90
3
 70
0
 10
3.424325672
 20
9.1216928775
 10
3.4243794649
 20
9.1217759154
 10
3.4244396681
 20
9.1221735641
  0
LINE
  5
6CC
100
AcDbEntity
  8
0
100
AcDbLine
 62
7
  6
CONTINUOUS
 10
4.2595768973
 20
8.2246939878
 11
3.7635139051
 21
8.2246939878
  0
LWPOLYLINE
  5
6CD
100
AcDbEntity
  8
0
100
AcDbPolyline
 62
7
  6
CONTINUOUS
 90
4
 70
0
 10
3.4263654427
 20
9.1166687344
 10
3.4263868827
 20
9.1161450572
 10
3.4264466327
 20
9.1157573106
 10
3.4265271807
 20
9.1156187344
  0
LWPOLYLINE
  5
6CE
100
AcDbEntity
  8
0
100
AcDbPolyline
 62
7
  6
CONTINUOUS
 90
3
 70
0
 10
3.4244610879
 20
9.1363345557
 10
3.4244429398
 20
9.1368585249
 10
3.4243927483
 20
9.137246103
  0
LWPOLYLINE
  5
6CF
100
AcDbEntity
  8
0
100
AcDbPolyline
 62
7
  6
CONTINUOUS
 90
3
 70
0
 10
3.4195718526
 20
9.1051187344
 10
3.4195671264
 20
9.1052592788
 10
3.4195639365
 20
9.1056481927
  0
LINE
  5
6D0
100
AcDbEntity
  8
0
100
AcDbLine
 62
7
  6
CONTINUOUS
 10
3.4231856755
 20
9.1379143091
 11
3.4231703232
 21
9.1384345557
  0
LWPOLYLINE
  5
6D1
100
AcDbEntity
  8
0
100
AcDbPolyline
 62
7
  6
CONTINUOUS
 90
4
 70
0
 10
3.4202067739
 20
9.1166687344
 10
3.4202134327
 20
9.1161442104
 10
3.420232052
 20
9.1157569361
 10
3.4202573824
 20
9.1156187344
  0
LWPOLYLINE
  5
6D2
100
AcDbEntity
  8
0
100
AcDbPolyline
 62
7
  6
CONTINUOUS
 90
3
 70
0
 10
3.4195742833
 20
9.1379100779
 10
3.4195782509
 20
9.1375228799
 10
3.4195839628
 20
9.1373845557
  0
LINE
  5
6D3
100
AcDbEntity
  8
0
100
AcDbLine
 62
7
  6
CONTINUOUS
 10
3.4195454012
 20
9.3470325705
 11
3.4195454012
 21
9.2035030229
  0
LINE
  5
6D4
100
AcDbEntity
  8
0
100
AcDbLine
 62
7
  6
CONTINUOUS
 10
3.4195454012
 20
9.0505591643
 11
3.4195454012
 21
8.9670325705
  0
LINE
  5
6D5
100
AcDbEntity
  8
0
100
AcDbLine
 62
7
  6
CONTINUOUS
 10
3.4195628597
 20
9.1145687344
 11
3.4195639365
 21
9.1056481927
  0
LINE
  5
6D6
100
AcDbEntity
  8
0
100
AcDbLine
 62
7
  6
CONTINUOUS
 10
3.4195729133
 20
9.1468345557
 11
3.4195742833
 21
9.1379100779
  0
LINE
  5
6D7
100
AcDbEntity
  8
0
100
AcDbLine
 62
7
  6
CONTINUOUS
 10
3.4197170363
 20
9.1468345557
 11
3.4197170363
 21
9.1166687344
  0
LINE
  5
6D8
100
AcDbEntity
  8
0
100
AcDbLine
 62
7
  6
CONTINUOUS
 10
3.4202067739
 20
9.1289496563
 11
3.4202067739
 21
9.1166687344
  0
LINE
  5
6D9
100
AcDbEntity
  8
AXIS_COSMETIC_THREADS
100
AcDbLine
 62
7
  6
CONTINUOUS
 10
3.4205454012
 20
9.3620325705
 11
3.4205454012
 21
9.4420309465
  0
LINE
  5
6DA
100
AcDbEntity
  8
0
100
AcDbLine
 62
7
  6
CONTINUOUS
 10
3.4207688852
 20
9.1145687344
 11
3.4207688852
 21
9.1061687344
  0
LINE
  5
6DB
100
AcDbEntity
  8
0
100
AcDbLine
 62
7
  6
CONTINUOUS
 10
3.4231703232
 20
9.1468345557
 11
3.4231703232
 21
9.1384345557
  0
LINE
  5
6DC
100
AcDbEntity
  8
0
100
AcDbLine
 62
7
  6
CONTINUOUS
 10
3.4244610879
 20
9.1363345557
 11
3.4244610879
 21
9.1227391693
  0
LINE
  5
6DD
100
AcDbEntity
  8
0
100
AcDbLine
 62
7
  6
CONTINUOUS
 10
3.4263654427
 20
9.1363345557
 11
3.4263654427
 21
9.1166687344
  0
LINE
  5
6DE
100
AcDbEntity
  8
0
100
AcDbLine
 62
7
  6
CONTINUOUS
 10
3.427986118
 20
9.1468345557
 11
3.427986118
 21
9.1384345557
  0
LINE
  5
6DF
100
AcDbEntity
  8
0
100
AcDbLine
 62
7
  6
CONTINUOUS
 10
3.427986118
 20
9.1145687344
 11
3.427986118
 21
9.1061687344
  0
LINE
  5
6E0
100
AcDbEntity
  8
0
100
AcDbLine
 62
7
  6
CONTINUOUS
 10
3.4298927793
 20
9.1468345557
 11
3.4298927793
 21
9.1384345557
  0
LWPOLYLINE
  5
6E1
100
AcDbEntity
  8
0
100
AcDbPolyline
 62
7
  6
CONTINUOUS
 90
4
 70
0
 10
3.4195628597
 20
9.114568743
 10
3.4195639546
 20
9.1150932714
 10
3.4195671606
 20
9.1154804804
 10
3.4195718526
 20
9.1156187344
  0
LWPOLYLINE
  5
6E2
100
AcDbEntity
  8
0
100
AcDbPolyline
 62
7
  6
CONTINUOUS
 90
4
 70
0
 10
3.4197170363
 20
9.1468345557
 10
3.4197204354
 20
9.1473591468
 10
3.4197300229
 20
9.1477463836
 10
3.4197432578
 20
9.1478845557
  0
LINE
  5
6E3
100
AcDbEntity
  8
0
100
AcDbLine
 62
7
  6
CONTINUOUS
 10
3.4197137108
 20
9.1161470823
 11
3.4197170363
 21
9.1166687842
  0
LINE
  5
6E4
100
AcDbEntity
  8
0
100
AcDbLine
 62
7
  6
CONTINUOUS
 10
3.4202146519
 20
9.1295163062
 11
3.4202067739
 21
9.1289496563
  0
LWPOLYLINE
  5
6E5
100
AcDbEntity
  8
0
100
AcDbPolyline
 62
7
  6
CONTINUOUS
 90
3
 70
0
 10
3.4207688852
 20
9.1061687344
 10
3.4207598639
 20
9.1056442737
 10
3.4207350441
 20
9.1052569667
  0
LWPOLYLINE
  5
6E6
100
AcDbEntity
  8
0
100
AcDbPolyline
 62
7
  6
CONTINUOUS
 90
3
 70
0
 10
3.4231703232
 20
9.1468345557
 10
3.4231859229
 20
9.1473586758
 10
3.4232293742
 20
9.1477461749
  0
LINE
  5
6E7
100
AcDbEntity
  8
0
100
AcDbLine
 62
7
  6
CONTINUOUS
 10
3.4244396681
 20
9.1221735641
 11
3.4244610879
 21
9.1227391693
  0
LINE
  5
6E8
100
AcDbEntity
  8
0
100
AcDbLine
 62
7
  6
CONTINUOUS
 10
3.4263865523
 20
9.1368544714
 11
3.4263654427
 21
9.1363345557
  0
LINE
  5
6E9
100
AcDbEntity
  8
0
100
AcDbLine
 62
7
  6
CONTINUOUS
 10
3.427986118
 20
9.1384345557
 11
3.4279622717
 21
9.137911071
  0
LWPOLYLINE
  5
6EA
100
AcDbEntity
  8
0
100
AcDbPolyline
 62
7
  6
CONTINUOUS
 90
4
 70
0
 10
3.427986118
 20
9.1061687344
 10
3.4279622717
 20
9.1056452498
 10
3.4278961525
 20
9.105257402
 10
3.4278078575
 20
9.1051187344
  0
LWPOLYLINE
  5
6EB
100
AcDbEntity
  8
0
100
AcDbPolyline
 62
7
  6
CONTINUOUS
 90
4
 70
0
 10
3.4298927793
 20
9.1468345557
 10
3.4299186964
 20
9.1473526225
 10
3.4299917218
 20
9.1477415336
 10
3.4300926961
 20
9.1478845557
  0
LINE
  5
6EC
100
AcDbEntity
  8
0
100
AcDbLine
 62
7
  6
CONTINUOUS
 10
3.4407338318
 20
9.1384345557
 11
3.4406963944
 21
9.1379173705
  0
LWPOLYLINE
  5
6ED
100
AcDbEntity
  8
0
100
AcDbPolyline
 62
7
  6
CONTINUOUS
 90
4
 70
0
 10
3.4425629779
 20
9.1468345557
 10
3.4426020963
 20
9.1473515441
 10
3.4427125292
 20
9.1477407635
 10
3.4428656979
 20
9.1478845557
  0
LWPOLYLINE
  5
6EE
100
AcDbEntity
  8
0
100
AcDbPolyline
 62
7
  6
CONTINUOUS
 90
3
 70
0
 10
3.4196926052
 20
9.1156187344
 10
3.4197045682
 20
9.1157580114
 10
3.4197137108
 20
9.1161470823
  0
LWPOLYLINE
  5
6EF
100
AcDbEntity
  8
0
100
AcDbPolyline
 62
7
  6
CONTINUOUS
 90
5
 70
0
 10
3.4427848513
 20
9.1210956434
 10
3.4428318296
 20
9.1216276748
 10
3.4427925229
 20
9.1221747506
 10
3.4426803946
 20
9.1225673783
 10
3.4425295796
 20
9.1227082015
  0
LWPOLYLINE
  5
6F0
100
AcDbEntity
  8
0
100
AcDbPolyline
 62
7
  6
CONTINUOUS
 90
5
 70
0
 10
3.4445377965
 20
9.1357719975
 10
3.4445865301
 20
9.1362951205
 10
3.4445476345
 20
9.136839969
 10
3.444430424
 20
9.1372414082
 10
3.4442724318
 20
9.1373845557
  0
LWPOLYLINE
  5
6F1
100
AcDbEntity
  8
0
100
AcDbPolyline
 62
7
  6
CONTINUOUS
 90
4
 70
0
 10
3.4537799399
 20
9.1384345557
 10
3.453731755
 20
9.137918591
 10
3.4535957926
 20
9.1375290349
 10
3.4534075663
 20
9.1373845557
  0
LINE
  5
6F2
100
AcDbEntity
  8
0
100
AcDbLine
 62
7
  6
CONTINUOUS
 10
3.4279622717
 20
9.137911071
 11
3.4278961525
 21
9.1375232233
  0
LINE
  5
6F3
100
AcDbEntity
  8
0
100
AcDbLine
 62
7
  6
CONTINUOUS
 10
3.4207350441
 20
9.1052569667
 11
3.4207022112
 21
9.1051187344
  0
LINE
  5
6F4
100
AcDbEntity
  8
0
100
AcDbLine
 62
7
  6
CONTINUOUS
 10
3.4406963944
 20
9.1379173705
 11
3.4405911347
 21
9.137528223
  0
LINE
  5
6F5
100
AcDbEntity
  8
0
100
AcDbLine
 62
7
  6
CONTINUOUS
 10
3.4418141333
 20
9.1159798815
 11
3.4419215988
 21
9.1163370929
  0
LWPOLYLINE
  5
6F6
100
AcDbEntity
  8
0
100
AcDbPolyline
 62
7
  6
CONTINUOUS
 90
3
 70
0
 10
3.4435614346
 20
9.1056061763
 10
3.4434498946
 20
9.1052490406
 10
3.4433016548
 20
9.1051187344
  0
LWPOLYLINE
  5
6F7
100
AcDbEntity
  8
0
100
AcDbPolyline
 62
7
  6
CONTINUOUS
 90
3
 70
0
 10
3.4580685551
 20
9.1209863767
 10
3.4588556464
 20
9.1230125052
 10
3.4597777305
 20
9.1247035113
  0
LWPOLYLINE
  5
6F8
100
AcDbEntity
  8
0
100
AcDbPolyline
 62
7
  6
CONTINUOUS
 90
3
 70
0
 10
3.4586844549
 20
9.1445801122
 10
3.4605416251
 20
9.1468818198
 10
3.4626486391
 20
9.1478845557
  0
LWPOLYLINE
  5
6F9
100
AcDbEntity
  8
0
100
AcDbPolyline
 62
7
  6
CONTINUOUS
 90
4
 70
0
 10
3.4388075974
 20
9.1373845557
 10
3.4386672822
 20
9.1372360642
 10
3.4385660231
 20
9.1368261878
 10
3.4385345076
 20
9.1362799248
  0
LWPOLYLINE
  5
6FA
100
AcDbEntity
  8
0
100
AcDbPolyline
 62
7
  6
CONTINUOUS
 90
5
 70
0
 10
3.440097923
 20
9.1227082015
 10
3.4399501732
 20
9.1225540262
 10
3.4398461954
 20
9.1221374055
 10
3.4398154177
 20
9.1215976547
 10
3.4398601131
 20
9.1210877373
  0
LINE
  5
6FB
100
AcDbEntity
  8
0
100
AcDbLine
 62
7
  6
CONTINUOUS
 10
3.4405911347
 20
9.137528223
 11
3.4404461343
 21
9.1373845557
  0
LWPOLYLINE
  5
6FC
100
AcDbEntity
  8
0
100
AcDbPolyline
 62
7
  6
CONTINUOUS
 90
3
 70
0
 10
3.4435792073
 20
9.1315963419
 10
3.4437290913
 20
9.1317280098
 10
3.4438405931
 20
9.1320837838
  0
LWPOLYLINE
  5
6FD
100
AcDbEntity
  8
0
100
AcDbPolyline
 62
7
  6
CONTINUOUS
 90
3
 70
0
 10
3.4202934089
 20
9.1297093374
 10
3.4202670737
 20
9.1299810563
 10
3.4202574627
 20
9.1299960065
  0
LINE
  5
6FE
100
AcDbEntity
  8
0
100
AcDbLine
 62
7
  6
CONTINUOUS
 10
3.4385345076
 20
9.1362799248
 11
3.4385777845
 21
9.1357640914
  0
LINE
  5
6FF
100
AcDbEntity
  8
0
100
AcDbLine
 62
7
  6
CONTINUOUS
 10
3.4426034866
 20
9.1379091125
 11
3.4425629779
 21
9.1384345557
  0
LINE
  5
700
100
AcDbEntity
  8
0
100
AcDbLine
 62
7
  6
CONTINUOUS
 10
3.4406950598
 20
9.1473602318
 11
3.4407338318
 21
9.1468345557
  0
LINE
  5
701
100
AcDbEntity
  8
0
100
AcDbLine
 62
7
  6
CONTINUOUS
 10
3.4574007122
 20
9.1139154399
 11
3.4573011432
 21
9.1154277303
  0
LINE
  5
702
100
AcDbEntity
  8
0
100
AcDbLine
 62
7
  6
CONTINUOUS
 10
3.4299196535
 20
9.1379076949
 11
3.4298927793
 21
9.1384345557
  0
LINE
  5
703
100
AcDbEntity
  8
0
100
AcDbLine
 62
7
  6
CONTINUOUS
 10
3.4279626355
 20
9.1473543117
 11
3.427986118
 21
9.1468345557
  0
LINE
  5
704
100
AcDbEntity
  8
0
100
AcDbLine
 62
7
  6
CONTINUOUS
 10
3.4571368409
 20
9.1364127671
 11
3.4571268756
 21
9.1370456946
  0
LINE
  5
705
100
AcDbEntity
  8
0
100
AcDbLine
 62
7
  6
CONTINUOUS
 10
3.4395454012
 20
9.1958729544
 11
3.4395454012
 21
9.1478845557
  0
LINE
  5
706
100
AcDbEntity
  8
0
100
AcDbLine
 62
7
  6
CONTINUOUS
 10
3.4395454012
 20
9.1051187344
 11
3.4395454012
 21
9.0581925135
  0
LINE
  5
707
100
AcDbEntity
  8
0
100
AcDbLine
 62
7
  6
CONTINUOUS
 10
3.4407338318
 20
9.1468345557
 11
3.4407338318
 21
9.1384345557
  0
LINE
  5
708
100
AcDbEntity
  8
0
100
AcDbLine
 62
7
  6
CONTINUOUS
 10
3.4425629779
 20
9.1468345557
 11
3.4425629779
 21
9.1384345557
  0
LINE
  5
709
100
AcDbEntity
  8
0
100
AcDbLine
 62
7
  6
CONTINUOUS
 10
3.4475454012
 20
9.3470325705
 11
3.4475454012
 21
9.3620325705
  0
LINE
  5
70A
100
AcDbEntity
  8
0
100
AcDbLine
 62
7
  6
CONTINUOUS
 10
3.4537799399
 20
9.1468345557
 11
3.4537799399
 21
9.1384345557
  0
LINE
  5
70B
100
AcDbEntity
  8
0
100
AcDbLine
 62
7
  6
CONTINUOUS
 10
3.4795657794
 20
9.1363345557
 11
3.4795657794
 21
9.1310845557
  0
LINE
  5
70C
100
AcDbEntity
  8
0
100
AcDbLine
 62
7
  6
CONTINUOUS
 10
3.4795657794
 20
9.1219187344
 11
3.4795657794
 21
9.1166687344
  0
LINE
  5
70D
100
AcDbEntity
  8
0
100
AcDbLine
 62
7
  6
CONTINUOUS
 10
3.4928862879
 20
9.1363345557
 11
3.4928862879
 21
9.1166687344
  0
LWPOLYLINE
  5
70E
100
AcDbEntity
  8
0
100
AcDbPolyline
 62
7
  6
CONTINUOUS
 90
5
 70
0
 10
3.4573011432
 20
9.1154277303
 10
3.4573228693
 20
9.1169634875
 10
3.4574643245
 20
9.1184453071
 10
3.4577171476
 20
9.1198046625
 10
3.4580685551
 20
9.1209863767
  0
LINE
  5
70F
100
AcDbEntity
  8
0
100
AcDbLine
 62
7
  6
CONTINUOUS
 10
3.4571268756
 20
9.1370456946
 11
3.4571400127
 21
9.137680578
  0
LWPOLYLINE
  5
710
100
AcDbEntity
  8
0
100
AcDbPolyline
 62
7
  6
CONTINUOUS
 90
6
 70
0
 10
3.4571400127
 20
9.137680578
 10
3.4572462134
 20
9.1393478068
 10
3.4574650242
 20
9.1409202314
 10
3.4577860705
 20
9.142342076
 10
3.4581966191
 20
9.1435715083
 10
3.4586844549
 20
9.1445801122
  0
LWPOLYLINE
  5
711
100
AcDbEntity
  8
0
100
AcDbPolyline
 62
7
  6
CONTINUOUS
 90
4
 70
0
 10
3.5158365392
 20
9.1363345557
 10
3.5159122647
 20
9.1368433026
 10
3.5161336556
 20
9.1372382855
 10
3.5164425748
 20
9.1373845557
  0
LWPOLYLINE
  5
712
100
AcDbEntity
  8
0
100
AcDbPolyline
 62
7
  6
CONTINUOUS
 90
4
 70
0
 10
3.4998223727
 20
9.1384345557
 10
3.4997426546
 20
9.1379158148
 10
3.4995198966
 20
9.1375277812
 10
3.4992130396
 20
9.1373845557
  0
LWPOLYLINE
  5
713
100
AcDbEntity
  8
0
100
AcDbPolyline
 62
7
  6
CONTINUOUS
 90
4
 70
0
 10
3.4998223727
 20
9.1061687344
 10
3.4997426546
 20
9.1056499935
 10
3.4995198966
 20
9.10526196
 10
3.4992130396
 20
9.1051187344
  0
LWPOLYLINE
  5
714
100
AcDbEntity
  8
0
100
AcDbPolyline
 62
7
  6
CONTINUOUS
 90
6
 70
0
 10
3.5228341897
 20
9.1042395613
 10
3.5265496453
 20
9.1084134352
 10
3.5296750491
 20
9.11280882
 10
3.5320858687
 20
9.1174619245
 10
3.5336008286
 20
9.122310779
 10
3.5340896441
 20
9.1270325705
  0
LINE
  5
715
100
AcDbEntity
  8
0
100
AcDbLine
 62
7
  6
CONTINUOUS
 10
3.4416714113
 20
9.115849651
 11
3.4418141333
 21
9.1159798815
  0
LWPOLYLINE
  5
716
100
AcDbEntity
  8
0
100
AcDbPolyline
 62
7
  6
CONTINUOUS
 90
3
 70
0
 10
3.4500725515
 20
9.1373845557
 10
3.4499025256
 20
9.1372526096
 10
3.4497770255
 20
9.1368971138
  0
LINE
  5
717
100
AcDbEntity
  8
0
100
AcDbLine
 62
9
  6
CONTINUOUS
 10
4.330443039
 20
8.2955601295
 11
3.6926477634
 21
8.2955601295
  0
LWPOLYLINE
  5
718
100
AcDbEntity
  8
0
100
AcDbPolyline
 62
7
  6
CONTINUOUS
 90
4
 70
0
 10
3.4207022112
 20
9.1156187344
 10
3.4207352997
 20
9.1154781907
 10
3.4207600096
 20
9.1150892341
 10
3.4207688852
 20
9.1145687344
  0
LINE
  5
719
100
AcDbEntity
  8
0
100
AcDbLine
 62
7
  6
CONTINUOUS
 10
3.4998223727
 20
9.1468345557
 11
3.4998223727
 21
9.1384345557
  0
LINE
  5
71A
100
AcDbEntity
  8
0
100
AcDbLine
 62
7
  6
CONTINUOUS
 10
3.4998223727
 20
9.1145687344
 11
3.4998223727
 21
9.1061687344
  0
LINE
  5
71B
100
AcDbEntity
  8
0
100
AcDbLine
 62
7
  6
CONTINUOUS
 10
3.5158365392
 20
9.1363345557
 11
3.5158365392
 21
9.1166687344
  0
LINE
  5
71C
100
AcDbEntity
  8
0
100
AcDbLine
 62
7
  6
CONTINUOUS
 10
3.5230984154
 20
9.1468345557
 11
3.5230984154
 21
9.1384345557
  0
LINE
  5
71D
100
AcDbEntity
  8
0
100
AcDbLine
 62
7
  6
CONTINUOUS
 10
3.5230984154
 20
9.1145687344
 11
3.5230984154
 21
9.1061687344
  0
LWPOLYLINE
  5
71E
100
AcDbEntity
  8
0
100
AcDbPolyline
 62
7
  6
CONTINUOUS
 90
4
 70
0
 10
3.4790544091
 20
9.1156187344
 10
3.4793110794
 20
9.115760961
 10
3.4794990694
 20
9.1161507159
 10
3.4795657794
 20
9.1166687344
  0
LWPOLYLINE
  5
71F
100
AcDbEntity
  8
0
100
AcDbPolyline
 62
7
  6
CONTINUOUS
 90
4
 70
0
 10
3.4790544091
 20
9.1300345557
 10
3.4793075095
 20
9.1301725602
 10
3.4794971001
 20
9.1305594849
 10
3.4795657794
 20
9.1310845557
  0
LWPOLYLINE
  5
720
100
AcDbEntity
  8
0
100
AcDbPolyline
 62
7
  6
CONTINUOUS
 90
8
 70
0
 10
3.4708815861
 20
9.1373845557
 10
3.4701904175
 20
9.1370390237
 10
3.4696255099
 20
9.1360464689
 10
3.4693005472
 20
9.1345541135
 10
3.4692998134
 20
9.1328721198
 10
3.4696240161
 20
9.1313767694
 10
3.4701907036
 20
9.1303797857
 10
3.4708815861
 20
9.1300345557
  0
LWPOLYLINE
  5
721
100
AcDbEntity
  8
0
100
AcDbPolyline
 62
7
  6
CONTINUOUS
 90
8
 70
0
 10
3.4708815861
 20
9.1229687344
 10
3.4701907036
 20
9.1226235043
 10
3.4696240161
 20
9.1216265206
 10
3.4692998134
 20
9.1201311703
 10
3.4693005472
 20
9.1184491765
 10
3.4696255099
 20
9.1169568212
 10
3.4701904175
 20
9.1159642664
 10
3.4708815861
 20
9.1156187344
  0
LWPOLYLINE
  5
722
100
AcDbEntity
  8
0
100
AcDbPolyline
 62
7
  6
CONTINUOUS
 90
4
 70
0
 10
3.4934654651
 20
9.1373845557
 10
3.4931732591
 20
9.1372414924
 10
3.4929601467
 20
9.1368481431
 10
3.4928862879
 20
9.1363345557
  0
LINE
  5
723
100
AcDbEntity
  8
0
100
AcDbLine
 62
7
  6
CONTINUOUS
 10
3.6575927005
 20
8.5239285005
 11
3.6647698397
 21
8.5160325705
  0
LINE
  5
724
100
AcDbEntity
  8
0
100
AcDbLine
 62
7
  6
CONTINUOUS
 10
3.6575927005
 20
8.5639285005
 11
3.6725947925
 21
8.5474238965
  0
LINE
  5
725
100
AcDbEntity
  8
0
100
AcDbLine
 62
7
  6
CONTINUOUS
 10
3.6575454012
 20
8.5240325628
 11
3.6575927005
 21
8.5239285005
  0
LWPOLYLINE
  5
726
100
AcDbEntity
  8
0
100
AcDbPolyline
 62
7
  6
CONTINUOUS
 90
3
 70
0
 10
3.4406972271
 20
9.1163291868
 10
3.4408009372
 20
9.11597884
 10
3.4409401432
 20
9.115849651
  0
LWPOLYLINE
  5
727
100
AcDbEntity
  8
0
100
AcDbPolyline
 62
7
  6
CONTINUOUS
 90
3
 70
0
 10
3.4392033773
 20
9.1320758777
 10
3.4393038007
 20
9.131724221
 10
3.4394371191
 20
9.1315963419
  0
LWPOLYLINE
  5
728
100
AcDbEntity
  8
0
100
AcDbPolyline
 62
7
  6
CONTINUOUS
 90
3
 70
0
 10
3.424233659
 20
9.1219794881
 10
3.4243008188
 20
9.1217076778
 10
3.424325672
 20
9.1216928775
  0
LWPOLYLINE
  5
729
100
AcDbEntity
  8
0
100
AcDbPolyline
 62
7
  6
CONTINUOUS
 90
4
 70
0
 10
3.4578476967
 20
9.1313922826
 10
3.4574909296
 20
9.132924308
 10
3.4572512211
 20
9.1346162303
 10
3.4571368409
 20
9.1364127671
  0
LWPOLYLINE
  5
72A
100
AcDbEntity
  8
0
100
AcDbPolyline
 62
7
  6
CONTINUOUS
 90
3
 70
0
 10
3.4319645923
 20
9.1369050199
 10
3.4318856367
 20
9.1372569997
 10
3.4317818283
 20
9.1373845557
  0
LWPOLYLINE
  5
72B
100
AcDbEntity
  8
0
100
AcDbPolyline
 62
7
  6
CONTINUOUS
 90
4
 70
0
 10
3.4928862879
 20
9.1166687344
 10
3.4929614095
 20
9.1161510771
 10
3.4931727481
 20
9.1157623389
 10
3.4934654651
 20
9.1156187344
  0
LWPOLYLINE
  5
72C
100
AcDbEntity
  8
0
100
AcDbPolyline
 62
7
  6
CONTINUOUS
 90
4
 70
0
 10
3.4795657794
 20
9.1219187344
 10
3.4794984737
 20
9.1224388997
 10
3.4793092685
 20
9.1228286596
 10
3.4790544091
 20
9.1229687344
  0
LWPOLYLINE
  5
72D
100
AcDbEntity
  8
0
100
AcDbPolyline
 62
7
  6
CONTINUOUS
 90
4
 70
0
 10
3.4795657794
 20
9.1363345557
 10
3.479499695
 20
9.1368503063
 10
3.4793129723
 20
9.1372400576
 10
3.4790544091
 20
9.1373845557
  0
LWPOLYLINE
  5
72E
100
AcDbEntity
  8
0
100
AcDbPolyline
 62
7
  6
CONTINUOUS
 90
5
 70
0
 10
3.5340896441
 20
9.1270325705
 10
3.5336011077
 20
9.1317530125
 10
3.5320870618
 20
9.1366003599
 10
3.5296778379
 20
9.1412518074
 10
3.5265548154
 20
9.1456452704
  0
LWPOLYLINE
  5
72F
100
AcDbEntity
  8
0
100
AcDbPolyline
 62
7
  6
CONTINUOUS
 90
4
 70
0
 10
3.5224600976
 20
9.1373845557
 10
3.5227860649
 20
9.1375321758
 10
3.5230186865
 20
9.1379269201
 10
3.5230984154
 20
9.1384345537
  0
LWPOLYLINE
  5
730
100
AcDbEntity
  8
0
100
AcDbPolyline
 62
7
  6
CONTINUOUS
 90
4
 70
0
 10
3.5224600976
 20
9.1051187344
 10
3.5227860649
 20
9.1052663545
 10
3.5230186865
 20
9.1056610988
 10
3.5230984154
 20
9.1061687325
  0
LINE
  5
731
100
AcDbEntity
  8
0
100
AcDbLine
 62
7
  6
CONTINUOUS
 10
3.6575927005
 20
8.6039285005
 11
3.6725947925
 21
8.5874238965
  0
LINE
  5
732
100
AcDbEntity
  8
0
100
AcDbLine
 62
7
  6
CONTINUOUS
 10
3.6575927005
 20
8.6439285005
 11
3.6725947925
 21
8.6274238965
  0
LWPOLYLINE
  5
733
100
AcDbEntity
  8
0
100
AcDbPolyline
 62
7
  6
CONTINUOUS
 90
3
 70
0
 10
3.4221946542
 20
9.1051187344
 10
3.4221575578
 20
9.10519474
 10
3.4221262995
 20
9.1054090533
  0
LINE
  5
734
100
AcDbEntity
  8
0
100
AcDbLine
 62
7
  6
CONTINUOUS
 10
3.4243927483
 20
9.137246103
 11
3.4243258812
 21
9.1373845557
  0
LWPOLYLINE
  5
735
100
AcDbEntity
  8
0
100
AcDbPolyline
 62
7
  6
CONTINUOUS
 90
3
 70
0
 10
3.423288005
 20
9.1373845557
 10
3.4232289168
 20
9.1375252812
 10
3.4231856755
 20
9.1379143091
  0
LWPOLYLINE
  5
736
100
AcDbEntity
  8
0
100
AcDbPolyline
 62
7
  6
CONTINUOUS
 90
3
 70
0
 10
3.4213970282
 20
9.1478845557
 10
3.4214282513
 20
9.1478085487
 10
3.4214549394
 20
9.1475942368
  0
LWPOLYLINE
  5
737
100
AcDbEntity
  8
0
100
AcDbPolyline
 62
7
  6
CONTINUOUS
 90
4
 70
0
 10
3.5230984154
 20
9.1145687347
 10
3.5230181849
 20
9.1150778595
 10
3.5227849114
 20
9.1154722412
 10
3.5224600722
 20
9.1156187344
  0
LWPOLYLINE
  5
738
100
AcDbEntity
  8
0
100
AcDbPolyline
 62
7
  6
CONTINUOUS
 90
4
 70
0
 10
3.5230984154
 20
9.1468345559
 10
3.5230181849
 20
9.1473436807
 10
3.5227849114
 20
9.1477380624
 10
3.5224600722
 20
9.1478845557
  0
LINE
  5
739
100
AcDbEntity
  8
0
100
AcDbLine
 62
7
  6
CONTINUOUS
 10
3.6575454012
 20
8.8460325705
 11
3.6575454012
 21
8.8440325705
  0
LINE
  5
73A
100
AcDbEntity
  8
0
100
AcDbLine
 62
7
  6
CONTINUOUS
 10
3.6575454012
 20
8.8060325705
 11
3.6575454012
 21
8.8040325705
  0
LINE
  5
73B
100
AcDbEntity
  8
0
100
AcDbLine
 62
7
  6
CONTINUOUS
 10
3.6575454012
 20
8.7660325705
 11
3.6575454012
 21
8.7640325705
  0
LINE
  5
73C
100
AcDbEntity
  8
0
100
AcDbLine
 62
7
  6
CONTINUOUS
 10
3.6575454012
 20
8.7260325705
 11
3.6575454012
 21
8.7240325705
  0
LINE
  5
73D
100
AcDbEntity
  8
0
100
AcDbLine
 62
7
  6
CONTINUOUS
 10
3.6575454012
 20
8.6860325705
 11
3.6575454012
 21
8.6840325705
  0
LINE
  5
73E
100
AcDbEntity
  8
0
100
AcDbLine
 62
7
  6
CONTINUOUS
 10
3.6575454012
 20
8.6460325705
 11
3.6575454012
 21
8.6440325705
  0
LINE
  5
73F
100
AcDbEntity
  8
0
100
AcDbLine
 62
7
  6
CONTINUOUS
 10
3.6575454012
 20
8.6060325705
 11
3.6575454012
 21
8.6040325705
  0
LINE
  5
740
100
AcDbEntity
  8
0
100
AcDbLine
 62
7
  6
CONTINUOUS
 10
3.6575454012
 20
8.5660325705
 11
3.6575454012
 21
8.5640325705
  0
LINE
  5
741
100
AcDbEntity
  8
0
100
AcDbLine
 62
7
  6
CONTINUOUS
 10
3.6575454012
 20
8.5260325705
 11
3.6575454012
 21
8.5240325705
  0
LWPOLYLINE
  5
742
100
AcDbEntity
  8
0
100
AcDbPolyline
 62
7
  6
CONTINUOUS
 90
18
 70
0
 10
3.4195454016
 20
9.0505334984
 10
3.4210232897
 20
9.0510802027
 10
3.4251299305
 20
9.0526157327
 10
3.4309259557
 20
9.0548195027
 10
3.4377827597
 20
9.0574871513
 10
3.4452657865
 20
9.0604816593
 10
3.4530698914
 20
9.0637106217
 10
3.4609623375
 20
9.0671033713
 10
3.468763171
 20
9.0706053843
 10
3.4763448028
 20
9.074178096
 10
3.4836182523
 20
9.0777967648
 10
3.4905238506
 20
9.081446149
 10
3.4970230592
 20
9.0851208495
 10
3.5030924637
 20
9.0888230835
 10
3.5087181704
 20
9.0925624663
 10
3.5138907633
 20
9.0963577633
 10
3.5186014242
 20
9.100236806
 10
3.5228341897
 20
9.1042395613
  0
LINE
  5
743
100
AcDbEntity
  8
0
100
AcDbLine
 62
7
  6
CONTINUOUS
 10
4.3608814735
 20
8.5449980303
 11
4.3655454012
 21
8.5460325705
  0
LINE
  5
744
100
AcDbEntity
  8
0
100
AcDbLine
 62
7
  6
CONTINUOUS
 10
4.3655454012
 20
8.5860325705
 11
4.3607430191
 21
8.5849827524
  0
LWPOLYLINE
  5
745
100
AcDbEntity
  8
0
100
AcDbPolyline
 62
7
  6
CONTINUOUS
 90
20
 70
0
 10
4.3654981019
 20
8.5439285005
 10
4.3608586006
 20
8.542995491
 10
4.3469215968
 20
8.5419583719
 10
4.3241037425
 20
8.5409212637
 10
4.2930108
 20
8.539884204
 10
4.2544658195
 20
8.5388471598
 10
4.2094875829
 20
8.5378100856
 10
4.1592678804
 20
8.5367730078
 10
4.105137948
 20
8.5357359544
 10
4.0485280233
 20
8.5346988673
 10
3.9909378656
 20
8.533661763
 10
3.9338944984
 20
8.5326246788
 10
3.8789092922
 20
8.5315876338
 10
3.8274352256
 20
8.5305505739
 10
3.7808352303
 20
8.5295134945
 10
3.7403446816
 20
8.5284764277
 10
3.7070354274
 20
8.5274393722
 10
3.6817883713
 20
8.5264022881
 10
3.6652730086
 20
8.5253651994
 10
3.6579268516
 20
8.5243281345
  0
LINE
  5
746
100
AcDbEntity
  8
0
100
AcDbLine
 62
7
  6
CONTINUOUS
 10
4.3445874611
 20
8.566337258
 11
4.3504960099
 21
8.5674238965
  0
LWPOLYLINE
  5
747
100
AcDbEntity
  8
0
100
AcDbPolyline
 62
7
  6
CONTINUOUS
 90
8
 70
0
 10
4.1886724146
 20
8.5160325705
 10
4.234061025
 20
8.5170909038
 10
4.2733142085
 20
8.5181492371
 10
4.3053496365
 20
8.5192075705
 10
4.3292839956
 20
8.5202659038
 10
4.3444573435
 20
8.5213242371
 10
4.350451305
 20
8.5223825705
 10
4.3505454012
 20
8.5225325705
  0
LWPOLYLINE
  5
748
100
AcDbEntity
  8
0
100
AcDbPolyline
 62
7
  6
CONTINUOUS
 90
12
 70
0
 10
3.9324074229
 20
8.5160325705
 10
3.9886819125
 20
8.517102883
 10
4.0456011356
 20
8.5181731955
 10
4.1015600121
 20
8.519243508
 10
4.1549805431
 20
8.5203138205
 10
4.204356309
 20
8.521384133
 10
4.2482949497
 20
8.5224544455
 10
4.285557428
 20
8.523524758
 10
4.3150929695
 20
8.5245950705
 10
4.3360686937
 20
8.525665383
 10
4.3478931007
 20
8.5267356955
 10
4.3504960099
 20
8.5274238965
  0
LINE
  5
749
100
AcDbEntity
  8
0
100
AcDbLine
 62
7
  6
CONTINUOUS
 10
4.3564747921
 20
8.5160325705
 11
3.664770597
 21
8.5160325705
  0
LINE
  5
74A
100
AcDbEntity
  8
0
100
AcDbLine
 62
7
  6
CONTINUOUS
 10
3.6575927005
 20
8.6839285005
 11
3.6725947925
 21
8.6674238965
  0
LINE
  5
74B
100
AcDbEntity
  8
0
100
AcDbLine
 62
7
  6
CONTINUOUS
 10
3.6575927005
 20
8.7239285005
 11
3.6725947925
 21
8.7074238965
  0
LWPOLYLINE
  5
74C
100
AcDbEntity
  8
0
100
AcDbPolyline
 62
7
  6
CONTINUOUS
 90
4
 70
0
 10
3.4278078575
 20
9.1156187344
 10
3.4278968642
 20
9.1154776548
 10
3.4279626355
 20
9.1150884905
 10
3.427986118
 20
9.1145687344
  0
LWPOLYLINE
  5
74D
100
AcDbEntity
  8
0
100
AcDbPolyline
 62
7
  6
CONTINUOUS
 90
3
 70
0
 10
3.4278078575
 20
9.1478845557
 10
3.4278968642
 20
9.147743476
 10
3.4279626355
 20
9.1473543117
  0
LWPOLYLINE
  5
74E
100
AcDbEntity
  8
0
100
AcDbPolyline
 62
7
  6
CONTINUOUS
 90
4
 70
0
 10
3.4591449915
 20
9.1087344919
 10
3.4583976637
 20
9.1100828937
 10
3.4578076327
 20
9.1118463399
 10
3.4574007122
 20
9.1139154399
  0
LINE
  5
74F
100
AcDbEntity
  8
0
100
AcDbLine
 62
7
  6
CONTINUOUS
 10
3.6725454012
 20
8.8275325705
 11
3.6725454012
 21
8.8225325705
  0
LINE
  5
750
100
AcDbEntity
  8
0
100
AcDbLine
 62
7
  6
CONTINUOUS
 10
3.6725454012
 20
8.7875325705
 11
3.6725454012
 21
8.7825325705
  0
LINE
  5
751
100
AcDbEntity
  8
0
100
AcDbLine
 62
7
  6
CONTINUOUS
 10
3.6725454012
 20
8.7475325705
 11
3.6725454012
 21
8.7425325705
  0
LINE
  5
752
100
AcDbEntity
  8
0
100
AcDbLine
 62
7
  6
CONTINUOUS
 10
3.6725454012
 20
8.7075325705
 11
3.6725454012
 21
8.7025325705
  0
LINE
  5
753
100
AcDbEntity
  8
0
100
AcDbLine
 62
7
  6
CONTINUOUS
 10
3.6725454012
 20
8.6675325705
 11
3.6725454012
 21
8.6625325705
  0
LINE
  5
754
100
AcDbEntity
  8
0
100
AcDbLine
 62
7
  6
CONTINUOUS
 10
3.6725454012
 20
8.6275325705
 11
3.6725454012
 21
8.6225325705
  0
LINE
  5
755
100
AcDbEntity
  8
0
100
AcDbLine
 62
7
  6
CONTINUOUS
 10
3.6725454012
 20
8.5875325705
 11
3.6725454012
 21
8.5825325705
  0
LINE
  5
756
100
AcDbEntity
  8
0
100
AcDbLine
 62
7
  6
CONTINUOUS
 10
3.6725454012
 20
8.5475325705
 11
3.6725454012
 21
8.5425325705
  0
LINE
  5
757
100
AcDbEntity
  8
0
100
AcDbLine
 62
7
  6
CONTINUOUS
 10
3.6727954012
 20
8.8945325705
 11
3.6727954012
 21
8.8570325705
  0
LINE
  5
758
100
AcDbEntity
  8
02___PRT_ALL_AXES
100
AcDbLine
 62
7
  6
CONTINUOUS
 10
3.6926477634
 20
8.5160325705
 11
3.6926477634
 21
8.2955601295
  0
LINE
  5
759
100
AcDbEntity
  8
0
100
AcDbLine
 62
7
  6
CONTINUOUS
 10
3.6926477634
 20
8.5160325705
 11
3.6926477634
 21
8.2955601295
  0
LINE
  5
75A
100
AcDbEntity
  8
0
100
AcDbLine
 62
7
  6
CONTINUOUS
 10
3.6575927005
 20
8.8061366405
 11
3.6575454012
 21
8.8060325705
  0
LINE
  5
75B
100
AcDbEntity
  8
0
100
AcDbLine
 62
7
  6
CONTINUOUS
 10
3.6575454012
 20
8.8460325767
 11
3.6575927005
 21
8.8461366405
  0
LINE
  5
75C
100
AcDbEntity
  8
0
100
AcDbLine
 62
7
  6
CONTINUOUS
 10
4.3480916964
 20
8.6467661471
 11
4.3504960099
 21
8.6474238965
  0
LINE
  5
75D
100
AcDbEntity
  8
0
100
AcDbLine
 62
7
  6
CONTINUOUS
 10
4.3655454012
 20
8.6260325705
 11
4.3608134261
 21
8.6249904938
  0
LWPOLYLINE
  5
75E
100
AcDbEntity
  8
0
100
AcDbPolyline
 62
7
  6
CONTINUOUS
 90
19
 70
0
 10
3.6580621086
 20
8.5263765786
 10
3.6658123591
 20
8.5274110971
 10
3.6826726913
 20
8.528445637
 10
3.7081986373
 20
8.5294801722
 10
3.7417166697
 20
8.53051468
 10
3.7823441153
 20
8.5315491856
 10
3.8290103877
 20
8.532583687
 10
3.880486189
 20
8.5336181907
 10
3.9354151691
 20
8.5346526949
 10
3.9923518856
 20
8.5356872324
 10
4.0497954442
 20
8.5367217899
 10
4.1062302618
 20
8.5377563319
 10
4.1601683129
 20
8.5387908379
 10
4.2101905286
 20
8.539825346
 10
4.2549787656
 20
8.5408598534
 10
4.2933532014
 20
8.5418943677
 10
4.324302514
 20
8.542928886
 10
4.3470119069
 20
8.5439634519
 10
4.3608814735
 20
8.5449980303
  0
LWPOLYLINE
  5
75F
100
AcDbEntity
  8
0
100
AcDbPolyline
 62
7
  6
CONTINUOUS
 90
19
 70
0
 10
4.3607430191
 20
8.5849827524
 10
4.3462387176
 20
8.5839203406
 10
4.322493545
 20
8.5828601379
 10
4.2906501908
 20
8.581814702
 10
4.251065611
 20
8.5807636105
 10
4.2046434708
 20
8.5797055831
 10
4.1532832612
 20
8.5786550734
 10
4.0986247908
 20
8.5776148114
 10
4.0407659134
 20
8.5765586593
 10
3.98170948
 20
8.5754953756
 10
3.923879256
 20
8.5744394407
 10
3.8691013921
 20
8.5733962025
 10
3.8176820878
 20
8.5723431242
 10
3.7715745755
 20
8.5712905163
 10
3.7324188516
 20
8.5702498027
 10
3.7005960784
 20
8.5692049587
 10
3.6768504206
 20
8.5681447085
 10
3.6623471636
 20
8.5670823206
 10
3.6575927005
 20
8.5661366405
  0
LINE
  5
760
100
AcDbEntity
  8
0
100
AcDbLine
 62
7
  6
CONTINUOUS
 10
3.6575927005
 20
8.7639285005
 11
3.6725947925
 21
8.7474238965
  0
LINE
  5
761
100
AcDbEntity
  8
0
100
AcDbLine
 62
7
  6
CONTINUOUS
 10
3.6575927005
 20
8.8039285005
 11
3.6725947925
 21
8.7874238965
  0
LWPOLYLINE
  5
762
100
AcDbEntity
  8
0
100
AcDbPolyline
 62
7
  6
CONTINUOUS
 90
3
 70
0
 10
3.4300926961
 20
9.1373845557
 10
3.4299935126
 20
9.1375221555
 10
3.4299196535
 20
9.1379076949
  0
LINE
  5
763
100
AcDbEntity
  8
0
100
AcDbLine
 62
7
  6
CONTINUOUS
 10
3.6575454012
 20
8.8440325772
 11
3.6575927005
 21
8.8439285005
  0
LINE
  5
764
100
AcDbEntity
  8
0
100
AcDbLine
 62
7
  6
CONTINUOUS
 10
3.6575927005
 20
8.7661366405
 11
3.6575454012
 21
8.7660325705
  0
LINE
  5
765
100
AcDbEntity
  8
0
100
AcDbLine
 62
7
  6
CONTINUOUS
 10
3.6575927005
 20
8.7261366405
 11
3.6575454012
 21
8.7260325705
  0
LINE
  5
766
100
AcDbEntity
  8
0
100
AcDbLine
 62
7
  6
CONTINUOUS
 10
3.6575927005
 20
8.6861366405
 11
3.6575454012
 21
8.6860325705
  0
LINE
  5
767
100
AcDbEntity
  8
0
100
AcDbLine
 62
7
  6
CONTINUOUS
 10
3.6575927005
 20
8.6461366405
 11
3.6575454012
 21
8.6460325705
  0
LINE
  5
768
100
AcDbEntity
  8
0
100
AcDbLine
 62
7
  6
CONTINUOUS
 10
3.6674967298
 20
8.8570325705
 11
3.6575927005
 21
8.8461366405
  0
LINE
  5
769
100
AcDbEntity
  8
0
100
AcDbLine
 62
7
  6
CONTINUOUS
 10
4.3655454012
 20
8.6660325705
 11
4.3607513544
 21
8.6649836659
  0
LINE
  5
76A
100
AcDbEntity
  8
0
100
AcDbLine
 62
7
  6
CONTINUOUS
 10
4.3655454012
 20
8.7060325705
 11
4.3607412918
 21
8.7049825632
  0
LWPOLYLINE
  5
76B
100
AcDbEntity
  8
0
100
AcDbPolyline
 62
7
  6
CONTINUOUS
 90
20
 70
0
 10
3.6725947925
 20
8.5426412445
 10
3.6768590366
 20
8.5435492371
 10
3.6903937236
 20
8.5446075705
 10
3.7127835309
 20
8.5456659038
 10
3.7434111041
 20
8.5467242371
 10
3.7814319485
 20
8.5477825705
 10
3.8257977147
 20
8.5488409038
 10
3.8752851049
 20
8.5498992371
 10
3.9285296024
 20
8.5509575705
 10
3.9840630958
 20
8.5520159038
 10
4.0403543593
 20
8.5530742371
 10
4.0958512729
 20
8.5541325705
 10
4.1490236194
 20
8.5551909038
 10
4.1984052768
 20
8.5562492371
 10
4.2426346439
 20
8.5573075705
 10
4.2804921836
 20
8.5583659038
 10
4.3109340493
 20
8.5594242371
 10
4.3331208672
 20
8.5604825705
 10
4.3464408796
 20
8.5615409038
 10
4.3505454012
 20
8.5625325705
  0
LINE
  5
76C
100
AcDbEntity
  8
0
100
AcDbLine
 62
7
  6
CONTINUOUS
 10
4.3458066966
 20
8.686466877
 11
4.3504960099
 21
8.6874238965
  0
LWPOLYLINE
  5
76D
100
AcDbEntity
  8
0
100
AcDbPolyline
 62
7
  6
CONTINUOUS
 90
19
 70
0
 10
4.3608134261
 20
8.6249904938
 10
4.3466616046
 20
8.6239438136
 10
4.3233088973
 20
8.6228909537
 10
4.291682218
 20
8.6218449665
 10
4.2521232498
 20
8.6207894896
 10
4.2054912606
 20
8.619723791
 10
4.153668711
 20
8.6186626399
 10
4.0987812942
 20
8.6176177153
 10
4.0416111644
 20
8.6165739136
 10
3.9830334774
 20
8.6155192672
 10
3.9253014688
 20
8.6144658256
 10
3.8702968553
 20
8.6134196674
 10
3.8184048662
 20
8.6123586466
 10
3.7716727717
 20
8.6112929179
 10
3.7319864022
 20
8.610237142
 10
3.7003399848
 20
8.6091953093
 10
3.676799842
 20
8.6081419142
 10
3.6623516438
 20
8.6070828114
 10
3.6575927005
 20
8.6061366405
  0
LWPOLYLINE
  5
76E
100
AcDbEntity
  8
0
100
AcDbPolyline
 62
7
  6
CONTINUOUS
 90
19
 70
0
 10
3.6623471636
 20
8.6050823206
 10
3.6768504206
 20
8.6061447085
 10
3.7005960784
 20
8.6072049587
 10
3.7324188516
 20
8.6082498027
 10
3.7715745755
 20
8.6092905163
 10
3.8176820878
 20
8.6103431242
 10
3.8691013921
 20
8.6113962025
 10
3.923879256
 20
8.6124394407
 10
3.98170948
 20
8.6134953756
 10
4.0407659134
 20
8.6145586593
 10
4.0986247908
 20
8.6156148114
 10
4.1532832612
 20
8.6166550734
 10
4.2046434708
 20
8.6177055831
 10
4.251065611
 20
8.6187636105
 10
4.2906501908
 20
8.619814702
 10
4.322493545
 20
8.6208601379
 10
4.3462387176
 20
8.6219203406
 10
4.3607430191
 20
8.6229827524
 10
4.3654981019
 20
8.6239285005
  0
LWPOLYLINE
  5
76F
100
AcDbEntity
  8
0
100
AcDbPolyline
 62
7
  6
CONTINUOUS
 90
19
 70
0
 10
3.6623722262
 20
8.5650850629
 10
3.6769503866
 20
8.5661502209
 10
3.700814284
 20
8.5672131593
 10
3.732797457
 20
8.5682608607
 10
3.7722630016
 20
8.569307336
 10
3.8180697977
 20
8.5703514537
 10
3.8691189484
 20
8.5713965474
 10
3.9239490292
 20
8.5724407358
 10
3.9819351076
 20
8.5734994476
 10
4.0411441368
 20
8.5745654847
 10
4.0991335254
 20
8.5756242521
 10
4.153963877
 20
8.5766684369
 10
4.2050019179
 20
8.5777132773
 10
4.2508207861
 20
8.5787576337
 10
4.2902928391
 20
8.5798042655
 10
4.3222753935
 20
8.5808519394
 10
4.3461387442
 20
8.581914828
 10
4.360717955
 20
8.5829800102
 10
4.3654981019
 20
8.5839285005
  0
LWPOLYLINE
  5
770
100
AcDbEntity
  8
0
100
AcDbPolyline
 62
7
  6
CONTINUOUS
 90
3
 70
0
 10
3.436770092
 20
9.1051187344
 10
3.436645974
 20
9.1052477396
 10
3.4365533878
 20
9.1055982702
  0
LINE
  5
771
100
AcDbEntity
  8
0
100
AcDbLine
 62
7
  6
CONTINUOUS
 10
3.6575927005
 20
8.8439285005
 11
3.6725947925
 21
8.8274238965
  0
LWPOLYLINE
  5
772
100
AcDbEntity
  8
0
100
AcDbPolyline
 62
7
  6
CONTINUOUS
 90
4
 70
0
 10
3.4594795973
 20
9.1282352069
 10
3.4588582832
 20
9.1290082823
 10
3.4583083855
 20
9.130071669
 10
3.4578476967
 20
9.1313922826
  0
LINE
  5
773
100
AcDbEntity
  8
0
100
AcDbLine
 62
7
  6
CONTINUOUS
 10
3.6575927005
 20
8.6061366405
 11
3.6575454012
 21
8.6060325705
  0
LINE
  5
774
100
AcDbEntity
  8
0
100
AcDbLine
 62
7
  6
CONTINUOUS
 10
3.6575927005
 20
8.5661366405
 11
3.6575454012
 21
8.5660325705
  0
LINE
  5
775
100
AcDbEntity
  8
0
100
AcDbLine
 62
7
  6
CONTINUOUS
 10
3.6575454012
 20
8.5260325628
 11
3.6575927005
 21
8.5261366405
  0
LINE
  5
776
100
AcDbEntity
  8
0
100
AcDbLine
 62
7
  6
CONTINUOUS
 10
3.6725947925
 20
8.8226412445
 11
3.6575927005
 21
8.8061366405
  0
LINE
  5
777
100
AcDbEntity
  8
0
100
AcDbLine
 62
7
  6
CONTINUOUS
 10
3.6725947925
 20
8.7826412445
 11
3.6575927005
 21
8.7661366405
  0
LINE
  5
778
100
AcDbEntity
  8
0
100
AcDbLine
 62
7
  6
CONTINUOUS
 10
3.6725947925
 20
8.7426412445
 11
3.6575927005
 21
8.7261366405
  0
LINE
  5
779
100
AcDbEntity
  8
0
100
AcDbLine
 62
7
  6
CONTINUOUS
 10
3.6575454012
 20
8.6040325705
 11
3.6623471636
 21
8.6050823206
  0
LINE
  5
77A
100
AcDbEntity
  8
0
100
AcDbLine
 62
7
  6
CONTINUOUS
 10
4.3655454012
 20
8.7460325705
 11
4.3607313121
 21
8.7449814707
  0
LINE
  5
77B
100
AcDbEntity
  8
0
100
AcDbLine
 62
7
  6
CONTINUOUS
 10
3.6575454012
 20
8.5640325705
 11
3.6623722262
 21
8.5650850629
  0
LWPOLYLINE
  5
77C
100
AcDbEntity
  8
0
100
AcDbPolyline
 62
7
  6
CONTINUOUS
 90
20
 70
0
 10
3.672745926
 20
8.5827515486
 10
3.6795024298
 20
8.5838245413
 10
3.6956691419
 20
8.584897534
 10
3.7207878922
 20
8.5859705267
 10
3.7541468071
 20
8.5870435194
 10
3.7948004837
 20
8.5881165121
 10
3.8415967834
 20
8.5891895048
 10
3.8932094835
 20
8.5902624975
 10
3.9481758628
 20
8.5913354902
 10
4.0049381559
 20
8.5924084829
 10
4.0618877006
 20
8.5934814756
 10
4.1174105277
 20
8.5945544683
 10
4.169933102
 20
8.595627461
 10
4.2179669161
 20
8.5967004537
 10
4.2601506758
 20
8.5977734464
 10
4.2952888794
 20
8.5988464391
 10
4.3223856984
 20
8.5999194318
 10
4.3406731999
 20
8.6009924245
 10
4.3496331102
 20
8.6020654172
 10
4.3505454012
 20
8.6025325705
  0
LWPOLYLINE
  5
77D
100
AcDbEntity
  8
0
100
AcDbPolyline
 62
7
  6
CONTINUOUS
 90
3
 70
0
 10
4.3427831595
 20
8.726167607
 10
4.3501889401
 20
8.7272405997
 10
4.3504960099
 20
8.7274238965
  0
LWPOLYLINE
  5
77E
100
AcDbEntity
  8
0
100
AcDbPolyline
 62
7
  6
CONTINUOUS
 90
19
 70
0
 10
4.3607513544
 20
8.6649836659
 10
4.3464632525
 20
8.6639327722
 10
4.3232188286
 20
8.662887536
 10
4.2915708811
 20
8.6618416925
 10
4.2518772846
 20
8.6607834624
 10
4.2050865892
 20
8.6597150957
 10
4.1530965801
 20
8.6586514102
 10
4.0980027301
 20
8.6576032725
 10
4.0404934736
 20
8.6565537432
 10
3.982403182
 20
8.6555078944
 10
3.924980753
 20
8.6544598781
 10
3.8698977377
 20
8.6534118376
 10
3.8179127028
 20
8.6523480796
 10
3.7711339697
 20
8.6512797298
 10
3.731456919
 20
8.6502215961
 10
3.6998098277
 20
8.6491752471
 10
3.6765668365
 20
8.648128995
 10
3.6623308449
 20
8.6470805313
 10
3.6575927005
 20
8.6461366405
  0
LWPOLYLINE
  5
77F
100
AcDbEntity
  8
0
100
AcDbPolyline
 62
7
  6
CONTINUOUS
 90
19
 70
0
 10
3.6623516438
 20
8.6450828114
 10
3.676799842
 20
8.6461419142
 10
3.7003399848
 20
8.6471953093
 10
3.7319864022
 20
8.648237142
 10
3.7716727717
 20
8.6492929179
 10
3.8184048662
 20
8.6503586466
 10
3.8702968553
 20
8.6514196674
 10
3.9253014688
 20
8.6524658256
 10
3.9830334774
 20
8.6535192672
 10
4.0416111644
 20
8.6545739136
 10
4.0987812942
 20
8.6556177153
 10
4.153668711
 20
8.6566626399
 10
4.2054912606
 20
8.657723791
 10
4.2521232498
 20
8.6587894896
 10
4.291682218
 20
8.6598449665
 10
4.3233088973
 20
8.6608909537
 10
4.3466616046
 20
8.6619438136
 10
4.3608134261
 20
8.6629904938
 10
4.3654981019
 20
8.6639285005
  0
LWPOLYLINE
  5
780
100
AcDbEntity
  8
0
100
AcDbPolyline
 62
7
  6
CONTINUOUS
 90
19
 70
0
 10
4.3607412918
 20
8.7049825632
 10
4.3462700548
 20
8.7039220714
 10
4.3226436712
 20
8.7028657912
 10
4.2909437584
 20
8.7018232921
 10
4.2512722783
 20
8.7007686598
 10
4.2045773076
 20
8.6997041636
 10
4.1527420713
 20
8.6986444562
 10
4.0977934943
 20
8.6975993925
 10
4.0400424881
 20
8.6965456061
 10
3.9813567668
 20
8.6954890097
 10
3.924099485
 20
8.6944435282
 10
3.8692881742
 20
8.6933998712
 10
3.8175316658
 20
8.6923398907
 10
3.7709596348
 20
8.6912754573
 10
3.7314458137
 20
8.6902212695
 10
3.6998297295
 20
8.6891760024
 10
3.6764452896
 20
8.6881222252
 10
3.6622627123
 20
8.6870730276
 10
3.6575927005
 20
8.6861366405
  0
LWPOLYLINE
  5
781
100
AcDbEntity
  8
0
100
AcDbPolyline
 62
7
  6
CONTINUOUS
 90
3
 70
0
 10
3.4428656979
 20
9.1373845557
 10
3.4427153586
 20
9.1375226738
 10
3.4426034866
 20
9.1379091125
  0
LWPOLYLINE
  5
782
100
AcDbEntity
  8
0
100
AcDbPolyline
 62
7
  6
CONTINUOUS
 90
3
 70
0
 10
3.4404461343
 20
9.1478845557
 10
3.4405884682
 20
9.1477465123
 10
3.4406950598
 20
9.1473602318
  0
LINE
  5
783
100
AcDbEntity
  8
0
100
AcDbLine
 62
7
  6
CONTINUOUS
 10
3.5265548154
 20
9.1456452704
 11
3.5228425196
 21
9.1498170453
  0
LINE
  5
784
100
AcDbEntity
  8
0
100
AcDbLine
 62
7
  6
CONTINUOUS
 10
3.6725947925
 20
8.7026412445
 11
3.6575927005
 21
8.6861366405
  0
LINE
  5
785
100
AcDbEntity
  8
0
100
AcDbLine
 62
7
  6
CONTINUOUS
 10
3.6725947925
 20
8.6626412445
 11
3.6575927005
 21
8.6461366405
  0
LINE
  5
786
100
AcDbEntity
  8
0
100
AcDbLine
 62
7
  6
CONTINUOUS
 10
3.6725947925
 20
8.8226412445
 11
3.6728513525
 21
8.8228030623
  0
LWPOLYLINE
  5
787
100
AcDbEntity
  8
0
100
AcDbPolyline
 62
7
  6
CONTINUOUS
 90
19
 70
0
 10
3.6725454012
 20
8.6275325705
 10
3.6766584699
 20
8.6285252712
 10
3.690235384
 20
8.6295982639
 10
3.7129183307
 20
8.6306712566
 10
3.744064468
 20
8.6317442493
 10
3.782791104
 20
8.632817242
 10
3.8280007128
 20
8.6338902347
 10
3.8784120391
 20
8.6349632274
 10
3.9325964092
 20
8.6360362201
 10
3.98901822
 20
8.6371092128
 10
4.0460784586
 20
8.6381822055
 10
4.1021600188
 20
8.6392551982
 10
4.1556735307
 20
8.6403281909
 10
4.2051024034
 20
8.6414011836
 10
4.2490458063
 20
8.6424741763
 10
4.2862583687
 20
8.643547169
 10
4.3156854743
 20
8.6446201617
 10
4.336493149
 20
8.6456931544
 10
4.3480916964
 20
8.6467661471
  0
LINE
  5
788
100
AcDbEntity
  8
0
100
AcDbLine
 62
7
  6
CONTINUOUS
 10
4.3470535293
 20
8.8066180406
 11
4.3504960099
 21
8.8074238965
  0
LINE
  5
789
100
AcDbEntity
  8
0
100
AcDbLine
 62
7
  6
CONTINUOUS
 10
4.3655454012
 20
8.8260325705
 11
4.3607453845
 21
8.8249830116
  0
LINE
  5
78A
100
AcDbEntity
  8
0
100
AcDbLine
 62
7
  6
CONTINUOUS
 10
3.6575454012
 20
8.6440325705
 11
3.6623516438
 21
8.6450828114
  0
LINE
  5
78B
100
AcDbEntity
  8
0
100
AcDbLine
 62
7
  6
CONTINUOUS
 10
4.3655454012
 20
8.7860325705
 11
4.3607185812
 21
8.7849800786
  0
LWPOLYLINE
  5
78C
100
AcDbEntity
  8
0
100
AcDbPolyline
 62
7
  6
CONTINUOUS
 90
20
 70
0
 10
3.6725947925
 20
8.6226412445
 10
3.6766584699
 20
8.6235252712
 10
3.690235384
 20
8.6245982639
 10
3.7129183307
 20
8.6256712566
 10
3.744064468
 20
8.6267442493
 10
3.782791104
 20
8.627817242
 10
3.8280007128
 20
8.6288902347
 10
3.8784120391
 20
8.6299632274
 10
3.9325964092
 20
8.6310362201
 10
3.98901822
 20
8.6321092128
 10
4.0460784586
 20
8.6331822055
 10
4.1021600188
 20
8.6342551982
 10
4.1556735307
 20
8.6353281909
 10
4.2051024034
 20
8.6364011836
 10
4.2490458063
 20
8.6374741763
 10
4.2862583687
 20
8.638547169
 10
4.3156854743
 20
8.6396201617
 10
4.336493149
 20
8.6406931544
 10
4.3480916964
 20
8.6417661471
 10
4.3505454012
 20
8.6425325705
  0
LWPOLYLINE
  5
78D
100
AcDbEntity
  8
0
100
AcDbPolyline
 62
7
  6
CONTINUOUS
 90
9
 70
0
 10
3.673194958
 20
8.7029267311
 10
3.6815080712
 20
8.7039997238
 10
3.6991745522
 20
8.7050727165
 10
3.7256937269
 20
8.7061457092
 10
3.7603140332
 20
8.7072187019
 10
3.80205432
 20
8.7082916946
 10
3.8497316538
 20
8.7093646873
 10
3.9019948429
 20
8.71043768
 10
3.9573627314
 20
8.7115106727
  0
LWPOLYLINE
  5
78E
100
AcDbEntity
  8
0
100
AcDbPolyline
 62
7
  6
CONTINUOUS
 90
19
 70
0
 10
3.6745544297
 20
8.6632260011
 10
3.685511548
 20
8.6642989938
 10
3.7057085742
 20
8.6653719865
 10
3.7345731177
 20
8.6664449792
 10
3.771287148
 20
8.6675179719
 10
3.814810177
 20
8.6685909646
 10
3.8639087477
 20
8.6696639573
 10
3.9171913903
 20
8.67073695
 10
3.9731480569
 20
8.6718099427
 10
4.0301929171
 20
8.6728829354
 10
4.0867093005
 20
8.6739559281
 10
4.1410955139
 20
8.6750289208
 10
4.1918102341
 20
8.6761019135
 10
4.2374161889
 20
8.6771749062
 10
4.2766208905
 20
8.6782478989
 10
4.3083132645
 20
8.6793208916
 10
4.3315951386
 20
8.6803938843
 10
4.3458066966
 20
8.681466877
 10
4.3505454012
 20
8.6825325705
  0
LWPOLYLINE
  5
78F
100
AcDbEntity
  8
0
100
AcDbPolyline
 62
7
  6
CONTINUOUS
 90
19
 70
0
 10
3.6622627123
 20
8.7250730276
 10
3.6764452896
 20
8.7261222252
 10
3.6998297295
 20
8.7271760024
 10
3.7314458137
 20
8.7282212695
 10
3.7709596348
 20
8.7292754573
 10
3.8175316658
 20
8.7303398907
 10
3.8692881742
 20
8.7313998712
 10
3.924099485
 20
8.7324435282
 10
3.9813567668
 20
8.7334890097
 10
4.0400424881
 20
8.7345456061
 10
4.0977934943
 20
8.7355993925
 10
4.1527420713
 20
8.7366444562
 10
4.2045773076
 20
8.7377041636
 10
4.2512722783
 20
8.7387686598
 10
4.2909437584
 20
8.7398232921
 10
4.3226436712
 20
8.7408657912
 10
4.3462700548
 20
8.7419220714
 10
4.3607412918
 20
8.7429825632
 10
4.3654981019
 20
8.7439285005
  0
LWPOLYLINE
  5
790
100
AcDbEntity
  8
0
100
AcDbPolyline
 62
7
  6
CONTINUOUS
 90
19
 70
0
 10
3.6623308449
 20
8.6850805313
 10
3.6765668365
 20
8.686128995
 10
3.6998098277
 20
8.6871752471
 10
3.731456919
 20
8.6882215961
 10
3.7711339697
 20
8.6892797298
 10
3.8179127028
 20
8.6903480796
 10
3.8698977377
 20
8.6914118376
 10
3.924980753
 20
8.6924598781
 10
3.982403182
 20
8.6935078944
 10
4.0404934736
 20
8.6945537432
 10
4.0980027301
 20
8.6956032725
 10
4.1530965801
 20
8.6966514102
 10
4.2050865892
 20
8.6977150957
 10
4.2518772846
 20
8.6987834624
 10
4.2915708811
 20
8.6998416925
 10
4.3232188286
 20
8.700887536
 10
4.3464632525
 20
8.7019327722
 10
4.3607513544
 20
8.7029836659
 10
4.3654981019
 20
8.7039285005
  0
LWPOLYLINE
  5
791
100
AcDbEntity
  8
0
100
AcDbPolyline
 62
7
  6
CONTINUOUS
 90
19
 70
0
 10
4.3607313121
 20
8.7449814707
 10
4.3461920149
 20
8.7439177636
 10
4.3223916268
 20
8.7428563052
 10
4.2904987917
 20
8.7418102777
 10
4.2513212858
 20
8.7407698577
 10
4.2053874688
 20
8.7397215601
 10
4.1540508306
 20
8.738670145
 10
4.0992335557
 20
8.7376261088
 10
4.0413301226
 20
8.7365688413
 10
3.9822023509
 20
8.7355042704
 10
3.9242830244
 20
8.7344469342
 10
3.8695737144
 20
8.7334054779
 10
3.8184888501
 20
8.7323604486
 10
3.7721990151
 20
8.7313057744
 10
3.732609401
 20
8.7302553712
 10
3.7006980411
 20
8.7292087931
 10
3.6768971098
 20
8.7281472848
 10
3.6623588698
 20
8.7270836024
 10
3.6575927005
 20
8.7261366405
  0
LWPOLYLINE
  5
792
100
AcDbEntity
  8
0
100
AcDbPolyline
 62
7
  6
CONTINUOUS
 90
11
 70
0
 10
3.9573627314
 20
8.7115106727
 10
4.0710925104
 20
8.7136566581
 10
4.1262312612
 20
8.7147296508
 10
4.1781197766
 20
8.7158026435
 10
4.2252875188
 20
8.7168756362
 10
4.2663977382
 20
8.7179486289
 10
4.3002853577
 20
8.7190216216
 10
4.3259899907
 20
8.7200946143
 10
4.3427831595
 20
8.721167607
 10
4.3501889401
 20
8.7222405997
 10
4.3505454012
 20
8.7225325705
  0
LWPOLYLINE
  5
793
100
AcDbEntity
  8
0
100
AcDbPolyline
 62
7
  6
CONTINUOUS
 90
9
 70
0
 10
3.9573627314
 20
8.7165106727
 10
4.0710925104
 20
8.7186566581
 10
4.1262312612
 20
8.7197296508
 10
4.1781197766
 20
8.7208026435
 10
4.2252875188
 20
8.7218756362
 10
4.2663977382
 20
8.7229486289
 10
4.3002853577
 20
8.7240216216
 10
4.3259899907
 20
8.7250946143
 10
4.3427831595
 20
8.726167607
  0
LWPOLYLINE
  5
794
100
AcDbEntity
  8
0
100
AcDbPolyline
 62
7
  6
CONTINUOUS
 90
18
 70
0
 10
3.5228425196
 20
9.1498170453
 10
3.5186134679
 20
9.153817749
 10
3.5139069802
 20
9.1576948053
 10
3.5087389004
 20
9.1614882258
 10
3.5031181411
 20
9.1652257312
 10
3.497054177
 20
9.1689260368
 10
3.4905609382
 20
9.1725987388
 10
3.4836618386
 20
9.1762460445
 10
3.4763954356
 20
9.1798625464
 10
3.468821362
 20
9.1834330112
 10
3.4610282334
 20
9.1869328407
 10
3.4531430589
 20
9.1903236863
 10
3.4453445803
 20
9.1935514443
 10
3.4378776921
 20
9.1965405667
 10
3.4310675238
 20
9.1991912478
 10
3.4253322186
 20
9.2013732197
 10
3.4212431002
 20
9.20290327
 10
3.4195454013
 20
9.2035315055
  0
LINE
  5
795
100
AcDbEntity
  8
0
100
AcDbLine
 62
7
  6
CONTINUOUS
 10
3.6725947925
 20
8.6226412445
 11
3.6575927005
 21
8.6061366405
  0
LINE
  5
796
100
AcDbEntity
  8
0
100
AcDbLine
 62
7
  6
CONTINUOUS
 10
3.6725947925
 20
8.5826412445
 11
3.6575927005
 21
8.5661366405
  0
LWPOLYLINE
  5
797
100
AcDbEntity
  8
0
100
AcDbPolyline
 62
7
  6
CONTINUOUS
 90
20
 70
0
 10
3.6725454012
 20
8.5875325705
 10
3.672745926
 20
8.5877515486
 10
3.6795024298
 20
8.5888245413
 10
3.6956691419
 20
8.589897534
 10
3.7207878922
 20
8.5909705267
 10
3.7541468071
 20
8.5920435194
 10
3.7948004837
 20
8.5931165121
 10
3.8415967834
 20
8.5941895048
 10
3.8932094835
 20
8.5952624975
 10
3.9481758628
 20
8.5963354902
 10
4.0049381559
 20
8.5974084829
 10
4.0618877006
 20
8.5984814756
 10
4.1174105277
 20
8.5995544683
 10
4.169933102
 20
8.600627461
 10
4.2179669161
 20
8.6017004537
 10
4.2601506758
 20
8.6027734464
 10
4.2952888794
 20
8.6038464391
 10
4.3223856984
 20
8.6049194318
 10
4.3406731999
 20
8.6059924245
 10
4.3496331102
 20
8.6070654172
  0
LWPOLYLINE
  5
798
100
AcDbEntity
  8
0
100
AcDbPolyline
 62
7
  6
CONTINUOUS
 90
19
 70
0
 10
3.6725454012
 20
8.8275325705
 10
3.673757282
 20
8.828071032
 10
3.6833433511
 20
8.8291436816
 10
3.7022248416
 20
8.8302163312
 10
3.7298669872
 20
8.8312889807
 10
3.7654869001
 20
8.8323616303
 10
3.808075744
 20
8.8334342799
 10
3.8564273069
 20
8.8345069294
 10
3.9091721637
 20
8.835579579
 10
3.9648164612
 20
8.8366522286
 10
4.0217842276
 20
8.8377248782
 10
4.0784620074
 20
8.8387975277
 10
4.1332445581
 20
8.8398701773
 10
4.1845803145
 20
8.8409428269
 10
4.2310153324
 20
8.8420154764
 10
4.2712344674
 20
8.843088126
 10
4.3040986231
 20
8.8441607756
 10
4.3286770124
 20
8.8452334252
 10
4.3442735201
 20
8.8463060747
  0
LWPOLYLINE
  5
799
100
AcDbEntity
  8
0
100
AcDbPolyline
 62
7
  6
CONTINUOUS
 90
11
 70
0
 10
3.6575927005
 20
8.8461366405
 10
3.6594893733
 20
8.8467000492
 10
3.6701031373
 20
8.8477333242
 10
3.6896917701
 20
8.8487665928
 10
3.7177396422
 20
8.8497998365
 10
3.7535102861
 20
8.8508330901
 10
3.7960643001
 20
8.8518663672
 10
3.8442823193
 20
8.852899643
 10
3.8968951376
 20
8.8539328841
 10
3.9525208184
 20
8.8549661145
 10
4.0669232018
 20
8.8570325705
  0
LINE
  5
79A
100
AcDbEntity
  8
0
100
AcDbLine
 62
7
  6
CONTINUOUS
 10
3.6575454012
 20
8.7240325705
 11
3.6622627123
 21
8.7250730276
  0
LINE
  5
79B
100
AcDbEntity
  8
0
100
AcDbLine
 62
7
  6
CONTINUOUS
 10
3.6575454012
 20
8.6840325705
 11
3.6623308449
 21
8.6850805313
  0
LWPOLYLINE
  5
79C
100
AcDbEntity
  8
0
100
AcDbPolyline
 62
7
  6
CONTINUOUS
 90
20
 70
0
 10
3.6725947925
 20
8.7426412445
 10
3.6777293134
 20
8.7436473246
 10
3.6923068588
 20
8.7447169967
 10
3.7158759517
 20
8.7457866688
 10
3.7477727543
 20
8.746856341
 10
3.7870988738
 20
8.7479260131
 10
3.8327466662
 20
8.7489956852
 10
3.8834304336
 20
8.7500653574
 10
3.937722637
 20
8.7511350295
 10
3.9940941033
 20
8.7522047016
 10
4.0509570961
 20
8.7532743737
 10
4.1067100345
 20
8.7543440459
 10
4.1597826032
 20
8.755413718
 10
4.2086799811
 20
8.7564833901
 10
4.2520249436
 20
8.7575530623
 10
4.2885966537
 20
8.7586227344
 10
4.3173650469
 20
8.7596924065
 10
4.3375198439
 20
8.7607620787
 10
4.3484933727
 20
8.7618317508
 10
4.3505454012
 20
8.7625325705
  0
LINE
  5
79D
100
AcDbEntity
  8
0
100
AcDbLine
 62
7
  6
CONTINUOUS
 10
4.3442735201
 20
8.8463060747
 11
4.3504960099
 21
8.8474238965
  0
LWPOLYLINE
  5
79E
100
AcDbEntity
  8
0
100
AcDbPolyline
 62
7
  6
CONTINUOUS
 90
19
 70
0
 10
4.3607453845
 20
8.8249830116
 10
4.346248153
 20
8.8239208615
 10
4.3225141374
 20
8.8228609128
 10
4.2906845619
 20
8.8218157069
 10
4.2511038598
 20
8.8207645447
 10
4.2046619692
 20
8.8197059801
 10
4.153253626
 20
8.8186544918
 10
4.0985904549
 20
8.8176141744
 10
4.0407446433
 20
8.8165582755
 10
3.9817026314
 20
8.815495252
 10
3.923886527
 20
8.8144395756
 10
3.8691170803
 20
8.8133965107
 10
3.8176851352
 20
8.8123431897
 10
3.7715486292
 20
8.8112898816
 10
3.7323840732
 20
8.8102487857
 10
3.7005754717
 20
8.8092041832
 10
3.6768409855
 20
8.8081441875
 10
3.6623447983
 20
8.8070820615
 10
3.6575927005
 20
8.8061366405
  0
LWPOLYLINE
  5
79F
100
AcDbEntity
  8
0
100
AcDbPolyline
 62
7
  6
CONTINUOUS
 90
19
 70
0
 10
4.3607185812
 20
8.7849800786
 10
4.3461412425
 20
8.7839149656
 10
4.3222808437
 20
8.782852144
 10
4.2903001903
 20
8.7818044799
 10
4.2507884497
 20
8.7807568447
 10
4.2048691901
 20
8.7797104276
 10
4.1539019607
 20
8.7786672207
 10
4.0990850515
 20
8.7776233524
 10
4.0410973112
 20
8.7765646397
 10
3.981892091
 20
8.7754986713
 10
3.9239114765
 20
8.7744400387
 10
3.8690738648
 20
8.7733956618
 10
3.8179573295
 20
8.7723490382
 10
3.7722041922
 20
8.7713059008
 10
3.7327864439
 20
8.7702605394
 10
3.7008088337
 20
8.7692129547
 10
3.6769478896
 20
8.7681500833
 10
3.6623716
 20
8.7670849945
 10
3.6575927005
 20
8.7661366405
  0
LWPOLYLINE
  5
7A0
100
AcDbEntity
  8
0
100
AcDbPolyline
 62
7
  6
CONTINUOUS
 90
19
 70
0
 10
3.6623588698
 20
8.7650836024
 10
3.6768971098
 20
8.7661472848
 10
3.7006980411
 20
8.7672087931
 10
3.732609401
 20
8.7682553712
 10
3.7721990151
 20
8.7693057744
 10
3.8184888501
 20
8.7703604486
 10
3.8695737144
 20
8.7714054779
 10
3.9242830244
 20
8.7724469342
 10
3.9822023509
 20
8.7735042704
 10
4.0413301226
 20
8.7745688413
 10
4.0992335557
 20
8.7756261088
 10
4.1540508306
 20
8.776670145
 10
4.2053874688
 20
8.7777215601
 10
4.2513212858
 20
8.7787698577
 10
4.2904987917
 20
8.7798102777
 10
4.3223916268
 20
8.7808563052
 10
4.3461920149
 20
8.7819177636
 10
4.3607313121
 20
8.7829814707
 10
4.3654981019
 20
8.7839285005
  0
LWPOLYLINE
  5
7A1
100
AcDbEntity
  8
0
100
AcDbPolyline
 62
7
  6
CONTINUOUS
 90
4
 70
0
 10
3.4534075663
 20
9.1478845557
 10
3.4535920484
 20
9.1477461932
 10
3.4537299977
 20
9.1473591876
 10
3.4537799399
 20
9.1468345557
  0
LINE
  5
7A2
100
AcDbEntity
  8
0
100
AcDbLine
 62
7
  6
CONTINUOUS
 10
3.6725947925
 20
8.5426412445
 11
3.6575927005
 21
8.5261366405
  0
LWPOLYLINE
  5
7A3
100
AcDbEntity
  8
0
100
AcDbPolyline
 62
7
  6
CONTINUOUS
 90
10
 70
0
 10
3.6725454012
 20
8.7075325705
 10
3.673194958
 20
8.7079267311
 10
3.6815080712
 20
8.7089997238
 10
3.6991745522
 20
8.7100727165
 10
3.7256937269
 20
8.7111457092
 10
3.7603140332
 20
8.7122187019
 10
3.80205432
 20
8.7132916946
 10
3.8497316538
 20
8.7143646873
 10
3.9019948429
 20
8.71543768
 10
3.9573627314
 20
8.7165106727
  0
LINE
  5
7A4
100
AcDbEntity
  8
0
100
AcDbLine
 62
7
  6
CONTINUOUS
 10
3.6725947925
 20
8.7026412445
 11
3.673194958
 21
8.7029267311
  0
LINE
  5
7A5
100
AcDbEntity
  8
0
100
AcDbLine
 62
7
  6
CONTINUOUS
 10
3.6725947925
 20
8.7826412445
 11
3.6745497568
 21
8.7832251934
  0
LINE
  5
7A6
100
AcDbEntity
  8
0
100
AcDbLine
 62
7
  6
CONTINUOUS
 10
3.6575454012
 20
8.7640325705
 11
3.6623588698
 21
8.7650836024
  0
LWPOLYLINE
  5
7A7
100
AcDbEntity
  8
0
100
AcDbPolyline
 62
7
  6
CONTINUOUS
 90
19
 70
0
 10
3.6725454012
 20
8.7475325705
 10
3.6781805924
 20
8.7486949636
 10
3.6932237431
 20
8.7497676132
 10
3.7172824802
 20
8.7508402628
 10
3.7496754062
 20
8.7519129123
 10
3.7894850803
 20
8.7529855619
 10
3.835584003
 20
8.7540582115
 10
3.8866665488
 20
8.7551308611
 10
3.9412859451
 20
8.7562035106
 10
3.9978952475
 20
8.7572761602
 10
4.054891153
 20
8.7583488098
 10
4.1106594091
 20
8.7594214594
 10
4.1636205332
 20
8.7604941089
 10
4.2122745471
 20
8.7615667585
 10
4.2552434593
 20
8.7626394081
 10
4.2913102935
 20
8.7637120576
 10
4.3194535557
 20
8.7647847072
 10
4.3388761654
 20
8.7658573568
 10
4.3490280304
 20
8.7669300064
  0
LWPOLYLINE
  5
7A8
100
AcDbEntity
  8
0
100
AcDbPolyline
 62
7
  6
CONTINUOUS
 90
19
 70
0
 10
3.6745497568
 20
8.7832251934
 10
3.6854514
 20
8.7842948655
 10
3.7055376789
 20
8.7853645377
 10
3.7342428513
 20
8.7864342098
 10
3.7707584185
 20
8.7875038819
 10
3.8140558975
 20
8.7885735541
 10
3.8629157883
 20
8.7896432262
 10
3.9159619225
 20
8.7907128983
 10
3.9717002235
 20
8.7917825705
 10
4.0285607881
 20
8.7928522426
 10
4.084942104
 20
8.7939219147
 10
4.1392561571
 20
8.7949915869
 10
4.1899731592
 20
8.796061259
 10
4.2356646351
 20
8.7971309311
 10
4.2750436565
 20
8.7982006033
 10
4.3070010895
 20
8.7992702754
 10
4.3306368334
 20
8.8003399475
 10
4.3452851732
 20
8.8014096196
 10
4.3505454012
 20
8.8025325705
  0
LWPOLYLINE
  5
7A9
100
AcDbEntity
  8
0
100
AcDbPolyline
 62
7
  6
CONTINUOUS
 90
19
 70
0
 10
3.6623716
 20
8.8050849945
 10
3.6769478896
 20
8.8061500833
 10
3.7008088337
 20
8.8072129547
 10
3.7327864439
 20
8.8082605394
 10
3.7722041922
 20
8.8093059008
 10
3.8179573295
 20
8.8103490382
 10
3.8690738648
 20
8.8113956618
 10
3.9239114765
 20
8.8124400387
 10
3.981892091
 20
8.8134986713
 10
4.0410973112
 20
8.8145646397
 10
4.0990850515
 20
8.8156233524
 10
4.1539019607
 20
8.8166672207
 10
4.2048691901
 20
8.8177104276
 10
4.2507884497
 20
8.8187568447
 10
4.2903001903
 20
8.8198044799
 10
4.3222808437
 20
8.820852144
 10
4.3461412425
 20
8.8219149656
 10
4.3607185812
 20
8.8229800786
 10
4.3654981019
 20
8.8239285005
  0
LINE
  5
7AA
100
AcDbEntity
  8
0
100
AcDbLine
 62
7
  6
CONTINUOUS
 10
4.1722580381
 20
8.8570325705
 11
4.1175277446
 21
8.8559682013
  0
LWPOLYLINE
  5
7AB
100
AcDbEntity
  8
0
100
AcDbPolyline
 62
7
  6
CONTINUOUS
 90
11
 70
0
 10
4.1175277446
 20
8.8559682013
 10
4.059839846
 20
8.8549037958
 10
4.0008022863
 20
8.8538393408
 10
3.9420638721
 20
8.8527748766
 10
3.8852640395
 20
8.8517104231
 10
3.8319860662
 20
8.8506459615
 10
3.7837157711
 20
8.8495814837
 10
3.7418008016
 20
8.8485170169
 10
3.7074098677
 20
8.8474525537
 10
3.6815017116
 20
8.8463880731
 10
3.6647996139
 20
8.8453235908
  0
LINE
  5
7AC
100
AcDbEntity
  8
0
100
AcDbLine
 62
7
  6
CONTINUOUS
 10
3.6674910686
 20
8.8570325705
 11
4.3592480049
 21
8.8570325705
  0
LINE
  5
7AD
100
AcDbEntity
  8
0
100
AcDbLine
 62
7
  6
CONTINUOUS
 10
3.6579268516
 20
8.5243281345
 11
3.6575454012
 21
8.5240325628
  0
LINE
  5
7AE
100
AcDbEntity
  8
0
100
AcDbLine
 62
7
  6
CONTINUOUS
 10
3.6725947925
 20
8.5826412445
 11
3.672745926
 21
8.5827515486
  0
LWPOLYLINE
  5
7AF
100
AcDbEntity
  8
0
100
AcDbPolyline
 62
7
  6
CONTINUOUS
 90
19
 70
0
 10
3.6725454012
 20
8.7875325705
 10
3.675565617
 20
8.7883829978
 10
3.6878950275
 20
8.7894556474
 10
3.7093909456
 20
8.790528297
 10
3.7394445587
 20
8.7916009465
 10
3.7772046805
 20
8.7926735961
 10
3.8216018595
 20
8.7937462457
 10
3.8713786675
 20
8.7948188953
 10
3.9251253132
 20
8.7958915448
 10
3.9813195704
 20
8.7969641944
 10
4.0383698912
 20
8.798036844
 10
4.0946604821
 20
8.7991094935
 10
4.1485970666
 20
8.8001821431
 10
4.1986520392
 20
8.8012547927
 10
4.2434077303
 20
8.8023274423
 10
4.281596558
 20
8.8034000918
 10
4.3121369285
 20
8.8044727414
 10
4.3341638698
 20
8.805545391
 10
4.3470535293
 20
8.8066180406
  0
LINE
  5
7B0
100
AcDbEntity
  8
0
100
AcDbLine
 62
7
  6
CONTINUOUS
 10
3.6575454012
 20
8.8040325705
 11
3.6623716
 21
8.8050849945
  0
LWPOLYLINE
  5
7B1
100
AcDbEntity
  8
0
100
AcDbPolyline
 62
7
  6
CONTINUOUS
 90
3
 70
0
 10
3.6647996139
 20
8.8453235908
 10
3.6577695638
 20
8.8442591382
 10
3.6575454012
 20
8.8440325772
  0
LWPOLYLINE
  5
7B2
100
AcDbEntity
  8
0
100
AcDbPolyline
 62
7
  6
CONTINUOUS
 90
20
 70
0
 10
3.6728513525
 20
8.8228030623
 10
3.680029179
 20
8.8238727344
 10
3.6965443614
 20
8.8249424065
 10
3.7219317395
 20
8.8260120787
 10
3.7554762624
 20
8.8270817508
 10
3.7962331282
 20
8.8281514229
 10
3.843054395
 20
8.8292210951
 10
3.8946213134
 20
8.8302907672
 10
3.9494814698
 20
8.8313604393
 10
4.0060896946
 20
8.8324301115
 10
4.0628515826
 20
8.8334997836
 10
4.1181684009
 20
8.8345694557
 10
4.1704821176
 20
8.8356391278
 10
4.218319285
 20
8.8367088
 10
4.2603325404
 20
8.8377784721
 10
4.2953385548
 20
8.8388481442
 10
4.3223513626
 20
8.8399178164
 10
4.3406101315
 20
8.8409874885
 10
4.3496005924
 20
8.8420571606
 10
4.3505454012
 20
8.8425325705
  0
LINE
  5
7B3
100
AcDbEntity
  8
0
100
AcDbLine
 62
9
  6
CONTINUOUS
 10
4.3502954012
 20
8.8945325705
 11
3.6727954012
 21
8.8945325705
  0
LINE
  5
7B4
100
AcDbEntity
  8
0
100
AcDbLine
 62
7
  6
CONTINUOUS
 10
4.5435454012
 20
8.9070325705
 11
3.4795454012
 21
8.9070325705
  0
LWPOLYLINE
  5
7B5
100
AcDbEntity
  8
0
100
AcDbPolyline
 62
7
  6
CONTINUOUS
 90
4
 70
0
 10
3.4992130396
 20
9.1156187344
 10
3.4995199852
 20
9.1154754197
 10
3.4997442703
 20
9.1150825517
 10
3.4998223727
 20
9.1145687344
  0
LWPOLYLINE
  5
7B6
100
AcDbEntity
  8
0
100
AcDbPolyline
 62
7
  6
CONTINUOUS
 90
4
 70
0
 10
3.4992130396
 20
9.1478845557
 10
3.4995199852
 20
9.147741241
 10
3.4997442703
 20
9.147348373
 10
3.4998223727
 20
9.1468345557
  0
LWPOLYLINE
  5
7B7
100
AcDbEntity
  8
0
100
AcDbPolyline
 62
7
  6
CONTINUOUS
 90
4
 70
0
 10
3.5164425487
 20
9.1156187344
 10
3.5161328886
 20
9.1157657926
 10
3.5159118705
 20
9.116161226
 10
3.5158365392
 20
9.1166687336
  0
LINE
  5
7B8
100
AcDbEntity
  8
0
100
AcDbLine
 62
7
  6
CONTINUOUS
 10
4.3565030353
 20
8.5160325705
 11
4.3504960099
 21
8.5226412445
  0
LINE
  5
7B9
100
AcDbEntity
  8
0
100
AcDbLine
 62
7
  6
CONTINUOUS
 10
4.3654981019
 20
8.5461366405
 11
4.3504960099
 21
8.5626412445
  0
LWPOLYLINE
  5
7BA
100
AcDbEntity
  8
0
100
AcDbPolyline
 62
7
  6
CONTINUOUS
 90
19
 70
0
 10
3.6725454012
 20
8.6675325705
 10
3.6745544297
 20
8.6682260011
 10
3.685511548
 20
8.6692989938
 10
3.7057085742
 20
8.6703719865
 10
3.7345731177
 20
8.6714449792
 10
3.771287148
 20
8.6725179719
 10
3.814810177
 20
8.6735909646
 10
3.8639087477
 20
8.6746639573
 10
3.9171913903
 20
8.67573695
 10
3.9731480569
 20
8.6768099427
 10
4.0301929171
 20
8.6778829354
 10
4.0867093005
 20
8.6789559281
 10
4.1410955139
 20
8.6800289208
 10
4.1918102341
 20
8.6811019135
 10
4.2374161889
 20
8.6821749062
 10
4.2766208905
 20
8.6832478989
 10
4.3083132645
 20
8.6843208916
 10
4.3315951386
 20
8.6853938843
 10
4.3458066966
 20
8.686466877
  0
LINE
  5
7BB
100
AcDbEntity
  8
0
100
AcDbLine
 62
7
  6
CONTINUOUS
 10
3.6725947925
 20
8.6626412445
 11
3.6745544297
 21
8.6632260011
  0
LINE
  5
7BC
100
AcDbEntity
  8
0
100
AcDbLine
 62
9
  6
CONTINUOUS
 10
4.6035454012
 20
8.9670325705
 11
3.4195454012
 21
8.9670325705
  0
LWPOLYLINE
  5
7BD
100
AcDbEntity
  8
0
100
AcDbPolyline
 62
7
  6
CONTINUOUS
 90
4
 70
0
 10
3.4644478387
 20
9.1051187344
 10
3.4625464912
 20
9.1055357267
 10
3.4607573288
 20
9.1067659417
 10
3.4591449915
 20
9.1087344919
  0
LINE
  5
7BE
100
AcDbEntity
  8
0
100
AcDbLine
 62
7
  6
CONTINUOUS
 10
4.3654981019
 20
8.5861366405
 11
4.3504960099
 21
8.6026412445
  0
LINE
  5
7BF
100
AcDbEntity
  8
0
100
AcDbLine
 62
7
  6
CONTINUOUS
 10
4.3654981019
 20
8.6261366405
 11
4.3504960099
 21
8.6426412445
  0
LINE
  5
7C0
100
AcDbEntity
  8
0
100
AcDbLine
 62
7
  6
CONTINUOUS
 10
3.6575927005
 20
8.5261366405
 11
3.6580621086
 21
8.5263765786
  0
LWPOLYLINE
  5
7C1
100
AcDbEntity
  8
0
100
AcDbPolyline
 62
7
  6
CONTINUOUS
 90
19
 70
0
 10
3.6725454012
 20
8.5475325705
 10
3.6740972418
 20
8.5481419455
 10
3.6842766855
 20
8.549212258
 10
3.7036848653
 20
8.5502825705
 10
3.7317744848
 20
8.551352883
 10
3.7677534377
 20
8.5524231955
 10
3.8106071438
 20
8.553493508
 10
3.8591271604
 20
8.5545638205
 10
3.9119452589
 20
8.555634133
 10
3.9675720078
 20
8.5567044455
 10
4.024438774
 20
8.557774758
 10
4.0809419565
 20
8.5588450705
 10
4.1354882075
 20
8.559915383
 10
4.1865393628
 20
8.5609856955
 10
4.2326558176
 20
8.562056008
 10
4.272537122
 20
8.5631263205
 10
4.3050586526
 20
8.564196633
 10
4.3293033262
 20
8.5652669455
 10
4.3445874611
 20
8.566337258
  0
LINE
  5
7C2
100
AcDbEntity
  8
0
100
AcDbLine
 62
7
  6
CONTINUOUS
 10
4.3654981019
 20
8.6661366405
 11
4.3504960099
 21
8.6826412445
  0
LINE
  5
7C3
100
AcDbEntity
  8
0
100
AcDbLine
 62
7
  6
CONTINUOUS
 10
4.3654981019
 20
8.7061366405
 11
4.3504960099
 21
8.7226412445
  0
LINE
  5
7C4
100
AcDbEntity
  8
0
100
AcDbLine
 62
7
  6
CONTINUOUS
 10
4.3490280304
 20
8.7669300064
 11
4.3504960099
 21
8.7674238965
  0
LINE
  5
7C5
100
AcDbEntity
  8
0
100
AcDbLine
 62
7
  6
CONTINUOUS
 10
4.3654981019
 20
8.7461366405
 11
4.3504960099
 21
8.7626412445
  0
LINE
  5
7C6
100
AcDbEntity
  8
0
100
AcDbLine
 62
7
  6
CONTINUOUS
 10
4.3654981019
 20
8.7861366405
 11
4.3504960099
 21
8.8026412445
  0
LINE
  5
7C7
100
AcDbEntity
  8
0
100
AcDbLine
 62
7
  6
CONTINUOUS
 10
4.3654981019
 20
8.8261366405
 11
4.3504960099
 21
8.8426412445
  0
LINE
  5
7C8
100
AcDbEntity
  8
0
100
AcDbLine
 62
7
  6
CONTINUOUS
 10
4.3504960099
 20
8.8474238965
 11
4.3592299274
 21
8.8570325705
  0
LINE
  5
7C9
100
AcDbEntity
  8
0
100
AcDbLine
 62
7
  6
CONTINUOUS
 10
4.3504960099
 20
8.8074238965
 11
4.3654981019
 21
8.8239285005
  0
LINE
  5
7CA
100
AcDbEntity
  8
0
100
AcDbLine
 62
7
  6
CONTINUOUS
 10
3.419571855
 20
9.1051187344
 11
3.4221262995
 21
9.1051187344
  0
LINE
  5
7CB
100
AcDbEntity
  8
0
100
AcDbLine
 62
7
  6
CONTINUOUS
 10
3.4221946542
 20
9.1051187344
 11
3.4365533878
 21
9.1051187344
  0
LINE
  5
7CC
100
AcDbEntity
  8
0
100
AcDbLine
 62
7
  6
CONTINUOUS
 10
3.436770092
 20
9.1051187344
 11
3.4641689719
 21
9.1051187344
  0
LINE
  5
7CD
100
AcDbEntity
  8
0
100
AcDbLine
 62
7
  6
CONTINUOUS
 10
3.4644478392
 20
9.1051187344
 11
3.5224600828
 21
9.1051187344
  0
LINE
  5
7CE
100
AcDbEntity
  8
0
100
AcDbLine
 62
9
  6
CONTINUOUS
 10
3.4435614346
 20
9.1056061763
 11
3.4624440329
 21
9.1056061763
  0
LINE
  5
7CF
100
AcDbEntity
  8
0
100
AcDbLine
 62
9
  6
CONTINUOUS
 10
3.4207688852
 20
9.1061687344
 11
3.4221262995
 21
9.1061687344
  0
LINE
  5
7D0
100
AcDbEntity
  8
0
100
AcDbLine
 62
9
  6
CONTINUOUS
 10
3.427986118
 20
9.1061687344
 11
3.4365533878
 21
9.1061687344
  0
LINE
  5
7D1
100
AcDbEntity
  8
0
100
AcDbLine
 62
9
  6
CONTINUOUS
 10
3.4998223727
 20
9.1061687344
 11
3.5230984154
 21
9.1061687344
  0
LINE
  5
7D2
100
AcDbEntity
  8
0
100
AcDbLine
 62
9
  6
CONTINUOUS
 10
3.4207688852
 20
9.1145687344
 11
3.4213312484
 21
9.1145687344
  0
LINE
  5
7D3
100
AcDbEntity
  8
0
100
AcDbLine
 62
9
  6
CONTINUOUS
 10
3.427986118
 20
9.1145687344
 11
3.4351848544
 21
9.1145687344
  0
LINE
  5
7D4
100
AcDbEntity
  8
0
100
AcDbLine
 62
9
  6
CONTINUOUS
 10
3.4998223727
 20
9.1145687344
 11
3.5230984154
 21
9.1145687344
  0
LINE
  5
7D5
100
AcDbEntity
  8
0
100
AcDbLine
 62
7
  6
CONTINUOUS
 10
3.4204663789
 20
9.1156187344
 11
3.4202573824
 21
9.1156187344
  0
LINE
  5
7D6
100
AcDbEntity
  8
0
100
AcDbLine
 62
7
  6
CONTINUOUS
 10
3.4265271807
 20
9.1156187344
 11
3.4350246664
 21
9.1156187344
  0
LINE
  5
7D7
100
AcDbEntity
  8
0
100
AcDbLine
 62
7
  6
CONTINUOUS
 10
3.4207022112
 20
9.1156187344
 11
3.4212401094
 21
9.1156187344
  0
LINE
  5
7D8
100
AcDbEntity
  8
0
100
AcDbLine
 62
7
  6
CONTINUOUS
 10
3.4708815861
 20
9.1156187344
 11
3.4795657794
 21
9.1156187344
  0
LINE
  5
7D9
100
AcDbEntity
  8
0
100
AcDbLine
 62
7
  6
CONTINUOUS
 10
3.4934654651
 20
9.1156187344
 11
3.5224600828
 21
9.1156187344
  0
LINE
  5
7DA
100
AcDbEntity
  8
0
100
AcDbLine
 62
7
  6
CONTINUOUS
 10
3.4416714113
 20
9.115849651
 11
3.4409401432
 21
9.115849651
  0
LINE
  5
7DB
100
AcDbEntity
  8
0
100
AcDbLine
 62
9
  6
CONTINUOUS
 10
3.4406972271
 20
9.1163291868
 11
3.4416714113
 21
9.1163291868
  0
LINE
  5
7DC
100
AcDbEntity
  8
0
100
AcDbLine
 62
9
  6
CONTINUOUS
 10
3.4202067739
 20
9.1166687344
 11
3.4211489705
 21
9.1166687344
  0
LINE
  5
7DD
100
AcDbEntity
  8
0
100
AcDbLine
 62
9
  6
CONTINUOUS
 10
3.4263654427
 20
9.1166687344
 11
3.4348644785
 21
9.1166687344
  0
LINE
  5
7DE
100
AcDbEntity
  8
0
100
AcDbLine
 62
9
  6
CONTINUOUS
 10
3.4928862879
 20
9.1166687344
 11
3.5158365392
 21
9.1166687344
  0
LINE
  5
7DF
100
AcDbEntity
  8
0
100
AcDbLine
 62
9
  6
CONTINUOUS
 10
3.4398601131
 20
9.1210877373
 11
3.4425295796
 21
9.1210877373
  0
LINE
  5
7E0
100
AcDbEntity
  8
0
100
AcDbLine
 62
7
  6
CONTINUOUS
 10
3.4425295796
 20
9.1227082015
 11
3.440097923
 21
9.1227082015
  0
LINE
  5
7E1
100
AcDbEntity
  8
0
100
AcDbLine
 62
7
  6
CONTINUOUS
 10
3.4708815861
 20
9.1229687344
 11
3.4795657794
 21
9.1229687344
  0
LINE
  5
7E2
100
AcDbEntity
  8
0
100
AcDbLine
 62
7
  6
CONTINUOUS
 10
3.4708815861
 20
9.1300345557
 11
3.4795657794
 21
9.1300345557
  0
LINE
  5
7E3
100
AcDbEntity
  8
0
100
AcDbLine
 62
7
  6
CONTINUOUS
 10
3.4394371191
 20
9.1315963419
 11
3.4438405931
 21
9.1315963419
  0
LINE
  5
7E4
100
AcDbEntity
  8
0
100
AcDbLine
 62
9
  6
CONTINUOUS
 10
3.4392033773
 20
9.1320758777
 11
3.4435792073
 21
9.1320758777
  0
LINE
  5
7E5
100
AcDbEntity
  8
0
100
AcDbLine
 62
9
  6
CONTINUOUS
 10
3.4385777845
 20
9.1357640914
 11
3.4442724318
 21
9.1357640914
  0
LINE
  5
7E6
100
AcDbEntity
  8
0
100
AcDbLine
 62
9
  6
CONTINUOUS
 10
3.4263654427
 20
9.1363345557
 11
3.4320448124
 21
9.1363345557
  0
LINE
  5
7E7
100
AcDbEntity
  8
0
100
AcDbLine
 62
9
  6
CONTINUOUS
 10
3.4928862879
 20
9.1363345557
 11
3.5158365392
 21
9.1363345557
  0
LINE
  5
7E8
100
AcDbEntity
  8
0
100
AcDbLine
 62
9
  6
CONTINUOUS
 10
3.4497770255
 20
9.1368971138
 11
3.4571400127
 21
9.1368971138
  0
LINE
  5
7E9
100
AcDbEntity
  8
0
100
AcDbLine
 62
7
  6
CONTINUOUS
 10
3.4317818283
 20
9.1373845557
 11
3.4300926961
 21
9.1373845557
  0
LINE
  5
7EA
100
AcDbEntity
  8
0
100
AcDbLine
 62
7
  6
CONTINUOUS
 10
3.4243258812
 20
9.1373845557
 11
3.423288005
 21
9.1373845557
  0
LINE
  5
7EB
100
AcDbEntity
  8
0
100
AcDbLine
 62
7
  6
CONTINUOUS
 10
3.4265271807
 20
9.1373845557
 11
3.4298927793
 21
9.1373845557
  0
LINE
  5
7EC
100
AcDbEntity
  8
0
100
AcDbLine
 62
7
  6
CONTINUOUS
 10
3.4388075974
 20
9.1373845557
 11
3.4425629779
 21
9.1373845557
  0
LINE
  5
7ED
100
AcDbEntity
  8
0
100
AcDbLine
 62
7
  6
CONTINUOUS
 10
3.4428656979
 20
9.1373845557
 11
3.4445377965
 21
9.1373845557
  0
LINE
  5
7EE
100
AcDbEntity
  8
0
100
AcDbLine
 62
7
  6
CONTINUOUS
 10
3.4500725515
 20
9.1373845557
 11
3.4571400127
 21
9.1373845557
  0
LINE
  5
7EF
100
AcDbEntity
  8
0
100
AcDbLine
 62
7
  6
CONTINUOUS
 10
3.4708815861
 20
9.1373845557
 11
3.4795657794
 21
9.1373845557
  0
LINE
  5
7F0
100
AcDbEntity
  8
0
100
AcDbLine
 62
7
  6
CONTINUOUS
 10
3.4934654651
 20
9.1373845557
 11
3.5224600828
 21
9.1373845557
  0
LINE
  5
7F1
100
AcDbEntity
  8
0
100
AcDbLine
 62
9
  6
CONTINUOUS
 10
3.427986118
 20
9.1384345557
 11
3.4298927793
 21
9.1384345557
  0
LINE
  5
7F2
100
AcDbEntity
  8
0
100
AcDbLine
 62
9
  6
CONTINUOUS
 10
3.4407338318
 20
9.1384345557
 11
3.4425629779
 21
9.1384345557
  0
LINE
  5
7F3
100
AcDbEntity
  8
0
100
AcDbLine
 62
9
  6
CONTINUOUS
 10
3.4537799399
 20
9.1384345557
 11
3.4571400127
 21
9.1384345557
  0
LINE
  5
7F4
100
AcDbEntity
  8
0
100
AcDbLine
 62
9
  6
CONTINUOUS
 10
3.4998223727
 20
9.1384345557
 11
3.5230984154
 21
9.1384345557
  0
LINE
  5
7F5
100
AcDbEntity
  8
0
100
AcDbLine
 62
9
  6
CONTINUOUS
 10
3.427986118
 20
9.1468345557
 11
3.4300926961
 21
9.1468345557
  0
LINE
  5
7F6
100
AcDbEntity
  8
0
100
AcDbLine
 62
9
  6
CONTINUOUS
 10
3.4407338318
 20
9.1468345557
 11
3.4425629779
 21
9.1468345557
  0
LINE
  5
7F7
100
AcDbEntity
  8
0
100
AcDbLine
 62
9
  6
CONTINUOUS
 10
3.4537799399
 20
9.1468345557
 11
3.4605034892
 21
9.1468345557
  0
LINE
  5
7F8
100
AcDbEntity
  8
0
100
AcDbLine
 62
9
  6
CONTINUOUS
 10
3.4998223727
 20
9.1468345557
 11
3.5230984154
 21
9.1468345557
  0
LINE
  5
7F9
100
AcDbEntity
  8
0
100
AcDbLine
 62
9
  6
CONTINUOUS
 10
3.4214549394
 20
9.1475942368
 11
3.423288005
 21
9.1475942368
  0
LINE
  5
7FA
100
AcDbEntity
  8
0
100
AcDbLine
 62
7
  6
CONTINUOUS
 10
3.4197432578
 20
9.1478845557
 11
3.4425629779
 21
9.1478845557
  0
LINE
  5
7FB
100
AcDbEntity
  8
0
100
AcDbLine
 62
7
  6
CONTINUOUS
 10
3.4428656979
 20
9.1478845557
 11
3.5224600828
 21
9.1478845557
  0
LINE
  5
7FC
100
AcDbEntity
  8
02___PRT_ALL_AXES
100
AcDbLine
 62
7
  6
CONTINUOUS
 10
4.330443039
 20
8.5160325705
 11
4.330443039
 21
8.2955601295
  0
LINE
  5
7FD
100
AcDbEntity
  8
0
100
AcDbLine
 62
7
  6
CONTINUOUS
 10
4.330443039
 20
8.5160325705
 11
4.330443039
 21
8.2955601295
  0
LINE
  5
7FE
100
AcDbEntity
  8
0
100
AcDbLine
 62
7
  6
CONTINUOUS
 10
4.3502954012
 20
8.8945325705
 11
4.3502954012
 21
8.8570325705
  0
LINE
  5
7FF
100
AcDbEntity
  8
0
100
AcDbLine
 62
7
  6
CONTINUOUS
 10
4.3505454012
 20
8.5225325705
 11
4.3505454012
 21
8.5275325705
  0
LINE
  5
800
100
AcDbEntity
  8
0
100
AcDbLine
 62
7
  6
CONTINUOUS
 10
4.3505454012
 20
8.5625325705
 11
4.3505454012
 21
8.5675325705
  0
LINE
  5
801
100
AcDbEntity
  8
0
100
AcDbLine
 62
7
  6
CONTINUOUS
 10
4.3505454012
 20
8.6025325705
 11
4.3505454012
 21
8.6075325705
  0
LINE
  5
802
100
AcDbEntity
  8
0
100
AcDbLine
 62
7
  6
CONTINUOUS
 10
4.3505454012
 20
8.6425325705
 11
4.3505454012
 21
8.6475325705
  0
LINE
  5
803
100
AcDbEntity
  8
0
100
AcDbLine
 62
7
  6
CONTINUOUS
 10
4.3505454012
 20
8.6825325705
 11
4.3505454012
 21
8.6875325705
  0
LINE
  5
804
100
AcDbEntity
  8
0
100
AcDbLine
 62
7
  6
CONTINUOUS
 10
4.3505454012
 20
8.7225325705
 11
4.3505454012
 21
8.7275325705
  0
LINE
  5
805
100
AcDbEntity
  8
0
100
AcDbLine
 62
7
  6
CONTINUOUS
 10
4.3505454012
 20
8.7625325705
 11
4.3505454012
 21
8.7675325705
  0
LINE
  5
806
100
AcDbEntity
  8
0
100
AcDbLine
 62
7
  6
CONTINUOUS
 10
4.3505454012
 20
8.8025325705
 11
4.3505454012
 21
8.8075325705
  0
LINE
  5
807
100
AcDbEntity
  8
0
100
AcDbLine
 62
7
  6
CONTINUOUS
 10
4.3505454012
 20
8.8425325705
 11
4.3505454012
 21
8.8475325705
  0
LINE
  5
808
100
AcDbEntity
  8
0
100
AcDbLine
 62
7
  6
CONTINUOUS
 10
4.3655454012
 20
8.8260325705
 11
4.3655454012
 21
8.8240325705
  0
LINE
  5
809
100
AcDbEntity
  8
0
100
AcDbLine
 62
7
  6
CONTINUOUS
 10
4.3655454012
 20
8.7860325705
 11
4.3655454012
 21
8.7840325705
  0
LINE
  5
80A
100
AcDbEntity
  8
0
100
AcDbLine
 62
7
  6
CONTINUOUS
 10
4.3655454012
 20
8.7460325705
 11
4.3655454012
 21
8.7440325705
  0
LINE
  5
80B
100
AcDbEntity
  8
0
100
AcDbLine
 62
7
  6
CONTINUOUS
 10
4.3655454012
 20
8.7060325705
 11
4.3655454012
 21
8.7040325705
  0
LINE
  5
80C
100
AcDbEntity
  8
0
100
AcDbLine
 62
7
  6
CONTINUOUS
 10
4.3655454012
 20
8.6660325705
 11
4.3655454012
 21
8.6640325705
  0
LINE
  5
80D
100
AcDbEntity
  8
0
100
AcDbLine
 62
7
  6
CONTINUOUS
 10
4.3655454012
 20
8.6260325705
 11
4.3655454012
 21
8.6240325705
  0
LINE
  5
80E
100
AcDbEntity
  8
0
100
AcDbLine
 62
7
  6
CONTINUOUS
 10
4.3655454012
 20
8.5860325705
 11
4.3655454012
 21
8.5840325705
  0
LINE
  5
80F
100
AcDbEntity
  8
0
100
AcDbLine
 62
7
  6
CONTINUOUS
 10
4.3655454012
 20
8.5460325705
 11
4.3655454012
 21
8.5440325705
  0
LINE
  5
810
100
AcDbEntity
  8
0
100
AcDbLine
 62
7
  6
CONTINUOUS
 10
4.3654981019
 20
8.8239285005
 11
4.3655454012
 21
8.8240325705
  0
LINE
  5
811
100
AcDbEntity
  8
0
100
AcDbLine
 62
7
  6
CONTINUOUS
 10
4.3654981019
 20
8.7839285005
 11
4.3655454012
 21
8.7840325705
  0
LINE
  5
812
100
AcDbEntity
  8
0
100
AcDbLine
 62
7
  6
CONTINUOUS
 10
4.3504960099
 20
8.7674238965
 11
4.3654981019
 21
8.7839285005
  0
LINE
  5
813
100
AcDbEntity
  8
0
100
AcDbLine
 62
7
  6
CONTINUOUS
 10
4.3504960099
 20
8.7274238965
 11
4.3654981019
 21
8.7439285005
  0
LINE
  5
814
100
AcDbEntity
  8
0
100
AcDbLine
 62
7
  6
CONTINUOUS
 10
4.3654981019
 20
8.7439285005
 11
4.3655454012
 21
8.7440325705
  0
LINE
  5
815
100
AcDbEntity
  8
0
100
AcDbLine
 62
7
  6
CONTINUOUS
 10
4.3654981019
 20
8.7039285005
 11
4.3655454012
 21
8.7040325705
  0
LINE
  5
816
100
AcDbEntity
  8
0
100
AcDbLine
 62
7
  6
CONTINUOUS
 10
4.3654981019
 20
8.6639285005
 11
4.3655454012
 21
8.6640325705
  0
LINE
  5
817
100
AcDbEntity
  8
0
100
AcDbLine
 62
7
  6
CONTINUOUS
 10
4.3504960099
 20
8.6874238965
 11
4.3654981019
 21
8.7039285005
  0
LINE
  5
818
100
AcDbEntity
  8
0
100
AcDbLine
 62
7
  6
CONTINUOUS
 10
4.3504960099
 20
8.6474238965
 11
4.3654981019
 21
8.6639285005
  0
LINE
  5
819
100
AcDbEntity
  8
0
100
AcDbLine
 62
7
  6
CONTINUOUS
 10
4.3496331102
 20
8.6070654172
 11
4.3504960099
 21
8.6074238965
  0
LINE
  5
81A
100
AcDbEntity
  8
0
100
AcDbLine
 62
7
  6
CONTINUOUS
 10
4.3654981019
 20
8.6239285005
 11
4.3655454012
 21
8.6240325705
  0
LINE
  5
81B
100
AcDbEntity
  8
0
100
AcDbLine
 62
7
  6
CONTINUOUS
 10
4.3654981019
 20
8.5839285005
 11
4.3655454012
 21
8.5840325705
  0
LINE
  5
81C
100
AcDbEntity
  8
0
100
AcDbLine
 62
7
  6
CONTINUOUS
 10
4.3655454012
 20
8.5440325705
 11
4.3654981019
 21
8.5439285005
  0
LINE
  5
81D
100
AcDbEntity
  8
0
100
AcDbLine
 62
7
  6
CONTINUOUS
 10
4.3504960099
 20
8.6074238965
 11
4.3654981019
 21
8.6239285005
  0
LINE
  5
81E
100
AcDbEntity
  8
0
100
AcDbLine
 62
7
  6
CONTINUOUS
 10
4.3504960099
 20
8.5674238965
 11
4.3654981019
 21
8.5839285005
  0
LINE
  5
81F
100
AcDbEntity
  8
0
100
AcDbLine
 62
7
  6
CONTINUOUS
 10
4.3504960099
 20
8.5274238965
 11
4.3654981019
 21
8.5439285005
  0
LINE
  5
820
100
AcDbEntity
  8
0
100
AcDbLine
 62
7
  6
CONTINUOUS
 10
3.4195496191
 20
9.3470325705
 11
4.603541162
 21
9.3470325705
  0
LINE
  5
821
100
AcDbEntity
  8
AXIS_COSMETIC_THREADS
100
AcDbLine
 62
7
  6
CONTINUOUS
 10
3.4205462997
 20
9.3620325705
 11
4.6025445027
 21
9.3620325705
  0
LINE
  5
822
100
AcDbEntity
  8
0
100
AcDbLine
 62
7
  6
CONTINUOUS
 10
4.5755454012
 20
9.3470325705
 11
4.5755454012
 21
9.3620325705
  0
LINE
  5
823
100
AcDbEntity
  8
0
100
AcDbLine
 62
9
  6
CONTINUOUS
 10
4.6022551498
 20
9.4420325705
 11
4.6025454012
 21
9.4420345663
  0
LWPOLYLINE
  5
824
100
AcDbEntity
  8
0
100
AcDbPolyline
 62
9
  6
CONTINUOUS
 90
5
 70
0
 10
3.4205454012
 20
9.4420345958
 10
3.4208270873
 20
9.4420324512
 10
3.4220472778
 20
9.4420325991
 10
3.424240994
 20
9.4420325637
 10
4.6022551498
 20
9.4420325705
  0
LWPOLYLINE
  5
825
100
AcDbEntity
  8
0
100
AcDbPolyline
 62
7
  6
CONTINUOUS
 90
8
 70
0
 10
4.6025454214
 20
9.4420338601
 10
4.6017665422
 20
9.4516700832
 10
4.5978970944
 20
9.4651894197
 10
4.5909871561
 20
9.4774367917
 10
4.5814163005
 20
9.4877394253
 10
4.5697102697
 20
9.4955313788
 10
4.5565120938
 20
9.5003846268
 10
4.5425467659
 20
9.5020325705
  0
LINE
  5
826
100
AcDbEntity
  8
AXIS_COSMETIC_THREADS
100
AcDbLine
 62
7
  6
CONTINUOUS
 10
4.6025454012
 20
9.3620325705
 11
4.6025454012
 21
9.4420310524
  0
LINE
  5
827
100
AcDbEntity
  8
0
100
AcDbLine
 62
7
  6
CONTINUOUS
 10
4.6035454012
 20
9.3470325705
 11
4.6035454012
 21
8.9670325705
  0
LINE
  5
828
100
AcDbEntity
  8
0
100
AcDbLine
 62
7
  6
CONTINUOUS
 10
3.4805435536
 20
9.5020325705
 11
4.542547293
 21
9.5020325705
  0
LWPOLYLINE
  5
829
100
AcDbEntity
  8
0
100
AcDbPolyline
 62
7
  6
CONTINUOUS
 90
8
 70
0
 10
3.4805440894
 20
9.5020325705
 10
3.466578754
 20
9.5003846264
 10
3.4533805703
 20
9.4955313777
 10
3.4416745314
 20
9.487739423
 10
3.4321036674
 20
9.4774367874
 10
3.4251937203
 20
9.4651894125
 10
3.4213242633
 20
9.4516700708
 10
3.4205453782
 20
9.4420338084
  0
LINE
  5
82A
100
AcDbEntity
  8
AXIS
100
AcDbLine
 62
7
  6
CONTINUOUS
 10
12.2774177488
 20
3.5876547765
 11
12.0444177488
 21
3.5876547765
  0
LWPOLYLINE
  5
82B
100
AcDbEntity
  8
0
100
AcDbPolyline
 62
9
  6
CONTINUOUS
 90
7
 70
0
 10
11.9040130973
 20
5.35922437
 10
11.8944419935
 20
5.3538758854
 10
11.8852577612
 20
5.34996047
 10
11.8772474031
 20
5.3475279264
 10
11.8710760949
 20
5.3462908496
 10
11.8672190218
 20
5.3458067951
 10
11.8659177488
 20
5.3456948792
  0
LINE
  5
82C
100
AcDbEntity
  8
0
100
AcDbLine
 62
7
  6
CONTINUOUS
 10
11.8997852623
 20
4.8675760363
 11
11.8709177488
 21
4.9175760363
  0
LINE
  5
82D
100
AcDbEntity
  8
0
100
AcDbLine
 62
7
  6
CONTINUOUS
 10
11.8659177488
 20
4.9675760363
 11
11.8659177488
 21
5.3456948792
  0
LINE
  5
82E
100
AcDbEntity
  8
0
100
AcDbLine
 62
7
  6
CONTINUOUS
 10
11.8709177488
 20
4.9675760363
 11
11.8709177488
 21
4.9175760363
  0
LINE
  5
82F
100
AcDbEntity
  8
0
100
AcDbLine
 62
7
  6
CONTINUOUS
 10
11.9040130973
 20
5.3558964299
 11
11.9040130973
 21
5.35922437
  0
LINE
  5
830
100
AcDbEntity
  8
AXIS
100
AcDbLine
 62
7
  6
CONTINUOUS
 10
12.0444177488
 20
4.8675760363
 11
12.0444177488
 21
3.5876547765
  0
LINE
  5
831
100
AcDbEntity
  8
AXIS_COSMETIC_THREADS
100
AcDbLine
 62
7
  6
CONTINUOUS
 10
12.0444177488
 20
4.8675760363
 11
12.0444177488
 21
3.5876547765
  0
LINE
  5
832
100
AcDbEntity
  8
0
100
AcDbLine
 62
7
  6
CONTINUOUS
 10
12.0689177488
 20
6.0475760363
 11
12.0689177488
 21
5.9225760363
  0
LINE
  5
833
100
AcDbEntity
  8
0
100
AcDbLine
 62
7
  6
CONTINUOUS
 10
11.8997852623
 20
4.8675760363
 11
12.4220502354
 21
4.8675760363
  0
LINE
  5
834
100
AcDbEntity
  8
0
100
AcDbLine
 62
7
  6
CONTINUOUS
 10
11.8709177488
 20
4.9175760363
 11
12.4509177488
 21
4.9175760363
  0
LINE
  5
835
100
AcDbEntity
  8
0
100
AcDbLine
 62
7
  6
CONTINUOUS
 10
11.8659177488
 20
4.9675760363
 11
12.4559177488
 21
4.9675760363
  0
LINE
  5
836
100
AcDbEntity
  8
0
100
AcDbLine
 62
7
  6
CONTINUOUS
 10
12.2539177488
 20
5.9225760363
 11
12.2539177488
 21
6.0475760363
  0
LINE
  5
837
100
AcDbEntity
  8
AXIS
100
AcDbLine
 62
7
  6
CONTINUOUS
 10
12.2774177488
 20
4.8675760363
 11
12.2774177488
 21
3.5876547765
  0
LINE
  5
838
100
AcDbEntity
  8
AXIS_COSMETIC_THREADS
100
AcDbLine
 62
7
  6
CONTINUOUS
 10
12.2774177488
 20
4.8675760363
 11
12.2774177488
 21
3.5876547765
  0
LINE
  5
839
100
AcDbEntity
  8
0
100
AcDbLine
 62
7
  6
CONTINUOUS
 10
12.4178224004
 20
5.3558964299
 11
12.4178224004
 21
5.35922437
  0
LINE
  5
83A
100
AcDbEntity
  8
0
100
AcDbLine
 62
7
  6
CONTINUOUS
 10
12.4509177488
 20
4.9675760363
 11
12.4509177488
 21
4.9175760363
  0
LINE
  5
83B
100
AcDbEntity
  8
0
100
AcDbLine
 62
7
  6
CONTINUOUS
 10
12.4559177488
 20
4.9675760363
 11
12.4559177488
 21
5.3456948792
  0
LINE
  5
83C
100
AcDbEntity
  8
0
100
AcDbLine
 62
7
  6
CONTINUOUS
 10
12.4509177488
 20
4.9175760363
 11
12.4220502354
 21
4.8675760363
  0
LWPOLYLINE
  5
83D
100
AcDbEntity
  8
0
100
AcDbPolyline
 62
9
  6
CONTINUOUS
 90
82
 70
0
 10
12.1609177488
 20
5.3025760363
 10
12.175847671
 20
5.3029318033
 10
12.1911205846
 20
5.3040185675
 10
12.2067238776
 20
5.3058659151
 10
12.2226516435
 20
5.3085057362
 10
12.238902541
 20
5.3119731886
 10
12.2554724141
 20
5.3163058233
 10
12.2723605259
 20
5.3215449514
 10
12.2895888353
 20
5.3277437817
 10
12.3071742946
 20
5.3349608185
 10
12.3251583291
 20
5.3432725496
 10
12.3437164745
 20
5.3528385084
 10
12.3626027848
 20
5.363604648
 10
12.381515077
 20
5.3754224297
 10
12.4001885484
 20
5.3880942084
 10
12.4183849871
 20
5.4013742375
 10
12.4359110872
 20
5.4149917552
 10
12.4526852586
 20
5.4287486833
 10
12.468966005
 20
5.4428146272
 10
12.4848630058
 20
5.4572925918
 10
12.5003233476
 20
5.4721489311
 10
12.5153210899
 20
5.4873712058
 10
12.5298538007
 20
5.5029708325
 10
12.5439166492
 20
5.5189601691
 10
12.5574989838
 20
5.5353482757
 10
12.5705793924
 20
5.5521331216
 10
12.5831358061
 20
5.5693120396
 10
12.595147126
 20
5.5868841116
 10
12.6065901923
 20
5.6048460899
 10
12.6174401116
 20
5.6231922742
 10
12.6276707249
 20
5.6419146892
 10
12.6372550703
 20
5.6610034385
 10
12.6461653479
 20
5.6804462156
 10
12.6543689114
 20
5.7002174683
 10
12.6618326255
 20
5.72028357
 10
12.6685361076
 20
5.7406413285
 10
12.6744583205
 20
5.7612931287
 10
12.679571276
 20
5.7822254863
 10
12.6838259416
 20
5.8033143571
 10
12.6871824051
 20
5.8243760243
 10
12.6896427705
 20
5.8453820326
 10
12.6912184065
 20
5.866463583
 10
12.6918928173
 20
5.8876514333
 10
12.6916645552
 20
5.9089678575
 10
12.6905684405
 20
5.9304071465
 10
12.6885973959
 20
5.9518649273
 10
12.6857584501
 20
5.9732187314
 10
12.6820611884
 20
5.9944117544
 10
12.6775076675
 20
6.0154412328
 10
12.6721054659
 20
6.0362705656
 10
12.6658639005
 20
6.0568635402
 10
12.6587935265
 20
6.0771856516
 10
12.6509058385
 20
6.0972041673
 10
12.6422135535
 20
6.1168868661
 10
12.632730917
 20
6.1362014338
 10
12.6224735755
 20
6.155115974
 10
12.6114583713
 20
6.1735994295
 10
12.5997033908
 20
6.1916214515
 10
12.5872279355
 20
6.2091524485
 10
12.5740524898
 20
6.2261636347
 10
12.5601986877
 20
6.2426270781
 10
12.5456892767
 20
6.2585157463
 10
12.5305480809
 20
6.2738035505
 10
12.5147999619
 20
6.2884653885
 10
12.4984707777
 20
6.3024771861
 10
12.4815873404
 20
6.3158159363
 10
12.4641773722
 20
6.3284597372
 10
12.4462694598
 20
6.3403878281
 10
12.4278930077
 20
6.3515806234
 10
12.4090781894
 20
6.3620197449
 10
12.3898558985
 20
6.3716880518
 10
12.3702576975
 20
6.3805696691
 10
12.3503157661
 20
6.3886500135
 10
12.3300628484
 20
6.3959158172
 10
12.3095321993
 20
6.40235515
 10
12.2887575296
 20
6.4079574389
 10
12.2677729506
 20
6.412713485
 10
12.2466129186
 20
6.4166154788
 10
12.2253121778
 20
6.4196570144
 10
12.2039057033
 20
6.4218330952
 10
12.1824286443
 20
6.4231401537
 10
12.1609177488
 20
6.4235760363
  0
LWPOLYLINE
  5
83E
100
AcDbEntity
  8
0
100
AcDbPolyline
 62
9
  6
CONTINUOUS
 90
6
 70
0
 10
12.4559177488
 20
5.3456948792
 10
12.4546163474
 20
5.3458067996
 10
12.4507589903
 20
5.346290876
 10
12.4445874128
 20
5.3475279892
 10
12.4365769727
 20
5.349960545
 10
12.4273929654
 20
5.3538759201
  0
LINE
  5
83F
100
AcDbEntity
  8
0
100
AcDbLine
 62
9
  6
CONTINUOUS
 10
12.4273929654
 20
5.3538759201
 11
12.4178224004
 21
5.35922437
  0
LINE
  5
840
100
AcDbEntity
  8
0
100
AcDbLine
 62
7
  6
CONTINUOUS
 10
12.0989177488
 20
5.8925760363
 11
12.2239177488
 21
5.8925760363
  0
LINE
  5
841
100
AcDbEntity
  8
0
100
AcDbLine
 62
7
  6
CONTINUOUS
 10
12.2239177488
 20
6.0775760363
 11
12.0989177488
 21
6.0775760363
  0
LWPOLYLINE
  5
842
100
AcDbEntity
  8
0
100
AcDbPolyline
 62
9
  6
CONTINUOUS
 90
82
 70
0
 10
12.1609177488
 20
6.4235760363
 10
12.1394067559
 20
6.4231401486
 10
12.1179310788
 20
6.4218332009
 10
12.0965259756
 20
6.4196573389
 10
12.0752265884
 20
6.416616135
 10
12.0540678857
 20
6.412714582
 10
12.033084605
 20
6.4079590855
 10
12.0123111958
 20
6.4023574526
 10
11.9917817633
 20
6.3959188801
 10
11.9715300117
 20
6.3886539385
 10
11.9515891897
 20
6.3805745551
 10
11.9319920354
 20
6.3716939944
 10
11.9127707226
 20
6.362026836
 10
11.8939568081
 20
6.3515889513
 10
11.8755811799
 20
6.3403974766
 10
11.8576740063
 20
6.3284707858
 10
11.8402646868
 20
6.3158284596
 10
11.8233818033
 20
6.3024912537
 10
11.8070530734
 20
6.2884810647
 10
11.791305305
 20
6.2738208939
 10
11.7761643523
 20
6.2585348098
 10
11.761655073
 20
6.2426479085
 10
11.7478012879
 20
6.2261862725
 10
11.7346257419
 20
6.2091769283
 10
11.7221500661
 20
6.1916478013
 10
11.710394742
 20
6.1736276691
 10
11.6993790684
 20
6.1551461154
 10
11.689121131
 20
6.1362334831
 10
11.6796377736
 20
6.1169208277
 10
11.6709445634
 20
6.0972398523
 10
11.6630557551
 20
6.0772228212
 10
11.6559843214
 20
6.0569026437
 10
11.6497418967
 20
6.0363127684
 10
11.644338734
 20
6.015487067
 10
11.6397836495
 20
5.9944595507
 10
11.6360840732
 20
5.9732644055
 10
11.6332471231
 20
5.9519453103
 10
11.6312793228
 20
5.9305778475
 10
11.6301785331
 20
5.9092158944
 10
11.629940196
 20
5.8879097495
 10
11.6306051748
 20
5.8666877139
 10
11.6321784154
 20
5.8455312751
 10
11.6346478353
 20
5.8244140813
 10
11.6380111949
 20
5.8033052759
 10
11.6422604908
 20
5.7822422148
 10
11.6473669229
 20
5.7613317465
 10
11.6532900037
 20
5.7406717998
 10
11.6599962066
 20
5.7203025806
 10
11.6674610731
 20
5.7002314811
 10
11.6756623298
 20
5.6804641271
 10
11.6845709338
 20
5.66102321
 10
11.6941539265
 20
5.641935379
 10
11.704383216
 20
5.6232136673
 10
11.7152317205
 20
5.6048682085
 10
11.72667335
 20
5.5869068633
 10
11.7386833023
 20
5.5693352158
 10
11.7512383072
 20
5.5521566946
 10
11.7643169156
 20
5.5353726535
 10
11.7778980089
 20
5.5189845704
 10
11.7919608456
 20
5.5029938623
 10
11.8064925926
 20
5.4873939706
 10
11.821486991
 20
5.4721737757
 10
11.8369404859
 20
5.4573225236
 10
11.8528339648
 20
5.4428461571
 10
11.8691228059
 20
5.4287717006
 10
11.8858850272
 20
5.4150235149
 10
11.9034050226
 20
5.4014084269
 10
11.9216106576
 20
5.3881198407
 10
11.94030012
 20
5.3754356491
 10
11.9592283157
 20
5.3636072865
 10
11.9781249183
 20
5.3528353118
 10
11.9966911519
 20
5.3432657257
 10
12.014673028
 20
5.3349556666
 10
12.0322574289
 20
5.3277396417
 10
12.0494839945
 20
5.3215419333
 10
12.066370823
 20
5.3163036141
 10
12.0829401371
 20
5.3119714861
 10
12.0991895115
 20
5.3085046638
 10
12.1151160925
 20
5.3058652811
 10
12.130718751
 20
5.3040181948
 10
12.1459902763
 20
5.3029317063
 10
12.1609177488
 20
5.3025760363
  0
CIRCLE
  5
843
100
AcDbEntity
  8
0
100
AcDbCircle
 62
7
  6
CONTINUOUS
 10
10.5342808475
 20
1.243294839
 40
0.252091
  0
CIRCLE
  5
844
100
AcDbEntity
  8
0
100
AcDbCircle
 62
7
  6
CONTINUOUS
 10
10.5342808475
 20
1.243294839
 40
0.182698
  0
ARC
  5
845
100
AcDbEntity
  8
0
100
AcDbCircle
 62
7
  6
CONTINUOUS
 10
3.6565454012
 20
5.3359915516
 40
0.06
100
AcDbArc
 50
0.0
 51
56.5984813602
  0
ARC
  5
846
100
AcDbEntity
  8
0
100
AcDbCircle
 62
7
  6
CONTINUOUS
 10
4.3665454012
 20
5.3359915516
 40
0.06
100
AcDbArc
 50
123.3991176686
 51
180.0
  0
ARC
  5
847
100
AcDbEntity
  8
0
100
AcDbCircle
 62
7
  6
CONTINUOUS
 10
4.0115454012
 20
5.8828727088
 40
0.592
100
AcDbArc
 50
294.0856793311
 51
245.9143206689
  0
CIRCLE
  5
848
100
AcDbEntity
  8
0
100
AcDbCircle
 62
9
  6
CONTINUOUS
 10
4.0115454012
 20
5.8828727088
 40
0.532
  0
ARC
  5
849
100
AcDbEntity
  8
0
100
AcDbCircle
 62
7
  6
CONTINUOUS
 10
4.0115454012
 20
5.8828727088
 40
0.354
100
AcDbArc
 50
272.2342726896
 51
269.9999999996
  0
CIRCLE
  5
84A
100
AcDbEntity
  8
0
100
AcDbCircle
 62
7
  6
CONTINUOUS
 10
4.0115454012
 20
5.8828727088
 40
0.3188976378
  0
CIRCLE
  5
84B
100
AcDbEntity
  8
0
100
AcDbCircle
 62
9
  6
CONTINUOUS
 10
4.0115454012
 20
5.8828727088
 40
0.248031496
  0
ARC
  5
84C
100
AcDbEntity
  8
0
100
AcDbCircle
 62
7
  6
CONTINUOUS
 10
7.9097268713
 20
6.1309042048
 40
0.0708661417
100
AcDbArc
 50
90.0
 51
180.0000002014
  0
ARC
  5
84D
100
AcDbEntity
  8
0
100
AcDbCircle
 62
7
  6
CONTINUOUS
 10
7.9097268713
 20
5.6348412127
 40
0.0708661417
100
AcDbArc
 50
179.9999997986
 51
270.0
  0
ARC
  5
84E
100
AcDbEntity
  8
0
100
AcDbCircle
 62
7
  6
CONTINUOUS
 10
9.0561993122
 20
6.4138727088
 40
0.06
100
AcDbArc
 50
0.0
 51
90.0
  0
ARC
  5
84F
100
AcDbEntity
  8
0
100
AcDbCircle
 62
7
  6
CONTINUOUS
 10
8.5811993122
 20
6.4148727088
 40
0.06
100
AcDbArc
 50
90.0
 51
180.0
  0
ARC
  5
850
100
AcDbEntity
  8
0
100
AcDbCircle
 62
7
  6
CONTINUOUS
 10
8.5086993122
 20
6.2341227088
 40
0.0125
100
AcDbArc
 50
270.0
 51
360.0
  0
ARC
  5
851
100
AcDbEntity
  8
0
100
AcDbCircle
 62
7
  6
CONTINUOUS
 10
8.5086993122
 20
5.5316227088
 40
0.0125
100
AcDbArc
 50
0.0
 51
90.0
  0
ARC
  5
852
100
AcDbEntity
  8
0
100
AcDbCircle
 62
7
  6
CONTINUOUS
 10
9.1151992603
 20
5.2928727657
 40
0.0010000519
100
AcDbArc
 50
270.0029759244
 51
359.9967384197
  0
ARC
  5
853
100
AcDbEntity
  8
0
100
AcDbCircle
 62
7
  6
CONTINUOUS
 10
3.7635139051
 20
8.2955601295
 40
0.0708661417
100
AcDbArc
 50
180.0
 51
270.0
  0
ARC
  5
854
100
AcDbEntity
  8
0
100
AcDbCircle
 62
7
  6
CONTINUOUS
 10
3.4795454012
 20
8.9670325705
 40
0.06
100
AcDbArc
 50
180.0
 51
270.0
  0
ARC
  5
855
100
AcDbEntity
  8
0
100
AcDbCircle
 62
7
  6
CONTINUOUS
 10
3.6602954012
 20
8.8945325705
 40
0.0125
100
AcDbArc
 50
0.0
 51
89.9999439451
  0
ARC
  5
856
100
AcDbEntity
  8
0
100
AcDbCircle
 62
7
  6
CONTINUOUS
 10
4.2595768973
 20
8.2955601295
 40
0.0708661417
100
AcDbArc
 50
270.0
 51
360.0
  0
ARC
  5
857
100
AcDbEntity
  8
0
100
AcDbCircle
 62
7
  6
CONTINUOUS
 10
4.5435454012
 20
8.9670325705
 40
0.06
100
AcDbArc
 50
270.0
 51
360.0
  0
ARC
  5
858
100
AcDbEntity
  8
0
100
AcDbCircle
 62
7
  6
CONTINUOUS
 10
4.3627954012
 20
8.8945325705
 40
0.0125
100
AcDbArc
 50
90.0000560549
 51
180.0
  0
ARC
  5
859
100
AcDbEntity
  8
0
100
AcDbCircle
 62
7
  6
CONTINUOUS
 10
12.1609177488
 20
5.8925760363
 40
0.595
100
AcDbArc
 50
244.419898358
 51
295.580101642
  0
ARC
  5
85A
100
AcDbEntity
  8
0
100
AcDbCircle
 62
7
  6
CONTINUOUS
 10
12.1609177488
 20
5.8925760363
 40
0.592
100
AcDbArc
 50
295.7191711305
 51
244.2808288695
  0
CIRCLE
  5
85B
100
AcDbEntity
  8
0
100
AcDbCircle
 62
7
  6
CONTINUOUS
 10
12.1609177488
 20
5.8925760363
 40
0.591
  0
ARC
  5
85C
100
AcDbEntity
  8
0
100
AcDbCircle
 62
7
  6
CONTINUOUS
 10
12.5159177488
 20
5.3456948792
 40
0.06
100
AcDbArc
 50
125.3969852999
 51
180.0
  0
ARC
  5
85D
100
AcDbEntity
  8
0
100
AcDbCircle
 62
7
  6
CONTINUOUS
 10
11.8059177488
 20
5.3456948792
 40
0.06
100
AcDbArc
 50
0.0
 51
54.6049570006
  0
CIRCLE
  5
85E
100
AcDbEntity
  8
AXIS_COSMETIC_THREADS
100
AcDbCircle
 62
7
  6
CONTINUOUS
 10
12.1609177488
 20
5.9845760363
 40
0.035
  0
ARC
  5
85F
100
AcDbEntity
  8
0
100
AcDbCircle
 62
7
  6
CONTINUOUS
 10
12.2239177488
 20
6.0475760363
 40
0.03
100
AcDbArc
 50
0.0
 51
90.0
  0
ARC
  5
860
100
AcDbEntity
  8
0
100
AcDbCircle
 62
7
  6
CONTINUOUS
 10
12.2239177488
 20
5.9225760363
 40
0.03
100
AcDbArc
 50
270.0
 51
360.0
  0
ARC
  5
861
100
AcDbEntity
  8
0
100
AcDbCircle
 62
7
  6
CONTINUOUS
 10
12.0989177488
 20
5.9225760363
 40
0.03
100
AcDbArc
 50
180.0
 51
270.0
  0
ARC
  5
862
100
AcDbEntity
  8
0
100
AcDbCircle
 62
7
  6
CONTINUOUS
 10
12.0989177488
 20
6.0475760363
 40
0.03
100
AcDbArc
 50
90.0
 51
180.0
  0
CIRCLE
  5
863
100
AcDbEntity
  8
AXIS_COSMETIC_THREADS
100
AcDbCircle
 62
7
  6
CONTINUOUS
 10
12.1609177488
 20
5.9845760363
 40
0.01
  0
ELLIPSE
  5
864
100
AcDbEntity
  8
0
100
AcDbEllipse
 62
7
  6
CONTINUOUS
 10
4.0115454012
 20
9.2037116239
 30
0.0
 11
0.592
 21
-0.0
 31
0.0
 40
0.3531126692
 41
-2.7721911045
 42
-2.7644556804
  0
ELLIPSE
  5
865
100
AcDbEntity
  8
0
100
AcDbEllipse
 62
7
  6
CONTINUOUS
 10
4.0115454012
 20
9.0003728771
 30
0.0
 11
0.592
 21
-0.0
 31
0.0
 40
0.5795910251
 41
2.7644556804
 42
2.7707988059
  0
ELLIPSE
  5
866
100
AcDbEntity
  8
0
100
AcDbEllipse
 62
7
  6
CONTINUOUS
 10
4.0115454012
 20
9.3233001562
 30
0.0
 11
0.0
 21
0.9147944124
 31
0.0
 40
0.6471399387
 41
-4.5071957784
 42
-4.4721044119
  0
ELLIPSE
  5
867
100
AcDbEntity
  8
0
100
AcDbEllipse
 62
7
  6
CONTINUOUS
 10
4.0115454012
 20
8.867547291
 30
0.0
 11
-0.0
 21
0.9329822951
 31
0.0
 40
0.6345243668
 41
1.279189337
 42
1.2833141851
  0
ELLIPSE
  5
868
100
AcDbEntity
  8
0
100
AcDbEllipse
 62
7
  6
CONTINUOUS
 10
4.0115454012
 20
8.8622529328
 30
0.0
 11
-0.0
 21
0.9329822951
 31
0.0
 40
0.6345243668
 41
1.2896721992
 42
1.2949769263
  0
ELLIPSE
  5
869
100
AcDbEntity
  8
0
100
AcDbEllipse
 62
7
  6
CONTINUOUS
 10
4.0115454012
 20
9.1580949956
 30
0.0
 11
0.592
 21
-0.0
 31
0.0
 40
0.9541294769
 41
-3.0913175567
 42
-3.0481817667
  0
ELLIPSE
  5
86A
100
AcDbEntity
  8
0
100
AcDbEllipse
 62
7
  6
CONTINUOUS
 10
4.0115454012
 20
9.1929253983
 30
0.0
 11
0.592
 21
-0.0
 31
0.0
 40
0.9541294769
 41
-3.0612520429
 42
-3.0156575183
  0
ELLIPSE
  5
86B
100
AcDbEntity
  8
0
100
AcDbEllipse
 62
7
  6
CONTINUOUS
 10
4.0115454012
 20
9.3658581005
 30
0.0
 11
0.0
 21
0.9147944124
 31
0.0
 40
0.6471399387
 41
-4.4581330019
 42
-4.4539650688
  0
ELLIPSE
  5
86C
100
AcDbEntity
  8
0
100
AcDbEllipse
 62
7
  6
CONTINUOUS
 10
4.0115454012
 20
8.8425622197
 30
0.0
 11
-0.0
 21
0.9329822951
 31
0.0
 40
0.6345243668
 41
7.5330218568
 42
7.5681672914
  0
ELLIPSE
  5
86D
100
AcDbEntity
  8
0
100
AcDbEllipse
 62
7
  6
CONTINUOUS
 10
4.0115454012
 20
9.3586759567
 30
0.0
 11
0.0
 21
0.9147944124
 31
0.0
 40
0.6471399387
 41
-4.4496592126
 42
-4.4442686647
  0
ENDSEC
  0
SECTION
  2
OBJECTS
  0
DICTIONARY
  5
C
100
AcDbDictionary
280
0
281
1
  3
ACAD_GROUP
350
D
  3
ACAD_MLINESTYLE
350
17
  3
ACAD_LAYOUT
350
1A
  3
ACAD_PLOTSETTINGS
350
19
  3
ACAD_PLOTSTYLENAME
350
E
  0
DICTIONARY
  5
D
102
{ACAD_REACTORS
330
C
102
}
100
AcDbDictionary
280
0
281
1
  0
ACDBDICTIONARYWDFLT
  5
E
102
{ACAD_REACTORS
330
C
102
}
100
AcDbDictionary
281
1
  3
Normal
350
F
100
AcDbDictionaryWithDefault
340
F
  0
DICTIONARY
  5
17
102
{ACAD_REACTORS
330
C
102
}
100
AcDbDictionary
280
0
281
1
  3
Standard
350
18
  0
DICTIONARY
  5
19
102
{ACAD_REACTORS
330
C
102
}
100
AcDbDictionary
281
1
  0
DICTIONARY
  5
1A
102
{ACAD_REACTORS
330
C
102
}
100
AcDbDictionary
281
1
  3
Model
350
86E
  3
Layout1
350
86F
  0
ACDBPLACEHOLDER
  5
F
102
{ACAD_REACTORS
330
E
102
}
  0
MLINESTYLE
  5
18
102
{ACAD_REACTORS
330
17
102
}
100
AcDbMlineStyle
  2
STANDARD
 70
0
  3

 62
256
 51
90.0
 52
90.0
 71
2
 49
0.5
 62
256
  6
BYLAYER
 49
-0.5
 62
256
  6
BYLAYER
  0
LAYOUT
  5
86E
102
{ACAD_REACTORS
330
1A
102
}
100
AcDbPlotSettings
  1

  2
none_device
  4
ANSI_B_(17.00_x_11.00_Inches)
  6

 40
0.0
 41
0.0
 42
0.0
 43
0.0
 44
431.8
 45
279.4
 46
0.0
 47
0.0
 48
0.0
 49
0.0
140
0.0
141
0.0
142
1.0
143
1.0
 70
1024
 72
0
 73
0
 74
0
  7

 75
0
147
1.0
148
0.0
149
0.0
100
AcDbLayout
  1
Model
 70
0
 71
0
 10
0.0
 20
0.0
 11
17.0
 21
11.0
 12
0.0
 22
0.0
 32
0.0
 14
0.0
 24
0.0
 34
0.0
 15
0.0
 25
0.0
 35
0.0
146
0.0
 13
0.0
 23
0.0
 33
0.0
 16
1.0
 26
0.0
 36
0.0
 17
0.0
 27
1.0
 37
0.0
 76
0
330
234
345
0
346
0
  0
LAYOUT
  5
86F
102
{ACAD_REACTORS
330
1A
102
}
100
AcDbPlotSettings
  1

  2
none_device
  4
ANSI_B_(17.00_x_11.00_Inches)
  6

 40
0.0
 41
0.0
 42
0.0
 43
0.0
 44
431.8
 45
279.4
 46
0.0
 47
0.0
 48
0.0
 49
0.0
140
0.0
141
0.0
142
1.0
143
1.0
 70
0
 72
0
 73
0
 74
0
  7

 75
0
147
1.0
148
0.0
149
0.0
100
AcDbLayout
  1
Layout1
 70
0
 71
1
 10
0.0
 20
0.0
 11
17.0
 21
11.0
 12
0.0
 22
0.0
 32
0.0
 14
0.0
 24
0.0
 34
0.0
 15
0.0
 25
0.0
 35
0.0
146
0.0
 13
0.0
 23
0.0
 33
0.0
 16
1.0
 26
0.0
 36
0.0
 17
0.0
 27
1.0
 37
0.0
 76
0
330
235
345
0
346
0
  0
ENDSEC
  0
EOF
