999
DXF file: 151345_1.dxf
999
Pro/ENGINEER 2009141 by Parametric Technology Corporation
  0
SECTION
  2
HEADER
  9
$ACADVER
  1
AC1015
  9
$DWGCODEPAGE
  3
ANSI_1252
  9
$EXTMAX
 10
17.0
 20
11.0
 30
0.0
  9
$EXTMIN
 10
0.0
 20
0.0
 30
0.0
  9
$LIMMIN
 10
0.0
 20
0.0
  9
$LIMMAX
 10
17.0
 20
11.0
  9
$VIEWCTR
 10
8.5
 20
5.5
  9
$VIEWSIZE
 40
11.0
  9
$CLAYER
  8
0
  9
$LTSCALE
 40
0.935
  9
$CELTYPE
  6
BYLAYER
  9
$DIMSCALE
 40
1.0
  9
$DIMASZ
 40
0.1875
  9
$DIMEXO
 40
0.10625
  9
$DIMDLI
 40
0.646
  9
$DIMEXE
 40
0.306
  9
$DIMCEN
 40
0.153
  9
$DIMLFAC
 40
1.0
  9
$DIMBLK
  1
_FILLED
  9
$DIMTXT
 40
0.1
  9
$DIMTOL
 70
1
  9
$DIMLIM
 70
0
  9
$DIMTFAC
 40
1.0
  9
$DIMTP
 40
0.005
  9
$DIMTM
 40
0.005
  9
$PDMODE
 70
3
  9
$PDSIZE
 40
0.3125
  9
$HANDSEED
  5
79A
  9
$TILEMODE
 70
1
  9
$MEASUREMENT
 70
0
  9
$INSUNITS
 70
1
  0
ENDSEC
  0
SECTION
  2
CLASSES
  0
CLASS
  1
ACDBDICTIONARYWDFLT
  2
AcDbDictionaryWithDefault
  3
AutoCAD 2000
 90
0
280
0
281
0
  0
CLASS
  1
ACDBPLACEHOLDER
  2
AcDbPlaceHolder
  3
AutoCAD 2000
 90
0
280
0
281
0
  0
CLASS
  1
LAYOUT
  2
AcDbLayout
  3
AutoCAD 2000
 90
0
280
0
281
0
  0
ENDSEC
  0
SECTION
  2
TABLES
  0
TABLE
  2
VPORT
  5
8
100
AcDbSymbolTable
 70
2
  0
VPORT
  5
1F4
100
AcDbSymbolTableRecord
100
AcDbViewportTableRecord
  2
*ACTIVE
 70
0
 10
0.0
 20
0.0
 11
1.0
 21
1.0
 12
8.5
 22
5.5
 13
0.0
 23
0.0
 14
1.0
 24
1.0
 15
0.0
 25
0.0
 16
0.0
 26
0.0
 36
1.0
 17
0.0
 27
0.0
 37
0.0
 40
11.0
 41
1.5454545455
 42
50.0
 43
0.0
 44
0.0
 50
0.0
 51
0.0
 71
0
 72
100
 73
1
 74
1
 75
0
 76
0
 77
0
 78
0
  0
ENDTAB
  0
TABLE
  2
LTYPE
  5
5
100
AcDbSymbolTable
 70
6
  0
LTYPE
  5
14
100
AcDbSymbolTableRecord
100
AcDbLinetypeTableRecord
  2
BYBLOCK
 70
0
  3

 72
65
 73
0
 40
0.0
  0
LTYPE
  5
15
100
AcDbSymbolTableRecord
100
AcDbLinetypeTableRecord
  2
BYLAYER
 70
0
  3

 72
65
 73
0
 40
0.0
  0
LTYPE
  5
16
100
AcDbSymbolTableRecord
100
AcDbLinetypeTableRecord
  2
CONTINUOUS
 70
64
  3
Solid line
 72
65
 73
0
 40
0.0
  0
LTYPE
  5
1F5
100
AcDbSymbolTableRecord
100
AcDbLinetypeTableRecord
  2
CENTER
 70
64
  3
____ _ ____ _ ____ _ ____ _ ____ _ ____ _ ____
 72
65
 73
4
 40
0.6
 49
0.375
 74
0
 49
-0.075
 74
0
 49
0.075
 74
0
 49
-0.075
 74
0
  0
LTYPE
  5
1F6
100
AcDbSymbolTableRecord
100
AcDbLinetypeTableRecord
  2
HIDDEN
 70
64
  3
- - - - - - - - - - - - - - - - - - - -
 72
65
 73
2
 40
0.2
 49
0.1
 74
0
 49
-0.1
 74
0
  0
LTYPE
  5
1F7
100
AcDbSymbolTableRecord
100
AcDbLinetypeTableRecord
  2
PHANTOM
 70
64
  3
_____ _ _ _____ _ _ _____ _ _ _____
 72
65
 73
6
 40
0.8
 49
0.45
 74
0
 49
-0.05
 74
0
 49
0.1
 74
0
 49
-0.05
 74
0
 49
0.1
 74
0
 49
-0.05
 74
0
  0
LTYPE
  5
1F8
100
AcDbSymbolTableRecord
100
AcDbLinetypeTableRecord
  2
DOT
 70
64
  3
. . . . . . . . . . . . . . . . . . . .
 72
65
 73
2
 40
0.2
 49
0.1
 74
0
 49
-0.1
 74
0
  0
LTYPE
  5
1F9
100
AcDbSymbolTableRecord
100
AcDbLinetypeTableRecord
  2
DASHED
 70
64
  3
- - - - - - - - - - - - - - - - - - - -
 72
65
 73
2
 40
0.2
 49
0.1
 74
0
 49
-0.1
 74
0
  0
ENDTAB
  0
TABLE
  2
LAYER
  5
2
100
AcDbSymbolTable
 70
36
  0
LAYER
  5
10
100
AcDbSymbolTableRecord
100
AcDbLayerTableRecord
  2
0
 70
0
 62
7
  6
CONTINUOUS
370
-3
390
F
  0
LAYER
  5
1FA
100
AcDbSymbolTableRecord
100
AcDbLayerTableRecord
  2
DEFAULT_1
 70
0
 62
7
  6
CENTER
370
-3
390
F
  0
LAYER
  5
1FB
100
AcDbSymbolTableRecord
100
AcDbLayerTableRecord
  2
DEFAULT_2
 70
0
 62
8
  6
HIDDEN
370
-3
390
F
  0
LAYER
  5
1FC
100
AcDbSymbolTableRecord
100
AcDbLayerTableRecord
  2
DEFAULT_3
 70
0
 62
7
  6
PHANTOM
370
-3
390
F
  0
LAYER
  5
1FD
100
AcDbSymbolTableRecord
100
AcDbLayerTableRecord
  2
01___PRT_ALL_DTM_PLN
 70
0
 62
7
  6
CONTINUOUS
370
-3
390
F
  0
LAYER
  5
1FE
100
AcDbSymbolTableRecord
100
AcDbLayerTableRecord
  2
01___PRT_DEF_DTM_PLN
 70
0
 62
7
  6
CONTINUOUS
370
-3
390
F
  0
LAYER
  5
1FF
100
AcDbSymbolTableRecord
100
AcDbLayerTableRecord
  2
02___PRT_ALL_AXES
 70
0
 62
7
  6
CONTINUOUS
370
-3
390
F
  0
LAYER
  5
200
100
AcDbSymbolTableRecord
100
AcDbLayerTableRecord
  2
03___PRT_ALL_CURVES
 70
0
 62
7
  6
CONTINUOUS
370
-3
390
F
  0
LAYER
  5
201
100
AcDbSymbolTableRecord
100
AcDbLayerTableRecord
  2
04___PRT_ALL_DTM_PNT
 70
0
 62
7
  6
CONTINUOUS
370
-3
390
F
  0
LAYER
  5
202
100
AcDbSymbolTableRecord
100
AcDbLayerTableRecord
  2
05___PRT_ALL_DTM_CSYS
 70
0
 62
7
  6
CONTINUOUS
370
-3
390
F
  0
LAYER
  5
203
100
AcDbSymbolTableRecord
100
AcDbLayerTableRecord
  2
05___PRT_DEF_DTM_CSYS
 70
0
 62
7
  6
CONTINUOUS
370
-3
390
F
  0
LAYER
  5
204
100
AcDbSymbolTableRecord
100
AcDbLayerTableRecord
  2
06___PRT_ALL_SURFS
 70
0
 62
7
  6
CONTINUOUS
370
-3
390
F
  0
LAYER
  5
205
100
AcDbSymbolTableRecord
100
AcDbLayerTableRecord
  2
AXIS
 70
0
 62
7
  6
CONTINUOUS
370
-3
390
F
  0
LAYER
  5
206
100
AcDbSymbolTableRecord
100
AcDbLayerTableRecord
  2
AXIS_COSMETIC_THREADS
 70
0
 62
7
  6
CONTINUOUS
370
-3
390
F
  0
LAYER
  5
207
100
AcDbSymbolTableRecord
100
AcDbLayerTableRecord
  2
DATUM_CURVES
 70
0
 62
7
  6
CONTINUOUS
370
-3
390
F
  0
LAYER
  5
208
100
AcDbSymbolTableRecord
100
AcDbLayerTableRecord
  2
DATUM_PLANES
 70
0
 62
7
  6
CONTINUOUS
370
-3
390
F
  0
LAYER
  5
209
100
AcDbSymbolTableRecord
100
AcDbLayerTableRecord
  2
NOTES
 70
0
 62
7
  6
CONTINUOUS
370
-3
390
F
  0
LAYER
  5
20A
100
AcDbSymbolTableRecord
100
AcDbLayerTableRecord
  2
QUILTS
 70
0
 62
7
  6
CONTINUOUS
370
-3
390
F
  0
LAYER
  5
20B
100
AcDbSymbolTableRecord
100
AcDbLayerTableRecord
  2
SCHEME_DIMS
 70
0
 62
7
  6
CONTINUOUS
370
-3
390
F
  0
LAYER
  5
20C
100
AcDbSymbolTableRecord
100
AcDbLayerTableRecord
  2
SYMBOLS
 70
0
 62
7
  6
CONTINUOUS
370
-3
390
F
  0
ENDTAB
  0
TABLE
  2
STYLE
  5
3
100
AcDbSymbolTable
 70
1
  0
STYLE
  5
11
100
AcDbSymbolTableRecord
100
AcDbTextStyleTableRecord
  2
STANDARD
 70
0
 40
0.0
 41
1.0
 50
0.0
 71
0
 42
0.2
  3
txt
  4

  0
STYLE
  5
20D
100
AcDbSymbolTableRecord
100
AcDbTextStyleTableRecord
  2
TEXTSTYLE_1
 70
0
 40
0.0
 41
0.8
 50
0.0
 71
0
 42
0.2
  3
gdt
  4

  0
STYLE
  5
20E
100
AcDbSymbolTableRecord
100
AcDbTextStyleTableRecord
  2
TEXTSTYLE_2
 70
0
 40
0.0
 41
0.8
 50
0.0
 71
0
 42
0.2
  3
txt
  4

  0
STYLE
  5
20F
100
AcDbSymbolTableRecord
100
AcDbTextStyleTableRecord
  2
TEXTSTYLE_3
 70
0
 40
0.0
 41
0.85
 50
0.0
 71
0
 42
0.2
  3
txt
  4

  0
STYLE
  5
210
100
AcDbSymbolTableRecord
100
AcDbTextStyleTableRecord
  2
TEXTSTYLE_4
 70
0
 40
0.0
 41
0.92
 50
0.0
 71
0
 42
0.2
  3
txt
  4

  0
STYLE
  5
211
100
AcDbSymbolTableRecord
100
AcDbTextStyleTableRecord
  2
TEXTSTYLE_5
 70
0
 40
0.0
 41
1.0
 50
0.0
 71
0
 42
0.2
  3
gdt
  4

  0
ENDTAB
  0
TABLE
  2
VIEW
  5
6
100
AcDbSymbolTable
 70
0
  0
ENDTAB
  0
TABLE
  2
UCS
  5
7
100
AcDbSymbolTable
 70
0
  0
ENDTAB
  0
TABLE
  2
APPID
  5
9
100
AcDbSymbolTable
 70
1
  0
APPID
  5
212
100
AcDbSymbolTableRecord
100
AcDbRegAppTableRecord
  2
ACAD
 70
0
  0
ENDTAB
  0
TABLE
  2
BLOCK_RECORD
  5
1
100
AcDbSymbolTable
 70
0
  0
BLOCK_RECORD
  5
213
100
AcDbSymbolTableRecord
100
AcDbBlockTableRecord
  2
*Model_Space
  0
BLOCK_RECORD
  5
214
100
AcDbSymbolTableRecord
100
AcDbBlockTableRecord
  2
*Paper_Space
  0
BLOCK_RECORD
  5
215
100
AcDbSymbolTableRecord
100
AcDbBlockTableRecord
  2
_FILLED
  0
BLOCK_RECORD
  5
216
100
AcDbSymbolTableRecord
100
AcDbBlockTableRecord
  2
*D0
  0
BLOCK_RECORD
  5
217
100
AcDbSymbolTableRecord
100
AcDbBlockTableRecord
  2
*D1
  0
BLOCK_RECORD
  5
218
100
AcDbSymbolTableRecord
100
AcDbBlockTableRecord
  2
*D2
  0
BLOCK_RECORD
  5
219
100
AcDbSymbolTableRecord
100
AcDbBlockTableRecord
  2
*D3
  0
BLOCK_RECORD
  5
21A
100
AcDbSymbolTableRecord
100
AcDbBlockTableRecord
  2
*D4
  0
BLOCK_RECORD
  5
21B
100
AcDbSymbolTableRecord
100
AcDbBlockTableRecord
  2
CL_BL3
  0
BLOCK_RECORD
  5
21C
100
AcDbSymbolTableRecord
100
AcDbBlockTableRecord
  2
CL_BL2
  0
BLOCK_RECORD
  5
21D
100
AcDbSymbolTableRecord
100
AcDbBlockTableRecord
  2
CL_BL1
  0
BLOCK_RECORD
  5
21E
100
AcDbSymbolTableRecord
100
AcDbBlockTableRecord
  2
BANNER_LOGO_TITLEBLOCK_BL0
  0
ENDTAB
  0
TABLE
  2
DIMSTYLE
  5
A
100
AcDbSymbolTable
 70
1
100
AcDbDimStyleTable
 71
0
  0
DIMSTYLE
105
21F
100
AcDbSymbolTableRecord
100
AcDbDimStyleTableRecord
  2
STANDARD
 70
0
  3

  4

 40
1.0
 41
0.1875
 42
0.0625
 43
0.38
 44
0.18
 45
0.0
 46
0.0
 47
0.005
 48
0.005
140
0.1
141
0.09
142
0.0
143
25.4
144
1.0
145
0.0
146
1.0
147
0.09
 71
1.0
 72
0.0
 73
1
 74
1
 75
0
 76
0
 77
0
 78
4
170
0
171
2
172
0
173
0
174
0
175
0
176
0
177
0
178
0
270
2
271
3
272
3
273
2
274
2
275
0
280
0
281
0
282
0
283
1
284
4
285
0
286
0
287
3
288
0
340
11
341
215
342
215
343
215
344
215
  0
DIMSTYLE
105
220
100
AcDbSymbolTableRecord
100
AcDbDimStyleTableRecord
  2
DIMSTYLE_1
 70
0
  3

  4

 40
1.0
 41
0.1875
 42
0.0625
 43
0.38
 44
0.18
 45
0.0
 46
0.0
 47
0.5
 48
0.5
140
0.1
141
0.09
142
0.0
143
25.4
144
1.0
145
0.0
146
1.0
147
0.09
 71
0.0
 72
0.0
 73
1
 74
1
 75
0
 76
0
 77
0
 78
4
170
0
171
2
172
0
173
0
174
0
175
0
176
0
177
0
178
0
270
2
271
0
272
0
273
2
274
2
275
0
280
0
281
0
282
0
283
1
284
4
285
0
286
0
287
3
288
0
340
11
341
215
342
215
343
215
344
215
  0
DIMSTYLE
105
221
100
AcDbSymbolTableRecord
100
AcDbDimStyleTableRecord
  2
DIMSTYLE_2
 70
0
  3

  4

 40
1.0
 41
0.1875
 42
0.0625
 43
0.38
 44
0.18
 45
0.0
 46
0.0
 47
0.1
 48
0.1
140
0.1
141
0.09
142
0.0
143
25.4
144
1.0
145
0.0
146
1.0
147
0.09
 71
0.0
 72
0.0
 73
1
 74
1
 75
0
 76
0
 77
0
 78
4
170
0
171
2
172
0
173
0
174
0
175
0
176
0
177
0
178
0
270
2
271
1
272
1
273
2
274
2
275
0
280
0
281
0
282
0
283
1
284
4
285
0
286
0
287
3
288
0
340
11
341
215
342
215
343
215
344
215
  0
DIMSTYLE
105
222
100
AcDbSymbolTableRecord
100
AcDbDimStyleTableRecord
  2
DIMSTYLE_3
 70
0
  3

  4

 40
1.0
 41
0.1875
 42
0.0625
 43
0.38
 44
0.18
 45
0.0
 46
0.0
 47
0.1
 48
0.1
140
0.1
141
0.09
142
0.0
143
25.4
144
1.0
145
0.0
146
1.0
147
0.09
 71
0.0
 72
0.0
 73
1
 74
1
 75
0
 76
0
 77
0
 78
4
170
0
171
2
172
0
173
0
174
0
175
0
176
0
177
0
178
0
270
2
271
1
272
1
273
2
274
2
275
0
280
0
281
0
282
0
283
1
284
4
285
0
286
0
287
3
288
0
340
11
341
215
342
215
343
215
344
215
  0
ENDTAB
  0
ENDSEC
  0
SECTION
  2
BLOCKS
  0
BLOCK
  5
20
100
AcDbEntity
  8
0
100
AcDbBlockBegin
  2
*Model_Space
 70
0
 10
0.0
 20
0.0
 30
0.0
  3
*Model_Space
  1

  0
ENDBLK
  5
21
100
AcDbEntity
  8
0
100
AcDbBlockEnd
  0
BLOCK
  5
1C
100
AcDbEntity
  8
0
100
AcDbBlockBegin
  2
*Paper_Space
 70
0
 10
0.0
 20
0.0
 30
0.0
  3
*Paper_Space
  1

  0
ENDBLK
  5
1D
100
AcDbEntity
  8
0
100
AcDbBlockEnd
  0
BLOCK
  5
223
100
AcDbEntity
  8
SYMBOLS
100
AcDbBlockBegin
 62
2
  6
CONTINUOUS
  2
CL_BL3
 70
64
 10
4.6252492638
 20
2.8112557221
  3
CL_BL3
  1

  0
MTEXT
  5
224
100
AcDbEntity
  8
SYMBOLS
100
AcDbMText
 62
2
  6
CONTINUOUS
  7
TEXTSTYLE_5
 71
1
 72
1
 10
4.5402492638
 20
2.8712557221
 30
0.0
 11
1.0
 21
0.0
 31
0.0
 44
0.9
  1
{\Fgdt;q}
 40
0.12
 41
0.17
  0
ENDBLK
  5
225
100
AcDbEntity
  8
0
  6
BYBLOCK
 62
0
100
AcDbBlockEnd
  0
BLOCK
  5
226
100
AcDbEntity
  8
SYMBOLS
100
AcDbBlockBegin
 62
2
  6
CONTINUOUS
  2
CL_BL2
 70
64
 10
4.6239981579
 20
6.5340673624
  3
CL_BL2
  1

  0
MTEXT
  5
227
100
AcDbEntity
  8
SYMBOLS
100
AcDbMText
 62
2
  6
CONTINUOUS
  7
TEXTSTYLE_5
 71
1
 72
1
 10
4.5389981579
 20
6.5940673624
 30
0.0
 11
1.0
 21
0.0
 31
0.0
 44
0.9
  1
{\Fgdt;q}
 40
0.12
 41
0.17
  0
ENDBLK
  5
228
100
AcDbEntity
  8
0
  6
BYBLOCK
 62
0
100
AcDbBlockEnd
  0
BLOCK
  5
229
100
AcDbEntity
  8
SYMBOLS
100
AcDbBlockBegin
 62
2
  6
CONTINUOUS
  2
CL_BL1
 70
64
 10
5.8165346184
 20
7.7454495282
  3
CL_BL1
  1

  0
MTEXT
  5
22A
100
AcDbEntity
  8
SYMBOLS
100
AcDbMText
 62
2
  6
CONTINUOUS
  7
TEXTSTYLE_5
 71
1
 72
1
 10
5.7315346184
 20
7.8054495282
 30
0.0
 11
1.0
 21
0.0
 31
0.0
 44
0.9
  1
{\Fgdt;q}
 40
0.12
 41
0.17
  0
ENDBLK
  5
22B
100
AcDbEntity
  8
0
  6
BYBLOCK
 62
0
100
AcDbBlockEnd
  0
BLOCK
  5
22C
100
AcDbEntity
  8
0
100
AcDbBlockBegin
 62
2
  6
CONTINUOUS
  2
BANNER_LOGO_TITLEBLOCK_BL0
 70
64
 10
12.9086867042
 20
2.5403783405
  3
BANNER_LOGO_TITLEBLOCK_BL0
  1

  0
ELLIPSE
  5
22D
100
AcDbEntity
  8
0
100
AcDbEllipse
 62
2
  6
CONTINUOUS
 10
12.9046654608
 20
2.5403783405
 30
0.0
 11
-0.8250004575
 21
0.0
 31
0.0
 40
0.218572
 41
0.0
 42
6.2831853072
  0
ARC
  5
22E
100
AcDbEntity
  8
0
100
AcDbCircle
 62
2
  6
CONTINUOUS
 10
12.400005721
 20
2.5168763464
 40
0.0153945295
100
AcDbArc
 50
354.0454548824
 51
5.1878013979
  0
ARC
  5
22F
100
AcDbEntity
  8
0
100
AcDbCircle
 62
2
  6
CONTINUOUS
 10
12.3931760319
 20
2.5166878286
 40
0.0222174455
100
AcDbArc
 50
4.0793399388
 51
69.834329283
  0
LINE
  5
230
100
AcDbEntity
  8
0
100
AcDbLine
 62
2
  6
CONTINUOUS
 10
12.4008351814
 20
2.5375433389
 11
12.3907841758
 21
2.5410923409
  0
LINE
  5
231
100
AcDbEntity
  8
0
100
AcDbLine
 62
2
  6
CONTINUOUS
 10
12.3907841758
 20
2.5410923409
 11
12.3990241804
 21
2.5458683435
  0
ARC
  5
232
100
AcDbEntity
  8
0
100
AcDbCircle
 62
2
  6
CONTINUOUS
 10
12.3771587979
 20
2.5826952352
 40
0.0428289026
100
AcDbArc
 50
300.6990502959
 51
319.0591802498
  0
ARC
  5
233
100
AcDbEntity
  8
0
100
AcDbCircle
 62
2
  6
CONTINUOUS
 10
12.3971873948
 20
2.5665668817
 40
0.0171568255
100
AcDbArc
 50
315.9145124245
 51
16.0049121282
  0
ARC
  5
234
100
AcDbEntity
  8
0
100
AcDbCircle
 62
2
  6
CONTINUOUS
 10
12.3922357827
 20
2.5632132173
 40
0.0229166529
100
AcDbArc
 50
20.6563876465
 51
62.3316896973
  0
ARC
  5
235
100
AcDbEntity
  8
0
100
AcDbCircle
 62
2
  6
CONTINUOUS
 10
12.371573659
 20
2.5302846524
 40
0.061747717
100
AcDbArc
 50
59.5385584989
 51
90.0050977555
  0
LINE
  5
236
100
AcDbEntity
  8
0
100
AcDbLine
 62
2
  6
CONTINUOUS
 10
12.3715681652
 20
2.5920323691
 11
12.2055050731
 21
2.5920323691
  0
ARC
  5
237
100
AcDbEntity
  8
0
100
AcDbCircle
 62
2
  6
CONTINUOUS
 10
12.2055050712
 20
2.5895573696
 40
0.0024749995
100
AcDbArc
 50
89.9999571957
 51
180.0000428043
  0
LINE
  5
238
100
AcDbEntity
  8
0
100
AcDbLine
 62
2
  6
CONTINUOUS
 10
12.2030300717
 20
2.5895573678
 11
12.2030300717
 21
2.5697573568
  0
ARC
  5
239
100
AcDbEntity
  8
0
100
AcDbCircle
 62
2
  6
CONTINUOUS
 10
12.2055050712
 20
2.5697573549
 40
0.0024749995
100
AcDbArc
 50
179.9999571957
 51
270.0000428043
  0
LINE
  5
23A
100
AcDbEntity
  8
0
100
AcDbLine
 62
2
  6
CONTINUOUS
 10
12.2055050731
 20
2.5672823554
 11
12.2294470864
 21
2.5672823554
  0
ARC
  5
23B
100
AcDbEntity
  8
0
100
AcDbCircle
 62
2
  6
CONTINUOUS
 10
12.2294470882
 20
2.5648073559
 40
0.0024749995
100
AcDbArc
 50
359.9999571957
 51
90.0000428043
  0
LINE
  5
23C
100
AcDbEntity
  8
0
100
AcDbLine
 62
2
  6
CONTINUOUS
 10
12.2319220877
 20
2.564807354
 11
12.2319220877
 21
2.5184523283
  0
ARC
  5
23D
100
AcDbEntity
  8
0
100
AcDbCircle
 62
2
  6
CONTINUOUS
 10
12.2294470882
 20
2.5184523265
 40
0.0024749995
100
AcDbArc
 50
269.9999571957
 51
0.0000428043
  0
LINE
  5
23E
100
AcDbEntity
  8
0
100
AcDbLine
 62
2
  6
CONTINUOUS
 10
12.2294470864
 20
2.515977327
 11
12.2055050731
 21
2.515977327
  0
ARC
  5
23F
100
AcDbEntity
  8
0
100
AcDbCircle
 62
2
  6
CONTINUOUS
 10
12.2055050712
 20
2.5135023274
 40
0.0024749995
100
AcDbArc
 50
89.9999571957
 51
180.0000428043
  0
LINE
  5
240
100
AcDbEntity
  8
0
100
AcDbLine
 62
2
  6
CONTINUOUS
 10
12.2030300717
 20
2.5135023256
 11
12.2030300717
 21
2.4937023146
  0
ARC
  5
241
100
AcDbEntity
  8
0
100
AcDbCircle
 62
2
  6
CONTINUOUS
 10
12.2055050712
 20
2.4937023128
 40
0.0024749995
100
AcDbArc
 50
179.9999571957
 51
270.0000428043
  0
LINE
  5
242
100
AcDbEntity
  8
0
100
AcDbLine
 62
2
  6
CONTINUOUS
 10
12.2055050731
 20
2.4912273132
 11
12.3819511709
 21
2.4912273132
  0
ARC
  5
243
100
AcDbEntity
  8
0
100
AcDbCircle
 62
2
  6
CONTINUOUS
 10
12.3792298263
 20
2.539634765
 40
0.048483885
100
AcDbArc
 50
273.21763719
 51
303.0749121182
  0
ARC
  5
244
100
AcDbEntity
  8
0
100
AcDbCircle
 62
2
  6
CONTINUOUS
 10
12.3940692204
 20
2.5168671561
 40
0.0213072145
100
AcDbArc
 50
303.0488228549
 51
355.7263138674
  0
LINE
  5
245
100
AcDbEntity
  8
0
100
AcDbLine
 62
2
  6
CONTINUOUS
 10
12.2949101227
 20
2.5499573458
 11
12.3362731456
 21
2.5499573458
  0
ARC
  5
246
100
AcDbEntity
  8
0
100
AcDbCircle
 62
2
  6
CONTINUOUS
 10
12.3362731456
 20
2.5586198506
 40
0.0086625048
100
AcDbArc
 50
270.0
 51
90.0
  0
LINE
  5
247
100
AcDbEntity
  8
0
100
AcDbLine
 62
2
  6
CONTINUOUS
 10
12.3362731456
 20
2.5672823554
 11
12.2949101227
 21
2.5672823554
  0
ARC
  5
248
100
AcDbEntity
  8
0
100
AcDbCircle
 62
2
  6
CONTINUOUS
 10
12.2949101208
 20
2.5648073559
 40
0.0024749995
100
AcDbArc
 50
89.9999571957
 51
180.0000428043
  0
LINE
  5
249
100
AcDbEntity
  8
0
100
AcDbLine
 62
2
  6
CONTINUOUS
 10
12.2924351213
 20
2.564807354
 11
12.2924351213
 21
2.5524323472
  0
ARC
  5
24A
100
AcDbEntity
  8
0
100
AcDbCircle
 62
2
  6
CONTINUOUS
 10
12.2949101208
 20
2.5524323453
 40
0.0024749995
100
AcDbArc
 50
179.9999571957
 51
270.0000428043
  0
LINE
  5
24B
100
AcDbEntity
  8
0
100
AcDbLine
 62
2
  6
CONTINUOUS
 10
12.2924351213
 20
2.5184523283
 11
12.2924351213
 21
2.5308273352
  0
ARC
  5
24C
100
AcDbEntity
  8
0
100
AcDbCircle
 62
2
  6
CONTINUOUS
 10
12.2949101208
 20
2.530827337
 40
0.0024749995
100
AcDbArc
 50
89.9999571957
 51
180.0000428043
  0
LINE
  5
24D
100
AcDbEntity
  8
0
100
AcDbLine
 62
2
  6
CONTINUOUS
 10
12.2949101227
 20
2.5333023366
 11
12.3362731456
 21
2.5333023366
  0
ARC
  5
24E
100
AcDbEntity
  8
0
100
AcDbCircle
 62
2
  6
CONTINUOUS
 10
12.3362731456
 20
2.5246398318
 40
0.0086625048
100
AcDbArc
 50
270.0
 51
90.0
  0
LINE
  5
24F
100
AcDbEntity
  8
0
100
AcDbLine
 62
2
  6
CONTINUOUS
 10
12.3362731456
 20
2.515977327
 11
12.2949101227
 21
2.515977327
  0
ARC
  5
250
100
AcDbEntity
  8
0
100
AcDbCircle
 62
2
  6
CONTINUOUS
 10
12.2949101208
 20
2.5184523265
 40
0.0024749995
100
AcDbArc
 50
179.9999571957
 51
270.0000428043
  0
ARC
  5
251
100
AcDbEntity
  8
0
100
AcDbCircle
 62
2
  6
CONTINUOUS
 10
13.5806801742
 20
2.5212486481
 40
0.044722495
100
AcDbArc
 50
195.531588407
 51
204.7624440448
  0
LINE
  5
252
100
AcDbEntity
  8
0
100
AcDbLine
 62
2
  6
CONTINUOUS
 10
13.5375908118
 20
2.5092733232
 11
13.5357868108
 21
2.5153423266
  0
ARC
  5
253
100
AcDbEntity
  8
0
100
AcDbCircle
 62
2
  6
CONTINUOUS
 10
13.4974076135
 20
2.5055452462
 40
0.0396099176
100
AcDbArc
 50
14.3201081283
 51
22.4984722084
  0
ARC
  5
254
100
AcDbEntity
  8
0
100
AcDbCircle
 62
2
  6
CONTINUOUS
 10
13.5201739219
 20
2.5145168728
 40
0.0151491919
100
AcDbArc
 50
24.098260853
 51
63.0369451818
  0
ARC
  5
255
100
AcDbEntity
  8
0
100
AcDbCircle
 62
2
  6
CONTINUOUS
 10
13.5161192671
 20
2.5062372524
 40
0.0243676582
100
AcDbArc
 50
63.3666028271
 51
90.3937697637
  0
LINE
  5
256
100
AcDbEntity
  8
0
100
AcDbLine
 62
2
  6
CONTINUOUS
 10
13.5159517998
 20
2.5306043351
 11
13.4883447845
 21
2.5306043351
  0
ARC
  5
257
100
AcDbEntity
  8
0
100
AcDbCircle
 62
2
  6
CONTINUOUS
 10
13.4883447827
 20
2.5281293355
 40
0.0024749995
100
AcDbArc
 50
89.9999571957
 51
180.0000428043
  0
LINE
  5
258
100
AcDbEntity
  8
0
100
AcDbLine
 62
2
  6
CONTINUOUS
 10
13.4858697831
 20
2.5281293337
 11
13.4858697831
 21
2.5184303283
  0
ARC
  5
259
100
AcDbEntity
  8
0
100
AcDbCircle
 62
2
  6
CONTINUOUS
 10
13.4883447827
 20
2.5184303265
 40
0.0024749995
100
AcDbArc
 50
179.9999571957
 51
270.0000428043
  0
LINE
  5
25A
100
AcDbEntity
  8
0
100
AcDbLine
 62
2
  6
CONTINUOUS
 10
13.4883447845
 20
2.5159553269
 11
13.5130037982
 21
2.5159553269
  0
ARC
  5
25B
100
AcDbEntity
  8
0
100
AcDbCircle
 62
2
  6
CONTINUOUS
 10
13.5130038
 20
2.5134803274
 40
0.0024749995
100
AcDbArc
 50
359.9999571957
 51
90.0000428043
  0
LINE
  5
25C
100
AcDbEntity
  8
0
100
AcDbLine
 62
2
  6
CONTINUOUS
 10
13.5154787995
 20
2.5134803256
 11
13.5154787995
 21
2.4937023146
  0
ARC
  5
25D
100
AcDbEntity
  8
0
100
AcDbCircle
 62
2
  6
CONTINUOUS
 10
13.5130038
 20
2.4937023128
 40
0.0024749995
100
AcDbArc
 50
269.9999571957
 51
0.0000428043
  0
LINE
  5
25E
100
AcDbEntity
  8
0
100
AcDbLine
 62
2
  6
CONTINUOUS
 10
13.5130037982
 20
2.4912273132
 11
13.3994327352
 21
2.4912273132
  0
ARC
  5
25F
100
AcDbEntity
  8
0
100
AcDbCircle
 62
2
  6
CONTINUOUS
 10
13.3994327333
 20
2.4937023128
 40
0.0024749995
100
AcDbArc
 50
179.9999571957
 51
270.0000428043
  0
LINE
  5
260
100
AcDbEntity
  8
0
100
AcDbLine
 62
2
  6
CONTINUOUS
 10
13.3969577338
 20
2.4937023146
 11
13.3969577338
 21
2.5135023256
  0
ARC
  5
261
100
AcDbEntity
  8
0
100
AcDbCircle
 62
2
  6
CONTINUOUS
 10
13.3994327333
 20
2.5135023274
 40
0.0024749995
100
AcDbArc
 50
89.9999571957
 51
180.0000428043
  0
LINE
  5
262
100
AcDbEntity
  8
0
100
AcDbLine
 62
2
  6
CONTINUOUS
 10
13.3994327352
 20
2.515977327
 11
13.4221787478
 21
2.515977327
  0
ARC
  5
263
100
AcDbEntity
  8
0
100
AcDbCircle
 62
2
  6
CONTINUOUS
 10
13.4221787497
 20
2.5184523265
 40
0.0024749995
100
AcDbArc
 50
269.9999571957
 51
0.0000428042
  0
LINE
  5
264
100
AcDbEntity
  8
0
100
AcDbLine
 62
2
  6
CONTINUOUS
 10
13.4246537492
 20
2.5184523283
 11
13.4246537492
 21
2.564807354
  0
ARC
  5
265
100
AcDbEntity
  8
0
100
AcDbCircle
 62
2
  6
CONTINUOUS
 10
13.4221787497
 20
2.5648073559
 40
0.0024749995
100
AcDbArc
 50
359.9999571957
 51
90.0000428043
  0
LINE
  5
266
100
AcDbEntity
  8
0
100
AcDbLine
 62
2
  6
CONTINUOUS
 10
13.4221787478
 20
2.5672823554
 11
13.3994327352
 21
2.5672823554
  0
ARC
  5
267
100
AcDbEntity
  8
0
100
AcDbCircle
 62
2
  6
CONTINUOUS
 10
13.3994327333
 20
2.5697573549
 40
0.0024749995
100
AcDbArc
 50
179.9999571957
 51
270.0000428043
  0
LINE
  5
268
100
AcDbEntity
  8
0
100
AcDbLine
 62
2
  6
CONTINUOUS
 10
13.3969577338
 20
2.5697573568
 11
13.3969577338
 21
2.5895573678
  0
ARC
  5
269
100
AcDbEntity
  8
0
100
AcDbCircle
 62
2
  6
CONTINUOUS
 10
13.3994327333
 20
2.5895573696
 40
0.0024749995
100
AcDbArc
 50
89.9999571957
 51
180.0000428043
  0
LINE
  5
26A
100
AcDbEntity
  8
0
100
AcDbLine
 62
2
  6
CONTINUOUS
 10
13.3994327352
 20
2.5920323691
 11
13.5490138181
 21
2.5920323691
  0
ARC
  5
26B
100
AcDbEntity
  8
0
100
AcDbCircle
 62
2
  6
CONTINUOUS
 10
13.5463505148
 20
2.4094934586
 40
0.1825583387
100
AcDbArc
 50
79.8618509324
 51
89.1640948679
  0
ARC
  5
26C
100
AcDbEntity
  8
0
100
AcDbCircle
 62
2
  6
CONTINUOUS
 10
13.5726548052
 20
2.5503169747
 40
0.039319019
100
AcDbArc
 50
59.1202086415
 51
81.4730239328
  0
ARC
  5
26D
100
AcDbEntity
  8
0
100
AcDbCircle
 62
2
  6
CONTINUOUS
 10
13.5783142014
 20
2.5566516438
 40
0.0310192946
100
AcDbArc
 50
34.7540871
 51
62.0879016178
  0
ARC
  5
26E
100
AcDbEntity
  8
0
100
AcDbCircle
 62
2
  6
CONTINUOUS
 10
13.5900029525
 20
2.565201245
 40
0.0165459396
100
AcDbArc
 50
1.548452892
 51
33.5033152417
  0
ARC
  5
26F
100
AcDbEntity
  8
0
100
AcDbCircle
 62
2
  6
CONTINUOUS
 10
13.5932995477
 20
2.5653696972
 40
0.0132462337
100
AcDbArc
 50
331.1510006998
 51
1.205404301
  0
ARC
  5
270
100
AcDbEntity
  8
0
100
AcDbCircle
 62
2
  6
CONTINUOUS
 10
13.5822888914
 20
2.5720482849
 40
0.0261183659
100
AcDbArc
 50
305.6373831893
 51
329.9727629745
  0
ARC
  5
271
100
AcDbEntity
  8
0
100
AcDbCircle
 62
2
  6
CONTINUOUS
 10
13.5519569538
 20
2.6152551345
 40
0.0789082104
100
AcDbArc
 50
292.906155071
 51
305.2574666259
  0
ARC
  5
272
100
AcDbEntity
  8
0
100
AcDbCircle
 62
2
  6
CONTINUOUS
 10
13.5282557878
 20
2.4386010294
 40
0.117346916
100
AcDbArc
 50
58.614769177
 51
62.3737227606
  0
ARC
  5
273
100
AcDbEntity
  8
0
100
AcDbCircle
 62
2
  6
CONTINUOUS
 10
13.5761387404
 20
2.5167282896
 40
0.0257145923
100
AcDbArc
 50
39.3804255939
 51
59.0361096173
  0
ARC
  5
274
100
AcDbEntity
  8
0
100
AcDbCircle
 62
2
  6
CONTINUOUS
 10
13.5750183849
 20
2.5166552064
 40
0.0266349791
100
AcDbArc
 50
20.3630922153
 51
37.9727053099
  0
ARC
  5
275
100
AcDbEntity
  8
0
100
AcDbCircle
 62
2
  6
CONTINUOUS
 10
13.5571178432
 20
2.509473798
 40
0.0459185159
100
AcDbArc
 50
15.6740290068
 51
20.9917271228
  0
ARC
  5
276
100
AcDbEntity
  8
0
100
AcDbCircle
 62
2
  6
CONTINUOUS
 10
13.6156881783
 20
2.525116781
 40
0.0147197649
100
AcDbArc
 50
192.7054516565
 51
206.0594861022
  0
ARC
  5
277
100
AcDbEntity
  8
0
100
AcDbCircle
 62
2
  6
CONTINUOUS
 10
13.6071938412
 20
2.5209082945
 40
0.0052403997
100
AcDbArc
 50
205.5232099488
 51
227.5054868079
  0
ARC
  5
278
100
AcDbEntity
  8
0
100
AcDbCircle
 62
2
  6
CONTINUOUS
 10
13.6054655419
 20
2.5190929218
 40
0.0027347709
100
AcDbArc
 50
228.5117626737
 51
266.1485845754
  0
LINE
  5
279
100
AcDbEntity
  8
0
100
AcDbLine
 62
2
  6
CONTINUOUS
 10
13.6052818493
 20
2.5163643272
 11
13.60639085
 21
2.5163643272
  0
ARC
  5
27A
100
AcDbEntity
  8
0
100
AcDbCircle
 62
2
  6
CONTINUOUS
 10
13.6063292954
 20
2.5296129864
 40
0.0132488022
100
AcDbArc
 50
270.266200055
 51
281.2404888597
  0
ARC
  5
27B
100
AcDbEntity
  8
0
100
AcDbCircle
 62
2
  6
CONTINUOUS
 10
13.6075235364
 20
2.5238762928
 40
0.0073895522
100
AcDbArc
 50
280.8288201977
 51
305.0837508495
  0
ARC
  5
27C
100
AcDbEntity
  8
0
100
AcDbCircle
 62
2
  6
CONTINUOUS
 10
13.607924718
 20
2.5230254464
 40
0.0064647042
100
AcDbArc
 50
306.5086174083
 51
340.2162360092
  0
ARC
  5
27D
100
AcDbEntity
  8
0
100
AcDbCircle
 62
2
  6
CONTINUOUS
 10
13.6027235414
 20
2.524769508
 40
0.0119498009
100
AcDbArc
 50
340.7883861657
 51
1.1691452593
  0
LINE
  5
27E
100
AcDbEntity
  8
0
100
AcDbLine
 62
2
  6
CONTINUOUS
 10
13.6146708546
 20
2.525013332
 11
13.6146708546
 21
2.5276393334
  0
ARC
  5
27F
100
AcDbEntity
  8
0
100
AcDbCircle
 62
2
  6
CONTINUOUS
 10
13.6171458541
 20
2.5276393353
 40
0.0024749995
100
AcDbArc
 50
89.9999571957
 51
180.0000428043
  0
LINE
  5
280
100
AcDbEntity
  8
0
100
AcDbLine
 62
2
  6
CONTINUOUS
 10
13.6171458559
 20
2.5301143348
 11
13.6292558626
 21
2.5301143348
  0
ARC
  5
281
100
AcDbEntity
  8
0
100
AcDbCircle
 62
2
  6
CONTINUOUS
 10
13.6292558645
 20
2.5276393353
 40
0.0024749995
100
AcDbArc
 50
359.9999571957
 51
90.0000428043
  0
LINE
  5
282
100
AcDbEntity
  8
0
100
AcDbLine
 62
2
  6
CONTINUOUS
 10
13.631730864
 20
2.5276393334
 11
13.631730864
 21
2.516087327
  0
ARC
  5
283
100
AcDbEntity
  8
0
100
AcDbCircle
 62
2
  6
CONTINUOUS
 10
13.6141751675
 20
2.5161916447
 40
0.0175560065
100
AcDbArc
 50
332.2279060967
 51
359.6595469939
  0
ARC
  5
284
100
AcDbEntity
  8
0
100
AcDbCircle
 62
2
  6
CONTINUOUS
 10
13.6048681567
 20
2.5210861501
 40
0.0280715479
100
AcDbArc
 50
308.5071794988
 51
332.2400656899
  0
ARC
  5
285
100
AcDbEntity
  8
0
100
AcDbCircle
 62
2
  6
CONTINUOUS
 10
13.5978759713
 20
2.5286873679
 40
0.0383802683
100
AcDbArc
 50
288.7656836787
 51
309.6104317088
  0
ARC
  5
286
100
AcDbEntity
  8
0
100
AcDbCircle
 62
2
  6
CONTINUOUS
 10
13.6036139387
 20
2.5111006186
 40
0.0198837666
100
AcDbArc
 50
271.8586572978
 51
289.4131338543
  0
LINE
  5
287
100
AcDbEntity
  8
0
100
AcDbLine
 62
2
  6
CONTINUOUS
 10
13.6042588488
 20
2.4912273132
 11
13.5568948225
 21
2.4912273132
  0
ARC
  5
288
100
AcDbEntity
  8
0
100
AcDbCircle
 62
2
  6
CONTINUOUS
 10
13.5577001432
 20
2.5085494649
 40
0.0173408616
100
AcDbArc
 50
232.4713476722
 51
267.338189944
  0
ARC
  5
289
100
AcDbEntity
  8
0
100
AcDbCircle
 62
2
  6
CONTINUOUS
 10
13.5607987082
 20
2.5143997688
 40
0.0238935861
100
AcDbArc
 50
209.8247607259
 51
235.1255079367
  0
ARC
  5
28A
100
AcDbEntity
  8
0
100
AcDbCircle
 62
2
  6
CONTINUOUS
 10
13.5295131508
 20
2.5629115009
 40
0.0110815393
100
AcDbArc
 50
306.758405961
 51
320.4502234234
  0
ARC
  5
28B
100
AcDbEntity
  8
0
100
AcDbCircle
 62
2
  6
CONTINUOUS
 10
13.5238839599
 20
2.5706523294
 40
0.0206523367
100
AcDbArc
 50
289.6883413472
 51
306.4184925496
  0
ARC
  5
28C
100
AcDbEntity
  8
0
100
AcDbCircle
 62
2
  6
CONTINUOUS
 10
13.5219564542
 20
2.5750459767
 40
0.0254407115
100
AcDbArc
 50
270.7327484175
 51
290.441894219
  0
LINE
  5
28D
100
AcDbEntity
  8
0
100
AcDbLine
 62
2
  6
CONTINUOUS
 10
13.5222818033
 20
2.5496073456
 11
13.4883447845
 21
2.5496073456
  0
ARC
  5
28E
100
AcDbEntity
  8
0
100
AcDbCircle
 62
2
  6
CONTINUOUS
 10
13.4883447827
 20
2.5520823451
 40
0.0024749995
100
AcDbArc
 50
179.9999571957
 51
270.0000428043
  0
LINE
  5
28F
100
AcDbEntity
  8
0
100
AcDbLine
 62
2
  6
CONTINUOUS
 10
13.4858697831
 20
2.552082347
 11
13.4858697831
 21
2.564807354
  0
ARC
  5
290
100
AcDbEntity
  8
0
100
AcDbCircle
 62
2
  6
CONTINUOUS
 10
13.4883447827
 20
2.5648073559
 40
0.0024749995
100
AcDbArc
 50
89.9999571957
 51
180.0000428043
  0
LINE
  5
291
100
AcDbEntity
  8
0
100
AcDbLine
 62
2
  6
CONTINUOUS
 10
13.4883447845
 20
2.5672823554
 11
13.5251458049
 21
2.5672823554
  0
ARC
  5
292
100
AcDbEntity
  8
0
100
AcDbCircle
 62
2
  6
CONTINUOUS
 10
13.5236009174
 20
2.5388278764
 40
0.0284963867
100
AcDbArc
 50
70.3834917948
 51
86.8922743861
  0
ARC
  5
293
100
AcDbEntity
  8
0
100
AcDbCircle
 62
2
  6
CONTINUOUS
 10
13.5284605274
 20
2.5518696094
 40
0.0145814632
100
AcDbArc
 50
54.6746025112
 51
71.1660573124
  0
ARC
  5
294
100
AcDbEntity
  8
0
100
AcDbCircle
 62
2
  6
CONTINUOUS
 10
13.5335900184
 20
2.5587235346
 40
0.0060275915
100
AcDbArc
 50
20.9055592135
 51
56.7851676243
  0
ARC
  5
295
100
AcDbEntity
  8
0
100
AcDbCircle
 62
2
  6
CONTINUOUS
 10
13.5348905773
 20
2.5593838168
 40
0.0045795888
100
AcDbArc
 50
355.6235353944
 51
18.9942678268
  0
ARC
  5
296
100
AcDbEntity
  8
0
100
AcDbCircle
 62
2
  6
CONTINUOUS
 10
13.533683767
 20
2.559677593
 40
0.0058087709
100
AcDbArc
 50
318.8515287446
 51
353.6422345323
  0
LINE
  5
297
100
AcDbEntity
  8
0
100
AcDbLine
 62
2
  6
CONTINUOUS
 10
12.672340332
 20
2.5920323691
 11
12.7727983877
 21
2.5920323691
  0
ARC
  5
298
100
AcDbEntity
  8
0
100
AcDbCircle
 62
2
  6
CONTINUOUS
 10
12.7727985224
 20
2.5895582013
 40
0.0024741678
100
AcDbArc
 50
46.3477981899
 51
90.0031206038
  0
LINE
  5
299
100
AcDbEntity
  8
0
100
AcDbLine
 62
2
  6
CONTINUOUS
 10
12.7745063886
 20
2.5913483688
 11
12.8345394219
 21
2.534068337
  0
ARC
  5
29A
100
AcDbEntity
  8
0
100
AcDbCircle
 62
2
  6
CONTINUOUS
 10
12.8362481229
 20
2.5358592748
 40
0.0024753014
100
AcDbArc
 50
226.3461263059
 51
0.0014637321
  0
LINE
  5
29B
100
AcDbEntity
  8
0
100
AcDbLine
 62
2
  6
CONTINUOUS
 10
12.8387234242
 20
2.535859338
 11
12.8387234242
 21
2.564807354
  0
ARC
  5
29C
100
AcDbEntity
  8
0
100
AcDbCircle
 62
2
  6
CONTINUOUS
 10
12.8362484247
 20
2.5648073559
 40
0.0024749995
100
AcDbArc
 50
359.9999571957
 51
90.0000428043
  0
LINE
  5
29D
100
AcDbEntity
  8
0
100
AcDbLine
 62
2
  6
CONTINUOUS
 10
12.8362484229
 20
2.5672823554
 11
12.8174724125
 21
2.5672823554
  0
ARC
  5
29E
100
AcDbEntity
  8
0
100
AcDbCircle
 62
2
  6
CONTINUOUS
 10
12.8174724106
 20
2.5697573549
 40
0.0024749995
100
AcDbArc
 50
179.9999571957
 51
270.0000428043
  0
LINE
  5
29F
100
AcDbEntity
  8
0
100
AcDbLine
 62
2
  6
CONTINUOUS
 10
12.8149974111
 20
2.5697573568
 11
12.8149974111
 21
2.5895573678
  0
ARC
  5
2A0
100
AcDbEntity
  8
0
100
AcDbCircle
 62
2
  6
CONTINUOUS
 10
12.8174724106
 20
2.5895573696
 40
0.0024749995
100
AcDbArc
 50
89.9999571957
 51
180.0000428043
  0
LINE
  5
2A1
100
AcDbEntity
  8
0
100
AcDbLine
 62
2
  6
CONTINUOUS
 10
12.8174724125
 20
2.5920323691
 11
12.8914734535
 21
2.5920323691
  0
ARC
  5
2A2
100
AcDbEntity
  8
0
100
AcDbCircle
 62
2
  6
CONTINUOUS
 10
12.8914734553
 20
2.5895573696
 40
0.0024749995
100
AcDbArc
 50
359.9999571957
 51
90.0000428043
  0
LINE
  5
2A3
100
AcDbEntity
  8
0
100
AcDbLine
 62
2
  6
CONTINUOUS
 10
12.8939484549
 20
2.5895573678
 11
12.8939484549
 21
2.5697573568
  0
ARC
  5
2A4
100
AcDbEntity
  8
0
100
AcDbCircle
 62
2
  6
CONTINUOUS
 10
12.8914734553
 20
2.5697573549
 40
0.0024749995
100
AcDbArc
 50
269.9999571957
 51
0.0000428043
  0
LINE
  5
2A5
100
AcDbEntity
  8
0
100
AcDbLine
 62
2
  6
CONTINUOUS
 10
12.8914734535
 20
2.5672823554
 11
12.8735404436
 21
2.5672823554
  0
ARC
  5
2A6
100
AcDbEntity
  8
0
100
AcDbCircle
 62
2
  6
CONTINUOUS
 10
12.8735404417
 20
2.5648073559
 40
0.0024749995
100
AcDbArc
 50
89.9999571957
 51
180.0000428043
  0
LINE
  5
2A7
100
AcDbEntity
  8
0
100
AcDbLine
 62
2
  6
CONTINUOUS
 10
12.8710654422
 20
2.564807354
 11
12.8710654422
 21
2.4937023146
  0
ARC
  5
2A8
100
AcDbEntity
  8
0
100
AcDbCircle
 62
2
  6
CONTINUOUS
 10
12.8685904427
 20
2.4937023128
 40
0.0024749995
100
AcDbArc
 50
269.9999571957
 51
0.0000428043
  0
LINE
  5
2A9
100
AcDbEntity
  8
0
100
AcDbLine
 62
2
  6
CONTINUOUS
 10
12.8685904408
 20
2.4912273132
 11
12.7943853997
 21
2.4912273132
  0
ARC
  5
2AA
100
AcDbEntity
  8
0
100
AcDbCircle
 62
2
  6
CONTINUOUS
 10
12.7943847649
 20
2.4937027294
 40
0.0024754162
100
AcDbArc
 50
226.3593695813
 51
270.0146919953
  0
LINE
  5
2AB
100
AcDbEntity
  8
0
100
AcDbLine
 62
2
  6
CONTINUOUS
 10
12.7926763987
 20
2.4919113136
 11
12.7293963636
 21
2.5522893471
  0
ARC
  5
2AC
100
AcDbEntity
  8
0
100
AcDbCircle
 62
2
  6
CONTINUOUS
 10
12.7276876627
 20
2.5504984093
 40
0.0024753014
100
AcDbArc
 50
46.3461263059
 51
180.0014637321
  0
LINE
  5
2AD
100
AcDbEntity
  8
0
100
AcDbLine
 62
2
  6
CONTINUOUS
 10
12.7252123613
 20
2.5504983461
 11
12.7252123613
 21
2.5184523283
  0
ARC
  5
2AE
100
AcDbEntity
  8
0
100
AcDbCircle
 62
2
  6
CONTINUOUS
 10
12.7276873608
 20
2.5184523265
 40
0.0024749995
100
AcDbArc
 50
179.9999571957
 51
270.0000428043
  0
LINE
  5
2AF
100
AcDbEntity
  8
0
100
AcDbLine
 62
2
  6
CONTINUOUS
 10
12.7276873627
 20
2.515977327
 11
12.7480043739
 21
2.515977327
  0
ARC
  5
2B0
100
AcDbEntity
  8
0
100
AcDbCircle
 62
2
  6
CONTINUOUS
 10
12.7480043758
 20
2.5135023274
 40
0.0024749995
100
AcDbArc
 50
359.9999571957
 51
90.0000428043
  0
LINE
  5
2B1
100
AcDbEntity
  8
0
100
AcDbLine
 62
2
  6
CONTINUOUS
 10
12.7504793753
 20
2.5135023256
 11
12.7504793753
 21
2.4937023146
  0
ARC
  5
2B2
100
AcDbEntity
  8
0
100
AcDbCircle
 62
2
  6
CONTINUOUS
 10
12.7480043758
 20
2.4937023128
 40
0.0024749995
100
AcDbArc
 50
269.9999571957
 51
0.0000428043
  0
LINE
  5
2B3
100
AcDbEntity
  8
0
100
AcDbLine
 62
2
  6
CONTINUOUS
 10
12.7480043739
 20
2.4912273132
 11
12.672340332
 21
2.4912273132
  0
ARC
  5
2B4
100
AcDbEntity
  8
0
100
AcDbCircle
 62
2
  6
CONTINUOUS
 10
12.6723403301
 20
2.4937023128
 40
0.0024749995
100
AcDbArc
 50
179.9999571957
 51
270.0000428043
  0
LINE
  5
2B5
100
AcDbEntity
  8
0
100
AcDbLine
 62
2
  6
CONTINUOUS
 10
12.6698653306
 20
2.4937023146
 11
12.6698653306
 21
2.5135023256
  0
ARC
  5
2B6
100
AcDbEntity
  8
0
100
AcDbCircle
 62
2
  6
CONTINUOUS
 10
12.6723403301
 20
2.5135023274
 40
0.0024749995
100
AcDbArc
 50
89.9999571957
 51
180.0000428043
  0
LINE
  5
2B7
100
AcDbEntity
  8
0
100
AcDbLine
 62
2
  6
CONTINUOUS
 10
12.672340332
 20
2.515977327
 11
12.6909873423
 21
2.515977327
  0
ARC
  5
2B8
100
AcDbEntity
  8
0
100
AcDbCircle
 62
2
  6
CONTINUOUS
 10
12.6909873442
 20
2.5184523265
 40
0.0024749995
100
AcDbArc
 50
269.9999571957
 51
0.0000428043
  0
LINE
  5
2B9
100
AcDbEntity
  8
0
100
AcDbLine
 62
2
  6
CONTINUOUS
 10
12.6934623437
 20
2.5184523283
 11
12.6934623437
 21
2.564807354
  0
ARC
  5
2BA
100
AcDbEntity
  8
0
100
AcDbCircle
 62
2
  6
CONTINUOUS
 10
12.6909873442
 20
2.5648073559
 40
0.0024749995
100
AcDbArc
 50
359.9999571957
 51
90.0000428043
  0
LINE
  5
2BB
100
AcDbEntity
  8
0
100
AcDbLine
 62
2
  6
CONTINUOUS
 10
12.6909873423
 20
2.5672823554
 11
12.672340332
 21
2.5672823554
  0
ARC
  5
2BC
100
AcDbEntity
  8
0
100
AcDbCircle
 62
2
  6
CONTINUOUS
 10
12.6723403301
 20
2.5697573549
 40
0.0024749995
100
AcDbArc
 50
179.9999571957
 51
270.0000428043
  0
LINE
  5
2BD
100
AcDbEntity
  8
0
100
AcDbLine
 62
2
  6
CONTINUOUS
 10
12.6698653306
 20
2.5697573568
 11
12.6698653306
 21
2.5895573678
  0
ARC
  5
2BE
100
AcDbEntity
  8
0
100
AcDbCircle
 62
2
  6
CONTINUOUS
 10
12.6723403301
 20
2.5895573696
 40
0.0024749995
100
AcDbArc
 50
89.9999571957
 51
180.0000428043
  0
LINE
  5
2BF
100
AcDbEntity
  8
0
100
AcDbLine
 62
2
  6
CONTINUOUS
 10
12.5246402501
 20
2.5655893545
 11
12.5175232461
 21
2.5543723483
  0
ARC
  5
2C0
100
AcDbEntity
  8
0
100
AcDbCircle
 62
2
  6
CONTINUOUS
 10
12.519613138
 20
2.5530463862
 40
0.0024750401
100
AcDbArc
 50
147.6063258012
 51
270.0025305754
  0
LINE
  5
2C1
100
AcDbEntity
  8
0
100
AcDbLine
 62
2
  6
CONTINUOUS
 10
12.5196132473
 20
2.5505713461
 11
12.5401702587
 21
2.5505713461
  0
ARC
  5
2C2
100
AcDbEntity
  8
0
100
AcDbCircle
 62
2
  6
CONTINUOUS
 10
12.5401702375
 20
2.5530465533
 40
0.0024752071
100
AcDbArc
 50
270.0004896793
 51
32.9089806818
  0
LINE
  5
2C3
100
AcDbEntity
  8
0
100
AcDbLine
 62
2
  6
CONTINUOUS
 10
12.5422482598
 20
2.5543913483
 11
12.5349892558
 21
2.5656073545
  0
ARC
  5
2C4
100
AcDbEntity
  8
0
100
AcDbCircle
 62
2
  6
CONTINUOUS
 10
12.532910715
 20
2.564262895
 40
0.0024754602
100
AcDbArc
 50
32.8959418573
 51
89.9875097202
  0
LINE
  5
2C5
100
AcDbEntity
  8
0
100
AcDbLine
 62
2
  6
CONTINUOUS
 10
12.5329112547
 20
2.5667383551
 11
12.5267302512
 21
2.5667383551
  0
ARC
  5
2C6
100
AcDbEntity
  8
0
100
AcDbCircle
 62
2
  6
CONTINUOUS
 10
12.5267301809
 20
2.5642631548
 40
0.0024752003
100
AcDbArc
 50
89.998372645
 51
147.602165307
  0
LINE
  5
2C7
100
AcDbEntity
  8
0
100
AcDbLine
 62
2
  6
CONTINUOUS
 10
12.548053263
 20
2.5284903339
 11
12.5536792662
 21
2.5197973291
  0
ARC
  5
2C8
100
AcDbEntity
  8
0
100
AcDbCircle
 62
2
  6
CONTINUOUS
 10
12.5516012439
 20
2.5184525341
 40
0.0024752071
100
AcDbArc
 50
270.0004896794
 51
32.9089806818
  0
LINE
  5
2C9
100
AcDbEntity
  8
0
100
AcDbLine
 62
2
  6
CONTINUOUS
 10
12.551601265
 20
2.515977327
 11
12.537150257
 21
2.515977327
  0
ARC
  5
2CA
100
AcDbEntity
  8
0
100
AcDbCircle
 62
2
  6
CONTINUOUS
 10
12.5371502552
 20
2.5135023274
 40
0.0024749995
100
AcDbArc
 50
89.9999571957
 51
180.0000428043
  0
LINE
  5
2CB
100
AcDbEntity
  8
0
100
AcDbLine
 62
2
  6
CONTINUOUS
 10
12.5346752556
 20
2.5135023256
 11
12.5346752556
 21
2.4937023146
  0
ARC
  5
2CC
100
AcDbEntity
  8
0
100
AcDbCircle
 62
2
  6
CONTINUOUS
 10
12.5371502552
 20
2.4937023128
 40
0.0024749995
100
AcDbArc
 50
179.9999571957
 51
270.0000428043
  0
LINE
  5
2CD
100
AcDbEntity
  8
0
100
AcDbLine
 62
2
  6
CONTINUOUS
 10
12.537150257
 20
2.4912273132
 11
12.6424313154
 21
2.4912273132
  0
ARC
  5
2CE
100
AcDbEntity
  8
0
100
AcDbCircle
 62
2
  6
CONTINUOUS
 10
12.6424313172
 20
2.4937023128
 40
0.0024749995
100
AcDbArc
 50
269.9999571957
 51
0.0000428043
  0
LINE
  5
2CF
100
AcDbEntity
  8
0
100
AcDbLine
 62
2
  6
CONTINUOUS
 10
12.6449063168
 20
2.4937023146
 11
12.6449063168
 21
2.5135023256
  0
ARC
  5
2D0
100
AcDbEntity
  8
0
100
AcDbCircle
 62
2
  6
CONTINUOUS
 10
12.6424313172
 20
2.5135023274
 40
0.0024749995
100
AcDbArc
 50
359.9999571957
 51
90.0000428043
  0
LINE
  5
2D1
100
AcDbEntity
  8
0
100
AcDbLine
 62
2
  6
CONTINUOUS
 10
12.6424313154
 20
2.515977327
 11
12.6224153043
 21
2.515977327
  0
ARC
  5
2D2
100
AcDbEntity
  8
0
100
AcDbCircle
 62
2
  6
CONTINUOUS
 10
12.6224154248
 20
2.518451368
 40
0.002474041
100
AcDbArc
 50
212.9056413127
 51
269.9972091756
  0
LINE
  5
2D3
100
AcDbEntity
  8
0
100
AcDbLine
 62
2
  6
CONTINUOUS
 10
12.6203383031
 20
2.5171073276
 11
12.5725822767
 21
2.5909023685
  0
ARC
  5
2D4
100
AcDbEntity
  8
0
100
AcDbCircle
 62
2
  6
CONTINUOUS
 10
12.570504655
 20
2.589557409
 40
0.0024749602
100
AcDbArc
 50
32.9172174468
 51
90.0087853097
  0
LINE
  5
2D5
100
AcDbEntity
  8
0
100
AcDbLine
 62
2
  6
CONTINUOUS
 10
12.5705042755
 20
2.5920323691
 11
12.5133292438
 21
2.5920323691
  0
ARC
  5
2D6
100
AcDbEntity
  8
0
100
AcDbCircle
 62
2
  6
CONTINUOUS
 10
12.5133291735
 20
2.5895571688
 40
0.0024752003
100
AcDbArc
 50
89.9983726451
 51
147.602165307
  0
LINE
  5
2D7
100
AcDbEntity
  8
0
100
AcDbLine
 62
2
  6
CONTINUOUS
 10
12.5112392426
 20
2.5908833685
 11
12.4644392167
 21
2.5171263276
  0
ARC
  5
2D8
100
AcDbEntity
  8
0
100
AcDbCircle
 62
2
  6
CONTINUOUS
 10
12.4623492858
 20
2.5184525273
 40
0.0024752003
100
AcDbArc
 50
269.9983726451
 51
327.602165307
  0
LINE
  5
2D9
100
AcDbEntity
  8
0
100
AcDbLine
 62
2
  6
CONTINUOUS
 10
12.4623492155
 20
2.515977327
 11
12.4394882028
 21
2.515977327
  0
ARC
  5
2DA
100
AcDbEntity
  8
0
100
AcDbCircle
 62
2
  6
CONTINUOUS
 10
12.439488201
 20
2.5135023274
 40
0.0024749995
100
AcDbArc
 50
89.9999571957
 51
180.0000428043
  0
LINE
  5
2DB
100
AcDbEntity
  8
0
100
AcDbLine
 62
2
  6
CONTINUOUS
 10
12.4370132015
 20
2.5135023256
 11
12.4370132015
 21
2.4937023146
  0
ARC
  5
2DC
100
AcDbEntity
  8
0
100
AcDbCircle
 62
2
  6
CONTINUOUS
 10
12.439488201
 20
2.4937023128
 40
0.0024749995
100
AcDbArc
 50
179.9999571957
 51
270.0000428043
  0
LINE
  5
2DD
100
AcDbEntity
  8
0
100
AcDbLine
 62
2
  6
CONTINUOUS
 10
12.4394882028
 20
2.4912273132
 11
12.5168642458
 21
2.4912273132
  0
ARC
  5
2DE
100
AcDbEntity
  8
0
100
AcDbCircle
 62
2
  6
CONTINUOUS
 10
12.5168642476
 20
2.4937023128
 40
0.0024749995
100
AcDbArc
 50
269.9999571957
 51
0.0000428043
  0
LINE
  5
2DF
100
AcDbEntity
  8
0
100
AcDbLine
 62
2
  6
CONTINUOUS
 10
12.5193392471
 20
2.4937023146
 11
12.5193392471
 21
2.5135023256
  0
ARC
  5
2E0
100
AcDbEntity
  8
0
100
AcDbCircle
 62
2
  6
CONTINUOUS
 10
12.5168642476
 20
2.5135023274
 40
0.0024749995
100
AcDbArc
 50
359.9999571957
 51
90.0000428043
  0
LINE
  5
2E1
100
AcDbEntity
  8
0
100
AcDbLine
 62
2
  6
CONTINUOUS
 10
12.5168642458
 20
2.515977327
 11
12.5055812395
 21
2.515977327
  0
ARC
  5
2E2
100
AcDbEntity
  8
0
100
AcDbCircle
 62
2
  6
CONTINUOUS
 10
12.5055811302
 20
2.518452367
 40
0.0024750401
100
AcDbArc
 50
147.6063258011
 51
270.0025305754
  0
LINE
  5
2E3
100
AcDbEntity
  8
0
100
AcDbLine
 62
2
  6
CONTINUOUS
 10
12.5034912383
 20
2.5197783291
 11
12.5090072414
 21
2.5284723339
  0
ARC
  5
2E4
100
AcDbEntity
  8
0
100
AcDbCircle
 62
2
  6
CONTINUOUS
 10
12.5110971723
 20
2.5271461342
 40
0.0024752003
100
AcDbArc
 50
89.998372645
 51
147.602165307
  0
LINE
  5
2E5
100
AcDbEntity
  8
0
100
AcDbLine
 62
2
  6
CONTINUOUS
 10
12.5110972426
 20
2.5296213345
 11
12.5459752619
 21
2.5296213345
  0
ARC
  5
2E6
100
AcDbEntity
  8
0
100
AcDbCircle
 62
2
  6
CONTINUOUS
 10
12.5459747223
 20
2.5271458744
 40
0.0024754602
100
AcDbArc
 50
32.8959418573
 51
89.9875097202
  0
LINE
  5
2E7
100
AcDbEntity
  8
0
100
AcDbLine
 62
2
  6
CONTINUOUS
 10
12.9205934696
 20
2.5920323691
 11
13.0210515254
 21
2.5920323691
  0
ARC
  5
2E8
100
AcDbEntity
  8
0
100
AcDbCircle
 62
2
  6
CONTINUOUS
 10
13.0210516601
 20
2.5895582013
 40
0.0024741678
100
AcDbArc
 50
46.3477981899
 51
90.0031206038
  0
LINE
  5
2E9
100
AcDbEntity
  8
0
100
AcDbLine
 62
2
  6
CONTINUOUS
 10
13.0227595263
 20
2.5913483688
 11
13.0827925596
 21
2.534068337
  0
ARC
  5
2EA
100
AcDbEntity
  8
0
100
AcDbCircle
 62
2
  6
CONTINUOUS
 10
13.0845012605
 20
2.5358592748
 40
0.0024753014
100
AcDbArc
 50
226.3461263059
 51
0.0014637321
  0
LINE
  5
2EB
100
AcDbEntity
  8
0
100
AcDbLine
 62
2
  6
CONTINUOUS
 10
13.0869765619
 20
2.535859338
 11
13.0869765619
 21
2.564807354
  0
ARC
  5
2EC
100
AcDbEntity
  8
0
100
AcDbCircle
 62
2
  6
CONTINUOUS
 10
13.0845015624
 20
2.5648073559
 40
0.0024749995
100
AcDbArc
 50
359.9999571957
 51
90.0000428043
  0
LINE
  5
2ED
100
AcDbEntity
  8
0
100
AcDbLine
 62
2
  6
CONTINUOUS
 10
13.0845015605
 20
2.5672823554
 11
13.0657255501
 21
2.5672823554
  0
ARC
  5
2EE
100
AcDbEntity
  8
0
100
AcDbCircle
 62
2
  6
CONTINUOUS
 10
13.0657255483
 20
2.5697573549
 40
0.0024749995
100
AcDbArc
 50
179.9999571957
 51
270.0000428043
  0
LINE
  5
2EF
100
AcDbEntity
  8
0
100
AcDbLine
 62
2
  6
CONTINUOUS
 10
13.0632505488
 20
2.5697573568
 11
13.0632505488
 21
2.5895573678
  0
ARC
  5
2F0
100
AcDbEntity
  8
0
100
AcDbCircle
 62
2
  6
CONTINUOUS
 10
13.0657255483
 20
2.5895573696
 40
0.0024749995
100
AcDbArc
 50
89.9999571957
 51
180.0000428043
  0
LINE
  5
2F1
100
AcDbEntity
  8
0
100
AcDbLine
 62
2
  6
CONTINUOUS
 10
13.0657255501
 20
2.5920323691
 11
13.1397265912
 21
2.5920323691
  0
ARC
  5
2F2
100
AcDbEntity
  8
0
100
AcDbCircle
 62
2
  6
CONTINUOUS
 10
13.139726593
 20
2.5895573696
 40
0.0024749995
100
AcDbArc
 50
359.9999571957
 51
90.0000428043
  0
LINE
  5
2F3
100
AcDbEntity
  8
0
100
AcDbLine
 62
2
  6
CONTINUOUS
 10
13.1422015925
 20
2.5895573678
 11
13.1422015925
 21
2.5697573568
  0
ARC
  5
2F4
100
AcDbEntity
  8
0
100
AcDbCircle
 62
2
  6
CONTINUOUS
 10
13.139726593
 20
2.5697573549
 40
0.0024749995
100
AcDbArc
 50
269.9999571957
 51
0.0000428042
  0
LINE
  5
2F5
100
AcDbEntity
  8
0
100
AcDbLine
 62
2
  6
CONTINUOUS
 10
13.1397265912
 20
2.5672823554
 11
13.1217935812
 21
2.5672823554
  0
ARC
  5
2F6
100
AcDbEntity
  8
0
100
AcDbCircle
 62
2
  6
CONTINUOUS
 10
13.1217935794
 20
2.5648073559
 40
0.0024749995
100
AcDbArc
 50
89.9999571957
 51
180.0000428042
  0
LINE
  5
2F7
100
AcDbEntity
  8
0
100
AcDbLine
 62
2
  6
CONTINUOUS
 10
13.1193185799
 20
2.564807354
 11
13.1193185799
 21
2.4937023146
  0
ARC
  5
2F8
100
AcDbEntity
  8
0
100
AcDbCircle
 62
2
  6
CONTINUOUS
 10
13.1168435803
 20
2.4937023128
 40
0.0024749995
100
AcDbArc
 50
269.9999571957
 51
0.0000428043
  0
LINE
  5
2F9
100
AcDbEntity
  8
0
100
AcDbLine
 62
2
  6
CONTINUOUS
 10
13.1168435785
 20
2.4912273132
 11
13.0426375373
 21
2.4912273132
  0
ARC
  5
2FA
100
AcDbEntity
  8
0
100
AcDbCircle
 62
2
  6
CONTINUOUS
 10
13.0426374026
 20
2.493701481
 40
0.0024741678
100
AcDbArc
 50
226.3477981898
 51
270.0031206038
  0
LINE
  5
2FB
100
AcDbEntity
  8
0
100
AcDbLine
 62
2
  6
CONTINUOUS
 10
13.0409295364
 20
2.4919113136
 11
12.9776495013
 21
2.5522893471
  0
ARC
  5
2FC
100
AcDbEntity
  8
0
100
AcDbCircle
 62
2
  6
CONTINUOUS
 10
12.9759408003
 20
2.5504984093
 40
0.0024753014
100
AcDbArc
 50
46.3461263059
 51
180.0014637321
  0
LINE
  5
2FD
100
AcDbEntity
  8
0
100
AcDbLine
 62
2
  6
CONTINUOUS
 10
12.973465499
 20
2.5504983461
 11
12.973465499
 21
2.5184523283
  0
ARC
  5
2FE
100
AcDbEntity
  8
0
100
AcDbCircle
 62
2
  6
CONTINUOUS
 10
12.9759404985
 20
2.5184523265
 40
0.0024749995
100
AcDbArc
 50
179.9999571957
 51
270.0000428043
  0
LINE
  5
2FF
100
AcDbEntity
  8
0
100
AcDbLine
 62
2
  6
CONTINUOUS
 10
12.9759405003
 20
2.515977327
 11
12.9962575116
 21
2.515977327
  0
ARC
  5
300
100
AcDbEntity
  8
0
100
AcDbCircle
 62
2
  6
CONTINUOUS
 10
12.9962575135
 20
2.5135023274
 40
0.0024749995
100
AcDbArc
 50
359.9999571957
 51
90.0000428043
  0
LINE
  5
301
100
AcDbEntity
  8
0
100
AcDbLine
 62
2
  6
CONTINUOUS
 10
12.998732513
 20
2.5135023256
 11
12.998732513
 21
2.4937023146
  0
ARC
  5
302
100
AcDbEntity
  8
0
100
AcDbCircle
 62
2
  6
CONTINUOUS
 10
12.9962575135
 20
2.4937023128
 40
0.0024749995
100
AcDbArc
 50
269.9999571957
 51
0.0000428043
  0
LINE
  5
303
100
AcDbEntity
  8
0
100
AcDbLine
 62
2
  6
CONTINUOUS
 10
12.9962575116
 20
2.4912273132
 11
12.9205934696
 21
2.4912273132
  0
ARC
  5
304
100
AcDbEntity
  8
0
100
AcDbCircle
 62
2
  6
CONTINUOUS
 10
12.9205934678
 20
2.4937023128
 40
0.0024749995
100
AcDbArc
 50
179.9999571957
 51
270.0000428043
  0
LINE
  5
305
100
AcDbEntity
  8
0
100
AcDbLine
 62
2
  6
CONTINUOUS
 10
12.9181184683
 20
2.4937023146
 11
12.9181184683
 21
2.5135023256
  0
ARC
  5
306
100
AcDbEntity
  8
0
100
AcDbCircle
 62
2
  6
CONTINUOUS
 10
12.9205934678
 20
2.5135023274
 40
0.0024749995
100
AcDbArc
 50
89.9999571957
 51
180.0000428042
  0
LINE
  5
307
100
AcDbEntity
  8
0
100
AcDbLine
 62
2
  6
CONTINUOUS
 10
12.9205934696
 20
2.515977327
 11
12.93923948
 21
2.515977327
  0
ARC
  5
308
100
AcDbEntity
  8
0
100
AcDbCircle
 62
2
  6
CONTINUOUS
 10
12.9392394818
 20
2.5184523265
 40
0.0024749995
100
AcDbArc
 50
269.9999571957
 51
0.0000428043
  0
LINE
  5
309
100
AcDbEntity
  8
0
100
AcDbLine
 62
2
  6
CONTINUOUS
 10
12.9417144814
 20
2.5184523283
 11
12.9417144814
 21
2.564807354
  0
ARC
  5
30A
100
AcDbEntity
  8
0
100
AcDbCircle
 62
2
  6
CONTINUOUS
 10
12.9392394818
 20
2.5648073559
 40
0.0024749995
100
AcDbArc
 50
359.9999571957
 51
90.0000428043
  0
LINE
  5
30B
100
AcDbEntity
  8
0
100
AcDbLine
 62
2
  6
CONTINUOUS
 10
12.93923948
 20
2.5672823554
 11
12.9205934696
 21
2.5672823554
  0
ARC
  5
30C
100
AcDbEntity
  8
0
100
AcDbCircle
 62
2
  6
CONTINUOUS
 10
12.9205934678
 20
2.5697573549
 40
0.0024749995
100
AcDbArc
 50
179.9999571957
 51
270.0000428043
  0
LINE
  5
30D
100
AcDbEntity
  8
0
100
AcDbLine
 62
2
  6
CONTINUOUS
 10
12.9181184683
 20
2.5697573568
 11
12.9181184683
 21
2.5895573678
  0
ARC
  5
30E
100
AcDbEntity
  8
0
100
AcDbCircle
 62
2
  6
CONTINUOUS
 10
12.9205934678
 20
2.5895573696
 40
0.0024749995
100
AcDbArc
 50
89.9999571957
 51
180.0000428042
  0
LINE
  5
30F
100
AcDbEntity
  8
0
100
AcDbLine
 62
2
  6
CONTINUOUS
 10
13.2934226764
 20
2.5324773361
 11
13.2582556569
 21
2.5324773361
  0
ARC
  5
310
100
AcDbEntity
  8
0
100
AcDbCircle
 62
2
  6
CONTINUOUS
 10
13.2582556551
 20
2.5300023366
 40
0.0024749995
100
AcDbArc
 50
89.9999571957
 51
180.0000428043
  0
LINE
  5
311
100
AcDbEntity
  8
0
100
AcDbLine
 62
2
  6
CONTINUOUS
 10
13.2557806555
 20
2.5300023347
 11
13.2557806555
 21
2.5184523283
  0
ARC
  5
312
100
AcDbEntity
  8
0
100
AcDbCircle
 62
2
  6
CONTINUOUS
 10
13.2582556551
 20
2.5184523265
 40
0.0024749995
100
AcDbArc
 50
179.9999571957
 51
270.0000428043
  0
LINE
  5
313
100
AcDbEntity
  8
0
100
AcDbLine
 62
2
  6
CONTINUOUS
 10
13.2582556569
 20
2.515977327
 11
13.3232596929
 21
2.515977327
  0
ARC
  5
314
100
AcDbEntity
  8
0
100
AcDbCircle
 62
2
  6
CONTINUOUS
 10
13.3232596948
 20
2.5184523265
 40
0.0024749995
100
AcDbArc
 50
269.9999571957
 51
0.0000428043
  0
LINE
  5
315
100
AcDbEntity
  8
0
100
AcDbLine
 62
2
  6
CONTINUOUS
 10
13.3257346943
 20
2.5184523283
 11
13.3257346943
 21
2.5267023329
  0
ARC
  5
316
100
AcDbEntity
  8
0
100
AcDbCircle
 62
2
  6
CONTINUOUS
 10
13.3282096938
 20
2.5267023348
 40
0.0024749995
100
AcDbArc
 50
89.9999571957
 51
180.0000428043
  0
LINE
  5
317
100
AcDbEntity
  8
0
100
AcDbLine
 62
2
  6
CONTINUOUS
 10
13.3282096957
 20
2.5291773343
 11
13.3705287192
 21
2.5291773343
  0
ARC
  5
318
100
AcDbEntity
  8
0
100
AcDbCircle
 62
2
  6
CONTINUOUS
 10
13.370528721
 20
2.5267023348
 40
0.0024749995
100
AcDbArc
 50
359.9999571957
 51
90.0000428043
  0
LINE
  5
319
100
AcDbEntity
  8
0
100
AcDbLine
 62
2
  6
CONTINUOUS
 10
13.3730037205
 20
2.5267023329
 11
13.3730037205
 21
2.4937023146
  0
ARC
  5
31A
100
AcDbEntity
  8
0
100
AcDbCircle
 62
2
  6
CONTINUOUS
 10
13.370528721
 20
2.4937023128
 40
0.0024749995
100
AcDbArc
 50
269.9999571957
 51
0.0000428043
  0
LINE
  5
31B
100
AcDbEntity
  8
0
100
AcDbLine
 62
2
  6
CONTINUOUS
 10
13.3705287192
 20
2.4912273132
 11
13.1673166065
 21
2.4912273132
  0
ARC
  5
31C
100
AcDbEntity
  8
0
100
AcDbCircle
 62
2
  6
CONTINUOUS
 10
13.1673166046
 20
2.4937023128
 40
0.0024749995
100
AcDbArc
 50
179.9999571957
 51
270.0000428043
  0
LINE
  5
31D
100
AcDbEntity
  8
0
100
AcDbLine
 62
2
  6
CONTINUOUS
 10
13.1648416051
 20
2.4937023146
 11
13.1648416051
 21
2.5135023256
  0
ARC
  5
31E
100
AcDbEntity
  8
0
100
AcDbCircle
 62
2
  6
CONTINUOUS
 10
13.1673166046
 20
2.5135023274
 40
0.0024749995
100
AcDbArc
 50
89.9999571957
 51
180.0000428043
  0
LINE
  5
31F
100
AcDbEntity
  8
0
100
AcDbLine
 62
2
  6
CONTINUOUS
 10
13.1673166065
 20
2.515977327
 11
13.1912396197
 21
2.515977327
  0
ARC
  5
320
100
AcDbEntity
  8
0
100
AcDbCircle
 62
2
  6
CONTINUOUS
 10
13.1912396216
 20
2.5184523265
 40
0.0024749995
100
AcDbArc
 50
269.9999571957
 51
0.0000428042
  0
LINE
  5
321
100
AcDbEntity
  8
0
100
AcDbLine
 62
2
  6
CONTINUOUS
 10
13.1937146211
 20
2.5184523283
 11
13.1937146211
 21
2.564807354
  0
ARC
  5
322
100
AcDbEntity
  8
0
100
AcDbCircle
 62
2
  6
CONTINUOUS
 10
13.1912396216
 20
2.5648073559
 40
0.0024749995
100
AcDbArc
 50
359.9999571957
 51
90.0000428043
  0
LINE
  5
323
100
AcDbEntity
  8
0
100
AcDbLine
 62
2
  6
CONTINUOUS
 10
13.1912396197
 20
2.5672823554
 11
13.1673166065
 21
2.5672823554
  0
ARC
  5
324
100
AcDbEntity
  8
0
100
AcDbCircle
 62
2
  6
CONTINUOUS
 10
13.1673166046
 20
2.5697573549
 40
0.0024749995
100
AcDbArc
 50
179.9999571957
 51
270.0000428043
  0
LINE
  5
325
100
AcDbEntity
  8
0
100
AcDbLine
 62
2
  6
CONTINUOUS
 10
13.1648416051
 20
2.5697573568
 11
13.1648416051
 21
2.5895573678
  0
ARC
  5
326
100
AcDbEntity
  8
0
100
AcDbCircle
 62
2
  6
CONTINUOUS
 10
13.1673166046
 20
2.5895573696
 40
0.0024749995
100
AcDbArc
 50
89.9999571957
 51
180.0000428043
  0
LINE
  5
327
100
AcDbEntity
  8
0
100
AcDbLine
 62
2
  6
CONTINUOUS
 10
13.1673166065
 20
2.5920323691
 11
13.3691097184
 21
2.5920323691
  0
ARC
  5
328
100
AcDbEntity
  8
0
100
AcDbCircle
 62
2
  6
CONTINUOUS
 10
13.3691097202
 20
2.5895573696
 40
0.0024749995
100
AcDbArc
 50
359.9999571957
 51
90.0000428043
  0
LINE
  5
329
100
AcDbEntity
  8
0
100
AcDbLine
 62
2
  6
CONTINUOUS
 10
13.3715847197
 20
2.5895573678
 11
13.3715847197
 21
2.5565573495
  0
ARC
  5
32A
100
AcDbEntity
  8
0
100
AcDbCircle
 62
2
  6
CONTINUOUS
 10
13.3691097202
 20
2.5565573476
 40
0.0024749995
100
AcDbArc
 50
269.9999571957
 51
0.0000428042
  0
LINE
  5
32B
100
AcDbEntity
  8
0
100
AcDbLine
 62
2
  6
CONTINUOUS
 10
13.3691097184
 20
2.5540823481
 11
13.3272456952
 21
2.5540823481
  0
ARC
  5
32C
100
AcDbEntity
  8
0
100
AcDbCircle
 62
2
  6
CONTINUOUS
 10
13.3272456933
 20
2.5565573476
 40
0.0024749995
100
AcDbArc
 50
179.9999571957
 51
270.0000428043
  0
LINE
  5
32D
100
AcDbEntity
  8
0
100
AcDbLine
 62
2
  6
CONTINUOUS
 10
13.3247706938
 20
2.5565573495
 11
13.3247706938
 21
2.564807354
  0
ARC
  5
32E
100
AcDbEntity
  8
0
100
AcDbCircle
 62
2
  6
CONTINUOUS
 10
13.3222956943
 20
2.5648073559
 40
0.0024749995
100
AcDbArc
 50
359.9999571957
 51
90.0000428043
  0
LINE
  5
32F
100
AcDbEntity
  8
0
100
AcDbLine
 62
2
  6
CONTINUOUS
 10
13.3222956924
 20
2.5672823554
 11
13.2582556569
 21
2.5672823554
  0
ARC
  5
330
100
AcDbEntity
  8
0
100
AcDbCircle
 62
2
  6
CONTINUOUS
 10
13.2582556551
 20
2.5648073559
 40
0.0024749995
100
AcDbArc
 50
89.9999571957
 51
180.0000428043
  0
LINE
  5
331
100
AcDbEntity
  8
0
100
AcDbLine
 62
2
  6
CONTINUOUS
 10
13.2557806555
 20
2.564807354
 11
13.2557806555
 21
2.5532573476
  0
ARC
  5
332
100
AcDbEntity
  8
0
100
AcDbCircle
 62
2
  6
CONTINUOUS
 10
13.2582556551
 20
2.5532573458
 40
0.0024749995
100
AcDbArc
 50
179.9999571957
 51
270.0000428043
  0
LINE
  5
333
100
AcDbEntity
  8
0
100
AcDbLine
 62
2
  6
CONTINUOUS
 10
13.2582556569
 20
2.5507823463
 11
13.2934226764
 21
2.5507823463
  0
ARC
  5
334
100
AcDbEntity
  8
0
100
AcDbCircle
 62
2
  6
CONTINUOUS
 10
13.2934226783
 20
2.5483073467
 40
0.0024749995
100
AcDbArc
 50
359.9999571957
 51
90.0000428043
  0
LINE
  5
335
100
AcDbEntity
  8
0
100
AcDbLine
 62
2
  6
CONTINUOUS
 10
13.2958976778
 20
2.5483073449
 11
13.2958976778
 21
2.5349523375
  0
ARC
  5
336
100
AcDbEntity
  8
0
100
AcDbCircle
 62
2
  6
CONTINUOUS
 10
13.2934226783
 20
2.5349523356
 40
0.0024749995
100
AcDbArc
 50
269.9999571957
 51
0.0000428042
  0
LINE
  5
337
100
AcDbEntity
  8
0
100
AcDbLine
 62
2
  6
CONTINUOUS
 10
13.7286871589
 20
2.5350697372
 11
13.7286871589
 21
2.5456869438
  0
LINE
  5
338
100
AcDbEntity
  8
0
100
AcDbLine
 62
2
  6
CONTINUOUS
 10
13.7086871478
 20
2.5004302075
 11
13.7086871478
 21
2.5803264735
  0
LINE
  5
339
100
AcDbEntity
  8
0
100
AcDbLine
 62
2
  6
CONTINUOUS
 10
13.6886871368
 20
2.4843919416
 11
13.6886871368
 21
2.5963647394
  0
LINE
  5
33A
100
AcDbEntity
  8
0
100
AcDbLine
 62
2
  6
CONTINUOUS
 10
13.6686871257
 20
2.4726017898
 11
13.6686871257
 21
2.6081548911
  0
LINE
  5
33B
100
AcDbEntity
  8
0
100
AcDbLine
 62
2
  6
CONTINUOUS
 10
13.6486871146
 20
2.4628062688
 11
13.6486871146
 21
2.6179504122
  0
LINE
  5
33C
100
AcDbEntity
  8
0
100
AcDbLine
 62
2
  6
CONTINUOUS
 10
13.6286871035
 20
2.4541253507
 11
13.6286871035
 21
2.5062483056
  0
LINE
  5
33D
100
AcDbEntity
  8
0
100
AcDbLine
 62
2
  6
CONTINUOUS
 10
13.6286871035
 20
2.5301143348
 11
13.6286871035
 21
2.6266313303
  0
LINE
  5
33E
100
AcDbEntity
  8
0
100
AcDbLine
 62
2
  6
CONTINUOUS
 10
13.6086870924
 20
2.4465537903
 11
13.6086870924
 21
2.4918774918
  0
LINE
  5
33F
100
AcDbEntity
  8
0
100
AcDbLine
 62
2
  6
CONTINUOUS
 10
13.6086870924
 20
2.5165781173
 11
13.6086870924
 21
2.6342028907
  0
LINE
  5
340
100
AcDbEntity
  8
0
100
AcDbLine
 62
2
  6
CONTINUOUS
 10
13.5886870813
 20
2.4398033466
 11
13.5886870813
 21
2.4912273132
  0
LINE
  5
341
100
AcDbEntity
  8
0
100
AcDbLine
 62
2
  6
CONTINUOUS
 10
13.5886870813
 20
2.5391840845
 11
13.5886870813
 21
2.5454298327
  0
LINE
  5
342
100
AcDbEntity
  8
0
100
AcDbLine
 62
2
  6
CONTINUOUS
 10
13.5886870813
 20
2.5862063472
 11
13.5886870813
 21
2.6409533343
  0
LINE
  5
343
100
AcDbEntity
  8
0
100
AcDbLine
 62
2
  6
CONTINUOUS
 10
13.5686870702
 20
2.4334702189
 11
13.5686870702
 21
2.4912273132
  0
LINE
  5
344
100
AcDbEntity
  8
0
100
AcDbLine
 62
2
  6
CONTINUOUS
 10
13.5686870702
 20
2.5906587765
 11
13.5686870702
 21
2.647286462
  0
LINE
  5
345
100
AcDbEntity
  8
0
100
AcDbLine
 62
2
  6
CONTINUOUS
 10
13.5486870591
 20
2.4278968124
 11
13.5486870591
 21
2.4937461006
  0
LINE
  5
346
100
AcDbEntity
  8
0
100
AcDbLine
 62
2
  6
CONTINUOUS
 10
13.5486870591
 20
2.5920323691
 11
13.5486870591
 21
2.6528598686
  0
LINE
  5
347
100
AcDbEntity
  8
0
100
AcDbLine
 62
2
  6
CONTINUOUS
 10
13.528687048
 20
2.4225427674
 11
13.528687048
 21
2.5270426993
  0
LINE
  5
348
100
AcDbEntity
  8
0
100
AcDbLine
 62
2
  6
CONTINUOUS
 10
13.528687048
 20
2.5505166259
 11
13.528687048
 21
2.5668657091
  0
LINE
  5
349
100
AcDbEntity
  8
0
100
AcDbLine
 62
2
  6
CONTINUOUS
 10
13.528687048
 20
2.5920323691
 11
13.528687048
 21
2.6582139136
  0
LINE
  5
34A
100
AcDbEntity
  8
0
100
AcDbLine
 62
2
  6
CONTINUOUS
 10
13.5086870369
 20
2.4177306791
 11
13.5086870369
 21
2.4912273132
  0
LINE
  5
34B
100
AcDbEntity
  8
0
100
AcDbLine
 62
2
  6
CONTINUOUS
 10
13.5086870369
 20
2.5159553269
 11
13.5086870369
 21
2.5306043351
  0
LINE
  5
34C
100
AcDbEntity
  8
0
100
AcDbLine
 62
2
  6
CONTINUOUS
 10
13.5086870369
 20
2.5496073456
 11
13.5086870369
 21
2.5672823554
  0
LINE
  5
34D
100
AcDbEntity
  8
0
100
AcDbLine
 62
2
  6
CONTINUOUS
 10
13.5086870369
 20
2.5920323691
 11
13.5086870369
 21
2.6630260019
  0
LINE
  5
34E
100
AcDbEntity
  8
0
100
AcDbLine
 62
2
  6
CONTINUOUS
 10
13.4886870258
 20
2.4131795254
 11
13.4886870258
 21
2.4912273132
  0
LINE
  5
34F
100
AcDbEntity
  8
0
100
AcDbLine
 62
2
  6
CONTINUOUS
 10
13.4886870258
 20
2.5159553269
 11
13.4886870258
 21
2.5306043351
  0
LINE
  5
350
100
AcDbEntity
  8
0
100
AcDbLine
 62
2
  6
CONTINUOUS
 10
13.4886870258
 20
2.5496073456
 11
13.4886870258
 21
2.5672823554
  0
LINE
  5
351
100
AcDbEntity
  8
0
100
AcDbLine
 62
2
  6
CONTINUOUS
 10
13.4886870258
 20
2.5920323691
 11
13.4886870258
 21
2.6675771555
  0
LINE
  5
352
100
AcDbEntity
  8
0
100
AcDbLine
 62
2
  6
CONTINUOUS
 10
13.4686870147
 20
2.4088819672
 11
13.4686870147
 21
2.4912273132
  0
LINE
  5
353
100
AcDbEntity
  8
0
100
AcDbLine
 62
2
  6
CONTINUOUS
 10
13.4686870147
 20
2.5920323691
 11
13.4686870147
 21
2.6718747138
  0
LINE
  5
354
100
AcDbEntity
  8
0
100
AcDbLine
 62
2
  6
CONTINUOUS
 10
13.4486870037
 20
2.4050092072
 11
13.4486870037
 21
2.4912273132
  0
LINE
  5
355
100
AcDbEntity
  8
0
100
AcDbLine
 62
2
  6
CONTINUOUS
 10
13.4486870037
 20
2.5920323691
 11
13.4486870037
 21
2.6757474738
  0
LINE
  5
356
100
AcDbEntity
  8
0
100
AcDbLine
 62
2
  6
CONTINUOUS
 10
13.4286869926
 20
2.4011364471
 11
13.4286869926
 21
2.4912273132
  0
LINE
  5
357
100
AcDbEntity
  8
0
100
AcDbLine
 62
2
  6
CONTINUOUS
 10
13.4286869926
 20
2.5920323691
 11
13.4286869926
 21
2.6796202339
  0
LINE
  5
358
100
AcDbEntity
  8
0
100
AcDbLine
 62
2
  6
CONTINUOUS
 10
13.4086869815
 20
2.3980226662
 11
13.4086869815
 21
2.4912273132
  0
LINE
  5
359
100
AcDbEntity
  8
0
100
AcDbLine
 62
2
  6
CONTINUOUS
 10
13.4086869815
 20
2.515977327
 11
13.4086869815
 21
2.5672823554
  0
LINE
  5
35A
100
AcDbEntity
  8
0
100
AcDbLine
 62
2
  6
CONTINUOUS
 10
13.4086869815
 20
2.5920323691
 11
13.4086869815
 21
2.6827340148
  0
LINE
  5
35B
100
AcDbEntity
  8
0
100
AcDbLine
 62
2
  6
CONTINUOUS
 10
13.3886869704
 20
2.3950052774
 11
13.3886869704
 21
2.6857514036
  0
LINE
  5
35C
100
AcDbEntity
  8
0
100
AcDbLine
 62
2
  6
CONTINUOUS
 10
13.3686869593
 20
2.3919878885
 11
13.3686869593
 21
2.4912273132
  0
LINE
  5
35D
100
AcDbEntity
  8
0
100
AcDbLine
 62
2
  6
CONTINUOUS
 10
13.3686869593
 20
2.5291773343
 11
13.3686869593
 21
2.5540823481
  0
LINE
  5
35E
100
AcDbEntity
  8
0
100
AcDbLine
 62
2
  6
CONTINUOUS
 10
13.3686869593
 20
2.5920323691
 11
13.3686869593
 21
2.6887687924
  0
LINE
  5
35F
100
AcDbEntity
  8
0
100
AcDbLine
 62
2
  6
CONTINUOUS
 10
13.3486869482
 20
2.3889704997
 11
13.3486869482
 21
2.4912273132
  0
LINE
  5
360
100
AcDbEntity
  8
0
100
AcDbLine
 62
2
  6
CONTINUOUS
 10
13.3486869482
 20
2.5291773343
 11
13.3486869482
 21
2.5540823481
  0
LINE
  5
361
100
AcDbEntity
  8
0
100
AcDbLine
 62
2
  6
CONTINUOUS
 10
13.3486869482
 20
2.5920323691
 11
13.3486869482
 21
2.6917861813
  0
LINE
  5
362
100
AcDbEntity
  8
0
100
AcDbLine
 62
2
  6
CONTINUOUS
 10
13.3286869371
 20
2.3859531109
 11
13.3286869371
 21
2.4912273132
  0
LINE
  5
363
100
AcDbEntity
  8
0
100
AcDbLine
 62
2
  6
CONTINUOUS
 10
13.3286869371
 20
2.5291773343
 11
13.3286869371
 21
2.5540823481
  0
LINE
  5
364
100
AcDbEntity
  8
0
100
AcDbLine
 62
2
  6
CONTINUOUS
 10
13.3286869371
 20
2.5920323691
 11
13.3286869371
 21
2.6948035701
  0
LINE
  5
365
100
AcDbEntity
  8
0
100
AcDbLine
 62
2
  6
CONTINUOUS
 10
13.308686926
 20
2.3833355437
 11
13.308686926
 21
2.4912273132
  0
LINE
  5
366
100
AcDbEntity
  8
0
100
AcDbLine
 62
2
  6
CONTINUOUS
 10
13.308686926
 20
2.515977327
 11
13.308686926
 21
2.5672823554
  0
LINE
  5
367
100
AcDbEntity
  8
0
100
AcDbLine
 62
2
  6
CONTINUOUS
 10
13.308686926
 20
2.5920323691
 11
13.308686926
 21
2.6974211373
  0
LINE
  5
368
100
AcDbEntity
  8
0
100
AcDbLine
 62
2
  6
CONTINUOUS
 10
13.2886869149
 20
2.3812612684
 11
13.2886869149
 21
2.4912273132
  0
LINE
  5
369
100
AcDbEntity
  8
0
100
AcDbLine
 62
2
  6
CONTINUOUS
 10
13.2886869149
 20
2.515977327
 11
13.2886869149
 21
2.5324773361
  0
LINE
  5
36A
100
AcDbEntity
  8
0
100
AcDbLine
 62
2
  6
CONTINUOUS
 10
13.2886869149
 20
2.5507823463
 11
13.2886869149
 21
2.5672823554
  0
LINE
  5
36B
100
AcDbEntity
  8
0
100
AcDbLine
 62
2
  6
CONTINUOUS
 10
13.2886869149
 20
2.5920323691
 11
13.2886869149
 21
2.6994954125
  0
LINE
  5
36C
100
AcDbEntity
  8
0
100
AcDbLine
 62
2
  6
CONTINUOUS
 10
13.2686869038
 20
2.3791869932
 11
13.2686869038
 21
2.4912273132
  0
LINE
  5
36D
100
AcDbEntity
  8
0
100
AcDbLine
 62
2
  6
CONTINUOUS
 10
13.2686869038
 20
2.515977327
 11
13.2686869038
 21
2.5324773361
  0
LINE
  5
36E
100
AcDbEntity
  8
0
100
AcDbLine
 62
2
  6
CONTINUOUS
 10
13.2686869038
 20
2.5507823463
 11
13.2686869038
 21
2.5672823554
  0
LINE
  5
36F
100
AcDbEntity
  8
0
100
AcDbLine
 62
2
  6
CONTINUOUS
 10
13.2686869038
 20
2.5920323691
 11
13.2686869038
 21
2.7015696878
  0
LINE
  5
370
100
AcDbEntity
  8
0
100
AcDbLine
 62
2
  6
CONTINUOUS
 10
13.2486868927
 20
2.377112718
 11
13.2486868927
 21
2.4912273132
  0
LINE
  5
371
100
AcDbEntity
  8
0
100
AcDbLine
 62
2
  6
CONTINUOUS
 10
13.2486868927
 20
2.5920323691
 11
13.2486868927
 21
2.703643963
  0
LINE
  5
372
100
AcDbEntity
  8
0
100
AcDbLine
 62
2
  6
CONTINUOUS
 10
13.2286868817
 20
2.3750384428
 11
13.2286868817
 21
2.4912273132
  0
LINE
  5
373
100
AcDbEntity
  8
0
100
AcDbLine
 62
2
  6
CONTINUOUS
 10
13.2286868817
 20
2.5920323691
 11
13.2286868817
 21
2.7057182382
  0
LINE
  5
374
100
AcDbEntity
  8
0
100
AcDbLine
 62
2
  6
CONTINUOUS
 10
13.2086868706
 20
2.3729641676
 11
13.2086868706
 21
2.4912273132
  0
LINE
  5
375
100
AcDbEntity
  8
0
100
AcDbLine
 62
2
  6
CONTINUOUS
 10
13.2086868706
 20
2.5920323691
 11
13.2086868706
 21
2.7077925134
  0
LINE
  5
376
100
AcDbEntity
  8
0
100
AcDbLine
 62
2
  6
CONTINUOUS
 10
13.1886868595
 20
2.3712344456
 11
13.1886868595
 21
2.4912273132
  0
LINE
  5
377
100
AcDbEntity
  8
0
100
AcDbLine
 62
2
  6
CONTINUOUS
 10
13.1886868595
 20
2.515977327
 11
13.1886868595
 21
2.5672823554
  0
LINE
  5
378
100
AcDbEntity
  8
0
100
AcDbLine
 62
2
  6
CONTINUOUS
 10
13.1886868595
 20
2.5920323691
 11
13.1886868595
 21
2.7095222354
  0
LINE
  5
379
100
AcDbEntity
  8
0
100
AcDbLine
 62
2
  6
CONTINUOUS
 10
13.1686868484
 20
2.3699682418
 11
13.1686868484
 21
2.4912273132
  0
LINE
  5
37A
100
AcDbEntity
  8
0
100
AcDbLine
 62
2
  6
CONTINUOUS
 10
13.1686868484
 20
2.515977327
 11
13.1686868484
 21
2.5672823554
  0
LINE
  5
37B
100
AcDbEntity
  8
0
100
AcDbLine
 62
2
  6
CONTINUOUS
 10
13.1686868484
 20
2.5920323691
 11
13.1686868484
 21
2.7107884392
  0
LINE
  5
37C
100
AcDbEntity
  8
0
100
AcDbLine
 62
2
  6
CONTINUOUS
 10
13.1486868373
 20
2.3687020381
 11
13.1486868373
 21
2.7120546429
  0
LINE
  5
37D
100
AcDbEntity
  8
0
100
AcDbLine
 62
2
  6
CONTINUOUS
 10
13.1286868262
 20
2.3674358343
 11
13.1286868262
 21
2.5672823554
  0
LINE
  5
37E
100
AcDbEntity
  8
0
100
AcDbLine
 62
2
  6
CONTINUOUS
 10
13.1286868262
 20
2.5920323691
 11
13.1286868262
 21
2.7133208466
  0
LINE
  5
37F
100
AcDbEntity
  8
0
100
AcDbLine
 62
2
  6
CONTINUOUS
 10
13.1086868151
 20
2.3661696306
 11
13.1086868151
 21
2.4912273132
  0
LINE
  5
380
100
AcDbEntity
  8
0
100
AcDbLine
 62
2
  6
CONTINUOUS
 10
13.1086868151
 20
2.5920323691
 11
13.1086868151
 21
2.7145870504
  0
LINE
  5
381
100
AcDbEntity
  8
0
100
AcDbLine
 62
2
  6
CONTINUOUS
 10
13.088686804
 20
2.3649034269
 11
13.088686804
 21
2.4912273132
  0
LINE
  5
382
100
AcDbEntity
  8
0
100
AcDbLine
 62
2
  6
CONTINUOUS
 10
13.088686804
 20
2.5920323691
 11
13.088686804
 21
2.7158532541
  0
LINE
  5
383
100
AcDbEntity
  8
0
100
AcDbLine
 62
2
  6
CONTINUOUS
 10
13.0686867929
 20
2.3636739922
 11
13.0686867929
 21
2.4912273132
  0
LINE
  5
384
100
AcDbEntity
  8
0
100
AcDbLine
 62
2
  6
CONTINUOUS
 10
13.0686867929
 20
2.5475272398
 11
13.0686867929
 21
2.5672823554
  0
LINE
  5
385
100
AcDbEntity
  8
0
100
AcDbLine
 62
2
  6
CONTINUOUS
 10
13.0686867929
 20
2.5920323691
 11
13.0686867929
 21
2.7170826887
  0
LINE
  5
386
100
AcDbEntity
  8
0
100
AcDbLine
 62
2
  6
CONTINUOUS
 10
13.0486867818
 20
2.363143203
 11
13.0486867818
 21
2.4912273132
  0
LINE
  5
387
100
AcDbEntity
  8
0
100
AcDbLine
 62
2
  6
CONTINUOUS
 10
13.0486867818
 20
2.5666100882
 11
13.0486867818
 21
2.717613478
  0
LINE
  5
388
100
AcDbEntity
  8
0
100
AcDbLine
 62
2
  6
CONTINUOUS
 10
13.0286867707
 20
2.3626124138
 11
13.0286867707
 21
2.50359263
  0
LINE
  5
389
100
AcDbEntity
  8
0
100
AcDbLine
 62
2
  6
CONTINUOUS
 10
13.0286867707
 20
2.5856929366
 11
13.0286867707
 21
2.7181442672
  0
LINE
  5
38A
100
AcDbEntity
  8
0
100
AcDbLine
 62
2
  6
CONTINUOUS
 10
13.0086867596
 20
2.3620816246
 11
13.0086867596
 21
2.5226754472
  0
LINE
  5
38B
100
AcDbEntity
  8
0
100
AcDbLine
 62
2
  6
CONTINUOUS
 10
13.0086867596
 20
2.5920323691
 11
13.0086867596
 21
2.7186750564
  0
LINE
  5
38C
100
AcDbEntity
  8
0
100
AcDbLine
 62
2
  6
CONTINUOUS
 10
12.9886867486
 20
2.3615508354
 11
12.9886867486
 21
2.4912273132
  0
LINE
  5
38D
100
AcDbEntity
  8
0
100
AcDbLine
 62
2
  6
CONTINUOUS
 10
12.9886867486
 20
2.515977327
 11
12.9886867486
 21
2.5417582644
  0
LINE
  5
38E
100
AcDbEntity
  8
0
100
AcDbLine
 62
2
  6
CONTINUOUS
 10
12.9886867486
 20
2.5920323691
 11
12.9886867486
 21
2.7192058456
  0
LINE
  5
38F
100
AcDbEntity
  8
0
100
AcDbLine
 62
2
  6
CONTINUOUS
 10
12.9686867375
 20
2.3610200462
 11
12.9686867375
 21
2.4912273132
  0
LINE
  5
390
100
AcDbEntity
  8
0
100
AcDbLine
 62
2
  6
CONTINUOUS
 10
12.9686867375
 20
2.5920323691
 11
12.9686867375
 21
2.7197366348
  0
LINE
  5
391
100
AcDbEntity
  8
0
100
AcDbLine
 62
2
  6
CONTINUOUS
 10
12.9486867264
 20
2.360489257
 11
12.9486867264
 21
2.4912273132
  0
LINE
  5
392
100
AcDbEntity
  8
0
100
AcDbLine
 62
2
  6
CONTINUOUS
 10
12.9486867264
 20
2.5920323691
 11
12.9486867264
 21
2.720267424
  0
LINE
  5
393
100
AcDbEntity
  8
0
100
AcDbLine
 62
2
  6
CONTINUOUS
 10
12.9286867153
 20
2.3602836008
 11
12.9286867153
 21
2.4912273132
  0
LINE
  5
394
100
AcDbEntity
  8
0
100
AcDbLine
 62
2
  6
CONTINUOUS
 10
12.9286867153
 20
2.515977327
 11
12.9286867153
 21
2.5672823554
  0
LINE
  5
395
100
AcDbEntity
  8
0
100
AcDbLine
 62
2
  6
CONTINUOUS
 10
12.9286867153
 20
2.5920323691
 11
12.9286867153
 21
2.7204730802
  0
LINE
  5
396
100
AcDbEntity
  8
0
100
AcDbLine
 62
2
  6
CONTINUOUS
 10
12.9086867042
 20
2.3604597639
 11
12.9086867042
 21
2.7202969171
  0
LINE
  5
397
100
AcDbEntity
  8
0
100
AcDbLine
 62
2
  6
CONTINUOUS
 10
12.8886866931
 20
2.360635927
 11
12.8886866931
 21
2.5672823554
  0
LINE
  5
398
100
AcDbEntity
  8
0
100
AcDbLine
 62
2
  6
CONTINUOUS
 10
12.8886866931
 20
2.5920323691
 11
12.8886866931
 21
2.720120754
  0
LINE
  5
399
100
AcDbEntity
  8
0
100
AcDbLine
 62
2
  6
CONTINUOUS
 10
12.868686682
 20
2.3608120901
 11
12.868686682
 21
2.491232357
  0
LINE
  5
39A
100
AcDbEntity
  8
0
100
AcDbLine
 62
2
  6
CONTINUOUS
 10
12.868686682
 20
2.5920323691
 11
12.868686682
 21
2.7199445909
  0
LINE
  5
39B
100
AcDbEntity
  8
0
100
AcDbLine
 62
2
  6
CONTINUOUS
 10
12.8486866709
 20
2.3609882532
 11
12.8486866709
 21
2.4912273132
  0
LINE
  5
39C
100
AcDbEntity
  8
0
100
AcDbLine
 62
2
  6
CONTINUOUS
 10
12.8486866709
 20
2.5920323691
 11
12.8486866709
 21
2.7197684278
  0
LINE
  5
39D
100
AcDbEntity
  8
0
100
AcDbLine
 62
2
  6
CONTINUOUS
 10
12.8286866598
 20
2.3611644163
 11
12.8286866598
 21
2.4912273132
  0
LINE
  5
39E
100
AcDbEntity
  8
0
100
AcDbLine
 62
2
  6
CONTINUOUS
 10
12.8286866598
 20
2.5396527025
 11
12.8286866598
 21
2.5672823554
  0
LINE
  5
39F
100
AcDbEntity
  8
0
100
AcDbLine
 62
2
  6
CONTINUOUS
 10
12.8286866598
 20
2.5920323691
 11
12.8286866598
 21
2.7195922647
  0
LINE
  5
3A0
100
AcDbEntity
  8
0
100
AcDbLine
 62
2
  6
CONTINUOUS
 10
12.8086866487
 20
2.3613405794
 11
12.8086866487
 21
2.4912273132
  0
LINE
  5
3A1
100
AcDbEntity
  8
0
100
AcDbLine
 62
2
  6
CONTINUOUS
 10
12.8086866487
 20
2.5587355508
 11
12.8086866487
 21
2.7194161016
  0
LINE
  5
3A2
100
AcDbEntity
  8
0
100
AcDbLine
 62
2
  6
CONTINUOUS
 10
12.7886866376
 20
2.3621089572
 11
12.7886866376
 21
2.4957181055
  0
LINE
  5
3A3
100
AcDbEntity
  8
0
100
AcDbLine
 62
2
  6
CONTINUOUS
 10
12.7886866376
 20
2.5778183992
 11
12.7886866376
 21
2.7186477238
  0
LINE
  5
3A4
100
AcDbEntity
  8
0
100
AcDbLine
 62
2
  6
CONTINUOUS
 10
12.7686866266
 20
2.3630013935
 11
12.7686866266
 21
2.5148009227
  0
LINE
  5
3A5
100
AcDbEntity
  8
0
100
AcDbLine
 62
2
  6
CONTINUOUS
 10
12.7686866266
 20
2.5920323691
 11
12.7686866266
 21
2.7177552874
  0
LINE
  5
3A6
100
AcDbEntity
  8
0
100
AcDbLine
 62
2
  6
CONTINUOUS
 10
12.7486866155
 20
2.3638938299
 11
12.7486866155
 21
2.4913263218
  0
LINE
  5
3A7
100
AcDbEntity
  8
0
100
AcDbLine
 62
2
  6
CONTINUOUS
 10
12.7486866155
 20
2.5158783184
 11
12.7486866155
 21
2.5338837399
  0
LINE
  5
3A8
100
AcDbEntity
  8
0
100
AcDbLine
 62
2
  6
CONTINUOUS
 10
12.7486866155
 20
2.5920323691
 11
12.7486866155
 21
2.7168628511
  0
LINE
  5
3A9
100
AcDbEntity
  8
0
100
AcDbLine
 62
2
  6
CONTINUOUS
 10
12.7286866044
 20
2.3647862663
 11
12.7286866044
 21
2.4912273132
  0
LINE
  5
3AA
100
AcDbEntity
  8
0
100
AcDbLine
 62
2
  6
CONTINUOUS
 10
12.7286866044
 20
2.515977327
 11
12.7286866044
 21
2.5527601554
  0
LINE
  5
3AB
100
AcDbEntity
  8
0
100
AcDbLine
 62
2
  6
CONTINUOUS
 10
12.7286866044
 20
2.5920323691
 11
12.7286866044
 21
2.7159704147
  0
LINE
  5
3AC
100
AcDbEntity
  8
0
100
AcDbLine
 62
2
  6
CONTINUOUS
 10
12.7086865933
 20
2.3656787026
 11
12.7086865933
 21
2.4912273132
  0
LINE
  5
3AD
100
AcDbEntity
  8
0
100
AcDbLine
 62
2
  6
CONTINUOUS
 10
12.7086865933
 20
2.5920323691
 11
12.7086865933
 21
2.7150779784
  0
LINE
  5
3AE
100
AcDbEntity
  8
0
100
AcDbLine
 62
2
  6
CONTINUOUS
 10
12.6886865822
 20
2.366571139
 11
12.6886865822
 21
2.4912273132
  0
LINE
  5
3AF
100
AcDbEntity
  8
0
100
AcDbLine
 62
2
  6
CONTINUOUS
 10
12.6886865822
 20
2.515977327
 11
12.6886865822
 21
2.5672823554
  0
LINE
  5
3B0
100
AcDbEntity
  8
0
100
AcDbLine
 62
2
  6
CONTINUOUS
 10
12.6886865822
 20
2.5920323691
 11
12.6886865822
 21
2.714185542
  0
LINE
  5
3B1
100
AcDbEntity
  8
0
100
AcDbLine
 62
2
  6
CONTINUOUS
 10
12.6686865711
 20
2.3677104027
 11
12.6686865711
 21
2.7130462783
  0
LINE
  5
3B2
100
AcDbEntity
  8
0
100
AcDbLine
 62
2
  6
CONTINUOUS
 10
12.64868656
 20
2.3693682721
 11
12.64868656
 21
2.7113884089
  0
LINE
  5
3B3
100
AcDbEntity
  8
0
100
AcDbLine
 62
2
  6
CONTINUOUS
 10
12.6286865489
 20
2.3710261415
 11
12.6286865489
 21
2.4912273132
  0
LINE
  5
3B4
100
AcDbEntity
  8
0
100
AcDbLine
 62
2
  6
CONTINUOUS
 10
12.6286865489
 20
2.515977327
 11
12.6286865489
 21
2.7097305395
  0
LINE
  5
3B5
100
AcDbEntity
  8
0
100
AcDbLine
 62
2
  6
CONTINUOUS
 10
12.6086865378
 20
2.372684011
 11
12.6086865378
 21
2.4912273132
  0
LINE
  5
3B6
100
AcDbEntity
  8
0
100
AcDbLine
 62
2
  6
CONTINUOUS
 10
12.6086865378
 20
2.5351122279
 11
12.6086865378
 21
2.70807267
  0
LINE
  5
3B7
100
AcDbEntity
  8
0
100
AcDbLine
 62
2
  6
CONTINUOUS
 10
12.5886865267
 20
2.3743418804
 11
12.5886865267
 21
2.4912273132
  0
LINE
  5
3B8
100
AcDbEntity
  8
0
100
AcDbLine
 62
2
  6
CONTINUOUS
 10
12.5886865267
 20
2.5660172622
 11
12.5886865267
 21
2.7064148006
  0
LINE
  5
3B9
100
AcDbEntity
  8
0
100
AcDbLine
 62
2
  6
CONTINUOUS
 10
12.5686865156
 20
2.3759997498
 11
12.5686865156
 21
2.4912273132
  0
LINE
  5
3BA
100
AcDbEntity
  8
0
100
AcDbLine
 62
2
  6
CONTINUOUS
 10
12.5686865156
 20
2.5920323691
 11
12.5686865156
 21
2.7047569312
  0
LINE
  5
3BB
100
AcDbEntity
  8
0
100
AcDbLine
 62
2
  6
CONTINUOUS
 10
12.5486865045
 20
2.3777575277
 11
12.5486865045
 21
2.4912273132
  0
LINE
  5
3BC
100
AcDbEntity
  8
0
100
AcDbLine
 62
2
  6
CONTINUOUS
 10
12.5486865045
 20
2.515977327
 11
12.5486865045
 21
2.5275118824
  0
LINE
  5
3BD
100
AcDbEntity
  8
0
100
AcDbLine
 62
2
  6
CONTINUOUS
 10
12.5486865045
 20
2.5920323691
 11
12.5486865045
 21
2.7029991533
  0
LINE
  5
3BE
100
AcDbEntity
  8
0
100
AcDbLine
 62
2
  6
CONTINUOUS
 10
12.5286864935
 20
2.3802813811
 11
12.5286864935
 21
2.5296213345
  0
LINE
  5
3BF
100
AcDbEntity
  8
0
100
AcDbLine
 62
2
  6
CONTINUOUS
 10
12.5286864935
 20
2.5505713461
 11
12.5286864935
 21
2.5667383551
  0
LINE
  5
3C0
100
AcDbEntity
  8
0
100
AcDbLine
 62
2
  6
CONTINUOUS
 10
12.5286864935
 20
2.5920323691
 11
12.5286864935
 21
2.7004752999
  0
LINE
  5
3C1
100
AcDbEntity
  8
0
100
AcDbLine
 62
2
  6
CONTINUOUS
 10
12.5086864824
 20
2.3828052346
 11
12.5086864824
 21
2.4912273132
  0
LINE
  5
3C2
100
AcDbEntity
  8
0
100
AcDbLine
 62
2
  6
CONTINUOUS
 10
12.5086864824
 20
2.515977327
 11
12.5086864824
 21
2.5279667721
  0
LINE
  5
3C3
100
AcDbEntity
  8
0
100
AcDbLine
 62
2
  6
CONTINUOUS
 10
12.5086864824
 20
2.5868602074
 11
12.5086864824
 21
2.6979514464
  0
LINE
  5
3C4
100
AcDbEntity
  8
0
100
AcDbLine
 62
2
  6
CONTINUOUS
 10
12.4886864713
 20
2.385329088
 11
12.4886864713
 21
2.4912273132
  0
LINE
  5
3C5
100
AcDbEntity
  8
0
100
AcDbLine
 62
2
  6
CONTINUOUS
 10
12.4886864713
 20
2.5553401045
 11
12.4886864713
 21
2.695427593
  0
LINE
  5
3C6
100
AcDbEntity
  8
0
100
AcDbLine
 62
2
  6
CONTINUOUS
 10
12.4686864602
 20
2.3878529415
 11
12.4686864602
 21
2.4912273132
  0
LINE
  5
3C7
100
AcDbEntity
  8
0
100
AcDbLine
 62
2
  6
CONTINUOUS
 10
12.4686864602
 20
2.5238200015
 11
12.4686864602
 21
2.6929037395
  0
LINE
  5
3C8
100
AcDbEntity
  8
0
100
AcDbLine
 62
2
  6
CONTINUOUS
 10
12.4486864491
 20
2.390376795
 11
12.4486864491
 21
2.4912273132
  0
LINE
  5
3C9
100
AcDbEntity
  8
0
100
AcDbLine
 62
2
  6
CONTINUOUS
 10
12.4486864491
 20
2.515977327
 11
12.4486864491
 21
2.690379886
  0
LINE
  5
3CA
100
AcDbEntity
  8
0
100
AcDbLine
 62
2
  6
CONTINUOUS
 10
12.428686438
 20
2.3931794042
 11
12.428686438
 21
2.6875772768
  0
LINE
  5
3CB
100
AcDbEntity
  8
0
100
AcDbLine
 62
2
  6
CONTINUOUS
 10
12.4086864269
 20
2.3964643301
 11
12.4086864269
 21
2.5013773986
  0
LINE
  5
3CC
100
AcDbEntity
  8
0
100
AcDbLine
 62
2
  6
CONTINUOUS
 10
12.4086864269
 20
2.5325739971
 11
12.4086864269
 21
2.5537224311
  0
LINE
  5
3CD
100
AcDbEntity
  8
0
100
AcDbLine
 62
2
  6
CONTINUOUS
 10
12.4086864269
 20
2.5791473398
 11
12.4086864269
 21
2.6842923509
  0
LINE
  5
3CE
100
AcDbEntity
  8
0
100
AcDbLine
 62
2
  6
CONTINUOUS
 10
12.3886864158
 20
2.399749256
 11
12.3886864158
 21
2.4921022658
  0
LINE
  5
3CF
100
AcDbEntity
  8
0
100
AcDbLine
 62
2
  6
CONTINUOUS
 10
12.3886864158
 20
2.5895929958
 11
12.3886864158
 21
2.681007425
  0
LINE
  5
3D0
100
AcDbEntity
  8
0
100
AcDbLine
 62
2
  6
CONTINUOUS
 10
12.3686864047
 20
2.403451877
 11
12.3686864047
 21
2.4912273132
  0
LINE
  5
3D1
100
AcDbEntity
  8
0
100
AcDbLine
 62
2
  6
CONTINUOUS
 10
12.3686864047
 20
2.5920323691
 11
12.3686864047
 21
2.677304804
  0
LINE
  5
3D2
100
AcDbEntity
  8
0
100
AcDbLine
 62
2
  6
CONTINUOUS
 10
12.3486863936
 20
2.407324637
 11
12.3486863936
 21
2.4912273132
  0
LINE
  5
3D3
100
AcDbEntity
  8
0
100
AcDbLine
 62
2
  6
CONTINUOUS
 10
12.3486863936
 20
2.5920323691
 11
12.3486863936
 21
2.673432044
  0
LINE
  5
3D4
100
AcDbEntity
  8
0
100
AcDbLine
 62
2
  6
CONTINUOUS
 10
12.3286863825
 20
2.4113493968
 11
12.3286863825
 21
2.4912273132
  0
LINE
  5
3D5
100
AcDbEntity
  8
0
100
AcDbLine
 62
2
  6
CONTINUOUS
 10
12.3286863825
 20
2.515977327
 11
12.3286863825
 21
2.5333023366
  0
LINE
  5
3D6
100
AcDbEntity
  8
0
100
AcDbLine
 62
2
  6
CONTINUOUS
 10
12.3286863825
 20
2.5499573458
 11
12.3286863825
 21
2.5672823554
  0
LINE
  5
3D7
100
AcDbEntity
  8
0
100
AcDbLine
 62
2
  6
CONTINUOUS
 10
12.3286863825
 20
2.5920323691
 11
12.3286863825
 21
2.6694072842
  0
LINE
  5
3D8
100
AcDbEntity
  8
0
100
AcDbLine
 62
2
  6
CONTINUOUS
 10
12.3086863715
 20
2.4159005505
 11
12.3086863715
 21
2.4912273132
  0
LINE
  5
3D9
100
AcDbEntity
  8
0
100
AcDbLine
 62
2
  6
CONTINUOUS
 10
12.3086863715
 20
2.515977327
 11
12.3086863715
 21
2.5333023366
  0
LINE
  5
3DA
100
AcDbEntity
  8
0
100
AcDbLine
 62
2
  6
CONTINUOUS
 10
12.3086863715
 20
2.5499573458
 11
12.3086863715
 21
2.5672823554
  0
LINE
  5
3DB
100
AcDbEntity
  8
0
100
AcDbLine
 62
2
  6
CONTINUOUS
 10
12.3086863715
 20
2.5920323691
 11
12.3086863715
 21
2.6648561305
  0
LINE
  5
3DC
100
AcDbEntity
  8
0
100
AcDbLine
 62
2
  6
CONTINUOUS
 10
12.2886863604
 20
2.4204517041
 11
12.2886863604
 21
2.4912273132
  0
LINE
  5
3DD
100
AcDbEntity
  8
0
100
AcDbLine
 62
2
  6
CONTINUOUS
 10
12.2886863604
 20
2.5920323691
 11
12.2886863604
 21
2.6603049769
  0
LINE
  5
3DE
100
AcDbEntity
  8
0
100
AcDbLine
 62
2
  6
CONTINUOUS
 10
12.2686863493
 20
2.4257438218
 11
12.2686863493
 21
2.4912273132
  0
LINE
  5
3DF
100
AcDbEntity
  8
0
100
AcDbLine
 62
2
  6
CONTINUOUS
 10
12.2686863493
 20
2.5920323691
 11
12.2686863493
 21
2.6550128592
  0
LINE
  5
3E0
100
AcDbEntity
  8
0
100
AcDbLine
 62
2
  6
CONTINUOUS
 10
12.2486863382
 20
2.4310978667
 11
12.2486863382
 21
2.4912273132
  0
LINE
  5
3E1
100
AcDbEntity
  8
0
100
AcDbLine
 62
2
  6
CONTINUOUS
 10
12.2486863382
 20
2.5920323691
 11
12.2486863382
 21
2.6496588142
  0
LINE
  5
3E2
100
AcDbEntity
  8
0
100
AcDbLine
 62
2
  6
CONTINUOUS
 10
12.2286863271
 20
2.4372566433
 11
12.2286863271
 21
2.4912273132
  0
LINE
  5
3E3
100
AcDbEntity
  8
0
100
AcDbLine
 62
2
  6
CONTINUOUS
 10
12.2286863271
 20
2.515977327
 11
12.2286863271
 21
2.5672823554
  0
LINE
  5
3E4
100
AcDbEntity
  8
0
100
AcDbLine
 62
2
  6
CONTINUOUS
 10
12.2286863271
 20
2.5920323691
 11
12.2286863271
 21
2.6435000377
  0
LINE
  5
3E5
100
AcDbEntity
  8
0
100
AcDbLine
 62
2
  6
CONTINUOUS
 10
12.208686316
 20
2.443589771
 11
12.208686316
 21
2.4912273132
  0
LINE
  5
3E6
100
AcDbEntity
  8
0
100
AcDbLine
 62
2
  6
CONTINUOUS
 10
12.208686316
 20
2.515977327
 11
12.208686316
 21
2.5672823554
  0
LINE
  5
3E7
100
AcDbEntity
  8
0
100
AcDbLine
 62
2
  6
CONTINUOUS
 10
12.208686316
 20
2.5920323691
 11
12.208686316
 21
2.63716691
  0
LINE
  5
3E8
100
AcDbEntity
  8
0
100
AcDbLine
 62
2
  6
CONTINUOUS
 10
12.1886863049
 20
2.4510806436
 11
12.1886863049
 21
2.6296760373
  0
LINE
  5
3E9
100
AcDbEntity
  8
0
100
AcDbLine
 62
2
  6
CONTINUOUS
 10
12.1686862938
 20
2.4591016523
 11
12.1686862938
 21
2.6216550287
  0
LINE
  5
3EA
100
AcDbEntity
  8
0
100
AcDbLine
 62
2
  6
CONTINUOUS
 10
12.1486862827
 20
2.468314272
 11
12.1486862827
 21
2.612442409
  0
LINE
  5
3EB
100
AcDbEntity
  8
0
100
AcDbLine
 62
2
  6
CONTINUOUS
 10
12.1286862716
 20
2.4794932339
 11
12.1286862716
 21
2.601263447
  0
LINE
  5
3EC
100
AcDbEntity
  8
0
100
AcDbLine
 62
2
  6
CONTINUOUS
 10
12.1086862605
 20
2.4934150665
 11
12.1086862605
 21
2.5873416144
  0
LINE
  5
3ED
100
AcDbEntity
  8
0
100
AcDbLine
 62
2
  6
CONTINUOUS
 10
12.0886862494
 20
2.5144449553
 11
12.0886862494
 21
2.5663117257
  0
ENDBLK
  5
3EE
100
AcDbEntity
  8
0
  6
BYBLOCK
 62
0
100
AcDbBlockEnd
  0
BLOCK
  5
3EF
100
AcDbEntity
  8
0
100
AcDbBlockBegin
  2
_FILLED
 70
64
 10
0.0
 20
0.0
  3
_FILLED
  1

  0
SOLID
  5
3F0
100
AcDbEntity
  8
0
  6
BYBLOCK
 62
0
100
AcDbTrace
 10
0.0
 20
0.0
 11
-1.0
 21
0.1666666667
 12
-1.0
 22
-0.1666666667
 13
-1.0
 23
-0.1666666667
  0
ENDBLK
  5
3F1
100
AcDbEntity
  8
0
  6
BYBLOCK
 62
0
100
AcDbBlockEnd
  0
BLOCK
  5
3F2
100
AcDbEntity
  8
SCHEME_DIMS
100
AcDbBlockBegin
 62
2
  6
CONTINUOUS
  2
*D0
 70
65
 10
0.0
 20
0.0
  3
*D0
  1

  0
MTEXT
  5
3F3
100
AcDbEntity
  8
SCHEME_DIMS
100
AcDbMText
 62
2
  6
CONTINUOUS
  7
TEXTSTYLE_5
 71
1
 72
1
 10
6.0164007197
 20
6.889399153
 30
0.0
 11
1.0
 21
0.0
 31
0.0
 44
0.9
  1
{\Fgdt;n}\Ftxt;50\P[1.95]
 40
0.1
 41
0.6
  0
LINE
  5
3F4
100
AcDbEntity
  8
SCHEME_DIMS
100
AcDbLine
 62
2
  6
CONTINUOUS
 10
5.3698755467
 20
7.1508687654
 11
5.7664007197
 21
6.839399153
  0
LINE
  5
3F5
100
AcDbEntity
  8
SCHEME_DIMS
100
AcDbLine
 62
2
  6
CONTINUOUS
 10
5.7664007197
 20
6.839399153
 11
5.9164007197
 21
6.839399153
  0
INSERT
  5
3F6
100
AcDbEntity
  8
SCHEME_DIMS
100
AcDbBlockReference
 62
2
  6
CONTINUOUS
  2
_FILLED
 10
5.3698755467
 20
7.1508687654
 41
0.1875
 42
0.1875
 43
0.1875
 50
141.8504468386
  0
ENDBLK
  5
3F7
100
AcDbEntity
  8
0
  6
BYBLOCK
 62
0
100
AcDbBlockEnd
  0
BLOCK
  5
3F8
100
AcDbEntity
  8
SCHEME_DIMS
100
AcDbBlockBegin
 62
2
  6
CONTINUOUS
  2
*D1
 70
65
 10
0.0
 20
0.0
  3
*D1
  1

  0
MTEXT
  5
3F9
100
AcDbEntity
  8
SCHEME_DIMS
100
AcDbMText
 62
2
  6
CONTINUOUS
  7
STANDARD
 71
2
 72
1
 10
2.440375315
 20
4.3163393625
 30
0.0
 11
1.0
 21
0.0
 31
0.0
 44
0.9
  1
36,5\P[1.44]
 40
0.1
 41
0.6
  0
LINE
  5
3FA
100
AcDbEntity
  8
SCHEME_DIMS
100
AcDbLine
 62
2
  6
CONTINUOUS
 10
4.0130792222
 20
3.4728354254
 11
2.415375315
 21
3.4728354254
  0
LINE
  5
3FB
100
AcDbEntity
  8
SCHEME_DIMS
100
AcDbLine
 62
2
  6
CONTINUOUS
 10
3.6257445788
 20
4.9098432995
 11
2.415375315
 21
4.9098432995
  0
LINE
  5
3FC
100
AcDbEntity
  8
SCHEME_DIMS
100
AcDbLine
 62
2
  6
CONTINUOUS
 10
2.540375315
 20
3.4728354254
 11
2.540375315
 21
3.9663393625
  0
LINE
  5
3FD
100
AcDbEntity
  8
SCHEME_DIMS
100
AcDbLine
 62
2
  6
CONTINUOUS
 10
2.540375315
 20
4.9098432995
 11
2.540375315
 21
4.4163393625
  0
INSERT
  5
3FE
100
AcDbEntity
  8
SCHEME_DIMS
100
AcDbBlockReference
 62
2
  6
CONTINUOUS
  2
_FILLED
 10
2.540375315
 20
3.4728354254
 41
0.1875
 42
0.1875
 43
0.1875
 50
270.0
  0
INSERT
  5
3FF
100
AcDbEntity
  8
SCHEME_DIMS
100
AcDbBlockReference
 62
2
  6
CONTINUOUS
  2
_FILLED
 10
2.540375315
 20
4.9098432995
 41
0.1875
 42
0.1875
 43
0.1875
 50
90.0
  0
ENDBLK
  5
400
100
AcDbEntity
  8
0
  6
BYBLOCK
 62
0
100
AcDbBlockEnd
  0
BLOCK
  5
401
100
AcDbEntity
  8
SCHEME_DIMS
100
AcDbBlockBegin
 62
2
  6
CONTINUOUS
  2
*D2
 70
65
 10
0.0
 20
0.0
  3
*D2
  1

  0
MTEXT
  5
402
100
AcDbEntity
  8
SCHEME_DIMS
100
AcDbMText
 62
2
  6
CONTINUOUS
  7
STANDARD
 71
2
 72
1
 10
1.7551684609
 20
4.0955545204
 30
0.0
 11
1.0
 21
0.0
 31
0.0
 44
0.9
  1
47,5\P[1.87]
 40
0.1
 41
0.6
  0
LINE
  5
403
100
AcDbEntity
  8
SCHEME_DIMS
100
AcDbLine
 62
2
  6
CONTINUOUS
 10
4.3373587517
 20
3.0397645593
 11
1.7301684609
 21
3.0397645593
  0
LINE
  5
404
100
AcDbEntity
  8
SCHEME_DIMS
100
AcDbLine
 62
2
  6
CONTINUOUS
 10
3.6257445788
 20
4.9098432995
 11
1.7301684609
 21
4.9098432995
  0
LINE
  5
405
100
AcDbEntity
  8
SCHEME_DIMS
100
AcDbLine
 62
2
  6
CONTINUOUS
 10
1.8551684609
 20
3.0397645593
 11
1.8551684609
 21
3.7455545204
  0
LINE
  5
406
100
AcDbEntity
  8
SCHEME_DIMS
100
AcDbLine
 62
2
  6
CONTINUOUS
 10
1.8551684609
 20
4.9098432995
 11
1.8551684609
 21
4.1955545204
  0
INSERT
  5
407
100
AcDbEntity
  8
SCHEME_DIMS
100
AcDbBlockReference
 62
2
  6
CONTINUOUS
  2
_FILLED
 10
1.8551684609
 20
3.0397645593
 41
0.1875
 42
0.1875
 43
0.1875
 50
270.0
  0
INSERT
  5
408
100
AcDbEntity
  8
SCHEME_DIMS
100
AcDbBlockReference
 62
2
  6
CONTINUOUS
  2
_FILLED
 10
1.8551684609
 20
4.9098432995
 41
0.1875
 42
0.1875
 43
0.1875
 50
90.0
  0
ENDBLK
  5
409
100
AcDbEntity
  8
0
  6
BYBLOCK
 62
0
100
AcDbBlockEnd
  0
BLOCK
  5
40A
100
AcDbEntity
  8
SCHEME_DIMS
100
AcDbBlockBegin
 62
2
  6
CONTINUOUS
  2
*D3
 70
65
 10
0.0
 20
0.0
  3
*D3
  1

  0
MTEXT
  5
40B
100
AcDbEntity
  8
SCHEME_DIMS
100
AcDbMText
 62
2
  6
CONTINUOUS
  7
TEXTSTYLE_5
 71
3
 72
1
 10
3.218993048
 20
8.6888785899
 30
0.0
 11
1.0
 21
0.0
 31
0.0
 44
0.9
  1
{\Fgdt;n}\Ftxt;10,3\P[.41]
 40
0.1
 41
0.5333333333
  0
LINE
  5
40C
100
AcDbEntity
  8
SCHEME_DIMS
100
AcDbLine
 62
2
  6
CONTINUOUS
 10
4.4496034034
 20
7.8846687041
 11
3.568993048
 21
8.6388785899
  0
LINE
  5
40D
100
AcDbEntity
  8
SCHEME_DIMS
100
AcDbLine
 62
2
  6
CONTINUOUS
 10
3.568993048
 20
8.6388785899
 11
3.418993048
 21
8.6388785899
  0
INSERT
  5
40E
100
AcDbEntity
  8
SCHEME_DIMS
100
AcDbBlockReference
 62
2
  6
CONTINUOUS
  2
_FILLED
 10
4.4496034034
 20
7.8846687041
 41
0.1875
 42
0.1875
 43
0.1875
 50
319.4211794265
  0
ENDBLK
  5
40F
100
AcDbEntity
  8
0
  6
BYBLOCK
 62
0
100
AcDbBlockEnd
  0
BLOCK
  5
410
100
AcDbEntity
  8
SCHEME_DIMS
100
AcDbBlockBegin
 62
2
  6
CONTINUOUS
  2
*D4
 70
65
 10
0.0
 20
0.0
  3
*D4
  1

  0
MTEXT
  5
411
100
AcDbEntity
  8
SCHEME_DIMS
100
AcDbMText
 62
2
  6
CONTINUOUS
  7
STANDARD
 71
2
 72
1
 10
3.0693469451
 20
4.7100401499
 30
0.0
 11
1.0
 21
0.0
 31
0.0
 44
0.9
  1
16,5\P[.65]
 40
0.1
 41
0.5
  0
LINE
  5
412
100
AcDbEntity
  8
SCHEME_DIMS
100
AcDbLine
 62
2
  6
CONTINUOUS
 10
3.5962170287
 20
4.2602370002
 11
2.9943469451
 21
4.2602370002
  0
LINE
  5
413
100
AcDbEntity
  8
SCHEME_DIMS
100
AcDbLine
 62
2
  6
CONTINUOUS
 10
3.6257445788
 20
4.9098432995
 11
2.9943469451
 21
4.9098432995
  0
LINE
  5
414
100
AcDbEntity
  8
SCHEME_DIMS
100
AcDbLine
 62
2
  6
CONTINUOUS
 10
3.1193469451
 20
4.2602370002
 11
3.1193469451
 21
3.8602370002
  0
LINE
  5
415
100
AcDbEntity
  8
SCHEME_DIMS
100
AcDbLine
 62
2
  6
CONTINUOUS
 10
3.1193469451
 20
4.9098432995
 11
3.1193469451
 21
5.3098432995
  0
INSERT
  5
416
100
AcDbEntity
  8
SCHEME_DIMS
100
AcDbBlockReference
 62
2
  6
CONTINUOUS
  2
_FILLED
 10
3.1193469451
 20
4.2602370002
 41
0.1875
 42
0.1875
 43
0.1875
 50
90.0
  0
INSERT
  5
417
100
AcDbEntity
  8
SCHEME_DIMS
100
AcDbBlockReference
 62
2
  6
CONTINUOUS
  2
_FILLED
 10
3.1193469451
 20
4.9098432995
 41
0.1875
 42
0.1875
 43
0.1875
 50
270.0
  0
ENDBLK
  5
418
100
AcDbEntity
  8
0
  6
BYBLOCK
 62
0
100
AcDbBlockEnd
  0
ENDSEC
  0
SECTION
  2
ENTITIES
  0
MTEXT
  5
419
100
AcDbEntity
  8
0
100
AcDbMText
 62
2
  6
CONTINUOUS
  7
TEXTSTYLE_2
 71
2
 72
1
 10
11.0287658475
 20
1.794867839
 30
0.0
 11
1.0
 21
0.0
 31
0.0
 44
0.9
  1
THIRD ANGLE PROJECTION
 40
0.1
 41
1.76
  0
MTEXT
  5
41A
100
AcDbEntity
  8
0
100
AcDbMText
 62
2
  6
CONTINUOUS
  7
STANDARD
 71
1
 72
1
 10
12.88
 20
1.457
 30
0.0
 11
1.0
 21
0.0
 31
0.0
 44
0.9
  1
DRAWING NO.
 40
0.08
 41
0.88
  0
MTEXT
  5
41B
100
AcDbEntity
  8
0
100
AcDbMText
 62
2
  6
CONTINUOUS
  7
TEXTSTYLE_3
 71
2
 72
1
 10
11.03
 20
2.516432
 30
0.0
 11
1.0
 21
0.0
 31
0.0
 44
0.9
  1
and is proprietary in general
 40
0.08
 41
1.972
  0
MTEXT
  5
41C
100
AcDbEntity
  8
0
100
AcDbMText
 62
2
  6
CONTINUOUS
  7
TEXTSTYLE_3
 71
2
 72
1
 10
11.03
 20
2.396432
 30
0.0
 11
1.0
 21
0.0
 31
0.0
 44
0.9
  1
and in detail.  Its contents
 40
0.08
 41
1.904
  0
MTEXT
  5
41D
100
AcDbEntity
  8
0
100
AcDbMText
 62
2
  6
CONTINUOUS
  7
TEXTSTYLE_3
 71
2
 72
1
 10
11.03
 20
2.276432
 30
0.0
 11
1.0
 21
0.0
 31
0.0
 44
0.9
  1
shall not be revealed to
 40
0.08
 41
1.632
  0
MTEXT
  5
41E
100
AcDbEntity
  8
0
100
AcDbMText
 62
2
  6
CONTINUOUS
  7
TEXTSTYLE_3
 71
2
 72
1
 10
11.03
 20
2.156432
 30
0.0
 11
1.0
 21
0.0
 31
0.0
 44
0.9
  1
outside parties without
 40
0.08
 41
1.564
  0
MTEXT
  5
41F
100
AcDbEntity
  8
0
100
AcDbMText
 62
2
  6
CONTINUOUS
  7
TEXTSTYLE_3
 71
2
 72
1
 10
11.03
 20
2.036432
 30
0.0
 11
1.0
 21
0.0
 31
0.0
 44
0.9
  1
written consent of BANNER.
 40
0.08
 41
1.768
  0
MTEXT
  5
420
100
AcDbEntity
  8
0
100
AcDbMText
 62
2
  6
CONTINUOUS
  7
TEXTSTYLE_2
 71
1
 72
1
 10
12.08
 20
2.217
 30
0.0
 11
1.0
 21
0.0
 31
0.0
 44
0.9
  1
TITLE
 40
0.1
 41
0.4
  0
MTEXT
  5
421
100
AcDbEntity
  8
0
100
AcDbMText
 62
2
  6
CONTINUOUS
  7
STANDARD
 71
1
 72
1
 10
12.08
 20
1.457
 30
0.0
 11
1.0
 21
0.0
 31
0.0
 44
0.9
  1
SIZE
 40
0.08
 41
0.32
  0
MTEXT
  5
422
100
AcDbEntity
  8
0
100
AcDbMText
 62
2
  6
CONTINUOUS
  7
STANDARD
 71
1
 72
1
 10
12.08
 20
1.087
 30
0.0
 11
1.0
 21
0.0
 31
0.0
 44
0.9
  1
SCALE
 40
0.08
 41
0.4
  0
MTEXT
  5
423
100
AcDbEntity
  8
0
100
AcDbMText
 62
2
  6
CONTINUOUS
  7
TEXTSTYLE_2
 71
2
 72
1
 10
12.5
 20
1.337
 30
0.0
 11
1.0
 21
0.0
 31
0.0
 44
0.9
  1
B
 40
0.1
 41
0.08
  0
MTEXT
  5
424
100
AcDbEntity
  8
0
100
AcDbMText
 62
2
  6
CONTINUOUS
  7
TEXTSTYLE_3
 71
2
 72
1
 10
11.03
 20
2.636432
 30
0.0
 11
1.0
 21
0.0
 31
0.0
 44
0.9
  1
of BANNER ENGINEERING CORP.
 40
0.08
 41
1.836
  0
MTEXT
  5
425
100
AcDbEntity
  8
0
100
AcDbMText
 62
2
  6
CONTINUOUS
  7
TEXTSTYLE_3
 71
2
 72
1
 10
11.03
 20
2.756432
 30
0.0
 11
1.0
 21
0.0
 31
0.0
 44
0.9
  1
This drawing is the property
 40
0.08
 41
1.904
  0
MTEXT
  5
426
100
AcDbEntity
  8
0
100
AcDbMText
 62
2
  6
CONTINUOUS
  7
TEXTSTYLE_2
 71
2
 72
1
 10
15.03
 20
2.4134
 30
0.0
 11
1.0
 21
0.0
 31
0.0
 44
0.9
  1
MINNEAPOLIS, MN 55440
 40
0.1
 41
1.68
  0
MTEXT
  5
427
100
AcDbEntity
  8
0
100
AcDbMText
 62
2
  6
CONTINUOUS
  7
STANDARD
 71
1
 72
1
 10
14.255
 20
1.087
 30
0.0
 11
1.0
 21
0.0
 31
0.0
 44
0.9
  1
SHEET
 40
0.08
 41
0.4
  0
MTEXT
  5
428
100
AcDbEntity
  8
0
100
AcDbMText
 62
2
  6
CONTINUOUS
  7
STANDARD
 71
1
 72
1
 10
15.63
 20
1.457
 30
0.0
 11
1.0
 21
0.0
 31
0.0
 44
0.9
  1
REV.
 40
0.08
 41
0.32
  0
MTEXT
  5
429
100
AcDbEntity
  8
0
100
AcDbMText
 62
2
  6
CONTINUOUS
  7
STANDARD
 71
3
 72
1
 10
16.38
 20
0.835443
 30
0.0
 11
1.0
 21
0.0
 31
0.0
 44
0.9
  1
PRO/E
 40
0.07
 41
0.35
  0
MTEXT
  5
42A
100
AcDbEntity
  8
0
100
AcDbMText
 62
2
  6
CONTINUOUS
  7
TEXTSTYLE_4
 71
2
 72
1
 10
15.03
 20
2.751049
 30
0.0
 11
1.0
 21
0.0
 31
0.0
 44
0.9
  1
BANNER ENGINEERING CORP.
 40
0.12
 41
2.6496
  0
MTEXT
  5
42B
100
AcDbEntity
  8
0
100
AcDbMText
 62
2
  6
CONTINUOUS
  7
TEXTSTYLE_2
 71
2
 72
1
 10
15.03
 20
2.5724
 30
0.0
 11
1.0
 21
0.0
 31
0.0
 44
0.9
  1
P.O. BOX 9414
 40
0.1
 41
1.04
  0
MTEXT
  5
42C
100
AcDbEntity
  8
0
100
AcDbMText
 62
2
  6
CONTINUOUS
  7
TEXTSTYLE_2
 71
2
 72
1
 10
9.485
 20
10.312
 30
0.0
 11
1.0
 21
0.0
 31
0.0
 44
0.9
  1
4
 40
0.1
 41
0.08
  0
MTEXT
  5
42D
100
AcDbEntity
  8
0
100
AcDbMText
 62
2
  6
CONTINUOUS
  7
TEXTSTYLE_2
 71
2
 72
1
 10
11.455
 20
10.312
 30
0.0
 11
1.0
 21
0.0
 31
0.0
 44
0.9
  1
3
 40
0.1
 41
0.08
  0
MTEXT
  5
42E
100
AcDbEntity
  8
0
100
AcDbMText
 62
2
  6
CONTINUOUS
  7
TEXTSTYLE_2
 71
2
 72
1
 10
13.425
 20
10.312
 30
0.0
 11
1.0
 21
0.0
 31
0.0
 44
0.9
  1
2
 40
0.1
 41
0.08
  0
MTEXT
  5
42F
100
AcDbEntity
  8
0
100
AcDbMText
 62
2
  6
CONTINUOUS
  7
TEXTSTYLE_2
 71
2
 72
1
 10
15.395
 20
10.312
 30
0.0
 11
1.0
 21
0.0
 31
0.0
 44
0.9
  1
1
 40
0.1
 41
0.08
  0
MTEXT
  5
430
100
AcDbEntity
  8
0
100
AcDbMText
 62
2
  6
CONTINUOUS
  7
TEXTSTYLE_2
 71
2
 72
1
 10
3.575
 20
10.312
 30
0.0
 11
1.0
 21
0.0
 31
0.0
 44
0.9
  1
7
 40
0.1
 41
0.08
  0
MTEXT
  5
431
100
AcDbEntity
  8
0
100
AcDbMText
 62
2
  6
CONTINUOUS
  7
TEXTSTYLE_2
 71
2
 72
1
 10
5.545
 20
10.312
 30
0.0
 11
1.0
 21
0.0
 31
0.0
 44
0.9
  1
6
 40
0.1
 41
0.08
  0
MTEXT
  5
432
100
AcDbEntity
  8
0
100
AcDbMText
 62
2
  6
CONTINUOUS
  7
TEXTSTYLE_2
 71
2
 72
1
 10
7.515
 20
10.312
 30
0.0
 11
1.0
 21
0.0
 31
0.0
 44
0.9
  1
5
 40
0.1
 41
0.08
  0
MTEXT
  5
433
100
AcDbEntity
  8
0
100
AcDbMText
 62
2
  6
CONTINUOUS
  7
TEXTSTYLE_2
 71
2
 72
1
 10
1.605
 20
10.312
 30
0.0
 11
1.0
 21
0.0
 31
0.0
 44
0.9
  1
8
 40
0.1
 41
0.08
  0
MTEXT
  5
434
100
AcDbEntity
  8
0
100
AcDbMText
 62
2
  6
CONTINUOUS
  7
TEXTSTYLE_2
 71
2
 72
1
 10
1.605
 20
0.787
 30
0.0
 11
1.0
 21
0.0
 31
0.0
 44
0.9
  1
8
 40
0.1
 41
0.08
  0
MTEXT
  5
435
100
AcDbEntity
  8
0
100
AcDbMText
 62
2
  6
CONTINUOUS
  7
TEXTSTYLE_2
 71
2
 72
1
 10
3.575
 20
0.787
 30
0.0
 11
1.0
 21
0.0
 31
0.0
 44
0.9
  1
7
 40
0.1
 41
0.08
  0
MTEXT
  5
436
100
AcDbEntity
  8
0
100
AcDbMText
 62
2
  6
CONTINUOUS
  7
TEXTSTYLE_2
 71
2
 72
1
 10
5.545
 20
0.787
 30
0.0
 11
1.0
 21
0.0
 31
0.0
 44
0.9
  1
6
 40
0.1
 41
0.08
  0
MTEXT
  5
437
100
AcDbEntity
  8
0
100
AcDbMText
 62
2
  6
CONTINUOUS
  7
TEXTSTYLE_2
 71
2
 72
1
 10
7.515
 20
0.787
 30
0.0
 11
1.0
 21
0.0
 31
0.0
 44
0.9
  1
5
 40
0.1
 41
0.08
  0
MTEXT
  5
438
100
AcDbEntity
  8
0
100
AcDbMText
 62
2
  6
CONTINUOUS
  7
TEXTSTYLE_2
 71
2
 72
1
 10
9.485
 20
0.787
 30
0.0
 11
1.0
 21
0.0
 31
0.0
 44
0.9
  1
4
 40
0.1
 41
0.08
  0
MTEXT
  5
439
100
AcDbEntity
  8
0
100
AcDbMText
 62
2
  6
CONTINUOUS
  7
TEXTSTYLE_2
 71
2
 72
1
 10
11.455
 20
0.787
 30
0.0
 11
1.0
 21
0.0
 31
0.0
 44
0.9
  1
3
 40
0.1
 41
0.08
  0
MTEXT
  5
43A
100
AcDbEntity
  8
0
100
AcDbMText
 62
2
  6
CONTINUOUS
  7
TEXTSTYLE_2
 71
2
 72
1
 10
13.425
 20
0.787
 30
0.0
 11
1.0
 21
0.0
 31
0.0
 44
0.9
  1
2
 40
0.1
 41
0.08
  0
MTEXT
  5
43B
100
AcDbEntity
  8
0
100
AcDbMText
 62
2
  6
CONTINUOUS
  7
TEXTSTYLE_2
 71
2
 72
1
 10
15.395
 20
0.787
 30
0.0
 11
1.0
 21
0.0
 31
0.0
 44
0.9
  1
1
 40
0.1
 41
0.08
  0
MTEXT
  5
43C
100
AcDbEntity
  8
0
100
AcDbMText
 62
2
  6
CONTINUOUS
  7
TEXTSTYLE_2
 71
3
 72
1
 10
0.52
 20
4.3995
 30
0.0
 11
1.0
 21
0.0
 31
0.0
 44
0.9
  1
B
 40
0.1
 41
0.08
  0
MTEXT
  5
43D
100
AcDbEntity
  8
0
100
AcDbMText
 62
2
  6
CONTINUOUS
  7
TEXTSTYLE_2
 71
3
 72
1
 10
0.52
 20
2.0995
 30
0.0
 11
1.0
 21
0.0
 31
0.0
 44
0.9
  1
A
 40
0.1
 41
0.08
  0
MTEXT
  5
43E
100
AcDbEntity
  8
0
100
AcDbMText
 62
2
  6
CONTINUOUS
  7
TEXTSTYLE_2
 71
3
 72
1
 10
0.52
 20
8.9995
 30
0.0
 11
1.0
 21
0.0
 31
0.0
 44
0.9
  1
D
 40
0.1
 41
0.08
  0
MTEXT
  5
43F
100
AcDbEntity
  8
0
100
AcDbMText
 62
2
  6
CONTINUOUS
  7
TEXTSTYLE_2
 71
3
 72
1
 10
0.52
 20
6.6995
 30
0.0
 11
1.0
 21
0.0
 31
0.0
 44
0.9
  1
C
 40
0.1
 41
0.08
  0
MTEXT
  5
440
100
AcDbEntity
  8
0
100
AcDbMText
 62
2
  6
CONTINUOUS
  7
TEXTSTYLE_2
 71
1
 72
1
 10
16.48
 20
8.9995
 30
0.0
 11
1.0
 21
0.0
 31
0.0
 44
0.9
  1
D
 40
0.1
 41
0.08
  0
MTEXT
  5
441
100
AcDbEntity
  8
0
100
AcDbMText
 62
2
  6
CONTINUOUS
  7
TEXTSTYLE_2
 71
1
 72
1
 10
16.48
 20
6.6995
 30
0.0
 11
1.0
 21
0.0
 31
0.0
 44
0.9
  1
C
 40
0.1
 41
0.08
  0
MTEXT
  5
442
100
AcDbEntity
  8
0
100
AcDbMText
 62
2
  6
CONTINUOUS
  7
TEXTSTYLE_2
 71
1
 72
1
 10
16.48
 20
4.3995
 30
0.0
 11
1.0
 21
0.0
 31
0.0
 44
0.9
  1
B
 40
0.1
 41
0.08
  0
MTEXT
  5
443
100
AcDbEntity
  8
0
100
AcDbMText
 62
2
  6
CONTINUOUS
  7
TEXTSTYLE_2
 71
1
 72
1
 10
16.48
 20
2.0995
 30
0.0
 11
1.0
 21
0.0
 31
0.0
 44
0.9
  1
A
 40
0.1
 41
0.08
  0
MTEXT
  5
444
100
AcDbEntity
  8
0
100
AcDbMText
 62
2
  6
CONTINUOUS
  7
STANDARD
 71
1
 72
1
 10
14.819264911
 20
1.0627941725
 30
0.0
 11
1.0
 21
0.0
 31
0.0
 44
0.9
  1
1 OF 1
 40
0.1
 41
0.6
  0
MTEXT
  5
445
100
AcDbEntity
  8
0
100
AcDbMText
 62
7
  6
CONTINUOUS
  7
STANDARD
 71
1
 72
1
 10
13.8911999818
 20
1.3747321586
 30
0.0
 11
1.0
 21
0.0
 31
0.0
 44
0.9
  1
151345
 40
0.12
 41
0.72
  0
MTEXT
  5
446
100
AcDbEntity
  8
0
100
AcDbMText
 62
2
  6
CONTINUOUS
  7
STANDARD
 71
1
 72
1
 10
12.644264911
 20
1.0627941725
 30
0.0
 11
1.0
 21
0.0
 31
0.0
 44
0.9
  1
1:1
 40
0.1
 41
0.3
  0
MTEXT
  5
447
100
AcDbEntity
  8
0
100
AcDbMText
 62
2
  6
CONTINUOUS
  7
STANDARD
 71
1
 72
1
 10
1.0597007627
 20
1.6202922458
 30
0.0
 11
1.0
 21
0.0
 31
0.0
 44
0.9
  1
NOTES:\P1. ALL DIMENSIONS ARE MILLIMETERS [INCHES] UNLESS OTHERWISE NOTED.
 40
0.1
 41
6.6
  0
INSERT
  5
448
100
AcDbEntity
  8
0
100
AcDbBlockReference
 62
2
  6
CONTINUOUS
  2
BANNER_LOGO_TITLEBLOCK_BL0
 10
12.9086867042
 20
2.5403783405
  0
DIMENSION
  5
449
100
AcDbEntity
  8
SCHEME_DIMS
100
AcDbDimension
 62
2
  6
CONTINUOUS
  2
*D0
 10
5.3698755467
 20
7.1508687654
 11
6.3830673863
 21
6.764399153
 70
163
 71
1
 42
49.5
  1
<>
  3
DIMSTYLE_1
100
AcDbDiametricDimension
 15
3.8373222716
 25
8.3546858424
  0
DIMENSION
  5
44A
100
AcDbEntity
  8
SCHEME_DIMS
100
AcDbDimension
 62
2
  6
CONTINUOUS
  2
*D1
 10
2.540375315
 20
4.9098432995
 11
2.415375315
 21
4.1913393625
 70
160
 71
2
 42
36.5
  3
DIMSTYLE_2
100
AcDbAlignedDimension
 13
4.0130792222
 23
3.4728354254
 14
3.6257445788
 24
4.9098432995
 50
90.0
100
AcDbRotatedDimension
  0
DIMENSION
  5
44B
100
AcDbEntity
  8
SCHEME_DIMS
100
AcDbDimension
 62
2
  6
CONTINUOUS
  2
*D2
 10
1.8551684609
 20
4.9098432995
 11
1.7301684609
 21
3.9705545204
 70
160
 71
2
 42
47.5
  3
DIMSTYLE_2
100
AcDbAlignedDimension
 13
4.3373587517
 23
3.0397645593
 14
3.6257445788
 24
4.9098432995
 50
90.0
100
AcDbRotatedDimension
  0
DIMENSION
  5
44C
100
AcDbEntity
  8
SCHEME_DIMS
100
AcDbDimension
 62
2
  6
CONTINUOUS
  2
*D3
 10
4.4496034034
 20
7.8846687041
 11
2.818993048
 21
8.5638785899
 70
163
 71
3
 42
10.3
  1
<>
  3
DIMSTYLE_3
100
AcDbDiametricDimension
 15
4.7575944149
 25
7.6208859038
  0
DIMENSION
  5
44D
100
AcDbEntity
  8
SCHEME_DIMS
100
AcDbDimension
 62
2
  6
CONTINUOUS
  2
*D4
 10
3.1193469451
 20
4.9098432995
 11
2.9943469451
 21
4.5850401499
 70
160
 71
2
 42
16.5
  3
DIMSTYLE_2
100
AcDbAlignedDimension
 13
3.5962170287
 23
4.2602370002
 14
3.6257445788
 24
4.9098432995
 50
90.0
100
AcDbRotatedDimension
  0
LINE
  5
44E
100
AcDbEntity
  8
0
100
AcDbLine
 62
2
  6
CONTINUOUS
 10
16.38
 20
0.887
 11
12.03
 21
0.887
  0
LINE
  5
44F
100
AcDbEntity
  8
0
100
AcDbLine
 62
2
  6
CONTINUOUS
 10
16.38
 20
0.887
 11
16.38
 21
2.807
  0
LINE
  5
450
100
AcDbEntity
  8
0
100
AcDbLine
 62
2
  6
CONTINUOUS
 10
16.38
 20
2.807
 11
12.03
 21
2.807
  0
LINE
  5
451
100
AcDbEntity
  8
0
100
AcDbLine
 62
2
  6
CONTINUOUS
 10
12.03
 20
0.887
 11
12.03
 21
2.807
  0
MTEXT
  5
452
100
AcDbEntity
  8
NOTES
100
AcDbMText
 62
7
  6
CONTINUOUS
  7
STANDARD
 71
2
 72
1
 10
16.155
 20
1.367
 30
0.0
 11
1.0
 21
0.0
 31
0.0
 44
0.9
  1
A
 40
0.1
 41
0.1
  0
MTEXT
  5
453
100
AcDbEntity
  8
NOTES
100
AcDbMText
 62
7
  6
CONTINUOUS
  7
STANDARD
 71
2
 72
1
 10
14.205
 20
1.967
 30
0.0
 11
1.0
 21
0.0
 31
0.0
 44
0.9
  1
WL50PB QD\PWEB CAD DRAWINGS 2D/3D
 40
0.1
 41
2.2
  0
LEADER
  5
454
100
AcDbEntity
  8
NOTES
100
AcDbLeader
 62
2
  6
CONTINUOUS
  3
STANDARD
 71
1
 72
0
 73
0
 75
0
 40
0.1
 41
1.2
 76
3
 10
5.1884132135
 20
3.6504946368
 30
0.0
 10
5.9551692663
 20
4.054339708
 30
0.0
 10
6.2051692663
 20
4.054339708
 30
0.0
340
455
1001
ACAD
1000
DSTYLE
1002
{
1070
77
1070
0
1002
}
  0
MTEXT
  5
455
102
{ACAD_REACTORS
330
454
102
}
100
AcDbEntity
  8
NOTES
100
AcDbMText
 62
2
  6
CONTINUOUS
  7
STANDARD
 71
1
 72
1
 10
6.2051692663
 20
4.104339708
 30
0.0
 11
1.0
 21
0.0
 31
0.0
 44
0.9
  1
M30 X 1.5-6g
 40
0.1
 41
1.2
  0
LEADER
  5
456
100
AcDbEntity
  8
NOTES
100
AcDbLeader
 62
2
  6
CONTINUOUS
  3
STANDARD
 71
1
 72
0
 73
0
 75
0
 40
0.1
 41
1.1
 76
3
 10
4.9732717761
 20
3.4846464491
 30
0.0
 10
5.9510509984
 20
3.0225260196
 30
0.0
 10
6.2010509984
 20
3.0225260196
 30
0.0
340
457
1001
ACAD
1000
DSTYLE
1002
{
1070
77
1070
0
1002
}
  0
MTEXT
  5
457
102
{ACAD_REACTORS
330
456
102
}
100
AcDbEntity
  8
NOTES
100
AcDbMText
 62
2
  6
CONTINUOUS
  7
STANDARD
 71
1
 72
1
 10
6.2010509984
 20
3.0725260196
 30
0.0
 11
1.0
 21
0.0
 31
0.0
 44
0.9
  1
1/2-14 NPSM
 40
0.1
 41
1.1
  0
LEADER
  5
458
100
AcDbEntity
  8
NOTES
100
AcDbLeader
 62
2
  6
CONTINUOUS
  3
STANDARD
 71
1
 72
0
 73
0
 75
0
 40
0.1
 41
1.0
 76
3
 10
4.8458487048
 20
3.1275404842
 30
0.0
 10
5.9687832774
 20
2.5126081182
 30
0.0
 10
6.2187832774
 20
2.5126081182
 30
0.0
340
459
1001
ACAD
1000
DSTYLE
1002
{
1070
77
1070
0
1002
}
  0
MTEXT
  5
459
102
{ACAD_REACTORS
330
458
102
}
100
AcDbEntity
  8
NOTES
100
AcDbMText
 62
2
  6
CONTINUOUS
  7
STANDARD
 71
1
 72
1
 10
6.2187832774
 20
2.5626081182
 30
0.0
 11
1.0
 21
0.0
 31
0.0
 44
0.9
  1
M12 X 1-6g
 40
0.1
 41
1.0
  0
MTEXT
  5
45A
100
AcDbEntity
  8
NOTES
100
AcDbMText
 62
2
  6
CONTINUOUS
  7
STANDARD
 71
2
 72
1
 10
12.8048684968
 20
3.9309788578
 30
0.0
 11
1.0
 21
0.0
 31
0.0
 44
0.9
  1
ISOMETRIC VIEW\P\H0.1;SCALE  1:1
 40
0.12
 41
1.68
  0
INSERT
  5
45B
100
AcDbEntity
  8
SYMBOLS
100
AcDbBlockReference
 62
2
  6
CONTINUOUS
  2
CL_BL1
 10
5.8165346184
 20
7.7454495282
  0
INSERT
  5
45C
100
AcDbEntity
  8
SYMBOLS
100
AcDbBlockReference
 62
2
  6
CONTINUOUS
  2
CL_BL2
 10
4.6239981579
 20
6.5340673624
  0
INSERT
  5
45D
100
AcDbEntity
  8
SYMBOLS
100
AcDbBlockReference
 62
2
  6
CONTINUOUS
  2
CL_BL3
 10
4.6252492638
 20
2.8112557221
  0
LINE
  5
45E
100
AcDbEntity
  8
0
100
AcDbLine
 62
2
  6
CONTINUOUS
 10
0.47
 20
5.586103
 11
0.47
 21
5.412897
  0
LINE
  5
45F
100
AcDbEntity
  8
0
100
AcDbLine
 62
2
  6
CONTINUOUS
 10
0.62
 20
10.112
 11
0.62
 21
0.887
  0
LINE
  5
460
100
AcDbEntity
  8
0
100
AcDbLine
 62
2
  6
CONTINUOUS
 10
2.59
 20
0.887
 11
2.59
 21
0.637
  0
LINE
  5
461
100
AcDbEntity
  8
0
100
AcDbLine
 62
2
  6
CONTINUOUS
 10
2.59
 20
10.112
 11
2.59
 21
10.362
  0
LINE
  5
462
100
AcDbEntity
  8
0
100
AcDbLine
 62
2
  6
CONTINUOUS
 10
8.413397
 20
0.737
 11
8.586603
 21
0.737
  0
LINE
  5
463
100
AcDbEntity
  8
0
100
AcDbLine
 62
7
  6
CONTINUOUS
 10
11.1389508475
 20
1.425992839
 11
11.7453418475
 21
1.495385839
  0
LINE
  5
464
100
AcDbEntity
  8
0
100
AcDbLine
 62
2
  6
CONTINUOUS
 10
0.62
 20
0.887
 11
16.38
 21
0.887
  0
LINE
  5
465
100
AcDbEntity
  8
0
100
AcDbLine
 62
2
  6
CONTINUOUS
 10
12.03
 20
1.137
 11
16.38
 21
1.137
  0
LINE
  5
466
100
AcDbEntity
  8
0
100
AcDbLine
 62
7
  6
CONTINUOUS
 10
10.2121898475
 20
1.243294839
 11
10.4342808475
 21
1.243294839
  0
LINE
  5
467
100
AcDbEntity
  8
0
100
AcDbLine
 62
7
  6
CONTINUOUS
 10
10.4842808475
 20
1.243294839
 11
10.5842808475
 21
1.243294839
  0
LINE
  5
468
100
AcDbEntity
  8
0
100
AcDbLine
 62
7
  6
CONTINUOUS
 10
10.6342808475
 20
1.243294839
 11
10.8563718475
 21
1.243294839
  0
LINE
  5
469
100
AcDbEntity
  8
0
100
AcDbLine
 62
7
  6
CONTINUOUS
 10
11.0389508475
 20
1.243294839
 11
11.3171028475
 21
1.243294839
  0
LINE
  5
46A
100
AcDbEntity
  8
0
100
AcDbLine
 62
7
  6
CONTINUOUS
 10
11.3671028475
 20
1.243294839
 11
11.5171888475
 21
1.243294839
  0
LINE
  5
46B
100
AcDbEntity
  8
0
100
AcDbLine
 62
7
  6
CONTINUOUS
 10
11.5671888475
 20
1.243294839
 11
11.8453418475
 21
1.243294839
  0
LINE
  5
46C
100
AcDbEntity
  8
0
100
AcDbLine
 62
7
  6
CONTINUOUS
 10
11.7453418475
 20
0.991203839
 11
11.1389508475
 21
1.060596839
  0
LINE
  5
46D
100
AcDbEntity
  8
0
100
AcDbLine
 62
2
  6
CONTINUOUS
 10
4.56
 20
0.887
 11
4.56
 21
0.637
  0
LINE
  5
46E
100
AcDbEntity
  8
0
100
AcDbLine
 62
2
  6
CONTINUOUS
 10
4.56
 20
10.112
 11
4.56
 21
10.362
  0
LINE
  5
46F
100
AcDbEntity
  8
0
100
AcDbLine
 62
2
  6
CONTINUOUS
 10
0.47
 20
5.412897
 11
0.62
 21
5.4995
  0
LINE
  5
470
100
AcDbEntity
  8
0
100
AcDbLine
 62
2
  6
CONTINUOUS
 10
12.03
 20
1.507
 11
16.38
 21
1.507
  0
LINE
  5
471
100
AcDbEntity
  8
0
100
AcDbLine
 62
2
  6
CONTINUOUS
 10
10.03
 20
1.907
 11
12.03
 21
1.907
  0
LINE
  5
472
100
AcDbEntity
  8
0
100
AcDbLine
 62
2
  6
CONTINUOUS
 10
0.62
 20
5.4995
 11
0.47
 21
5.586103
  0
LINE
  5
473
100
AcDbEntity
  8
0
100
AcDbLine
 62
2
  6
CONTINUOUS
 10
12.03
 20
2.267
 11
16.38
 21
2.267
  0
LINE
  5
474
100
AcDbEntity
  8
0
100
AcDbLine
 62
2
  6
CONTINUOUS
 10
8.5
 20
10.112
 11
8.586603
 21
10.262
  0
LINE
  5
475
100
AcDbEntity
  8
0
100
AcDbLine
 62
2
  6
CONTINUOUS
 10
16.38
 20
2.807
 11
10.03
 21
2.807
  0
LINE
  5
476
100
AcDbEntity
  8
0
100
AcDbLine
 62
2
  6
CONTINUOUS
 10
0.62
 20
3.1995
 11
0.37
 21
3.1995
  0
LINE
  5
477
100
AcDbEntity
  8
0
100
AcDbLine
 62
2
  6
CONTINUOUS
 10
16.38
 20
3.1995
 11
16.63
 21
3.1995
  0
LINE
  5
478
100
AcDbEntity
  8
0
100
AcDbLine
 62
2
  6
CONTINUOUS
 10
8.586603
 20
0.737
 11
8.5
 21
0.887
  0
LINE
  5
479
100
AcDbEntity
  8
0
100
AcDbLine
 62
2
  6
CONTINUOUS
 10
6.53
 20
0.887
 11
6.53
 21
0.637
  0
LINE
  5
47A
100
AcDbEntity
  8
0
100
AcDbLine
 62
2
  6
CONTINUOUS
 10
6.53
 20
10.112
 11
6.53
 21
10.362
  0
LINE
  5
47B
100
AcDbEntity
  8
0
100
AcDbLine
 62
2
  6
CONTINUOUS
 10
8.5
 20
0.887
 11
8.5
 21
0.637
  0
LINE
  5
47C
100
AcDbEntity
  8
0
100
AcDbLine
 62
2
  6
CONTINUOUS
 10
8.5
 20
10.112
 11
8.5
 21
10.362
  0
LINE
  5
47D
100
AcDbEntity
  8
0
100
AcDbLine
 62
2
  6
CONTINUOUS
 10
0.62
 20
5.4995
 11
0.37
 21
5.4995
  0
LINE
  5
47E
100
AcDbEntity
  8
0
100
AcDbLine
 62
2
  6
CONTINUOUS
 10
16.38
 20
5.4995
 11
16.63
 21
5.4995
  0
LINE
  5
47F
100
AcDbEntity
  8
0
100
AcDbLine
 62
2
  6
CONTINUOUS
 10
10.03
 20
2.807
 11
10.03
 21
0.887
  0
LINE
  5
480
100
AcDbEntity
  8
0
100
AcDbLine
 62
2
  6
CONTINUOUS
 10
10.47
 20
0.887
 11
10.47
 21
0.637
  0
LINE
  5
481
100
AcDbEntity
  8
0
100
AcDbLine
 62
2
  6
CONTINUOUS
 10
10.47
 20
10.112
 11
10.47
 21
10.362
  0
LINE
  5
482
100
AcDbEntity
  8
0
100
AcDbLine
 62
7
  6
CONTINUOUS
 10
10.5342808475
 20
1.143294839
 11
10.5342808475
 21
0.921203839
  0
LINE
  5
483
100
AcDbEntity
  8
0
100
AcDbLine
 62
7
  6
CONTINUOUS
 10
10.5342808475
 20
1.193294839
 11
10.5342808475
 21
1.293294839
  0
LINE
  5
484
100
AcDbEntity
  8
0
100
AcDbLine
 62
7
  6
CONTINUOUS
 10
10.5342808475
 20
1.343294839
 11
10.5342808475
 21
1.565385839
  0
LINE
  5
485
100
AcDbEntity
  8
0
100
AcDbLine
 62
2
  6
CONTINUOUS
 10
8.5
 20
0.887
 11
8.413397
 21
0.737
  0
LINE
  5
486
100
AcDbEntity
  8
0
100
AcDbLine
 62
2
  6
CONTINUOUS
 10
0.62
 20
7.7995
 11
0.37
 21
7.7995
  0
LINE
  5
487
100
AcDbEntity
  8
0
100
AcDbLine
 62
2
  6
CONTINUOUS
 10
16.38
 20
7.7995
 11
16.63
 21
7.7995
  0
LINE
  5
488
100
AcDbEntity
  8
0
100
AcDbLine
 62
2
  6
CONTINUOUS
 10
8.413397
 20
10.262
 11
8.5
 21
10.112
  0
LINE
  5
489
100
AcDbEntity
  8
0
100
AcDbLine
 62
7
  6
CONTINUOUS
 10
11.1389508475
 20
1.060596839
 11
11.1389508475
 21
1.425992839
  0
LINE
  5
48A
100
AcDbEntity
  8
0
100
AcDbLine
 62
7
  6
CONTINUOUS
 10
11.7453418475
 20
1.495385839
 11
11.7453418475
 21
0.991203839
  0
LINE
  5
48B
100
AcDbEntity
  8
0
100
AcDbLine
 62
1
  6
CONTINUOUS
 10
12.03
 20
2.807
 11
12.03
 21
0.887
  0
LINE
  5
48C
100
AcDbEntity
  8
0
100
AcDbLine
 62
2
  6
CONTINUOUS
 10
12.44
 20
0.887
 11
12.44
 21
0.637
  0
LINE
  5
48D
100
AcDbEntity
  8
0
100
AcDbLine
 62
2
  6
CONTINUOUS
 10
12.44
 20
10.112
 11
12.44
 21
10.362
  0
LINE
  5
48E
100
AcDbEntity
  8
0
100
AcDbLine
 62
2
  6
CONTINUOUS
 10
16.53
 20
5.586103
 11
16.38
 21
5.4995
  0
LINE
  5
48F
100
AcDbEntity
  8
0
100
AcDbLine
 62
2
  6
CONTINUOUS
 10
16.38
 20
5.4995
 11
16.53
 21
5.412897
  0
LINE
  5
490
100
AcDbEntity
  8
0
100
AcDbLine
 62
2
  6
CONTINUOUS
 10
12.83
 20
1.507
 11
12.83
 21
1.137
  0
LINE
  5
491
100
AcDbEntity
  8
0
100
AcDbLine
 62
2
  6
CONTINUOUS
 10
16.38
 20
10.112
 11
0.62
 21
10.112
  0
LINE
  5
492
100
AcDbEntity
  8
0
100
AcDbLine
 62
2
  6
CONTINUOUS
 10
8.586603
 20
10.262
 11
8.413397
 21
10.262
  0
LINE
  5
493
100
AcDbEntity
  8
0
100
AcDbLine
 62
2
  6
CONTINUOUS
 10
14.205
 20
1.137
 11
14.205
 21
0.887
  0
LINE
  5
494
100
AcDbEntity
  8
0
100
AcDbLine
 62
2
  6
CONTINUOUS
 10
14.41
 20
0.887
 11
14.41
 21
0.637
  0
LINE
  5
495
100
AcDbEntity
  8
0
100
AcDbLine
 62
2
  6
CONTINUOUS
 10
14.41
 20
10.112
 11
14.41
 21
10.362
  0
LINE
  5
496
100
AcDbEntity
  8
0
100
AcDbLine
 62
2
  6
CONTINUOUS
 10
15.58
 20
1.507
 11
15.58
 21
1.137
  0
LINE
  5
497
100
AcDbEntity
  8
0
100
AcDbLine
 62
2
  6
CONTINUOUS
 10
16.38
 20
0.887
 11
16.38
 21
10.112
  0
LINE
  5
498
100
AcDbEntity
  8
0
100
AcDbLine
 62
2
  6
CONTINUOUS
 10
16.53
 20
5.412897
 11
16.53
 21
5.586103
  0
LINE
  5
499
100
AcDbEntity
  8
02___PRT_ALL_AXES
100
AcDbLine
 62
7
  6
CONTINUOUS
 10
3.6193469407
 20
4.7720480239
 11
3.6193469407
 21
4.299607079
  0
LINE
  5
49A
100
AcDbEntity
  8
02___PRT_ALL_AXES
100
AcDbLine
 62
7
  6
CONTINUOUS
 10
3.6291894603
 20
4.8507881814
 11
3.6291894603
 21
4.7720480239
  0
LWPOLYLINE
  5
49B
100
AcDbEntity
  8
0
100
AcDbPolyline
 62
7
  6
CONTINUOUS
 90
11
 70
0
 10
4.8341428057
 20
3.1008398993
 10
4.8308285426
 20
3.1002300292
 10
4.8219380081
 20
3.0996061291
 10
4.8078696625
 20
3.098987347
 10
4.7888995996
 20
3.0983673493
 10
4.7653378649
 20
3.097742481
 10
4.7380104139
 20
3.0971195523
 10
4.7074297294
 20
3.0964944383
 10
4.6740041106
 20
3.0958609701
 10
4.6389446038
 20
3.095226816
 10
4.6035989092
 20
3.0945999864
  0
LINE
  5
49C
100
AcDbEntity
  8
0
100
AcDbLine
 62
7
  6
CONTINUOUS
 10
4.3998587517
 20
3.0397645593
 11
4.8073390666
 21
3.0397645593
  0
LINE
  5
49D
100
AcDbEntity
  8
0
100
AcDbLine
 62
7
  6
CONTINUOUS
 10
4.394762753
 20
3.079134638
 11
4.8124350653
 21
3.079134638
  0
LWPOLYLINE
  5
49E
100
AcDbEntity
  8
0
100
AcDbPolyline
 62
7
  6
CONTINUOUS
 90
3
 70
0
 10
4.37128209
 20
3.1145676532
 10
4.362982083
 20
3.113947307
 10
4.360639844
 20
3.1134968614
  0
LWPOLYLINE
  5
49F
100
AcDbEntity
  8
0
100
AcDbPolyline
 62
7
  6
CONTINUOUS
 90
4
 70
0
 10
4.7885695634
 20
3.1860900186
 10
4.8032557771
 20
3.1870954373
 10
4.8128125111
 20
3.188100856
 10
4.8169094215
 20
3.189052741
  0
LWPOLYLINE
  5
4A0
100
AcDbEntity
  8
0
100
AcDbPolyline
 62
7
  6
CONTINUOUS
 90
20
 70
0
 10
4.37128209
 20
3.1145676532
 10
4.3853491995
 20
3.115517759
 10
4.4044253664
 20
3.1164678972
 10
4.4280732243
 20
3.1174180653
 10
4.4557499526
 20
3.1183682474
 10
4.4868203946
 20
3.1193184405
 10
4.5205716748
 20
3.1202686487
 10
4.556228761
 20
3.1212188598
 10
4.5929724152
 20
3.1221690527
 10
4.6299654391
 20
3.1231193869
 10
4.6663546151
 20
3.1240697606
 10
4.7013028802
 20
3.1250201343
 10
4.7340073249
 20
3.1259704935
 10
4.7637173253
 20
3.1269208432
 10
4.7897511245
 20
3.127871194
 10
4.8115109178
 20
3.1288215427
 10
4.8284970855
 20
3.1297718853
 10
4.840319826
 20
3.1307222313
 10
4.8467076817
 20
3.1316725916
 10
4.8478705627
 20
3.1322842437
  0
LWPOLYLINE
  5
4A1
100
AcDbEntity
  8
0
100
AcDbPolyline
 62
7
  6
CONTINUOUS
 90
7
 70
0
 10
4.8151443666
 20
3.1683734832
 10
4.7947089054
 20
3.1674414816
 10
4.7699311176
 20
3.1665052044
 10
4.7416306858
 20
3.1655746524
 10
4.7100592133
 20
3.1646374771
 10
4.6757576502
 20
3.1636908218
 10
4.6398593828
 20
3.1627453905
  0
LWPOLYLINE
  5
4A2
100
AcDbEntity
  8
0
100
AcDbPolyline
 62
7
  6
CONTINUOUS
 90
11
 70
0
 10
4.5654389421
 20
3.156891908
 10
4.6417125391
 20
3.1588564797
 10
4.6793501912
 20
3.1598505074
 10
4.7150831184
 20
3.1608444682
 10
4.7476393887
 20
3.1618264392
 10
4.7765786431
 20
3.1628052616
 10
4.801401084
 20
3.1637882681
 10
4.8212432312
 20
3.164764372
 10
4.8357932949
 20
3.1657387287
 10
4.8447908306
 20
3.1667212708
 10
4.847629823
 20
3.1674391041
  0
LWPOLYLINE
  5
4A3
100
AcDbEntity
  8
0
100
AcDbPolyline
 62
7
  6
CONTINUOUS
 90
11
 70
0
 10
4.6398593828
 20
3.1627453905
 10
4.565423412
 20
3.1608285126
 10
4.5277440856
 20
3.1598332976
 10
4.4919950381
 20
3.1588386805
 10
4.4594448658
 20
3.157856552
 10
4.4305261135
 20
3.1568779555
 10
4.4057383688
 20
3.1558957785
 10
4.3859207684
 20
3.1549203156
 10
4.3713773378
 20
3.1539456234
 10
4.3623923885
 20
3.1529629595
 10
4.3595679953
 20
3.1522474948
  0
LWPOLYLINE
  5
4A4
100
AcDbEntity
  8
0
100
AcDbPolyline
 62
7
  6
CONTINUOUS
 90
12
 70
0
 10
4.6035989092
 20
3.0945999864
 10
4.5704239416
 20
3.0940087205
 10
4.5377421059
 20
3.0934097019
 10
4.5066829703
 20
3.0928098048
 10
4.4782845038
 20
3.0922163274
 10
4.4529291543
 20
3.0916254797
 10
4.4309338018
 20
3.091031816
 10
4.4129640049
 20
3.0904406232
 10
4.3993320901
 20
3.0898512799
 10
4.3902173335
 20
3.089258923
 10
4.3858541855
 20
3.0886591087
 10
4.3856067984
 20
3.0885574445
  0
LINE
  5
4A5
100
AcDbEntity
  8
0
100
AcDbLine
 62
7
  6
CONTINUOUS
 10
4.37128209
 20
3.1145676532
 11
4.4600178762
 21
3.1145676532
  0
LINE
  5
4A6
100
AcDbEntity
  8
0
100
AcDbLine
 62
7
  6
CONTINUOUS
 10
4.3742560595
 20
3.0998949281
 11
4.3897380891
 21
3.0909456577
  0
LINE
  5
4A7
100
AcDbEntity
  8
0
100
AcDbLine
 62
7
  6
CONTINUOUS
 10
4.3595679954
 20
3.1477540647
 11
4.389738082
 21
3.1303157405
  0
LINE
  5
4A8
100
AcDbEntity
  8
0
100
AcDbLine
 62
7
  6
CONTINUOUS
 10
4.3595679954
 20
3.1871241435
 11
4.389738082
 21
3.1696858193
  0
LINE
  5
4A9
100
AcDbEntity
  8
0
100
AcDbLine
 62
7
  6
CONTINUOUS
 10
4.3742560595
 20
3.0998949281
 11
4.3732991668
 21
3.1005957453
  0
LWPOLYLINE
  5
4AA
100
AcDbEntity
  8
0
100
AcDbPolyline
 62
7
  6
CONTINUOUS
 90
17
 70
0
 10
4.3902883969
 20
3.1700039366
 10
4.3951244733
 20
3.1710593866
 10
4.4051805951
 20
3.1720614287
 10
4.4203002673
 20
3.1730634708
 10
4.4400976424
 20
3.174065513
 10
4.4640674998
 20
3.1750675551
 10
4.4915981391
 20
3.1760695973
 10
4.5219869901
 20
3.1770716394
 10
4.5544585423
 20
3.1780736815
 10
4.5881841357
 20
3.1790757237
 10
4.6223031075
 20
3.1800777658
 10
4.6559447561
 20
3.1810798079
 10
4.6882505612
 20
3.1820818501
 10
4.7183960923
 20
3.1830838922
 10
4.7456120484
 20
3.1840859343
 10
4.76920389
 20
3.1850879765
 10
4.7885695634
 20
3.1860900186
  0
LWPOLYLINE
  5
4AB
100
AcDbEntity
  8
0
100
AcDbPolyline
 62
7
  6
CONTINUOUS
 90
5
 70
0
 10
4.8151443666
 20
3.2038065541
 10
4.8308594397
 20
3.2047351382
 10
4.8416097547
 20
3.2056656805
 10
4.8471610734
 20
3.2066097074
 10
4.847629823
 20
3.2068091828
  0
LWPOLYLINE
  5
4AC
100
AcDbEntity
  8
0
100
AcDbPolyline
 62
7
  6
CONTINUOUS
 90
7
 70
0
 10
4.6398593828
 20
3.1981784614
 10
4.6757576502
 20
3.1991238927
 10
4.7100592133
 20
3.200070548
 10
4.7416306858
 20
3.2010077233
 10
4.7699311176
 20
3.2019382753
 10
4.7947089054
 20
3.2028745525
 10
4.8151443666
 20
3.2038065541
  0
LWPOLYLINE
  5
4AD
100
AcDbEntity
  8
0
100
AcDbPolyline
 62
7
  6
CONTINUOUS
 90
11
 70
0
 10
4.64174531
 20
3.2021644173
 10
4.5654722352
 20
3.2001998593
 10
4.5278260229
 20
3.1992055874
 10
4.4920910391
 20
3.1982115273
 10
4.4595369358
 20
3.1972295557
 10
4.4306014088
 20
3.1962507706
 10
4.4057852361
 20
3.1952679068
 10
4.3859480979
 20
3.194291939
 10
4.371399392
 20
3.193317525
 10
4.3624040761
 20
3.1923349349
 10
4.3595679953
 20
3.1916175735
  0
LWPOLYLINE
  5
4AE
100
AcDbEntity
  8
0
100
AcDbPolyline
 62
7
  6
CONTINUOUS
 90
11
 70
0
 10
4.5654722352
 20
3.2356329301
 10
4.64174531
 20
3.2375974882
 10
4.6794055904
 20
3.2385921597
 10
4.7151478019
 20
3.2395864906
 10
4.747700871
 20
3.2405685497
 10
4.7766291682
 20
3.2415472549
 10
4.8014341324
 20
3.2425298706
 10
4.8212629577
 20
3.2435056442
 10
4.8358083447
 20
3.2444801297
 10
4.8447986473
 20
3.2454626958
 10
4.847629823
 20
3.2461792616
  0
LWPOLYLINE
  5
4AF
100
AcDbEntity
  8
0
100
AcDbPolyline
 62
7
  6
CONTINUOUS
 90
11
 70
0
 10
4.6417170658
 20
3.2415337626
 10
4.5654437791
 20
3.239569199
 10
4.5277782146
 20
3.2385743761
 10
4.4920353237
 20
3.2375799996
 10
4.4594840172
 20
3.2365979534
 10
4.4305579296
 20
3.2356192693
 10
4.4057567687
 20
3.2346367407
 10
4.385930873
 20
3.2336610443
 10
4.37138627
 20
3.2326865193
 10
4.3623972616
 20
3.2317039082
 10
4.3595679953
 20
3.2309876523
  0
LINE
  5
4B0
100
AcDbEntity
  8
0
100
AcDbLine
 62
7
  6
CONTINUOUS
 10
4.3595679954
 20
3.2264942222
 11
4.389738082
 21
3.209055898
  0
LINE
  5
4B1
100
AcDbEntity
  8
0
100
AcDbLine
 62
7
  6
CONTINUOUS
 10
4.3595679954
 20
3.265864301
 11
4.389738082
 21
3.2484259767
  0
LINE
  5
4B2
100
AcDbEntity
  8
0
100
AcDbLine
 62
7
  6
CONTINUOUS
 10
4.3947603025
 20
3.0791346143
 11
4.3855348353
 21
3.0883600794
  0
LINE
  5
4B3
100
AcDbEntity
  8
0
100
AcDbLine
 62
7
  6
CONTINUOUS
 10
4.3732997223
 20
3.1005951897
 11
4.360575202
 21
3.1133197071
  0
LINE
  5
4B4
100
AcDbEntity
  8
02___PRT_ALL_AXES
100
AcDbLine
 62
7
  6
CONTINUOUS
 10
4.017210494
 20
3.562387651
 11
4.0169847359
 21
3.5626484176
  0
LINE
  5
4B5
100
AcDbEntity
  8
0
100
AcDbLine
 62
7
  6
CONTINUOUS
 10
4.3595679954
 20
3.1477540647
 11
4.3593272556
 21
3.1480322758
  0
LWPOLYLINE
  5
4B6
100
AcDbEntity
  8
0
100
AcDbPolyline
 62
7
  6
CONTINUOUS
 90
21
 70
0
 10
4.3902883969
 20
3.2487440941
 10
4.3927568613
 20
3.2494313953
 10
4.400917371
 20
3.250436814
 10
4.4142850687
 20
3.2514422327
 10
4.4325165185
 20
3.2524476513
 10
4.4551433275
 20
3.25345307
 10
4.4815841795
 20
3.2544584887
 10
4.5111597702
 20
3.2554639074
 10
4.5431102588
 20
3.256469326
 10
4.5766147902
 20
3.2574747447
 10
4.6108125834
 20
3.2584801634
 10
4.6448250467
 20
3.2594855821
 10
4.6777783496
 20
3.2604910008
 10
4.7088258732
 20
3.2614964194
 10
4.7371699607
 20
3.2625018381
 10
4.7620824106
 20
3.2635072568
 10
4.7829231855
 20
3.2645126755
 10
4.7991568548
 20
3.2655180941
 10
4.8103663518
 20
3.2665235128
 10
4.816263688
 20
3.2675289315
 10
4.8169094215
 20
3.2677928985
  0
LWPOLYLINE
  5
4B7
100
AcDbEntity
  8
0
100
AcDbPolyline
 62
7
  6
CONTINUOUS
 90
21
 70
0
 10
4.3902883969
 20
3.2093740154
 10
4.3936889944
 20
3.2102200669
 10
4.4026891444
 20
3.2112254856
 10
4.4168509628
 20
3.2122309042
 10
4.4358106118
 20
3.2132363229
 10
4.4590809899
 20
3.2142417416
 10
4.4860642467
 20
3.2152471603
 10
4.5160671425
 20
3.2162525789
 10
4.5483188586
 20
3.2172579976
 10
4.5819908009
 20
3.2182634163
 10
4.6162178873
 20
3.219268835
 10
4.6501207736
 20
3.2202742537
 10
4.6828284445
 20
3.2212796723
 10
4.7135005917
 20
3.222285091
 10
4.7413492024
 20
3.2232905097
 10
4.7656588046
 20
3.2242959284
 10
4.7858048488
 20
3.225301347
 10
4.8012697534
 20
3.2263067657
 10
4.8116562022
 20
3.2273121844
 10
4.8166973519
 20
3.2283176031
 10
4.8169094215
 20
3.2284228198
  0
LWPOLYLINE
  5
4B8
100
AcDbEntity
  8
0
100
AcDbPolyline
 62
7
  6
CONTINUOUS
 90
10
 70
0
 10
4.6395028587
 20
3.2986969105
 10
4.6726806426
 20
3.2997023292
 10
4.7040836148
 20
3.3007077479
 10
4.7329049865
 20
3.3017131665
 10
4.7584042942
 20
3.3027185852
 10
4.7799264229
 20
3.3037240039
 10
4.7969184375
 20
3.3047294226
 10
4.8089437879
 20
3.3057348412
 10
4.8156935253
 20
3.3067402599
 10
4.8169094215
 20
3.3071629773
  0
LWPOLYLINE
  5
4B9
100
AcDbEntity
  8
0
100
AcDbPolyline
 62
7
  6
CONTINUOUS
 90
11
 70
0
 10
4.6398931364
 20
3.3162895731
 10
4.6758223186
 20
3.3172358653
 10
4.710148417
 20
3.3181833268
 10
4.7417435057
 20
3.3191214679
 10
4.7700463701
 20
3.3200525496
 10
4.7948247563
 20
3.3209895625
 10
4.8152550877
 20
3.3219224751
 10
4.8309352536
 20
3.3228506842
 10
4.8416573824
 20
3.323781358
 10
4.8471776542
 20
3.3247255611
 10
4.847629823
 20
3.3249194191
  0
LWPOLYLINE
  5
4BA
100
AcDbEntity
  8
0
100
AcDbPolyline
 62
7
  6
CONTINUOUS
 90
11
 70
0
 10
4.5654437791
 20
3.2750022699
 10
4.6417170658
 20
3.2769668334
 10
4.6793579059
 20
3.2779609517
 10
4.7150921264
 20
3.2789549641
 10
4.747647923
 20
3.2799369465
 10
4.7765856045
 20
3.2809157507
 10
4.8014055611
 20
3.2818987001
 10
4.8212457883
 20
3.2828747527
 10
4.835795251
 20
3.2838491266
 10
4.8447918382
 20
3.2848316703
 10
4.847629823
 20
3.2855493403
  0
LWPOLYLINE
  5
4BB
100
AcDbEntity
  8
0
100
AcDbPolyline
 62
7
  6
CONTINUOUS
 90
11
 70
0
 10
4.6398931364
 20
3.2808565022
 10
4.565423919
 20
3.278938762
 10
4.5277450671
 20
3.2779435603
 10
4.4919964071
 20
3.2769489562
 10
4.4594464834
 20
3.2759668396
 10
4.4305273562
 20
3.2749882369
 10
4.405738431
 20
3.2740060174
 10
4.3859204163
 20
3.2730305319
 10
4.3713774779
 20
3.2720558712
 10
4.3623925417
 20
3.2710732206
 10
4.3595679953
 20
3.270357731
  0
LWPOLYLINE
  5
4BC
100
AcDbEntity
  8
0
100
AcDbPolyline
 62
7
  6
CONTINUOUS
 90
11
 70
0
 10
4.6417501121
 20
3.3202747783
 10
4.5654768837
 20
3.3183102162
 10
4.5278339255
 20
3.3173160368
 10
4.4921002867
 20
3.3163220302
 10
4.459545742
 20
3.3153400717
 10
4.4306086618
 20
3.3143612703
 10
4.40579
 20
3.3133783513
 10
4.3859509368
 20
3.3124023356
 10
4.3714015655
 20
3.3114279408
 10
4.3624052089
 20
3.3104453548
 10
4.3595679953
 20
3.3097278098
  0
LWPOLYLINE
  5
4BD
100
AcDbEntity
  8
0
100
AcDbPolyline
 62
7
  6
CONTINUOUS
 90
11
 70
0
 10
4.5654768837
 20
3.3537432871
 10
4.6417501121
 20
3.3557078491
 10
4.6794136039
 20
3.3567026121
 10
4.7151571201
 20
3.3576969955
 10
4.7477097097
 20
3.3586790667
 10
4.7766364228
 20
3.3596577548
 10
4.8014388752
 20
3.3606403143
 10
4.8212658515
 20
3.361616044
 10
4.8358105407
 20
3.3625905475
 10
4.8447997852
 20
3.3635731167
 10
4.847629823
 20
3.3642894978
  0
LWPOLYLINE
  5
4BE
100
AcDbEntity
  8
0
100
AcDbPolyline
 62
7
  6
CONTINUOUS
 90
11
 70
0
 10
4.6417217055
 20
3.3596441193
 10
4.5654485891
 20
3.3576795601
 10
4.5277862294
 20
3.3566848286
 10
4.492044637
 20
3.3556905044
 10
4.4594928466
 20
3.3547084701
 10
4.4305651715
 20
3.3537297688
 10
4.4057614995
 20
3.3527471839
 10
4.3859337666
 20
3.3517714441
 10
4.3713884666
 20
3.3507969371
 10
4.3623983995
 20
3.3498143291
 10
4.3595679953
 20
3.3490978885
  0
LINE
  5
4BF
100
AcDbEntity
  8
0
100
AcDbLine
 62
7
  6
CONTINUOUS
 10
4.017210494
 20
3.562387651
 11
4.0526580594
 21
3.5419136039
  0
LINE
  5
4C0
100
AcDbEntity
  8
0
100
AcDbLine
 62
7
  6
CONTINUOUS
 10
4.3595679954
 20
3.3052343797
 11
4.389738082
 21
3.2877960555
  0
LINE
  5
4C1
100
AcDbEntity
  8
0
100
AcDbLine
 62
7
  6
CONTINUOUS
 10
4.3595679954
 20
3.3446044584
 11
4.389738082
 21
3.3271661342
  0
LINE
  5
4C2
100
AcDbEntity
  8
0
100
AcDbLine
 62
7
  6
CONTINUOUS
 10
4.8340746917
 20
3.1010266088
 11
4.8174597363
 21
3.1106307012
  0
LINE
  5
4C3
100
AcDbEntity
  8
0
100
AcDbLine
 62
7
  6
CONTINUOUS
 10
4.3595679954
 20
3.3839745372
 11
4.389738082
 21
3.366536213
  0
LINE
  5
4C4
100
AcDbEntity
  8
02___PRT_ALL_AXES
100
AcDbLine
 62
7
  6
CONTINUOUS
 10
4.017210494
 20
3.6214427691
 11
4.0169847359
 21
3.6217035357
  0
LINE
  5
4C5
100
AcDbEntity
  8
02___PRT_ALL_AXES
100
AcDbLine
 62
7
  6
CONTINUOUS
 10
4.017210494
 20
3.6804978872
 11
4.0169847359
 21
3.6807586538
  0
LINE
  5
4C6
100
AcDbEntity
  8
0
100
AcDbLine
 62
7
  6
CONTINUOUS
 10
4.3595679954
 20
3.1871241435
 11
4.3593272556
 21
3.1874023546
  0
LINE
  5
4C7
100
AcDbEntity
  8
0
100
AcDbLine
 62
7
  6
CONTINUOUS
 10
4.3595679954
 20
3.2264942222
 11
4.3593272556
 21
3.2267724333
  0
LINE
  5
4C8
100
AcDbEntity
  8
0
100
AcDbLine
 62
7
  6
CONTINUOUS
 10
4.3595679954
 20
3.265864301
 11
4.3593272556
 21
3.2661425121
  0
LINE
  5
4C9
100
AcDbEntity
  8
0
100
AcDbLine
 62
7
  6
CONTINUOUS
 10
4.3595679954
 20
3.3052343797
 11
4.3593272556
 21
3.3055125908
  0
LINE
  5
4CA
100
AcDbEntity
  8
0
100
AcDbLine
 62
7
  6
CONTINUOUS
 10
4.0169847359
 20
4.1605814884
 11
4.0169847359
 21
4.1531995987
  0
LINE
  5
4CB
100
AcDbEntity
  8
0
100
AcDbLine
 62
7
  6
CONTINUOUS
 10
4.0169847359
 20
4.1015263703
 11
4.0169847359
 21
4.0941444806
  0
LINE
  5
4CC
100
AcDbEntity
  8
0
100
AcDbLine
 62
7
  6
CONTINUOUS
 10
4.0169847359
 20
4.0424712522
 11
4.0169847359
 21
4.0350893625
  0
LINE
  5
4CD
100
AcDbEntity
  8
0
100
AcDbLine
 62
7
  6
CONTINUOUS
 10
4.0169847359
 20
3.9834161341
 11
4.0169847359
 21
3.9760342443
  0
LINE
  5
4CE
100
AcDbEntity
  8
0
100
AcDbLine
 62
7
  6
CONTINUOUS
 10
4.0169847359
 20
3.924361016
 11
4.0169847359
 21
3.9169791262
  0
LINE
  5
4CF
100
AcDbEntity
  8
0
100
AcDbLine
 62
7
  6
CONTINUOUS
 10
4.0169847359
 20
3.8653058979
 11
4.0169847359
 21
3.8579240081
  0
LINE
  5
4D0
100
AcDbEntity
  8
0
100
AcDbLine
 62
7
  6
CONTINUOUS
 10
4.0169847359
 20
3.8062507798
 11
4.0169847359
 21
3.79886889
  0
LINE
  5
4D1
100
AcDbEntity
  8
0
100
AcDbLine
 62
7
  6
CONTINUOUS
 10
4.0169847359
 20
3.7471956617
 11
4.0169847359
 21
3.7398137719
  0
LINE
  5
4D2
100
AcDbEntity
  8
0
100
AcDbLine
 62
7
  6
CONTINUOUS
 10
4.0169847359
 20
3.6881405436
 11
4.0169847359
 21
3.6807586538
  0
LINE
  5
4D3
100
AcDbEntity
  8
0
100
AcDbLine
 62
7
  6
CONTINUOUS
 10
4.0169847359
 20
3.6290854254
 11
4.0169847359
 21
3.6217035357
  0
LINE
  5
4D4
100
AcDbEntity
  8
0
100
AcDbLine
 62
7
  6
CONTINUOUS
 10
4.0169847359
 20
3.5700303073
 11
4.0169847359
 21
3.5626484176
  0
LINE
  5
4D5
100
AcDbEntity
  8
02___PRT_ALL_AXES
100
AcDbLine
 62
7
  6
CONTINUOUS
 10
4.0524178068
 20
4.2208669215
 11
4.0524178068
 21
4.1810387814
  0
LINE
  5
4D6
100
AcDbEntity
  8
02___PRT_ALL_AXES
100
AcDbLine
 62
7
  6
CONTINUOUS
 10
4.0524178068
 20
4.1327423057
 11
4.0524178068
 21
4.1219836633
  0
LINE
  5
4D7
100
AcDbEntity
  8
02___PRT_ALL_AXES
100
AcDbLine
 62
7
  6
CONTINUOUS
 10
4.0524178068
 20
4.0736871876
 11
4.0524178068
 21
4.0629285452
  0
LINE
  5
4D8
100
AcDbEntity
  8
02___PRT_ALL_AXES
100
AcDbLine
 62
7
  6
CONTINUOUS
 10
4.0524178068
 20
4.0146320695
 11
4.0524178068
 21
4.0038734271
  0
LINE
  5
4D9
100
AcDbEntity
  8
02___PRT_ALL_AXES
100
AcDbLine
 62
7
  6
CONTINUOUS
 10
4.0524178068
 20
3.9555769513
 11
4.0524178068
 21
3.944818309
  0
LINE
  5
4DA
100
AcDbEntity
  8
02___PRT_ALL_AXES
100
AcDbLine
 62
7
  6
CONTINUOUS
 10
4.0524178068
 20
3.8965218332
 11
4.0524178068
 21
3.8857631909
  0
LINE
  5
4DB
100
AcDbEntity
  8
02___PRT_ALL_AXES
100
AcDbLine
 62
7
  6
CONTINUOUS
 10
4.0524178068
 20
3.8374667151
 11
4.0524178068
 21
3.8267080728
  0
LINE
  5
4DC
100
AcDbEntity
  8
02___PRT_ALL_AXES
100
AcDbLine
 62
7
  6
CONTINUOUS
 10
4.0524178068
 20
3.778411597
 11
4.0524178068
 21
3.7676529547
  0
LINE
  5
4DD
100
AcDbEntity
  8
02___PRT_ALL_AXES
100
AcDbLine
 62
7
  6
CONTINUOUS
 10
4.0524178068
 20
3.7193564789
 11
4.0524178068
 21
3.7085978366
  0
LINE
  5
4DE
100
AcDbEntity
  8
02___PRT_ALL_AXES
100
AcDbLine
 62
7
  6
CONTINUOUS
 10
4.0524178068
 20
3.6603013608
 11
4.0524178068
 21
3.6495427184
  0
LINE
  5
4DF
100
AcDbEntity
  8
02___PRT_ALL_AXES
100
AcDbLine
 62
7
  6
CONTINUOUS
 10
4.0524178068
 20
3.6012462427
 11
4.0524178068
 21
3.5904876003
  0
LINE
  5
4E0
100
AcDbEntity
  8
02___PRT_ALL_AXES
100
AcDbLine
 62
7
  6
CONTINUOUS
 10
4.0524178068
 20
3.5421911246
 11
4.0524178068
 21
3.5122055042
  0
LINE
  5
4E1
100
AcDbEntity
  8
02___PRT_ALL_AXES
100
AcDbLine
 62
7
  6
CONTINUOUS
 10
4.0169847359
 20
4.1605814884
 11
4.017210494
 21
4.160842255
  0
LWPOLYLINE
  5
4E2
100
AcDbEntity
  8
0
100
AcDbPolyline
 62
7
  6
CONTINUOUS
 90
11
 70
0
 10
4.5654485891
 20
3.393112631
 10
4.6417217055
 20
3.3950771901
 10
4.6793658061
 20
3.3960714011
 10
4.7151013778
 20
3.397065467
 10
4.7476567376
 20
3.3980474627
 10
4.7765928694
 20
3.3990262509
 10
4.8014103366
 20
3.4000091451
 10
4.8212486269
 20
3.4009851493
 10
4.8357974235
 20
3.4019595422
 10
4.8447929709
 20
3.4029420901
 10
4.847629823
 20
3.4036595766
  0
LWPOLYLINE
  5
4E3
100
AcDbEntity
  8
0
100
AcDbPolyline
 62
7
  6
CONTINUOUS
 90
11
 70
0
 10
4.6416966055
 20
3.3990135462
 10
4.565424431
 20
3.3970490115
 10
4.5277460584
 20
3.3960538233
 10
4.4919977897
 20
3.3950592323
 10
4.4594481171
 20
3.3940771278
 10
4.4305286169
 20
3.3930985189
 10
4.4057385108
 20
3.3921162571
 10
4.3859200644
 20
3.3911407483
 10
4.3713776198
 20
3.3901661191
 10
4.3623926967
 20
3.389183482
 10
4.3595679953
 20
3.3884679672
  0
LWPOLYLINE
  5
4E4
100
AcDbEntity
  8
0
100
AcDbPolyline
 62
7
  6
CONTINUOUS
 90
11
 70
0
 10
4.565424431
 20
3.4324820823
 10
4.6416966055
 20
3.434446617
 10
4.679323208
 20
3.4354403305
 10
4.7150523436
 20
3.4364341322
 10
4.7476114112
 20
3.4374161019
 10
4.7765575422
 20
3.4383950462
 10
4.801389852
 20
3.4393783283
 10
4.8212391239
 20
3.4403546911
 10
4.8357902165
 20
3.4413290257
 10
4.8447895596
 20
3.442311616
 10
4.847629823
 20
3.4430296553
  0
LINE
  5
4E5
100
AcDbEntity
  8
0
100
AcDbLine
 62
9
  6
CONTINUOUS
 10
4.8478705627
 20
3.4576548828
 11
4.3593272556
 21
3.4576548828
  0
LINE
  5
4E6
100
AcDbEntity
  8
0
100
AcDbLine
 62
7
  6
CONTINUOUS
 10
4.017210494
 20
3.6214427691
 11
4.0526580594
 21
3.600968722
  0
LINE
  5
4E7
100
AcDbEntity
  8
0
100
AcDbLine
 62
7
  6
CONTINUOUS
 10
4.017210494
 20
3.6804978872
 11
4.0526580594
 21
3.6600238401
  0
LINE
  5
4E8
100
AcDbEntity
  8
0
100
AcDbLine
 62
7
  6
CONTINUOUS
 10
4.847629823
 20
3.1325624554
 11
4.8174597363
 21
3.1500007799
  0
LINE
  5
4E9
100
AcDbEntity
  8
0
100
AcDbLine
 62
7
  6
CONTINUOUS
 10
4.3595679954
 20
3.4233446159
 11
4.389738082
 21
3.4059062917
  0
LINE
  5
4EA
100
AcDbEntity
  8
0
100
AcDbLine
 62
7
  6
CONTINUOUS
 10
4.847629823
 20
3.1719325342
 11
4.8174597363
 21
3.1893708586
  0
LINE
  5
4EB
100
AcDbEntity
  8
0
100
AcDbLine
 62
7
  6
CONTINUOUS
 10
4.847629823
 20
3.2113026129
 11
4.8174597363
 21
3.2287409374
  0
LINE
  5
4EC
100
AcDbEntity
  8
02___PRT_ALL_AXES
100
AcDbLine
 62
7
  6
CONTINUOUS
 10
4.017210494
 20
3.7395530053
 11
4.0169847359
 21
3.7398137719
  0
LINE
  5
4ED
100
AcDbEntity
  8
02___PRT_ALL_AXES
100
AcDbLine
 62
7
  6
CONTINUOUS
 10
4.017210494
 20
3.7986081234
 11
4.0169847359
 21
3.79886889
  0
LINE
  5
4EE
100
AcDbEntity
  8
0
100
AcDbLine
 62
7
  6
CONTINUOUS
 10
4.3595679954
 20
3.3446044584
 11
4.3593272556
 21
3.3448826695
  0
LINE
  5
4EF
100
AcDbEntity
  8
0
100
AcDbLine
 62
7
  6
CONTINUOUS
 10
4.3595679954
 20
3.3839745372
 11
4.3593272556
 21
3.3842527483
  0
LINE
  5
4F0
100
AcDbEntity
  8
0
100
AcDbLine
 62
7
  6
CONTINUOUS
 10
4.3595679954
 20
3.4233446159
 11
4.3593272556
 21
3.423622827
  0
LWPOLYLINE
  5
4F1
100
AcDbEntity
  8
0
100
AcDbPolyline
 62
7
  6
CONTINUOUS
 90
8
 70
0
 10
4.3732991668
 20
3.1005957453
 10
4.3728243319
 20
3.1015448625
 10
4.3754140463
 20
3.103751409
 10
4.3830408814
 20
3.1059265904
 10
4.3955038926
 20
3.1080833489
 10
4.412710201
 20
3.1102450387
 10
4.4344124913
 20
3.1124125714
 10
4.4600178762
 20
3.1145676532
  0
LINE
  5
4F2
100
AcDbEntity
  8
02___PRT_ALL_AXES
100
AcDbLine
 62
7
  6
CONTINUOUS
 10
4.0169847359
 20
4.1015263703
 11
4.017210494
 21
4.1017871369
  0
LINE
  5
4F3
100
AcDbEntity
  8
02___PRT_ALL_AXES
100
AcDbLine
 62
7
  6
CONTINUOUS
 10
4.0169847359
 20
4.0424712522
 11
4.017210494
 21
4.0427320188
  0
LWPOLYLINE
  5
4F4
100
AcDbEntity
  8
02___PRT_ALL_AXES
100
AcDbPolyline
 62
7
  6
CONTINUOUS
 90
10
 70
0
 10
5.1547800115
 20
3.6200151066
 10
5.1482524282
 20
3.6185672171
 10
5.1291327327
 20
3.6171366693
 10
5.0975828769
 20
3.6156953772
 10
5.0538255751
 20
3.6142359084
 10
4.9991567477
 20
3.6127745435
 10
4.935750229
 20
3.6113303801
 10
4.8650455896
 20
3.6098964454
 10
4.7883926141
 20
3.6084647773
 10
4.7072962886
 20
3.6070302615
  0
LWPOLYLINE
  5
4F5
100
AcDbEntity
  8
02___PRT_ALL_AXES
100
AcDbPolyline
 62
7
  6
CONTINUOUS
 90
4
 70
0
 10
4.8295828182
 20
3.5811291078
 10
4.7886427125
 20
3.5721232853
 10
4.7478546851
 20
3.5646267883
 10
4.7072962886
 20
3.5587337858
  0
LWPOLYLINE
  5
4F6
100
AcDbEntity
  8
0
100
AcDbPolyline
 62
7
  6
CONTINUOUS
 90
20
 70
0
 10
4.3902883969
 20
3.4062244091
 10
4.3951413035
 20
3.4072821277
 10
4.4052518952
 20
3.4082875464
 10
4.4204583145
 20
3.409292965
 10
4.4403698861
 20
3.4102983837
 10
4.4644750523
 20
3.4113038024
 10
4.4921545159
 20
3.4123092211
 10
4.5226971504
 20
3.4133146397
 10
4.5553182706
 20
3.4143200584
 10
4.5891797917
 20
3.4153254771
 10
4.6234117612
 20
3.4163308958
 10
4.6571347092
 20
3.4173363144
 10
4.6894822436
 20
3.4183417331
 10
4.7196233082
 20
3.4193471518
 10
4.7467835347
 20
3.4203525705
 10
4.7702651368
 20
3.4213579892
 10
4.7894648374
 20
3.4223634078
 10
4.8038893679
 20
3.4233688265
 10
4.8131681408
 20
3.4243742452
 10
4.8169094215
 20
3.4252732135
  0
LINE
  5
4F7
100
AcDbEntity
  8
0
100
AcDbLine
 62
7
  6
CONTINUOUS
 10
5.1154099328
 20
3.4728354254
 11
4.0917878855
 21
3.4728354254
  0
LINE
  5
4F8
100
AcDbEntity
  8
0
100
AcDbLine
 62
9
  6
CONTINUOUS
 10
4.0524178068
 20
3.5122055042
 11
5.1547800115
 21
3.5122055042
  0
LWPOLYLINE
  5
4F9
100
AcDbEntity
  8
02___PRT_ALL_AXES
100
AcDbPolyline
 62
7
  6
CONTINUOUS
 90
4
 70
0
 10
4.4999015297
 20
3.5551760224
 10
4.4593732582
 20
3.5597273201
 10
4.4185897799
 20
3.5659258205
 10
4.3776150001
 20
3.5736952864
  0
LINE
  5
4FA
100
AcDbEntity
  8
0
100
AcDbLine
 62
7
  6
CONTINUOUS
 10
4.017210494
 20
3.7395530053
 11
4.0526580594
 21
3.7190789582
  0
LINE
  5
4FB
100
AcDbEntity
  8
0
100
AcDbLine
 62
7
  6
CONTINUOUS
 10
4.017210494
 20
3.7986081234
 11
4.0526580594
 21
3.7781340763
  0
LINE
  5
4FC
100
AcDbEntity
  8
0
100
AcDbLine
 62
7
  6
CONTINUOUS
 10
4.847629823
 20
3.2506726916
 11
4.8174597363
 21
3.2681110161
  0
LINE
  5
4FD
100
AcDbEntity
  8
0
100
AcDbLine
 62
7
  6
CONTINUOUS
 10
4.847629823
 20
3.2900427704
 11
4.8174597363
 21
3.3074810949
  0
LINE
  5
4FE
100
AcDbEntity
  8
0
100
AcDbLine
 62
7
  6
CONTINUOUS
 10
4.847629823
 20
3.3294128491
 11
4.8174597363
 21
3.3468511736
  0
LINE
  5
4FF
100
AcDbEntity
  8
02___PRT_ALL_AXES
100
AcDbLine
 62
7
  6
CONTINUOUS
 10
4.017210494
 20
3.8576632415
 11
4.0169847359
 21
3.8579240081
  0
LINE
  5
500
100
AcDbEntity
  8
02___PRT_ALL_AXES
100
AcDbLine
 62
7
  6
CONTINUOUS
 10
4.017210494
 20
3.9167183597
 11
4.0169847359
 21
3.9169791262
  0
LINE
  5
501
100
AcDbEntity
  8
02___PRT_ALL_AXES
100
AcDbLine
 62
7
  6
CONTINUOUS
 10
4.017210494
 20
3.9757734778
 11
4.0169847359
 21
3.9760342443
  0
LINE
  5
502
100
AcDbEntity
  8
02___PRT_ALL_AXES
100
AcDbLine
 62
7
  6
CONTINUOUS
 10
4.0169847359
 20
3.9834161341
 11
4.017210494
 21
3.9836769007
  0
LINE
  5
503
100
AcDbEntity
  8
02___PRT_ALL_AXES
100
AcDbLine
 62
7
  6
CONTINUOUS
 10
4.0169847359
 20
3.924361016
 11
4.017210494
 21
3.9246217826
  0
LINE
  5
504
100
AcDbEntity
  8
02___PRT_ALL_AXES
100
AcDbLine
 62
7
  6
CONTINUOUS
 10
4.0169847359
 20
3.8653058979
 11
4.017210494
 21
3.8655666645
  0
LINE
  5
505
100
AcDbEntity
  8
0
100
AcDbLine
 62
7
  6
CONTINUOUS
 10
4.0526580594
 20
4.1813163021
 11
4.017210494
 21
4.160842255
  0
LINE
  5
506
100
AcDbEntity
  8
0
100
AcDbLine
 62
7
  6
CONTINUOUS
 10
4.0526580594
 20
4.122261184
 11
4.017210494
 21
4.1017871369
  0
LWPOLYLINE
  5
507
100
AcDbEntity
  8
02___PRT_ALL_AXES
100
AcDbPolyline
 62
7
  6
CONTINUOUS
 90
9
 70
0
 10
4.0169847359
 20
4.1531995987
 10
4.0187846048
 20
4.1539360566
 10
4.0331173548
 20
4.1554089724
 10
4.0614315848
 20
4.1568818883
 10
4.1030333638
 20
4.1583548041
 10
4.1569031068
 20
4.15982772
 10
4.2217205629
 20
4.1613006358
 10
4.2958971726
 20
4.1627735517
 10
4.3776150001
 20
4.1642464675
  0
LWPOLYLINE
  5
508
100
AcDbEntity
  8
02___PRT_ALL_AXES
100
AcDbPolyline
 62
7
  6
CONTINUOUS
 90
10
 70
0
 10
5.1547800115
 20
3.7381254518
 10
5.1484707824
 20
3.736701924
 10
5.1294688124
 20
3.7352659752
 10
5.0980871277
 20
3.7338250381
 10
5.0544900509
 20
3.732365816
 10
4.9999598738
 20
3.7309044667
 10
4.93664351
 20
3.7294597187
 10
4.866281682
 20
3.7280306414
 10
4.7892381924
 20
3.7265903229
 10
4.7072962886
 20
3.7251404977
  0
LWPOLYLINE
  5
509
100
AcDbEntity
  8
02___PRT_ALL_AXES
100
AcDbPolyline
 62
7
  6
CONTINUOUS
 90
6
 70
0
 10
5.1547800115
 20
3.6790702775
 10
5.1481529735
 20
3.6776113244
 10
5.1287472302
 20
3.6761700629
 10
5.0972921513
 20
3.6747393329
 10
5.0544757282
 20
3.6733102732
 10
5.0009686002
 20
3.671874136
  0
LWPOLYLINE
  5
50A
100
AcDbEntity
  8
02___PRT_ALL_AXES
100
AcDbPolyline
 62
7
  6
CONTINUOUS
 90
4
 70
0
 10
4.8295828182
 20
3.6401842259
 10
4.7886057385
 20
3.6311709245
 10
4.7478254446
 20
3.6236770858
 10
4.7072962886
 20
3.6177889039
  0
LWPOLYLINE
  5
50B
100
AcDbEntity
  8
02___PRT_ALL_AXES
100
AcDbPolyline
 62
7
  6
CONTINUOUS
 90
4
 70
0
 10
4.3776150001
 20
3.5810771762
 10
4.4185859259
 20
3.5900892329
 10
4.4593657546
 20
3.5975832251
 10
4.4999015297
 20
3.6034724982
  0
LWPOLYLINE
  5
50C
100
AcDbEntity
  8
02___PRT_ALL_AXES
100
AcDbPolyline
 62
7
  6
CONTINUOUS
 90
9
 70
0
 10
4.8295828182
 20
3.5811291078
 10
4.9113006457
 20
3.5826020236
 10
4.9854772554
 20
3.5840749395
 10
5.0502947115
 20
3.5855478553
 10
5.1041644545
 20
3.5870207712
 10
5.1457662335
 20
3.588493687
 10
5.1740804635
 20
3.5899666029
 10
5.1884132135
 20
3.5914395187
 10
5.1899873244
 20
3.5919152101
  0
LWPOLYLINE
  5
50D
100
AcDbEntity
  8
02___PRT_ALL_AXES
100
AcDbPolyline
 62
7
  6
CONTINUOUS
 90
9
 70
0
 10
4.8295828182
 20
3.5885109976
 10
4.9113006457
 20
3.5899839134
 10
4.9854772554
 20
3.5914568292
 10
5.0502947115
 20
3.5929297451
 10
5.1041644545
 20
3.5944026609
 10
5.1457662335
 20
3.5958755768
 10
5.1740804635
 20
3.5973484926
 10
5.1884132135
 20
3.5988214085
 10
5.1902130824
 20
3.5995578664
  0
LWPOLYLINE
  5
50E
100
AcDbEntity
  8
02___PRT_ALL_AXES
100
AcDbPolyline
 62
7
  6
CONTINUOUS
 90
9
 70
0
 10
4.8295828182
 20
3.6401842259
 10
4.9113006457
 20
3.6416571417
 10
4.9854772554
 20
3.6431300576
 10
5.0502947115
 20
3.6446029734
 10
5.1041644545
 20
3.6460758893
 10
5.1457662335
 20
3.6475488051
 10
5.1740804635
 20
3.649021721
 10
5.1884132135
 20
3.6504946368
 10
5.1899873244
 20
3.6509703282
  0
LWPOLYLINE
  5
50F
100
AcDbEntity
  8
02___PRT_ALL_AXES
100
AcDbPolyline
 62
7
  6
CONTINUOUS
 90
10
 70
0
 10
4.7072962886
 20
3.5587337858
 10
4.7883926141
 20
3.5601683016
 10
4.8650455896
 20
3.5615999697
 10
4.935750229
 20
3.5630339044
 10
4.9991567477
 20
3.5644780677
 10
5.0538255751
 20
3.5659394327
 10
5.0975828769
 20
3.5673989015
 10
5.1291327327
 20
3.5688401935
 10
5.1482524282
 20
3.5702707413
 10
5.1545397589
 20
3.5714411629
  0
LWPOLYLINE
  5
510
100
AcDbEntity
  8
02___PRT_ALL_AXES
100
AcDbPolyline
 62
7
  6
CONTINUOUS
 90
10
 70
0
 10
4.4999015297
 20
3.6034724982
 10
4.4174776962
 20
3.6020139437
 10
4.3397532019
 20
3.6005597827
 10
4.2691899499
 20
3.5991240443
 10
4.2068025922
 20
3.5976978397
 10
4.1534128733
 20
3.5962680522
 10
4.1101793664
 20
3.5948290294
 10
4.0785969222
 20
3.5933960203
 10
4.0591409918
 20
3.5919571203
 10
4.0526580594
 20
3.590765121
  0
LWPOLYLINE
  5
511
100
AcDbEntity
  8
02___PRT_ALL_AXES
100
AcDbPolyline
 62
7
  6
CONTINUOUS
 90
10
 70
0
 10
4.7072962886
 20
3.6177889039
 10
4.7898359087
 20
3.6192495561
 10
4.8676606461
 20
3.6207058157
 10
4.9383241925
 20
3.6221441453
 10
5.0009686002
 20
3.6235776602
 10
5.0544757282
 20
3.6250137975
 10
5.0972921513
 20
3.6264428571
 10
5.1287472302
 20
3.6278735871
 10
5.1481529735
 20
3.6293148486
 10
5.1545397589
 20
3.630496281
  0
LWPOLYLINE
  5
512
100
AcDbEntity
  8
02___PRT_ALL_AXES
100
AcDbPolyline
 62
7
  6
CONTINUOUS
 90
5
 70
0
 10
4.4999015297
 20
3.6142311406
 10
4.4696492047
 20
3.6174734752
 10
4.438469208
 20
3.6217621749
 10
4.4073915043
 20
3.6269551268
 10
4.3776150001
 20
3.6327504045
  0
LWPOLYLINE
  5
513
100
AcDbEntity
  8
02___PRT_ALL_AXES
100
AcDbPolyline
 62
7
  6
CONTINUOUS
 90
4
 70
0
 10
4.7072962886
 20
3.6070302615
 10
4.7478641058
 20
3.6024737264
 10
4.7886556418
 20
3.5962723143
 10
4.8295828182
 20
3.5885109976
  0
LINE
  5
514
100
AcDbEntity
  8
0
100
AcDbLine
 62
7
  6
CONTINUOUS
 10
4.017210494
 20
3.8576632415
 11
4.0526580594
 21
3.8371891944
  0
LINE
  5
515
100
AcDbEntity
  8
0
100
AcDbLine
 62
7
  6
CONTINUOUS
 10
4.017210494
 20
3.9167183597
 11
4.0526580594
 21
3.8962443125
  0
LINE
  5
516
100
AcDbEntity
  8
0
100
AcDbLine
 62
7
  6
CONTINUOUS
 10
4.847629823
 20
3.3687829279
 11
4.8174597363
 21
3.3862212523
  0
LINE
  5
517
100
AcDbEntity
  8
0
100
AcDbLine
 62
7
  6
CONTINUOUS
 10
4.847629823
 20
3.4081530066
 11
4.8174597363
 21
3.4255913311
  0
LINE
  5
518
100
AcDbEntity
  8
02___PRT_ALL_AXES
100
AcDbLine
 62
7
  6
CONTINUOUS
 10
4.017210494
 20
4.0348285959
 11
4.0169847359
 21
4.0350893625
  0
LINE
  5
519
100
AcDbEntity
  8
02___PRT_ALL_AXES
100
AcDbLine
 62
7
  6
CONTINUOUS
 10
4.017210494
 20
4.093883714
 11
4.0169847359
 21
4.0941444806
  0
LINE
  5
51A
100
AcDbEntity
  8
0
100
AcDbLine
 62
7
  6
CONTINUOUS
 10
4.8478705627
 20
3.1322842437
 11
4.847629823
 21
3.1325624554
  0
LINE
  5
51B
100
AcDbEntity
  8
0
100
AcDbLine
 62
7
  6
CONTINUOUS
 10
4.847629823
 20
3.1719325342
 11
4.8478705627
 21
3.1716543171
  0
LINE
  5
51C
100
AcDbEntity
  8
02___PRT_ALL_AXES
100
AcDbLine
 62
7
  6
CONTINUOUS
 10
4.0169847359
 20
3.8062507798
 11
4.017210494
 21
3.8065115464
  0
LINE
  5
51D
100
AcDbEntity
  8
02___PRT_ALL_AXES
100
AcDbLine
 62
7
  6
CONTINUOUS
 10
4.0169847359
 20
3.7471956617
 11
4.017210494
 21
3.7474564282
  0
LINE
  5
51E
100
AcDbEntity
  8
0
100
AcDbLine
 62
7
  6
CONTINUOUS
 10
4.0526580594
 20
4.0632060659
 11
4.017210494
 21
4.0427320188
  0
LINE
  5
51F
100
AcDbEntity
  8
0
100
AcDbLine
 62
7
  6
CONTINUOUS
 10
4.0526580594
 20
4.0041509478
 11
4.017210494
 21
3.9836769007
  0
LWPOLYLINE
  5
520
100
AcDbEntity
  8
02___PRT_ALL_AXES
100
AcDbPolyline
 62
7
  6
CONTINUOUS
 90
9
 70
0
 10
4.0169847359
 20
4.0941444806
 10
4.0187846048
 20
4.0948809385
 10
4.0331173548
 20
4.0963538543
 10
4.0614315848
 20
4.0978267702
 10
4.1030333638
 20
4.099299686
 10
4.1569031068
 20
4.1007726019
 10
4.2217205629
 20
4.1022455177
 10
4.2958971726
 20
4.1037184336
 10
4.3776150001
 20
4.1051913494
  0
LWPOLYLINE
  5
521
100
AcDbEntity
  8
02___PRT_ALL_AXES
100
AcDbPolyline
 62
7
  6
CONTINUOUS
 90
9
 70
0
 10
4.017210494
 20
4.160842255
 10
4.0187846048
 20
4.1613179464
 10
4.0331173548
 20
4.1627908622
 10
4.0614315848
 20
4.1642637781
 10
4.1030333638
 20
4.1657366939
 10
4.1569031068
 20
4.1672096097
 10
4.2217205629
 20
4.1686825256
 10
4.2958971726
 20
4.1701554414
 10
4.3776150001
 20
4.1716283573
  0
LWPOLYLINE
  5
522
100
AcDbEntity
  8
02___PRT_ALL_AXES
100
AcDbPolyline
 62
7
  6
CONTINUOUS
 90
9
 70
0
 10
4.017210494
 20
4.1017871369
 10
4.0187846048
 20
4.1022628283
 10
4.0331173548
 20
4.1037357441
 10
4.0614315848
 20
4.1052086599
 10
4.1030333638
 20
4.1066815758
 10
4.1569031068
 20
4.1081544916
 10
4.2217205629
 20
4.1096274075
 10
4.2958971726
 20
4.1111003233
 10
4.3776150001
 20
4.1125732392
  0
LWPOLYLINE
  5
523
100
AcDbEntity
  8
02___PRT_ALL_AXES
100
AcDbPolyline
 62
7
  6
CONTINUOUS
 90
5
 70
0
 10
4.3776150001
 20
3.6401322943
 10
4.4074074002
 20
3.6468283547
 10
4.4383439347
 20
3.6529657006
 10
4.4694767393
 20
3.658256515
 10
4.4999015297
 20
3.6625276163
  0
LWPOLYLINE
  5
524
100
AcDbEntity
  8
02___PRT_ALL_AXES
100
AcDbPolyline
 62
7
  6
CONTINUOUS
 90
10
 70
0
 10
5.1547800115
 20
3.7971805135
 10
5.1482829762
 20
3.7957359701
 10
5.1290333467
 20
3.7942964077
 10
5.0978441395
 20
3.7928707857
 10
5.0548008314
 20
3.7914301546
 10
5.000871558
 20
3.7899819846
 10
4.9380410736
 20
3.7885447821
 10
4.8674307054
 20
3.7871080612
 10
4.7897114259
 20
3.7856540128
 10
4.7072962886
 20
3.7841956159
  0
LWPOLYLINE
  5
525
100
AcDbEntity
  8
02___PRT_ALL_AXES
100
AcDbPolyline
 62
7
  6
CONTINUOUS
 90
4
 70
0
 10
4.8295828182
 20
3.699239344
 10
4.7886057385
 20
3.6902260426
 10
4.7478254446
 20
3.6827322039
 10
4.7072962886
 20
3.676844022
  0
LWPOLYLINE
  5
526
100
AcDbEntity
  8
02___PRT_ALL_AXES
100
AcDbPolyline
 62
7
  6
CONTINUOUS
 90
4
 70
0
 10
4.8295828182
 20
3.7582944621
 10
4.7886057385
 20
3.7492811607
 10
4.7478254446
 20
3.741787322
 10
4.7072962886
 20
3.7358991401
  0
LWPOLYLINE
  5
527
100
AcDbEntity
  8
02___PRT_ALL_AXES
100
AcDbPolyline
 62
7
  6
CONTINUOUS
 90
10
 70
0
 10
4.0524178068
 20
3.6012462659
 10
4.0590923861
 20
3.6027104302
 10
4.0782934768
 20
3.6041376226
 10
4.1098323608
 20
3.6055743752
 10
4.1534922081
 20
3.6070290389
 10
4.2079913576
 20
3.6084856412
 10
4.2711579132
 20
3.6099248306
 10
4.3417736859
 20
3.6113576227
 10
4.4188739767
 20
3.6127978695
 10
4.4999015297
 20
3.6142311406
  0
LWPOLYLINE
  5
528
100
AcDbEntity
  8
02___PRT_ALL_AXES
100
AcDbPolyline
 62
7
  6
CONTINUOUS
 90
10
 70
0
 10
4.0524178068
 20
3.5421911244
 10
4.0591409918
 20
3.5436606445
 10
4.0785969222
 20
3.5450995445
 10
4.1101793664
 20
3.5465325536
 10
4.1534128733
 20
3.5479715764
 10
4.2068025922
 20
3.5494013639
 10
4.2691899499
 20
3.5508275685
 10
4.3397532019
 20
3.5522633069
 10
4.4174776962
 20
3.5537174679
 10
4.4999015297
 20
3.5551760224
  0
LINE
  5
529
100
AcDbEntity
  8
02___PRT_ALL_AXES
100
AcDbLine
 62
7
  6
CONTINUOUS
 10
5.0009686002
 20
3.671874136
 11
4.9383241925
 21
3.6704406211
  0
LINE
  5
52A
100
AcDbEntity
  8
02___PRT_ALL_AXES
100
AcDbLine
 62
7
  6
CONTINUOUS
 10
4.9383241925
 20
3.6704406211
 11
4.8676606461
 21
3.6690022914
  0
LINE
  5
52B
100
AcDbEntity
  8
02___PRT_ALL_AXES
100
AcDbLine
 62
7
  6
CONTINUOUS
 10
4.2693274699
 20
3.6689407544
 11
4.3398790457
 21
3.6703759871
  0
LWPOLYLINE
  5
52C
100
AcDbEntity
  8
02___PRT_ALL_AXES
100
AcDbPolyline
 62
7
  6
CONTINUOUS
 90
3
 70
0
 10
4.8676606461
 20
3.6690022914
 10
4.7898359087
 20
3.6675460319
 10
4.7072962886
 20
3.6660853796
  0
LWPOLYLINE
  5
52D
100
AcDbEntity
  8
02___PRT_ALL_AXES
100
AcDbPolyline
 62
7
  6
CONTINUOUS
 90
3
 70
0
 10
4.3398790457
 20
3.6703759871
 10
4.4175440751
 20
3.6718289067
 10
4.4999015297
 20
3.6732862587
  0
LWPOLYLINE
  5
52E
100
AcDbEntity
  8
02___PRT_ALL_AXES
100
AcDbPolyline
 62
7
  6
CONTINUOUS
 90
9
 70
0
 10
4.8295828182
 20
3.6475661157
 10
4.9113006457
 20
3.6490390315
 10
4.9854772554
 20
3.6505119474
 10
5.0502947115
 20
3.6519848632
 10
5.1041644545
 20
3.653457779
 10
5.1457662335
 20
3.6549306949
 10
5.1740804635
 20
3.6564036107
 10
5.1884132135
 20
3.6578765266
 10
5.1902130824
 20
3.6586129845
  0
LWPOLYLINE
  5
52F
100
AcDbEntity
  8
02___PRT_ALL_AXES
100
AcDbPolyline
 62
7
  6
CONTINUOUS
 90
9
 70
0
 10
4.8295828182
 20
3.699239344
 10
4.9113006457
 20
3.7007122599
 10
4.9854772554
 20
3.7021851757
 10
5.0502947115
 20
3.7036580915
 10
5.1041644545
 20
3.7051310074
 10
5.1457662335
 20
3.7066039232
 10
5.1740804635
 20
3.7080768391
 10
5.1884132135
 20
3.7095497549
 10
5.1899873244
 20
3.7100254463
  0
LWPOLYLINE
  5
530
100
AcDbEntity
  8
02___PRT_ALL_AXES
100
AcDbPolyline
 62
7
  6
CONTINUOUS
 90
9
 70
0
 10
4.8295828182
 20
3.7066212338
 10
4.9113006457
 20
3.7080941496
 10
4.9854772554
 20
3.7095670655
 10
5.0502947115
 20
3.7110399813
 10
5.1041644545
 20
3.7125128972
 10
5.1457662335
 20
3.713985813
 10
5.1740804635
 20
3.7154587288
 10
5.1884132135
 20
3.7169316447
 10
5.1902130824
 20
3.7176681026
  0
LWPOLYLINE
  5
531
100
AcDbEntity
  8
02___PRT_ALL_AXES
100
AcDbPolyline
 62
7
  6
CONTINUOUS
 90
10
 70
0
 10
4.4999015297
 20
3.6625276163
 10
4.4188739767
 20
3.6610943453
 10
4.3417736859
 20
3.6596540985
 10
4.2711579132
 20
3.6582213064
 10
4.2079913576
 20
3.656782117
 10
4.1534922081
 20
3.6553255146
 10
4.1098323608
 20
3.653870851
 10
4.0782934768
 20
3.6524340983
 10
4.0590923861
 20
3.651006906
 10
4.0526580594
 20
3.6498202391
  0
LWPOLYLINE
  5
532
100
AcDbEntity
  8
02___PRT_ALL_AXES
100
AcDbPolyline
 62
7
  6
CONTINUOUS
 90
10
 70
0
 10
4.7072962886
 20
3.676844022
 10
4.7892381924
 20
3.6782938471
 10
4.866281682
 20
3.6797341656
 10
4.93664351
 20
3.6811632429
 10
4.9999598738
 20
3.6826079909
 10
5.0544900509
 20
3.6840693402
 10
5.0980871277
 20
3.6855285623
 10
5.1294688124
 20
3.6869694995
 10
5.1484707824
 20
3.6884054482
 10
5.1545397589
 20
3.6895513991
  0
LWPOLYLINE
  5
533
100
AcDbEntity
  8
02___PRT_ALL_AXES
100
AcDbPolyline
 62
7
  6
CONTINUOUS
 90
10
 70
0
 10
4.4999015297
 20
3.7215827344
 10
4.4175440751
 20
3.7201253824
 10
4.3398790457
 20
3.7186724629
 10
4.2693274699
 20
3.7172372302
 10
4.2066184949
 20
3.7158035518
 10
4.1524968543
 20
3.71435116
 10
4.1091377123
 20
3.7128992371
 10
4.0778404135
 20
3.711463592
 10
4.0587813256
 20
3.7100274312
 10
4.0526580594
 20
3.7088753573
  0
LWPOLYLINE
  5
534
100
AcDbEntity
  8
02___PRT_ALL_AXES
100
AcDbPolyline
 62
7
  6
CONTINUOUS
 90
4
 70
0
 10
4.4999015297
 20
3.6732862587
 10
4.4593732582
 20
3.6778375563
 10
4.4185897799
 20
3.6840360567
 10
4.3776150001
 20
3.6918055226
  0
LWPOLYLINE
  5
535
100
AcDbEntity
  8
02___PRT_ALL_AXES
100
AcDbPolyline
 62
7
  6
CONTINUOUS
 90
4
 70
0
 10
4.7072962886
 20
3.6660853796
 10
4.7478314801
 20
3.6615331656
 10
4.7886144359
 20
3.6553344866
 10
4.8295828182
 20
3.6475661157
  0
LWPOLYLINE
  5
536
100
AcDbEntity
  8
02___PRT_ALL_AXES
100
AcDbPolyline
 62
7
  6
CONTINUOUS
 90
4
 70
0
 10
4.4999015297
 20
3.7323413768
 10
4.4593732582
 20
3.7368926744
 10
4.4185897799
 20
3.7430911748
 10
4.3776150001
 20
3.7508606407
  0
LINE
  5
537
100
AcDbEntity
  8
0
100
AcDbLine
 62
7
  6
CONTINUOUS
 10
4.017210494
 20
3.9757734778
 11
4.0526580594
 21
3.9552994306
  0
LINE
  5
538
100
AcDbEntity
  8
02___PRT_ALL_AXES
100
AcDbLine
 62
7
  6
CONTINUOUS
 10
4.017210494
 20
4.1529388321
 11
4.0169847359
 21
4.1531995987
  0
LINE
  5
539
100
AcDbEntity
  8
0
100
AcDbLine
 62
7
  6
CONTINUOUS
 10
4.847629823
 20
3.2113026129
 11
4.8478705627
 21
3.2110244018
  0
LINE
  5
53A
100
AcDbEntity
  8
0
100
AcDbLine
 62
7
  6
CONTINUOUS
 10
4.847629823
 20
3.2506726916
 11
4.8478705627
 21
3.2503944806
  0
LINE
  5
53B
100
AcDbEntity
  8
0
100
AcDbLine
 62
7
  6
CONTINUOUS
 10
4.847629823
 20
3.2900427704
 11
4.8478705627
 21
3.2897645635
  0
LINE
  5
53C
100
AcDbEntity
  8
02___PRT_ALL_AXES
100
AcDbLine
 62
7
  6
CONTINUOUS
 10
4.3593272556
 20
3.4576548828
 11
4.3593272556
 21
3.423622827
  0
LINE
  5
53D
100
AcDbEntity
  8
02___PRT_ALL_AXES
100
AcDbLine
 62
7
  6
CONTINUOUS
 10
4.3593272556
 20
3.3881897562
 11
4.3593272556
 21
3.3842527483
  0
LINE
  5
53E
100
AcDbEntity
  8
02___PRT_ALL_AXES
100
AcDbLine
 62
7
  6
CONTINUOUS
 10
4.3593272556
 20
3.3488196774
 11
4.3593272556
 21
3.3448826695
  0
LINE
  5
53F
100
AcDbEntity
  8
02___PRT_ALL_AXES
100
AcDbLine
 62
7
  6
CONTINUOUS
 10
4.3593272556
 20
3.3094495987
 11
4.3593272556
 21
3.3055125908
  0
LINE
  5
540
100
AcDbEntity
  8
02___PRT_ALL_AXES
100
AcDbLine
 62
7
  6
CONTINUOUS
 10
4.3593272556
 20
3.2700795199
 11
4.3593272556
 21
3.2661425121
  0
LINE
  5
541
100
AcDbEntity
  8
02___PRT_ALL_AXES
100
AcDbLine
 62
7
  6
CONTINUOUS
 10
4.3593272556
 20
3.2307094412
 11
4.3593272556
 21
3.2267724333
  0
LINE
  5
542
100
AcDbEntity
  8
02___PRT_ALL_AXES
100
AcDbLine
 62
7
  6
CONTINUOUS
 10
4.3593272556
 20
3.1913393625
 11
4.3593272556
 21
3.1874023546
  0
LINE
  5
543
100
AcDbEntity
  8
02___PRT_ALL_AXES
100
AcDbLine
 62
7
  6
CONTINUOUS
 10
4.3593272556
 20
3.1519692837
 11
4.3593272556
 21
3.1480322758
  0
LINE
  5
544
100
AcDbEntity
  8
02___PRT_ALL_AXES
100
AcDbLine
 62
7
  6
CONTINUOUS
 10
4.3776150001
 20
3.5736952864
 11
4.3776150001
 21
3.5810771762
  0
LINE
  5
545
100
AcDbEntity
  8
02___PRT_ALL_AXES
100
AcDbLine
 62
7
  6
CONTINUOUS
 10
4.3776150001
 20
3.6327504045
 11
4.3776150001
 21
3.6401322943
  0
LINE
  5
546
100
AcDbEntity
  8
02___PRT_ALL_AXES
100
AcDbLine
 62
7
  6
CONTINUOUS
 10
4.3776150001
 20
3.6918055226
 11
4.3776150001
 21
3.6991874124
  0
LINE
  5
547
100
AcDbEntity
  8
02___PRT_ALL_AXES
100
AcDbLine
 62
7
  6
CONTINUOUS
 10
4.3776150001
 20
3.7508606407
 11
4.3776150001
 21
3.7582425305
  0
LINE
  5
548
100
AcDbEntity
  8
02___PRT_ALL_AXES
100
AcDbLine
 62
7
  6
CONTINUOUS
 10
4.3776150001
 20
3.8099157588
 11
4.3776150001
 21
3.8172976486
  0
LINE
  5
549
100
AcDbEntity
  8
02___PRT_ALL_AXES
100
AcDbLine
 62
7
  6
CONTINUOUS
 10
4.3776150001
 20
3.868970877
 11
4.3776150001
 21
3.8763527667
  0
LINE
  5
54A
100
AcDbEntity
  8
02___PRT_ALL_AXES
100
AcDbLine
 62
7
  6
CONTINUOUS
 10
4.3776150001
 20
3.9280259951
 11
4.3776150001
 21
3.9354078848
  0
LINE
  5
54B
100
AcDbEntity
  8
02___PRT_ALL_AXES
100
AcDbLine
 62
7
  6
CONTINUOUS
 10
4.3776150001
 20
3.9870811132
 11
4.3776150001
 21
3.9944630029
  0
LINE
  5
54C
100
AcDbEntity
  8
02___PRT_ALL_AXES
100
AcDbLine
 62
7
  6
CONTINUOUS
 10
4.3776150001
 20
4.0461362313
 11
4.3776150001
 21
4.0535181211
  0
LINE
  5
54D
100
AcDbEntity
  8
02___PRT_ALL_AXES
100
AcDbLine
 62
7
  6
CONTINUOUS
 10
4.3776150001
 20
4.1051913494
 11
4.3776150001
 21
4.1125732392
  0
LINE
  5
54E
100
AcDbEntity
  8
02___PRT_ALL_AXES
100
AcDbLine
 62
7
  6
CONTINUOUS
 10
4.3776150001
 20
4.1642464675
 11
4.3776150001
 21
4.1716283573
  0
LINE
  5
54F
100
AcDbEntity
  8
0
100
AcDbLine
 62
7
  6
CONTINUOUS
 10
4.3998587517
 20
3.079134638
 11
4.3998587517
 21
3.0397645593
  0
LINE
  5
550
100
AcDbEntity
  8
0
100
AcDbLine
 62
7
  6
CONTINUOUS
 10
4.4085989092
 20
4.9098432995
 11
4.4085989092
 21
4.9104732207
  0
LINE
  5
551
100
AcDbEntity
  8
02___PRT_ALL_AXES
100
AcDbLine
 62
7
  6
CONTINUOUS
 10
4.0169847359
 20
3.6881405436
 11
4.017210494
 21
3.6884013101
  0
LINE
  5
552
100
AcDbEntity
  8
02___PRT_ALL_AXES
100
AcDbLine
 62
7
  6
CONTINUOUS
 10
4.0169847359
 20
3.6290854254
 11
4.017210494
 21
3.629346192
  0
LINE
  5
553
100
AcDbEntity
  8
0
100
AcDbLine
 62
7
  6
CONTINUOUS
 10
4.0526580594
 20
3.9450958297
 11
4.017210494
 21
3.9246217826
  0
LINE
  5
554
100
AcDbEntity
  8
0
100
AcDbLine
 62
7
  6
CONTINUOUS
 10
4.0526580594
 20
3.8860407116
 11
4.017210494
 21
3.8655666645
  0
LWPOLYLINE
  5
555
100
AcDbEntity
  8
02___PRT_ALL_AXES
100
AcDbPolyline
 62
7
  6
CONTINUOUS
 90
9
 70
0
 10
4.0169847359
 20
4.0350893625
 10
4.0187846048
 20
4.0358258204
 10
4.0331173548
 20
4.0372987362
 10
4.0614315848
 20
4.0387716521
 10
4.1030333638
 20
4.0402445679
 10
4.1569031068
 20
4.0417174838
 10
4.2217205629
 20
4.0431903996
 10
4.2958971726
 20
4.0446633154
 10
4.3776150001
 20
4.0461362313
  0
LWPOLYLINE
  5
556
100
AcDbEntity
  8
02___PRT_ALL_AXES
100
AcDbPolyline
 62
7
  6
CONTINUOUS
 90
9
 70
0
 10
4.0169847359
 20
3.9760342443
 10
4.0187846048
 20
3.9767707023
 10
4.0331173548
 20
3.9782436181
 10
4.0614315848
 20
3.979716534
 10
4.1030333638
 20
3.9811894498
 10
4.1569031068
 20
3.9826623656
 10
4.2217205629
 20
3.9841352815
 10
4.2958971726
 20
3.9856081973
 10
4.3776150001
 20
3.9870811132
  0
LWPOLYLINE
  5
557
100
AcDbEntity
  8
02___PRT_ALL_AXES
100
AcDbPolyline
 62
7
  6
CONTINUOUS
 90
9
 70
0
 10
4.017210494
 20
4.0427320188
 10
4.0187846048
 20
4.0432077101
 10
4.0331173548
 20
4.044680626
 10
4.0614315848
 20
4.0461535418
 10
4.1030333638
 20
4.0476264577
 10
4.1569031068
 20
4.0490993735
 10
4.2217205629
 20
4.0505722894
 10
4.2958971726
 20
4.0520452052
 10
4.3776150001
 20
4.0535181211
  0
LWPOLYLINE
  5
558
100
AcDbEntity
  8
02___PRT_ALL_AXES
100
AcDbPolyline
 62
7
  6
CONTINUOUS
 90
7
 70
0
 10
4.0524178068
 20
3.6603013331
 10
4.0587813256
 20
3.6617309554
 10
4.0778404135
 20
3.6631671162
 10
4.1091377123
 20
3.6646027613
 10
4.1524968543
 20
3.6660546843
 10
4.2066184949
 20
3.6675070761
 10
4.2693274699
 20
3.6689407544
  0
LWPOLYLINE
  5
559
100
AcDbEntity
  8
02___PRT_ALL_AXES
100
AcDbPolyline
 62
7
  6
CONTINUOUS
 90
10
 70
0
 10
5.1547800115
 20
3.8562356551
 10
5.1483979213
 20
3.8548039486
 10
5.1293200945
 20
3.8533677578
 10
5.0980074913
 20
3.8519322012
 10
5.0546444917
 20
3.8504806327
 10
5.0005402613
 20
3.8490289564
 10
4.9378642327
 20
3.8475961071
 10
4.8673161717
 20
3.846160955
 10
4.789649949
 20
3.8447080172
 10
4.7072962886
 20
3.843250734
  0
LWPOLYLINE
  5
55A
100
AcDbEntity
  8
02___PRT_ALL_AXES
100
AcDbPolyline
 62
7
  6
CONTINUOUS
 90
4
 70
0
 10
4.3776150001
 20
3.6991874124
 10
4.4185859259
 20
3.7081994691
 10
4.4593657546
 20
3.7156934613
 10
4.4999015297
 20
3.7215827344
  0
LWPOLYLINE
  5
55B
100
AcDbEntity
  8
02___PRT_ALL_AXES
100
AcDbPolyline
 62
7
  6
CONTINUOUS
 90
4
 70
0
 10
4.8295828182
 20
3.8173495802
 10
4.7886057385
 20
3.8083362788
 10
4.7478254446
 20
3.8008424402
 10
4.7072962886
 20
3.7949542582
  0
LWPOLYLINE
  5
55C
100
AcDbEntity
  8
02___PRT_ALL_AXES
100
AcDbPolyline
 62
7
  6
CONTINUOUS
 90
4
 70
0
 10
4.3776150001
 20
3.7582425305
 10
4.4185859259
 20
3.7672545872
 10
4.4593657546
 20
3.7747485794
 10
4.4999015297
 20
3.7806378525
  0
LWPOLYLINE
  5
55D
100
AcDbEntity
  8
02___PRT_ALL_AXES
100
AcDbPolyline
 62
7
  6
CONTINUOUS
 90
7
 70
0
 10
5.1547800115
 20
3.9152907222
 10
5.1480953993
 20
3.9138254602
 10
5.1288924205
 20
3.9123986988
 10
5.0973451214
 20
3.9109618371
 10
5.053675672
 20
3.9095070693
 10
4.9991699914
 20
3.9080504583
 10
4.9359991117
 20
3.9066112899
  0
LWPOLYLINE
  5
55E
100
AcDbEntity
  8
02___PRT_ALL_AXES
100
AcDbPolyline
 62
7
  6
CONTINUOUS
 90
7
 70
0
 10
4.9380410736
 20
3.7402483063
 10
5.000871558
 20
3.7416855089
 10
5.0548008314
 20
3.7431336788
 10
5.0978441395
 20
3.7445743099
 10
5.1290333467
 20
3.7459999319
 10
5.1482829762
 20
3.7474394944
 10
5.1545397589
 20
3.7486065173
  0
LWPOLYLINE
  5
55F
100
AcDbEntity
  8
02___PRT_ALL_AXES
100
AcDbPolyline
 62
7
  6
CONTINUOUS
 90
7
 70
0
 10
4.2691322066
 20
3.7762881599
 10
4.2063091254
 20
3.7748510622
 10
4.1523932477
 20
3.7734032028
 10
4.109365521
 20
3.7719631389
 10
4.0781733157
 20
3.77053756
 10
4.0589181342
 20
3.7690978649
 10
4.0526580594
 20
3.7679304754
  0
LWPOLYLINE
  5
560
100
AcDbEntity
  8
02___PRT_ALL_AXES
100
AcDbPolyline
 62
7
  6
CONTINUOUS
 90
8
 70
0
 10
4.9113006457
 20
3.8262043858
 10
4.9854772554
 20
3.8276773017
 10
5.0502947115
 20
3.8291502175
 10
5.1041644545
 20
3.8306231334
 10
5.1457662335
 20
3.8320960492
 10
5.1740804635
 20
3.8335689651
 10
5.1884132135
 20
3.8350418809
 10
5.1902130824
 20
3.8357783388
  0
LWPOLYLINE
  5
561
100
AcDbEntity
  8
02___PRT_ALL_AXES
100
AcDbPolyline
 62
7
  6
CONTINUOUS
 90
9
 70
0
 10
4.8295828182
 20
3.7582944621
 10
4.9113006457
 20
3.759767378
 10
4.9854772554
 20
3.7612402938
 10
5.0502947115
 20
3.7627132097
 10
5.1041644545
 20
3.7641861255
 10
5.1457662335
 20
3.7656590413
 10
5.1740804635
 20
3.7671319572
 10
5.1884132135
 20
3.768604873
 10
5.1899873244
 20
3.7690805644
  0
LWPOLYLINE
  5
562
100
AcDbEntity
  8
02___PRT_ALL_AXES
100
AcDbPolyline
 62
7
  6
CONTINUOUS
 90
9
 70
0
 10
4.8295828182
 20
3.7656763519
 10
4.9113006457
 20
3.7671492677
 10
4.9854772554
 20
3.7686221836
 10
5.0502947115
 20
3.7700950994
 10
5.1041644545
 20
3.7715680153
 10
5.1457662335
 20
3.7730409311
 10
5.1740804635
 20
3.774513847
 10
5.1884132135
 20
3.7759867628
 10
5.1902130824
 20
3.7767232207
  0
LWPOLYLINE
  5
563
100
AcDbEntity
  8
02___PRT_ALL_AXES
100
AcDbPolyline
 62
7
  6
CONTINUOUS
 90
9
 70
0
 10
4.8295828182
 20
3.8173495802
 10
4.9113006457
 20
3.8188224961
 10
4.9854772554
 20
3.8202954119
 10
5.0502947115
 20
3.8217683278
 10
5.1041644545
 20
3.8232412436
 10
5.1457662335
 20
3.8247141595
 10
5.1740804635
 20
3.8261870753
 10
5.1884132135
 20
3.8276599911
 10
5.1899873244
 20
3.8281356825
  0
LINE
  5
564
100
AcDbEntity
  8
02___PRT_ALL_AXES
100
AcDbLine
 62
7
  6
CONTINUOUS
 10
4.2958971726
 20
3.808442843
 11
4.3776150001
 21
3.8099157588
  0
LINE
  5
565
100
AcDbEntity
  8
02___PRT_ALL_AXES
100
AcDbLine
 62
7
  6
CONTINUOUS
 10
4.8295828182
 20
3.82473147
 11
4.9113006457
 21
3.8262043858
  0
LWPOLYLINE
  5
566
100
AcDbEntity
  8
02___PRT_ALL_AXES
100
AcDbPolyline
 62
7
  6
CONTINUOUS
 90
4
 70
0
 10
4.7072962886
 20
3.7358991401
 10
4.7897114259
 20
3.7373575371
 10
4.8674307054
 20
3.7388115854
 10
4.9380410736
 20
3.7402483063
  0
LWPOLYLINE
  5
567
100
AcDbEntity
  8
02___PRT_ALL_AXES
100
AcDbPolyline
 62
7
  6
CONTINUOUS
 90
4
 70
0
 10
4.4999015297
 20
3.7806378525
 10
4.4174720281
 20
3.7791791953
 10
4.3397471252
 20
3.777725019
 10
4.2691322066
 20
3.7762881599
  0
LWPOLYLINE
  5
568
100
AcDbEntity
  8
02___PRT_ALL_AXES
100
AcDbPolyline
 62
7
  6
CONTINUOUS
 90
10
 70
0
 10
4.7072962886
 20
3.7949542582
 10
4.789649949
 20
3.7964115415
 10
4.8673161717
 20
3.7978644792
 10
4.9378642327
 20
3.7992996313
 10
5.0005402613
 20
3.8007324807
 10
5.0546444917
 20
3.8021841569
 10
5.0980074913
 20
3.8036357254
 10
5.1293200945
 20
3.805071282
 10
5.1483979213
 20
3.8065074729
 10
5.1545397589
 20
3.8076616354
  0
LWPOLYLINE
  5
569
100
AcDbEntity
  8
02___PRT_ALL_AXES
100
AcDbPolyline
 62
7
  6
CONTINUOUS
 90
4
 70
0
 10
4.7072962886
 20
3.7251404977
 10
4.7478314801
 20
3.7205882837
 10
4.7886144359
 20
3.7143896047
 10
4.8295828182
 20
3.7066212338
  0
LWPOLYLINE
  5
56A
100
AcDbEntity
  8
02___PRT_ALL_AXES
100
AcDbPolyline
 62
7
  6
CONTINUOUS
 90
4
 70
0
 10
4.4999015297
 20
3.7913964949
 10
4.4593732582
 20
3.7959477925
 10
4.4185897799
 20
3.8021462929
 10
4.3776150001
 20
3.8099157588
  0
LWPOLYLINE
  5
56B
100
AcDbEntity
  8
02___PRT_ALL_AXES
100
AcDbPolyline
 62
7
  6
CONTINUOUS
 90
4
 70
0
 10
4.7072962886
 20
3.7841956159
 10
4.7478314801
 20
3.7796434018
 10
4.7886144359
 20
3.7734447228
 10
4.8295828182
 20
3.7656763519
  0
LINE
  5
56C
100
AcDbEntity
  8
0
100
AcDbLine
 62
7
  6
CONTINUOUS
 10
4.017210494
 20
4.0348285959
 11
4.0526580594
 21
4.0143545488
  0
LINE
  5
56D
100
AcDbEntity
  8
0
100
AcDbLine
 62
7
  6
CONTINUOUS
 10
4.017210494
 20
4.093883714
 11
4.0526580594
 21
4.0734096669
  0
LINE
  5
56E
100
AcDbEntity
  8
0
100
AcDbLine
 62
7
  6
CONTINUOUS
 10
4.847629823
 20
3.3294128491
 11
4.8478705627
 21
3.329134638
  0
LINE
  5
56F
100
AcDbEntity
  8
0
100
AcDbLine
 62
7
  6
CONTINUOUS
 10
4.847629823
 20
3.3687829279
 11
4.8478705627
 21
3.3685047168
  0
LINE
  5
570
100
AcDbEntity
  8
0
100
AcDbLine
 62
7
  6
CONTINUOUS
 10
4.847629823
 20
3.4081530066
 11
4.8478705627
 21
3.4078747955
  0
LWPOLYLINE
  5
571
100
AcDbEntity
  8
0
100
AcDbPolyline
 62
7
  6
CONTINUOUS
 90
6
 70
0
 10
4.4999015297
 20
3.5122055042
 10
4.5000855469
 20
3.5000084011
 10
4.5006205065
 20
3.4890236468
 10
4.5014575168
 20
3.4803243874
 10
4.5025197349
 20
3.4747518825
 10
4.5037082442
 20
3.4728354254
  0
LWPOLYLINE
  5
572
100
AcDbEntity
  8
0
100
AcDbPolyline
 62
7
  6
CONTINUOUS
 90
6
 70
0
 10
4.4999015297
 20
4.2208669215
 10
4.4997179492
 20
4.2330604358
 10
4.4991878828
 20
4.2440432581
 10
4.4983691563
 20
4.2527433226
 10
4.4973483481
 20
4.2583187025
 10
4.4962296954
 20
4.2602370002
  0
LINE
  5
573
100
AcDbEntity
  8
0
100
AcDbLine
 62
7
  6
CONTINUOUS
 10
4.4999015297
 20
4.2208669215
 11
4.4999015297
 21
4.1940236793
  0
LINE
  5
574
100
AcDbEntity
  8
02___PRT_ALL_AXES
100
AcDbLine
 62
7
  6
CONTINUOUS
 10
4.4999015297
 20
4.1457272035
 11
4.4999015297
 21
4.1349685612
  0
LINE
  5
575
100
AcDbEntity
  8
02___PRT_ALL_AXES
100
AcDbLine
 62
7
  6
CONTINUOUS
 10
4.4999015297
 20
4.0866720854
 11
4.4999015297
 21
4.0759134431
  0
LINE
  5
576
100
AcDbEntity
  8
02___PRT_ALL_AXES
100
AcDbLine
 62
7
  6
CONTINUOUS
 10
4.4999015297
 20
4.0276169673
 11
4.4999015297
 21
4.016858325
  0
LINE
  5
577
100
AcDbEntity
  8
02___PRT_ALL_AXES
100
AcDbLine
 62
7
  6
CONTINUOUS
 10
4.4999015297
 20
3.9685618492
 11
4.4999015297
 21
3.9578032069
  0
LINE
  5
578
100
AcDbEntity
  8
02___PRT_ALL_AXES
100
AcDbLine
 62
7
  6
CONTINUOUS
 10
4.4999015297
 20
3.9095067311
 11
4.4999015297
 21
3.8987480888
  0
LINE
  5
579
100
AcDbEntity
  8
02___PRT_ALL_AXES
100
AcDbLine
 62
7
  6
CONTINUOUS
 10
4.4999015297
 20
3.850451613
 11
4.4999015297
 21
3.8396929707
  0
LINE
  5
57A
100
AcDbEntity
  8
02___PRT_ALL_AXES
100
AcDbLine
 62
7
  6
CONTINUOUS
 10
4.4999015297
 20
3.7913964949
 11
4.4999015297
 21
3.7806378525
  0
LINE
  5
57B
100
AcDbEntity
  8
02___PRT_ALL_AXES
100
AcDbLine
 62
7
  6
CONTINUOUS
 10
4.4999015297
 20
3.7323413768
 11
4.4999015297
 21
3.7215827344
  0
LINE
  5
57C
100
AcDbEntity
  8
02___PRT_ALL_AXES
100
AcDbLine
 62
7
  6
CONTINUOUS
 10
4.4999015297
 20
3.6732862587
 11
4.4999015297
 21
3.6625276163
  0
LINE
  5
57D
100
AcDbEntity
  8
02___PRT_ALL_AXES
100
AcDbLine
 62
7
  6
CONTINUOUS
 10
4.4999015297
 20
3.6142311406
 11
4.4999015297
 21
3.6034724982
  0
LINE
  5
57E
100
AcDbEntity
  8
0
100
AcDbLine
 62
7
  6
CONTINUOUS
 10
4.4999015297
 20
3.5551760224
 11
4.4999015297
 21
3.5122055042
  0
LINE
  5
57F
100
AcDbEntity
  8
02___PRT_ALL_AXES
100
AcDbLine
 62
7
  6
CONTINUOUS
 10
4.0169847359
 20
3.5700303073
 11
4.017210494
 21
3.5702910739
  0
LINE
  5
580
100
AcDbEntity
  8
0
100
AcDbLine
 62
7
  6
CONTINUOUS
 10
4.0526580594
 20
3.8269855935
 11
4.017210494
 21
3.8065115464
  0
LINE
  5
581
100
AcDbEntity
  8
0
100
AcDbLine
 62
7
  6
CONTINUOUS
 10
4.0526580594
 20
3.7679304754
 11
4.017210494
 21
3.7474564282
  0
LWPOLYLINE
  5
582
100
AcDbEntity
  8
02___PRT_ALL_AXES
100
AcDbPolyline
 62
7
  6
CONTINUOUS
 90
8
 70
0
 10
4.0169847359
 20
3.9169791262
 10
4.0187846048
 20
3.9177155842
 10
4.0331173548
 20
3.9191885
 10
4.0614315848
 20
3.9206614158
 10
4.1030333638
 20
3.9221343317
 10
4.1569031068
 20
3.9236072475
 10
4.2217205629
 20
3.9250801634
 10
4.2958971726
 20
3.9265530792
  0
LWPOLYLINE
  5
583
100
AcDbEntity
  8
02___PRT_ALL_AXES
100
AcDbPolyline
 62
7
  6
CONTINUOUS
 90
9
 70
0
 10
4.0169847359
 20
3.8579240081
 10
4.0187846048
 20
3.858660466
 10
4.0331173548
 20
3.8601333819
 10
4.0614315848
 20
3.8616062977
 10
4.1030333638
 20
3.8630792136
 10
4.1569031068
 20
3.8645521294
 10
4.2217205629
 20
3.8660250453
 10
4.2958971726
 20
3.8674979611
 10
4.3776150001
 20
3.868970877
  0
LWPOLYLINE
  5
584
100
AcDbEntity
  8
02___PRT_ALL_AXES
100
AcDbPolyline
 62
7
  6
CONTINUOUS
 90
9
 70
0
 10
4.017210494
 20
3.9836769007
 10
4.0187846048
 20
3.984152592
 10
4.0331173548
 20
3.9856255079
 10
4.0614315848
 20
3.9870984237
 10
4.1030333638
 20
3.9885713396
 10
4.1569031068
 20
3.9900442554
 10
4.2217205629
 20
3.9915171713
 10
4.2958971726
 20
3.9929900871
 10
4.3776150001
 20
3.9944630029
  0
LWPOLYLINE
  5
585
100
AcDbEntity
  8
02___PRT_ALL_AXES
100
AcDbPolyline
 62
7
  6
CONTINUOUS
 90
9
 70
0
 10
4.017210494
 20
3.9246217826
 10
4.0187846048
 20
3.9250974739
 10
4.0331173548
 20
3.9265703898
 10
4.0614315848
 20
3.9280433056
 10
4.1030333638
 20
3.9295162215
 10
4.1569031068
 20
3.9309891373
 10
4.2217205629
 20
3.9324620531
 10
4.2958971726
 20
3.933934969
 10
4.3776150001
 20
3.9354078848
  0
LWPOLYLINE
  5
586
100
AcDbEntity
  8
02___PRT_ALL_AXES
100
AcDbPolyline
 62
7
  6
CONTINUOUS
 90
10
 70
0
 10
4.0524178068
 20
3.7784115442
 10
4.0587310113
 20
3.7798355179
 10
4.0777361225
 20
3.7812714225
 10
4.1091225744
 20
3.7827124133
 10
4.1527251422
 20
3.7841716918
 10
4.2072643942
 20
3.785633175
 10
4.2705927441
 20
3.7870780965
 10
4.3409622645
 20
3.788507246
 10
4.4179796787
 20
3.7899470329
 10
4.4999015297
 20
3.7913964949
  0
LWPOLYLINE
  5
587
100
AcDbEntity
  8
02___PRT_ALL_AXES
100
AcDbPolyline
 62
7
  6
CONTINUOUS
 90
5
 70
0
 10
4.8295828182
 20
3.8764046983
 10
4.7998294623
 20
3.8697169186
 10
4.7687629401
 20
3.8635545212
 10
4.7375760207
 20
3.858257974
 10
4.7072962886
 20
3.8540093763
  0
LWPOLYLINE
  5
588
100
AcDbEntity
  8
02___PRT_ALL_AXES
100
AcDbPolyline
 62
7
  6
CONTINUOUS
 90
10
 70
0
 10
4.0524178068
 20
3.7193564788
 10
4.0589181342
 20
3.7208013892
 10
4.0781733157
 20
3.7222410842
 10
4.109365521
 20
3.7236666631
 10
4.1523932477
 20
3.725106727
 10
4.2063091254
 20
3.7265545865
 10
4.2691322066
 20
3.7279916841
 10
4.3397471252
 20
3.7294285432
 10
4.4174720281
 20
3.7308827196
 10
4.4999015297
 20
3.7323413768
  0
LWPOLYLINE
  5
589
100
AcDbEntity
  8
02___PRT_ALL_AXES
100
AcDbPolyline
 62
7
  6
CONTINUOUS
 90
10
 70
0
 10
5.1547800115
 20
4.0334009333
 10
5.1482524282
 20
4.0319530438
 10
5.1291327327
 20
4.030522496
 10
5.0975828769
 20
4.029081204
 10
5.0538255751
 20
4.0276217352
 10
4.9991567477
 20
4.0261603703
 10
4.935750229
 20
4.0247162069
 10
4.8650455896
 20
4.0232822722
 10
4.7883926141
 20
4.0218506041
 10
4.7072962886
 20
4.0204160883
  0
LWPOLYLINE
  5
58A
100
AcDbEntity
  8
02___PRT_ALL_AXES
100
AcDbPolyline
 62
7
  6
CONTINUOUS
 90
4
 70
0
 10
4.3776150001
 20
3.8172976486
 10
4.4185859259
 20
3.8263097053
 10
4.4593657546
 20
3.8338036975
 10
4.4999015297
 20
3.8396929707
  0
LWPOLYLINE
  5
58B
100
AcDbEntity
  8
02___PRT_ALL_AXES
100
AcDbPolyline
 62
7
  6
CONTINUOUS
 90
4
 70
0
 10
4.8295828182
 20
3.9354598165
 10
4.7886057385
 20
3.9264465151
 10
4.7478254446
 20
3.9189526764
 10
4.7072962886
 20
3.9130644944
  0
LWPOLYLINE
  5
58C
100
AcDbEntity
  8
02___PRT_ALL_AXES
100
AcDbPolyline
 62
7
  6
CONTINUOUS
 90
10
 70
0
 10
5.1547800115
 20
3.9743458679
 10
5.1480582561
 20
3.9728765047
 10
5.1286021066
 20
3.9714375159
 10
5.0970215809
 20
3.9700045587
 10
5.0537982857
 20
3.9685658105
 10
5.0004213569
 20
3.9671362707
 10
4.9380272923
 20
3.9657098408
 10
4.8674572585
 20
3.9642739313
 10
4.7897247894
 20
3.9628196093
 10
4.7072962886
 20
3.9613609702
  0
LINE
  5
58D
100
AcDbEntity
  8
02___PRT_ALL_AXES
100
AcDbLine
 62
7
  6
CONTINUOUS
 10
4.9359991117
 20
3.9066112899
 11
4.865381517
 21
3.9051785441
  0
LINE
  5
58E
100
AcDbEntity
  8
02___PRT_ALL_AXES
100
AcDbLine
 62
7
  6
CONTINUOUS
 10
4.2714552539
 20
3.9052067763
 11
4.3421626069
 21
3.9066407482
  0
LWPOLYLINE
  5
58F
100
AcDbEntity
  8
02___PRT_ALL_AXES
100
AcDbPolyline
 62
7
  6
CONTINUOUS
 90
3
 70
0
 10
4.865381517
 20
3.9051785441
 10
4.7882938833
 20
3.9037385809
 10
4.7072962886
 20
3.9023058521
  0
LINE
  5
590
100
AcDbEntity
  8
02___PRT_ALL_AXES
100
AcDbLine
 62
7
  6
CONTINUOUS
 10
4.3421626069
 20
3.9066407482
 11
4.4188270777
 21
3.9080726112
  0
LWPOLYLINE
  5
591
100
AcDbEntity
  8
02___PRT_ALL_AXES
100
AcDbPolyline
 62
7
  6
CONTINUOUS
 90
9
 70
0
 10
4.8295828182
 20
3.8764046983
 10
4.9113006457
 20
3.8778776142
 10
4.9854772554
 20
3.87935053
 10
5.0502947115
 20
3.8808234459
 10
5.1041644545
 20
3.8822963617
 10
5.1457662335
 20
3.8837692776
 10
5.1740804635
 20
3.8852421934
 10
5.1884132135
 20
3.8867151093
 10
5.1899873244
 20
3.8871908006
  0
LWPOLYLINE
  5
592
100
AcDbEntity
  8
02___PRT_ALL_AXES
100
AcDbPolyline
 62
7
  6
CONTINUOUS
 90
9
 70
0
 10
4.8295828182
 20
3.8837865881
 10
4.9113006457
 20
3.885259504
 10
4.9854772554
 20
3.8867324198
 10
5.0502947115
 20
3.8882053356
 10
5.1041644545
 20
3.8896782515
 10
5.1457662335
 20
3.8911511673
 10
5.1740804635
 20
3.8926240832
 10
5.1884132135
 20
3.894096999
 10
5.1902130824
 20
3.8948334569
  0
LWPOLYLINE
  5
593
100
AcDbEntity
  8
02___PRT_ALL_AXES
100
AcDbPolyline
 62
7
  6
CONTINUOUS
 90
10
 70
0
 10
4.4999015297
 20
3.8396929707
 10
4.4179796787
 20
3.8382435087
 10
4.3409622645
 20
3.8368037218
 10
4.2705927441
 20
3.8353745723
 10
4.2072643942
 20
3.8339296508
 10
4.1527251422
 20
3.8324681675
 10
4.1091225744
 20
3.831008889
 10
4.0777361225
 20
3.8295678982
 10
4.0587310113
 20
3.8281319936
 10
4.0526580594
 20
3.8269855935
  0
LWPOLYLINE
  5
594
100
AcDbEntity
  8
02___PRT_ALL_AXES
100
AcDbPolyline
 62
7
  6
CONTINUOUS
 90
10
 70
0
 10
4.7072962886
 20
3.8540093763
 10
4.7882938833
 20
3.8554421052
 10
4.865381517
 20
3.8568820684
 10
4.9359991117
 20
3.8583148142
 10
4.9991699914
 20
3.8597539826
 10
5.053675672
 20
3.8612105935
 10
5.0973451214
 20
3.8626653613
 10
5.1288924205
 20
3.864102223
 10
5.1480953993
 20
3.8655289844
 10
5.1545397589
 20
3.8667167535
  0
LWPOLYLINE
  5
595
100
AcDbEntity
  8
02___PRT_ALL_AXES
100
AcDbPolyline
 62
7
  6
CONTINUOUS
 90
10
 70
0
 10
4.4999015297
 20
3.8987480888
 10
4.417360727
 20
3.8972874151
 10
4.339539014
 20
3.8958312127
 10
4.2688783486
 20
3.8943929487
 10
4.2062402974
 20
3.892959605
 10
4.1527441133
 20
3.891523848
 10
4.1099211008
 20
3.8900947274
 10
4.0784583108
 20
3.8886638391
 10
4.0590482492
 20
3.8872225195
 10
4.0526580594
 20
3.8860407116
  0
LWPOLYLINE
  5
596
100
AcDbEntity
  8
02___PRT_ALL_AXES
100
AcDbPolyline
 62
7
  6
CONTINUOUS
 90
10
 70
0
 10
4.7072962886
 20
3.9130644944
 10
4.7897247894
 20
3.9145231335
 10
4.8674572585
 20
3.9159774555
 10
4.9380272923
 20
3.917413365
 10
5.0004213569
 20
3.9188397949
 10
5.0537982857
 20
3.9202693347
 10
5.0970215809
 20
3.921708083
 10
5.1286021066
 20
3.9231410401
 10
5.1480582561
 20
3.9245800289
 10
5.1545397589
 20
3.9257718716
  0
LINE
  5
597
100
AcDbEntity
  8
02___PRT_ALL_AXES
100
AcDbLine
 62
7
  6
CONTINUOUS
 10
4.4188270777
 20
3.9080726112
 11
4.4999015297
 21
3.9095067311
  0
LWPOLYLINE
  5
598
100
AcDbEntity
  8
02___PRT_ALL_AXES
100
AcDbPolyline
 62
7
  6
CONTINUOUS
 90
5
 70
0
 10
4.7072962886
 20
3.9023058521
 10
4.7376891421
 20
3.8990463186
 10
4.7688080714
 20
3.8947626915
 10
4.7997544079
 20
3.8895912799
 10
4.8295828182
 20
3.8837865881
  0
LWPOLYLINE
  5
599
100
AcDbEntity
  8
02___PRT_ALL_AXES
100
AcDbPolyline
 62
7
  6
CONTINUOUS
 90
4
 70
0
 10
4.4999015297
 20
3.850451613
 10
4.4593732582
 20
3.8550029106
 10
4.4185897799
 20
3.861201411
 10
4.3776150001
 20
3.868970877
  0
LWPOLYLINE
  5
59A
100
AcDbEntity
  8
02___PRT_ALL_AXES
100
AcDbPolyline
 62
7
  6
CONTINUOUS
 90
4
 70
0
 10
4.7072962886
 20
3.843250734
 10
4.7478314801
 20
3.83869852
 10
4.7886144359
 20
3.8324998409
 10
4.8295828182
 20
3.82473147
  0
LWPOLYLINE
  5
59B
100
AcDbEntity
  8
02___PRT_ALL_AXES
100
AcDbPolyline
 62
7
  6
CONTINUOUS
 90
4
 70
0
 10
4.4999015297
 20
3.9095067311
 10
4.4593433539
 20
3.9140619892
 10
4.4185519319
 20
3.9202630081
 10
4.3776150001
 20
3.9280259951
  0
LINE
  5
59C
100
AcDbEntity
  8
0
100
AcDbLine
 62
7
  6
CONTINUOUS
 10
4.017210494
 20
4.1529388321
 11
4.0526580594
 21
4.132464785
  0
LINE
  5
59D
100
AcDbEntity
  8
0
100
AcDbLine
 62
7
  6
CONTINUOUS
 10
4.8340746917
 20
3.1010266088
 11
4.8341428057
 21
3.1008398993
  0
LINE
  5
59E
100
AcDbEntity
  8
02___PRT_ALL_AXES
100
AcDbLine
 62
7
  6
CENTER
 10
4.6035989092
 20
2.9535252328
 11
4.6035989092
 21
5.0098432995
  0
LINE
  5
59F
100
AcDbEntity
  8
0
100
AcDbLine
 62
7
  6
CONTINUOUS
 10
4.0526580594
 20
3.7088753573
 11
4.017210494
 21
3.6884013101
  0
LWPOLYLINE
  5
5A0
100
AcDbEntity
  8
02___PRT_ALL_AXES
100
AcDbPolyline
 62
7
  6
CONTINUOUS
 90
8
 70
0
 10
4.0169847359
 20
3.79886889
 10
4.0187846048
 20
3.7996053479
 10
4.0331173548
 20
3.8010782638
 10
4.0614315848
 20
3.8025511796
 10
4.1030333638
 20
3.8040240955
 10
4.1569031068
 20
3.8054970113
 10
4.2217205629
 20
3.8069699272
 10
4.2958971726
 20
3.808442843
  0
LWPOLYLINE
  5
5A1
100
AcDbEntity
  8
02___PRT_ALL_AXES
100
AcDbPolyline
 62
7
  6
CONTINUOUS
 90
9
 70
0
 10
4.017210494
 20
3.8655666645
 10
4.0187846048
 20
3.8660423558
 10
4.0331173548
 20
3.8675152717
 10
4.0614315848
 20
3.8689881875
 10
4.1030333638
 20
3.8704611033
 10
4.1569031068
 20
3.8719340192
 10
4.2217205629
 20
3.873406935
 10
4.2958971726
 20
3.8748798509
 10
4.3776150001
 20
3.8763527667
  0
LWPOLYLINE
  5
5A2
100
AcDbEntity
  8
02___PRT_ALL_AXES
100
AcDbPolyline
 62
7
  6
CONTINUOUS
 90
9
 70
0
 10
4.017210494
 20
3.8065115464
 10
4.0187846048
 20
3.8069872377
 10
4.0331173548
 20
3.8084601535
 10
4.0614315848
 20
3.8099330694
 10
4.1030333638
 20
3.8114059852
 10
4.1569031068
 20
3.8128789011
 10
4.2217205629
 20
3.8143518169
 10
4.2958971726
 20
3.8158247328
 10
4.3776150001
 20
3.8172976486
  0
LWPOLYLINE
  5
5A3
100
AcDbEntity
  8
02___PRT_ALL_AXES
100
AcDbPolyline
 62
7
  6
CONTINUOUS
 90
10
 70
0
 10
4.0524178068
 20
3.8374667151
 10
4.0590482492
 20
3.8389260437
 10
4.0784583108
 20
3.8403673633
 10
4.1099211008
 20
3.8417982516
 10
4.1527441133
 20
3.8432273723
 10
4.2062402974
 20
3.8446631293
 10
4.2688783486
 20
3.8460964729
 10
4.339539014
 20
3.847534737
 10
4.417360727
 20
3.8489909393
 10
4.4999015297
 20
3.850451613
  0
LWPOLYLINE
  5
5A4
100
AcDbEntity
  8
02___PRT_ALL_AXES
100
AcDbPolyline
 62
7
  6
CONTINUOUS
 90
10
 70
0
 10
5.1547800115
 20
4.0924561043
 10
5.1481529735
 20
4.0909971511
 10
5.1287472302
 20
4.0895558897
 10
5.0972921513
 20
4.0881251596
 10
5.0544757282
 20
4.0866961
 10
5.0009686002
 20
4.0852599628
 10
4.9383241925
 20
4.0838264479
 10
4.8676606461
 20
4.0823881182
 10
4.7898359087
 20
4.0809318586
 10
4.7072962886
 20
4.0794712064
  0
LWPOLYLINE
  5
5A5
100
AcDbEntity
  8
02___PRT_ALL_AXES
100
AcDbPolyline
 62
7
  6
CONTINUOUS
 90
4
 70
0
 10
4.3776150001
 20
3.8763527667
 10
4.4185859259
 20
3.8853648234
 10
4.4593657546
 20
3.8928588156
 10
4.4999015297
 20
3.8987480888
  0
LWPOLYLINE
  5
5A6
100
AcDbEntity
  8
02___PRT_ALL_AXES
100
AcDbPolyline
 62
7
  6
CONTINUOUS
 90
4
 70
0
 10
4.8295828182
 20
3.9945149346
 10
4.7886427125
 20
3.9855091121
 10
4.7478546851
 20
3.9780126151
 10
4.7072962886
 20
3.9721196125
  0
LWPOLYLINE
  5
5A7
100
AcDbEntity
  8
02___PRT_ALL_AXES
100
AcDbPolyline
 62
7
  6
CONTINUOUS
 90
4
 70
0
 10
4.3776150001
 20
3.9354078848
 10
4.4185463497
 20
3.944411936
 10
4.4593343444
 20
3.9519087552
 10
4.4999015297
 20
3.9578032069
  0
LWPOLYLINE
  5
5A8
100
AcDbEntity
  8
02___PRT_ALL_AXES
100
AcDbPolyline
 62
7
  6
CONTINUOUS
 90
4
 70
0
 10
4.8295828182
 20
4.0535700527
 10
4.7886057385
 20
4.0445567513
 10
4.7478254446
 20
4.0370629126
 10
4.7072962886
 20
4.0311747306
  0
LWPOLYLINE
  5
5A9
100
AcDbEntity
  8
02___PRT_ALL_AXES
100
AcDbPolyline
 62
7
  6
CONTINUOUS
 90
9
 70
0
 10
4.8295828182
 20
3.9354598165
 10
4.9113006457
 20
3.9369327323
 10
4.9854772554
 20
3.9384056481
 10
5.0502947115
 20
3.939878564
 10
5.1041644545
 20
3.9413514798
 10
5.1457662335
 20
3.9428243957
 10
5.1740804635
 20
3.9442973115
 10
5.1884132135
 20
3.9457702274
 10
5.1899873244
 20
3.9462459187
  0
LINE
  5
5AA
100
AcDbEntity
  8
02___PRT_ALL_AXES
100
AcDbLine
 62
7
  6
CONTINUOUS
 10
4.2958971726
 20
3.9265530792
 11
4.3776150001
 21
3.9280259951
  0
LWPOLYLINE
  5
5AB
100
AcDbEntity
  8
02___PRT_ALL_AXES
100
AcDbPolyline
 62
7
  6
CONTINUOUS
 90
9
 70
0
 10
4.8295828182
 20
3.9428417062
 10
4.9113006457
 20
3.9443146221
 10
4.9854772554
 20
3.9457875379
 10
5.0502947115
 20
3.9472604538
 10
5.1041644545
 20
3.9487333696
 10
5.1457662335
 20
3.9502062854
 10
5.1740804635
 20
3.9516792013
 10
5.1884132135
 20
3.9531521171
 10
5.1902130824
 20
3.9538885751
  0
LWPOLYLINE
  5
5AC
100
AcDbEntity
  8
02___PRT_ALL_AXES
100
AcDbPolyline
 62
7
  6
CONTINUOUS
 90
9
 70
0
 10
4.8295828182
 20
3.9945149346
 10
4.9113006457
 20
3.9959878504
 10
4.9854772554
 20
3.9974607663
 10
5.0502947115
 20
3.9989336821
 10
5.1041644545
 20
4.0004065979
 10
5.1457662335
 20
4.0018795138
 10
5.1740804635
 20
4.0033524296
 10
5.1884132135
 20
4.0048253455
 10
5.1899873244
 20
4.0053010368
  0
LWPOLYLINE
  5
5AD
100
AcDbEntity
  8
02___PRT_ALL_AXES
100
AcDbPolyline
 62
7
  6
CONTINUOUS
 90
9
 70
0
 10
4.8295828182
 20
4.0018968243
 10
4.9113006457
 20
4.0033697402
 10
4.9854772554
 20
4.004842656
 10
5.0502947115
 20
4.0063155719
 10
5.1041644545
 20
4.0077884877
 10
5.1457662335
 20
4.0092614036
 10
5.1740804635
 20
4.0107343194
 10
5.1884132135
 20
4.0122072352
 10
5.1902130824
 20
4.0129436932
  0
LWPOLYLINE
  5
5AE
100
AcDbEntity
  8
02___PRT_ALL_AXES
100
AcDbPolyline
 62
7
  6
CONTINUOUS
 90
10
 70
0
 10
4.4999015297
 20
3.9578032069
 10
4.4188270777
 20
3.956369087
 10
4.3421626069
 20
3.954937224
 10
4.2714552539
 20
3.953503252
 10
4.2080497063
 20
3.9520591364
 10
4.1533817998
 20
3.9505978424
 10
4.1096262305
 20
3.9491385251
 10
4.0780756786
 20
3.9476973982
 10
4.0589530643
 20
3.9462671039
 10
4.0526580594
 20
3.9450958297
  0
LWPOLYLINE
  5
5AF
100
AcDbEntity
  8
02___PRT_ALL_AXES
100
AcDbPolyline
 62
7
  6
CONTINUOUS
 90
10
 70
0
 10
4.7072962886
 20
3.9721196125
 10
4.7883926141
 20
3.9735541283
 10
4.8650455896
 20
3.9749857964
 10
4.935750229
 20
3.9764197311
 10
4.9991567477
 20
3.9778638945
 10
5.0538255751
 20
3.9793252595
 10
5.0975828769
 20
3.9807847282
 10
5.1291327327
 20
3.9822260203
 10
5.1482524282
 20
3.9836565681
 10
5.1545397589
 20
3.9848269897
  0
LWPOLYLINE
  5
5B0
100
AcDbEntity
  8
02___PRT_ALL_AXES
100
AcDbPolyline
 62
7
  6
CONTINUOUS
 90
4
 70
0
 10
4.4999015297
 20
3.9685618492
 10
4.4593732582
 20
3.9731131468
 10
4.4185897799
 20
3.9793116472
 10
4.3776150001
 20
3.9870811132
  0
LWPOLYLINE
  5
5B1
100
AcDbEntity
  8
02___PRT_ALL_AXES
100
AcDbPolyline
 62
7
  6
CONTINUOUS
 90
4
 70
0
 10
4.7072962886
 20
3.9613609702
 10
4.7478314801
 20
3.9568087562
 10
4.7886144359
 20
3.9506100771
 10
4.8295828182
 20
3.9428417062
  0
LINE
  5
5B2
100
AcDbEntity
  8
0
100
AcDbLine
 62
7
  6
CONTINUOUS
 10
5.1899873244
 20
3.599818633
 11
5.1545397589
 21
3.6202926801
  0
LINE
  5
5B3
100
AcDbEntity
  8
0
100
AcDbLine
 62
7
  6
CONTINUOUS
 10
5.1899873244
 20
3.6588737511
 11
5.1545397589
 21
3.6793477982
  0
LWPOLYLINE
  5
5B4
100
AcDbEntity
  8
0
100
AcDbPolyline
 62
7
  6
CONTINUOUS
 90
6
 70
0
 10
4.7072962886
 20
4.2208669215
 10
4.7074798691
 20
4.2330604358
 10
4.7080099356
 20
4.2440432581
 10
4.708828662
 20
4.2527433226
 10
4.7098494702
 20
4.2583187025
 10
4.7109681229
 20
4.2602370002
  0
LINE
  5
5B5
100
AcDbEntity
  8
0
100
AcDbLine
 62
7
  6
CONTINUOUS
 10
4.360639844
 20
3.1134968614
 11
4.3605752017
 21
3.1133197074
  0
LINE
  5
5B6
100
AcDbEntity
  8
0
100
AcDbLine
 62
7
  6
CONTINUOUS
 10
4.0526580594
 20
3.6498202391
 11
4.017210494
 21
3.629346192
  0
LINE
  5
5B7
100
AcDbEntity
  8
0
100
AcDbLine
 62
7
  6
CONTINUOUS
 10
4.0526580594
 20
3.590765121
 11
4.017210494
 21
3.5702910739
  0
LWPOLYLINE
  5
5B8
100
AcDbEntity
  8
02___PRT_ALL_AXES
100
AcDbPolyline
 62
7
  6
CONTINUOUS
 90
9
 70
0
 10
4.0169847359
 20
3.7398137719
 10
4.0187846048
 20
3.7405502298
 10
4.0331173548
 20
3.7420231457
 10
4.0614315848
 20
3.7434960615
 10
4.1030333638
 20
3.7449689774
 10
4.1569031068
 20
3.7464418932
 10
4.2217205629
 20
3.747914809
 10
4.2958971726
 20
3.7493877249
 10
4.3776150001
 20
3.7508606407
  0
LWPOLYLINE
  5
5B9
100
AcDbEntity
  8
02___PRT_ALL_AXES
100
AcDbPolyline
 62
7
  6
CONTINUOUS
 90
9
 70
0
 10
4.0169847359
 20
3.6807586538
 10
4.0187846048
 20
3.6814951117
 10
4.0331173548
 20
3.6829680276
 10
4.0614315848
 20
3.6844409434
 10
4.1030333638
 20
3.6859138592
 10
4.1569031068
 20
3.6873867751
 10
4.2217205629
 20
3.6888596909
 10
4.2958971726
 20
3.6903326068
 10
4.3776150001
 20
3.6918055226
  0
LWPOLYLINE
  5
5BA
100
AcDbEntity
  8
02___PRT_ALL_AXES
100
AcDbPolyline
 62
7
  6
CONTINUOUS
 90
9
 70
0
 10
4.017210494
 20
3.7474564282
 10
4.0187846048
 20
3.7479321196
 10
4.0331173548
 20
3.7494050354
 10
4.0614315848
 20
3.7508779513
 10
4.1030333638
 20
3.7523508671
 10
4.1569031068
 20
3.753823783
 10
4.2217205629
 20
3.7552966988
 10
4.2958971726
 20
3.7567696147
 10
4.3776150001
 20
3.7582425305
  0
LWPOLYLINE
  5
5BB
100
AcDbEntity
  8
02___PRT_ALL_AXES
100
AcDbPolyline
 62
7
  6
CONTINUOUS
 90
10
 70
0
 10
5.1547800115
 20
4.1515112786
 10
5.1484707824
 20
4.1500877508
 10
5.1294688124
 20
4.148651802
 10
5.0980871277
 20
4.1472108649
 10
5.0544900509
 20
4.1457516427
 10
4.9999598738
 20
4.1442902934
 10
4.93664351
 20
4.1428455454
 10
4.866281682
 20
4.1414164681
 10
4.7892381924
 20
4.1399761496
 10
4.7072962886
 20
4.1385263245
  0
LWPOLYLINE
  5
5BC
100
AcDbEntity
  8
02___PRT_ALL_AXES
100
AcDbPolyline
 62
7
  6
CONTINUOUS
 90
7
 70
0
 10
4.0524178068
 20
3.8965218895
 10
4.0589530643
 20
3.8979706281
 10
4.0780756786
 20
3.8994009224
 10
4.1096262305
 20
3.9008420493
 10
4.1533817998
 20
3.9023013667
 10
4.2080497063
 20
3.9037626606
 10
4.2714552539
 20
3.9052067763
  0
LWPOLYLINE
  5
5BD
100
AcDbEntity
  8
02___PRT_ALL_AXES
100
AcDbPolyline
 62
7
  6
CONTINUOUS
 90
4
 70
0
 10
4.3776150001
 20
3.9944630029
 10
4.4185859259
 20
4.0034750596
 10
4.4593657546
 20
4.0109690518
 10
4.4999015297
 20
4.016858325
  0
LWPOLYLINE
  5
5BE
100
AcDbEntity
  8
02___PRT_ALL_AXES
100
AcDbPolyline
 62
7
  6
CONTINUOUS
 90
4
 70
0
 10
4.8295828182
 20
4.1126251708
 10
4.7886057385
 20
4.1036118694
 10
4.7478254446
 20
4.0961180307
 10
4.7072962886
 20
4.0902298487
  0
LWPOLYLINE
  5
5BF
100
AcDbEntity
  8
02___PRT_ALL_AXES
100
AcDbPolyline
 62
7
  6
CONTINUOUS
 90
10
 70
0
 10
4.0524178068
 20
3.9555769511
 10
4.0591409918
 20
3.9570464713
 10
4.0785969222
 20
3.9584853713
 10
4.1101793664
 20
3.9599183804
 10
4.1534128733
 20
3.9613574032
 10
4.2068025922
 20
3.9627871907
 10
4.2691899499
 20
3.9642133953
 10
4.3397532019
 20
3.9656491337
 10
4.4174776962
 20
3.9671032947
 10
4.4999015297
 20
3.9685618492
  0
LWPOLYLINE
  5
5C0
100
AcDbEntity
  8
02___PRT_ALL_AXES
100
AcDbPolyline
 62
7
  6
CONTINUOUS
 90
9
 70
0
 10
4.8295828182
 20
4.0535700527
 10
4.9113006457
 20
4.0550429685
 10
4.9854772554
 20
4.0565158844
 10
5.0502947115
 20
4.0579888002
 10
5.1041644545
 20
4.0594617161
 10
5.1457662335
 20
4.0609346319
 10
5.1740804635
 20
4.0624075477
 10
5.1884132135
 20
4.0638804636
 10
5.1899873244
 20
4.0643561549
  0
LWPOLYLINE
  5
5C1
100
AcDbEntity
  8
02___PRT_ALL_AXES
100
AcDbPolyline
 62
7
  6
CONTINUOUS
 90
9
 70
0
 10
4.8295828182
 20
4.0609519424
 10
4.9113006457
 20
4.0624248583
 10
4.9854772554
 20
4.0638977741
 10
5.0502947115
 20
4.06537069
 10
5.1041644545
 20
4.0668436058
 10
5.1457662335
 20
4.0683165217
 10
5.1740804635
 20
4.0697894375
 10
5.1884132135
 20
4.0712623534
 10
5.1902130824
 20
4.0719988113
  0
LWPOLYLINE
  5
5C2
100
AcDbEntity
  8
02___PRT_ALL_AXES
100
AcDbPolyline
 62
7
  6
CONTINUOUS
 90
10
 70
0
 10
4.4999015297
 20
4.016858325
 10
4.4174776962
 20
4.0153997705
 10
4.3397532019
 20
4.0139456094
 10
4.2691899499
 20
4.0125098711
 10
4.2068025922
 20
4.0110836665
 10
4.1534128733
 20
4.009653879
 10
4.1101793664
 20
4.0082148562
 10
4.0785969222
 20
4.0067818471
 10
4.0591409918
 20
4.0053429471
 10
4.0526580594
 20
4.0041509478
  0
LWPOLYLINE
  5
5C3
100
AcDbEntity
  8
02___PRT_ALL_AXES
100
AcDbPolyline
 62
7
  6
CONTINUOUS
 90
10
 70
0
 10
4.7072962886
 20
4.0311747306
 10
4.7898359087
 20
4.0326353829
 10
4.8676606461
 20
4.0340916424
 10
4.9383241925
 20
4.0355299721
 10
5.0009686002
 20
4.036963487
 10
5.0544757282
 20
4.0383996242
 10
5.0972921513
 20
4.0398286839
 10
5.1287472302
 20
4.0412594139
 10
5.1481529735
 20
4.0427006754
 10
5.1545397589
 20
4.0438821078
  0
LWPOLYLINE
  5
5C4
100
AcDbEntity
  8
02___PRT_ALL_AXES
100
AcDbPolyline
 62
7
  6
CONTINUOUS
 90
10
 70
0
 10
4.4999015297
 20
4.0759134431
 10
4.4188739767
 20
4.074480172
 10
4.3417736859
 20
4.0730399252
 10
4.2711579132
 20
4.0716071331
 10
4.2079913576
 20
4.0701679438
 10
4.1534922081
 20
4.0687113414
 10
4.1098323608
 20
4.0672566778
 10
4.0782934768
 20
4.0658199251
 10
4.0590923861
 20
4.0643927327
 10
4.0526580594
 20
4.0632060659
  0
LWPOLYLINE
  5
5C5
100
AcDbEntity
  8
02___PRT_ALL_AXES
100
AcDbPolyline
 62
7
  6
CONTINUOUS
 90
10
 70
0
 10
4.7072962886
 20
4.0902298487
 10
4.7892381924
 20
4.0916796739
 10
4.866281682
 20
4.0931199924
 10
4.93664351
 20
4.0945490697
 10
4.9999598738
 20
4.0959938177
 10
5.0544900509
 20
4.097455167
 10
5.0980871277
 20
4.0989143891
 10
5.1294688124
 20
4.1003553262
 10
5.1484707824
 20
4.101791275
 10
5.1545397589
 20
4.1029372259
  0
LWPOLYLINE
  5
5C6
100
AcDbEntity
  8
02___PRT_ALL_AXES
100
AcDbPolyline
 62
7
  6
CONTINUOUS
 90
5
 70
0
 10
4.4999015297
 20
4.0276169673
 10
4.4696492047
 20
4.030859302
 10
4.438469208
 20
4.0351480017
 10
4.4073915043
 20
4.0403409535
 10
4.3776150001
 20
4.0461362313
  0
LWPOLYLINE
  5
5C7
100
AcDbEntity
  8
02___PRT_ALL_AXES
100
AcDbPolyline
 62
7
  6
CONTINUOUS
 90
4
 70
0
 10
4.7072962886
 20
4.0204160883
 10
4.7478641058
 20
4.0158595531
 10
4.7886556418
 20
4.0096581411
 10
4.8295828182
 20
4.0018968243
  0
LWPOLYLINE
  5
5C8
100
AcDbEntity
  8
02___PRT_ALL_AXES
100
AcDbPolyline
 62
7
  6
CONTINUOUS
 90
4
 70
0
 10
4.4999015297
 20
4.0866720854
 10
4.4593732582
 20
4.0912233831
 10
4.4185897799
 20
4.0974218834
 10
4.3776150001
 20
4.1051913494
  0
LWPOLYLINE
  5
5C9
100
AcDbEntity
  8
02___PRT_ALL_AXES
100
AcDbPolyline
 62
7
  6
CONTINUOUS
 90
4
 70
0
 10
4.7072962886
 20
4.0794712064
 10
4.7478314801
 20
4.0749189924
 10
4.7886144359
 20
4.0687203133
 10
4.8295828182
 20
4.0609519424
  0
LINE
  5
5CA
100
AcDbEntity
  8
0
100
AcDbLine
 62
7
  6
CONTINUOUS
 10
5.1899873244
 20
3.7179288692
 11
5.1545397589
 21
3.7384029163
  0
LINE
  5
5CB
100
AcDbEntity
  8
0
100
AcDbLine
 62
7
  6
CONTINUOUS
 10
4.7072962886
 20
4.2208669215
 11
4.7072962886
 21
4.1385263245
  0
LINE
  5
5CC
100
AcDbEntity
  8
02___PRT_ALL_AXES
100
AcDbLine
 62
7
  6
CONTINUOUS
 10
4.7072962886
 20
4.0902298487
 11
4.7072962886
 21
4.0794712064
  0
LINE
  5
5CD
100
AcDbEntity
  8
02___PRT_ALL_AXES
100
AcDbLine
 62
7
  6
CONTINUOUS
 10
4.7072962886
 20
4.0311747306
 11
4.7072962886
 21
4.0204160883
  0
LINE
  5
5CE
100
AcDbEntity
  8
02___PRT_ALL_AXES
100
AcDbLine
 62
7
  6
CONTINUOUS
 10
4.7072962886
 20
3.9721196125
 11
4.7072962886
 21
3.9613609702
  0
LINE
  5
5CF
100
AcDbEntity
  8
02___PRT_ALL_AXES
100
AcDbLine
 62
7
  6
CONTINUOUS
 10
4.7072962886
 20
3.9130644944
 11
4.7072962886
 21
3.9023058521
  0
LINE
  5
5D0
100
AcDbEntity
  8
02___PRT_ALL_AXES
100
AcDbLine
 62
7
  6
CONTINUOUS
 10
4.7072962886
 20
3.8540093763
 11
4.7072962886
 21
3.843250734
  0
LINE
  5
5D1
100
AcDbEntity
  8
02___PRT_ALL_AXES
100
AcDbLine
 62
7
  6
CONTINUOUS
 10
4.7072962886
 20
3.7949542582
 11
4.7072962886
 21
3.7841956159
  0
LINE
  5
5D2
100
AcDbEntity
  8
02___PRT_ALL_AXES
100
AcDbLine
 62
7
  6
CONTINUOUS
 10
4.7072962886
 20
3.7358991401
 11
4.7072962886
 21
3.7251404977
  0
LINE
  5
5D3
100
AcDbEntity
  8
02___PRT_ALL_AXES
100
AcDbLine
 62
7
  6
CONTINUOUS
 10
4.7072962886
 20
3.676844022
 11
4.7072962886
 21
3.6660853796
  0
LINE
  5
5D4
100
AcDbEntity
  8
02___PRT_ALL_AXES
100
AcDbLine
 62
7
  6
CONTINUOUS
 10
4.7072962886
 20
3.6177889039
 11
4.7072962886
 21
3.6070302615
  0
LINE
  5
5D5
100
AcDbEntity
  8
0
100
AcDbLine
 62
7
  6
CONTINUOUS
 10
4.7072962886
 20
3.5587337858
 11
4.7072962886
 21
3.5122055042
  0
LINE
  5
5D6
100
AcDbEntity
  8
0
100
AcDbLine
 62
7
  6
CONTINUOUS
 10
4.7985989092
 20
4.9098432995
 11
4.7985989092
 21
4.9104732207
  0
LWPOLYLINE
  5
5D7
100
AcDbEntity
  8
0
100
AcDbPolyline
 62
7
  6
CONTINUOUS
 90
6
 70
0
 10
4.7072962886
 20
3.5122055042
 10
4.7071122714
 20
3.5000084011
 10
4.7065773119
 20
3.4890236468
 10
4.7057403015
 20
3.4803243874
 10
4.7046780834
 20
3.4747518825
 10
4.7034895742
 20
3.4728354254
  0
LINE
  5
5D8
100
AcDbEntity
  8
0
100
AcDbLine
 62
7
  6
CONTINUOUS
 10
4.3856067984
 20
3.0885574445
 11
4.3855347915
 21
3.0883601233
  0
LINE
  5
5D9
100
AcDbEntity
  8
0
100
AcDbLine
 62
7
  6
CONTINUOUS
 10
5.1545397589
 20
4.1029372259
 11
5.1899873244
 21
4.123411273
  0
LWPOLYLINE
  5
5DA
100
AcDbEntity
  8
02___PRT_ALL_AXES
100
AcDbPolyline
 62
7
  6
CONTINUOUS
 90
9
 70
0
 10
4.0169847359
 20
3.6217035357
 10
4.0187846048
 20
3.6224399936
 10
4.0331173548
 20
3.6239129094
 10
4.0614315848
 20
3.6253858253
 10
4.1030333638
 20
3.6268587411
 10
4.1569031068
 20
3.628331657
 10
4.2217205629
 20
3.6298045728
 10
4.2958971726
 20
3.6312774887
 10
4.3776150001
 20
3.6327504045
  0
LWPOLYLINE
  5
5DB
100
AcDbEntity
  8
02___PRT_ALL_AXES
100
AcDbPolyline
 62
7
  6
CONTINUOUS
 90
9
 70
0
 10
4.0169847359
 20
3.5626484176
 10
4.0187846048
 20
3.5633848755
 10
4.0331173548
 20
3.5648577913
 10
4.0614315848
 20
3.5663307072
 10
4.1030333638
 20
3.567803623
 10
4.1569031068
 20
3.5692765389
 10
4.2217205629
 20
3.5707494547
 10
4.2958971726
 20
3.5722223706
 10
4.3776150001
 20
3.5736952864
  0
LWPOLYLINE
  5
5DC
100
AcDbEntity
  8
02___PRT_ALL_AXES
100
AcDbPolyline
 62
7
  6
CONTINUOUS
 90
9
 70
0
 10
4.017210494
 20
3.6884013101
 10
4.0187846048
 20
3.6888770015
 10
4.0331173548
 20
3.6903499173
 10
4.0614315848
 20
3.6918228332
 10
4.1030333638
 20
3.693295749
 10
4.1569031068
 20
3.6947686649
 10
4.2217205629
 20
3.6962415807
 10
4.2958971726
 20
3.6977144965
 10
4.3776150001
 20
3.6991874124
  0
LWPOLYLINE
  5
5DD
100
AcDbEntity
  8
02___PRT_ALL_AXES
100
AcDbPolyline
 62
7
  6
CONTINUOUS
 90
9
 70
0
 10
4.017210494
 20
3.629346192
 10
4.0187846048
 20
3.6298218834
 10
4.0331173548
 20
3.6312947992
 10
4.0614315848
 20
3.6327677151
 10
4.1030333638
 20
3.6342406309
 10
4.1569031068
 20
3.6357135467
 10
4.2217205629
 20
3.6371864626
 10
4.2958971726
 20
3.6386593784
 10
4.3776150001
 20
3.6401322943
  0
LWPOLYLINE
  5
5DE
100
AcDbEntity
  8
02___PRT_ALL_AXES
100
AcDbPolyline
 62
7
  6
CONTINUOUS
 90
5
 70
0
 10
4.3776150001
 20
4.0535181211
 10
4.4074074002
 20
4.0602141815
 10
4.4383439347
 20
4.0663515274
 10
4.4694767393
 20
4.0716423418
 10
4.4999015297
 20
4.0759134431
  0
LWPOLYLINE
  5
5DF
100
AcDbEntity
  8
02___PRT_ALL_AXES
100
AcDbPolyline
 62
7
  6
CONTINUOUS
 90
4
 70
0
 10
4.3776150001
 20
4.1125732392
 10
4.4185859259
 20
4.1215852959
 10
4.4593657546
 20
4.1290792881
 10
4.4999015297
 20
4.1349685612
  0
LWPOLYLINE
  5
5E0
100
AcDbEntity
  8
02___PRT_ALL_AXES
100
AcDbPolyline
 62
7
  6
CONTINUOUS
 90
10
 70
0
 10
4.0524178068
 20
4.0146320927
 10
4.0590923861
 20
4.016096257
 10
4.0782934768
 20
4.0175234493
 10
4.1098323608
 20
4.018960202
 10
4.1534922081
 20
4.0204148657
 10
4.2079913576
 20
4.021871468
 10
4.2711579132
 20
4.0233106574
 10
4.3417736859
 20
4.0247434495
 10
4.4188739767
 20
4.0261836963
 10
4.4999015297
 20
4.0276169673
  0
LWPOLYLINE
  5
5E1
100
AcDbEntity
  8
02___PRT_ALL_AXES
100
AcDbPolyline
 62
7
  6
CONTINUOUS
 90
9
 70
0
 10
4.8295828182
 20
4.1126251708
 10
4.9113006457
 20
4.1140980866
 10
4.9854772554
 20
4.1155710025
 10
5.0502947115
 20
4.1170439183
 10
5.1041644545
 20
4.1185168342
 10
5.1457662335
 20
4.11998975
 10
5.1740804635
 20
4.1214626659
 10
5.1884132135
 20
4.1229355817
 10
5.1899873244
 20
4.123411273
  0
LWPOLYLINE
  5
5E2
100
AcDbEntity
  8
02___PRT_ALL_AXES
100
AcDbPolyline
 62
7
  6
CONTINUOUS
 90
9
 70
0
 10
4.8295828182
 20
4.1200070605
 10
4.9113006457
 20
4.1214799764
 10
4.9854772554
 20
4.1229528922
 10
5.0502947115
 20
4.1244258081
 10
5.1041644545
 20
4.1258987239
 10
5.1457662335
 20
4.1273716398
 10
5.1740804635
 20
4.1288445556
 10
5.1884132135
 20
4.1303174715
 10
5.1902130824
 20
4.1310539294
  0
LWPOLYLINE
  5
5E3
100
AcDbEntity
  8
02___PRT_ALL_AXES
100
AcDbPolyline
 62
7
  6
CONTINUOUS
 90
10
 70
0
 10
4.4999015297
 20
4.1349685612
 10
4.4175440751
 20
4.1335112092
 10
4.3398790457
 20
4.1320582897
 10
4.2693274699
 20
4.1306230569
 10
4.2066184949
 20
4.1291893786
 10
4.1524968543
 20
4.1277369868
 10
4.1091377123
 20
4.1262850639
 10
4.0778404135
 20
4.1248494188
 10
4.0587813256
 20
4.1234132579
 10
4.0526580594
 20
4.122261184
  0
LWPOLYLINE
  5
5E4
100
AcDbEntity
  8
02___PRT_ALL_AXES
100
AcDbPolyline
 62
7
  6
CONTINUOUS
 90
4
 70
0
 10
4.4999015297
 20
4.1457272035
 10
4.4593732582
 20
4.1502785012
 10
4.4185897799
 20
4.1564770016
 10
4.3776150001
 20
4.1642464675
  0
LWPOLYLINE
  5
5E5
100
AcDbEntity
  8
02___PRT_ALL_AXES
100
AcDbPolyline
 62
7
  6
CONTINUOUS
 90
4
 70
0
 10
4.7072962886
 20
4.1385263245
 10
4.7478314801
 20
4.1339741105
 10
4.7886144359
 20
4.1277754314
 10
4.8295828182
 20
4.1200070605
  0
LINE
  5
5E6
100
AcDbEntity
  8
0
100
AcDbLine
 62
7
  6
CONTINUOUS
 10
5.1899873244
 20
3.7769839873
 11
5.1545397589
 21
3.7974580344
  0
LINE
  5
5E7
100
AcDbEntity
  8
0
100
AcDbLine
 62
7
  6
CONTINUOUS
 10
5.1899873244
 20
3.8360391054
 11
5.1545397589
 21
3.8565131525
  0
LINE
  5
5E8
100
AcDbEntity
  8
02___PRT_ALL_AXES
100
AcDbLine
 62
7
  6
CONTINUOUS
 10
5.1902130824
 20
3.5995578664
 11
5.1899873244
 21
3.599818633
  0
LINE
  5
5E9
100
AcDbEntity
  8
0
100
AcDbLine
 62
7
  6
CONTINUOUS
 10
4.8073390666
 20
3.079134638
 11
4.8073390666
 21
3.0397645593
  0
LINE
  5
5EA
100
AcDbEntity
  8
02___PRT_ALL_AXES
100
AcDbLine
 62
7
  6
CONTINUOUS
 10
4.8295828182
 20
4.1200070605
 11
4.8295828182
 21
4.1126251708
  0
LINE
  5
5EB
100
AcDbEntity
  8
02___PRT_ALL_AXES
100
AcDbLine
 62
7
  6
CONTINUOUS
 10
4.8295828182
 20
4.0609519424
 11
4.8295828182
 21
4.0535700527
  0
LINE
  5
5EC
100
AcDbEntity
  8
02___PRT_ALL_AXES
100
AcDbLine
 62
7
  6
CONTINUOUS
 10
4.8295828182
 20
4.0018968243
 11
4.8295828182
 21
3.9945149346
  0
LINE
  5
5ED
100
AcDbEntity
  8
02___PRT_ALL_AXES
100
AcDbLine
 62
7
  6
CONTINUOUS
 10
4.8295828182
 20
3.9428417062
 11
4.8295828182
 21
3.9354598165
  0
LINE
  5
5EE
100
AcDbEntity
  8
02___PRT_ALL_AXES
100
AcDbLine
 62
7
  6
CONTINUOUS
 10
4.8295828182
 20
3.8837865881
 11
4.8295828182
 21
3.8764046983
  0
LINE
  5
5EF
100
AcDbEntity
  8
02___PRT_ALL_AXES
100
AcDbLine
 62
7
  6
CONTINUOUS
 10
4.8295828182
 20
3.82473147
 11
4.8295828182
 21
3.8173495802
  0
LINE
  5
5F0
100
AcDbEntity
  8
02___PRT_ALL_AXES
100
AcDbLine
 62
7
  6
CONTINUOUS
 10
4.8295828182
 20
3.7656763519
 11
4.8295828182
 21
3.7582944621
  0
LINE
  5
5F1
100
AcDbEntity
  8
02___PRT_ALL_AXES
100
AcDbLine
 62
7
  6
CONTINUOUS
 10
4.8295828182
 20
3.7066212338
 11
4.8295828182
 21
3.699239344
  0
LINE
  5
5F2
100
AcDbEntity
  8
02___PRT_ALL_AXES
100
AcDbLine
 62
7
  6
CONTINUOUS
 10
4.8295828182
 20
3.6475661157
 11
4.8295828182
 21
3.6401842259
  0
LINE
  5
5F3
100
AcDbEntity
  8
02___PRT_ALL_AXES
100
AcDbLine
 62
7
  6
CONTINUOUS
 10
4.8295828182
 20
3.5885109976
 11
4.8295828182
 21
3.5811291078
  0
LINE
  5
5F4
100
AcDbEntity
  8
02___PRT_ALL_AXES
100
AcDbLine
 62
7
  6
CONTINUOUS
 10
4.8478705627
 20
3.4576548828
 11
4.8478705627
 21
3.4433078664
  0
LINE
  5
5F5
100
AcDbEntity
  8
02___PRT_ALL_AXES
100
AcDbLine
 62
7
  6
CONTINUOUS
 10
4.8478705627
 20
3.4078747955
 11
4.8478705627
 21
3.4039377877
  0
LINE
  5
5F6
100
AcDbEntity
  8
02___PRT_ALL_AXES
100
AcDbLine
 62
7
  6
CONTINUOUS
 10
4.8478705627
 20
3.3685047168
 11
4.8478705627
 21
3.3645677089
  0
LINE
  5
5F7
100
AcDbEntity
  8
02___PRT_ALL_AXES
100
AcDbLine
 62
7
  6
CONTINUOUS
 10
4.8478705627
 20
3.329134638
 11
4.8478705627
 21
3.3251976302
  0
LINE
  5
5F8
100
AcDbEntity
  8
02___PRT_ALL_AXES
100
AcDbLine
 62
7
  6
CONTINUOUS
 10
4.8478705627
 20
3.2897645593
 11
4.8478705627
 21
3.2858275514
  0
LINE
  5
5F9
100
AcDbEntity
  8
02___PRT_ALL_AXES
100
AcDbLine
 62
7
  6
CONTINUOUS
 10
4.8478705627
 20
3.2503944806
 11
4.8478705627
 21
3.2464574727
  0
LINE
  5
5FA
100
AcDbEntity
  8
02___PRT_ALL_AXES
100
AcDbLine
 62
7
  6
CONTINUOUS
 10
4.8478705627
 20
3.2110244018
 11
4.8478705627
 21
3.207087394
  0
LINE
  5
5FB
100
AcDbEntity
  8
02___PRT_ALL_AXES
100
AcDbLine
 62
7
  6
CONTINUOUS
 10
4.8478705627
 20
3.1716543231
 11
4.8478705627
 21
3.1677173152
  0
LINE
  5
5FC
100
AcDbEntity
  8
02___PRT_ALL_AXES
100
AcDbLine
 62
7
  6
CONTINUOUS
 10
4.8478705627
 20
3.1322842443
 11
4.8478705627
 21
3.1283472365
  0
LINE
  5
5FD
100
AcDbEntity
  8
0
100
AcDbLine
 62
7
  6
CONTINUOUS
 10
4.3595679953
 20
3.3884679672
 11
4.3593272556
 21
3.3881897561
  0
LINE
  5
5FE
100
AcDbEntity
  8
0
100
AcDbLine
 62
7
  6
CONTINUOUS
 10
4.3595679953
 20
3.3490978885
 11
4.3593272556
 21
3.3488196774
  0
LINE
  5
5FF
100
AcDbEntity
  8
0
100
AcDbLine
 62
7
  6
CONTINUOUS
 10
4.3595679953
 20
3.3097278098
 11
4.3593272556
 21
3.3094495987
  0
LINE
  5
600
100
AcDbEntity
  8
0
100
AcDbLine
 62
7
  6
CONTINUOUS
 10
5.1545397589
 20
4.0438821078
 11
5.1899873244
 21
4.0643561549
  0
LINE
  5
601
100
AcDbEntity
  8
0
100
AcDbLine
 62
7
  6
CONTINUOUS
 10
5.1545397589
 20
3.9848269897
 11
5.1899873244
 21
4.0053010368
  0
LWPOLYLINE
  5
602
100
AcDbEntity
  8
02___PRT_ALL_AXES
100
AcDbPolyline
 62
7
  6
CONTINUOUS
 90
9
 70
0
 10
4.017210494
 20
3.5702910739
 10
4.0187846048
 20
3.5707667653
 10
4.0331173548
 20
3.5722396811
 10
4.0614315848
 20
3.5737125969
 10
4.1030333638
 20
3.5751855128
 10
4.1569031068
 20
3.5766584286
 10
4.2217205629
 20
3.5781313445
 10
4.2958971726
 20
3.5796042603
 10
4.3776150001
 20
3.5810771762
  0
LWPOLYLINE
  5
603
100
AcDbEntity
  8
02___PRT_ALL_AXES
100
AcDbPolyline
 62
7
  6
CONTINUOUS
 90
10
 70
0
 10
4.0524178068
 20
4.0736871598
 10
4.0587813256
 20
4.0751167822
 10
4.0778404135
 20
4.076552943
 10
4.1091377123
 20
4.0779885881
 10
4.1524968543
 20
4.079440511
 10
4.2066184949
 20
4.0808929028
 10
4.2693274699
 20
4.0823265812
 10
4.3398790457
 20
4.0837618139
 10
4.4175440751
 20
4.0852147334
 10
4.4999015297
 20
4.0866720854
  0
LWPOLYLINE
  5
604
100
AcDbEntity
  8
02___PRT_ALL_AXES
100
AcDbPolyline
 62
7
  6
CONTINUOUS
 90
10
 70
0
 10
4.0524178068
 20
4.1327423055
 10
4.0589181342
 20
4.1341872159
 10
4.0781733157
 20
4.135626911
 10
4.109365521
 20
4.1370524899
 10
4.1523932477
 20
4.1384925538
 10
4.2063091254
 20
4.1399404132
 10
4.2691322066
 20
4.1413775109
 10
4.3397471252
 20
4.14281437
 10
4.4174720281
 20
4.1442685463
 10
4.4999015297
 20
4.1457272035
  0
LWPOLYLINE
  5
605
100
AcDbEntity
  8
02___PRT_ALL_AXES
100
AcDbPolyline
 62
7
  6
CONTINUOUS
 90
4
 70
0
 10
4.3776150001
 20
4.1716283573
 10
4.4185859259
 20
4.180640414
 10
4.4593657546
 20
4.1881344062
 10
4.4999015297
 20
4.1940236793
  0
LWPOLYLINE
  5
606
100
AcDbEntity
  8
02___PRT_ALL_AXES
100
AcDbPolyline
 62
7
  6
CONTINUOUS
 90
10
 70
0
 10
4.4999015297
 20
4.1940236793
 10
4.4174720281
 20
4.1925650221
 10
4.3397471252
 20
4.1911108458
 10
4.2691322066
 20
4.1896739866
 10
4.2063091254
 20
4.188236889
 10
4.1523932477
 20
4.1867890295
 10
4.109365521
 20
4.1853489657
 10
4.0781733157
 20
4.1839233867
 10
4.0589181342
 20
4.1824836917
 10
4.0526580594
 20
4.1813163021
  0
LINE
  5
607
100
AcDbEntity
  8
0
100
AcDbLine
 62
9
  6
CONTINUOUS
 10
5.1547800115
 20
4.2208669215
 11
4.0524178068
 21
4.2208669215
  0
LINE
  5
608
100
AcDbEntity
  8
0
100
AcDbLine
 62
7
  6
CONTINUOUS
 10
5.5484807989
 20
4.2602370002
 11
3.6587170194
 21
4.2602370002
  0
LINE
  5
609
100
AcDbEntity
  8
0
100
AcDbLine
 62
7
  6
CONTINUOUS
 10
5.1899873244
 20
3.8950942235
 11
5.1545397589
 21
3.9155682706
  0
LINE
  5
60A
100
AcDbEntity
  8
0
100
AcDbLine
 62
7
  6
CONTINUOUS
 10
5.1899873244
 20
3.9541493416
 11
5.1545397589
 21
3.9746233888
  0
LINE
  5
60B
100
AcDbEntity
  8
02___PRT_ALL_AXES
100
AcDbLine
 62
7
  6
CONTINUOUS
 10
5.1902130824
 20
3.6586129845
 11
5.1899873244
 21
3.6588737511
  0
LINE
  5
60C
100
AcDbEntity
  8
02___PRT_ALL_AXES
100
AcDbLine
 62
7
  6
CONTINUOUS
 10
5.1902130824
 20
3.7176681026
 11
5.1899873244
 21
3.7179288692
  0
LINE
  5
60D
100
AcDbEntity
  8
0
100
AcDbLine
 62
7
  6
CONTINUOUS
 10
4.3595679953
 20
3.270357731
 11
4.3593272556
 21
3.2700795199
  0
LINE
  5
60E
100
AcDbEntity
  8
0
100
AcDbLine
 62
7
  6
CONTINUOUS
 10
4.3595679953
 20
3.2309876523
 11
4.3593272556
 21
3.2307094412
  0
LINE
  5
60F
100
AcDbEntity
  8
0
100
AcDbLine
 62
7
  6
CONTINUOUS
 10
4.3595679953
 20
3.1916175735
 11
4.3593272556
 21
3.1913393624
  0
LINE
  5
610
100
AcDbEntity
  8
0
100
AcDbLine
 62
7
  6
CONTINUOUS
 10
4.3595679953
 20
3.1522474948
 11
4.3593272556
 21
3.1519692837
  0
LINE
  5
611
100
AcDbEntity
  8
02___PRT_ALL_AXES
100
AcDbLine
 62
7
  6
CONTINUOUS
 10
5.1899873244
 20
4.123411273
 11
5.1902130824
 21
4.1236720396
  0
LINE
  5
612
100
AcDbEntity
  8
0
100
AcDbLine
 62
7
  6
CONTINUOUS
 10
5.1545397589
 20
3.9257718716
 11
5.1899873244
 21
3.9462459187
  0
LINE
  5
613
100
AcDbEntity
  8
0
100
AcDbLine
 62
9
  6
CONTINUOUS
 10
3.6193469407
 20
4.299607079
 11
5.5878508777
 21
4.299607079
  0
LINE
  5
614
100
AcDbEntity
  8
0
100
AcDbLine
 62
7
  6
CONTINUOUS
 10
5.1899873244
 20
4.0132044597
 11
5.1545397589
 21
4.0336785069
  0
LINE
  5
615
100
AcDbEntity
  8
0
100
AcDbLine
 62
7
  6
CONTINUOUS
 10
5.1899873244
 20
4.0722595778
 11
5.1545397589
 21
4.092733625
  0
LINE
  5
616
100
AcDbEntity
  8
02___PRT_ALL_AXES
100
AcDbLine
 62
7
  6
CONTINUOUS
 10
5.1902130824
 20
3.7767232207
 11
5.1899873244
 21
3.7769839873
  0
LINE
  5
617
100
AcDbEntity
  8
02___PRT_ALL_AXES
100
AcDbLine
 62
7
  6
CONTINUOUS
 10
5.1902130824
 20
3.8357783388
 11
5.1899873244
 21
3.8360391054
  0
LINE
  5
618
100
AcDbEntity
  8
02___PRT_ALL_AXES
100
AcDbLine
 62
7
  6
CONTINUOUS
 10
5.1899873244
 20
4.0643561549
 11
5.1902130824
 21
4.0646169215
  0
LINE
  5
619
100
AcDbEntity
  8
02___PRT_ALL_AXES
100
AcDbLine
 62
7
  6
CONTINUOUS
 10
5.1899873244
 20
4.0053010368
 11
5.1902130824
 21
4.0055618034
  0
LINE
  5
61A
100
AcDbEntity
  8
0
100
AcDbLine
 62
7
  6
CONTINUOUS
 10
4.3902883969
 20
3.4062244091
 11
4.389738082
 21
3.4059062917
  0
LINE
  5
61B
100
AcDbEntity
  8
0
100
AcDbLine
 62
7
  6
CONTINUOUS
 10
4.389738082
 20
3.4059062917
 11
4.3595679953
 21
3.3884679672
  0
LINE
  5
61C
100
AcDbEntity
  8
0
100
AcDbLine
 62
7
  6
CONTINUOUS
 10
4.3902883969
 20
3.3668543303
 11
4.389738082
 21
3.366536213
  0
LINE
  5
61D
100
AcDbEntity
  8
0
100
AcDbLine
 62
7
  6
CONTINUOUS
 10
4.389738082
 20
3.366536213
 11
4.3595679953
 21
3.3490978885
  0
LINE
  5
61E
100
AcDbEntity
  8
0
100
AcDbLine
 62
7
  6
CONTINUOUS
 10
5.1545397589
 20
3.8667167535
 11
5.1899873244
 21
3.8871908006
  0
LINE
  5
61F
100
AcDbEntity
  8
0
100
AcDbLine
 62
7
  6
CONTINUOUS
 10
5.1545397589
 20
3.8076616354
 11
5.1899873244
 21
3.8281356825
  0
LWPOLYLINE
  5
620
100
AcDbEntity
  8
0
100
AcDbPolyline
 62
7
  6
CONTINUOUS
 90
10
 70
0
 10
4.3593272556
 20
3.423622827
 10
4.3623926967
 20
3.4246165529
 10
4.3713776198
 20
3.42559919
 10
4.3859200644
 20
3.4265738191
 10
4.4057385108
 20
3.427549328
 10
4.4305286169
 20
3.4285315898
 10
4.4594481171
 20
3.4295101986
 10
4.4919977897
 20
3.4304923032
 10
4.5277460584
 20
3.4314868942
 10
4.565424431
 20
3.4324820823
  0
LINE
  5
621
100
AcDbEntity
  8
0
100
AcDbLine
 62
7
  6
CONTINUOUS
 10
5.1899873244
 20
4.131314696
 11
5.1545397589
 21
4.1517887431
  0
LINE
  5
622
100
AcDbEntity
  8
02___PRT_ALL_AXES
100
AcDbLine
 62
7
  6
CONTINUOUS
 10
5.1902130824
 20
3.8948334569
 11
5.1899873244
 21
3.8950942235
  0
LINE
  5
623
100
AcDbEntity
  8
02___PRT_ALL_AXES
100
AcDbLine
 62
7
  6
CONTINUOUS
 10
5.1902130824
 20
3.9538885751
 11
5.1899873244
 21
3.9541493416
  0
LINE
  5
624
100
AcDbEntity
  8
02___PRT_ALL_AXES
100
AcDbLine
 62
7
  6
CONTINUOUS
 10
5.1902130824
 20
4.0129436932
 11
5.1899873244
 21
4.0132044597
  0
LINE
  5
625
100
AcDbEntity
  8
02___PRT_ALL_AXES
100
AcDbLine
 62
7
  6
CONTINUOUS
 10
5.1547800115
 20
4.2208669215
 11
5.1547800115
 21
4.1515112224
  0
LINE
  5
626
100
AcDbEntity
  8
02___PRT_ALL_AXES
100
AcDbLine
 62
7
  6
CONTINUOUS
 10
5.1547800115
 20
4.1032147466
 11
5.1547800115
 21
4.0924561043
  0
LINE
  5
627
100
AcDbEntity
  8
02___PRT_ALL_AXES
100
AcDbLine
 62
7
  6
CONTINUOUS
 10
5.1547800115
 20
4.0441596285
 11
5.1547800115
 21
4.0334009862
  0
LINE
  5
628
100
AcDbEntity
  8
02___PRT_ALL_AXES
100
AcDbLine
 62
7
  6
CONTINUOUS
 10
5.1547800115
 20
3.9851045104
 11
5.1547800115
 21
3.9743458681
  0
LINE
  5
629
100
AcDbEntity
  8
02___PRT_ALL_AXES
100
AcDbLine
 62
7
  6
CONTINUOUS
 10
5.1547800115
 20
3.9260493923
 11
5.1547800115
 21
3.9152907499
  0
LINE
  5
62A
100
AcDbEntity
  8
02___PRT_ALL_AXES
100
AcDbLine
 62
7
  6
CONTINUOUS
 10
5.1547800115
 20
3.8669942742
 11
5.1547800115
 21
3.8562356318
  0
LINE
  5
62B
100
AcDbEntity
  8
02___PRT_ALL_AXES
100
AcDbLine
 62
7
  6
CONTINUOUS
 10
5.1547800115
 20
3.8079391561
 11
5.1547800115
 21
3.7971805137
  0
LINE
  5
62C
100
AcDbEntity
  8
02___PRT_ALL_AXES
100
AcDbLine
 62
7
  6
CONTINUOUS
 10
5.1547800115
 20
3.748884038
 11
5.1547800115
 21
3.7381253956
  0
LINE
  5
62D
100
AcDbEntity
  8
02___PRT_ALL_AXES
100
AcDbLine
 62
7
  6
CONTINUOUS
 10
5.1547800115
 20
3.6898289198
 11
5.1547800115
 21
3.6790702775
  0
LINE
  5
62E
100
AcDbEntity
  8
02___PRT_ALL_AXES
100
AcDbLine
 62
7
  6
CONTINUOUS
 10
5.1547800115
 20
3.6307738017
 11
5.1547800115
 21
3.6200151594
  0
LINE
  5
62F
100
AcDbEntity
  8
02___PRT_ALL_AXES
100
AcDbLine
 62
7
  6
CONTINUOUS
 10
5.1547800115
 20
3.5717186836
 11
5.1547800115
 21
3.5122055042
  0
LINE
  5
630
100
AcDbEntity
  8
0
100
AcDbLine
 62
7
  6
CONTINUOUS
 10
4.847629823
 20
3.4430296553
 11
4.8478705627
 21
3.4433078664
  0
LINE
  5
631
100
AcDbEntity
  8
02___PRT_ALL_AXES
100
AcDbLine
 62
7
  6
CONTINUOUS
 10
5.1899873244
 20
3.9462459187
 11
5.1902130824
 21
3.9465066853
  0
LINE
  5
632
100
AcDbEntity
  8
02___PRT_ALL_AXES
100
AcDbLine
 62
7
  6
CONTINUOUS
 10
5.1899873244
 20
3.8871908006
 11
5.1902130824
 21
3.8874515672
  0
LINE
  5
633
100
AcDbEntity
  8
02___PRT_ALL_AXES
100
AcDbLine
 62
7
  6
CONTINUOUS
 10
5.1899873244
 20
3.8281356825
 11
5.1902130824
 21
3.8283964491
  0
LINE
  5
634
100
AcDbEntity
  8
0
100
AcDbLine
 62
7
  6
CONTINUOUS
 10
4.3902883969
 20
3.3274842516
 11
4.389738082
 21
3.3271661342
  0
LINE
  5
635
100
AcDbEntity
  8
0
100
AcDbLine
 62
7
  6
CONTINUOUS
 10
4.389738082
 20
3.3271661342
 11
4.3595679953
 21
3.3097278098
  0
LINE
  5
636
100
AcDbEntity
  8
0
100
AcDbLine
 62
7
  6
CONTINUOUS
 10
4.3902883969
 20
3.2881141729
 11
4.389738082
 21
3.2877960555
  0
LINE
  5
637
100
AcDbEntity
  8
0
100
AcDbLine
 62
7
  6
CONTINUOUS
 10
4.389738082
 20
3.2877960555
 11
4.3595679953
 21
3.270357731
  0
LINE
  5
638
100
AcDbEntity
  8
0
100
AcDbLine
 62
7
  6
CONTINUOUS
 10
4.3902883969
 20
3.2487440941
 11
4.389738082
 21
3.2484259767
  0
LINE
  5
639
100
AcDbEntity
  8
0
100
AcDbLine
 62
7
  6
CONTINUOUS
 10
4.389738082
 20
3.2484259767
 11
4.3595679953
 21
3.2309876523
  0
LINE
  5
63A
100
AcDbEntity
  8
0
100
AcDbLine
 62
7
  6
CONTINUOUS
 10
5.1545397589
 20
3.7486065173
 11
5.1899873244
 21
3.7690805644
  0
LINE
  5
63B
100
AcDbEntity
  8
0
100
AcDbLine
 62
7
  6
CONTINUOUS
 10
5.1545397589
 20
3.6895513991
 11
5.1899873244
 21
3.7100254463
  0
LWPOLYLINE
  5
63C
100
AcDbEntity
  8
0
100
AcDbPolyline
 62
7
  6
CONTINUOUS
 90
21
 70
0
 10
4.3902883969
 20
3.3668543303
 10
4.3907743937
 20
3.3670653806
 10
4.3963867278
 20
3.3680707993
 10
4.4073226488
 20
3.3690762179
 10
4.4233011968
 20
3.3700816366
 10
4.4439118592
 20
3.3710870553
 10
4.4686251177
 20
3.372092474
 10
4.4968060521
 20
3.3730978926
 10
4.5277306528
 20
3.3741033113
 10
4.560604421
 20
3.37510873
 10
4.5945827811
 20
3.3761141487
 10
4.6287927788
 20
3.3771195673
 10
4.6623555088
 20
3.378124986
 10
4.694408695
 20
3.3791304047
 10
4.7241288438
 20
3.3801358234
 10
4.7507524005
 20
3.3811412421
 10
4.7735953668
 20
3.3821466607
 10
4.7920708731
 20
3.3831520794
 10
4.8057042563
 20
3.3841574981
 10
4.8141452548
 20
3.3851629168
 10
4.8169094215
 20
3.3859031347
  0
LWPOLYLINE
  5
63D
100
AcDbEntity
  8
0
100
AcDbPolyline
 62
7
  6
CONTINUOUS
 90
21
 70
0
 10
4.3902883969
 20
3.3274842516
 10
4.3912990931
 20
3.3278540522
 10
4.3977651511
 20
3.3288594708
 10
4.4095193822
 20
3.3298648895
 10
4.426259803
 20
3.3308703082
 10
4.4475563272
 20
3.3318757269
 10
4.4728618158
 20
3.3328811455
 10
4.5015261334
 20
3.3338865642
 10
4.5328128512
 20
3.3348919829
 10
4.5659181674
 20
3.3358974016
 10
4.5999915575
 20
3.3369028202
 10
4.6341576258
 20
3.3379082389
 10
4.6675385955
 20
3.3389136576
 10
4.6992768603
 20
3.3399190763
 10
4.7285570173
 20
3.340924495
 10
4.7546268159
 20
3.3419299136
 10
4.7768164847
 20
3.3429353323
 10
4.7945559381
 20
3.343940751
 10
4.8073894235
 20
3.3449461697
 10
4.8149872297
 20
3.3459515883
 10
4.8169094215
 20
3.346533056
  0
LWPOLYLINE
  5
63E
100
AcDbEntity
  8
0
100
AcDbPolyline
 62
7
  6
CONTINUOUS
 90
10
 70
0
 10
4.3593272556
 20
3.3842527483
 10
4.3623983995
 20
3.3852474
 10
4.3713884666
 20
3.386230008
 10
4.3859337666
 20
3.3872045149
 10
4.4057614995
 20
3.3881802547
 10
4.4305651715
 20
3.3891628396
 10
4.4594928466
 20
3.390141541
 10
4.492044637
 20
3.3911235753
 10
4.5277862294
 20
3.3921178994
 10
4.5654485891
 20
3.393112631
  0
LWPOLYLINE
  5
63F
100
AcDbEntity
  8
0
100
AcDbPolyline
 62
7
  6
CONTINUOUS
 90
10
 70
0
 10
4.3593272556
 20
3.3448826695
 10
4.3624052089
 20
3.3458784256
 10
4.3714015655
 20
3.3468610117
 10
4.3859509368
 20
3.3478354065
 10
4.40579
 20
3.3488114222
 10
4.4306086618
 20
3.3497943412
 10
4.459545742
 20
3.3507731425
 10
4.4921002867
 20
3.351755101
 10
4.5278339255
 20
3.3527491077
 10
4.5654768837
 20
3.3537432871
  0
LINE
  5
640
100
AcDbEntity
  8
02___PRT_ALL_AXES
100
AcDbLine
 62
7
  6
CONTINUOUS
 10
5.1902130824
 20
4.0719988113
 11
5.1899873244
 21
4.0722595778
  0
LINE
  5
641
100
AcDbEntity
  8
02___PRT_ALL_AXES
100
AcDbLine
 62
7
  6
CONTINUOUS
 10
5.1902130824
 20
4.1310539294
 11
5.1899873244
 21
4.131314696
  0
LINE
  5
642
100
AcDbEntity
  8
0
100
AcDbLine
 62
7
  6
CONTINUOUS
 10
5.1902130824
 20
3.5921759766
 11
5.1902130824
 21
3.5995578664
  0
LINE
  5
643
100
AcDbEntity
  8
0
100
AcDbLine
 62
7
  6
CONTINUOUS
 10
5.1902130824
 20
3.6512310947
 11
5.1902130824
 21
3.6586129845
  0
LINE
  5
644
100
AcDbEntity
  8
0
100
AcDbLine
 62
7
  6
CONTINUOUS
 10
5.1902130824
 20
3.7102862128
 11
5.1902130824
 21
3.7176681026
  0
LINE
  5
645
100
AcDbEntity
  8
0
100
AcDbLine
 62
7
  6
CONTINUOUS
 10
5.1902130824
 20
3.769341331
 11
5.1902130824
 21
3.7767232207
  0
LINE
  5
646
100
AcDbEntity
  8
0
100
AcDbLine
 62
7
  6
CONTINUOUS
 10
5.1902130824
 20
3.8283964491
 11
5.1902130824
 21
3.8357783388
  0
LINE
  5
647
100
AcDbEntity
  8
0
100
AcDbLine
 62
7
  6
CONTINUOUS
 10
5.1902130824
 20
3.8874515672
 11
5.1902130824
 21
3.8948334569
  0
LINE
  5
648
100
AcDbEntity
  8
0
100
AcDbLine
 62
7
  6
CONTINUOUS
 10
5.1902130824
 20
3.9465066853
 11
5.1902130824
 21
3.9538885751
  0
LINE
  5
649
100
AcDbEntity
  8
0
100
AcDbLine
 62
7
  6
CONTINUOUS
 10
5.1902130824
 20
4.0055618034
 11
5.1902130824
 21
4.0129436932
  0
LINE
  5
64A
100
AcDbEntity
  8
0
100
AcDbLine
 62
7
  6
CONTINUOUS
 10
5.1902130824
 20
4.0646169215
 11
5.1902130824
 21
4.0719988113
  0
LINE
  5
64B
100
AcDbEntity
  8
0
100
AcDbLine
 62
7
  6
CONTINUOUS
 10
5.1902130824
 20
4.1236720396
 11
5.1902130824
 21
4.1310539294
  0
LINE
  5
64C
100
AcDbEntity
  8
0
100
AcDbLine
 62
7
  6
CONTINUOUS
 10
4.847629823
 20
3.4036595766
 11
4.8478705627
 21
3.4039377876
  0
LINE
  5
64D
100
AcDbEntity
  8
0
100
AcDbLine
 62
7
  6
CONTINUOUS
 10
4.847629823
 20
3.3642894978
 11
4.8478705627
 21
3.3645677089
  0
LINE
  5
64E
100
AcDbEntity
  8
0
100
AcDbLine
 62
7
  6
CONTINUOUS
 10
4.847629823
 20
3.3249194191
 11
4.8478705627
 21
3.3251976344
  0
LINE
  5
64F
100
AcDbEntity
  8
0
100
AcDbLine
 62
7
  6
CONTINUOUS
 10
4.847629823
 20
3.2855493403
 11
4.8478705627
 21
3.2858275514
  0
LINE
  5
650
100
AcDbEntity
  8
02___PRT_ALL_AXES
100
AcDbLine
 62
7
  6
CONTINUOUS
 10
5.1899873244
 20
3.7690805644
 11
5.1902130824
 21
3.769341331
  0
LINE
  5
651
100
AcDbEntity
  8
02___PRT_ALL_AXES
100
AcDbLine
 62
7
  6
CONTINUOUS
 10
5.1899873244
 20
3.7100254463
 11
5.1902130824
 21
3.7102862128
  0
LINE
  5
652
100
AcDbEntity
  8
0
100
AcDbLine
 62
7
  6
CONTINUOUS
 10
4.3902883969
 20
3.2093740154
 11
4.389738082
 21
3.209055898
  0
LINE
  5
653
100
AcDbEntity
  8
0
100
AcDbLine
 62
7
  6
CONTINUOUS
 10
4.389738082
 20
3.209055898
 11
4.3595679953
 21
3.1916175735
  0
LINE
  5
654
100
AcDbEntity
  8
0
100
AcDbLine
 62
7
  6
CONTINUOUS
 10
4.8169094215
 20
3.4252732135
 11
4.847629823
 21
3.4430296553
  0
LINE
  5
655
100
AcDbEntity
  8
0
100
AcDbLine
 62
7
  6
CONTINUOUS
 10
4.3902883969
 20
3.1700039366
 11
4.389738082
 21
3.1696858193
  0
LINE
  5
656
100
AcDbEntity
  8
0
100
AcDbLine
 62
7
  6
CONTINUOUS
 10
4.389738082
 20
3.1696858193
 11
4.3595679953
 21
3.1522474948
  0
LINE
  5
657
100
AcDbEntity
  8
0
100
AcDbLine
 62
7
  6
CONTINUOUS
 10
4.8169094215
 20
3.3859031347
 11
4.8174597363
 21
3.3862212523
  0
LINE
  5
658
100
AcDbEntity
  8
0
100
AcDbLine
 62
7
  6
CONTINUOUS
 10
4.8174597363
 20
3.3862212523
 11
4.847629823
 21
3.4036595766
  0
LINE
  5
659
100
AcDbEntity
  8
0
100
AcDbLine
 62
7
  6
CONTINUOUS
 10
4.3902883969
 20
3.1306338579
 11
4.389738082
 21
3.1303157405
  0
LINE
  5
65A
100
AcDbEntity
  8
0
100
AcDbLine
 62
7
  6
CONTINUOUS
 10
4.389738082
 20
3.1303157405
 11
4.360639844
 21
3.1134968614
  0
LINE
  5
65B
100
AcDbEntity
  8
0
100
AcDbLine
 62
7
  6
CONTINUOUS
 10
5.1545397589
 20
3.630496281
 11
5.1899873244
 21
3.6509703282
  0
LINE
  5
65C
100
AcDbEntity
  8
0
100
AcDbLine
 62
7
  6
CONTINUOUS
 10
5.1545397589
 20
3.5714411629
 11
5.1899873244
 21
3.5919152101
  0
LWPOLYLINE
  5
65D
100
AcDbEntity
  8
0
100
AcDbPolyline
 62
7
  6
CONTINUOUS
 90
11
 70
0
 10
4.3593272556
 20
3.3055125908
 10
4.3623925417
 20
3.3065062915
 10
4.3713774779
 20
3.307488942
 10
4.3859204163
 20
3.3084636028
 10
4.405738431
 20
3.3094390883
 10
4.4305273562
 20
3.3104213077
 10
4.4594464834
 20
3.3113999105
 10
4.4919964071
 20
3.3123820271
 10
4.5277450671
 20
3.3133766312
 10
4.565423919
 20
3.3143718328
 10
4.6398931364
 20
3.3162895731
  0
LWPOLYLINE
  5
65E
100
AcDbEntity
  8
0
100
AcDbPolyline
 62
7
  6
CONTINUOUS
 90
10
 70
0
 10
4.3593272556
 20
3.2661425121
 10
4.3623972616
 20
3.2671369791
 10
4.37138627
 20
3.2681195902
 10
4.385930873
 20
3.2690941152
 10
4.4057567687
 20
3.2700698116
 10
4.4305579296
 20
3.2710523402
 10
4.4594840172
 20
3.2720310243
 10
4.4920353237
 20
3.2730130705
 10
4.5277782146
 20
3.274007447
 10
4.5654437791
 20
3.2750022699
  0
LWPOLYLINE
  5
65F
100
AcDbEntity
  8
0
100
AcDbPolyline
 62
7
  6
CONTINUOUS
 90
10
 70
0
 10
4.8478705627
 20
3.4078747955
 10
4.8447895596
 20
3.4068785452
 10
4.8357902165
 20
3.4058959548
 10
4.8212391239
 20
3.4049216203
 10
4.801389852
 20
3.4039452574
 10
4.7765575422
 20
3.4029619754
 10
4.7476114112
 20
3.401983031
 10
4.7150523436
 20
3.4010010613
 10
4.679323208
 20
3.4000072596
 10
4.6416966055
 20
3.3990135462
  0
LWPOLYLINE
  5
660
100
AcDbEntity
  8
0
100
AcDbPolyline
 62
7
  6
CONTINUOUS
 90
11
 70
0
 10
4.3902883969
 20
3.2881141729
 10
4.3919600571
 20
3.2886427237
 10
4.3992756887
 20
3.2896481424
 10
4.4118406855
 20
3.2906535611
 10
4.4293322342
 20
3.2916589798
 10
4.4513009512
 20
3.2926643984
 10
4.4771824275
 20
3.2936698171
 10
4.5063117299
 20
3.2946752358
 10
4.5379404836
 20
3.2956806545
 10
4.5712560992
 20
3.2966860731
 10
4.6395028587
 20
3.2986969105
  0
LINE
  5
661
100
AcDbEntity
  8
0
100
AcDbLine
 62
7
  6
CONTINUOUS
 10
4.847629823
 20
3.2461792616
 11
4.8478705627
 21
3.2464574727
  0
LINE
  5
662
100
AcDbEntity
  8
0
100
AcDbLine
 62
7
  6
CONTINUOUS
 10
4.847629823
 20
3.2068091828
 11
4.8478705627
 21
3.2070873879
  0
LINE
  5
663
100
AcDbEntity
  8
0
100
AcDbLine
 62
7
  6
CONTINUOUS
 10
4.847629823
 20
3.1674391041
 11
4.8478705627
 21
3.1677173152
  0
LINE
  5
664
100
AcDbEntity
  8
02___PRT_ALL_AXES
100
AcDbLine
 62
7
  6
CONTINUOUS
 10
5.1899873244
 20
3.6509703282
 11
5.1902130824
 21
3.6512310947
  0
LINE
  5
665
100
AcDbEntity
  8
02___PRT_ALL_AXES
100
AcDbLine
 62
7
  6
CONTINUOUS
 10
5.1899873244
 20
3.5919152101
 11
5.1902130824
 21
3.5921759766
  0
LWPOLYLINE
  5
666
100
AcDbEntity
  8
0
100
AcDbPolyline
 62
7
  6
CONTINUOUS
 90
11
 70
0
 10
4.8478705627
 20
3.2897645635
 10
4.8471776542
 20
3.2892924903
 10
4.8416573824
 20
3.2883482871
 10
4.8309352536
 20
3.2874176134
 10
4.8152550877
 20
3.2864894042
 10
4.7948247563
 20
3.2855564916
 10
4.7700463701
 20
3.2846194788
 10
4.7417435057
 20
3.283688397
 10
4.710148417
 20
3.282750256
 10
4.6758223186
 20
3.2818027944
 10
4.6398931364
 20
3.2808565022
  0
LINE
  5
667
100
AcDbEntity
  8
0
100
AcDbLine
 62
7
  6
CONTINUOUS
 10
4.8169094215
 20
3.346533056
 11
4.8174597363
 21
3.3468511736
  0
LINE
  5
668
100
AcDbEntity
  8
0
100
AcDbLine
 62
7
  6
CONTINUOUS
 10
4.8174597363
 20
3.3468511736
 11
4.847629823
 21
3.3642894978
  0
LINE
  5
669
100
AcDbEntity
  8
0
100
AcDbLine
 62
7
  6
CONTINUOUS
 10
4.3902883969
 20
3.0912637792
 11
4.3856067984
 21
3.0885574445
  0
LINE
  5
66A
100
AcDbEntity
  8
0
100
AcDbLine
 62
7
  6
CONTINUOUS
 10
4.8169094215
 20
3.3071629773
 11
4.8174597363
 21
3.3074810949
  0
LINE
  5
66B
100
AcDbEntity
  8
0
100
AcDbLine
 62
7
  6
CONTINUOUS
 10
4.8174597363
 20
3.3074810949
 11
4.847629823
 21
3.3249194191
  0
LINE
  5
66C
100
AcDbEntity
  8
0
100
AcDbLine
 62
7
  6
CONTINUOUS
 10
4.8169094215
 20
3.2677928985
 11
4.8174597363
 21
3.2681110161
  0
LINE
  5
66D
100
AcDbEntity
  8
0
100
AcDbLine
 62
7
  6
CONTINUOUS
 10
4.8174597363
 20
3.2681110161
 11
4.847629823
 21
3.2855493403
  0
LWPOLYLINE
  5
66E
100
AcDbEntity
  8
0
100
AcDbPolyline
 62
7
  6
CONTINUOUS
 90
21
 70
0
 10
4.3902883969
 20
3.1306338579
 10
4.3912039705
 20
3.1309777011
 10
4.397500468
 20
3.1319797432
 10
4.4090565095
 20
3.1329817854
 10
4.4255771897
 20
3.1339838275
 10
4.4466409081
 20
3.1349858697
 10
4.4717101275
 20
3.1359879118
 10
4.5001450921
 20
3.1369899539
 10
4.5312201539
 20
3.1379919961
 10
4.5641422905
 20
3.1389940382
 10
4.5980713432
 20
3.1399960803
 10
4.6321414569
 20
3.1409981225
 10
4.6654831771
 20
3.1420001646
 10
4.6972456372
 20
3.1430022067
 10
4.7266182729
 20
3.1440042489
 10
4.7528515071
 20
3.145006291
 10
4.7752758789
 20
3.1460083332
 10
4.7933191279
 20
3.1470103753
 10
4.8065207981
 20
3.1480124174
 10
4.8145439886
 20
3.1490144596
 10
4.8169094215
 20
3.1496826623
  0
LWPOLYLINE
  5
66F
100
AcDbEntity
  8
0
100
AcDbPolyline
 62
7
  6
CONTINUOUS
 90
11
 70
0
 10
4.3593272556
 20
3.1874023546
 10
4.3623923885
 20
3.1883960304
 10
4.3713773378
 20
3.1893786942
 10
4.3859207684
 20
3.1903533865
 10
4.4057383688
 20
3.1913288494
 10
4.4305261135
 20
3.1923110263
 10
4.4594448658
 20
3.1932896229
 10
4.4919950381
 20
3.1942717514
 10
4.5277440856
 20
3.1952663685
 10
4.565423412
 20
3.1962615834
 10
4.6398593828
 20
3.1981784614
  0
LWPOLYLINE
  5
670
100
AcDbEntity
  8
0
100
AcDbPolyline
 62
7
  6
CONTINUOUS
 90
10
 70
0
 10
4.3593272556
 20
3.1480322758
 10
4.362396123
 20
3.149026558
 10
4.3713840695
 20
3.1500091721
 10
4.3859279702
 20
3.1509837149
 10
4.4057520434
 20
3.1519593687
 10
4.4305506896
 20
3.1529418409
 10
4.4594751839
 20
3.1539205074
 10
4.4920259996
 20
3.1549025654
 10
4.5277701811
 20
3.155896994
 10
4.5654389421
 20
3.156891908
  0
LWPOLYLINE
  5
671
100
AcDbEntity
  8
0
100
AcDbPolyline
 62
7
  6
CONTINUOUS
 90
10
 70
0
 10
4.8478705627
 20
3.329134638
 10
4.8447997852
 20
3.3281400458
 10
4.8358105407
 20
3.3271574766
 10
4.8212658515
 20
3.3261829731
 10
4.8014388752
 20
3.3252072434
 10
4.7766364228
 20
3.3242246839
 10
4.7477097097
 20
3.3232459958
 10
4.7151571201
 20
3.3222639246
 10
4.6794136039
 20
3.3212695412
 10
4.6417501121
 20
3.3202747783
  0
LWPOLYLINE
  5
672
100
AcDbEntity
  8
0
100
AcDbPolyline
 62
7
  6
CONTINUOUS
 90
10
 70
0
 10
4.3593272556
 20
3.2267724333
 10
4.3624040761
 20
3.2277680058
 10
4.371399392
 20
3.2287505959
 10
4.3859480979
 20
3.2297250099
 10
4.4057852361
 20
3.2307009777
 10
4.4306014088
 20
3.2316838414
 10
4.4595369358
 20
3.2326626266
 10
4.4920910391
 20
3.2336445982
 10
4.5278260229
 20
3.2346386582
 10
4.5654722352
 20
3.2356329301
  0
LWPOLYLINE
  5
673
100
AcDbEntity
  8
0
100
AcDbPolyline
 62
7
  6
CONTINUOUS
 90
10
 70
0
 10
4.8478705627
 20
3.3685047168
 10
4.8447929709
 20
3.3675090193
 10
4.8357974235
 20
3.3665264714
 10
4.8212486269
 20
3.3655520785
 10
4.8014103366
 20
3.3645760742
 10
4.7765928694
 20
3.36359318
 10
4.7476567376
 20
3.3626143919
 10
4.7151013778
 20
3.3616323962
 10
4.6793658061
 20
3.3606383302
 10
4.6417217055
 20
3.3596441193
  0
LINE
  5
674
100
AcDbEntity
  8
0
100
AcDbLine
 62
7
  6
CONTINUOUS
 10
4.8478705627
 20
3.128347236
 11
4.847629823
 21
3.1280690254
  0
LINE
  5
675
100
AcDbEntity
  8
0
100
AcDbLine
 62
7
  6
CONTINUOUS
 10
4.8124375158
 20
3.0791346143
 11
4.8341427997
 21
3.1008398933
  0
LWPOLYLINE
  5
676
100
AcDbEntity
  8
0
100
AcDbPolyline
 62
7
  6
CONTINUOUS
 90
5
 70
0
 10
4.8478705627
 20
3.1716543171
 10
4.8471610734
 20
3.1711766366
 10
4.8416097547
 20
3.1702326097
 10
4.8308594397
 20
3.1693020673
 10
4.8151443666
 20
3.1683734832
  0
LINE
  5
677
100
AcDbEntity
  8
0
100
AcDbLine
 62
7
  6
CONTINUOUS
 10
4.8169094215
 20
3.2284228198
 11
4.8174597363
 21
3.2287409374
  0
LINE
  5
678
100
AcDbEntity
  8
0
100
AcDbLine
 62
7
  6
CONTINUOUS
 10
4.8174597363
 20
3.2287409374
 11
4.847629823
 21
3.2461792616
  0
LINE
  5
679
100
AcDbEntity
  8
0
100
AcDbLine
 62
7
  6
CONTINUOUS
 10
4.8169094215
 20
3.189052741
 11
4.8174597363
 21
3.1893708586
  0
LINE
  5
67A
100
AcDbEntity
  8
0
100
AcDbLine
 62
7
  6
CONTINUOUS
 10
4.8174597363
 20
3.1893708586
 11
4.847629823
 21
3.2068091828
  0
LWPOLYLINE
  5
67B
100
AcDbEntity
  8
0
100
AcDbPolyline
 62
7
  6
CONTINUOUS
 90
10
 70
0
 10
4.8478705627
 20
3.2110244018
 10
4.8447986473
 20
3.2100296249
 10
4.8358083447
 20
3.2090470589
 10
4.8212629577
 20
3.2080725733
 10
4.8014341324
 20
3.2070967998
 10
4.7766291682
 20
3.2061141841
 10
4.747700871
 20
3.2051354788
 10
4.7151478019
 20
3.2041534197
 10
4.6794055904
 20
3.2031590888
 10
4.64174531
 20
3.2021644173
  0
LWPOLYLINE
  5
67C
100
AcDbEntity
  8
0
100
AcDbPolyline
 62
7
  6
CONTINUOUS
 90
10
 70
0
 10
4.8478705627
 20
3.2503944806
 10
4.8447918382
 20
3.2493985995
 10
4.835795251
 20
3.2484160557
 10
4.8212457883
 20
3.2474416818
 10
4.8014055611
 20
3.2464656292
 10
4.7765856045
 20
3.2454826799
 10
4.747647923
 20
3.2445038757
 10
4.7150921264
 20
3.2435218932
 10
4.6793579059
 20
3.2425278809
 10
4.6417170658
 20
3.2415337626
  0
LWPOLYLINE
  5
67D
100
AcDbEntity
  8
0
100
AcDbPolyline
 62
7
  6
CONTINUOUS
 90
21
 70
0
 10
4.3902883969
 20
3.0912637792
 10
4.3924756503
 20
3.0918980578
 10
4.4003191766
 20
3.0929000999
 10
4.4133503146
 20
3.0939021421
 10
4.4312365154
 20
3.0949041842
 10
4.4535213307
 20
3.0959062263
 10
4.4796360616
 20
3.0969082685
 10
4.5089142713
 20
3.0979103106
 10
4.5406087924
 20
3.0989123527
 10
4.5739107943
 20
3.0999143949
 10
4.6079704243
 20
3.100916437
 10
4.641918495
 20
3.1019184791
 10
4.6748886663
 20
3.1029205213
 10
4.7060395535
 20
3.1039225634
 10
4.7345761993
 20
3.1049246056
 10
4.7597703607
 20
3.1059266477
 10
4.7809790935
 20
3.1069286898
 10
4.79766116
 20
3.107930732
 10
4.8093908408
 20
3.1089327741
 10
4.8158687997
 20
3.1099348162
 10
4.8169094215
 20
3.1103125836
  0
LINE
  5
67E
100
AcDbEntity
  8
02___PRT_ALL_AXES
100
AcDbLine
 62
7
  6
CONTINUOUS
 10
3.6193511642
 20
4.7720480239
 11
5.5878466542
 21
4.7720480239
  0
LINE
  5
67F
100
AcDbEntity
  8
0
100
AcDbLine
 62
7
  6
CONTINUOUS
 10
4.8169094215
 20
3.1496826623
 11
4.8174597363
 21
3.1500007799
  0
LINE
  5
680
100
AcDbEntity
  8
0
100
AcDbLine
 62
7
  6
CONTINUOUS
 10
4.8174597363
 20
3.1500007799
 11
4.847629823
 21
3.1674391041
  0
LINE
  5
681
100
AcDbEntity
  8
0
100
AcDbLine
 62
7
  6
CONTINUOUS
 10
4.8169094215
 20
3.1103125836
 11
4.8174597363
 21
3.1106307012
  0
LINE
  5
682
100
AcDbEntity
  8
0
100
AcDbLine
 62
7
  6
CONTINUOUS
 10
4.8174597363
 20
3.1106307012
 11
4.847629823
 21
3.1280690254
  0
LWPOLYLINE
  5
683
100
AcDbEntity
  8
0
100
AcDbPolyline
 62
7
  6
CONTINUOUS
 90
16
 70
0
 10
4.847629823
 20
3.1280690254
 10
4.8469236926
 20
3.1277953491
 10
4.8409340644
 20
3.1268504215
 10
4.8295574353
 20
3.1259055073
 10
4.8130520848
 20
3.1249605981
 10
4.7917924707
 20
3.1240156835
 10
4.7662610415
 20
3.1230707626
 10
4.7370374863
 20
3.122125843
 10
4.7047847394
 20
3.1211809132
 10
4.6702343416
 20
3.1202359607
 10
4.6341710612
 20
3.1192910013
 10
4.5974150561
 20
3.1183460745
 10
4.5608114503
 20
3.1174014613
 10
4.5251771123
 20
3.1164568126
 10
4.491322686
 20
3.1155121896
 10
4.4600178762
 20
3.1145676532
  0
LINE
  5
684
100
AcDbEntity
  8
0
100
AcDbLine
 62
9
  6
CONTINUOUS
 10
3.6291894603
 20
4.8507881814
 11
5.578008358
 21
4.8507881814
  0
LINE
  5
685
100
AcDbEntity
  8
0
100
AcDbLine
 62
7
  6
CONTINUOUS
 10
5.5189532399
 20
4.9098432995
 11
3.6882445785
 21
4.9098432995
  0
LINE
  5
686
100
AcDbEntity
  8
0
100
AcDbLine
 62
7
  6
CONTINUOUS
 10
4.4085989092
 20
4.9104732207
 11
4.7985989092
 21
4.9104732207
  0
LINE
  5
687
100
AcDbEntity
  8
02___PRT_ALL_AXES
100
AcDbLine
 62
7
  6
CONTINUOUS
 10
5.578008358
 20
4.8507881814
 11
5.578008358
 21
4.7720480239
  0
LINE
  5
688
100
AcDbEntity
  8
02___PRT_ALL_AXES
100
AcDbLine
 62
7
  6
CONTINUOUS
 10
5.5878508777
 20
4.7720480239
 11
5.5878508777
 21
4.299607079
  0
LWPOLYLINE
  5
689
100
AcDbEntity
  8
0
100
AcDbPolyline
 62
9
  6
CONTINUOUS
 90
8
 70
0
 10
11.8021798316
 20
5.5570853878
 10
11.8026512235
 20
5.5395004698
 10
11.8158803832
 20
5.4626023751
 10
11.8472399383
 20
5.3871166591
 10
11.8953251892
 20
5.3157861606
 10
11.9561285073
 20
5.251940399
 10
12.0236123708
 20
5.1979905094
 10
12.0904634564
 20
5.1552702757
  0
LINE
  5
68A
100
AcDbEntity
  8
02___PRT_ALL_AXES
100
AcDbLine
 62
7
  6
CONTINUOUS
 10
11.8021798316
 20
5.9428345612
 11
11.8021798316
 21
5.5570853878
  0
LINE
  5
68B
100
AcDbEntity
  8
02___PRT_ALL_AXES
100
AcDbLine
 62
7
  6
CONTINUOUS
 10
11.8120223513
 20
6.0071260901
 11
11.8120223513
 21
5.9428345612
  0
LWPOLYLINE
  5
68C
100
AcDbEntity
  8
0
100
AcDbPolyline
 62
7
  6
CONTINUOUS
 90
18
 70
0
 10
11.8120223513
 20
6.0071260901
 10
11.8207737921
 20
6.0867516453
 10
11.8473668828
 20
6.1658644321
 10
11.8918748186
 20
6.2425355359
 10
11.954059631
 20
6.3152167485
 10
12.0326354905
 20
6.3819006044
 10
12.1257896865
 20
6.4410606854
 10
12.2312549945
 20
6.4914994728
 10
12.3467648917
 20
6.5324412831
 10
12.4702193189
 20
6.5633828158
 10
12.5992362581
 20
6.583896492
 10
12.7315192692
 20
6.5937361735
 10
12.8647444008
 20
6.5927859781
 10
12.9965087208
 20
6.5810715383
 10
13.1245452543
 20
6.5587490929
 10
13.2464389373
 20
6.5261472167
 10
13.3600117519
 20
6.4837060821
 10
13.4632094178
 20
6.4319576661
  0
LWPOLYLINE
  5
68D
100
AcDbEntity
  8
02___PRT_ALL_AXES
100
AcDbPolyline
 62
7
  6
CONTINUOUS
 90
3
 70
0
 10
11.8098832605
 20
6.0074502259
 10
11.8025961001
 20
5.9593595882
 10
11.8021822065
 20
5.9428485605
  0
LWPOLYLINE
  5
68E
100
AcDbEntity
  8
0
100
AcDbPolyline
 62
7
  6
CONTINUOUS
 90
5
 70
0
 10
12.8496549386
 20
4.5261388961
 10
12.8838005338
 20
4.5337797647
 10
12.9158763846
 20
4.5442809388
 10
12.9455019382
 20
4.5576233715
 10
12.9716607383
 20
4.5734869254
  0
LWPOLYLINE
  5
68F
100
AcDbEntity
  8
0
100
AcDbPolyline
 62
7
  6
CONTINUOUS
 90
8
 70
0
 10
12.8249518017
 20
4.4904228208
 10
12.8619099152
 20
4.4963565802
 10
12.8969793569
 20
4.5055194187
 10
12.9296397269
 20
4.5178316449
 10
12.9591265313
 20
4.5331535169
 10
12.9842697581
 20
4.5509852522
 10
13.0042190284
 20
4.5706412886
 10
13.0187267656
 20
4.5916863773
  0
LWPOLYLINE
  5
690
100
AcDbEntity
  8
0
100
AcDbPolyline
 62
7
  6
CONTINUOUS
 90
8
 70
0
 10
12.8496549386
 20
4.4972077081
 10
12.8139910123
 20
4.4925415871
 10
12.7775519211
 20
4.490969895
 10
12.741530094
 20
4.4925199813
 10
12.7062528162
 20
4.4971652893
 10
12.6724388223
 20
4.5048767662
 10
12.6412601471
 20
4.5154144257
 10
12.6137063766
 20
4.5283503205
  0
LINE
  5
691
100
AcDbEntity
  8
0
100
AcDbLine
 62
7
  6
CONTINUOUS
 10
12.6543516285
 20
4.4685905781
 11
12.6278255936
 21
4.4816233946
  0
LWPOLYLINE
  5
692
100
AcDbEntity
  8
0
100
AcDbPolyline
 62
7
  6
CONTINUOUS
 90
12
 70
0
 10
12.6387612369
 20
4.4753095592
 10
12.6622811712
 20
4.463614334
 10
12.6886432096
 20
4.4540303329
 10
12.7172491999
 20
4.4468034783
 10
12.747428453
 20
4.4421168517
 10
12.7784744571
 20
4.4400829602
 10
12.8096921271
 20
4.4407456023
 10
12.8403895387
 20
4.4440892937
 10
12.8698820057
 20
4.4500398162
 10
12.8975061855
 20
4.4584635719
 10
12.9226450873
 20
4.4691723472
 10
12.9341044002
 20
4.4753127165
  0
LWPOLYLINE
  5
693
100
AcDbEntity
  8
02___PRT_ALL_AXES
100
AcDbPolyline
 62
7
  6
CONTINUOUS
 90
8
 70
0
 10
11.8021822065
 20
5.9428485605
 10
11.8059255646
 20
5.8933059522
 10
11.822514694
 20
5.8279221057
 10
11.8521391485
 20
5.764092253
 10
11.8943983085
 20
5.7026795834
 10
11.9487206911
 20
5.6445145978
 10
12.0143716794
 20
5.5903838781
 10
12.0904634564
 20
5.5410194491
  0
LWPOLYLINE
  5
694
100
AcDbEntity
  8
02___PRT_ALL_AXES
100
AcDbPolyline
 62
7
  6
CONTINUOUS
 90
10
 70
0
 10
11.8120231843
 20
5.9428409216
 10
11.8142297833
 20
5.904988867
 10
11.8240195832
 20
5.8548272996
 10
11.8415581603
 20
5.8053743149
 10
11.8667043044
 20
5.7570280793
 10
11.8992555535
 20
5.7101778482
 10
11.938949824
 20
5.6652008322
 10
11.9854675212
 20
5.6224591597
 10
12.0384341117
 20
5.5822969616
 10
12.0974231398
 20
5.5450376003
  0
LINE
  5
695
100
AcDbEntity
  8
0
100
AcDbLine
 62
9
  6
CONTINUOUS
 10
11.8120223513
 20
6.0071260628
 11
11.8142041876
 21
5.9695002036
  0
LWPOLYLINE
  5
696
100
AcDbEntity
  8
02___PRT_ALL_AXES
100
AcDbPolyline
 62
7
  6
CONTINUOUS
 90
10
 70
0
 10
12.5634446309
 20
4.6571922345
 10
12.6508579242
 20
4.6421410103
 10
12.7415938902
 20
4.6351654368
 10
12.833428753
 20
4.6364659474
 10
12.9241118048
 20
4.6460401432
 10
13.0114205664
 20
4.6636828526
 10
13.0932152569
 20
4.6889911589
 10
13.1674912348
 20
4.7213742753
 10
13.2324281293
 20
4.7600680244
 10
13.2864344535
 20
4.8041535662
  0
LWPOLYLINE
  5
697
100
AcDbEntity
  8
02___PRT_ALL_AXES
100
AcDbPolyline
 62
7
  6
CONTINUOUS
 90
4
 70
0
 10
12.5634446309
 20
4.6571922345
 10
12.534495484
 20
4.6665523782
 10
12.5056538731
 20
4.6770828055
 10
12.4769746365
 20
4.688828745
  0
LWPOLYLINE
  5
698
100
AcDbEntity
  8
0
100
AcDbPolyline
 62
9
  6
CONTINUOUS
 90
14
 70
0
 10
12.4769746365
 20
4.6508382906
 10
12.5503510217
 20
4.6266175637
 10
12.6292773538
 20
4.6091591111
 10
12.7119044689
 20
4.5988724842
 10
12.7962853279
 20
4.5960009444
 10
12.8804332547
 20
4.6006120761
 10
12.9623698646
 20
4.6125972197
 10
13.0401692889
 20
4.6316746421
 10
13.1120015203
 20
4.657395678
 10
13.1761771336
 20
4.6891554032
 10
13.2311869039
 20
4.7262069155
 10
13.2757371538
 20
4.7676788729
 10
13.3087801077
 20
4.8125958759
 10
13.3243971736
 20
4.8481847306
  0
LWPOLYLINE
  5
699
100
AcDbEntity
  8
0
100
AcDbPolyline
 62
7
  6
CONTINUOUS
 90
7
 70
0
 10
12.6137063766
 20
4.5251357441
 10
12.6427723727
 20
4.5115991189
 10
12.6757861363
 20
4.5007404335
 10
12.7115761564
 20
4.4930397421
 10
12.7487839428
 20
4.4887415071
 10
12.786791713
 20
4.4878558204
 10
12.8249518017
 20
4.4904228208
  0
LWPOLYLINE
  5
69A
100
AcDbEntity
  8
0
100
AcDbPolyline
 62
7
  6
CONTINUOUS
 90
11
 70
0
 10
12.6137063766
 20
4.589427273
 10
12.6427992073
 20
4.5758800785
 10
12.6758380926
 20
4.565017947
 10
12.7116453637
 20
4.557319937
 10
12.7488591693
 20
4.5530278628
 10
12.7868632818
 20
4.5521489152
 10
12.8250074286
 20
4.554720662
 10
12.861951244
 20
4.5606567738
 10
12.8970225835
 20
4.5698246316
 10
12.9296797539
 20
4.5821409359
 10
12.955961552
 20
4.5958028726
  0
LWPOLYLINE
  5
69B
100
AcDbEntity
  8
0
100
AcDbPolyline
 62
7
  6
CONTINUOUS
 90
8
 70
0
 10
12.6137063766
 20
4.5572815085
 10
12.6412601471
 20
4.5443456137
 10
12.6724388223
 20
4.5338079542
 10
12.7062528162
 20
4.5260964773
 10
12.741530094
 20
4.5214511693
 10
12.7775519211
 20
4.519901083
 10
12.8139910123
 20
4.5214727751
 10
12.8496549386
 20
4.5261388961
  0
LINE
  5
69C
100
AcDbEntity
  8
0
100
AcDbLine
 62
7
  6
CONTINUOUS
 10
12.4843511651
 20
4.6332640935
 11
12.4858109701
 21
4.6325634021
  0
LINE
  5
69D
100
AcDbEntity
  8
0
100
AcDbLine
 62
7
  6
CONTINUOUS
 10
12.484326745
 20
4.6332781922
 11
12.3392797339
 21
4.7170192286
  0
LINE
  5
69E
100
AcDbEntity
  8
0
100
AcDbLine
 62
9
  6
CONTINUOUS
 10
12.4769746365
 20
4.6508382906
 11
12.3303237856
 21
4.7355052835
  0
LINE
  5
69F
100
AcDbEntity
  8
0
100
AcDbLine
 62
7
  6
CONTINUOUS
 10
12.6278216397
 20
4.4816256774
 11
12.6387612369
 21
4.4753095592
  0
LINE
  5
6A0
100
AcDbEntity
  8
0
100
AcDbLine
 62
7
  6
CONTINUOUS
 10
12.6137063766
 20
4.560496085
 11
12.5888635696
 21
4.5764813288
  0
LWPOLYLINE
  5
6A1
100
AcDbEntity
  8
0
100
AcDbPolyline
 62
7
  6
CONTINUOUS
 90
3
 70
0
 10
12.6137063766
 20
4.5283503205
 10
12.5888345052
 20
4.5443576124
 10
12.5686078847
 20
4.5626319713
  0
LWPOLYLINE
  5
6A2
100
AcDbEntity
  8
0
100
AcDbPolyline
 62
7
  6
CONTINUOUS
 90
3
 70
0
 10
12.6278216656
 20
4.4816256624
 10
12.606534343
 20
4.4959351618
 10
12.6009925768
 20
4.5010758571
  0
LINE
  5
6A3
100
AcDbEntity
  8
0
100
AcDbLine
 62
7
  6
CONTINUOUS
 10
12.6093890704
 20
4.4954169085
 11
12.5861213918
 21
4.5110985254
  0
LWPOLYLINE
  5
6A4
100
AcDbEntity
  8
0
100
AcDbPolyline
 62
7
  6
CONTINUOUS
 90
13
 70
0
 10
12.5834894093
 20
4.516437586
 10
12.6063557974
 20
4.5004144933
 10
12.6333595584
 20
4.4865766076
 10
12.6638789945
 20
4.4752615528
 10
12.6972123152
 20
4.4667475722
 10
12.7325936171
 20
4.4612480283
 10
12.7692106687
 20
4.4589068616
 10
12.8062231519
 20
4.4597955723
 10
12.8427811533
 20
4.4639115634
 10
12.8780451892
 20
4.4711780922
 10
12.9112059786
 20
4.481446199
 10
12.9415024727
 20
4.4944981456
 10
12.9682389536
 20
4.5100522156
  0
LINE
  5
6A5
100
AcDbEntity
  8
0
100
AcDbLine
 62
7
  6
CONTINUOUS
 10
12.3369152782
 20
4.7186866102
 11
12.3392574982
 21
4.7170320661
  0
LWPOLYLINE
  5
6A6
100
AcDbEntity
  8
0
100
AcDbPolyline
 62
7
  6
CONTINUOUS
 90
4
 70
0
 10
12.3369158267
 20
4.7186862999
 10
12.2926609894
 20
4.7636708713
 10
12.260566667
 20
4.8124732606
 10
12.2552639519
 20
4.8265484179
  0
LWPOLYLINE
  5
6A7
100
AcDbEntity
  8
0
100
AcDbPolyline
 62
9
  6
CONTINUOUS
 90
6
 70
0
 10
11.8142041876
 20
5.9695002036
 10
11.8221699834
 20
5.9261479855
 10
11.8359379671
 20
5.8832525912
 10
11.8554364571
 20
5.8410748129
 10
11.8804661063
 20
5.8000059512
 10
11.9108944157
 20
5.7602098878
  0
LWPOLYLINE
  5
6A8
100
AcDbEntity
  8
02___PRT_ALL_AXES
100
AcDbPolyline
 62
7
  6
CONTINUOUS
 90
9
 70
0
 10
12.7415938902
 20
4.6411927677
 10
12.833428753
 20
4.6424932782
 10
12.9241118048
 20
4.6520674741
 10
13.0114205664
 20
4.6697101835
 10
13.0932152569
 20
4.6950184897
 10
13.1674912348
 20
4.7274016062
 10
13.2324281293
 20
4.7660953553
 10
13.2864344535
 20
4.8101808971
 10
13.3281866091
 20
4.8586072486
  0
LINE
  5
6A9
100
AcDbEntity
  8
02___PRT_ALL_AXES
100
AcDbLine
 62
7
  6
CONTINUOUS
 10
12.6508579242
 20
4.6481683412
 11
12.7415938902
 21
4.6411927677
  0
LINE
  5
6AA
100
AcDbEntity
  8
02___PRT_ALL_AXES
100
AcDbLine
 62
7
  6
CONTINUOUS
 10
12.5634446309
 20
4.6632195653
 11
12.6508579242
 21
4.6481683412
  0
LWPOLYLINE
  5
6AB
100
AcDbEntity
  8
02___PRT_ALL_AXES
100
AcDbPolyline
 62
7
  6
CONTINUOUS
 90
11
 70
0
 10
12.5634446309
 20
4.7054108811
 10
12.6508579242
 20
4.690359657
 10
12.7415938902
 20
4.6833840835
 10
12.833428753
 20
4.684684594
 10
12.9241118048
 20
4.6942587899
 10
13.0114205664
 20
4.7119014993
 10
13.0932152569
 20
4.7372098056
 10
13.1674912348
 20
4.769592922
 10
13.2324281293
 20
4.8082866711
 10
13.2864344535
 20
4.8523722129
 10
13.3281866091
 20
4.9007985644
  0
LWPOLYLINE
  5
6AC
100
AcDbEntity
  8
02___PRT_ALL_AXES
100
AcDbPolyline
 62
7
  6
CONTINUOUS
 90
11
 70
0
 10
12.5634446309
 20
4.711438212
 10
12.6508579242
 20
4.6963869878
 10
12.7415938902
 20
4.6894114144
 10
12.833428753
 20
4.6907119249
 10
12.9241118048
 20
4.7002861208
 10
13.0114205664
 20
4.7179288301
 10
13.0932152569
 20
4.7432371364
 10
13.1674912348
 20
4.7756202529
 10
13.2324281293
 20
4.8143140019
 10
13.2864344535
 20
4.8583995437
 10
13.3281866091
 20
4.9068258952
  0
LWPOLYLINE
  5
6AD
100
AcDbEntity
  8
02___PRT_ALL_AXES
100
AcDbPolyline
 62
7
  6
CONTINUOUS
 90
6
 70
0
 10
12.5634446309
 20
4.7536295278
 10
12.6508579242
 20
4.7385783037
 10
12.7415938902
 20
4.7316027302
 10
12.833428753
 20
4.7329032407
 10
12.9241118048
 20
4.7424774366
 10
13.0114205664
 20
4.760120146
  0
LWPOLYLINE
  5
6AE
100
AcDbEntity
  8
02___PRT_ALL_AXES
100
AcDbPolyline
 62
7
  6
CONTINUOUS
 90
3
 70
0
 10
12.6310485948
 20
4.7368817338
 10
12.5513015743
 20
4.7531939936
 10
12.4769746365
 20
4.7764815809
  0
LWPOLYLINE
  5
6AF
100
AcDbEntity
  8
02___PRT_ALL_AXES
100
AcDbPolyline
 62
7
  6
CONTINUOUS
 90
3
 70
0
 10
12.6281966887
 20
4.6891102918
 10
12.5499162257
 20
4.705332613
 10
12.4769746365
 20
4.7282629342
  0
LWPOLYLINE
  5
6B0
100
AcDbEntity
  8
02___PRT_ALL_AXES
100
AcDbPolyline
 62
7
  6
CONTINUOUS
 90
4
 70
0
 10
12.5634446309
 20
4.7054108811
 10
12.5344693393
 20
4.7147800127
 10
12.5056331969
 20
4.7253094532
 10
12.4769746365
 20
4.7370473917
  0
LWPOLYLINE
  5
6B1
100
AcDbEntity
  8
02___PRT_ALL_AXES
100
AcDbPolyline
 62
7
  6
CONTINUOUS
 90
4
 70
0
 10
12.2438537913
 20
4.8416615152
 10
12.2728247313
 20
4.8322938797
 10
12.3016605447
 20
4.8217647544
 10
12.3303237856
 20
4.8100250047
  0
LWPOLYLINE
  5
6B2
100
AcDbEntity
  8
02___PRT_ALL_AXES
100
AcDbPolyline
 62
7
  6
CONTINUOUS
 90
4
 70
0
 10
12.5634446309
 20
4.7536295278
 10
12.5344693393
 20
4.7629986594
 10
12.5056331969
 20
4.7735280999
 10
12.4769746365
 20
4.7852660383
  0
LINE
  5
6B3
100
AcDbEntity
  8
0
100
AcDbLine
 62
7
  6
CONTINUOUS
 10
12.5966013769
 20
4.6004335812
 11
12.6137063766
 21
4.589427273
  0
LINE
  5
6B4
100
AcDbEntity
  8
0
100
AcDbLine
 62
7
  6
CONTINUOUS
 10
12.6137063766
 20
4.5926418494
 11
12.6041414824
 21
4.5987971844
  0
LWPOLYLINE
  5
6B5
100
AcDbEntity
  8
02___PRT_ALL_AXES
100
AcDbPolyline
 62
7
  6
CONTINUOUS
 90
5
 70
0
 10
12.3303237856
 20
4.8188094622
 10
12.3089320723
 20
4.8338070683
 10
12.2868843935
 20
4.8500377473
 10
12.264909047
 20
4.8669649902
 10
12.2438537913
 20
4.8838528311
  0
LWPOLYLINE
  5
6B6
100
AcDbEntity
  8
02___PRT_ALL_AXES
100
AcDbPolyline
 62
7
  6
CONTINUOUS
 90
3
 70
0
 10
12.3303237856
 20
4.7705908155
 10
12.3016658506
 20
4.7908522532
 10
12.2728274565
 20
4.8125628216
  0
LWPOLYLINE
  5
6B7
100
AcDbEntity
  8
02___PRT_ALL_AXES
100
AcDbPolyline
 62
7
  6
CONTINUOUS
 90
4
 70
0
 10
12.4769746365
 20
4.7282629342
 10
12.5056605346
 20
4.7079810759
 10
12.5345046264
 20
4.6862648405
 10
12.5634446309
 20
4.6632195653
  0
LWPOLYLINE
  5
6B8
100
AcDbEntity
  8
02___PRT_ALL_AXES
100
AcDbPolyline
 62
7
  6
CONTINUOUS
 90
4
 70
0
 10
12.3303237856
 20
4.8670281089
 10
12.3016658506
 20
4.8872895465
 10
12.2728274565
 20
4.909000115
 10
12.2438537913
 20
4.9320714777
  0
LWPOLYLINE
  5
6B9
100
AcDbEntity
  8
02___PRT_ALL_AXES
100
AcDbPolyline
 62
7
  6
CONTINUOUS
 90
4
 70
0
 10
12.4769746365
 20
4.7764815809
 10
12.5056374647
 20
4.75621657
 10
12.5344754893
 20
4.7345060689
 10
12.5634446309
 20
4.711438212
  0
LINE
  5
6BA
100
AcDbEntity
  8
02___PRT_ALL_AXES
100
AcDbLine
 62
7
  6
CONTINUOUS
 10
12.2728274565
 20
4.8125628216
 11
12.2438537913
 21
4.8356341844
  0
LWPOLYLINE
  5
6BB
100
AcDbEntity
  8
0
100
AcDbPolyline
 62
7
  6
CONTINUOUS
 90
3
 70
0
 10
12.5888635696
 20
4.5764813288
 10
12.5686469071
 20
4.5947351697
 10
12.5581566492
 20
4.6088632373
  0
LWPOLYLINE
  5
6BC
100
AcDbEntity
  8
0
100
AcDbPolyline
 62
7
  6
CONTINUOUS
 90
3
 70
0
 10
12.5686078847
 20
4.5915631593
 10
12.5888345052
 20
4.5732888004
 10
12.6137063766
 20
4.5572815085
  0
LWPOLYLINE
  5
6BD
100
AcDbEntity
  8
0
100
AcDbPolyline
 62
7
  6
CONTINUOUS
 90
4
 70
0
 10
12.5861213918
 20
4.5110985254
 10
12.5673968696
 20
4.5286116945
 10
12.5536415295
 20
4.5475405488
 10
12.5451673552
 20
4.5674368061
  0
LINE
  5
6BE
100
AcDbEntity
  8
02___PRT_ALL_AXES
100
AcDbLine
 62
7
  6
CONTINUOUS
 10
12.3303237856
 20
4.8582436514
 11
12.2975142924
 21
4.8904149871
  0
LINE
  5
6BF
100
AcDbEntity
  8
02___PRT_ALL_AXES
100
AcDbLine
 62
7
  6
CONTINUOUS
 10
12.3303237856
 20
4.8100250047
 11
12.2978585926
 21
4.8419589511
  0
LINE
  5
6C0
100
AcDbEntity
  8
02___PRT_ALL_AXES
100
AcDbLine
 62
7
  6
CONTINUOUS
 10
12.2157001435
 20
4.9331174234
 11
12.2438537913
 21
4.8838528311
  0
LINE
  5
6C1
100
AcDbEntity
  8
02___PRT_ALL_AXES
100
AcDbLine
 62
7
  6
CONTINUOUS
 10
12.2157001435
 20
4.9391447542
 11
12.2438537913
 21
4.8898801619
  0
LWPOLYLINE
  5
6C2
100
AcDbEntity
  8
02___PRT_ALL_AXES
100
AcDbPolyline
 62
7
  6
CONTINUOUS
 90
3
 70
0
 10
12.8816322361
 20
4.828720276
 10
12.7971862437
 20
4.8228158374
 10
12.713122845
 20
4.8244089779
  0
LINE
  5
6C3
100
AcDbEntity
  8
02___PRT_ALL_AXES
100
AcDbLine
 62
7
  6
CONTINUOUS
 10
12.713122845
 20
4.8244089779
 11
12.6307973095
 21
4.8333580455
  0
LWPOLYLINE
  5
6C4
100
AcDbEntity
  8
02___PRT_ALL_AXES
100
AcDbPolyline
 62
7
  6
CONTINUOUS
 90
6
 70
0
 10
12.5634446309
 20
4.7596568587
 10
12.6508579242
 20
4.7446056345
 10
12.7415938902
 20
4.737630061
 10
12.833428753
 20
4.7389305716
 10
12.9241118048
 20
4.7485047674
 10
13.0114205664
 20
4.7661474768
  0
LWPOLYLINE
  5
6C5
100
AcDbEntity
  8
02___PRT_ALL_AXES
100
AcDbPolyline
 62
7
  6
CONTINUOUS
 90
11
 70
0
 10
12.5634446309
 20
4.8018481745
 10
12.6508579242
 20
4.7867969504
 10
12.7415938902
 20
4.7798213769
 10
12.833428753
 20
4.7811218874
 10
12.9241118048
 20
4.7906960833
 10
13.0114205664
 20
4.8083387927
 10
13.0932152569
 20
4.8336470989
 10
13.1674912348
 20
4.8660302154
 10
13.2324281293
 20
4.9047239645
 10
13.2864344535
 20
4.9488095063
 10
13.3281866091
 20
4.9972358578
  0
LWPOLYLINE
  5
6C6
100
AcDbEntity
  8
02___PRT_ALL_AXES
100
AcDbPolyline
 62
7
  6
CONTINUOUS
 90
6
 70
0
 10
12.5634446309
 20
4.8078755053
 10
12.6508579242
 20
4.7928242812
 10
12.7415938902
 20
4.7858487077
 10
12.833428753
 20
4.7871492182
 10
12.9241118048
 20
4.7967234141
 10
13.0114205664
 20
4.8143661235
  0
LWPOLYLINE
  5
6C7
100
AcDbEntity
  8
02___PRT_ALL_AXES
100
AcDbPolyline
 62
7
  6
CONTINUOUS
 90
11
 70
0
 10
12.5634446309
 20
4.8500668212
 10
12.6508579242
 20
4.835015597
 10
12.7415938902
 20
4.8280400236
 10
12.833428753
 20
4.8293405341
 10
12.9241118048
 20
4.83891473
 10
13.0114205664
 20
4.8565574394
 10
13.0932152569
 20
4.8818657456
 10
13.1674912348
 20
4.9142488621
 10
13.2324281293
 20
4.9529426111
 10
13.2864344535
 20
4.9970281529
 10
13.3281866091
 20
5.0454545044
  0
LWPOLYLINE
  5
6C8
100
AcDbEntity
  8
02___PRT_ALL_AXES
100
AcDbPolyline
 62
7
  6
CONTINUOUS
 90
12
 70
0
 10
12.5634446309
 20
4.856094152
 10
12.6508579242
 20
4.8410429279
 10
12.7415938902
 20
4.8340673544
 10
12.833428753
 20
4.8353678649
 10
12.9241118048
 20
4.8449420608
 10
13.0114205664
 20
4.8625847702
 10
13.0932152569
 20
4.8878930764
 10
13.1674912348
 20
4.9202761929
 10
13.2324281293
 20
4.958969942
 10
13.2864344535
 20
5.0030554838
 10
13.3281866091
 20
5.0514818353
 10
13.339904935
 20
5.0727210411
  0
LWPOLYLINE
  5
6C9
100
AcDbEntity
  8
02___PRT_ALL_AXES
100
AcDbPolyline
 62
7
  6
CONTINUOUS
 90
3
 70
0
 10
12.6307973095
 20
4.8333580455
 10
12.551181963
 20
4.8496620271
 10
12.4769746365
 20
4.8729188742
  0
LWPOLYLINE
  5
6CA
100
AcDbEntity
  8
02___PRT_ALL_AXES
100
AcDbPolyline
 62
7
  6
CONTINUOUS
 90
3
 70
0
 10
12.6295431264
 20
4.7853352549
 10
12.5507274671
 20
4.8015603693
 10
12.4769746365
 20
4.8247002275
  0
LWPOLYLINE
  5
6CB
100
AcDbEntity
  8
02___PRT_ALL_AXES
100
AcDbPolyline
 62
7
  6
CONTINUOUS
 90
5
 70
0
 10
12.2438537913
 20
4.8898801619
 10
12.2649202871
 20
4.8831850396
 10
12.2867958115
 20
4.8755666431
 10
12.3088101204
 20
4.8671769262
 10
12.3303237856
 20
4.8582436514
  0
LWPOLYLINE
  5
6CC
100
AcDbEntity
  8
02___PRT_ALL_AXES
100
AcDbPolyline
 62
7
  6
CONTINUOUS
 90
4
 70
0
 10
12.5634446309
 20
4.8018481745
 10
12.5344693393
 20
4.811217306
 10
12.5056331969
 20
4.8217467466
 10
12.4769746365
 20
4.833484685
  0
LWPOLYLINE
  5
6CD
100
AcDbEntity
  8
02___PRT_ALL_AXES
100
AcDbPolyline
 62
7
  6
CONTINUOUS
 90
4
 70
0
 10
12.2438537913
 20
4.9380988086
 10
12.2728247313
 20
4.928731173
 10
12.3016605447
 20
4.9182020477
 10
12.3303237856
 20
4.9064622981
  0
LWPOLYLINE
  5
6CE
100
AcDbEntity
  8
02___PRT_ALL_AXES
100
AcDbPolyline
 62
7
  6
CONTINUOUS
 90
4
 70
0
 10
12.5634446309
 20
4.8500668212
 10
12.5344693393
 20
4.8594359527
 10
12.5056331969
 20
4.8699653933
 10
12.4769746365
 20
4.8817033317
  0
LWPOLYLINE
  5
6CF
100
AcDbEntity
  8
0
100
AcDbPolyline
 62
7
  6
CONTINUOUS
 90
7
 70
0
 10
12.0986174848
 20
5.137247199
 10
12.0106753699
 20
5.1953934639
 10
11.9365957668
 20
5.260223763
 10
11.8779234772
 20
5.3304042014
 10
11.8357658754
 20
5.4042935228
 10
11.8105476991
 20
5.4802649559
 10
11.8021798316
 20
5.5570853878
  0
LWPOLYLINE
  5
6D0
100
AcDbEntity
  8
02___PRT_ALL_AXES
100
AcDbPolyline
 62
7
  6
CONTINUOUS
 90
4
 70
0
 10
12.3303237856
 20
4.9152467555
 10
12.3016658506
 20
4.9355081932
 10
12.2728274565
 20
4.9572187617
 10
12.2438537913
 20
4.9802901244
  0
LWPOLYLINE
  5
6D1
100
AcDbEntity
  8
02___PRT_ALL_AXES
100
AcDbPolyline
 62
7
  6
CONTINUOUS
 90
4
 70
0
 10
12.4769746365
 20
4.8247002275
 10
12.5056374647
 20
4.8044352166
 10
12.5344754893
 20
4.7827247156
 10
12.5634446309
 20
4.7596568587
  0
LWPOLYLINE
  5
6D2
100
AcDbEntity
  8
02___PRT_ALL_AXES
100
AcDbPolyline
 62
7
  6
CONTINUOUS
 90
4
 70
0
 10
12.3303237856
 20
4.9634654022
 10
12.3016658506
 20
4.9837268399
 10
12.2728274565
 20
5.0054374084
 10
12.2438537913
 20
5.0285087711
  0
LWPOLYLINE
  5
6D3
100
AcDbEntity
  8
02___PRT_ALL_AXES
100
AcDbPolyline
 62
7
  6
CONTINUOUS
 90
4
 70
0
 10
12.4769746365
 20
4.8729188742
 10
12.5056374647
 20
4.8526538633
 10
12.5344754893
 20
4.8309433622
 10
12.5634446309
 20
4.8078755053
  0
LINE
  5
6D4
100
AcDbEntity
  8
02___PRT_ALL_AXES
100
AcDbLine
 62
7
  6
CONTINUOUS
 10
12.3303237856
 20
5.0028995914
 11
12.2977964152
 21
5.0348585351
  0
LINE
  5
6D5
100
AcDbEntity
  8
02___PRT_ALL_AXES
100
AcDbLine
 62
7
  6
CONTINUOUS
 10
12.3303237856
 20
4.9064622981
 11
12.2979324483
 21
4.9383188312
  0
LINE
  5
6D6
100
AcDbEntity
  8
02___PRT_ALL_AXES
100
AcDbLine
 62
7
  6
CONTINUOUS
 10
12.3303237856
 20
4.9546809447
 11
12.297954861
 21
4.9865206048
  0
LWPOLYLINE
  5
6D7
100
AcDbEntity
  8
0
100
AcDbPolyline
 62
7
  6
CONTINUOUS
 90
4
 70
0
 10
12.5538824857
 20
4.5792677539
 10
12.5686203101
 20
4.559403837
 10
12.5888437495
 20
4.5411360222
 10
12.6137063766
 20
4.5251357441
  0
LWPOLYLINE
  5
6D8
100
AcDbEntity
  8
0
100
AcDbPolyline
 62
7
  6
CONTINUOUS
 90
4
 70
0
 10
12.5686078847
 20
4.5626319713
 10
12.5538718354
 20
4.5825007321
 10
12.5450574578
 20
4.6031867041
 10
12.54360755
 20
4.6136294073
  0
LINE
  5
6D9
100
AcDbEntity
  8
0
100
AcDbLine
 62
7
  6
CONTINUOUS
 10
12.5550132005
 20
4.6098930063
 11
12.5686078847
 21
4.5915631593
  0
LINE
  5
6DA
100
AcDbEntity
  8
02___PRT_ALL_AXES
100
AcDbLine
 62
7
  6
CONTINUOUS
 10
12.2157001435
 20
5.0295547167
 11
12.2438537913
 21
4.9802901244
  0
LINE
  5
6DB
100
AcDbEntity
  8
02___PRT_ALL_AXES
100
AcDbLine
 62
7
  6
CONTINUOUS
 10
12.2157001435
 20
5.0777733634
 11
12.2438537913
 21
5.0285087711
  0
LINE
  5
6DC
100
AcDbEntity
  8
02___PRT_ALL_AXES
100
AcDbLine
 62
7
  6
CONTINUOUS
 10
12.2183230218
 20
5.079211057
 11
12.2438537913
 21
5.0345361019
  0
LWPOLYLINE
  5
6DD
100
AcDbEntity
  8
0
100
AcDbPolyline
 62
9
  6
CONTINUOUS
 90
4
 70
0
 10
12.2576898524
 20
4.8246167042
 10
12.2581308085
 20
4.8234361218
 10
12.2883710685
 20
4.7778683236
 10
12.3303237856
 20
4.7355052835
  0
LINE
  5
6DE
100
AcDbEntity
  8
02___PRT_ALL_AXES
100
AcDbLine
 62
7
  6
CONTINUOUS
 10
12.2015341054
 20
4.9843004014
 11
12.2157001435
 21
4.9331174234
  0
LWPOLYLINE
  5
6DF
100
AcDbEntity
  8
02___PRT_ALL_AXES
100
AcDbPolyline
 62
7
  6
CONTINUOUS
 90
3
 70
0
 10
12.2015341054
 20
5.0325190481
 10
12.2157001435
 20
4.98133607
 10
12.2438537913
 20
4.9320714777
  0
LINE
  5
6E0
100
AcDbEntity
  8
02___PRT_ALL_AXES
100
AcDbLine
 62
7
  6
CONTINUOUS
 10
12.2015341054
 20
5.0807376948
 11
12.2157001435
 21
5.0295547167
  0
LWPOLYLINE
  5
6E1
100
AcDbEntity
  8
02___PRT_ALL_AXES
100
AcDbPolyline
 62
7
  6
CONTINUOUS
 90
3
 70
0
 10
12.2019063766
 20
5.0854199814
 10
12.2157001435
 20
5.0355820476
 10
12.2438537913
 20
4.9863174553
  0
LWPOLYLINE
  5
6E2
100
AcDbEntity
  8
02___PRT_ALL_AXES
100
AcDbPolyline
 62
7
  6
CONTINUOUS
 90
4
 70
0
 10
12.1998176269
 20
4.9613841583
 10
12.2015341054
 20
4.9360817547
 10
12.2157001435
 20
4.8848987767
 10
12.2438537913
 20
4.8356341844
  0
LWPOLYLINE
  5
6E3
100
AcDbEntity
  8
02___PRT_ALL_AXES
100
AcDbPolyline
 62
7
  6
CONTINUOUS
 90
4
 70
0
 10
12.1998176269
 20
4.9674114891
 10
12.2015341054
 20
4.9421090856
 10
12.2157001435
 20
4.8909261075
 10
12.2438537913
 20
4.8416615152
  0
LINE
  5
6E4
100
AcDbEntity
  8
02___PRT_ALL_AXES
100
AcDbLine
 62
7
  6
CONTINUOUS
 10
12.1998176269
 20
5.009602805
 11
12.2015341054
 21
4.9843004014
  0
LWPOLYLINE
  5
6E5
100
AcDbEntity
  8
02___PRT_ALL_AXES
100
AcDbPolyline
 62
7
  6
CONTINUOUS
 90
3
 70
0
 10
12.1998176269
 20
5.0156301358
 10
12.2015341054
 20
4.9903277322
 10
12.2157001435
 20
4.9391447542
  0
LINE
  5
6E6
100
AcDbEntity
  8
02___PRT_ALL_AXES
100
AcDbLine
 62
7
  6
CONTINUOUS
 10
12.1998176269
 20
5.0578214516
 11
12.2015341054
 21
5.0325190481
  0
LWPOLYLINE
  5
6E7
100
AcDbEntity
  8
02___PRT_ALL_AXES
100
AcDbPolyline
 62
7
  6
CONTINUOUS
 90
4
 70
0
 10
12.1998176269
 20
5.0638487825
 10
12.2015341054
 20
5.0385463789
 10
12.2157001435
 20
4.9873634009
 10
12.2438537913
 20
4.9380988086
  0
LINE
  5
6E8
100
AcDbEntity
  8
02___PRT_ALL_AXES
100
AcDbLine
 62
7
  6
CONTINUOUS
 10
12.2011921542
 20
5.0857783564
 11
12.2015341054
 21
5.0807376948
  0
LWPOLYLINE
  5
6E9
100
AcDbEntity
  8
02___PRT_ALL_AXES
100
AcDbPolyline
 62
7
  6
CONTINUOUS
 90
5
 70
0
 10
12.6430611275
 20
6.1381179607
 10
12.617845957
 20
6.120379107
 10
12.5991094459
 20
6.100141019
 10
12.5875716278
 20
6.078181435
 10
12.5836758946
 20
6.0553447337
  0
LWPOLYLINE
  5
6EA
100
AcDbEntity
  8
0
100
AcDbPolyline
 62
7
  6
CONTINUOUS
 90
10
 70
0
 10
12.6655780802
 20
6.1256324183
 10
12.6528067722
 20
6.1173814966
 10
12.6417158766
 20
6.1083568946
 10
12.6324448676
 20
6.0986721021
 10
12.6251103336
 20
6.0884489108
 10
12.6198045107
 20
6.0778158833
 10
12.6165941226
 20
6.0669067362
 10
12.6155195419
 20
6.0558586582
 10
12.616594282
 20
6.0448105854
 10
12.6198048274
 20
6.0339014537
  0
LWPOLYLINE
  5
6EB
100
AcDbEntity
  8
0
100
AcDbPolyline
 62
7
  6
CONTINUOUS
 90
9
 70
0
 10
12.6485454037
 20
6.1354660162
 10
12.6348878267
 20
6.1267086598
 10
12.6228905972
 20
6.1171750606
 10
12.6126851593
 20
6.1069696705
 10
12.604383326
 20
6.0962043019
 10
12.5980760538
 20
6.0849969026
 10
12.5938324467
 20
6.073470263
 10
12.5916989983
 20
6.0617506715
 10
12.5914323492
 20
6.0558590695
  0
LWPOLYLINE
  5
6EC
100
AcDbEntity
  8
0
100
AcDbPolyline
 62
7
  6
CONTINUOUS
 90
24
 70
0
 10
12.6485454037
 20
6.1354660162
 10
12.6637136929
 20
6.1433511821
 10
12.6802265074
 20
6.1502777662
 10
12.6979029293
 20
6.1561698792
 10
12.716549292
 20
6.160962966
 10
12.7359613021
 20
6.1646045126
 10
12.7559262775
 20
6.1670546213
 10
12.7762254779
 20
6.1682864482
 10
12.7966365008
 20
6.1682864973
 10
12.8169357189
 20
6.1670547679
 10
12.8369007297
 20
6.1646047552
 10
12.8563127923
 20
6.160963302
 10
12.8749592242
 20
6.1561703048
 10
12.892635731
 20
6.1502782767
 10
12.9091486454
 20
6.1433517721
 10
12.9243170484
 20
6.135466679
 10
12.9379747517
 20
6.1267093884
 10
12.9499721187
 20
6.1171758468
 10
12.9601777037
 20
6.1069705057
 10
12.9684796923
 20
6.0962051771
 10
12.9747871261
 20
6.0849978081
 10
12.9790308995
 20
6.0734711889
 10
12.9811645169
 20
6.0617516077
 10
12.981431251
 20
6.0558590686
  0
LWPOLYLINE
  5
6ED
100
AcDbEntity
  8
0
100
AcDbPolyline
 62
7
  6
CONTINUOUS
 90
24
 70
0
 10
12.6655780802
 20
6.1256324183
 10
12.6798691938
 20
6.1330058996
 10
12.695500394
 20
6.1394092149
 10
12.7122751093
 20
6.1447618385
 10
12.7299823881
 20
6.1489964582
 10
12.748399551
 20
6.1520598213
 10
12.7672949915
 20
6.153913404
 10
12.7864310885
 20
6.1545338966
 10
12.8055671944
 20
6.153913496
 10
12.8244626617
 20
6.1520600041
 10
12.8428798688
 20
6.1489967296
 10
12.8605872086
 20
6.144762195
 10
12.8773620012
 20
6.139409652
 10
12.8929932938
 20
6.1330064119
 10
12.9072845137
 20
6.1256329993
 10
12.9200559406
 20
6.1173821389
 10
12.9311469665
 20
6.1083575903
 10
12.9404181151
 20
6.0986728423
 10
12.9477527965
 20
6.0884496863
 10
12.9530587728
 20
6.0778166844
 10
12.9562693182
 20
6.0669075526
 10
12.9573440583
 20
6.0558594799
 10
12.9562694776
 20
6.0448114019
 10
12.9530590895
 20
6.0339022548
  0
LWPOLYLINE
  5
6EE
100
AcDbEntity
  8
02___PRT_ALL_AXES
100
AcDbPolyline
 62
7
  6
CONTINUOUS
 90
11
 70
0
 10
12.5634446309
 20
4.8982854679
 10
12.6508579242
 20
4.8832342437
 10
12.7415938902
 20
4.8762586702
 10
12.833428753
 20
4.8775591808
 10
12.9241118048
 20
4.8871333766
 10
13.0114205664
 20
4.904776086
 10
13.0932152569
 20
4.9300843923
 10
13.1674912348
 20
4.9624675088
 10
13.2324281293
 20
5.0011612578
 10
13.2864344535
 20
5.0452467996
 10
13.2973021346
 20
5.0578517092
  0
LWPOLYLINE
  5
6EF
100
AcDbEntity
  8
02___PRT_ALL_AXES
100
AcDbPolyline
 62
7
  6
CONTINUOUS
 90
11
 70
0
 10
12.5634446309
 20
4.9043127987
 10
12.6508579242
 20
4.8892615746
 10
12.7415938902
 20
4.8822860011
 10
12.833428753
 20
4.8835865116
 10
12.9241118048
 20
4.8931607075
 10
13.0114205664
 20
4.9108034169
 10
13.0932152569
 20
4.9361117231
 10
13.1674912348
 20
4.9684948396
 10
13.2324281293
 20
5.0071885887
 10
13.2864344535
 20
5.0512741305
 10
13.2898686054
 20
5.0552572409
  0
LWPOLYLINE
  5
6F0
100
AcDbEntity
  8
02___PRT_ALL_AXES
100
AcDbPolyline
 62
7
  6
CONTINUOUS
 90
9
 70
0
 10
12.5634446309
 20
4.9465041145
 10
12.6508579242
 20
4.9314528904
 10
12.7415938902
 20
4.9244773169
 10
12.833428753
 20
4.9257778275
 10
12.9241118048
 20
4.9353520233
 10
13.0114205664
 20
4.9529947327
 10
13.0932152569
 20
4.978303039
 10
13.1674912348
 20
5.0106861554
 10
13.190724613
 20
5.0245301576
  0
LWPOLYLINE
  5
6F1
100
AcDbEntity
  8
02___PRT_ALL_AXES
100
AcDbPolyline
 62
7
  6
CONTINUOUS
 90
9
 70
0
 10
12.5634446309
 20
4.9525314454
 10
12.6508579242
 20
4.9374802212
 10
12.7415938902
 20
4.9305046478
 10
12.833428753
 20
4.9318051583
 10
12.9241118048
 20
4.9413793542
 10
13.0114205664
 20
4.9590220635
 10
13.0932152569
 20
4.9843303698
 10
13.1674912348
 20
5.0167134863
 10
13.1734705878
 20
5.0202763851
  0
LWPOLYLINE
  5
6F2
100
AcDbEntity
  8
02___PRT_ALL_AXES
100
AcDbPolyline
 62
7
  6
CONTINUOUS
 90
3
 70
0
 10
12.6306721814
 20
4.8815961491
 10
12.5511229009
 20
4.8978958602
 10
12.4769746365
 20
4.9211375209
  0
LWPOLYLINE
  5
6F3
100
AcDbEntity
  8
02___PRT_ALL_AXES
100
AcDbPolyline
 62
7
  6
CONTINUOUS
 90
3
 70
0
 10
12.6285623194
 20
4.930145654
 10
12.5498215757
 20
4.946450354
 10
12.4769746365
 20
4.9693561676
  0
LWPOLYLINE
  5
6F4
100
AcDbEntity
  8
02___PRT_ALL_AXES
100
AcDbPolyline
 62
7
  6
CONTINUOUS
 90
5
 70
0
 10
12.5634446309
 20
4.8982854679
 10
12.5424057436
 20
4.904971412
 10
12.5204383036
 20
4.91262242
 10
12.4983857296
 20
4.921029548
 10
12.4769746365
 20
4.9299219784
  0
LWPOLYLINE
  5
6F5
100
AcDbEntity
  8
02___PRT_ALL_AXES
100
AcDbPolyline
 62
7
  6
CONTINUOUS
 90
4
 70
0
 10
12.2438537913
 20
4.9863174553
 10
12.2728247313
 20
4.9769498197
 10
12.3016605447
 20
4.9664206944
 10
12.3303237856
 20
4.9546809447
  0
LWPOLYLINE
  5
6F6
100
AcDbEntity
  8
02___PRT_ALL_AXES
100
AcDbPolyline
 62
7
  6
CONTINUOUS
 90
4
 70
0
 10
12.2438537913
 20
5.0345361019
 10
12.2728247313
 20
5.0251684664
 10
12.3016605447
 20
5.0146393411
 10
12.3303237856
 20
5.0028995914
  0
LWPOLYLINE
  5
6F7
100
AcDbEntity
  8
02___PRT_ALL_AXES
100
AcDbPolyline
 62
7
  6
CONTINUOUS
 90
4
 70
0
 10
12.5634446309
 20
4.9465041145
 10
12.5344693393
 20
4.9558732461
 10
12.5056331969
 20
4.9664026867
 10
12.4769746365
 20
4.9781406251
  0
LWPOLYLINE
  5
6F8
100
AcDbEntity
  8
0
100
AcDbPolyline
 62
9
  6
CONTINUOUS
 90
3
 70
0
 10
12.0904634564
 20
5.1552702757
 10
12.1644038119
 20
5.1167005243
 10
12.2577951577
 20
5.0777540723
  0
LWPOLYLINE
  5
6F9
100
AcDbEntity
  8
02___PRT_ALL_AXES
100
AcDbPolyline
 62
7
  6
CONTINUOUS
 90
5
 70
0
 10
12.4769746365
 20
4.9693561676
 10
12.4984657188
 20
4.9542871492
 10
12.5204702163
 20
4.9380855422
 10
12.5423526719
 20
4.9212295162
 10
12.5634446309
 20
4.9043127987
  0
LWPOLYLINE
  5
6FA
100
AcDbEntity
  8
02___PRT_ALL_AXES
100
AcDbPolyline
 62
7
  6
CONTINUOUS
 90
4
 70
0
 10
12.3303237856
 20
5.0116840489
 10
12.3016658506
 20
5.0319454866
 10
12.2728274565
 20
5.053656055
 10
12.2606386983
 20
5.0633618089
  0
LWPOLYLINE
  5
6FB
100
AcDbEntity
  8
02___PRT_ALL_AXES
100
AcDbPolyline
 62
7
  6
CONTINUOUS
 90
4
 70
0
 10
12.4769746365
 20
4.9211375209
 10
12.5056374647
 20
4.90087251
 10
12.5344754893
 20
4.8791620089
 10
12.5634446309
 20
4.856094152
  0
LWPOLYLINE
  5
6FC
100
AcDbEntity
  8
02___PRT_ALL_AXES
100
AcDbPolyline
 62
7
  6
CONTINUOUS
 90
4
 70
0
 10
12.5049867795
 20
4.9977698466
 10
12.5056374647
 20
4.9973098034
 10
12.5344754893
 20
4.9755993023
 10
12.5634446309
 20
4.9525314454
  0
LINE
  5
6FD
100
AcDbEntity
  8
02___PRT_ALL_AXES
100
AcDbLine
 62
7
  6
CONTINUOUS
 10
12.2149528637
 20
5.0804733427
 11
12.2157001435
 21
5.0777733634
  0
LINE
  5
6FE
100
AcDbEntity
  8
02___PRT_ALL_AXES
100
AcDbLine
 62
7
  6
CONTINUOUS
 10
12.2438537913
 20
4.8356341844
 11
12.2438537913
 21
4.8416615152
  0
LINE
  5
6FF
100
AcDbEntity
  8
02___PRT_ALL_AXES
100
AcDbLine
 62
7
  6
CONTINUOUS
 10
12.2438537913
 20
4.8838528311
 11
12.2438537913
 21
4.8898801619
  0
LINE
  5
700
100
AcDbEntity
  8
02___PRT_ALL_AXES
100
AcDbLine
 62
7
  6
CONTINUOUS
 10
12.2438537913
 20
4.9320714777
 11
12.2438537913
 21
4.9380988086
  0
LINE
  5
701
100
AcDbEntity
  8
02___PRT_ALL_AXES
100
AcDbLine
 62
7
  6
CONTINUOUS
 10
12.2438537913
 20
4.9802901244
 11
12.2438537913
 21
4.9863174553
  0
LINE
  5
702
100
AcDbEntity
  8
02___PRT_ALL_AXES
100
AcDbLine
 62
7
  6
CONTINUOUS
 10
12.2438537913
 20
5.0285087711
 11
12.2438537913
 21
5.0345361019
  0
LINE
  5
703
100
AcDbEntity
  8
02___PRT_ALL_AXES
100
AcDbLine
 62
7
  6
CONTINUOUS
 10
12.2012823239
 20
5.0844491753
 11
12.1998176269
 21
5.0638487825
  0
LINE
  5
704
100
AcDbEntity
  8
02___PRT_ALL_AXES
100
AcDbLine
 62
7
  6
CONTINUOUS
 10
12.2012823239
 20
5.0362305286
 11
12.1998176269
 21
5.0156301358
  0
LINE
  5
705
100
AcDbEntity
  8
02___PRT_ALL_AXES
100
AcDbLine
 62
7
  6
CONTINUOUS
 10
12.2012823239
 20
4.9880118819
 11
12.1998176269
 21
4.9674114891
  0
LWPOLYLINE
  5
706
100
AcDbEntity
  8
02___PRT_ALL_AXES
100
AcDbPolyline
 62
7
  6
CONTINUOUS
 90
6
 70
0
 10
12.9116798227
 20
4.9782598069
 10
12.8799163294
 20
4.9731798607
 10
12.7965372834
 20
4.967455649
 10
12.7131056616
 20
4.969066008
 10
12.6308263224
 20
4.9780094767
 10
12.6060198707
 20
4.9830887958
  0
LWPOLYLINE
  5
707
100
AcDbEntity
  8
02___PRT_ALL_AXES
100
AcDbPolyline
 62
7
  6
CONTINUOUS
 90
3
 70
0
 10
12.7237098819
 20
4.9740708453
 10
12.7415938902
 20
4.9726959636
 10
12.7930614918
 20
4.9734248171
  0
LWPOLYLINE
  5
708
100
AcDbEntity
  8
0
100
AcDbPolyline
 62
7
  6
CONTINUOUS
 90
5
 70
0
 10
12.5697326606
 20
4.9863818548
 10
12.4401216282
 20
5.0091788166
 10
12.3169170598
 20
5.0422828663
 10
12.2023788138
 20
5.0851829268
 10
12.0986174848
 20
5.137247199
  0
LWPOLYLINE
  5
709
100
AcDbEntity
  8
0
100
AcDbPolyline
 62
9
  6
CONTINUOUS
 90
14
 70
0
 10
12.3683383662
 20
5.0426513564
 10
12.4918631369
 20
5.0148812371
 10
12.6226020314
 20
4.9967626196
 10
12.755794577
 20
4.9891107326
 10
12.8893630442
 20
4.9919512735
 10
13.0212116157
 20
5.0052387141
 10
13.1487777208
 20
5.0287441385
 10
13.2695985209
 20
5.0620160882
 10
13.3814654844
 20
5.104437888
 10
13.4823396149
 20
5.1552353331
 10
13.570343031
 20
5.2134649618
 10
13.6438411713
 20
5.2780427216
 10
13.7014926674
 20
5.3477915041
 10
13.7422291119
 20
5.4214365055
  0
LINE
  5
70A
100
AcDbEntity
  8
0
100
AcDbLine
 62
9
  6
CONTINUOUS
 10
12.2577951577
 20
5.0777540723
 11
12.3683383662
 21
5.0426513564
  0
LWPOLYLINE
  5
70B
100
AcDbEntity
  8
0
100
AcDbPolyline
 62
7
  6
CONTINUOUS
 90
4
 70
0
 10
12.5443927071
 20
4.5735774696
 10
12.5521479152
 20
4.5534620967
 10
12.5652806308
 20
4.5342625499
 10
12.5834894093
 20
4.516437586
  0
LWPOLYLINE
  5
70C
100
AcDbEntity
  8
0
100
AcDbPolyline
 62
7
  6
CONTINUOUS
 90
4
 70
0
 10
12.3303237856
 20
4.7355052835
 10
12.3318235812
 20
4.7262619737
 10
12.3361698464
 20
4.7193654094
 10
12.3369152782
 20
4.7186866102
  0
LINE
  5
70D
100
AcDbEntity
  8
02___PRT_ALL_AXES
100
AcDbLine
 62
7
  6
CONTINUOUS
 10
12.3303237856
 20
5.0116840489
 11
12.3303237856
 21
5.0028995914
  0
LINE
  5
70E
100
AcDbEntity
  8
02___PRT_ALL_AXES
100
AcDbLine
 62
7
  6
CONTINUOUS
 10
12.3303237856
 20
4.9634654022
 11
12.3303237856
 21
4.9546809447
  0
LINE
  5
70F
100
AcDbEntity
  8
02___PRT_ALL_AXES
100
AcDbLine
 62
7
  6
CONTINUOUS
 10
12.3303237856
 20
4.9152467555
 11
12.3303237856
 21
4.9064622981
  0
LINE
  5
710
100
AcDbEntity
  8
02___PRT_ALL_AXES
100
AcDbLine
 62
7
  6
CONTINUOUS
 10
12.3303237856
 20
4.8670281089
 11
12.3303237856
 21
4.8582436514
  0
LINE
  5
711
100
AcDbEntity
  8
02___PRT_ALL_AXES
100
AcDbLine
 62
7
  6
CONTINUOUS
 10
12.3303237856
 20
4.8188094622
 11
12.3303237856
 21
4.8100250047
  0
LINE
  5
712
100
AcDbEntity
  8
0
100
AcDbLine
 62
7
  6
CONTINUOUS
 10
12.3303237856
 20
4.7705908155
 11
12.3303237856
 21
4.7355052835
  0
LWPOLYLINE
  5
713
100
AcDbEntity
  8
02___PRT_ALL_AXES
100
AcDbPolyline
 62
7
  6
CONTINUOUS
 90
3
 70
0
 10
12.5925832499
 20
6.0553249358
 10
12.5861720242
 20
6.0415106317
 10
12.5861116951
 20
6.0410667384
  0
LWPOLYLINE
  5
714
100
AcDbEntity
  8
0
100
AcDbPolyline
 62
7
  6
CONTINUOUS
 90
3
 70
0
 10
12.8926370928
 20
5.9614403719
 10
12.9091499073
 20
5.9683669559
 10
12.9243181965
 20
5.9762521219
  0
LWPOLYLINE
  5
715
100
AcDbEntity
  8
0
100
AcDbPolyline
 62
7
  6
CONTINUOUS
 90
4
 70
0
 10
12.8605884909
 20
5.9669562996
 10
12.8773632062
 20
5.9723089232
 10
12.8929944064
 20
5.9787122384
 10
12.90728552
 20
5.9860857198
  0
LINE
  5
716
100
AcDbEntity
  8
02___PRT_ALL_AXES
100
AcDbLine
 62
7
  6
CONTINUOUS
 10
12.8640239058
 20
5.9471960443
 11
12.8990776477
 21
5.9580135879
  0
LWPOLYLINE
  5
717
100
AcDbEntity
  8
0
100
AcDbPolyline
 62
9
  6
CONTINUOUS
 90
5
 70
0
 10
11.9108944157
 20
5.7602098878
 10
11.947044299
 20
5.7214133003
 10
11.9895461824
 20
5.6833781965
 10
12.0392885514
 20
5.6459984334
 10
12.0974231398
 20
5.6093291292
  0
LWPOLYLINE
  5
718
100
AcDbEntity
  8
0
100
AcDbPolyline
 62
7
  6
CONTINUOUS
 90
6
 70
0
 10
12.5852263949
 20
4.5119356218
 10
12.5873479241
 20
4.5034168693
 10
12.595537812
 20
4.4873137801
 10
12.6076137511
 20
4.4720475139
 10
12.6233299099
 20
4.4579288478
 10
12.6423663529
 20
4.445245197
  0
LWPOLYLINE
  5
719
100
AcDbEntity
  8
0
100
AcDbPolyline
 62
7
  6
CONTINUOUS
 90
4
 70
0
 10
12.4769746365
 20
4.6508382906
 10
12.4782141915
 20
4.6417452275
 10
12.4818039065
 20
4.6352854478
 10
12.4843511651
 20
4.6332640935
  0
LINE
  5
71A
100
AcDbEntity
  8
02___PRT_ALL_AXES
100
AcDbLine
 62
7
  6
CONTINUOUS
 10
12.4769746365
 20
4.9781406251
 11
12.4769746365
 21
4.9693561676
  0
LINE
  5
71B
100
AcDbEntity
  8
02___PRT_ALL_AXES
100
AcDbLine
 62
7
  6
CONTINUOUS
 10
12.4769746365
 20
4.9299219784
 11
12.4769746365
 21
4.9211375209
  0
LINE
  5
71C
100
AcDbEntity
  8
02___PRT_ALL_AXES
100
AcDbLine
 62
7
  6
CONTINUOUS
 10
12.4769746365
 20
4.8817033317
 11
12.4769746365
 21
4.8729188742
  0
LINE
  5
71D
100
AcDbEntity
  8
02___PRT_ALL_AXES
100
AcDbLine
 62
7
  6
CONTINUOUS
 10
12.4769746365
 20
4.833484685
 11
12.4769746365
 21
4.8247002275
  0
LINE
  5
71E
100
AcDbEntity
  8
02___PRT_ALL_AXES
100
AcDbLine
 62
7
  6
CONTINUOUS
 10
12.4769746365
 20
4.7852660383
 11
12.4769746365
 21
4.7764815809
  0
LINE
  5
71F
100
AcDbEntity
  8
02___PRT_ALL_AXES
100
AcDbLine
 62
7
  6
CONTINUOUS
 10
12.4769746365
 20
4.7370473917
 11
12.4769746365
 21
4.7282629342
  0
LINE
  5
720
100
AcDbEntity
  8
0
100
AcDbLine
 62
7
  6
CONTINUOUS
 10
12.4769746365
 20
4.688828745
 11
12.4769746365
 21
4.6508382906
  0
LWPOLYLINE
  5
721
100
AcDbEntity
  8
0
100
AcDbPolyline
 62
7
  6
CONTINUOUS
 90
3
 70
0
 10
12.9311477236
 20
6.0033612435
 10
12.920056828
 20
5.9943366415
 10
12.90728552
 20
5.9860857198
  0
LINE
  5
722
100
AcDbEntity
  8
02___PRT_ALL_AXES
100
AcDbLine
 62
7
  6
CONTINUOUS
 10
12.9298024727
 20
5.972571513
 11
12.9550176432
 21
5.9903103666
  0
LINE
  5
723
100
AcDbEntity
  8
02___PRT_ALL_AXES
100
AcDbLine
 62
7
  6
CONTINUOUS
 10
12.8990776477
 20
5.9580135879
 11
12.9298024727
 21
5.972571513
  0
LINE
  5
724
100
AcDbEntity
  8
02___PRT_ALL_AXES
100
AcDbLine
 62
7
  6
CONTINUOUS
 10
12.1759670113
 20
5.4970888803
 11
12.0904634564
 21
5.5410194491
  0
LWPOLYLINE
  5
725
100
AcDbEntity
  8
0
100
AcDbPolyline
 62
7
  6
CONTINUOUS
 90
3
 70
0
 10
12.5431409853
 20
4.6137822502
 10
12.5450632274
 20
4.5999514907
 10
12.5538824857
 20
4.5792677539
  0
LINE
  5
726
100
AcDbEntity
  8
0
100
AcDbLine
 62
7
  6
CONTINUOUS
 10
12.5421601466
 20
4.591908803
 11
12.5443927071
 21
4.5735774696
  0
LWPOLYLINE
  5
727
100
AcDbEntity
  8
0
100
AcDbPolyline
 62
7
  6
CONTINUOUS
 90
3
 70
0
 10
12.5421601466
 20
4.5894980616
 10
12.5422805313
 20
4.5850707571
 10
12.5451673552
 20
4.5674368061
  0
LINE
  5
728
100
AcDbEntity
  8
02___PRT_ALL_AXES
100
AcDbLine
 62
7
  6
CONTINUOUS
 10
12.5634446309
 20
4.9525314454
 11
12.5634446309
 21
4.9465041145
  0
LINE
  5
729
100
AcDbEntity
  8
02___PRT_ALL_AXES
100
AcDbLine
 62
7
  6
CONTINUOUS
 10
12.5634446309
 20
4.9043127987
 11
12.5634446309
 21
4.8982854679
  0
LINE
  5
72A
100
AcDbEntity
  8
02___PRT_ALL_AXES
100
AcDbLine
 62
7
  6
CONTINUOUS
 10
12.5634446309
 20
4.856094152
 11
12.5634446309
 21
4.8500668212
  0
LINE
  5
72B
100
AcDbEntity
  8
02___PRT_ALL_AXES
100
AcDbLine
 62
7
  6
CONTINUOUS
 10
12.5634446309
 20
4.8078755053
 11
12.5634446309
 21
4.8018481745
  0
LINE
  5
72C
100
AcDbEntity
  8
02___PRT_ALL_AXES
100
AcDbLine
 62
7
  6
CONTINUOUS
 10
12.5634446309
 20
4.7596568587
 11
12.5634446309
 21
4.7536295278
  0
LINE
  5
72D
100
AcDbEntity
  8
02___PRT_ALL_AXES
100
AcDbLine
 62
7
  6
CONTINUOUS
 10
12.5634446309
 20
4.711438212
 11
12.5634446309
 21
4.7054108811
  0
LINE
  5
72E
100
AcDbEntity
  8
02___PRT_ALL_AXES
100
AcDbLine
 62
7
  6
CONTINUOUS
 10
12.5634446309
 20
4.6632195653
 11
12.5634446309
 21
4.6571922345
  0
LINE
  5
72F
100
AcDbEntity
  8
0
100
AcDbLine
 62
7
  6
CONTINUOUS
 10
12.5914318001
 20
6.0231989723
 11
12.5914318001
 21
6.055859069
  0
LINE
  5
730
100
AcDbEntity
  8
02___PRT_ALL_AXES
100
AcDbLine
 62
7
  6
CONTINUOUS
 10
12.9550176432
 20
5.9903103666
 11
12.9737541543
 21
6.0105484546
  0
LWPOLYLINE
  5
731
100
AcDbEntity
  8
0
100
AcDbPolyline
 62
9
  6
CONTINUOUS
 90
24
 70
0
 10
12.0974231398
 20
5.6093291292
 10
12.1608596711
 20
5.5758035784
 10
12.2255357639
 20
5.5471075185
 10
12.2913673248
 20
5.5225765399
 10
12.3585409863
 20
5.5017017426
 10
12.4274698885
 20
5.4841230126
 10
12.4986163769
 20
5.4696594159
 10
12.5716814943
 20
5.458391105
 10
12.6459841431
 20
5.450432983
 10
12.7210779803
 20
5.4458253308
 10
12.7965705047
 20
5.4445890286
 10
12.8720020593
 20
5.4467320124
 10
12.9469078298
 20
5.4522402739
 10
13.0208389013
 20
5.4610792335
 10
13.0933535104
 20
5.4731946388
 10
13.1640173888
 20
5.4885126096
 10
13.2324104863
 20
5.506941016
 10
13.2981275757
 20
5.5283702211
 10
13.3607764231
 20
5.5526724575
 10
13.4199808034
 20
5.5797021149
 10
13.4753842519
 20
5.6092966806
 10
13.5266533801
 20
5.6412780772
 10
13.5734815919
 20
5.6754550869
 10
13.6155884572
 20
5.7116233988
  0
LWPOLYLINE
  5
732
100
AcDbEntity
  8
0
100
AcDbPolyline
 62
7
  6
CONTINUOUS
 90
10
 70
0
 10
12.5914323492
 20
6.0558590695
 10
12.5916990833
 20
6.0499665304
 10
12.5938327007
 20
6.0382469492
 10
12.5980764741
 20
6.02672033
 10
12.6043839079
 20
6.015512961
 10
12.6126858965
 20
6.0047476323
 10
12.6228914815
 20
5.9945422913
 10
12.6348888485
 20
5.9850087497
 10
12.6485465518
 20
5.976251459
 10
12.6637149548
 20
5.968366366
  0
LWPOLYLINE
  5
733
100
AcDbEntity
  8
0
100
AcDbPolyline
 62
7
  6
CONTINUOUS
 90
3
 70
0
 10
12.5441963192
 20
4.6061889981
 10
12.5421927479
 20
4.5941292291
 10
12.5421601466
 20
4.591908803
  0
LWPOLYLINE
  5
734
100
AcDbEntity
  8
0
100
AcDbPolyline
 62
7
  6
CONTINUOUS
 90
4
 70
0
 10
12.9530590895
 20
6.0339022548
 10
12.9477532666
 20
6.0232692273
 10
12.9404187326
 20
6.013046036
 10
12.9311477236
 20
6.0033612435
  0
LWPOLYLINE
  5
735
100
AcDbEntity
  8
0
100
AcDbPolyline
 62
9
  6
CONTINUOUS
 90
41
 70
0
 10
12.1391812404
 20
5.6816566826
 10
12.19876112
 20
5.6501687684
 10
12.2595181811
 20
5.6232106776
 10
12.321360512
 20
5.6001654762
 10
12.3844634723
 20
5.5805550752
 10
12.4492151353
 20
5.56404111
 10
12.5160499436
 20
5.5504535505
 10
12.584687202
 20
5.5398676534
 10
12.6544870971
 20
5.5323913663
 10
12.7250302931
 20
5.5280625375
 10
12.7959480685
 20
5.5269007838
 10
12.8668086211
 20
5.5289135628
 10
12.9371752957
 20
5.5340877176
 10
13.0066263722
 20
5.5423907658
 10
13.07474685
 20
5.5537717439
 10
13.1411287685
 20
5.5681612495
 10
13.205377524
 20
5.5854727357
 10
13.2671124379
 20
5.6056032094
 10
13.3259650377
 20
5.628432645
 10
13.3815818894
 20
5.6538242547
 10
13.4336281225
 20
5.6816253721
 10
13.4817905445
 20
5.7116687092
 10
13.5257811321
 20
5.7437746328
 10
13.5653364431
 20
5.7777512102
 10
13.6002180884
 20
5.8133940488
 10
13.6302160342
 20
5.8504885944
 10
13.6551498588
 20
5.8888113505
 10
13.6748711981
 20
5.9281341522
 10
13.6892626518
 20
5.9682253693
 10
13.69823612
 20
6.0088465401
 10
13.7017348894
 20
6.049753018
 10
13.6997362117
 20
6.0906929769
 10
13.6922527426
 20
6.1314181072
 10
13.6793186458
 20
6.1717140745
 10
13.661001269
 20
6.2113358745
 10
13.6374878875
 20
6.249915921
 10
13.6089029289
 20
6.2873003168
 10
13.5749429758
 20
6.3237458674
 10
13.5350157087
 20
6.3594761372
 10
13.4882864385
 20
6.3945908558
 10
13.4336823598
 20
6.429032791
  0
LINE
  5
736
100
AcDbEntity
  8
02___PRT_ALL_AXES
100
AcDbLine
 62
7
  6
CONTINUOUS
 10
12.5836758946
 20
6.0553447337
 11
12.5875719571
 21
6.0325070826
  0
LWPOLYLINE
  5
737
100
AcDbEntity
  8
02___PRT_ALL_AXES
100
AcDbPolyline
 62
7
  6
CONTINUOUS
 90
3
 70
0
 10
12.9737541543
 20
6.0105484546
 10
12.9852919724
 20
6.0325080386
 10
12.9891877056
 20
6.0553447399
  0
LINE
  5
738
100
AcDbEntity
  8
02___PRT_ALL_AXES
100
AcDbLine
 62
7
  6
CONTINUOUS
 10
12.5875719571
 20
6.0325070826
 11
12.5991100919
 21
6.0105475541
  0
LWPOLYLINE
  5
739
100
AcDbEntity
  8
0
100
AcDbPolyline
 62
7
  6
CONTINUOUS
 90
4
 70
0
 10
12.6198048274
 20
6.0339014537
 10
12.6251108037
 20
6.0232684518
 10
12.6324454851
 20
6.0130452957
 10
12.6417166337
 20
6.0033605477
  0
LINE
  5
73A
100
AcDbEntity
  8
0
100
AcDbLine
 62
7
  6
CONTINUOUS
 10
12.9814318001
 20
6.0231989723
 11
12.9814318001
 21
6.055859069
  0
LWPOLYLINE
  5
73B
100
AcDbEntity
  8
0
100
AcDbPolyline
 62
7
  6
CONTINUOUS
 90
9
 70
0
 10
12.981431251
 20
6.0558590686
 10
12.9811646019
 20
6.0499674666
 10
12.9790311535
 20
6.0382478751
 10
12.9747875463
 20
6.0267212355
 10
12.9684802742
 20
6.0155138361
 10
12.9601784409
 20
6.0047484676
 10
12.949973003
 20
5.9945430775
 10
12.9379757735
 20
5.9850094782
 10
12.9243181965
 20
5.9762521219
  0
LWPOLYLINE
  5
73C
100
AcDbEntity
  8
02___PRT_ALL_AXES
100
AcDbPolyline
 62
7
  6
CONTINUOUS
 90
4
 70
0
 10
12.5991100919
 20
6.0105475541
 10
12.6178468949
 20
5.9903095561
 10
12.6430623213
 20
5.9725708237
 10
12.6737873563
 20
5.9580130463
  0
LWPOLYLINE
  5
73D
100
AcDbEntity
  8
0
100
AcDbPolyline
 62
7
  6
CONTINUOUS
 90
3
 70
0
 10
13.0307034536
 20
4.6079816714
 10
13.0306142962
 20
4.611929895
 10
13.0302621669
 20
4.6139713819
  0
LINE
  5
73E
100
AcDbEntity
  8
0
100
AcDbLine
 62
7
  6
CONTINUOUS
 10
12.6417166337
 20
6.0033605477
 11
12.6528076596
 21
5.9943359991
  0
LWPOLYLINE
  5
73F
100
AcDbEntity
  8
02___PRT_ALL_AXES
100
AcDbPolyline
 62
7
  6
CONTINUOUS
 90
13
 70
0
 10
12.9891877056
 20
6.0553447399
 10
12.9852916431
 20
6.078182391
 10
12.9737535083
 20
6.1001419195
 10
12.9550167053
 20
6.1203799175
 10
12.9298012789
 20
6.1381186499
 10
12.8990762439
 20
6.1526764273
 10
12.8640223461
 20
6.1634938023
 10
12.8259866871
 20
6.1701550695
 10
12.7864309559
 20
6.1724042399
 10
12.7468752573
 20
6.1701548793
 10
12.7088396943
 20
6.1634934293
 10
12.6737859525
 20
6.1526758857
 10
12.6430611275
 20
6.1381179607
  0
LWPOLYLINE
  5
740
100
AcDbEntity
  8
0
100
AcDbPolyline
 62
7
  6
CONTINUOUS
 90
3
 70
0
 10
13.0307034536
 20
4.6047670923
 10
13.0289627804
 20
4.587349806
 10
13.0218370694
 20
4.56573305
  0
LWPOLYLINE
  5
741
100
AcDbEntity
  8
02___PRT_ALL_AXES
100
AcDbPolyline
 62
7
  6
CONTINUOUS
 90
6
 70
0
 10
12.6737873563
 20
5.9580130463
 10
12.7088412541
 20
5.9471956713
 10
12.7468769131
 20
5.9405344041
 10
12.7864326443
 20
5.9382852337
 10
12.8259883429
 20
5.9405345943
 10
12.8640239058
 20
5.9471960443
  0
LWPOLYLINE
  5
742
100
AcDbEntity
  8
0
100
AcDbPolyline
 62
7
  6
CONTINUOUS
 90
12
 70
0
 10
12.6802278692
 20
5.9614398613
 10
12.697904376
 20
5.9555478333
 10
12.7165508079
 20
5.9507548361
 10
12.7359628705
 20
5.9471133829
 10
12.7559278813
 20
5.9446633702
 10
12.7762270994
 20
5.9434316408
 10
12.7966381223
 20
5.9434316898
 10
12.8169373226
 20
5.9446635168
 10
12.8369022981
 20
5.9471136255
 10
12.8563143082
 20
5.950755172
 10
12.8749606709
 20
5.9555482588
 10
12.8926370928
 20
5.9614403719
  0
LINE
  5
743
100
AcDbEntity
  8
0
100
AcDbLine
 62
7
  6
CONTINUOUS
 10
12.6637149548
 20
5.968366366
 11
12.6802278692
 21
5.9614398613
  0
LWPOLYLINE
  5
744
100
AcDbEntity
  8
0
100
AcDbPolyline
 62
7
  6
CONTINUOUS
 90
4
 70
0
 10
12.6528076596
 20
5.9943359991
 10
12.6655790865
 20
5.9860851388
 10
12.6798703064
 20
5.9787117261
 10
12.695501599
 20
5.9723084861
  0
LINE
  5
745
100
AcDbEntity
  8
02___PRT_ALL_AXES
100
AcDbLine
 62
7
  6
CONTINUOUS
 10
12.9863443613
 20
6.0386771189
 11
12.9822787472
 21
6.0534966719
  0
LWPOLYLINE
  5
746
100
AcDbEntity
  8
0
100
AcDbPolyline
 62
7
  6
CONTINUOUS
 90
17
 70
0
 10
12.988191918
 20
4.5141631501
 10
12.9855160368
 20
4.5034178264
 10
12.9773263811
 20
4.4873146978
 10
12.9652506622
 20
4.4720483736
 10
12.9495347069
 20
4.4579296319
 10
12.9304984469
 20
4.4452458896
 10
12.9085294053
 20
4.4342553513
 10
12.8840748086
 20
4.4251817524
 10
12.8576324819
 20
4.4182098054
 10
12.8297407145
 20
4.413481439
 10
12.8009673026
 20
4.4110929091
 10
12.7718979898
 20
4.4110928392
 10
12.7431245434
 20
4.4134812308
 10
12.7152327079
 20
4.4182094631
 10
12.6887902806
 20
4.425181283
 10
12.664335553
 20
4.4342547643
 10
12.6423663529
 20
4.445245197
  0
LINE
  5
747
100
AcDbEntity
  8
0
100
AcDbLine
 62
7
  6
CONTINUOUS
 10
13.0256990071
 20
4.6127672268
 11
13.0223192385
 21
4.6021514228
  0
LINE
  5
748
100
AcDbEntity
  8
0
100
AcDbLine
 62
9
  6
CONTINUOUS
 10
13.6155884572
 20
5.7116233988
 11
13.6527202149
 21
5.7495654396
  0
LWPOLYLINE
  5
749
100
AcDbEntity
  8
0
100
AcDbPolyline
 62
7
  6
CONTINUOUS
 90
3
 70
0
 10
12.8244640492
 20
5.9596583168
 10
12.8428812121
 20
5.9627216798
 10
12.8605884909
 20
5.9669562996
  0
LWPOLYLINE
  5
74A
100
AcDbEntity
  8
0
100
AcDbPolyline
 62
7
  6
CONTINUOUS
 90
6
 70
0
 10
12.7299837314
 20
5.9627214084
 10
12.7484009385
 20
5.9596581339
 10
12.7672964058
 20
5.957804642
 10
12.7864325117
 20
5.9571842414
 10
12.8055686086
 20
5.957804734
 10
12.8244640492
 20
5.9596583168
  0
LWPOLYLINE
  5
74B
100
AcDbEntity
  8
0
100
AcDbPolyline
 62
7
  6
CONTINUOUS
 90
3
 70
0
 10
12.695501599
 20
5.9723084861
 10
12.7122763916
 20
5.9669559431
 10
12.7299837314
 20
5.9627214084
  0
LINE
  5
74C
100
AcDbEntity
  8
02___PRT_ALL_AXES
100
AcDbLine
 62
7
  6
CONTINUOUS
 10
12.9822787472
 20
6.0534966719
 11
12.9809297268
 21
6.0555256103
  0
LINE
  5
74D
100
AcDbEntity
  8
02___PRT_ALL_AXES
100
AcDbLine
 62
7
  6
CONTINUOUS
 10
13.3730459733
 20
4.9915208125
 11
13.371646249
 21
5.0131116895
  0
LINE
  5
74E
100
AcDbEntity
  8
02___PRT_ALL_AXES
100
AcDbLine
 62
7
  6
CONTINUOUS
 10
13.3730459733
 20
5.0397394591
 11
13.371646249
 21
5.0613303362
  0
LINE
  5
74F
100
AcDbEntity
  8
0
100
AcDbLine
 62
7
  6
CONTINUOUS
 10
13.0187267656
 20
4.5916863773
 11
13.0273936272
 21
4.6132144137
  0
LWPOLYLINE
  5
750
100
AcDbEntity
  8
0
100
AcDbPolyline
 62
7
  6
CONTINUOUS
 90
3
 70
0
 10
13.0130030639
 20
4.5510235711
 10
13.0078189183
 20
4.5389536316
 10
12.9936553076
 20
4.5193360804
  0
LWPOLYLINE
  5
751
100
AcDbEntity
  8
0
100
AcDbPolyline
 62
9
  6
CONTINUOUS
 90
5
 70
0
 10
13.6527202149
 20
5.7495654396
 10
13.6846532894
 20
5.789052822
 10
13.7111956231
 20
5.829847637
 10
13.7321892827
 20
5.871707006
 10
13.7475092952
 20
5.9143843617
  0
LINE
  5
752
100
AcDbEntity
  8
02___PRT_ALL_AXES
100
AcDbLine
 62
7
  6
CONTINUOUS
 10
13.3711607392
 20
5.0541848487
 11
13.3730459733
 21
5.081930775
  0
LINE
  5
753
100
AcDbEntity
  8
02___PRT_ALL_AXES
100
AcDbLine
 62
7
  6
CONTINUOUS
 10
13.3711607392
 20
5.005966202
 11
13.3730459733
 21
5.0337121283
  0
LWPOLYLINE
  5
754
100
AcDbEntity
  8
02___PRT_ALL_AXES
100
AcDbPolyline
 62
7
  6
CONTINUOUS
 90
3
 70
0
 10
13.3566613258
 20
5.0066543346
 10
13.3711607392
 20
5.0602121795
 10
13.3730238043
 20
5.0876318332
  0
LINE
  5
755
100
AcDbEntity
  8
02___PRT_ALL_AXES
100
AcDbLine
 62
7
  6
CONTINUOUS
 10
13.3566613258
 20
5.0006270038
 11
13.3711607392
 21
5.0541848487
  0
LWPOLYLINE
  5
756
100
AcDbEntity
  8
02___PRT_ALL_AXES
100
AcDbPolyline
 62
7
  6
CONTINUOUS
 90
3
 70
0
 10
13.3566613258
 20
4.9584356879
 10
13.3711607392
 20
5.0119935328
 10
13.3730459733
 20
5.0397394591
  0
LINE
  5
757
100
AcDbEntity
  8
02___PRT_ALL_AXES
100
AcDbLine
 62
7
  6
CONTINUOUS
 10
13.3566613258
 20
4.9524083571
 11
13.3711607392
 21
5.005966202
  0
LINE
  5
758
100
AcDbEntity
  8
02___PRT_ALL_AXES
100
AcDbLine
 62
7
  6
CONTINUOUS
 10
13.3281866091
 20
5.0454545044
 11
13.3440234963
 21
5.0741585113
  0
LWPOLYLINE
  5
759
100
AcDbEntity
  8
0
100
AcDbPolyline
 62
7
  6
CONTINUOUS
 90
8
 70
0
 10
13.0223192385
 20
4.6021514228
 10
13.0103707548
 20
4.5816937111
 10
12.9934670293
 20
4.5624220045
 10
12.9716607383
 20
4.5445557374
 10
12.9455019382
 20
4.5286921835
 10
12.9158763846
 20
4.5153497508
 10
12.8838005338
 20
4.5048485767
 10
12.8496549386
 20
4.4972077081
  0
LWPOLYLINE
  5
75A
100
AcDbEntity
  8
0
100
AcDbPolyline
 62
7
  6
CONTINUOUS
 90
3
 70
0
 10
13.0218370694
 20
4.56573305
 10
13.0093681242
 20
4.5449710426
 10
12.9918387665
 20
4.5255172355
  0
LWPOLYLINE
  5
75B
100
AcDbEntity
  8
0
100
AcDbPolyline
 62
7
  6
CONTINUOUS
 90
4
 70
0
 10
13.0086703784
 20
4.547258925
 10
13.0214370319
 20
4.5680926216
 10
13.0288081133
 20
4.5898097955
 10
13.0307034536
 20
4.6079816714
  0
LWPOLYLINE
  5
75C
100
AcDbEntity
  8
0
100
AcDbPolyline
 62
7
  6
CONTINUOUS
 90
14
 70
0
 10
13.0051480666
 20
4.6073441163
 10
13.0042410393
 20
4.6060276722
 10
12.9842987763
 20
4.5863697674
 10
12.9591617136
 20
4.5685352088
 10
12.9296797539
 20
4.5532097479
 10
12.8970225835
 20
4.5408934436
 10
12.861951244
 20
4.5317255858
 10
12.8250074286
 20
4.525789474
 10
12.7868632818
 20
4.5232177272
 10
12.7488591693
 20
4.5240966748
 10
12.7116453637
 20
4.528388749
 10
12.6758380926
 20
4.536086759
 10
12.6427992073
 20
4.5469488905
 10
12.6137063766
 20
4.560496085
  0
LWPOLYLINE
  5
75D
100
AcDbEntity
  8
02___PRT_ALL_AXES
100
AcDbPolyline
 62
7
  6
CONTINUOUS
 90
5
 70
0
 10
13.1267701426
 20
4.8964951292
 10
13.1119182387
 20
4.8888637985
 10
13.0402451622
 20
4.8620252667
 10
12.9634039831
 20
4.8419628553
 10
12.8816322361
 20
4.828720276
  0
LWPOLYLINE
  5
75E
100
AcDbEntity
  8
02___PRT_ALL_AXES
100
AcDbPolyline
 62
7
  6
CONTINUOUS
 90
8
 70
0
 10
13.1263940409
 20
4.9927684483
 10
13.1109356113
 20
4.9848699901
 10
13.039831486
 20
4.9583323028
 10
12.9623381276
 20
4.9381765584
 10
12.8797069325
 20
4.9249374738
 10
12.7947375299
 20
4.9191945838
 10
12.7105820645
 20
4.9210108933
 10
12.6285623194
 20
4.930145654
  0
LWPOLYLINE
  5
75F
100
AcDbEntity
  8
0
100
AcDbPolyline
 62
7
  6
CONTINUOUS
 90
8
 70
0
 10
13.4521204884
 20
5.1248663439
 10
13.3454897608
 20
5.0746702704
 10
13.2285488125
 20
5.0338552592
 10
13.1034632197
 20
5.00301691
 10
12.9726212902
 20
4.982633451
 10
12.8384223576
 20
4.9730022689
 10
12.7032959468
 20
4.9742610063
 10
12.5697326606
 20
4.9863818548
  0
LWPOLYLINE
  5
760
100
AcDbEntity
  8
02___PRT_ALL_AXES
100
AcDbPolyline
 62
7
  6
CONTINUOUS
 90
7
 70
0
 10
13.0933883466
 20
4.9301598566
 10
13.0410897471
 20
4.910510659
 10
12.9637536852
 20
4.8902551683
 10
12.8813642074
 20
4.8769080381
 10
12.7967086071
 20
4.8710225706
 10
12.7129023852
 20
4.8726416341
 10
12.6306721814
 20
4.8815961491
  0
LWPOLYLINE
  5
761
100
AcDbEntity
  8
0
100
AcDbPolyline
 62
7
  6
CONTINUOUS
 90
14
 70
0
 10
13.3267611087
 20
4.8509265471
 10
13.3128085545
 20
4.8134781498
 10
13.2814967748
 20
4.765272073
 10
13.2378546047
 20
4.720324662
 10
13.1830701559
 20
4.680166718
 10
13.1189492357
 20
4.645987887
 10
13.047283223
 20
4.6184630044
 10
12.969841153
 20
4.5980271076
 10
12.8883907591
 20
4.5849745125
 10
12.8047282203
 20
4.5794908452
 10
12.7207210034
 20
4.581650457
 10
12.638188499
 20
4.5914081061
 10
12.5589359229
 20
4.6086079535
 10
12.4858121814
 20
4.6325627136
  0
LWPOLYLINE
  5
762
100
AcDbEntity
  8
02___PRT_ALL_AXES
100
AcDbPolyline
 62
7
  6
CONTINUOUS
 90
3
 70
0
 10
13.3281866091
 20
4.9972358578
 10
13.3566613258
 20
5.0488456504
 10
13.366125489
 20
5.0838043187
  0
LINE
  5
763
100
AcDbEntity
  8
02___PRT_ALL_AXES
100
AcDbLine
 62
7
  6
CONTINUOUS
 10
13.3281866091
 20
4.9068258952
 11
13.3566613258
 21
4.9584356879
  0
LINE
  5
764
100
AcDbEntity
  8
02___PRT_ALL_AXES
100
AcDbLine
 62
7
  6
CONTINUOUS
 10
13.3281866091
 20
4.9007985644
 11
13.3566613258
 21
4.9524083571
  0
LWPOLYLINE
  5
765
100
AcDbEntity
  8
02___PRT_ALL_AXES
100
AcDbPolyline
 62
7
  6
CONTINUOUS
 90
4
 70
0
 10
13.3281866091
 20
4.8586072486
 10
13.3566613258
 20
4.9102170412
 10
13.3711607392
 20
4.9637748861
 10
13.3730459733
 20
4.9915208125
  0
LWPOLYLINE
  5
766
100
AcDbEntity
  8
02___PRT_ALL_AXES
100
AcDbPolyline
 62
7
  6
CONTINUOUS
 90
7
 70
0
 10
13.0935801297
 20
4.8338061775
 10
13.0415293076
 20
4.8142126206
 10
12.9639243137
 20
4.7938538738
 10
12.8810995963
 20
4.7804403314
 10
12.7958728676
 20
4.7745650072
 10
12.7113827355
 20
4.7763023284
 10
12.6295431264
 20
4.7853352549
  0
LWPOLYLINE
  5
767
100
AcDbEntity
  8
02___PRT_ALL_AXES
100
AcDbPolyline
 62
7
  6
CONTINUOUS
 90
7
 70
0
 10
13.0521867886
 20
4.7700930787
 10
13.0394062521
 20
4.7653240893
 10
12.962225203
 20
4.7452783655
 10
12.8810750645
 20
4.7322188691
 10
12.7973262311
 20
4.726382081
 10
12.7134759636
 20
4.7279493535
 10
12.6310485948
 20
4.7368817338
  0
LWPOLYLINE
  5
768
100
AcDbEntity
  8
02___PRT_ALL_AXES
100
AcDbPolyline
 62
7
  6
CONTINUOUS
 90
8
 70
0
 10
13.0114205664
 20
4.8143661235
 10
13.0932152569
 20
4.8396744298
 10
13.1674912348
 20
4.8720575462
 10
13.2324281293
 20
4.9107512953
 10
13.2864344535
 20
4.9548368371
 10
13.3281866091
 20
5.0032631886
 10
13.3566613258
 20
5.0548729813
 10
13.3644354187
 20
5.0835888782
  0
LWPOLYLINE
  5
769
100
AcDbEntity
  8
02___PRT_ALL_AXES
100
AcDbPolyline
 62
7
  6
CONTINUOUS
 90
7
 70
0
 10
13.0114205664
 20
4.7661474768
 10
13.0932152569
 20
4.7914557831
 10
13.1674912348
 20
4.8238388995
 10
13.2324281293
 20
4.8625326486
 10
13.2864344535
 20
4.9066181904
 10
13.3281866091
 20
4.9550445419
 10
13.3566613258
 20
5.0066543346
  0
LWPOLYLINE
  5
76A
100
AcDbEntity
  8
02___PRT_ALL_AXES
100
AcDbPolyline
 62
7
  6
CONTINUOUS
 90
7
 70
0
 10
13.0114205664
 20
4.760120146
 10
13.0932152569
 20
4.7854284522
 10
13.1674912348
 20
4.8178115687
 10
13.2324281293
 20
4.8565053178
 10
13.2864344535
 20
4.9005908596
 10
13.3281866091
 20
4.9490172111
 10
13.3566613258
 20
5.0006270038
  0
LWPOLYLINE
  5
76B
100
AcDbEntity
  8
0
100
AcDbPolyline
 62
9
  6
CONTINUOUS
 90
4
 70
0
 10
13.7475092952
 20
5.9143843617
 10
13.7570618773
 20
5.9576258645
 10
13.7607866558
 20
6.0011710915
 10
13.7608412489
 20
6.0071260901
  0
LWPOLYLINE
  5
76C
100
AcDbEntity
  8
02___PRT_ALL_AXES
100
AcDbPolyline
 62
7
  6
CONTINUOUS
 90
5
 70
0
 10
13.2864344535
 20
4.8041535662
 10
13.3281866091
 20
4.8525799177
 10
13.3566613258
 20
4.9041897104
 10
13.3711607392
 20
4.9577475553
 10
13.3730459733
 20
4.9854934816
  0
LINE
  5
76D
100
AcDbEntity
  8
0
100
AcDbLine
 62
7
  6
CONTINUOUS
 10
12.9908010282
 20
4.5277689154
 11
13.0086703784
 21
4.547258925
  0
LWPOLYLINE
  5
76E
100
AcDbEntity
  8
0
100
AcDbPolyline
 62
7
  6
CONTINUOUS
 90
3
 70
0
 10
12.9936553076
 20
4.5193360804
 10
12.9744127821
 20
4.5011165775
 10
12.9494547065
 20
4.4841734491
  0
LWPOLYLINE
  5
76F
100
AcDbEntity
  8
0
100
AcDbPolyline
 62
7
  6
CONTINUOUS
 90
3
 70
0
 10
12.9716607383
 20
4.5734869254
 10
12.9934670293
 20
4.5913531925
 10
13.0081993476
 20
4.6081493074
  0
LWPOLYLINE
  5
770
100
AcDbEntity
  8
0
100
AcDbPolyline
 62
7
  6
CONTINUOUS
 90
13
 70
0
 10
12.9918387665
 20
4.5255172355
 10
12.9696466133
 20
4.5077956275
 10
12.9432955922
 20
4.4921912492
 10
12.9133842663
 20
4.4790409659
 10
12.8805917681
 20
4.4686256813
 10
12.8456622066
 20
4.461164115
 10
12.8093880371
 20
4.4568080397
 10
12.7725925602
 20
4.4556388712
 10
12.7361112595
 20
4.4576656701
 10
12.7007717798
 20
4.4628249871
 10
12.6673759059
 20
4.4709824253
 10
12.6366823776
 20
4.4819352993
 10
12.6093890704
 20
4.4954169085
  0
LINE
  5
771
100
AcDbEntity
  8
0
100
AcDbLine
 62
7
  6
CONTINUOUS
 10
12.9682389536
 20
4.5100522156
 11
12.9908010282
 21
4.5277689154
  0
LWPOLYLINE
  5
772
100
AcDbEntity
  8
0
100
AcDbPolyline
 62
7
  6
CONTINUOUS
 90
11
 70
0
 10
12.9470229182
 20
4.594370438
 10
12.9296448843
 20
4.5853400384
 10
12.8969849741
 20
4.5730273019
 10
12.861915272
 20
4.5638638084
 10
12.8249593367
 20
4.5579297808
 10
12.7868015726
 20
4.5553621407
 10
12.7487943837
 20
4.5562468936
 10
12.7115857933
 20
4.5605442684
 10
12.675793371
 20
4.5682445868
 10
12.6427760792
 20
4.5791037642
 10
12.6137063766
 20
4.5926418494
  0
LWPOLYLINE
  5
773
100
AcDbEntity
  8
02___PRT_ALL_AXES
100
AcDbPolyline
 62
7
  6
CONTINUOUS
 90
8
 70
0
 10
13.1269616201
 20
4.7519226702
 10
13.1117573687
 20
4.7441371477
 10
13.0405374564
 20
4.7174615197
 10
12.9628454944
 20
4.6971895822
 10
12.8799629471
 20
4.6838732724
 10
12.7947185144
 20
4.6781009203
 10
12.7102731065
 20
4.6799381506
 10
12.6281966887
 20
4.6891102918
  0
LINE
  5
774
100
AcDbEntity
  8
02___PRT_ALL_AXES
100
AcDbLine
 62
7
  6
CONTINUOUS
 10
13.7608412489
 20
6.0071260901
 11
13.7608412489
 21
5.9428345612
  0
LINE
  5
775
100
AcDbEntity
  8
0
100
AcDbLine
 62
9
  6
CONTINUOUS
 10
13.7706837686
 20
5.5570800655
 11
13.7706837686
 21
5.5570853878
  0
LINE
  5
776
100
AcDbEntity
  8
02___PRT_ALL_AXES
100
AcDbLine
 62
7
  6
CONTINUOUS
 10
13.7706837686
 20
5.9428345612
 11
13.7706837686
 21
5.5570853878
  0
LWPOLYLINE
  5
777
100
AcDbEntity
  8
02___PRT_ALL_AXES
100
AcDbPolyline
 62
7
  6
CONTINUOUS
 90
28
 70
0
 10
13.7608404159
 20
5.9428282008
 10
13.7605960177
 20
5.9302139767
 10
13.754714821
 20
5.8798493116
 10
13.7410375789
 20
5.8299917666
 10
13.7196744122
 20
5.7810427655
 10
13.6907973248
 20
5.7333964168
 10
13.654638818
 20
5.6874363408
 10
13.6114900187
 20
5.6435325812
 10
13.5616983358
 20
5.6020386251
 10
13.5056646626
 20
5.5632885575
 10
13.4438401493
 20
5.5275943712
 10
13.3767225705
 20
5.4952434547
 10
13.3048523176
 20
5.4664962786
 10
13.2288080474
 20
5.4415842983
 10
13.1492020238
 20
5.4207080904
 10
13.0666751877
 20
5.4040357378
 10
12.9818919966
 20
5.3917014766
 10
12.8955350749
 20
5.3838046148
 10
12.8082997178
 20
5.3804087335
 10
12.7208882931
 20
5.3815411743
 10
12.6340045862
 20
5.3871928194
 10
12.5483481335
 20
5.3973181651
 10
12.4646085906
 20
5.411835688
 10
12.3834601789
 20
5.4306285016
 10
12.3055562578
 20
5.4535452973
 10
12.2315240637
 20
5.4804015624
 10
12.1619596605
 20
5.5109810661
 10
12.0974231398
 20
5.5450376003
  0
LWPOLYLINE
  5
778
100
AcDbEntity
  8
02___PRT_ALL_AXES
100
AcDbPolyline
 62
7
  6
CONTINUOUS
 90
21
 70
0
 10
13.7706813937
 20
5.942820562
 10
13.7702675001
 20
5.9263095342
 10
13.7602922745
 20
5.8604793708
 10
13.7371472566
 20
5.7957629201
 10
13.7011454432
 20
5.7330353611
 10
13.6527736969
 20
5.6731449763
 10
13.5926861626
 20
5.6169016805
 10
13.5216954212
 20
5.5650660678
 10
13.4407615007
 20
5.5183391259
 10
13.3509788934
 20
5.4773527566
 10
13.2535617552
 20
5.4426612301
 10
13.1498274857
 20
5.4147336899
 10
13.0411789129
 20
5.3939478081
 10
12.9290853225
 20
5.3805846779
 10
12.8150625879
 20
5.3748250129
 10
12.700652671
 20
5.3767467027
 10
12.5874027696
 20
5.3863237596
 10
12.4768443945
 20
5.4034266704
 10
12.370472658
 20
5.4278241476
 10
12.2697260552
 20
5.4591862571
 10
12.1759670113
 20
5.4970888803
  0
LWPOLYLINE
  5
779
100
AcDbEntity
  8
0
100
AcDbPolyline
 62
7
  6
CONTINUOUS
 90
7
 70
0
 10
13.7706837686
 20
5.5570853878
 10
13.7616512245
 20
5.4772874938
 10
13.734346136
 20
5.3982836159
 10
13.6888940892
 20
5.321942435
 10
13.6257439343
 20
5.2497722105
 10
13.5462277393
 20
5.1836045364
 10
13.4521204884
 20
5.1248663439
  0
LWPOLYLINE
  5
77A
100
AcDbEntity
  8
0
100
AcDbPolyline
 62
9
  6
CONTINUOUS
 90
3
 70
0
 10
13.7422291119
 20
5.4214365055
 10
13.7652680622
 20
5.4975561079
 10
13.7706837686
 20
5.5570800655
  0
LINE
  5
77B
100
AcDbEntity
  8
0
100
AcDbLine
 62
7
  6
CONTINUOUS
 10
12.9341061279
 20
4.4753116938
 11
12.9494544548
 21
4.4841733038
  0
LWPOLYLINE
  5
77C
100
AcDbEntity
  8
0
100
AcDbPolyline
 62
7
  6
CONTINUOUS
 90
10
 70
0
 10
12.9494547065
 20
4.4841734491
 10
12.9222450607
 20
4.4706721432
 10
12.891267838
 20
4.4595371436
 10
12.8581649641
 20
4.4514067072
 10
12.8234383246
 20
4.4463399971
 10
12.787723356
 20
4.4444477479
 10
12.7522814583
 20
4.4457894023
 10
12.7177520467
 20
4.4503123205
 10
12.684686667
 20
4.4579965271
 10
12.6543516285
 20
4.4685905781
  0
LINE
  5
77D
100
AcDbEntity
  8
0
100
AcDbLine
 62
7
  6
CONTINUOUS
 10
13.7525620145
 20
6.0845847291
 11
13.7608412489
 21
6.0071260901
  0
LWPOLYLINE
  5
77E
100
AcDbEntity
  8
02___PRT_ALL_AXES
100
AcDbPolyline
 62
7
  6
CONTINUOUS
 90
3
 70
0
 10
13.7591297494
 20
6.0231384915
 10
13.7669380356
 20
5.9923631702
 10
13.7706813937
 20
5.942820562
  0
LWPOLYLINE
  5
77F
100
AcDbEntity
  8
0
100
AcDbPolyline
 62
9
  6
CONTINUOUS
 90
41
 70
0
 10
13.4336823598
 20
6.429032791
 10
13.3741024802
 20
6.4605207052
 10
13.3133454191
 20
6.487478796
 10
13.2515030882
 20
6.5105239974
 10
13.1884001279
 20
6.5301343984
 10
13.1236484649
 20
6.5466483636
 10
13.0568136566
 20
6.5602359231
 10
12.9881763981
 20
6.5708218202
 10
12.9183765031
 20
6.5782981073
 10
12.8478333071
 20
6.5826269361
 10
12.7769155317
 20
6.5837886898
 10
12.7060549791
 20
6.5817759108
 10
12.6356883045
 20
6.576601756
 10
12.566237228
 20
6.5682987078
 10
12.4981167502
 20
6.5569177297
 10
12.4317348317
 20
6.5425282241
 10
12.3674860762
 20
6.5252167379
 10
12.3057511623
 20
6.5050862642
 10
12.2468985625
 20
6.4822568286
 10
12.1912817108
 20
6.4568652189
 10
12.1392354776
 20
6.4290641015
 10
12.0910730557
 20
6.3990207644
 10
12.0470824681
 20
6.3669148408
 10
12.0075271571
 20
6.3329382634
 10
11.9726455118
 20
6.2972954248
 10
11.942647566
 20
6.2602008792
 10
11.9177137414
 20
6.2218781231
 10
11.8979924021
 20
6.1825553214
 10
11.8836009484
 20
6.1424641043
 10
11.8746274802
 20
6.1018429335
 10
11.8711287108
 20
6.0609364556
 10
11.8731273885
 20
6.0199964967
 10
11.8806108576
 20
5.9792713664
 10
11.8935449544
 20
5.9389753991
 10
11.9118623312
 20
5.8993535991
 10
11.9353757126
 20
5.8607735526
 10
11.9639606713
 20
5.8233891568
 10
11.9979206244
 20
5.7869436062
 10
12.0378478915
 20
5.7512133364
 10
12.0845771617
 20
5.7160986178
 10
12.1391812404
 20
5.6816566826
  0
LWPOLYLINE
  5
780
100
AcDbEntity
  8
0
100
AcDbPolyline
 62
7
  6
CONTINUOUS
 90
6
 70
0
 10
13.4632094178
 20
6.4319576661
 10
13.5518843497
 20
6.3731914653
 10
13.6265237625
 20
6.307433812
 10
13.6854397451
 20
6.2361887805
 10
13.7275290648
 20
6.1613277148
 10
13.7525620145
 20
6.0845847291
  0
LINE
  5
781
100
AcDbEntity
  8
02___PRT_ALL_AXES
100
AcDbLine
 62
7
  6
CENTER
 10
4.6035989092
 20
7.7527773039
 11
4.6035989092
 21
6.6783678551
  0
LINE
  5
782
100
AcDbEntity
  8
02___PRT_ALL_AXES
100
AcDbLine
 62
7
  6
CENTER
 10
4.6035989092
 20
7.7527773039
 11
4.6035989092
 21
8.8271867528
  0
LINE
  5
783
100
AcDbEntity
  8
02___PRT_ALL_AXES
100
AcDbLine
 62
7
  6
CENTER
 10
4.6035989092
 20
7.7527773039
 11
3.5291894603
 21
7.7527773039
  0
LINE
  5
784
100
AcDbEntity
  8
02___PRT_ALL_AXES
100
AcDbLine
 62
7
  6
CENTER
 10
4.6035989092
 20
7.7527773039
 11
5.678008358
 21
7.7527773039
  0
CIRCLE
  5
785
100
AcDbEntity
  8
0
100
AcDbCircle
 62
7
  6
CONTINUOUS
 10
10.5342808475
 20
1.243294839
 40
0.252091
  0
CIRCLE
  5
786
100
AcDbEntity
  8
0
100
AcDbCircle
 62
7
  6
CONTINUOUS
 10
10.5342808475
 20
1.243294839
 40
0.182698
  0
CIRCLE
  5
787
100
AcDbEntity
  8
02___PRT_ALL_AXES
100
AcDbCircle
 62
7
  6
CONTINUOUS
 10
4.6035989092
 20
7.7527773039
 40
0.9842519685
  0
CIRCLE
  5
788
100
AcDbEntity
  8
0
100
AcDbCircle
 62
7
  6
CONTINUOUS
 10
4.6035989092
 20
7.7527773039
 40
0.9744094488
  0
CIRCLE
  5
789
100
AcDbEntity
  8
0
100
AcDbCircle
 62
9
  6
CONTINUOUS
 10
4.6035989092
 20
7.7527773039
 40
0.9153543304
  0
CIRCLE
  5
78A
100
AcDbEntity
  8
02___PRT_ALL_AXES
100
AcDbCircle
 62
7
  6
CONTINUOUS
 10
4.6035989092
 20
7.7527773039
 40
0.2027559055
  0
CIRCLE
  5
78B
100
AcDbEntity
  8
0
100
AcDbCircle
 62
7
  6
CONTINUOUS
 10
4.6035989092
 20
7.7527773039
 40
0.195
  0
CIRCLE
  5
78C
100
AcDbEntity
  8
0
100
AcDbCircle
 62
7
  6
CONTINUOUS
 10
4.6035989092
 20
7.7527773039
 40
0.1709122582
  0
ARC
  5
78D
100
AcDbEntity
  8
0
100
AcDbCircle
 62
7
  6
CONTINUOUS
 10
4.6035989092
 20
4.5554732207
 40
0.394
100
AcDbArc
 50
64.2918370252
 51
115.7081629748
  0
ARC
  5
78E
100
AcDbEntity
  8
0
100
AcDbCircle
 62
7
  6
CONTINUOUS
 10
4.2412170194
 20
3.4576548828
 40
0.1181102362
100
AcDbArc
 50
0.0
 51
7.3852386187
  0
ARC
  5
78F
100
AcDbEntity
  8
0
100
AcDbCircle
 62
7
  6
CONTINUOUS
 10
4.9659807989
 20
3.4576548828
 40
0.1181102362
100
AcDbArc
 50
172.6147613811
 51
180.0
  0
ARC
  5
790
100
AcDbEntity
  8
0
100
AcDbCircle
 62
7
  6
CONTINUOUS
 10
5.5189532399
 20
4.8507881814
 40
0.0590551181
100
AcDbArc
 50
0.0
 51
90.0000001346
  0
ARC
  5
791
100
AcDbEntity
  8
0
100
AcDbCircle
 62
7
  6
CONTINUOUS
 10
3.6882445785
 20
4.8507881814
 40
0.0590551181
100
AcDbArc
 50
89.9999998654
 51
180.0
  0
ARC
  5
792
100
AcDbEntity
  8
0
100
AcDbCircle
 62
7
  6
CONTINUOUS
 10
5.1154099328
 20
3.5122055042
 40
0.0393700787
100
AcDbArc
 50
270.0
 51
360.0
  0
ARC
  5
793
100
AcDbEntity
  8
0
100
AcDbCircle
 62
7
  6
CONTINUOUS
 10
4.0917878855
 20
3.5122055042
 40
0.0393700787
100
AcDbArc
 50
180.0
 51
270.0
  0
ARC
  5
794
100
AcDbEntity
  8
0
100
AcDbCircle
 62
7
  6
CONTINUOUS
 10
5.5484807989
 20
4.299607079
 40
0.0393700787
100
AcDbArc
 50
269.9999999017
 51
360.0
  0
ARC
  5
795
100
AcDbEntity
  8
0
100
AcDbCircle
 62
7
  6
CONTINUOUS
 10
3.6587170194
 20
4.299607079
 40
0.0393700787
100
AcDbArc
 50
180.0
 51
270.0000000983
  0
ARC
  5
796
100
AcDbEntity
  8
0
100
AcDbCircle
 62
7
  6
CONTINUOUS
 10
4.0130477281
 20
4.2208669215
 40
0.0393700787
100
AcDbArc
 50
0.0
 51
90.0
  0
ARC
  5
797
100
AcDbEntity
  8
0
100
AcDbCircle
 62
7
  6
CONTINUOUS
 10
5.1941500903
 20
4.2208669215
 40
0.0393700787
100
AcDbArc
 50
90.0
 51
180.0
  0
ENDSEC
  0
SECTION
  2
OBJECTS
  0
DICTIONARY
  5
C
100
AcDbDictionary
280
0
281
1
  3
ACAD_GROUP
350
D
  3
ACAD_MLINESTYLE
350
17
  3
ACAD_LAYOUT
350
1A
  3
ACAD_PLOTSETTINGS
350
19
  3
ACAD_PLOTSTYLENAME
350
E
  0
DICTIONARY
  5
D
102
{ACAD_REACTORS
330
C
102
}
100
AcDbDictionary
280
0
281
1
  0
ACDBDICTIONARYWDFLT
  5
E
102
{ACAD_REACTORS
330
C
102
}
100
AcDbDictionary
281
1
  3
Normal
350
F
100
AcDbDictionaryWithDefault
340
F
  0
DICTIONARY
  5
17
102
{ACAD_REACTORS
330
C
102
}
100
AcDbDictionary
280
0
281
1
  3
Standard
350
18
  0
DICTIONARY
  5
19
102
{ACAD_REACTORS
330
C
102
}
100
AcDbDictionary
281
1
  0
DICTIONARY
  5
1A
102
{ACAD_REACTORS
330
C
102
}
100
AcDbDictionary
281
1
  3
Model
350
798
  3
Layout1
350
799
  0
ACDBPLACEHOLDER
  5
F
102
{ACAD_REACTORS
330
E
102
}
  0
MLINESTYLE
  5
18
102
{ACAD_REACTORS
330
17
102
}
100
AcDbMlineStyle
  2
STANDARD
 70
0
  3

 62
256
 51
90.0
 52
90.0
 71
2
 49
0.5
 62
256
  6
BYLAYER
 49
-0.5
 62
256
  6
BYLAYER
  0
LAYOUT
  5
798
102
{ACAD_REACTORS
330
1A
102
}
100
AcDbPlotSettings
  1

  2
none_device
  4
ANSI_B_(17.00_x_11.00_Inches)
  6

 40
0.0
 41
0.0
 42
0.0
 43
0.0
 44
431.8
 45
279.4
 46
0.0
 47
0.0
 48
0.0
 49
0.0
140
0.0
141
0.0
142
1.0
143
1.0
 70
1024
 72
0
 73
0
 74
0
  7

 75
0
147
1.0
148
0.0
149
0.0
100
AcDbLayout
  1
Model
 70
0
 71
0
 10
0.0
 20
0.0
 11
17.0
 21
11.0
 12
0.0
 22
0.0
 32
0.0
 14
0.0
 24
0.0
 34
0.0
 15
0.0
 25
0.0
 35
0.0
146
0.0
 13
0.0
 23
0.0
 33
0.0
 16
1.0
 26
0.0
 36
0.0
 17
0.0
 27
1.0
 37
0.0
 76
0
330
213
345
0
346
0
  0
LAYOUT
  5
799
102
{ACAD_REACTORS
330
1A
102
}
100
AcDbPlotSettings
  1

  2
none_device
  4
ANSI_B_(17.00_x_11.00_Inches)
  6

 40
0.0
 41
0.0
 42
0.0
 43
0.0
 44
431.8
 45
279.4
 46
0.0
 47
0.0
 48
0.0
 49
0.0
140
0.0
141
0.0
142
1.0
143
1.0
 70
0
 72
0
 73
0
 74
0
  7

 75
0
147
1.0
148
0.0
149
0.0
100
AcDbLayout
  1
Layout1
 70
0
 71
1
 10
0.0
 20
0.0
 11
17.0
 21
11.0
 12
0.0
 22
0.0
 32
0.0
 14
0.0
 24
0.0
 34
0.0
 15
0.0
 25
0.0
 35
0.0
146
0.0
 13
0.0
 23
0.0
 33
0.0
 16
1.0
 26
0.0
 36
0.0
 17
0.0
 27
1.0
 37
0.0
 76
0
330
214
345
0
346
0
  0
ENDSEC
  0
EOF
