999
DXF file: 151344_1.dxf
999
Pro/ENGINEER 2009141 by Parametric Technology Corporation
  0
SECTION
  2
HEADER
  9
$ACADVER
  1
AC1015
  9
$DWGCODEPAGE
  3
ANSI_1252
  9
$EXTMAX
 10
17.0
 20
11.0
 30
0.0
  9
$EXTMIN
 10
0.0
 20
0.0
 30
0.0
  9
$LIMMIN
 10
0.0
 20
0.0
  9
$LIMMAX
 10
17.0
 20
11.0
  9
$VIEWCTR
 10
8.5
 20
5.5
  9
$VIEWSIZE
 40
11.0
  9
$CLAYER
  8
0
  9
$LTSCALE
 40
0.935
  9
$CELTYPE
  6
BYLAYER
  9
$DIMSCALE
 40
1.0
  9
$DIMASZ
 40
0.1875
  9
$DIMEXO
 40
0.10625
  9
$DIMDLI
 40
0.646
  9
$DIMEXE
 40
0.306
  9
$DIMCEN
 40
0.153
  9
$DIMLFAC
 40
1.0
  9
$DIMBLK
  1
_FILLED
  9
$DIMTXT
 40
0.1
  9
$DIMTOL
 70
1
  9
$DIMLIM
 70
0
  9
$DIMTFAC
 40
1.0
  9
$DIMTP
 40
0.005
  9
$DIMTM
 40
0.005
  9
$PDMODE
 70
3
  9
$PDSIZE
 40
0.3125
  9
$HANDSEED
  5
6DF
  9
$TILEMODE
 70
1
  9
$MEASUREMENT
 70
0
  9
$INSUNITS
 70
1
  0
ENDSEC
  0
SECTION
  2
CLASSES
  0
CLASS
  1
ACDBDICTIONARYWDFLT
  2
AcDbDictionaryWithDefault
  3
AutoCAD 2000
 90
0
280
0
281
0
  0
CLASS
  1
ACDBPLACEHOLDER
  2
AcDbPlaceHolder
  3
AutoCAD 2000
 90
0
280
0
281
0
  0
CLASS
  1
LAYOUT
  2
AcDbLayout
  3
AutoCAD 2000
 90
0
280
0
281
0
  0
ENDSEC
  0
SECTION
  2
TABLES
  0
TABLE
  2
VPORT
  5
8
100
AcDbSymbolTable
 70
2
  0
VPORT
  5
1F4
100
AcDbSymbolTableRecord
100
AcDbViewportTableRecord
  2
*ACTIVE
 70
0
 10
0.0
 20
0.0
 11
1.0
 21
1.0
 12
8.5
 22
5.5
 13
0.0
 23
0.0
 14
1.0
 24
1.0
 15
0.0
 25
0.0
 16
0.0
 26
0.0
 36
1.0
 17
0.0
 27
0.0
 37
0.0
 40
11.0
 41
1.5454545455
 42
50.0
 43
0.0
 44
0.0
 50
0.0
 51
0.0
 71
0
 72
100
 73
1
 74
1
 75
0
 76
0
 77
0
 78
0
  0
ENDTAB
  0
TABLE
  2
LTYPE
  5
5
100
AcDbSymbolTable
 70
6
  0
LTYPE
  5
14
100
AcDbSymbolTableRecord
100
AcDbLinetypeTableRecord
  2
BYBLOCK
 70
0
  3

 72
65
 73
0
 40
0.0
  0
LTYPE
  5
15
100
AcDbSymbolTableRecord
100
AcDbLinetypeTableRecord
  2
BYLAYER
 70
0
  3

 72
65
 73
0
 40
0.0
  0
LTYPE
  5
16
100
AcDbSymbolTableRecord
100
AcDbLinetypeTableRecord
  2
CONTINUOUS
 70
64
  3
Solid line
 72
65
 73
0
 40
0.0
  0
LTYPE
  5
1F5
100
AcDbSymbolTableRecord
100
AcDbLinetypeTableRecord
  2
CENTER
 70
64
  3
____ _ ____ _ ____ _ ____ _ ____ _ ____ _ ____
 72
65
 73
4
 40
0.6
 49
0.375
 74
0
 49
-0.075
 74
0
 49
0.075
 74
0
 49
-0.075
 74
0
  0
LTYPE
  5
1F6
100
AcDbSymbolTableRecord
100
AcDbLinetypeTableRecord
  2
HIDDEN
 70
64
  3
- - - - - - - - - - - - - - - - - - - -
 72
65
 73
2
 40
0.2
 49
0.1
 74
0
 49
-0.1
 74
0
  0
LTYPE
  5
1F7
100
AcDbSymbolTableRecord
100
AcDbLinetypeTableRecord
  2
PHANTOM
 70
64
  3
_____ _ _ _____ _ _ _____ _ _ _____
 72
65
 73
6
 40
0.8
 49
0.45
 74
0
 49
-0.05
 74
0
 49
0.1
 74
0
 49
-0.05
 74
0
 49
0.1
 74
0
 49
-0.05
 74
0
  0
LTYPE
  5
1F8
100
AcDbSymbolTableRecord
100
AcDbLinetypeTableRecord
  2
DOT
 70
64
  3
. . . . . . . . . . . . . . . . . . . .
 72
65
 73
2
 40
0.2
 49
0.1
 74
0
 49
-0.1
 74
0
  0
LTYPE
  5
1F9
100
AcDbSymbolTableRecord
100
AcDbLinetypeTableRecord
  2
DASHED
 70
64
  3
- - - - - - - - - - - - - - - - - - - -
 72
65
 73
2
 40
0.2
 49
0.1
 74
0
 49
-0.1
 74
0
  0
ENDTAB
  0
TABLE
  2
LAYER
  5
2
100
AcDbSymbolTable
 70
36
  0
LAYER
  5
10
100
AcDbSymbolTableRecord
100
AcDbLayerTableRecord
  2
0
 70
0
 62
7
  6
CONTINUOUS
370
-3
390
F
  0
LAYER
  5
1FA
100
AcDbSymbolTableRecord
100
AcDbLayerTableRecord
  2
DEFAULT_1
 70
0
 62
7
  6
CENTER
370
-3
390
F
  0
LAYER
  5
1FB
100
AcDbSymbolTableRecord
100
AcDbLayerTableRecord
  2
DEFAULT_2
 70
0
 62
8
  6
HIDDEN
370
-3
390
F
  0
LAYER
  5
1FC
100
AcDbSymbolTableRecord
100
AcDbLayerTableRecord
  2
DEFAULT_3
 70
0
 62
7
  6
PHANTOM
370
-3
390
F
  0
LAYER
  5
1FD
100
AcDbSymbolTableRecord
100
AcDbLayerTableRecord
  2
01___PRT_ALL_DTM_PLN
 70
0
 62
7
  6
CONTINUOUS
370
-3
390
F
  0
LAYER
  5
1FE
100
AcDbSymbolTableRecord
100
AcDbLayerTableRecord
  2
01___PRT_DEF_DTM_PLN
 70
0
 62
7
  6
CONTINUOUS
370
-3
390
F
  0
LAYER
  5
1FF
100
AcDbSymbolTableRecord
100
AcDbLayerTableRecord
  2
02___PRT_ALL_AXES
 70
0
 62
7
  6
CONTINUOUS
370
-3
390
F
  0
LAYER
  5
200
100
AcDbSymbolTableRecord
100
AcDbLayerTableRecord
  2
03___PRT_ALL_CURVES
 70
0
 62
7
  6
CONTINUOUS
370
-3
390
F
  0
LAYER
  5
201
100
AcDbSymbolTableRecord
100
AcDbLayerTableRecord
  2
04___PRT_ALL_DTM_PNT
 70
0
 62
7
  6
CONTINUOUS
370
-3
390
F
  0
LAYER
  5
202
100
AcDbSymbolTableRecord
100
AcDbLayerTableRecord
  2
05___PRT_ALL_DTM_CSYS
 70
0
 62
7
  6
CONTINUOUS
370
-3
390
F
  0
LAYER
  5
203
100
AcDbSymbolTableRecord
100
AcDbLayerTableRecord
  2
05___PRT_DEF_DTM_CSYS
 70
0
 62
7
  6
CONTINUOUS
370
-3
390
F
  0
LAYER
  5
204
100
AcDbSymbolTableRecord
100
AcDbLayerTableRecord
  2
06___PRT_ALL_SURFS
 70
0
 62
7
  6
CONTINUOUS
370
-3
390
F
  0
LAYER
  5
205
100
AcDbSymbolTableRecord
100
AcDbLayerTableRecord
  2
1
 70
0
 62
7
  6
CONTINUOUS
370
-3
390
F
  0
LAYER
  5
206
100
AcDbSymbolTableRecord
100
AcDbLayerTableRecord
  2
10
 70
0
 62
7
  6
CONTINUOUS
370
-3
390
F
  0
LAYER
  5
207
100
AcDbSymbolTableRecord
100
AcDbLayerTableRecord
  2
11
 70
0
 62
7
  6
CONTINUOUS
370
-3
390
F
  0
LAYER
  5
208
100
AcDbSymbolTableRecord
100
AcDbLayerTableRecord
  2
12
 70
0
 62
7
  6
CONTINUOUS
370
-3
390
F
  0
LAYER
  5
209
100
AcDbSymbolTableRecord
100
AcDbLayerTableRecord
  2
13
 70
0
 62
7
  6
CONTINUOUS
370
-3
390
F
  0
LAYER
  5
20A
100
AcDbSymbolTableRecord
100
AcDbLayerTableRecord
  2
14
 70
0
 62
7
  6
CONTINUOUS
370
-3
390
F
  0
LAYER
  5
20B
100
AcDbSymbolTableRecord
100
AcDbLayerTableRecord
  2
15
 70
0
 62
7
  6
CONTINUOUS
370
-3
390
F
  0
LAYER
  5
20C
100
AcDbSymbolTableRecord
100
AcDbLayerTableRecord
  2
16
 70
0
 62
7
  6
CONTINUOUS
370
-3
390
F
  0
LAYER
  5
20D
100
AcDbSymbolTableRecord
100
AcDbLayerTableRecord
  2
17
 70
0
 62
7
  6
CONTINUOUS
370
-3
390
F
  0
LAYER
  5
20E
100
AcDbSymbolTableRecord
100
AcDbLayerTableRecord
  2
18
 70
0
 62
7
  6
CONTINUOUS
370
-3
390
F
  0
LAYER
  5
20F
100
AcDbSymbolTableRecord
100
AcDbLayerTableRecord
  2
19
 70
0
 62
7
  6
CONTINUOUS
370
-3
390
F
  0
LAYER
  5
210
100
AcDbSymbolTableRecord
100
AcDbLayerTableRecord
  2
2
 70
0
 62
7
  6
CONTINUOUS
370
-3
390
F
  0
LAYER
  5
211
100
AcDbSymbolTableRecord
100
AcDbLayerTableRecord
  2
20
 70
0
 62
7
  6
CONTINUOUS
370
-3
390
F
  0
LAYER
  5
212
100
AcDbSymbolTableRecord
100
AcDbLayerTableRecord
  2
21
 70
0
 62
7
  6
CONTINUOUS
370
-3
390
F
  0
LAYER
  5
213
100
AcDbSymbolTableRecord
100
AcDbLayerTableRecord
  2
22
 70
0
 62
7
  6
CONTINUOUS
370
-3
390
F
  0
LAYER
  5
214
100
AcDbSymbolTableRecord
100
AcDbLayerTableRecord
  2
23
 70
0
 62
7
  6
CONTINUOUS
370
-3
390
F
  0
LAYER
  5
215
100
AcDbSymbolTableRecord
100
AcDbLayerTableRecord
  2
24
 70
0
 62
7
  6
CONTINUOUS
370
-3
390
F
  0
LAYER
  5
216
100
AcDbSymbolTableRecord
100
AcDbLayerTableRecord
  2
25
 70
0
 62
7
  6
CONTINUOUS
370
-3
390
F
  0
LAYER
  5
217
100
AcDbSymbolTableRecord
100
AcDbLayerTableRecord
  2
26
 70
0
 62
7
  6
CONTINUOUS
370
-3
390
F
  0
LAYER
  5
218
100
AcDbSymbolTableRecord
100
AcDbLayerTableRecord
  2
27
 70
0
 62
7
  6
CONTINUOUS
370
-3
390
F
  0
LAYER
  5
219
100
AcDbSymbolTableRecord
100
AcDbLayerTableRecord
  2
28
 70
0
 62
7
  6
CONTINUOUS
370
-3
390
F
  0
LAYER
  5
21A
100
AcDbSymbolTableRecord
100
AcDbLayerTableRecord
  2
29
 70
0
 62
7
  6
CONTINUOUS
370
-3
390
F
  0
LAYER
  5
21B
100
AcDbSymbolTableRecord
100
AcDbLayerTableRecord
  2
3
 70
0
 62
7
  6
CONTINUOUS
370
-3
390
F
  0
LAYER
  5
21C
100
AcDbSymbolTableRecord
100
AcDbLayerTableRecord
  2
30
 70
0
 62
7
  6
CONTINUOUS
370
-3
390
F
  0
LAYER
  5
21D
100
AcDbSymbolTableRecord
100
AcDbLayerTableRecord
  2
31
 70
0
 62
7
  6
CONTINUOUS
370
-3
390
F
  0
LAYER
  5
21E
100
AcDbSymbolTableRecord
100
AcDbLayerTableRecord
  2
32
 70
0
 62
7
  6
CONTINUOUS
370
-3
390
F
  0
LAYER
  5
21F
100
AcDbSymbolTableRecord
100
AcDbLayerTableRecord
  2
4
 70
0
 62
7
  6
CONTINUOUS
370
-3
390
F
  0
LAYER
  5
220
100
AcDbSymbolTableRecord
100
AcDbLayerTableRecord
  2
5
 70
0
 62
7
  6
CONTINUOUS
370
-3
390
F
  0
LAYER
  5
221
100
AcDbSymbolTableRecord
100
AcDbLayerTableRecord
  2
6
 70
0
 62
7
  6
CONTINUOUS
370
-3
390
F
  0
LAYER
  5
222
100
AcDbSymbolTableRecord
100
AcDbLayerTableRecord
  2
7
 70
0
 62
7
  6
CONTINUOUS
370
-3
390
F
  0
LAYER
  5
223
100
AcDbSymbolTableRecord
100
AcDbLayerTableRecord
  2
8
 70
0
 62
7
  6
CONTINUOUS
370
-3
390
F
  0
LAYER
  5
224
100
AcDbSymbolTableRecord
100
AcDbLayerTableRecord
  2
9
 70
0
 62
7
  6
CONTINUOUS
370
-3
390
F
  0
LAYER
  5
225
100
AcDbSymbolTableRecord
100
AcDbLayerTableRecord
  2
AXIS
 70
0
 62
7
  6
CONTINUOUS
370
-3
390
F
  0
LAYER
  5
226
100
AcDbSymbolTableRecord
100
AcDbLayerTableRecord
  2
AXIS_COSMETIC_THREADS
 70
0
 62
7
  6
CONTINUOUS
370
-3
390
F
  0
LAYER
  5
227
100
AcDbSymbolTableRecord
100
AcDbLayerTableRecord
  2
DATUM_CURVES
 70
0
 62
7
  6
CONTINUOUS
370
-3
390
F
  0
LAYER
  5
228
100
AcDbSymbolTableRecord
100
AcDbLayerTableRecord
  2
DATUM_PLANES
 70
0
 62
7
  6
CONTINUOUS
370
-3
390
F
  0
LAYER
  5
229
100
AcDbSymbolTableRecord
100
AcDbLayerTableRecord
  2
NOTES
 70
0
 62
7
  6
CONTINUOUS
370
-3
390
F
  0
LAYER
  5
22A
100
AcDbSymbolTableRecord
100
AcDbLayerTableRecord
  2
SCHEME_DIMS
 70
0
 62
7
  6
CONTINUOUS
370
-3
390
F
  0
LAYER
  5
22B
100
AcDbSymbolTableRecord
100
AcDbLayerTableRecord
  2
SYMBOLS
 70
0
 62
7
  6
CONTINUOUS
370
-3
390
F
  0
ENDTAB
  0
TABLE
  2
STYLE
  5
3
100
AcDbSymbolTable
 70
1
  0
STYLE
  5
11
100
AcDbSymbolTableRecord
100
AcDbTextStyleTableRecord
  2
STANDARD
 70
0
 40
0.0
 41
1.0
 50
0.0
 71
0
 42
0.2
  3
txt
  4

  0
STYLE
  5
22C
100
AcDbSymbolTableRecord
100
AcDbTextStyleTableRecord
  2
TEXTSTYLE_1
 70
0
 40
0.0
 41
0.8
 50
0.0
 71
0
 42
0.2
  3
gdt
  4

  0
STYLE
  5
22D
100
AcDbSymbolTableRecord
100
AcDbTextStyleTableRecord
  2
TEXTSTYLE_2
 70
0
 40
0.0
 41
0.8
 50
0.0
 71
0
 42
0.2
  3
txt
  4

  0
STYLE
  5
22E
100
AcDbSymbolTableRecord
100
AcDbTextStyleTableRecord
  2
TEXTSTYLE_3
 70
0
 40
0.0
 41
0.85
 50
0.0
 71
0
 42
0.2
  3
txt
  4

  0
STYLE
  5
22F
100
AcDbSymbolTableRecord
100
AcDbTextStyleTableRecord
  2
TEXTSTYLE_4
 70
0
 40
0.0
 41
0.92
 50
0.0
 71
0
 42
0.2
  3
txt
  4

  0
STYLE
  5
230
100
AcDbSymbolTableRecord
100
AcDbTextStyleTableRecord
  2
TEXTSTYLE_5
 70
0
 40
0.0
 41
1.0
 50
0.0
 71
0
 42
0.2
  3
gdt
  4

  0
ENDTAB
  0
TABLE
  2
VIEW
  5
6
100
AcDbSymbolTable
 70
0
  0
ENDTAB
  0
TABLE
  2
UCS
  5
7
100
AcDbSymbolTable
 70
0
  0
ENDTAB
  0
TABLE
  2
APPID
  5
9
100
AcDbSymbolTable
 70
1
  0
APPID
  5
231
100
AcDbSymbolTableRecord
100
AcDbRegAppTableRecord
  2
ACAD
 70
0
  0
ENDTAB
  0
TABLE
  2
BLOCK_RECORD
  5
1
100
AcDbSymbolTable
 70
0
  0
BLOCK_RECORD
  5
232
100
AcDbSymbolTableRecord
100
AcDbBlockTableRecord
  2
*Model_Space
  0
BLOCK_RECORD
  5
233
100
AcDbSymbolTableRecord
100
AcDbBlockTableRecord
  2
*Paper_Space
  0
BLOCK_RECORD
  5
234
100
AcDbSymbolTableRecord
100
AcDbBlockTableRecord
  2
_FILLED
  0
BLOCK_RECORD
  5
235
100
AcDbSymbolTableRecord
100
AcDbBlockTableRecord
  2
*D0
  0
BLOCK_RECORD
  5
236
100
AcDbSymbolTableRecord
100
AcDbBlockTableRecord
  2
*D1
  0
BLOCK_RECORD
  5
237
100
AcDbSymbolTableRecord
100
AcDbBlockTableRecord
  2
*D2
  0
BLOCK_RECORD
  5
238
100
AcDbSymbolTableRecord
100
AcDbBlockTableRecord
  2
*D3
  0
BLOCK_RECORD
  5
239
100
AcDbSymbolTableRecord
100
AcDbBlockTableRecord
  2
CL_BL3
  0
BLOCK_RECORD
  5
23A
100
AcDbSymbolTableRecord
100
AcDbBlockTableRecord
  2
CL_BL2
  0
BLOCK_RECORD
  5
23B
100
AcDbSymbolTableRecord
100
AcDbBlockTableRecord
  2
CL_BL1
  0
BLOCK_RECORD
  5
23C
100
AcDbSymbolTableRecord
100
AcDbBlockTableRecord
  2
BANNER_LOGO_TITLEBLOCK_BL0
  0
ENDTAB
  0
TABLE
  2
DIMSTYLE
  5
A
100
AcDbSymbolTable
 70
1
100
AcDbDimStyleTable
 71
0
  0
DIMSTYLE
105
23D
100
AcDbSymbolTableRecord
100
AcDbDimStyleTableRecord
  2
STANDARD
 70
0
  3

  4

 40
1.0
 41
0.1875
 42
0.0625
 43
0.38
 44
0.18
 45
0.0
 46
0.0
 47
0.005
 48
0.005
140
0.1
141
0.09
142
0.0
143
25.4
144
1.0
145
0.0
146
1.0
147
0.09
 71
1.0
 72
0.0
 73
1
 74
1
 75
0
 76
0
 77
0
 78
4
170
0
171
2
172
0
173
0
174
0
175
0
176
0
177
0
178
0
270
2
271
3
272
3
273
2
274
2
275
0
280
0
281
0
282
0
283
1
284
4
285
0
286
0
287
3
288
0
340
11
341
234
342
234
343
234
344
234
  0
DIMSTYLE
105
23E
100
AcDbSymbolTableRecord
100
AcDbDimStyleTableRecord
  2
DIMSTYLE_1
 70
0
  3

  4

 40
1.0
 41
0.1875
 42
0.0625
 43
0.38
 44
0.18
 45
0.0
 46
0.0
 47
0.1
 48
0.1
140
0.1
141
0.09
142
0.0
143
25.4
144
1.0
145
0.0
146
1.0
147
0.09
 71
0.0
 72
0.0
 73
1
 74
1
 75
0
 76
0
 77
0
 78
4
170
0
171
2
172
0
173
0
174
0
175
0
176
0
177
0
178
0
270
2
271
1
272
1
273
2
274
2
275
0
280
0
281
0
282
0
283
1
284
4
285
0
286
0
287
3
288
0
340
11
341
234
342
234
343
234
344
234
  0
DIMSTYLE
105
23F
100
AcDbSymbolTableRecord
100
AcDbDimStyleTableRecord
  2
DIMSTYLE_2
 70
0
  3

  4

 40
1.0
 41
0.1875
 42
0.0625
 43
0.38
 44
0.18
 45
0.0
 46
0.0
 47
0.1
 48
0.1
140
0.1
141
0.09
142
0.0
143
25.4
144
1.0
145
0.0
146
1.0
147
0.09
 71
0.0
 72
0.0
 73
1
 74
1
 75
0
 76
0
 77
0
 78
4
170
0
171
2
172
0
173
0
174
0
175
0
176
0
177
0
178
0
270
2
271
1
272
1
273
2
274
2
275
0
280
0
281
0
282
0
283
1
284
4
285
0
286
0
287
3
288
0
340
11
341
234
342
234
343
234
344
234
  0
ENDTAB
  0
ENDSEC
  0
SECTION
  2
BLOCKS
  0
BLOCK
  5
20
100
AcDbEntity
  8
0
100
AcDbBlockBegin
  2
*Model_Space
 70
0
 10
0.0
 20
0.0
 30
0.0
  3
*Model_Space
  1

  0
ENDBLK
  5
21
100
AcDbEntity
  8
0
100
AcDbBlockEnd
  0
BLOCK
  5
1C
100
AcDbEntity
  8
0
100
AcDbBlockBegin
  2
*Paper_Space
 70
0
 10
0.0
 20
0.0
 30
0.0
  3
*Paper_Space
  1

  0
ENDBLK
  5
1D
100
AcDbEntity
  8
0
100
AcDbBlockEnd
  0
BLOCK
  5
240
100
AcDbEntity
  8
SYMBOLS
100
AcDbBlockBegin
 62
2
  6
CONTINUOUS
  2
CL_BL3
 70
64
 10
4.5454080508
 20
2.074494787
  3
CL_BL3
  1

  0
MTEXT
  5
241
100
AcDbEntity
  8
SYMBOLS
100
AcDbMText
 62
2
  6
CONTINUOUS
  7
TEXTSTYLE_5
 71
1
 72
1
 10
4.4604080508
 20
2.134494787
 30
0.0
 11
1.0
 21
0.0
 31
0.0
 44
0.9
  1
{\Fgdt;q}
 40
0.12
 41
0.17
  0
ENDBLK
  5
242
100
AcDbEntity
  8
0
  6
BYBLOCK
 62
0
100
AcDbBlockEnd
  0
BLOCK
  5
243
100
AcDbEntity
  8
SYMBOLS
100
AcDbBlockBegin
 62
2
  6
CONTINUOUS
  2
CL_BL2
 70
64
 10
4.5612777812
 20
7.076600557
  3
CL_BL2
  1

  0
MTEXT
  5
244
100
AcDbEntity
  8
SYMBOLS
100
AcDbMText
 62
2
  6
CONTINUOUS
  7
TEXTSTYLE_5
 71
1
 72
1
 10
4.4762777812
 20
7.136600557
 30
0.0
 11
1.0
 21
0.0
 31
0.0
 44
0.9
  1
{\Fgdt;q}
 40
0.12
 41
0.17
  0
ENDBLK
  5
245
100
AcDbEntity
  8
0
  6
BYBLOCK
 62
0
100
AcDbBlockEnd
  0
BLOCK
  5
246
100
AcDbEntity
  8
SYMBOLS
100
AcDbBlockBegin
 62
2
  6
CONTINUOUS
  2
CL_BL1
 70
64
 10
5.7318968545
 20
8.2792735476
  3
CL_BL1
  1

  0
MTEXT
  5
247
100
AcDbEntity
  8
SYMBOLS
100
AcDbMText
 62
2
  6
CONTINUOUS
  7
TEXTSTYLE_5
 71
1
 72
1
 10
5.6468968545
 20
8.3392735476
 30
0.0
 11
1.0
 21
0.0
 31
0.0
 44
0.9
  1
{\Fgdt;q}
 40
0.12
 41
0.17
  0
ENDBLK
  5
248
100
AcDbEntity
  8
0
  6
BYBLOCK
 62
0
100
AcDbBlockEnd
  0
BLOCK
  5
249
100
AcDbEntity
  8
0
100
AcDbBlockBegin
 62
2
  6
CONTINUOUS
  2
BANNER_LOGO_TITLEBLOCK_BL0
 70
64
 10
12.9086867042
 20
2.5403783405
  3
BANNER_LOGO_TITLEBLOCK_BL0
  1

  0
ELLIPSE
  5
24A
100
AcDbEntity
  8
0
100
AcDbEllipse
 62
2
  6
CONTINUOUS
 10
12.9046654608
 20
2.5403783405
 30
0.0
 11
-0.8250004575
 21
0.0
 31
0.0
 40
0.218572
 41
0.0
 42
6.2831853072
  0
ARC
  5
24B
100
AcDbEntity
  8
0
100
AcDbCircle
 62
2
  6
CONTINUOUS
 10
12.400005721
 20
2.5168763464
 40
0.0153945295
100
AcDbArc
 50
354.0454548824
 51
5.1878013979
  0
ARC
  5
24C
100
AcDbEntity
  8
0
100
AcDbCircle
 62
2
  6
CONTINUOUS
 10
12.3931760319
 20
2.5166878286
 40
0.0222174455
100
AcDbArc
 50
4.0793399388
 51
69.834329283
  0
LINE
  5
24D
100
AcDbEntity
  8
0
100
AcDbLine
 62
2
  6
CONTINUOUS
 10
12.4008351814
 20
2.5375433389
 11
12.3907841758
 21
2.5410923409
  0
LINE
  5
24E
100
AcDbEntity
  8
0
100
AcDbLine
 62
2
  6
CONTINUOUS
 10
12.3907841758
 20
2.5410923409
 11
12.3990241804
 21
2.5458683435
  0
ARC
  5
24F
100
AcDbEntity
  8
0
100
AcDbCircle
 62
2
  6
CONTINUOUS
 10
12.3771587979
 20
2.5826952352
 40
0.0428289026
100
AcDbArc
 50
300.6990502959
 51
319.0591802498
  0
ARC
  5
250
100
AcDbEntity
  8
0
100
AcDbCircle
 62
2
  6
CONTINUOUS
 10
12.3971873948
 20
2.5665668817
 40
0.0171568255
100
AcDbArc
 50
315.9145124245
 51
16.0049121282
  0
ARC
  5
251
100
AcDbEntity
  8
0
100
AcDbCircle
 62
2
  6
CONTINUOUS
 10
12.3922357827
 20
2.5632132173
 40
0.0229166529
100
AcDbArc
 50
20.6563876465
 51
62.3316896973
  0
ARC
  5
252
100
AcDbEntity
  8
0
100
AcDbCircle
 62
2
  6
CONTINUOUS
 10
12.371573659
 20
2.5302846524
 40
0.061747717
100
AcDbArc
 50
59.5385584989
 51
90.0050977555
  0
LINE
  5
253
100
AcDbEntity
  8
0
100
AcDbLine
 62
2
  6
CONTINUOUS
 10
12.3715681652
 20
2.5920323691
 11
12.2055050731
 21
2.5920323691
  0
ARC
  5
254
100
AcDbEntity
  8
0
100
AcDbCircle
 62
2
  6
CONTINUOUS
 10
12.2055050712
 20
2.5895573696
 40
0.0024749995
100
AcDbArc
 50
89.9999571957
 51
180.0000428043
  0
LINE
  5
255
100
AcDbEntity
  8
0
100
AcDbLine
 62
2
  6
CONTINUOUS
 10
12.2030300717
 20
2.5895573678
 11
12.2030300717
 21
2.5697573568
  0
ARC
  5
256
100
AcDbEntity
  8
0
100
AcDbCircle
 62
2
  6
CONTINUOUS
 10
12.2055050712
 20
2.5697573549
 40
0.0024749995
100
AcDbArc
 50
179.9999571957
 51
270.0000428043
  0
LINE
  5
257
100
AcDbEntity
  8
0
100
AcDbLine
 62
2
  6
CONTINUOUS
 10
12.2055050731
 20
2.5672823554
 11
12.2294470864
 21
2.5672823554
  0
ARC
  5
258
100
AcDbEntity
  8
0
100
AcDbCircle
 62
2
  6
CONTINUOUS
 10
12.2294470882
 20
2.5648073559
 40
0.0024749995
100
AcDbArc
 50
359.9999571957
 51
90.0000428043
  0
LINE
  5
259
100
AcDbEntity
  8
0
100
AcDbLine
 62
2
  6
CONTINUOUS
 10
12.2319220877
 20
2.564807354
 11
12.2319220877
 21
2.5184523283
  0
ARC
  5
25A
100
AcDbEntity
  8
0
100
AcDbCircle
 62
2
  6
CONTINUOUS
 10
12.2294470882
 20
2.5184523265
 40
0.0024749995
100
AcDbArc
 50
269.9999571957
 51
0.0000428043
  0
LINE
  5
25B
100
AcDbEntity
  8
0
100
AcDbLine
 62
2
  6
CONTINUOUS
 10
12.2294470864
 20
2.515977327
 11
12.2055050731
 21
2.515977327
  0
ARC
  5
25C
100
AcDbEntity
  8
0
100
AcDbCircle
 62
2
  6
CONTINUOUS
 10
12.2055050712
 20
2.5135023274
 40
0.0024749995
100
AcDbArc
 50
89.9999571957
 51
180.0000428043
  0
LINE
  5
25D
100
AcDbEntity
  8
0
100
AcDbLine
 62
2
  6
CONTINUOUS
 10
12.2030300717
 20
2.5135023256
 11
12.2030300717
 21
2.4937023146
  0
ARC
  5
25E
100
AcDbEntity
  8
0
100
AcDbCircle
 62
2
  6
CONTINUOUS
 10
12.2055050712
 20
2.4937023128
 40
0.0024749995
100
AcDbArc
 50
179.9999571957
 51
270.0000428043
  0
LINE
  5
25F
100
AcDbEntity
  8
0
100
AcDbLine
 62
2
  6
CONTINUOUS
 10
12.2055050731
 20
2.4912273132
 11
12.3819511709
 21
2.4912273132
  0
ARC
  5
260
100
AcDbEntity
  8
0
100
AcDbCircle
 62
2
  6
CONTINUOUS
 10
12.3792298263
 20
2.539634765
 40
0.048483885
100
AcDbArc
 50
273.21763719
 51
303.0749121182
  0
ARC
  5
261
100
AcDbEntity
  8
0
100
AcDbCircle
 62
2
  6
CONTINUOUS
 10
12.3940692204
 20
2.5168671561
 40
0.0213072145
100
AcDbArc
 50
303.0488228549
 51
355.7263138674
  0
LINE
  5
262
100
AcDbEntity
  8
0
100
AcDbLine
 62
2
  6
CONTINUOUS
 10
12.2949101227
 20
2.5499573458
 11
12.3362731456
 21
2.5499573458
  0
ARC
  5
263
100
AcDbEntity
  8
0
100
AcDbCircle
 62
2
  6
CONTINUOUS
 10
12.3362731456
 20
2.5586198506
 40
0.0086625048
100
AcDbArc
 50
270.0
 51
90.0
  0
LINE
  5
264
100
AcDbEntity
  8
0
100
AcDbLine
 62
2
  6
CONTINUOUS
 10
12.3362731456
 20
2.5672823554
 11
12.2949101227
 21
2.5672823554
  0
ARC
  5
265
100
AcDbEntity
  8
0
100
AcDbCircle
 62
2
  6
CONTINUOUS
 10
12.2949101208
 20
2.5648073559
 40
0.0024749995
100
AcDbArc
 50
89.9999571957
 51
180.0000428043
  0
LINE
  5
266
100
AcDbEntity
  8
0
100
AcDbLine
 62
2
  6
CONTINUOUS
 10
12.2924351213
 20
2.564807354
 11
12.2924351213
 21
2.5524323472
  0
ARC
  5
267
100
AcDbEntity
  8
0
100
AcDbCircle
 62
2
  6
CONTINUOUS
 10
12.2949101208
 20
2.5524323453
 40
0.0024749995
100
AcDbArc
 50
179.9999571957
 51
270.0000428043
  0
LINE
  5
268
100
AcDbEntity
  8
0
100
AcDbLine
 62
2
  6
CONTINUOUS
 10
12.2924351213
 20
2.5184523283
 11
12.2924351213
 21
2.5308273352
  0
ARC
  5
269
100
AcDbEntity
  8
0
100
AcDbCircle
 62
2
  6
CONTINUOUS
 10
12.2949101208
 20
2.530827337
 40
0.0024749995
100
AcDbArc
 50
89.9999571957
 51
180.0000428043
  0
LINE
  5
26A
100
AcDbEntity
  8
0
100
AcDbLine
 62
2
  6
CONTINUOUS
 10
12.2949101227
 20
2.5333023366
 11
12.3362731456
 21
2.5333023366
  0
ARC
  5
26B
100
AcDbEntity
  8
0
100
AcDbCircle
 62
2
  6
CONTINUOUS
 10
12.3362731456
 20
2.5246398318
 40
0.0086625048
100
AcDbArc
 50
270.0
 51
90.0
  0
LINE
  5
26C
100
AcDbEntity
  8
0
100
AcDbLine
 62
2
  6
CONTINUOUS
 10
12.3362731456
 20
2.515977327
 11
12.2949101227
 21
2.515977327
  0
ARC
  5
26D
100
AcDbEntity
  8
0
100
AcDbCircle
 62
2
  6
CONTINUOUS
 10
12.2949101208
 20
2.5184523265
 40
0.0024749995
100
AcDbArc
 50
179.9999571957
 51
270.0000428043
  0
ARC
  5
26E
100
AcDbEntity
  8
0
100
AcDbCircle
 62
2
  6
CONTINUOUS
 10
13.5806801742
 20
2.5212486481
 40
0.044722495
100
AcDbArc
 50
195.531588407
 51
204.7624440448
  0
LINE
  5
26F
100
AcDbEntity
  8
0
100
AcDbLine
 62
2
  6
CONTINUOUS
 10
13.5375908118
 20
2.5092733232
 11
13.5357868108
 21
2.5153423266
  0
ARC
  5
270
100
AcDbEntity
  8
0
100
AcDbCircle
 62
2
  6
CONTINUOUS
 10
13.4974076135
 20
2.5055452462
 40
0.0396099176
100
AcDbArc
 50
14.3201081283
 51
22.4984722084
  0
ARC
  5
271
100
AcDbEntity
  8
0
100
AcDbCircle
 62
2
  6
CONTINUOUS
 10
13.5201739219
 20
2.5145168728
 40
0.0151491919
100
AcDbArc
 50
24.098260853
 51
63.0369451818
  0
ARC
  5
272
100
AcDbEntity
  8
0
100
AcDbCircle
 62
2
  6
CONTINUOUS
 10
13.5161192671
 20
2.5062372524
 40
0.0243676582
100
AcDbArc
 50
63.3666028271
 51
90.3937697637
  0
LINE
  5
273
100
AcDbEntity
  8
0
100
AcDbLine
 62
2
  6
CONTINUOUS
 10
13.5159517998
 20
2.5306043351
 11
13.4883447845
 21
2.5306043351
  0
ARC
  5
274
100
AcDbEntity
  8
0
100
AcDbCircle
 62
2
  6
CONTINUOUS
 10
13.4883447827
 20
2.5281293355
 40
0.0024749995
100
AcDbArc
 50
89.9999571957
 51
180.0000428043
  0
LINE
  5
275
100
AcDbEntity
  8
0
100
AcDbLine
 62
2
  6
CONTINUOUS
 10
13.4858697831
 20
2.5281293337
 11
13.4858697831
 21
2.5184303283
  0
ARC
  5
276
100
AcDbEntity
  8
0
100
AcDbCircle
 62
2
  6
CONTINUOUS
 10
13.4883447827
 20
2.5184303265
 40
0.0024749995
100
AcDbArc
 50
179.9999571957
 51
270.0000428043
  0
LINE
  5
277
100
AcDbEntity
  8
0
100
AcDbLine
 62
2
  6
CONTINUOUS
 10
13.4883447845
 20
2.5159553269
 11
13.5130037982
 21
2.5159553269
  0
ARC
  5
278
100
AcDbEntity
  8
0
100
AcDbCircle
 62
2
  6
CONTINUOUS
 10
13.5130038
 20
2.5134803274
 40
0.0024749995
100
AcDbArc
 50
359.9999571957
 51
90.0000428043
  0
LINE
  5
279
100
AcDbEntity
  8
0
100
AcDbLine
 62
2
  6
CONTINUOUS
 10
13.5154787995
 20
2.5134803256
 11
13.5154787995
 21
2.4937023146
  0
ARC
  5
27A
100
AcDbEntity
  8
0
100
AcDbCircle
 62
2
  6
CONTINUOUS
 10
13.5130038
 20
2.4937023128
 40
0.0024749995
100
AcDbArc
 50
269.9999571957
 51
0.0000428043
  0
LINE
  5
27B
100
AcDbEntity
  8
0
100
AcDbLine
 62
2
  6
CONTINUOUS
 10
13.5130037982
 20
2.4912273132
 11
13.3994327352
 21
2.4912273132
  0
ARC
  5
27C
100
AcDbEntity
  8
0
100
AcDbCircle
 62
2
  6
CONTINUOUS
 10
13.3994327333
 20
2.4937023128
 40
0.0024749995
100
AcDbArc
 50
179.9999571957
 51
270.0000428043
  0
LINE
  5
27D
100
AcDbEntity
  8
0
100
AcDbLine
 62
2
  6
CONTINUOUS
 10
13.3969577338
 20
2.4937023146
 11
13.3969577338
 21
2.5135023256
  0
ARC
  5
27E
100
AcDbEntity
  8
0
100
AcDbCircle
 62
2
  6
CONTINUOUS
 10
13.3994327333
 20
2.5135023274
 40
0.0024749995
100
AcDbArc
 50
89.9999571957
 51
180.0000428043
  0
LINE
  5
27F
100
AcDbEntity
  8
0
100
AcDbLine
 62
2
  6
CONTINUOUS
 10
13.3994327352
 20
2.515977327
 11
13.4221787478
 21
2.515977327
  0
ARC
  5
280
100
AcDbEntity
  8
0
100
AcDbCircle
 62
2
  6
CONTINUOUS
 10
13.4221787497
 20
2.5184523265
 40
0.0024749995
100
AcDbArc
 50
269.9999571957
 51
0.0000428042
  0
LINE
  5
281
100
AcDbEntity
  8
0
100
AcDbLine
 62
2
  6
CONTINUOUS
 10
13.4246537492
 20
2.5184523283
 11
13.4246537492
 21
2.564807354
  0
ARC
  5
282
100
AcDbEntity
  8
0
100
AcDbCircle
 62
2
  6
CONTINUOUS
 10
13.4221787497
 20
2.5648073559
 40
0.0024749995
100
AcDbArc
 50
359.9999571957
 51
90.0000428043
  0
LINE
  5
283
100
AcDbEntity
  8
0
100
AcDbLine
 62
2
  6
CONTINUOUS
 10
13.4221787478
 20
2.5672823554
 11
13.3994327352
 21
2.5672823554
  0
ARC
  5
284
100
AcDbEntity
  8
0
100
AcDbCircle
 62
2
  6
CONTINUOUS
 10
13.3994327333
 20
2.5697573549
 40
0.0024749995
100
AcDbArc
 50
179.9999571957
 51
270.0000428043
  0
LINE
  5
285
100
AcDbEntity
  8
0
100
AcDbLine
 62
2
  6
CONTINUOUS
 10
13.3969577338
 20
2.5697573568
 11
13.3969577338
 21
2.5895573678
  0
ARC
  5
286
100
AcDbEntity
  8
0
100
AcDbCircle
 62
2
  6
CONTINUOUS
 10
13.3994327333
 20
2.5895573696
 40
0.0024749995
100
AcDbArc
 50
89.9999571957
 51
180.0000428043
  0
LINE
  5
287
100
AcDbEntity
  8
0
100
AcDbLine
 62
2
  6
CONTINUOUS
 10
13.3994327352
 20
2.5920323691
 11
13.5490138181
 21
2.5920323691
  0
ARC
  5
288
100
AcDbEntity
  8
0
100
AcDbCircle
 62
2
  6
CONTINUOUS
 10
13.5463505148
 20
2.4094934586
 40
0.1825583387
100
AcDbArc
 50
79.8618509324
 51
89.1640948679
  0
ARC
  5
289
100
AcDbEntity
  8
0
100
AcDbCircle
 62
2
  6
CONTINUOUS
 10
13.5726548052
 20
2.5503169747
 40
0.039319019
100
AcDbArc
 50
59.1202086415
 51
81.4730239328
  0
ARC
  5
28A
100
AcDbEntity
  8
0
100
AcDbCircle
 62
2
  6
CONTINUOUS
 10
13.5783142014
 20
2.5566516438
 40
0.0310192946
100
AcDbArc
 50
34.7540871
 51
62.0879016178
  0
ARC
  5
28B
100
AcDbEntity
  8
0
100
AcDbCircle
 62
2
  6
CONTINUOUS
 10
13.5900029525
 20
2.565201245
 40
0.0165459396
100
AcDbArc
 50
1.548452892
 51
33.5033152417
  0
ARC
  5
28C
100
AcDbEntity
  8
0
100
AcDbCircle
 62
2
  6
CONTINUOUS
 10
13.5932995477
 20
2.5653696972
 40
0.0132462337
100
AcDbArc
 50
331.1510006998
 51
1.205404301
  0
ARC
  5
28D
100
AcDbEntity
  8
0
100
AcDbCircle
 62
2
  6
CONTINUOUS
 10
13.5822888914
 20
2.5720482849
 40
0.0261183659
100
AcDbArc
 50
305.6373831893
 51
329.9727629745
  0
ARC
  5
28E
100
AcDbEntity
  8
0
100
AcDbCircle
 62
2
  6
CONTINUOUS
 10
13.5519569538
 20
2.6152551345
 40
0.0789082104
100
AcDbArc
 50
292.906155071
 51
305.2574666259
  0
ARC
  5
28F
100
AcDbEntity
  8
0
100
AcDbCircle
 62
2
  6
CONTINUOUS
 10
13.5282557878
 20
2.4386010294
 40
0.117346916
100
AcDbArc
 50
58.614769177
 51
62.3737227606
  0
ARC
  5
290
100
AcDbEntity
  8
0
100
AcDbCircle
 62
2
  6
CONTINUOUS
 10
13.5761387404
 20
2.5167282896
 40
0.0257145923
100
AcDbArc
 50
39.3804255939
 51
59.0361096173
  0
ARC
  5
291
100
AcDbEntity
  8
0
100
AcDbCircle
 62
2
  6
CONTINUOUS
 10
13.5750183849
 20
2.5166552064
 40
0.0266349791
100
AcDbArc
 50
20.3630922153
 51
37.9727053099
  0
ARC
  5
292
100
AcDbEntity
  8
0
100
AcDbCircle
 62
2
  6
CONTINUOUS
 10
13.5571178432
 20
2.509473798
 40
0.0459185159
100
AcDbArc
 50
15.6740290068
 51
20.9917271228
  0
ARC
  5
293
100
AcDbEntity
  8
0
100
AcDbCircle
 62
2
  6
CONTINUOUS
 10
13.6156881783
 20
2.525116781
 40
0.0147197649
100
AcDbArc
 50
192.7054516565
 51
206.0594861022
  0
ARC
  5
294
100
AcDbEntity
  8
0
100
AcDbCircle
 62
2
  6
CONTINUOUS
 10
13.6071938412
 20
2.5209082945
 40
0.0052403997
100
AcDbArc
 50
205.5232099488
 51
227.5054868079
  0
ARC
  5
295
100
AcDbEntity
  8
0
100
AcDbCircle
 62
2
  6
CONTINUOUS
 10
13.6054655419
 20
2.5190929218
 40
0.0027347709
100
AcDbArc
 50
228.5117626737
 51
266.1485845754
  0
LINE
  5
296
100
AcDbEntity
  8
0
100
AcDbLine
 62
2
  6
CONTINUOUS
 10
13.6052818493
 20
2.5163643272
 11
13.60639085
 21
2.5163643272
  0
ARC
  5
297
100
AcDbEntity
  8
0
100
AcDbCircle
 62
2
  6
CONTINUOUS
 10
13.6063292954
 20
2.5296129864
 40
0.0132488022
100
AcDbArc
 50
270.266200055
 51
281.2404888597
  0
ARC
  5
298
100
AcDbEntity
  8
0
100
AcDbCircle
 62
2
  6
CONTINUOUS
 10
13.6075235364
 20
2.5238762928
 40
0.0073895522
100
AcDbArc
 50
280.8288201977
 51
305.0837508495
  0
ARC
  5
299
100
AcDbEntity
  8
0
100
AcDbCircle
 62
2
  6
CONTINUOUS
 10
13.607924718
 20
2.5230254464
 40
0.0064647042
100
AcDbArc
 50
306.5086174083
 51
340.2162360092
  0
ARC
  5
29A
100
AcDbEntity
  8
0
100
AcDbCircle
 62
2
  6
CONTINUOUS
 10
13.6027235414
 20
2.524769508
 40
0.0119498009
100
AcDbArc
 50
340.7883861657
 51
1.1691452593
  0
LINE
  5
29B
100
AcDbEntity
  8
0
100
AcDbLine
 62
2
  6
CONTINUOUS
 10
13.6146708546
 20
2.525013332
 11
13.6146708546
 21
2.5276393334
  0
ARC
  5
29C
100
AcDbEntity
  8
0
100
AcDbCircle
 62
2
  6
CONTINUOUS
 10
13.6171458541
 20
2.5276393353
 40
0.0024749995
100
AcDbArc
 50
89.9999571957
 51
180.0000428043
  0
LINE
  5
29D
100
AcDbEntity
  8
0
100
AcDbLine
 62
2
  6
CONTINUOUS
 10
13.6171458559
 20
2.5301143348
 11
13.6292558626
 21
2.5301143348
  0
ARC
  5
29E
100
AcDbEntity
  8
0
100
AcDbCircle
 62
2
  6
CONTINUOUS
 10
13.6292558645
 20
2.5276393353
 40
0.0024749995
100
AcDbArc
 50
359.9999571957
 51
90.0000428043
  0
LINE
  5
29F
100
AcDbEntity
  8
0
100
AcDbLine
 62
2
  6
CONTINUOUS
 10
13.631730864
 20
2.5276393334
 11
13.631730864
 21
2.516087327
  0
ARC
  5
2A0
100
AcDbEntity
  8
0
100
AcDbCircle
 62
2
  6
CONTINUOUS
 10
13.6141751675
 20
2.5161916447
 40
0.0175560065
100
AcDbArc
 50
332.2279060967
 51
359.6595469939
  0
ARC
  5
2A1
100
AcDbEntity
  8
0
100
AcDbCircle
 62
2
  6
CONTINUOUS
 10
13.6048681567
 20
2.5210861501
 40
0.0280715479
100
AcDbArc
 50
308.5071794988
 51
332.2400656899
  0
ARC
  5
2A2
100
AcDbEntity
  8
0
100
AcDbCircle
 62
2
  6
CONTINUOUS
 10
13.5978759713
 20
2.5286873679
 40
0.0383802683
100
AcDbArc
 50
288.7656836787
 51
309.6104317088
  0
ARC
  5
2A3
100
AcDbEntity
  8
0
100
AcDbCircle
 62
2
  6
CONTINUOUS
 10
13.6036139387
 20
2.5111006186
 40
0.0198837666
100
AcDbArc
 50
271.8586572978
 51
289.4131338543
  0
LINE
  5
2A4
100
AcDbEntity
  8
0
100
AcDbLine
 62
2
  6
CONTINUOUS
 10
13.6042588488
 20
2.4912273132
 11
13.5568948225
 21
2.4912273132
  0
ARC
  5
2A5
100
AcDbEntity
  8
0
100
AcDbCircle
 62
2
  6
CONTINUOUS
 10
13.5577001432
 20
2.5085494649
 40
0.0173408616
100
AcDbArc
 50
232.4713476722
 51
267.338189944
  0
ARC
  5
2A6
100
AcDbEntity
  8
0
100
AcDbCircle
 62
2
  6
CONTINUOUS
 10
13.5607987082
 20
2.5143997688
 40
0.0238935861
100
AcDbArc
 50
209.8247607259
 51
235.1255079367
  0
ARC
  5
2A7
100
AcDbEntity
  8
0
100
AcDbCircle
 62
2
  6
CONTINUOUS
 10
13.5295131508
 20
2.5629115009
 40
0.0110815393
100
AcDbArc
 50
306.758405961
 51
320.4502234234
  0
ARC
  5
2A8
100
AcDbEntity
  8
0
100
AcDbCircle
 62
2
  6
CONTINUOUS
 10
13.5238839599
 20
2.5706523294
 40
0.0206523367
100
AcDbArc
 50
289.6883413472
 51
306.4184925496
  0
ARC
  5
2A9
100
AcDbEntity
  8
0
100
AcDbCircle
 62
2
  6
CONTINUOUS
 10
13.5219564542
 20
2.5750459767
 40
0.0254407115
100
AcDbArc
 50
270.7327484175
 51
290.441894219
  0
LINE
  5
2AA
100
AcDbEntity
  8
0
100
AcDbLine
 62
2
  6
CONTINUOUS
 10
13.5222818033
 20
2.5496073456
 11
13.4883447845
 21
2.5496073456
  0
ARC
  5
2AB
100
AcDbEntity
  8
0
100
AcDbCircle
 62
2
  6
CONTINUOUS
 10
13.4883447827
 20
2.5520823451
 40
0.0024749995
100
AcDbArc
 50
179.9999571957
 51
270.0000428043
  0
LINE
  5
2AC
100
AcDbEntity
  8
0
100
AcDbLine
 62
2
  6
CONTINUOUS
 10
13.4858697831
 20
2.552082347
 11
13.4858697831
 21
2.564807354
  0
ARC
  5
2AD
100
AcDbEntity
  8
0
100
AcDbCircle
 62
2
  6
CONTINUOUS
 10
13.4883447827
 20
2.5648073559
 40
0.0024749995
100
AcDbArc
 50
89.9999571957
 51
180.0000428043
  0
LINE
  5
2AE
100
AcDbEntity
  8
0
100
AcDbLine
 62
2
  6
CONTINUOUS
 10
13.4883447845
 20
2.5672823554
 11
13.5251458049
 21
2.5672823554
  0
ARC
  5
2AF
100
AcDbEntity
  8
0
100
AcDbCircle
 62
2
  6
CONTINUOUS
 10
13.5236009174
 20
2.5388278764
 40
0.0284963867
100
AcDbArc
 50
70.3834917948
 51
86.8922743861
  0
ARC
  5
2B0
100
AcDbEntity
  8
0
100
AcDbCircle
 62
2
  6
CONTINUOUS
 10
13.5284605274
 20
2.5518696094
 40
0.0145814632
100
AcDbArc
 50
54.6746025112
 51
71.1660573124
  0
ARC
  5
2B1
100
AcDbEntity
  8
0
100
AcDbCircle
 62
2
  6
CONTINUOUS
 10
13.5335900184
 20
2.5587235346
 40
0.0060275915
100
AcDbArc
 50
20.9055592135
 51
56.7851676243
  0
ARC
  5
2B2
100
AcDbEntity
  8
0
100
AcDbCircle
 62
2
  6
CONTINUOUS
 10
13.5348905773
 20
2.5593838168
 40
0.0045795888
100
AcDbArc
 50
355.6235353944
 51
18.9942678268
  0
ARC
  5
2B3
100
AcDbEntity
  8
0
100
AcDbCircle
 62
2
  6
CONTINUOUS
 10
13.533683767
 20
2.559677593
 40
0.0058087709
100
AcDbArc
 50
318.8515287446
 51
353.6422345323
  0
LINE
  5
2B4
100
AcDbEntity
  8
0
100
AcDbLine
 62
2
  6
CONTINUOUS
 10
12.672340332
 20
2.5920323691
 11
12.7727983877
 21
2.5920323691
  0
ARC
  5
2B5
100
AcDbEntity
  8
0
100
AcDbCircle
 62
2
  6
CONTINUOUS
 10
12.7727985224
 20
2.5895582013
 40
0.0024741678
100
AcDbArc
 50
46.3477981899
 51
90.0031206038
  0
LINE
  5
2B6
100
AcDbEntity
  8
0
100
AcDbLine
 62
2
  6
CONTINUOUS
 10
12.7745063886
 20
2.5913483688
 11
12.8345394219
 21
2.534068337
  0
ARC
  5
2B7
100
AcDbEntity
  8
0
100
AcDbCircle
 62
2
  6
CONTINUOUS
 10
12.8362481229
 20
2.5358592748
 40
0.0024753014
100
AcDbArc
 50
226.3461263059
 51
0.0014637321
  0
LINE
  5
2B8
100
AcDbEntity
  8
0
100
AcDbLine
 62
2
  6
CONTINUOUS
 10
12.8387234242
 20
2.535859338
 11
12.8387234242
 21
2.564807354
  0
ARC
  5
2B9
100
AcDbEntity
  8
0
100
AcDbCircle
 62
2
  6
CONTINUOUS
 10
12.8362484247
 20
2.5648073559
 40
0.0024749995
100
AcDbArc
 50
359.9999571957
 51
90.0000428043
  0
LINE
  5
2BA
100
AcDbEntity
  8
0
100
AcDbLine
 62
2
  6
CONTINUOUS
 10
12.8362484229
 20
2.5672823554
 11
12.8174724125
 21
2.5672823554
  0
ARC
  5
2BB
100
AcDbEntity
  8
0
100
AcDbCircle
 62
2
  6
CONTINUOUS
 10
12.8174724106
 20
2.5697573549
 40
0.0024749995
100
AcDbArc
 50
179.9999571957
 51
270.0000428043
  0
LINE
  5
2BC
100
AcDbEntity
  8
0
100
AcDbLine
 62
2
  6
CONTINUOUS
 10
12.8149974111
 20
2.5697573568
 11
12.8149974111
 21
2.5895573678
  0
ARC
  5
2BD
100
AcDbEntity
  8
0
100
AcDbCircle
 62
2
  6
CONTINUOUS
 10
12.8174724106
 20
2.5895573696
 40
0.0024749995
100
AcDbArc
 50
89.9999571957
 51
180.0000428043
  0
LINE
  5
2BE
100
AcDbEntity
  8
0
100
AcDbLine
 62
2
  6
CONTINUOUS
 10
12.8174724125
 20
2.5920323691
 11
12.8914734535
 21
2.5920323691
  0
ARC
  5
2BF
100
AcDbEntity
  8
0
100
AcDbCircle
 62
2
  6
CONTINUOUS
 10
12.8914734553
 20
2.5895573696
 40
0.0024749995
100
AcDbArc
 50
359.9999571957
 51
90.0000428043
  0
LINE
  5
2C0
100
AcDbEntity
  8
0
100
AcDbLine
 62
2
  6
CONTINUOUS
 10
12.8939484549
 20
2.5895573678
 11
12.8939484549
 21
2.5697573568
  0
ARC
  5
2C1
100
AcDbEntity
  8
0
100
AcDbCircle
 62
2
  6
CONTINUOUS
 10
12.8914734553
 20
2.5697573549
 40
0.0024749995
100
AcDbArc
 50
269.9999571957
 51
0.0000428043
  0
LINE
  5
2C2
100
AcDbEntity
  8
0
100
AcDbLine
 62
2
  6
CONTINUOUS
 10
12.8914734535
 20
2.5672823554
 11
12.8735404436
 21
2.5672823554
  0
ARC
  5
2C3
100
AcDbEntity
  8
0
100
AcDbCircle
 62
2
  6
CONTINUOUS
 10
12.8735404417
 20
2.5648073559
 40
0.0024749995
100
AcDbArc
 50
89.9999571957
 51
180.0000428043
  0
LINE
  5
2C4
100
AcDbEntity
  8
0
100
AcDbLine
 62
2
  6
CONTINUOUS
 10
12.8710654422
 20
2.564807354
 11
12.8710654422
 21
2.4937023146
  0
ARC
  5
2C5
100
AcDbEntity
  8
0
100
AcDbCircle
 62
2
  6
CONTINUOUS
 10
12.8685904427
 20
2.4937023128
 40
0.0024749995
100
AcDbArc
 50
269.9999571957
 51
0.0000428043
  0
LINE
  5
2C6
100
AcDbEntity
  8
0
100
AcDbLine
 62
2
  6
CONTINUOUS
 10
12.8685904408
 20
2.4912273132
 11
12.7943853997
 21
2.4912273132
  0
ARC
  5
2C7
100
AcDbEntity
  8
0
100
AcDbCircle
 62
2
  6
CONTINUOUS
 10
12.7943847649
 20
2.4937027294
 40
0.0024754162
100
AcDbArc
 50
226.3593695813
 51
270.0146919953
  0
LINE
  5
2C8
100
AcDbEntity
  8
0
100
AcDbLine
 62
2
  6
CONTINUOUS
 10
12.7926763987
 20
2.4919113136
 11
12.7293963636
 21
2.5522893471
  0
ARC
  5
2C9
100
AcDbEntity
  8
0
100
AcDbCircle
 62
2
  6
CONTINUOUS
 10
12.7276876627
 20
2.5504984093
 40
0.0024753014
100
AcDbArc
 50
46.3461263059
 51
180.0014637321
  0
LINE
  5
2CA
100
AcDbEntity
  8
0
100
AcDbLine
 62
2
  6
CONTINUOUS
 10
12.7252123613
 20
2.5504983461
 11
12.7252123613
 21
2.5184523283
  0
ARC
  5
2CB
100
AcDbEntity
  8
0
100
AcDbCircle
 62
2
  6
CONTINUOUS
 10
12.7276873608
 20
2.5184523265
 40
0.0024749995
100
AcDbArc
 50
179.9999571957
 51
270.0000428043
  0
LINE
  5
2CC
100
AcDbEntity
  8
0
100
AcDbLine
 62
2
  6
CONTINUOUS
 10
12.7276873627
 20
2.515977327
 11
12.7480043739
 21
2.515977327
  0
ARC
  5
2CD
100
AcDbEntity
  8
0
100
AcDbCircle
 62
2
  6
CONTINUOUS
 10
12.7480043758
 20
2.5135023274
 40
0.0024749995
100
AcDbArc
 50
359.9999571957
 51
90.0000428043
  0
LINE
  5
2CE
100
AcDbEntity
  8
0
100
AcDbLine
 62
2
  6
CONTINUOUS
 10
12.7504793753
 20
2.5135023256
 11
12.7504793753
 21
2.4937023146
  0
ARC
  5
2CF
100
AcDbEntity
  8
0
100
AcDbCircle
 62
2
  6
CONTINUOUS
 10
12.7480043758
 20
2.4937023128
 40
0.0024749995
100
AcDbArc
 50
269.9999571957
 51
0.0000428043
  0
LINE
  5
2D0
100
AcDbEntity
  8
0
100
AcDbLine
 62
2
  6
CONTINUOUS
 10
12.7480043739
 20
2.4912273132
 11
12.672340332
 21
2.4912273132
  0
ARC
  5
2D1
100
AcDbEntity
  8
0
100
AcDbCircle
 62
2
  6
CONTINUOUS
 10
12.6723403301
 20
2.4937023128
 40
0.0024749995
100
AcDbArc
 50
179.9999571957
 51
270.0000428043
  0
LINE
  5
2D2
100
AcDbEntity
  8
0
100
AcDbLine
 62
2
  6
CONTINUOUS
 10
12.6698653306
 20
2.4937023146
 11
12.6698653306
 21
2.5135023256
  0
ARC
  5
2D3
100
AcDbEntity
  8
0
100
AcDbCircle
 62
2
  6
CONTINUOUS
 10
12.6723403301
 20
2.5135023274
 40
0.0024749995
100
AcDbArc
 50
89.9999571957
 51
180.0000428043
  0
LINE
  5
2D4
100
AcDbEntity
  8
0
100
AcDbLine
 62
2
  6
CONTINUOUS
 10
12.672340332
 20
2.515977327
 11
12.6909873423
 21
2.515977327
  0
ARC
  5
2D5
100
AcDbEntity
  8
0
100
AcDbCircle
 62
2
  6
CONTINUOUS
 10
12.6909873442
 20
2.5184523265
 40
0.0024749995
100
AcDbArc
 50
269.9999571957
 51
0.0000428043
  0
LINE
  5
2D6
100
AcDbEntity
  8
0
100
AcDbLine
 62
2
  6
CONTINUOUS
 10
12.6934623437
 20
2.5184523283
 11
12.6934623437
 21
2.564807354
  0
ARC
  5
2D7
100
AcDbEntity
  8
0
100
AcDbCircle
 62
2
  6
CONTINUOUS
 10
12.6909873442
 20
2.5648073559
 40
0.0024749995
100
AcDbArc
 50
359.9999571957
 51
90.0000428043
  0
LINE
  5
2D8
100
AcDbEntity
  8
0
100
AcDbLine
 62
2
  6
CONTINUOUS
 10
12.6909873423
 20
2.5672823554
 11
12.672340332
 21
2.5672823554
  0
ARC
  5
2D9
100
AcDbEntity
  8
0
100
AcDbCircle
 62
2
  6
CONTINUOUS
 10
12.6723403301
 20
2.5697573549
 40
0.0024749995
100
AcDbArc
 50
179.9999571957
 51
270.0000428043
  0
LINE
  5
2DA
100
AcDbEntity
  8
0
100
AcDbLine
 62
2
  6
CONTINUOUS
 10
12.6698653306
 20
2.5697573568
 11
12.6698653306
 21
2.5895573678
  0
ARC
  5
2DB
100
AcDbEntity
  8
0
100
AcDbCircle
 62
2
  6
CONTINUOUS
 10
12.6723403301
 20
2.5895573696
 40
0.0024749995
100
AcDbArc
 50
89.9999571957
 51
180.0000428043
  0
LINE
  5
2DC
100
AcDbEntity
  8
0
100
AcDbLine
 62
2
  6
CONTINUOUS
 10
12.5246402501
 20
2.5655893545
 11
12.5175232461
 21
2.5543723483
  0
ARC
  5
2DD
100
AcDbEntity
  8
0
100
AcDbCircle
 62
2
  6
CONTINUOUS
 10
12.519613138
 20
2.5530463862
 40
0.0024750401
100
AcDbArc
 50
147.6063258012
 51
270.0025305754
  0
LINE
  5
2DE
100
AcDbEntity
  8
0
100
AcDbLine
 62
2
  6
CONTINUOUS
 10
12.5196132473
 20
2.5505713461
 11
12.5401702587
 21
2.5505713461
  0
ARC
  5
2DF
100
AcDbEntity
  8
0
100
AcDbCircle
 62
2
  6
CONTINUOUS
 10
12.5401702375
 20
2.5530465533
 40
0.0024752071
100
AcDbArc
 50
270.0004896793
 51
32.9089806818
  0
LINE
  5
2E0
100
AcDbEntity
  8
0
100
AcDbLine
 62
2
  6
CONTINUOUS
 10
12.5422482598
 20
2.5543913483
 11
12.5349892558
 21
2.5656073545
  0
ARC
  5
2E1
100
AcDbEntity
  8
0
100
AcDbCircle
 62
2
  6
CONTINUOUS
 10
12.532910715
 20
2.564262895
 40
0.0024754602
100
AcDbArc
 50
32.8959418573
 51
89.9875097202
  0
LINE
  5
2E2
100
AcDbEntity
  8
0
100
AcDbLine
 62
2
  6
CONTINUOUS
 10
12.5329112547
 20
2.5667383551
 11
12.5267302512
 21
2.5667383551
  0
ARC
  5
2E3
100
AcDbEntity
  8
0
100
AcDbCircle
 62
2
  6
CONTINUOUS
 10
12.5267301809
 20
2.5642631548
 40
0.0024752003
100
AcDbArc
 50
89.998372645
 51
147.602165307
  0
LINE
  5
2E4
100
AcDbEntity
  8
0
100
AcDbLine
 62
2
  6
CONTINUOUS
 10
12.548053263
 20
2.5284903339
 11
12.5536792662
 21
2.5197973291
  0
ARC
  5
2E5
100
AcDbEntity
  8
0
100
AcDbCircle
 62
2
  6
CONTINUOUS
 10
12.5516012439
 20
2.5184525341
 40
0.0024752071
100
AcDbArc
 50
270.0004896794
 51
32.9089806818
  0
LINE
  5
2E6
100
AcDbEntity
  8
0
100
AcDbLine
 62
2
  6
CONTINUOUS
 10
12.551601265
 20
2.515977327
 11
12.537150257
 21
2.515977327
  0
ARC
  5
2E7
100
AcDbEntity
  8
0
100
AcDbCircle
 62
2
  6
CONTINUOUS
 10
12.5371502552
 20
2.5135023274
 40
0.0024749995
100
AcDbArc
 50
89.9999571957
 51
180.0000428043
  0
LINE
  5
2E8
100
AcDbEntity
  8
0
100
AcDbLine
 62
2
  6
CONTINUOUS
 10
12.5346752556
 20
2.5135023256
 11
12.5346752556
 21
2.4937023146
  0
ARC
  5
2E9
100
AcDbEntity
  8
0
100
AcDbCircle
 62
2
  6
CONTINUOUS
 10
12.5371502552
 20
2.4937023128
 40
0.0024749995
100
AcDbArc
 50
179.9999571957
 51
270.0000428043
  0
LINE
  5
2EA
100
AcDbEntity
  8
0
100
AcDbLine
 62
2
  6
CONTINUOUS
 10
12.537150257
 20
2.4912273132
 11
12.6424313154
 21
2.4912273132
  0
ARC
  5
2EB
100
AcDbEntity
  8
0
100
AcDbCircle
 62
2
  6
CONTINUOUS
 10
12.6424313172
 20
2.4937023128
 40
0.0024749995
100
AcDbArc
 50
269.9999571957
 51
0.0000428043
  0
LINE
  5
2EC
100
AcDbEntity
  8
0
100
AcDbLine
 62
2
  6
CONTINUOUS
 10
12.6449063168
 20
2.4937023146
 11
12.6449063168
 21
2.5135023256
  0
ARC
  5
2ED
100
AcDbEntity
  8
0
100
AcDbCircle
 62
2
  6
CONTINUOUS
 10
12.6424313172
 20
2.5135023274
 40
0.0024749995
100
AcDbArc
 50
359.9999571957
 51
90.0000428043
  0
LINE
  5
2EE
100
AcDbEntity
  8
0
100
AcDbLine
 62
2
  6
CONTINUOUS
 10
12.6424313154
 20
2.515977327
 11
12.6224153043
 21
2.515977327
  0
ARC
  5
2EF
100
AcDbEntity
  8
0
100
AcDbCircle
 62
2
  6
CONTINUOUS
 10
12.6224154248
 20
2.518451368
 40
0.002474041
100
AcDbArc
 50
212.9056413127
 51
269.9972091756
  0
LINE
  5
2F0
100
AcDbEntity
  8
0
100
AcDbLine
 62
2
  6
CONTINUOUS
 10
12.6203383031
 20
2.5171073276
 11
12.5725822767
 21
2.5909023685
  0
ARC
  5
2F1
100
AcDbEntity
  8
0
100
AcDbCircle
 62
2
  6
CONTINUOUS
 10
12.570504655
 20
2.589557409
 40
0.0024749602
100
AcDbArc
 50
32.9172174468
 51
90.0087853097
  0
LINE
  5
2F2
100
AcDbEntity
  8
0
100
AcDbLine
 62
2
  6
CONTINUOUS
 10
12.5705042755
 20
2.5920323691
 11
12.5133292438
 21
2.5920323691
  0
ARC
  5
2F3
100
AcDbEntity
  8
0
100
AcDbCircle
 62
2
  6
CONTINUOUS
 10
12.5133291735
 20
2.5895571688
 40
0.0024752003
100
AcDbArc
 50
89.9983726451
 51
147.602165307
  0
LINE
  5
2F4
100
AcDbEntity
  8
0
100
AcDbLine
 62
2
  6
CONTINUOUS
 10
12.5112392426
 20
2.5908833685
 11
12.4644392167
 21
2.5171263276
  0
ARC
  5
2F5
100
AcDbEntity
  8
0
100
AcDbCircle
 62
2
  6
CONTINUOUS
 10
12.4623492858
 20
2.5184525273
 40
0.0024752003
100
AcDbArc
 50
269.9983726451
 51
327.602165307
  0
LINE
  5
2F6
100
AcDbEntity
  8
0
100
AcDbLine
 62
2
  6
CONTINUOUS
 10
12.4623492155
 20
2.515977327
 11
12.4394882028
 21
2.515977327
  0
ARC
  5
2F7
100
AcDbEntity
  8
0
100
AcDbCircle
 62
2
  6
CONTINUOUS
 10
12.439488201
 20
2.5135023274
 40
0.0024749995
100
AcDbArc
 50
89.9999571957
 51
180.0000428043
  0
LINE
  5
2F8
100
AcDbEntity
  8
0
100
AcDbLine
 62
2
  6
CONTINUOUS
 10
12.4370132015
 20
2.5135023256
 11
12.4370132015
 21
2.4937023146
  0
ARC
  5
2F9
100
AcDbEntity
  8
0
100
AcDbCircle
 62
2
  6
CONTINUOUS
 10
12.439488201
 20
2.4937023128
 40
0.0024749995
100
AcDbArc
 50
179.9999571957
 51
270.0000428043
  0
LINE
  5
2FA
100
AcDbEntity
  8
0
100
AcDbLine
 62
2
  6
CONTINUOUS
 10
12.4394882028
 20
2.4912273132
 11
12.5168642458
 21
2.4912273132
  0
ARC
  5
2FB
100
AcDbEntity
  8
0
100
AcDbCircle
 62
2
  6
CONTINUOUS
 10
12.5168642476
 20
2.4937023128
 40
0.0024749995
100
AcDbArc
 50
269.9999571957
 51
0.0000428043
  0
LINE
  5
2FC
100
AcDbEntity
  8
0
100
AcDbLine
 62
2
  6
CONTINUOUS
 10
12.5193392471
 20
2.4937023146
 11
12.5193392471
 21
2.5135023256
  0
ARC
  5
2FD
100
AcDbEntity
  8
0
100
AcDbCircle
 62
2
  6
CONTINUOUS
 10
12.5168642476
 20
2.5135023274
 40
0.0024749995
100
AcDbArc
 50
359.9999571957
 51
90.0000428043
  0
LINE
  5
2FE
100
AcDbEntity
  8
0
100
AcDbLine
 62
2
  6
CONTINUOUS
 10
12.5168642458
 20
2.515977327
 11
12.5055812395
 21
2.515977327
  0
ARC
  5
2FF
100
AcDbEntity
  8
0
100
AcDbCircle
 62
2
  6
CONTINUOUS
 10
12.5055811302
 20
2.518452367
 40
0.0024750401
100
AcDbArc
 50
147.6063258011
 51
270.0025305754
  0
LINE
  5
300
100
AcDbEntity
  8
0
100
AcDbLine
 62
2
  6
CONTINUOUS
 10
12.5034912383
 20
2.5197783291
 11
12.5090072414
 21
2.5284723339
  0
ARC
  5
301
100
AcDbEntity
  8
0
100
AcDbCircle
 62
2
  6
CONTINUOUS
 10
12.5110971723
 20
2.5271461342
 40
0.0024752003
100
AcDbArc
 50
89.998372645
 51
147.602165307
  0
LINE
  5
302
100
AcDbEntity
  8
0
100
AcDbLine
 62
2
  6
CONTINUOUS
 10
12.5110972426
 20
2.5296213345
 11
12.5459752619
 21
2.5296213345
  0
ARC
  5
303
100
AcDbEntity
  8
0
100
AcDbCircle
 62
2
  6
CONTINUOUS
 10
12.5459747223
 20
2.5271458744
 40
0.0024754602
100
AcDbArc
 50
32.8959418573
 51
89.9875097202
  0
LINE
  5
304
100
AcDbEntity
  8
0
100
AcDbLine
 62
2
  6
CONTINUOUS
 10
12.9205934696
 20
2.5920323691
 11
13.0210515254
 21
2.5920323691
  0
ARC
  5
305
100
AcDbEntity
  8
0
100
AcDbCircle
 62
2
  6
CONTINUOUS
 10
13.0210516601
 20
2.5895582013
 40
0.0024741678
100
AcDbArc
 50
46.3477981899
 51
90.0031206038
  0
LINE
  5
306
100
AcDbEntity
  8
0
100
AcDbLine
 62
2
  6
CONTINUOUS
 10
13.0227595263
 20
2.5913483688
 11
13.0827925596
 21
2.534068337
  0
ARC
  5
307
100
AcDbEntity
  8
0
100
AcDbCircle
 62
2
  6
CONTINUOUS
 10
13.0845012605
 20
2.5358592748
 40
0.0024753014
100
AcDbArc
 50
226.3461263059
 51
0.0014637321
  0
LINE
  5
308
100
AcDbEntity
  8
0
100
AcDbLine
 62
2
  6
CONTINUOUS
 10
13.0869765619
 20
2.535859338
 11
13.0869765619
 21
2.564807354
  0
ARC
  5
309
100
AcDbEntity
  8
0
100
AcDbCircle
 62
2
  6
CONTINUOUS
 10
13.0845015624
 20
2.5648073559
 40
0.0024749995
100
AcDbArc
 50
359.9999571957
 51
90.0000428043
  0
LINE
  5
30A
100
AcDbEntity
  8
0
100
AcDbLine
 62
2
  6
CONTINUOUS
 10
13.0845015605
 20
2.5672823554
 11
13.0657255501
 21
2.5672823554
  0
ARC
  5
30B
100
AcDbEntity
  8
0
100
AcDbCircle
 62
2
  6
CONTINUOUS
 10
13.0657255483
 20
2.5697573549
 40
0.0024749995
100
AcDbArc
 50
179.9999571957
 51
270.0000428043
  0
LINE
  5
30C
100
AcDbEntity
  8
0
100
AcDbLine
 62
2
  6
CONTINUOUS
 10
13.0632505488
 20
2.5697573568
 11
13.0632505488
 21
2.5895573678
  0
ARC
  5
30D
100
AcDbEntity
  8
0
100
AcDbCircle
 62
2
  6
CONTINUOUS
 10
13.0657255483
 20
2.5895573696
 40
0.0024749995
100
AcDbArc
 50
89.9999571957
 51
180.0000428043
  0
LINE
  5
30E
100
AcDbEntity
  8
0
100
AcDbLine
 62
2
  6
CONTINUOUS
 10
13.0657255501
 20
2.5920323691
 11
13.1397265912
 21
2.5920323691
  0
ARC
  5
30F
100
AcDbEntity
  8
0
100
AcDbCircle
 62
2
  6
CONTINUOUS
 10
13.139726593
 20
2.5895573696
 40
0.0024749995
100
AcDbArc
 50
359.9999571957
 51
90.0000428043
  0
LINE
  5
310
100
AcDbEntity
  8
0
100
AcDbLine
 62
2
  6
CONTINUOUS
 10
13.1422015925
 20
2.5895573678
 11
13.1422015925
 21
2.5697573568
  0
ARC
  5
311
100
AcDbEntity
  8
0
100
AcDbCircle
 62
2
  6
CONTINUOUS
 10
13.139726593
 20
2.5697573549
 40
0.0024749995
100
AcDbArc
 50
269.9999571957
 51
0.0000428042
  0
LINE
  5
312
100
AcDbEntity
  8
0
100
AcDbLine
 62
2
  6
CONTINUOUS
 10
13.1397265912
 20
2.5672823554
 11
13.1217935812
 21
2.5672823554
  0
ARC
  5
313
100
AcDbEntity
  8
0
100
AcDbCircle
 62
2
  6
CONTINUOUS
 10
13.1217935794
 20
2.5648073559
 40
0.0024749995
100
AcDbArc
 50
89.9999571957
 51
180.0000428042
  0
LINE
  5
314
100
AcDbEntity
  8
0
100
AcDbLine
 62
2
  6
CONTINUOUS
 10
13.1193185799
 20
2.564807354
 11
13.1193185799
 21
2.4937023146
  0
ARC
  5
315
100
AcDbEntity
  8
0
100
AcDbCircle
 62
2
  6
CONTINUOUS
 10
13.1168435803
 20
2.4937023128
 40
0.0024749995
100
AcDbArc
 50
269.9999571957
 51
0.0000428043
  0
LINE
  5
316
100
AcDbEntity
  8
0
100
AcDbLine
 62
2
  6
CONTINUOUS
 10
13.1168435785
 20
2.4912273132
 11
13.0426375373
 21
2.4912273132
  0
ARC
  5
317
100
AcDbEntity
  8
0
100
AcDbCircle
 62
2
  6
CONTINUOUS
 10
13.0426374026
 20
2.493701481
 40
0.0024741678
100
AcDbArc
 50
226.3477981898
 51
270.0031206038
  0
LINE
  5
318
100
AcDbEntity
  8
0
100
AcDbLine
 62
2
  6
CONTINUOUS
 10
13.0409295364
 20
2.4919113136
 11
12.9776495013
 21
2.5522893471
  0
ARC
  5
319
100
AcDbEntity
  8
0
100
AcDbCircle
 62
2
  6
CONTINUOUS
 10
12.9759408003
 20
2.5504984093
 40
0.0024753014
100
AcDbArc
 50
46.3461263059
 51
180.0014637321
  0
LINE
  5
31A
100
AcDbEntity
  8
0
100
AcDbLine
 62
2
  6
CONTINUOUS
 10
12.973465499
 20
2.5504983461
 11
12.973465499
 21
2.5184523283
  0
ARC
  5
31B
100
AcDbEntity
  8
0
100
AcDbCircle
 62
2
  6
CONTINUOUS
 10
12.9759404985
 20
2.5184523265
 40
0.0024749995
100
AcDbArc
 50
179.9999571957
 51
270.0000428043
  0
LINE
  5
31C
100
AcDbEntity
  8
0
100
AcDbLine
 62
2
  6
CONTINUOUS
 10
12.9759405003
 20
2.515977327
 11
12.9962575116
 21
2.515977327
  0
ARC
  5
31D
100
AcDbEntity
  8
0
100
AcDbCircle
 62
2
  6
CONTINUOUS
 10
12.9962575135
 20
2.5135023274
 40
0.0024749995
100
AcDbArc
 50
359.9999571957
 51
90.0000428043
  0
LINE
  5
31E
100
AcDbEntity
  8
0
100
AcDbLine
 62
2
  6
CONTINUOUS
 10
12.998732513
 20
2.5135023256
 11
12.998732513
 21
2.4937023146
  0
ARC
  5
31F
100
AcDbEntity
  8
0
100
AcDbCircle
 62
2
  6
CONTINUOUS
 10
12.9962575135
 20
2.4937023128
 40
0.0024749995
100
AcDbArc
 50
269.9999571957
 51
0.0000428043
  0
LINE
  5
320
100
AcDbEntity
  8
0
100
AcDbLine
 62
2
  6
CONTINUOUS
 10
12.9962575116
 20
2.4912273132
 11
12.9205934696
 21
2.4912273132
  0
ARC
  5
321
100
AcDbEntity
  8
0
100
AcDbCircle
 62
2
  6
CONTINUOUS
 10
12.9205934678
 20
2.4937023128
 40
0.0024749995
100
AcDbArc
 50
179.9999571957
 51
270.0000428043
  0
LINE
  5
322
100
AcDbEntity
  8
0
100
AcDbLine
 62
2
  6
CONTINUOUS
 10
12.9181184683
 20
2.4937023146
 11
12.9181184683
 21
2.5135023256
  0
ARC
  5
323
100
AcDbEntity
  8
0
100
AcDbCircle
 62
2
  6
CONTINUOUS
 10
12.9205934678
 20
2.5135023274
 40
0.0024749995
100
AcDbArc
 50
89.9999571957
 51
180.0000428042
  0
LINE
  5
324
100
AcDbEntity
  8
0
100
AcDbLine
 62
2
  6
CONTINUOUS
 10
12.9205934696
 20
2.515977327
 11
12.93923948
 21
2.515977327
  0
ARC
  5
325
100
AcDbEntity
  8
0
100
AcDbCircle
 62
2
  6
CONTINUOUS
 10
12.9392394818
 20
2.5184523265
 40
0.0024749995
100
AcDbArc
 50
269.9999571957
 51
0.0000428043
  0
LINE
  5
326
100
AcDbEntity
  8
0
100
AcDbLine
 62
2
  6
CONTINUOUS
 10
12.9417144814
 20
2.5184523283
 11
12.9417144814
 21
2.564807354
  0
ARC
  5
327
100
AcDbEntity
  8
0
100
AcDbCircle
 62
2
  6
CONTINUOUS
 10
12.9392394818
 20
2.5648073559
 40
0.0024749995
100
AcDbArc
 50
359.9999571957
 51
90.0000428043
  0
LINE
  5
328
100
AcDbEntity
  8
0
100
AcDbLine
 62
2
  6
CONTINUOUS
 10
12.93923948
 20
2.5672823554
 11
12.9205934696
 21
2.5672823554
  0
ARC
  5
329
100
AcDbEntity
  8
0
100
AcDbCircle
 62
2
  6
CONTINUOUS
 10
12.9205934678
 20
2.5697573549
 40
0.0024749995
100
AcDbArc
 50
179.9999571957
 51
270.0000428043
  0
LINE
  5
32A
100
AcDbEntity
  8
0
100
AcDbLine
 62
2
  6
CONTINUOUS
 10
12.9181184683
 20
2.5697573568
 11
12.9181184683
 21
2.5895573678
  0
ARC
  5
32B
100
AcDbEntity
  8
0
100
AcDbCircle
 62
2
  6
CONTINUOUS
 10
12.9205934678
 20
2.5895573696
 40
0.0024749995
100
AcDbArc
 50
89.9999571957
 51
180.0000428042
  0
LINE
  5
32C
100
AcDbEntity
  8
0
100
AcDbLine
 62
2
  6
CONTINUOUS
 10
13.2934226764
 20
2.5324773361
 11
13.2582556569
 21
2.5324773361
  0
ARC
  5
32D
100
AcDbEntity
  8
0
100
AcDbCircle
 62
2
  6
CONTINUOUS
 10
13.2582556551
 20
2.5300023366
 40
0.0024749995
100
AcDbArc
 50
89.9999571957
 51
180.0000428043
  0
LINE
  5
32E
100
AcDbEntity
  8
0
100
AcDbLine
 62
2
  6
CONTINUOUS
 10
13.2557806555
 20
2.5300023347
 11
13.2557806555
 21
2.5184523283
  0
ARC
  5
32F
100
AcDbEntity
  8
0
100
AcDbCircle
 62
2
  6
CONTINUOUS
 10
13.2582556551
 20
2.5184523265
 40
0.0024749995
100
AcDbArc
 50
179.9999571957
 51
270.0000428043
  0
LINE
  5
330
100
AcDbEntity
  8
0
100
AcDbLine
 62
2
  6
CONTINUOUS
 10
13.2582556569
 20
2.515977327
 11
13.3232596929
 21
2.515977327
  0
ARC
  5
331
100
AcDbEntity
  8
0
100
AcDbCircle
 62
2
  6
CONTINUOUS
 10
13.3232596948
 20
2.5184523265
 40
0.0024749995
100
AcDbArc
 50
269.9999571957
 51
0.0000428043
  0
LINE
  5
332
100
AcDbEntity
  8
0
100
AcDbLine
 62
2
  6
CONTINUOUS
 10
13.3257346943
 20
2.5184523283
 11
13.3257346943
 21
2.5267023329
  0
ARC
  5
333
100
AcDbEntity
  8
0
100
AcDbCircle
 62
2
  6
CONTINUOUS
 10
13.3282096938
 20
2.5267023348
 40
0.0024749995
100
AcDbArc
 50
89.9999571957
 51
180.0000428043
  0
LINE
  5
334
100
AcDbEntity
  8
0
100
AcDbLine
 62
2
  6
CONTINUOUS
 10
13.3282096957
 20
2.5291773343
 11
13.3705287192
 21
2.5291773343
  0
ARC
  5
335
100
AcDbEntity
  8
0
100
AcDbCircle
 62
2
  6
CONTINUOUS
 10
13.370528721
 20
2.5267023348
 40
0.0024749995
100
AcDbArc
 50
359.9999571957
 51
90.0000428043
  0
LINE
  5
336
100
AcDbEntity
  8
0
100
AcDbLine
 62
2
  6
CONTINUOUS
 10
13.3730037205
 20
2.5267023329
 11
13.3730037205
 21
2.4937023146
  0
ARC
  5
337
100
AcDbEntity
  8
0
100
AcDbCircle
 62
2
  6
CONTINUOUS
 10
13.370528721
 20
2.4937023128
 40
0.0024749995
100
AcDbArc
 50
269.9999571957
 51
0.0000428043
  0
LINE
  5
338
100
AcDbEntity
  8
0
100
AcDbLine
 62
2
  6
CONTINUOUS
 10
13.3705287192
 20
2.4912273132
 11
13.1673166065
 21
2.4912273132
  0
ARC
  5
339
100
AcDbEntity
  8
0
100
AcDbCircle
 62
2
  6
CONTINUOUS
 10
13.1673166046
 20
2.4937023128
 40
0.0024749995
100
AcDbArc
 50
179.9999571957
 51
270.0000428043
  0
LINE
  5
33A
100
AcDbEntity
  8
0
100
AcDbLine
 62
2
  6
CONTINUOUS
 10
13.1648416051
 20
2.4937023146
 11
13.1648416051
 21
2.5135023256
  0
ARC
  5
33B
100
AcDbEntity
  8
0
100
AcDbCircle
 62
2
  6
CONTINUOUS
 10
13.1673166046
 20
2.5135023274
 40
0.0024749995
100
AcDbArc
 50
89.9999571957
 51
180.0000428043
  0
LINE
  5
33C
100
AcDbEntity
  8
0
100
AcDbLine
 62
2
  6
CONTINUOUS
 10
13.1673166065
 20
2.515977327
 11
13.1912396197
 21
2.515977327
  0
ARC
  5
33D
100
AcDbEntity
  8
0
100
AcDbCircle
 62
2
  6
CONTINUOUS
 10
13.1912396216
 20
2.5184523265
 40
0.0024749995
100
AcDbArc
 50
269.9999571957
 51
0.0000428042
  0
LINE
  5
33E
100
AcDbEntity
  8
0
100
AcDbLine
 62
2
  6
CONTINUOUS
 10
13.1937146211
 20
2.5184523283
 11
13.1937146211
 21
2.564807354
  0
ARC
  5
33F
100
AcDbEntity
  8
0
100
AcDbCircle
 62
2
  6
CONTINUOUS
 10
13.1912396216
 20
2.5648073559
 40
0.0024749995
100
AcDbArc
 50
359.9999571957
 51
90.0000428043
  0
LINE
  5
340
100
AcDbEntity
  8
0
100
AcDbLine
 62
2
  6
CONTINUOUS
 10
13.1912396197
 20
2.5672823554
 11
13.1673166065
 21
2.5672823554
  0
ARC
  5
341
100
AcDbEntity
  8
0
100
AcDbCircle
 62
2
  6
CONTINUOUS
 10
13.1673166046
 20
2.5697573549
 40
0.0024749995
100
AcDbArc
 50
179.9999571957
 51
270.0000428043
  0
LINE
  5
342
100
AcDbEntity
  8
0
100
AcDbLine
 62
2
  6
CONTINUOUS
 10
13.1648416051
 20
2.5697573568
 11
13.1648416051
 21
2.5895573678
  0
ARC
  5
343
100
AcDbEntity
  8
0
100
AcDbCircle
 62
2
  6
CONTINUOUS
 10
13.1673166046
 20
2.5895573696
 40
0.0024749995
100
AcDbArc
 50
89.9999571957
 51
180.0000428043
  0
LINE
  5
344
100
AcDbEntity
  8
0
100
AcDbLine
 62
2
  6
CONTINUOUS
 10
13.1673166065
 20
2.5920323691
 11
13.3691097184
 21
2.5920323691
  0
ARC
  5
345
100
AcDbEntity
  8
0
100
AcDbCircle
 62
2
  6
CONTINUOUS
 10
13.3691097202
 20
2.5895573696
 40
0.0024749995
100
AcDbArc
 50
359.9999571957
 51
90.0000428043
  0
LINE
  5
346
100
AcDbEntity
  8
0
100
AcDbLine
 62
2
  6
CONTINUOUS
 10
13.3715847197
 20
2.5895573678
 11
13.3715847197
 21
2.5565573495
  0
ARC
  5
347
100
AcDbEntity
  8
0
100
AcDbCircle
 62
2
  6
CONTINUOUS
 10
13.3691097202
 20
2.5565573476
 40
0.0024749995
100
AcDbArc
 50
269.9999571957
 51
0.0000428042
  0
LINE
  5
348
100
AcDbEntity
  8
0
100
AcDbLine
 62
2
  6
CONTINUOUS
 10
13.3691097184
 20
2.5540823481
 11
13.3272456952
 21
2.5540823481
  0
ARC
  5
349
100
AcDbEntity
  8
0
100
AcDbCircle
 62
2
  6
CONTINUOUS
 10
13.3272456933
 20
2.5565573476
 40
0.0024749995
100
AcDbArc
 50
179.9999571957
 51
270.0000428043
  0
LINE
  5
34A
100
AcDbEntity
  8
0
100
AcDbLine
 62
2
  6
CONTINUOUS
 10
13.3247706938
 20
2.5565573495
 11
13.3247706938
 21
2.564807354
  0
ARC
  5
34B
100
AcDbEntity
  8
0
100
AcDbCircle
 62
2
  6
CONTINUOUS
 10
13.3222956943
 20
2.5648073559
 40
0.0024749995
100
AcDbArc
 50
359.9999571957
 51
90.0000428043
  0
LINE
  5
34C
100
AcDbEntity
  8
0
100
AcDbLine
 62
2
  6
CONTINUOUS
 10
13.3222956924
 20
2.5672823554
 11
13.2582556569
 21
2.5672823554
  0
ARC
  5
34D
100
AcDbEntity
  8
0
100
AcDbCircle
 62
2
  6
CONTINUOUS
 10
13.2582556551
 20
2.5648073559
 40
0.0024749995
100
AcDbArc
 50
89.9999571957
 51
180.0000428043
  0
LINE
  5
34E
100
AcDbEntity
  8
0
100
AcDbLine
 62
2
  6
CONTINUOUS
 10
13.2557806555
 20
2.564807354
 11
13.2557806555
 21
2.5532573476
  0
ARC
  5
34F
100
AcDbEntity
  8
0
100
AcDbCircle
 62
2
  6
CONTINUOUS
 10
13.2582556551
 20
2.5532573458
 40
0.0024749995
100
AcDbArc
 50
179.9999571957
 51
270.0000428043
  0
LINE
  5
350
100
AcDbEntity
  8
0
100
AcDbLine
 62
2
  6
CONTINUOUS
 10
13.2582556569
 20
2.5507823463
 11
13.2934226764
 21
2.5507823463
  0
ARC
  5
351
100
AcDbEntity
  8
0
100
AcDbCircle
 62
2
  6
CONTINUOUS
 10
13.2934226783
 20
2.5483073467
 40
0.0024749995
100
AcDbArc
 50
359.9999571957
 51
90.0000428043
  0
LINE
  5
352
100
AcDbEntity
  8
0
100
AcDbLine
 62
2
  6
CONTINUOUS
 10
13.2958976778
 20
2.5483073449
 11
13.2958976778
 21
2.5349523375
  0
ARC
  5
353
100
AcDbEntity
  8
0
100
AcDbCircle
 62
2
  6
CONTINUOUS
 10
13.2934226783
 20
2.5349523356
 40
0.0024749995
100
AcDbArc
 50
269.9999571957
 51
0.0000428042
  0
LINE
  5
354
100
AcDbEntity
  8
0
100
AcDbLine
 62
2
  6
CONTINUOUS
 10
13.7286871589
 20
2.5350697372
 11
13.7286871589
 21
2.5456869438
  0
LINE
  5
355
100
AcDbEntity
  8
0
100
AcDbLine
 62
2
  6
CONTINUOUS
 10
13.7086871478
 20
2.5004302075
 11
13.7086871478
 21
2.5803264735
  0
LINE
  5
356
100
AcDbEntity
  8
0
100
AcDbLine
 62
2
  6
CONTINUOUS
 10
13.6886871368
 20
2.4843919416
 11
13.6886871368
 21
2.5963647394
  0
LINE
  5
357
100
AcDbEntity
  8
0
100
AcDbLine
 62
2
  6
CONTINUOUS
 10
13.6686871257
 20
2.4726017898
 11
13.6686871257
 21
2.6081548911
  0
LINE
  5
358
100
AcDbEntity
  8
0
100
AcDbLine
 62
2
  6
CONTINUOUS
 10
13.6486871146
 20
2.4628062688
 11
13.6486871146
 21
2.6179504122
  0
LINE
  5
359
100
AcDbEntity
  8
0
100
AcDbLine
 62
2
  6
CONTINUOUS
 10
13.6286871035
 20
2.4541253507
 11
13.6286871035
 21
2.5062483056
  0
LINE
  5
35A
100
AcDbEntity
  8
0
100
AcDbLine
 62
2
  6
CONTINUOUS
 10
13.6286871035
 20
2.5301143348
 11
13.6286871035
 21
2.6266313303
  0
LINE
  5
35B
100
AcDbEntity
  8
0
100
AcDbLine
 62
2
  6
CONTINUOUS
 10
13.6086870924
 20
2.4465537903
 11
13.6086870924
 21
2.4918774918
  0
LINE
  5
35C
100
AcDbEntity
  8
0
100
AcDbLine
 62
2
  6
CONTINUOUS
 10
13.6086870924
 20
2.5165781173
 11
13.6086870924
 21
2.6342028907
  0
LINE
  5
35D
100
AcDbEntity
  8
0
100
AcDbLine
 62
2
  6
CONTINUOUS
 10
13.5886870813
 20
2.4398033466
 11
13.5886870813
 21
2.4912273132
  0
LINE
  5
35E
100
AcDbEntity
  8
0
100
AcDbLine
 62
2
  6
CONTINUOUS
 10
13.5886870813
 20
2.5391840845
 11
13.5886870813
 21
2.5454298327
  0
LINE
  5
35F
100
AcDbEntity
  8
0
100
AcDbLine
 62
2
  6
CONTINUOUS
 10
13.5886870813
 20
2.5862063472
 11
13.5886870813
 21
2.6409533343
  0
LINE
  5
360
100
AcDbEntity
  8
0
100
AcDbLine
 62
2
  6
CONTINUOUS
 10
13.5686870702
 20
2.4334702189
 11
13.5686870702
 21
2.4912273132
  0
LINE
  5
361
100
AcDbEntity
  8
0
100
AcDbLine
 62
2
  6
CONTINUOUS
 10
13.5686870702
 20
2.5906587765
 11
13.5686870702
 21
2.647286462
  0
LINE
  5
362
100
AcDbEntity
  8
0
100
AcDbLine
 62
2
  6
CONTINUOUS
 10
13.5486870591
 20
2.4278968124
 11
13.5486870591
 21
2.4937461006
  0
LINE
  5
363
100
AcDbEntity
  8
0
100
AcDbLine
 62
2
  6
CONTINUOUS
 10
13.5486870591
 20
2.5920323691
 11
13.5486870591
 21
2.6528598686
  0
LINE
  5
364
100
AcDbEntity
  8
0
100
AcDbLine
 62
2
  6
CONTINUOUS
 10
13.528687048
 20
2.4225427674
 11
13.528687048
 21
2.5270426993
  0
LINE
  5
365
100
AcDbEntity
  8
0
100
AcDbLine
 62
2
  6
CONTINUOUS
 10
13.528687048
 20
2.5505166259
 11
13.528687048
 21
2.5668657091
  0
LINE
  5
366
100
AcDbEntity
  8
0
100
AcDbLine
 62
2
  6
CONTINUOUS
 10
13.528687048
 20
2.5920323691
 11
13.528687048
 21
2.6582139136
  0
LINE
  5
367
100
AcDbEntity
  8
0
100
AcDbLine
 62
2
  6
CONTINUOUS
 10
13.5086870369
 20
2.4177306791
 11
13.5086870369
 21
2.4912273132
  0
LINE
  5
368
100
AcDbEntity
  8
0
100
AcDbLine
 62
2
  6
CONTINUOUS
 10
13.5086870369
 20
2.5159553269
 11
13.5086870369
 21
2.5306043351
  0
LINE
  5
369
100
AcDbEntity
  8
0
100
AcDbLine
 62
2
  6
CONTINUOUS
 10
13.5086870369
 20
2.5496073456
 11
13.5086870369
 21
2.5672823554
  0
LINE
  5
36A
100
AcDbEntity
  8
0
100
AcDbLine
 62
2
  6
CONTINUOUS
 10
13.5086870369
 20
2.5920323691
 11
13.5086870369
 21
2.6630260019
  0
LINE
  5
36B
100
AcDbEntity
  8
0
100
AcDbLine
 62
2
  6
CONTINUOUS
 10
13.4886870258
 20
2.4131795254
 11
13.4886870258
 21
2.4912273132
  0
LINE
  5
36C
100
AcDbEntity
  8
0
100
AcDbLine
 62
2
  6
CONTINUOUS
 10
13.4886870258
 20
2.5159553269
 11
13.4886870258
 21
2.5306043351
  0
LINE
  5
36D
100
AcDbEntity
  8
0
100
AcDbLine
 62
2
  6
CONTINUOUS
 10
13.4886870258
 20
2.5496073456
 11
13.4886870258
 21
2.5672823554
  0
LINE
  5
36E
100
AcDbEntity
  8
0
100
AcDbLine
 62
2
  6
CONTINUOUS
 10
13.4886870258
 20
2.5920323691
 11
13.4886870258
 21
2.6675771555
  0
LINE
  5
36F
100
AcDbEntity
  8
0
100
AcDbLine
 62
2
  6
CONTINUOUS
 10
13.4686870147
 20
2.4088819672
 11
13.4686870147
 21
2.4912273132
  0
LINE
  5
370
100
AcDbEntity
  8
0
100
AcDbLine
 62
2
  6
CONTINUOUS
 10
13.4686870147
 20
2.5920323691
 11
13.4686870147
 21
2.6718747138
  0
LINE
  5
371
100
AcDbEntity
  8
0
100
AcDbLine
 62
2
  6
CONTINUOUS
 10
13.4486870037
 20
2.4050092072
 11
13.4486870037
 21
2.4912273132
  0
LINE
  5
372
100
AcDbEntity
  8
0
100
AcDbLine
 62
2
  6
CONTINUOUS
 10
13.4486870037
 20
2.5920323691
 11
13.4486870037
 21
2.6757474738
  0
LINE
  5
373
100
AcDbEntity
  8
0
100
AcDbLine
 62
2
  6
CONTINUOUS
 10
13.4286869926
 20
2.4011364471
 11
13.4286869926
 21
2.4912273132
  0
LINE
  5
374
100
AcDbEntity
  8
0
100
AcDbLine
 62
2
  6
CONTINUOUS
 10
13.4286869926
 20
2.5920323691
 11
13.4286869926
 21
2.6796202339
  0
LINE
  5
375
100
AcDbEntity
  8
0
100
AcDbLine
 62
2
  6
CONTINUOUS
 10
13.4086869815
 20
2.3980226662
 11
13.4086869815
 21
2.4912273132
  0
LINE
  5
376
100
AcDbEntity
  8
0
100
AcDbLine
 62
2
  6
CONTINUOUS
 10
13.4086869815
 20
2.515977327
 11
13.4086869815
 21
2.5672823554
  0
LINE
  5
377
100
AcDbEntity
  8
0
100
AcDbLine
 62
2
  6
CONTINUOUS
 10
13.4086869815
 20
2.5920323691
 11
13.4086869815
 21
2.6827340148
  0
LINE
  5
378
100
AcDbEntity
  8
0
100
AcDbLine
 62
2
  6
CONTINUOUS
 10
13.3886869704
 20
2.3950052774
 11
13.3886869704
 21
2.6857514036
  0
LINE
  5
379
100
AcDbEntity
  8
0
100
AcDbLine
 62
2
  6
CONTINUOUS
 10
13.3686869593
 20
2.3919878885
 11
13.3686869593
 21
2.4912273132
  0
LINE
  5
37A
100
AcDbEntity
  8
0
100
AcDbLine
 62
2
  6
CONTINUOUS
 10
13.3686869593
 20
2.5291773343
 11
13.3686869593
 21
2.5540823481
  0
LINE
  5
37B
100
AcDbEntity
  8
0
100
AcDbLine
 62
2
  6
CONTINUOUS
 10
13.3686869593
 20
2.5920323691
 11
13.3686869593
 21
2.6887687924
  0
LINE
  5
37C
100
AcDbEntity
  8
0
100
AcDbLine
 62
2
  6
CONTINUOUS
 10
13.3486869482
 20
2.3889704997
 11
13.3486869482
 21
2.4912273132
  0
LINE
  5
37D
100
AcDbEntity
  8
0
100
AcDbLine
 62
2
  6
CONTINUOUS
 10
13.3486869482
 20
2.5291773343
 11
13.3486869482
 21
2.5540823481
  0
LINE
  5
37E
100
AcDbEntity
  8
0
100
AcDbLine
 62
2
  6
CONTINUOUS
 10
13.3486869482
 20
2.5920323691
 11
13.3486869482
 21
2.6917861813
  0
LINE
  5
37F
100
AcDbEntity
  8
0
100
AcDbLine
 62
2
  6
CONTINUOUS
 10
13.3286869371
 20
2.3859531109
 11
13.3286869371
 21
2.4912273132
  0
LINE
  5
380
100
AcDbEntity
  8
0
100
AcDbLine
 62
2
  6
CONTINUOUS
 10
13.3286869371
 20
2.5291773343
 11
13.3286869371
 21
2.5540823481
  0
LINE
  5
381
100
AcDbEntity
  8
0
100
AcDbLine
 62
2
  6
CONTINUOUS
 10
13.3286869371
 20
2.5920323691
 11
13.3286869371
 21
2.6948035701
  0
LINE
  5
382
100
AcDbEntity
  8
0
100
AcDbLine
 62
2
  6
CONTINUOUS
 10
13.308686926
 20
2.3833355437
 11
13.308686926
 21
2.4912273132
  0
LINE
  5
383
100
AcDbEntity
  8
0
100
AcDbLine
 62
2
  6
CONTINUOUS
 10
13.308686926
 20
2.515977327
 11
13.308686926
 21
2.5672823554
  0
LINE
  5
384
100
AcDbEntity
  8
0
100
AcDbLine
 62
2
  6
CONTINUOUS
 10
13.308686926
 20
2.5920323691
 11
13.308686926
 21
2.6974211373
  0
LINE
  5
385
100
AcDbEntity
  8
0
100
AcDbLine
 62
2
  6
CONTINUOUS
 10
13.2886869149
 20
2.3812612684
 11
13.2886869149
 21
2.4912273132
  0
LINE
  5
386
100
AcDbEntity
  8
0
100
AcDbLine
 62
2
  6
CONTINUOUS
 10
13.2886869149
 20
2.515977327
 11
13.2886869149
 21
2.5324773361
  0
LINE
  5
387
100
AcDbEntity
  8
0
100
AcDbLine
 62
2
  6
CONTINUOUS
 10
13.2886869149
 20
2.5507823463
 11
13.2886869149
 21
2.5672823554
  0
LINE
  5
388
100
AcDbEntity
  8
0
100
AcDbLine
 62
2
  6
CONTINUOUS
 10
13.2886869149
 20
2.5920323691
 11
13.2886869149
 21
2.6994954125
  0
LINE
  5
389
100
AcDbEntity
  8
0
100
AcDbLine
 62
2
  6
CONTINUOUS
 10
13.2686869038
 20
2.3791869932
 11
13.2686869038
 21
2.4912273132
  0
LINE
  5
38A
100
AcDbEntity
  8
0
100
AcDbLine
 62
2
  6
CONTINUOUS
 10
13.2686869038
 20
2.515977327
 11
13.2686869038
 21
2.5324773361
  0
LINE
  5
38B
100
AcDbEntity
  8
0
100
AcDbLine
 62
2
  6
CONTINUOUS
 10
13.2686869038
 20
2.5507823463
 11
13.2686869038
 21
2.5672823554
  0
LINE
  5
38C
100
AcDbEntity
  8
0
100
AcDbLine
 62
2
  6
CONTINUOUS
 10
13.2686869038
 20
2.5920323691
 11
13.2686869038
 21
2.7015696878
  0
LINE
  5
38D
100
AcDbEntity
  8
0
100
AcDbLine
 62
2
  6
CONTINUOUS
 10
13.2486868927
 20
2.377112718
 11
13.2486868927
 21
2.4912273132
  0
LINE
  5
38E
100
AcDbEntity
  8
0
100
AcDbLine
 62
2
  6
CONTINUOUS
 10
13.2486868927
 20
2.5920323691
 11
13.2486868927
 21
2.703643963
  0
LINE
  5
38F
100
AcDbEntity
  8
0
100
AcDbLine
 62
2
  6
CONTINUOUS
 10
13.2286868817
 20
2.3750384428
 11
13.2286868817
 21
2.4912273132
  0
LINE
  5
390
100
AcDbEntity
  8
0
100
AcDbLine
 62
2
  6
CONTINUOUS
 10
13.2286868817
 20
2.5920323691
 11
13.2286868817
 21
2.7057182382
  0
LINE
  5
391
100
AcDbEntity
  8
0
100
AcDbLine
 62
2
  6
CONTINUOUS
 10
13.2086868706
 20
2.3729641676
 11
13.2086868706
 21
2.4912273132
  0
LINE
  5
392
100
AcDbEntity
  8
0
100
AcDbLine
 62
2
  6
CONTINUOUS
 10
13.2086868706
 20
2.5920323691
 11
13.2086868706
 21
2.7077925134
  0
LINE
  5
393
100
AcDbEntity
  8
0
100
AcDbLine
 62
2
  6
CONTINUOUS
 10
13.1886868595
 20
2.3712344456
 11
13.1886868595
 21
2.4912273132
  0
LINE
  5
394
100
AcDbEntity
  8
0
100
AcDbLine
 62
2
  6
CONTINUOUS
 10
13.1886868595
 20
2.515977327
 11
13.1886868595
 21
2.5672823554
  0
LINE
  5
395
100
AcDbEntity
  8
0
100
AcDbLine
 62
2
  6
CONTINUOUS
 10
13.1886868595
 20
2.5920323691
 11
13.1886868595
 21
2.7095222354
  0
LINE
  5
396
100
AcDbEntity
  8
0
100
AcDbLine
 62
2
  6
CONTINUOUS
 10
13.1686868484
 20
2.3699682418
 11
13.1686868484
 21
2.4912273132
  0
LINE
  5
397
100
AcDbEntity
  8
0
100
AcDbLine
 62
2
  6
CONTINUOUS
 10
13.1686868484
 20
2.515977327
 11
13.1686868484
 21
2.5672823554
  0
LINE
  5
398
100
AcDbEntity
  8
0
100
AcDbLine
 62
2
  6
CONTINUOUS
 10
13.1686868484
 20
2.5920323691
 11
13.1686868484
 21
2.7107884392
  0
LINE
  5
399
100
AcDbEntity
  8
0
100
AcDbLine
 62
2
  6
CONTINUOUS
 10
13.1486868373
 20
2.3687020381
 11
13.1486868373
 21
2.7120546429
  0
LINE
  5
39A
100
AcDbEntity
  8
0
100
AcDbLine
 62
2
  6
CONTINUOUS
 10
13.1286868262
 20
2.3674358343
 11
13.1286868262
 21
2.5672823554
  0
LINE
  5
39B
100
AcDbEntity
  8
0
100
AcDbLine
 62
2
  6
CONTINUOUS
 10
13.1286868262
 20
2.5920323691
 11
13.1286868262
 21
2.7133208466
  0
LINE
  5
39C
100
AcDbEntity
  8
0
100
AcDbLine
 62
2
  6
CONTINUOUS
 10
13.1086868151
 20
2.3661696306
 11
13.1086868151
 21
2.4912273132
  0
LINE
  5
39D
100
AcDbEntity
  8
0
100
AcDbLine
 62
2
  6
CONTINUOUS
 10
13.1086868151
 20
2.5920323691
 11
13.1086868151
 21
2.7145870504
  0
LINE
  5
39E
100
AcDbEntity
  8
0
100
AcDbLine
 62
2
  6
CONTINUOUS
 10
13.088686804
 20
2.3649034269
 11
13.088686804
 21
2.4912273132
  0
LINE
  5
39F
100
AcDbEntity
  8
0
100
AcDbLine
 62
2
  6
CONTINUOUS
 10
13.088686804
 20
2.5920323691
 11
13.088686804
 21
2.7158532541
  0
LINE
  5
3A0
100
AcDbEntity
  8
0
100
AcDbLine
 62
2
  6
CONTINUOUS
 10
13.0686867929
 20
2.3636739922
 11
13.0686867929
 21
2.4912273132
  0
LINE
  5
3A1
100
AcDbEntity
  8
0
100
AcDbLine
 62
2
  6
CONTINUOUS
 10
13.0686867929
 20
2.5475272398
 11
13.0686867929
 21
2.5672823554
  0
LINE
  5
3A2
100
AcDbEntity
  8
0
100
AcDbLine
 62
2
  6
CONTINUOUS
 10
13.0686867929
 20
2.5920323691
 11
13.0686867929
 21
2.7170826887
  0
LINE
  5
3A3
100
AcDbEntity
  8
0
100
AcDbLine
 62
2
  6
CONTINUOUS
 10
13.0486867818
 20
2.363143203
 11
13.0486867818
 21
2.4912273132
  0
LINE
  5
3A4
100
AcDbEntity
  8
0
100
AcDbLine
 62
2
  6
CONTINUOUS
 10
13.0486867818
 20
2.5666100882
 11
13.0486867818
 21
2.717613478
  0
LINE
  5
3A5
100
AcDbEntity
  8
0
100
AcDbLine
 62
2
  6
CONTINUOUS
 10
13.0286867707
 20
2.3626124138
 11
13.0286867707
 21
2.50359263
  0
LINE
  5
3A6
100
AcDbEntity
  8
0
100
AcDbLine
 62
2
  6
CONTINUOUS
 10
13.0286867707
 20
2.5856929366
 11
13.0286867707
 21
2.7181442672
  0
LINE
  5
3A7
100
AcDbEntity
  8
0
100
AcDbLine
 62
2
  6
CONTINUOUS
 10
13.0086867596
 20
2.3620816246
 11
13.0086867596
 21
2.5226754472
  0
LINE
  5
3A8
100
AcDbEntity
  8
0
100
AcDbLine
 62
2
  6
CONTINUOUS
 10
13.0086867596
 20
2.5920323691
 11
13.0086867596
 21
2.7186750564
  0
LINE
  5
3A9
100
AcDbEntity
  8
0
100
AcDbLine
 62
2
  6
CONTINUOUS
 10
12.9886867486
 20
2.3615508354
 11
12.9886867486
 21
2.4912273132
  0
LINE
  5
3AA
100
AcDbEntity
  8
0
100
AcDbLine
 62
2
  6
CONTINUOUS
 10
12.9886867486
 20
2.515977327
 11
12.9886867486
 21
2.5417582644
  0
LINE
  5
3AB
100
AcDbEntity
  8
0
100
AcDbLine
 62
2
  6
CONTINUOUS
 10
12.9886867486
 20
2.5920323691
 11
12.9886867486
 21
2.7192058456
  0
LINE
  5
3AC
100
AcDbEntity
  8
0
100
AcDbLine
 62
2
  6
CONTINUOUS
 10
12.9686867375
 20
2.3610200462
 11
12.9686867375
 21
2.4912273132
  0
LINE
  5
3AD
100
AcDbEntity
  8
0
100
AcDbLine
 62
2
  6
CONTINUOUS
 10
12.9686867375
 20
2.5920323691
 11
12.9686867375
 21
2.7197366348
  0
LINE
  5
3AE
100
AcDbEntity
  8
0
100
AcDbLine
 62
2
  6
CONTINUOUS
 10
12.9486867264
 20
2.360489257
 11
12.9486867264
 21
2.4912273132
  0
LINE
  5
3AF
100
AcDbEntity
  8
0
100
AcDbLine
 62
2
  6
CONTINUOUS
 10
12.9486867264
 20
2.5920323691
 11
12.9486867264
 21
2.720267424
  0
LINE
  5
3B0
100
AcDbEntity
  8
0
100
AcDbLine
 62
2
  6
CONTINUOUS
 10
12.9286867153
 20
2.3602836008
 11
12.9286867153
 21
2.4912273132
  0
LINE
  5
3B1
100
AcDbEntity
  8
0
100
AcDbLine
 62
2
  6
CONTINUOUS
 10
12.9286867153
 20
2.515977327
 11
12.9286867153
 21
2.5672823554
  0
LINE
  5
3B2
100
AcDbEntity
  8
0
100
AcDbLine
 62
2
  6
CONTINUOUS
 10
12.9286867153
 20
2.5920323691
 11
12.9286867153
 21
2.7204730802
  0
LINE
  5
3B3
100
AcDbEntity
  8
0
100
AcDbLine
 62
2
  6
CONTINUOUS
 10
12.9086867042
 20
2.3604597639
 11
12.9086867042
 21
2.7202969171
  0
LINE
  5
3B4
100
AcDbEntity
  8
0
100
AcDbLine
 62
2
  6
CONTINUOUS
 10
12.8886866931
 20
2.360635927
 11
12.8886866931
 21
2.5672823554
  0
LINE
  5
3B5
100
AcDbEntity
  8
0
100
AcDbLine
 62
2
  6
CONTINUOUS
 10
12.8886866931
 20
2.5920323691
 11
12.8886866931
 21
2.720120754
  0
LINE
  5
3B6
100
AcDbEntity
  8
0
100
AcDbLine
 62
2
  6
CONTINUOUS
 10
12.868686682
 20
2.3608120901
 11
12.868686682
 21
2.491232357
  0
LINE
  5
3B7
100
AcDbEntity
  8
0
100
AcDbLine
 62
2
  6
CONTINUOUS
 10
12.868686682
 20
2.5920323691
 11
12.868686682
 21
2.7199445909
  0
LINE
  5
3B8
100
AcDbEntity
  8
0
100
AcDbLine
 62
2
  6
CONTINUOUS
 10
12.8486866709
 20
2.3609882532
 11
12.8486866709
 21
2.4912273132
  0
LINE
  5
3B9
100
AcDbEntity
  8
0
100
AcDbLine
 62
2
  6
CONTINUOUS
 10
12.8486866709
 20
2.5920323691
 11
12.8486866709
 21
2.7197684278
  0
LINE
  5
3BA
100
AcDbEntity
  8
0
100
AcDbLine
 62
2
  6
CONTINUOUS
 10
12.8286866598
 20
2.3611644163
 11
12.8286866598
 21
2.4912273132
  0
LINE
  5
3BB
100
AcDbEntity
  8
0
100
AcDbLine
 62
2
  6
CONTINUOUS
 10
12.8286866598
 20
2.5396527025
 11
12.8286866598
 21
2.5672823554
  0
LINE
  5
3BC
100
AcDbEntity
  8
0
100
AcDbLine
 62
2
  6
CONTINUOUS
 10
12.8286866598
 20
2.5920323691
 11
12.8286866598
 21
2.7195922647
  0
LINE
  5
3BD
100
AcDbEntity
  8
0
100
AcDbLine
 62
2
  6
CONTINUOUS
 10
12.8086866487
 20
2.3613405794
 11
12.8086866487
 21
2.4912273132
  0
LINE
  5
3BE
100
AcDbEntity
  8
0
100
AcDbLine
 62
2
  6
CONTINUOUS
 10
12.8086866487
 20
2.5587355508
 11
12.8086866487
 21
2.7194161016
  0
LINE
  5
3BF
100
AcDbEntity
  8
0
100
AcDbLine
 62
2
  6
CONTINUOUS
 10
12.7886866376
 20
2.3621089572
 11
12.7886866376
 21
2.4957181055
  0
LINE
  5
3C0
100
AcDbEntity
  8
0
100
AcDbLine
 62
2
  6
CONTINUOUS
 10
12.7886866376
 20
2.5778183992
 11
12.7886866376
 21
2.7186477238
  0
LINE
  5
3C1
100
AcDbEntity
  8
0
100
AcDbLine
 62
2
  6
CONTINUOUS
 10
12.7686866266
 20
2.3630013935
 11
12.7686866266
 21
2.5148009227
  0
LINE
  5
3C2
100
AcDbEntity
  8
0
100
AcDbLine
 62
2
  6
CONTINUOUS
 10
12.7686866266
 20
2.5920323691
 11
12.7686866266
 21
2.7177552874
  0
LINE
  5
3C3
100
AcDbEntity
  8
0
100
AcDbLine
 62
2
  6
CONTINUOUS
 10
12.7486866155
 20
2.3638938299
 11
12.7486866155
 21
2.4913263218
  0
LINE
  5
3C4
100
AcDbEntity
  8
0
100
AcDbLine
 62
2
  6
CONTINUOUS
 10
12.7486866155
 20
2.5158783184
 11
12.7486866155
 21
2.5338837399
  0
LINE
  5
3C5
100
AcDbEntity
  8
0
100
AcDbLine
 62
2
  6
CONTINUOUS
 10
12.7486866155
 20
2.5920323691
 11
12.7486866155
 21
2.7168628511
  0
LINE
  5
3C6
100
AcDbEntity
  8
0
100
AcDbLine
 62
2
  6
CONTINUOUS
 10
12.7286866044
 20
2.3647862663
 11
12.7286866044
 21
2.4912273132
  0
LINE
  5
3C7
100
AcDbEntity
  8
0
100
AcDbLine
 62
2
  6
CONTINUOUS
 10
12.7286866044
 20
2.515977327
 11
12.7286866044
 21
2.5527601554
  0
LINE
  5
3C8
100
AcDbEntity
  8
0
100
AcDbLine
 62
2
  6
CONTINUOUS
 10
12.7286866044
 20
2.5920323691
 11
12.7286866044
 21
2.7159704147
  0
LINE
  5
3C9
100
AcDbEntity
  8
0
100
AcDbLine
 62
2
  6
CONTINUOUS
 10
12.7086865933
 20
2.3656787026
 11
12.7086865933
 21
2.4912273132
  0
LINE
  5
3CA
100
AcDbEntity
  8
0
100
AcDbLine
 62
2
  6
CONTINUOUS
 10
12.7086865933
 20
2.5920323691
 11
12.7086865933
 21
2.7150779784
  0
LINE
  5
3CB
100
AcDbEntity
  8
0
100
AcDbLine
 62
2
  6
CONTINUOUS
 10
12.6886865822
 20
2.366571139
 11
12.6886865822
 21
2.4912273132
  0
LINE
  5
3CC
100
AcDbEntity
  8
0
100
AcDbLine
 62
2
  6
CONTINUOUS
 10
12.6886865822
 20
2.515977327
 11
12.6886865822
 21
2.5672823554
  0
LINE
  5
3CD
100
AcDbEntity
  8
0
100
AcDbLine
 62
2
  6
CONTINUOUS
 10
12.6886865822
 20
2.5920323691
 11
12.6886865822
 21
2.714185542
  0
LINE
  5
3CE
100
AcDbEntity
  8
0
100
AcDbLine
 62
2
  6
CONTINUOUS
 10
12.6686865711
 20
2.3677104027
 11
12.6686865711
 21
2.7130462783
  0
LINE
  5
3CF
100
AcDbEntity
  8
0
100
AcDbLine
 62
2
  6
CONTINUOUS
 10
12.64868656
 20
2.3693682721
 11
12.64868656
 21
2.7113884089
  0
LINE
  5
3D0
100
AcDbEntity
  8
0
100
AcDbLine
 62
2
  6
CONTINUOUS
 10
12.6286865489
 20
2.3710261415
 11
12.6286865489
 21
2.4912273132
  0
LINE
  5
3D1
100
AcDbEntity
  8
0
100
AcDbLine
 62
2
  6
CONTINUOUS
 10
12.6286865489
 20
2.515977327
 11
12.6286865489
 21
2.7097305395
  0
LINE
  5
3D2
100
AcDbEntity
  8
0
100
AcDbLine
 62
2
  6
CONTINUOUS
 10
12.6086865378
 20
2.372684011
 11
12.6086865378
 21
2.4912273132
  0
LINE
  5
3D3
100
AcDbEntity
  8
0
100
AcDbLine
 62
2
  6
CONTINUOUS
 10
12.6086865378
 20
2.5351122279
 11
12.6086865378
 21
2.70807267
  0
LINE
  5
3D4
100
AcDbEntity
  8
0
100
AcDbLine
 62
2
  6
CONTINUOUS
 10
12.5886865267
 20
2.3743418804
 11
12.5886865267
 21
2.4912273132
  0
LINE
  5
3D5
100
AcDbEntity
  8
0
100
AcDbLine
 62
2
  6
CONTINUOUS
 10
12.5886865267
 20
2.5660172622
 11
12.5886865267
 21
2.7064148006
  0
LINE
  5
3D6
100
AcDbEntity
  8
0
100
AcDbLine
 62
2
  6
CONTINUOUS
 10
12.5686865156
 20
2.3759997498
 11
12.5686865156
 21
2.4912273132
  0
LINE
  5
3D7
100
AcDbEntity
  8
0
100
AcDbLine
 62
2
  6
CONTINUOUS
 10
12.5686865156
 20
2.5920323691
 11
12.5686865156
 21
2.7047569312
  0
LINE
  5
3D8
100
AcDbEntity
  8
0
100
AcDbLine
 62
2
  6
CONTINUOUS
 10
12.5486865045
 20
2.3777575277
 11
12.5486865045
 21
2.4912273132
  0
LINE
  5
3D9
100
AcDbEntity
  8
0
100
AcDbLine
 62
2
  6
CONTINUOUS
 10
12.5486865045
 20
2.515977327
 11
12.5486865045
 21
2.5275118824
  0
LINE
  5
3DA
100
AcDbEntity
  8
0
100
AcDbLine
 62
2
  6
CONTINUOUS
 10
12.5486865045
 20
2.5920323691
 11
12.5486865045
 21
2.7029991533
  0
LINE
  5
3DB
100
AcDbEntity
  8
0
100
AcDbLine
 62
2
  6
CONTINUOUS
 10
12.5286864935
 20
2.3802813811
 11
12.5286864935
 21
2.5296213345
  0
LINE
  5
3DC
100
AcDbEntity
  8
0
100
AcDbLine
 62
2
  6
CONTINUOUS
 10
12.5286864935
 20
2.5505713461
 11
12.5286864935
 21
2.5667383551
  0
LINE
  5
3DD
100
AcDbEntity
  8
0
100
AcDbLine
 62
2
  6
CONTINUOUS
 10
12.5286864935
 20
2.5920323691
 11
12.5286864935
 21
2.7004752999
  0
LINE
  5
3DE
100
AcDbEntity
  8
0
100
AcDbLine
 62
2
  6
CONTINUOUS
 10
12.5086864824
 20
2.3828052346
 11
12.5086864824
 21
2.4912273132
  0
LINE
  5
3DF
100
AcDbEntity
  8
0
100
AcDbLine
 62
2
  6
CONTINUOUS
 10
12.5086864824
 20
2.515977327
 11
12.5086864824
 21
2.5279667721
  0
LINE
  5
3E0
100
AcDbEntity
  8
0
100
AcDbLine
 62
2
  6
CONTINUOUS
 10
12.5086864824
 20
2.5868602074
 11
12.5086864824
 21
2.6979514464
  0
LINE
  5
3E1
100
AcDbEntity
  8
0
100
AcDbLine
 62
2
  6
CONTINUOUS
 10
12.4886864713
 20
2.385329088
 11
12.4886864713
 21
2.4912273132
  0
LINE
  5
3E2
100
AcDbEntity
  8
0
100
AcDbLine
 62
2
  6
CONTINUOUS
 10
12.4886864713
 20
2.5553401045
 11
12.4886864713
 21
2.695427593
  0
LINE
  5
3E3
100
AcDbEntity
  8
0
100
AcDbLine
 62
2
  6
CONTINUOUS
 10
12.4686864602
 20
2.3878529415
 11
12.4686864602
 21
2.4912273132
  0
LINE
  5
3E4
100
AcDbEntity
  8
0
100
AcDbLine
 62
2
  6
CONTINUOUS
 10
12.4686864602
 20
2.5238200015
 11
12.4686864602
 21
2.6929037395
  0
LINE
  5
3E5
100
AcDbEntity
  8
0
100
AcDbLine
 62
2
  6
CONTINUOUS
 10
12.4486864491
 20
2.390376795
 11
12.4486864491
 21
2.4912273132
  0
LINE
  5
3E6
100
AcDbEntity
  8
0
100
AcDbLine
 62
2
  6
CONTINUOUS
 10
12.4486864491
 20
2.515977327
 11
12.4486864491
 21
2.690379886
  0
LINE
  5
3E7
100
AcDbEntity
  8
0
100
AcDbLine
 62
2
  6
CONTINUOUS
 10
12.428686438
 20
2.3931794042
 11
12.428686438
 21
2.6875772768
  0
LINE
  5
3E8
100
AcDbEntity
  8
0
100
AcDbLine
 62
2
  6
CONTINUOUS
 10
12.4086864269
 20
2.3964643301
 11
12.4086864269
 21
2.5013773986
  0
LINE
  5
3E9
100
AcDbEntity
  8
0
100
AcDbLine
 62
2
  6
CONTINUOUS
 10
12.4086864269
 20
2.5325739971
 11
12.4086864269
 21
2.5537224311
  0
LINE
  5
3EA
100
AcDbEntity
  8
0
100
AcDbLine
 62
2
  6
CONTINUOUS
 10
12.4086864269
 20
2.5791473398
 11
12.4086864269
 21
2.6842923509
  0
LINE
  5
3EB
100
AcDbEntity
  8
0
100
AcDbLine
 62
2
  6
CONTINUOUS
 10
12.3886864158
 20
2.399749256
 11
12.3886864158
 21
2.4921022658
  0
LINE
  5
3EC
100
AcDbEntity
  8
0
100
AcDbLine
 62
2
  6
CONTINUOUS
 10
12.3886864158
 20
2.5895929958
 11
12.3886864158
 21
2.681007425
  0
LINE
  5
3ED
100
AcDbEntity
  8
0
100
AcDbLine
 62
2
  6
CONTINUOUS
 10
12.3686864047
 20
2.403451877
 11
12.3686864047
 21
2.4912273132
  0
LINE
  5
3EE
100
AcDbEntity
  8
0
100
AcDbLine
 62
2
  6
CONTINUOUS
 10
12.3686864047
 20
2.5920323691
 11
12.3686864047
 21
2.677304804
  0
LINE
  5
3EF
100
AcDbEntity
  8
0
100
AcDbLine
 62
2
  6
CONTINUOUS
 10
12.3486863936
 20
2.407324637
 11
12.3486863936
 21
2.4912273132
  0
LINE
  5
3F0
100
AcDbEntity
  8
0
100
AcDbLine
 62
2
  6
CONTINUOUS
 10
12.3486863936
 20
2.5920323691
 11
12.3486863936
 21
2.673432044
  0
LINE
  5
3F1
100
AcDbEntity
  8
0
100
AcDbLine
 62
2
  6
CONTINUOUS
 10
12.3286863825
 20
2.4113493968
 11
12.3286863825
 21
2.4912273132
  0
LINE
  5
3F2
100
AcDbEntity
  8
0
100
AcDbLine
 62
2
  6
CONTINUOUS
 10
12.3286863825
 20
2.515977327
 11
12.3286863825
 21
2.5333023366
  0
LINE
  5
3F3
100
AcDbEntity
  8
0
100
AcDbLine
 62
2
  6
CONTINUOUS
 10
12.3286863825
 20
2.5499573458
 11
12.3286863825
 21
2.5672823554
  0
LINE
  5
3F4
100
AcDbEntity
  8
0
100
AcDbLine
 62
2
  6
CONTINUOUS
 10
12.3286863825
 20
2.5920323691
 11
12.3286863825
 21
2.6694072842
  0
LINE
  5
3F5
100
AcDbEntity
  8
0
100
AcDbLine
 62
2
  6
CONTINUOUS
 10
12.3086863715
 20
2.4159005505
 11
12.3086863715
 21
2.4912273132
  0
LINE
  5
3F6
100
AcDbEntity
  8
0
100
AcDbLine
 62
2
  6
CONTINUOUS
 10
12.3086863715
 20
2.515977327
 11
12.3086863715
 21
2.5333023366
  0
LINE
  5
3F7
100
AcDbEntity
  8
0
100
AcDbLine
 62
2
  6
CONTINUOUS
 10
12.3086863715
 20
2.5499573458
 11
12.3086863715
 21
2.5672823554
  0
LINE
  5
3F8
100
AcDbEntity
  8
0
100
AcDbLine
 62
2
  6
CONTINUOUS
 10
12.3086863715
 20
2.5920323691
 11
12.3086863715
 21
2.6648561305
  0
LINE
  5
3F9
100
AcDbEntity
  8
0
100
AcDbLine
 62
2
  6
CONTINUOUS
 10
12.2886863604
 20
2.4204517041
 11
12.2886863604
 21
2.4912273132
  0
LINE
  5
3FA
100
AcDbEntity
  8
0
100
AcDbLine
 62
2
  6
CONTINUOUS
 10
12.2886863604
 20
2.5920323691
 11
12.2886863604
 21
2.6603049769
  0
LINE
  5
3FB
100
AcDbEntity
  8
0
100
AcDbLine
 62
2
  6
CONTINUOUS
 10
12.2686863493
 20
2.4257438218
 11
12.2686863493
 21
2.4912273132
  0
LINE
  5
3FC
100
AcDbEntity
  8
0
100
AcDbLine
 62
2
  6
CONTINUOUS
 10
12.2686863493
 20
2.5920323691
 11
12.2686863493
 21
2.6550128592
  0
LINE
  5
3FD
100
AcDbEntity
  8
0
100
AcDbLine
 62
2
  6
CONTINUOUS
 10
12.2486863382
 20
2.4310978667
 11
12.2486863382
 21
2.4912273132
  0
LINE
  5
3FE
100
AcDbEntity
  8
0
100
AcDbLine
 62
2
  6
CONTINUOUS
 10
12.2486863382
 20
2.5920323691
 11
12.2486863382
 21
2.6496588142
  0
LINE
  5
3FF
100
AcDbEntity
  8
0
100
AcDbLine
 62
2
  6
CONTINUOUS
 10
12.2286863271
 20
2.4372566433
 11
12.2286863271
 21
2.4912273132
  0
LINE
  5
400
100
AcDbEntity
  8
0
100
AcDbLine
 62
2
  6
CONTINUOUS
 10
12.2286863271
 20
2.515977327
 11
12.2286863271
 21
2.5672823554
  0
LINE
  5
401
100
AcDbEntity
  8
0
100
AcDbLine
 62
2
  6
CONTINUOUS
 10
12.2286863271
 20
2.5920323691
 11
12.2286863271
 21
2.6435000377
  0
LINE
  5
402
100
AcDbEntity
  8
0
100
AcDbLine
 62
2
  6
CONTINUOUS
 10
12.208686316
 20
2.443589771
 11
12.208686316
 21
2.4912273132
  0
LINE
  5
403
100
AcDbEntity
  8
0
100
AcDbLine
 62
2
  6
CONTINUOUS
 10
12.208686316
 20
2.515977327
 11
12.208686316
 21
2.5672823554
  0
LINE
  5
404
100
AcDbEntity
  8
0
100
AcDbLine
 62
2
  6
CONTINUOUS
 10
12.208686316
 20
2.5920323691
 11
12.208686316
 21
2.63716691
  0
LINE
  5
405
100
AcDbEntity
  8
0
100
AcDbLine
 62
2
  6
CONTINUOUS
 10
12.1886863049
 20
2.4510806436
 11
12.1886863049
 21
2.6296760373
  0
LINE
  5
406
100
AcDbEntity
  8
0
100
AcDbLine
 62
2
  6
CONTINUOUS
 10
12.1686862938
 20
2.4591016523
 11
12.1686862938
 21
2.6216550287
  0
LINE
  5
407
100
AcDbEntity
  8
0
100
AcDbLine
 62
2
  6
CONTINUOUS
 10
12.1486862827
 20
2.468314272
 11
12.1486862827
 21
2.612442409
  0
LINE
  5
408
100
AcDbEntity
  8
0
100
AcDbLine
 62
2
  6
CONTINUOUS
 10
12.1286862716
 20
2.4794932339
 11
12.1286862716
 21
2.601263447
  0
LINE
  5
409
100
AcDbEntity
  8
0
100
AcDbLine
 62
2
  6
CONTINUOUS
 10
12.1086862605
 20
2.4934150665
 11
12.1086862605
 21
2.5873416144
  0
LINE
  5
40A
100
AcDbEntity
  8
0
100
AcDbLine
 62
2
  6
CONTINUOUS
 10
12.0886862494
 20
2.5144449553
 11
12.0886862494
 21
2.5663117257
  0
ENDBLK
  5
40B
100
AcDbEntity
  8
0
  6
BYBLOCK
 62
0
100
AcDbBlockEnd
  0
BLOCK
  5
40C
100
AcDbEntity
  8
0
100
AcDbBlockBegin
  2
_FILLED
 70
64
 10
0.0
 20
0.0
  3
_FILLED
  1

  0
SOLID
  5
40D
100
AcDbEntity
  8
0
  6
BYBLOCK
 62
0
100
AcDbTrace
 10
0.0
 20
0.0
 11
-1.0
 21
0.1666666667
 12
-1.0
 22
-0.1666666667
 13
-1.0
 23
-0.1666666667
  0
ENDBLK
  5
40E
100
AcDbEntity
  8
0
  6
BYBLOCK
 62
0
100
AcDbBlockEnd
  0
BLOCK
  5
40F
100
AcDbEntity
  8
SCHEME_DIMS
100
AcDbBlockBegin
 62
2
  6
CONTINUOUS
  2
*D0
 70
65
 10
0.0
 20
0.0
  3
*D0
  1

  0
MTEXT
  5
410
100
AcDbEntity
  8
SCHEME_DIMS
100
AcDbMText
 62
2
  6
CONTINUOUS
  7
TEXTSTYLE_5
 71
1
 72
1
 10
5.9293393781
 20
7.3595542768
 30
0.0
 11
1.0
 21
0.0
 31
0.0
 44
0.9
  1
{\Fgdt;n}\Ftxt;50\P[1.97]
 40
0.1
 41
0.6
  0
LINE
  5
411
100
AcDbEntity
  8
SCHEME_DIMS
100
AcDbLine
 62
2
  6
CONTINUOUS
 10
5.2709569669
 20
7.6536255849
 11
5.6793393781
 21
7.3095542768
  0
LINE
  5
412
100
AcDbEntity
  8
SCHEME_DIMS
100
AcDbLine
 62
2
  6
CONTINUOUS
 10
5.6793393781
 20
7.3095542768
 11
5.8293393781
 21
7.3095542768
  0
INSERT
  5
413
100
AcDbEntity
  8
SCHEME_DIMS
100
AcDbBlockReference
 62
2
  6
CONTINUOUS
  2
_FILLED
 10
5.2709569669
 20
7.6536255849
 41
0.1875
 42
0.1875
 43
0.1875
 50
139.8851133167
  0
ENDBLK
  5
414
100
AcDbEntity
  8
0
  6
BYBLOCK
 62
0
100
AcDbBlockEnd
  0
BLOCK
  5
415
100
AcDbEntity
  8
SCHEME_DIMS
100
AcDbBlockBegin
 62
2
  6
CONTINUOUS
  2
*D1
 70
65
 10
0.0
 20
0.0
  3
*D1
  1

  0
MTEXT
  5
416
100
AcDbEntity
  8
SCHEME_DIMS
100
AcDbMText
 62
2
  6
CONTINUOUS
  7
STANDARD
 71
2
 72
1
 10
2.2872932457
 20
5.178825508
 30
0.0
 11
1.0
 21
0.0
 31
0.0
 44
0.9
  1
36,5\P[1.44]
 40
0.1
 41
0.6
  0
LINE
  5
417
100
AcDbEntity
  8
SCHEME_DIMS
100
AcDbLine
 62
2
  6
CONTINUOUS
 10
3.9439352958
 20
4.3441379674
 11
2.2622932457
 21
4.3441379674
  0
LINE
  5
418
100
AcDbEntity
  8
SCHEME_DIMS
100
AcDbLine
 62
2
  6
CONTINUOUS
 10
3.5403919891
 20
5.7811458414
 11
2.2622932457
 21
5.7811458414
  0
LINE
  5
419
100
AcDbEntity
  8
SCHEME_DIMS
100
AcDbLine
 62
2
  6
CONTINUOUS
 10
2.3872932457
 20
4.3441379674
 11
2.3872932457
 21
4.828825508
  0
LINE
  5
41A
100
AcDbEntity
  8
SCHEME_DIMS
100
AcDbLine
 62
2
  6
CONTINUOUS
 10
2.3872932457
 20
5.7811458414
 11
2.3872932457
 21
5.278825508
  0
INSERT
  5
41B
100
AcDbEntity
  8
SCHEME_DIMS
100
AcDbBlockReference
 62
2
  6
CONTINUOUS
  2
_FILLED
 10
2.3872932457
 20
4.3441379674
 41
0.1875
 42
0.1875
 43
0.1875
 50
270.0
  0
INSERT
  5
41C
100
AcDbEntity
  8
SCHEME_DIMS
100
AcDbBlockReference
 62
2
  6
CONTINUOUS
  2
_FILLED
 10
2.3872932457
 20
5.7811458414
 41
0.1875
 42
0.1875
 43
0.1875
 50
90.0
  0
ENDBLK
  5
41D
100
AcDbEntity
  8
0
  6
BYBLOCK
 62
0
100
AcDbBlockEnd
  0
BLOCK
  5
41E
100
AcDbEntity
  8
SCHEME_DIMS
100
AcDbBlockBegin
 62
2
  6
CONTINUOUS
  2
*D2
 70
65
 10
0.0
 20
0.0
  3
*D2
  1

  0
MTEXT
  5
41F
100
AcDbEntity
  8
SCHEME_DIMS
100
AcDbMText
 62
2
  6
CONTINUOUS
  7
TEXTSTYLE_5
 71
3
 72
1
 10
3.2184747579
 20
9.2999092862
 30
0.0
 11
1.0
 21
0.0
 31
0.0
 44
0.9
  1
{\Fgdt;n}\Ftxt;10,3\P[.41]
 40
0.1
 41
0.5333333333
  0
LINE
  5
420
100
AcDbEntity
  8
SCHEME_DIMS
100
AcDbLine
 62
2
  6
CONTINUOUS
 10
4.375804319
 20
8.4320933092
 11
3.5684747579
 21
9.2499092862
  0
LINE
  5
421
100
AcDbEntity
  8
SCHEME_DIMS
100
AcDbLine
 62
2
  6
CONTINUOUS
 10
3.5684747579
 20
9.2499092862
 11
3.4184747579
 21
9.2499092862
  0
INSERT
  5
422
100
AcDbEntity
  8
SCHEME_DIMS
100
AcDbBlockReference
 62
2
  6
CONTINUOUS
  2
_FILLED
 10
4.375804319
 20
8.4320933092
 41
0.1875
 42
0.1875
 43
0.1875
 50
314.6302983186
  0
ENDBLK
  5
423
100
AcDbEntity
  8
0
  6
BYBLOCK
 62
0
100
AcDbBlockEnd
  0
BLOCK
  5
424
100
AcDbEntity
  8
SCHEME_DIMS
100
AcDbBlockBegin
 62
2
  6
CONTINUOUS
  2
*D3
 70
65
 10
0.0
 20
0.0
  3
*D3
  1

  0
MTEXT
  5
425
100
AcDbEntity
  8
SCHEME_DIMS
100
AcDbMText
 62
2
  6
CONTINUOUS
  7
STANDARD
 71
2
 72
1
 10
2.9839943554
 20
5.5813426918
 30
0.0
 11
1.0
 21
0.0
 31
0.0
 44
0.9
  1
16,5\P[.65]
 40
0.1
 41
0.5
  0
LINE
  5
426
100
AcDbEntity
  8
SCHEME_DIMS
100
AcDbLine
 62
2
  6
CONTINUOUS
 10
3.510864439
 20
5.1315395422
 11
2.9089943554
 21
5.1315395422
  0
LINE
  5
427
100
AcDbEntity
  8
SCHEME_DIMS
100
AcDbLine
 62
2
  6
CONTINUOUS
 10
3.5403919891
 20
5.7811458414
 11
2.9089943554
 21
5.7811458414
  0
LINE
  5
428
100
AcDbEntity
  8
SCHEME_DIMS
100
AcDbLine
 62
2
  6
CONTINUOUS
 10
3.0339943554
 20
5.1315395422
 11
3.0339943554
 21
4.7315395422
  0
LINE
  5
429
100
AcDbEntity
  8
SCHEME_DIMS
100
AcDbLine
 62
2
  6
CONTINUOUS
 10
3.0339943554
 20
5.7811458414
 11
3.0339943554
 21
6.1811458414
  0
INSERT
  5
42A
100
AcDbEntity
  8
SCHEME_DIMS
100
AcDbBlockReference
 62
2
  6
CONTINUOUS
  2
_FILLED
 10
3.0339943554
 20
5.1315395422
 41
0.1875
 42
0.1875
 43
0.1875
 50
90.0
  0
INSERT
  5
42B
100
AcDbEntity
  8
SCHEME_DIMS
100
AcDbBlockReference
 62
2
  6
CONTINUOUS
  2
_FILLED
 10
3.0339943554
 20
5.7811458414
 41
0.1875
 42
0.1875
 43
0.1875
 50
270.0
  0
ENDBLK
  5
42C
100
AcDbEntity
  8
0
  6
BYBLOCK
 62
0
100
AcDbBlockEnd
  0
ENDSEC
  0
SECTION
  2
ENTITIES
  0
MTEXT
  5
42D
100
AcDbEntity
  8
0
100
AcDbMText
 62
2
  6
CONTINUOUS
  7
TEXTSTYLE_2
 71
2
 72
1
 10
11.0287658475
 20
1.794867839
 30
0.0
 11
1.0
 21
0.0
 31
0.0
 44
0.9
  1
THIRD ANGLE PROJECTION
 40
0.1
 41
1.76
  0
MTEXT
  5
42E
100
AcDbEntity
  8
0
100
AcDbMText
 62
2
  6
CONTINUOUS
  7
STANDARD
 71
1
 72
1
 10
12.88
 20
1.457
 30
0.0
 11
1.0
 21
0.0
 31
0.0
 44
0.9
  1
DRAWING NO.
 40
0.08
 41
0.88
  0
MTEXT
  5
42F
100
AcDbEntity
  8
0
100
AcDbMText
 62
2
  6
CONTINUOUS
  7
TEXTSTYLE_3
 71
2
 72
1
 10
11.03
 20
2.516432
 30
0.0
 11
1.0
 21
0.0
 31
0.0
 44
0.9
  1
and is proprietary in general
 40
0.08
 41
1.972
  0
MTEXT
  5
430
100
AcDbEntity
  8
0
100
AcDbMText
 62
2
  6
CONTINUOUS
  7
TEXTSTYLE_3
 71
2
 72
1
 10
11.03
 20
2.396432
 30
0.0
 11
1.0
 21
0.0
 31
0.0
 44
0.9
  1
and in detail.  Its contents
 40
0.08
 41
1.904
  0
MTEXT
  5
431
100
AcDbEntity
  8
0
100
AcDbMText
 62
2
  6
CONTINUOUS
  7
TEXTSTYLE_3
 71
2
 72
1
 10
11.03
 20
2.276432
 30
0.0
 11
1.0
 21
0.0
 31
0.0
 44
0.9
  1
shall not be revealed to
 40
0.08
 41
1.632
  0
MTEXT
  5
432
100
AcDbEntity
  8
0
100
AcDbMText
 62
2
  6
CONTINUOUS
  7
TEXTSTYLE_3
 71
2
 72
1
 10
11.03
 20
2.156432
 30
0.0
 11
1.0
 21
0.0
 31
0.0
 44
0.9
  1
outside parties without
 40
0.08
 41
1.564
  0
MTEXT
  5
433
100
AcDbEntity
  8
0
100
AcDbMText
 62
2
  6
CONTINUOUS
  7
TEXTSTYLE_3
 71
2
 72
1
 10
11.03
 20
2.036432
 30
0.0
 11
1.0
 21
0.0
 31
0.0
 44
0.9
  1
written consent of BANNER.
 40
0.08
 41
1.768
  0
MTEXT
  5
434
100
AcDbEntity
  8
0
100
AcDbMText
 62
2
  6
CONTINUOUS
  7
TEXTSTYLE_2
 71
1
 72
1
 10
12.08
 20
2.217
 30
0.0
 11
1.0
 21
0.0
 31
0.0
 44
0.9
  1
TITLE
 40
0.1
 41
0.4
  0
MTEXT
  5
435
100
AcDbEntity
  8
0
100
AcDbMText
 62
2
  6
CONTINUOUS
  7
STANDARD
 71
1
 72
1
 10
12.08
 20
1.457
 30
0.0
 11
1.0
 21
0.0
 31
0.0
 44
0.9
  1
SIZE
 40
0.08
 41
0.32
  0
MTEXT
  5
436
100
AcDbEntity
  8
0
100
AcDbMText
 62
2
  6
CONTINUOUS
  7
STANDARD
 71
1
 72
1
 10
12.08
 20
1.087
 30
0.0
 11
1.0
 21
0.0
 31
0.0
 44
0.9
  1
SCALE
 40
0.08
 41
0.4
  0
MTEXT
  5
437
100
AcDbEntity
  8
0
100
AcDbMText
 62
2
  6
CONTINUOUS
  7
TEXTSTYLE_2
 71
2
 72
1
 10
12.5
 20
1.337
 30
0.0
 11
1.0
 21
0.0
 31
0.0
 44
0.9
  1
B
 40
0.1
 41
0.08
  0
MTEXT
  5
438
100
AcDbEntity
  8
0
100
AcDbMText
 62
2
  6
CONTINUOUS
  7
TEXTSTYLE_3
 71
2
 72
1
 10
11.03
 20
2.636432
 30
0.0
 11
1.0
 21
0.0
 31
0.0
 44
0.9
  1
of BANNER ENGINEERING CORP.
 40
0.08
 41
1.836
  0
MTEXT
  5
439
100
AcDbEntity
  8
0
100
AcDbMText
 62
2
  6
CONTINUOUS
  7
TEXTSTYLE_3
 71
2
 72
1
 10
11.03
 20
2.756432
 30
0.0
 11
1.0
 21
0.0
 31
0.0
 44
0.9
  1
This drawing is the property
 40
0.08
 41
1.904
  0
MTEXT
  5
43A
100
AcDbEntity
  8
0
100
AcDbMText
 62
2
  6
CONTINUOUS
  7
TEXTSTYLE_2
 71
2
 72
1
 10
15.03
 20
2.4134
 30
0.0
 11
1.0
 21
0.0
 31
0.0
 44
0.9
  1
MINNEAPOLIS, MN 55440
 40
0.1
 41
1.68
  0
MTEXT
  5
43B
100
AcDbEntity
  8
0
100
AcDbMText
 62
2
  6
CONTINUOUS
  7
STANDARD
 71
1
 72
1
 10
14.255
 20
1.087
 30
0.0
 11
1.0
 21
0.0
 31
0.0
 44
0.9
  1
SHEET
 40
0.08
 41
0.4
  0
MTEXT
  5
43C
100
AcDbEntity
  8
0
100
AcDbMText
 62
2
  6
CONTINUOUS
  7
STANDARD
 71
1
 72
1
 10
15.63
 20
1.457
 30
0.0
 11
1.0
 21
0.0
 31
0.0
 44
0.9
  1
REV.
 40
0.08
 41
0.32
  0
MTEXT
  5
43D
100
AcDbEntity
  8
0
100
AcDbMText
 62
2
  6
CONTINUOUS
  7
STANDARD
 71
3
 72
1
 10
16.38
 20
0.835443
 30
0.0
 11
1.0
 21
0.0
 31
0.0
 44
0.9
  1
PRO/E
 40
0.07
 41
0.35
  0
MTEXT
  5
43E
100
AcDbEntity
  8
0
100
AcDbMText
 62
2
  6
CONTINUOUS
  7
TEXTSTYLE_4
 71
2
 72
1
 10
15.03
 20
2.751049
 30
0.0
 11
1.0
 21
0.0
 31
0.0
 44
0.9
  1
BANNER ENGINEERING CORP.
 40
0.12
 41
2.6496
  0
MTEXT
  5
43F
100
AcDbEntity
  8
0
100
AcDbMText
 62
2
  6
CONTINUOUS
  7
TEXTSTYLE_2
 71
2
 72
1
 10
15.03
 20
2.5724
 30
0.0
 11
1.0
 21
0.0
 31
0.0
 44
0.9
  1
P.O. BOX 9414
 40
0.1
 41
1.04
  0
MTEXT
  5
440
100
AcDbEntity
  8
0
100
AcDbMText
 62
2
  6
CONTINUOUS
  7
TEXTSTYLE_2
 71
2
 72
1
 10
9.485
 20
10.312
 30
0.0
 11
1.0
 21
0.0
 31
0.0
 44
0.9
  1
4
 40
0.1
 41
0.08
  0
MTEXT
  5
441
100
AcDbEntity
  8
0
100
AcDbMText
 62
2
  6
CONTINUOUS
  7
TEXTSTYLE_2
 71
2
 72
1
 10
11.455
 20
10.312
 30
0.0
 11
1.0
 21
0.0
 31
0.0
 44
0.9
  1
3
 40
0.1
 41
0.08
  0
MTEXT
  5
442
100
AcDbEntity
  8
0
100
AcDbMText
 62
2
  6
CONTINUOUS
  7
TEXTSTYLE_2
 71
2
 72
1
 10
13.425
 20
10.312
 30
0.0
 11
1.0
 21
0.0
 31
0.0
 44
0.9
  1
2
 40
0.1
 41
0.08
  0
MTEXT
  5
443
100
AcDbEntity
  8
0
100
AcDbMText
 62
2
  6
CONTINUOUS
  7
TEXTSTYLE_2
 71
2
 72
1
 10
15.395
 20
10.312
 30
0.0
 11
1.0
 21
0.0
 31
0.0
 44
0.9
  1
1
 40
0.1
 41
0.08
  0
MTEXT
  5
444
100
AcDbEntity
  8
0
100
AcDbMText
 62
2
  6
CONTINUOUS
  7
TEXTSTYLE_2
 71
2
 72
1
 10
3.575
 20
10.312
 30
0.0
 11
1.0
 21
0.0
 31
0.0
 44
0.9
  1
7
 40
0.1
 41
0.08
  0
MTEXT
  5
445
100
AcDbEntity
  8
0
100
AcDbMText
 62
2
  6
CONTINUOUS
  7
TEXTSTYLE_2
 71
2
 72
1
 10
5.545
 20
10.312
 30
0.0
 11
1.0
 21
0.0
 31
0.0
 44
0.9
  1
6
 40
0.1
 41
0.08
  0
MTEXT
  5
446
100
AcDbEntity
  8
0
100
AcDbMText
 62
2
  6
CONTINUOUS
  7
TEXTSTYLE_2
 71
2
 72
1
 10
7.515
 20
10.312
 30
0.0
 11
1.0
 21
0.0
 31
0.0
 44
0.9
  1
5
 40
0.1
 41
0.08
  0
MTEXT
  5
447
100
AcDbEntity
  8
0
100
AcDbMText
 62
2
  6
CONTINUOUS
  7
TEXTSTYLE_2
 71
2
 72
1
 10
1.605
 20
10.312
 30
0.0
 11
1.0
 21
0.0
 31
0.0
 44
0.9
  1
8
 40
0.1
 41
0.08
  0
MTEXT
  5
448
100
AcDbEntity
  8
0
100
AcDbMText
 62
2
  6
CONTINUOUS
  7
TEXTSTYLE_2
 71
2
 72
1
 10
1.605
 20
0.787
 30
0.0
 11
1.0
 21
0.0
 31
0.0
 44
0.9
  1
8
 40
0.1
 41
0.08
  0
MTEXT
  5
449
100
AcDbEntity
  8
0
100
AcDbMText
 62
2
  6
CONTINUOUS
  7
TEXTSTYLE_2
 71
2
 72
1
 10
3.575
 20
0.787
 30
0.0
 11
1.0
 21
0.0
 31
0.0
 44
0.9
  1
7
 40
0.1
 41
0.08
  0
MTEXT
  5
44A
100
AcDbEntity
  8
0
100
AcDbMText
 62
2
  6
CONTINUOUS
  7
TEXTSTYLE_2
 71
2
 72
1
 10
5.545
 20
0.787
 30
0.0
 11
1.0
 21
0.0
 31
0.0
 44
0.9
  1
6
 40
0.1
 41
0.08
  0
MTEXT
  5
44B
100
AcDbEntity
  8
0
100
AcDbMText
 62
2
  6
CONTINUOUS
  7
TEXTSTYLE_2
 71
2
 72
1
 10
7.515
 20
0.787
 30
0.0
 11
1.0
 21
0.0
 31
0.0
 44
0.9
  1
5
 40
0.1
 41
0.08
  0
MTEXT
  5
44C
100
AcDbEntity
  8
0
100
AcDbMText
 62
2
  6
CONTINUOUS
  7
TEXTSTYLE_2
 71
2
 72
1
 10
9.485
 20
0.787
 30
0.0
 11
1.0
 21
0.0
 31
0.0
 44
0.9
  1
4
 40
0.1
 41
0.08
  0
MTEXT
  5
44D
100
AcDbEntity
  8
0
100
AcDbMText
 62
2
  6
CONTINUOUS
  7
TEXTSTYLE_2
 71
2
 72
1
 10
11.455
 20
0.787
 30
0.0
 11
1.0
 21
0.0
 31
0.0
 44
0.9
  1
3
 40
0.1
 41
0.08
  0
MTEXT
  5
44E
100
AcDbEntity
  8
0
100
AcDbMText
 62
2
  6
CONTINUOUS
  7
TEXTSTYLE_2
 71
2
 72
1
 10
13.425
 20
0.787
 30
0.0
 11
1.0
 21
0.0
 31
0.0
 44
0.9
  1
2
 40
0.1
 41
0.08
  0
MTEXT
  5
44F
100
AcDbEntity
  8
0
100
AcDbMText
 62
2
  6
CONTINUOUS
  7
TEXTSTYLE_2
 71
2
 72
1
 10
15.395
 20
0.787
 30
0.0
 11
1.0
 21
0.0
 31
0.0
 44
0.9
  1
1
 40
0.1
 41
0.08
  0
MTEXT
  5
450
100
AcDbEntity
  8
0
100
AcDbMText
 62
2
  6
CONTINUOUS
  7
TEXTSTYLE_2
 71
3
 72
1
 10
0.52
 20
4.3995
 30
0.0
 11
1.0
 21
0.0
 31
0.0
 44
0.9
  1
B
 40
0.1
 41
0.08
  0
MTEXT
  5
451
100
AcDbEntity
  8
0
100
AcDbMText
 62
2
  6
CONTINUOUS
  7
TEXTSTYLE_2
 71
3
 72
1
 10
0.52
 20
2.0995
 30
0.0
 11
1.0
 21
0.0
 31
0.0
 44
0.9
  1
A
 40
0.1
 41
0.08
  0
MTEXT
  5
452
100
AcDbEntity
  8
0
100
AcDbMText
 62
2
  6
CONTINUOUS
  7
TEXTSTYLE_2
 71
3
 72
1
 10
0.52
 20
8.9995
 30
0.0
 11
1.0
 21
0.0
 31
0.0
 44
0.9
  1
D
 40
0.1
 41
0.08
  0
MTEXT
  5
453
100
AcDbEntity
  8
0
100
AcDbMText
 62
2
  6
CONTINUOUS
  7
TEXTSTYLE_2
 71
3
 72
1
 10
0.52
 20
6.6995
 30
0.0
 11
1.0
 21
0.0
 31
0.0
 44
0.9
  1
C
 40
0.1
 41
0.08
  0
MTEXT
  5
454
100
AcDbEntity
  8
0
100
AcDbMText
 62
2
  6
CONTINUOUS
  7
TEXTSTYLE_2
 71
1
 72
1
 10
16.48
 20
8.9995
 30
0.0
 11
1.0
 21
0.0
 31
0.0
 44
0.9
  1
D
 40
0.1
 41
0.08
  0
MTEXT
  5
455
100
AcDbEntity
  8
0
100
AcDbMText
 62
2
  6
CONTINUOUS
  7
TEXTSTYLE_2
 71
1
 72
1
 10
16.48
 20
6.6995
 30
0.0
 11
1.0
 21
0.0
 31
0.0
 44
0.9
  1
C
 40
0.1
 41
0.08
  0
MTEXT
  5
456
100
AcDbEntity
  8
0
100
AcDbMText
 62
2
  6
CONTINUOUS
  7
TEXTSTYLE_2
 71
1
 72
1
 10
16.48
 20
4.3995
 30
0.0
 11
1.0
 21
0.0
 31
0.0
 44
0.9
  1
B
 40
0.1
 41
0.08
  0
MTEXT
  5
457
100
AcDbEntity
  8
0
100
AcDbMText
 62
2
  6
CONTINUOUS
  7
TEXTSTYLE_2
 71
1
 72
1
 10
16.48
 20
2.0995
 30
0.0
 11
1.0
 21
0.0
 31
0.0
 44
0.9
  1
A
 40
0.1
 41
0.08
  0
MTEXT
  5
458
100
AcDbEntity
  8
0
100
AcDbMText
 62
2
  6
CONTINUOUS
  7
STANDARD
 71
1
 72
1
 10
14.819264911
 20
1.0627941725
 30
0.0
 11
1.0
 21
0.0
 31
0.0
 44
0.9
  1
1 OF 1
 40
0.1
 41
0.6
  0
MTEXT
  5
459
100
AcDbEntity
  8
0
100
AcDbMText
 62
7
  6
CONTINUOUS
  7
STANDARD
 71
1
 72
1
 10
13.8911999818
 20
1.3747321586
 30
0.0
 11
1.0
 21
0.0
 31
0.0
 44
0.9
  1
151344
 40
0.12
 41
0.72
  0
MTEXT
  5
45A
100
AcDbEntity
  8
0
100
AcDbMText
 62
2
  6
CONTINUOUS
  7
STANDARD
 71
1
 72
1
 10
12.644264911
 20
1.0627941725
 30
0.0
 11
1.0
 21
0.0
 31
0.0
 44
0.9
  1
1:1
 40
0.1
 41
0.3
  0
MTEXT
  5
45B
100
AcDbEntity
  8
0
100
AcDbMText
 62
2
  6
CONTINUOUS
  7
STANDARD
 71
1
 72
1
 10
1.0597007627
 20
1.6202922458
 30
0.0
 11
1.0
 21
0.0
 31
0.0
 44
0.9
  1
NOTES:\P1. ALL DIMENSIONS ARE MILLIMETERS [INCHES] UNLESS OTHERWISE NOTED.
 40
0.1
 41
6.6
  0
INSERT
  5
45C
100
AcDbEntity
  8
0
100
AcDbBlockReference
 62
2
  6
CONTINUOUS
  2
BANNER_LOGO_TITLEBLOCK_BL0
 10
12.9086867042
 20
2.5403783405
  0
DIMENSION
  5
45D
100
AcDbEntity
  8
SCHEME_DIMS
100
AcDbDimension
 62
2
  6
CONTINUOUS
  2
*D0
 10
5.2709569669
 20
7.6536255849
 11
6.2960060447
 21
7.2345542768
 70
163
 71
1
 42
50.0
  1
<>
  3
DIMSTYLE_1
100
AcDbDiametricDimension
 15
3.765535672
 25
8.9219766698
  0
DIMENSION
  5
45E
100
AcDbEntity
  8
SCHEME_DIMS
100
AcDbDimension
 62
2
  6
CONTINUOUS
  2
*D1
 10
2.3872932457
 20
5.7811458414
 11
2.2622932457
 21
5.053825508
 70
160
 71
2
 42
36.5
  3
DIMSTYLE_2
100
AcDbAlignedDimension
 13
3.9439352958
 23
4.3441379674
 14
3.5403919891
 24
5.7811458414
 50
90.0
100
AcDbRotatedDimension
  0
DIMENSION
  5
45F
100
AcDbEntity
  8
SCHEME_DIMS
100
AcDbDimension
 62
2
  6
CONTINUOUS
  2
*D2
 10
4.375804319
 20
8.4320933092
 11
2.8184747579
 21
9.1749092862
 70
163
 71
3
 42
10.3
  1
<>
  3
DIMSTYLE_1
100
AcDbDiametricDimension
 15
4.6606883199
 25
8.1435089456
  0
DIMENSION
  5
460
100
AcDbEntity
  8
SCHEME_DIMS
100
AcDbDimension
 62
2
  6
CONTINUOUS
  2
*D3
 10
3.0339943554
 20
5.7811458414
 11
2.9089943554
 21
5.4563426918
 70
160
 71
2
 42
16.5
  3
DIMSTYLE_2
100
AcDbAlignedDimension
 13
3.510864439
 23
5.1315395422
 14
3.5403919891
 24
5.7811458414
 50
90.0
100
AcDbRotatedDimension
  0
LINE
  5
461
100
AcDbEntity
  8
0
100
AcDbLine
 62
2
  6
CONTINUOUS
 10
16.38
 20
0.887
 11
12.03
 21
0.887
  0
LINE
  5
462
100
AcDbEntity
  8
0
100
AcDbLine
 62
2
  6
CONTINUOUS
 10
16.38
 20
0.887
 11
16.38
 21
2.807
  0
LINE
  5
463
100
AcDbEntity
  8
0
100
AcDbLine
 62
2
  6
CONTINUOUS
 10
16.38
 20
2.807
 11
12.03
 21
2.807
  0
LINE
  5
464
100
AcDbEntity
  8
0
100
AcDbLine
 62
2
  6
CONTINUOUS
 10
12.03
 20
0.887
 11
12.03
 21
2.807
  0
MTEXT
  5
465
100
AcDbEntity
  8
NOTES
100
AcDbMText
 62
7
  6
CONTINUOUS
  7
STANDARD
 71
2
 72
1
 10
16.155
 20
1.367
 30
0.0
 11
1.0
 21
0.0
 31
0.0
 44
0.9
  1
A
 40
0.1
 41
0.1
  0
MTEXT
  5
466
100
AcDbEntity
  8
NOTES
100
AcDbMText
 62
7
  6
CONTINUOUS
  7
STANDARD
 71
2
 72
1
 10
14.205
 20
1.967
 30
0.0
 11
1.0
 21
0.0
 31
0.0
 44
0.9
  1
WL50PB CABLE\PWEB CAD DRAWINGS 2D/3D
 40
0.1
 41
2.2
  0
LEADER
  5
467
100
AcDbEntity
  8
NOTES
100
AcDbLeader
 62
2
  6
CONTINUOUS
  3
STANDARD
 71
1
 72
0
 73
0
 75
0
 40
0.1
 41
1.2
 76
3
 10
5.1030606238
 20
4.5217971787
 30
0.0
 10
5.845491792
 20
4.9087437284
 30
0.0
 10
6.095491792
 20
4.9087437284
 30
0.0
340
468
1001
ACAD
1000
DSTYLE
1002
{
1070
77
1070
0
1002
}
  0
MTEXT
  5
468
102
{ACAD_REACTORS
330
467
102
}
100
AcDbEntity
  8
NOTES
100
AcDbMText
 62
2
  6
CONTINUOUS
  7
STANDARD
 71
1
 72
1
 10
6.095491792
 20
4.9587437284
 30
0.0
 11
1.0
 21
0.0
 31
0.0
 44
0.9
  1
M30 X 1.5-6g
 40
0.1
 41
1.2
  0
LEADER
  5
469
100
AcDbEntity
  8
NOTES
100
AcDbLeader
 62
2
  6
CONTINUOUS
  3
STANDARD
 71
1
 72
0
 73
0
 75
0
 40
0.1
 41
1.1
 76
3
 10
4.8729262651
 20
4.3552427579
 30
0.0
 10
5.8603915082
 20
3.5016845543
 30
0.0
 10
6.1103915082
 20
3.5016845543
 30
0.0
340
46A
1001
ACAD
1000
DSTYLE
1002
{
1070
77
1070
0
1002
}
  0
MTEXT
  5
46A
102
{ACAD_REACTORS
330
469
102
}
100
AcDbEntity
  8
NOTES
100
AcDbMText
 62
2
  6
CONTINUOUS
  7
STANDARD
 71
1
 72
1
 10
6.1103915082
 20
3.5516845543
 30
0.0
 11
1.0
 21
0.0
 31
0.0
 44
0.9
  1
1/2-14 NPSM
 40
0.1
 41
1.1
  0
MTEXT
  5
46B
100
AcDbEntity
  8
NOTES
100
AcDbMText
 62
2
  6
CONTINUOUS
  7
STANDARD
 71
2
 72
1
 10
13.2442385905
 20
3.4540940212
 30
0.0
 11
1.0
 21
0.0
 31
0.0
 44
0.9
  1
ISOMETRIC VIEW\P\H0.1;SCALE  1:1
 40
0.12
 41
1.68
  0
INSERT
  5
46C
100
AcDbEntity
  8
SYMBOLS
100
AcDbBlockReference
 62
2
  6
CONTINUOUS
  2
CL_BL1
 10
5.7318968545
 20
8.2792735476
  0
INSERT
  5
46D
100
AcDbEntity
  8
SYMBOLS
100
AcDbBlockReference
 62
2
  6
CONTINUOUS
  2
CL_BL2
 10
4.5612777812
 20
7.076600557
  0
INSERT
  5
46E
100
AcDbEntity
  8
SYMBOLS
100
AcDbBlockReference
 62
2
  6
CONTINUOUS
  2
CL_BL3
 10
4.5454080508
 20
2.074494787
  0
LINE
  5
46F
100
AcDbEntity
  8
0
100
AcDbLine
 62
2
  6
CONTINUOUS
 10
0.47
 20
5.586103
 11
0.47
 21
5.412897
  0
LINE
  5
470
100
AcDbEntity
  8
0
100
AcDbLine
 62
2
  6
CONTINUOUS
 10
0.62
 20
10.112
 11
0.62
 21
0.887
  0
LINE
  5
471
100
AcDbEntity
  8
0
100
AcDbLine
 62
2
  6
CONTINUOUS
 10
2.59
 20
0.887
 11
2.59
 21
0.637
  0
LINE
  5
472
100
AcDbEntity
  8
0
100
AcDbLine
 62
2
  6
CONTINUOUS
 10
2.59
 20
10.112
 11
2.59
 21
10.362
  0
LINE
  5
473
100
AcDbEntity
  8
0
100
AcDbLine
 62
2
  6
CONTINUOUS
 10
8.413397
 20
0.737
 11
8.586603
 21
0.737
  0
LINE
  5
474
100
AcDbEntity
  8
0
100
AcDbLine
 62
7
  6
CONTINUOUS
 10
11.1389508475
 20
1.425992839
 11
11.7453418475
 21
1.495385839
  0
LINE
  5
475
100
AcDbEntity
  8
0
100
AcDbLine
 62
2
  6
CONTINUOUS
 10
0.62
 20
0.887
 11
16.38
 21
0.887
  0
LINE
  5
476
100
AcDbEntity
  8
0
100
AcDbLine
 62
2
  6
CONTINUOUS
 10
12.03
 20
1.137
 11
16.38
 21
1.137
  0
LINE
  5
477
100
AcDbEntity
  8
0
100
AcDbLine
 62
7
  6
CONTINUOUS
 10
10.2121898475
 20
1.243294839
 11
10.4342808475
 21
1.243294839
  0
LINE
  5
478
100
AcDbEntity
  8
0
100
AcDbLine
 62
7
  6
CONTINUOUS
 10
10.4842808475
 20
1.243294839
 11
10.5842808475
 21
1.243294839
  0
LINE
  5
479
100
AcDbEntity
  8
0
100
AcDbLine
 62
7
  6
CONTINUOUS
 10
10.6342808475
 20
1.243294839
 11
10.8563718475
 21
1.243294839
  0
LINE
  5
47A
100
AcDbEntity
  8
0
100
AcDbLine
 62
7
  6
CONTINUOUS
 10
11.0389508475
 20
1.243294839
 11
11.3171028475
 21
1.243294839
  0
LINE
  5
47B
100
AcDbEntity
  8
0
100
AcDbLine
 62
7
  6
CONTINUOUS
 10
11.3671028475
 20
1.243294839
 11
11.5171888475
 21
1.243294839
  0
LINE
  5
47C
100
AcDbEntity
  8
0
100
AcDbLine
 62
7
  6
CONTINUOUS
 10
11.5671888475
 20
1.243294839
 11
11.8453418475
 21
1.243294839
  0
LINE
  5
47D
100
AcDbEntity
  8
0
100
AcDbLine
 62
7
  6
CONTINUOUS
 10
11.7453418475
 20
0.991203839
 11
11.1389508475
 21
1.060596839
  0
LINE
  5
47E
100
AcDbEntity
  8
0
100
AcDbLine
 62
2
  6
CONTINUOUS
 10
4.56
 20
0.887
 11
4.56
 21
0.637
  0
LINE
  5
47F
100
AcDbEntity
  8
0
100
AcDbLine
 62
2
  6
CONTINUOUS
 10
4.56
 20
10.112
 11
4.56
 21
10.362
  0
LINE
  5
480
100
AcDbEntity
  8
0
100
AcDbLine
 62
2
  6
CONTINUOUS
 10
0.47
 20
5.412897
 11
0.62
 21
5.4995
  0
LINE
  5
481
100
AcDbEntity
  8
0
100
AcDbLine
 62
2
  6
CONTINUOUS
 10
12.03
 20
1.507
 11
16.38
 21
1.507
  0
LINE
  5
482
100
AcDbEntity
  8
0
100
AcDbLine
 62
2
  6
CONTINUOUS
 10
10.03
 20
1.907
 11
12.03
 21
1.907
  0
LINE
  5
483
100
AcDbEntity
  8
0
100
AcDbLine
 62
2
  6
CONTINUOUS
 10
0.62
 20
5.4995
 11
0.47
 21
5.586103
  0
LINE
  5
484
100
AcDbEntity
  8
0
100
AcDbLine
 62
2
  6
CONTINUOUS
 10
12.03
 20
2.267
 11
16.38
 21
2.267
  0
LINE
  5
485
100
AcDbEntity
  8
0
100
AcDbLine
 62
2
  6
CONTINUOUS
 10
8.5
 20
10.112
 11
8.586603
 21
10.262
  0
LINE
  5
486
100
AcDbEntity
  8
0
100
AcDbLine
 62
2
  6
CONTINUOUS
 10
16.38
 20
2.807
 11
10.03
 21
2.807
  0
LINE
  5
487
100
AcDbEntity
  8
0
100
AcDbLine
 62
2
  6
CONTINUOUS
 10
0.62
 20
3.1995
 11
0.37
 21
3.1995
  0
LINE
  5
488
100
AcDbEntity
  8
0
100
AcDbLine
 62
2
  6
CONTINUOUS
 10
16.38
 20
3.1995
 11
16.63
 21
3.1995
  0
LINE
  5
489
100
AcDbEntity
  8
0
100
AcDbLine
 62
2
  6
CONTINUOUS
 10
8.586603
 20
0.737
 11
8.5
 21
0.887
  0
LINE
  5
48A
100
AcDbEntity
  8
0
100
AcDbLine
 62
2
  6
CONTINUOUS
 10
6.53
 20
0.887
 11
6.53
 21
0.637
  0
LINE
  5
48B
100
AcDbEntity
  8
0
100
AcDbLine
 62
2
  6
CONTINUOUS
 10
6.53
 20
10.112
 11
6.53
 21
10.362
  0
LINE
  5
48C
100
AcDbEntity
  8
0
100
AcDbLine
 62
2
  6
CONTINUOUS
 10
8.5
 20
0.887
 11
8.5
 21
0.637
  0
LINE
  5
48D
100
AcDbEntity
  8
0
100
AcDbLine
 62
2
  6
CONTINUOUS
 10
8.5
 20
10.112
 11
8.5
 21
10.362
  0
LINE
  5
48E
100
AcDbEntity
  8
0
100
AcDbLine
 62
2
  6
CONTINUOUS
 10
0.62
 20
5.4995
 11
0.37
 21
5.4995
  0
LINE
  5
48F
100
AcDbEntity
  8
0
100
AcDbLine
 62
2
  6
CONTINUOUS
 10
16.38
 20
5.4995
 11
16.63
 21
5.4995
  0
LINE
  5
490
100
AcDbEntity
  8
0
100
AcDbLine
 62
2
  6
CONTINUOUS
 10
10.03
 20
2.807
 11
10.03
 21
0.887
  0
LINE
  5
491
100
AcDbEntity
  8
0
100
AcDbLine
 62
2
  6
CONTINUOUS
 10
10.47
 20
0.887
 11
10.47
 21
0.637
  0
LINE
  5
492
100
AcDbEntity
  8
0
100
AcDbLine
 62
2
  6
CONTINUOUS
 10
10.47
 20
10.112
 11
10.47
 21
10.362
  0
LINE
  5
493
100
AcDbEntity
  8
0
100
AcDbLine
 62
7
  6
CONTINUOUS
 10
10.5342808475
 20
1.143294839
 11
10.5342808475
 21
0.921203839
  0
LINE
  5
494
100
AcDbEntity
  8
0
100
AcDbLine
 62
7
  6
CONTINUOUS
 10
10.5342808475
 20
1.193294839
 11
10.5342808475
 21
1.293294839
  0
LINE
  5
495
100
AcDbEntity
  8
0
100
AcDbLine
 62
7
  6
CONTINUOUS
 10
10.5342808475
 20
1.343294839
 11
10.5342808475
 21
1.565385839
  0
LINE
  5
496
100
AcDbEntity
  8
0
100
AcDbLine
 62
2
  6
CONTINUOUS
 10
8.5
 20
0.887
 11
8.413397
 21
0.737
  0
LINE
  5
497
100
AcDbEntity
  8
0
100
AcDbLine
 62
2
  6
CONTINUOUS
 10
0.62
 20
7.7995
 11
0.37
 21
7.7995
  0
LINE
  5
498
100
AcDbEntity
  8
0
100
AcDbLine
 62
2
  6
CONTINUOUS
 10
16.38
 20
7.7995
 11
16.63
 21
7.7995
  0
LINE
  5
499
100
AcDbEntity
  8
0
100
AcDbLine
 62
2
  6
CONTINUOUS
 10
8.413397
 20
10.262
 11
8.5
 21
10.112
  0
LINE
  5
49A
100
AcDbEntity
  8
0
100
AcDbLine
 62
7
  6
CONTINUOUS
 10
11.1389508475
 20
1.060596839
 11
11.1389508475
 21
1.425992839
  0
LINE
  5
49B
100
AcDbEntity
  8
0
100
AcDbLine
 62
7
  6
CONTINUOUS
 10
11.7453418475
 20
1.495385839
 11
11.7453418475
 21
0.991203839
  0
LINE
  5
49C
100
AcDbEntity
  8
0
100
AcDbLine
 62
1
  6
CONTINUOUS
 10
12.03
 20
2.807
 11
12.03
 21
0.887
  0
LINE
  5
49D
100
AcDbEntity
  8
0
100
AcDbLine
 62
2
  6
CONTINUOUS
 10
12.44
 20
0.887
 11
12.44
 21
0.637
  0
LINE
  5
49E
100
AcDbEntity
  8
0
100
AcDbLine
 62
2
  6
CONTINUOUS
 10
12.44
 20
10.112
 11
12.44
 21
10.362
  0
LINE
  5
49F
100
AcDbEntity
  8
0
100
AcDbLine
 62
2
  6
CONTINUOUS
 10
16.53
 20
5.586103
 11
16.38
 21
5.4995
  0
LINE
  5
4A0
100
AcDbEntity
  8
0
100
AcDbLine
 62
2
  6
CONTINUOUS
 10
16.38
 20
5.4995
 11
16.53
 21
5.412897
  0
LINE
  5
4A1
100
AcDbEntity
  8
0
100
AcDbLine
 62
2
  6
CONTINUOUS
 10
12.83
 20
1.507
 11
12.83
 21
1.137
  0
LINE
  5
4A2
100
AcDbEntity
  8
0
100
AcDbLine
 62
2
  6
CONTINUOUS
 10
16.38
 20
10.112
 11
0.62
 21
10.112
  0
LINE
  5
4A3
100
AcDbEntity
  8
0
100
AcDbLine
 62
2
  6
CONTINUOUS
 10
8.586603
 20
10.262
 11
8.413397
 21
10.262
  0
LINE
  5
4A4
100
AcDbEntity
  8
0
100
AcDbLine
 62
2
  6
CONTINUOUS
 10
14.205
 20
1.137
 11
14.205
 21
0.887
  0
LINE
  5
4A5
100
AcDbEntity
  8
0
100
AcDbLine
 62
2
  6
CONTINUOUS
 10
14.41
 20
0.887
 11
14.41
 21
0.637
  0
LINE
  5
4A6
100
AcDbEntity
  8
0
100
AcDbLine
 62
2
  6
CONTINUOUS
 10
14.41
 20
10.112
 11
14.41
 21
10.362
  0
LINE
  5
4A7
100
AcDbEntity
  8
0
100
AcDbLine
 62
2
  6
CONTINUOUS
 10
15.58
 20
1.507
 11
15.58
 21
1.137
  0
LINE
  5
4A8
100
AcDbEntity
  8
0
100
AcDbLine
 62
2
  6
CONTINUOUS
 10
16.38
 20
0.887
 11
16.38
 21
10.112
  0
LINE
  5
4A9
100
AcDbEntity
  8
0
100
AcDbLine
 62
2
  6
CONTINUOUS
 10
16.53
 20
5.412897
 11
16.53
 21
5.586103
  0
LINE
  5
4AA
100
AcDbEntity
  8
02___PRT_ALL_AXES
100
AcDbLine
 62
7
  6
CONTINUOUS
 10
4.4057463195
 20
2.3009883611
 11
4.6307463195
 21
2.3009883611
  0
LINE
  5
4AB
100
AcDbEntity
  8
02___PRT_ALL_AXES
100
AcDbLine
 62
7
  6
CONTINUOUS
 10
3.9316321462
 20
5.0318840304
 11
3.9318579042
 21
5.0321447969
  0
LINE
  5
4AC
100
AcDbEntity
  8
0
100
AcDbLine
 62
7
  6
CONTINUOUS
 10
3.9673054697
 20
5.0526188441
 11
3.9318579042
 21
5.0321447969
  0
LINE
  5
4AD
100
AcDbEntity
  8
0
100
AcDbLine
 62
7
  6
CONTINUOUS
 10
3.9673054697
 20
4.9935637259
 11
3.9318579042
 21
4.9730896788
  0
LWPOLYLINE
  5
4AE
100
AcDbEntity
  8
02___PRT_ALL_AXES
100
AcDbPolyline
 62
7
  6
CONTINUOUS
 90
9
 70
0
 10
3.9316321462
 20
5.0245021406
 10
3.9334320151
 20
5.0252385985
 10
3.9477647651
 20
5.0267115144
 10
3.9760789951
 20
5.0281844302
 10
4.0176807741
 20
5.029657346
 10
4.0715505171
 20
5.0311302619
 10
4.1363679732
 20
5.0326031777
 10
4.2105445829
 20
5.0340760936
 10
4.2922624104
 20
5.0355490094
  0
LWPOLYLINE
  5
4AF
100
AcDbEntity
  8
02___PRT_ALL_AXES
100
AcDbPolyline
 62
7
  6
CONTINUOUS
 90
9
 70
0
 10
3.9316321462
 20
4.9654470225
 10
3.9334320151
 20
4.9661834804
 10
3.9477647651
 20
4.9676563962
 10
3.9760789951
 20
4.9691293121
 10
4.0176807741
 20
4.9706022279
 10
4.0715505171
 20
4.9720751438
 10
4.1363679732
 20
4.9735480596
 10
4.2105445829
 20
4.9750209755
 10
4.2922624104
 20
4.9764938913
  0
LWPOLYLINE
  5
4B0
100
AcDbEntity
  8
02___PRT_ALL_AXES
100
AcDbPolyline
 62
7
  6
CONTINUOUS
 90
9
 70
0
 10
3.9318579042
 20
5.0321447969
 10
3.9334320151
 20
5.0326204883
 10
3.9477647651
 20
5.0340934041
 10
3.9760789951
 20
5.03556632
 10
4.0176807741
 20
5.0370392358
 10
4.0715505171
 20
5.0385121517
 10
4.1363679732
 20
5.0399850675
 10
4.2105445829
 20
5.0414579833
 10
4.2922624104
 20
5.0429308992
  0
LINE
  5
4B1
100
AcDbEntity
  8
02___PRT_ALL_AXES
100
AcDbLine
 62
7
  6
CONTINUOUS
 10
3.5339943509
 20
5.6433505658
 11
3.5339943509
 21
5.1709096209
  0
LINE
  5
4B2
100
AcDbEntity
  8
02___PRT_ALL_AXES
100
AcDbLine
 62
7
  6
CONTINUOUS
 10
3.5438368706
 20
5.7220907233
 11
3.5438368706
 21
5.6433505658
  0
LINE
  5
4B3
100
AcDbEntity
  8
02___PRT_ALL_AXES
100
AcDbLine
 62
7
  6
CONTINUOUS
 10
3.9316321462
 20
4.9728289122
 11
3.9318579042
 21
4.9730896788
  0
LINE
  5
4B4
100
AcDbEntity
  8
02___PRT_ALL_AXES
100
AcDbLine
 62
7
  6
CONTINUOUS
 10
3.9316321462
 20
4.9137737941
 11
3.9318579042
 21
4.9140345607
  0
LINE
  5
4B5
100
AcDbEntity
  8
02___PRT_ALL_AXES
100
AcDbLine
 62
7
  6
CONTINUOUS
 10
3.9316321462
 20
4.854718676
 11
3.9318579042
 21
4.8549794426
  0
LINE
  5
4B6
100
AcDbEntity
  8
02___PRT_ALL_AXES
100
AcDbLine
 62
7
  6
CONTINUOUS
 10
3.9316321462
 20
4.7956635579
 11
3.9318579042
 21
4.7959243245
  0
LINE
  5
4B7
100
AcDbEntity
  8
0
100
AcDbLine
 62
7
  6
CONTINUOUS
 10
3.9673054697
 20
4.9345086078
 11
3.9318579042
 21
4.9140345607
  0
LINE
  5
4B8
100
AcDbEntity
  8
0
100
AcDbLine
 62
7
  6
CONTINUOUS
 10
3.9673054697
 20
4.8754534897
 11
3.9318579042
 21
4.8549794426
  0
LINE
  5
4B9
100
AcDbEntity
  8
0
100
AcDbLine
 62
7
  6
CONTINUOUS
 10
3.9673054697
 20
4.8163983716
 11
3.9318579042
 21
4.7959243245
  0
LWPOLYLINE
  5
4BA
100
AcDbEntity
  8
02___PRT_ALL_AXES
100
AcDbPolyline
 62
7
  6
CONTINUOUS
 90
9
 70
0
 10
3.9316321462
 20
4.9063919044
 10
3.9334320151
 20
4.9071283623
 10
3.9477647651
 20
4.9086012781
 10
3.9760789951
 20
4.910074194
 10
4.0176807741
 20
4.9115471098
 10
4.0715505171
 20
4.9130200257
 10
4.1363679732
 20
4.9144929415
 10
4.2105445829
 20
4.9159658574
 10
4.2922624104
 20
4.9174387732
  0
LWPOLYLINE
  5
4BB
100
AcDbEntity
  8
02___PRT_ALL_AXES
100
AcDbPolyline
 62
7
  6
CONTINUOUS
 90
9
 70
0
 10
3.9316321462
 20
4.8473367863
 10
3.9334320151
 20
4.8480732442
 10
3.9477647651
 20
4.84954616
 10
3.9760789951
 20
4.8510190759
 10
4.0176807741
 20
4.8524919917
 10
4.0715505171
 20
4.8539649076
 10
4.1363679732
 20
4.8554378234
 10
4.2105445829
 20
4.8569107392
 10
4.2922624104
 20
4.8583836551
  0
LWPOLYLINE
  5
4BC
100
AcDbEntity
  8
02___PRT_ALL_AXES
100
AcDbPolyline
 62
7
  6
CONTINUOUS
 90
9
 70
0
 10
3.9318579042
 20
4.9730896788
 10
3.9334320151
 20
4.9735653702
 10
3.9477647651
 20
4.975038286
 10
3.9760789951
 20
4.9765112019
 10
4.0176807741
 20
4.9779841177
 10
4.0715505171
 20
4.9794570335
 10
4.1363679732
 20
4.9809299494
 10
4.2105445829
 20
4.9824028652
 10
4.2922624104
 20
4.9838757811
  0
LWPOLYLINE
  5
4BD
100
AcDbEntity
  8
02___PRT_ALL_AXES
100
AcDbPolyline
 62
7
  6
CONTINUOUS
 90
9
 70
0
 10
3.9318579042
 20
4.9140345607
 10
3.9334320151
 20
4.9145102521
 10
3.9477647651
 20
4.9159831679
 10
3.9760789951
 20
4.9174560837
 10
4.0176807741
 20
4.9189289996
 10
4.0715505171
 20
4.9204019154
 10
4.1363679732
 20
4.9218748313
 10
4.2105445829
 20
4.9233477471
 10
4.2922624104
 20
4.924820663
  0
LWPOLYLINE
  5
4BE
100
AcDbEntity
  8
02___PRT_ALL_AXES
100
AcDbPolyline
 62
7
  6
CONTINUOUS
 90
9
 70
0
 10
3.9318579042
 20
4.8549794426
 10
3.9334320151
 20
4.8554551339
 10
3.9477647651
 20
4.8569280498
 10
3.9760789951
 20
4.8584009656
 10
4.0176807741
 20
4.8598738815
 10
4.0715505171
 20
4.8613467973
 10
4.1363679732
 20
4.8628197132
 10
4.2105445829
 20
4.864292629
 10
4.2922624104
 20
4.8657655449
  0
LINE
  5
4BF
100
AcDbEntity
  8
02___PRT_ALL_AXES
100
AcDbLine
 62
7
  6
CONTINUOUS
 10
3.9316321462
 20
4.7366084398
 11
3.9318579042
 21
4.7368692064
  0
LINE
  5
4C0
100
AcDbEntity
  8
02___PRT_ALL_AXES
100
AcDbLine
 62
7
  6
CONTINUOUS
 10
3.9316321462
 20
4.6775533217
 11
3.9318579042
 21
4.6778140883
  0
LINE
  5
4C1
100
AcDbEntity
  8
02___PRT_ALL_AXES
100
AcDbLine
 62
7
  6
CONTINUOUS
 10
3.9316321462
 20
4.6184982036
 11
3.9318579042
 21
4.6187589702
  0
LINE
  5
4C2
100
AcDbEntity
  8
0
100
AcDbLine
 62
7
  6
CONTINUOUS
 10
3.9673054697
 20
4.7573432535
 11
3.9318579042
 21
4.7368692064
  0
LINE
  5
4C3
100
AcDbEntity
  8
0
100
AcDbLine
 62
7
  6
CONTINUOUS
 10
3.9673054697
 20
4.6982881354
 11
3.9318579042
 21
4.6778140883
  0
LWPOLYLINE
  5
4C4
100
AcDbEntity
  8
02___PRT_ALL_AXES
100
AcDbPolyline
 62
7
  6
CONTINUOUS
 90
8
 70
0
 10
3.9316321462
 20
4.7882816681
 10
3.9334320151
 20
4.7890181261
 10
3.9477647651
 20
4.7904910419
 10
3.9760789951
 20
4.7919639578
 10
4.0176807741
 20
4.7934368736
 10
4.0715505171
 20
4.7949097894
 10
4.1363679732
 20
4.7963827053
 10
4.2105445829
 20
4.7978556211
  0
LWPOLYLINE
  5
4C5
100
AcDbEntity
  8
02___PRT_ALL_AXES
100
AcDbPolyline
 62
7
  6
CONTINUOUS
 90
9
 70
0
 10
3.9316321462
 20
4.72922655
 10
3.9334320151
 20
4.729963008
 10
3.9477647651
 20
4.7314359238
 10
3.9760789951
 20
4.7329088396
 10
4.0176807741
 20
4.7343817555
 10
4.0715505171
 20
4.7358546713
 10
4.1363679732
 20
4.7373275872
 10
4.2105445829
 20
4.738800503
 10
4.2922624104
 20
4.7402734189
  0
LWPOLYLINE
  5
4C6
100
AcDbEntity
  8
02___PRT_ALL_AXES
100
AcDbPolyline
 62
7
  6
CONTINUOUS
 90
9
 70
0
 10
3.9318579042
 20
4.7959243245
 10
3.9334320151
 20
4.7964000158
 10
3.9477647651
 20
4.7978729317
 10
3.9760789951
 20
4.7993458475
 10
4.0176807741
 20
4.8008187634
 10
4.0715505171
 20
4.8022916792
 10
4.1363679732
 20
4.8037645951
 10
4.2105445829
 20
4.8052375109
 10
4.2922624104
 20
4.8067104267
  0
LWPOLYLINE
  5
4C7
100
AcDbEntity
  8
02___PRT_ALL_AXES
100
AcDbPolyline
 62
7
  6
CONTINUOUS
 90
9
 70
0
 10
3.9318579042
 20
4.7368692064
 10
3.9334320151
 20
4.7373448977
 10
3.9477647651
 20
4.7388178136
 10
3.9760789951
 20
4.7402907294
 10
4.0176807741
 20
4.7417636453
 10
4.0715505171
 20
4.7432365611
 10
4.1363679732
 20
4.7447094769
 10
4.2105445829
 20
4.7461823928
 10
4.2922624104
 20
4.7476553086
  0
LINE
  5
4C8
100
AcDbEntity
  8
02___PRT_ALL_AXES
100
AcDbLine
 62
7
  6
CONTINUOUS
 10
3.9316321462
 20
4.5594430855
 11
3.9318579042
 21
4.559703852
  0
LINE
  5
4C9
100
AcDbEntity
  8
02___PRT_ALL_AXES
100
AcDbLine
 62
7
  6
CONTINUOUS
 10
3.9316321462
 20
4.5003879674
 11
3.9318579042
 21
4.5006487339
  0
LINE
  5
4CA
100
AcDbEntity
  8
02___PRT_ALL_AXES
100
AcDbLine
 62
7
  6
CONTINUOUS
 10
3.9316321462
 20
4.4413328492
 11
3.9318579042
 21
4.4415936158
  0
LINE
  5
4CB
100
AcDbEntity
  8
0
100
AcDbLine
 62
7
  6
CONTINUOUS
 10
3.9673054697
 20
4.6392330173
 11
3.9318579042
 21
4.6187589702
  0
LINE
  5
4CC
100
AcDbEntity
  8
0
100
AcDbLine
 62
7
  6
CONTINUOUS
 10
3.9673054697
 20
4.5801778992
 11
3.9318579042
 21
4.559703852
  0
LINE
  5
4CD
100
AcDbEntity
  8
0
100
AcDbLine
 62
7
  6
CONTINUOUS
 10
3.9673054697
 20
4.5211227811
 11
3.9318579042
 21
4.5006487339
  0
LWPOLYLINE
  5
4CE
100
AcDbEntity
  8
02___PRT_ALL_AXES
100
AcDbPolyline
 62
7
  6
CONTINUOUS
 90
8
 70
0
 10
3.9316321462
 20
4.6701714319
 10
3.9334320151
 20
4.6709078898
 10
3.9477647651
 20
4.6723808057
 10
3.9760789951
 20
4.6738537215
 10
4.0176807741
 20
4.6753266374
 10
4.0715505171
 20
4.6767995532
 10
4.1363679732
 20
4.6782724691
 10
4.2105445829
 20
4.6797453849
  0
LWPOLYLINE
  5
4CF
100
AcDbEntity
  8
02___PRT_ALL_AXES
100
AcDbPolyline
 62
7
  6
CONTINUOUS
 90
9
 70
0
 10
3.9316321462
 20
4.6111163138
 10
3.9334320151
 20
4.6118527717
 10
3.9477647651
 20
4.6133256876
 10
3.9760789951
 20
4.6147986034
 10
4.0176807741
 20
4.6162715193
 10
4.0715505171
 20
4.6177444351
 10
4.1363679732
 20
4.619217351
 10
4.2105445829
 20
4.6206902668
 10
4.2922624104
 20
4.6221631827
  0
LWPOLYLINE
  5
4D0
100
AcDbEntity
  8
02___PRT_ALL_AXES
100
AcDbPolyline
 62
7
  6
CONTINUOUS
 90
9
 70
0
 10
3.9316321462
 20
4.5520611957
 10
3.9334320151
 20
4.5527976536
 10
3.9477647651
 20
4.5542705695
 10
3.9760789951
 20
4.5557434853
 10
4.0176807741
 20
4.5572164012
 10
4.0715505171
 20
4.558689317
 10
4.1363679732
 20
4.5601622329
 10
4.2105445829
 20
4.5616351487
 10
4.2922624104
 20
4.5631080645
  0
LWPOLYLINE
  5
4D1
100
AcDbEntity
  8
02___PRT_ALL_AXES
100
AcDbPolyline
 62
7
  6
CONTINUOUS
 90
9
 70
0
 10
3.9318579042
 20
4.6778140883
 10
3.9334320151
 20
4.6782897796
 10
3.9477647651
 20
4.6797626955
 10
3.9760789951
 20
4.6812356113
 10
4.0176807741
 20
4.6827085271
 10
4.0715505171
 20
4.684181443
 10
4.1363679732
 20
4.6856543588
 10
4.2105445829
 20
4.6871272747
 10
4.2922624104
 20
4.6886001905
  0
LWPOLYLINE
  5
4D2
100
AcDbEntity
  8
02___PRT_ALL_AXES
100
AcDbPolyline
 62
7
  6
CONTINUOUS
 90
9
 70
0
 10
3.9318579042
 20
4.6187589702
 10
3.9334320151
 20
4.6192346615
 10
3.9477647651
 20
4.6207075773
 10
3.9760789951
 20
4.6221804932
 10
4.0176807741
 20
4.623653409
 10
4.0715505171
 20
4.6251263249
 10
4.1363679732
 20
4.6265992407
 10
4.2105445829
 20
4.6280721566
 10
4.2922624104
 20
4.6295450724
  0
LINE
  5
4D3
100
AcDbEntity
  8
0
100
AcDbLine
 62
7
  6
CONTINUOUS
 10
3.9316321462
 20
5.0318840304
 11
3.9316321462
 21
5.0245021406
  0
LINE
  5
4D4
100
AcDbEntity
  8
0
100
AcDbLine
 62
7
  6
CONTINUOUS
 10
3.9316321462
 20
4.9728289122
 11
3.9316321462
 21
4.9654470225
  0
LINE
  5
4D5
100
AcDbEntity
  8
0
100
AcDbLine
 62
7
  6
CONTINUOUS
 10
3.9316321462
 20
4.9137737941
 11
3.9316321462
 21
4.9063919044
  0
LINE
  5
4D6
100
AcDbEntity
  8
0
100
AcDbLine
 62
7
  6
CONTINUOUS
 10
3.9316321462
 20
4.854718676
 11
3.9316321462
 21
4.8473367863
  0
LINE
  5
4D7
100
AcDbEntity
  8
0
100
AcDbLine
 62
7
  6
CONTINUOUS
 10
3.9316321462
 20
4.7956635579
 11
3.9316321462
 21
4.7882816681
  0
LINE
  5
4D8
100
AcDbEntity
  8
0
100
AcDbLine
 62
7
  6
CONTINUOUS
 10
3.9316321462
 20
4.7366084398
 11
3.9316321462
 21
4.72922655
  0
LINE
  5
4D9
100
AcDbEntity
  8
0
100
AcDbLine
 62
7
  6
CONTINUOUS
 10
3.9316321462
 20
4.6775533217
 11
3.9316321462
 21
4.6701714319
  0
LINE
  5
4DA
100
AcDbEntity
  8
0
100
AcDbLine
 62
7
  6
CONTINUOUS
 10
3.9316321462
 20
4.6184982036
 11
3.9316321462
 21
4.6111163138
  0
LINE
  5
4DB
100
AcDbEntity
  8
0
100
AcDbLine
 62
7
  6
CONTINUOUS
 10
3.9316321462
 20
4.5594430855
 11
3.9316321462
 21
4.5520611957
  0
LINE
  5
4DC
100
AcDbEntity
  8
0
100
AcDbLine
 62
7
  6
CONTINUOUS
 10
3.9316321462
 20
4.5003879674
 11
3.9316321462
 21
4.4930060776
  0
LINE
  5
4DD
100
AcDbEntity
  8
0
100
AcDbLine
 62
7
  6
CONTINUOUS
 10
3.9316321462
 20
4.4413328492
 11
3.9316321462
 21
4.4339509595
  0
LINE
  5
4DE
100
AcDbEntity
  8
02___PRT_ALL_AXES
100
AcDbLine
 62
7
  6
CONTINUOUS
 10
3.9670652171
 20
5.0921694634
 11
3.9670652171
 21
5.0523413234
  0
LINE
  5
4DF
100
AcDbEntity
  8
02___PRT_ALL_AXES
100
AcDbLine
 62
7
  6
CONTINUOUS
 10
3.9670652171
 20
5.0040448476
 11
3.9670652171
 21
4.9932862052
  0
LINE
  5
4E0
100
AcDbEntity
  8
02___PRT_ALL_AXES
100
AcDbLine
 62
7
  6
CONTINUOUS
 10
3.9670652171
 20
4.9449897295
 11
3.9670652171
 21
4.9342310871
  0
LINE
  5
4E1
100
AcDbEntity
  8
02___PRT_ALL_AXES
100
AcDbLine
 62
7
  6
CONTINUOUS
 10
3.9670652171
 20
4.8859346114
 11
3.9670652171
 21
4.875175969
  0
LINE
  5
4E2
100
AcDbEntity
  8
02___PRT_ALL_AXES
100
AcDbLine
 62
7
  6
CONTINUOUS
 10
3.9670652171
 20
4.8268794933
 11
3.9670652171
 21
4.8161208509
  0
LINE
  5
4E3
100
AcDbEntity
  8
02___PRT_ALL_AXES
100
AcDbLine
 62
7
  6
CONTINUOUS
 10
3.9670652171
 20
4.7678243751
 11
3.9670652171
 21
4.7570657328
  0
LINE
  5
4E4
100
AcDbEntity
  8
02___PRT_ALL_AXES
100
AcDbLine
 62
7
  6
CONTINUOUS
 10
3.9670652171
 20
4.708769257
 11
3.9670652171
 21
4.6980106147
  0
LINE
  5
4E5
100
AcDbEntity
  8
02___PRT_ALL_AXES
100
AcDbLine
 62
7
  6
CONTINUOUS
 10
3.9670652171
 20
4.6497141389
 11
3.9670652171
 21
4.6389554966
  0
LINE
  5
4E6
100
AcDbEntity
  8
02___PRT_ALL_AXES
100
AcDbLine
 62
7
  6
CONTINUOUS
 10
3.9670652171
 20
4.5906590208
 11
3.9670652171
 21
4.5799003785
  0
LINE
  5
4E7
100
AcDbEntity
  8
02___PRT_ALL_AXES
100
AcDbLine
 62
7
  6
CONTINUOUS
 10
3.9670652171
 20
4.5316039027
 11
3.9670652171
 21
4.5208452604
  0
LINE
  5
4E8
100
AcDbEntity
  8
02___PRT_ALL_AXES
100
AcDbLine
 62
7
  6
CONTINUOUS
 10
3.9670652171
 20
4.4725487846
 11
3.9670652171
 21
4.4617901423
  0
LINE
  5
4E9
100
AcDbEntity
  8
02___PRT_ALL_AXES
100
AcDbLine
 62
7
  6
CONTINUOUS
 10
3.9670652171
 20
4.4134936665
 11
3.9670652171
 21
4.3835080461
  0
LINE
  5
4EA
100
AcDbEntity
  8
0
100
AcDbLine
 62
7
  6
CONTINUOUS
 10
3.9673054697
 20
4.4620676629
 11
3.9318579042
 21
4.4415936158
  0
LWPOLYLINE
  5
4EB
100
AcDbEntity
  8
02___PRT_ALL_AXES
100
AcDbPolyline
 62
7
  6
CONTINUOUS
 90
9
 70
0
 10
3.9316321462
 20
4.4930060776
 10
3.9334320151
 20
4.4937425355
 10
3.9477647651
 20
4.4952154514
 10
3.9760789951
 20
4.4966883672
 10
4.0176807741
 20
4.4981612831
 10
4.0715505171
 20
4.4996341989
 10
4.1363679732
 20
4.5011071147
 10
4.2105445829
 20
4.5025800306
 10
4.2922624104
 20
4.5040529464
  0
LWPOLYLINE
  5
4EC
100
AcDbEntity
  8
02___PRT_ALL_AXES
100
AcDbPolyline
 62
7
  6
CONTINUOUS
 90
9
 70
0
 10
3.9316321462
 20
4.4339509595
 10
3.9334320151
 20
4.4346874174
 10
3.9477647651
 20
4.4361603333
 10
3.9760789951
 20
4.4376332491
 10
4.0176807741
 20
4.4391061649
 10
4.0715505171
 20
4.4405790808
 10
4.1363679732
 20
4.4420519966
 10
4.2105445829
 20
4.4435249125
 10
4.2922624104
 20
4.4449978283
  0
LWPOLYLINE
  5
4ED
100
AcDbEntity
  8
02___PRT_ALL_AXES
100
AcDbPolyline
 62
7
  6
CONTINUOUS
 90
9
 70
0
 10
3.9318579042
 20
4.559703852
 10
3.9334320151
 20
4.5601795434
 10
3.9477647651
 20
4.5616524592
 10
3.9760789951
 20
4.5631253751
 10
4.0176807741
 20
4.5645982909
 10
4.0715505171
 20
4.5660712068
 10
4.1363679732
 20
4.5675441226
 10
4.2105445829
 20
4.5690170385
 10
4.2922624104
 20
4.5704899543
  0
LWPOLYLINE
  5
4EE
100
AcDbEntity
  8
02___PRT_ALL_AXES
100
AcDbPolyline
 62
7
  6
CONTINUOUS
 90
9
 70
0
 10
3.9318579042
 20
4.5006487339
 10
3.9334320151
 20
4.5011244253
 10
3.9477647651
 20
4.5025973411
 10
3.9760789951
 20
4.504070257
 10
4.0176807741
 20
4.5055431728
 10
4.0715505171
 20
4.5070160887
 10
4.1363679732
 20
4.5084890045
 10
4.2105445829
 20
4.5099619204
 10
4.2922624104
 20
4.5114348362
  0
LWPOLYLINE
  5
4EF
100
AcDbEntity
  8
02___PRT_ALL_AXES
100
AcDbPolyline
 62
7
  6
CONTINUOUS
 90
9
 70
0
 10
3.9318579042
 20
4.4415936158
 10
3.9334320151
 20
4.4420693072
 10
3.9477647651
 20
4.443542223
 10
3.9760789951
 20
4.4450151389
 10
4.0176807741
 20
4.4464880547
 10
4.0715505171
 20
4.4479609706
 10
4.1363679732
 20
4.4494338864
 10
4.2105445829
 20
4.4509068022
 10
4.2922624104
 20
4.4523797181
  0
LINE
  5
4F0
100
AcDbEntity
  8
0
100
AcDbLine
 62
7
  6
CONTINUOUS
 10
5.0691871692
 20
4.9742397678
 11
5.1046347347
 21
4.994713815
  0
LINE
  5
4F1
100
AcDbEntity
  8
0
100
AcDbLine
 62
7
  6
CONTINUOUS
 10
5.0691871692
 20
4.9151846497
 11
5.1046347347
 21
4.9356586968
  0
LINE
  5
4F2
100
AcDbEntity
  8
0
100
AcDbLine
 62
7
  6
CONTINUOUS
 10
5.0691871692
 20
4.8561295316
 11
5.1046347347
 21
4.8766035787
  0
LINE
  5
4F3
100
AcDbEntity
  8
0
100
AcDbLine
 62
7
  6
CONTINUOUS
 10
5.0691871692
 20
4.7970744135
 11
5.1046347347
 21
4.8175484606
  0
LINE
  5
4F4
100
AcDbEntity
  8
0
100
AcDbLine
 62
7
  6
CONTINUOUS
 10
5.0691871692
 20
4.7380192954
 11
5.1046347347
 21
4.7584933425
  0
LINE
  5
4F5
100
AcDbEntity
  8
0
100
AcDbLine
 62
7
  6
CONTINUOUS
 10
5.0691871692
 20
4.6789641773
 11
5.1046347347
 21
4.6994382244
  0
LINE
  5
4F6
100
AcDbEntity
  8
02___PRT_ALL_AXES
100
AcDbLine
 62
7
  6
CONTINUOUS
 10
4.2922624104
 20
4.4449978283
 11
4.2922624104
 21
4.4523797181
  0
LINE
  5
4F7
100
AcDbEntity
  8
02___PRT_ALL_AXES
100
AcDbLine
 62
7
  6
CONTINUOUS
 10
4.2922624104
 20
4.5040529464
 11
4.2922624104
 21
4.5114348362
  0
LINE
  5
4F8
100
AcDbEntity
  8
02___PRT_ALL_AXES
100
AcDbLine
 62
7
  6
CONTINUOUS
 10
4.2922624104
 20
4.5631080645
 11
4.2922624104
 21
4.5704899543
  0
LINE
  5
4F9
100
AcDbEntity
  8
02___PRT_ALL_AXES
100
AcDbLine
 62
7
  6
CONTINUOUS
 10
4.2922624104
 20
4.6221631827
 11
4.2922624104
 21
4.6295450724
  0
LINE
  5
4FA
100
AcDbEntity
  8
02___PRT_ALL_AXES
100
AcDbLine
 62
7
  6
CONTINUOUS
 10
4.2922624104
 20
4.6812183008
 11
4.2922624104
 21
4.6886001905
  0
LINE
  5
4FB
100
AcDbEntity
  8
02___PRT_ALL_AXES
100
AcDbLine
 62
7
  6
CONTINUOUS
 10
4.2922624104
 20
4.7402734189
 11
4.2922624104
 21
4.7476553086
  0
LINE
  5
4FC
100
AcDbEntity
  8
02___PRT_ALL_AXES
100
AcDbLine
 62
7
  6
CONTINUOUS
 10
4.2922624104
 20
4.799328537
 11
4.2922624104
 21
4.8067104267
  0
LINE
  5
4FD
100
AcDbEntity
  8
02___PRT_ALL_AXES
100
AcDbLine
 62
7
  6
CONTINUOUS
 10
4.2922624104
 20
4.8583836551
 11
4.2922624104
 21
4.8657655449
  0
LINE
  5
4FE
100
AcDbEntity
  8
02___PRT_ALL_AXES
100
AcDbLine
 62
7
  6
CONTINUOUS
 10
4.2922624104
 20
4.9174387732
 11
4.2922624104
 21
4.924820663
  0
LINE
  5
4FF
100
AcDbEntity
  8
02___PRT_ALL_AXES
100
AcDbLine
 62
7
  6
CONTINUOUS
 10
4.2922624104
 20
4.9764938913
 11
4.2922624104
 21
4.9838757811
  0
LINE
  5
500
100
AcDbEntity
  8
02___PRT_ALL_AXES
100
AcDbLine
 62
7
  6
CONTINUOUS
 10
4.2922624104
 20
5.0355490094
 11
4.2922624104
 21
5.0429308992
  0
LINE
  5
501
100
AcDbEntity
  8
0
100
AcDbLine
 62
7
  6
CONTINUOUS
 10
4.3232463195
 20
5.7811458414
 11
4.3232463195
 21
5.7817757626
  0
LINE
  5
502
100
AcDbEntity
  8
02___PRT_ALL_AXES
100
AcDbLine
 62
7
  6
CONTINUOUS
 10
5.1046347347
 20
4.994713815
 11
5.1048604927
 21
4.9949745815
  0
LINE
  5
503
100
AcDbEntity
  8
02___PRT_ALL_AXES
100
AcDbLine
 62
7
  6
CONTINUOUS
 10
5.1046347347
 20
4.9356586968
 11
5.1048604927
 21
4.9359194634
  0
LINE
  5
504
100
AcDbEntity
  8
0
100
AcDbLine
 62
7
  6
CONTINUOUS
 10
5.0691871692
 20
4.6199090592
 11
5.1046347347
 21
4.6403831063
  0
LINE
  5
505
100
AcDbEntity
  8
0
100
AcDbLine
 62
7
  6
CONTINUOUS
 10
5.0691871692
 20
4.5608539411
 11
5.1046347347
 21
4.5813279882
  0
LINE
  5
506
100
AcDbEntity
  8
02___PRT_ALL_AXES
100
AcDbLine
 62
7
  6
CONTINUOUS
 10
3.9318579042
 20
4.4336901929
 11
3.9316321462
 21
4.4339509595
  0
LINE
  5
507
100
AcDbEntity
  8
02___PRT_ALL_AXES
100
AcDbLine
 62
7
  6
CONTINUOUS
 10
3.9318579042
 20
4.492745311
 11
3.9316321462
 21
4.4930060776
  0
LINE
  5
508
100
AcDbEntity
  8
02___PRT_ALL_AXES
100
AcDbLine
 62
7
  6
CONTINUOUS
 10
3.9318579042
 20
4.5518004291
 11
3.9316321462
 21
4.5520611957
  0
LWPOLYLINE
  5
509
100
AcDbEntity
  8
0
100
AcDbPolyline
 62
7
  6
CONTINUOUS
 90
6
 70
0
 10
4.41454894
 20
4.3835080461
 10
4.4147329572
 20
4.3713109431
 10
4.4152679167
 20
4.3603261887
 10
4.4161049271
 20
4.3516269293
 10
4.4171671452
 20
4.3460544244
 10
4.4183556544
 20
4.3441379674
  0
LWPOLYLINE
  5
50A
100
AcDbEntity
  8
0
100
AcDbPolyline
 62
7
  6
CONTINUOUS
 90
6
 70
0
 10
4.41454894
 20
5.0921694634
 10
4.4143653595
 20
5.1043629777
 10
4.4138352931
 20
5.1153458
 10
4.4130165666
 20
5.1240458645
 10
4.4119957584
 20
5.1296212444
 10
4.4108771057
 20
5.1315395422
  0
LINE
  5
50B
100
AcDbEntity
  8
02___PRT_ALL_AXES
100
AcDbLine
 62
7
  6
CONTINUOUS
 10
4.4057463195
 20
2.3009883611
 11
4.4057463195
 21
4.3441379674
  0
LINE
  5
50C
100
AcDbEntity
  8
0
100
AcDbLine
 62
7
  6
CONTINUOUS
 10
4.41454894
 20
5.0921694634
 11
4.41454894
 21
5.0653262212
  0
LINE
  5
50D
100
AcDbEntity
  8
02___PRT_ALL_AXES
100
AcDbLine
 62
7
  6
CONTINUOUS
 10
4.41454894
 20
5.0170297455
 11
4.41454894
 21
5.0062711031
  0
LINE
  5
50E
100
AcDbEntity
  8
02___PRT_ALL_AXES
100
AcDbLine
 62
7
  6
CONTINUOUS
 10
4.41454894
 20
4.9579746273
 11
4.41454894
 21
4.947215985
  0
LINE
  5
50F
100
AcDbEntity
  8
02___PRT_ALL_AXES
100
AcDbLine
 62
7
  6
CONTINUOUS
 10
4.41454894
 20
4.8989195092
 11
4.41454894
 21
4.8881608669
  0
LINE
  5
510
100
AcDbEntity
  8
02___PRT_ALL_AXES
100
AcDbLine
 62
7
  6
CONTINUOUS
 10
4.41454894
 20
4.8398643911
 11
4.41454894
 21
4.8291057488
  0
LINE
  5
511
100
AcDbEntity
  8
02___PRT_ALL_AXES
100
AcDbLine
 62
7
  6
CONTINUOUS
 10
4.41454894
 20
4.780809273
 11
4.41454894
 21
4.7700506307
  0
LINE
  5
512
100
AcDbEntity
  8
02___PRT_ALL_AXES
100
AcDbLine
 62
7
  6
CONTINUOUS
 10
4.41454894
 20
4.7217541549
 11
4.41454894
 21
4.7109955126
  0
LINE
  5
513
100
AcDbEntity
  8
02___PRT_ALL_AXES
100
AcDbLine
 62
7
  6
CONTINUOUS
 10
4.41454894
 20
4.6626990368
 11
4.41454894
 21
4.6519403945
  0
LINE
  5
514
100
AcDbEntity
  8
02___PRT_ALL_AXES
100
AcDbLine
 62
7
  6
CONTINUOUS
 10
4.41454894
 20
4.6036439187
 11
4.41454894
 21
4.5928852763
  0
LINE
  5
515
100
AcDbEntity
  8
02___PRT_ALL_AXES
100
AcDbLine
 62
7
  6
CONTINUOUS
 10
4.41454894
 20
4.5445888006
 11
4.41454894
 21
4.5338301582
  0
LINE
  5
516
100
AcDbEntity
  8
02___PRT_ALL_AXES
100
AcDbLine
 62
7
  6
CONTINUOUS
 10
4.41454894
 20
4.4855336825
 11
4.41454894
 21
4.4747750401
  0
LINE
  5
517
100
AcDbEntity
  8
0
100
AcDbLine
 62
7
  6
CONTINUOUS
 10
4.41454894
 20
4.4264785644
 11
4.41454894
 21
4.3835080461
  0
LINE
  5
518
100
AcDbEntity
  8
02___PRT_ALL_AXES
100
AcDbLine
 62
7
  6
CENTER
 10
4.5182463195
 20
2.2750378629
 11
4.5182463195
 21
5.8811458414
  0
LINE
  5
519
100
AcDbEntity
  8
02___PRT_ALL_AXES
100
AcDbLine
 62
7
  6
CONTINUOUS
 10
5.1046347347
 20
4.8766035787
 11
5.1048604927
 21
4.8768643453
  0
LINE
  5
51A
100
AcDbEntity
  8
02___PRT_ALL_AXES
100
AcDbLine
 62
7
  6
CONTINUOUS
 10
5.1046347347
 20
4.8175484606
 11
5.1048604927
 21
4.8178092272
  0
LINE
  5
51B
100
AcDbEntity
  8
02___PRT_ALL_AXES
100
AcDbLine
 62
7
  6
CONTINUOUS
 10
5.1046347347
 20
4.7584933425
 11
5.1048604927
 21
4.7587541091
  0
LINE
  5
51C
100
AcDbEntity
  8
0
100
AcDbLine
 62
7
  6
CONTINUOUS
 10
5.0691871692
 20
4.5017988229
 11
5.1046347347
 21
4.5222728701
  0
LINE
  5
51D
100
AcDbEntity
  8
0
100
AcDbLine
 62
7
  6
CONTINUOUS
 10
5.0691871692
 20
4.4427437048
 11
5.1046347347
 21
4.463217752
  0
LINE
  5
51E
100
AcDbEntity
  8
02___PRT_ALL_AXES
100
AcDbLine
 62
7
  6
CONTINUOUS
 10
3.9318579042
 20
4.6108555472
 11
3.9316321462
 21
4.6111163138
  0
LINE
  5
51F
100
AcDbEntity
  8
02___PRT_ALL_AXES
100
AcDbLine
 62
7
  6
CONTINUOUS
 10
3.9318579042
 20
4.6699106654
 11
3.9316321462
 21
4.6701714319
  0
LINE
  5
520
100
AcDbEntity
  8
02___PRT_ALL_AXES
100
AcDbLine
 62
7
  6
CONTINUOUS
 10
3.9318579042
 20
4.7289657835
 11
3.9316321462
 21
4.72922655
  0
LINE
  5
521
100
AcDbEntity
  8
0
100
AcDbLine
 62
7
  6
CONTINUOUS
 10
4.6219436989
 20
5.0921694634
 11
4.6219436989
 21
5.0098288664
  0
LINE
  5
522
100
AcDbEntity
  8
02___PRT_ALL_AXES
100
AcDbLine
 62
7
  6
CONTINUOUS
 10
4.6219436989
 20
4.9615323907
 11
4.6219436989
 21
4.9507737483
  0
LINE
  5
523
100
AcDbEntity
  8
02___PRT_ALL_AXES
100
AcDbLine
 62
7
  6
CONTINUOUS
 10
4.6219436989
 20
4.9024772725
 11
4.6219436989
 21
4.8917186302
  0
LINE
  5
524
100
AcDbEntity
  8
02___PRT_ALL_AXES
100
AcDbLine
 62
7
  6
CONTINUOUS
 10
4.6219436989
 20
4.8434221544
 11
4.6219436989
 21
4.8326635121
  0
LINE
  5
525
100
AcDbEntity
  8
02___PRT_ALL_AXES
100
AcDbLine
 62
7
  6
CONTINUOUS
 10
4.6219436989
 20
4.7843670363
 11
4.6219436989
 21
4.773608394
  0
LINE
  5
526
100
AcDbEntity
  8
02___PRT_ALL_AXES
100
AcDbLine
 62
7
  6
CONTINUOUS
 10
4.6219436989
 20
4.7253119182
 11
4.6219436989
 21
4.7145532759
  0
LINE
  5
527
100
AcDbEntity
  8
02___PRT_ALL_AXES
100
AcDbLine
 62
7
  6
CONTINUOUS
 10
4.6219436989
 20
4.6662568001
 11
4.6219436989
 21
4.6554981578
  0
LINE
  5
528
100
AcDbEntity
  8
02___PRT_ALL_AXES
100
AcDbLine
 62
7
  6
CONTINUOUS
 10
4.6219436989
 20
4.607201682
 11
4.6219436989
 21
4.5964430397
  0
LINE
  5
529
100
AcDbEntity
  8
02___PRT_ALL_AXES
100
AcDbLine
 62
7
  6
CONTINUOUS
 10
4.6219436989
 20
4.5481465639
 11
4.6219436989
 21
4.5373879215
  0
LINE
  5
52A
100
AcDbEntity
  8
02___PRT_ALL_AXES
100
AcDbLine
 62
7
  6
CONTINUOUS
 10
4.6219436989
 20
4.4890914458
 11
4.6219436989
 21
4.4783328034
  0
LINE
  5
52B
100
AcDbEntity
  8
0
100
AcDbLine
 62
7
  6
CONTINUOUS
 10
4.6219436989
 20
4.4300363277
 11
4.6219436989
 21
4.3835080461
  0
LINE
  5
52C
100
AcDbEntity
  8
02___PRT_ALL_AXES
100
AcDbLine
 62
7
  6
CONTINUOUS
 10
4.6307463195
 20
2.3009883611
 11
4.6307463195
 21
4.3441379674
  0
LWPOLYLINE
  5
52D
100
AcDbEntity
  8
0
100
AcDbPolyline
 62
7
  6
CONTINUOUS
 90
6
 70
0
 10
4.6219436989
 20
5.0921694634
 10
4.6221272794
 20
5.1043629777
 10
4.6226573458
 20
5.1153458
 10
4.6234760723
 20
5.1240458645
 10
4.6244968805
 20
5.1296212444
 10
4.6256155332
 20
5.1315395422
  0
LWPOLYLINE
  5
52E
100
AcDbEntity
  8
0
100
AcDbPolyline
 62
7
  6
CONTINUOUS
 90
6
 70
0
 10
4.6219436989
 20
4.3835080461
 10
4.6217596817
 20
4.3713109431
 10
4.6212247222
 20
4.3603261887
 10
4.6203877118
 20
4.3516269293
 10
4.6193254937
 20
4.3460544244
 10
4.6181369845
 20
4.3441379674
  0
LINE
  5
52F
100
AcDbEntity
  8
02___PRT_ALL_AXES
100
AcDbLine
 62
7
  6
CONTINUOUS
 10
5.1046347347
 20
4.6994382244
 11
5.1048604927
 21
4.699698991
  0
LINE
  5
530
100
AcDbEntity
  8
02___PRT_ALL_AXES
100
AcDbLine
 62
7
  6
CONTINUOUS
 10
5.1046347347
 20
4.6403831063
 11
5.1048604927
 21
4.6406438729
  0
LINE
  5
531
100
AcDbEntity
  8
02___PRT_ALL_AXES
100
AcDbLine
 62
7
  6
CONTINUOUS
 10
5.1046347347
 20
4.5813279882
 11
5.1048604927
 21
4.5815887548
  0
LINE
  5
532
100
AcDbEntity
  8
02___PRT_ALL_AXES
100
AcDbLine
 62
7
  6
CONTINUOUS
 10
5.1046347347
 20
4.5222728701
 11
5.1048604927
 21
4.5225336367
  0
LINE
  5
533
100
AcDbEntity
  8
0
100
AcDbLine
 62
7
  6
CONTINUOUS
 10
3.9318579042
 20
4.4336901929
 11
3.9673054697
 21
4.4132161458
  0
LINE
  5
534
100
AcDbEntity
  8
0
100
AcDbLine
 62
7
  6
CONTINUOUS
 10
3.9318579042
 20
4.492745311
 11
3.9673054697
 21
4.4722712639
  0
LINE
  5
535
100
AcDbEntity
  8
0
100
AcDbLine
 62
7
  6
CONTINUOUS
 10
3.9318579042
 20
4.5518004291
 11
3.9673054697
 21
4.531326382
  0
LINE
  5
536
100
AcDbEntity
  8
02___PRT_ALL_AXES
100
AcDbLine
 62
7
  6
CONTINUOUS
 10
3.9318579042
 20
4.7880209016
 11
3.9316321462
 21
4.7882816681
  0
LINE
  5
537
100
AcDbEntity
  8
02___PRT_ALL_AXES
100
AcDbLine
 62
7
  6
CONTINUOUS
 10
3.9318579042
 20
4.8470760197
 11
3.9316321462
 21
4.8473367863
  0
LINE
  5
538
100
AcDbEntity
  8
02___PRT_ALL_AXES
100
AcDbLine
 62
7
  6
CONTINUOUS
 10
3.9318579042
 20
4.9061311378
 11
3.9316321462
 21
4.9063919044
  0
LINE
  5
539
100
AcDbEntity
  8
02___PRT_ALL_AXES
100
AcDbLine
 62
7
  6
CONTINUOUS
 10
3.9318579042
 20
4.9651862559
 11
3.9316321462
 21
4.9654470225
  0
LINE
  5
53A
100
AcDbEntity
  8
0
100
AcDbLine
 62
7
  6
CONTINUOUS
 10
4.7132463195
 20
5.7811458414
 11
4.7132463195
 21
5.7817757626
  0
LINE
  5
53B
100
AcDbEntity
  8
02___PRT_ALL_AXES
100
AcDbLine
 62
7
  6
CONTINUOUS
 10
4.7442302285
 20
4.9913096025
 11
4.7442302285
 21
4.9839277127
  0
LINE
  5
53C
100
AcDbEntity
  8
02___PRT_ALL_AXES
100
AcDbLine
 62
7
  6
CONTINUOUS
 10
4.7442302285
 20
4.9322544843
 11
4.7442302285
 21
4.9248725946
  0
LINE
  5
53D
100
AcDbEntity
  8
02___PRT_ALL_AXES
100
AcDbLine
 62
7
  6
CONTINUOUS
 10
4.7442302285
 20
4.8731993662
 11
4.7442302285
 21
4.8658174765
  0
LINE
  5
53E
100
AcDbEntity
  8
02___PRT_ALL_AXES
100
AcDbLine
 62
7
  6
CONTINUOUS
 10
4.7442302285
 20
4.8141442481
 11
4.7442302285
 21
4.8067623584
  0
LINE
  5
53F
100
AcDbEntity
  8
02___PRT_ALL_AXES
100
AcDbLine
 62
7
  6
CONTINUOUS
 10
4.7442302285
 20
4.75508913
 11
4.7442302285
 21
4.7477072403
  0
LINE
  5
540
100
AcDbEntity
  8
02___PRT_ALL_AXES
100
AcDbLine
 62
7
  6
CONTINUOUS
 10
4.7442302285
 20
4.6960340119
 11
4.7442302285
 21
4.6886521221
  0
LINE
  5
541
100
AcDbEntity
  8
02___PRT_ALL_AXES
100
AcDbLine
 62
7
  6
CONTINUOUS
 10
4.7442302285
 20
4.6369788938
 11
4.7442302285
 21
4.629597004
  0
LINE
  5
542
100
AcDbEntity
  8
02___PRT_ALL_AXES
100
AcDbLine
 62
7
  6
CONTINUOUS
 10
4.7442302285
 20
4.5779237757
 11
4.7442302285
 21
4.5705418859
  0
LINE
  5
543
100
AcDbEntity
  8
02___PRT_ALL_AXES
100
AcDbLine
 62
7
  6
CONTINUOUS
 10
4.7442302285
 20
4.5188686576
 11
4.7442302285
 21
4.5114867678
  0
LINE
  5
544
100
AcDbEntity
  8
02___PRT_ALL_AXES
100
AcDbLine
 62
7
  6
CONTINUOUS
 10
4.7442302285
 20
4.4598135395
 11
4.7442302285
 21
4.4524316497
  0
LINE
  5
545
100
AcDbEntity
  8
02___PRT_ALL_AXES
100
AcDbLine
 62
7
  6
CONTINUOUS
 10
5.1046347347
 20
4.463217752
 11
5.1048604927
 21
4.4634785185
  0
LINE
  5
546
100
AcDbEntity
  8
0
100
AcDbLine
 62
7
  6
CONTINUOUS
 10
5.0300573431
 20
4.3441379674
 11
4.0064352958
 21
4.3441379674
  0
LINE
  5
547
100
AcDbEntity
  8
0
100
AcDbLine
 62
7
  6
CONTINUOUS
 10
3.9318579042
 20
4.6108555472
 11
3.9673054697
 21
4.5903815001
  0
LINE
  5
548
100
AcDbEntity
  8
0
100
AcDbLine
 62
7
  6
CONTINUOUS
 10
3.9318579042
 20
4.6699106654
 11
3.9673054697
 21
4.6494366182
  0
LINE
  5
549
100
AcDbEntity
  8
0
100
AcDbLine
 62
7
  6
CONTINUOUS
 10
3.9318579042
 20
4.7289657835
 11
3.9673054697
 21
4.7084917363
  0
LINE
  5
54A
100
AcDbEntity
  8
02___PRT_ALL_AXES
100
AcDbLine
 62
7
  6
CONTINUOUS
 10
3.9318579042
 20
5.024241374
 11
3.9316321462
 21
5.0245021406
  0
LWPOLYLINE
  5
54B
100
AcDbEntity
  8
02___PRT_ALL_AXES
100
AcDbPolyline
 62
7
  6
CONTINUOUS
 90
10
 70
0
 10
5.0694274218
 20
4.6094279938
 10
5.0631181927
 20
4.6080044659
 10
5.0441162227
 20
4.6065685171
 10
5.012734538
 20
4.60512758
 10
4.9691374612
 20
4.6036683579
 10
4.9146072841
 20
4.6022070086
 10
4.8512909203
 20
4.6007622606
 10
4.7809290923
 20
4.5993331833
 10
4.7038856027
 20
4.5978928648
 10
4.6219436989
 20
4.5964430397
  0
LWPOLYLINE
  5
54C
100
AcDbEntity
  8
02___PRT_ALL_AXES
100
AcDbPolyline
 62
7
  6
CONTINUOUS
 90
10
 70
0
 10
5.0694274218
 20
4.4913176485
 10
5.0628998385
 20
4.489869759
 10
5.043780143
 20
4.4884392112
 10
5.0122302872
 20
4.4869979191
 10
4.9684729854
 20
4.4855384504
 10
4.913804158
 20
4.4840770854
 10
4.8503976393
 20
4.482632922
 10
4.7796929999
 20
4.4811989873
 10
4.7030400243
 20
4.4797673192
 10
4.6219436989
 20
4.4783328034
  0
LWPOLYLINE
  5
54D
100
AcDbEntity
  8
02___PRT_ALL_AXES
100
AcDbPolyline
 62
7
  6
CONTINUOUS
 90
6
 70
0
 10
5.0694274218
 20
4.5503728194
 10
5.0628003838
 20
4.5489138663
 10
5.0433946405
 20
4.5474726048
 10
5.0119395616
 20
4.5460418748
 10
4.9691231385
 20
4.5446128151
 10
4.9156160105
 20
4.5431766779
  0
LWPOLYLINE
  5
54E
100
AcDbEntity
  8
02___PRT_ALL_AXES
100
AcDbPolyline
 62
7
  6
CONTINUOUS
 90
4
 70
0
 10
4.7442302285
 20
4.4524316497
 10
4.7032901228
 20
4.4434258272
 10
4.6625020954
 20
4.4359293303
 10
4.6219436989
 20
4.4300363277
  0
LWPOLYLINE
  5
54F
100
AcDbEntity
  8
02___PRT_ALL_AXES
100
AcDbPolyline
 62
7
  6
CONTINUOUS
 90
4
 70
0
 10
4.7442302285
 20
4.5114867678
 10
4.7032531488
 20
4.5024734664
 10
4.6624728549
 20
4.4949796277
 10
4.6219436989
 20
4.4890914458
  0
LWPOLYLINE
  5
550
100
AcDbEntity
  8
02___PRT_ALL_AXES
100
AcDbPolyline
 62
7
  6
CONTINUOUS
 90
9
 70
0
 10
4.7442302285
 20
4.4524316497
 10
4.825948056
 20
4.4539045655
 10
4.9001246657
 20
4.4553774814
 10
4.9649421218
 20
4.4568503972
 10
5.0188118648
 20
4.4583233131
 10
5.0604136438
 20
4.4597962289
 10
5.0887278738
 20
4.4612691448
 10
5.1030606238
 20
4.4627420606
 10
5.1046347347
 20
4.463217752
  0
LWPOLYLINE
  5
551
100
AcDbEntity
  8
02___PRT_ALL_AXES
100
AcDbPolyline
 62
7
  6
CONTINUOUS
 90
9
 70
0
 10
4.7442302285
 20
4.4598135395
 10
4.825948056
 20
4.4612864553
 10
4.9001246657
 20
4.4627593712
 10
4.9649421218
 20
4.464232287
 10
5.0188118648
 20
4.4657052028
 10
5.0604136438
 20
4.4671781187
 10
5.0887278738
 20
4.4686510345
 10
5.1030606238
 20
4.4701239504
 10
5.1048604927
 20
4.4708604083
  0
LWPOLYLINE
  5
552
100
AcDbEntity
  8
02___PRT_ALL_AXES
100
AcDbPolyline
 62
7
  6
CONTINUOUS
 90
10
 70
0
 10
4.6219436989
 20
4.4300363277
 10
4.7030400243
 20
4.4314708435
 10
4.7796929999
 20
4.4329025116
 10
4.8503976393
 20
4.4343364463
 10
4.913804158
 20
4.4357806096
 10
4.9684729854
 20
4.4372419746
 10
5.0122302872
 20
4.4387014434
 10
5.043780143
 20
4.4401427354
 10
5.0628998385
 20
4.4415732832
 10
5.0691871692
 20
4.4427437048
  0
LWPOLYLINE
  5
553
100
AcDbEntity
  8
02___PRT_ALL_AXES
100
AcDbPolyline
 62
7
  6
CONTINUOUS
 90
10
 70
0
 10
4.41454894
 20
4.4747750401
 10
4.3321251065
 20
4.4733164856
 10
4.2544006122
 20
4.4718623246
 10
4.1838373602
 20
4.4704265862
 10
4.1214500025
 20
4.4690003816
 10
4.0680602836
 20
4.4675705941
 10
4.0248267767
 20
4.4661315713
 10
3.9932443325
 20
4.4646985622
 10
3.9737884021
 20
4.4632596622
 10
3.9673054697
 20
4.4620676629
  0
LINE
  5
554
100
AcDbEntity
  8
0
100
AcDbLine
 62
9
  6
CONTINUOUS
 10
3.9670652171
 20
4.3835080461
 11
5.0694274218
 21
4.3835080461
  0
LWPOLYLINE
  5
555
100
AcDbEntity
  8
02___PRT_ALL_AXES
100
AcDbPolyline
 62
7
  6
CONTINUOUS
 90
5
 70
0
 10
4.41454894
 20
4.4855336825
 10
4.384296615
 20
4.4887760171
 10
4.3531166183
 20
4.4930647168
 10
4.3220389146
 20
4.4982576687
 10
4.2922624104
 20
4.5040529464
  0
LWPOLYLINE
  5
556
100
AcDbEntity
  8
02___PRT_ALL_AXES
100
AcDbPolyline
 62
7
  6
CONTINUOUS
 90
4
 70
0
 10
4.41454894
 20
4.4264785644
 10
4.3740206685
 20
4.431029862
 10
4.3332371902
 20
4.4372283624
 10
4.2922624104
 20
4.4449978283
  0
LINE
  5
557
100
AcDbEntity
  8
0
100
AcDbLine
 62
7
  6
CONTINUOUS
 10
3.9318579042
 20
4.7880209016
 11
3.9673054697
 21
4.7675468544
  0
LINE
  5
558
100
AcDbEntity
  8
0
100
AcDbLine
 62
7
  6
CONTINUOUS
 10
3.9318579042
 20
4.8470760197
 11
3.9673054697
 21
4.8266019726
  0
LINE
  5
559
100
AcDbEntity
  8
02___PRT_ALL_AXES
100
AcDbLine
 62
7
  6
CONTINUOUS
 10
5.0694274218
 20
5.0921694634
 11
5.0694274218
 21
5.0228137643
  0
LINE
  5
55A
100
AcDbEntity
  8
02___PRT_ALL_AXES
100
AcDbLine
 62
7
  6
CONTINUOUS
 10
5.0694274218
 20
4.9745172885
 11
5.0694274218
 21
4.9637586462
  0
LINE
  5
55B
100
AcDbEntity
  8
02___PRT_ALL_AXES
100
AcDbLine
 62
7
  6
CONTINUOUS
 10
5.0694274218
 20
4.9154621704
 11
5.0694274218
 21
4.9047035281
  0
LINE
  5
55C
100
AcDbEntity
  8
02___PRT_ALL_AXES
100
AcDbLine
 62
7
  6
CONTINUOUS
 10
5.0694274218
 20
4.8564070523
 11
5.0694274218
 21
4.84564841
  0
LINE
  5
55D
100
AcDbEntity
  8
02___PRT_ALL_AXES
100
AcDbLine
 62
7
  6
CONTINUOUS
 10
5.0694274218
 20
4.7973519342
 11
5.0694274218
 21
4.7865932919
  0
LINE
  5
55E
100
AcDbEntity
  8
02___PRT_ALL_AXES
100
AcDbLine
 62
7
  6
CONTINUOUS
 10
5.0694274218
 20
4.7382968161
 11
5.0694274218
 21
4.7275381737
  0
LINE
  5
55F
100
AcDbEntity
  8
02___PRT_ALL_AXES
100
AcDbLine
 62
7
  6
CONTINUOUS
 10
5.0694274218
 20
4.679241698
 11
5.0694274218
 21
4.6684830556
  0
LINE
  5
560
100
AcDbEntity
  8
02___PRT_ALL_AXES
100
AcDbLine
 62
7
  6
CONTINUOUS
 10
5.0694274218
 20
4.6201865799
 11
5.0694274218
 21
4.6094279375
  0
LINE
  5
561
100
AcDbEntity
  8
02___PRT_ALL_AXES
100
AcDbLine
 62
7
  6
CONTINUOUS
 10
5.0694274218
 20
4.5611314618
 11
5.0694274218
 21
4.5503728194
  0
LINE
  5
562
100
AcDbEntity
  8
02___PRT_ALL_AXES
100
AcDbLine
 62
7
  6
CONTINUOUS
 10
5.0694274218
 20
4.5020763436
 11
5.0694274218
 21
4.4913177013
  0
LINE
  5
563
100
AcDbEntity
  8
02___PRT_ALL_AXES
100
AcDbLine
 62
7
  6
CONTINUOUS
 10
5.0694274218
 20
4.4430212255
 11
5.0694274218
 21
4.3835080461
  0
LWPOLYLINE
  5
564
100
AcDbEntity
  8
02___PRT_ALL_AXES
100
AcDbPolyline
 62
7
  6
CONTINUOUS
 90
5
 70
0
 10
4.2922624104
 20
4.5114348362
 10
4.3220548105
 20
4.5181308967
 10
4.3529913449
 20
4.5242682425
 10
4.3841241496
 20
4.529559057
 10
4.41454894
 20
4.5338301582
  0
LWPOLYLINE
  5
565
100
AcDbEntity
  8
02___PRT_ALL_AXES
100
AcDbPolyline
 62
7
  6
CONTINUOUS
 90
10
 70
0
 10
5.0694274218
 20
4.727538197
 10
5.0630453316
 20
4.7261064905
 10
5.0439675048
 20
4.7246702997
 10
5.0126549016
 20
4.7232347431
 10
4.969291902
 20
4.7217831746
 10
4.9151876716
 20
4.7203314984
 10
4.852511643
 20
4.718898649
 10
4.7819635819
 20
4.7174634969
 10
4.7042973593
 20
4.7160105591
 10
4.6219436989
 20
4.7145532759
  0
LWPOLYLINE
  5
566
100
AcDbEntity
  8
02___PRT_ALL_AXES
100
AcDbPolyline
 62
7
  6
CONTINUOUS
 90
10
 70
0
 10
5.0694274218
 20
4.6684830554
 10
5.0629303865
 20
4.667038512
 10
5.043680757
 20
4.6655989496
 10
5.0124915498
 20
4.6641733276
 10
4.9694482417
 20
4.6627326965
 10
4.9155189683
 20
4.6612845265
 10
4.8526884839
 20
4.659847324
 10
4.7820781157
 20
4.6584106031
 10
4.7043588361
 20
4.6569565547
 10
4.6219436989
 20
4.6554981578
  0
LWPOLYLINE
  5
567
100
AcDbEntity
  8
02___PRT_ALL_AXES
100
AcDbPolyline
 62
7
  6
CONTINUOUS
 90
4
 70
0
 10
4.2922624104
 20
4.4523797181
 10
4.3332333362
 20
4.4613917748
 10
4.3740131648
 20
4.468885767
 10
4.41454894
 20
4.4747750401
  0
LWPOLYLINE
  5
568
100
AcDbEntity
  8
02___PRT_ALL_AXES
100
AcDbPolyline
 62
7
  6
CONTINUOUS
 90
4
 70
0
 10
4.7442302285
 20
4.5705418859
 10
4.7032531488
 20
4.5615285845
 10
4.6624728549
 20
4.5540347458
 10
4.6219436989
 20
4.5481465639
  0
LWPOLYLINE
  5
569
100
AcDbEntity
  8
02___PRT_ALL_AXES
100
AcDbPolyline
 62
7
  6
CONTINUOUS
 90
4
 70
0
 10
4.7442302285
 20
4.629597004
 10
4.7032531488
 20
4.6205837026
 10
4.6624728549
 20
4.613089864
 10
4.6219436989
 20
4.607201682
  0
LWPOLYLINE
  5
56A
100
AcDbEntity
  8
02___PRT_ALL_AXES
100
AcDbPolyline
 62
7
  6
CONTINUOUS
 90
4
 70
0
 10
4.2922624104
 20
4.5704899543
 10
4.3332333362
 20
4.579502011
 10
4.3740131648
 20
4.5869960032
 10
4.41454894
 20
4.5928852763
  0
LWPOLYLINE
  5
56B
100
AcDbEntity
  8
02___PRT_ALL_AXES
100
AcDbPolyline
 62
7
  6
CONTINUOUS
 90
10
 70
0
 10
3.9670652171
 20
4.4725488079
 10
3.9737397964
 20
4.4740129721
 10
3.9929408871
 20
4.4754401645
 10
4.0244797711
 20
4.4768769171
 10
4.0681396184
 20
4.4783315808
 10
4.1226387679
 20
4.4797881831
 10
4.1858053235
 20
4.4812273725
 10
4.2564210962
 20
4.4826601646
 10
4.3335213869
 20
4.4841004114
 10
4.41454894
 20
4.4855336825
  0
LWPOLYLINE
  5
56C
100
AcDbEntity
  8
02___PRT_ALL_AXES
100
AcDbPolyline
 62
7
  6
CONTINUOUS
 90
10
 70
0
 10
3.9670652171
 20
4.4134936663
 10
3.9737884021
 20
4.4149631864
 10
3.9932443325
 20
4.4164020864
 10
4.0248267767
 20
4.4178350955
 10
4.0680602836
 20
4.4192741184
 10
4.1214500025
 20
4.4207039058
 10
4.1838373602
 20
4.4221301104
 10
4.2544006122
 20
4.4235658488
 10
4.3321251065
 20
4.4250200098
 10
4.41454894
 20
4.4264785644
  0
LINE
  5
56D
100
AcDbEntity
  8
02___PRT_ALL_AXES
100
AcDbLine
 62
7
  6
CONTINUOUS
 10
4.9156160105
 20
4.5431766779
 11
4.8529716028
 21
4.541743163
  0
LWPOLYLINE
  5
56E
100
AcDbEntity
  8
02___PRT_ALL_AXES
100
AcDbPolyline
 62
7
  6
CONTINUOUS
 90
7
 70
0
 10
4.8526884839
 20
4.6115508482
 10
4.9155189683
 20
4.6129880508
 10
4.9694482417
 20
4.6144362208
 10
5.0124915498
 20
4.6158768518
 10
5.043680757
 20
4.6173024738
 10
5.0629303865
 20
4.6187420363
 10
5.0691871692
 20
4.6199090592
  0
LINE
  5
56F
100
AcDbEntity
  8
02___PRT_ALL_AXES
100
AcDbLine
 62
7
  6
CONTINUOUS
 10
4.8529716028
 20
4.541743163
 11
4.7823080564
 21
4.5403048334
  0
LINE
  5
570
100
AcDbEntity
  8
02___PRT_ALL_AXES
100
AcDbLine
 62
7
  6
CONTINUOUS
 10
4.1839748802
 20
4.5402432963
 11
4.2545264559
 21
4.541678529
  0
LWPOLYLINE
  5
571
100
AcDbEntity
  8
02___PRT_ALL_AXES
100
AcDbPolyline
 62
7
  6
CONTINUOUS
 90
3
 70
0
 10
4.7823080564
 20
4.5403048334
 10
4.704483319
 20
4.5388485738
 10
4.6219436989
 20
4.5373879215
  0
LWPOLYLINE
  5
572
100
AcDbEntity
  8
02___PRT_ALL_AXES
100
AcDbPolyline
 62
7
  6
CONTINUOUS
 90
3
 70
0
 10
4.2545264559
 20
4.541678529
 10
4.3321914854
 20
4.5431314486
 10
4.41454894
 20
4.5445888006
  0
LWPOLYLINE
  5
573
100
AcDbEntity
  8
02___PRT_ALL_AXES
100
AcDbPolyline
 62
7
  6
CONTINUOUS
 90
9
 70
0
 10
4.7442302285
 20
4.5114867678
 10
4.825948056
 20
4.5129596837
 10
4.9001246657
 20
4.5144325995
 10
4.9649421218
 20
4.5159055153
 10
5.0188118648
 20
4.5173784312
 10
5.0604136438
 20
4.518851347
 10
5.0887278738
 20
4.5203242629
 10
5.1030606238
 20
4.5217971787
 10
5.1046347347
 20
4.5222728701
  0
LWPOLYLINE
  5
574
100
AcDbEntity
  8
02___PRT_ALL_AXES
100
AcDbPolyline
 62
7
  6
CONTINUOUS
 90
9
 70
0
 10
4.7442302285
 20
4.5188686576
 10
4.825948056
 20
4.5203415734
 10
4.9001246657
 20
4.5218144893
 10
4.9649421218
 20
4.5232874051
 10
5.0188118648
 20
4.524760321
 10
5.0604136438
 20
4.5262332368
 10
5.0887278738
 20
4.5277061526
 10
5.1030606238
 20
4.5291790685
 10
5.1048604927
 20
4.5299155264
  0
LWPOLYLINE
  5
575
100
AcDbEntity
  8
02___PRT_ALL_AXES
100
AcDbPolyline
 62
7
  6
CONTINUOUS
 90
9
 70
0
 10
4.7442302285
 20
4.5705418859
 10
4.825948056
 20
4.5720148018
 10
4.9001246657
 20
4.5734877176
 10
4.9649421218
 20
4.5749606335
 10
5.0188118648
 20
4.5764335493
 10
5.0604136438
 20
4.5779064651
 10
5.0887278738
 20
4.579379381
 10
5.1030606238
 20
4.5808522968
 10
5.1046347347
 20
4.5813279882
  0
LWPOLYLINE
  5
576
100
AcDbEntity
  8
02___PRT_ALL_AXES
100
AcDbPolyline
 62
7
  6
CONTINUOUS
 90
9
 70
0
 10
4.7442302285
 20
4.5779237757
 10
4.825948056
 20
4.5793966915
 10
4.9001246657
 20
4.5808696074
 10
4.9649421218
 20
4.5823425232
 10
5.0188118648
 20
4.5838154391
 10
5.0604136438
 20
4.5852883549
 10
5.0887278738
 20
4.5867612708
 10
5.1030606238
 20
4.5882341866
 10
5.1048604927
 20
4.5889706445
  0
LWPOLYLINE
  5
577
100
AcDbEntity
  8
02___PRT_ALL_AXES
100
AcDbPolyline
 62
7
  6
CONTINUOUS
 90
10
 70
0
 10
4.6219436989
 20
4.4890914458
 10
4.704483319
 20
4.490552098
 10
4.7823080564
 20
4.4920083576
 10
4.8529716028
 20
4.4934466872
 10
4.9156160105
 20
4.4948802021
 10
4.9691231385
 20
4.4963163394
 10
5.0119395616
 20
4.497745399
 10
5.0433946405
 20
4.499176129
 10
5.0628003838
 20
4.5006173905
 10
5.0691871692
 20
4.5017988229
  0
LWPOLYLINE
  5
578
100
AcDbEntity
  8
02___PRT_ALL_AXES
100
AcDbPolyline
 62
7
  6
CONTINUOUS
 90
10
 70
0
 10
4.41454894
 20
4.5338301582
 10
4.3335213869
 20
4.5323968872
 10
4.2564210962
 20
4.5309566404
 10
4.1858053235
 20
4.5295238483
 10
4.1226387679
 20
4.5280846589
 10
4.0681396184
 20
4.5266280566
 10
4.0244797711
 20
4.5251733929
 10
3.9929408871
 20
4.5237366403
 10
3.9737397964
 20
4.5223094479
 10
3.9673054697
 20
4.5211227811
  0
LWPOLYLINE
  5
579
100
AcDbEntity
  8
02___PRT_ALL_AXES
100
AcDbPolyline
 62
7
  6
CONTINUOUS
 90
10
 70
0
 10
4.6219436989
 20
4.5481465639
 10
4.7038856027
 20
4.549596389
 10
4.7809290923
 20
4.5510367075
 10
4.8512909203
 20
4.5524657848
 10
4.9146072841
 20
4.5539105328
 10
4.9691374612
 20
4.5553718821
 10
5.012734538
 20
4.5568311042
 10
5.0441162227
 20
4.5582720414
 10
5.0631181927
 20
4.5597079902
 10
5.0691871692
 20
4.5608539411
  0
LWPOLYLINE
  5
57A
100
AcDbEntity
  8
02___PRT_ALL_AXES
100
AcDbPolyline
 62
7
  6
CONTINUOUS
 90
10
 70
0
 10
4.41454894
 20
4.5928852763
 10
4.3321914854
 20
4.5914279243
 10
4.2545264559
 20
4.5899750048
 10
4.1839748802
 20
4.5885397721
 10
4.1212659052
 20
4.5871060937
 10
4.0671442646
 20
4.5856537019
 10
4.0237851226
 20
4.584201779
 10
3.9924878238
 20
4.5827661339
 10
3.9734287359
 20
4.5813299731
 10
3.9673054697
 20
4.5801778992
  0
LWPOLYLINE
  5
57B
100
AcDbEntity
  8
02___PRT_ALL_AXES
100
AcDbPolyline
 62
7
  6
CONTINUOUS
 90
4
 70
0
 10
4.6219436989
 20
4.607201682
 10
4.7043588361
 20
4.608660079
 10
4.7820781157
 20
4.6101141274
 10
4.8526884839
 20
4.6115508482
  0
LWPOLYLINE
  5
57C
100
AcDbEntity
  8
02___PRT_ALL_AXES
100
AcDbPolyline
 62
7
  6
CONTINUOUS
 90
4
 70
0
 10
4.6219436989
 20
4.4783328034
 10
4.6625115161
 20
4.4737762683
 10
4.7033030521
 20
4.4675748562
 10
4.7442302285
 20
4.4598135395
  0
LWPOLYLINE
  5
57D
100
AcDbEntity
  8
02___PRT_ALL_AXES
100
AcDbPolyline
 62
7
  6
CONTINUOUS
 90
4
 70
0
 10
4.41454894
 20
4.5445888006
 10
4.3740206685
 20
4.5491400982
 10
4.3332371902
 20
4.5553385986
 10
4.2922624104
 20
4.5631080645
  0
LWPOLYLINE
  5
57E
100
AcDbEntity
  8
02___PRT_ALL_AXES
100
AcDbPolyline
 62
7
  6
CONTINUOUS
 90
4
 70
0
 10
4.6219436989
 20
4.5373879215
 10
4.6624788904
 20
4.5328357075
 10
4.7032618462
 20
4.5266370285
 10
4.7442302285
 20
4.5188686576
  0
LWPOLYLINE
  5
57F
100
AcDbEntity
  8
02___PRT_ALL_AXES
100
AcDbPolyline
 62
7
  6
CONTINUOUS
 90
4
 70
0
 10
4.41454894
 20
4.6036439187
 10
4.3740206685
 20
4.6081952163
 10
4.3332371902
 20
4.6143937167
 10
4.2922624104
 20
4.6221631827
  0
LWPOLYLINE
  5
580
100
AcDbEntity
  8
02___PRT_ALL_AXES
100
AcDbPolyline
 62
7
  6
CONTINUOUS
 90
4
 70
0
 10
4.6219436989
 20
4.5964430397
 10
4.6624788904
 20
4.5918908256
 10
4.7032618462
 20
4.5856921466
 10
4.7442302285
 20
4.5779237757
  0
LINE
  5
581
100
AcDbEntity
  8
0
100
AcDbLine
 62
7
  6
CONTINUOUS
 10
3.9318579042
 20
4.9061311378
 11
3.9673054697
 21
4.8856570907
  0
LINE
  5
582
100
AcDbEntity
  8
0
100
AcDbLine
 62
7
  6
CONTINUOUS
 10
3.9318579042
 20
4.9651862559
 11
3.9673054697
 21
4.9447122088
  0
LINE
  5
583
100
AcDbEntity
  8
0
100
AcDbLine
 62
7
  6
CONTINUOUS
 10
3.9318579042
 20
5.024241374
 11
3.9673054697
 21
5.0037673269
  0
LINE
  5
584
100
AcDbEntity
  8
0
100
AcDbLine
 62
7
  6
CONTINUOUS
 10
5.1048604927
 20
4.4634785185
 11
5.1048604927
 21
4.4708604083
  0
LINE
  5
585
100
AcDbEntity
  8
0
100
AcDbLine
 62
7
  6
CONTINUOUS
 10
5.1048604927
 20
4.5225336367
 11
5.1048604927
 21
4.5299155264
  0
LINE
  5
586
100
AcDbEntity
  8
0
100
AcDbLine
 62
7
  6
CONTINUOUS
 10
5.1048604927
 20
4.5815887548
 11
5.1048604927
 21
4.5889706445
  0
LINE
  5
587
100
AcDbEntity
  8
0
100
AcDbLine
 62
7
  6
CONTINUOUS
 10
5.1048604927
 20
4.6406438729
 11
5.1048604927
 21
4.6480257626
  0
LINE
  5
588
100
AcDbEntity
  8
0
100
AcDbLine
 62
7
  6
CONTINUOUS
 10
5.1048604927
 20
4.699698991
 11
5.1048604927
 21
4.7070808807
  0
LINE
  5
589
100
AcDbEntity
  8
0
100
AcDbLine
 62
7
  6
CONTINUOUS
 10
5.1048604927
 20
4.7587541091
 11
5.1048604927
 21
4.7661359989
  0
LINE
  5
58A
100
AcDbEntity
  8
0
100
AcDbLine
 62
7
  6
CONTINUOUS
 10
5.1048604927
 20
4.8178092272
 11
5.1048604927
 21
4.825191117
  0
LINE
  5
58B
100
AcDbEntity
  8
0
100
AcDbLine
 62
7
  6
CONTINUOUS
 10
5.1048604927
 20
4.8768643453
 11
5.1048604927
 21
4.8842462351
  0
LINE
  5
58C
100
AcDbEntity
  8
0
100
AcDbLine
 62
7
  6
CONTINUOUS
 10
5.1048604927
 20
4.9359194634
 11
5.1048604927
 21
4.9433013532
  0
LINE
  5
58D
100
AcDbEntity
  8
0
100
AcDbLine
 62
7
  6
CONTINUOUS
 10
5.1048604927
 20
4.9949745815
 11
5.1048604927
 21
5.0023564713
  0
LWPOLYLINE
  5
58E
100
AcDbEntity
  8
02___PRT_ALL_AXES
100
AcDbPolyline
 62
7
  6
CONTINUOUS
 90
5
 70
0
 10
4.7442302285
 20
4.7477072403
 10
4.7144768726
 20
4.7410194605
 10
4.6834103504
 20
4.7348570631
 10
4.652223431
 20
4.7295605159
 10
4.6219436989
 20
4.7253119182
  0
LWPOLYLINE
  5
58F
100
AcDbEntity
  8
02___PRT_ALL_AXES
100
AcDbPolyline
 62
7
  6
CONTINUOUS
 90
7
 70
0
 10
3.9670652171
 20
4.531603875
 10
3.9734287359
 20
4.5330334973
 10
3.9924878238
 20
4.5344696582
 10
4.0237851226
 20
4.5359053032
 10
4.0671442646
 20
4.5373572262
 10
4.1212659052
 20
4.538809618
 10
4.1839748802
 20
4.5402432963
  0
LWPOLYLINE
  5
590
100
AcDbEntity
  8
02___PRT_ALL_AXES
100
AcDbPolyline
 62
7
  6
CONTINUOUS
 90
10
 70
0
 10
3.9670652171
 20
4.5906590207
 10
3.9735655445
 20
4.5921039311
 10
3.992820726
 20
4.5935436261
 10
4.0240129313
 20
4.594969205
 10
4.067040658
 20
4.5964092689
 10
4.1209565357
 20
4.5978571284
 10
4.1837796168
 20
4.599294226
 10
4.2543945355
 20
4.6007310851
 10
4.3321194383
 20
4.6021852615
 10
4.41454894
 20
4.6036439187
  0
LWPOLYLINE
  5
591
100
AcDbEntity
  8
02___PRT_ALL_AXES
100
AcDbPolyline
 62
7
  6
CONTINUOUS
 90
4
 70
0
 10
4.7442302285
 20
4.6886521221
 10
4.7032531488
 20
4.6796388208
 10
4.6624728549
 20
4.6721449821
 10
4.6219436989
 20
4.6662568001
  0
LWPOLYLINE
  5
592
100
AcDbEntity
  8
02___PRT_ALL_AXES
100
AcDbPolyline
 62
7
  6
CONTINUOUS
 90
4
 70
0
 10
4.2922624104
 20
4.6295450724
 10
4.3332333362
 20
4.6385571291
 10
4.3740131648
 20
4.6460511213
 10
4.41454894
 20
4.6519403945
  0
LWPOLYLINE
  5
593
100
AcDbEntity
  8
02___PRT_ALL_AXES
100
AcDbPolyline
 62
7
  6
CONTINUOUS
 90
4
 70
0
 10
4.2922624104
 20
4.6886001905
 10
4.3332333361
 20
4.6976122472
 10
4.3740131648
 20
4.7051062394
 10
4.41454894
 20
4.7109955126
  0
LWPOLYLINE
  5
594
100
AcDbEntity
  8
02___PRT_ALL_AXES
100
AcDbPolyline
 62
7
  6
CONTINUOUS
 90
4
 70
0
 10
4.7442302285
 20
4.8067623584
 10
4.7032531488
 20
4.797749057
 10
4.6624728549
 20
4.7902552183
 10
4.6219436989
 20
4.7843670363
  0
LWPOLYLINE
  5
595
100
AcDbEntity
  8
02___PRT_ALL_AXES
100
AcDbPolyline
 62
7
  6
CONTINUOUS
 90
7
 70
0
 10
5.0694274218
 20
4.7865932641
 10
5.0627428095
 20
4.7851280021
 10
5.0435398308
 20
4.7837012407
 10
5.0119925316
 20
4.782264379
 10
4.9683230823
 20
4.7808096112
 10
4.9138174016
 20
4.7793530002
 10
4.850646522
 20
4.7779138319
  0
LWPOLYLINE
  5
596
100
AcDbEntity
  8
02___PRT_ALL_AXES
100
AcDbPolyline
 62
7
  6
CONTINUOUS
 90
10
 70
0
 10
5.0694274218
 20
4.8456484098
 10
5.0627056664
 20
4.8441790466
 10
5.0432495169
 20
4.8427400578
 10
5.0116689912
 20
4.8413071006
 10
4.968445696
 20
4.8398683524
 10
4.9150687672
 20
4.8384388126
 10
4.8526747026
 20
4.8370123827
 10
4.7821046688
 20
4.8355764732
 10
4.7043721997
 20
4.8341221512
 10
4.6219436989
 20
4.8326635121
  0
LWPOLYLINE
  5
597
100
AcDbEntity
  8
02___PRT_ALL_AXES
100
AcDbPolyline
 62
7
  6
CONTINUOUS
 90
7
 70
0
 10
4.1837796168
 20
4.6475907018
 10
4.1209565357
 20
4.6461536041
 10
4.067040658
 20
4.6447057447
 10
4.0240129313
 20
4.6432656808
 10
3.992820726
 20
4.6418401019
 10
3.9735655445
 20
4.6404004068
 10
3.9673054697
 20
4.6392330173
  0
LWPOLYLINE
  5
598
100
AcDbEntity
  8
02___PRT_ALL_AXES
100
AcDbPolyline
 62
7
  6
CONTINUOUS
 90
8
 70
0
 10
4.825948056
 20
4.6975069278
 10
4.9001246657
 20
4.6989798436
 10
4.9649421218
 20
4.7004527594
 10
5.0188118648
 20
4.7019256753
 10
5.0604136438
 20
4.7033985911
 10
5.0887278738
 20
4.704871507
 10
5.1030606238
 20
4.7063444228
 10
5.1048604927
 20
4.7070808807
  0
LWPOLYLINE
  5
599
100
AcDbEntity
  8
02___PRT_ALL_AXES
100
AcDbPolyline
 62
7
  6
CONTINUOUS
 90
9
 70
0
 10
4.7442302285
 20
4.629597004
 10
4.825948056
 20
4.6310699199
 10
4.9001246657
 20
4.6325428357
 10
4.9649421218
 20
4.6340157516
 10
5.0188118648
 20
4.6354886674
 10
5.0604136438
 20
4.6369615833
 10
5.0887278738
 20
4.6384344991
 10
5.1030606238
 20
4.6399074149
 10
5.1046347347
 20
4.6403831063
  0
LWPOLYLINE
  5
59A
100
AcDbEntity
  8
02___PRT_ALL_AXES
100
AcDbPolyline
 62
7
  6
CONTINUOUS
 90
9
 70
0
 10
4.7442302285
 20
4.6369788938
 10
4.825948056
 20
4.6384518096
 10
4.9001246657
 20
4.6399247255
 10
4.9649421218
 20
4.6413976413
 10
5.0188118648
 20
4.6428705572
 10
5.0604136438
 20
4.644343473
 10
5.0887278738
 20
4.6458163889
 10
5.1030606238
 20
4.6472893047
 10
5.1048604927
 20
4.6480257626
  0
LWPOLYLINE
  5
59B
100
AcDbEntity
  8
02___PRT_ALL_AXES
100
AcDbPolyline
 62
7
  6
CONTINUOUS
 90
9
 70
0
 10
4.7442302285
 20
4.6886521221
 10
4.825948056
 20
4.690125038
 10
4.9001246657
 20
4.6915979538
 10
4.9649421218
 20
4.6930708697
 10
5.0188118648
 20
4.6945437855
 10
5.0604136438
 20
4.6960167014
 10
5.0887278738
 20
4.6974896172
 10
5.1030606238
 20
4.6989625331
 10
5.1046347347
 20
4.6994382244
  0
LINE
  5
59C
100
AcDbEntity
  8
02___PRT_ALL_AXES
100
AcDbLine
 62
7
  6
CONTINUOUS
 10
4.2105445829
 20
4.6797453849
 11
4.2922624104
 21
4.6812183008
  0
LINE
  5
59D
100
AcDbEntity
  8
02___PRT_ALL_AXES
100
AcDbLine
 62
7
  6
CONTINUOUS
 10
4.7442302285
 20
4.6960340119
 11
4.825948056
 21
4.6975069278
  0
LWPOLYLINE
  5
59E
100
AcDbEntity
  8
02___PRT_ALL_AXES
100
AcDbPolyline
 62
7
  6
CONTINUOUS
 90
9
 70
0
 10
4.7442302285
 20
4.7477072403
 10
4.825948056
 20
4.7491801561
 10
4.9001246657
 20
4.7506530719
 10
4.9649421218
 20
4.7521259878
 10
5.0188118648
 20
4.7535989036
 10
5.0604136438
 20
4.7550718195
 10
5.0887278738
 20
4.7565447353
 10
5.1030606238
 20
4.7580176512
 10
5.1046347347
 20
4.7584933425
  0
LWPOLYLINE
  5
59F
100
AcDbEntity
  8
02___PRT_ALL_AXES
100
AcDbPolyline
 62
7
  6
CONTINUOUS
 90
9
 70
0
 10
4.7442302285
 20
4.75508913
 10
4.825948056
 20
4.7565620459
 10
4.9001246657
 20
4.7580349617
 10
4.9649421218
 20
4.7595078776
 10
5.0188118648
 20
4.7609807934
 10
5.0604136438
 20
4.7624537092
 10
5.0887278738
 20
4.7639266251
 10
5.1030606238
 20
4.7653995409
 10
5.1048604927
 20
4.7661359989
  0
LWPOLYLINE
  5
5A0
100
AcDbEntity
  8
02___PRT_ALL_AXES
100
AcDbPolyline
 62
7
  6
CONTINUOUS
 90
4
 70
0
 10
4.41454894
 20
4.6519403945
 10
4.3321194383
 20
4.6504817372
 10
4.2543945355
 20
4.6490275609
 10
4.1837796168
 20
4.6475907018
  0
LWPOLYLINE
  5
5A1
100
AcDbEntity
  8
02___PRT_ALL_AXES
100
AcDbPolyline
 62
7
  6
CONTINUOUS
 90
10
 70
0
 10
4.6219436989
 20
4.6662568001
 10
4.7042973593
 20
4.6677140834
 10
4.7819635819
 20
4.6691670211
 10
4.852511643
 20
4.6706021732
 10
4.9151876716
 20
4.6720350226
 10
4.969291902
 20
4.6734866988
 10
5.0126549016
 20
4.6749382673
 10
5.0439675048
 20
4.6763738239
 10
5.0630453316
 20
4.6778100148
 10
5.0691871692
 20
4.6789641773
  0
LWPOLYLINE
  5
5A2
100
AcDbEntity
  8
02___PRT_ALL_AXES
100
AcDbPolyline
 62
7
  6
CONTINUOUS
 90
10
 70
0
 10
4.41454894
 20
4.7109955126
 10
4.332627089
 20
4.7095460506
 10
4.2556096747
 20
4.7081062637
 10
4.1852401544
 20
4.7066771142
 10
4.1219118045
 20
4.7052321927
 10
4.0673725525
 20
4.7037707095
 10
4.0237699847
 20
4.7023114309
 10
3.9923835328
 20
4.7008704402
 10
3.9733784216
 20
4.6994345355
 10
3.9673054697
 20
4.6982881354
  0
LWPOLYLINE
  5
5A3
100
AcDbEntity
  8
02___PRT_ALL_AXES
100
AcDbPolyline
 62
7
  6
CONTINUOUS
 90
10
 70
0
 10
4.6219436989
 20
4.7253119182
 10
4.7029412936
 20
4.7267446471
 10
4.7800289273
 20
4.7281846103
 10
4.850646522
 20
4.7296173561
 10
4.9138174016
 20
4.7310565245
 10
4.9683230823
 20
4.7325131354
 10
5.0119925316
 20
4.7339679033
 10
5.0435398308
 20
4.7354047649
 10
5.0627428095
 20
4.7368315263
 10
5.0691871692
 20
4.7380192954
  0
LWPOLYLINE
  5
5A4
100
AcDbEntity
  8
02___PRT_ALL_AXES
100
AcDbPolyline
 62
7
  6
CONTINUOUS
 90
4
 70
0
 10
4.41454894
 20
4.6626990368
 10
4.3740206685
 20
4.6672503344
 10
4.3332371902
 20
4.6734488348
 10
4.2922624104
 20
4.6812183008
  0
LWPOLYLINE
  5
5A5
100
AcDbEntity
  8
02___PRT_ALL_AXES
100
AcDbPolyline
 62
7
  6
CONTINUOUS
 90
4
 70
0
 10
4.6219436989
 20
4.6554981578
 10
4.6624788904
 20
4.6509459438
 10
4.7032618462
 20
4.6447472647
 10
4.7442302285
 20
4.6369788938
  0
LWPOLYLINE
  5
5A6
100
AcDbEntity
  8
02___PRT_ALL_AXES
100
AcDbPolyline
 62
7
  6
CONTINUOUS
 90
4
 70
0
 10
4.41454894
 20
4.7217541549
 10
4.3740206685
 20
4.7263054525
 10
4.3332371902
 20
4.7325039529
 10
4.2922624104
 20
4.7402734189
  0
LWPOLYLINE
  5
5A7
100
AcDbEntity
  8
02___PRT_ALL_AXES
100
AcDbPolyline
 62
7
  6
CONTINUOUS
 90
4
 70
0
 10
4.6219436989
 20
4.7145532759
 10
4.6624788904
 20
4.7100010619
 10
4.7032618462
 20
4.7038023828
 10
4.7442302285
 20
4.6960340119
  0
LINE
  5
5A8
100
AcDbEntity
  8
0
100
AcDbLine
 62
7
  6
CONTINUOUS
 10
5.1046347347
 20
4.4711211749
 11
5.0691871692
 21
4.491595222
  0
LWPOLYLINE
  5
5A9
100
AcDbEntity
  8
02___PRT_ALL_AXES
100
AcDbPolyline
 62
7
  6
CONTINUOUS
 90
10
 70
0
 10
3.9670652171
 20
4.6497140861
 10
3.9733784216
 20
4.6511380598
 10
3.9923835328
 20
4.6525739644
 10
4.0237699847
 20
4.6540149552
 10
4.0673725525
 20
4.6554742337
 10
4.1219118045
 20
4.6569357169
 10
4.1852401544
 20
4.6583806384
 10
4.2556096747
 20
4.6598097879
 10
4.332627089
 20
4.6612495748
 10
4.41454894
 20
4.6626990368
  0
LWPOLYLINE
  5
5AA
100
AcDbEntity
  8
02___PRT_ALL_AXES
100
AcDbPolyline
 62
7
  6
CONTINUOUS
 90
10
 70
0
 10
5.0694274218
 20
5.0228138205
 10
5.0631181927
 20
5.0213902927
 10
5.0441162227
 20
5.0199543439
 10
5.012734538
 20
5.0185134068
 10
4.9691374612
 20
5.0170541847
 10
4.9146072841
 20
5.0155928353
 10
4.8512909203
 20
5.0141480873
 10
4.7809290923
 20
5.01271901
 10
4.7038856027
 20
5.0112786916
 10
4.6219436989
 20
5.0098288664
  0
LWPOLYLINE
  5
5AB
100
AcDbEntity
  8
02___PRT_ALL_AXES
100
AcDbPolyline
 62
7
  6
CONTINUOUS
 90
10
 70
0
 10
5.0694274218
 20
4.9047034752
 10
5.0628998385
 20
4.9032555857
 10
5.043780143
 20
4.901825038
 10
5.0122302872
 20
4.9003837459
 10
4.9684729854
 20
4.8989242771
 10
4.913804158
 20
4.8974629122
 10
4.8503976393
 20
4.8960187488
 10
4.7796929999
 20
4.8945848141
 10
4.7030400243
 20
4.893153146
 10
4.6219436989
 20
4.8917186302
  0
LWPOLYLINE
  5
5AC
100
AcDbEntity
  8
02___PRT_ALL_AXES
100
AcDbPolyline
 62
7
  6
CONTINUOUS
 90
7
 70
0
 10
3.9670652171
 20
4.7678244314
 10
3.9736004746
 20
4.7692731701
 10
3.9927230889
 20
4.7707034643
 10
4.0242736408
 20
4.7721445912
 10
4.0680292101
 20
4.7736039086
 10
4.1226971166
 20
4.7750652025
 10
4.1861026642
 20
4.7765093182
  0
LWPOLYLINE
  5
5AD
100
AcDbEntity
  8
02___PRT_ALL_AXES
100
AcDbPolyline
 62
7
  6
CONTINUOUS
 90
10
 70
0
 10
3.9670652171
 20
4.708769257
 10
3.9736956595
 20
4.7102285856
 10
3.9931057211
 20
4.7116699052
 10
4.0245685111
 20
4.7131007935
 10
4.0673915236
 20
4.7145299142
 10
4.1208877077
 20
4.7159656712
 10
4.1835257588
 20
4.7173990148
 10
4.2541864243
 20
4.7188372789
 10
4.3320081373
 20
4.7202934812
 10
4.41454894
 20
4.7217541549
  0
LWPOLYLINE
  5
5AE
100
AcDbEntity
  8
02___PRT_ALL_AXES
100
AcDbPolyline
 62
7
  6
CONTINUOUS
 90
10
 70
0
 10
5.0694274218
 20
4.9637586462
 10
5.0628003838
 20
4.962299693
 10
5.0433946405
 20
4.9608584316
 10
5.0119395616
 20
4.9594277015
 10
4.9691231385
 20
4.9579986419
 10
4.9156160105
 20
4.9565625047
 10
4.8529716028
 20
4.9551289898
 10
4.7823080564
 20
4.9536906601
 10
4.704483319
 20
4.9522344006
 10
4.6219436989
 20
4.9507737483
  0
LWPOLYLINE
  5
5AF
100
AcDbEntity
  8
02___PRT_ALL_AXES
100
AcDbPolyline
 62
7
  6
CONTINUOUS
 90
4
 70
0
 10
4.2922624104
 20
4.7476553086
 10
4.3332333361
 20
4.7566673653
 10
4.3740131648
 20
4.7641613575
 10
4.41454894
 20
4.7700506307
  0
LWPOLYLINE
  5
5B0
100
AcDbEntity
  8
02___PRT_ALL_AXES
100
AcDbPolyline
 62
7
  6
CONTINUOUS
 90
4
 70
0
 10
4.7442302285
 20
4.8658174765
 10
4.7032901228
 20
4.856811654
 10
4.6625020954
 20
4.849315157
 10
4.6219436989
 20
4.8434221544
  0
LWPOLYLINE
  5
5B1
100
AcDbEntity
  8
02___PRT_ALL_AXES
100
AcDbPolyline
 62
7
  6
CONTINUOUS
 90
4
 70
0
 10
4.2922624104
 20
4.8067104267
 10
4.33319376
 20
4.8157144779
 10
4.3739817547
 20
4.8232112971
 10
4.41454894
 20
4.8291057488
  0
LWPOLYLINE
  5
5B2
100
AcDbEntity
  8
02___PRT_ALL_AXES
100
AcDbPolyline
 62
7
  6
CONTINUOUS
 90
4
 70
0
 10
4.7442302285
 20
4.9248725946
 10
4.7032531488
 20
4.9158592932
 10
4.6624728549
 20
4.9083654545
 10
4.6219436989
 20
4.9024772725
  0
LINE
  5
5B3
100
AcDbEntity
  8
02___PRT_ALL_AXES
100
AcDbLine
 62
7
  6
CONTINUOUS
 10
4.850646522
 20
4.7779138319
 11
4.7800289273
 21
4.776481086
  0
LINE
  5
5B4
100
AcDbEntity
  8
02___PRT_ALL_AXES
100
AcDbLine
 62
7
  6
CONTINUOUS
 10
4.1861026642
 20
4.7765093182
 11
4.2568100171
 21
4.7779432901
  0
LWPOLYLINE
  5
5B5
100
AcDbEntity
  8
02___PRT_ALL_AXES
100
AcDbPolyline
 62
7
  6
CONTINUOUS
 90
3
 70
0
 10
4.7800289273
 20
4.776481086
 10
4.7029412936
 20
4.7750411228
 10
4.6219436989
 20
4.773608394
  0
LINE
  5
5B6
100
AcDbEntity
  8
02___PRT_ALL_AXES
100
AcDbLine
 62
7
  6
CONTINUOUS
 10
4.2568100171
 20
4.7779432901
 11
4.333474488
 21
4.7793751531
  0
LWPOLYLINE
  5
5B7
100
AcDbEntity
  8
02___PRT_ALL_AXES
100
AcDbPolyline
 62
7
  6
CONTINUOUS
 90
9
 70
0
 10
4.7442302285
 20
4.8067623584
 10
4.825948056
 20
4.8082352742
 10
4.9001246657
 20
4.8097081901
 10
4.9649421218
 20
4.8111811059
 10
5.0188118648
 20
4.8126540217
 10
5.0604136438
 20
4.8141269376
 10
5.0887278738
 20
4.8155998534
 10
5.1030606238
 20
4.8170727693
 10
5.1046347347
 20
4.8175484606
  0
LINE
  5
5B8
100
AcDbEntity
  8
02___PRT_ALL_AXES
100
AcDbLine
 62
7
  6
CONTINUOUS
 10
4.2105445829
 20
4.7978556211
 11
4.2922624104
 21
4.799328537
  0
LWPOLYLINE
  5
5B9
100
AcDbEntity
  8
02___PRT_ALL_AXES
100
AcDbPolyline
 62
7
  6
CONTINUOUS
 90
9
 70
0
 10
4.7442302285
 20
4.8141442481
 10
4.825948056
 20
4.815617164
 10
4.9001246657
 20
4.8170900798
 10
4.9649421218
 20
4.8185629957
 10
5.0188118648
 20
4.8200359115
 10
5.0604136438
 20
4.8215088274
 10
5.0887278738
 20
4.8229817432
 10
5.1030606238
 20
4.824454659
 10
5.1048604927
 20
4.825191117
  0
LWPOLYLINE
  5
5BA
100
AcDbEntity
  8
02___PRT_ALL_AXES
100
AcDbPolyline
 62
7
  6
CONTINUOUS
 90
9
 70
0
 10
4.7442302285
 20
4.8658174765
 10
4.825948056
 20
4.8672903923
 10
4.9001246657
 20
4.8687633082
 10
4.9649421218
 20
4.870236224
 10
5.0188118648
 20
4.8717091399
 10
5.0604136438
 20
4.8731820557
 10
5.0887278738
 20
4.8746549715
 10
5.1030606238
 20
4.8761278874
 10
5.1046347347
 20
4.8766035787
  0
LWPOLYLINE
  5
5BB
100
AcDbEntity
  8
02___PRT_ALL_AXES
100
AcDbPolyline
 62
7
  6
CONTINUOUS
 90
9
 70
0
 10
4.7442302285
 20
4.8731993662
 10
4.825948056
 20
4.8746722821
 10
4.9001246657
 20
4.8761451979
 10
4.9649421218
 20
4.8776181138
 10
5.0188118648
 20
4.8790910296
 10
5.0604136438
 20
4.8805639455
 10
5.0887278738
 20
4.8820368613
 10
5.1030606238
 20
4.8835097772
 10
5.1048604927
 20
4.8842462351
  0
LWPOLYLINE
  5
5BC
100
AcDbEntity
  8
02___PRT_ALL_AXES
100
AcDbPolyline
 62
7
  6
CONTINUOUS
 90
10
 70
0
 10
4.41454894
 20
4.7700506307
 10
4.3320081373
 20
4.768589957
 10
4.2541864243
 20
4.7671337546
 10
4.1835257588
 20
4.7656954906
 10
4.1208877077
 20
4.7642621469
 10
4.0673915236
 20
4.76282639
 10
4.0245685111
 20
4.7613972693
 10
3.9931057211
 20
4.759966381
 10
3.9736956595
 20
4.7585250614
 10
3.9673054697
 20
4.7573432535
  0
LWPOLYLINE
  5
5BD
100
AcDbEntity
  8
02___PRT_ALL_AXES
100
AcDbPolyline
 62
7
  6
CONTINUOUS
 90
10
 70
0
 10
4.6219436989
 20
4.7843670363
 10
4.7043721997
 20
4.7858256754
 10
4.7821046688
 20
4.7872799974
 10
4.8526747026
 20
4.7887159069
 10
4.9150687672
 20
4.7901423368
 10
4.968445696
 20
4.7915718766
 10
5.0116689912
 20
4.7930106249
 10
5.0432495169
 20
4.794443582
 10
5.0627056664
 20
4.7958825708
 10
5.0691871692
 20
4.7970744135
  0
LINE
  5
5BE
100
AcDbEntity
  8
02___PRT_ALL_AXES
100
AcDbLine
 62
7
  6
CONTINUOUS
 10
4.333474488
 20
4.7793751531
 11
4.41454894
 21
4.780809273
  0
LWPOLYLINE
  5
5BF
100
AcDbEntity
  8
02___PRT_ALL_AXES
100
AcDbPolyline
 62
7
  6
CONTINUOUS
 90
10
 70
0
 10
4.41454894
 20
4.8291057488
 10
4.333474488
 20
4.8276716289
 10
4.2568100171
 20
4.8262397659
 10
4.1861026642
 20
4.824805794
 10
4.1226971166
 20
4.8233616783
 10
4.0680292101
 20
4.8219003843
 10
4.0242736408
 20
4.820441067
 10
3.9927230889
 20
4.8189999401
 10
3.9736004746
 20
4.8175696458
 10
3.9673054697
 20
4.8163983716
  0
LWPOLYLINE
  5
5C0
100
AcDbEntity
  8
02___PRT_ALL_AXES
100
AcDbPolyline
 62
7
  6
CONTINUOUS
 90
10
 70
0
 10
4.6219436989
 20
4.8434221544
 10
4.7030400243
 20
4.8448566702
 10
4.7796929999
 20
4.8462883383
 10
4.8503976393
 20
4.847722273
 10
4.913804158
 20
4.8491664364
 10
4.9684729854
 20
4.8506278014
 10
5.0122302872
 20
4.8520872701
 10
5.043780143
 20
4.8535285622
 10
5.0628998385
 20
4.85495911
 10
5.0691871692
 20
4.8561295316
  0
LWPOLYLINE
  5
5C1
100
AcDbEntity
  8
02___PRT_ALL_AXES
100
AcDbPolyline
 62
7
  6
CONTINUOUS
 90
5
 70
0
 10
4.6219436989
 20
4.773608394
 10
4.6523365523
 20
4.7703488605
 10
4.6834554816
 20
4.7660652335
 10
4.7144018182
 20
4.7608938218
 10
4.7442302285
 20
4.75508913
  0
LWPOLYLINE
  5
5C2
100
AcDbEntity
  8
02___PRT_ALL_AXES
100
AcDbPolyline
 62
7
  6
CONTINUOUS
 90
5
 70
0
 10
4.41454894
 20
4.8989195092
 10
4.384296615
 20
4.9021618439
 10
4.3531166183
 20
4.9064505436
 10
4.3220389146
 20
4.9116434955
 10
4.2922624104
 20
4.9174387732
  0
LWPOLYLINE
  5
5C3
100
AcDbEntity
  8
02___PRT_ALL_AXES
100
AcDbPolyline
 62
7
  6
CONTINUOUS
 90
4
 70
0
 10
4.41454894
 20
4.780809273
 10
4.3739907642
 20
4.7853645311
 10
4.3331993422
 20
4.79156555
 10
4.2922624104
 20
4.799328537
  0
LWPOLYLINE
  5
5C4
100
AcDbEntity
  8
02___PRT_ALL_AXES
100
AcDbPolyline
 62
7
  6
CONTINUOUS
 90
4
 70
0
 10
4.41454894
 20
4.8398643911
 10
4.3740206685
 20
4.8444156887
 10
4.3332371902
 20
4.8506141891
 10
4.2922624104
 20
4.8583836551
  0
LWPOLYLINE
  5
5C5
100
AcDbEntity
  8
02___PRT_ALL_AXES
100
AcDbPolyline
 62
7
  6
CONTINUOUS
 90
4
 70
0
 10
4.6219436989
 20
4.8326635121
 10
4.6624788904
 20
4.8281112981
 10
4.7032618462
 20
4.821912619
 10
4.7442302285
 20
4.8141442481
  0
LINE
  5
5C6
100
AcDbEntity
  8
0
100
AcDbLine
 62
7
  6
CONTINUOUS
 10
5.1046347347
 20
4.530176293
 11
5.0691871692
 21
4.5506503401
  0
LINE
  5
5C7
100
AcDbEntity
  8
0
100
AcDbLine
 62
7
  6
CONTINUOUS
 10
5.1046347347
 20
4.5892314111
 11
5.0691871692
 21
4.6097054582
  0
LINE
  5
5C8
100
AcDbEntity
  8
0
100
AcDbLine
 62
7
  6
CONTINUOUS
 10
5.1046347347
 20
4.6482865292
 11
5.0691871692
 21
4.6687605763
  0
LINE
  5
5C9
100
AcDbEntity
  8
02___PRT_ALL_AXES
100
AcDbLine
 62
7
  6
CONTINUOUS
 10
5.1048604927
 20
4.4708604083
 11
5.1046347347
 21
4.4711211749
  0
LINE
  5
5CA
100
AcDbEntity
  8
02___PRT_ALL_AXES
100
AcDbLine
 62
7
  6
CONTINUOUS
 10
5.1048604927
 20
4.5299155264
 11
5.1046347347
 21
4.530176293
  0
LINE
  5
5CB
100
AcDbEntity
  8
02___PRT_ALL_AXES
100
AcDbLine
 62
7
  6
CONTINUOUS
 10
5.1048604927
 20
4.5889706445
 11
5.1046347347
 21
4.5892314111
  0
LWPOLYLINE
  5
5CC
100
AcDbEntity
  8
02___PRT_ALL_AXES
100
AcDbPolyline
 62
7
  6
CONTINUOUS
 90
5
 70
0
 10
4.2922624104
 20
4.924820663
 10
4.3220548105
 20
4.9315167234
 10
4.3529913449
 20
4.9376540693
 10
4.3841241496
 20
4.9429448837
 10
4.41454894
 20
4.947215985
  0
LWPOLYLINE
  5
5CD
100
AcDbEntity
  8
02___PRT_ALL_AXES
100
AcDbPolyline
 62
7
  6
CONTINUOUS
 90
4
 70
0
 10
4.2922624104
 20
4.8657655449
 10
4.3332333362
 20
4.8747776016
 10
4.3740131648
 20
4.8822715938
 10
4.41454894
 20
4.8881608669
  0
LWPOLYLINE
  5
5CE
100
AcDbEntity
  8
02___PRT_ALL_AXES
100
AcDbPolyline
 62
7
  6
CONTINUOUS
 90
4
 70
0
 10
4.7442302285
 20
4.9839277127
 10
4.7032531488
 20
4.9749144113
 10
4.6624728549
 20
4.9674205726
 10
4.6219436989
 20
4.9615323907
  0
LWPOLYLINE
  5
5CF
100
AcDbEntity
  8
02___PRT_ALL_AXES
100
AcDbPolyline
 62
7
  6
CONTINUOUS
 90
4
 70
0
 10
4.2922624104
 20
4.9838757811
 10
4.3332333362
 20
4.9928878378
 10
4.3740131648
 20
5.00038183
 10
4.41454894
 20
5.0062711031
  0
LWPOLYLINE
  5
5D0
100
AcDbEntity
  8
02___PRT_ALL_AXES
100
AcDbPolyline
 62
7
  6
CONTINUOUS
 90
10
 70
0
 10
3.9670652171
 20
4.8859346346
 10
3.9737397964
 20
4.8873987989
 10
3.9929408871
 20
4.8888259913
 10
4.0244797711
 20
4.8902627439
 10
4.0681396184
 20
4.8917174076
 10
4.1226387679
 20
4.8931740099
 10
4.1858053235
 20
4.8946131993
 10
4.2564210962
 20
4.8960459914
 10
4.3335213869
 20
4.8974862382
 10
4.41454894
 20
4.8989195092
  0
LWPOLYLINE
  5
5D1
100
AcDbEntity
  8
02___PRT_ALL_AXES
100
AcDbPolyline
 62
7
  6
CONTINUOUS
 90
10
 70
0
 10
3.9670652171
 20
4.8268794931
 10
3.9737884021
 20
4.8283490132
 10
3.9932443325
 20
4.8297879132
 10
4.0248267767
 20
4.8312209223
 10
4.0680602836
 20
4.8326599451
 10
4.1214500025
 20
4.8340897326
 10
4.1838373602
 20
4.8355159372
 10
4.2544006122
 20
4.8369516756
 10
4.3321251065
 20
4.8384058366
 10
4.41454894
 20
4.8398643911
  0
LWPOLYLINE
  5
5D2
100
AcDbEntity
  8
02___PRT_ALL_AXES
100
AcDbPolyline
 62
7
  6
CONTINUOUS
 90
9
 70
0
 10
4.7442302285
 20
4.9248725946
 10
4.825948056
 20
4.9263455104
 10
4.9001246657
 20
4.9278184263
 10
4.9649421218
 20
4.9292913421
 10
5.0188118648
 20
4.930764258
 10
5.0604136438
 20
4.9322371738
 10
5.0887278738
 20
4.9337100897
 10
5.1030606238
 20
4.9351830055
 10
5.1046347347
 20
4.9356586968
  0
LWPOLYLINE
  5
5D3
100
AcDbEntity
  8
02___PRT_ALL_AXES
100
AcDbPolyline
 62
7
  6
CONTINUOUS
 90
9
 70
0
 10
4.7442302285
 20
4.9322544843
 10
4.825948056
 20
4.9337274002
 10
4.9001246657
 20
4.935200316
 10
4.9649421218
 20
4.9366732319
 10
5.0188118648
 20
4.9381461477
 10
5.0604136438
 20
4.9396190636
 10
5.0887278738
 20
4.9410919794
 10
5.1030606238
 20
4.9425648953
 10
5.1048604927
 20
4.9433013532
  0
LWPOLYLINE
  5
5D4
100
AcDbEntity
  8
02___PRT_ALL_AXES
100
AcDbPolyline
 62
7
  6
CONTINUOUS
 90
9
 70
0
 10
4.7442302285
 20
4.9839277127
 10
4.825948056
 20
4.9854006285
 10
4.9001246657
 20
4.9868735444
 10
4.9649421218
 20
4.9883464602
 10
5.0188118648
 20
4.9898193761
 10
5.0604136438
 20
4.9912922919
 10
5.0887278738
 20
4.9927652078
 10
5.1030606238
 20
4.9942381236
 10
5.1046347347
 20
4.994713815
  0
LWPOLYLINE
  5
5D5
100
AcDbEntity
  8
02___PRT_ALL_AXES
100
AcDbPolyline
 62
7
  6
CONTINUOUS
 90
9
 70
0
 10
4.7442302285
 20
4.9913096025
 10
4.825948056
 20
4.9927825183
 10
4.9001246657
 20
4.9942554341
 10
4.9649421218
 20
4.99572835
 10
5.0188118648
 20
4.9972012658
 10
5.0604136438
 20
4.9986741817
 10
5.0887278738
 20
5.0001470975
 10
5.1030606238
 20
5.0016200134
 10
5.1048604927
 20
5.0023564713
  0
LWPOLYLINE
  5
5D6
100
AcDbEntity
  8
02___PRT_ALL_AXES
100
AcDbPolyline
 62
7
  6
CONTINUOUS
 90
10
 70
0
 10
4.41454894
 20
4.8881608669
 10
4.3321251065
 20
4.8867023124
 10
4.2544006122
 20
4.8852481514
 10
4.1838373602
 20
4.883812413
 10
4.1214500025
 20
4.8823862084
 10
4.0680602836
 20
4.8809564209
 10
4.0248267767
 20
4.8795173981
 10
3.9932443325
 20
4.878084389
 10
3.9737884021
 20
4.876645489
 10
3.9673054697
 20
4.8754534897
  0
LWPOLYLINE
  5
5D7
100
AcDbEntity
  8
02___PRT_ALL_AXES
100
AcDbPolyline
 62
7
  6
CONTINUOUS
 90
10
 70
0
 10
4.6219436989
 20
4.9024772725
 10
4.704483319
 20
4.9039379248
 10
4.7823080564
 20
4.9053941844
 10
4.8529716028
 20
4.906832514
 10
4.9156160105
 20
4.9082660289
 10
4.9691231385
 20
4.9097021661
 10
5.0119395616
 20
4.9111312258
 10
5.0433946405
 20
4.9125619558
 10
5.0628003838
 20
4.9140032173
 10
5.0691871692
 20
4.9151846497
  0
LWPOLYLINE
  5
5D8
100
AcDbEntity
  8
02___PRT_ALL_AXES
100
AcDbPolyline
 62
7
  6
CONTINUOUS
 90
10
 70
0
 10
4.41454894
 20
4.947215985
 10
4.3335213869
 20
4.9457827139
 10
4.2564210962
 20
4.9443424672
 10
4.1858053235
 20
4.9429096751
 10
4.1226387679
 20
4.9414704857
 10
4.0681396184
 20
4.9400138833
 10
4.0244797711
 20
4.9385592197
 10
3.9929408871
 20
4.937122467
 10
3.9737397964
 20
4.9356952746
 10
3.9673054697
 20
4.9345086078
  0
LWPOLYLINE
  5
5D9
100
AcDbEntity
  8
02___PRT_ALL_AXES
100
AcDbPolyline
 62
7
  6
CONTINUOUS
 90
10
 70
0
 10
4.6219436989
 20
4.9615323907
 10
4.7038856027
 20
4.9629822158
 10
4.7809290923
 20
4.9644225343
 10
4.8512909203
 20
4.9658516116
 10
4.9146072841
 20
4.9672963596
 10
4.9691374612
 20
4.9687577089
 10
5.012734538
 20
4.970216931
 10
5.0441162227
 20
4.9716578682
 10
5.0631181927
 20
4.9730938169
 10
5.0691871692
 20
4.9742397678
  0
LWPOLYLINE
  5
5DA
100
AcDbEntity
  8
02___PRT_ALL_AXES
100
AcDbPolyline
 62
7
  6
CONTINUOUS
 90
10
 70
0
 10
4.41454894
 20
5.0062711031
 10
4.3321914854
 20
5.0048137511
 10
4.2545264559
 20
5.0033608316
 10
4.1839748802
 20
5.0019255989
 10
4.1212659052
 20
5.0004919205
 10
4.0671442646
 20
4.9990395287
 10
4.0237851226
 20
4.9975876058
 10
3.9924878238
 20
4.9961519607
 10
3.9734287359
 20
4.9947157999
 10
3.9673054697
 20
4.9935637259
  0
LWPOLYLINE
  5
5DB
100
AcDbEntity
  8
02___PRT_ALL_AXES
100
AcDbPolyline
 62
7
  6
CONTINUOUS
 90
4
 70
0
 10
4.6219436989
 20
4.8917186302
 10
4.6625115161
 20
4.887162095
 10
4.7033030521
 20
4.880960683
 10
4.7442302285
 20
4.8731993662
  0
LWPOLYLINE
  5
5DC
100
AcDbEntity
  8
02___PRT_ALL_AXES
100
AcDbPolyline
 62
7
  6
CONTINUOUS
 90
4
 70
0
 10
4.41454894
 20
4.9579746273
 10
4.3740206685
 20
4.962525925
 10
4.3332371902
 20
4.9687244254
 10
4.2922624104
 20
4.9764938913
  0
LWPOLYLINE
  5
5DD
100
AcDbEntity
  8
02___PRT_ALL_AXES
100
AcDbPolyline
 62
7
  6
CONTINUOUS
 90
4
 70
0
 10
4.6219436989
 20
4.9507737483
 10
4.6624788904
 20
4.9462215343
 10
4.7032618462
 20
4.9400228552
 10
4.7442302285
 20
4.9322544843
  0
LWPOLYLINE
  5
5DE
100
AcDbEntity
  8
02___PRT_ALL_AXES
100
AcDbPolyline
 62
7
  6
CONTINUOUS
 90
4
 70
0
 10
4.41454894
 20
5.0170297455
 10
4.3740206685
 20
5.0215810431
 10
4.3332371902
 20
5.0277795435
 10
4.2922624104
 20
5.0355490094
  0
LWPOLYLINE
  5
5DF
100
AcDbEntity
  8
02___PRT_ALL_AXES
100
AcDbPolyline
 62
7
  6
CONTINUOUS
 90
4
 70
0
 10
4.6219436989
 20
5.0098288664
 10
4.6624788904
 20
5.0052766524
 10
4.7032618462
 20
4.9990779733
 10
4.7442302285
 20
4.9913096025
  0
LINE
  5
5E0
100
AcDbEntity
  8
0
100
AcDbLine
 62
7
  6
CONTINUOUS
 10
5.1046347347
 20
4.7073416473
 11
5.0691871692
 21
4.7278156944
  0
LINE
  5
5E1
100
AcDbEntity
  8
0
100
AcDbLine
 62
7
  6
CONTINUOUS
 10
5.1046347347
 20
4.7663967654
 11
5.0691871692
 21
4.7868708126
  0
LINE
  5
5E2
100
AcDbEntity
  8
0
100
AcDbLine
 62
7
  6
CONTINUOUS
 10
5.1046347347
 20
4.8254518835
 11
5.0691871692
 21
4.8459259307
  0
LINE
  5
5E3
100
AcDbEntity
  8
02___PRT_ALL_AXES
100
AcDbLine
 62
7
  6
CONTINUOUS
 10
5.1048604927
 20
4.6480257626
 11
5.1046347347
 21
4.6482865292
  0
LINE
  5
5E4
100
AcDbEntity
  8
02___PRT_ALL_AXES
100
AcDbLine
 62
7
  6
CONTINUOUS
 10
5.1048604927
 20
4.7070808807
 11
5.1046347347
 21
4.7073416473
  0
LINE
  5
5E5
100
AcDbEntity
  8
02___PRT_ALL_AXES
100
AcDbLine
 62
7
  6
CONTINUOUS
 10
5.1048604927
 20
4.7661359989
 11
5.1046347347
 21
4.7663967654
  0
LINE
  5
5E6
100
AcDbEntity
  8
02___PRT_ALL_AXES
100
AcDbLine
 62
7
  6
CONTINUOUS
 10
5.1048604927
 20
4.825191117
 11
5.1046347347
 21
4.8254518835
  0
LINE
  5
5E7
100
AcDbEntity
  8
02___PRT_ALL_AXES
100
AcDbLine
 62
7
  6
CONTINUOUS
 10
5.4926557683
 20
5.7220907233
 11
5.4926557683
 21
5.6433505658
  0
LINE
  5
5E8
100
AcDbEntity
  8
02___PRT_ALL_AXES
100
AcDbLine
 62
7
  6
CONTINUOUS
 10
5.502498288
 20
5.6433505658
 11
5.502498288
 21
5.1709096209
  0
LWPOLYLINE
  5
5E9
100
AcDbEntity
  8
02___PRT_ALL_AXES
100
AcDbPolyline
 62
7
  6
CONTINUOUS
 90
10
 70
0
 10
3.9670652171
 20
4.9449897018
 10
3.9734287359
 20
4.9464193241
 10
3.9924878238
 20
4.9478554849
 10
4.0237851226
 20
4.94929113
 10
4.0671442646
 20
4.9507430529
 10
4.1212659052
 20
4.9521954447
 10
4.1839748802
 20
4.9536291231
 10
4.2545264559
 20
4.9550643558
 10
4.3321914854
 20
4.9565172753
 10
4.41454894
 20
4.9579746273
  0
LWPOLYLINE
  5
5EA
100
AcDbEntity
  8
02___PRT_ALL_AXES
100
AcDbPolyline
 62
7
  6
CONTINUOUS
 90
10
 70
0
 10
3.9670652171
 20
5.0040448474
 10
3.9735655445
 20
5.0054897578
 10
3.992820726
 20
5.0069294529
 10
4.0240129313
 20
5.0083550318
 10
4.067040658
 20
5.0097950957
 10
4.1209565357
 20
5.0112429551
 10
4.1837796168
 20
5.0126800528
 10
4.2543945355
 20
5.0141169119
 10
4.3321194383
 20
5.0155710883
 10
4.41454894
 20
5.0170297455
  0
LWPOLYLINE
  5
5EB
100
AcDbEntity
  8
02___PRT_ALL_AXES
100
AcDbPolyline
 62
7
  6
CONTINUOUS
 90
4
 70
0
 10
4.2922624104
 20
5.0429308992
 10
4.3332333362
 20
5.0519429559
 10
4.3740131648
 20
5.0594369481
 10
4.41454894
 20
5.0653262212
  0
LWPOLYLINE
  5
5EC
100
AcDbEntity
  8
02___PRT_ALL_AXES
100
AcDbPolyline
 62
7
  6
CONTINUOUS
 90
10
 70
0
 10
4.41454894
 20
5.0653262212
 10
4.3321194383
 20
5.063867564
 10
4.2543945355
 20
5.0624133877
 10
4.1837796168
 20
5.0609765285
 10
4.1209565357
 20
5.0595394309
 10
4.067040658
 20
5.0580915714
 10
4.0240129313
 20
5.0566515076
 10
3.992820726
 20
5.0552259286
 10
3.9735655445
 20
5.0537862336
 10
3.9673054697
 20
5.0526188441
  0
LINE
  5
5ED
100
AcDbEntity
  8
0
100
AcDbLine
 62
9
  6
CONTINUOUS
 10
5.0694274218
 20
5.0921694634
 11
3.9670652171
 21
5.0921694634
  0
LINE
  5
5EE
100
AcDbEntity
  8
0
100
AcDbLine
 62
7
  6
CONTINUOUS
 10
5.4631282092
 20
5.1315395422
 11
3.5733644297
 21
5.1315395422
  0
LINE
  5
5EF
100
AcDbEntity
  8
0
100
AcDbLine
 62
7
  6
CONTINUOUS
 10
5.1046347347
 20
4.8845070017
 11
5.0691871692
 21
4.9049810488
  0
LINE
  5
5F0
100
AcDbEntity
  8
0
100
AcDbLine
 62
7
  6
CONTINUOUS
 10
5.1046347347
 20
4.9435621198
 11
5.0691871692
 21
4.9640361669
  0
LINE
  5
5F1
100
AcDbEntity
  8
02___PRT_ALL_AXES
100
AcDbLine
 62
7
  6
CONTINUOUS
 10
5.1048604927
 20
4.8842462351
 11
5.1046347347
 21
4.8845070017
  0
LINE
  5
5F2
100
AcDbEntity
  8
02___PRT_ALL_AXES
100
AcDbLine
 62
7
  6
CONTINUOUS
 10
5.1048604927
 20
4.9433013532
 11
5.1046347347
 21
4.9435621198
  0
LINE
  5
5F3
100
AcDbEntity
  8
02___PRT_ALL_AXES
100
AcDbLine
 62
7
  6
CONTINUOUS
 10
5.1048604927
 20
5.0023564713
 11
5.1046347347
 21
5.0026172379
  0
LINE
  5
5F4
100
AcDbEntity
  8
0
100
AcDbLine
 62
9
  6
CONTINUOUS
 10
3.5339943509
 20
5.1709096209
 11
5.502498288
 21
5.1709096209
  0
LINE
  5
5F5
100
AcDbEntity
  8
0
100
AcDbLine
 62
7
  6
CONTINUOUS
 10
5.1046347347
 20
5.0026172379
 11
5.0691871692
 21
5.023091285
  0
LINE
  5
5F6
100
AcDbEntity
  8
02___PRT_ALL_AXES
100
AcDbLine
 62
7
  6
CONTINUOUS
 10
3.5339985744
 20
5.6433505658
 11
5.5024940645
 21
5.6433505658
  0
LINE
  5
5F7
100
AcDbEntity
  8
0
100
AcDbLine
 62
9
  6
CONTINUOUS
 10
3.5438368706
 20
5.7220907233
 11
5.4926557683
 21
5.7220907233
  0
LINE
  5
5F8
100
AcDbEntity
  8
0
100
AcDbLine
 62
7
  6
CONTINUOUS
 10
5.4336006502
 20
5.7811458414
 11
3.6028919887
 21
5.7811458414
  0
LINE
  5
5F9
100
AcDbEntity
  8
0
100
AcDbLine
 62
7
  6
CONTINUOUS
 10
4.3232463195
 20
5.7817757626
 11
4.7132463195
 21
5.7817757626
  0
LWPOLYLINE
  5
5FA
100
AcDbEntity
  8
02___PRT_ALL_AXES
100
AcDbPolyline
 62
7
  6
CONTINUOUS
 90
18
 70
0
 10
13.2089375359
 20
3.795741574
 10
13.2210683551
 20
3.7896729437
 10
13.2345716177
 20
3.784662804
 10
13.2491724362
 20
3.780813147
 10
13.2645735802
 20
3.7782023404
 10
13.2804615267
 20
3.7768835329
 10
13.2965128429
 20
3.7768835715
 10
13.3124007703
 20
3.7782024554
 10
13.3278018766
 20
3.780813336
 10
13.3424026397
 20
3.7846630632
 10
13.35590583
 20
3.7896732678
 10
13.3680365617
 20
3.7957419564
 10
13.3785478879
 20
3.802745588
 10
13.3872258284
 20
3.8105415888
 10
13.3938937253
 20
3.8189712548
 10
13.3984158396
 20
3.8278629823
 10
13.4007001139
 20
3.8370357614
 10
13.400985623
 20
3.8416690408
  0
LWPOLYLINE
  5
5FB
100
AcDbEntity
  8
0
100
AcDbPolyline
 62
7
  6
CONTINUOUS
 90
24
 70
0
 10
13.1506003212
 20
6.7633473153
 10
13.1657686104
 20
6.7712324812
 10
13.1822814249
 20
6.7781590653
 10
13.1999578468
 20
6.7840511783
 10
13.2186042095
 20
6.7888442652
 10
13.2380162196
 20
6.7924858117
 10
13.257981195
 20
6.7949359204
 10
13.2782803954
 20
6.7961677474
 10
13.2986914183
 20
6.7961677964
 10
13.3189906364
 20
6.794936067
 10
13.3389556472
 20
6.7924860543
 10
13.3583677098
 20
6.7888446011
 10
13.3770141417
 20
6.7840516039
 10
13.3946906485
 20
6.7781595759
 10
13.4112035629
 20
6.7712330712
 10
13.4263719658
 20
6.7633479782
 10
13.4400296691
 20
6.7545906875
 10
13.4520270362
 20
6.7450571459
 10
13.4622326212
 20
6.7348518049
 10
13.4705346098
 20
6.7240864762
 10
13.4768420436
 20
6.7128791072
 10
13.481085817
 20
6.701352488
 10
13.4832194344
 20
6.6896329068
 10
13.4834861685
 20
6.6837403677
  0
LWPOLYLINE
  5
5FC
100
AcDbEntity
  8
0
100
AcDbPolyline
 62
7
  6
CONTINUOUS
 90
18
 70
0
 10
12.3140772688
 20
6.6350073893
 10
12.3228287096
 20
6.7146329445
 10
12.3494218003
 20
6.7937457312
 10
12.3939297361
 20
6.8704168351
 10
12.4561145485
 20
6.9430980476
 10
12.5346904079
 20
7.0097819035
 10
12.6278446039
 20
7.0689419845
 10
12.733309912
 20
7.1193807719
 10
12.8488198092
 20
7.1603225823
 10
12.9722742364
 20
7.1912641149
 10
13.1012911756
 20
7.2117777912
 10
13.2335741867
 20
7.2216174726
 10
13.3667993182
 20
7.2206672773
 10
13.4985636382
 20
7.2089528375
 10
13.6266001718
 20
7.1866303921
 10
13.7484938548
 20
7.1540285158
 10
13.8620666694
 20
7.1115873813
 10
13.9652643353
 20
7.0598389652
  0
LWPOLYLINE
  5
5FD
100
AcDbEntity
  8
02___PRT_ALL_AXES
100
AcDbPolyline
 62
7
  6
CONTINUOUS
 90
3
 70
0
 10
12.311938178
 20
6.6353315251
 10
12.3046510176
 20
6.5872408874
 10
12.304237124
 20
6.5707298596
  0
LWPOLYLINE
  5
5FE
100
AcDbEntity
  8
02___PRT_ALL_AXES
100
AcDbPolyline
 62
7
  6
CONTINUOUS
 90
5
 70
0
 10
13.145116045
 20
6.7659992598
 10
13.1199008745
 20
6.7482604061
 10
13.1011643633
 20
6.7280223181
 10
13.0896265453
 20
6.7060627341
 10
13.0857308121
 20
6.6832260328
  0
LWPOLYLINE
  5
5FF
100
AcDbEntity
  8
0
100
AcDbPolyline
 62
7
  6
CONTINUOUS
 90
10
 70
0
 10
13.1676329977
 20
6.7535137174
 10
13.1548616897
 20
6.7452627957
 10
13.1437707941
 20
6.7362381937
 10
13.1344997851
 20
6.7265534012
 10
13.1271652511
 20
6.7163302099
 10
13.1218594282
 20
6.7056971824
 10
13.1186490401
 20
6.6947880353
 10
13.1175744594
 20
6.6837399573
 10
13.1186491995
 20
6.6726918845
 10
13.1218597449
 20
6.6617827528
  0
LWPOLYLINE
  5
600
100
AcDbEntity
  8
0
100
AcDbPolyline
 62
7
  6
CONTINUOUS
 90
9
 70
0
 10
13.1506003212
 20
6.7633473153
 10
13.1369427442
 20
6.754589959
 10
13.1249455147
 20
6.7450563597
 10
13.1147400768
 20
6.7348509696
 10
13.1064382435
 20
6.7240856011
 10
13.1001309713
 20
6.7128782017
 10
13.0958873642
 20
6.7013515621
 10
13.0937539158
 20
6.6896319706
 10
13.0934872667
 20
6.6837403686
  0
LWPOLYLINE
  5
601
100
AcDbEntity
  8
0
100
AcDbPolyline
 62
7
  6
CONTINUOUS
 90
24
 70
0
 10
13.1676329977
 20
6.7535137174
 10
13.1819241113
 20
6.7608871988
 10
13.1975553115
 20
6.767290514
 10
13.2143300268
 20
6.7726431376
 10
13.2320373056
 20
6.7768777574
 10
13.2504544685
 20
6.7799411204
 10
13.269349909
 20
6.7817947032
 10
13.288486006
 20
6.7824151958
 10
13.3076221119
 20
6.7817947952
 10
13.3265175792
 20
6.7799413032
 10
13.3449347863
 20
6.7768780288
 10
13.3626421261
 20
6.7726434941
 10
13.3794169187
 20
6.7672909511
 10
13.3950482112
 20
6.7608877111
 10
13.4093394312
 20
6.7535142984
 10
13.4221108581
 20
6.7452634381
 10
13.433201884
 20
6.7362388895
 10
13.4424730326
 20
6.7265541415
 10
13.449807714
 20
6.7163309854
 10
13.4551136903
 20
6.7056979835
 10
13.4583242357
 20
6.6947888518
 10
13.4593989758
 20
6.683740779
 10
13.458324395
 20
6.672692701
 10
13.455114007
 20
6.6617835539
  0
LWPOLYLINE
  5
602
100
AcDbEntity
  8
02___PRT_ALL_AXES
100
AcDbPolyline
 62
7
  6
CONTINUOUS
 90
10
 70
0
 10
12.3140781018
 20
6.5707222208
 10
12.3162847008
 20
6.5328701661
 10
12.3260745007
 20
6.4827085987
 10
12.3436130778
 20
6.433255614
 10
12.3687592219
 20
6.3849093784
 10
12.4013104709
 20
6.3380591474
 10
12.4410047415
 20
6.2930821313
 10
12.4875224386
 20
6.2503404589
 10
12.5404890292
 20
6.2101782607
 10
12.5994780573
 20
6.1729188994
  0
LWPOLYLINE
  5
603
100
AcDbEntity
  8
0
100
AcDbPolyline
 62
9
  6
CONTINUOUS
 90
8
 70
0
 10
12.3042347491
 20
6.1849666869
 10
12.304706141
 20
6.1673817689
 10
12.3179353007
 20
6.0904836743
 10
12.3492948558
 20
6.0149979582
 10
12.3973801067
 20
5.9436674598
 10
12.4581834248
 20
5.8798216982
 10
12.5256672883
 20
5.8258718086
 10
12.5925183739
 20
5.7831515748
  0
LINE
  5
604
100
AcDbEntity
  8
02___PRT_ALL_AXES
100
AcDbLine
 62
7
  6
CONTINUOUS
 10
12.3042347491
 20
6.5707158603
 11
12.3042347491
 21
6.1849666869
  0
LINE
  5
605
100
AcDbEntity
  8
02___PRT_ALL_AXES
100
AcDbLine
 62
7
  6
CONTINUOUS
 10
12.3140772688
 20
6.6350073893
 11
12.3140772688
 21
6.5707158603
  0
LINE
  5
606
100
AcDbEntity
  8
02___PRT_ALL_AXES
100
AcDbLine
 62
7
  6
CONTINUOUS
 10
13.4011325651
 20
6.585894887
 11
13.4318573902
 21
6.6004528121
  0
LWPOLYLINE
  5
607
100
AcDbEntity
  8
0
100
AcDbPolyline
 62
7
  6
CONTINUOUS
 90
3
 70
0
 10
13.3946920103
 20
6.589321671
 10
13.4112048248
 20
6.5962482551
 10
13.426373114
 20
6.604133421
  0
LWPOLYLINE
  5
608
100
AcDbEntity
  8
0
100
AcDbPolyline
 62
7
  6
CONTINUOUS
 90
4
 70
0
 10
13.3626434083
 20
6.5948375987
 10
13.3794181237
 20
6.6001902223
 10
13.3950493239
 20
6.6065935376
 10
13.4093404375
 20
6.6139670189
  0
LINE
  5
609
100
AcDbEntity
  8
02___PRT_ALL_AXES
100
AcDbLine
 62
7
  6
CONTINUOUS
 10
13.3660788233
 20
6.5750773434
 11
13.4011325651
 21
6.585894887
  0
LWPOLYLINE
  5
60A
100
AcDbEntity
  8
02___PRT_ALL_AXES
100
AcDbPolyline
 62
7
  6
CONTINUOUS
 90
8
 70
0
 10
12.304237124
 20
6.5707298596
 10
12.3079804821
 20
6.5211872514
 10
12.3245696114
 20
6.4558034048
 10
12.354194066
 20
6.3919735521
 10
12.396453226
 20
6.3305608825
 10
12.4507756086
 20
6.272395897
 10
12.5164265969
 20
6.2182651772
 10
12.5925183739
 20
6.1689007483
  0
LINE
  5
60B
100
AcDbEntity
  8
0
100
AcDbLine
 62
9
  6
CONTINUOUS
 10
12.3140772688
 20
6.6350073619
 11
12.3162591051
 21
6.5973815027
  0
LWPOLYLINE
  5
60C
100
AcDbEntity
  8
0
100
AcDbPolyline
 62
7
  6
CONTINUOUS
 90
3
 70
0
 10
13.4332026411
 20
6.6312425426
 10
13.4221117454
 20
6.6222179406
 10
13.4093404375
 20
6.6139670189
  0
LINE
  5
60D
100
AcDbEntity
  8
02___PRT_ALL_AXES
100
AcDbLine
 62
7
  6
CONTINUOUS
 10
13.4318573902
 20
6.6004528121
 11
13.4570725607
 21
6.6181916657
  0
LWPOLYLINE
  5
60E
100
AcDbEntity
  8
02___PRT_ALL_AXES
100
AcDbPolyline
 62
7
  6
CONTINUOUS
 90
3
 70
0
 10
13.0946381674
 20
6.683206235
 10
13.0882269417
 20
6.6693919309
 10
13.0881666126
 20
6.6689480375
  0
LWPOLYLINE
  5
60F
100
AcDbEntity
  8
0
100
AcDbPolyline
 62
9
  6
CONTINUOUS
 90
6
 70
0
 10
12.3162591051
 20
6.5973815027
 10
12.3242249009
 20
6.5540292847
 10
12.3379928846
 20
6.5111338903
 10
12.3574913745
 20
6.468956112
 10
12.3825210238
 20
6.4278872504
 10
12.4129493332
 20
6.3880911869
  0
LWPOLYLINE
  5
610
100
AcDbEntity
  8
02___PRT_ALL_AXES
100
AcDbPolyline
 62
7
  6
CONTINUOUS
 90
4
 70
0
 10
12.7018725444
 20
5.5892654574
 10
12.7035890229
 20
5.5639630539
 10
12.717755061
 20
5.5127800758
 10
12.7459087087
 20
5.4635154835
  0
LWPOLYLINE
  5
611
100
AcDbEntity
  8
02___PRT_ALL_AXES
100
AcDbPolyline
 62
7
  6
CONTINUOUS
 90
4
 70
0
 10
12.7018725444
 20
5.5952927882
 10
12.7035890229
 20
5.5699903847
 10
12.717755061
 20
5.5188074066
 10
12.7459087087
 20
5.4695428144
  0
LINE
  5
612
100
AcDbEntity
  8
02___PRT_ALL_AXES
100
AcDbLine
 62
7
  6
CONTINUOUS
 10
12.7018725444
 20
5.6374841041
 11
12.7035890229
 21
5.6121817005
  0
LWPOLYLINE
  5
613
100
AcDbEntity
  8
02___PRT_ALL_AXES
100
AcDbPolyline
 62
7
  6
CONTINUOUS
 90
3
 70
0
 10
12.7018725444
 20
5.6435114349
 10
12.7035890229
 20
5.6182090314
 10
12.717755061
 20
5.5670260533
  0
LINE
  5
614
100
AcDbEntity
  8
02___PRT_ALL_AXES
100
AcDbLine
 62
7
  6
CONTINUOUS
 10
12.7018725444
 20
5.6857027508
 11
12.7035890229
 21
5.6604003472
  0
LWPOLYLINE
  5
615
100
AcDbEntity
  8
02___PRT_ALL_AXES
100
AcDbPolyline
 62
7
  6
CONTINUOUS
 90
4
 70
0
 10
12.7018725444
 20
5.6917300816
 10
12.7035890229
 20
5.666427678
 10
12.717755061
 20
5.6152447
 10
12.7459087087
 20
5.5659801077
  0
LINE
  5
616
100
AcDbEntity
  8
02___PRT_ALL_AXES
100
AcDbLine
 62
7
  6
CONTINUOUS
 10
12.7032470717
 20
5.7136596555
 11
12.7035890229
 21
5.7086189939
  0
LINE
  5
617
100
AcDbEntity
  8
02___PRT_ALL_AXES
100
AcDbLine
 62
7
  6
CONTINUOUS
 10
12.7459087087
 20
5.4635154835
 11
12.7459087087
 21
5.4695428144
  0
LINE
  5
618
100
AcDbEntity
  8
02___PRT_ALL_AXES
100
AcDbLine
 62
7
  6
CONTINUOUS
 10
12.7459087087
 20
5.5117341302
 11
12.7459087087
 21
5.517761461
  0
LINE
  5
619
100
AcDbEntity
  8
02___PRT_ALL_AXES
100
AcDbLine
 62
7
  6
CONTINUOUS
 10
12.7459087087
 20
5.5599527769
 11
12.7459087087
 21
5.5659801077
  0
LINE
  5
61A
100
AcDbEntity
  8
02___PRT_ALL_AXES
100
AcDbLine
 62
7
  6
CONTINUOUS
 10
12.7459087087
 20
5.6081714236
 11
12.7459087087
 21
5.6141987544
  0
LINE
  5
61B
100
AcDbEntity
  8
02___PRT_ALL_AXES
100
AcDbLine
 62
7
  6
CONTINUOUS
 10
12.7459087087
 20
5.6563900702
 11
12.7459087087
 21
5.6624174011
  0
LINE
  5
61C
100
AcDbEntity
  8
02___PRT_ALL_AXES
100
AcDbLine
 62
7
  6
CONTINUOUS
 10
12.7033372414
 20
5.7123304744
 11
12.7018725444
 21
5.6917300816
  0
LINE
  5
61D
100
AcDbEntity
  8
02___PRT_ALL_AXES
100
AcDbLine
 62
7
  6
CONTINUOUS
 10
12.7033372414
 20
5.6641118277
 11
12.7018725444
 21
5.6435114349
  0
LINE
  5
61E
100
AcDbEntity
  8
02___PRT_ALL_AXES
100
AcDbLine
 62
7
  6
CONTINUOUS
 10
12.7033372414
 20
5.6158931811
 11
12.7018725444
 21
5.5952927882
  0
LINE
  5
61F
100
AcDbEntity
  8
02___PRT_ALL_AXES
100
AcDbLine
 62
7
  6
CONTINUOUS
 10
13.4570725607
 20
6.6181916657
 11
13.4758090718
 21
6.6384297537
  0
LWPOLYLINE
  5
620
100
AcDbEntity
  8
0
100
AcDbPolyline
 62
9
  6
CONTINUOUS
 90
4
 70
0
 10
12.7597447698
 20
5.4524980033
 10
12.760185726
 20
5.4513174209
 10
12.790425986
 20
5.4057496227
 10
12.8323787031
 20
5.3633865826
  0
LINE
  5
621
100
AcDbEntity
  8
02___PRT_ALL_AXES
100
AcDbLine
 62
7
  6
CONTINUOUS
 10
12.7035890229
 20
5.6121817005
 11
12.717755061
 21
5.5609987225
  0
LWPOLYLINE
  5
622
100
AcDbEntity
  8
02___PRT_ALL_AXES
100
AcDbPolyline
 62
7
  6
CONTINUOUS
 90
3
 70
0
 10
12.7035890229
 20
5.6604003472
 10
12.717755061
 20
5.6092173692
 10
12.7459087087
 20
5.5599527769
  0
LINE
  5
623
100
AcDbEntity
  8
02___PRT_ALL_AXES
100
AcDbLine
 62
7
  6
CONTINUOUS
 10
12.8323787031
 20
5.639565348
 11
12.8323787031
 21
5.6307808906
  0
LINE
  5
624
100
AcDbEntity
  8
02___PRT_ALL_AXES
100
AcDbLine
 62
7
  6
CONTINUOUS
 10
12.8323787031
 20
5.5913467014
 11
12.8323787031
 21
5.5825622439
  0
LINE
  5
625
100
AcDbEntity
  8
02___PRT_ALL_AXES
100
AcDbLine
 62
7
  6
CONTINUOUS
 10
12.8323787031
 20
5.5431280547
 11
12.8323787031
 21
5.5343435972
  0
LINE
  5
626
100
AcDbEntity
  8
02___PRT_ALL_AXES
100
AcDbLine
 62
7
  6
CONTINUOUS
 10
12.8323787031
 20
5.494909408
 11
12.8323787031
 21
5.4861249505
  0
LINE
  5
627
100
AcDbEntity
  8
02___PRT_ALL_AXES
100
AcDbLine
 62
7
  6
CONTINUOUS
 10
12.8323787031
 20
5.4466907613
 11
12.8323787031
 21
5.4379063038
  0
LINE
  5
628
100
AcDbEntity
  8
0
100
AcDbLine
 62
7
  6
CONTINUOUS
 10
12.8323787031
 20
5.3984721146
 11
12.8323787031
 21
5.3633865826
  0
LINE
  5
629
100
AcDbEntity
  8
0
100
AcDbLine
 62
7
  6
CONTINUOUS
 10
12.8389701957
 20
5.3465679094
 11
12.8413124157
 21
5.3449133652
  0
LWPOLYLINE
  5
62A
100
AcDbEntity
  8
0
100
AcDbPolyline
 62
7
  6
CONTINUOUS
 90
4
 70
0
 10
12.8389707442
 20
5.346567599
 10
12.7947159069
 20
5.3915521704
 10
12.7626215845
 20
5.4403545597
 10
12.7573188694
 20
5.4544297171
  0
LINE
  5
62B
100
AcDbEntity
  8
02___PRT_ALL_AXES
100
AcDbLine
 62
7
  6
CONTINUOUS
 10
12.717755061
 20
5.5609987225
 11
12.7459087087
 21
5.5117341302
  0
LINE
  5
62C
100
AcDbEntity
  8
02___PRT_ALL_AXES
100
AcDbLine
 62
7
  6
CONTINUOUS
 10
12.717755061
 20
5.5670260533
 11
12.7459087087
 21
5.517761461
  0
LINE
  5
62D
100
AcDbEntity
  8
02___PRT_ALL_AXES
100
AcDbLine
 62
7
  6
CONTINUOUS
 10
12.717755061
 20
5.6574360159
 11
12.7459087087
 21
5.6081714236
  0
LINE
  5
62E
100
AcDbEntity
  8
02___PRT_ALL_AXES
100
AcDbLine
 62
7
  6
CONTINUOUS
 10
12.717755061
 20
5.7056546625
 11
12.7459087087
 21
5.6563900702
  0
LINE
  5
62F
100
AcDbEntity
  8
02___PRT_ALL_AXES
100
AcDbLine
 62
7
  6
CONTINUOUS
 10
12.7203779393
 20
5.7070923561
 11
12.7459087087
 21
5.6624174011
  0
LINE
  5
630
100
AcDbEntity
  8
02___PRT_ALL_AXES
100
AcDbLine
 62
7
  6
CONTINUOUS
 10
12.7035890229
 20
5.7086189939
 11
12.717755061
 21
5.6574360159
  0
LWPOLYLINE
  5
631
100
AcDbEntity
  8
02___PRT_ALL_AXES
100
AcDbPolyline
 62
7
  6
CONTINUOUS
 90
3
 70
0
 10
12.703961294
 20
5.7133012805
 10
12.717755061
 20
5.6634633467
 10
12.7459087087
 20
5.6141987544
  0
LINE
  5
632
100
AcDbEntity
  8
02___PRT_ALL_AXES
100
AcDbLine
 62
7
  6
CONTINUOUS
 10
12.7170077811
 20
5.7083546418
 11
12.717755061
 21
5.7056546625
  0
LWPOLYLINE
  5
633
100
AcDbEntity
  8
0
100
AcDbPolyline
 62
7
  6
CONTINUOUS
 90
4
 70
0
 10
12.8323787031
 20
5.3633865826
 10
12.8338784987
 20
5.3541432728
 10
12.8382247639
 20
5.3472467085
 10
12.8389701957
 20
5.3465679094
  0
LINE
  5
634
100
AcDbEntity
  8
02___PRT_ALL_AXES
100
AcDbLine
 62
7
  6
CONTINUOUS
 10
12.979029554
 20
5.6060219242
 11
12.979029554
 21
5.5972374667
  0
LINE
  5
635
100
AcDbEntity
  8
02___PRT_ALL_AXES
100
AcDbLine
 62
7
  6
CONTINUOUS
 10
12.979029554
 20
5.5578032775
 11
12.979029554
 21
5.54901882
  0
LINE
  5
636
100
AcDbEntity
  8
02___PRT_ALL_AXES
100
AcDbLine
 62
7
  6
CONTINUOUS
 10
12.979029554
 20
5.5095846308
 11
12.979029554
 21
5.5008001734
  0
LINE
  5
637
100
AcDbEntity
  8
02___PRT_ALL_AXES
100
AcDbLine
 62
7
  6
CONTINUOUS
 10
12.979029554
 20
5.4613659841
 11
12.979029554
 21
5.4525815267
  0
LINE
  5
638
100
AcDbEntity
  8
02___PRT_ALL_AXES
100
AcDbLine
 62
7
  6
CONTINUOUS
 10
12.979029554
 20
5.4131473375
 11
12.979029554
 21
5.40436288
  0
LINE
  5
639
100
AcDbEntity
  8
02___PRT_ALL_AXES
100
AcDbLine
 62
7
  6
CONTINUOUS
 10
12.979029554
 20
5.3649286908
 11
12.979029554
 21
5.3561442333
  0
LINE
  5
63A
100
AcDbEntity
  8
0
100
AcDbLine
 62
7
  6
CONTINUOUS
 10
12.979029554
 20
5.3167100441
 11
12.979029554
 21
5.2787195897
  0
LWPOLYLINE
  5
63B
100
AcDbEntity
  8
0
100
AcDbPolyline
 62
7
  6
CONTINUOUS
 90
4
 70
0
 10
13.455114007
 20
6.6617835539
 10
13.4498081841
 20
6.6511505264
 10
13.4424736501
 20
6.6409273351
 10
13.4332026411
 20
6.6312425426
  0
LWPOLYLINE
  5
63C
100
AcDbEntity
  8
02___PRT_ALL_AXES
100
AcDbPolyline
 62
7
  6
CONTINUOUS
 90
3
 70
0
 10
13.4758090718
 20
6.6384297537
 10
13.4873468899
 20
6.6603893378
 10
13.4912426231
 20
6.6832260391
  0
LWPOLYLINE
  5
63D
100
AcDbEntity
  8
02___PRT_ALL_AXES
100
AcDbPolyline
 62
7
  6
CONTINUOUS
 90
10
 70
0
 10
13.0654995483
 20
5.2850735336
 10
13.1529128417
 20
5.2700223094
 10
13.2436488077
 20
5.263046736
 10
13.3354836705
 20
5.2643472465
 10
13.4261667222
 20
5.2739214424
 10
13.5134754839
 20
5.2915641518
 10
13.5952701744
 20
5.316872458
 10
13.6695461523
 20
5.3492555745
 10
13.7344830468
 20
5.3879493235
 10
13.788489371
 20
5.4320348654
  0
LWPOLYLINE
  5
63E
100
AcDbEntity
  8
02___PRT_ALL_AXES
100
AcDbPolyline
 62
7
  6
CONTINUOUS
 90
4
 70
0
 10
13.0654995483
 20
5.2850735336
 10
13.0365504015
 20
5.2944336774
 10
13.0077087906
 20
5.3049641046
 10
12.979029554
 20
5.3167100441
  0
LWPOLYLINE
  5
63F
100
AcDbEntity
  8
0
100
AcDbPolyline
 62
9
  6
CONTINUOUS
 90
14
 70
0
 10
12.979029554
 20
5.2787195897
 10
13.0524059392
 20
5.2544988629
 10
13.1313322713
 20
5.2370404102
 10
13.2139593864
 20
5.2267537833
 10
13.2983402453
 20
5.2238822435
 10
13.3824881722
 20
5.2284933752
 10
13.4644247821
 20
5.2404785189
 10
13.5422242064
 20
5.2595559412
 10
13.6140564378
 20
5.2852769772
 10
13.6782320511
 20
5.3170367023
 10
13.7332418214
 20
5.3540882146
 10
13.7777920713
 20
5.3955601721
 10
13.8108350252
 20
5.4404771751
 10
13.8264520911
 20
5.4760660297
  0
LINE
  5
640
100
AcDbEntity
  8
0
100
AcDbLine
 62
7
  6
CONTINUOUS
 10
12.9864060826
 20
5.2611453927
 11
12.9878658876
 21
5.2604447013
  0
LINE
  5
641
100
AcDbEntity
  8
0
100
AcDbLine
 62
7
  6
CONTINUOUS
 10
12.9863816625
 20
5.2611594913
 11
12.8413346514
 21
5.3449005277
  0
LINE
  5
642
100
AcDbEntity
  8
0
100
AcDbLine
 62
9
  6
CONTINUOUS
 10
12.979029554
 20
5.2787195897
 11
12.8323787031
 21
5.3633865826
  0
LWPOLYLINE
  5
643
100
AcDbEntity
  8
02___PRT_ALL_AXES
100
AcDbPolyline
 62
7
  6
CONTINUOUS
 90
5
 70
0
 10
12.8323787031
 20
5.4466907613
 10
12.8109869898
 20
5.4616883674
 10
12.7889393109
 20
5.4779190464
 10
12.7669639645
 20
5.4948462894
 10
12.7459087087
 20
5.5117341302
  0
LWPOLYLINE
  5
644
100
AcDbEntity
  8
02___PRT_ALL_AXES
100
AcDbPolyline
 62
7
  6
CONTINUOUS
 90
3
 70
0
 10
12.8323787031
 20
5.3984721146
 10
12.8037207681
 20
5.4187335523
 10
12.774882374
 20
5.4404441208
  0
LWPOLYLINE
  5
645
100
AcDbEntity
  8
02___PRT_ALL_AXES
100
AcDbPolyline
 62
7
  6
CONTINUOUS
 90
4
 70
0
 10
12.979029554
 20
5.3561442333
 10
13.0077154521
 20
5.335862375
 10
13.0365595439
 20
5.3141461397
 10
13.0654995483
 20
5.2911008644
  0
LWPOLYLINE
  5
646
100
AcDbEntity
  8
02___PRT_ALL_AXES
100
AcDbPolyline
 62
7
  6
CONTINUOUS
 90
4
 70
0
 10
12.8323787031
 20
5.494909408
 10
12.8037207681
 20
5.5151708456
 10
12.774882374
 20
5.5368814141
 10
12.7459087087
 20
5.5599527769
  0
LWPOLYLINE
  5
647
100
AcDbEntity
  8
02___PRT_ALL_AXES
100
AcDbPolyline
 62
7
  6
CONTINUOUS
 90
4
 70
0
 10
12.979029554
 20
5.40436288
 10
13.0076923821
 20
5.3840978691
 10
13.0365304068
 20
5.362387368
 10
13.0654995483
 20
5.3393195111
  0
LINE
  5
648
100
AcDbEntity
  8
02___PRT_ALL_AXES
100
AcDbLine
 62
7
  6
CONTINUOUS
 10
12.774882374
 20
5.4404441208
 11
12.7459087087
 21
5.4635154835
  0
LINE
  5
649
100
AcDbEntity
  8
02___PRT_ALL_AXES
100
AcDbLine
 62
7
  6
CONTINUOUS
 10
12.8323787031
 20
5.4861249505
 11
12.7995692099
 21
5.5182962863
  0
LINE
  5
64A
100
AcDbEntity
  8
02___PRT_ALL_AXES
100
AcDbLine
 62
7
  6
CONTINUOUS
 10
12.8323787031
 20
5.4379063038
 11
12.7999135101
 21
5.4698402502
  0
LINE
  5
64B
100
AcDbEntity
  8
02___PRT_ALL_AXES
100
AcDbLine
 62
7
  6
CONTINUOUS
 10
12.8323787031
 20
5.5343435972
 11
12.7999873658
 21
5.5662001304
  0
LINE
  5
64C
100
AcDbEntity
  8
02___PRT_ALL_AXES
100
AcDbLine
 62
7
  6
CONTINUOUS
 10
12.8323787031
 20
5.5825622439
 11
12.8000097785
 21
5.6144019039
  0
LWPOLYLINE
  5
64D
100
AcDbEntity
  8
0
100
AcDbPolyline
 62
7
  6
CONTINUOUS
 90
4
 70
0
 10
12.979029554
 20
5.2787195897
 10
12.980269109
 20
5.2696265266
 10
12.983858824
 20
5.2631667469
 10
12.9864060826
 20
5.2611453927
  0
LWPOLYLINE
  5
64E
100
AcDbEntity
  8
02___PRT_ALL_AXES
100
AcDbPolyline
 62
7
  6
CONTINUOUS
 90
7
 70
0
 10
13.1759878121
 20
3.8416690417
 10
13.1762733881
 20
3.8370352219
 10
13.1785577947
 20
3.8278624538
 10
13.1830800372
 20
3.8189707481
 10
13.1897480557
 20
3.8105411141
 10
13.1984261087
 20
3.802745155
 10
13.2089375359
 20
3.795741574
  0
LWPOLYLINE
  5
64F
100
AcDbEntity
  8
0
100
AcDbPolyline
 62
7
  6
CONTINUOUS
 90
10
 70
0
 10
13.0934872667
 20
6.6837403686
 10
13.0937540008
 20
6.6778478295
 10
13.0958876182
 20
6.6661282483
 10
13.1001313916
 20
6.6546016291
 10
13.1064388254
 20
6.6433942601
 10
13.1147408139
 20
6.6326289315
 10
13.124946399
 20
6.6224235904
 10
13.136943766
 20
6.6128900488
 10
13.1506014693
 20
6.6041327582
 10
13.1657698723
 20
6.5962476651
  0
LINE
  5
650
100
AcDbEntity
  8
02___PRT_ALL_AXES
100
AcDbLine
 62
7
  6
CONTINUOUS
 10
13.0654995483
 20
5.5804127445
 11
13.0654995483
 21
5.5743854137
  0
LINE
  5
651
100
AcDbEntity
  8
02___PRT_ALL_AXES
100
AcDbLine
 62
7
  6
CONTINUOUS
 10
13.0654995483
 20
5.5321940978
 11
13.0654995483
 21
5.526166767
  0
LINE
  5
652
100
AcDbEntity
  8
02___PRT_ALL_AXES
100
AcDbLine
 62
7
  6
CONTINUOUS
 10
13.0654995483
 20
5.4839754511
 11
13.0654995483
 21
5.4779481203
  0
LINE
  5
653
100
AcDbEntity
  8
02___PRT_ALL_AXES
100
AcDbLine
 62
7
  6
CONTINUOUS
 10
13.0654995483
 20
5.4357568045
 11
13.0654995483
 21
5.4297294736
  0
LINE
  5
654
100
AcDbEntity
  8
02___PRT_ALL_AXES
100
AcDbLine
 62
7
  6
CONTINUOUS
 10
13.0654995483
 20
5.3875381578
 11
13.0654995483
 21
5.3815108269
  0
LINE
  5
655
100
AcDbEntity
  8
02___PRT_ALL_AXES
100
AcDbLine
 62
7
  6
CONTINUOUS
 10
13.0654995483
 20
5.3393195111
 11
13.0654995483
 21
5.3332921803
  0
LINE
  5
656
100
AcDbEntity
  8
02___PRT_ALL_AXES
100
AcDbLine
 62
7
  6
CONTINUOUS
 10
13.0654995483
 20
5.2911008644
 11
13.0654995483
 21
5.2850735336
  0
LINE
  5
657
100
AcDbEntity
  8
0
100
AcDbLine
 62
7
  6
CONTINUOUS
 10
13.0934867176
 20
6.6510802715
 11
13.0934867176
 21
6.6837403682
  0
LWPOLYLINE
  5
658
100
AcDbEntity
  8
02___PRT_ALL_AXES
100
AcDbPolyline
 62
7
  6
CONTINUOUS
 90
9
 70
0
 10
13.2436488077
 20
5.2690740668
 10
13.3354836705
 20
5.2703745773
 10
13.4261667222
 20
5.2799487732
 10
13.5134754839
 20
5.2975914826
 10
13.5952701744
 20
5.3228997889
 10
13.6695461523
 20
5.3552829053
 10
13.7344830468
 20
5.3939766544
 10
13.788489371
 20
5.4380621962
 10
13.8302415266
 20
5.4864885477
  0
LINE
  5
659
100
AcDbEntity
  8
02___PRT_ALL_AXES
100
AcDbLine
 62
7
  6
CONTINUOUS
 10
13.1529128417
 20
5.2760496403
 11
13.2436488077
 21
5.2690740668
  0
LINE
  5
65A
100
AcDbEntity
  8
02___PRT_ALL_AXES
100
AcDbLine
 62
7
  6
CONTINUOUS
 10
13.0654995483
 20
5.2911008644
 11
13.1529128417
 21
5.2760496403
  0
LWPOLYLINE
  5
65B
100
AcDbEntity
  8
02___PRT_ALL_AXES
100
AcDbPolyline
 62
7
  6
CONTINUOUS
 90
11
 70
0
 10
13.0654995483
 20
5.3332921803
 10
13.1529128417
 20
5.3182409561
 10
13.2436488077
 20
5.3112653827
 10
13.3354836705
 20
5.3125658932
 10
13.4261667222
 20
5.3221400891
 10
13.5134754839
 20
5.3397827984
 10
13.5952701744
 20
5.3650911047
 10
13.6695461523
 20
5.3974742212
 10
13.7344830468
 20
5.4361679702
 10
13.788489371
 20
5.480253512
 10
13.8302415266
 20
5.5286798635
  0
LWPOLYLINE
  5
65C
100
AcDbEntity
  8
02___PRT_ALL_AXES
100
AcDbPolyline
 62
7
  6
CONTINUOUS
 90
11
 70
0
 10
13.0654995483
 20
5.3393195111
 10
13.1529128417
 20
5.324268287
 10
13.2436488077
 20
5.3172927135
 10
13.3354836705
 20
5.318593224
 10
13.4261667222
 20
5.3281674199
 10
13.5134754839
 20
5.3458101293
 10
13.5952701744
 20
5.3711184355
 10
13.6695461523
 20
5.403501552
 10
13.7344830468
 20
5.4421953011
 10
13.788489371
 20
5.4862808429
 10
13.8302415266
 20
5.5347071944
  0
LWPOLYLINE
  5
65D
100
AcDbEntity
  8
02___PRT_ALL_AXES
100
AcDbPolyline
 62
7
  6
CONTINUOUS
 90
6
 70
0
 10
13.0654995483
 20
5.3815108269
 10
13.1529128417
 20
5.3664596028
 10
13.2436488077
 20
5.3594840293
 10
13.3354836705
 20
5.3607845399
 10
13.4261667222
 20
5.3703587357
 10
13.5134754839
 20
5.3880014451
  0
LWPOLYLINE
  5
65E
100
AcDbEntity
  8
02___PRT_ALL_AXES
100
AcDbPolyline
 62
7
  6
CONTINUOUS
 90
6
 70
0
 10
13.0654995483
 20
5.3875381578
 10
13.1529128417
 20
5.3724869336
 10
13.2436488077
 20
5.3655113602
 10
13.3354836705
 20
5.3668118707
 10
13.4261667222
 20
5.3763860666
 10
13.5134754839
 20
5.394028776
  0
LWPOLYLINE
  5
65F
100
AcDbEntity
  8
02___PRT_ALL_AXES
100
AcDbPolyline
 62
7
  6
CONTINUOUS
 90
3
 70
0
 10
13.1331035123
 20
5.364763033
 10
13.0533564918
 20
5.3810752927
 10
12.979029554
 20
5.40436288
  0
LWPOLYLINE
  5
660
100
AcDbEntity
  8
02___PRT_ALL_AXES
100
AcDbPolyline
 62
7
  6
CONTINUOUS
 90
3
 70
0
 10
13.1315980439
 20
5.413216554
 10
13.0527823846
 20
5.4294416684
 10
12.979029554
 20
5.4525815267
  0
LWPOLYLINE
  5
661
100
AcDbEntity
  8
02___PRT_ALL_AXES
100
AcDbPolyline
 62
7
  6
CONTINUOUS
 90
3
 70
0
 10
13.1302516062
 20
5.3169915909
 10
13.0519711432
 20
5.3332139122
 10
12.979029554
 20
5.3561442333
  0
LWPOLYLINE
  5
662
100
AcDbEntity
  8
02___PRT_ALL_AXES
100
AcDbPolyline
 62
7
  6
CONTINUOUS
 90
5
 70
0
 10
12.7459087087
 20
5.517761461
 10
12.7669752046
 20
5.5110663387
 10
12.7888507289
 20
5.5034479423
 10
12.8108650379
 20
5.4950582254
 10
12.8323787031
 20
5.4861249505
  0
LWPOLYLINE
  5
663
100
AcDbEntity
  8
02___PRT_ALL_AXES
100
AcDbPolyline
 62
7
  6
CONTINUOUS
 90
4
 70
0
 10
13.0654995483
 20
5.3332921803
 10
13.0365242568
 20
5.3426613118
 10
13.0076881144
 20
5.3531907524
 10
12.979029554
 20
5.3649286908
  0
LWPOLYLINE
  5
664
100
AcDbEntity
  8
02___PRT_ALL_AXES
100
AcDbPolyline
 62
7
  6
CONTINUOUS
 90
4
 70
0
 10
12.7459087087
 20
5.4695428144
 10
12.7748796488
 20
5.4601751788
 10
12.8037154622
 20
5.4496460535
 10
12.8323787031
 20
5.4379063038
  0
LWPOLYLINE
  5
665
100
AcDbEntity
  8
02___PRT_ALL_AXES
100
AcDbPolyline
 62
7
  6
CONTINUOUS
 90
4
 70
0
 10
13.0654995483
 20
5.3815108269
 10
13.0365242568
 20
5.3908799585
 10
13.0076881144
 20
5.4014093991
 10
12.979029554
 20
5.4131473375
  0
LWPOLYLINE
  5
666
100
AcDbEntity
  8
02___PRT_ALL_AXES
100
AcDbPolyline
 62
7
  6
CONTINUOUS
 90
4
 70
0
 10
13.0654995483
 20
5.4297294736
 10
13.0365242568
 20
5.4390986052
 10
13.0076881144
 20
5.4496280457
 10
12.979029554
 20
5.4613659841
  0
LWPOLYLINE
  5
667
100
AcDbEntity
  8
0
100
AcDbPolyline
 62
7
  6
CONTINUOUS
 90
7
 70
0
 10
12.6006724023
 20
5.7651284981
 10
12.5127302874
 20
5.8232747631
 10
12.4386506843
 20
5.8881050622
 10
12.3799783947
 20
5.9582855005
 10
12.3378207929
 20
6.0321748219
 10
12.3126026166
 20
6.1081462551
 10
12.3042347491
 20
6.1849666869
  0
LWPOLYLINE
  5
668
100
AcDbEntity
  8
02___PRT_ALL_AXES
100
AcDbPolyline
 62
7
  6
CONTINUOUS
 90
4
 70
0
 10
12.8323787031
 20
5.5431280547
 10
12.8037207681
 20
5.5633894923
 10
12.774882374
 20
5.5851000608
 10
12.7459087087
 20
5.6081714236
  0
LWPOLYLINE
  5
669
100
AcDbEntity
  8
02___PRT_ALL_AXES
100
AcDbPolyline
 62
7
  6
CONTINUOUS
 90
4
 70
0
 10
12.979029554
 20
5.4525815267
 10
13.0076923821
 20
5.4323165158
 10
13.0365304068
 20
5.4106060147
 10
13.0654995483
 20
5.3875381578
  0
LWPOLYLINE
  5
66A
100
AcDbEntity
  8
02___PRT_ALL_AXES
100
AcDbPolyline
 62
7
  6
CONTINUOUS
 90
4
 70
0
 10
12.8323787031
 20
5.5913467014
 10
12.8037207681
 20
5.611608139
 10
12.774882374
 20
5.6333187075
 10
12.7459087087
 20
5.6563900702
  0
LWPOLYLINE
  5
66B
100
AcDbEntity
  8
02___PRT_ALL_AXES
100
AcDbPolyline
 62
7
  6
CONTINUOUS
 90
4
 70
0
 10
12.979029554
 20
5.5008001734
 10
13.0076923821
 20
5.4805351625
 10
13.0365304068
 20
5.4588246614
 10
13.0654995483
 20
5.4357568045
  0
LWPOLYLINE
  5
66C
100
AcDbEntity
  8
02___PRT_ALL_AXES
100
AcDbPolyline
 62
7
  6
CONTINUOUS
 90
4
 70
0
 10
12.8323787031
 20
5.639565348
 10
12.8037207681
 20
5.6598267857
 10
12.774882374
 20
5.6815373542
 10
12.7626936158
 20
5.691243108
  0
LWPOLYLINE
  5
66D
100
AcDbEntity
  8
02___PRT_ALL_AXES
100
AcDbPolyline
 62
7
  6
CONTINUOUS
 90
4
 70
0
 10
12.979029554
 20
5.54901882
 10
13.0076923821
 20
5.5287538091
 10
13.0365304068
 20
5.507043308
 10
13.0654995483
 20
5.4839754511
  0
LINE
  5
66E
100
AcDbEntity
  8
02___PRT_ALL_AXES
100
AcDbLine
 62
7
  6
CONTINUOUS
 10
12.8323787031
 20
5.6307808906
 11
12.7998513327
 21
5.6627398343
  0
LINE
  5
66F
100
AcDbEntity
  8
02___PRT_ALL_AXES
100
AcDbLine
 62
7
  6
CONTINUOUS
 10
13.1759867176
 20
3.8416690413
 11
13.1759867176
 21
5.2150635479
  0
LINE
  5
670
100
AcDbEntity
  8
0
100
AcDbLine
 62
9
  6
CONTINUOUS
 10
14.1176433746
 20
6.3395046979
 11
14.1547751324
 21
6.3774467387
  0
LWPOLYLINE
  5
671
100
AcDbEntity
  8
02___PRT_ALL_AXES
100
AcDbPolyline
 62
7
  6
CONTINUOUS
 90
3
 70
0
 10
13.3836871536
 20
5.4566015751
 10
13.2992411612
 20
5.4506971366
 10
13.2151777625
 20
5.452290277
  0
LINE
  5
672
100
AcDbEntity
  8
02___PRT_ALL_AXES
100
AcDbLine
 62
7
  6
CONTINUOUS
 10
13.2151777625
 20
5.452290277
 11
13.132852227
 21
5.4612393446
  0
LWPOLYLINE
  5
673
100
AcDbEntity
  8
02___PRT_ALL_AXES
100
AcDbPolyline
 62
7
  6
CONTINUOUS
 90
11
 70
0
 10
13.0654995483
 20
5.4297294736
 10
13.1529128417
 20
5.4146782495
 10
13.2436488077
 20
5.407702676
 10
13.3354836705
 20
5.4090031865
 10
13.4261667222
 20
5.4185773824
 10
13.5134754839
 20
5.4362200918
 10
13.5952701744
 20
5.4615283981
 10
13.6695461523
 20
5.4939115145
 10
13.7344830468
 20
5.5326052636
 10
13.788489371
 20
5.5766908054
 10
13.8302415266
 20
5.6251171569
  0
LWPOLYLINE
  5
674
100
AcDbEntity
  8
02___PRT_ALL_AXES
100
AcDbPolyline
 62
7
  6
CONTINUOUS
 90
6
 70
0
 10
13.0654995483
 20
5.4357568045
 10
13.1529128417
 20
5.4207055803
 10
13.2436488077
 20
5.4137300069
 10
13.3354836705
 20
5.4150305174
 10
13.4261667222
 20
5.4246047133
 10
13.5134754839
 20
5.4422474226
  0
LWPOLYLINE
  5
675
100
AcDbEntity
  8
02___PRT_ALL_AXES
100
AcDbPolyline
 62
7
  6
CONTINUOUS
 90
11
 70
0
 10
13.0654995483
 20
5.4779481203
 10
13.1529128417
 20
5.4628968962
 10
13.2436488077
 20
5.4559213227
 10
13.3354836705
 20
5.4572218332
 10
13.4261667222
 20
5.4667960291
 10
13.5134754839
 20
5.4844387385
 10
13.5952701744
 20
5.5097470447
 10
13.6695461523
 20
5.5421301612
 10
13.7344830468
 20
5.5808239103
 10
13.788489371
 20
5.6249094521
 10
13.8302415266
 20
5.6733358036
  0
LWPOLYLINE
  5
676
100
AcDbEntity
  8
02___PRT_ALL_AXES
100
AcDbPolyline
 62
7
  6
CONTINUOUS
 90
12
 70
0
 10
13.0654995483
 20
5.4839754511
 10
13.1529128417
 20
5.468924227
 10
13.2436488077
 20
5.4619486535
 10
13.3354836705
 20
5.4632491641
 10
13.4261667222
 20
5.4728233599
 10
13.5134754839
 20
5.4904660693
 10
13.5952701744
 20
5.5157743756
 10
13.6695461523
 20
5.548157492
 10
13.7344830468
 20
5.5868512411
 10
13.788489371
 20
5.6309367829
 10
13.8302415266
 20
5.6793631344
 10
13.8419598525
 20
5.7006023402
  0
LWPOLYLINE
  5
677
100
AcDbEntity
  8
02___PRT_ALL_AXES
100
AcDbPolyline
 62
7
  6
CONTINUOUS
 90
11
 70
0
 10
13.0654995483
 20
5.526166767
 10
13.1529128417
 20
5.5111155429
 10
13.2436488077
 20
5.5041399694
 10
13.3354836705
 20
5.5054404799
 10
13.4261667222
 20
5.5150146758
 10
13.5134754839
 20
5.5326573852
 10
13.5952701744
 20
5.5579656914
 10
13.6695461523
 20
5.5903488079
 10
13.7344830468
 20
5.629042557
 10
13.788489371
 20
5.6731280988
 10
13.7993570521
 20
5.6857330083
  0
LWPOLYLINE
  5
678
100
AcDbEntity
  8
02___PRT_ALL_AXES
100
AcDbPolyline
 62
7
  6
CONTINUOUS
 90
11
 70
0
 10
13.0654995483
 20
5.5321940978
 10
13.1529128417
 20
5.5171428737
 10
13.2436488077
 20
5.5101673002
 10
13.3354836705
 20
5.5114678107
 10
13.4261667222
 20
5.5210420066
 10
13.5134754839
 20
5.538684716
 10
13.5952701744
 20
5.5639930223
 10
13.6695461523
 20
5.5963761387
 10
13.7344830468
 20
5.6350698878
 10
13.788489371
 20
5.6791554296
 10
13.7919235229
 20
5.6831385401
  0
LWPOLYLINE
  5
679
100
AcDbEntity
  8
02___PRT_ALL_AXES
100
AcDbPolyline
 62
7
  6
CONTINUOUS
 90
3
 70
0
 10
13.132852227
 20
5.4612393446
 10
13.0532368805
 20
5.4775433263
 10
12.979029554
 20
5.5008001734
  0
LWPOLYLINE
  5
67A
100
AcDbEntity
  8
02___PRT_ALL_AXES
100
AcDbPolyline
 62
7
  6
CONTINUOUS
 90
3
 70
0
 10
13.1327270989
 20
5.5094774483
 10
13.0531778184
 20
5.5257771594
 10
12.979029554
 20
5.54901882
  0
LWPOLYLINE
  5
67B
100
AcDbEntity
  8
02___PRT_ALL_AXES
100
AcDbPolyline
 62
7
  6
CONTINUOUS
 90
5
 70
0
 10
13.0654995483
 20
5.526166767
 10
13.0444606611
 20
5.5328527111
 10
13.0224932211
 20
5.5405037192
 10
13.000440647
 20
5.5489108471
 10
12.979029554
 20
5.5578032775
  0
LWPOLYLINE
  5
67C
100
AcDbEntity
  8
02___PRT_ALL_AXES
100
AcDbPolyline
 62
7
  6
CONTINUOUS
 90
4
 70
0
 10
12.7459087087
 20
5.5659801077
 10
12.7748796488
 20
5.5566124722
 10
12.8037154622
 20
5.5460833469
 10
12.8323787031
 20
5.5343435972
  0
LWPOLYLINE
  5
67D
100
AcDbEntity
  8
02___PRT_ALL_AXES
100
AcDbPolyline
 62
7
  6
CONTINUOUS
 90
4
 70
0
 10
13.0654995483
 20
5.4779481203
 10
13.0365242568
 20
5.4873172519
 10
13.0076881144
 20
5.4978466924
 10
12.979029554
 20
5.5095846308
  0
LWPOLYLINE
  5
67E
100
AcDbEntity
  8
02___PRT_ALL_AXES
100
AcDbPolyline
 62
7
  6
CONTINUOUS
 90
4
 70
0
 10
12.7459087087
 20
5.6141987544
 10
12.7748796488
 20
5.6048311188
 10
12.8037154622
 20
5.5943019936
 10
12.8323787031
 20
5.5825622439
  0
LWPOLYLINE
  5
67F
100
AcDbEntity
  8
02___PRT_ALL_AXES
100
AcDbPolyline
 62
7
  6
CONTINUOUS
 90
4
 70
0
 10
12.7459087087
 20
5.6624174011
 10
12.7748796488
 20
5.6530497655
 10
12.8037154622
 20
5.6425206402
 10
12.8323787031
 20
5.6307808906
  0
LWPOLYLINE
  5
680
100
AcDbEntity
  8
02___PRT_ALL_AXES
100
AcDbPolyline
 62
7
  6
CONTINUOUS
 90
4
 70
0
 10
13.0654995483
 20
5.5743854137
 10
13.0365242568
 20
5.5837545452
 10
13.0076881144
 20
5.5942839858
 10
12.979029554
 20
5.6060219242
  0
LWPOLYLINE
  5
681
100
AcDbEntity
  8
0
100
AcDbPolyline
 62
9
  6
CONTINUOUS
 90
3
 70
0
 10
12.5925183739
 20
5.7831515748
 10
12.6664587294
 20
5.7445818235
 10
12.7598500752
 20
5.7056353715
  0
LWPOLYLINE
  5
682
100
AcDbEntity
  8
02___PRT_ALL_AXES
100
AcDbPolyline
 62
7
  6
CONTINUOUS
 90
5
 70
0
 10
12.979029554
 20
5.5972374667
 10
13.0005206363
 20
5.5821684483
 10
13.0225251338
 20
5.5659668413
 10
13.0444075894
 20
5.5491108154
 10
13.0654995483
 20
5.5321940978
  0
LWPOLYLINE
  5
683
100
AcDbEntity
  8
02___PRT_ALL_AXES
100
AcDbPolyline
 62
7
  6
CONTINUOUS
 90
4
 70
0
 10
13.007041697
 20
5.6256511458
 10
13.0076923821
 20
5.6251911025
 10
13.0365304068
 20
5.6034806014
 10
13.0654995483
 20
5.5804127445
  0
LWPOLYLINE
  5
684
100
AcDbEntity
  8
0
100
AcDbPolyline
 62
9
  6
CONTINUOUS
 90
5
 70
0
 10
12.4129493332
 20
6.3880911869
 10
12.4490992165
 20
6.3492945994
 10
12.4916010999
 20
6.3112594957
 10
12.5413434689
 20
6.2738797325
 10
12.5994780573
 20
6.2372104283
  0
LINE
  5
685
100
AcDbEntity
  8
02___PRT_ALL_AXES
100
AcDbLine
 62
7
  6
CONTINUOUS
 10
13.0857308121
 20
6.6832260328
 11
13.0896268746
 21
6.6603883818
  0
LINE
  5
686
100
AcDbEntity
  8
02___PRT_ALL_AXES
100
AcDbLine
 62
7
  6
CONTINUOUS
 10
13.4009867176
 20
3.8416690413
 11
13.4009867176
 21
5.2145450354
  0
LWPOLYLINE
  5
687
100
AcDbEntity
  8
0
100
AcDbPolyline
 62
7
  6
CONTINUOUS
 90
9
 70
0
 10
13.4834861685
 20
6.6837403677
 10
13.4832195194
 20
6.6778487657
 10
13.481086071
 20
6.6661291742
 10
13.4768424638
 20
6.6546025346
 10
13.4705351917
 20
6.6433951353
 10
13.4622333584
 20
6.6326297667
 10
13.4520279205
 20
6.6224243766
 10
13.440030691
 20
6.6128907774
 10
13.426373114
 20
6.604133421
  0
LWPOLYLINE
  5
688
100
AcDbEntity
  8
0
100
AcDbPolyline
 62
9
  6
CONTINUOUS
 90
5
 70
0
 10
14.1547751324
 20
6.3774467387
 10
14.1867082069
 20
6.4169341211
 10
14.2132505406
 20
6.4577289361
 10
14.2342442002
 20
6.4995883052
 10
14.2495642127
 20
6.5422656608
  0
LWPOLYLINE
  5
689
100
AcDbEntity
  8
02___PRT_ALL_AXES
100
AcDbPolyline
 62
7
  6
CONTINUOUS
 90
5
 70
0
 10
13.6288250601
 20
5.5243764283
 10
13.6139731562
 20
5.5167450977
 10
13.5423000797
 20
5.4899065659
 10
13.4654589006
 20
5.4698441544
 10
13.3836871536
 20
5.4566015751
  0
LWPOLYLINE
  5
68A
100
AcDbEntity
  8
02___PRT_ALL_AXES
100
AcDbPolyline
 62
7
  6
CONTINUOUS
 90
8
 70
0
 10
13.6284489584
 20
5.6206497475
 10
13.6129905288
 20
5.6127512893
 10
13.5418864035
 20
5.586213602
 10
13.4643930451
 20
5.5660578575
 10
13.38176185
 20
5.5528187729
 10
13.2967924474
 20
5.5470758829
 10
13.212636982
 20
5.5488921925
 10
13.1306172368
 20
5.5580269532
  0
LWPOLYLINE
  5
68B
100
AcDbEntity
  8
0
100
AcDbPolyline
 62
7
  6
CONTINUOUS
 90
8
 70
0
 10
13.9541754059
 20
5.752747643
 10
13.8475446783
 20
5.7025515696
 10
13.73060373
 20
5.6617365584
 10
13.6055181372
 20
5.6308982092
 10
13.4746762077
 20
5.6105147501
 10
13.3404772751
 20
5.600883568
 10
13.2053508643
 20
5.6021423055
 10
13.0717875781
 20
5.6142631539
  0
LWPOLYLINE
  5
68C
100
AcDbEntity
  8
02___PRT_ALL_AXES
100
AcDbPolyline
 62
7
  6
CONTINUOUS
 90
7
 70
0
 10
13.5956350472
 20
5.4616874767
 10
13.5435842251
 20
5.4420939197
 10
13.4659792312
 20
5.421735173
 10
13.3831545138
 20
5.4083216306
 10
13.2979277851
 20
5.4024463064
 10
13.213437653
 20
5.4041836276
 10
13.1315980439
 20
5.413216554
  0
LWPOLYLINE
  5
68D
100
AcDbEntity
  8
02___PRT_ALL_AXES
100
AcDbPolyline
 62
7
  6
CONTINUOUS
 90
7
 70
0
 10
13.5954432641
 20
5.5580411557
 10
13.5431446646
 20
5.5383919582
 10
13.4658086026
 20
5.5181364675
 10
13.3834191249
 20
5.5047893372
 10
13.2987635246
 20
5.4989038698
 10
13.2149573026
 20
5.5005229332
 10
13.1327270989
 20
5.5094774483
  0
LWPOLYLINE
  5
68E
100
AcDbEntity
  8
02___PRT_ALL_AXES
100
AcDbPolyline
 62
7
  6
CONTINUOUS
 90
8
 70
0
 10
13.5134754839
 20
5.4422474226
 10
13.5952701744
 20
5.4675557289
 10
13.6695461523
 20
5.4999388454
 10
13.7344830468
 20
5.5386325944
 10
13.788489371
 20
5.5827181362
 10
13.8302415266
 20
5.6311444877
 10
13.8587162433
 20
5.6827542804
 10
13.8664903362
 20
5.7114701773
  0
LWPOLYLINE
  5
68F
100
AcDbEntity
  8
02___PRT_ALL_AXES
100
AcDbPolyline
 62
7
  6
CONTINUOUS
 90
6
 70
0
 10
13.4137347401
 20
5.606141106
 10
13.3819712468
 20
5.6010611598
 10
13.2985922009
 20
5.5953369482
 10
13.2151605791
 20
5.5969473071
 10
13.1328812398
 20
5.6058907759
 10
13.1080747882
 20
5.610970095
  0
LWPOLYLINE
  5
690
100
AcDbEntity
  8
02___PRT_ALL_AXES
100
AcDbPolyline
 62
7
  6
CONTINUOUS
 90
3
 70
0
 10
13.2257647994
 20
5.6019521444
 10
13.2436488077
 20
5.6005772627
 10
13.2951164093
 20
5.6013061162
  0
LWPOLYLINE
  5
691
100
AcDbEntity
  8
02___PRT_ALL_AXES
100
AcDbPolyline
 62
7
  6
CONTINUOUS
 90
9
 70
0
 10
13.0654995483
 20
5.5743854137
 10
13.1529128417
 20
5.5593341895
 10
13.2436488077
 20
5.5523586161
 10
13.3354836705
 20
5.5536591266
 10
13.4261667222
 20
5.5632333225
 10
13.5134754839
 20
5.5808760318
 10
13.5952701744
 20
5.6061843381
 10
13.6695461523
 20
5.6385674546
 10
13.6927795305
 20
5.6524114567
  0
LWPOLYLINE
  5
692
100
AcDbEntity
  8
02___PRT_ALL_AXES
100
AcDbPolyline
 62
7
  6
CONTINUOUS
 90
9
 70
0
 10
13.0654995483
 20
5.5804127445
 10
13.1529128417
 20
5.5653615204
 10
13.2436488077
 20
5.5583859469
 10
13.3354836705
 20
5.5596864574
 10
13.4261667222
 20
5.5692606533
 10
13.5134754839
 20
5.5869033627
 10
13.5952701744
 20
5.6122116689
 10
13.6695461523
 20
5.6445947854
 10
13.6755255053
 20
5.6481576842
  0
LWPOLYLINE
  5
693
100
AcDbEntity
  8
0
100
AcDbPolyline
 62
7
  6
CONTINUOUS
 90
5
 70
0
 10
13.0717875781
 20
5.6142631539
 10
12.9421765457
 20
5.6370601157
 10
12.8189719773
 20
5.6701641654
 10
12.7044337313
 20
5.7130642259
 10
12.6006724023
 20
5.7651284981
  0
LWPOLYLINE
  5
694
100
AcDbEntity
  8
02___PRT_ALL_AXES
100
AcDbPolyline
 62
7
  6
CONTINUOUS
 90
3
 70
0
 10
13.1306172368
 20
5.5580269532
 10
13.0518764931
 20
5.5743316532
 10
12.979029554
 20
5.5972374667
  0
LWPOLYLINE
  5
695
100
AcDbEntity
  8
0
100
AcDbPolyline
 62
9
  6
CONTINUOUS
 90
14
 70
0
 10
12.8703932837
 20
5.6705326556
 10
12.9939180544
 20
5.6427625362
 10
13.1246569489
 20
5.6246439187
 10
13.2578494945
 20
5.6169920317
 10
13.3914179617
 20
5.6198325726
 10
13.5232665332
 20
5.6331200133
 10
13.6508326383
 20
5.6566254376
 10
13.7716534384
 20
5.6898973874
 10
13.8835204019
 20
5.7323191871
 10
13.9843945324
 20
5.7831166323
 10
14.0723979485
 20
5.841346261
 10
14.1458960888
 20
5.9059240208
 10
14.2035475849
 20
5.9756728032
 10
14.2442840294
 20
6.0493178046
  0
LINE
  5
696
100
AcDbEntity
  8
0
100
AcDbLine
 62
9
  6
CONTINUOUS
 10
12.7598500752
 20
5.7056353715
 11
12.8703932837
 21
5.6705326556
  0
LINE
  5
697
100
AcDbEntity
  8
0
100
AcDbLine
 62
7
  6
CONTINUOUS
 10
13.4834867176
 20
6.6510802715
 11
13.4834867176
 21
6.6837403682
  0
LWPOLYLINE
  5
698
100
AcDbEntity
  8
02___PRT_ALL_AXES
100
AcDbPolyline
 62
7
  6
CONTINUOUS
 90
8
 70
0
 10
13.6290165376
 20
5.3798039694
 10
13.6138122861
 20
5.3720184468
 10
13.5425923739
 20
5.3453428189
 10
13.4649004119
 20
5.3250708813
 10
13.3820178646
 20
5.3117545715
 10
13.2967734319
 20
5.3059822195
 10
13.212328024
 20
5.3078194497
 10
13.1302516062
 20
5.3169915909
  0
LWPOLYLINE
  5
699
100
AcDbEntity
  8
02___PRT_ALL_AXES
100
AcDbPolyline
 62
7
  6
CONTINUOUS
 90
7
 70
0
 10
13.5542417061
 20
5.3979743778
 10
13.5414611695
 20
5.3932053884
 10
13.4642801205
 20
5.3731596646
 10
13.383129982
 20
5.3601001682
 10
13.2993811486
 20
5.3542633802
 10
13.2155308811
 20
5.3558306526
 10
13.1331035123
 20
5.364763033
  0
LWPOLYLINE
  5
69A
100
AcDbEntity
  8
02___PRT_ALL_AXES
100
AcDbPolyline
 62
7
  6
CONTINUOUS
 90
7
 70
0
 10
13.5134754839
 20
5.394028776
 10
13.5952701744
 20
5.4193370822
 10
13.6695461523
 20
5.4517201987
 10
13.7344830468
 20
5.4904139477
 10
13.788489371
 20
5.5344994896
 10
13.8302415266
 20
5.5829258411
 10
13.8587162433
 20
5.6345356337
  0
LWPOLYLINE
  5
69B
100
AcDbEntity
  8
02___PRT_ALL_AXES
100
AcDbPolyline
 62
7
  6
CONTINUOUS
 90
7
 70
0
 10
13.5134754839
 20
5.3880014451
 10
13.5952701744
 20
5.4133097514
 10
13.6695461523
 20
5.4456928678
 10
13.7344830468
 20
5.4843866169
 10
13.788489371
 20
5.5284721587
 10
13.8302415266
 20
5.5768985102
 10
13.8587162433
 20
5.6285083029
  0
LINE
  5
69C
100
AcDbEntity
  8
02___PRT_ALL_AXES
100
AcDbLine
 62
7
  6
CONTINUOUS
 10
12.6780219288
 20
6.1249701794
 11
12.5925183739
 21
6.1689007483
  0
LINE
  5
69D
100
AcDbEntity
  8
02___PRT_ALL_AXES
100
AcDbLine
 62
7
  6
CONTINUOUS
 10
13.8302415266
 20
5.6733358036
 11
13.8460784138
 21
5.7020398104
  0
LWPOLYLINE
  5
69E
100
AcDbEntity
  8
02___PRT_ALL_AXES
100
AcDbPolyline
 62
7
  6
CONTINUOUS
 90
3
 70
0
 10
13.8302415266
 20
5.6251171569
 10
13.8587162433
 20
5.6767269496
 10
13.8681804065
 20
5.7116856178
  0
LWPOLYLINE
  5
69F
100
AcDbEntity
  8
0
100
AcDbPolyline
 62
9
  6
CONTINUOUS
 90
24
 70
0
 10
12.5994780573
 20
6.2372104283
 10
12.6629145885
 20
6.2036848775
 10
12.7275906814
 20
6.1749888176
 10
12.7934222423
 20
6.1504578391
 10
12.8605959038
 20
6.1295830417
 10
12.929524806
 20
6.1120043118
 10
13.0006712944
 20
6.097540715
 10
13.0737364118
 20
6.0862724041
 10
13.1480390606
 20
6.0783142821
 10
13.2231328978
 20
6.0737066299
 10
13.2986254222
 20
6.0724703278
 10
13.3740569768
 20
6.0746133115
 10
13.4489627473
 20
6.080121573
 10
13.5228938188
 20
6.0889605326
 10
13.5954084279
 20
6.1010759379
 10
13.6660723063
 20
6.1163939087
 10
13.7344654038
 20
6.1348223151
 10
13.8001824932
 20
6.1562515202
 10
13.8628313406
 20
6.1805537567
 10
13.9220357209
 20
6.2075834141
 10
13.9774391694
 20
6.2371779797
 10
14.0287082976
 20
6.2691593763
 10
14.0755365094
 20
6.303336386
 10
14.1176433746
 20
6.3395046979
  0
LWPOLYLINE
  5
6A0
100
AcDbEntity
  8
0
100
AcDbPolyline
 62
9
  6
CONTINUOUS
 90
41
 70
0
 10
12.6412361579
 20
6.3095379817
 10
12.7008160375
 20
6.2780500675
 10
12.7615730986
 20
6.2510919767
 10
12.8234154295
 20
6.2280467753
 10
12.8865183897
 20
6.2084363743
 10
12.9512700528
 20
6.1919224092
 10
13.0181048611
 20
6.1783348496
 10
13.0867421195
 20
6.1677489526
 10
13.1565420146
 20
6.1602726655
 10
13.2270852106
 20
6.1559438366
 10
13.298002986
 20
6.154782083
 10
13.3688635386
 20
6.1567948619
 10
13.4392302131
 20
6.1619690167
 10
13.5086812897
 20
6.1702720649
 10
13.5768017675
 20
6.1816530431
 10
13.643183686
 20
6.1960425486
 10
13.7074324415
 20
6.2133540349
 10
13.7691673554
 20
6.2334845085
 10
13.8280199552
 20
6.2563139441
 10
13.8836368069
 20
6.2817055538
 10
13.93568304
 20
6.3095066713
 10
13.983845462
 20
6.3395500083
 10
14.0278360496
 20
6.371655932
 10
14.0673913606
 20
6.4056325093
 10
14.1022730059
 20
6.4412753479
 10
14.1322709517
 20
6.4783698936
 10
14.1572047762
 20
6.5166926496
 10
14.1769261156
 20
6.5560154513
 10
14.1913175692
 20
6.5961066684
 10
14.2002910375
 20
6.6367278392
 10
14.2037898069
 20
6.6776343171
 10
14.2017911291
 20
6.718574276
 10
14.19430766
 20
6.7592994063
 10
14.1813735633
 20
6.7995953736
 10
14.1630561865
 20
6.8392171736
 10
14.139542805
 20
6.8777972201
 10
14.1109578464
 20
6.9151816159
 10
14.0769978933
 20
6.9516271665
 10
14.0370706261
 20
6.9873574363
 10
13.990341356
 20
7.0224721549
 10
13.9357372772
 20
7.0569140902
  0
LINE
  5
6A1
100
AcDbEntity
  8
02___PRT_ALL_AXES
100
AcDbLine
 62
7
  6
CONTINUOUS
 10
13.0896268746
 20
6.6603883818
 11
13.1011650094
 21
6.6384288532
  0
LWPOLYLINE
  5
6A2
100
AcDbEntity
  8
0
100
AcDbPolyline
 62
7
  6
CONTINUOUS
 90
4
 70
0
 10
13.1218597449
 20
6.6617827528
 10
13.1271657212
 20
6.6511497509
 10
13.1345004026
 20
6.6409265949
 10
13.1437715512
 20
6.6312418469
  0
LWPOLYLINE
  5
6A3
100
AcDbEntity
  8
02___PRT_ALL_AXES
100
AcDbPolyline
 62
7
  6
CONTINUOUS
 90
13
 70
0
 10
13.4912426231
 20
6.6832260391
 10
13.4873465605
 20
6.7060636901
 10
13.4758084257
 20
6.7280232187
 10
13.4570716227
 20
6.7482612166
 10
13.4318561964
 20
6.765999949
 10
13.4011311614
 20
6.7805577264
 10
13.3660772635
 20
6.7913751015
 10
13.3280416045
 20
6.7980363686
 10
13.2884858734
 20
6.8002855391
 10
13.2489301748
 20
6.7980361785
 10
13.2108946118
 20
6.7913747285
 10
13.17584087
 20
6.7805571849
 10
13.145116045
 20
6.7659992598
  0
LWPOLYLINE
  5
6A4
100
AcDbEntity
  8
02___PRT_ALL_AXES
100
AcDbPolyline
 62
7
  6
CONTINUOUS
 90
3
 70
0
 10
13.8587162433
 20
5.6345356337
 10
13.8732156567
 20
5.6880934786
 10
13.8750787218
 20
5.7155131323
  0
LINE
  5
6A5
100
AcDbEntity
  8
02___PRT_ALL_AXES
100
AcDbLine
 62
7
  6
CONTINUOUS
 10
13.8587162433
 20
5.6285083029
 11
13.8732156567
 21
5.6820661478
  0
LWPOLYLINE
  5
6A6
100
AcDbEntity
  8
02___PRT_ALL_AXES
100
AcDbPolyline
 62
7
  6
CONTINUOUS
 90
3
 70
0
 10
13.8587162433
 20
5.586316987
 10
13.8732156567
 20
5.639874832
 10
13.8751008908
 20
5.6676207583
  0
LINE
  5
6A7
100
AcDbEntity
  8
02___PRT_ALL_AXES
100
AcDbLine
 62
7
  6
CONTINUOUS
 10
13.8587162433
 20
5.5802896562
 11
13.8732156567
 21
5.6338475011
  0
LWPOLYLINE
  5
6A8
100
AcDbEntity
  8
0
100
AcDbPolyline
 62
7
  6
CONTINUOUS
 90
14
 70
0
 10
13.8288160261
 20
5.4788078462
 10
13.814863472
 20
5.4413594489
 10
13.7835516923
 20
5.3931533721
 10
13.7399095222
 20
5.3482059611
 10
13.6851250734
 20
5.3080480172
 10
13.6210041532
 20
5.2738691862
 10
13.5493381404
 20
5.2463443035
 10
13.4718960705
 20
5.2259084067
 10
13.3904456766
 20
5.2128558116
 10
13.3067831378
 20
5.2073721443
 10
13.2227759209
 20
5.2095317561
 10
13.1402434165
 20
5.2192894052
 10
13.0609908404
 20
5.2364892526
 10
12.9878670989
 20
5.2604440128
  0
LINE
  5
6A9
100
AcDbEntity
  8
02___PRT_ALL_AXES
100
AcDbLine
 62
7
  6
CONTINUOUS
 10
13.8302415266
 20
5.5347071944
 11
13.8587162433
 21
5.586316987
  0
LINE
  5
6AA
100
AcDbEntity
  8
02___PRT_ALL_AXES
100
AcDbLine
 62
7
  6
CONTINUOUS
 10
13.8302415266
 20
5.5286798635
 11
13.8587162433
 21
5.5802896562
  0
LWPOLYLINE
  5
6AB
100
AcDbEntity
  8
02___PRT_ALL_AXES
100
AcDbPolyline
 62
7
  6
CONTINUOUS
 90
4
 70
0
 10
13.8302415266
 20
5.4864885477
 10
13.8587162433
 20
5.5380983404
 10
13.8732156567
 20
5.5916561853
 10
13.8751008908
 20
5.6194021116
  0
LWPOLYLINE
  5
6AC
100
AcDbEntity
  8
02___PRT_ALL_AXES
100
AcDbPolyline
 62
7
  6
CONTINUOUS
 90
5
 70
0
 10
13.788489371
 20
5.4320348654
 10
13.8302415266
 20
5.4804612169
 10
13.8587162433
 20
5.5320710095
 10
13.8732156567
 20
5.5856288544
 10
13.8751008908
 20
5.6133747807
  0
LINE
  5
6AD
100
AcDbEntity
  8
02___PRT_ALL_AXES
100
AcDbLine
 62
7
  6
CONTINUOUS
 10
13.4883992788
 20
6.666558418
 11
13.4843336647
 21
6.6813779711
  0
LINE
  5
6AE
100
AcDbEntity
  8
02___PRT_ALL_AXES
100
AcDbLine
 62
7
  6
CONTINUOUS
 10
13.8751008908
 20
5.6194021116
 11
13.8737011664
 21
5.6409929887
  0
LINE
  5
6AF
100
AcDbEntity
  8
02___PRT_ALL_AXES
100
AcDbLine
 62
7
  6
CONTINUOUS
 10
13.8751008908
 20
5.6676207583
 11
13.8737011664
 21
5.6892116354
  0
LINE
  5
6B0
100
AcDbEntity
  8
02___PRT_ALL_AXES
100
AcDbLine
 62
7
  6
CONTINUOUS
 10
13.8732156567
 20
5.6820661478
 11
13.8751008908
 21
5.7098120741
  0
LINE
  5
6B1
100
AcDbEntity
  8
02___PRT_ALL_AXES
100
AcDbLine
 62
7
  6
CONTINUOUS
 10
13.8732156567
 20
5.6338475011
 11
13.8751008908
 21
5.6615934274
  0
LWPOLYLINE
  5
6B2
100
AcDbEntity
  8
02___PRT_ALL_AXES
100
AcDbPolyline
 62
7
  6
CONTINUOUS
 90
4
 70
0
 10
13.1011650094
 20
6.6384288532
 10
13.1199018124
 20
6.6181908553
 10
13.1451172388
 20
6.6004521228
 10
13.1758422738
 20
6.5858943455
  0
LWPOLYLINE
  5
6B3
100
AcDbEntity
  8
0
100
AcDbPolyline
 62
9
  6
CONTINUOUS
 90
4
 70
0
 10
14.2495642127
 20
6.5422656608
 10
14.2591167948
 20
6.5855071636
 10
14.2628415733
 20
6.6290523906
 10
14.2628961664
 20
6.6350073893
  0
LWPOLYLINE
  5
6B4
100
AcDbEntity
  8
0
100
AcDbPolyline
 62
9
  6
CONTINUOUS
 90
3
 70
0
 10
14.2442840294
 20
6.0493178046
 10
14.2673229797
 20
6.125437407
 10
14.272738686
 20
6.1849613647
  0
LINE
  5
6B5
100
AcDbEntity
  8
0
100
AcDbLine
 62
7
  6
CONTINUOUS
 10
13.1437715512
 20
6.6312418469
 11
13.1548625771
 21
6.6222172983
  0
LWPOLYLINE
  5
6B6
100
AcDbEntity
  8
0
100
AcDbPolyline
 62
7
  6
CONTINUOUS
 90
7
 70
0
 10
14.2727386861
 20
6.1849666869
 10
14.263706142
 20
6.1051687929
 10
14.2364010535
 20
6.026164915
 10
14.1909490067
 20
5.9498237341
 10
14.1277988518
 20
5.8776535096
 10
14.0482826568
 20
5.8114858355
 10
13.9541754059
 20
5.752747643
  0
LWPOLYLINE
  5
6B7
100
AcDbEntity
  8
0
100
AcDbPolyline
 62
7
  6
CONTINUOUS
 90
4
 70
0
 10
13.1548625771
 20
6.6222172983
 10
13.167634004
 20
6.6139664379
 10
13.1819252239
 20
6.6065930253
 10
13.1975565165
 20
6.6001897852
  0
LINE
  5
6B8
100
AcDbEntity
  8
02___PRT_ALL_AXES
100
AcDbLine
 62
7
  6
CONTINUOUS
 10
13.4843336647
 20
6.6813779711
 11
13.4829846443
 21
6.6834069094
  0
LINE
  5
6B9
100
AcDbEntity
  8
02___PRT_ALL_AXES
100
AcDbLine
 62
7
  6
CONTINUOUS
 10
14.2628961664
 20
6.6350073893
 11
14.2628961664
 21
6.5707158603
  0
LINE
  5
6BA
100
AcDbEntity
  8
0
100
AcDbLine
 62
9
  6
CONTINUOUS
 10
14.272738686
 20
6.1849613647
 11
14.2727386861
 21
6.1849666869
  0
LINE
  5
6BB
100
AcDbEntity
  8
02___PRT_ALL_AXES
100
AcDbLine
 62
7
  6
CONTINUOUS
 10
14.2727386861
 20
6.5707158603
 11
14.2727386861
 21
6.1849666869
  0
LWPOLYLINE
  5
6BC
100
AcDbEntity
  8
02___PRT_ALL_AXES
100
AcDbPolyline
 62
7
  6
CONTINUOUS
 90
28
 70
0
 10
14.2628953334
 20
6.5707094999
 10
14.2626509352
 20
6.5580952759
 10
14.2567697385
 20
6.5077306107
 10
14.2430924963
 20
6.4578730657
 10
14.2217293297
 20
6.4089240646
 10
14.1928522423
 20
6.3612777159
 10
14.1566937355
 20
6.31531764
 10
14.1135449362
 20
6.2714138803
 10
14.0637532533
 20
6.2299199242
 10
14.0077195801
 20
6.1911698566
 10
13.9458950668
 20
6.1554756703
 10
13.878777488
 20
6.1231247538
 10
13.806907235
 20
6.0943775778
 10
13.7308629649
 20
6.0694655975
 10
13.6512569413
 20
6.0485893895
 10
13.5687301052
 20
6.031917037
 10
13.4839469141
 20
6.0195827757
 10
13.3975899924
 20
6.011685914
 10
13.3103546353
 20
6.0082900327
 10
13.2229432106
 20
6.0094224734
 10
13.1360595036
 20
6.0150741185
 10
13.050403051
 20
6.0251994642
 10
12.9666635081
 20
6.0397169871
 10
12.8855150964
 20
6.0585098008
 10
12.8076111753
 20
6.0814265964
 10
12.7335789812
 20
6.1082828615
 10
12.664014578
 20
6.1388623653
 10
12.5994780573
 20
6.1729188994
  0
LWPOLYLINE
  5
6BD
100
AcDbEntity
  8
02___PRT_ALL_AXES
100
AcDbPolyline
 62
7
  6
CONTINUOUS
 90
21
 70
0
 10
14.2727363112
 20
6.5707018611
 10
14.2723224176
 20
6.5541908333
 10
14.262347192
 20
6.48836067
 10
14.2392021741
 20
6.4236442193
 10
14.2032003607
 20
6.3609166602
 10
14.1548286144
 20
6.3010262754
 10
14.0947410801
 20
6.2447829797
 10
14.0237503387
 20
6.1929473669
 10
13.9428164181
 20
6.1462204251
 10
13.8530338109
 20
6.1052340557
 10
13.7556166727
 20
6.0705425292
 10
13.6518824032
 20
6.042614989
 10
13.5432338304
 20
6.0218291072
 10
13.43114024
 20
6.0084659771
 10
13.3171175054
 20
6.0027063121
 10
13.2027075885
 20
6.0046280018
 10
13.0894576871
 20
6.0142050587
 10
12.978899312
 20
6.0313079695
 10
12.8725275754
 20
6.0557054467
 10
12.7717809727
 20
6.0870675563
 10
12.6780219288
 20
6.1249701794
  0
LWPOLYLINE
  5
6BE
100
AcDbEntity
  8
0
100
AcDbPolyline
 62
7
  6
CONTINUOUS
 90
3
 70
0
 10
13.3265189666
 20
6.5875396159
 10
13.3449361295
 20
6.5906029789
 10
13.3626434083
 20
6.5948375987
  0
LWPOLYLINE
  5
6BF
100
AcDbEntity
  8
0
100
AcDbPolyline
 62
7
  6
CONTINUOUS
 90
6
 70
0
 10
13.2320386489
 20
6.5906027076
 10
13.250455856
 20
6.5875394331
 10
13.2693513232
 20
6.5856859412
 10
13.2884874292
 20
6.5850655406
 10
13.3076235261
 20
6.5856860332
 10
13.3265189666
 20
6.5875396159
  0
LWPOLYLINE
  5
6C0
100
AcDbEntity
  8
02___PRT_ALL_AXES
100
AcDbPolyline
 62
7
  6
CONTINUOUS
 90
6
 70
0
 10
13.1758422738
 20
6.5858943455
 10
13.2108961716
 20
6.5750769704
 10
13.2489318306
 20
6.5684157032
 10
13.2884875617
 20
6.5661665328
 10
13.3280432604
 20
6.5684158934
 10
13.3660788233
 20
6.5750773434
  0
LWPOLYLINE
  5
6C1
100
AcDbEntity
  8
0
100
AcDbPolyline
 62
7
  6
CONTINUOUS
 90
3
 70
0
 10
13.1975565165
 20
6.6001897852
 10
13.214331309
 20
6.5948372422
 10
13.2320386489
 20
6.5906027076
  0
LWPOLYLINE
  5
6C2
100
AcDbEntity
  8
0
100
AcDbPolyline
 62
7
  6
CONTINUOUS
 90
12
 70
0
 10
13.1822827866
 20
6.5893211605
 10
13.1999592935
 20
6.5834291324
 10
13.2186057254
 20
6.5786361352
 10
13.238017788
 20
6.574994682
 10
13.2579827988
 20
6.5725446693
 10
13.2782820169
 20
6.5713129399
 10
13.2986930398
 20
6.571312989
 10
13.3189922401
 20
6.5725448159
 10
13.3389572156
 20
6.5749949246
 10
13.3583692257
 20
6.5786364712
 10
13.3770155884
 20
6.583429558
 10
13.3946920103
 20
6.589321671
  0
LINE
  5
6C3
100
AcDbEntity
  8
0
100
AcDbLine
 62
7
  6
CONTINUOUS
 10
13.1657698723
 20
6.5962476651
 11
13.1822827866
 21
6.5893211605
  0
LINE
  5
6C4
100
AcDbEntity
  8
0
100
AcDbLine
 62
7
  6
CONTINUOUS
 10
14.254616932
 20
6.7124660282
 11
14.2628961664
 21
6.6350073893
  0
LWPOLYLINE
  5
6C5
100
AcDbEntity
  8
02___PRT_ALL_AXES
100
AcDbPolyline
 62
7
  6
CONTINUOUS
 90
3
 70
0
 10
14.2611846669
 20
6.6510197907
 10
14.268992953
 20
6.6202444693
 10
14.2727363112
 20
6.5707018611
  0
LWPOLYLINE
  5
6C6
100
AcDbEntity
  8
0
100
AcDbPolyline
 62
9
  6
CONTINUOUS
 90
41
 70
0
 10
13.9357372772
 20
7.0569140902
 10
13.8761573976
 20
7.0884020043
 10
13.8154003366
 20
7.1153600952
 10
13.7535580057
 20
7.1384052965
 10
13.6904550454
 20
7.1580156975
 10
13.6257033823
 20
7.1745296627
 10
13.5588685741
 20
7.1881172223
 10
13.4902313156
 20
7.1987031193
 10
13.4204314206
 20
7.2061794064
 10
13.3498882246
 20
7.2105082353
 10
13.2789704492
 20
7.2116699889
 10
13.2081098966
 20
7.2096572099
 10
13.137743222
 20
7.2044830552
 10
13.0682921454
 20
7.1961800069
 10
13.0001716677
 20
7.1847990288
 10
12.9337897492
 20
7.1704095232
 10
12.8695409936
 20
7.153098037
 10
12.8078060798
 20
7.1329675633
 10
12.74895348
 20
7.1101381278
 10
12.6933366283
 20
7.0847465181
 10
12.6412903951
 20
7.0569454006
 10
12.5931279732
 20
7.0269020635
 10
12.5491373856
 20
6.9947961399
 10
12.5095820746
 20
6.9608195626
 10
12.4747004293
 20
6.925176724
 10
12.4447024835
 20
6.8880821783
 10
12.4197686589
 20
6.8497594223
 10
12.4000473196
 20
6.8104366205
 10
12.3856558659
 20
6.7703454035
 10
12.3766823977
 20
6.7297242327
 10
12.3731836283
 20
6.6888177548
 10
12.375182306
 20
6.6478777958
 10
12.3826657751
 20
6.6071526655
 10
12.3955998719
 20
6.5668566983
 10
12.4139172487
 20
6.5272348983
 10
12.4374306301
 20
6.4886548517
 10
12.4660155887
 20
6.451270456
 10
12.4999755419
 20
6.4148249053
 10
12.539902809
 20
6.3790946356
 10
12.5866320792
 20
6.3439799169
 10
12.6412361579
 20
6.3095379817
  0
LWPOLYLINE
  5
6C7
100
AcDbEntity
  8
0
100
AcDbPolyline
 62
7
  6
CONTINUOUS
 90
6
 70
0
 10
13.9652643353
 20
7.0598389652
 10
14.0539392672
 20
7.0010727644
 10
14.12857868
 20
6.9353151111
 10
14.1874946626
 20
6.8640700797
 10
14.2295839823
 20
6.789209014
 10
14.254616932
 20
6.7124660282
  0
LINE
  5
6C8
100
AcDbEntity
  8
02___PRT_ALL_AXES
100
AcDbLine
 62
7
  6
CENTER
 10
4.5182463195
 20
8.2878011274
 11
4.5182463195
 21
7.2272480641
  0
LINE
  5
6C9
100
AcDbEntity
  8
02___PRT_ALL_AXES
100
AcDbLine
 62
7
  6
CENTER
 10
4.5182463195
 20
8.2878011274
 11
4.5182463195
 21
9.3483541906
  0
LINE
  5
6CA
100
AcDbEntity
  8
02___PRT_ALL_AXES
100
AcDbLine
 62
7
  6
CENTER
 10
4.5182463195
 20
8.2878011274
 11
3.4576932562
 21
8.2878011274
  0
LINE
  5
6CB
100
AcDbEntity
  8
02___PRT_ALL_AXES
100
AcDbLine
 62
7
  6
CENTER
 10
4.5182463195
 20
8.2878011274
 11
5.5787993827
 21
8.2878011274
  0
CIRCLE
  5
6CC
100
AcDbEntity
  8
0
100
AcDbCircle
 62
7
  6
CONTINUOUS
 10
10.5342808475
 20
1.243294839
 40
0.252091
  0
CIRCLE
  5
6CD
100
AcDbEntity
  8
0
100
AcDbCircle
 62
7
  6
CONTINUOUS
 10
10.5342808475
 20
1.243294839
 40
0.182698
  0
CIRCLE
  5
6CE
100
AcDbEntity
  8
02___PRT_ALL_AXES
100
AcDbCircle
 62
7
  6
CONTINUOUS
 10
4.5182463195
 20
8.2878011274
 40
0.9842519685
  0
CIRCLE
  5
6CF
100
AcDbEntity
  8
0
100
AcDbCircle
 62
7
  6
CONTINUOUS
 10
4.5182463195
 20
8.2878011274
 40
0.9744094488
  0
CIRCLE
  5
6D0
100
AcDbEntity
  8
0
100
AcDbCircle
 62
9
  6
CONTINUOUS
 10
4.5182463195
 20
8.2878011274
 40
0.9153543304
  0
CIRCLE
  5
6D1
100
AcDbEntity
  8
02___PRT_ALL_AXES
100
AcDbCircle
 62
7
  6
CONTINUOUS
 10
4.5182463195
 20
8.2878011274
 40
0.2027559055
  0
CIRCLE
  5
6D2
100
AcDbEntity
  8
0
100
AcDbCircle
 62
7
  6
CONTINUOUS
 10
4.5182463195
 20
8.2878011274
 40
0.195
  0
CIRCLE
  5
6D3
100
AcDbEntity
  8
0
100
AcDbCircle
 62
7
  6
CONTINUOUS
 10
4.5182463195
 20
8.2878011274
 40
0.1709122582
  0
ARC
  5
6D4
100
AcDbEntity
  8
0
100
AcDbCircle
 62
7
  6
CONTINUOUS
 10
4.5182463195
 20
5.4267757626
 40
0.394
100
AcDbArc
 50
64.2918370252
 51
115.7081629748
  0
ARC
  5
6D5
100
AcDbEntity
  8
0
100
AcDbCircle
 62
7
  6
CONTINUOUS
 10
5.4336006502
 20
5.7220907233
 40
0.0590551181
100
AcDbArc
 50
0.0
 51
90.0000001346
  0
ARC
  5
6D6
100
AcDbEntity
  8
0
100
AcDbCircle
 62
7
  6
CONTINUOUS
 10
3.6028919887
 20
5.7220907233
 40
0.0590551181
100
AcDbArc
 50
89.9999998654
 51
180.0
  0
ARC
  5
6D7
100
AcDbEntity
  8
0
100
AcDbCircle
 62
7
  6
CONTINUOUS
 10
5.0300573431
 20
4.3835080461
 40
0.0393700787
100
AcDbArc
 50
270.0
 51
360.0
  0
ARC
  5
6D8
100
AcDbEntity
  8
0
100
AcDbCircle
 62
7
  6
CONTINUOUS
 10
4.0064352958
 20
4.3835080461
 40
0.0393700787
100
AcDbArc
 50
180.0
 51
270.0
  0
ARC
  5
6D9
100
AcDbEntity
  8
0
100
AcDbCircle
 62
7
  6
CONTINUOUS
 10
5.4631282092
 20
5.1709096209
 40
0.0393700787
100
AcDbArc
 50
269.9999999017
 51
360.0
  0
ARC
  5
6DA
100
AcDbEntity
  8
0
100
AcDbCircle
 62
7
  6
CONTINUOUS
 10
3.5733644297
 20
5.1709096209
 40
0.0393700787
100
AcDbArc
 50
180.0
 51
270.0000000983
  0
ARC
  5
6DB
100
AcDbEntity
  8
0
100
AcDbCircle
 62
7
  6
CONTINUOUS
 10
3.9276951383
 20
5.0921694634
 40
0.0393700787
100
AcDbArc
 50
0.0
 51
90.0
  0
ARC
  5
6DC
100
AcDbEntity
  8
0
100
AcDbCircle
 62
7
  6
CONTINUOUS
 10
5.1087975006
 20
5.0921694634
 40
0.0393700787
100
AcDbArc
 50
90.0
 51
180.0
  0
ENDSEC
  0
SECTION
  2
OBJECTS
  0
DICTIONARY
  5
C
100
AcDbDictionary
280
0
281
1
  3
ACAD_GROUP
350
D
  3
ACAD_MLINESTYLE
350
17
  3
ACAD_LAYOUT
350
1A
  3
ACAD_PLOTSETTINGS
350
19
  3
ACAD_PLOTSTYLENAME
350
E
  0
DICTIONARY
  5
D
102
{ACAD_REACTORS
330
C
102
}
100
AcDbDictionary
280
0
281
1
  0
ACDBDICTIONARYWDFLT
  5
E
102
{ACAD_REACTORS
330
C
102
}
100
AcDbDictionary
281
1
  3
Normal
350
F
100
AcDbDictionaryWithDefault
340
F
  0
DICTIONARY
  5
17
102
{ACAD_REACTORS
330
C
102
}
100
AcDbDictionary
280
0
281
1
  3
Standard
350
18
  0
DICTIONARY
  5
19
102
{ACAD_REACTORS
330
C
102
}
100
AcDbDictionary
281
1
  0
DICTIONARY
  5
1A
102
{ACAD_REACTORS
330
C
102
}
100
AcDbDictionary
281
1
  3
Model
350
6DD
  3
Layout1
350
6DE
  0
ACDBPLACEHOLDER
  5
F
102
{ACAD_REACTORS
330
E
102
}
  0
MLINESTYLE
  5
18
102
{ACAD_REACTORS
330
17
102
}
100
AcDbMlineStyle
  2
STANDARD
 70
0
  3

 62
256
 51
90.0
 52
90.0
 71
2
 49
0.5
 62
256
  6
BYLAYER
 49
-0.5
 62
256
  6
BYLAYER
  0
LAYOUT
  5
6DD
102
{ACAD_REACTORS
330
1A
102
}
100
AcDbPlotSettings
  1

  2
none_device
  4
ANSI_B_(17.00_x_11.00_Inches)
  6

 40
0.0
 41
0.0
 42
0.0
 43
0.0
 44
431.8
 45
279.4
 46
0.0
 47
0.0
 48
0.0
 49
0.0
140
0.0
141
0.0
142
1.0
143
1.0
 70
1024
 72
0
 73
0
 74
0
  7

 75
0
147
1.0
148
0.0
149
0.0
100
AcDbLayout
  1
Model
 70
0
 71
0
 10
0.0
 20
0.0
 11
17.0
 21
11.0
 12
0.0
 22
0.0
 32
0.0
 14
0.0
 24
0.0
 34
0.0
 15
0.0
 25
0.0
 35
0.0
146
0.0
 13
0.0
 23
0.0
 33
0.0
 16
1.0
 26
0.0
 36
0.0
 17
0.0
 27
1.0
 37
0.0
 76
0
330
232
345
0
346
0
  0
LAYOUT
  5
6DE
102
{ACAD_REACTORS
330
1A
102
}
100
AcDbPlotSettings
  1

  2
none_device
  4
ANSI_B_(17.00_x_11.00_Inches)
  6

 40
0.0
 41
0.0
 42
0.0
 43
0.0
 44
431.8
 45
279.4
 46
0.0
 47
0.0
 48
0.0
 49
0.0
140
0.0
141
0.0
142
1.0
143
1.0
 70
0
 72
0
 73
0
 74
0
  7

 75
0
147
1.0
148
0.0
149
0.0
100
AcDbLayout
  1
Layout1
 70
0
 71
1
 10
0.0
 20
0.0
 11
17.0
 21
11.0
 12
0.0
 22
0.0
 32
0.0
 14
0.0
 24
0.0
 34
0.0
 15
0.0
 25
0.0
 35
0.0
146
0.0
 13
0.0
 23
0.0
 33
0.0
 16
1.0
 26
0.0
 36
0.0
 17
0.0
 27
1.0
 37
0.0
 76
0
330
233
345
0
346
0
  0
ENDSEC
  0
EOF
