999
DXF file: 151343_1.dxf
999
Pro/ENGINEER 2009141 by Parametric Technology Corporation
  0
SECTION
  2
HEADER
  9
$ACADVER
  1
AC1015
  9
$DWGCODEPAGE
  3
ANSI_1252
  9
$EXTMAX
 10
17.0
 20
11.0
 30
0.0
  9
$EXTMIN
 10
0.0
 20
0.0
 30
0.0
  9
$LIMMIN
 10
0.0
 20
0.0
  9
$LIMMAX
 10
17.0
 20
11.0
  9
$VIEWCTR
 10
8.5
 20
5.5
  9
$VIEWSIZE
 40
11.0
  9
$CLAYER
  8
0
  9
$LTSCALE
 40
0.935
  9
$CELTYPE
  6
BYLAYER
  9
$DIMSCALE
 40
1.0
  9
$DIMASZ
 40
0.1875
  9
$DIMEXO
 40
0.10625
  9
$DIMDLI
 40
0.646
  9
$DIMEXE
 40
0.306
  9
$DIMCEN
 40
0.153
  9
$DIMLFAC
 40
1.0
  9
$DIMBLK
  1
_FILLED
  9
$DIMTXT
 40
0.1
  9
$DIMTOL
 70
1
  9
$DIMLIM
 70
0
  9
$DIMTFAC
 40
1.0
  9
$DIMTP
 40
0.005
  9
$DIMTM
 40
0.005
  9
$PDMODE
 70
3
  9
$PDSIZE
 40
0.3125
  9
$HANDSEED
  5
778
  9
$TILEMODE
 70
1
  9
$MEASUREMENT
 70
0
  9
$INSUNITS
 70
1
  0
ENDSEC
  0
SECTION
  2
CLASSES
  0
CLASS
  1
ACDBDICTIONARYWDFLT
  2
AcDbDictionaryWithDefault
  3
AutoCAD 2000
 90
0
280
0
281
0
  0
CLASS
  1
ACDBPLACEHOLDER
  2
AcDbPlaceHolder
  3
AutoCAD 2000
 90
0
280
0
281
0
  0
CLASS
  1
LAYOUT
  2
AcDbLayout
  3
AutoCAD 2000
 90
0
280
0
281
0
  0
ENDSEC
  0
SECTION
  2
TABLES
  0
TABLE
  2
VPORT
  5
8
100
AcDbSymbolTable
 70
2
  0
VPORT
  5
1F4
100
AcDbSymbolTableRecord
100
AcDbViewportTableRecord
  2
*ACTIVE
 70
0
 10
0.0
 20
0.0
 11
1.0
 21
1.0
 12
8.5
 22
5.5
 13
0.0
 23
0.0
 14
1.0
 24
1.0
 15
0.0
 25
0.0
 16
0.0
 26
0.0
 36
1.0
 17
0.0
 27
0.0
 37
0.0
 40
11.0
 41
1.5454545455
 42
50.0
 43
0.0
 44
0.0
 50
0.0
 51
0.0
 71
0
 72
100
 73
1
 74
1
 75
0
 76
0
 77
0
 78
0
  0
ENDTAB
  0
TABLE
  2
LTYPE
  5
5
100
AcDbSymbolTable
 70
6
  0
LTYPE
  5
14
100
AcDbSymbolTableRecord
100
AcDbLinetypeTableRecord
  2
BYBLOCK
 70
0
  3

 72
65
 73
0
 40
0.0
  0
LTYPE
  5
15
100
AcDbSymbolTableRecord
100
AcDbLinetypeTableRecord
  2
BYLAYER
 70
0
  3

 72
65
 73
0
 40
0.0
  0
LTYPE
  5
16
100
AcDbSymbolTableRecord
100
AcDbLinetypeTableRecord
  2
CONTINUOUS
 70
64
  3
Solid line
 72
65
 73
0
 40
0.0
  0
LTYPE
  5
1F5
100
AcDbSymbolTableRecord
100
AcDbLinetypeTableRecord
  2
CENTER
 70
64
  3
____ _ ____ _ ____ _ ____ _ ____ _ ____ _ ____
 72
65
 73
4
 40
0.6
 49
0.375
 74
0
 49
-0.075
 74
0
 49
0.075
 74
0
 49
-0.075
 74
0
  0
LTYPE
  5
1F6
100
AcDbSymbolTableRecord
100
AcDbLinetypeTableRecord
  2
HIDDEN
 70
64
  3
- - - - - - - - - - - - - - - - - - - -
 72
65
 73
2
 40
0.2
 49
0.1
 74
0
 49
-0.1
 74
0
  0
LTYPE
  5
1F7
100
AcDbSymbolTableRecord
100
AcDbLinetypeTableRecord
  2
PHANTOM
 70
64
  3
_____ _ _ _____ _ _ _____ _ _ _____
 72
65
 73
6
 40
0.8
 49
0.45
 74
0
 49
-0.05
 74
0
 49
0.1
 74
0
 49
-0.05
 74
0
 49
0.1
 74
0
 49
-0.05
 74
0
  0
LTYPE
  5
1F8
100
AcDbSymbolTableRecord
100
AcDbLinetypeTableRecord
  2
DOT
 70
64
  3
. . . . . . . . . . . . . . . . . . . .
 72
65
 73
2
 40
0.2
 49
0.1
 74
0
 49
-0.1
 74
0
  0
LTYPE
  5
1F9
100
AcDbSymbolTableRecord
100
AcDbLinetypeTableRecord
  2
DASHED
 70
64
  3
- - - - - - - - - - - - - - - - - - - -
 72
65
 73
2
 40
0.2
 49
0.1
 74
0
 49
-0.1
 74
0
  0
ENDTAB
  0
TABLE
  2
LAYER
  5
2
100
AcDbSymbolTable
 70
36
  0
LAYER
  5
10
100
AcDbSymbolTableRecord
100
AcDbLayerTableRecord
  2
0
 70
0
 62
7
  6
CONTINUOUS
370
-3
390
F
  0
LAYER
  5
1FA
100
AcDbSymbolTableRecord
100
AcDbLayerTableRecord
  2
DEFAULT_1
 70
0
 62
7
  6
CENTER
370
-3
390
F
  0
LAYER
  5
1FB
100
AcDbSymbolTableRecord
100
AcDbLayerTableRecord
  2
DEFAULT_2
 70
0
 62
8
  6
HIDDEN
370
-3
390
F
  0
LAYER
  5
1FC
100
AcDbSymbolTableRecord
100
AcDbLayerTableRecord
  2
DEFAULT_3
 70
0
 62
7
  6
PHANTOM
370
-3
390
F
  0
LAYER
  5
1FD
100
AcDbSymbolTableRecord
100
AcDbLayerTableRecord
  2
01___PRT_ALL_DTM_PLN
 70
0
 62
7
  6
CONTINUOUS
370
-3
390
F
  0
LAYER
  5
1FE
100
AcDbSymbolTableRecord
100
AcDbLayerTableRecord
  2
01___PRT_DEF_DTM_PLN
 70
0
 62
7
  6
CONTINUOUS
370
-3
390
F
  0
LAYER
  5
1FF
100
AcDbSymbolTableRecord
100
AcDbLayerTableRecord
  2
02___PRT_ALL_AXES
 70
0
 62
7
  6
CONTINUOUS
370
-3
390
F
  0
LAYER
  5
200
100
AcDbSymbolTableRecord
100
AcDbLayerTableRecord
  2
03___PRT_ALL_CURVES
 70
0
 62
7
  6
CONTINUOUS
370
-3
390
F
  0
LAYER
  5
201
100
AcDbSymbolTableRecord
100
AcDbLayerTableRecord
  2
04___PRT_ALL_DTM_PNT
 70
0
 62
7
  6
CONTINUOUS
370
-3
390
F
  0
LAYER
  5
202
100
AcDbSymbolTableRecord
100
AcDbLayerTableRecord
  2
05___PRT_ALL_DTM_CSYS
 70
0
 62
7
  6
CONTINUOUS
370
-3
390
F
  0
LAYER
  5
203
100
AcDbSymbolTableRecord
100
AcDbLayerTableRecord
  2
05___PRT_DEF_DTM_CSYS
 70
0
 62
7
  6
CONTINUOUS
370
-3
390
F
  0
LAYER
  5
204
100
AcDbSymbolTableRecord
100
AcDbLayerTableRecord
  2
06___PRT_ALL_SURFS
 70
0
 62
7
  6
CONTINUOUS
370
-3
390
F
  0
LAYER
  5
205
100
AcDbSymbolTableRecord
100
AcDbLayerTableRecord
  2
AXIS
 70
0
 62
7
  6
CONTINUOUS
370
-3
390
F
  0
LAYER
  5
206
100
AcDbSymbolTableRecord
100
AcDbLayerTableRecord
  2
AXIS_COSMETIC_THREADS
 70
0
 62
7
  6
CONTINUOUS
370
-3
390
F
  0
LAYER
  5
207
100
AcDbSymbolTableRecord
100
AcDbLayerTableRecord
  2
DATUM_CURVES
 70
0
 62
7
  6
CONTINUOUS
370
-3
390
F
  0
LAYER
  5
208
100
AcDbSymbolTableRecord
100
AcDbLayerTableRecord
  2
DATUM_PLANES
 70
0
 62
7
  6
CONTINUOUS
370
-3
390
F
  0
LAYER
  5
209
100
AcDbSymbolTableRecord
100
AcDbLayerTableRecord
  2
NOTES
 70
0
 62
7
  6
CONTINUOUS
370
-3
390
F
  0
LAYER
  5
20A
100
AcDbSymbolTableRecord
100
AcDbLayerTableRecord
  2
QUILTS
 70
0
 62
7
  6
CONTINUOUS
370
-3
390
F
  0
LAYER
  5
20B
100
AcDbSymbolTableRecord
100
AcDbLayerTableRecord
  2
SCHEME_DIMS
 70
0
 62
7
  6
CONTINUOUS
370
-3
390
F
  0
LAYER
  5
20C
100
AcDbSymbolTableRecord
100
AcDbLayerTableRecord
  2
SYMBOLS
 70
0
 62
7
  6
CONTINUOUS
370
-3
390
F
  0
ENDTAB
  0
TABLE
  2
STYLE
  5
3
100
AcDbSymbolTable
 70
1
  0
STYLE
  5
11
100
AcDbSymbolTableRecord
100
AcDbTextStyleTableRecord
  2
STANDARD
 70
0
 40
0.0
 41
1.0
 50
0.0
 71
0
 42
0.2
  3
txt
  4

  0
STYLE
  5
20D
100
AcDbSymbolTableRecord
100
AcDbTextStyleTableRecord
  2
TEXTSTYLE_1
 70
0
 40
0.0
 41
0.8
 50
0.0
 71
0
 42
0.2
  3
gdt
  4

  0
STYLE
  5
20E
100
AcDbSymbolTableRecord
100
AcDbTextStyleTableRecord
  2
TEXTSTYLE_2
 70
0
 40
0.0
 41
0.8
 50
0.0
 71
0
 42
0.2
  3
txt
  4

  0
STYLE
  5
20F
100
AcDbSymbolTableRecord
100
AcDbTextStyleTableRecord
  2
TEXTSTYLE_3
 70
0
 40
0.0
 41
0.85
 50
0.0
 71
0
 42
0.2
  3
txt
  4

  0
STYLE
  5
210
100
AcDbSymbolTableRecord
100
AcDbTextStyleTableRecord
  2
TEXTSTYLE_4
 70
0
 40
0.0
 41
0.92
 50
0.0
 71
0
 42
0.2
  3
txt
  4

  0
STYLE
  5
211
100
AcDbSymbolTableRecord
100
AcDbTextStyleTableRecord
  2
TEXTSTYLE_5
 70
0
 40
0.0
 41
1.0
 50
0.0
 71
0
 42
0.2
  3
gdt
  4

  0
ENDTAB
  0
TABLE
  2
VIEW
  5
6
100
AcDbSymbolTable
 70
0
  0
ENDTAB
  0
TABLE
  2
UCS
  5
7
100
AcDbSymbolTable
 70
0
  0
ENDTAB
  0
TABLE
  2
APPID
  5
9
100
AcDbSymbolTable
 70
1
  0
APPID
  5
212
100
AcDbSymbolTableRecord
100
AcDbRegAppTableRecord
  2
ACAD
 70
0
  0
ENDTAB
  0
TABLE
  2
BLOCK_RECORD
  5
1
100
AcDbSymbolTable
 70
0
  0
BLOCK_RECORD
  5
213
100
AcDbSymbolTableRecord
100
AcDbBlockTableRecord
  2
*Model_Space
  0
BLOCK_RECORD
  5
214
100
AcDbSymbolTableRecord
100
AcDbBlockTableRecord
  2
*Paper_Space
  0
BLOCK_RECORD
  5
215
100
AcDbSymbolTableRecord
100
AcDbBlockTableRecord
  2
_FILLED
  0
BLOCK_RECORD
  5
216
100
AcDbSymbolTableRecord
100
AcDbBlockTableRecord
  2
*D0
  0
BLOCK_RECORD
  5
217
100
AcDbSymbolTableRecord
100
AcDbBlockTableRecord
  2
*D1
  0
BLOCK_RECORD
  5
218
100
AcDbSymbolTableRecord
100
AcDbBlockTableRecord
  2
*D2
  0
BLOCK_RECORD
  5
219
100
AcDbSymbolTableRecord
100
AcDbBlockTableRecord
  2
*D3
  0
BLOCK_RECORD
  5
21A
100
AcDbSymbolTableRecord
100
AcDbBlockTableRecord
  2
CL_BL3
  0
BLOCK_RECORD
  5
21B
100
AcDbSymbolTableRecord
100
AcDbBlockTableRecord
  2
CL_BL2
  0
BLOCK_RECORD
  5
21C
100
AcDbSymbolTableRecord
100
AcDbBlockTableRecord
  2
CL_BL1
  0
BLOCK_RECORD
  5
21D
100
AcDbSymbolTableRecord
100
AcDbBlockTableRecord
  2
BANNER_LOGO_TITLEBLOCK_BL0
  0
ENDTAB
  0
TABLE
  2
DIMSTYLE
  5
A
100
AcDbSymbolTable
 70
1
100
AcDbDimStyleTable
 71
0
  0
DIMSTYLE
105
21E
100
AcDbSymbolTableRecord
100
AcDbDimStyleTableRecord
  2
STANDARD
 70
0
  3

  4

 40
1.0
 41
0.1875
 42
0.0625
 43
0.38
 44
0.18
 45
0.0
 46
0.0
 47
0.005
 48
0.005
140
0.1
141
0.09
142
0.0
143
25.4
144
1.0
145
0.0
146
1.0
147
0.09
 71
1.0
 72
0.0
 73
1
 74
1
 75
0
 76
0
 77
0
 78
4
170
0
171
2
172
0
173
0
174
0
175
0
176
0
177
0
178
0
270
2
271
3
272
3
273
2
274
2
275
0
280
0
281
0
282
0
283
1
284
4
285
0
286
0
287
3
288
0
340
11
341
215
342
215
343
215
344
215
  0
DIMSTYLE
105
21F
100
AcDbSymbolTableRecord
100
AcDbDimStyleTableRecord
  2
DIMSTYLE_1
 70
0
  3

  4

 40
1.0
 41
0.1875
 42
0.0625
 43
0.38
 44
0.18
 45
0.0
 46
0.0
 47
0.5
 48
0.5
140
0.1
141
0.09
142
0.0
143
25.4
144
1.0
145
0.0
146
1.0
147
0.09
 71
0.0
 72
0.0
 73
1
 74
1
 75
0
 76
0
 77
0
 78
4
170
0
171
2
172
0
173
0
174
0
175
0
176
0
177
0
178
0
270
2
271
0
272
0
273
2
274
2
275
0
280
0
281
0
282
0
283
1
284
4
285
0
286
0
287
3
288
0
340
11
341
215
342
215
343
215
344
215
  0
DIMSTYLE
105
220
100
AcDbSymbolTableRecord
100
AcDbDimStyleTableRecord
  2
DIMSTYLE_2
 70
0
  3

  4

 40
1.0
 41
0.1875
 42
0.0625
 43
0.38
 44
0.18
 45
0.0
 46
0.0
 47
0.1
 48
0.1
140
0.1
141
0.09
142
0.0
143
25.4
144
1.0
145
0.0
146
1.0
147
0.09
 71
0.0
 72
0.0
 73
1
 74
1
 75
0
 76
0
 77
0
 78
4
170
0
171
2
172
0
173
0
174
0
175
0
176
0
177
0
178
0
270
2
271
1
272
1
273
2
274
2
275
0
280
0
281
0
282
0
283
1
284
4
285
0
286
0
287
3
288
0
340
11
341
215
342
215
343
215
344
215
  0
ENDTAB
  0
ENDSEC
  0
SECTION
  2
BLOCKS
  0
BLOCK
  5
20
100
AcDbEntity
  8
0
100
AcDbBlockBegin
  2
*Model_Space
 70
0
 10
0.0
 20
0.0
 30
0.0
  3
*Model_Space
  1

  0
ENDBLK
  5
21
100
AcDbEntity
  8
0
100
AcDbBlockEnd
  0
BLOCK
  5
1C
100
AcDbEntity
  8
0
100
AcDbBlockBegin
  2
*Paper_Space
 70
0
 10
0.0
 20
0.0
 30
0.0
  3
*Paper_Space
  1

  0
ENDBLK
  5
1D
100
AcDbEntity
  8
0
100
AcDbBlockEnd
  0
BLOCK
  5
221
100
AcDbEntity
  8
SYMBOLS
100
AcDbBlockBegin
 62
2
  6
CONTINUOUS
  2
CL_BL3
 70
64
 10
4.2830831882
 20
2.8246248763
  3
CL_BL3
  1

  0
MTEXT
  5
222
100
AcDbEntity
  8
SYMBOLS
100
AcDbMText
 62
2
  6
CONTINUOUS
  7
TEXTSTYLE_5
 71
1
 72
1
 10
4.1980831882
 20
2.8846248763
 30
0.0
 11
1.0
 21
0.0
 31
0.0
 44
0.9
  1
{\Fgdt;q}
 40
0.12
 41
0.17
  0
ENDBLK
  5
223
100
AcDbEntity
  8
0
  6
BYBLOCK
 62
0
100
AcDbBlockEnd
  0
BLOCK
  5
224
100
AcDbEntity
  8
SYMBOLS
100
AcDbBlockBegin
 62
2
  6
CONTINUOUS
  2
CL_BL2
 70
64
 10
4.2873282095
 20
6.5950384924
  3
CL_BL2
  1

  0
MTEXT
  5
225
100
AcDbEntity
  8
SYMBOLS
100
AcDbMText
 62
2
  6
CONTINUOUS
  7
TEXTSTYLE_5
 71
1
 72
1
 10
4.2023282095
 20
6.6550384924
 30
0.0
 11
1.0
 21
0.0
 31
0.0
 44
0.9
  1
{\Fgdt;q}
 40
0.12
 41
0.17
  0
ENDBLK
  5
226
100
AcDbEntity
  8
0
  6
BYBLOCK
 62
0
100
AcDbBlockEnd
  0
BLOCK
  5
227
100
AcDbEntity
  8
SYMBOLS
100
AcDbBlockBegin
 62
2
  6
CONTINUOUS
  2
CL_BL1
 70
64
 10
5.4731917011
 20
7.8146573804
  3
CL_BL1
  1

  0
MTEXT
  5
228
100
AcDbEntity
  8
SYMBOLS
100
AcDbMText
 62
2
  6
CONTINUOUS
  7
TEXTSTYLE_5
 71
1
 72
1
 10
5.3881917011
 20
7.8746573804
 30
0.0
 11
1.0
 21
0.0
 31
0.0
 44
0.9
  1
{\Fgdt;q}
 40
0.12
 41
0.17
  0
ENDBLK
  5
229
100
AcDbEntity
  8
0
  6
BYBLOCK
 62
0
100
AcDbBlockEnd
  0
BLOCK
  5
22A
100
AcDbEntity
  8
0
100
AcDbBlockBegin
 62
2
  6
CONTINUOUS
  2
BANNER_LOGO_TITLEBLOCK_BL0
 70
64
 10
12.9086867042
 20
2.5403783405
  3
BANNER_LOGO_TITLEBLOCK_BL0
  1

  0
ELLIPSE
  5
22B
100
AcDbEntity
  8
0
100
AcDbEllipse
 62
2
  6
CONTINUOUS
 10
12.9046654608
 20
2.5403783405
 30
0.0
 11
-0.8250004575
 21
0.0
 31
0.0
 40
0.218572
 41
0.0
 42
6.2831853072
  0
ARC
  5
22C
100
AcDbEntity
  8
0
100
AcDbCircle
 62
2
  6
CONTINUOUS
 10
12.400005721
 20
2.5168763464
 40
0.0153945295
100
AcDbArc
 50
354.0454548824
 51
5.1878013979
  0
ARC
  5
22D
100
AcDbEntity
  8
0
100
AcDbCircle
 62
2
  6
CONTINUOUS
 10
12.3931760319
 20
2.5166878286
 40
0.0222174455
100
AcDbArc
 50
4.0793399388
 51
69.834329283
  0
LINE
  5
22E
100
AcDbEntity
  8
0
100
AcDbLine
 62
2
  6
CONTINUOUS
 10
12.4008351814
 20
2.5375433389
 11
12.3907841758
 21
2.5410923409
  0
LINE
  5
22F
100
AcDbEntity
  8
0
100
AcDbLine
 62
2
  6
CONTINUOUS
 10
12.3907841758
 20
2.5410923409
 11
12.3990241804
 21
2.5458683435
  0
ARC
  5
230
100
AcDbEntity
  8
0
100
AcDbCircle
 62
2
  6
CONTINUOUS
 10
12.3771587979
 20
2.5826952352
 40
0.0428289026
100
AcDbArc
 50
300.6990502959
 51
319.0591802498
  0
ARC
  5
231
100
AcDbEntity
  8
0
100
AcDbCircle
 62
2
  6
CONTINUOUS
 10
12.3971873948
 20
2.5665668817
 40
0.0171568255
100
AcDbArc
 50
315.9145124245
 51
16.0049121282
  0
ARC
  5
232
100
AcDbEntity
  8
0
100
AcDbCircle
 62
2
  6
CONTINUOUS
 10
12.3922357827
 20
2.5632132173
 40
0.0229166529
100
AcDbArc
 50
20.6563876465
 51
62.3316896973
  0
ARC
  5
233
100
AcDbEntity
  8
0
100
AcDbCircle
 62
2
  6
CONTINUOUS
 10
12.371573659
 20
2.5302846524
 40
0.061747717
100
AcDbArc
 50
59.5385584989
 51
90.0050977555
  0
LINE
  5
234
100
AcDbEntity
  8
0
100
AcDbLine
 62
2
  6
CONTINUOUS
 10
12.3715681652
 20
2.5920323691
 11
12.2055050731
 21
2.5920323691
  0
ARC
  5
235
100
AcDbEntity
  8
0
100
AcDbCircle
 62
2
  6
CONTINUOUS
 10
12.2055050712
 20
2.5895573696
 40
0.0024749995
100
AcDbArc
 50
89.9999571957
 51
180.0000428043
  0
LINE
  5
236
100
AcDbEntity
  8
0
100
AcDbLine
 62
2
  6
CONTINUOUS
 10
12.2030300717
 20
2.5895573678
 11
12.2030300717
 21
2.5697573568
  0
ARC
  5
237
100
AcDbEntity
  8
0
100
AcDbCircle
 62
2
  6
CONTINUOUS
 10
12.2055050712
 20
2.5697573549
 40
0.0024749995
100
AcDbArc
 50
179.9999571957
 51
270.0000428043
  0
LINE
  5
238
100
AcDbEntity
  8
0
100
AcDbLine
 62
2
  6
CONTINUOUS
 10
12.2055050731
 20
2.5672823554
 11
12.2294470864
 21
2.5672823554
  0
ARC
  5
239
100
AcDbEntity
  8
0
100
AcDbCircle
 62
2
  6
CONTINUOUS
 10
12.2294470882
 20
2.5648073559
 40
0.0024749995
100
AcDbArc
 50
359.9999571957
 51
90.0000428043
  0
LINE
  5
23A
100
AcDbEntity
  8
0
100
AcDbLine
 62
2
  6
CONTINUOUS
 10
12.2319220877
 20
2.564807354
 11
12.2319220877
 21
2.5184523283
  0
ARC
  5
23B
100
AcDbEntity
  8
0
100
AcDbCircle
 62
2
  6
CONTINUOUS
 10
12.2294470882
 20
2.5184523265
 40
0.0024749995
100
AcDbArc
 50
269.9999571957
 51
0.0000428043
  0
LINE
  5
23C
100
AcDbEntity
  8
0
100
AcDbLine
 62
2
  6
CONTINUOUS
 10
12.2294470864
 20
2.515977327
 11
12.2055050731
 21
2.515977327
  0
ARC
  5
23D
100
AcDbEntity
  8
0
100
AcDbCircle
 62
2
  6
CONTINUOUS
 10
12.2055050712
 20
2.5135023274
 40
0.0024749995
100
AcDbArc
 50
89.9999571957
 51
180.0000428043
  0
LINE
  5
23E
100
AcDbEntity
  8
0
100
AcDbLine
 62
2
  6
CONTINUOUS
 10
12.2030300717
 20
2.5135023256
 11
12.2030300717
 21
2.4937023146
  0
ARC
  5
23F
100
AcDbEntity
  8
0
100
AcDbCircle
 62
2
  6
CONTINUOUS
 10
12.2055050712
 20
2.4937023128
 40
0.0024749995
100
AcDbArc
 50
179.9999571957
 51
270.0000428043
  0
LINE
  5
240
100
AcDbEntity
  8
0
100
AcDbLine
 62
2
  6
CONTINUOUS
 10
12.2055050731
 20
2.4912273132
 11
12.3819511709
 21
2.4912273132
  0
ARC
  5
241
100
AcDbEntity
  8
0
100
AcDbCircle
 62
2
  6
CONTINUOUS
 10
12.3792298263
 20
2.539634765
 40
0.048483885
100
AcDbArc
 50
273.21763719
 51
303.0749121182
  0
ARC
  5
242
100
AcDbEntity
  8
0
100
AcDbCircle
 62
2
  6
CONTINUOUS
 10
12.3940692204
 20
2.5168671561
 40
0.0213072145
100
AcDbArc
 50
303.0488228549
 51
355.7263138674
  0
LINE
  5
243
100
AcDbEntity
  8
0
100
AcDbLine
 62
2
  6
CONTINUOUS
 10
12.2949101227
 20
2.5499573458
 11
12.3362731456
 21
2.5499573458
  0
ARC
  5
244
100
AcDbEntity
  8
0
100
AcDbCircle
 62
2
  6
CONTINUOUS
 10
12.3362731456
 20
2.5586198506
 40
0.0086625048
100
AcDbArc
 50
270.0
 51
90.0
  0
LINE
  5
245
100
AcDbEntity
  8
0
100
AcDbLine
 62
2
  6
CONTINUOUS
 10
12.3362731456
 20
2.5672823554
 11
12.2949101227
 21
2.5672823554
  0
ARC
  5
246
100
AcDbEntity
  8
0
100
AcDbCircle
 62
2
  6
CONTINUOUS
 10
12.2949101208
 20
2.5648073559
 40
0.0024749995
100
AcDbArc
 50
89.9999571957
 51
180.0000428043
  0
LINE
  5
247
100
AcDbEntity
  8
0
100
AcDbLine
 62
2
  6
CONTINUOUS
 10
12.2924351213
 20
2.564807354
 11
12.2924351213
 21
2.5524323472
  0
ARC
  5
248
100
AcDbEntity
  8
0
100
AcDbCircle
 62
2
  6
CONTINUOUS
 10
12.2949101208
 20
2.5524323453
 40
0.0024749995
100
AcDbArc
 50
179.9999571957
 51
270.0000428043
  0
LINE
  5
249
100
AcDbEntity
  8
0
100
AcDbLine
 62
2
  6
CONTINUOUS
 10
12.2924351213
 20
2.5184523283
 11
12.2924351213
 21
2.5308273352
  0
ARC
  5
24A
100
AcDbEntity
  8
0
100
AcDbCircle
 62
2
  6
CONTINUOUS
 10
12.2949101208
 20
2.530827337
 40
0.0024749995
100
AcDbArc
 50
89.9999571957
 51
180.0000428043
  0
LINE
  5
24B
100
AcDbEntity
  8
0
100
AcDbLine
 62
2
  6
CONTINUOUS
 10
12.2949101227
 20
2.5333023366
 11
12.3362731456
 21
2.5333023366
  0
ARC
  5
24C
100
AcDbEntity
  8
0
100
AcDbCircle
 62
2
  6
CONTINUOUS
 10
12.3362731456
 20
2.5246398318
 40
0.0086625048
100
AcDbArc
 50
270.0
 51
90.0
  0
LINE
  5
24D
100
AcDbEntity
  8
0
100
AcDbLine
 62
2
  6
CONTINUOUS
 10
12.3362731456
 20
2.515977327
 11
12.2949101227
 21
2.515977327
  0
ARC
  5
24E
100
AcDbEntity
  8
0
100
AcDbCircle
 62
2
  6
CONTINUOUS
 10
12.2949101208
 20
2.5184523265
 40
0.0024749995
100
AcDbArc
 50
179.9999571957
 51
270.0000428043
  0
ARC
  5
24F
100
AcDbEntity
  8
0
100
AcDbCircle
 62
2
  6
CONTINUOUS
 10
13.5806801742
 20
2.5212486481
 40
0.044722495
100
AcDbArc
 50
195.531588407
 51
204.7624440448
  0
LINE
  5
250
100
AcDbEntity
  8
0
100
AcDbLine
 62
2
  6
CONTINUOUS
 10
13.5375908118
 20
2.5092733232
 11
13.5357868108
 21
2.5153423266
  0
ARC
  5
251
100
AcDbEntity
  8
0
100
AcDbCircle
 62
2
  6
CONTINUOUS
 10
13.4974076135
 20
2.5055452462
 40
0.0396099176
100
AcDbArc
 50
14.3201081283
 51
22.4984722084
  0
ARC
  5
252
100
AcDbEntity
  8
0
100
AcDbCircle
 62
2
  6
CONTINUOUS
 10
13.5201739219
 20
2.5145168728
 40
0.0151491919
100
AcDbArc
 50
24.098260853
 51
63.0369451818
  0
ARC
  5
253
100
AcDbEntity
  8
0
100
AcDbCircle
 62
2
  6
CONTINUOUS
 10
13.5161192671
 20
2.5062372524
 40
0.0243676582
100
AcDbArc
 50
63.3666028271
 51
90.3937697637
  0
LINE
  5
254
100
AcDbEntity
  8
0
100
AcDbLine
 62
2
  6
CONTINUOUS
 10
13.5159517998
 20
2.5306043351
 11
13.4883447845
 21
2.5306043351
  0
ARC
  5
255
100
AcDbEntity
  8
0
100
AcDbCircle
 62
2
  6
CONTINUOUS
 10
13.4883447827
 20
2.5281293355
 40
0.0024749995
100
AcDbArc
 50
89.9999571957
 51
180.0000428043
  0
LINE
  5
256
100
AcDbEntity
  8
0
100
AcDbLine
 62
2
  6
CONTINUOUS
 10
13.4858697831
 20
2.5281293337
 11
13.4858697831
 21
2.5184303283
  0
ARC
  5
257
100
AcDbEntity
  8
0
100
AcDbCircle
 62
2
  6
CONTINUOUS
 10
13.4883447827
 20
2.5184303265
 40
0.0024749995
100
AcDbArc
 50
179.9999571957
 51
270.0000428043
  0
LINE
  5
258
100
AcDbEntity
  8
0
100
AcDbLine
 62
2
  6
CONTINUOUS
 10
13.4883447845
 20
2.5159553269
 11
13.5130037982
 21
2.5159553269
  0
ARC
  5
259
100
AcDbEntity
  8
0
100
AcDbCircle
 62
2
  6
CONTINUOUS
 10
13.5130038
 20
2.5134803274
 40
0.0024749995
100
AcDbArc
 50
359.9999571957
 51
90.0000428043
  0
LINE
  5
25A
100
AcDbEntity
  8
0
100
AcDbLine
 62
2
  6
CONTINUOUS
 10
13.5154787995
 20
2.5134803256
 11
13.5154787995
 21
2.4937023146
  0
ARC
  5
25B
100
AcDbEntity
  8
0
100
AcDbCircle
 62
2
  6
CONTINUOUS
 10
13.5130038
 20
2.4937023128
 40
0.0024749995
100
AcDbArc
 50
269.9999571957
 51
0.0000428043
  0
LINE
  5
25C
100
AcDbEntity
  8
0
100
AcDbLine
 62
2
  6
CONTINUOUS
 10
13.5130037982
 20
2.4912273132
 11
13.3994327352
 21
2.4912273132
  0
ARC
  5
25D
100
AcDbEntity
  8
0
100
AcDbCircle
 62
2
  6
CONTINUOUS
 10
13.3994327333
 20
2.4937023128
 40
0.0024749995
100
AcDbArc
 50
179.9999571957
 51
270.0000428043
  0
LINE
  5
25E
100
AcDbEntity
  8
0
100
AcDbLine
 62
2
  6
CONTINUOUS
 10
13.3969577338
 20
2.4937023146
 11
13.3969577338
 21
2.5135023256
  0
ARC
  5
25F
100
AcDbEntity
  8
0
100
AcDbCircle
 62
2
  6
CONTINUOUS
 10
13.3994327333
 20
2.5135023274
 40
0.0024749995
100
AcDbArc
 50
89.9999571957
 51
180.0000428043
  0
LINE
  5
260
100
AcDbEntity
  8
0
100
AcDbLine
 62
2
  6
CONTINUOUS
 10
13.3994327352
 20
2.515977327
 11
13.4221787478
 21
2.515977327
  0
ARC
  5
261
100
AcDbEntity
  8
0
100
AcDbCircle
 62
2
  6
CONTINUOUS
 10
13.4221787497
 20
2.5184523265
 40
0.0024749995
100
AcDbArc
 50
269.9999571957
 51
0.0000428042
  0
LINE
  5
262
100
AcDbEntity
  8
0
100
AcDbLine
 62
2
  6
CONTINUOUS
 10
13.4246537492
 20
2.5184523283
 11
13.4246537492
 21
2.564807354
  0
ARC
  5
263
100
AcDbEntity
  8
0
100
AcDbCircle
 62
2
  6
CONTINUOUS
 10
13.4221787497
 20
2.5648073559
 40
0.0024749995
100
AcDbArc
 50
359.9999571957
 51
90.0000428043
  0
LINE
  5
264
100
AcDbEntity
  8
0
100
AcDbLine
 62
2
  6
CONTINUOUS
 10
13.4221787478
 20
2.5672823554
 11
13.3994327352
 21
2.5672823554
  0
ARC
  5
265
100
AcDbEntity
  8
0
100
AcDbCircle
 62
2
  6
CONTINUOUS
 10
13.3994327333
 20
2.5697573549
 40
0.0024749995
100
AcDbArc
 50
179.9999571957
 51
270.0000428043
  0
LINE
  5
266
100
AcDbEntity
  8
0
100
AcDbLine
 62
2
  6
CONTINUOUS
 10
13.3969577338
 20
2.5697573568
 11
13.3969577338
 21
2.5895573678
  0
ARC
  5
267
100
AcDbEntity
  8
0
100
AcDbCircle
 62
2
  6
CONTINUOUS
 10
13.3994327333
 20
2.5895573696
 40
0.0024749995
100
AcDbArc
 50
89.9999571957
 51
180.0000428043
  0
LINE
  5
268
100
AcDbEntity
  8
0
100
AcDbLine
 62
2
  6
CONTINUOUS
 10
13.3994327352
 20
2.5920323691
 11
13.5490138181
 21
2.5920323691
  0
ARC
  5
269
100
AcDbEntity
  8
0
100
AcDbCircle
 62
2
  6
CONTINUOUS
 10
13.5463505148
 20
2.4094934586
 40
0.1825583387
100
AcDbArc
 50
79.8618509324
 51
89.1640948679
  0
ARC
  5
26A
100
AcDbEntity
  8
0
100
AcDbCircle
 62
2
  6
CONTINUOUS
 10
13.5726548052
 20
2.5503169747
 40
0.039319019
100
AcDbArc
 50
59.1202086415
 51
81.4730239328
  0
ARC
  5
26B
100
AcDbEntity
  8
0
100
AcDbCircle
 62
2
  6
CONTINUOUS
 10
13.5783142014
 20
2.5566516438
 40
0.0310192946
100
AcDbArc
 50
34.7540871
 51
62.0879016178
  0
ARC
  5
26C
100
AcDbEntity
  8
0
100
AcDbCircle
 62
2
  6
CONTINUOUS
 10
13.5900029525
 20
2.565201245
 40
0.0165459396
100
AcDbArc
 50
1.548452892
 51
33.5033152417
  0
ARC
  5
26D
100
AcDbEntity
  8
0
100
AcDbCircle
 62
2
  6
CONTINUOUS
 10
13.5932995477
 20
2.5653696972
 40
0.0132462337
100
AcDbArc
 50
331.1510006998
 51
1.205404301
  0
ARC
  5
26E
100
AcDbEntity
  8
0
100
AcDbCircle
 62
2
  6
CONTINUOUS
 10
13.5822888914
 20
2.5720482849
 40
0.0261183659
100
AcDbArc
 50
305.6373831893
 51
329.9727629745
  0
ARC
  5
26F
100
AcDbEntity
  8
0
100
AcDbCircle
 62
2
  6
CONTINUOUS
 10
13.5519569538
 20
2.6152551345
 40
0.0789082104
100
AcDbArc
 50
292.906155071
 51
305.2574666259
  0
ARC
  5
270
100
AcDbEntity
  8
0
100
AcDbCircle
 62
2
  6
CONTINUOUS
 10
13.5282557878
 20
2.4386010294
 40
0.117346916
100
AcDbArc
 50
58.614769177
 51
62.3737227606
  0
ARC
  5
271
100
AcDbEntity
  8
0
100
AcDbCircle
 62
2
  6
CONTINUOUS
 10
13.5761387404
 20
2.5167282896
 40
0.0257145923
100
AcDbArc
 50
39.3804255939
 51
59.0361096173
  0
ARC
  5
272
100
AcDbEntity
  8
0
100
AcDbCircle
 62
2
  6
CONTINUOUS
 10
13.5750183849
 20
2.5166552064
 40
0.0266349791
100
AcDbArc
 50
20.3630922153
 51
37.9727053099
  0
ARC
  5
273
100
AcDbEntity
  8
0
100
AcDbCircle
 62
2
  6
CONTINUOUS
 10
13.5571178432
 20
2.509473798
 40
0.0459185159
100
AcDbArc
 50
15.6740290068
 51
20.9917271228
  0
ARC
  5
274
100
AcDbEntity
  8
0
100
AcDbCircle
 62
2
  6
CONTINUOUS
 10
13.6156881783
 20
2.525116781
 40
0.0147197649
100
AcDbArc
 50
192.7054516565
 51
206.0594861022
  0
ARC
  5
275
100
AcDbEntity
  8
0
100
AcDbCircle
 62
2
  6
CONTINUOUS
 10
13.6071938412
 20
2.5209082945
 40
0.0052403997
100
AcDbArc
 50
205.5232099488
 51
227.5054868079
  0
ARC
  5
276
100
AcDbEntity
  8
0
100
AcDbCircle
 62
2
  6
CONTINUOUS
 10
13.6054655419
 20
2.5190929218
 40
0.0027347709
100
AcDbArc
 50
228.5117626737
 51
266.1485845754
  0
LINE
  5
277
100
AcDbEntity
  8
0
100
AcDbLine
 62
2
  6
CONTINUOUS
 10
13.6052818493
 20
2.5163643272
 11
13.60639085
 21
2.5163643272
  0
ARC
  5
278
100
AcDbEntity
  8
0
100
AcDbCircle
 62
2
  6
CONTINUOUS
 10
13.6063292954
 20
2.5296129864
 40
0.0132488022
100
AcDbArc
 50
270.266200055
 51
281.2404888597
  0
ARC
  5
279
100
AcDbEntity
  8
0
100
AcDbCircle
 62
2
  6
CONTINUOUS
 10
13.6075235364
 20
2.5238762928
 40
0.0073895522
100
AcDbArc
 50
280.8288201977
 51
305.0837508495
  0
ARC
  5
27A
100
AcDbEntity
  8
0
100
AcDbCircle
 62
2
  6
CONTINUOUS
 10
13.607924718
 20
2.5230254464
 40
0.0064647042
100
AcDbArc
 50
306.5086174083
 51
340.2162360092
  0
ARC
  5
27B
100
AcDbEntity
  8
0
100
AcDbCircle
 62
2
  6
CONTINUOUS
 10
13.6027235414
 20
2.524769508
 40
0.0119498009
100
AcDbArc
 50
340.7883861657
 51
1.1691452593
  0
LINE
  5
27C
100
AcDbEntity
  8
0
100
AcDbLine
 62
2
  6
CONTINUOUS
 10
13.6146708546
 20
2.525013332
 11
13.6146708546
 21
2.5276393334
  0
ARC
  5
27D
100
AcDbEntity
  8
0
100
AcDbCircle
 62
2
  6
CONTINUOUS
 10
13.6171458541
 20
2.5276393353
 40
0.0024749995
100
AcDbArc
 50
89.9999571957
 51
180.0000428043
  0
LINE
  5
27E
100
AcDbEntity
  8
0
100
AcDbLine
 62
2
  6
CONTINUOUS
 10
13.6171458559
 20
2.5301143348
 11
13.6292558626
 21
2.5301143348
  0
ARC
  5
27F
100
AcDbEntity
  8
0
100
AcDbCircle
 62
2
  6
CONTINUOUS
 10
13.6292558645
 20
2.5276393353
 40
0.0024749995
100
AcDbArc
 50
359.9999571957
 51
90.0000428043
  0
LINE
  5
280
100
AcDbEntity
  8
0
100
AcDbLine
 62
2
  6
CONTINUOUS
 10
13.631730864
 20
2.5276393334
 11
13.631730864
 21
2.516087327
  0
ARC
  5
281
100
AcDbEntity
  8
0
100
AcDbCircle
 62
2
  6
CONTINUOUS
 10
13.6141751675
 20
2.5161916447
 40
0.0175560065
100
AcDbArc
 50
332.2279060967
 51
359.6595469939
  0
ARC
  5
282
100
AcDbEntity
  8
0
100
AcDbCircle
 62
2
  6
CONTINUOUS
 10
13.6048681567
 20
2.5210861501
 40
0.0280715479
100
AcDbArc
 50
308.5071794988
 51
332.2400656899
  0
ARC
  5
283
100
AcDbEntity
  8
0
100
AcDbCircle
 62
2
  6
CONTINUOUS
 10
13.5978759713
 20
2.5286873679
 40
0.0383802683
100
AcDbArc
 50
288.7656836787
 51
309.6104317088
  0
ARC
  5
284
100
AcDbEntity
  8
0
100
AcDbCircle
 62
2
  6
CONTINUOUS
 10
13.6036139387
 20
2.5111006186
 40
0.0198837666
100
AcDbArc
 50
271.8586572978
 51
289.4131338543
  0
LINE
  5
285
100
AcDbEntity
  8
0
100
AcDbLine
 62
2
  6
CONTINUOUS
 10
13.6042588488
 20
2.4912273132
 11
13.5568948225
 21
2.4912273132
  0
ARC
  5
286
100
AcDbEntity
  8
0
100
AcDbCircle
 62
2
  6
CONTINUOUS
 10
13.5577001432
 20
2.5085494649
 40
0.0173408616
100
AcDbArc
 50
232.4713476722
 51
267.338189944
  0
ARC
  5
287
100
AcDbEntity
  8
0
100
AcDbCircle
 62
2
  6
CONTINUOUS
 10
13.5607987082
 20
2.5143997688
 40
0.0238935861
100
AcDbArc
 50
209.8247607259
 51
235.1255079367
  0
ARC
  5
288
100
AcDbEntity
  8
0
100
AcDbCircle
 62
2
  6
CONTINUOUS
 10
13.5295131508
 20
2.5629115009
 40
0.0110815393
100
AcDbArc
 50
306.758405961
 51
320.4502234234
  0
ARC
  5
289
100
AcDbEntity
  8
0
100
AcDbCircle
 62
2
  6
CONTINUOUS
 10
13.5238839599
 20
2.5706523294
 40
0.0206523367
100
AcDbArc
 50
289.6883413472
 51
306.4184925496
  0
ARC
  5
28A
100
AcDbEntity
  8
0
100
AcDbCircle
 62
2
  6
CONTINUOUS
 10
13.5219564542
 20
2.5750459767
 40
0.0254407115
100
AcDbArc
 50
270.7327484175
 51
290.441894219
  0
LINE
  5
28B
100
AcDbEntity
  8
0
100
AcDbLine
 62
2
  6
CONTINUOUS
 10
13.5222818033
 20
2.5496073456
 11
13.4883447845
 21
2.5496073456
  0
ARC
  5
28C
100
AcDbEntity
  8
0
100
AcDbCircle
 62
2
  6
CONTINUOUS
 10
13.4883447827
 20
2.5520823451
 40
0.0024749995
100
AcDbArc
 50
179.9999571957
 51
270.0000428043
  0
LINE
  5
28D
100
AcDbEntity
  8
0
100
AcDbLine
 62
2
  6
CONTINUOUS
 10
13.4858697831
 20
2.552082347
 11
13.4858697831
 21
2.564807354
  0
ARC
  5
28E
100
AcDbEntity
  8
0
100
AcDbCircle
 62
2
  6
CONTINUOUS
 10
13.4883447827
 20
2.5648073559
 40
0.0024749995
100
AcDbArc
 50
89.9999571957
 51
180.0000428043
  0
LINE
  5
28F
100
AcDbEntity
  8
0
100
AcDbLine
 62
2
  6
CONTINUOUS
 10
13.4883447845
 20
2.5672823554
 11
13.5251458049
 21
2.5672823554
  0
ARC
  5
290
100
AcDbEntity
  8
0
100
AcDbCircle
 62
2
  6
CONTINUOUS
 10
13.5236009174
 20
2.5388278764
 40
0.0284963867
100
AcDbArc
 50
70.3834917948
 51
86.8922743861
  0
ARC
  5
291
100
AcDbEntity
  8
0
100
AcDbCircle
 62
2
  6
CONTINUOUS
 10
13.5284605274
 20
2.5518696094
 40
0.0145814632
100
AcDbArc
 50
54.6746025112
 51
71.1660573124
  0
ARC
  5
292
100
AcDbEntity
  8
0
100
AcDbCircle
 62
2
  6
CONTINUOUS
 10
13.5335900184
 20
2.5587235346
 40
0.0060275915
100
AcDbArc
 50
20.9055592135
 51
56.7851676243
  0
ARC
  5
293
100
AcDbEntity
  8
0
100
AcDbCircle
 62
2
  6
CONTINUOUS
 10
13.5348905773
 20
2.5593838168
 40
0.0045795888
100
AcDbArc
 50
355.6235353944
 51
18.9942678268
  0
ARC
  5
294
100
AcDbEntity
  8
0
100
AcDbCircle
 62
2
  6
CONTINUOUS
 10
13.533683767
 20
2.559677593
 40
0.0058087709
100
AcDbArc
 50
318.8515287446
 51
353.6422345323
  0
LINE
  5
295
100
AcDbEntity
  8
0
100
AcDbLine
 62
2
  6
CONTINUOUS
 10
12.672340332
 20
2.5920323691
 11
12.7727983877
 21
2.5920323691
  0
ARC
  5
296
100
AcDbEntity
  8
0
100
AcDbCircle
 62
2
  6
CONTINUOUS
 10
12.7727985224
 20
2.5895582013
 40
0.0024741678
100
AcDbArc
 50
46.3477981899
 51
90.0031206038
  0
LINE
  5
297
100
AcDbEntity
  8
0
100
AcDbLine
 62
2
  6
CONTINUOUS
 10
12.7745063886
 20
2.5913483688
 11
12.8345394219
 21
2.534068337
  0
ARC
  5
298
100
AcDbEntity
  8
0
100
AcDbCircle
 62
2
  6
CONTINUOUS
 10
12.8362481229
 20
2.5358592748
 40
0.0024753014
100
AcDbArc
 50
226.3461263059
 51
0.0014637321
  0
LINE
  5
299
100
AcDbEntity
  8
0
100
AcDbLine
 62
2
  6
CONTINUOUS
 10
12.8387234242
 20
2.535859338
 11
12.8387234242
 21
2.564807354
  0
ARC
  5
29A
100
AcDbEntity
  8
0
100
AcDbCircle
 62
2
  6
CONTINUOUS
 10
12.8362484247
 20
2.5648073559
 40
0.0024749995
100
AcDbArc
 50
359.9999571957
 51
90.0000428043
  0
LINE
  5
29B
100
AcDbEntity
  8
0
100
AcDbLine
 62
2
  6
CONTINUOUS
 10
12.8362484229
 20
2.5672823554
 11
12.8174724125
 21
2.5672823554
  0
ARC
  5
29C
100
AcDbEntity
  8
0
100
AcDbCircle
 62
2
  6
CONTINUOUS
 10
12.8174724106
 20
2.5697573549
 40
0.0024749995
100
AcDbArc
 50
179.9999571957
 51
270.0000428043
  0
LINE
  5
29D
100
AcDbEntity
  8
0
100
AcDbLine
 62
2
  6
CONTINUOUS
 10
12.8149974111
 20
2.5697573568
 11
12.8149974111
 21
2.5895573678
  0
ARC
  5
29E
100
AcDbEntity
  8
0
100
AcDbCircle
 62
2
  6
CONTINUOUS
 10
12.8174724106
 20
2.5895573696
 40
0.0024749995
100
AcDbArc
 50
89.9999571957
 51
180.0000428043
  0
LINE
  5
29F
100
AcDbEntity
  8
0
100
AcDbLine
 62
2
  6
CONTINUOUS
 10
12.8174724125
 20
2.5920323691
 11
12.8914734535
 21
2.5920323691
  0
ARC
  5
2A0
100
AcDbEntity
  8
0
100
AcDbCircle
 62
2
  6
CONTINUOUS
 10
12.8914734553
 20
2.5895573696
 40
0.0024749995
100
AcDbArc
 50
359.9999571957
 51
90.0000428043
  0
LINE
  5
2A1
100
AcDbEntity
  8
0
100
AcDbLine
 62
2
  6
CONTINUOUS
 10
12.8939484549
 20
2.5895573678
 11
12.8939484549
 21
2.5697573568
  0
ARC
  5
2A2
100
AcDbEntity
  8
0
100
AcDbCircle
 62
2
  6
CONTINUOUS
 10
12.8914734553
 20
2.5697573549
 40
0.0024749995
100
AcDbArc
 50
269.9999571957
 51
0.0000428043
  0
LINE
  5
2A3
100
AcDbEntity
  8
0
100
AcDbLine
 62
2
  6
CONTINUOUS
 10
12.8914734535
 20
2.5672823554
 11
12.8735404436
 21
2.5672823554
  0
ARC
  5
2A4
100
AcDbEntity
  8
0
100
AcDbCircle
 62
2
  6
CONTINUOUS
 10
12.8735404417
 20
2.5648073559
 40
0.0024749995
100
AcDbArc
 50
89.9999571957
 51
180.0000428043
  0
LINE
  5
2A5
100
AcDbEntity
  8
0
100
AcDbLine
 62
2
  6
CONTINUOUS
 10
12.8710654422
 20
2.564807354
 11
12.8710654422
 21
2.4937023146
  0
ARC
  5
2A6
100
AcDbEntity
  8
0
100
AcDbCircle
 62
2
  6
CONTINUOUS
 10
12.8685904427
 20
2.4937023128
 40
0.0024749995
100
AcDbArc
 50
269.9999571957
 51
0.0000428043
  0
LINE
  5
2A7
100
AcDbEntity
  8
0
100
AcDbLine
 62
2
  6
CONTINUOUS
 10
12.8685904408
 20
2.4912273132
 11
12.7943853997
 21
2.4912273132
  0
ARC
  5
2A8
100
AcDbEntity
  8
0
100
AcDbCircle
 62
2
  6
CONTINUOUS
 10
12.7943847649
 20
2.4937027294
 40
0.0024754162
100
AcDbArc
 50
226.3593695813
 51
270.0146919953
  0
LINE
  5
2A9
100
AcDbEntity
  8
0
100
AcDbLine
 62
2
  6
CONTINUOUS
 10
12.7926763987
 20
2.4919113136
 11
12.7293963636
 21
2.5522893471
  0
ARC
  5
2AA
100
AcDbEntity
  8
0
100
AcDbCircle
 62
2
  6
CONTINUOUS
 10
12.7276876627
 20
2.5504984093
 40
0.0024753014
100
AcDbArc
 50
46.3461263059
 51
180.0014637321
  0
LINE
  5
2AB
100
AcDbEntity
  8
0
100
AcDbLine
 62
2
  6
CONTINUOUS
 10
12.7252123613
 20
2.5504983461
 11
12.7252123613
 21
2.5184523283
  0
ARC
  5
2AC
100
AcDbEntity
  8
0
100
AcDbCircle
 62
2
  6
CONTINUOUS
 10
12.7276873608
 20
2.5184523265
 40
0.0024749995
100
AcDbArc
 50
179.9999571957
 51
270.0000428043
  0
LINE
  5
2AD
100
AcDbEntity
  8
0
100
AcDbLine
 62
2
  6
CONTINUOUS
 10
12.7276873627
 20
2.515977327
 11
12.7480043739
 21
2.515977327
  0
ARC
  5
2AE
100
AcDbEntity
  8
0
100
AcDbCircle
 62
2
  6
CONTINUOUS
 10
12.7480043758
 20
2.5135023274
 40
0.0024749995
100
AcDbArc
 50
359.9999571957
 51
90.0000428043
  0
LINE
  5
2AF
100
AcDbEntity
  8
0
100
AcDbLine
 62
2
  6
CONTINUOUS
 10
12.7504793753
 20
2.5135023256
 11
12.7504793753
 21
2.4937023146
  0
ARC
  5
2B0
100
AcDbEntity
  8
0
100
AcDbCircle
 62
2
  6
CONTINUOUS
 10
12.7480043758
 20
2.4937023128
 40
0.0024749995
100
AcDbArc
 50
269.9999571957
 51
0.0000428043
  0
LINE
  5
2B1
100
AcDbEntity
  8
0
100
AcDbLine
 62
2
  6
CONTINUOUS
 10
12.7480043739
 20
2.4912273132
 11
12.672340332
 21
2.4912273132
  0
ARC
  5
2B2
100
AcDbEntity
  8
0
100
AcDbCircle
 62
2
  6
CONTINUOUS
 10
12.6723403301
 20
2.4937023128
 40
0.0024749995
100
AcDbArc
 50
179.9999571957
 51
270.0000428043
  0
LINE
  5
2B3
100
AcDbEntity
  8
0
100
AcDbLine
 62
2
  6
CONTINUOUS
 10
12.6698653306
 20
2.4937023146
 11
12.6698653306
 21
2.5135023256
  0
ARC
  5
2B4
100
AcDbEntity
  8
0
100
AcDbCircle
 62
2
  6
CONTINUOUS
 10
12.6723403301
 20
2.5135023274
 40
0.0024749995
100
AcDbArc
 50
89.9999571957
 51
180.0000428043
  0
LINE
  5
2B5
100
AcDbEntity
  8
0
100
AcDbLine
 62
2
  6
CONTINUOUS
 10
12.672340332
 20
2.515977327
 11
12.6909873423
 21
2.515977327
  0
ARC
  5
2B6
100
AcDbEntity
  8
0
100
AcDbCircle
 62
2
  6
CONTINUOUS
 10
12.6909873442
 20
2.5184523265
 40
0.0024749995
100
AcDbArc
 50
269.9999571957
 51
0.0000428043
  0
LINE
  5
2B7
100
AcDbEntity
  8
0
100
AcDbLine
 62
2
  6
CONTINUOUS
 10
12.6934623437
 20
2.5184523283
 11
12.6934623437
 21
2.564807354
  0
ARC
  5
2B8
100
AcDbEntity
  8
0
100
AcDbCircle
 62
2
  6
CONTINUOUS
 10
12.6909873442
 20
2.5648073559
 40
0.0024749995
100
AcDbArc
 50
359.9999571957
 51
90.0000428043
  0
LINE
  5
2B9
100
AcDbEntity
  8
0
100
AcDbLine
 62
2
  6
CONTINUOUS
 10
12.6909873423
 20
2.5672823554
 11
12.672340332
 21
2.5672823554
  0
ARC
  5
2BA
100
AcDbEntity
  8
0
100
AcDbCircle
 62
2
  6
CONTINUOUS
 10
12.6723403301
 20
2.5697573549
 40
0.0024749995
100
AcDbArc
 50
179.9999571957
 51
270.0000428043
  0
LINE
  5
2BB
100
AcDbEntity
  8
0
100
AcDbLine
 62
2
  6
CONTINUOUS
 10
12.6698653306
 20
2.5697573568
 11
12.6698653306
 21
2.5895573678
  0
ARC
  5
2BC
100
AcDbEntity
  8
0
100
AcDbCircle
 62
2
  6
CONTINUOUS
 10
12.6723403301
 20
2.5895573696
 40
0.0024749995
100
AcDbArc
 50
89.9999571957
 51
180.0000428043
  0
LINE
  5
2BD
100
AcDbEntity
  8
0
100
AcDbLine
 62
2
  6
CONTINUOUS
 10
12.5246402501
 20
2.5655893545
 11
12.5175232461
 21
2.5543723483
  0
ARC
  5
2BE
100
AcDbEntity
  8
0
100
AcDbCircle
 62
2
  6
CONTINUOUS
 10
12.519613138
 20
2.5530463862
 40
0.0024750401
100
AcDbArc
 50
147.6063258012
 51
270.0025305754
  0
LINE
  5
2BF
100
AcDbEntity
  8
0
100
AcDbLine
 62
2
  6
CONTINUOUS
 10
12.5196132473
 20
2.5505713461
 11
12.5401702587
 21
2.5505713461
  0
ARC
  5
2C0
100
AcDbEntity
  8
0
100
AcDbCircle
 62
2
  6
CONTINUOUS
 10
12.5401702375
 20
2.5530465533
 40
0.0024752071
100
AcDbArc
 50
270.0004896793
 51
32.9089806818
  0
LINE
  5
2C1
100
AcDbEntity
  8
0
100
AcDbLine
 62
2
  6
CONTINUOUS
 10
12.5422482598
 20
2.5543913483
 11
12.5349892558
 21
2.5656073545
  0
ARC
  5
2C2
100
AcDbEntity
  8
0
100
AcDbCircle
 62
2
  6
CONTINUOUS
 10
12.532910715
 20
2.564262895
 40
0.0024754602
100
AcDbArc
 50
32.8959418573
 51
89.9875097202
  0
LINE
  5
2C3
100
AcDbEntity
  8
0
100
AcDbLine
 62
2
  6
CONTINUOUS
 10
12.5329112547
 20
2.5667383551
 11
12.5267302512
 21
2.5667383551
  0
ARC
  5
2C4
100
AcDbEntity
  8
0
100
AcDbCircle
 62
2
  6
CONTINUOUS
 10
12.5267301809
 20
2.5642631548
 40
0.0024752003
100
AcDbArc
 50
89.998372645
 51
147.602165307
  0
LINE
  5
2C5
100
AcDbEntity
  8
0
100
AcDbLine
 62
2
  6
CONTINUOUS
 10
12.548053263
 20
2.5284903339
 11
12.5536792662
 21
2.5197973291
  0
ARC
  5
2C6
100
AcDbEntity
  8
0
100
AcDbCircle
 62
2
  6
CONTINUOUS
 10
12.5516012439
 20
2.5184525341
 40
0.0024752071
100
AcDbArc
 50
270.0004896794
 51
32.9089806818
  0
LINE
  5
2C7
100
AcDbEntity
  8
0
100
AcDbLine
 62
2
  6
CONTINUOUS
 10
12.551601265
 20
2.515977327
 11
12.537150257
 21
2.515977327
  0
ARC
  5
2C8
100
AcDbEntity
  8
0
100
AcDbCircle
 62
2
  6
CONTINUOUS
 10
12.5371502552
 20
2.5135023274
 40
0.0024749995
100
AcDbArc
 50
89.9999571957
 51
180.0000428043
  0
LINE
  5
2C9
100
AcDbEntity
  8
0
100
AcDbLine
 62
2
  6
CONTINUOUS
 10
12.5346752556
 20
2.5135023256
 11
12.5346752556
 21
2.4937023146
  0
ARC
  5
2CA
100
AcDbEntity
  8
0
100
AcDbCircle
 62
2
  6
CONTINUOUS
 10
12.5371502552
 20
2.4937023128
 40
0.0024749995
100
AcDbArc
 50
179.9999571957
 51
270.0000428043
  0
LINE
  5
2CB
100
AcDbEntity
  8
0
100
AcDbLine
 62
2
  6
CONTINUOUS
 10
12.537150257
 20
2.4912273132
 11
12.6424313154
 21
2.4912273132
  0
ARC
  5
2CC
100
AcDbEntity
  8
0
100
AcDbCircle
 62
2
  6
CONTINUOUS
 10
12.6424313172
 20
2.4937023128
 40
0.0024749995
100
AcDbArc
 50
269.9999571957
 51
0.0000428043
  0
LINE
  5
2CD
100
AcDbEntity
  8
0
100
AcDbLine
 62
2
  6
CONTINUOUS
 10
12.6449063168
 20
2.4937023146
 11
12.6449063168
 21
2.5135023256
  0
ARC
  5
2CE
100
AcDbEntity
  8
0
100
AcDbCircle
 62
2
  6
CONTINUOUS
 10
12.6424313172
 20
2.5135023274
 40
0.0024749995
100
AcDbArc
 50
359.9999571957
 51
90.0000428043
  0
LINE
  5
2CF
100
AcDbEntity
  8
0
100
AcDbLine
 62
2
  6
CONTINUOUS
 10
12.6424313154
 20
2.515977327
 11
12.6224153043
 21
2.515977327
  0
ARC
  5
2D0
100
AcDbEntity
  8
0
100
AcDbCircle
 62
2
  6
CONTINUOUS
 10
12.6224154248
 20
2.518451368
 40
0.002474041
100
AcDbArc
 50
212.9056413127
 51
269.9972091756
  0
LINE
  5
2D1
100
AcDbEntity
  8
0
100
AcDbLine
 62
2
  6
CONTINUOUS
 10
12.6203383031
 20
2.5171073276
 11
12.5725822767
 21
2.5909023685
  0
ARC
  5
2D2
100
AcDbEntity
  8
0
100
AcDbCircle
 62
2
  6
CONTINUOUS
 10
12.570504655
 20
2.589557409
 40
0.0024749602
100
AcDbArc
 50
32.9172174468
 51
90.0087853097
  0
LINE
  5
2D3
100
AcDbEntity
  8
0
100
AcDbLine
 62
2
  6
CONTINUOUS
 10
12.5705042755
 20
2.5920323691
 11
12.5133292438
 21
2.5920323691
  0
ARC
  5
2D4
100
AcDbEntity
  8
0
100
AcDbCircle
 62
2
  6
CONTINUOUS
 10
12.5133291735
 20
2.5895571688
 40
0.0024752003
100
AcDbArc
 50
89.9983726451
 51
147.602165307
  0
LINE
  5
2D5
100
AcDbEntity
  8
0
100
AcDbLine
 62
2
  6
CONTINUOUS
 10
12.5112392426
 20
2.5908833685
 11
12.4644392167
 21
2.5171263276
  0
ARC
  5
2D6
100
AcDbEntity
  8
0
100
AcDbCircle
 62
2
  6
CONTINUOUS
 10
12.4623492858
 20
2.5184525273
 40
0.0024752003
100
AcDbArc
 50
269.9983726451
 51
327.602165307
  0
LINE
  5
2D7
100
AcDbEntity
  8
0
100
AcDbLine
 62
2
  6
CONTINUOUS
 10
12.4623492155
 20
2.515977327
 11
12.4394882028
 21
2.515977327
  0
ARC
  5
2D8
100
AcDbEntity
  8
0
100
AcDbCircle
 62
2
  6
CONTINUOUS
 10
12.439488201
 20
2.5135023274
 40
0.0024749995
100
AcDbArc
 50
89.9999571957
 51
180.0000428043
  0
LINE
  5
2D9
100
AcDbEntity
  8
0
100
AcDbLine
 62
2
  6
CONTINUOUS
 10
12.4370132015
 20
2.5135023256
 11
12.4370132015
 21
2.4937023146
  0
ARC
  5
2DA
100
AcDbEntity
  8
0
100
AcDbCircle
 62
2
  6
CONTINUOUS
 10
12.439488201
 20
2.4937023128
 40
0.0024749995
100
AcDbArc
 50
179.9999571957
 51
270.0000428043
  0
LINE
  5
2DB
100
AcDbEntity
  8
0
100
AcDbLine
 62
2
  6
CONTINUOUS
 10
12.4394882028
 20
2.4912273132
 11
12.5168642458
 21
2.4912273132
  0
ARC
  5
2DC
100
AcDbEntity
  8
0
100
AcDbCircle
 62
2
  6
CONTINUOUS
 10
12.5168642476
 20
2.4937023128
 40
0.0024749995
100
AcDbArc
 50
269.9999571957
 51
0.0000428043
  0
LINE
  5
2DD
100
AcDbEntity
  8
0
100
AcDbLine
 62
2
  6
CONTINUOUS
 10
12.5193392471
 20
2.4937023146
 11
12.5193392471
 21
2.5135023256
  0
ARC
  5
2DE
100
AcDbEntity
  8
0
100
AcDbCircle
 62
2
  6
CONTINUOUS
 10
12.5168642476
 20
2.5135023274
 40
0.0024749995
100
AcDbArc
 50
359.9999571957
 51
90.0000428043
  0
LINE
  5
2DF
100
AcDbEntity
  8
0
100
AcDbLine
 62
2
  6
CONTINUOUS
 10
12.5168642458
 20
2.515977327
 11
12.5055812395
 21
2.515977327
  0
ARC
  5
2E0
100
AcDbEntity
  8
0
100
AcDbCircle
 62
2
  6
CONTINUOUS
 10
12.5055811302
 20
2.518452367
 40
0.0024750401
100
AcDbArc
 50
147.6063258011
 51
270.0025305754
  0
LINE
  5
2E1
100
AcDbEntity
  8
0
100
AcDbLine
 62
2
  6
CONTINUOUS
 10
12.5034912383
 20
2.5197783291
 11
12.5090072414
 21
2.5284723339
  0
ARC
  5
2E2
100
AcDbEntity
  8
0
100
AcDbCircle
 62
2
  6
CONTINUOUS
 10
12.5110971723
 20
2.5271461342
 40
0.0024752003
100
AcDbArc
 50
89.998372645
 51
147.602165307
  0
LINE
  5
2E3
100
AcDbEntity
  8
0
100
AcDbLine
 62
2
  6
CONTINUOUS
 10
12.5110972426
 20
2.5296213345
 11
12.5459752619
 21
2.5296213345
  0
ARC
  5
2E4
100
AcDbEntity
  8
0
100
AcDbCircle
 62
2
  6
CONTINUOUS
 10
12.5459747223
 20
2.5271458744
 40
0.0024754602
100
AcDbArc
 50
32.8959418573
 51
89.9875097202
  0
LINE
  5
2E5
100
AcDbEntity
  8
0
100
AcDbLine
 62
2
  6
CONTINUOUS
 10
12.9205934696
 20
2.5920323691
 11
13.0210515254
 21
2.5920323691
  0
ARC
  5
2E6
100
AcDbEntity
  8
0
100
AcDbCircle
 62
2
  6
CONTINUOUS
 10
13.0210516601
 20
2.5895582013
 40
0.0024741678
100
AcDbArc
 50
46.3477981899
 51
90.0031206038
  0
LINE
  5
2E7
100
AcDbEntity
  8
0
100
AcDbLine
 62
2
  6
CONTINUOUS
 10
13.0227595263
 20
2.5913483688
 11
13.0827925596
 21
2.534068337
  0
ARC
  5
2E8
100
AcDbEntity
  8
0
100
AcDbCircle
 62
2
  6
CONTINUOUS
 10
13.0845012605
 20
2.5358592748
 40
0.0024753014
100
AcDbArc
 50
226.3461263059
 51
0.0014637321
  0
LINE
  5
2E9
100
AcDbEntity
  8
0
100
AcDbLine
 62
2
  6
CONTINUOUS
 10
13.0869765619
 20
2.535859338
 11
13.0869765619
 21
2.564807354
  0
ARC
  5
2EA
100
AcDbEntity
  8
0
100
AcDbCircle
 62
2
  6
CONTINUOUS
 10
13.0845015624
 20
2.5648073559
 40
0.0024749995
100
AcDbArc
 50
359.9999571957
 51
90.0000428043
  0
LINE
  5
2EB
100
AcDbEntity
  8
0
100
AcDbLine
 62
2
  6
CONTINUOUS
 10
13.0845015605
 20
2.5672823554
 11
13.0657255501
 21
2.5672823554
  0
ARC
  5
2EC
100
AcDbEntity
  8
0
100
AcDbCircle
 62
2
  6
CONTINUOUS
 10
13.0657255483
 20
2.5697573549
 40
0.0024749995
100
AcDbArc
 50
179.9999571957
 51
270.0000428043
  0
LINE
  5
2ED
100
AcDbEntity
  8
0
100
AcDbLine
 62
2
  6
CONTINUOUS
 10
13.0632505488
 20
2.5697573568
 11
13.0632505488
 21
2.5895573678
  0
ARC
  5
2EE
100
AcDbEntity
  8
0
100
AcDbCircle
 62
2
  6
CONTINUOUS
 10
13.0657255483
 20
2.5895573696
 40
0.0024749995
100
AcDbArc
 50
89.9999571957
 51
180.0000428043
  0
LINE
  5
2EF
100
AcDbEntity
  8
0
100
AcDbLine
 62
2
  6
CONTINUOUS
 10
13.0657255501
 20
2.5920323691
 11
13.1397265912
 21
2.5920323691
  0
ARC
  5
2F0
100
AcDbEntity
  8
0
100
AcDbCircle
 62
2
  6
CONTINUOUS
 10
13.139726593
 20
2.5895573696
 40
0.0024749995
100
AcDbArc
 50
359.9999571957
 51
90.0000428043
  0
LINE
  5
2F1
100
AcDbEntity
  8
0
100
AcDbLine
 62
2
  6
CONTINUOUS
 10
13.1422015925
 20
2.5895573678
 11
13.1422015925
 21
2.5697573568
  0
ARC
  5
2F2
100
AcDbEntity
  8
0
100
AcDbCircle
 62
2
  6
CONTINUOUS
 10
13.139726593
 20
2.5697573549
 40
0.0024749995
100
AcDbArc
 50
269.9999571957
 51
0.0000428042
  0
LINE
  5
2F3
100
AcDbEntity
  8
0
100
AcDbLine
 62
2
  6
CONTINUOUS
 10
13.1397265912
 20
2.5672823554
 11
13.1217935812
 21
2.5672823554
  0
ARC
  5
2F4
100
AcDbEntity
  8
0
100
AcDbCircle
 62
2
  6
CONTINUOUS
 10
13.1217935794
 20
2.5648073559
 40
0.0024749995
100
AcDbArc
 50
89.9999571957
 51
180.0000428042
  0
LINE
  5
2F5
100
AcDbEntity
  8
0
100
AcDbLine
 62
2
  6
CONTINUOUS
 10
13.1193185799
 20
2.564807354
 11
13.1193185799
 21
2.4937023146
  0
ARC
  5
2F6
100
AcDbEntity
  8
0
100
AcDbCircle
 62
2
  6
CONTINUOUS
 10
13.1168435803
 20
2.4937023128
 40
0.0024749995
100
AcDbArc
 50
269.9999571957
 51
0.0000428043
  0
LINE
  5
2F7
100
AcDbEntity
  8
0
100
AcDbLine
 62
2
  6
CONTINUOUS
 10
13.1168435785
 20
2.4912273132
 11
13.0426375373
 21
2.4912273132
  0
ARC
  5
2F8
100
AcDbEntity
  8
0
100
AcDbCircle
 62
2
  6
CONTINUOUS
 10
13.0426374026
 20
2.493701481
 40
0.0024741678
100
AcDbArc
 50
226.3477981898
 51
270.0031206038
  0
LINE
  5
2F9
100
AcDbEntity
  8
0
100
AcDbLine
 62
2
  6
CONTINUOUS
 10
13.0409295364
 20
2.4919113136
 11
12.9776495013
 21
2.5522893471
  0
ARC
  5
2FA
100
AcDbEntity
  8
0
100
AcDbCircle
 62
2
  6
CONTINUOUS
 10
12.9759408003
 20
2.5504984093
 40
0.0024753014
100
AcDbArc
 50
46.3461263059
 51
180.0014637321
  0
LINE
  5
2FB
100
AcDbEntity
  8
0
100
AcDbLine
 62
2
  6
CONTINUOUS
 10
12.973465499
 20
2.5504983461
 11
12.973465499
 21
2.5184523283
  0
ARC
  5
2FC
100
AcDbEntity
  8
0
100
AcDbCircle
 62
2
  6
CONTINUOUS
 10
12.9759404985
 20
2.5184523265
 40
0.0024749995
100
AcDbArc
 50
179.9999571957
 51
270.0000428043
  0
LINE
  5
2FD
100
AcDbEntity
  8
0
100
AcDbLine
 62
2
  6
CONTINUOUS
 10
12.9759405003
 20
2.515977327
 11
12.9962575116
 21
2.515977327
  0
ARC
  5
2FE
100
AcDbEntity
  8
0
100
AcDbCircle
 62
2
  6
CONTINUOUS
 10
12.9962575135
 20
2.5135023274
 40
0.0024749995
100
AcDbArc
 50
359.9999571957
 51
90.0000428043
  0
LINE
  5
2FF
100
AcDbEntity
  8
0
100
AcDbLine
 62
2
  6
CONTINUOUS
 10
12.998732513
 20
2.5135023256
 11
12.998732513
 21
2.4937023146
  0
ARC
  5
300
100
AcDbEntity
  8
0
100
AcDbCircle
 62
2
  6
CONTINUOUS
 10
12.9962575135
 20
2.4937023128
 40
0.0024749995
100
AcDbArc
 50
269.9999571957
 51
0.0000428043
  0
LINE
  5
301
100
AcDbEntity
  8
0
100
AcDbLine
 62
2
  6
CONTINUOUS
 10
12.9962575116
 20
2.4912273132
 11
12.9205934696
 21
2.4912273132
  0
ARC
  5
302
100
AcDbEntity
  8
0
100
AcDbCircle
 62
2
  6
CONTINUOUS
 10
12.9205934678
 20
2.4937023128
 40
0.0024749995
100
AcDbArc
 50
179.9999571957
 51
270.0000428043
  0
LINE
  5
303
100
AcDbEntity
  8
0
100
AcDbLine
 62
2
  6
CONTINUOUS
 10
12.9181184683
 20
2.4937023146
 11
12.9181184683
 21
2.5135023256
  0
ARC
  5
304
100
AcDbEntity
  8
0
100
AcDbCircle
 62
2
  6
CONTINUOUS
 10
12.9205934678
 20
2.5135023274
 40
0.0024749995
100
AcDbArc
 50
89.9999571957
 51
180.0000428042
  0
LINE
  5
305
100
AcDbEntity
  8
0
100
AcDbLine
 62
2
  6
CONTINUOUS
 10
12.9205934696
 20
2.515977327
 11
12.93923948
 21
2.515977327
  0
ARC
  5
306
100
AcDbEntity
  8
0
100
AcDbCircle
 62
2
  6
CONTINUOUS
 10
12.9392394818
 20
2.5184523265
 40
0.0024749995
100
AcDbArc
 50
269.9999571957
 51
0.0000428043
  0
LINE
  5
307
100
AcDbEntity
  8
0
100
AcDbLine
 62
2
  6
CONTINUOUS
 10
12.9417144814
 20
2.5184523283
 11
12.9417144814
 21
2.564807354
  0
ARC
  5
308
100
AcDbEntity
  8
0
100
AcDbCircle
 62
2
  6
CONTINUOUS
 10
12.9392394818
 20
2.5648073559
 40
0.0024749995
100
AcDbArc
 50
359.9999571957
 51
90.0000428043
  0
LINE
  5
309
100
AcDbEntity
  8
0
100
AcDbLine
 62
2
  6
CONTINUOUS
 10
12.93923948
 20
2.5672823554
 11
12.9205934696
 21
2.5672823554
  0
ARC
  5
30A
100
AcDbEntity
  8
0
100
AcDbCircle
 62
2
  6
CONTINUOUS
 10
12.9205934678
 20
2.5697573549
 40
0.0024749995
100
AcDbArc
 50
179.9999571957
 51
270.0000428043
  0
LINE
  5
30B
100
AcDbEntity
  8
0
100
AcDbLine
 62
2
  6
CONTINUOUS
 10
12.9181184683
 20
2.5697573568
 11
12.9181184683
 21
2.5895573678
  0
ARC
  5
30C
100
AcDbEntity
  8
0
100
AcDbCircle
 62
2
  6
CONTINUOUS
 10
12.9205934678
 20
2.5895573696
 40
0.0024749995
100
AcDbArc
 50
89.9999571957
 51
180.0000428042
  0
LINE
  5
30D
100
AcDbEntity
  8
0
100
AcDbLine
 62
2
  6
CONTINUOUS
 10
13.2934226764
 20
2.5324773361
 11
13.2582556569
 21
2.5324773361
  0
ARC
  5
30E
100
AcDbEntity
  8
0
100
AcDbCircle
 62
2
  6
CONTINUOUS
 10
13.2582556551
 20
2.5300023366
 40
0.0024749995
100
AcDbArc
 50
89.9999571957
 51
180.0000428043
  0
LINE
  5
30F
100
AcDbEntity
  8
0
100
AcDbLine
 62
2
  6
CONTINUOUS
 10
13.2557806555
 20
2.5300023347
 11
13.2557806555
 21
2.5184523283
  0
ARC
  5
310
100
AcDbEntity
  8
0
100
AcDbCircle
 62
2
  6
CONTINUOUS
 10
13.2582556551
 20
2.5184523265
 40
0.0024749995
100
AcDbArc
 50
179.9999571957
 51
270.0000428043
  0
LINE
  5
311
100
AcDbEntity
  8
0
100
AcDbLine
 62
2
  6
CONTINUOUS
 10
13.2582556569
 20
2.515977327
 11
13.3232596929
 21
2.515977327
  0
ARC
  5
312
100
AcDbEntity
  8
0
100
AcDbCircle
 62
2
  6
CONTINUOUS
 10
13.3232596948
 20
2.5184523265
 40
0.0024749995
100
AcDbArc
 50
269.9999571957
 51
0.0000428043
  0
LINE
  5
313
100
AcDbEntity
  8
0
100
AcDbLine
 62
2
  6
CONTINUOUS
 10
13.3257346943
 20
2.5184523283
 11
13.3257346943
 21
2.5267023329
  0
ARC
  5
314
100
AcDbEntity
  8
0
100
AcDbCircle
 62
2
  6
CONTINUOUS
 10
13.3282096938
 20
2.5267023348
 40
0.0024749995
100
AcDbArc
 50
89.9999571957
 51
180.0000428043
  0
LINE
  5
315
100
AcDbEntity
  8
0
100
AcDbLine
 62
2
  6
CONTINUOUS
 10
13.3282096957
 20
2.5291773343
 11
13.3705287192
 21
2.5291773343
  0
ARC
  5
316
100
AcDbEntity
  8
0
100
AcDbCircle
 62
2
  6
CONTINUOUS
 10
13.370528721
 20
2.5267023348
 40
0.0024749995
100
AcDbArc
 50
359.9999571957
 51
90.0000428043
  0
LINE
  5
317
100
AcDbEntity
  8
0
100
AcDbLine
 62
2
  6
CONTINUOUS
 10
13.3730037205
 20
2.5267023329
 11
13.3730037205
 21
2.4937023146
  0
ARC
  5
318
100
AcDbEntity
  8
0
100
AcDbCircle
 62
2
  6
CONTINUOUS
 10
13.370528721
 20
2.4937023128
 40
0.0024749995
100
AcDbArc
 50
269.9999571957
 51
0.0000428043
  0
LINE
  5
319
100
AcDbEntity
  8
0
100
AcDbLine
 62
2
  6
CONTINUOUS
 10
13.3705287192
 20
2.4912273132
 11
13.1673166065
 21
2.4912273132
  0
ARC
  5
31A
100
AcDbEntity
  8
0
100
AcDbCircle
 62
2
  6
CONTINUOUS
 10
13.1673166046
 20
2.4937023128
 40
0.0024749995
100
AcDbArc
 50
179.9999571957
 51
270.0000428043
  0
LINE
  5
31B
100
AcDbEntity
  8
0
100
AcDbLine
 62
2
  6
CONTINUOUS
 10
13.1648416051
 20
2.4937023146
 11
13.1648416051
 21
2.5135023256
  0
ARC
  5
31C
100
AcDbEntity
  8
0
100
AcDbCircle
 62
2
  6
CONTINUOUS
 10
13.1673166046
 20
2.5135023274
 40
0.0024749995
100
AcDbArc
 50
89.9999571957
 51
180.0000428043
  0
LINE
  5
31D
100
AcDbEntity
  8
0
100
AcDbLine
 62
2
  6
CONTINUOUS
 10
13.1673166065
 20
2.515977327
 11
13.1912396197
 21
2.515977327
  0
ARC
  5
31E
100
AcDbEntity
  8
0
100
AcDbCircle
 62
2
  6
CONTINUOUS
 10
13.1912396216
 20
2.5184523265
 40
0.0024749995
100
AcDbArc
 50
269.9999571957
 51
0.0000428042
  0
LINE
  5
31F
100
AcDbEntity
  8
0
100
AcDbLine
 62
2
  6
CONTINUOUS
 10
13.1937146211
 20
2.5184523283
 11
13.1937146211
 21
2.564807354
  0
ARC
  5
320
100
AcDbEntity
  8
0
100
AcDbCircle
 62
2
  6
CONTINUOUS
 10
13.1912396216
 20
2.5648073559
 40
0.0024749995
100
AcDbArc
 50
359.9999571957
 51
90.0000428043
  0
LINE
  5
321
100
AcDbEntity
  8
0
100
AcDbLine
 62
2
  6
CONTINUOUS
 10
13.1912396197
 20
2.5672823554
 11
13.1673166065
 21
2.5672823554
  0
ARC
  5
322
100
AcDbEntity
  8
0
100
AcDbCircle
 62
2
  6
CONTINUOUS
 10
13.1673166046
 20
2.5697573549
 40
0.0024749995
100
AcDbArc
 50
179.9999571957
 51
270.0000428043
  0
LINE
  5
323
100
AcDbEntity
  8
0
100
AcDbLine
 62
2
  6
CONTINUOUS
 10
13.1648416051
 20
2.5697573568
 11
13.1648416051
 21
2.5895573678
  0
ARC
  5
324
100
AcDbEntity
  8
0
100
AcDbCircle
 62
2
  6
CONTINUOUS
 10
13.1673166046
 20
2.5895573696
 40
0.0024749995
100
AcDbArc
 50
89.9999571957
 51
180.0000428043
  0
LINE
  5
325
100
AcDbEntity
  8
0
100
AcDbLine
 62
2
  6
CONTINUOUS
 10
13.1673166065
 20
2.5920323691
 11
13.3691097184
 21
2.5920323691
  0
ARC
  5
326
100
AcDbEntity
  8
0
100
AcDbCircle
 62
2
  6
CONTINUOUS
 10
13.3691097202
 20
2.5895573696
 40
0.0024749995
100
AcDbArc
 50
359.9999571957
 51
90.0000428043
  0
LINE
  5
327
100
AcDbEntity
  8
0
100
AcDbLine
 62
2
  6
CONTINUOUS
 10
13.3715847197
 20
2.5895573678
 11
13.3715847197
 21
2.5565573495
  0
ARC
  5
328
100
AcDbEntity
  8
0
100
AcDbCircle
 62
2
  6
CONTINUOUS
 10
13.3691097202
 20
2.5565573476
 40
0.0024749995
100
AcDbArc
 50
269.9999571957
 51
0.0000428042
  0
LINE
  5
329
100
AcDbEntity
  8
0
100
AcDbLine
 62
2
  6
CONTINUOUS
 10
13.3691097184
 20
2.5540823481
 11
13.3272456952
 21
2.5540823481
  0
ARC
  5
32A
100
AcDbEntity
  8
0
100
AcDbCircle
 62
2
  6
CONTINUOUS
 10
13.3272456933
 20
2.5565573476
 40
0.0024749995
100
AcDbArc
 50
179.9999571957
 51
270.0000428043
  0
LINE
  5
32B
100
AcDbEntity
  8
0
100
AcDbLine
 62
2
  6
CONTINUOUS
 10
13.3247706938
 20
2.5565573495
 11
13.3247706938
 21
2.564807354
  0
ARC
  5
32C
100
AcDbEntity
  8
0
100
AcDbCircle
 62
2
  6
CONTINUOUS
 10
13.3222956943
 20
2.5648073559
 40
0.0024749995
100
AcDbArc
 50
359.9999571957
 51
90.0000428043
  0
LINE
  5
32D
100
AcDbEntity
  8
0
100
AcDbLine
 62
2
  6
CONTINUOUS
 10
13.3222956924
 20
2.5672823554
 11
13.2582556569
 21
2.5672823554
  0
ARC
  5
32E
100
AcDbEntity
  8
0
100
AcDbCircle
 62
2
  6
CONTINUOUS
 10
13.2582556551
 20
2.5648073559
 40
0.0024749995
100
AcDbArc
 50
89.9999571957
 51
180.0000428043
  0
LINE
  5
32F
100
AcDbEntity
  8
0
100
AcDbLine
 62
2
  6
CONTINUOUS
 10
13.2557806555
 20
2.564807354
 11
13.2557806555
 21
2.5532573476
  0
ARC
  5
330
100
AcDbEntity
  8
0
100
AcDbCircle
 62
2
  6
CONTINUOUS
 10
13.2582556551
 20
2.5532573458
 40
0.0024749995
100
AcDbArc
 50
179.9999571957
 51
270.0000428043
  0
LINE
  5
331
100
AcDbEntity
  8
0
100
AcDbLine
 62
2
  6
CONTINUOUS
 10
13.2582556569
 20
2.5507823463
 11
13.2934226764
 21
2.5507823463
  0
ARC
  5
332
100
AcDbEntity
  8
0
100
AcDbCircle
 62
2
  6
CONTINUOUS
 10
13.2934226783
 20
2.5483073467
 40
0.0024749995
100
AcDbArc
 50
359.9999571957
 51
90.0000428043
  0
LINE
  5
333
100
AcDbEntity
  8
0
100
AcDbLine
 62
2
  6
CONTINUOUS
 10
13.2958976778
 20
2.5483073449
 11
13.2958976778
 21
2.5349523375
  0
ARC
  5
334
100
AcDbEntity
  8
0
100
AcDbCircle
 62
2
  6
CONTINUOUS
 10
13.2934226783
 20
2.5349523356
 40
0.0024749995
100
AcDbArc
 50
269.9999571957
 51
0.0000428042
  0
LINE
  5
335
100
AcDbEntity
  8
0
100
AcDbLine
 62
2
  6
CONTINUOUS
 10
13.7286871589
 20
2.5350697372
 11
13.7286871589
 21
2.5456869438
  0
LINE
  5
336
100
AcDbEntity
  8
0
100
AcDbLine
 62
2
  6
CONTINUOUS
 10
13.7086871478
 20
2.5004302075
 11
13.7086871478
 21
2.5803264735
  0
LINE
  5
337
100
AcDbEntity
  8
0
100
AcDbLine
 62
2
  6
CONTINUOUS
 10
13.6886871368
 20
2.4843919416
 11
13.6886871368
 21
2.5963647394
  0
LINE
  5
338
100
AcDbEntity
  8
0
100
AcDbLine
 62
2
  6
CONTINUOUS
 10
13.6686871257
 20
2.4726017898
 11
13.6686871257
 21
2.6081548911
  0
LINE
  5
339
100
AcDbEntity
  8
0
100
AcDbLine
 62
2
  6
CONTINUOUS
 10
13.6486871146
 20
2.4628062688
 11
13.6486871146
 21
2.6179504122
  0
LINE
  5
33A
100
AcDbEntity
  8
0
100
AcDbLine
 62
2
  6
CONTINUOUS
 10
13.6286871035
 20
2.4541253507
 11
13.6286871035
 21
2.5062483056
  0
LINE
  5
33B
100
AcDbEntity
  8
0
100
AcDbLine
 62
2
  6
CONTINUOUS
 10
13.6286871035
 20
2.5301143348
 11
13.6286871035
 21
2.6266313303
  0
LINE
  5
33C
100
AcDbEntity
  8
0
100
AcDbLine
 62
2
  6
CONTINUOUS
 10
13.6086870924
 20
2.4465537903
 11
13.6086870924
 21
2.4918774918
  0
LINE
  5
33D
100
AcDbEntity
  8
0
100
AcDbLine
 62
2
  6
CONTINUOUS
 10
13.6086870924
 20
2.5165781173
 11
13.6086870924
 21
2.6342028907
  0
LINE
  5
33E
100
AcDbEntity
  8
0
100
AcDbLine
 62
2
  6
CONTINUOUS
 10
13.5886870813
 20
2.4398033466
 11
13.5886870813
 21
2.4912273132
  0
LINE
  5
33F
100
AcDbEntity
  8
0
100
AcDbLine
 62
2
  6
CONTINUOUS
 10
13.5886870813
 20
2.5391840845
 11
13.5886870813
 21
2.5454298327
  0
LINE
  5
340
100
AcDbEntity
  8
0
100
AcDbLine
 62
2
  6
CONTINUOUS
 10
13.5886870813
 20
2.5862063472
 11
13.5886870813
 21
2.6409533343
  0
LINE
  5
341
100
AcDbEntity
  8
0
100
AcDbLine
 62
2
  6
CONTINUOUS
 10
13.5686870702
 20
2.4334702189
 11
13.5686870702
 21
2.4912273132
  0
LINE
  5
342
100
AcDbEntity
  8
0
100
AcDbLine
 62
2
  6
CONTINUOUS
 10
13.5686870702
 20
2.5906587765
 11
13.5686870702
 21
2.647286462
  0
LINE
  5
343
100
AcDbEntity
  8
0
100
AcDbLine
 62
2
  6
CONTINUOUS
 10
13.5486870591
 20
2.4278968124
 11
13.5486870591
 21
2.4937461006
  0
LINE
  5
344
100
AcDbEntity
  8
0
100
AcDbLine
 62
2
  6
CONTINUOUS
 10
13.5486870591
 20
2.5920323691
 11
13.5486870591
 21
2.6528598686
  0
LINE
  5
345
100
AcDbEntity
  8
0
100
AcDbLine
 62
2
  6
CONTINUOUS
 10
13.528687048
 20
2.4225427674
 11
13.528687048
 21
2.5270426993
  0
LINE
  5
346
100
AcDbEntity
  8
0
100
AcDbLine
 62
2
  6
CONTINUOUS
 10
13.528687048
 20
2.5505166259
 11
13.528687048
 21
2.5668657091
  0
LINE
  5
347
100
AcDbEntity
  8
0
100
AcDbLine
 62
2
  6
CONTINUOUS
 10
13.528687048
 20
2.5920323691
 11
13.528687048
 21
2.6582139136
  0
LINE
  5
348
100
AcDbEntity
  8
0
100
AcDbLine
 62
2
  6
CONTINUOUS
 10
13.5086870369
 20
2.4177306791
 11
13.5086870369
 21
2.4912273132
  0
LINE
  5
349
100
AcDbEntity
  8
0
100
AcDbLine
 62
2
  6
CONTINUOUS
 10
13.5086870369
 20
2.5159553269
 11
13.5086870369
 21
2.5306043351
  0
LINE
  5
34A
100
AcDbEntity
  8
0
100
AcDbLine
 62
2
  6
CONTINUOUS
 10
13.5086870369
 20
2.5496073456
 11
13.5086870369
 21
2.5672823554
  0
LINE
  5
34B
100
AcDbEntity
  8
0
100
AcDbLine
 62
2
  6
CONTINUOUS
 10
13.5086870369
 20
2.5920323691
 11
13.5086870369
 21
2.6630260019
  0
LINE
  5
34C
100
AcDbEntity
  8
0
100
AcDbLine
 62
2
  6
CONTINUOUS
 10
13.4886870258
 20
2.4131795254
 11
13.4886870258
 21
2.4912273132
  0
LINE
  5
34D
100
AcDbEntity
  8
0
100
AcDbLine
 62
2
  6
CONTINUOUS
 10
13.4886870258
 20
2.5159553269
 11
13.4886870258
 21
2.5306043351
  0
LINE
  5
34E
100
AcDbEntity
  8
0
100
AcDbLine
 62
2
  6
CONTINUOUS
 10
13.4886870258
 20
2.5496073456
 11
13.4886870258
 21
2.5672823554
  0
LINE
  5
34F
100
AcDbEntity
  8
0
100
AcDbLine
 62
2
  6
CONTINUOUS
 10
13.4886870258
 20
2.5920323691
 11
13.4886870258
 21
2.6675771555
  0
LINE
  5
350
100
AcDbEntity
  8
0
100
AcDbLine
 62
2
  6
CONTINUOUS
 10
13.4686870147
 20
2.4088819672
 11
13.4686870147
 21
2.4912273132
  0
LINE
  5
351
100
AcDbEntity
  8
0
100
AcDbLine
 62
2
  6
CONTINUOUS
 10
13.4686870147
 20
2.5920323691
 11
13.4686870147
 21
2.6718747138
  0
LINE
  5
352
100
AcDbEntity
  8
0
100
AcDbLine
 62
2
  6
CONTINUOUS
 10
13.4486870037
 20
2.4050092072
 11
13.4486870037
 21
2.4912273132
  0
LINE
  5
353
100
AcDbEntity
  8
0
100
AcDbLine
 62
2
  6
CONTINUOUS
 10
13.4486870037
 20
2.5920323691
 11
13.4486870037
 21
2.6757474738
  0
LINE
  5
354
100
AcDbEntity
  8
0
100
AcDbLine
 62
2
  6
CONTINUOUS
 10
13.4286869926
 20
2.4011364471
 11
13.4286869926
 21
2.4912273132
  0
LINE
  5
355
100
AcDbEntity
  8
0
100
AcDbLine
 62
2
  6
CONTINUOUS
 10
13.4286869926
 20
2.5920323691
 11
13.4286869926
 21
2.6796202339
  0
LINE
  5
356
100
AcDbEntity
  8
0
100
AcDbLine
 62
2
  6
CONTINUOUS
 10
13.4086869815
 20
2.3980226662
 11
13.4086869815
 21
2.4912273132
  0
LINE
  5
357
100
AcDbEntity
  8
0
100
AcDbLine
 62
2
  6
CONTINUOUS
 10
13.4086869815
 20
2.515977327
 11
13.4086869815
 21
2.5672823554
  0
LINE
  5
358
100
AcDbEntity
  8
0
100
AcDbLine
 62
2
  6
CONTINUOUS
 10
13.4086869815
 20
2.5920323691
 11
13.4086869815
 21
2.6827340148
  0
LINE
  5
359
100
AcDbEntity
  8
0
100
AcDbLine
 62
2
  6
CONTINUOUS
 10
13.3886869704
 20
2.3950052774
 11
13.3886869704
 21
2.6857514036
  0
LINE
  5
35A
100
AcDbEntity
  8
0
100
AcDbLine
 62
2
  6
CONTINUOUS
 10
13.3686869593
 20
2.3919878885
 11
13.3686869593
 21
2.4912273132
  0
LINE
  5
35B
100
AcDbEntity
  8
0
100
AcDbLine
 62
2
  6
CONTINUOUS
 10
13.3686869593
 20
2.5291773343
 11
13.3686869593
 21
2.5540823481
  0
LINE
  5
35C
100
AcDbEntity
  8
0
100
AcDbLine
 62
2
  6
CONTINUOUS
 10
13.3686869593
 20
2.5920323691
 11
13.3686869593
 21
2.6887687924
  0
LINE
  5
35D
100
AcDbEntity
  8
0
100
AcDbLine
 62
2
  6
CONTINUOUS
 10
13.3486869482
 20
2.3889704997
 11
13.3486869482
 21
2.4912273132
  0
LINE
  5
35E
100
AcDbEntity
  8
0
100
AcDbLine
 62
2
  6
CONTINUOUS
 10
13.3486869482
 20
2.5291773343
 11
13.3486869482
 21
2.5540823481
  0
LINE
  5
35F
100
AcDbEntity
  8
0
100
AcDbLine
 62
2
  6
CONTINUOUS
 10
13.3486869482
 20
2.5920323691
 11
13.3486869482
 21
2.6917861813
  0
LINE
  5
360
100
AcDbEntity
  8
0
100
AcDbLine
 62
2
  6
CONTINUOUS
 10
13.3286869371
 20
2.3859531109
 11
13.3286869371
 21
2.4912273132
  0
LINE
  5
361
100
AcDbEntity
  8
0
100
AcDbLine
 62
2
  6
CONTINUOUS
 10
13.3286869371
 20
2.5291773343
 11
13.3286869371
 21
2.5540823481
  0
LINE
  5
362
100
AcDbEntity
  8
0
100
AcDbLine
 62
2
  6
CONTINUOUS
 10
13.3286869371
 20
2.5920323691
 11
13.3286869371
 21
2.6948035701
  0
LINE
  5
363
100
AcDbEntity
  8
0
100
AcDbLine
 62
2
  6
CONTINUOUS
 10
13.308686926
 20
2.3833355437
 11
13.308686926
 21
2.4912273132
  0
LINE
  5
364
100
AcDbEntity
  8
0
100
AcDbLine
 62
2
  6
CONTINUOUS
 10
13.308686926
 20
2.515977327
 11
13.308686926
 21
2.5672823554
  0
LINE
  5
365
100
AcDbEntity
  8
0
100
AcDbLine
 62
2
  6
CONTINUOUS
 10
13.308686926
 20
2.5920323691
 11
13.308686926
 21
2.6974211373
  0
LINE
  5
366
100
AcDbEntity
  8
0
100
AcDbLine
 62
2
  6
CONTINUOUS
 10
13.2886869149
 20
2.3812612684
 11
13.2886869149
 21
2.4912273132
  0
LINE
  5
367
100
AcDbEntity
  8
0
100
AcDbLine
 62
2
  6
CONTINUOUS
 10
13.2886869149
 20
2.515977327
 11
13.2886869149
 21
2.5324773361
  0
LINE
  5
368
100
AcDbEntity
  8
0
100
AcDbLine
 62
2
  6
CONTINUOUS
 10
13.2886869149
 20
2.5507823463
 11
13.2886869149
 21
2.5672823554
  0
LINE
  5
369
100
AcDbEntity
  8
0
100
AcDbLine
 62
2
  6
CONTINUOUS
 10
13.2886869149
 20
2.5920323691
 11
13.2886869149
 21
2.6994954125
  0
LINE
  5
36A
100
AcDbEntity
  8
0
100
AcDbLine
 62
2
  6
CONTINUOUS
 10
13.2686869038
 20
2.3791869932
 11
13.2686869038
 21
2.4912273132
  0
LINE
  5
36B
100
AcDbEntity
  8
0
100
AcDbLine
 62
2
  6
CONTINUOUS
 10
13.2686869038
 20
2.515977327
 11
13.2686869038
 21
2.5324773361
  0
LINE
  5
36C
100
AcDbEntity
  8
0
100
AcDbLine
 62
2
  6
CONTINUOUS
 10
13.2686869038
 20
2.5507823463
 11
13.2686869038
 21
2.5672823554
  0
LINE
  5
36D
100
AcDbEntity
  8
0
100
AcDbLine
 62
2
  6
CONTINUOUS
 10
13.2686869038
 20
2.5920323691
 11
13.2686869038
 21
2.7015696878
  0
LINE
  5
36E
100
AcDbEntity
  8
0
100
AcDbLine
 62
2
  6
CONTINUOUS
 10
13.2486868927
 20
2.377112718
 11
13.2486868927
 21
2.4912273132
  0
LINE
  5
36F
100
AcDbEntity
  8
0
100
AcDbLine
 62
2
  6
CONTINUOUS
 10
13.2486868927
 20
2.5920323691
 11
13.2486868927
 21
2.703643963
  0
LINE
  5
370
100
AcDbEntity
  8
0
100
AcDbLine
 62
2
  6
CONTINUOUS
 10
13.2286868817
 20
2.3750384428
 11
13.2286868817
 21
2.4912273132
  0
LINE
  5
371
100
AcDbEntity
  8
0
100
AcDbLine
 62
2
  6
CONTINUOUS
 10
13.2286868817
 20
2.5920323691
 11
13.2286868817
 21
2.7057182382
  0
LINE
  5
372
100
AcDbEntity
  8
0
100
AcDbLine
 62
2
  6
CONTINUOUS
 10
13.2086868706
 20
2.3729641676
 11
13.2086868706
 21
2.4912273132
  0
LINE
  5
373
100
AcDbEntity
  8
0
100
AcDbLine
 62
2
  6
CONTINUOUS
 10
13.2086868706
 20
2.5920323691
 11
13.2086868706
 21
2.7077925134
  0
LINE
  5
374
100
AcDbEntity
  8
0
100
AcDbLine
 62
2
  6
CONTINUOUS
 10
13.1886868595
 20
2.3712344456
 11
13.1886868595
 21
2.4912273132
  0
LINE
  5
375
100
AcDbEntity
  8
0
100
AcDbLine
 62
2
  6
CONTINUOUS
 10
13.1886868595
 20
2.515977327
 11
13.1886868595
 21
2.5672823554
  0
LINE
  5
376
100
AcDbEntity
  8
0
100
AcDbLine
 62
2
  6
CONTINUOUS
 10
13.1886868595
 20
2.5920323691
 11
13.1886868595
 21
2.7095222354
  0
LINE
  5
377
100
AcDbEntity
  8
0
100
AcDbLine
 62
2
  6
CONTINUOUS
 10
13.1686868484
 20
2.3699682418
 11
13.1686868484
 21
2.4912273132
  0
LINE
  5
378
100
AcDbEntity
  8
0
100
AcDbLine
 62
2
  6
CONTINUOUS
 10
13.1686868484
 20
2.515977327
 11
13.1686868484
 21
2.5672823554
  0
LINE
  5
379
100
AcDbEntity
  8
0
100
AcDbLine
 62
2
  6
CONTINUOUS
 10
13.1686868484
 20
2.5920323691
 11
13.1686868484
 21
2.7107884392
  0
LINE
  5
37A
100
AcDbEntity
  8
0
100
AcDbLine
 62
2
  6
CONTINUOUS
 10
13.1486868373
 20
2.3687020381
 11
13.1486868373
 21
2.7120546429
  0
LINE
  5
37B
100
AcDbEntity
  8
0
100
AcDbLine
 62
2
  6
CONTINUOUS
 10
13.1286868262
 20
2.3674358343
 11
13.1286868262
 21
2.5672823554
  0
LINE
  5
37C
100
AcDbEntity
  8
0
100
AcDbLine
 62
2
  6
CONTINUOUS
 10
13.1286868262
 20
2.5920323691
 11
13.1286868262
 21
2.7133208466
  0
LINE
  5
37D
100
AcDbEntity
  8
0
100
AcDbLine
 62
2
  6
CONTINUOUS
 10
13.1086868151
 20
2.3661696306
 11
13.1086868151
 21
2.4912273132
  0
LINE
  5
37E
100
AcDbEntity
  8
0
100
AcDbLine
 62
2
  6
CONTINUOUS
 10
13.1086868151
 20
2.5920323691
 11
13.1086868151
 21
2.7145870504
  0
LINE
  5
37F
100
AcDbEntity
  8
0
100
AcDbLine
 62
2
  6
CONTINUOUS
 10
13.088686804
 20
2.3649034269
 11
13.088686804
 21
2.4912273132
  0
LINE
  5
380
100
AcDbEntity
  8
0
100
AcDbLine
 62
2
  6
CONTINUOUS
 10
13.088686804
 20
2.5920323691
 11
13.088686804
 21
2.7158532541
  0
LINE
  5
381
100
AcDbEntity
  8
0
100
AcDbLine
 62
2
  6
CONTINUOUS
 10
13.0686867929
 20
2.3636739922
 11
13.0686867929
 21
2.4912273132
  0
LINE
  5
382
100
AcDbEntity
  8
0
100
AcDbLine
 62
2
  6
CONTINUOUS
 10
13.0686867929
 20
2.5475272398
 11
13.0686867929
 21
2.5672823554
  0
LINE
  5
383
100
AcDbEntity
  8
0
100
AcDbLine
 62
2
  6
CONTINUOUS
 10
13.0686867929
 20
2.5920323691
 11
13.0686867929
 21
2.7170826887
  0
LINE
  5
384
100
AcDbEntity
  8
0
100
AcDbLine
 62
2
  6
CONTINUOUS
 10
13.0486867818
 20
2.363143203
 11
13.0486867818
 21
2.4912273132
  0
LINE
  5
385
100
AcDbEntity
  8
0
100
AcDbLine
 62
2
  6
CONTINUOUS
 10
13.0486867818
 20
2.5666100882
 11
13.0486867818
 21
2.717613478
  0
LINE
  5
386
100
AcDbEntity
  8
0
100
AcDbLine
 62
2
  6
CONTINUOUS
 10
13.0286867707
 20
2.3626124138
 11
13.0286867707
 21
2.50359263
  0
LINE
  5
387
100
AcDbEntity
  8
0
100
AcDbLine
 62
2
  6
CONTINUOUS
 10
13.0286867707
 20
2.5856929366
 11
13.0286867707
 21
2.7181442672
  0
LINE
  5
388
100
AcDbEntity
  8
0
100
AcDbLine
 62
2
  6
CONTINUOUS
 10
13.0086867596
 20
2.3620816246
 11
13.0086867596
 21
2.5226754472
  0
LINE
  5
389
100
AcDbEntity
  8
0
100
AcDbLine
 62
2
  6
CONTINUOUS
 10
13.0086867596
 20
2.5920323691
 11
13.0086867596
 21
2.7186750564
  0
LINE
  5
38A
100
AcDbEntity
  8
0
100
AcDbLine
 62
2
  6
CONTINUOUS
 10
12.9886867486
 20
2.3615508354
 11
12.9886867486
 21
2.4912273132
  0
LINE
  5
38B
100
AcDbEntity
  8
0
100
AcDbLine
 62
2
  6
CONTINUOUS
 10
12.9886867486
 20
2.515977327
 11
12.9886867486
 21
2.5417582644
  0
LINE
  5
38C
100
AcDbEntity
  8
0
100
AcDbLine
 62
2
  6
CONTINUOUS
 10
12.9886867486
 20
2.5920323691
 11
12.9886867486
 21
2.7192058456
  0
LINE
  5
38D
100
AcDbEntity
  8
0
100
AcDbLine
 62
2
  6
CONTINUOUS
 10
12.9686867375
 20
2.3610200462
 11
12.9686867375
 21
2.4912273132
  0
LINE
  5
38E
100
AcDbEntity
  8
0
100
AcDbLine
 62
2
  6
CONTINUOUS
 10
12.9686867375
 20
2.5920323691
 11
12.9686867375
 21
2.7197366348
  0
LINE
  5
38F
100
AcDbEntity
  8
0
100
AcDbLine
 62
2
  6
CONTINUOUS
 10
12.9486867264
 20
2.360489257
 11
12.9486867264
 21
2.4912273132
  0
LINE
  5
390
100
AcDbEntity
  8
0
100
AcDbLine
 62
2
  6
CONTINUOUS
 10
12.9486867264
 20
2.5920323691
 11
12.9486867264
 21
2.720267424
  0
LINE
  5
391
100
AcDbEntity
  8
0
100
AcDbLine
 62
2
  6
CONTINUOUS
 10
12.9286867153
 20
2.3602836008
 11
12.9286867153
 21
2.4912273132
  0
LINE
  5
392
100
AcDbEntity
  8
0
100
AcDbLine
 62
2
  6
CONTINUOUS
 10
12.9286867153
 20
2.515977327
 11
12.9286867153
 21
2.5672823554
  0
LINE
  5
393
100
AcDbEntity
  8
0
100
AcDbLine
 62
2
  6
CONTINUOUS
 10
12.9286867153
 20
2.5920323691
 11
12.9286867153
 21
2.7204730802
  0
LINE
  5
394
100
AcDbEntity
  8
0
100
AcDbLine
 62
2
  6
CONTINUOUS
 10
12.9086867042
 20
2.3604597639
 11
12.9086867042
 21
2.7202969171
  0
LINE
  5
395
100
AcDbEntity
  8
0
100
AcDbLine
 62
2
  6
CONTINUOUS
 10
12.8886866931
 20
2.360635927
 11
12.8886866931
 21
2.5672823554
  0
LINE
  5
396
100
AcDbEntity
  8
0
100
AcDbLine
 62
2
  6
CONTINUOUS
 10
12.8886866931
 20
2.5920323691
 11
12.8886866931
 21
2.720120754
  0
LINE
  5
397
100
AcDbEntity
  8
0
100
AcDbLine
 62
2
  6
CONTINUOUS
 10
12.868686682
 20
2.3608120901
 11
12.868686682
 21
2.491232357
  0
LINE
  5
398
100
AcDbEntity
  8
0
100
AcDbLine
 62
2
  6
CONTINUOUS
 10
12.868686682
 20
2.5920323691
 11
12.868686682
 21
2.7199445909
  0
LINE
  5
399
100
AcDbEntity
  8
0
100
AcDbLine
 62
2
  6
CONTINUOUS
 10
12.8486866709
 20
2.3609882532
 11
12.8486866709
 21
2.4912273132
  0
LINE
  5
39A
100
AcDbEntity
  8
0
100
AcDbLine
 62
2
  6
CONTINUOUS
 10
12.8486866709
 20
2.5920323691
 11
12.8486866709
 21
2.7197684278
  0
LINE
  5
39B
100
AcDbEntity
  8
0
100
AcDbLine
 62
2
  6
CONTINUOUS
 10
12.8286866598
 20
2.3611644163
 11
12.8286866598
 21
2.4912273132
  0
LINE
  5
39C
100
AcDbEntity
  8
0
100
AcDbLine
 62
2
  6
CONTINUOUS
 10
12.8286866598
 20
2.5396527025
 11
12.8286866598
 21
2.5672823554
  0
LINE
  5
39D
100
AcDbEntity
  8
0
100
AcDbLine
 62
2
  6
CONTINUOUS
 10
12.8286866598
 20
2.5920323691
 11
12.8286866598
 21
2.7195922647
  0
LINE
  5
39E
100
AcDbEntity
  8
0
100
AcDbLine
 62
2
  6
CONTINUOUS
 10
12.8086866487
 20
2.3613405794
 11
12.8086866487
 21
2.4912273132
  0
LINE
  5
39F
100
AcDbEntity
  8
0
100
AcDbLine
 62
2
  6
CONTINUOUS
 10
12.8086866487
 20
2.5587355508
 11
12.8086866487
 21
2.7194161016
  0
LINE
  5
3A0
100
AcDbEntity
  8
0
100
AcDbLine
 62
2
  6
CONTINUOUS
 10
12.7886866376
 20
2.3621089572
 11
12.7886866376
 21
2.4957181055
  0
LINE
  5
3A1
100
AcDbEntity
  8
0
100
AcDbLine
 62
2
  6
CONTINUOUS
 10
12.7886866376
 20
2.5778183992
 11
12.7886866376
 21
2.7186477238
  0
LINE
  5
3A2
100
AcDbEntity
  8
0
100
AcDbLine
 62
2
  6
CONTINUOUS
 10
12.7686866266
 20
2.3630013935
 11
12.7686866266
 21
2.5148009227
  0
LINE
  5
3A3
100
AcDbEntity
  8
0
100
AcDbLine
 62
2
  6
CONTINUOUS
 10
12.7686866266
 20
2.5920323691
 11
12.7686866266
 21
2.7177552874
  0
LINE
  5
3A4
100
AcDbEntity
  8
0
100
AcDbLine
 62
2
  6
CONTINUOUS
 10
12.7486866155
 20
2.3638938299
 11
12.7486866155
 21
2.4913263218
  0
LINE
  5
3A5
100
AcDbEntity
  8
0
100
AcDbLine
 62
2
  6
CONTINUOUS
 10
12.7486866155
 20
2.5158783184
 11
12.7486866155
 21
2.5338837399
  0
LINE
  5
3A6
100
AcDbEntity
  8
0
100
AcDbLine
 62
2
  6
CONTINUOUS
 10
12.7486866155
 20
2.5920323691
 11
12.7486866155
 21
2.7168628511
  0
LINE
  5
3A7
100
AcDbEntity
  8
0
100
AcDbLine
 62
2
  6
CONTINUOUS
 10
12.7286866044
 20
2.3647862663
 11
12.7286866044
 21
2.4912273132
  0
LINE
  5
3A8
100
AcDbEntity
  8
0
100
AcDbLine
 62
2
  6
CONTINUOUS
 10
12.7286866044
 20
2.515977327
 11
12.7286866044
 21
2.5527601554
  0
LINE
  5
3A9
100
AcDbEntity
  8
0
100
AcDbLine
 62
2
  6
CONTINUOUS
 10
12.7286866044
 20
2.5920323691
 11
12.7286866044
 21
2.7159704147
  0
LINE
  5
3AA
100
AcDbEntity
  8
0
100
AcDbLine
 62
2
  6
CONTINUOUS
 10
12.7086865933
 20
2.3656787026
 11
12.7086865933
 21
2.4912273132
  0
LINE
  5
3AB
100
AcDbEntity
  8
0
100
AcDbLine
 62
2
  6
CONTINUOUS
 10
12.7086865933
 20
2.5920323691
 11
12.7086865933
 21
2.7150779784
  0
LINE
  5
3AC
100
AcDbEntity
  8
0
100
AcDbLine
 62
2
  6
CONTINUOUS
 10
12.6886865822
 20
2.366571139
 11
12.6886865822
 21
2.4912273132
  0
LINE
  5
3AD
100
AcDbEntity
  8
0
100
AcDbLine
 62
2
  6
CONTINUOUS
 10
12.6886865822
 20
2.515977327
 11
12.6886865822
 21
2.5672823554
  0
LINE
  5
3AE
100
AcDbEntity
  8
0
100
AcDbLine
 62
2
  6
CONTINUOUS
 10
12.6886865822
 20
2.5920323691
 11
12.6886865822
 21
2.714185542
  0
LINE
  5
3AF
100
AcDbEntity
  8
0
100
AcDbLine
 62
2
  6
CONTINUOUS
 10
12.6686865711
 20
2.3677104027
 11
12.6686865711
 21
2.7130462783
  0
LINE
  5
3B0
100
AcDbEntity
  8
0
100
AcDbLine
 62
2
  6
CONTINUOUS
 10
12.64868656
 20
2.3693682721
 11
12.64868656
 21
2.7113884089
  0
LINE
  5
3B1
100
AcDbEntity
  8
0
100
AcDbLine
 62
2
  6
CONTINUOUS
 10
12.6286865489
 20
2.3710261415
 11
12.6286865489
 21
2.4912273132
  0
LINE
  5
3B2
100
AcDbEntity
  8
0
100
AcDbLine
 62
2
  6
CONTINUOUS
 10
12.6286865489
 20
2.515977327
 11
12.6286865489
 21
2.7097305395
  0
LINE
  5
3B3
100
AcDbEntity
  8
0
100
AcDbLine
 62
2
  6
CONTINUOUS
 10
12.6086865378
 20
2.372684011
 11
12.6086865378
 21
2.4912273132
  0
LINE
  5
3B4
100
AcDbEntity
  8
0
100
AcDbLine
 62
2
  6
CONTINUOUS
 10
12.6086865378
 20
2.5351122279
 11
12.6086865378
 21
2.70807267
  0
LINE
  5
3B5
100
AcDbEntity
  8
0
100
AcDbLine
 62
2
  6
CONTINUOUS
 10
12.5886865267
 20
2.3743418804
 11
12.5886865267
 21
2.4912273132
  0
LINE
  5
3B6
100
AcDbEntity
  8
0
100
AcDbLine
 62
2
  6
CONTINUOUS
 10
12.5886865267
 20
2.5660172622
 11
12.5886865267
 21
2.7064148006
  0
LINE
  5
3B7
100
AcDbEntity
  8
0
100
AcDbLine
 62
2
  6
CONTINUOUS
 10
12.5686865156
 20
2.3759997498
 11
12.5686865156
 21
2.4912273132
  0
LINE
  5
3B8
100
AcDbEntity
  8
0
100
AcDbLine
 62
2
  6
CONTINUOUS
 10
12.5686865156
 20
2.5920323691
 11
12.5686865156
 21
2.7047569312
  0
LINE
  5
3B9
100
AcDbEntity
  8
0
100
AcDbLine
 62
2
  6
CONTINUOUS
 10
12.5486865045
 20
2.3777575277
 11
12.5486865045
 21
2.4912273132
  0
LINE
  5
3BA
100
AcDbEntity
  8
0
100
AcDbLine
 62
2
  6
CONTINUOUS
 10
12.5486865045
 20
2.515977327
 11
12.5486865045
 21
2.5275118824
  0
LINE
  5
3BB
100
AcDbEntity
  8
0
100
AcDbLine
 62
2
  6
CONTINUOUS
 10
12.5486865045
 20
2.5920323691
 11
12.5486865045
 21
2.7029991533
  0
LINE
  5
3BC
100
AcDbEntity
  8
0
100
AcDbLine
 62
2
  6
CONTINUOUS
 10
12.5286864935
 20
2.3802813811
 11
12.5286864935
 21
2.5296213345
  0
LINE
  5
3BD
100
AcDbEntity
  8
0
100
AcDbLine
 62
2
  6
CONTINUOUS
 10
12.5286864935
 20
2.5505713461
 11
12.5286864935
 21
2.5667383551
  0
LINE
  5
3BE
100
AcDbEntity
  8
0
100
AcDbLine
 62
2
  6
CONTINUOUS
 10
12.5286864935
 20
2.5920323691
 11
12.5286864935
 21
2.7004752999
  0
LINE
  5
3BF
100
AcDbEntity
  8
0
100
AcDbLine
 62
2
  6
CONTINUOUS
 10
12.5086864824
 20
2.3828052346
 11
12.5086864824
 21
2.4912273132
  0
LINE
  5
3C0
100
AcDbEntity
  8
0
100
AcDbLine
 62
2
  6
CONTINUOUS
 10
12.5086864824
 20
2.515977327
 11
12.5086864824
 21
2.5279667721
  0
LINE
  5
3C1
100
AcDbEntity
  8
0
100
AcDbLine
 62
2
  6
CONTINUOUS
 10
12.5086864824
 20
2.5868602074
 11
12.5086864824
 21
2.6979514464
  0
LINE
  5
3C2
100
AcDbEntity
  8
0
100
AcDbLine
 62
2
  6
CONTINUOUS
 10
12.4886864713
 20
2.385329088
 11
12.4886864713
 21
2.4912273132
  0
LINE
  5
3C3
100
AcDbEntity
  8
0
100
AcDbLine
 62
2
  6
CONTINUOUS
 10
12.4886864713
 20
2.5553401045
 11
12.4886864713
 21
2.695427593
  0
LINE
  5
3C4
100
AcDbEntity
  8
0
100
AcDbLine
 62
2
  6
CONTINUOUS
 10
12.4686864602
 20
2.3878529415
 11
12.4686864602
 21
2.4912273132
  0
LINE
  5
3C5
100
AcDbEntity
  8
0
100
AcDbLine
 62
2
  6
CONTINUOUS
 10
12.4686864602
 20
2.5238200015
 11
12.4686864602
 21
2.6929037395
  0
LINE
  5
3C6
100
AcDbEntity
  8
0
100
AcDbLine
 62
2
  6
CONTINUOUS
 10
12.4486864491
 20
2.390376795
 11
12.4486864491
 21
2.4912273132
  0
LINE
  5
3C7
100
AcDbEntity
  8
0
100
AcDbLine
 62
2
  6
CONTINUOUS
 10
12.4486864491
 20
2.515977327
 11
12.4486864491
 21
2.690379886
  0
LINE
  5
3C8
100
AcDbEntity
  8
0
100
AcDbLine
 62
2
  6
CONTINUOUS
 10
12.428686438
 20
2.3931794042
 11
12.428686438
 21
2.6875772768
  0
LINE
  5
3C9
100
AcDbEntity
  8
0
100
AcDbLine
 62
2
  6
CONTINUOUS
 10
12.4086864269
 20
2.3964643301
 11
12.4086864269
 21
2.5013773986
  0
LINE
  5
3CA
100
AcDbEntity
  8
0
100
AcDbLine
 62
2
  6
CONTINUOUS
 10
12.4086864269
 20
2.5325739971
 11
12.4086864269
 21
2.5537224311
  0
LINE
  5
3CB
100
AcDbEntity
  8
0
100
AcDbLine
 62
2
  6
CONTINUOUS
 10
12.4086864269
 20
2.5791473398
 11
12.4086864269
 21
2.6842923509
  0
LINE
  5
3CC
100
AcDbEntity
  8
0
100
AcDbLine
 62
2
  6
CONTINUOUS
 10
12.3886864158
 20
2.399749256
 11
12.3886864158
 21
2.4921022658
  0
LINE
  5
3CD
100
AcDbEntity
  8
0
100
AcDbLine
 62
2
  6
CONTINUOUS
 10
12.3886864158
 20
2.5895929958
 11
12.3886864158
 21
2.681007425
  0
LINE
  5
3CE
100
AcDbEntity
  8
0
100
AcDbLine
 62
2
  6
CONTINUOUS
 10
12.3686864047
 20
2.403451877
 11
12.3686864047
 21
2.4912273132
  0
LINE
  5
3CF
100
AcDbEntity
  8
0
100
AcDbLine
 62
2
  6
CONTINUOUS
 10
12.3686864047
 20
2.5920323691
 11
12.3686864047
 21
2.677304804
  0
LINE
  5
3D0
100
AcDbEntity
  8
0
100
AcDbLine
 62
2
  6
CONTINUOUS
 10
12.3486863936
 20
2.407324637
 11
12.3486863936
 21
2.4912273132
  0
LINE
  5
3D1
100
AcDbEntity
  8
0
100
AcDbLine
 62
2
  6
CONTINUOUS
 10
12.3486863936
 20
2.5920323691
 11
12.3486863936
 21
2.673432044
  0
LINE
  5
3D2
100
AcDbEntity
  8
0
100
AcDbLine
 62
2
  6
CONTINUOUS
 10
12.3286863825
 20
2.4113493968
 11
12.3286863825
 21
2.4912273132
  0
LINE
  5
3D3
100
AcDbEntity
  8
0
100
AcDbLine
 62
2
  6
CONTINUOUS
 10
12.3286863825
 20
2.515977327
 11
12.3286863825
 21
2.5333023366
  0
LINE
  5
3D4
100
AcDbEntity
  8
0
100
AcDbLine
 62
2
  6
CONTINUOUS
 10
12.3286863825
 20
2.5499573458
 11
12.3286863825
 21
2.5672823554
  0
LINE
  5
3D5
100
AcDbEntity
  8
0
100
AcDbLine
 62
2
  6
CONTINUOUS
 10
12.3286863825
 20
2.5920323691
 11
12.3286863825
 21
2.6694072842
  0
LINE
  5
3D6
100
AcDbEntity
  8
0
100
AcDbLine
 62
2
  6
CONTINUOUS
 10
12.3086863715
 20
2.4159005505
 11
12.3086863715
 21
2.4912273132
  0
LINE
  5
3D7
100
AcDbEntity
  8
0
100
AcDbLine
 62
2
  6
CONTINUOUS
 10
12.3086863715
 20
2.515977327
 11
12.3086863715
 21
2.5333023366
  0
LINE
  5
3D8
100
AcDbEntity
  8
0
100
AcDbLine
 62
2
  6
CONTINUOUS
 10
12.3086863715
 20
2.5499573458
 11
12.3086863715
 21
2.5672823554
  0
LINE
  5
3D9
100
AcDbEntity
  8
0
100
AcDbLine
 62
2
  6
CONTINUOUS
 10
12.3086863715
 20
2.5920323691
 11
12.3086863715
 21
2.6648561305
  0
LINE
  5
3DA
100
AcDbEntity
  8
0
100
AcDbLine
 62
2
  6
CONTINUOUS
 10
12.2886863604
 20
2.4204517041
 11
12.2886863604
 21
2.4912273132
  0
LINE
  5
3DB
100
AcDbEntity
  8
0
100
AcDbLine
 62
2
  6
CONTINUOUS
 10
12.2886863604
 20
2.5920323691
 11
12.2886863604
 21
2.6603049769
  0
LINE
  5
3DC
100
AcDbEntity
  8
0
100
AcDbLine
 62
2
  6
CONTINUOUS
 10
12.2686863493
 20
2.4257438218
 11
12.2686863493
 21
2.4912273132
  0
LINE
  5
3DD
100
AcDbEntity
  8
0
100
AcDbLine
 62
2
  6
CONTINUOUS
 10
12.2686863493
 20
2.5920323691
 11
12.2686863493
 21
2.6550128592
  0
LINE
  5
3DE
100
AcDbEntity
  8
0
100
AcDbLine
 62
2
  6
CONTINUOUS
 10
12.2486863382
 20
2.4310978667
 11
12.2486863382
 21
2.4912273132
  0
LINE
  5
3DF
100
AcDbEntity
  8
0
100
AcDbLine
 62
2
  6
CONTINUOUS
 10
12.2486863382
 20
2.5920323691
 11
12.2486863382
 21
2.6496588142
  0
LINE
  5
3E0
100
AcDbEntity
  8
0
100
AcDbLine
 62
2
  6
CONTINUOUS
 10
12.2286863271
 20
2.4372566433
 11
12.2286863271
 21
2.4912273132
  0
LINE
  5
3E1
100
AcDbEntity
  8
0
100
AcDbLine
 62
2
  6
CONTINUOUS
 10
12.2286863271
 20
2.515977327
 11
12.2286863271
 21
2.5672823554
  0
LINE
  5
3E2
100
AcDbEntity
  8
0
100
AcDbLine
 62
2
  6
CONTINUOUS
 10
12.2286863271
 20
2.5920323691
 11
12.2286863271
 21
2.6435000377
  0
LINE
  5
3E3
100
AcDbEntity
  8
0
100
AcDbLine
 62
2
  6
CONTINUOUS
 10
12.208686316
 20
2.443589771
 11
12.208686316
 21
2.4912273132
  0
LINE
  5
3E4
100
AcDbEntity
  8
0
100
AcDbLine
 62
2
  6
CONTINUOUS
 10
12.208686316
 20
2.515977327
 11
12.208686316
 21
2.5672823554
  0
LINE
  5
3E5
100
AcDbEntity
  8
0
100
AcDbLine
 62
2
  6
CONTINUOUS
 10
12.208686316
 20
2.5920323691
 11
12.208686316
 21
2.63716691
  0
LINE
  5
3E6
100
AcDbEntity
  8
0
100
AcDbLine
 62
2
  6
CONTINUOUS
 10
12.1886863049
 20
2.4510806436
 11
12.1886863049
 21
2.6296760373
  0
LINE
  5
3E7
100
AcDbEntity
  8
0
100
AcDbLine
 62
2
  6
CONTINUOUS
 10
12.1686862938
 20
2.4591016523
 11
12.1686862938
 21
2.6216550287
  0
LINE
  5
3E8
100
AcDbEntity
  8
0
100
AcDbLine
 62
2
  6
CONTINUOUS
 10
12.1486862827
 20
2.468314272
 11
12.1486862827
 21
2.612442409
  0
LINE
  5
3E9
100
AcDbEntity
  8
0
100
AcDbLine
 62
2
  6
CONTINUOUS
 10
12.1286862716
 20
2.4794932339
 11
12.1286862716
 21
2.601263447
  0
LINE
  5
3EA
100
AcDbEntity
  8
0
100
AcDbLine
 62
2
  6
CONTINUOUS
 10
12.1086862605
 20
2.4934150665
 11
12.1086862605
 21
2.5873416144
  0
LINE
  5
3EB
100
AcDbEntity
  8
0
100
AcDbLine
 62
2
  6
CONTINUOUS
 10
12.0886862494
 20
2.5144449553
 11
12.0886862494
 21
2.5663117257
  0
ENDBLK
  5
3EC
100
AcDbEntity
  8
0
  6
BYBLOCK
 62
0
100
AcDbBlockEnd
  0
BLOCK
  5
3ED
100
AcDbEntity
  8
0
100
AcDbBlockBegin
  2
_FILLED
 70
64
 10
0.0
 20
0.0
  3
_FILLED
  1

  0
SOLID
  5
3EE
100
AcDbEntity
  8
0
  6
BYBLOCK
 62
0
100
AcDbTrace
 10
0.0
 20
0.0
 11
-1.0
 21
0.1666666667
 12
-1.0
 22
-0.1666666667
 13
-1.0
 23
-0.1666666667
  0
ENDBLK
  5
3EF
100
AcDbEntity
  8
0
  6
BYBLOCK
 62
0
100
AcDbBlockEnd
  0
BLOCK
  5
3F0
100
AcDbEntity
  8
SCHEME_DIMS
100
AcDbBlockBegin
 62
2
  6
CONTINUOUS
  2
*D0
 70
65
 10
0.0
 20
0.0
  3
*D0
  1

  0
MTEXT
  5
3F1
100
AcDbEntity
  8
SCHEME_DIMS
100
AcDbMText
 62
2
  6
CONTINUOUS
  7
TEXTSTYLE_5
 71
1
 72
1
 10
5.5263343779
 20
6.7816077938
 30
0.0
 11
1.0
 21
0.0
 31
0.0
 44
0.9
  1
{\Fgdt;n}\Ftxt;50\P[1.95]
 40
0.1
 41
0.6
  0
LINE
  5
3F2
100
AcDbEntity
  8
SCHEME_DIMS
100
AcDbLine
 62
2
  6
CONTINUOUS
 10
4.9247562176
 20
7.100983253
 11
5.2763343779
 21
6.7316077938
  0
LINE
  5
3F3
100
AcDbEntity
  8
SCHEME_DIMS
100
AcDbLine
 62
2
  6
CONTINUOUS
 10
5.2763343779
 20
6.7316077938
 11
5.4263343779
 21
6.7316077938
  0
INSERT
  5
3F4
100
AcDbEntity
  8
SCHEME_DIMS
100
AcDbBlockReference
 62
2
  6
CONTINUOUS
  2
_FILLED
 10
4.9247562176
 20
7.100983253
 41
0.1875
 42
0.1875
 43
0.1875
 50
133.585896474
  0
ENDBLK
  5
3F5
100
AcDbEntity
  8
0
  6
BYBLOCK
 62
0
100
AcDbBlockEnd
  0
BLOCK
  5
3F6
100
AcDbEntity
  8
SCHEME_DIMS
100
AcDbBlockBegin
 62
2
  6
CONTINUOUS
  2
*D1
 70
65
 10
0.0
 20
0.0
  3
*D1
  1

  0
MTEXT
  5
3F7
100
AcDbEntity
  8
SCHEME_DIMS
100
AcDbMText
 62
2
  6
CONTINUOUS
  7
STANDARD
 71
2
 72
1
 10
1.4125484096
 20
4.1282723507
 30
0.0
 11
1.0
 21
0.0
 31
0.0
 44
0.9
  1
47,5\P[1.87]
 40
0.1
 41
0.6
  0
LINE
  5
3F8
100
AcDbEntity
  8
SCHEME_DIMS
100
AcDbLine
 62
2
  6
CONTINUOUS
 10
3.2290772131
 20
4.9352625777
 11
1.3875484096
 21
4.9352625777
  0
LINE
  5
3F9
100
AcDbEntity
  8
SCHEME_DIMS
100
AcDbLine
 62
2
  6
CONTINUOUS
 10
3.9655405005
 20
3.0651838375
 11
1.3875484096
 21
3.0651838375
  0
LINE
  5
3FA
100
AcDbEntity
  8
SCHEME_DIMS
100
AcDbLine
 62
2
  6
CONTINUOUS
 10
1.5125484096
 20
4.9352625777
 11
1.5125484096
 21
4.2282723507
  0
LINE
  5
3FB
100
AcDbEntity
  8
SCHEME_DIMS
100
AcDbLine
 62
2
  6
CONTINUOUS
 10
1.5125484096
 20
3.0651838375
 11
1.5125484096
 21
3.7782723507
  0
INSERT
  5
3FC
100
AcDbEntity
  8
SCHEME_DIMS
100
AcDbBlockReference
 62
2
  6
CONTINUOUS
  2
_FILLED
 10
1.5125484096
 20
4.9352625777
 41
0.1875
 42
0.1875
 43
0.1875
 50
90.0
  0
INSERT
  5
3FD
100
AcDbEntity
  8
SCHEME_DIMS
100
AcDbBlockReference
 62
2
  6
CONTINUOUS
  2
_FILLED
 10
1.5125484096
 20
3.0651838375
 41
0.1875
 42
0.1875
 43
0.1875
 50
270.0
  0
ENDBLK
  5
3FE
100
AcDbEntity
  8
0
  6
BYBLOCK
 62
0
100
AcDbBlockEnd
  0
BLOCK
  5
3FF
100
AcDbEntity
  8
SCHEME_DIMS
100
AcDbBlockBegin
 62
2
  6
CONTINUOUS
  2
*D2
 70
65
 10
0.0
 20
0.0
  3
*D2
  1

  0
MTEXT
  5
400
100
AcDbEntity
  8
SCHEME_DIMS
100
AcDbMText
 62
2
  6
CONTINUOUS
  7
STANDARD
 71
2
 72
1
 10
2.0833152936
 20
4.3448077838
 30
0.0
 11
1.0
 21
0.0
 31
0.0
 44
0.9
  1
36,5\P[1.44]
 40
0.1
 41
0.6
  0
LINE
  5
401
100
AcDbEntity
  8
SCHEME_DIMS
100
AcDbLine
 62
2
  6
CONTINUOUS
 10
3.6786471101
 20
3.4982547036
 11
2.0583152936
 21
3.4982547036
  0
LINE
  5
402
100
AcDbEntity
  8
SCHEME_DIMS
100
AcDbLine
 62
2
  6
CONTINUOUS
 10
3.2751038034
 20
4.9352625777
 11
2.0583152936
 21
4.9352625777
  0
LINE
  5
403
100
AcDbEntity
  8
SCHEME_DIMS
100
AcDbLine
 62
2
  6
CONTINUOUS
 10
2.1833152936
 20
3.4982547036
 11
2.1833152936
 21
3.9948077838
  0
LINE
  5
404
100
AcDbEntity
  8
SCHEME_DIMS
100
AcDbLine
 62
2
  6
CONTINUOUS
 10
2.1833152936
 20
4.9352625777
 11
2.1833152936
 21
4.4448077838
  0
INSERT
  5
405
100
AcDbEntity
  8
SCHEME_DIMS
100
AcDbBlockReference
 62
2
  6
CONTINUOUS
  2
_FILLED
 10
2.1833152936
 20
3.4982547036
 41
0.1875
 42
0.1875
 43
0.1875
 50
270.0
  0
INSERT
  5
406
100
AcDbEntity
  8
SCHEME_DIMS
100
AcDbBlockReference
 62
2
  6
CONTINUOUS
  2
_FILLED
 10
2.1833152936
 20
4.9352625777
 41
0.1875
 42
0.1875
 43
0.1875
 50
90.0
  0
ENDBLK
  5
407
100
AcDbEntity
  8
0
  6
BYBLOCK
 62
0
100
AcDbBlockEnd
  0
BLOCK
  5
408
100
AcDbEntity
  8
SCHEME_DIMS
100
AcDbBlockBegin
 62
2
  6
CONTINUOUS
  2
*D3
 70
65
 10
0.0
 20
0.0
  3
*D3
  1

  0
MTEXT
  5
409
100
AcDbEntity
  8
SCHEME_DIMS
100
AcDbMText
 62
2
  6
CONTINUOUS
  7
STANDARD
 71
2
 72
1
 10
2.7187061697
 20
4.7354594281
 30
0.0
 11
1.0
 21
0.0
 31
0.0
 44
0.9
  1
16,5\P[.65]
 40
0.1
 41
0.5
  0
LINE
  5
40A
100
AcDbEntity
  8
SCHEME_DIMS
100
AcDbLine
 62
2
  6
CONTINUOUS
 10
3.2455762533
 20
4.2856562784
 11
2.6437061697
 21
4.2856562784
  0
LINE
  5
40B
100
AcDbEntity
  8
SCHEME_DIMS
100
AcDbLine
 62
2
  6
CONTINUOUS
 10
3.2751038034
 20
4.9352625777
 11
2.6437061697
 21
4.9352625777
  0
LINE
  5
40C
100
AcDbEntity
  8
SCHEME_DIMS
100
AcDbLine
 62
2
  6
CONTINUOUS
 10
2.7687061697
 20
4.2856562784
 11
2.7687061697
 21
3.8856562784
  0
LINE
  5
40D
100
AcDbEntity
  8
SCHEME_DIMS
100
AcDbLine
 62
2
  6
CONTINUOUS
 10
2.7687061697
 20
4.9352625777
 11
2.7687061697
 21
5.3352625777
  0
INSERT
  5
40E
100
AcDbEntity
  8
SCHEME_DIMS
100
AcDbBlockReference
 62
2
  6
CONTINUOUS
  2
_FILLED
 10
2.7687061697
 20
4.2856562784
 41
0.1875
 42
0.1875
 43
0.1875
 50
90.0
  0
INSERT
  5
40F
100
AcDbEntity
  8
SCHEME_DIMS
100
AcDbBlockReference
 62
2
  6
CONTINUOUS
  2
_FILLED
 10
2.7687061697
 20
4.9352625777
 41
0.1875
 42
0.1875
 43
0.1875
 50
270.0
  0
ENDBLK
  5
410
100
AcDbEntity
  8
0
  6
BYBLOCK
 62
0
100
AcDbBlockEnd
  0
ENDSEC
  0
SECTION
  2
ENTITIES
  0
MTEXT
  5
411
100
AcDbEntity
  8
0
100
AcDbMText
 62
2
  6
CONTINUOUS
  7
TEXTSTYLE_2
 71
2
 72
1
 10
11.0287658475
 20
1.794867839
 30
0.0
 11
1.0
 21
0.0
 31
0.0
 44
0.9
  1
THIRD ANGLE PROJECTION
 40
0.1
 41
1.76
  0
MTEXT
  5
412
100
AcDbEntity
  8
0
100
AcDbMText
 62
2
  6
CONTINUOUS
  7
STANDARD
 71
1
 72
1
 10
12.88
 20
1.457
 30
0.0
 11
1.0
 21
0.0
 31
0.0
 44
0.9
  1
DRAWING NO.
 40
0.08
 41
0.88
  0
MTEXT
  5
413
100
AcDbEntity
  8
0
100
AcDbMText
 62
2
  6
CONTINUOUS
  7
TEXTSTYLE_3
 71
2
 72
1
 10
11.03
 20
2.516432
 30
0.0
 11
1.0
 21
0.0
 31
0.0
 44
0.9
  1
and is proprietary in general
 40
0.08
 41
1.972
  0
MTEXT
  5
414
100
AcDbEntity
  8
0
100
AcDbMText
 62
2
  6
CONTINUOUS
  7
TEXTSTYLE_3
 71
2
 72
1
 10
11.03
 20
2.396432
 30
0.0
 11
1.0
 21
0.0
 31
0.0
 44
0.9
  1
and in detail.  Its contents
 40
0.08
 41
1.904
  0
MTEXT
  5
415
100
AcDbEntity
  8
0
100
AcDbMText
 62
2
  6
CONTINUOUS
  7
TEXTSTYLE_3
 71
2
 72
1
 10
11.03
 20
2.276432
 30
0.0
 11
1.0
 21
0.0
 31
0.0
 44
0.9
  1
shall not be revealed to
 40
0.08
 41
1.632
  0
MTEXT
  5
416
100
AcDbEntity
  8
0
100
AcDbMText
 62
2
  6
CONTINUOUS
  7
TEXTSTYLE_3
 71
2
 72
1
 10
11.03
 20
2.156432
 30
0.0
 11
1.0
 21
0.0
 31
0.0
 44
0.9
  1
outside parties without
 40
0.08
 41
1.564
  0
MTEXT
  5
417
100
AcDbEntity
  8
0
100
AcDbMText
 62
2
  6
CONTINUOUS
  7
TEXTSTYLE_3
 71
2
 72
1
 10
11.03
 20
2.036432
 30
0.0
 11
1.0
 21
0.0
 31
0.0
 44
0.9
  1
written consent of BANNER.
 40
0.08
 41
1.768
  0
MTEXT
  5
418
100
AcDbEntity
  8
0
100
AcDbMText
 62
2
  6
CONTINUOUS
  7
TEXTSTYLE_2
 71
1
 72
1
 10
12.08
 20
2.217
 30
0.0
 11
1.0
 21
0.0
 31
0.0
 44
0.9
  1
TITLE
 40
0.1
 41
0.4
  0
MTEXT
  5
419
100
AcDbEntity
  8
0
100
AcDbMText
 62
2
  6
CONTINUOUS
  7
STANDARD
 71
1
 72
1
 10
12.08
 20
1.457
 30
0.0
 11
1.0
 21
0.0
 31
0.0
 44
0.9
  1
SIZE
 40
0.08
 41
0.32
  0
MTEXT
  5
41A
100
AcDbEntity
  8
0
100
AcDbMText
 62
2
  6
CONTINUOUS
  7
STANDARD
 71
1
 72
1
 10
12.08
 20
1.087
 30
0.0
 11
1.0
 21
0.0
 31
0.0
 44
0.9
  1
SCALE
 40
0.08
 41
0.4
  0
MTEXT
  5
41B
100
AcDbEntity
  8
0
100
AcDbMText
 62
2
  6
CONTINUOUS
  7
TEXTSTYLE_2
 71
2
 72
1
 10
12.5
 20
1.337
 30
0.0
 11
1.0
 21
0.0
 31
0.0
 44
0.9
  1
B
 40
0.1
 41
0.08
  0
MTEXT
  5
41C
100
AcDbEntity
  8
0
100
AcDbMText
 62
2
  6
CONTINUOUS
  7
TEXTSTYLE_3
 71
2
 72
1
 10
11.03
 20
2.636432
 30
0.0
 11
1.0
 21
0.0
 31
0.0
 44
0.9
  1
of BANNER ENGINEERING CORP.
 40
0.08
 41
1.836
  0
MTEXT
  5
41D
100
AcDbEntity
  8
0
100
AcDbMText
 62
2
  6
CONTINUOUS
  7
TEXTSTYLE_3
 71
2
 72
1
 10
11.03
 20
2.756432
 30
0.0
 11
1.0
 21
0.0
 31
0.0
 44
0.9
  1
This drawing is the property
 40
0.08
 41
1.904
  0
MTEXT
  5
41E
100
AcDbEntity
  8
0
100
AcDbMText
 62
2
  6
CONTINUOUS
  7
TEXTSTYLE_2
 71
2
 72
1
 10
15.03
 20
2.4134
 30
0.0
 11
1.0
 21
0.0
 31
0.0
 44
0.9
  1
MINNEAPOLIS, MN 55440
 40
0.1
 41
1.68
  0
MTEXT
  5
41F
100
AcDbEntity
  8
0
100
AcDbMText
 62
2
  6
CONTINUOUS
  7
STANDARD
 71
1
 72
1
 10
14.255
 20
1.087
 30
0.0
 11
1.0
 21
0.0
 31
0.0
 44
0.9
  1
SHEET
 40
0.08
 41
0.4
  0
MTEXT
  5
420
100
AcDbEntity
  8
0
100
AcDbMText
 62
2
  6
CONTINUOUS
  7
STANDARD
 71
1
 72
1
 10
15.63
 20
1.457
 30
0.0
 11
1.0
 21
0.0
 31
0.0
 44
0.9
  1
REV.
 40
0.08
 41
0.32
  0
MTEXT
  5
421
100
AcDbEntity
  8
0
100
AcDbMText
 62
2
  6
CONTINUOUS
  7
STANDARD
 71
3
 72
1
 10
16.38
 20
0.835443
 30
0.0
 11
1.0
 21
0.0
 31
0.0
 44
0.9
  1
PRO/E
 40
0.07
 41
0.35
  0
MTEXT
  5
422
100
AcDbEntity
  8
0
100
AcDbMText
 62
2
  6
CONTINUOUS
  7
TEXTSTYLE_4
 71
2
 72
1
 10
15.03
 20
2.751049
 30
0.0
 11
1.0
 21
0.0
 31
0.0
 44
0.9
  1
BANNER ENGINEERING CORP.
 40
0.12
 41
2.6496
  0
MTEXT
  5
423
100
AcDbEntity
  8
0
100
AcDbMText
 62
2
  6
CONTINUOUS
  7
TEXTSTYLE_2
 71
2
 72
1
 10
15.03
 20
2.5724
 30
0.0
 11
1.0
 21
0.0
 31
0.0
 44
0.9
  1
P.O. BOX 9414
 40
0.1
 41
1.04
  0
MTEXT
  5
424
100
AcDbEntity
  8
0
100
AcDbMText
 62
2
  6
CONTINUOUS
  7
TEXTSTYLE_2
 71
2
 72
1
 10
9.485
 20
10.312
 30
0.0
 11
1.0
 21
0.0
 31
0.0
 44
0.9
  1
4
 40
0.1
 41
0.08
  0
MTEXT
  5
425
100
AcDbEntity
  8
0
100
AcDbMText
 62
2
  6
CONTINUOUS
  7
TEXTSTYLE_2
 71
2
 72
1
 10
11.455
 20
10.312
 30
0.0
 11
1.0
 21
0.0
 31
0.0
 44
0.9
  1
3
 40
0.1
 41
0.08
  0
MTEXT
  5
426
100
AcDbEntity
  8
0
100
AcDbMText
 62
2
  6
CONTINUOUS
  7
TEXTSTYLE_2
 71
2
 72
1
 10
13.425
 20
10.312
 30
0.0
 11
1.0
 21
0.0
 31
0.0
 44
0.9
  1
2
 40
0.1
 41
0.08
  0
MTEXT
  5
427
100
AcDbEntity
  8
0
100
AcDbMText
 62
2
  6
CONTINUOUS
  7
TEXTSTYLE_2
 71
2
 72
1
 10
15.395
 20
10.312
 30
0.0
 11
1.0
 21
0.0
 31
0.0
 44
0.9
  1
1
 40
0.1
 41
0.08
  0
MTEXT
  5
428
100
AcDbEntity
  8
0
100
AcDbMText
 62
2
  6
CONTINUOUS
  7
TEXTSTYLE_2
 71
2
 72
1
 10
3.575
 20
10.312
 30
0.0
 11
1.0
 21
0.0
 31
0.0
 44
0.9
  1
7
 40
0.1
 41
0.08
  0
MTEXT
  5
429
100
AcDbEntity
  8
0
100
AcDbMText
 62
2
  6
CONTINUOUS
  7
TEXTSTYLE_2
 71
2
 72
1
 10
5.545
 20
10.312
 30
0.0
 11
1.0
 21
0.0
 31
0.0
 44
0.9
  1
6
 40
0.1
 41
0.08
  0
MTEXT
  5
42A
100
AcDbEntity
  8
0
100
AcDbMText
 62
2
  6
CONTINUOUS
  7
TEXTSTYLE_2
 71
2
 72
1
 10
7.515
 20
10.312
 30
0.0
 11
1.0
 21
0.0
 31
0.0
 44
0.9
  1
5
 40
0.1
 41
0.08
  0
MTEXT
  5
42B
100
AcDbEntity
  8
0
100
AcDbMText
 62
2
  6
CONTINUOUS
  7
TEXTSTYLE_2
 71
2
 72
1
 10
1.605
 20
10.312
 30
0.0
 11
1.0
 21
0.0
 31
0.0
 44
0.9
  1
8
 40
0.1
 41
0.08
  0
MTEXT
  5
42C
100
AcDbEntity
  8
0
100
AcDbMText
 62
2
  6
CONTINUOUS
  7
TEXTSTYLE_2
 71
2
 72
1
 10
1.605
 20
0.787
 30
0.0
 11
1.0
 21
0.0
 31
0.0
 44
0.9
  1
8
 40
0.1
 41
0.08
  0
MTEXT
  5
42D
100
AcDbEntity
  8
0
100
AcDbMText
 62
2
  6
CONTINUOUS
  7
TEXTSTYLE_2
 71
2
 72
1
 10
3.575
 20
0.787
 30
0.0
 11
1.0
 21
0.0
 31
0.0
 44
0.9
  1
7
 40
0.1
 41
0.08
  0
MTEXT
  5
42E
100
AcDbEntity
  8
0
100
AcDbMText
 62
2
  6
CONTINUOUS
  7
TEXTSTYLE_2
 71
2
 72
1
 10
5.545
 20
0.787
 30
0.0
 11
1.0
 21
0.0
 31
0.0
 44
0.9
  1
6
 40
0.1
 41
0.08
  0
MTEXT
  5
42F
100
AcDbEntity
  8
0
100
AcDbMText
 62
2
  6
CONTINUOUS
  7
TEXTSTYLE_2
 71
2
 72
1
 10
7.515
 20
0.787
 30
0.0
 11
1.0
 21
0.0
 31
0.0
 44
0.9
  1
5
 40
0.1
 41
0.08
  0
MTEXT
  5
430
100
AcDbEntity
  8
0
100
AcDbMText
 62
2
  6
CONTINUOUS
  7
TEXTSTYLE_2
 71
2
 72
1
 10
9.485
 20
0.787
 30
0.0
 11
1.0
 21
0.0
 31
0.0
 44
0.9
  1
4
 40
0.1
 41
0.08
  0
MTEXT
  5
431
100
AcDbEntity
  8
0
100
AcDbMText
 62
2
  6
CONTINUOUS
  7
TEXTSTYLE_2
 71
2
 72
1
 10
11.455
 20
0.787
 30
0.0
 11
1.0
 21
0.0
 31
0.0
 44
0.9
  1
3
 40
0.1
 41
0.08
  0
MTEXT
  5
432
100
AcDbEntity
  8
0
100
AcDbMText
 62
2
  6
CONTINUOUS
  7
TEXTSTYLE_2
 71
2
 72
1
 10
13.425
 20
0.787
 30
0.0
 11
1.0
 21
0.0
 31
0.0
 44
0.9
  1
2
 40
0.1
 41
0.08
  0
MTEXT
  5
433
100
AcDbEntity
  8
0
100
AcDbMText
 62
2
  6
CONTINUOUS
  7
TEXTSTYLE_2
 71
2
 72
1
 10
15.395
 20
0.787
 30
0.0
 11
1.0
 21
0.0
 31
0.0
 44
0.9
  1
1
 40
0.1
 41
0.08
  0
MTEXT
  5
434
100
AcDbEntity
  8
0
100
AcDbMText
 62
2
  6
CONTINUOUS
  7
TEXTSTYLE_2
 71
3
 72
1
 10
0.52
 20
4.3995
 30
0.0
 11
1.0
 21
0.0
 31
0.0
 44
0.9
  1
B
 40
0.1
 41
0.08
  0
MTEXT
  5
435
100
AcDbEntity
  8
0
100
AcDbMText
 62
2
  6
CONTINUOUS
  7
TEXTSTYLE_2
 71
3
 72
1
 10
0.52
 20
2.0995
 30
0.0
 11
1.0
 21
0.0
 31
0.0
 44
0.9
  1
A
 40
0.1
 41
0.08
  0
MTEXT
  5
436
100
AcDbEntity
  8
0
100
AcDbMText
 62
2
  6
CONTINUOUS
  7
TEXTSTYLE_2
 71
3
 72
1
 10
0.52
 20
8.9995
 30
0.0
 11
1.0
 21
0.0
 31
0.0
 44
0.9
  1
D
 40
0.1
 41
0.08
  0
MTEXT
  5
437
100
AcDbEntity
  8
0
100
AcDbMText
 62
2
  6
CONTINUOUS
  7
TEXTSTYLE_2
 71
3
 72
1
 10
0.52
 20
6.6995
 30
0.0
 11
1.0
 21
0.0
 31
0.0
 44
0.9
  1
C
 40
0.1
 41
0.08
  0
MTEXT
  5
438
100
AcDbEntity
  8
0
100
AcDbMText
 62
2
  6
CONTINUOUS
  7
TEXTSTYLE_2
 71
1
 72
1
 10
16.48
 20
8.9995
 30
0.0
 11
1.0
 21
0.0
 31
0.0
 44
0.9
  1
D
 40
0.1
 41
0.08
  0
MTEXT
  5
439
100
AcDbEntity
  8
0
100
AcDbMText
 62
2
  6
CONTINUOUS
  7
TEXTSTYLE_2
 71
1
 72
1
 10
16.48
 20
6.6995
 30
0.0
 11
1.0
 21
0.0
 31
0.0
 44
0.9
  1
C
 40
0.1
 41
0.08
  0
MTEXT
  5
43A
100
AcDbEntity
  8
0
100
AcDbMText
 62
2
  6
CONTINUOUS
  7
TEXTSTYLE_2
 71
1
 72
1
 10
16.48
 20
4.3995
 30
0.0
 11
1.0
 21
0.0
 31
0.0
 44
0.9
  1
B
 40
0.1
 41
0.08
  0
MTEXT
  5
43B
100
AcDbEntity
  8
0
100
AcDbMText
 62
2
  6
CONTINUOUS
  7
TEXTSTYLE_2
 71
1
 72
1
 10
16.48
 20
2.0995
 30
0.0
 11
1.0
 21
0.0
 31
0.0
 44
0.9
  1
A
 40
0.1
 41
0.08
  0
MTEXT
  5
43C
100
AcDbEntity
  8
0
100
AcDbMText
 62
2
  6
CONTINUOUS
  7
STANDARD
 71
1
 72
1
 10
14.819264911
 20
1.0627941725
 30
0.0
 11
1.0
 21
0.0
 31
0.0
 44
0.9
  1
1 OF 1
 40
0.1
 41
0.6
  0
MTEXT
  5
43D
100
AcDbEntity
  8
0
100
AcDbMText
 62
7
  6
CONTINUOUS
  7
STANDARD
 71
1
 72
1
 10
13.8911999818
 20
1.3747321586
 30
0.0
 11
1.0
 21
0.0
 31
0.0
 44
0.9
  1
151343
 40
0.12
 41
0.72
  0
MTEXT
  5
43E
100
AcDbEntity
  8
0
100
AcDbMText
 62
2
  6
CONTINUOUS
  7
STANDARD
 71
1
 72
1
 10
12.644264911
 20
1.0627941725
 30
0.0
 11
1.0
 21
0.0
 31
0.0
 44
0.9
  1
1:1
 40
0.1
 41
0.3
  0
MTEXT
  5
43F
100
AcDbEntity
  8
0
100
AcDbMText
 62
2
  6
CONTINUOUS
  7
STANDARD
 71
1
 72
1
 10
1.0597007627
 20
1.6202922458
 30
0.0
 11
1.0
 21
0.0
 31
0.0
 44
0.9
  1
NOTES:\P1. ALL DIMENSIONS ARE MILLIMETERS [INCHES] UNLESS OTHERWISE NOTED.
 40
0.1
 41
6.6
  0
INSERT
  5
440
100
AcDbEntity
  8
0
100
AcDbBlockReference
 62
2
  6
CONTINUOUS
  2
BANNER_LOGO_TITLEBLOCK_BL0
 10
12.9086867042
 20
2.5403783405
  0
DIMENSION
  5
441
100
AcDbEntity
  8
SCHEME_DIMS
100
AcDbDimension
 62
2
  6
CONTINUOUS
  2
*D0
 10
4.9247562176
 20
7.100983253
 11
5.8930010446
 21
6.6566077938
 70
163
 71
1
 42
49.5
  1
<>
  3
DIMSTYLE_1
100
AcDbDiametricDimension
 15
3.58116005
 25
8.5125938347
  0
DIMENSION
  5
442
100
AcDbEntity
  8
SCHEME_DIMS
100
AcDbDimension
 62
2
  6
CONTINUOUS
  2
*D1
 10
1.5125484096
 20
3.0651838375
 11
1.3875484096
 21
4.0032723507
 70
160
 71
2
 42
47.5
  3
DIMSTYLE_2
100
AcDbAlignedDimension
 13
3.2290772131
 23
4.9352625777
 14
3.9655405005
 24
3.0651838375
 50
270.0
100
AcDbRotatedDimension
  0
DIMENSION
  5
443
100
AcDbEntity
  8
SCHEME_DIMS
100
AcDbDimension
 62
2
  6
CONTINUOUS
  2
*D2
 10
2.1833152936
 20
4.9352625777
 11
2.0583152936
 21
4.2198077838
 70
160
 71
2
 42
36.5
  3
DIMSTYLE_2
100
AcDbAlignedDimension
 13
3.6786471101
 23
3.4982547036
 14
3.2751038034
 24
4.9352625777
 50
90.0
100
AcDbRotatedDimension
  0
DIMENSION
  5
444
100
AcDbEntity
  8
SCHEME_DIMS
100
AcDbDimension
 62
2
  6
CONTINUOUS
  2
*D3
 10
2.7687061697
 20
4.9352625777
 11
2.6437061697
 21
4.6104594281
 70
160
 71
2
 42
16.5
  3
DIMSTYLE_2
100
AcDbAlignedDimension
 13
3.2455762533
 23
4.2856562784
 14
3.2751038034
 24
4.9352625777
 50
90.0
100
AcDbRotatedDimension
  0
LINE
  5
445
100
AcDbEntity
  8
0
100
AcDbLine
 62
2
  6
CONTINUOUS
 10
16.38
 20
0.887
 11
12.03
 21
0.887
  0
LINE
  5
446
100
AcDbEntity
  8
0
100
AcDbLine
 62
2
  6
CONTINUOUS
 10
16.38
 20
0.887
 11
16.38
 21
2.807
  0
LINE
  5
447
100
AcDbEntity
  8
0
100
AcDbLine
 62
2
  6
CONTINUOUS
 10
16.38
 20
2.807
 11
12.03
 21
2.807
  0
LINE
  5
448
100
AcDbEntity
  8
0
100
AcDbLine
 62
2
  6
CONTINUOUS
 10
12.03
 20
0.887
 11
12.03
 21
2.807
  0
MTEXT
  5
449
100
AcDbEntity
  8
NOTES
100
AcDbMText
 62
7
  6
CONTINUOUS
  7
STANDARD
 71
2
 72
1
 10
16.155
 20
1.367
 30
0.0
 11
1.0
 21
0.0
 31
0.0
 44
0.9
  1
A
 40
0.1
 41
0.1
  0
MTEXT
  5
44A
100
AcDbEntity
  8
NOTES
100
AcDbMText
 62
7
  6
CONTINUOUS
  7
STANDARD
 71
2
 72
1
 10
14.205
 20
1.967
 30
0.0
 11
1.0
 21
0.0
 31
0.0
 44
0.9
  1
WL50 QD\PWEB CAD DRAWINGS 2D/3D
 40
0.1
 41
2.2
  0
LEADER
  5
44B
100
AcDbEntity
  8
NOTES
100
AcDbLeader
 62
2
  6
CONTINUOUS
  3
STANDARD
 71
1
 72
0
 73
0
 75
0
 40
0.1
 41
1.2
 76
3
 10
4.8377724381
 20
3.675913915
 30
0.0
 10
5.5977030105
 20
4.0749028788
 30
0.0
 10
5.8477030105
 20
4.0749028788
 30
0.0
340
44C
1001
ACAD
1000
DSTYLE
1002
{
1070
77
1070
0
1002
}
  0
MTEXT
  5
44C
102
{ACAD_REACTORS
330
44B
102
}
100
AcDbEntity
  8
NOTES
100
AcDbMText
 62
2
  6
CONTINUOUS
  7
STANDARD
 71
1
 72
1
 10
5.8477030105
 20
4.1249028788
 30
0.0
 11
1.0
 21
0.0
 31
0.0
 44
0.9
  1
M30 X 1.5-6g
 40
0.1
 41
1.2
  0
LEADER
  5
44D
100
AcDbEntity
  8
NOTES
100
AcDbLeader
 62
2
  6
CONTINUOUS
  3
STANDARD
 71
1
 72
0
 73
0
 75
0
 40
0.1
 41
1.1
 76
3
 10
4.6342264977
 20
3.5106644444
 30
0.0
 10
5.5935847425
 20
3.0430891904
 30
0.0
 10
5.8435847425
 20
3.0430891904
 30
0.0
340
44E
1001
ACAD
1000
DSTYLE
1002
{
1070
77
1070
0
1002
}
  0
MTEXT
  5
44E
102
{ACAD_REACTORS
330
44D
102
}
100
AcDbEntity
  8
NOTES
100
AcDbMText
 62
2
  6
CONTINUOUS
  7
STANDARD
 71
1
 72
1
 10
5.8435847425
 20
3.0930891904
 30
0.0
 11
1.0
 21
0.0
 31
0.0
 44
0.9
  1
1/2-14 NPSM
 40
0.1
 41
1.1
  0
LEADER
  5
44F
100
AcDbEntity
  8
NOTES
100
AcDbLeader
 62
2
  6
CONTINUOUS
  3
STANDARD
 71
1
 72
0
 73
0
 75
0
 40
0.1
 41
1.0
 76
3
 10
4.4911760222
 20
3.1501287603
 30
0.0
 10
5.6113170215
 20
2.533171289
 30
0.0
 10
5.8613170215
 20
2.533171289
 30
0.0
340
450
1001
ACAD
1000
DSTYLE
1002
{
1070
77
1070
0
1002
}
  0
MTEXT
  5
450
102
{ACAD_REACTORS
330
44F
102
}
100
AcDbEntity
  8
NOTES
100
AcDbMText
 62
2
  6
CONTINUOUS
  7
STANDARD
 71
1
 72
1
 10
5.8613170215
 20
2.583171289
 30
0.0
 11
1.0
 21
0.0
 31
0.0
 44
0.9
  1
M12 X 1-6g
 40
0.1
 41
1.0
  0
MTEXT
  5
451
100
AcDbEntity
  8
NOTES
100
AcDbMText
 62
2
  6
CONTINUOUS
  7
STANDARD
 71
2
 72
1
 10
13.6918603297
 20
4.1613703175
 30
0.0
 11
1.0
 21
0.0
 31
0.0
 44
0.9
  1
ISOMETRIC VIEW\P\H0.1;SCALE  1:1
 40
0.12
 41
1.68
  0
INSERT
  5
452
100
AcDbEntity
  8
SYMBOLS
100
AcDbBlockReference
 62
2
  6
CONTINUOUS
  2
CL_BL1
 10
5.4731917011
 20
7.8146573804
  0
INSERT
  5
453
100
AcDbEntity
  8
SYMBOLS
100
AcDbBlockReference
 62
2
  6
CONTINUOUS
  2
CL_BL2
 10
4.2873282095
 20
6.5950384924
  0
INSERT
  5
454
100
AcDbEntity
  8
SYMBOLS
100
AcDbBlockReference
 62
2
  6
CONTINUOUS
  2
CL_BL3
 10
4.2830831882
 20
2.8246248763
  0
LINE
  5
455
100
AcDbEntity
  8
0
100
AcDbLine
 62
2
  6
CONTINUOUS
 10
0.47
 20
5.586103
 11
0.47
 21
5.412897
  0
LINE
  5
456
100
AcDbEntity
  8
0
100
AcDbLine
 62
2
  6
CONTINUOUS
 10
0.62
 20
10.112
 11
0.62
 21
0.887
  0
LINE
  5
457
100
AcDbEntity
  8
0
100
AcDbLine
 62
2
  6
CONTINUOUS
 10
2.59
 20
0.887
 11
2.59
 21
0.637
  0
LINE
  5
458
100
AcDbEntity
  8
0
100
AcDbLine
 62
2
  6
CONTINUOUS
 10
2.59
 20
10.112
 11
2.59
 21
10.362
  0
LINE
  5
459
100
AcDbEntity
  8
0
100
AcDbLine
 62
2
  6
CONTINUOUS
 10
8.413397
 20
0.737
 11
8.586603
 21
0.737
  0
LINE
  5
45A
100
AcDbEntity
  8
0
100
AcDbLine
 62
7
  6
CONTINUOUS
 10
11.1389508475
 20
1.425992839
 11
11.7453418475
 21
1.495385839
  0
LINE
  5
45B
100
AcDbEntity
  8
0
100
AcDbLine
 62
2
  6
CONTINUOUS
 10
0.62
 20
0.887
 11
16.38
 21
0.887
  0
LINE
  5
45C
100
AcDbEntity
  8
0
100
AcDbLine
 62
2
  6
CONTINUOUS
 10
12.03
 20
1.137
 11
16.38
 21
1.137
  0
LINE
  5
45D
100
AcDbEntity
  8
0
100
AcDbLine
 62
7
  6
CONTINUOUS
 10
10.2121898475
 20
1.243294839
 11
10.4342808475
 21
1.243294839
  0
LINE
  5
45E
100
AcDbEntity
  8
0
100
AcDbLine
 62
7
  6
CONTINUOUS
 10
10.4842808475
 20
1.243294839
 11
10.5842808475
 21
1.243294839
  0
LINE
  5
45F
100
AcDbEntity
  8
0
100
AcDbLine
 62
7
  6
CONTINUOUS
 10
10.6342808475
 20
1.243294839
 11
10.8563718475
 21
1.243294839
  0
LINE
  5
460
100
AcDbEntity
  8
0
100
AcDbLine
 62
7
  6
CONTINUOUS
 10
11.0389508475
 20
1.243294839
 11
11.3171028475
 21
1.243294839
  0
LINE
  5
461
100
AcDbEntity
  8
0
100
AcDbLine
 62
7
  6
CONTINUOUS
 10
11.3671028475
 20
1.243294839
 11
11.5171888475
 21
1.243294839
  0
LINE
  5
462
100
AcDbEntity
  8
0
100
AcDbLine
 62
7
  6
CONTINUOUS
 10
11.5671888475
 20
1.243294839
 11
11.8453418475
 21
1.243294839
  0
LINE
  5
463
100
AcDbEntity
  8
0
100
AcDbLine
 62
7
  6
CONTINUOUS
 10
11.7453418475
 20
0.991203839
 11
11.1389508475
 21
1.060596839
  0
LINE
  5
464
100
AcDbEntity
  8
0
100
AcDbLine
 62
2
  6
CONTINUOUS
 10
4.56
 20
0.887
 11
4.56
 21
0.637
  0
LINE
  5
465
100
AcDbEntity
  8
0
100
AcDbLine
 62
2
  6
CONTINUOUS
 10
4.56
 20
10.112
 11
4.56
 21
10.362
  0
LINE
  5
466
100
AcDbEntity
  8
0
100
AcDbLine
 62
2
  6
CONTINUOUS
 10
0.47
 20
5.412897
 11
0.62
 21
5.4995
  0
LINE
  5
467
100
AcDbEntity
  8
0
100
AcDbLine
 62
2
  6
CONTINUOUS
 10
12.03
 20
1.507
 11
16.38
 21
1.507
  0
LINE
  5
468
100
AcDbEntity
  8
0
100
AcDbLine
 62
2
  6
CONTINUOUS
 10
10.03
 20
1.907
 11
12.03
 21
1.907
  0
LINE
  5
469
100
AcDbEntity
  8
0
100
AcDbLine
 62
2
  6
CONTINUOUS
 10
0.62
 20
5.4995
 11
0.47
 21
5.586103
  0
LINE
  5
46A
100
AcDbEntity
  8
0
100
AcDbLine
 62
2
  6
CONTINUOUS
 10
12.03
 20
2.267
 11
16.38
 21
2.267
  0
LINE
  5
46B
100
AcDbEntity
  8
0
100
AcDbLine
 62
2
  6
CONTINUOUS
 10
8.5
 20
10.112
 11
8.586603
 21
10.262
  0
LINE
  5
46C
100
AcDbEntity
  8
0
100
AcDbLine
 62
2
  6
CONTINUOUS
 10
16.38
 20
2.807
 11
10.03
 21
2.807
  0
LINE
  5
46D
100
AcDbEntity
  8
0
100
AcDbLine
 62
2
  6
CONTINUOUS
 10
0.62
 20
3.1995
 11
0.37
 21
3.1995
  0
LINE
  5
46E
100
AcDbEntity
  8
0
100
AcDbLine
 62
2
  6
CONTINUOUS
 10
16.38
 20
3.1995
 11
16.63
 21
3.1995
  0
LINE
  5
46F
100
AcDbEntity
  8
0
100
AcDbLine
 62
2
  6
CONTINUOUS
 10
8.586603
 20
0.737
 11
8.5
 21
0.887
  0
LINE
  5
470
100
AcDbEntity
  8
0
100
AcDbLine
 62
2
  6
CONTINUOUS
 10
6.53
 20
0.887
 11
6.53
 21
0.637
  0
LINE
  5
471
100
AcDbEntity
  8
0
100
AcDbLine
 62
2
  6
CONTINUOUS
 10
6.53
 20
10.112
 11
6.53
 21
10.362
  0
LINE
  5
472
100
AcDbEntity
  8
0
100
AcDbLine
 62
2
  6
CONTINUOUS
 10
8.5
 20
0.887
 11
8.5
 21
0.637
  0
LINE
  5
473
100
AcDbEntity
  8
0
100
AcDbLine
 62
2
  6
CONTINUOUS
 10
8.5
 20
10.112
 11
8.5
 21
10.362
  0
LINE
  5
474
100
AcDbEntity
  8
0
100
AcDbLine
 62
2
  6
CONTINUOUS
 10
0.62
 20
5.4995
 11
0.37
 21
5.4995
  0
LINE
  5
475
100
AcDbEntity
  8
0
100
AcDbLine
 62
2
  6
CONTINUOUS
 10
16.38
 20
5.4995
 11
16.63
 21
5.4995
  0
LINE
  5
476
100
AcDbEntity
  8
0
100
AcDbLine
 62
2
  6
CONTINUOUS
 10
10.03
 20
2.807
 11
10.03
 21
0.887
  0
LINE
  5
477
100
AcDbEntity
  8
0
100
AcDbLine
 62
2
  6
CONTINUOUS
 10
10.47
 20
0.887
 11
10.47
 21
0.637
  0
LINE
  5
478
100
AcDbEntity
  8
0
100
AcDbLine
 62
2
  6
CONTINUOUS
 10
10.47
 20
10.112
 11
10.47
 21
10.362
  0
LINE
  5
479
100
AcDbEntity
  8
0
100
AcDbLine
 62
7
  6
CONTINUOUS
 10
10.5342808475
 20
1.143294839
 11
10.5342808475
 21
0.921203839
  0
LINE
  5
47A
100
AcDbEntity
  8
0
100
AcDbLine
 62
7
  6
CONTINUOUS
 10
10.5342808475
 20
1.193294839
 11
10.5342808475
 21
1.293294839
  0
LINE
  5
47B
100
AcDbEntity
  8
0
100
AcDbLine
 62
7
  6
CONTINUOUS
 10
10.5342808475
 20
1.343294839
 11
10.5342808475
 21
1.565385839
  0
LINE
  5
47C
100
AcDbEntity
  8
0
100
AcDbLine
 62
2
  6
CONTINUOUS
 10
8.5
 20
0.887
 11
8.413397
 21
0.737
  0
LINE
  5
47D
100
AcDbEntity
  8
0
100
AcDbLine
 62
2
  6
CONTINUOUS
 10
0.62
 20
7.7995
 11
0.37
 21
7.7995
  0
LINE
  5
47E
100
AcDbEntity
  8
0
100
AcDbLine
 62
2
  6
CONTINUOUS
 10
16.38
 20
7.7995
 11
16.63
 21
7.7995
  0
LINE
  5
47F
100
AcDbEntity
  8
0
100
AcDbLine
 62
2
  6
CONTINUOUS
 10
8.413397
 20
10.262
 11
8.5
 21
10.112
  0
LINE
  5
480
100
AcDbEntity
  8
0
100
AcDbLine
 62
7
  6
CONTINUOUS
 10
11.1389508475
 20
1.060596839
 11
11.1389508475
 21
1.425992839
  0
LINE
  5
481
100
AcDbEntity
  8
0
100
AcDbLine
 62
7
  6
CONTINUOUS
 10
11.7453418475
 20
1.495385839
 11
11.7453418475
 21
0.991203839
  0
LINE
  5
482
100
AcDbEntity
  8
0
100
AcDbLine
 62
1
  6
CONTINUOUS
 10
12.03
 20
2.807
 11
12.03
 21
0.887
  0
LINE
  5
483
100
AcDbEntity
  8
0
100
AcDbLine
 62
2
  6
CONTINUOUS
 10
12.44
 20
0.887
 11
12.44
 21
0.637
  0
LINE
  5
484
100
AcDbEntity
  8
0
100
AcDbLine
 62
2
  6
CONTINUOUS
 10
12.44
 20
10.112
 11
12.44
 21
10.362
  0
LINE
  5
485
100
AcDbEntity
  8
0
100
AcDbLine
 62
2
  6
CONTINUOUS
 10
16.53
 20
5.586103
 11
16.38
 21
5.4995
  0
LINE
  5
486
100
AcDbEntity
  8
0
100
AcDbLine
 62
2
  6
CONTINUOUS
 10
16.38
 20
5.4995
 11
16.53
 21
5.412897
  0
LINE
  5
487
100
AcDbEntity
  8
0
100
AcDbLine
 62
2
  6
CONTINUOUS
 10
12.83
 20
1.507
 11
12.83
 21
1.137
  0
LINE
  5
488
100
AcDbEntity
  8
0
100
AcDbLine
 62
2
  6
CONTINUOUS
 10
16.38
 20
10.112
 11
0.62
 21
10.112
  0
LINE
  5
489
100
AcDbEntity
  8
0
100
AcDbLine
 62
2
  6
CONTINUOUS
 10
8.586603
 20
10.262
 11
8.413397
 21
10.262
  0
LINE
  5
48A
100
AcDbEntity
  8
0
100
AcDbLine
 62
2
  6
CONTINUOUS
 10
14.205
 20
1.137
 11
14.205
 21
0.887
  0
LINE
  5
48B
100
AcDbEntity
  8
0
100
AcDbLine
 62
2
  6
CONTINUOUS
 10
14.41
 20
0.887
 11
14.41
 21
0.637
  0
LINE
  5
48C
100
AcDbEntity
  8
0
100
AcDbLine
 62
2
  6
CONTINUOUS
 10
14.41
 20
10.112
 11
14.41
 21
10.362
  0
LINE
  5
48D
100
AcDbEntity
  8
0
100
AcDbLine
 62
2
  6
CONTINUOUS
 10
15.58
 20
1.507
 11
15.58
 21
1.137
  0
LINE
  5
48E
100
AcDbEntity
  8
0
100
AcDbLine
 62
2
  6
CONTINUOUS
 10
16.38
 20
0.887
 11
16.38
 21
10.112
  0
LINE
  5
48F
100
AcDbEntity
  8
0
100
AcDbLine
 62
2
  6
CONTINUOUS
 10
16.53
 20
5.412897
 11
16.53
 21
5.586103
  0
LINE
  5
490
100
AcDbEntity
  8
02___PRT_ALL_AXES
100
AcDbLine
 62
7
  6
CONTINUOUS
 10
3.2687061653
 20
4.7974673021
 11
3.2687061653
 21
4.3250263572
  0
LINE
  5
491
100
AcDbEntity
  8
02___PRT_ALL_AXES
100
AcDbLine
 62
7
  6
CONTINUOUS
 10
3.278548685
 20
4.8762074595
 11
3.278548685
 21
4.7974673021
  0
LWPOLYLINE
  5
492
100
AcDbEntity
  8
0
100
AcDbPolyline
 62
7
  6
CONTINUOUS
 90
9
 70
0
 10
4.4835020303
 20
3.1262591775
 10
4.4801877672
 20
3.1256493074
 10
4.4712972327
 20
3.1250254073
 10
4.4572288871
 20
3.1244066252
 10
4.4382588242
 20
3.1237866275
 10
4.4146970895
 20
3.1231617592
 10
4.3873696385
 20
3.1225388305
 10
4.356788954
 20
3.1219137165
 10
4.3233633352
 20
3.1212802483
  0
LINE
  5
493
100
AcDbEntity
  8
0
100
AcDbLine
 62
7
  6
CONTINUOUS
 10
4.0492179763
 20
3.0651838375
 11
4.4566982913
 21
3.0651838375
  0
LINE
  5
494
100
AcDbEntity
  8
0
100
AcDbLine
 62
7
  6
CONTINUOUS
 10
4.0441219776
 20
3.1045539162
 11
4.4617942899
 21
3.1045539162
  0
LWPOLYLINE
  5
495
100
AcDbEntity
  8
0
100
AcDbPolyline
 62
7
  6
CONTINUOUS
 90
3
 70
0
 10
4.0206413146
 20
3.1399869314
 10
4.0123413076
 20
3.1393665852
 10
4.0099990686
 20
3.1389161396
  0
LWPOLYLINE
  5
496
100
AcDbEntity
  8
0
100
AcDbPolyline
 62
7
  6
CONTINUOUS
 90
8
 70
0
 10
4.0206413146
 20
3.1399869314
 10
4.0347084242
 20
3.1409370372
 10
4.053784591
 20
3.1418871754
 10
4.0774324489
 20
3.1428373435
 10
4.1051091772
 20
3.1437875256
 10
4.1361796192
 20
3.1447377187
 10
4.1699308994
 20
3.1456879269
 10
4.2055879856
 20
3.146638138
  0
LWPOLYLINE
  5
497
100
AcDbEntity
  8
0
100
AcDbPolyline
 62
7
  6
CONTINUOUS
 90
6
 70
0
 10
4.4645035912
 20
3.1937927614
 10
4.44406813
 20
3.1928607598
 10
4.4192903422
 20
3.1919244826
 10
4.3909899104
 20
3.1909939306
 10
4.3594184379
 20
3.1900567553
 10
4.3251168748
 20
3.1891101
  0
LWPOLYLINE
  5
498
100
AcDbEntity
  8
0
100
AcDbPolyline
 62
7
  6
CONTINUOUS
 90
9
 70
0
 10
4.3148424017
 20
3.1674194428
 10
4.3466048618
 20
3.1684214849
 10
4.3759774975
 20
3.1694235271
 10
4.4022107317
 20
3.1704255692
 10
4.4246351035
 20
3.1714276114
 10
4.4426783525
 20
3.1724296535
 10
4.4558800227
 20
3.1734316956
 10
4.4639032132
 20
3.1744337378
 10
4.4662686461
 20
3.1751019405
  0
LWPOLYLINE
  5
499
100
AcDbEntity
  8
0
100
AcDbPolyline
 62
7
  6
CONTINUOUS
 90
10
 70
0
 10
4.2912777196
 20
3.1273377573
 10
4.3242478909
 20
3.1283397995
 10
4.3553987781
 20
3.1293418416
 10
4.3839354239
 20
3.1303438838
 10
4.4091295853
 20
3.1313459259
 10
4.4303383181
 20
3.132347968
 10
4.4470203846
 20
3.1333500102
 10
4.4587500654
 20
3.1343520523
 10
4.4652280243
 20
3.1353540944
 10
4.4662686461
 20
3.1357318618
  0
LINE
  5
49A
100
AcDbEntity
  8
0
100
AcDbLine
 62
7
  6
CONTINUOUS
 10
4.189968017
 20
3.1243316309
 11
4.2912777196
 21
3.1273377573
  0
LINE
  5
49B
100
AcDbEntity
  8
0
100
AcDbLine
 62
7
  6
CONTINUOUS
 10
4.2135015151
 20
3.1644133164
 11
4.3148424017
 21
3.1674194428
  0
LWPOLYLINE
  5
49C
100
AcDbEntity
  8
0
100
AcDbPolyline
 62
7
  6
CONTINUOUS
 90
3
 70
0
 10
4.1745363369
 20
3.1418760908
 10
4.1406819106
 20
3.1409314678
 10
4.1093771008
 20
3.1399869314
  0
LWPOLYLINE
  5
49D
100
AcDbEntity
  8
0
100
AcDbPolyline
 62
7
  6
CONTINUOUS
 90
9
 70
0
 10
4.3287094158
 20
3.1852697855
 10
4.3644423431
 20
3.1862637464
 10
4.3969986133
 20
3.1872457174
 10
4.4259378677
 20
3.1882245398
 10
4.4507603086
 20
3.1892075463
 10
4.4706024558
 20
3.1901836502
 10
4.4851525195
 20
3.1911580069
 10
4.4941500552
 20
3.192140549
 10
4.4969890476
 20
3.1928583823
  0
LWPOLYLINE
  5
49E
100
AcDbEntity
  8
0
100
AcDbPolyline
 62
7
  6
CONTINUOUS
 90
9
 70
0
 10
4.1771033102
 20
3.1852525758
 10
4.1413542627
 20
3.1842579587
 10
4.1088040904
 20
3.1832758302
 10
4.0798853381
 20
3.1822972337
 10
4.0550975934
 20
3.1813150567
 10
4.035279993
 20
3.1803395938
 10
4.0207365624
 20
3.1793649016
 10
4.0117516131
 20
3.1783822377
 10
4.0089272199
 20
3.177666773
  0
LWPOLYLINE
  5
49F
100
AcDbEntity
  8
0
100
AcDbPolyline
 62
7
  6
CONTINUOUS
 90
10
 70
0
 10
4.3157138397
 20
3.1494890388
 10
4.3506621048
 20
3.1504394125
 10
4.3833665495
 20
3.1513897717
 10
4.4130765499
 20
3.1523401214
 10
4.4391103491
 20
3.1532904722
 10
4.4608701424
 20
3.1542408209
 10
4.4778563101
 20
3.1551911635
 10
4.4896790506
 20
3.1561415095
 10
4.4960669064
 20
3.1570918698
 10
4.4972297873
 20
3.1577035219
  0
LINE
  5
4A0
100
AcDbEntity
  8
0
100
AcDbLine
 62
7
  6
CONTINUOUS
 10
4.3195935662
 20
3.1456552389
 11
4.1745363369
 21
3.1418760908
  0
LINE
  5
4A1
100
AcDbEntity
  8
0
100
AcDbLine
 62
7
  6
CONTINUOUS
 10
4.2055879856
 20
3.146638138
 11
4.3157138397
 21
3.1494890388
  0
LINE
  5
4A2
100
AcDbEntity
  8
0
100
AcDbLine
 62
7
  6
CONTINUOUS
 10
4.1771294057
 20
3.1813162722
 11
4.3287094158
 21
3.1852697855
  0
LINE
  5
4A3
100
AcDbEntity
  8
0
100
AcDbLine
 62
7
  6
CONTINUOUS
 10
4.3251168748
 20
3.1891101
 11
4.2529581338
 21
3.1872310816
  0
LINE
  5
4A4
100
AcDbEntity
  8
0
100
AcDbLine
 62
7
  6
CONTINUOUS
 10
4.2529581338
 20
3.1872310816
 11
4.1771033102
 21
3.1852525758
  0
LWPOLYLINE
  5
4A5
100
AcDbEntity
  8
0
100
AcDbPolyline
 62
7
  6
CONTINUOUS
 90
10
 70
0
 10
4.1871013305
 20
3.11882898
 10
4.1560421949
 20
3.118229083
 10
4.1276437284
 20
3.1176356056
 10
4.1022883789
 20
3.1170447579
 10
4.0802930264
 20
3.1164510942
 10
4.0623232295
 20
3.1158599014
 10
4.0486913147
 20
3.1152705581
 10
4.0395765581
 20
3.1146782012
 10
4.0352134101
 20
3.1140783869
 10
4.034966023
 20
3.1139767227
  0
LINE
  5
4A6
100
AcDbEntity
  8
0
100
AcDbLine
 62
7
  6
CONTINUOUS
 10
4.3233633352
 20
3.1212802483
 11
4.1871013305
 21
3.11882898
  0
LINE
  5
4A7
100
AcDbEntity
  8
0
100
AcDbLine
 62
7
  6
CONTINUOUS
 10
4.0206413146
 20
3.1399869314
 11
4.1093771008
 21
3.1399869314
  0
LINE
  5
4A8
100
AcDbEntity
  8
0
100
AcDbLine
 62
7
  6
CONTINUOUS
 10
4.0236152841
 20
3.1253142063
 11
4.0390973137
 21
3.1163649359
  0
LINE
  5
4A9
100
AcDbEntity
  8
0
100
AcDbLine
 62
7
  6
CONTINUOUS
 10
4.00892722
 20
3.1731733429
 11
4.0390973066
 21
3.1557350187
  0
LINE
  5
4AA
100
AcDbEntity
  8
0
100
AcDbLine
 62
7
  6
CONTINUOUS
 10
4.00892722
 20
3.2125434217
 11
4.0390973066
 21
3.1951050975
  0
LINE
  5
4AB
100
AcDbEntity
  8
0
100
AcDbLine
 62
7
  6
CONTINUOUS
 10
4.0236152841
 20
3.1253142063
 11
4.0226583914
 21
3.1260150235
  0
LWPOLYLINE
  5
4AC
100
AcDbEntity
  8
0
100
AcDbPolyline
 62
7
  6
CONTINUOUS
 90
9
 70
0
 10
4.0396476215
 20
3.1954232148
 10
4.044483698
 20
3.1964786648
 10
4.0545398197
 20
3.1974807069
 10
4.0696594919
 20
3.198482749
 10
4.089456867
 20
3.1994847912
 10
4.1134267244
 20
3.2004868333
 10
4.1409573637
 20
3.2014888755
 10
4.1713462147
 20
3.2024909176
 10
4.2038177669
 20
3.2034929597
  0
LWPOLYLINE
  5
4AD
100
AcDbEntity
  8
0
100
AcDbPolyline
 62
7
  6
CONTINUOUS
 90
4
 70
0
 10
4.437928788
 20
3.2115092968
 10
4.4526150017
 20
3.2125147155
 10
4.4621717357
 20
3.2135201342
 10
4.4662686461
 20
3.2144720192
  0
LWPOLYLINE
  5
4AE
100
AcDbEntity
  8
0
100
AcDbPolyline
 62
7
  6
CONTINUOUS
 90
5
 70
0
 10
4.4645035912
 20
3.2292258323
 10
4.4802186643
 20
3.2301544164
 10
4.4909689793
 20
3.2310849587
 10
4.496520298
 20
3.2320289856
 10
4.4969890476
 20
3.232228461
  0
LWPOLYLINE
  5
4AF
100
AcDbEntity
  8
0
100
AcDbPolyline
 62
7
  6
CONTINUOUS
 90
6
 70
0
 10
4.3053039807
 20
3.2064990861
 10
4.3376097858
 20
3.2075011283
 10
4.3677553169
 20
3.2085031704
 10
4.394971273
 20
3.2095052125
 10
4.4185631146
 20
3.2105072547
 10
4.437928788
 20
3.2115092968
  0
LWPOLYLINE
  5
4B0
100
AcDbEntity
  8
0
100
AcDbPolyline
 62
7
  6
CONTINUOUS
 90
10
 70
0
 10
4.2994799982
 20
3.2456935319
 10
4.3321876691
 20
3.2466989505
 10
4.3628598163
 20
3.2477043692
 10
4.390708427
 20
3.2487097879
 10
4.4150180292
 20
3.2497152066
 10
4.4351640734
 20
3.2507206252
 10
4.450628978
 20
3.2517260439
 10
4.4610154268
 20
3.2527314626
 10
4.4660565765
 20
3.2537368813
 10
4.4662686461
 20
3.253842098
  0
LWPOLYLINE
  5
4B1
100
AcDbEntity
  8
0
100
AcDbPolyline
 62
7
  6
CONTINUOUS
 90
10
 70
0
 10
4.2941842713
 20
3.2849048603
 10
4.3271375742
 20
3.285910279
 10
4.3581850978
 20
3.2869156976
 10
4.3865291853
 20
3.2879211163
 10
4.4114416352
 20
3.288926535
 10
4.4322824101
 20
3.2899319537
 10
4.4485160794
 20
3.2909373723
 10
4.4597255764
 20
3.291942791
 10
4.4656229126
 20
3.2929482097
 10
4.4662686461
 20
3.2932121767
  0
LINE
  5
4B2
100
AcDbEntity
  8
0
100
AcDbLine
 62
7
  6
CONTINUOUS
 10
4.2038177669
 20
3.2034929597
 11
4.3053039807
 21
3.2064990861
  0
LINE
  5
4B3
100
AcDbEntity
  8
0
100
AcDbLine
 62
7
  6
CONTINUOUS
 10
4.1976780832
 20
3.2426772758
 11
4.2994799982
 21
3.2456935319
  0
LINE
  5
4B4
100
AcDbEntity
  8
0
100
AcDbLine
 62
7
  6
CONTINUOUS
 10
4.1924694834
 20
3.2818886042
 11
4.2941842713
 21
3.2849048603
  0
LWPOLYLINE
  5
4B5
100
AcDbEntity
  8
0
100
AcDbPolyline
 62
7
  6
CONTINUOUS
 90
9
 70
0
 10
4.1771852475
 20
3.2246248656
 10
4.1414502637
 20
3.2236308055
 10
4.1088961604
 20
3.2226488339
 10
4.0799606334
 20
3.2216700488
 10
4.0551444607
 20
3.220687185
 10
4.0353073225
 20
3.2197112172
 10
4.0207586166
 20
3.2187368032
 10
4.0117633007
 20
3.2177542131
 10
4.0089272199
 20
3.2170368517
  0
LWPOLYLINE
  5
4B6
100
AcDbEntity
  8
0
100
AcDbPolyline
 62
7
  6
CONTINUOUS
 90
9
 70
0
 10
4.328764815
 20
3.2640114379
 10
4.3645070265
 20
3.2650057688
 10
4.3970600956
 20
3.2659878279
 10
4.4259883928
 20
3.2669665331
 10
4.450793357
 20
3.2679491488
 10
4.4706221823
 20
3.2689249224
 10
4.4851675693
 20
3.2698994079
 10
4.4941578719
 20
3.270881974
 10
4.4969890476
 20
3.2715985398
  0
LWPOLYLINE
  5
4B7
100
AcDbEntity
  8
0
100
AcDbPolyline
 62
7
  6
CONTINUOUS
 90
9
 70
0
 10
4.1771374392
 20
3.2639936543
 10
4.1413945483
 20
3.2629992778
 10
4.1088432418
 20
3.2620172316
 10
4.0799171542
 20
3.2610385475
 10
4.0551159933
 20
3.2600560189
 10
4.0352900976
 20
3.2590803225
 10
4.0207454946
 20
3.2581057975
 10
4.0117564862
 20
3.2571231864
 10
4.0089272199
 20
3.2564069305
  0
LWPOLYLINE
  5
4B8
100
AcDbEntity
  8
0
100
AcDbPolyline
 62
7
  6
CONTINUOUS
 90
6
 70
0
 10
4.3251168748
 20
3.2245431709
 10
4.3594184379
 20
3.2254898262
 10
4.3909899104
 20
3.2264270015
 10
4.4192903422
 20
3.2273575535
 10
4.44406813
 20
3.2282938307
 10
4.4645035912
 20
3.2292258323
  0
LINE
  5
4B9
100
AcDbEntity
  8
0
100
AcDbLine
 62
7
  6
CONTINUOUS
 10
4.1771033102
 20
3.2206856467
 11
4.3251168748
 21
3.2245431709
  0
LINE
  5
4BA
100
AcDbEntity
  8
0
100
AcDbLine
 62
7
  6
CONTINUOUS
 10
4.328764815
 20
3.228578367
 11
4.1771852475
 21
3.2246248656
  0
LINE
  5
4BB
100
AcDbEntity
  8
0
100
AcDbLine
 62
7
  6
CONTINUOUS
 10
4.1771852475
 20
3.2600579364
 11
4.328764815
 21
3.2640114379
  0
LINE
  5
4BC
100
AcDbEntity
  8
0
100
AcDbLine
 62
7
  6
CONTINUOUS
 10
4.3287171305
 20
3.2679471591
 11
4.1771374392
 21
3.2639936543
  0
LINE
  5
4BD
100
AcDbEntity
  8
0
100
AcDbLine
 62
7
  6
CONTINUOUS
 10
4.00892722
 20
3.2519135004
 11
4.0390973066
 21
3.2344751762
  0
LINE
  5
4BE
100
AcDbEntity
  8
0
100
AcDbLine
 62
7
  6
CONTINUOUS
 10
4.00892722
 20
3.2912835792
 11
4.0390973066
 21
3.2738452549
  0
LINE
  5
4BF
100
AcDbEntity
  8
0
100
AcDbLine
 62
7
  6
CONTINUOUS
 10
4.0441195272
 20
3.1045538925
 11
4.03489406
 21
3.1137793576
  0
LINE
  5
4C0
100
AcDbEntity
  8
0
100
AcDbLine
 62
7
  6
CONTINUOUS
 10
4.0226589469
 20
3.1260144679
 11
4.0099344266
 21
3.1387389853
  0
LINE
  5
4C1
100
AcDbEntity
  8
02___PRT_ALL_AXES
100
AcDbLine
 62
7
  6
CONTINUOUS
 10
3.6665697186
 20
3.5878069292
 11
3.6663439605
 21
3.5880676958
  0
LINE
  5
4C2
100
AcDbEntity
  8
0
100
AcDbLine
 62
7
  6
CONTINUOUS
 10
4.00892722
 20
3.1731733429
 11
4.0086864802
 21
3.173451554
  0
LWPOLYLINE
  5
4C3
100
AcDbEntity
  8
0
100
AcDbPolyline
 62
7
  6
CONTINUOUS
 90
9
 70
0
 10
4.0396476215
 20
3.2741633723
 10
4.0421160859
 20
3.2748506735
 10
4.0502765956
 20
3.2758560922
 10
4.0636442933
 20
3.2768615109
 10
4.0818757431
 20
3.2778669295
 10
4.1045025521
 20
3.2788723482
 10
4.1309434041
 20
3.2798777669
 10
4.1605189948
 20
3.2808831856
 10
4.1924694834
 20
3.2818886042
  0
LWPOLYLINE
  5
4C4
100
AcDbEntity
  8
0
100
AcDbPolyline
 62
7
  6
CONTINUOUS
 90
9
 70
0
 10
4.0396476215
 20
3.2347932936
 10
4.043048219
 20
3.2356393451
 10
4.052048369
 20
3.2366447638
 10
4.0662101874
 20
3.2376501824
 10
4.0851698364
 20
3.2386556011
 10
4.1084402145
 20
3.2396610198
 10
4.1354234713
 20
3.2406664385
 10
4.1654263671
 20
3.2416718571
 10
4.1976780832
 20
3.2426772758
  0
LWPOLYLINE
  5
4C5
100
AcDbEntity
  8
0
100
AcDbPolyline
 62
7
  6
CONTINUOUS
 90
9
 70
0
 10
4.3168978201
 20
3.3643329358
 10
4.3486360849
 20
3.3653383545
 10
4.3779162419
 20
3.3663437732
 10
4.4039860405
 20
3.3673491918
 10
4.4261757093
 20
3.3683546105
 10
4.4439151627
 20
3.3693600292
 10
4.4567486481
 20
3.3703654479
 10
4.4643464544
 20
3.3713708665
 10
4.4662686461
 20
3.3719523342
  0
LWPOLYLINE
  5
4C6
100
AcDbEntity
  8
0
100
AcDbPolyline
 62
7
  6
CONTINUOUS
 90
10
 70
0
 10
4.2888620833
 20
3.3241161887
 10
4.3220398672
 20
3.3251216074
 10
4.3534428394
 20
3.3261270261
 10
4.3822642111
 20
3.3271324447
 10
4.4077635188
 20
3.3281378634
 10
4.4292856475
 20
3.3291432821
 10
4.4462776621
 20
3.3301487008
 10
4.4583030125
 20
3.3311541194
 10
4.4650527499
 20
3.3321595381
 10
4.4662686461
 20
3.3325822555
  0
LINE
  5
4C7
100
AcDbEntity
  8
0
100
AcDbLine
 62
7
  6
CONTINUOUS
 10
4.1872997082
 20
3.3210999327
 11
4.2888620833
 21
3.3241161887
  0
LINE
  5
4C8
100
AcDbEntity
  8
0
100
AcDbLine
 62
7
  6
CONTINUOUS
 10
4.215277392
 20
3.3613166798
 11
4.3168978201
 21
3.3643329358
  0
LWPOLYLINE
  5
4C9
100
AcDbEntity
  8
0
100
AcDbPolyline
 62
7
  6
CONTINUOUS
 90
9
 70
0
 10
4.3287171305
 20
3.3033802299
 10
4.364451351
 20
3.3043742423
 10
4.3970071476
 20
3.3053562247
 10
4.4259448291
 20
3.3063350289
 10
4.4507647858
 20
3.3073179783
 10
4.4706050129
 20
3.3082940309
 10
4.4851544756
 20
3.3092684047
 10
4.4941510628
 20
3.3102509485
 10
4.4969890476
 20
3.3109686185
  0
LWPOLYLINE
  5
4CA
100
AcDbEntity
  8
0
100
AcDbPolyline
 62
7
  6
CONTINUOUS
 90
9
 70
0
 10
4.1771042918
 20
3.3033628385
 10
4.1413556317
 20
3.3023682344
 10
4.108805708
 20
3.3013861178
 10
4.0798865808
 20
3.3004075151
 10
4.0550976556
 20
3.2994252956
 10
4.0352796409
 20
3.2984498101
 10
4.0207367025
 20
3.2974751494
 10
4.0117517663
 20
3.2964924988
 10
4.0089272199
 20
3.2957770092
  0
LWPOLYLINE
  5
4CB
100
AcDbEntity
  8
0
100
AcDbPolyline
 62
7
  6
CONTINUOUS
 90
9
 70
0
 10
4.1771931501
 20
3.342735315
 10
4.1414595113
 20
3.3417413084
 10
4.1089049666
 20
3.3407593499
 10
4.0799678864
 20
3.3397805485
 10
4.0551492246
 20
3.3387976295
 10
4.0353101614
 20
3.3378216138
 10
4.0207607901
 20
3.336847219
 10
4.0117644335
 20
3.335864633
 10
4.0089272199
 20
3.335147088
  0
LWPOLYLINE
  5
4CC
100
AcDbEntity
  8
0
100
AcDbPolyline
 62
7
  6
CONTINUOUS
 90
10
 70
0
 10
4.3251815432
 20
3.3426551435
 10
4.3595076416
 20
3.343602605
 10
4.3911027303
 20
3.3445407461
 10
4.4194055947
 20
3.3454718278
 10
4.4441839809
 20
3.3464088407
 10
4.4646143123
 20
3.3473417533
 10
4.4802944782
 20
3.3482699624
 10
4.491016607
 20
3.3492006362
 10
4.4965368788
 20
3.3501448393
 10
4.4969890476
 20
3.3503386973
  0
LINE
  5
4CD
100
AcDbEntity
  8
0
100
AcDbLine
 62
7
  6
CONTINUOUS
 10
4.1771374392
 20
3.2994267252
 11
4.3287171305
 21
3.3033802299
  0
LINE
  5
4CE
100
AcDbEntity
  8
0
100
AcDbLine
 62
7
  6
CONTINUOUS
 10
4.3251815432
 20
3.3072220726
 11
4.2529581338
 21
3.3053413178
  0
LINE
  5
4CF
100
AcDbEntity
  8
0
100
AcDbLine
 62
7
  6
CONTINUOUS
 10
4.2529581338
 20
3.3053413178
 11
4.1771042918
 21
3.3033628385
  0
LINE
  5
4D0
100
AcDbEntity
  8
0
100
AcDbLine
 62
7
  6
CONTINUOUS
 10
4.1771042918
 20
3.3387959094
 11
4.3251815432
 21
3.3426551435
  0
LINE
  5
4D1
100
AcDbEntity
  8
0
100
AcDbLine
 62
7
  6
CONTINUOUS
 10
4.3287728285
 20
3.3466888194
 11
4.1771931501
 21
3.342735315
  0
LINE
  5
4D2
100
AcDbEntity
  8
0
100
AcDbLine
 62
7
  6
CONTINUOUS
 10
3.6665697186
 20
3.5878069292
 11
3.7020172841
 21
3.5673328821
  0
LINE
  5
4D3
100
AcDbEntity
  8
0
100
AcDbLine
 62
7
  6
CONTINUOUS
 10
4.00892722
 20
3.3306536579
 11
4.0390973066
 21
3.3132153337
  0
LINE
  5
4D4
100
AcDbEntity
  8
0
100
AcDbLine
 62
7
  6
CONTINUOUS
 10
4.00892722
 20
3.3700237366
 11
4.0390973066
 21
3.3525854124
  0
LINE
  5
4D5
100
AcDbEntity
  8
0
100
AcDbLine
 62
7
  6
CONTINUOUS
 10
4.4834339163
 20
3.126445887
 11
4.4668189609
 21
3.1360499794
  0
LINE
  5
4D6
100
AcDbEntity
  8
0
100
AcDbLine
 62
7
  6
CONTINUOUS
 10
4.00892722
 20
3.4093938154
 11
4.0390973066
 21
3.3919554912
  0
LINE
  5
4D7
100
AcDbEntity
  8
02___PRT_ALL_AXES
100
AcDbLine
 62
7
  6
CONTINUOUS
 10
3.6665697186
 20
3.6468620473
 11
3.6663439605
 21
3.6471228139
  0
LINE
  5
4D8
100
AcDbEntity
  8
02___PRT_ALL_AXES
100
AcDbLine
 62
7
  6
CONTINUOUS
 10
3.6665697186
 20
3.7059171654
 11
3.6663439605
 21
3.706177932
  0
LINE
  5
4D9
100
AcDbEntity
  8
0
100
AcDbLine
 62
7
  6
CONTINUOUS
 10
4.00892722
 20
3.2125434217
 11
4.0086864802
 21
3.2128216328
  0
LINE
  5
4DA
100
AcDbEntity
  8
0
100
AcDbLine
 62
7
  6
CONTINUOUS
 10
4.00892722
 20
3.2519135004
 11
4.0086864802
 21
3.2521917115
  0
LINE
  5
4DB
100
AcDbEntity
  8
0
100
AcDbLine
 62
7
  6
CONTINUOUS
 10
4.00892722
 20
3.2912835792
 11
4.0086864802
 21
3.2915617903
  0
LINE
  5
4DC
100
AcDbEntity
  8
0
100
AcDbLine
 62
7
  6
CONTINUOUS
 10
4.00892722
 20
3.3306536579
 11
4.0086864802
 21
3.330931869
  0
LINE
  5
4DD
100
AcDbEntity
  8
0
100
AcDbLine
 62
7
  6
CONTINUOUS
 10
3.6663439605
 20
4.1860007666
 11
3.6663439605
 21
4.1786188769
  0
LINE
  5
4DE
100
AcDbEntity
  8
0
100
AcDbLine
 62
7
  6
CONTINUOUS
 10
3.6663439605
 20
4.1269456485
 11
3.6663439605
 21
4.1195637588
  0
LINE
  5
4DF
100
AcDbEntity
  8
0
100
AcDbLine
 62
7
  6
CONTINUOUS
 10
3.6663439605
 20
4.0678905304
 11
3.6663439605
 21
4.0605086407
  0
LINE
  5
4E0
100
AcDbEntity
  8
0
100
AcDbLine
 62
7
  6
CONTINUOUS
 10
3.6663439605
 20
4.0088354123
 11
3.6663439605
 21
4.0014535225
  0
LINE
  5
4E1
100
AcDbEntity
  8
0
100
AcDbLine
 62
7
  6
CONTINUOUS
 10
3.6663439605
 20
3.9497802942
 11
3.6663439605
 21
3.9423984044
  0
LINE
  5
4E2
100
AcDbEntity
  8
0
100
AcDbLine
 62
7
  6
CONTINUOUS
 10
3.6663439605
 20
3.8907251761
 11
3.6663439605
 21
3.8833432863
  0
LINE
  5
4E3
100
AcDbEntity
  8
0
100
AcDbLine
 62
7
  6
CONTINUOUS
 10
3.6663439605
 20
3.831670058
 11
3.6663439605
 21
3.8242881682
  0
LINE
  5
4E4
100
AcDbEntity
  8
0
100
AcDbLine
 62
7
  6
CONTINUOUS
 10
3.6663439605
 20
3.7726149399
 11
3.6663439605
 21
3.7652330501
  0
LINE
  5
4E5
100
AcDbEntity
  8
0
100
AcDbLine
 62
7
  6
CONTINUOUS
 10
3.6663439605
 20
3.7135598218
 11
3.6663439605
 21
3.706177932
  0
LINE
  5
4E6
100
AcDbEntity
  8
0
100
AcDbLine
 62
7
  6
CONTINUOUS
 10
3.6663439605
 20
3.6545047036
 11
3.6663439605
 21
3.6471228139
  0
LINE
  5
4E7
100
AcDbEntity
  8
0
100
AcDbLine
 62
7
  6
CONTINUOUS
 10
3.6663439605
 20
3.5954495855
 11
3.6663439605
 21
3.5880676958
  0
LINE
  5
4E8
100
AcDbEntity
  8
02___PRT_ALL_AXES
100
AcDbLine
 62
7
  6
CONTINUOUS
 10
3.7017770314
 20
4.2462861997
 11
3.7017770314
 21
4.2064580596
  0
LINE
  5
4E9
100
AcDbEntity
  8
02___PRT_ALL_AXES
100
AcDbLine
 62
7
  6
CONTINUOUS
 10
3.7017770314
 20
4.1581615839
 11
3.7017770314
 21
4.1474029415
  0
LINE
  5
4EA
100
AcDbEntity
  8
02___PRT_ALL_AXES
100
AcDbLine
 62
7
  6
CONTINUOUS
 10
3.7017770314
 20
4.0991064658
 11
3.7017770314
 21
4.0883478234
  0
LINE
  5
4EB
100
AcDbEntity
  8
02___PRT_ALL_AXES
100
AcDbLine
 62
7
  6
CONTINUOUS
 10
3.7017770314
 20
4.0400513476
 11
3.7017770314
 21
4.0292927053
  0
LINE
  5
4EC
100
AcDbEntity
  8
02___PRT_ALL_AXES
100
AcDbLine
 62
7
  6
CONTINUOUS
 10
3.7017770314
 20
3.9809962295
 11
3.7017770314
 21
3.9702375872
  0
LINE
  5
4ED
100
AcDbEntity
  8
02___PRT_ALL_AXES
100
AcDbLine
 62
7
  6
CONTINUOUS
 10
3.7017770314
 20
3.9219411114
 11
3.7017770314
 21
3.9111824691
  0
LINE
  5
4EE
100
AcDbEntity
  8
02___PRT_ALL_AXES
100
AcDbLine
 62
7
  6
CONTINUOUS
 10
3.7017770314
 20
3.8628859933
 11
3.7017770314
 21
3.852127351
  0
LINE
  5
4EF
100
AcDbEntity
  8
02___PRT_ALL_AXES
100
AcDbLine
 62
7
  6
CONTINUOUS
 10
3.7017770314
 20
3.8038308752
 11
3.7017770314
 21
3.7930722329
  0
LINE
  5
4F0
100
AcDbEntity
  8
02___PRT_ALL_AXES
100
AcDbLine
 62
7
  6
CONTINUOUS
 10
3.7017770314
 20
3.7447757571
 11
3.7017770314
 21
3.7340171148
  0
LINE
  5
4F1
100
AcDbEntity
  8
02___PRT_ALL_AXES
100
AcDbLine
 62
7
  6
CONTINUOUS
 10
3.7017770314
 20
3.685720639
 11
3.7017770314
 21
3.6749619966
  0
LINE
  5
4F2
100
AcDbEntity
  8
02___PRT_ALL_AXES
100
AcDbLine
 62
7
  6
CONTINUOUS
 10
3.7017770314
 20
3.6266655209
 11
3.7017770314
 21
3.6159068785
  0
LINE
  5
4F3
100
AcDbEntity
  8
02___PRT_ALL_AXES
100
AcDbLine
 62
7
  6
CONTINUOUS
 10
3.7017770314
 20
3.5676104028
 11
3.7017770314
 21
3.5376247824
  0
LINE
  5
4F4
100
AcDbEntity
  8
02___PRT_ALL_AXES
100
AcDbLine
 62
7
  6
CONTINUOUS
 10
3.6663439605
 20
4.1860007666
 11
3.6665697186
 21
4.1862615332
  0
LWPOLYLINE
  5
4F5
100
AcDbEntity
  8
0
100
AcDbPolyline
 62
7
  6
CONTINUOUS
 90
9
 70
0
 10
4.3117147334
 20
3.4035442642
 10
4.3437679197
 20
3.4045496829
 10
4.3734880684
 20
3.4055551016
 10
4.4001116251
 20
3.4065605203
 10
4.4229545914
 20
3.4075659389
 10
4.4414300977
 20
3.4085713576
 10
4.4550634809
 20
3.4095767763
 10
4.4635044794
 20
3.410582195
 10
4.4662686461
 20
3.4113224129
  0
LWPOLYLINE
  5
4F6
100
AcDbEntity
  8
0
100
AcDbPolyline
 62
7
  6
CONTINUOUS
 90
9
 70
0
 10
4.3064939338
 20
3.4427555926
 10
4.3388414682
 20
3.4437610113
 10
4.3689825328
 20
3.44476643
 10
4.3961427593
 20
3.4457718487
 10
4.4196243614
 20
3.4467772674
 10
4.438824062
 20
3.447782686
 10
4.4532485925
 20
3.4487881047
 10
4.4625273654
 20
3.4497935234
 10
4.4662686461
 20
3.4506924917
  0
LINE
  5
4F7
100
AcDbEntity
  8
0
100
AcDbLine
 62
7
  6
CONTINUOUS
 10
4.2099636456
 20
3.4005280082
 11
4.3117147334
 21
3.4035442642
  0
LINE
  5
4F8
100
AcDbEntity
  8
0
100
AcDbLine
 62
7
  6
CONTINUOUS
 10
4.2046774952
 20
3.4397393366
 11
4.3064939338
 21
3.4427555926
  0
LWPOLYLINE
  5
4F9
100
AcDbEntity
  8
0
100
AcDbPolyline
 62
7
  6
CONTINUOUS
 90
9
 70
0
 10
4.3287728285
 20
3.3821218903
 10
4.3645163447
 20
3.3831162737
 10
4.3970689344
 20
3.3840983449
 10
4.4259956474
 20
3.385077033
 10
4.4507980998
 20
3.3860595925
 10
4.4706250761
 20
3.3870353222
 10
4.4851697653
 20
3.3880098257
 10
4.4941590098
 20
3.3889923949
 10
4.4969890476
 20
3.389708776
  0
LWPOLYLINE
  5
4FA
100
AcDbEntity
  8
0
100
AcDbPolyline
 62
7
  6
CONTINUOUS
 90
9
 70
0
 10
4.177145454
 20
3.3821041068
 10
4.1414038616
 20
3.3811097826
 10
4.1088520712
 20
3.3801277483
 10
4.0799243961
 20
3.3791490469
 10
4.0551207241
 20
3.3781664621
 10
4.0352929912
 20
3.3771907223
 10
4.0207476912
 20
3.3762162153
 10
4.0117576241
 20
3.3752336073
 10
4.0089272199
 20
3.3745171667
  0
LWPOLYLINE
  5
4FB
100
AcDbEntity
  8
0
100
AcDbPolyline
 62
7
  6
CONTINUOUS
 90
9
 70
0
 10
4.3287250307
 20
3.4214906793
 10
4.3644606024
 20
3.4224847452
 10
4.3970159622
 20
3.4234667409
 10
4.425952094
 20
3.4244455291
 10
4.4507695612
 20
3.4254284233
 10
4.4706078516
 20
3.4264044275
 10
4.4851566481
 20
3.4273788204
 10
4.4941521955
 20
3.4283613683
 10
4.4969890476
 20
3.4290788547
  0
LWPOLYLINE
  5
4FC
100
AcDbEntity
  8
0
100
AcDbPolyline
 62
7
  6
CONTINUOUS
 90
9
 70
0
 10
4.177105283
 20
3.4214731015
 10
4.1413570143
 20
3.4204785105
 10
4.1088073417
 20
3.419496406
 10
4.0798878415
 20
3.4185177971
 10
4.0550977354
 20
3.4175355353
 10
4.035279289
 20
3.4165600265
 10
4.0207368444
 20
3.4155853973
 10
4.0117519213
 20
3.4146027602
 10
4.0089272199
 20
3.4138872454
  0
LWPOLYLINE
  5
4FD
100
AcDbEntity
  8
0
100
AcDbPolyline
 62
7
  6
CONTINUOUS
 90
9
 70
0
 10
4.3286824326
 20
3.4608596087
 10
4.3644115682
 20
3.4618534104
 10
4.3969706358
 20
3.4628353801
 10
4.4259167668
 20
3.4638143244
 10
4.4507490766
 20
3.4647976065
 10
4.4705983485
 20
3.4657739693
 10
4.4851494411
 20
3.4667483039
 10
4.4941487842
 20
3.4677308942
 10
4.4969890476
 20
3.4684489335
  0
LINE
  5
4FE
100
AcDbEntity
  8
0
100
AcDbLine
 62
7
  6
CONTINUOUS
 10
4.1771931501
 20
3.3781683859
 11
4.3287728285
 21
3.3821218903
  0
LINE
  5
4FF
100
AcDbEntity
  8
0
100
AcDbLine
 62
7
  6
CONTINUOUS
 10
4.3287250307
 20
3.3860576084
 11
4.177145454
 21
3.3821041068
  0
LINE
  5
500
100
AcDbEntity
  8
0
100
AcDbLine
 62
7
  6
CONTINUOUS
 10
4.177145454
 20
3.4175371776
 11
4.3287250307
 21
3.4214906793
  0
LINE
  5
501
100
AcDbEntity
  8
0
100
AcDbLine
 62
7
  6
CONTINUOUS
 10
4.3286824326
 20
3.4254265378
 11
4.177105283
 21
3.4214731015
  0
LINE
  5
502
100
AcDbEntity
  8
0
100
AcDbLine
 62
7
  6
CONTINUOUS
 10
4.177105283
 20
3.4569061724
 11
4.3286824326
 21
3.4608596087
  0
LINE
  5
503
100
AcDbEntity
  8
0
100
AcDbLine
 62
7
  6
CONTINUOUS
 10
3.6665697186
 20
3.6468620473
 11
3.7020172841
 21
3.6263880002
  0
LINE
  5
504
100
AcDbEntity
  8
0
100
AcDbLine
 62
7
  6
CONTINUOUS
 10
3.6665697186
 20
3.7059171654
 11
3.7020172841
 21
3.6854431183
  0
LINE
  5
505
100
AcDbEntity
  8
0
100
AcDbLine
 62
7
  6
CONTINUOUS
 10
4.4969890476
 20
3.1579817336
 11
4.4668189609
 21
3.1754200581
  0
LINE
  5
506
100
AcDbEntity
  8
0
100
AcDbLine
 62
7
  6
CONTINUOUS
 10
4.00892722
 20
3.4487638941
 11
4.0390973066
 21
3.4313255699
  0
LINE
  5
507
100
AcDbEntity
  8
0
100
AcDbLine
 62
7
  6
CONTINUOUS
 10
4.4969890476
 20
3.1973518124
 11
4.4668189609
 21
3.2147901368
  0
LINE
  5
508
100
AcDbEntity
  8
0
100
AcDbLine
 62
7
  6
CONTINUOUS
 10
4.4969890476
 20
3.2367218911
 11
4.4668189609
 21
3.2541602156
  0
LINE
  5
509
100
AcDbEntity
  8
02___PRT_ALL_AXES
100
AcDbLine
 62
7
  6
CONTINUOUS
 10
3.6665697186
 20
3.7649722835
 11
3.6663439605
 21
3.7652330501
  0
LINE
  5
50A
100
AcDbEntity
  8
02___PRT_ALL_AXES
100
AcDbLine
 62
7
  6
CONTINUOUS
 10
3.6665697186
 20
3.8240274016
 11
3.6663439605
 21
3.8242881682
  0
LINE
  5
50B
100
AcDbEntity
  8
0
100
AcDbLine
 62
7
  6
CONTINUOUS
 10
4.00892722
 20
3.3700237366
 11
4.0086864802
 21
3.3703019477
  0
LINE
  5
50C
100
AcDbEntity
  8
0
100
AcDbLine
 62
7
  6
CONTINUOUS
 10
4.00892722
 20
3.4093938154
 11
4.0086864802
 21
3.4096720265
  0
LINE
  5
50D
100
AcDbEntity
  8
0
100
AcDbLine
 62
7
  6
CONTINUOUS
 10
4.00892722
 20
3.4487638941
 11
4.0086864802
 21
3.4490421052
  0
LWPOLYLINE
  5
50E
100
AcDbEntity
  8
0
100
AcDbPolyline
 62
7
  6
CONTINUOUS
 90
8
 70
0
 10
4.0226583914
 20
3.1260150235
 10
4.0221835565
 20
3.1269641407
 10
4.0247732709
 20
3.1291706872
 10
4.0324001061
 20
3.1313458686
 10
4.0448631172
 20
3.1335026271
 10
4.0620694256
 20
3.1356643169
 10
4.0837717159
 20
3.1378318496
 10
4.1093771008
 20
3.1399869314
  0
LINE
  5
50F
100
AcDbEntity
  8
02___PRT_ALL_AXES
100
AcDbLine
 62
7
  6
CONTINUOUS
 10
3.6663439605
 20
4.1269456485
 11
3.6665697186
 21
4.1272064151
  0
LINE
  5
510
100
AcDbEntity
  8
02___PRT_ALL_AXES
100
AcDbLine
 62
7
  6
CONTINUOUS
 10
3.6663439605
 20
4.0678905304
 11
3.6665697186
 21
4.068151297
  0
LINE
  5
511
100
AcDbEntity
  8
02___PRT_ALL_AXES
100
AcDbLine
 62
7
  6
CONTINUOUS
 10
3.6663439605
 20
4.0088354123
 11
3.6665697186
 21
4.0090961789
  0
LINE
  5
512
100
AcDbEntity
  8
0
100
AcDbLine
 62
7
  6
CONTINUOUS
 10
3.7020172841
 20
4.2067355803
 11
3.6665697186
 21
4.1862615332
  0
LWPOLYLINE
  5
513
100
AcDbEntity
  8
02___PRT_ALL_AXES
100
AcDbPolyline
 62
7
  6
CONTINUOUS
 90
10
 70
0
 10
4.8041392361
 20
3.6454343848
 10
4.7976116528
 20
3.6439864953
 10
4.7784919573
 20
3.6425559475
 10
4.7469421015
 20
3.6411146554
 10
4.7031847997
 20
3.6396551866
 10
4.6485159723
 20
3.6381938217
 10
4.5851094536
 20
3.6367496583
 10
4.5144048142
 20
3.6353157236
 10
4.4377518387
 20
3.6338840555
 10
4.3566555132
 20
3.6324495397
  0
LWPOLYLINE
  5
514
100
AcDbEntity
  8
0
100
AcDbPolyline
 62
7
  6
CONTINUOUS
 90
9
 70
0
 10
4.0396476215
 20
3.4316436873
 10
4.0445005281
 20
3.4327014059
 10
4.0546111198
 20
3.4337068245
 10
4.0698175391
 20
3.4347122432
 10
4.0897291107
 20
3.4357176619
 10
4.1138342769
 20
3.4367230806
 10
4.1415137405
 20
3.4377284993
 10
4.172056375
 20
3.4387339179
 10
4.2046774952
 20
3.4397393366
  0
LINE
  5
515
100
AcDbEntity
  8
0
100
AcDbLine
 62
9
  6
CONTINUOUS
 10
4.4972297873
 20
3.4830741609
 11
4.0086864802
 21
3.4830741609
  0
LINE
  5
516
100
AcDbEntity
  8
0
100
AcDbLine
 62
7
  6
CONTINUOUS
 10
4.7647691574
 20
3.4982547036
 11
3.7411471101
 21
3.4982547036
  0
LINE
  5
517
100
AcDbEntity
  8
0
100
AcDbLine
 62
9
  6
CONTINUOUS
 10
3.7017770314
 20
3.5376247824
 11
4.8041392361
 21
3.5376247824
  0
LINE
  5
518
100
AcDbEntity
  8
0
100
AcDbLine
 62
7
  6
CONTINUOUS
 10
3.6665697186
 20
3.7649722835
 11
3.7020172841
 21
3.7444982364
  0
LINE
  5
519
100
AcDbEntity
  8
0
100
AcDbLine
 62
7
  6
CONTINUOUS
 10
3.6665697186
 20
3.8240274016
 11
3.7020172841
 21
3.8035533545
  0
LINE
  5
51A
100
AcDbEntity
  8
0
100
AcDbLine
 62
7
  6
CONTINUOUS
 10
4.4969890476
 20
3.2760919698
 11
4.4668189609
 21
3.2935302943
  0
LINE
  5
51B
100
AcDbEntity
  8
0
100
AcDbLine
 62
7
  6
CONTINUOUS
 10
4.4969890476
 20
3.3154620486
 11
4.4668189609
 21
3.3329003731
  0
LINE
  5
51C
100
AcDbEntity
  8
02___PRT_ALL_AXES
100
AcDbLine
 62
7
  6
CONTINUOUS
 10
3.6665697186
 20
3.8830825197
 11
3.6663439605
 21
3.8833432863
  0
LINE
  5
51D
100
AcDbEntity
  8
02___PRT_ALL_AXES
100
AcDbLine
 62
7
  6
CONTINUOUS
 10
3.6665697186
 20
3.9421376379
 11
3.6663439605
 21
3.9423984044
  0
LINE
  5
51E
100
AcDbEntity
  8
02___PRT_ALL_AXES
100
AcDbLine
 62
7
  6
CONTINUOUS
 10
3.6665697186
 20
4.001192756
 11
3.6663439605
 21
4.0014535225
  0
LINE
  5
51F
100
AcDbEntity
  8
02___PRT_ALL_AXES
100
AcDbLine
 62
7
  6
CONTINUOUS
 10
3.6663439605
 20
3.9497802942
 11
3.6665697186
 21
3.9500410608
  0
LINE
  5
520
100
AcDbEntity
  8
02___PRT_ALL_AXES
100
AcDbLine
 62
7
  6
CONTINUOUS
 10
3.6663439605
 20
3.8907251761
 11
3.6665697186
 21
3.8909859427
  0
LINE
  5
521
100
AcDbEntity
  8
0
100
AcDbLine
 62
7
  6
CONTINUOUS
 10
3.7020172841
 20
4.1476804622
 11
3.6665697186
 21
4.1272064151
  0
LINE
  5
522
100
AcDbEntity
  8
0
100
AcDbLine
 62
7
  6
CONTINUOUS
 10
3.7020172841
 20
4.0886253441
 11
3.6665697186
 21
4.068151297
  0
LWPOLYLINE
  5
523
100
AcDbEntity
  8
02___PRT_ALL_AXES
100
AcDbPolyline
 62
7
  6
CONTINUOUS
 90
9
 70
0
 10
3.6663439605
 20
4.1786188769
 10
3.6681438294
 20
4.1793553348
 10
3.6824765794
 20
4.1808282506
 10
3.7107908094
 20
4.1823011665
 10
3.7523925884
 20
4.1837740823
 10
3.8062623314
 20
4.1852469982
 10
3.8710797875
 20
4.186719914
 10
3.9452563972
 20
4.1881928299
 10
4.0269742247
 20
4.1896657457
  0
LWPOLYLINE
  5
524
100
AcDbEntity
  8
02___PRT_ALL_AXES
100
AcDbPolyline
 62
7
  6
CONTINUOUS
 90
10
 70
0
 10
4.8041392361
 20
3.76354473
 10
4.797830007
 20
3.7621212022
 10
4.778828037
 20
3.7606852534
 10
4.7474463523
 20
3.7592443163
 10
4.7038492755
 20
3.7577850942
 10
4.6493190984
 20
3.7563237448
 10
4.5860027346
 20
3.7548789969
 10
4.5156409066
 20
3.7534499196
 10
4.438597417
 20
3.7520096011
 10
4.3566555132
 20
3.7505597759
  0
LWPOLYLINE
  5
525
100
AcDbEntity
  8
02___PRT_ALL_AXES
100
AcDbPolyline
 62
7
  6
CONTINUOUS
 90
6
 70
0
 10
4.8041392361
 20
3.7044895557
 10
4.7975121981
 20
3.7030306026
 10
4.7781064548
 20
3.7015893411
 10
4.7466513759
 20
3.7001586111
 10
4.7038349528
 20
3.6987295514
 10
4.6503278248
 20
3.6972934142
  0
LWPOLYLINE
  5
526
100
AcDbEntity
  8
02___PRT_ALL_AXES
100
AcDbPolyline
 62
7
  6
CONTINUOUS
 90
4
 70
0
 10
4.4789420428
 20
3.606548386
 10
4.4380019371
 20
3.5975425635
 10
4.3972139097
 20
3.5900460665
 10
4.3566555132
 20
3.5841530639
  0
LWPOLYLINE
  5
527
100
AcDbEntity
  8
02___PRT_ALL_AXES
100
AcDbPolyline
 62
7
  6
CONTINUOUS
 90
4
 70
0
 10
4.4789420428
 20
3.6656035041
 10
4.4379649631
 20
3.6565902027
 10
4.3971846692
 20
3.649096364
 10
4.3566555132
 20
3.6432081821
  0
LWPOLYLINE
  5
528
100
AcDbEntity
  8
02___PRT_ALL_AXES
100
AcDbPolyline
 62
7
  6
CONTINUOUS
 90
9
 70
0
 10
4.4789420428
 20
3.606548386
 10
4.5606598703
 20
3.6080213018
 10
4.63483648
 20
3.6094942177
 10
4.6996539361
 20
3.6109671335
 10
4.7535236791
 20
3.6124400494
 10
4.7951254581
 20
3.6139129652
 10
4.8234396881
 20
3.6153858811
 10
4.8377724381
 20
3.6168587969
 10
4.839346549
 20
3.6173344882
  0
LWPOLYLINE
  5
529
100
AcDbEntity
  8
02___PRT_ALL_AXES
100
AcDbPolyline
 62
7
  6
CONTINUOUS
 90
9
 70
0
 10
4.4789420428
 20
3.6139302758
 10
4.5606598703
 20
3.6154031916
 10
4.63483648
 20
3.6168761074
 10
4.6996539361
 20
3.6183490233
 10
4.7535236791
 20
3.6198219391
 10
4.7951254581
 20
3.621294855
 10
4.8234396881
 20
3.6227677708
 10
4.8377724381
 20
3.6242406867
 10
4.839572307
 20
3.6249771446
  0
LWPOLYLINE
  5
52A
100
AcDbEntity
  8
02___PRT_ALL_AXES
100
AcDbPolyline
 62
7
  6
CONTINUOUS
 90
10
 70
0
 10
4.3566555132
 20
3.5841530639
 10
4.4377518387
 20
3.5855875798
 10
4.5144048142
 20
3.5870192479
 10
4.5851094536
 20
3.5884531826
 10
4.6485159723
 20
3.5898973459
 10
4.7031847997
 20
3.5913587109
 10
4.7469421015
 20
3.5928181797
 10
4.7784919573
 20
3.5942594717
 10
4.7976116528
 20
3.5956900195
 10
4.8038989835
 20
3.5968604411
  0
LWPOLYLINE
  5
52B
100
AcDbEntity
  8
02___PRT_ALL_AXES
100
AcDbPolyline
 62
7
  6
CONTINUOUS
 90
10
 70
0
 10
4.1492607543
 20
3.6288917764
 10
4.0668369208
 20
3.6274332219
 10
3.9891124265
 20
3.6259790609
 10
3.9185491745
 20
3.6245433225
 10
3.8561618168
 20
3.6231171179
 10
3.8027720979
 20
3.6216873304
 10
3.759538591
 20
3.6202483076
 10
3.7279561468
 20
3.6188152985
 10
3.7085002164
 20
3.6173763985
 10
3.7020172841
 20
3.6161843992
  0
LWPOLYLINE
  5
52C
100
AcDbEntity
  8
02___PRT_ALL_AXES
100
AcDbPolyline
 62
7
  6
CONTINUOUS
 90
10
 70
0
 10
4.3566555132
 20
3.6432081821
 10
4.4391951333
 20
3.6446688343
 10
4.5170198707
 20
3.6461250939
 10
4.5876834171
 20
3.6475634235
 10
4.6503278248
 20
3.6489969384
 10
4.7038349528
 20
3.6504330757
 10
4.7466513759
 20
3.6518621353
 10
4.7781064548
 20
3.6532928653
 10
4.7975121981
 20
3.6547341268
 10
4.8038989835
 20
3.6559155592
  0
LWPOLYLINE
  5
52D
100
AcDbEntity
  8
02___PRT_ALL_AXES
100
AcDbPolyline
 62
7
  6
CONTINUOUS
 90
5
 70
0
 10
4.1492607543
 20
3.6396504187
 10
4.1190084293
 20
3.6428927534
 10
4.0878284326
 20
3.6471814531
 10
4.056750729
 20
3.652374405
 10
4.0269742247
 20
3.6581696827
  0
LWPOLYLINE
  5
52E
100
AcDbEntity
  8
02___PRT_ALL_AXES
100
AcDbPolyline
 62
7
  6
CONTINUOUS
 90
4
 70
0
 10
4.1492607543
 20
3.5805953006
 10
4.1087324828
 20
3.5851465983
 10
4.0679490045
 20
3.5913450987
 10
4.0269742247
 20
3.5991145646
  0
LWPOLYLINE
  5
52F
100
AcDbEntity
  8
02___PRT_ALL_AXES
100
AcDbPolyline
 62
7
  6
CONTINUOUS
 90
4
 70
0
 10
4.3566555132
 20
3.6324495397
 10
4.3972233304
 20
3.6278930046
 10
4.4380148664
 20
3.6216915925
 10
4.4789420428
 20
3.6139302758
  0
LINE
  5
530
100
AcDbEntity
  8
0
100
AcDbLine
 62
7
  6
CONTINUOUS
 10
3.6665697186
 20
3.8830825197
 11
3.7020172841
 21
3.8626084726
  0
LINE
  5
531
100
AcDbEntity
  8
0
100
AcDbLine
 62
7
  6
CONTINUOUS
 10
4.4969890476
 20
3.3548321273
 11
4.4668189609
 21
3.3722704518
  0
LINE
  5
532
100
AcDbEntity
  8
0
100
AcDbLine
 62
7
  6
CONTINUOUS
 10
4.4969890476
 20
3.3942022061
 11
4.4668189609
 21
3.4116405305
  0
LINE
  5
533
100
AcDbEntity
  8
0
100
AcDbLine
 62
7
  6
CONTINUOUS
 10
4.4969890476
 20
3.4335722848
 11
4.4668189609
 21
3.4510106093
  0
LINE
  5
534
100
AcDbEntity
  8
02___PRT_ALL_AXES
100
AcDbLine
 62
7
  6
CONTINUOUS
 10
3.6665697186
 20
4.0602478741
 11
3.6663439605
 21
4.0605086407
  0
LINE
  5
535
100
AcDbEntity
  8
02___PRT_ALL_AXES
100
AcDbLine
 62
7
  6
CONTINUOUS
 10
3.6665697186
 20
4.1193029922
 11
3.6663439605
 21
4.1195637588
  0
LINE
  5
536
100
AcDbEntity
  8
0
100
AcDbLine
 62
7
  6
CONTINUOUS
 10
4.4972297873
 20
3.1577035219
 11
4.4969890476
 21
3.1579817336
  0
LINE
  5
537
100
AcDbEntity
  8
02___PRT_ALL_AXES
100
AcDbLine
 62
7
  6
CONTINUOUS
 10
3.6663439605
 20
3.831670058
 11
3.6665697186
 21
3.8319308246
  0
LINE
  5
538
100
AcDbEntity
  8
02___PRT_ALL_AXES
100
AcDbLine
 62
7
  6
CONTINUOUS
 10
3.6663439605
 20
3.7726149399
 11
3.6665697186
 21
3.7728757064
  0
LINE
  5
539
100
AcDbEntity
  8
0
100
AcDbLine
 62
7
  6
CONTINUOUS
 10
3.7020172841
 20
4.029570226
 11
3.6665697186
 21
4.0090961789
  0
LWPOLYLINE
  5
53A
100
AcDbEntity
  8
02___PRT_ALL_AXES
100
AcDbPolyline
 62
7
  6
CONTINUOUS
 90
9
 70
0
 10
3.6663439605
 20
4.1195637588
 10
3.6681438294
 20
4.1203002167
 10
3.6824765794
 20
4.1217731325
 10
3.7107908094
 20
4.1232460484
 10
3.7523925884
 20
4.1247189642
 10
3.8062623314
 20
4.1261918801
 10
3.8710797875
 20
4.1276647959
 10
3.9452563972
 20
4.1291377118
 10
4.0269742247
 20
4.1306106276
  0
LWPOLYLINE
  5
53B
100
AcDbEntity
  8
02___PRT_ALL_AXES
100
AcDbPolyline
 62
7
  6
CONTINUOUS
 90
9
 70
0
 10
3.6663439605
 20
4.0605086407
 10
3.6681438294
 20
4.0612450986
 10
3.6824765794
 20
4.0627180144
 10
3.7107908094
 20
4.0641909303
 10
3.7523925884
 20
4.0656638461
 10
3.8062623314
 20
4.067136762
 10
3.8710797875
 20
4.0686096778
 10
3.9452563972
 20
4.0700825936
 10
4.0269742247
 20
4.0715555095
  0
LWPOLYLINE
  5
53C
100
AcDbEntity
  8
02___PRT_ALL_AXES
100
AcDbPolyline
 62
7
  6
CONTINUOUS
 90
9
 70
0
 10
3.6665697186
 20
4.1862615332
 10
3.6681438294
 20
4.1867372246
 10
3.6824765794
 20
4.1882101404
 10
3.7107908094
 20
4.1896830562
 10
3.7523925884
 20
4.1911559721
 10
3.8062623314
 20
4.1926288879
 10
3.8710797875
 20
4.1941018038
 10
3.9452563972
 20
4.1955747196
 10
4.0269742247
 20
4.1970476355
  0
LWPOLYLINE
  5
53D
100
AcDbEntity
  8
02___PRT_ALL_AXES
100
AcDbPolyline
 62
7
  6
CONTINUOUS
 90
9
 70
0
 10
3.6665697186
 20
4.1272064151
 10
3.6681438294
 20
4.1276821064
 10
3.6824765794
 20
4.1291550223
 10
3.7107908094
 20
4.1306279381
 10
3.7523925884
 20
4.132100854
 10
3.8062623314
 20
4.1335737698
 10
3.8710797875
 20
4.1350466857
 10
3.9452563972
 20
4.1365196015
 10
4.0269742247
 20
4.1379925174
  0
LWPOLYLINE
  5
53E
100
AcDbEntity
  8
02___PRT_ALL_AXES
100
AcDbPolyline
 62
7
  6
CONTINUOUS
 90
5
 70
0
 10
4.0269742247
 20
3.6655515725
 10
4.0567666248
 20
3.6722476329
 10
4.0877031593
 20
3.6783849788
 10
4.118835964
 20
3.6836757932
 10
4.1492607543
 20
3.6879468945
  0
LWPOLYLINE
  5
53F
100
AcDbEntity
  8
02___PRT_ALL_AXES
100
AcDbPolyline
 62
7
  6
CONTINUOUS
 90
10
 70
0
 10
4.8041392361
 20
3.8225997917
 10
4.7976422008
 20
3.8211552483
 10
4.7783925713
 20
3.8197156859
 10
4.7472033641
 20
3.8182900639
 10
4.704160056
 20
3.8168494328
 10
4.6502307826
 20
3.8154012628
 10
4.5874002982
 20
3.8139640603
 10
4.51678993
 20
3.8125273394
 10
4.4390706505
 20
3.811073291
 10
4.3566555132
 20
3.809614894
  0
LWPOLYLINE
  5
540
100
AcDbEntity
  8
02___PRT_ALL_AXES
100
AcDbPolyline
 62
7
  6
CONTINUOUS
 90
4
 70
0
 10
4.0269742247
 20
3.6064964544
 10
4.0679451505
 20
3.6155085111
 10
4.1087249792
 20
3.6230025033
 10
4.1492607543
 20
3.6288917764
  0
LWPOLYLINE
  5
541
100
AcDbEntity
  8
02___PRT_ALL_AXES
100
AcDbPolyline
 62
7
  6
CONTINUOUS
 90
4
 70
0
 10
4.4789420428
 20
3.7246586222
 10
4.4379649631
 20
3.7156453208
 10
4.3971846692
 20
3.7081514821
 10
4.3566555132
 20
3.7022633002
  0
LWPOLYLINE
  5
542
100
AcDbEntity
  8
02___PRT_ALL_AXES
100
AcDbPolyline
 62
7
  6
CONTINUOUS
 90
4
 70
0
 10
4.4789420428
 20
3.7837137403
 10
4.4379649631
 20
3.7747004389
 10
4.3971846692
 20
3.7672066002
 10
4.3566555132
 20
3.7613184183
  0
LWPOLYLINE
  5
543
100
AcDbEntity
  8
02___PRT_ALL_AXES
100
AcDbPolyline
 62
7
  6
CONTINUOUS
 90
10
 70
0
 10
3.7017770314
 20
3.5676104026
 10
3.7085002164
 20
3.5690799227
 10
3.7279561468
 20
3.5705188227
 10
3.759538591
 20
3.5719518318
 10
3.8027720979
 20
3.5733908546
 10
3.8561618168
 20
3.5748206421
 10
3.9185491745
 20
3.5762468467
 10
3.9891124265
 20
3.5776825851
 10
4.0668369208
 20
3.5791367461
 10
4.1492607543
 20
3.5805953006
  0
LINE
  5
544
100
AcDbEntity
  8
02___PRT_ALL_AXES
100
AcDbLine
 62
7
  6
CONTINUOUS
 10
4.6503278248
 20
3.6972934142
 11
4.5876834171
 21
3.6958598993
  0
LINE
  5
545
100
AcDbEntity
  8
02___PRT_ALL_AXES
100
AcDbLine
 62
7
  6
CONTINUOUS
 10
4.5876834171
 20
3.6958598993
 11
4.5170198707
 21
3.6944215696
  0
LINE
  5
546
100
AcDbEntity
  8
02___PRT_ALL_AXES
100
AcDbLine
 62
7
  6
CONTINUOUS
 10
3.9186866945
 20
3.6943600326
 11
3.9892382703
 21
3.6957952653
  0
LWPOLYLINE
  5
547
100
AcDbEntity
  8
02___PRT_ALL_AXES
100
AcDbPolyline
 62
7
  6
CONTINUOUS
 90
3
 70
0
 10
4.5170198707
 20
3.6944215696
 10
4.4391951333
 20
3.6929653101
 10
4.3566555132
 20
3.6915046578
  0
LWPOLYLINE
  5
548
100
AcDbEntity
  8
02___PRT_ALL_AXES
100
AcDbPolyline
 62
7
  6
CONTINUOUS
 90
3
 70
0
 10
3.9892382703
 20
3.6957952653
 10
4.0669032997
 20
3.6972481849
 10
4.1492607543
 20
3.6987055369
  0
LWPOLYLINE
  5
549
100
AcDbEntity
  8
02___PRT_ALL_AXES
100
AcDbPolyline
 62
7
  6
CONTINUOUS
 90
9
 70
0
 10
4.4789420428
 20
3.6656035041
 10
4.5606598703
 20
3.6670764199
 10
4.63483648
 20
3.6685493358
 10
4.6996539361
 20
3.6700222516
 10
4.7535236791
 20
3.6714951675
 10
4.7951254581
 20
3.6729680833
 10
4.8234396881
 20
3.6744409992
 10
4.8377724381
 20
3.675913915
 10
4.839346549
 20
3.6763896064
  0
LWPOLYLINE
  5
54A
100
AcDbEntity
  8
02___PRT_ALL_AXES
100
AcDbPolyline
 62
7
  6
CONTINUOUS
 90
9
 70
0
 10
4.4789420428
 20
3.6729853939
 10
4.5606598703
 20
3.6744583097
 10
4.63483648
 20
3.6759312256
 10
4.6996539361
 20
3.6774041414
 10
4.7535236791
 20
3.6788770572
 10
4.7951254581
 20
3.6803499731
 10
4.8234396881
 20
3.6818228889
 10
4.8377724381
 20
3.6832958048
 10
4.839572307
 20
3.6840322627
  0
LWPOLYLINE
  5
54B
100
AcDbEntity
  8
02___PRT_ALL_AXES
100
AcDbPolyline
 62
7
  6
CONTINUOUS
 90
9
 70
0
 10
4.4789420428
 20
3.7246586222
 10
4.5606598703
 20
3.7261315381
 10
4.63483648
 20
3.7276044539
 10
4.6996539361
 20
3.7290773697
 10
4.7535236791
 20
3.7305502856
 10
4.7951254581
 20
3.7320232014
 10
4.8234396881
 20
3.7334961173
 10
4.8377724381
 20
3.7349690331
 10
4.839346549
 20
3.7354447245
  0
LWPOLYLINE
  5
54C
100
AcDbEntity
  8
02___PRT_ALL_AXES
100
AcDbPolyline
 62
7
  6
CONTINUOUS
 90
9
 70
0
 10
4.4789420428
 20
3.732040512
 10
4.5606598703
 20
3.7335134278
 10
4.63483648
 20
3.7349863437
 10
4.6996539361
 20
3.7364592595
 10
4.7535236791
 20
3.7379321754
 10
4.7951254581
 20
3.7394050912
 10
4.8234396881
 20
3.740878007
 10
4.8377724381
 20
3.7423509229
 10
4.839572307
 20
3.7430873808
  0
LWPOLYLINE
  5
54D
100
AcDbEntity
  8
02___PRT_ALL_AXES
100
AcDbPolyline
 62
7
  6
CONTINUOUS
 90
10
 70
0
 10
4.1492607543
 20
3.6879468945
 10
4.0682332013
 20
3.6865136235
 10
3.9911329105
 20
3.6850733767
 10
3.9205171378
 20
3.6836405846
 10
3.8573505822
 20
3.6822013952
 10
3.8028514327
 20
3.6807447928
 10
3.7591915854
 20
3.6792901292
 10
3.7276527014
 20
3.6778533765
 10
3.7084516107
 20
3.6764261842
 10
3.7020172841
 20
3.6752395173
  0
LWPOLYLINE
  5
54E
100
AcDbEntity
  8
02___PRT_ALL_AXES
100
AcDbPolyline
 62
7
  6
CONTINUOUS
 90
10
 70
0
 10
4.3566555132
 20
3.7022633002
 10
4.438597417
 20
3.7037131253
 10
4.5156409066
 20
3.7051534438
 10
4.5860027346
 20
3.7065825211
 10
4.6493190984
 20
3.7080272691
 10
4.7038492755
 20
3.7094886184
 10
4.7474463523
 20
3.7109478405
 10
4.778828037
 20
3.7123887777
 10
4.797830007
 20
3.7138247264
 10
4.8038989835
 20
3.7149706773
  0
LWPOLYLINE
  5
54F
100
AcDbEntity
  8
02___PRT_ALL_AXES
100
AcDbPolyline
 62
7
  6
CONTINUOUS
 90
4
 70
0
 10
4.1492607543
 20
3.6987055369
 10
4.1087324828
 20
3.7032568345
 10
4.0679490045
 20
3.7094553349
 10
4.0269742247
 20
3.7172248008
  0
LWPOLYLINE
  5
550
100
AcDbEntity
  8
02___PRT_ALL_AXES
100
AcDbPolyline
 62
7
  6
CONTINUOUS
 90
4
 70
0
 10
4.3566555132
 20
3.6915046578
 10
4.3971907047
 20
3.6869524438
 10
4.4379736605
 20
3.6807537648
 10
4.4789420428
 20
3.6729853939
  0
LINE
  5
551
100
AcDbEntity
  8
0
100
AcDbLine
 62
7
  6
CONTINUOUS
 10
3.6665697186
 20
3.9421376379
 11
3.7020172841
 21
3.9216635907
  0
LINE
  5
552
100
AcDbEntity
  8
0
100
AcDbLine
 62
7
  6
CONTINUOUS
 10
3.6665697186
 20
4.001192756
 11
3.7020172841
 21
3.9807187088
  0
LINE
  5
553
100
AcDbEntity
  8
02___PRT_ALL_AXES
100
AcDbLine
 62
7
  6
CONTINUOUS
 10
3.6665697186
 20
4.1783581103
 11
3.6663439605
 21
4.1786188769
  0
LINE
  5
554
100
AcDbEntity
  8
0
100
AcDbLine
 62
7
  6
CONTINUOUS
 10
4.4969890476
 20
3.1973518124
 11
4.4972297873
 21
3.1970735953
  0
LINE
  5
555
100
AcDbEntity
  8
0
100
AcDbLine
 62
7
  6
CONTINUOUS
 10
4.4969890476
 20
3.2367218911
 11
4.4972297873
 21
3.23644368
  0
LINE
  5
556
100
AcDbEntity
  8
0
100
AcDbLine
 62
7
  6
CONTINUOUS
 10
4.4969890476
 20
3.2760919698
 11
4.4972297873
 21
3.2758137587
  0
LINE
  5
557
100
AcDbEntity
  8
0
100
AcDbLine
 62
7
  6
CONTINUOUS
 10
4.4969890476
 20
3.3154620486
 11
4.4972297873
 21
3.3151838417
  0
LINE
  5
558
100
AcDbEntity
  8
02___PRT_ALL_AXES
100
AcDbLine
 62
7
  6
CONTINUOUS
 10
4.0086864802
 20
3.4830741609
 11
4.0086864802
 21
3.4490421052
  0
LINE
  5
559
100
AcDbEntity
  8
02___PRT_ALL_AXES
100
AcDbLine
 62
7
  6
CONTINUOUS
 10
4.0086864802
 20
3.4136090344
 11
4.0086864802
 21
3.4096720265
  0
LINE
  5
55A
100
AcDbEntity
  8
02___PRT_ALL_AXES
100
AcDbLine
 62
7
  6
CONTINUOUS
 10
4.0086864802
 20
3.3742389556
 11
4.0086864802
 21
3.3703019477
  0
LINE
  5
55B
100
AcDbEntity
  8
02___PRT_ALL_AXES
100
AcDbLine
 62
7
  6
CONTINUOUS
 10
4.0086864802
 20
3.3348688769
 11
4.0086864802
 21
3.330931869
  0
LINE
  5
55C
100
AcDbEntity
  8
02___PRT_ALL_AXES
100
AcDbLine
 62
7
  6
CONTINUOUS
 10
4.0086864802
 20
3.2954987981
 11
4.0086864802
 21
3.2915617903
  0
LINE
  5
55D
100
AcDbEntity
  8
02___PRT_ALL_AXES
100
AcDbLine
 62
7
  6
CONTINUOUS
 10
4.0086864802
 20
3.2561287194
 11
4.0086864802
 21
3.2521917115
  0
LINE
  5
55E
100
AcDbEntity
  8
02___PRT_ALL_AXES
100
AcDbLine
 62
7
  6
CONTINUOUS
 10
4.0086864802
 20
3.2167586407
 11
4.0086864802
 21
3.2128216328
  0
LINE
  5
55F
100
AcDbEntity
  8
02___PRT_ALL_AXES
100
AcDbLine
 62
7
  6
CONTINUOUS
 10
4.0086864802
 20
3.1773885619
 11
4.0086864802
 21
3.173451554
  0
LINE
  5
560
100
AcDbEntity
  8
02___PRT_ALL_AXES
100
AcDbLine
 62
7
  6
CONTINUOUS
 10
4.0269742247
 20
3.5991145646
 11
4.0269742247
 21
3.6064964544
  0
LINE
  5
561
100
AcDbEntity
  8
02___PRT_ALL_AXES
100
AcDbLine
 62
7
  6
CONTINUOUS
 10
4.0269742247
 20
3.6581696827
 11
4.0269742247
 21
3.6655515725
  0
LINE
  5
562
100
AcDbEntity
  8
02___PRT_ALL_AXES
100
AcDbLine
 62
7
  6
CONTINUOUS
 10
4.0269742247
 20
3.7172248008
 11
4.0269742247
 21
3.7246066906
  0
LINE
  5
563
100
AcDbEntity
  8
02___PRT_ALL_AXES
100
AcDbLine
 62
7
  6
CONTINUOUS
 10
4.0269742247
 20
3.7762799189
 11
4.0269742247
 21
3.7836618087
  0
LINE
  5
564
100
AcDbEntity
  8
02___PRT_ALL_AXES
100
AcDbLine
 62
7
  6
CONTINUOUS
 10
4.0269742247
 20
3.835335037
 11
4.0269742247
 21
3.8427169268
  0
LINE
  5
565
100
AcDbEntity
  8
02___PRT_ALL_AXES
100
AcDbLine
 62
7
  6
CONTINUOUS
 10
4.0269742247
 20
3.8943901552
 11
4.0269742247
 21
3.9017720449
  0
LINE
  5
566
100
AcDbEntity
  8
02___PRT_ALL_AXES
100
AcDbLine
 62
7
  6
CONTINUOUS
 10
4.0269742247
 20
3.9534452733
 11
4.0269742247
 21
3.960827163
  0
LINE
  5
567
100
AcDbEntity
  8
02___PRT_ALL_AXES
100
AcDbLine
 62
7
  6
CONTINUOUS
 10
4.0269742247
 20
4.0125003914
 11
4.0269742247
 21
4.0198822811
  0
LINE
  5
568
100
AcDbEntity
  8
02___PRT_ALL_AXES
100
AcDbLine
 62
7
  6
CONTINUOUS
 10
4.0269742247
 20
4.0715555095
 11
4.0269742247
 21
4.0789373993
  0
LINE
  5
569
100
AcDbEntity
  8
02___PRT_ALL_AXES
100
AcDbLine
 62
7
  6
CONTINUOUS
 10
4.0269742247
 20
4.1306106276
 11
4.0269742247
 21
4.1379925174
  0
LINE
  5
56A
100
AcDbEntity
  8
02___PRT_ALL_AXES
100
AcDbLine
 62
7
  6
CONTINUOUS
 10
4.0269742247
 20
4.1896657457
 11
4.0269742247
 21
4.1970476355
  0
LINE
  5
56B
100
AcDbEntity
  8
0
100
AcDbLine
 62
7
  6
CONTINUOUS
 10
4.0492179763
 20
3.1045539162
 11
4.0492179763
 21
3.0651838375
  0
LINE
  5
56C
100
AcDbEntity
  8
02___PRT_ALL_AXES
100
AcDbLine
 62
7
  6
CONTINUOUS
 10
3.6663439605
 20
3.7135598218
 11
3.6665697186
 21
3.7138205883
  0
LINE
  5
56D
100
AcDbEntity
  8
02___PRT_ALL_AXES
100
AcDbLine
 62
7
  6
CONTINUOUS
 10
3.6663439605
 20
3.6545047036
 11
3.6665697186
 21
3.6547654702
  0
LINE
  5
56E
100
AcDbEntity
  8
02___PRT_ALL_AXES
100
AcDbLine
 62
7
  6
CONTINUOUS
 10
3.6663439605
 20
3.5954495855
 11
3.6665697186
 21
3.5957103521
  0
LINE
  5
56F
100
AcDbEntity
  8
0
100
AcDbLine
 62
7
  6
CONTINUOUS
 10
3.7020172841
 20
3.9705151079
 11
3.6665697186
 21
3.9500410608
  0
LINE
  5
570
100
AcDbEntity
  8
0
100
AcDbLine
 62
7
  6
CONTINUOUS
 10
3.7020172841
 20
3.9114599898
 11
3.6665697186
 21
3.8909859427
  0
LWPOLYLINE
  5
571
100
AcDbEntity
  8
02___PRT_ALL_AXES
100
AcDbPolyline
 62
7
  6
CONTINUOUS
 90
9
 70
0
 10
3.6663439605
 20
4.0014535225
 10
3.6681438294
 20
4.0021899805
 10
3.6824765794
 20
4.0036628963
 10
3.7107908094
 20
4.0051358122
 10
3.7523925884
 20
4.006608728
 10
3.8062623314
 20
4.0080816438
 10
3.8710797875
 20
4.0095545597
 10
3.9452563972
 20
4.0110274755
 10
4.0269742247
 20
4.0125003914
  0
LWPOLYLINE
  5
572
100
AcDbEntity
  8
02___PRT_ALL_AXES
100
AcDbPolyline
 62
7
  6
CONTINUOUS
 90
9
 70
0
 10
3.6665697186
 20
4.068151297
 10
3.6681438294
 20
4.0686269883
 10
3.6824765794
 20
4.0700999042
 10
3.7107908094
 20
4.07157282
 10
3.7523925884
 20
4.0730457359
 10
3.8062623314
 20
4.0745186517
 10
3.8710797875
 20
4.0759915676
 10
3.9452563972
 20
4.0774644834
 10
4.0269742247
 20
4.0789373993
  0
LWPOLYLINE
  5
573
100
AcDbEntity
  8
02___PRT_ALL_AXES
100
AcDbPolyline
 62
7
  6
CONTINUOUS
 90
9
 70
0
 10
3.6665697186
 20
4.0090961789
 10
3.6681438294
 20
4.0095718702
 10
3.6824765794
 20
4.0110447861
 10
3.7107908094
 20
4.0125177019
 10
3.7523925884
 20
4.0139906178
 10
3.8062623314
 20
4.0154635336
 10
3.8710797875
 20
4.0169364495
 10
3.9452563972
 20
4.0184093653
 10
4.0269742247
 20
4.0198822811
  0
LWPOLYLINE
  5
574
100
AcDbEntity
  8
02___PRT_ALL_AXES
100
AcDbPolyline
 62
7
  6
CONTINUOUS
 90
7
 70
0
 10
3.7017770314
 20
3.6857206113
 10
3.7081405502
 20
3.6871502336
 10
3.7271996381
 20
3.6885863944
 10
3.7584969369
 20
3.6900220395
 10
3.8018560789
 20
3.6914739625
 10
3.8559777195
 20
3.6929263542
 10
3.9186866945
 20
3.6943600326
  0
LWPOLYLINE
  5
575
100
AcDbEntity
  8
02___PRT_ALL_AXES
100
AcDbPolyline
 62
7
  6
CONTINUOUS
 90
10
 70
0
 10
4.8041392361
 20
3.8816549333
 10
4.7977571459
 20
3.8802232268
 10
4.7786793191
 20
3.878787036
 10
4.7473667159
 20
3.8773514793
 10
4.7040037163
 20
3.8758999109
 10
4.6498994859
 20
3.8744482346
 10
4.5872234574
 20
3.8730153853
 10
4.5166753963
 20
3.8715802332
 10
4.4390091736
 20
3.8701272954
 10
4.3566555132
 20
3.8686700122
  0
LWPOLYLINE
  5
576
100
AcDbEntity
  8
02___PRT_ALL_AXES
100
AcDbPolyline
 62
7
  6
CONTINUOUS
 90
4
 70
0
 10
4.0269742247
 20
3.7246066906
 10
4.0679451505
 20
3.7336187473
 10
4.1087249792
 20
3.7411127395
 10
4.1492607543
 20
3.7470020126
  0
LWPOLYLINE
  5
577
100
AcDbEntity
  8
02___PRT_ALL_AXES
100
AcDbPolyline
 62
7
  6
CONTINUOUS
 90
4
 70
0
 10
4.4789420428
 20
3.8427688584
 10
4.4379649631
 20
3.833755557
 10
4.3971846692
 20
3.8262617184
 10
4.3566555132
 20
3.8203735364
  0
LWPOLYLINE
  5
578
100
AcDbEntity
  8
02___PRT_ALL_AXES
100
AcDbPolyline
 62
7
  6
CONTINUOUS
 90
10
 70
0
 10
3.7017770314
 20
3.6266655441
 10
3.7084516107
 20
3.6281297084
 10
3.7276527014
 20
3.6295569008
 10
3.7591915854
 20
3.6309936534
 10
3.8028514327
 20
3.6324483171
 10
3.8573505822
 20
3.6339049194
 10
3.9205171378
 20
3.6353441088
 10
3.9911329105
 20
3.6367769009
 10
4.0682332013
 20
3.6382171477
 10
4.1492607543
 20
3.6396504187
  0
LWPOLYLINE
  5
579
100
AcDbEntity
  8
02___PRT_ALL_AXES
100
AcDbPolyline
 62
7
  6
CONTINUOUS
 90
7
 70
0
 10
4.8041392361
 20
3.9407100004
 10
4.7974546239
 20
3.9392447384
 10
4.7782516451
 20
3.937817977
 10
4.746704346
 20
3.9363811153
 10
4.7030348966
 20
3.9349263475
 10
4.648529216
 20
3.9334697365
 10
4.5853583363
 20
3.9320305681
  0
LWPOLYLINE
  5
57A
100
AcDbEntity
  8
02___PRT_ALL_AXES
100
AcDbPolyline
 62
7
  6
CONTINUOUS
 90
7
 70
0
 10
4.5874002982
 20
3.7656675845
 10
4.6502307826
 20
3.7671047871
 10
4.704160056
 20
3.768552957
 10
4.7472033641
 20
3.7699935881
 10
4.7783925713
 20
3.7714192101
 10
4.7976422008
 20
3.7728587726
 10
4.8038989835
 20
3.7740257955
  0
LWPOLYLINE
  5
57B
100
AcDbEntity
  8
02___PRT_ALL_AXES
100
AcDbPolyline
 62
7
  6
CONTINUOUS
 90
7
 70
0
 10
3.9184914312
 20
3.8017074381
 10
3.8556683501
 20
3.8002703404
 10
3.8017524723
 20
3.798822481
 10
3.7587247456
 20
3.7973824171
 10
3.7275325403
 20
3.7959568381
 10
3.7082773588
 20
3.7945171431
 10
3.7020172841
 20
3.7933497536
  0
LWPOLYLINE
  5
57C
100
AcDbEntity
  8
02___PRT_ALL_AXES
100
AcDbPolyline
 62
7
  6
CONTINUOUS
 90
9
 70
0
 10
4.4789420428
 20
3.7837137403
 10
4.5606598703
 20
3.7851866562
 10
4.63483648
 20
3.786659572
 10
4.6996539361
 20
3.7881324879
 10
4.7535236791
 20
3.7896054037
 10
4.7951254581
 20
3.7910783195
 10
4.8234396881
 20
3.7925512354
 10
4.8377724381
 20
3.7940241512
 10
4.839346549
 20
3.7944998426
  0
LWPOLYLINE
  5
57D
100
AcDbEntity
  8
02___PRT_ALL_AXES
100
AcDbPolyline
 62
7
  6
CONTINUOUS
 90
9
 70
0
 10
4.4789420428
 20
3.7910956301
 10
4.5606598703
 20
3.7925685459
 10
4.63483648
 20
3.7940414618
 10
4.6996539361
 20
3.7955143776
 10
4.7535236791
 20
3.7969872935
 10
4.7951254581
 20
3.7984602093
 10
4.8234396881
 20
3.7999331252
 10
4.8377724381
 20
3.801406041
 10
4.839572307
 20
3.8021424989
  0
LWPOLYLINE
  5
57E
100
AcDbEntity
  8
02___PRT_ALL_AXES
100
AcDbPolyline
 62
7
  6
CONTINUOUS
 90
10
 70
0
 10
4.1492607543
 20
3.7470020126
 10
4.0669032997
 20
3.7455446606
 10
3.9892382703
 20
3.7440917411
 10
3.9186866945
 20
3.7426565084
 10
3.8559777195
 20
3.74122283
 10
3.8018560789
 20
3.7397704382
 10
3.7584969369
 20
3.7383185153
 10
3.7271996381
 20
3.7368828702
 10
3.7081405502
 20
3.7354467094
 10
3.7020172841
 20
3.7342946355
  0
LWPOLYLINE
  5
57F
100
AcDbEntity
  8
02___PRT_ALL_AXES
100
AcDbPolyline
 62
7
  6
CONTINUOUS
 90
4
 70
0
 10
4.3566555132
 20
3.7613184183
 10
4.4390706505
 20
3.7627768153
 10
4.51678993
 20
3.7642308636
 10
4.5874002982
 20
3.7656675845
  0
LWPOLYLINE
  5
580
100
AcDbEntity
  8
02___PRT_ALL_AXES
100
AcDbPolyline
 62
7
  6
CONTINUOUS
 90
4
 70
0
 10
4.1492607543
 20
3.8060571307
 10
4.0668312527
 20
3.8045984735
 10
3.9891063498
 20
3.8031442972
 10
3.9184914312
 20
3.8017074381
  0
LWPOLYLINE
  5
581
100
AcDbEntity
  8
02___PRT_ALL_AXES
100
AcDbPolyline
 62
7
  6
CONTINUOUS
 90
10
 70
0
 10
4.3566555132
 20
3.8203735364
 10
4.4390091736
 20
3.8218308197
 10
4.5166753963
 20
3.8232837574
 10
4.5872234574
 20
3.8247189095
 10
4.6498994859
 20
3.8261517589
 10
4.7040037163
 20
3.8276034351
 10
4.7473667159
 20
3.8290550036
 10
4.7786793191
 20
3.8304905602
 10
4.7977571459
 20
3.8319267511
 10
4.8038989835
 20
3.8330809136
  0
LWPOLYLINE
  5
582
100
AcDbEntity
  8
02___PRT_ALL_AXES
100
AcDbPolyline
 62
7
  6
CONTINUOUS
 90
4
 70
0
 10
4.1492607543
 20
3.757760655
 10
4.1087324828
 20
3.7623119526
 10
4.0679490045
 20
3.768510453
 10
4.0269742247
 20
3.7762799189
  0
LWPOLYLINE
  5
583
100
AcDbEntity
  8
02___PRT_ALL_AXES
100
AcDbPolyline
 62
7
  6
CONTINUOUS
 90
4
 70
0
 10
4.3566555132
 20
3.7505597759
 10
4.3971907047
 20
3.7460075619
 10
4.4379736605
 20
3.7398088829
 10
4.4789420428
 20
3.732040512
  0
LWPOLYLINE
  5
584
100
AcDbEntity
  8
02___PRT_ALL_AXES
100
AcDbPolyline
 62
7
  6
CONTINUOUS
 90
4
 70
0
 10
4.1492607543
 20
3.8168157731
 10
4.1087324828
 20
3.8213670707
 10
4.0679490045
 20
3.8275655711
 10
4.0269742247
 20
3.835335037
  0
LWPOLYLINE
  5
585
100
AcDbEntity
  8
02___PRT_ALL_AXES
100
AcDbPolyline
 62
7
  6
CONTINUOUS
 90
4
 70
0
 10
4.3566555132
 20
3.809614894
 10
4.3971907047
 20
3.80506268
 10
4.4379736605
 20
3.798864001
 10
4.4789420428
 20
3.7910956301
  0
LINE
  5
586
100
AcDbEntity
  8
0
100
AcDbLine
 62
7
  6
CONTINUOUS
 10
3.6665697186
 20
4.0602478741
 11
3.7020172841
 21
4.039773827
  0
LINE
  5
587
100
AcDbEntity
  8
0
100
AcDbLine
 62
7
  6
CONTINUOUS
 10
3.6665697186
 20
4.1193029922
 11
3.7020172841
 21
4.0988289451
  0
LINE
  5
588
100
AcDbEntity
  8
0
100
AcDbLine
 62
7
  6
CONTINUOUS
 10
4.4969890476
 20
3.3548321273
 11
4.4972297873
 21
3.3545539162
  0
LINE
  5
589
100
AcDbEntity
  8
0
100
AcDbLine
 62
7
  6
CONTINUOUS
 10
4.4969890476
 20
3.3942022061
 11
4.4972297873
 21
3.393923995
  0
LINE
  5
58A
100
AcDbEntity
  8
0
100
AcDbLine
 62
7
  6
CONTINUOUS
 10
4.4969890476
 20
3.4335722848
 11
4.4972297873
 21
3.4332940737
  0
LWPOLYLINE
  5
58B
100
AcDbEntity
  8
0
100
AcDbPolyline
 62
7
  6
CONTINUOUS
 90
6
 70
0
 10
4.1492607543
 20
3.5376247824
 10
4.1494447715
 20
3.5254276793
 10
4.1499797311
 20
3.514442925
 10
4.1508167414
 20
3.5057436656
 10
4.1518789595
 20
3.5001711606
 10
4.1530674688
 20
3.4982547036
  0
LWPOLYLINE
  5
58C
100
AcDbEntity
  8
0
100
AcDbPolyline
 62
7
  6
CONTINUOUS
 90
6
 70
0
 10
4.1492607543
 20
4.2462861997
 10
4.1490771738
 20
4.258479714
 10
4.1485471074
 20
4.2694625363
 10
4.1477283809
 20
4.2781626008
 10
4.1467075727
 20
4.2837379806
 10
4.14558892
 20
4.2856562784
  0
LINE
  5
58D
100
AcDbEntity
  8
0
100
AcDbLine
 62
7
  6
CONTINUOUS
 10
4.1492607543
 20
4.2462861997
 11
4.1492607543
 21
4.2194429575
  0
LINE
  5
58E
100
AcDbEntity
  8
02___PRT_ALL_AXES
100
AcDbLine
 62
7
  6
CONTINUOUS
 10
4.1492607543
 20
4.1711464817
 11
4.1492607543
 21
4.1603878394
  0
LINE
  5
58F
100
AcDbEntity
  8
02___PRT_ALL_AXES
100
AcDbLine
 62
7
  6
CONTINUOUS
 10
4.1492607543
 20
4.1120913636
 11
4.1492607543
 21
4.1013327213
  0
LINE
  5
590
100
AcDbEntity
  8
02___PRT_ALL_AXES
100
AcDbLine
 62
7
  6
CONTINUOUS
 10
4.1492607543
 20
4.0530362455
 11
4.1492607543
 21
4.0422776032
  0
LINE
  5
591
100
AcDbEntity
  8
02___PRT_ALL_AXES
100
AcDbLine
 62
7
  6
CONTINUOUS
 10
4.1492607543
 20
3.9939811274
 11
4.1492607543
 21
3.9832224851
  0
LINE
  5
592
100
AcDbEntity
  8
02___PRT_ALL_AXES
100
AcDbLine
 62
7
  6
CONTINUOUS
 10
4.1492607543
 20
3.9349260093
 11
4.1492607543
 21
3.924167367
  0
LINE
  5
593
100
AcDbEntity
  8
02___PRT_ALL_AXES
100
AcDbLine
 62
7
  6
CONTINUOUS
 10
4.1492607543
 20
3.8758708912
 11
4.1492607543
 21
3.8651122489
  0
LINE
  5
594
100
AcDbEntity
  8
02___PRT_ALL_AXES
100
AcDbLine
 62
7
  6
CONTINUOUS
 10
4.1492607543
 20
3.8168157731
 11
4.1492607543
 21
3.8060571307
  0
LINE
  5
595
100
AcDbEntity
  8
02___PRT_ALL_AXES
100
AcDbLine
 62
7
  6
CONTINUOUS
 10
4.1492607543
 20
3.757760655
 11
4.1492607543
 21
3.7470020126
  0
LINE
  5
596
100
AcDbEntity
  8
02___PRT_ALL_AXES
100
AcDbLine
 62
7
  6
CONTINUOUS
 10
4.1492607543
 20
3.6987055369
 11
4.1492607543
 21
3.6879468945
  0
LINE
  5
597
100
AcDbEntity
  8
02___PRT_ALL_AXES
100
AcDbLine
 62
7
  6
CONTINUOUS
 10
4.1492607543
 20
3.6396504187
 11
4.1492607543
 21
3.6288917764
  0
LINE
  5
598
100
AcDbEntity
  8
0
100
AcDbLine
 62
7
  6
CONTINUOUS
 10
4.1492607543
 20
3.5805953006
 11
4.1492607543
 21
3.5376247824
  0
LINE
  5
599
100
AcDbEntity
  8
0
100
AcDbLine
 62
7
  6
CONTINUOUS
 10
3.7020172841
 20
3.8524048717
 11
3.6665697186
 21
3.8319308246
  0
LINE
  5
59A
100
AcDbEntity
  8
0
100
AcDbLine
 62
7
  6
CONTINUOUS
 10
3.7020172841
 20
3.7933497536
 11
3.6665697186
 21
3.7728757064
  0
LWPOLYLINE
  5
59B
100
AcDbEntity
  8
02___PRT_ALL_AXES
100
AcDbPolyline
 62
7
  6
CONTINUOUS
 90
8
 70
0
 10
3.6663439605
 20
3.9423984044
 10
3.6681438294
 20
3.9431348624
 10
3.6824765794
 20
3.9446077782
 10
3.7107908094
 20
3.946080694
 10
3.7523925884
 20
3.9475536099
 10
3.8062623314
 20
3.9490265257
 10
3.8710797875
 20
3.9504994416
 10
3.9452563972
 20
3.9519723574
  0
LWPOLYLINE
  5
59C
100
AcDbEntity
  8
02___PRT_ALL_AXES
100
AcDbPolyline
 62
7
  6
CONTINUOUS
 90
9
 70
0
 10
3.6663439605
 20
3.8833432863
 10
3.6681438294
 20
3.8840797442
 10
3.6824765794
 20
3.8855526601
 10
3.7107908094
 20
3.8870255759
 10
3.7523925884
 20
3.8884984918
 10
3.8062623314
 20
3.8899714076
 10
3.8710797875
 20
3.8914443235
 10
3.9452563972
 20
3.8929172393
 10
4.0269742247
 20
3.8943901552
  0
LWPOLYLINE
  5
59D
100
AcDbEntity
  8
02___PRT_ALL_AXES
100
AcDbPolyline
 62
7
  6
CONTINUOUS
 90
9
 70
0
 10
3.6665697186
 20
3.9500410608
 10
3.6681438294
 20
3.9505167521
 10
3.6824765794
 20
3.951989668
 10
3.7107908094
 20
3.9534625838
 10
3.7523925884
 20
3.9549354997
 10
3.8062623314
 20
3.9564084155
 10
3.8710797875
 20
3.9578813313
 10
3.9452563972
 20
3.9593542472
 10
4.0269742247
 20
3.960827163
  0
LWPOLYLINE
  5
59E
100
AcDbEntity
  8
02___PRT_ALL_AXES
100
AcDbPolyline
 62
7
  6
CONTINUOUS
 90
5
 70
0
 10
4.4789420428
 20
3.9018239765
 10
4.4491886869
 20
3.8951361968
 10
4.4181221648
 20
3.8889737994
 10
4.3869352453
 20
3.8836772522
 10
4.3566555132
 20
3.8794286545
  0
LWPOLYLINE
  5
59F
100
AcDbEntity
  8
02___PRT_ALL_AXES
100
AcDbPolyline
 62
7
  6
CONTINUOUS
 90
10
 70
0
 10
3.7017770314
 20
3.7447757569
 10
3.7082773588
 20
3.7462206673
 10
3.7275325403
 20
3.7476603624
 10
3.7587247456
 20
3.7490859413
 10
3.8017524723
 20
3.7505260052
 10
3.8556683501
 20
3.7519738647
 10
3.9184914312
 20
3.7534109623
 10
3.9891063498
 20
3.7548478214
 10
4.0668312527
 20
3.7563019978
 10
4.1492607543
 20
3.757760655
  0
LWPOLYLINE
  5
5A0
100
AcDbEntity
  8
02___PRT_ALL_AXES
100
AcDbPolyline
 62
7
  6
CONTINUOUS
 90
4
 70
0
 10
4.0269742247
 20
3.7836618087
 10
4.0679451505
 20
3.7926738654
 10
4.1087249792
 20
3.8001678576
 10
4.1492607543
 20
3.8060571307
  0
LWPOLYLINE
  5
5A1
100
AcDbEntity
  8
02___PRT_ALL_AXES
100
AcDbPolyline
 62
7
  6
CONTINUOUS
 90
4
 70
0
 10
4.0269742247
 20
3.8427169268
 10
4.0679451505
 20
3.8517289835
 10
4.1087249792
 20
3.8592229757
 10
4.1492607543
 20
3.8651122489
  0
LWPOLYLINE
  5
5A2
100
AcDbEntity
  8
02___PRT_ALL_AXES
100
AcDbPolyline
 62
7
  6
CONTINUOUS
 90
4
 70
0
 10
4.4789420428
 20
3.9608790946
 10
4.4379649631
 20
3.9518657933
 10
4.3971846692
 20
3.9443719546
 10
4.3566555132
 20
3.9384837726
  0
LWPOLYLINE
  5
5A3
100
AcDbEntity
  8
02___PRT_ALL_AXES
100
AcDbPolyline
 62
7
  6
CONTINUOUS
 90
10
 70
0
 10
4.8041392361
 20
3.9997651461
 10
4.7974174807
 20
3.9982957829
 10
4.7779613312
 20
3.9968567941
 10
4.7463808056
 20
3.9954238369
 10
4.7031575103
 20
3.9939850887
 10
4.6497805815
 20
3.9925555489
 10
4.5873865169
 20
3.991129119
 10
4.5168164831
 20
3.9896932095
 10
4.439084014
 20
3.9882388875
 10
4.3566555132
 20
3.9867802484
  0
LWPOLYLINE
  5
5A4
100
AcDbEntity
  8
02___PRT_ALL_AXES
100
AcDbPolyline
 62
7
  6
CONTINUOUS
 90
7
 70
0
 10
4.63483648
 20
3.8530965799
 10
4.6996539361
 20
3.8545694957
 10
4.7535236791
 20
3.8560424116
 10
4.7951254581
 20
3.8575153274
 10
4.8234396881
 20
3.8589882433
 10
4.8377724381
 20
3.8604611591
 10
4.839572307
 20
3.861197617
  0
LWPOLYLINE
  5
5A5
100
AcDbEntity
  8
02___PRT_ALL_AXES
100
AcDbPolyline
 62
7
  6
CONTINUOUS
 90
9
 70
0
 10
4.4789420428
 20
3.8427688584
 10
4.5606598703
 20
3.8442417743
 10
4.63483648
 20
3.8457146901
 10
4.6996539361
 20
3.847187606
 10
4.7535236791
 20
3.8486605218
 10
4.7951254581
 20
3.8501334377
 10
4.8234396881
 20
3.8516063535
 10
4.8377724381
 20
3.8530792693
 10
4.839346549
 20
3.8535549607
  0
LINE
  5
5A6
100
AcDbEntity
  8
02___PRT_ALL_AXES
100
AcDbLine
 62
7
  6
CONTINUOUS
 10
3.9452563972
 20
3.8338621212
 11
4.0269742247
 21
3.835335037
  0
LINE
  5
5A7
100
AcDbEntity
  8
02___PRT_ALL_AXES
100
AcDbLine
 62
7
  6
CONTINUOUS
 10
4.4789420428
 20
3.8501507482
 11
4.5580944124
 21
3.8515774232
  0
LINE
  5
5A8
100
AcDbEntity
  8
02___PRT_ALL_AXES
100
AcDbLine
 62
7
  6
CONTINUOUS
 10
4.5580944124
 20
3.8515774232
 11
4.63483648
 21
3.8530965799
  0
LWPOLYLINE
  5
5A9
100
AcDbEntity
  8
02___PRT_ALL_AXES
100
AcDbPolyline
 62
7
  6
CONTINUOUS
 90
9
 70
0
 10
4.4789420428
 20
3.9018239765
 10
4.5606598703
 20
3.9032968924
 10
4.63483648
 20
3.9047698082
 10
4.6996539361
 20
3.9062427241
 10
4.7535236791
 20
3.9077156399
 10
4.7951254581
 20
3.9091885558
 10
4.8234396881
 20
3.9106614716
 10
4.8377724381
 20
3.9121343875
 10
4.839346549
 20
3.9126100788
  0
LWPOLYLINE
  5
5AA
100
AcDbEntity
  8
02___PRT_ALL_AXES
100
AcDbPolyline
 62
7
  6
CONTINUOUS
 90
9
 70
0
 10
4.4789420428
 20
3.9092058663
 10
4.5606598703
 20
3.9106787821
 10
4.63483648
 20
3.912151698
 10
4.6996539361
 20
3.9136246138
 10
4.7535236791
 20
3.9150975297
 10
4.7951254581
 20
3.9165704455
 10
4.8234396881
 20
3.9180433614
 10
4.8377724381
 20
3.9195162772
 10
4.839572307
 20
3.9202527351
  0
LWPOLYLINE
  5
5AB
100
AcDbEntity
  8
02___PRT_ALL_AXES
100
AcDbPolyline
 62
7
  6
CONTINUOUS
 90
10
 70
0
 10
4.1492607543
 20
3.8651122489
 10
4.0673389033
 20
3.8636627869
 10
3.9903214891
 20
3.862223
 10
3.9199519687
 20
3.8607938505
 10
3.8566236188
 20
3.859348929
 10
3.8020843669
 20
3.8578874457
 10
3.758481799
 20
3.8564281672
 10
3.7270953471
 20
3.8549871764
 10
3.7080902359
 20
3.8535512718
 10
3.7020172841
 20
3.8524048717
  0
LWPOLYLINE
  5
5AC
100
AcDbEntity
  8
02___PRT_ALL_AXES
100
AcDbPolyline
 62
7
  6
CONTINUOUS
 90
10
 70
0
 10
4.3566555132
 20
3.8794286545
 10
4.4376531079
 20
3.8808613833
 10
4.5147407416
 20
3.8823013466
 10
4.5853583363
 20
3.8837340924
 10
4.648529216
 20
3.8851732608
 10
4.7030348966
 20
3.8866298717
 10
4.746704346
 20
3.8880846395
 10
4.7782516451
 20
3.8895215012
 10
4.7974546239
 20
3.8909482626
 10
4.8038989835
 20
3.8921360317
  0
LWPOLYLINE
  5
5AD
100
AcDbEntity
  8
02___PRT_ALL_AXES
100
AcDbPolyline
 62
7
  6
CONTINUOUS
 90
4
 70
0
 10
4.1492607543
 20
3.8758708912
 10
4.1087324828
 20
3.8804221888
 10
4.0679490045
 20
3.8866206892
 10
4.0269742247
 20
3.8943901552
  0
LWPOLYLINE
  5
5AE
100
AcDbEntity
  8
02___PRT_ALL_AXES
100
AcDbPolyline
 62
7
  6
CONTINUOUS
 90
4
 70
0
 10
4.3566555132
 20
3.8686700122
 10
4.3971907047
 20
3.8641177982
 10
4.4379736605
 20
3.8579191191
 10
4.4789420428
 20
3.8501507482
  0
LINE
  5
5AF
100
AcDbEntity
  8
0
100
AcDbLine
 62
7
  6
CONTINUOUS
 10
3.6665697186
 20
4.1783581103
 11
3.7020172841
 21
4.1578840632
  0
LINE
  5
5B0
100
AcDbEntity
  8
0
100
AcDbLine
 62
7
  6
CONTINUOUS
 10
4.4834339163
 20
3.126445887
 11
4.4835020303
 21
3.1262591775
  0
LINE
  5
5B1
100
AcDbEntity
  8
02___PRT_ALL_AXES
100
AcDbLine
 62
7
  6
CENTER
 10
4.2529581338
 20
2.9591185983
 11
4.2529581338
 21
5.0577849874
  0
LINE
  5
5B2
100
AcDbEntity
  8
0
100
AcDbLine
 62
7
  6
CONTINUOUS
 10
3.7020172841
 20
3.7342946355
 11
3.6665697186
 21
3.7138205883
  0
LINE
  5
5B3
100
AcDbEntity
  8
0
100
AcDbLine
 62
7
  6
CONTINUOUS
 10
3.7020172841
 20
3.6752395173
 11
3.6665697186
 21
3.6547654702
  0
LWPOLYLINE
  5
5B4
100
AcDbEntity
  8
02___PRT_ALL_AXES
100
AcDbPolyline
 62
7
  6
CONTINUOUS
 90
8
 70
0
 10
3.6663439605
 20
3.8242881682
 10
3.6681438294
 20
3.8250246261
 10
3.6824765794
 20
3.826497542
 10
3.7107908094
 20
3.8279704578
 10
3.7523925884
 20
3.8294433737
 10
3.8062623314
 20
3.8309162895
 10
3.8710797875
 20
3.8323892054
 10
3.9452563972
 20
3.8338621212
  0
LWPOLYLINE
  5
5B5
100
AcDbEntity
  8
02___PRT_ALL_AXES
100
AcDbPolyline
 62
7
  6
CONTINUOUS
 90
9
 70
0
 10
3.6663439605
 20
3.7652330501
 10
3.6681438294
 20
3.765969508
 10
3.6824765794
 20
3.7674424239
 10
3.7107908094
 20
3.7689153397
 10
3.7523925884
 20
3.7703882556
 10
3.8062623314
 20
3.7718611714
 10
3.8710797875
 20
3.7733340872
 10
3.9452563972
 20
3.7748070031
 10
4.0269742247
 20
3.7762799189
  0
LWPOLYLINE
  5
5B6
100
AcDbEntity
  8
02___PRT_ALL_AXES
100
AcDbPolyline
 62
7
  6
CONTINUOUS
 90
9
 70
0
 10
3.6665697186
 20
3.8909859427
 10
3.6681438294
 20
3.891461634
 10
3.6824765794
 20
3.8929345499
 10
3.7107908094
 20
3.8944074657
 10
3.7523925884
 20
3.8958803815
 10
3.8062623314
 20
3.8973532974
 10
3.8710797875
 20
3.8988262132
 10
3.9452563972
 20
3.9002991291
 10
4.0269742247
 20
3.9017720449
  0
LWPOLYLINE
  5
5B7
100
AcDbEntity
  8
02___PRT_ALL_AXES
100
AcDbPolyline
 62
7
  6
CONTINUOUS
 90
9
 70
0
 10
3.6665697186
 20
3.8319308246
 10
3.6681438294
 20
3.8324065159
 10
3.6824765794
 20
3.8338794317
 10
3.7107908094
 20
3.8353523476
 10
3.7523925884
 20
3.8368252634
 10
3.8062623314
 20
3.8382981793
 10
3.8710797875
 20
3.8397710951
 10
3.9452563972
 20
3.841244011
 10
4.0269742247
 20
3.8427169268
  0
LWPOLYLINE
  5
5B8
100
AcDbEntity
  8
02___PRT_ALL_AXES
100
AcDbPolyline
 62
7
  6
CONTINUOUS
 90
10
 70
0
 10
3.7017770314
 20
3.8038308224
 10
3.7080902359
 20
3.8052547961
 10
3.7270953471
 20
3.8066907007
 10
3.758481799
 20
3.8081316915
 10
3.8020843669
 20
3.80959097
 10
3.8566236188
 20
3.8110524532
 10
3.9199519687
 20
3.8124973747
 10
3.9903214891
 20
3.8139265242
 10
4.0673389033
 20
3.8153663111
 10
4.1492607543
 20
3.8168157731
  0
LWPOLYLINE
  5
5B9
100
AcDbEntity
  8
02___PRT_ALL_AXES
100
AcDbPolyline
 62
7
  6
CONTINUOUS
 90
10
 70
0
 10
4.8041392361
 20
4.0588202115
 10
4.7976116528
 20
4.057372322
 10
4.7784919573
 20
4.0559417742
 10
4.7469421015
 20
4.0545004822
 10
4.7031847997
 20
4.0530410134
 10
4.6485159723
 20
4.0515796485
 10
4.5851094536
 20
4.0501354851
 10
4.5144048142
 20
4.0487015504
 10
4.4377518387
 20
4.0472698823
 10
4.3566555132
 20
4.0458353665
  0
LWPOLYLINE
  5
5BA
100
AcDbEntity
  8
02___PRT_ALL_AXES
100
AcDbPolyline
 62
7
  6
CONTINUOUS
 90
10
 70
0
 10
3.7017770314
 20
3.8628859933
 10
3.7084074738
 20
3.8643453219
 10
3.7278175354
 20
3.8657866415
 10
3.7592803254
 20
3.8672175298
 10
3.8021033379
 20
3.8686466505
 10
3.855599522
 20
3.8700824075
 10
3.9182375732
 20
3.8715157511
 10
3.9888982386
 20
3.8729540152
 10
4.0667199516
 20
3.8744102175
 10
4.1492607543
 20
3.8758708912
  0
LWPOLYLINE
  5
5BB
100
AcDbEntity
  8
02___PRT_ALL_AXES
100
AcDbPolyline
 62
7
  6
CONTINUOUS
 90
10
 70
0
 10
4.8041392361
 20
4.1178753825
 10
4.7975121981
 20
4.1164164293
 10
4.7781064548
 20
4.1149751679
 10
4.7466513759
 20
4.1135444378
 10
4.7038349528
 20
4.1121153782
 10
4.6503278248
 20
4.1106792409
 10
4.5876834171
 20
4.1092457261
 10
4.5170198707
 20
4.1078073964
 10
4.4391951333
 20
4.1063511368
 10
4.3566555132
 20
4.1048904846
  0
LWPOLYLINE
  5
5BC
100
AcDbEntity
  8
02___PRT_ALL_AXES
100
AcDbPolyline
 62
7
  6
CONTINUOUS
 90
4
 70
0
 10
4.0269742247
 20
3.9017720449
 10
4.0679451505
 20
3.9107841016
 10
4.1087249792
 20
3.9182780938
 10
4.1492607543
 20
3.924167367
  0
LWPOLYLINE
  5
5BD
100
AcDbEntity
  8
02___PRT_ALL_AXES
100
AcDbPolyline
 62
7
  6
CONTINUOUS
 90
4
 70
0
 10
4.4789420428
 20
4.0199342128
 10
4.4380019371
 20
4.0109283902
 10
4.3972139097
 20
4.0034318933
 10
4.3566555132
 20
3.9975388907
  0
LWPOLYLINE
  5
5BE
100
AcDbEntity
  8
02___PRT_ALL_AXES
100
AcDbPolyline
 62
7
  6
CONTINUOUS
 90
4
 70
0
 10
4.0269742247
 20
3.960827163
 10
4.0679055743
 20
3.9698312142
 10
4.108693569
 20
3.9773280334
 10
4.1492607543
 20
3.9832224851
  0
LINE
  5
5BF
100
AcDbEntity
  8
02___PRT_ALL_AXES
100
AcDbLine
 62
7
  6
CONTINUOUS
 10
4.5853583363
 20
3.9320305681
 11
4.5147407416
 21
3.9305978223
  0
LINE
  5
5C0
100
AcDbEntity
  8
02___PRT_ALL_AXES
100
AcDbLine
 62
7
  6
CONTINUOUS
 10
3.9208144786
 20
3.9306260545
 11
3.9915218315
 21
3.9320600264
  0
LWPOLYLINE
  5
5C1
100
AcDbEntity
  8
02___PRT_ALL_AXES
100
AcDbPolyline
 62
7
  6
CONTINUOUS
 90
3
 70
0
 10
4.5147407416
 20
3.9305978223
 10
4.4376531079
 20
3.9291578591
 10
4.3566555132
 20
3.9277251303
  0
LWPOLYLINE
  5
5C2
100
AcDbEntity
  8
02___PRT_ALL_AXES
100
AcDbPolyline
 62
7
  6
CONTINUOUS
 90
9
 70
0
 10
4.4789420428
 20
3.9608790946
 10
4.5606598703
 20
3.9623520105
 10
4.63483648
 20
3.9638249263
 10
4.6996539361
 20
3.9652978422
 10
4.7535236791
 20
3.966770758
 10
4.7951254581
 20
3.9682436739
 10
4.8234396881
 20
3.9697165897
 10
4.8377724381
 20
3.9711895056
 10
4.839346549
 20
3.9716651969
  0
LINE
  5
5C3
100
AcDbEntity
  8
02___PRT_ALL_AXES
100
AcDbLine
 62
7
  6
CONTINUOUS
 10
3.9452563972
 20
3.9519723574
 11
4.0269742247
 21
3.9534452733
  0
LWPOLYLINE
  5
5C4
100
AcDbEntity
  8
02___PRT_ALL_AXES
100
AcDbPolyline
 62
7
  6
CONTINUOUS
 90
9
 70
0
 10
4.4789420428
 20
3.9682609844
 10
4.5606598703
 20
3.9697339003
 10
4.63483648
 20
3.9712068161
 10
4.6996539361
 20
3.9726797319
 10
4.7535236791
 20
3.9741526478
 10
4.7951254581
 20
3.9756255636
 10
4.8234396881
 20
3.9770984795
 10
4.8377724381
 20
3.9785713953
 10
4.839572307
 20
3.9793078532
  0
LWPOLYLINE
  5
5C5
100
AcDbEntity
  8
02___PRT_ALL_AXES
100
AcDbPolyline
 62
7
  6
CONTINUOUS
 90
10
 70
0
 10
4.1492607543
 20
3.924167367
 10
4.0667199516
 20
3.9227066933
 10
3.9888982386
 20
3.9212504909
 10
3.9182375732
 20
3.9198122269
 10
3.855599522
 20
3.9183788832
 10
3.8021033379
 20
3.9169431262
 10
3.7592803254
 20
3.9155140056
 10
3.7278175354
 20
3.9140831173
 10
3.7084074738
 20
3.9126417977
 10
3.7020172841
 20
3.9114599898
  0
LWPOLYLINE
  5
5C6
100
AcDbEntity
  8
02___PRT_ALL_AXES
100
AcDbPolyline
 62
7
  6
CONTINUOUS
 90
10
 70
0
 10
4.3566555132
 20
3.9384837726
 10
4.439084014
 20
3.9399424117
 10
4.5168164831
 20
3.9413967337
 10
4.5873865169
 20
3.9428326432
 10
4.6497805815
 20
3.9442590731
 10
4.7031575103
 20
3.9456886129
 10
4.7463808056
 20
3.9471273612
 10
4.7779613312
 20
3.9485603183
 10
4.7974174807
 20
3.9499993071
 10
4.8038989835
 20
3.9511911498
  0
LINE
  5
5C7
100
AcDbEntity
  8
02___PRT_ALL_AXES
100
AcDbLine
 62
7
  6
CONTINUOUS
 10
3.9915218315
 20
3.9320600264
 11
4.0945330544
 21
3.9339579351
  0
LINE
  5
5C8
100
AcDbEntity
  8
02___PRT_ALL_AXES
100
AcDbLine
 62
7
  6
CONTINUOUS
 10
4.0945330544
 20
3.9339579351
 11
4.1492607543
 21
3.9349260093
  0
LWPOLYLINE
  5
5C9
100
AcDbEntity
  8
02___PRT_ALL_AXES
100
AcDbPolyline
 62
7
  6
CONTINUOUS
 90
10
 70
0
 10
4.1492607543
 20
3.9832224851
 10
4.0681863023
 20
3.9817883652
 10
3.9915218315
 20
3.9803565022
 10
3.9208144786
 20
3.9789225302
 10
3.8574089309
 20
3.9774784146
 10
3.8027410244
 20
3.9760171206
 10
3.7589854551
 20
3.9745578033
 10
3.7274349032
 20
3.9731166764
 10
3.7083122889
 20
3.9716863821
 10
3.7020172841
 20
3.9705151079
  0
LWPOLYLINE
  5
5CA
100
AcDbEntity
  8
02___PRT_ALL_AXES
100
AcDbPolyline
 62
7
  6
CONTINUOUS
 90
10
 70
0
 10
4.3566555132
 20
3.9975388907
 10
4.4377518387
 20
3.9989734065
 10
4.5144048142
 20
4.0004050746
 10
4.5851094536
 20
4.0018390093
 10
4.6485159723
 20
4.0032831727
 10
4.7031847997
 20
4.0047445376
 10
4.7469421015
 20
4.0062040064
 10
4.7784919573
 20
4.0076452985
 10
4.7976116528
 20
4.0090758463
 10
4.8038989835
 20
4.0102462679
  0
LWPOLYLINE
  5
5CB
100
AcDbEntity
  8
02___PRT_ALL_AXES
100
AcDbPolyline
 62
7
  6
CONTINUOUS
 90
5
 70
0
 10
4.3566555132
 20
3.9277251303
 10
4.3870483667
 20
3.9244655967
 10
4.418167296
 20
3.9201819697
 10
4.4491136325
 20
3.9150105581
 10
4.4789420428
 20
3.9092058663
  0
LWPOLYLINE
  5
5CC
100
AcDbEntity
  8
02___PRT_ALL_AXES
100
AcDbPolyline
 62
7
  6
CONTINUOUS
 90
4
 70
0
 10
4.1492607543
 20
3.9349260093
 10
4.1087025785
 20
3.9394812674
 10
4.0679111566
 20
3.9456822863
 10
4.0269742247
 20
3.9534452733
  0
LWPOLYLINE
  5
5CD
100
AcDbEntity
  8
02___PRT_ALL_AXES
100
AcDbPolyline
 62
7
  6
CONTINUOUS
 90
4
 70
0
 10
4.1492607543
 20
3.9939811274
 10
4.1087324828
 20
3.998532425
 10
4.0679490045
 20
4.0047309254
 10
4.0269742247
 20
4.0125003914
  0
LWPOLYLINE
  5
5CE
100
AcDbEntity
  8
02___PRT_ALL_AXES
100
AcDbPolyline
 62
7
  6
CONTINUOUS
 90
4
 70
0
 10
4.3566555132
 20
3.9867802484
 10
4.3971907047
 20
3.9822280344
 10
4.4379736605
 20
3.9760293553
 10
4.4789420428
 20
3.9682609844
  0
LINE
  5
5CF
100
AcDbEntity
  8
0
100
AcDbLine
 62
7
  6
CONTINUOUS
 10
4.839346549
 20
3.6252379112
 11
4.8038989835
 21
3.6457119583
  0
LWPOLYLINE
  5
5D0
100
AcDbEntity
  8
0
100
AcDbPolyline
 62
7
  6
CONTINUOUS
 90
6
 70
0
 10
4.3566555132
 20
4.2462861997
 10
4.3568390937
 20
4.258479714
 10
4.3573691602
 20
4.2694625363
 10
4.3581878866
 20
4.2781626008
 10
4.3592086948
 20
4.2837379806
 10
4.3603273475
 20
4.2856562784
  0
LINE
  5
5D1
100
AcDbEntity
  8
0
100
AcDbLine
 62
7
  6
CONTINUOUS
 10
4.0099990686
 20
3.1389161396
 11
4.0099344263
 21
3.1387389856
  0
LINE
  5
5D2
100
AcDbEntity
  8
0
100
AcDbLine
 62
7
  6
CONTINUOUS
 10
4.034966023
 20
3.1139767227
 11
4.0348940161
 21
3.1137794015
  0
LINE
  5
5D3
100
AcDbEntity
  8
0
100
AcDbLine
 62
7
  6
CONTINUOUS
 10
3.7020172841
 20
3.6161843992
 11
3.6665697186
 21
3.5957103521
  0
LWPOLYLINE
  5
5D4
100
AcDbEntity
  8
02___PRT_ALL_AXES
100
AcDbPolyline
 62
7
  6
CONTINUOUS
 90
9
 70
0
 10
3.6663439605
 20
3.706177932
 10
3.6681438294
 20
3.7069143899
 10
3.6824765794
 20
3.7083873058
 10
3.7107908094
 20
3.7098602216
 10
3.7523925884
 20
3.7113331374
 10
3.8062623314
 20
3.7128060533
 10
3.8710797875
 20
3.7142789691
 10
3.9452563972
 20
3.715751885
 10
4.0269742247
 20
3.7172248008
  0
LWPOLYLINE
  5
5D5
100
AcDbEntity
  8
02___PRT_ALL_AXES
100
AcDbPolyline
 62
7
  6
CONTINUOUS
 90
9
 70
0
 10
3.6665697186
 20
3.7728757064
 10
3.6681438294
 20
3.7733513978
 10
3.6824765794
 20
3.7748243136
 10
3.7107908094
 20
3.7762972295
 10
3.7523925884
 20
3.7777701453
 10
3.8062623314
 20
3.7792430612
 10
3.8710797875
 20
3.780715977
 10
3.9452563972
 20
3.7821888929
 10
4.0269742247
 20
3.7836618087
  0
LWPOLYLINE
  5
5D6
100
AcDbEntity
  8
02___PRT_ALL_AXES
100
AcDbPolyline
 62
7
  6
CONTINUOUS
 90
10
 70
0
 10
4.8041392361
 20
4.1769305568
 10
4.797830007
 20
4.175507029
 10
4.778828037
 20
4.1740710802
 10
4.7474463523
 20
4.172630143
 10
4.7038492755
 20
4.1711709209
 10
4.6493190984
 20
4.1697095716
 10
4.5860027346
 20
4.1682648236
 10
4.5156409066
 20
4.1668357463
 10
4.438597417
 20
4.1653954278
 10
4.3566555132
 20
4.1639456027
  0
LWPOLYLINE
  5
5D7
100
AcDbEntity
  8
02___PRT_ALL_AXES
100
AcDbPolyline
 62
7
  6
CONTINUOUS
 90
7
 70
0
 10
3.7017770314
 20
3.9219411677
 10
3.7083122889
 20
3.9233899063
 10
3.7274349032
 20
3.9248202006
 10
3.7589854551
 20
3.9262613275
 10
3.8027410244
 20
3.9277206449
 10
3.8574089309
 20
3.9291819388
 10
3.9208144786
 20
3.9306260545
  0
LWPOLYLINE
  5
5D8
100
AcDbEntity
  8
02___PRT_ALL_AXES
100
AcDbPolyline
 62
7
  6
CONTINUOUS
 90
4
 70
0
 10
4.4789420428
 20
4.0789893309
 10
4.4379649631
 20
4.0699760295
 10
4.3971846692
 20
4.0624821908
 10
4.3566555132
 20
4.0565940088
  0
LWPOLYLINE
  5
5D9
100
AcDbEntity
  8
02___PRT_ALL_AXES
100
AcDbPolyline
 62
7
  6
CONTINUOUS
 90
4
 70
0
 10
4.0269742247
 20
4.0198822811
 10
4.0679451505
 20
4.0288943378
 10
4.1087249792
 20
4.03638833
 10
4.1492607543
 20
4.0422776032
  0
LWPOLYLINE
  5
5DA
100
AcDbEntity
  8
02___PRT_ALL_AXES
100
AcDbPolyline
 62
7
  6
CONTINUOUS
 90
4
 70
0
 10
4.4789420428
 20
4.138044449
 10
4.4379649631
 20
4.1290311476
 10
4.3971846692
 20
4.1215373089
 10
4.3566555132
 20
4.1156491269
  0
LWPOLYLINE
  5
5DB
100
AcDbEntity
  8
02___PRT_ALL_AXES
100
AcDbPolyline
 62
7
  6
CONTINUOUS
 90
10
 70
0
 10
3.7017770314
 20
3.9809962293
 10
3.7085002164
 20
3.9824657495
 10
3.7279561468
 20
3.9839046495
 10
3.759538591
 20
3.9853376586
 10
3.8027720979
 20
3.9867766814
 10
3.8561618168
 20
3.9882064689
 10
3.9185491745
 20
3.9896326735
 10
3.9891124265
 20
3.9910684119
 10
4.0668369208
 20
3.9925225729
 10
4.1492607543
 20
3.9939811274
  0
LWPOLYLINE
  5
5DC
100
AcDbEntity
  8
02___PRT_ALL_AXES
100
AcDbPolyline
 62
7
  6
CONTINUOUS
 90
9
 70
0
 10
4.4789420428
 20
4.0199342128
 10
4.5606598703
 20
4.0214071286
 10
4.63483648
 20
4.0228800444
 10
4.6996539361
 20
4.0243529603
 10
4.7535236791
 20
4.0258258761
 10
4.7951254581
 20
4.027298792
 10
4.8234396881
 20
4.0287717078
 10
4.8377724381
 20
4.0302446237
 10
4.839346549
 20
4.030720315
  0
LWPOLYLINE
  5
5DD
100
AcDbEntity
  8
02___PRT_ALL_AXES
100
AcDbPolyline
 62
7
  6
CONTINUOUS
 90
9
 70
0
 10
4.4789420428
 20
4.0273161025
 10
4.5606598703
 20
4.0287890184
 10
4.63483648
 20
4.0302619342
 10
4.6996539361
 20
4.0317348501
 10
4.7535236791
 20
4.0332077659
 10
4.7951254581
 20
4.0346806817
 10
4.8234396881
 20
4.0361535976
 10
4.8377724381
 20
4.0376265134
 10
4.839572307
 20
4.0383629714
  0
LWPOLYLINE
  5
5DE
100
AcDbEntity
  8
02___PRT_ALL_AXES
100
AcDbPolyline
 62
7
  6
CONTINUOUS
 90
9
 70
0
 10
4.4789420428
 20
4.0789893309
 10
4.5606598703
 20
4.0804622467
 10
4.63483648
 20
4.0819351626
 10
4.6996539361
 20
4.0834080784
 10
4.7535236791
 20
4.0848809942
 10
4.7951254581
 20
4.0863539101
 10
4.8234396881
 20
4.0878268259
 10
4.8377724381
 20
4.0892997418
 10
4.839346549
 20
4.0897754331
  0
LWPOLYLINE
  5
5DF
100
AcDbEntity
  8
02___PRT_ALL_AXES
100
AcDbPolyline
 62
7
  6
CONTINUOUS
 90
9
 70
0
 10
4.4789420428
 20
4.0863712206
 10
4.5606598703
 20
4.0878441365
 10
4.63483648
 20
4.0893170523
 10
4.6996539361
 20
4.0907899682
 10
4.7535236791
 20
4.092262884
 10
4.7951254581
 20
4.0937357999
 10
4.8234396881
 20
4.0952087157
 10
4.8377724381
 20
4.0966816315
 10
4.839572307
 20
4.0974180895
  0
LWPOLYLINE
  5
5E0
100
AcDbEntity
  8
02___PRT_ALL_AXES
100
AcDbPolyline
 62
7
  6
CONTINUOUS
 90
10
 70
0
 10
4.1492607543
 20
4.0422776032
 10
4.0668369208
 20
4.0408190487
 10
3.9891124265
 20
4.0393648876
 10
3.9185491745
 20
4.0379291493
 10
3.8561618168
 20
4.0365029447
 10
3.8027720979
 20
4.0350731572
 10
3.759538591
 20
4.0336341344
 10
3.7279561468
 20
4.0322011253
 10
3.7085002164
 20
4.0307622253
 10
3.7020172841
 20
4.029570226
  0
LWPOLYLINE
  5
5E1
100
AcDbEntity
  8
02___PRT_ALL_AXES
100
AcDbPolyline
 62
7
  6
CONTINUOUS
 90
10
 70
0
 10
4.3566555132
 20
4.0565940088
 10
4.4391951333
 20
4.0580546611
 10
4.5170198707
 20
4.0595109206
 10
4.5876834171
 20
4.0609492503
 10
4.6503278248
 20
4.0623827652
 10
4.7038349528
 20
4.0638189024
 10
4.7466513759
 20
4.0652479621
 10
4.7781064548
 20
4.0666786921
 10
4.7975121981
 20
4.0681199536
 10
4.8038989835
 20
4.069301386
  0
LWPOLYLINE
  5
5E2
100
AcDbEntity
  8
02___PRT_ALL_AXES
100
AcDbPolyline
 62
7
  6
CONTINUOUS
 90
5
 70
0
 10
4.1492607543
 20
4.0530362455
 10
4.1190084293
 20
4.0562785802
 10
4.0878284326
 20
4.0605672799
 10
4.056750729
 20
4.0657602317
 10
4.0269742247
 20
4.0715555095
  0
LWPOLYLINE
  5
5E3
100
AcDbEntity
  8
02___PRT_ALL_AXES
100
AcDbPolyline
 62
7
  6
CONTINUOUS
 90
4
 70
0
 10
4.3566555132
 20
4.0458353665
 10
4.3972233304
 20
4.0412788313
 10
4.4380148664
 20
4.0350774193
 10
4.4789420428
 20
4.0273161025
  0
LWPOLYLINE
  5
5E4
100
AcDbEntity
  8
02___PRT_ALL_AXES
100
AcDbPolyline
 62
7
  6
CONTINUOUS
 90
4
 70
0
 10
4.1492607543
 20
4.1120913636
 10
4.1087324828
 20
4.1166426612
 10
4.0679490045
 20
4.1228411616
 10
4.0269742247
 20
4.1306106276
  0
LINE
  5
5E5
100
AcDbEntity
  8
0
100
AcDbLine
 62
7
  6
CONTINUOUS
 10
4.839346549
 20
3.6842930293
 11
4.8038989835
 21
3.7047670764
  0
LINE
  5
5E6
100
AcDbEntity
  8
0
100
AcDbLine
 62
7
  6
CONTINUOUS
 10
4.839346549
 20
3.7433481474
 11
4.8038989835
 21
3.7638221945
  0
LINE
  5
5E7
100
AcDbEntity
  8
0
100
AcDbLine
 62
7
  6
CONTINUOUS
 10
4.3566555132
 20
4.2462861997
 11
4.3566555132
 21
4.1639456027
  0
LINE
  5
5E8
100
AcDbEntity
  8
02___PRT_ALL_AXES
100
AcDbLine
 62
7
  6
CONTINUOUS
 10
4.3566555132
 20
4.1156491269
 11
4.3566555132
 21
4.1048904846
  0
LINE
  5
5E9
100
AcDbEntity
  8
02___PRT_ALL_AXES
100
AcDbLine
 62
7
  6
CONTINUOUS
 10
4.3566555132
 20
4.0565940088
 11
4.3566555132
 21
4.0458353665
  0
LINE
  5
5EA
100
AcDbEntity
  8
02___PRT_ALL_AXES
100
AcDbLine
 62
7
  6
CONTINUOUS
 10
4.3566555132
 20
3.9975388907
 11
4.3566555132
 21
3.9867802484
  0
LINE
  5
5EB
100
AcDbEntity
  8
02___PRT_ALL_AXES
100
AcDbLine
 62
7
  6
CONTINUOUS
 10
4.3566555132
 20
3.9384837726
 11
4.3566555132
 21
3.9277251303
  0
LINE
  5
5EC
100
AcDbEntity
  8
02___PRT_ALL_AXES
100
AcDbLine
 62
7
  6
CONTINUOUS
 10
4.3566555132
 20
3.8794286545
 11
4.3566555132
 21
3.8686700122
  0
LINE
  5
5ED
100
AcDbEntity
  8
02___PRT_ALL_AXES
100
AcDbLine
 62
7
  6
CONTINUOUS
 10
4.3566555132
 20
3.8203735364
 11
4.3566555132
 21
3.809614894
  0
LINE
  5
5EE
100
AcDbEntity
  8
02___PRT_ALL_AXES
100
AcDbLine
 62
7
  6
CONTINUOUS
 10
4.3566555132
 20
3.7613184183
 11
4.3566555132
 21
3.7505597759
  0
LINE
  5
5EF
100
AcDbEntity
  8
02___PRT_ALL_AXES
100
AcDbLine
 62
7
  6
CONTINUOUS
 10
4.3566555132
 20
3.7022633002
 11
4.3566555132
 21
3.6915046578
  0
LINE
  5
5F0
100
AcDbEntity
  8
02___PRT_ALL_AXES
100
AcDbLine
 62
7
  6
CONTINUOUS
 10
4.3566555132
 20
3.6432081821
 11
4.3566555132
 21
3.6324495397
  0
LINE
  5
5F1
100
AcDbEntity
  8
0
100
AcDbLine
 62
7
  6
CONTINUOUS
 10
4.3566555132
 20
3.5841530639
 11
4.3566555132
 21
3.5376247824
  0
LWPOLYLINE
  5
5F2
100
AcDbEntity
  8
0
100
AcDbPolyline
 62
7
  6
CONTINUOUS
 90
6
 70
0
 10
4.3566555132
 20
3.5376247824
 10
4.356471496
 20
3.5254276793
 10
4.3559365365
 20
3.514442925
 10
4.3550995261
 20
3.5057436656
 10
4.354037308
 20
3.5001711606
 10
4.3528487988
 20
3.4982547036
  0
LINE
  5
5F3
100
AcDbEntity
  8
0
100
AcDbLine
 62
7
  6
CONTINUOUS
 10
4.8038989835
 20
4.1283565041
 11
4.839346549
 21
4.1488305512
  0
LWPOLYLINE
  5
5F4
100
AcDbEntity
  8
02___PRT_ALL_AXES
100
AcDbPolyline
 62
7
  6
CONTINUOUS
 90
9
 70
0
 10
3.6663439605
 20
3.6471228139
 10
3.6681438294
 20
3.6478592718
 10
3.6824765794
 20
3.6493321876
 10
3.7107908094
 20
3.6508051035
 10
3.7523925884
 20
3.6522780193
 10
3.8062623314
 20
3.6537509352
 10
3.8710797875
 20
3.655223851
 10
3.9452563972
 20
3.6566967669
 10
4.0269742247
 20
3.6581696827
  0
LWPOLYLINE
  5
5F5
100
AcDbEntity
  8
02___PRT_ALL_AXES
100
AcDbPolyline
 62
7
  6
CONTINUOUS
 90
9
 70
0
 10
3.6663439605
 20
3.5880676958
 10
3.6681438294
 20
3.5888041537
 10
3.6824765794
 20
3.5902770695
 10
3.7107908094
 20
3.5917499854
 10
3.7523925884
 20
3.5932229012
 10
3.8062623314
 20
3.5946958171
 10
3.8710797875
 20
3.5961687329
 10
3.9452563972
 20
3.5976416488
 10
4.0269742247
 20
3.5991145646
  0
LWPOLYLINE
  5
5F6
100
AcDbEntity
  8
02___PRT_ALL_AXES
100
AcDbPolyline
 62
7
  6
CONTINUOUS
 90
9
 70
0
 10
3.6665697186
 20
3.7138205883
 10
3.6681438294
 20
3.7142962797
 10
3.6824765794
 20
3.7157691955
 10
3.7107908094
 20
3.7172421114
 10
3.7523925884
 20
3.7187150272
 10
3.8062623314
 20
3.7201879431
 10
3.8710797875
 20
3.7216608589
 10
3.9452563972
 20
3.7231337747
 10
4.0269742247
 20
3.7246066906
  0
LWPOLYLINE
  5
5F7
100
AcDbEntity
  8
02___PRT_ALL_AXES
100
AcDbPolyline
 62
7
  6
CONTINUOUS
 90
9
 70
0
 10
3.6665697186
 20
3.6547654702
 10
3.6681438294
 20
3.6552411616
 10
3.6824765794
 20
3.6567140774
 10
3.7107908094
 20
3.6581869933
 10
3.7523925884
 20
3.6596599091
 10
3.8062623314
 20
3.6611328249
 10
3.8710797875
 20
3.6626057408
 10
3.9452563972
 20
3.6640786566
 10
4.0269742247
 20
3.6655515725
  0
LWPOLYLINE
  5
5F8
100
AcDbEntity
  8
02___PRT_ALL_AXES
100
AcDbPolyline
 62
7
  6
CONTINUOUS
 90
5
 70
0
 10
4.0269742247
 20
4.0789373993
 10
4.0567666248
 20
4.0856334597
 10
4.0877031593
 20
4.0917708056
 10
4.118835964
 20
4.09706162
 10
4.1492607543
 20
4.1013327213
  0
LWPOLYLINE
  5
5F9
100
AcDbEntity
  8
02___PRT_ALL_AXES
100
AcDbPolyline
 62
7
  6
CONTINUOUS
 90
4
 70
0
 10
4.0269742247
 20
4.1379925174
 10
4.0679451505
 20
4.1470045741
 10
4.1087249792
 20
4.1544985663
 10
4.1492607543
 20
4.1603878394
  0
LWPOLYLINE
  5
5FA
100
AcDbEntity
  8
02___PRT_ALL_AXES
100
AcDbPolyline
 62
7
  6
CONTINUOUS
 90
10
 70
0
 10
3.7017770314
 20
4.0400513709
 10
3.7084516107
 20
4.0415155352
 10
3.7276527014
 20
4.0429427275
 10
3.7591915854
 20
4.0443794802
 10
3.8028514327
 20
4.0458341438
 10
3.8573505822
 20
4.0472907462
 10
3.9205171378
 20
4.0487299356
 10
3.9911329105
 20
4.0501627277
 10
4.0682332013
 20
4.0516029745
 10
4.1492607543
 20
4.0530362455
  0
LWPOLYLINE
  5
5FB
100
AcDbEntity
  8
02___PRT_ALL_AXES
100
AcDbPolyline
 62
7
  6
CONTINUOUS
 90
9
 70
0
 10
4.4789420428
 20
4.138044449
 10
4.5606598703
 20
4.1395173648
 10
4.63483648
 20
4.1409902807
 10
4.6996539361
 20
4.1424631965
 10
4.7535236791
 20
4.1439361124
 10
4.7951254581
 20
4.1454090282
 10
4.8234396881
 20
4.146881944
 10
4.8377724381
 20
4.1483548599
 10
4.839346549
 20
4.1488305512
  0
LWPOLYLINE
  5
5FC
100
AcDbEntity
  8
02___PRT_ALL_AXES
100
AcDbPolyline
 62
7
  6
CONTINUOUS
 90
9
 70
0
 10
4.4789420428
 20
4.1454263387
 10
4.5606598703
 20
4.1468992546
 10
4.63483648
 20
4.1483721704
 10
4.6996539361
 20
4.1498450863
 10
4.7535236791
 20
4.1513180021
 10
4.7951254581
 20
4.152790918
 10
4.8234396881
 20
4.1542638338
 10
4.8377724381
 20
4.1557367497
 10
4.839572307
 20
4.1564732076
  0
LWPOLYLINE
  5
5FD
100
AcDbEntity
  8
02___PRT_ALL_AXES
100
AcDbPolyline
 62
7
  6
CONTINUOUS
 90
10
 70
0
 10
4.1492607543
 20
4.1013327213
 10
4.0682332013
 20
4.0998994502
 10
3.9911329105
 20
4.0984592034
 10
3.9205171378
 20
4.0970264113
 10
3.8573505822
 20
4.0955872219
 10
3.8028514327
 20
4.0941306196
 10
3.7591915854
 20
4.092675956
 10
3.7276527014
 20
4.0912392033
 10
3.7084516107
 20
4.0898120109
 10
3.7020172841
 20
4.0886253441
  0
LWPOLYLINE
  5
5FE
100
AcDbEntity
  8
02___PRT_ALL_AXES
100
AcDbPolyline
 62
7
  6
CONTINUOUS
 90
10
 70
0
 10
4.3566555132
 20
4.1156491269
 10
4.438597417
 20
4.1170989521
 10
4.5156409066
 20
4.1185392706
 10
4.5860027346
 20
4.1199683479
 10
4.6493190984
 20
4.1214130959
 10
4.7038492755
 20
4.1228744452
 10
4.7474463523
 20
4.1243336673
 10
4.778828037
 20
4.1257746044
 10
4.797830007
 20
4.1272105532
 10
4.8038989835
 20
4.1283565041
  0
LWPOLYLINE
  5
5FF
100
AcDbEntity
  8
02___PRT_ALL_AXES
100
AcDbPolyline
 62
7
  6
CONTINUOUS
 90
10
 70
0
 10
4.1492607543
 20
4.1603878394
 10
4.0669032997
 20
4.1589304874
 10
3.9892382703
 20
4.1574775678
 10
3.9186866945
 20
4.1560423351
 10
3.8559777195
 20
4.1546086568
 10
3.8018560789
 20
4.153156265
 10
3.7584969369
 20
4.1517043421
 10
3.7271996381
 20
4.150268697
 10
3.7081405502
 20
4.1488325361
 10
3.7020172841
 20
4.1476804622
  0
LWPOLYLINE
  5
600
100
AcDbEntity
  8
02___PRT_ALL_AXES
100
AcDbPolyline
 62
7
  6
CONTINUOUS
 90
4
 70
0
 10
4.3566555132
 20
4.1048904846
 10
4.3971907047
 20
4.1003382706
 10
4.4379736605
 20
4.0941395915
 10
4.4789420428
 20
4.0863712206
  0
LWPOLYLINE
  5
601
100
AcDbEntity
  8
02___PRT_ALL_AXES
100
AcDbPolyline
 62
7
  6
CONTINUOUS
 90
4
 70
0
 10
4.1492607543
 20
4.1711464817
 10
4.1087324828
 20
4.1756977794
 10
4.0679490045
 20
4.1818962798
 10
4.0269742247
 20
4.1896657457
  0
LWPOLYLINE
  5
602
100
AcDbEntity
  8
02___PRT_ALL_AXES
100
AcDbPolyline
 62
7
  6
CONTINUOUS
 90
4
 70
0
 10
4.3566555132
 20
4.1639456027
 10
4.3971907047
 20
4.1593933887
 10
4.4379736605
 20
4.1531947096
 10
4.4789420428
 20
4.1454263387
  0
LINE
  5
603
100
AcDbEntity
  8
0
100
AcDbLine
 62
7
  6
CONTINUOUS
 10
4.839346549
 20
3.8024032655
 11
4.8038989835
 21
3.8228773126
  0
LINE
  5
604
100
AcDbEntity
  8
0
100
AcDbLine
 62
7
  6
CONTINUOUS
 10
4.839346549
 20
3.8614583836
 11
4.8038989835
 21
3.8819324307
  0
LINE
  5
605
100
AcDbEntity
  8
0
100
AcDbLine
 62
7
  6
CONTINUOUS
 10
4.4566982913
 20
3.1045539162
 11
4.4566982913
 21
3.0651838375
  0
LINE
  5
606
100
AcDbEntity
  8
02___PRT_ALL_AXES
100
AcDbLine
 62
7
  6
CONTINUOUS
 10
4.4789420428
 20
4.1454263387
 11
4.4789420428
 21
4.138044449
  0
LINE
  5
607
100
AcDbEntity
  8
02___PRT_ALL_AXES
100
AcDbLine
 62
7
  6
CONTINUOUS
 10
4.4789420428
 20
4.0863712206
 11
4.4789420428
 21
4.0789893309
  0
LINE
  5
608
100
AcDbEntity
  8
02___PRT_ALL_AXES
100
AcDbLine
 62
7
  6
CONTINUOUS
 10
4.4789420428
 20
4.0273161025
 11
4.4789420428
 21
4.0199342128
  0
LINE
  5
609
100
AcDbEntity
  8
02___PRT_ALL_AXES
100
AcDbLine
 62
7
  6
CONTINUOUS
 10
4.4789420428
 20
3.9682609844
 11
4.4789420428
 21
3.9608790946
  0
LINE
  5
60A
100
AcDbEntity
  8
02___PRT_ALL_AXES
100
AcDbLine
 62
7
  6
CONTINUOUS
 10
4.4789420428
 20
3.9092058663
 11
4.4789420428
 21
3.9018239765
  0
LINE
  5
60B
100
AcDbEntity
  8
02___PRT_ALL_AXES
100
AcDbLine
 62
7
  6
CONTINUOUS
 10
4.4789420428
 20
3.8501507482
 11
4.4789420428
 21
3.8427688584
  0
LINE
  5
60C
100
AcDbEntity
  8
02___PRT_ALL_AXES
100
AcDbLine
 62
7
  6
CONTINUOUS
 10
4.4789420428
 20
3.7910956301
 11
4.4789420428
 21
3.7837137403
  0
LINE
  5
60D
100
AcDbEntity
  8
02___PRT_ALL_AXES
100
AcDbLine
 62
7
  6
CONTINUOUS
 10
4.4789420428
 20
3.732040512
 11
4.4789420428
 21
3.7246586222
  0
LINE
  5
60E
100
AcDbEntity
  8
02___PRT_ALL_AXES
100
AcDbLine
 62
7
  6
CONTINUOUS
 10
4.4789420428
 20
3.6729853939
 11
4.4789420428
 21
3.6656035041
  0
LINE
  5
60F
100
AcDbEntity
  8
02___PRT_ALL_AXES
100
AcDbLine
 62
7
  6
CONTINUOUS
 10
4.4789420428
 20
3.6139302758
 11
4.4789420428
 21
3.606548386
  0
LINE
  5
610
100
AcDbEntity
  8
02___PRT_ALL_AXES
100
AcDbLine
 62
7
  6
CONTINUOUS
 10
4.4972297873
 20
3.4830741609
 11
4.4972297873
 21
3.4687271446
  0
LINE
  5
611
100
AcDbEntity
  8
02___PRT_ALL_AXES
100
AcDbLine
 62
7
  6
CONTINUOUS
 10
4.4972297873
 20
3.4332940737
 11
4.4972297873
 21
3.4293570658
  0
LINE
  5
612
100
AcDbEntity
  8
02___PRT_ALL_AXES
100
AcDbLine
 62
7
  6
CONTINUOUS
 10
4.4972297873
 20
3.393923995
 11
4.4972297873
 21
3.3899869871
  0
LINE
  5
613
100
AcDbEntity
  8
02___PRT_ALL_AXES
100
AcDbLine
 62
7
  6
CONTINUOUS
 10
4.4972297873
 20
3.3545539162
 11
4.4972297873
 21
3.3506169084
  0
LINE
  5
614
100
AcDbEntity
  8
02___PRT_ALL_AXES
100
AcDbLine
 62
7
  6
CONTINUOUS
 10
4.4972297873
 20
3.3151838375
 11
4.4972297873
 21
3.3112468296
  0
LINE
  5
615
100
AcDbEntity
  8
02___PRT_ALL_AXES
100
AcDbLine
 62
7
  6
CONTINUOUS
 10
4.4972297873
 20
3.2758137588
 11
4.4972297873
 21
3.2718767509
  0
LINE
  5
616
100
AcDbEntity
  8
02___PRT_ALL_AXES
100
AcDbLine
 62
7
  6
CONTINUOUS
 10
4.4972297873
 20
3.23644368
 11
4.4972297873
 21
3.2325066721
  0
LINE
  5
617
100
AcDbEntity
  8
02___PRT_ALL_AXES
100
AcDbLine
 62
7
  6
CONTINUOUS
 10
4.4972297873
 20
3.1970736013
 11
4.4972297873
 21
3.1931365934
  0
LINE
  5
618
100
AcDbEntity
  8
02___PRT_ALL_AXES
100
AcDbLine
 62
7
  6
CONTINUOUS
 10
4.4972297873
 20
3.1577035225
 11
4.4972297873
 21
3.1537665147
  0
LINE
  5
619
100
AcDbEntity
  8
0
100
AcDbLine
 62
7
  6
CONTINUOUS
 10
4.0089272199
 20
3.4138872454
 11
4.0086864802
 21
3.4136090343
  0
LINE
  5
61A
100
AcDbEntity
  8
0
100
AcDbLine
 62
7
  6
CONTINUOUS
 10
4.0089272199
 20
3.3745171667
 11
4.0086864802
 21
3.3742389556
  0
LINE
  5
61B
100
AcDbEntity
  8
0
100
AcDbLine
 62
7
  6
CONTINUOUS
 10
4.0089272199
 20
3.335147088
 11
4.0086864802
 21
3.3348688769
  0
LINE
  5
61C
100
AcDbEntity
  8
0
100
AcDbLine
 62
7
  6
CONTINUOUS
 10
4.0089272199
 20
3.2957770092
 11
4.0086864802
 21
3.2954987981
  0
LINE
  5
61D
100
AcDbEntity
  8
0
100
AcDbLine
 62
7
  6
CONTINUOUS
 10
4.8038989835
 20
4.069301386
 11
4.839346549
 21
4.0897754331
  0
LINE
  5
61E
100
AcDbEntity
  8
0
100
AcDbLine
 62
7
  6
CONTINUOUS
 10
4.8038989835
 20
4.0102462679
 11
4.839346549
 21
4.030720315
  0
LWPOLYLINE
  5
61F
100
AcDbEntity
  8
02___PRT_ALL_AXES
100
AcDbPolyline
 62
7
  6
CONTINUOUS
 90
9
 70
0
 10
3.6665697186
 20
3.5957103521
 10
3.6681438294
 20
3.5961860435
 10
3.6824765794
 20
3.5976589593
 10
3.7107908094
 20
3.5991318751
 10
3.7523925884
 20
3.600604791
 10
3.8062623314
 20
3.6020777068
 10
3.8710797875
 20
3.6035506227
 10
3.9452563972
 20
3.6050235385
 10
4.0269742247
 20
3.6064964544
  0
LWPOLYLINE
  5
620
100
AcDbEntity
  8
02___PRT_ALL_AXES
100
AcDbPolyline
 62
7
  6
CONTINUOUS
 90
10
 70
0
 10
3.7017770314
 20
4.099106438
 10
3.7081405502
 20
4.1005360604
 10
3.7271996381
 20
4.1019722212
 10
3.7584969369
 20
4.1034078663
 10
3.8018560789
 20
4.1048597892
 10
3.8559777195
 20
4.106312181
 10
3.9186866945
 20
4.1077458594
 10
3.9892382703
 20
4.1091810921
 10
4.0669032997
 20
4.1106340116
 10
4.1492607543
 20
4.1120913636
  0
LWPOLYLINE
  5
621
100
AcDbEntity
  8
02___PRT_ALL_AXES
100
AcDbPolyline
 62
7
  6
CONTINUOUS
 90
10
 70
0
 10
3.7017770314
 20
4.1581615837
 10
3.7082773588
 20
4.1596064941
 10
3.7275325403
 20
4.1610461892
 10
3.7587247456
 20
4.1624717681
 10
3.8017524723
 20
4.163911832
 10
3.8556683501
 20
4.1653596914
 10
3.9184914312
 20
4.1667967891
 10
3.9891063498
 20
4.1682336482
 10
4.0668312527
 20
4.1696878245
 10
4.1492607543
 20
4.1711464817
  0
LWPOLYLINE
  5
622
100
AcDbEntity
  8
02___PRT_ALL_AXES
100
AcDbPolyline
 62
7
  6
CONTINUOUS
 90
4
 70
0
 10
4.0269742247
 20
4.1970476355
 10
4.0679451505
 20
4.2060596922
 10
4.1087249792
 20
4.2135536844
 10
4.1492607543
 20
4.2194429575
  0
LWPOLYLINE
  5
623
100
AcDbEntity
  8
02___PRT_ALL_AXES
100
AcDbPolyline
 62
7
  6
CONTINUOUS
 90
10
 70
0
 10
4.1492607543
 20
4.2194429575
 10
4.0668312527
 20
4.2179843003
 10
3.9891063498
 20
4.216530124
 10
3.9184914312
 20
4.2150932648
 10
3.8556683501
 20
4.2136561672
 10
3.8017524723
 20
4.2122083077
 10
3.7587247456
 20
4.2107682439
 10
3.7275325403
 20
4.2093426649
 10
3.7082773588
 20
4.2079029699
 10
3.7020172841
 20
4.2067355803
  0
LINE
  5
624
100
AcDbEntity
  8
0
100
AcDbLine
 62
9
  6
CONTINUOUS
 10
4.8041392361
 20
4.2462861997
 11
3.7017770314
 21
4.2462861997
  0
LINE
  5
625
100
AcDbEntity
  8
0
100
AcDbLine
 62
7
  6
CONTINUOUS
 10
4.839346549
 20
3.9205135017
 11
4.8038989835
 21
3.9409875488
  0
LINE
  5
626
100
AcDbEntity
  8
0
100
AcDbLine
 62
7
  6
CONTINUOUS
 10
4.839346549
 20
3.9795686198
 11
4.8038989835
 21
4.0000426669
  0
LINE
  5
627
100
AcDbEntity
  8
02___PRT_ALL_AXES
100
AcDbLine
 62
7
  6
CONTINUOUS
 10
4.839572307
 20
3.6249771446
 11
4.839346549
 21
3.6252379112
  0
LINE
  5
628
100
AcDbEntity
  8
02___PRT_ALL_AXES
100
AcDbLine
 62
7
  6
CONTINUOUS
 10
4.839572307
 20
3.6840322627
 11
4.839346549
 21
3.6842930293
  0
LINE
  5
629
100
AcDbEntity
  8
02___PRT_ALL_AXES
100
AcDbLine
 62
7
  6
CONTINUOUS
 10
4.839572307
 20
3.7430873808
 11
4.839346549
 21
3.7433481474
  0
LINE
  5
62A
100
AcDbEntity
  8
0
100
AcDbLine
 62
7
  6
CONTINUOUS
 10
4.0089272199
 20
3.2564069305
 11
4.0086864802
 21
3.2561287194
  0
LINE
  5
62B
100
AcDbEntity
  8
0
100
AcDbLine
 62
7
  6
CONTINUOUS
 10
4.0089272199
 20
3.2170368517
 11
4.0086864802
 21
3.2167586406
  0
LINE
  5
62C
100
AcDbEntity
  8
0
100
AcDbLine
 62
7
  6
CONTINUOUS
 10
4.0089272199
 20
3.177666773
 11
4.0086864802
 21
3.1773885619
  0
LINE
  5
62D
100
AcDbEntity
  8
02___PRT_ALL_AXES
100
AcDbLine
 62
7
  6
CONTINUOUS
 10
4.839346549
 20
4.1488305512
 11
4.839572307
 21
4.1490913178
  0
LINE
  5
62E
100
AcDbEntity
  8
0
100
AcDbLine
 62
7
  6
CONTINUOUS
 10
4.8038989835
 20
3.9511911498
 11
4.839346549
 21
3.9716651969
  0
LINE
  5
62F
100
AcDbEntity
  8
0
100
AcDbLine
 62
7
  6
CONTINUOUS
 10
4.8038989835
 20
3.8921360317
 11
4.839346549
 21
3.9126100788
  0
LINE
  5
630
100
AcDbEntity
  8
0
100
AcDbLine
 62
7
  6
CONTINUOUS
 10
5.1978400235
 20
4.2856562784
 11
3.308076244
 21
4.2856562784
  0
LINE
  5
631
100
AcDbEntity
  8
0
100
AcDbLine
 62
9
  6
CONTINUOUS
 10
3.2687061653
 20
4.3250263572
 11
5.2372101023
 21
4.3250263572
  0
LINE
  5
632
100
AcDbEntity
  8
0
100
AcDbLine
 62
7
  6
CONTINUOUS
 10
4.839346549
 20
4.0386237379
 11
4.8038989835
 21
4.0590977851
  0
LINE
  5
633
100
AcDbEntity
  8
02___PRT_ALL_AXES
100
AcDbLine
 62
7
  6
CONTINUOUS
 10
4.839572307
 20
3.8021424989
 11
4.839346549
 21
3.8024032655
  0
LINE
  5
634
100
AcDbEntity
  8
02___PRT_ALL_AXES
100
AcDbLine
 62
7
  6
CONTINUOUS
 10
4.839572307
 20
3.861197617
 11
4.839346549
 21
3.8614583836
  0
LINE
  5
635
100
AcDbEntity
  8
02___PRT_ALL_AXES
100
AcDbLine
 62
7
  6
CONTINUOUS
 10
4.839346549
 20
4.0897754331
 11
4.839572307
 21
4.0900361997
  0
LINE
  5
636
100
AcDbEntity
  8
02___PRT_ALL_AXES
100
AcDbLine
 62
7
  6
CONTINUOUS
 10
4.839346549
 20
4.030720315
 11
4.839572307
 21
4.0309810816
  0
LINE
  5
637
100
AcDbEntity
  8
02___PRT_ALL_AXES
100
AcDbLine
 62
7
  6
CONTINUOUS
 10
4.839346549
 20
3.9716651969
 11
4.839572307
 21
3.9719259635
  0
LINE
  5
638
100
AcDbEntity
  8
0
100
AcDbLine
 62
7
  6
CONTINUOUS
 10
4.0396476215
 20
3.4316436873
 11
4.0089272199
 21
3.4138872454
  0
LINE
  5
639
100
AcDbEntity
  8
0
100
AcDbLine
 62
7
  6
CONTINUOUS
 10
4.0396476215
 20
3.3922736085
 11
4.0089272199
 21
3.3745171667
  0
LINE
  5
63A
100
AcDbEntity
  8
0
100
AcDbLine
 62
7
  6
CONTINUOUS
 10
4.0396476215
 20
3.3529035298
 11
4.0089272199
 21
3.335147088
  0
LINE
  5
63B
100
AcDbEntity
  8
0
100
AcDbLine
 62
7
  6
CONTINUOUS
 10
4.8038989835
 20
3.8330809136
 11
4.839346549
 21
3.8535549607
  0
LWPOLYLINE
  5
63C
100
AcDbEntity
  8
0
100
AcDbPolyline
 62
7
  6
CONTINUOUS
 90
9
 70
0
 10
4.0086864802
 20
3.4490421052
 10
4.0117519213
 20
3.4500358311
 10
4.0207368444
 20
3.4510184682
 10
4.035279289
 20
3.4519930973
 10
4.0550977354
 20
3.4529686062
 10
4.0798878415
 20
3.453950868
 10
4.1088073417
 20
3.4549294768
 10
4.1413570143
 20
3.4559115813
 10
4.177105283
 20
3.4569061724
  0
LINE
  5
63D
100
AcDbEntity
  8
0
100
AcDbLine
 62
7
  6
CONTINUOUS
 10
4.839346549
 20
4.097678856
 11
4.8038989835
 21
4.1181529032
  0
LINE
  5
63E
100
AcDbEntity
  8
0
100
AcDbLine
 62
7
  6
CONTINUOUS
 10
4.839346549
 20
4.1567339742
 11
4.8038989835
 21
4.1772080213
  0
LINE
  5
63F
100
AcDbEntity
  8
02___PRT_ALL_AXES
100
AcDbLine
 62
7
  6
CONTINUOUS
 10
4.839572307
 20
3.9202527351
 11
4.839346549
 21
3.9205135017
  0
LINE
  5
640
100
AcDbEntity
  8
02___PRT_ALL_AXES
100
AcDbLine
 62
7
  6
CONTINUOUS
 10
4.839572307
 20
3.9793078532
 11
4.839346549
 21
3.9795686198
  0
LINE
  5
641
100
AcDbEntity
  8
02___PRT_ALL_AXES
100
AcDbLine
 62
7
  6
CONTINUOUS
 10
4.8041392361
 20
4.2462861997
 11
4.8041392361
 21
4.1769305006
  0
LINE
  5
642
100
AcDbEntity
  8
02___PRT_ALL_AXES
100
AcDbLine
 62
7
  6
CONTINUOUS
 10
4.8041392361
 20
4.1286340248
 11
4.8041392361
 21
4.1178753825
  0
LINE
  5
643
100
AcDbEntity
  8
02___PRT_ALL_AXES
100
AcDbLine
 62
7
  6
CONTINUOUS
 10
4.8041392361
 20
4.0695789067
 11
4.8041392361
 21
4.0588202644
  0
LINE
  5
644
100
AcDbEntity
  8
02___PRT_ALL_AXES
100
AcDbLine
 62
7
  6
CONTINUOUS
 10
4.8041392361
 20
4.0105237886
 11
4.8041392361
 21
3.9997651463
  0
LINE
  5
645
100
AcDbEntity
  8
02___PRT_ALL_AXES
100
AcDbLine
 62
7
  6
CONTINUOUS
 10
4.8041392361
 20
3.9514686705
 11
4.8041392361
 21
3.9407100281
  0
LINE
  5
646
100
AcDbEntity
  8
02___PRT_ALL_AXES
100
AcDbLine
 62
7
  6
CONTINUOUS
 10
4.8041392361
 20
3.8924135524
 11
4.8041392361
 21
3.88165491
  0
LINE
  5
647
100
AcDbEntity
  8
02___PRT_ALL_AXES
100
AcDbLine
 62
7
  6
CONTINUOUS
 10
4.8041392361
 20
3.8333584343
 11
4.8041392361
 21
3.8225997919
  0
LINE
  5
648
100
AcDbEntity
  8
02___PRT_ALL_AXES
100
AcDbLine
 62
7
  6
CONTINUOUS
 10
4.8041392361
 20
3.7743033162
 11
4.8041392361
 21
3.7635446738
  0
LINE
  5
649
100
AcDbEntity
  8
02___PRT_ALL_AXES
100
AcDbLine
 62
7
  6
CONTINUOUS
 10
4.8041392361
 20
3.715248198
 11
4.8041392361
 21
3.7044895557
  0
LINE
  5
64A
100
AcDbEntity
  8
02___PRT_ALL_AXES
100
AcDbLine
 62
7
  6
CONTINUOUS
 10
4.8041392361
 20
3.6561930799
 11
4.8041392361
 21
3.6454344376
  0
LINE
  5
64B
100
AcDbEntity
  8
02___PRT_ALL_AXES
100
AcDbLine
 62
7
  6
CONTINUOUS
 10
4.8041392361
 20
3.5971379618
 11
4.8041392361
 21
3.5376247824
  0
LINE
  5
64C
100
AcDbEntity
  8
0
100
AcDbLine
 62
7
  6
CONTINUOUS
 10
4.4969890476
 20
3.4684489335
 11
4.4972297873
 21
3.4687271446
  0
LINE
  5
64D
100
AcDbEntity
  8
02___PRT_ALL_AXES
100
AcDbLine
 62
7
  6
CONTINUOUS
 10
4.839346549
 20
3.9126100788
 11
4.839572307
 21
3.9128708454
  0
LINE
  5
64E
100
AcDbEntity
  8
02___PRT_ALL_AXES
100
AcDbLine
 62
7
  6
CONTINUOUS
 10
4.839346549
 20
3.8535549607
 11
4.839572307
 21
3.8538157273
  0
LINE
  5
64F
100
AcDbEntity
  8
0
100
AcDbLine
 62
7
  6
CONTINUOUS
 10
4.0396476215
 20
3.3135334511
 11
4.0089272199
 21
3.2957770092
  0
LINE
  5
650
100
AcDbEntity
  8
0
100
AcDbLine
 62
7
  6
CONTINUOUS
 10
4.0396476215
 20
3.2741633723
 11
4.0089272199
 21
3.2564069305
  0
LINE
  5
651
100
AcDbEntity
  8
0
100
AcDbLine
 62
7
  6
CONTINUOUS
 10
4.8038989835
 20
3.7740257955
 11
4.839346549
 21
3.7944998426
  0
LINE
  5
652
100
AcDbEntity
  8
0
100
AcDbLine
 62
7
  6
CONTINUOUS
 10
4.8038989835
 20
3.7149706773
 11
4.839346549
 21
3.7354447245
  0
LWPOLYLINE
  5
653
100
AcDbEntity
  8
0
100
AcDbPolyline
 62
7
  6
CONTINUOUS
 90
10
 70
0
 10
4.0396476215
 20
3.3922736085
 10
4.0401336183
 20
3.3924846588
 10
4.0457459524
 20
3.3934900774
 10
4.0566818734
 20
3.3944954961
 10
4.0726604214
 20
3.3955009148
 10
4.0932710838
 20
3.3965063335
 10
4.1179843423
 20
3.3975117522
 10
4.1461652768
 20
3.3985171708
 10
4.1770898774
 20
3.3995225895
 10
4.2099636456
 20
3.4005280082
  0
LWPOLYLINE
  5
654
100
AcDbEntity
  8
0
100
AcDbPolyline
 62
7
  6
CONTINUOUS
 90
10
 70
0
 10
4.0396476215
 20
3.3529035298
 10
4.0406583177
 20
3.3532733303
 10
4.0471243757
 20
3.354278749
 10
4.0588786068
 20
3.3552841677
 10
4.0756190276
 20
3.3562895864
 10
4.0969155518
 20
3.3572950051
 10
4.1222210404
 20
3.3583004237
 10
4.150885358
 20
3.3593058424
 10
4.1821720758
 20
3.3603112611
 10
4.215277392
 20
3.3613166798
  0
LWPOLYLINE
  5
655
100
AcDbEntity
  8
0
100
AcDbPolyline
 62
7
  6
CONTINUOUS
 90
9
 70
0
 10
4.0086864802
 20
3.4096720265
 10
4.0117576241
 20
3.4106666782
 10
4.0207476912
 20
3.4116492862
 10
4.0352929912
 20
3.4126237931
 10
4.0551207241
 20
3.4135995329
 10
4.0799243961
 20
3.4145821178
 10
4.1088520712
 20
3.4155608192
 10
4.1414038616
 20
3.4165428535
 10
4.177145454
 20
3.4175371776
  0
LWPOLYLINE
  5
656
100
AcDbEntity
  8
0
100
AcDbPolyline
 62
7
  6
CONTINUOUS
 90
9
 70
0
 10
4.0086864802
 20
3.3703019477
 10
4.0117644335
 20
3.3712977038
 10
4.0207607901
 20
3.3722802899
 10
4.0353101614
 20
3.3732546847
 10
4.0551492246
 20
3.3742307004
 10
4.0799678864
 20
3.3752136194
 10
4.1089049666
 20
3.3761924207
 10
4.1414595113
 20
3.3771743792
 10
4.1771931501
 20
3.3781683859
  0
LINE
  5
657
100
AcDbEntity
  8
02___PRT_ALL_AXES
100
AcDbLine
 62
7
  6
CONTINUOUS
 10
4.839572307
 20
4.0383629714
 11
4.839346549
 21
4.0386237379
  0
LINE
  5
658
100
AcDbEntity
  8
02___PRT_ALL_AXES
100
AcDbLine
 62
7
  6
CONTINUOUS
 10
4.839572307
 20
4.0974180895
 11
4.839346549
 21
4.097678856
  0
LINE
  5
659
100
AcDbEntity
  8
02___PRT_ALL_AXES
100
AcDbLine
 62
7
  6
CONTINUOUS
 10
4.839572307
 20
4.1564732076
 11
4.839346549
 21
4.1567339742
  0
LINE
  5
65A
100
AcDbEntity
  8
0
100
AcDbLine
 62
7
  6
CONTINUOUS
 10
4.839572307
 20
3.6175952548
 11
4.839572307
 21
3.6249771446
  0
LINE
  5
65B
100
AcDbEntity
  8
0
100
AcDbLine
 62
7
  6
CONTINUOUS
 10
4.839572307
 20
3.6766503729
 11
4.839572307
 21
3.6840322627
  0
LINE
  5
65C
100
AcDbEntity
  8
0
100
AcDbLine
 62
7
  6
CONTINUOUS
 10
4.839572307
 20
3.735705491
 11
4.839572307
 21
3.7430873808
  0
LINE
  5
65D
100
AcDbEntity
  8
0
100
AcDbLine
 62
7
  6
CONTINUOUS
 10
4.839572307
 20
3.7947606092
 11
4.839572307
 21
3.8021424989
  0
LINE
  5
65E
100
AcDbEntity
  8
0
100
AcDbLine
 62
7
  6
CONTINUOUS
 10
4.839572307
 20
3.8538157273
 11
4.839572307
 21
3.861197617
  0
LINE
  5
65F
100
AcDbEntity
  8
0
100
AcDbLine
 62
7
  6
CONTINUOUS
 10
4.839572307
 20
3.9128708454
 11
4.839572307
 21
3.9202527351
  0
LINE
  5
660
100
AcDbEntity
  8
0
100
AcDbLine
 62
7
  6
CONTINUOUS
 10
4.839572307
 20
3.9719259635
 11
4.839572307
 21
3.9793078532
  0
LINE
  5
661
100
AcDbEntity
  8
0
100
AcDbLine
 62
7
  6
CONTINUOUS
 10
4.839572307
 20
4.0309810816
 11
4.839572307
 21
4.0383629714
  0
LINE
  5
662
100
AcDbEntity
  8
0
100
AcDbLine
 62
7
  6
CONTINUOUS
 10
4.839572307
 20
4.0900361997
 11
4.839572307
 21
4.0974180895
  0
LINE
  5
663
100
AcDbEntity
  8
0
100
AcDbLine
 62
7
  6
CONTINUOUS
 10
4.839572307
 20
4.1490913178
 11
4.839572307
 21
4.1564732076
  0
LINE
  5
664
100
AcDbEntity
  8
0
100
AcDbLine
 62
7
  6
CONTINUOUS
 10
4.4969890476
 20
3.4290788547
 11
4.4972297873
 21
3.4293570658
  0
LINE
  5
665
100
AcDbEntity
  8
0
100
AcDbLine
 62
7
  6
CONTINUOUS
 10
4.4969890476
 20
3.389708776
 11
4.4972297873
 21
3.3899869871
  0
LINE
  5
666
100
AcDbEntity
  8
0
100
AcDbLine
 62
7
  6
CONTINUOUS
 10
4.4969890476
 20
3.3503386973
 11
4.4972297873
 21
3.3506169126
  0
LINE
  5
667
100
AcDbEntity
  8
0
100
AcDbLine
 62
7
  6
CONTINUOUS
 10
4.4969890476
 20
3.3109686185
 11
4.4972297873
 21
3.3112468296
  0
LINE
  5
668
100
AcDbEntity
  8
02___PRT_ALL_AXES
100
AcDbLine
 62
7
  6
CONTINUOUS
 10
4.839346549
 20
3.7944998426
 11
4.839572307
 21
3.7947606092
  0
LINE
  5
669
100
AcDbEntity
  8
02___PRT_ALL_AXES
100
AcDbLine
 62
7
  6
CONTINUOUS
 10
4.839346549
 20
3.7354447245
 11
4.839572307
 21
3.735705491
  0
LINE
  5
66A
100
AcDbEntity
  8
0
100
AcDbLine
 62
7
  6
CONTINUOUS
 10
4.0396476215
 20
3.2347932936
 11
4.0089272199
 21
3.2170368517
  0
LINE
  5
66B
100
AcDbEntity
  8
0
100
AcDbLine
 62
7
  6
CONTINUOUS
 10
4.4662686461
 20
3.4506924917
 11
4.4969890476
 21
3.4684489335
  0
LINE
  5
66C
100
AcDbEntity
  8
0
100
AcDbLine
 62
7
  6
CONTINUOUS
 10
4.0396476215
 20
3.1954232148
 11
4.0089272199
 21
3.177666773
  0
LINE
  5
66D
100
AcDbEntity
  8
0
100
AcDbLine
 62
7
  6
CONTINUOUS
 10
4.4662686461
 20
3.4113224129
 11
4.4969890476
 21
3.4290788547
  0
LINE
  5
66E
100
AcDbEntity
  8
0
100
AcDbLine
 62
7
  6
CONTINUOUS
 10
4.0396476215
 20
3.1560531361
 11
4.0099990686
 21
3.1389161396
  0
LINE
  5
66F
100
AcDbEntity
  8
0
100
AcDbLine
 62
7
  6
CONTINUOUS
 10
4.8038989835
 20
3.6559155592
 11
4.839346549
 21
3.6763896064
  0
LINE
  5
670
100
AcDbEntity
  8
0
100
AcDbLine
 62
7
  6
CONTINUOUS
 10
4.8038989835
 20
3.5968604411
 11
4.839346549
 21
3.6173344882
  0
LWPOLYLINE
  5
671
100
AcDbEntity
  8
0
100
AcDbPolyline
 62
7
  6
CONTINUOUS
 90
9
 70
0
 10
4.0086864802
 20
3.330931869
 10
4.0117517663
 20
3.3319255697
 10
4.0207367025
 20
3.3329082202
 10
4.0352796409
 20
3.333882881
 10
4.0550976556
 20
3.3348583665
 10
4.0798865808
 20
3.3358405859
 10
4.108805708
 20
3.3368191887
 10
4.1413556317
 20
3.3378013053
 10
4.1771042918
 20
3.3387959094
  0
LWPOLYLINE
  5
672
100
AcDbEntity
  8
0
100
AcDbPolyline
 62
7
  6
CONTINUOUS
 90
9
 70
0
 10
4.0086864802
 20
3.2915617903
 10
4.0117564862
 20
3.2925562573
 10
4.0207454946
 20
3.2935388684
 10
4.0352900976
 20
3.2945133934
 10
4.0551159933
 20
3.2954890898
 10
4.0799171542
 20
3.2964716184
 10
4.1088432418
 20
3.2974503025
 10
4.1413945483
 20
3.2984323487
 10
4.1771374392
 20
3.2994267252
  0
LWPOLYLINE
  5
673
100
AcDbEntity
  8
0
100
AcDbPolyline
 62
7
  6
CONTINUOUS
 90
9
 70
0
 10
4.0086864802
 20
3.2521917115
 10
4.0117633007
 20
3.253187284
 10
4.0207586166
 20
3.2541698741
 10
4.0353073225
 20
3.2551442881
 10
4.0551444607
 20
3.2561202559
 10
4.0799606334
 20
3.2571031196
 10
4.1088961604
 20
3.2580819048
 10
4.1414502637
 20
3.2590638764
 10
4.1771852475
 20
3.2600579364
  0
LWPOLYLINE
  5
674
100
AcDbEntity
  8
0
100
AcDbPolyline
 62
7
  6
CONTINUOUS
 90
9
 70
0
 10
4.4972297873
 20
3.4332940737
 10
4.4941487842
 20
3.4322978234
 10
4.4851494411
 20
3.431315233
 10
4.4705983485
 20
3.4303408985
 10
4.4507490766
 20
3.4293645356
 10
4.4259167668
 20
3.4283812536
 10
4.3969706358
 20
3.4274023092
 10
4.3644115682
 20
3.4264203395
 10
4.3286824326
 20
3.4254265378
  0
LWPOLYLINE
  5
675
100
AcDbEntity
  8
0
100
AcDbPolyline
 62
7
  6
CONTINUOUS
 90
9
 70
0
 10
4.0396476215
 20
3.3135334511
 10
4.0413192817
 20
3.3140620019
 10
4.0486349133
 20
3.3150674206
 10
4.0611999101
 20
3.3160728393
 10
4.0786914589
 20
3.317078258
 10
4.1006601758
 20
3.3180836766
 10
4.1265416521
 20
3.3190890953
 10
4.1556709545
 20
3.320094514
 10
4.1872997082
 20
3.3210999327
  0
LINE
  5
676
100
AcDbEntity
  8
0
100
AcDbLine
 62
7
  6
CONTINUOUS
 10
4.4969890476
 20
3.2715985398
 11
4.4972297873
 21
3.2718767509
  0
LINE
  5
677
100
AcDbEntity
  8
0
100
AcDbLine
 62
7
  6
CONTINUOUS
 10
4.4969890476
 20
3.232228461
 11
4.4972297873
 21
3.2325066661
  0
LINE
  5
678
100
AcDbEntity
  8
0
100
AcDbLine
 62
7
  6
CONTINUOUS
 10
4.4969890476
 20
3.1928583823
 11
4.4972297873
 21
3.1931365934
  0
LINE
  5
679
100
AcDbEntity
  8
02___PRT_ALL_AXES
100
AcDbLine
 62
7
  6
CONTINUOUS
 10
4.839346549
 20
3.6763896064
 11
4.839572307
 21
3.6766503729
  0
LINE
  5
67A
100
AcDbEntity
  8
02___PRT_ALL_AXES
100
AcDbLine
 62
7
  6
CONTINUOUS
 10
4.839346549
 20
3.6173344882
 11
4.839572307
 21
3.6175952548
  0
LWPOLYLINE
  5
67B
100
AcDbEntity
  8
0
100
AcDbPolyline
 62
7
  6
CONTINUOUS
 90
10
 70
0
 10
4.4972297873
 20
3.3151838417
 10
4.4965368788
 20
3.3147117684
 10
4.491016607
 20
3.3137675653
 10
4.4802944782
 20
3.3128368916
 10
4.4646143123
 20
3.3119086824
 10
4.4441839809
 20
3.3109757698
 10
4.4194055947
 20
3.3100387569
 10
4.3911027303
 20
3.3091076752
 10
4.3595076416
 20
3.3081695342
 10
4.3251815432
 20
3.3072220726
  0
LINE
  5
67C
100
AcDbEntity
  8
0
100
AcDbLine
 62
7
  6
CONTINUOUS
 10
4.4662686461
 20
3.3719523342
 11
4.4969890476
 21
3.389708776
  0
LINE
  5
67D
100
AcDbEntity
  8
0
100
AcDbLine
 62
7
  6
CONTINUOUS
 10
4.0396476215
 20
3.1166830574
 11
4.034966023
 21
3.1139767227
  0
LINE
  5
67E
100
AcDbEntity
  8
0
100
AcDbLine
 62
7
  6
CONTINUOUS
 10
4.4662686461
 20
3.3325822555
 11
4.4969890476
 21
3.3503386973
  0
LINE
  5
67F
100
AcDbEntity
  8
0
100
AcDbLine
 62
7
  6
CONTINUOUS
 10
4.4662686461
 20
3.2932121767
 11
4.4969890476
 21
3.3109686185
  0
LWPOLYLINE
  5
680
100
AcDbEntity
  8
0
100
AcDbPolyline
 62
7
  6
CONTINUOUS
 90
10
 70
0
 10
4.0396476215
 20
3.1560531361
 10
4.0405631951
 20
3.1563969793
 10
4.0468596926
 20
3.1573990214
 10
4.0584157341
 20
3.1584010636
 10
4.0749364143
 20
3.1594031057
 10
4.0960001327
 20
3.1604051478
 10
4.1210693521
 20
3.16140719
 10
4.1495043167
 20
3.1624092321
 10
4.1805793785
 20
3.1634112743
 10
4.2135015151
 20
3.1644133164
  0
LWPOLYLINE
  5
681
100
AcDbEntity
  8
0
100
AcDbPolyline
 62
7
  6
CONTINUOUS
 90
9
 70
0
 10
4.0086864802
 20
3.2128216328
 10
4.0117516131
 20
3.2138153086
 10
4.0207365624
 20
3.2147979724
 10
4.035279993
 20
3.2157726647
 10
4.0550975934
 20
3.2167481276
 10
4.0798853381
 20
3.2177303045
 10
4.1088040904
 20
3.2187089011
 10
4.1413542627
 20
3.2196910296
 10
4.1771033102
 20
3.2206856467
  0
LWPOLYLINE
  5
682
100
AcDbEntity
  8
0
100
AcDbPolyline
 62
7
  6
CONTINUOUS
 90
9
 70
0
 10
4.0086864802
 20
3.173451554
 10
4.0117553476
 20
3.1744458362
 10
4.0207432941
 20
3.1754284503
 10
4.0352871948
 20
3.1764029931
 10
4.055111268
 20
3.1773786469
 10
4.0799099142
 20
3.1783611191
 10
4.1088344086
 20
3.1793397856
 10
4.1413852242
 20
3.1803218436
 10
4.1771294057
 20
3.1813162722
  0
LWPOLYLINE
  5
683
100
AcDbEntity
  8
0
100
AcDbPolyline
 62
7
  6
CONTINUOUS
 90
9
 70
0
 10
4.4972297873
 20
3.3545539162
 10
4.4941590098
 20
3.353559324
 10
4.4851697653
 20
3.3525767548
 10
4.4706250761
 20
3.3516022513
 10
4.4507980998
 20
3.3506265216
 10
4.4259956474
 20
3.3496439621
 10
4.3970689344
 20
3.348665274
 10
4.3645163447
 20
3.3476832028
 10
4.3287728285
 20
3.3466888194
  0
LWPOLYLINE
  5
684
100
AcDbEntity
  8
0
100
AcDbPolyline
 62
7
  6
CONTINUOUS
 90
9
 70
0
 10
4.4972297873
 20
3.393923995
 10
4.4941521955
 20
3.3929282975
 10
4.4851566481
 20
3.3919457496
 10
4.4706078516
 20
3.3909713566
 10
4.4507695612
 20
3.3899953524
 10
4.425952094
 20
3.3890124582
 10
4.3970159622
 20
3.3880336701
 10
4.3644606024
 20
3.3870516744
 10
4.3287250307
 20
3.3860576084
  0
LINE
  5
685
100
AcDbEntity
  8
0
100
AcDbLine
 62
7
  6
CONTINUOUS
 10
4.4972297873
 20
3.1537665142
 11
4.4969890476
 21
3.1534883036
  0
LINE
  5
686
100
AcDbEntity
  8
0
100
AcDbLine
 62
7
  6
CONTINUOUS
 10
4.4617967404
 20
3.1045538925
 11
4.4835020243
 21
3.1262591715
  0
LWPOLYLINE
  5
687
100
AcDbEntity
  8
0
100
AcDbPolyline
 62
7
  6
CONTINUOUS
 90
5
 70
0
 10
4.4972297873
 20
3.1970735953
 10
4.496520298
 20
3.1965959148
 10
4.4909689793
 20
3.1956518879
 10
4.4802186643
 20
3.1947213455
 10
4.4645035912
 20
3.1937927614
  0
LINE
  5
688
100
AcDbEntity
  8
0
100
AcDbLine
 62
7
  6
CONTINUOUS
 10
4.4662686461
 20
3.253842098
 11
4.4969890476
 21
3.2715985398
  0
LINE
  5
689
100
AcDbEntity
  8
0
100
AcDbLine
 62
7
  6
CONTINUOUS
 10
4.4662686461
 20
3.2144720192
 11
4.4969890476
 21
3.232228461
  0
LINE
  5
68A
100
AcDbEntity
  8
0
100
AcDbLine
 62
7
  6
CONTINUOUS
 10
4.4662686461
 20
3.1751019405
 11
4.4969890476
 21
3.1928583823
  0
LWPOLYLINE
  5
68B
100
AcDbEntity
  8
0
100
AcDbPolyline
 62
7
  6
CONTINUOUS
 90
9
 70
0
 10
4.4972297873
 20
3.23644368
 10
4.4941578719
 20
3.2354489031
 10
4.4851675693
 20
3.2344663371
 10
4.4706221823
 20
3.2334918515
 10
4.450793357
 20
3.232516078
 10
4.4259883928
 20
3.2315334623
 10
4.3970600956
 20
3.230554757
 10
4.3645070265
 20
3.2295726979
 10
4.328764815
 20
3.228578367
  0
LWPOLYLINE
  5
68C
100
AcDbEntity
  8
0
100
AcDbPolyline
 62
7
  6
CONTINUOUS
 90
9
 70
0
 10
4.4972297873
 20
3.2758137587
 10
4.4941510628
 20
3.2748178777
 10
4.4851544756
 20
3.2738353339
 10
4.4706050129
 20
3.27286096
 10
4.4507647858
 20
3.2718849074
 10
4.4259448291
 20
3.2709019581
 10
4.3970071476
 20
3.2699231539
 10
4.364451351
 20
3.2689411714
 10
4.3287171305
 20
3.2679471591
  0
LWPOLYLINE
  5
68D
100
AcDbEntity
  8
0
100
AcDbPolyline
 62
7
  6
CONTINUOUS
 90
9
 70
0
 10
4.0396476215
 20
3.1166830574
 10
4.0418348749
 20
3.117317336
 10
4.0496784012
 20
3.1183193781
 10
4.0627095392
 20
3.1193214202
 10
4.08059574
 20
3.1203234624
 10
4.1028805553
 20
3.1213255045
 10
4.1289952862
 20
3.1223275467
 10
4.1582734959
 20
3.1233295888
 10
4.189968017
 20
3.1243316309
  0
LINE
  5
68E
100
AcDbEntity
  8
02___PRT_ALL_AXES
100
AcDbLine
 62
7
  6
CONTINUOUS
 10
3.2687103888
 20
4.7974673021
 11
5.2372058788
 21
4.7974673021
  0
LINE
  5
68F
100
AcDbEntity
  8
0
100
AcDbLine
 62
7
  6
CONTINUOUS
 10
4.4662686461
 20
3.1357318618
 11
4.4969890476
 21
3.1534883036
  0
LWPOLYLINE
  5
690
100
AcDbEntity
  8
0
100
AcDbPolyline
 62
7
  6
CONTINUOUS
 90
10
 70
0
 10
4.4969890476
 20
3.1534883036
 10
4.4962829172
 20
3.1532146273
 10
4.490293289
 20
3.1522696997
 10
4.4789166599
 20
3.1513247855
 10
4.4624113094
 20
3.1503798763
 10
4.4411516953
 20
3.1494349617
 10
4.4156202661
 20
3.1484900408
 10
4.386396711
 20
3.1475451212
 10
4.354143964
 20
3.1466001914
 10
4.3195935662
 20
3.1456552389
  0
LINE
  5
691
100
AcDbEntity
  8
0
100
AcDbLine
 62
9
  6
CONTINUOUS
 10
3.278548685
 20
4.8762074595
 11
5.2273675826
 21
4.8762074595
  0
LINE
  5
692
100
AcDbEntity
  8
02___PRT_ALL_AXES
100
AcDbLine
 62
7
  6
CONTINUOUS
 10
5.2273675826
 20
4.8762074595
 11
5.2273675826
 21
4.7974673021
  0
LINE
  5
693
100
AcDbEntity
  8
02___PRT_ALL_AXES
100
AcDbLine
 62
7
  6
CONTINUOUS
 10
5.2372101023
 20
4.7974673021
 11
5.2372101023
 21
4.3250263572
  0
LINE
  5
694
100
AcDbEntity
  8
0
100
AcDbLine
 62
7
  6
CONTINUOUS
 10
5.1683124645
 20
4.9352625777
 11
3.3376038031
 21
4.9352625777
  0
LWPOLYLINE
  5
695
100
AcDbEntity
  8
0
100
AcDbPolyline
 62
9
  6
CONTINUOUS
 90
8
 70
0
 10
12.7076083612
 20
5.5662364876
 10
12.7080797531
 20
5.5486515696
 10
12.7213089129
 20
5.4717534749
 10
12.7526684679
 20
5.3962677589
 10
12.8007537188
 20
5.3249372604
 10
12.8615570369
 20
5.2610914988
 10
12.9290409005
 20
5.2071416092
 10
12.995891986
 20
5.1644213755
  0
LINE
  5
696
100
AcDbEntity
  8
02___PRT_ALL_AXES
100
AcDbLine
 62
7
  6
CONTINUOUS
 10
12.7076083612
 20
5.951985661
 11
12.7076083612
 21
5.5662364876
  0
LINE
  5
697
100
AcDbEntity
  8
02___PRT_ALL_AXES
100
AcDbLine
 62
7
  6
CONTINUOUS
 10
12.7174508809
 20
6.0162771899
 11
12.7174508809
 21
5.951985661
  0
LWPOLYLINE
  5
698
100
AcDbEntity
  8
0
100
AcDbPolyline
 62
7
  6
CONTINUOUS
 90
18
 70
0
 10
12.7174508809
 20
6.0162771899
 10
12.7262023218
 20
6.0959027451
 10
12.7527954125
 20
6.1750155319
 10
12.7973033483
 20
6.2516866357
 10
12.8594881606
 20
6.3243678483
 10
12.9380640201
 20
6.3910517042
 10
13.0312182161
 20
6.4502117852
 10
13.1366835242
 20
6.5006505726
 10
13.2521934213
 20
6.5415923829
 10
13.3756478485
 20
6.5725339156
 10
13.5046647877
 20
6.5930475918
 10
13.6369477988
 20
6.6028872733
 10
13.7701729304
 20
6.6019370779
 10
13.9019372504
 20
6.5902226381
 10
14.0299737839
 20
6.5679001927
 10
14.1518674669
 20
6.5352983165
 10
14.2654402815
 20
6.4928571819
 10
14.3686379474
 20
6.4411087659
  0
LWPOLYLINE
  5
699
100
AcDbEntity
  8
02___PRT_ALL_AXES
100
AcDbPolyline
 62
7
  6
CONTINUOUS
 90
3
 70
0
 10
12.7153117902
 20
6.0166013257
 10
12.7080246298
 20
5.968510688
 10
12.7076107361
 20
5.9519996603
  0
LWPOLYLINE
  5
69A
100
AcDbEntity
  8
0
100
AcDbPolyline
 62
7
  6
CONTINUOUS
 90
7
 70
0
 10
13.7550834682
 20
4.5352899959
 10
13.7892290635
 20
4.5429308645
 10
13.8213049142
 20
4.5534320386
 10
13.8509304678
 20
4.5667744713
 10
13.8770892679
 20
4.5826380252
 10
13.8988955589
 20
4.6005042923
 10
13.9136278772
 20
4.6173004072
  0
LWPOLYLINE
  5
69B
100
AcDbEntity
  8
0
100
AcDbPolyline
 62
7
  6
CONTINUOUS
 90
9
 70
0
 10
13.7303803314
 20
4.4995739206
 10
13.7673384449
 20
4.50550768
 10
13.8024078866
 20
4.5146705185
 10
13.8350682566
 20
4.5269827447
 10
13.864555061
 20
4.5423046167
 10
13.8896982878
 20
4.560136352
 10
13.9096475581
 20
4.5797923884
 10
13.9241552952
 20
4.6008374771
 10
13.9328221569
 20
4.6223655135
  0
LWPOLYLINE
  5
69C
100
AcDbEntity
  8
0
100
AcDbPolyline
 62
7
  6
CONTINUOUS
 90
7
 70
0
 10
13.7550834682
 20
4.5063588079
 10
13.7194195419
 20
4.5016926869
 10
13.6829804507
 20
4.5001209948
 10
13.6469586236
 20
4.5016710811
 10
13.6116813458
 20
4.5063163891
 10
13.5778673519
 20
4.514027866
 10
13.5466886767
 20
4.5245655255
  0
LINE
  5
69D
100
AcDbEntity
  8
0
100
AcDbLine
 62
7
  6
CONTINUOUS
 10
13.5597801581
 20
4.4777416779
 11
13.5332541232
 21
4.4907744944
  0
LWPOLYLINE
  5
69E
100
AcDbEntity
  8
0
100
AcDbPolyline
 62
7
  6
CONTINUOUS
 90
12
 70
0
 10
13.5441897666
 20
4.484460659
 10
13.5677097008
 20
4.4727654338
 10
13.5940717392
 20
4.4631814327
 10
13.6226777295
 20
4.4559545781
 10
13.6528569827
 20
4.4512679515
 10
13.6839029868
 20
4.44923406
 10
13.7151206567
 20
4.4498967021
 10
13.7458180684
 20
4.4532403935
 10
13.7753105353
 20
4.459190916
 10
13.8029347151
 20
4.4676146717
 10
13.8280736169
 20
4.478323447
 10
13.8395329298
 20
4.4844638163
  0
LWPOLYLINE
  5
69F
100
AcDbEntity
  8
02___PRT_ALL_AXES
100
AcDbPolyline
 62
7
  6
CONTINUOUS
 90
8
 70
0
 10
12.7076107361
 20
5.9519996603
 10
12.7113540943
 20
5.902457052
 10
12.7279432236
 20
5.8370732055
 10
12.7575676782
 20
5.7732433528
 10
12.7998268381
 20
5.7118306832
 10
12.8541492207
 20
5.6536656976
 10
12.919800209
 20
5.5995349779
 10
12.995891986
 20
5.5501705489
  0
LWPOLYLINE
  5
6A0
100
AcDbEntity
  8
02___PRT_ALL_AXES
100
AcDbPolyline
 62
7
  6
CONTINUOUS
 90
10
 70
0
 10
12.7174517139
 20
5.9519920214
 10
12.719658313
 20
5.9141399668
 10
12.7294481128
 20
5.8639783994
 10
12.7469866899
 20
5.8145254147
 10
12.772132834
 20
5.7661791791
 10
12.8046840831
 20
5.719328948
 10
12.8443783537
 20
5.674351932
 10
12.8908960508
 20
5.6316102595
 10
12.9438626413
 20
5.5914480614
 10
13.0028516695
 20
5.5541887001
  0
LINE
  5
6A1
100
AcDbEntity
  8
0
100
AcDbLine
 62
9
  6
CONTINUOUS
 10
12.7174508809
 20
6.0162771626
 11
12.7196327172
 21
5.9786513034
  0
LWPOLYLINE
  5
6A2
100
AcDbEntity
  8
02___PRT_ALL_AXES
100
AcDbPolyline
 62
7
  6
CONTINUOUS
 90
14
 70
0
 10
13.4688731605
 20
4.6663433343
 10
13.5562864539
 20
4.6512921101
 10
13.6470224199
 20
4.6443165366
 10
13.7388572827
 20
4.6456170472
 10
13.8295403344
 20
4.655191243
 10
13.9168490961
 20
4.6728339524
 10
13.9986437865
 20
4.6981422587
 10
14.0729197645
 20
4.7305253751
 10
14.137856659
 20
4.7692191242
 10
14.1918629831
 20
4.813304666
 10
14.2336151388
 20
4.8617310175
 10
14.2620898554
 20
4.9133408102
 10
14.2765892689
 20
4.9668986551
 10
14.278474503
 20
4.9946445814
  0
LWPOLYLINE
  5
6A3
100
AcDbEntity
  8
02___PRT_ALL_AXES
100
AcDbPolyline
 62
7
  6
CONTINUOUS
 90
4
 70
0
 10
13.4688731605
 20
4.6663433343
 10
13.4399240136
 20
4.675703478
 10
13.4110824028
 20
4.6862339053
 10
13.3824031662
 20
4.6979798448
  0
LWPOLYLINE
  5
6A4
100
AcDbEntity
  8
0
100
AcDbPolyline
 62
9
  6
CONTINUOUS
 90
14
 70
0
 10
13.3824031662
 20
4.6599893904
 10
13.4557795514
 20
4.6357686635
 10
13.5347058834
 20
4.6183102109
 10
13.6173329986
 20
4.608023584
 10
13.7017138575
 20
4.6051520442
 10
13.7858617844
 20
4.6097631759
 10
13.8677983942
 20
4.6217483195
 10
13.9455978186
 20
4.6408257419
 10
14.01743005
 20
4.6665467778
 10
14.0816056633
 20
4.698306503
 10
14.1366154335
 20
4.7353580153
 10
14.1811656835
 20
4.7768299727
 10
14.2142086373
 20
4.8217469757
 10
14.2298257032
 20
4.8573358304
  0
LWPOLYLINE
  5
6A5
100
AcDbEntity
  8
0
100
AcDbPolyline
 62
7
  6
CONTINUOUS
 90
7
 70
0
 10
13.5191349062
 20
4.5342868439
 10
13.5482009023
 20
4.5207502187
 10
13.5812146659
 20
4.5098915333
 10
13.617004686
 20
4.5021908419
 10
13.6542124724
 20
4.4978926069
 10
13.6922202426
 20
4.4970069202
 10
13.7303803314
 20
4.4995739206
  0
LINE
  5
6A6
100
AcDbEntity
  8
0
100
AcDbLine
 62
7
  6
CONTINUOUS
 10
13.548227737
 20
4.5560999903
 11
13.5191349062
 21
4.5696471848
  0
LWPOLYLINE
  5
6A7
100
AcDbEntity
  8
0
100
AcDbPolyline
 62
7
  6
CONTINUOUS
 90
11
 70
0
 10
13.5191349062
 20
4.5985783728
 10
13.548227737
 20
4.5850311783
 10
13.5812666223
 20
4.5741690468
 10
13.6170738933
 20
4.5664710368
 10
13.654287699
 20
4.5621789626
 10
13.6922918115
 20
4.561300015
 10
13.7304359582
 20
4.5638717618
 10
13.7673797736
 20
4.5698078736
 10
13.8024511131
 20
4.5789757314
 10
13.8351082836
 20
4.5912920357
 10
13.8613900816
 20
4.6049539724
  0
LINE
  5
6A8
100
AcDbEntity
  8
0
100
AcDbLine
 62
7
  6
CONTINUOUS
 10
13.5482046089
 20
4.588254864
 11
13.5191349062
 21
4.6017929492
  0
LINE
  5
6A9
100
AcDbEntity
  8
0
100
AcDbLine
 62
7
  6
CONTINUOUS
 10
13.5466886767
 20
4.5245655255
 11
13.5191349062
 21
4.5375014203
  0
LWPOLYLINE
  5
6AA
100
AcDbEntity
  8
0
100
AcDbPolyline
 62
7
  6
CONTINUOUS
 90
8
 70
0
 10
13.5191349062
 20
4.5664326083
 10
13.5466886767
 20
4.5534967135
 10
13.5778673519
 20
4.542959054
 10
13.6116813458
 20
4.5352475771
 10
13.6469586236
 20
4.5306022691
 10
13.6829804507
 20
4.5290521828
 10
13.7194195419
 20
4.5306238749
 10
13.7550834682
 20
4.5352899959
  0
LINE
  5
6AB
100
AcDbEntity
  8
0
100
AcDbLine
 62
7
  6
CONTINUOUS
 10
13.3897796948
 20
4.6424151934
 11
13.3912394997
 21
4.6417145019
  0
LINE
  5
6AC
100
AcDbEntity
  8
0
100
AcDbLine
 62
7
  6
CONTINUOUS
 10
13.5441860021
 20
4.4844627936
 11
13.5332501693
 21
4.4907767772
  0
LINE
  5
6AD
100
AcDbEntity
  8
0
100
AcDbLine
 62
7
  6
CONTINUOUS
 10
13.3897552746
 20
4.642429292
 11
13.2447082635
 21
4.7261703284
  0
LINE
  5
6AE
100
AcDbEntity
  8
0
100
AcDbLine
 62
9
  6
CONTINUOUS
 10
13.3824031662
 20
4.6599893904
 11
13.2357523152
 21
4.7446563833
  0
LWPOLYLINE
  5
6AF
100
AcDbEntity
  8
0
100
AcDbPolyline
 62
7
  6
CONTINUOUS
 90
4
 70
0
 10
13.5191349062
 20
4.5696471848
 10
13.4942920993
 20
4.5856324286
 10
13.4740754368
 20
4.6038862695
 10
13.4635851789
 20
4.6180143371
  0
LINE
  5
6B0
100
AcDbEntity
  8
0
100
AcDbLine
 62
7
  6
CONTINUOUS
 10
13.4942722791
 20
4.550287122
 11
13.5191349062
 21
4.5342868439
  0
LWPOLYLINE
  5
6B1
100
AcDbEntity
  8
0
100
AcDbPolyline
 62
7
  6
CONTINUOUS
 90
6
 70
0
 10
13.5191349062
 20
4.5375014203
 10
13.4942630348
 20
4.5535087122
 10
13.4740364143
 20
4.5717830711
 10
13.4593003651
 20
4.5916518319
 10
13.4504859875
 20
4.6123378039
 10
13.4490360797
 20
4.6227805071
  0
LINE
  5
6B2
100
AcDbEntity
  8
0
100
AcDbLine
 62
7
  6
CONTINUOUS
 10
13.4942630348
 20
4.5824399002
 11
13.5191349062
 21
4.5664326083
  0
LWPOLYLINE
  5
6B3
100
AcDbEntity
  8
0
100
AcDbPolyline
 62
7
  6
CONTINUOUS
 90
3
 70
0
 10
13.5332501953
 20
4.4907767622
 10
13.5119628727
 20
4.5050862616
 10
13.5064211064
 20
4.5102269569
  0
LINE
  5
6B4
100
AcDbEntity
  8
0
100
AcDbLine
 62
7
  6
CONTINUOUS
 10
13.2423438078
 20
4.72783771
 11
13.2446860279
 21
4.7261831659
  0
LWPOLYLINE
  5
6B5
100
AcDbEntity
  8
0
100
AcDbPolyline
 62
7
  6
CONTINUOUS
 90
4
 70
0
 10
13.2423443564
 20
4.7278373997
 10
13.198089519
 20
4.7728219711
 10
13.1659951966
 20
4.8216243604
 10
13.1606924816
 20
4.8356995177
  0
LWPOLYLINE
  5
6B6
100
AcDbEntity
  8
0
100
AcDbPolyline
 62
9
  6
CONTINUOUS
 90
6
 70
0
 10
12.7196327172
 20
5.9786513034
 10
12.727598513
 20
5.9352990853
 10
12.7413664968
 20
5.892403691
 10
12.7608649867
 20
5.8502259127
 10
12.7858946359
 20
5.809157051
 10
12.8163229454
 20
5.7693609876
  0
LWPOLYLINE
  5
6B7
100
AcDbEntity
  8
02___PRT_ALL_AXES
100
AcDbPolyline
 62
7
  6
CONTINUOUS
 90
13
 70
0
 10
13.4688731605
 20
4.6723706651
 10
13.5562864539
 20
4.657319441
 10
13.6470224199
 20
4.6503438675
 10
13.7388572827
 20
4.651644378
 10
13.8295403344
 20
4.6612185739
 10
13.9168490961
 20
4.6788612833
 10
13.9986437865
 20
4.7041695895
 10
14.0729197645
 20
4.736552706
 10
14.137856659
 20
4.7752464551
 10
14.1918629831
 20
4.8193319969
 10
14.2336151388
 20
4.8677583484
 10
14.2620898554
 20
4.919368141
 10
14.2765892689
 20
4.9729259859
  0
LWPOLYLINE
  5
6B8
100
AcDbEntity
  8
02___PRT_ALL_AXES
100
AcDbPolyline
 62
7
  6
CONTINUOUS
 90
11
 70
0
 10
13.4688731605
 20
4.7145619809
 10
13.5562864539
 20
4.6995107568
 10
13.6470224199
 20
4.6925351833
 10
13.7388572827
 20
4.6938356938
 10
13.8295403344
 20
4.7034098897
 10
13.9168490961
 20
4.7210525991
 10
13.9986437865
 20
4.7463609054
 10
14.0729197645
 20
4.7787440218
 10
14.137856659
 20
4.8174377709
 10
14.1918629831
 20
4.8615233127
 10
14.2336151388
 20
4.9099496642
  0
LWPOLYLINE
  5
6B9
100
AcDbEntity
  8
02___PRT_ALL_AXES
100
AcDbPolyline
 62
7
  6
CONTINUOUS
 90
11
 70
0
 10
13.4688731605
 20
4.7205893118
 10
13.5562864539
 20
4.7055380876
 10
13.6470224199
 20
4.6985625142
 10
13.7388572827
 20
4.6998630247
 10
13.8295403344
 20
4.7094372206
 10
13.9168490961
 20
4.7270799299
 10
13.9986437865
 20
4.7523882362
 10
14.0729197645
 20
4.7847713527
 10
14.137856659
 20
4.8234651017
 10
14.1918629831
 20
4.8675506435
 10
14.2336151388
 20
4.915976995
  0
LWPOLYLINE
  5
6BA
100
AcDbEntity
  8
02___PRT_ALL_AXES
100
AcDbPolyline
 62
7
  6
CONTINUOUS
 90
6
 70
0
 10
13.4688731605
 20
4.7627806276
 10
13.5562864539
 20
4.7477294035
 10
13.6470224199
 20
4.74075383
 10
13.7388572827
 20
4.7420543405
 10
13.8295403344
 20
4.7516285364
 10
13.9168490961
 20
4.7692712458
  0
LWPOLYLINE
  5
6BB
100
AcDbEntity
  8
02___PRT_ALL_AXES
100
AcDbPolyline
 62
7
  6
CONTINUOUS
 90
3
 70
0
 10
13.5364771244
 20
4.7460328336
 10
13.4567301039
 20
4.7623450934
 10
13.3824031662
 20
4.7856326807
  0
LWPOLYLINE
  5
6BC
100
AcDbEntity
  8
02___PRT_ALL_AXES
100
AcDbPolyline
 62
7
  6
CONTINUOUS
 90
3
 70
0
 10
13.5336252183
 20
4.6982613916
 10
13.4553447553
 20
4.7144837128
 10
13.3824031662
 20
4.737414034
  0
LWPOLYLINE
  5
6BD
100
AcDbEntity
  8
02___PRT_ALL_AXES
100
AcDbPolyline
 62
7
  6
CONTINUOUS
 90
3
 70
0
 10
13.4688731605
 20
4.7145619809
 10
13.439897869
 20
4.7239311125
 10
13.4110617265
 20
4.7344605531
  0
LWPOLYLINE
  5
6BE
100
AcDbEntity
  8
02___PRT_ALL_AXES
100
AcDbPolyline
 62
7
  6
CONTINUOUS
 90
4
 70
0
 10
13.1492823209
 20
4.850812615
 10
13.1782532609
 20
4.8414449795
 10
13.2070890744
 20
4.8309158542
 10
13.2357523152
 20
4.8191761045
  0
LWPOLYLINE
  5
6BF
100
AcDbEntity
  8
02___PRT_ALL_AXES
100
AcDbPolyline
 62
7
  6
CONTINUOUS
 90
3
 70
0
 10
13.4688731605
 20
4.7627806276
 10
13.439897869
 20
4.7721497592
 10
13.4110617265
 20
4.7826791997
  0
LINE
  5
6C0
100
AcDbEntity
  8
02___PRT_ALL_AXES
100
AcDbLine
 62
7
  6
CONTINUOUS
 10
13.4110617265
 20
4.7344605531
 11
13.3824031662
 21
4.7461984915
  0
LINE
  5
6C1
100
AcDbEntity
  8
02___PRT_ALL_AXES
100
AcDbLine
 62
7
  6
CONTINUOUS
 10
13.4110617265
 20
4.7826791997
 11
13.3824031662
 21
4.7944171381
  0
LINE
  5
6C2
100
AcDbEntity
  8
0
100
AcDbLine
 62
7
  6
CONTINUOUS
 10
13.5020299066
 20
4.609584681
 11
13.5191349062
 21
4.5985783728
  0
LINE
  5
6C3
100
AcDbEntity
  8
0
100
AcDbLine
 62
7
  6
CONTINUOUS
 10
13.5191349062
 20
4.6017929492
 11
13.5095700121
 21
4.6079482842
  0
LWPOLYLINE
  5
6C4
100
AcDbEntity
  8
02___PRT_ALL_AXES
100
AcDbPolyline
 62
7
  6
CONTINUOUS
 90
5
 70
0
 10
13.2357523152
 20
4.827960562
 10
13.214360602
 20
4.8429581681
 10
13.1923129231
 20
4.8591888471
 10
13.1703375766
 20
4.87611609
 10
13.1492823209
 20
4.8930039309
  0
LWPOLYLINE
  5
6C5
100
AcDbEntity
  8
02___PRT_ALL_AXES
100
AcDbPolyline
 62
7
  6
CONTINUOUS
 90
4
 70
0
 10
13.2357523152
 20
4.7797419153
 10
13.2070943803
 20
4.800003353
 10
13.1782559862
 20
4.8217139214
 10
13.1492823209
 20
4.8447852842
  0
LWPOLYLINE
  5
6C6
100
AcDbEntity
  8
02___PRT_ALL_AXES
100
AcDbPolyline
 62
7
  6
CONTINUOUS
 90
4
 70
0
 10
13.3824031662
 20
4.737414034
 10
13.4110890643
 20
4.7171321757
 10
13.4399331561
 20
4.6954159403
 10
13.4688731605
 20
4.6723706651
  0
LWPOLYLINE
  5
6C7
100
AcDbEntity
  8
02___PRT_ALL_AXES
100
AcDbPolyline
 62
7
  6
CONTINUOUS
 90
4
 70
0
 10
13.2357523152
 20
4.8761792087
 10
13.2070943803
 20
4.8964406463
 10
13.1782559862
 20
4.9181512148
 10
13.1492823209
 20
4.9412225775
  0
LWPOLYLINE
  5
6C8
100
AcDbEntity
  8
02___PRT_ALL_AXES
100
AcDbPolyline
 62
7
  6
CONTINUOUS
 90
4
 70
0
 10
13.3824031662
 20
4.7856326807
 10
13.4110659943
 20
4.7653676698
 10
13.439904019
 20
4.7436571687
 10
13.4688731605
 20
4.7205893118
  0
LINE
  5
6C9
100
AcDbEntity
  8
02___PRT_ALL_AXES
100
AcDbLine
 62
7
  6
CONTINUOUS
 10
13.2357523152
 20
4.8673947512
 11
13.2029428221
 21
4.8995660869
  0
LINE
  5
6CA
100
AcDbEntity
  8
02___PRT_ALL_AXES
100
AcDbLine
 62
7
  6
CONTINUOUS
 10
13.2357523152
 20
4.8191761045
 11
13.2032871223
 21
4.8511100509
  0
LINE
  5
6CB
100
AcDbEntity
  8
02___PRT_ALL_AXES
100
AcDbLine
 62
7
  6
CONTINUOUS
 10
13.1211286732
 20
4.8940498765
 11
13.1492823209
 21
4.8447852842
  0
LINE
  5
6CC
100
AcDbEntity
  8
02___PRT_ALL_AXES
100
AcDbLine
 62
7
  6
CONTINUOUS
 10
13.1211286732
 20
4.9422685232
 11
13.1492823209
 21
4.8930039309
  0
LINE
  5
6CD
100
AcDbEntity
  8
02___PRT_ALL_AXES
100
AcDbLine
 62
7
  6
CONTINUOUS
 10
13.1211286732
 20
4.948295854
 11
13.1492823209
 21
4.8990312617
  0
LWPOLYLINE
  5
6CE
100
AcDbEntity
  8
02___PRT_ALL_AXES
100
AcDbPolyline
 62
7
  6
CONTINUOUS
 90
6
 70
0
 10
13.4688731605
 20
4.7688079585
 10
13.5562864539
 20
4.7537567343
 10
13.6470224199
 20
4.7467811608
 10
13.7388572827
 20
4.7480816714
 10
13.8295403344
 20
4.7576558672
 10
13.9168490961
 20
4.7752985766
  0
LWPOLYLINE
  5
6CF
100
AcDbEntity
  8
02___PRT_ALL_AXES
100
AcDbPolyline
 62
7
  6
CONTINUOUS
 90
11
 70
0
 10
13.4688731605
 20
4.8109992743
 10
13.5562864539
 20
4.7959480502
 10
13.6470224199
 20
4.7889724767
 10
13.7388572827
 20
4.7902729872
 10
13.8295403344
 20
4.7998471831
 10
13.9168490961
 20
4.8174898925
 10
13.9986437865
 20
4.8427981987
 10
14.0729197645
 20
4.8751813152
 10
14.137856659
 20
4.9138750643
 10
14.1918629831
 20
4.9579606061
 10
14.2336151388
 20
5.0063869576
  0
LWPOLYLINE
  5
6D0
100
AcDbEntity
  8
02___PRT_ALL_AXES
100
AcDbPolyline
 62
7
  6
CONTINUOUS
 90
6
 70
0
 10
13.4688731605
 20
4.8170266051
 10
13.5562864539
 20
4.801975381
 10
13.6470224199
 20
4.7949998075
 10
13.7388572827
 20
4.796300318
 10
13.8295403344
 20
4.8058745139
 10
13.9168490961
 20
4.8235172233
  0
LWPOLYLINE
  5
6D1
100
AcDbEntity
  8
02___PRT_ALL_AXES
100
AcDbPolyline
 62
7
  6
CONTINUOUS
 90
11
 70
0
 10
13.4688731605
 20
4.859217921
 10
13.5562864539
 20
4.8441666968
 10
13.6470224199
 20
4.8371911234
 10
13.7388572827
 20
4.8384916339
 10
13.8295403344
 20
4.8480658298
 10
13.9168490961
 20
4.8657085392
 10
13.9986437865
 20
4.8910168454
 10
14.0729197645
 20
4.9233999619
 10
14.137856659
 20
4.9620937109
 10
14.1918629831
 20
5.0061792528
 10
14.2336151388
 20
5.0546056042
  0
LWPOLYLINE
  5
6D2
100
AcDbEntity
  8
02___PRT_ALL_AXES
100
AcDbPolyline
 62
7
  6
CONTINUOUS
 90
12
 70
0
 10
13.4688731605
 20
4.8652452518
 10
13.5562864539
 20
4.8501940277
 10
13.6470224199
 20
4.8432184542
 10
13.7388572827
 20
4.8445189647
 10
13.8295403344
 20
4.8540931606
 10
13.9168490961
 20
4.87173587
 10
13.9986437865
 20
4.8970441762
 10
14.0729197645
 20
4.9294272927
 10
14.137856659
 20
4.9681210418
 10
14.1918629831
 20
5.0122065836
 10
14.2336151388
 20
5.0606329351
 10
14.2453334646
 20
5.0818721409
  0
LWPOLYLINE
  5
6D3
100
AcDbEntity
  8
02___PRT_ALL_AXES
100
AcDbPolyline
 62
7
  6
CONTINUOUS
 90
3
 70
0
 10
13.5362258391
 20
4.8425091453
 10
13.4566104927
 20
4.8588131269
 10
13.3824031662
 20
4.882069974
  0
LWPOLYLINE
  5
6D4
100
AcDbEntity
  8
02___PRT_ALL_AXES
100
AcDbPolyline
 62
7
  6
CONTINUOUS
 90
3
 70
0
 10
13.5349716561
 20
4.7944863547
 10
13.4561559967
 20
4.8107114691
 10
13.3824031662
 20
4.8338513273
  0
LWPOLYLINE
  5
6D5
100
AcDbEntity
  8
02___PRT_ALL_AXES
100
AcDbPolyline
 62
7
  6
CONTINUOUS
 90
5
 70
0
 10
13.1492823209
 20
4.8990312617
 10
13.1703488167
 20
4.8923361394
 10
13.1922243411
 20
4.8847177429
 10
13.2142386501
 20
4.876328026
 10
13.2357523152
 20
4.8673947512
  0
LWPOLYLINE
  5
6D6
100
AcDbEntity
  8
02___PRT_ALL_AXES
100
AcDbPolyline
 62
7
  6
CONTINUOUS
 90
3
 70
0
 10
13.4688731605
 20
4.8109992743
 10
13.439897869
 20
4.8203684058
 10
13.4110617265
 20
4.8308978464
  0
LWPOLYLINE
  5
6D7
100
AcDbEntity
  8
02___PRT_ALL_AXES
100
AcDbPolyline
 62
7
  6
CONTINUOUS
 90
4
 70
0
 10
13.1492823209
 20
4.9472499084
 10
13.1782532609
 20
4.9378822728
 10
13.2070890744
 20
4.9273531475
 10
13.2357523152
 20
4.9156133979
  0
LWPOLYLINE
  5
6D8
100
AcDbEntity
  8
02___PRT_ALL_AXES
100
AcDbPolyline
 62
7
  6
CONTINUOUS
 90
3
 70
0
 10
13.4688731605
 20
4.859217921
 10
13.439897869
 20
4.8685870525
 10
13.4110617265
 20
4.8791164931
  0
LINE
  5
6D9
100
AcDbEntity
  8
02___PRT_ALL_AXES
100
AcDbLine
 62
7
  6
CONTINUOUS
 10
13.4110617265
 20
4.8308978464
 11
13.3824031662
 21
4.8426357848
  0
LINE
  5
6DA
100
AcDbEntity
  8
02___PRT_ALL_AXES
100
AcDbLine
 62
7
  6
CONTINUOUS
 10
13.4110617265
 20
4.8791164931
 11
13.3824031662
 21
4.8908544315
  0
LWPOLYLINE
  5
6DB
100
AcDbEntity
  8
0
100
AcDbPolyline
 62
7
  6
CONTINUOUS
 90
7
 70
0
 10
13.0040460144
 20
5.1463982988
 10
12.9161038996
 20
5.2045445637
 10
12.8420242964
 20
5.2693748628
 10
12.7833520069
 20
5.3395553012
 10
12.741194405
 20
5.4134446226
 10
12.7159762287
 20
5.4894160557
 10
12.7076083612
 20
5.5662364876
  0
LWPOLYLINE
  5
6DC
100
AcDbEntity
  8
02___PRT_ALL_AXES
100
AcDbPolyline
 62
7
  6
CONTINUOUS
 90
4
 70
0
 10
13.2357523152
 20
4.9243978553
 10
13.2070943803
 20
4.944659293
 10
13.1782559862
 20
4.9663698615
 10
13.1492823209
 20
4.9894412242
  0
LWPOLYLINE
  5
6DD
100
AcDbEntity
  8
02___PRT_ALL_AXES
100
AcDbPolyline
 62
7
  6
CONTINUOUS
 90
4
 70
0
 10
13.3824031662
 20
4.8338513273
 10
13.4110659943
 20
4.8135863164
 10
13.439904019
 20
4.7918758154
 10
13.4688731605
 20
4.7688079585
  0
LWPOLYLINE
  5
6DE
100
AcDbEntity
  8
02___PRT_ALL_AXES
100
AcDbPolyline
 62
7
  6
CONTINUOUS
 90
4
 70
0
 10
13.2357523152
 20
4.972616502
 10
13.2070943803
 20
4.9928779397
 10
13.1782559862
 20
5.0145885082
 10
13.1492823209
 20
5.0376598709
  0
LWPOLYLINE
  5
6DF
100
AcDbEntity
  8
02___PRT_ALL_AXES
100
AcDbPolyline
 62
7
  6
CONTINUOUS
 90
4
 70
0
 10
13.3824031662
 20
4.882069974
 10
13.4110659943
 20
4.8618049631
 10
13.439904019
 20
4.840094462
 10
13.4688731605
 20
4.8170266051
  0
LINE
  5
6E0
100
AcDbEntity
  8
02___PRT_ALL_AXES
100
AcDbLine
 62
7
  6
CONTINUOUS
 10
13.2357523152
 20
5.0120506912
 11
13.2032249448
 21
5.0440096349
  0
LINE
  5
6E1
100
AcDbEntity
  8
02___PRT_ALL_AXES
100
AcDbLine
 62
7
  6
CONTINUOUS
 10
13.2357523152
 20
4.9156133979
 11
13.2033609779
 21
4.947469931
  0
LINE
  5
6E2
100
AcDbEntity
  8
02___PRT_ALL_AXES
100
AcDbLine
 62
7
  6
CONTINUOUS
 10
13.2357523152
 20
4.9638320445
 11
13.2033833906
 21
4.9956717046
  0
LWPOLYLINE
  5
6E3
100
AcDbEntity
  8
0
100
AcDbPolyline
 62
7
  6
CONTINUOUS
 90
3
 70
0
 10
13.4604417301
 20
4.6190441061
 10
13.4740364143
 20
4.6007142591
 10
13.4942630348
 20
4.5824399002
  0
LINE
  5
6E4
100
AcDbEntity
  8
02___PRT_ALL_AXES
100
AcDbLine
 62
7
  6
CONTINUOUS
 10
13.1211286732
 20
4.9904871698
 11
13.1492823209
 21
4.9412225775
  0
LINE
  5
6E5
100
AcDbEntity
  8
02___PRT_ALL_AXES
100
AcDbLine
 62
7
  6
CONTINUOUS
 10
13.1211286732
 20
5.0387058165
 11
13.1492823209
 21
4.9894412242
  0
LINE
  5
6E6
100
AcDbEntity
  8
02___PRT_ALL_AXES
100
AcDbLine
 62
7
  6
CONTINUOUS
 10
13.1211286732
 20
5.0869244632
 11
13.1492823209
 21
5.0376598709
  0
LINE
  5
6E7
100
AcDbEntity
  8
02___PRT_ALL_AXES
100
AcDbLine
 62
7
  6
CONTINUOUS
 10
13.1237515515
 20
5.0883621568
 11
13.1492823209
 21
5.0436872017
  0
LWPOLYLINE
  5
6E8
100
AcDbEntity
  8
0
100
AcDbPolyline
 62
9
  6
CONTINUOUS
 90
4
 70
0
 10
13.163118382
 20
4.833767804
 10
13.1635593381
 20
4.8325872216
 10
13.1937995982
 20
4.7870194234
 10
13.2357523152
 20
4.7446563833
  0
LINE
  5
6E9
100
AcDbEntity
  8
02___PRT_ALL_AXES
100
AcDbLine
 62
7
  6
CONTINUOUS
 10
13.106962635
 20
4.9934515012
 11
13.1211286732
 21
4.9422685232
  0
LINE
  5
6EA
100
AcDbEntity
  8
02___PRT_ALL_AXES
100
AcDbLine
 62
7
  6
CONTINUOUS
 10
13.106962635
 20
5.0416701479
 11
13.1211286732
 21
4.9904871698
  0
LINE
  5
6EB
100
AcDbEntity
  8
02___PRT_ALL_AXES
100
AcDbLine
 62
7
  6
CONTINUOUS
 10
13.106962635
 20
5.0898887946
 11
13.1211286732
 21
5.0387058165
  0
LWPOLYLINE
  5
6EC
100
AcDbEntity
  8
02___PRT_ALL_AXES
100
AcDbPolyline
 62
7
  6
CONTINUOUS
 90
3
 70
0
 10
13.1073349062
 20
5.0945710812
 10
13.1211286732
 20
5.0447331474
 10
13.1492823209
 20
4.9954685551
  0
LWPOLYLINE
  5
6ED
100
AcDbEntity
  8
02___PRT_ALL_AXES
100
AcDbPolyline
 62
7
  6
CONTINUOUS
 90
3
 70
0
 10
13.1052461565
 20
4.9705352581
 10
13.106962635
 20
4.9452328545
 10
13.1211286732
 20
4.8940498765
  0
LWPOLYLINE
  5
6EE
100
AcDbEntity
  8
02___PRT_ALL_AXES
100
AcDbPolyline
 62
7
  6
CONTINUOUS
 90
4
 70
0
 10
13.1052461565
 20
4.9765625889
 10
13.106962635
 20
4.9512601854
 10
13.1211286732
 20
4.9000772073
 10
13.1492823209
 20
4.850812615
  0
LINE
  5
6EF
100
AcDbEntity
  8
02___PRT_ALL_AXES
100
AcDbLine
 62
7
  6
CONTINUOUS
 10
13.1052461565
 20
5.0187539048
 11
13.106962635
 21
4.9934515012
  0
LWPOLYLINE
  5
6F0
100
AcDbEntity
  8
02___PRT_ALL_AXES
100
AcDbPolyline
 62
7
  6
CONTINUOUS
 90
3
 70
0
 10
13.1052461565
 20
5.0247812356
 10
13.106962635
 20
4.999478832
 10
13.1211286732
 20
4.948295854
  0
LINE
  5
6F1
100
AcDbEntity
  8
02___PRT_ALL_AXES
100
AcDbLine
 62
7
  6
CONTINUOUS
 10
13.1052461565
 20
5.0669725514
 11
13.106962635
 21
5.0416701479
  0
LWPOLYLINE
  5
6F2
100
AcDbEntity
  8
02___PRT_ALL_AXES
100
AcDbPolyline
 62
7
  6
CONTINUOUS
 90
4
 70
0
 10
13.1052461565
 20
5.0729998823
 10
13.106962635
 20
5.0476974787
 10
13.1211286732
 20
4.9965145007
 10
13.1492823209
 20
4.9472499084
  0
LINE
  5
6F3
100
AcDbEntity
  8
02___PRT_ALL_AXES
100
AcDbLine
 62
7
  6
CONTINUOUS
 10
13.1066206838
 20
5.0949294562
 11
13.106962635
 21
5.0898887946
  0
LWPOLYLINE
  5
6F4
100
AcDbEntity
  8
02___PRT_ALL_AXES
100
AcDbPolyline
 62
7
  6
CONTINUOUS
 90
11
 70
0
 10
13.4688731605
 20
4.9074365677
 10
13.5562864539
 20
4.8923853435
 10
13.6470224199
 20
4.88540977
 10
13.7388572827
 20
4.8867102806
 10
13.8295403344
 20
4.8962844764
 10
13.9168490961
 20
4.9139271858
 10
13.9986437865
 20
4.9392354921
 10
14.0729197645
 20
4.9716186086
 10
14.137856659
 20
5.0103123576
 10
14.1918629831
 20
5.0543978994
 10
14.2027306642
 20
5.067002809
  0
LWPOLYLINE
  5
6F5
100
AcDbEntity
  8
02___PRT_ALL_AXES
100
AcDbPolyline
 62
7
  6
CONTINUOUS
 90
11
 70
0
 10
13.4688731605
 20
4.9134638985
 10
13.5562864539
 20
4.8984126744
 10
13.6470224199
 20
4.8914371009
 10
13.7388572827
 20
4.8927376114
 10
13.8295403344
 20
4.9023118073
 10
13.9168490961
 20
4.9199545167
 10
13.9986437865
 20
4.9452628229
 10
14.0729197645
 20
4.9776459394
 10
14.137856659
 20
5.0163396885
 10
14.1918629831
 20
5.0604252303
 10
14.195297135
 20
5.0644083407
  0
LWPOLYLINE
  5
6F6
100
AcDbEntity
  8
02___PRT_ALL_AXES
100
AcDbPolyline
 62
7
  6
CONTINUOUS
 90
9
 70
0
 10
13.4688731605
 20
4.9556552143
 10
13.5562864539
 20
4.9406039902
 10
13.6470224199
 20
4.9336284167
 10
13.7388572827
 20
4.9349289273
 10
13.8295403344
 20
4.9445031231
 10
13.9168490961
 20
4.9621458325
 10
13.9986437865
 20
4.9874541388
 10
14.0729197645
 20
5.0198372552
 10
14.0961531426
 20
5.0336812574
  0
LWPOLYLINE
  5
6F7
100
AcDbEntity
  8
02___PRT_ALL_AXES
100
AcDbPolyline
 62
7
  6
CONTINUOUS
 90
9
 70
0
 10
13.4688731605
 20
4.9616825452
 10
13.5562864539
 20
4.946631321
 10
13.6470224199
 20
4.9396557476
 10
13.7388572827
 20
4.9409562581
 10
13.8295403344
 20
4.950530454
 10
13.9168490961
 20
4.9681731634
 10
13.9986437865
 20
4.9934814696
 10
14.0729197645
 20
5.0258645861
 10
14.0788991174
 20
5.0294274849
  0
LWPOLYLINE
  5
6F8
100
AcDbEntity
  8
02___PRT_ALL_AXES
100
AcDbPolyline
 62
7
  6
CONTINUOUS
 90
3
 70
0
 10
13.536100711
 20
4.8907472489
 10
13.4565514305
 20
4.90704696
 10
13.3824031662
 20
4.9302886207
  0
LWPOLYLINE
  5
6F9
100
AcDbEntity
  8
02___PRT_ALL_AXES
100
AcDbPolyline
 62
7
  6
CONTINUOUS
 90
3
 70
0
 10
13.533990849
 20
4.9392967538
 10
13.4552501053
 20
4.9556014538
 10
13.3824031662
 20
4.9785072674
  0
LWPOLYLINE
  5
6FA
100
AcDbEntity
  8
02___PRT_ALL_AXES
100
AcDbPolyline
 62
7
  6
CONTINUOUS
 90
4
 70
0
 10
13.4688731605
 20
4.9074365677
 10
13.4478342732
 20
4.9141225118
 10
13.4258668332
 20
4.9217735198
 10
13.4038142592
 20
4.9301806478
  0
LWPOLYLINE
  5
6FB
100
AcDbEntity
  8
02___PRT_ALL_AXES
100
AcDbPolyline
 62
7
  6
CONTINUOUS
 90
4
 70
0
 10
13.1492823209
 20
4.9954685551
 10
13.1782532609
 20
4.9861009195
 10
13.2070890744
 20
4.9755717942
 10
13.2357523152
 20
4.9638320445
  0
LWPOLYLINE
  5
6FC
100
AcDbEntity
  8
02___PRT_ALL_AXES
100
AcDbPolyline
 62
7
  6
CONTINUOUS
 90
4
 70
0
 10
13.1492823209
 20
5.0436872017
 10
13.1782532609
 20
5.0343195662
 10
13.2070890744
 20
5.0237904409
 10
13.2357523152
 20
5.0120506912
  0
LWPOLYLINE
  5
6FD
100
AcDbEntity
  8
02___PRT_ALL_AXES
100
AcDbPolyline
 62
7
  6
CONTINUOUS
 90
3
 70
0
 10
13.4688731605
 20
4.9556552143
 10
13.439897869
 20
4.9650243459
 10
13.4110617265
 20
4.9755537865
  0
LINE
  5
6FE
100
AcDbEntity
  8
02___PRT_ALL_AXES
100
AcDbLine
 62
7
  6
CONTINUOUS
 10
13.4110617265
 20
4.9755537865
 11
13.3824031662
 21
4.9872917249
  0
LINE
  5
6FF
100
AcDbEntity
  8
02___PRT_ALL_AXES
100
AcDbLine
 62
7
  6
CONTINUOUS
 10
13.4038142592
 20
4.9301806478
 11
13.3824031662
 21
4.9390730782
  0
LWPOLYLINE
  5
700
100
AcDbEntity
  8
0
100
AcDbPolyline
 62
9
  6
CONTINUOUS
 90
3
 70
0
 10
12.995891986
 20
5.1644213755
 10
13.0698323415
 20
5.1258516241
 10
13.1632236874
 20
5.0869051721
  0
LWPOLYLINE
  5
701
100
AcDbEntity
  8
02___PRT_ALL_AXES
100
AcDbPolyline
 62
7
  6
CONTINUOUS
 90
5
 70
0
 10
13.3824031662
 20
4.9785072674
 10
13.4038942484
 20
4.963438249
 10
13.425898746
 20
4.947236642
 10
13.4477812015
 20
4.930380616
 10
13.4688731605
 20
4.9134638985
  0
LWPOLYLINE
  5
702
100
AcDbEntity
  8
02___PRT_ALL_AXES
100
AcDbPolyline
 62
7
  6
CONTINUOUS
 90
4
 70
0
 10
13.2357523152
 20
5.0208351487
 10
13.2070943803
 20
5.0410965864
 10
13.1782559862
 20
5.0628071548
 10
13.166067228
 20
5.0725129087
  0
LWPOLYLINE
  5
703
100
AcDbEntity
  8
02___PRT_ALL_AXES
100
AcDbPolyline
 62
7
  6
CONTINUOUS
 90
4
 70
0
 10
13.3824031662
 20
4.9302886207
 10
13.4110659943
 20
4.9100236098
 10
13.439904019
 20
4.8883131087
 10
13.4688731605
 20
4.8652452518
  0
LWPOLYLINE
  5
704
100
AcDbEntity
  8
02___PRT_ALL_AXES
100
AcDbPolyline
 62
7
  6
CONTINUOUS
 90
4
 70
0
 10
13.4104153092
 20
5.0069209464
 10
13.4110659943
 20
5.0064609032
 10
13.439904019
 20
4.9847504021
 10
13.4688731605
 20
4.9616825452
  0
LINE
  5
705
100
AcDbEntity
  8
02___PRT_ALL_AXES
100
AcDbLine
 62
7
  6
CONTINUOUS
 10
13.1203813933
 20
5.0896244425
 11
13.1211286732
 21
5.0869244632
  0
LINE
  5
706
100
AcDbEntity
  8
02___PRT_ALL_AXES
100
AcDbLine
 62
7
  6
CONTINUOUS
 10
13.1492823209
 20
4.8447852842
 11
13.1492823209
 21
4.850812615
  0
LINE
  5
707
100
AcDbEntity
  8
02___PRT_ALL_AXES
100
AcDbLine
 62
7
  6
CONTINUOUS
 10
13.1492823209
 20
4.8930039309
 11
13.1492823209
 21
4.8990312617
  0
LINE
  5
708
100
AcDbEntity
  8
02___PRT_ALL_AXES
100
AcDbLine
 62
7
  6
CONTINUOUS
 10
13.1492823209
 20
4.9412225775
 11
13.1492823209
 21
4.9472499084
  0
LINE
  5
709
100
AcDbEntity
  8
02___PRT_ALL_AXES
100
AcDbLine
 62
7
  6
CONTINUOUS
 10
13.1492823209
 20
4.9894412242
 11
13.1492823209
 21
4.9954685551
  0
LINE
  5
70A
100
AcDbEntity
  8
02___PRT_ALL_AXES
100
AcDbLine
 62
7
  6
CONTINUOUS
 10
13.1492823209
 20
5.0376598709
 11
13.1492823209
 21
5.0436872017
  0
LINE
  5
70B
100
AcDbEntity
  8
02___PRT_ALL_AXES
100
AcDbLine
 62
7
  6
CONTINUOUS
 10
13.1067108535
 20
5.0936002751
 11
13.1052461565
 21
5.0729998823
  0
LINE
  5
70C
100
AcDbEntity
  8
02___PRT_ALL_AXES
100
AcDbLine
 62
7
  6
CONTINUOUS
 10
13.1067108535
 20
5.0453816284
 11
13.1052461565
 21
5.0247812356
  0
LINE
  5
70D
100
AcDbEntity
  8
02___PRT_ALL_AXES
100
AcDbLine
 62
7
  6
CONTINUOUS
 10
13.1067108535
 20
4.9971629817
 11
13.1052461565
 21
4.9765625889
  0
LWPOLYLINE
  5
70E
100
AcDbEntity
  8
02___PRT_ALL_AXES
100
AcDbPolyline
 62
7
  6
CONTINUOUS
 90
6
 70
0
 10
13.8171083523
 20
4.9874109067
 10
13.785344859
 20
4.9823309605
 10
13.7019658131
 20
4.9766067488
 10
13.6185341912
 20
4.9782171078
 10
13.536254852
 20
4.9871605765
 10
13.5114484003
 20
4.9922398957
  0
LWPOLYLINE
  5
70F
100
AcDbEntity
  8
02___PRT_ALL_AXES
100
AcDbPolyline
 62
7
  6
CONTINUOUS
 90
3
 70
0
 10
13.6291384116
 20
4.9832219451
 10
13.6470224199
 20
4.9818470634
 10
13.6984900214
 20
4.9825759169
  0
LWPOLYLINE
  5
710
100
AcDbEntity
  8
0
100
AcDbPolyline
 62
7
  6
CONTINUOUS
 90
5
 70
0
 10
13.4751611902
 20
4.9955329546
 10
13.3455501579
 20
5.0183299164
 10
13.2223455894
 20
5.0514339661
 10
13.1078073435
 20
5.0943340266
 10
13.0040460144
 20
5.1463982988
  0
LWPOLYLINE
  5
711
100
AcDbEntity
  8
0
100
AcDbPolyline
 62
9
  6
CONTINUOUS
 90
16
 70
0
 10
13.2737668959
 20
5.0518024562
 10
13.3972916665
 20
5.0240323369
 10
13.528030561
 20
5.0059137194
 10
13.6612231066
 20
4.9982618324
 10
13.7947915738
 20
5.0011023733
 10
13.9266401453
 20
5.0143898139
 10
14.0542062505
 20
5.0378952383
 10
14.1750270505
 20
5.071167188
 10
14.286894014
 20
5.1135889878
 10
14.3877681446
 20
5.1643864329
 10
14.4757715607
 20
5.2226160616
 10
14.549269701
 20
5.2871938214
 10
14.606921197
 20
5.3569426039
 10
14.6476576416
 20
5.4305876053
 10
14.6706965919
 20
5.5067072077
 10
14.6761122982
 20
5.5662311653
  0
LINE
  5
712
100
AcDbEntity
  8
0
100
AcDbLine
 62
9
  6
CONTINUOUS
 10
13.1632236874
 20
5.0869051721
 11
13.2737668959
 21
5.0518024562
  0
LWPOLYLINE
  5
713
100
AcDbEntity
  8
0
100
AcDbPolyline
 62
7
  6
CONTINUOUS
 90
16
 70
0
 10
13.4498212368
 20
4.5827285694
 10
13.4575764449
 20
4.5626131965
 10
13.4707091605
 20
4.5434136497
 10
13.4889179389
 20
4.5255886858
 10
13.5117843271
 20
4.5095655931
 10
13.538788088
 20
4.4957277074
 10
13.5693075241
 20
4.4844126526
 10
13.6026408448
 20
4.475898672
 10
13.6380221467
 20
4.4703991281
 10
13.6746391983
 20
4.4680579614
 10
13.7116516815
 20
4.4689466721
 10
13.748209683
 20
4.4730626632
 10
13.7834737188
 20
4.480329192
 10
13.8166345082
 20
4.4905972988
 10
13.8469310023
 20
4.5036492454
 10
13.8736674832
 20
4.5192033154
  0
LWPOLYLINE
  5
714
100
AcDbEntity
  8
0
100
AcDbPolyline
 62
7
  6
CONTINUOUS
 90
4
 70
0
 10
13.2357523152
 20
4.7446563833
 10
13.2372521109
 20
4.7354130735
 10
13.241598376
 20
4.7285165092
 10
13.2423438078
 20
4.72783771
  0
LINE
  5
715
100
AcDbEntity
  8
02___PRT_ALL_AXES
100
AcDbLine
 62
7
  6
CONTINUOUS
 10
13.2357523152
 20
5.0208351487
 11
13.2357523152
 21
5.0120506912
  0
LINE
  5
716
100
AcDbEntity
  8
02___PRT_ALL_AXES
100
AcDbLine
 62
7
  6
CONTINUOUS
 10
13.2357523152
 20
4.972616502
 11
13.2357523152
 21
4.9638320445
  0
LINE
  5
717
100
AcDbEntity
  8
02___PRT_ALL_AXES
100
AcDbLine
 62
7
  6
CONTINUOUS
 10
13.2357523152
 20
4.9243978553
 11
13.2357523152
 21
4.9156133979
  0
LINE
  5
718
100
AcDbEntity
  8
02___PRT_ALL_AXES
100
AcDbLine
 62
7
  6
CONTINUOUS
 10
13.2357523152
 20
4.8761792087
 11
13.2357523152
 21
4.8673947512
  0
LINE
  5
719
100
AcDbEntity
  8
02___PRT_ALL_AXES
100
AcDbLine
 62
7
  6
CONTINUOUS
 10
13.2357523152
 20
4.827960562
 11
13.2357523152
 21
4.8191761045
  0
LINE
  5
71A
100
AcDbEntity
  8
0
100
AcDbLine
 62
7
  6
CONTINUOUS
 10
13.2357523152
 20
4.7797419153
 11
13.2357523152
 21
4.7446563833
  0
LWPOLYLINE
  5
71B
100
AcDbEntity
  8
0
100
AcDbPolyline
 62
9
  6
CONTINUOUS
 90
5
 70
0
 10
12.8163229454
 20
5.7693609876
 10
12.8524728286
 20
5.7305644001
 10
12.8949747121
 20
5.6925292963
 10
12.944717081
 20
5.6551495332
 10
13.0028516695
 20
5.618480229
  0
LWPOLYLINE
  5
71C
100
AcDbEntity
  8
0
100
AcDbPolyline
 62
7
  6
CONTINUOUS
 90
6
 70
0
 10
13.4906549245
 20
4.5210867216
 10
13.4927764537
 20
4.5125679691
 10
13.5009663416
 20
4.4964648799
 10
13.5130422807
 20
4.4811986137
 10
13.5287584396
 20
4.4670799476
 10
13.5477948826
 20
4.4543962968
  0
LWPOLYLINE
  5
71D
100
AcDbEntity
  8
0
100
AcDbPolyline
 62
7
  6
CONTINUOUS
 90
4
 70
0
 10
13.3824031662
 20
4.6599893904
 10
13.3836427211
 20
4.6508963273
 10
13.3872324361
 20
4.6444365476
 10
13.3897796948
 20
4.6424151934
  0
LINE
  5
71E
100
AcDbEntity
  8
02___PRT_ALL_AXES
100
AcDbLine
 62
7
  6
CONTINUOUS
 10
13.3824031662
 20
4.9872917249
 11
13.3824031662
 21
4.9785072674
  0
LINE
  5
71F
100
AcDbEntity
  8
02___PRT_ALL_AXES
100
AcDbLine
 62
7
  6
CONTINUOUS
 10
13.3824031662
 20
4.9390730782
 11
13.3824031662
 21
4.9302886207
  0
LINE
  5
720
100
AcDbEntity
  8
02___PRT_ALL_AXES
100
AcDbLine
 62
7
  6
CONTINUOUS
 10
13.3824031662
 20
4.8908544315
 11
13.3824031662
 21
4.882069974
  0
LINE
  5
721
100
AcDbEntity
  8
02___PRT_ALL_AXES
100
AcDbLine
 62
7
  6
CONTINUOUS
 10
13.3824031662
 20
4.8426357848
 11
13.3824031662
 21
4.8338513273
  0
LINE
  5
722
100
AcDbEntity
  8
02___PRT_ALL_AXES
100
AcDbLine
 62
7
  6
CONTINUOUS
 10
13.3824031662
 20
4.7944171381
 11
13.3824031662
 21
4.7856326807
  0
LINE
  5
723
100
AcDbEntity
  8
02___PRT_ALL_AXES
100
AcDbLine
 62
7
  6
CONTINUOUS
 10
13.3824031662
 20
4.7461984915
 11
13.3824031662
 21
4.737414034
  0
LINE
  5
724
100
AcDbEntity
  8
0
100
AcDbLine
 62
7
  6
CONTINUOUS
 10
13.3824031662
 20
4.6979798448
 11
13.3824031662
 21
4.6599893904
  0
LINE
  5
725
100
AcDbEntity
  8
02___PRT_ALL_AXES
100
AcDbLine
 62
7
  6
CONTINUOUS
 10
13.0813955409
 20
5.5062399801
 11
12.995891986
 21
5.5501705489
  0
LWPOLYLINE
  5
726
100
AcDbEntity
  8
0
100
AcDbPolyline
 62
7
  6
CONTINUOUS
 90
5
 70
0
 10
13.448569515
 20
4.62293335
 10
13.450491757
 20
4.6091025905
 10
13.4593110154
 20
4.5884188537
 10
13.4740488398
 20
4.5685549368
 10
13.4942722791
 20
4.550287122
  0
LINE
  5
727
100
AcDbEntity
  8
0
100
AcDbLine
 62
7
  6
CONTINUOUS
 10
13.4475886762
 20
4.6010599028
 11
13.4498212368
 21
4.5827285694
  0
LWPOLYLINE
  5
728
100
AcDbEntity
  8
0
100
AcDbPolyline
 62
7
  6
CONTINUOUS
 90
3
 70
0
 10
13.4475886762
 20
4.5986491614
 10
13.4477090609
 20
4.5942218569
 10
13.4505958849
 20
4.5765879059
  0
LINE
  5
729
100
AcDbEntity
  8
02___PRT_ALL_AXES
100
AcDbLine
 62
7
  6
CONTINUOUS
 10
13.4688731605
 20
4.9616825452
 11
13.4688731605
 21
4.9556552143
  0
LINE
  5
72A
100
AcDbEntity
  8
02___PRT_ALL_AXES
100
AcDbLine
 62
7
  6
CONTINUOUS
 10
13.4688731605
 20
4.9134638985
 11
13.4688731605
 21
4.9074365677
  0
LINE
  5
72B
100
AcDbEntity
  8
02___PRT_ALL_AXES
100
AcDbLine
 62
7
  6
CONTINUOUS
 10
13.4688731605
 20
4.8652452518
 11
13.4688731605
 21
4.859217921
  0
LINE
  5
72C
100
AcDbEntity
  8
02___PRT_ALL_AXES
100
AcDbLine
 62
7
  6
CONTINUOUS
 10
13.4688731605
 20
4.8170266051
 11
13.4688731605
 21
4.8109992743
  0
LINE
  5
72D
100
AcDbEntity
  8
02___PRT_ALL_AXES
100
AcDbLine
 62
7
  6
CONTINUOUS
 10
13.4688731605
 20
4.7688079585
 11
13.4688731605
 21
4.7627806276
  0
LINE
  5
72E
100
AcDbEntity
  8
02___PRT_ALL_AXES
100
AcDbLine
 62
7
  6
CONTINUOUS
 10
13.4688731605
 20
4.7205893118
 11
13.4688731605
 21
4.7145619809
  0
LINE
  5
72F
100
AcDbEntity
  8
02___PRT_ALL_AXES
100
AcDbLine
 62
7
  6
CONTINUOUS
 10
13.4688731605
 20
4.6723706651
 11
13.4688731605
 21
4.6663433343
  0
LWPOLYLINE
  5
730
100
AcDbEntity
  8
0
100
AcDbPolyline
 62
9
  6
CONTINUOUS
 90
24
 70
0
 10
13.0028516695
 20
5.618480229
 10
13.0662882007
 20
5.5849546782
 10
13.1309642936
 20
5.5562586183
 10
13.1967958544
 20
5.5317276397
 10
13.2639695159
 20
5.5108528424
 10
13.3328984182
 20
5.4932741124
 10
13.4040449066
 20
5.4788105157
 10
13.4771100239
 20
5.4675422048
 10
13.5514126727
 20
5.4595840828
 10
13.62650651
 20
5.4549764306
 10
13.7019990343
 20
5.4537401284
 10
13.7774305889
 20
5.4558831122
 10
13.8523363594
 20
5.4613913737
 10
13.9262674309
 20
5.4702303333
 10
13.9987820401
 20
5.4823457386
 10
14.0694459185
 20
5.4976637094
 10
14.1378390159
 20
5.5160921158
 10
14.2035561053
 20
5.5375213209
 10
14.2662049528
 20
5.5618235573
 10
14.325409333
 20
5.5888532148
 10
14.3808127816
 20
5.6184477804
 10
14.4320819097
 20
5.650429177
 10
14.4789101216
 20
5.6846061867
 10
14.5210169868
 20
5.7207744986
  0
LWPOLYLINE
  5
731
100
AcDbEntity
  8
0
100
AcDbPolyline
 62
7
  6
CONTINUOUS
 90
3
 70
0
 10
13.4496248488
 20
4.6153400979
 10
13.4476212775
 20
4.6032803289
 10
13.4475886762
 20
4.6010599028
  0
LWPOLYLINE
  5
732
100
AcDbEntity
  8
0
100
AcDbPolyline
 62
9
  6
CONTINUOUS
 90
41
 70
0
 10
13.0446097701
 20
5.6908077824
 10
13.1041896497
 20
5.6593198682
 10
13.1649467107
 20
5.6323617774
 10
13.2267890416
 20
5.609316576
 10
13.2898920019
 20
5.589706175
 10
13.354643665
 20
5.5731922098
 10
13.4214784732
 20
5.5596046503
 10
13.4901157317
 20
5.5490187532
 10
13.5599156267
 20
5.5415424661
 10
13.6304588227
 20
5.5372136373
 10
13.7013765981
 20
5.5360518836
 10
13.7722371507
 20
5.5380646626
 10
13.8426038253
 20
5.5432388174
 10
13.9120549019
 20
5.5515418656
 10
13.9801753796
 20
5.5629228437
 10
14.0465572981
 20
5.5773123493
 10
14.1108060537
 20
5.5946238355
 10
14.1725409676
 20
5.6147543092
 10
14.2313935673
 20
5.6375837448
 10
14.287010419
 20
5.6629753545
 10
14.3390566522
 20
5.690776472
 10
14.3872190741
 20
5.720819809
 10
14.4312096617
 20
5.7529257326
 10
14.4707649727
 20
5.78690231
 10
14.505646618
 20
5.8225451486
 10
14.5356445639
 20
5.8596396942
 10
14.5605783884
 20
5.8979624503
 10
14.5802997277
 20
5.937285252
 10
14.5946911814
 20
5.9773764691
 10
14.6036646496
 20
6.0179976399
 10
14.607163419
 20
6.0589041178
 10
14.6051647413
 20
6.0998440767
 10
14.5976812722
 20
6.140569207
 10
14.5847471754
 20
6.1808651743
 10
14.5664297986
 20
6.2204869743
 10
14.5429164172
 20
6.2590670208
 10
14.5143314586
 20
6.2964514166
 10
14.4803715054
 20
6.3328969672
 10
14.4404442383
 20
6.368627237
 10
14.3937149681
 20
6.4037419556
 10
14.3391108894
 20
6.4381838908
  0
LWPOLYLINE
  5
733
100
AcDbEntity
  8
0
100
AcDbPolyline
 62
7
  6
CONTINUOUS
 90
3
 70
0
 10
13.9361319833
 20
4.6171327712
 10
13.9360428258
 20
4.6210809948
 10
13.9356906965
 20
4.6231224817
  0
LWPOLYLINE
  5
734
100
AcDbEntity
  8
0
100
AcDbPolyline
 62
7
  6
CONTINUOUS
 90
21
 70
0
 10
13.9361319833
 20
4.6139181921
 10
13.93439131
 20
4.5965009058
 10
13.927265599
 20
4.5748841498
 10
13.9147966538
 20
4.5541221424
 10
13.8972672961
 20
4.5346683353
 10
13.8750751429
 20
4.5169467273
 10
13.8487241219
 20
4.501342349
 10
13.8188127959
 20
4.4881920657
 10
13.7860202978
 20
4.4777767811
 10
13.7510907363
 20
4.4703152148
 10
13.7148165667
 20
4.4659591395
 10
13.6780210898
 20
4.464789971
 10
13.6415397891
 20
4.4668167699
 10
13.6062003094
 20
4.4719760869
 10
13.5728044355
 20
4.4801335251
 10
13.5421109072
 20
4.4910863991
 10
13.5148176
 20
4.5045680083
 10
13.4915499214
 20
4.5202496252
 10
13.4728253992
 20
4.5377627943
 10
13.4590700592
 20
4.5566916486
 10
13.4505958849
 20
4.5765879059
  0
LINE
  5
735
100
AcDbEntity
  8
0
100
AcDbLine
 62
7
  6
CONTINUOUS
 10
13.9342366429
 20
4.5989608953
 11
13.9361319833
 21
4.6171327712
  0
LWPOLYLINE
  5
736
100
AcDbEntity
  8
0
100
AcDbPolyline
 62
7
  6
CONTINUOUS
 90
17
 70
0
 10
13.8936204476
 20
4.5233142499
 10
13.8909445664
 20
4.5125689262
 10
13.8827549107
 20
4.4964657976
 10
13.8706791918
 20
4.4811994734
 10
13.8549632366
 20
4.4670807317
 10
13.8359269765
 20
4.4543969894
 10
13.8139579349
 20
4.4434064511
 10
13.7895033382
 20
4.4343328522
 10
13.7630610115
 20
4.4273609052
 10
13.7351692442
 20
4.4226325388
 10
13.7063958322
 20
4.4202440089
 10
13.6773265194
 20
4.420243939
 10
13.648553073
 20
4.4226323306
 10
13.6206612375
 20
4.4273605629
 10
13.5942188102
 20
4.4343323828
 10
13.5697640826
 20
4.4434058641
 10
13.5477948826
 20
4.4543962968
  0
LWPOLYLINE
  5
737
100
AcDbEntity
  8
0
100
AcDbPolyline
 62
7
  6
CONTINUOUS
 90
9
 70
0
 10
13.9311275367
 20
4.6219183266
 10
13.9277477681
 20
4.6113025226
 10
13.9157992845
 20
4.5908448109
 10
13.8988955589
 20
4.5715731043
 10
13.8770892679
 20
4.5537068372
 10
13.8509304678
 20
4.5378432833
 10
13.8213049142
 20
4.5245008506
 10
13.7892290635
 20
4.5139996765
 10
13.7550834682
 20
4.5063588079
  0
LINE
  5
738
100
AcDbEntity
  8
0
100
AcDbLine
 62
9
  6
CONTINUOUS
 10
14.5210169868
 20
5.7207744986
 11
14.5581487446
 21
5.7587165394
  0
LINE
  5
739
100
AcDbEntity
  8
02___PRT_ALL_AXES
100
AcDbLine
 62
7
  6
CONTINUOUS
 10
14.278474503
 20
5.0006719123
 11
14.2770747786
 21
5.0222627893
  0
LINE
  5
73A
100
AcDbEntity
  8
02___PRT_ALL_AXES
100
AcDbLine
 62
7
  6
CONTINUOUS
 10
14.278474503
 20
5.0488905589
 11
14.2770747786
 21
5.070481436
  0
LWPOLYLINE
  5
73B
100
AcDbEntity
  8
0
100
AcDbPolyline
 62
7
  6
CONTINUOUS
 90
5
 70
0
 10
13.9184315936
 20
4.5601746709
 10
13.913247448
 20
4.5481047314
 10
13.8990838372
 20
4.5284871802
 10
13.8798413117
 20
4.5102676773
 10
13.8548832361
 20
4.4933245489
  0
LWPOLYLINE
  5
73C
100
AcDbEntity
  8
0
100
AcDbPolyline
 62
9
  6
CONTINUOUS
 90
5
 70
0
 10
14.5581487446
 20
5.7587165394
 10
14.5900818191
 20
5.7982039218
 10
14.6166241527
 20
5.8389987368
 10
14.6376178124
 20
5.8808581058
 10
14.6529378248
 20
5.9235354615
  0
LINE
  5
73D
100
AcDbEntity
  8
02___PRT_ALL_AXES
100
AcDbLine
 62
7
  6
CONTINUOUS
 10
14.2765892689
 20
5.0693632793
 11
14.2784523339
 21
5.096782933
  0
LINE
  5
73E
100
AcDbEntity
  8
02___PRT_ALL_AXES
100
AcDbLine
 62
7
  6
CONTINUOUS
 10
14.2765892689
 20
5.0211446326
 11
14.278474503
 21
5.0488905589
  0
LINE
  5
73F
100
AcDbEntity
  8
02___PRT_ALL_AXES
100
AcDbLine
 62
7
  6
CONTINUOUS
 10
14.2765892689
 20
4.9729259859
 11
14.278474503
 21
5.0006719123
  0
LINE
  5
740
100
AcDbEntity
  8
02___PRT_ALL_AXES
100
AcDbLine
 62
7
  6
CONTINUOUS
 10
14.2620898554
 20
5.0158054344
 11
14.2765892689
 21
5.0693632793
  0
LWPOLYLINE
  5
741
100
AcDbEntity
  8
02___PRT_ALL_AXES
100
AcDbPolyline
 62
7
  6
CONTINUOUS
 90
3
 70
0
 10
14.2620898554
 20
5.0097781036
 10
14.2765892689
 20
5.0633359485
 10
14.278474503
 20
5.0910818748
  0
LINE
  5
742
100
AcDbEntity
  8
02___PRT_ALL_AXES
100
AcDbLine
 62
7
  6
CONTINUOUS
 10
14.2620898554
 20
4.9675867877
 11
14.2765892689
 21
5.0211446326
  0
LWPOLYLINE
  5
743
100
AcDbEntity
  8
02___PRT_ALL_AXES
100
AcDbPolyline
 62
7
  6
CONTINUOUS
 90
3
 70
0
 10
14.2620898554
 20
4.9615594569
 10
14.2765892689
 20
5.0151173018
 10
14.278474503
 20
5.0428632281
  0
LINE
  5
744
100
AcDbEntity
  8
02___PRT_ALL_AXES
100
AcDbLine
 62
7
  6
CONTINUOUS
 10
14.2336151388
 20
5.0546056042
 11
14.2494520259
 21
5.0833096111
  0
LWPOLYLINE
  5
745
100
AcDbEntity
  8
0
100
AcDbPolyline
 62
7
  6
CONTINUOUS
 90
13
 70
0
 10
13.9105765963
 20
4.6164952161
 10
13.909669569
 20
4.615178772
 10
13.889727306
 20
4.5955208672
 10
13.8645902433
 20
4.5776863086
 10
13.8351082836
 20
4.5623608477
 10
13.8024511131
 20
4.5500445434
 10
13.7673797736
 20
4.5408766856
 10
13.7304359582
 20
4.5349405738
 10
13.6922918115
 20
4.532368827
 10
13.654287699
 20
4.5332477746
 10
13.6170738933
 20
4.5375398488
 10
13.5812666223
 20
4.5452378588
 10
13.548227737
 20
4.5560999903
  0
LWPOLYLINE
  5
746
100
AcDbEntity
  8
02___PRT_ALL_AXES
100
AcDbPolyline
 62
7
  6
CONTINUOUS
 90
8
 70
0
 10
14.0321986723
 20
4.905646229
 10
14.0173467684
 20
4.8980148983
 10
13.9456736919
 20
4.8711763665
 10
13.8688325127
 20
4.8511139551
 10
13.7870607657
 20
4.8378713758
 10
13.7026147733
 20
4.8319669372
 10
13.6185513746
 20
4.8335600777
 10
13.5362258391
 20
4.8425091453
  0
LWPOLYLINE
  5
747
100
AcDbEntity
  8
02___PRT_ALL_AXES
100
AcDbPolyline
 62
7
  6
CONTINUOUS
 90
8
 70
0
 10
14.0318225706
 20
5.0019195482
 10
14.0163641409
 20
4.9940210899
 10
13.9452600156
 20
4.9674834026
 10
13.8677666572
 20
4.9473276582
 10
13.7851354621
 20
4.9340885736
 10
13.7001660596
 20
4.9283456836
 10
13.6160105941
 20
4.9301619931
 10
13.533990849
 20
4.9392967538
  0
LWPOLYLINE
  5
748
100
AcDbEntity
  8
0
100
AcDbPolyline
 62
7
  6
CONTINUOUS
 90
8
 70
0
 10
14.3575490181
 20
5.1340174437
 10
14.2509182904
 20
5.0838213702
 10
14.1339773421
 20
5.043006359
 10
14.0088917493
 20
5.0121680098
 10
13.8780498199
 20
4.9917845508
 10
13.7438508872
 20
4.9821533687
 10
13.6087244764
 20
4.9834121061
 10
13.4751611902
 20
4.9955329546
  0
LWPOLYLINE
  5
749
100
AcDbEntity
  8
02___PRT_ALL_AXES
100
AcDbPolyline
 62
7
  6
CONTINUOUS
 90
7
 70
0
 10
13.9988168762
 20
4.9393109564
 10
13.9465182768
 20
4.9196617588
 10
13.8691822148
 20
4.8994062681
 10
13.786792737
 20
4.8860591379
 10
13.7021371368
 20
4.8801736704
 10
13.6183309148
 20
4.8817927339
 10
13.536100711
 20
4.8907472489
  0
LWPOLYLINE
  5
74A
100
AcDbEntity
  8
0
100
AcDbPolyline
 62
7
  6
CONTINUOUS
 90
14
 70
0
 10
14.2321896383
 20
4.8600776469
 10
14.2182370842
 20
4.8226292496
 10
14.1869253044
 20
4.7744231728
 10
14.1432831344
 20
4.7294757618
 10
14.0884986855
 20
4.6893178178
 10
14.0243777654
 20
4.6551389868
 10
13.9527117526
 20
4.6276141042
 10
13.8752696826
 20
4.6071782074
 10
13.7938192887
 20
4.5941256123
 10
13.71015675
 20
4.588641945
 10
13.626149533
 20
4.5908015568
 10
13.5436170286
 20
4.6005592059
 10
13.4643644525
 20
4.6177590533
 10
13.3912407111
 20
4.6417138134
  0
LWPOLYLINE
  5
74B
100
AcDbEntity
  8
02___PRT_ALL_AXES
100
AcDbPolyline
 62
7
  6
CONTINUOUS
 90
3
 70
0
 10
14.2336151388
 20
5.0063869576
 10
14.2620898554
 20
5.0579967502
 10
14.2715540186
 20
5.0929554185
  0
LINE
  5
74C
100
AcDbEntity
  8
02___PRT_ALL_AXES
100
AcDbLine
 62
7
  6
CONTINUOUS
 10
14.2336151388
 20
4.915976995
 11
14.2620898554
 21
4.9675867877
  0
LINE
  5
74D
100
AcDbEntity
  8
02___PRT_ALL_AXES
100
AcDbLine
 62
7
  6
CONTINUOUS
 10
14.2336151388
 20
4.9099496642
 11
14.2620898554
 21
4.9615594569
  0
LWPOLYLINE
  5
74E
100
AcDbEntity
  8
02___PRT_ALL_AXES
100
AcDbPolyline
 62
7
  6
CONTINUOUS
 90
7
 70
0
 10
13.9990086593
 20
4.8429572773
 10
13.9469578373
 20
4.8233637204
 10
13.8693528433
 20
4.8030049736
 10
13.7865281259
 20
4.7895914313
 10
13.7013013972
 20
4.783716107
 10
13.6168112652
 20
4.7854534282
 10
13.5349716561
 20
4.7944863547
  0
LWPOLYLINE
  5
74F
100
AcDbEntity
  8
02___PRT_ALL_AXES
100
AcDbPolyline
 62
7
  6
CONTINUOUS
 90
7
 70
0
 10
13.9576153182
 20
4.7792441785
 10
13.9448347817
 20
4.7744751891
 10
13.8676537326
 20
4.7544294653
 10
13.7865035942
 20
4.7413699689
 10
13.7027547607
 20
4.7355331808
 10
13.6189044932
 20
4.7371004533
 10
13.5364771244
 20
4.7460328336
  0
LWPOLYLINE
  5
750
100
AcDbEntity
  8
02___PRT_ALL_AXES
100
AcDbPolyline
 62
7
  6
CONTINUOUS
 90
8
 70
0
 10
13.9168490961
 20
4.8235172233
 10
13.9986437865
 20
4.8488255296
 10
14.0729197645
 20
4.881208646
 10
14.137856659
 20
4.9199023951
 10
14.1918629831
 20
4.9639879369
 10
14.2336151388
 20
5.0124142884
 10
14.2620898554
 20
5.0640240811
 10
14.2698639483
 20
5.092739978
  0
LWPOLYLINE
  5
751
100
AcDbEntity
  8
02___PRT_ALL_AXES
100
AcDbPolyline
 62
7
  6
CONTINUOUS
 90
7
 70
0
 10
13.9168490961
 20
4.7752985766
 10
13.9986437865
 20
4.8006068829
 10
14.0729197645
 20
4.8329899993
 10
14.137856659
 20
4.8716837484
 10
14.1918629831
 20
4.9157692902
 10
14.2336151388
 20
4.9641956417
 10
14.2620898554
 20
5.0158054344
  0
LWPOLYLINE
  5
752
100
AcDbEntity
  8
02___PRT_ALL_AXES
100
AcDbPolyline
 62
7
  6
CONTINUOUS
 90
7
 70
0
 10
13.9168490961
 20
4.7692712458
 10
13.9986437865
 20
4.7945795521
 10
14.0729197645
 20
4.8269626685
 10
14.137856659
 20
4.8656564176
 10
14.1918629831
 20
4.9097419594
 10
14.2336151388
 20
4.9581683109
 10
14.2620898554
 20
5.0097781036
  0
LWPOLYLINE
  5
753
100
AcDbEntity
  8
0
100
AcDbPolyline
 62
9
  6
CONTINUOUS
 90
4
 70
0
 10
14.6529378248
 20
5.9235354615
 10
14.6624904069
 20
5.9667769643
 10
14.6662151855
 20
6.0103221913
 10
14.6662697786
 20
6.0162771899
  0
LWPOLYLINE
  5
754
100
AcDbEntity
  8
0
100
AcDbPolyline
 62
7
  6
CONTINUOUS
 90
4
 70
0
 10
13.8962295578
 20
4.5369200152
 10
13.914098908
 20
4.5564100248
 10
13.9268655616
 20
4.5772437214
 10
13.9342366429
 20
4.5989608953
  0
LINE
  5
755
100
AcDbEntity
  8
0
100
AcDbLine
 62
7
  6
CONTINUOUS
 10
13.8736674832
 20
4.5192033154
 11
13.8962295578
 21
4.5369200152
  0
LWPOLYLINE
  5
756
100
AcDbEntity
  8
0
100
AcDbPolyline
 62
7
  6
CONTINUOUS
 90
10
 70
0
 10
13.8524514479
 20
4.6035215378
 10
13.8350734139
 20
4.5944911382
 10
13.8024135037
 20
4.5821784017
 10
13.7673438016
 20
4.5730149082
 10
13.7303878663
 20
4.5670808806
 10
13.6922301022
 20
4.5645132405
 10
13.6542229133
 20
4.5653979934
 10
13.6170143229
 20
4.5696953682
 10
13.5812219006
 20
4.5773956866
 10
13.5482046089
 20
4.588254864
  0
LWPOLYLINE
  5
757
100
AcDbEntity
  8
02___PRT_ALL_AXES
100
AcDbPolyline
 62
7
  6
CONTINUOUS
 90
8
 70
0
 10
14.0323901498
 20
4.76107377
 10
14.0171858983
 20
4.7532882475
 10
13.945965986
 20
4.7266126195
 10
13.868274024
 20
4.706340682
 10
13.7853914767
 20
4.6930243722
 10
13.7001470441
 20
4.6872520201
 10
13.6157016361
 20
4.6890892504
 10
13.5336252183
 20
4.6982613916
  0
LINE
  5
758
100
AcDbEntity
  8
02___PRT_ALL_AXES
100
AcDbLine
 62
7
  6
CONTINUOUS
 10
14.6662697786
 20
6.0162771899
 11
14.6662697786
 21
5.951985661
  0
LINE
  5
759
100
AcDbEntity
  8
0
100
AcDbLine
 62
9
  6
CONTINUOUS
 10
14.6761122982
 20
5.5662311653
 11
14.6761122982
 21
5.5662364876
  0
LINE
  5
75A
100
AcDbEntity
  8
02___PRT_ALL_AXES
100
AcDbLine
 62
7
  6
CONTINUOUS
 10
14.6761122982
 20
5.951985661
 11
14.6761122982
 21
5.5662364876
  0
LWPOLYLINE
  5
75B
100
AcDbEntity
  8
02___PRT_ALL_AXES
100
AcDbPolyline
 62
7
  6
CONTINUOUS
 90
28
 70
0
 10
14.6662689455
 20
5.9519793006
 10
14.6660245473
 20
5.9393650765
 10
14.6601433507
 20
5.8890004114
 10
14.6464661085
 20
5.8391428664
 10
14.6251029419
 20
5.7901938653
 10
14.5962258545
 20
5.7425475166
 10
14.5600673476
 20
5.6965874406
 10
14.5169185484
 20
5.652683681
 10
14.4671268655
 20
5.6111897249
 10
14.4110931923
 20
5.5724396573
 10
14.349268679
 20
5.536745471
 10
14.2821511002
 20
5.5043945545
 10
14.2102808472
 20
5.4756473784
 10
14.134236577
 20
5.4507353981
 10
14.0546305534
 20
5.4298591902
 10
13.9721037173
 20
5.4131868376
 10
13.8873205262
 20
5.4008525764
 10
13.8009636045
 20
5.3929557146
 10
13.7137282474
 20
5.3895598333
 10
13.6263168227
 20
5.3906922741
 10
13.5394331158
 20
5.3963439192
 10
13.4537766632
 20
5.4064692649
 10
13.3700371202
 20
5.4209867878
 10
13.2888887085
 20
5.4397796014
 10
13.2109847874
 20
5.4626963971
 10
13.1369525934
 20
5.4895526622
 10
13.0673881902
 20
5.5201321659
 10
13.0028516695
 20
5.5541887001
  0
LWPOLYLINE
  5
75C
100
AcDbEntity
  8
02___PRT_ALL_AXES
100
AcDbPolyline
 62
7
  6
CONTINUOUS
 90
21
 70
0
 10
14.6761099233
 20
5.9519716618
 10
14.6756960297
 20
5.935460634
 10
14.6657208041
 20
5.8696304706
 10
14.6425757863
 20
5.8049140199
 10
14.6065739728
 20
5.7421864609
 10
14.5582022265
 20
5.6822960761
 10
14.4981146922
 20
5.6260527803
 10
14.4271239508
 20
5.5742171676
 10
14.3461900303
 20
5.5274902257
 10
14.256407423
 20
5.4865038564
 10
14.1589902848
 20
5.4518123299
 10
14.0552560153
 20
5.4238847897
 10
13.9466074426
 20
5.4030989079
 10
13.8345138521
 20
5.3897357777
 10
13.7204911175
 20
5.3839761127
 10
13.6060812006
 20
5.3858978025
 10
13.4928312993
 20
5.3954748594
 10
13.3822729241
 20
5.4125777702
 10
13.2759011876
 20
5.4369752474
 10
13.1751545849
 20
5.4683373569
 10
13.0813955409
 20
5.5062399801
  0
LWPOLYLINE
  5
75D
100
AcDbEntity
  8
0
100
AcDbPolyline
 62
7
  6
CONTINUOUS
 90
7
 70
0
 10
14.6761122982
 20
5.5662364876
 10
14.6670797541
 20
5.4864385936
 10
14.6397746657
 20
5.4074347157
 10
14.5943226189
 20
5.3310935348
 10
14.5311724639
 20
5.2589233103
 10
14.4516562689
 20
5.1927556362
 10
14.3575490181
 20
5.1340174437
  0
LINE
  5
75E
100
AcDbEntity
  8
0
100
AcDbLine
 62
7
  6
CONTINUOUS
 10
13.8395346575
 20
4.4844627936
 11
13.8548829844
 21
4.4933244036
  0
LWPOLYLINE
  5
75F
100
AcDbEntity
  8
0
100
AcDbPolyline
 62
7
  6
CONTINUOUS
 90
10
 70
0
 10
13.8548832361
 20
4.4933245489
 10
13.8276735903
 20
4.479823243
 10
13.7966963677
 20
4.4686882434
 10
13.7635934937
 20
4.460557807
 10
13.7288668542
 20
4.4554910969
 10
13.6931518856
 20
4.4535988477
 10
13.6577099879
 20
4.4549405021
 10
13.6231805764
 20
4.4594634203
 10
13.5901151966
 20
4.4671476269
 10
13.5597801581
 20
4.4777416779
  0
LWPOLYLINE
  5
760
100
AcDbEntity
  8
02___PRT_ALL_AXES
100
AcDbPolyline
 62
7
  6
CONTINUOUS
 90
3
 70
0
 10
14.664558279
 20
6.0322895914
 10
14.6723665652
 20
6.00151427
 10
14.6761099233
 20
5.9519716618
  0
LWPOLYLINE
  5
761
100
AcDbEntity
  8
0
100
AcDbPolyline
 62
9
  6
CONTINUOUS
 90
41
 70
0
 10
14.3391108894
 20
6.4381838908
 10
14.2795310098
 20
6.469671805
 10
14.2187739487
 20
6.4966298958
 10
14.1569316179
 20
6.5196750972
 10
14.0938286576
 20
6.5392854982
 10
14.0290769945
 20
6.5557994634
 10
13.9622421863
 20
6.5693870229
 10
13.8936049278
 20
6.57997292
 10
13.8238050327
 20
6.5874492071
 10
13.7532618367
 20
6.591778036
 10
13.6823440613
 20
6.5929397896
 10
13.6114835087
 20
6.5909270106
 10
13.5411168342
 20
6.5857528558
 10
13.4716657576
 20
6.5774498076
 10
13.4035452799
 20
6.5660688295
 10
13.3371633613
 20
6.5516793239
 10
13.2729146058
 20
6.5343678377
 10
13.2111796919
 20
6.514237364
 10
13.1523270922
 20
6.4914079284
 10
13.0967102404
 20
6.4660163187
 10
13.0446640073
 20
6.4382152013
 10
12.9965015853
 20
6.4081718642
 10
12.9525109977
 20
6.3760659406
 10
12.9129556868
 20
6.3420893632
 10
12.8780740414
 20
6.3064465246
 10
12.8480760956
 20
6.269351979
 10
12.8231422711
 20
6.2310292229
 10
12.8034209318
 20
6.1917064212
 10
12.7890294781
 20
6.1516152041
 10
12.7800560098
 20
6.1109940334
 10
12.7765572405
 20
6.0700875554
 10
12.7785559182
 20
6.0291475965
 10
12.7860393873
 20
5.9884224662
 10
12.798973484
 20
5.9481264989
 10
12.8172908608
 20
5.9085046989
 10
12.8408042423
 20
5.8699246524
 10
12.8693892009
 20
5.8325402566
 10
12.9033491541
 20
5.796094706
 10
12.9432764212
 20
5.7603644362
 10
12.9900056913
 20
5.7252497176
 10
13.0446097701
 20
5.6908077824
  0
LWPOLYLINE
  5
762
100
AcDbEntity
  8
0
100
AcDbPolyline
 62
7
  6
CONTINUOUS
 90
7
 70
0
 10
14.3686379474
 20
6.4411087659
 10
14.4573128793
 20
6.3823425651
 10
14.5319522921
 20
6.3165849118
 10
14.5908682748
 20
6.2453398804
 10
14.6329575945
 20
6.1704788146
 10
14.6579905441
 20
6.0937358289
 10
14.6662697786
 20
6.0162771899
  0
LINE
  5
763
100
AcDbEntity
  8
02___PRT_ALL_AXES
100
AcDbLine
 62
7
  6
CENTER
 10
4.2529581338
 20
7.8067885438
 11
4.2529581338
 21
6.732379095
  0
LINE
  5
764
100
AcDbEntity
  8
02___PRT_ALL_AXES
100
AcDbLine
 62
7
  6
CENTER
 10
4.2529581338
 20
7.8067885438
 11
4.2529581338
 21
8.8811979927
  0
LINE
  5
765
100
AcDbEntity
  8
02___PRT_ALL_AXES
100
AcDbLine
 62
7
  6
CENTER
 10
4.2529581338
 20
7.8067885438
 11
3.178548685
 21
7.8067885438
  0
LINE
  5
766
100
AcDbEntity
  8
02___PRT_ALL_AXES
100
AcDbLine
 62
7
  6
CENTER
 10
4.2529581338
 20
7.8067885438
 11
5.3273675826
 21
7.8067885438
  0
CIRCLE
  5
767
100
AcDbEntity
  8
0
100
AcDbCircle
 62
7
  6
CONTINUOUS
 10
10.5342808475
 20
1.243294839
 40
0.252091
  0
CIRCLE
  5
768
100
AcDbEntity
  8
0
100
AcDbCircle
 62
7
  6
CONTINUOUS
 10
10.5342808475
 20
1.243294839
 40
0.182698
  0
CIRCLE
  5
769
100
AcDbEntity
  8
02___PRT_ALL_AXES
100
AcDbCircle
 62
7
  6
CONTINUOUS
 10
4.2529581338
 20
7.8067885438
 40
0.9842519685
  0
CIRCLE
  5
76A
100
AcDbEntity
  8
0
100
AcDbCircle
 62
7
  6
CONTINUOUS
 10
4.2529581338
 20
7.8067885438
 40
0.9744094488
  0
CIRCLE
  5
76B
100
AcDbEntity
  8
0
100
AcDbCircle
 62
9
  6
CONTINUOUS
 10
4.2529581338
 20
7.8067885438
 40
0.9153543304
  0
ARC
  5
76C
100
AcDbEntity
  8
0
100
AcDbCircle
 62
7
  6
CONTINUOUS
 10
3.890576244
 20
3.4830741609
 40
0.1181102362
100
AcDbArc
 50
0.0
 51
7.3852386187
  0
ARC
  5
76D
100
AcDbEntity
  8
0
100
AcDbCircle
 62
7
  6
CONTINUOUS
 10
4.6153400235
 20
3.4830741609
 40
0.1181102362
100
AcDbArc
 50
172.6147613811
 51
180.0
  0
ARC
  5
76E
100
AcDbEntity
  8
0
100
AcDbCircle
 62
7
  6
CONTINUOUS
 10
5.1683124645
 20
4.8762074595
 40
0.0590551181
100
AcDbArc
 50
0.0
 51
90.0000001346
  0
ARC
  5
76F
100
AcDbEntity
  8
0
100
AcDbCircle
 62
7
  6
CONTINUOUS
 10
3.3376038031
 20
4.8762074595
 40
0.0590551181
100
AcDbArc
 50
89.9999998654
 51
180.0
  0
ARC
  5
770
100
AcDbEntity
  8
0
100
AcDbCircle
 62
7
  6
CONTINUOUS
 10
4.7647691574
 20
3.5376247824
 40
0.0393700787
100
AcDbArc
 50
270.0
 51
360.0
  0
ARC
  5
771
100
AcDbEntity
  8
0
100
AcDbCircle
 62
7
  6
CONTINUOUS
 10
3.7411471101
 20
3.5376247824
 40
0.0393700787
100
AcDbArc
 50
180.0
 51
270.0
  0
ARC
  5
772
100
AcDbEntity
  8
0
100
AcDbCircle
 62
7
  6
CONTINUOUS
 10
5.1978400235
 20
4.3250263572
 40
0.0393700787
100
AcDbArc
 50
269.9999999017
 51
360.0
  0
ARC
  5
773
100
AcDbEntity
  8
0
100
AcDbCircle
 62
7
  6
CONTINUOUS
 10
3.308076244
 20
4.3250263572
 40
0.0393700787
100
AcDbArc
 50
180.0
 51
270.0000000983
  0
ARC
  5
774
100
AcDbEntity
  8
0
100
AcDbCircle
 62
7
  6
CONTINUOUS
 10
3.6624069527
 20
4.2462861997
 40
0.0393700787
100
AcDbArc
 50
0.0
 51
90.0
  0
ARC
  5
775
100
AcDbEntity
  8
0
100
AcDbCircle
 62
7
  6
CONTINUOUS
 10
4.8435093149
 20
4.2462861997
 40
0.0393700787
100
AcDbArc
 50
90.0
 51
180.0
  0
ENDSEC
  0
SECTION
  2
OBJECTS
  0
DICTIONARY
  5
C
100
AcDbDictionary
280
0
281
1
  3
ACAD_GROUP
350
D
  3
ACAD_MLINESTYLE
350
17
  3
ACAD_LAYOUT
350
1A
  3
ACAD_PLOTSETTINGS
350
19
  3
ACAD_PLOTSTYLENAME
350
E
  0
DICTIONARY
  5
D
102
{ACAD_REACTORS
330
C
102
}
100
AcDbDictionary
280
0
281
1
  0
ACDBDICTIONARYWDFLT
  5
E
102
{ACAD_REACTORS
330
C
102
}
100
AcDbDictionary
281
1
  3
Normal
350
F
100
AcDbDictionaryWithDefault
340
F
  0
DICTIONARY
  5
17
102
{ACAD_REACTORS
330
C
102
}
100
AcDbDictionary
280
0
281
1
  3
Standard
350
18
  0
DICTIONARY
  5
19
102
{ACAD_REACTORS
330
C
102
}
100
AcDbDictionary
281
1
  0
DICTIONARY
  5
1A
102
{ACAD_REACTORS
330
C
102
}
100
AcDbDictionary
281
1
  3
Model
350
776
  3
Layout1
350
777
  0
ACDBPLACEHOLDER
  5
F
102
{ACAD_REACTORS
330
E
102
}
  0
MLINESTYLE
  5
18
102
{ACAD_REACTORS
330
17
102
}
100
AcDbMlineStyle
  2
STANDARD
 70
0
  3

 62
256
 51
90.0
 52
90.0
 71
2
 49
0.5
 62
256
  6
BYLAYER
 49
-0.5
 62
256
  6
BYLAYER
  0
LAYOUT
  5
776
102
{ACAD_REACTORS
330
1A
102
}
100
AcDbPlotSettings
  1

  2
none_device
  4
ANSI_B_(17.00_x_11.00_Inches)
  6

 40
0.0
 41
0.0
 42
0.0
 43
0.0
 44
431.8
 45
279.4
 46
0.0
 47
0.0
 48
0.0
 49
0.0
140
0.0
141
0.0
142
1.0
143
1.0
 70
1024
 72
0
 73
0
 74
0
  7

 75
0
147
1.0
148
0.0
149
0.0
100
AcDbLayout
  1
Model
 70
0
 71
0
 10
0.0
 20
0.0
 11
17.0
 21
11.0
 12
0.0
 22
0.0
 32
0.0
 14
0.0
 24
0.0
 34
0.0
 15
0.0
 25
0.0
 35
0.0
146
0.0
 13
0.0
 23
0.0
 33
0.0
 16
1.0
 26
0.0
 36
0.0
 17
0.0
 27
1.0
 37
0.0
 76
0
330
213
345
0
346
0
  0
LAYOUT
  5
777
102
{ACAD_REACTORS
330
1A
102
}
100
AcDbPlotSettings
  1

  2
none_device
  4
ANSI_B_(17.00_x_11.00_Inches)
  6

 40
0.0
 41
0.0
 42
0.0
 43
0.0
 44
431.8
 45
279.4
 46
0.0
 47
0.0
 48
0.0
 49
0.0
140
0.0
141
0.0
142
1.0
143
1.0
 70
0
 72
0
 73
0
 74
0
  7

 75
0
147
1.0
148
0.0
149
0.0
100
AcDbLayout
  1
Layout1
 70
0
 71
1
 10
0.0
 20
0.0
 11
17.0
 21
11.0
 12
0.0
 22
0.0
 32
0.0
 14
0.0
 24
0.0
 34
0.0
 15
0.0
 25
0.0
 35
0.0
146
0.0
 13
0.0
 23
0.0
 33
0.0
 16
1.0
 26
0.0
 36
0.0
 17
0.0
 27
1.0
 37
0.0
 76
0
330
214
345
0
346
0
  0
ENDSEC
  0
EOF
