999
DXF file: 148997_1.dxf
999
Pro/ENGINEER 2016260 by Parametric Technology Corporation
  0
SECTION
  2
HEADER
  9
$ACADVER
  1
AC1027
  9
$DWGCODEPAGE
  3
ANSI_1252
  9
$EXTMAX
 10
34.0
 20
22.0
 30
0.0
  9
$EXTMIN
 10
0.0
 20
0.0
 30
0.0
  9
$LIMMIN
 10
0.0
 20
0.0
  9
$LIMMAX
 10
34.0
 20
22.0
  9
$VIEWCTR
 10
17.0
 20
11.0
  9
$VIEWSIZE
 40
22.0
  9
$CLAYER
  8
0
  9
$LTSCALE
 40
1.87
  9
$CELTYPE
  6
BYLAYER
  9
$DIMSCALE
 40
1.0
  9
$DIMASZ
 40
0.1875
  9
$DIMEXO
 40
0.0625
  9
$DIMDLI
 40
1.292
  9
$DIMEXE
 40
0.125
  9
$DIMCEN
 40
0.306
  9
$DIMLFAC
 40
1.0
  9
$DIMBLK
  1
_FILLED
  9
$DIMALT
 70
1
  9
$DIMALTD
 70
2
  9
$DIMALTTD
 70
2
  9
$DIMALTF
 40
1.0
  9
$DIMTXT
 40
0.1
  9
$DIMTOL
 70
1
  9
$DIMLIM
 70
0
  9
$DIMTFAC
 40
1.0
  9
$DIMTP
 40
0.005
  9
$DIMTM
 40
0.005
  9
$DIMGAP
 40
0.09
  9
$DIMDSEP
 70
46
  9
$AUNITS
 70
0
  9
$PDMODE
 70
3
  9
$PDSIZE
 40
0.3125
  9
$HANDSEED
  5
7AC
  9
$TILEMODE
 70
1
  9
$MEASUREMENT
 70
0
  9
$INSUNITS
 70
1
  0
ENDSEC
  0
SECTION
  2
CLASSES
  0
CLASS
  1
ACDBDICTIONARYWDFLT
  2
AcDbDictionaryWithDefault
  3
AutoCAD 2000
 90
0
 91
1
280
0
281
0
  0
CLASS
  1
ACDBPLACEHOLDER
  2
AcDbPlaceHolder
  3
AutoCAD 2000
 90
0
 91
1
280
0
281
0
  0
CLASS
  1
LAYOUT
  2
AcDbLayout
  3
AutoCAD 2000
 90
0
 91
0
280
0
281
0
  0
CLASS
  1
TABLESTYLE
  2
AcDbTableStyle
  3
ObjectDBX Classes
 90
2047
 91
1
280
0
281
0
  0
CLASS
  1
ACAD_TABLE
  2
AcDbTable
  3
ObjectDBX Classes
 90
1025
 91
1
280
0
281
1
  0
ENDSEC
  0
SECTION
  2
TABLES
  0
TABLE
  2
VPORT
  5
8
100
AcDbSymbolTable
 70
2
  0
VPORT
  5
1F4
100
AcDbSymbolTableRecord
100
AcDbViewportTableRecord
  2
*ACTIVE
 70
0
 10
0.0
 20
0.0
 11
1.0
 21
1.0
 12
17.0
 22
11.0
 13
0.0
 23
0.0
 14
1.0
 24
1.0
 15
0.0
 25
0.0
 16
0.0
 26
0.0
 36
1.0
 17
0.0
 27
0.0
 37
0.0
 40
22.0
 41
1.5454545455
 42
50.0
 43
0.0
 44
0.0
 50
0.0
 51
0.0
 71
0
 72
100
 73
1
 74
1
 75
0
 76
0
 77
0
 78
0
  0
ENDTAB
  0
TABLE
  2
LTYPE
  5
5
100
AcDbSymbolTable
 70
6
  0
LTYPE
  5
14
100
AcDbSymbolTableRecord
100
AcDbLinetypeTableRecord
  2
BYBLOCK
 70
0
  3

 72
65
 73
0
 40
0.0
  0
LTYPE
  5
15
100
AcDbSymbolTableRecord
100
AcDbLinetypeTableRecord
  2
BYLAYER
 70
0
  3

 72
65
 73
0
 40
0.0
  0
LTYPE
  5
16
100
AcDbSymbolTableRecord
100
AcDbLinetypeTableRecord
  2
CONTINUOUS
 70
64
  3
Solid line
 72
65
 73
0
 40
0.0
  0
LTYPE
  5
1F5
100
AcDbSymbolTableRecord
100
AcDbLinetypeTableRecord
  2
CENTER
 70
64
  3
____ _ ____ _ ____ _ ____ _ ____ _ ____ _ ____
 72
65
 73
4
 40
0.6
 49
0.375
 74
0
 49
-0.075
 74
0
 49
0.075
 74
0
 49
-0.075
 74
0
  0
LTYPE
  5
1F6
100
AcDbSymbolTableRecord
100
AcDbLinetypeTableRecord
  2
HIDDEN
 70
64
  3
- - - - - - - - - - - - - - - - - - - -
 72
65
 73
2
 40
0.2
 49
0.1
 74
0
 49
-0.1
 74
0
  0
LTYPE
  5
1F7
100
AcDbSymbolTableRecord
100
AcDbLinetypeTableRecord
  2
PHANTOM
 70
64
  3
_____ _ _ _____ _ _ _____ _ _ _____
 72
65
 73
6
 40
0.8
 49
0.45
 74
0
 49
-0.05
 74
0
 49
0.1
 74
0
 49
-0.05
 74
0
 49
0.1
 74
0
 49
-0.05
 74
0
  0
LTYPE
  5
1F8
100
AcDbSymbolTableRecord
100
AcDbLinetypeTableRecord
  2
DOT
 70
64
  3
. . . . . . . . . . . . . . . . . . . .
 72
65
 73
2
 40
0.2
 49
0.1
 74
0
 49
-0.1
 74
0
  0
LTYPE
  5
1F9
100
AcDbSymbolTableRecord
100
AcDbLinetypeTableRecord
  2
DASHED
 70
64
  3
- - - - - - - - - - - - - - - - - - - -
 72
65
 73
2
 40
0.2
 49
0.1
 74
0
 49
-0.1
 74
0
  0
ENDTAB
  0
TABLE
  2
LAYER
  5
2
100
AcDbSymbolTable
 70
36
  0
LAYER
  5
10
100
AcDbSymbolTableRecord
100
AcDbLayerTableRecord
  2
0
 70
0
 62
7
  6
CONTINUOUS
370
-3
390
F
  0
LAYER
  5
1FA
100
AcDbSymbolTableRecord
100
AcDbLayerTableRecord
  2
DEFAULT_1
 70
0
 62
7
  6
CENTER
370
-3
390
F
  0
LAYER
  5
1FB
100
AcDbSymbolTableRecord
100
AcDbLayerTableRecord
  2
DEFAULT_2
 70
0
 62
7
  6
HIDDEN
370
-3
390
F
  0
LAYER
  5
1FC
100
AcDbSymbolTableRecord
100
AcDbLayerTableRecord
  2
DEFAULT_3
 70
0
 62
7
  6
PHANTOM
370
-3
390
F
  0
LAYER
  5
1FD
100
AcDbSymbolTableRecord
100
AcDbLayerTableRecord
  2
01_ALL_DTM_PLN
 70
0
 62
7
  6
CONTINUOUS
370
-3
390
F
  0
LAYER
  5
1FE
100
AcDbSymbolTableRecord
100
AcDbLayerTableRecord
  2
01__ASM_ALL_DTM_PLN
 70
0
 62
7
  6
CONTINUOUS
370
-3
390
F
  0
LAYER
  5
1FF
100
AcDbSymbolTableRecord
100
AcDbLayerTableRecord
  2
01__ASM_DEF_DTM_PLN
 70
0
 62
7
  6
CONTINUOUS
370
-3
390
F
  0
LAYER
  5
200
100
AcDbSymbolTableRecord
100
AcDbLayerTableRecord
  2
01___PRT_ALL_DTM_PLN
 70
0
 62
7
  6
CONTINUOUS
370
-3
390
F
  0
LAYER
  5
201
100
AcDbSymbolTableRecord
100
AcDbLayerTableRecord
  2
01___PRT_DEF_DTM_PLN
 70
0
 62
7
  6
CONTINUOUS
370
-3
390
F
  0
LAYER
  5
202
100
AcDbSymbolTableRecord
100
AcDbLayerTableRecord
  2
02_ALL_AXES
 70
0
 62
7
  6
CONTINUOUS
370
-3
390
F
  0
LAYER
  5
203
100
AcDbSymbolTableRecord
100
AcDbLayerTableRecord
  2
02__ASM_ALL_AXES
 70
0
 62
7
  6
CONTINUOUS
370
-3
390
F
  0
LAYER
  5
204
100
AcDbSymbolTableRecord
100
AcDbLayerTableRecord
  2
02___PRT_ALL_AXES
 70
0
 62
7
  6
CONTINUOUS
370
-3
390
F
  0
LAYER
  5
205
100
AcDbSymbolTableRecord
100
AcDbLayerTableRecord
  2
03_ALL_CURVES
 70
0
 62
7
  6
CONTINUOUS
370
-3
390
F
  0
LAYER
  5
206
100
AcDbSymbolTableRecord
100
AcDbLayerTableRecord
  2
03__ASM_ALL_CURVES
 70
0
 62
7
  6
CONTINUOUS
370
-3
390
F
  0
LAYER
  5
207
100
AcDbSymbolTableRecord
100
AcDbLayerTableRecord
  2
03___PRT_ALL_CURVES
 70
0
 62
7
  6
CONTINUOUS
370
-3
390
F
  0
LAYER
  5
208
100
AcDbSymbolTableRecord
100
AcDbLayerTableRecord
  2
04_ALL_DTM_PNT
 70
0
 62
7
  6
CONTINUOUS
370
-3
390
F
  0
LAYER
  5
209
100
AcDbSymbolTableRecord
100
AcDbLayerTableRecord
  2
04__ASM_ALL_DTM_PNT
 70
0
 62
7
  6
CONTINUOUS
370
-3
390
F
  0
LAYER
  5
20A
100
AcDbSymbolTableRecord
100
AcDbLayerTableRecord
  2
04___PRT_ALL_DTM_PNT
 70
0
 62
7
  6
CONTINUOUS
370
-3
390
F
  0
LAYER
  5
20B
100
AcDbSymbolTableRecord
100
AcDbLayerTableRecord
  2
05_ALL_DTM_CSYS
 70
0
 62
7
  6
CONTINUOUS
370
-3
390
F
  0
LAYER
  5
20C
100
AcDbSymbolTableRecord
100
AcDbLayerTableRecord
  2
05__ASM_ALL_DTM_CSYS
 70
0
 62
7
  6
CONTINUOUS
370
-3
390
F
  0
LAYER
  5
20D
100
AcDbSymbolTableRecord
100
AcDbLayerTableRecord
  2
05__ASM_DEF_DTM_CSYS
 70
0
 62
7
  6
CONTINUOUS
370
-3
390
F
  0
LAYER
  5
20E
100
AcDbSymbolTableRecord
100
AcDbLayerTableRecord
  2
05___PRT_ALL_DTM_CSYS
 70
0
 62
7
  6
CONTINUOUS
370
-3
390
F
  0
LAYER
  5
20F
100
AcDbSymbolTableRecord
100
AcDbLayerTableRecord
  2
05___PRT_DEF_DTM_CSYS
 70
0
 62
7
  6
CONTINUOUS
370
-3
390
F
  0
LAYER
  5
210
100
AcDbSymbolTableRecord
100
AcDbLayerTableRecord
  2
06_ALL_SURFS
 70
0
 62
7
  6
CONTINUOUS
370
-3
390
F
  0
LAYER
  5
211
100
AcDbSymbolTableRecord
100
AcDbLayerTableRecord
  2
06__ASM_ALL_SURFS
 70
0
 62
7
  6
CONTINUOUS
370
-3
390
F
  0
LAYER
  5
212
100
AcDbSymbolTableRecord
100
AcDbLayerTableRecord
  2
06___PRT_ALL_SURFS
 70
0
 62
7
  6
CONTINUOUS
370
-3
390
F
  0
LAYER
  5
213
100
AcDbSymbolTableRecord
100
AcDbLayerTableRecord
  2
07__ASM_ALL_SKELETONS
 70
0
 62
7
  6
CONTINUOUS
370
-3
390
F
  0
LAYER
  5
214
100
AcDbSymbolTableRecord
100
AcDbLayerTableRecord
  2
AXIS
 70
0
 62
7
  6
CONTINUOUS
370
-3
390
F
  0
LAYER
  5
215
100
AcDbSymbolTableRecord
100
AcDbLayerTableRecord
  2
AXIS_COSMETIC_THREADS
 70
0
 62
7
  6
CONTINUOUS
370
-3
390
F
  0
LAYER
  5
216
100
AcDbSymbolTableRecord
100
AcDbLayerTableRecord
  2
COSMETIC_THREADS
 70
0
 62
7
  6
CONTINUOUS
370
-3
390
F
  0
LAYER
  5
217
100
AcDbSymbolTableRecord
100
AcDbLayerTableRecord
  2
CSY
 70
0
 62
7
  6
CONTINUOUS
370
-3
390
F
  0
LAYER
  5
218
100
AcDbSymbolTableRecord
100
AcDbLayerTableRecord
  2
CYS
 70
0
 62
7
  6
CONTINUOUS
370
-3
390
F
  0
LAYER
  5
219
100
AcDbSymbolTableRecord
100
AcDbLayerTableRecord
  2
DATUM
 70
0
 62
7
  6
CONTINUOUS
370
-3
390
F
  0
LAYER
  5
21A
100
AcDbSymbolTableRecord
100
AcDbLayerTableRecord
  2
DATUM_CURVES
 70
0
 62
7
  6
CONTINUOUS
370
-3
390
F
  0
LAYER
  5
21B
100
AcDbSymbolTableRecord
100
AcDbLayerTableRecord
  2
DATUM_PLANES
 70
0
 62
7
  6
CONTINUOUS
370
-3
390
F
  0
LAYER
  5
21C
100
AcDbSymbolTableRecord
100
AcDbLayerTableRecord
  2
DRIVEN_DIMS
 70
0
 62
7
  6
CONTINUOUS
370
-3
390
F
  0
LAYER
  5
21D
100
AcDbSymbolTableRecord
100
AcDbLayerTableRecord
  2
ECAD_0603
 70
0
 62
7
  6
CONTINUOUS
370
-3
390
F
  0
LAYER
  5
21E
100
AcDbSymbolTableRecord
100
AcDbLayerTableRecord
  2
ECAD_0805
 70
0
 62
7
  6
CONTINUOUS
370
-3
390
F
  0
LAYER
  5
21F
100
AcDbSymbolTableRecord
100
AcDbLayerTableRecord
  2
ECAD_0805C
 70
0
 62
7
  6
CONTINUOUS
370
-3
390
F
  0
LAYER
  5
220
100
AcDbSymbolTableRecord
100
AcDbLayerTableRecord
  2
ECAD_1206
 70
0
 62
7
  6
CONTINUOUS
370
-3
390
F
  0
LAYER
  5
221
100
AcDbSymbolTableRecord
100
AcDbLayerTableRecord
  2
ECAD_DPAK
 70
0
 62
7
  6
CONTINUOUS
370
-3
390
F
  0
LAYER
  5
222
100
AcDbSymbolTableRecord
100
AcDbLayerTableRecord
  2
ECAD_MINISMA
 70
0
 62
7
  6
CONTINUOUS
370
-3
390
F
  0
LAYER
  5
223
100
AcDbSymbolTableRecord
100
AcDbLayerTableRecord
  2
ECAD_P7040SQ
 70
0
 62
7
  6
CONTINUOUS
370
-3
390
F
  0
LAYER
  5
224
100
AcDbSymbolTableRecord
100
AcDbLayerTableRecord
  2
ECAD_SMLED8
 70
0
 62
7
  6
CONTINUOUS
370
-3
390
F
  0
LAYER
  5
225
100
AcDbSymbolTableRecord
100
AcDbLayerTableRecord
  2
ECAD_SO14
 70
0
 62
7
  6
CONTINUOUS
370
-3
390
F
  0
LAYER
  5
226
100
AcDbSymbolTableRecord
100
AcDbLayerTableRecord
  2
ECAD_SOT223
 70
0
 62
7
  6
CONTINUOUS
370
-3
390
F
  0
LAYER
  5
227
100
AcDbSymbolTableRecord
100
AcDbLayerTableRecord
  2
ECAD_SOT23
 70
0
 62
7
  6
CONTINUOUS
370
-3
390
F
  0
LAYER
  5
228
100
AcDbSymbolTableRecord
100
AcDbLayerTableRecord
  2
ECAD_TVS3
 70
0
 62
7
  6
CONTINUOUS
370
-3
390
F
  0
LAYER
  5
229
100
AcDbSymbolTableRecord
100
AcDbLayerTableRecord
  2
ECAD_WIRE24
 70
0
 62
7
  6
CONTINUOUS
370
-3
390
F
  0
LAYER
  5
22A
100
AcDbSymbolTableRecord
100
AcDbLayerTableRecord
  2
GEOMETRIC_TOLERANCES
 70
0
 62
7
  6
CONTINUOUS
370
-3
390
F
  0
LAYER
  5
22B
100
AcDbSymbolTableRecord
100
AcDbLayerTableRecord
  2
GEO_DIMS_OFF
 70
0
 62
7
  6
CONTINUOUS
370
-3
390
F
  0
LAYER
  5
22C
100
AcDbSymbolTableRecord
100
AcDbLayerTableRecord
  2
HIDDEN
 70
0
 62
7
  6
CONTINUOUS
370
-3
390
F
  0
LAYER
  5
22D
100
AcDbSymbolTableRecord
100
AcDbLayerTableRecord
  2
NOTES
 70
0
 62
7
  6
CONTINUOUS
370
-3
390
F
  0
LAYER
  5
22E
100
AcDbSymbolTableRecord
100
AcDbLayerTableRecord
  2
QUILTS
 70
0
 62
7
  6
CONTINUOUS
370
-3
390
F
  0
LAYER
  5
22F
100
AcDbSymbolTableRecord
100
AcDbLayerTableRecord
  2
SCHEME_DIMS
 70
0
 62
7
  6
CONTINUOUS
370
-3
390
F
  0
LAYER
  5
230
100
AcDbSymbolTableRecord
100
AcDbLayerTableRecord
  2
SYMBOLS
 70
0
 62
7
  6
CONTINUOUS
370
-3
390
F
  0
LAYER
  5
231
100
AcDbSymbolTableRecord
100
AcDbLayerTableRecord
  2
YELLOW
 70
0
 62
7
  6
CONTINUOUS
370
-3
390
F
  0
ENDTAB
  0
TABLE
  2
STYLE
  5
3
100
AcDbSymbolTable
 70
1
  0
STYLE
  5
11
100
AcDbSymbolTableRecord
100
AcDbTextStyleTableRecord
  2
STANDARD
 70
0
 40
0.0
 41
1.0
 50
0.0
 71
0
 42
0.2
  3
txt
  4

  0
STYLE
  5
232
100
AcDbSymbolTableRecord
100
AcDbTextStyleTableRecord
  2
TEXTSTYLE_1
 70
0
 40
0.0
 41
0.8
 50
0.0
 71
0
 42
0.2
  3
gdt
  4

  0
STYLE
  5
233
100
AcDbSymbolTableRecord
100
AcDbTextStyleTableRecord
  2
TEXTSTYLE_2
 70
0
 40
0.0
 41
0.8
 50
0.0
 71
0
 42
0.2
  3
txt
  4

  0
STYLE
  5
234
100
AcDbSymbolTableRecord
100
AcDbTextStyleTableRecord
  2
TEXTSTYLE_3
 70
0
 40
0.0
 41
0.9
 50
0.0
 71
0
 42
0.2
  3
txt
  4

  0
STYLE
  5
235
100
AcDbSymbolTableRecord
100
AcDbTextStyleTableRecord
  2
TEXTSTYLE_4
 70
0
 40
0.0
 41
0.85
 50
0.0
 71
0
 42
0.2
  3
txt
  4

  0
STYLE
  5
236
100
AcDbSymbolTableRecord
100
AcDbTextStyleTableRecord
  2
TEXTSTYLE_5
 70
0
 40
0.0
 41
0.75
 50
0.0
 71
0
 42
0.2
  3
txt
  4

  0
ENDTAB
  0
TABLE
  2
VIEW
  5
6
100
AcDbSymbolTable
 70
0
  0
ENDTAB
  0
TABLE
  2
UCS
  5
7
100
AcDbSymbolTable
 70
0
  0
ENDTAB
  0
TABLE
  2
APPID
  5
9
100
AcDbSymbolTable
 70
1
  0
APPID
  5
237
100
AcDbSymbolTableRecord
100
AcDbRegAppTableRecord
  2
ACAD
 70
0
  0
ENDTAB
  0
TABLE
  2
BLOCK_RECORD
  5
1
100
AcDbSymbolTable
 70
0
  0
BLOCK_RECORD
  5
238
100
AcDbSymbolTableRecord
100
AcDbBlockTableRecord
  2
*Model_Space
  0
BLOCK_RECORD
  5
239
100
AcDbSymbolTableRecord
100
AcDbBlockTableRecord
  2
*Paper_Space
  0
BLOCK_RECORD
  5
23A
100
AcDbSymbolTableRecord
100
AcDbBlockTableRecord
  2
_FILLED
  0
BLOCK_RECORD
  5
23B
100
AcDbSymbolTableRecord
100
AcDbBlockTableRecord
  2
*D0
  0
BLOCK_RECORD
  5
23C
100
AcDbSymbolTableRecord
100
AcDbBlockTableRecord
  2
*D1
  0
BLOCK_RECORD
  5
23D
100
AcDbSymbolTableRecord
100
AcDbBlockTableRecord
  2
*D2
  0
BLOCK_RECORD
  5
23E
100
AcDbSymbolTableRecord
100
AcDbBlockTableRecord
  2
*D3
  0
BLOCK_RECORD
  5
23F
100
AcDbSymbolTableRecord
100
AcDbBlockTableRecord
  2
*D4
  0
BLOCK_RECORD
  5
240
100
AcDbSymbolTableRecord
100
AcDbBlockTableRecord
  2
*D5
  0
BLOCK_RECORD
  5
241
100
AcDbSymbolTableRecord
100
AcDbBlockTableRecord
  2
*D6
  0
BLOCK_RECORD
  5
242
100
AcDbSymbolTableRecord
100
AcDbBlockTableRecord
  2
*D7
  0
BLOCK_RECORD
  5
243
100
AcDbSymbolTableRecord
100
AcDbBlockTableRecord
  2
*D8
  0
BLOCK_RECORD
  5
244
100
AcDbSymbolTableRecord
100
AcDbBlockTableRecord
  2
*D9
  0
BLOCK_RECORD
  5
245
100
AcDbSymbolTableRecord
100
AcDbBlockTableRecord
  2
*D10
  0
BLOCK_RECORD
  5
246
100
AcDbSymbolTableRecord
100
AcDbBlockTableRecord
  2
*D11
  0
BLOCK_RECORD
  5
247
100
AcDbSymbolTableRecord
100
AcDbBlockTableRecord
  2
*D12
  0
BLOCK_RECORD
  5
248
100
AcDbSymbolTableRecord
100
AcDbBlockTableRecord
  2
*D13
  0
BLOCK_RECORD
  5
249
100
AcDbSymbolTableRecord
100
AcDbBlockTableRecord
  2
*D14
  0
BLOCK_RECORD
  5
24A
100
AcDbSymbolTableRecord
100
AcDbBlockTableRecord
  2
*D15
  0
BLOCK_RECORD
  5
24B
100
AcDbSymbolTableRecord
100
AcDbBlockTableRecord
  2
*T1
  0
ENDTAB
  0
TABLE
  2
DIMSTYLE
  5
A
100
AcDbSymbolTable
 70
1
100
AcDbDimStyleTable
 71
0
  0
DIMSTYLE
105
24C
100
AcDbSymbolTableRecord
100
AcDbDimStyleTableRecord
  2
STANDARD
 70
0
  3

  4

 40
1.0
 41
0.1875
 42
0.0625
 43
0.38
 44
0.125
 45
0.0
 46
0.0
 47
0.005
 48
0.005
140
0.1
141
0.09
142
0.0
143
1.0
144
1.0
145
0.0
146
1.0
147
0.09
 71
1.0
 72
0.0
 73
1
 74
1
 75
0
 76
0
 77
0
 78
4
170
1
171
2
172
0
173
0
174
0
175
0
176
0
177
0
178
0
270
2
271
3
272
3
273
2
274
2
275
0
280
0
281
0
282
0
283
1
284
4
285
0
286
0
287
3
288
0
340
11
278
46
341
23A
342
23A
343
23A
344
23A
  0
DIMSTYLE
105
24D
100
AcDbSymbolTableRecord
100
AcDbDimStyleTableRecord
  2
DIMSTYLE_1
 70
0
  3

  4

 40
1.0
 41
0.1875
 42
0.0625
 43
0.38
 44
0.125
 45
0.0
 46
0.0
 47
0.005
 48
0.005
140
0.1
141
0.09
142
0.0
143
1.0
144
1.0
145
0.0
146
1.0
147
0.1
 71
0.0
 72
0.0
 73
1
 74
1
 75
0
 76
0
 77
0
 78
4
170
1
171
2
172
0
173
0
174
0
175
0
176
0
177
0
178
0
270
2
271
1
272
3
273
2
274
4
275
0
280
0
281
0
282
0
283
1
284
4
285
0
286
0
287
3
288
0
340
11
278
46
341
23A
342
23A
343
23A
344
23A
  0
ENDTAB
  0
ENDSEC
  0
SECTION
  2
BLOCKS
  0
BLOCK
  5
20
100
AcDbEntity
  8
0
100
AcDbBlockBegin
  2
*Model_Space
 70
0
 10
0.0
 20
0.0
 30
0.0
  3
*Model_Space
  1

  0
ENDBLK
  5
21
100
AcDbEntity
  8
0
100
AcDbBlockEnd
  0
BLOCK
  5
1C
100
AcDbEntity
  8
0
100
AcDbBlockBegin
  2
*Paper_Space
 70
0
 10
0.0
 20
0.0
 30
0.0
  3
*Paper_Space
  1

  0
ENDBLK
  5
1D
100
AcDbEntity
  8
0
100
AcDbBlockEnd
  0
BLOCK
  5
24E
100
AcDbEntity
  8
0
100
AcDbBlockBegin
  2
_FILLED
 70
64
 10
0.0
 20
0.0
  3
_FILLED
  1

  0
SOLID
  5
24F
100
AcDbEntity
  8
0
  6
BYBLOCK
 62
0
100
AcDbTrace
 10
0.0
 20
0.0
 11
-1.0
 21
0.1666666667
 12
-1.0
 22
-0.1666666667
 13
-1.0
 23
-0.1666666667
  0
ENDBLK
  5
250
100
AcDbEntity
  8
0
  6
BYBLOCK
 62
0
100
AcDbBlockEnd
  0
BLOCK
  5
251
100
AcDbEntity
  8
DRIVEN_DIMS
100
AcDbBlockBegin
 62
7
  6
CONTINUOUS
  2
*D0
 70
65
 10
0.0
 20
0.0
  3
*D0
  1

  0
MTEXT
  5
252
100
AcDbEntity
  8
DRIVEN_DIMS
100
AcDbMText
 62
7
  6
CONTINUOUS
  7
STANDARD
 71
2
 72
1
 10
17.235667447
 20
15.3727834833
 30
0.0
 11
1.0
 21
0.0
 31
0.0
 44
0.9
  1
109.3\P[4.30]
 40
0.1
 41
0.6
  0
LINE
  5
253
100
AcDbEntity
  8
DRIVEN_DIMS
100
AcDbLine
 62
7
  6
CONTINUOUS
 10
19.4657212051
 20
15.8434788902
 11
19.4657212051
 21
15.1977834833
  0
LINE
  5
254
100
AcDbEntity
  8
DRIVEN_DIMS
100
AcDbLine
 62
7
  6
CONTINUOUS
 10
15.1641464019
 20
15.8434790136
 11
15.1641464019
 21
15.1977834833
  0
LINE
  5
255
100
AcDbEntity
  8
DRIVEN_DIMS
100
AcDbLine
 62
7
  6
CONTINUOUS
 10
19.4657212051
 20
15.3227834833
 11
17.685667447
 21
15.3227834833
  0
LINE
  5
256
100
AcDbEntity
  8
DRIVEN_DIMS
100
AcDbLine
 62
7
  6
CONTINUOUS
 10
15.1641464019
 20
15.3227834833
 11
16.885667447
 21
15.3227834833
  0
INSERT
  5
257
100
AcDbEntity
  8
DRIVEN_DIMS
100
AcDbBlockReference
 62
7
  6
CONTINUOUS
  2
_FILLED
 10
19.4657212051
 20
15.3227834833
 41
0.1875
 42
0.1875
 43
0.1875
  0
INSERT
  5
258
100
AcDbEntity
  8
DRIVEN_DIMS
100
AcDbBlockReference
 62
7
  6
CONTINUOUS
  2
_FILLED
 10
15.1641464019
 20
15.3227834833
 41
0.1875
 42
0.1875
 43
0.1875
 50
180.0
  0
ENDBLK
  5
259
100
AcDbEntity
  8
0
  6
BYBLOCK
 62
0
100
AcDbBlockEnd
  0
BLOCK
  5
25A
100
AcDbEntity
  8
DRIVEN_DIMS
100
AcDbBlockBegin
 62
7
  6
CONTINUOUS
  2
*D1
 70
65
 10
0.0
 20
0.0
  3
*D1
  1

  0
MTEXT
  5
25B
100
AcDbEntity
  8
DRIVEN_DIMS
100
AcDbMText
 62
7
  6
CONTINUOUS
  7
STANDARD
 71
2
 72
1
 10
13.6372093056
 20
18.0593253469
 30
0.0
 11
1.0
 21
0.0
 31
0.0
 44
0.9
  1
109.9\P[4.32]
 40
0.1
 41
0.6
  0
LINE
  5
25C
100
AcDbEntity
  8
DRIVEN_DIMS
100
AcDbLine
 62
7
  6
CONTINUOUS
 10
15.1677881342
 20
20.1717269217
 11
13.5622093056
 21
20.1717269217
  0
LINE
  5
25D
100
AcDbEntity
  8
DRIVEN_DIMS
100
AcDbLine
 62
7
  6
CONTINUOUS
 10
15.1677881342
 20
15.8469237721
 11
13.5622093056
 21
15.8469237721
  0
LINE
  5
25E
100
AcDbEntity
  8
DRIVEN_DIMS
100
AcDbLine
 62
7
  6
CONTINUOUS
 10
13.6872093056
 20
20.1717269217
 11
13.6872093056
 21
18.1593253469
  0
LINE
  5
25F
100
AcDbEntity
  8
DRIVEN_DIMS
100
AcDbLine
 62
7
  6
CONTINUOUS
 10
13.6872093056
 20
15.8469237721
 11
13.6872093056
 21
17.7093253469
  0
INSERT
  5
260
100
AcDbEntity
  8
DRIVEN_DIMS
100
AcDbBlockReference
 62
7
  6
CONTINUOUS
  2
_FILLED
 10
13.6872093056
 20
20.1717269217
 41
0.1875
 42
0.1875
 43
0.1875
 50
90.0
  0
INSERT
  5
261
100
AcDbEntity
  8
DRIVEN_DIMS
100
AcDbBlockReference
 62
7
  6
CONTINUOUS
  2
_FILLED
 10
13.6872093056
 20
15.8469237721
 41
0.1875
 42
0.1875
 43
0.1875
 50
270.0
  0
ENDBLK
  5
262
100
AcDbEntity
  8
0
  6
BYBLOCK
 62
0
100
AcDbBlockEnd
  0
BLOCK
  5
263
100
AcDbEntity
  8
DRIVEN_DIMS
100
AcDbBlockBegin
 62
7
  6
CONTINUOUS
  2
*D2
 70
65
 10
0.0
 20
0.0
  3
*D2
  1

  0
MTEXT
  5
264
100
AcDbEntity
  8
DRIVEN_DIMS
100
AcDbMText
 62
7
  6
CONTINUOUS
  7
STANDARD
 71
2
 72
1
 10
20.1895977217
 20
19.5553391782
 30
0.0
 11
1.0
 21
0.0
 31
0.0
 44
0.9
  1
35.9\P[1.41]
 40
0.1
 41
0.6
  0
LINE
  5
265
100
AcDbEntity
  8
DRIVEN_DIMS
100
AcDbLine
 62
7
  6
CONTINUOUS
 10
17.5779259295
 20
18.7593253469
 11
20.4145977217
 21
18.7593253469
  0
LINE
  5
266
100
AcDbEntity
  8
DRIVEN_DIMS
100
AcDbLine
 62
7
  6
CONTINUOUS
 10
19.4620794728
 20
20.1717269217
 11
20.4145977217
 21
20.1717269217
  0
LINE
  5
267
100
AcDbEntity
  8
DRIVEN_DIMS
100
AcDbLine
 62
7
  6
CONTINUOUS
 10
20.2895977217
 20
18.7593253469
 11
20.2895977217
 21
19.2053391782
  0
LINE
  5
268
100
AcDbEntity
  8
DRIVEN_DIMS
100
AcDbLine
 62
7
  6
CONTINUOUS
 10
20.2895977217
 20
20.1717269217
 11
20.2895977217
 21
19.6553391782
  0
INSERT
  5
269
100
AcDbEntity
  8
DRIVEN_DIMS
100
AcDbBlockReference
 62
7
  6
CONTINUOUS
  2
_FILLED
 10
20.2895977217
 20
18.7593253469
 41
0.1875
 42
0.1875
 43
0.1875
 50
270.0
  0
INSERT
  5
26A
100
AcDbEntity
  8
DRIVEN_DIMS
100
AcDbBlockReference
 62
7
  6
CONTINUOUS
  2
_FILLED
 10
20.2895977217
 20
20.1717269217
 41
0.1875
 42
0.1875
 43
0.1875
 50
90.0
  0
ENDBLK
  5
26B
100
AcDbEntity
  8
0
  6
BYBLOCK
 62
0
100
AcDbBlockEnd
  0
BLOCK
  5
26C
100
AcDbEntity
  8
DRIVEN_DIMS
100
AcDbBlockBegin
 62
7
  6
CONTINUOUS
  2
*D3
 70
65
 10
0.0
 20
0.0
  3
*D3
  1

  0
MTEXT
  5
26D
100
AcDbEntity
  8
DRIVEN_DIMS
100
AcDbMText
 62
7
  6
CONTINUOUS
  7
STANDARD
 71
2
 72
1
 10
14.4112040684
 20
19.1405261343
 30
0.0
 11
1.0
 21
0.0
 31
0.0
 44
0.9
  1
54.9\P[2.16]
 40
0.1
 41
0.6
  0
LINE
  5
26E
100
AcDbEntity
  8
DRIVEN_DIMS
100
AcDbLine
 62
7
  6
CONTINUOUS
 10
17.0021062806
 20
18.0093253469
 11
14.3862040684
 21
18.0093253469
  0
LINE
  5
26F
100
AcDbEntity
  8
DRIVEN_DIMS
100
AcDbLine
 62
7
  6
CONTINUOUS
 10
15.0084993896
 20
20.1717269217
 11
14.3862040684
 21
20.1717269217
  0
LINE
  5
270
100
AcDbEntity
  8
DRIVEN_DIMS
100
AcDbLine
 62
7
  6
CONTINUOUS
 10
14.5112040684
 20
18.0093253469
 11
14.5112040684
 21
18.7905261343
  0
LINE
  5
271
100
AcDbEntity
  8
DRIVEN_DIMS
100
AcDbLine
 62
7
  6
CONTINUOUS
 10
14.5112040684
 20
20.1717269217
 11
14.5112040684
 21
19.2405261343
  0
INSERT
  5
272
100
AcDbEntity
  8
DRIVEN_DIMS
100
AcDbBlockReference
 62
7
  6
CONTINUOUS
  2
_FILLED
 10
14.5112040684
 20
18.0093253469
 41
0.1875
 42
0.1875
 43
0.1875
 50
270.0
  0
INSERT
  5
273
100
AcDbEntity
  8
DRIVEN_DIMS
100
AcDbBlockReference
 62
7
  6
CONTINUOUS
  2
_FILLED
 10
14.5112040684
 20
20.1717269217
 41
0.1875
 42
0.1875
 43
0.1875
 50
90.0
  0
ENDBLK
  5
274
100
AcDbEntity
  8
0
  6
BYBLOCK
 62
0
100
AcDbBlockEnd
  0
BLOCK
  5
275
100
AcDbEntity
  8
DRIVEN_DIMS
100
AcDbBlockBegin
 62
7
  6
CONTINUOUS
  2
*D4
 70
65
 10
0.0
 20
0.0
  3
*D4
  1

  0
MTEXT
  5
276
100
AcDbEntity
  8
DRIVEN_DIMS
100
AcDbMText
 62
7
  6
CONTINUOUS
  7
STANDARD
 71
2
 72
1
 10
20.1895977217
 20
18.0593253469
 30
0.0
 11
1.0
 21
0.0
 31
0.0
 44
0.9
  1
38.1\P[1.50]
 40
0.1
 41
0.6
  0
LINE
  5
277
100
AcDbEntity
  8
DRIVEN_DIMS
100
AcDbLine
 62
7
  6
CONTINUOUS
 10
17.5779259295
 20
18.7593253469
 11
20.4145977217
 21
18.7593253469
  0
LINE
  5
278
100
AcDbEntity
  8
DRIVEN_DIMS
100
AcDbLine
 62
7
  6
CONTINUOUS
 10
17.5779259295
 20
17.2593253469
 11
20.4145977217
 21
17.2593253469
  0
LINE
  5
279
100
AcDbEntity
  8
DRIVEN_DIMS
100
AcDbLine
 62
7
  6
CONTINUOUS
 10
20.2895977217
 20
18.7593253469
 11
20.2895977217
 21
18.1593253469
  0
LINE
  5
27A
100
AcDbEntity
  8
DRIVEN_DIMS
100
AcDbLine
 62
7
  6
CONTINUOUS
 10
20.2895977217
 20
17.2593253469
 11
20.2895977217
 21
17.7093253469
  0
INSERT
  5
27B
100
AcDbEntity
  8
DRIVEN_DIMS
100
AcDbBlockReference
 62
7
  6
CONTINUOUS
  2
_FILLED
 10
20.2895977217
 20
18.7593253469
 41
0.1875
 42
0.1875
 43
0.1875
 50
90.0
  0
INSERT
  5
27C
100
AcDbEntity
  8
DRIVEN_DIMS
100
AcDbBlockReference
 62
7
  6
CONTINUOUS
  2
_FILLED
 10
20.2895977217
 20
17.2593253469
 41
0.1875
 42
0.1875
 43
0.1875
 50
270.0
  0
ENDBLK
  5
27D
100
AcDbEntity
  8
0
  6
BYBLOCK
 62
0
100
AcDbBlockEnd
  0
BLOCK
  5
27E
100
AcDbEntity
  8
DRIVEN_DIMS
100
AcDbBlockBegin
 62
7
  6
CONTINUOUS
  2
*D5
 70
65
 10
0.0
 20
0.0
  3
*D5
  1

  0
MTEXT
  5
27F
100
AcDbEntity
  8
DRIVEN_DIMS
100
AcDbMText
 62
7
  6
CONTINUOUS
  7
STANDARD
 71
2
 72
1
 10
16.1395401027
 20
20.8445259211
 30
0.0
 11
1.0
 21
0.0
 31
0.0
 44
0.9
  1
54.6\P[2.15]
 40
0.1
 41
0.6
  0
LINE
  5
280
100
AcDbEntity
  8
DRIVEN_DIMS
100
AcDbLine
 62
7
  6
CONTINUOUS
 10
17.3149338035
 20
19.0223174729
 11
17.3149338035
 21
20.9195259211
  0
LINE
  5
281
100
AcDbEntity
  8
DRIVEN_DIMS
100
AcDbLine
 62
7
  6
CONTINUOUS
 10
15.1641464019
 20
20.1751716801
 11
15.1641464019
 21
20.9195259211
  0
LINE
  5
282
100
AcDbEntity
  8
DRIVEN_DIMS
100
AcDbLine
 62
7
  6
CONTINUOUS
 10
17.3149338035
 20
20.7945259211
 11
16.6395401027
 21
20.7945259211
  0
LINE
  5
283
100
AcDbEntity
  8
DRIVEN_DIMS
100
AcDbLine
 62
7
  6
CONTINUOUS
 10
15.1641464019
 20
20.7945259211
 11
15.8395401027
 21
20.7945259211
  0
INSERT
  5
284
100
AcDbEntity
  8
DRIVEN_DIMS
100
AcDbBlockReference
 62
7
  6
CONTINUOUS
  2
_FILLED
 10
17.3149338035
 20
20.7945259211
 41
0.1875
 42
0.1875
 43
0.1875
  0
INSERT
  5
285
100
AcDbEntity
  8
DRIVEN_DIMS
100
AcDbBlockReference
 62
7
  6
CONTINUOUS
  2
_FILLED
 10
15.1641464019
 20
20.7945259211
 41
0.1875
 42
0.1875
 43
0.1875
 50
180.0
  0
ENDBLK
  5
286
100
AcDbEntity
  8
0
  6
BYBLOCK
 62
0
100
AcDbBlockEnd
  0
BLOCK
  5
287
100
AcDbEntity
  8
DRIVEN_DIMS
100
AcDbBlockBegin
 62
7
  6
CONTINUOUS
  2
*D6
 70
65
 10
0.0
 20
0.0
  3
*D6
  1

  0
MTEXT
  5
288
100
AcDbEntity
  8
DRIVEN_DIMS
100
AcDbMText
 62
7
  6
CONTINUOUS
  7
STANDARD
 71
3
 72
1
 10
4.3239058963
 20
14.5821775147
 30
0.0
 11
1.0
 21
0.0
 31
0.0
 44
0.9
  1
5.5\P[.22]
 40
0.1
 41
0.5
  0
LINE
  5
289
100
AcDbEntity
  8
DRIVEN_DIMS
100
AcDbLine
 62
7
  6
CONTINUOUS
 10
5.9967305388
 20
14.0287300554
 11
4.6489058963
 21
14.0287300554
  0
LINE
  5
28A
100
AcDbEntity
  8
DRIVEN_DIMS
100
AcDbLine
 62
7
  6
CONTINUOUS
 10
7.6898407744
 20
13.8121946223
 11
4.6489058963
 21
13.8121946223
  0
LINE
  5
28B
100
AcDbEntity
  8
DRIVEN_DIMS
100
AcDbLine
 62
7
  6
CONTINUOUS
 10
4.7739058963
 20
14.0287300554
 11
4.7739058963
 21
14.5321775147
  0
LINE
  5
28C
100
AcDbEntity
  8
DRIVEN_DIMS
100
AcDbLine
 62
7
  6
CONTINUOUS
 10
4.7739058963
 20
14.5321775147
 11
4.6239058963
 21
14.5321775147
  0
LINE
  5
28D
100
AcDbEntity
  8
DRIVEN_DIMS
100
AcDbLine
 62
7
  6
CONTINUOUS
 10
4.7739058963
 20
13.8121946223
 11
4.7739058963
 21
13.4121946223
  0
INSERT
  5
28E
100
AcDbEntity
  8
DRIVEN_DIMS
100
AcDbBlockReference
 62
7
  6
CONTINUOUS
  2
_FILLED
 10
4.7739058963
 20
14.0287300554
 41
0.1875
 42
0.1875
 43
0.1875
 50
270.0
  0
INSERT
  5
28F
100
AcDbEntity
  8
DRIVEN_DIMS
100
AcDbBlockReference
 62
7
  6
CONTINUOUS
  2
_FILLED
 10
4.7739058963
 20
13.8121946223
 41
0.1875
 42
0.1875
 43
0.1875
 50
90.0
  0
ENDBLK
  5
290
100
AcDbEntity
  8
0
  6
BYBLOCK
 62
0
100
AcDbBlockEnd
  0
BLOCK
  5
291
100
AcDbEntity
  8
DRIVEN_DIMS
100
AcDbBlockBegin
 62
7
  6
CONTINUOUS
  2
*D7
 70
65
 10
0.0
 20
0.0
  3
*D7
  1

  0
MTEXT
  5
292
100
AcDbEntity
  8
DRIVEN_DIMS
100
AcDbMText
 62
7
  6
CONTINUOUS
  7
STANDARD
 71
2
 72
1
 10
4.7239058963
 20
11.1456591892
 30
0.0
 11
1.0
 21
0.0
 31
0.0
 44
0.9
  1
138.0\P[5.43]
 40
0.1
 41
0.6
  0
LINE
  5
293
100
AcDbEntity
  8
DRIVEN_DIMS
100
AcDbLine
 62
7
  6
CONTINUOUS
 10
7.6898407744
 20
13.8121946223
 11
4.6489058963
 21
13.8121946223
  0
LINE
  5
294
100
AcDbEntity
  8
DRIVEN_DIMS
100
AcDbLine
 62
7
  6
CONTINUOUS
 10
7.6898407744
 20
8.3791237562
 11
4.6489058963
 21
8.3791237562
  0
LINE
  5
295
100
AcDbEntity
  8
DRIVEN_DIMS
100
AcDbLine
 62
7
  6
CONTINUOUS
 10
4.7739058963
 20
13.8121946223
 11
4.7739058963
 21
11.2456591892
  0
LINE
  5
296
100
AcDbEntity
  8
DRIVEN_DIMS
100
AcDbLine
 62
7
  6
CONTINUOUS
 10
4.7739058963
 20
8.3791237562
 11
4.7739058963
 21
10.7956591892
  0
INSERT
  5
297
100
AcDbEntity
  8
DRIVEN_DIMS
100
AcDbBlockReference
 62
7
  6
CONTINUOUS
  2
_FILLED
 10
4.7739058963
 20
13.8121946223
 41
0.1875
 42
0.1875
 43
0.1875
 50
90.0
  0
INSERT
  5
298
100
AcDbEntity
  8
DRIVEN_DIMS
100
AcDbBlockReference
 62
7
  6
CONTINUOUS
  2
_FILLED
 10
4.7739058963
 20
8.3791237562
 41
0.1875
 42
0.1875
 43
0.1875
 50
270.0
  0
ENDBLK
  5
299
100
AcDbEntity
  8
0
  6
BYBLOCK
 62
0
100
AcDbBlockEnd
  0
BLOCK
  5
29A
100
AcDbEntity
  8
DRIVEN_DIMS
100
AcDbBlockBegin
 62
7
  6
CONTINUOUS
  2
*D8
 70
65
 10
0.0
 20
0.0
  3
*D8
  1

  0
MTEXT
  5
29B
100
AcDbEntity
  8
DRIVEN_DIMS
100
AcDbMText
 62
7
  6
CONTINUOUS
  7
STANDARD
 71
2
 72
1
 10
6.8423147599
 20
14.714955405
 30
0.0
 11
1.0
 21
0.0
 31
0.0
 44
0.9
  1
54.9\P[2.16]
 40
0.1
 41
0.6
  0
LINE
  5
29C
100
AcDbEntity
  8
DRIVEN_DIMS
100
AcDbLine
 62
7
  6
CONTINUOUS
 10
5.8230100657
 20
13.8550095829
 11
5.8230100657
 21
14.789955405
  0
LINE
  5
29D
100
AcDbEntity
  8
DRIVEN_DIMS
100
AcDbLine
 62
7
  6
CONTINUOUS
 10
7.9854116405
 20
14.1077654884
 11
7.9854116405
 21
14.789955405
  0
LINE
  5
29E
100
AcDbEntity
  8
DRIVEN_DIMS
100
AcDbLine
 62
7
  6
CONTINUOUS
 10
5.8230100657
 20
14.664955405
 11
6.5423147599
 21
14.664955405
  0
LINE
  5
29F
100
AcDbEntity
  8
DRIVEN_DIMS
100
AcDbLine
 62
7
  6
CONTINUOUS
 10
7.9854116405
 20
14.664955405
 11
7.3423147599
 21
14.664955405
  0
INSERT
  5
2A0
100
AcDbEntity
  8
DRIVEN_DIMS
100
AcDbBlockReference
 62
7
  6
CONTINUOUS
  2
_FILLED
 10
5.8230100657
 20
14.664955405
 41
0.1875
 42
0.1875
 43
0.1875
 50
180.0
  0
INSERT
  5
2A1
100
AcDbEntity
  8
DRIVEN_DIMS
100
AcDbBlockReference
 62
7
  6
CONTINUOUS
  2
_FILLED
 10
7.9854116405
 20
14.664955405
 41
0.1875
 42
0.1875
 43
0.1875
  0
ENDBLK
  5
2A2
100
AcDbEntity
  8
0
  6
BYBLOCK
 62
0
100
AcDbBlockEnd
  0
BLOCK
  5
2A3
100
AcDbEntity
  8
DRIVEN_DIMS
100
AcDbBlockBegin
 62
7
  6
CONTINUOUS
  2
*D9
 70
65
 10
0.0
 20
0.0
  3
*D9
  1

  0
MTEXT
  5
2A4
100
AcDbEntity
  8
DRIVEN_DIMS
100
AcDbMText
 62
7
  6
CONTINUOUS
  7
STANDARD
 71
2
 72
1
 10
17.2649338035
 20
14.7593224816
 30
0.0
 11
1.0
 21
0.0
 31
0.0
 44
0.9
  1
102.9\P[4.05]
 40
0.1
 41
0.6
  0
LINE
  5
2A5
100
AcDbEntity
  8
DRIVEN_DIMS
100
AcDbLine
 62
7
  6
CONTINUOUS
 10
15.2893432523
 20
13.647221494
 11
15.2893432523
 21
14.8343224816
  0
LINE
  5
2A6
100
AcDbEntity
  8
DRIVEN_DIMS
100
AcDbLine
 62
7
  6
CONTINUOUS
 10
19.3405243547
 20
13.6778442286
 11
19.3405243547
 21
14.8343224816
  0
LINE
  5
2A7
100
AcDbEntity
  8
DRIVEN_DIMS
100
AcDbLine
 62
7
  6
CONTINUOUS
 10
15.2893432523
 20
14.7093224816
 11
16.9149338035
 21
14.7093224816
  0
LINE
  5
2A8
100
AcDbEntity
  8
DRIVEN_DIMS
100
AcDbLine
 62
7
  6
CONTINUOUS
 10
19.3405243547
 20
14.7093224816
 11
17.7149338035
 21
14.7093224816
  0
INSERT
  5
2A9
100
AcDbEntity
  8
DRIVEN_DIMS
100
AcDbBlockReference
 62
7
  6
CONTINUOUS
  2
_FILLED
 10
15.2893432523
 20
14.7093224816
 41
0.1875
 42
0.1875
 43
0.1875
 50
180.0
  0
INSERT
  5
2AA
100
AcDbEntity
  8
DRIVEN_DIMS
100
AcDbBlockReference
 62
7
  6
CONTINUOUS
  2
_FILLED
 10
19.3405243547
 20
14.7093224816
 41
0.1875
 42
0.1875
 43
0.1875
  0
ENDBLK
  5
2AB
100
AcDbEntity
  8
0
  6
BYBLOCK
 62
0
100
AcDbBlockEnd
  0
BLOCK
  5
2AC
100
AcDbEntity
  8
DRIVEN_DIMS
100
AcDbBlockBegin
 62
7
  6
CONTINUOUS
  2
*D10
 70
65
 10
0.0
 20
0.0
  3
*D10
  1

  0
MTEXT
  5
2AD
100
AcDbEntity
  8
DRIVEN_DIMS
100
AcDbMText
 62
7
  6
CONTINUOUS
  7
STANDARD
 71
2
 72
1
 10
14.1192452085
 20
13.9580746894
 30
0.0
 11
1.0
 21
0.0
 31
0.0
 44
0.9
  1
10.5\P[.41]
 40
0.1
 41
0.5
  0
LINE
  5
2AE
100
AcDbEntity
  8
DRIVEN_DIMS
100
AcDbLine
 62
7
  6
CONTINUOUS
 10
15.1677881342
 20
14.0287300554
 11
14.0442452085
 21
14.0287300554
  0
LINE
  5
2AF
100
AcDbEntity
  8
DRIVEN_DIMS
100
AcDbLine
 62
7
  6
CONTINUOUS
 10
15.1677881342
 20
13.6153442286
 11
14.0442452085
 21
13.6153442286
  0
LINE
  5
2B0
100
AcDbEntity
  8
DRIVEN_DIMS
100
AcDbLine
 62
7
  6
CONTINUOUS
 10
14.1692452085
 20
14.0287300554
 11
14.1692452085
 21
14.4287300554
  0
LINE
  5
2B1
100
AcDbEntity
  8
DRIVEN_DIMS
100
AcDbLine
 62
7
  6
CONTINUOUS
 10
14.1692452085
 20
13.6153442286
 11
14.1692452085
 21
13.2153442286
  0
INSERT
  5
2B2
100
AcDbEntity
  8
DRIVEN_DIMS
100
AcDbBlockReference
 62
7
  6
CONTINUOUS
  2
_FILLED
 10
14.1692452085
 20
14.0287300554
 41
0.1875
 42
0.1875
 43
0.1875
 50
270.0
  0
INSERT
  5
2B3
100
AcDbEntity
  8
DRIVEN_DIMS
100
AcDbBlockReference
 62
7
  6
CONTINUOUS
  2
_FILLED
 10
14.1692452085
 20
13.6153442286
 41
0.1875
 42
0.1875
 43
0.1875
 50
90.0
  0
ENDBLK
  5
2B4
100
AcDbEntity
  8
0
  6
BYBLOCK
 62
0
100
AcDbBlockEnd
  0
BLOCK
  5
2B5
100
AcDbEntity
  8
DRIVEN_DIMS
100
AcDbBlockBegin
 62
7
  6
CONTINUOUS
  2
*D11
 70
65
 10
0.0
 20
0.0
  3
*D11
  1

  0
MTEXT
  5
2B6
100
AcDbEntity
  8
DRIVEN_DIMS
100
AcDbMText
 62
7
  6
CONTINUOUS
  7
STANDARD
 71
2
 72
1
 10
14.1192452085
 20
12.1085993762
 30
0.0
 11
1.0
 21
0.0
 31
0.0
 44
0.9
  1
100.0\P[3.94]
 40
0.1
 41
0.6
  0
LINE
  5
2B7
100
AcDbEntity
  8
DRIVEN_DIMS
100
AcDbLine
 62
7
  6
CONTINUOUS
 10
15.1677881342
 20
13.6153442286
 11
14.0442452085
 21
13.6153442286
  0
LINE
  5
2B8
100
AcDbEntity
  8
DRIVEN_DIMS
100
AcDbLine
 62
7
  6
CONTINUOUS
 10
15.1018432523
 20
9.6783363546
 11
14.0442452085
 21
9.6783363546
  0
LINE
  5
2B9
100
AcDbEntity
  8
DRIVEN_DIMS
100
AcDbLine
 62
7
  6
CONTINUOUS
 10
14.1692452085
 20
13.6153442286
 11
14.1692452085
 21
12.2085993762
  0
LINE
  5
2BA
100
AcDbEntity
  8
DRIVEN_DIMS
100
AcDbLine
 62
7
  6
CONTINUOUS
 10
14.1692452085
 20
9.6783363546
 11
14.1692452085
 21
11.7585993762
  0
INSERT
  5
2BB
100
AcDbEntity
  8
DRIVEN_DIMS
100
AcDbBlockReference
 62
7
  6
CONTINUOUS
  2
_FILLED
 10
14.1692452085
 20
13.6153442286
 41
0.1875
 42
0.1875
 43
0.1875
 50
90.0
  0
INSERT
  5
2BC
100
AcDbEntity
  8
DRIVEN_DIMS
100
AcDbBlockReference
 62
7
  6
CONTINUOUS
  2
_FILLED
 10
14.1692452085
 20
9.6783363546
 41
0.1875
 42
0.1875
 43
0.1875
 50
270.0
  0
ENDBLK
  5
2BD
100
AcDbEntity
  8
0
  6
BYBLOCK
 62
0
100
AcDbBlockEnd
  0
BLOCK
  5
2BE
100
AcDbEntity
  8
DRIVEN_DIMS
100
AcDbBlockBegin
 62
7
  6
CONTINUOUS
  2
*D12
 70
65
 10
0.0
 20
0.0
  3
*D12
  1

  0
MTEXT
  5
2BF
100
AcDbEntity
  8
DRIVEN_DIMS
100
AcDbMText
 62
7
  6
CONTINUOUS
  7
STANDARD
 71
2
 72
1
 10
20.4167914165
 20
11.0595477843
 30
0.0
 11
1.0
 21
0.0
 31
0.0
 44
0.9
  1
178.0\P[7.01]
 40
0.1
 41
0.6
  0
LINE
  5
2C0
100
AcDbEntity
  8
DRIVEN_DIMS
100
AcDbLine
 62
7
  6
CONTINUOUS
 10
19.4620794728
 20
14.0287300554
 11
20.5917914165
 21
14.0287300554
  0
LINE
  5
2C1
100
AcDbEntity
  8
DRIVEN_DIMS
100
AcDbLine
 62
7
  6
CONTINUOUS
 10
17.3774338035
 20
7.0208560396
 11
20.5917914165
 21
7.0208560396
  0
LINE
  5
2C2
100
AcDbEntity
  8
DRIVEN_DIMS
100
AcDbLine
 62
7
  6
CONTINUOUS
 10
20.4667914165
 20
14.0287300554
 11
20.4667914165
 21
11.1595477843
  0
LINE
  5
2C3
100
AcDbEntity
  8
DRIVEN_DIMS
100
AcDbLine
 62
7
  6
CONTINUOUS
 10
20.4667914165
 20
7.0208560396
 11
20.4667914165
 21
10.7095477843
  0
INSERT
  5
2C4
100
AcDbEntity
  8
DRIVEN_DIMS
100
AcDbBlockReference
 62
7
  6
CONTINUOUS
  2
_FILLED
 10
20.4667914165
 20
14.0287300554
 41
0.1875
 42
0.1875
 43
0.1875
 50
90.0
  0
INSERT
  5
2C5
100
AcDbEntity
  8
DRIVEN_DIMS
100
AcDbBlockReference
 62
7
  6
CONTINUOUS
  2
_FILLED
 10
20.4667914165
 20
7.0208560396
 41
0.1875
 42
0.1875
 43
0.1875
 50
270.0
  0
ENDBLK
  5
2C6
100
AcDbEntity
  8
0
  6
BYBLOCK
 62
0
100
AcDbBlockEnd
  0
BLOCK
  5
2C7
100
AcDbEntity
  8
DRIVEN_DIMS
100
AcDbBlockBegin
 62
7
  6
CONTINUOUS
  2
*D13
 70
65
 10
0.0
 20
0.0
  3
*D13
  1

  0
MTEXT
  5
2C8
100
AcDbEntity
  8
DRIVEN_DIMS
100
AcDbMText
 62
7
  6
CONTINUOUS
  7
STANDARD
 71
2
 72
1
 10
23.0034670951
 20
11.7045437658
 30
0.0
 11
1.0
 21
0.0
 31
0.0
 44
0.9
  1
190.3\P[7.49]
 40
0.1
 41
0.6
  0
LINE
  5
2C9
100
AcDbEntity
  8
DRIVEN_DIMS
100
AcDbLine
 62
7
  6
CONTINUOUS
 10
24.4754285076
 20
6.5352654884
 11
22.9284670951
 21
6.5352654884
  0
LINE
  5
2CA
100
AcDbEntity
  8
DRIVEN_DIMS
100
AcDbLine
 62
7
  6
CONTINUOUS
 10
24.233536932
 20
14.0287300554
 11
22.9284670951
 21
14.0287300554
  0
LINE
  5
2CB
100
AcDbEntity
  8
DRIVEN_DIMS
100
AcDbLine
 62
7
  6
CONTINUOUS
 10
23.0534670951
 20
6.5352654884
 11
23.0534670951
 21
11.3545437658
  0
LINE
  5
2CC
100
AcDbEntity
  8
DRIVEN_DIMS
100
AcDbLine
 62
7
  6
CONTINUOUS
 10
23.0534670951
 20
14.0287300554
 11
23.0534670951
 21
11.8045437658
  0
INSERT
  5
2CD
100
AcDbEntity
  8
DRIVEN_DIMS
100
AcDbBlockReference
 62
7
  6
CONTINUOUS
  2
_FILLED
 10
23.0534670951
 20
6.5352654884
 41
0.1875
 42
0.1875
 43
0.1875
 50
270.0
  0
INSERT
  5
2CE
100
AcDbEntity
  8
DRIVEN_DIMS
100
AcDbBlockReference
 62
7
  6
CONTINUOUS
  2
_FILLED
 10
23.0534670951
 20
14.0287300554
 41
0.1875
 42
0.1875
 43
0.1875
 50
90.0
  0
ENDBLK
  5
2CF
100
AcDbEntity
  8
0
  6
BYBLOCK
 62
0
100
AcDbBlockEnd
  0
BLOCK
  5
2D0
100
AcDbEntity
  8
DRIVEN_DIMS
100
AcDbBlockBegin
 62
7
  6
CONTINUOUS
  2
*D14
 70
65
 10
0.0
 20
0.0
  3
*D14
  1

  0
MTEXT
  5
2D1
100
AcDbEntity
  8
DRIVEN_DIMS
100
AcDbMText
 62
7
  6
CONTINUOUS
  7
STANDARD
 71
2
 72
1
 10
19.1266464019
 20
6.2270689786
 30
0.0
 11
1.0
 21
0.0
 31
0.0
 44
0.9
  1
14.7\P[.58]
 40
0.1
 41
0.5
  0
LINE
  5
2D2
100
AcDbEntity
  8
DRIVEN_DIMS
100
AcDbLine
 62
7
  6
CONTINUOUS
 10
18.8877684492
 20
5.2705482485
 11
18.8877684492
 21
6.3020689786
  0
LINE
  5
2D3
100
AcDbEntity
  8
DRIVEN_DIMS
100
AcDbLine
 62
7
  6
CONTINUOUS
 10
19.4655243547
 20
5.5910206895
 11
19.4655243547
 21
6.3020689786
  0
LINE
  5
2D4
100
AcDbEntity
  8
DRIVEN_DIMS
100
AcDbLine
 62
7
  6
CONTINUOUS
 10
18.8877684492
 20
6.1770689786
 11
18.4877684492
 21
6.1770689786
  0
LINE
  5
2D5
100
AcDbEntity
  8
DRIVEN_DIMS
100
AcDbLine
 62
7
  6
CONTINUOUS
 10
19.4655243547
 20
6.1770689786
 11
19.8655243547
 21
6.1770689786
  0
INSERT
  5
2D6
100
AcDbEntity
  8
DRIVEN_DIMS
100
AcDbBlockReference
 62
7
  6
CONTINUOUS
  2
_FILLED
 10
18.8877684492
 20
6.1770689786
 41
0.1875
 42
0.1875
 43
0.1875
  0
INSERT
  5
2D7
100
AcDbEntity
  8
DRIVEN_DIMS
100
AcDbBlockReference
 62
7
  6
CONTINUOUS
  2
_FILLED
 10
19.4655243547
 20
6.1770689786
 41
0.1875
 42
0.1875
 43
0.1875
 50
180.0
  0
ENDBLK
  5
2D8
100
AcDbEntity
  8
0
  6
BYBLOCK
 62
0
100
AcDbBlockEnd
  0
BLOCK
  5
2D9
100
AcDbEntity
  8
DRIVEN_DIMS
100
AcDbBlockBegin
 62
7
  6
CONTINUOUS
  2
*D15
 70
65
 10
0.0
 20
0.0
  3
*D15
  1

  0
MTEXT
  5
2DA
100
AcDbEntity
  8
DRIVEN_DIMS
100
AcDbMText
 62
7
  6
CONTINUOUS
  7
STANDARD
 71
2
 72
1
 10
20.0016295434
 20
5.2895443115
 30
0.0
 11
1.0
 21
0.0
 31
0.0
 44
0.9
  1
17.7\P[.70]
 40
0.1
 41
0.5
  0
LINE
  5
2DB
100
AcDbEntity
  8
DRIVEN_DIMS
100
AcDbLine
 62
7
  6
CONTINUOUS
 10
19.2668038822
 20
4.8915128155
 11
20.1766295434
 21
4.8915128155
  0
LINE
  5
2DC
100
AcDbEntity
  8
DRIVEN_DIMS
100
AcDbLine
 62
7
  6
CONTINUOUS
 10
19.3994810476
 20
5.5875758076
 11
20.1766295434
 21
5.5875758076
  0
LINE
  5
2DD
100
AcDbEntity
  8
DRIVEN_DIMS
100
AcDbLine
 62
7
  6
CONTINUOUS
 10
20.0516295434
 20
4.8915128155
 11
20.0516295434
 21
4.4915128155
  0
LINE
  5
2DE
100
AcDbEntity
  8
DRIVEN_DIMS
100
AcDbLine
 62
7
  6
CONTINUOUS
 10
20.0516295434
 20
5.5875758076
 11
20.0516295434
 21
5.9875758076
  0
INSERT
  5
2DF
100
AcDbEntity
  8
DRIVEN_DIMS
100
AcDbBlockReference
 62
7
  6
CONTINUOUS
  2
_FILLED
 10
20.0516295434
 20
4.8915128155
 41
0.1875
 42
0.1875
 43
0.1875
 50
90.0
  0
INSERT
  5
2E0
100
AcDbEntity
  8
DRIVEN_DIMS
100
AcDbBlockReference
 62
7
  6
CONTINUOUS
  2
_FILLED
 10
20.0516295434
 20
5.5875758076
 41
0.1875
 42
0.1875
 43
0.1875
 50
270.0
  0
ENDBLK
  5
2E1
100
AcDbEntity
  8
0
  6
BYBLOCK
 62
0
100
AcDbBlockEnd
  0
BLOCK
  5
2E2
100
AcDbEntity
  8
0
100
AcDbBlockBegin
  2
*T1
 70
1
 10
0.0
 20
0.0
  3
*T1
  1

  0
LINE
  5
2E3
100
AcDbEntity
  8
0
100
AcDbLine
 62
7
  6
CONTINUOUS
 10
4.35
 20
0.0
 11
-0.0
 21
0.0
  0
LINE
  5
2E4
100
AcDbEntity
  8
0
100
AcDbLine
 62
7
  6
CONTINUOUS
 10
4.35
 20
0.0
 11
4.35
 21
1.92
  0
LINE
  5
2E5
100
AcDbEntity
  8
0
100
AcDbLine
 62
7
  6
CONTINUOUS
 10
4.35
 20
1.92
 11
-0.0
 21
1.92
  0
LINE
  5
2E6
100
AcDbEntity
  8
0
100
AcDbLine
 62
7
  6
CONTINUOUS
 10
-0.0
 20
0.0
 11
-0.0
 21
1.92
  0
MTEXT
  5
2E7
100
AcDbEntity
  8
NOTES
100
AcDbMText
 62
7
  6
CONTINUOUS
  7
STANDARD
 71
2
 72
1
 10
4.125
 20
0.48
 30
0.0
 11
1.0
 21
0.0
 31
0.0
 44
0.9
  1
A
 40
0.1
 41
0.2
  0
MTEXT
  5
2E8
100
AcDbEntity
  8
NOTES
100
AcDbMText
 62
7
  6
CONTINUOUS
  7
STANDARD
 71
2
 72
1
 10
2.175
 20
1.08
 30
0.0
 11
1.0
 21
0.0
 31
0.0
 44
0.9
  1
LED_O100M\P 
 40
0.1
 41
1.8
  0
ENDBLK
  5
2E9
100
AcDbEntity
  8
0
  6
BYBLOCK
 62
0
100
AcDbBlockEnd
  0
ENDSEC
  0
SECTION
  2
ENTITIES
  0
MTEXT
  5
2EA
100
AcDbEntity
  8
0
100
AcDbMText
 62
7
  6
CONTINUOUS
  7
TEXTSTYLE_2
 71
2
 72
1
 10
28.0199216922
 20
1.6190619563
 30
0.0
 11
1.0
 21
0.0
 31
0.0
 44
0.9
  1
THIRD ANGLE PROJECTION
 40
0.1
 41
1.76
  0
MTEXT
  5
2EB
100
AcDbEntity
  8
0
100
AcDbMText
 62
7
  6
CONTINUOUS
  7
STANDARD
 71
1
 72
1
 10
29.8524539446
 20
1.273495704
 30
0.0
 11
1.0
 21
0.0
 31
0.0
 44
0.9
  1
DRAWING NO.
 40
0.08
 41
0.88
  0
MTEXT
  5
2EC
100
AcDbEntity
  8
0
100
AcDbMText
 62
7
  6
CONTINUOUS
  7
TEXTSTYLE_2
 71
1
 72
1
 10
29.0524539446
 20
2.033495704
 30
0.0
 11
1.0
 21
0.0
 31
0.0
 44
0.9
  1
TITLE
 40
0.1
 41
0.4
  0
MTEXT
  5
2ED
100
AcDbEntity
  8
0
100
AcDbMText
 62
7
  6
CONTINUOUS
  7
STANDARD
 71
1
 72
1
 10
29.0524539446
 20
1.273495704
 30
0.0
 11
1.0
 21
0.0
 31
0.0
 44
0.9
  1
SIZE
 40
0.08
 41
0.32
  0
MTEXT
  5
2EE
100
AcDbEntity
  8
0
100
AcDbMText
 62
7
  6
CONTINUOUS
  7
STANDARD
 71
1
 72
1
 10
29.0524539446
 20
0.903495704
 30
0.0
 11
1.0
 21
0.0
 31
0.0
 44
0.9
  1
SCALE
 40
0.08
 41
0.4
  0
MTEXT
  5
2EF
100
AcDbEntity
  8
0
100
AcDbMText
 62
7
  6
CONTINUOUS
  7
TEXTSTYLE_2
 71
2
 72
1
 10
29.4724539446
 20
1.153495704
 30
0.0
 11
1.0
 21
0.0
 31
0.0
 44
0.9
  1
D
 40
0.1
 41
0.08
  0
MTEXT
  5
2F0
100
AcDbEntity
  8
0
100
AcDbMText
 62
7
  6
CONTINUOUS
  7
STANDARD
 71
1
 72
1
 10
31.2274539446
 20
0.903495704
 30
0.0
 11
1.0
 21
0.0
 31
0.0
 44
0.9
  1
SHEET
 40
0.08
 41
0.4
  0
MTEXT
  5
2F1
100
AcDbEntity
  8
0
100
AcDbMText
 62
7
  6
CONTINUOUS
  7
STANDARD
 71
1
 72
1
 10
32.6024539446
 20
1.273495704
 30
0.0
 11
1.0
 21
0.0
 31
0.0
 44
0.9
  1
REV.
 40
0.08
 41
0.32
  0
MTEXT
  5
2F2
100
AcDbEntity
  8
0
100
AcDbMText
 62
7
  6
CONTINUOUS
  7
STANDARD
 71
3
 72
1
 10
33.3524539446
 20
0.651938704
 30
0.0
 11
1.0
 21
0.0
 31
0.0
 44
0.9
  1
CREO
 40
0.07
 41
0.28
  0
MTEXT
  5
2F3
100
AcDbEntity
  8
0
100
AcDbMText
 62
7
  6
CONTINUOUS
  7
TEXTSTYLE_2
 71
2
 72
1
 10
19.0799181027
 20
21.5283228612
 30
0.0
 11
1.0
 21
0.0
 31
0.0
 44
0.9
  1
4
 40
0.1
 41
0.08
  0
MTEXT
  5
2F4
100
AcDbEntity
  8
0
100
AcDbMText
 62
7
  6
CONTINUOUS
  7
TEXTSTYLE_2
 71
2
 72
1
 10
19.0880840042
 20
0.6094254072
 30
0.0
 11
1.0
 21
0.0
 31
0.0
 44
0.9
  1
4
 40
0.1
 41
0.08
  0
MTEXT
  5
2F5
100
AcDbEntity
  8
0
100
AcDbMText
 62
7
  6
CONTINUOUS
  7
TEXTSTYLE_2
 71
3
 72
1
 10
0.6480386617
 20
8.5035017283
 30
0.0
 11
1.0
 21
0.0
 31
0.0
 44
0.9
  1
B
 40
0.1
 41
0.08
  0
MTEXT
  5
2F6
100
AcDbEntity
  8
0
100
AcDbMText
 62
7
  6
CONTINUOUS
  7
TEXTSTYLE_2
 71
1
 72
1
 10
33.4429590822
 20
8.5003665936
 30
0.0
 11
1.0
 21
0.0
 31
0.0
 44
0.9
  1
B
 40
0.1
 41
0.08
  0
MTEXT
  5
2F7
100
AcDbEntity
  8
0
100
AcDbMText
 62
7
  6
CONTINUOUS
  7
TEXTSTYLE_2
 71
3
 72
1
 10
0.6595840023
 20
3.3488782467
 30
0.0
 11
1.0
 21
0.0
 31
0.0
 44
0.9
  1
A
 40
0.1
 41
0.08
  0
MTEXT
  5
2F8
100
AcDbEntity
  8
0
100
AcDbMText
 62
7
  6
CONTINUOUS
  7
TEXTSTYLE_2
 71
1
 72
1
 10
33.4700184742
 20
3.315436593
 30
0.0
 11
1.0
 21
0.0
 31
0.0
 44
0.9
  1
A
 40
0.1
 41
0.08
  0
MTEXT
  5
2F9
100
AcDbEntity
  8
0
100
AcDbMText
 62
7
  6
CONTINUOUS
  7
TEXTSTYLE_2
 71
3
 72
1
 10
0.6364933212
 20
18.8127486917
 30
0.0
 11
1.0
 21
0.0
 31
0.0
 44
0.9
  1
D
 40
0.1
 41
0.08
  0
MTEXT
  5
2FA
100
AcDbEntity
  8
0
100
AcDbMText
 62
7
  6
CONTINUOUS
  7
TEXTSTYLE_2
 71
1
 72
1
 10
33.4736263931
 20
18.8106959326
 30
0.0
 11
1.0
 21
0.0
 31
0.0
 44
0.9
  1
D
 40
0.1
 41
0.08
  0
MTEXT
  5
2FB
100
AcDbEntity
  8
0
100
AcDbMText
 62
7
  6
CONTINUOUS
  7
TEXTSTYLE_2
 71
3
 72
1
 10
0.6191753104
 20
13.6638978803
 30
0.0
 11
1.0
 21
0.0
 31
0.0
 44
0.9
  1
C
 40
0.1
 41
0.08
  0
MTEXT
  5
2FC
100
AcDbEntity
  8
0
100
AcDbMText
 62
7
  6
CONTINUOUS
  7
TEXTSTYLE_2
 71
1
 72
1
 10
33.453782839
 20
13.6528253239
 30
0.0
 11
1.0
 21
0.0
 31
0.0
 44
0.9
  1
C
 40
0.1
 41
0.08
  0
MTEXT
  5
2FD
100
AcDbEntity
  8
0
100
AcDbMText
 62
7
  6
CONTINUOUS
  7
TEXTSTYLE_2
 71
2
 72
1
 10
23.1665713531
 20
0.6088852669
 30
0.0
 11
1.0
 21
0.0
 31
0.0
 44
0.9
  1
3
 40
0.1
 41
0.08
  0
MTEXT
  5
2FE
100
AcDbEntity
  8
0
100
AcDbMText
 62
7
  6
CONTINUOUS
  7
TEXTSTYLE_2
 71
2
 72
1
 10
23.1589893446
 20
21.5290464197
 30
0.0
 11
1.0
 21
0.0
 31
0.0
 44
0.9
  1
3
 40
0.1
 41
0.08
  0
MTEXT
  5
2FF
100
AcDbEntity
  8
0
100
AcDbMText
 62
7
  6
CONTINUOUS
  7
TEXTSTYLE_2
 71
2
 72
1
 10
27.2361235997
 20
21.5290464197
 30
0.0
 11
1.0
 21
0.0
 31
0.0
 44
0.9
  1
2
 40
0.1
 41
0.08
  0
MTEXT
  5
300
100
AcDbEntity
  8
0
100
AcDbMText
 62
7
  6
CONTINUOUS
  7
TEXTSTYLE_2
 71
2
 72
1
 10
27.2374923476
 20
0.6094254072
 30
0.0
 11
1.0
 21
0.0
 31
0.0
 44
0.9
  1
2
 40
0.1
 41
0.08
  0
MTEXT
  5
301
100
AcDbEntity
  8
0
100
AcDbMText
 62
7
  6
CONTINUOUS
  7
TEXTSTYLE_2
 71
2
 72
1
 10
31.3205521496
 20
0.6089620551
 30
0.0
 11
1.0
 21
0.0
 31
0.0
 44
0.9
  1
1
 40
0.1
 41
0.08
  0
MTEXT
  5
302
100
AcDbEntity
  8
0
100
AcDbMText
 62
7
  6
CONTINUOUS
  7
TEXTSTYLE_2
 71
2
 72
1
 10
31.3123769947
 20
21.5290464197
 30
0.0
 11
1.0
 21
0.0
 31
0.0
 44
0.9
  1
1
 40
0.1
 41
0.08
  0
MTEXT
  5
303
100
AcDbEntity
  8
0
100
AcDbMText
 62
7
  6
CONTINUOUS
  7
TEXTSTYLE_2
 71
2
 72
1
 10
2.7773437197
 20
0.6087916636
 30
0.0
 11
1.0
 21
0.0
 31
0.0
 44
0.9
  1
8
 40
0.1
 41
0.08
  0
MTEXT
  5
304
100
AcDbEntity
  8
0
100
AcDbMText
 62
7
  6
CONTINUOUS
  7
TEXTSTYLE_2
 71
2
 72
1
 10
6.8552201462
 20
0.60942077
 30
0.0
 11
1.0
 21
0.0
 31
0.0
 44
0.9
  1
7
 40
0.1
 41
0.08
  0
MTEXT
  5
305
100
AcDbEntity
  8
0
100
AcDbMText
 62
7
  6
CONTINUOUS
  7
TEXTSTYLE_2
 71
2
 72
1
 10
10.9328507889
 20
0.6085710197
 30
0.0
 11
1.0
 21
0.0
 31
0.0
 44
0.9
  1
6
 40
0.1
 41
0.08
  0
MTEXT
  5
306
100
AcDbEntity
  8
0
100
AcDbMText
 62
7
  6
CONTINUOUS
  7
TEXTSTYLE_2
 71
2
 72
1
 10
15.0081998089
 20
0.6094254072
 30
0.0
 11
1.0
 21
0.0
 31
0.0
 44
0.9
  1
5
 40
0.1
 41
0.08
  0
MTEXT
  5
307
100
AcDbEntity
  8
0
100
AcDbMText
 62
7
  6
CONTINUOUS
  7
TEXTSTYLE_2
 71
2
 72
1
 10
15.0005223841
 20
21.5287831767
 30
0.0
 11
1.0
 21
0.0
 31
0.0
 44
0.9
  1
5
 40
0.1
 41
0.08
  0
MTEXT
  5
308
100
AcDbEntity
  8
0
100
AcDbMText
 62
7
  6
CONTINUOUS
  7
TEXTSTYLE_2
 71
2
 72
1
 10
10.9235957613
 20
21.5293152857
 30
0.0
 11
1.0
 21
0.0
 31
0.0
 44
0.9
  1
6
 40
0.1
 41
0.08
  0
MTEXT
  5
309
100
AcDbEntity
  8
0
100
AcDbMText
 62
7
  6
CONTINUOUS
  7
TEXTSTYLE_2
 71
2
 72
1
 10
6.8472012476
 20
21.5293152857
 30
0.0
 11
1.0
 21
0.0
 31
0.0
 44
0.9
  1
7
 40
0.1
 41
0.08
  0
MTEXT
  5
30A
100
AcDbEntity
  8
0
100
AcDbMText
 62
7
  6
CONTINUOUS
  7
TEXTSTYLE_2
 71
2
 72
1
 10
2.7707198944
 20
21.5289567604
 30
0.0
 11
1.0
 21
0.0
 31
0.0
 44
0.9
  1
8
 40
0.1
 41
0.08
  0
MTEXT
  5
30B
100
AcDbEntity
  8
0
100
AcDbMText
 62
7
  6
CONTINUOUS
  7
STANDARD
 71
1
 72
1
 10
29.5773663078
 20
0.8719064971
 30
0.0
 11
1.0
 21
0.0
 31
0.0
 44
0.9
  1
1:1
 40
0.1
 41
0.3
  0
MTEXT
  5
30C
100
AcDbEntity
  8
0
100
AcDbMText
 62
7
  6
CONTINUOUS
  7
STANDARD
 71
1
 72
1
 10
31.7523663078
 20
0.8719064971
 30
0.0
 11
1.0
 21
0.0
 31
0.0
 44
0.9
  1
1 OF 1
 40
0.1
 41
0.6
  0
MTEXT
  5
30D
100
AcDbEntity
  8
0
100
AcDbMText
 62
7
  6
CONTINUOUS
  7
STANDARD
 71
1
 72
1
 10
30.7305616821
 20
1.1832781328
 30
0.0
 11
1.0
 21
0.0
 31
0.0
 44
0.9
  1
148997
 40
0.12
 41
0.72
  0
MTEXT
  5
30E
100
AcDbEntity
  8
0
100
AcDbMText
 62
7
  6
CONTINUOUS
  7
STANDARD
 71
1
 72
1
 10
1.0462021158
 20
1.4062672766
 30
0.0
 11
1.0
 21
0.0
 31
0.0
 44
0.9
  1
NOTES:\P1. ALL DIMENSIONS ARE MILLIMETERS [INCHES] UNLESS OTHERWISE NOTED.\P2. REFER TO "www.bannerengineering.com" FOR ADDITIONAL DATA AND SPECIFICATIONS.
 40
0.1
 41
7.9
  0
MTEXT
  5
30F
100
AcDbEntity
  8
0
100
AcDbMText
 62
7
  6
CONTINUOUS
  7
TEXTSTYLE_3
 71
2
 72
1
 10
32.082830104
 20
2.4898011248
 30
0.0
 11
1.0
 21
0.0
 31
0.0
 44
0.9
  1
BANNER ENGINEERING CORP.
 40
0.12
 41
2.592
  0
MTEXT
  5
310
100
AcDbEntity
  8
0
100
AcDbMText
 62
7
  6
CONTINUOUS
  7
TEXTSTYLE_2
 71
2
 72
1
 10
32.0561063372
 20
2.2733590015
 30
0.0
 11
1.0
 21
0.0
 31
0.0
 44
0.9
  1
www.bannerengineering.com
 40
0.1
 41
2.0
  0
MTEXT
  5
311
100
AcDbEntity
  8
0
100
AcDbMText
 62
7
  6
CONTINUOUS
  7
TEXTSTYLE_4
 71
2
 72
1
 10
28.0052134113
 20
2.5785938067
 30
0.0
 11
1.0
 21
0.0
 31
0.0
 44
0.9
  1
This drawing is the property\Pof BANNER ENGINEERING CORP.\PAny use or reproduction,\Pin any form, without prior\Pwritten permission of\PBanner is prohibited.
 40
0.08
 41
1.904
  0
MTEXT
  5
312
100
AcDbEntity
  8
0
100
AcDbMText
 62
7
  6
CONTINUOUS
  7
TEXTSTYLE_5
 71
2
 72
1
 10
28.023149892
 20
1.8440536882
 30
0.0
 11
1.0
 21
0.0
 31
0.0
 44
0.9
  1
C  2015 Banner Engineering Corp.
 40
0.08
 41
1.92
  0
DIMENSION
  5
313
100
AcDbEntity
  8
DRIVEN_DIMS
100
AcDbDimension
 62
7
  6
CONTINUOUS
  2
*D0
 10
15.1641464019
 20
15.3227834833
 11
17.285667447
 21
15.2477834833
 70
160
 71
2
 42
109.26
  1
<>\P[]
  3
DIMSTYLE_1
100
AcDbAlignedDimension
 13
19.4657212051
 23
15.9059788902
 14
15.1641464019
 24
15.9059790136
 50
180.0
100
AcDbRotatedDimension
  0
DIMENSION
  5
314
100
AcDbEntity
  8
DRIVEN_DIMS
100
AcDbDimension
 62
7
  6
CONTINUOUS
  2
*D1
 10
13.6872093056
 20
15.8469237721
 11
13.6872093056
 21
17.9343253469
 70
160
 71
2
 42
109.85
  1
<>\P[]
  3
DIMSTYLE_1
100
AcDbAlignedDimension
 13
15.2302881342
 23
20.1717269217
 14
15.2302881342
 24
15.8469237721
 50
270.0
100
AcDbRotatedDimension
  0
DIMENSION
  5
315
100
AcDbEntity
  8
DRIVEN_DIMS
100
AcDbDimension
 62
7
  6
CONTINUOUS
  2
*D2
 10
20.2895977217
 20
20.1717269217
 11
20.2895977217
 21
19.4303391782
 70
160
 71
2
 42
35.875
  1
<>\P[]
  3
DIMSTYLE_1
100
AcDbAlignedDimension
 13
17.5154259295
 23
18.7593253469
 14
19.3995794728
 24
20.1717269217
 50
90.0
100
AcDbRotatedDimension
  0
DIMENSION
  5
316
100
AcDbEntity
  8
DRIVEN_DIMS
100
AcDbDimension
 62
7
  6
CONTINUOUS
  2
*D3
 10
14.5112040684
 20
20.1717269217
 11
14.5112040684
 21
19.0155261343
 70
160
 71
2
 42
54.925
  1
<>\P[]
  3
DIMSTYLE_1
100
AcDbAlignedDimension
 13
17.0646062806
 23
18.0093253469
 14
15.0709993896
 24
20.1717269217
 50
90.0
100
AcDbRotatedDimension
  0
DIMENSION
  5
317
100
AcDbEntity
  8
DRIVEN_DIMS
100
AcDbDimension
 62
7
  6
CONTINUOUS
  2
*D4
 10
20.2895977217
 20
17.2593253469
 11
20.2895977217
 21
17.9343253469
 70
160
 71
2
 42
38.1
  1
<>\P[]
  3
DIMSTYLE_1
100
AcDbAlignedDimension
 13
17.5154259295
 23
18.7593253469
 14
17.5154259295
 24
17.2593253469
 50
270.0
100
AcDbRotatedDimension
  0
DIMENSION
  5
318
100
AcDbEntity
  8
DRIVEN_DIMS
100
AcDbDimension
 62
7
  6
CONTINUOUS
  2
*D5
 10
15.1641464019
 20
20.7945259211
 11
16.2395401027
 21
20.7195259211
 70
160
 71
2
 42
54.63
  1
<>\P[]
  3
DIMSTYLE_1
100
AcDbAlignedDimension
 13
17.3149338035
 23
18.9598174729
 14
15.1641464019
 24
20.1126716801
 50
180.0
100
AcDbRotatedDimension
  0
DIMENSION
  5
319
100
AcDbEntity
  8
DRIVEN_DIMS
100
AcDbDimension
 62
7
  6
CONTINUOUS
  2
*D6
 10
4.7739058963
 20
13.8121946223
 11
4.2739058963
 21
14.4571775147
 70
160
 71
3
 42
5.5
  1
<>\P[]
  3
DIMSTYLE_1
100
AcDbAlignedDimension
 13
6.0592305388
 23
14.0287300554
 14
7.7523407744
 24
13.8121946223
 50
270.0
100
AcDbRotatedDimension
  0
DIMENSION
  5
31A
100
AcDbEntity
  8
DRIVEN_DIMS
100
AcDbDimension
 62
7
  6
CONTINUOUS
  2
*D7
 10
4.7739058963
 20
8.3791237562
 11
4.7739058963
 21
11.0206591892
 70
160
 71
2
 42
138.0
  1
<>\P[]
  3
DIMSTYLE_1
100
AcDbAlignedDimension
 13
7.7523407744
 23
13.8121946223
 14
7.7523407744
 24
8.3791237562
 50
270.0
100
AcDbRotatedDimension
  0
DIMENSION
  5
31B
100
AcDbEntity
  8
DRIVEN_DIMS
100
AcDbDimension
 62
7
  6
CONTINUOUS
  2
*D8
 10
7.9854116405
 20
14.664955405
 11
6.9423147599
 21
14.589955405
 70
160
 71
2
 42
54.925
  1
<>\P[]
  3
DIMSTYLE_1
100
AcDbAlignedDimension
 13
5.8230100657
 23
13.7925095829
 14
7.9854116405
 24
14.0452654884
100
AcDbRotatedDimension
  0
DIMENSION
  5
31C
100
AcDbEntity
  8
DRIVEN_DIMS
100
AcDbDimension
 62
7
  6
CONTINUOUS
  2
*D9
 10
19.3405243547
 20
14.7093224816
 11
17.3149338035
 21
14.6343224816
 70
160
 71
2
 42
102.9
  1
<>\P[]
  3
DIMSTYLE_1
100
AcDbAlignedDimension
 13
15.2893432523
 23
13.584721494
 14
19.3405243547
 24
13.6153442286
100
AcDbRotatedDimension
  0
DIMENSION
  5
31D
100
AcDbEntity
  8
DRIVEN_DIMS
100
AcDbDimension
 62
7
  6
CONTINUOUS
  2
*D10
 10
14.1692452085
 20
13.6153442286
 11
14.1692452085
 21
13.8330746894
 70
160
 71
2
 42
10.5
  1
<>\P[]
  3
DIMSTYLE_1
100
AcDbAlignedDimension
 13
15.2302881342
 23
14.0287300554
 14
15.2302881342
 24
13.6153442286
 50
270.0
100
AcDbRotatedDimension
  0
DIMENSION
  5
31E
100
AcDbEntity
  8
DRIVEN_DIMS
100
AcDbDimension
 62
7
  6
CONTINUOUS
  2
*D11
 10
14.1692452085
 20
9.6783363546
 11
14.1692452085
 21
11.9835993762
 70
160
 71
2
 42
100.0
  1
<>\P[]
  3
DIMSTYLE_1
100
AcDbAlignedDimension
 13
15.2302881342
 23
13.6153442286
 14
15.1643432523
 24
9.6783363546
 50
270.0
100
AcDbRotatedDimension
  0
DIMENSION
  5
31F
100
AcDbEntity
  8
DRIVEN_DIMS
100
AcDbDimension
 62
7
  6
CONTINUOUS
  2
*D12
 10
20.4667914165
 20
7.0208560396
 11
20.4667914165
 21
10.9345477843
 70
160
 71
2
 42
178.0
  1
<>\P[]
  3
DIMSTYLE_1
100
AcDbAlignedDimension
 13
19.3995794728
 23
14.0287300554
 14
17.3149338035
 24
7.0208560396
 50
270.0
100
AcDbRotatedDimension
  0
DIMENSION
  5
320
100
AcDbEntity
  8
DRIVEN_DIMS
100
AcDbDimension
 62
7
  6
CONTINUOUS
  2
*D13
 10
23.0534670951
 20
14.0287300554
 11
23.0534670951
 21
11.5795437658
 70
160
 71
2
 42
190.334
  1
<>\P[]
  3
DIMSTYLE_1
100
AcDbAlignedDimension
 13
24.5379285076
 23
6.5352654884
 14
24.296036932
 24
14.0287300554
 50
90.0
100
AcDbRotatedDimension
  0
DIMENSION
  5
321
100
AcDbEntity
  8
DRIVEN_DIMS
100
AcDbDimension
 62
7
  6
CONTINUOUS
  2
*D14
 10
19.4655243547
 20
6.1770689786
 11
19.1766464019
 21
6.1020689786
 70
160
 71
2
 42
14.675
  1
<>\P[]
  3
DIMSTYLE_1
100
AcDbAlignedDimension
 13
18.8877684492
 23
5.2080482485
 14
19.4655243547
 24
5.5285206895
100
AcDbRotatedDimension
  0
DIMENSION
  5
322
100
AcDbEntity
  8
DRIVEN_DIMS
100
AcDbDimension
 62
7
  6
CONTINUOUS
  2
*D15
 10
20.0516295434
 20
5.5875758076
 11
20.0516295434
 21
5.1645443115
 70
160
 71
2
 42
17.68
  1
<>\P[]
  3
DIMSTYLE_1
100
AcDbAlignedDimension
 13
19.2043038822
 23
4.8915128155
 14
19.3369810476
 24
5.5875758076
 50
90.0
100
AcDbRotatedDimension
  0
ACAD_TABLE
  5
323
100
AcDbEntity
  8
0
 62
7
  6
CONTINUOUS
100
AcDbBlockReference
  2
*T1
 10
29.0019788236
 20
0.7034944495
 30
0.0
100
AcDbTable
342
       7AB
343
24B
 11
1.0
 21
0.0
 31
0.0
 90
6
 91
3
 92
5
 93
4
 94
0
 95
0
 96
0
 70
1
141
0.33
141
0.45
141
1.14
142
0.65
142
1.15
142
1.025
142
1.075
142
0.45
171
1
172
0
173
0
174
0
175
1
176
1
 91
33
178
0
145
0.0
301
CELL_VALUE
 90
4
  1
 
304
ACVALUE_END
170
1
140
0.1
171
1
172
0
173
0
174
0
175
1
176
1
 91
33
178
0
145
0.0
301
CELL_VALUE
 90
4
  1
 
304
ACVALUE_END
170
1
140
0.1
171
1
172
0
173
0
174
0
175
1
176
1
 91
33
178
0
145
0.0
301
CELL_VALUE
 90
4
  1
 
304
ACVALUE_END
170
1
140
0.1
171
1
172
0
173
0
174
0
175
1
176
1
 91
33
178
0
145
0.0
301
CELL_VALUE
 90
4
  1
 
304
ACVALUE_END
170
1
140
0.1
171
1
172
0
173
0
174
0
175
1
176
1
 91
33
178
0
145
0.0
301
CELL_VALUE
 90
4
  1
 
304
ACVALUE_END
170
1
140
0.1
171
1
172
0
173
0
174
0
175
1
176
1
 91
33
178
0
145
0.0
301
CELL_VALUE
 90
4
  1
 
304
ACVALUE_END
170
1
140
0.1
171
1
172
0
173
0
174
0
175
1
176
1
 91
33
178
0
145
0.0
301
CELL_VALUE
 90
4
  1
 
304
ACVALUE_END
170
1
140
0.1
171
1
172
0
173
0
174
0
175
1
176
1
 91
33
178
0
145
0.0
301
CELL_VALUE
 90
4
  1
 
304
ACVALUE_END
170
1
140
0.1
171
1
172
0
173
0
174
0
175
1
176
1
 91
33
178
0
145
0.0
301
CELL_VALUE
 90
4
  1
 
304
ACVALUE_END
170
1
140
0.1
171
1
172
0
173
0
174
0
175
1
176
1
 91
41
178
0
145
0.0
301
CELL_VALUE
 90
4
  1
A
304
ACVALUE_END
170
8
140
0.1
 64
7
171
1
172
0
173
0
174
0
175
5
176
1
 91
33
178
0
145
0.0
301
CELL_VALUE
 90
4
  1
LED_O100M\P 
304
ACVALUE_END
170
8
140
0.1
171
1
172
0
173
1
174
0
175
1
176
1
 91
1
178
0
145
0.0
170
1
171
1
172
0
173
1
174
0
175
1
176
1
 91
1
178
0
145
0.0
170
1
171
1
172
0
173
1
174
0
175
1
176
1
 91
1
178
0
145
0.0
170
1
171
1
172
0
173
1
174
0
175
1
176
1
 91
1
178
0
145
0.0
170
8
  0
LINE
  5
324
100
AcDbEntity
  8
0
100
AcDbLine
 62
7
  6
CONTINUOUS
 10
0.5864933212
 20
11.1116437989
 11
0.5864933212
 21
10.9384377989
  0
LINE
  5
325
100
AcDbEntity
  8
0
100
AcDbLine
 62
7
  6
CONTINUOUS
 10
0.7364933212
 20
21.3366775222
 11
0.7364933212
 21
0.703495704
  0
LINE
  5
326
100
AcDbEntity
  8
0
100
AcDbLine
 62
7
  6
CONTINUOUS
 10
4.8131450808
 20
21.3363920353
 11
4.8131450808
 21
21.5863920353
  0
LINE
  5
327
100
AcDbEntity
  8
0
100
AcDbLine
 62
7
  6
CONTINUOUS
 10
4.8132098641
 20
0.7041934146
 11
4.8132098641
 21
0.4541934146
  0
LINE
  5
328
100
AcDbEntity
  8
0
100
AcDbLine
 62
7
  6
CONTINUOUS
 10
28.1301066922
 20
1.2501869563
 11
28.7364976922
 21
1.3195799563
  0
LINE
  5
329
100
AcDbEntity
  8
0
100
AcDbLine
 62
7
  6
CONTINUOUS
 10
16.957916919
 20
0.5535279135
 11
17.131122919
 21
0.5535279135
  0
LINE
  5
32A
100
AcDbEntity
  8
0
100
AcDbLine
 62
7
  6
CONTINUOUS
 10
0.7364933212
 20
0.703495704
 11
33.3519788796
 21
0.703495704
  0
LINE
  5
32B
100
AcDbEntity
  8
0
100
AcDbLine
 62
7
  6
CONTINUOUS
 10
29.0024539446
 20
0.953495704
 11
33.3524539446
 21
0.953495704
  0
LINE
  5
32C
100
AcDbEntity
  8
0
100
AcDbLine
 62
7
  6
CONTINUOUS
 10
27.2033456922
 20
1.0674889563
 11
27.4254366922
 21
1.0674889563
  0
LINE
  5
32D
100
AcDbEntity
  8
0
100
AcDbLine
 62
7
  6
CONTINUOUS
 10
27.4754366922
 20
1.0674889563
 11
27.5754366922
 21
1.0674889563
  0
LINE
  5
32E
100
AcDbEntity
  8
0
100
AcDbLine
 62
7
  6
CONTINUOUS
 10
27.6254366922
 20
1.0674889563
 11
27.8475276922
 21
1.0674889563
  0
LINE
  5
32F
100
AcDbEntity
  8
0
100
AcDbLine
 62
7
  6
CONTINUOUS
 10
28.0301066922
 20
1.0674889563
 11
28.3082586922
 21
1.0674889563
  0
LINE
  5
330
100
AcDbEntity
  8
0
100
AcDbLine
 62
7
  6
CONTINUOUS
 10
28.3582586922
 20
1.0674889563
 11
28.5083446922
 21
1.0674889563
  0
LINE
  5
331
100
AcDbEntity
  8
0
100
AcDbLine
 62
7
  6
CONTINUOUS
 10
28.5583446922
 20
1.0674889563
 11
28.8364976922
 21
1.0674889563
  0
LINE
  5
332
100
AcDbEntity
  8
0
100
AcDbLine
 62
7
  6
CONTINUOUS
 10
29.0024539446
 20
1.323495704
 11
33.3524539446
 21
1.323495704
  0
LINE
  5
333
100
AcDbEntity
  8
0
100
AcDbLine
 62
7
  6
CONTINUOUS
 10
0.5864933212
 20
10.9384377989
 11
0.7364933212
 21
11.0250407989
  0
LINE
  5
334
100
AcDbEntity
  8
0
100
AcDbLine
 62
7
  6
CONTINUOUS
 10
27.0024539446
 20
1.723495704
 11
29.0024539446
 21
1.723495704
  0
LINE
  5
335
100
AcDbEntity
  8
0
100
AcDbLine
 62
7
  6
CONTINUOUS
 10
29.0024539446
 20
2.083495704
 11
33.3524539446
 21
2.083495704
  0
LINE
  5
336
100
AcDbEntity
  8
0
100
AcDbLine
 62
7
  6
CONTINUOUS
 10
30.5661261778
 20
2.3081272989
 11
30.5187621516
 21
2.3081272989
  0
LINE
  5
337
100
AcDbEntity
  8
0
100
AcDbLine
 62
7
  6
CONTINUOUS
 10
30.4748711272
 20
2.3081272989
 11
30.3613000642
 21
2.3081272989
  0
LINE
  5
338
100
AcDbEntity
  8
0
100
AcDbLine
 62
7
  6
CONTINUOUS
 10
30.3323960482
 20
2.3081272989
 11
30.1291839355
 21
2.3081272989
  0
LINE
  5
339
100
AcDbEntity
  8
0
100
AcDbLine
 62
7
  6
CONTINUOUS
 10
30.0787109075
 20
2.3081272989
 11
30.0045048664
 21
2.3081272989
  0
LINE
  5
33A
100
AcDbEntity
  8
0
100
AcDbLine
 62
7
  6
CONTINUOUS
 10
29.9581248406
 20
2.3081272989
 11
29.8824607987
 21
2.3081272989
  0
LINE
  5
33B
100
AcDbEntity
  8
0
100
AcDbLine
 62
7
  6
CONTINUOUS
 10
29.8304577698
 20
2.3081272989
 11
29.7562527287
 21
2.3081272989
  0
LINE
  5
33C
100
AcDbEntity
  8
0
100
AcDbLine
 62
7
  6
CONTINUOUS
 10
29.709871703
 20
2.3081272989
 11
29.634207661
 21
2.3081272989
  0
LINE
  5
33D
100
AcDbEntity
  8
0
100
AcDbLine
 62
7
  6
CONTINUOUS
 10
29.1673724021
 20
2.3081272989
 11
29.3438185
 21
2.3081272989
  0
LINE
  5
33E
100
AcDbEntity
  8
0
100
AcDbLine
 62
7
  6
CONTINUOUS
 10
29.4013555319
 20
2.3081272989
 11
29.4787315748
 21
2.3081272989
  0
LINE
  5
33F
100
AcDbEntity
  8
0
100
AcDbLine
 62
7
  6
CONTINUOUS
 10
29.499017586
 20
2.3081272989
 11
29.6042986444
 21
2.3081272989
  0
LINE
  5
340
100
AcDbEntity
  8
0
100
AcDbLine
 62
7
  6
CONTINUOUS
 10
30.4502121135
 20
2.3328553126
 11
30.4748711272
 21
2.3328553126
  0
LINE
  5
341
100
AcDbEntity
  8
0
100
AcDbLine
 62
7
  6
CONTINUOUS
 10
29.6042986444
 20
2.3328773126
 11
29.5842826333
 21
2.3328773126
  0
LINE
  5
342
100
AcDbEntity
  8
0
100
AcDbLine
 62
7
  6
CONTINUOUS
 10
29.5134685941
 20
2.3328773126
 11
29.499017586
 21
2.3328773126
  0
LINE
  5
343
100
AcDbEntity
  8
0
100
AcDbLine
 62
7
  6
CONTINUOUS
 10
29.4787315748
 20
2.3328773126
 11
29.4674485685
 21
2.3328773126
  0
LINE
  5
344
100
AcDbEntity
  8
0
100
AcDbLine
 62
7
  6
CONTINUOUS
 10
29.4242165446
 20
2.3328773126
 11
29.4013555319
 21
2.3328773126
  0
LINE
  5
345
100
AcDbEntity
  8
0
100
AcDbLine
 62
7
  6
CONTINUOUS
 10
29.2981404746
 20
2.3328773126
 11
29.2567774517
 21
2.3328773126
  0
LINE
  5
346
100
AcDbEntity
  8
0
100
AcDbLine
 62
7
  6
CONTINUOUS
 10
29.1913144154
 20
2.3328773126
 11
29.1673724021
 21
2.3328773126
  0
LINE
  5
347
100
AcDbEntity
  8
0
100
AcDbLine
 62
7
  6
CONTINUOUS
 10
29.634207661
 20
2.3328773126
 11
29.6528546714
 21
2.3328773126
  0
LINE
  5
348
100
AcDbEntity
  8
0
100
AcDbLine
 62
7
  6
CONTINUOUS
 10
29.6895546917
 20
2.3328773126
 11
29.709871703
 21
2.3328773126
  0
LINE
  5
349
100
AcDbEntity
  8
0
100
AcDbLine
 62
7
  6
CONTINUOUS
 10
29.8824607987
 20
2.3328773126
 11
29.901106809
 21
2.3328773126
  0
LINE
  5
34A
100
AcDbEntity
  8
0
100
AcDbLine
 62
7
  6
CONTINUOUS
 10
29.9378078294
 20
2.3328773126
 11
29.9581248406
 21
2.3328773126
  0
LINE
  5
34B
100
AcDbEntity
  8
0
100
AcDbLine
 62
7
  6
CONTINUOUS
 10
30.1291839355
 20
2.3328773126
 11
30.1531069488
 21
2.3328773126
  0
LINE
  5
34C
100
AcDbEntity
  8
0
100
AcDbLine
 62
7
  6
CONTINUOUS
 10
30.2201229859
 20
2.3328773126
 11
30.285127022
 21
2.3328773126
  0
LINE
  5
34D
100
AcDbEntity
  8
0
100
AcDbLine
 62
7
  6
CONTINUOUS
 10
30.3613000642
 20
2.3328773126
 11
30.3840460768
 21
2.3328773126
  0
LINE
  5
34E
100
AcDbEntity
  8
0
100
AcDbLine
 62
7
  6
CONTINUOUS
 10
30.5671491784
 20
2.3332643128
 11
30.568258179
 21
2.3332643128
  0
LINE
  5
34F
100
AcDbEntity
  8
0
100
AcDbLine
 62
7
  6
CONTINUOUS
 10
30.2900770247
 20
2.3460773199
 11
30.3323960482
 21
2.3460773199
  0
LINE
  5
350
100
AcDbEntity
  8
0
100
AcDbLine
 62
7
  6
CONTINUOUS
 10
29.4729645716
 20
2.3465213202
 11
29.5078425909
 21
2.3465213202
  0
LINE
  5
351
100
AcDbEntity
  8
0
100
AcDbLine
 62
7
  6
CONTINUOUS
 10
30.579013185
 20
2.3470143205
 11
30.5911231917
 21
2.3470143205
  0
LINE
  5
352
100
AcDbEntity
  8
0
100
AcDbLine
 62
7
  6
CONTINUOUS
 10
30.4778191288
 20
2.3475043207
 11
30.4502121135
 21
2.3475043207
  0
LINE
  5
353
100
AcDbEntity
  8
0
100
AcDbLine
 62
7
  6
CONTINUOUS
 10
30.2552900054
 20
2.3493773218
 11
30.2201229859
 21
2.3493773218
  0
LINE
  5
354
100
AcDbEntity
  8
0
100
AcDbLine
 62
7
  6
CONTINUOUS
 10
29.2567774517
 20
2.3502023222
 11
29.2981404746
 21
2.3502023222
  0
LINE
  5
355
100
AcDbEntity
  8
0
100
AcDbLine
 62
7
  6
CONTINUOUS
 10
30.4841491324
 20
2.3665073313
 11
30.4502121135
 21
2.3665073313
  0
LINE
  5
356
100
AcDbEntity
  8
0
100
AcDbLine
 62
7
  6
CONTINUOUS
 10
29.2567774517
 20
2.3668573315
 11
29.2981404746
 21
2.3668573315
  0
LINE
  5
357
100
AcDbEntity
  8
0
100
AcDbLine
 62
7
  6
CONTINUOUS
 10
29.4814805763
 20
2.3674713318
 11
29.5020375877
 21
2.3674713318
  0
LINE
  5
358
100
AcDbEntity
  8
0
100
AcDbLine
 62
7
  6
CONTINUOUS
 10
30.2201229859
 20
2.3676823319
 11
30.2552900054
 21
2.3676823319
  0
LINE
  5
359
100
AcDbEntity
  8
0
100
AcDbLine
 62
7
  6
CONTINUOUS
 10
30.3309770474
 20
2.3709823337
 11
30.2891130242
 21
2.3709823337
  0
LINE
  5
35A
100
AcDbEntity
  8
0
100
AcDbLine
 62
7
  6
CONTINUOUS
 10
29.4947785837
 20
2.3836383408
 11
29.4885975803
 21
2.3836383408
  0
LINE
  5
35B
100
AcDbEntity
  8
0
100
AcDbLine
 62
7
  6
CONTINUOUS
 10
30.3840460768
 20
2.3841823411
 11
30.3613000642
 21
2.3841823411
  0
LINE
  5
35C
100
AcDbEntity
  8
0
100
AcDbLine
 62
7
  6
CONTINUOUS
 10
30.2841630215
 20
2.3841823411
 11
30.2201229859
 21
2.3841823411
  0
LINE
  5
35D
100
AcDbEntity
  8
0
100
AcDbLine
 62
7
  6
CONTINUOUS
 10
30.1531069488
 20
2.3841823411
 11
30.1291839355
 21
2.3841823411
  0
LINE
  5
35E
100
AcDbEntity
  8
0
100
AcDbLine
 62
7
  6
CONTINUOUS
 10
30.1015939202
 20
2.3841823411
 11
30.0836609103
 21
2.3841823411
  0
LINE
  5
35F
100
AcDbEntity
  8
0
100
AcDbLine
 62
7
  6
CONTINUOUS
 10
30.0463688896
 20
2.3841823411
 11
30.0275928792
 21
2.3841823411
  0
LINE
  5
360
100
AcDbEntity
  8
0
100
AcDbLine
 62
7
  6
CONTINUOUS
 10
29.901106809
 20
2.3841823411
 11
29.8824607987
 21
2.3841823411
  0
LINE
  5
361
100
AcDbEntity
  8
0
100
AcDbLine
 62
7
  6
CONTINUOUS
 10
29.8533407825
 20
2.3841823411
 11
29.8354077726
 21
2.3841823411
  0
LINE
  5
362
100
AcDbEntity
  8
0
100
AcDbLine
 62
7
  6
CONTINUOUS
 10
29.7981157519
 20
2.3841823411
 11
29.7793397415
 21
2.3841823411
  0
LINE
  5
363
100
AcDbEntity
  8
0
100
AcDbLine
 62
7
  6
CONTINUOUS
 10
29.6528546714
 20
2.3841823411
 11
29.634207661
 21
2.3841823411
  0
LINE
  5
364
100
AcDbEntity
  8
0
100
AcDbLine
 62
7
  6
CONTINUOUS
 10
29.2981404746
 20
2.3841823411
 11
29.2567774517
 21
2.3841823411
  0
LINE
  5
365
100
AcDbEntity
  8
0
100
AcDbLine
 62
7
  6
CONTINUOUS
 10
29.1673724021
 20
2.3841823411
 11
29.1913144154
 21
2.3841823411
  0
LINE
  5
366
100
AcDbEntity
  8
0
100
AcDbLine
 62
7
  6
CONTINUOUS
 10
30.4502121135
 20
2.3841823411
 11
30.4870131339
 21
2.3841823411
  0
LINE
  5
367
100
AcDbEntity
  8
0
100
AcDbLine
 62
7
  6
CONTINUOUS
 10
29.5323716045
 20
2.4089323548
 11
29.4751965728
 21
2.4089323548
  0
LINE
  5
368
100
AcDbEntity
  8
0
100
AcDbLine
 62
7
  6
CONTINUOUS
 10
29.3334354942
 20
2.4089323548
 11
29.1673724021
 21
2.4089323548
  0
LINE
  5
369
100
AcDbEntity
  8
0
100
AcDbLine
 62
7
  6
CONTINUOUS
 10
29.634207661
 20
2.4089323548
 11
29.7346657167
 21
2.4089323548
  0
LINE
  5
36A
100
AcDbEntity
  8
0
100
AcDbLine
 62
7
  6
CONTINUOUS
 10
29.7793397415
 20
2.4089323548
 11
29.8533407825
 21
2.4089323548
  0
LINE
  5
36B
100
AcDbEntity
  8
0
100
AcDbLine
 62
7
  6
CONTINUOUS
 10
29.8824607987
 20
2.4089323548
 11
29.9829188544
 21
2.4089323548
  0
LINE
  5
36C
100
AcDbEntity
  8
0
100
AcDbLine
 62
7
  6
CONTINUOUS
 10
30.0275928792
 20
2.4089323548
 11
30.1015939202
 21
2.4089323548
  0
LINE
  5
36D
100
AcDbEntity
  8
0
100
AcDbLine
 62
7
  6
CONTINUOUS
 10
30.1291839355
 20
2.4089323548
 11
30.3309770474
 21
2.4089323548
  0
LINE
  5
36E
100
AcDbEntity
  8
0
100
AcDbLine
 62
7
  6
CONTINUOUS
 10
30.3613000642
 20
2.4089323548
 11
30.5108811472
 21
2.4089323548
  0
LINE
  5
36F
100
AcDbEntity
  8
0
100
AcDbLine
 62
7
  6
CONTINUOUS
 10
29.3627025104
 20
2.3544433246
 11
29.3526515049
 21
2.3579923265
  0
LINE
  5
370
100
AcDbEntity
  8
0
100
AcDbLine
 62
7
  6
CONTINUOUS
 10
29.7545437277
 20
2.3088112993
 11
29.6912636927
 21
2.3691893327
  0
LINE
  5
371
100
AcDbEntity
  8
0
100
AcDbLine
 62
7
  6
CONTINUOUS
 10
29.7363737177
 20
2.4082483544
 11
29.796406751
 21
2.3509683226
  0
LINE
  5
372
100
AcDbEntity
  8
0
100
AcDbLine
 62
7
  6
CONTINUOUS
 10
30.0027968654
 20
2.3088112993
 11
29.9395168303
 21
2.3691893327
  0
LINE
  5
373
100
AcDbEntity
  8
0
100
AcDbLine
 62
7
  6
CONTINUOUS
 10
29.9846268553
 20
2.4082483544
 11
30.0446598886
 21
2.3509683226
  0
LINE
  5
374
100
AcDbEntity
  8
0
100
AcDbLine
 62
7
  6
CONTINUOUS
 10
29.5099205921
 20
2.3453903196
 11
29.5155465952
 21
2.3366973147
  0
LINE
  5
375
100
AcDbEntity
  8
0
100
AcDbLine
 62
7
  6
CONTINUOUS
 10
29.5041155889
 20
2.3712913339
 11
29.4968565848
 21
2.3825073401
  0
LINE
  5
376
100
AcDbEntity
  8
0
100
AcDbLine
 62
7
  6
CONTINUOUS
 10
29.5822056322
 20
2.3340073132
 11
29.5344496057
 21
2.4078023542
  0
LINE
  5
377
100
AcDbEntity
  8
0
100
AcDbLine
 62
7
  6
CONTINUOUS
 10
30.4994581408
 20
2.3261733089
 11
30.4976541398
 21
2.3322423123
  0
LINE
  5
378
100
AcDbEntity
  8
0
100
AcDbLine
 62
7
  6
CONTINUOUS
 10
29.1648974007
 20
2.4064573534
 11
29.1648974007
 21
2.3866573424
  0
LINE
  5
379
100
AcDbEntity
  8
0
100
AcDbLine
 62
7
  6
CONTINUOUS
 10
29.1648974007
 20
2.3304023112
 11
29.1648974007
 21
2.3106023003
  0
LINE
  5
37A
100
AcDbEntity
  8
0
100
AcDbLine
 62
7
  6
CONTINUOUS
 10
29.1937894168
 20
2.3817073397
 11
29.1937894168
 21
2.335352314
  0
LINE
  5
37B
100
AcDbEntity
  8
0
100
AcDbLine
 62
7
  6
CONTINUOUS
 10
29.2543024503
 20
2.3817073397
 11
29.2543024503
 21
2.3693323328
  0
LINE
  5
37C
100
AcDbEntity
  8
0
100
AcDbLine
 62
7
  6
CONTINUOUS
 10
29.2543024503
 20
2.335352314
 11
29.2543024503
 21
2.3477273208
  0
LINE
  5
37D
100
AcDbEntity
  8
0
100
AcDbLine
 62
7
  6
CONTINUOUS
 10
29.3988805305
 20
2.3304023112
 11
29.3988805305
 21
2.3106023003
  0
LINE
  5
37E
100
AcDbEntity
  8
0
100
AcDbLine
 62
7
  6
CONTINUOUS
 10
29.4812065762
 20
2.3106023003
 11
29.4812065762
 21
2.3304023112
  0
LINE
  5
37F
100
AcDbEntity
  8
0
100
AcDbLine
 62
7
  6
CONTINUOUS
 10
29.4965425847
 20
2.3304023112
 11
29.4965425847
 21
2.3106023003
  0
LINE
  5
380
100
AcDbEntity
  8
0
100
AcDbLine
 62
7
  6
CONTINUOUS
 10
29.6067736458
 20
2.3106023003
 11
29.6067736458
 21
2.3304023112
  0
LINE
  5
381
100
AcDbEntity
  8
0
100
AcDbLine
 62
7
  6
CONTINUOUS
 10
29.6317326596
 20
2.3106023003
 11
29.6317326596
 21
2.3304023112
  0
LINE
  5
382
100
AcDbEntity
  8
0
100
AcDbLine
 62
7
  6
CONTINUOUS
 10
29.6317326596
 20
2.3866573424
 11
29.6317326596
 21
2.4064573534
  0
LINE
  5
383
100
AcDbEntity
  8
0
100
AcDbLine
 62
7
  6
CONTINUOUS
 10
29.6553296727
 20
2.335352314
 11
29.6553296727
 21
2.3817073397
  0
LINE
  5
384
100
AcDbEntity
  8
0
100
AcDbLine
 62
7
  6
CONTINUOUS
 10
29.6870796903
 20
2.3673983318
 11
29.6870796903
 21
2.335352314
  0
LINE
  5
385
100
AcDbEntity
  8
0
100
AcDbLine
 62
7
  6
CONTINUOUS
 10
29.7123467043
 20
2.3304023112
 11
29.7123467043
 21
2.3106023003
  0
LINE
  5
386
100
AcDbEntity
  8
0
100
AcDbLine
 62
7
  6
CONTINUOUS
 10
29.7768647401
 20
2.3866573424
 11
29.7768647401
 21
2.4064573534
  0
LINE
  5
387
100
AcDbEntity
  8
0
100
AcDbLine
 62
7
  6
CONTINUOUS
 10
29.8005907533
 20
2.3527593236
 11
29.8005907533
 21
2.3817073397
  0
LINE
  5
388
100
AcDbEntity
  8
0
100
AcDbLine
 62
7
  6
CONTINUOUS
 10
29.8329327712
 20
2.3817073397
 11
29.8329327712
 21
2.3106023003
  0
LINE
  5
389
100
AcDbEntity
  8
0
100
AcDbLine
 62
7
  6
CONTINUOUS
 10
29.8558157839
 20
2.4064573534
 11
29.8558157839
 21
2.3866573424
  0
LINE
  5
38A
100
AcDbEntity
  8
0
100
AcDbLine
 62
7
  6
CONTINUOUS
 10
29.8799857973
 20
2.3106023003
 11
29.8799857973
 21
2.3304023112
  0
LINE
  5
38B
100
AcDbEntity
  8
0
100
AcDbLine
 62
7
  6
CONTINUOUS
 10
29.8799857973
 20
2.3866573424
 11
29.8799857973
 21
2.4064573534
  0
LINE
  5
38C
100
AcDbEntity
  8
0
100
AcDbLine
 62
7
  6
CONTINUOUS
 10
29.9035818104
 20
2.335352314
 11
29.9035818104
 21
2.3817073397
  0
LINE
  5
38D
100
AcDbEntity
  8
0
100
AcDbLine
 62
7
  6
CONTINUOUS
 10
29.935332828
 20
2.3673983318
 11
29.935332828
 21
2.335352314
  0
LINE
  5
38E
100
AcDbEntity
  8
0
100
AcDbLine
 62
7
  6
CONTINUOUS
 10
29.960599842
 20
2.3304023112
 11
29.960599842
 21
2.3106023003
  0
LINE
  5
38F
100
AcDbEntity
  8
0
100
AcDbLine
 62
7
  6
CONTINUOUS
 10
30.0251178778
 20
2.3866573424
 11
30.0251178778
 21
2.4064573534
  0
LINE
  5
390
100
AcDbEntity
  8
0
100
AcDbLine
 62
7
  6
CONTINUOUS
 10
30.048843891
 20
2.3527593236
 11
30.048843891
 21
2.3817073397
  0
LINE
  5
391
100
AcDbEntity
  8
0
100
AcDbLine
 62
7
  6
CONTINUOUS
 10
30.0811859089
 20
2.3817073397
 11
30.0811859089
 21
2.3106023003
  0
LINE
  5
392
100
AcDbEntity
  8
0
100
AcDbLine
 62
7
  6
CONTINUOUS
 10
30.1040689216
 20
2.4064573534
 11
30.1040689216
 21
2.3866573424
  0
LINE
  5
393
100
AcDbEntity
  8
0
100
AcDbLine
 62
7
  6
CONTINUOUS
 10
30.1267089341
 20
2.3106023003
 11
30.1267089341
 21
2.3304023112
  0
LINE
  5
394
100
AcDbEntity
  8
0
100
AcDbLine
 62
7
  6
CONTINUOUS
 10
30.1267089341
 20
2.3866573424
 11
30.1267089341
 21
2.4064573534
  0
LINE
  5
395
100
AcDbEntity
  8
0
100
AcDbLine
 62
7
  6
CONTINUOUS
 10
30.1555819501
 20
2.335352314
 11
30.1555819501
 21
2.3817073397
  0
LINE
  5
396
100
AcDbEntity
  8
0
100
AcDbLine
 62
7
  6
CONTINUOUS
 10
30.2176479846
 20
2.3817073397
 11
30.2176479846
 21
2.3701573333
  0
LINE
  5
397
100
AcDbEntity
  8
0
100
AcDbLine
 62
7
  6
CONTINUOUS
 10
30.2176479846
 20
2.3469023204
 11
30.2176479846
 21
2.335352314
  0
LINE
  5
398
100
AcDbEntity
  8
0
100
AcDbLine
 62
7
  6
CONTINUOUS
 10
30.2577650068
 20
2.3652073305
 11
30.2577650068
 21
2.3518523231
  0
LINE
  5
399
100
AcDbEntity
  8
0
100
AcDbLine
 62
7
  6
CONTINUOUS
 10
30.2866380228
 20
2.3734573351
 11
30.2866380228
 21
2.3817073397
  0
LINE
  5
39A
100
AcDbEntity
  8
0
100
AcDbLine
 62
7
  6
CONTINUOUS
 10
30.2876020234
 20
2.335352314
 11
30.2876020234
 21
2.3436023186
  0
LINE
  5
39B
100
AcDbEntity
  8
0
100
AcDbLine
 62
7
  6
CONTINUOUS
 10
30.3334520488
 20
2.4064573534
 11
30.3334520488
 21
2.3734573351
  0
LINE
  5
39C
100
AcDbEntity
  8
0
100
AcDbLine
 62
7
  6
CONTINUOUS
 10
30.3348710496
 20
2.3436023186
 11
30.3348710496
 21
2.3106023003
  0
LINE
  5
39D
100
AcDbEntity
  8
0
100
AcDbLine
 62
7
  6
CONTINUOUS
 10
30.3588250629
 20
2.3106023003
 11
30.3588250629
 21
2.3304023112
  0
LINE
  5
39E
100
AcDbEntity
  8
0
100
AcDbLine
 62
7
  6
CONTINUOUS
 10
30.3588250629
 20
2.3866573424
 11
30.3588250629
 21
2.4064573534
  0
LINE
  5
39F
100
AcDbEntity
  8
0
100
AcDbLine
 62
7
  6
CONTINUOUS
 10
30.3865210782
 20
2.335352314
 11
30.3865210782
 21
2.3817073397
  0
LINE
  5
3A0
100
AcDbEntity
  8
0
100
AcDbLine
 62
7
  6
CONTINUOUS
 10
30.4477371122
 20
2.3450293194
 11
30.4477371122
 21
2.335330314
  0
LINE
  5
3A1
100
AcDbEntity
  8
0
100
AcDbLine
 62
7
  6
CONTINUOUS
 10
30.4477371122
 20
2.3689823326
 11
30.4477371122
 21
2.3817073397
  0
LINE
  5
3A2
100
AcDbEntity
  8
0
100
AcDbLine
 62
7
  6
CONTINUOUS
 10
30.4773461286
 20
2.3303803112
 11
30.4773461286
 21
2.3106023003
  0
LINE
  5
3A3
100
AcDbEntity
  8
0
100
AcDbLine
 62
7
  6
CONTINUOUS
 10
30.5765381836
 20
2.3419133176
 11
30.5765381836
 21
2.3445393191
  0
LINE
  5
3A4
100
AcDbEntity
  8
0
100
AcDbLine
 62
7
  6
CONTINUOUS
 10
30.5935981931
 20
2.3445393191
 11
30.5935981931
 21
2.3329873127
  0
LINE
  5
3A5
100
AcDbEntity
  8
0
100
AcDbLine
 62
7
  6
CONTINUOUS
 10
30.690554488
 20
2.3519697229
 11
30.690554488
 21
2.3625869294
  0
LINE
  5
3A6
100
AcDbEntity
  8
0
100
AcDbLine
 62
7
  6
CONTINUOUS
 10
29.3526515049
 20
2.3579923265
 11
29.3608915094
 21
2.3627683292
  0
LINE
  5
3A7
100
AcDbEntity
  8
0
100
AcDbLine
 62
7
  6
CONTINUOUS
 10
29.4731065717
 20
2.4077833542
 11
29.4263065457
 21
2.3340263132
  0
LINE
  5
3A8
100
AcDbEntity
  8
0
100
AcDbLine
 62
7
  6
CONTINUOUS
 10
29.4865075791
 20
2.3824893401
 11
29.4793905752
 21
2.3712723339
  0
LINE
  5
3A9
100
AcDbEntity
  8
0
100
AcDbLine
 62
7
  6
CONTINUOUS
 10
29.4653585674
 20
2.3366783147
 11
29.4708745704
 21
2.3453723195
  0
ARC
  5
3AA
100
AcDbEntity
  8
0
100
AcDbCircle
 62
7
  6
CONTINUOUS
 10
29.7562520939
 20
2.310602715
 40
0.0024754162
100
AcDbArc
 50
226.3593695813
 51
270.0146919953
  0
ARC
  5
3AB
100
AcDbEntity
  8
0
100
AcDbCircle
 62
7
  6
CONTINUOUS
 10
29.1673724003
 20
2.3106022984
 40
0.0024749995
100
AcDbArc
 50
179.9999571957
 51
270.0000428043
  0
ARC
  5
3AC
100
AcDbEntity
  8
0
100
AcDbCircle
 62
7
  6
CONTINUOUS
 10
29.8304577717
 20
2.3106022984
 40
0.0024749995
100
AcDbArc
 50
269.9999571957
 51
0.0000428042
  0
ARC
  5
3AD
100
AcDbEntity
  8
0
100
AcDbCircle
 62
7
  6
CONTINUOUS
 10
29.7098717048
 20
2.3106022984
 40
0.0024749995
100
AcDbArc
 50
269.9999571957
 51
0.0000428042
  0
ARC
  5
3AE
100
AcDbEntity
  8
0
100
AcDbCircle
 62
7
  6
CONTINUOUS
 10
29.6342076592
 20
2.3106022984
 40
0.0024749995
100
AcDbArc
 50
179.9999571957
 51
270.0000428043
  0
ARC
  5
3AF
100
AcDbEntity
  8
0
100
AcDbCircle
 62
7
  6
CONTINUOUS
 10
29.4990175842
 20
2.3106022984
 40
0.0024749995
100
AcDbArc
 50
179.9999571957
 51
270.0000428043
  0
ARC
  5
3B0
100
AcDbEntity
  8
0
100
AcDbCircle
 62
7
  6
CONTINUOUS
 10
29.6042986463
 20
2.3106022984
 40
0.0024749995
100
AcDbArc
 50
269.9999571957
 51
0.0000428043
  0
ARC
  5
3B1
100
AcDbEntity
  8
0
100
AcDbCircle
 62
7
  6
CONTINUOUS
 10
29.40135553
 20
2.3106022984
 40
0.0024749995
100
AcDbArc
 50
179.9999571957
 51
270.0000428043
  0
ARC
  5
3B2
100
AcDbEntity
  8
0
100
AcDbCircle
 62
7
  6
CONTINUOUS
 10
29.4787315766
 20
2.3106022984
 40
0.0024749995
100
AcDbArc
 50
269.9999571958
 51
0.0000428044
  0
ARC
  5
3B3
100
AcDbEntity
  8
0
100
AcDbCircle
 62
7
  6
CONTINUOUS
 10
29.3334409881
 20
2.347184638
 40
0.061747717
100
AcDbArc
 50
59.5385584989
 51
90.0050977555
  0
ARC
  5
3B4
100
AcDbEntity
  8
0
100
AcDbCircle
 62
7
  6
CONTINUOUS
 10
29.3410971553
 20
2.3565347507
 40
0.048483885
100
AcDbArc
 50
273.21763719
 51
303.0749121182
  0
ARC
  5
3B5
100
AcDbEntity
  8
0
100
AcDbCircle
 62
7
  6
CONTINUOUS
 10
29.3550433609
 20
2.3335878142
 40
0.0222174455
100
AcDbArc
 50
4.0793399388
 51
69.834329283
  0
ARC
  5
3B6
100
AcDbEntity
  8
0
100
AcDbCircle
 62
7
  6
CONTINUOUS
 10
29.3559365494
 20
2.3337671418
 40
0.0213072145
100
AcDbArc
 50
303.0488228549
 51
355.7263138674
  0
ARC
  5
3B7
100
AcDbEntity
  8
0
100
AcDbCircle
 62
7
  6
CONTINUOUS
 10
29.36187305
 20
2.3337763321
 40
0.0153945295
100
AcDbArc
 50
354.0454548824
 51
5.1878013979
  0
ARC
  5
3B8
100
AcDbEntity
  8
0
100
AcDbCircle
 62
7
  6
CONTINUOUS
 10
29.2981404746
 20
2.3415398174
 40
0.0086625048
100
AcDbArc
 50
270.0
 51
90.0
  0
ARC
  5
3B9
100
AcDbEntity
  8
0
100
AcDbCircle
 62
7
  6
CONTINUOUS
 10
29.5078420513
 20
2.34404586
 40
0.0024754602
100
AcDbArc
 50
32.8959418574
 51
89.9875097203
  0
ARC
  5
3BA
100
AcDbEntity
  8
0
100
AcDbCircle
 62
7
  6
CONTINUOUS
 10
29.4242166149
 20
2.3353525129
 40
0.0024752003
100
AcDbArc
 50
269.9983726451
 51
327.6021653071
  0
ARC
  5
3BB
100
AcDbEntity
  8
0
100
AcDbCircle
 62
7
  6
CONTINUOUS
 10
29.4729645013
 20
2.3440461199
 40
0.0024752003
100
AcDbArc
 50
89.998372645
 51
147.602165307
  0
ARC
  5
3BC
100
AcDbEntity
  8
0
100
AcDbCircle
 62
7
  6
CONTINUOUS
 10
29.4674484592
 20
2.3353523527
 40
0.0024750401
100
AcDbArc
 50
147.6063258011
 51
270.0025305753
  0
ARC
  5
3BD
100
AcDbEntity
  8
0
100
AcDbCircle
 62
7
  6
CONTINUOUS
 10
29.1913144172
 20
2.3353523121
 40
0.0024749995
100
AcDbArc
 50
269.9999571957
 51
0.0000428042
  0
ARC
  5
3BE
100
AcDbEntity
  8
0
100
AcDbCircle
 62
7
  6
CONTINUOUS
 10
29.1673724003
 20
2.3304023131
 40
0.0024749995
100
AcDbArc
 50
89.9999571958
 51
180.0000428044
  0
ARC
  5
3BF
100
AcDbEntity
  8
0
100
AcDbCircle
 62
7
  6
CONTINUOUS
 10
29.2567774499
 20
2.3477273227
 40
0.0024749995
100
AcDbArc
 50
89.9999571957
 51
180.0000428042
  0
ARC
  5
3C0
100
AcDbEntity
  8
0
100
AcDbCircle
 62
7
  6
CONTINUOUS
 10
29.2567774499
 20
2.3353523121
 40
0.0024749995
100
AcDbArc
 50
179.9999571957
 51
270.0000428043
  0
ARC
  5
3C1
100
AcDbEntity
  8
0
100
AcDbCircle
 62
7
  6
CONTINUOUS
 10
29.4990175842
 20
2.3304023131
 40
0.0024749995
100
AcDbArc
 50
89.9999571957
 51
180.0000428043
  0
ARC
  5
3C2
100
AcDbEntity
  8
0
100
AcDbCircle
 62
7
  6
CONTINUOUS
 10
29.40135553
 20
2.3304023131
 40
0.0024749995
100
AcDbArc
 50
89.9999571957
 51
180.0000428042
  0
ARC
  5
3C3
100
AcDbEntity
  8
0
100
AcDbCircle
 62
7
  6
CONTINUOUS
 10
29.4787315766
 20
2.3304023131
 40
0.0024749995
100
AcDbArc
 50
359.9999571957
 51
90.0000428043
  0
ARC
  5
3C4
100
AcDbEntity
  8
0
100
AcDbCircle
 62
7
  6
CONTINUOUS
 10
29.339026127
 20
2.3995952208
 40
0.0428289026
100
AcDbArc
 50
300.6990502959
 51
319.0591802498
  0
ARC
  5
3C5
100
AcDbEntity
  8
0
100
AcDbCircle
 62
7
  6
CONTINUOUS
 10
29.3541031117
 20
2.3801132029
 40
0.0229166529
100
AcDbArc
 50
20.6563876465
 51
62.3316896973
  0
ARC
  5
3C6
100
AcDbEntity
  8
0
100
AcDbCircle
 62
7
  6
CONTINUOUS
 10
29.3590547239
 20
2.3834668674
 40
0.0171568255
100
AcDbArc
 50
315.9145124245
 51
16.0049121282
  0
ARC
  5
3C7
100
AcDbEntity
  8
0
100
AcDbCircle
 62
7
  6
CONTINUOUS
 10
29.2981404746
 20
2.3755198363
 40
0.0086625048
100
AcDbArc
 50
270.0
 51
90.0
  0
ARC
  5
3C8
100
AcDbEntity
  8
0
100
AcDbCircle
 62
7
  6
CONTINUOUS
 10
29.494778044
 20
2.3811628806
 40
0.0024754602
100
AcDbArc
 50
32.8959418574
 51
89.9875097203
  0
ARC
  5
3C9
100
AcDbEntity
  8
0
100
AcDbCircle
 62
7
  6
CONTINUOUS
 10
29.5020375666
 20
2.3699465389
 40
0.0024752071
100
AcDbArc
 50
270.0004896792
 51
32.9089806817
  0
ARC
  5
3CA
100
AcDbEntity
  8
0
100
AcDbCircle
 62
7
  6
CONTINUOUS
 10
29.48859751
 20
2.3811631405
 40
0.0024752003
100
AcDbArc
 50
89.9983726451
 51
147.6021653071
  0
ARC
  5
3CB
100
AcDbEntity
  8
0
100
AcDbCircle
 62
7
  6
CONTINUOUS
 10
29.4751965025
 20
2.4064571545
 40
0.0024752003
100
AcDbArc
 50
89.998372645
 51
147.602165307
  0
ARC
  5
3CC
100
AcDbEntity
  8
0
100
AcDbCircle
 62
7
  6
CONTINUOUS
 10
29.481480467
 20
2.3699463719
 40
0.0024750401
100
AcDbArc
 50
147.6063258012
 51
270.0025305754
  0
ARC
  5
3CD
100
AcDbEntity
  8
0
100
AcDbCircle
 62
7
  6
CONTINUOUS
 10
29.1673724003
 20
2.4064573553
 40
0.0024749995
100
AcDbArc
 50
89.9999571958
 51
180.0000428044
  0
ARC
  5
3CE
100
AcDbEntity
  8
0
100
AcDbCircle
 62
7
  6
CONTINUOUS
 10
29.1673724003
 20
2.3866573406
 40
0.0024749995
100
AcDbArc
 50
179.9999571957
 51
270.0000428043
  0
ARC
  5
3CF
100
AcDbEntity
  8
0
100
AcDbCircle
 62
7
  6
CONTINUOUS
 10
29.1913144172
 20
2.3817073415
 40
0.0024749995
100
AcDbArc
 50
359.9999571957
 51
90.0000428043
  0
ARC
  5
3D0
100
AcDbEntity
  8
0
100
AcDbCircle
 62
7
  6
CONTINUOUS
 10
29.2567774499
 20
2.3817073415
 40
0.0024749995
100
AcDbArc
 50
89.9999571957
 51
180.0000428042
  0
ARC
  5
3D1
100
AcDbEntity
  8
0
100
AcDbCircle
 62
7
  6
CONTINUOUS
 10
29.2567774499
 20
2.369332331
 40
0.0024749995
100
AcDbArc
 50
179.9999571957
 51
270.0000428043
  0
ARC
  5
3D2
100
AcDbEntity
  8
0
100
AcDbCircle
 62
7
  6
CONTINUOUS
 10
29.7981154519
 20
2.3527592604
 40
0.0024753014
100
AcDbArc
 50
226.3461263059
 51
0.0014637321
  0
ARC
  5
3D3
100
AcDbEntity
  8
0
100
AcDbCircle
 62
7
  6
CONTINUOUS
 10
29.6895549917
 20
2.367398395
 40
0.0024753014
100
AcDbArc
 50
46.3461263059
 51
180.0014637321
  0
ARC
  5
3D4
100
AcDbEntity
  8
0
100
AcDbCircle
 62
7
  6
CONTINUOUS
 10
29.5134685729
 20
2.3353525197
 40
0.0024752071
100
AcDbArc
 50
270.0004896794
 51
32.9089806819
  0
ARC
  5
3D5
100
AcDbEntity
  8
0
100
AcDbCircle
 62
7
  6
CONTINUOUS
 10
29.6895546899
 20
2.3353523121
 40
0.0024749995
100
AcDbArc
 50
179.9999571957
 51
270.0000428043
  0
ARC
  5
3D6
100
AcDbEntity
  8
0
100
AcDbCircle
 62
7
  6
CONTINUOUS
 10
29.7098717048
 20
2.3304023131
 40
0.0024749995
100
AcDbArc
 50
359.9999571957
 51
90.0000428043
  0
ARC
  5
3D7
100
AcDbEntity
  8
0
100
AcDbCircle
 62
7
  6
CONTINUOUS
 10
29.6342076592
 20
2.3304023131
 40
0.0024749995
100
AcDbArc
 50
89.9999571957
 51
180.0000428043
  0
ARC
  5
3D8
100
AcDbEntity
  8
0
100
AcDbCircle
 62
7
  6
CONTINUOUS
 10
29.6528546732
 20
2.3353523121
 40
0.0024749995
100
AcDbArc
 50
269.9999571957
 51
0.0000428042
  0
ARC
  5
3D9
100
AcDbEntity
  8
0
100
AcDbCircle
 62
7
  6
CONTINUOUS
 10
29.6042986463
 20
2.3304023131
 40
0.0024749995
100
AcDbArc
 50
359.9999571957
 51
90.0000428043
  0
ARC
  5
3DA
100
AcDbEntity
  8
0
100
AcDbCircle
 62
7
  6
CONTINUOUS
 10
29.5842827538
 20
2.3353513536
 40
0.002474041
100
AcDbArc
 50
212.9056413127
 51
269.9972091756
  0
ARC
  5
3DB
100
AcDbEntity
  8
0
100
AcDbCircle
 62
7
  6
CONTINUOUS
 10
29.7981157538
 20
2.3817073415
 40
0.0024749995
100
AcDbArc
 50
359.9999571957
 51
90.0000428043
  0
ARC
  5
3DC
100
AcDbEntity
  8
0
100
AcDbCircle
 62
7
  6
CONTINUOUS
 10
29.7793397396
 20
2.3866573406
 40
0.0024749995
100
AcDbArc
 50
179.9999571957
 51
270.0000428043
  0
ARC
  5
3DD
100
AcDbEntity
  8
0
100
AcDbCircle
 62
7
  6
CONTINUOUS
 10
29.7793397396
 20
2.4064573553
 40
0.0024749995
100
AcDbArc
 50
89.9999571957
 51
180.0000428042
  0
ARC
  5
3DE
100
AcDbEntity
  8
0
100
AcDbCircle
 62
7
  6
CONTINUOUS
 10
29.8533407844
 20
2.4064573553
 40
0.0024749995
100
AcDbArc
 50
359.9999571957
 51
90.0000428043
  0
ARC
  5
3DF
100
AcDbEntity
  8
0
100
AcDbCircle
 62
7
  6
CONTINUOUS
 10
29.8533407844
 20
2.3866573406
 40
0.0024749995
100
AcDbArc
 50
269.9999571958
 51
0.0000428044
  0
ARC
  5
3E0
100
AcDbEntity
  8
0
100
AcDbCircle
 62
7
  6
CONTINUOUS
 10
29.8354077707
 20
2.3817073415
 40
0.0024749995
100
AcDbArc
 50
89.9999571957
 51
180.0000428042
  0
ARC
  5
3E1
100
AcDbEntity
  8
0
100
AcDbCircle
 62
7
  6
CONTINUOUS
 10
29.6528546732
 20
2.3817073415
 40
0.0024749995
100
AcDbArc
 50
359.9999571957
 51
90.0000428043
  0
ARC
  5
3E2
100
AcDbEntity
  8
0
100
AcDbCircle
 62
7
  6
CONTINUOUS
 10
29.6342076592
 20
2.3866573406
 40
0.0024749995
100
AcDbArc
 50
179.9999571957
 51
270.0000428043
  0
ARC
  5
3E3
100
AcDbEntity
  8
0
100
AcDbCircle
 62
7
  6
CONTINUOUS
 10
29.6342076592
 20
2.4064573553
 40
0.0024749995
100
AcDbArc
 50
89.9999571957
 51
180.0000428043
  0
ARC
  5
3E4
100
AcDbEntity
  8
0
100
AcDbCircle
 62
7
  6
CONTINUOUS
 10
29.532371984
 20
2.4064573946
 40
0.0024749602
100
AcDbArc
 50
32.9172174468
 51
90.0087853097
  0
ARC
  5
3E5
100
AcDbEntity
  8
0
100
AcDbCircle
 62
7
  6
CONTINUOUS
 10
29.7346658515
 20
2.406458187
 40
0.0024741678
100
AcDbArc
 50
46.3477981899
 51
90.0031206039
  0
ARC
  5
3E6
100
AcDbEntity
  8
0
100
AcDbCircle
 62
7
  6
CONTINUOUS
 10
30.5082178439
 20
2.2263934443
 40
0.1825583387
100
AcDbArc
 50
79.8618509324
 51
89.1640948679
  0
ARC
  5
3E7
100
AcDbEntity
  8
0
100
AcDbCircle
 62
7
  6
CONTINUOUS
 10
30.4901231168
 20
2.2555010151
 40
0.117346916
100
AcDbArc
 50
58.614769177
 51
62.3737227606
  0
ARC
  5
3E8
100
AcDbEntity
  8
0
100
AcDbCircle
 62
7
  6
CONTINUOUS
 10
30.5189851722
 20
2.3263737837
 40
0.0459185159
100
AcDbArc
 50
15.6740290068
 51
20.9917271228
  0
ARC
  5
3E9
100
AcDbEntity
  8
0
100
AcDbCircle
 62
7
  6
CONTINUOUS
 10
30.4592749426
 20
2.3224452318
 40
0.0396099176
100
AcDbArc
 50
14.3201081283
 51
22.4984722084
  0
ARC
  5
3EA
100
AcDbEntity
  8
0
100
AcDbCircle
 62
7
  6
CONTINUOUS
 10
30.4779865962
 20
2.323137238
 40
0.0243676582
100
AcDbArc
 50
63.3666028271
 51
90.3937697637
  0
ARC
  5
3EB
100
AcDbEntity
  8
0
100
AcDbCircle
 62
7
  6
CONTINUOUS
 10
30.5654812677
 20
2.3280006042
 40
0.0198837666
100
AcDbArc
 50
271.8586572978
 51
289.4131338543
  0
ARC
  5
3EC
100
AcDbEntity
  8
0
100
AcDbCircle
 62
7
  6
CONTINUOUS
 10
30.5195674723
 20
2.3254494505
 40
0.0173408616
100
AcDbArc
 50
232.4713476722
 51
267.338189944
  0
ARC
  5
3ED
100
AcDbEntity
  8
0
100
AcDbCircle
 62
7
  6
CONTINUOUS
 10
30.4748711291
 20
2.3106022984
 40
0.0024749995
100
AcDbArc
 50
269.9999571958
 51
0.0000428044
  0
ARC
  5
3EE
100
AcDbEntity
  8
0
100
AcDbCircle
 62
7
  6
CONTINUOUS
 10
30.3613000624
 20
2.3106022984
 40
0.0024749995
100
AcDbArc
 50
179.9999571957
 51
270.0000428043
  0
ARC
  5
3EF
100
AcDbEntity
  8
0
100
AcDbCircle
 62
7
  6
CONTINUOUS
 10
30.0787109094
 20
2.3106022984
 40
0.0024749995
100
AcDbArc
 50
269.9999571957
 51
0.0000428043
  0
ARC
  5
3F0
100
AcDbEntity
  8
0
100
AcDbCircle
 62
7
  6
CONTINUOUS
 10
29.9581248425
 20
2.3106022984
 40
0.0024749995
100
AcDbArc
 50
269.9999571957
 51
0.0000428043
  0
ARC
  5
3F1
100
AcDbEntity
  8
0
100
AcDbCircle
 62
7
  6
CONTINUOUS
 10
29.8824607968
 20
2.3106022984
 40
0.0024749995
100
AcDbArc
 50
179.9999571957
 51
270.0000428043
  0
ARC
  5
3F2
100
AcDbEntity
  8
0
100
AcDbCircle
 62
7
  6
CONTINUOUS
 10
30.33239605
 20
2.3106022984
 40
0.0024749995
100
AcDbArc
 50
269.9999571957
 51
0.0000428042
  0
ARC
  5
3F3
100
AcDbEntity
  8
0
100
AcDbCircle
 62
7
  6
CONTINUOUS
 10
30.1291839337
 20
2.3106022984
 40
0.0024749995
100
AcDbArc
 50
179.9999571957
 51
270.0000428043
  0
ARC
  5
3F4
100
AcDbEntity
  8
0
100
AcDbCircle
 62
7
  6
CONTINUOUS
 10
30.0045047316
 20
2.3106014667
 40
0.0024741678
100
AcDbArc
 50
226.3477981898
 51
270.0031206038
  0
ARC
  5
3F5
100
AcDbEntity
  8
0
100
AcDbCircle
 62
7
  6
CONTINUOUS
 10
30.0463685896
 20
2.3527592604
 40
0.0024753014
100
AcDbArc
 50
226.3461263059
 51
0.0014637321
  0
ARC
  5
3F6
100
AcDbEntity
  8
0
100
AcDbCircle
 62
7
  6
CONTINUOUS
 10
29.9378081294
 20
2.367398395
 40
0.0024753014
100
AcDbArc
 50
46.3461263058
 51
180.0014637321
  0
ARC
  5
3F7
100
AcDbEntity
  8
0
100
AcDbCircle
 62
7
  6
CONTINUOUS
 10
29.9378078275
 20
2.3353523121
 40
0.0024749995
100
AcDbArc
 50
179.9999571957
 51
270.0000428043
  0
ARC
  5
3F8
100
AcDbEntity
  8
0
100
AcDbCircle
 62
7
  6
CONTINUOUS
 10
29.9581248425
 20
2.3304023131
 40
0.0024749995
100
AcDbArc
 50
359.9999571957
 51
90.0000428043
  0
ARC
  5
3F9
100
AcDbEntity
  8
0
100
AcDbCircle
 62
7
  6
CONTINUOUS
 10
29.8824607968
 20
2.3304023131
 40
0.0024749995
100
AcDbArc
 50
89.9999571957
 51
180.0000428042
  0
ARC
  5
3FA
100
AcDbEntity
  8
0
100
AcDbCircle
 62
7
  6
CONTINUOUS
 10
29.9011068109
 20
2.3353523121
 40
0.0024749995
100
AcDbArc
 50
269.9999571957
 51
0.0000428043
  0
ARC
  5
3FB
100
AcDbEntity
  8
0
100
AcDbCircle
 62
7
  6
CONTINUOUS
 10
30.2201229841
 20
2.3469023222
 40
0.0024749995
100
AcDbArc
 50
89.9999571957
 51
180.0000428042
  0
ARC
  5
3FC
100
AcDbEntity
  8
0
100
AcDbCircle
 62
7
  6
CONTINUOUS
 10
30.2201229841
 20
2.3353523121
 40
0.0024749995
100
AcDbArc
 50
179.9999571957
 51
270.0000428043
  0
ARC
  5
3FD
100
AcDbEntity
  8
0
100
AcDbCircle
 62
7
  6
CONTINUOUS
 10
30.1291839337
 20
2.3304023131
 40
0.0024749995
100
AcDbArc
 50
89.9999571958
 51
180.0000428044
  0
ARC
  5
3FE
100
AcDbEntity
  8
0
100
AcDbCircle
 62
7
  6
CONTINUOUS
 10
30.1531069506
 20
2.3353523121
 40
0.0024749995
100
AcDbArc
 50
269.9999571957
 51
0.0000428042
  0
ARC
  5
3FF
100
AcDbEntity
  8
0
100
AcDbCircle
 62
7
  6
CONTINUOUS
 10
30.2201229841
 20
2.3701573314
 40
0.0024749995
100
AcDbArc
 50
179.9999571957
 51
270.0000428043
  0
ARC
  5
400
100
AcDbEntity
  8
0
100
AcDbCircle
 62
7
  6
CONTINUOUS
 10
30.0463688914
 20
2.3817073415
 40
0.0024749995
100
AcDbArc
 50
359.9999571957
 51
90.0000428043
  0
ARC
  5
401
100
AcDbEntity
  8
0
100
AcDbCircle
 62
7
  6
CONTINUOUS
 10
30.0275928773
 20
2.3866573406
 40
0.0024749995
100
AcDbArc
 50
179.9999571957
 51
270.0000428043
  0
ARC
  5
402
100
AcDbEntity
  8
0
100
AcDbCircle
 62
7
  6
CONTINUOUS
 10
30.0275928773
 20
2.4064573553
 40
0.0024749995
100
AcDbArc
 50
89.9999571958
 51
180.0000428044
  0
ARC
  5
403
100
AcDbEntity
  8
0
100
AcDbCircle
 62
7
  6
CONTINUOUS
 10
30.1015939221
 20
2.4064573553
 40
0.0024749995
100
AcDbArc
 50
359.9999571957
 51
90.0000428043
  0
ARC
  5
404
100
AcDbEntity
  8
0
100
AcDbCircle
 62
7
  6
CONTINUOUS
 10
30.1015939221
 20
2.3866573406
 40
0.0024749995
100
AcDbArc
 50
269.9999571957
 51
0.0000428042
  0
ARC
  5
405
100
AcDbEntity
  8
0
100
AcDbCircle
 62
7
  6
CONTINUOUS
 10
30.0836609084
 20
2.3817073415
 40
0.0024749995
100
AcDbArc
 50
89.9999571957
 51
180.0000428042
  0
ARC
  5
406
100
AcDbEntity
  8
0
100
AcDbCircle
 62
7
  6
CONTINUOUS
 10
29.9011068109
 20
2.3817073415
 40
0.0024749995
100
AcDbArc
 50
359.9999571957
 51
90.0000428043
  0
ARC
  5
407
100
AcDbEntity
  8
0
100
AcDbCircle
 62
7
  6
CONTINUOUS
 10
29.8824607968
 20
2.3866573406
 40
0.0024749995
100
AcDbArc
 50
179.9999571957
 51
270.0000428043
  0
ARC
  5
408
100
AcDbEntity
  8
0
100
AcDbCircle
 62
7
  6
CONTINUOUS
 10
29.8824607968
 20
2.4064573553
 40
0.0024749995
100
AcDbArc
 50
89.9999571957
 51
180.0000428042
  0
ARC
  5
409
100
AcDbEntity
  8
0
100
AcDbCircle
 62
7
  6
CONTINUOUS
 10
30.1531069506
 20
2.3817073415
 40
0.0024749995
100
AcDbArc
 50
359.9999571957
 51
90.0000428043
  0
ARC
  5
40A
100
AcDbEntity
  8
0
100
AcDbCircle
 62
7
  6
CONTINUOUS
 10
30.1291839337
 20
2.3866573406
 40
0.0024749995
100
AcDbArc
 50
179.9999571957
 51
270.0000428043
  0
ARC
  5
40B
100
AcDbEntity
  8
0
100
AcDbCircle
 62
7
  6
CONTINUOUS
 10
30.1291839337
 20
2.4064573553
 40
0.0024749995
100
AcDbArc
 50
89.9999571958
 51
180.0000428044
  0
ARC
  5
40C
100
AcDbEntity
  8
0
100
AcDbCircle
 62
7
  6
CONTINUOUS
 10
30.2201229841
 20
2.3817073415
 40
0.0024749995
100
AcDbArc
 50
89.9999571957
 51
180.0000428042
  0
ARC
  5
40D
100
AcDbEntity
  8
0
100
AcDbCircle
 62
7
  6
CONTINUOUS
 10
29.9829189891
 20
2.406458187
 40
0.0024741678
100
AcDbArc
 50
46.3477981898
 51
90.0031206038
  0
ARC
  5
40E
100
AcDbEntity
  8
0
100
AcDbCircle
 62
7
  6
CONTINUOUS
 10
30.5425475033
 20
2.3381486337
 40
0.044722495
100
AcDbArc
 50
195.531588407
 51
204.7624440448
  0
ARC
  5
40F
100
AcDbEntity
  8
0
100
AcDbCircle
 62
7
  6
CONTINUOUS
 10
30.5345221342
 20
2.3672169603
 40
0.039319019
100
AcDbArc
 50
59.1202086415
 51
81.4730239328
  0
ARC
  5
410
100
AcDbEntity
  8
0
100
AcDbCircle
 62
7
  6
CONTINUOUS
 10
30.5597433003
 20
2.3455873536
 40
0.0383802683
100
AcDbArc
 50
288.7656836787
 51
309.6104317088
  0
ARC
  5
411
100
AcDbEntity
  8
0
100
AcDbCircle
 62
7
  6
CONTINUOUS
 10
30.5401815304
 20
2.3735516295
 40
0.0310192946
100
AcDbArc
 50
34.7540871
 51
62.0879016178
  0
ARC
  5
412
100
AcDbEntity
  8
0
100
AcDbCircle
 62
7
  6
CONTINUOUS
 10
30.4854682464
 20
2.3557278621
 40
0.0284963867
100
AcDbArc
 50
70.3834917948
 51
86.8922743861
  0
ARC
  5
413
100
AcDbEntity
  8
0
100
AcDbCircle
 62
7
  6
CONTINUOUS
 10
30.5667354857
 20
2.3379861357
 40
0.0280715479
100
AcDbArc
 50
308.5071794988
 51
332.2400656899
  0
ARC
  5
414
100
AcDbEntity
  8
0
100
AcDbCircle
 62
7
  6
CONTINUOUS
 10
30.5368857139
 20
2.3335551921
 40
0.0266349791
100
AcDbArc
 50
20.3630922153
 51
37.9727053099
  0
ARC
  5
415
100
AcDbEntity
  8
0
100
AcDbCircle
 62
7
  6
CONTINUOUS
 10
30.5380060695
 20
2.3336282752
 40
0.0257145923
100
AcDbArc
 50
39.3804255939
 51
59.0361096173
  0
ARC
  5
416
100
AcDbEntity
  8
0
100
AcDbCircle
 62
7
  6
CONTINUOUS
 10
30.5226660372
 20
2.3312997545
 40
0.0238935861
100
AcDbArc
 50
209.8247607259
 51
235.1255079367
  0
ARC
  5
417
100
AcDbEntity
  8
0
100
AcDbCircle
 62
7
  6
CONTINUOUS
 10
30.5760424965
 20
2.3330916303
 40
0.0175560065
100
AcDbArc
 50
332.2279060967
 51
359.6595469939
  0
ARC
  5
418
100
AcDbEntity
  8
0
100
AcDbCircle
 62
7
  6
CONTINUOUS
 10
30.4820412509
 20
2.3314168585
 40
0.0151491919
100
AcDbArc
 50
24.098260853
 51
63.0369451818
  0
ARC
  5
419
100
AcDbEntity
  8
0
100
AcDbCircle
 62
7
  6
CONTINUOUS
 10
30.5775555073
 20
2.3420167666
 40
0.0147197649
100
AcDbArc
 50
192.7054516565
 51
206.0594861022
  0
ARC
  5
41A
100
AcDbEntity
  8
0
100
AcDbCircle
 62
7
  6
CONTINUOUS
 10
30.4903278565
 20
2.368769595
 40
0.0145814632
100
AcDbArc
 50
54.6746025112
 51
71.1660573124
  0
ARC
  5
41B
100
AcDbEntity
  8
0
100
AcDbCircle
 62
7
  6
CONTINUOUS
 10
30.5681966244
 20
2.3465129721
 40
0.0132488022
100
AcDbArc
 50
270.266200055
 51
281.2404888597
  0
ARC
  5
41C
100
AcDbEntity
  8
0
100
AcDbCircle
 62
7
  6
CONTINUOUS
 10
30.5645908704
 20
2.3416694937
 40
0.0119498009
100
AcDbArc
 50
340.7883861657
 51
1.1691452593
  0
ARC
  5
41D
100
AcDbEntity
  8
0
100
AcDbCircle
 62
7
  6
CONTINUOUS
 10
30.4913804799
 20
2.3798114865
 40
0.0110815393
100
AcDbArc
 50
306.758405961
 51
320.4502234234
  0
ARC
  5
41E
100
AcDbEntity
  8
0
100
AcDbCircle
 62
7
  6
CONTINUOUS
 10
30.5693908654
 20
2.3407762785
 40
0.0073895522
100
AcDbArc
 50
280.8288201977
 51
305.0837508495
  0
ARC
  5
41F
100
AcDbEntity
  8
0
100
AcDbCircle
 62
7
  6
CONTINUOUS
 10
30.5697920471
 20
2.3399254321
 40
0.0064647042
100
AcDbArc
 50
306.5086174083
 51
340.2162360092
  0
ARC
  5
420
100
AcDbEntity
  8
0
100
AcDbCircle
 62
7
  6
CONTINUOUS
 10
30.4954573475
 20
2.3756235202
 40
0.0060275915
100
AcDbArc
 50
20.9055592135
 51
56.7851676243
  0
ARC
  5
421
100
AcDbEntity
  8
0
100
AcDbCircle
 62
7
  6
CONTINUOUS
 10
30.495551096
 20
2.3765775787
 40
0.0058087709
100
AcDbArc
 50
318.8515287446
 51
353.6422345323
  0
ARC
  5
422
100
AcDbEntity
  8
0
100
AcDbCircle
 62
7
  6
CONTINUOUS
 10
30.5690611702
 20
2.3378082802
 40
0.0052403997
100
AcDbArc
 50
205.5232099488
 51
227.5054868079
  0
ARC
  5
423
100
AcDbEntity
  8
0
100
AcDbCircle
 62
7
  6
CONTINUOUS
 10
30.4967579063
 20
2.3762838024
 40
0.0045795888
100
AcDbArc
 50
355.6235353944
 51
18.9942678268
  0
ARC
  5
424
100
AcDbEntity
  8
0
100
AcDbCircle
 62
7
  6
CONTINUOUS
 10
30.5673328709
 20
2.3359929075
 40
0.0027347709
100
AcDbArc
 50
228.5117626738
 51
266.1485845755
  0
ARC
  5
425
100
AcDbEntity
  8
0
100
AcDbCircle
 62
7
  6
CONTINUOUS
 10
30.4502121117
 20
2.3450293212
 40
0.0024749995
100
AcDbArc
 50
89.9999571958
 51
180.0000428044
  0
ARC
  5
426
100
AcDbEntity
  8
0
100
AcDbCircle
 62
7
  6
CONTINUOUS
 10
30.4502121117
 20
2.3353303121
 40
0.0024749995
100
AcDbArc
 50
179.9999571957
 51
270.0000428043
  0
ARC
  5
427
100
AcDbEntity
  8
0
100
AcDbCircle
 62
7
  6
CONTINUOUS
 10
30.4748711291
 20
2.3303803131
 40
0.0024749995
100
AcDbArc
 50
359.9999571957
 51
90.0000428043
  0
ARC
  5
428
100
AcDbEntity
  8
0
100
AcDbCircle
 62
7
  6
CONTINUOUS
 10
30.3613000624
 20
2.3304023131
 40
0.0024749995
100
AcDbArc
 50
89.9999571957
 51
180.0000428042
  0
ARC
  5
429
100
AcDbEntity
  8
0
100
AcDbCircle
 62
7
  6
CONTINUOUS
 10
30.3840460787
 20
2.3353523121
 40
0.0024749995
100
AcDbArc
 50
269.9999571957
 51
0.0000428042
  0
ARC
  5
42A
100
AcDbEntity
  8
0
100
AcDbCircle
 62
7
  6
CONTINUOUS
 10
30.5790131831
 20
2.3445393209
 40
0.0024749995
100
AcDbArc
 50
89.9999571957
 51
180.0000428043
  0
ARC
  5
42B
100
AcDbEntity
  8
0
100
AcDbCircle
 62
7
  6
CONTINUOUS
 10
30.5911231935
 20
2.3445393209
 40
0.0024749995
100
AcDbArc
 50
359.9999571957
 51
90.0000428043
  0
ARC
  5
42C
100
AcDbEntity
  8
0
100
AcDbCircle
 62
7
  6
CONTINUOUS
 10
30.4502121117
 20
2.3689823308
 40
0.0024749995
100
AcDbArc
 50
179.9999571957
 51
270.0000428043
  0
ARC
  5
42D
100
AcDbEntity
  8
0
100
AcDbCircle
 62
7
  6
CONTINUOUS
 10
30.2851270238
 20
2.3353523121
 40
0.0024749995
100
AcDbArc
 50
269.9999571957
 51
0.0000428043
  0
ARC
  5
42E
100
AcDbEntity
  8
0
100
AcDbCircle
 62
7
  6
CONTINUOUS
 10
30.2900770229
 20
2.3436023204
 40
0.0024749995
100
AcDbArc
 50
89.9999571957
 51
180.0000428042
  0
ARC
  5
42F
100
AcDbEntity
  8
0
100
AcDbCircle
 62
7
  6
CONTINUOUS
 10
30.33239605
 20
2.3436023204
 40
0.0024749995
100
AcDbArc
 50
359.9999571957
 51
90.0000428043
  0
ARC
  5
430
100
AcDbEntity
  8
0
100
AcDbCircle
 62
7
  6
CONTINUOUS
 10
30.3309770493
 20
2.3734573333
 40
0.0024749995
100
AcDbArc
 50
269.9999571957
 51
0.0000428042
  0
ARC
  5
431
100
AcDbEntity
  8
0
100
AcDbCircle
 62
7
  6
CONTINUOUS
 10
30.2891130223
 20
2.3734573333
 40
0.0024749995
100
AcDbArc
 50
179.9999571957
 51
270.0000428043
  0
ARC
  5
432
100
AcDbEntity
  8
0
100
AcDbCircle
 62
7
  6
CONTINUOUS
 10
30.2552900073
 20
2.3652073324
 40
0.0024749995
100
AcDbArc
 50
359.9999571957
 51
90.0000428043
  0
ARC
  5
433
100
AcDbEntity
  8
0
100
AcDbCircle
 62
7
  6
CONTINUOUS
 10
30.2552900073
 20
2.3518523213
 40
0.0024749995
100
AcDbArc
 50
269.9999571957
 51
0.0000428042
  0
ARC
  5
434
100
AcDbEntity
  8
0
100
AcDbCircle
 62
7
  6
CONTINUOUS
 10
30.5138242828
 20
2.4321551202
 40
0.0789082104
100
AcDbArc
 50
292.906155071
 51
305.2574666259
  0
ARC
  5
435
100
AcDbEntity
  8
0
100
AcDbCircle
 62
7
  6
CONTINUOUS
 10
30.5441562204
 20
2.3889482705
 40
0.0261183659
100
AcDbArc
 50
305.6373831893
 51
329.9727629745
  0
ARC
  5
436
100
AcDbEntity
  8
0
100
AcDbCircle
 62
7
  6
CONTINUOUS
 10
30.4838237832
 20
2.3919459623
 40
0.0254407115
100
AcDbArc
 50
270.7327484175
 51
290.441894219
  0
ARC
  5
437
100
AcDbEntity
  8
0
100
AcDbCircle
 62
7
  6
CONTINUOUS
 10
30.4857512889
 20
2.387552315
 40
0.0206523367
100
AcDbArc
 50
289.6883413472
 51
306.4184925496
  0
ARC
  5
438
100
AcDbEntity
  8
0
100
AcDbCircle
 62
7
  6
CONTINUOUS
 10
30.5518702816
 20
2.3821012306
 40
0.0165459396
100
AcDbArc
 50
1.548452892
 51
33.5033152417
  0
ARC
  5
439
100
AcDbEntity
  8
0
100
AcDbCircle
 62
7
  6
CONTINUOUS
 10
30.5551668767
 20
2.3822696828
 40
0.0132462337
100
AcDbArc
 50
331.1510006998
 51
1.205404301
  0
ARC
  5
43A
100
AcDbEntity
  8
0
100
AcDbCircle
 62
7
  6
CONTINUOUS
 10
30.3840460787
 20
2.3817073415
 40
0.0024749995
100
AcDbArc
 50
359.9999571957
 51
90.0000428043
  0
ARC
  5
43B
100
AcDbEntity
  8
0
100
AcDbCircle
 62
7
  6
CONTINUOUS
 10
30.3613000624
 20
2.3866573406
 40
0.0024749995
100
AcDbArc
 50
179.9999571957
 51
270.0000428043
  0
ARC
  5
43C
100
AcDbEntity
  8
0
100
AcDbCircle
 62
7
  6
CONTINUOUS
 10
30.3613000624
 20
2.4064573553
 40
0.0024749995
100
AcDbArc
 50
89.9999571957
 51
180.0000428042
  0
ARC
  5
43D
100
AcDbEntity
  8
0
100
AcDbCircle
 62
7
  6
CONTINUOUS
 10
30.4502121117
 20
2.3817073415
 40
0.0024749995
100
AcDbArc
 50
89.9999571958
 51
180.0000428044
  0
ARC
  5
43E
100
AcDbEntity
  8
0
100
AcDbCircle
 62
7
  6
CONTINUOUS
 10
30.3309770493
 20
2.4064573553
 40
0.0024749995
100
AcDbArc
 50
359.9999571957
 51
90.0000428043
  0
ARC
  5
43F
100
AcDbEntity
  8
0
100
AcDbCircle
 62
7
  6
CONTINUOUS
 10
30.2841630233
 20
2.3817073415
 40
0.0024749995
100
AcDbArc
 50
359.9999571957
 51
90.0000428043
  0
ELLIPSE
  5
440
100
AcDbEntity
  8
0
100
AcDbEllipse
 62
7
  6
CONTINUOUS
 10
29.8665327899
 20
2.3572783261
 30
0.0
 11
-0.8250004575
 21
0.0
 31
0.0
 40
0.218572
 41
0.0
 42
6.2831853072
  0
HATCH
  5
441
100
AcDbEntity
  8
0
100
AcDbHatch
 62
7
  6
CONTINUOUS
 10
0.0
 20
0.0
 30
0.0
210
0.0
220
0.0
230
1.0
  2
XSEC0003
 70
1
 71
1
 91
11
 92
1
 93
57
 72
2
 10
30.5195674723
 20
2.3254494505
 40
0.0173408616
 50
232.4713476722
 51
267.338189944
 73
1
 72
2
 10
30.5226660372
 20
2.3312997545
 40
0.0238935861
 50
209.8247607259
 51
235.1255079367
 73
1
 72
2
 10
30.5425475033
 20
2.3381486337
 40
0.044722495
 50
195.531588407
 51
204.7624440448
 73
1
 72
1
 10
30.4994581408
 20
2.3261733089
 11
30.4976541398
 21
2.3322423123
 72
2
 10
30.4592749426
 20
2.3224452318
 40
0.0396099176
 50
14.3201081283
 51
22.4984722084
 73
1
 72
2
 10
30.4820412509
 20
2.3314168585
 40
0.0151491919
 50
24.098260853
 51
63.0369451818
 73
1
 72
2
 10
30.4779865962
 20
2.323137238
 40
0.0243676582
 50
63.3666028271
 51
90.3937697637
 73
1
 72
1
 10
30.4778191288
 20
2.3475043207
 11
30.4502121135
 21
2.3475043207
 72
2
 10
30.4502121117
 20
2.3450293212
 40
0.0024749995
 50
89.9999571958
 51
180.0000428044
 73
1
 72
1
 10
30.4477371122
 20
2.3450293194
 11
30.4477371122
 21
2.335330314
 72
2
 10
30.4502121117
 20
2.3353303121
 40
0.0024749995
 50
179.9999571957
 51
270.0000428043
 73
1
 72
1
 10
30.4502121135
 20
2.3328553126
 11
30.4748711272
 21
2.3328553126
 72
2
 10
30.4748711291
 20
2.3303803131
 40
0.0024749995
 50
359.9999571957
 51
90.0000428042
 73
1
 72
1
 10
30.4773461286
 20
2.3303803112
 11
30.4773461286
 21
2.3106023003
 72
2
 10
30.4748711291
 20
2.3106022984
 40
0.0024749995
 50
269.9999571958
 51
0.0000428044
 73
1
 72
1
 10
30.4748711272
 20
2.3081272989
 11
30.3613000642
 21
2.3081272989
 72
2
 10
30.3613000624
 20
2.3106022984
 40
0.0024749995
 50
179.9999571957
 51
270.0000428043
 73
1
 72
1
 10
30.3588250629
 20
2.3106023003
 11
30.3588250629
 21
2.3304023112
 72
2
 10
30.3613000624
 20
2.3304023131
 40
0.0024749995
 50
89.9999571956
 51
180.0000428042
 73
1
 72
1
 10
30.3613000642
 20
2.3328773126
 11
30.3840460768
 21
2.3328773126
 72
2
 10
30.3840460787
 20
2.3353523121
 40
0.0024749995
 50
269.9999571956
 51
0.0000428042
 73
1
 72
1
 10
30.3865210782
 20
2.335352314
 11
30.3865210782
 21
2.3817073397
 72
2
 10
30.3840460787
 20
2.3817073415
 40
0.0024749995
 50
359.9999571957
 51
90.0000428042
 73
1
 72
1
 10
30.3840460768
 20
2.3841823411
 11
30.3613000642
 21
2.3841823411
 72
2
 10
30.3613000624
 20
2.3866573406
 40
0.0024749995
 50
179.9999571957
 51
270.0000428043
 73
1
 72
1
 10
30.3588250629
 20
2.3866573424
 11
30.3588250629
 21
2.4064573534
 72
2
 10
30.3613000624
 20
2.4064573553
 40
0.0024749995
 50
89.9999571956
 51
180.0000428042
 73
1
 72
1
 10
30.3613000642
 20
2.4089323548
 11
30.5108811472
 21
2.4089323548
 72
2
 10
30.5082178439
 20
2.2263934443
 40
0.1825583387
 50
79.8618509324
 51
89.1640948679
 73
1
 72
2
 10
30.5345221342
 20
2.3672169603
 40
0.039319019
 50
59.1202086415
 51
81.4730239328
 73
1
 72
2
 10
30.5401815304
 20
2.3735516295
 40
0.0310192946
 50
34.7540871
 51
62.0879016178
 73
1
 72
2
 10
30.5518702816
 20
2.3821012306
 40
0.0165459396
 50
1.548452892
 51
33.5033152417
 73
1
 72
2
 10
30.5551668767
 20
2.3822696828
 40
0.0132462337
 50
331.1510006998
 51
1.205404301
 73
1
 72
2
 10
30.5441562204
 20
2.3889482705
 40
0.0261183659
 50
305.6373831893
 51
329.9727629745
 73
1
 72
2
 10
30.5138242828
 20
2.4321551202
 40
0.0789082104
 50
292.9061550709
 51
305.2574666259
 73
1
 72
2
 10
30.4901231168
 20
2.2555010151
 40
0.117346916
 50
58.614769177
 51
62.3737227606
 73
1
 72
2
 10
30.5380060695
 20
2.3336282752
 40
0.0257145923
 50
39.3804255939
 51
59.0361096173
 73
1
 72
2
 10
30.5368857139
 20
2.3335551921
 40
0.0266349791
 50
20.3630922153
 51
37.9727053099
 73
1
 72
2
 10
30.5189851722
 20
2.3263737837
 40
0.0459185159
 50
15.6740290068
 51
20.9917271228
 73
1
 72
2
 10
30.5775555073
 20
2.3420167666
 40
0.0147197649
 50
192.7054516565
 51
206.0594861022
 73
1
 72
2
 10
30.5690611702
 20
2.3378082802
 40
0.0052403997
 50
205.5232099488
 51
227.5054868079
 73
1
 72
2
 10
30.5673328709
 20
2.3359929075
 40
0.0027347709
 50
228.5117626738
 51
266.1485845755
 73
1
 72
1
 10
30.5671491784
 20
2.3332643128
 11
30.568258179
 21
2.3332643128
 72
2
 10
30.5681966244
 20
2.3465129721
 40
0.0132488022
 50
270.266200055
 51
281.2404888597
 73
1
 72
2
 10
30.5693908654
 20
2.3407762785
 40
0.0073895522
 50
280.8288201977
 51
305.0837508495
 73
1
 72
2
 10
30.5697920471
 20
2.3399254321
 40
0.0064647042
 50
306.5086174083
 51
340.2162360092
 73
1
 72
2
 10
30.5645908704
 20
2.3416694937
 40
0.0119498009
 50
340.7883861657
 51
1.1691452593
 73
1
 72
1
 10
30.5765381836
 20
2.3419133176
 11
30.5765381836
 21
2.3445393191
 72
2
 10
30.5790131831
 20
2.3445393209
 40
0.0024749995
 50
89.9999571958
 51
180.0000428043
 73
1
 72
1
 10
30.579013185
 20
2.3470143205
 11
30.5911231917
 21
2.3470143205
 72
2
 10
30.5911231935
 20
2.3445393209
 40
0.0024749995
 50
359.9999571957
 51
90.0000428042
 73
1
 72
1
 10
30.5935981931
 20
2.3445393191
 11
30.5935981931
 21
2.3329873127
 72
2
 10
30.5760424965
 20
2.3330916303
 40
0.0175560065
 50
332.2279060967
 51
359.6595469939
 73
1
 72
2
 10
30.5667354857
 20
2.3379861357
 40
0.0280715479
 50
308.5071794988
 51
332.2400656899
 73
1
 72
2
 10
30.5597433003
 20
2.3455873536
 40
0.0383802683
 50
288.7656836787
 51
309.6104317088
 73
1
 72
2
 10
30.5654812677
 20
2.3280006042
 40
0.0198837666
 50
271.8586572978
 51
289.4131338543
 73
1
 72
1
 10
30.5661261778
 20
2.3081272989
 11
30.5187621516
 21
2.3081272989
 97
267
330
336
330
337
330
338
330
339
330
33A
330
33B
330
33C
330
33D
330
33E
330
33F
330
340
330
341
330
342
330
343
330
344
330
345
330
346
330
347
330
348
330
349
330
34A
330
34B
330
34C
330
34D
330
34E
330
34F
330
350
330
351
330
352
330
353
330
354
330
355
330
356
330
357
330
358
330
359
330
35A
330
35B
330
35C
330
35D
330
35E
330
35F
330
360
330
361
330
362
330
363
330
364
330
365
330
366
330
367
330
368
330
369
330
36A
330
36B
330
36C
330
36D
330
36E
330
36F
330
370
330
371
330
372
330
373
330
374
330
375
330
376
330
377
330
378
330
379
330
37A
330
37B
330
37C
330
37D
330
37E
330
37F
330
380
330
381
330
382
330
383
330
384
330
385
330
386
330
387
330
388
330
389
330
38A
330
38B
330
38C
330
38D
330
38E
330
38F
330
390
330
391
330
392
330
393
330
394
330
395
330
396
330
397
330
398
330
399
330
39A
330
39B
330
39C
330
39D
330
39E
330
39F
330
3A0
330
3A1
330
3A2
330
3A3
330
3A4
330
3A5
330
3A6
330
3A7
330
3A8
330
3A9
330
3AA
330
3AB
330
3AC
330
3AD
330
3AE
330
3AF
330
3B0
330
3B1
330
3B2
330
3B3
330
3B4
330
3B5
330
3B6
330
3B7
330
3B8
330
3B9
330
3BA
330
3BB
330
3BC
330
3BD
330
3BE
330
3BF
330
3C0
330
3C1
330
3C2
330
3C3
330
3C4
330
3C5
330
3C6
330
3C7
330
3C8
330
3C9
330
3CA
330
3CB
330
3CC
330
3CD
330
3CE
330
3CF
330
3D0
330
3D1
330
3D2
330
3D3
330
3D4
330
3D5
330
3D6
330
3D7
330
3D8
330
3D9
330
3DA
330
3DB
330
3DC
330
3DD
330
3DE
330
3DF
330
3E0
330
3E1
330
3E2
330
3E3
330
3E4
330
3E5
330
3E6
330
3E7
330
3E8
330
3E9
330
3EA
330
3EB
330
3EC
330
3ED
330
3EE
330
3EF
330
3F0
330
3F1
330
3F2
330
3F3
330
3F4
330
3F5
330
3F6
330
3F7
330
3F8
330
3F9
330
3FA
330
3FB
330
3FC
330
3FD
330
3FE
330
3FF
330
400
330
401
330
402
330
403
330
404
330
405
330
406
330
407
330
408
330
409
330
40A
330
40B
330
40C
330
40D
330
40E
330
40F
330
410
330
411
330
412
330
413
330
414
330
415
330
416
330
417
330
418
330
419
330
41A
330
41B
330
41C
330
41D
330
41E
330
41F
330
420
330
421
330
422
330
423
330
424
330
425
330
426
330
427
330
428
330
429
330
42A
330
42B
330
42C
330
42D
330
42E
330
42F
330
430
330
431
330
432
330
433
330
434
330
435
330
436
330
437
330
438
330
439
330
43A
330
43B
330
43C
330
43D
330
43E
330
43F
330
440
 92
1
 93
40
 72
2
 10
30.1291839337
 20
2.3106022984
 40
0.0024749995
 50
179.9999571957
 51
270.0000428043
 73
1
 72
1
 10
30.1267089341
 20
2.3106023003
 11
30.1267089341
 21
2.3304023112
 72
2
 10
30.1291839337
 20
2.3304023131
 40
0.0024749995
 50
89.9999571958
 51
180.0000428044
 73
1
 72
1
 10
30.1291839355
 20
2.3328773126
 11
30.1531069488
 21
2.3328773126
 72
2
 10
30.1531069506
 20
2.3353523121
 40
0.0024749995
 50
269.9999571956
 51
0.0000428042
 73
1
 72
1
 10
30.1555819501
 20
2.335352314
 11
30.1555819501
 21
2.3817073397
 72
2
 10
30.1531069506
 20
2.3817073415
 40
0.0024749995
 50
359.9999571957
 51
90.0000428043
 73
1
 72
1
 10
30.1531069488
 20
2.3841823411
 11
30.1291839355
 21
2.3841823411
 72
2
 10
30.1291839337
 20
2.3866573406
 40
0.0024749995
 50
179.9999571957
 51
270.0000428043
 73
1
 72
1
 10
30.1267089341
 20
2.3866573424
 11
30.1267089341
 21
2.4064573534
 72
2
 10
30.1291839337
 20
2.4064573553
 40
0.0024749995
 50
89.9999571958
 51
180.0000428044
 73
1
 72
1
 10
30.1291839355
 20
2.4089323548
 11
30.3309770474
 21
2.4089323548
 72
2
 10
30.3309770493
 20
2.4064573553
 40
0.0024749995
 50
359.9999571957
 51
90.0000428042
 73
1
 72
1
 10
30.3334520488
 20
2.4064573534
 11
30.3334520488
 21
2.3734573351
 72
2
 10
30.3309770493
 20
2.3734573333
 40
0.0024749995
 50
269.9999571957
 51
0.0000428042
 73
1
 72
1
 10
30.3309770474
 20
2.3709823337
 11
30.2891130242
 21
2.3709823337
 72
2
 10
30.2891130223
 20
2.3734573333
 40
0.0024749995
 50
179.9999571957
 51
270.0000428042
 73
1
 72
1
 10
30.2866380228
 20
2.3734573351
 11
30.2866380228
 21
2.3817073397
 72
2
 10
30.2841630233
 20
2.3817073415
 40
0.0024749995
 50
359.9999571957
 51
90.0000428042
 73
1
 72
1
 10
30.2841630215
 20
2.3841823411
 11
30.2201229859
 21
2.3841823411
 72
2
 10
30.2201229841
 20
2.3817073415
 40
0.0024749995
 50
89.9999571957
 51
180.0000428042
 73
1
 72
1
 10
30.2176479846
 20
2.3817073397
 11
30.2176479846
 21
2.3701573333
 72
2
 10
30.2201229841
 20
2.3701573314
 40
0.0024749995
 50
179.9999571957
 51
270.0000428042
 73
1
 72
1
 10
30.2201229859
 20
2.3676823319
 11
30.2552900054
 21
2.3676823319
 72
2
 10
30.2552900073
 20
2.3652073324
 40
0.0024749995
 50
359.9999571957
 51
90.0000428042
 73
1
 72
1
 10
30.2577650068
 20
2.3652073305
 11
30.2577650068
 21
2.3518523231
 72
2
 10
30.2552900073
 20
2.3518523213
 40
0.0024749995
 50
269.9999571956
 51
0.0000428042
 73
1
 72
1
 10
30.2552900054
 20
2.3493773218
 11
30.2201229859
 21
2.3493773218
 72
2
 10
30.2201229841
 20
2.3469023222
 40
0.0024749995
 50
89.9999571957
 51
180.0000428042
 73
1
 72
1
 10
30.2176479846
 20
2.3469023204
 11
30.2176479846
 21
2.335352314
 72
2
 10
30.2201229841
 20
2.3353523121
 40
0.0024749995
 50
179.9999571957
 51
270.0000428042
 73
1
 72
1
 10
30.2201229859
 20
2.3328773126
 11
30.285127022
 21
2.3328773126
 72
2
 10
30.2851270238
 20
2.3353523121
 40
0.0024749995
 50
269.9999571957
 51
0.0000428043
 73
1
 72
1
 10
30.2876020234
 20
2.335352314
 11
30.2876020234
 21
2.3436023186
 72
2
 10
30.2900770229
 20
2.3436023204
 40
0.0024749995
 50
89.9999571956
 51
180.0000428042
 73
1
 72
1
 10
30.2900770247
 20
2.3460773199
 11
30.3323960482
 21
2.3460773199
 72
2
 10
30.33239605
 20
2.3436023204
 40
0.0024749995
 50
359.9999571957
 51
90.0000428043
 73
1
 72
1
 10
30.3348710496
 20
2.3436023186
 11
30.3348710496
 21
2.3106023003
 72
2
 10
30.33239605
 20
2.3106022984
 40
0.0024749995
 50
269.9999571956
 51
0.0000428042
 73
1
 72
1
 10
30.3323960482
 20
2.3081272989
 11
30.1291839355
 21
2.3081272989
 97
267
330
336
330
337
330
338
330
339
330
33A
330
33B
330
33C
330
33D
330
33E
330
33F
330
340
330
341
330
342
330
343
330
344
330
345
330
346
330
347
330
348
330
349
330
34A
330
34B
330
34C
330
34D
330
34E
330
34F
330
350
330
351
330
352
330
353
330
354
330
355
330
356
330
357
330
358
330
359
330
35A
330
35B
330
35C
330
35D
330
35E
330
35F
330
360
330
361
330
362
330
363
330
364
330
365
330
366
330
367
330
368
330
369
330
36A
330
36B
330
36C
330
36D
330
36E
330
36F
330
370
330
371
330
372
330
373
330
374
330
375
330
376
330
377
330
378
330
379
330
37A
330
37B
330
37C
330
37D
330
37E
330
37F
330
380
330
381
330
382
330
383
330
384
330
385
330
386
330
387
330
388
330
389
330
38A
330
38B
330
38C
330
38D
330
38E
330
38F
330
390
330
391
330
392
330
393
330
394
330
395
330
396
330
397
330
398
330
399
330
39A
330
39B
330
39C
330
39D
330
39E
330
39F
330
3A0
330
3A1
330
3A2
330
3A3
330
3A4
330
3A5
330
3A6
330
3A7
330
3A8
330
3A9
330
3AA
330
3AB
330
3AC
330
3AD
330
3AE
330
3AF
330
3B0
330
3B1
330
3B2
330
3B3
330
3B4
330
3B5
330
3B6
330
3B7
330
3B8
330
3B9
330
3BA
330
3BB
330
3BC
330
3BD
330
3BE
330
3BF
330
3C0
330
3C1
330
3C2
330
3C3
330
3C4
330
3C5
330
3C6
330
3C7
330
3C8
330
3C9
330
3CA
330
3CB
330
3CC
330
3CD
330
3CE
330
3CF
330
3D0
330
3D1
330
3D2
330
3D3
330
3D4
330
3D5
330
3D6
330
3D7
330
3D8
330
3D9
330
3DA
330
3DB
330
3DC
330
3DD
330
3DE
330
3DF
330
3E0
330
3E1
330
3E2
330
3E3
330
3E4
330
3E5
330
3E6
330
3E7
330
3E8
330
3E9
330
3EA
330
3EB
330
3EC
330
3ED
330
3EE
330
3EF
330
3F0
330
3F1
330
3F2
330
3F3
330
3F4
330
3F5
330
3F6
330
3F7
330
3F8
330
3F9
330
3FA
330
3FB
330
3FC
330
3FD
330
3FE
330
3FF
330
400
330
401
330
402
330
403
330
404
330
405
330
406
330
407
330
408
330
409
330
40A
330
40B
330
40C
330
40D
330
40E
330
40F
330
410
330
411
330
412
330
413
330
414
330
415
330
416
330
417
330
418
330
419
330
41A
330
41B
330
41C
330
41D
330
41E
330
41F
330
420
330
421
330
422
330
423
330
424
330
425
330
426
330
427
330
428
330
429
330
42A
330
42B
330
42C
330
42D
330
42E
330
42F
330
430
330
431
330
432
330
433
330
434
330
435
330
436
330
437
330
438
330
439
330
43A
330
43B
330
43C
330
43D
330
43E
330
43F
330
440
 92
1
 93
40
 72
2
 10
30.0045047316
 20
2.3106014667
 40
0.0024741678
 50
226.3477981898
 51
270.0031206038
 73
1
 72
1
 10
30.0027968654
 20
2.3088112993
 11
29.9395168303
 21
2.3691893327
 72
2
 10
29.9378081294
 20
2.367398395
 40
0.0024753014
 50
46.3461263058
 51
180.0014637321
 73
1
 72
1
 10
29.935332828
 20
2.3673983318
 11
29.935332828
 21
2.335352314
 72
2
 10
29.9378078275
 20
2.3353523121
 40
0.0024749995
 50
179.9999571957
 51
270.0000428043
 73
1
 72
1
 10
29.9378078294
 20
2.3328773126
 11
29.9581248406
 21
2.3328773126
 72
2
 10
29.9581248425
 20
2.3304023131
 40
0.0024749995
 50
359.9999571957
 51
90.0000428043
 73
1
 72
1
 10
29.960599842
 20
2.3304023112
 11
29.960599842
 21
2.3106023003
 72
2
 10
29.9581248425
 20
2.3106022984
 40
0.0024749995
 50
269.9999571957
 51
0.0000428043
 73
1
 72
1
 10
29.9581248406
 20
2.3081272989
 11
29.8824607987
 21
2.3081272989
 72
2
 10
29.8824607968
 20
2.3106022984
 40
0.0024749995
 50
179.9999571957
 51
270.0000428042
 73
1
 72
1
 10
29.8799857973
 20
2.3106023003
 11
29.8799857973
 21
2.3304023112
 72
2
 10
29.8824607968
 20
2.3304023131
 40
0.0024749995
 50
89.9999571957
 51
180.0000428042
 73
1
 72
1
 10
29.8824607987
 20
2.3328773126
 11
29.901106809
 21
2.3328773126
 72
2
 10
29.9011068109
 20
2.3353523121
 40
0.0024749995
 50
269.9999571958
 51
0.0000428043
 73
1
 72
1
 10
29.9035818104
 20
2.335352314
 11
29.9035818104
 21
2.3817073397
 72
2
 10
29.9011068109
 20
2.3817073415
 40
0.0024749995
 50
359.9999571957
 51
90.0000428042
 73
1
 72
1
 10
29.901106809
 20
2.3841823411
 11
29.8824607987
 21
2.3841823411
 72
2
 10
29.8824607968
 20
2.3866573406
 40
0.0024749995
 50
179.9999571957
 51
270.0000428042
 73
1
 72
1
 10
29.8799857973
 20
2.3866573424
 11
29.8799857973
 21
2.4064573534
 72
2
 10
29.8824607968
 20
2.4064573553
 40
0.0024749995
 50
89.9999571957
 51
180.0000428042
 73
1
 72
1
 10
29.8824607987
 20
2.4089323548
 11
29.9829188544
 21
2.4089323548
 72
2
 10
29.9829189891
 20
2.406458187
 40
0.0024741678
 50
46.3477981898
 51
90.0031206038
 73
1
 72
1
 10
29.9846268553
 20
2.4082483544
 11
30.0446598886
 21
2.3509683226
 72
2
 10
30.0463685896
 20
2.3527592604
 40
0.0024753014
 50
226.3461263059
 51
0.0014637321
 73
1
 72
1
 10
30.048843891
 20
2.3527593236
 11
30.048843891
 21
2.3817073397
 72
2
 10
30.0463688914
 20
2.3817073415
 40
0.0024749995
 50
359.9999571957
 51
90.0000428042
 73
1
 72
1
 10
30.0463688896
 20
2.3841823411
 11
30.0275928792
 21
2.3841823411
 72
2
 10
30.0275928773
 20
2.3866573406
 40
0.0024749995
 50
179.9999571957
 51
270.0000428043
 73
1
 72
1
 10
30.0251178778
 20
2.3866573424
 11
30.0251178778
 21
2.4064573534
 72
2
 10
30.0275928773
 20
2.4064573553
 40
0.0024749995
 50
89.9999571958
 51
180.0000428044
 73
1
 72
1
 10
30.0275928792
 20
2.4089323548
 11
30.1015939202
 21
2.4089323548
 72
2
 10
30.1015939221
 20
2.4064573553
 40
0.0024749995
 50
359.9999571957
 51
90.0000428043
 73
1
 72
1
 10
30.1040689216
 20
2.4064573534
 11
30.1040689216
 21
2.3866573424
 72
2
 10
30.1015939221
 20
2.3866573406
 40
0.0024749995
 50
269.9999571956
 51
0.0000428042
 73
1
 72
1
 10
30.1015939202
 20
2.3841823411
 11
30.0836609103
 21
2.3841823411
 72
2
 10
30.0836609084
 20
2.3817073415
 40
0.0024749995
 50
89.9999571957
 51
180.0000428042
 73
1
 72
1
 10
30.0811859089
 20
2.3817073397
 11
30.0811859089
 21
2.3106023003
 72
2
 10
30.0787109094
 20
2.3106022984
 40
0.0024749995
 50
269.9999571958
 51
0.0000428043
 73
1
 72
1
 10
30.0787109075
 20
2.3081272989
 11
30.0045048664
 21
2.3081272989
 97
267
330
336
330
337
330
338
330
339
330
33A
330
33B
330
33C
330
33D
330
33E
330
33F
330
340
330
341
330
342
330
343
330
344
330
345
330
346
330
347
330
348
330
349
330
34A
330
34B
330
34C
330
34D
330
34E
330
34F
330
350
330
351
330
352
330
353
330
354
330
355
330
356
330
357
330
358
330
359
330
35A
330
35B
330
35C
330
35D
330
35E
330
35F
330
360
330
361
330
362
330
363
330
364
330
365
330
366
330
367
330
368
330
369
330
36A
330
36B
330
36C
330
36D
330
36E
330
36F
330
370
330
371
330
372
330
373
330
374
330
375
330
376
330
377
330
378
330
379
330
37A
330
37B
330
37C
330
37D
330
37E
330
37F
330
380
330
381
330
382
330
383
330
384
330
385
330
386
330
387
330
388
330
389
330
38A
330
38B
330
38C
330
38D
330
38E
330
38F
330
390
330
391
330
392
330
393
330
394
330
395
330
396
330
397
330
398
330
399
330
39A
330
39B
330
39C
330
39D
330
39E
330
39F
330
3A0
330
3A1
330
3A2
330
3A3
330
3A4
330
3A5
330
3A6
330
3A7
330
3A8
330
3A9
330
3AA
330
3AB
330
3AC
330
3AD
330
3AE
330
3AF
330
3B0
330
3B1
330
3B2
330
3B3
330
3B4
330
3B5
330
3B6
330
3B7
330
3B8
330
3B9
330
3BA
330
3BB
330
3BC
330
3BD
330
3BE
330
3BF
330
3C0
330
3C1
330
3C2
330
3C3
330
3C4
330
3C5
330
3C6
330
3C7
330
3C8
330
3C9
330
3CA
330
3CB
330
3CC
330
3CD
330
3CE
330
3CF
330
3D0
330
3D1
330
3D2
330
3D3
330
3D4
330
3D5
330
3D6
330
3D7
330
3D8
330
3D9
330
3DA
330
3DB
330
3DC
330
3DD
330
3DE
330
3DF
330
3E0
330
3E1
330
3E2
330
3E3
330
3E4
330
3E5
330
3E6
330
3E7
330
3E8
330
3E9
330
3EA
330
3EB
330
3EC
330
3ED
330
3EE
330
3EF
330
3F0
330
3F1
330
3F2
330
3F3
330
3F4
330
3F5
330
3F6
330
3F7
330
3F8
330
3F9
330
3FA
330
3FB
330
3FC
330
3FD
330
3FE
330
3FF
330
400
330
401
330
402
330
403
330
404
330
405
330
406
330
407
330
408
330
409
330
40A
330
40B
330
40C
330
40D
330
40E
330
40F
330
410
330
411
330
412
330
413
330
414
330
415
330
416
330
417
330
418
330
419
330
41A
330
41B
330
41C
330
41D
330
41E
330
41F
330
420
330
421
330
422
330
423
330
424
330
425
330
426
330
427
330
428
330
429
330
42A
330
42B
330
42C
330
42D
330
42E
330
42F
330
430
330
431
330
432
330
433
330
434
330
435
330
436
330
437
330
438
330
439
330
43A
330
43B
330
43C
330
43D
330
43E
330
43F
330
440
 92
1
 93
40
 72
2
 10
29.7562520939
 20
2.310602715
 40
0.0024754162
 50
226.3593695814
 51
270.0146919953
 73
1
 72
1
 10
29.7545437277
 20
2.3088112993
 11
29.6912636927
 21
2.3691893327
 72
2
 10
29.6895549917
 20
2.367398395
 40
0.0024753014
 50
46.3461263059
 51
180.0014637321
 73
1
 72
1
 10
29.6870796903
 20
2.3673983318
 11
29.6870796903
 21
2.335352314
 72
2
 10
29.6895546899
 20
2.3353523121
 40
0.0024749995
 50
179.9999571957
 51
270.0000428042
 73
1
 72
1
 10
29.6895546917
 20
2.3328773126
 11
29.709871703
 21
2.3328773126
 72
2
 10
29.7098717048
 20
2.3304023131
 40
0.0024749995
 50
359.9999571957
 51
90.0000428042
 73
1
 72
1
 10
29.7123467043
 20
2.3304023112
 11
29.7123467043
 21
2.3106023003
 72
2
 10
29.7098717048
 20
2.3106022984
 40
0.0024749995
 50
269.9999571957
 51
0.0000428042
 73
1
 72
1
 10
29.709871703
 20
2.3081272989
 11
29.634207661
 21
2.3081272989
 72
2
 10
29.6342076592
 20
2.3106022984
 40
0.0024749995
 50
179.9999571957
 51
270.0000428042
 73
1
 72
1
 10
29.6317326596
 20
2.3106023003
 11
29.6317326596
 21
2.3304023112
 72
2
 10
29.6342076592
 20
2.3304023131
 40
0.0024749995
 50
89.9999571958
 51
180.0000428043
 73
1
 72
1
 10
29.634207661
 20
2.3328773126
 11
29.6528546714
 21
2.3328773126
 72
2
 10
29.6528546732
 20
2.3353523121
 40
0.0024749995
 50
269.9999571957
 51
0.0000428042
 73
1
 72
1
 10
29.6553296727
 20
2.335352314
 11
29.6553296727
 21
2.3817073397
 72
2
 10
29.6528546732
 20
2.3817073415
 40
0.0024749995
 50
359.9999571957
 51
90.0000428042
 73
1
 72
1
 10
29.6528546714
 20
2.3841823411
 11
29.634207661
 21
2.3841823411
 72
2
 10
29.6342076592
 20
2.3866573406
 40
0.0024749995
 50
179.9999571957
 51
270.0000428042
 73
1
 72
1
 10
29.6317326596
 20
2.3866573424
 11
29.6317326596
 21
2.4064573534
 72
2
 10
29.6342076592
 20
2.4064573553
 40
0.0024749995
 50
89.9999571958
 51
180.0000428043
 73
1
 72
1
 10
29.634207661
 20
2.4089323548
 11
29.7346657167
 21
2.4089323548
 72
2
 10
29.7346658515
 20
2.406458187
 40
0.0024741678
 50
46.3477981899
 51
90.0031206039
 73
1
 72
1
 10
29.7363737177
 20
2.4082483544
 11
29.796406751
 21
2.3509683226
 72
2
 10
29.7981154519
 20
2.3527592604
 40
0.0024753014
 50
226.3461263059
 51
0.0014637321
 73
1
 72
1
 10
29.8005907533
 20
2.3527593236
 11
29.8005907533
 21
2.3817073397
 72
2
 10
29.7981157538
 20
2.3817073415
 40
0.0024749995
 50
359.9999571957
 51
90.0000428042
 73
1
 72
1
 10
29.7981157519
 20
2.3841823411
 11
29.7793397415
 21
2.3841823411
 72
2
 10
29.7793397396
 20
2.3866573406
 40
0.0024749995
 50
179.9999571957
 51
270.0000428042
 73
1
 72
1
 10
29.7768647401
 20
2.3866573424
 11
29.7768647401
 21
2.4064573534
 72
2
 10
29.7793397396
 20
2.4064573553
 40
0.0024749995
 50
89.9999571957
 51
180.0000428042
 73
1
 72
1
 10
29.7793397415
 20
2.4089323548
 11
29.8533407825
 21
2.4089323548
 72
2
 10
29.8533407844
 20
2.4064573553
 40
0.0024749995
 50
359.9999571957
 51
90.0000428042
 73
1
 72
1
 10
29.8558157839
 20
2.4064573534
 11
29.8558157839
 21
2.3866573424
 72
2
 10
29.8533407844
 20
2.3866573406
 40
0.0024749995
 50
269.9999571958
 51
0.0000428044
 73
1
 72
1
 10
29.8533407825
 20
2.3841823411
 11
29.8354077726
 21
2.3841823411
 72
2
 10
29.8354077707
 20
2.3817073415
 40
0.0024749995
 50
89.9999571956
 51
180.0000428042
 73
1
 72
1
 10
29.8329327712
 20
2.3817073397
 11
29.8329327712
 21
2.3106023003
 72
2
 10
29.8304577717
 20
2.3106022984
 40
0.0024749995
 50
269.9999571956
 51
0.0000428042
 73
1
 72
1
 10
29.8304577698
 20
2.3081272989
 11
29.7562527287
 21
2.3081272989
 97
267
330
336
330
337
330
338
330
339
330
33A
330
33B
330
33C
330
33D
330
33E
330
33F
330
340
330
341
330
342
330
343
330
344
330
345
330
346
330
347
330
348
330
349
330
34A
330
34B
330
34C
330
34D
330
34E
330
34F
330
350
330
351
330
352
330
353
330
354
330
355
330
356
330
357
330
358
330
359
330
35A
330
35B
330
35C
330
35D
330
35E
330
35F
330
360
330
361
330
362
330
363
330
364
330
365
330
366
330
367
330
368
330
369
330
36A
330
36B
330
36C
330
36D
330
36E
330
36F
330
370
330
371
330
372
330
373
330
374
330
375
330
376
330
377
330
378
330
379
330
37A
330
37B
330
37C
330
37D
330
37E
330
37F
330
380
330
381
330
382
330
383
330
384
330
385
330
386
330
387
330
388
330
389
330
38A
330
38B
330
38C
330
38D
330
38E
330
38F
330
390
330
391
330
392
330
393
330
394
330
395
330
396
330
397
330
398
330
399
330
39A
330
39B
330
39C
330
39D
330
39E
330
39F
330
3A0
330
3A1
330
3A2
330
3A3
330
3A4
330
3A5
330
3A6
330
3A7
330
3A8
330
3A9
330
3AA
330
3AB
330
3AC
330
3AD
330
3AE
330
3AF
330
3B0
330
3B1
330
3B2
330
3B3
330
3B4
330
3B5
330
3B6
330
3B7
330
3B8
330
3B9
330
3BA
330
3BB
330
3BC
330
3BD
330
3BE
330
3BF
330
3C0
330
3C1
330
3C2
330
3C3
330
3C4
330
3C5
330
3C6
330
3C7
330
3C8
330
3C9
330
3CA
330
3CB
330
3CC
330
3CD
330
3CE
330
3CF
330
3D0
330
3D1
330
3D2
330
3D3
330
3D4
330
3D5
330
3D6
330
3D7
330
3D8
330
3D9
330
3DA
330
3DB
330
3DC
330
3DD
330
3DE
330
3DF
330
3E0
330
3E1
330
3E2
330
3E3
330
3E4
330
3E5
330
3E6
330
3E7
330
3E8
330
3E9
330
3EA
330
3EB
330
3EC
330
3ED
330
3EE
330
3EF
330
3F0
330
3F1
330
3F2
330
3F3
330
3F4
330
3F5
330
3F6
330
3F7
330
3F8
330
3F9
330
3FA
330
3FB
330
3FC
330
3FD
330
3FE
330
3FF
330
400
330
401
330
402
330
403
330
404
330
405
330
406
330
407
330
408
330
409
330
40A
330
40B
330
40C
330
40D
330
40E
330
40F
330
410
330
411
330
412
330
413
330
414
330
415
330
416
330
417
330
418
330
419
330
41A
330
41B
330
41C
330
41D
330
41E
330
41F
330
420
330
421
330
422
330
423
330
424
330
425
330
426
330
427
330
428
330
429
330
42A
330
42B
330
42C
330
42D
330
42E
330
42F
330
430
330
431
330
432
330
433
330
434
330
435
330
436
330
437
330
438
330
439
330
43A
330
43B
330
43C
330
43D
330
43E
330
43F
330
440
 92
1
 93
23
 72
2
 10
29.3410971553
 20
2.3565347507
 40
0.048483885
 50
273.21763719
 51
303.0749121182
 73
1
 72
2
 10
29.3559365494
 20
2.3337671418
 40
0.0213072145
 50
303.0488228549
 51
355.7263138674
 73
1
 72
2
 10
29.36187305
 20
2.3337763321
 40
0.0153945295
 50
354.0454548824
 51
5.1878013979
 73
1
 72
2
 10
29.3550433609
 20
2.3335878142
 40
0.0222174455
 50
4.0793399388
 51
69.834329283
 73
1
 72
1
 10
29.3627025104
 20
2.3544433246
 11
29.3526515049
 21
2.3579923265
 72
1
 10
29.3526515049
 20
2.3579923265
 11
29.3608915094
 21
2.3627683292
 72
2
 10
29.339026127
 20
2.3995952208
 40
0.0428289026
 50
300.6990502959
 51
319.0591802498
 73
1
 72
2
 10
29.3590547239
 20
2.3834668674
 40
0.0171568255
 50
315.9145124245
 51
16.0049121282
 73
1
 72
2
 10
29.3541031117
 20
2.3801132029
 40
0.0229166529
 50
20.6563876465
 51
62.3316896973
 73
1
 72
2
 10
29.3334409881
 20
2.347184638
 40
0.061747717
 50
59.5385584989
 51
90.0050977555
 73
1
 72
1
 10
29.3334354942
 20
2.4089323548
 11
29.1673724021
 21
2.4089323548
 72
2
 10
29.1673724003
 20
2.4064573553
 40
0.0024749995
 50
89.9999571958
 51
180.0000428044
 73
1
 72
1
 10
29.1648974007
 20
2.4064573534
 11
29.1648974007
 21
2.3866573424
 72
2
 10
29.1673724003
 20
2.3866573406
 40
0.0024749995
 50
179.9999571957
 51
270.0000428042
 73
1
 72
1
 10
29.1673724021
 20
2.3841823411
 11
29.1913144154
 21
2.3841823411
 72
2
 10
29.1913144172
 20
2.3817073415
 40
0.0024749995
 50
359.9999571957
 51
90.0000428042
 73
1
 72
1
 10
29.1937894168
 20
2.3817073397
 11
29.1937894168
 21
2.335352314
 72
2
 10
29.1913144172
 20
2.3353523121
 40
0.0024749995
 50
269.9999571957
 51
0.0000428042
 73
1
 72
1
 10
29.1913144154
 20
2.3328773126
 11
29.1673724021
 21
2.3328773126
 72
2
 10
29.1673724003
 20
2.3304023131
 40
0.0024749995
 50
89.9999571958
 51
180.0000428044
 73
1
 72
1
 10
29.1648974007
 20
2.3304023112
 11
29.1648974007
 21
2.3106023003
 72
2
 10
29.1673724003
 20
2.3106022984
 40
0.0024749995
 50
179.9999571957
 51
270.0000428042
 73
1
 72
1
 10
29.1673724021
 20
2.3081272989
 11
29.3438185
 21
2.3081272989
 97
267
330
336
330
337
330
338
330
339
330
33A
330
33B
330
33C
330
33D
330
33E
330
33F
330
340
330
341
330
342
330
343
330
344
330
345
330
346
330
347
330
348
330
349
330
34A
330
34B
330
34C
330
34D
330
34E
330
34F
330
350
330
351
330
352
330
353
330
354
330
355
330
356
330
357
330
358
330
359
330
35A
330
35B
330
35C
330
35D
330
35E
330
35F
330
360
330
361
330
362
330
363
330
364
330
365
330
366
330
367
330
368
330
369
330
36A
330
36B
330
36C
330
36D
330
36E
330
36F
330
370
330
371
330
372
330
373
330
374
330
375
330
376
330
377
330
378
330
379
330
37A
330
37B
330
37C
330
37D
330
37E
330
37F
330
380
330
381
330
382
330
383
330
384
330
385
330
386
330
387
330
388
330
389
330
38A
330
38B
330
38C
330
38D
330
38E
330
38F
330
390
330
391
330
392
330
393
330
394
330
395
330
396
330
397
330
398
330
399
330
39A
330
39B
330
39C
330
39D
330
39E
330
39F
330
3A0
330
3A1
330
3A2
330
3A3
330
3A4
330
3A5
330
3A6
330
3A7
330
3A8
330
3A9
330
3AA
330
3AB
330
3AC
330
3AD
330
3AE
330
3AF
330
3B0
330
3B1
330
3B2
330
3B3
330
3B4
330
3B5
330
3B6
330
3B7
330
3B8
330
3B9
330
3BA
330
3BB
330
3BC
330
3BD
330
3BE
330
3BF
330
3C0
330
3C1
330
3C2
330
3C3
330
3C4
330
3C5
330
3C6
330
3C7
330
3C8
330
3C9
330
3CA
330
3CB
330
3CC
330
3CD
330
3CE
330
3CF
330
3D0
330
3D1
330
3D2
330
3D3
330
3D4
330
3D5
330
3D6
330
3D7
330
3D8
330
3D9
330
3DA
330
3DB
330
3DC
330
3DD
330
3DE
330
3DF
330
3E0
330
3E1
330
3E2
330
3E3
330
3E4
330
3E5
330
3E6
330
3E7
330
3E8
330
3E9
330
3EA
330
3EB
330
3EC
330
3ED
330
3EE
330
3EF
330
3F0
330
3F1
330
3F2
330
3F3
330
3F4
330
3F5
330
3F6
330
3F7
330
3F8
330
3F9
330
3FA
330
3FB
330
3FC
330
3FD
330
3FE
330
3FF
330
400
330
401
330
402
330
403
330
404
330
405
330
406
330
407
330
408
330
409
330
40A
330
40B
330
40C
330
40D
330
40E
330
40F
330
410
330
411
330
412
330
413
330
414
330
415
330
416
330
417
330
418
330
419
330
41A
330
41B
330
41C
330
41D
330
41E
330
41F
330
420
330
421
330
422
330
423
330
424
330
425
330
426
330
427
330
428
330
429
330
42A
330
42B
330
42C
330
42D
330
42E
330
42F
330
430
330
431
330
432
330
433
330
434
330
435
330
436
330
437
330
438
330
439
330
43A
330
43B
330
43C
330
43D
330
43E
330
43F
330
440
 92
1
 93
32
 72
2
 10
29.4787315766
 20
2.3106022984
 40
0.0024749995
 50
269.9999571958
 51
0.0000428044
 73
1
 72
1
 10
29.4812065762
 20
2.3106023003
 11
29.4812065762
 21
2.3304023112
 72
2
 10
29.4787315766
 20
2.3304023131
 40
0.0024749995
 50
359.9999571957
 51
90.0000428042
 73
1
 72
1
 10
29.4787315748
 20
2.3328773126
 11
29.4674485685
 21
2.3328773126
 72
2
 10
29.4674484592
 20
2.3353523527
 40
0.0024750401
 50
147.606325801
 51
270.0025305754
 73
1
 72
1
 10
29.4653585674
 20
2.3366783147
 11
29.4708745704
 21
2.3453723195
 72
2
 10
29.4729645013
 20
2.3440461199
 40
0.0024752003
 50
89.998372645
 51
147.602165307
 73
1
 72
1
 10
29.4729645716
 20
2.3465213202
 11
29.5078425909
 21
2.3465213202
 72
2
 10
29.5078420513
 20
2.34404586
 40
0.0024754602
 50
32.8959418574
 51
89.9875097203
 73
1
 72
1
 10
29.5099205921
 20
2.3453903196
 11
29.5155465952
 21
2.3366973147
 72
2
 10
29.5134685729
 20
2.3353525197
 40
0.0024752071
 50
270.0004896793
 51
32.9089806819
 73
1
 72
1
 10
29.5134685941
 20
2.3328773126
 11
29.499017586
 21
2.3328773126
 72
2
 10
29.4990175842
 20
2.3304023131
 40
0.0024749995
 50
89.9999571958
 51
180.0000428043
 73
1
 72
1
 10
29.4965425847
 20
2.3304023112
 11
29.4965425847
 21
2.3106023003
 72
2
 10
29.4990175842
 20
2.3106022984
 40
0.0024749995
 50
179.9999571957
 51
270.0000428042
 73
1
 72
1
 10
29.499017586
 20
2.3081272989
 11
29.6042986444
 21
2.3081272989
 72
2
 10
29.6042986463
 20
2.3106022984
 40
0.0024749995
 50
269.9999571958
 51
0.0000428043
 73
1
 72
1
 10
29.6067736458
 20
2.3106023003
 11
29.6067736458
 21
2.3304023112
 72
2
 10
29.6042986463
 20
2.3304023131
 40
0.0024749995
 50
359.9999571957
 51
90.0000428042
 73
1
 72
1
 10
29.6042986444
 20
2.3328773126
 11
29.5842826333
 21
2.3328773126
 72
2
 10
29.5842827538
 20
2.3353513536
 40
0.002474041
 50
212.9056413127
 51
269.9972091756
 73
1
 72
1
 10
29.5822056322
 20
2.3340073132
 11
29.5344496057
 21
2.4078023542
 72
2
 10
29.532371984
 20
2.4064573946
 40
0.0024749602
 50
32.9172174468
 51
90.0087853097
 73
1
 72
1
 10
29.5323716045
 20
2.4089323548
 11
29.4751965728
 21
2.4089323548
 72
2
 10
29.4751965025
 20
2.4064571545
 40
0.0024752003
 50
89.998372645
 51
147.602165307
 73
1
 72
1
 10
29.4731065717
 20
2.4077833542
 11
29.4263065457
 21
2.3340263132
 72
2
 10
29.4242166149
 20
2.3353525129
 40
0.0024752003
 50
269.9983726451
 51
327.6021653071
 73
1
 72
1
 10
29.4242165446
 20
2.3328773126
 11
29.4013555319
 21
2.3328773126
 72
2
 10
29.40135553
 20
2.3304023131
 40
0.0024749995
 50
89.9999571957
 51
180.0000428042
 73
1
 72
1
 10
29.3988805305
 20
2.3304023112
 11
29.3988805305
 21
2.3106023003
 72
2
 10
29.40135553
 20
2.3106022984
 40
0.0024749995
 50
179.9999571957
 51
270.0000428042
 73
1
 72
1
 10
29.4013555319
 20
2.3081272989
 11
29.4787315748
 21
2.3081272989
 97
267
330
336
330
337
330
338
330
339
330
33A
330
33B
330
33C
330
33D
330
33E
330
33F
330
340
330
341
330
342
330
343
330
344
330
345
330
346
330
347
330
348
330
349
330
34A
330
34B
330
34C
330
34D
330
34E
330
34F
330
350
330
351
330
352
330
353
330
354
330
355
330
356
330
357
330
358
330
359
330
35A
330
35B
330
35C
330
35D
330
35E
330
35F
330
360
330
361
330
362
330
363
330
364
330
365
330
366
330
367
330
368
330
369
330
36A
330
36B
330
36C
330
36D
330
36E
330
36F
330
370
330
371
330
372
330
373
330
374
330
375
330
376
330
377
330
378
330
379
330
37A
330
37B
330
37C
330
37D
330
37E
330
37F
330
380
330
381
330
382
330
383
330
384
330
385
330
386
330
387
330
388
330
389
330
38A
330
38B
330
38C
330
38D
330
38E
330
38F
330
390
330
391
330
392
330
393
330
394
330
395
330
396
330
397
330
398
330
399
330
39A
330
39B
330
39C
330
39D
330
39E
330
39F
330
3A0
330
3A1
330
3A2
330
3A3
330
3A4
330
3A5
330
3A6
330
3A7
330
3A8
330
3A9
330
3AA
330
3AB
330
3AC
330
3AD
330
3AE
330
3AF
330
3B0
330
3B1
330
3B2
330
3B3
330
3B4
330
3B5
330
3B6
330
3B7
330
3B8
330
3B9
330
3BA
330
3BB
330
3BC
330
3BD
330
3BE
330
3BF
330
3C0
330
3C1
330
3C2
330
3C3
330
3C4
330
3C5
330
3C6
330
3C7
330
3C8
330
3C9
330
3CA
330
3CB
330
3CC
330
3CD
330
3CE
330
3CF
330
3D0
330
3D1
330
3D2
330
3D3
330
3D4
330
3D5
330
3D6
330
3D7
330
3D8
330
3D9
330
3DA
330
3DB
330
3DC
330
3DD
330
3DE
330
3DF
330
3E0
330
3E1
330
3E2
330
3E3
330
3E4
330
3E5
330
3E6
330
3E7
330
3E8
330
3E9
330
3EA
330
3EB
330
3EC
330
3ED
330
3EE
330
3EF
330
3F0
330
3F1
330
3F2
330
3F3
330
3F4
330
3F5
330
3F6
330
3F7
330
3F8
330
3F9
330
3FA
330
3FB
330
3FC
330
3FD
330
3FE
330
3FF
330
400
330
401
330
402
330
403
330
404
330
405
330
406
330
407
330
408
330
409
330
40A
330
40B
330
40C
330
40D
330
40E
330
40F
330
410
330
411
330
412
330
413
330
414
330
415
330
416
330
417
330
418
330
419
330
41A
330
41B
330
41C
330
41D
330
41E
330
41F
330
420
330
421
330
422
330
423
330
424
330
425
330
426
330
427
330
428
330
429
330
42A
330
42B
330
42C
330
42D
330
42E
330
42F
330
430
330
431
330
432
330
433
330
434
330
435
330
436
330
437
330
438
330
439
330
43A
330
43B
330
43C
330
43D
330
43E
330
43F
330
440
 92
1
 93
6
 72
2
 10
29.2567774499
 20
2.3353523121
 40
0.0024749995
 50
179.9999571957
 51
270.0000428043
 73
1
 72
1
 10
29.2543024503
 20
2.335352314
 11
29.2543024503
 21
2.3477273208
 72
2
 10
29.2567774499
 20
2.3477273227
 40
0.0024749995
 50
89.9999571956
 51
180.0000428042
 73
1
 72
1
 10
29.2567774517
 20
2.3502023222
 11
29.2981404746
 21
2.3502023222
 72
2
 10
29.2981404746
 20
2.3415398174
 40
0.0086625048
 50
270.0
 51
90.0
 73
1
 72
1
 10
29.2981404746
 20
2.3328773126
 11
29.2567774517
 21
2.3328773126
 97
267
330
336
330
337
330
338
330
339
330
33A
330
33B
330
33C
330
33D
330
33E
330
33F
330
340
330
341
330
342
330
343
330
344
330
345
330
346
330
347
330
348
330
349
330
34A
330
34B
330
34C
330
34D
330
34E
330
34F
330
350
330
351
330
352
330
353
330
354
330
355
330
356
330
357
330
358
330
359
330
35A
330
35B
330
35C
330
35D
330
35E
330
35F
330
360
330
361
330
362
330
363
330
364
330
365
330
366
330
367
330
368
330
369
330
36A
330
36B
330
36C
330
36D
330
36E
330
36F
330
370
330
371
330
372
330
373
330
374
330
375
330
376
330
377
330
378
330
379
330
37A
330
37B
330
37C
330
37D
330
37E
330
37F
330
380
330
381
330
382
330
383
330
384
330
385
330
386
330
387
330
388
330
389
330
38A
330
38B
330
38C
330
38D
330
38E
330
38F
330
390
330
391
330
392
330
393
330
394
330
395
330
396
330
397
330
398
330
399
330
39A
330
39B
330
39C
330
39D
330
39E
330
39F
330
3A0
330
3A1
330
3A2
330
3A3
330
3A4
330
3A5
330
3A6
330
3A7
330
3A8
330
3A9
330
3AA
330
3AB
330
3AC
330
3AD
330
3AE
330
3AF
330
3B0
330
3B1
330
3B2
330
3B3
330
3B4
330
3B5
330
3B6
330
3B7
330
3B8
330
3B9
330
3BA
330
3BB
330
3BC
330
3BD
330
3BE
330
3BF
330
3C0
330
3C1
330
3C2
330
3C3
330
3C4
330
3C5
330
3C6
330
3C7
330
3C8
330
3C9
330
3CA
330
3CB
330
3CC
330
3CD
330
3CE
330
3CF
330
3D0
330
3D1
330
3D2
330
3D3
330
3D4
330
3D5
330
3D6
330
3D7
330
3D8
330
3D9
330
3DA
330
3DB
330
3DC
330
3DD
330
3DE
330
3DF
330
3E0
330
3E1
330
3E2
330
3E3
330
3E4
330
3E5
330
3E6
330
3E7
330
3E8
330
3E9
330
3EA
330
3EB
330
3EC
330
3ED
330
3EE
330
3EF
330
3F0
330
3F1
330
3F2
330
3F3
330
3F4
330
3F5
330
3F6
330
3F7
330
3F8
330
3F9
330
3FA
330
3FB
330
3FC
330
3FD
330
3FE
330
3FF
330
400
330
401
330
402
330
403
330
404
330
405
330
406
330
407
330
408
330
409
330
40A
330
40B
330
40C
330
40D
330
40E
330
40F
330
410
330
411
330
412
330
413
330
414
330
415
330
416
330
417
330
418
330
419
330
41A
330
41B
330
41C
330
41D
330
41E
330
41F
330
420
330
421
330
422
330
423
330
424
330
425
330
426
330
427
330
428
330
429
330
42A
330
42B
330
42C
330
42D
330
42E
330
42F
330
430
330
431
330
432
330
433
330
434
330
435
330
436
330
437
330
438
330
439
330
43A
330
43B
330
43C
330
43D
330
43E
330
43F
330
440
 92
1
 93
13
 72
2
 10
30.4502121117
 20
2.3689823308
 40
0.0024749995
 50
179.9999571957
 51
270.0000428043
 73
1
 72
1
 10
30.4477371122
 20
2.3689823326
 11
30.4477371122
 21
2.3817073397
 72
2
 10
30.4502121117
 20
2.3817073415
 40
0.0024749995
 50
89.9999571958
 51
180.0000428044
 73
1
 72
1
 10
30.4502121135
 20
2.3841823411
 11
30.4870131339
 21
2.3841823411
 72
2
 10
30.4854682464
 20
2.3557278621
 40
0.0284963867
 50
70.3834917948
 51
86.8922743861
 73
1
 72
2
 10
30.4903278565
 20
2.368769595
 40
0.0145814632
 50
54.6746025112
 51
71.1660573124
 73
1
 72
2
 10
30.4954573475
 20
2.3756235202
 40
0.0060275915
 50
20.9055592135
 51
56.7851676243
 73
1
 72
2
 10
30.4967579063
 20
2.3762838024
 40
0.0045795888
 50
355.6235353944
 51
18.9942678268
 73
1
 72
2
 10
30.495551096
 20
2.3765775787
 40
0.0058087709
 50
318.8515287446
 51
353.6422345323
 73
1
 72
2
 10
30.4913804799
 20
2.3798114865
 40
0.0110815393
 50
306.758405961
 51
320.4502234234
 73
1
 72
2
 10
30.4857512889
 20
2.387552315
 40
0.0206523367
 50
289.6883413472
 51
306.4184925496
 73
1
 72
2
 10
30.4838237832
 20
2.3919459623
 40
0.0254407115
 50
270.7327484175
 51
290.441894219
 73
1
 72
1
 10
30.4841491324
 20
2.3665073313
 11
30.4502121135
 21
2.3665073313
 97
267
330
336
330
337
330
338
330
339
330
33A
330
33B
330
33C
330
33D
330
33E
330
33F
330
340
330
341
330
342
330
343
330
344
330
345
330
346
330
347
330
348
330
349
330
34A
330
34B
330
34C
330
34D
330
34E
330
34F
330
350
330
351
330
352
330
353
330
354
330
355
330
356
330
357
330
358
330
359
330
35A
330
35B
330
35C
330
35D
330
35E
330
35F
330
360
330
361
330
362
330
363
330
364
330
365
330
366
330
367
330
368
330
369
330
36A
330
36B
330
36C
330
36D
330
36E
330
36F
330
370
330
371
330
372
330
373
330
374
330
375
330
376
330
377
330
378
330
379
330
37A
330
37B
330
37C
330
37D
330
37E
330
37F
330
380
330
381
330
382
330
383
330
384
330
385
330
386
330
387
330
388
330
389
330
38A
330
38B
330
38C
330
38D
330
38E
330
38F
330
390
330
391
330
392
330
393
330
394
330
395
330
396
330
397
330
398
330
399
330
39A
330
39B
330
39C
330
39D
330
39E
330
39F
330
3A0
330
3A1
330
3A2
330
3A3
330
3A4
330
3A5
330
3A6
330
3A7
330
3A8
330
3A9
330
3AA
330
3AB
330
3AC
330
3AD
330
3AE
330
3AF
330
3B0
330
3B1
330
3B2
330
3B3
330
3B4
330
3B5
330
3B6
330
3B7
330
3B8
330
3B9
330
3BA
330
3BB
330
3BC
330
3BD
330
3BE
330
3BF
330
3C0
330
3C1
330
3C2
330
3C3
330
3C4
330
3C5
330
3C6
330
3C7
330
3C8
330
3C9
330
3CA
330
3CB
330
3CC
330
3CD
330
3CE
330
3CF
330
3D0
330
3D1
330
3D2
330
3D3
330
3D4
330
3D5
330
3D6
330
3D7
330
3D8
330
3D9
330
3DA
330
3DB
330
3DC
330
3DD
330
3DE
330
3DF
330
3E0
330
3E1
330
3E2
330
3E3
330
3E4
330
3E5
330
3E6
330
3E7
330
3E8
330
3E9
330
3EA
330
3EB
330
3EC
330
3ED
330
3EE
330
3EF
330
3F0
330
3F1
330
3F2
330
3F3
330
3F4
330
3F5
330
3F6
330
3F7
330
3F8
330
3F9
330
3FA
330
3FB
330
3FC
330
3FD
330
3FE
330
3FF
330
400
330
401
330
402
330
403
330
404
330
405
330
406
330
407
330
408
330
409
330
40A
330
40B
330
40C
330
40D
330
40E
330
40F
330
410
330
411
330
412
330
413
330
414
330
415
330
416
330
417
330
418
330
419
330
41A
330
41B
330
41C
330
41D
330
41E
330
41F
330
420
330
421
330
422
330
423
330
424
330
425
330
426
330
427
330
428
330
429
330
42A
330
42B
330
42C
330
42D
330
42E
330
42F
330
430
330
431
330
432
330
433
330
434
330
435
330
436
330
437
330
438
330
439
330
43A
330
43B
330
43C
330
43D
330
43E
330
43F
330
440
 92
1
 93
6
 72
2
 10
29.2981404746
 20
2.3755198363
 40
0.0086625048
 50
270.0
 51
90.0
 73
1
 72
1
 10
29.2981404746
 20
2.3841823411
 11
29.2567774517
 21
2.3841823411
 72
2
 10
29.2567774499
 20
2.3817073415
 40
0.0024749995
 50
89.9999571956
 51
180.0000428042
 73
1
 72
1
 10
29.2543024503
 20
2.3817073397
 11
29.2543024503
 21
2.3693323328
 72
2
 10
29.2567774499
 20
2.369332331
 40
0.0024749995
 50
179.9999571957
 51
270.0000428043
 73
1
 72
1
 10
29.2567774517
 20
2.3668573315
 11
29.2981404746
 21
2.3668573315
 97
267
330
336
330
337
330
338
330
339
330
33A
330
33B
330
33C
330
33D
330
33E
330
33F
330
340
330
341
330
342
330
343
330
344
330
345
330
346
330
347
330
348
330
349
330
34A
330
34B
330
34C
330
34D
330
34E
330
34F
330
350
330
351
330
352
330
353
330
354
330
355
330
356
330
357
330
358
330
359
330
35A
330
35B
330
35C
330
35D
330
35E
330
35F
330
360
330
361
330
362
330
363
330
364
330
365
330
366
330
367
330
368
330
369
330
36A
330
36B
330
36C
330
36D
330
36E
330
36F
330
370
330
371
330
372
330
373
330
374
330
375
330
376
330
377
330
378
330
379
330
37A
330
37B
330
37C
330
37D
330
37E
330
37F
330
380
330
381
330
382
330
383
330
384
330
385
330
386
330
387
330
388
330
389
330
38A
330
38B
330
38C
330
38D
330
38E
330
38F
330
390
330
391
330
392
330
393
330
394
330
395
330
396
330
397
330
398
330
399
330
39A
330
39B
330
39C
330
39D
330
39E
330
39F
330
3A0
330
3A1
330
3A2
330
3A3
330
3A4
330
3A5
330
3A6
330
3A7
330
3A8
330
3A9
330
3AA
330
3AB
330
3AC
330
3AD
330
3AE
330
3AF
330
3B0
330
3B1
330
3B2
330
3B3
330
3B4
330
3B5
330
3B6
330
3B7
330
3B8
330
3B9
330
3BA
330
3BB
330
3BC
330
3BD
330
3BE
330
3BF
330
3C0
330
3C1
330
3C2
330
3C3
330
3C4
330
3C5
330
3C6
330
3C7
330
3C8
330
3C9
330
3CA
330
3CB
330
3CC
330
3CD
330
3CE
330
3CF
330
3D0
330
3D1
330
3D2
330
3D3
330
3D4
330
3D5
330
3D6
330
3D7
330
3D8
330
3D9
330
3DA
330
3DB
330
3DC
330
3DD
330
3DE
330
3DF
330
3E0
330
3E1
330
3E2
330
3E3
330
3E4
330
3E5
330
3E6
330
3E7
330
3E8
330
3E9
330
3EA
330
3EB
330
3EC
330
3ED
330
3EE
330
3EF
330
3F0
330
3F1
330
3F2
330
3F3
330
3F4
330
3F5
330
3F6
330
3F7
330
3F8
330
3F9
330
3FA
330
3FB
330
3FC
330
3FD
330
3FE
330
3FF
330
400
330
401
330
402
330
403
330
404
330
405
330
406
330
407
330
408
330
409
330
40A
330
40B
330
40C
330
40D
330
40E
330
40F
330
410
330
411
330
412
330
413
330
414
330
415
330
416
330
417
330
418
330
419
330
41A
330
41B
330
41C
330
41D
330
41E
330
41F
330
420
330
421
330
422
330
423
330
424
330
425
330
426
330
427
330
428
330
429
330
42A
330
42B
330
42C
330
42D
330
42E
330
42F
330
430
330
431
330
432
330
433
330
434
330
435
330
436
330
437
330
438
330
439
330
43A
330
43B
330
43C
330
43D
330
43E
330
43F
330
440
 92
1
 93
8
 72
2
 10
29.5020375666
 20
2.3699465389
 40
0.0024752071
 50
270.0004896793
 51
32.9089806817
 73
1
 72
1
 10
29.5041155889
 20
2.3712913339
 11
29.4968565848
 21
2.3825073401
 72
2
 10
29.494778044
 20
2.3811628806
 40
0.0024754602
 50
32.8959418574
 51
89.9875097203
 73
1
 72
1
 10
29.4947785837
 20
2.3836383408
 11
29.4885975803
 21
2.3836383408
 72
2
 10
29.48859751
 20
2.3811631405
 40
0.0024752003
 50
89.9983726451
 51
147.6021653071
 73
1
 72
1
 10
29.4865075791
 20
2.3824893401
 11
29.4793905752
 21
2.3712723339
 72
2
 10
29.481480467
 20
2.3699463719
 40
0.0024750401
 50
147.6063258012
 51
270.0025305754
 73
1
 72
1
 10
29.4814805763
 20
2.3674713318
 11
29.5020375877
 21
2.3674713318
 97
267
330
336
330
337
330
338
330
339
330
33A
330
33B
330
33C
330
33D
330
33E
330
33F
330
340
330
341
330
342
330
343
330
344
330
345
330
346
330
347
330
348
330
349
330
34A
330
34B
330
34C
330
34D
330
34E
330
34F
330
350
330
351
330
352
330
353
330
354
330
355
330
356
330
357
330
358
330
359
330
35A
330
35B
330
35C
330
35D
330
35E
330
35F
330
360
330
361
330
362
330
363
330
364
330
365
330
366
330
367
330
368
330
369
330
36A
330
36B
330
36C
330
36D
330
36E
330
36F
330
370
330
371
330
372
330
373
330
374
330
375
330
376
330
377
330
378
330
379
330
37A
330
37B
330
37C
330
37D
330
37E
330
37F
330
380
330
381
330
382
330
383
330
384
330
385
330
386
330
387
330
388
330
389
330
38A
330
38B
330
38C
330
38D
330
38E
330
38F
330
390
330
391
330
392
330
393
330
394
330
395
330
396
330
397
330
398
330
399
330
39A
330
39B
330
39C
330
39D
330
39E
330
39F
330
3A0
330
3A1
330
3A2
330
3A3
330
3A4
330
3A5
330
3A6
330
3A7
330
3A8
330
3A9
330
3AA
330
3AB
330
3AC
330
3AD
330
3AE
330
3AF
330
3B0
330
3B1
330
3B2
330
3B3
330
3B4
330
3B5
330
3B6
330
3B7
330
3B8
330
3B9
330
3BA
330
3BB
330
3BC
330
3BD
330
3BE
330
3BF
330
3C0
330
3C1
330
3C2
330
3C3
330
3C4
330
3C5
330
3C6
330
3C7
330
3C8
330
3C9
330
3CA
330
3CB
330
3CC
330
3CD
330
3CE
330
3CF
330
3D0
330
3D1
330
3D2
330
3D3
330
3D4
330
3D5
330
3D6
330
3D7
330
3D8
330
3D9
330
3DA
330
3DB
330
3DC
330
3DD
330
3DE
330
3DF
330
3E0
330
3E1
330
3E2
330
3E3
330
3E4
330
3E5
330
3E6
330
3E7
330
3E8
330
3E9
330
3EA
330
3EB
330
3EC
330
3ED
330
3EE
330
3EF
330
3F0
330
3F1
330
3F2
330
3F3
330
3F4
330
3F5
330
3F6
330
3F7
330
3F8
330
3F9
330
3FA
330
3FB
330
3FC
330
3FD
330
3FE
330
3FF
330
400
330
401
330
402
330
403
330
404
330
405
330
406
330
407
330
408
330
409
330
40A
330
40B
330
40C
330
40D
330
40E
330
40F
330
410
330
411
330
412
330
413
330
414
330
415
330
416
330
417
330
418
330
419
330
41A
330
41B
330
41C
330
41D
330
41E
330
41F
330
420
330
421
330
422
330
423
330
424
330
425
330
426
330
427
330
428
330
429
330
42A
330
42B
330
42C
330
42D
330
42E
330
42F
330
430
330
431
330
432
330
433
330
434
330
435
330
436
330
437
330
438
330
439
330
43A
330
43B
330
43C
330
43D
330
43E
330
43F
330
440
 92
1
 93
1
 72
3
 10
29.8665327899
 20
2.3572783261
 11
-0.8250004575
 21
0.0
 40
0.218572
 50
0.0
 51
-0.0
 73
1
 97
267
330
336
330
337
330
338
330
339
330
33A
330
33B
330
33C
330
33D
330
33E
330
33F
330
340
330
341
330
342
330
343
330
344
330
345
330
346
330
347
330
348
330
349
330
34A
330
34B
330
34C
330
34D
330
34E
330
34F
330
350
330
351
330
352
330
353
330
354
330
355
330
356
330
357
330
358
330
359
330
35A
330
35B
330
35C
330
35D
330
35E
330
35F
330
360
330
361
330
362
330
363
330
364
330
365
330
366
330
367
330
368
330
369
330
36A
330
36B
330
36C
330
36D
330
36E
330
36F
330
370
330
371
330
372
330
373
330
374
330
375
330
376
330
377
330
378
330
379
330
37A
330
37B
330
37C
330
37D
330
37E
330
37F
330
380
330
381
330
382
330
383
330
384
330
385
330
386
330
387
330
388
330
389
330
38A
330
38B
330
38C
330
38D
330
38E
330
38F
330
390
330
391
330
392
330
393
330
394
330
395
330
396
330
397
330
398
330
399
330
39A
330
39B
330
39C
330
39D
330
39E
330
39F
330
3A0
330
3A1
330
3A2
330
3A3
330
3A4
330
3A5
330
3A6
330
3A7
330
3A8
330
3A9
330
3AA
330
3AB
330
3AC
330
3AD
330
3AE
330
3AF
330
3B0
330
3B1
330
3B2
330
3B3
330
3B4
330
3B5
330
3B6
330
3B7
330
3B8
330
3B9
330
3BA
330
3BB
330
3BC
330
3BD
330
3BE
330
3BF
330
3C0
330
3C1
330
3C2
330
3C3
330
3C4
330
3C5
330
3C6
330
3C7
330
3C8
330
3C9
330
3CA
330
3CB
330
3CC
330
3CD
330
3CE
330
3CF
330
3D0
330
3D1
330
3D2
330
3D3
330
3D4
330
3D5
330
3D6
330
3D7
330
3D8
330
3D9
330
3DA
330
3DB
330
3DC
330
3DD
330
3DE
330
3DF
330
3E0
330
3E1
330
3E2
330
3E3
330
3E4
330
3E5
330
3E6
330
3E7
330
3E8
330
3E9
330
3EA
330
3EB
330
3EC
330
3ED
330
3EE
330
3EF
330
3F0
330
3F1
330
3F2
330
3F3
330
3F4
330
3F5
330
3F6
330
3F7
330
3F8
330
3F9
330
3FA
330
3FB
330
3FC
330
3FD
330
3FE
330
3FF
330
400
330
401
330
402
330
403
330
404
330
405
330
406
330
407
330
408
330
409
330
40A
330
40B
330
40C
330
40D
330
40E
330
40F
330
410
330
411
330
412
330
413
330
414
330
415
330
416
330
417
330
418
330
419
330
41A
330
41B
330
41C
330
41D
330
41E
330
41F
330
420
330
421
330
422
330
423
330
424
330
425
330
426
330
427
330
428
330
429
330
42A
330
42B
330
42C
330
42D
330
42E
330
42F
330
430
330
431
330
432
330
433
330
434
330
435
330
436
330
437
330
438
330
439
330
43A
330
43B
330
43C
330
43D
330
43E
330
43F
330
440
 75
0
 76
1
 98
1
 10
0.0
 20
0.0
  0
LINE
  5
442
100
AcDbEntity
  8
0
100
AcDbLine
 62
7
  6
CONTINUOUS
 10
33.3524539446
 20
2.623495704
 11
27.0024539446
 21
2.623495704
  0
LINE
  5
443
100
AcDbEntity
  8
0
100
AcDbLine
 62
7
  6
CONTINUOUS
 10
28.7364976922
 20
0.8153979563
 11
28.1301066922
 21
0.8847909563
  0
LINE
  5
444
100
AcDbEntity
  8
0
100
AcDbLine
 62
7
  6
CONTINUOUS
 10
8.889879192
 20
21.3371139065
 11
8.889879192
 21
21.5871139065
  0
LINE
  5
445
100
AcDbEntity
  8
0
100
AcDbLine
 62
7
  6
CONTINUOUS
 10
8.8920367907
 20
0.701125727
 11
8.8920367907
 21
0.451125727
  0
LINE
  5
446
100
AcDbEntity
  8
0
100
AcDbLine
 62
7
  6
CONTINUOUS
 10
0.7364933212
 20
11.0250407989
 11
0.5864933212
 21
11.1116437989
  0
LINE
  5
447
100
AcDbEntity
  8
0
100
AcDbLine
 62
7
  6
CONTINUOUS
 10
17.0432003286
 20
21.3366775222
 11
17.1298033286
 21
21.4866775222
  0
LINE
  5
448
100
AcDbEntity
  8
0
100
AcDbLine
 62
7
  6
CONTINUOUS
 10
0.7364933212
 20
5.8588719767
 11
0.4864933212
 21
5.8588719767
  0
LINE
  5
449
100
AcDbEntity
  8
0
100
AcDbLine
 62
7
  6
CONTINUOUS
 10
33.3609986769
 20
5.8669213906
 11
33.6109986769
 21
5.8669213906
  0
LINE
  5
44A
100
AcDbEntity
  8
0
100
AcDbLine
 62
7
  6
CONTINUOUS
 10
17.1311228366
 20
0.5535279561
 11
17.044519919
 21
0.7035279135
  0
LINE
  5
44B
100
AcDbEntity
  8
0
100
AcDbLine
 62
7
  6
CONTINUOUS
 10
12.9686470768
 20
21.3361454131
 11
12.9686470768
 21
21.5861454131
  0
LINE
  5
44C
100
AcDbEntity
  8
0
100
AcDbLine
 62
7
  6
CONTINUOUS
 10
12.9686929482
 20
0.7036996999
 11
12.9686929482
 21
0.4536996999
  0
LINE
  5
44D
100
AcDbEntity
  8
0
100
AcDbLine
 62
7
  6
CONTINUOUS
 10
17.0434505532
 20
21.3371998727
 11
17.0434505532
 21
21.5871998727
  0
LINE
  5
44E
100
AcDbEntity
  8
0
100
AcDbLine
 62
7
  6
CONTINUOUS
 10
17.044519919
 20
0.7035279135
 11
17.044519919
 21
0.4535279135
  0
LINE
  5
44F
100
AcDbEntity
  8
0
100
AcDbLine
 62
7
  6
CONTINUOUS
 10
33.3505254366
 20
11.0229004107
 11
33.6005254366
 21
11.0229004107
  0
LINE
  5
450
100
AcDbEntity
  8
0
100
AcDbLine
 62
7
  6
CONTINUOUS
 10
0.7364933212
 20
11.0250407989
 11
0.4864933212
 21
11.0250407989
  0
LINE
  5
451
100
AcDbEntity
  8
0
100
AcDbLine
 62
7
  6
CONTINUOUS
 10
21.1216648563
 20
21.3366775222
 11
21.1216648563
 21
21.5866775222
  0
LINE
  5
452
100
AcDbEntity
  8
0
100
AcDbLine
 62
7
  6
CONTINUOUS
 10
21.123273272
 20
0.7029532451
 11
21.123273272
 21
0.4529532451
  0
LINE
  5
453
100
AcDbEntity
  8
0
100
AcDbLine
 62
7
  6
CONTINUOUS
 10
17.044519919
 20
0.7035279135
 11
16.957916919
 21
0.5535279135
  0
LINE
  5
454
100
AcDbEntity
  8
0
100
AcDbLine
 62
7
  6
CONTINUOUS
 10
33.3591947174
 20
16.1718388512
 11
33.6091947174
 21
16.1718388512
  0
LINE
  5
455
100
AcDbEntity
  8
0
100
AcDbLine
 62
7
  6
CONTINUOUS
 10
0.7307206509
 20
16.1796642805
 11
0.4807206509
 21
16.1796642805
  0
LINE
  5
456
100
AcDbEntity
  8
0
100
AcDbLine
 62
7
  6
CONTINUOUS
 10
16.9565973286
 20
21.4866775222
 11
17.0432003286
 21
21.3366775222
  0
LINE
  5
457
100
AcDbEntity
  8
0
100
AcDbLine
 62
7
  6
CONTINUOUS
 10
25.1978890403
 20
21.3360123859
 11
25.1978890403
 21
21.5860123859
  0
LINE
  5
458
100
AcDbEntity
  8
0
100
AcDbLine
 62
7
  6
CONTINUOUS
 10
25.1987539847
 20
0.7030140686
 11
25.1987539847
 21
0.4530140686
  0
LINE
  5
459
100
AcDbEntity
  8
0
100
AcDbLine
 62
7
  6
CONTINUOUS
 10
33.5005254366
 20
11.1095034107
 11
33.3505254366
 21
11.0229004107
  0
LINE
  5
45A
100
AcDbEntity
  8
0
100
AcDbLine
 62
7
  6
CONTINUOUS
 10
33.3505254366
 20
11.0229004107
 11
33.5005254366
 21
10.9362974107
  0
LINE
  5
45B
100
AcDbEntity
  8
0
100
AcDbLine
 62
7
  6
CONTINUOUS
 10
27.0024539446
 20
2.623495704
 11
27.0024539446
 21
0.703495704
  0
LINE
  5
45C
100
AcDbEntity
  8
0
100
AcDbLine
 62
7
  6
CONTINUOUS
 10
27.5254366922
 20
0.9674889563
 11
27.5254366922
 21
0.7453979563
  0
LINE
  5
45D
100
AcDbEntity
  8
0
100
AcDbLine
 62
7
  6
CONTINUOUS
 10
27.5254366922
 20
1.0174889563
 11
27.5254366922
 21
1.1174889563
  0
LINE
  5
45E
100
AcDbEntity
  8
0
100
AcDbLine
 62
7
  6
CONTINUOUS
 10
27.5254366922
 20
1.1674889563
 11
27.5254366922
 21
1.3895799563
  0
LINE
  5
45F
100
AcDbEntity
  8
0
100
AcDbLine
 62
7
  6
CONTINUOUS
 10
33.3519788796
 20
21.3366775222
 11
0.7364933212
 21
21.3366775222
  0
LINE
  5
460
100
AcDbEntity
  8
0
100
AcDbLine
 62
7
  6
CONTINUOUS
 10
17.1298033286
 20
21.4866775222
 11
16.9565973286
 21
21.4866775222
  0
LINE
  5
461
100
AcDbEntity
  8
0
100
AcDbLine
 62
7
  6
CONTINUOUS
 10
28.1301066922
 20
0.8847909563
 11
28.1301066922
 21
1.2501869563
  0
LINE
  5
462
100
AcDbEntity
  8
0
100
AcDbLine
 62
7
  6
CONTINUOUS
 10
28.7364976922
 20
1.3195799563
 11
28.7364976922
 21
0.8153979563
  0
LINE
  5
463
100
AcDbEntity
  8
0
100
AcDbLine
 62
7
  6
CONTINUOUS
 10
29.0024539446
 20
2.623495704
 11
29.0024539446
 21
0.703495704
  0
LINE
  5
464
100
AcDbEntity
  8
0
100
AcDbLine
 62
7
  6
CONTINUOUS
 10
29.2763246158
 20
0.7031465965
 11
29.2763246158
 21
0.4531465965
  0
LINE
  5
465
100
AcDbEntity
  8
0
100
AcDbLine
 62
7
  6
CONTINUOUS
 10
29.2763389625
 20
21.3354056718
 11
29.2763389625
 21
21.5854056718
  0
LINE
  5
466
100
AcDbEntity
  8
0
100
AcDbLine
 62
7
  6
CONTINUOUS
 10
29.8024539446
 20
1.323495704
 11
29.8024539446
 21
0.953495704
  0
LINE
  5
467
100
AcDbEntity
  8
0
100
AcDbLine
 62
7
  6
CONTINUOUS
 10
31.1774539446
 20
0.953495704
 11
31.1774539446
 21
0.703495704
  0
LINE
  5
468
100
AcDbEntity
  8
0
100
AcDbLine
 62
7
  6
CONTINUOUS
 10
32.5524539446
 20
1.323495704
 11
32.5524539446
 21
0.953495704
  0
LINE
  5
469
100
AcDbEntity
  8
0
100
AcDbLine
 62
7
  6
CONTINUOUS
 10
33.3519788796
 20
0.703495704
 11
33.3519788796
 21
21.3366775222
  0
LINE
  5
46A
100
AcDbEntity
  8
0
100
AcDbLine
 62
7
  6
CONTINUOUS
 10
33.5005254366
 20
10.9362974107
 11
33.5005254366
 21
11.1095034107
  0
LWPOLYLINE
  5
46B
100
AcDbEntity
  8
0
100
AcDbPolyline
 62
7
  6
CONTINUOUS
 90
4
 70
0
 10
18.8877684492
 20
6.9001691574
 10
18.8661423518
 20
6.8944194996
 10
18.8454371717
 20
6.88870587
 10
18.8265268238
 20
6.8829633637
  0
LWPOLYLINE
  5
46C
100
AcDbEntity
  8
0
100
AcDbPolyline
 62
7
  6
CONTINUOUS
 90
5
 70
0
 10
18.8877684492
 20
6.7266744955
 10
18.8682560495
 20
6.7215080621
 10
18.8495816779
 20
6.7163760008
 10
18.8323369555
 20
6.711300165
 10
18.8170378233
 20
6.7062654884
  0
LWPOLYLINE
  5
46D
100
AcDbEntity
  8
0
100
AcDbPolyline
 62
7
  6
CONTINUOUS
 90
4
 70
0
 10
18.8877684492
 20
6.7712803432
 10
18.9093955403
 20
6.7768644394
 10
18.9300856443
 20
6.7824103266
 10
18.9489972106
 20
6.7879917452
  0
LWPOLYLINE
  5
46E
100
AcDbEntity
  8
0
100
AcDbPolyline
 62
7
  6
CONTINUOUS
 90
5
 70
0
 10
18.8877684492
 20
6.9397935091
 10
18.9098461327
 20
6.9454857386
 10
18.9309290673
 20
6.9511777055
 10
18.9500432715
 20
6.9568315675
 10
18.9661949605
 20
6.9624225976
  0
LWPOLYLINE
  5
46F
100
AcDbEntity
  8
0
100
AcDbPolyline
 62
7
  6
CONTINUOUS
 90
8
 70
0
 10
18.8877684492
 20
6.8130752512
 10
18.9281044
 20
6.8178649801
 10
18.9674129432
 20
6.8225931111
 10
19.0043925898
 20
6.8273386501
 10
19.0377189355
 20
6.8321034124
 10
19.0668030822
 20
6.8368819535
 10
19.0904478672
 20
6.8416307001
 10
19.1084842807
 20
6.8466137568
  0
LWPOLYLINE
  5
470
100
AcDbEntity
  8
0
100
AcDbPolyline
 62
7
  6
CONTINUOUS
 90
8
 70
0
 10
18.8877684492
 20
6.8578428872
 10
18.8473161066
 20
6.8530715531
 10
18.8080085222
 20
6.8483486462
 10
18.7711460608
 20
6.8436237482
 10
18.7380230104
 20
6.8388745945
 10
18.7092096494
 20
6.834094518
 10
18.6858892085
 20
6.829346463
 10
18.6687747505
 20
6.8245775313
  0
LINE
  5
471
100
AcDbEntity
  8
0
100
AcDbLine
 62
7
  6
CONTINUOUS
 10
19.1055224049
 20
6.5352654884
 11
18.6700144934
 21
6.5352654884
  0
LINE
  5
472
100
AcDbEntity
  8
0
100
AcDbLine
 62
7
  6
CONTINUOUS
 10
19.1160127011
 20
6.5453074849
 11
18.6595241973
 21
6.5453074849
  0
LINE
  5
473
100
AcDbEntity
  8
0
100
AcDbLine
 62
7
  6
CONTINUOUS
 10
18.6524969388
 20
6.7062654884
 11
19.1230399595
 21
6.7062654884
  0
LWPOLYLINE
  5
474
100
AcDbEntity
  8
0
100
AcDbPolyline
 62
7
  6
CONTINUOUS
 90
9
 70
0
 10
18.8877684492
 20
7.0736367513
 10
18.9095298642
 20
7.0794001243
 10
18.9303735533
 20
7.0851875184
 10
18.9494052711
 20
7.0909628031
 10
18.9656483451
 20
7.0967066645
 10
18.9785884104
 20
7.1025046566
 10
18.9875760183
 20
7.1082943428
 10
18.9921782402
 20
7.1140755283
 10
18.9927684491
 20
7.1170120922
  0
LWPOLYLINE
  5
475
100
AcDbEntity
  8
0
100
AcDbPolyline
 62
7
  6
CONTINUOUS
 90
6
 70
0
 10
18.8877684492
 20
7.1083163713
 10
18.9095215015
 20
7.1139284076
 10
18.9302712552
 20
7.1194987638
 10
18.9491740835
 20
7.1250913674
 10
18.9653884597
 20
7.1306481234
 10
18.9707502097
 20
7.1327711984
  0
LWPOLYLINE
  5
476
100
AcDbEntity
  8
0
100
AcDbPolyline
 62
7
  6
CONTINUOUS
 90
4
 70
0
 10
18.7680290394
 20
7.1412359392
 10
18.8031727584
 20
7.1454953842
 10
18.8447806204
 20
7.1502486495
 10
18.8877684492
 20
7.1549834055
  0
LWPOLYLINE
  5
477
100
AcDbEntity
  8
0
100
AcDbPolyline
 62
7
  6
CONTINUOUS
 90
9
 70
0
 10
18.8877684492
 20
6.9840274412
 10
18.9294025006
 20
6.9887826668
 10
18.9699682914
 20
6.9935687439
 10
19.0081226298
 20
6.9983247327
 10
19.0425132735
 20
7.0030276706
 10
19.0725325959
 20
7.0078120905
 10
19.0969231481
 20
7.0126190183
 10
19.1148895742
 20
7.0173765111
 10
19.1166485337
 20
7.0179666434
  0
LWPOLYLINE
  5
478
100
AcDbEntity
  8
0
100
AcDbPolyline
 62
7
  6
CONTINUOUS
 90
8
 70
0
 10
18.8877684492
 20
7.0288770257
 10
18.8460243382
 20
7.0241404986
 10
18.8054685739
 20
7.0193889111
 10
18.7674357364
 20
7.0146204985
 10
18.7332402628
 20
7.0099092695
 10
18.7034803199
 20
7.0051628709
 10
18.679412668
 20
7.0003681999
 10
18.6607840422
 20
6.9952436689
  0
LWPOLYLINE
  5
479
100
AcDbEntity
  8
0
100
AcDbPolyline
 62
7
  6
CONTINUOUS
 90
9
 70
0
 10
18.8877684492
 20
7.1549834055
 10
18.9306955899
 20
7.1597687962
 10
18.9725319085
 20
7.164492315
 10
19.0118592438
 20
7.1692620927
 10
19.0473054867
 20
7.1740222199
 10
19.0782622778
 20
7.1787851712
 10
19.1034006607
 20
7.1835358
 10
19.1219131844
 20
7.1883308098
 10
19.1241161352
 20
7.1890605235
  0
LWPOLYLINE
  5
47A
100
AcDbEntity
  8
0
100
AcDbPolyline
 62
7
  6
CONTINUOUS
 90
6
 70
0
 10
18.8877684492
 20
7.5940754085
 10
18.8661505442
 20
7.5883332881
 10
18.8452045419
 20
7.582533552
 10
18.8260165208
 20
7.5767150699
 10
18.8096964144
 20
7.5709153303
 10
18.8060360178
 20
7.5694287718
  0
LWPOLYLINE
  5
47B
100
AcDbEntity
  8
0
100
AcDbPolyline
 62
7
  6
CONTINUOUS
 90
6
 70
0
 10
18.8877684492
 20
7.6139359864
 10
18.9092921118
 20
7.6194959431
 10
18.9300394299
 20
7.6250659269
 10
18.9490480941
 20
7.6306573501
 10
18.9653753494
 20
7.6362687062
 10
18.9704793957
 20
7.6382908773
  0
LWPOLYLINE
  5
47C
100
AcDbEntity
  8
0
100
AcDbPolyline
 62
7
  6
CONTINUOUS
 90
6
 70
0
 10
18.8877684492
 20
7.4453882469
 10
18.9095286004
 20
7.4509962213
 10
18.930426369
 20
7.4566206538
 10
18.9495057384
 20
7.4622716917
 10
18.9657781612
 20
7.4678635462
 10
18.970586676
 20
7.4697737041
  0
LWPOLYLINE
  5
47D
100
AcDbEntity
  8
0
100
AcDbPolyline
 62
7
  6
CONTINUOUS
 90
8
 70
0
 10
18.8877684492
 20
7.4453882469
 10
18.8659961584
 20
7.4397981169
 10
18.8451332212
 20
7.4341783707
 10
18.8260994529
 20
7.4285706099
 10
18.8098643805
 20
7.4229793897
 10
18.7969295096
 20
7.417350215
 10
18.7879485704
 20
7.4117334054
 10
18.7834630999
 20
7.4062390623
  0
LWPOLYLINE
  5
47E
100
AcDbEntity
  8
0
100
AcDbPolyline
 62
7
  6
CONTINUOUS
 90
6
 70
0
 10
18.8877684492
 20
7.7675120542
 10
18.8660341404
 20
7.7617659996
 10
18.8453173785
 20
7.7560432906
 10
18.8264373133
 20
7.7502951926
 10
18.8102205318
 20
7.7445825265
 10
18.8058331903
 20
7.7428114207
  0
LWPOLYLINE
  5
47F
100
AcDbEntity
  8
0
100
AcDbPolyline
 62
7
  6
CONTINUOUS
 90
6
 70
0
 10
18.8877684492
 20
7.7824907408
 10
18.9105746081
 20
7.7883682975
 10
18.9324453068
 20
7.7942999808
 10
18.9522461022
 20
7.8002468014
 10
18.9688978502
 20
7.806182271
 10
18.9704555774
 20
7.8068188685
  0
LWPOLYLINE
  5
480
100
AcDbEntity
  8
0
100
AcDbPolyline
 62
7
  6
CONTINUOUS
 90
7
 70
0
 10
18.8877684492
 20
7.496905334
 10
18.9332951529
 20
7.5016797754
 10
18.9776629187
 20
7.5064157884
 10
19.0193370966
 20
7.5112040801
 10
19.0569034709
 20
7.5159473472
 10
19.0897331097
 20
7.5206985792
 10
19.0987673348
 20
7.5223172995
  0
LWPOLYLINE
  5
481
100
AcDbEntity
  8
0
100
AcDbPolyline
 62
7
  6
CONTINUOUS
 90
9
 70
0
 10
18.8877684492
 20
7.5419649187
 10
18.8421637682
 20
7.5372092623
 10
18.7978627937
 20
7.5324508196
 10
18.7563038882
 20
7.5277295606
 10
18.7188978693
 20
7.5230236088
 10
18.6863079591
 20
7.5182145828
 10
18.6599840977
 20
7.5134289348
 10
18.6407102868
 20
7.5086905321
 10
18.6373343709
 20
7.5075987444
  0
LWPOLYLINE
  5
482
100
AcDbEntity
  8
0
100
AcDbPolyline
 62
7
  6
CONTINUOUS
 90
9
 70
0
 10
18.8877684492
 20
7.6678707025
 10
18.9321475544
 20
7.6724110452
 10
18.9755262006
 20
7.6769268385
 10
19.0165797878
 20
7.6814048976
 10
19.0539709395
 20
7.6858767
 10
19.0871642747
 20
7.6904329755
 10
19.1149456427
 20
7.6949692197
 10
19.13645204
 20
7.6994586547
 10
19.1475527684
 20
7.7026383466
  0
LWPOLYLINE
  5
483
100
AcDbEntity
  8
0
100
AcDbPolyline
 62
7
  6
CONTINUOUS
 90
9
 70
0
 10
18.8877684492
 20
7.7129900299
 10
18.8433234358
 20
7.7084698269
 10
18.8000138173
 20
7.704013822
 10
18.7590788535
 20
7.6995119639
 10
18.7218206351
 20
7.6950038578
 10
18.6888173887
 20
7.6904902232
 10
18.6613041835
 20
7.6859953879
 10
18.6401031526
 20
7.6814679136
 10
18.6298474519
 20
7.6784721587
  0
LWPOLYLINE
  5
484
100
AcDbEntity
  8
0
100
AcDbPolyline
 62
7
  6
CONTINUOUS
 90
11
 70
0
 10
18.8877684492
 20
7.6678707025
 10
18.8435221916
 20
7.6634145119
 10
18.8004440099
 20
7.6589497255
 10
18.7598265762
 20
7.6544477531
 10
18.7228976692
 20
7.6499414472
 10
18.6901779627
 20
7.6454409667
 10
18.6628981334
 20
7.6409493285
 10
18.6418701574
 20
7.6364225439
 10
18.6276426906
 20
7.6318806188
 10
18.6205589085
 20
7.6273951743
 10
18.6197511986
 20
7.6251741957
  0
LINE
  5
485
100
AcDbEntity
  8
0
100
AcDbLine
 62
7
  6
CONTINUOUS
 10
19.4655243547
 20
7.4784284973
 11
19.4064692366
 21
7.4784284973
  0
LINE
  5
486
100
AcDbEntity
  8
0
100
AcDbLine
 62
7
  6
CONTINUOUS
 10
15.1643432523
 20
7.4784284973
 11
15.2233983704
 21
7.4784284973
  0
LWPOLYLINE
  5
487
100
AcDbEntity
  8
0
100
AcDbPolyline
 62
7
  6
CONTINUOUS
 90
4
 70
0
 10
18.6571166635
 20
6.7710185933
 10
18.700821037
 20
6.7566159182
 10
18.7430008832
 20
6.742677439
 10
18.782776306
 20
6.7294810189
  0
LINE
  5
488
100
AcDbEntity
  8
0
100
AcDbLine
 62
7
  6
CONTINUOUS
 10
18.8111364966
 20
6.8775303992
 11
18.8100836584
 21
6.8778923894
  0
LWPOLYLINE
  5
489
100
AcDbEntity
  8
0
100
AcDbPolyline
 62
7
  6
CONTINUOUS
 90
6
 70
0
 10
18.6628879954
 20
6.9323027692
 10
18.6972873926
 20
6.9202981196
 10
18.7333346546
 20
6.9074229009
 10
18.7674056196
 20
6.8947953311
 10
18.7990098301
 20
6.8823814217
 10
18.8048752406
 20
6.8799624586
  0
LWPOLYLINE
  5
48A
100
AcDbEntity
  8
0
100
AcDbPolyline
 62
7
  6
CONTINUOUS
 90
6
 70
0
 10
19.103112897
 20
6.7391025596
 10
19.0704124109
 20
6.7505855038
 10
19.0363509453
 20
6.7628502344
 10
19.0040184338
 20
6.7749562026
 10
18.9737394562
 20
6.786998301
 10
18.9695406075
 20
6.7887495058
  0
LWPOLYLINE
  5
48B
100
AcDbEntity
  8
0
100
AcDbPolyline
 62
7
  6
CONTINUOUS
 90
3
 70
0
 10
18.9608248528
 20
6.792045591
 10
18.9655580917
 20
6.7903692898
 10
18.9695414383
 20
6.7887545344
  0
LWPOLYLINE
  5
48C
100
AcDbEntity
  8
0
100
AcDbPolyline
 62
7
  6
CONTINUOUS
 90
5
 70
0
 10
18.8877684492
 20
7.8388386544
 10
18.9348184717
 20
7.8434936671
 10
18.9805674293
 20
7.8481324717
 10
19.0236566512
 20
7.8527965068
 10
19.0351149249
 20
7.8541464136
  0
LINE
  5
48D
100
AcDbEntity
  8
0
100
AcDbLine
 62
7
  6
CONTINUOUS
 10
19.2883590003
 20
7.6723411731
 11
19.2293034481
 21
7.6723411713
  0
LINE
  5
48E
100
AcDbEntity
  8
0
100
AcDbLine
 62
7
  6
CONTINUOUS
 10
15.3415086067
 20
7.6723411694
 11
15.4005641589
 21
7.6723411712
  0
LINE
  5
48F
100
AcDbEntity
  8
0
100
AcDbLine
 62
7
  6
CONTINUOUS
 10
18.9048243833
 20
7.9032654884
 11
18.6002310689
 21
7.9032654884
  0
LWPOLYLINE
  5
490
100
AcDbEntity
  8
0
100
AcDbPolyline
 62
7
  6
CONTINUOUS
 90
5
 70
0
 10
18.6551368002
 20
7.1035353894
 10
18.7005136169
 20
7.0877002976
 10
18.7427099703
 20
7.072522834
 10
18.7798983041
 20
7.0584953625
 10
18.8048767695
 20
7.0484625656
  0
LWPOLYLINE
  5
491
100
AcDbEntity
  8
0
100
AcDbPolyline
 62
7
  6
CONTINUOUS
 90
5
 70
0
 10
19.1187860768
 20
7.0806008341
 10
19.0768537176
 20
7.0952467509
 10
19.0355599575
 20
7.1100958527
 10
18.9980076476
 20
7.1242507247
 10
18.97383988
 20
7.1339983882
  0
LWPOLYLINE
  5
492
100
AcDbEntity
  8
0
100
AcDbPolyline
 62
7
  6
CONTINUOUS
 90
5
 70
0
 10
19.1106393674
 20
6.9099401263
 10
19.0672101591
 20
6.9252030639
 10
19.0268485028
 20
6.9398547052
 10
18.9910665105
 20
6.9535100428
 10
18.9676651521
 20
6.9630105899
  0
LINE
  5
493
100
AcDbEntity
  8
0
100
AcDbLine
 62
7
  6
CONTINUOUS
 10
18.8100836584
 20
6.8778923894
 11
18.8048749862
 21
6.879960836
  0
LWPOLYLINE
  5
494
100
AcDbEntity
  8
0
100
AcDbPolyline
 62
7
  6
CONTINUOUS
 90
3
 70
0
 10
18.6551368021
 20
7.103535076
 10
18.6459562302
 20
7.1076086196
 10
18.6421457451
 20
7.1122547488
  0
LWPOLYLINE
  5
495
100
AcDbEntity
  8
0
100
AcDbPolyline
 62
7
  6
CONTINUOUS
 90
3
 70
0
 10
18.6628879908
 20
6.932303908
 10
18.6533117542
 20
6.9366436079
 10
18.6496079784
 20
6.9413415081
  0
LWPOLYLINE
  5
496
100
AcDbEntity
  8
0
100
AcDbPolyline
 62
7
  6
CONTINUOUS
 90
5
 70
0
 10
18.8048749862
 20
6.879960836
 10
18.797039181
 20
6.8835360045
 10
18.7879867909
 20
6.8891771892
 10
18.7833535044
 20
6.8948496368
 10
18.7827684492
 20
6.8976849374
  0
LWPOLYLINE
  5
497
100
AcDbEntity
  8
0
100
AcDbPolyline
 62
7
  6
CONTINUOUS
 90
3
 70
0
 10
19.1031129542
 20
6.7391032592
 10
19.1129626646
 20
6.7346053833
 10
19.1166806677
 20
6.7295217081
  0
LWPOLYLINE
  5
498
100
AcDbEntity
  8
0
100
AcDbPolyline
 62
7
  6
CONTINUOUS
 90
5
 70
0
 10
18.9695414383
 20
6.7887545344
 10
18.9785737675
 20
6.7845540323
 10
18.9875925469
 20
6.778751588
 10
18.9921914292
 20
6.7729303796
 10
18.9927684491
 20
6.7700298256
  0
LINE
  5
499
100
AcDbEntity
  8
0
100
AcDbLine
 62
7
  6
CONTINUOUS
 10
15.5830492745
 20
8.4803639136
 11
15.5960396555
 21
8.4578639136
  0
LINE
  5
49A
100
AcDbEntity
  8
0
100
AcDbLine
 62
7
  6
CONTINUOUS
 10
15.6090300366
 20
8.4353639136
 11
15.6220204177
 21
8.4128639136
  0
LINE
  5
49B
100
AcDbEntity
  8
0
100
AcDbLine
 62
7
  6
CONTINUOUS
 10
15.6609915608
 20
8.4353639136
 11
15.6480011798
 21
8.4578639136
  0
LINE
  5
49C
100
AcDbEntity
  8
0
100
AcDbLine
 62
7
  6
CONTINUOUS
 10
15.6350107987
 20
8.4803639136
 11
15.6220204177
 21
8.5028639136
  0
LINE
  5
49D
100
AcDbEntity
  8
0
100
AcDbLine
 62
7
  6
CONTINUOUS
 10
15.1641464019
 20
9.6881788743
 11
15.1641464019
 21
13.9696749373
  0
LINE
  5
49E
100
AcDbEntity
  8
0
100
AcDbLine
 62
7
  6
CONTINUOUS
 10
15.1643432523
 20
7.4784284973
 11
15.1643432523
 21
9.6783363546
  0
LINE
  5
49F
100
AcDbEntity
  8
0
100
AcDbLine
 62
7
  6
CONTINUOUS
 10
15.22320152
 20
9.6881788743
 11
15.22320152
 21
14.0287300554
  0
LINE
  5
4A0
100
AcDbEntity
  8
0
100
AcDbLine
 62
7
  6
CONTINUOUS
 10
15.2233983704
 20
7.4784284973
 11
15.2233983704
 21
9.6783363546
  0
LINE
  5
4A1
100
AcDbEntity
  8
0
100
AcDbLine
 62
7
  6
CONTINUOUS
 10
15.2302881342
 20
14.0287300554
 11
15.2302881342
 21
9.6881788743
  0
LINE
  5
4A2
100
AcDbEntity
  8
0
100
AcDbLine
 62
7
  6
CONTINUOUS
 10
15.2302881342
 20
9.6031395042
 11
15.2302881342
 21
9.6783363546
  0
LINE
  5
4A3
100
AcDbEntity
  8
0
100
AcDbLine
 62
7
  6
CONTINUOUS
 10
15.2480046696
 20
13.6240056459
 11
15.2480046696
 21
13.653533205
  0
LWPOLYLINE
  5
4A4
100
AcDbEntity
  8
0
100
AcDbPolyline
 62
7
  6
CONTINUOUS
 90
5
 70
0
 10
18.6394494669
 20
7.4459610139
 10
18.679878469
 20
7.4319848713
 10
18.7211107921
 20
7.417411373
 10
18.7598472553
 20
7.4032195558
 10
18.7643582304
 20
7.4014671807
  0
LWPOLYLINE
  5
4A5
100
AcDbEntity
  8
0
100
AcDbPolyline
 62
7
  6
CONTINUOUS
 90
5
 70
0
 10
18.6320228468
 20
7.6170145226
 10
18.68581733
 20
7.5984075567
 10
18.7369457366
 20
7.580188327
 10
18.7821081992
 20
7.5632311962
 10
18.7864512198
 20
7.5614868072
  0
LWPOLYLINE
  5
4A6
100
AcDbEntity
  8
0
100
AcDbPolyline
 62
7
  6
CONTINUOUS
 90
3
 70
0
 10
18.6394494667
 20
7.4459610301
 10
18.6312443823
 20
7.4495170495
 10
18.6272167792
 20
7.4541842852
  0
LWPOLYLINE
  5
4A7
100
AcDbEntity
  8
0
100
AcDbPolyline
 62
7
  6
CONTINUOUS
 90
3
 70
0
 10
19.1187861783
 20
7.0806021472
 10
19.1281083945
 20
7.0763816215
 10
19.1316161387
 20
7.0716002332
  0
LWPOLYLINE
  5
4A8
100
AcDbEntity
  8
0
100
AcDbPolyline
 62
7
  6
CONTINUOUS
 90
3
 70
0
 10
19.1106396184
 20
6.9099432579
 10
19.1207465001
 20
6.9053158283
 10
19.1241492461
 20
6.9005802753
  0
LWPOLYLINE
  5
4A9
100
AcDbEntity
  8
0
100
AcDbPolyline
 62
7
  6
CONTINUOUS
 90
5
 70
0
 10
18.8048771561
 20
7.0484650276
 10
18.7967514622
 20
7.0521978655
 10
18.7878849474
 20
7.0577993936
 10
18.7833468701
 20
7.0633757915
 10
18.7827684492
 20
7.066191441
  0
LWPOLYLINE
  5
4AA
100
AcDbEntity
  8
0
100
AcDbPolyline
 62
7
  6
CONTINUOUS
 90
5
 70
0
 10
18.9697321258
 20
6.9621734943
 10
18.9785914394
 20
6.9580527201
 10
18.9875763789
 20
6.952241378
 10
18.9921774708
 20
6.9464573681
 10
18.9927684487
 20
6.9435304757
  0
LINE
  5
4AB
100
AcDbEntity
  8
0
100
AcDbLine
 62
7
  6
CONTINUOUS
 10
15.2893432523
 20
9.6783363546
 11
15.2893432523
 21
13.6153442286
  0
LINE
  5
4AC
100
AcDbEntity
  8
0
100
AcDbLine
 62
7
  6
CONTINUOUS
 10
15.5830492745
 20
8.4353639136
 11
15.6090300366
 21
8.4353639136
  0
LINE
  5
4AD
100
AcDbEntity
  8
0
100
AcDbLine
 62
7
  6
CONTINUOUS
 10
15.6350107987
 20
8.4353639136
 11
15.6609915608
 21
8.4353639136
  0
LINE
  5
4AE
100
AcDbEntity
  8
0
100
AcDbLine
 62
7
  6
CONTINUOUS
 10
18.9688760461
 20
8.4353639136
 11
18.9948568083
 21
8.4353639136
  0
LINE
  5
4AF
100
AcDbEntity
  8
0
100
AcDbLine
 62
7
  6
CONTINUOUS
 10
19.0208375704
 20
8.4353639136
 11
19.0468183325
 21
8.4353639136
  0
LINE
  5
4B0
100
AcDbEntity
  8
0
100
AcDbLine
 62
7
  6
CONTINUOUS
 10
19.0468183325
 20
8.4803639136
 11
19.0208375704
 21
8.4803639136
  0
LINE
  5
4B1
100
AcDbEntity
  8
0
100
AcDbLine
 62
7
  6
CONTINUOUS
 10
18.9948568083
 20
8.4803639136
 11
18.9688760461
 21
8.4803639136
  0
LINE
  5
4B2
100
AcDbEntity
  8
0
100
AcDbLine
 62
7
  6
CONTINUOUS
 10
15.6609915608
 20
8.4803639136
 11
15.6350107987
 21
8.4803639136
  0
LINE
  5
4B3
100
AcDbEntity
  8
0
100
AcDbLine
 62
7
  6
CONTINUOUS
 10
15.6090300366
 20
8.4803639136
 11
15.5830492745
 21
8.4803639136
  0
LINE
  5
4B4
100
AcDbEntity
  8
0
100
AcDbLine
 62
7
  6
CONTINUOUS
 10
19.1614865888
 20
7.7557460194
 11
18.9927684492
 21
7.810900521
  0
LWPOLYLINE
  5
4B5
100
AcDbEntity
  8
0
100
AcDbPolyline
 62
7
  6
CONTINUOUS
 90
5
 70
0
 10
18.6239031072
 20
7.7883112623
 10
18.6744477301
 20
7.7709220674
 10
18.7245666452
 20
7.7532325755
 10
18.7708540065
 20
7.7361353004
 10
18.7800608589
 20
7.7324811728
  0
LWPOLYLINE
  5
4B6
100
AcDbEntity
  8
0
100
AcDbPolyline
 62
7
  6
CONTINUOUS
 90
5
 70
0
 10
19.1418050306
 20
7.5930976336
 10
19.092835335
 20
7.6100622352
 10
19.0444358367
 20
7.6272952403
 10
18.9997824894
 20
7.6439852022
 10
18.9922970601
 20
7.6469927048
  0
LWPOLYLINE
  5
4B7
100
AcDbEntity
  8
0
100
AcDbPolyline
 62
7
  6
CONTINUOUS
 90
4
 70
0
 10
18.6239031331
 20
7.7883094174
 10
18.6207998082
 20
7.78945098
 10
18.6132554661
 20
7.7939492053
 10
18.6122869341
 20
7.7961339597
  0
LWPOLYLINE
  5
4B8
100
AcDbEntity
  8
0
100
AcDbPolyline
 62
7
  6
CONTINUOUS
 90
3
 70
0
 10
18.9932365883
 20
7.4730970897
 10
18.9916520979
 20
7.4736977454
 10
18.9860112319
 20
7.4759914121
  0
LINE
  5
4B9
100
AcDbEntity
  8
0
100
AcDbLine
 62
7
  6
CONTINUOUS
 10
15.7059606659
 20
7.4477945712
 11
15.699575697
 21
7.8947423943
  0
LINE
  5
4BA
100
AcDbEntity
  8
0
100
AcDbLine
 62
7
  6
CONTINUOUS
 10
15.7889585061
 20
7.922663965
 11
15.7818357831
 21
7.4240733493
  0
LWPOLYLINE
  5
4BB
100
AcDbEntity
  8
0
100
AcDbPolyline
 62
7
  6
CONTINUOUS
 90
41
 70
0
 10
15.3415086066
 20
7.6723411712
 10
15.3464924232
 20
7.7107628176
 10
15.36199271
 20
7.7494381996
 10
15.3885719388
 20
7.7873717996
 10
15.4252983215
 20
7.8229861695
 10
15.4705955055
 20
7.855736872
 10
15.5234771938
 20
7.8859547762
 10
15.5837566976
 20
7.9142089672
 10
15.6514139562
 20
7.9408480941
 10
15.7267396265
 20
7.9661429151
 10
15.810136941
 20
7.9902444549
 10
15.9021400278
 20
8.0132256874
 10
16.0034098807
 20
8.0350941264
 10
16.1147632986
 20
8.0558006432
 10
16.2371312686
 20
8.0752267712
 10
16.3715459995
 20
8.09317701
 10
16.5191283878
 20
8.1093670835
 10
16.6814358995
 20
8.1234341309
 10
16.8599762537
 20
8.134846084
 10
17.0556011199
 20
8.1428588148
 10
17.2739599113
 20
8.14656646
 10
17.5076184719
 20
8.1445662424
 10
17.7293872861
 20
8.1368801231
 10
17.9226053803
 20
8.125338943
 10
18.0938048603
 20
8.1110101404
 10
18.247417701
 20
8.0944931992
 10
18.3852372855
 20
8.0763166398
 10
18.5095386128
 20
8.056755311
 10
18.6220688485
 20
8.0359720005
 10
18.7241107494
 20
8.0140638849
 10
18.8166933624
 20
7.9910583905
 10
18.9006111117
 20
7.9669245089
 10
18.976418807
 20
7.9415851289
 10
19.0445106406
 20
7.9148930089
 10
19.1051817094
 20
7.8865762075
 10
19.1584172293
 20
7.8562812569
 10
19.2040232925
 20
7.8234373178
 10
19.2410126298
 20
7.7876980765
 10
19.2677883922
 20
7.7495961335
 10
19.2833760848
 20
7.710759977
 10
19.2883590003
 20
7.6723411712
  0
LWPOLYLINE
  5
4BC
100
AcDbEntity
  8
0
100
AcDbPolyline
 62
7
  6
CONTINUOUS
 90
41
 70
0
 10
15.4005637247
 20
7.6723411712
 10
15.4036369371
 20
7.6958618008
 10
15.413846313
 20
7.7211742093
 10
15.4332876308
 20
7.7487943724
 10
15.4629857177
 20
7.7775195306
 10
15.502374547
 20
7.8059612201
 10
15.5505305613
 20
7.8334607078
 10
15.6070145553
 20
7.8599265393
 10
15.6715679726
 20
7.885338412
 10
15.7442932157
 20
7.9097569221
 10
15.8254602983
 20
7.9332119811
 10
15.9155080197
 20
7.9557034757
 10
16.0150278843
 20
7.9771930918
 10
16.1247841743
 20
7.9976019347
 10
16.2456672848
 20
8.0167918168
 10
16.3786765907
 20
8.0345539598
 10
16.5249048148
 20
8.0505951497
 10
16.6858805233
 20
8.0645465038
 10
16.863083835
 20
8.0758727835
 10
17.0573402742
 20
8.0838293053
 10
17.2742326864
 20
8.0875119651
 10
17.5063318469
 20
8.0855251396
 10
17.7265701613
 20
8.0778922367
 10
17.9183616128
 20
8.066436503
 10
18.0881744392
 20
8.0522240426
 10
18.2403934202
 20
8.0358573198
 10
18.3767854625
 20
8.0178694545
 10
18.4995909772
 20
7.9985440472
 10
18.6105197795
 20
7.9780571876
 10
18.7108118927
 20
7.9565256648
 10
18.801442195
 20
7.9340065899
 10
18.8831337304
 20
7.9105148757
 10
18.9563454791
 20
7.886046257
 10
19.0213385378
 20
7.8605739776
 10
19.0782190255
 20
7.834035599
 10
19.1267313002
 20
7.8064464613
 10
19.166424893
 20
7.7778974335
 10
19.1963660352
 20
7.7490417201
 10
19.2159648379
 20
7.7212775166
 10
19.2262325743
 20
7.6958545177
 10
19.2293038822
 20
7.6723411712
  0
LWPOLYLINE
  5
4BD
100
AcDbEntity
  8
0
100
AcDbPolyline
 62
7
  6
CONTINUOUS
 90
3
 70
0
 10
19.1418051849
 20
7.5930997515
 10
19.1501830083
 20
7.5894249427
 10
19.1540172184
 20
7.5846693105
  0
LWPOLYLINE
  5
4BE
100
AcDbEntity
  8
0
100
AcDbPolyline
 62
7
  6
CONTINUOUS
 90
4
 70
0
 10
18.7891583246
 20
7.5625839955
 10
18.7879991549
 20
7.5633085099
 10
18.783363523
 20
7.5689632597
 10
18.7827684499
 20
7.5718168753
  0
LINE
  5
4BF
100
AcDbEntity
  8
0
100
AcDbLine
 62
7
  6
CONTINUOUS
 10
16.1551234243
 20
7.3422282556
 11
16.1457134792
 21
8.0009244079
  0
LINE
  5
4C0
100
AcDbEntity
  8
0
100
AcDbLine
 62
7
  6
CONTINUOUS
 10
16.240274086
 20
8.0159356604
 11
16.2304802859
 21
7.330369651
  0
LINE
  5
4C1
100
AcDbEntity
  8
0
100
AcDbLine
 62
7
  6
CONTINUOUS
 10
16.6040698586
 20
7.2872376915
 11
16.5930803435
 21
8.0565037489
  0
LINE
  5
4C2
100
AcDbEntity
  8
0
100
AcDbLine
 62
7
  6
CONTINUOUS
 10
16.6904496391
 20
8.0648385473
 11
16.6792511656
 21
7.2809454027
  0
LINE
  5
4C3
100
AcDbEntity
  8
0
100
AcDbLine
 62
7
  6
CONTINUOUS
 10
15.6220204177
 20
8.5028639136
 11
15.6090300366
 21
8.4803639136
  0
LINE
  5
4C4
100
AcDbEntity
  8
0
100
AcDbLine
 62
7
  6
CONTINUOUS
 10
15.5960396555
 20
8.4578639136
 11
15.5830492745
 21
8.4353639136
  0
LINE
  5
4C5
100
AcDbEntity
  8
0
100
AcDbLine
 62
7
  6
CONTINUOUS
 10
15.2928865594
 20
9.540541079
 11
19.3369810476
 21
9.540541079
  0
LINE
  5
4C6
100
AcDbEntity
  8
0
100
AcDbLine
 62
7
  6
CONTINUOUS
 10
15.1643432523
 20
9.6783363546
 11
19.4655243547
 21
9.6783363546
  0
LINE
  5
4C7
100
AcDbEntity
  8
0
100
AcDbLine
 62
7
  6
CONTINUOUS
 10
15.1641464019
 20
9.6881788743
 11
15.2893432523
 21
9.6881788743
  0
LINE
  5
4C8
100
AcDbEntity
  8
0
100
AcDbLine
 62
7
  6
CONTINUOUS
 10
19.3405243547
 20
9.6881788743
 11
19.4657212051
 21
9.6881788743
  0
LINE
  5
4C9
100
AcDbEntity
  8
0
100
AcDbLine
 62
7
  6
CONTINUOUS
 10
17.0529174847
 20
7.2616046537
 11
17.0411808735
 21
8.0831674347
  0
LINE
  5
4CA
100
AcDbEntity
  8
0
100
AcDbLine
 62
7
  6
CONTINUOUS
 10
15.6220204177
 20
8.4128639136
 11
15.6350107987
 21
8.4353639136
  0
LINE
  5
4CB
100
AcDbEntity
  8
0
100
AcDbLine
 62
7
  6
CONTINUOUS
 10
15.6480011798
 20
8.4578639136
 11
15.6609915608
 21
8.4803639136
  0
LWPOLYLINE
  5
4CC
100
AcDbEntity
  8
0
100
AcDbPolyline
 62
7
  6
CONTINUOUS
 90
3
 70
0
 10
18.7856405078
 20
7.7347172547
 10
18.7833533651
 20
7.7375247829
 10
18.7827684493
 20
7.7403643963
  0
LWPOLYLINE
  5
4CD
100
AcDbEntity
  8
0
100
AcDbPolyline
 62
7
  6
CONTINUOUS
 90
3
 70
0
 10
18.988187721
 20
7.6453540289
 10
18.9921787664
 20
7.6403466789
 10
18.9927684481
 20
7.6374195461
  0
LWPOLYLINE
  5
4CE
100
AcDbEntity
  8
0
100
AcDbPolyline
 62
7
  6
CONTINUOUS
 90
3
 70
0
 10
18.9886860574
 20
7.4713057436
 10
18.9876685534
 20
7.4725987676
 10
18.9838098311
 20
7.4751036459
  0
LINE
  5
4CF
100
AcDbEntity
  8
0
100
AcDbLine
 62
7
  6
CONTINUOUS
 10
17.1398973161
 20
8.0852310579
 11
17.1280957034
 21
7.2591181687
  0
LINE
  5
4D0
100
AcDbEntity
  8
0
100
AcDbLine
 62
7
  6
CONTINUOUS
 10
17.501764284
 20
7.2596515372
 11
17.4899640881
 21
8.0856652516
  0
LINE
  5
4D1
100
AcDbEntity
  8
0
100
AcDbLine
 62
7
  6
CONTINUOUS
 10
17.588679644
 20
8.0826711732
 11
17.576941968
 21
7.2610338556
  0
LWPOLYLINE
  5
4D2
100
AcDbEntity
  8
0
100
AcDbPolyline
 62
7
  6
CONTINUOUS
 90
4
 70
0
 10
18.6197511986
 20
7.6251741957
 10
18.6207722271
 20
7.62292834
 10
18.6282320119
 20
7.6184290519
 10
18.6320228383
 20
7.6170152712
  0
LINE
  5
4D3
100
AcDbEntity
  8
0
100
AcDbLine
 62
7
  6
CONTINUOUS
 10
17.9506197946
 20
7.2807106788
 11
17.9394203186
 21
8.0646739976
  0
LINE
  5
4D4
100
AcDbEntity
  8
0
100
AcDbLine
 62
7
  6
CONTINUOUS
 10
18.9688760461
 20
8.4803639136
 11
18.9818664272
 21
8.4578639136
  0
LINE
  5
4D5
100
AcDbEntity
  8
0
100
AcDbLine
 62
7
  6
CONTINUOUS
 10
18.9948568083
 20
8.4353639136
 11
19.0078471893
 21
8.4128639136
  0
LINE
  5
4D6
100
AcDbEntity
  8
0
100
AcDbLine
 62
7
  6
CONTINUOUS
 10
19.0468183325
 20
8.4353639136
 11
19.0338279514
 21
8.4578639136
  0
LINE
  5
4D7
100
AcDbEntity
  8
0
100
AcDbLine
 62
7
  6
CONTINUOUS
 10
19.0208375704
 20
8.4803639136
 11
19.0078471893
 21
8.5028639136
  0
LWPOLYLINE
  5
4D8
100
AcDbEntity
  8
0
100
AcDbPolyline
 62
7
  6
CONTINUOUS
 90
3
 70
0
 10
18.6573410199
 20
6.7702576865
 10
18.6570251071
 20
6.7718258774
 10
18.6570125917
 20
6.7718557915
  0
LINE
  5
4D9
100
AcDbEntity
  8
0
100
AcDbLine
 62
7
  6
CONTINUOUS
 10
18.036787565
 20
8.0565248598
 11
18.0257975834
 21
7.287226146
  0
LINE
  5
4DA
100
AcDbEntity
  8
0
100
AcDbLine
 62
7
  6
CONTINUOUS
 10
18.6570095125
 20
6.7718276192
 11
18.6571166635
 21
6.7710185933
  0
LINE
  5
4DB
100
AcDbEntity
  8
0
100
AcDbLine
 62
7
  6
CONTINUOUS
 10
18.5968588391
 20
7.9805801551
 11
18.6002344704
 21
7.9032654884
  0
LINE
  5
4DC
100
AcDbEntity
  8
0
100
AcDbLine
 62
7
  6
CONTINUOUS
 10
18.6524966191
 20
6.7062654884
 11
18.6595241973
 21
6.5453074849
  0
LINE
  5
4DD
100
AcDbEntity
  8
0
100
AcDbLine
 62
7
  6
CONTINUOUS
 10
18.6076094704
 20
7.9032654884
 11
18.6122869545
 21
7.7961334901
  0
LINE
  5
4DE
100
AcDbEntity
  8
0
100
AcDbLine
 62
7
  6
CONTINUOUS
 10
18.6177851495
 20
7.6702041196
 11
18.6197512355
 21
7.6251733471
  0
LINE
  5
4DF
100
AcDbEntity
  8
0
100
AcDbLine
 62
7
  6
CONTINUOUS
 10
18.6252530626
 20
7.4991607892
 11
18.6272167691
 21
7.4541845168
  0
LINE
  5
4E0
100
AcDbEntity
  8
0
100
AcDbLine
 62
7
  6
CONTINUOUS
 10
18.6418730886
 20
7.1184996114
 11
18.6421457295
 21
7.1122551068
  0
LINE
  5
4E1
100
AcDbEntity
  8
0
100
AcDbLine
 62
7
  6
CONTINUOUS
 10
18.6476534521
 20
6.9861075196
 11
18.6496079943
 21
6.9413411427
  0
LINE
  5
4E2
100
AcDbEntity
  8
0
100
AcDbLine
 62
7
  6
CONTINUOUS
 10
18.6551223963
 20
6.8150405739
 11
18.6570078935
 21
6.7718555863
  0
LINE
  5
4E3
100
AcDbEntity
  8
0
100
AcDbLine
 62
7
  6
CONTINUOUS
 10
18.3993882936
 20
7.330301577
 11
18.3895946915
 21
8.0158537179
  0
LINE
  5
4E4
100
AcDbEntity
  8
0
100
AcDbLine
 62
7
  6
CONTINUOUS
 10
18.4841548244
 20
8.0009731722
 11
18.4747446964
 21
7.3422642116
  0
LWPOLYLINE
  5
4E5
100
AcDbEntity
  8
0
100
AcDbPolyline
 62
7
  6
CONTINUOUS
 90
5
 70
0
 10
18.9927684491
 20
7.1170120922
 10
18.9922096964
 20
7.1198684015
 10
18.9876845315
 20
7.1256430452
 10
18.9787959086
 20
7.1314110442
 10
18.9735246492
 20
7.1338730908
  0
LWPOLYLINE
  5
4E6
100
AcDbEntity
  8
0
100
AcDbPolyline
 62
7
  6
CONTINUOUS
 90
5
 70
0
 10
18.9927684492
 20
7.810900521
 10
18.9927369623
 20
7.811411373
 10
18.9926599375
 20
7.8128801505
 10
18.9925812169
 20
7.8151184094
 10
18.9925759739
 20
7.8155537868
  0
LWPOLYLINE
  5
4E7
100
AcDbEntity
  8
0
100
AcDbPolyline
 62
7
  6
CONTINUOUS
 90
6
 70
0
 10
19.1614865888
 20
7.7557460194
 10
19.1611700557
 20
7.757585508
 10
19.1603233483
 20
7.7630878824
 10
19.1591922836
 20
7.7716952922
 10
19.1580963017
 20
7.7828662626
 10
19.1580372447
 20
7.7839301251
  0
LWPOLYLINE
  5
4E8
100
AcDbEntity
  8
0
100
AcDbPolyline
 62
7
  6
CONTINUOUS
 90
11
 70
0
 10
18.6598840245
 20
6.7062654884
 10
18.6600720039
 20
6.7078079424
 10
18.6604224028
 20
6.7116994149
 10
18.6608014379
 20
6.7176625526
 10
18.6610439379
 20
6.7252837968
 10
18.6610008188
 20
6.7340348987
 10
18.6605950813
 20
6.743281886
 10
18.6598530721
 20
6.7522744694
 10
18.6589193989
 20
6.7601916375
 10
18.6580164427
 20
6.7663254774
 10
18.6573410199
 20
6.7702576865
  0
LINE
  5
4E9
100
AcDbEntity
  8
0
100
AcDbLine
 62
7
  6
CONTINUOUS
 10
19.3405243547
 20
9.6783363546
 11
19.3405243547
 21
13.6153442286
  0
LINE
  5
4EA
100
AcDbEntity
  8
0
100
AcDbLine
 62
7
  6
CONTINUOUS
 10
19.3818629373
 20
13.6240056459
 11
19.3818629373
 21
13.653533205
  0
LINE
  5
4EB
100
AcDbEntity
  8
0
100
AcDbLine
 62
7
  6
CONTINUOUS
 10
19.3995794728
 20
9.6031395042
 11
19.3995794728
 21
9.6783363546
  0
LINE
  5
4EC
100
AcDbEntity
  8
0
100
AcDbLine
 62
7
  6
CONTINUOUS
 10
19.3995794728
 20
9.6881788743
 11
19.3995794728
 21
14.0287300554
  0
LINE
  5
4ED
100
AcDbEntity
  8
0
100
AcDbLine
 62
7
  6
CONTINUOUS
 10
19.4064692366
 20
9.6783363546
 11
19.4064692366
 21
7.4784284973
  0
LINE
  5
4EE
100
AcDbEntity
  8
0
100
AcDbLine
 62
7
  6
CONTINUOUS
 10
19.406666087
 20
14.0287300554
 11
19.406666087
 21
9.6881788743
  0
LINE
  5
4EF
100
AcDbEntity
  8
0
100
AcDbLine
 62
7
  6
CONTINUOUS
 10
19.1614865888
 20
7.7557460194
 11
19.1595183772
 21
7.7106665611
  0
LINE
  5
4F0
100
AcDbEntity
  8
0
100
AcDbLine
 62
7
  6
CONTINUOUS
 10
19.1540172189
 20
7.584669323
 11
19.152809206
 21
7.5570012789
  0
LINE
  5
4F1
100
AcDbEntity
  8
0
100
AcDbLine
 62
7
  6
CONTINUOUS
 10
19.1387928947
 20
7.2359749699
 11
19.1371241107
 21
7.1977535319
  0
LINE
  5
4F2
100
AcDbEntity
  8
0
100
AcDbLine
 62
7
  6
CONTINUOUS
 10
19.1316161392
 20
7.0716002454
 11
19.1296600409
 21
7.0267982289
  0
LINE
  5
4F3
100
AcDbEntity
  8
0
100
AcDbLine
 62
7
  6
CONTINUOUS
 10
19.1241492453
 20
6.9005802585
 11
19.1221965058
 21
6.8558551699
  0
LINE
  5
4F4
100
AcDbEntity
  8
0
100
AcDbLine
 62
7
  6
CONTINUOUS
 10
19.1166807091
 20
6.7295226547
 11
19.1156652793
 21
6.7062654884
  0
LINE
  5
4F5
100
AcDbEntity
  8
0
100
AcDbLine
 62
7
  6
CONTINUOUS
 10
19.1230402793
 20
6.7062654884
 11
19.1160127011
 21
6.5453074849
  0
LWPOLYLINE
  5
4F6
100
AcDbEntity
  8
0
100
AcDbPolyline
 62
7
  6
CONTINUOUS
 90
10
 70
0
 10
18.7827709454
 20
6.7062654884
 10
18.7828672515
 20
6.7070797853
 10
18.783066216
 20
6.7091673438
 10
18.7832795109
 20
6.7122892788
 10
18.7834106916
 20
6.7160639591
 10
18.7834025308
 20
6.7200448249
 10
18.7832610104
 20
6.7237679481
 10
18.7830535415
 20
6.7267640479
 10
18.7828633395
 20
6.7287938843
 10
18.7827824175
 20
6.7294941405
  0
LWPOLYLINE
  5
4F7
100
AcDbEntity
  8
0
100
AcDbPolyline
 62
7
  6
CONTINUOUS
 90
9
 70
0
 10
18.7827684493
 20
7.7403643963
 10
18.783325305
 20
7.7431375152
 10
18.7878503795
 20
7.7487461163
 10
18.796777161
 20
7.7543724346
 10
18.8097068846
 20
7.7600253173
 10
18.8260113301
 20
7.7656389002
 10
18.8451310666
 20
7.7712769959
 10
18.8660333788
 20
7.7769164307
 10
18.8877684492
 20
7.7824907408
  0
LWPOLYLINE
  5
4F8
100
AcDbEntity
  8
0
100
AcDbPolyline
 62
7
  6
CONTINUOUS
 90
9
 70
0
 10
18.7827684499
 20
7.5718168753
 10
18.783324958
 20
7.5745692569
 10
18.787822101
 20
7.5801653161
 10
18.7966319972
 20
7.5857623978
 10
18.8094280687
 20
7.591354054
 10
18.8256842367
 20
7.5969725614
 10
18.8448544925
 20
7.6026639692
 10
18.8659246495
 20
7.6083264875
 10
18.8877684492
 20
7.6139359864
  0
LWPOLYLINE
  5
4F9
100
AcDbEntity
  8
0
100
AcDbPolyline
 62
7
  6
CONTINUOUS
 90
9
 70
0
 10
18.7827684492
 20
7.066191441
 10
18.7833310925
 20
7.0689733889
 10
18.7878547446
 20
7.0745900803
 10
18.7967438385
 20
7.0801914921
 10
18.8095654915
 20
7.0857880893
 10
18.8256879796
 20
7.0913714846
 10
18.8446741032
 20
7.0969854817
 10
18.865663561
 20
7.1026329936
 10
18.8877684492
 20
7.1083163713
  0
LWPOLYLINE
  5
4FA
100
AcDbEntity
  8
0
100
AcDbPolyline
 62
7
  6
CONTINUOUS
 90
9
 70
0
 10
18.7827684492
 20
6.8976849374
 10
18.7833513927
 20
6.9005115694
 10
18.7879815658
 20
6.9061556611
 10
18.7970202491
 20
6.9118171374
 10
18.8100311569
 20
6.9174572662
 10
18.8263448407
 20
6.9230403075
 10
18.8453964433
 20
6.9286659416
 10
18.8661865374
 20
6.9342635136
 10
18.8877684492
 20
6.9397935091
  0
LWPOLYLINE
  5
4FB
100
AcDbEntity
  8
0
100
AcDbPolyline
 62
7
  6
CONTINUOUS
 90
11
 70
0
 10
18.6122869341
 20
7.7961339597
 10
18.6131907348
 20
7.7984774652
 10
18.620589756
 20
7.8029656977
 10
18.6352468717
 20
7.8074172622
 10
18.6567798184
 20
7.8119023343
 10
18.6846504503
 20
7.8164292555
 10
18.7181060139
 20
7.8209230091
 10
18.7559539257
 20
7.8253523445
 10
18.7976918725
 20
7.8298458836
 10
18.8420714083
 20
7.8343877846
 10
18.8877684492
 20
7.8388386544
  0
LINE
  5
4FC
100
AcDbEntity
  8
0
100
AcDbLine
 62
7
  6
CONTINUOUS
 10
19.4655243547
 20
9.6783363546
 11
19.4655243547
 21
7.4784284973
  0
LINE
  5
4FD
100
AcDbEntity
  8
0
100
AcDbLine
 62
7
  6
CONTINUOUS
 10
19.4657212051
 20
13.9696749373
 11
19.4657212051
 21
9.6881788743
  0
LWPOLYLINE
  5
4FE
100
AcDbEntity
  8
0
100
AcDbPolyline
 62
7
  6
CONTINUOUS
 90
75
 70
0
 10
19.4655243547
 20
7.4784284973
 10
19.4648619526
 20
7.4670725489
 10
19.4627213061
 20
7.4550740411
 10
19.4589738136
 20
7.4427420239
 10
19.4536476205
 20
7.4304060717
 10
19.4468363624
 20
7.4182374636
 10
19.4386028417
 20
7.4062542405
 10
19.4290341698
 20
7.3944952638
 10
19.4181110252
 20
7.3828766127
 10
19.4057130257
 20
7.3712649857
 10
19.3917754171
 20
7.3596279751
 10
19.3763517025
 20
7.3480329983
 10
19.3592712016
 20
7.3363804368
 10
19.3403053132
 20
7.3245720848
 10
19.3192938572
 20
7.3125828593
 10
19.2961603317
 20
7.3004435535
 10
19.2707204956
 20
7.2881321982
 10
19.2426175945
 20
7.2755659006
 10
19.2114696375
 20
7.2626842834
 10
19.1768759378
 20
7.2494493027
 10
19.138475486
 20
7.2358626661
 10
19.0961345196
 20
7.2220156159
 10
19.0497631662
 20
7.2080058279
 10
18.9992371939
 20
7.1939132473
 10
18.9442595055
 20
7.1797716675
 10
18.8843486306
 20
7.1655846209
 10
18.8189912123
 20
7.1513738589
 10
18.7476442222
 20
7.1371807817
 10
18.6697565685
 20
7.1230714479
 10
18.5847474569
 20
7.1091331677
 10
18.4919462342
 20
7.0954686008
 10
18.3905965679
 20
7.0822042777
 10
18.2798688867
 20
7.0695002974
 10
18.1587719731
 20
7.0575509267
 10
18.0262539271
 20
7.0466098622
 10
17.8812675531
 20
7.0370067746
 10
17.7225407321
 20
7.0291497982
 10
17.5477878194
 20
7.0235460897
 10
17.3560670282
 20
7.0209397424
 10
17.1513408746
 20
7.0221818246
 10
16.9511467767
 20
7.0274500471
 10
16.7699104086
 20
7.0357940317
 10
16.6098574928
 20
7.046146549
 10
16.4678571893
 20
7.0578455239
 10
16.340155038
 20
7.0705585389
 10
16.2249264825
 20
7.0839829197
 10
16.1207176734
 20
7.0978873448
 10
16.0262261721
 20
7.1121080218
 10
15.9402397151
 20
7.1265431991
 10
15.8618411845
 20
7.1411047587
 10
15.7902892954
 20
7.1557179561
 10
15.7248865477
 20
7.1703371136
 10
15.6650126133
 20
7.1849348611
 10
15.6100973062
 20
7.199504399
 10
15.5596479883
 20
7.2140492286
 10
15.5134594897
 20
7.2285095412
 10
15.4714422579
 20
7.2427880487
 10
15.4335244464
 20
7.2567698102
 10
15.3994469734
 20
7.2704014939
 10
15.3687802883
 20
7.2837126286
 10
15.3411106024
 20
7.2967580519
 10
15.3160423722
 20
7.3096214342
 10
15.293315581
 20
7.3223534667
 10
15.2728361927
 20
7.3349294021
 10
15.2544431593
 20
7.3473712261
 10
15.2378679417
 20
7.3598055846
 10
15.2229555313
 20
7.3723295942
 10
15.2098055457
 20
7.384841767
 10
15.1982829944
 20
7.3974574018
 10
15.1882384786
 20
7.4104076786
 10
15.1797266083
 20
7.4237969472
 10
15.1729502612
 20
7.4375319006
 10
15.1680719583
 20
7.4514953721
 10
15.1652327855
 20
7.4652692159
 10
15.1643432523
 20
7.4784284973
  0
LWPOLYLINE
  5
4FF
100
AcDbEntity
  8
0
100
AcDbPolyline
 62
7
  6
CONTINUOUS
 90
75
 70
0
 10
19.4064692366
 20
7.4784284973
 10
19.4062044559
 20
7.4739138682
 10
19.4052987739
 20
7.4688641853
 10
19.4035460755
 20
7.463120438
 10
19.4007431125
 20
7.4566476941
 10
19.3967286159
 20
7.4494899891
 10
19.3913765296
 20
7.4417109852
 10
19.3846358217
 20
7.4334348547
 10
19.3764285356
 20
7.4247105111
 10
19.3666201462
 20
7.4155284222
 10
19.3551283552
 20
7.4059367018
 10
19.3419834297
 20
7.3960572348
 10
19.3270347657
 20
7.3858609155
 10
19.310074145
 20
7.3753025702
 10
19.2909494142
 20
7.3643911442
 10
19.2695854706
 20
7.3531814214
 10
19.245809103
 20
7.3416759049
 10
19.2192817384
 20
7.3298148073
 10
19.1896344453
 20
7.3175544073
 10
19.1564757899
 20
7.3048689754
 10
19.1194495502
 20
7.2917690167
 10
19.0784190628
 20
7.2783509419
 10
19.0332934086
 20
7.2647178509
 10
18.9839506087
 20
7.2509555725
 10
18.9301004035
 20
7.2371042623
 10
18.8712704687
 20
7.2231734073
 10
18.8069550678
 20
7.2091894097
 10
18.7366176848
 20
7.1951973501
 10
18.6597127349
 20
7.1812661915
 10
18.575664586
 20
7.1674856164
 10
18.4838082007
 20
7.1539603033
 10
18.3833932183
 20
7.1408184281
 10
18.2735963807
 20
7.1282213546
 10
18.1534340205
 20
7.1163643025
 10
18.0218624454
 20
7.1055014729
 10
17.8778435251
 20
7.0959625459
 10
17.7201174324
 20
7.0881551755
 10
17.5464197391
 20
7.0825853588
 10
17.3558266773
 20
7.0799943713
 10
17.1522992738
 20
7.0812291654
 10
16.9533017623
 20
7.0864658327
 10
16.7731969824
 20
7.0947576249
 10
16.6142059856
 20
7.1050413492
 10
16.4732191733
 20
7.1166567136
 10
16.3465070425
 20
7.1292710497
 10
16.2322568348
 20
7.1425813224
 10
16.1290237797
 20
7.1563554167
 10
16.0355139106
 20
7.1704282132
 10
15.9505239795
 20
7.1846959349
 10
15.8731442957
 20
7.1990680783
 10
15.8026402152
 20
7.2134670815
 10
15.7383218064
 20
7.227843639
 10
15.6795770558
 20
7.2421658283
 10
15.6258456005
 20
7.256420985
 10
15.5766459438
 20
7.2706051827
 10
15.5317789769
 20
7.2846513501
 10
15.4911569122
 20
7.2984552617
 10
15.4547057339
 20
7.3118956586
 10
15.4221680065
 20
7.3249107655
 10
15.3931241241
 20
7.3375167513
 10
15.3671741988
 20
7.3497504554
 10
15.343942491
 20
7.3616703451
 10
15.3231865366
 20
7.373296882
 10
15.3048178853
 20
7.3845749125
 10
15.2886860105
 20
7.3954849703
 10
15.2745509827
 20
7.4060858123
 10
15.2622797173
 20
7.4163876571
 10
15.2519393142
 20
7.4262211089
 10
15.2433883001
 20
7.4355758442
 10
15.2364684734
 20
7.4444865852
 10
15.2311374904
 20
7.4528559975
 10
15.2273638314
 20
7.4604813544
 10
15.2249831461
 20
7.4672637001
 10
15.2237558399
 20
7.4731787026
 10
15.2233983704
 20
7.4784284973
  0
LWPOLYLINE
  5
500
100
AcDbEntity
  8
0
100
AcDbPolyline
 62
7
  6
CONTINUOUS
 90
41
 70
0
 10
19.2883590003
 20
7.6723411712
 10
19.2833751838
 20
7.6339195249
 10
19.267874897
 20
7.5952441428
 10
19.2412956682
 20
7.5573105428
 10
19.2045692855
 20
7.521696173
 10
19.1592721014
 20
7.4889454705
 10
19.1063904132
 20
7.4587275662
 10
19.0461109093
 20
7.4304733753
 10
18.9784536508
 20
7.4038342484
 10
18.9031279805
 20
7.3785394273
 10
18.819730666
 20
7.3544378875
 10
18.7277275791
 20
7.3314566551
 10
18.6264577263
 20
7.309588216
 10
18.5151043084
 20
7.2888816993
 10
18.3927363384
 20
7.2694555713
 10
18.2583216075
 20
7.2515053324
 10
18.1107392192
 20
7.235315259
 10
17.9484317075
 20
7.2212482115
 10
17.7698913533
 20
7.2098362584
 10
17.5742664871
 20
7.2018235277
 10
17.3559076957
 20
7.1981158824
 10
17.122249135
 20
7.2001161
 10
16.9004803209
 20
7.2078022194
 10
16.7072622266
 20
7.2193433994
 10
16.5360627467
 20
7.2336722021
 10
16.382449906
 20
7.2501891433
 10
16.2446303215
 20
7.2683657027
 10
16.1203289942
 20
7.2879270315
 10
16.0077987585
 20
7.3087103419
 10
15.9057568576
 20
7.3306184575
 10
15.8131742446
 20
7.3536239519
 10
15.7292564952
 20
7.3777578336
 10
15.6534488
 20
7.4030972136
 10
15.5853569663
 20
7.4297893335
 10
15.5246858976
 20
7.458106135
 10
15.4714503777
 20
7.4884010855
 10
15.4258443145
 20
7.5212450247
 10
15.3888549772
 20
7.556984266
 10
15.3620792148
 20
7.5950862089
 10
15.3464915222
 20
7.6339223654
 10
15.3415086066
 20
7.6723411712
  0
LWPOLYLINE
  5
501
100
AcDbEntity
  8
0
100
AcDbPolyline
 62
7
  6
CONTINUOUS
 90
41
 70
0
 10
19.2293038822
 20
7.6723411712
 10
19.2262306698
 20
7.6488205417
 10
19.2160212939
 20
7.6235081331
 10
19.1965799762
 20
7.59588797
 10
19.1668818893
 20
7.5671628118
 10
19.12749306
 20
7.5387211224
 10
19.0793370457
 20
7.5112216347
 10
19.0228530517
 20
7.4847558031
 10
18.9582996344
 20
7.4593439305
 10
18.8855743912
 20
7.4349254204
 10
18.8044073087
 20
7.4114703614
 10
18.7143595873
 20
7.3889788668
 10
18.6148397226
 20
7.3674892506
 10
18.5050834326
 20
7.3470804078
 10
18.3842003222
 20
7.3278905257
 10
18.2511910163
 20
7.3101283827
 10
18.1049627922
 20
7.2940871927
 10
17.9439870837
 20
7.2801358387
 10
17.766783772
 20
7.2688095589
 10
17.5725273328
 20
7.2608530372
 10
17.3556349205
 20
7.2571703773
 10
17.12353576
 20
7.2591572029
 10
16.9032974457
 20
7.2667901058
 10
16.7115059942
 20
7.2782458394
 10
16.5416931678
 20
7.2924582998
 10
16.3894741868
 20
7.3088250226
 10
16.2530821445
 20
7.326812888
 10
16.1302766298
 20
7.3461382952
 10
16.0193478275
 20
7.3666251549
 10
15.9190557143
 20
7.3881566777
 10
15.828425412
 20
7.4106757525
 10
15.7467338766
 20
7.4341674668
 10
15.6735221279
 20
7.4586360855
 10
15.6085290692
 20
7.4841083648
 10
15.5516485815
 20
7.5106467434
 10
15.5031363068
 20
7.5382358812
 10
15.463442714
 20
7.566784909
 10
15.4335015718
 20
7.5956406224
 10
15.413902769
 20
7.6234048258
 10
15.4036350327
 20
7.6488278248
 10
15.4005637247
 20
7.6723411712
  0
LWPOLYLINE
  5
502
100
AcDbEntity
  8
0
100
AcDbPolyline
 62
7
  6
CONTINUOUS
 90
9
 70
0
 10
18.9927684487
 20
6.9435304757
 10
18.9922131681
 20
6.9406964862
 10
18.987731278
 20
6.9349375766
 10
18.9789640405
 20
6.9292042308
 10
18.9662847474
 20
6.9234902695
 10
18.9502299048
 20
6.9177449243
 10
18.931212023
 20
6.9119290218
 10
18.9100785273
 20
6.9060753379
 10
18.8877684492
 20
6.9001691574
  0
LWPOLYLINE
  5
503
100
AcDbEntity
  8
0
100
AcDbPolyline
 62
7
  6
CONTINUOUS
 90
9
 70
0
 10
18.9927684491
 20
6.7700298256
 10
18.9921876688
 20
6.7671242837
 10
18.9875952531
 20
6.7613386823
 10
18.9786220673
 20
6.7555383775
 10
18.9656720496
 20
6.7497360945
 10
18.9493702574
 20
6.7439811706
 10
18.9302922108
 20
6.7381778967
 10
18.9094345412
 20
6.7323923722
 10
18.8877684492
 20
6.7266744955
  0
LWPOLYLINE
  5
504
100
AcDbEntity
  8
0
100
AcDbPolyline
 62
7
  6
CONTINUOUS
 90
9
 70
0
 10
18.9927684481
 20
7.6374195461
 10
18.9921877343
 20
7.6345251531
 10
18.9875959467
 20
7.6287337335
 10
18.9786650348
 20
7.6229475778
 10
18.9657463325
 20
7.6171679193
 10
18.9493896926
 20
7.6113887454
 10
18.9302083216
 20
7.6055426521
 10
18.9092983168
 20
7.5997602536
 10
18.8877684492
 20
7.5940754085
  0
LWPOLYLINE
  5
505
100
AcDbEntity
  8
0
100
AcDbPolyline
 62
7
  6
CONTINUOUS
 90
9
 70
0
 10
18.9927684492
 20
7.810900521
 10
18.9907946057
 20
7.8055279095
 10
18.9849192537
 20
7.8001464541
 10
18.9753158333
 20
7.7947529511
 10
18.9623276172
 20
7.7893251805
 10
18.9464423621
 20
7.7838835782
 10
18.928240455
 20
7.7784528579
 10
18.9084210276
 20
7.772993911
 10
18.8877684492
 20
7.7675120468
  0
LINE
  5
506
100
AcDbEntity
  8
0
100
AcDbLine
 62
7
  6
CONTINUOUS
 10
19.0078471893
 20
8.5028639136
 11
18.9948568083
 21
8.4803639136
  0
LINE
  5
507
100
AcDbEntity
  8
0
100
AcDbLine
 62
7
  6
CONTINUOUS
 10
18.9818664272
 20
8.4578639136
 11
18.9688760461
 21
8.4353639136
  0
LINE
  5
508
100
AcDbEntity
  8
0
100
AcDbLine
 62
7
  6
CONTINUOUS
 10
19.0078471893
 20
8.4128639136
 11
19.0208375704
 21
8.4353639136
  0
LINE
  5
509
100
AcDbEntity
  8
0
100
AcDbLine
 62
7
  6
CONTINUOUS
 10
19.0338279514
 20
8.4578639136
 11
19.0468183325
 21
8.4803639136
  0
LWPOLYLINE
  5
50A
100
AcDbEntity
  8
0
100
AcDbPolyline
 62
7
  6
CONTINUOUS
 90
8
 70
0
 10
18.7827762935
 20
6.7294814283
 10
18.7856706817
 20
6.7354896027
 10
18.7936021453
 20
6.7414642112
 10
18.8061522608
 20
6.7474066871
 10
18.8226901531
 20
6.7533691195
 10
18.8424272008
 20
6.7593255542
 10
18.8644592996
 20
6.7652810985
 10
18.8877684492
 20
6.7712803432
  0
LWPOLYLINE
  5
50B
100
AcDbEntity
  8
0
100
AcDbPolyline
 62
7
  6
CONTINUOUS
 90
3
 70
0
 10
18.6421457451
 20
7.1122547488
 10
18.6457771612
 20
7.1171002719
 10
18.6533432341
 20
7.1203802816
  0
LWPOLYLINE
  5
50C
100
AcDbEntity
  8
0
100
AcDbPolyline
 62
7
  6
CONTINUOUS
 90
10
 70
0
 10
18.6272167792
 20
7.4541842852
 10
18.6310818377
 20
7.4590363053
 10
18.6427174803
 20
7.4637663251
 10
18.6617818151
 20
7.4684679121
 10
18.6877336023
 20
7.4732204113
 10
18.7198619727
 20
7.4779997273
 10
18.7568267521
 20
7.482695201
 10
18.798024793
 20
7.4874043172
 10
18.8421602486
 20
7.4921856107
 10
18.8877684492
 20
7.496905334
  0
LWPOLYLINE
  5
50D
100
AcDbEntity
  8
0
100
AcDbPolyline
 62
7
  6
CONTINUOUS
 90
5
 70
0
 10
18.8058334693
 20
7.7428097199
 10
18.7739756117
 20
7.730042469
 10
18.7296849191
 20
7.7135119688
 10
18.6803948792
 20
7.6959659842
 10
18.6298477615
 20
7.6784678645
  0
LWPOLYLINE
  5
50E
100
AcDbEntity
  8
0
100
AcDbPolyline
 62
7
  6
CONTINUOUS
 90
4
 70
0
 10
18.970455617
 20
7.8068186174
 10
19.0088086018
 20
7.8219639345
 10
19.0549928693
 20
7.8389417277
 10
19.0622357209
 20
7.8414928309
  0
LWPOLYLINE
  5
50F
100
AcDbEntity
  8
0
100
AcDbPolyline
 62
7
  6
CONTINUOUS
 90
4
 70
0
 10
18.6298474519
 20
7.6784721587
 10
18.6257557686
 20
7.6769290691
 10
18.618605705
 20
7.6724337885
 10
18.6177851245
 20
7.6702046933
  0
LWPOLYLINE
  5
510
100
AcDbEntity
  8
0
100
AcDbPolyline
 62
7
  6
CONTINUOUS
 90
10
 70
0
 10
18.6496079784
 20
6.9413415081
 10
18.6531246081
 20
6.9461440689
 10
18.6637489374
 20
6.9508529884
 10
18.6811621546
 20
6.955611725
 10
18.7048841036
 20
6.9603713618
 10
18.7342368868
 20
6.9650958484
 10
18.7680567594
 20
6.9697910803
 10
18.8057441888
 20
6.9745629492
 10
18.8460862165
 20
6.9793258022
 10
18.8877684492
 20
6.9840274412
  0
LWPOLYLINE
  5
511
100
AcDbEntity
  8
0
100
AcDbPolyline
 62
7
  6
CONTINUOUS
 90
11
 70
0
 10
19.1614865888
 20
7.7557460194
 10
19.1579438602
 20
7.7514553488
 10
19.147777725
 20
7.7471676779
 10
19.1312178955
 20
7.7429069263
 10
19.1086746664
 20
7.7386503628
 10
19.0807180668
 20
7.7343492506
 10
19.0480408338
 20
7.7300440204
 10
19.0114485345
 20
7.7257747197
 10
18.9718638655
 20
7.7215241369
 10
18.9303144117
 20
7.7172397281
 10
18.8877684492
 20
7.7129900299
  0
LWPOLYLINE
  5
512
100
AcDbEntity
  8
0
100
AcDbPolyline
 62
7
  6
CONTINUOUS
 90
10
 70
0
 10
19.1540172184
 20
7.5846693105
 10
19.1497744229
 20
7.5799509143
 10
19.1376121043
 20
7.5752144947
 10
19.1179071663
 20
7.5704401019
 10
19.0912213253
 20
7.565691878
 10
19.0583056592
 20
7.5609601244
 10
19.0205611932
 20
7.5562266823
 10
18.9786323312
 20
7.5514459442
 10
18.9338855143
 20
7.5466930409
 10
18.8877684492
 20
7.5419649187
  0
LWPOLYLINE
  5
513
100
AcDbEntity
  8
0
100
AcDbPolyline
 62
7
  6
CONTINUOUS
 90
3
 70
0
 10
18.6373343709
 20
7.5075987444
 10
18.6290313925
 20
7.5039408244
 10
18.6252530628
 20
7.4991607844
  0
LWPOLYLINE
  5
514
100
AcDbEntity
  8
0
100
AcDbPolyline
 62
7
  6
CONTINUOUS
 90
5
 70
0
 10
18.806036677
 20
7.5694247837
 10
18.7817610825
 20
7.5595858968
 10
18.7395762499
 20
7.5436353754
 10
18.6913520411
 20
7.5263498783
 10
18.6373342566
 20
7.5076003098
  0
LWPOLYLINE
  5
515
100
AcDbEntity
  8
0
100
AcDbPolyline
 62
7
  6
CONTINUOUS
 90
4
 70
0
 10
18.9705870602
 20
7.4697712552
 10
18.9909206137
 20
7.4779712348
 10
19.0374751289
 20
7.4955284149
 10
19.0726000028
 20
7.5080649627
  0
LWPOLYLINE
  5
516
100
AcDbEntity
  8
0
100
AcDbPolyline
 62
7
  6
CONTINUOUS
 90
5
 70
0
 10
18.9704791551
 20
7.6382924064
 10
18.9999414537
 20
7.65004105
 10
19.0437480198
 20
7.6663411776
 10
19.092973879
 20
7.6838058489
 10
19.1475527243
 20
7.70263489
  0
LWPOLYLINE
  5
517
100
AcDbEntity
  8
0
100
AcDbPolyline
 62
7
  6
CONTINUOUS
 90
4
 70
0
 10
19.1475527684
 20
7.7026383466
 10
19.1511139899
 20
7.7039601356
 10
19.1585614235
 20
7.7084952015
 10
19.1595185902
 20
7.7106714429
  0
LWPOLYLINE
  5
518
100
AcDbEntity
  8
0
100
AcDbPolyline
 62
7
  6
CONTINUOUS
 90
6
 70
0
 10
19.1166806677
 20
6.7295217081
 10
19.1135033253
 20
6.7251220813
 10
19.1035815862
 20
6.7204330293
 10
19.0871890552
 20
6.7157015089
 10
19.0648398881
 20
6.7109533668
 10
19.037156802
 20
6.7062654884
  0
LWPOLYLINE
  5
519
100
AcDbEntity
  8
0
100
AcDbPolyline
 62
7
  6
CONTINUOUS
 90
10
 70
0
 10
19.1241492461
 20
6.9005802753
 10
19.120382421
 20
6.8958546712
 10
19.1095878435
 20
6.8910849484
 10
19.0920951974
 20
6.8863412242
 10
19.0684072446
 20
6.8816177311
 10
19.039237039
 20
6.8768550263
 10
19.0057270609
 20
6.872101335
 10
18.9684714199
 20
6.8673510248
 10
18.9287137321
 20
6.8626050476
 10
18.8877684492
 20
6.8578428872
  0
LWPOLYLINE
  5
51A
100
AcDbEntity
  8
0
100
AcDbPolyline
 62
7
  6
CONTINUOUS
 90
10
 70
0
 10
19.1316161387
 20
7.0716002332
 10
19.1277297871
 20
7.0668493092
 10
19.1165945205
 20
7.0621311769
 10
19.0985485201
 20
7.0574014025
 10
19.0741127443
 20
7.052621735
 10
19.0440081407
 20
7.0478580365
 10
19.0094357299
 20
7.0431580971
 10
18.9710126059
 20
7.0384018163
 10
18.9300110451
 20
7.0336029295
 10
18.8877684492
 20
7.0288770257
  0
LWPOLYLINE
  5
51B
100
AcDbEntity
  8
0
100
AcDbPolyline
 62
7
  6
CONTINUOUS
 90
10
 70
0
 10
18.6571166635
 20
6.7710185933
 10
18.6613004311
 20
6.7757202178
 10
18.6721708164
 20
6.7804214828
 10
18.6894291885
 20
6.7850856484
 10
18.7125605602
 20
6.7897347157
 10
18.7408881208
 20
6.794430341
 10
18.7735791529
 20
6.7991225133
 10
18.8096458184
 20
6.8037691824
 10
18.8480719647
 20
6.8084142581
 10
18.8877684492
 20
6.8130752512
  0
LWPOLYLINE
  5
51C
100
AcDbEntity
  8
0
100
AcDbPolyline
 62
7
  6
CONTINUOUS
 90
3
 70
0
 10
18.6607840422
 20
6.9952436689
 10
18.6511093596
 20
6.9908501369
 10
18.6476534504
 20
6.9861075589
  0
LWPOLYLINE
  5
51D
100
AcDbEntity
  8
0
100
AcDbPolyline
 62
7
  6
CONTINUOUS
 90
3
 70
0
 10
19.1241161352
 20
7.1890605235
 10
19.1332588675
 20
7.1931072816
 10
19.1371241107
 20
7.1977535331
  0
LWPOLYLINE
  5
51E
100
AcDbEntity
  8
0
100
AcDbPolyline
 62
7
  6
CONTINUOUS
 90
6
 70
0
 10
18.8059331253
 20
7.0489746841
 10
18.8096359841
 20
7.0504798418
 10
18.8258882833
 20
7.0562354826
 10
18.8449824981
 20
7.0620496235
 10
18.8659267013
 20
7.067866005
 10
18.8877684492
 20
7.0736367544
  0
LWPOLYLINE
  5
51F
100
AcDbEntity
  8
0
100
AcDbPolyline
 62
7
  6
CONTINUOUS
 90
5
 70
0
 10
18.8059329641
 20
7.0489756604
 10
18.7778106405
 20
7.0376334974
 10
18.7403407261
 20
7.0234945734
 10
18.7002826785
 20
7.0090662172
 10
18.6607843285
 20
6.9952400284
  0
LWPOLYLINE
  5
520
100
AcDbEntity
  8
0
100
AcDbPolyline
 62
7
  6
CONTINUOUS
 90
5
 70
0
 10
18.97075034
 20
7.1327703633
 10
19.0033662548
 20
7.1457344799
 10
19.042134223
 20
7.1601622078
 10
19.0835211587
 20
7.1749354902
 10
19.1241161463
 20
7.189062147
  0
LINE
  5
521
100
AcDbEntity
  8
0
100
AcDbLine
 62
7
  6
CONTINUOUS
 10
15.2302881342
 20
13.6153442286
 11
19.3995794728
 21
13.6153442286
  0
LINE
  5
522
100
AcDbEntity
  8
0
100
AcDbLine
 62
7
  6
CONTINUOUS
 10
15.2480046696
 20
13.6240056459
 11
19.3818629373
 21
13.6240056459
  0
LINE
  5
523
100
AcDbEntity
  8
0
100
AcDbLine
 62
7
  6
CONTINUOUS
 10
15.2302881342
 20
13.653533205
 11
19.3995794728
 21
13.653533205
  0
LINE
  5
524
100
AcDbEntity
  8
0
100
AcDbLine
 62
7
  6
CONTINUOUS
 10
15.2302881342
 20
13.7814859609
 11
19.3995794728
 21
13.7814859609
  0
LINE
  5
525
100
AcDbEntity
  8
0
100
AcDbLine
 62
7
  6
CONTINUOUS
 10
15.1641464019
 20
13.7925095829
 11
19.4657212051
 21
13.7925095829
  0
LWPOLYLINE
  5
526
100
AcDbEntity
  8
0
100
AcDbPolyline
 62
7
  6
CONTINUOUS
 90
3
 70
0
 10
18.6687747505
 20
6.8245775313
 10
18.6584698896
 20
6.8198056486
 10
18.6551223984
 20
6.8150405242
  0
LWPOLYLINE
  5
527
100
AcDbEntity
  8
0
100
AcDbPolyline
 62
7
  6
CONTINUOUS
 90
3
 70
0
 10
19.1084842807
 20
6.8466137568
 10
19.118548069
 20
6.8511906512
 10
19.1221965157
 20
6.8558553955
  0
LWPOLYLINE
  5
528
100
AcDbEntity
  8
0
100
AcDbPolyline
 62
7
  6
CONTINUOUS
 90
3
 70
0
 10
19.1166485337
 20
7.0179666434
 10
19.1259024319
 20
7.0221064192
 10
19.1296600428
 20
7.0267982719
  0
LWPOLYLINE
  5
529
100
AcDbEntity
  8
0
100
AcDbPolyline
 62
7
  6
CONTINUOUS
 90
6
 70
0
 10
18.8058644085
 20
6.8754413607
 10
18.7978421947
 20
6.8721202559
 10
18.7675602893
 20
6.8601991208
 10
18.7353053487
 20
6.8481925411
 10
18.7013487068
 20
6.8360018187
 10
18.6687748293
 20
6.8245765602
  0
LWPOLYLINE
  5
52A
100
AcDbEntity
  8
0
100
AcDbPolyline
 62
7
  6
CONTINUOUS
 90
5
 70
0
 10
18.9705598546
 20
6.9641700917
 10
18.9910324742
 20
6.9724469318
 10
19.02988414
 20
6.9871906785
 10
19.0728473327
 20
7.0026690362
 10
19.1166485288
 20
7.0179657651
  0
LWPOLYLINE
  5
52B
100
AcDbEntity
  8
0
100
AcDbPolyline
 62
7
  6
CONTINUOUS
 90
6
 70
0
 10
18.9707735193
 20
6.7957475051
 10
18.9916503547
 20
6.8041664142
 10
19.0199762802
 20
6.8149816853
 10
19.0497146181
 20
6.8258717714
 10
19.0803910457
 20
6.8367952935
 10
19.1084842822
 20
6.8466143988
  0
LINE
  5
52C
100
AcDbEntity
  8
0
100
AcDbLine
 62
7
  6
CONTINUOUS
 10
18.9661949605
 20
6.9624225976
 11
18.9705601195
 21
6.9641684109
  0
LWPOLYLINE
  5
52D
100
AcDbEntity
  8
0
100
AcDbPolyline
 62
7
  6
CONTINUOUS
 90
3
 70
0
 10
18.8265268238
 20
6.8829633637
 10
18.8102578732
 20
6.8772202349
 10
18.8058637219
 20
6.8754455418
  0
LWPOLYLINE
  5
52E
100
AcDbEntity
  8
0
100
AcDbPolyline
 62
7
  6
CONTINUOUS
 90
3
 70
0
 10
18.9489972106
 20
6.7879917452
 10
18.9652707643
 20
6.7935693976
 10
18.9707735851
 20
6.7957470834
  0
LINE
  5
52F
100
AcDbEntity
  8
0
100
AcDbLine
 62
7
  6
CONTINUOUS
 10
15.22320152
 20
14.0287300554
 11
19.406666087
 21
14.0287300554
  0
LINE
  5
530
100
AcDbEntity
  8
0
100
AcDbLine
 62
7
  6
CONTINUOUS
 10
24.5518046479
 20
13.8117956867
 11
24.5293046479
 21
13.7988053057
  0
LINE
  5
531
100
AcDbEntity
  8
0
100
AcDbLine
 62
7
  6
CONTINUOUS
 10
24.5068046479
 20
13.7858149246
 11
24.4843046479
 21
13.7728245436
  0
LINE
  5
532
100
AcDbEntity
  8
0
100
AcDbLine
 62
7
  6
CONTINUOUS
 10
24.5068046479
 20
13.7338534004
 11
24.5293046479
 21
13.7468437814
  0
LINE
  5
533
100
AcDbEntity
  8
0
100
AcDbLine
 62
7
  6
CONTINUOUS
 10
24.5518046479
 20
13.7598341625
 11
24.5743046479
 21
13.7728245436
  0
LINE
  5
534
100
AcDbEntity
  8
0
100
AcDbLine
 62
7
  6
CONTINUOUS
 10
24.9734368463
 20
6.5352654884
 11
24.5379283551
 21
6.5352654884
  0
LINE
  5
535
100
AcDbEntity
  8
0
100
AcDbLine
 62
7
  6
CONTINUOUS
 10
24.9839268526
 20
6.5453074849
 11
24.5274383488
 21
6.5453074849
  0
LWPOLYLINE
  5
536
100
AcDbEntity
  8
0
100
AcDbPolyline
 62
7
  6
CONTINUOUS
 90
5
 70
0
 10
24.5365787092
 20
6.8039374947
 10
24.5748142637
 20
6.7905355512
 10
24.611602146
 20
6.7772739547
 10
24.6444681812
 20
6.7649105609
 10
24.6728634589
 20
6.7535429552
  0
LWPOLYLINE
  5
537
100
AcDbEntity
  8
0
100
AcDbPolyline
 62
7
  6
CONTINUOUS
 90
6
 70
0
 10
24.9728227541
 20
6.7818145715
 10
24.9400947935
 20
6.7933099586
 10
24.9060979369
 20
6.8055500176
 10
24.8738400439
 20
6.8176119058
 10
24.8436460539
 20
6.8295690168
 10
24.8375032812
 20
6.8321209501
  0
LINE
  5
538
100
AcDbEntity
  8
0
100
AcDbLine
 62
7
  6
CONTINUOUS
 10
24.6842946064
 20
6.749357643
 11
24.6728634132
 21
6.7535426643
  0
LINE
  5
539
100
AcDbEntity
  8
0
100
AcDbLine
 62
7
  6
CONTINUOUS
 10
24.8305057024
 20
6.8347967156
 11
24.8375033334
 21
6.8321212671
  0
LWPOLYLINE
  5
53A
100
AcDbEntity
  8
0
100
AcDbPolyline
 62
7
  6
CONTINUOUS
 90
5
 70
0
 10
24.8375033334
 20
6.8321212671
 10
24.8406276949
 20
6.8307688265
 10
24.8516839269
 20
6.8249180113
 10
24.8584433568
 20
6.8191205657
 10
24.8606826007
 20
6.8134227928
  0
LWPOLYLINE
  5
53B
100
AcDbEntity
  8
0
100
AcDbPolyline
 62
7
  6
CONTINUOUS
 90
3
 70
0
 10
24.5365787082
 20
6.80393791
 10
24.5267418998
 20
6.8084142581
 10
24.5231223556
 20
6.8130752512
  0
LWPOLYLINE
  5
53C
100
AcDbEntity
  8
0
100
AcDbPolyline
 62
7
  6
CONTINUOUS
 90
4
 70
0
 10
24.6728634132
 20
6.7535426643
 10
24.6609768923
 20
6.7593255542
 10
24.6533025072
 20
6.7652810985
 10
24.6506826007
 20
6.7712803432
  0
LINE
  5
53D
100
AcDbEntity
  8
0
100
AcDbLine
 62
7
  6
CONTINUOUS
 10
24.5204107706
 20
6.7062654884
 11
24.9909544308
 21
6.7062654884
  0
LWPOLYLINE
  5
53E
100
AcDbEntity
  8
0
100
AcDbPolyline
 62
7
  6
CONTINUOUS
 90
6
 70
0
 10
24.5210095293
 20
7.146329564
 10
24.5545038155
 20
7.1347019967
 10
24.5895967084
 20
7.122275454
 10
24.6229818635
 20
7.1100849623
 10
24.6544267315
 20
7.098048843
 10
24.6711935018
 20
7.0912582942
  0
LWPOLYLINE
  5
53F
100
AcDbEntity
  8
0
100
AcDbPolyline
 62
7
  6
CONTINUOUS
 90
6
 70
0
 10
24.5290628589
 20
6.9750644447
 10
24.5627209148
 20
6.9633155584
 10
24.5978801122
 20
6.9507680606
 10
24.6312702094
 20
6.938438533
 10
24.6626127835
 20
6.9262423786
 10
24.6727053834
 20
6.92211193
  0
LWPOLYLINE
  5
540
100
AcDbEntity
  8
0
100
AcDbPolyline
 62
7
  6
CONTINUOUS
 90
5
 70
0
 10
24.9807643754
 20
6.9525699556
 10
24.9482243783
 20
6.963937838
 10
24.9142967441
 20
6.9760534167
 10
24.8820448527
 20
6.9879650855
 10
24.8517040635
 20
6.999759604
  0
LINE
  5
541
100
AcDbEntity
  8
0
100
AcDbLine
 62
7
  6
CONTINUOUS
 10
24.6775774836
 20
6.9202817496
 11
24.6727052605
 21
6.9221111429
  0
LINE
  5
542
100
AcDbEntity
  8
0
100
AcDbLine
 62
7
  6
CONTINUOUS
 10
24.8517040635
 20
6.999759604
 11
24.837503007
 21
7.0055916163
  0
LWPOLYLINE
  5
543
100
AcDbEntity
  8
0
100
AcDbPolyline
 62
7
  6
CONTINUOUS
 90
5
 70
0
 10
24.6727052605
 20
6.9221111429
 10
24.6705231014
 20
6.9230403075
 10
24.6596117252
 20
6.9286659416
 10
24.65292453
 20
6.9342635136
 10
24.6506826007
 20
6.9397935091
  0
LINE
  5
544
100
AcDbEntity
  8
0
100
AcDbLine
 62
7
  6
CONTINUOUS
 10
24.8406468675
 20
7.0042319244
 11
24.8375034575
 21
7.0055943447
  0
LWPOLYLINE
  5
545
100
AcDbEntity
  8
0
100
AcDbPolyline
 62
7
  6
CONTINUOUS
 90
3
 70
0
 10
24.5210095073
 20
7.1463327383
 10
24.5121662495
 20
7.1502486495
 10
24.5081943232
 20
7.1549834055
  0
LWPOLYLINE
  5
546
100
AcDbEntity
  8
0
100
AcDbPolyline
 62
7
  6
CONTINUOUS
 90
3
 70
0
 10
24.5290628624
 20
6.9750636035
 10
24.5195138121
 20
6.9793258022
 10
24.5156584218
 20
6.9840274412
  0
LWPOLYLINE
  5
547
100
AcDbEntity
  8
0
100
AcDbPolyline
 62
7
  6
CONTINUOUS
 90
3
 70
0
 10
24.9807643764
 20
6.9525699673
 10
24.9904830057
 20
6.9481100244
 10
24.9939312134
 20
6.9433602899
  0
LWPOLYLINE
  5
548
100
AcDbEntity
  8
0
100
AcDbPolyline
 62
7
  6
CONTINUOUS
 90
3
 70
0
 10
24.972823043
 20
6.7818181146
 10
24.9831280241
 20
6.7770670457
 10
24.9864636422
 20
6.7723247897
  0
LWPOLYLINE
  5
549
100
AcDbEntity
  8
0
100
AcDbPolyline
 62
7
  6
CONTINUOUS
 90
4
 70
0
 10
24.6710007532
 20
7.0913714846
 10
24.6599335676
 20
7.0969854817
 10
24.6530357599
 20
7.1026329936
 10
24.6506826007
 20
7.1083163713
  0
LWPOLYLINE
  5
54A
100
AcDbEntity
  8
0
100
AcDbPolyline
 62
7
  6
CONTINUOUS
 90
4
 70
0
 10
24.680556193
 20
6.7204330293
 10
24.6445235382
 20
6.7157015089
 10
24.611891074
 20
6.7109533668
 10
24.5835777338
 20
6.7062654884
  0
LWPOLYLINE
  5
54B
100
AcDbEntity
  8
0
100
AcDbPolyline
 62
7
  6
CONTINUOUS
 90
6
 70
0
 10
24.8364572941
 20
6.8653939899
 10
24.8735262239
 20
6.8701535583
 10
24.9071357305
 20
6.8748779502
 10
24.9362431549
 20
6.8795994689
 10
24.9597749814
 20
6.8843393675
 10
24.9785905016
 20
6.8895310919
  0
LWPOLYLINE
  5
54C
100
AcDbEntity
  8
0
100
AcDbPolyline
 62
7
  6
CONTINUOUS
 90
6
 70
0
 10
24.6752076716
 20
6.8910849484
 10
24.638069097
 20
6.8863412242
 10
24.6045046188
 20
6.8816177311
 10
24.5755590252
 20
6.8768550263
 10
24.5522732765
 20
6.872101335
 10
24.5344555189
 20
6.8671466645
  0
LINE
  5
54D
100
AcDbEntity
  8
0
100
AcDbLine
 62
7
  6
CONTINUOUS
 10
24.7156596533
 20
6.8511906512
 11
24.7581255962
 21
6.8561381913
  0
LWPOLYLINE
  5
54E
100
AcDbEntity
  8
0
100
AcDbPolyline
 62
7
  6
CONTINUOUS
 90
3
 70
0
 10
24.7581255962
 20
6.8561381913
 10
24.7970107563
 20
6.860642734
 10
24.8364572941
 20
6.8653939899
  0
LWPOLYLINE
  5
54F
100
AcDbEntity
  8
0
100
AcDbPolyline
 62
7
  6
CONTINUOUS
 90
3
 70
0
 10
24.7557849329
 20
6.9005920252
 10
24.7148277162
 20
6.8958546712
 10
24.6752076716
 20
6.8910849484
  0
LINE
  5
550
100
AcDbEntity
  8
0
100
AcDbLine
 62
7
  6
CONTINUOUS
 10
24.1186747267
 20
7.0208560396
 11
24.184816459
 21
7.0208560396
  0
LINE
  5
551
100
AcDbEntity
  8
0
100
AcDbLine
 62
7
  6
CONTINUOUS
 10
28.2596196086
 20
7.0208560396
 11
28.3257613409
 21
7.0208560396
  0
LINE
  5
552
100
AcDbEntity
  8
0
100
AcDbLine
 62
7
  6
CONTINUOUS
 10
24.184816459
 20
7.040541079
 11
24.5341072477
 21
7.040541079
  0
LINE
  5
553
100
AcDbEntity
  8
0
100
AcDbLine
 62
7
  6
CONTINUOUS
 10
24.9289660653
 20
7.040541079
 11
28.2596196086
 21
7.040541079
  0
LINE
  5
554
100
AcDbEntity
  8
0
100
AcDbLine
 62
7
  6
CONTINUOUS
 10
24.184816459
 20
7.0641631262
 11
24.600646891
 21
7.0641631262
  0
LINE
  5
555
100
AcDbEntity
  8
0
100
AcDbLine
 62
7
  6
CONTINUOUS
 10
24.9941002558
 20
7.0641631262
 11
28.2596196086
 21
7.0641631262
  0
LINE
  5
556
100
AcDbEntity
  8
0
100
AcDbLine
 62
7
  6
CONTINUOUS
 10
24.184816459
 20
7.0986084305
 11
24.6529647856
 21
7.0986084305
  0
LINE
  5
557
100
AcDbEntity
  8
0
100
AcDbLine
 62
7
  6
CONTINUOUS
 10
25.0007094936
 20
7.0986084305
 11
28.2596196086
 21
7.0986084305
  0
LINE
  5
558
100
AcDbEntity
  8
0
100
AcDbLine
 62
7
  6
CONTINUOUS
 10
24.184816459
 20
7.1102261184
 11
24.6225952903
 21
7.1102261184
  0
LINE
  5
559
100
AcDbEntity
  8
0
100
AcDbLine
 62
7
  6
CONTINUOUS
 10
25.0013986681
 20
7.1102261184
 11
28.2596196086
 21
7.1102261184
  0
LINE
  5
55A
100
AcDbEntity
  8
0
100
AcDbLine
 62
7
  6
CONTINUOUS
 10
24.184816459
 20
7.1446714226
 11
24.5257859594
 21
7.1446714226
  0
LINE
  5
55B
100
AcDbEntity
  8
0
100
AcDbLine
 62
7
  6
CONTINUOUS
 10
24.9279407656
 20
7.1446714226
 11
28.2596196086
 21
7.1446714226
  0
LWPOLYLINE
  5
55C
100
AcDbEntity
  8
0
100
AcDbPolyline
 62
7
  6
CONTINUOUS
 90
5
 70
0
 10
24.9964366676
 20
7.2940867308
 10
24.9572141012
 20
7.307710312
 10
24.9173212887
 20
7.3218996125
 10
24.8798535673
 20
7.3357446694
 10
24.8493411341
 20
7.3477365903
  0
LWPOLYLINE
  5
55D
100
AcDbEntity
  8
0
100
AcDbPolyline
 62
7
  6
CONTINUOUS
 90
5
 70
0
 10
24.5133435381
 20
7.3175259204
 10
24.5677315608
 20
7.2985920067
 10
24.6191944088
 20
7.2800075715
 10
24.6643784542
 20
7.2625762672
 10
24.6650443344
 20
7.2623030733
  0
LWPOLYLINE
  5
55E
100
AcDbEntity
  8
0
100
AcDbPolyline
 62
7
  6
CONTINUOUS
 90
5
 70
0
 10
24.9883676434
 20
7.1233756758
 10
24.9490241093
 20
7.1371137034
 10
24.9090959702
 20
7.1514266922
 10
24.8716967046
 20
7.1654093409
 10
24.8433301331
 20
7.17675626
  0
LWPOLYLINE
  5
55F
100
AcDbEntity
  8
0
100
AcDbPolyline
 62
7
  6
CONTINUOUS
 90
3
 70
0
 10
24.5133435452
 20
7.3175251123
 10
24.5048171585
 20
7.3212313116
 10
24.5007300746
 20
7.3259428068
  0
LWPOLYLINE
  5
560
100
AcDbEntity
  8
0
100
AcDbPolyline
 62
7
  6
CONTINUOUS
 90
3
 70
0
 10
24.9964366247
 20
7.2940861598
 10
25.0051931432
 20
7.2901818552
 10
25.0088660158
 20
7.2854235024
  0
LWPOLYLINE
  5
561
100
AcDbEntity
  8
0
100
AcDbPolyline
 62
7
  6
CONTINUOUS
 90
3
 70
0
 10
24.9883679613
 20
7.1233797783
 10
24.99783624
 20
7.1191186452
 10
25.0013986681
 20
7.114393122
  0
LWPOLYLINE
  5
562
100
AcDbEntity
  8
0
100
AcDbPolyline
 62
7
  6
CONTINUOUS
 90
4
 70
0
 10
24.6657222382
 20
7.2625743339
 10
24.6596548585
 20
7.2656984265
 10
24.6529208331
 20
7.27131831
 10
24.6506826007
 20
7.2768482223
  0
LWPOLYLINE
  5
563
100
AcDbEntity
  8
0
100
AcDbPolyline
 62
7
  6
CONTINUOUS
 90
4
 70
0
 10
24.8481313624
 20
7.347263375
 10
24.8513401136
 20
7.3455931799
 10
24.8583030709
 20
7.3397578646
 10
24.8606826007
 20
7.333873107
  0
LWPOLYLINE
  5
564
100
AcDbEntity
  8
0
100
AcDbPolyline
 62
7
  6
CONTINUOUS
 90
4
 70
0
 10
24.8428637734
 20
7.1765705998
 10
24.8517410744
 20
7.1718580749
 10
24.858443003
 20
7.1660897019
 10
24.8606826007
 20
7.1603968119
  0
LWPOLYLINE
  5
565
100
AcDbEntity
  8
0
100
AcDbPolyline
 62
7
  6
CONTINUOUS
 90
6
 70
0
 10
24.6726231714
 20
7.0621311769
 10
24.6343091993
 20
7.0574014025
 10
24.5996887795
 20
7.052621735
 10
24.5698160337
 20
7.0478580365
 10
24.5457905204
 20
7.0431580971
 10
24.5269688387
 20
7.0380433341
  0
LWPOLYLINE
  5
566
100
AcDbEntity
  8
0
100
AcDbPolyline
 62
7
  6
CONTINUOUS
 90
7
 70
0
 10
24.8390214804
 20
7.036352075
 10
24.8772666796
 20
7.0410654715
 10
24.911933075
 20
7.045835388
 10
24.9419651695
 20
7.0505953838
 10
24.9662344797
 20
7.0552819275
 10
24.9843199399
 20
7.0600123099
 10
24.9861843047
 20
7.0606349511
  0
LWPOLYLINE
  5
567
100
AcDbEntity
  8
0
100
AcDbPolyline
 62
7
  6
CONTINUOUS
 90
7
 70
0
 10
24.8415842323
 20
7.2073205625
 10
24.8810002075
 20
7.2120636702
 10
24.9167308831
 20
7.2167737312
 10
24.9476893986
 20
7.2215179615
 10
24.9726920551
 20
7.226263357
 10
24.9913260299
 20
7.2310012406
 10
24.9943002197
 20
7.2319740517
  0
LINE
  5
568
100
AcDbEntity
  8
0
100
AcDbLine
 62
7
  6
CONTINUOUS
 10
24.7143947335
 20
7.0221064192
 11
24.7648991861
 21
7.0278439137
  0
LWPOLYLINE
  5
569
100
AcDbEntity
  8
0
100
AcDbPolyline
 62
7
  6
CONTINUOUS
 90
3
 70
0
 10
24.7648991861
 20
7.0278439137
 10
24.798321675
 20
7.0316371853
 10
24.8390214804
 20
7.036352075
  0
LWPOLYLINE
  5
56A
100
AcDbEntity
  8
0
100
AcDbPolyline
 62
7
  6
CONTINUOUS
 90
3
 70
0
 10
24.7981120857
 20
7.0763816215
 10
24.713502837
 20
7.0668493092
 10
24.6726231714
 20
7.0621311769
  0
LWPOLYLINE
  5
56B
100
AcDbEntity
  8
0
100
AcDbPolyline
 62
7
  6
CONTINUOUS
 90
3
 70
0
 10
24.7563848747
 20
7.1978297552
 10
24.7996403828
 20
7.2025529621
 10
24.8415842323
 20
7.2073205625
  0
LWPOLYLINE
  5
56C
100
AcDbEntity
  8
0
100
AcDbPolyline
 62
7
  6
CONTINUOUS
 90
3
 70
0
 10
24.7557181183
 20
7.242631751
 10
24.7121687377
 20
7.2379143243
 10
24.6700400431
 20
7.2331524702
  0
LINE
  5
56D
100
AcDbEntity
  8
0
100
AcDbLine
 62
7
  6
CONTINUOUS
 10
25.7202495298
 20
7.1917221814
 11
28.2596196086
 21
7.1917221814
  0
LINE
  5
56E
100
AcDbEntity
  8
02___PRT_ALL_AXES
100
AcDbLine
 62
7
  6
CONTINUOUS
 10
25.5592035494
 20
7.2261674856
 11
28.2596196086
 21
7.2261674856
  0
LINE
  5
56F
100
AcDbEntity
  8
0
100
AcDbLine
 62
7
  6
CONTINUOUS
 10
28.2497770889
 20
7.4243993467
 11
24.1946589787
 21
7.4243993467
  0
LWPOLYLINE
  5
570
100
AcDbEntity
  8
0
100
AcDbPolyline
 62
7
  6
CONTINUOUS
 90
7
 70
0
 10
24.6700400431
 20
7.2331524702
 10
24.6305559617
 20
7.2283898459
 10
24.5948670365
 20
7.2236595854
 10
24.564064527
 20
7.2189192529
 10
24.5393107293
 20
7.2141649138
 10
24.5210067761
 20
7.2093986269
 10
24.5188964777
 20
7.2086968188
  0
LWPOLYLINE
  5
571
100
AcDbEntity
  8
0
100
AcDbPolyline
 62
7
  6
CONTINUOUS
 90
4
 70
0
 10
24.8551411688
 20
7.4243993467
 10
24.8443908035
 20
7.4231541071
 10
24.8006436815
 20
7.4184258456
 10
24.7556826916
 20
7.4136742783
  0
LWPOLYLINE
  5
572
100
AcDbEntity
  8
0
100
AcDbPolyline
 62
7
  6
CONTINUOUS
 90
8
 70
0
 10
24.7108439529
 20
7.4089003615
 10
24.6674570529
 20
7.4041662294
 10
24.6267933719
 20
7.3994528555
 10
24.5900458083
 20
7.3946872438
 10
24.5583199027
 20
7.3899017198
 10
24.5328282776
 20
7.3851927066
 10
24.5139809862
 20
7.3804634503
 10
24.5112912624
 20
7.3795817132
  0
LWPOLYLINE
  5
573
100
AcDbEntity
  8
0
100
AcDbPolyline
 62
7
  6
CONTINUOUS
 90
8
 70
0
 10
24.8009524399
 20
7.3735529872
 10
24.8441518464
 20
7.3782557623
 10
24.8847406044
 20
7.3829928211
 10
24.9215273517
 20
7.3877651133
 10
24.9534127429
 20
7.3925071892
 10
24.9791511074
 20
7.3971864353
 10
24.9983324686
 20
7.4019420099
 10
25.0017298647
 20
7.4030405266
  0
LINE
  5
574
100
AcDbEntity
  8
0
100
AcDbLine
 62
7
  6
CONTINUOUS
 10
24.7564079599
 20
7.3688093186
 11
24.8009524399
 21
7.3735529872
  0
LINE
  5
575
100
AcDbEntity
  8
0
100
AcDbLine
 62
7
  6
CONTINUOUS
 10
24.7556826916
 20
7.4136742783
 11
24.7108439529
 21
7.4089003615
  0
LINE
  5
576
100
AcDbEntity
  8
0
100
AcDbLine
 62
7
  6
CONTINUOUS
 10
24.184816459
 20
7.4784284973
 11
24.0596196086
 21
7.4784284973
  0
LINE
  5
577
100
AcDbEntity
  8
0
100
AcDbLine
 62
7
  6
CONTINUOUS
 10
28.2596196086
 20
7.4784284973
 11
28.384816459
 21
7.4784284973
  0
LINE
  5
578
100
AcDbEntity
  8
0
100
AcDbLine
 62
7
  6
CONTINUOUS
 10
28.2497770889
 20
7.4869977719
 11
24.1946589787
 21
7.4869977719
  0
LINE
  5
579
100
AcDbEntity
  8
02___PRT_ALL_AXES
100
AcDbLine
 62
7
  6
CONTINUOUS
 10
28.2497770889
 20
8.0037579129
 11
28.2596196086
 21
8.0037579129
  0
LINE
  5
57A
100
AcDbEntity
  8
0
100
AcDbLine
 62
7
  6
CONTINUOUS
 10
24.4843046479
 20
8.4578639136
 11
24.5068046479
 21
8.4448735326
  0
LINE
  5
57B
100
AcDbEntity
  8
0
100
AcDbLine
 62
7
  6
CONTINUOUS
 10
24.5293046479
 20
8.4318831515
 11
24.5518046479
 21
8.4188927705
  0
LINE
  5
57C
100
AcDbEntity
  8
0
100
AcDbLine
 62
7
  6
CONTINUOUS
 10
24.5743046479
 20
8.4578639136
 11
24.5518046479
 21
8.4708542947
  0
LINE
  5
57D
100
AcDbEntity
  8
0
100
AcDbLine
 62
7
  6
CONTINUOUS
 10
24.5293046479
 20
8.4838446758
 11
24.5068046479
 21
8.4968350568
  0
LWPOLYLINE
  5
57E
100
AcDbEntity
  8
0
100
AcDbPolyline
 62
7
  6
CONTINUOUS
 90
4
 70
0
 10
24.8606826007
 20
6.9869135897
 10
24.8583981381
 20
6.9926751355
 10
24.8516249017
 20
6.9984563368
 10
24.8406468675
 20
7.0042319244
  0
LINE
  5
57F
100
AcDbEntity
  8
0
100
AcDbLine
 62
7
  6
CONTINUOUS
 10
24.0596196086
 20
9.6783363546
 11
24.0596196086
 21
7.0799327993
  0
LINE
  5
580
100
AcDbEntity
  8
0
100
AcDbLine
 62
7
  6
CONTINUOUS
 10
24.059816459
 20
13.7925095829
 11
24.059816459
 21
9.6881788743
  0
LINE
  5
581
100
AcDbEntity
  8
0
100
AcDbLine
 62
7
  6
CONTINUOUS
 10
24.1186747267
 20
9.6783363546
 11
24.1186747267
 21
7.0208560396
  0
LINE
  5
582
100
AcDbEntity
  8
0
100
AcDbLine
 62
7
  6
CONTINUOUS
 10
24.1188715771
 20
13.7925095829
 11
24.1188715771
 21
9.6881788743
  0
LINE
  5
583
100
AcDbEntity
  8
0
100
AcDbLine
 62
7
  6
CONTINUOUS
 10
24.184816459
 20
7.0209416652
 11
24.184816459
 21
9.6783363546
  0
LINE
  5
584
100
AcDbEntity
  8
0
100
AcDbLine
 62
7
  6
CONTINUOUS
 10
24.1946589787
 20
7.4244209089
 11
24.1946589787
 21
9.6881788743
  0
LINE
  5
585
100
AcDbEntity
  8
0
100
AcDbLine
 62
7
  6
CONTINUOUS
 10
27.9376314196
 20
13.8117956867
 11
27.9151314196
 21
13.7988053057
  0
LINE
  5
586
100
AcDbEntity
  8
0
100
AcDbLine
 62
7
  6
CONTINUOUS
 10
27.8926314196
 20
13.7858149246
 11
27.8701314196
 21
13.7728245436
  0
LINE
  5
587
100
AcDbEntity
  8
0
100
AcDbLine
 62
7
  6
CONTINUOUS
 10
27.8926314196
 20
13.7338534004
 11
27.9151314196
 21
13.7468437814
  0
LINE
  5
588
100
AcDbEntity
  8
0
100
AcDbLine
 62
7
  6
CONTINUOUS
 10
27.9376314196
 20
13.7598341625
 11
27.9601314196
 21
13.7728245436
  0
LINE
  5
589
100
AcDbEntity
  8
0
100
AcDbLine
 62
7
  6
CONTINUOUS
 10
24.1946589787
 20
8.0709553778
 11
24.184816459
 21
8.0709553778
  0
LINE
  5
58A
100
AcDbEntity
  8
0
100
AcDbLine
 62
7
  6
CONTINUOUS
 10
28.2497770889
 20
8.1822733625
 11
28.2596196086
 21
8.1822733625
  0
LINE
  5
58B
100
AcDbEntity
  8
0
100
AcDbLine
 62
7
  6
CONTINUOUS
 10
24.184816459
 20
8.2452654884
 11
24.1946589787
 21
8.2452654884
  0
LINE
  5
58C
100
AcDbEntity
  8
0
100
AcDbLine
 62
7
  6
CONTINUOUS
 10
24.5204107706
 20
6.7062654884
 11
24.5274383488
 21
6.5453074849
  0
LINE
  5
58D
100
AcDbEntity
  8
0
100
AcDbLine
 62
7
  6
CONTINUOUS
 10
24.4987655491
 20
7.3709378376
 11
24.5007300746
 21
7.3259428068
  0
LINE
  5
58E
100
AcDbEntity
  8
0
100
AcDbLine
 62
7
  6
CONTINUOUS
 10
24.5062328467
 20
7.1999086055
 11
24.5081943232
 21
7.1549834055
  0
LINE
  5
58F
100
AcDbEntity
  8
0
100
AcDbLine
 62
7
  6
CONTINUOUS
 10
24.5137002467
 20
7.0288770257
 11
24.5156584218
 21
6.9840274412
  0
LINE
  5
590
100
AcDbEntity
  8
0
100
AcDbLine
 62
7
  6
CONTINUOUS
 10
24.5211677585
 20
6.8578428872
 11
24.5231223556
 21
6.8130752512
  0
LINE
  5
591
100
AcDbEntity
  8
0
100
AcDbLine
 62
7
  6
CONTINUOUS
 10
24.2960369314
 20
13.9696749373
 11
24.296036932
 21
14.0287300554
  0
LINE
  5
592
100
AcDbEntity
  8
0
100
AcDbLine
 62
7
  6
CONTINUOUS
 10
24.5068046479
 20
13.8117956867
 11
24.5068046479
 21
13.7858149246
  0
LINE
  5
593
100
AcDbEntity
  8
0
100
AcDbLine
 62
7
  6
CONTINUOUS
 10
24.5068046479
 20
13.7598341625
 11
24.5068046479
 21
13.7338534004
  0
LINE
  5
594
100
AcDbEntity
  8
0
100
AcDbLine
 62
7
  6
CONTINUOUS
 10
24.5068046479
 20
8.4968350568
 11
24.5068046479
 21
8.4708542947
  0
LINE
  5
595
100
AcDbEntity
  8
0
100
AcDbLine
 62
7
  6
CONTINUOUS
 10
24.5068046479
 20
8.4448735326
 11
24.5068046479
 21
8.4188927705
  0
LINE
  5
596
100
AcDbEntity
  8
0
100
AcDbLine
 62
7
  6
CONTINUOUS
 10
28.2596196086
 20
8.5759741499
 11
28.2497770889
 21
8.5759741499
  0
LINE
  5
597
100
AcDbEntity
  8
0
100
AcDbLine
 62
7
  6
CONTINUOUS
 10
24.1946589787
 20
8.5759741499
 11
24.184816459
 21
8.5759741499
  0
LINE
  5
598
100
AcDbEntity
  8
0
100
AcDbLine
 62
7
  6
CONTINUOUS
 10
24.1946589787
 20
9.5835823002
 11
24.184816459
 21
9.5934248199
  0
LINE
  5
599
100
AcDbEntity
  8
0
100
AcDbLine
 62
7
  6
CONTINUOUS
 10
24.5518046479
 20
8.4188927705
 11
24.5518046479
 21
8.4448735326
  0
LINE
  5
59A
100
AcDbEntity
  8
0
100
AcDbLine
 62
7
  6
CONTINUOUS
 10
24.5518046479
 20
8.4708542947
 11
24.5518046479
 21
8.4968350568
  0
LINE
  5
59B
100
AcDbEntity
  8
0
100
AcDbLine
 62
7
  6
CONTINUOUS
 10
24.5518046479
 20
13.7338534004
 11
24.5518046479
 21
13.7598341625
  0
LINE
  5
59C
100
AcDbEntity
  8
0
100
AcDbLine
 62
7
  6
CONTINUOUS
 10
24.5518046479
 20
13.7858149246
 11
24.5518046479
 21
13.8117956867
  0
LINE
  5
59D
100
AcDbEntity
  8
0
100
AcDbLine
 62
7
  6
CONTINUOUS
 10
25.0149338322
 20
7.4243993467
 11
25.0143673031
 21
7.4114236981
  0
LINE
  5
59E
100
AcDbEntity
  8
0
100
AcDbLine
 62
7
  6
CONTINUOUS
 10
25.0088660158
 20
7.2854235024
 11
25.0069029846
 21
7.2404626966
  0
LINE
  5
59F
100
AcDbEntity
  8
0
100
AcDbLine
 62
7
  6
CONTINUOUS
 10
25.0013986681
 20
7.114393122
 11
24.9994388092
 21
7.0695049732
  0
LINE
  5
5A0
100
AcDbEntity
  8
0
100
AcDbLine
 62
7
  6
CONTINUOUS
 10
24.9939312134
 20
6.9433602899
 11
24.9919747911
 21
6.8985508524
  0
LINE
  5
5A1
100
AcDbEntity
  8
0
100
AcDbLine
 62
7
  6
CONTINUOUS
 10
24.9864636422
 20
6.7723247897
 11
24.9835794308
 21
6.7062654884
  0
LINE
  5
5A2
100
AcDbEntity
  8
0
100
AcDbLine
 62
7
  6
CONTINUOUS
 10
24.9909544308
 20
6.7062654884
 11
24.9839268526
 21
6.5453074849
  0
LINE
  5
5A3
100
AcDbEntity
  8
0
100
AcDbLine
 62
7
  6
CONTINUOUS
 10
24.184816459
 20
9.6196749373
 11
24.1946589787
 21
9.6295174569
  0
LINE
  5
5A4
100
AcDbEntity
  8
AXIS
100
AcDbLine
 62
7
  6
CONTINUOUS
 10
24.184816459
 20
9.1783363546
 11
24.1946589787
 21
9.1783363546
  0
LINE
  5
5A5
100
AcDbEntity
  8
AXIS
100
AcDbLine
 62
7
  6
CONTINUOUS
 10
24.1946589787
 20
9.6783363546
 11
24.184816459
 21
9.6783363546
  0
LINE
  5
5A6
100
AcDbEntity
  8
0
100
AcDbLine
 62
7
  6
CONTINUOUS
 10
24.0596196086
 20
9.6783363546
 11
24.184816459
 21
9.6783363546
  0
LINE
  5
5A7
100
AcDbEntity
  8
0
100
AcDbLine
 62
7
  6
CONTINUOUS
 10
28.2596196086
 20
9.6783363546
 11
28.384816459
 21
9.6783363546
  0
LINE
  5
5A8
100
AcDbEntity
  8
0
100
AcDbLine
 62
7
  6
CONTINUOUS
 10
28.3846196086
 20
9.6881788743
 11
28.2497770889
 21
9.6881788743
  0
LINE
  5
5A9
100
AcDbEntity
  8
0
100
AcDbLine
 62
7
  6
CONTINUOUS
 10
24.059816459
 20
9.6881788743
 11
24.1946589787
 21
9.6881788743
  0
LINE
  5
5AA
100
AcDbEntity
  8
0
100
AcDbLine
 62
7
  6
CONTINUOUS
 10
27.8701314196
 20
8.4578639136
 11
27.8926314196
 21
8.4448735326
  0
LINE
  5
5AB
100
AcDbEntity
  8
0
100
AcDbLine
 62
7
  6
CONTINUOUS
 10
27.9151314196
 20
8.4318831515
 11
27.9376314196
 21
8.4188927705
  0
LINE
  5
5AC
100
AcDbEntity
  8
0
100
AcDbLine
 62
7
  6
CONTINUOUS
 10
27.9601314196
 20
8.4578639136
 11
27.9376314196
 21
8.4708542947
  0
LINE
  5
5AD
100
AcDbEntity
  8
0
100
AcDbLine
 62
7
  6
CONTINUOUS
 10
27.9151314196
 20
8.4838446758
 11
27.8926314196
 21
8.4968350568
  0
LWPOLYLINE
  5
5AE
100
AcDbEntity
  8
0
100
AcDbPolyline
 62
7
  6
CONTINUOUS
 90
13
 70
0
 10
24.6506826007
 20
7.2768482223
 10
24.6529531345
 20
7.2824536594
 10
24.6597411892
 20
7.2880923309
 10
24.6707951692
 20
7.293732637
 10
24.685475752
 20
7.299352334
 10
24.7032410554
 20
7.3049765842
 10
24.7232734792
 20
7.3105723297
 10
24.7446992279
 20
7.3161834881
 10
24.7666259765
 20
7.32180571
 10
24.7881542698
 20
7.3274247725
 10
24.808309952
 20
7.3330743914
 10
24.8261177058
 20
7.3387287368
 10
24.8386056005
 20
7.3434151912
  0
LWPOLYLINE
  5
5AF
100
AcDbEntity
  8
0
100
AcDbPolyline
 62
7
  6
CONTINUOUS
 90
13
 70
0
 10
24.6506826007
 20
7.1083163713
 10
24.652960623
 20
7.1139284076
 10
24.659669521
 20
7.1194987638
 10
24.67051014
 20
7.1250913674
 10
24.6849709753
 20
7.1306481234
 10
24.7026929649
 20
7.1362636405
 10
24.7228784829
 20
7.141944678
 10
24.7444614953
 20
7.1475958124
 10
24.7663891292
 20
7.1531925988
 10
24.7876696375
 20
7.1587679029
 10
24.8074948599
 20
7.1643113891
 10
24.8251732573
 20
7.1698534368
 10
24.8384429625
 20
7.1748118499
  0
LWPOLYLINE
  5
5B0
100
AcDbEntity
  8
0
100
AcDbPolyline
 62
7
  6
CONTINUOUS
 90
12
 70
0
 10
24.8606826007
 20
6.8134227928
 10
24.8584541615
 20
6.8077046208
 10
24.8517640646
 20
6.8019437092
 10
24.8408242969
 20
6.7961566671
 10
24.8262075716
 20
6.7903692898
 10
24.8084025606
 20
6.7845540323
 10
24.7882425378
 20
6.778751588
 10
24.7666753817
 20
6.7729303796
 10
24.7446541566
 20
6.7671242837
 10
24.7231309614
 20
6.7613386823
 10
24.7030459207
 20
6.7555383775
 10
24.6852835308
 20
6.7497360945
  0
LWPOLYLINE
  5
5B1
100
AcDbEntity
  8
0
100
AcDbPolyline
 62
7
  6
CONTINUOUS
 90
13
 70
0
 10
24.8606826007
 20
7.333873107
 10
24.858415586
 20
7.3281067905
 10
24.8517396488
 20
7.3223932275
 10
24.8409453187
 20
7.3166512622
 10
24.8265100932
 20
7.3109267413
 10
24.8087532207
 20
7.3051285565
 10
24.78849257
 20
7.2992665992
 10
24.7668478907
 20
7.2934250737
 10
24.744888809
 20
7.2876559996
 10
24.723593932
 20
7.2819188621
 10
24.7037538279
 20
7.2762005882
 10
24.6860329022
 20
7.2704722083
 10
24.6739180284
 20
7.2658537869
  0
LWPOLYLINE
  5
5B2
100
AcDbEntity
  8
0
100
AcDbPolyline
 62
7
  6
CONTINUOUS
 90
12
 70
0
 10
24.8606826007
 20
6.9869135897
 10
24.8583988089
 20
6.9811328582
 10
24.8516350755
 20
6.9753618773
 10
24.8406776518
 20
6.969566504
 10
24.8260996394
 20
6.9638243464
 10
24.8083721105
 20
6.9580527201
 10
24.7882920651
 20
6.952241378
 10
24.766807177
 20
6.9464573681
 10
24.7448983213
 20
6.9406964862
 10
24.7235511076
 20
6.9349375766
 10
24.703640655
 20
6.9292042308
 10
24.6859675312
 20
6.9234902695
  0
LWPOLYLINE
  5
5B3
100
AcDbEntity
  8
0
100
AcDbPolyline
 62
7
  6
CONTINUOUS
 90
12
 70
0
 10
24.6506826007
 20
6.7712803432
 10
24.6529340293
 20
6.7768644394
 10
24.6595875696
 20
6.7824103266
 10
24.670382901
 20
6.7879917452
 10
24.6848419969
 20
6.7935693976
 10
24.7026497767
 20
6.7992145778
 10
24.7229590405
 20
6.8049198836
 10
24.7446449783
 20
6.8106057224
 10
24.7666337001
 20
6.8162184367
 10
24.7879647004
 20
6.8217985121
 10
24.8078374702
 20
6.827371371
 10
24.8255846104
 20
6.8329561815
  0
LWPOLYLINE
  5
5B4
100
AcDbEntity
  8
0
100
AcDbPolyline
 62
7
  6
CONTINUOUS
 90
12
 70
0
 10
24.6506826007
 20
6.9397935091
 10
24.6530299052
 20
6.9454857386
 10
24.6599634227
 20
6.9511777055
 10
24.6711435772
 20
6.9568315675
 10
24.6858665401
 20
6.9624225976
 10
24.7035335274
 20
6.9680060435
 10
24.7233808269
 20
6.9735489142
 10
24.7446429951
 20
6.9791037495
 10
24.766498343
 20
6.9847127168
 10
24.7880685555
 20
6.9903483071
 10
24.8083238385
 20
6.996012721
 10
24.8261633125
 20
7.0016810916
  0
LWPOLYLINE
  5
5B5
100
AcDbEntity
  8
0
100
AcDbPolyline
 62
7
  6
CONTINUOUS
 90
9
 70
0
 10
24.5231223556
 20
6.8130752512
 10
24.5264347212
 20
6.8178649801
 10
24.5367431577
 20
6.8225931111
 10
24.5537590493
 20
6.8273386501
 10
24.576835667
 20
6.8321034124
 10
24.6056312591
 20
6.8368819535
 10
24.639120308
 20
6.8416307001
 10
24.6761834445
 20
6.8464021813
 10
24.7156596533
 20
6.8511906512
  0
LWPOLYLINE
  5
5B6
100
AcDbEntity
  8
0
100
AcDbPolyline
 62
7
  6
CONTINUOUS
 90
9
 70
0
 10
24.5156584218
 20
6.9840274412
 10
24.5190860627
 20
6.9887826668
 10
24.5297291862
 20
6.9935687439
 10
24.5472922711
 20
6.9983247327
 10
24.5711167136
 20
7.0030276706
 10
24.6008491223
 20
7.0078120905
 10
24.6354048474
 20
7.0126190183
 10
24.6736539692
 20
7.0173765111
 10
24.7143947335
 20
7.0221064192
  0
LWPOLYLINE
  5
5B7
100
AcDbEntity
  8
0
100
AcDbPolyline
 62
7
  6
CONTINUOUS
 90
10
 70
0
 10
24.5081943232
 20
7.1549834055
 10
24.5117334882
 20
7.1597687962
 10
24.522720642
 20
7.164492315
 10
24.5408317465
 20
7.1692620927
 10
24.5653919739
 20
7.1740222199
 10
24.5960642683
 20
7.1787851712
 10
24.6316995342
 20
7.1835358
 10
24.6711279684
 20
7.1883308098
 10
24.7131200215
 20
7.1931072816
 10
24.7563848747
 20
7.1978297552
  0
LWPOLYLINE
  5
5B8
100
AcDbEntity
  8
0
100
AcDbPolyline
 62
7
  6
CONTINUOUS
 90
10
 70
0
 10
24.5007300746
 20
7.3259428068
 10
24.5043837874
 20
7.33071523
 10
24.5157071015
 20
7.3354955499
 10
24.5343699665
 20
7.3402308073
 10
24.5596773744
 20
7.3449388812
 10
24.5912832888
 20
7.3497495083
 10
24.6279864269
 20
7.354542034
 10
24.668604814
 20
7.3592825373
 10
24.7118564084
 20
7.3640281967
 10
24.7564079599
 20
7.3688093186
  0
LINE
  5
5B9
100
AcDbEntity
  8
0
100
AcDbLine
 62
7
  6
CONTINUOUS
 10
24.5518046479
 20
8.4968350568
 11
24.5293046479
 21
8.4838446758
  0
LINE
  5
5BA
100
AcDbEntity
  8
0
100
AcDbLine
 62
7
  6
CONTINUOUS
 10
24.5068046479
 20
8.4708542947
 11
24.4843046479
 21
8.4578639136
  0
LINE
  5
5BB
100
AcDbEntity
  8
0
100
AcDbLine
 62
7
  6
CONTINUOUS
 10
24.5068046479
 20
8.4188927705
 11
24.5293046479
 21
8.4318831515
  0
LINE
  5
5BC
100
AcDbEntity
  8
0
100
AcDbLine
 62
7
  6
CONTINUOUS
 10
24.5518046479
 20
8.4448735326
 11
24.5743046479
 21
8.4578639136
  0
LWPOLYLINE
  5
5BD
100
AcDbEntity
  8
0
100
AcDbPolyline
 62
7
  6
CONTINUOUS
 90
12
 70
0
 10
24.9864636422
 20
6.7723247897
 10
24.9828126988
 20
6.7675809936
 10
24.9723747945
 20
6.7628514162
 10
24.9554371079
 20
6.7581486125
 10
24.9324899959
 20
6.7534295317
 10
24.9045051814
 20
6.7487080339
 10
24.872146671
 20
6.7440063564
 10
24.8362955011
 20
6.7393237994
 10
24.7979914207
 20
6.7346053833
 10
24.7584313619
 20
6.7298493432
 10
24.7188497071
 20
6.7251220813
 10
24.680556193
 20
6.7204330293
  0
LWPOLYLINE
  5
5BE
100
AcDbEntity
  8
0
100
AcDbPolyline
 62
7
  6
CONTINUOUS
 90
10
 70
0
 10
24.9939312134
 20
6.9433602899
 10
24.9901488216
 20
6.9386008798
 10
24.9792876987
 20
6.9338860576
 10
24.9616670267
 20
6.9291215945
 10
24.9379543439
 20
6.9243788564
 10
24.9085069292
 20
6.9196285113
 10
24.8744153287
 20
6.9148748327
 10
24.8368066875
 20
6.9100826727
 10
24.796851755
 20
6.9053158283
 10
24.7557849329
 20
6.9005920252
  0
LWPOLYLINE
  5
5BF
100
AcDbEntity
  8
0
100
AcDbPolyline
 62
7
  6
CONTINUOUS
 90
9
 70
0
 10
25.0013986681
 20
7.114393122
 10
24.9975048704
 20
7.1096503489
 10
24.9863104721
 20
7.104882764
 10
24.9681458351
 20
7.1001454939
 10
24.9436885683
 20
7.0954483098
 10
24.9133008795
 20
7.0906613145
 10
24.8781338013
 20
7.0858657029
 10
24.8393333921
 20
7.0811161931
 10
24.7981120857
 20
7.0763816215
  0
LWPOLYLINE
  5
5C0
100
AcDbEntity
  8
0
100
AcDbPolyline
 62
7
  6
CONTINUOUS
 90
10
 70
0
 10
25.0088660158
 20
7.2854235024
 10
25.0048597101
 20
7.2806513536
 10
24.9933339304
 20
7.2759399881
 10
24.9746255596
 20
7.2712015591
 10
24.9494266221
 20
7.2664455732
 10
24.9180958395
 20
7.2616719166
 10
24.8818468986
 20
7.2569279158
 10
24.8418601281
 20
7.2521531921
 10
24.7993806795
 20
7.247368852
 10
24.7557181183
 20
7.242631751
  0
LINE
  5
5C1
100
AcDbEntity
  8
0
100
AcDbLine
 62
7
  6
CONTINUOUS
 10
27.8926314196
 20
13.8117956867
 11
27.8926314196
 21
13.7858149246
  0
LINE
  5
5C2
100
AcDbEntity
  8
0
100
AcDbLine
 62
7
  6
CONTINUOUS
 10
27.8926314196
 20
13.7598341625
 11
27.8926314196
 21
13.7338534004
  0
LINE
  5
5C3
100
AcDbEntity
  8
0
100
AcDbLine
 62
7
  6
CONTINUOUS
 10
27.8926314196
 20
8.4968350568
 11
27.8926314196
 21
8.4708542947
  0
LINE
  5
5C4
100
AcDbEntity
  8
0
100
AcDbLine
 62
7
  6
CONTINUOUS
 10
27.8926314196
 20
8.4448735326
 11
27.8926314196
 21
8.4188927705
  0
LINE
  5
5C5
100
AcDbEntity
  8
0
100
AcDbLine
 62
7
  6
CONTINUOUS
 10
27.9376314196
 20
8.4188927705
 11
27.9376314196
 21
8.4448735326
  0
LINE
  5
5C6
100
AcDbEntity
  8
0
100
AcDbLine
 62
7
  6
CONTINUOUS
 10
27.9376314196
 20
8.4708542947
 11
27.9376314196
 21
8.4968350568
  0
LINE
  5
5C7
100
AcDbEntity
  8
0
100
AcDbLine
 62
7
  6
CONTINUOUS
 10
27.9376314196
 20
13.7338534004
 11
27.9376314196
 21
13.7598341625
  0
LINE
  5
5C8
100
AcDbEntity
  8
0
100
AcDbLine
 62
7
  6
CONTINUOUS
 10
27.9376314196
 20
13.7858149246
 11
27.9376314196
 21
13.8117956867
  0
LINE
  5
5C9
100
AcDbEntity
  8
0
100
AcDbLine
 62
7
  6
CONTINUOUS
 10
28.1483991361
 20
13.9696749373
 11
28.1483991361
 21
14.0287300554
  0
LINE
  5
5CA
100
AcDbEntity
  8
0
100
AcDbLine
 62
7
  6
CONTINUOUS
 10
28.2497770889
 20
7.4244209089
 11
28.2497770889
 21
9.6881788743
  0
LINE
  5
5CB
100
AcDbEntity
  8
0
100
AcDbLine
 62
7
  6
CONTINUOUS
 10
28.2596196086
 20
7.0209416652
 11
28.2596196086
 21
9.6783363546
  0
LWPOLYLINE
  5
5CC
100
AcDbEntity
  8
0
100
AcDbPolyline
 62
7
  6
CONTINUOUS
 90
3
 70
0
 10
24.5112912624
 20
7.3795817132
 10
24.5024961758
 20
7.3756710717
 10
24.4987655491
 20
7.3709378376
  0
LINE
  5
5CD
100
AcDbEntity
  8
0
100
AcDbLine
 62
7
  6
CONTINUOUS
 10
28.3255644905
 20
9.6881788743
 11
28.3255644905
 21
13.7925095829
  0
LINE
  5
5CE
100
AcDbEntity
  8
0
100
AcDbLine
 62
7
  6
CONTINUOUS
 10
28.3257613409
 20
7.0208560397
 11
28.3257613409
 21
9.6783363546
  0
LINE
  5
5CF
100
AcDbEntity
  8
0
100
AcDbLine
 62
7
  6
CONTINUOUS
 10
28.3846196086
 20
9.6881788743
 11
28.3846196086
 21
13.7925095829
  0
LINE
  5
5D0
100
AcDbEntity
  8
0
100
AcDbLine
 62
7
  6
CONTINUOUS
 10
28.384816459
 20
7.0799327993
 11
28.384816459
 21
9.6783363546
  0
LWPOLYLINE
  5
5D1
100
AcDbEntity
  8
0
100
AcDbPolyline
 62
7
  6
CONTINUOUS
 90
3
 70
0
 10
24.5269688387
 20
7.0380433341
 10
24.5172063433
 20
7.0336029295
 10
24.5137002467
 20
7.0288770257
  0
LWPOLYLINE
  5
5D2
100
AcDbEntity
  8
0
100
AcDbPolyline
 62
7
  6
CONTINUOUS
 90
3
 70
0
 10
24.5188964777
 20
7.2086968188
 10
24.5098501508
 20
7.2046563608
 10
24.5062328467
 20
7.1999086055
  0
LWPOLYLINE
  5
5D3
100
AcDbEntity
  8
0
100
AcDbPolyline
 62
7
  6
CONTINUOUS
 90
3
 70
0
 10
24.9943002197
 20
7.2319740517
 10
25.0028730657
 20
7.2357237273
 10
25.0069029846
 20
7.2404626966
  0
LWPOLYLINE
  5
5D4
100
AcDbEntity
  8
0
100
AcDbPolyline
 62
7
  6
CONTINUOUS
 90
3
 70
0
 10
25.0017298647
 20
7.4030405266
 10
25.0102227923
 20
7.4067245616
 10
25.0143673031
 20
7.4114236981
  0
LINE
  5
5D5
100
AcDbEntity
  8
0
100
AcDbLine
 62
7
  6
CONTINUOUS
 10
24.838605435
 20
7.3434162498
 11
24.8445859706
 21
7.3458765569
  0
LWPOLYLINE
  5
5D6
100
AcDbEntity
  8
0
100
AcDbPolyline
 62
7
  6
CONTINUOUS
 90
5
 70
0
 10
24.673918019
 20
7.2658538438
 10
24.6386221056
 20
7.2517303209
 10
24.602786088
 20
7.2383352701
 10
24.5623835438
 20
7.2238541827
 10
24.5188967335
 20
7.208693457
  0
LWPOLYLINE
  5
5D7
100
AcDbEntity
  8
0
100
AcDbPolyline
 62
7
  6
CONTINUOUS
 90
5
 70
0
 10
24.8445859706
 20
7.3458765569
 10
24.8785324765
 20
7.3591550983
 10
24.9155190616
 20
7.3727948509
 10
24.9571471362
 20
7.3875851442
 10
25.0017298794
 20
7.4030421218
  0
LWPOLYLINE
  5
5D8
100
AcDbEntity
  8
0
100
AcDbPolyline
 62
7
  6
CONTINUOUS
 90
4
 70
0
 10
24.6361371388
 20
7.4243993467
 10
24.6126096583
 20
7.4154301943
 10
24.5647266731
 20
7.3981886565
 10
24.5112912359
 20
7.3795820672
  0
LINE
  5
5D9
100
AcDbEntity
  8
0
100
AcDbLine
 62
7
  6
CONTINUOUS
 10
24.4843046479
 20
13.7728245436
 11
24.5068046479
 21
13.7598341625
  0
LINE
  5
5DA
100
AcDbEntity
  8
0
100
AcDbLine
 62
7
  6
CONTINUOUS
 10
24.5293046479
 20
13.7468437814
 11
24.5518046479
 21
13.7338534004
  0
LINE
  5
5DB
100
AcDbEntity
  8
0
100
AcDbLine
 62
7
  6
CONTINUOUS
 10
24.5743046479
 20
13.7728245436
 11
24.5518046479
 21
13.7858149246
  0
LINE
  5
5DC
100
AcDbEntity
  8
0
100
AcDbLine
 62
7
  6
CONTINUOUS
 10
24.5293046479
 20
13.7988053057
 11
24.5068046479
 21
13.8117956867
  0
LINE
  5
5DD
100
AcDbEntity
  8
0
100
AcDbLine
 62
7
  6
CONTINUOUS
 10
27.9376314196
 20
8.4968350568
 11
27.9151314196
 21
8.4838446758
  0
LINE
  5
5DE
100
AcDbEntity
  8
0
100
AcDbLine
 62
7
  6
CONTINUOUS
 10
27.8926314196
 20
8.4708542947
 11
27.8701314196
 21
8.4578639136
  0
LINE
  5
5DF
100
AcDbEntity
  8
0
100
AcDbLine
 62
7
  6
CONTINUOUS
 10
27.8926314196
 20
8.4188927705
 11
27.9151314196
 21
8.4318831515
  0
LINE
  5
5E0
100
AcDbEntity
  8
0
100
AcDbLine
 62
7
  6
CONTINUOUS
 10
27.9376314196
 20
8.4448735326
 11
27.9601314196
 21
8.4578639136
  0
LWPOLYLINE
  5
5E1
100
AcDbEntity
  8
0
100
AcDbPolyline
 62
7
  6
CONTINUOUS
 90
3
 70
0
 10
24.5344555189
 20
6.8671466645
 10
24.5245586964
 20
6.8626050476
 10
24.5211677585
 20
6.8578428872
  0
LWPOLYLINE
  5
5E2
100
AcDbEntity
  8
0
100
AcDbPolyline
 62
7
  6
CONTINUOUS
 90
3
 70
0
 10
24.9785905016
 20
6.8895310919
 10
24.9881766549
 20
6.8938266855
 10
24.9919747911
 20
6.8985508524
  0
LWPOLYLINE
  5
5E3
100
AcDbEntity
  8
0
100
AcDbPolyline
 62
7
  6
CONTINUOUS
 90
3
 70
0
 10
24.9861843047
 20
7.0606349511
 10
24.9955254442
 20
7.0647983391
 10
24.9994388092
 20
7.0695049732
  0
LWPOLYLINE
  5
5E4
100
AcDbEntity
  8
0
100
AcDbPolyline
 62
7
  6
CONTINUOUS
 90
5
 70
0
 10
24.6739339143
 20
6.9188881911
 10
24.655627921
 20
6.9114079074
 10
24.6196308451
 20
6.8975837883
 10
24.5786627368
 20
6.8826806864
 10
24.5344557057
 20
6.8671443305
  0
LWPOLYLINE
  5
5E5
100
AcDbEntity
  8
0
100
AcDbPolyline
 62
7
  6
CONTINUOUS
 90
6
 70
0
 10
24.8386508623
 20
7.006379396
 10
24.8528229108
 20
7.0121459665
 10
24.884211795
 20
7.0242503927
 10
24.9175817549
 20
7.0364949043
 10
24.9526717414
 20
7.0489664735
 10
24.9861843091
 20
7.0606357859
  0
LWPOLYLINE
  5
5E6
100
AcDbEntity
  8
0
100
AcDbPolyline
 62
7
  6
CONTINUOUS
 90
5
 70
0
 10
24.6737276914
 20
7.0922807162
 10
24.6472334578
 20
7.0815915846
 10
24.6113427657
 20
7.0680227386
 10
24.5707163189
 20
7.0533626625
 10
24.5269690176
 20
7.0380410589
  0
LWPOLYLINE
  5
5E7
100
AcDbEntity
  8
0
100
AcDbPolyline
 62
7
  6
CONTINUOUS
 90
5
 70
0
 10
24.8384431401
 20
7.1748107223
 10
24.8714593897
 20
7.1879546654
 10
24.9108810764
 20
7.202620638
 10
24.9531255276
 20
7.217674136
 10
24.9943002118
 20
7.2319730993
  0
LWPOLYLINE
  5
5E8
100
AcDbEntity
  8
0
100
AcDbPolyline
 62
7
  6
CONTINUOUS
 90
13
 70
0
 10
24.6737272051
 20
7.0922836793
 10
24.6852573083
 20
7.0967066645
 10
24.7029878701
 20
7.1025046566
 10
24.7230720326
 20
7.1082943428
 10
24.7445652478
 20
7.1140755283
 10
24.7665004502
 20
7.1198684015
 10
24.7879591632
 20
7.1256430452
 10
24.8080180726
 20
7.1314110442
 10
24.8257923302
 20
7.1372030305
 10
24.8404795576
 20
7.1429735433
 10
24.8515566362
 20
7.1487782017
 10
24.8583838591
 20
7.1545960202
 10
24.8606826007
 20
7.1603968119
  0
LINE
  5
5E9
100
AcDbEntity
  8
0
100
AcDbLine
 62
7
  6
CONTINUOUS
 10
24.6859675312
 20
6.9234902695
 11
24.6739338854
 21
6.9188883657
  0
LINE
  5
5EA
100
AcDbEntity
  8
0
100
AcDbLine
 62
7
  6
CONTINUOUS
 10
24.8261633125
 20
7.0016810916
 11
24.8386510088
 21
7.0063784594
  0
LWPOLYLINE
  5
5EB
100
AcDbEntity
  8
0
100
AcDbPolyline
 62
7
  6
CONTINUOUS
 90
6
 70
0
 10
24.8385090223
 20
6.8377885988
 10
24.844744301
 20
6.8403598807
 10
24.8760661172
 20
6.8526707227
 10
24.909542073
 20
6.8651001971
 10
24.944801979
 20
6.8777196795
 10
24.9785905014
 20
6.8895310168
  0
LWPOLYLINE
  5
5EC
100
AcDbEntity
  8
0
100
AcDbPolyline
 62
7
  6
CONTINUOUS
 90
3
 70
0
 10
24.6737494231
 20
6.7453169416
 10
24.6466080985
 20
6.7343817622
 10
24.6149937726
 20
6.7224046037
  0
LINE
  5
5ED
100
AcDbEntity
  8
0
100
AcDbLine
 62
7
  6
CONTINUOUS
 10
24.6852835308
 20
6.7497360945
 11
24.6737486262
 21
6.745321802
  0
LINE
  5
5EE
100
AcDbEntity
  8
0
100
AcDbLine
 62
7
  6
CONTINUOUS
 10
24.8255846104
 20
6.8329561815
 11
24.8385088098
 21
6.8377899521
  0
LWPOLYLINE
  5
5EF
100
AcDbEntity
  8
0
100
AcDbPolyline
 62
7
  6
CONTINUOUS
 90
3
 70
0
 10
24.6149937726
 20
6.7224046037
 10
24.5795848915
 20
6.7095504029
 10
24.5703543268
 20
6.7062654884
  0
LINE
  5
5F0
100
AcDbEntity
  8
0
100
AcDbLine
 62
7
  6
CONTINUOUS
 10
24.1188715771
 20
13.7925095829
 11
24.059816459
 21
13.7925095829
  0
LINE
  5
5F1
100
AcDbEntity
  8
0
100
AcDbLine
 62
7
  6
CONTINUOUS
 10
28.3255644905
 20
13.7925095829
 11
28.3846196086
 21
13.7925095823
  0
LINE
  5
5F2
100
AcDbEntity
  8
0
100
AcDbLine
 62
7
  6
CONTINUOUS
 10
28.1483991361
 20
13.9696749373
 11
24.2960369314
 21
13.9696749373
  0
LINE
  5
5F3
100
AcDbEntity
  8
0
100
AcDbLine
 62
7
  6
CONTINUOUS
 10
28.1483991361
 20
14.0287300554
 11
24.2960369314
 21
14.0287300554
  0
LINE
  5
5F4
100
AcDbEntity
  8
0
100
AcDbLine
 62
7
  6
CONTINUOUS
 10
27.8701314196
 20
13.7728245436
 11
27.8926314196
 21
13.7598341625
  0
LINE
  5
5F5
100
AcDbEntity
  8
0
100
AcDbLine
 62
7
  6
CONTINUOUS
 10
27.9151314196
 20
13.7468437814
 11
27.9376314196
 21
13.7338534004
  0
LINE
  5
5F6
100
AcDbEntity
  8
0
100
AcDbLine
 62
7
  6
CONTINUOUS
 10
27.9601314196
 20
13.7728245436
 11
27.9376314196
 21
13.7858149246
  0
LINE
  5
5F7
100
AcDbEntity
  8
0
100
AcDbLine
 62
7
  6
CONTINUOUS
 10
27.9151314196
 20
13.7988053057
 11
27.8926314196
 21
13.8117956867
  0
LINE
  5
5F8
100
AcDbEntity
  8
0
100
AcDbLine
 62
7
  6
CONTINUOUS
 10
6.3149982547
 20
13.8117956867
 11
6.2924982547
 21
13.7988053057
  0
LINE
  5
5F9
100
AcDbEntity
  8
0
100
AcDbLine
 62
7
  6
CONTINUOUS
 10
6.2699982547
 20
13.7858149246
 11
6.2474982547
 21
13.7728245436
  0
LINE
  5
5FA
100
AcDbEntity
  8
0
100
AcDbLine
 62
7
  6
CONTINUOUS
 10
6.2699982547
 20
13.7338534004
 11
6.2924982547
 21
13.7468437814
  0
LINE
  5
5FB
100
AcDbEntity
  8
0
100
AcDbLine
 62
7
  6
CONTINUOUS
 10
6.3149982547
 20
13.7598341625
 11
6.3374982547
 21
13.7728245436
  0
LWPOLYLINE
  5
5FC
100
AcDbEntity
  8
0
100
AcDbPolyline
 62
7
  6
CONTINUOUS
 90
4
 70
0
 10
9.4532305242
 20
6.7294814283
 10
9.4764633107
 20
6.7354896027
 10
9.4983982008
 20
6.7414642112
 10
9.5180061214
 20
6.7474066871
  0
LINE
  5
5FD
100
AcDbEntity
  8
0
100
AcDbLine
 62
7
  6
CONTINUOUS
 10
9.6697013192
 20
6.5352654884
 11
9.234192828
 21
6.5352654884
  0
LINE
  5
5FE
100
AcDbEntity
  8
0
100
AcDbLine
 62
7
  6
CONTINUOUS
 10
9.6801913255
 20
6.5453074849
 11
9.2237028217
 21
6.5453074849
  0
LWPOLYLINE
  5
5FF
100
AcDbEntity
  8
0
100
AcDbPolyline
 62
7
  6
CONTINUOUS
 90
6
 70
0
 10
9.3727595644
 20
6.8055931985
 10
9.3362112425
 20
6.8008229771
 10
9.3031803269
 20
6.7960789784
 10
9.2746942726
 20
6.7913488803
 10
9.2517750259
 20
6.7866061128
 10
9.2348066313
 20
6.7818181146
  0
LWPOLYLINE
  5
600
100
AcDbEntity
  8
0
100
AcDbPolyline
 62
7
  6
CONTINUOUS
 90
7
 70
0
 10
9.5340058777
 20
6.9508529884
 10
9.5716609383
 20
6.955611725
 10
9.6057982127
 20
6.9603713618
 10
9.6353688686
 20
6.9650958484
 10
9.6592698149
 20
6.9697910803
 10
9.6770813184
 20
6.9745629492
 10
9.6785668119
 20
6.9750636035
  0
LWPOLYLINE
  5
601
100
AcDbEntity
  8
0
100
AcDbPolyline
 62
7
  6
CONTINUOUS
 90
6
 70
0
 10
9.3701815709
 20
6.9765962429
 10
9.3324529501
 20
6.9718789198
 10
9.2983600261
 20
6.9671323387
 10
9.2689535169
 20
6.9623459142
 10
9.2452974903
 20
6.9576205588
 10
9.2268652979
 20
6.9525699673
  0
LWPOLYLINE
  5
602
100
AcDbEntity
  8
0
100
AcDbPolyline
 62
7
  6
CONTINUOUS
 90
8
 70
0
 10
9.4577197121
 20
6.7710185933
 10
9.4971197792
 20
6.7757202178
 10
9.5352587852
 20
6.7804214828
 10
9.5710222474
 20
6.7850856484
 10
9.6033191698
 20
6.7897347157
 10
9.6312023833
 20
6.794430341
 10
9.6538433259
 20
6.7991225133
 10
9.6710509661
 20
6.80393791
  0
LINE
  5
603
100
AcDbEntity
  8
0
100
AcDbLine
 62
7
  6
CONTINUOUS
 10
9.4924835104
 20
6.8198056486
 11
9.4476025663
 21
6.8145320761
  0
LWPOLYLINE
  5
604
100
AcDbEntity
  8
0
100
AcDbPolyline
 62
7
  6
CONTINUOUS
 90
3
 70
0
 10
9.4476025663
 20
6.8145320761
 10
9.4117563271
 20
6.810337186
 10
9.3727595644
 20
6.8055931985
  0
LWPOLYLINE
  5
605
100
AcDbEntity
  8
0
100
AcDbPolyline
 62
7
  6
CONTINUOUS
 90
3
 70
0
 10
9.4520312809
 20
6.9861171228
 10
9.4104308409
 20
6.9813448118
 10
9.3701815709
 20
6.9765962429
  0
LWPOLYLINE
  5
606
100
AcDbEntity
  8
0
100
AcDbPolyline
 62
7
  6
CONTINUOUS
 90
3
 70
0
 10
9.452611441
 20
6.941417465
 10
9.4939303883
 20
6.9461440689
 10
9.5340058777
 20
6.9508529884
  0
LINE
  5
607
100
AcDbEntity
  8
0
100
AcDbLine
 62
7
  6
CONTINUOUS
 10
9.2166752435
 20
6.7062654884
 11
9.6872189037
 21
6.7062654884
  0
LINE
  5
608
100
AcDbEntity
  8
0
100
AcDbLine
 62
7
  6
CONTINUOUS
 10
5.8818683334
 20
7.0208560396
 11
5.9480100657
 21
7.0208560396
  0
LINE
  5
609
100
AcDbEntity
  8
0
100
AcDbLine
 62
7
  6
CONTINUOUS
 10
10.0228132153
 20
7.0208560396
 11
10.0889549476
 21
7.0208560396
  0
LINE
  5
60A
100
AcDbEntity
  8
0
100
AcDbLine
 62
7
  6
CONTINUOUS
 10
10.0228132153
 20
7.040541079
 11
5.9480100657
 21
7.040541079
  0
LINE
  5
60B
100
AcDbEntity
  8
0
100
AcDbLine
 62
7
  6
CONTINUOUS
 10
10.0228132153
 20
7.0641631262
 11
5.9480100657
 21
7.0641631262
  0
LINE
  5
60C
100
AcDbEntity
  8
0
100
AcDbLine
 62
7
  6
CONTINUOUS
 10
10.0228132153
 20
7.0986084305
 11
5.9480100657
 21
7.0986084305
  0
LINE
  5
60D
100
AcDbEntity
  8
0
100
AcDbLine
 62
7
  6
CONTINUOUS
 10
10.0228132153
 20
7.1102261184
 11
5.9480100657
 21
7.1102261184
  0
LINE
  5
60E
100
AcDbEntity
  8
0
100
AcDbLine
 62
7
  6
CONTINUOUS
 10
10.0228132153
 20
7.1446714226
 11
5.9480100657
 21
7.1446714226
  0
LWPOLYLINE
  5
60F
100
AcDbEntity
  8
0
100
AcDbPolyline
 62
7
  6
CONTINUOUS
 90
4
 70
0
 10
9.4532305242
 20
6.7294814283
 10
9.4525602015
 20
6.7295600669
 10
9.4518863361
 20
6.729597363
 10
9.4512114899
 20
6.7295927181
  0
LWPOLYLINE
  5
610
100
AcDbEntity
  8
0
100
AcDbPolyline
 62
7
  6
CONTINUOUS
 90
13
 70
0
 10
9.4495692252
 20
6.7062654884
 10
9.4409162821
 20
6.7078079424
 10
9.4330058124
 20
6.7116994149
 10
9.4264503772
 20
6.7176625526
 10
9.4217467507
 20
6.7252837968
 10
9.4192698475
 20
6.7340348987
 10
9.4192568228
 20
6.743281886
 10
9.4217633953
 20
6.7522744694
 10
9.4265760327
 20
6.7601916375
 10
9.4331939901
 20
6.7663254774
 10
9.4409826264
 20
6.7702576865
 10
9.4493251563
 20
6.7718258774
 10
9.4577197121
 20
6.7710185933
  0
LWPOLYLINE
  5
611
100
AcDbEntity
  8
0
100
AcDbPolyline
 62
7
  6
CONTINUOUS
 90
10
 70
0
 10
9.4512230504
 20
6.7062654884
 10
9.4473930951
 20
6.7070797853
 10
9.4440450254
 20
6.7091673438
 10
9.4416000068
 20
6.7122892788
 10
9.4403514518
 20
6.7160639591
 10
9.4404251345
 20
6.7200448249
 10
9.4417885679
 20
6.7237679481
 10
9.4442147968
 20
6.7267640479
 10
9.4474841193
 20
6.7287938843
 10
9.4512114899
 20
6.7295927181
  0
LINE
  5
612
100
AcDbEntity
  8
0
100
AcDbLine
 62
7
  6
CONTINUOUS
 10
10.0228132153
 20
7.1917221814
 11
5.9480100657
 21
7.1917221814
  0
LINE
  5
613
100
AcDbEntity
  8
0
100
AcDbLine
 62
7
  6
CONTINUOUS
 10
10.0228132153
 20
7.2261674856
 11
5.9480100657
 21
7.2261674856
  0
LINE
  5
614
100
AcDbEntity
  8
0
100
AcDbLine
 62
7
  6
CONTINUOUS
 10
10.0129706956
 20
7.4243993467
 11
5.9578525854
 21
7.4243993467
  0
LINE
  5
615
100
AcDbEntity
  8
0
100
AcDbLine
 62
7
  6
CONTINUOUS
 10
5.9480100657
 20
7.4784284973
 11
5.8228132153
 21
7.4784284973
  0
LINE
  5
616
100
AcDbEntity
  8
0
100
AcDbLine
 62
7
  6
CONTINUOUS
 10
10.0228132153
 20
7.4784284973
 11
10.1480100657
 21
7.4784284973
  0
LINE
  5
617
100
AcDbEntity
  8
0
100
AcDbLine
 62
7
  6
CONTINUOUS
 10
10.0129706956
 20
7.4869977719
 11
5.9578525854
 21
7.4869977719
  0
LWPOLYLINE
  5
618
100
AcDbEntity
  8
0
100
AcDbPolyline
 62
7
  6
CONTINUOUS
 90
6
 70
0
 10
9.2290391729
 20
6.8895310168
 10
9.2628276953
 20
6.8777196795
 10
9.2980876013
 20
6.8651001971
 10
9.3315635571
 20
6.8526707227
 10
9.3628853733
 20
6.8403598807
 10
9.369120652
 20
6.8377885988
  0
LWPOLYLINE
  5
619
100
AcDbEntity
  8
0
100
AcDbPolyline
 62
7
  6
CONTINUOUS
 90
5
 70
0
 10
9.6731739686
 20
6.8671443305
 10
9.6289669375
 20
6.8826806864
 10
9.5879988292
 20
6.8975837883
 10
9.5520017533
 20
6.9114079074
 10
9.53369576
 20
6.9188881911
  0
LWPOLYLINE
  5
61A
100
AcDbEntity
  8
0
100
AcDbPolyline
 62
7
  6
CONTINUOUS
 90
5
 70
0
 10
9.278663609
 20
7.040541079
 10
9.2900479194
 20
7.0364949043
 10
9.3234178793
 20
7.0242503927
 10
9.3548067635
 20
7.0121459665
 10
9.368978812
 20
7.006379396
  0
LWPOLYLINE
  5
61B
100
AcDbEntity
  8
0
100
AcDbPolyline
 62
7
  6
CONTINUOUS
 90
5
 70
0
 10
9.6372753475
 20
6.7062654884
 10
9.6280447828
 20
6.7095504029
 10
9.5926359017
 20
6.7224046037
 10
9.5610215758
 20
6.7343817622
 10
9.5338802512
 20
6.7453169416
  0
LINE
  5
61C
100
AcDbEntity
  8
0
100
AcDbLine
 62
7
  6
CONTINUOUS
 10
9.3771239719
 20
6.8347967156
 11
9.3691208645
 21
6.8377899521
  0
LINE
  5
61D
100
AcDbEntity
  8
0
100
AcDbLine
 62
7
  6
CONTINUOUS
 10
9.3705896928
 20
7.0057724559
 11
9.3689786655
 21
7.0063784594
  0
LINE
  5
61E
100
AcDbEntity
  8
0
100
AcDbLine
 62
7
  6
CONTINUOUS
 10
9.5300521907
 20
6.9202817496
 11
9.5336957889
 21
6.9188883657
  0
LINE
  5
61F
100
AcDbEntity
  8
0
100
AcDbLine
 62
7
  6
CONTINUOUS
 10
9.5233350679
 20
6.749357643
 11
9.5338810481
 21
6.745321802
  0
LWPOLYLINE
  5
620
100
AcDbEntity
  8
0
100
AcDbPolyline
 62
7
  6
CONTINUOUS
 90
5
 70
0
 10
9.3691208645
 20
6.8377899521
 10
9.3672258762
 20
6.8385935077
 10
9.3560463699
 20
6.8443103881
 10
9.3492099376
 20
6.849970725
 10
9.3469470736
 20
6.8555356726
  0
LWPOLYLINE
  5
621
100
AcDbEntity
  8
0
100
AcDbPolyline
 62
7
  6
CONTINUOUS
 90
5
 70
0
 10
9.5338810481
 20
6.745321802
 10
9.5369777576
 20
6.7439811706
 10
9.547950874
 20
6.7381778967
 10
9.5546874282
 20
6.7323923722
 10
9.5569470736
 20
6.7266744955
  0
LWPOLYLINE
  5
622
100
AcDbEntity
  8
0
100
AcDbPolyline
 62
7
  6
CONTINUOUS
 90
3
 70
0
 10
9.2290391727
 20
6.8895310919
 10
9.2194530194
 20
6.8938266855
 10
9.2156548832
 20
6.8985508524
  0
LINE
  5
623
100
AcDbEntity
  8
0
100
AcDbLine
 62
7
  6
CONTINUOUS
 10
10.0228132153
 20
8.0037579129
 11
10.0129706956
 21
8.0037579129
  0
LINE
  5
624
100
AcDbEntity
  8
0
100
AcDbLine
 62
7
  6
CONTINUOUS
 10
5.9578525854
 20
8.0037579129
 11
5.9480100657
 21
8.0037579129
  0
LINE
  5
625
100
AcDbEntity
  8
0
100
AcDbLine
 62
7
  6
CONTINUOUS
 10
9.6806606567
 20
7.0380410589
 11
9.6735224266
 21
7.040541079
  0
LINE
  5
626
100
AcDbEntity
  8
0
100
AcDbLine
 62
7
  6
CONTINUOUS
 10
9.3689786655
 20
7.0063784594
 11
9.3668790657
 21
7.0072716344
  0
LWPOLYLINE
  5
627
100
AcDbEntity
  8
0
100
AcDbPolyline
 62
7
  6
CONTINUOUS
 90
5
 70
0
 10
9.5336957889
 20
6.9188883657
 10
9.5363482973
 20
6.9177449243
 10
9.5475381605
 20
6.9119290218
 10
9.5545495122
 20
6.9060753379
 10
9.5569470736
 20
6.9001691574
  0
LWPOLYLINE
  5
628
100
AcDbEntity
  8
0
100
AcDbPolyline
 62
7
  6
CONTINUOUS
 90
3
 70
0
 10
9.6731741554
 20
6.8671466645
 10
9.6830709779
 20
6.8626050476
 10
9.6864619159
 20
6.8578428872
  0
LWPOLYLINE
  5
629
100
AcDbEntity
  8
0
100
AcDbPolyline
 62
7
  6
CONTINUOUS
 90
4
 70
0
 10
9.3668790657
 20
7.0072716344
 10
9.3559458542
 20
7.0128725088
 10
9.3492181517
 20
7.0184837537
 10
9.3469470736
 20
7.0240537567
  0
LINE
  5
62A
100
AcDbEntity
  8
0
100
AcDbLine
 62
7
  6
CONTINUOUS
 10
6.2474982547
 20
8.4578639136
 11
6.2699982547
 21
8.4448735326
  0
LINE
  5
62B
100
AcDbEntity
  8
0
100
AcDbLine
 62
7
  6
CONTINUOUS
 10
6.2924982547
 20
8.4318831515
 11
6.3149982547
 21
8.4188927705
  0
LINE
  5
62C
100
AcDbEntity
  8
0
100
AcDbLine
 62
7
  6
CONTINUOUS
 10
6.3374982547
 20
8.4578639136
 11
6.3149982547
 21
8.4708542947
  0
LINE
  5
62D
100
AcDbEntity
  8
0
100
AcDbLine
 62
7
  6
CONTINUOUS
 10
6.2924982547
 20
8.4838446758
 11
6.2699982547
 21
8.4968350568
  0
LINE
  5
62E
100
AcDbEntity
  8
0
100
AcDbLine
 62
7
  6
CONTINUOUS
 10
5.8228132153
 20
9.6783363546
 11
5.8228132153
 21
7.0799327993
  0
LINE
  5
62F
100
AcDbEntity
  8
0
100
AcDbLine
 62
7
  6
CONTINUOUS
 10
5.8230100657
 20
13.7925095829
 11
5.8230100657
 21
9.6881788743
  0
LINE
  5
630
100
AcDbEntity
  8
0
100
AcDbLine
 62
7
  6
CONTINUOUS
 10
5.8818683334
 20
9.6783363546
 11
5.8818683334
 21
7.0208560396
  0
LINE
  5
631
100
AcDbEntity
  8
0
100
AcDbLine
 62
7
  6
CONTINUOUS
 10
5.8820651838
 20
13.7925095829
 11
5.8820651838
 21
9.6881788743
  0
LINE
  5
632
100
AcDbEntity
  8
0
100
AcDbLine
 62
7
  6
CONTINUOUS
 10
5.9480100657
 20
7.0209416652
 11
5.9480100657
 21
9.6783363546
  0
LINE
  5
633
100
AcDbEntity
  8
0
100
AcDbLine
 62
7
  6
CONTINUOUS
 10
5.9578525854
 20
7.4244209089
 11
5.9578525854
 21
9.6881788743
  0
LINE
  5
634
100
AcDbEntity
  8
0
100
AcDbLine
 62
7
  6
CONTINUOUS
 10
9.7008250264
 20
13.8117956867
 11
9.6783250264
 21
13.7988053057
  0
LINE
  5
635
100
AcDbEntity
  8
0
100
AcDbLine
 62
7
  6
CONTINUOUS
 10
9.6558250264
 20
13.7858149246
 11
9.6333250264
 21
13.7728245436
  0
LINE
  5
636
100
AcDbEntity
  8
0
100
AcDbLine
 62
7
  6
CONTINUOUS
 10
9.6558250264
 20
13.7338534004
 11
9.6783250264
 21
13.7468437814
  0
LINE
  5
637
100
AcDbEntity
  8
0
100
AcDbLine
 62
7
  6
CONTINUOUS
 10
9.7008250264
 20
13.7598341625
 11
9.7233250264
 21
13.7728245436
  0
LINE
  5
638
100
AcDbEntity
  8
0
100
AcDbLine
 62
7
  6
CONTINUOUS
 10
5.9480100657
 20
8.1822733625
 11
5.9578525854
 21
8.1822733625
  0
LINE
  5
639
100
AcDbEntity
  8
0
100
AcDbLine
 62
7
  6
CONTINUOUS
 10
10.0129706956
 20
8.1822733625
 11
10.0228132153
 21
8.1822733625
  0
LWPOLYLINE
  5
63A
100
AcDbEntity
  8
0
100
AcDbPolyline
 62
7
  6
CONTINUOUS
 90
3
 70
0
 10
9.6806608356
 20
7.0380433341
 10
9.690423331
 20
7.0336029295
 10
9.6939294276
 20
7.0288770257
  0
LINE
  5
63B
100
AcDbEntity
  8
0
100
AcDbLine
 62
7
  6
CONTINUOUS
 10
6.0592305382
 20
13.9696749373
 11
6.0592305388
 21
14.0287300554
  0
LINE
  5
63C
100
AcDbEntity
  8
0
100
AcDbLine
 62
7
  6
CONTINUOUS
 10
6.2699982547
 20
13.8117956867
 11
6.2699982547
 21
13.7858149246
  0
LINE
  5
63D
100
AcDbEntity
  8
0
100
AcDbLine
 62
7
  6
CONTINUOUS
 10
6.2699982547
 20
13.7598341625
 11
6.2699982547
 21
13.7338534004
  0
LINE
  5
63E
100
AcDbEntity
  8
0
100
AcDbLine
 62
7
  6
CONTINUOUS
 10
6.2699982547
 20
8.4968350568
 11
6.2699982547
 21
8.4708542947
  0
LINE
  5
63F
100
AcDbEntity
  8
0
100
AcDbLine
 62
7
  6
CONTINUOUS
 10
6.2699982547
 20
8.4448735326
 11
6.2699982547
 21
8.4188927705
  0
LINE
  5
640
100
AcDbEntity
  8
02___PRT_ALL_AXES
100
AcDbLine
 62
7
  6
CENTER
 10
7.9854116405
 20
8.3791237562
 11
7.7523407744
 21
8.3791237562
  0
LINE
  5
641
100
AcDbEntity
  8
02___PRT_ALL_AXES
100
AcDbLine
 62
7
  6
CENTER
 10
7.9854116405
 20
8.3791237562
 11
8.2184825067
 21
8.3791237562
  0
LINE
  5
642
100
AcDbEntity
  8
0
100
AcDbLine
 62
7
  6
CONTINUOUS
 10
5.9480100657
 20
8.5759741499
 11
5.9578525854
 21
8.5759741499
  0
LINE
  5
643
100
AcDbEntity
  8
0
100
AcDbLine
 62
7
  6
CONTINUOUS
 10
10.0129706956
 20
8.5759741499
 11
10.0228132153
 21
8.5759741499
  0
LINE
  5
644
100
AcDbEntity
  8
0
100
AcDbLine
 62
7
  6
CONTINUOUS
 10
6.3149982547
 20
8.4188927705
 11
6.3149982547
 21
8.4448735326
  0
LINE
  5
645
100
AcDbEntity
  8
0
100
AcDbLine
 62
7
  6
CONTINUOUS
 10
6.3149982547
 20
8.4708542947
 11
6.3149982547
 21
8.4968350568
  0
LINE
  5
646
100
AcDbEntity
  8
0
100
AcDbLine
 62
7
  6
CONTINUOUS
 10
6.3149982547
 20
13.7338534004
 11
6.3149982547
 21
13.7598341625
  0
LINE
  5
647
100
AcDbEntity
  8
0
100
AcDbLine
 62
7
  6
CONTINUOUS
 10
6.3149982547
 20
13.7858149246
 11
6.3149982547
 21
13.8117956867
  0
LINE
  5
648
100
AcDbEntity
  8
AXIS
100
AcDbLine
 62
7
  6
CONTINUOUS
 10
10.0228132153
 20
9.1783363546
 11
10.0129706956
 21
9.1783363546
  0
LINE
  5
649
100
AcDbEntity
  8
0
100
AcDbLine
 62
7
  6
CONTINUOUS
 10
5.8228132153
 20
9.6783363546
 11
5.9480100657
 21
9.6783363546
  0
LINE
  5
64A
100
AcDbEntity
  8
AXIS
100
AcDbLine
 62
7
  6
CONTINUOUS
 10
10.0129706956
 20
9.6783363546
 11
10.0228132153
 21
9.6783363546
  0
LINE
  5
64B
100
AcDbEntity
  8
0
100
AcDbLine
 62
7
  6
CONTINUOUS
 10
10.0228132153
 20
9.6783363546
 11
10.1480100657
 21
9.6783363546
  0
LINE
  5
64C
100
AcDbEntity
  8
0
100
AcDbLine
 62
7
  6
CONTINUOUS
 10
10.1478132153
 20
9.6881788743
 11
10.0129706956
 21
9.6881788743
  0
LINE
  5
64D
100
AcDbEntity
  8
0
100
AcDbLine
 62
7
  6
CONTINUOUS
 10
5.8230100657
 20
9.6881788743
 11
5.9578525854
 21
9.6881788743
  0
LINE
  5
64E
100
AcDbEntity
  8
0
100
AcDbLine
 62
7
  6
CONTINUOUS
 10
9.6333250264
 20
8.4578639136
 11
9.6558250264
 21
8.4448735326
  0
LINE
  5
64F
100
AcDbEntity
  8
0
100
AcDbLine
 62
7
  6
CONTINUOUS
 10
9.6783250264
 20
8.4318831515
 11
9.7008250264
 21
8.4188927705
  0
LINE
  5
650
100
AcDbEntity
  8
0
100
AcDbLine
 62
7
  6
CONTINUOUS
 10
9.7233250264
 20
8.4578639136
 11
9.7008250264
 21
8.4708542947
  0
LINE
  5
651
100
AcDbEntity
  8
0
100
AcDbLine
 62
7
  6
CONTINUOUS
 10
9.6783250264
 20
8.4838446758
 11
9.6558250264
 21
8.4968350568
  0
LINE
  5
652
100
AcDbEntity
  8
02___PRT_ALL_AXES
100
AcDbLine
 62
7
  6
CENTER
 10
7.9854116405
 20
13.8121946223
 11
7.9854116405
 21
11.0305862484
  0
LINE
  5
653
100
AcDbEntity
  8
02___PRT_ALL_AXES
100
AcDbLine
 62
7
  6
CENTER
 10
7.9854116405
 20
8.3791237562
 11
7.9854116405
 21
8.14605289
  0
LINE
  5
654
100
AcDbEntity
  8
02___PRT_ALL_AXES
100
AcDbLine
 62
7
  6
CENTER
 10
7.9854116405
 20
8.3791237562
 11
7.9854116405
 21
11.0305862484
  0
LINE
  5
655
100
AcDbEntity
  8
02___PRT_ALL_AXES
100
AcDbLine
 62
7
  6
CENTER
 10
7.9854116405
 20
13.8121946223
 11
7.9854116405
 21
14.0452654884
  0
LINE
  5
656
100
AcDbEntity
  8
0
100
AcDbLine
 62
7
  6
CONTINUOUS
 10
6.3149982547
 20
8.4968350568
 11
6.2924982547
 21
8.4838446758
  0
LINE
  5
657
100
AcDbEntity
  8
0
100
AcDbLine
 62
7
  6
CONTINUOUS
 10
6.2699982547
 20
8.4708542947
 11
6.2474982547
 21
8.4578639136
  0
LINE
  5
658
100
AcDbEntity
  8
0
100
AcDbLine
 62
7
  6
CONTINUOUS
 10
6.2699982547
 20
8.4188927705
 11
6.2924982547
 21
8.4318831515
  0
LINE
  5
659
100
AcDbEntity
  8
0
100
AcDbLine
 62
7
  6
CONTINUOUS
 10
6.3149982547
 20
8.4448735326
 11
6.3374982547
 21
8.4578639136
  0
LINE
  5
65A
100
AcDbEntity
  8
0
100
AcDbLine
 62
7
  6
CONTINUOUS
 10
9.2166752435
 20
6.7062654884
 11
9.2237028217
 21
6.5453074849
  0
LINE
  5
65B
100
AcDbEntity
  8
0
100
AcDbLine
 62
7
  6
CONTINUOUS
 10
9.2136984609
 20
6.9433602899
 11
9.2156548832
 21
6.8985508524
  0
LINE
  5
65C
100
AcDbEntity
  8
0
100
AcDbLine
 62
7
  6
CONTINUOUS
 10
9.2211660321
 20
6.7723247897
 11
9.2240502435
 21
6.7062654884
  0
LINE
  5
65D
100
AcDbEntity
  8
0
100
AcDbLine
 62
7
  6
CONTINUOUS
 10
10.0129706956
 20
9.6295174569
 11
10.0228132153
 21
9.6196749373
  0
LINE
  5
65E
100
AcDbEntity
  8
0
100
AcDbLine
 62
7
  6
CONTINUOUS
 10
9.6558250264
 20
13.8117956867
 11
9.6558250264
 21
13.7858149246
  0
LINE
  5
65F
100
AcDbEntity
  8
0
100
AcDbLine
 62
7
  6
CONTINUOUS
 10
9.6558250264
 20
13.7598341625
 11
9.6558250264
 21
13.7338534004
  0
LINE
  5
660
100
AcDbEntity
  8
0
100
AcDbLine
 62
7
  6
CONTINUOUS
 10
9.6558250264
 20
8.4968350568
 11
9.6558250264
 21
8.4708542947
  0
LINE
  5
661
100
AcDbEntity
  8
0
100
AcDbLine
 62
7
  6
CONTINUOUS
 10
9.6558250264
 20
8.4448735326
 11
9.6558250264
 21
8.4188927705
  0
LINE
  5
662
100
AcDbEntity
  8
0
100
AcDbLine
 62
7
  6
CONTINUOUS
 10
9.7008250264
 20
8.4188927705
 11
9.7008250264
 21
8.4448735326
  0
LINE
  5
663
100
AcDbEntity
  8
0
100
AcDbLine
 62
7
  6
CONTINUOUS
 10
9.7008250264
 20
8.4708542947
 11
9.7008250264
 21
8.4968350568
  0
LINE
  5
664
100
AcDbEntity
  8
0
100
AcDbLine
 62
7
  6
CONTINUOUS
 10
9.7008250264
 20
13.7338534004
 11
9.7008250264
 21
13.7598341625
  0
LINE
  5
665
100
AcDbEntity
  8
0
100
AcDbLine
 62
7
  6
CONTINUOUS
 10
9.7008250264
 20
13.7858149246
 11
9.7008250264
 21
13.8117956867
  0
LINE
  5
666
100
AcDbEntity
  8
0
100
AcDbLine
 62
7
  6
CONTINUOUS
 10
9.9115927429
 20
13.9696749373
 11
9.9115927429
 21
14.0287300554
  0
LINE
  5
667
100
AcDbEntity
  8
0
100
AcDbLine
 62
7
  6
CONTINUOUS
 10
10.0129706956
 20
7.4244209089
 11
10.0129706956
 21
9.6881788743
  0
LINE
  5
668
100
AcDbEntity
  8
0
100
AcDbLine
 62
7
  6
CONTINUOUS
 10
10.0228132153
 20
7.0209416652
 11
10.0228132153
 21
9.6783363546
  0
LINE
  5
669
100
AcDbEntity
  8
0
100
AcDbLine
 62
7
  6
CONTINUOUS
 10
9.6939294276
 20
7.0288770257
 11
9.6919712525
 21
6.9840274412
  0
LINE
  5
66A
100
AcDbEntity
  8
0
100
AcDbLine
 62
7
  6
CONTINUOUS
 10
9.6864619159
 20
6.8578428872
 11
9.6845073187
 21
6.8130752512
  0
LINE
  5
66B
100
AcDbEntity
  8
0
100
AcDbLine
 62
7
  6
CONTINUOUS
 10
9.6872189037
 20
6.7062654884
 11
9.6801913255
 21
6.5453074849
  0
LWPOLYLINE
  5
66C
100
AcDbEntity
  8
0
100
AcDbPolyline
 62
7
  6
CONTINUOUS
 90
4
 70
0
 10
9.4577197121
 20
6.7710185933
 10
9.4560033928
 20
6.7566159182
 10
9.4544719879
 20
6.742677439
 10
9.4532333268
 20
6.7294810189
  0
LINE
  5
66D
100
AcDbEntity
  8
0
100
AcDbLine
 62
7
  6
CONTINUOUS
 10
10.0129706956
 20
9.5835823002
 11
10.0228132153
 21
9.5934248199
  0
LINE
  5
66E
100
AcDbEntity
  8
0
100
AcDbLine
 62
7
  6
CONTINUOUS
 10
10.0887580972
 20
9.6881788743
 11
10.0887580972
 21
13.7925095829
  0
LINE
  5
66F
100
AcDbEntity
  8
0
100
AcDbLine
 62
7
  6
CONTINUOUS
 10
10.0889549476
 20
7.0208560397
 11
10.0889549476
 21
9.6783363546
  0
LINE
  5
670
100
AcDbEntity
  8
0
100
AcDbLine
 62
7
  6
CONTINUOUS
 10
10.1478132153
 20
9.6881788743
 11
10.1478132153
 21
13.7925095829
  0
LINE
  5
671
100
AcDbEntity
  8
0
100
AcDbLine
 62
7
  6
CONTINUOUS
 10
10.1480100657
 20
7.0799327993
 11
10.1480100657
 21
9.6783363546
  0
LINE
  5
672
100
AcDbEntity
  8
0
100
AcDbLine
 62
7
  6
CONTINUOUS
 10
6.2474982547
 20
13.7728245436
 11
6.2699982547
 21
13.7598341625
  0
LINE
  5
673
100
AcDbEntity
  8
0
100
AcDbLine
 62
7
  6
CONTINUOUS
 10
6.2924982547
 20
13.7468437814
 11
6.3149982547
 21
13.7338534004
  0
LINE
  5
674
100
AcDbEntity
  8
0
100
AcDbLine
 62
7
  6
CONTINUOUS
 10
6.3374982547
 20
13.7728245436
 11
6.3149982547
 21
13.7858149246
  0
LINE
  5
675
100
AcDbEntity
  8
0
100
AcDbLine
 62
7
  6
CONTINUOUS
 10
6.2924982547
 20
13.7988053057
 11
6.2699982547
 21
13.8117956867
  0
LWPOLYLINE
  5
676
100
AcDbEntity
  8
0
100
AcDbPolyline
 62
7
  6
CONTINUOUS
 90
12
 70
0
 10
9.3469470736
 20
6.8555356726
 10
9.3491569494
 20
6.8610692
 10
9.3558049055
 20
6.8666471259
 10
9.3667117029
 20
6.8722652028
 10
9.3813066228
 20
6.8778923894
 10
9.3990963413
 20
6.8835360045
 10
9.4192573094
 20
6.8891771892
 10
9.4408782291
 20
6.8948496368
 10
9.462995979
 20
6.9005115694
 10
9.4846208844
 20
6.9061556611
 10
9.5047652919
 20
6.9118171374
 10
9.5225297443
 20
6.9174572662
  0
LWPOLYLINE
  5
677
100
AcDbEntity
  8
0
100
AcDbPolyline
 62
7
  6
CONTINUOUS
 90
4
 70
0
 10
9.3469470736
 20
7.0240537567
 10
9.3492653523
 20
7.0297047708
 10
9.3561238283
 20
7.035367024
 10
9.3662739118
 20
7.040541079
  0
LINE
  5
678
100
AcDbEntity
  8
0
100
AcDbLine
 62
7
  6
CONTINUOUS
 10
9.7008250264
 20
8.4968350568
 11
9.6783250264
 21
8.4838446758
  0
LINE
  5
679
100
AcDbEntity
  8
0
100
AcDbLine
 62
7
  6
CONTINUOUS
 10
9.6558250264
 20
8.4708542947
 11
9.6333250264
 21
8.4578639136
  0
LINE
  5
67A
100
AcDbEntity
  8
0
100
AcDbLine
 62
7
  6
CONTINUOUS
 10
9.6558250264
 20
8.4188927705
 11
9.6783250264
 21
8.4318831515
  0
LINE
  5
67B
100
AcDbEntity
  8
0
100
AcDbLine
 62
7
  6
CONTINUOUS
 10
9.7008250264
 20
8.4448735326
 11
9.7233250264
 21
8.4578639136
  0
LWPOLYLINE
  5
67C
100
AcDbEntity
  8
0
100
AcDbPolyline
 62
7
  6
CONTINUOUS
 90
5
 70
0
 10
9.5569470736
 20
6.7266744955
 10
9.555118127
 20
6.7215080621
 10
9.5497569427
 20
6.7163760008
 10
9.5411230205
 20
6.711300165
 10
9.5295497705
 20
6.7062654884
  0
LWPOLYLINE
  5
67D
100
AcDbEntity
  8
0
100
AcDbPolyline
 62
7
  6
CONTINUOUS
 90
12
 70
0
 10
9.5569470736
 20
6.9001691574
 10
9.5546958542
 20
6.8944194996
 10
9.548035902
 20
6.88870587
 10
9.5372375381
 20
6.8829633637
 10
9.5227786387
 20
6.8772202349
 10
9.5050033706
 20
6.8714134665
 10
9.4847314068
 20
6.8655571284
 10
9.4630281096
 20
6.8596939835
 10
9.4409372332
 20
6.8538857624
 10
9.4194655435
 20
6.8481054786
 10
9.3994789893
 20
6.8423274665
 10
9.3817244829
 20
6.8365556581
  0
LWPOLYLINE
  5
67E
100
AcDbEntity
  8
0
100
AcDbPolyline
 62
7
  6
CONTINUOUS
 90
10
 70
0
 10
9.2156548832
 20
6.8985508524
 10
9.2190242553
 20
6.9033328349
 10
9.2294995
 20
6.908093264
 10
9.2467908844
 20
6.9128214866
 10
9.2702418782
 20
6.9175525456
 10
9.2995029605
 20
6.922359688
 10
9.3335258275
 20
6.9271337455
 10
9.3711851241
 20
6.931872766
 10
9.411292312
 20
6.9366436079
 10
9.452611441
 20
6.941417465
  0
LWPOLYLINE
  5
67F
100
AcDbEntity
  8
0
100
AcDbPolyline
 62
7
  6
CONTINUOUS
 90
9
 70
0
 10
9.6864619159
 20
6.8578428872
 10
9.6827351884
 20
6.8530715531
 10
9.6720409431
 20
6.8483486462
 10
9.654692312
 20
6.8436237482
 10
9.631350983
 20
6.8388745945
 10
9.602375514
 20
6.834094518
 10
9.5688229638
 20
6.829346463
 10
9.5318052395
 20
6.8245911343
 10
9.4924835104
 20
6.8198056486
  0
LWPOLYLINE
  5
680
100
AcDbEntity
  8
0
100
AcDbPolyline
 62
7
  6
CONTINUOUS
 90
10
 70
0
 10
9.6939294276
 20
7.0288770257
 10
9.6900916665
 20
7.0241404986
 10
9.6790635075
 20
7.0193889111
 10
9.6611709725
 20
7.0146204985
 10
9.6370859125
 20
7.0099092695
 10
9.6071673319
 20
7.0051628709
 10
9.5725392617
 20
7.0003681999
 10
9.5343357242
 20
6.9955862558
 10
9.4937462347
 20
6.9908501369
 10
9.4520312809
 20
6.9861171228
  0
LWPOLYLINE
  5
681
100
AcDbEntity
  8
0
100
AcDbPolyline
 62
7
  6
CONTINUOUS
 90
3
 70
0
 10
9.2348066313
 20
6.7818181146
 10
9.2245016502
 20
6.7770670457
 10
9.2211660321
 20
6.7723247897
  0
LWPOLYLINE
  5
682
100
AcDbEntity
  8
0
100
AcDbPolyline
 62
7
  6
CONTINUOUS
 90
3
 70
0
 10
9.2268652979
 20
6.9525699673
 10
9.2171466686
 20
6.9481100244
 10
9.2136984609
 20
6.9433602899
  0
LWPOLYLINE
  5
683
100
AcDbEntity
  8
0
100
AcDbPolyline
 62
7
  6
CONTINUOUS
 90
3
 70
0
 10
9.6785668119
 20
6.9750636035
 10
9.6881158622
 20
6.9793258022
 10
9.6919712525
 20
6.9840274412
  0
LWPOLYLINE
  5
684
100
AcDbEntity
  8
0
100
AcDbPolyline
 62
7
  6
CONTINUOUS
 90
6
 70
0
 10
9.3701263931
 20
6.8321209501
 10
9.3639836205
 20
6.8295690168
 10
9.3337896304
 20
6.8176119058
 10
9.3015317374
 20
6.8055500176
 10
9.2675348809
 20
6.7933099586
 10
9.2348069202
 20
6.7818145715
  0
LWPOLYLINE
  5
685
100
AcDbEntity
  8
0
100
AcDbPolyline
 62
7
  6
CONTINUOUS
 90
6
 70
0
 10
9.3701266673
 20
7.0055916163
 10
9.3559256108
 20
6.999759604
 10
9.3255848216
 20
6.9879650855
 10
9.2933329302
 20
6.9760534167
 10
9.259405296
 20
6.963937838
 10
9.2268652989
 20
6.9525699556
  0
LWPOLYLINE
  5
686
100
AcDbEntity
  8
0
100
AcDbPolyline
 62
7
  6
CONTINUOUS
 90
6
 70
0
 10
9.5349242909
 20
6.92211193
 10
9.5450168908
 20
6.9262423786
 10
9.5763594649
 20
6.938438533
 10
9.6097495621
 20
6.9507680606
 10
9.6449087595
 20
6.9633155584
 10
9.6785668154
 20
6.9750644447
  0
LWPOLYLINE
  5
687
100
AcDbEntity
  8
0
100
AcDbPolyline
 62
7
  6
CONTINUOUS
 90
8
 70
0
 10
9.3701262168
 20
7.0055943447
 10
9.3815679821
 20
7.0099913491
 10
9.3993049994
 20
7.0157769205
 10
9.4193919785
 20
7.0215589213
 10
9.4408798628
 20
7.0273557448
 10
9.4628169562
 20
7.0331424412
 10
9.4842742577
 20
7.038905351
 10
9.4899450681
 20
7.040541079
  0
LINE
  5
688
100
AcDbEntity
  8
0
100
AcDbLine
 62
7
  6
CONTINUOUS
 10
9.3817244829
 20
6.8365556581
 11
9.3701263409
 21
6.8321212671
  0
LINE
  5
689
100
AcDbEntity
  8
0
100
AcDbLine
 62
7
  6
CONTINUOUS
 10
9.5225297443
 20
6.9174572662
 11
9.5349244138
 21
6.9221111429
  0
LINE
  5
68A
100
AcDbEntity
  8
0
100
AcDbLine
 62
7
  6
CONTINUOUS
 10
5.8820651838
 20
13.7925095829
 11
5.8230100657
 21
13.7925095829
  0
LINE
  5
68B
100
AcDbEntity
  8
0
100
AcDbLine
 62
7
  6
CONTINUOUS
 10
10.0887580972
 20
13.7925095829
 11
10.1478132153
 21
13.7925095823
  0
LINE
  5
68C
100
AcDbEntity
  8
02___PRT_ALL_AXES
100
AcDbLine
 62
7
  6
CENTER
 10
7.9854116405
 20
13.8121946223
 11
7.7523407744
 21
13.8121946223
  0
LINE
  5
68D
100
AcDbEntity
  8
02___PRT_ALL_AXES
100
AcDbLine
 62
7
  6
CENTER
 10
7.9854116405
 20
13.8121946223
 11
8.2184825067
 21
13.8121946223
  0
LINE
  5
68E
100
AcDbEntity
  8
0
100
AcDbLine
 62
7
  6
CONTINUOUS
 10
9.9115927429
 20
13.9696749373
 11
6.0592305382
 21
13.9696749373
  0
LINE
  5
68F
100
AcDbEntity
  8
0
100
AcDbLine
 62
7
  6
CONTINUOUS
 10
9.9115927429
 20
14.0287300554
 11
6.0592305382
 21
14.0287300554
  0
LWPOLYLINE
  5
690
100
AcDbEntity
  8
0
100
AcDbPolyline
 62
7
  6
CONTINUOUS
 90
3
 70
0
 10
9.6710509661
 20
6.80393791
 10
9.6808877745
 20
6.8084142581
 10
9.6845073187
 20
6.8130752512
  0
LWPOLYLINE
  5
691
100
AcDbEntity
  8
0
100
AcDbPolyline
 62
7
  6
CONTINUOUS
 90
5
 70
0
 10
9.5347662154
 20
6.7535429552
 10
9.5631614931
 20
6.7649105609
 10
9.5960275283
 20
6.7772739547
 10
9.6328154106
 20
6.7905355512
 10
9.6710509651
 20
6.8039374947
  0
LINE
  5
692
100
AcDbEntity
  8
0
100
AcDbLine
 62
7
  6
CONTINUOUS
 10
9.5180061214
 20
6.7474066871
 11
9.5347662611
 21
6.7535426643
  0
LINE
  5
693
100
AcDbEntity
  8
0
100
AcDbLine
 62
7
  6
CONTINUOUS
 10
9.6333250264
 20
13.7728245436
 11
9.6558250264
 21
13.7598341625
  0
LINE
  5
694
100
AcDbEntity
  8
0
100
AcDbLine
 62
7
  6
CONTINUOUS
 10
9.6783250264
 20
13.7468437814
 11
9.7008250264
 21
13.7338534004
  0
LINE
  5
695
100
AcDbEntity
  8
0
100
AcDbLine
 62
7
  6
CONTINUOUS
 10
9.7233250264
 20
13.7728245436
 11
9.7008250264
 21
13.7858149246
  0
LINE
  5
696
100
AcDbEntity
  8
0
100
AcDbLine
 62
7
  6
CONTINUOUS
 10
9.6783250264
 20
13.7988053057
 11
9.6558250264
 21
13.8117956867
  0
LINE
  5
697
100
AcDbEntity
  8
0
100
AcDbLine
 62
7
  6
CONTINUOUS
 10
15.22320152
 20
15.8469237721
 11
19.406666087
 21
15.8469237721
  0
LINE
  5
698
100
AcDbEntity
  8
0
100
AcDbLine
 62
7
  6
CONTINUOUS
 10
15.1641464019
 20
15.9059788902
 11
15.1641464019
 21
20.1126718036
  0
LINE
  5
699
100
AcDbEntity
  8
0
100
AcDbLine
 62
7
  6
CONTINUOUS
 10
15.22320152
 20
15.8469237721
 11
15.22320152
 21
20.1717269217
  0
LINE
  5
69A
100
AcDbEntity
  8
0
100
AcDbLine
 62
7
  6
CONTINUOUS
 10
15.2302881342
 20
20.1717269217
 11
15.2302881342
 21
15.8469237721
  0
LINE
  5
69B
100
AcDbEntity
  8
0
100
AcDbLine
 62
7
  6
CONTINUOUS
 10
15.1641464019
 20
16.0831442445
 11
19.4657212051
 21
16.0831442445
  0
LINE
  5
69C
100
AcDbEntity
  8
02___PRT_ALL_AXES
100
AcDbLine
 62
7
  6
CENTER
 10
17.3149338035
 20
17.2593253469
 11
17.1144416775
 21
17.2593253469
  0
LINE
  5
69D
100
AcDbEntity
  8
02___PRT_ALL_AXES
100
AcDbLine
 62
7
  6
CENTER
 10
17.3149338035
 20
17.2593253469
 11
17.5154259295
 21
17.2593253469
  0
LINE
  5
69E
100
AcDbEntity
  8
02___PRT_ALL_AXES
100
AcDbLine
 62
7
  6
CENTER
 10
17.3149338035
 20
18.7593253469
 11
17.3149338035
 21
18.3300680581
  0
LINE
  5
69F
100
AcDbEntity
  8
02___PRT_ALL_AXES
100
AcDbLine
 62
7
  6
CENTER
 10
17.3149338035
 20
18.0093253469
 11
17.3149338035
 21
17.5995122154
  0
LINE
  5
6A0
100
AcDbEntity
  8
02___PRT_ALL_AXES
100
AcDbLine
 62
7
  6
CENTER
 10
17.3149338035
 20
17.2593253469
 11
17.3149338035
 21
17.0588332209
  0
LINE
  5
6A1
100
AcDbEntity
  8
02___PRT_ALL_AXES
100
AcDbLine
 62
7
  6
CENTER
 10
17.3149338035
 20
17.2593253469
 11
17.3149338035
 21
17.5995122154
  0
LINE
  5
6A2
100
AcDbEntity
  8
02___PRT_ALL_AXES
100
AcDbLine
 62
7
  6
CENTER
 10
17.3149338035
 20
18.0093253469
 11
17.3149338035
 21
18.3300680581
  0
LINE
  5
6A3
100
AcDbEntity
  8
02___PRT_ALL_AXES
100
AcDbLine
 62
7
  6
CENTER
 10
17.3149338035
 20
18.7593253469
 11
17.3149338035
 21
18.9598174729
  0
LINE
  5
6A4
100
AcDbEntity
  8
02___PRT_ALL_AXES
100
AcDbLine
 62
7
  6
CENTER
 10
17.3149338035
 20
18.0093253469
 11
17.1144416775
 21
18.0093253469
  0
LINE
  5
6A5
100
AcDbEntity
  8
02___PRT_ALL_AXES
100
AcDbLine
 62
7
  6
CENTER
 10
17.3149338035
 20
18.0093253469
 11
17.5154259295
 21
18.0093253469
  0
LINE
  5
6A6
100
AcDbEntity
  8
02___PRT_ALL_AXES
100
AcDbLine
 62
7
  6
CENTER
 10
17.3149338035
 20
18.7593253469
 11
17.1144416775
 21
18.7593253469
  0
LINE
  5
6A7
100
AcDbEntity
  8
02___PRT_ALL_AXES
100
AcDbLine
 62
7
  6
CENTER
 10
17.3149338035
 20
18.7593253469
 11
17.5154259295
 21
18.7593253469
  0
LINE
  5
6A8
100
AcDbEntity
  8
0
100
AcDbLine
 62
7
  6
CONTINUOUS
 10
15.1641464019
 20
19.9355064492
 11
19.4657212051
 21
19.9355064492
  0
LINE
  5
6A9
100
AcDbEntity
  8
0
100
AcDbLine
 62
7
  6
CONTINUOUS
 10
19.3995794728
 20
15.8469237721
 11
19.3995794728
 21
20.1717269217
  0
LINE
  5
6AA
100
AcDbEntity
  8
0
100
AcDbLine
 62
7
  6
CONTINUOUS
 10
19.406666087
 20
20.1717269217
 11
19.406666087
 21
15.8469237721
  0
LINE
  5
6AB
100
AcDbEntity
  8
0
100
AcDbLine
 62
7
  6
CONTINUOUS
 10
19.4657212051
 20
20.1126718036
 11
19.4657212051
 21
15.9059788902
  0
LINE
  5
6AC
100
AcDbEntity
  8
0
100
AcDbLine
 62
7
  6
CONTINUOUS
 10
15.22320152
 20
20.1717269217
 11
19.406666087
 21
20.1717269217
  0
LWPOLYLINE
  5
6AD
100
AcDbEntity
  8
0
100
AcDbPolyline
 62
7
  6
CONTINUOUS
 90
5
 70
0
 10
19.2353536427
 20
1.2623699789
 10
19.2514104009
 20
1.2623752444
 10
19.2650646779
 20
1.262370427
 10
19.275654966
 20
1.2623876169
 10
19.2770372735
 20
1.2623858992
  0
LWPOLYLINE
  5
6AE
100
AcDbEntity
  8
0
100
AcDbPolyline
 62
7
  6
CONTINUOUS
 90
5
 70
0
 10
19.1279715349
 20
1.2623763251
 10
19.1521271775
 20
1.2623782244
 10
19.1751127908
 20
1.2623748092
 10
19.1968288312
 20
1.262376455
 10
19.2353536427
 20
1.2623699789
  0
LWPOLYLINE
  5
6AF
100
AcDbEntity
  8
0
100
AcDbPolyline
 62
7
  6
CONTINUOUS
 90
6
 70
0
 10
15.521391992
 20
1.2623789341
 10
15.5448310139
 20
1.2623778877
 10
15.5690267125
 20
1.262378083
 10
15.5939232906
 20
1.2623788924
 10
15.6194855587
 20
1.2623781807
 10
15.6456831636
 20
1.262378849
  0
LINE
  5
6B0
100
AcDbEntity
  8
02___PRT_ALL_AXES
100
AcDbLine
 62
7
  6
CONTINUOUS
 10
19.1030840322
 20
1.2623789572
 11
19.1021843818
 21
1.2623789572
  0
LINE
  5
6B1
100
AcDbEntity
  8
02___PRT_ALL_AXES
100
AcDbLine
 62
7
  6
CONTINUOUS
 10
19.0476789904
 20
1.2623789572
 11
19.0078471893
 21
1.2623789572
  0
LINE
  5
6B2
100
AcDbEntity
  8
02___PRT_ALL_AXES
100
AcDbLine
 62
7
  6
CONTINUOUS
 10
18.903354483
 20
1.2623789572
 11
18.9007746164
 21
1.2623789572
  0
LINE
  5
6B3
100
AcDbEntity
  8
02___PRT_ALL_AXES
100
AcDbLine
 62
7
  6
CONTINUOUS
 10
15.729127978
 20
1.2623789572
 11
15.726515007
 21
1.2623789572
  0
LINE
  5
6B4
100
AcDbEntity
  8
02___PRT_ALL_AXES
100
AcDbLine
 62
7
  6
CONTINUOUS
 10
15.6220204177
 20
1.2623789572
 11
15.5821902564
 21
1.2623789572
  0
LINE
  5
6B5
100
AcDbEntity
  8
02___PRT_ALL_AXES
100
AcDbLine
 62
7
  6
CONTINUOUS
 10
15.5276832812
 20
1.2623789572
 11
15.5267848329
 21
1.2623789572
  0
LINE
  5
6B6
100
AcDbEntity
  8
0
100
AcDbLine
 62
7
  6
CONTINUOUS
 10
15.2233983704
 20
1.2623789572
 11
15.3457316967
 21
1.2623789572
  0
LINE
  5
6B7
100
AcDbEntity
  8
0
100
AcDbLine
 62
7
  6
CONTINUOUS
 10
15.3457316967
 20
1.2623789572
 11
15.3520727865
 21
1.2623866013
  0
LINE
  5
6B8
100
AcDbEntity
  8
0
100
AcDbLine
 62
7
  6
CONTINUOUS
 10
15.3467343091
 20
1.2623789572
 11
19.4064692366
 21
1.2623789572
  0
LINE
  5
6B9
100
AcDbEntity
  8
0
100
AcDbLine
 62
7
  6
CONTINUOUS
 10
15.6998672224
 20
1.2623785603
 11
15.7271690207
 21
1.2623789572
  0
LWPOLYLINE
  5
6BA
100
AcDbEntity
  8
0
100
AcDbPolyline
 62
7
  6
CONTINUOUS
 90
3
 70
0
 10
15.4179218169
 20
1.2623749305
 10
15.4561916773
 20
1.2623745623
 10
15.4769927749
 20
1.2623788357
  0
LWPOLYLINE
  5
6BB
100
AcDbEntity
  8
0
100
AcDbPolyline
 62
7
  6
CONTINUOUS
 90
6
 70
0
 10
15.3520727865
 20
1.2623866013
 10
15.360666157
 20
1.2623786385
 10
15.3719943772
 20
1.2623676767
 10
15.3854426099
 20
1.2623789784
 10
15.4008005121
 20
1.2623663257
 10
15.4179218169
 20
1.2623749305
  0
LINE
  5
6BC
100
AcDbEntity
  8
0
100
AcDbLine
 62
7
  6
CONTINUOUS
 10
15.3457316967
 20
1.2623789572
 11
15.3457880321
 21
1.2623786888
  0
LINE
  5
6BD
100
AcDbEntity
  8
0
100
AcDbLine
 62
7
  6
CONTINUOUS
 10
15.1641464019
 20
1.3216309257
 11
15.1641464019
 21
5.5283238391
  0
LINE
  5
6BE
100
AcDbEntity
  8
0
100
AcDbLine
 62
7
  6
CONTINUOUS
 10
15.1643432523
 20
1.3875758076
 11
15.1643432523
 21
1.3214340753
  0
LINE
  5
6BF
100
AcDbEntity
  8
0
100
AcDbLine
 62
7
  6
CONTINUOUS
 10
15.1643432523
 20
5.4623789572
 11
15.1643432523
 21
5.5285206895
  0
LINE
  5
6C0
100
AcDbEntity
  8
0
100
AcDbLine
 62
7
  6
CONTINUOUS
 10
15.2893432523
 20
5.4623789572
 11
15.2893432523
 21
1.3974183273
  0
LINE
  5
6C1
100
AcDbEntity
  8
0
100
AcDbLine
 62
7
  6
CONTINUOUS
 10
15.1643432523
 20
1.3214340753
 11
19.4655243547
 21
1.3214340753
  0
LINE
  5
6C2
100
AcDbEntity
  8
0
100
AcDbLine
 62
7
  6
CONTINUOUS
 10
19.4655243547
 20
1.3875758076
 11
15.1643432523
 21
1.3875758076
  0
LINE
  5
6C3
100
AcDbEntity
  8
0
100
AcDbLine
 62
7
  6
CONTINUOUS
 10
19.4657212051
 20
1.3974183273
 11
19.3405243547
 21
1.3974183273
  0
LINE
  5
6C4
100
AcDbEntity
  8
0
100
AcDbLine
 62
7
  6
CONTINUOUS
 10
15.2893432523
 20
1.3974183273
 11
15.1641464019
 21
1.3974183273
  0
LINE
  5
6C5
100
AcDbEntity
  8
0
100
AcDbLine
 62
7
  6
CONTINUOUS
 10
15.5169344472
 20
5.4623789572
 11
15.5169344472
 21
1.3875758076
  0
LINE
  5
6C6
100
AcDbEntity
  8
0
100
AcDbLine
 62
7
  6
CONTINUOUS
 10
15.6980183324
 20
5.4623789572
 11
15.6980183324
 21
1.3875758076
  0
LINE
  5
6C7
100
AcDbEntity
  8
0
100
AcDbLine
 62
7
  6
CONTINUOUS
 10
15.7091267671
 20
5.4623789572
 11
15.7091267671
 21
1.3875758076
  0
LINE
  5
6C8
100
AcDbEntity
  8
0
100
AcDbLine
 62
7
  6
CONTINUOUS
 10
15.7790085564
 20
5.4623789572
 11
15.7790085564
 21
1.3875758076
  0
LINE
  5
6C9
100
AcDbEntity
  8
0
100
AcDbLine
 62
7
  6
CONTINUOUS
 10
15.7910769549
 20
5.4623789572
 11
15.7910769549
 21
1.3875758076
  0
LINE
  5
6CA
100
AcDbEntity
  8
0
100
AcDbLine
 62
7
  6
CONTINUOUS
 10
16.1447130368
 20
5.4623789572
 11
16.1447130368
 21
1.3875758076
  0
LINE
  5
6CB
100
AcDbEntity
  8
0
100
AcDbLine
 62
7
  6
CONTINUOUS
 10
16.1579456647
 20
5.4623789572
 11
16.1579456647
 21
1.3875758076
  0
LINE
  5
6CC
100
AcDbEntity
  8
0
100
AcDbLine
 62
7
  6
CONTINUOUS
 10
16.2278274541
 20
5.4623789572
 11
16.2278274541
 21
1.3875758076
  0
LINE
  5
6CD
100
AcDbEntity
  8
0
100
AcDbLine
 62
7
  6
CONTINUOUS
 10
16.2435831367
 20
5.4623789572
 11
16.2435831367
 21
1.3875758076
  0
LINE
  5
6CE
100
AcDbEntity
  8
0
100
AcDbLine
 62
7
  6
CONTINUOUS
 10
16.590350837
 20
5.4623789572
 11
16.590350837
 21
1.3875758076
  0
LINE
  5
6CF
100
AcDbEntity
  8
0
100
AcDbLine
 62
7
  6
CONTINUOUS
 10
16.6067645624
 20
5.4623789572
 11
16.6067645624
 21
1.3875758076
  0
LINE
  5
6D0
100
AcDbEntity
  8
0
100
AcDbLine
 62
7
  6
CONTINUOUS
 10
16.6766463517
 20
5.4623789572
 11
16.6766463517
 21
1.3875758076
  0
LINE
  5
6D1
100
AcDbEntity
  8
0
100
AcDbLine
 62
7
  6
CONTINUOUS
 10
16.6930671871
 20
5.4623789572
 11
16.6930671871
 21
1.3875758076
  0
LINE
  5
6D2
100
AcDbEntity
  8
0
100
AcDbLine
 62
7
  6
CONTINUOUS
 10
17.0388251668
 20
5.4623789572
 11
17.0388251668
 21
1.3875758076
  0
LINE
  5
6D3
100
AcDbEntity
  8
0
100
AcDbLine
 62
7
  6
CONTINUOUS
 10
17.05558346
 20
5.4623789572
 11
17.05558346
 21
1.3875758076
  0
LINE
  5
6D4
100
AcDbEntity
  8
0
100
AcDbLine
 62
7
  6
CONTINUOUS
 10
17.1254652493
 20
5.4623789572
 11
17.1254652493
 21
1.3875758076
  0
LINE
  5
6D5
100
AcDbEntity
  8
0
100
AcDbLine
 62
7
  6
CONTINUOUS
 10
17.1422259527
 20
5.4623789572
 11
17.1422259527
 21
1.3875758076
  0
LINE
  5
6D6
100
AcDbEntity
  8
0
100
AcDbLine
 62
7
  6
CONTINUOUS
 10
17.4876416543
 20
5.4623789572
 11
17.4876416543
 21
1.3875758076
  0
LINE
  5
6D7
100
AcDbEntity
  8
0
100
AcDbLine
 62
7
  6
CONTINUOUS
 10
17.5044023576
 20
5.4623789572
 11
17.5044023576
 21
1.3875758076
  0
LWPOLYLINE
  5
6D8
100
AcDbEntity
  8
0
100
AcDbPolyline
 62
7
  6
CONTINUOUS
 90
8
 70
0
 10
19.1574516021
 20
4.8308123967
 10
19.1579247208
 20
4.8312492043
 10
19.1593536011
 20
4.834794831
 10
19.1612915767
 20
4.84166355
 10
19.1633844288
 20
4.8513749104
 10
19.1652657846
 20
4.8635613491
 10
19.1665408558
 20
4.8774577409
 10
19.1669806622
 20
4.8915128155
  0
LINE
  5
6D9
100
AcDbEntity
  8
0
100
AcDbLine
 62
7
  6
CONTINUOUS
 10
17.574284147
 20
5.4623789572
 11
17.574284147
 21
1.3875758076
  0
LINE
  5
6DA
100
AcDbEntity
  8
0
100
AcDbLine
 62
7
  6
CONTINUOUS
 10
17.5910424401
 20
5.4623789572
 11
17.5910424401
 21
1.3875758076
  0
LINE
  5
6DB
100
AcDbEntity
  8
0
100
AcDbLine
 62
7
  6
CONTINUOUS
 10
18.5646979635
 20
4.9219383199
 11
18.6998839465
 21
5.156087311
  0
LINE
  5
6DC
100
AcDbEntity
  8
0
100
AcDbLine
 62
7
  6
CONTINUOUS
 10
17.9368004199
 20
5.4623789572
 11
17.9368004199
 21
1.3875758076
  0
LINE
  5
6DD
100
AcDbEntity
  8
0
100
AcDbLine
 62
7
  6
CONTINUOUS
 10
17.9532212553
 20
5.4623789572
 11
17.9532212553
 21
1.3875758076
  0
LINE
  5
6DE
100
AcDbEntity
  8
0
100
AcDbLine
 62
7
  6
CONTINUOUS
 10
18.0231030446
 20
5.4623789572
 11
18.0231030446
 21
1.3875758076
  0
LINE
  5
6DF
100
AcDbEntity
  8
0
100
AcDbLine
 62
7
  6
CONTINUOUS
 10
18.03951677
 20
1.3875758076
 11
18.03951677
 21
5.4623789572
  0
LWPOLYLINE
  5
6E0
100
AcDbEntity
  8
0
100
AcDbPolyline
 62
7
  6
CONTINUOUS
 90
7
 70
0
 10
19.0678833969
 20
4.7401908835
 10
19.0677922327
 20
4.7400596856
 10
19.0389026186
 20
4.7109522613
 10
19.0056134829
 20
4.6874204347
 10
18.9685081055
 20
4.6698819723
 10
18.9287938139
 20
4.6590187613
 10
18.8877684492
 20
4.6552206251
  0
LWPOLYLINE
  5
6E1
100
AcDbEntity
  8
0
100
AcDbPolyline
 62
7
  6
CONTINUOUS
 90
7
 70
0
 10
19.1129331598
 20
4.3731639747
 10
19.0753739896
 20
4.3696096713
 10
19.037930646
 20
4.3596333596
 10
19.0035588282
 20
4.3462615635
 10
18.9745291274
 20
4.3333450527
 10
18.9518823169
 20
4.3238898072
 10
18.9381016376
 20
4.3206466737
  0
LINE
  5
6E2
100
AcDbEntity
  8
0
100
AcDbLine
 62
7
  6
CONTINUOUS
 10
18.8457268294
 20
4.3206466737
 11
18.8391126561
 21
4.3206466737
  0
LINE
  5
6E3
100
AcDbEntity
  8
02___PRT_ALL_AXES
100
AcDbLine
 62
7
  6
CONTINUOUS
 10
18.9318492746
 20
4.3206466737
 11
18.8457268294
 21
4.3206466737
  0
LINE
  5
6E4
100
AcDbEntity
  8
0
100
AcDbLine
 62
7
  6
CONTINUOUS
 10
18.9318492746
 20
4.3206466737
 11
18.9381016376
 21
4.3206466737
  0
LINE
  5
6E5
100
AcDbEntity
  8
0
100
AcDbLine
 62
7
  6
CONTINUOUS
 10
18.3862844703
 20
1.3875758076
 11
18.3862844703
 21
5.4623789572
  0
LINE
  5
6E6
100
AcDbEntity
  8
0
100
AcDbLine
 62
7
  6
CONTINUOUS
 10
18.4020401529
 20
5.4623789572
 11
18.4020401529
 21
1.3875758076
  0
LINE
  5
6E7
100
AcDbEntity
  8
0
100
AcDbLine
 62
7
  6
CONTINUOUS
 10
19.0756529518
 20
4.6269383199
 11
19.2108389348
 21
4.861087311
  0
LWPOLYLINE
  5
6E8
100
AcDbEntity
  8
0
100
AcDbPolyline
 62
7
  6
CONTINUOUS
 90
16
 70
0
 10
18.8877684492
 20
4.6532642028
 10
18.9288661328
 20
4.6570465946
 10
18.9688007129
 20
4.6679077175
 10
19.0062462016
 20
4.6855283894
 10
19.0399039286
 20
4.7092410722
 10
19.0691919212
 20
4.738688487
 10
19.0928876024
 20
4.7727800875
 10
19.1102343496
 20
4.8103887287
 10
19.1207465001
 20
4.8503436612
 10
19.1241497369
 20
4.8914104833
 10
19.120382421
 20
4.9323676999
 10
19.1095878435
 20
4.9719877446
 10
19.0920951974
 20
5.0091263192
 10
19.0684072446
 20
5.0426907974
 10
19.039237039
 20
5.071636391
 10
19.0297870409
 20
5.0782031002
  0
LWPOLYLINE
  5
6E9
100
AcDbEntity
  8
0
100
AcDbPolyline
 62
7
  6
CONTINUOUS
 90
19
 70
0
 10
18.8877684492
 20
4.6457967481
 10
18.9301554254
 20
4.6496905458
 10
18.9713345019
 20
4.660884944
 10
19.0099586457
 20
4.6790495811
 10
19.0446898908
 20
4.7035068479
 10
19.0749174237
 20
4.7338945367
 10
19.0993613252
 20
4.7690616149
 10
19.1172614535
 20
4.8078620241
 10
19.1281083945
 20
4.8490833305
 10
19.13161647
 20
4.8914431203
 10
19.1277297871
 20
4.9336925791
 10
19.1165945205
 20
4.9745722447
 10
19.0985485201
 20
5.0128862169
 10
19.0741127443
 20
5.0475066367
 10
19.0440081407
 20
5.0773793825
 10
19.0094357299
 20
5.1014048957
 10
18.9710126059
 20
5.1191689271
 10
18.9300110451
 20
5.1299890729
 10
18.8877684492
 20
5.1334951695
  0
LWPOLYLINE
  5
6EA
100
AcDbEntity
  8
0
100
AcDbPolyline
 62
7
  6
CONTINUOUS
 90
19
 70
0
 10
18.8877684492
 20
4.6383294004
 10
18.9314393597
 20
4.6423357061
 10
18.9738741561
 20
4.6538614857
 10
19.0136723127
 20
4.6725698566
 10
19.0494663457
 20
4.697768794
 10
19.0806408062
 20
4.7290995767
 10
19.1058417537
 20
4.7653485175
 10
19.1242887029
 20
4.8053352881
 10
19.135465342
 20
4.8478147367
 10
19.1390835335
 20
4.8914772979
 10
19.1350786464
 20
4.9350266784
 10
19.1236005309
 20
4.977155373
 10
19.1050020579
 20
5.0166394545
 10
19.079815223
 20
5.0523283796
 10
19.048773047
 20
5.0831308891
 10
19.0131451513
 20
5.1078846868
 10
18.9735549545
 20
5.12618864
 10
18.9313005859
 20
5.1373452654
 10
18.8877684492
 20
5.1409625695
  0
LWPOLYLINE
  5
6EB
100
AcDbEntity
  8
0
100
AcDbPolyline
 62
7
  6
CONTINUOUS
 90
19
 70
0
 10
18.8877684492
 20
4.6308621508
 10
18.9327312514
 20
4.6349793524
 10
18.976407625
 20
4.6468378688
 10
19.0173766826
 20
4.6660878915
 10
19.0542477886
 20
4.6920319447
 10
19.0863692204
 20
4.7243074523
 10
19.1123158657
 20
4.7616303245
 10
19.1313128365
 20
4.8028046126
 10
19.1428263648
 20
4.8465517347
 10
19.146551414
 20
4.8915127246
 10
19.142425638
 20
4.9363514632
 10
19.1306062358
 20
4.9797383633
 10
19.11145396
 20
5.0204020442
 10
19.0855175458
 20
5.0571496078
 10
19.0535407847
 20
5.0888755135
 10
19.0168517945
 20
5.1143671385
 10
18.9760893192
 20
5.13321443
 10
18.9325929517
 20
5.1446992403
 10
18.8877684492
 20
5.148429867
  0
LWPOLYLINE
  5
6EC
100
AcDbEntity
  8
0
100
AcDbPolyline
 62
7
  6
CONTINUOUS
 90
19
 70
0
 10
18.8877684492
 20
4.6233949912
 10
18.9340151208
 20
4.627625287
 10
18.9789431672
 20
4.6398143544
 10
19.0210882388
 20
4.6596063209
 10
19.0590302706
 20
4.686297759
 10
19.0920905258
 20
4.7195118305
 10
19.1187928516
 20
4.7579133661
 10
19.1383400452
 20
4.8002748437
 10
19.1501830083
 20
4.8452784699
 10
19.1540170954
 20
4.8915401311
 10
19.1497744229
 20
4.9376822822
 10
19.1376121043
 20
4.9823252993
 10
19.1179071663
 20
5.0241557352
 10
19.0912213253
 20
5.0619675249
 10
19.0583056592
 20
5.0946268614
 10
19.0205611932
 20
5.1208482988
 10
18.9786323312
 20
5.1402332302
 10
18.9338855143
 20
5.1520535019
 10
18.8877684492
 20
5.1558970707
  0
LINE
  5
6ED
100
AcDbEntity
  8
0
100
AcDbLine
 62
7
  6
CONTINUOUS
 10
19.3405243547
 20
4.3731639747
 11
19.1129331598
 21
4.3731639747
  0
LINE
  5
6EE
100
AcDbEntity
  8
0
100
AcDbLine
 62
7
  6
CONTINUOUS
 10
19.3405243547
 20
4.5174970674
 11
18.6619726111
 21
4.5174970674
  0
LINE
  5
6EF
100
AcDbEntity
  8
0
100
AcDbLine
 62
7
  6
CONTINUOUS
 10
18.4719219423
 20
5.4623789572
 11
18.4719219423
 21
1.3875758076
  0
LINE
  5
6F0
100
AcDbEntity
  8
0
100
AcDbLine
 62
7
  6
CONTINUOUS
 10
18.4851545702
 20
1.3875758076
 11
18.4851545702
 21
5.4623789572
  0
LINE
  5
6F1
100
AcDbEntity
  8
0
100
AcDbLine
 62
7
  6
CONTINUOUS
 10
18.7525824662
 20
4.5965128155
 11
19.0229544322
 21
4.5965128155
  0
LWPOLYLINE
  5
6F2
100
AcDbEntity
  8
0
100
AcDbPolyline
 62
7
  6
CONTINUOUS
 90
20
 70
0
 10
18.8877684492
 20
4.6178990975
 10
18.8427687415
 20
4.6214252501
 10
18.7987905716
 20
4.63235294
 10
18.7571778997
 20
4.6504008296
 10
18.7192715204
 20
4.674938825
 10
18.685614954
 20
4.7056694144
 10
18.6574563326
 20
4.741614182
 10
18.6356586277
 20
4.7816835962
 10
18.6207998082
 20
4.8247510581
 10
18.6132554661
 20
4.8696006973
 10
18.6131907348
 20
4.915040009
 10
18.620589756
 20
4.959850517
 10
18.6352468717
 20
5.0028437951
 10
18.6567798184
 20
5.0428868847
 10
18.6846504503
 20
5.0789218434
 10
18.7181060139
 20
5.1099211699
 10
18.7559539257
 20
5.1348633626
 10
18.7976918725
 20
5.153408599
 10
18.8420714083
 20
5.1648712845
 10
18.8877684492
 20
5.1688588579
  0
LWPOLYLINE
  5
6F3
100
AcDbEntity
  8
0
100
AcDbPolyline
 62
7
  6
CONTINUOUS
 90
19
 70
0
 10
18.8877684492
 20
4.6402924316
 10
18.8441934138
 20
4.6438878617
 10
18.8017258751
 20
4.6550434957
 10
18.7618079186
 20
4.6734327767
 10
18.7258322728
 20
4.698364525
 10
18.6944093119
 20
4.7295018522
 10
18.6688976971
 20
4.7656728653
 10
18.6501116893
 20
4.8056986307
 10
18.6386004876
 20
4.8483171856
 10
18.634677276
 20
4.8922247261
 10
18.6384305612
 20
4.9361270372
 10
18.6497286893
 20
4.9786992781
 10
18.6682380586
 20
5.0186993604
 10
18.6934475199
 20
5.054958368
 10
18.7246552785
 20
5.0863814733
 10
18.760570824
 20
5.1117517798
 10
18.8005941679
 20
5.1306593824
 10
18.8434686627
 20
5.1423782577
 10
18.8877684492
 20
5.1464653416
  0
LWPOLYLINE
  5
6F4
100
AcDbEntity
  8
0
100
AcDbPolyline
 62
7
  6
CONTINUOUS
 90
19
 70
0
 10
18.8877684492
 20
4.632828113
 10
18.8428899727
 20
4.6365401094
 10
18.7991597707
 20
4.648034144
 10
18.7580707584
 20
4.6669690325
 10
18.7210321175
 20
4.6926485077
 10
18.6886717225
 20
4.7247299532
 10
18.6624170412
 20
4.7619676541
 10
18.6430851433
 20
4.8031741616
 10
18.6312443823
 20
4.8470557678
 10
18.6272144396
 20
4.8922572261
 10
18.6310818377
 20
4.9374431278
 10
18.6427174803
 20
4.9812645824
 10
18.6617818151
 20
5.022442499
 10
18.6877336023
 20
5.0597597498
 10
18.7198619727
 20
5.0921057235
 10
18.7568267521
 20
5.1182101263
 10
18.798024793
 20
5.1376655531
 10
18.8421602486
 20
5.1497267163
 10
18.8877684492
 20
5.1539297267
  0
LINE
  5
6F5
100
AcDbEntity
  8
0
100
AcDbLine
 62
7
  6
CONTINUOUS
 10
18.6619726111
 20
4.5174970674
 11
18.6619726111
 21
4.692602679
  0
LINE
  5
6F6
100
AcDbEntity
  8
0
100
AcDbLine
 62
7
  6
CONTINUOUS
 10
18.6619726111
 20
5.0904229519
 11
18.6619726111
 21
5.4623789572
  0
LINE
  5
6F7
100
AcDbEntity
  8
0
100
AcDbLine
 62
7
  6
CONTINUOUS
 10
18.8387906521
 20
4.3219414151
 11
18.8387906521
 21
1.3875758076
  0
LINE
  5
6F8
100
AcDbEntity
  8
02___PRT_ALL_AXES
100
AcDbLine
 62
7
  6
CONTINUOUS
 10
18.8508590505
 20
4.0879918668
 11
18.8508590505
 21
1.3875758076
  0
LINE
  5
6F9
100
AcDbEntity
  8
0
100
AcDbLine
 62
7
  6
CONTINUOUS
 10
18.8460862165
 20
5.127681604
 11
18.8877684492
 21
5.1315369943
  0
LWPOLYLINE
  5
6FA
100
AcDbEntity
  8
0
100
AcDbPolyline
 62
7
  6
CONTINUOUS
 90
18
 70
0
 10
18.8877684492
 20
5.1334951695
 10
18.8460243382
 20
5.1296574083
 10
18.8054685739
 20
5.1186292494
 10
18.7674357364
 20
5.1007367143
 10
18.7332402628
 20
5.0766516544
 10
18.7034803199
 20
5.0467330737
 10
18.679412668
 20
5.0121050036
 10
18.6617900502
 20
4.9739014661
 10
18.6511093596
 20
4.9333119766
 10
18.6476530476
 20
4.8915970228
 10
18.6514809201
 20
4.8499965828
 10
18.6624456561
 20
4.8097473128
 10
18.6802150417
 20
4.772018692
 10
18.7042771447
 20
4.737925768
 10
18.7339132258
 20
4.7085192588
 10
18.7679543682
 20
4.6848632322
 10
18.8057956317
 20
4.6673671278
 10
18.8461748287
 20
4.6567124105
  0
LINE
  5
6FB
100
AcDbEntity
  8
0
100
AcDbLine
 62
7
  6
CONTINUOUS
 10
19.1605582603
 20
4.9027050727
 11
19.1667031544
 21
4.9028264459
  0
LINE
  5
6FC
100
AcDbEntity
  8
02___PRT_ALL_AXES
100
AcDbLine
 62
7
  6
CENTER
 10
18.8877684492
 20
4.8915128155
 11
18.5712330161
 21
4.8915128155
  0
LINE
  5
6FD
100
AcDbEntity
  8
02___PRT_ALL_AXES
100
AcDbLine
 62
7
  6
CENTER
 10
18.8877684492
 20
4.8915128155
 11
19.2043038822
 21
4.8915128155
  0
LWPOLYLINE
  5
6FE
100
AcDbEntity
  8
0
100
AcDbPolyline
 62
7
  6
CONTINUOUS
 90
18
 70
0
 10
18.8877684492
 20
4.6552206251
 10
18.8467846416
 20
4.6585899971
 10
18.8068478525
 20
4.6690652418
 10
18.7692788786
 20
4.6863566262
 10
18.7354202278
 20
4.7098076201
 10
18.7058697649
 20
4.7390687023
 10
18.6818516464
 20
4.7730915694
 10
18.6641590343
 20
4.810750866
 10
18.6533117542
 20
4.8508580539
 10
18.6496055887
 20
4.8921771829
 10
18.6531246081
 20
4.9334961301
 10
18.6637489374
 20
4.9735716195
 10
18.6811621546
 20
5.0112266801
 10
18.7048841036
 20
5.0453639545
 10
18.7342368868
 20
5.0749346104
 10
18.7680567594
 20
5.0988355567
 10
18.8057441888
 20
5.1166470603
 10
18.8460862165
 20
5.127681604
  0
LWPOLYLINE
  5
6FF
100
AcDbEntity
  8
0
100
AcDbPolyline
 62
7
  6
CONTINUOUS
 90
19
 70
0
 10
18.8877684492
 20
4.647756607
 10
18.8454868027
 20
4.6512407603
 10
18.804286308
 20
4.6620557781
 10
18.7655473726
 20
4.679890702
 10
18.7306282299
 20
4.7040835332
 10
18.7001390203
 20
4.7342887138
 10
18.6753751007
 20
4.769382387
 10
18.6571355466
 20
4.8082191511
 10
18.6459562302
 20
4.8495872463
 10
18.6421433739
 20
4.8922053715
 10
18.6457771612
 20
4.9348106441
 10
18.656735647
 20
4.976131691
 10
18.6747014263
 20
5.0149638951
 10
18.6991697945
 20
5.050163192
 10
18.7294435457
 20
5.0806570655
 10
18.7643103969
 20
5.1052933161
 10
18.8031727584
 20
5.1236531636
 10
18.8447806204
 20
5.1350291667
 10
18.8877684492
 20
5.1390010929
  0
LINE
  5
700
100
AcDbEntity
  8
0
100
AcDbLine
 62
7
  6
CONTINUOUS
 10
18.8461748287
 20
4.6567124105
 11
18.8877684492
 21
4.6532642028
  0
LINE
  5
701
100
AcDbEntity
  8
02___PRT_ALL_AXES
100
AcDbLine
 62
7
  6
CENTER
 10
18.8877684492
 20
4.8915128155
 11
18.8877684492
 21
4.5749773824
  0
LINE
  5
702
100
AcDbEntity
  8
02___PRT_ALL_AXES
100
AcDbLine
 62
7
  6
CENTER
 10
18.8877684492
 20
4.8915128155
 11
18.8877684492
 21
5.2080482485
  0
LINE
  5
703
100
AcDbEntity
  8
02___PRT_ALL_AXES
100
AcDbLine
 62
7
  6
CONTINUOUS
 10
18.9207408399
 20
4.0879918668
 11
18.9207408399
 21
1.3875758076
  0
LINE
  5
704
100
AcDbEntity
  8
02___PRT_ALL_AXES
100
AcDbLine
 62
7
  6
CONTINUOUS
 10
18.9318492746
 20
4.3206466737
 11
18.9318492746
 21
1.3875758076
  0
LWPOLYLINE
  5
705
100
AcDbEntity
  8
02___PRT_ALL_AXES
100
AcDbPolyline
 62
7
  6
CONTINUOUS
 90
10
 70
0
 10
18.9207408399
 20
4.0879918668
 10
18.9194522487
 20
4.0664104293
 10
18.9167146832
 20
4.0466950744
 10
18.9132352991
 20
4.0284185973
 10
18.9093150863
 20
4.0110845259
 10
18.9050624983
 20
3.9942093698
 10
18.900515718
 20
3.9774257355
 10
18.8957400943
 20
3.9606296519
 10
18.8908140324
 20
3.9438157874
 10
18.8857999452
 20
3.9269458863
  0
LWPOLYLINE
  5
706
100
AcDbEntity
  8
0
100
AcDbPolyline
 62
7
  6
CONTINUOUS
 90
10
 70
0
 10
19.1586281296
 20
4.868311165
 10
19.1513305434
 20
4.8241026027
 10
19.1368765703
 20
4.7816919058
 10
19.115640239
 20
4.7421895122
 10
19.0881454945
 20
4.7066369678
 10
19.0551438849
 20
4.6760557084
 10
19.0178071875
 20
4.6514453031
 10
18.9766347336
 20
4.6331462548
 10
18.9328514793
 20
4.6218357887
 10
18.8877684492
 20
4.6178990975
  0
LWPOLYLINE
  5
707
100
AcDbEntity
  8
0
100
AcDbPolyline
 62
7
  6
CONTINUOUS
 90
19
 70
0
 10
18.8877684492
 20
5.1409625695
 10
18.8447407874
 20
5.137012275
 10
18.8029336214
 20
5.1256523083
 10
18.7637196571
 20
5.1072155221
 10
18.728457715
 20
5.0823874044
 10
18.697759158
 20
5.0515293426
 10
18.6729359483
 20
5.0158209972
 10
18.6547604327
 20
4.9764253725
 10
18.6437499594
 20
4.9345764522
 10
18.6401874958
 20
4.8915669414
 10
18.6441327192
 20
4.8486661999
 10
18.6554392489
 20
4.8071597774
 10
18.6737613958
 20
4.7682635888
 10
18.6985722818
 20
4.7331097685
 10
18.7291462916
 20
4.702770251
 10
18.7642473218
 20
4.6783795414
 10
18.8032518663
 20
4.6603477336
 10
18.8448798027
 20
4.6493591762
 10
18.8877684492
 20
4.6457967481
  0
LWPOLYLINE
  5
708
100
AcDbEntity
  8
0
100
AcDbPolyline
 62
7
  6
CONTINUOUS
 90
19
 70
0
 10
18.8877684492
 20
5.148429867
 10
18.8434513361
 20
5.144368177
 10
18.8003939301
 20
5.1326760163
 10
18.760013158
 20
5.113696762
 10
18.7236810836
 20
5.0881256032
 10
18.6920309624
 20
5.0563216593
 10
18.666456982
 20
5.0195353416
 10
18.647737022
 20
4.9789565879
 10
18.6363915477
 20
4.9358429711
 10
18.6327187423
 20
4.891528764
 10
18.6367846554
 20
4.8473359407
 10
18.6484335789
 20
4.804580357
 10
18.6673088511
 20
4.7645053498
 10
18.6928711985
 20
4.7282845329
 10
18.7243797611
 20
4.6970227347
 10
18.76053746
 20
4.6719009852
 10
18.8007147744
 20
4.6533240409
 10
18.8435918281
 20
4.642002273
 10
18.8877684492
 20
4.6383294004
  0
LWPOLYLINE
  5
709
100
AcDbEntity
  8
0
100
AcDbPolyline
 62
7
  6
CONTINUOUS
 90
19
 70
0
 10
18.8877684492
 20
5.1558970707
 10
18.8421637682
 20
5.1517233052
 10
18.7978627937
 20
5.1396993028
 10
18.7563038882
 20
5.1201781711
 10
18.7188978693
 20
5.0938619109
 10
18.6863079591
 20
5.0611166708
 10
18.6599840977
 20
5.0232552879
 10
18.6407102868
 20
4.9814862517
 10
18.6290313925
 20
4.937109763
 10
18.6252531182
 20
4.8915006777
 10
18.6294372016
 20
4.8460096825
 10
18.6414278645
 20
4.8019917603
 10
18.6608567618
 20
4.7607452403
 10
18.6871674611
 20
4.7234679899
 10
18.7196135798
 20
4.6912749382
 10
18.7568317142
 20
4.6654162438
 10
18.7981759021
 20
4.6463017968
 10
18.8422959036
 20
4.6346502133
 10
18.8877684492
 20
4.6308621508
  0
LWPOLYLINE
  5
70A
100
AcDbEntity
  8
0
100
AcDbPolyline
 62
7
  6
CONTINUOUS
 90
20
 70
0
 10
18.8877684492
 20
5.1613942359
 10
18.8435221916
 20
5.157545277
 10
18.8004440099
 20
5.1464644549
 10
18.7598265762
 20
5.1284745614
 10
18.7228976692
 20
5.104190245
 10
18.6901779627
 20
5.0739034627
 10
18.6628981334
 20
5.0386055065
 10
18.6418701574
 20
4.9993588713
 10
18.6276426906
 20
4.9572766182
 10
18.6205589085
 20
4.9135195589
 10
18.6207722271
 20
4.8692931796
 10
18.6282320119
 20
4.8258141904
 10
18.6426970809
 20
4.7842281815
 10
18.6637713399
 20
4.7455984746
 10
18.6909504334
 20
4.7108912246
 10
18.7235066112
 20
4.681098315
 10
18.7603367653
 20
4.6571793801
 10
18.8009105868
 20
4.6395170388
 10
18.8438551991
 20
4.6288092989
 10
18.8877684492
 20
4.6253636644
  0
LWPOLYLINE
  5
70B
100
AcDbEntity
  8
0
100
AcDbPolyline
 62
7
  6
CONTINUOUS
 90
20
 70
0
 10
18.8877684492
 20
5.1633641883
 10
18.8433234358
 20
5.1595063704
 10
18.8000138173
 20
5.1483967673
 10
18.7590788535
 20
5.1303067708
 10
18.7218206351
 20
5.1058446668
 10
18.6888173887
 20
5.0753292895
 10
18.6613041835
 20
5.0397615258
 10
18.6401031526
 20
5.0002265397
 10
18.6257557686
 20
4.9578375262
 10
18.618605705
 20
4.9137608303
 10
18.6188063931
 20
4.8692045713
 10
18.6263199707
 20
4.8253552894
 10
18.6409191693
 20
4.7833870975
 10
18.6622157431
 20
4.7443863649
 10
18.6896698254
 20
4.7093809971
 10
18.7225032371
 20
4.6793893447
 10
18.759563987
 20
4.6553627773
 10
18.80030373
 20
4.6376473511
 10
18.8434462294
 20
4.6268844285
 10
18.8877684492
 20
4.6233949912
  0
LINE
  5
70C
100
AcDbEntity
  8
0
100
AcDbLine
 62
7
  6
CONTINUOUS
 10
19.0229544322
 20
5.1865128155
 11
18.7525824662
 21
5.1865128155
  0
LWPOLYLINE
  5
70D
100
AcDbEntity
  8
0
100
AcDbPolyline
 62
7
  6
CONTINUOUS
 90
8
 70
0
 10
18.8387906521
 20
4.3219414151
 10
18.834685667
 20
4.3293782434
 10
18.8230951356
 20
4.3439403019
 10
18.8043555627
 20
4.3653342079
 10
18.7787345264
 20
4.3934173551
 10
18.7460968861
 20
4.4284512117
 10
18.7069750015
 20
4.4699758568
 10
18.6619726111
 20
4.5174970674
  0
LWPOLYLINE
  5
70E
100
AcDbEntity
  8
02___PRT_ALL_AXES
100
AcDbPolyline
 62
7
  6
CONTINUOUS
 90
10
 70
0
 10
18.8857999452
 20
3.9269458863
 10
18.8807958399
 20
3.9437820436
 10
18.8758524241
 20
3.9606551249
 10
18.8710590253
 20
3.9775160565
 10
18.8665202515
 20
3.9942746871
 10
18.862300062
 20
4.0110210901
 10
18.8584107657
 20
4.0281993991
 10
18.8549382414
 20
4.0463806542
 10
18.8521759496
 20
4.0661445555
 10
18.8508590505
 20
4.0879918668
  0
LWPOLYLINE
  5
70F
100
AcDbEntity
  8
0
100
AcDbPolyline
 62
7
  6
CONTINUOUS
 90
11
 70
0
 10
19.1614865888
 20
4.8915128155
 10
19.1579438602
 20
4.9342252082
 10
19.147777725
 20
4.9758449016
 10
19.1312178955
 20
5.0153975466
 10
19.1086746664
 20
5.0518686916
 10
19.0807180668
 20
5.0843379204
 10
19.0480408338
 20
5.1120152496
 10
19.0114485345
 20
5.1342270657
 10
18.9718638655
 20
5.1504217883
 10
18.9303144117
 20
5.1602020899
 10
18.8877684492
 20
5.1633641883
  0
LWPOLYLINE
  5
710
100
AcDbEntity
  8
0
100
AcDbPolyline
 62
7
  6
CONTINUOUS
 90
4
 70
0
 10
19.1669806622
 20
4.8915128155
 10
19.1669488462
 20
4.8953044686
 10
19.166856268
 20
4.8990812856
 10
19.1667031544
 20
4.9028264459
  0
LINE
  5
711
100
AcDbEntity
  8
0
100
AcDbLine
 62
7
  6
CONTINUOUS
 10
19.1129331598
 20
4.3731639747
 11
19.1129331598
 21
1.3875758076
  0
LWPOLYLINE
  5
712
100
AcDbEntity
  8
0
100
AcDbPolyline
 62
7
  6
CONTINUOUS
 90
8
 70
0
 10
19.1614865888
 20
4.8915128155
 10
19.1611700557
 20
4.8769539631
 10
19.1603233483
 20
4.863056698
 10
19.1591922836
 20
4.851121196
 10
19.1580963017
 20
4.8415907255
 10
19.1573511798
 20
4.8347737877
 10
19.1572469244
 20
4.8312485656
 10
19.1574516021
 20
4.8308123967
  0
LWPOLYLINE
  5
713
100
AcDbEntity
  8
0
100
AcDbPolyline
 62
7
  6
CONTINUOUS
 90
11
 70
0
 10
18.8877684492
 20
5.1613942359
 10
18.9321475544
 20
5.1579213657
 10
18.9755262006
 20
5.1471456311
 10
19.0165797878
 20
5.129342426
 10
19.0539709395
 20
5.1051425669
 10
19.0871642747
 20
5.0748430402
 10
19.1149456427
 20
5.0393861476
 10
19.13645204
 20
4.9998584385
 10
19.1511139899
 20
4.9573770218
 10
19.1585614235
 20
4.9131385326
 10
19.1586281296
 20
4.868311165
  0
LWPOLYLINE
  5
714
100
AcDbEntity
  8
0
100
AcDbPolyline
 62
7
  6
CONTINUOUS
 90
10
 70
0
 10
18.8877684492
 20
5.1688588579
 10
18.9348184717
 20
5.165045082
 10
18.9805674293
 20
5.1533036144
 10
19.0236566512
 20
5.133986797
 10
19.0628436483
 20
5.1076609217
 10
19.0970309727
 20
5.0750665817
 10
19.1252409502
 20
5.0371230219
 10
19.1466266098
 20
4.9949592237
 10
19.1605829533
 20
4.9497634136
 10
19.1667031544
 20
4.9028264459
  0
LWPOLYLINE
  5
715
100
AcDbEntity
  8
0
100
AcDbPolyline
 62
7
  6
CONTINUOUS
 90
19
 70
0
 10
18.8877684492
 20
5.1315369943
 10
18.9294025006
 20
5.1281093535
 10
18.9699682914
 20
5.11746623
 10
19.0081226298
 20
5.099903145
 10
19.0425132735
 20
5.0760787026
 10
19.0725325959
 20
5.0463462939
 10
19.0969231481
 20
5.0117905688
 10
19.1148895742
 20
4.9735414469
 10
19.1259024319
 20
4.9328006827
 10
19.1296624362
 20
4.8908343847
 10
19.1260869475
 20
4.8488737411
 10
19.1152945965
 20
4.8081739357
 10
19.0976031479
 20
4.7699287365
 10
19.0735105644
 20
4.7352623412
 10
19.043698177
 20
4.7052302467
 10
19.0093523295
 20
4.6809609365
 10
18.9710761581
 20
4.6628754763
 10
18.9301047215
 20
4.651669972
 10
18.8877684492
 20
4.647756607
  0
LWPOLYLINE
  5
716
100
AcDbEntity
  8
0
100
AcDbPolyline
 62
7
  6
CONTINUOUS
 90
19
 70
0
 10
18.8877684492
 20
5.1390010929
 10
18.9306955899
 20
5.1354619279
 10
18.9725319085
 20
5.1244747742
 10
19.0118592438
 20
5.1063636697
 10
19.0473054867
 20
5.0818034423
 10
19.0782622778
 20
5.0511311478
 10
19.1034006607
 20
5.015495882
 10
19.1219131844
 20
4.9760674477
 10
19.1332588675
 20
4.9340753946
 10
19.1371264497
 20
4.8908105415
 10
19.133431851
 20
4.8475550334
 10
19.1223055349
 20
4.8056111838
 10
19.1040685315
 20
4.7661952086
 10
19.0792274162
 20
4.7304645331
 10
19.0484861011
 20
4.6995060175
 10
19.0130978985
 20
4.674503361
 10
18.9736548271
 20
4.6558693863
 10
18.9314106208
 20
4.6443223504
 10
18.8877684492
 20
4.6402924316
  0
LWPOLYLINE
  5
717
100
AcDbEntity
  8
0
100
AcDbPolyline
 62
7
  6
CONTINUOUS
 90
19
 70
0
 10
18.8877684492
 20
5.1464653416
 10
18.9319950086
 20
5.1428116288
 10
18.9750919649
 20
5.1314883147
 10
19.0155964214
 20
5.1128254497
 10
19.0521045015
 20
5.0875180417
 10
19.083994707
 20
5.0559121274
 10
19.1098781961
 20
5.0192089893
 10
19.1289377026
 20
4.9785906022
 10
19.1406136846
 20
4.9353390078
 10
19.1445915433
 20
4.8907874563
 10
19.1407816813
 20
4.8462429763
 10
19.1293131446
 20
4.8030435698
 10
19.1105264511
 20
4.7624548118
 10
19.0849484201
 20
4.7256680644
 10
19.053279616
 20
4.6937826732
 10
19.0168358153
 20
4.6680443088
 10
18.9762263937
 20
4.6488629475
 10
18.9327235404
 20
4.6369726239
 10
18.8877684492
 20
4.632828113
  0
LWPOLYLINE
  5
718
100
AcDbEntity
  8
0
100
AcDbPolyline
 62
7
  6
CONTINUOUS
 90
19
 70
0
 10
18.8877684492
 20
5.1539297267
 10
18.9332951529
 20
5.1501620047
 10
18.9776629187
 20
5.1384940327
 10
19.0193370966
 20
5.1192854392
 10
19.0569034709
 20
5.0932379099
 10
19.0897331097
 20
5.0606849361
 10
19.116360957
 20
5.0229061189
 10
19.1359651187
 20
4.9811107367
 10
19.1479716953
 20
4.9366045543
 10
19.1520545436
 20
4.8907528216
 10
19.1481267494
 20
4.8449196078
 10
19.1363240871
 20
4.8004766569
 10
19.1169868578
 20
4.7587137499
 10
19.090659014
 20
4.7208639515
 10
19.0580655278
 20
4.6880550185
 10
19.0205809938
 20
4.6615851825
 10
18.9787989083
 20
4.6418555659
 10
18.9340257668
 20
4.6296246863
 10
18.8877684492
 20
4.6253636644
  0
LINE
  5
719
100
AcDbEntity
  8
0
100
AcDbLine
 62
7
  6
CONTINUOUS
 10
18.5646979635
 20
4.861087311
 11
18.6998839465
 21
4.6269383199
  0
LINE
  5
71A
100
AcDbEntity
  8
0
100
AcDbLine
 62
7
  6
CONTINUOUS
 10
19.3405243547
 20
1.3875758076
 11
19.3405243547
 21
5.4525364375
  0
LINE
  5
71B
100
AcDbEntity
  8
0
100
AcDbLine
 62
7
  6
CONTINUOUS
 10
19.42320152
 20
5.4525364375
 11
19.42320152
 21
5.4623789572
  0
LINE
  5
71C
100
AcDbEntity
  8
0
100
AcDbLine
 62
7
  6
CONTINUOUS
 10
19.4655243547
 20
1.3875758076
 11
19.4655243547
 21
1.3214340753
  0
LINE
  5
71D
100
AcDbEntity
  8
0
100
AcDbLine
 62
7
  6
CONTINUOUS
 10
19.4655243547
 20
5.4623789572
 11
19.4655243547
 21
5.5285206895
  0
LINE
  5
71E
100
AcDbEntity
  8
0
100
AcDbLine
 62
7
  6
CONTINUOUS
 10
19.4657212051
 20
1.3216309257
 11
19.4657212051
 21
5.5283238391
  0
LWPOLYLINE
  5
71F
100
AcDbEntity
  8
0
100
AcDbPolyline
 62
7
  6
CONTINUOUS
 90
5
 70
0
 10
15.3945139643
 20
5.5875847859
 10
15.3784572061
 20
5.5875795203
 10
15.3648029291
 20
5.5875843378
 10
15.3542126409
 20
5.5875671479
 10
15.3528303334
 20
5.5875688655
  0
LINE
  5
720
100
AcDbEntity
  8
0
100
AcDbLine
 62
7
  6
CONTINUOUS
 10
15.1641464019
 20
5.4525364375
 11
15.2893432523
 21
5.4525364375
  0
LINE
  5
721
100
AcDbEntity
  8
0
100
AcDbLine
 62
7
  6
CONTINUOUS
 10
19.3405243547
 20
5.4525364375
 11
19.4657212051
 21
5.4525364375
  0
LINE
  5
722
100
AcDbEntity
  8
0
100
AcDbLine
 62
7
  6
CONTINUOUS
 10
15.1643432523
 20
5.4623789572
 11
19.4655243547
 21
5.4623789572
  0
LINE
  5
723
100
AcDbEntity
  8
0
100
AcDbLine
 62
7
  6
CONTINUOUS
 10
19.4655243547
 20
5.5285206895
 11
15.1643432523
 21
5.5285206895
  0
LINE
  5
724
100
AcDbEntity
  8
0
100
AcDbLine
 62
7
  6
CONTINUOUS
 10
19.2841359103
 20
5.5875758076
 11
19.2777948205
 21
5.5875681635
  0
LINE
  5
725
100
AcDbEntity
  8
02___PRT_ALL_AXES
100
AcDbLine
 62
7
  6
CONTINUOUS
 10
15.5267835748
 20
5.5875758076
 11
15.5276832251
 21
5.5875758076
  0
LINE
  5
726
100
AcDbEntity
  8
02___PRT_ALL_AXES
100
AcDbLine
 62
7
  6
CONTINUOUS
 10
15.5821886166
 20
5.5875758076
 11
15.6220204177
 21
5.5875758076
  0
LINE
  5
727
100
AcDbEntity
  8
02___PRT_ALL_AXES
100
AcDbLine
 62
7
  6
CONTINUOUS
 10
15.726513124
 20
5.5875758076
 11
15.7290929906
 21
5.5875758076
  0
LINE
  5
728
100
AcDbEntity
  8
02___PRT_ALL_AXES
100
AcDbLine
 62
7
  6
CONTINUOUS
 10
18.900739629
 20
5.5875758076
 11
18.9033526
 21
5.5875758076
  0
LINE
  5
729
100
AcDbEntity
  8
02___PRT_ALL_AXES
100
AcDbLine
 62
7
  6
CONTINUOUS
 10
19.0078471893
 20
5.5875758076
 11
19.0476773506
 21
5.5875758076
  0
LINE
  5
72A
100
AcDbEntity
  8
02___PRT_ALL_AXES
100
AcDbLine
 62
7
  6
CONTINUOUS
 10
19.1021843257
 20
5.5875758076
 11
19.1030827741
 21
5.5875758076
  0
LINE
  5
72B
100
AcDbEntity
  8
0
100
AcDbLine
 62
7
  6
CONTINUOUS
 10
15.2233983704
 20
5.5875758076
 11
19.4064692366
 21
5.5875758076
  0
LWPOLYLINE
  5
72C
100
AcDbEntity
  8
0
100
AcDbPolyline
 62
7
  6
CONTINUOUS
 90
3
 70
0
 10
18.9573826784
 20
5.5875760242
 10
18.9300003846
 20
5.5875762044
 10
18.9026985863
 20
5.5875758076
  0
LWPOLYLINE
  5
72D
100
AcDbEntity
  8
0
100
AcDbPolyline
 62
7
  6
CONTINUOUS
 90
6
 70
0
 10
19.108475615
 20
5.5875758307
 10
19.0850365931
 20
5.5875768771
 10
19.0608408945
 20
5.5875766818
 10
19.0359443164
 20
5.5875758724
 10
19.0103820483
 20
5.5875765841
 10
18.9841844434
 20
5.5875759158
  0
LWPOLYLINE
  5
72E
100
AcDbEntity
  8
0
100
AcDbPolyline
 62
7
  6
CONTINUOUS
 90
5
 70
0
 10
15.5018960721
 20
5.5875784396
 10
15.4777404295
 20
5.5875765404
 10
15.4547548161
 20
5.5875799555
 10
15.4330387758
 20
5.5875783098
 10
15.3945139643
 20
5.5875847859
  0
LWPOLYLINE
  5
72F
100
AcDbEntity
  8
0
100
AcDbPolyline
 62
7
  6
CONTINUOUS
 90
3
 70
0
 10
19.2119457901
 20
5.5875798343
 10
19.1736759297
 20
5.5875802025
 10
19.152874832
 20
5.5875759291
  0
LWPOLYLINE
  5
730
100
AcDbEntity
  8
0
100
AcDbPolyline
 62
7
  6
CONTINUOUS
 90
6
 70
0
 10
19.2777948205
 20
5.5875681635
 10
19.2692014499
 20
5.5875761263
 10
19.2578732298
 20
5.587587088
 10
19.2444249971
 20
5.5875757864
 10
19.2290670949
 20
5.5875884391
 10
19.2119457901
 20
5.5875798343
  0
LINE
  5
731
100
AcDbEntity
  8
0
100
AcDbLine
 62
7
  6
CONTINUOUS
 10
19.2841359103
 20
5.5875758076
 11
19.2840795749
 21
5.587576076
  0
LINE
  5
732
100
AcDbEntity
  8
0
100
AcDbLine
 62
7
  6
CONTINUOUS
 10
19.2108389348
 20
4.9219383199
 11
19.0756529518
 21
5.156087311
  0
CIRCLE
  5
733
100
AcDbEntity
  8
0
100
AcDbCircle
 62
7
  6
CONTINUOUS
 10
27.5254366922
 20
1.0674889563
 40
0.252091
  0
CIRCLE
  5
734
100
AcDbEntity
  8
0
100
AcDbCircle
 62
7
  6
CONTINUOUS
 10
27.5254366922
 20
1.0674889563
 40
0.182698
  0
CIRCLE
  5
735
100
AcDbEntity
  8
0
100
AcDbCircle
 62
7
  6
CONTINUOUS
 10
27.0942092
 20
1.8024187226
 40
0.0638444824
  0
CIRCLE
  5
736
100
AcDbEntity
  8
02___PRT_ALL_AXES
100
AcDbCircle
 62
7
  6
CONTINUOUS
 10
15.6220204177
 20
8.4578639136
 40
0.1325
  0
CIRCLE
  5
737
100
AcDbEntity
  8
02___PRT_ALL_AXES
100
AcDbCircle
 62
7
  6
CONTINUOUS
 10
15.6220204177
 20
8.4578639136
 40
0.1279527559
  0
ARC
  5
738
100
AcDbEntity
  8
0
100
AcDbCircle
 62
7
  6
CONTINUOUS
 10
15.2928865594
 20
9.6031395042
 40
0.0625984252
100
AcDbArc
 50
180.0
 51
270.0
  0
ARC
  5
739
100
AcDbEntity
  8
0
100
AcDbCircle
 62
7
  6
CONTINUOUS
 10
15.22320152
 20
13.9696749373
 40
0.0590551181
100
AcDbArc
 50
90.0
 51
180.0
  0
CIRCLE
  5
73A
100
AcDbEntity
  8
02___PRT_ALL_AXES
100
AcDbCircle
 62
7
  6
CONTINUOUS
 10
19.0078471893
 20
8.4578639136
 40
0.1325
  0
CIRCLE
  5
73B
100
AcDbEntity
  8
02___PRT_ALL_AXES
100
AcDbCircle
 62
7
  6
CONTINUOUS
 10
19.0078471893
 20
8.4578639136
 40
0.1279527559
  0
ARC
  5
73C
100
AcDbEntity
  8
0
100
AcDbCircle
 62
7
  6
CONTINUOUS
 10
19.3369810476
 20
9.6031395042
 40
0.0625984252
100
AcDbArc
 50
270.0
 51
360.0
  0
ARC
  5
73D
100
AcDbEntity
  8
0
100
AcDbCircle
 62
7
  6
CONTINUOUS
 10
19.1055226947
 20
6.5457654884
 40
0.0105
100
AcDbArc
 50
269.9991677657
 51
357.5
  0
ARC
  5
73E
100
AcDbEntity
  8
0
100
AcDbCircle
 62
7
  6
CONTINUOUS
 10
18.6700142036
 20
6.5457654884
 40
0.0105
100
AcDbArc
 50
182.5
 51
270.0008322343
  0
ARC
  5
73F
100
AcDbEntity
  8
0
100
AcDbCircle
 62
7
  6
CONTINUOUS
 10
19.406666087
 20
13.9696749373
 40
0.0590551181
100
AcDbArc
 50
0.0
 51
90.0
  0
ARC
  5
740
100
AcDbEntity
  8
02___PRT_ALL_AXES
100
AcDbCircle
 62
7
  6
CONTINUOUS
 10
25.7202495298
 20
7.5854229688
 40
0.3937007874
100
AcDbArc
 50
204.2195629666
 51
270.0
  0
CIRCLE
  5
741
100
AcDbEntity
  8
02___PRT_ALL_AXES
100
AcDbCircle
 62
7
  6
CONTINUOUS
 10
24.5293046479
 20
8.4578639136
 40
0.1325
  0
CIRCLE
  5
742
100
AcDbEntity
  8
02___PRT_ALL_AXES
100
AcDbCircle
 62
7
  6
CONTINUOUS
 10
24.5293046479
 20
8.4578639136
 40
0.1279527559
  0
ARC
  5
743
100
AcDbEntity
  8
0
100
AcDbCircle
 62
7
  6
CONTINUOUS
 10
24.1186747267
 20
7.0799110305
 40
0.0590551181
100
AcDbArc
 50
179.9999999978
 51
270.0
  0
ARC
  5
744
100
AcDbEntity
  8
0
100
AcDbCircle
 62
7
  6
CONTINUOUS
 10
24.5379283551
 20
6.5457654884
 40
0.0105
100
AcDbArc
 50
182.5
 51
270.0
  0
ARC
  5
745
100
AcDbEntity
  8
0
100
AcDbCircle
 62
7
  6
CONTINUOUS
 10
24.9734368463
 20
6.5457654884
 40
0.0105
100
AcDbArc
 50
270.0
 51
357.5
  0
ARC
  5
746
100
AcDbEntity
  8
0
100
AcDbCircle
 62
7
  6
CONTINUOUS
 10
24.2960369314
 20
13.7925095829
 40
0.2362204724
100
AcDbArc
 50
90.0
 51
180.0
  0
ARC
  5
747
100
AcDbEntity
  8
0
100
AcDbCircle
 62
7
  6
CONTINUOUS
 10
24.2960369314
 20
13.7925095829
 40
0.1771652309
100
AcDbArc
 50
90.0
 51
180.0
  0
CIRCLE
  5
748
100
AcDbEntity
  8
02___PRT_ALL_AXES
100
AcDbCircle
 62
7
  6
CONTINUOUS
 10
24.5293046479
 20
13.7728245436
 40
0.1325
  0
CIRCLE
  5
749
100
AcDbEntity
  8
02___PRT_ALL_AXES
100
AcDbCircle
 62
7
  6
CONTINUOUS
 10
24.5293046479
 20
13.7728245436
 40
0.1279527559
  0
CIRCLE
  5
74A
100
AcDbEntity
  8
02___PRT_ALL_AXES
100
AcDbCircle
 62
7
  6
CONTINUOUS
 10
26.2222180338
 20
8.3791237562
 40
0.1330708661
  0
CIRCLE
  5
74B
100
AcDbEntity
  8
02___PRT_ALL_AXES
100
AcDbCircle
 62
7
  6
CONTINUOUS
 10
27.9151314196
 20
8.4578639136
 40
0.1325
  0
CIRCLE
  5
74C
100
AcDbEntity
  8
02___PRT_ALL_AXES
100
AcDbCircle
 62
7
  6
CONTINUOUS
 10
27.9151314196
 20
8.4578639136
 40
0.1279527559
  0
CIRCLE
  5
74D
100
AcDbEntity
  8
DEFAULT_2
100
AcDbCircle
 62
7
  6
HIDDEN
 10
26.2222180338
 20
8.3791237562
 40
0.125
  0
CIRCLE
  5
74E
100
AcDbEntity
  8
02___PRT_ALL_AXES
100
AcDbCircle
 62
7
  6
CONTINUOUS
 10
26.2222180338
 20
8.3791237562
 40
0.100492126
  0
ARC
  5
74F
100
AcDbEntity
  8
0
100
AcDbCircle
 62
7
  6
CONTINUOUS
 10
28.3257613409
 20
7.0799110305
 40
0.0590551181
100
AcDbArc
 50
270.0
 51
360.0
  0
ARC
  5
750
100
AcDbEntity
  8
0
100
AcDbCircle
 62
7
  6
CONTINUOUS
 10
28.1483991361
 20
13.7925095829
 40
0.2362204724
100
AcDbArc
 50
0.0
 51
90.0
  0
ARC
  5
751
100
AcDbEntity
  8
0
100
AcDbCircle
 62
7
  6
CONTINUOUS
 10
28.1483991361
 20
13.7925095829
 40
0.1771652309
100
AcDbArc
 50
0.0
 51
90.0
  0
CIRCLE
  5
752
100
AcDbEntity
  8
02___PRT_ALL_AXES
100
AcDbCircle
 62
7
  6
CONTINUOUS
 10
26.2222180338
 20
13.8121946223
 40
0.1330708661
  0
CIRCLE
  5
753
100
AcDbEntity
  8
02___PRT_ALL_AXES
100
AcDbCircle
 62
7
  6
CONTINUOUS
 10
27.9151314196
 20
13.7728245436
 40
0.1325
  0
CIRCLE
  5
754
100
AcDbEntity
  8
02___PRT_ALL_AXES
100
AcDbCircle
 62
7
  6
CONTINUOUS
 10
27.9151314196
 20
13.7728245436
 40
0.1279527559
  0
CIRCLE
  5
755
100
AcDbEntity
  8
DEFAULT_2
100
AcDbCircle
 62
7
  6
HIDDEN
 10
26.2222180338
 20
13.8121946223
 40
0.125
  0
CIRCLE
  5
756
100
AcDbEntity
  8
02___PRT_ALL_AXES
100
AcDbCircle
 62
7
  6
CONTINUOUS
 10
26.2222180338
 20
13.8121946223
 40
0.100492126
  0
CIRCLE
  5
757
100
AcDbEntity
  8
02___PRT_ALL_AXES
100
AcDbCircle
 62
7
  6
CONTINUOUS
 10
6.2924982547
 20
8.4578639136
 40
0.1325
  0
CIRCLE
  5
758
100
AcDbEntity
  8
02___PRT_ALL_AXES
100
AcDbCircle
 62
7
  6
CONTINUOUS
 10
6.2924982547
 20
8.4578639136
 40
0.1279527559
  0
ARC
  5
759
100
AcDbEntity
  8
0
100
AcDbCircle
 62
7
  6
CONTINUOUS
 10
5.8818683334
 20
7.0799110305
 40
0.0590551181
100
AcDbArc
 50
179.9999999978
 51
270.0
  0
ARC
  5
75A
100
AcDbEntity
  8
0
100
AcDbCircle
 62
7
  6
CONTINUOUS
 10
6.0592305382
 20
13.7925095829
 40
0.2362204724
100
AcDbArc
 50
90.0
 51
180.0
  0
ARC
  5
75B
100
AcDbEntity
  8
0
100
AcDbCircle
 62
7
  6
CONTINUOUS
 10
6.0592305382
 20
13.7925095829
 40
0.1771652309
100
AcDbArc
 50
90.0
 51
180.0
  0
CIRCLE
  5
75C
100
AcDbEntity
  8
02___PRT_ALL_AXES
100
AcDbCircle
 62
7
  6
CONTINUOUS
 10
6.2924982547
 20
13.7728245436
 40
0.1325
  0
CIRCLE
  5
75D
100
AcDbEntity
  8
02___PRT_ALL_AXES
100
AcDbCircle
 62
7
  6
CONTINUOUS
 10
6.2924982547
 20
13.7728245436
 40
0.1279527559
  0
CIRCLE
  5
75E
100
AcDbEntity
  8
02___PRT_ALL_AXES
100
AcDbCircle
 62
7
  6
CONTINUOUS
 10
7.9854116405
 20
8.3791237562
 40
0.1330708661
  0
CIRCLE
  5
75F
100
AcDbEntity
  8
02___PRT_ALL_AXES
100
AcDbCircle
 62
7
  6
CONTINUOUS
 10
9.6783250264
 20
8.4578639136
 40
0.1325
  0
CIRCLE
  5
760
100
AcDbEntity
  8
02___PRT_ALL_AXES
100
AcDbCircle
 62
7
  6
CONTINUOUS
 10
9.6783250264
 20
8.4578639136
 40
0.1279527559
  0
CIRCLE
  5
761
100
AcDbEntity
  8
DEFAULT_2
100
AcDbCircle
 62
7
  6
HIDDEN
 10
7.9854116405
 20
8.3791237562
 40
0.125
  0
CIRCLE
  5
762
100
AcDbEntity
  8
02___PRT_ALL_AXES
100
AcDbCircle
 62
7
  6
CONTINUOUS
 10
7.9854116405
 20
8.3791237562
 40
0.100492126
  0
ARC
  5
763
100
AcDbEntity
  8
0
100
AcDbCircle
 62
7
  6
CONTINUOUS
 10
10.0889549476
 20
7.0799110305
 40
0.0590551181
100
AcDbArc
 50
270.0
 51
360.0
  0
ARC
  5
764
100
AcDbEntity
  8
0
100
AcDbCircle
 62
7
  6
CONTINUOUS
 10
9.234192828
 20
6.5457654884
 40
0.0105
100
AcDbArc
 50
182.5
 51
270.0
  0
ARC
  5
765
100
AcDbEntity
  8
0
100
AcDbCircle
 62
7
  6
CONTINUOUS
 10
9.6697013192
 20
6.5457654884
 40
0.0105
100
AcDbArc
 50
270.0
 51
357.5
  0
ARC
  5
766
100
AcDbEntity
  8
0
100
AcDbCircle
 62
7
  6
CONTINUOUS
 10
9.9115927429
 20
13.7925095829
 40
0.2362204724
100
AcDbArc
 50
0.0
 51
90.0
  0
ARC
  5
767
100
AcDbEntity
  8
0
100
AcDbCircle
 62
7
  6
CONTINUOUS
 10
9.9115927429
 20
13.7925095829
 40
0.1771652309
100
AcDbArc
 50
0.0
 51
90.0
  0
CIRCLE
  5
768
100
AcDbEntity
  8
02___PRT_ALL_AXES
100
AcDbCircle
 62
7
  6
CONTINUOUS
 10
7.9854116405
 20
13.8121946223
 40
0.1330708661
  0
CIRCLE
  5
769
100
AcDbEntity
  8
02___PRT_ALL_AXES
100
AcDbCircle
 62
7
  6
CONTINUOUS
 10
9.6783250264
 20
13.7728245436
 40
0.1325
  0
CIRCLE
  5
76A
100
AcDbEntity
  8
02___PRT_ALL_AXES
100
AcDbCircle
 62
7
  6
CONTINUOUS
 10
9.6783250264
 20
13.7728245436
 40
0.1279527559
  0
CIRCLE
  5
76B
100
AcDbEntity
  8
DEFAULT_2
100
AcDbCircle
 62
7
  6
HIDDEN
 10
7.9854116405
 20
13.8121946223
 40
0.125
  0
CIRCLE
  5
76C
100
AcDbEntity
  8
02___PRT_ALL_AXES
100
AcDbCircle
 62
7
  6
CONTINUOUS
 10
7.9854116405
 20
13.8121946223
 40
0.100492126
  0
ARC
  5
76D
100
AcDbEntity
  8
0
100
AcDbCircle
 62
7
  6
CONTINUOUS
 10
15.2233983704
 20
15.9057820398
 40
0.0590551181
100
AcDbArc
 50
226.540905477
 51
270.0
  0
ARC
  5
76E
100
AcDbEntity
  8
0
100
AcDbCircle
 62
7
  6
CONTINUOUS
 10
15.22320152
 20
15.9059788902
 40
0.0590551181
100
AcDbArc
 50
180.0
 51
270.0
  0
ARC
  5
76F
100
AcDbEntity
  8
0
100
AcDbCircle
 62
7
  6
CONTINUOUS
 10
15.2233983704
 20
20.112868654
 40
0.0590551181
100
AcDbArc
 50
90.0
 51
180.0
  0
ARC
  5
770
100
AcDbEntity
  8
0
100
AcDbCircle
 62
7
  6
CONTINUOUS
 10
15.22320152
 20
20.1126718036
 40
0.0590551181
100
AcDbArc
 50
90.0
 51
180.0
  0
CIRCLE
  5
771
100
AcDbEntity
  8
DEFAULT_2
100
AcDbCircle
 62
7
  6
HIDDEN
 10
17.3149338035
 20
17.2593253469
 40
0.125
  0
CIRCLE
  5
772
100
AcDbEntity
  8
02___PRT_ALL_AXES
100
AcDbCircle
 62
7
  6
CONTINUOUS
 10
17.3149338035
 20
17.2593253469
 40
0.100492126
  0
ARC
  5
773
100
AcDbEntity
  8
0
100
AcDbCircle
 62
7
  6
CONTINUOUS
 10
19.4064692366
 20
15.9057820398
 40
0.0590551181
100
AcDbArc
 50
270.0
 51
360.0
  0
ARC
  5
774
100
AcDbEntity
  8
0
100
AcDbCircle
 62
7
  6
CONTINUOUS
 10
19.406666087
 20
15.9059788902
 40
0.0590551181
100
AcDbArc
 50
270.0
 51
360.0
  0
CIRCLE
  5
775
100
AcDbEntity
  8
DEFAULT_2
100
AcDbCircle
 62
7
  6
HIDDEN
 10
17.3149338035
 20
18.7593253469
 40
0.125
  0
CIRCLE
  5
776
100
AcDbEntity
  8
DEFAULT_2
100
AcDbCircle
 62
7
  6
HIDDEN
 10
17.3149338035
 20
18.0093253469
 40
0.125
  0
CIRCLE
  5
777
100
AcDbEntity
  8
02___PRT_ALL_AXES
100
AcDbCircle
 62
7
  6
CONTINUOUS
 10
17.3149338035
 20
18.0093253469
 40
0.100492126
  0
CIRCLE
  5
778
100
AcDbEntity
  8
02___PRT_ALL_AXES
100
AcDbCircle
 62
7
  6
CONTINUOUS
 10
17.3149338035
 20
18.7593253469
 40
0.100492126
  0
ARC
  5
779
100
AcDbEntity
  8
0
100
AcDbCircle
 62
7
  6
CONTINUOUS
 10
19.4064692366
 20
20.112868654
 40
0.0590551181
100
AcDbArc
 50
46.5409056501
 51
90.0
  0
ARC
  5
77A
100
AcDbEntity
  8
0
100
AcDbCircle
 62
7
  6
CONTINUOUS
 10
19.406666087
 20
20.1126718036
 40
0.0590551181
100
AcDbArc
 50
0.0
 51
90.0
  0
ARC
  5
77B
100
AcDbEntity
  8
0
100
AcDbCircle
 62
7
  6
CONTINUOUS
 10
15.2233983534
 20
1.3214340753
 40
0.0590551181
100
AcDbArc
 50
180.0
 51
270.0000165567
  0
ARC
  5
77C
100
AcDbEntity
  8
0
100
AcDbCircle
 62
7
  6
CONTINUOUS
 10
15.22320152
 20
1.3216309257
 40
0.0590551181
100
AcDbArc
 50
180.0
 51
225.3438995357
  0
ARC
  5
77D
100
AcDbEntity
  8
0
100
AcDbCircle
 62
7
  6
CONTINUOUS
 10
15.2233983704
 20
5.5285206895
 40
0.0590551181
100
AcDbArc
 50
90.0
 51
180.0
  0
ARC
  5
77E
100
AcDbEntity
  8
0
100
AcDbCircle
 62
7
  6
CONTINUOUS
 10
19.4064692366
 20
1.3214340753
 40
0.0590551181
100
AcDbArc
 50
270.0
 51
360.0
  0
ARC
  5
77F
100
AcDbEntity
  8
0
100
AcDbCircle
 62
7
  6
CONTINUOUS
 10
18.8877684492
 20
4.8915128155
 40
0.3245
100
AcDbArc
 50
114.6199773287
 51
125.3800226713
  0
ARC
  5
780
100
AcDbEntity
  8
0
100
AcDbCircle
 62
7
  6
CONTINUOUS
 10
18.8877684492
 20
4.8915128155
 40
0.3245
100
AcDbArc
 50
54.6199773287
 51
65.3800226713
  0
ARC
  5
781
100
AcDbEntity
  8
0
100
AcDbCircle
 62
7
  6
CONTINUOUS
 10
18.8877684492
 20
4.8915128155
 40
0.3245
100
AcDbArc
 50
354.6199773287
 51
5.3800226713
  0
ARC
  5
782
100
AcDbEntity
  8
0
100
AcDbCircle
 62
7
  6
CONTINUOUS
 10
18.8877684492
 20
4.8915128155
 40
0.3245
100
AcDbArc
 50
294.6199773287
 51
305.3800226713
  0
ARC
  5
783
100
AcDbEntity
  8
0
100
AcDbCircle
 62
7
  6
CONTINUOUS
 10
18.8877684492
 20
4.8915128155
 40
0.3245
100
AcDbArc
 50
234.6199773287
 51
245.3800226713
  0
ARC
  5
784
100
AcDbEntity
  8
0
100
AcDbCircle
 62
7
  6
CONTINUOUS
 10
18.8877684492
 20
4.8915128155
 40
0.3245
100
AcDbArc
 50
174.6199773287
 51
185.3800226713
  0
CIRCLE
  5
785
100
AcDbEntity
  8
0
100
AcDbCircle
 62
7
  6
CONTINUOUS
 10
18.8877684492
 20
4.8915128155
 40
0.295
  0
CIRCLE
  5
786
100
AcDbEntity
  8
0
100
AcDbCircle
 62
7
  6
CONTINUOUS
 10
18.8877684492
 20
4.8915128155
 40
0.2875339788
  0
CIRCLE
  5
787
100
AcDbEntity
  8
0
100
AcDbCircle
 62
7
  6
CONTINUOUS
 10
18.8877684492
 20
4.8915128155
 40
0.2801589788
  0
CIRCLE
  5
788
100
AcDbEntity
  8
0
100
AcDbCircle
 62
7
  6
CONTINUOUS
 10
18.8877684492
 20
4.8915128155
 40
0.2352718301
  0
CIRCLE
  5
789
100
AcDbEntity
  8
0
100
AcDbCircle
 62
7
  6
CONTINUOUS
 10
18.8877684492
 20
4.8915128155
 40
0.2282442519
  0
CIRCLE
  5
78A
100
AcDbEntity
  8
0
100
AcDbCircle
 62
7
  6
CONTINUOUS
 10
18.8877684492
 20
4.8915128155
 40
0.2177540931
  0
CIRCLE
  5
78B
100
AcDbEntity
  8
0
100
AcDbCircle
 62
7
  6
CONTINUOUS
 10
18.8877684492
 20
4.8915128155
 40
0.1155
  0
CIRCLE
  5
78C
100
AcDbEntity
  8
0
100
AcDbCircle
 62
7
  6
CONTINUOUS
 10
18.8877684492
 20
4.8915128155
 40
0.105
  0
ARC
  5
78D
100
AcDbEntity
  8
0
100
AcDbCircle
 62
7
  6
CONTINUOUS
 10
19.4064692536
 20
5.5285206895
 40
0.0590551181
100
AcDbArc
 50
0.0
 51
90.0000165567
  0
ARC
  5
78E
100
AcDbEntity
  8
0
100
AcDbCircle
 62
7
  6
CONTINUOUS
 10
19.406666087
 20
5.5283238391
 40
0.0590551181
100
AcDbArc
 50
0.0
 51
45.3439028641
  0
ELLIPSE
  5
78F
100
AcDbEntity
  8
0
100
AcDbEllipse
 62
7
  6
CONTINUOUS
 10
17.3149338035
 20
7.4784284973
 30
0.0
 11
2.1505905512
 21
-0.0
 31
0.0
 40
0.2127659574
 41
-0.0598422507
 42
0.0
  0
ELLIPSE
  5
790
100
AcDbEntity
  8
0
100
AcDbEllipse
 62
7
  6
CONTINUOUS
 10
17.3149338035
 20
7.4784284973
 30
0.0
 11
2.1505905512
 21
-0.0
 31
0.0
 40
0.2127659574
 41
-3.1415926536
 42
-3.0801940062
  0
ELLIPSE
  5
791
100
AcDbEntity
  8
0
100
AcDbEllipse
 62
7
  6
CONTINUOUS
 10
17.3149338035
 20
7.6723411712
 30
0.0
 11
1.9143700787
 21
0.0
 31
0.0
 40
0.2169197397
 41
2.5752597613
 42
3.0801692171
  0
ELLIPSE
  5
792
100
AcDbEntity
  8
0
100
AcDbEllipse
 62
7
  6
CONTINUOUS
 10
17.3149338035
 20
7.6723411712
 30
0.0
 11
1.9143700787
 21
-0.0
 31
0.0
 40
0.2169197397
 41
2.2278453106
 42
2.4933272359
  0
ELLIPSE
  5
793
100
AcDbEntity
  8
0
100
AcDbEllipse
 62
7
  6
CONTINUOUS
 10
17.3149338035
 20
7.6723411712
 30
0.0
 11
1.9143700787
 21
-0.0
 31
0.0
 40
0.2169197397
 41
1.9574401394
 42
2.1668611725
  0
ELLIPSE
  5
794
100
AcDbEntity
  8
0
100
AcDbEllipse
 62
7
  6
CONTINUOUS
 10
17.3149338035
 20
7.6723411712
 30
0.0
 11
1.9143700787
 21
-0.0
 31
0.0
 40
0.2169197397
 41
1.7142888085
 42
1.9031025684
  0
ELLIPSE
  5
795
100
AcDbEntity
  8
0
100
AcDbEllipse
 62
7
  6
CONTINUOUS
 10
17.3149338035
 20
7.6723411712
 30
0.0
 11
1.9143700787
 21
-0.0
 31
0.0
 40
0.2169197397
 41
1.4792346522
 42
1.6623589669
  0
ELLIPSE
  5
796
100
AcDbEntity
  8
0
100
AcDbEllipse
 62
7
  6
CONTINUOUS
 10
17.3149338035
 20
7.6723411712
 30
0.0
 11
1.9143700787
 21
0.0
 31
0.0
 40
0.2169197397
 41
1.23848867
 42
1.4273011879
  0
ELLIPSE
  5
797
100
AcDbEntity
  8
0
100
AcDbEllipse
 62
7
  6
CONTINUOUS
 10
17.3149338035
 20
7.6723411712
 30
0.0
 11
1.9143700787
 21
0.0
 31
0.0
 40
0.2169197397
 41
0.9747622259
 42
1.1841481246
  0
ELLIPSE
  5
798
100
AcDbEntity
  8
0
100
AcDbEllipse
 62
7
  6
CONTINUOUS
 10
17.3149338035
 20
7.6723411712
 30
0.0
 11
1.9143700787
 21
0.0
 31
0.0
 40
0.2169197397
 41
0.8370623504
 42
0.9137678962
  0
ELLIPSE
  5
799
100
AcDbEntity
  8
0
100
AcDbEllipse
 62
7
  6
CONTINUOUS
 10
17.3149338035
 20
7.6723411712
 30
0.0
 11
1.9143700787
 21
0.0
 31
0.0
 40
0.2169197397
 41
0.0612360024
 42
0.2733735759
  0
ELLIPSE
  5
79A
100
AcDbEntity
  8
0
100
AcDbEllipse
 62
7
  6
CONTINUOUS
 10
17.3149338035
 20
7.6723411712
 30
0.0
 11
1.9143700787
 21
-0.0
 31
0.0
 40
0.2169197397
 41
-0.2834080449
 42
-0.0614234365
  0
ELLIPSE
  5
79B
100
AcDbEntity
  8
0
100
AcDbEllipse
 62
7
  6
CONTINUOUS
 10
17.3149338035
 20
7.6723411712
 30
0.0
 11
1.9143700787
 21
-0.0
 31
0.0
 40
0.2169197397
 41
-0.5015499546
 42
-0.4072915764
  0
ELLIPSE
  5
79C
100
AcDbEntity
  8
0
100
AcDbEllipse
 62
7
  6
CONTINUOUS
 10
17.3149338035
 20
7.6723411712
 30
0.0
 11
1.9143700787
 21
-0.0
 31
0.0
 40
0.2169197397
 41
-0.9199436411
 42
-0.7114783167
  0
ELLIPSE
  5
79D
100
AcDbEntity
  8
0
100
AcDbEllipse
 62
7
  6
CONTINUOUS
 10
17.3149338035
 20
7.6723411712
 30
0.0
 11
1.9143700787
 21
-0.0
 31
0.0
 40
0.2169197397
 41
-1.1903425434
 42
-0.9685402506
  0
ELLIPSE
  5
79E
100
AcDbEntity
  8
0
100
AcDbEllipse
 62
7
  6
CONTINUOUS
 10
17.3149338035
 20
7.6723411712
 30
0.0
 11
1.9143700787
 21
-0.0
 31
0.0
 40
0.2169197397
 41
-1.4334986961
 42
-1.2322957028
  0
ELLIPSE
  5
79F
100
AcDbEntity
  8
0
100
AcDbEllipse
 62
7
  6
CONTINUOUS
 10
17.3149338035
 20
7.6723411712
 30
0.0
 11
1.9143700787
 21
0.0
 31
0.0
 40
0.2169197397
 41
-1.6685510042
 42
-1.4730411652
  0
ELLIPSE
  5
7A0
100
AcDbEntity
  8
0
100
AcDbEllipse
 62
7
  6
CONTINUOUS
 10
17.3149338035
 20
7.6723411712
 30
0.0
 11
1.9143700787
 21
0.0
 31
0.0
 40
0.2169197397
 41
-1.9092950265
 42
-1.7080975049
  0
ELLIPSE
  5
7A1
100
AcDbEntity
  8
0
100
AcDbEllipse
 62
7
  6
CONTINUOUS
 10
17.3149338035
 20
7.6723411712
 30
0.0
 11
1.9143700787
 21
-0.0
 31
0.0
 40
0.2169197397
 41
-2.1730345465
 42
-1.9512478392
  0
ELLIPSE
  5
7A2
100
AcDbEntity
  8
0
100
AcDbEllipse
 62
7
  6
CONTINUOUS
 10
17.3149338035
 20
7.6723411712
 30
0.0
 11
1.9143700787
 21
0.0
 31
0.0
 40
0.2169197397
 41
-2.4995323118
 42
-2.2216373497
  0
ELLIPSE
  5
7A3
100
AcDbEntity
  8
0
100
AcDbEllipse
 62
7
  6
CONTINUOUS
 10
17.3149338035
 20
7.6723411712
 30
0.0
 11
1.9143700787
 21
0.0
 31
0.0
 40
0.2169197397
 41
-3.0803566512
 42
-2.5690780125
  0
ELLIPSE
  5
7A4
100
AcDbEntity
  8
0
100
AcDbEllipse
 62
7
  6
CONTINUOUS
 10
18.8391126561
 20
4.5174970674
 30
0.0
 11
0.0
 21
0.1968503937
 31
0.0
 40
0.0142857143
 41
-3.256348997
 42
-3.1415926536
  0
ELLIPSE
  5
7A5
100
AcDbEntity
  8
02___PRT_ALL_AXES
100
AcDbEllipse
 62
7
  6
CONTINUOUS
 10
18.9258730611
 20
3.9269458863
 30
0.0
 11
-0.0
 21
0.3937007874
 31
0.0
 40
0.0142857143
 41
0.0
 42
1.1493761486
  0
ELLIPSE
  5
7A6
100
AcDbEntity
  8
02___PRT_ALL_AXES
100
AcDbEllipse
 62
7
  6
CONTINUOUS
 10
18.8457268294
 20
3.9269458863
 30
0.0
 11
0.0
 21
0.3937007874
 31
0.0
 40
0.0142857143
 41
-1.1493761486
 42
0.0
  0
ENDSEC
  0
SECTION
  2
OBJECTS
  0
DICTIONARY
  5
C
100
AcDbDictionary
280
0
281
1
  3
ACAD_GROUP
350
D
  3
ACAD_MLINESTYLE
350
17
  3
ACAD_LAYOUT
350
1A
  3
ACAD_PLOTSETTINGS
350
19
  3
ACAD_PLOTSTYLENAME
350
E
  3
ACAD_TABLESTYLE
350
       7A7
  0
DICTIONARY
  5
D
102
{ACAD_REACTORS
330
C
102
}
100
AcDbDictionary
280
0
281
1
  0
ACDBDICTIONARYWDFLT
  5
E
102
{ACAD_REACTORS
330
C
102
}
100
AcDbDictionary
281
1
  3
Normal
350
F
100
AcDbDictionaryWithDefault
340
F
  0
DICTIONARY
  5
17
102
{ACAD_REACTORS
330
C
102
}
100
AcDbDictionary
280
0
281
1
  3
Standard
350
18
  0
DICTIONARY
  5
7A7
330
C
100
AcDbDictionary
281
1
  3
Standard
350
       7AA
  3
Standard1
350
       7AB
  0
DICTIONARY
  5
19
102
{ACAD_REACTORS
330
C
102
}
100
AcDbDictionary
281
1
  0
DICTIONARY
  5
1A
102
{ACAD_REACTORS
330
C
102
}
100
AcDbDictionary
281
1
  3
Model
350
7A8
  3
Layout1
350
7A9
  0
ACDBPLACEHOLDER
  5
F
102
{ACAD_REACTORS
330
E
102
}
  0
MLINESTYLE
  5
18
102
{ACAD_REACTORS
330
17
102
}
100
AcDbMlineStyle
  2
STANDARD
 70
0
  3

 62
256
 51
90.0
 52
90.0
 71
2
 49
0.5
 62
256
  6
BYLAYER
 49
-0.5
 62
256
  6
BYLAYER
  0
LAYOUT
  5
7A8
102
{ACAD_REACTORS
330
1A
102
}
100
AcDbPlotSettings
  1

  2
none_device
  4
ANSI_D_(34.00_x_22.00_Inches)
  6

 40
0.0
 41
0.0
 42
0.0
 43
0.0
 44
863.6
 45
558.8
 46
0.0
 47
0.0
 48
0.0
 49
0.0
140
0.0
141
0.0
142
1.0
143
1.0
 70
1024
 72
0
 73
0
 74
0
  7

 75
0
147
1.0
148
0.0
149
0.0
100
AcDbLayout
  1
Model
 70
0
 71
0
 10
0.0
 20
0.0
 11
34.0
 21
22.0
 12
0.0
 22
0.0
 32
0.0
 14
0.0
 24
0.0
 34
0.0
 15
0.0
 25
0.0
 35
0.0
146
0.0
 13
0.0
 23
0.0
 33
0.0
 16
1.0
 26
0.0
 36
0.0
 17
0.0
 27
1.0
 37
0.0
 76
0
330
238
345
0
346
0
  0
LAYOUT
  5
7A9
102
{ACAD_REACTORS
330
1A
102
}
100
AcDbPlotSettings
  1

  2
none_device
  4
ANSI_D_(34.00_x_22.00_Inches)
  6

 40
0.0
 41
0.0
 42
0.0
 43
0.0
 44
863.6
 45
558.8
 46
0.0
 47
0.0
 48
0.0
 49
0.0
140
0.0
141
0.0
142
1.0
143
1.0
 70
0
 72
0
 73
0
 74
0
  7

 75
0
147
1.0
148
0.0
149
0.0
100
AcDbLayout
  1
Layout1
 70
0
 71
1
 10
0.0
 20
0.0
 11
34.0
 21
22.0
 12
0.0
 22
0.0
 32
0.0
 14
0.0
 24
0.0
 34
0.0
 15
0.0
 25
0.0
 35
0.0
146
0.0
 13
0.0
 23
0.0
 33
0.0
 16
1.0
 26
0.0
 36
0.0
 17
0.0
 27
1.0
 37
0.0
 76
0
330
239
345
0
346
0
  0
TABLESTYLE
  5
7AA
102
{ACAD_REACTORS
330
7A7
102
}
330
7A7
100
AcDbTableStyle
  3
Standard
 70
0
 71
0
 40
0.06
 41
0.06
280
1
281
1
  7
Standard
140
0.18
170
1
 62
0
 63
7
283
0
  7
Standard
140
0.18
170
1
 62
0
 63
7
283
0
  7
Standard
140
0.18
170
1
 62
0
 63
7
283
0
  0
TABLESTYLE
  5
7AB
102
{ACAD_REACTORS
330
7A7
330
323
102
}
330
7A7
100
AcDbTableStyle
  3
Standard1
 70
1
 71
0
 40
0.06
 41
0.06
280
1
281
1
  7
Standard
140
0.18
170
1
 62
0
 63
7
283
0
  7
Standard
140
0.18
170
1
 62
0
 63
7
283
0
  7
Standard
140
0.18
170
1
 62
0
 63
7
283
0
  0
ENDSEC
  0
EOF
