999
DXF file: 148995_1.dxf
999
Pro/ENGINEER 2009141 by Parametric Technology Corporation
  0
SECTION
  2
HEADER
  9
$ACADVER
  1
AC1021
  9
$DWGCODEPAGE
  3
ANSI_1252
  9
$EXTMAX
 10
17.0
 20
11.0
 30
0.0
  9
$EXTMIN
 10
0.0
 20
0.0
 30
0.0
  9
$LIMMIN
 10
0.0
 20
0.0
  9
$LIMMAX
 10
17.0
 20
11.0
  9
$VIEWCTR
 10
8.5
 20
5.5
  9
$VIEWSIZE
 40
11.0
  9
$CLAYER
  8
0
  9
$LTSCALE
 40
0.935
  9
$CELTYPE
  6
BYLAYER
  9
$DIMSCALE
 40
1.0
  9
$DIMASZ
 40
0.1875
  9
$DIMEXO
 40
0.10625
  9
$DIMDLI
 40
0.646
  9
$DIMEXE
 40
0.306
  9
$DIMCEN
 40
0.153
  9
$DIMLFAC
 40
1.0
  9
$DIMBLK
  1
_FILLED
  9
$DIMTXT
 40
0.1
  9
$DIMTOL
 70
1
  9
$DIMLIM
 70
0
  9
$DIMTFAC
 40
1.0
  9
$DIMTP
 40
0.005
  9
$DIMTM
 40
0.005
  9
$PDMODE
 70
3
  9
$PDSIZE
 40
0.3125
  9
$HANDSEED
  5
8A1
  9
$TILEMODE
 70
1
  9
$MEASUREMENT
 70
0
  9
$INSUNITS
 70
1
  0
ENDSEC
  0
SECTION
  2
CLASSES
  0
CLASS
  1
ACDBDICTIONARYWDFLT
  2
AcDbDictionaryWithDefault
  3
AutoCAD 2000
 90
0
 91
1
280
0
281
0
  0
CLASS
  1
ACDBPLACEHOLDER
  2
AcDbPlaceHolder
  3
AutoCAD 2000
 90
0
 91
1
280
0
281
0
  0
CLASS
  1
LAYOUT
  2
AcDbLayout
  3
AutoCAD 2000
 90
0
 91
0
280
0
281
0
  0
CLASS
  1
TABLESTYLE
  2
AcDbTableStyle
  3
ObjectDBX Classes
 90
2047
 91
1
280
0
281
0
  0
CLASS
  1
ACAD_TABLE
  2
AcDbTable
  3
ObjectDBX Classes
 90
1025
 91
1
280
0
281
1
  0
ENDSEC
  0
SECTION
  2
TABLES
  0
TABLE
  2
VPORT
  5
8
100
AcDbSymbolTable
 70
2
  0
VPORT
  5
1F4
100
AcDbSymbolTableRecord
100
AcDbViewportTableRecord
  2
*ACTIVE
 70
0
 10
0.0
 20
0.0
 11
1.0
 21
1.0
 12
8.5
 22
5.5
 13
0.0
 23
0.0
 14
1.0
 24
1.0
 15
0.0
 25
0.0
 16
0.0
 26
0.0
 36
1.0
 17
0.0
 27
0.0
 37
0.0
 40
11.0
 41
1.5454545455
 42
50.0
 43
0.0
 44
0.0
 50
0.0
 51
0.0
 71
0
 72
100
 73
1
 74
1
 75
0
 76
0
 77
0
 78
0
  0
ENDTAB
  0
TABLE
  2
LTYPE
  5
5
100
AcDbSymbolTable
 70
6
  0
LTYPE
  5
14
100
AcDbSymbolTableRecord
100
AcDbLinetypeTableRecord
  2
BYBLOCK
 70
0
  3

 72
65
 73
0
 40
0.0
  0
LTYPE
  5
15
100
AcDbSymbolTableRecord
100
AcDbLinetypeTableRecord
  2
BYLAYER
 70
0
  3

 72
65
 73
0
 40
0.0
  0
LTYPE
  5
16
100
AcDbSymbolTableRecord
100
AcDbLinetypeTableRecord
  2
CONTINUOUS
 70
64
  3
Solid line
 72
65
 73
0
 40
0.0
  0
LTYPE
  5
1F5
100
AcDbSymbolTableRecord
100
AcDbLinetypeTableRecord
  2
CENTER
 70
64
  3
____ _ ____ _ ____ _ ____ _ ____ _ ____ _ ____
 72
65
 73
4
 40
0.6
 49
0.375
 74
0
 49
-0.075
 74
0
 49
0.075
 74
0
 49
-0.075
 74
0
  0
LTYPE
  5
1F6
100
AcDbSymbolTableRecord
100
AcDbLinetypeTableRecord
  2
HIDDEN
 70
64
  3
- - - - - - - - - - - - - - - - - - - -
 72
65
 73
2
 40
0.2
 49
0.1
 74
0
 49
-0.1
 74
0
  0
LTYPE
  5
1F7
100
AcDbSymbolTableRecord
100
AcDbLinetypeTableRecord
  2
PHANTOM
 70
64
  3
_____ _ _ _____ _ _ _____ _ _ _____
 72
65
 73
6
 40
0.8
 49
0.45
 74
0
 49
-0.05
 74
0
 49
0.1
 74
0
 49
-0.05
 74
0
 49
0.1
 74
0
 49
-0.05
 74
0
  0
LTYPE
  5
1F8
100
AcDbSymbolTableRecord
100
AcDbLinetypeTableRecord
  2
DOT
 70
64
  3
. . . . . . . . . . . . . . . . . . . .
 72
65
 73
2
 40
0.2
 49
0.1
 74
0
 49
-0.1
 74
0
  0
LTYPE
  5
1F9
100
AcDbSymbolTableRecord
100
AcDbLinetypeTableRecord
  2
DASHED
 70
64
  3
- - - - - - - - - - - - - - - - - - - -
 72
65
 73
2
 40
0.2
 49
0.1
 74
0
 49
-0.1
 74
0
  0
ENDTAB
  0
TABLE
  2
LAYER
  5
2
100
AcDbSymbolTable
 70
36
  0
LAYER
  5
10
100
AcDbSymbolTableRecord
100
AcDbLayerTableRecord
  2
0
 70
0
 62
7
  6
CONTINUOUS
370
-3
390
F
  0
LAYER
  5
1FA
100
AcDbSymbolTableRecord
100
AcDbLayerTableRecord
  2
DEFAULT_1
 70
0
 62
7
  6
CENTER
370
-3
390
F
  0
LAYER
  5
1FB
100
AcDbSymbolTableRecord
100
AcDbLayerTableRecord
  2
DEFAULT_2
 70
0
 62
8
  6
HIDDEN
370
-3
390
F
  0
LAYER
  5
1FC
100
AcDbSymbolTableRecord
100
AcDbLayerTableRecord
  2
DEFAULT_3
 70
0
 62
7
  6
PHANTOM
370
-3
390
F
  0
LAYER
  5
1FD
100
AcDbSymbolTableRecord
100
AcDbLayerTableRecord
  2
01_ALL_DTM_PLN
 70
0
 62
7
  6
CONTINUOUS
370
-3
390
F
  0
LAYER
  5
1FE
100
AcDbSymbolTableRecord
100
AcDbLayerTableRecord
  2
01__ASM_ALL_DTM_PLN
 70
0
 62
7
  6
CONTINUOUS
370
-3
390
F
  0
LAYER
  5
1FF
100
AcDbSymbolTableRecord
100
AcDbLayerTableRecord
  2
01__ASM_DEF_DTM_PLN
 70
0
 62
7
  6
CONTINUOUS
370
-3
390
F
  0
LAYER
  5
200
100
AcDbSymbolTableRecord
100
AcDbLayerTableRecord
  2
01___PRT_ALL_DTM_PLN
 70
0
 62
7
  6
CONTINUOUS
370
-3
390
F
  0
LAYER
  5
201
100
AcDbSymbolTableRecord
100
AcDbLayerTableRecord
  2
01___PRT_DEF_DTM_PLN
 70
0
 62
7
  6
CONTINUOUS
370
-3
390
F
  0
LAYER
  5
202
100
AcDbSymbolTableRecord
100
AcDbLayerTableRecord
  2
02_ALL_AXES
 70
0
 62
7
  6
CONTINUOUS
370
-3
390
F
  0
LAYER
  5
203
100
AcDbSymbolTableRecord
100
AcDbLayerTableRecord
  2
02__ASM_ALL_AXES
 70
0
 62
7
  6
CONTINUOUS
370
-3
390
F
  0
LAYER
  5
204
100
AcDbSymbolTableRecord
100
AcDbLayerTableRecord
  2
02___PRT_ALL_AXES
 70
0
 62
7
  6
CONTINUOUS
370
-3
390
F
  0
LAYER
  5
205
100
AcDbSymbolTableRecord
100
AcDbLayerTableRecord
  2
03_ALL_CURVES
 70
0
 62
7
  6
CONTINUOUS
370
-3
390
F
  0
LAYER
  5
206
100
AcDbSymbolTableRecord
100
AcDbLayerTableRecord
  2
03__ASM_ALL_CURVES
 70
0
 62
7
  6
CONTINUOUS
370
-3
390
F
  0
LAYER
  5
207
100
AcDbSymbolTableRecord
100
AcDbLayerTableRecord
  2
03___PRT_ALL_CURVES
 70
0
 62
7
  6
CONTINUOUS
370
-3
390
F
  0
LAYER
  5
208
100
AcDbSymbolTableRecord
100
AcDbLayerTableRecord
  2
04_ALL_DTM_PNT
 70
0
 62
7
  6
CONTINUOUS
370
-3
390
F
  0
LAYER
  5
209
100
AcDbSymbolTableRecord
100
AcDbLayerTableRecord
  2
04__ASM_ALL_DTM_PNT
 70
0
 62
7
  6
CONTINUOUS
370
-3
390
F
  0
LAYER
  5
20A
100
AcDbSymbolTableRecord
100
AcDbLayerTableRecord
  2
04___PRT_ALL_DTM_PNT
 70
0
 62
7
  6
CONTINUOUS
370
-3
390
F
  0
LAYER
  5
20B
100
AcDbSymbolTableRecord
100
AcDbLayerTableRecord
  2
05_ALL_DTM_CSYS
 70
0
 62
7
  6
CONTINUOUS
370
-3
390
F
  0
LAYER
  5
20C
100
AcDbSymbolTableRecord
100
AcDbLayerTableRecord
  2
05__ASM_ALL_DTM_CSYS
 70
0
 62
7
  6
CONTINUOUS
370
-3
390
F
  0
LAYER
  5
20D
100
AcDbSymbolTableRecord
100
AcDbLayerTableRecord
  2
05__ASM_DEF_DTM_CSYS
 70
0
 62
7
  6
CONTINUOUS
370
-3
390
F
  0
LAYER
  5
20E
100
AcDbSymbolTableRecord
100
AcDbLayerTableRecord
  2
05___PRT_ALL_DTM_CSYS
 70
0
 62
7
  6
CONTINUOUS
370
-3
390
F
  0
LAYER
  5
20F
100
AcDbSymbolTableRecord
100
AcDbLayerTableRecord
  2
05___PRT_DEF_DTM_CSYS
 70
0
 62
7
  6
CONTINUOUS
370
-3
390
F
  0
LAYER
  5
210
100
AcDbSymbolTableRecord
100
AcDbLayerTableRecord
  2
06_ALL_SURFS
 70
0
 62
7
  6
CONTINUOUS
370
-3
390
F
  0
LAYER
  5
211
100
AcDbSymbolTableRecord
100
AcDbLayerTableRecord
  2
06__ASM_ALL_SURFS
 70
0
 62
7
  6
CONTINUOUS
370
-3
390
F
  0
LAYER
  5
212
100
AcDbSymbolTableRecord
100
AcDbLayerTableRecord
  2
06___PRT_ALL_SURFS
 70
0
 62
7
  6
CONTINUOUS
370
-3
390
F
  0
LAYER
  5
213
100
AcDbSymbolTableRecord
100
AcDbLayerTableRecord
  2
07__ASM_ALL_SKELETONS
 70
0
 62
7
  6
CONTINUOUS
370
-3
390
F
  0
LAYER
  5
214
100
AcDbSymbolTableRecord
100
AcDbLayerTableRecord
  2
AXIS
 70
0
 62
7
  6
CONTINUOUS
370
-3
390
F
  0
LAYER
  5
215
100
AcDbSymbolTableRecord
100
AcDbLayerTableRecord
  2
AXIS_COSMETIC_THREADS
 70
0
 62
7
  6
CONTINUOUS
370
-3
390
F
  0
LAYER
  5
216
100
AcDbSymbolTableRecord
100
AcDbLayerTableRecord
  2
COSMETIC_THREADS
 70
0
 62
7
  6
CONTINUOUS
370
-3
390
F
  0
LAYER
  5
217
100
AcDbSymbolTableRecord
100
AcDbLayerTableRecord
  2
CSY
 70
0
 62
7
  6
CONTINUOUS
370
-3
390
F
  0
LAYER
  5
218
100
AcDbSymbolTableRecord
100
AcDbLayerTableRecord
  2
CYS
 70
0
 62
7
  6
CONTINUOUS
370
-3
390
F
  0
LAYER
  5
219
100
AcDbSymbolTableRecord
100
AcDbLayerTableRecord
  2
DATUM
 70
0
 62
7
  6
CONTINUOUS
370
-3
390
F
  0
LAYER
  5
21A
100
AcDbSymbolTableRecord
100
AcDbLayerTableRecord
  2
DATUM_CURVES
 70
0
 62
7
  6
CONTINUOUS
370
-3
390
F
  0
LAYER
  5
21B
100
AcDbSymbolTableRecord
100
AcDbLayerTableRecord
  2
DATUM_PLANES
 70
0
 62
7
  6
CONTINUOUS
370
-3
390
F
  0
LAYER
  5
21C
100
AcDbSymbolTableRecord
100
AcDbLayerTableRecord
  2
ECAD_0603
 70
0
 62
7
  6
CONTINUOUS
370
-3
390
F
  0
LAYER
  5
21D
100
AcDbSymbolTableRecord
100
AcDbLayerTableRecord
  2
ECAD_0603C
 70
0
 62
7
  6
CONTINUOUS
370
-3
390
F
  0
LAYER
  5
21E
100
AcDbSymbolTableRecord
100
AcDbLayerTableRecord
  2
ECAD_0805
 70
0
 62
7
  6
CONTINUOUS
370
-3
390
F
  0
LAYER
  5
21F
100
AcDbSymbolTableRecord
100
AcDbLayerTableRecord
  2
ECAD_0805C
 70
0
 62
7
  6
CONTINUOUS
370
-3
390
F
  0
LAYER
  5
220
100
AcDbSymbolTableRecord
100
AcDbLayerTableRecord
  2
ECAD_2512
 70
0
 62
7
  6
CONTINUOUS
370
-3
390
F
  0
LAYER
  5
221
100
AcDbSymbolTableRecord
100
AcDbLayerTableRecord
  2
ECAD_FCCAP4
 70
0
 62
7
  6
CONTINUOUS
370
-3
390
F
  0
LAYER
  5
222
100
AcDbSymbolTableRecord
100
AcDbLayerTableRecord
  2
ECAD_MINISMA
 70
0
 62
7
  6
CONTINUOUS
370
-3
390
F
  0
LAYER
  5
223
100
AcDbSymbolTableRecord
100
AcDbLayerTableRecord
  2
ECAD_P7040SQ
 70
0
 62
7
  6
CONTINUOUS
370
-3
390
F
  0
LAYER
  5
224
100
AcDbSymbolTableRecord
100
AcDbLayerTableRecord
  2
ECAD_SMA
 70
0
 62
7
  6
CONTINUOUS
370
-3
390
F
  0
LAYER
  5
225
100
AcDbSymbolTableRecord
100
AcDbLayerTableRecord
  2
ECAD_SMIND4
 70
0
 62
7
  6
CONTINUOUS
370
-3
390
F
  0
LAYER
  5
226
100
AcDbSymbolTableRecord
100
AcDbLayerTableRecord
  2
ECAD_SO14
 70
0
 62
7
  6
CONTINUOUS
370
-3
390
F
  0
LAYER
  5
227
100
AcDbSymbolTableRecord
100
AcDbLayerTableRecord
  2
ECAD_SOT223
 70
0
 62
7
  6
CONTINUOUS
370
-3
390
F
  0
LAYER
  5
228
100
AcDbSymbolTableRecord
100
AcDbLayerTableRecord
  2
ECAD_SOT23
 70
0
 62
7
  6
CONTINUOUS
370
-3
390
F
  0
LAYER
  5
229
100
AcDbSymbolTableRecord
100
AcDbLayerTableRecord
  2
ECAD_TO263
 70
0
 62
7
  6
CONTINUOUS
370
-3
390
F
  0
LAYER
  5
22A
100
AcDbSymbolTableRecord
100
AcDbLayerTableRecord
  2
ECAD_TVS1
 70
0
 62
7
  6
CONTINUOUS
370
-3
390
F
  0
LAYER
  5
22B
100
AcDbSymbolTableRecord
100
AcDbLayerTableRecord
  2
ECAD_WIRE24
 70
0
 62
7
  6
CONTINUOUS
370
-3
390
F
  0
LAYER
  5
22C
100
AcDbSymbolTableRecord
100
AcDbLayerTableRecord
  2
NOTES
 70
0
 62
7
  6
CONTINUOUS
370
-3
390
F
  0
LAYER
  5
22D
100
AcDbSymbolTableRecord
100
AcDbLayerTableRecord
  2
QUILTS
 70
0
 62
7
  6
CONTINUOUS
370
-3
390
F
  0
LAYER
  5
22E
100
AcDbSymbolTableRecord
100
AcDbLayerTableRecord
  2
SCHEME_DIMS
 70
0
 62
7
  6
CONTINUOUS
370
-3
390
F
  0
LAYER
  5
22F
100
AcDbSymbolTableRecord
100
AcDbLayerTableRecord
  2
SYMBOLS
 70
0
 62
7
  6
CONTINUOUS
370
-3
390
F
  0
ENDTAB
  0
TABLE
  2
STYLE
  5
3
100
AcDbSymbolTable
 70
1
  0
STYLE
  5
11
100
AcDbSymbolTableRecord
100
AcDbTextStyleTableRecord
  2
STANDARD
 70
0
 40
0.0
 41
1.0
 50
0.0
 71
0
 42
0.2
  3
txt
  4

  0
STYLE
  5
230
100
AcDbSymbolTableRecord
100
AcDbTextStyleTableRecord
  2
TEXTSTYLE_1
 70
0
 40
0.0
 41
0.8
 50
0.0
 71
0
 42
0.2
  3
gdt
  4

  0
STYLE
  5
231
100
AcDbSymbolTableRecord
100
AcDbTextStyleTableRecord
  2
TEXTSTYLE_2
 70
0
 40
0.0
 41
0.8
 50
0.0
 71
0
 42
0.2
  3
txt
  4

  0
STYLE
  5
232
100
AcDbSymbolTableRecord
100
AcDbTextStyleTableRecord
  2
TEXTSTYLE_3
 70
0
 40
0.0
 41
0.85
 50
0.0
 71
0
 42
0.2
  3
txt
  4

  0
STYLE
  5
233
100
AcDbSymbolTableRecord
100
AcDbTextStyleTableRecord
  2
TEXTSTYLE_4
 70
0
 40
0.0
 41
0.92
 50
0.0
 71
0
 42
0.2
  3
txt
  4

  0
STYLE
  5
234
100
AcDbSymbolTableRecord
100
AcDbTextStyleTableRecord
  2
TEXTSTYLE_5
 70
0
 40
0.0
 41
1.0
 50
0.0
 71
0
 42
0.2
  3
gdt
  4

  0
STYLE
  5
235
100
AcDbSymbolTableRecord
100
AcDbTextStyleTableRecord
  2
TEXTSTYLE_6
 70
0
 40
0.0
 41
0.75
 50
0.0
 71
0
 42
0.2
  3
txt
  4

  0
ENDTAB
  0
TABLE
  2
VIEW
  5
6
100
AcDbSymbolTable
 70
0
  0
ENDTAB
  0
TABLE
  2
UCS
  5
7
100
AcDbSymbolTable
 70
0
  0
ENDTAB
  0
TABLE
  2
APPID
  5
9
100
AcDbSymbolTable
 70
1
  0
APPID
  5
236
100
AcDbSymbolTableRecord
100
AcDbRegAppTableRecord
  2
ACAD
 70
0
  0
ENDTAB
  0
TABLE
  2
BLOCK_RECORD
  5
1
100
AcDbSymbolTable
 70
0
  0
BLOCK_RECORD
  5
237
100
AcDbSymbolTableRecord
100
AcDbBlockTableRecord
  2
*Model_Space
  0
BLOCK_RECORD
  5
238
100
AcDbSymbolTableRecord
100
AcDbBlockTableRecord
  2
*Paper_Space
  0
BLOCK_RECORD
  5
239
100
AcDbSymbolTableRecord
100
AcDbBlockTableRecord
  2
_FILLED
  0
BLOCK_RECORD
  5
23A
100
AcDbSymbolTableRecord
100
AcDbBlockTableRecord
  2
*D0
  0
BLOCK_RECORD
  5
23B
100
AcDbSymbolTableRecord
100
AcDbBlockTableRecord
  2
*D1
  0
BLOCK_RECORD
  5
23C
100
AcDbSymbolTableRecord
100
AcDbBlockTableRecord
  2
*D2
  0
BLOCK_RECORD
  5
23D
100
AcDbSymbolTableRecord
100
AcDbBlockTableRecord
  2
*D3
  0
BLOCK_RECORD
  5
23E
100
AcDbSymbolTableRecord
100
AcDbBlockTableRecord
  2
*D4
  0
BLOCK_RECORD
  5
23F
100
AcDbSymbolTableRecord
100
AcDbBlockTableRecord
  2
DN_BL150
  0
BLOCK_RECORD
  5
240
100
AcDbSymbolTableRecord
100
AcDbBlockTableRecord
  2
DN_BL149
  0
BLOCK_RECORD
  5
241
100
AcDbSymbolTableRecord
100
AcDbBlockTableRecord
  2
DN_BL148
  0
BLOCK_RECORD
  5
242
100
AcDbSymbolTableRecord
100
AcDbBlockTableRecord
  2
DN_BL147
  0
BLOCK_RECORD
  5
243
100
AcDbSymbolTableRecord
100
AcDbBlockTableRecord
  2
DN_BL146
  0
BLOCK_RECORD
  5
244
100
AcDbSymbolTableRecord
100
AcDbBlockTableRecord
  2
DN_BL145
  0
BLOCK_RECORD
  5
245
100
AcDbSymbolTableRecord
100
AcDbBlockTableRecord
  2
DN_BL144
  0
BLOCK_RECORD
  5
246
100
AcDbSymbolTableRecord
100
AcDbBlockTableRecord
  2
DN_BL143
  0
BLOCK_RECORD
  5
247
100
AcDbSymbolTableRecord
100
AcDbBlockTableRecord
  2
DN_BL142
  0
BLOCK_RECORD
  5
248
100
AcDbSymbolTableRecord
100
AcDbBlockTableRecord
  2
DN_BL141
  0
BLOCK_RECORD
  5
249
100
AcDbSymbolTableRecord
100
AcDbBlockTableRecord
  2
DN_BL140
  0
BLOCK_RECORD
  5
24A
100
AcDbSymbolTableRecord
100
AcDbBlockTableRecord
  2
DN_BL139
  0
BLOCK_RECORD
  5
24B
100
AcDbSymbolTableRecord
100
AcDbBlockTableRecord
  2
DN_BL138
  0
BLOCK_RECORD
  5
24C
100
AcDbSymbolTableRecord
100
AcDbBlockTableRecord
  2
DN_BL137
  0
BLOCK_RECORD
  5
24D
100
AcDbSymbolTableRecord
100
AcDbBlockTableRecord
  2
DN_BL136
  0
BLOCK_RECORD
  5
24E
100
AcDbSymbolTableRecord
100
AcDbBlockTableRecord
  2
DN_BL135
  0
BLOCK_RECORD
  5
24F
100
AcDbSymbolTableRecord
100
AcDbBlockTableRecord
  2
DN_BL134
  0
BLOCK_RECORD
  5
250
100
AcDbSymbolTableRecord
100
AcDbBlockTableRecord
  2
DN_BL133
  0
BLOCK_RECORD
  5
251
100
AcDbSymbolTableRecord
100
AcDbBlockTableRecord
  2
DN_BL132
  0
BLOCK_RECORD
  5
252
100
AcDbSymbolTableRecord
100
AcDbBlockTableRecord
  2
DN_BL131
  0
BLOCK_RECORD
  5
253
100
AcDbSymbolTableRecord
100
AcDbBlockTableRecord
  2
DN_BL130
  0
BLOCK_RECORD
  5
254
100
AcDbSymbolTableRecord
100
AcDbBlockTableRecord
  2
DN_BL129
  0
BLOCK_RECORD
  5
255
100
AcDbSymbolTableRecord
100
AcDbBlockTableRecord
  2
DN_BL128
  0
BLOCK_RECORD
  5
256
100
AcDbSymbolTableRecord
100
AcDbBlockTableRecord
  2
DN_BL127
  0
BLOCK_RECORD
  5
257
100
AcDbSymbolTableRecord
100
AcDbBlockTableRecord
  2
DN_BL126
  0
BLOCK_RECORD
  5
258
100
AcDbSymbolTableRecord
100
AcDbBlockTableRecord
  2
DN_BL125
  0
BLOCK_RECORD
  5
259
100
AcDbSymbolTableRecord
100
AcDbBlockTableRecord
  2
DN_BL124
  0
BLOCK_RECORD
  5
25A
100
AcDbSymbolTableRecord
100
AcDbBlockTableRecord
  2
DN_BL123
  0
BLOCK_RECORD
  5
25B
100
AcDbSymbolTableRecord
100
AcDbBlockTableRecord
  2
DN_BL122
  0
BLOCK_RECORD
  5
25C
100
AcDbSymbolTableRecord
100
AcDbBlockTableRecord
  2
DN_BL121
  0
BLOCK_RECORD
  5
25D
100
AcDbSymbolTableRecord
100
AcDbBlockTableRecord
  2
DN_BL120
  0
BLOCK_RECORD
  5
25E
100
AcDbSymbolTableRecord
100
AcDbBlockTableRecord
  2
DN_BL119
  0
BLOCK_RECORD
  5
25F
100
AcDbSymbolTableRecord
100
AcDbBlockTableRecord
  2
DN_BL118
  0
BLOCK_RECORD
  5
260
100
AcDbSymbolTableRecord
100
AcDbBlockTableRecord
  2
DN_BL117
  0
BLOCK_RECORD
  5
261
100
AcDbSymbolTableRecord
100
AcDbBlockTableRecord
  2
DN_BL116
  0
BLOCK_RECORD
  5
262
100
AcDbSymbolTableRecord
100
AcDbBlockTableRecord
  2
DN_BL115
  0
BLOCK_RECORD
  5
263
100
AcDbSymbolTableRecord
100
AcDbBlockTableRecord
  2
DN_BL114
  0
BLOCK_RECORD
  5
264
100
AcDbSymbolTableRecord
100
AcDbBlockTableRecord
  2
DN_BL113
  0
BLOCK_RECORD
  5
265
100
AcDbSymbolTableRecord
100
AcDbBlockTableRecord
  2
DN_BL112
  0
BLOCK_RECORD
  5
266
100
AcDbSymbolTableRecord
100
AcDbBlockTableRecord
  2
DN_BL111
  0
BLOCK_RECORD
  5
267
100
AcDbSymbolTableRecord
100
AcDbBlockTableRecord
  2
DN_BL110
  0
BLOCK_RECORD
  5
268
100
AcDbSymbolTableRecord
100
AcDbBlockTableRecord
  2
DN_BL109
  0
BLOCK_RECORD
  5
269
100
AcDbSymbolTableRecord
100
AcDbBlockTableRecord
  2
DN_BL108
  0
BLOCK_RECORD
  5
26A
100
AcDbSymbolTableRecord
100
AcDbBlockTableRecord
  2
DN_BL107
  0
BLOCK_RECORD
  5
26B
100
AcDbSymbolTableRecord
100
AcDbBlockTableRecord
  2
DN_BL106
  0
BLOCK_RECORD
  5
26C
100
AcDbSymbolTableRecord
100
AcDbBlockTableRecord
  2
DN_BL105
  0
BLOCK_RECORD
  5
26D
100
AcDbSymbolTableRecord
100
AcDbBlockTableRecord
  2
DN_BL104
  0
BLOCK_RECORD
  5
26E
100
AcDbSymbolTableRecord
100
AcDbBlockTableRecord
  2
DN_BL103
  0
BLOCK_RECORD
  5
26F
100
AcDbSymbolTableRecord
100
AcDbBlockTableRecord
  2
DN_BL102
  0
BLOCK_RECORD
  5
270
100
AcDbSymbolTableRecord
100
AcDbBlockTableRecord
  2
DN_BL101
  0
BLOCK_RECORD
  5
271
100
AcDbSymbolTableRecord
100
AcDbBlockTableRecord
  2
DN_BL100
  0
BLOCK_RECORD
  5
272
100
AcDbSymbolTableRecord
100
AcDbBlockTableRecord
  2
DN_BL99
  0
BLOCK_RECORD
  5
273
100
AcDbSymbolTableRecord
100
AcDbBlockTableRecord
  2
DN_BL98
  0
BLOCK_RECORD
  5
274
100
AcDbSymbolTableRecord
100
AcDbBlockTableRecord
  2
DN_BL97
  0
BLOCK_RECORD
  5
275
100
AcDbSymbolTableRecord
100
AcDbBlockTableRecord
  2
DN_BL96
  0
BLOCK_RECORD
  5
276
100
AcDbSymbolTableRecord
100
AcDbBlockTableRecord
  2
DN_BL95
  0
BLOCK_RECORD
  5
277
100
AcDbSymbolTableRecord
100
AcDbBlockTableRecord
  2
DN_BL94
  0
BLOCK_RECORD
  5
278
100
AcDbSymbolTableRecord
100
AcDbBlockTableRecord
  2
DN_BL93
  0
BLOCK_RECORD
  5
279
100
AcDbSymbolTableRecord
100
AcDbBlockTableRecord
  2
DN_BL92
  0
BLOCK_RECORD
  5
27A
100
AcDbSymbolTableRecord
100
AcDbBlockTableRecord
  2
DN_BL91
  0
BLOCK_RECORD
  5
27B
100
AcDbSymbolTableRecord
100
AcDbBlockTableRecord
  2
DN_BL90
  0
BLOCK_RECORD
  5
27C
100
AcDbSymbolTableRecord
100
AcDbBlockTableRecord
  2
DN_BL89
  0
BLOCK_RECORD
  5
27D
100
AcDbSymbolTableRecord
100
AcDbBlockTableRecord
  2
DN_BL88
  0
BLOCK_RECORD
  5
27E
100
AcDbSymbolTableRecord
100
AcDbBlockTableRecord
  2
DN_BL87
  0
BLOCK_RECORD
  5
27F
100
AcDbSymbolTableRecord
100
AcDbBlockTableRecord
  2
DN_BL86
  0
BLOCK_RECORD
  5
280
100
AcDbSymbolTableRecord
100
AcDbBlockTableRecord
  2
DN_BL85
  0
BLOCK_RECORD
  5
281
100
AcDbSymbolTableRecord
100
AcDbBlockTableRecord
  2
DN_BL84
  0
BLOCK_RECORD
  5
282
100
AcDbSymbolTableRecord
100
AcDbBlockTableRecord
  2
DN_BL83
  0
BLOCK_RECORD
  5
283
100
AcDbSymbolTableRecord
100
AcDbBlockTableRecord
  2
DN_BL82
  0
BLOCK_RECORD
  5
284
100
AcDbSymbolTableRecord
100
AcDbBlockTableRecord
  2
DN_BL81
  0
BLOCK_RECORD
  5
285
100
AcDbSymbolTableRecord
100
AcDbBlockTableRecord
  2
DN_BL80
  0
BLOCK_RECORD
  5
286
100
AcDbSymbolTableRecord
100
AcDbBlockTableRecord
  2
DN_BL79
  0
BLOCK_RECORD
  5
287
100
AcDbSymbolTableRecord
100
AcDbBlockTableRecord
  2
DN_BL78
  0
BLOCK_RECORD
  5
288
100
AcDbSymbolTableRecord
100
AcDbBlockTableRecord
  2
DN_BL77
  0
BLOCK_RECORD
  5
289
100
AcDbSymbolTableRecord
100
AcDbBlockTableRecord
  2
DN_BL76
  0
BLOCK_RECORD
  5
28A
100
AcDbSymbolTableRecord
100
AcDbBlockTableRecord
  2
DN_BL75
  0
BLOCK_RECORD
  5
28B
100
AcDbSymbolTableRecord
100
AcDbBlockTableRecord
  2
DN_BL74
  0
BLOCK_RECORD
  5
28C
100
AcDbSymbolTableRecord
100
AcDbBlockTableRecord
  2
DN_BL73
  0
BLOCK_RECORD
  5
28D
100
AcDbSymbolTableRecord
100
AcDbBlockTableRecord
  2
DN_BL72
  0
BLOCK_RECORD
  5
28E
100
AcDbSymbolTableRecord
100
AcDbBlockTableRecord
  2
DN_BL71
  0
BLOCK_RECORD
  5
28F
100
AcDbSymbolTableRecord
100
AcDbBlockTableRecord
  2
DN_BL70
  0
BLOCK_RECORD
  5
290
100
AcDbSymbolTableRecord
100
AcDbBlockTableRecord
  2
DN_BL69
  0
BLOCK_RECORD
  5
291
100
AcDbSymbolTableRecord
100
AcDbBlockTableRecord
  2
DN_BL68
  0
BLOCK_RECORD
  5
292
100
AcDbSymbolTableRecord
100
AcDbBlockTableRecord
  2
DN_BL67
  0
BLOCK_RECORD
  5
293
100
AcDbSymbolTableRecord
100
AcDbBlockTableRecord
  2
DN_BL66
  0
BLOCK_RECORD
  5
294
100
AcDbSymbolTableRecord
100
AcDbBlockTableRecord
  2
DN_BL65
  0
BLOCK_RECORD
  5
295
100
AcDbSymbolTableRecord
100
AcDbBlockTableRecord
  2
DN_BL64
  0
BLOCK_RECORD
  5
296
100
AcDbSymbolTableRecord
100
AcDbBlockTableRecord
  2
DN_BL63
  0
BLOCK_RECORD
  5
297
100
AcDbSymbolTableRecord
100
AcDbBlockTableRecord
  2
DN_BL62
  0
BLOCK_RECORD
  5
298
100
AcDbSymbolTableRecord
100
AcDbBlockTableRecord
  2
DN_BL61
  0
BLOCK_RECORD
  5
299
100
AcDbSymbolTableRecord
100
AcDbBlockTableRecord
  2
DN_BL60
  0
BLOCK_RECORD
  5
29A
100
AcDbSymbolTableRecord
100
AcDbBlockTableRecord
  2
DN_BL59
  0
BLOCK_RECORD
  5
29B
100
AcDbSymbolTableRecord
100
AcDbBlockTableRecord
  2
DN_BL58
  0
BLOCK_RECORD
  5
29C
100
AcDbSymbolTableRecord
100
AcDbBlockTableRecord
  2
DN_BL57
  0
BLOCK_RECORD
  5
29D
100
AcDbSymbolTableRecord
100
AcDbBlockTableRecord
  2
DN_BL56
  0
BLOCK_RECORD
  5
29E
100
AcDbSymbolTableRecord
100
AcDbBlockTableRecord
  2
DN_BL55
  0
BLOCK_RECORD
  5
29F
100
AcDbSymbolTableRecord
100
AcDbBlockTableRecord
  2
DN_BL54
  0
BLOCK_RECORD
  5
2A0
100
AcDbSymbolTableRecord
100
AcDbBlockTableRecord
  2
DN_BL53
  0
BLOCK_RECORD
  5
2A1
100
AcDbSymbolTableRecord
100
AcDbBlockTableRecord
  2
DN_BL52
  0
BLOCK_RECORD
  5
2A2
100
AcDbSymbolTableRecord
100
AcDbBlockTableRecord
  2
DN_BL51
  0
BLOCK_RECORD
  5
2A3
100
AcDbSymbolTableRecord
100
AcDbBlockTableRecord
  2
DN_BL50
  0
BLOCK_RECORD
  5
2A4
100
AcDbSymbolTableRecord
100
AcDbBlockTableRecord
  2
DN_BL49
  0
BLOCK_RECORD
  5
2A5
100
AcDbSymbolTableRecord
100
AcDbBlockTableRecord
  2
DN_BL48
  0
BLOCK_RECORD
  5
2A6
100
AcDbSymbolTableRecord
100
AcDbBlockTableRecord
  2
DN_BL47
  0
BLOCK_RECORD
  5
2A7
100
AcDbSymbolTableRecord
100
AcDbBlockTableRecord
  2
DN_BL46
  0
BLOCK_RECORD
  5
2A8
100
AcDbSymbolTableRecord
100
AcDbBlockTableRecord
  2
DN_BL45
  0
BLOCK_RECORD
  5
2A9
100
AcDbSymbolTableRecord
100
AcDbBlockTableRecord
  2
DN_BL44
  0
BLOCK_RECORD
  5
2AA
100
AcDbSymbolTableRecord
100
AcDbBlockTableRecord
  2
DN_BL43
  0
BLOCK_RECORD
  5
2AB
100
AcDbSymbolTableRecord
100
AcDbBlockTableRecord
  2
DN_BL42
  0
BLOCK_RECORD
  5
2AC
100
AcDbSymbolTableRecord
100
AcDbBlockTableRecord
  2
DN_BL41
  0
BLOCK_RECORD
  5
2AD
100
AcDbSymbolTableRecord
100
AcDbBlockTableRecord
  2
DN_BL40
  0
BLOCK_RECORD
  5
2AE
100
AcDbSymbolTableRecord
100
AcDbBlockTableRecord
  2
DN_BL39
  0
BLOCK_RECORD
  5
2AF
100
AcDbSymbolTableRecord
100
AcDbBlockTableRecord
  2
DN_BL38
  0
BLOCK_RECORD
  5
2B0
100
AcDbSymbolTableRecord
100
AcDbBlockTableRecord
  2
DN_BL37
  0
BLOCK_RECORD
  5
2B1
100
AcDbSymbolTableRecord
100
AcDbBlockTableRecord
  2
DN_BL36
  0
BLOCK_RECORD
  5
2B2
100
AcDbSymbolTableRecord
100
AcDbBlockTableRecord
  2
DN_BL35
  0
BLOCK_RECORD
  5
2B3
100
AcDbSymbolTableRecord
100
AcDbBlockTableRecord
  2
DN_BL34
  0
BLOCK_RECORD
  5
2B4
100
AcDbSymbolTableRecord
100
AcDbBlockTableRecord
  2
DN_BL33
  0
BLOCK_RECORD
  5
2B5
100
AcDbSymbolTableRecord
100
AcDbBlockTableRecord
  2
DN_BL32
  0
BLOCK_RECORD
  5
2B6
100
AcDbSymbolTableRecord
100
AcDbBlockTableRecord
  2
DN_BL31
  0
BLOCK_RECORD
  5
2B7
100
AcDbSymbolTableRecord
100
AcDbBlockTableRecord
  2
DN_BL30
  0
BLOCK_RECORD
  5
2B8
100
AcDbSymbolTableRecord
100
AcDbBlockTableRecord
  2
DN_BL29
  0
BLOCK_RECORD
  5
2B9
100
AcDbSymbolTableRecord
100
AcDbBlockTableRecord
  2
DN_BL28
  0
BLOCK_RECORD
  5
2BA
100
AcDbSymbolTableRecord
100
AcDbBlockTableRecord
  2
DN_BL27
  0
BLOCK_RECORD
  5
2BB
100
AcDbSymbolTableRecord
100
AcDbBlockTableRecord
  2
DN_BL26
  0
BLOCK_RECORD
  5
2BC
100
AcDbSymbolTableRecord
100
AcDbBlockTableRecord
  2
DN_BL25
  0
BLOCK_RECORD
  5
2BD
100
AcDbSymbolTableRecord
100
AcDbBlockTableRecord
  2
DN_BL24
  0
BLOCK_RECORD
  5
2BE
100
AcDbSymbolTableRecord
100
AcDbBlockTableRecord
  2
DN_BL23
  0
BLOCK_RECORD
  5
2BF
100
AcDbSymbolTableRecord
100
AcDbBlockTableRecord
  2
DN_BL22
  0
BLOCK_RECORD
  5
2C0
100
AcDbSymbolTableRecord
100
AcDbBlockTableRecord
  2
DN_BL21
  0
BLOCK_RECORD
  5
2C1
100
AcDbSymbolTableRecord
100
AcDbBlockTableRecord
  2
DN_BL20
  0
BLOCK_RECORD
  5
2C2
100
AcDbSymbolTableRecord
100
AcDbBlockTableRecord
  2
DN_BL19
  0
BLOCK_RECORD
  5
2C3
100
AcDbSymbolTableRecord
100
AcDbBlockTableRecord
  2
DN_BL18
  0
BLOCK_RECORD
  5
2C4
100
AcDbSymbolTableRecord
100
AcDbBlockTableRecord
  2
DN_BL17
  0
BLOCK_RECORD
  5
2C5
100
AcDbSymbolTableRecord
100
AcDbBlockTableRecord
  2
DN_BL16
  0
BLOCK_RECORD
  5
2C6
100
AcDbSymbolTableRecord
100
AcDbBlockTableRecord
  2
DN_BL15
  0
BLOCK_RECORD
  5
2C7
100
AcDbSymbolTableRecord
100
AcDbBlockTableRecord
  2
DN_BL14
  0
BLOCK_RECORD
  5
2C8
100
AcDbSymbolTableRecord
100
AcDbBlockTableRecord
  2
DN_BL13
  0
BLOCK_RECORD
  5
2C9
100
AcDbSymbolTableRecord
100
AcDbBlockTableRecord
  2
DN_BL12
  0
BLOCK_RECORD
  5
2CA
100
AcDbSymbolTableRecord
100
AcDbBlockTableRecord
  2
DN_BL11
  0
BLOCK_RECORD
  5
2CB
100
AcDbSymbolTableRecord
100
AcDbBlockTableRecord
  2
DN_BL10
  0
BLOCK_RECORD
  5
2CC
100
AcDbSymbolTableRecord
100
AcDbBlockTableRecord
  2
DN_BL9
  0
BLOCK_RECORD
  5
2CD
100
AcDbSymbolTableRecord
100
AcDbBlockTableRecord
  2
DN_BL8
  0
BLOCK_RECORD
  5
2CE
100
AcDbSymbolTableRecord
100
AcDbBlockTableRecord
  2
DN_BL7
  0
BLOCK_RECORD
  5
2CF
100
AcDbSymbolTableRecord
100
AcDbBlockTableRecord
  2
DN_BL6
  0
BLOCK_RECORD
  5
2D0
100
AcDbSymbolTableRecord
100
AcDbBlockTableRecord
  2
DN_BL5
  0
BLOCK_RECORD
  5
2D1
100
AcDbSymbolTableRecord
100
AcDbBlockTableRecord
  2
DN_BL4
  0
BLOCK_RECORD
  5
2D2
100
AcDbSymbolTableRecord
100
AcDbBlockTableRecord
  2
DN_BL3
  0
BLOCK_RECORD
  5
2D3
100
AcDbSymbolTableRecord
100
AcDbBlockTableRecord
  2
DN_BL2
  0
BLOCK_RECORD
  5
2D4
100
AcDbSymbolTableRecord
100
AcDbBlockTableRecord
  2
DN_BL1
  0
BLOCK_RECORD
  5
2D5
100
AcDbSymbolTableRecord
100
AcDbBlockTableRecord
  2
BANNER_LOGO_TITLEBLOCK_BL0
  0
BLOCK_RECORD
  5
2D6
100
AcDbSymbolTableRecord
100
AcDbBlockTableRecord
  2
*T1
  0
ENDTAB
  0
TABLE
  2
DIMSTYLE
  5
A
100
AcDbSymbolTable
 70
1
100
AcDbDimStyleTable
 71
0
  0
DIMSTYLE
105
2D7
100
AcDbSymbolTableRecord
100
AcDbDimStyleTableRecord
  2
STANDARD
 70
0
  3

  4

 40
1.0
 41
0.1875
 42
0.0625
 43
0.38
 44
0.18
 45
0.0
 46
0.0
 47
0.005
 48
0.005
140
0.1
141
0.09
142
0.0
143
25.4
144
1.0
145
0.0
146
1.0
147
0.09
 71
1.0
 72
0.0
 73
1
 74
1
 75
0
 76
0
 77
0
 78
4
170
0
171
2
172
0
173
0
174
0
175
0
176
0
177
0
178
0
270
2
271
3
272
3
273
2
274
2
275
0
280
0
281
0
282
0
283
1
284
4
285
0
286
0
287
3
288
0
340
11
341
239
342
239
343
239
344
239
  0
DIMSTYLE
105
2D8
100
AcDbSymbolTableRecord
100
AcDbDimStyleTableRecord
  2
DIMSTYLE_1
 70
0
  3

  4

 40
1.0
 41
0.1875
 42
0.0625
 43
0.38
 44
0.18
 45
0.0
 46
0.0
 47
0.001
 48
0.001
140
0.1
141
0.09
142
0.0
143
25.4
144
1.0
145
0.0
146
1.0
147
0.09
 71
0.0
 72
0.0
 73
1
 74
1
 75
0
 76
0
 77
0
 78
4
170
0
171
2
172
0
173
0
174
0
175
0
176
0
177
0
178
0
270
2
271
3
272
3
273
2
274
2
275
0
280
0
281
0
282
0
283
1
284
4
285
0
286
0
287
3
288
0
340
11
341
239
342
239
343
239
344
239
  0
DIMSTYLE
105
2D9
100
AcDbSymbolTableRecord
100
AcDbDimStyleTableRecord
  2
DIMSTYLE_2
 70
0
  3

  4

 40
1.0
 41
0.1875
 42
0.0625
 43
0.38
 44
0.18
 45
0.0
 46
0.0
 47
0.5
 48
0.5
140
0.1
141
0.09
142
0.0
143
25.4
144
1.0
145
0.0
146
1.0
147
0.09
 71
0.0
 72
0.0
 73
1
 74
1
 75
0
 76
0
 77
0
 78
4
170
0
171
2
172
0
173
0
174
0
175
0
176
0
177
0
178
0
270
2
271
1
272
1
273
2
274
2
275
0
280
0
281
0
282
0
283
1
284
4
285
0
286
0
287
3
288
0
340
11
341
239
342
239
343
239
344
239
  0
ENDTAB
  0
ENDSEC
  0
SECTION
  2
BLOCKS
  0
BLOCK
  5
20
100
AcDbEntity
  8
0
100
AcDbBlockBegin
  2
*Model_Space
 70
0
 10
0.0
 20
0.0
 30
0.0
  3
*Model_Space
  1

  0
ENDBLK
  5
21
100
AcDbEntity
  8
0
100
AcDbBlockEnd
  0
BLOCK
  5
1C
100
AcDbEntity
  8
0
100
AcDbBlockBegin
  2
*Paper_Space
 70
0
 10
0.0
 20
0.0
 30
0.0
  3
*Paper_Space
  1

  0
ENDBLK
  5
1D
100
AcDbEntity
  8
0
100
AcDbBlockEnd
  0
BLOCK
  5
2DA
100
AcDbEntity
  8
SYMBOLS
100
AcDbBlockBegin
 62
2
  6
CONTINUOUS
  2
DN_BL150
 70
64
 10
-0.4897883509
 20
4.3567362148
  3
DN_BL150
  1

  0
CIRCLE
  5
2DB
100
AcDbEntity
  8
SYMBOLS
100
AcDbCircle
 62
2
  6
CONTINUOUS
 10
-0.489062925
 20
4.3567362148
 40
0.1
  0
MTEXT
  5
2DC
100
AcDbEntity
  8
SYMBOLS
100
AcDbMText
 62
2
  6
CONTINUOUS
  7
TEXTSTYLE_6
 71
1
 72
1
 10
-0.5910383509
 20
4.4023457303
 30
0.0
 11
1.0
 21
0.0
 31
0.0
 44
0.9
  1
150
 40
0.09
 41
0.2025
  0
ENDBLK
  5
2DD
100
AcDbEntity
  8
0
  6
BYBLOCK
 62
0
100
AcDbBlockEnd
  0
BLOCK
  5
2DE
100
AcDbEntity
  8
SYMBOLS
100
AcDbBlockBegin
 62
2
  6
CONTINUOUS
  2
DN_BL149
 70
64
 10
-0.7097883509
 20
4.3567362148
  3
DN_BL149
  1

  0
CIRCLE
  5
2DF
100
AcDbEntity
  8
SYMBOLS
100
AcDbCircle
 62
2
  6
CONTINUOUS
 10
-0.709062925
 20
4.3567362148
 40
0.1
  0
MTEXT
  5
2E0
100
AcDbEntity
  8
SYMBOLS
100
AcDbMText
 62
2
  6
CONTINUOUS
  7
TEXTSTYLE_6
 71
1
 72
1
 10
-0.8110383509
 20
4.4023457303
 30
0.0
 11
1.0
 21
0.0
 31
0.0
 44
0.9
  1
149
 40
0.09
 41
0.2025
  0
ENDBLK
  5
2E1
100
AcDbEntity
  8
0
  6
BYBLOCK
 62
0
100
AcDbBlockEnd
  0
BLOCK
  5
2E2
100
AcDbEntity
  8
SYMBOLS
100
AcDbBlockBegin
 62
2
  6
CONTINUOUS
  2
DN_BL148
 70
64
 10
-0.9297883509
 20
4.3567362148
  3
DN_BL148
  1

  0
CIRCLE
  5
2E3
100
AcDbEntity
  8
SYMBOLS
100
AcDbCircle
 62
2
  6
CONTINUOUS
 10
-0.929062925
 20
4.3567362148
 40
0.1
  0
MTEXT
  5
2E4
100
AcDbEntity
  8
SYMBOLS
100
AcDbMText
 62
2
  6
CONTINUOUS
  7
TEXTSTYLE_6
 71
1
 72
1
 10
-1.0310383509
 20
4.4023457303
 30
0.0
 11
1.0
 21
0.0
 31
0.0
 44
0.9
  1
148
 40
0.09
 41
0.2025
  0
ENDBLK
  5
2E5
100
AcDbEntity
  8
0
  6
BYBLOCK
 62
0
100
AcDbBlockEnd
  0
BLOCK
  5
2E6
100
AcDbEntity
  8
SYMBOLS
100
AcDbBlockBegin
 62
2
  6
CONTINUOUS
  2
DN_BL147
 70
64
 10
-1.1497883509
 20
4.3567362148
  3
DN_BL147
  1

  0
CIRCLE
  5
2E7
100
AcDbEntity
  8
SYMBOLS
100
AcDbCircle
 62
2
  6
CONTINUOUS
 10
-1.149062925
 20
4.3567362148
 40
0.1
  0
MTEXT
  5
2E8
100
AcDbEntity
  8
SYMBOLS
100
AcDbMText
 62
2
  6
CONTINUOUS
  7
TEXTSTYLE_6
 71
1
 72
1
 10
-1.2510383509
 20
4.4023457303
 30
0.0
 11
1.0
 21
0.0
 31
0.0
 44
0.9
  1
147
 40
0.09
 41
0.2025
  0
ENDBLK
  5
2E9
100
AcDbEntity
  8
0
  6
BYBLOCK
 62
0
100
AcDbBlockEnd
  0
BLOCK
  5
2EA
100
AcDbEntity
  8
SYMBOLS
100
AcDbBlockBegin
 62
2
  6
CONTINUOUS
  2
DN_BL146
 70
64
 10
-1.3697883509
 20
4.3567362148
  3
DN_BL146
  1

  0
CIRCLE
  5
2EB
100
AcDbEntity
  8
SYMBOLS
100
AcDbCircle
 62
2
  6
CONTINUOUS
 10
-1.369062925
 20
4.3567362148
 40
0.1
  0
MTEXT
  5
2EC
100
AcDbEntity
  8
SYMBOLS
100
AcDbMText
 62
2
  6
CONTINUOUS
  7
TEXTSTYLE_6
 71
1
 72
1
 10
-1.4710383509
 20
4.4023457303
 30
0.0
 11
1.0
 21
0.0
 31
0.0
 44
0.9
  1
146
 40
0.09
 41
0.2025
  0
ENDBLK
  5
2ED
100
AcDbEntity
  8
0
  6
BYBLOCK
 62
0
100
AcDbBlockEnd
  0
BLOCK
  5
2EE
100
AcDbEntity
  8
SYMBOLS
100
AcDbBlockBegin
 62
2
  6
CONTINUOUS
  2
DN_BL145
 70
64
 10
-1.5897883509
 20
4.3567362148
  3
DN_BL145
  1

  0
CIRCLE
  5
2EF
100
AcDbEntity
  8
SYMBOLS
100
AcDbCircle
 62
2
  6
CONTINUOUS
 10
-1.589062925
 20
4.3567362148
 40
0.1
  0
MTEXT
  5
2F0
100
AcDbEntity
  8
SYMBOLS
100
AcDbMText
 62
2
  6
CONTINUOUS
  7
TEXTSTYLE_6
 71
1
 72
1
 10
-1.6910383509
 20
4.4023457303
 30
0.0
 11
1.0
 21
0.0
 31
0.0
 44
0.9
  1
145
 40
0.09
 41
0.2025
  0
ENDBLK
  5
2F1
100
AcDbEntity
  8
0
  6
BYBLOCK
 62
0
100
AcDbBlockEnd
  0
BLOCK
  5
2F2
100
AcDbEntity
  8
SYMBOLS
100
AcDbBlockBegin
 62
2
  6
CONTINUOUS
  2
DN_BL144
 70
64
 10
-1.8097883509
 20
4.3567362148
  3
DN_BL144
  1

  0
CIRCLE
  5
2F3
100
AcDbEntity
  8
SYMBOLS
100
AcDbCircle
 62
2
  6
CONTINUOUS
 10
-1.809062925
 20
4.3567362148
 40
0.1
  0
MTEXT
  5
2F4
100
AcDbEntity
  8
SYMBOLS
100
AcDbMText
 62
2
  6
CONTINUOUS
  7
TEXTSTYLE_6
 71
1
 72
1
 10
-1.9110383509
 20
4.4023457303
 30
0.0
 11
1.0
 21
0.0
 31
0.0
 44
0.9
  1
144
 40
0.09
 41
0.2025
  0
ENDBLK
  5
2F5
100
AcDbEntity
  8
0
  6
BYBLOCK
 62
0
100
AcDbBlockEnd
  0
BLOCK
  5
2F6
100
AcDbEntity
  8
SYMBOLS
100
AcDbBlockBegin
 62
2
  6
CONTINUOUS
  2
DN_BL143
 70
64
 10
-2.0297883509
 20
4.3567362148
  3
DN_BL143
  1

  0
CIRCLE
  5
2F7
100
AcDbEntity
  8
SYMBOLS
100
AcDbCircle
 62
2
  6
CONTINUOUS
 10
-2.029062925
 20
4.3567362148
 40
0.1
  0
MTEXT
  5
2F8
100
AcDbEntity
  8
SYMBOLS
100
AcDbMText
 62
2
  6
CONTINUOUS
  7
TEXTSTYLE_6
 71
1
 72
1
 10
-2.1310383509
 20
4.4023457303
 30
0.0
 11
1.0
 21
0.0
 31
0.0
 44
0.9
  1
143
 40
0.09
 41
0.2025
  0
ENDBLK
  5
2F9
100
AcDbEntity
  8
0
  6
BYBLOCK
 62
0
100
AcDbBlockEnd
  0
BLOCK
  5
2FA
100
AcDbEntity
  8
SYMBOLS
100
AcDbBlockBegin
 62
2
  6
CONTINUOUS
  2
DN_BL142
 70
64
 10
-2.2497883509
 20
4.3567362148
  3
DN_BL142
  1

  0
CIRCLE
  5
2FB
100
AcDbEntity
  8
SYMBOLS
100
AcDbCircle
 62
2
  6
CONTINUOUS
 10
-2.249062925
 20
4.3567362148
 40
0.1
  0
MTEXT
  5
2FC
100
AcDbEntity
  8
SYMBOLS
100
AcDbMText
 62
2
  6
CONTINUOUS
  7
TEXTSTYLE_6
 71
1
 72
1
 10
-2.3510383509
 20
4.4023457303
 30
0.0
 11
1.0
 21
0.0
 31
0.0
 44
0.9
  1
142
 40
0.09
 41
0.2025
  0
ENDBLK
  5
2FD
100
AcDbEntity
  8
0
  6
BYBLOCK
 62
0
100
AcDbBlockEnd
  0
BLOCK
  5
2FE
100
AcDbEntity
  8
SYMBOLS
100
AcDbBlockBegin
 62
2
  6
CONTINUOUS
  2
DN_BL141
 70
64
 10
-2.4697883509
 20
4.3567362148
  3
DN_BL141
  1

  0
CIRCLE
  5
2FF
100
AcDbEntity
  8
SYMBOLS
100
AcDbCircle
 62
2
  6
CONTINUOUS
 10
-2.469062925
 20
4.3567362148
 40
0.1
  0
MTEXT
  5
300
100
AcDbEntity
  8
SYMBOLS
100
AcDbMText
 62
2
  6
CONTINUOUS
  7
TEXTSTYLE_6
 71
1
 72
1
 10
-2.5710383509
 20
4.4023457303
 30
0.0
 11
1.0
 21
0.0
 31
0.0
 44
0.9
  1
141
 40
0.09
 41
0.2025
  0
ENDBLK
  5
301
100
AcDbEntity
  8
0
  6
BYBLOCK
 62
0
100
AcDbBlockEnd
  0
BLOCK
  5
302
100
AcDbEntity
  8
SYMBOLS
100
AcDbBlockBegin
 62
2
  6
CONTINUOUS
  2
DN_BL140
 70
64
 10
-0.4897883509
 20
4.1367362148
  3
DN_BL140
  1

  0
CIRCLE
  5
303
100
AcDbEntity
  8
SYMBOLS
100
AcDbCircle
 62
2
  6
CONTINUOUS
 10
-0.489062925
 20
4.1367362148
 40
0.1
  0
MTEXT
  5
304
100
AcDbEntity
  8
SYMBOLS
100
AcDbMText
 62
2
  6
CONTINUOUS
  7
TEXTSTYLE_6
 71
1
 72
1
 10
-0.5910383509
 20
4.1823457303
 30
0.0
 11
1.0
 21
0.0
 31
0.0
 44
0.9
  1
140
 40
0.09
 41
0.2025
  0
ENDBLK
  5
305
100
AcDbEntity
  8
0
  6
BYBLOCK
 62
0
100
AcDbBlockEnd
  0
BLOCK
  5
306
100
AcDbEntity
  8
SYMBOLS
100
AcDbBlockBegin
 62
2
  6
CONTINUOUS
  2
DN_BL139
 70
64
 10
-0.7097883509
 20
4.1367362148
  3
DN_BL139
  1

  0
CIRCLE
  5
307
100
AcDbEntity
  8
SYMBOLS
100
AcDbCircle
 62
2
  6
CONTINUOUS
 10
-0.709062925
 20
4.1367362148
 40
0.1
  0
MTEXT
  5
308
100
AcDbEntity
  8
SYMBOLS
100
AcDbMText
 62
2
  6
CONTINUOUS
  7
TEXTSTYLE_6
 71
1
 72
1
 10
-0.8110383509
 20
4.1823457303
 30
0.0
 11
1.0
 21
0.0
 31
0.0
 44
0.9
  1
139
 40
0.09
 41
0.2025
  0
ENDBLK
  5
309
100
AcDbEntity
  8
0
  6
BYBLOCK
 62
0
100
AcDbBlockEnd
  0
BLOCK
  5
30A
100
AcDbEntity
  8
SYMBOLS
100
AcDbBlockBegin
 62
2
  6
CONTINUOUS
  2
DN_BL138
 70
64
 10
-0.9297883509
 20
4.1367362148
  3
DN_BL138
  1

  0
CIRCLE
  5
30B
100
AcDbEntity
  8
SYMBOLS
100
AcDbCircle
 62
2
  6
CONTINUOUS
 10
-0.929062925
 20
4.1367362148
 40
0.1
  0
MTEXT
  5
30C
100
AcDbEntity
  8
SYMBOLS
100
AcDbMText
 62
2
  6
CONTINUOUS
  7
TEXTSTYLE_6
 71
1
 72
1
 10
-1.0310383509
 20
4.1823457303
 30
0.0
 11
1.0
 21
0.0
 31
0.0
 44
0.9
  1
138
 40
0.09
 41
0.2025
  0
ENDBLK
  5
30D
100
AcDbEntity
  8
0
  6
BYBLOCK
 62
0
100
AcDbBlockEnd
  0
BLOCK
  5
30E
100
AcDbEntity
  8
SYMBOLS
100
AcDbBlockBegin
 62
2
  6
CONTINUOUS
  2
DN_BL137
 70
64
 10
-1.1497883509
 20
4.1367362148
  3
DN_BL137
  1

  0
CIRCLE
  5
30F
100
AcDbEntity
  8
SYMBOLS
100
AcDbCircle
 62
2
  6
CONTINUOUS
 10
-1.149062925
 20
4.1367362148
 40
0.1
  0
MTEXT
  5
310
100
AcDbEntity
  8
SYMBOLS
100
AcDbMText
 62
2
  6
CONTINUOUS
  7
TEXTSTYLE_6
 71
1
 72
1
 10
-1.2510383509
 20
4.1823457303
 30
0.0
 11
1.0
 21
0.0
 31
0.0
 44
0.9
  1
137
 40
0.09
 41
0.2025
  0
ENDBLK
  5
311
100
AcDbEntity
  8
0
  6
BYBLOCK
 62
0
100
AcDbBlockEnd
  0
BLOCK
  5
312
100
AcDbEntity
  8
SYMBOLS
100
AcDbBlockBegin
 62
2
  6
CONTINUOUS
  2
DN_BL136
 70
64
 10
-1.3697883509
 20
4.1367362148
  3
DN_BL136
  1

  0
CIRCLE
  5
313
100
AcDbEntity
  8
SYMBOLS
100
AcDbCircle
 62
2
  6
CONTINUOUS
 10
-1.369062925
 20
4.1367362148
 40
0.1
  0
MTEXT
  5
314
100
AcDbEntity
  8
SYMBOLS
100
AcDbMText
 62
2
  6
CONTINUOUS
  7
TEXTSTYLE_6
 71
1
 72
1
 10
-1.4710383509
 20
4.1823457303
 30
0.0
 11
1.0
 21
0.0
 31
0.0
 44
0.9
  1
136
 40
0.09
 41
0.2025
  0
ENDBLK
  5
315
100
AcDbEntity
  8
0
  6
BYBLOCK
 62
0
100
AcDbBlockEnd
  0
BLOCK
  5
316
100
AcDbEntity
  8
SYMBOLS
100
AcDbBlockBegin
 62
2
  6
CONTINUOUS
  2
DN_BL135
 70
64
 10
-1.5897883509
 20
4.1367362148
  3
DN_BL135
  1

  0
CIRCLE
  5
317
100
AcDbEntity
  8
SYMBOLS
100
AcDbCircle
 62
2
  6
CONTINUOUS
 10
-1.589062925
 20
4.1367362148
 40
0.1
  0
MTEXT
  5
318
100
AcDbEntity
  8
SYMBOLS
100
AcDbMText
 62
2
  6
CONTINUOUS
  7
TEXTSTYLE_6
 71
1
 72
1
 10
-1.6910383509
 20
4.1823457303
 30
0.0
 11
1.0
 21
0.0
 31
0.0
 44
0.9
  1
135
 40
0.09
 41
0.2025
  0
ENDBLK
  5
319
100
AcDbEntity
  8
0
  6
BYBLOCK
 62
0
100
AcDbBlockEnd
  0
BLOCK
  5
31A
100
AcDbEntity
  8
SYMBOLS
100
AcDbBlockBegin
 62
2
  6
CONTINUOUS
  2
DN_BL134
 70
64
 10
-1.8097883509
 20
4.1367362148
  3
DN_BL134
  1

  0
CIRCLE
  5
31B
100
AcDbEntity
  8
SYMBOLS
100
AcDbCircle
 62
2
  6
CONTINUOUS
 10
-1.809062925
 20
4.1367362148
 40
0.1
  0
MTEXT
  5
31C
100
AcDbEntity
  8
SYMBOLS
100
AcDbMText
 62
2
  6
CONTINUOUS
  7
TEXTSTYLE_6
 71
1
 72
1
 10
-1.9110383509
 20
4.1823457303
 30
0.0
 11
1.0
 21
0.0
 31
0.0
 44
0.9
  1
134
 40
0.09
 41
0.2025
  0
ENDBLK
  5
31D
100
AcDbEntity
  8
0
  6
BYBLOCK
 62
0
100
AcDbBlockEnd
  0
BLOCK
  5
31E
100
AcDbEntity
  8
SYMBOLS
100
AcDbBlockBegin
 62
2
  6
CONTINUOUS
  2
DN_BL133
 70
64
 10
-2.0297883509
 20
4.1367362148
  3
DN_BL133
  1

  0
CIRCLE
  5
31F
100
AcDbEntity
  8
SYMBOLS
100
AcDbCircle
 62
2
  6
CONTINUOUS
 10
-2.029062925
 20
4.1367362148
 40
0.1
  0
MTEXT
  5
320
100
AcDbEntity
  8
SYMBOLS
100
AcDbMText
 62
2
  6
CONTINUOUS
  7
TEXTSTYLE_6
 71
1
 72
1
 10
-2.1310383509
 20
4.1823457303
 30
0.0
 11
1.0
 21
0.0
 31
0.0
 44
0.9
  1
133
 40
0.09
 41
0.2025
  0
ENDBLK
  5
321
100
AcDbEntity
  8
0
  6
BYBLOCK
 62
0
100
AcDbBlockEnd
  0
BLOCK
  5
322
100
AcDbEntity
  8
SYMBOLS
100
AcDbBlockBegin
 62
2
  6
CONTINUOUS
  2
DN_BL132
 70
64
 10
-2.2497883509
 20
4.1367362148
  3
DN_BL132
  1

  0
CIRCLE
  5
323
100
AcDbEntity
  8
SYMBOLS
100
AcDbCircle
 62
2
  6
CONTINUOUS
 10
-2.249062925
 20
4.1367362148
 40
0.1
  0
MTEXT
  5
324
100
AcDbEntity
  8
SYMBOLS
100
AcDbMText
 62
2
  6
CONTINUOUS
  7
TEXTSTYLE_6
 71
1
 72
1
 10
-2.3510383509
 20
4.1823457303
 30
0.0
 11
1.0
 21
0.0
 31
0.0
 44
0.9
  1
132
 40
0.09
 41
0.2025
  0
ENDBLK
  5
325
100
AcDbEntity
  8
0
  6
BYBLOCK
 62
0
100
AcDbBlockEnd
  0
BLOCK
  5
326
100
AcDbEntity
  8
SYMBOLS
100
AcDbBlockBegin
 62
2
  6
CONTINUOUS
  2
DN_BL131
 70
64
 10
-2.4697883509
 20
4.1367362148
  3
DN_BL131
  1

  0
CIRCLE
  5
327
100
AcDbEntity
  8
SYMBOLS
100
AcDbCircle
 62
2
  6
CONTINUOUS
 10
-2.469062925
 20
4.1367362148
 40
0.1
  0
MTEXT
  5
328
100
AcDbEntity
  8
SYMBOLS
100
AcDbMText
 62
2
  6
CONTINUOUS
  7
TEXTSTYLE_6
 71
1
 72
1
 10
-2.5710383509
 20
4.1823457303
 30
0.0
 11
1.0
 21
0.0
 31
0.0
 44
0.9
  1
131
 40
0.09
 41
0.2025
  0
ENDBLK
  5
329
100
AcDbEntity
  8
0
  6
BYBLOCK
 62
0
100
AcDbBlockEnd
  0
BLOCK
  5
32A
100
AcDbEntity
  8
SYMBOLS
100
AcDbBlockBegin
 62
2
  6
CONTINUOUS
  2
DN_BL130
 70
64
 10
-0.4897883509
 20
3.9167362148
  3
DN_BL130
  1

  0
CIRCLE
  5
32B
100
AcDbEntity
  8
SYMBOLS
100
AcDbCircle
 62
2
  6
CONTINUOUS
 10
-0.489062925
 20
3.9167362148
 40
0.1
  0
MTEXT
  5
32C
100
AcDbEntity
  8
SYMBOLS
100
AcDbMText
 62
2
  6
CONTINUOUS
  7
TEXTSTYLE_6
 71
1
 72
1
 10
-0.5910383509
 20
3.9623457303
 30
0.0
 11
1.0
 21
0.0
 31
0.0
 44
0.9
  1
130
 40
0.09
 41
0.2025
  0
ENDBLK
  5
32D
100
AcDbEntity
  8
0
  6
BYBLOCK
 62
0
100
AcDbBlockEnd
  0
BLOCK
  5
32E
100
AcDbEntity
  8
SYMBOLS
100
AcDbBlockBegin
 62
2
  6
CONTINUOUS
  2
DN_BL129
 70
64
 10
-0.7097883509
 20
3.9167362148
  3
DN_BL129
  1

  0
CIRCLE
  5
32F
100
AcDbEntity
  8
SYMBOLS
100
AcDbCircle
 62
2
  6
CONTINUOUS
 10
-0.709062925
 20
3.9167362148
 40
0.1
  0
MTEXT
  5
330
100
AcDbEntity
  8
SYMBOLS
100
AcDbMText
 62
2
  6
CONTINUOUS
  7
TEXTSTYLE_6
 71
1
 72
1
 10
-0.8110383509
 20
3.9623457303
 30
0.0
 11
1.0
 21
0.0
 31
0.0
 44
0.9
  1
129
 40
0.09
 41
0.2025
  0
ENDBLK
  5
331
100
AcDbEntity
  8
0
  6
BYBLOCK
 62
0
100
AcDbBlockEnd
  0
BLOCK
  5
332
100
AcDbEntity
  8
SYMBOLS
100
AcDbBlockBegin
 62
2
  6
CONTINUOUS
  2
DN_BL128
 70
64
 10
-0.9297883509
 20
3.9167362148
  3
DN_BL128
  1

  0
CIRCLE
  5
333
100
AcDbEntity
  8
SYMBOLS
100
AcDbCircle
 62
2
  6
CONTINUOUS
 10
-0.929062925
 20
3.9167362148
 40
0.1
  0
MTEXT
  5
334
100
AcDbEntity
  8
SYMBOLS
100
AcDbMText
 62
2
  6
CONTINUOUS
  7
TEXTSTYLE_6
 71
1
 72
1
 10
-1.0310383509
 20
3.9623457303
 30
0.0
 11
1.0
 21
0.0
 31
0.0
 44
0.9
  1
128
 40
0.09
 41
0.2025
  0
ENDBLK
  5
335
100
AcDbEntity
  8
0
  6
BYBLOCK
 62
0
100
AcDbBlockEnd
  0
BLOCK
  5
336
100
AcDbEntity
  8
SYMBOLS
100
AcDbBlockBegin
 62
2
  6
CONTINUOUS
  2
DN_BL127
 70
64
 10
-1.1497883509
 20
3.9167362148
  3
DN_BL127
  1

  0
CIRCLE
  5
337
100
AcDbEntity
  8
SYMBOLS
100
AcDbCircle
 62
2
  6
CONTINUOUS
 10
-1.149062925
 20
3.9167362148
 40
0.1
  0
MTEXT
  5
338
100
AcDbEntity
  8
SYMBOLS
100
AcDbMText
 62
2
  6
CONTINUOUS
  7
TEXTSTYLE_6
 71
1
 72
1
 10
-1.2510383509
 20
3.9623457303
 30
0.0
 11
1.0
 21
0.0
 31
0.0
 44
0.9
  1
127
 40
0.09
 41
0.2025
  0
ENDBLK
  5
339
100
AcDbEntity
  8
0
  6
BYBLOCK
 62
0
100
AcDbBlockEnd
  0
BLOCK
  5
33A
100
AcDbEntity
  8
SYMBOLS
100
AcDbBlockBegin
 62
2
  6
CONTINUOUS
  2
DN_BL126
 70
64
 10
-1.3697883509
 20
3.9167362148
  3
DN_BL126
  1

  0
CIRCLE
  5
33B
100
AcDbEntity
  8
SYMBOLS
100
AcDbCircle
 62
2
  6
CONTINUOUS
 10
-1.369062925
 20
3.9167362148
 40
0.1
  0
MTEXT
  5
33C
100
AcDbEntity
  8
SYMBOLS
100
AcDbMText
 62
2
  6
CONTINUOUS
  7
TEXTSTYLE_6
 71
1
 72
1
 10
-1.4710383509
 20
3.9623457303
 30
0.0
 11
1.0
 21
0.0
 31
0.0
 44
0.9
  1
126
 40
0.09
 41
0.2025
  0
ENDBLK
  5
33D
100
AcDbEntity
  8
0
  6
BYBLOCK
 62
0
100
AcDbBlockEnd
  0
BLOCK
  5
33E
100
AcDbEntity
  8
SYMBOLS
100
AcDbBlockBegin
 62
2
  6
CONTINUOUS
  2
DN_BL125
 70
64
 10
-1.5897883509
 20
3.9167362148
  3
DN_BL125
  1

  0
CIRCLE
  5
33F
100
AcDbEntity
  8
SYMBOLS
100
AcDbCircle
 62
2
  6
CONTINUOUS
 10
-1.589062925
 20
3.9167362148
 40
0.1
  0
MTEXT
  5
340
100
AcDbEntity
  8
SYMBOLS
100
AcDbMText
 62
2
  6
CONTINUOUS
  7
TEXTSTYLE_6
 71
1
 72
1
 10
-1.6910383509
 20
3.9623457303
 30
0.0
 11
1.0
 21
0.0
 31
0.0
 44
0.9
  1
125
 40
0.09
 41
0.2025
  0
ENDBLK
  5
341
100
AcDbEntity
  8
0
  6
BYBLOCK
 62
0
100
AcDbBlockEnd
  0
BLOCK
  5
342
100
AcDbEntity
  8
SYMBOLS
100
AcDbBlockBegin
 62
2
  6
CONTINUOUS
  2
DN_BL124
 70
64
 10
-1.8097883509
 20
3.9167362148
  3
DN_BL124
  1

  0
CIRCLE
  5
343
100
AcDbEntity
  8
SYMBOLS
100
AcDbCircle
 62
2
  6
CONTINUOUS
 10
-1.809062925
 20
3.9167362148
 40
0.1
  0
MTEXT
  5
344
100
AcDbEntity
  8
SYMBOLS
100
AcDbMText
 62
2
  6
CONTINUOUS
  7
TEXTSTYLE_6
 71
1
 72
1
 10
-1.9110383509
 20
3.9623457303
 30
0.0
 11
1.0
 21
0.0
 31
0.0
 44
0.9
  1
124
 40
0.09
 41
0.2025
  0
ENDBLK
  5
345
100
AcDbEntity
  8
0
  6
BYBLOCK
 62
0
100
AcDbBlockEnd
  0
BLOCK
  5
346
100
AcDbEntity
  8
SYMBOLS
100
AcDbBlockBegin
 62
2
  6
CONTINUOUS
  2
DN_BL123
 70
64
 10
-2.0297883509
 20
3.9167362148
  3
DN_BL123
  1

  0
CIRCLE
  5
347
100
AcDbEntity
  8
SYMBOLS
100
AcDbCircle
 62
2
  6
CONTINUOUS
 10
-2.029062925
 20
3.9167362148
 40
0.1
  0
MTEXT
  5
348
100
AcDbEntity
  8
SYMBOLS
100
AcDbMText
 62
2
  6
CONTINUOUS
  7
TEXTSTYLE_6
 71
1
 72
1
 10
-2.1310383509
 20
3.9623457303
 30
0.0
 11
1.0
 21
0.0
 31
0.0
 44
0.9
  1
123
 40
0.09
 41
0.2025
  0
ENDBLK
  5
349
100
AcDbEntity
  8
0
  6
BYBLOCK
 62
0
100
AcDbBlockEnd
  0
BLOCK
  5
34A
100
AcDbEntity
  8
SYMBOLS
100
AcDbBlockBegin
 62
2
  6
CONTINUOUS
  2
DN_BL122
 70
64
 10
-2.2497883509
 20
3.9167362148
  3
DN_BL122
  1

  0
CIRCLE
  5
34B
100
AcDbEntity
  8
SYMBOLS
100
AcDbCircle
 62
2
  6
CONTINUOUS
 10
-2.249062925
 20
3.9167362148
 40
0.1
  0
MTEXT
  5
34C
100
AcDbEntity
  8
SYMBOLS
100
AcDbMText
 62
2
  6
CONTINUOUS
  7
TEXTSTYLE_6
 71
1
 72
1
 10
-2.3510383509
 20
3.9623457303
 30
0.0
 11
1.0
 21
0.0
 31
0.0
 44
0.9
  1
122
 40
0.09
 41
0.2025
  0
ENDBLK
  5
34D
100
AcDbEntity
  8
0
  6
BYBLOCK
 62
0
100
AcDbBlockEnd
  0
BLOCK
  5
34E
100
AcDbEntity
  8
SYMBOLS
100
AcDbBlockBegin
 62
2
  6
CONTINUOUS
  2
DN_BL121
 70
64
 10
-2.4697883509
 20
3.9167362148
  3
DN_BL121
  1

  0
CIRCLE
  5
34F
100
AcDbEntity
  8
SYMBOLS
100
AcDbCircle
 62
2
  6
CONTINUOUS
 10
-2.469062925
 20
3.9167362148
 40
0.1
  0
MTEXT
  5
350
100
AcDbEntity
  8
SYMBOLS
100
AcDbMText
 62
2
  6
CONTINUOUS
  7
TEXTSTYLE_6
 71
1
 72
1
 10
-2.5710383509
 20
3.9623457303
 30
0.0
 11
1.0
 21
0.0
 31
0.0
 44
0.9
  1
121
 40
0.09
 41
0.2025
  0
ENDBLK
  5
351
100
AcDbEntity
  8
0
  6
BYBLOCK
 62
0
100
AcDbBlockEnd
  0
BLOCK
  5
352
100
AcDbEntity
  8
SYMBOLS
100
AcDbBlockBegin
 62
2
  6
CONTINUOUS
  2
DN_BL120
 70
64
 10
-0.4897883509
 20
3.6967362148
  3
DN_BL120
  1

  0
CIRCLE
  5
353
100
AcDbEntity
  8
SYMBOLS
100
AcDbCircle
 62
2
  6
CONTINUOUS
 10
-0.489062925
 20
3.6967362148
 40
0.1
  0
MTEXT
  5
354
100
AcDbEntity
  8
SYMBOLS
100
AcDbMText
 62
2
  6
CONTINUOUS
  7
TEXTSTYLE_6
 71
1
 72
1
 10
-0.5910383509
 20
3.7423457303
 30
0.0
 11
1.0
 21
0.0
 31
0.0
 44
0.9
  1
120
 40
0.09
 41
0.2025
  0
ENDBLK
  5
355
100
AcDbEntity
  8
0
  6
BYBLOCK
 62
0
100
AcDbBlockEnd
  0
BLOCK
  5
356
100
AcDbEntity
  8
SYMBOLS
100
AcDbBlockBegin
 62
2
  6
CONTINUOUS
  2
DN_BL119
 70
64
 10
-0.7097883509
 20
3.6967362148
  3
DN_BL119
  1

  0
CIRCLE
  5
357
100
AcDbEntity
  8
SYMBOLS
100
AcDbCircle
 62
2
  6
CONTINUOUS
 10
-0.709062925
 20
3.6967362148
 40
0.1
  0
MTEXT
  5
358
100
AcDbEntity
  8
SYMBOLS
100
AcDbMText
 62
2
  6
CONTINUOUS
  7
TEXTSTYLE_6
 71
1
 72
1
 10
-0.8110383509
 20
3.7423457303
 30
0.0
 11
1.0
 21
0.0
 31
0.0
 44
0.9
  1
119
 40
0.09
 41
0.2025
  0
ENDBLK
  5
359
100
AcDbEntity
  8
0
  6
BYBLOCK
 62
0
100
AcDbBlockEnd
  0
BLOCK
  5
35A
100
AcDbEntity
  8
SYMBOLS
100
AcDbBlockBegin
 62
2
  6
CONTINUOUS
  2
DN_BL118
 70
64
 10
-0.9297883509
 20
3.6967362148
  3
DN_BL118
  1

  0
CIRCLE
  5
35B
100
AcDbEntity
  8
SYMBOLS
100
AcDbCircle
 62
2
  6
CONTINUOUS
 10
-0.929062925
 20
3.6967362148
 40
0.1
  0
MTEXT
  5
35C
100
AcDbEntity
  8
SYMBOLS
100
AcDbMText
 62
2
  6
CONTINUOUS
  7
TEXTSTYLE_6
 71
1
 72
1
 10
-1.0310383509
 20
3.7423457303
 30
0.0
 11
1.0
 21
0.0
 31
0.0
 44
0.9
  1
118
 40
0.09
 41
0.2025
  0
ENDBLK
  5
35D
100
AcDbEntity
  8
0
  6
BYBLOCK
 62
0
100
AcDbBlockEnd
  0
BLOCK
  5
35E
100
AcDbEntity
  8
SYMBOLS
100
AcDbBlockBegin
 62
2
  6
CONTINUOUS
  2
DN_BL117
 70
64
 10
-1.1497883509
 20
3.6967362148
  3
DN_BL117
  1

  0
CIRCLE
  5
35F
100
AcDbEntity
  8
SYMBOLS
100
AcDbCircle
 62
2
  6
CONTINUOUS
 10
-1.149062925
 20
3.6967362148
 40
0.1
  0
MTEXT
  5
360
100
AcDbEntity
  8
SYMBOLS
100
AcDbMText
 62
2
  6
CONTINUOUS
  7
TEXTSTYLE_6
 71
1
 72
1
 10
-1.2510383509
 20
3.7423457303
 30
0.0
 11
1.0
 21
0.0
 31
0.0
 44
0.9
  1
117
 40
0.09
 41
0.2025
  0
ENDBLK
  5
361
100
AcDbEntity
  8
0
  6
BYBLOCK
 62
0
100
AcDbBlockEnd
  0
BLOCK
  5
362
100
AcDbEntity
  8
SYMBOLS
100
AcDbBlockBegin
 62
2
  6
CONTINUOUS
  2
DN_BL116
 70
64
 10
-1.3697883509
 20
3.6967362148
  3
DN_BL116
  1

  0
CIRCLE
  5
363
100
AcDbEntity
  8
SYMBOLS
100
AcDbCircle
 62
2
  6
CONTINUOUS
 10
-1.369062925
 20
3.6967362148
 40
0.1
  0
MTEXT
  5
364
100
AcDbEntity
  8
SYMBOLS
100
AcDbMText
 62
2
  6
CONTINUOUS
  7
TEXTSTYLE_6
 71
1
 72
1
 10
-1.4710383509
 20
3.7423457303
 30
0.0
 11
1.0
 21
0.0
 31
0.0
 44
0.9
  1
116
 40
0.09
 41
0.2025
  0
ENDBLK
  5
365
100
AcDbEntity
  8
0
  6
BYBLOCK
 62
0
100
AcDbBlockEnd
  0
BLOCK
  5
366
100
AcDbEntity
  8
SYMBOLS
100
AcDbBlockBegin
 62
2
  6
CONTINUOUS
  2
DN_BL115
 70
64
 10
-1.5897883509
 20
3.6967362148
  3
DN_BL115
  1

  0
CIRCLE
  5
367
100
AcDbEntity
  8
SYMBOLS
100
AcDbCircle
 62
2
  6
CONTINUOUS
 10
-1.589062925
 20
3.6967362148
 40
0.1
  0
MTEXT
  5
368
100
AcDbEntity
  8
SYMBOLS
100
AcDbMText
 62
2
  6
CONTINUOUS
  7
TEXTSTYLE_6
 71
1
 72
1
 10
-1.6910383509
 20
3.7423457303
 30
0.0
 11
1.0
 21
0.0
 31
0.0
 44
0.9
  1
115
 40
0.09
 41
0.2025
  0
ENDBLK
  5
369
100
AcDbEntity
  8
0
  6
BYBLOCK
 62
0
100
AcDbBlockEnd
  0
BLOCK
  5
36A
100
AcDbEntity
  8
SYMBOLS
100
AcDbBlockBegin
 62
2
  6
CONTINUOUS
  2
DN_BL114
 70
64
 10
-1.8097883509
 20
3.6967362148
  3
DN_BL114
  1

  0
CIRCLE
  5
36B
100
AcDbEntity
  8
SYMBOLS
100
AcDbCircle
 62
2
  6
CONTINUOUS
 10
-1.809062925
 20
3.6967362148
 40
0.1
  0
MTEXT
  5
36C
100
AcDbEntity
  8
SYMBOLS
100
AcDbMText
 62
2
  6
CONTINUOUS
  7
TEXTSTYLE_6
 71
1
 72
1
 10
-1.9110383509
 20
3.7423457303
 30
0.0
 11
1.0
 21
0.0
 31
0.0
 44
0.9
  1
114
 40
0.09
 41
0.2025
  0
ENDBLK
  5
36D
100
AcDbEntity
  8
0
  6
BYBLOCK
 62
0
100
AcDbBlockEnd
  0
BLOCK
  5
36E
100
AcDbEntity
  8
SYMBOLS
100
AcDbBlockBegin
 62
2
  6
CONTINUOUS
  2
DN_BL113
 70
64
 10
-2.0297883509
 20
3.6967362148
  3
DN_BL113
  1

  0
CIRCLE
  5
36F
100
AcDbEntity
  8
SYMBOLS
100
AcDbCircle
 62
2
  6
CONTINUOUS
 10
-2.029062925
 20
3.6967362148
 40
0.1
  0
MTEXT
  5
370
100
AcDbEntity
  8
SYMBOLS
100
AcDbMText
 62
2
  6
CONTINUOUS
  7
TEXTSTYLE_6
 71
1
 72
1
 10
-2.1310383509
 20
3.7423457303
 30
0.0
 11
1.0
 21
0.0
 31
0.0
 44
0.9
  1
113
 40
0.09
 41
0.2025
  0
ENDBLK
  5
371
100
AcDbEntity
  8
0
  6
BYBLOCK
 62
0
100
AcDbBlockEnd
  0
BLOCK
  5
372
100
AcDbEntity
  8
SYMBOLS
100
AcDbBlockBegin
 62
2
  6
CONTINUOUS
  2
DN_BL112
 70
64
 10
-2.2497883509
 20
3.6967362148
  3
DN_BL112
  1

  0
CIRCLE
  5
373
100
AcDbEntity
  8
SYMBOLS
100
AcDbCircle
 62
2
  6
CONTINUOUS
 10
-2.249062925
 20
3.6967362148
 40
0.1
  0
MTEXT
  5
374
100
AcDbEntity
  8
SYMBOLS
100
AcDbMText
 62
2
  6
CONTINUOUS
  7
TEXTSTYLE_6
 71
1
 72
1
 10
-2.3510383509
 20
3.7423457303
 30
0.0
 11
1.0
 21
0.0
 31
0.0
 44
0.9
  1
112
 40
0.09
 41
0.2025
  0
ENDBLK
  5
375
100
AcDbEntity
  8
0
  6
BYBLOCK
 62
0
100
AcDbBlockEnd
  0
BLOCK
  5
376
100
AcDbEntity
  8
SYMBOLS
100
AcDbBlockBegin
 62
2
  6
CONTINUOUS
  2
DN_BL111
 70
64
 10
-2.4697883509
 20
3.6967362148
  3
DN_BL111
  1

  0
CIRCLE
  5
377
100
AcDbEntity
  8
SYMBOLS
100
AcDbCircle
 62
2
  6
CONTINUOUS
 10
-2.469062925
 20
3.6967362148
 40
0.1
  0
MTEXT
  5
378
100
AcDbEntity
  8
SYMBOLS
100
AcDbMText
 62
2
  6
CONTINUOUS
  7
TEXTSTYLE_6
 71
1
 72
1
 10
-2.5710383509
 20
3.7423457303
 30
0.0
 11
1.0
 21
0.0
 31
0.0
 44
0.9
  1
111
 40
0.09
 41
0.2025
  0
ENDBLK
  5
379
100
AcDbEntity
  8
0
  6
BYBLOCK
 62
0
100
AcDbBlockEnd
  0
BLOCK
  5
37A
100
AcDbEntity
  8
SYMBOLS
100
AcDbBlockBegin
 62
2
  6
CONTINUOUS
  2
DN_BL110
 70
64
 10
-0.4897883509
 20
3.4767362148
  3
DN_BL110
  1

  0
CIRCLE
  5
37B
100
AcDbEntity
  8
SYMBOLS
100
AcDbCircle
 62
2
  6
CONTINUOUS
 10
-0.489062925
 20
3.4767362148
 40
0.1
  0
MTEXT
  5
37C
100
AcDbEntity
  8
SYMBOLS
100
AcDbMText
 62
2
  6
CONTINUOUS
  7
TEXTSTYLE_6
 71
1
 72
1
 10
-0.5910383509
 20
3.5223457303
 30
0.0
 11
1.0
 21
0.0
 31
0.0
 44
0.9
  1
110
 40
0.09
 41
0.2025
  0
ENDBLK
  5
37D
100
AcDbEntity
  8
0
  6
BYBLOCK
 62
0
100
AcDbBlockEnd
  0
BLOCK
  5
37E
100
AcDbEntity
  8
SYMBOLS
100
AcDbBlockBegin
 62
2
  6
CONTINUOUS
  2
DN_BL109
 70
64
 10
-0.7097883509
 20
3.4767362148
  3
DN_BL109
  1

  0
CIRCLE
  5
37F
100
AcDbEntity
  8
SYMBOLS
100
AcDbCircle
 62
2
  6
CONTINUOUS
 10
-0.709062925
 20
3.4767362148
 40
0.1
  0
MTEXT
  5
380
100
AcDbEntity
  8
SYMBOLS
100
AcDbMText
 62
2
  6
CONTINUOUS
  7
TEXTSTYLE_6
 71
1
 72
1
 10
-0.8110383509
 20
3.5223457303
 30
0.0
 11
1.0
 21
0.0
 31
0.0
 44
0.9
  1
109
 40
0.09
 41
0.2025
  0
ENDBLK
  5
381
100
AcDbEntity
  8
0
  6
BYBLOCK
 62
0
100
AcDbBlockEnd
  0
BLOCK
  5
382
100
AcDbEntity
  8
SYMBOLS
100
AcDbBlockBegin
 62
2
  6
CONTINUOUS
  2
DN_BL108
 70
64
 10
-0.9297883509
 20
3.4767362148
  3
DN_BL108
  1

  0
CIRCLE
  5
383
100
AcDbEntity
  8
SYMBOLS
100
AcDbCircle
 62
2
  6
CONTINUOUS
 10
-0.929062925
 20
3.4767362148
 40
0.1
  0
MTEXT
  5
384
100
AcDbEntity
  8
SYMBOLS
100
AcDbMText
 62
2
  6
CONTINUOUS
  7
TEXTSTYLE_6
 71
1
 72
1
 10
-1.0310383509
 20
3.5223457303
 30
0.0
 11
1.0
 21
0.0
 31
0.0
 44
0.9
  1
108
 40
0.09
 41
0.2025
  0
ENDBLK
  5
385
100
AcDbEntity
  8
0
  6
BYBLOCK
 62
0
100
AcDbBlockEnd
  0
BLOCK
  5
386
100
AcDbEntity
  8
SYMBOLS
100
AcDbBlockBegin
 62
2
  6
CONTINUOUS
  2
DN_BL107
 70
64
 10
-1.1497883509
 20
3.4767362148
  3
DN_BL107
  1

  0
CIRCLE
  5
387
100
AcDbEntity
  8
SYMBOLS
100
AcDbCircle
 62
2
  6
CONTINUOUS
 10
-1.149062925
 20
3.4767362148
 40
0.1
  0
MTEXT
  5
388
100
AcDbEntity
  8
SYMBOLS
100
AcDbMText
 62
2
  6
CONTINUOUS
  7
TEXTSTYLE_6
 71
1
 72
1
 10
-1.2510383509
 20
3.5223457303
 30
0.0
 11
1.0
 21
0.0
 31
0.0
 44
0.9
  1
107
 40
0.09
 41
0.2025
  0
ENDBLK
  5
389
100
AcDbEntity
  8
0
  6
BYBLOCK
 62
0
100
AcDbBlockEnd
  0
BLOCK
  5
38A
100
AcDbEntity
  8
SYMBOLS
100
AcDbBlockBegin
 62
2
  6
CONTINUOUS
  2
DN_BL106
 70
64
 10
-1.3697883509
 20
3.4767362148
  3
DN_BL106
  1

  0
CIRCLE
  5
38B
100
AcDbEntity
  8
SYMBOLS
100
AcDbCircle
 62
2
  6
CONTINUOUS
 10
-1.369062925
 20
3.4767362148
 40
0.1
  0
MTEXT
  5
38C
100
AcDbEntity
  8
SYMBOLS
100
AcDbMText
 62
2
  6
CONTINUOUS
  7
TEXTSTYLE_6
 71
1
 72
1
 10
-1.4710383509
 20
3.5223457303
 30
0.0
 11
1.0
 21
0.0
 31
0.0
 44
0.9
  1
106
 40
0.09
 41
0.2025
  0
ENDBLK
  5
38D
100
AcDbEntity
  8
0
  6
BYBLOCK
 62
0
100
AcDbBlockEnd
  0
BLOCK
  5
38E
100
AcDbEntity
  8
SYMBOLS
100
AcDbBlockBegin
 62
2
  6
CONTINUOUS
  2
DN_BL105
 70
64
 10
-1.5897883509
 20
3.4767362148
  3
DN_BL105
  1

  0
CIRCLE
  5
38F
100
AcDbEntity
  8
SYMBOLS
100
AcDbCircle
 62
2
  6
CONTINUOUS
 10
-1.589062925
 20
3.4767362148
 40
0.1
  0
MTEXT
  5
390
100
AcDbEntity
  8
SYMBOLS
100
AcDbMText
 62
2
  6
CONTINUOUS
  7
TEXTSTYLE_6
 71
1
 72
1
 10
-1.6910383509
 20
3.5223457303
 30
0.0
 11
1.0
 21
0.0
 31
0.0
 44
0.9
  1
105
 40
0.09
 41
0.2025
  0
ENDBLK
  5
391
100
AcDbEntity
  8
0
  6
BYBLOCK
 62
0
100
AcDbBlockEnd
  0
BLOCK
  5
392
100
AcDbEntity
  8
SYMBOLS
100
AcDbBlockBegin
 62
2
  6
CONTINUOUS
  2
DN_BL104
 70
64
 10
-1.8097883509
 20
3.4767362148
  3
DN_BL104
  1

  0
CIRCLE
  5
393
100
AcDbEntity
  8
SYMBOLS
100
AcDbCircle
 62
2
  6
CONTINUOUS
 10
-1.809062925
 20
3.4767362148
 40
0.1
  0
MTEXT
  5
394
100
AcDbEntity
  8
SYMBOLS
100
AcDbMText
 62
2
  6
CONTINUOUS
  7
TEXTSTYLE_6
 71
1
 72
1
 10
-1.9110383509
 20
3.5223457303
 30
0.0
 11
1.0
 21
0.0
 31
0.0
 44
0.9
  1
104
 40
0.09
 41
0.2025
  0
ENDBLK
  5
395
100
AcDbEntity
  8
0
  6
BYBLOCK
 62
0
100
AcDbBlockEnd
  0
BLOCK
  5
396
100
AcDbEntity
  8
SYMBOLS
100
AcDbBlockBegin
 62
2
  6
CONTINUOUS
  2
DN_BL103
 70
64
 10
-2.0297883509
 20
3.4767362148
  3
DN_BL103
  1

  0
CIRCLE
  5
397
100
AcDbEntity
  8
SYMBOLS
100
AcDbCircle
 62
2
  6
CONTINUOUS
 10
-2.029062925
 20
3.4767362148
 40
0.1
  0
MTEXT
  5
398
100
AcDbEntity
  8
SYMBOLS
100
AcDbMText
 62
2
  6
CONTINUOUS
  7
TEXTSTYLE_6
 71
1
 72
1
 10
-2.1310383509
 20
3.5223457303
 30
0.0
 11
1.0
 21
0.0
 31
0.0
 44
0.9
  1
103
 40
0.09
 41
0.2025
  0
ENDBLK
  5
399
100
AcDbEntity
  8
0
  6
BYBLOCK
 62
0
100
AcDbBlockEnd
  0
BLOCK
  5
39A
100
AcDbEntity
  8
SYMBOLS
100
AcDbBlockBegin
 62
2
  6
CONTINUOUS
  2
DN_BL102
 70
64
 10
-2.2497883509
 20
3.4767362148
  3
DN_BL102
  1

  0
CIRCLE
  5
39B
100
AcDbEntity
  8
SYMBOLS
100
AcDbCircle
 62
2
  6
CONTINUOUS
 10
-2.249062925
 20
3.4767362148
 40
0.1
  0
MTEXT
  5
39C
100
AcDbEntity
  8
SYMBOLS
100
AcDbMText
 62
2
  6
CONTINUOUS
  7
TEXTSTYLE_6
 71
1
 72
1
 10
-2.3510383509
 20
3.5223457303
 30
0.0
 11
1.0
 21
0.0
 31
0.0
 44
0.9
  1
102
 40
0.09
 41
0.2025
  0
ENDBLK
  5
39D
100
AcDbEntity
  8
0
  6
BYBLOCK
 62
0
100
AcDbBlockEnd
  0
BLOCK
  5
39E
100
AcDbEntity
  8
SYMBOLS
100
AcDbBlockBegin
 62
2
  6
CONTINUOUS
  2
DN_BL101
 70
64
 10
-2.4697883509
 20
3.4767362148
  3
DN_BL101
  1

  0
CIRCLE
  5
39F
100
AcDbEntity
  8
SYMBOLS
100
AcDbCircle
 62
2
  6
CONTINUOUS
 10
-2.469062925
 20
3.4767362148
 40
0.1
  0
MTEXT
  5
3A0
100
AcDbEntity
  8
SYMBOLS
100
AcDbMText
 62
2
  6
CONTINUOUS
  7
TEXTSTYLE_6
 71
1
 72
1
 10
-2.5710383509
 20
3.5223457303
 30
0.0
 11
1.0
 21
0.0
 31
0.0
 44
0.9
  1
101
 40
0.09
 41
0.2025
  0
ENDBLK
  5
3A1
100
AcDbEntity
  8
0
  6
BYBLOCK
 62
0
100
AcDbBlockEnd
  0
BLOCK
  5
3A2
100
AcDbEntity
  8
SYMBOLS
100
AcDbBlockBegin
 62
2
  6
CONTINUOUS
  2
DN_BL100
 70
64
 10
-0.4897883509
 20
2.7567362148
  3
DN_BL100
  1

  0
CIRCLE
  5
3A3
100
AcDbEntity
  8
SYMBOLS
100
AcDbCircle
 62
2
  6
CONTINUOUS
 10
-0.489062925
 20
2.7567362148
 40
0.1
  0
MTEXT
  5
3A4
100
AcDbEntity
  8
SYMBOLS
100
AcDbMText
 62
2
  6
CONTINUOUS
  7
TEXTSTYLE_6
 71
1
 72
1
 10
-0.5910383509
 20
2.8023457303
 30
0.0
 11
1.0
 21
0.0
 31
0.0
 44
0.9
  1
100
 40
0.09
 41
0.2025
  0
ENDBLK
  5
3A5
100
AcDbEntity
  8
0
  6
BYBLOCK
 62
0
100
AcDbBlockEnd
  0
BLOCK
  5
3A6
100
AcDbEntity
  8
SYMBOLS
100
AcDbBlockBegin
 62
2
  6
CONTINUOUS
  2
DN_BL99
 70
64
 10
-0.709062925
 20
2.7567362148
  3
DN_BL99
  1

  0
CIRCLE
  5
3A7
100
AcDbEntity
  8
SYMBOLS
100
AcDbCircle
 62
2
  6
CONTINUOUS
 10
-0.709062925
 20
2.7567362148
 40
0.1
  0
MTEXT
  5
3A8
100
AcDbEntity
  8
SYMBOLS
100
AcDbMText
 62
2
  6
CONTINUOUS
  7
TEXTSTYLE_6
 71
1
 72
1
 10
-0.7772883509
 20
2.8023457303
 30
0.0
 11
1.0
 21
0.0
 31
0.0
 44
0.9
  1
99
 40
0.09
 41
0.135
  0
ENDBLK
  5
3A9
100
AcDbEntity
  8
0
  6
BYBLOCK
 62
0
100
AcDbBlockEnd
  0
BLOCK
  5
3AA
100
AcDbEntity
  8
SYMBOLS
100
AcDbBlockBegin
 62
2
  6
CONTINUOUS
  2
DN_BL98
 70
64
 10
-0.929062925
 20
2.7567362148
  3
DN_BL98
  1

  0
CIRCLE
  5
3AB
100
AcDbEntity
  8
SYMBOLS
100
AcDbCircle
 62
2
  6
CONTINUOUS
 10
-0.929062925
 20
2.7567362148
 40
0.1
  0
MTEXT
  5
3AC
100
AcDbEntity
  8
SYMBOLS
100
AcDbMText
 62
2
  6
CONTINUOUS
  7
TEXTSTYLE_6
 71
1
 72
1
 10
-0.9972883509
 20
2.8023457303
 30
0.0
 11
1.0
 21
0.0
 31
0.0
 44
0.9
  1
98
 40
0.09
 41
0.135
  0
ENDBLK
  5
3AD
100
AcDbEntity
  8
0
  6
BYBLOCK
 62
0
100
AcDbBlockEnd
  0
BLOCK
  5
3AE
100
AcDbEntity
  8
SYMBOLS
100
AcDbBlockBegin
 62
2
  6
CONTINUOUS
  2
DN_BL97
 70
64
 10
-1.149062925
 20
2.7567362148
  3
DN_BL97
  1

  0
CIRCLE
  5
3AF
100
AcDbEntity
  8
SYMBOLS
100
AcDbCircle
 62
2
  6
CONTINUOUS
 10
-1.149062925
 20
2.7567362148
 40
0.1
  0
MTEXT
  5
3B0
100
AcDbEntity
  8
SYMBOLS
100
AcDbMText
 62
2
  6
CONTINUOUS
  7
TEXTSTYLE_6
 71
1
 72
1
 10
-1.2172883509
 20
2.8023457303
 30
0.0
 11
1.0
 21
0.0
 31
0.0
 44
0.9
  1
97
 40
0.09
 41
0.135
  0
ENDBLK
  5
3B1
100
AcDbEntity
  8
0
  6
BYBLOCK
 62
0
100
AcDbBlockEnd
  0
BLOCK
  5
3B2
100
AcDbEntity
  8
SYMBOLS
100
AcDbBlockBegin
 62
2
  6
CONTINUOUS
  2
DN_BL96
 70
64
 10
-1.369062925
 20
2.7567362148
  3
DN_BL96
  1

  0
CIRCLE
  5
3B3
100
AcDbEntity
  8
SYMBOLS
100
AcDbCircle
 62
2
  6
CONTINUOUS
 10
-1.369062925
 20
2.7567362148
 40
0.1
  0
MTEXT
  5
3B4
100
AcDbEntity
  8
SYMBOLS
100
AcDbMText
 62
2
  6
CONTINUOUS
  7
TEXTSTYLE_6
 71
1
 72
1
 10
-1.4372883509
 20
2.8023457303
 30
0.0
 11
1.0
 21
0.0
 31
0.0
 44
0.9
  1
96
 40
0.09
 41
0.135
  0
ENDBLK
  5
3B5
100
AcDbEntity
  8
0
  6
BYBLOCK
 62
0
100
AcDbBlockEnd
  0
BLOCK
  5
3B6
100
AcDbEntity
  8
SYMBOLS
100
AcDbBlockBegin
 62
2
  6
CONTINUOUS
  2
DN_BL95
 70
64
 10
-1.589062925
 20
2.7567362148
  3
DN_BL95
  1

  0
CIRCLE
  5
3B7
100
AcDbEntity
  8
SYMBOLS
100
AcDbCircle
 62
2
  6
CONTINUOUS
 10
-1.589062925
 20
2.7567362148
 40
0.1
  0
MTEXT
  5
3B8
100
AcDbEntity
  8
SYMBOLS
100
AcDbMText
 62
2
  6
CONTINUOUS
  7
TEXTSTYLE_6
 71
1
 72
1
 10
-1.6572883509
 20
2.8023457303
 30
0.0
 11
1.0
 21
0.0
 31
0.0
 44
0.9
  1
95
 40
0.09
 41
0.135
  0
ENDBLK
  5
3B9
100
AcDbEntity
  8
0
  6
BYBLOCK
 62
0
100
AcDbBlockEnd
  0
BLOCK
  5
3BA
100
AcDbEntity
  8
SYMBOLS
100
AcDbBlockBegin
 62
2
  6
CONTINUOUS
  2
DN_BL94
 70
64
 10
-1.809062925
 20
2.7567362148
  3
DN_BL94
  1

  0
CIRCLE
  5
3BB
100
AcDbEntity
  8
SYMBOLS
100
AcDbCircle
 62
2
  6
CONTINUOUS
 10
-1.809062925
 20
2.7567362148
 40
0.1
  0
MTEXT
  5
3BC
100
AcDbEntity
  8
SYMBOLS
100
AcDbMText
 62
2
  6
CONTINUOUS
  7
TEXTSTYLE_6
 71
1
 72
1
 10
-1.8772883509
 20
2.8023457303
 30
0.0
 11
1.0
 21
0.0
 31
0.0
 44
0.9
  1
94
 40
0.09
 41
0.135
  0
ENDBLK
  5
3BD
100
AcDbEntity
  8
0
  6
BYBLOCK
 62
0
100
AcDbBlockEnd
  0
BLOCK
  5
3BE
100
AcDbEntity
  8
SYMBOLS
100
AcDbBlockBegin
 62
2
  6
CONTINUOUS
  2
DN_BL93
 70
64
 10
-2.029062925
 20
2.7567362148
  3
DN_BL93
  1

  0
CIRCLE
  5
3BF
100
AcDbEntity
  8
SYMBOLS
100
AcDbCircle
 62
2
  6
CONTINUOUS
 10
-2.029062925
 20
2.7567362148
 40
0.1
  0
MTEXT
  5
3C0
100
AcDbEntity
  8
SYMBOLS
100
AcDbMText
 62
2
  6
CONTINUOUS
  7
TEXTSTYLE_6
 71
1
 72
1
 10
-2.0972883509
 20
2.8023457303
 30
0.0
 11
1.0
 21
0.0
 31
0.0
 44
0.9
  1
93
 40
0.09
 41
0.135
  0
ENDBLK
  5
3C1
100
AcDbEntity
  8
0
  6
BYBLOCK
 62
0
100
AcDbBlockEnd
  0
BLOCK
  5
3C2
100
AcDbEntity
  8
SYMBOLS
100
AcDbBlockBegin
 62
2
  6
CONTINUOUS
  2
DN_BL92
 70
64
 10
-2.249062925
 20
2.7567362148
  3
DN_BL92
  1

  0
CIRCLE
  5
3C3
100
AcDbEntity
  8
SYMBOLS
100
AcDbCircle
 62
2
  6
CONTINUOUS
 10
-2.249062925
 20
2.7567362148
 40
0.1
  0
MTEXT
  5
3C4
100
AcDbEntity
  8
SYMBOLS
100
AcDbMText
 62
2
  6
CONTINUOUS
  7
TEXTSTYLE_6
 71
1
 72
1
 10
-2.3172883509
 20
2.8023457303
 30
0.0
 11
1.0
 21
0.0
 31
0.0
 44
0.9
  1
92
 40
0.09
 41
0.135
  0
ENDBLK
  5
3C5
100
AcDbEntity
  8
0
  6
BYBLOCK
 62
0
100
AcDbBlockEnd
  0
BLOCK
  5
3C6
100
AcDbEntity
  8
SYMBOLS
100
AcDbBlockBegin
 62
2
  6
CONTINUOUS
  2
DN_BL91
 70
64
 10
-2.469062925
 20
2.7567362148
  3
DN_BL91
  1

  0
CIRCLE
  5
3C7
100
AcDbEntity
  8
SYMBOLS
100
AcDbCircle
 62
2
  6
CONTINUOUS
 10
-2.469062925
 20
2.7567362148
 40
0.1
  0
MTEXT
  5
3C8
100
AcDbEntity
  8
SYMBOLS
100
AcDbMText
 62
2
  6
CONTINUOUS
  7
TEXTSTYLE_6
 71
1
 72
1
 10
-2.5372883509
 20
2.8023457303
 30
0.0
 11
1.0
 21
0.0
 31
0.0
 44
0.9
  1
91
 40
0.09
 41
0.135
  0
ENDBLK
  5
3C9
100
AcDbEntity
  8
0
  6
BYBLOCK
 62
0
100
AcDbBlockEnd
  0
BLOCK
  5
3CA
100
AcDbEntity
  8
SYMBOLS
100
AcDbBlockBegin
 62
2
  6
CONTINUOUS
  2
DN_BL90
 70
64
 10
-0.489062925
 20
2.5367362148
  3
DN_BL90
  1

  0
CIRCLE
  5
3CB
100
AcDbEntity
  8
SYMBOLS
100
AcDbCircle
 62
2
  6
CONTINUOUS
 10
-0.489062925
 20
2.5367362148
 40
0.1
  0
MTEXT
  5
3CC
100
AcDbEntity
  8
SYMBOLS
100
AcDbMText
 62
2
  6
CONTINUOUS
  7
TEXTSTYLE_6
 71
1
 72
1
 10
-0.5572883509
 20
2.5823457303
 30
0.0
 11
1.0
 21
0.0
 31
0.0
 44
0.9
  1
90
 40
0.09
 41
0.135
  0
ENDBLK
  5
3CD
100
AcDbEntity
  8
0
  6
BYBLOCK
 62
0
100
AcDbBlockEnd
  0
BLOCK
  5
3CE
100
AcDbEntity
  8
SYMBOLS
100
AcDbBlockBegin
 62
2
  6
CONTINUOUS
  2
DN_BL89
 70
64
 10
-0.709062925
 20
2.5367362148
  3
DN_BL89
  1

  0
CIRCLE
  5
3CF
100
AcDbEntity
  8
SYMBOLS
100
AcDbCircle
 62
2
  6
CONTINUOUS
 10
-0.709062925
 20
2.5367362148
 40
0.1
  0
MTEXT
  5
3D0
100
AcDbEntity
  8
SYMBOLS
100
AcDbMText
 62
2
  6
CONTINUOUS
  7
TEXTSTYLE_6
 71
1
 72
1
 10
-0.7772883509
 20
2.5823457303
 30
0.0
 11
1.0
 21
0.0
 31
0.0
 44
0.9
  1
89
 40
0.09
 41
0.135
  0
ENDBLK
  5
3D1
100
AcDbEntity
  8
0
  6
BYBLOCK
 62
0
100
AcDbBlockEnd
  0
BLOCK
  5
3D2
100
AcDbEntity
  8
SYMBOLS
100
AcDbBlockBegin
 62
2
  6
CONTINUOUS
  2
DN_BL88
 70
64
 10
-0.929062925
 20
2.5367362148
  3
DN_BL88
  1

  0
CIRCLE
  5
3D3
100
AcDbEntity
  8
SYMBOLS
100
AcDbCircle
 62
2
  6
CONTINUOUS
 10
-0.929062925
 20
2.5367362148
 40
0.1
  0
MTEXT
  5
3D4
100
AcDbEntity
  8
SYMBOLS
100
AcDbMText
 62
2
  6
CONTINUOUS
  7
TEXTSTYLE_6
 71
1
 72
1
 10
-0.9972883509
 20
2.5823457303
 30
0.0
 11
1.0
 21
0.0
 31
0.0
 44
0.9
  1
88
 40
0.09
 41
0.135
  0
ENDBLK
  5
3D5
100
AcDbEntity
  8
0
  6
BYBLOCK
 62
0
100
AcDbBlockEnd
  0
BLOCK
  5
3D6
100
AcDbEntity
  8
SYMBOLS
100
AcDbBlockBegin
 62
2
  6
CONTINUOUS
  2
DN_BL87
 70
64
 10
-1.149062925
 20
2.5367362148
  3
DN_BL87
  1

  0
CIRCLE
  5
3D7
100
AcDbEntity
  8
SYMBOLS
100
AcDbCircle
 62
2
  6
CONTINUOUS
 10
-1.149062925
 20
2.5367362148
 40
0.1
  0
MTEXT
  5
3D8
100
AcDbEntity
  8
SYMBOLS
100
AcDbMText
 62
2
  6
CONTINUOUS
  7
TEXTSTYLE_6
 71
1
 72
1
 10
-1.2172883509
 20
2.5823457303
 30
0.0
 11
1.0
 21
0.0
 31
0.0
 44
0.9
  1
87
 40
0.09
 41
0.135
  0
ENDBLK
  5
3D9
100
AcDbEntity
  8
0
  6
BYBLOCK
 62
0
100
AcDbBlockEnd
  0
BLOCK
  5
3DA
100
AcDbEntity
  8
SYMBOLS
100
AcDbBlockBegin
 62
2
  6
CONTINUOUS
  2
DN_BL86
 70
64
 10
-1.369062925
 20
2.5367362148
  3
DN_BL86
  1

  0
CIRCLE
  5
3DB
100
AcDbEntity
  8
SYMBOLS
100
AcDbCircle
 62
2
  6
CONTINUOUS
 10
-1.369062925
 20
2.5367362148
 40
0.1
  0
MTEXT
  5
3DC
100
AcDbEntity
  8
SYMBOLS
100
AcDbMText
 62
2
  6
CONTINUOUS
  7
TEXTSTYLE_6
 71
1
 72
1
 10
-1.4372883509
 20
2.5823457303
 30
0.0
 11
1.0
 21
0.0
 31
0.0
 44
0.9
  1
86
 40
0.09
 41
0.135
  0
ENDBLK
  5
3DD
100
AcDbEntity
  8
0
  6
BYBLOCK
 62
0
100
AcDbBlockEnd
  0
BLOCK
  5
3DE
100
AcDbEntity
  8
SYMBOLS
100
AcDbBlockBegin
 62
2
  6
CONTINUOUS
  2
DN_BL85
 70
64
 10
-1.589062925
 20
2.5367362148
  3
DN_BL85
  1

  0
CIRCLE
  5
3DF
100
AcDbEntity
  8
SYMBOLS
100
AcDbCircle
 62
2
  6
CONTINUOUS
 10
-1.589062925
 20
2.5367362148
 40
0.1
  0
MTEXT
  5
3E0
100
AcDbEntity
  8
SYMBOLS
100
AcDbMText
 62
2
  6
CONTINUOUS
  7
TEXTSTYLE_6
 71
1
 72
1
 10
-1.6572883509
 20
2.5823457303
 30
0.0
 11
1.0
 21
0.0
 31
0.0
 44
0.9
  1
85
 40
0.09
 41
0.135
  0
ENDBLK
  5
3E1
100
AcDbEntity
  8
0
  6
BYBLOCK
 62
0
100
AcDbBlockEnd
  0
BLOCK
  5
3E2
100
AcDbEntity
  8
SYMBOLS
100
AcDbBlockBegin
 62
2
  6
CONTINUOUS
  2
DN_BL84
 70
64
 10
-1.809062925
 20
2.5367362148
  3
DN_BL84
  1

  0
CIRCLE
  5
3E3
100
AcDbEntity
  8
SYMBOLS
100
AcDbCircle
 62
2
  6
CONTINUOUS
 10
-1.809062925
 20
2.5367362148
 40
0.1
  0
MTEXT
  5
3E4
100
AcDbEntity
  8
SYMBOLS
100
AcDbMText
 62
2
  6
CONTINUOUS
  7
TEXTSTYLE_6
 71
1
 72
1
 10
-1.8772883509
 20
2.5823457303
 30
0.0
 11
1.0
 21
0.0
 31
0.0
 44
0.9
  1
84
 40
0.09
 41
0.135
  0
ENDBLK
  5
3E5
100
AcDbEntity
  8
0
  6
BYBLOCK
 62
0
100
AcDbBlockEnd
  0
BLOCK
  5
3E6
100
AcDbEntity
  8
SYMBOLS
100
AcDbBlockBegin
 62
2
  6
CONTINUOUS
  2
DN_BL83
 70
64
 10
-2.029062925
 20
2.5367362148
  3
DN_BL83
  1

  0
CIRCLE
  5
3E7
100
AcDbEntity
  8
SYMBOLS
100
AcDbCircle
 62
2
  6
CONTINUOUS
 10
-2.029062925
 20
2.5367362148
 40
0.1
  0
MTEXT
  5
3E8
100
AcDbEntity
  8
SYMBOLS
100
AcDbMText
 62
2
  6
CONTINUOUS
  7
TEXTSTYLE_6
 71
1
 72
1
 10
-2.0972883509
 20
2.5823457303
 30
0.0
 11
1.0
 21
0.0
 31
0.0
 44
0.9
  1
83
 40
0.09
 41
0.135
  0
ENDBLK
  5
3E9
100
AcDbEntity
  8
0
  6
BYBLOCK
 62
0
100
AcDbBlockEnd
  0
BLOCK
  5
3EA
100
AcDbEntity
  8
SYMBOLS
100
AcDbBlockBegin
 62
2
  6
CONTINUOUS
  2
DN_BL82
 70
64
 10
-2.249062925
 20
2.5367362148
  3
DN_BL82
  1

  0
CIRCLE
  5
3EB
100
AcDbEntity
  8
SYMBOLS
100
AcDbCircle
 62
2
  6
CONTINUOUS
 10
-2.249062925
 20
2.5367362148
 40
0.1
  0
MTEXT
  5
3EC
100
AcDbEntity
  8
SYMBOLS
100
AcDbMText
 62
2
  6
CONTINUOUS
  7
TEXTSTYLE_6
 71
1
 72
1
 10
-2.3172883509
 20
2.5823457303
 30
0.0
 11
1.0
 21
0.0
 31
0.0
 44
0.9
  1
82
 40
0.09
 41
0.135
  0
ENDBLK
  5
3ED
100
AcDbEntity
  8
0
  6
BYBLOCK
 62
0
100
AcDbBlockEnd
  0
BLOCK
  5
3EE
100
AcDbEntity
  8
SYMBOLS
100
AcDbBlockBegin
 62
2
  6
CONTINUOUS
  2
DN_BL81
 70
64
 10
-2.469062925
 20
2.5367362148
  3
DN_BL81
  1

  0
CIRCLE
  5
3EF
100
AcDbEntity
  8
SYMBOLS
100
AcDbCircle
 62
2
  6
CONTINUOUS
 10
-2.469062925
 20
2.5367362148
 40
0.1
  0
MTEXT
  5
3F0
100
AcDbEntity
  8
SYMBOLS
100
AcDbMText
 62
2
  6
CONTINUOUS
  7
TEXTSTYLE_6
 71
1
 72
1
 10
-2.5372883509
 20
2.5823457303
 30
0.0
 11
1.0
 21
0.0
 31
0.0
 44
0.9
  1
81
 40
0.09
 41
0.135
  0
ENDBLK
  5
3F1
100
AcDbEntity
  8
0
  6
BYBLOCK
 62
0
100
AcDbBlockEnd
  0
BLOCK
  5
3F2
100
AcDbEntity
  8
SYMBOLS
100
AcDbBlockBegin
 62
2
  6
CONTINUOUS
  2
DN_BL80
 70
64
 10
-0.489062925
 20
2.3167362148
  3
DN_BL80
  1

  0
CIRCLE
  5
3F3
100
AcDbEntity
  8
SYMBOLS
100
AcDbCircle
 62
2
  6
CONTINUOUS
 10
-0.489062925
 20
2.3167362148
 40
0.1
  0
MTEXT
  5
3F4
100
AcDbEntity
  8
SYMBOLS
100
AcDbMText
 62
2
  6
CONTINUOUS
  7
TEXTSTYLE_6
 71
1
 72
1
 10
-0.5572883509
 20
2.3623457303
 30
0.0
 11
1.0
 21
0.0
 31
0.0
 44
0.9
  1
80
 40
0.09
 41
0.135
  0
ENDBLK
  5
3F5
100
AcDbEntity
  8
0
  6
BYBLOCK
 62
0
100
AcDbBlockEnd
  0
BLOCK
  5
3F6
100
AcDbEntity
  8
SYMBOLS
100
AcDbBlockBegin
 62
2
  6
CONTINUOUS
  2
DN_BL79
 70
64
 10
-0.709062925
 20
2.3167362148
  3
DN_BL79
  1

  0
CIRCLE
  5
3F7
100
AcDbEntity
  8
SYMBOLS
100
AcDbCircle
 62
2
  6
CONTINUOUS
 10
-0.709062925
 20
2.3167362148
 40
0.1
  0
MTEXT
  5
3F8
100
AcDbEntity
  8
SYMBOLS
100
AcDbMText
 62
2
  6
CONTINUOUS
  7
TEXTSTYLE_6
 71
1
 72
1
 10
-0.7772883509
 20
2.3623457303
 30
0.0
 11
1.0
 21
0.0
 31
0.0
 44
0.9
  1
79
 40
0.09
 41
0.135
  0
ENDBLK
  5
3F9
100
AcDbEntity
  8
0
  6
BYBLOCK
 62
0
100
AcDbBlockEnd
  0
BLOCK
  5
3FA
100
AcDbEntity
  8
SYMBOLS
100
AcDbBlockBegin
 62
2
  6
CONTINUOUS
  2
DN_BL78
 70
64
 10
-0.929062925
 20
2.3167362148
  3
DN_BL78
  1

  0
CIRCLE
  5
3FB
100
AcDbEntity
  8
SYMBOLS
100
AcDbCircle
 62
2
  6
CONTINUOUS
 10
-0.929062925
 20
2.3167362148
 40
0.1
  0
MTEXT
  5
3FC
100
AcDbEntity
  8
SYMBOLS
100
AcDbMText
 62
2
  6
CONTINUOUS
  7
TEXTSTYLE_6
 71
1
 72
1
 10
-0.9972883509
 20
2.3623457303
 30
0.0
 11
1.0
 21
0.0
 31
0.0
 44
0.9
  1
78
 40
0.09
 41
0.135
  0
ENDBLK
  5
3FD
100
AcDbEntity
  8
0
  6
BYBLOCK
 62
0
100
AcDbBlockEnd
  0
BLOCK
  5
3FE
100
AcDbEntity
  8
SYMBOLS
100
AcDbBlockBegin
 62
2
  6
CONTINUOUS
  2
DN_BL77
 70
64
 10
-1.149062925
 20
2.3167362148
  3
DN_BL77
  1

  0
CIRCLE
  5
3FF
100
AcDbEntity
  8
SYMBOLS
100
AcDbCircle
 62
2
  6
CONTINUOUS
 10
-1.149062925
 20
2.3167362148
 40
0.1
  0
MTEXT
  5
400
100
AcDbEntity
  8
SYMBOLS
100
AcDbMText
 62
2
  6
CONTINUOUS
  7
TEXTSTYLE_6
 71
1
 72
1
 10
-1.2172883509
 20
2.3623457303
 30
0.0
 11
1.0
 21
0.0
 31
0.0
 44
0.9
  1
77
 40
0.09
 41
0.135
  0
ENDBLK
  5
401
100
AcDbEntity
  8
0
  6
BYBLOCK
 62
0
100
AcDbBlockEnd
  0
BLOCK
  5
402
100
AcDbEntity
  8
SYMBOLS
100
AcDbBlockBegin
 62
2
  6
CONTINUOUS
  2
DN_BL76
 70
64
 10
-1.369062925
 20
2.3167362148
  3
DN_BL76
  1

  0
CIRCLE
  5
403
100
AcDbEntity
  8
SYMBOLS
100
AcDbCircle
 62
2
  6
CONTINUOUS
 10
-1.369062925
 20
2.3167362148
 40
0.1
  0
MTEXT
  5
404
100
AcDbEntity
  8
SYMBOLS
100
AcDbMText
 62
2
  6
CONTINUOUS
  7
TEXTSTYLE_6
 71
1
 72
1
 10
-1.4372883509
 20
2.3623457303
 30
0.0
 11
1.0
 21
0.0
 31
0.0
 44
0.9
  1
76
 40
0.09
 41
0.135
  0
ENDBLK
  5
405
100
AcDbEntity
  8
0
  6
BYBLOCK
 62
0
100
AcDbBlockEnd
  0
BLOCK
  5
406
100
AcDbEntity
  8
SYMBOLS
100
AcDbBlockBegin
 62
2
  6
CONTINUOUS
  2
DN_BL75
 70
64
 10
-1.589062925
 20
2.3167362148
  3
DN_BL75
  1

  0
CIRCLE
  5
407
100
AcDbEntity
  8
SYMBOLS
100
AcDbCircle
 62
2
  6
CONTINUOUS
 10
-1.589062925
 20
2.3167362148
 40
0.1
  0
MTEXT
  5
408
100
AcDbEntity
  8
SYMBOLS
100
AcDbMText
 62
2
  6
CONTINUOUS
  7
TEXTSTYLE_6
 71
1
 72
1
 10
-1.6572883509
 20
2.3623457303
 30
0.0
 11
1.0
 21
0.0
 31
0.0
 44
0.9
  1
75
 40
0.09
 41
0.135
  0
ENDBLK
  5
409
100
AcDbEntity
  8
0
  6
BYBLOCK
 62
0
100
AcDbBlockEnd
  0
BLOCK
  5
40A
100
AcDbEntity
  8
SYMBOLS
100
AcDbBlockBegin
 62
2
  6
CONTINUOUS
  2
DN_BL74
 70
64
 10
-1.809062925
 20
2.3167362148
  3
DN_BL74
  1

  0
CIRCLE
  5
40B
100
AcDbEntity
  8
SYMBOLS
100
AcDbCircle
 62
2
  6
CONTINUOUS
 10
-1.809062925
 20
2.3167362148
 40
0.1
  0
MTEXT
  5
40C
100
AcDbEntity
  8
SYMBOLS
100
AcDbMText
 62
2
  6
CONTINUOUS
  7
TEXTSTYLE_6
 71
1
 72
1
 10
-1.8772883509
 20
2.3623457303
 30
0.0
 11
1.0
 21
0.0
 31
0.0
 44
0.9
  1
74
 40
0.09
 41
0.135
  0
ENDBLK
  5
40D
100
AcDbEntity
  8
0
  6
BYBLOCK
 62
0
100
AcDbBlockEnd
  0
BLOCK
  5
40E
100
AcDbEntity
  8
SYMBOLS
100
AcDbBlockBegin
 62
2
  6
CONTINUOUS
  2
DN_BL73
 70
64
 10
-2.029062925
 20
2.3167362148
  3
DN_BL73
  1

  0
CIRCLE
  5
40F
100
AcDbEntity
  8
SYMBOLS
100
AcDbCircle
 62
2
  6
CONTINUOUS
 10
-2.029062925
 20
2.3167362148
 40
0.1
  0
MTEXT
  5
410
100
AcDbEntity
  8
SYMBOLS
100
AcDbMText
 62
2
  6
CONTINUOUS
  7
TEXTSTYLE_6
 71
1
 72
1
 10
-2.0972883509
 20
2.3623457303
 30
0.0
 11
1.0
 21
0.0
 31
0.0
 44
0.9
  1
73
 40
0.09
 41
0.135
  0
ENDBLK
  5
411
100
AcDbEntity
  8
0
  6
BYBLOCK
 62
0
100
AcDbBlockEnd
  0
BLOCK
  5
412
100
AcDbEntity
  8
SYMBOLS
100
AcDbBlockBegin
 62
2
  6
CONTINUOUS
  2
DN_BL72
 70
64
 10
-2.249062925
 20
2.3167362148
  3
DN_BL72
  1

  0
CIRCLE
  5
413
100
AcDbEntity
  8
SYMBOLS
100
AcDbCircle
 62
2
  6
CONTINUOUS
 10
-2.249062925
 20
2.3167362148
 40
0.1
  0
MTEXT
  5
414
100
AcDbEntity
  8
SYMBOLS
100
AcDbMText
 62
2
  6
CONTINUOUS
  7
TEXTSTYLE_6
 71
1
 72
1
 10
-2.3172883509
 20
2.3623457303
 30
0.0
 11
1.0
 21
0.0
 31
0.0
 44
0.9
  1
72
 40
0.09
 41
0.135
  0
ENDBLK
  5
415
100
AcDbEntity
  8
0
  6
BYBLOCK
 62
0
100
AcDbBlockEnd
  0
BLOCK
  5
416
100
AcDbEntity
  8
SYMBOLS
100
AcDbBlockBegin
 62
2
  6
CONTINUOUS
  2
DN_BL71
 70
64
 10
-2.469062925
 20
2.3167362148
  3
DN_BL71
  1

  0
CIRCLE
  5
417
100
AcDbEntity
  8
SYMBOLS
100
AcDbCircle
 62
2
  6
CONTINUOUS
 10
-2.469062925
 20
2.3167362148
 40
0.1
  0
MTEXT
  5
418
100
AcDbEntity
  8
SYMBOLS
100
AcDbMText
 62
2
  6
CONTINUOUS
  7
TEXTSTYLE_6
 71
1
 72
1
 10
-2.5372883509
 20
2.3623457303
 30
0.0
 11
1.0
 21
0.0
 31
0.0
 44
0.9
  1
71
 40
0.09
 41
0.135
  0
ENDBLK
  5
419
100
AcDbEntity
  8
0
  6
BYBLOCK
 62
0
100
AcDbBlockEnd
  0
BLOCK
  5
41A
100
AcDbEntity
  8
SYMBOLS
100
AcDbBlockBegin
 62
2
  6
CONTINUOUS
  2
DN_BL70
 70
64
 10
-0.489062925
 20
2.0967362148
  3
DN_BL70
  1

  0
CIRCLE
  5
41B
100
AcDbEntity
  8
SYMBOLS
100
AcDbCircle
 62
2
  6
CONTINUOUS
 10
-0.489062925
 20
2.0967362148
 40
0.1
  0
MTEXT
  5
41C
100
AcDbEntity
  8
SYMBOLS
100
AcDbMText
 62
2
  6
CONTINUOUS
  7
TEXTSTYLE_6
 71
1
 72
1
 10
-0.5572883509
 20
2.1423457303
 30
0.0
 11
1.0
 21
0.0
 31
0.0
 44
0.9
  1
70
 40
0.09
 41
0.135
  0
ENDBLK
  5
41D
100
AcDbEntity
  8
0
  6
BYBLOCK
 62
0
100
AcDbBlockEnd
  0
BLOCK
  5
41E
100
AcDbEntity
  8
SYMBOLS
100
AcDbBlockBegin
 62
2
  6
CONTINUOUS
  2
DN_BL69
 70
64
 10
-0.709062925
 20
2.0967362148
  3
DN_BL69
  1

  0
CIRCLE
  5
41F
100
AcDbEntity
  8
SYMBOLS
100
AcDbCircle
 62
2
  6
CONTINUOUS
 10
-0.709062925
 20
2.0967362148
 40
0.1
  0
MTEXT
  5
420
100
AcDbEntity
  8
SYMBOLS
100
AcDbMText
 62
2
  6
CONTINUOUS
  7
TEXTSTYLE_6
 71
1
 72
1
 10
-0.7772883509
 20
2.1423457303
 30
0.0
 11
1.0
 21
0.0
 31
0.0
 44
0.9
  1
69
 40
0.09
 41
0.135
  0
ENDBLK
  5
421
100
AcDbEntity
  8
0
  6
BYBLOCK
 62
0
100
AcDbBlockEnd
  0
BLOCK
  5
422
100
AcDbEntity
  8
SYMBOLS
100
AcDbBlockBegin
 62
2
  6
CONTINUOUS
  2
DN_BL68
 70
64
 10
-0.929062925
 20
2.0967362148
  3
DN_BL68
  1

  0
CIRCLE
  5
423
100
AcDbEntity
  8
SYMBOLS
100
AcDbCircle
 62
2
  6
CONTINUOUS
 10
-0.929062925
 20
2.0967362148
 40
0.1
  0
MTEXT
  5
424
100
AcDbEntity
  8
SYMBOLS
100
AcDbMText
 62
2
  6
CONTINUOUS
  7
TEXTSTYLE_6
 71
1
 72
1
 10
-0.9972883509
 20
2.1423457303
 30
0.0
 11
1.0
 21
0.0
 31
0.0
 44
0.9
  1
68
 40
0.09
 41
0.135
  0
ENDBLK
  5
425
100
AcDbEntity
  8
0
  6
BYBLOCK
 62
0
100
AcDbBlockEnd
  0
BLOCK
  5
426
100
AcDbEntity
  8
SYMBOLS
100
AcDbBlockBegin
 62
2
  6
CONTINUOUS
  2
DN_BL67
 70
64
 10
-1.149062925
 20
2.0967362148
  3
DN_BL67
  1

  0
CIRCLE
  5
427
100
AcDbEntity
  8
SYMBOLS
100
AcDbCircle
 62
2
  6
CONTINUOUS
 10
-1.149062925
 20
2.0967362148
 40
0.1
  0
MTEXT
  5
428
100
AcDbEntity
  8
SYMBOLS
100
AcDbMText
 62
2
  6
CONTINUOUS
  7
TEXTSTYLE_6
 71
1
 72
1
 10
-1.2172883509
 20
2.1423457303
 30
0.0
 11
1.0
 21
0.0
 31
0.0
 44
0.9
  1
67
 40
0.09
 41
0.135
  0
ENDBLK
  5
429
100
AcDbEntity
  8
0
  6
BYBLOCK
 62
0
100
AcDbBlockEnd
  0
BLOCK
  5
42A
100
AcDbEntity
  8
SYMBOLS
100
AcDbBlockBegin
 62
2
  6
CONTINUOUS
  2
DN_BL66
 70
64
 10
-1.369062925
 20
2.0967362148
  3
DN_BL66
  1

  0
CIRCLE
  5
42B
100
AcDbEntity
  8
SYMBOLS
100
AcDbCircle
 62
2
  6
CONTINUOUS
 10
-1.369062925
 20
2.0967362148
 40
0.1
  0
MTEXT
  5
42C
100
AcDbEntity
  8
SYMBOLS
100
AcDbMText
 62
2
  6
CONTINUOUS
  7
TEXTSTYLE_6
 71
1
 72
1
 10
-1.4372883509
 20
2.1423457303
 30
0.0
 11
1.0
 21
0.0
 31
0.0
 44
0.9
  1
66
 40
0.09
 41
0.135
  0
ENDBLK
  5
42D
100
AcDbEntity
  8
0
  6
BYBLOCK
 62
0
100
AcDbBlockEnd
  0
BLOCK
  5
42E
100
AcDbEntity
  8
SYMBOLS
100
AcDbBlockBegin
 62
2
  6
CONTINUOUS
  2
DN_BL65
 70
64
 10
-1.589062925
 20
2.0967362148
  3
DN_BL65
  1

  0
CIRCLE
  5
42F
100
AcDbEntity
  8
SYMBOLS
100
AcDbCircle
 62
2
  6
CONTINUOUS
 10
-1.589062925
 20
2.0967362148
 40
0.1
  0
MTEXT
  5
430
100
AcDbEntity
  8
SYMBOLS
100
AcDbMText
 62
2
  6
CONTINUOUS
  7
TEXTSTYLE_6
 71
1
 72
1
 10
-1.6572883509
 20
2.1423457303
 30
0.0
 11
1.0
 21
0.0
 31
0.0
 44
0.9
  1
65
 40
0.09
 41
0.135
  0
ENDBLK
  5
431
100
AcDbEntity
  8
0
  6
BYBLOCK
 62
0
100
AcDbBlockEnd
  0
BLOCK
  5
432
100
AcDbEntity
  8
SYMBOLS
100
AcDbBlockBegin
 62
2
  6
CONTINUOUS
  2
DN_BL64
 70
64
 10
-1.809062925
 20
2.0967362148
  3
DN_BL64
  1

  0
CIRCLE
  5
433
100
AcDbEntity
  8
SYMBOLS
100
AcDbCircle
 62
2
  6
CONTINUOUS
 10
-1.809062925
 20
2.0967362148
 40
0.1
  0
MTEXT
  5
434
100
AcDbEntity
  8
SYMBOLS
100
AcDbMText
 62
2
  6
CONTINUOUS
  7
TEXTSTYLE_6
 71
1
 72
1
 10
-1.8772883509
 20
2.1423457303
 30
0.0
 11
1.0
 21
0.0
 31
0.0
 44
0.9
  1
64
 40
0.09
 41
0.135
  0
ENDBLK
  5
435
100
AcDbEntity
  8
0
  6
BYBLOCK
 62
0
100
AcDbBlockEnd
  0
BLOCK
  5
436
100
AcDbEntity
  8
SYMBOLS
100
AcDbBlockBegin
 62
2
  6
CONTINUOUS
  2
DN_BL63
 70
64
 10
-2.029062925
 20
2.0967362148
  3
DN_BL63
  1

  0
CIRCLE
  5
437
100
AcDbEntity
  8
SYMBOLS
100
AcDbCircle
 62
2
  6
CONTINUOUS
 10
-2.029062925
 20
2.0967362148
 40
0.1
  0
MTEXT
  5
438
100
AcDbEntity
  8
SYMBOLS
100
AcDbMText
 62
2
  6
CONTINUOUS
  7
TEXTSTYLE_6
 71
1
 72
1
 10
-2.0972883509
 20
2.1423457303
 30
0.0
 11
1.0
 21
0.0
 31
0.0
 44
0.9
  1
63
 40
0.09
 41
0.135
  0
ENDBLK
  5
439
100
AcDbEntity
  8
0
  6
BYBLOCK
 62
0
100
AcDbBlockEnd
  0
BLOCK
  5
43A
100
AcDbEntity
  8
SYMBOLS
100
AcDbBlockBegin
 62
2
  6
CONTINUOUS
  2
DN_BL62
 70
64
 10
-2.249062925
 20
2.0967362148
  3
DN_BL62
  1

  0
CIRCLE
  5
43B
100
AcDbEntity
  8
SYMBOLS
100
AcDbCircle
 62
2
  6
CONTINUOUS
 10
-2.249062925
 20
2.0967362148
 40
0.1
  0
MTEXT
  5
43C
100
AcDbEntity
  8
SYMBOLS
100
AcDbMText
 62
2
  6
CONTINUOUS
  7
TEXTSTYLE_6
 71
1
 72
1
 10
-2.3172883509
 20
2.1423457303
 30
0.0
 11
1.0
 21
0.0
 31
0.0
 44
0.9
  1
62
 40
0.09
 41
0.135
  0
ENDBLK
  5
43D
100
AcDbEntity
  8
0
  6
BYBLOCK
 62
0
100
AcDbBlockEnd
  0
BLOCK
  5
43E
100
AcDbEntity
  8
SYMBOLS
100
AcDbBlockBegin
 62
2
  6
CONTINUOUS
  2
DN_BL61
 70
64
 10
-2.469062925
 20
2.0967362148
  3
DN_BL61
  1

  0
CIRCLE
  5
43F
100
AcDbEntity
  8
SYMBOLS
100
AcDbCircle
 62
2
  6
CONTINUOUS
 10
-2.469062925
 20
2.0967362148
 40
0.1
  0
MTEXT
  5
440
100
AcDbEntity
  8
SYMBOLS
100
AcDbMText
 62
2
  6
CONTINUOUS
  7
TEXTSTYLE_6
 71
1
 72
1
 10
-2.5372883509
 20
2.1423457303
 30
0.0
 11
1.0
 21
0.0
 31
0.0
 44
0.9
  1
61
 40
0.09
 41
0.135
  0
ENDBLK
  5
441
100
AcDbEntity
  8
0
  6
BYBLOCK
 62
0
100
AcDbBlockEnd
  0
BLOCK
  5
442
100
AcDbEntity
  8
SYMBOLS
100
AcDbBlockBegin
 62
2
  6
CONTINUOUS
  2
DN_BL60
 70
64
 10
-0.489062925
 20
1.8767362148
  3
DN_BL60
  1

  0
CIRCLE
  5
443
100
AcDbEntity
  8
SYMBOLS
100
AcDbCircle
 62
2
  6
CONTINUOUS
 10
-0.489062925
 20
1.8767362148
 40
0.1
  0
MTEXT
  5
444
100
AcDbEntity
  8
SYMBOLS
100
AcDbMText
 62
2
  6
CONTINUOUS
  7
TEXTSTYLE_6
 71
1
 72
1
 10
-0.5572883509
 20
1.9223457303
 30
0.0
 11
1.0
 21
0.0
 31
0.0
 44
0.9
  1
60
 40
0.09
 41
0.135
  0
ENDBLK
  5
445
100
AcDbEntity
  8
0
  6
BYBLOCK
 62
0
100
AcDbBlockEnd
  0
BLOCK
  5
446
100
AcDbEntity
  8
SYMBOLS
100
AcDbBlockBegin
 62
2
  6
CONTINUOUS
  2
DN_BL59
 70
64
 10
-0.709062925
 20
1.8767362148
  3
DN_BL59
  1

  0
CIRCLE
  5
447
100
AcDbEntity
  8
SYMBOLS
100
AcDbCircle
 62
2
  6
CONTINUOUS
 10
-0.709062925
 20
1.8767362148
 40
0.1
  0
MTEXT
  5
448
100
AcDbEntity
  8
SYMBOLS
100
AcDbMText
 62
2
  6
CONTINUOUS
  7
TEXTSTYLE_6
 71
1
 72
1
 10
-0.7772883509
 20
1.9223457303
 30
0.0
 11
1.0
 21
0.0
 31
0.0
 44
0.9
  1
59
 40
0.09
 41
0.135
  0
ENDBLK
  5
449
100
AcDbEntity
  8
0
  6
BYBLOCK
 62
0
100
AcDbBlockEnd
  0
BLOCK
  5
44A
100
AcDbEntity
  8
SYMBOLS
100
AcDbBlockBegin
 62
2
  6
CONTINUOUS
  2
DN_BL58
 70
64
 10
-0.929062925
 20
1.8767362148
  3
DN_BL58
  1

  0
CIRCLE
  5
44B
100
AcDbEntity
  8
SYMBOLS
100
AcDbCircle
 62
2
  6
CONTINUOUS
 10
-0.929062925
 20
1.8767362148
 40
0.1
  0
MTEXT
  5
44C
100
AcDbEntity
  8
SYMBOLS
100
AcDbMText
 62
2
  6
CONTINUOUS
  7
TEXTSTYLE_6
 71
1
 72
1
 10
-0.9972883509
 20
1.9223457303
 30
0.0
 11
1.0
 21
0.0
 31
0.0
 44
0.9
  1
58
 40
0.09
 41
0.135
  0
ENDBLK
  5
44D
100
AcDbEntity
  8
0
  6
BYBLOCK
 62
0
100
AcDbBlockEnd
  0
BLOCK
  5
44E
100
AcDbEntity
  8
SYMBOLS
100
AcDbBlockBegin
 62
2
  6
CONTINUOUS
  2
DN_BL57
 70
64
 10
-1.149062925
 20
1.8767362148
  3
DN_BL57
  1

  0
CIRCLE
  5
44F
100
AcDbEntity
  8
SYMBOLS
100
AcDbCircle
 62
2
  6
CONTINUOUS
 10
-1.149062925
 20
1.8767362148
 40
0.1
  0
MTEXT
  5
450
100
AcDbEntity
  8
SYMBOLS
100
AcDbMText
 62
2
  6
CONTINUOUS
  7
TEXTSTYLE_6
 71
1
 72
1
 10
-1.2172883509
 20
1.9223457303
 30
0.0
 11
1.0
 21
0.0
 31
0.0
 44
0.9
  1
57
 40
0.09
 41
0.135
  0
ENDBLK
  5
451
100
AcDbEntity
  8
0
  6
BYBLOCK
 62
0
100
AcDbBlockEnd
  0
BLOCK
  5
452
100
AcDbEntity
  8
SYMBOLS
100
AcDbBlockBegin
 62
2
  6
CONTINUOUS
  2
DN_BL56
 70
64
 10
-1.369062925
 20
1.8767362148
  3
DN_BL56
  1

  0
CIRCLE
  5
453
100
AcDbEntity
  8
SYMBOLS
100
AcDbCircle
 62
2
  6
CONTINUOUS
 10
-1.369062925
 20
1.8767362148
 40
0.1
  0
MTEXT
  5
454
100
AcDbEntity
  8
SYMBOLS
100
AcDbMText
 62
2
  6
CONTINUOUS
  7
TEXTSTYLE_6
 71
1
 72
1
 10
-1.4372883509
 20
1.9223457303
 30
0.0
 11
1.0
 21
0.0
 31
0.0
 44
0.9
  1
56
 40
0.09
 41
0.135
  0
ENDBLK
  5
455
100
AcDbEntity
  8
0
  6
BYBLOCK
 62
0
100
AcDbBlockEnd
  0
BLOCK
  5
456
100
AcDbEntity
  8
SYMBOLS
100
AcDbBlockBegin
 62
2
  6
CONTINUOUS
  2
DN_BL55
 70
64
 10
-1.589062925
 20
1.8767362148
  3
DN_BL55
  1

  0
CIRCLE
  5
457
100
AcDbEntity
  8
SYMBOLS
100
AcDbCircle
 62
2
  6
CONTINUOUS
 10
-1.589062925
 20
1.8767362148
 40
0.1
  0
MTEXT
  5
458
100
AcDbEntity
  8
SYMBOLS
100
AcDbMText
 62
2
  6
CONTINUOUS
  7
TEXTSTYLE_6
 71
1
 72
1
 10
-1.6572883509
 20
1.9223457303
 30
0.0
 11
1.0
 21
0.0
 31
0.0
 44
0.9
  1
55
 40
0.09
 41
0.135
  0
ENDBLK
  5
459
100
AcDbEntity
  8
0
  6
BYBLOCK
 62
0
100
AcDbBlockEnd
  0
BLOCK
  5
45A
100
AcDbEntity
  8
SYMBOLS
100
AcDbBlockBegin
 62
2
  6
CONTINUOUS
  2
DN_BL54
 70
64
 10
-1.809062925
 20
1.8767362148
  3
DN_BL54
  1

  0
CIRCLE
  5
45B
100
AcDbEntity
  8
SYMBOLS
100
AcDbCircle
 62
2
  6
CONTINUOUS
 10
-1.809062925
 20
1.8767362148
 40
0.1
  0
MTEXT
  5
45C
100
AcDbEntity
  8
SYMBOLS
100
AcDbMText
 62
2
  6
CONTINUOUS
  7
TEXTSTYLE_6
 71
1
 72
1
 10
-1.8772883509
 20
1.9223457303
 30
0.0
 11
1.0
 21
0.0
 31
0.0
 44
0.9
  1
54
 40
0.09
 41
0.135
  0
ENDBLK
  5
45D
100
AcDbEntity
  8
0
  6
BYBLOCK
 62
0
100
AcDbBlockEnd
  0
BLOCK
  5
45E
100
AcDbEntity
  8
SYMBOLS
100
AcDbBlockBegin
 62
2
  6
CONTINUOUS
  2
DN_BL53
 70
64
 10
-2.029062925
 20
1.8767362148
  3
DN_BL53
  1

  0
CIRCLE
  5
45F
100
AcDbEntity
  8
SYMBOLS
100
AcDbCircle
 62
2
  6
CONTINUOUS
 10
-2.029062925
 20
1.8767362148
 40
0.1
  0
MTEXT
  5
460
100
AcDbEntity
  8
SYMBOLS
100
AcDbMText
 62
2
  6
CONTINUOUS
  7
TEXTSTYLE_6
 71
1
 72
1
 10
-2.0972883509
 20
1.9223457303
 30
0.0
 11
1.0
 21
0.0
 31
0.0
 44
0.9
  1
53
 40
0.09
 41
0.135
  0
ENDBLK
  5
461
100
AcDbEntity
  8
0
  6
BYBLOCK
 62
0
100
AcDbBlockEnd
  0
BLOCK
  5
462
100
AcDbEntity
  8
SYMBOLS
100
AcDbBlockBegin
 62
2
  6
CONTINUOUS
  2
DN_BL52
 70
64
 10
-2.249062925
 20
1.8767362148
  3
DN_BL52
  1

  0
CIRCLE
  5
463
100
AcDbEntity
  8
SYMBOLS
100
AcDbCircle
 62
2
  6
CONTINUOUS
 10
-2.249062925
 20
1.8767362148
 40
0.1
  0
MTEXT
  5
464
100
AcDbEntity
  8
SYMBOLS
100
AcDbMText
 62
2
  6
CONTINUOUS
  7
TEXTSTYLE_6
 71
1
 72
1
 10
-2.3172883509
 20
1.9223457303
 30
0.0
 11
1.0
 21
0.0
 31
0.0
 44
0.9
  1
52
 40
0.09
 41
0.135
  0
ENDBLK
  5
465
100
AcDbEntity
  8
0
  6
BYBLOCK
 62
0
100
AcDbBlockEnd
  0
BLOCK
  5
466
100
AcDbEntity
  8
SYMBOLS
100
AcDbBlockBegin
 62
2
  6
CONTINUOUS
  2
DN_BL51
 70
64
 10
-2.469062925
 20
1.8767362148
  3
DN_BL51
  1

  0
CIRCLE
  5
467
100
AcDbEntity
  8
SYMBOLS
100
AcDbCircle
 62
2
  6
CONTINUOUS
 10
-2.469062925
 20
1.8767362148
 40
0.1
  0
MTEXT
  5
468
100
AcDbEntity
  8
SYMBOLS
100
AcDbMText
 62
2
  6
CONTINUOUS
  7
TEXTSTYLE_6
 71
1
 72
1
 10
-2.5372883509
 20
1.9223457303
 30
0.0
 11
1.0
 21
0.0
 31
0.0
 44
0.9
  1
51
 40
0.09
 41
0.135
  0
ENDBLK
  5
469
100
AcDbEntity
  8
0
  6
BYBLOCK
 62
0
100
AcDbBlockEnd
  0
BLOCK
  5
46A
100
AcDbEntity
  8
SYMBOLS
100
AcDbBlockBegin
 62
2
  6
CONTINUOUS
  2
DN_BL50
 70
64
 10
-0.489062925
 20
1.1567362148
  3
DN_BL50
  1

  0
CIRCLE
  5
46B
100
AcDbEntity
  8
SYMBOLS
100
AcDbCircle
 62
2
  6
CONTINUOUS
 10
-0.489062925
 20
1.1567362148
 40
0.1
  0
MTEXT
  5
46C
100
AcDbEntity
  8
SYMBOLS
100
AcDbMText
 62
2
  6
CONTINUOUS
  7
TEXTSTYLE_6
 71
1
 72
1
 10
-0.5572883509
 20
1.2023457303
 30
0.0
 11
1.0
 21
0.0
 31
0.0
 44
0.9
  1
50
 40
0.09
 41
0.135
  0
ENDBLK
  5
46D
100
AcDbEntity
  8
0
  6
BYBLOCK
 62
0
100
AcDbBlockEnd
  0
BLOCK
  5
46E
100
AcDbEntity
  8
SYMBOLS
100
AcDbBlockBegin
 62
2
  6
CONTINUOUS
  2
DN_BL49
 70
64
 10
-0.709062925
 20
1.1567362148
  3
DN_BL49
  1

  0
CIRCLE
  5
46F
100
AcDbEntity
  8
SYMBOLS
100
AcDbCircle
 62
2
  6
CONTINUOUS
 10
-0.709062925
 20
1.1567362148
 40
0.1
  0
MTEXT
  5
470
100
AcDbEntity
  8
SYMBOLS
100
AcDbMText
 62
2
  6
CONTINUOUS
  7
TEXTSTYLE_6
 71
1
 72
1
 10
-0.7772883509
 20
1.2023457303
 30
0.0
 11
1.0
 21
0.0
 31
0.0
 44
0.9
  1
49
 40
0.09
 41
0.135
  0
ENDBLK
  5
471
100
AcDbEntity
  8
0
  6
BYBLOCK
 62
0
100
AcDbBlockEnd
  0
BLOCK
  5
472
100
AcDbEntity
  8
SYMBOLS
100
AcDbBlockBegin
 62
2
  6
CONTINUOUS
  2
DN_BL48
 70
64
 10
-0.929062925
 20
1.1567362148
  3
DN_BL48
  1

  0
CIRCLE
  5
473
100
AcDbEntity
  8
SYMBOLS
100
AcDbCircle
 62
2
  6
CONTINUOUS
 10
-0.929062925
 20
1.1567362148
 40
0.1
  0
MTEXT
  5
474
100
AcDbEntity
  8
SYMBOLS
100
AcDbMText
 62
2
  6
CONTINUOUS
  7
TEXTSTYLE_6
 71
1
 72
1
 10
-0.9972883509
 20
1.2023457303
 30
0.0
 11
1.0
 21
0.0
 31
0.0
 44
0.9
  1
48
 40
0.09
 41
0.135
  0
ENDBLK
  5
475
100
AcDbEntity
  8
0
  6
BYBLOCK
 62
0
100
AcDbBlockEnd
  0
BLOCK
  5
476
100
AcDbEntity
  8
SYMBOLS
100
AcDbBlockBegin
 62
2
  6
CONTINUOUS
  2
DN_BL47
 70
64
 10
-1.149062925
 20
1.1567362148
  3
DN_BL47
  1

  0
CIRCLE
  5
477
100
AcDbEntity
  8
SYMBOLS
100
AcDbCircle
 62
2
  6
CONTINUOUS
 10
-1.149062925
 20
1.1567362148
 40
0.1
  0
MTEXT
  5
478
100
AcDbEntity
  8
SYMBOLS
100
AcDbMText
 62
2
  6
CONTINUOUS
  7
TEXTSTYLE_6
 71
1
 72
1
 10
-1.2172883509
 20
1.2023457303
 30
0.0
 11
1.0
 21
0.0
 31
0.0
 44
0.9
  1
47
 40
0.09
 41
0.135
  0
ENDBLK
  5
479
100
AcDbEntity
  8
0
  6
BYBLOCK
 62
0
100
AcDbBlockEnd
  0
BLOCK
  5
47A
100
AcDbEntity
  8
SYMBOLS
100
AcDbBlockBegin
 62
2
  6
CONTINUOUS
  2
DN_BL46
 70
64
 10
-1.369062925
 20
1.1567362148
  3
DN_BL46
  1

  0
CIRCLE
  5
47B
100
AcDbEntity
  8
SYMBOLS
100
AcDbCircle
 62
2
  6
CONTINUOUS
 10
-1.369062925
 20
1.1567362148
 40
0.1
  0
MTEXT
  5
47C
100
AcDbEntity
  8
SYMBOLS
100
AcDbMText
 62
2
  6
CONTINUOUS
  7
TEXTSTYLE_6
 71
1
 72
1
 10
-1.4372883509
 20
1.2023457303
 30
0.0
 11
1.0
 21
0.0
 31
0.0
 44
0.9
  1
46
 40
0.09
 41
0.135
  0
ENDBLK
  5
47D
100
AcDbEntity
  8
0
  6
BYBLOCK
 62
0
100
AcDbBlockEnd
  0
BLOCK
  5
47E
100
AcDbEntity
  8
SYMBOLS
100
AcDbBlockBegin
 62
2
  6
CONTINUOUS
  2
DN_BL45
 70
64
 10
-1.589062925
 20
1.1567362148
  3
DN_BL45
  1

  0
CIRCLE
  5
47F
100
AcDbEntity
  8
SYMBOLS
100
AcDbCircle
 62
2
  6
CONTINUOUS
 10
-1.589062925
 20
1.1567362148
 40
0.1
  0
MTEXT
  5
480
100
AcDbEntity
  8
SYMBOLS
100
AcDbMText
 62
2
  6
CONTINUOUS
  7
TEXTSTYLE_6
 71
1
 72
1
 10
-1.6572883509
 20
1.2023457303
 30
0.0
 11
1.0
 21
0.0
 31
0.0
 44
0.9
  1
45
 40
0.09
 41
0.135
  0
ENDBLK
  5
481
100
AcDbEntity
  8
0
  6
BYBLOCK
 62
0
100
AcDbBlockEnd
  0
BLOCK
  5
482
100
AcDbEntity
  8
SYMBOLS
100
AcDbBlockBegin
 62
2
  6
CONTINUOUS
  2
DN_BL44
 70
64
 10
-1.809062925
 20
1.1567362148
  3
DN_BL44
  1

  0
CIRCLE
  5
483
100
AcDbEntity
  8
SYMBOLS
100
AcDbCircle
 62
2
  6
CONTINUOUS
 10
-1.809062925
 20
1.1567362148
 40
0.1
  0
MTEXT
  5
484
100
AcDbEntity
  8
SYMBOLS
100
AcDbMText
 62
2
  6
CONTINUOUS
  7
TEXTSTYLE_6
 71
1
 72
1
 10
-1.8772883509
 20
1.2023457303
 30
0.0
 11
1.0
 21
0.0
 31
0.0
 44
0.9
  1
44
 40
0.09
 41
0.135
  0
ENDBLK
  5
485
100
AcDbEntity
  8
0
  6
BYBLOCK
 62
0
100
AcDbBlockEnd
  0
BLOCK
  5
486
100
AcDbEntity
  8
SYMBOLS
100
AcDbBlockBegin
 62
2
  6
CONTINUOUS
  2
DN_BL43
 70
64
 10
-2.029062925
 20
1.1567362148
  3
DN_BL43
  1

  0
CIRCLE
  5
487
100
AcDbEntity
  8
SYMBOLS
100
AcDbCircle
 62
2
  6
CONTINUOUS
 10
-2.029062925
 20
1.1567362148
 40
0.1
  0
MTEXT
  5
488
100
AcDbEntity
  8
SYMBOLS
100
AcDbMText
 62
2
  6
CONTINUOUS
  7
TEXTSTYLE_6
 71
1
 72
1
 10
-2.0972883509
 20
1.2023457303
 30
0.0
 11
1.0
 21
0.0
 31
0.0
 44
0.9
  1
43
 40
0.09
 41
0.135
  0
ENDBLK
  5
489
100
AcDbEntity
  8
0
  6
BYBLOCK
 62
0
100
AcDbBlockEnd
  0
BLOCK
  5
48A
100
AcDbEntity
  8
SYMBOLS
100
AcDbBlockBegin
 62
2
  6
CONTINUOUS
  2
DN_BL42
 70
64
 10
-2.249062925
 20
1.1567362148
  3
DN_BL42
  1

  0
CIRCLE
  5
48B
100
AcDbEntity
  8
SYMBOLS
100
AcDbCircle
 62
2
  6
CONTINUOUS
 10
-2.249062925
 20
1.1567362148
 40
0.1
  0
MTEXT
  5
48C
100
AcDbEntity
  8
SYMBOLS
100
AcDbMText
 62
2
  6
CONTINUOUS
  7
TEXTSTYLE_6
 71
1
 72
1
 10
-2.3172883509
 20
1.2023457303
 30
0.0
 11
1.0
 21
0.0
 31
0.0
 44
0.9
  1
42
 40
0.09
 41
0.135
  0
ENDBLK
  5
48D
100
AcDbEntity
  8
0
  6
BYBLOCK
 62
0
100
AcDbBlockEnd
  0
BLOCK
  5
48E
100
AcDbEntity
  8
SYMBOLS
100
AcDbBlockBegin
 62
2
  6
CONTINUOUS
  2
DN_BL41
 70
64
 10
-2.469062925
 20
1.1567362148
  3
DN_BL41
  1

  0
CIRCLE
  5
48F
100
AcDbEntity
  8
SYMBOLS
100
AcDbCircle
 62
2
  6
CONTINUOUS
 10
-2.469062925
 20
1.1567362148
 40
0.1
  0
MTEXT
  5
490
100
AcDbEntity
  8
SYMBOLS
100
AcDbMText
 62
2
  6
CONTINUOUS
  7
TEXTSTYLE_6
 71
1
 72
1
 10
-2.5372883509
 20
1.2023457303
 30
0.0
 11
1.0
 21
0.0
 31
0.0
 44
0.9
  1
41
 40
0.09
 41
0.135
  0
ENDBLK
  5
491
100
AcDbEntity
  8
0
  6
BYBLOCK
 62
0
100
AcDbBlockEnd
  0
BLOCK
  5
492
100
AcDbEntity
  8
SYMBOLS
100
AcDbBlockBegin
 62
2
  6
CONTINUOUS
  2
DN_BL40
 70
64
 10
-0.489062925
 20
0.9367362148
  3
DN_BL40
  1

  0
CIRCLE
  5
493
100
AcDbEntity
  8
SYMBOLS
100
AcDbCircle
 62
2
  6
CONTINUOUS
 10
-0.489062925
 20
0.9367362148
 40
0.1
  0
MTEXT
  5
494
100
AcDbEntity
  8
SYMBOLS
100
AcDbMText
 62
2
  6
CONTINUOUS
  7
TEXTSTYLE_6
 71
1
 72
1
 10
-0.5572883509
 20
0.9823457303
 30
0.0
 11
1.0
 21
0.0
 31
0.0
 44
0.9
  1
40
 40
0.09
 41
0.135
  0
ENDBLK
  5
495
100
AcDbEntity
  8
0
  6
BYBLOCK
 62
0
100
AcDbBlockEnd
  0
BLOCK
  5
496
100
AcDbEntity
  8
SYMBOLS
100
AcDbBlockBegin
 62
2
  6
CONTINUOUS
  2
DN_BL39
 70
64
 10
-0.709062925
 20
0.9367362148
  3
DN_BL39
  1

  0
CIRCLE
  5
497
100
AcDbEntity
  8
SYMBOLS
100
AcDbCircle
 62
2
  6
CONTINUOUS
 10
-0.709062925
 20
0.9367362148
 40
0.1
  0
MTEXT
  5
498
100
AcDbEntity
  8
SYMBOLS
100
AcDbMText
 62
2
  6
CONTINUOUS
  7
TEXTSTYLE_6
 71
1
 72
1
 10
-0.7772883509
 20
0.9823457303
 30
0.0
 11
1.0
 21
0.0
 31
0.0
 44
0.9
  1
39
 40
0.09
 41
0.135
  0
ENDBLK
  5
499
100
AcDbEntity
  8
0
  6
BYBLOCK
 62
0
100
AcDbBlockEnd
  0
BLOCK
  5
49A
100
AcDbEntity
  8
SYMBOLS
100
AcDbBlockBegin
 62
2
  6
CONTINUOUS
  2
DN_BL38
 70
64
 10
-0.929062925
 20
0.9367362148
  3
DN_BL38
  1

  0
CIRCLE
  5
49B
100
AcDbEntity
  8
SYMBOLS
100
AcDbCircle
 62
2
  6
CONTINUOUS
 10
-0.929062925
 20
0.9367362148
 40
0.1
  0
MTEXT
  5
49C
100
AcDbEntity
  8
SYMBOLS
100
AcDbMText
 62
2
  6
CONTINUOUS
  7
TEXTSTYLE_6
 71
1
 72
1
 10
-0.9972883509
 20
0.9823457303
 30
0.0
 11
1.0
 21
0.0
 31
0.0
 44
0.9
  1
38
 40
0.09
 41
0.135
  0
ENDBLK
  5
49D
100
AcDbEntity
  8
0
  6
BYBLOCK
 62
0
100
AcDbBlockEnd
  0
BLOCK
  5
49E
100
AcDbEntity
  8
SYMBOLS
100
AcDbBlockBegin
 62
2
  6
CONTINUOUS
  2
DN_BL37
 70
64
 10
-1.149062925
 20
0.9367362148
  3
DN_BL37
  1

  0
CIRCLE
  5
49F
100
AcDbEntity
  8
SYMBOLS
100
AcDbCircle
 62
2
  6
CONTINUOUS
 10
-1.149062925
 20
0.9367362148
 40
0.1
  0
MTEXT
  5
4A0
100
AcDbEntity
  8
SYMBOLS
100
AcDbMText
 62
2
  6
CONTINUOUS
  7
TEXTSTYLE_6
 71
1
 72
1
 10
-1.2172883509
 20
0.9823457303
 30
0.0
 11
1.0
 21
0.0
 31
0.0
 44
0.9
  1
37
 40
0.09
 41
0.135
  0
ENDBLK
  5
4A1
100
AcDbEntity
  8
0
  6
BYBLOCK
 62
0
100
AcDbBlockEnd
  0
BLOCK
  5
4A2
100
AcDbEntity
  8
SYMBOLS
100
AcDbBlockBegin
 62
2
  6
CONTINUOUS
  2
DN_BL36
 70
64
 10
-1.369062925
 20
0.9367362148
  3
DN_BL36
  1

  0
CIRCLE
  5
4A3
100
AcDbEntity
  8
SYMBOLS
100
AcDbCircle
 62
2
  6
CONTINUOUS
 10
-1.369062925
 20
0.9367362148
 40
0.1
  0
MTEXT
  5
4A4
100
AcDbEntity
  8
SYMBOLS
100
AcDbMText
 62
2
  6
CONTINUOUS
  7
TEXTSTYLE_6
 71
1
 72
1
 10
-1.4372883509
 20
0.9823457303
 30
0.0
 11
1.0
 21
0.0
 31
0.0
 44
0.9
  1
36
 40
0.09
 41
0.135
  0
ENDBLK
  5
4A5
100
AcDbEntity
  8
0
  6
BYBLOCK
 62
0
100
AcDbBlockEnd
  0
BLOCK
  5
4A6
100
AcDbEntity
  8
SYMBOLS
100
AcDbBlockBegin
 62
2
  6
CONTINUOUS
  2
DN_BL35
 70
64
 10
-1.589062925
 20
0.9367362148
  3
DN_BL35
  1

  0
CIRCLE
  5
4A7
100
AcDbEntity
  8
SYMBOLS
100
AcDbCircle
 62
2
  6
CONTINUOUS
 10
-1.589062925
 20
0.9367362148
 40
0.1
  0
MTEXT
  5
4A8
100
AcDbEntity
  8
SYMBOLS
100
AcDbMText
 62
2
  6
CONTINUOUS
  7
TEXTSTYLE_6
 71
1
 72
1
 10
-1.6572883509
 20
0.9823457303
 30
0.0
 11
1.0
 21
0.0
 31
0.0
 44
0.9
  1
35
 40
0.09
 41
0.135
  0
ENDBLK
  5
4A9
100
AcDbEntity
  8
0
  6
BYBLOCK
 62
0
100
AcDbBlockEnd
  0
BLOCK
  5
4AA
100
AcDbEntity
  8
SYMBOLS
100
AcDbBlockBegin
 62
2
  6
CONTINUOUS
  2
DN_BL34
 70
64
 10
-1.809062925
 20
0.9367362148
  3
DN_BL34
  1

  0
CIRCLE
  5
4AB
100
AcDbEntity
  8
SYMBOLS
100
AcDbCircle
 62
2
  6
CONTINUOUS
 10
-1.809062925
 20
0.9367362148
 40
0.1
  0
MTEXT
  5
4AC
100
AcDbEntity
  8
SYMBOLS
100
AcDbMText
 62
2
  6
CONTINUOUS
  7
TEXTSTYLE_6
 71
1
 72
1
 10
-1.8772883509
 20
0.9823457303
 30
0.0
 11
1.0
 21
0.0
 31
0.0
 44
0.9
  1
34
 40
0.09
 41
0.135
  0
ENDBLK
  5
4AD
100
AcDbEntity
  8
0
  6
BYBLOCK
 62
0
100
AcDbBlockEnd
  0
BLOCK
  5
4AE
100
AcDbEntity
  8
SYMBOLS
100
AcDbBlockBegin
 62
2
  6
CONTINUOUS
  2
DN_BL33
 70
64
 10
-2.029062925
 20
0.9367362148
  3
DN_BL33
  1

  0
CIRCLE
  5
4AF
100
AcDbEntity
  8
SYMBOLS
100
AcDbCircle
 62
2
  6
CONTINUOUS
 10
-2.029062925
 20
0.9367362148
 40
0.1
  0
MTEXT
  5
4B0
100
AcDbEntity
  8
SYMBOLS
100
AcDbMText
 62
2
  6
CONTINUOUS
  7
TEXTSTYLE_6
 71
1
 72
1
 10
-2.0972883509
 20
0.9823457303
 30
0.0
 11
1.0
 21
0.0
 31
0.0
 44
0.9
  1
33
 40
0.09
 41
0.135
  0
ENDBLK
  5
4B1
100
AcDbEntity
  8
0
  6
BYBLOCK
 62
0
100
AcDbBlockEnd
  0
BLOCK
  5
4B2
100
AcDbEntity
  8
SYMBOLS
100
AcDbBlockBegin
 62
2
  6
CONTINUOUS
  2
DN_BL32
 70
64
 10
-2.249062925
 20
0.9367362148
  3
DN_BL32
  1

  0
CIRCLE
  5
4B3
100
AcDbEntity
  8
SYMBOLS
100
AcDbCircle
 62
2
  6
CONTINUOUS
 10
-2.249062925
 20
0.9367362148
 40
0.1
  0
MTEXT
  5
4B4
100
AcDbEntity
  8
SYMBOLS
100
AcDbMText
 62
2
  6
CONTINUOUS
  7
TEXTSTYLE_6
 71
1
 72
1
 10
-2.3172883509
 20
0.9823457303
 30
0.0
 11
1.0
 21
0.0
 31
0.0
 44
0.9
  1
32
 40
0.09
 41
0.135
  0
ENDBLK
  5
4B5
100
AcDbEntity
  8
0
  6
BYBLOCK
 62
0
100
AcDbBlockEnd
  0
BLOCK
  5
4B6
100
AcDbEntity
  8
SYMBOLS
100
AcDbBlockBegin
 62
2
  6
CONTINUOUS
  2
DN_BL31
 70
64
 10
-2.469062925
 20
0.9367362148
  3
DN_BL31
  1

  0
CIRCLE
  5
4B7
100
AcDbEntity
  8
SYMBOLS
100
AcDbCircle
 62
2
  6
CONTINUOUS
 10
-2.469062925
 20
0.9367362148
 40
0.1
  0
MTEXT
  5
4B8
100
AcDbEntity
  8
SYMBOLS
100
AcDbMText
 62
2
  6
CONTINUOUS
  7
TEXTSTYLE_6
 71
1
 72
1
 10
-2.5372883509
 20
0.9823457303
 30
0.0
 11
1.0
 21
0.0
 31
0.0
 44
0.9
  1
31
 40
0.09
 41
0.135
  0
ENDBLK
  5
4B9
100
AcDbEntity
  8
0
  6
BYBLOCK
 62
0
100
AcDbBlockEnd
  0
BLOCK
  5
4BA
100
AcDbEntity
  8
SYMBOLS
100
AcDbBlockBegin
 62
2
  6
CONTINUOUS
  2
DN_BL30
 70
64
 10
-0.489062925
 20
0.7167362148
  3
DN_BL30
  1

  0
CIRCLE
  5
4BB
100
AcDbEntity
  8
SYMBOLS
100
AcDbCircle
 62
2
  6
CONTINUOUS
 10
-0.489062925
 20
0.7167362148
 40
0.1
  0
MTEXT
  5
4BC
100
AcDbEntity
  8
SYMBOLS
100
AcDbMText
 62
2
  6
CONTINUOUS
  7
TEXTSTYLE_6
 71
1
 72
1
 10
-0.5572883509
 20
0.7623457303
 30
0.0
 11
1.0
 21
0.0
 31
0.0
 44
0.9
  1
30
 40
0.09
 41
0.135
  0
ENDBLK
  5
4BD
100
AcDbEntity
  8
0
  6
BYBLOCK
 62
0
100
AcDbBlockEnd
  0
BLOCK
  5
4BE
100
AcDbEntity
  8
SYMBOLS
100
AcDbBlockBegin
 62
2
  6
CONTINUOUS
  2
DN_BL29
 70
64
 10
-0.709062925
 20
0.7167362148
  3
DN_BL29
  1

  0
CIRCLE
  5
4BF
100
AcDbEntity
  8
SYMBOLS
100
AcDbCircle
 62
2
  6
CONTINUOUS
 10
-0.709062925
 20
0.7167362148
 40
0.1
  0
MTEXT
  5
4C0
100
AcDbEntity
  8
SYMBOLS
100
AcDbMText
 62
2
  6
CONTINUOUS
  7
TEXTSTYLE_6
 71
1
 72
1
 10
-0.7772883509
 20
0.7623457303
 30
0.0
 11
1.0
 21
0.0
 31
0.0
 44
0.9
  1
29
 40
0.09
 41
0.135
  0
ENDBLK
  5
4C1
100
AcDbEntity
  8
0
  6
BYBLOCK
 62
0
100
AcDbBlockEnd
  0
BLOCK
  5
4C2
100
AcDbEntity
  8
SYMBOLS
100
AcDbBlockBegin
 62
2
  6
CONTINUOUS
  2
DN_BL28
 70
64
 10
-0.929062925
 20
0.7167362148
  3
DN_BL28
  1

  0
CIRCLE
  5
4C3
100
AcDbEntity
  8
SYMBOLS
100
AcDbCircle
 62
2
  6
CONTINUOUS
 10
-0.929062925
 20
0.7167362148
 40
0.1
  0
MTEXT
  5
4C4
100
AcDbEntity
  8
SYMBOLS
100
AcDbMText
 62
2
  6
CONTINUOUS
  7
TEXTSTYLE_6
 71
1
 72
1
 10
-0.9972883509
 20
0.7623457303
 30
0.0
 11
1.0
 21
0.0
 31
0.0
 44
0.9
  1
28
 40
0.09
 41
0.135
  0
ENDBLK
  5
4C5
100
AcDbEntity
  8
0
  6
BYBLOCK
 62
0
100
AcDbBlockEnd
  0
BLOCK
  5
4C6
100
AcDbEntity
  8
SYMBOLS
100
AcDbBlockBegin
 62
2
  6
CONTINUOUS
  2
DN_BL27
 70
64
 10
-1.149062925
 20
0.7167362148
  3
DN_BL27
  1

  0
CIRCLE
  5
4C7
100
AcDbEntity
  8
SYMBOLS
100
AcDbCircle
 62
2
  6
CONTINUOUS
 10
-1.149062925
 20
0.7167362148
 40
0.1
  0
MTEXT
  5
4C8
100
AcDbEntity
  8
SYMBOLS
100
AcDbMText
 62
2
  6
CONTINUOUS
  7
TEXTSTYLE_6
 71
1
 72
1
 10
-1.2172883509
 20
0.7623457303
 30
0.0
 11
1.0
 21
0.0
 31
0.0
 44
0.9
  1
27
 40
0.09
 41
0.135
  0
ENDBLK
  5
4C9
100
AcDbEntity
  8
0
  6
BYBLOCK
 62
0
100
AcDbBlockEnd
  0
BLOCK
  5
4CA
100
AcDbEntity
  8
SYMBOLS
100
AcDbBlockBegin
 62
2
  6
CONTINUOUS
  2
DN_BL26
 70
64
 10
-1.369062925
 20
0.7167362148
  3
DN_BL26
  1

  0
CIRCLE
  5
4CB
100
AcDbEntity
  8
SYMBOLS
100
AcDbCircle
 62
2
  6
CONTINUOUS
 10
-1.369062925
 20
0.7167362148
 40
0.1
  0
MTEXT
  5
4CC
100
AcDbEntity
  8
SYMBOLS
100
AcDbMText
 62
2
  6
CONTINUOUS
  7
TEXTSTYLE_6
 71
1
 72
1
 10
-1.4372883509
 20
0.7623457303
 30
0.0
 11
1.0
 21
0.0
 31
0.0
 44
0.9
  1
26
 40
0.09
 41
0.135
  0
ENDBLK
  5
4CD
100
AcDbEntity
  8
0
  6
BYBLOCK
 62
0
100
AcDbBlockEnd
  0
BLOCK
  5
4CE
100
AcDbEntity
  8
SYMBOLS
100
AcDbBlockBegin
 62
2
  6
CONTINUOUS
  2
DN_BL25
 70
64
 10
-1.589062925
 20
0.7167362148
  3
DN_BL25
  1

  0
CIRCLE
  5
4CF
100
AcDbEntity
  8
SYMBOLS
100
AcDbCircle
 62
2
  6
CONTINUOUS
 10
-1.589062925
 20
0.7167362148
 40
0.1
  0
MTEXT
  5
4D0
100
AcDbEntity
  8
SYMBOLS
100
AcDbMText
 62
2
  6
CONTINUOUS
  7
TEXTSTYLE_6
 71
1
 72
1
 10
-1.6572883509
 20
0.7623457303
 30
0.0
 11
1.0
 21
0.0
 31
0.0
 44
0.9
  1
25
 40
0.09
 41
0.135
  0
ENDBLK
  5
4D1
100
AcDbEntity
  8
0
  6
BYBLOCK
 62
0
100
AcDbBlockEnd
  0
BLOCK
  5
4D2
100
AcDbEntity
  8
SYMBOLS
100
AcDbBlockBegin
 62
2
  6
CONTINUOUS
  2
DN_BL24
 70
64
 10
-1.809062925
 20
0.7167362148
  3
DN_BL24
  1

  0
CIRCLE
  5
4D3
100
AcDbEntity
  8
SYMBOLS
100
AcDbCircle
 62
2
  6
CONTINUOUS
 10
-1.809062925
 20
0.7167362148
 40
0.1
  0
MTEXT
  5
4D4
100
AcDbEntity
  8
SYMBOLS
100
AcDbMText
 62
2
  6
CONTINUOUS
  7
TEXTSTYLE_6
 71
1
 72
1
 10
-1.8772883509
 20
0.7623457303
 30
0.0
 11
1.0
 21
0.0
 31
0.0
 44
0.9
  1
24
 40
0.09
 41
0.135
  0
ENDBLK
  5
4D5
100
AcDbEntity
  8
0
  6
BYBLOCK
 62
0
100
AcDbBlockEnd
  0
BLOCK
  5
4D6
100
AcDbEntity
  8
SYMBOLS
100
AcDbBlockBegin
 62
2
  6
CONTINUOUS
  2
DN_BL23
 70
64
 10
-2.029062925
 20
0.7167362148
  3
DN_BL23
  1

  0
CIRCLE
  5
4D7
100
AcDbEntity
  8
SYMBOLS
100
AcDbCircle
 62
2
  6
CONTINUOUS
 10
-2.029062925
 20
0.7167362148
 40
0.1
  0
MTEXT
  5
4D8
100
AcDbEntity
  8
SYMBOLS
100
AcDbMText
 62
2
  6
CONTINUOUS
  7
TEXTSTYLE_6
 71
1
 72
1
 10
-2.0972883509
 20
0.7623457303
 30
0.0
 11
1.0
 21
0.0
 31
0.0
 44
0.9
  1
23
 40
0.09
 41
0.135
  0
ENDBLK
  5
4D9
100
AcDbEntity
  8
0
  6
BYBLOCK
 62
0
100
AcDbBlockEnd
  0
BLOCK
  5
4DA
100
AcDbEntity
  8
SYMBOLS
100
AcDbBlockBegin
 62
2
  6
CONTINUOUS
  2
DN_BL22
 70
64
 10
-2.249062925
 20
0.7167362148
  3
DN_BL22
  1

  0
CIRCLE
  5
4DB
100
AcDbEntity
  8
SYMBOLS
100
AcDbCircle
 62
2
  6
CONTINUOUS
 10
-2.249062925
 20
0.7167362148
 40
0.1
  0
MTEXT
  5
4DC
100
AcDbEntity
  8
SYMBOLS
100
AcDbMText
 62
2
  6
CONTINUOUS
  7
TEXTSTYLE_6
 71
1
 72
1
 10
-2.3172883509
 20
0.7623457303
 30
0.0
 11
1.0
 21
0.0
 31
0.0
 44
0.9
  1
22
 40
0.09
 41
0.135
  0
ENDBLK
  5
4DD
100
AcDbEntity
  8
0
  6
BYBLOCK
 62
0
100
AcDbBlockEnd
  0
BLOCK
  5
4DE
100
AcDbEntity
  8
SYMBOLS
100
AcDbBlockBegin
 62
2
  6
CONTINUOUS
  2
DN_BL21
 70
64
 10
-2.469062925
 20
0.7167362148
  3
DN_BL21
  1

  0
CIRCLE
  5
4DF
100
AcDbEntity
  8
SYMBOLS
100
AcDbCircle
 62
2
  6
CONTINUOUS
 10
-2.469062925
 20
0.7167362148
 40
0.1
  0
MTEXT
  5
4E0
100
AcDbEntity
  8
SYMBOLS
100
AcDbMText
 62
2
  6
CONTINUOUS
  7
TEXTSTYLE_6
 71
1
 72
1
 10
-2.5372883509
 20
0.7623457303
 30
0.0
 11
1.0
 21
0.0
 31
0.0
 44
0.9
  1
21
 40
0.09
 41
0.135
  0
ENDBLK
  5
4E1
100
AcDbEntity
  8
0
  6
BYBLOCK
 62
0
100
AcDbBlockEnd
  0
BLOCK
  5
4E2
100
AcDbEntity
  8
SYMBOLS
100
AcDbBlockBegin
 62
2
  6
CONTINUOUS
  2
DN_BL20
 70
64
 10
-0.489062925
 20
0.4967362148
  3
DN_BL20
  1

  0
CIRCLE
  5
4E3
100
AcDbEntity
  8
SYMBOLS
100
AcDbCircle
 62
2
  6
CONTINUOUS
 10
-0.489062925
 20
0.4967362148
 40
0.1
  0
MTEXT
  5
4E4
100
AcDbEntity
  8
SYMBOLS
100
AcDbMText
 62
2
  6
CONTINUOUS
  7
TEXTSTYLE_6
 71
1
 72
1
 10
-0.5572883509
 20
0.5423457303
 30
0.0
 11
1.0
 21
0.0
 31
0.0
 44
0.9
  1
20
 40
0.09
 41
0.135
  0
ENDBLK
  5
4E5
100
AcDbEntity
  8
0
  6
BYBLOCK
 62
0
100
AcDbBlockEnd
  0
BLOCK
  5
4E6
100
AcDbEntity
  8
SYMBOLS
100
AcDbBlockBegin
 62
2
  6
CONTINUOUS
  2
DN_BL19
 70
64
 10
-0.709062925
 20
0.4967362148
  3
DN_BL19
  1

  0
CIRCLE
  5
4E7
100
AcDbEntity
  8
SYMBOLS
100
AcDbCircle
 62
2
  6
CONTINUOUS
 10
-0.709062925
 20
0.4967362148
 40
0.1
  0
MTEXT
  5
4E8
100
AcDbEntity
  8
SYMBOLS
100
AcDbMText
 62
2
  6
CONTINUOUS
  7
TEXTSTYLE_6
 71
1
 72
1
 10
-0.7772883509
 20
0.5423457303
 30
0.0
 11
1.0
 21
0.0
 31
0.0
 44
0.9
  1
19
 40
0.09
 41
0.135
  0
ENDBLK
  5
4E9
100
AcDbEntity
  8
0
  6
BYBLOCK
 62
0
100
AcDbBlockEnd
  0
BLOCK
  5
4EA
100
AcDbEntity
  8
SYMBOLS
100
AcDbBlockBegin
 62
2
  6
CONTINUOUS
  2
DN_BL18
 70
64
 10
-0.929062925
 20
0.4967362148
  3
DN_BL18
  1

  0
CIRCLE
  5
4EB
100
AcDbEntity
  8
SYMBOLS
100
AcDbCircle
 62
2
  6
CONTINUOUS
 10
-0.929062925
 20
0.4967362148
 40
0.1
  0
MTEXT
  5
4EC
100
AcDbEntity
  8
SYMBOLS
100
AcDbMText
 62
2
  6
CONTINUOUS
  7
TEXTSTYLE_6
 71
1
 72
1
 10
-0.9972883509
 20
0.5423457303
 30
0.0
 11
1.0
 21
0.0
 31
0.0
 44
0.9
  1
18
 40
0.09
 41
0.135
  0
ENDBLK
  5
4ED
100
AcDbEntity
  8
0
  6
BYBLOCK
 62
0
100
AcDbBlockEnd
  0
BLOCK
  5
4EE
100
AcDbEntity
  8
SYMBOLS
100
AcDbBlockBegin
 62
2
  6
CONTINUOUS
  2
DN_BL17
 70
64
 10
-1.149062925
 20
0.4967362148
  3
DN_BL17
  1

  0
CIRCLE
  5
4EF
100
AcDbEntity
  8
SYMBOLS
100
AcDbCircle
 62
2
  6
CONTINUOUS
 10
-1.149062925
 20
0.4967362148
 40
0.1
  0
MTEXT
  5
4F0
100
AcDbEntity
  8
SYMBOLS
100
AcDbMText
 62
2
  6
CONTINUOUS
  7
TEXTSTYLE_6
 71
1
 72
1
 10
-1.2172883509
 20
0.5423457303
 30
0.0
 11
1.0
 21
0.0
 31
0.0
 44
0.9
  1
17
 40
0.09
 41
0.135
  0
ENDBLK
  5
4F1
100
AcDbEntity
  8
0
  6
BYBLOCK
 62
0
100
AcDbBlockEnd
  0
BLOCK
  5
4F2
100
AcDbEntity
  8
SYMBOLS
100
AcDbBlockBegin
 62
2
  6
CONTINUOUS
  2
DN_BL16
 70
64
 10
-1.369062925
 20
0.4967362148
  3
DN_BL16
  1

  0
CIRCLE
  5
4F3
100
AcDbEntity
  8
SYMBOLS
100
AcDbCircle
 62
2
  6
CONTINUOUS
 10
-1.369062925
 20
0.4967362148
 40
0.1
  0
MTEXT
  5
4F4
100
AcDbEntity
  8
SYMBOLS
100
AcDbMText
 62
2
  6
CONTINUOUS
  7
TEXTSTYLE_6
 71
1
 72
1
 10
-1.4372883509
 20
0.5423457303
 30
0.0
 11
1.0
 21
0.0
 31
0.0
 44
0.9
  1
16
 40
0.09
 41
0.135
  0
ENDBLK
  5
4F5
100
AcDbEntity
  8
0
  6
BYBLOCK
 62
0
100
AcDbBlockEnd
  0
BLOCK
  5
4F6
100
AcDbEntity
  8
SYMBOLS
100
AcDbBlockBegin
 62
2
  6
CONTINUOUS
  2
DN_BL15
 70
64
 10
-1.589062925
 20
0.4967362148
  3
DN_BL15
  1

  0
CIRCLE
  5
4F7
100
AcDbEntity
  8
SYMBOLS
100
AcDbCircle
 62
2
  6
CONTINUOUS
 10
-1.589062925
 20
0.4967362148
 40
0.1
  0
MTEXT
  5
4F8
100
AcDbEntity
  8
SYMBOLS
100
AcDbMText
 62
2
  6
CONTINUOUS
  7
TEXTSTYLE_6
 71
1
 72
1
 10
-1.6572883509
 20
0.5423457303
 30
0.0
 11
1.0
 21
0.0
 31
0.0
 44
0.9
  1
15
 40
0.09
 41
0.135
  0
ENDBLK
  5
4F9
100
AcDbEntity
  8
0
  6
BYBLOCK
 62
0
100
AcDbBlockEnd
  0
BLOCK
  5
4FA
100
AcDbEntity
  8
SYMBOLS
100
AcDbBlockBegin
 62
2
  6
CONTINUOUS
  2
DN_BL14
 70
64
 10
-1.809062925
 20
0.4967362148
  3
DN_BL14
  1

  0
CIRCLE
  5
4FB
100
AcDbEntity
  8
SYMBOLS
100
AcDbCircle
 62
2
  6
CONTINUOUS
 10
-1.809062925
 20
0.4967362148
 40
0.1
  0
MTEXT
  5
4FC
100
AcDbEntity
  8
SYMBOLS
100
AcDbMText
 62
2
  6
CONTINUOUS
  7
TEXTSTYLE_6
 71
1
 72
1
 10
-1.8772883509
 20
0.5423457303
 30
0.0
 11
1.0
 21
0.0
 31
0.0
 44
0.9
  1
14
 40
0.09
 41
0.135
  0
ENDBLK
  5
4FD
100
AcDbEntity
  8
0
  6
BYBLOCK
 62
0
100
AcDbBlockEnd
  0
BLOCK
  5
4FE
100
AcDbEntity
  8
SYMBOLS
100
AcDbBlockBegin
 62
2
  6
CONTINUOUS
  2
DN_BL13
 70
64
 10
-2.029062925
 20
0.4967362148
  3
DN_BL13
  1

  0
CIRCLE
  5
4FF
100
AcDbEntity
  8
SYMBOLS
100
AcDbCircle
 62
2
  6
CONTINUOUS
 10
-2.029062925
 20
0.4967362148
 40
0.1
  0
MTEXT
  5
500
100
AcDbEntity
  8
SYMBOLS
100
AcDbMText
 62
2
  6
CONTINUOUS
  7
TEXTSTYLE_6
 71
1
 72
1
 10
-2.0972883509
 20
0.5423457303
 30
0.0
 11
1.0
 21
0.0
 31
0.0
 44
0.9
  1
13
 40
0.09
 41
0.135
  0
ENDBLK
  5
501
100
AcDbEntity
  8
0
  6
BYBLOCK
 62
0
100
AcDbBlockEnd
  0
BLOCK
  5
502
100
AcDbEntity
  8
SYMBOLS
100
AcDbBlockBegin
 62
2
  6
CONTINUOUS
  2
DN_BL12
 70
64
 10
-2.249062925
 20
0.4967362148
  3
DN_BL12
  1

  0
CIRCLE
  5
503
100
AcDbEntity
  8
SYMBOLS
100
AcDbCircle
 62
2
  6
CONTINUOUS
 10
-2.249062925
 20
0.4967362148
 40
0.1
  0
MTEXT
  5
504
100
AcDbEntity
  8
SYMBOLS
100
AcDbMText
 62
2
  6
CONTINUOUS
  7
TEXTSTYLE_6
 71
1
 72
1
 10
-2.3172883509
 20
0.5423457303
 30
0.0
 11
1.0
 21
0.0
 31
0.0
 44
0.9
  1
12
 40
0.09
 41
0.135
  0
ENDBLK
  5
505
100
AcDbEntity
  8
0
  6
BYBLOCK
 62
0
100
AcDbBlockEnd
  0
BLOCK
  5
506
100
AcDbEntity
  8
SYMBOLS
100
AcDbBlockBegin
 62
2
  6
CONTINUOUS
  2
DN_BL11
 70
64
 10
-2.469062925
 20
0.4967362148
  3
DN_BL11
  1

  0
CIRCLE
  5
507
100
AcDbEntity
  8
SYMBOLS
100
AcDbCircle
 62
2
  6
CONTINUOUS
 10
-2.469062925
 20
0.4967362148
 40
0.1
  0
MTEXT
  5
508
100
AcDbEntity
  8
SYMBOLS
100
AcDbMText
 62
2
  6
CONTINUOUS
  7
TEXTSTYLE_6
 71
1
 72
1
 10
-2.5372883509
 20
0.5423457303
 30
0.0
 11
1.0
 21
0.0
 31
0.0
 44
0.9
  1
11
 40
0.09
 41
0.135
  0
ENDBLK
  5
509
100
AcDbEntity
  8
0
  6
BYBLOCK
 62
0
100
AcDbBlockEnd
  0
BLOCK
  5
50A
100
AcDbEntity
  8
SYMBOLS
100
AcDbBlockBegin
 62
2
  6
CONTINUOUS
  2
DN_BL10
 70
64
 10
-0.489062925
 20
0.2767362148
  3
DN_BL10
  1

  0
CIRCLE
  5
50B
100
AcDbEntity
  8
SYMBOLS
100
AcDbCircle
 62
2
  6
CONTINUOUS
 10
-0.489062925
 20
0.2767362148
 40
0.1
  0
MTEXT
  5
50C
100
AcDbEntity
  8
SYMBOLS
100
AcDbMText
 62
2
  6
CONTINUOUS
  7
TEXTSTYLE_6
 71
1
 72
1
 10
-0.5572883509
 20
0.3223457303
 30
0.0
 11
1.0
 21
0.0
 31
0.0
 44
0.9
  1
10
 40
0.09
 41
0.135
  0
ENDBLK
  5
50D
100
AcDbEntity
  8
0
  6
BYBLOCK
 62
0
100
AcDbBlockEnd
  0
BLOCK
  5
50E
100
AcDbEntity
  8
SYMBOLS
100
AcDbBlockBegin
 62
2
  6
CONTINUOUS
  2
DN_BL9
 70
64
 10
-0.709062925
 20
0.2767362148
  3
DN_BL9
  1

  0
CIRCLE
  5
50F
100
AcDbEntity
  8
SYMBOLS
100
AcDbCircle
 62
2
  6
CONTINUOUS
 10
-0.709062925
 20
0.2767362148
 40
0.1
  0
MTEXT
  5
510
100
AcDbEntity
  8
SYMBOLS
100
AcDbMText
 62
2
  6
CONTINUOUS
  7
TEXTSTYLE_6
 71
1
 72
1
 10
-0.7435383509
 20
0.3223457303
 30
0.0
 11
1.0
 21
0.0
 31
0.0
 44
0.9
  1
9
 40
0.09
 41
0.0675
  0
ENDBLK
  5
511
100
AcDbEntity
  8
0
  6
BYBLOCK
 62
0
100
AcDbBlockEnd
  0
BLOCK
  5
512
100
AcDbEntity
  8
SYMBOLS
100
AcDbBlockBegin
 62
2
  6
CONTINUOUS
  2
DN_BL8
 70
64
 10
-0.929062925
 20
0.2767362148
  3
DN_BL8
  1

  0
CIRCLE
  5
513
100
AcDbEntity
  8
SYMBOLS
100
AcDbCircle
 62
2
  6
CONTINUOUS
 10
-0.929062925
 20
0.2767362148
 40
0.1
  0
MTEXT
  5
514
100
AcDbEntity
  8
SYMBOLS
100
AcDbMText
 62
2
  6
CONTINUOUS
  7
TEXTSTYLE_6
 71
1
 72
1
 10
-0.9635383509
 20
0.3223457303
 30
0.0
 11
1.0
 21
0.0
 31
0.0
 44
0.9
  1
8
 40
0.09
 41
0.0675
  0
ENDBLK
  5
515
100
AcDbEntity
  8
0
  6
BYBLOCK
 62
0
100
AcDbBlockEnd
  0
BLOCK
  5
516
100
AcDbEntity
  8
SYMBOLS
100
AcDbBlockBegin
 62
2
  6
CONTINUOUS
  2
DN_BL7
 70
64
 10
-1.149062925
 20
0.2767362148
  3
DN_BL7
  1

  0
CIRCLE
  5
517
100
AcDbEntity
  8
SYMBOLS
100
AcDbCircle
 62
2
  6
CONTINUOUS
 10
-1.149062925
 20
0.2767362148
 40
0.1
  0
MTEXT
  5
518
100
AcDbEntity
  8
SYMBOLS
100
AcDbMText
 62
2
  6
CONTINUOUS
  7
TEXTSTYLE_6
 71
1
 72
1
 10
-1.1835383509
 20
0.3223457303
 30
0.0
 11
1.0
 21
0.0
 31
0.0
 44
0.9
  1
7
 40
0.09
 41
0.0675
  0
ENDBLK
  5
519
100
AcDbEntity
  8
0
  6
BYBLOCK
 62
0
100
AcDbBlockEnd
  0
BLOCK
  5
51A
100
AcDbEntity
  8
SYMBOLS
100
AcDbBlockBegin
 62
2
  6
CONTINUOUS
  2
DN_BL6
 70
64
 10
-1.369062925
 20
0.2767362148
  3
DN_BL6
  1

  0
CIRCLE
  5
51B
100
AcDbEntity
  8
SYMBOLS
100
AcDbCircle
 62
2
  6
CONTINUOUS
 10
-1.369062925
 20
0.2767362148
 40
0.1
  0
MTEXT
  5
51C
100
AcDbEntity
  8
SYMBOLS
100
AcDbMText
 62
2
  6
CONTINUOUS
  7
TEXTSTYLE_6
 71
1
 72
1
 10
-1.4035383509
 20
0.3223457303
 30
0.0
 11
1.0
 21
0.0
 31
0.0
 44
0.9
  1
6
 40
0.09
 41
0.0675
  0
ENDBLK
  5
51D
100
AcDbEntity
  8
0
  6
BYBLOCK
 62
0
100
AcDbBlockEnd
  0
BLOCK
  5
51E
100
AcDbEntity
  8
SYMBOLS
100
AcDbBlockBegin
 62
2
  6
CONTINUOUS
  2
DN_BL5
 70
64
 10
-1.589062925
 20
0.2767362148
  3
DN_BL5
  1

  0
CIRCLE
  5
51F
100
AcDbEntity
  8
SYMBOLS
100
AcDbCircle
 62
2
  6
CONTINUOUS
 10
-1.589062925
 20
0.2767362148
 40
0.1
  0
MTEXT
  5
520
100
AcDbEntity
  8
SYMBOLS
100
AcDbMText
 62
2
  6
CONTINUOUS
  7
TEXTSTYLE_6
 71
1
 72
1
 10
-1.6235383509
 20
0.3223457303
 30
0.0
 11
1.0
 21
0.0
 31
0.0
 44
0.9
  1
5
 40
0.09
 41
0.0675
  0
ENDBLK
  5
521
100
AcDbEntity
  8
0
  6
BYBLOCK
 62
0
100
AcDbBlockEnd
  0
BLOCK
  5
522
100
AcDbEntity
  8
SYMBOLS
100
AcDbBlockBegin
 62
2
  6
CONTINUOUS
  2
DN_BL4
 70
64
 10
-1.809062925
 20
0.2767362148
  3
DN_BL4
  1

  0
CIRCLE
  5
523
100
AcDbEntity
  8
SYMBOLS
100
AcDbCircle
 62
2
  6
CONTINUOUS
 10
-1.809062925
 20
0.2767362148
 40
0.1
  0
MTEXT
  5
524
100
AcDbEntity
  8
SYMBOLS
100
AcDbMText
 62
2
  6
CONTINUOUS
  7
TEXTSTYLE_6
 71
1
 72
1
 10
-1.8435383509
 20
0.3223457303
 30
0.0
 11
1.0
 21
0.0
 31
0.0
 44
0.9
  1
4
 40
0.09
 41
0.0675
  0
ENDBLK
  5
525
100
AcDbEntity
  8
0
  6
BYBLOCK
 62
0
100
AcDbBlockEnd
  0
BLOCK
  5
526
100
AcDbEntity
  8
SYMBOLS
100
AcDbBlockBegin
 62
2
  6
CONTINUOUS
  2
DN_BL3
 70
64
 10
-2.029062925
 20
0.2767362148
  3
DN_BL3
  1

  0
CIRCLE
  5
527
100
AcDbEntity
  8
SYMBOLS
100
AcDbCircle
 62
2
  6
CONTINUOUS
 10
-2.029062925
 20
0.2767362148
 40
0.1
  0
MTEXT
  5
528
100
AcDbEntity
  8
SYMBOLS
100
AcDbMText
 62
2
  6
CONTINUOUS
  7
TEXTSTYLE_6
 71
1
 72
1
 10
-2.0635383509
 20
0.3223457303
 30
0.0
 11
1.0
 21
0.0
 31
0.0
 44
0.9
  1
3
 40
0.09
 41
0.0675
  0
ENDBLK
  5
529
100
AcDbEntity
  8
0
  6
BYBLOCK
 62
0
100
AcDbBlockEnd
  0
BLOCK
  5
52A
100
AcDbEntity
  8
SYMBOLS
100
AcDbBlockBegin
 62
2
  6
CONTINUOUS
  2
DN_BL2
 70
64
 10
-2.249062925
 20
0.2767362148
  3
DN_BL2
  1

  0
CIRCLE
  5
52B
100
AcDbEntity
  8
SYMBOLS
100
AcDbCircle
 62
2
  6
CONTINUOUS
 10
-2.249062925
 20
0.2767362148
 40
0.1
  0
MTEXT
  5
52C
100
AcDbEntity
  8
SYMBOLS
100
AcDbMText
 62
2
  6
CONTINUOUS
  7
TEXTSTYLE_6
 71
1
 72
1
 10
-2.2835383509
 20
0.3223457303
 30
0.0
 11
1.0
 21
0.0
 31
0.0
 44
0.9
  1
2
 40
0.09
 41
0.0675
  0
ENDBLK
  5
52D
100
AcDbEntity
  8
0
  6
BYBLOCK
 62
0
100
AcDbBlockEnd
  0
BLOCK
  5
52E
100
AcDbEntity
  8
SYMBOLS
100
AcDbBlockBegin
 62
2
  6
CONTINUOUS
  2
DN_BL1
 70
64
 10
-2.469062925
 20
0.2767362148
  3
DN_BL1
  1

  0
CIRCLE
  5
52F
100
AcDbEntity
  8
SYMBOLS
100
AcDbCircle
 62
2
  6
CONTINUOUS
 10
-2.469062925
 20
0.2767362148
 40
0.1
  0
MTEXT
  5
530
100
AcDbEntity
  8
SYMBOLS
100
AcDbMText
 62
2
  6
CONTINUOUS
  7
TEXTSTYLE_6
 71
1
 72
1
 10
-2.5035383509
 20
0.3223457303
 30
0.0
 11
1.0
 21
0.0
 31
0.0
 44
0.9
  1
1
 40
0.09
 41
0.0675
  0
ENDBLK
  5
531
100
AcDbEntity
  8
0
  6
BYBLOCK
 62
0
100
AcDbBlockEnd
  0
BLOCK
  5
532
100
AcDbEntity
  8
0
100
AcDbBlockBegin
 62
2
  6
CONTINUOUS
  2
BANNER_LOGO_TITLEBLOCK_BL0
 70
64
 10
12.9086867042
 20
2.5403783405
  3
BANNER_LOGO_TITLEBLOCK_BL0
  1

  0
ELLIPSE
  5
533
100
AcDbEntity
  8
0
100
AcDbEllipse
 62
2
  6
CONTINUOUS
 10
12.9046654608
 20
2.5403783405
 30
0.0
 11
-0.8250004575
 21
0.0
 31
0.0
 40
0.218572
 41
0.0
 42
6.2831853072
  0
ARC
  5
534
100
AcDbEntity
  8
0
100
AcDbCircle
 62
2
  6
CONTINUOUS
 10
12.400005721
 20
2.5168763464
 40
0.0153945295
100
AcDbArc
 50
354.0454548824
 51
5.1878013979
  0
ARC
  5
535
100
AcDbEntity
  8
0
100
AcDbCircle
 62
2
  6
CONTINUOUS
 10
12.3931760319
 20
2.5166878286
 40
0.0222174455
100
AcDbArc
 50
4.0793399388
 51
69.834329283
  0
LINE
  5
536
100
AcDbEntity
  8
0
100
AcDbLine
 62
2
  6
CONTINUOUS
 10
12.4008351814
 20
2.5375433389
 11
12.3907841758
 21
2.5410923409
  0
LINE
  5
537
100
AcDbEntity
  8
0
100
AcDbLine
 62
2
  6
CONTINUOUS
 10
12.3907841758
 20
2.5410923409
 11
12.3990241804
 21
2.5458683435
  0
ARC
  5
538
100
AcDbEntity
  8
0
100
AcDbCircle
 62
2
  6
CONTINUOUS
 10
12.3771587979
 20
2.5826952352
 40
0.0428289026
100
AcDbArc
 50
300.6990502959
 51
319.0591802498
  0
ARC
  5
539
100
AcDbEntity
  8
0
100
AcDbCircle
 62
2
  6
CONTINUOUS
 10
12.3971873948
 20
2.5665668817
 40
0.0171568255
100
AcDbArc
 50
315.9145124245
 51
16.0049121282
  0
ARC
  5
53A
100
AcDbEntity
  8
0
100
AcDbCircle
 62
2
  6
CONTINUOUS
 10
12.3922357827
 20
2.5632132173
 40
0.0229166529
100
AcDbArc
 50
20.6563876465
 51
62.3316896973
  0
ARC
  5
53B
100
AcDbEntity
  8
0
100
AcDbCircle
 62
2
  6
CONTINUOUS
 10
12.371573659
 20
2.5302846524
 40
0.061747717
100
AcDbArc
 50
59.5385584989
 51
90.0050977555
  0
LINE
  5
53C
100
AcDbEntity
  8
0
100
AcDbLine
 62
2
  6
CONTINUOUS
 10
12.3715681652
 20
2.5920323691
 11
12.2055050731
 21
2.5920323691
  0
ARC
  5
53D
100
AcDbEntity
  8
0
100
AcDbCircle
 62
2
  6
CONTINUOUS
 10
12.2055050712
 20
2.5895573696
 40
0.0024749995
100
AcDbArc
 50
89.9999571957
 51
180.0000428043
  0
LINE
  5
53E
100
AcDbEntity
  8
0
100
AcDbLine
 62
2
  6
CONTINUOUS
 10
12.2030300717
 20
2.5895573678
 11
12.2030300717
 21
2.5697573568
  0
ARC
  5
53F
100
AcDbEntity
  8
0
100
AcDbCircle
 62
2
  6
CONTINUOUS
 10
12.2055050712
 20
2.5697573549
 40
0.0024749995
100
AcDbArc
 50
179.9999571957
 51
270.0000428043
  0
LINE
  5
540
100
AcDbEntity
  8
0
100
AcDbLine
 62
2
  6
CONTINUOUS
 10
12.2055050731
 20
2.5672823554
 11
12.2294470864
 21
2.5672823554
  0
ARC
  5
541
100
AcDbEntity
  8
0
100
AcDbCircle
 62
2
  6
CONTINUOUS
 10
12.2294470882
 20
2.5648073559
 40
0.0024749995
100
AcDbArc
 50
359.9999571957
 51
90.0000428043
  0
LINE
  5
542
100
AcDbEntity
  8
0
100
AcDbLine
 62
2
  6
CONTINUOUS
 10
12.2319220877
 20
2.564807354
 11
12.2319220877
 21
2.5184523283
  0
ARC
  5
543
100
AcDbEntity
  8
0
100
AcDbCircle
 62
2
  6
CONTINUOUS
 10
12.2294470882
 20
2.5184523265
 40
0.0024749995
100
AcDbArc
 50
269.9999571957
 51
0.0000428043
  0
LINE
  5
544
100
AcDbEntity
  8
0
100
AcDbLine
 62
2
  6
CONTINUOUS
 10
12.2294470864
 20
2.515977327
 11
12.2055050731
 21
2.515977327
  0
ARC
  5
545
100
AcDbEntity
  8
0
100
AcDbCircle
 62
2
  6
CONTINUOUS
 10
12.2055050712
 20
2.5135023274
 40
0.0024749995
100
AcDbArc
 50
89.9999571957
 51
180.0000428043
  0
LINE
  5
546
100
AcDbEntity
  8
0
100
AcDbLine
 62
2
  6
CONTINUOUS
 10
12.2030300717
 20
2.5135023256
 11
12.2030300717
 21
2.4937023146
  0
ARC
  5
547
100
AcDbEntity
  8
0
100
AcDbCircle
 62
2
  6
CONTINUOUS
 10
12.2055050712
 20
2.4937023128
 40
0.0024749995
100
AcDbArc
 50
179.9999571957
 51
270.0000428043
  0
LINE
  5
548
100
AcDbEntity
  8
0
100
AcDbLine
 62
2
  6
CONTINUOUS
 10
12.2055050731
 20
2.4912273132
 11
12.3819511709
 21
2.4912273132
  0
ARC
  5
549
100
AcDbEntity
  8
0
100
AcDbCircle
 62
2
  6
CONTINUOUS
 10
12.3792298263
 20
2.539634765
 40
0.048483885
100
AcDbArc
 50
273.21763719
 51
303.0749121182
  0
ARC
  5
54A
100
AcDbEntity
  8
0
100
AcDbCircle
 62
2
  6
CONTINUOUS
 10
12.3940692204
 20
2.5168671561
 40
0.0213072145
100
AcDbArc
 50
303.0488228549
 51
355.7263138674
  0
LINE
  5
54B
100
AcDbEntity
  8
0
100
AcDbLine
 62
2
  6
CONTINUOUS
 10
12.2949101227
 20
2.5499573458
 11
12.3362731456
 21
2.5499573458
  0
ARC
  5
54C
100
AcDbEntity
  8
0
100
AcDbCircle
 62
2
  6
CONTINUOUS
 10
12.3362731456
 20
2.5586198506
 40
0.0086625048
100
AcDbArc
 50
270.0
 51
90.0
  0
LINE
  5
54D
100
AcDbEntity
  8
0
100
AcDbLine
 62
2
  6
CONTINUOUS
 10
12.3362731456
 20
2.5672823554
 11
12.2949101227
 21
2.5672823554
  0
ARC
  5
54E
100
AcDbEntity
  8
0
100
AcDbCircle
 62
2
  6
CONTINUOUS
 10
12.2949101208
 20
2.5648073559
 40
0.0024749995
100
AcDbArc
 50
89.9999571957
 51
180.0000428043
  0
LINE
  5
54F
100
AcDbEntity
  8
0
100
AcDbLine
 62
2
  6
CONTINUOUS
 10
12.2924351213
 20
2.564807354
 11
12.2924351213
 21
2.5524323472
  0
ARC
  5
550
100
AcDbEntity
  8
0
100
AcDbCircle
 62
2
  6
CONTINUOUS
 10
12.2949101208
 20
2.5524323453
 40
0.0024749995
100
AcDbArc
 50
179.9999571957
 51
270.0000428043
  0
LINE
  5
551
100
AcDbEntity
  8
0
100
AcDbLine
 62
2
  6
CONTINUOUS
 10
12.2924351213
 20
2.5184523283
 11
12.2924351213
 21
2.5308273352
  0
ARC
  5
552
100
AcDbEntity
  8
0
100
AcDbCircle
 62
2
  6
CONTINUOUS
 10
12.2949101208
 20
2.530827337
 40
0.0024749995
100
AcDbArc
 50
89.9999571957
 51
180.0000428043
  0
LINE
  5
553
100
AcDbEntity
  8
0
100
AcDbLine
 62
2
  6
CONTINUOUS
 10
12.2949101227
 20
2.5333023366
 11
12.3362731456
 21
2.5333023366
  0
ARC
  5
554
100
AcDbEntity
  8
0
100
AcDbCircle
 62
2
  6
CONTINUOUS
 10
12.3362731456
 20
2.5246398318
 40
0.0086625048
100
AcDbArc
 50
270.0
 51
90.0
  0
LINE
  5
555
100
AcDbEntity
  8
0
100
AcDbLine
 62
2
  6
CONTINUOUS
 10
12.3362731456
 20
2.515977327
 11
12.2949101227
 21
2.515977327
  0
ARC
  5
556
100
AcDbEntity
  8
0
100
AcDbCircle
 62
2
  6
CONTINUOUS
 10
12.2949101208
 20
2.5184523265
 40
0.0024749995
100
AcDbArc
 50
179.9999571957
 51
270.0000428043
  0
ARC
  5
557
100
AcDbEntity
  8
0
100
AcDbCircle
 62
2
  6
CONTINUOUS
 10
13.5806801742
 20
2.5212486481
 40
0.044722495
100
AcDbArc
 50
195.531588407
 51
204.7624440448
  0
LINE
  5
558
100
AcDbEntity
  8
0
100
AcDbLine
 62
2
  6
CONTINUOUS
 10
13.5375908118
 20
2.5092733232
 11
13.5357868108
 21
2.5153423266
  0
ARC
  5
559
100
AcDbEntity
  8
0
100
AcDbCircle
 62
2
  6
CONTINUOUS
 10
13.4974076135
 20
2.5055452462
 40
0.0396099176
100
AcDbArc
 50
14.3201081283
 51
22.4984722084
  0
ARC
  5
55A
100
AcDbEntity
  8
0
100
AcDbCircle
 62
2
  6
CONTINUOUS
 10
13.5201739219
 20
2.5145168728
 40
0.0151491919
100
AcDbArc
 50
24.098260853
 51
63.0369451818
  0
ARC
  5
55B
100
AcDbEntity
  8
0
100
AcDbCircle
 62
2
  6
CONTINUOUS
 10
13.5161192671
 20
2.5062372524
 40
0.0243676582
100
AcDbArc
 50
63.3666028271
 51
90.3937697637
  0
LINE
  5
55C
100
AcDbEntity
  8
0
100
AcDbLine
 62
2
  6
CONTINUOUS
 10
13.5159517998
 20
2.5306043351
 11
13.4883447845
 21
2.5306043351
  0
ARC
  5
55D
100
AcDbEntity
  8
0
100
AcDbCircle
 62
2
  6
CONTINUOUS
 10
13.4883447827
 20
2.5281293355
 40
0.0024749995
100
AcDbArc
 50
89.9999571957
 51
180.0000428043
  0
LINE
  5
55E
100
AcDbEntity
  8
0
100
AcDbLine
 62
2
  6
CONTINUOUS
 10
13.4858697831
 20
2.5281293337
 11
13.4858697831
 21
2.5184303283
  0
ARC
  5
55F
100
AcDbEntity
  8
0
100
AcDbCircle
 62
2
  6
CONTINUOUS
 10
13.4883447827
 20
2.5184303265
 40
0.0024749995
100
AcDbArc
 50
179.9999571957
 51
270.0000428043
  0
LINE
  5
560
100
AcDbEntity
  8
0
100
AcDbLine
 62
2
  6
CONTINUOUS
 10
13.4883447845
 20
2.5159553269
 11
13.5130037982
 21
2.5159553269
  0
ARC
  5
561
100
AcDbEntity
  8
0
100
AcDbCircle
 62
2
  6
CONTINUOUS
 10
13.5130038
 20
2.5134803274
 40
0.0024749995
100
AcDbArc
 50
359.9999571957
 51
90.0000428043
  0
LINE
  5
562
100
AcDbEntity
  8
0
100
AcDbLine
 62
2
  6
CONTINUOUS
 10
13.5154787995
 20
2.5134803256
 11
13.5154787995
 21
2.4937023146
  0
ARC
  5
563
100
AcDbEntity
  8
0
100
AcDbCircle
 62
2
  6
CONTINUOUS
 10
13.5130038
 20
2.4937023128
 40
0.0024749995
100
AcDbArc
 50
269.9999571957
 51
0.0000428043
  0
LINE
  5
564
100
AcDbEntity
  8
0
100
AcDbLine
 62
2
  6
CONTINUOUS
 10
13.5130037982
 20
2.4912273132
 11
13.3994327352
 21
2.4912273132
  0
ARC
  5
565
100
AcDbEntity
  8
0
100
AcDbCircle
 62
2
  6
CONTINUOUS
 10
13.3994327333
 20
2.4937023128
 40
0.0024749995
100
AcDbArc
 50
179.9999571957
 51
270.0000428043
  0
LINE
  5
566
100
AcDbEntity
  8
0
100
AcDbLine
 62
2
  6
CONTINUOUS
 10
13.3969577338
 20
2.4937023146
 11
13.3969577338
 21
2.5135023256
  0
ARC
  5
567
100
AcDbEntity
  8
0
100
AcDbCircle
 62
2
  6
CONTINUOUS
 10
13.3994327333
 20
2.5135023274
 40
0.0024749995
100
AcDbArc
 50
89.9999571957
 51
180.0000428043
  0
LINE
  5
568
100
AcDbEntity
  8
0
100
AcDbLine
 62
2
  6
CONTINUOUS
 10
13.3994327352
 20
2.515977327
 11
13.4221787478
 21
2.515977327
  0
ARC
  5
569
100
AcDbEntity
  8
0
100
AcDbCircle
 62
2
  6
CONTINUOUS
 10
13.4221787497
 20
2.5184523265
 40
0.0024749995
100
AcDbArc
 50
269.9999571957
 51
0.0000428042
  0
LINE
  5
56A
100
AcDbEntity
  8
0
100
AcDbLine
 62
2
  6
CONTINUOUS
 10
13.4246537492
 20
2.5184523283
 11
13.4246537492
 21
2.564807354
  0
ARC
  5
56B
100
AcDbEntity
  8
0
100
AcDbCircle
 62
2
  6
CONTINUOUS
 10
13.4221787497
 20
2.5648073559
 40
0.0024749995
100
AcDbArc
 50
359.9999571957
 51
90.0000428043
  0
LINE
  5
56C
100
AcDbEntity
  8
0
100
AcDbLine
 62
2
  6
CONTINUOUS
 10
13.4221787478
 20
2.5672823554
 11
13.3994327352
 21
2.5672823554
  0
ARC
  5
56D
100
AcDbEntity
  8
0
100
AcDbCircle
 62
2
  6
CONTINUOUS
 10
13.3994327333
 20
2.5697573549
 40
0.0024749995
100
AcDbArc
 50
179.9999571957
 51
270.0000428043
  0
LINE
  5
56E
100
AcDbEntity
  8
0
100
AcDbLine
 62
2
  6
CONTINUOUS
 10
13.3969577338
 20
2.5697573568
 11
13.3969577338
 21
2.5895573678
  0
ARC
  5
56F
100
AcDbEntity
  8
0
100
AcDbCircle
 62
2
  6
CONTINUOUS
 10
13.3994327333
 20
2.5895573696
 40
0.0024749995
100
AcDbArc
 50
89.9999571957
 51
180.0000428043
  0
LINE
  5
570
100
AcDbEntity
  8
0
100
AcDbLine
 62
2
  6
CONTINUOUS
 10
13.3994327352
 20
2.5920323691
 11
13.5490138181
 21
2.5920323691
  0
ARC
  5
571
100
AcDbEntity
  8
0
100
AcDbCircle
 62
2
  6
CONTINUOUS
 10
13.5463505148
 20
2.4094934586
 40
0.1825583387
100
AcDbArc
 50
79.8618509324
 51
89.1640948679
  0
ARC
  5
572
100
AcDbEntity
  8
0
100
AcDbCircle
 62
2
  6
CONTINUOUS
 10
13.5726548052
 20
2.5503169747
 40
0.039319019
100
AcDbArc
 50
59.1202086415
 51
81.4730239328
  0
ARC
  5
573
100
AcDbEntity
  8
0
100
AcDbCircle
 62
2
  6
CONTINUOUS
 10
13.5783142014
 20
2.5566516438
 40
0.0310192946
100
AcDbArc
 50
34.7540871
 51
62.0879016178
  0
ARC
  5
574
100
AcDbEntity
  8
0
100
AcDbCircle
 62
2
  6
CONTINUOUS
 10
13.5900029525
 20
2.565201245
 40
0.0165459396
100
AcDbArc
 50
1.548452892
 51
33.5033152417
  0
ARC
  5
575
100
AcDbEntity
  8
0
100
AcDbCircle
 62
2
  6
CONTINUOUS
 10
13.5932995477
 20
2.5653696972
 40
0.0132462337
100
AcDbArc
 50
331.1510006998
 51
1.205404301
  0
ARC
  5
576
100
AcDbEntity
  8
0
100
AcDbCircle
 62
2
  6
CONTINUOUS
 10
13.5822888914
 20
2.5720482849
 40
0.0261183659
100
AcDbArc
 50
305.6373831893
 51
329.9727629745
  0
ARC
  5
577
100
AcDbEntity
  8
0
100
AcDbCircle
 62
2
  6
CONTINUOUS
 10
13.5519569538
 20
2.6152551345
 40
0.0789082104
100
AcDbArc
 50
292.906155071
 51
305.2574666259
  0
ARC
  5
578
100
AcDbEntity
  8
0
100
AcDbCircle
 62
2
  6
CONTINUOUS
 10
13.5282557878
 20
2.4386010294
 40
0.117346916
100
AcDbArc
 50
58.614769177
 51
62.3737227606
  0
ARC
  5
579
100
AcDbEntity
  8
0
100
AcDbCircle
 62
2
  6
CONTINUOUS
 10
13.5761387404
 20
2.5167282896
 40
0.0257145923
100
AcDbArc
 50
39.3804255939
 51
59.0361096173
  0
ARC
  5
57A
100
AcDbEntity
  8
0
100
AcDbCircle
 62
2
  6
CONTINUOUS
 10
13.5750183849
 20
2.5166552064
 40
0.0266349791
100
AcDbArc
 50
20.3630922153
 51
37.9727053099
  0
ARC
  5
57B
100
AcDbEntity
  8
0
100
AcDbCircle
 62
2
  6
CONTINUOUS
 10
13.5571178432
 20
2.509473798
 40
0.0459185159
100
AcDbArc
 50
15.6740290068
 51
20.9917271228
  0
ARC
  5
57C
100
AcDbEntity
  8
0
100
AcDbCircle
 62
2
  6
CONTINUOUS
 10
13.6156881783
 20
2.525116781
 40
0.0147197649
100
AcDbArc
 50
192.7054516565
 51
206.0594861022
  0
ARC
  5
57D
100
AcDbEntity
  8
0
100
AcDbCircle
 62
2
  6
CONTINUOUS
 10
13.6071938412
 20
2.5209082945
 40
0.0052403997
100
AcDbArc
 50
205.5232099488
 51
227.5054868079
  0
ARC
  5
57E
100
AcDbEntity
  8
0
100
AcDbCircle
 62
2
  6
CONTINUOUS
 10
13.6054655419
 20
2.5190929218
 40
0.0027347709
100
AcDbArc
 50
228.5117626737
 51
266.1485845754
  0
LINE
  5
57F
100
AcDbEntity
  8
0
100
AcDbLine
 62
2
  6
CONTINUOUS
 10
13.6052818493
 20
2.5163643272
 11
13.60639085
 21
2.5163643272
  0
ARC
  5
580
100
AcDbEntity
  8
0
100
AcDbCircle
 62
2
  6
CONTINUOUS
 10
13.6063292954
 20
2.5296129864
 40
0.0132488022
100
AcDbArc
 50
270.266200055
 51
281.2404888597
  0
ARC
  5
581
100
AcDbEntity
  8
0
100
AcDbCircle
 62
2
  6
CONTINUOUS
 10
13.6075235364
 20
2.5238762928
 40
0.0073895522
100
AcDbArc
 50
280.8288201977
 51
305.0837508495
  0
ARC
  5
582
100
AcDbEntity
  8
0
100
AcDbCircle
 62
2
  6
CONTINUOUS
 10
13.607924718
 20
2.5230254464
 40
0.0064647042
100
AcDbArc
 50
306.5086174083
 51
340.2162360092
  0
ARC
  5
583
100
AcDbEntity
  8
0
100
AcDbCircle
 62
2
  6
CONTINUOUS
 10
13.6027235414
 20
2.524769508
 40
0.0119498009
100
AcDbArc
 50
340.7883861657
 51
1.1691452593
  0
LINE
  5
584
100
AcDbEntity
  8
0
100
AcDbLine
 62
2
  6
CONTINUOUS
 10
13.6146708546
 20
2.525013332
 11
13.6146708546
 21
2.5276393334
  0
ARC
  5
585
100
AcDbEntity
  8
0
100
AcDbCircle
 62
2
  6
CONTINUOUS
 10
13.6171458541
 20
2.5276393353
 40
0.0024749995
100
AcDbArc
 50
89.9999571957
 51
180.0000428043
  0
LINE
  5
586
100
AcDbEntity
  8
0
100
AcDbLine
 62
2
  6
CONTINUOUS
 10
13.6171458559
 20
2.5301143348
 11
13.6292558626
 21
2.5301143348
  0
ARC
  5
587
100
AcDbEntity
  8
0
100
AcDbCircle
 62
2
  6
CONTINUOUS
 10
13.6292558645
 20
2.5276393353
 40
0.0024749995
100
AcDbArc
 50
359.9999571957
 51
90.0000428043
  0
LINE
  5
588
100
AcDbEntity
  8
0
100
AcDbLine
 62
2
  6
CONTINUOUS
 10
13.631730864
 20
2.5276393334
 11
13.631730864
 21
2.516087327
  0
ARC
  5
589
100
AcDbEntity
  8
0
100
AcDbCircle
 62
2
  6
CONTINUOUS
 10
13.6141751675
 20
2.5161916447
 40
0.0175560065
100
AcDbArc
 50
332.2279060967
 51
359.6595469939
  0
ARC
  5
58A
100
AcDbEntity
  8
0
100
AcDbCircle
 62
2
  6
CONTINUOUS
 10
13.6048681567
 20
2.5210861501
 40
0.0280715479
100
AcDbArc
 50
308.5071794988
 51
332.2400656899
  0
ARC
  5
58B
100
AcDbEntity
  8
0
100
AcDbCircle
 62
2
  6
CONTINUOUS
 10
13.5978759713
 20
2.5286873679
 40
0.0383802683
100
AcDbArc
 50
288.7656836787
 51
309.6104317088
  0
ARC
  5
58C
100
AcDbEntity
  8
0
100
AcDbCircle
 62
2
  6
CONTINUOUS
 10
13.6036139387
 20
2.5111006186
 40
0.0198837666
100
AcDbArc
 50
271.8586572978
 51
289.4131338543
  0
LINE
  5
58D
100
AcDbEntity
  8
0
100
AcDbLine
 62
2
  6
CONTINUOUS
 10
13.6042588488
 20
2.4912273132
 11
13.5568948225
 21
2.4912273132
  0
ARC
  5
58E
100
AcDbEntity
  8
0
100
AcDbCircle
 62
2
  6
CONTINUOUS
 10
13.5577001432
 20
2.5085494649
 40
0.0173408616
100
AcDbArc
 50
232.4713476722
 51
267.338189944
  0
ARC
  5
58F
100
AcDbEntity
  8
0
100
AcDbCircle
 62
2
  6
CONTINUOUS
 10
13.5607987082
 20
2.5143997688
 40
0.0238935861
100
AcDbArc
 50
209.8247607259
 51
235.1255079367
  0
ARC
  5
590
100
AcDbEntity
  8
0
100
AcDbCircle
 62
2
  6
CONTINUOUS
 10
13.5295131508
 20
2.5629115009
 40
0.0110815393
100
AcDbArc
 50
306.758405961
 51
320.4502234234
  0
ARC
  5
591
100
AcDbEntity
  8
0
100
AcDbCircle
 62
2
  6
CONTINUOUS
 10
13.5238839599
 20
2.5706523294
 40
0.0206523367
100
AcDbArc
 50
289.6883413472
 51
306.4184925496
  0
ARC
  5
592
100
AcDbEntity
  8
0
100
AcDbCircle
 62
2
  6
CONTINUOUS
 10
13.5219564542
 20
2.5750459767
 40
0.0254407115
100
AcDbArc
 50
270.7327484175
 51
290.441894219
  0
LINE
  5
593
100
AcDbEntity
  8
0
100
AcDbLine
 62
2
  6
CONTINUOUS
 10
13.5222818033
 20
2.5496073456
 11
13.4883447845
 21
2.5496073456
  0
ARC
  5
594
100
AcDbEntity
  8
0
100
AcDbCircle
 62
2
  6
CONTINUOUS
 10
13.4883447827
 20
2.5520823451
 40
0.0024749995
100
AcDbArc
 50
179.9999571957
 51
270.0000428043
  0
LINE
  5
595
100
AcDbEntity
  8
0
100
AcDbLine
 62
2
  6
CONTINUOUS
 10
13.4858697831
 20
2.552082347
 11
13.4858697831
 21
2.564807354
  0
ARC
  5
596
100
AcDbEntity
  8
0
100
AcDbCircle
 62
2
  6
CONTINUOUS
 10
13.4883447827
 20
2.5648073559
 40
0.0024749995
100
AcDbArc
 50
89.9999571957
 51
180.0000428043
  0
LINE
  5
597
100
AcDbEntity
  8
0
100
AcDbLine
 62
2
  6
CONTINUOUS
 10
13.4883447845
 20
2.5672823554
 11
13.5251458049
 21
2.5672823554
  0
ARC
  5
598
100
AcDbEntity
  8
0
100
AcDbCircle
 62
2
  6
CONTINUOUS
 10
13.5236009174
 20
2.5388278764
 40
0.0284963867
100
AcDbArc
 50
70.3834917948
 51
86.8922743861
  0
ARC
  5
599
100
AcDbEntity
  8
0
100
AcDbCircle
 62
2
  6
CONTINUOUS
 10
13.5284605274
 20
2.5518696094
 40
0.0145814632
100
AcDbArc
 50
54.6746025112
 51
71.1660573124
  0
ARC
  5
59A
100
AcDbEntity
  8
0
100
AcDbCircle
 62
2
  6
CONTINUOUS
 10
13.5335900184
 20
2.5587235346
 40
0.0060275915
100
AcDbArc
 50
20.9055592135
 51
56.7851676243
  0
ARC
  5
59B
100
AcDbEntity
  8
0
100
AcDbCircle
 62
2
  6
CONTINUOUS
 10
13.5348905773
 20
2.5593838168
 40
0.0045795888
100
AcDbArc
 50
355.6235353944
 51
18.9942678268
  0
ARC
  5
59C
100
AcDbEntity
  8
0
100
AcDbCircle
 62
2
  6
CONTINUOUS
 10
13.533683767
 20
2.559677593
 40
0.0058087709
100
AcDbArc
 50
318.8515287446
 51
353.6422345323
  0
LINE
  5
59D
100
AcDbEntity
  8
0
100
AcDbLine
 62
2
  6
CONTINUOUS
 10
12.672340332
 20
2.5920323691
 11
12.7727983877
 21
2.5920323691
  0
ARC
  5
59E
100
AcDbEntity
  8
0
100
AcDbCircle
 62
2
  6
CONTINUOUS
 10
12.7727985224
 20
2.5895582013
 40
0.0024741678
100
AcDbArc
 50
46.3477981899
 51
90.0031206038
  0
LINE
  5
59F
100
AcDbEntity
  8
0
100
AcDbLine
 62
2
  6
CONTINUOUS
 10
12.7745063886
 20
2.5913483688
 11
12.8345394219
 21
2.534068337
  0
ARC
  5
5A0
100
AcDbEntity
  8
0
100
AcDbCircle
 62
2
  6
CONTINUOUS
 10
12.8362481229
 20
2.5358592748
 40
0.0024753014
100
AcDbArc
 50
226.3461263059
 51
0.0014637321
  0
LINE
  5
5A1
100
AcDbEntity
  8
0
100
AcDbLine
 62
2
  6
CONTINUOUS
 10
12.8387234242
 20
2.535859338
 11
12.8387234242
 21
2.564807354
  0
ARC
  5
5A2
100
AcDbEntity
  8
0
100
AcDbCircle
 62
2
  6
CONTINUOUS
 10
12.8362484247
 20
2.5648073559
 40
0.0024749995
100
AcDbArc
 50
359.9999571957
 51
90.0000428043
  0
LINE
  5
5A3
100
AcDbEntity
  8
0
100
AcDbLine
 62
2
  6
CONTINUOUS
 10
12.8362484229
 20
2.5672823554
 11
12.8174724125
 21
2.5672823554
  0
ARC
  5
5A4
100
AcDbEntity
  8
0
100
AcDbCircle
 62
2
  6
CONTINUOUS
 10
12.8174724106
 20
2.5697573549
 40
0.0024749995
100
AcDbArc
 50
179.9999571957
 51
270.0000428043
  0
LINE
  5
5A5
100
AcDbEntity
  8
0
100
AcDbLine
 62
2
  6
CONTINUOUS
 10
12.8149974111
 20
2.5697573568
 11
12.8149974111
 21
2.5895573678
  0
ARC
  5
5A6
100
AcDbEntity
  8
0
100
AcDbCircle
 62
2
  6
CONTINUOUS
 10
12.8174724106
 20
2.5895573696
 40
0.0024749995
100
AcDbArc
 50
89.9999571957
 51
180.0000428043
  0
LINE
  5
5A7
100
AcDbEntity
  8
0
100
AcDbLine
 62
2
  6
CONTINUOUS
 10
12.8174724125
 20
2.5920323691
 11
12.8914734535
 21
2.5920323691
  0
ARC
  5
5A8
100
AcDbEntity
  8
0
100
AcDbCircle
 62
2
  6
CONTINUOUS
 10
12.8914734553
 20
2.5895573696
 40
0.0024749995
100
AcDbArc
 50
359.9999571957
 51
90.0000428043
  0
LINE
  5
5A9
100
AcDbEntity
  8
0
100
AcDbLine
 62
2
  6
CONTINUOUS
 10
12.8939484549
 20
2.5895573678
 11
12.8939484549
 21
2.5697573568
  0
ARC
  5
5AA
100
AcDbEntity
  8
0
100
AcDbCircle
 62
2
  6
CONTINUOUS
 10
12.8914734553
 20
2.5697573549
 40
0.0024749995
100
AcDbArc
 50
269.9999571957
 51
0.0000428043
  0
LINE
  5
5AB
100
AcDbEntity
  8
0
100
AcDbLine
 62
2
  6
CONTINUOUS
 10
12.8914734535
 20
2.5672823554
 11
12.8735404436
 21
2.5672823554
  0
ARC
  5
5AC
100
AcDbEntity
  8
0
100
AcDbCircle
 62
2
  6
CONTINUOUS
 10
12.8735404417
 20
2.5648073559
 40
0.0024749995
100
AcDbArc
 50
89.9999571957
 51
180.0000428043
  0
LINE
  5
5AD
100
AcDbEntity
  8
0
100
AcDbLine
 62
2
  6
CONTINUOUS
 10
12.8710654422
 20
2.564807354
 11
12.8710654422
 21
2.4937023146
  0
ARC
  5
5AE
100
AcDbEntity
  8
0
100
AcDbCircle
 62
2
  6
CONTINUOUS
 10
12.8685904427
 20
2.4937023128
 40
0.0024749995
100
AcDbArc
 50
269.9999571957
 51
0.0000428043
  0
LINE
  5
5AF
100
AcDbEntity
  8
0
100
AcDbLine
 62
2
  6
CONTINUOUS
 10
12.8685904408
 20
2.4912273132
 11
12.7943853997
 21
2.4912273132
  0
ARC
  5
5B0
100
AcDbEntity
  8
0
100
AcDbCircle
 62
2
  6
CONTINUOUS
 10
12.7943847649
 20
2.4937027294
 40
0.0024754162
100
AcDbArc
 50
226.3593695813
 51
270.0146919953
  0
LINE
  5
5B1
100
AcDbEntity
  8
0
100
AcDbLine
 62
2
  6
CONTINUOUS
 10
12.7926763987
 20
2.4919113136
 11
12.7293963636
 21
2.5522893471
  0
ARC
  5
5B2
100
AcDbEntity
  8
0
100
AcDbCircle
 62
2
  6
CONTINUOUS
 10
12.7276876627
 20
2.5504984093
 40
0.0024753014
100
AcDbArc
 50
46.3461263059
 51
180.0014637321
  0
LINE
  5
5B3
100
AcDbEntity
  8
0
100
AcDbLine
 62
2
  6
CONTINUOUS
 10
12.7252123613
 20
2.5504983461
 11
12.7252123613
 21
2.5184523283
  0
ARC
  5
5B4
100
AcDbEntity
  8
0
100
AcDbCircle
 62
2
  6
CONTINUOUS
 10
12.7276873608
 20
2.5184523265
 40
0.0024749995
100
AcDbArc
 50
179.9999571957
 51
270.0000428043
  0
LINE
  5
5B5
100
AcDbEntity
  8
0
100
AcDbLine
 62
2
  6
CONTINUOUS
 10
12.7276873627
 20
2.515977327
 11
12.7480043739
 21
2.515977327
  0
ARC
  5
5B6
100
AcDbEntity
  8
0
100
AcDbCircle
 62
2
  6
CONTINUOUS
 10
12.7480043758
 20
2.5135023274
 40
0.0024749995
100
AcDbArc
 50
359.9999571957
 51
90.0000428043
  0
LINE
  5
5B7
100
AcDbEntity
  8
0
100
AcDbLine
 62
2
  6
CONTINUOUS
 10
12.7504793753
 20
2.5135023256
 11
12.7504793753
 21
2.4937023146
  0
ARC
  5
5B8
100
AcDbEntity
  8
0
100
AcDbCircle
 62
2
  6
CONTINUOUS
 10
12.7480043758
 20
2.4937023128
 40
0.0024749995
100
AcDbArc
 50
269.9999571957
 51
0.0000428043
  0
LINE
  5
5B9
100
AcDbEntity
  8
0
100
AcDbLine
 62
2
  6
CONTINUOUS
 10
12.7480043739
 20
2.4912273132
 11
12.672340332
 21
2.4912273132
  0
ARC
  5
5BA
100
AcDbEntity
  8
0
100
AcDbCircle
 62
2
  6
CONTINUOUS
 10
12.6723403301
 20
2.4937023128
 40
0.0024749995
100
AcDbArc
 50
179.9999571957
 51
270.0000428043
  0
LINE
  5
5BB
100
AcDbEntity
  8
0
100
AcDbLine
 62
2
  6
CONTINUOUS
 10
12.6698653306
 20
2.4937023146
 11
12.6698653306
 21
2.5135023256
  0
ARC
  5
5BC
100
AcDbEntity
  8
0
100
AcDbCircle
 62
2
  6
CONTINUOUS
 10
12.6723403301
 20
2.5135023274
 40
0.0024749995
100
AcDbArc
 50
89.9999571957
 51
180.0000428043
  0
LINE
  5
5BD
100
AcDbEntity
  8
0
100
AcDbLine
 62
2
  6
CONTINUOUS
 10
12.672340332
 20
2.515977327
 11
12.6909873423
 21
2.515977327
  0
ARC
  5
5BE
100
AcDbEntity
  8
0
100
AcDbCircle
 62
2
  6
CONTINUOUS
 10
12.6909873442
 20
2.5184523265
 40
0.0024749995
100
AcDbArc
 50
269.9999571957
 51
0.0000428043
  0
LINE
  5
5BF
100
AcDbEntity
  8
0
100
AcDbLine
 62
2
  6
CONTINUOUS
 10
12.6934623437
 20
2.5184523283
 11
12.6934623437
 21
2.564807354
  0
ARC
  5
5C0
100
AcDbEntity
  8
0
100
AcDbCircle
 62
2
  6
CONTINUOUS
 10
12.6909873442
 20
2.5648073559
 40
0.0024749995
100
AcDbArc
 50
359.9999571957
 51
90.0000428043
  0
LINE
  5
5C1
100
AcDbEntity
  8
0
100
AcDbLine
 62
2
  6
CONTINUOUS
 10
12.6909873423
 20
2.5672823554
 11
12.672340332
 21
2.5672823554
  0
ARC
  5
5C2
100
AcDbEntity
  8
0
100
AcDbCircle
 62
2
  6
CONTINUOUS
 10
12.6723403301
 20
2.5697573549
 40
0.0024749995
100
AcDbArc
 50
179.9999571957
 51
270.0000428043
  0
LINE
  5
5C3
100
AcDbEntity
  8
0
100
AcDbLine
 62
2
  6
CONTINUOUS
 10
12.6698653306
 20
2.5697573568
 11
12.6698653306
 21
2.5895573678
  0
ARC
  5
5C4
100
AcDbEntity
  8
0
100
AcDbCircle
 62
2
  6
CONTINUOUS
 10
12.6723403301
 20
2.5895573696
 40
0.0024749995
100
AcDbArc
 50
89.9999571957
 51
180.0000428043
  0
LINE
  5
5C5
100
AcDbEntity
  8
0
100
AcDbLine
 62
2
  6
CONTINUOUS
 10
12.5246402501
 20
2.5655893545
 11
12.5175232461
 21
2.5543723483
  0
ARC
  5
5C6
100
AcDbEntity
  8
0
100
AcDbCircle
 62
2
  6
CONTINUOUS
 10
12.519613138
 20
2.5530463862
 40
0.0024750401
100
AcDbArc
 50
147.6063258012
 51
270.0025305754
  0
LINE
  5
5C7
100
AcDbEntity
  8
0
100
AcDbLine
 62
2
  6
CONTINUOUS
 10
12.5196132473
 20
2.5505713461
 11
12.5401702587
 21
2.5505713461
  0
ARC
  5
5C8
100
AcDbEntity
  8
0
100
AcDbCircle
 62
2
  6
CONTINUOUS
 10
12.5401702375
 20
2.5530465533
 40
0.0024752071
100
AcDbArc
 50
270.0004896793
 51
32.9089806818
  0
LINE
  5
5C9
100
AcDbEntity
  8
0
100
AcDbLine
 62
2
  6
CONTINUOUS
 10
12.5422482598
 20
2.5543913483
 11
12.5349892558
 21
2.5656073545
  0
ARC
  5
5CA
100
AcDbEntity
  8
0
100
AcDbCircle
 62
2
  6
CONTINUOUS
 10
12.532910715
 20
2.564262895
 40
0.0024754602
100
AcDbArc
 50
32.8959418573
 51
89.9875097202
  0
LINE
  5
5CB
100
AcDbEntity
  8
0
100
AcDbLine
 62
2
  6
CONTINUOUS
 10
12.5329112547
 20
2.5667383551
 11
12.5267302512
 21
2.5667383551
  0
ARC
  5
5CC
100
AcDbEntity
  8
0
100
AcDbCircle
 62
2
  6
CONTINUOUS
 10
12.5267301809
 20
2.5642631548
 40
0.0024752003
100
AcDbArc
 50
89.998372645
 51
147.602165307
  0
LINE
  5
5CD
100
AcDbEntity
  8
0
100
AcDbLine
 62
2
  6
CONTINUOUS
 10
12.548053263
 20
2.5284903339
 11
12.5536792662
 21
2.5197973291
  0
ARC
  5
5CE
100
AcDbEntity
  8
0
100
AcDbCircle
 62
2
  6
CONTINUOUS
 10
12.5516012439
 20
2.5184525341
 40
0.0024752071
100
AcDbArc
 50
270.0004896794
 51
32.9089806818
  0
LINE
  5
5CF
100
AcDbEntity
  8
0
100
AcDbLine
 62
2
  6
CONTINUOUS
 10
12.551601265
 20
2.515977327
 11
12.537150257
 21
2.515977327
  0
ARC
  5
5D0
100
AcDbEntity
  8
0
100
AcDbCircle
 62
2
  6
CONTINUOUS
 10
12.5371502552
 20
2.5135023274
 40
0.0024749995
100
AcDbArc
 50
89.9999571957
 51
180.0000428043
  0
LINE
  5
5D1
100
AcDbEntity
  8
0
100
AcDbLine
 62
2
  6
CONTINUOUS
 10
12.5346752556
 20
2.5135023256
 11
12.5346752556
 21
2.4937023146
  0
ARC
  5
5D2
100
AcDbEntity
  8
0
100
AcDbCircle
 62
2
  6
CONTINUOUS
 10
12.5371502552
 20
2.4937023128
 40
0.0024749995
100
AcDbArc
 50
179.9999571957
 51
270.0000428043
  0
LINE
  5
5D3
100
AcDbEntity
  8
0
100
AcDbLine
 62
2
  6
CONTINUOUS
 10
12.537150257
 20
2.4912273132
 11
12.6424313154
 21
2.4912273132
  0
ARC
  5
5D4
100
AcDbEntity
  8
0
100
AcDbCircle
 62
2
  6
CONTINUOUS
 10
12.6424313172
 20
2.4937023128
 40
0.0024749995
100
AcDbArc
 50
269.9999571957
 51
0.0000428043
  0
LINE
  5
5D5
100
AcDbEntity
  8
0
100
AcDbLine
 62
2
  6
CONTINUOUS
 10
12.6449063168
 20
2.4937023146
 11
12.6449063168
 21
2.5135023256
  0
ARC
  5
5D6
100
AcDbEntity
  8
0
100
AcDbCircle
 62
2
  6
CONTINUOUS
 10
12.6424313172
 20
2.5135023274
 40
0.0024749995
100
AcDbArc
 50
359.9999571957
 51
90.0000428043
  0
LINE
  5
5D7
100
AcDbEntity
  8
0
100
AcDbLine
 62
2
  6
CONTINUOUS
 10
12.6424313154
 20
2.515977327
 11
12.6224153043
 21
2.515977327
  0
ARC
  5
5D8
100
AcDbEntity
  8
0
100
AcDbCircle
 62
2
  6
CONTINUOUS
 10
12.6224154248
 20
2.518451368
 40
0.002474041
100
AcDbArc
 50
212.9056413127
 51
269.9972091756
  0
LINE
  5
5D9
100
AcDbEntity
  8
0
100
AcDbLine
 62
2
  6
CONTINUOUS
 10
12.6203383031
 20
2.5171073276
 11
12.5725822767
 21
2.5909023685
  0
ARC
  5
5DA
100
AcDbEntity
  8
0
100
AcDbCircle
 62
2
  6
CONTINUOUS
 10
12.570504655
 20
2.589557409
 40
0.0024749602
100
AcDbArc
 50
32.9172174468
 51
90.0087853097
  0
LINE
  5
5DB
100
AcDbEntity
  8
0
100
AcDbLine
 62
2
  6
CONTINUOUS
 10
12.5705042755
 20
2.5920323691
 11
12.5133292438
 21
2.5920323691
  0
ARC
  5
5DC
100
AcDbEntity
  8
0
100
AcDbCircle
 62
2
  6
CONTINUOUS
 10
12.5133291735
 20
2.5895571688
 40
0.0024752003
100
AcDbArc
 50
89.9983726451
 51
147.602165307
  0
LINE
  5
5DD
100
AcDbEntity
  8
0
100
AcDbLine
 62
2
  6
CONTINUOUS
 10
12.5112392426
 20
2.5908833685
 11
12.4644392167
 21
2.5171263276
  0
ARC
  5
5DE
100
AcDbEntity
  8
0
100
AcDbCircle
 62
2
  6
CONTINUOUS
 10
12.4623492858
 20
2.5184525273
 40
0.0024752003
100
AcDbArc
 50
269.9983726451
 51
327.602165307
  0
LINE
  5
5DF
100
AcDbEntity
  8
0
100
AcDbLine
 62
2
  6
CONTINUOUS
 10
12.4623492155
 20
2.515977327
 11
12.4394882028
 21
2.515977327
  0
ARC
  5
5E0
100
AcDbEntity
  8
0
100
AcDbCircle
 62
2
  6
CONTINUOUS
 10
12.439488201
 20
2.5135023274
 40
0.0024749995
100
AcDbArc
 50
89.9999571957
 51
180.0000428043
  0
LINE
  5
5E1
100
AcDbEntity
  8
0
100
AcDbLine
 62
2
  6
CONTINUOUS
 10
12.4370132015
 20
2.5135023256
 11
12.4370132015
 21
2.4937023146
  0
ARC
  5
5E2
100
AcDbEntity
  8
0
100
AcDbCircle
 62
2
  6
CONTINUOUS
 10
12.439488201
 20
2.4937023128
 40
0.0024749995
100
AcDbArc
 50
179.9999571957
 51
270.0000428043
  0
LINE
  5
5E3
100
AcDbEntity
  8
0
100
AcDbLine
 62
2
  6
CONTINUOUS
 10
12.4394882028
 20
2.4912273132
 11
12.5168642458
 21
2.4912273132
  0
ARC
  5
5E4
100
AcDbEntity
  8
0
100
AcDbCircle
 62
2
  6
CONTINUOUS
 10
12.5168642476
 20
2.4937023128
 40
0.0024749995
100
AcDbArc
 50
269.9999571957
 51
0.0000428043
  0
LINE
  5
5E5
100
AcDbEntity
  8
0
100
AcDbLine
 62
2
  6
CONTINUOUS
 10
12.5193392471
 20
2.4937023146
 11
12.5193392471
 21
2.5135023256
  0
ARC
  5
5E6
100
AcDbEntity
  8
0
100
AcDbCircle
 62
2
  6
CONTINUOUS
 10
12.5168642476
 20
2.5135023274
 40
0.0024749995
100
AcDbArc
 50
359.9999571957
 51
90.0000428043
  0
LINE
  5
5E7
100
AcDbEntity
  8
0
100
AcDbLine
 62
2
  6
CONTINUOUS
 10
12.5168642458
 20
2.515977327
 11
12.5055812395
 21
2.515977327
  0
ARC
  5
5E8
100
AcDbEntity
  8
0
100
AcDbCircle
 62
2
  6
CONTINUOUS
 10
12.5055811302
 20
2.518452367
 40
0.0024750401
100
AcDbArc
 50
147.6063258011
 51
270.0025305754
  0
LINE
  5
5E9
100
AcDbEntity
  8
0
100
AcDbLine
 62
2
  6
CONTINUOUS
 10
12.5034912383
 20
2.5197783291
 11
12.5090072414
 21
2.5284723339
  0
ARC
  5
5EA
100
AcDbEntity
  8
0
100
AcDbCircle
 62
2
  6
CONTINUOUS
 10
12.5110971723
 20
2.5271461342
 40
0.0024752003
100
AcDbArc
 50
89.998372645
 51
147.602165307
  0
LINE
  5
5EB
100
AcDbEntity
  8
0
100
AcDbLine
 62
2
  6
CONTINUOUS
 10
12.5110972426
 20
2.5296213345
 11
12.5459752619
 21
2.5296213345
  0
ARC
  5
5EC
100
AcDbEntity
  8
0
100
AcDbCircle
 62
2
  6
CONTINUOUS
 10
12.5459747223
 20
2.5271458744
 40
0.0024754602
100
AcDbArc
 50
32.8959418573
 51
89.9875097202
  0
LINE
  5
5ED
100
AcDbEntity
  8
0
100
AcDbLine
 62
2
  6
CONTINUOUS
 10
12.9205934696
 20
2.5920323691
 11
13.0210515254
 21
2.5920323691
  0
ARC
  5
5EE
100
AcDbEntity
  8
0
100
AcDbCircle
 62
2
  6
CONTINUOUS
 10
13.0210516601
 20
2.5895582013
 40
0.0024741678
100
AcDbArc
 50
46.3477981899
 51
90.0031206038
  0
LINE
  5
5EF
100
AcDbEntity
  8
0
100
AcDbLine
 62
2
  6
CONTINUOUS
 10
13.0227595263
 20
2.5913483688
 11
13.0827925596
 21
2.534068337
  0
ARC
  5
5F0
100
AcDbEntity
  8
0
100
AcDbCircle
 62
2
  6
CONTINUOUS
 10
13.0845012605
 20
2.5358592748
 40
0.0024753014
100
AcDbArc
 50
226.3461263059
 51
0.0014637321
  0
LINE
  5
5F1
100
AcDbEntity
  8
0
100
AcDbLine
 62
2
  6
CONTINUOUS
 10
13.0869765619
 20
2.535859338
 11
13.0869765619
 21
2.564807354
  0
ARC
  5
5F2
100
AcDbEntity
  8
0
100
AcDbCircle
 62
2
  6
CONTINUOUS
 10
13.0845015624
 20
2.5648073559
 40
0.0024749995
100
AcDbArc
 50
359.9999571957
 51
90.0000428043
  0
LINE
  5
5F3
100
AcDbEntity
  8
0
100
AcDbLine
 62
2
  6
CONTINUOUS
 10
13.0845015605
 20
2.5672823554
 11
13.0657255501
 21
2.5672823554
  0
ARC
  5
5F4
100
AcDbEntity
  8
0
100
AcDbCircle
 62
2
  6
CONTINUOUS
 10
13.0657255483
 20
2.5697573549
 40
0.0024749995
100
AcDbArc
 50
179.9999571957
 51
270.0000428043
  0
LINE
  5
5F5
100
AcDbEntity
  8
0
100
AcDbLine
 62
2
  6
CONTINUOUS
 10
13.0632505488
 20
2.5697573568
 11
13.0632505488
 21
2.5895573678
  0
ARC
  5
5F6
100
AcDbEntity
  8
0
100
AcDbCircle
 62
2
  6
CONTINUOUS
 10
13.0657255483
 20
2.5895573696
 40
0.0024749995
100
AcDbArc
 50
89.9999571957
 51
180.0000428043
  0
LINE
  5
5F7
100
AcDbEntity
  8
0
100
AcDbLine
 62
2
  6
CONTINUOUS
 10
13.0657255501
 20
2.5920323691
 11
13.1397265912
 21
2.5920323691
  0
ARC
  5
5F8
100
AcDbEntity
  8
0
100
AcDbCircle
 62
2
  6
CONTINUOUS
 10
13.139726593
 20
2.5895573696
 40
0.0024749995
100
AcDbArc
 50
359.9999571957
 51
90.0000428043
  0
LINE
  5
5F9
100
AcDbEntity
  8
0
100
AcDbLine
 62
2
  6
CONTINUOUS
 10
13.1422015925
 20
2.5895573678
 11
13.1422015925
 21
2.5697573568
  0
ARC
  5
5FA
100
AcDbEntity
  8
0
100
AcDbCircle
 62
2
  6
CONTINUOUS
 10
13.139726593
 20
2.5697573549
 40
0.0024749995
100
AcDbArc
 50
269.9999571957
 51
0.0000428042
  0
LINE
  5
5FB
100
AcDbEntity
  8
0
100
AcDbLine
 62
2
  6
CONTINUOUS
 10
13.1397265912
 20
2.5672823554
 11
13.1217935812
 21
2.5672823554
  0
ARC
  5
5FC
100
AcDbEntity
  8
0
100
AcDbCircle
 62
2
  6
CONTINUOUS
 10
13.1217935794
 20
2.5648073559
 40
0.0024749995
100
AcDbArc
 50
89.9999571957
 51
180.0000428042
  0
LINE
  5
5FD
100
AcDbEntity
  8
0
100
AcDbLine
 62
2
  6
CONTINUOUS
 10
13.1193185799
 20
2.564807354
 11
13.1193185799
 21
2.4937023146
  0
ARC
  5
5FE
100
AcDbEntity
  8
0
100
AcDbCircle
 62
2
  6
CONTINUOUS
 10
13.1168435803
 20
2.4937023128
 40
0.0024749995
100
AcDbArc
 50
269.9999571957
 51
0.0000428043
  0
LINE
  5
5FF
100
AcDbEntity
  8
0
100
AcDbLine
 62
2
  6
CONTINUOUS
 10
13.1168435785
 20
2.4912273132
 11
13.0426375373
 21
2.4912273132
  0
ARC
  5
600
100
AcDbEntity
  8
0
100
AcDbCircle
 62
2
  6
CONTINUOUS
 10
13.0426374026
 20
2.493701481
 40
0.0024741678
100
AcDbArc
 50
226.3477981898
 51
270.0031206038
  0
LINE
  5
601
100
AcDbEntity
  8
0
100
AcDbLine
 62
2
  6
CONTINUOUS
 10
13.0409295364
 20
2.4919113136
 11
12.9776495013
 21
2.5522893471
  0
ARC
  5
602
100
AcDbEntity
  8
0
100
AcDbCircle
 62
2
  6
CONTINUOUS
 10
12.9759408003
 20
2.5504984093
 40
0.0024753014
100
AcDbArc
 50
46.3461263059
 51
180.0014637321
  0
LINE
  5
603
100
AcDbEntity
  8
0
100
AcDbLine
 62
2
  6
CONTINUOUS
 10
12.973465499
 20
2.5504983461
 11
12.973465499
 21
2.5184523283
  0
ARC
  5
604
100
AcDbEntity
  8
0
100
AcDbCircle
 62
2
  6
CONTINUOUS
 10
12.9759404985
 20
2.5184523265
 40
0.0024749995
100
AcDbArc
 50
179.9999571957
 51
270.0000428043
  0
LINE
  5
605
100
AcDbEntity
  8
0
100
AcDbLine
 62
2
  6
CONTINUOUS
 10
12.9759405003
 20
2.515977327
 11
12.9962575116
 21
2.515977327
  0
ARC
  5
606
100
AcDbEntity
  8
0
100
AcDbCircle
 62
2
  6
CONTINUOUS
 10
12.9962575135
 20
2.5135023274
 40
0.0024749995
100
AcDbArc
 50
359.9999571957
 51
90.0000428043
  0
LINE
  5
607
100
AcDbEntity
  8
0
100
AcDbLine
 62
2
  6
CONTINUOUS
 10
12.998732513
 20
2.5135023256
 11
12.998732513
 21
2.4937023146
  0
ARC
  5
608
100
AcDbEntity
  8
0
100
AcDbCircle
 62
2
  6
CONTINUOUS
 10
12.9962575135
 20
2.4937023128
 40
0.0024749995
100
AcDbArc
 50
269.9999571957
 51
0.0000428043
  0
LINE
  5
609
100
AcDbEntity
  8
0
100
AcDbLine
 62
2
  6
CONTINUOUS
 10
12.9962575116
 20
2.4912273132
 11
12.9205934696
 21
2.4912273132
  0
ARC
  5
60A
100
AcDbEntity
  8
0
100
AcDbCircle
 62
2
  6
CONTINUOUS
 10
12.9205934678
 20
2.4937023128
 40
0.0024749995
100
AcDbArc
 50
179.9999571957
 51
270.0000428043
  0
LINE
  5
60B
100
AcDbEntity
  8
0
100
AcDbLine
 62
2
  6
CONTINUOUS
 10
12.9181184683
 20
2.4937023146
 11
12.9181184683
 21
2.5135023256
  0
ARC
  5
60C
100
AcDbEntity
  8
0
100
AcDbCircle
 62
2
  6
CONTINUOUS
 10
12.9205934678
 20
2.5135023274
 40
0.0024749995
100
AcDbArc
 50
89.9999571957
 51
180.0000428042
  0
LINE
  5
60D
100
AcDbEntity
  8
0
100
AcDbLine
 62
2
  6
CONTINUOUS
 10
12.9205934696
 20
2.515977327
 11
12.93923948
 21
2.515977327
  0
ARC
  5
60E
100
AcDbEntity
  8
0
100
AcDbCircle
 62
2
  6
CONTINUOUS
 10
12.9392394818
 20
2.5184523265
 40
0.0024749995
100
AcDbArc
 50
269.9999571957
 51
0.0000428043
  0
LINE
  5
60F
100
AcDbEntity
  8
0
100
AcDbLine
 62
2
  6
CONTINUOUS
 10
12.9417144814
 20
2.5184523283
 11
12.9417144814
 21
2.564807354
  0
ARC
  5
610
100
AcDbEntity
  8
0
100
AcDbCircle
 62
2
  6
CONTINUOUS
 10
12.9392394818
 20
2.5648073559
 40
0.0024749995
100
AcDbArc
 50
359.9999571957
 51
90.0000428043
  0
LINE
  5
611
100
AcDbEntity
  8
0
100
AcDbLine
 62
2
  6
CONTINUOUS
 10
12.93923948
 20
2.5672823554
 11
12.9205934696
 21
2.5672823554
  0
ARC
  5
612
100
AcDbEntity
  8
0
100
AcDbCircle
 62
2
  6
CONTINUOUS
 10
12.9205934678
 20
2.5697573549
 40
0.0024749995
100
AcDbArc
 50
179.9999571957
 51
270.0000428043
  0
LINE
  5
613
100
AcDbEntity
  8
0
100
AcDbLine
 62
2
  6
CONTINUOUS
 10
12.9181184683
 20
2.5697573568
 11
12.9181184683
 21
2.5895573678
  0
ARC
  5
614
100
AcDbEntity
  8
0
100
AcDbCircle
 62
2
  6
CONTINUOUS
 10
12.9205934678
 20
2.5895573696
 40
0.0024749995
100
AcDbArc
 50
89.9999571957
 51
180.0000428042
  0
LINE
  5
615
100
AcDbEntity
  8
0
100
AcDbLine
 62
2
  6
CONTINUOUS
 10
13.2934226764
 20
2.5324773361
 11
13.2582556569
 21
2.5324773361
  0
ARC
  5
616
100
AcDbEntity
  8
0
100
AcDbCircle
 62
2
  6
CONTINUOUS
 10
13.2582556551
 20
2.5300023366
 40
0.0024749995
100
AcDbArc
 50
89.9999571957
 51
180.0000428043
  0
LINE
  5
617
100
AcDbEntity
  8
0
100
AcDbLine
 62
2
  6
CONTINUOUS
 10
13.2557806555
 20
2.5300023347
 11
13.2557806555
 21
2.5184523283
  0
ARC
  5
618
100
AcDbEntity
  8
0
100
AcDbCircle
 62
2
  6
CONTINUOUS
 10
13.2582556551
 20
2.5184523265
 40
0.0024749995
100
AcDbArc
 50
179.9999571957
 51
270.0000428043
  0
LINE
  5
619
100
AcDbEntity
  8
0
100
AcDbLine
 62
2
  6
CONTINUOUS
 10
13.2582556569
 20
2.515977327
 11
13.3232596929
 21
2.515977327
  0
ARC
  5
61A
100
AcDbEntity
  8
0
100
AcDbCircle
 62
2
  6
CONTINUOUS
 10
13.3232596948
 20
2.5184523265
 40
0.0024749995
100
AcDbArc
 50
269.9999571957
 51
0.0000428043
  0
LINE
  5
61B
100
AcDbEntity
  8
0
100
AcDbLine
 62
2
  6
CONTINUOUS
 10
13.3257346943
 20
2.5184523283
 11
13.3257346943
 21
2.5267023329
  0
ARC
  5
61C
100
AcDbEntity
  8
0
100
AcDbCircle
 62
2
  6
CONTINUOUS
 10
13.3282096938
 20
2.5267023348
 40
0.0024749995
100
AcDbArc
 50
89.9999571957
 51
180.0000428043
  0
LINE
  5
61D
100
AcDbEntity
  8
0
100
AcDbLine
 62
2
  6
CONTINUOUS
 10
13.3282096957
 20
2.5291773343
 11
13.3705287192
 21
2.5291773343
  0
ARC
  5
61E
100
AcDbEntity
  8
0
100
AcDbCircle
 62
2
  6
CONTINUOUS
 10
13.370528721
 20
2.5267023348
 40
0.0024749995
100
AcDbArc
 50
359.9999571957
 51
90.0000428043
  0
LINE
  5
61F
100
AcDbEntity
  8
0
100
AcDbLine
 62
2
  6
CONTINUOUS
 10
13.3730037205
 20
2.5267023329
 11
13.3730037205
 21
2.4937023146
  0
ARC
  5
620
100
AcDbEntity
  8
0
100
AcDbCircle
 62
2
  6
CONTINUOUS
 10
13.370528721
 20
2.4937023128
 40
0.0024749995
100
AcDbArc
 50
269.9999571957
 51
0.0000428043
  0
LINE
  5
621
100
AcDbEntity
  8
0
100
AcDbLine
 62
2
  6
CONTINUOUS
 10
13.3705287192
 20
2.4912273132
 11
13.1673166065
 21
2.4912273132
  0
ARC
  5
622
100
AcDbEntity
  8
0
100
AcDbCircle
 62
2
  6
CONTINUOUS
 10
13.1673166046
 20
2.4937023128
 40
0.0024749995
100
AcDbArc
 50
179.9999571957
 51
270.0000428043
  0
LINE
  5
623
100
AcDbEntity
  8
0
100
AcDbLine
 62
2
  6
CONTINUOUS
 10
13.1648416051
 20
2.4937023146
 11
13.1648416051
 21
2.5135023256
  0
ARC
  5
624
100
AcDbEntity
  8
0
100
AcDbCircle
 62
2
  6
CONTINUOUS
 10
13.1673166046
 20
2.5135023274
 40
0.0024749995
100
AcDbArc
 50
89.9999571957
 51
180.0000428043
  0
LINE
  5
625
100
AcDbEntity
  8
0
100
AcDbLine
 62
2
  6
CONTINUOUS
 10
13.1673166065
 20
2.515977327
 11
13.1912396197
 21
2.515977327
  0
ARC
  5
626
100
AcDbEntity
  8
0
100
AcDbCircle
 62
2
  6
CONTINUOUS
 10
13.1912396216
 20
2.5184523265
 40
0.0024749995
100
AcDbArc
 50
269.9999571957
 51
0.0000428042
  0
LINE
  5
627
100
AcDbEntity
  8
0
100
AcDbLine
 62
2
  6
CONTINUOUS
 10
13.1937146211
 20
2.5184523283
 11
13.1937146211
 21
2.564807354
  0
ARC
  5
628
100
AcDbEntity
  8
0
100
AcDbCircle
 62
2
  6
CONTINUOUS
 10
13.1912396216
 20
2.5648073559
 40
0.0024749995
100
AcDbArc
 50
359.9999571957
 51
90.0000428043
  0
LINE
  5
629
100
AcDbEntity
  8
0
100
AcDbLine
 62
2
  6
CONTINUOUS
 10
13.1912396197
 20
2.5672823554
 11
13.1673166065
 21
2.5672823554
  0
ARC
  5
62A
100
AcDbEntity
  8
0
100
AcDbCircle
 62
2
  6
CONTINUOUS
 10
13.1673166046
 20
2.5697573549
 40
0.0024749995
100
AcDbArc
 50
179.9999571957
 51
270.0000428043
  0
LINE
  5
62B
100
AcDbEntity
  8
0
100
AcDbLine
 62
2
  6
CONTINUOUS
 10
13.1648416051
 20
2.5697573568
 11
13.1648416051
 21
2.5895573678
  0
ARC
  5
62C
100
AcDbEntity
  8
0
100
AcDbCircle
 62
2
  6
CONTINUOUS
 10
13.1673166046
 20
2.5895573696
 40
0.0024749995
100
AcDbArc
 50
89.9999571957
 51
180.0000428043
  0
LINE
  5
62D
100
AcDbEntity
  8
0
100
AcDbLine
 62
2
  6
CONTINUOUS
 10
13.1673166065
 20
2.5920323691
 11
13.3691097184
 21
2.5920323691
  0
ARC
  5
62E
100
AcDbEntity
  8
0
100
AcDbCircle
 62
2
  6
CONTINUOUS
 10
13.3691097202
 20
2.5895573696
 40
0.0024749995
100
AcDbArc
 50
359.9999571957
 51
90.0000428043
  0
LINE
  5
62F
100
AcDbEntity
  8
0
100
AcDbLine
 62
2
  6
CONTINUOUS
 10
13.3715847197
 20
2.5895573678
 11
13.3715847197
 21
2.5565573495
  0
ARC
  5
630
100
AcDbEntity
  8
0
100
AcDbCircle
 62
2
  6
CONTINUOUS
 10
13.3691097202
 20
2.5565573476
 40
0.0024749995
100
AcDbArc
 50
269.9999571957
 51
0.0000428042
  0
LINE
  5
631
100
AcDbEntity
  8
0
100
AcDbLine
 62
2
  6
CONTINUOUS
 10
13.3691097184
 20
2.5540823481
 11
13.3272456952
 21
2.5540823481
  0
ARC
  5
632
100
AcDbEntity
  8
0
100
AcDbCircle
 62
2
  6
CONTINUOUS
 10
13.3272456933
 20
2.5565573476
 40
0.0024749995
100
AcDbArc
 50
179.9999571957
 51
270.0000428043
  0
LINE
  5
633
100
AcDbEntity
  8
0
100
AcDbLine
 62
2
  6
CONTINUOUS
 10
13.3247706938
 20
2.5565573495
 11
13.3247706938
 21
2.564807354
  0
ARC
  5
634
100
AcDbEntity
  8
0
100
AcDbCircle
 62
2
  6
CONTINUOUS
 10
13.3222956943
 20
2.5648073559
 40
0.0024749995
100
AcDbArc
 50
359.9999571957
 51
90.0000428043
  0
LINE
  5
635
100
AcDbEntity
  8
0
100
AcDbLine
 62
2
  6
CONTINUOUS
 10
13.3222956924
 20
2.5672823554
 11
13.2582556569
 21
2.5672823554
  0
ARC
  5
636
100
AcDbEntity
  8
0
100
AcDbCircle
 62
2
  6
CONTINUOUS
 10
13.2582556551
 20
2.5648073559
 40
0.0024749995
100
AcDbArc
 50
89.9999571957
 51
180.0000428043
  0
LINE
  5
637
100
AcDbEntity
  8
0
100
AcDbLine
 62
2
  6
CONTINUOUS
 10
13.2557806555
 20
2.564807354
 11
13.2557806555
 21
2.5532573476
  0
ARC
  5
638
100
AcDbEntity
  8
0
100
AcDbCircle
 62
2
  6
CONTINUOUS
 10
13.2582556551
 20
2.5532573458
 40
0.0024749995
100
AcDbArc
 50
179.9999571957
 51
270.0000428043
  0
LINE
  5
639
100
AcDbEntity
  8
0
100
AcDbLine
 62
2
  6
CONTINUOUS
 10
13.2582556569
 20
2.5507823463
 11
13.2934226764
 21
2.5507823463
  0
ARC
  5
63A
100
AcDbEntity
  8
0
100
AcDbCircle
 62
2
  6
CONTINUOUS
 10
13.2934226783
 20
2.5483073467
 40
0.0024749995
100
AcDbArc
 50
359.9999571957
 51
90.0000428043
  0
LINE
  5
63B
100
AcDbEntity
  8
0
100
AcDbLine
 62
2
  6
CONTINUOUS
 10
13.2958976778
 20
2.5483073449
 11
13.2958976778
 21
2.5349523375
  0
ARC
  5
63C
100
AcDbEntity
  8
0
100
AcDbCircle
 62
2
  6
CONTINUOUS
 10
13.2934226783
 20
2.5349523356
 40
0.0024749995
100
AcDbArc
 50
269.9999571957
 51
0.0000428042
  0
LINE
  5
63D
100
AcDbEntity
  8
0
100
AcDbLine
 62
2
  6
CONTINUOUS
 10
13.7286871589
 20
2.5350697372
 11
13.7286871589
 21
2.5456869438
  0
LINE
  5
63E
100
AcDbEntity
  8
0
100
AcDbLine
 62
2
  6
CONTINUOUS
 10
13.7086871478
 20
2.5004302075
 11
13.7086871478
 21
2.5803264735
  0
LINE
  5
63F
100
AcDbEntity
  8
0
100
AcDbLine
 62
2
  6
CONTINUOUS
 10
13.6886871368
 20
2.4843919416
 11
13.6886871368
 21
2.5963647394
  0
LINE
  5
640
100
AcDbEntity
  8
0
100
AcDbLine
 62
2
  6
CONTINUOUS
 10
13.6686871257
 20
2.4726017898
 11
13.6686871257
 21
2.6081548911
  0
LINE
  5
641
100
AcDbEntity
  8
0
100
AcDbLine
 62
2
  6
CONTINUOUS
 10
13.6486871146
 20
2.4628062688
 11
13.6486871146
 21
2.6179504122
  0
LINE
  5
642
100
AcDbEntity
  8
0
100
AcDbLine
 62
2
  6
CONTINUOUS
 10
13.6286871035
 20
2.4541253507
 11
13.6286871035
 21
2.5062483056
  0
LINE
  5
643
100
AcDbEntity
  8
0
100
AcDbLine
 62
2
  6
CONTINUOUS
 10
13.6286871035
 20
2.5301143348
 11
13.6286871035
 21
2.6266313303
  0
LINE
  5
644
100
AcDbEntity
  8
0
100
AcDbLine
 62
2
  6
CONTINUOUS
 10
13.6086870924
 20
2.4465537903
 11
13.6086870924
 21
2.4918774918
  0
LINE
  5
645
100
AcDbEntity
  8
0
100
AcDbLine
 62
2
  6
CONTINUOUS
 10
13.6086870924
 20
2.5165781173
 11
13.6086870924
 21
2.6342028907
  0
LINE
  5
646
100
AcDbEntity
  8
0
100
AcDbLine
 62
2
  6
CONTINUOUS
 10
13.5886870813
 20
2.4398033466
 11
13.5886870813
 21
2.4912273132
  0
LINE
  5
647
100
AcDbEntity
  8
0
100
AcDbLine
 62
2
  6
CONTINUOUS
 10
13.5886870813
 20
2.5391840845
 11
13.5886870813
 21
2.5454298327
  0
LINE
  5
648
100
AcDbEntity
  8
0
100
AcDbLine
 62
2
  6
CONTINUOUS
 10
13.5886870813
 20
2.5862063472
 11
13.5886870813
 21
2.6409533343
  0
LINE
  5
649
100
AcDbEntity
  8
0
100
AcDbLine
 62
2
  6
CONTINUOUS
 10
13.5686870702
 20
2.4334702189
 11
13.5686870702
 21
2.4912273132
  0
LINE
  5
64A
100
AcDbEntity
  8
0
100
AcDbLine
 62
2
  6
CONTINUOUS
 10
13.5686870702
 20
2.5906587765
 11
13.5686870702
 21
2.647286462
  0
LINE
  5
64B
100
AcDbEntity
  8
0
100
AcDbLine
 62
2
  6
CONTINUOUS
 10
13.5486870591
 20
2.4278968124
 11
13.5486870591
 21
2.4937461006
  0
LINE
  5
64C
100
AcDbEntity
  8
0
100
AcDbLine
 62
2
  6
CONTINUOUS
 10
13.5486870591
 20
2.5920323691
 11
13.5486870591
 21
2.6528598686
  0
LINE
  5
64D
100
AcDbEntity
  8
0
100
AcDbLine
 62
2
  6
CONTINUOUS
 10
13.528687048
 20
2.4225427674
 11
13.528687048
 21
2.5270426993
  0
LINE
  5
64E
100
AcDbEntity
  8
0
100
AcDbLine
 62
2
  6
CONTINUOUS
 10
13.528687048
 20
2.5505166259
 11
13.528687048
 21
2.5668657091
  0
LINE
  5
64F
100
AcDbEntity
  8
0
100
AcDbLine
 62
2
  6
CONTINUOUS
 10
13.528687048
 20
2.5920323691
 11
13.528687048
 21
2.6582139136
  0
LINE
  5
650
100
AcDbEntity
  8
0
100
AcDbLine
 62
2
  6
CONTINUOUS
 10
13.5086870369
 20
2.4177306791
 11
13.5086870369
 21
2.4912273132
  0
LINE
  5
651
100
AcDbEntity
  8
0
100
AcDbLine
 62
2
  6
CONTINUOUS
 10
13.5086870369
 20
2.5159553269
 11
13.5086870369
 21
2.5306043351
  0
LINE
  5
652
100
AcDbEntity
  8
0
100
AcDbLine
 62
2
  6
CONTINUOUS
 10
13.5086870369
 20
2.5496073456
 11
13.5086870369
 21
2.5672823554
  0
LINE
  5
653
100
AcDbEntity
  8
0
100
AcDbLine
 62
2
  6
CONTINUOUS
 10
13.5086870369
 20
2.5920323691
 11
13.5086870369
 21
2.6630260019
  0
LINE
  5
654
100
AcDbEntity
  8
0
100
AcDbLine
 62
2
  6
CONTINUOUS
 10
13.4886870258
 20
2.4131795254
 11
13.4886870258
 21
2.4912273132
  0
LINE
  5
655
100
AcDbEntity
  8
0
100
AcDbLine
 62
2
  6
CONTINUOUS
 10
13.4886870258
 20
2.5159553269
 11
13.4886870258
 21
2.5306043351
  0
LINE
  5
656
100
AcDbEntity
  8
0
100
AcDbLine
 62
2
  6
CONTINUOUS
 10
13.4886870258
 20
2.5496073456
 11
13.4886870258
 21
2.5672823554
  0
LINE
  5
657
100
AcDbEntity
  8
0
100
AcDbLine
 62
2
  6
CONTINUOUS
 10
13.4886870258
 20
2.5920323691
 11
13.4886870258
 21
2.6675771555
  0
LINE
  5
658
100
AcDbEntity
  8
0
100
AcDbLine
 62
2
  6
CONTINUOUS
 10
13.4686870147
 20
2.4088819672
 11
13.4686870147
 21
2.4912273132
  0
LINE
  5
659
100
AcDbEntity
  8
0
100
AcDbLine
 62
2
  6
CONTINUOUS
 10
13.4686870147
 20
2.5920323691
 11
13.4686870147
 21
2.6718747138
  0
LINE
  5
65A
100
AcDbEntity
  8
0
100
AcDbLine
 62
2
  6
CONTINUOUS
 10
13.4486870037
 20
2.4050092072
 11
13.4486870037
 21
2.4912273132
  0
LINE
  5
65B
100
AcDbEntity
  8
0
100
AcDbLine
 62
2
  6
CONTINUOUS
 10
13.4486870037
 20
2.5920323691
 11
13.4486870037
 21
2.6757474738
  0
LINE
  5
65C
100
AcDbEntity
  8
0
100
AcDbLine
 62
2
  6
CONTINUOUS
 10
13.4286869926
 20
2.4011364471
 11
13.4286869926
 21
2.4912273132
  0
LINE
  5
65D
100
AcDbEntity
  8
0
100
AcDbLine
 62
2
  6
CONTINUOUS
 10
13.4286869926
 20
2.5920323691
 11
13.4286869926
 21
2.6796202339
  0
LINE
  5
65E
100
AcDbEntity
  8
0
100
AcDbLine
 62
2
  6
CONTINUOUS
 10
13.4086869815
 20
2.3980226662
 11
13.4086869815
 21
2.4912273132
  0
LINE
  5
65F
100
AcDbEntity
  8
0
100
AcDbLine
 62
2
  6
CONTINUOUS
 10
13.4086869815
 20
2.515977327
 11
13.4086869815
 21
2.5672823554
  0
LINE
  5
660
100
AcDbEntity
  8
0
100
AcDbLine
 62
2
  6
CONTINUOUS
 10
13.4086869815
 20
2.5920323691
 11
13.4086869815
 21
2.6827340148
  0
LINE
  5
661
100
AcDbEntity
  8
0
100
AcDbLine
 62
2
  6
CONTINUOUS
 10
13.3886869704
 20
2.3950052774
 11
13.3886869704
 21
2.6857514036
  0
LINE
  5
662
100
AcDbEntity
  8
0
100
AcDbLine
 62
2
  6
CONTINUOUS
 10
13.3686869593
 20
2.3919878885
 11
13.3686869593
 21
2.4912273132
  0
LINE
  5
663
100
AcDbEntity
  8
0
100
AcDbLine
 62
2
  6
CONTINUOUS
 10
13.3686869593
 20
2.5291773343
 11
13.3686869593
 21
2.5540823481
  0
LINE
  5
664
100
AcDbEntity
  8
0
100
AcDbLine
 62
2
  6
CONTINUOUS
 10
13.3686869593
 20
2.5920323691
 11
13.3686869593
 21
2.6887687924
  0
LINE
  5
665
100
AcDbEntity
  8
0
100
AcDbLine
 62
2
  6
CONTINUOUS
 10
13.3486869482
 20
2.3889704997
 11
13.3486869482
 21
2.4912273132
  0
LINE
  5
666
100
AcDbEntity
  8
0
100
AcDbLine
 62
2
  6
CONTINUOUS
 10
13.3486869482
 20
2.5291773343
 11
13.3486869482
 21
2.5540823481
  0
LINE
  5
667
100
AcDbEntity
  8
0
100
AcDbLine
 62
2
  6
CONTINUOUS
 10
13.3486869482
 20
2.5920323691
 11
13.3486869482
 21
2.6917861813
  0
LINE
  5
668
100
AcDbEntity
  8
0
100
AcDbLine
 62
2
  6
CONTINUOUS
 10
13.3286869371
 20
2.3859531109
 11
13.3286869371
 21
2.4912273132
  0
LINE
  5
669
100
AcDbEntity
  8
0
100
AcDbLine
 62
2
  6
CONTINUOUS
 10
13.3286869371
 20
2.5291773343
 11
13.3286869371
 21
2.5540823481
  0
LINE
  5
66A
100
AcDbEntity
  8
0
100
AcDbLine
 62
2
  6
CONTINUOUS
 10
13.3286869371
 20
2.5920323691
 11
13.3286869371
 21
2.6948035701
  0
LINE
  5
66B
100
AcDbEntity
  8
0
100
AcDbLine
 62
2
  6
CONTINUOUS
 10
13.308686926
 20
2.3833355437
 11
13.308686926
 21
2.4912273132
  0
LINE
  5
66C
100
AcDbEntity
  8
0
100
AcDbLine
 62
2
  6
CONTINUOUS
 10
13.308686926
 20
2.515977327
 11
13.308686926
 21
2.5672823554
  0
LINE
  5
66D
100
AcDbEntity
  8
0
100
AcDbLine
 62
2
  6
CONTINUOUS
 10
13.308686926
 20
2.5920323691
 11
13.308686926
 21
2.6974211373
  0
LINE
  5
66E
100
AcDbEntity
  8
0
100
AcDbLine
 62
2
  6
CONTINUOUS
 10
13.2886869149
 20
2.3812612684
 11
13.2886869149
 21
2.4912273132
  0
LINE
  5
66F
100
AcDbEntity
  8
0
100
AcDbLine
 62
2
  6
CONTINUOUS
 10
13.2886869149
 20
2.515977327
 11
13.2886869149
 21
2.5324773361
  0
LINE
  5
670
100
AcDbEntity
  8
0
100
AcDbLine
 62
2
  6
CONTINUOUS
 10
13.2886869149
 20
2.5507823463
 11
13.2886869149
 21
2.5672823554
  0
LINE
  5
671
100
AcDbEntity
  8
0
100
AcDbLine
 62
2
  6
CONTINUOUS
 10
13.2886869149
 20
2.5920323691
 11
13.2886869149
 21
2.6994954125
  0
LINE
  5
672
100
AcDbEntity
  8
0
100
AcDbLine
 62
2
  6
CONTINUOUS
 10
13.2686869038
 20
2.3791869932
 11
13.2686869038
 21
2.4912273132
  0
LINE
  5
673
100
AcDbEntity
  8
0
100
AcDbLine
 62
2
  6
CONTINUOUS
 10
13.2686869038
 20
2.515977327
 11
13.2686869038
 21
2.5324773361
  0
LINE
  5
674
100
AcDbEntity
  8
0
100
AcDbLine
 62
2
  6
CONTINUOUS
 10
13.2686869038
 20
2.5507823463
 11
13.2686869038
 21
2.5672823554
  0
LINE
  5
675
100
AcDbEntity
  8
0
100
AcDbLine
 62
2
  6
CONTINUOUS
 10
13.2686869038
 20
2.5920323691
 11
13.2686869038
 21
2.7015696878
  0
LINE
  5
676
100
AcDbEntity
  8
0
100
AcDbLine
 62
2
  6
CONTINUOUS
 10
13.2486868927
 20
2.377112718
 11
13.2486868927
 21
2.4912273132
  0
LINE
  5
677
100
AcDbEntity
  8
0
100
AcDbLine
 62
2
  6
CONTINUOUS
 10
13.2486868927
 20
2.5920323691
 11
13.2486868927
 21
2.703643963
  0
LINE
  5
678
100
AcDbEntity
  8
0
100
AcDbLine
 62
2
  6
CONTINUOUS
 10
13.2286868817
 20
2.3750384428
 11
13.2286868817
 21
2.4912273132
  0
LINE
  5
679
100
AcDbEntity
  8
0
100
AcDbLine
 62
2
  6
CONTINUOUS
 10
13.2286868817
 20
2.5920323691
 11
13.2286868817
 21
2.7057182382
  0
LINE
  5
67A
100
AcDbEntity
  8
0
100
AcDbLine
 62
2
  6
CONTINUOUS
 10
13.2086868706
 20
2.3729641676
 11
13.2086868706
 21
2.4912273132
  0
LINE
  5
67B
100
AcDbEntity
  8
0
100
AcDbLine
 62
2
  6
CONTINUOUS
 10
13.2086868706
 20
2.5920323691
 11
13.2086868706
 21
2.7077925134
  0
LINE
  5
67C
100
AcDbEntity
  8
0
100
AcDbLine
 62
2
  6
CONTINUOUS
 10
13.1886868595
 20
2.3712344456
 11
13.1886868595
 21
2.4912273132
  0
LINE
  5
67D
100
AcDbEntity
  8
0
100
AcDbLine
 62
2
  6
CONTINUOUS
 10
13.1886868595
 20
2.515977327
 11
13.1886868595
 21
2.5672823554
  0
LINE
  5
67E
100
AcDbEntity
  8
0
100
AcDbLine
 62
2
  6
CONTINUOUS
 10
13.1886868595
 20
2.5920323691
 11
13.1886868595
 21
2.7095222354
  0
LINE
  5
67F
100
AcDbEntity
  8
0
100
AcDbLine
 62
2
  6
CONTINUOUS
 10
13.1686868484
 20
2.3699682418
 11
13.1686868484
 21
2.4912273132
  0
LINE
  5
680
100
AcDbEntity
  8
0
100
AcDbLine
 62
2
  6
CONTINUOUS
 10
13.1686868484
 20
2.515977327
 11
13.1686868484
 21
2.5672823554
  0
LINE
  5
681
100
AcDbEntity
  8
0
100
AcDbLine
 62
2
  6
CONTINUOUS
 10
13.1686868484
 20
2.5920323691
 11
13.1686868484
 21
2.7107884392
  0
LINE
  5
682
100
AcDbEntity
  8
0
100
AcDbLine
 62
2
  6
CONTINUOUS
 10
13.1486868373
 20
2.3687020381
 11
13.1486868373
 21
2.7120546429
  0
LINE
  5
683
100
AcDbEntity
  8
0
100
AcDbLine
 62
2
  6
CONTINUOUS
 10
13.1286868262
 20
2.3674358343
 11
13.1286868262
 21
2.5672823554
  0
LINE
  5
684
100
AcDbEntity
  8
0
100
AcDbLine
 62
2
  6
CONTINUOUS
 10
13.1286868262
 20
2.5920323691
 11
13.1286868262
 21
2.7133208466
  0
LINE
  5
685
100
AcDbEntity
  8
0
100
AcDbLine
 62
2
  6
CONTINUOUS
 10
13.1086868151
 20
2.3661696306
 11
13.1086868151
 21
2.4912273132
  0
LINE
  5
686
100
AcDbEntity
  8
0
100
AcDbLine
 62
2
  6
CONTINUOUS
 10
13.1086868151
 20
2.5920323691
 11
13.1086868151
 21
2.7145870504
  0
LINE
  5
687
100
AcDbEntity
  8
0
100
AcDbLine
 62
2
  6
CONTINUOUS
 10
13.088686804
 20
2.3649034269
 11
13.088686804
 21
2.4912273132
  0
LINE
  5
688
100
AcDbEntity
  8
0
100
AcDbLine
 62
2
  6
CONTINUOUS
 10
13.088686804
 20
2.5920323691
 11
13.088686804
 21
2.7158532541
  0
LINE
  5
689
100
AcDbEntity
  8
0
100
AcDbLine
 62
2
  6
CONTINUOUS
 10
13.0686867929
 20
2.3636739922
 11
13.0686867929
 21
2.4912273132
  0
LINE
  5
68A
100
AcDbEntity
  8
0
100
AcDbLine
 62
2
  6
CONTINUOUS
 10
13.0686867929
 20
2.5475272398
 11
13.0686867929
 21
2.5672823554
  0
LINE
  5
68B
100
AcDbEntity
  8
0
100
AcDbLine
 62
2
  6
CONTINUOUS
 10
13.0686867929
 20
2.5920323691
 11
13.0686867929
 21
2.7170826887
  0
LINE
  5
68C
100
AcDbEntity
  8
0
100
AcDbLine
 62
2
  6
CONTINUOUS
 10
13.0486867818
 20
2.363143203
 11
13.0486867818
 21
2.4912273132
  0
LINE
  5
68D
100
AcDbEntity
  8
0
100
AcDbLine
 62
2
  6
CONTINUOUS
 10
13.0486867818
 20
2.5666100882
 11
13.0486867818
 21
2.717613478
  0
LINE
  5
68E
100
AcDbEntity
  8
0
100
AcDbLine
 62
2
  6
CONTINUOUS
 10
13.0286867707
 20
2.3626124138
 11
13.0286867707
 21
2.50359263
  0
LINE
  5
68F
100
AcDbEntity
  8
0
100
AcDbLine
 62
2
  6
CONTINUOUS
 10
13.0286867707
 20
2.5856929366
 11
13.0286867707
 21
2.7181442672
  0
LINE
  5
690
100
AcDbEntity
  8
0
100
AcDbLine
 62
2
  6
CONTINUOUS
 10
13.0086867596
 20
2.3620816246
 11
13.0086867596
 21
2.5226754472
  0
LINE
  5
691
100
AcDbEntity
  8
0
100
AcDbLine
 62
2
  6
CONTINUOUS
 10
13.0086867596
 20
2.5920323691
 11
13.0086867596
 21
2.7186750564
  0
LINE
  5
692
100
AcDbEntity
  8
0
100
AcDbLine
 62
2
  6
CONTINUOUS
 10
12.9886867486
 20
2.3615508354
 11
12.9886867486
 21
2.4912273132
  0
LINE
  5
693
100
AcDbEntity
  8
0
100
AcDbLine
 62
2
  6
CONTINUOUS
 10
12.9886867486
 20
2.515977327
 11
12.9886867486
 21
2.5417582644
  0
LINE
  5
694
100
AcDbEntity
  8
0
100
AcDbLine
 62
2
  6
CONTINUOUS
 10
12.9886867486
 20
2.5920323691
 11
12.9886867486
 21
2.7192058456
  0
LINE
  5
695
100
AcDbEntity
  8
0
100
AcDbLine
 62
2
  6
CONTINUOUS
 10
12.9686867375
 20
2.3610200462
 11
12.9686867375
 21
2.4912273132
  0
LINE
  5
696
100
AcDbEntity
  8
0
100
AcDbLine
 62
2
  6
CONTINUOUS
 10
12.9686867375
 20
2.5920323691
 11
12.9686867375
 21
2.7197366348
  0
LINE
  5
697
100
AcDbEntity
  8
0
100
AcDbLine
 62
2
  6
CONTINUOUS
 10
12.9486867264
 20
2.360489257
 11
12.9486867264
 21
2.4912273132
  0
LINE
  5
698
100
AcDbEntity
  8
0
100
AcDbLine
 62
2
  6
CONTINUOUS
 10
12.9486867264
 20
2.5920323691
 11
12.9486867264
 21
2.720267424
  0
LINE
  5
699
100
AcDbEntity
  8
0
100
AcDbLine
 62
2
  6
CONTINUOUS
 10
12.9286867153
 20
2.3602836008
 11
12.9286867153
 21
2.4912273132
  0
LINE
  5
69A
100
AcDbEntity
  8
0
100
AcDbLine
 62
2
  6
CONTINUOUS
 10
12.9286867153
 20
2.515977327
 11
12.9286867153
 21
2.5672823554
  0
LINE
  5
69B
100
AcDbEntity
  8
0
100
AcDbLine
 62
2
  6
CONTINUOUS
 10
12.9286867153
 20
2.5920323691
 11
12.9286867153
 21
2.7204730802
  0
LINE
  5
69C
100
AcDbEntity
  8
0
100
AcDbLine
 62
2
  6
CONTINUOUS
 10
12.9086867042
 20
2.3604597639
 11
12.9086867042
 21
2.7202969171
  0
LINE
  5
69D
100
AcDbEntity
  8
0
100
AcDbLine
 62
2
  6
CONTINUOUS
 10
12.8886866931
 20
2.360635927
 11
12.8886866931
 21
2.5672823554
  0
LINE
  5
69E
100
AcDbEntity
  8
0
100
AcDbLine
 62
2
  6
CONTINUOUS
 10
12.8886866931
 20
2.5920323691
 11
12.8886866931
 21
2.720120754
  0
LINE
  5
69F
100
AcDbEntity
  8
0
100
AcDbLine
 62
2
  6
CONTINUOUS
 10
12.868686682
 20
2.3608120901
 11
12.868686682
 21
2.491232357
  0
LINE
  5
6A0
100
AcDbEntity
  8
0
100
AcDbLine
 62
2
  6
CONTINUOUS
 10
12.868686682
 20
2.5920323691
 11
12.868686682
 21
2.7199445909
  0
LINE
  5
6A1
100
AcDbEntity
  8
0
100
AcDbLine
 62
2
  6
CONTINUOUS
 10
12.8486866709
 20
2.3609882532
 11
12.8486866709
 21
2.4912273132
  0
LINE
  5
6A2
100
AcDbEntity
  8
0
100
AcDbLine
 62
2
  6
CONTINUOUS
 10
12.8486866709
 20
2.5920323691
 11
12.8486866709
 21
2.7197684278
  0
LINE
  5
6A3
100
AcDbEntity
  8
0
100
AcDbLine
 62
2
  6
CONTINUOUS
 10
12.8286866598
 20
2.3611644163
 11
12.8286866598
 21
2.4912273132
  0
LINE
  5
6A4
100
AcDbEntity
  8
0
100
AcDbLine
 62
2
  6
CONTINUOUS
 10
12.8286866598
 20
2.5396527025
 11
12.8286866598
 21
2.5672823554
  0
LINE
  5
6A5
100
AcDbEntity
  8
0
100
AcDbLine
 62
2
  6
CONTINUOUS
 10
12.8286866598
 20
2.5920323691
 11
12.8286866598
 21
2.7195922647
  0
LINE
  5
6A6
100
AcDbEntity
  8
0
100
AcDbLine
 62
2
  6
CONTINUOUS
 10
12.8086866487
 20
2.3613405794
 11
12.8086866487
 21
2.4912273132
  0
LINE
  5
6A7
100
AcDbEntity
  8
0
100
AcDbLine
 62
2
  6
CONTINUOUS
 10
12.8086866487
 20
2.5587355508
 11
12.8086866487
 21
2.7194161016
  0
LINE
  5
6A8
100
AcDbEntity
  8
0
100
AcDbLine
 62
2
  6
CONTINUOUS
 10
12.7886866376
 20
2.3621089572
 11
12.7886866376
 21
2.4957181055
  0
LINE
  5
6A9
100
AcDbEntity
  8
0
100
AcDbLine
 62
2
  6
CONTINUOUS
 10
12.7886866376
 20
2.5778183992
 11
12.7886866376
 21
2.7186477238
  0
LINE
  5
6AA
100
AcDbEntity
  8
0
100
AcDbLine
 62
2
  6
CONTINUOUS
 10
12.7686866266
 20
2.3630013935
 11
12.7686866266
 21
2.5148009227
  0
LINE
  5
6AB
100
AcDbEntity
  8
0
100
AcDbLine
 62
2
  6
CONTINUOUS
 10
12.7686866266
 20
2.5920323691
 11
12.7686866266
 21
2.7177552874
  0
LINE
  5
6AC
100
AcDbEntity
  8
0
100
AcDbLine
 62
2
  6
CONTINUOUS
 10
12.7486866155
 20
2.3638938299
 11
12.7486866155
 21
2.4913263218
  0
LINE
  5
6AD
100
AcDbEntity
  8
0
100
AcDbLine
 62
2
  6
CONTINUOUS
 10
12.7486866155
 20
2.5158783184
 11
12.7486866155
 21
2.5338837399
  0
LINE
  5
6AE
100
AcDbEntity
  8
0
100
AcDbLine
 62
2
  6
CONTINUOUS
 10
12.7486866155
 20
2.5920323691
 11
12.7486866155
 21
2.7168628511
  0
LINE
  5
6AF
100
AcDbEntity
  8
0
100
AcDbLine
 62
2
  6
CONTINUOUS
 10
12.7286866044
 20
2.3647862663
 11
12.7286866044
 21
2.4912273132
  0
LINE
  5
6B0
100
AcDbEntity
  8
0
100
AcDbLine
 62
2
  6
CONTINUOUS
 10
12.7286866044
 20
2.515977327
 11
12.7286866044
 21
2.5527601554
  0
LINE
  5
6B1
100
AcDbEntity
  8
0
100
AcDbLine
 62
2
  6
CONTINUOUS
 10
12.7286866044
 20
2.5920323691
 11
12.7286866044
 21
2.7159704147
  0
LINE
  5
6B2
100
AcDbEntity
  8
0
100
AcDbLine
 62
2
  6
CONTINUOUS
 10
12.7086865933
 20
2.3656787026
 11
12.7086865933
 21
2.4912273132
  0
LINE
  5
6B3
100
AcDbEntity
  8
0
100
AcDbLine
 62
2
  6
CONTINUOUS
 10
12.7086865933
 20
2.5920323691
 11
12.7086865933
 21
2.7150779784
  0
LINE
  5
6B4
100
AcDbEntity
  8
0
100
AcDbLine
 62
2
  6
CONTINUOUS
 10
12.6886865822
 20
2.366571139
 11
12.6886865822
 21
2.4912273132
  0
LINE
  5
6B5
100
AcDbEntity
  8
0
100
AcDbLine
 62
2
  6
CONTINUOUS
 10
12.6886865822
 20
2.515977327
 11
12.6886865822
 21
2.5672823554
  0
LINE
  5
6B6
100
AcDbEntity
  8
0
100
AcDbLine
 62
2
  6
CONTINUOUS
 10
12.6886865822
 20
2.5920323691
 11
12.6886865822
 21
2.714185542
  0
LINE
  5
6B7
100
AcDbEntity
  8
0
100
AcDbLine
 62
2
  6
CONTINUOUS
 10
12.6686865711
 20
2.3677104027
 11
12.6686865711
 21
2.7130462783
  0
LINE
  5
6B8
100
AcDbEntity
  8
0
100
AcDbLine
 62
2
  6
CONTINUOUS
 10
12.64868656
 20
2.3693682721
 11
12.64868656
 21
2.7113884089
  0
LINE
  5
6B9
100
AcDbEntity
  8
0
100
AcDbLine
 62
2
  6
CONTINUOUS
 10
12.6286865489
 20
2.3710261415
 11
12.6286865489
 21
2.4912273132
  0
LINE
  5
6BA
100
AcDbEntity
  8
0
100
AcDbLine
 62
2
  6
CONTINUOUS
 10
12.6286865489
 20
2.515977327
 11
12.6286865489
 21
2.7097305395
  0
LINE
  5
6BB
100
AcDbEntity
  8
0
100
AcDbLine
 62
2
  6
CONTINUOUS
 10
12.6086865378
 20
2.372684011
 11
12.6086865378
 21
2.4912273132
  0
LINE
  5
6BC
100
AcDbEntity
  8
0
100
AcDbLine
 62
2
  6
CONTINUOUS
 10
12.6086865378
 20
2.5351122279
 11
12.6086865378
 21
2.70807267
  0
LINE
  5
6BD
100
AcDbEntity
  8
0
100
AcDbLine
 62
2
  6
CONTINUOUS
 10
12.5886865267
 20
2.3743418804
 11
12.5886865267
 21
2.4912273132
  0
LINE
  5
6BE
100
AcDbEntity
  8
0
100
AcDbLine
 62
2
  6
CONTINUOUS
 10
12.5886865267
 20
2.5660172622
 11
12.5886865267
 21
2.7064148006
  0
LINE
  5
6BF
100
AcDbEntity
  8
0
100
AcDbLine
 62
2
  6
CONTINUOUS
 10
12.5686865156
 20
2.3759997498
 11
12.5686865156
 21
2.4912273132
  0
LINE
  5
6C0
100
AcDbEntity
  8
0
100
AcDbLine
 62
2
  6
CONTINUOUS
 10
12.5686865156
 20
2.5920323691
 11
12.5686865156
 21
2.7047569312
  0
LINE
  5
6C1
100
AcDbEntity
  8
0
100
AcDbLine
 62
2
  6
CONTINUOUS
 10
12.5486865045
 20
2.3777575277
 11
12.5486865045
 21
2.4912273132
  0
LINE
  5
6C2
100
AcDbEntity
  8
0
100
AcDbLine
 62
2
  6
CONTINUOUS
 10
12.5486865045
 20
2.515977327
 11
12.5486865045
 21
2.5275118824
  0
LINE
  5
6C3
100
AcDbEntity
  8
0
100
AcDbLine
 62
2
  6
CONTINUOUS
 10
12.5486865045
 20
2.5920323691
 11
12.5486865045
 21
2.7029991533
  0
LINE
  5
6C4
100
AcDbEntity
  8
0
100
AcDbLine
 62
2
  6
CONTINUOUS
 10
12.5286864935
 20
2.3802813811
 11
12.5286864935
 21
2.5296213345
  0
LINE
  5
6C5
100
AcDbEntity
  8
0
100
AcDbLine
 62
2
  6
CONTINUOUS
 10
12.5286864935
 20
2.5505713461
 11
12.5286864935
 21
2.5667383551
  0
LINE
  5
6C6
100
AcDbEntity
  8
0
100
AcDbLine
 62
2
  6
CONTINUOUS
 10
12.5286864935
 20
2.5920323691
 11
12.5286864935
 21
2.7004752999
  0
LINE
  5
6C7
100
AcDbEntity
  8
0
100
AcDbLine
 62
2
  6
CONTINUOUS
 10
12.5086864824
 20
2.3828052346
 11
12.5086864824
 21
2.4912273132
  0
LINE
  5
6C8
100
AcDbEntity
  8
0
100
AcDbLine
 62
2
  6
CONTINUOUS
 10
12.5086864824
 20
2.515977327
 11
12.5086864824
 21
2.5279667721
  0
LINE
  5
6C9
100
AcDbEntity
  8
0
100
AcDbLine
 62
2
  6
CONTINUOUS
 10
12.5086864824
 20
2.5868602074
 11
12.5086864824
 21
2.6979514464
  0
LINE
  5
6CA
100
AcDbEntity
  8
0
100
AcDbLine
 62
2
  6
CONTINUOUS
 10
12.4886864713
 20
2.385329088
 11
12.4886864713
 21
2.4912273132
  0
LINE
  5
6CB
100
AcDbEntity
  8
0
100
AcDbLine
 62
2
  6
CONTINUOUS
 10
12.4886864713
 20
2.5553401045
 11
12.4886864713
 21
2.695427593
  0
LINE
  5
6CC
100
AcDbEntity
  8
0
100
AcDbLine
 62
2
  6
CONTINUOUS
 10
12.4686864602
 20
2.3878529415
 11
12.4686864602
 21
2.4912273132
  0
LINE
  5
6CD
100
AcDbEntity
  8
0
100
AcDbLine
 62
2
  6
CONTINUOUS
 10
12.4686864602
 20
2.5238200015
 11
12.4686864602
 21
2.6929037395
  0
LINE
  5
6CE
100
AcDbEntity
  8
0
100
AcDbLine
 62
2
  6
CONTINUOUS
 10
12.4486864491
 20
2.390376795
 11
12.4486864491
 21
2.4912273132
  0
LINE
  5
6CF
100
AcDbEntity
  8
0
100
AcDbLine
 62
2
  6
CONTINUOUS
 10
12.4486864491
 20
2.515977327
 11
12.4486864491
 21
2.690379886
  0
LINE
  5
6D0
100
AcDbEntity
  8
0
100
AcDbLine
 62
2
  6
CONTINUOUS
 10
12.428686438
 20
2.3931794042
 11
12.428686438
 21
2.6875772768
  0
LINE
  5
6D1
100
AcDbEntity
  8
0
100
AcDbLine
 62
2
  6
CONTINUOUS
 10
12.4086864269
 20
2.3964643301
 11
12.4086864269
 21
2.5013773986
  0
LINE
  5
6D2
100
AcDbEntity
  8
0
100
AcDbLine
 62
2
  6
CONTINUOUS
 10
12.4086864269
 20
2.5325739971
 11
12.4086864269
 21
2.5537224311
  0
LINE
  5
6D3
100
AcDbEntity
  8
0
100
AcDbLine
 62
2
  6
CONTINUOUS
 10
12.4086864269
 20
2.5791473398
 11
12.4086864269
 21
2.6842923509
  0
LINE
  5
6D4
100
AcDbEntity
  8
0
100
AcDbLine
 62
2
  6
CONTINUOUS
 10
12.3886864158
 20
2.399749256
 11
12.3886864158
 21
2.4921022658
  0
LINE
  5
6D5
100
AcDbEntity
  8
0
100
AcDbLine
 62
2
  6
CONTINUOUS
 10
12.3886864158
 20
2.5895929958
 11
12.3886864158
 21
2.681007425
  0
LINE
  5
6D6
100
AcDbEntity
  8
0
100
AcDbLine
 62
2
  6
CONTINUOUS
 10
12.3686864047
 20
2.403451877
 11
12.3686864047
 21
2.4912273132
  0
LINE
  5
6D7
100
AcDbEntity
  8
0
100
AcDbLine
 62
2
  6
CONTINUOUS
 10
12.3686864047
 20
2.5920323691
 11
12.3686864047
 21
2.677304804
  0
LINE
  5
6D8
100
AcDbEntity
  8
0
100
AcDbLine
 62
2
  6
CONTINUOUS
 10
12.3486863936
 20
2.407324637
 11
12.3486863936
 21
2.4912273132
  0
LINE
  5
6D9
100
AcDbEntity
  8
0
100
AcDbLine
 62
2
  6
CONTINUOUS
 10
12.3486863936
 20
2.5920323691
 11
12.3486863936
 21
2.673432044
  0
LINE
  5
6DA
100
AcDbEntity
  8
0
100
AcDbLine
 62
2
  6
CONTINUOUS
 10
12.3286863825
 20
2.4113493968
 11
12.3286863825
 21
2.4912273132
  0
LINE
  5
6DB
100
AcDbEntity
  8
0
100
AcDbLine
 62
2
  6
CONTINUOUS
 10
12.3286863825
 20
2.515977327
 11
12.3286863825
 21
2.5333023366
  0
LINE
  5
6DC
100
AcDbEntity
  8
0
100
AcDbLine
 62
2
  6
CONTINUOUS
 10
12.3286863825
 20
2.5499573458
 11
12.3286863825
 21
2.5672823554
  0
LINE
  5
6DD
100
AcDbEntity
  8
0
100
AcDbLine
 62
2
  6
CONTINUOUS
 10
12.3286863825
 20
2.5920323691
 11
12.3286863825
 21
2.6694072842
  0
LINE
  5
6DE
100
AcDbEntity
  8
0
100
AcDbLine
 62
2
  6
CONTINUOUS
 10
12.3086863715
 20
2.4159005505
 11
12.3086863715
 21
2.4912273132
  0
LINE
  5
6DF
100
AcDbEntity
  8
0
100
AcDbLine
 62
2
  6
CONTINUOUS
 10
12.3086863715
 20
2.515977327
 11
12.3086863715
 21
2.5333023366
  0
LINE
  5
6E0
100
AcDbEntity
  8
0
100
AcDbLine
 62
2
  6
CONTINUOUS
 10
12.3086863715
 20
2.5499573458
 11
12.3086863715
 21
2.5672823554
  0
LINE
  5
6E1
100
AcDbEntity
  8
0
100
AcDbLine
 62
2
  6
CONTINUOUS
 10
12.3086863715
 20
2.5920323691
 11
12.3086863715
 21
2.6648561305
  0
LINE
  5
6E2
100
AcDbEntity
  8
0
100
AcDbLine
 62
2
  6
CONTINUOUS
 10
12.2886863604
 20
2.4204517041
 11
12.2886863604
 21
2.4912273132
  0
LINE
  5
6E3
100
AcDbEntity
  8
0
100
AcDbLine
 62
2
  6
CONTINUOUS
 10
12.2886863604
 20
2.5920323691
 11
12.2886863604
 21
2.6603049769
  0
LINE
  5
6E4
100
AcDbEntity
  8
0
100
AcDbLine
 62
2
  6
CONTINUOUS
 10
12.2686863493
 20
2.4257438218
 11
12.2686863493
 21
2.4912273132
  0
LINE
  5
6E5
100
AcDbEntity
  8
0
100
AcDbLine
 62
2
  6
CONTINUOUS
 10
12.2686863493
 20
2.5920323691
 11
12.2686863493
 21
2.6550128592
  0
LINE
  5
6E6
100
AcDbEntity
  8
0
100
AcDbLine
 62
2
  6
CONTINUOUS
 10
12.2486863382
 20
2.4310978667
 11
12.2486863382
 21
2.4912273132
  0
LINE
  5
6E7
100
AcDbEntity
  8
0
100
AcDbLine
 62
2
  6
CONTINUOUS
 10
12.2486863382
 20
2.5920323691
 11
12.2486863382
 21
2.6496588142
  0
LINE
  5
6E8
100
AcDbEntity
  8
0
100
AcDbLine
 62
2
  6
CONTINUOUS
 10
12.2286863271
 20
2.4372566433
 11
12.2286863271
 21
2.4912273132
  0
LINE
  5
6E9
100
AcDbEntity
  8
0
100
AcDbLine
 62
2
  6
CONTINUOUS
 10
12.2286863271
 20
2.515977327
 11
12.2286863271
 21
2.5672823554
  0
LINE
  5
6EA
100
AcDbEntity
  8
0
100
AcDbLine
 62
2
  6
CONTINUOUS
 10
12.2286863271
 20
2.5920323691
 11
12.2286863271
 21
2.6435000377
  0
LINE
  5
6EB
100
AcDbEntity
  8
0
100
AcDbLine
 62
2
  6
CONTINUOUS
 10
12.208686316
 20
2.443589771
 11
12.208686316
 21
2.4912273132
  0
LINE
  5
6EC
100
AcDbEntity
  8
0
100
AcDbLine
 62
2
  6
CONTINUOUS
 10
12.208686316
 20
2.515977327
 11
12.208686316
 21
2.5672823554
  0
LINE
  5
6ED
100
AcDbEntity
  8
0
100
AcDbLine
 62
2
  6
CONTINUOUS
 10
12.208686316
 20
2.5920323691
 11
12.208686316
 21
2.63716691
  0
LINE
  5
6EE
100
AcDbEntity
  8
0
100
AcDbLine
 62
2
  6
CONTINUOUS
 10
12.1886863049
 20
2.4510806436
 11
12.1886863049
 21
2.6296760373
  0
LINE
  5
6EF
100
AcDbEntity
  8
0
100
AcDbLine
 62
2
  6
CONTINUOUS
 10
12.1686862938
 20
2.4591016523
 11
12.1686862938
 21
2.6216550287
  0
LINE
  5
6F0
100
AcDbEntity
  8
0
100
AcDbLine
 62
2
  6
CONTINUOUS
 10
12.1486862827
 20
2.468314272
 11
12.1486862827
 21
2.612442409
  0
LINE
  5
6F1
100
AcDbEntity
  8
0
100
AcDbLine
 62
2
  6
CONTINUOUS
 10
12.1286862716
 20
2.4794932339
 11
12.1286862716
 21
2.601263447
  0
LINE
  5
6F2
100
AcDbEntity
  8
0
100
AcDbLine
 62
2
  6
CONTINUOUS
 10
12.1086862605
 20
2.4934150665
 11
12.1086862605
 21
2.5873416144
  0
LINE
  5
6F3
100
AcDbEntity
  8
0
100
AcDbLine
 62
2
  6
CONTINUOUS
 10
12.0886862494
 20
2.5144449553
 11
12.0886862494
 21
2.5663117257
  0
ENDBLK
  5
6F4
100
AcDbEntity
  8
0
  6
BYBLOCK
 62
0
100
AcDbBlockEnd
  0
BLOCK
  5
6F5
100
AcDbEntity
  8
0
100
AcDbBlockBegin
  2
_FILLED
 70
64
 10
0.0
 20
0.0
  3
_FILLED
  1

  0
SOLID
  5
6F6
100
AcDbEntity
  8
0
  6
BYBLOCK
 62
0
100
AcDbTrace
 10
0.0
 20
0.0
 11
-1.0
 21
0.1666666667
 12
-1.0
 22
-0.1666666667
 13
-1.0
 23
-0.1666666667
  0
ENDBLK
  5
6F7
100
AcDbEntity
  8
0
  6
BYBLOCK
 62
0
100
AcDbBlockEnd
  0
BLOCK
  5
6F8
100
AcDbEntity
  8
SCHEME_DIMS
100
AcDbBlockBegin
 62
2
  6
CONTINUOUS
  2
*D0
 70
65
 10
0.0
 20
0.0
  3
*D0
  1

  0
MTEXT
  5
6F9
100
AcDbEntity
  8
SCHEME_DIMS
100
AcDbMText
 62
2
  6
CONTINUOUS
  7
TEXTSTYLE_5
 71
2
 72
1
 10
2.9895777427
 20
5.1854588415
 30
0.0
 11
1.0
 21
0.0
 31
0.0
 44
0.9
  1
{\Fgdt;n}\Ftxt;26,11\P[1.028]
 40
0.1
 41
0.7
  0
LINE
  5
6FA
100
AcDbEntity
  8
SCHEME_DIMS
100
AcDbLine
 62
2
  6
CONTINUOUS
 10
4.5434065695
 20
5.6494588415
 11
2.9645777427
 21
5.6494588415
  0
LINE
  5
6FB
100
AcDbEntity
  8
SCHEME_DIMS
100
AcDbLine
 62
2
  6
CONTINUOUS
 10
4.5541917171
 20
4.6214588415
 11
2.9645777427
 21
4.6214588415
  0
LINE
  5
6FC
100
AcDbEntity
  8
SCHEME_DIMS
100
AcDbLine
 62
2
  6
CONTINUOUS
 10
3.0895777427
 20
5.6494588415
 11
3.0895777427
 21
5.2854588415
  0
LINE
  5
6FD
100
AcDbEntity
  8
SCHEME_DIMS
100
AcDbLine
 62
2
  6
CONTINUOUS
 10
3.0895777427
 20
4.6214588415
 11
3.0895777427
 21
4.8354588415
  0
INSERT
  5
6FE
100
AcDbEntity
  8
SCHEME_DIMS
100
AcDbBlockReference
 62
2
  6
CONTINUOUS
  2
_FILLED
 10
3.0895777427
 20
5.6494588415
 41
0.1875
 42
0.1875
 43
0.1875
 50
90.0
  0
INSERT
  5
6FF
100
AcDbEntity
  8
SCHEME_DIMS
100
AcDbBlockReference
 62
2
  6
CONTINUOUS
  2
_FILLED
 10
3.0895777427
 20
4.6214588415
 41
0.1875
 42
0.1875
 43
0.1875
 50
270.0
  0
ENDBLK
  5
700
100
AcDbEntity
  8
0
  6
BYBLOCK
 62
0
100
AcDbBlockEnd
  0
BLOCK
  5
701
100
AcDbEntity
  8
SCHEME_DIMS
100
AcDbBlockBegin
 62
2
  6
CONTINUOUS
  2
*D1
 70
65
 10
0.0
 20
0.0
  3
*D1
  1

  0
MTEXT
  5
702
100
AcDbEntity
  8
SCHEME_DIMS
100
AcDbMText
 62
2
  6
CONTINUOUS
  7
STANDARD
 71
2
 72
1
 10
3.7823403423
 20
4.2650086691
 30
0.0
 11
1.0
 21
0.0
 31
0.0
 44
0.9
  1
15.0\Fgdt;{\Fgdt;~}
 40
0.1
 41
0.4666666667
  0
LINE
  5
703
100
AcDbEntity
  8
SCHEME_DIMS
100
AcDbLine
 62
2
  6
CONTINUOUS
 10
4.5206363395
 20
4.6478572834
 11
3.5998124356
 21
4.8945913048
  0
LINE
  5
704
100
AcDbEntity
  8
SCHEME_DIMS
100
AcDbLine
 62
2
  6
CONTINUOUS
 10
4.556656666
 20
4.6214588415
 11
3.5638538646
 21
4.6214588415
  0
ARC
  5
705
100
AcDbEntity
  8
SCHEME_DIMS
100
AcDbCircle
 62
2
  6
CONTINUOUS
 10
4.619156666
 20
4.6214588415
 40
0.9303028014
100
AcDbArc
 50
140.3646750589
 51
165.0
  0
ARC
  5
706
100
AcDbEntity
  8
SCHEME_DIMS
100
AcDbCircle
 62
2
  6
CONTINUOUS
 10
4.619156666
 20
4.6214588415
 40
0.9303028014
100
AcDbArc
 50
180.0
 51
205.906315731
  0
SOLID
  5
707
100
AcDbEntity
  8
SCHEME_DIMS
100
AcDbTrace
 62
2
  6
CONTINUOUS
 10
3.7578375265
 20
5.0486328318
 11
3.7205531639
 21
4.8622389242
 12
3.8162742337
 22
5.0264652597
 13
3.8162742337
 23
5.0264652597
  0
SOLID
  5
708
100
AcDbEntity
  8
SCHEME_DIMS
100
AcDbTrace
 62
2
  6
CONTINUOUS
 10
3.7388084148
 20
4.4380539467
 11
3.6888538646
 21
4.6214588415
 12
3.6766255003
 22
4.4317662491
 13
3.6766255003
 23
4.4317662491
  0
ENDBLK
  5
709
100
AcDbEntity
  8
0
  6
BYBLOCK
 62
0
100
AcDbBlockEnd
  0
BLOCK
  5
70A
100
AcDbEntity
  8
SCHEME_DIMS
100
AcDbBlockBegin
 62
2
  6
CONTINUOUS
  2
*D2
 70
65
 10
0.0
 20
0.0
  3
*D2
  1

  0
MTEXT
  5
70B
100
AcDbEntity
  8
SCHEME_DIMS
100
AcDbMText
 62
2
  6
CONTINUOUS
  7
STANDARD
 71
2
 72
1
 10
6.079054878
 20
6.396198434
 30
0.0
 11
1.0
 21
0.0
 31
0.0
 44
0.9
  1
85 - 95\P[3.35-3.74]
 40
0.1
 41
1.1
  0
LINE
  5
70C
100
AcDbEntity
  8
SCHEME_DIMS
100
AcDbLine
 62
2
  6
CONTINUOUS
 10
4.231023382
 20
5.5312261426
 11
4.231023382
 21
6.471198434
  0
LINE
  5
70D
100
AcDbEntity
  8
SCHEME_DIMS
100
AcDbLine
 62
2
  6
CONTINUOUS
 10
7.9270863741
 20
5.1979588415
 11
7.9270863741
 21
6.471198434
  0
LINE
  5
70E
100
AcDbEntity
  8
SCHEME_DIMS
100
AcDbLine
 62
2
  6
CONTINUOUS
 10
4.231023382
 20
6.346198434
 11
5.429054878
 21
6.346198434
  0
LINE
  5
70F
100
AcDbEntity
  8
SCHEME_DIMS
100
AcDbLine
 62
2
  6
CONTINUOUS
 10
7.9270863741
 20
6.346198434
 11
6.729054878
 21
6.346198434
  0
INSERT
  5
710
100
AcDbEntity
  8
SCHEME_DIMS
100
AcDbBlockReference
 62
2
  6
CONTINUOUS
  2
_FILLED
 10
4.231023382
 20
6.346198434
 41
0.1875
 42
0.1875
 43
0.1875
 50
180.0
  0
INSERT
  5
711
100
AcDbEntity
  8
SCHEME_DIMS
100
AcDbBlockReference
 62
2
  6
CONTINUOUS
  2
_FILLED
 10
7.9270863741
 20
6.346198434
 41
0.1875
 42
0.1875
 43
0.1875
  0
ENDBLK
  5
712
100
AcDbEntity
  8
0
  6
BYBLOCK
 62
0
100
AcDbBlockEnd
  0
BLOCK
  5
713
100
AcDbEntity
  8
SCHEME_DIMS
100
AcDbBlockBegin
 62
2
  6
CONTINUOUS
  2
*D3
 70
65
 10
0.0
 20
0.0
  3
*D3
  1

  0
MTEXT
  5
714
100
AcDbEntity
  8
SCHEME_DIMS
100
AcDbMText
 62
2
  6
CONTINUOUS
  7
TEXTSTYLE_5
 71
2
 72
1
 10
8.7413455056
 20
5.1854588415
 30
0.0
 11
1.0
 21
0.0
 31
0.0
 44
0.9
  1
{\Fgdt;n}\Ftxt;29,46\P[1.160]
 40
0.1
 41
0.7
  0
LINE
  5
715
100
AcDbEntity
  8
SCHEME_DIMS
100
AcDbLine
 62
2
  6
CONTINUOUS
 10
7.699523382
 20
5.7154588415
 11
8.9663455056
 21
5.7154588415
  0
LINE
  5
716
100
AcDbEntity
  8
SCHEME_DIMS
100
AcDbLine
 62
2
  6
CONTINUOUS
 10
7.699523382
 20
4.5554588415
 11
8.9663455056
 21
4.5554588415
  0
LINE
  5
717
100
AcDbEntity
  8
SCHEME_DIMS
100
AcDbLine
 62
2
  6
CONTINUOUS
 10
8.8413455056
 20
5.7154588415
 11
8.8413455056
 21
5.2854588415
  0
LINE
  5
718
100
AcDbEntity
  8
SCHEME_DIMS
100
AcDbLine
 62
2
  6
CONTINUOUS
 10
8.8413455056
 20
4.5554588415
 11
8.8413455056
 21
4.8354588415
  0
INSERT
  5
719
100
AcDbEntity
  8
SCHEME_DIMS
100
AcDbBlockReference
 62
2
  6
CONTINUOUS
  2
_FILLED
 10
8.8413455056
 20
5.7154588415
 41
0.1875
 42
0.1875
 43
0.1875
 50
90.0
  0
INSERT
  5
71A
100
AcDbEntity
  8
SCHEME_DIMS
100
AcDbBlockReference
 62
2
  6
CONTINUOUS
  2
_FILLED
 10
8.8413455056
 20
4.5554588415
 41
0.1875
 42
0.1875
 43
0.1875
 50
270.0
  0
ENDBLK
  5
71B
100
AcDbEntity
  8
0
  6
BYBLOCK
 62
0
100
AcDbBlockEnd
  0
BLOCK
  5
71C
100
AcDbEntity
  8
SCHEME_DIMS
100
AcDbBlockBegin
 62
2
  6
CONTINUOUS
  2
*D4
 70
65
 10
0.0
 20
0.0
  3
*D4
  1

  0
MTEXT
  5
71D
100
AcDbEntity
  8
SCHEME_DIMS
100
AcDbMText
 62
2
  6
CONTINUOUS
  7
STANDARD
 71
2
 72
1
 10
6.619554878
 20
9.1858326699
 30
0.0
 11
1.0
 21
0.0
 31
0.0
 44
0.9
  1
61,34\P[2.415]
 40
0.1
 41
0.7
  0
LINE
  5
71E
100
AcDbEntity
  8
SCHEME_DIMS
100
AcDbLine
 62
2
  6
CONTINUOUS
 10
5.512023382
 20
8.6723018293
 11
5.512023382
 21
9.2608326699
  0
LINE
  5
71F
100
AcDbEntity
  8
SCHEME_DIMS
100
AcDbLine
 62
2
  6
CONTINUOUS
 10
7.9270863741
 20
8.1423018293
 11
7.9270863741
 21
9.2608326699
  0
LINE
  5
720
100
AcDbEntity
  8
SCHEME_DIMS
100
AcDbLine
 62
2
  6
CONTINUOUS
 10
5.512023382
 20
9.1358326699
 11
6.269554878
 21
9.1358326699
  0
LINE
  5
721
100
AcDbEntity
  8
SCHEME_DIMS
100
AcDbLine
 62
2
  6
CONTINUOUS
 10
7.9270863741
 20
9.1358326699
 11
7.169554878
 21
9.1358326699
  0
INSERT
  5
722
100
AcDbEntity
  8
SCHEME_DIMS
100
AcDbBlockReference
 62
2
  6
CONTINUOUS
  2
_FILLED
 10
5.512023382
 20
9.1358326699
 41
0.1875
 42
0.1875
 43
0.1875
 50
180.0
  0
INSERT
  5
723
100
AcDbEntity
  8
SCHEME_DIMS
100
AcDbBlockReference
 62
2
  6
CONTINUOUS
  2
_FILLED
 10
7.9270863741
 20
9.1358326699
 41
0.1875
 42
0.1875
 43
0.1875
  0
ENDBLK
  5
724
100
AcDbEntity
  8
0
  6
BYBLOCK
 62
0
100
AcDbBlockEnd
  0
BLOCK
  5
725
100
AcDbEntity
  8
0
100
AcDbBlockBegin
  2
*T1
 70
1
 10
0.0
 20
0.0
  3
*T1
  1

  0
LINE
  5
726
100
AcDbEntity
  8
0
100
AcDbLine
 62
2
  6
CONTINUOUS
 10
4.35
 20
0.0
 11
0.0
 21
0.0
  0
LINE
  5
727
100
AcDbEntity
  8
0
100
AcDbLine
 62
2
  6
CONTINUOUS
 10
4.35
 20
0.0
 11
4.35
 21
1.92
  0
LINE
  5
728
100
AcDbEntity
  8
0
100
AcDbLine
 62
2
  6
CONTINUOUS
 10
4.35
 20
1.92
 11
0.0
 21
1.92
  0
LINE
  5
729
100
AcDbEntity
  8
0
100
AcDbLine
 62
2
  6
CONTINUOUS
 10
0.0
 20
0.0
 11
0.0
 21
1.92
  0
MTEXT
  5
72A
100
AcDbEntity
  8
NOTES
100
AcDbMText
 62
7
  6
CONTINUOUS
  7
STANDARD
 71
2
 72
1
 10
4.125
 20
0.48
 30
0.0
 11
1.0
 21
0.0
 31
0.0
 44
0.9
  1
1
 40
0.1
 41
0.1
  0
MTEXT
  5
72B
100
AcDbEntity
  8
NOTES
100
AcDbMText
 62
7
  6
CONTINUOUS
  7
STANDARD
 71
2
 72
1
 10
2.175
 20
1.08
 30
0.0
 11
1.0
 21
0.0
 31
0.0
 44
0.9
  1
LED_S_\PWEB CAD DRAWINGS 2D/3D
 40
0.1
 41
2.2
  0
ENDBLK
  5
72C
100
AcDbEntity
  8
0
100
AcDbBlockEnd
  0
ENDSEC
  0
SECTION
  2
ENTITIES
  0
MTEXT
  5
72D
100
AcDbEntity
  8
0
100
AcDbMText
 62
2
  6
CONTINUOUS
  7
TEXTSTYLE_2
 71
2
 72
1
 10
11.0287658475
 20
1.794867839
 30
0.0
 11
1.0
 21
0.0
 31
0.0
 44
0.9
  1
THIRD ANGLE PROJECTION
 40
0.1
 41
1.76
  0
MTEXT
  5
72E
100
AcDbEntity
  8
0
100
AcDbMText
 62
2
  6
CONTINUOUS
  7
STANDARD
 71
1
 72
1
 10
12.88
 20
1.457
 30
0.0
 11
1.0
 21
0.0
 31
0.0
 44
0.9
  1
DRAWING NO.
 40
0.08
 41
0.88
  0
MTEXT
  5
72F
100
AcDbEntity
  8
0
100
AcDbMText
 62
2
  6
CONTINUOUS
  7
TEXTSTYLE_3
 71
2
 72
1
 10
11.03
 20
2.516432
 30
0.0
 11
1.0
 21
0.0
 31
0.0
 44
0.9
  1
and is proprietary in general
 40
0.08
 41
1.972
  0
MTEXT
  5
730
100
AcDbEntity
  8
0
100
AcDbMText
 62
2
  6
CONTINUOUS
  7
TEXTSTYLE_3
 71
2
 72
1
 10
11.03
 20
2.396432
 30
0.0
 11
1.0
 21
0.0
 31
0.0
 44
0.9
  1
and in detail.  Its contents
 40
0.08
 41
1.904
  0
MTEXT
  5
731
100
AcDbEntity
  8
0
100
AcDbMText
 62
2
  6
CONTINUOUS
  7
TEXTSTYLE_3
 71
2
 72
1
 10
11.03
 20
2.276432
 30
0.0
 11
1.0
 21
0.0
 31
0.0
 44
0.9
  1
shall not be revealed to
 40
0.08
 41
1.632
  0
MTEXT
  5
732
100
AcDbEntity
  8
0
100
AcDbMText
 62
2
  6
CONTINUOUS
  7
TEXTSTYLE_3
 71
2
 72
1
 10
11.03
 20
2.156432
 30
0.0
 11
1.0
 21
0.0
 31
0.0
 44
0.9
  1
outside parties without
 40
0.08
 41
1.564
  0
MTEXT
  5
733
100
AcDbEntity
  8
0
100
AcDbMText
 62
2
  6
CONTINUOUS
  7
TEXTSTYLE_3
 71
2
 72
1
 10
11.03
 20
2.036432
 30
0.0
 11
1.0
 21
0.0
 31
0.0
 44
0.9
  1
written consent of BANNER.
 40
0.08
 41
1.768
  0
MTEXT
  5
734
100
AcDbEntity
  8
0
100
AcDbMText
 62
2
  6
CONTINUOUS
  7
TEXTSTYLE_2
 71
1
 72
1
 10
12.08
 20
2.217
 30
0.0
 11
1.0
 21
0.0
 31
0.0
 44
0.9
  1
TITLE
 40
0.1
 41
0.4
  0
MTEXT
  5
735
100
AcDbEntity
  8
0
100
AcDbMText
 62
2
  6
CONTINUOUS
  7
STANDARD
 71
1
 72
1
 10
12.08
 20
1.457
 30
0.0
 11
1.0
 21
0.0
 31
0.0
 44
0.9
  1
SIZE
 40
0.08
 41
0.32
  0
MTEXT
  5
736
100
AcDbEntity
  8
0
100
AcDbMText
 62
2
  6
CONTINUOUS
  7
STANDARD
 71
1
 72
1
 10
12.08
 20
1.087
 30
0.0
 11
1.0
 21
0.0
 31
0.0
 44
0.9
  1
SCALE
 40
0.08
 41
0.4
  0
MTEXT
  5
737
100
AcDbEntity
  8
0
100
AcDbMText
 62
2
  6
CONTINUOUS
  7
TEXTSTYLE_2
 71
2
 72
1
 10
12.5
 20
1.337
 30
0.0
 11
1.0
 21
0.0
 31
0.0
 44
0.9
  1
B
 40
0.1
 41
0.08
  0
MTEXT
  5
738
100
AcDbEntity
  8
0
100
AcDbMText
 62
2
  6
CONTINUOUS
  7
TEXTSTYLE_3
 71
2
 72
1
 10
11.03
 20
2.636432
 30
0.0
 11
1.0
 21
0.0
 31
0.0
 44
0.9
  1
of BANNER ENGINEERING CORP.
 40
0.08
 41
1.836
  0
MTEXT
  5
739
100
AcDbEntity
  8
0
100
AcDbMText
 62
2
  6
CONTINUOUS
  7
TEXTSTYLE_3
 71
2
 72
1
 10
11.03
 20
2.756432
 30
0.0
 11
1.0
 21
0.0
 31
0.0
 44
0.9
  1
This drawing is the property
 40
0.08
 41
1.904
  0
MTEXT
  5
73A
100
AcDbEntity
  8
0
100
AcDbMText
 62
2
  6
CONTINUOUS
  7
TEXTSTYLE_2
 71
2
 72
1
 10
15.03
 20
2.4134
 30
0.0
 11
1.0
 21
0.0
 31
0.0
 44
0.9
  1
MINNEAPOLIS, MN 55440
 40
0.1
 41
1.68
  0
MTEXT
  5
73B
100
AcDbEntity
  8
0
100
AcDbMText
 62
2
  6
CONTINUOUS
  7
STANDARD
 71
1
 72
1
 10
14.255
 20
1.087
 30
0.0
 11
1.0
 21
0.0
 31
0.0
 44
0.9
  1
SHEET
 40
0.08
 41
0.4
  0
MTEXT
  5
73C
100
AcDbEntity
  8
0
100
AcDbMText
 62
2
  6
CONTINUOUS
  7
STANDARD
 71
1
 72
1
 10
15.63
 20
1.457
 30
0.0
 11
1.0
 21
0.0
 31
0.0
 44
0.9
  1
REV.
 40
0.08
 41
0.32
  0
MTEXT
  5
73D
100
AcDbEntity
  8
0
100
AcDbMText
 62
2
  6
CONTINUOUS
  7
STANDARD
 71
3
 72
1
 10
16.38
 20
0.835443
 30
0.0
 11
1.0
 21
0.0
 31
0.0
 44
0.9
  1
PRO/E
 40
0.07
 41
0.35
  0
MTEXT
  5
73E
100
AcDbEntity
  8
0
100
AcDbMText
 62
2
  6
CONTINUOUS
  7
TEXTSTYLE_4
 71
2
 72
1
 10
15.03
 20
2.751049
 30
0.0
 11
1.0
 21
0.0
 31
0.0
 44
0.9
  1
BANNER ENGINEERING CORP.
 40
0.12
 41
2.6496
  0
MTEXT
  5
73F
100
AcDbEntity
  8
0
100
AcDbMText
 62
2
  6
CONTINUOUS
  7
TEXTSTYLE_2
 71
2
 72
1
 10
15.03
 20
2.5724
 30
0.0
 11
1.0
 21
0.0
 31
0.0
 44
0.9
  1
P.O. BOX 9414
 40
0.1
 41
1.04
  0
MTEXT
  5
740
100
AcDbEntity
  8
0
100
AcDbMText
 62
2
  6
CONTINUOUS
  7
TEXTSTYLE_2
 71
2
 72
1
 10
9.485
 20
10.312
 30
0.0
 11
1.0
 21
0.0
 31
0.0
 44
0.9
  1
4
 40
0.1
 41
0.08
  0
MTEXT
  5
741
100
AcDbEntity
  8
0
100
AcDbMText
 62
2
  6
CONTINUOUS
  7
TEXTSTYLE_2
 71
2
 72
1
 10
11.455
 20
10.312
 30
0.0
 11
1.0
 21
0.0
 31
0.0
 44
0.9
  1
3
 40
0.1
 41
0.08
  0
MTEXT
  5
742
100
AcDbEntity
  8
0
100
AcDbMText
 62
2
  6
CONTINUOUS
  7
TEXTSTYLE_2
 71
2
 72
1
 10
13.425
 20
10.312
 30
0.0
 11
1.0
 21
0.0
 31
0.0
 44
0.9
  1
2
 40
0.1
 41
0.08
  0
MTEXT
  5
743
100
AcDbEntity
  8
0
100
AcDbMText
 62
2
  6
CONTINUOUS
  7
TEXTSTYLE_2
 71
2
 72
1
 10
15.395
 20
10.312
 30
0.0
 11
1.0
 21
0.0
 31
0.0
 44
0.9
  1
1
 40
0.1
 41
0.08
  0
MTEXT
  5
744
100
AcDbEntity
  8
0
100
AcDbMText
 62
2
  6
CONTINUOUS
  7
TEXTSTYLE_2
 71
2
 72
1
 10
3.575
 20
10.312
 30
0.0
 11
1.0
 21
0.0
 31
0.0
 44
0.9
  1
7
 40
0.1
 41
0.08
  0
MTEXT
  5
745
100
AcDbEntity
  8
0
100
AcDbMText
 62
2
  6
CONTINUOUS
  7
TEXTSTYLE_2
 71
2
 72
1
 10
5.545
 20
10.312
 30
0.0
 11
1.0
 21
0.0
 31
0.0
 44
0.9
  1
6
 40
0.1
 41
0.08
  0
MTEXT
  5
746
100
AcDbEntity
  8
0
100
AcDbMText
 62
2
  6
CONTINUOUS
  7
TEXTSTYLE_2
 71
2
 72
1
 10
7.515
 20
10.312
 30
0.0
 11
1.0
 21
0.0
 31
0.0
 44
0.9
  1
5
 40
0.1
 41
0.08
  0
MTEXT
  5
747
100
AcDbEntity
  8
0
100
AcDbMText
 62
2
  6
CONTINUOUS
  7
TEXTSTYLE_2
 71
2
 72
1
 10
1.605
 20
10.312
 30
0.0
 11
1.0
 21
0.0
 31
0.0
 44
0.9
  1
8
 40
0.1
 41
0.08
  0
MTEXT
  5
748
100
AcDbEntity
  8
0
100
AcDbMText
 62
2
  6
CONTINUOUS
  7
TEXTSTYLE_2
 71
2
 72
1
 10
1.605
 20
0.787
 30
0.0
 11
1.0
 21
0.0
 31
0.0
 44
0.9
  1
8
 40
0.1
 41
0.08
  0
MTEXT
  5
749
100
AcDbEntity
  8
0
100
AcDbMText
 62
2
  6
CONTINUOUS
  7
TEXTSTYLE_2
 71
2
 72
1
 10
3.575
 20
0.787
 30
0.0
 11
1.0
 21
0.0
 31
0.0
 44
0.9
  1
7
 40
0.1
 41
0.08
  0
MTEXT
  5
74A
100
AcDbEntity
  8
0
100
AcDbMText
 62
2
  6
CONTINUOUS
  7
TEXTSTYLE_2
 71
2
 72
1
 10
5.545
 20
0.787
 30
0.0
 11
1.0
 21
0.0
 31
0.0
 44
0.9
  1
6
 40
0.1
 41
0.08
  0
MTEXT
  5
74B
100
AcDbEntity
  8
0
100
AcDbMText
 62
2
  6
CONTINUOUS
  7
TEXTSTYLE_2
 71
2
 72
1
 10
7.515
 20
0.787
 30
0.0
 11
1.0
 21
0.0
 31
0.0
 44
0.9
  1
5
 40
0.1
 41
0.08
  0
MTEXT
  5
74C
100
AcDbEntity
  8
0
100
AcDbMText
 62
2
  6
CONTINUOUS
  7
TEXTSTYLE_2
 71
2
 72
1
 10
9.485
 20
0.787
 30
0.0
 11
1.0
 21
0.0
 31
0.0
 44
0.9
  1
4
 40
0.1
 41
0.08
  0
MTEXT
  5
74D
100
AcDbEntity
  8
0
100
AcDbMText
 62
2
  6
CONTINUOUS
  7
TEXTSTYLE_2
 71
2
 72
1
 10
11.455
 20
0.787
 30
0.0
 11
1.0
 21
0.0
 31
0.0
 44
0.9
  1
3
 40
0.1
 41
0.08
  0
MTEXT
  5
74E
100
AcDbEntity
  8
0
100
AcDbMText
 62
2
  6
CONTINUOUS
  7
TEXTSTYLE_2
 71
2
 72
1
 10
13.425
 20
0.787
 30
0.0
 11
1.0
 21
0.0
 31
0.0
 44
0.9
  1
2
 40
0.1
 41
0.08
  0
MTEXT
  5
74F
100
AcDbEntity
  8
0
100
AcDbMText
 62
2
  6
CONTINUOUS
  7
TEXTSTYLE_2
 71
2
 72
1
 10
15.395
 20
0.787
 30
0.0
 11
1.0
 21
0.0
 31
0.0
 44
0.9
  1
1
 40
0.1
 41
0.08
  0
MTEXT
  5
750
100
AcDbEntity
  8
0
100
AcDbMText
 62
2
  6
CONTINUOUS
  7
TEXTSTYLE_2
 71
3
 72
1
 10
0.52
 20
4.3995
 30
0.0
 11
1.0
 21
0.0
 31
0.0
 44
0.9
  1
B
 40
0.1
 41
0.08
  0
MTEXT
  5
751
100
AcDbEntity
  8
0
100
AcDbMText
 62
2
  6
CONTINUOUS
  7
TEXTSTYLE_2
 71
3
 72
1
 10
0.52
 20
2.0995
 30
0.0
 11
1.0
 21
0.0
 31
0.0
 44
0.9
  1
A
 40
0.1
 41
0.08
  0
MTEXT
  5
752
100
AcDbEntity
  8
0
100
AcDbMText
 62
2
  6
CONTINUOUS
  7
TEXTSTYLE_2
 71
3
 72
1
 10
0.52
 20
8.9995
 30
0.0
 11
1.0
 21
0.0
 31
0.0
 44
0.9
  1
D
 40
0.1
 41
0.08
  0
MTEXT
  5
753
100
AcDbEntity
  8
0
100
AcDbMText
 62
2
  6
CONTINUOUS
  7
TEXTSTYLE_2
 71
3
 72
1
 10
0.52
 20
6.6995
 30
0.0
 11
1.0
 21
0.0
 31
0.0
 44
0.9
  1
C
 40
0.1
 41
0.08
  0
MTEXT
  5
754
100
AcDbEntity
  8
0
100
AcDbMText
 62
2
  6
CONTINUOUS
  7
TEXTSTYLE_2
 71
1
 72
1
 10
16.48
 20
8.9995
 30
0.0
 11
1.0
 21
0.0
 31
0.0
 44
0.9
  1
D
 40
0.1
 41
0.08
  0
MTEXT
  5
755
100
AcDbEntity
  8
0
100
AcDbMText
 62
2
  6
CONTINUOUS
  7
TEXTSTYLE_2
 71
1
 72
1
 10
16.48
 20
6.6995
 30
0.0
 11
1.0
 21
0.0
 31
0.0
 44
0.9
  1
C
 40
0.1
 41
0.08
  0
MTEXT
  5
756
100
AcDbEntity
  8
0
100
AcDbMText
 62
2
  6
CONTINUOUS
  7
TEXTSTYLE_2
 71
1
 72
1
 10
16.48
 20
4.3995
 30
0.0
 11
1.0
 21
0.0
 31
0.0
 44
0.9
  1
B
 40
0.1
 41
0.08
  0
MTEXT
  5
757
100
AcDbEntity
  8
0
100
AcDbMText
 62
2
  6
CONTINUOUS
  7
TEXTSTYLE_2
 71
1
 72
1
 10
16.48
 20
2.0995
 30
0.0
 11
1.0
 21
0.0
 31
0.0
 44
0.9
  1
A
 40
0.1
 41
0.08
  0
MTEXT
  5
758
100
AcDbEntity
  8
0
100
AcDbMText
 62
2
  6
CONTINUOUS
  7
STANDARD
 71
1
 72
1
 10
14.819264911
 20
1.0627941725
 30
0.0
 11
1.0
 21
0.0
 31
0.0
 44
0.9
  1
1 OF 1
 40
0.1
 41
0.6
  0
MTEXT
  5
759
100
AcDbEntity
  8
0
100
AcDbMText
 62
7
  6
CONTINUOUS
  7
STANDARD
 71
1
 72
1
 10
13.8911999818
 20
1.3747321586
 30
0.0
 11
1.0
 21
0.0
 31
0.0
 44
0.9
  1
148995
 40
0.12
 41
0.72
  0
MTEXT
  5
75A
100
AcDbEntity
  8
0
100
AcDbMText
 62
2
  6
CONTINUOUS
  7
STANDARD
 71
1
 72
1
 10
12.644264911
 20
1.0627941725
 30
0.0
 11
1.0
 21
0.0
 31
0.0
 44
0.9
  1
1:1
 40
0.1
 41
0.3
  0
MTEXT
  5
75B
100
AcDbEntity
  8
0
100
AcDbMText
 62
2
  6
CONTINUOUS
  7
STANDARD
 71
1
 72
1
 10
1.0597007627
 20
1.6202922458
 30
0.0
 11
1.0
 21
0.0
 31
0.0
 44
0.9
  1
NOTES:\P1. ALL DIMENSIONS ARE MILLIMETERS [INCHES] UNLESS OTHERWISE NOTED.
 40
0.1
 41
6.6
  0
INSERT
  5
75C
100
AcDbEntity
  8
0
100
AcDbBlockReference
 62
2
  6
CONTINUOUS
  2
BANNER_LOGO_TITLEBLOCK_BL0
 10
12.9086867042
 20
2.5403783405
  0
DIMENSION
  5
75D
100
AcDbEntity
  8
SCHEME_DIMS
100
AcDbDimension
 62
2
  6
CONTINUOUS
  2
*D0
 10
3.0895777427
 20
4.6214588415
 11
3.0062444094
 21
5.0604588415
 70
160
 71
2
 42
1.028
  1
%%c<>
  3
DIMSTYLE_1
100
AcDbAlignedDimension
 13
4.5434065695
 23
5.6494588415
 14
4.5541917171
 24
4.6214588415
 50
270.0
100
AcDbRotatedDimension
  0
DIMENSION
  5
75E
100
AcDbEntity
  8
SCHEME_DIMS
100
AcDbDimension
 62
2
  6
CONTINUOUS
  2
*D1
 10
3.5638538646
 20
4.6214588415
 11
3.6656736756
 21
4.2150086691
 70
162
 71
2
 42
0.2617993878
  3
DIMSTYLE_2
100
AcDb2LineAngularDimension
 13
3.5998124356
 23
4.8945913048
 14
4.5206363395
 24
4.6478572834
 15
4.556656666
 25
4.6214588415
 16
3.696812734
 26
4.7428877237
  0
DIMENSION
  5
75F
100
AcDbEntity
  8
SCHEME_DIMS
100
AcDbDimension
 62
2
  6
CONTINUOUS
  2
*D2
 10
7.9270863741
 20
6.346198434
 11
5.529054878
 21
6.271198434
 70
160
 71
2
 42
3.6960629921
  1
85 - 95\P[3.35-3.74]
  3
DIMSTYLE_1
100
AcDbAlignedDimension
 13
4.231023382
 23
5.5312261426
 14
7.9270863741
 24
5.1979588415
100
AcDbRotatedDimension
  0
DIMENSION
  5
760
100
AcDbEntity
  8
SCHEME_DIMS
100
AcDbDimension
 62
2
  6
CONTINUOUS
  2
*D3
 10
8.8413455056
 20
4.5554588415
 11
8.7580121722
 21
5.0604588415
 70
160
 71
2
 42
1.16
  1
%%c<>
  3
DIMSTYLE_1
100
AcDbAlignedDimension
 13
7.699523382
 23
5.7154588415
 14
7.699523382
 24
4.5554588415
 50
270.0
100
AcDbRotatedDimension
  0
DIMENSION
  5
761
100
AcDbEntity
  8
SCHEME_DIMS
100
AcDbDimension
 62
2
  6
CONTINUOUS
  2
*D4
 10
7.9270863741
 20
9.1358326699
 11
6.569554878
 21
9.0608326699
 70
160
 71
2
 42
2.4150629921
  3
DIMSTYLE_1
100
AcDbAlignedDimension
 13
5.512023382
 23
8.6723018293
 14
7.9270863741
 24
8.1423018293
100
AcDbRotatedDimension
  0
ACAD_TABLE
  5
762
100
AcDbEntity
  8
0
 62
2
  6
CONTINUOUS
100
AcDbBlockReference
  2
*T1
 10
12.03
 20
0.887
 30
0.0
100
AcDbTable
342
       8A0
343
2D6
 11
1.0
 21
0.0
 31
0.0
 90
6
 91
3
 92
5
 93
4
 94
0
 95
0
 96
0
 70
1
141
0.33
141
0.45
141
1.14
142
0.65
142
1.15
142
1.025
142
1.075
142
0.45
171
1
172
0
173
0
174
0
175
1
176
1
 91
1
178
0
145
0.0
170
1
171
1
172
0
173
0
174
0
175
1
176
1
 91
1
178
0
145
0.0
170
1
171
1
172
0
173
0
174
0
175
1
176
1
 91
1
178
0
145
0.0
170
1
171
1
172
0
173
0
174
0
175
1
176
1
 91
1
178
0
145
0.0
170
1
171
1
172
0
173
0
174
0
175
1
176
1
 91
1
178
0
145
0.0
170
1
171
1
172
0
173
0
174
0
175
1
176
1
 91
1
178
0
145
0.0
170
1
171
1
172
0
173
0
174
0
175
1
176
1
 91
1
178
0
145
0.0
170
1
171
1
172
0
173
0
174
0
175
1
176
1
 91
1
178
0
145
0.0
170
1
171
1
172
0
173
0
174
0
175
1
176
1
 91
1
178
0
145
0.0
170
1
171
1
172
0
173
0
174
0
175
1
176
1
 91
41
178
0
145
0.0
301
CELL_VALUE
 90
4
  1
1
304
ACVALUE_END
170
8
140
0.1
 64
7
171
1
172
0
173
0
174
0
175
5
176
1
 91
33
178
0
145
0.0
301
CELL_VALUE
 90
4
  1
LED_S_\PWEB CAD DRAWINGS 2D/3D
304
ACVALUE_END
170
8
140
0.1
171
1
172
0
173
1
174
0
175
1
176
1
 91
1
178
0
145
0.0
170
1
171
1
172
0
173
1
174
0
175
1
176
1
 91
1
178
0
145
0.0
170
1
171
1
172
0
173
1
174
0
175
1
176
1
 91
1
178
0
145
0.0
170
1
171
1
172
0
173
1
174
0
175
1
176
1
 91
1
178
0
145
0.0
170
8
  0
LEADER
  5
763
100
AcDbEntity
  8
NOTES
100
AcDbLeader
 62
2
  6
CONTINUOUS
  3
STANDARD
 71
1
 72
0
 73
0
 75
0
 40
0.1
 41
2.3
 76
3
 10
4.3793464941
 20
8.0131847826
 30
0.0
 10
3.8530602235
 20
7.4847710936
 30
0.0
 10
3.6030602235
 20
7.4847710936
 30
0.0
340
764
1001
ACAD
1000
DSTYLE
1002
{
1070
77
1070
0
1002
}
  0
MTEXT
  5
764
102
{ACAD_REACTORS
330
763
102
}
100
AcDbEntity
  8
NOTES
100
AcDbMText
 62
2
  6
CONTINUOUS
  7
STANDARD
 71
3
 72
1
 10
3.6030602235
 20
7.5347710936
 30
0.0
 11
1.0
 21
0.0
 31
0.0
 44
0.9
  1
1/4 -20 MOUNTING THREAD
 40
0.1
 41
2.3
  0
INSERT
  5
765
100
AcDbEntity
  8
SYMBOLS
100
AcDbBlockReference
 62
2
  6
CONTINUOUS
  2
DN_BL1
 10
-2.469062925
 20
0.2767362148
  0
INSERT
  5
766
100
AcDbEntity
  8
SYMBOLS
100
AcDbBlockReference
 62
2
  6
CONTINUOUS
  2
DN_BL2
 10
-2.249062925
 20
0.2767362148
  0
INSERT
  5
767
100
AcDbEntity
  8
SYMBOLS
100
AcDbBlockReference
 62
2
  6
CONTINUOUS
  2
DN_BL3
 10
-2.029062925
 20
0.2767362148
  0
INSERT
  5
768
100
AcDbEntity
  8
SYMBOLS
100
AcDbBlockReference
 62
2
  6
CONTINUOUS
  2
DN_BL4
 10
-1.809062925
 20
0.2767362148
  0
INSERT
  5
769
100
AcDbEntity
  8
SYMBOLS
100
AcDbBlockReference
 62
2
  6
CONTINUOUS
  2
DN_BL5
 10
-1.589062925
 20
0.2767362148
  0
INSERT
  5
76A
100
AcDbEntity
  8
SYMBOLS
100
AcDbBlockReference
 62
2
  6
CONTINUOUS
  2
DN_BL6
 10
-1.369062925
 20
0.2767362148
  0
INSERT
  5
76B
100
AcDbEntity
  8
SYMBOLS
100
AcDbBlockReference
 62
2
  6
CONTINUOUS
  2
DN_BL7
 10
-1.149062925
 20
0.2767362148
  0
INSERT
  5
76C
100
AcDbEntity
  8
SYMBOLS
100
AcDbBlockReference
 62
2
  6
CONTINUOUS
  2
DN_BL8
 10
-0.929062925
 20
0.2767362148
  0
INSERT
  5
76D
100
AcDbEntity
  8
SYMBOLS
100
AcDbBlockReference
 62
2
  6
CONTINUOUS
  2
DN_BL9
 10
-0.709062925
 20
0.2767362148
  0
INSERT
  5
76E
100
AcDbEntity
  8
SYMBOLS
100
AcDbBlockReference
 62
2
  6
CONTINUOUS
  2
DN_BL10
 10
-0.489062925
 20
0.2767362148
  0
INSERT
  5
76F
100
AcDbEntity
  8
SYMBOLS
100
AcDbBlockReference
 62
2
  6
CONTINUOUS
  2
DN_BL11
 10
-2.469062925
 20
0.4967362148
  0
INSERT
  5
770
100
AcDbEntity
  8
SYMBOLS
100
AcDbBlockReference
 62
2
  6
CONTINUOUS
  2
DN_BL12
 10
-2.249062925
 20
0.4967362148
  0
INSERT
  5
771
100
AcDbEntity
  8
SYMBOLS
100
AcDbBlockReference
 62
2
  6
CONTINUOUS
  2
DN_BL13
 10
-2.029062925
 20
0.4967362148
  0
INSERT
  5
772
100
AcDbEntity
  8
SYMBOLS
100
AcDbBlockReference
 62
2
  6
CONTINUOUS
  2
DN_BL14
 10
-1.809062925
 20
0.4967362148
  0
INSERT
  5
773
100
AcDbEntity
  8
SYMBOLS
100
AcDbBlockReference
 62
2
  6
CONTINUOUS
  2
DN_BL15
 10
-1.589062925
 20
0.4967362148
  0
INSERT
  5
774
100
AcDbEntity
  8
SYMBOLS
100
AcDbBlockReference
 62
2
  6
CONTINUOUS
  2
DN_BL16
 10
-1.369062925
 20
0.4967362148
  0
INSERT
  5
775
100
AcDbEntity
  8
SYMBOLS
100
AcDbBlockReference
 62
2
  6
CONTINUOUS
  2
DN_BL17
 10
-1.149062925
 20
0.4967362148
  0
INSERT
  5
776
100
AcDbEntity
  8
SYMBOLS
100
AcDbBlockReference
 62
2
  6
CONTINUOUS
  2
DN_BL18
 10
-0.929062925
 20
0.4967362148
  0
INSERT
  5
777
100
AcDbEntity
  8
SYMBOLS
100
AcDbBlockReference
 62
2
  6
CONTINUOUS
  2
DN_BL19
 10
-0.709062925
 20
0.4967362148
  0
INSERT
  5
778
100
AcDbEntity
  8
SYMBOLS
100
AcDbBlockReference
 62
2
  6
CONTINUOUS
  2
DN_BL20
 10
-0.489062925
 20
0.4967362148
  0
INSERT
  5
779
100
AcDbEntity
  8
SYMBOLS
100
AcDbBlockReference
 62
2
  6
CONTINUOUS
  2
DN_BL21
 10
-2.469062925
 20
0.7167362148
  0
INSERT
  5
77A
100
AcDbEntity
  8
SYMBOLS
100
AcDbBlockReference
 62
2
  6
CONTINUOUS
  2
DN_BL22
 10
-2.249062925
 20
0.7167362148
  0
INSERT
  5
77B
100
AcDbEntity
  8
SYMBOLS
100
AcDbBlockReference
 62
2
  6
CONTINUOUS
  2
DN_BL23
 10
-2.029062925
 20
0.7167362148
  0
INSERT
  5
77C
100
AcDbEntity
  8
SYMBOLS
100
AcDbBlockReference
 62
2
  6
CONTINUOUS
  2
DN_BL24
 10
-1.809062925
 20
0.7167362148
  0
INSERT
  5
77D
100
AcDbEntity
  8
SYMBOLS
100
AcDbBlockReference
 62
2
  6
CONTINUOUS
  2
DN_BL25
 10
-1.589062925
 20
0.7167362148
  0
INSERT
  5
77E
100
AcDbEntity
  8
SYMBOLS
100
AcDbBlockReference
 62
2
  6
CONTINUOUS
  2
DN_BL26
 10
-1.369062925
 20
0.7167362148
  0
INSERT
  5
77F
100
AcDbEntity
  8
SYMBOLS
100
AcDbBlockReference
 62
2
  6
CONTINUOUS
  2
DN_BL27
 10
-1.149062925
 20
0.7167362148
  0
INSERT
  5
780
100
AcDbEntity
  8
SYMBOLS
100
AcDbBlockReference
 62
2
  6
CONTINUOUS
  2
DN_BL28
 10
-0.929062925
 20
0.7167362148
  0
INSERT
  5
781
100
AcDbEntity
  8
SYMBOLS
100
AcDbBlockReference
 62
2
  6
CONTINUOUS
  2
DN_BL29
 10
-0.709062925
 20
0.7167362148
  0
INSERT
  5
782
100
AcDbEntity
  8
SYMBOLS
100
AcDbBlockReference
 62
2
  6
CONTINUOUS
  2
DN_BL30
 10
-0.489062925
 20
0.7167362148
  0
INSERT
  5
783
100
AcDbEntity
  8
SYMBOLS
100
AcDbBlockReference
 62
2
  6
CONTINUOUS
  2
DN_BL31
 10
-2.469062925
 20
0.9367362148
  0
INSERT
  5
784
100
AcDbEntity
  8
SYMBOLS
100
AcDbBlockReference
 62
2
  6
CONTINUOUS
  2
DN_BL32
 10
-2.249062925
 20
0.9367362148
  0
INSERT
  5
785
100
AcDbEntity
  8
SYMBOLS
100
AcDbBlockReference
 62
2
  6
CONTINUOUS
  2
DN_BL33
 10
-2.029062925
 20
0.9367362148
  0
INSERT
  5
786
100
AcDbEntity
  8
SYMBOLS
100
AcDbBlockReference
 62
2
  6
CONTINUOUS
  2
DN_BL34
 10
-1.809062925
 20
0.9367362148
  0
INSERT
  5
787
100
AcDbEntity
  8
SYMBOLS
100
AcDbBlockReference
 62
2
  6
CONTINUOUS
  2
DN_BL35
 10
-1.589062925
 20
0.9367362148
  0
INSERT
  5
788
100
AcDbEntity
  8
SYMBOLS
100
AcDbBlockReference
 62
2
  6
CONTINUOUS
  2
DN_BL36
 10
-1.369062925
 20
0.9367362148
  0
INSERT
  5
789
100
AcDbEntity
  8
SYMBOLS
100
AcDbBlockReference
 62
2
  6
CONTINUOUS
  2
DN_BL37
 10
-1.149062925
 20
0.9367362148
  0
INSERT
  5
78A
100
AcDbEntity
  8
SYMBOLS
100
AcDbBlockReference
 62
2
  6
CONTINUOUS
  2
DN_BL38
 10
-0.929062925
 20
0.9367362148
  0
INSERT
  5
78B
100
AcDbEntity
  8
SYMBOLS
100
AcDbBlockReference
 62
2
  6
CONTINUOUS
  2
DN_BL39
 10
-0.709062925
 20
0.9367362148
  0
INSERT
  5
78C
100
AcDbEntity
  8
SYMBOLS
100
AcDbBlockReference
 62
2
  6
CONTINUOUS
  2
DN_BL40
 10
-0.489062925
 20
0.9367362148
  0
INSERT
  5
78D
100
AcDbEntity
  8
SYMBOLS
100
AcDbBlockReference
 62
2
  6
CONTINUOUS
  2
DN_BL41
 10
-2.469062925
 20
1.1567362148
  0
INSERT
  5
78E
100
AcDbEntity
  8
SYMBOLS
100
AcDbBlockReference
 62
2
  6
CONTINUOUS
  2
DN_BL42
 10
-2.249062925
 20
1.1567362148
  0
INSERT
  5
78F
100
AcDbEntity
  8
SYMBOLS
100
AcDbBlockReference
 62
2
  6
CONTINUOUS
  2
DN_BL43
 10
-2.029062925
 20
1.1567362148
  0
INSERT
  5
790
100
AcDbEntity
  8
SYMBOLS
100
AcDbBlockReference
 62
2
  6
CONTINUOUS
  2
DN_BL44
 10
-1.809062925
 20
1.1567362148
  0
INSERT
  5
791
100
AcDbEntity
  8
SYMBOLS
100
AcDbBlockReference
 62
2
  6
CONTINUOUS
  2
DN_BL45
 10
-1.589062925
 20
1.1567362148
  0
INSERT
  5
792
100
AcDbEntity
  8
SYMBOLS
100
AcDbBlockReference
 62
2
  6
CONTINUOUS
  2
DN_BL46
 10
-1.369062925
 20
1.1567362148
  0
INSERT
  5
793
100
AcDbEntity
  8
SYMBOLS
100
AcDbBlockReference
 62
2
  6
CONTINUOUS
  2
DN_BL47
 10
-1.149062925
 20
1.1567362148
  0
INSERT
  5
794
100
AcDbEntity
  8
SYMBOLS
100
AcDbBlockReference
 62
2
  6
CONTINUOUS
  2
DN_BL48
 10
-0.929062925
 20
1.1567362148
  0
INSERT
  5
795
100
AcDbEntity
  8
SYMBOLS
100
AcDbBlockReference
 62
2
  6
CONTINUOUS
  2
DN_BL49
 10
-0.709062925
 20
1.1567362148
  0
INSERT
  5
796
100
AcDbEntity
  8
SYMBOLS
100
AcDbBlockReference
 62
2
  6
CONTINUOUS
  2
DN_BL50
 10
-0.489062925
 20
1.1567362148
  0
INSERT
  5
797
100
AcDbEntity
  8
SYMBOLS
100
AcDbBlockReference
 62
2
  6
CONTINUOUS
  2
DN_BL51
 10
-2.469062925
 20
1.8767362148
  0
INSERT
  5
798
100
AcDbEntity
  8
SYMBOLS
100
AcDbBlockReference
 62
2
  6
CONTINUOUS
  2
DN_BL52
 10
-2.249062925
 20
1.8767362148
  0
INSERT
  5
799
100
AcDbEntity
  8
SYMBOLS
100
AcDbBlockReference
 62
2
  6
CONTINUOUS
  2
DN_BL53
 10
-2.029062925
 20
1.8767362148
  0
INSERT
  5
79A
100
AcDbEntity
  8
SYMBOLS
100
AcDbBlockReference
 62
2
  6
CONTINUOUS
  2
DN_BL54
 10
-1.809062925
 20
1.8767362148
  0
INSERT
  5
79B
100
AcDbEntity
  8
SYMBOLS
100
AcDbBlockReference
 62
2
  6
CONTINUOUS
  2
DN_BL55
 10
-1.589062925
 20
1.8767362148
  0
INSERT
  5
79C
100
AcDbEntity
  8
SYMBOLS
100
AcDbBlockReference
 62
2
  6
CONTINUOUS
  2
DN_BL56
 10
-1.369062925
 20
1.8767362148
  0
INSERT
  5
79D
100
AcDbEntity
  8
SYMBOLS
100
AcDbBlockReference
 62
2
  6
CONTINUOUS
  2
DN_BL57
 10
-1.149062925
 20
1.8767362148
  0
INSERT
  5
79E
100
AcDbEntity
  8
SYMBOLS
100
AcDbBlockReference
 62
2
  6
CONTINUOUS
  2
DN_BL58
 10
-0.929062925
 20
1.8767362148
  0
INSERT
  5
79F
100
AcDbEntity
  8
SYMBOLS
100
AcDbBlockReference
 62
2
  6
CONTINUOUS
  2
DN_BL59
 10
-0.709062925
 20
1.8767362148
  0
INSERT
  5
7A0
100
AcDbEntity
  8
SYMBOLS
100
AcDbBlockReference
 62
2
  6
CONTINUOUS
  2
DN_BL60
 10
-0.489062925
 20
1.8767362148
  0
INSERT
  5
7A1
100
AcDbEntity
  8
SYMBOLS
100
AcDbBlockReference
 62
2
  6
CONTINUOUS
  2
DN_BL61
 10
-2.469062925
 20
2.0967362148
  0
INSERT
  5
7A2
100
AcDbEntity
  8
SYMBOLS
100
AcDbBlockReference
 62
2
  6
CONTINUOUS
  2
DN_BL62
 10
-2.249062925
 20
2.0967362148
  0
INSERT
  5
7A3
100
AcDbEntity
  8
SYMBOLS
100
AcDbBlockReference
 62
2
  6
CONTINUOUS
  2
DN_BL63
 10
-2.029062925
 20
2.0967362148
  0
INSERT
  5
7A4
100
AcDbEntity
  8
SYMBOLS
100
AcDbBlockReference
 62
2
  6
CONTINUOUS
  2
DN_BL64
 10
-1.809062925
 20
2.0967362148
  0
INSERT
  5
7A5
100
AcDbEntity
  8
SYMBOLS
100
AcDbBlockReference
 62
2
  6
CONTINUOUS
  2
DN_BL65
 10
-1.589062925
 20
2.0967362148
  0
INSERT
  5
7A6
100
AcDbEntity
  8
SYMBOLS
100
AcDbBlockReference
 62
2
  6
CONTINUOUS
  2
DN_BL66
 10
-1.369062925
 20
2.0967362148
  0
INSERT
  5
7A7
100
AcDbEntity
  8
SYMBOLS
100
AcDbBlockReference
 62
2
  6
CONTINUOUS
  2
DN_BL67
 10
-1.149062925
 20
2.0967362148
  0
INSERT
  5
7A8
100
AcDbEntity
  8
SYMBOLS
100
AcDbBlockReference
 62
2
  6
CONTINUOUS
  2
DN_BL68
 10
-0.929062925
 20
2.0967362148
  0
INSERT
  5
7A9
100
AcDbEntity
  8
SYMBOLS
100
AcDbBlockReference
 62
2
  6
CONTINUOUS
  2
DN_BL69
 10
-0.709062925
 20
2.0967362148
  0
INSERT
  5
7AA
100
AcDbEntity
  8
SYMBOLS
100
AcDbBlockReference
 62
2
  6
CONTINUOUS
  2
DN_BL70
 10
-0.489062925
 20
2.0967362148
  0
INSERT
  5
7AB
100
AcDbEntity
  8
SYMBOLS
100
AcDbBlockReference
 62
2
  6
CONTINUOUS
  2
DN_BL71
 10
-2.469062925
 20
2.3167362148
  0
INSERT
  5
7AC
100
AcDbEntity
  8
SYMBOLS
100
AcDbBlockReference
 62
2
  6
CONTINUOUS
  2
DN_BL72
 10
-2.249062925
 20
2.3167362148
  0
INSERT
  5
7AD
100
AcDbEntity
  8
SYMBOLS
100
AcDbBlockReference
 62
2
  6
CONTINUOUS
  2
DN_BL73
 10
-2.029062925
 20
2.3167362148
  0
INSERT
  5
7AE
100
AcDbEntity
  8
SYMBOLS
100
AcDbBlockReference
 62
2
  6
CONTINUOUS
  2
DN_BL74
 10
-1.809062925
 20
2.3167362148
  0
INSERT
  5
7AF
100
AcDbEntity
  8
SYMBOLS
100
AcDbBlockReference
 62
2
  6
CONTINUOUS
  2
DN_BL75
 10
-1.589062925
 20
2.3167362148
  0
INSERT
  5
7B0
100
AcDbEntity
  8
SYMBOLS
100
AcDbBlockReference
 62
2
  6
CONTINUOUS
  2
DN_BL76
 10
-1.369062925
 20
2.3167362148
  0
INSERT
  5
7B1
100
AcDbEntity
  8
SYMBOLS
100
AcDbBlockReference
 62
2
  6
CONTINUOUS
  2
DN_BL77
 10
-1.149062925
 20
2.3167362148
  0
INSERT
  5
7B2
100
AcDbEntity
  8
SYMBOLS
100
AcDbBlockReference
 62
2
  6
CONTINUOUS
  2
DN_BL78
 10
-0.929062925
 20
2.3167362148
  0
INSERT
  5
7B3
100
AcDbEntity
  8
SYMBOLS
100
AcDbBlockReference
 62
2
  6
CONTINUOUS
  2
DN_BL79
 10
-0.709062925
 20
2.3167362148
  0
INSERT
  5
7B4
100
AcDbEntity
  8
SYMBOLS
100
AcDbBlockReference
 62
2
  6
CONTINUOUS
  2
DN_BL80
 10
-0.489062925
 20
2.3167362148
  0
INSERT
  5
7B5
100
AcDbEntity
  8
SYMBOLS
100
AcDbBlockReference
 62
2
  6
CONTINUOUS
  2
DN_BL81
 10
-2.469062925
 20
2.5367362148
  0
INSERT
  5
7B6
100
AcDbEntity
  8
SYMBOLS
100
AcDbBlockReference
 62
2
  6
CONTINUOUS
  2
DN_BL82
 10
-2.249062925
 20
2.5367362148
  0
INSERT
  5
7B7
100
AcDbEntity
  8
SYMBOLS
100
AcDbBlockReference
 62
2
  6
CONTINUOUS
  2
DN_BL83
 10
-2.029062925
 20
2.5367362148
  0
INSERT
  5
7B8
100
AcDbEntity
  8
SYMBOLS
100
AcDbBlockReference
 62
2
  6
CONTINUOUS
  2
DN_BL84
 10
-1.809062925
 20
2.5367362148
  0
INSERT
  5
7B9
100
AcDbEntity
  8
SYMBOLS
100
AcDbBlockReference
 62
2
  6
CONTINUOUS
  2
DN_BL85
 10
-1.589062925
 20
2.5367362148
  0
INSERT
  5
7BA
100
AcDbEntity
  8
SYMBOLS
100
AcDbBlockReference
 62
2
  6
CONTINUOUS
  2
DN_BL86
 10
-1.369062925
 20
2.5367362148
  0
INSERT
  5
7BB
100
AcDbEntity
  8
SYMBOLS
100
AcDbBlockReference
 62
2
  6
CONTINUOUS
  2
DN_BL87
 10
-1.149062925
 20
2.5367362148
  0
INSERT
  5
7BC
100
AcDbEntity
  8
SYMBOLS
100
AcDbBlockReference
 62
2
  6
CONTINUOUS
  2
DN_BL88
 10
-0.929062925
 20
2.5367362148
  0
INSERT
  5
7BD
100
AcDbEntity
  8
SYMBOLS
100
AcDbBlockReference
 62
2
  6
CONTINUOUS
  2
DN_BL89
 10
-0.709062925
 20
2.5367362148
  0
INSERT
  5
7BE
100
AcDbEntity
  8
SYMBOLS
100
AcDbBlockReference
 62
2
  6
CONTINUOUS
  2
DN_BL90
 10
-0.489062925
 20
2.5367362148
  0
INSERT
  5
7BF
100
AcDbEntity
  8
SYMBOLS
100
AcDbBlockReference
 62
2
  6
CONTINUOUS
  2
DN_BL91
 10
-2.469062925
 20
2.7567362148
  0
INSERT
  5
7C0
100
AcDbEntity
  8
SYMBOLS
100
AcDbBlockReference
 62
2
  6
CONTINUOUS
  2
DN_BL92
 10
-2.249062925
 20
2.7567362148
  0
INSERT
  5
7C1
100
AcDbEntity
  8
SYMBOLS
100
AcDbBlockReference
 62
2
  6
CONTINUOUS
  2
DN_BL93
 10
-2.029062925
 20
2.7567362148
  0
INSERT
  5
7C2
100
AcDbEntity
  8
SYMBOLS
100
AcDbBlockReference
 62
2
  6
CONTINUOUS
  2
DN_BL94
 10
-1.809062925
 20
2.7567362148
  0
INSERT
  5
7C3
100
AcDbEntity
  8
SYMBOLS
100
AcDbBlockReference
 62
2
  6
CONTINUOUS
  2
DN_BL95
 10
-1.589062925
 20
2.7567362148
  0
INSERT
  5
7C4
100
AcDbEntity
  8
SYMBOLS
100
AcDbBlockReference
 62
2
  6
CONTINUOUS
  2
DN_BL96
 10
-1.369062925
 20
2.7567362148
  0
INSERT
  5
7C5
100
AcDbEntity
  8
SYMBOLS
100
AcDbBlockReference
 62
2
  6
CONTINUOUS
  2
DN_BL97
 10
-1.149062925
 20
2.7567362148
  0
INSERT
  5
7C6
100
AcDbEntity
  8
SYMBOLS
100
AcDbBlockReference
 62
2
  6
CONTINUOUS
  2
DN_BL98
 10
-0.929062925
 20
2.7567362148
  0
INSERT
  5
7C7
100
AcDbEntity
  8
SYMBOLS
100
AcDbBlockReference
 62
2
  6
CONTINUOUS
  2
DN_BL99
 10
-0.709062925
 20
2.7567362148
  0
INSERT
  5
7C8
100
AcDbEntity
  8
SYMBOLS
100
AcDbBlockReference
 62
2
  6
CONTINUOUS
  2
DN_BL100
 10
-0.4897883509
 20
2.7567362148
  0
INSERT
  5
7C9
100
AcDbEntity
  8
SYMBOLS
100
AcDbBlockReference
 62
2
  6
CONTINUOUS
  2
DN_BL101
 10
-2.4697883509
 20
3.4767362148
  0
INSERT
  5
7CA
100
AcDbEntity
  8
SYMBOLS
100
AcDbBlockReference
 62
2
  6
CONTINUOUS
  2
DN_BL102
 10
-2.2497883509
 20
3.4767362148
  0
INSERT
  5
7CB
100
AcDbEntity
  8
SYMBOLS
100
AcDbBlockReference
 62
2
  6
CONTINUOUS
  2
DN_BL103
 10
-2.0297883509
 20
3.4767362148
  0
INSERT
  5
7CC
100
AcDbEntity
  8
SYMBOLS
100
AcDbBlockReference
 62
2
  6
CONTINUOUS
  2
DN_BL104
 10
-1.8097883509
 20
3.4767362148
  0
INSERT
  5
7CD
100
AcDbEntity
  8
SYMBOLS
100
AcDbBlockReference
 62
2
  6
CONTINUOUS
  2
DN_BL105
 10
-1.5897883509
 20
3.4767362148
  0
INSERT
  5
7CE
100
AcDbEntity
  8
SYMBOLS
100
AcDbBlockReference
 62
2
  6
CONTINUOUS
  2
DN_BL106
 10
-1.3697883509
 20
3.4767362148
  0
INSERT
  5
7CF
100
AcDbEntity
  8
SYMBOLS
100
AcDbBlockReference
 62
2
  6
CONTINUOUS
  2
DN_BL107
 10
-1.1497883509
 20
3.4767362148
  0
INSERT
  5
7D0
100
AcDbEntity
  8
SYMBOLS
100
AcDbBlockReference
 62
2
  6
CONTINUOUS
  2
DN_BL108
 10
-0.9297883509
 20
3.4767362148
  0
INSERT
  5
7D1
100
AcDbEntity
  8
SYMBOLS
100
AcDbBlockReference
 62
2
  6
CONTINUOUS
  2
DN_BL109
 10
-0.7097883509
 20
3.4767362148
  0
INSERT
  5
7D2
100
AcDbEntity
  8
SYMBOLS
100
AcDbBlockReference
 62
2
  6
CONTINUOUS
  2
DN_BL110
 10
-0.4897883509
 20
3.4767362148
  0
INSERT
  5
7D3
100
AcDbEntity
  8
SYMBOLS
100
AcDbBlockReference
 62
2
  6
CONTINUOUS
  2
DN_BL111
 10
-2.4697883509
 20
3.6967362148
  0
INSERT
  5
7D4
100
AcDbEntity
  8
SYMBOLS
100
AcDbBlockReference
 62
2
  6
CONTINUOUS
  2
DN_BL112
 10
-2.2497883509
 20
3.6967362148
  0
INSERT
  5
7D5
100
AcDbEntity
  8
SYMBOLS
100
AcDbBlockReference
 62
2
  6
CONTINUOUS
  2
DN_BL113
 10
-2.0297883509
 20
3.6967362148
  0
INSERT
  5
7D6
100
AcDbEntity
  8
SYMBOLS
100
AcDbBlockReference
 62
2
  6
CONTINUOUS
  2
DN_BL114
 10
-1.8097883509
 20
3.6967362148
  0
INSERT
  5
7D7
100
AcDbEntity
  8
SYMBOLS
100
AcDbBlockReference
 62
2
  6
CONTINUOUS
  2
DN_BL115
 10
-1.5897883509
 20
3.6967362148
  0
INSERT
  5
7D8
100
AcDbEntity
  8
SYMBOLS
100
AcDbBlockReference
 62
2
  6
CONTINUOUS
  2
DN_BL116
 10
-1.3697883509
 20
3.6967362148
  0
INSERT
  5
7D9
100
AcDbEntity
  8
SYMBOLS
100
AcDbBlockReference
 62
2
  6
CONTINUOUS
  2
DN_BL117
 10
-1.1497883509
 20
3.6967362148
  0
INSERT
  5
7DA
100
AcDbEntity
  8
SYMBOLS
100
AcDbBlockReference
 62
2
  6
CONTINUOUS
  2
DN_BL118
 10
-0.9297883509
 20
3.6967362148
  0
INSERT
  5
7DB
100
AcDbEntity
  8
SYMBOLS
100
AcDbBlockReference
 62
2
  6
CONTINUOUS
  2
DN_BL119
 10
-0.7097883509
 20
3.6967362148
  0
INSERT
  5
7DC
100
AcDbEntity
  8
SYMBOLS
100
AcDbBlockReference
 62
2
  6
CONTINUOUS
  2
DN_BL120
 10
-0.4897883509
 20
3.6967362148
  0
INSERT
  5
7DD
100
AcDbEntity
  8
SYMBOLS
100
AcDbBlockReference
 62
2
  6
CONTINUOUS
  2
DN_BL121
 10
-2.4697883509
 20
3.9167362148
  0
INSERT
  5
7DE
100
AcDbEntity
  8
SYMBOLS
100
AcDbBlockReference
 62
2
  6
CONTINUOUS
  2
DN_BL122
 10
-2.2497883509
 20
3.9167362148
  0
INSERT
  5
7DF
100
AcDbEntity
  8
SYMBOLS
100
AcDbBlockReference
 62
2
  6
CONTINUOUS
  2
DN_BL123
 10
-2.0297883509
 20
3.9167362148
  0
INSERT
  5
7E0
100
AcDbEntity
  8
SYMBOLS
100
AcDbBlockReference
 62
2
  6
CONTINUOUS
  2
DN_BL124
 10
-1.8097883509
 20
3.9167362148
  0
INSERT
  5
7E1
100
AcDbEntity
  8
SYMBOLS
100
AcDbBlockReference
 62
2
  6
CONTINUOUS
  2
DN_BL125
 10
-1.5897883509
 20
3.9167362148
  0
INSERT
  5
7E2
100
AcDbEntity
  8
SYMBOLS
100
AcDbBlockReference
 62
2
  6
CONTINUOUS
  2
DN_BL126
 10
-1.3697883509
 20
3.9167362148
  0
INSERT
  5
7E3
100
AcDbEntity
  8
SYMBOLS
100
AcDbBlockReference
 62
2
  6
CONTINUOUS
  2
DN_BL127
 10
-1.1497883509
 20
3.9167362148
  0
INSERT
  5
7E4
100
AcDbEntity
  8
SYMBOLS
100
AcDbBlockReference
 62
2
  6
CONTINUOUS
  2
DN_BL128
 10
-0.9297883509
 20
3.9167362148
  0
INSERT
  5
7E5
100
AcDbEntity
  8
SYMBOLS
100
AcDbBlockReference
 62
2
  6
CONTINUOUS
  2
DN_BL129
 10
-0.7097883509
 20
3.9167362148
  0
INSERT
  5
7E6
100
AcDbEntity
  8
SYMBOLS
100
AcDbBlockReference
 62
2
  6
CONTINUOUS
  2
DN_BL130
 10
-0.4897883509
 20
3.9167362148
  0
INSERT
  5
7E7
100
AcDbEntity
  8
SYMBOLS
100
AcDbBlockReference
 62
2
  6
CONTINUOUS
  2
DN_BL131
 10
-2.4697883509
 20
4.1367362148
  0
INSERT
  5
7E8
100
AcDbEntity
  8
SYMBOLS
100
AcDbBlockReference
 62
2
  6
CONTINUOUS
  2
DN_BL132
 10
-2.2497883509
 20
4.1367362148
  0
INSERT
  5
7E9
100
AcDbEntity
  8
SYMBOLS
100
AcDbBlockReference
 62
2
  6
CONTINUOUS
  2
DN_BL133
 10
-2.0297883509
 20
4.1367362148
  0
INSERT
  5
7EA
100
AcDbEntity
  8
SYMBOLS
100
AcDbBlockReference
 62
2
  6
CONTINUOUS
  2
DN_BL134
 10
-1.8097883509
 20
4.1367362148
  0
INSERT
  5
7EB
100
AcDbEntity
  8
SYMBOLS
100
AcDbBlockReference
 62
2
  6
CONTINUOUS
  2
DN_BL135
 10
-1.5897883509
 20
4.1367362148
  0
INSERT
  5
7EC
100
AcDbEntity
  8
SYMBOLS
100
AcDbBlockReference
 62
2
  6
CONTINUOUS
  2
DN_BL136
 10
-1.3697883509
 20
4.1367362148
  0
INSERT
  5
7ED
100
AcDbEntity
  8
SYMBOLS
100
AcDbBlockReference
 62
2
  6
CONTINUOUS
  2
DN_BL137
 10
-1.1497883509
 20
4.1367362148
  0
INSERT
  5
7EE
100
AcDbEntity
  8
SYMBOLS
100
AcDbBlockReference
 62
2
  6
CONTINUOUS
  2
DN_BL138
 10
-0.9297883509
 20
4.1367362148
  0
INSERT
  5
7EF
100
AcDbEntity
  8
SYMBOLS
100
AcDbBlockReference
 62
2
  6
CONTINUOUS
  2
DN_BL139
 10
-0.7097883509
 20
4.1367362148
  0
INSERT
  5
7F0
100
AcDbEntity
  8
SYMBOLS
100
AcDbBlockReference
 62
2
  6
CONTINUOUS
  2
DN_BL140
 10
-0.4897883509
 20
4.1367362148
  0
INSERT
  5
7F1
100
AcDbEntity
  8
SYMBOLS
100
AcDbBlockReference
 62
2
  6
CONTINUOUS
  2
DN_BL141
 10
-2.4697883509
 20
4.3567362148
  0
INSERT
  5
7F2
100
AcDbEntity
  8
SYMBOLS
100
AcDbBlockReference
 62
2
  6
CONTINUOUS
  2
DN_BL142
 10
-2.2497883509
 20
4.3567362148
  0
INSERT
  5
7F3
100
AcDbEntity
  8
SYMBOLS
100
AcDbBlockReference
 62
2
  6
CONTINUOUS
  2
DN_BL143
 10
-2.0297883509
 20
4.3567362148
  0
INSERT
  5
7F4
100
AcDbEntity
  8
SYMBOLS
100
AcDbBlockReference
 62
2
  6
CONTINUOUS
  2
DN_BL144
 10
-1.8097883509
 20
4.3567362148
  0
INSERT
  5
7F5
100
AcDbEntity
  8
SYMBOLS
100
AcDbBlockReference
 62
2
  6
CONTINUOUS
  2
DN_BL145
 10
-1.5897883509
 20
4.3567362148
  0
INSERT
  5
7F6
100
AcDbEntity
  8
SYMBOLS
100
AcDbBlockReference
 62
2
  6
CONTINUOUS
  2
DN_BL146
 10
-1.3697883509
 20
4.3567362148
  0
INSERT
  5
7F7
100
AcDbEntity
  8
SYMBOLS
100
AcDbBlockReference
 62
2
  6
CONTINUOUS
  2
DN_BL147
 10
-1.1497883509
 20
4.3567362148
  0
INSERT
  5
7F8
100
AcDbEntity
  8
SYMBOLS
100
AcDbBlockReference
 62
2
  6
CONTINUOUS
  2
DN_BL148
 10
-0.9297883509
 20
4.3567362148
  0
INSERT
  5
7F9
100
AcDbEntity
  8
SYMBOLS
100
AcDbBlockReference
 62
2
  6
CONTINUOUS
  2
DN_BL149
 10
-0.7097883509
 20
4.3567362148
  0
INSERT
  5
7FA
100
AcDbEntity
  8
SYMBOLS
100
AcDbBlockReference
 62
2
  6
CONTINUOUS
  2
DN_BL150
 10
-0.4897883509
 20
4.3567362148
  0
LINE
  5
7FB
100
AcDbEntity
  8
0
100
AcDbLine
 62
2
  6
CONTINUOUS
 10
0.47
 20
5.586103
 11
0.47
 21
5.412897
  0
LINE
  5
7FC
100
AcDbEntity
  8
0
100
AcDbLine
 62
2
  6
CONTINUOUS
 10
0.62
 20
10.112
 11
0.62
 21
0.887
  0
LINE
  5
7FD
100
AcDbEntity
  8
0
100
AcDbLine
 62
2
  6
CONTINUOUS
 10
2.59
 20
0.887
 11
2.59
 21
0.637
  0
LINE
  5
7FE
100
AcDbEntity
  8
0
100
AcDbLine
 62
2
  6
CONTINUOUS
 10
2.59
 20
10.112
 11
2.59
 21
10.362
  0
LINE
  5
7FF
100
AcDbEntity
  8
0
100
AcDbLine
 62
2
  6
CONTINUOUS
 10
8.413397
 20
0.737
 11
8.586603
 21
0.737
  0
LINE
  5
800
100
AcDbEntity
  8
0
100
AcDbLine
 62
7
  6
CONTINUOUS
 10
11.1389508475
 20
1.425992839
 11
11.7453418475
 21
1.495385839
  0
LINE
  5
801
100
AcDbEntity
  8
0
100
AcDbLine
 62
2
  6
CONTINUOUS
 10
0.62
 20
0.887
 11
16.38
 21
0.887
  0
LINE
  5
802
100
AcDbEntity
  8
0
100
AcDbLine
 62
2
  6
CONTINUOUS
 10
12.03
 20
1.137
 11
16.38
 21
1.137
  0
LINE
  5
803
100
AcDbEntity
  8
0
100
AcDbLine
 62
7
  6
CONTINUOUS
 10
10.2121898475
 20
1.243294839
 11
10.4342808475
 21
1.243294839
  0
LINE
  5
804
100
AcDbEntity
  8
0
100
AcDbLine
 62
7
  6
CONTINUOUS
 10
10.4842808475
 20
1.243294839
 11
10.5842808475
 21
1.243294839
  0
LINE
  5
805
100
AcDbEntity
  8
0
100
AcDbLine
 62
7
  6
CONTINUOUS
 10
10.6342808475
 20
1.243294839
 11
10.8563718475
 21
1.243294839
  0
LINE
  5
806
100
AcDbEntity
  8
0
100
AcDbLine
 62
7
  6
CONTINUOUS
 10
11.0389508475
 20
1.243294839
 11
11.3171028475
 21
1.243294839
  0
LINE
  5
807
100
AcDbEntity
  8
0
100
AcDbLine
 62
7
  6
CONTINUOUS
 10
11.3671028475
 20
1.243294839
 11
11.5171888475
 21
1.243294839
  0
LINE
  5
808
100
AcDbEntity
  8
0
100
AcDbLine
 62
7
  6
CONTINUOUS
 10
11.5671888475
 20
1.243294839
 11
11.8453418475
 21
1.243294839
  0
LINE
  5
809
100
AcDbEntity
  8
0
100
AcDbLine
 62
7
  6
CONTINUOUS
 10
11.7453418475
 20
0.991203839
 11
11.1389508475
 21
1.060596839
  0
LINE
  5
80A
100
AcDbEntity
  8
0
100
AcDbLine
 62
2
  6
CONTINUOUS
 10
4.56
 20
0.887
 11
4.56
 21
0.637
  0
LINE
  5
80B
100
AcDbEntity
  8
0
100
AcDbLine
 62
2
  6
CONTINUOUS
 10
4.56
 20
10.112
 11
4.56
 21
10.362
  0
LINE
  5
80C
100
AcDbEntity
  8
0
100
AcDbLine
 62
2
  6
CONTINUOUS
 10
0.47
 20
5.412897
 11
0.62
 21
5.4995
  0
LINE
  5
80D
100
AcDbEntity
  8
0
100
AcDbLine
 62
2
  6
CONTINUOUS
 10
12.03
 20
1.507
 11
16.38
 21
1.507
  0
LINE
  5
80E
100
AcDbEntity
  8
0
100
AcDbLine
 62
2
  6
CONTINUOUS
 10
10.03
 20
1.907
 11
12.03
 21
1.907
  0
LINE
  5
80F
100
AcDbEntity
  8
0
100
AcDbLine
 62
2
  6
CONTINUOUS
 10
0.62
 20
5.4995
 11
0.47
 21
5.586103
  0
LINE
  5
810
100
AcDbEntity
  8
0
100
AcDbLine
 62
2
  6
CONTINUOUS
 10
12.03
 20
2.267
 11
16.38
 21
2.267
  0
LINE
  5
811
100
AcDbEntity
  8
0
100
AcDbLine
 62
2
  6
CONTINUOUS
 10
8.5
 20
10.112
 11
8.586603
 21
10.262
  0
LINE
  5
812
100
AcDbEntity
  8
0
100
AcDbLine
 62
2
  6
CONTINUOUS
 10
16.38
 20
2.807
 11
10.03
 21
2.807
  0
LINE
  5
813
100
AcDbEntity
  8
0
100
AcDbLine
 62
2
  6
CONTINUOUS
 10
0.62
 20
3.1995
 11
0.37
 21
3.1995
  0
LINE
  5
814
100
AcDbEntity
  8
0
100
AcDbLine
 62
2
  6
CONTINUOUS
 10
16.38
 20
3.1995
 11
16.63
 21
3.1995
  0
LINE
  5
815
100
AcDbEntity
  8
0
100
AcDbLine
 62
2
  6
CONTINUOUS
 10
8.586603
 20
0.737
 11
8.5
 21
0.887
  0
LINE
  5
816
100
AcDbEntity
  8
0
100
AcDbLine
 62
2
  6
CONTINUOUS
 10
6.53
 20
0.887
 11
6.53
 21
0.637
  0
LINE
  5
817
100
AcDbEntity
  8
0
100
AcDbLine
 62
2
  6
CONTINUOUS
 10
6.53
 20
10.112
 11
6.53
 21
10.362
  0
LINE
  5
818
100
AcDbEntity
  8
0
100
AcDbLine
 62
2
  6
CONTINUOUS
 10
8.5
 20
0.887
 11
8.5
 21
0.637
  0
LINE
  5
819
100
AcDbEntity
  8
0
100
AcDbLine
 62
2
  6
CONTINUOUS
 10
8.5
 20
10.112
 11
8.5
 21
10.362
  0
LINE
  5
81A
100
AcDbEntity
  8
0
100
AcDbLine
 62
2
  6
CONTINUOUS
 10
0.62
 20
5.4995
 11
0.37
 21
5.4995
  0
LINE
  5
81B
100
AcDbEntity
  8
0
100
AcDbLine
 62
2
  6
CONTINUOUS
 10
16.38
 20
5.4995
 11
16.63
 21
5.4995
  0
LINE
  5
81C
100
AcDbEntity
  8
0
100
AcDbLine
 62
2
  6
CONTINUOUS
 10
10.03
 20
2.807
 11
10.03
 21
0.887
  0
LINE
  5
81D
100
AcDbEntity
  8
0
100
AcDbLine
 62
2
  6
CONTINUOUS
 10
10.47
 20
0.887
 11
10.47
 21
0.637
  0
LINE
  5
81E
100
AcDbEntity
  8
0
100
AcDbLine
 62
2
  6
CONTINUOUS
 10
10.47
 20
10.112
 11
10.47
 21
10.362
  0
LINE
  5
81F
100
AcDbEntity
  8
0
100
AcDbLine
 62
7
  6
CONTINUOUS
 10
10.5342808475
 20
1.143294839
 11
10.5342808475
 21
0.921203839
  0
LINE
  5
820
100
AcDbEntity
  8
0
100
AcDbLine
 62
7
  6
CONTINUOUS
 10
10.5342808475
 20
1.193294839
 11
10.5342808475
 21
1.293294839
  0
LINE
  5
821
100
AcDbEntity
  8
0
100
AcDbLine
 62
7
  6
CONTINUOUS
 10
10.5342808475
 20
1.343294839
 11
10.5342808475
 21
1.565385839
  0
LINE
  5
822
100
AcDbEntity
  8
0
100
AcDbLine
 62
2
  6
CONTINUOUS
 10
8.5
 20
0.887
 11
8.413397
 21
0.737
  0
LINE
  5
823
100
AcDbEntity
  8
0
100
AcDbLine
 62
2
  6
CONTINUOUS
 10
0.62
 20
7.7995
 11
0.37
 21
7.7995
  0
LINE
  5
824
100
AcDbEntity
  8
0
100
AcDbLine
 62
2
  6
CONTINUOUS
 10
16.38
 20
7.7995
 11
16.63
 21
7.7995
  0
LINE
  5
825
100
AcDbEntity
  8
0
100
AcDbLine
 62
2
  6
CONTINUOUS
 10
8.413397
 20
10.262
 11
8.5
 21
10.112
  0
LINE
  5
826
100
AcDbEntity
  8
0
100
AcDbLine
 62
7
  6
CONTINUOUS
 10
11.1389508475
 20
1.060596839
 11
11.1389508475
 21
1.425992839
  0
LINE
  5
827
100
AcDbEntity
  8
0
100
AcDbLine
 62
7
  6
CONTINUOUS
 10
11.7453418475
 20
1.495385839
 11
11.7453418475
 21
0.991203839
  0
LINE
  5
828
100
AcDbEntity
  8
0
100
AcDbLine
 62
1
  6
CONTINUOUS
 10
12.03
 20
2.807
 11
12.03
 21
0.887
  0
LINE
  5
829
100
AcDbEntity
  8
0
100
AcDbLine
 62
2
  6
CONTINUOUS
 10
12.44
 20
0.887
 11
12.44
 21
0.637
  0
LINE
  5
82A
100
AcDbEntity
  8
0
100
AcDbLine
 62
2
  6
CONTINUOUS
 10
12.44
 20
10.112
 11
12.44
 21
10.362
  0
LINE
  5
82B
100
AcDbEntity
  8
0
100
AcDbLine
 62
2
  6
CONTINUOUS
 10
16.53
 20
5.586103
 11
16.38
 21
5.4995
  0
LINE
  5
82C
100
AcDbEntity
  8
0
100
AcDbLine
 62
2
  6
CONTINUOUS
 10
16.38
 20
5.4995
 11
16.53
 21
5.412897
  0
LINE
  5
82D
100
AcDbEntity
  8
0
100
AcDbLine
 62
2
  6
CONTINUOUS
 10
12.83
 20
1.507
 11
12.83
 21
1.137
  0
LINE
  5
82E
100
AcDbEntity
  8
0
100
AcDbLine
 62
2
  6
CONTINUOUS
 10
16.38
 20
10.112
 11
0.62
 21
10.112
  0
LINE
  5
82F
100
AcDbEntity
  8
0
100
AcDbLine
 62
2
  6
CONTINUOUS
 10
8.586603
 20
10.262
 11
8.413397
 21
10.262
  0
LINE
  5
830
100
AcDbEntity
  8
0
100
AcDbLine
 62
2
  6
CONTINUOUS
 10
14.205
 20
1.137
 11
14.205
 21
0.887
  0
LINE
  5
831
100
AcDbEntity
  8
0
100
AcDbLine
 62
2
  6
CONTINUOUS
 10
14.41
 20
0.887
 11
14.41
 21
0.637
  0
LINE
  5
832
100
AcDbEntity
  8
0
100
AcDbLine
 62
2
  6
CONTINUOUS
 10
14.41
 20
10.112
 11
14.41
 21
10.362
  0
LINE
  5
833
100
AcDbEntity
  8
0
100
AcDbLine
 62
2
  6
CONTINUOUS
 10
15.58
 20
1.507
 11
15.58
 21
1.137
  0
LINE
  5
834
100
AcDbEntity
  8
0
100
AcDbLine
 62
2
  6
CONTINUOUS
 10
16.38
 20
0.887
 11
16.38
 21
10.112
  0
LINE
  5
835
100
AcDbEntity
  8
0
100
AcDbLine
 62
2
  6
CONTINUOUS
 10
16.53
 20
5.412897
 11
16.53
 21
5.586103
  0
LINE
  5
836
100
AcDbEntity
  8
0
100
AcDbLine
 62
7
  6
CONTINUOUS
 10
4.231023382
 20
5.4687250747
 11
4.231023382
 21
4.8021926082
  0
LINE
  5
837
100
AcDbEntity
  8
0
100
AcDbLine
 62
9
  6
CONTINUOUS
 10
4.3051414775
 20
5.5653187253
 11
4.3051414775
 21
4.7055989576
  0
LINE
  5
838
100
AcDbEntity
  8
0
100
AcDbLine
 62
9
  6
CONTINUOUS
 10
4.5810067017
 20
5.6392365893
 11
4.5810067017
 21
4.6316810936
  0
LINE
  5
839
100
AcDbEntity
  8
0
100
AcDbLine
 62
9
  6
CONTINUOUS
 10
4.6586524152
 20
5.6494588415
 11
4.6586524152
 21
4.6214588415
  0
LINE
  5
83A
100
AcDbEntity
  8
DEFAULT_2
100
AcDbLine
 62
8
  6
HIDDEN
 10
4.5642677921
 20
5.634751412
 11
4.5641886891
 21
5.6347067323
  0
LINE
  5
83B
100
AcDbEntity
  8
DEFAULT_2
100
AcDbLine
 62
8
  6
HIDDEN
 10
4.5641886891
 20
5.6347067323
 11
4.5613862927
 21
5.6331899743
  0
LWPOLYLINE
  5
83C
100
AcDbEntity
  8
DEFAULT_2
100
AcDbPolyline
 62
8
  6
HIDDEN
 90
70
 70
0
 10
4.5613862927
 20
5.6331899743
 10
4.5591468711
 20
5.6319881978
 10
4.5577920967
 20
5.6312664168
 10
4.5562812598
 20
5.6304663292
 10
4.5546143844
 20
5.6295895503
 10
4.5527914943
 20
5.6286376949
 10
4.5508132939
 20
5.6276128216
 10
4.5486832091
 20
5.6265187628
 10
4.5464053463
 20
5.6253597947
 10
4.5439838119
 20
5.6241401932
 10
4.5414221754
 20
5.622864038
 10
4.5387218588
 20
5.6215346238
 10
4.5358837475
 20
5.620155049
 10
4.5329087265
 20
5.6187284121
 10
4.5297990171
 20
5.6172584345
 10
4.5265621838
 20
5.6157513305
 10
4.5232071271
 20
5.6142139373
 10
4.5197427476
 20
5.6126530923
 10
4.5161767483
 20
5.6110750556
 10
4.5125120418
 20
5.6094837782
 10
4.5087503432
 20
5.607882634
 10
4.5048933675
 20
5.6062749969
 10
4.5009441872
 20
5.6046646933
 10
4.4969113029
 20
5.6030573594
 10
4.4928045726
 20
5.601459084
 10
4.4886338544
 20
5.5998759559
 10
4.4844076775
 20
5.5983134401
 10
4.4801292576
 20
5.5967745066
 10
4.4758004814
 20
5.5952615017
 10
4.4714232361
 20
5.5937767714
 10
4.4670011217
 20
5.5923230316
 10
4.4625445919
 20
5.5909044763
 10
4.4580658135
 20
5.5895256691
 10
4.4535769533
 20
5.5881911735
 10
4.4490883955
 20
5.5869048312
 10
4.4446033938
 20
5.5856675963
 10
4.4401234189
 20
5.5844797008
 10
4.4356499419
 20
5.5833413771
 10
4.4311860345
 20
5.5822530719
 10
4.4267411727
 20
5.5812160911
 10
4.4223264335
 20
5.5802319551
 10
4.4179528938
 20
5.5793021844
 10
4.4136297264
 20
5.578427754
 10
4.4093584881
 20
5.5776074567
 10
4.4051388315
 20
5.5768395401
 10
4.4009704093
 20
5.5761222515
 10
4.3968542644
 20
5.575453999
 10
4.3927970005
 20
5.5748338338
 10
4.3888066116
 20
5.5742609678
 10
4.3848910915
 20
5.5737346126
 10
4.3810571288
 20
5.5732537364
 10
4.3773061905
 20
5.5728163327
 10
4.3736384383
 20
5.572420151
 10
4.3700540337
 20
5.572062941
 10
4.3665545606
 20
5.5717425473
 10
4.3631472905
 20
5.5714571947
 10
4.3598409172
 20
5.5712052028
 10
4.3566441345
 20
5.570984891
 10
4.3535645669
 20
5.5707944637
 10
4.350605563
 20
5.5706316629
 10
4.347769402
 20
5.570494115
 10
4.3450583633
 20
5.5703794468
 10
4.3424756194
 20
5.5702853349
 10
4.3400279158
 20
5.5702096566
 10
4.3377228909
 20
5.5701503393
 10
4.3355681836
 20
5.5701053104
 10
4.3335705893
 20
5.5700725399
 10
4.3317335313
 20
5.5700501679
 10
4.3300595899
 20
5.5700363771
 10
4.3285513453
 20
5.5700293503
  0
LINE
  5
83D
100
AcDbEntity
  8
02___PRT_ALL_AXES
100
AcDbLine
 62
7
  6
CONTINUOUS
 10
4.5352900173
 20
5.6269868407
 11
4.5342142171
 21
5.6264732665
  0
LWPOLYLINE
  5
83E
100
AcDbEntity
  8
02___PRT_ALL_AXES
100
AcDbPolyline
 62
7
  6
CONTINUOUS
 90
19
 70
0
 10
4.5342142171
 20
5.6264732665
 10
4.5310155615
 20
5.6249613739
 10
4.5257691116
 20
5.62253075
 10
4.518592817
 20
5.6193056142
 10
4.5095763145
 20
5.6154177851
 10
4.4988126876
 20
5.611018343
 10
4.4866500221
 20
5.606366517
 10
4.4735063257
 20
5.6017236939
 10
4.4594806642
 20
5.5972124787
 10
4.4447992492
 20
5.5929826761
 10
4.4300924928
 20
5.5892513347
 10
4.4159746622
 20
5.5861450257
 10
4.4026558796
 20
5.5836398959
 10
4.3903700486
 20
5.5816929111
 10
4.3793464941
 20
5.5802407964
 10
4.3698545027
 20
5.5792118877
 10
4.3621318777
 20
5.5785246086
 10
4.3564308997
 20
5.5781027991
 10
4.3529382613
 20
5.5778800498
  0
LINE
  5
83F
100
AcDbEntity
  8
02___PRT_ALL_AXES
100
AcDbLine
 62
7
  6
CONTINUOUS
 10
4.5810067017
 20
4.6316810936
 11
4.3051414775
 21
4.7055989576
  0
LINE
  5
840
100
AcDbEntity
  8
02___PRT_ALL_AXES
100
AcDbLine
 62
7
  6
CONTINUOUS
 10
5.5171963524
 20
5.6742166828
 11
5.592023382
 21
5.7154588415
  0
LINE
  5
841
100
AcDbEntity
  8
02___PRT_ALL_AXES
100
AcDbLine
 62
7
  6
CONTINUOUS
 10
5.5171963524
 20
4.5967010001
 11
5.592023382
 21
4.5554588415
  0
LINE
  5
842
100
AcDbEntity
  8
02___PRT_ALL_AXES
100
AcDbLine
 62
7
  6
CONTINUOUS
 10
5.512023382
 20
5.6654588415
 11
5.512023382
 21
4.6054588415
  0
LINE
  5
843
100
AcDbEntity
  8
02___PRT_ALL_AXES
100
AcDbLine
 62
9
  6
CONTINUOUS
 10
5.5171963524
 20
4.5967010001
 11
5.5171963524
 21
5.6742166828
  0
LINE
  5
844
100
AcDbEntity
  8
02___PRT_ALL_AXES
100
AcDbLine
 62
7
  6
CONTINUOUS
 10
5.592023382
 20
4.5554588415
 11
7.637023382
 21
4.5554588415
  0
LINE
  5
845
100
AcDbEntity
  8
02___PRT_ALL_AXES
100
AcDbLine
 62
7
  6
CONTINUOUS
 10
7.7149656683
 20
4.6004588415
 11
7.767023382
 21
4.6004588415
  0
LINE
  5
846
100
AcDbEntity
  8
02___PRT_ALL_AXES
100
AcDbLine
 62
7
  6
CONTINUOUS
 10
5.512023382
 20
4.6214588415
 11
4.6586524152
 21
4.6214588415
  0
LINE
  5
847
100
AcDbEntity
  8
02___PRT_ALL_AXES
100
AcDbLine
 62
7
  6
CONTINUOUS
 10
5.592023382
 20
5.7154588415
 11
5.592023382
 21
4.5554588415
  0
LINE
  5
848
100
AcDbEntity
  8
02___PRT_ALL_AXES
100
AcDbLine
 62
7
  6
CONTINUOUS
 10
5.512023382
 20
5.6494588415
 11
4.6586524152
 21
5.6494588415
  0
LINE
  5
849
100
AcDbEntity
  8
DEFAULT_2
100
AcDbLine
 62
8
  6
HIDDEN
 10
4.3285513453
 20
5.5700293503
 11
4.3260433103
 21
5.5700286996
  0
LINE
  5
84A
100
AcDbEntity
  8
DEFAULT_2
100
AcDbLine
 62
8
  6
HIDDEN
 10
4.3260433103
 20
5.5700286996
 11
4.3242352813
 21
5.5700355786
  0
LWPOLYLINE
  5
84B
100
AcDbEntity
  8
DEFAULT_2
100
AcDbPolyline
 62
8
  6
HIDDEN
 90
4
 70
0
 10
4.3242352813
 20
5.5700355786
 10
4.3231490939
 20
5.5700406997
 10
4.3228775032
 20
5.5700432241
 10
4.3227863355
 20
5.5700466507
  0
LINE
  5
84C
100
AcDbEntity
  8
02___PRT_ALL_AXES
100
AcDbLine
 62
7
  6
CONTINUOUS
 10
4.3529382613
 20
5.5778800498
 11
4.3517641103
 21
5.5778112221
  0
LINE
  5
84D
100
AcDbEntity
  8
02___PRT_ALL_AXES
100
AcDbLine
 62
7
  6
CONTINUOUS
 10
7.7149656683
 20
5.6704588415
 11
7.767023382
 21
5.6704588415
  0
LINE
  5
84E
100
AcDbEntity
  8
02___PRT_ALL_AXES
100
AcDbLine
 62
7
  6
CONTINUOUS
 10
5.592023382
 20
5.7154588415
 11
7.637023382
 21
5.7154588415
  0
LINE
  5
84F
100
AcDbEntity
  8
03___PRT_ALL_CURVES
100
AcDbLine
 62
40
  6
CONTINUOUS
 10
6.962023382
 20
4.5554588415
 11
6.962023382
 21
5.7154588415
  0
LINE
  5
850
100
AcDbEntity
  8
02___PRT_ALL_AXES
100
AcDbLine
 62
7
  6
CONTINUOUS
 10
4.5810067017
 20
5.6392365893
 11
4.5352900173
 21
5.6269868407
  0
LINE
  5
851
100
AcDbEntity
  8
02___PRT_ALL_AXES
100
AcDbLine
 62
7
  6
CONTINUOUS
 10
4.3517641103
 20
5.5778112221
 11
4.3051414775
 21
5.5653187253
  0
LINE
  5
852
100
AcDbEntity
  8
02___PRT_ALL_AXES
100
AcDbLine
 62
7
  6
CONTINUOUS
 10
7.637023382
 20
4.5554588415
 11
7.7149656683
 21
4.6004588415
  0
LINE
  5
853
100
AcDbEntity
  8
02___PRT_ALL_AXES
100
AcDbLine
 62
7
  6
CONTINUOUS
 10
7.637023382
 20
5.7154588415
 11
7.7149656683
 21
5.6704588415
  0
LINE
  5
854
100
AcDbEntity
  8
03___PRT_ALL_CURVES
100
AcDbLine
 62
40
  6
CONTINUOUS
 10
7.462023382
 20
4.5554588415
 11
7.462023382
 21
5.7154588415
  0
LINE
  5
855
100
AcDbEntity
  8
02___PRT_ALL_AXES
100
AcDbLine
 62
7
  6
CONTINUOUS
 10
7.637023382
 20
4.5554588415
 11
7.637023382
 21
5.7154588415
  0
LINE
  5
856
100
AcDbEntity
  8
02___PRT_ALL_AXES
100
AcDbLine
 62
7
  6
CONTINUOUS
 10
7.7149656683
 20
4.6004588415
 11
7.7149656683
 21
5.6704588415
  0
LINE
  5
857
100
AcDbEntity
  8
02___PRT_ALL_AXES
100
AcDbLine
 62
9
  6
CONTINUOUS
 10
7.767023382
 20
5.6704588415
 11
7.767023382
 21
4.6004588415
  0
LINE
  5
858
100
AcDbEntity
  8
02___PRT_ALL_AXES
100
AcDbLine
 62
9
  6
CONTINUOUS
 10
7.7884934983
 20
4.6126512615
 11
7.7884934983
 21
5.6582664214
  0
LINE
  5
859
100
AcDbEntity
  8
02___PRT_ALL_AXES
100
AcDbLine
 62
7
  6
CONTINUOUS
 10
7.828199475
 20
4.6792127775
 11
7.828199475
 21
5.5917049054
  0
LINE
  5
85A
100
AcDbEntity
  8
02___PRT_ALL_AXES
100
AcDbLine
 62
7
  6
CONTINUOUS
 10
7.7884934983
 20
4.6126512615
 11
7.828199475
 21
4.6792127775
  0
LINE
  5
85B
100
AcDbEntity
  8
02___PRT_ALL_AXES
100
AcDbLine
 62
7
  6
CONTINUOUS
 10
7.7884934983
 20
5.6582664214
 11
7.828199475
 21
5.5917049054
  0
LINE
  5
85C
100
AcDbEntity
  8
0
100
AcDbLine
 62
7
  6
CONTINUOUS
 10
4.231023382
 20
8.4130691305
 11
4.231023382
 21
7.7465345281
  0
LWPOLYLINE
  5
85D
100
AcDbEntity
  8
02___PRT_ALL_AXES
100
AcDbPolyline
 62
7
  6
CONTINUOUS
 90
9
 70
0
 10
4.4035279193
 20
8.0798018293
 10
4.4047794464
 20
8.0641653432
 10
4.4084998892
 20
8.0489553797
 10
4.4145877639
 20
8.0345868269
 10
4.4228770089
 20
8.0214516216
 10
4.4331415154
 20
8.0099080578
 10
4.4451012944
 20
8.0002710138
 10
4.4584301142
 20
7.9928033632
 10
4.4704651646
 20
7.9885259768
  0
LINE
  5
85E
100
AcDbEntity
  8
0
100
AcDbLine
 62
9
  6
CONTINUOUS
 10
4.3051414775
 20
8.5096617131
 11
4.3051414775
 21
7.6499419454
  0
LWPOLYLINE
  5
85F
100
AcDbEntity
  8
DEFAULT_2
100
AcDbPolyline
 62
8
  6
HIDDEN
 90
85
 70
0
 10
4.3227863355
 20
8.0798018293
 10
4.3228776706
 20
8.0844731922
 10
4.3231494142
 20
8.0891387466
 10
4.3236015773
 20
8.0937925683
 10
4.3242341707
 20
8.0984287335
 10
4.3250467933
 20
8.1030409342
 10
4.3260373956
 20
8.1076213268
 10
4.3272035158
 20
8.1121616838
 10
4.3285426923
 20
8.1166537774
 10
4.3300521878
 20
8.1210896295
 10
4.3317281643
 20
8.1254622589
 10
4.3335665083
 20
8.1297649338
 10
4.3355631062
 20
8.1339909227
 10
4.337713602
 20
8.1381336677
 10
4.3400126697
 20
8.1421873077
 10
4.3424547407
 20
8.1461461556
 10
4.3450342466
 20
8.1500045243
 10
4.3477457873
 20
8.153757164
 10
4.3505846367
 20
8.1574005736
 10
4.3535462375
 20
8.1609316893
 10
4.3566260322
 20
8.1643474472
 10
4.3598191482
 20
8.1676446609
 10
4.3631194529
 20
8.1708196538
 10
4.3665204985
 20
8.1738686266
 10
4.3700158373
 20
8.1767877801
 10
4.3735998177
 20
8.1795738396
 10
4.3772699732
 20
8.1822256294
 10
4.3810246335
 20
8.1847424982
 10
4.3848621285
 20
8.187123795
 10
4.388779864
 20
8.1893683564
 10
4.3927715505
 20
8.1914729716
 10
4.3968299749
 20
8.1934339177
 10
4.4009479239
 20
8.1952474718
 10
4.4051194167
 20
8.1969102855
 10
4.4093434018
 20
8.1984205085
 10
4.4136200603
 20
8.1997766649
 10
4.4179495731
 20
8.2009772791
 10
4.4223301052
 20
8.2020205388
 10
4.4267517569
 20
8.2029032867
 10
4.4312026126
 20
8.2036220291
 10
4.4356707567
 20
8.2041732723
 10
4.4401462084
 20
8.204553861
 10
4.4446267264
 20
8.2047619942
 10
4.4491120043
 20
8.204796209
 10
4.4536017357
 20
8.2046550428
 10
4.4580935428
 20
8.2043373116
 10
4.4625767619
 20
8.2038429463
 10
4.4670386579
 20
8.2031721563
 10
4.4714664956
 20
8.2023251513
 10
4.4758492556
 20
8.2013021652
 10
4.4801827804
 20
8.2001035298
 10
4.4844646283
 20
8.1987296011
 10
4.4886923575
 20
8.1971807352
 10
4.492862503
 20
8.1954577945
 10
4.4969675068
 20
8.1935636665
 10
4.500998788
 20
8.1915017448
 10
4.5049477653
 20
8.1892754232
 10
4.5088066891
 20
8.1868879545
 10
4.5125711352
 20
8.1843420281
 10
4.5162375107
 20
8.1816401928
 10
4.5198022229
 20
8.178784997
 10
4.5232612155
 20
8.1757796226
 10
4.5266085784
 20
8.1726297844
 10
4.5298379377
 20
8.1693418304
 10
4.53294292
 20
8.1659221086
 10
4.535917655
 20
8.162376978
 10
4.5387582863
 20
8.1587128411
 10
4.5414614611
 20
8.1549361116
 10
4.5440238264
 20
8.1510532028
 10
4.5464422192
 20
8.1470705646
 10
4.5487142363
 20
8.1429947916
 10
4.5508376645
 20
8.1388325147
 10
4.5528102904
 20
8.1345903647
 10
4.5546300745
 20
8.1302748839
 10
4.5562956723
 20
8.1258922604
 10
4.557805913
 20
8.1214485933
 10
4.5591596259
 20
8.116949982
 10
4.5603557294
 20
8.1124027092
 10
4.5613934981
 20
8.10781379
 10
4.5622722958
 20
8.1031904229
 10
4.562991486
 20
8.0985398064
 10
4.563550563
 20
8.0938690297
 10
4.5639495423
 20
8.0891847456
 10
4.56418857
 20
8.0844934976
 10
4.5642677921
 20
8.0798018293
  0
LWPOLYLINE
  5
860
100
AcDbEntity
  8
02___PRT_ALL_AXES
100
AcDbPolyline
 62
7
  6
CONTINUOUS
 90
11
 70
0
 10
4.3517641103
 20
8.0798018293
 10
4.3529409904
 20
8.094568255
 10
4.356442748
 20
8.1089894315
 10
4.3621558726
 20
8.1226717236
 10
4.3698961944
 20
8.1352740711
 10
4.3794145663
 20
8.1464877915
 10
4.3904539959
 20
8.1560848702
 10
4.4027254126
 20
8.1638598104
 10
4.4160047009
 20
8.1696738867
 10
4.4300792042
 20
8.1733767136
 10
4.4459632486
 20
8.1748018292
  0
LWPOLYLINE
  5
861
100
AcDbEntity
  8
02___PRT_ALL_AXES
100
AcDbPolyline
 62
7
  6
CONTINUOUS
 90
11
 70
0
 10
4.5352900173
 20
8.0798018293
 10
4.5342150729
 20
8.0649309177
 10
4.5310155615
 20
8.0504347354
 10
4.5257691116
 20
8.0366817028
 10
4.518592817
 20
8.023999523
 10
4.5095763145
 20
8.01261972
 10
4.4988126876
 20
8.0027952852
 10
4.4866500221
 20
7.9949291008
 10
4.4735063257
 20
7.9892670757
 10
4.4594806642
 20
7.98584917
 10
4.4459632596
 20
7.9848018293
  0
LINE
  5
862
100
AcDbEntity
  8
0
100
AcDbLine
 62
9
  6
CONTINUOUS
 10
4.5810067017
 20
8.5835795772
 11
4.5810067017
 21
7.5760240814
  0
LINE
  5
863
100
AcDbEntity
  8
0
100
AcDbLine
 62
9
  6
CONTINUOUS
 10
4.6586524152
 20
8.5938018293
 11
4.6586524152
 21
7.5658018293
  0
LWPOLYLINE
  5
864
100
AcDbEntity
  8
DEFAULT_2
100
AcDbPolyline
 62
8
  6
HIDDEN
 90
85
 70
0
 10
4.5642677921
 20
8.0798018293
 10
4.5641886891
 20
8.075110539
 10
4.5639498042
 20
8.0704182371
 10
4.5635504931
 20
8.0657307298
 10
4.5629901112
 20
8.0610538235
 10
4.562268356
 20
8.0563939513
 10
4.5613862927
 20
8.0517600544
 10
4.5603453287
 20
8.0471617008
 10
4.5591468711
 20
8.0426084586
 10
4.5577920967
 20
8.0381088478
 10
4.5562812598
 20
8.0336671965
 10
4.5546143844
 20
8.0292867846
 10
4.5527914943
 20
8.0249708923
 10
4.5508132939
 20
8.0207238807
 10
4.5486832091
 20
8.0165544348
 10
4.5464053463
 20
8.0124723209
 10
4.5439838119
 20
8.0084873052
 10
4.5414221754
 20
8.004608042
 10
4.5387218588
 20
8.0008387378
 10
4.5358837475
 20
7.9971824875
 10
4.5329087265
 20
7.9936423859
 10
4.5297990171
 20
7.9902225234
 10
4.5265621838
 20
7.9869309734
 10
4.5232071271
 20
7.9837768053
 10
4.5197427476
 20
7.9807690881
 10
4.5161767483
 20
7.9779155158
 10
4.5125120418
 20
7.9752182811
 10
4.5087503432
 20
7.9726782016
 10
4.5048933675
 20
7.9702960948
 10
4.5009441872
 20
7.9680733473
 10
4.4969113029
 20
7.9660136228
 10
4.4928045726
 20
7.964121154
 10
4.4886338544
 20
7.9624001734
 10
4.4844076775
 20
7.9608541878
 10
4.4801292576
 20
7.9594837992
 10
4.4758004814
 20
7.9582888833
 10
4.4714232361
 20
7.957269316
 10
4.4670011217
 20
7.9564250563
 10
4.4625445919
 20
7.9557563953
 10
4.4580658135
 20
7.9552637072
 10
4.4535769533
 20
7.9549473665
 10
4.4490883955
 20
7.9548074282
 10
4.4446033938
 20
7.9548426719
 10
4.4401234189
 20
7.9550515581
 10
4.4356499419
 20
7.9554325472
 10
4.4311860345
 20
7.9559837682
 10
4.4267411727
 20
7.9567020237
 10
4.4223264335
 20
7.9575837847
 10
4.4179528938
 20
7.9586255222
 10
4.4136297264
 20
7.9598240996
 10
4.4093584881
 20
7.9611779497
 10
4.4051388315
 20
7.9626858974
 10
4.4009704093
 20
7.964346768
 10
4.3968542644
 20
7.9661588645
 10
4.3927970005
 20
7.9681184031
 10
4.3888066116
 20
7.9702210777
 10
4.3848910915
 20
7.9724625826
 10
4.3810571288
 20
7.9748394608
 10
4.3773061905
 20
7.9773516515
 10
4.3736384383
 20
7.9799999429
 10
4.3700540337
 20
7.9827851232
 10
4.3665545606
 20
7.9857068297
 10
4.3631472905
 20
7.9887600962
 10
4.3598409172
 20
7.9919388056
 10
4.3566441345
 20
7.9952368409
 10
4.3535645669
 20
7.9986490939
 10
4.350605563
 20
8.0021744918
 10
4.347769402
 20
8.0058129706
 10
4.3450583633
 20
8.0095644664
 10
4.3424756194
 20
8.013427402
 10
4.3400279158
 20
8.0173941471
 10
4.3377228909
 20
8.0214555582
 10
4.3355681836
 20
8.0256024917
 10
4.3335705893
 20
8.0298267448
 10
4.3317335313
 20
8.0341238769
 10
4.3300595899
 20
8.038490388
 10
4.3285513453
 20
8.0429227781
 10
4.3272115082
 20
8.047416402
 10
4.3260433103
 20
8.051962032
 10
4.325050114
 20
8.0565492953
 10
4.3242352813
 20
8.061167819
 10
4.3236015418
 20
8.065808086
 10
4.3231490939
 20
8.0704640022
 10
4.3228775032
 20
8.0751303294
 10
4.3227863355
 20
8.0798018293
  0
LINE
  5
865
100
AcDbEntity
  8
02___PRT_ALL_AXES
100
AcDbLine
 62
7
  6
CONTINUOUS
 10
4.5810067017
 20
7.5760240814
 11
4.3051414775
 21
7.6499419454
  0
LINE
  5
866
100
AcDbEntity
  8
02___PRT_ALL_AXES
100
AcDbLine
 62
7
  6
CONTINUOUS
 10
5.5171963524
 20
8.6185596706
 11
5.592023382
 21
8.6598018293
  0
LINE
  5
867
100
AcDbEntity
  8
02___PRT_ALL_AXES
100
AcDbLine
 62
7
  6
CONTINUOUS
 10
5.5171963524
 20
7.5410439879
 11
5.592023382
 21
7.4998018293
  0
LINE
  5
868
100
AcDbEntity
  8
02___PRT_ALL_AXES
100
AcDbLine
 62
7
  6
CONTINUOUS
 10
5.512023382
 20
8.6098018293
 11
5.512023382
 21
7.5498018293
  0
LINE
  5
869
100
AcDbEntity
  8
02___PRT_ALL_AXES
100
AcDbLine
 62
9
  6
CONTINUOUS
 10
5.5171963524
 20
7.5410439879
 11
5.5171963524
 21
8.6185596706
  0
LWPOLYLINE
  5
86A
100
AcDbEntity
  8
02___PRT_ALL_AXES
100
AcDbPolyline
 62
7
  6
CONTINUOUS
 90
9
 70
0
 10
4.470477762
 20
8.171082159
 10
4.4584301142
 20
8.1668002953
 10
4.4451012944
 20
8.1593326447
 10
4.4331415154
 20
8.1496956008
 10
4.4228770089
 20
8.138152037
 10
4.4145877639
 20
8.1250168316
 10
4.4084998892
 20
8.1106482788
 10
4.4047794464
 20
8.0954383153
 10
4.4035279193
 20
8.0798018293
  0
LINE
  5
86B
100
AcDbEntity
  8
02___PRT_ALL_AXES
100
AcDbLine
 62
7
  6
CONTINUOUS
 10
5.592023382
 20
7.4998018293
 11
7.637023382
 21
7.4998018293
  0
LINE
  5
86C
100
AcDbEntity
  8
02___PRT_ALL_AXES
100
AcDbLine
 62
7
  6
CONTINUOUS
 10
7.7149656683
 20
7.5448018293
 11
7.767023382
 21
7.5448018293
  0
LINE
  5
86D
100
AcDbEntity
  8
02___PRT_ALL_AXES
100
AcDbLine
 62
7
  6
CONTINUOUS
 10
5.512023382
 20
7.5658018293
 11
4.6586524152
 21
7.5658018293
  0
LINE
  5
86E
100
AcDbEntity
  8
02___PRT_ALL_AXES
100
AcDbLine
 62
7
  6
CONTINUOUS
 10
5.592023382
 20
8.6598018293
 11
5.592023382
 21
7.4998018293
  0
LWPOLYLINE
  5
86F
100
AcDbEntity
  8
02___PRT_ALL_AXES
100
AcDbPolyline
 62
7
  6
CONTINUOUS
 90
11
 70
0
 10
4.4459632596
 20
7.9848018293
 10
4.4300924928
 20
7.9862245548
 10
4.4159746622
 20
7.9899402604
 10
4.4026558796
 20
7.9957808898
 10
4.3903700486
 20
8.0035813761
 10
4.3793464941
 20
8.0131847826
 10
4.3698545027
 20
8.0243870869
 10
4.3621318777
 20
8.0369787882
 10
4.3564308997
 20
8.0506503426
 10
4.3529373456
 20
8.0650581556
 10
4.3517641103
 20
8.0798018293
  0
LWPOLYLINE
  5
870
100
AcDbEntity
  8
02___PRT_ALL_AXES
100
AcDbPolyline
 62
7
  6
CONTINUOUS
 90
11
 70
0
 10
4.4459632486
 20
8.1748018292
 10
4.4593739647
 20
8.1737711145
 10
4.4733738739
 20
8.1703808209
 10
4.4865235669
 20
8.1647419113
 10
4.4987150379
 20
8.1568836446
 10
4.5095062542
 20
8.1470591439
 10
4.5185457992
 20
8.1356740411
 10
4.5257414571
 20
8.1229807717
 10
4.531002991
 20
8.1092109403
 10
4.5342116681
 20
8.094696121
 10
4.5352900173
 20
8.0798018293
  0
LINE
  5
871
100
AcDbEntity
  8
02___PRT_ALL_AXES
100
AcDbLine
 62
7
  6
CONTINUOUS
 10
5.512023382
 20
8.5938018293
 11
4.6586524152
 21
8.5938018293
  0
LINE
  5
872
100
AcDbEntity
  8
02___PRT_ALL_AXES
100
AcDbLine
 62
7
  6
CONTINUOUS
 10
7.7149656683
 20
8.6148018293
 11
7.767023382
 21
8.6148018293
  0
LINE
  5
873
100
AcDbEntity
  8
02___PRT_ALL_AXES
100
AcDbLine
 62
7
  6
CONTINUOUS
 10
5.592023382
 20
8.6598018293
 11
7.637023382
 21
8.6598018293
  0
LINE
  5
874
100
AcDbEntity
  8
03___PRT_ALL_CURVES
100
AcDbLine
 62
40
  6
CONTINUOUS
 10
6.962023382
 20
7.4998018293
 11
6.962023382
 21
8.6598018293
  0
LINE
  5
875
100
AcDbEntity
  8
02___PRT_ALL_AXES
100
AcDbLine
 62
7
  6
CONTINUOUS
 10
4.5810067017
 20
8.5835795772
 11
4.3051414775
 21
8.5096617131
  0
LINE
  5
876
100
AcDbEntity
  8
02___PRT_ALL_AXES
100
AcDbLine
 62
7
  6
CONTINUOUS
 10
7.637023382
 20
7.4998018293
 11
7.7149656683
 21
7.5448018293
  0
LINE
  5
877
100
AcDbEntity
  8
02___PRT_ALL_AXES
100
AcDbLine
 62
7
  6
CONTINUOUS
 10
7.637023382
 20
8.6598018293
 11
7.7149656683
 21
8.6148018293
  0
LINE
  5
878
100
AcDbEntity
  8
03___PRT_ALL_CURVES
100
AcDbLine
 62
40
  6
CONTINUOUS
 10
7.462023382
 20
7.4998018293
 11
7.462023382
 21
8.6598018293
  0
LINE
  5
879
100
AcDbEntity
  8
02___PRT_ALL_AXES
100
AcDbLine
 62
7
  6
CONTINUOUS
 10
7.637023382
 20
8.6598018293
 11
7.637023382
 21
7.4998018293
  0
LINE
  5
87A
100
AcDbEntity
  8
02___PRT_ALL_AXES
100
AcDbLine
 62
7
  6
CONTINUOUS
 10
7.7149656683
 20
8.6148018293
 11
7.7149656683
 21
7.5448018293
  0
LINE
  5
87B
100
AcDbEntity
  8
02___PRT_ALL_AXES
100
AcDbLine
 62
9
  6
CONTINUOUS
 10
7.767023382
 20
8.6148018293
 11
7.767023382
 21
7.5448018293
  0
LINE
  5
87C
100
AcDbEntity
  8
02___PRT_ALL_AXES
100
AcDbLine
 62
9
  6
CONTINUOUS
 10
7.7884934983
 20
8.6026094092
 11
7.7884934983
 21
7.5569942493
  0
LINE
  5
87D
100
AcDbEntity
  8
02___PRT_ALL_AXES
100
AcDbLine
 62
7
  6
CONTINUOUS
 10
7.828199475
 20
8.5360478932
 11
7.828199475
 21
7.6235557653
  0
LINE
  5
87E
100
AcDbEntity
  8
02___PRT_ALL_AXES
100
AcDbLine
 62
7
  6
CONTINUOUS
 10
7.7884934983
 20
7.5569942493
 11
7.828199475
 21
7.6235557653
  0
LINE
  5
87F
100
AcDbEntity
  8
02___PRT_ALL_AXES
100
AcDbLine
 62
7
  6
CONTINUOUS
 10
7.7884934983
 20
8.6026094092
 11
7.828199475
 21
8.5360478932
  0
LINE
  5
880
100
AcDbEntity
  8
03___PRT_ALL_CURVES
100
AcDbLine
 62
40
  6
CONTINUOUS
 10
7.7884934983
 20
8.6026094092
 11
7.828199475
 21
8.5360478932
  0
LINE
  5
881
100
AcDbEntity
  8
03___PRT_ALL_CURVES
100
AcDbLine
 62
40
  6
CONTINUOUS
 10
11.8378445122
 20
5.1354588415
 11
11.9268445122
 21
5.1354588415
  0
CIRCLE
  5
882
100
AcDbEntity
  8
0
100
AcDbCircle
 62
7
  6
CONTINUOUS
 10
10.5342808475
 20
1.243294839
 40
0.252091
  0
CIRCLE
  5
883
100
AcDbEntity
  8
0
100
AcDbCircle
 62
7
  6
CONTINUOUS
 10
10.5342808475
 20
1.243294839
 40
0.182698
  0
ARC
  5
884
100
AcDbEntity
  8
0
100
AcDbCircle
 62
7
  6
CONTINUOUS
 10
7.0581887363
 20
5.1354588415
 40
0.8688976378
100
AcDbArc
 50
332.5491205748
 51
27.4508794252
  0
ARC
  5
885
100
AcDbEntity
  8
0
100
AcDbCircle
 62
7
  6
CONTINUOUS
 10
4.6586524152
 20
5.3494588415
 40
0.3
100
AcDbArc
 50
90.0
 51
105.0000000001
  0
ARC
  5
886
100
AcDbEntity
  8
0
100
AcDbCircle
 62
7
  6
CONTINUOUS
 10
4.6586524152
 20
4.9214588415
 40
0.3
100
AcDbArc
 50
254.9999999999
 51
270.0
  0
ARC
  5
887
100
AcDbEntity
  8
0
100
AcDbCircle
 62
7
  6
CONTINUOUS
 10
4.331023382
 20
5.4687261427
 40
0.1
100
AcDbArc
 50
105.0000000021
 51
180.0000000052
  0
ARC
  5
888
100
AcDbEntity
  8
0
100
AcDbCircle
 62
7
  6
CONTINUOUS
 10
4.331023382
 20
4.8021915403
 40
0.1
100
AcDbArc
 50
179.9999999948
 51
254.9999999979
  0
ARC
  5
889
100
AcDbEntity
  8
02___PRT_ALL_AXES
100
AcDbCircle
 62
7
  6
CONTINUOUS
 10
7.767023382
 20
4.6254588415
 40
0.025
100
AcDbArc
 50
270.0
 51
329.1826331859
  0
ARC
  5
88A
100
AcDbEntity
  8
02___PRT_ALL_AXES
100
AcDbCircle
 62
7
  6
CONTINUOUS
 10
7.767023382
 20
5.6454588415
 40
0.025
100
AcDbArc
 50
30.8173668141
 51
90.0
  0
ARC
  5
88B
100
AcDbEntity
  8
02___PRT_ALL_AXES
100
AcDbCircle
 62
7
  6
CONTINUOUS
 10
5.522023382
 20
5.6654588415
 40
0.01
100
AcDbArc
 50
118.8620856259
 51
180.0
  0
ARC
  5
88C
100
AcDbEntity
  8
02___PRT_ALL_AXES
100
AcDbCircle
 62
7
  6
CONTINUOUS
 10
5.522023382
 20
4.6054588415
 40
0.01
100
AcDbArc
 50
180.0
 51
241.1379143741
  0
ARC
  5
88D
100
AcDbEntity
  8
0
100
AcDbCircle
 62
7
  6
CONTINUOUS
 10
7.0581887363
 20
8.0798018293
 40
0.8688976378
100
AcDbArc
 50
332.5491205748
 51
27.4508794252
  0
ARC
  5
88E
100
AcDbEntity
  8
0
100
AcDbCircle
 62
7
  6
CONTINUOUS
 10
4.6586524152
 20
7.8658018293
 40
0.3
100
AcDbArc
 50
255.0
 51
270.0
  0
ARC
  5
88F
100
AcDbEntity
  8
0
100
AcDbCircle
 62
7
  6
CONTINUOUS
 10
4.6586524152
 20
8.2938018293
 40
0.3
100
AcDbArc
 50
90.0
 51
105.0
  0
ARC
  5
890
100
AcDbEntity
  8
0
100
AcDbCircle
 62
7
  6
CONTINUOUS
 10
4.331023382
 20
7.7465345281
 40
0.1
100
AcDbArc
 50
180.0
 51
255.0
  0
ARC
  5
891
100
AcDbEntity
  8
0
100
AcDbCircle
 62
7
  6
CONTINUOUS
 10
4.331023382
 20
8.4130691305
 40
0.1
100
AcDbArc
 50
105.0
 51
180.0
  0
ARC
  5
892
100
AcDbEntity
  8
02___PRT_ALL_AXES
100
AcDbCircle
 62
7
  6
CONTINUOUS
 10
7.767023382
 20
8.5898018293
 40
0.025
100
AcDbArc
 50
30.8173668141
 51
90.0
  0
ARC
  5
893
100
AcDbEntity
  8
02___PRT_ALL_AXES
100
AcDbCircle
 62
7
  6
CONTINUOUS
 10
7.767023382
 20
7.5698018293
 40
0.025
100
AcDbArc
 50
270.0
 51
329.1826331859
  0
ARC
  5
894
100
AcDbEntity
  8
03___PRT_ALL_CURVES
100
AcDbCircle
 62
40
  6
CONTINUOUS
 10
7.767023382
 20
8.5898018293
 40
0.025
100
AcDbArc
 50
30.8173668141
 51
90.0
  0
ARC
  5
895
100
AcDbEntity
  8
02___PRT_ALL_AXES
100
AcDbCircle
 62
7
  6
CONTINUOUS
 10
5.522023382
 20
8.6098018293
 40
0.01
100
AcDbArc
 50
118.8620856259
 51
180.0
  0
ARC
  5
896
100
AcDbEntity
  8
02___PRT_ALL_AXES
100
AcDbCircle
 62
7
  6
CONTINUOUS
 10
5.522023382
 20
7.5498018293
 40
0.01
100
AcDbArc
 50
180.0
 51
241.1379143741
  0
CIRCLE
  5
897
100
AcDbEntity
  8
02___PRT_ALL_AXES
100
AcDbCircle
 62
7
  6
CONTINUOUS
 10
11.3918445122
 20
5.1354588415
 40
0.58
  0
CIRCLE
  5
898
100
AcDbEntity
  8
02___PRT_ALL_AXES
100
AcDbCircle
 62
7
  6
CONTINUOUS
 10
11.3918445122
 20
5.1354588415
 40
0.535
  0
CIRCLE
  5
899
100
AcDbEntity
  8
02___PRT_ALL_AXES
100
AcDbCircle
 62
9
  6
CONTINUOUS
 10
11.3918445122
 20
5.1354588415
 40
0.52280758
  0
CIRCLE
  5
89A
100
AcDbEntity
  8
02___PRT_ALL_AXES
100
AcDbCircle
 62
7
  6
CONTINUOUS
 10
11.3918445122
 20
5.1354588415
 40
0.456246064
  0
CIRCLE
  5
89B
100
AcDbEntity
  8
02___PRT_ALL_AXES
100
AcDbCircle
 62
7
  6
CONTINUOUS
 10
11.3918445122
 20
5.1354588415
 40
0.446
  0
ENDSEC
  0
SECTION
  2
OBJECTS
  0
DICTIONARY
  5
C
100
AcDbDictionary
280
0
281
1
  3
ACAD_GROUP
350
D
  3
ACAD_MLINESTYLE
350
17
  3
ACAD_LAYOUT
350
1A
  3
ACAD_PLOTSETTINGS
350
19
  3
ACAD_PLOTSTYLENAME
350
E
  3
ACAD_TABLESTYLE
350
       89C
  0
DICTIONARY
  5
D
102
{ACAD_REACTORS
330
C
102
}
100
AcDbDictionary
280
0
281
1
  0
ACDBDICTIONARYWDFLT
  5
E
102
{ACAD_REACTORS
330
C
102
}
100
AcDbDictionary
281
1
  3
Normal
350
F
100
AcDbDictionaryWithDefault
340
F
  0
DICTIONARY
  5
17
102
{ACAD_REACTORS
330
C
102
}
100
AcDbDictionary
280
0
281
1
  3
Standard
350
18
  0
DICTIONARY
  5
89C
330
C
100
AcDbDictionary
281
1
  3
Standard
350
       89F
  3
Standard1
350
       8A0
  0
DICTIONARY
  5
19
102
{ACAD_REACTORS
330
C
102
}
100
AcDbDictionary
281
1
  0
DICTIONARY
  5
1A
102
{ACAD_REACTORS
330
C
102
}
100
AcDbDictionary
281
1
  3
Model
350
89D
  3
Layout1
350
89E
  0
ACDBPLACEHOLDER
  5
F
102
{ACAD_REACTORS
330
E
102
}
  0
MLINESTYLE
  5
18
102
{ACAD_REACTORS
330
17
102
}
100
AcDbMlineStyle
  2
STANDARD
 70
0
  3

 62
256
 51
90.0
 52
90.0
 71
2
 49
0.5
 62
256
  6
BYLAYER
 49
-0.5
 62
256
  6
BYLAYER
  0
LAYOUT
  5
89D
102
{ACAD_REACTORS
330
1A
102
}
100
AcDbPlotSettings
  1

  2
none_device
  4
ANSI_B_(17.00_x_11.00_Inches)
  6

 40
0.0
 41
0.0
 42
0.0
 43
0.0
 44
431.8
 45
279.4
 46
0.0
 47
0.0
 48
0.0
 49
0.0
140
0.0
141
0.0
142
1.0
143
1.0
 70
1024
 72
0
 73
0
 74
0
  7

 75
0
147
1.0
148
0.0
149
0.0
100
AcDbLayout
  1
Model
 70
0
 71
0
 10
0.0
 20
0.0
 11
17.0
 21
11.0
 12
0.0
 22
0.0
 32
0.0
 14
0.0
 24
0.0
 34
0.0
 15
0.0
 25
0.0
 35
0.0
146
0.0
 13
0.0
 23
0.0
 33
0.0
 16
1.0
 26
0.0
 36
0.0
 17
0.0
 27
1.0
 37
0.0
 76
0
330
237
345
0
346
0
  0
LAYOUT
  5
89E
102
{ACAD_REACTORS
330
1A
102
}
100
AcDbPlotSettings
  1

  2
none_device
  4
ANSI_B_(17.00_x_11.00_Inches)
  6

 40
0.0
 41
0.0
 42
0.0
 43
0.0
 44
431.8
 45
279.4
 46
0.0
 47
0.0
 48
0.0
 49
0.0
140
0.0
141
0.0
142
1.0
143
1.0
 70
0
 72
0
 73
0
 74
0
  7

 75
0
147
1.0
148
0.0
149
0.0
100
AcDbLayout
  1
Layout1
 70
0
 71
1
 10
0.0
 20
0.0
 11
17.0
 21
11.0
 12
0.0
 22
0.0
 32
0.0
 14
0.0
 24
0.0
 34
0.0
 15
0.0
 25
0.0
 35
0.0
146
0.0
 13
0.0
 23
0.0
 33
0.0
 16
1.0
 26
0.0
 36
0.0
 17
0.0
 27
1.0
 37
0.0
 76
0
330
238
345
0
346
0
  0
TABLESTYLE
  5
89F
102
{ACAD_REACTORS
330
89C
102
}
330
89C
100
AcDbTableStyle
  3
Standard
 70
0
 71
0
 40
0.06
 41
0.06
280
1
281
1
  7
Standard
140
0.18
170
1
 62
0
 63
7
283
0
  7
Standard
140
0.18
170
1
 62
0
 63
7
283
0
  7
Standard
140
0.18
170
1
 62
0
 63
7
283
0
  0
TABLESTYLE
  5
8A0
102
{ACAD_REACTORS
330
89C
330
762
102
}
330
89C
100
AcDbTableStyle
  3
Standard1
 70
1
 71
0
 40
0.06
 41
0.06
280
1
281
1
  7
Standard
140
0.18
170
1
 62
0
 63
7
283
0
  7
Standard
140
0.18
170
1
 62
0
 63
7
283
0
  7
Standard
140
0.18
170
1
 62
0
 63
7
283
0
  0
ENDSEC
  0
EOF
