999
DXF file: 146867_1.dxf
999
Pro/ENGINEER 2009141 by Parametric Technology Corporation
  0
SECTION
  2
HEADER
  9
$ACADVER
  1
AC1015
  9
$DWGCODEPAGE
  3
ANSI_1252
  9
$EXTMAX
 10
22.0
 20
17.0
 30
0.0
  9
$EXTMIN
 10
0.0
 20
0.0
 30
0.0
  9
$LIMMIN
 10
0.0
 20
0.0
  9
$LIMMAX
 10
22.0
 20
17.0
  9
$VIEWCTR
 10
11.0
 20
8.5
  9
$VIEWSIZE
 40
17.0
  9
$CLAYER
  8
0
  9
$LTSCALE
 40
1.21
  9
$CELTYPE
  6
BYLAYER
  9
$DIMSCALE
 40
1.0
  9
$DIMASZ
 40
0.1875
  9
$DIMEXO
 40
0.1375
  9
$DIMDLI
 40
0.836
  9
$DIMEXE
 40
0.396
  9
$DIMCEN
 40
0.198
  9
$DIMLFAC
 40
1.0
  9
$DIMBLK
  1
_FILLED
  9
$DIMTXT
 40
0.1
  9
$DIMTOL
 70
1
  9
$DIMLIM
 70
0
  9
$DIMTFAC
 40
1.0
  9
$DIMTP
 40
0.005
  9
$DIMTM
 40
0.005
  9
$PDMODE
 70
3
  9
$PDSIZE
 40
0.3125
  9
$HANDSEED
  5
94F
  9
$TILEMODE
 70
1
  9
$MEASUREMENT
 70
0
  9
$INSUNITS
 70
1
  0
ENDSEC
  0
SECTION
  2
CLASSES
  0
CLASS
  1
ACDBDICTIONARYWDFLT
  2
AcDbDictionaryWithDefault
  3
AutoCAD 2000
 90
0
280
0
281
0
  0
CLASS
  1
ACDBPLACEHOLDER
  2
AcDbPlaceHolder
  3
AutoCAD 2000
 90
0
280
0
281
0
  0
CLASS
  1
LAYOUT
  2
AcDbLayout
  3
AutoCAD 2000
 90
0
280
0
281
0
  0
ENDSEC
  0
SECTION
  2
TABLES
  0
TABLE
  2
VPORT
  5
8
100
AcDbSymbolTable
 70
2
  0
VPORT
  5
1F4
100
AcDbSymbolTableRecord
100
AcDbViewportTableRecord
  2
*ACTIVE
 70
0
 10
0.0
 20
0.0
 11
1.0
 21
1.0
 12
11.0
 22
8.5
 13
0.0
 23
0.0
 14
1.0
 24
1.0
 15
0.0
 25
0.0
 16
0.0
 26
0.0
 36
1.0
 17
0.0
 27
0.0
 37
0.0
 40
17.0
 41
1.2941176471
 42
50.0
 43
0.0
 44
0.0
 50
0.0
 51
0.0
 71
0
 72
100
 73
1
 74
1
 75
0
 76
0
 77
0
 78
0
  0
ENDTAB
  0
TABLE
  2
LTYPE
  5
5
100
AcDbSymbolTable
 70
6
  0
LTYPE
  5
14
100
AcDbSymbolTableRecord
100
AcDbLinetypeTableRecord
  2
BYBLOCK
 70
0
  3

 72
65
 73
0
 40
0.0
  0
LTYPE
  5
15
100
AcDbSymbolTableRecord
100
AcDbLinetypeTableRecord
  2
BYLAYER
 70
0
  3

 72
65
 73
0
 40
0.0
  0
LTYPE
  5
16
100
AcDbSymbolTableRecord
100
AcDbLinetypeTableRecord
  2
CONTINUOUS
 70
64
  3
Solid line
 72
65
 73
0
 40
0.0
  0
LTYPE
  5
1F5
100
AcDbSymbolTableRecord
100
AcDbLinetypeTableRecord
  2
CENTER
 70
64
  3
____ _ ____ _ ____ _ ____ _ ____ _ ____ _ ____
 72
65
 73
4
 40
0.6
 49
0.375
 74
0
 49
-0.075
 74
0
 49
0.075
 74
0
 49
-0.075
 74
0
  0
LTYPE
  5
1F6
100
AcDbSymbolTableRecord
100
AcDbLinetypeTableRecord
  2
HIDDEN
 70
64
  3
- - - - - - - - - - - - - - - - - - - -
 72
65
 73
2
 40
0.2
 49
0.1
 74
0
 49
-0.1
 74
0
  0
LTYPE
  5
1F7
100
AcDbSymbolTableRecord
100
AcDbLinetypeTableRecord
  2
PHANTOM
 70
64
  3
_____ _ _ _____ _ _ _____ _ _ _____
 72
65
 73
6
 40
0.8
 49
0.45
 74
0
 49
-0.05
 74
0
 49
0.1
 74
0
 49
-0.05
 74
0
 49
0.1
 74
0
 49
-0.05
 74
0
  0
LTYPE
  5
1F8
100
AcDbSymbolTableRecord
100
AcDbLinetypeTableRecord
  2
DOT
 70
64
  3
. . . . . . . . . . . . . . . . . . . .
 72
65
 73
2
 40
0.2
 49
0.1
 74
0
 49
-0.1
 74
0
  0
LTYPE
  5
1F9
100
AcDbSymbolTableRecord
100
AcDbLinetypeTableRecord
  2
DASHED
 70
64
  3
- - - - - - - - - - - - - - - - - - - -
 72
65
 73
2
 40
0.2
 49
0.1
 74
0
 49
-0.1
 74
0
  0
ENDTAB
  0
TABLE
  2
LAYER
  5
2
100
AcDbSymbolTable
 70
36
  0
LAYER
  5
10
100
AcDbSymbolTableRecord
100
AcDbLayerTableRecord
  2
0
 70
0
 62
7
  6
CONTINUOUS
370
-3
390
F
  0
LAYER
  5
1FA
100
AcDbSymbolTableRecord
100
AcDbLayerTableRecord
  2
DEFAULT_1
 70
0
 62
7
  6
CENTER
370
-3
390
F
  0
LAYER
  5
1FB
100
AcDbSymbolTableRecord
100
AcDbLayerTableRecord
  2
DEFAULT_2
 70
0
 62
8
  6
HIDDEN
370
-3
390
F
  0
LAYER
  5
1FC
100
AcDbSymbolTableRecord
100
AcDbLayerTableRecord
  2
DEFAULT_3
 70
0
 62
7
  6
PHANTOM
370
-3
390
F
  0
LAYER
  5
1FD
100
AcDbSymbolTableRecord
100
AcDbLayerTableRecord
  2
AXIS
 70
0
 62
7
  6
CONTINUOUS
370
-3
390
F
  0
LAYER
  5
1FE
100
AcDbSymbolTableRecord
100
AcDbLayerTableRecord
  2
COSMETIC_THREADS
 70
0
 62
7
  6
CONTINUOUS
370
-3
390
F
  0
LAYER
  5
1FF
100
AcDbSymbolTableRecord
100
AcDbLayerTableRecord
  2
DATUM_CURVES
 70
0
 62
7
  6
CONTINUOUS
370
-3
390
F
  0
LAYER
  5
200
100
AcDbSymbolTableRecord
100
AcDbLayerTableRecord
  2
DATUM_PLANES
 70
0
 62
7
  6
CONTINUOUS
370
-3
390
F
  0
LAYER
  5
201
100
AcDbSymbolTableRecord
100
AcDbLayerTableRecord
  2
NOTES
 70
0
 62
7
  6
CONTINUOUS
370
-3
390
F
  0
LAYER
  5
202
100
AcDbSymbolTableRecord
100
AcDbLayerTableRecord
  2
QUILTS
 70
0
 62
7
  6
CONTINUOUS
370
-3
390
F
  0
LAYER
  5
203
100
AcDbSymbolTableRecord
100
AcDbLayerTableRecord
  2
SCHEME_DIMS
 70
0
 62
7
  6
CONTINUOUS
370
-3
390
F
  0
LAYER
  5
204
100
AcDbSymbolTableRecord
100
AcDbLayerTableRecord
  2
SYMBOLS
 70
0
 62
7
  6
CONTINUOUS
370
-3
390
F
  0
ENDTAB
  0
TABLE
  2
STYLE
  5
3
100
AcDbSymbolTable
 70
1
  0
STYLE
  5
11
100
AcDbSymbolTableRecord
100
AcDbTextStyleTableRecord
  2
STANDARD
 70
0
 40
0.0
 41
1.0
 50
0.0
 71
0
 42
0.2
  3
txt
  4

  0
STYLE
  5
205
100
AcDbSymbolTableRecord
100
AcDbTextStyleTableRecord
  2
TEXTSTYLE_1
 70
0
 40
0.0
 41
0.8
 50
0.0
 71
0
 42
0.2
  3
gdt
  4

  0
STYLE
  5
206
100
AcDbSymbolTableRecord
100
AcDbTextStyleTableRecord
  2
TEXTSTYLE_2
 70
0
 40
0.0
 41
0.8
 50
0.0
 71
0
 42
0.2
  3
txt
  4

  0
STYLE
  5
207
100
AcDbSymbolTableRecord
100
AcDbTextStyleTableRecord
  2
TEXTSTYLE_3
 70
0
 40
0.0
 41
0.85
 50
0.0
 71
0
 42
0.2
  3
txt
  4

  0
STYLE
  5
208
100
AcDbSymbolTableRecord
100
AcDbTextStyleTableRecord
  2
TEXTSTYLE_4
 70
0
 40
0.0
 41
0.92
 50
0.0
 71
0
 42
0.2
  3
txt
  4

  0
STYLE
  5
209
100
AcDbSymbolTableRecord
100
AcDbTextStyleTableRecord
  2
TEXTSTYLE_5
 70
0
 40
0.0
 41
1.0
 50
0.0
 71
0
 42
0.2
  3
gdt
  4

  0
ENDTAB
  0
TABLE
  2
VIEW
  5
6
100
AcDbSymbolTable
 70
0
  0
ENDTAB
  0
TABLE
  2
UCS
  5
7
100
AcDbSymbolTable
 70
0
  0
ENDTAB
  0
TABLE
  2
APPID
  5
9
100
AcDbSymbolTable
 70
1
  0
APPID
  5
20A
100
AcDbSymbolTableRecord
100
AcDbRegAppTableRecord
  2
ACAD
 70
0
  0
ENDTAB
  0
TABLE
  2
BLOCK_RECORD
  5
1
100
AcDbSymbolTable
 70
0
  0
BLOCK_RECORD
  5
20B
100
AcDbSymbolTableRecord
100
AcDbBlockTableRecord
  2
*Model_Space
  0
BLOCK_RECORD
  5
20C
100
AcDbSymbolTableRecord
100
AcDbBlockTableRecord
  2
*Paper_Space
  0
BLOCK_RECORD
  5
20D
100
AcDbSymbolTableRecord
100
AcDbBlockTableRecord
  2
_FILLED
  0
BLOCK_RECORD
  5
20E
100
AcDbSymbolTableRecord
100
AcDbBlockTableRecord
  2
_NONE
  0
BLOCK_RECORD
  5
20F
100
AcDbSymbolTableRecord
100
AcDbBlockTableRecord
  2
*D0
  0
BLOCK_RECORD
  5
210
100
AcDbSymbolTableRecord
100
AcDbBlockTableRecord
  2
*D1
  0
BLOCK_RECORD
  5
211
100
AcDbSymbolTableRecord
100
AcDbBlockTableRecord
  2
*D2
  0
BLOCK_RECORD
  5
212
100
AcDbSymbolTableRecord
100
AcDbBlockTableRecord
  2
*D3
  0
BLOCK_RECORD
  5
213
100
AcDbSymbolTableRecord
100
AcDbBlockTableRecord
  2
*D4
  0
BLOCK_RECORD
  5
214
100
AcDbSymbolTableRecord
100
AcDbBlockTableRecord
  2
*D5
  0
BLOCK_RECORD
  5
215
100
AcDbSymbolTableRecord
100
AcDbBlockTableRecord
  2
*D6
  0
BLOCK_RECORD
  5
216
100
AcDbSymbolTableRecord
100
AcDbBlockTableRecord
  2
*D7
  0
BLOCK_RECORD
  5
217
100
AcDbSymbolTableRecord
100
AcDbBlockTableRecord
  2
*D8
  0
BLOCK_RECORD
  5
218
100
AcDbSymbolTableRecord
100
AcDbBlockTableRecord
  2
*D9
  0
BLOCK_RECORD
  5
219
100
AcDbSymbolTableRecord
100
AcDbBlockTableRecord
  2
*D10
  0
BLOCK_RECORD
  5
21A
100
AcDbSymbolTableRecord
100
AcDbBlockTableRecord
  2
*D11
  0
BLOCK_RECORD
  5
21B
100
AcDbSymbolTableRecord
100
AcDbBlockTableRecord
  2
*D12
  0
BLOCK_RECORD
  5
21C
100
AcDbSymbolTableRecord
100
AcDbBlockTableRecord
  2
*D13
  0
BLOCK_RECORD
  5
21D
100
AcDbSymbolTableRecord
100
AcDbBlockTableRecord
  2
CL_BL2
  0
BLOCK_RECORD
  5
21E
100
AcDbSymbolTableRecord
100
AcDbBlockTableRecord
  2
CL_BL1
  0
BLOCK_RECORD
  5
21F
100
AcDbSymbolTableRecord
100
AcDbBlockTableRecord
  2
BANNER_LOGO_TITLEBLOCK_BL0
  0
ENDTAB
  0
TABLE
  2
DIMSTYLE
  5
A
100
AcDbSymbolTable
 70
1
100
AcDbDimStyleTable
 71
0
  0
DIMSTYLE
105
220
100
AcDbSymbolTableRecord
100
AcDbDimStyleTableRecord
  2
STANDARD
 70
0
  3

  4

 40
1.0
 41
0.1875
 42
0.0625
 43
0.38
 44
0.18
 45
0.0
 46
0.0
 47
0.005
 48
0.005
140
0.1
141
0.09
142
0.0
143
25.4
144
1.0
145
0.0
146
1.0
147
0.09
 71
1.0
 72
0.0
 73
1
 74
1
 75
0
 76
0
 77
0
 78
4
170
0
171
2
172
0
173
0
174
0
175
0
176
0
177
0
178
0
270
2
271
3
272
3
273
2
274
2
275
0
280
0
281
0
282
0
283
1
284
4
285
0
286
0
287
3
288
0
340
11
341
20D
342
20D
343
20D
344
20D
  0
DIMSTYLE
105
221
100
AcDbSymbolTableRecord
100
AcDbDimStyleTableRecord
  2
DIMSTYLE_1
 70
0
  3

  4

 40
1.0
 41
0.1875
 42
0.0625
 43
0.38
 44
0.18
 45
0.0
 46
0.0
 47
0.1
 48
0.1
140
0.1
141
0.09
142
0.0
143
25.4
144
1.0
145
0.0
146
1.0
147
0.09
 71
0.0
 72
0.0
 73
1
 74
1
 75
0
 76
0
 77
0
 78
4
170
0
171
2
172
0
173
0
174
0
175
0
176
0
177
0
178
0
270
2
271
1
272
1
273
2
274
2
275
0
280
0
281
0
282
0
283
1
284
4
285
0
286
0
287
3
288
0
340
11
341
20D
342
20D
343
20D
344
20D
  0
DIMSTYLE
105
222
100
AcDbSymbolTableRecord
100
AcDbDimStyleTableRecord
  2
DIMSTYLE_2
 70
0
  3

  4

 40
1.0
 41
0.1875
 42
0.0625
 43
0.38
 44
0.18
 45
0.0
 46
0.0
 47
0.5
 48
0.5
140
0.1
141
0.09
142
0.0
143
25.4
144
1.0
145
0.0
146
1.0
147
0.09
 71
0.0
 72
0.0
 73
1
 74
1
 75
0
 76
0
 77
0
 78
4
170
0
171
2
172
0
173
0
174
0
175
0
176
0
177
0
178
0
270
2
271
0
272
0
273
2
274
2
275
0
280
0
281
0
282
0
283
1
284
4
285
0
286
0
287
3
288
0
340
11
341
20D
342
20D
343
20D
344
20D
  0
ENDTAB
  0
ENDSEC
  0
SECTION
  2
BLOCKS
  0
BLOCK
  5
20
100
AcDbEntity
  8
0
100
AcDbBlockBegin
  2
*Model_Space
 70
0
 10
0.0
 20
0.0
 30
0.0
  3
*Model_Space
  1

  0
ENDBLK
  5
21
100
AcDbEntity
  8
0
100
AcDbBlockEnd
  0
BLOCK
  5
1C
100
AcDbEntity
  8
0
100
AcDbBlockBegin
  2
*Paper_Space
 70
0
 10
0.0
 20
0.0
 30
0.0
  3
*Paper_Space
  1

  0
ENDBLK
  5
1D
100
AcDbEntity
  8
0
100
AcDbBlockEnd
  0
BLOCK
  5
223
100
AcDbEntity
  8
SYMBOLS
100
AcDbBlockBegin
 62
2
  6
CONTINUOUS
  2
CL_BL2
 70
64
 10
8.7620251436
 20
13.529091562
  3
CL_BL2
  1

  0
MTEXT
  5
224
100
AcDbEntity
  8
SYMBOLS
100
AcDbMText
 62
2
  6
CONTINUOUS
  7
TEXTSTYLE_5
 71
1
 72
1
 10
8.6770251436
 20
13.589091562
 30
0.0
 11
1.0
 21
0.0
 31
0.0
 44
0.9
  1
{\Fgdt;q}
 40
0.12
 41
0.17
  0
ENDBLK
  5
225
100
AcDbEntity
  8
0
  6
BYBLOCK
 62
0
100
AcDbBlockEnd
  0
BLOCK
  5
226
100
AcDbEntity
  8
SYMBOLS
100
AcDbBlockBegin
 62
2
  6
CONTINUOUS
  2
CL_BL1
 70
64
 10
17.3659839745
 20
6.9942024302
  3
CL_BL1
  1

  0
MTEXT
  5
227
100
AcDbEntity
  8
SYMBOLS
100
AcDbMText
 62
2
  6
CONTINUOUS
  7
TEXTSTYLE_5
 71
1
 72
1
 10
17.2809839745
 20
7.0542024302
 30
0.0
 11
1.0
 21
0.0
 31
0.0
 44
0.9
  1
{\Fgdt;q}
 40
0.12
 41
0.17
  0
ENDBLK
  5
228
100
AcDbEntity
  8
0
  6
BYBLOCK
 62
0
100
AcDbBlockEnd
  0
BLOCK
  5
229
100
AcDbEntity
  8
0
100
AcDbBlockBegin
 62
2
  6
CONTINUOUS
  2
BANNER_LOGO_TITLEBLOCK_BL0
 70
64
 10
17.5778140653
 20
2.4016160549
  3
BANNER_LOGO_TITLEBLOCK_BL0
  1

  0
ELLIPSE
  5
22A
100
AcDbEntity
  8
0
100
AcDbEllipse
 62
2
  6
CONTINUOUS
 10
17.5737928219
 20
2.4016160549
 30
0.0
 11
-0.8250004575
 21
0.0
 31
0.0
 40
0.218572
 41
0.0
 42
6.2831853072
  0
ARC
  5
22B
100
AcDbEntity
  8
0
100
AcDbCircle
 62
2
  6
CONTINUOUS
 10
17.0691330821
 20
2.3781140608
 40
0.0153945295
100
AcDbArc
 50
354.0454548824
 51
5.1878013979
  0
ARC
  5
22C
100
AcDbEntity
  8
0
100
AcDbCircle
 62
2
  6
CONTINUOUS
 10
17.062303393
 20
2.377925543
 40
0.0222174455
100
AcDbArc
 50
4.0793399388
 51
69.834329283
  0
LINE
  5
22D
100
AcDbEntity
  8
0
100
AcDbLine
 62
2
  6
CONTINUOUS
 10
17.0699625425
 20
2.3987810533
 11
17.0599115369
 21
2.4023300553
  0
LINE
  5
22E
100
AcDbEntity
  8
0
100
AcDbLine
 62
2
  6
CONTINUOUS
 10
17.0599115369
 20
2.4023300553
 11
17.0681515415
 21
2.4071060579
  0
ARC
  5
22F
100
AcDbEntity
  8
0
100
AcDbCircle
 62
2
  6
CONTINUOUS
 10
17.046286159
 20
2.4439329496
 40
0.0428289026
100
AcDbArc
 50
300.6990502959
 51
319.0591802498
  0
ARC
  5
230
100
AcDbEntity
  8
0
100
AcDbCircle
 62
2
  6
CONTINUOUS
 10
17.0663147559
 20
2.4278045961
 40
0.0171568255
100
AcDbArc
 50
315.9145124245
 51
16.0049121282
  0
ARC
  5
231
100
AcDbEntity
  8
0
100
AcDbCircle
 62
2
  6
CONTINUOUS
 10
17.0613631438
 20
2.4244509317
 40
0.0229166529
100
AcDbArc
 50
20.6563876465
 51
62.3316896973
  0
ARC
  5
232
100
AcDbEntity
  8
0
100
AcDbCircle
 62
2
  6
CONTINUOUS
 10
17.0407010201
 20
2.3915223668
 40
0.061747717
100
AcDbArc
 50
59.5385584989
 51
90.0050977555
  0
LINE
  5
233
100
AcDbEntity
  8
0
100
AcDbLine
 62
2
  6
CONTINUOUS
 10
17.0406955262
 20
2.4532700835
 11
16.8746324342
 21
2.4532700835
  0
ARC
  5
234
100
AcDbEntity
  8
0
100
AcDbCircle
 62
2
  6
CONTINUOUS
 10
16.8746324323
 20
2.450795084
 40
0.0024749995
100
AcDbArc
 50
89.9999571957
 51
180.0000428043
  0
LINE
  5
235
100
AcDbEntity
  8
0
100
AcDbLine
 62
2
  6
CONTINUOUS
 10
16.8721574328
 20
2.4507950822
 11
16.8721574328
 21
2.4309950712
  0
ARC
  5
236
100
AcDbEntity
  8
0
100
AcDbCircle
 62
2
  6
CONTINUOUS
 10
16.8746324323
 20
2.4309950693
 40
0.0024749995
100
AcDbArc
 50
179.9999571957
 51
270.0000428043
  0
LINE
  5
237
100
AcDbEntity
  8
0
100
AcDbLine
 62
2
  6
CONTINUOUS
 10
16.8746324342
 20
2.4285200698
 11
16.8985744474
 21
2.4285200698
  0
ARC
  5
238
100
AcDbEntity
  8
0
100
AcDbCircle
 62
2
  6
CONTINUOUS
 10
16.8985744493
 20
2.4260450703
 40
0.0024749995
100
AcDbArc
 50
359.9999571957
 51
90.0000428043
  0
LINE
  5
239
100
AcDbEntity
  8
0
100
AcDbLine
 62
2
  6
CONTINUOUS
 10
16.9010494488
 20
2.4260450684
 11
16.9010494488
 21
2.3796900427
  0
ARC
  5
23A
100
AcDbEntity
  8
0
100
AcDbCircle
 62
2
  6
CONTINUOUS
 10
16.8985744493
 20
2.3796900409
 40
0.0024749995
100
AcDbArc
 50
269.9999571957
 51
0.0000428043
  0
LINE
  5
23B
100
AcDbEntity
  8
0
100
AcDbLine
 62
2
  6
CONTINUOUS
 10
16.8985744474
 20
2.3772150414
 11
16.8746324342
 21
2.3772150414
  0
ARC
  5
23C
100
AcDbEntity
  8
0
100
AcDbCircle
 62
2
  6
CONTINUOUS
 10
16.8746324323
 20
2.3747400418
 40
0.0024749995
100
AcDbArc
 50
89.9999571957
 51
180.0000428043
  0
LINE
  5
23D
100
AcDbEntity
  8
0
100
AcDbLine
 62
2
  6
CONTINUOUS
 10
16.8721574328
 20
2.37474004
 11
16.8721574328
 21
2.354940029
  0
ARC
  5
23E
100
AcDbEntity
  8
0
100
AcDbCircle
 62
2
  6
CONTINUOUS
 10
16.8746324323
 20
2.3549400272
 40
0.0024749995
100
AcDbArc
 50
179.9999571957
 51
270.0000428043
  0
LINE
  5
23F
100
AcDbEntity
  8
0
100
AcDbLine
 62
2
  6
CONTINUOUS
 10
16.8746324342
 20
2.3524650276
 11
17.051078532
 21
2.3524650276
  0
ARC
  5
240
100
AcDbEntity
  8
0
100
AcDbCircle
 62
2
  6
CONTINUOUS
 10
17.0483571873
 20
2.4008724794
 40
0.048483885
100
AcDbArc
 50
273.21763719
 51
303.0749121182
  0
ARC
  5
241
100
AcDbEntity
  8
0
100
AcDbCircle
 62
2
  6
CONTINUOUS
 10
17.0631965815
 20
2.3781048705
 40
0.0213072145
100
AcDbArc
 50
303.0488228549
 51
355.7263138674
  0
LINE
  5
242
100
AcDbEntity
  8
0
100
AcDbLine
 62
2
  6
CONTINUOUS
 10
16.9640374837
 20
2.4111950602
 11
17.0054005067
 21
2.4111950602
  0
ARC
  5
243
100
AcDbEntity
  8
0
100
AcDbCircle
 62
2
  6
CONTINUOUS
 10
17.0054005067
 20
2.419857565
 40
0.0086625048
100
AcDbArc
 50
270.0
 51
90.0
  0
LINE
  5
244
100
AcDbEntity
  8
0
100
AcDbLine
 62
2
  6
CONTINUOUS
 10
17.0054005067
 20
2.4285200698
 11
16.9640374837
 21
2.4285200698
  0
ARC
  5
245
100
AcDbEntity
  8
0
100
AcDbCircle
 62
2
  6
CONTINUOUS
 10
16.9640374819
 20
2.4260450703
 40
0.0024749995
100
AcDbArc
 50
89.9999571957
 51
180.0000428043
  0
LINE
  5
246
100
AcDbEntity
  8
0
100
AcDbLine
 62
2
  6
CONTINUOUS
 10
16.9615624824
 20
2.4260450684
 11
16.9615624824
 21
2.4136700616
  0
ARC
  5
247
100
AcDbEntity
  8
0
100
AcDbCircle
 62
2
  6
CONTINUOUS
 10
16.9640374819
 20
2.4136700597
 40
0.0024749995
100
AcDbArc
 50
179.9999571957
 51
270.0000428043
  0
LINE
  5
248
100
AcDbEntity
  8
0
100
AcDbLine
 62
2
  6
CONTINUOUS
 10
16.9615624824
 20
2.3796900427
 11
16.9615624824
 21
2.3920650496
  0
ARC
  5
249
100
AcDbEntity
  8
0
100
AcDbCircle
 62
2
  6
CONTINUOUS
 10
16.9640374819
 20
2.3920650514
 40
0.0024749995
100
AcDbArc
 50
89.9999571957
 51
180.0000428043
  0
LINE
  5
24A
100
AcDbEntity
  8
0
100
AcDbLine
 62
2
  6
CONTINUOUS
 10
16.9640374837
 20
2.394540051
 11
17.0054005067
 21
2.394540051
  0
ARC
  5
24B
100
AcDbEntity
  8
0
100
AcDbCircle
 62
2
  6
CONTINUOUS
 10
17.0054005067
 20
2.3858775462
 40
0.0086625048
100
AcDbArc
 50
270.0
 51
90.0
  0
LINE
  5
24C
100
AcDbEntity
  8
0
100
AcDbLine
 62
2
  6
CONTINUOUS
 10
17.0054005067
 20
2.3772150414
 11
16.9640374837
 21
2.3772150414
  0
ARC
  5
24D
100
AcDbEntity
  8
0
100
AcDbCircle
 62
2
  6
CONTINUOUS
 10
16.9640374819
 20
2.3796900409
 40
0.0024749995
100
AcDbArc
 50
179.9999571957
 51
270.0000428043
  0
ARC
  5
24E
100
AcDbEntity
  8
0
100
AcDbCircle
 62
2
  6
CONTINUOUS
 10
18.2498075353
 20
2.3824863625
 40
0.044722495
100
AcDbArc
 50
195.531588407
 51
204.7624440448
  0
LINE
  5
24F
100
AcDbEntity
  8
0
100
AcDbLine
 62
2
  6
CONTINUOUS
 10
18.2067181729
 20
2.3705110376
 11
18.2049141719
 21
2.376580041
  0
ARC
  5
250
100
AcDbEntity
  8
0
100
AcDbCircle
 62
2
  6
CONTINUOUS
 10
18.1665349746
 20
2.3667829606
 40
0.0396099176
100
AcDbArc
 50
14.3201081283
 51
22.4984722084
  0
ARC
  5
251
100
AcDbEntity
  8
0
100
AcDbCircle
 62
2
  6
CONTINUOUS
 10
18.189301283
 20
2.3757545872
 40
0.0151491919
100
AcDbArc
 50
24.098260853
 51
63.0369451818
  0
ARC
  5
252
100
AcDbEntity
  8
0
100
AcDbCircle
 62
2
  6
CONTINUOUS
 10
18.1852466282
 20
2.3674749668
 40
0.0243676582
100
AcDbArc
 50
63.3666028271
 51
90.3937697637
  0
LINE
  5
253
100
AcDbEntity
  8
0
100
AcDbLine
 62
2
  6
CONTINUOUS
 10
18.1850791609
 20
2.3918420495
 11
18.1574721456
 21
2.3918420495
  0
ARC
  5
254
100
AcDbEntity
  8
0
100
AcDbCircle
 62
2
  6
CONTINUOUS
 10
18.1574721437
 20
2.3893670499
 40
0.0024749995
100
AcDbArc
 50
89.9999571957
 51
180.0000428043
  0
LINE
  5
255
100
AcDbEntity
  8
0
100
AcDbLine
 62
2
  6
CONTINUOUS
 10
18.1549971442
 20
2.3893670481
 11
18.1549971442
 21
2.3796680427
  0
ARC
  5
256
100
AcDbEntity
  8
0
100
AcDbCircle
 62
2
  6
CONTINUOUS
 10
18.1574721437
 20
2.3796680409
 40
0.0024749995
100
AcDbArc
 50
179.9999571957
 51
270.0000428043
  0
LINE
  5
257
100
AcDbEntity
  8
0
100
AcDbLine
 62
2
  6
CONTINUOUS
 10
18.1574721456
 20
2.3771930413
 11
18.1821311592
 21
2.3771930413
  0
ARC
  5
258
100
AcDbEntity
  8
0
100
AcDbCircle
 62
2
  6
CONTINUOUS
 10
18.1821311611
 20
2.3747180418
 40
0.0024749995
100
AcDbArc
 50
359.9999571957
 51
90.0000428043
  0
LINE
  5
259
100
AcDbEntity
  8
0
100
AcDbLine
 62
2
  6
CONTINUOUS
 10
18.1846061606
 20
2.37471804
 11
18.1846061606
 21
2.354940029
  0
ARC
  5
25A
100
AcDbEntity
  8
0
100
AcDbCircle
 62
2
  6
CONTINUOUS
 10
18.1821311611
 20
2.3549400272
 40
0.0024749995
100
AcDbArc
 50
269.9999571957
 51
0.0000428043
  0
LINE
  5
25B
100
AcDbEntity
  8
0
100
AcDbLine
 62
2
  6
CONTINUOUS
 10
18.1821311592
 20
2.3524650276
 11
18.0685600963
 21
2.3524650276
  0
ARC
  5
25C
100
AcDbEntity
  8
0
100
AcDbCircle
 62
2
  6
CONTINUOUS
 10
18.0685600944
 20
2.3549400272
 40
0.0024749995
100
AcDbArc
 50
179.9999571957
 51
270.0000428043
  0
LINE
  5
25D
100
AcDbEntity
  8
0
100
AcDbLine
 62
2
  6
CONTINUOUS
 10
18.0660850949
 20
2.354940029
 11
18.0660850949
 21
2.37474004
  0
ARC
  5
25E
100
AcDbEntity
  8
0
100
AcDbCircle
 62
2
  6
CONTINUOUS
 10
18.0685600944
 20
2.3747400418
 40
0.0024749995
100
AcDbArc
 50
89.9999571957
 51
180.0000428043
  0
LINE
  5
25F
100
AcDbEntity
  8
0
100
AcDbLine
 62
2
  6
CONTINUOUS
 10
18.0685600963
 20
2.3772150414
 11
18.0913061089
 21
2.3772150414
  0
ARC
  5
260
100
AcDbEntity
  8
0
100
AcDbCircle
 62
2
  6
CONTINUOUS
 10
18.0913061107
 20
2.3796900409
 40
0.0024749995
100
AcDbArc
 50
269.9999571957
 51
0.0000428043
  0
LINE
  5
261
100
AcDbEntity
  8
0
100
AcDbLine
 62
2
  6
CONTINUOUS
 10
18.0937811102
 20
2.3796900427
 11
18.0937811102
 21
2.4260450684
  0
ARC
  5
262
100
AcDbEntity
  8
0
100
AcDbCircle
 62
2
  6
CONTINUOUS
 10
18.0913061107
 20
2.4260450703
 40
0.0024749995
100
AcDbArc
 50
359.9999571957
 51
90.0000428043
  0
LINE
  5
263
100
AcDbEntity
  8
0
100
AcDbLine
 62
2
  6
CONTINUOUS
 10
18.0913061089
 20
2.4285200698
 11
18.0685600963
 21
2.4285200698
  0
ARC
  5
264
100
AcDbEntity
  8
0
100
AcDbCircle
 62
2
  6
CONTINUOUS
 10
18.0685600944
 20
2.4309950693
 40
0.0024749995
100
AcDbArc
 50
179.9999571957
 51
270.0000428043
  0
LINE
  5
265
100
AcDbEntity
  8
0
100
AcDbLine
 62
2
  6
CONTINUOUS
 10
18.0660850949
 20
2.4309950712
 11
18.0660850949
 21
2.4507950822
  0
ARC
  5
266
100
AcDbEntity
  8
0
100
AcDbCircle
 62
2
  6
CONTINUOUS
 10
18.0685600944
 20
2.450795084
 40
0.0024749995
100
AcDbArc
 50
89.9999571957
 51
180.0000428043
  0
LINE
  5
267
100
AcDbEntity
  8
0
100
AcDbLine
 62
2
  6
CONTINUOUS
 10
18.0685600963
 20
2.4532700835
 11
18.2181411792
 21
2.4532700835
  0
ARC
  5
268
100
AcDbEntity
  8
0
100
AcDbCircle
 62
2
  6
CONTINUOUS
 10
18.2154778759
 20
2.270731173
 40
0.1825583387
100
AcDbArc
 50
79.8618509324
 51
89.1640948679
  0
ARC
  5
269
100
AcDbEntity
  8
0
100
AcDbCircle
 62
2
  6
CONTINUOUS
 10
18.2417821663
 20
2.4115546891
 40
0.039319019
100
AcDbArc
 50
59.1202086415
 51
81.4730239328
  0
ARC
  5
26A
100
AcDbEntity
  8
0
100
AcDbCircle
 62
2
  6
CONTINUOUS
 10
18.2474415625
 20
2.4178893582
 40
0.0310192946
100
AcDbArc
 50
34.7540871
 51
62.0879016178
  0
ARC
  5
26B
100
AcDbEntity
  8
0
100
AcDbCircle
 62
2
  6
CONTINUOUS
 10
18.2591303136
 20
2.4264389594
 40
0.0165459396
100
AcDbArc
 50
1.548452892
 51
33.5033152417
  0
ARC
  5
26C
100
AcDbEntity
  8
0
100
AcDbCircle
 62
2
  6
CONTINUOUS
 10
18.2624269088
 20
2.4266074116
 40
0.0132462337
100
AcDbArc
 50
331.1510006998
 51
1.205404301
  0
ARC
  5
26D
100
AcDbEntity
  8
0
100
AcDbCircle
 62
2
  6
CONTINUOUS
 10
18.2514162524
 20
2.4332859993
 40
0.0261183659
100
AcDbArc
 50
305.6373831893
 51
329.9727629745
  0
ARC
  5
26E
100
AcDbEntity
  8
0
100
AcDbCircle
 62
2
  6
CONTINUOUS
 10
18.2210843148
 20
2.4764928489
 40
0.0789082104
100
AcDbArc
 50
292.906155071
 51
305.2574666259
  0
ARC
  5
26F
100
AcDbEntity
  8
0
100
AcDbCircle
 62
2
  6
CONTINUOUS
 10
18.1973831488
 20
2.2998387438
 40
0.117346916
100
AcDbArc
 50
58.614769177
 51
62.3737227606
  0
ARC
  5
270
100
AcDbEntity
  8
0
100
AcDbCircle
 62
2
  6
CONTINUOUS
 10
18.2452661015
 20
2.377966004
 40
0.0257145923
100
AcDbArc
 50
39.3804255939
 51
59.0361096173
  0
ARC
  5
271
100
AcDbEntity
  8
0
100
AcDbCircle
 62
2
  6
CONTINUOUS
 10
18.244145746
 20
2.3778929208
 40
0.0266349791
100
AcDbArc
 50
20.3630922153
 51
37.9727053099
  0
ARC
  5
272
100
AcDbEntity
  8
0
100
AcDbCircle
 62
2
  6
CONTINUOUS
 10
18.2262452042
 20
2.3707115124
 40
0.0459185159
100
AcDbArc
 50
15.6740290068
 51
20.9917271228
  0
ARC
  5
273
100
AcDbEntity
  8
0
100
AcDbCircle
 62
2
  6
CONTINUOUS
 10
18.2848155393
 20
2.3863544954
 40
0.0147197649
100
AcDbArc
 50
192.7054516566
 51
206.0594861022
  0
ARC
  5
274
100
AcDbEntity
  8
0
100
AcDbCircle
 62
2
  6
CONTINUOUS
 10
18.2763212023
 20
2.3821460089
 40
0.0052403997
100
AcDbArc
 50
205.5232099488
 51
227.5054868079
  0
ARC
  5
275
100
AcDbEntity
  8
0
100
AcDbCircle
 62
2
  6
CONTINUOUS
 10
18.274592903
 20
2.3803306362
 40
0.0027347709
100
AcDbArc
 50
228.5117626737
 51
266.1485845754
  0
LINE
  5
276
100
AcDbEntity
  8
0
100
AcDbLine
 62
2
  6
CONTINUOUS
 10
18.2744092104
 20
2.3776020416
 11
18.275518211
 21
2.3776020416
  0
ARC
  5
277
100
AcDbEntity
  8
0
100
AcDbCircle
 62
2
  6
CONTINUOUS
 10
18.2754566564
 20
2.3908507008
 40
0.0132488022
100
AcDbArc
 50
270.266200055
 51
281.2404888597
  0
ARC
  5
278
100
AcDbEntity
  8
0
100
AcDbCircle
 62
2
  6
CONTINUOUS
 10
18.2766508974
 20
2.3851140072
 40
0.0073895522
100
AcDbArc
 50
280.8288201977
 51
305.0837508495
  0
ARC
  5
279
100
AcDbEntity
  8
0
100
AcDbCircle
 62
2
  6
CONTINUOUS
 10
18.2770520791
 20
2.3842631608
 40
0.0064647042
100
AcDbArc
 50
306.5086174083
 51
340.2162360092
  0
ARC
  5
27A
100
AcDbEntity
  8
0
100
AcDbCircle
 62
2
  6
CONTINUOUS
 10
18.2718509025
 20
2.3860072224
 40
0.0119498009
100
AcDbArc
 50
340.7883861657
 51
1.1691452593
  0
LINE
  5
27B
100
AcDbEntity
  8
0
100
AcDbLine
 62
2
  6
CONTINUOUS
 10
18.2837982156
 20
2.3862510464
 11
18.2837982156
 21
2.3888770478
  0
ARC
  5
27C
100
AcDbEntity
  8
0
100
AcDbCircle
 62
2
  6
CONTINUOUS
 10
18.2862732151
 20
2.3888770497
 40
0.0024749995
100
AcDbArc
 50
89.9999571957
 51
180.0000428043
  0
LINE
  5
27D
100
AcDbEntity
  8
0
100
AcDbLine
 62
2
  6
CONTINUOUS
 10
18.286273217
 20
2.3913520492
 11
18.2983832237
 21
2.3913520492
  0
ARC
  5
27E
100
AcDbEntity
  8
0
100
AcDbCircle
 62
2
  6
CONTINUOUS
 10
18.2983832256
 20
2.3888770497
 40
0.0024749995
100
AcDbArc
 50
359.9999571957
 51
90.0000428043
  0
LINE
  5
27F
100
AcDbEntity
  8
0
100
AcDbLine
 62
2
  6
CONTINUOUS
 10
18.3008582251
 20
2.3888770478
 11
18.3008582251
 21
2.3773250414
  0
ARC
  5
280
100
AcDbEntity
  8
0
100
AcDbCircle
 62
2
  6
CONTINUOUS
 10
18.2833025285
 20
2.3774293591
 40
0.0175560065
100
AcDbArc
 50
332.2279060967
 51
359.6595469939
  0
ARC
  5
281
100
AcDbEntity
  8
0
100
AcDbCircle
 62
2
  6
CONTINUOUS
 10
18.2739955177
 20
2.3823238645
 40
0.0280715479
100
AcDbArc
 50
308.5071794988
 51
332.2400656899
  0
ARC
  5
282
100
AcDbEntity
  8
0
100
AcDbCircle
 62
2
  6
CONTINUOUS
 10
18.2670033323
 20
2.3899250823
 40
0.0383802683
100
AcDbArc
 50
288.7656836787
 51
309.6104317088
  0
ARC
  5
283
100
AcDbEntity
  8
0
100
AcDbCircle
 62
2
  6
CONTINUOUS
 10
18.2727412998
 20
2.372338333
 40
0.0198837666
100
AcDbArc
 50
271.8586572978
 51
289.4131338543
  0
LINE
  5
284
100
AcDbEntity
  8
0
100
AcDbLine
 62
2
  6
CONTINUOUS
 10
18.2733862098
 20
2.3524650276
 11
18.2260221836
 21
2.3524650276
  0
ARC
  5
285
100
AcDbEntity
  8
0
100
AcDbCircle
 62
2
  6
CONTINUOUS
 10
18.2268275043
 20
2.3697871793
 40
0.0173408616
100
AcDbArc
 50
232.4713476722
 51
267.338189944
  0
ARC
  5
286
100
AcDbEntity
  8
0
100
AcDbCircle
 62
2
  6
CONTINUOUS
 10
18.2299260692
 20
2.3756374832
 40
0.0238935861
100
AcDbArc
 50
209.8247607259
 51
235.1255079367
  0
ARC
  5
287
100
AcDbEntity
  8
0
100
AcDbCircle
 62
2
  6
CONTINUOUS
 10
18.1986405119
 20
2.4241492153
 40
0.0110815393
100
AcDbArc
 50
306.758405961
 51
320.4502234234
  0
ARC
  5
288
100
AcDbEntity
  8
0
100
AcDbCircle
 62
2
  6
CONTINUOUS
 10
18.1930113209
 20
2.4318900438
 40
0.0206523367
100
AcDbArc
 50
289.6883413472
 51
306.4184925496
  0
ARC
  5
289
100
AcDbEntity
  8
0
100
AcDbCircle
 62
2
  6
CONTINUOUS
 10
18.1910838152
 20
2.4362836911
 40
0.0254407115
100
AcDbArc
 50
270.7327484175
 51
290.441894219
  0
LINE
  5
28A
100
AcDbEntity
  8
0
100
AcDbLine
 62
2
  6
CONTINUOUS
 10
18.1914091644
 20
2.41084506
 11
18.1574721456
 21
2.41084506
  0
ARC
  5
28B
100
AcDbEntity
  8
0
100
AcDbCircle
 62
2
  6
CONTINUOUS
 10
18.1574721437
 20
2.4133200595
 40
0.0024749995
100
AcDbArc
 50
179.9999571957
 51
270.0000428043
  0
LINE
  5
28C
100
AcDbEntity
  8
0
100
AcDbLine
 62
2
  6
CONTINUOUS
 10
18.1549971442
 20
2.4133200614
 11
18.1549971442
 21
2.4260450684
  0
ARC
  5
28D
100
AcDbEntity
  8
0
100
AcDbCircle
 62
2
  6
CONTINUOUS
 10
18.1574721437
 20
2.4260450703
 40
0.0024749995
100
AcDbArc
 50
89.9999571957
 51
180.0000428043
  0
LINE
  5
28E
100
AcDbEntity
  8
0
100
AcDbLine
 62
2
  6
CONTINUOUS
 10
18.1574721456
 20
2.4285200698
 11
18.194273166
 21
2.4285200698
  0
ARC
  5
28F
100
AcDbEntity
  8
0
100
AcDbCircle
 62
2
  6
CONTINUOUS
 10
18.1927282785
 20
2.4000655908
 40
0.0284963867
100
AcDbArc
 50
70.3834917948
 51
86.8922743861
  0
ARC
  5
290
100
AcDbEntity
  8
0
100
AcDbCircle
 62
2
  6
CONTINUOUS
 10
18.1975878885
 20
2.4131073238
 40
0.0145814632
100
AcDbArc
 50
54.6746025112
 51
71.1660573124
  0
ARC
  5
291
100
AcDbEntity
  8
0
100
AcDbCircle
 62
2
  6
CONTINUOUS
 10
18.2027173795
 20
2.419961249
 40
0.0060275915
100
AcDbArc
 50
20.9055592135
 51
56.7851676243
  0
ARC
  5
292
100
AcDbEntity
  8
0
100
AcDbCircle
 62
2
  6
CONTINUOUS
 10
18.2040179384
 20
2.4206215312
 40
0.0045795888
100
AcDbArc
 50
355.6235353944
 51
18.9942678268
  0
ARC
  5
293
100
AcDbEntity
  8
0
100
AcDbCircle
 62
2
  6
CONTINUOUS
 10
18.202811128
 20
2.4209153074
 40
0.0058087709
100
AcDbArc
 50
318.8515287446
 51
353.6422345323
  0
LINE
  5
294
100
AcDbEntity
  8
0
100
AcDbLine
 62
2
  6
CONTINUOUS
 10
17.341467693
 20
2.4532700835
 11
17.4419257488
 21
2.4532700835
  0
ARC
  5
295
100
AcDbEntity
  8
0
100
AcDbCircle
 62
2
  6
CONTINUOUS
 10
17.4419258835
 20
2.4507959157
 40
0.0024741678
100
AcDbArc
 50
46.3477981898
 51
90.0031206038
  0
LINE
  5
296
100
AcDbEntity
  8
0
100
AcDbLine
 62
2
  6
CONTINUOUS
 10
17.4436337497
 20
2.4525860832
 11
17.503666783
 21
2.3953060514
  0
ARC
  5
297
100
AcDbEntity
  8
0
100
AcDbCircle
 62
2
  6
CONTINUOUS
 10
17.5053754839
 20
2.3970969891
 40
0.0024753014
100
AcDbArc
 50
226.3461263059
 51
0.0014637322
  0
LINE
  5
298
100
AcDbEntity
  8
0
100
AcDbLine
 62
2
  6
CONTINUOUS
 10
17.5078507853
 20
2.3970970524
 11
17.5078507853
 21
2.4260450684
  0
ARC
  5
299
100
AcDbEntity
  8
0
100
AcDbCircle
 62
2
  6
CONTINUOUS
 10
17.5053757858
 20
2.4260450703
 40
0.0024749995
100
AcDbArc
 50
359.9999571957
 51
90.0000428043
  0
LINE
  5
29A
100
AcDbEntity
  8
0
100
AcDbLine
 62
2
  6
CONTINUOUS
 10
17.5053757839
 20
2.4285200698
 11
17.4865997735
 21
2.4285200698
  0
ARC
  5
29B
100
AcDbEntity
  8
0
100
AcDbCircle
 62
2
  6
CONTINUOUS
 10
17.4865997717
 20
2.4309950693
 40
0.0024749995
100
AcDbArc
 50
179.9999571957
 51
270.0000428043
  0
LINE
  5
29C
100
AcDbEntity
  8
0
100
AcDbLine
 62
2
  6
CONTINUOUS
 10
17.4841247722
 20
2.4309950712
 11
17.4841247722
 21
2.4507950822
  0
ARC
  5
29D
100
AcDbEntity
  8
0
100
AcDbCircle
 62
2
  6
CONTINUOUS
 10
17.4865997717
 20
2.450795084
 40
0.0024749995
100
AcDbArc
 50
89.9999571957
 51
180.0000428043
  0
LINE
  5
29E
100
AcDbEntity
  8
0
100
AcDbLine
 62
2
  6
CONTINUOUS
 10
17.4865997735
 20
2.4532700835
 11
17.5606008146
 21
2.4532700835
  0
ARC
  5
29F
100
AcDbEntity
  8
0
100
AcDbCircle
 62
2
  6
CONTINUOUS
 10
17.5606008164
 20
2.450795084
 40
0.0024749995
100
AcDbArc
 50
359.9999571957
 51
90.0000428043
  0
LINE
  5
2A0
100
AcDbEntity
  8
0
100
AcDbLine
 62
2
  6
CONTINUOUS
 10
17.5630758159
 20
2.4507950822
 11
17.5630758159
 21
2.4309950712
  0
ARC
  5
2A1
100
AcDbEntity
  8
0
100
AcDbCircle
 62
2
  6
CONTINUOUS
 10
17.5606008164
 20
2.4309950693
 40
0.0024749995
100
AcDbArc
 50
269.9999571957
 51
0.0000428043
  0
LINE
  5
2A2
100
AcDbEntity
  8
0
100
AcDbLine
 62
2
  6
CONTINUOUS
 10
17.5606008146
 20
2.4285200698
 11
17.5426678046
 21
2.4285200698
  0
ARC
  5
2A3
100
AcDbEntity
  8
0
100
AcDbCircle
 62
2
  6
CONTINUOUS
 10
17.5426678028
 20
2.4260450703
 40
0.0024749995
100
AcDbArc
 50
89.9999571957
 51
180.0000428043
  0
LINE
  5
2A4
100
AcDbEntity
  8
0
100
AcDbLine
 62
2
  6
CONTINUOUS
 10
17.5401928032
 20
2.4260450684
 11
17.5401928032
 21
2.354940029
  0
ARC
  5
2A5
100
AcDbEntity
  8
0
100
AcDbCircle
 62
2
  6
CONTINUOUS
 10
17.5377178037
 20
2.3549400272
 40
0.0024749995
100
AcDbArc
 50
269.9999571957
 51
0.0000428043
  0
LINE
  5
2A6
100
AcDbEntity
  8
0
100
AcDbLine
 62
2
  6
CONTINUOUS
 10
17.5377178019
 20
2.3524650276
 11
17.4635127607
 21
2.3524650276
  0
ARC
  5
2A7
100
AcDbEntity
  8
0
100
AcDbCircle
 62
2
  6
CONTINUOUS
 10
17.463512126
 20
2.3549404438
 40
0.0024754162
100
AcDbArc
 50
226.3593695813
 51
270.0146919953
  0
LINE
  5
2A8
100
AcDbEntity
  8
0
100
AcDbLine
 62
2
  6
CONTINUOUS
 10
17.4618037598
 20
2.353149028
 11
17.3985237247
 21
2.4135270615
  0
ARC
  5
2A9
100
AcDbEntity
  8
0
100
AcDbCircle
 62
2
  6
CONTINUOUS
 10
17.3968150237
 20
2.4117361237
 40
0.0024753014
100
AcDbArc
 50
46.3461263059
 51
180.0014637321
  0
LINE
  5
2AA
100
AcDbEntity
  8
0
100
AcDbLine
 62
2
  6
CONTINUOUS
 10
17.3943397224
 20
2.4117360605
 11
17.3943397224
 21
2.3796900427
  0
ARC
  5
2AB
100
AcDbEntity
  8
0
100
AcDbCircle
 62
2
  6
CONTINUOUS
 10
17.3968147219
 20
2.3796900409
 40
0.0024749995
100
AcDbArc
 50
179.9999571957
 51
270.0000428043
  0
LINE
  5
2AC
100
AcDbEntity
  8
0
100
AcDbLine
 62
2
  6
CONTINUOUS
 10
17.3968147237
 20
2.3772150414
 11
17.417131735
 21
2.3772150414
  0
ARC
  5
2AD
100
AcDbEntity
  8
0
100
AcDbCircle
 62
2
  6
CONTINUOUS
 10
17.4171317369
 20
2.3747400418
 40
0.0024749995
100
AcDbArc
 50
359.9999571957
 51
90.0000428043
  0
LINE
  5
2AE
100
AcDbEntity
  8
0
100
AcDbLine
 62
2
  6
CONTINUOUS
 10
17.4196067364
 20
2.37474004
 11
17.4196067364
 21
2.354940029
  0
ARC
  5
2AF
100
AcDbEntity
  8
0
100
AcDbCircle
 62
2
  6
CONTINUOUS
 10
17.4171317369
 20
2.3549400272
 40
0.0024749995
100
AcDbArc
 50
269.9999571957
 51
0.0000428043
  0
LINE
  5
2B0
100
AcDbEntity
  8
0
100
AcDbLine
 62
2
  6
CONTINUOUS
 10
17.417131735
 20
2.3524650276
 11
17.341467693
 21
2.3524650276
  0
ARC
  5
2B1
100
AcDbEntity
  8
0
100
AcDbCircle
 62
2
  6
CONTINUOUS
 10
17.3414676912
 20
2.3549400272
 40
0.0024749995
100
AcDbArc
 50
179.9999571957
 51
270.0000428043
  0
LINE
  5
2B2
100
AcDbEntity
  8
0
100
AcDbLine
 62
2
  6
CONTINUOUS
 10
17.3389926917
 20
2.354940029
 11
17.3389926917
 21
2.37474004
  0
ARC
  5
2B3
100
AcDbEntity
  8
0
100
AcDbCircle
 62
2
  6
CONTINUOUS
 10
17.3414676912
 20
2.3747400418
 40
0.0024749995
100
AcDbArc
 50
89.9999571957
 51
180.0000428043
  0
LINE
  5
2B4
100
AcDbEntity
  8
0
100
AcDbLine
 62
2
  6
CONTINUOUS
 10
17.341467693
 20
2.3772150414
 11
17.3601147034
 21
2.3772150414
  0
ARC
  5
2B5
100
AcDbEntity
  8
0
100
AcDbCircle
 62
2
  6
CONTINUOUS
 10
17.3601147052
 20
2.3796900409
 40
0.0024749995
100
AcDbArc
 50
269.9999571957
 51
0.0000428043
  0
LINE
  5
2B6
100
AcDbEntity
  8
0
100
AcDbLine
 62
2
  6
CONTINUOUS
 10
17.3625897048
 20
2.3796900427
 11
17.3625897048
 21
2.4260450684
  0
ARC
  5
2B7
100
AcDbEntity
  8
0
100
AcDbCircle
 62
2
  6
CONTINUOUS
 10
17.3601147052
 20
2.4260450703
 40
0.0024749995
100
AcDbArc
 50
359.9999571957
 51
90.0000428043
  0
LINE
  5
2B8
100
AcDbEntity
  8
0
100
AcDbLine
 62
2
  6
CONTINUOUS
 10
17.3601147034
 20
2.4285200698
 11
17.341467693
 21
2.4285200698
  0
ARC
  5
2B9
100
AcDbEntity
  8
0
100
AcDbCircle
 62
2
  6
CONTINUOUS
 10
17.3414676912
 20
2.4309950693
 40
0.0024749995
100
AcDbArc
 50
179.9999571957
 51
270.0000428043
  0
LINE
  5
2BA
100
AcDbEntity
  8
0
100
AcDbLine
 62
2
  6
CONTINUOUS
 10
17.3389926917
 20
2.4309950712
 11
17.3389926917
 21
2.4507950822
  0
ARC
  5
2BB
100
AcDbEntity
  8
0
100
AcDbCircle
 62
2
  6
CONTINUOUS
 10
17.3414676912
 20
2.450795084
 40
0.0024749995
100
AcDbArc
 50
89.9999571957
 51
180.0000428043
  0
LINE
  5
2BC
100
AcDbEntity
  8
0
100
AcDbLine
 62
2
  6
CONTINUOUS
 10
17.1937676111
 20
2.4268270689
 11
17.1866506072
 21
2.4156100627
  0
ARC
  5
2BD
100
AcDbEntity
  8
0
100
AcDbCircle
 62
2
  6
CONTINUOUS
 10
17.188740499
 20
2.4142841006
 40
0.0024750401
100
AcDbArc
 50
147.6063258012
 51
270.0025305754
  0
LINE
  5
2BE
100
AcDbEntity
  8
0
100
AcDbLine
 62
2
  6
CONTINUOUS
 10
17.1887406083
 20
2.4118090605
 11
17.2092976197
 21
2.4118090605
  0
ARC
  5
2BF
100
AcDbEntity
  8
0
100
AcDbCircle
 62
2
  6
CONTINUOUS
 10
17.2092975986
 20
2.4142842677
 40
0.0024752071
100
AcDbArc
 50
270.0004896793
 51
32.9089806818
  0
LINE
  5
2C0
100
AcDbEntity
  8
0
100
AcDbLine
 62
2
  6
CONTINUOUS
 10
17.2113756209
 20
2.4156290627
 11
17.2041166169
 21
2.4268450689
  0
ARC
  5
2C1
100
AcDbEntity
  8
0
100
AcDbCircle
 62
2
  6
CONTINUOUS
 10
17.2020380761
 20
2.4255006094
 40
0.0024754602
100
AcDbArc
 50
32.8959418573
 51
89.9875097202
  0
LINE
  5
2C2
100
AcDbEntity
  8
0
100
AcDbLine
 62
2
  6
CONTINUOUS
 10
17.2020386157
 20
2.4279760695
 11
17.1958576123
 21
2.4279760695
  0
ARC
  5
2C3
100
AcDbEntity
  8
0
100
AcDbCircle
 62
2
  6
CONTINUOUS
 10
17.195857542
 20
2.4255008692
 40
0.0024752003
100
AcDbArc
 50
89.998372645
 51
147.602165307
  0
LINE
  5
2C4
100
AcDbEntity
  8
0
100
AcDbLine
 62
2
  6
CONTINUOUS
 10
17.2171806241
 20
2.3897280483
 11
17.2228066272
 21
2.3810350435
  0
ARC
  5
2C5
100
AcDbEntity
  8
0
100
AcDbCircle
 62
2
  6
CONTINUOUS
 10
17.2207286049
 20
2.3796902485
 40
0.0024752071
100
AcDbArc
 50
270.0004896793
 51
32.9089806818
  0
LINE
  5
2C6
100
AcDbEntity
  8
0
100
AcDbLine
 62
2
  6
CONTINUOUS
 10
17.2207286261
 20
2.3772150414
 11
17.2062776181
 21
2.3772150414
  0
ARC
  5
2C7
100
AcDbEntity
  8
0
100
AcDbCircle
 62
2
  6
CONTINUOUS
 10
17.2062776162
 20
2.3747400418
 40
0.0024749995
100
AcDbArc
 50
89.9999571957
 51
180.0000428043
  0
LINE
  5
2C8
100
AcDbEntity
  8
0
100
AcDbLine
 62
2
  6
CONTINUOUS
 10
17.2038026167
 20
2.37474004
 11
17.2038026167
 21
2.354940029
  0
ARC
  5
2C9
100
AcDbEntity
  8
0
100
AcDbCircle
 62
2
  6
CONTINUOUS
 10
17.2062776162
 20
2.3549400272
 40
0.0024749995
100
AcDbArc
 50
179.9999571957
 51
270.0000428043
  0
LINE
  5
2CA
100
AcDbEntity
  8
0
100
AcDbLine
 62
2
  6
CONTINUOUS
 10
17.2062776181
 20
2.3524650276
 11
17.3115586765
 21
2.3524650276
  0
ARC
  5
2CB
100
AcDbEntity
  8
0
100
AcDbCircle
 62
2
  6
CONTINUOUS
 10
17.3115586783
 20
2.3549400272
 40
0.0024749995
100
AcDbArc
 50
269.9999571957
 51
0.0000428043
  0
LINE
  5
2CC
100
AcDbEntity
  8
0
100
AcDbLine
 62
2
  6
CONTINUOUS
 10
17.3140336778
 20
2.354940029
 11
17.3140336778
 21
2.37474004
  0
ARC
  5
2CD
100
AcDbEntity
  8
0
100
AcDbCircle
 62
2
  6
CONTINUOUS
 10
17.3115586783
 20
2.3747400418
 40
0.0024749995
100
AcDbArc
 50
359.9999571957
 51
90.0000428043
  0
LINE
  5
2CE
100
AcDbEntity
  8
0
100
AcDbLine
 62
2
  6
CONTINUOUS
 10
17.3115586765
 20
2.3772150414
 11
17.2915426654
 21
2.3772150414
  0
ARC
  5
2CF
100
AcDbEntity
  8
0
100
AcDbCircle
 62
2
  6
CONTINUOUS
 10
17.2915427859
 20
2.3796890824
 40
0.002474041
100
AcDbArc
 50
212.9056413127
 51
269.9972091756
  0
LINE
  5
2D0
100
AcDbEntity
  8
0
100
AcDbLine
 62
2
  6
CONTINUOUS
 10
17.2894656642
 20
2.378345042
 11
17.2417096377
 21
2.4521400829
  0
ARC
  5
2D1
100
AcDbEntity
  8
0
100
AcDbCircle
 62
2
  6
CONTINUOUS
 10
17.2396320161
 20
2.4507951234
 40
0.0024749602
100
AcDbArc
 50
32.9172174468
 51
90.0087853097
  0
LINE
  5
2D2
100
AcDbEntity
  8
0
100
AcDbLine
 62
2
  6
CONTINUOUS
 10
17.2396316366
 20
2.4532700835
 11
17.1824566049
 21
2.4532700835
  0
ARC
  5
2D3
100
AcDbEntity
  8
0
100
AcDbCircle
 62
2
  6
CONTINUOUS
 10
17.1824565346
 20
2.4507948832
 40
0.0024752003
100
AcDbArc
 50
89.998372645
 51
147.602165307
  0
LINE
  5
2D4
100
AcDbEntity
  8
0
100
AcDbLine
 62
2
  6
CONTINUOUS
 10
17.1803666037
 20
2.4521210829
 11
17.1335665777
 21
2.378364042
  0
ARC
  5
2D5
100
AcDbEntity
  8
0
100
AcDbCircle
 62
2
  6
CONTINUOUS
 10
17.1314766469
 20
2.3796902417
 40
0.0024752003
100
AcDbArc
 50
269.998372645
 51
327.602165307
  0
LINE
  5
2D6
100
AcDbEntity
  8
0
100
AcDbLine
 62
2
  6
CONTINUOUS
 10
17.1314765766
 20
2.3772150414
 11
17.1086155639
 21
2.3772150414
  0
ARC
  5
2D7
100
AcDbEntity
  8
0
100
AcDbCircle
 62
2
  6
CONTINUOUS
 10
17.1086155621
 20
2.3747400418
 40
0.0024749995
100
AcDbArc
 50
89.9999571957
 51
180.0000428043
  0
LINE
  5
2D8
100
AcDbEntity
  8
0
100
AcDbLine
 62
2
  6
CONTINUOUS
 10
17.1061405625
 20
2.37474004
 11
17.1061405625
 21
2.354940029
  0
ARC
  5
2D9
100
AcDbEntity
  8
0
100
AcDbCircle
 62
2
  6
CONTINUOUS
 10
17.1086155621
 20
2.3549400272
 40
0.0024749995
100
AcDbArc
 50
179.9999571957
 51
270.0000428043
  0
LINE
  5
2DA
100
AcDbEntity
  8
0
100
AcDbLine
 62
2
  6
CONTINUOUS
 10
17.1086155639
 20
2.3524650276
 11
17.1859916068
 21
2.3524650276
  0
ARC
  5
2DB
100
AcDbEntity
  8
0
100
AcDbCircle
 62
2
  6
CONTINUOUS
 10
17.1859916087
 20
2.3549400272
 40
0.0024749995
100
AcDbArc
 50
269.9999571957
 51
0.0000428043
  0
LINE
  5
2DC
100
AcDbEntity
  8
0
100
AcDbLine
 62
2
  6
CONTINUOUS
 10
17.1884666082
 20
2.354940029
 11
17.1884666082
 21
2.37474004
  0
ARC
  5
2DD
100
AcDbEntity
  8
0
100
AcDbCircle
 62
2
  6
CONTINUOUS
 10
17.1859916087
 20
2.3747400418
 40
0.0024749995
100
AcDbArc
 50
359.9999571957
 51
90.0000428043
  0
LINE
  5
2DE
100
AcDbEntity
  8
0
100
AcDbLine
 62
2
  6
CONTINUOUS
 10
17.1859916068
 20
2.3772150414
 11
17.1747086006
 21
2.3772150414
  0
ARC
  5
2DF
100
AcDbEntity
  8
0
100
AcDbCircle
 62
2
  6
CONTINUOUS
 10
17.1747084912
 20
2.3796900814
 40
0.0024750401
100
AcDbArc
 50
147.6063258011
 51
270.0025305754
  0
LINE
  5
2E0
100
AcDbEntity
  8
0
100
AcDbLine
 62
2
  6
CONTINUOUS
 10
17.1726185994
 20
2.3810160435
 11
17.1781346025
 21
2.3897100483
  0
ARC
  5
2E1
100
AcDbEntity
  8
0
100
AcDbCircle
 62
2
  6
CONTINUOUS
 10
17.1802245333
 20
2.3883838486
 40
0.0024752003
100
AcDbArc
 50
89.998372645
 51
147.602165307
  0
LINE
  5
2E2
100
AcDbEntity
  8
0
100
AcDbLine
 62
2
  6
CONTINUOUS
 10
17.1802246036
 20
2.3908590489
 11
17.215102623
 21
2.3908590489
  0
ARC
  5
2E3
100
AcDbEntity
  8
0
100
AcDbCircle
 62
2
  6
CONTINUOUS
 10
17.2151020833
 20
2.3883835888
 40
0.0024754602
100
AcDbArc
 50
32.8959418573
 51
89.9875097202
  0
LINE
  5
2E4
100
AcDbEntity
  8
0
100
AcDbLine
 62
2
  6
CONTINUOUS
 10
17.5897208307
 20
2.4532700835
 11
17.6901788864
 21
2.4532700835
  0
ARC
  5
2E5
100
AcDbEntity
  8
0
100
AcDbCircle
 62
2
  6
CONTINUOUS
 10
17.6901790212
 20
2.4507959157
 40
0.0024741678
100
AcDbArc
 50
46.3477981899
 51
90.0031206038
  0
LINE
  5
2E6
100
AcDbEntity
  8
0
100
AcDbLine
 62
2
  6
CONTINUOUS
 10
17.6918868874
 20
2.4525860832
 11
17.7519199207
 21
2.3953060514
  0
ARC
  5
2E7
100
AcDbEntity
  8
0
100
AcDbCircle
 62
2
  6
CONTINUOUS
 10
17.7536286216
 20
2.3970969891
 40
0.0024753014
100
AcDbArc
 50
226.3461263059
 51
0.0014637321
  0
LINE
  5
2E8
100
AcDbEntity
  8
0
100
AcDbLine
 62
2
  6
CONTINUOUS
 10
17.756103923
 20
2.3970970524
 11
17.756103923
 21
2.4260450684
  0
ARC
  5
2E9
100
AcDbEntity
  8
0
100
AcDbCircle
 62
2
  6
CONTINUOUS
 10
17.7536289235
 20
2.4260450703
 40
0.0024749995
100
AcDbArc
 50
359.9999571957
 51
90.0000428043
  0
LINE
  5
2EA
100
AcDbEntity
  8
0
100
AcDbLine
 62
2
  6
CONTINUOUS
 10
17.7536289216
 20
2.4285200698
 11
17.7348529112
 21
2.4285200698
  0
ARC
  5
2EB
100
AcDbEntity
  8
0
100
AcDbCircle
 62
2
  6
CONTINUOUS
 10
17.7348529093
 20
2.4309950693
 40
0.0024749995
100
AcDbArc
 50
179.9999571957
 51
270.0000428043
  0
LINE
  5
2EC
100
AcDbEntity
  8
0
100
AcDbLine
 62
2
  6
CONTINUOUS
 10
17.7323779098
 20
2.4309950712
 11
17.7323779098
 21
2.4507950822
  0
ARC
  5
2ED
100
AcDbEntity
  8
0
100
AcDbCircle
 62
2
  6
CONTINUOUS
 10
17.7348529093
 20
2.450795084
 40
0.0024749995
100
AcDbArc
 50
89.9999571957
 51
180.0000428043
  0
LINE
  5
2EE
100
AcDbEntity
  8
0
100
AcDbLine
 62
2
  6
CONTINUOUS
 10
17.7348529112
 20
2.4532700835
 11
17.8088539522
 21
2.4532700835
  0
ARC
  5
2EF
100
AcDbEntity
  8
0
100
AcDbCircle
 62
2
  6
CONTINUOUS
 10
17.8088539541
 20
2.450795084
 40
0.0024749995
100
AcDbArc
 50
359.9999571957
 51
90.0000428043
  0
LINE
  5
2F0
100
AcDbEntity
  8
0
100
AcDbLine
 62
2
  6
CONTINUOUS
 10
17.8113289536
 20
2.4507950822
 11
17.8113289536
 21
2.4309950712
  0
ARC
  5
2F1
100
AcDbEntity
  8
0
100
AcDbCircle
 62
2
  6
CONTINUOUS
 10
17.8088539541
 20
2.4309950693
 40
0.0024749995
100
AcDbArc
 50
269.9999571957
 51
0.0000428043
  0
LINE
  5
2F2
100
AcDbEntity
  8
0
100
AcDbLine
 62
2
  6
CONTINUOUS
 10
17.8088539522
 20
2.4285200698
 11
17.7909209423
 21
2.4285200698
  0
ARC
  5
2F3
100
AcDbEntity
  8
0
100
AcDbCircle
 62
2
  6
CONTINUOUS
 10
17.7909209404
 20
2.4260450703
 40
0.0024749995
100
AcDbArc
 50
89.9999571957
 51
180.0000428043
  0
LINE
  5
2F4
100
AcDbEntity
  8
0
100
AcDbLine
 62
2
  6
CONTINUOUS
 10
17.7884459409
 20
2.4260450684
 11
17.7884459409
 21
2.354940029
  0
ARC
  5
2F5
100
AcDbEntity
  8
0
100
AcDbCircle
 62
2
  6
CONTINUOUS
 10
17.7859709414
 20
2.3549400272
 40
0.0024749995
100
AcDbArc
 50
269.9999571957
 51
0.0000428043
  0
LINE
  5
2F6
100
AcDbEntity
  8
0
100
AcDbLine
 62
2
  6
CONTINUOUS
 10
17.7859709395
 20
2.3524650276
 11
17.7117648984
 21
2.3524650276
  0
ARC
  5
2F7
100
AcDbEntity
  8
0
100
AcDbCircle
 62
2
  6
CONTINUOUS
 10
17.7117647636
 20
2.3549391954
 40
0.0024741678
100
AcDbArc
 50
226.3477981898
 51
270.0031206038
  0
LINE
  5
2F8
100
AcDbEntity
  8
0
100
AcDbLine
 62
2
  6
CONTINUOUS
 10
17.7100568974
 20
2.353149028
 11
17.6467768624
 21
2.4135270615
  0
ARC
  5
2F9
100
AcDbEntity
  8
0
100
AcDbCircle
 62
2
  6
CONTINUOUS
 10
17.6450681614
 20
2.4117361237
 40
0.0024753014
100
AcDbArc
 50
46.3461263059
 51
180.0014637321
  0
LINE
  5
2FA
100
AcDbEntity
  8
0
100
AcDbLine
 62
2
  6
CONTINUOUS
 10
17.64259286
 20
2.4117360605
 11
17.64259286
 21
2.3796900427
  0
ARC
  5
2FB
100
AcDbEntity
  8
0
100
AcDbCircle
 62
2
  6
CONTINUOUS
 10
17.6450678596
 20
2.3796900409
 40
0.0024749995
100
AcDbArc
 50
179.9999571957
 51
270.0000428043
  0
LINE
  5
2FC
100
AcDbEntity
  8
0
100
AcDbLine
 62
2
  6
CONTINUOUS
 10
17.6450678614
 20
2.3772150414
 11
17.6653848727
 21
2.3772150414
  0
ARC
  5
2FD
100
AcDbEntity
  8
0
100
AcDbCircle
 62
2
  6
CONTINUOUS
 10
17.6653848745
 20
2.3747400418
 40
0.0024749995
100
AcDbArc
 50
359.9999571957
 51
90.0000428043
  0
LINE
  5
2FE
100
AcDbEntity
  8
0
100
AcDbLine
 62
2
  6
CONTINUOUS
 10
17.667859874
 20
2.37474004
 11
17.667859874
 21
2.354940029
  0
ARC
  5
2FF
100
AcDbEntity
  8
0
100
AcDbCircle
 62
2
  6
CONTINUOUS
 10
17.6653848745
 20
2.3549400272
 40
0.0024749995
100
AcDbArc
 50
269.9999571957
 51
0.0000428043
  0
LINE
  5
300
100
AcDbEntity
  8
0
100
AcDbLine
 62
2
  6
CONTINUOUS
 10
17.6653848727
 20
2.3524650276
 11
17.5897208307
 21
2.3524650276
  0
ARC
  5
301
100
AcDbEntity
  8
0
100
AcDbCircle
 62
2
  6
CONTINUOUS
 10
17.5897208289
 20
2.3549400272
 40
0.0024749995
100
AcDbArc
 50
179.9999571957
 51
270.0000428043
  0
LINE
  5
302
100
AcDbEntity
  8
0
100
AcDbLine
 62
2
  6
CONTINUOUS
 10
17.5872458293
 20
2.354940029
 11
17.5872458293
 21
2.37474004
  0
ARC
  5
303
100
AcDbEntity
  8
0
100
AcDbCircle
 62
2
  6
CONTINUOUS
 10
17.5897208289
 20
2.3747400418
 40
0.0024749995
100
AcDbArc
 50
89.9999571957
 51
180.0000428043
  0
LINE
  5
304
100
AcDbEntity
  8
0
100
AcDbLine
 62
2
  6
CONTINUOUS
 10
17.5897208307
 20
2.3772150414
 11
17.6083668411
 21
2.3772150414
  0
ARC
  5
305
100
AcDbEntity
  8
0
100
AcDbCircle
 62
2
  6
CONTINUOUS
 10
17.6083668429
 20
2.3796900409
 40
0.0024749995
100
AcDbArc
 50
269.9999571957
 51
0.0000428043
  0
LINE
  5
306
100
AcDbEntity
  8
0
100
AcDbLine
 62
2
  6
CONTINUOUS
 10
17.6108418424
 20
2.3796900427
 11
17.6108418424
 21
2.4260450684
  0
ARC
  5
307
100
AcDbEntity
  8
0
100
AcDbCircle
 62
2
  6
CONTINUOUS
 10
17.6083668429
 20
2.4260450703
 40
0.0024749995
100
AcDbArc
 50
359.9999571957
 51
90.0000428043
  0
LINE
  5
308
100
AcDbEntity
  8
0
100
AcDbLine
 62
2
  6
CONTINUOUS
 10
17.6083668411
 20
2.4285200698
 11
17.5897208307
 21
2.4285200698
  0
ARC
  5
309
100
AcDbEntity
  8
0
100
AcDbCircle
 62
2
  6
CONTINUOUS
 10
17.5897208289
 20
2.4309950693
 40
0.0024749995
100
AcDbArc
 50
179.9999571957
 51
270.0000428043
  0
LINE
  5
30A
100
AcDbEntity
  8
0
100
AcDbLine
 62
2
  6
CONTINUOUS
 10
17.5872458293
 20
2.4309950712
 11
17.5872458293
 21
2.4507950822
  0
ARC
  5
30B
100
AcDbEntity
  8
0
100
AcDbCircle
 62
2
  6
CONTINUOUS
 10
17.5897208289
 20
2.450795084
 40
0.0024749995
100
AcDbArc
 50
89.9999571957
 51
180.0000428043
  0
LINE
  5
30C
100
AcDbEntity
  8
0
100
AcDbLine
 62
2
  6
CONTINUOUS
 10
17.9625500375
 20
2.3937150505
 11
17.927383018
 21
2.3937150505
  0
ARC
  5
30D
100
AcDbEntity
  8
0
100
AcDbCircle
 62
2
  6
CONTINUOUS
 10
17.9273830161
 20
2.391240051
 40
0.0024749995
100
AcDbArc
 50
89.9999571957
 51
180.0000428043
  0
LINE
  5
30E
100
AcDbEntity
  8
0
100
AcDbLine
 62
2
  6
CONTINUOUS
 10
17.9249080166
 20
2.3912400491
 11
17.9249080166
 21
2.3796900427
  0
ARC
  5
30F
100
AcDbEntity
  8
0
100
AcDbCircle
 62
2
  6
CONTINUOUS
 10
17.9273830161
 20
2.3796900409
 40
0.0024749995
100
AcDbArc
 50
179.9999571957
 51
270.0000428043
  0
LINE
  5
310
100
AcDbEntity
  8
0
100
AcDbLine
 62
2
  6
CONTINUOUS
 10
17.927383018
 20
2.3772150414
 11
17.992387054
 21
2.3772150414
  0
ARC
  5
311
100
AcDbEntity
  8
0
100
AcDbCircle
 62
2
  6
CONTINUOUS
 10
17.9923870559
 20
2.3796900409
 40
0.0024749995
100
AcDbArc
 50
269.9999571957
 51
0.0000428043
  0
LINE
  5
312
100
AcDbEntity
  8
0
100
AcDbLine
 62
2
  6
CONTINUOUS
 10
17.9948620554
 20
2.3796900427
 11
17.9948620554
 21
2.3879400473
  0
ARC
  5
313
100
AcDbEntity
  8
0
100
AcDbCircle
 62
2
  6
CONTINUOUS
 10
17.9973370549
 20
2.3879400492
 40
0.0024749995
100
AcDbArc
 50
89.9999571957
 51
180.0000428043
  0
LINE
  5
314
100
AcDbEntity
  8
0
100
AcDbLine
 62
2
  6
CONTINUOUS
 10
17.9973370568
 20
2.3904150487
 11
18.0396560802
 21
2.3904150487
  0
ARC
  5
315
100
AcDbEntity
  8
0
100
AcDbCircle
 62
2
  6
CONTINUOUS
 10
18.0396560821
 20
2.3879400492
 40
0.0024749995
100
AcDbArc
 50
359.9999571957
 51
90.0000428043
  0
LINE
  5
316
100
AcDbEntity
  8
0
100
AcDbLine
 62
2
  6
CONTINUOUS
 10
18.0421310816
 20
2.3879400473
 11
18.0421310816
 21
2.354940029
  0
ARC
  5
317
100
AcDbEntity
  8
0
100
AcDbCircle
 62
2
  6
CONTINUOUS
 10
18.0396560821
 20
2.3549400272
 40
0.0024749995
100
AcDbArc
 50
269.9999571957
 51
0.0000428043
  0
LINE
  5
318
100
AcDbEntity
  8
0
100
AcDbLine
 62
2
  6
CONTINUOUS
 10
18.0396560802
 20
2.3524650276
 11
17.8364439675
 21
2.3524650276
  0
ARC
  5
319
100
AcDbEntity
  8
0
100
AcDbCircle
 62
2
  6
CONTINUOUS
 10
17.8364439657
 20
2.3549400272
 40
0.0024749995
100
AcDbArc
 50
179.9999571957
 51
270.0000428043
  0
LINE
  5
31A
100
AcDbEntity
  8
0
100
AcDbLine
 62
2
  6
CONTINUOUS
 10
17.8339689662
 20
2.354940029
 11
17.8339689662
 21
2.37474004
  0
ARC
  5
31B
100
AcDbEntity
  8
0
100
AcDbCircle
 62
2
  6
CONTINUOUS
 10
17.8364439657
 20
2.3747400418
 40
0.0024749995
100
AcDbArc
 50
89.9999571957
 51
180.0000428043
  0
LINE
  5
31C
100
AcDbEntity
  8
0
100
AcDbLine
 62
2
  6
CONTINUOUS
 10
17.8364439675
 20
2.3772150414
 11
17.8603669808
 21
2.3772150414
  0
ARC
  5
31D
100
AcDbEntity
  8
0
100
AcDbCircle
 62
2
  6
CONTINUOUS
 10
17.8603669827
 20
2.3796900409
 40
0.0024749995
100
AcDbArc
 50
269.9999571956
 51
0.0000428042
  0
LINE
  5
31E
100
AcDbEntity
  8
0
100
AcDbLine
 62
2
  6
CONTINUOUS
 10
17.8628419822
 20
2.3796900427
 11
17.8628419822
 21
2.4260450684
  0
ARC
  5
31F
100
AcDbEntity
  8
0
100
AcDbCircle
 62
2
  6
CONTINUOUS
 10
17.8603669827
 20
2.4260450703
 40
0.0024749995
100
AcDbArc
 50
359.9999571957
 51
90.0000428043
  0
LINE
  5
320
100
AcDbEntity
  8
0
100
AcDbLine
 62
2
  6
CONTINUOUS
 10
17.8603669808
 20
2.4285200698
 11
17.8364439675
 21
2.4285200698
  0
ARC
  5
321
100
AcDbEntity
  8
0
100
AcDbCircle
 62
2
  6
CONTINUOUS
 10
17.8364439657
 20
2.4309950693
 40
0.0024749995
100
AcDbArc
 50
179.9999571957
 51
270.0000428043
  0
LINE
  5
322
100
AcDbEntity
  8
0
100
AcDbLine
 62
2
  6
CONTINUOUS
 10
17.8339689662
 20
2.4309950712
 11
17.8339689662
 21
2.4507950822
  0
ARC
  5
323
100
AcDbEntity
  8
0
100
AcDbCircle
 62
2
  6
CONTINUOUS
 10
17.8364439657
 20
2.450795084
 40
0.0024749995
100
AcDbArc
 50
89.9999571957
 51
180.0000428043
  0
LINE
  5
324
100
AcDbEntity
  8
0
100
AcDbLine
 62
2
  6
CONTINUOUS
 10
17.8364439675
 20
2.4532700835
 11
18.0382370794
 21
2.4532700835
  0
ARC
  5
325
100
AcDbEntity
  8
0
100
AcDbCircle
 62
2
  6
CONTINUOUS
 10
18.0382370813
 20
2.450795084
 40
0.0024749995
100
AcDbArc
 50
359.9999571957
 51
90.0000428043
  0
LINE
  5
326
100
AcDbEntity
  8
0
100
AcDbLine
 62
2
  6
CONTINUOUS
 10
18.0407120808
 20
2.4507950822
 11
18.0407120808
 21
2.4177950639
  0
ARC
  5
327
100
AcDbEntity
  8
0
100
AcDbCircle
 62
2
  6
CONTINUOUS
 10
18.0382370813
 20
2.417795062
 40
0.0024749995
100
AcDbArc
 50
269.9999571957
 51
0.0000428043
  0
LINE
  5
328
100
AcDbEntity
  8
0
100
AcDbLine
 62
2
  6
CONTINUOUS
 10
18.0382370794
 20
2.4153200625
 11
17.9963730562
 21
2.4153200625
  0
ARC
  5
329
100
AcDbEntity
  8
0
100
AcDbCircle
 62
2
  6
CONTINUOUS
 10
17.9963730544
 20
2.417795062
 40
0.0024749995
100
AcDbArc
 50
179.9999571957
 51
270.0000428043
  0
LINE
  5
32A
100
AcDbEntity
  8
0
100
AcDbLine
 62
2
  6
CONTINUOUS
 10
17.9938980549
 20
2.4177950639
 11
17.9938980549
 21
2.4260450684
  0
ARC
  5
32B
100
AcDbEntity
  8
0
100
AcDbCircle
 62
2
  6
CONTINUOUS
 10
17.9914230553
 20
2.4260450703
 40
0.0024749995
100
AcDbArc
 50
359.9999571957
 51
90.0000428043
  0
LINE
  5
32C
100
AcDbEntity
  8
0
100
AcDbLine
 62
2
  6
CONTINUOUS
 10
17.9914230535
 20
2.4285200698
 11
17.927383018
 21
2.4285200698
  0
ARC
  5
32D
100
AcDbEntity
  8
0
100
AcDbCircle
 62
2
  6
CONTINUOUS
 10
17.9273830161
 20
2.4260450703
 40
0.0024749995
100
AcDbArc
 50
89.9999571957
 51
180.0000428043
  0
LINE
  5
32E
100
AcDbEntity
  8
0
100
AcDbLine
 62
2
  6
CONTINUOUS
 10
17.9249080166
 20
2.4260450684
 11
17.9249080166
 21
2.414495062
  0
ARC
  5
32F
100
AcDbEntity
  8
0
100
AcDbCircle
 62
2
  6
CONTINUOUS
 10
17.9273830161
 20
2.4144950602
 40
0.0024749995
100
AcDbArc
 50
179.9999571957
 51
270.0000428043
  0
LINE
  5
330
100
AcDbEntity
  8
0
100
AcDbLine
 62
2
  6
CONTINUOUS
 10
17.927383018
 20
2.4120200607
 11
17.9625500375
 21
2.4120200607
  0
ARC
  5
331
100
AcDbEntity
  8
0
100
AcDbCircle
 62
2
  6
CONTINUOUS
 10
17.9625500393
 20
2.4095450611
 40
0.0024749995
100
AcDbArc
 50
359.9999571957
 51
90.0000428043
  0
LINE
  5
332
100
AcDbEntity
  8
0
100
AcDbLine
 62
2
  6
CONTINUOUS
 10
17.9650250388
 20
2.4095450593
 11
17.9650250388
 21
2.3961900519
  0
ARC
  5
333
100
AcDbEntity
  8
0
100
AcDbCircle
 62
2
  6
CONTINUOUS
 10
17.9625500393
 20
2.39619005
 40
0.0024749995
100
AcDbArc
 50
269.9999571956
 51
0.0000428042
  0
LINE
  5
334
100
AcDbEntity
  8
0
100
AcDbLine
 62
2
  6
CONTINUOUS
 10
18.39781452
 20
2.3963074516
 11
18.39781452
 21
2.4069246582
  0
LINE
  5
335
100
AcDbEntity
  8
0
100
AcDbLine
 62
2
  6
CONTINUOUS
 10
18.3778145089
 20
2.3616679219
 11
18.3778145089
 21
2.4415641879
  0
LINE
  5
336
100
AcDbEntity
  8
0
100
AcDbLine
 62
2
  6
CONTINUOUS
 10
18.3578144978
 20
2.345629656
 11
18.3578144978
 21
2.4576024538
  0
LINE
  5
337
100
AcDbEntity
  8
0
100
AcDbLine
 62
2
  6
CONTINUOUS
 10
18.3378144867
 20
2.3338395042
 11
18.3378144867
 21
2.4693926055
  0
LINE
  5
338
100
AcDbEntity
  8
0
100
AcDbLine
 62
2
  6
CONTINUOUS
 10
18.3178144756
 20
2.3240439832
 11
18.3178144756
 21
2.4791881266
  0
LINE
  5
339
100
AcDbEntity
  8
0
100
AcDbLine
 62
2
  6
CONTINUOUS
 10
18.2978144645
 20
2.3153630651
 11
18.2978144645
 21
2.36748602
  0
LINE
  5
33A
100
AcDbEntity
  8
0
100
AcDbLine
 62
2
  6
CONTINUOUS
 10
18.2978144645
 20
2.3913520492
 11
18.2978144645
 21
2.4878690447
  0
LINE
  5
33B
100
AcDbEntity
  8
0
100
AcDbLine
 62
2
  6
CONTINUOUS
 10
18.2778144535
 20
2.3077915047
 11
18.2778144535
 21
2.3531152062
  0
LINE
  5
33C
100
AcDbEntity
  8
0
100
AcDbLine
 62
2
  6
CONTINUOUS
 10
18.2778144535
 20
2.3778158317
 11
18.2778144535
 21
2.4954406051
  0
LINE
  5
33D
100
AcDbEntity
  8
0
100
AcDbLine
 62
2
  6
CONTINUOUS
 10
18.2578144424
 20
2.301041061
 11
18.2578144424
 21
2.3524650276
  0
LINE
  5
33E
100
AcDbEntity
  8
0
100
AcDbLine
 62
2
  6
CONTINUOUS
 10
18.2578144424
 20
2.4004217989
 11
18.2578144424
 21
2.4066675471
  0
LINE
  5
33F
100
AcDbEntity
  8
0
100
AcDbLine
 62
2
  6
CONTINUOUS
 10
18.2578144424
 20
2.4474440616
 11
18.2578144424
 21
2.5021910487
  0
LINE
  5
340
100
AcDbEntity
  8
0
100
AcDbLine
 62
2
  6
CONTINUOUS
 10
18.2378144313
 20
2.2947079333
 11
18.2378144313
 21
2.3524650276
  0
LINE
  5
341
100
AcDbEntity
  8
0
100
AcDbLine
 62
2
  6
CONTINUOUS
 10
18.2378144313
 20
2.4518964909
 11
18.2378144313
 21
2.5085241764
  0
LINE
  5
342
100
AcDbEntity
  8
0
100
AcDbLine
 62
2
  6
CONTINUOUS
 10
18.2178144202
 20
2.2891345268
 11
18.2178144202
 21
2.354983815
  0
LINE
  5
343
100
AcDbEntity
  8
0
100
AcDbLine
 62
2
  6
CONTINUOUS
 10
18.2178144202
 20
2.4532700835
 11
18.2178144202
 21
2.514097583
  0
LINE
  5
344
100
AcDbEntity
  8
0
100
AcDbLine
 62
2
  6
CONTINUOUS
 10
18.1978144091
 20
2.2837804818
 11
18.1978144091
 21
2.3882804137
  0
LINE
  5
345
100
AcDbEntity
  8
0
100
AcDbLine
 62
2
  6
CONTINUOUS
 10
18.1978144091
 20
2.4117543403
 11
18.1978144091
 21
2.4281034235
  0
LINE
  5
346
100
AcDbEntity
  8
0
100
AcDbLine
 62
2
  6
CONTINUOUS
 10
18.1978144091
 20
2.4532700835
 11
18.1978144091
 21
2.519451628
  0
LINE
  5
347
100
AcDbEntity
  8
0
100
AcDbLine
 62
2
  6
CONTINUOUS
 10
18.177814398
 20
2.2789683935
 11
18.177814398
 21
2.3524650276
  0
LINE
  5
348
100
AcDbEntity
  8
0
100
AcDbLine
 62
2
  6
CONTINUOUS
 10
18.177814398
 20
2.3771930413
 11
18.177814398
 21
2.3918420495
  0
LINE
  5
349
100
AcDbEntity
  8
0
100
AcDbLine
 62
2
  6
CONTINUOUS
 10
18.177814398
 20
2.41084506
 11
18.177814398
 21
2.4285200698
  0
LINE
  5
34A
100
AcDbEntity
  8
0
100
AcDbLine
 62
2
  6
CONTINUOUS
 10
18.177814398
 20
2.4532700835
 11
18.177814398
 21
2.5242637163
  0
LINE
  5
34B
100
AcDbEntity
  8
0
100
AcDbLine
 62
2
  6
CONTINUOUS
 10
18.1578143869
 20
2.2744172398
 11
18.1578143869
 21
2.3524650276
  0
LINE
  5
34C
100
AcDbEntity
  8
0
100
AcDbLine
 62
2
  6
CONTINUOUS
 10
18.1578143869
 20
2.3771930413
 11
18.1578143869
 21
2.3918420495
  0
LINE
  5
34D
100
AcDbEntity
  8
0
100
AcDbLine
 62
2
  6
CONTINUOUS
 10
18.1578143869
 20
2.41084506
 11
18.1578143869
 21
2.4285200698
  0
LINE
  5
34E
100
AcDbEntity
  8
0
100
AcDbLine
 62
2
  6
CONTINUOUS
 10
18.1578143869
 20
2.4532700835
 11
18.1578143869
 21
2.5288148699
  0
LINE
  5
34F
100
AcDbEntity
  8
0
100
AcDbLine
 62
2
  6
CONTINUOUS
 10
18.1378143758
 20
2.2701196816
 11
18.1378143758
 21
2.3524650276
  0
LINE
  5
350
100
AcDbEntity
  8
0
100
AcDbLine
 62
2
  6
CONTINUOUS
 10
18.1378143758
 20
2.4532700835
 11
18.1378143758
 21
2.5331124282
  0
LINE
  5
351
100
AcDbEntity
  8
0
100
AcDbLine
 62
2
  6
CONTINUOUS
 10
18.1178143647
 20
2.2662469216
 11
18.1178143647
 21
2.3524650276
  0
LINE
  5
352
100
AcDbEntity
  8
0
100
AcDbLine
 62
2
  6
CONTINUOUS
 10
18.1178143647
 20
2.4532700835
 11
18.1178143647
 21
2.5369851882
  0
LINE
  5
353
100
AcDbEntity
  8
0
100
AcDbLine
 62
2
  6
CONTINUOUS
 10
18.0978143536
 20
2.2623741615
 11
18.0978143536
 21
2.3524650276
  0
LINE
  5
354
100
AcDbEntity
  8
0
100
AcDbLine
 62
2
  6
CONTINUOUS
 10
18.0978143536
 20
2.4532700835
 11
18.0978143536
 21
2.5408579483
  0
LINE
  5
355
100
AcDbEntity
  8
0
100
AcDbLine
 62
2
  6
CONTINUOUS
 10
18.0778143425
 20
2.2592603806
 11
18.0778143425
 21
2.3524650276
  0
LINE
  5
356
100
AcDbEntity
  8
0
100
AcDbLine
 62
2
  6
CONTINUOUS
 10
18.0778143425
 20
2.3772150414
 11
18.0778143425
 21
2.4285200698
  0
LINE
  5
357
100
AcDbEntity
  8
0
100
AcDbLine
 62
2
  6
CONTINUOUS
 10
18.0778143425
 20
2.4532700835
 11
18.0778143425
 21
2.5439717292
  0
LINE
  5
358
100
AcDbEntity
  8
0
100
AcDbLine
 62
2
  6
CONTINUOUS
 10
18.0578143315
 20
2.2562429918
 11
18.0578143315
 21
2.546989118
  0
LINE
  5
359
100
AcDbEntity
  8
0
100
AcDbLine
 62
2
  6
CONTINUOUS
 10
18.0378143204
 20
2.2532256029
 11
18.0378143204
 21
2.3524650276
  0
LINE
  5
35A
100
AcDbEntity
  8
0
100
AcDbLine
 62
2
  6
CONTINUOUS
 10
18.0378143204
 20
2.3904150487
 11
18.0378143204
 21
2.4153200625
  0
LINE
  5
35B
100
AcDbEntity
  8
0
100
AcDbLine
 62
2
  6
CONTINUOUS
 10
18.0378143204
 20
2.4532700835
 11
18.0378143204
 21
2.5500065068
  0
LINE
  5
35C
100
AcDbEntity
  8
0
100
AcDbLine
 62
2
  6
CONTINUOUS
 10
18.0178143093
 20
2.2502082141
 11
18.0178143093
 21
2.3524650276
  0
LINE
  5
35D
100
AcDbEntity
  8
0
100
AcDbLine
 62
2
  6
CONTINUOUS
 10
18.0178143093
 20
2.3904150487
 11
18.0178143093
 21
2.4153200625
  0
LINE
  5
35E
100
AcDbEntity
  8
0
100
AcDbLine
 62
2
  6
CONTINUOUS
 10
18.0178143093
 20
2.4532700835
 11
18.0178143093
 21
2.5530238957
  0
LINE
  5
35F
100
AcDbEntity
  8
0
100
AcDbLine
 62
2
  6
CONTINUOUS
 10
17.9978142982
 20
2.2471908253
 11
17.9978142982
 21
2.3524650276
  0
LINE
  5
360
100
AcDbEntity
  8
0
100
AcDbLine
 62
2
  6
CONTINUOUS
 10
17.9978142982
 20
2.3904150487
 11
17.9978142982
 21
2.4153200625
  0
LINE
  5
361
100
AcDbEntity
  8
0
100
AcDbLine
 62
2
  6
CONTINUOUS
 10
17.9978142982
 20
2.4532700835
 11
17.9978142982
 21
2.5560412845
  0
LINE
  5
362
100
AcDbEntity
  8
0
100
AcDbLine
 62
2
  6
CONTINUOUS
 10
17.9778142871
 20
2.2445732581
 11
17.9778142871
 21
2.3524650276
  0
LINE
  5
363
100
AcDbEntity
  8
0
100
AcDbLine
 62
2
  6
CONTINUOUS
 10
17.9778142871
 20
2.3772150414
 11
17.9778142871
 21
2.4285200698
  0
LINE
  5
364
100
AcDbEntity
  8
0
100
AcDbLine
 62
2
  6
CONTINUOUS
 10
17.9778142871
 20
2.4532700835
 11
17.9778142871
 21
2.5586588517
  0
LINE
  5
365
100
AcDbEntity
  8
0
100
AcDbLine
 62
2
  6
CONTINUOUS
 10
17.957814276
 20
2.2424989828
 11
17.957814276
 21
2.3524650276
  0
LINE
  5
366
100
AcDbEntity
  8
0
100
AcDbLine
 62
2
  6
CONTINUOUS
 10
17.957814276
 20
2.3772150414
 11
17.957814276
 21
2.3937150505
  0
LINE
  5
367
100
AcDbEntity
  8
0
100
AcDbLine
 62
2
  6
CONTINUOUS
 10
17.957814276
 20
2.4120200607
 11
17.957814276
 21
2.4285200698
  0
LINE
  5
368
100
AcDbEntity
  8
0
100
AcDbLine
 62
2
  6
CONTINUOUS
 10
17.957814276
 20
2.4532700835
 11
17.957814276
 21
2.5607331269
  0
LINE
  5
369
100
AcDbEntity
  8
0
100
AcDbLine
 62
2
  6
CONTINUOUS
 10
17.9378142649
 20
2.2404247076
 11
17.9378142649
 21
2.3524650276
  0
LINE
  5
36A
100
AcDbEntity
  8
0
100
AcDbLine
 62
2
  6
CONTINUOUS
 10
17.9378142649
 20
2.3772150414
 11
17.9378142649
 21
2.3937150505
  0
LINE
  5
36B
100
AcDbEntity
  8
0
100
AcDbLine
 62
2
  6
CONTINUOUS
 10
17.9378142649
 20
2.4120200607
 11
17.9378142649
 21
2.4285200698
  0
LINE
  5
36C
100
AcDbEntity
  8
0
100
AcDbLine
 62
2
  6
CONTINUOUS
 10
17.9378142649
 20
2.4532700835
 11
17.9378142649
 21
2.5628074022
  0
LINE
  5
36D
100
AcDbEntity
  8
0
100
AcDbLine
 62
2
  6
CONTINUOUS
 10
17.9178142538
 20
2.2383504324
 11
17.9178142538
 21
2.3524650276
  0
LINE
  5
36E
100
AcDbEntity
  8
0
100
AcDbLine
 62
2
  6
CONTINUOUS
 10
17.9178142538
 20
2.4532700835
 11
17.9178142538
 21
2.5648816774
  0
LINE
  5
36F
100
AcDbEntity
  8
0
100
AcDbLine
 62
2
  6
CONTINUOUS
 10
17.8978142427
 20
2.2362761572
 11
17.8978142427
 21
2.3524650276
  0
LINE
  5
370
100
AcDbEntity
  8
0
100
AcDbLine
 62
2
  6
CONTINUOUS
 10
17.8978142427
 20
2.4532700835
 11
17.8978142427
 21
2.5669559526
  0
LINE
  5
371
100
AcDbEntity
  8
0
100
AcDbLine
 62
2
  6
CONTINUOUS
 10
17.8778142316
 20
2.234201882
 11
17.8778142316
 21
2.3524650276
  0
LINE
  5
372
100
AcDbEntity
  8
0
100
AcDbLine
 62
2
  6
CONTINUOUS
 10
17.8778142316
 20
2.4532700835
 11
17.8778142316
 21
2.5690302278
  0
LINE
  5
373
100
AcDbEntity
  8
0
100
AcDbLine
 62
2
  6
CONTINUOUS
 10
17.8578142205
 20
2.23247216
 11
17.8578142205
 21
2.3524650276
  0
LINE
  5
374
100
AcDbEntity
  8
0
100
AcDbLine
 62
2
  6
CONTINUOUS
 10
17.8578142205
 20
2.3772150414
 11
17.8578142205
 21
2.4285200698
  0
LINE
  5
375
100
AcDbEntity
  8
0
100
AcDbLine
 62
2
  6
CONTINUOUS
 10
17.8578142205
 20
2.4532700835
 11
17.8578142205
 21
2.5707599498
  0
LINE
  5
376
100
AcDbEntity
  8
0
100
AcDbLine
 62
2
  6
CONTINUOUS
 10
17.8378142094
 20
2.2312059562
 11
17.8378142094
 21
2.3524650276
  0
LINE
  5
377
100
AcDbEntity
  8
0
100
AcDbLine
 62
2
  6
CONTINUOUS
 10
17.8378142094
 20
2.3772150414
 11
17.8378142094
 21
2.4285200698
  0
LINE
  5
378
100
AcDbEntity
  8
0
100
AcDbLine
 62
2
  6
CONTINUOUS
 10
17.8378142094
 20
2.4532700835
 11
17.8378142094
 21
2.5720261536
  0
LINE
  5
379
100
AcDbEntity
  8
0
100
AcDbLine
 62
2
  6
CONTINUOUS
 10
17.8178141984
 20
2.2299397525
 11
17.8178141984
 21
2.5732923573
  0
LINE
  5
37A
100
AcDbEntity
  8
0
100
AcDbLine
 62
2
  6
CONTINUOUS
 10
17.7978141873
 20
2.2286735487
 11
17.7978141873
 21
2.4285200698
  0
LINE
  5
37B
100
AcDbEntity
  8
0
100
AcDbLine
 62
2
  6
CONTINUOUS
 10
17.7978141873
 20
2.4532700835
 11
17.7978141873
 21
2.574558561
  0
LINE
  5
37C
100
AcDbEntity
  8
0
100
AcDbLine
 62
2
  6
CONTINUOUS
 10
17.7778141762
 20
2.227407345
 11
17.7778141762
 21
2.3524650276
  0
LINE
  5
37D
100
AcDbEntity
  8
0
100
AcDbLine
 62
2
  6
CONTINUOUS
 10
17.7778141762
 20
2.4532700835
 11
17.7778141762
 21
2.5758247648
  0
LINE
  5
37E
100
AcDbEntity
  8
0
100
AcDbLine
 62
2
  6
CONTINUOUS
 10
17.7578141651
 20
2.2261411413
 11
17.7578141651
 21
2.3524650276
  0
LINE
  5
37F
100
AcDbEntity
  8
0
100
AcDbLine
 62
2
  6
CONTINUOUS
 10
17.7578141651
 20
2.4532700835
 11
17.7578141651
 21
2.5770909685
  0
LINE
  5
380
100
AcDbEntity
  8
0
100
AcDbLine
 62
2
  6
CONTINUOUS
 10
17.737814154
 20
2.2249117066
 11
17.737814154
 21
2.3524650276
  0
LINE
  5
381
100
AcDbEntity
  8
0
100
AcDbLine
 62
2
  6
CONTINUOUS
 10
17.737814154
 20
2.4087649542
 11
17.737814154
 21
2.4285200698
  0
LINE
  5
382
100
AcDbEntity
  8
0
100
AcDbLine
 62
2
  6
CONTINUOUS
 10
17.737814154
 20
2.4532700835
 11
17.737814154
 21
2.5783204031
  0
LINE
  5
383
100
AcDbEntity
  8
0
100
AcDbLine
 62
2
  6
CONTINUOUS
 10
17.7178141429
 20
2.2243809174
 11
17.7178141429
 21
2.3524650276
  0
LINE
  5
384
100
AcDbEntity
  8
0
100
AcDbLine
 62
2
  6
CONTINUOUS
 10
17.7178141429
 20
2.4278478026
 11
17.7178141429
 21
2.5788511924
  0
LINE
  5
385
100
AcDbEntity
  8
0
100
AcDbLine
 62
2
  6
CONTINUOUS
 10
17.6978141318
 20
2.2238501282
 11
17.6978141318
 21
2.3648303444
  0
LINE
  5
386
100
AcDbEntity
  8
0
100
AcDbLine
 62
2
  6
CONTINUOUS
 10
17.6978141318
 20
2.446930651
 11
17.6978141318
 21
2.5793819816
  0
LINE
  5
387
100
AcDbEntity
  8
0
100
AcDbLine
 62
2
  6
CONTINUOUS
 10
17.6778141207
 20
2.223319339
 11
17.6778141207
 21
2.3839131616
  0
LINE
  5
388
100
AcDbEntity
  8
0
100
AcDbLine
 62
2
  6
CONTINUOUS
 10
17.6778141207
 20
2.4532700835
 11
17.6778141207
 21
2.5799127708
  0
LINE
  5
389
100
AcDbEntity
  8
0
100
AcDbLine
 62
2
  6
CONTINUOUS
 10
17.6578141096
 20
2.2227885498
 11
17.6578141096
 21
2.3524650276
  0
LINE
  5
38A
100
AcDbEntity
  8
0
100
AcDbLine
 62
2
  6
CONTINUOUS
 10
17.6578141096
 20
2.3772150414
 11
17.6578141096
 21
2.4029959788
  0
LINE
  5
38B
100
AcDbEntity
  8
0
100
AcDbLine
 62
2
  6
CONTINUOUS
 10
17.6578141096
 20
2.4532700835
 11
17.6578141096
 21
2.58044356
  0
LINE
  5
38C
100
AcDbEntity
  8
0
100
AcDbLine
 62
2
  6
CONTINUOUS
 10
17.6378140985
 20
2.2222577606
 11
17.6378140985
 21
2.3524650276
  0
LINE
  5
38D
100
AcDbEntity
  8
0
100
AcDbLine
 62
2
  6
CONTINUOUS
 10
17.6378140985
 20
2.4532700835
 11
17.6378140985
 21
2.5809743492
  0
LINE
  5
38E
100
AcDbEntity
  8
0
100
AcDbLine
 62
2
  6
CONTINUOUS
 10
17.6178140874
 20
2.2217269714
 11
17.6178140874
 21
2.3524650276
  0
LINE
  5
38F
100
AcDbEntity
  8
0
100
AcDbLine
 62
2
  6
CONTINUOUS
 10
17.6178140874
 20
2.4532700835
 11
17.6178140874
 21
2.5815051384
  0
LINE
  5
390
100
AcDbEntity
  8
0
100
AcDbLine
 62
2
  6
CONTINUOUS
 10
17.5978140764
 20
2.2215213152
 11
17.5978140764
 21
2.3524650276
  0
LINE
  5
391
100
AcDbEntity
  8
0
100
AcDbLine
 62
2
  6
CONTINUOUS
 10
17.5978140764
 20
2.3772150414
 11
17.5978140764
 21
2.4285200698
  0
LINE
  5
392
100
AcDbEntity
  8
0
100
AcDbLine
 62
2
  6
CONTINUOUS
 10
17.5978140764
 20
2.4532700835
 11
17.5978140764
 21
2.5817107946
  0
LINE
  5
393
100
AcDbEntity
  8
0
100
AcDbLine
 62
2
  6
CONTINUOUS
 10
17.5778140653
 20
2.2216974783
 11
17.5778140653
 21
2.5815346315
  0
LINE
  5
394
100
AcDbEntity
  8
0
100
AcDbLine
 62
2
  6
CONTINUOUS
 10
17.5578140542
 20
2.2218736414
 11
17.5578140542
 21
2.4285200698
  0
LINE
  5
395
100
AcDbEntity
  8
0
100
AcDbLine
 62
2
  6
CONTINUOUS
 10
17.5578140542
 20
2.4532700835
 11
17.5578140542
 21
2.5813584684
  0
LINE
  5
396
100
AcDbEntity
  8
0
100
AcDbLine
 62
2
  6
CONTINUOUS
 10
17.5378140431
 20
2.2220498045
 11
17.5378140431
 21
2.3524700714
  0
LINE
  5
397
100
AcDbEntity
  8
0
100
AcDbLine
 62
2
  6
CONTINUOUS
 10
17.5378140431
 20
2.4532700835
 11
17.5378140431
 21
2.5811823053
  0
LINE
  5
398
100
AcDbEntity
  8
0
100
AcDbLine
 62
2
  6
CONTINUOUS
 10
17.517814032
 20
2.2222259676
 11
17.517814032
 21
2.3524650276
  0
LINE
  5
399
100
AcDbEntity
  8
0
100
AcDbLine
 62
2
  6
CONTINUOUS
 10
17.517814032
 20
2.4532700835
 11
17.517814032
 21
2.5810061422
  0
LINE
  5
39A
100
AcDbEntity
  8
0
100
AcDbLine
 62
2
  6
CONTINUOUS
 10
17.4978140209
 20
2.2224021307
 11
17.4978140209
 21
2.3524650276
  0
LINE
  5
39B
100
AcDbEntity
  8
0
100
AcDbLine
 62
2
  6
CONTINUOUS
 10
17.4978140209
 20
2.4008904169
 11
17.4978140209
 21
2.4285200698
  0
LINE
  5
39C
100
AcDbEntity
  8
0
100
AcDbLine
 62
2
  6
CONTINUOUS
 10
17.4978140209
 20
2.4532700835
 11
17.4978140209
 21
2.5808299791
  0
LINE
  5
39D
100
AcDbEntity
  8
0
100
AcDbLine
 62
2
  6
CONTINUOUS
 10
17.4778140098
 20
2.2225782938
 11
17.4778140098
 21
2.3524650276
  0
LINE
  5
39E
100
AcDbEntity
  8
0
100
AcDbLine
 62
2
  6
CONTINUOUS
 10
17.4778140098
 20
2.4199732652
 11
17.4778140098
 21
2.580653816
  0
LINE
  5
39F
100
AcDbEntity
  8
0
100
AcDbLine
 62
2
  6
CONTINUOUS
 10
17.4578139987
 20
2.2233466716
 11
17.4578139987
 21
2.3569558199
  0
LINE
  5
3A0
100
AcDbEntity
  8
0
100
AcDbLine
 62
2
  6
CONTINUOUS
 10
17.4578139987
 20
2.4390561136
 11
17.4578139987
 21
2.5798854382
  0
LINE
  5
3A1
100
AcDbEntity
  8
0
100
AcDbLine
 62
2
  6
CONTINUOUS
 10
17.4378139876
 20
2.2242391079
 11
17.4378139876
 21
2.3760386371
  0
LINE
  5
3A2
100
AcDbEntity
  8
0
100
AcDbLine
 62
2
  6
CONTINUOUS
 10
17.4378139876
 20
2.4532700835
 11
17.4378139876
 21
2.5789930018
  0
LINE
  5
3A3
100
AcDbEntity
  8
0
100
AcDbLine
 62
2
  6
CONTINUOUS
 10
17.4178139765
 20
2.2251315443
 11
17.4178139765
 21
2.3525640362
  0
LINE
  5
3A4
100
AcDbEntity
  8
0
100
AcDbLine
 62
2
  6
CONTINUOUS
 10
17.4178139765
 20
2.3771160328
 11
17.4178139765
 21
2.3951214543
  0
LINE
  5
3A5
100
AcDbEntity
  8
0
100
AcDbLine
 62
2
  6
CONTINUOUS
 10
17.4178139765
 20
2.4532700835
 11
17.4178139765
 21
2.5781005655
  0
LINE
  5
3A6
100
AcDbEntity
  8
0
100
AcDbLine
 62
2
  6
CONTINUOUS
 10
17.3978139654
 20
2.2260239807
 11
17.3978139654
 21
2.3524650276
  0
LINE
  5
3A7
100
AcDbEntity
  8
0
100
AcDbLine
 62
2
  6
CONTINUOUS
 10
17.3978139654
 20
2.3772150414
 11
17.3978139654
 21
2.4139978698
  0
LINE
  5
3A8
100
AcDbEntity
  8
0
100
AcDbLine
 62
2
  6
CONTINUOUS
 10
17.3978139654
 20
2.4532700835
 11
17.3978139654
 21
2.5772081291
  0
LINE
  5
3A9
100
AcDbEntity
  8
0
100
AcDbLine
 62
2
  6
CONTINUOUS
 10
17.3778139543
 20
2.226916417
 11
17.3778139543
 21
2.3524650276
  0
LINE
  5
3AA
100
AcDbEntity
  8
0
100
AcDbLine
 62
2
  6
CONTINUOUS
 10
17.3778139543
 20
2.4532700835
 11
17.3778139543
 21
2.5763156928
  0
LINE
  5
3AB
100
AcDbEntity
  8
0
100
AcDbLine
 62
2
  6
CONTINUOUS
 10
17.3578139433
 20
2.2278088534
 11
17.3578139433
 21
2.3524650276
  0
LINE
  5
3AC
100
AcDbEntity
  8
0
100
AcDbLine
 62
2
  6
CONTINUOUS
 10
17.3578139433
 20
2.3772150414
 11
17.3578139433
 21
2.4285200698
  0
LINE
  5
3AD
100
AcDbEntity
  8
0
100
AcDbLine
 62
2
  6
CONTINUOUS
 10
17.3578139433
 20
2.4532700835
 11
17.3578139433
 21
2.5754232564
  0
LINE
  5
3AE
100
AcDbEntity
  8
0
100
AcDbLine
 62
2
  6
CONTINUOUS
 10
17.3378139322
 20
2.2289481171
 11
17.3378139322
 21
2.5742839927
  0
LINE
  5
3AF
100
AcDbEntity
  8
0
100
AcDbLine
 62
2
  6
CONTINUOUS
 10
17.3178139211
 20
2.2306059865
 11
17.3178139211
 21
2.5726261233
  0
LINE
  5
3B0
100
AcDbEntity
  8
0
100
AcDbLine
 62
2
  6
CONTINUOUS
 10
17.29781391
 20
2.2322638559
 11
17.29781391
 21
2.3524650276
  0
LINE
  5
3B1
100
AcDbEntity
  8
0
100
AcDbLine
 62
2
  6
CONTINUOUS
 10
17.29781391
 20
2.3772150414
 11
17.29781391
 21
2.5709682538
  0
LINE
  5
3B2
100
AcDbEntity
  8
0
100
AcDbLine
 62
2
  6
CONTINUOUS
 10
17.2778138989
 20
2.2339217254
 11
17.2778138989
 21
2.3524650276
  0
LINE
  5
3B3
100
AcDbEntity
  8
0
100
AcDbLine
 62
2
  6
CONTINUOUS
 10
17.2778138989
 20
2.3963499423
 11
17.2778138989
 21
2.5693103844
  0
LINE
  5
3B4
100
AcDbEntity
  8
0
100
AcDbLine
 62
2
  6
CONTINUOUS
 10
17.2578138878
 20
2.2355795948
 11
17.2578138878
 21
2.3524650276
  0
LINE
  5
3B5
100
AcDbEntity
  8
0
100
AcDbLine
 62
2
  6
CONTINUOUS
 10
17.2578138878
 20
2.4272549766
 11
17.2578138878
 21
2.567652515
  0
LINE
  5
3B6
100
AcDbEntity
  8
0
100
AcDbLine
 62
2
  6
CONTINUOUS
 10
17.2378138767
 20
2.2372374642
 11
17.2378138767
 21
2.3524650276
  0
LINE
  5
3B7
100
AcDbEntity
  8
0
100
AcDbLine
 62
2
  6
CONTINUOUS
 10
17.2378138767
 20
2.4532700835
 11
17.2378138767
 21
2.5659946456
  0
LINE
  5
3B8
100
AcDbEntity
  8
0
100
AcDbLine
 62
2
  6
CONTINUOUS
 10
17.2178138656
 20
2.2389952421
 11
17.2178138656
 21
2.3524650276
  0
LINE
  5
3B9
100
AcDbEntity
  8
0
100
AcDbLine
 62
2
  6
CONTINUOUS
 10
17.2178138656
 20
2.3772150414
 11
17.2178138656
 21
2.3887495968
  0
LINE
  5
3BA
100
AcDbEntity
  8
0
100
AcDbLine
 62
2
  6
CONTINUOUS
 10
17.2178138656
 20
2.4532700835
 11
17.2178138656
 21
2.5642368677
  0
LINE
  5
3BB
100
AcDbEntity
  8
0
100
AcDbLine
 62
2
  6
CONTINUOUS
 10
17.1978138545
 20
2.2415190955
 11
17.1978138545
 21
2.3908590489
  0
LINE
  5
3BC
100
AcDbEntity
  8
0
100
AcDbLine
 62
2
  6
CONTINUOUS
 10
17.1978138545
 20
2.4118090605
 11
17.1978138545
 21
2.4279760695
  0
LINE
  5
3BD
100
AcDbEntity
  8
0
100
AcDbLine
 62
2
  6
CONTINUOUS
 10
17.1978138545
 20
2.4532700835
 11
17.1978138545
 21
2.5617130143
  0
LINE
  5
3BE
100
AcDbEntity
  8
0
100
AcDbLine
 62
2
  6
CONTINUOUS
 10
17.1778138434
 20
2.244042949
 11
17.1778138434
 21
2.3524650276
  0
LINE
  5
3BF
100
AcDbEntity
  8
0
100
AcDbLine
 62
2
  6
CONTINUOUS
 10
17.1778138434
 20
2.3772150414
 11
17.1778138434
 21
2.3892044865
  0
LINE
  5
3C0
100
AcDbEntity
  8
0
100
AcDbLine
 62
2
  6
CONTINUOUS
 10
17.1778138434
 20
2.4480979218
 11
17.1778138434
 21
2.5591891608
  0
LINE
  5
3C1
100
AcDbEntity
  8
0
100
AcDbLine
 62
2
  6
CONTINUOUS
 10
17.1578138323
 20
2.2465668024
 11
17.1578138323
 21
2.3524650276
  0
LINE
  5
3C2
100
AcDbEntity
  8
0
100
AcDbLine
 62
2
  6
CONTINUOUS
 10
17.1578138323
 20
2.4165778189
 11
17.1578138323
 21
2.5566653073
  0
LINE
  5
3C3
100
AcDbEntity
  8
0
100
AcDbLine
 62
2
  6
CONTINUOUS
 10
17.1378138213
 20
2.2490906559
 11
17.1378138213
 21
2.3524650276
  0
LINE
  5
3C4
100
AcDbEntity
  8
0
100
AcDbLine
 62
2
  6
CONTINUOUS
 10
17.1378138213
 20
2.3850577159
 11
17.1378138213
 21
2.5541414539
  0
LINE
  5
3C5
100
AcDbEntity
  8
0
100
AcDbLine
 62
2
  6
CONTINUOUS
 10
17.1178138102
 20
2.2516145094
 11
17.1178138102
 21
2.3524650276
  0
LINE
  5
3C6
100
AcDbEntity
  8
0
100
AcDbLine
 62
2
  6
CONTINUOUS
 10
17.1178138102
 20
2.3772150414
 11
17.1178138102
 21
2.5516176004
  0
LINE
  5
3C7
100
AcDbEntity
  8
0
100
AcDbLine
 62
2
  6
CONTINUOUS
 10
17.0978137991
 20
2.2544171186
 11
17.0978137991
 21
2.5488149912
  0
LINE
  5
3C8
100
AcDbEntity
  8
0
100
AcDbLine
 62
2
  6
CONTINUOUS
 10
17.077813788
 20
2.2577020445
 11
17.077813788
 21
2.362615113
  0
LINE
  5
3C9
100
AcDbEntity
  8
0
100
AcDbLine
 62
2
  6
CONTINUOUS
 10
17.077813788
 20
2.3938117115
 11
17.077813788
 21
2.4149601455
  0
LINE
  5
3CA
100
AcDbEntity
  8
0
100
AcDbLine
 62
2
  6
CONTINUOUS
 10
17.077813788
 20
2.4403850542
 11
17.077813788
 21
2.5455300653
  0
LINE
  5
3CB
100
AcDbEntity
  8
0
100
AcDbLine
 62
2
  6
CONTINUOUS
 10
17.0578137769
 20
2.2609869704
 11
17.0578137769
 21
2.3533399802
  0
LINE
  5
3CC
100
AcDbEntity
  8
0
100
AcDbLine
 62
2
  6
CONTINUOUS
 10
17.0578137769
 20
2.4508307102
 11
17.0578137769
 21
2.5422451394
  0
LINE
  5
3CD
100
AcDbEntity
  8
0
100
AcDbLine
 62
2
  6
CONTINUOUS
 10
17.0378137658
 20
2.2646895914
 11
17.0378137658
 21
2.3524650276
  0
LINE
  5
3CE
100
AcDbEntity
  8
0
100
AcDbLine
 62
2
  6
CONTINUOUS
 10
17.0378137658
 20
2.4532700835
 11
17.0378137658
 21
2.5385425184
  0
LINE
  5
3CF
100
AcDbEntity
  8
0
100
AcDbLine
 62
2
  6
CONTINUOUS
 10
17.0178137547
 20
2.2685623514
 11
17.0178137547
 21
2.3524650276
  0
LINE
  5
3D0
100
AcDbEntity
  8
0
100
AcDbLine
 62
2
  6
CONTINUOUS
 10
17.0178137547
 20
2.4532700835
 11
17.0178137547
 21
2.5346697584
  0
LINE
  5
3D1
100
AcDbEntity
  8
0
100
AcDbLine
 62
2
  6
CONTINUOUS
 10
16.9978137436
 20
2.2725871112
 11
16.9978137436
 21
2.3524650276
  0
LINE
  5
3D2
100
AcDbEntity
  8
0
100
AcDbLine
 62
2
  6
CONTINUOUS
 10
16.9978137436
 20
2.3772150414
 11
16.9978137436
 21
2.394540051
  0
LINE
  5
3D3
100
AcDbEntity
  8
0
100
AcDbLine
 62
2
  6
CONTINUOUS
 10
16.9978137436
 20
2.4111950602
 11
16.9978137436
 21
2.4285200698
  0
LINE
  5
3D4
100
AcDbEntity
  8
0
100
AcDbLine
 62
2
  6
CONTINUOUS
 10
16.9978137436
 20
2.4532700835
 11
16.9978137436
 21
2.5306449986
  0
LINE
  5
3D5
100
AcDbEntity
  8
0
100
AcDbLine
 62
2
  6
CONTINUOUS
 10
16.9778137325
 20
2.2771382649
 11
16.9778137325
 21
2.3524650276
  0
LINE
  5
3D6
100
AcDbEntity
  8
0
100
AcDbLine
 62
2
  6
CONTINUOUS
 10
16.9778137325
 20
2.3772150414
 11
16.9778137325
 21
2.394540051
  0
LINE
  5
3D7
100
AcDbEntity
  8
0
100
AcDbLine
 62
2
  6
CONTINUOUS
 10
16.9778137325
 20
2.4111950602
 11
16.9778137325
 21
2.4285200698
  0
LINE
  5
3D8
100
AcDbEntity
  8
0
100
AcDbLine
 62
2
  6
CONTINUOUS
 10
16.9778137325
 20
2.4532700835
 11
16.9778137325
 21
2.5260938449
  0
LINE
  5
3D9
100
AcDbEntity
  8
0
100
AcDbLine
 62
2
  6
CONTINUOUS
 10
16.9578137214
 20
2.2816894185
 11
16.9578137214
 21
2.3524650276
  0
LINE
  5
3DA
100
AcDbEntity
  8
0
100
AcDbLine
 62
2
  6
CONTINUOUS
 10
16.9578137214
 20
2.4532700835
 11
16.9578137214
 21
2.5215426913
  0
LINE
  5
3DB
100
AcDbEntity
  8
0
100
AcDbLine
 62
2
  6
CONTINUOUS
 10
16.9378137103
 20
2.2869815362
 11
16.9378137103
 21
2.3524650276
  0
LINE
  5
3DC
100
AcDbEntity
  8
0
100
AcDbLine
 62
2
  6
CONTINUOUS
 10
16.9378137103
 20
2.4532700835
 11
16.9378137103
 21
2.5162505736
  0
LINE
  5
3DD
100
AcDbEntity
  8
0
100
AcDbLine
 62
2
  6
CONTINUOUS
 10
16.9178136992
 20
2.2923355811
 11
16.9178136992
 21
2.3524650276
  0
LINE
  5
3DE
100
AcDbEntity
  8
0
100
AcDbLine
 62
2
  6
CONTINUOUS
 10
16.9178136992
 20
2.4532700835
 11
16.9178136992
 21
2.5108965286
  0
LINE
  5
3DF
100
AcDbEntity
  8
0
100
AcDbLine
 62
2
  6
CONTINUOUS
 10
16.8978136882
 20
2.2984943577
 11
16.8978136882
 21
2.3524650276
  0
LINE
  5
3E0
100
AcDbEntity
  8
0
100
AcDbLine
 62
2
  6
CONTINUOUS
 10
16.8978136882
 20
2.3772150414
 11
16.8978136882
 21
2.4285200698
  0
LINE
  5
3E1
100
AcDbEntity
  8
0
100
AcDbLine
 62
2
  6
CONTINUOUS
 10
16.8978136882
 20
2.4532700835
 11
16.8978136882
 21
2.5047377521
  0
LINE
  5
3E2
100
AcDbEntity
  8
0
100
AcDbLine
 62
2
  6
CONTINUOUS
 10
16.8778136771
 20
2.3048274854
 11
16.8778136771
 21
2.3524650276
  0
LINE
  5
3E3
100
AcDbEntity
  8
0
100
AcDbLine
 62
2
  6
CONTINUOUS
 10
16.8778136771
 20
2.3772150414
 11
16.8778136771
 21
2.4285200698
  0
LINE
  5
3E4
100
AcDbEntity
  8
0
100
AcDbLine
 62
2
  6
CONTINUOUS
 10
16.8778136771
 20
2.4532700835
 11
16.8778136771
 21
2.4984046244
  0
LINE
  5
3E5
100
AcDbEntity
  8
0
100
AcDbLine
 62
2
  6
CONTINUOUS
 10
16.857813666
 20
2.312318358
 11
16.857813666
 21
2.4909137517
  0
LINE
  5
3E6
100
AcDbEntity
  8
0
100
AcDbLine
 62
2
  6
CONTINUOUS
 10
16.8378136549
 20
2.3203393667
 11
16.8378136549
 21
2.4828927431
  0
LINE
  5
3E7
100
AcDbEntity
  8
0
100
AcDbLine
 62
2
  6
CONTINUOUS
 10
16.8178136438
 20
2.3295519864
 11
16.8178136438
 21
2.4736801234
  0
LINE
  5
3E8
100
AcDbEntity
  8
0
100
AcDbLine
 62
2
  6
CONTINUOUS
 10
16.7978136327
 20
2.3407309483
 11
16.7978136327
 21
2.4625011614
  0
LINE
  5
3E9
100
AcDbEntity
  8
0
100
AcDbLine
 62
2
  6
CONTINUOUS
 10
16.7778136216
 20
2.3546527809
 11
16.7778136216
 21
2.4485793288
  0
LINE
  5
3EA
100
AcDbEntity
  8
0
100
AcDbLine
 62
2
  6
CONTINUOUS
 10
16.7578136105
 20
2.3756826696
 11
16.7578136105
 21
2.4275494401
  0
ENDBLK
  5
3EB
100
AcDbEntity
  8
0
  6
BYBLOCK
 62
0
100
AcDbBlockEnd
  0
BLOCK
  5
3EC
100
AcDbEntity
  8
0
100
AcDbBlockBegin
  2
_FILLED
 70
64
 10
0.0
 20
0.0
  3
_FILLED
  1

  0
SOLID
  5
3ED
100
AcDbEntity
  8
0
  6
BYBLOCK
 62
0
100
AcDbTrace
 10
0.0
 20
0.0
 11
-1.0
 21
0.1666666667
 12
-1.0
 22
-0.1666666667
 13
-1.0
 23
-0.1666666667
  0
ENDBLK
  5
3EE
100
AcDbEntity
  8
0
  6
BYBLOCK
 62
0
100
AcDbBlockEnd
  0
BLOCK
  5
3EF
100
AcDbEntity
  8
0
100
AcDbBlockBegin
  2
_NONE
 70
64
 10
0.0
 20
0.0
  3
_NONE
  1

  0
ENDBLK
  5
3F0
100
AcDbEntity
  8
0
  6
BYBLOCK
 62
0
100
AcDbBlockEnd
  0
BLOCK
  5
3F1
100
AcDbEntity
  8
SCHEME_DIMS
100
AcDbBlockBegin
 62
2
  6
CONTINUOUS
  2
*D0
 70
65
 10
0.0
 20
0.0
  3
*D0
  1

  0
MTEXT
  5
3F2
100
AcDbEntity
  8
SCHEME_DIMS
100
AcDbMText
 62
2
  6
CONTINUOUS
  7
STANDARD
 71
2
 72
1
 10
8.0607668377
 20
4.1616659802
 30
0.0
 11
1.0
 21
0.0
 31
0.0
 44
0.9
  1
31\P[1.22]
 40
0.1
 41
0.6
  0
LINE
  5
3F3
100
AcDbEntity
  8
SCHEME_DIMS
100
AcDbLine
 62
2
  6
CONTINUOUS
 10
8.9271529397
 20
4.7219022007
 11
8.1357668377
 21
4.7219022007
  0
LINE
  5
3F4
100
AcDbEntity
  8
SCHEME_DIMS
100
AcDbLine
 62
2
  6
CONTINUOUS
 10
8.9258446382
 20
3.5014297598
 11
8.1357668377
 21
3.5014297598
  0
LINE
  5
3F5
100
AcDbEntity
  8
SCHEME_DIMS
100
AcDbLine
 62
2
  6
CONTINUOUS
 10
8.2607668377
 20
4.7219022007
 11
8.2607668377
 21
4.2616659802
  0
LINE
  5
3F6
100
AcDbEntity
  8
SCHEME_DIMS
100
AcDbLine
 62
2
  6
CONTINUOUS
 10
8.2607668377
 20
3.5014297598
 11
8.2607668377
 21
3.8116659802
  0
INSERT
  5
3F7
100
AcDbEntity
  8
SCHEME_DIMS
100
AcDbBlockReference
 62
2
  6
CONTINUOUS
  2
_FILLED
 10
8.2607668377
 20
4.7219022007
 41
0.1875
 42
0.1875
 43
0.1875
 50
90.0
  0
INSERT
  5
3F8
100
AcDbEntity
  8
SCHEME_DIMS
100
AcDbBlockReference
 62
2
  6
CONTINUOUS
  2
_FILLED
 10
8.2607668377
 20
3.5014297598
 41
0.1875
 42
0.1875
 43
0.1875
 50
270.0
  0
ENDBLK
  5
3F9
100
AcDbEntity
  8
0
  6
BYBLOCK
 62
0
100
AcDbBlockEnd
  0
BLOCK
  5
3FA
100
AcDbEntity
  8
SCHEME_DIMS
100
AcDbBlockBegin
 62
2
  6
CONTINUOUS
  2
*D1
 70
65
 10
0.0
 20
0.0
  3
*D1
  1

  0
MTEXT
  5
3FB
100
AcDbEntity
  8
SCHEME_DIMS
100
AcDbMText
 62
2
  6
CONTINUOUS
  7
STANDARD
 71
2
 72
1
 10
10.3200418364
 20
10.6511775863
 30
0.0
 11
1.0
 21
0.0
 31
0.0
 44
0.9
  1
81,4\P[3.20]
 40
0.1
 41
0.6
  0
LINE
  5
3FC
100
AcDbEntity
  8
SCHEME_DIMS
100
AcDbLine
 62
2
  6
CONTINUOUS
 10
9.0131129106
 20
9.6401868096
 11
9.0131129106
 21
10.7261775863
  0
LINE
  5
3FD
100
AcDbEntity
  8
SCHEME_DIMS
100
AcDbLine
 62
2
  6
CONTINUOUS
 10
12.217241035
 20
9.393052218
 11
12.217241035
 21
10.7261775863
  0
LINE
  5
3FE
100
AcDbEntity
  8
SCHEME_DIMS
100
AcDbLine
 62
2
  6
CONTINUOUS
 10
9.0131129106
 20
10.6011775863
 11
10.0200418364
 21
10.6011775863
  0
LINE
  5
3FF
100
AcDbEntity
  8
SCHEME_DIMS
100
AcDbLine
 62
2
  6
CONTINUOUS
 10
12.217241035
 20
10.6011775863
 11
10.8200418364
 21
10.6011775863
  0
INSERT
  5
400
100
AcDbEntity
  8
SCHEME_DIMS
100
AcDbBlockReference
 62
2
  6
CONTINUOUS
  2
_FILLED
 10
9.0131129106
 20
10.6011775863
 41
0.1875
 42
0.1875
 43
0.1875
 50
180.0
  0
INSERT
  5
401
100
AcDbEntity
  8
SCHEME_DIMS
100
AcDbBlockReference
 62
2
  6
CONTINUOUS
  2
_FILLED
 10
12.217241035
 20
10.6011775863
 41
0.1875
 42
0.1875
 43
0.1875
  0
ENDBLK
  5
402
100
AcDbEntity
  8
0
  6
BYBLOCK
 62
0
100
AcDbBlockEnd
  0
BLOCK
  5
403
100
AcDbEntity
  8
SCHEME_DIMS
100
AcDbBlockBegin
 62
2
  6
CONTINUOUS
  2
*D2
 70
65
 10
0.0
 20
0.0
  3
*D2
  1

  0
MTEXT
  5
404
100
AcDbEntity
  8
SCHEME_DIMS
100
AcDbMText
 62
2
  6
CONTINUOUS
  7
STANDARD
 71
2
 72
1
 10
11.8474998074
 20
10.1834873633
 30
0.0
 11
1.0
 21
0.0
 31
0.0
 44
0.9
  1
14\P[.5]
 40
0.1
 41
0.4
  0
LINE
  5
405
100
AcDbEntity
  8
SCHEME_DIMS
100
AcDbLine
 62
2
  6
CONTINUOUS
 10
11.6777585799
 20
8.2028255445
 11
11.6777585799
 21
10.2584873633
  0
LINE
  5
406
100
AcDbEntity
  8
SCHEME_DIMS
100
AcDbLine
 62
2
  6
CONTINUOUS
 10
12.217241035
 20
9.393052218
 11
12.217241035
 21
10.2584873633
  0
LINE
  5
407
100
AcDbEntity
  8
SCHEME_DIMS
100
AcDbLine
 62
2
  6
CONTINUOUS
 10
11.6777585799
 20
10.1334873633
 11
11.2777585799
 21
10.1334873633
  0
LINE
  5
408
100
AcDbEntity
  8
SCHEME_DIMS
100
AcDbLine
 62
2
  6
CONTINUOUS
 10
12.217241035
 20
10.1334873633
 11
12.617241035
 21
10.1334873633
  0
INSERT
  5
409
100
AcDbEntity
  8
SCHEME_DIMS
100
AcDbBlockReference
 62
2
  6
CONTINUOUS
  2
_FILLED
 10
11.6777585799
 20
10.1334873633
 41
0.1875
 42
0.1875
 43
0.1875
  0
INSERT
  5
40A
100
AcDbEntity
  8
SCHEME_DIMS
100
AcDbBlockReference
 62
2
  6
CONTINUOUS
  2
_FILLED
 10
12.217241035
 20
10.1334873633
 41
0.1875
 42
0.1875
 43
0.1875
 50
180.0
  0
ENDBLK
  5
40B
100
AcDbEntity
  8
0
  6
BYBLOCK
 62
0
100
AcDbBlockEnd
  0
BLOCK
  5
40C
100
AcDbEntity
  8
SCHEME_DIMS
100
AcDbBlockBegin
 62
2
  6
CONTINUOUS
  2
*D3
 70
65
 10
0.0
 20
0.0
  3
*D3
  1

  0
MTEXT
  5
40D
100
AcDbEntity
  8
SCHEME_DIMS
100
AcDbMText
 62
2
  6
CONTINUOUS
  7
STANDARD
 71
2
 72
1
 10
12.3603218876
 20
10.6511775863
 30
0.0
 11
1.0
 21
0.0
 31
0.0
 44
0.9
  1
15\P[.59]
 40
0.1
 41
0.5
  0
LINE
  5
40E
100
AcDbEntity
  8
SCHEME_DIMS
100
AcDbLine
 62
2
  6
CONTINUOUS
 10
12.8034027401
 20
8.9039466521
 11
12.8034027401
 21
10.7261775863
  0
LINE
  5
40F
100
AcDbEntity
  8
SCHEME_DIMS
100
AcDbLine
 62
2
  6
CONTINUOUS
 10
12.217241035
 20
9.393052218
 11
12.217241035
 21
10.7261775863
  0
LINE
  5
410
100
AcDbEntity
  8
SCHEME_DIMS
100
AcDbLine
 62
2
  6
CONTINUOUS
 10
12.8034027401
 20
10.6011775863
 11
13.2034027401
 21
10.6011775863
  0
LINE
  5
411
100
AcDbEntity
  8
SCHEME_DIMS
100
AcDbLine
 62
2
  6
CONTINUOUS
 10
12.217241035
 20
10.6011775863
 11
11.817241035
 21
10.6011775863
  0
INSERT
  5
412
100
AcDbEntity
  8
SCHEME_DIMS
100
AcDbBlockReference
 62
2
  6
CONTINUOUS
  2
_FILLED
 10
12.8034027401
 20
10.6011775863
 41
0.1875
 42
0.1875
 43
0.1875
 50
180.0
  0
INSERT
  5
413
100
AcDbEntity
  8
SCHEME_DIMS
100
AcDbBlockReference
 62
2
  6
CONTINUOUS
  2
_FILLED
 10
12.217241035
 20
10.6011775863
 41
0.1875
 42
0.1875
 43
0.1875
  0
ENDBLK
  5
414
100
AcDbEntity
  8
0
  6
BYBLOCK
 62
0
100
AcDbBlockEnd
  0
BLOCK
  5
415
100
AcDbEntity
  8
SCHEME_DIMS
100
AcDbBlockBegin
 62
2
  6
CONTINUOUS
  2
*D4
 70
65
 10
0.0
 20
0.0
  3
*D4
  1

  0
MTEXT
  5
416
100
AcDbEntity
  8
SCHEME_DIMS
100
AcDbMText
 62
2
  6
CONTINUOUS
  7
STANDARD
 71
2
 72
1
 10
13.137922698
 20
8.7457970458
 30
0.0
 11
1.0
 21
0.0
 31
0.0
 44
0.9
  1
41\P[1.6]
 40
0.1
 41
0.5
  0
LINE
  5
417
100
AcDbEntity
  8
SCHEME_DIMS
100
AcDbLine
 62
2
  6
CONTINUOUS
 10
12.1226393749
 20
9.4989466521
 11
13.412922698
 21
9.4989466521
  0
LINE
  5
418
100
AcDbEntity
  8
SCHEME_DIMS
100
AcDbLine
 62
2
  6
CONTINUOUS
 10
11.9700237321
 20
7.8926474395
 11
13.412922698
 21
7.8926474395
  0
LINE
  5
419
100
AcDbEntity
  8
SCHEME_DIMS
100
AcDbLine
 62
2
  6
CONTINUOUS
 10
13.287922698
 20
9.4989466521
 11
13.287922698
 21
8.8457970458
  0
LINE
  5
41A
100
AcDbEntity
  8
SCHEME_DIMS
100
AcDbLine
 62
2
  6
CONTINUOUS
 10
13.287922698
 20
7.8926474395
 11
13.287922698
 21
8.3957970458
  0
INSERT
  5
41B
100
AcDbEntity
  8
SCHEME_DIMS
100
AcDbBlockReference
 62
2
  6
CONTINUOUS
  2
_FILLED
 10
13.287922698
 20
9.4989466521
 41
0.1875
 42
0.1875
 43
0.1875
 50
90.0
  0
INSERT
  5
41C
100
AcDbEntity
  8
SCHEME_DIMS
100
AcDbBlockReference
 62
2
  6
CONTINUOUS
  2
_FILLED
 10
13.287922698
 20
7.8926474395
 41
0.1875
 42
0.1875
 43
0.1875
 50
270.0
  0
ENDBLK
  5
41D
100
AcDbEntity
  8
0
  6
BYBLOCK
 62
0
100
AcDbBlockEnd
  0
BLOCK
  5
41E
100
AcDbEntity
  8
SCHEME_DIMS
100
AcDbBlockBegin
 62
2
  6
CONTINUOUS
  2
*D5
 70
65
 10
0.0
 20
0.0
  3
*D5
  1

  0
MTEXT
  5
41F
100
AcDbEntity
  8
SCHEME_DIMS
100
AcDbMText
 62
2
  6
CONTINUOUS
  7
STANDARD
 71
2
 72
1
 10
10.9265774775
 20
6.6113059744
 30
0.0
 11
1.0
 21
0.0
 31
0.0
 44
0.9
  1
28\P[1.10]
 40
0.1
 41
0.6
  0
LINE
  5
420
100
AcDbEntity
  8
SCHEME_DIMS
100
AcDbLine
 62
2
  6
CONTINUOUS
 10
10.5753963752
 20
7.582885578
 11
10.5753963752
 21
6.4363059744
  0
LINE
  5
421
100
AcDbEntity
  8
SCHEME_DIMS
100
AcDbLine
 62
2
  6
CONTINUOUS
 10
11.6777585799
 20
7.6117810849
 11
11.6777585799
 21
6.4363059744
  0
LINE
  5
422
100
AcDbEntity
  8
SCHEME_DIMS
100
AcDbLine
 62
2
  6
CONTINUOUS
 10
10.5753963752
 20
6.5613059744
 11
10.1753963752
 21
6.5613059744
  0
LINE
  5
423
100
AcDbEntity
  8
SCHEME_DIMS
100
AcDbLine
 62
2
  6
CONTINUOUS
 10
11.6777585799
 20
6.5613059744
 11
12.0777585799
 21
6.5613059744
  0
INSERT
  5
424
100
AcDbEntity
  8
SCHEME_DIMS
100
AcDbBlockReference
 62
2
  6
CONTINUOUS
  2
_FILLED
 10
10.5753963752
 20
6.5613059744
 41
0.1875
 42
0.1875
 43
0.1875
  0
INSERT
  5
425
100
AcDbEntity
  8
SCHEME_DIMS
100
AcDbBlockReference
 62
2
  6
CONTINUOUS
  2
_FILLED
 10
11.6777585799
 20
6.5613059744
 41
0.1875
 42
0.1875
 43
0.1875
 50
180.0
  0
ENDBLK
  5
426
100
AcDbEntity
  8
0
  6
BYBLOCK
 62
0
100
AcDbBlockEnd
  0
BLOCK
  5
427
100
AcDbEntity
  8
SCHEME_DIMS
100
AcDbBlockBegin
 62
2
  6
CONTINUOUS
  2
*D6
 70
65
 10
0.0
 20
0.0
  3
*D6
  1

  0
MTEXT
  5
428
100
AcDbEntity
  8
SCHEME_DIMS
100
AcDbMText
 62
2
  6
CONTINUOUS
  7
STANDARD
 71
2
 72
1
 10
10.3640754142
 20
10.1834873633
 30
0.0
 11
1.0
 21
0.0
 31
0.0
 44
0.9
  1
52\P[2.05]
 40
0.1
 41
0.6
  0
LINE
  5
429
100
AcDbEntity
  8
SCHEME_DIMS
100
AcDbLine
 62
2
  6
CONTINUOUS
 10
11.6777585799
 20
8.2330652671
 11
11.6777585799
 21
10.2584873633
  0
LINE
  5
42A
100
AcDbEntity
  8
SCHEME_DIMS
100
AcDbLine
 62
2
  6
CONTINUOUS
 10
9.6305144854
 20
9.9476417053
 11
9.6305144854
 21
10.2584873633
  0
LINE
  5
42B
100
AcDbEntity
  8
SCHEME_DIMS
100
AcDbLine
 62
2
  6
CONTINUOUS
 10
11.6777585799
 20
10.1334873633
 11
10.9640754142
 21
10.1334873633
  0
LINE
  5
42C
100
AcDbEntity
  8
SCHEME_DIMS
100
AcDbLine
 62
2
  6
CONTINUOUS
 10
9.6305144854
 20
10.1334873633
 11
10.1640754142
 21
10.1334873633
  0
INSERT
  5
42D
100
AcDbEntity
  8
SCHEME_DIMS
100
AcDbBlockReference
 62
2
  6
CONTINUOUS
  2
_FILLED
 10
11.6777585799
 20
10.1334873633
 41
0.1875
 42
0.1875
 43
0.1875
  0
INSERT
  5
42E
100
AcDbEntity
  8
SCHEME_DIMS
100
AcDbBlockReference
 62
2
  6
CONTINUOUS
  2
_FILLED
 10
9.6305144854
 20
10.1334873633
 41
0.1875
 42
0.1875
 43
0.1875
 50
180.0
  0
ENDBLK
  5
42F
100
AcDbEntity
  8
0
  6
BYBLOCK
 62
0
100
AcDbBlockEnd
  0
BLOCK
  5
430
100
AcDbEntity
  8
SCHEME_DIMS
100
AcDbBlockBegin
 62
2
  6
CONTINUOUS
  2
*D7
 70
65
 10
0.0
 20
0.0
  3
*D7
  1

  0
MTEXT
  5
431
100
AcDbEntity
  8
SCHEME_DIMS
100
AcDbMText
 62
2
  6
CONTINUOUS
  7
STANDARD
 71
2
 72
1
 10
7.6164067338
 20
9.7715106586
 30
0.0
 11
1.0
 21
0.0
 31
0.0
 44
0.9
  1
7,2\P[.28]
 40
0.1
 41
0.5
  0
LINE
  5
432
100
AcDbEntity
  8
SCHEME_DIMS
100
AcDbLine
 62
2
  6
CONTINUOUS
 10
8.9078979672
 20
9.4989466521
 11
7.5914067338
 21
9.4989466521
  0
LINE
  5
433
100
AcDbEntity
  8
SCHEME_DIMS
100
AcDbLine
 62
2
  6
CONTINUOUS
 10
9.4365544005
 20
9.782411219
 11
7.5914067338
 21
9.782411219
  0
LINE
  5
434
100
AcDbEntity
  8
SCHEME_DIMS
100
AcDbLine
 62
2
  6
CONTINUOUS
 10
7.7164067338
 20
9.4989466521
 11
7.7164067338
 21
9.0989466521
  0
LINE
  5
435
100
AcDbEntity
  8
SCHEME_DIMS
100
AcDbLine
 62
2
  6
CONTINUOUS
 10
7.7164067338
 20
9.782411219
 11
7.7164067338
 21
10.182411219
  0
INSERT
  5
436
100
AcDbEntity
  8
SCHEME_DIMS
100
AcDbBlockReference
 62
2
  6
CONTINUOUS
  2
_FILLED
 10
7.7164067338
 20
9.4989466521
 41
0.1875
 42
0.1875
 43
0.1875
 50
90.0
  0
INSERT
  5
437
100
AcDbEntity
  8
SCHEME_DIMS
100
AcDbBlockReference
 62
2
  6
CONTINUOUS
  2
_FILLED
 10
7.7164067338
 20
9.782411219
 41
0.1875
 42
0.1875
 43
0.1875
 50
270.0
  0
ENDBLK
  5
438
100
AcDbEntity
  8
0
  6
BYBLOCK
 62
0
100
AcDbBlockEnd
  0
BLOCK
  5
439
100
AcDbEntity
  8
SCHEME_DIMS
100
AcDbBlockBegin
 62
2
  6
CONTINUOUS
  2
*D8
 70
65
 10
0.0
 20
0.0
  3
*D8
  1

  0
MTEXT
  5
43A
100
AcDbEntity
  8
SCHEME_DIMS
100
AcDbMText
 62
2
  6
CONTINUOUS
  7
STANDARD
 71
2
 72
1
 10
7.5164067338
 20
8.3545459558
 30
0.0
 11
1.0
 21
0.0
 31
0.0
 44
0.9
  1
53\P[2.09]
 40
0.1
 41
0.6
  0
LINE
  5
43B
100
AcDbEntity
  8
SCHEME_DIMS
100
AcDbLine
 62
2
  6
CONTINUOUS
 10
8.8618067926
 20
9.4989466521
 11
7.5914067338
 21
9.4989466521
  0
LINE
  5
43C
100
AcDbEntity
  8
SCHEME_DIMS
100
AcDbLine
 62
2
  6
CONTINUOUS
 10
9.1671483437
 20
7.4123324789
 11
7.5914067338
 21
7.4123324789
  0
LINE
  5
43D
100
AcDbEntity
  8
SCHEME_DIMS
100
AcDbLine
 62
2
  6
CONTINUOUS
 10
7.7164067338
 20
9.4989466521
 11
7.7164067338
 21
8.4545459558
  0
LINE
  5
43E
100
AcDbEntity
  8
SCHEME_DIMS
100
AcDbLine
 62
2
  6
CONTINUOUS
 10
7.7164067338
 20
7.4123324789
 11
7.7164067338
 21
8.0045459558
  0
INSERT
  5
43F
100
AcDbEntity
  8
SCHEME_DIMS
100
AcDbBlockReference
 62
2
  6
CONTINUOUS
  2
_FILLED
 10
7.7164067338
 20
9.4989466521
 41
0.1875
 42
0.1875
 43
0.1875
 50
90.0
  0
INSERT
  5
440
100
AcDbEntity
  8
SCHEME_DIMS
100
AcDbBlockReference
 62
2
  6
CONTINUOUS
  2
_FILLED
 10
7.7164067338
 20
7.4123324789
 41
0.1875
 42
0.1875
 43
0.1875
 50
270.0
  0
ENDBLK
  5
441
100
AcDbEntity
  8
0
  6
BYBLOCK
 62
0
100
AcDbBlockEnd
  0
BLOCK
  5
442
100
AcDbEntity
  8
SCHEME_DIMS
100
AcDbBlockBegin
 62
2
  6
CONTINUOUS
  2
*D9
 70
65
 10
0.0
 20
0.0
  3
*D9
  1

  0
MTEXT
  5
443
100
AcDbEntity
  8
SCHEME_DIMS
100
AcDbMText
 62
2
  6
CONTINUOUS
  7
STANDARD
 71
2
 72
1
 10
18.5531704603
 20
9.2497237617
 30
0.0
 11
1.0
 21
0.0
 31
0.0
 44
0.9
  1
24,5\P[.96]
 40
0.1
 41
0.5
  0
LINE
  5
444
100
AcDbEntity
  8
SCHEME_DIMS
100
AcDbLine
 62
2
  6
CONTINUOUS
 10
17.7520321928
 20
8.6131198804
 11
18.7281704603
 21
8.6131198804
  0
LINE
  5
445
100
AcDbEntity
  8
SCHEME_DIMS
100
AcDbLine
 62
2
  6
CONTINUOUS
 10
18.0029462699
 20
9.5776868096
 11
18.7281704603
 21
9.5776868096
  0
LINE
  5
446
100
AcDbEntity
  8
SCHEME_DIMS
100
AcDbLine
 62
2
  6
CONTINUOUS
 10
18.6031704603
 20
8.6131198804
 11
18.6031704603
 21
8.8997237617
  0
LINE
  5
447
100
AcDbEntity
  8
SCHEME_DIMS
100
AcDbLine
 62
2
  6
CONTINUOUS
 10
18.6031704603
 20
9.5776868096
 11
18.6031704603
 21
9.3497237617
  0
INSERT
  5
448
100
AcDbEntity
  8
SCHEME_DIMS
100
AcDbBlockReference
 62
2
  6
CONTINUOUS
  2
_FILLED
 10
18.6031704603
 20
8.6131198804
 41
0.1875
 42
0.1875
 43
0.1875
 50
270.0
  0
INSERT
  5
449
100
AcDbEntity
  8
SCHEME_DIMS
100
AcDbBlockReference
 62
2
  6
CONTINUOUS
  2
_FILLED
 10
18.6031704603
 20
9.5776868096
 41
0.1875
 42
0.1875
 43
0.1875
 50
90.0
  0
ENDBLK
  5
44A
100
AcDbEntity
  8
0
  6
BYBLOCK
 62
0
100
AcDbBlockEnd
  0
BLOCK
  5
44B
100
AcDbEntity
  8
SCHEME_DIMS
100
AcDbBlockBegin
 62
2
  6
CONTINUOUS
  2
*D10
 70
65
 10
0.0
 20
0.0
  3
*D10
  1

  0
MTEXT
  5
44C
100
AcDbEntity
  8
SCHEME_DIMS
100
AcDbMText
 62
2
  6
CONTINUOUS
  7
STANDARD
 71
2
 72
1
 10
13.2119537723
 20
13.702380856
 30
0.0
 11
1.0
 21
0.0
 31
0.0
 44
0.9
  1
21\P[.83]
 40
0.1
 41
0.5
  0
LINE
  5
44D
100
AcDbEntity
  8
SCHEME_DIMS
100
AcDbLine
 62
2
  6
CONTINUOUS
 10
12.0694260421
 20
13.9439150689
 11
13.4869537723
 21
13.9439150689
  0
LINE
  5
44E
100
AcDbEntity
  8
SCHEME_DIMS
100
AcDbLine
 62
2
  6
CONTINUOUS
 10
12.0776021571
 20
13.1171434154
 11
13.4869537723
 21
13.1171434154
  0
LINE
  5
44F
100
AcDbEntity
  8
SCHEME_DIMS
100
AcDbLine
 62
2
  6
CONTINUOUS
 10
13.3619537723
 20
13.9439150689
 11
13.3619537723
 21
13.802380856
  0
LINE
  5
450
100
AcDbEntity
  8
SCHEME_DIMS
100
AcDbLine
 62
2
  6
CONTINUOUS
 10
13.3619537723
 20
13.1171434154
 11
13.3619537723
 21
13.352380856
  0
INSERT
  5
451
100
AcDbEntity
  8
SCHEME_DIMS
100
AcDbBlockReference
 62
2
  6
CONTINUOUS
  2
_FILLED
 10
13.3619537723
 20
13.9439150689
 41
0.1875
 42
0.1875
 43
0.1875
 50
90.0
  0
INSERT
  5
452
100
AcDbEntity
  8
SCHEME_DIMS
100
AcDbBlockReference
 62
2
  6
CONTINUOUS
  2
_FILLED
 10
13.3619537723
 20
13.1171434154
 41
0.1875
 42
0.1875
 43
0.1875
 50
270.0
  0
ENDBLK
  5
453
100
AcDbEntity
  8
0
  6
BYBLOCK
 62
0
100
AcDbBlockEnd
  0
BLOCK
  5
454
100
AcDbEntity
  8
SCHEME_DIMS
100
AcDbBlockBegin
 62
2
  6
CONTINUOUS
  2
*D11
 70
65
 10
0.0
 20
0.0
  3
*D11
  1

  0
MTEXT
  5
455
100
AcDbEntity
  8
SCHEME_DIMS
100
AcDbMText
 62
2
  6
CONTINUOUS
  7
STANDARD
 71
2
 72
1
 10
11.0840577925
 20
12.5814781844
 30
0.0
 11
1.0
 21
0.0
 31
0.0
 44
0.9
  1
28\P[1.10]
 40
0.1
 41
0.6
  0
LINE
  5
456
100
AcDbEntity
  8
SCHEME_DIMS
100
AcDbLine
 62
2
  6
CONTINUOUS
 10
10.7328766901
 20
12.8957416976
 11
10.7328766901
 21
12.4064781844
  0
LINE
  5
457
100
AcDbEntity
  8
SCHEME_DIMS
100
AcDbLine
 62
2
  6
CONTINUOUS
 10
11.8352388948
 20
12.8736773512
 11
11.8352388948
 21
12.4064781844
  0
LINE
  5
458
100
AcDbEntity
  8
SCHEME_DIMS
100
AcDbLine
 62
2
  6
CONTINUOUS
 10
10.7328766901
 20
12.5314781844
 11
10.3328766901
 21
12.5314781844
  0
LINE
  5
459
100
AcDbEntity
  8
SCHEME_DIMS
100
AcDbLine
 62
2
  6
CONTINUOUS
 10
11.8352388948
 20
12.5314781844
 11
12.2352388948
 21
12.5314781844
  0
INSERT
  5
45A
100
AcDbEntity
  8
SCHEME_DIMS
100
AcDbBlockReference
 62
2
  6
CONTINUOUS
  2
_FILLED
 10
10.7328766901
 20
12.5314781844
 41
0.1875
 42
0.1875
 43
0.1875
  0
INSERT
  5
45B
100
AcDbEntity
  8
SCHEME_DIMS
100
AcDbBlockReference
 62
2
  6
CONTINUOUS
  2
_FILLED
 10
11.8352388948
 20
12.5314781844
 41
0.1875
 42
0.1875
 43
0.1875
 50
180.0
  0
ENDBLK
  5
45C
100
AcDbEntity
  8
0
  6
BYBLOCK
 62
0
100
AcDbBlockEnd
  0
BLOCK
  5
45D
100
AcDbEntity
  8
SCHEME_DIMS
100
AcDbBlockBegin
 62
2
  6
CONTINUOUS
  2
*D12
 70
65
 10
0.0
 20
0.0
  3
*D12
  1

  0
MTEXT
  5
45E
100
AcDbEntity
  8
SCHEME_DIMS
100
AcDbMText
 62
2
  6
CONTINUOUS
  7
STANDARD
 71
2
 72
1
 10
10.5328766901
 20
12.1299858889
 30
0.0
 11
1.0
 21
0.0
 31
0.0
 44
0.9
  1
56\P[2.20]
 40
0.1
 41
0.6
  0
LINE
  5
45F
100
AcDbEntity
  8
SCHEME_DIMS
100
AcDbLine
 62
2
  6
CONTINUOUS
 10
9.6305144854
 20
12.772153517
 11
9.6305144854
 21
11.9549858889
  0
LINE
  5
460
100
AcDbEntity
  8
SCHEME_DIMS
100
AcDbLine
 62
2
  6
CONTINUOUS
 10
11.8352388948
 20
12.8946922653
 11
11.8352388948
 21
11.9549858889
  0
LINE
  5
461
100
AcDbEntity
  8
SCHEME_DIMS
100
AcDbLine
 62
2
  6
CONTINUOUS
 10
9.6305144854
 20
12.0799858889
 11
10.3328766901
 21
12.0799858889
  0
LINE
  5
462
100
AcDbEntity
  8
SCHEME_DIMS
100
AcDbLine
 62
2
  6
CONTINUOUS
 10
11.8352388948
 20
12.0799858889
 11
11.1328766901
 21
12.0799858889
  0
INSERT
  5
463
100
AcDbEntity
  8
SCHEME_DIMS
100
AcDbBlockReference
 62
2
  6
CONTINUOUS
  2
_FILLED
 10
9.6305144854
 20
12.0799858889
 41
0.1875
 42
0.1875
 43
0.1875
 50
180.0
  0
INSERT
  5
464
100
AcDbEntity
  8
SCHEME_DIMS
100
AcDbBlockReference
 62
2
  6
CONTINUOUS
  2
_FILLED
 10
11.8352388948
 20
12.0799858889
 41
0.1875
 42
0.1875
 43
0.1875
  0
ENDBLK
  5
465
100
AcDbEntity
  8
0
  6
BYBLOCK
 62
0
100
AcDbBlockEnd
  0
BLOCK
  5
466
100
AcDbEntity
  8
SCHEME_DIMS
100
AcDbBlockBegin
 62
2
  6
CONTINUOUS
  2
*D13
 70
65
 10
0.0
 20
0.0
  3
*D13
  1

  0
MTEXT
  5
467
100
AcDbEntity
  8
SCHEME_DIMS
100
AcDbMText
 62
2
  6
CONTINUOUS
  7
STANDARD
 71
2
 72
1
 10
8.3901675685
 20
8.7457970458
 30
0.0
 11
1.0
 21
0.0
 31
0.0
 44
0.9
  1
40,8\P[1.61]
 40
0.1
 41
0.6
  0
LINE
  5
468
100
AcDbEntity
  8
SCHEME_DIMS
100
AcDbLine
 62
2
  6
CONTINUOUS
 10
9.1000696664
 20
9.4989466521
 11
8.3651675685
 21
9.4989466521
  0
LINE
  5
469
100
AcDbEntity
  8
SCHEME_DIMS
100
AcDbLine
 62
2
  6
CONTINUOUS
 10
10.2573082315
 20
7.8926474395
 11
8.3651675685
 21
7.8926474395
  0
LINE
  5
46A
100
AcDbEntity
  8
SCHEME_DIMS
100
AcDbLine
 62
2
  6
CONTINUOUS
 10
8.4901675685
 20
9.4989466521
 11
8.4901675685
 21
8.8457970458
  0
LINE
  5
46B
100
AcDbEntity
  8
SCHEME_DIMS
100
AcDbLine
 62
2
  6
CONTINUOUS
 10
8.4901675685
 20
7.8926474395
 11
8.4901675685
 21
8.3957970458
  0
INSERT
  5
46C
100
AcDbEntity
  8
SCHEME_DIMS
100
AcDbBlockReference
 62
2
  6
CONTINUOUS
  2
_FILLED
 10
8.4901675685
 20
9.4989466521
 41
0.1875
 42
0.1875
 43
0.1875
 50
90.0
  0
INSERT
  5
46D
100
AcDbEntity
  8
SCHEME_DIMS
100
AcDbBlockReference
 62
2
  6
CONTINUOUS
  2
_FILLED
 10
8.4901675685
 20
7.8926474395
 41
0.1875
 42
0.1875
 43
0.1875
 50
270.0
  0
ENDBLK
  5
46E
100
AcDbEntity
  8
0
  6
BYBLOCK
 62
0
100
AcDbBlockEnd
  0
ENDSEC
  0
SECTION
  2
ENTITIES
  0
MTEXT
  5
46F
100
AcDbEntity
  8
0
100
AcDbMText
 62
2
  6
CONTINUOUS
  7
TEXTSTYLE_2
 71
2
 72
1
 10
15.7174677477
 20
1.6655662523
 30
0.0
 11
1.0
 21
0.0
 31
0.0
 44
0.9
  1
THIRD ANGLE PROJECTION
 40
0.1
 41
1.76
  0
MTEXT
  5
470
100
AcDbEntity
  8
0
100
AcDbMText
 62
2
  6
CONTINUOUS
  7
STANDARD
 71
1
 72
1
 10
17.55
 20
1.32
 30
0.0
 11
1.0
 21
0.0
 31
0.0
 44
0.9
  1
DRAWING NO.
 40
0.08
 41
0.88
  0
MTEXT
  5
471
100
AcDbEntity
  8
0
100
AcDbMText
 62
2
  6
CONTINUOUS
  7
TEXTSTYLE_3
 71
2
 72
1
 10
15.7
 20
2.379432
 30
0.0
 11
1.0
 21
0.0
 31
0.0
 44
0.9
  1
and is proprietary in general
 40
0.08
 41
1.972
  0
MTEXT
  5
472
100
AcDbEntity
  8
0
100
AcDbMText
 62
2
  6
CONTINUOUS
  7
TEXTSTYLE_3
 71
2
 72
1
 10
15.7
 20
2.259432
 30
0.0
 11
1.0
 21
0.0
 31
0.0
 44
0.9
  1
and in detail.  Its contents
 40
0.08
 41
1.904
  0
MTEXT
  5
473
100
AcDbEntity
  8
0
100
AcDbMText
 62
2
  6
CONTINUOUS
  7
TEXTSTYLE_3
 71
2
 72
1
 10
15.7
 20
2.139432
 30
0.0
 11
1.0
 21
0.0
 31
0.0
 44
0.9
  1
shall not be revealed to
 40
0.08
 41
1.632
  0
MTEXT
  5
474
100
AcDbEntity
  8
0
100
AcDbMText
 62
2
  6
CONTINUOUS
  7
TEXTSTYLE_3
 71
2
 72
1
 10
15.7
 20
2.019432
 30
0.0
 11
1.0
 21
0.0
 31
0.0
 44
0.9
  1
outside parties without
 40
0.08
 41
1.564
  0
MTEXT
  5
475
100
AcDbEntity
  8
0
100
AcDbMText
 62
2
  6
CONTINUOUS
  7
TEXTSTYLE_3
 71
2
 72
1
 10
15.7
 20
1.899432
 30
0.0
 11
1.0
 21
0.0
 31
0.0
 44
0.9
  1
written consent of BANNER.
 40
0.08
 41
1.768
  0
MTEXT
  5
476
100
AcDbEntity
  8
0
100
AcDbMText
 62
2
  6
CONTINUOUS
  7
TEXTSTYLE_2
 71
1
 72
1
 10
16.75
 20
2.08
 30
0.0
 11
1.0
 21
0.0
 31
0.0
 44
0.9
  1
TITLE
 40
0.1
 41
0.4
  0
MTEXT
  5
477
100
AcDbEntity
  8
0
100
AcDbMText
 62
2
  6
CONTINUOUS
  7
STANDARD
 71
1
 72
1
 10
16.75
 20
1.32
 30
0.0
 11
1.0
 21
0.0
 31
0.0
 44
0.9
  1
SIZE
 40
0.08
 41
0.32
  0
MTEXT
  5
478
100
AcDbEntity
  8
0
100
AcDbMText
 62
2
  6
CONTINUOUS
  7
STANDARD
 71
1
 72
1
 10
16.75
 20
0.95
 30
0.0
 11
1.0
 21
0.0
 31
0.0
 44
0.9
  1
SCALE
 40
0.08
 41
0.4
  0
MTEXT
  5
479
100
AcDbEntity
  8
0
100
AcDbMText
 62
2
  6
CONTINUOUS
  7
TEXTSTYLE_2
 71
2
 72
1
 10
17.17
 20
1.2
 30
0.0
 11
1.0
 21
0.0
 31
0.0
 44
0.9
  1
C
 40
0.1
 41
0.08
  0
MTEXT
  5
47A
100
AcDbEntity
  8
0
100
AcDbMText
 62
2
  6
CONTINUOUS
  7
TEXTSTYLE_3
 71
2
 72
1
 10
15.7
 20
2.499432
 30
0.0
 11
1.0
 21
0.0
 31
0.0
 44
0.9
  1
of BANNER ENGINEERING CORP.
 40
0.08
 41
1.836
  0
MTEXT
  5
47B
100
AcDbEntity
  8
0
100
AcDbMText
 62
2
  6
CONTINUOUS
  7
TEXTSTYLE_3
 71
2
 72
1
 10
15.7
 20
2.619432
 30
0.0
 11
1.0
 21
0.0
 31
0.0
 44
0.9
  1
This drawing is the property
 40
0.08
 41
1.904
  0
MTEXT
  5
47C
100
AcDbEntity
  8
0
100
AcDbMText
 62
2
  6
CONTINUOUS
  7
TEXTSTYLE_2
 71
2
 72
1
 10
19.7
 20
2.2764
 30
0.0
 11
1.0
 21
0.0
 31
0.0
 44
0.9
  1
MINNEAPOLIS, MN 55440
 40
0.1
 41
1.68
  0
MTEXT
  5
47D
100
AcDbEntity
  8
0
100
AcDbMText
 62
2
  6
CONTINUOUS
  7
STANDARD
 71
1
 72
1
 10
18.925
 20
0.95
 30
0.0
 11
1.0
 21
0.0
 31
0.0
 44
0.9
  1
SHEET
 40
0.08
 41
0.4
  0
MTEXT
  5
47E
100
AcDbEntity
  8
0
100
AcDbMText
 62
2
  6
CONTINUOUS
  7
STANDARD
 71
1
 72
1
 10
20.3
 20
1.32
 30
0.0
 11
1.0
 21
0.0
 31
0.0
 44
0.9
  1
REV.
 40
0.08
 41
0.32
  0
MTEXT
  5
47F
100
AcDbEntity
  8
0
100
AcDbMText
 62
2
  6
CONTINUOUS
  7
STANDARD
 71
3
 72
1
 10
21.05
 20
0.698443
 30
0.0
 11
1.0
 21
0.0
 31
0.0
 44
0.9
  1
PRO/E
 40
0.07
 41
0.35
  0
MTEXT
  5
480
100
AcDbEntity
  8
0
100
AcDbMText
 62
2
  6
CONTINUOUS
  7
TEXTSTYLE_4
 71
2
 72
1
 10
19.7
 20
2.614049
 30
0.0
 11
1.0
 21
0.0
 31
0.0
 44
0.9
  1
BANNER ENGINEERING CORP.
 40
0.12
 41
2.6496
  0
MTEXT
  5
481
100
AcDbEntity
  8
0
100
AcDbMText
 62
2
  6
CONTINUOUS
  7
TEXTSTYLE_2
 71
2
 72
1
 10
19.7
 20
2.4354
 30
0.0
 11
1.0
 21
0.0
 31
0.0
 44
0.9
  1
P.O. BOX 9414
 40
0.1
 41
1.04
  0
MTEXT
  5
482
100
AcDbEntity
  8
0
100
AcDbMText
 62
2
  6
CONTINUOUS
  7
TEXTSTYLE_2
 71
2
 72
1
 10
12.257
 20
15.95
 30
0.0
 11
1.0
 21
0.0
 31
0.0
 44
0.9
  1
4
 40
0.1
 41
0.08
  0
MTEXT
  5
483
100
AcDbEntity
  8
0
100
AcDbMText
 62
2
  6
CONTINUOUS
  7
TEXTSTYLE_2
 71
2
 72
1
 10
12.257
 20
0.65
 30
0.0
 11
1.0
 21
0.0
 31
0.0
 44
0.9
  1
4
 40
0.1
 41
0.08
  0
MTEXT
  5
484
100
AcDbEntity
  8
0
100
AcDbMText
 62
2
  6
CONTINUOUS
  7
TEXTSTYLE_2
 71
3
 72
1
 10
0.864
 20
6.375
 30
0.0
 11
1.0
 21
0.0
 31
0.0
 44
0.9
  1
B
 40
0.1
 41
0.08
  0
MTEXT
  5
485
100
AcDbEntity
  8
0
100
AcDbMText
 62
2
  6
CONTINUOUS
  7
TEXTSTYLE_2
 71
1
 72
1
 10
21.15
 20
6.375
 30
0.0
 11
1.0
 21
0.0
 31
0.0
 44
0.9
  1
B
 40
0.1
 41
0.08
  0
MTEXT
  5
486
100
AcDbEntity
  8
0
100
AcDbMText
 62
2
  6
CONTINUOUS
  7
TEXTSTYLE_2
 71
3
 72
1
 10
0.864
 20
2.525
 30
0.0
 11
1.0
 21
0.0
 31
0.0
 44
0.9
  1
A
 40
0.1
 41
0.08
  0
MTEXT
  5
487
100
AcDbEntity
  8
0
100
AcDbMText
 62
2
  6
CONTINUOUS
  7
TEXTSTYLE_2
 71
1
 72
1
 10
21.15
 20
2.525
 30
0.0
 11
1.0
 21
0.0
 31
0.0
 44
0.9
  1
A
 40
0.1
 41
0.08
  0
MTEXT
  5
488
100
AcDbEntity
  8
0
100
AcDbMText
 62
2
  6
CONTINUOUS
  7
TEXTSTYLE_2
 71
3
 72
1
 10
0.864
 20
14.075
 30
0.0
 11
1.0
 21
0.0
 31
0.0
 44
0.9
  1
D
 40
0.1
 41
0.08
  0
MTEXT
  5
489
100
AcDbEntity
  8
0
100
AcDbMText
 62
2
  6
CONTINUOUS
  7
TEXTSTYLE_2
 71
1
 72
1
 10
21.15
 20
14.075
 30
0.0
 11
1.0
 21
0.0
 31
0.0
 44
0.9
  1
D
 40
0.1
 41
0.08
  0
MTEXT
  5
48A
100
AcDbEntity
  8
0
100
AcDbMText
 62
2
  6
CONTINUOUS
  7
TEXTSTYLE_2
 71
3
 72
1
 10
0.864
 20
10.225
 30
0.0
 11
1.0
 21
0.0
 31
0.0
 44
0.9
  1
C
 40
0.1
 41
0.08
  0
MTEXT
  5
48B
100
AcDbEntity
  8
0
100
AcDbMText
 62
2
  6
CONTINUOUS
  7
TEXTSTYLE_2
 71
1
 72
1
 10
21.15
 20
10.225
 30
0.0
 11
1.0
 21
0.0
 31
0.0
 44
0.9
  1
C
 40
0.1
 41
0.08
  0
MTEXT
  5
48C
100
AcDbEntity
  8
0
100
AcDbMText
 62
2
  6
CONTINUOUS
  7
TEXTSTYLE_2
 71
2
 72
1
 10
14.757
 20
0.65
 30
0.0
 11
1.0
 21
0.0
 31
0.0
 44
0.9
  1
3
 40
0.1
 41
0.08
  0
MTEXT
  5
48D
100
AcDbEntity
  8
0
100
AcDbMText
 62
2
  6
CONTINUOUS
  7
TEXTSTYLE_2
 71
2
 72
1
 10
14.757
 20
15.95
 30
0.0
 11
1.0
 21
0.0
 31
0.0
 44
0.9
  1
3
 40
0.1
 41
0.08
  0
MTEXT
  5
48E
100
AcDbEntity
  8
0
100
AcDbMText
 62
2
  6
CONTINUOUS
  7
TEXTSTYLE_2
 71
2
 72
1
 10
17.257
 20
15.95
 30
0.0
 11
1.0
 21
0.0
 31
0.0
 44
0.9
  1
2
 40
0.1
 41
0.08
  0
MTEXT
  5
48F
100
AcDbEntity
  8
0
100
AcDbMText
 62
2
  6
CONTINUOUS
  7
TEXTSTYLE_2
 71
2
 72
1
 10
17.257
 20
0.65
 30
0.0
 11
1.0
 21
0.0
 31
0.0
 44
0.9
  1
2
 40
0.1
 41
0.08
  0
MTEXT
  5
490
100
AcDbEntity
  8
0
100
AcDbMText
 62
2
  6
CONTINUOUS
  7
TEXTSTYLE_2
 71
2
 72
1
 10
19.757
 20
0.65
 30
0.0
 11
1.0
 21
0.0
 31
0.0
 44
0.9
  1
1
 40
0.1
 41
0.08
  0
MTEXT
  5
491
100
AcDbEntity
  8
0
100
AcDbMText
 62
2
  6
CONTINUOUS
  7
TEXTSTYLE_2
 71
2
 72
1
 10
19.757
 20
15.95
 30
0.0
 11
1.0
 21
0.0
 31
0.0
 44
0.9
  1
1
 40
0.1
 41
0.08
  0
MTEXT
  5
492
100
AcDbEntity
  8
0
100
AcDbMText
 62
2
  6
CONTINUOUS
  7
TEXTSTYLE_2
 71
2
 72
1
 10
2.257
 20
0.65
 30
0.0
 11
1.0
 21
0.0
 31
0.0
 44
0.9
  1
8
 40
0.1
 41
0.08
  0
MTEXT
  5
493
100
AcDbEntity
  8
0
100
AcDbMText
 62
2
  6
CONTINUOUS
  7
TEXTSTYLE_2
 71
2
 72
1
 10
4.757
 20
0.65
 30
0.0
 11
1.0
 21
0.0
 31
0.0
 44
0.9
  1
7
 40
0.1
 41
0.08
  0
MTEXT
  5
494
100
AcDbEntity
  8
0
100
AcDbMText
 62
2
  6
CONTINUOUS
  7
TEXTSTYLE_2
 71
2
 72
1
 10
7.257
 20
0.65
 30
0.0
 11
1.0
 21
0.0
 31
0.0
 44
0.9
  1
6
 40
0.1
 41
0.08
  0
MTEXT
  5
495
100
AcDbEntity
  8
0
100
AcDbMText
 62
2
  6
CONTINUOUS
  7
TEXTSTYLE_2
 71
2
 72
1
 10
9.757
 20
0.65
 30
0.0
 11
1.0
 21
0.0
 31
0.0
 44
0.9
  1
5
 40
0.1
 41
0.08
  0
MTEXT
  5
496
100
AcDbEntity
  8
0
100
AcDbMText
 62
2
  6
CONTINUOUS
  7
TEXTSTYLE_2
 71
2
 72
1
 10
9.757
 20
15.95
 30
0.0
 11
1.0
 21
0.0
 31
0.0
 44
0.9
  1
5
 40
0.1
 41
0.08
  0
MTEXT
  5
497
100
AcDbEntity
  8
0
100
AcDbMText
 62
2
  6
CONTINUOUS
  7
TEXTSTYLE_2
 71
2
 72
1
 10
7.257
 20
15.95
 30
0.0
 11
1.0
 21
0.0
 31
0.0
 44
0.9
  1
6
 40
0.1
 41
0.08
  0
MTEXT
  5
498
100
AcDbEntity
  8
0
100
AcDbMText
 62
2
  6
CONTINUOUS
  7
TEXTSTYLE_2
 71
2
 72
1
 10
4.757
 20
15.95
 30
0.0
 11
1.0
 21
0.0
 31
0.0
 44
0.9
  1
7
 40
0.1
 41
0.08
  0
MTEXT
  5
499
100
AcDbEntity
  8
0
100
AcDbMText
 62
2
  6
CONTINUOUS
  7
TEXTSTYLE_2
 71
2
 72
1
 10
2.257
 20
15.95
 30
0.0
 11
1.0
 21
0.0
 31
0.0
 44
0.9
  1
8
 40
0.1
 41
0.08
  0
MTEXT
  5
49A
100
AcDbEntity
  8
0
100
AcDbMText
 62
2
  6
CONTINUOUS
  7
STANDARD
 71
1
 72
1
 10
17.2749123633
 20
0.9184107931
 30
0.0
 11
1.0
 21
0.0
 31
0.0
 44
0.9
  1
1:1
 40
0.1
 41
0.3
  0
MTEXT
  5
49B
100
AcDbEntity
  8
0
100
AcDbMText
 62
2
  6
CONTINUOUS
  7
STANDARD
 71
1
 72
1
 10
19.4499123633
 20
0.9184107931
 30
0.0
 11
1.0
 21
0.0
 31
0.0
 44
0.9
  1
1 OF 1
 40
0.1
 41
0.6
  0
MTEXT
  5
49C
100
AcDbEntity
  8
0
100
AcDbMText
 62
7
  6
CONTINUOUS
  7
STANDARD
 71
1
 72
1
 10
18.5204017884
 20
1.2400373234
 30
0.0
 11
1.0
 21
0.0
 31
0.0
 44
0.9
  1
146867
 40
0.12
 41
0.72
  0
MTEXT
  5
49D
100
AcDbEntity
  8
0
100
AcDbMText
 62
2
  6
CONTINUOUS
  7
STANDARD
 71
1
 72
1
 10
1.7464424763
 20
1.7731130192
 30
0.0
 11
1.0
 21
0.0
 31
0.0
 44
0.9
  1
NOTES:\P1. ALL DIMENSIONS ARE MILLIMETERS [INCHES] UNLESS OTHERWISE NOTED.
 40
0.1
 41
6.6
  0
INSERT
  5
49E
100
AcDbEntity
  8
0
100
AcDbBlockReference
 62
2
  6
CONTINUOUS
  2
BANNER_LOGO_TITLEBLOCK_BL0
 10
17.5778140653
 20
2.4016160549
  0
DIMENSION
  5
49F
100
AcDbEntity
  8
SCHEME_DIMS
100
AcDbDimension
 62
2
  6
CONTINUOUS
  2
*D0
 10
8.2607668377
 20
3.5014297598
 11
8.1857668377
 21
4.0366659802
 70
160
 71
2
 42
31.0
  3
DIMSTYLE_1
100
AcDbAlignedDimension
 13
8.9271529397
 23
4.7219022007
 14
8.9258446382
 24
3.5014297598
 50
270.0
100
AcDbRotatedDimension
  0
DIMENSION
  5
4A0
100
AcDbEntity
  8
SCHEME_DIMS
100
AcDbDimension
 62
2
  6
CONTINUOUS
  2
*D1
 10
12.217241035
 20
10.6011775863
 11
10.2950418364
 21
10.5261775863
 70
160
 71
2
 42
81.3848543589
  3
DIMSTYLE_1
100
AcDbAlignedDimension
 13
9.0131129106
 23
9.6401868096
 14
12.217241035
 24
9.393052218
100
AcDbRotatedDimension
  0
DIMENSION
  5
4A1
100
AcDbEntity
  8
SCHEME_DIMS
100
AcDbDimension
 62
2
  6
CONTINUOUS
  2
*D2
 10
12.217241035
 20
10.1334873633
 11
11.8724998074
 21
10.0584873633
 70
160
 71
2
 42
13.7028543589
  3
DIMSTYLE_2
100
AcDbAlignedDimension
 13
11.6777585799
 23
8.2028255445
 14
12.217241035
 24
9.393052218
100
AcDbRotatedDimension
  0
DIMENSION
  5
4A2
100
AcDbEntity
  8
SCHEME_DIMS
100
AcDbDimension
 62
2
  6
CONTINUOUS
  2
*D3
 10
12.217241035
 20
10.6011775863
 11
12.4353218876
 21
10.5261775863
 70
160
 71
2
 42
14.8885073119
  3
DIMSTYLE_2
100
AcDbAlignedDimension
 13
12.8034027401
 23
8.9039466521
 14
12.217241035
 24
9.393052218
 50
180.0
100
AcDbRotatedDimension
  0
DIMENSION
  5
4A3
100
AcDbEntity
  8
SCHEME_DIMS
100
AcDbDimension
 62
2
  6
CONTINUOUS
  2
*D4
 10
13.287922698
 20
7.8926474395
 11
13.212922698
 21
8.6207970458
 70
160
 71
2
 42
40.8
  3
DIMSTYLE_2
100
AcDbAlignedDimension
 13
12.1226393749
 23
9.4989466521
 14
11.9700237321
 24
7.8926474395
 50
270.0
100
AcDbRotatedDimension
  0
DIMENSION
  5
4A4
100
AcDbEntity
  8
SCHEME_DIMS
100
AcDbDimension
 62
2
  6
CONTINUOUS
  2
*D5
 10
11.6777585799
 20
6.5613059744
 11
11.0515774775
 21
6.4863059744
 70
160
 71
2
 42
28.0
  3
DIMSTYLE_1
100
AcDbAlignedDimension
 13
10.5753963752
 23
7.582885578
 14
11.6777585799
 24
7.6117810849
100
AcDbRotatedDimension
  0
DIMENSION
  5
4A5
100
AcDbEntity
  8
SCHEME_DIMS
100
AcDbDimension
 62
2
  6
CONTINUOUS
  2
*D6
 10
9.6305144854
 20
10.1334873633
 11
10.4890754142
 21
10.0584873633
 70
160
 71
2
 42
52.0
  3
DIMSTYLE_1
100
AcDbAlignedDimension
 13
11.6777585799
 23
8.2330652671
 14
9.6305144854
 24
9.9476417053
 50
180.0
100
AcDbRotatedDimension
  0
DIMENSION
  5
4A6
100
AcDbEntity
  8
SCHEME_DIMS
100
AcDbDimension
 62
2
  6
CONTINUOUS
  2
*D7
 10
7.7164067338
 20
9.782411219
 11
7.6164067338
 21
9.6465106586
 70
160
 71
2
 42
7.2
  3
DIMSTYLE_1
100
AcDbAlignedDimension
 13
8.9078979672
 23
9.4989466521
 14
9.4365544005
 24
9.782411219
 50
90.0
100
AcDbRotatedDimension
  0
DIMENSION
  5
4A7
100
AcDbEntity
  8
SCHEME_DIMS
100
AcDbDimension
 62
2
  6
CONTINUOUS
  2
*D8
 10
7.7164067338
 20
7.4123324789
 11
7.6414067338
 21
8.2295459558
 70
160
 71
2
 42
53.0
  3
DIMSTYLE_1
100
AcDbAlignedDimension
 13
8.8618067926
 23
9.4989466521
 14
9.1671483437
 24
7.4123324789
 50
270.0
100
AcDbRotatedDimension
  0
DIMENSION
  5
4A8
100
AcDbEntity
  8
SCHEME_DIMS
100
AcDbDimension
 62
2
  6
CONTINUOUS
  2
*D9
 10
18.6031704603
 20
9.5776868096
 11
18.4781704603
 21
9.1247237617
 70
160
 71
2
 42
24.5
  3
DIMSTYLE_1
100
AcDbAlignedDimension
 13
17.7520321928
 23
8.6131198804
 14
18.0029462699
 24
9.5776868096
 50
90.0
100
AcDbRotatedDimension
  0
DIMENSION
  5
4A9
100
AcDbEntity
  8
SCHEME_DIMS
100
AcDbDimension
 62
2
  6
CONTINUOUS
  2
*D10
 10
13.3619537723
 20
13.1171434154
 11
13.2869537723
 21
13.577380856
 70
160
 71
2
 42
21.0
  3
DIMSTYLE_1
100
AcDbAlignedDimension
 13
12.0694260421
 23
13.9439150689
 14
12.0776021571
 24
13.1171434154
 50
270.0
100
AcDbRotatedDimension
  0
DIMENSION
  5
4AA
100
AcDbEntity
  8
SCHEME_DIMS
100
AcDbDimension
 62
2
  6
CONTINUOUS
  2
*D11
 10
11.8352388948
 20
12.5314781844
 11
11.2090577925
 21
12.4564781844
 70
160
 71
2
 42
28.0
  3
DIMSTYLE_1
100
AcDbAlignedDimension
 13
10.7328766901
 23
12.8957416976
 14
11.8352388948
 24
12.8736773512
100
AcDbRotatedDimension
  0
DIMENSION
  5
4AB
100
AcDbEntity
  8
SCHEME_DIMS
100
AcDbDimension
 62
2
  6
CONTINUOUS
  2
*D12
 10
11.8352388948
 20
12.0799858889
 11
10.6578766901
 21
12.0049858889
 70
160
 71
2
 42
56.0
  3
DIMSTYLE_1
100
AcDbAlignedDimension
 13
9.6305144854
 23
12.772153517
 14
11.8352388948
 24
12.8946922653
100
AcDbRotatedDimension
  0
DIMENSION
  5
4AC
100
AcDbEntity
  8
SCHEME_DIMS
100
AcDbDimension
 62
2
  6
CONTINUOUS
  2
*D13
 10
8.4901675685
 20
7.8926474395
 11
8.3651675685
 21
8.6207970458
 70
160
 71
2
 42
40.8
  3
DIMSTYLE_1
100
AcDbAlignedDimension
 13
9.1000696664
 23
9.4989466521
 14
10.2573082315
 24
7.8926474395
 50
270.0
100
AcDbRotatedDimension
  0
LINE
  5
4AD
100
AcDbEntity
  8
0
100
AcDbLine
 62
2
  6
CONTINUOUS
 10
21.05
 20
0.75
 11
16.7
 21
0.75
  0
LINE
  5
4AE
100
AcDbEntity
  8
0
100
AcDbLine
 62
2
  6
CONTINUOUS
 10
21.05
 20
0.75
 11
21.05
 21
2.67
  0
LINE
  5
4AF
100
AcDbEntity
  8
0
100
AcDbLine
 62
2
  6
CONTINUOUS
 10
21.05
 20
2.67
 11
16.7
 21
2.67
  0
LINE
  5
4B0
100
AcDbEntity
  8
0
100
AcDbLine
 62
2
  6
CONTINUOUS
 10
16.7
 20
0.75
 11
16.7
 21
2.67
  0
MTEXT
  5
4B1
100
AcDbEntity
  8
NOTES
100
AcDbMText
 62
7
  6
CONTINUOUS
  7
STANDARD
 71
2
 72
1
 10
20.825
 20
1.23
 30
0.0
 11
1.0
 21
0.0
 31
0.0
 44
0.9
  1
-
 40
0.1
 41
0.1
  0
MTEXT
  5
4B2
100
AcDbEntity
  8
NOTES
100
AcDbMText
 62
7
  6
CONTINUOUS
  7
STANDARD
 71
2
 72
1
 10
18.875
 20
1.83
 30
0.0
 11
1.0
 21
0.0
 31
0.0
 44
0.9
  1
QL51 DATASENSORS MODEL LD50\PWEB CAD DRAWINGS 2D / 3D
 40
0.1
 41
2.7
  0
LEADER
  5
4B3
100
AcDbEntity
  8
NOTES
100
AcDbLeader
 62
2
  6
CONTINUOUS
  3
STANDARD
 71
1
 72
0
 73
0
 75
0
 40
0.1
 41
1.2
 76
3
 10
11.7627530362
 20
7.8676908154
 30
0.0
 10
12.8516425945
 20
7.2982477762
 30
0.0
 10
13.1016425945
 20
7.2982477762
 30
0.0
340
4B4
1001
ACAD
1000
DSTYLE
1002
{
1070
77
1070
0
1002
}
  0
MTEXT
  5
4B4
102
{ACAD_REACTORS
330
4B3
102
}
100
AcDbEntity
  8
NOTES
100
AcDbMText
 62
2
  6
CONTINUOUS
  7
STANDARD
 71
1
 72
1
 10
13.1016425945
 20
7.3482477762
 30
0.0
 11
1.0
 21
0.0
 31
0.0
 44
0.9
  1
 4X M5 X 0.5\P \Fgdt;{\Fgdt;x}\Ftxt;6MM MAX.
 40
0.1
 41
1.2
  0
LEADER
  5
4B5
100
AcDbEntity
  8
NOTES
100
AcDbLeader
 62
2
  6
CONTINUOUS
  3
STANDARD
 71
1
 72
0
 73
0
 75
0
 40
0.1
 41
1.6
 76
3
 10
11.9813428789
 20
4.3241312666
 30
0.0
 10
12.8843274699
 20
5.1912016977
 30
0.0
 10
13.1343274699
 20
5.1912016977
 30
0.0
340
4B6
1001
ACAD
1000
DSTYLE
1002
{
1070
77
1070
0
1070
341
1005
20E
1002
}
  0
MTEXT
  5
4B6
102
{ACAD_REACTORS
330
4B5
102
}
100
AcDbEntity
  8
NOTES
100
AcDbMText
 62
2
  6
CONTINUOUS
  7
STANDARD
 71
1
 72
1
 10
13.1343274699
 20
5.2412016977
 30
0.0
 11
1.0
 21
0.0
 31
0.0
 44
0.9
  1
 SENSITIVITY LED
 40
0.1
 41
1.6
  0
LEADER
  5
4B7
100
AcDbEntity
  8
NOTES
100
AcDbLeader
 62
2
  6
CONTINUOUS
  3
STANDARD
 71
1
 72
0
 73
0
 75
0
 40
0.1
 41
1.0
 76
3
 10
12.0275182273
 20
4.1035157131
 30
0.0
 10
12.8894580642
 20
4.467787906
 30
0.0
 10
13.1394580642
 20
4.467787906
 30
0.0
340
4B8
1001
ACAD
1000
DSTYLE
1002
{
1070
77
1070
0
1070
341
1005
20E
1002
}
  0
MTEXT
  5
4B8
102
{ACAD_REACTORS
330
4B7
102
}
100
AcDbEntity
  8
NOTES
100
AcDbMText
 62
2
  6
CONTINUOUS
  7
STANDARD
 71
1
 72
1
 10
13.1394580642
 20
4.517787906
 30
0.0
 11
1.0
 21
0.0
 31
0.0
 44
0.9
  1
 READY LED
 40
0.1
 41
1.0
  0
LEADER
  5
4B9
100
AcDbEntity
  8
NOTES
100
AcDbLeader
 62
2
  6
CONTINUOUS
  3
STANDARD
 71
1
 72
0
 73
0
 75
0
 40
0.1
 41
1.1
 76
3
 10
12.0172570388
 20
3.9188143195
 30
0.0
 10
12.8945886585
 20
3.6674152004
 30
0.0
 10
13.1445886585
 20
3.6674152004
 30
0.0
340
4BA
1001
ACAD
1000
DSTYLE
1002
{
1070
77
1070
0
1070
341
1005
20E
1002
}
  0
MTEXT
  5
4BA
102
{ACAD_REACTORS
330
4B9
102
}
100
AcDbEntity
  8
NOTES
100
AcDbMText
 62
2
  6
CONTINUOUS
  7
STANDARD
 71
1
 72
1
 10
13.1445886585
 20
3.7174152004
 30
0.0
 11
1.0
 21
0.0
 31
0.0
 44
0.9
  1
 OUTPUT LED
 40
0.1
 41
1.1
  0
LEADER
  5
4BB
100
AcDbEntity
  8
NOTES
100
AcDbLeader
 62
2
  6
CONTINUOUS
  3
STANDARD
 71
1
 72
0
 73
0
 75
0
 40
0.1
 41
1.7
 76
3
 10
10.9377913863
 20
4.3559147425
 30
0.0
 10
10.1877191895
 20
5.2965893147
 30
0.0
 10
9.9377191895
 20
5.2965893147
 30
0.0
340
4BC
1001
ACAD
1000
DSTYLE
1002
{
1070
77
1070
0
1070
341
1005
20E
1002
}
  0
MTEXT
  5
4BC
102
{ACAD_REACTORS
330
4BB
102
}
100
AcDbEntity
  8
NOTES
100
AcDbMText
 62
2
  6
CONTINUOUS
  7
STANDARD
 71
3
 72
1
 10
9.9377191895
 20
5.3465893147
 30
0.0
 11
1.0
 21
0.0
 31
0.0
 44
0.9
  1
DOWN PUSH-BUTTON 
 40
0.1
 41
1.7
  0
LEADER
  5
4BD
100
AcDbEntity
  8
NOTES
100
AcDbLeader
 62
2
  6
CONTINUOUS
  3
STANDARD
 71
1
 72
0
 73
0
 75
0
 40
0.1
 41
1.5
 76
3
 10
10.2866631615
 20
3.8520073054
 30
0.0
 10
10.9773497133
 20
3.0178839703
 30
0.0
 10
11.2273497133
 20
3.0178839703
 30
0.0
340
4BE
1001
ACAD
1000
DSTYLE
1002
{
1070
77
1070
0
1070
341
1005
20E
1002
}
  0
MTEXT
  5
4BE
102
{ACAD_REACTORS
330
4BD
102
}
100
AcDbEntity
  8
NOTES
100
AcDbMText
 62
2
  6
CONTINUOUS
  7
STANDARD
 71
1
 72
1
 10
11.2273497133
 20
3.0678839703
 30
0.0
 11
1.0
 21
0.0
 31
0.0
 44
0.9
  1
UP PUSH-BUTTON 
 40
0.1
 41
1.5
  0
LEADER
  5
4BF
100
AcDbEntity
  8
NOTES
100
AcDbLeader
 62
2
  6
CONTINUOUS
  3
STANDARD
 71
1
 72
0
 73
0
 75
0
 40
0.1
 41
1.2
 76
3
 10
10.7791589934
 20
14.0076171945
 30
0.0
 10
11.2609688529
 20
14.5941239646
 30
0.0
 10
11.5109688529
 20
14.5941239646
 30
0.0
340
4C0
1001
ACAD
1000
DSTYLE
1002
{
1070
77
1070
0
1002
}
  0
MTEXT
  5
4C0
102
{ACAD_REACTORS
330
4BF
102
}
100
AcDbEntity
  8
NOTES
100
AcDbMText
 62
2
  6
CONTINUOUS
  7
STANDARD
 71
1
 72
1
 10
11.5109688529
 20
14.6441239646
 30
0.0
 11
1.0
 21
0.0
 31
0.0
 44
0.9
  1
4X M5 X 0.5 \P\Fgdt;{\Fgdt;x}\Ftxt; 6MM MAX.
 40
0.1
 41
1.2
  0
INSERT
  5
4C1
100
AcDbEntity
  8
SYMBOLS
100
AcDbBlockReference
 62
2
  6
CONTINUOUS
  2
CL_BL1
 10
17.3659839745
 20
6.9942024302
  0
INSERT
  5
4C2
100
AcDbEntity
  8
SYMBOLS
100
AcDbBlockReference
 62
2
  6
CONTINUOUS
  2
CL_BL2
 10
8.7620251436
 20
13.529091562
  0
LINE
  5
4C3
100
AcDbEntity
  8
0
100
AcDbLine
 62
2
  6
CONTINUOUS
 10
0.814
 20
8.336603
 11
0.814
 21
8.163397
  0
LINE
  5
4C4
100
AcDbEntity
  8
0
100
AcDbLine
 62
2
  6
CONTINUOUS
 10
0.964
 20
15.75
 11
0.964
 21
0.75
  0
LINE
  5
4C5
100
AcDbEntity
  8
0
100
AcDbLine
 62
7
  6
CONTINUOUS
 10
15.8276527477
 20
1.2966912523
 11
16.4340437477
 21
1.3660842523
  0
LINE
  5
4C6
100
AcDbEntity
  8
0
100
AcDbLine
 62
2
  6
CONTINUOUS
 10
10.920397
 20
0.6
 11
11.093603
 21
0.6
  0
LINE
  5
4C7
100
AcDbEntity
  8
0
100
AcDbLine
 62
2
  6
CONTINUOUS
 10
0.964
 20
0.75
 11
21.05
 21
0.75
  0
LINE
  5
4C8
100
AcDbEntity
  8
0
100
AcDbLine
 62
2
  6
CONTINUOUS
 10
3.507
 20
0.75
 11
3.507
 21
0.5
  0
LINE
  5
4C9
100
AcDbEntity
  8
0
100
AcDbLine
 62
2
  6
CONTINUOUS
 10
3.507
 20
15.75
 11
3.507
 21
16.0
  0
LINE
  5
4CA
100
AcDbEntity
  8
0
100
AcDbLine
 62
2
  6
CONTINUOUS
 10
16.7
 20
1.0
 11
21.05
 21
1.0
  0
LINE
  5
4CB
100
AcDbEntity
  8
0
100
AcDbLine
 62
7
  6
CONTINUOUS
 10
14.9008917477
 20
1.1139932523
 11
15.1229827477
 21
1.1139932523
  0
LINE
  5
4CC
100
AcDbEntity
  8
0
100
AcDbLine
 62
7
  6
CONTINUOUS
 10
15.1729827477
 20
1.1139932523
 11
15.2729827477
 21
1.1139932523
  0
LINE
  5
4CD
100
AcDbEntity
  8
0
100
AcDbLine
 62
7
  6
CONTINUOUS
 10
15.3229827477
 20
1.1139932523
 11
15.5450737477
 21
1.1139932523
  0
LINE
  5
4CE
100
AcDbEntity
  8
0
100
AcDbLine
 62
7
  6
CONTINUOUS
 10
15.7276527477
 20
1.1139932523
 11
16.0058047477
 21
1.1139932523
  0
LINE
  5
4CF
100
AcDbEntity
  8
0
100
AcDbLine
 62
7
  6
CONTINUOUS
 10
16.0558047477
 20
1.1139932523
 11
16.2058907477
 21
1.1139932523
  0
LINE
  5
4D0
100
AcDbEntity
  8
0
100
AcDbLine
 62
7
  6
CONTINUOUS
 10
16.2558907477
 20
1.1139932523
 11
16.5340437477
 21
1.1139932523
  0
LINE
  5
4D1
100
AcDbEntity
  8
0
100
AcDbLine
 62
2
  6
CONTINUOUS
 10
16.7
 20
1.37
 11
21.05
 21
1.37
  0
LINE
  5
4D2
100
AcDbEntity
  8
0
100
AcDbLine
 62
7
  6
CONTINUOUS
 10
16.4340437477
 20
0.8619022523
 11
15.8276527477
 21
0.9312952523
  0
LINE
  5
4D3
100
AcDbEntity
  8
0
100
AcDbLine
 62
2
  6
CONTINUOUS
 10
14.7
 20
1.77
 11
16.7
 21
1.77
  0
LINE
  5
4D4
100
AcDbEntity
  8
0
100
AcDbLine
 62
2
  6
CONTINUOUS
 10
16.7
 20
2.13
 11
21.05
 21
2.13
  0
LINE
  5
4D5
100
AcDbEntity
  8
0
100
AcDbLine
 62
2
  6
CONTINUOUS
 10
21.05
 20
2.67
 11
14.7
 21
2.67
  0
LINE
  5
4D6
100
AcDbEntity
  8
0
100
AcDbLine
 62
2
  6
CONTINUOUS
 10
6.007
 20
0.75
 11
6.007
 21
0.5
  0
LINE
  5
4D7
100
AcDbEntity
  8
0
100
AcDbLine
 62
2
  6
CONTINUOUS
 10
6.007
 20
15.75
 11
6.007
 21
16.0
  0
LINE
  5
4D8
100
AcDbEntity
  8
0
100
AcDbLine
 62
2
  6
CONTINUOUS
 10
0.814
 20
8.163397
 11
0.964
 21
8.25
  0
LINE
  5
4D9
100
AcDbEntity
  8
0
100
AcDbLine
 62
2
  6
CONTINUOUS
 10
0.964
 20
8.25
 11
0.814
 21
8.336603
  0
LINE
  5
4DA
100
AcDbEntity
  8
0
100
AcDbLine
 62
2
  6
CONTINUOUS
 10
0.964
 20
4.4
 11
0.714
 21
4.4
  0
LINE
  5
4DB
100
AcDbEntity
  8
0
100
AcDbLine
 62
2
  6
CONTINUOUS
 10
21.05
 20
4.4
 11
21.3
 21
4.4
  0
LINE
  5
4DC
100
AcDbEntity
  8
0
100
AcDbLine
 62
2
  6
CONTINUOUS
 10
11.093603
 20
0.6
 11
11.007
 21
0.75
  0
LINE
  5
4DD
100
AcDbEntity
  8
0
100
AcDbLine
 62
2
  6
CONTINUOUS
 10
11.007
 20
15.75
 11
11.093603
 21
15.9
  0
LINE
  5
4DE
100
AcDbEntity
  8
0
100
AcDbLine
 62
2
  6
CONTINUOUS
 10
8.507
 20
0.75
 11
8.507
 21
0.5
  0
LINE
  5
4DF
100
AcDbEntity
  8
0
100
AcDbLine
 62
2
  6
CONTINUOUS
 10
8.507
 20
15.75
 11
8.507
 21
16.0
  0
LINE
  5
4E0
100
AcDbEntity
  8
0
100
AcDbLine
 62
2
  6
CONTINUOUS
 10
11.007
 20
0.75
 11
11.007
 21
0.5
  0
LINE
  5
4E1
100
AcDbEntity
  8
0
100
AcDbLine
 62
2
  6
CONTINUOUS
 10
11.007
 20
15.75
 11
11.007
 21
16.0
  0
LINE
  5
4E2
100
AcDbEntity
  8
0
100
AcDbLine
 62
2
  6
CONTINUOUS
 10
0.964
 20
8.25
 11
0.714
 21
8.25
  0
LINE
  5
4E3
100
AcDbEntity
  8
0
100
AcDbLine
 62
2
  6
CONTINUOUS
 10
21.05
 20
8.25
 11
21.3
 21
8.25
  0
LINE
  5
4E4
100
AcDbEntity
  8
0
100
AcDbLine
 62
2
  6
CONTINUOUS
 10
13.507
 20
0.75
 11
13.507
 21
0.5
  0
LINE
  5
4E5
100
AcDbEntity
  8
0
100
AcDbLine
 62
2
  6
CONTINUOUS
 10
13.507
 20
15.75
 11
13.507
 21
16.0
  0
LINE
  5
4E6
100
AcDbEntity
  8
0
100
AcDbLine
 62
2
  6
CONTINUOUS
 10
14.7
 20
2.67
 11
14.7
 21
0.75
  0
LINE
  5
4E7
100
AcDbEntity
  8
0
100
AcDbLine
 62
2
  6
CONTINUOUS
 10
11.007
 20
0.75
 11
10.920397
 21
0.6
  0
LINE
  5
4E8
100
AcDbEntity
  8
0
100
AcDbLine
 62
2
  6
CONTINUOUS
 10
0.964
 20
12.1
 11
0.714
 21
12.1
  0
LINE
  5
4E9
100
AcDbEntity
  8
0
100
AcDbLine
 62
2
  6
CONTINUOUS
 10
21.05
 20
12.1
 11
21.3
 21
12.1
  0
LINE
  5
4EA
100
AcDbEntity
  8
0
100
AcDbLine
 62
2
  6
CONTINUOUS
 10
10.920397
 20
15.9
 11
11.007
 21
15.75
  0
LINE
  5
4EB
100
AcDbEntity
  8
0
100
AcDbLine
 62
7
  6
CONTINUOUS
 10
15.2229827477
 20
1.0139932523
 11
15.2229827477
 21
0.7919022523
  0
LINE
  5
4EC
100
AcDbEntity
  8
0
100
AcDbLine
 62
7
  6
CONTINUOUS
 10
15.2229827477
 20
1.0639932523
 11
15.2229827477
 21
1.1639932523
  0
LINE
  5
4ED
100
AcDbEntity
  8
0
100
AcDbLine
 62
7
  6
CONTINUOUS
 10
15.2229827477
 20
1.2139932523
 11
15.2229827477
 21
1.4360842523
  0
LINE
  5
4EE
100
AcDbEntity
  8
0
100
AcDbLine
 62
7
  6
CONTINUOUS
 10
15.8276527477
 20
0.9312952523
 11
15.8276527477
 21
1.2966912523
  0
LINE
  5
4EF
100
AcDbEntity
  8
0
100
AcDbLine
 62
2
  6
CONTINUOUS
 10
16.007
 20
0.75
 11
16.007
 21
0.5
  0
LINE
  5
4F0
100
AcDbEntity
  8
0
100
AcDbLine
 62
2
  6
CONTINUOUS
 10
16.007
 20
15.75
 11
16.007
 21
16.0
  0
LINE
  5
4F1
100
AcDbEntity
  8
0
100
AcDbLine
 62
7
  6
CONTINUOUS
 10
16.4340437477
 20
1.3660842523
 11
16.4340437477
 21
0.8619022523
  0
LINE
  5
4F2
100
AcDbEntity
  8
0
100
AcDbLine
 62
2
  6
CONTINUOUS
 10
21.2
 20
8.336603
 11
21.05
 21
8.25
  0
LINE
  5
4F3
100
AcDbEntity
  8
0
100
AcDbLine
 62
2
  6
CONTINUOUS
 10
21.05
 20
8.25
 11
21.2
 21
8.163397
  0
LINE
  5
4F4
100
AcDbEntity
  8
0
100
AcDbLine
 62
7
  6
CONTINUOUS
 10
16.7
 20
2.67
 11
16.7
 21
0.75
  0
LINE
  5
4F5
100
AcDbEntity
  8
0
100
AcDbLine
 62
2
  6
CONTINUOUS
 10
17.5
 20
1.37
 11
17.5
 21
1.0
  0
LINE
  5
4F6
100
AcDbEntity
  8
0
100
AcDbLine
 62
2
  6
CONTINUOUS
 10
18.507
 20
0.75
 11
18.507
 21
0.5
  0
LINE
  5
4F7
100
AcDbEntity
  8
0
100
AcDbLine
 62
2
  6
CONTINUOUS
 10
18.507
 20
15.75
 11
18.507
 21
16.0
  0
LINE
  5
4F8
100
AcDbEntity
  8
0
100
AcDbLine
 62
2
  6
CONTINUOUS
 10
21.05
 20
15.75
 11
0.964
 21
15.75
  0
LINE
  5
4F9
100
AcDbEntity
  8
0
100
AcDbLine
 62
2
  6
CONTINUOUS
 10
11.093603
 20
15.9
 11
10.920397
 21
15.9
  0
LINE
  5
4FA
100
AcDbEntity
  8
0
100
AcDbLine
 62
2
  6
CONTINUOUS
 10
18.875
 20
1.0
 11
18.875
 21
0.75
  0
LINE
  5
4FB
100
AcDbEntity
  8
0
100
AcDbLine
 62
2
  6
CONTINUOUS
 10
20.25
 20
1.37
 11
20.25
 21
1.0
  0
LINE
  5
4FC
100
AcDbEntity
  8
0
100
AcDbLine
 62
2
  6
CONTINUOUS
 10
21.05
 20
0.75
 11
21.05
 21
15.75
  0
LINE
  5
4FD
100
AcDbEntity
  8
0
100
AcDbLine
 62
2
  6
CONTINUOUS
 10
21.2
 20
8.163397
 11
21.2
 21
8.336603
  0
LINE
  5
4FE
100
AcDbEntity
  8
0
100
AcDbLine
 62
7
  6
CONTINUOUS
 10
9.0131129106
 20
8.0540647623
 11
9.0131129106
 21
9.5776868096
  0
LINE
  5
4FF
100
AcDbEntity
  8
0
100
AcDbLine
 62
7
  6
CONTINUOUS
 10
9.0332104418
 20
8.0133139335
 11
9.0332104418
 21
8.0137360793
  0
LINE
  5
500
100
AcDbEntity
  8
0
100
AcDbLine
 62
7
  6
CONTINUOUS
 10
9.0721680287
 20
8.00288366
 11
9.0721680287
 21
7.5698127938
  0
LWPOLYLINE
  5
501
100
AcDbEntity
  8
0
100
AcDbPolyline
 62
7
  6
CONTINUOUS
 90
4
 70
0
 10
9.0135254024
 20
8.0540647623
 10
9.0158262986
 20
8.0388978007
 10
9.0226725213
 20
8.0248760848
 10
9.0332104418
 20
8.0137360793
  0
LINE
  5
502
100
AcDbEntity
  8
0
100
AcDbLine
 62
7
  6
CONTINUOUS
 10
9.1384869362
 20
9.5776868096
 11
9.1384869362
 21
9.6761120064
  0
LINE
  5
503
100
AcDbEntity
  8
0
100
AcDbLine
 62
7
  6
CONTINUOUS
 10
9.1401534911
 20
9.5776868096
 11
9.1401534911
 21
9.6761120064
  0
LINE
  5
504
100
AcDbEntity
  8
0
100
AcDbLine
 62
7
  6
CONTINUOUS
 10
9.142211138
 20
9.5776868096
 11
9.142211138
 21
9.6761120064
  0
LINE
  5
505
100
AcDbEntity
  8
0
100
AcDbLine
 62
7
  6
CONTINUOUS
 10
9.1471925437
 20
9.5776868096
 11
9.1471925437
 21
9.6761120064
  0
LINE
  5
506
100
AcDbEntity
  8
AXIS
100
AcDbLine
 62
7
  6
CONTINUOUS
 10
9.1509081862
 20
9.4989466521
 11
9.1509081862
 21
9.5776868096
  0
LINE
  5
507
100
AcDbEntity
  8
0
100
AcDbLine
 62
7
  6
CONTINUOUS
 10
9.1512852935
 20
9.5776868096
 11
9.1512852935
 21
9.6761120064
  0
LINE
  5
508
100
AcDbEntity
  8
0
100
AcDbLine
 62
7
  6
CONTINUOUS
 10
9.1595269727
 20
9.5776868096
 11
9.1595269727
 21
9.6761120064
  0
LINE
  5
509
100
AcDbEntity
  8
0
100
AcDbLine
 62
7
  6
CONTINUOUS
 10
9.1656099844
 20
9.5776868096
 11
9.1656099844
 21
9.6761120064
  0
LINE
  5
50A
100
AcDbEntity
  8
0
100
AcDbLine
 62
7
  6
CONTINUOUS
 10
9.1770216394
 20
9.5776868096
 11
9.1770216394
 21
9.6761120064
  0
LINE
  5
50B
100
AcDbEntity
  8
0
100
AcDbLine
 62
7
  6
CONTINUOUS
 10
9.1850282662
 20
9.5776868096
 11
9.1850282662
 21
9.6761120064
  0
LINE
  5
50C
100
AcDbEntity
  8
0
100
AcDbLine
 62
7
  6
CONTINUOUS
 10
9.1994848686
 20
9.5776868096
 11
9.1994848686
 21
9.6761120064
  0
LINE
  5
50D
100
AcDbEntity
  8
0
100
AcDbLine
 62
7
  6
CONTINUOUS
 10
9.2093273883
 20
9.5776868096
 11
9.2093273883
 21
9.6761120064
  0
LINE
  5
50E
100
AcDbEntity
  8
AXIS
100
AcDbLine
 62
9
  6
CONTINUOUS
 10
9.2137330036
 20
9.4989466521
 11
9.2137330036
 21
9.5776868096
  0
LINE
  5
50F
100
AcDbEntity
  8
AXIS
100
AcDbLine
 62
7
  6
CONTINUOUS
 10
9.2237851618
 20
9.4989466521
 11
9.2237851618
 21
9.5776868096
  0
LINE
  5
510
100
AcDbEntity
  8
0
100
AcDbLine
 62
7
  6
CONTINUOUS
 10
9.2266705485
 20
9.4989466521
 11
9.2266705485
 21
9.6761120064
  0
LINE
  5
511
100
AcDbEntity
  8
0
100
AcDbLine
 62
9
  6
CONTINUOUS
 10
9.2322856389
 20
8.0871724535
 11
9.2322856389
 21
9.2233561009
  0
LINE
  5
512
100
AcDbEntity
  8
0
100
AcDbLine
 62
7
  6
CONTINUOUS
 10
9.2382411243
 20
9.4989466521
 11
9.2382411243
 21
9.6761120064
  0
LINE
  5
513
100
AcDbEntity
  8
0
100
AcDbLine
 62
7
  6
CONTINUOUS
 10
9.249333383
 20
8.0871724535
 11
9.249333383
 21
9.2233561009
  0
LINE
  5
514
100
AcDbEntity
  8
0
100
AcDbLine
 62
7
  6
CONTINUOUS
 10
9.0131129106
 20
8.0540647623
 11
9.064294013
 21
8.00288366
  0
LINE
  5
515
100
AcDbEntity
  8
0
100
AcDbLine
 62
9
  6
CONTINUOUS
 10
9.3801146799
 20
7.9526097399
 11
9.3785164539
 21
7.9695824019
  0
LINE
  5
516
100
AcDbEntity
  8
0
100
AcDbLine
 62
7
  6
CONTINUOUS
 10
9.258280827
 20
9.4989466521
 11
9.258280827
 21
9.6761120064
  0
LINE
  5
517
100
AcDbEntity
  8
0
100
AcDbLine
 62
7
  6
CONTINUOUS
 10
9.2714526894
 20
9.4989466521
 11
9.2714526894
 21
9.6761120064
  0
LINE
  5
518
100
AcDbEntity
  8
0
100
AcDbLine
 62
7
  6
CONTINUOUS
 10
9.2939693755
 20
9.4989466521
 11
9.2939693755
 21
9.6761120064
  0
LINE
  5
519
100
AcDbEntity
  8
0
100
AcDbLine
 62
7
  6
CONTINUOUS
 10
9.3085982106
 20
9.4989466521
 11
9.3085982106
 21
9.6761120064
  0
LINE
  5
51A
100
AcDbEntity
  8
0
100
AcDbLine
 62
7
  6
CONTINUOUS
 10
9.3333451826
 20
9.4989466521
 11
9.3333451826
 21
9.6761120064
  0
LINE
  5
51B
100
AcDbEntity
  8
0
100
AcDbLine
 62
7
  6
CONTINUOUS
 10
9.3492707139
 20
9.4989466521
 11
9.3492707139
 21
9.6761120064
  0
LINE
  5
51C
100
AcDbEntity
  8
0
100
AcDbLine
 62
9
  6
CONTINUOUS
 10
9.3674436193
 20
9.3585140813
 11
9.3674436193
 21
9.3414663371
  0
LINE
  5
51D
100
AcDbEntity
  8
0
100
AcDbLine
 62
7
  6
CONTINUOUS
 10
9.3759768387
 20
9.4989466521
 11
9.3759768387
 21
9.6761120064
  0
LINE
  5
51E
100
AcDbEntity
  8
0
100
AcDbLine
 62
7
  6
CONTINUOUS
 10
9.3930245829
 20
9.4989466521
 11
9.3930245829
 21
9.6761120064
  0
LINE
  5
51F
100
AcDbEntity
  8
0
100
AcDbLine
 62
7
  6
CONTINUOUS
 10
9.4213972626
 20
9.4989466521
 11
9.4213972626
 21
9.6761120064
  0
LINE
  5
520
100
AcDbEntity
  8
0
100
AcDbLine
 62
7
  6
CONTINUOUS
 10
9.437322794
 20
9.6761120064
 11
9.437322794
 21
9.4989466521
  0
LINE
  5
521
100
AcDbEntity
  8
0
100
AcDbLine
 62
7
  6
CONTINUOUS
 10
9.4393804409
 20
9.4989466521
 11
9.4393804409
 21
9.6761120064
  0
LINE
  5
522
100
AcDbEntity
  8
0
100
AcDbLine
 62
7
  6
CONTINUOUS
 10
9.4691088185
 20
9.4989466521
 11
9.4691088185
 21
9.6761120064
  0
LINE
  5
523
100
AcDbEntity
  8
0
100
AcDbLine
 62
7
  6
CONTINUOUS
 10
9.4837376537
 20
9.6761120064
 11
9.4837376537
 21
9.4989466521
  0
LINE
  5
524
100
AcDbEntity
  8
0
100
AcDbLine
 62
7
  6
CONTINUOUS
 10
9.4878304035
 20
9.4989466521
 11
9.4878304035
 21
9.6761120064
  0
LINE
  5
525
100
AcDbEntity
  8
0
100
AcDbLine
 62
7
  6
CONTINUOUS
 10
9.5185887687
 20
9.4989466521
 11
9.5185887687
 21
9.6761120064
  0
LINE
  5
526
100
AcDbEntity
  8
0
100
AcDbLine
 62
7
  6
CONTINUOUS
 10
9.531760631
 20
9.6761120064
 11
9.531760631
 21
9.4989466521
  0
LINE
  5
527
100
AcDbEntity
  8
0
100
AcDbLine
 62
7
  6
CONTINUOUS
 10
9.5378436427
 20
9.4989466521
 11
9.5378436427
 21
9.6761120064
  0
LINE
  5
528
100
AcDbEntity
  8
0
100
AcDbLine
 62
7
  6
CONTINUOUS
 10
9.5692950005
 20
9.4989466521
 11
9.5692950005
 21
9.6761120064
  0
LINE
  5
529
100
AcDbEntity
  8
0
100
AcDbLine
 62
7
  6
CONTINUOUS
 10
9.5808655763
 20
9.6761120064
 11
9.5808655763
 21
9.4989466521
  0
LINE
  5
52A
100
AcDbEntity
  8
0
100
AcDbLine
 62
7
  6
CONTINUOUS
 10
9.5888722031
 20
9.4989466521
 11
9.5888722031
 21
9.6761120064
  0
LINE
  5
52B
100
AcDbEntity
  8
0
100
AcDbLine
 62
7
  6
CONTINUOUS
 10
9.6206719657
 20
9.4989466521
 11
9.6206719657
 21
9.6761120064
  0
LINE
  5
52C
100
AcDbEntity
  8
AXIS
100
AcDbLine
 62
7
  6
CENTER
 10
9.6305144854
 20
9.865552197
 11
9.6305144854
 21
9.0143737817
  0
LINE
  5
52D
100
AcDbEntity
  8
0
100
AcDbLine
 62
7
  6
CONTINUOUS
 10
9.6305144854
 20
9.6761120064
 11
9.6305144854
 21
9.4989466521
  0
LINE
  5
52E
100
AcDbEntity
  8
0
100
AcDbLine
 62
7
  6
CONTINUOUS
 10
9.6403570051
 20
9.4989466521
 11
9.6403570051
 21
9.6761120064
  0
LINE
  5
52F
100
AcDbEntity
  8
0
100
AcDbLine
 62
7
  6
CONTINUOUS
 10
9.6721567677
 20
9.4989466521
 11
9.6721567677
 21
9.6761120064
  0
LINE
  5
530
100
AcDbEntity
  8
0
100
AcDbLine
 62
7
  6
CONTINUOUS
 10
9.6801633945
 20
9.6761120064
 11
9.6801633945
 21
9.4989466521
  0
LINE
  5
531
100
AcDbEntity
  8
0
100
AcDbLine
 62
7
  6
CONTINUOUS
 10
9.6917339703
 20
9.4989466521
 11
9.6917339703
 21
9.6761120064
  0
LWPOLYLINE
  5
532
100
AcDbEntity
  8
0
100
AcDbPolyline
 62
9
  6
CONTINUOUS
 90
5
 70
0
 10
11.6223647531
 20
7.2637380951
 10
11.6337069424
 20
7.264217354
 10
11.6488974762
 20
7.2650303476
 10
11.6668826857
 20
7.2662453574
 10
11.6861784846
 20
7.2678498693
  0
LINE
  5
533
100
AcDbEntity
  8
0
100
AcDbLine
 62
9
  6
CONTINUOUS
 10
11.6131054055
 20
7.2634305613
 11
11.6223647531
 21
7.2637380951
  0
LINE
  5
534
100
AcDbEntity
  8
0
100
AcDbLine
 62
7
  6
CONTINUOUS
 10
9.7231853281
 20
9.4989466521
 11
9.7231853281
 21
9.6761120064
  0
LINE
  5
535
100
AcDbEntity
  8
0
100
AcDbLine
 62
7
  6
CONTINUOUS
 10
9.7292683398
 20
9.6761120064
 11
9.7292683398
 21
9.4989466521
  0
LINE
  5
536
100
AcDbEntity
  8
0
100
AcDbLine
 62
7
  6
CONTINUOUS
 10
9.7424402021
 20
9.4989466521
 11
9.7424402021
 21
9.6761120064
  0
LINE
  5
537
100
AcDbEntity
  8
0
100
AcDbLine
 62
7
  6
CONTINUOUS
 10
9.7731985673
 20
9.4989466521
 11
9.7731985673
 21
9.6761120064
  0
LINE
  5
538
100
AcDbEntity
  8
0
100
AcDbLine
 62
7
  6
CONTINUOUS
 10
9.7772913171
 20
9.6761120064
 11
9.7772913171
 21
9.4989466521
  0
LINE
  5
539
100
AcDbEntity
  8
0
100
AcDbLine
 62
7
  6
CONTINUOUS
 10
9.7919201523
 20
9.4989466521
 11
9.7919201523
 21
9.6761120064
  0
LINE
  5
53A
100
AcDbEntity
  8
0
100
AcDbLine
 62
7
  6
CONTINUOUS
 10
9.8216485299
 20
9.4989466521
 11
9.8216485299
 21
9.6761120064
  0
LINE
  5
53B
100
AcDbEntity
  8
0
100
AcDbLine
 62
7
  6
CONTINUOUS
 10
9.8237061768
 20
9.6761120064
 11
9.8237061768
 21
9.4989466521
  0
LINE
  5
53C
100
AcDbEntity
  8
0
100
AcDbLine
 62
7
  6
CONTINUOUS
 10
9.8396317082
 20
9.4989466521
 11
9.8396317082
 21
9.6761120064
  0
LWPOLYLINE
  5
53D
100
AcDbEntity
  8
0
100
AcDbPolyline
 62
7
  6
CONTINUOUS
 90
4
 70
0
 10
11.0446092745
 20
7.3828049198
 10
11.0508264145
 20
7.384084077
 10
11.0560335409
 20
7.3877137239
 10
11.0591008039
 20
7.3926474395
  0
LINE
  5
53E
100
AcDbEntity
  8
0
100
AcDbLine
 62
7
  6
CONTINUOUS
 10
10.9619318082
 20
7.3631198804
 11
10.8044514933
 21
7.3631198804
  0
LINE
  5
53F
100
AcDbEntity
  8
0
100
AcDbLine
 62
7
  6
CONTINUOUS
 10
10.3713806271
 20
7.3631198804
 11
10.2139003122
 21
7.3631198804
  0
LINE
  5
540
100
AcDbEntity
  8
0
100
AcDbLine
 62
7
  6
CONTINUOUS
 10
11.0446089736
 20
7.3828049198
 11
10.7217743279
 21
7.3828049198
  0
LINE
  5
541
100
AcDbEntity
  8
0
100
AcDbLine
 62
7
  6
CONTINUOUS
 10
10.4540577925
 20
7.3828049198
 11
10.1312231468
 21
7.3828049198
  0
LINE
  5
542
100
AcDbEntity
  8
AXIS
100
AcDbLine
 62
7
  6
CONTINUOUS
 10
11.2178153918
 20
7.3926474395
 11
9.9580167286
 21
7.3926474395
  0
LINE
  5
543
100
AcDbEntity
  8
AXIS
100
AcDbLine
 62
7
  6
CONTINUOUS
 10
9.2296483437
 20
7.4123324789
 11
11.2525617295
 21
7.4123324789
  0
LINE
  5
544
100
AcDbEntity
  8
0
100
AcDbLine
 62
7
  6
CONTINUOUS
 10
9.8680043879
 20
9.4989466521
 11
9.8680043879
 21
9.6761120064
  0
LINE
  5
545
100
AcDbEntity
  8
0
100
AcDbLine
 62
7
  6
CONTINUOUS
 10
9.8850521321
 20
9.4989466521
 11
9.8850521321
 21
9.6761120064
  0
LINE
  5
546
100
AcDbEntity
  8
0
100
AcDbLine
 62
7
  6
CONTINUOUS
 10
9.9117582568
 20
9.4989466521
 11
9.9117582568
 21
9.6761120064
  0
LINE
  5
547
100
AcDbEntity
  8
0
100
AcDbLine
 62
7
  6
CONTINUOUS
 10
9.9276837882
 20
9.4989466521
 11
9.9276837882
 21
9.6761120064
  0
LINE
  5
548
100
AcDbEntity
  8
0
100
AcDbLine
 62
7
  6
CONTINUOUS
 10
9.9524307602
 20
9.4989466521
 11
9.9524307602
 21
9.6761120064
  0
LINE
  5
549
100
AcDbEntity
  8
AXIS
100
AcDbLine
 62
7
  6
CONTINUOUS
 10
9.9579948004
 20
7.4123324789
 11
9.9579948004
 21
7.3926474395
  0
LINE
  5
54A
100
AcDbEntity
  8
0
100
AcDbLine
 62
7
  6
CONTINUOUS
 10
9.9670595953
 20
9.4989466521
 11
9.9670595953
 21
9.6761120064
  0
LINE
  5
54B
100
AcDbEntity
  8
0
100
AcDbLine
 62
7
  6
CONTINUOUS
 10
9.9895762814
 20
9.4989466521
 11
9.9895762814
 21
9.6761120064
  0
LINE
  5
54C
100
AcDbEntity
  8
0
100
AcDbLine
 62
7
  6
CONTINUOUS
 10
10.0027481437
 20
9.4989466521
 11
10.0027481437
 21
9.6761120064
  0
LINE
  5
54D
100
AcDbEntity
  8
AXIS
100
AcDbLine
 62
7
  6
CONTINUOUS
 10
10.0045302334
 20
9.4989466521
 11
10.0045302334
 21
9.5776868096
  0
LWPOLYLINE
  5
54E
100
AcDbEntity
  8
0
100
AcDbPolyline
 62
7
  6
CONTINUOUS
 90
4
 70
0
 10
10.4540580934
 20
7.3828049198
 10
10.4602752334
 20
7.384084077
 10
10.4654823598
 20
7.3877137239
 10
10.4685496228
 20
7.3926474395
  0
LINE
  5
54F
100
AcDbEntity
  8
AXIS
100
AcDbLine
 62
7
  6
CONTINUOUS
 10
11.157000918
 20
7.5304427151
 11
9.8069947405
 21
7.4123324789
  0
LWPOLYLINE
  5
550
100
AcDbEntity
  8
0
100
AcDbPolyline
 62
9
  6
CONTINUOUS
 90
43
 70
0
 10
11.5504035725
 20
7.462099605
 10
11.5204382027
 20
7.4677862336
 10
11.4938489454
 20
7.4740210786
 10
11.4701637292
 20
7.4806141269
 10
11.4490062265
 20
7.4874279077
 10
11.4300696567
 20
7.4943609609
 10
11.4130996841
 20
7.5013373352
 10
11.3978823867
 20
7.5082997783
 10
11.3842361072
 20
7.5152049436
 10
11.3720105365
 20
7.5220169431
 10
11.3610827278
 20
7.5287030842
 10
11.3513441109
 20
7.5352368959
 10
11.3426968166
 20
7.5415984626
 10
11.335053278
 20
7.5477727136
 10
11.3283353848
 20
7.5537493645
 10
11.3224757324
 20
7.5595215265
 10
11.3174158083
 20
7.5650872516
 10
11.3131141672
 20
7.5704415611
 10
11.30953312
 20
7.5755988604
 10
11.3066821262
 20
7.5805503324
 10
11.3046523382
 20
7.5852211754
 10
11.3037524957
 20
7.5898982532
 10
11.3050500718
 20
7.5948467754
 10
11.3074130878
 20
7.5998246919
 10
11.3105858847
 20
7.6050031674
 10
11.3145499756
 20
7.6104225478
 10
11.3192818179
 20
7.6160373127
 10
11.324825201
 20
7.621862238
 10
11.3312287937
 20
7.6278932163
 10
11.3385554969
 20
7.6341247855
 10
11.3468792737
 20
7.6405477177
 10
11.3562843198
 20
7.6471482049
 10
11.3668656233
 20
7.6539078064
 10
11.3787287205
 20
7.6608016386
 10
11.3919910523
 20
7.6677976658
 10
11.4067821835
 20
7.6748548998
 10
11.4232450583
 20
7.681921669
 10
11.4415376363
 20
7.6889333167
 10
11.4618338786
 20
7.6958089218
 10
11.4843253764
 20
7.7024473968
 10
11.5092234777
 20
7.7087224061
 10
11.5367615355
 20
7.7144753558
 10
11.5671974638
 20
7.7195056026
  0
LWPOLYLINE
  5
551
100
AcDbEntity
  8
0
100
AcDbPolyline
 62
7
  6
CONTINUOUS
 90
33
 70
0
 10
11.4578171401
 20
7.3206905522
 10
11.420839779
 20
7.3310117405
 10
11.3878776195
 20
7.3420060365
 10
11.3581894248
 20
7.3535576205
 10
11.3312265998
 20
7.3656126307
 10
11.3065245948
 20
7.3781869677
 10
11.2836447758
 20
7.3913876456
 10
11.2622476501
 20
7.4053760168
 10
11.2425350227
 20
7.4200137575
 10
11.2249868705
 20
7.4348518374
 10
11.2094039165
 20
7.4499085168
 10
11.1950835811
 20
7.4658784071
 10
11.1815409113
 20
7.4837143215
 10
11.1689086688
 20
7.5042244294
 10
11.1579903997
 20
7.52781089
 10
11.1501962721
 20
7.5536394168
 10
11.1465213274
 20
7.5802842062
 10
11.1471996509
 20
7.607024602
 10
11.1522024523
 20
7.6335195089
 10
11.1610977813
 20
7.6587747069
 10
11.1726717492
 20
7.68141728
 10
11.1856343674
 20
7.7010273572
 10
11.1992844996
 20
7.718058982
 10
11.2136195164
 20
7.7333674102
 10
11.2292163773
 20
7.7479022592
 10
11.2467706998
 20
7.7622903587
 10
11.2663385408
 20
7.7764334995
 10
11.287610473
 20
7.7900160813
 10
11.3106011106
 20
7.8029956414
 10
11.3356220752
 20
7.8154598897
 10
11.3630484343
 20
7.8274453254
 10
11.3932829595
 20
7.8389179547
 10
11.4267276582
 20
7.8497633323
  0
LINE
  5
552
100
AcDbEntity
  8
0
100
AcDbLine
 62
7
  6
CONTINUOUS
 10
10.0227878465
 20
9.5776868096
 11
10.0227878465
 21
9.6761120064
  0
LINE
  5
553
100
AcDbEntity
  8
0
100
AcDbLine
 62
7
  6
CONTINUOUS
 10
10.0343584223
 20
9.5776868096
 11
10.0343584223
 21
9.6761120064
  0
LINE
  5
554
100
AcDbEntity
  8
0
100
AcDbLine
 62
7
  6
CONTINUOUS
 10
10.0517015825
 20
9.5776868096
 11
10.0517015825
 21
9.6761120064
  0
LINE
  5
555
100
AcDbEntity
  8
AXIS
100
AcDbLine
 62
7
  6
CONTINUOUS
 10
10.0564199972
 20
7.4123324789
 11
10.0564199972
 21
7.3926474395
  0
LINE
  5
556
100
AcDbEntity
  8
0
100
AcDbLine
 62
7
  6
CONTINUOUS
 10
10.0615441022
 20
9.5776868096
 11
10.0615441022
 21
9.6761120064
  0
LINE
  5
557
100
AcDbEntity
  8
0
100
AcDbLine
 62
7
  6
CONTINUOUS
 10
10.0760007046
 20
9.5776868096
 11
10.0760007046
 21
9.6761120064
  0
LINE
  5
558
100
AcDbEntity
  8
0
100
AcDbLine
 62
7
  6
CONTINUOUS
 10
10.0840073314
 20
9.5776868096
 11
10.0840073314
 21
9.6761120064
  0
LINE
  5
559
100
AcDbEntity
  8
0
100
AcDbLine
 62
7
  6
CONTINUOUS
 10
10.0954189864
 20
9.5776868096
 11
10.0954189864
 21
9.6761120064
  0
LINE
  5
55A
100
AcDbEntity
  8
0
100
AcDbLine
 62
7
  6
CONTINUOUS
 10
10.1015019981
 20
9.5776868096
 11
10.1015019981
 21
9.6761120064
  0
LINE
  5
55B
100
AcDbEntity
  8
0
100
AcDbLine
 62
7
  6
CONTINUOUS
 10
10.1097436772
 20
9.5776868096
 11
10.1097436772
 21
9.6761120064
  0
LINE
  5
55C
100
AcDbEntity
  8
0
100
AcDbLine
 62
7
  6
CONTINUOUS
 10
10.1138364271
 20
9.5776868096
 11
10.1138364271
 21
9.6761120064
  0
LINE
  5
55D
100
AcDbEntity
  8
0
100
AcDbLine
 62
7
  6
CONTINUOUS
 10
10.1188178328
 20
9.5776868096
 11
10.1188178328
 21
9.6761120064
  0
LINE
  5
55E
100
AcDbEntity
  8
0
100
AcDbLine
 62
7
  6
CONTINUOUS
 10
10.1208754797
 20
9.5776868096
 11
10.1208754797
 21
9.6761120064
  0
LINE
  5
55F
100
AcDbEntity
  8
0
100
AcDbLine
 62
7
  6
CONTINUOUS
 10
10.1225420346
 20
9.5776868096
 11
10.1225420346
 21
9.6761120064
  0
LINE
  5
560
100
AcDbEntity
  8
AXIS
100
AcDbLine
 62
7
  6
CONTINUOUS
 10
10.142325509
 20
9.4989466521
 11
10.142325509
 21
9.5776868096
  0
LINE
  5
561
100
AcDbEntity
  8
0
100
AcDbLine
 62
7
  6
CONTINUOUS
 10
11.4267276582
 20
7.8497633323
 11
11.4637329026
 21
7.8597749398
  0
LINE
  5
562
100
AcDbEntity
  8
AXIS
100
AcDbLine
 62
7
  6
CENTER
 10
11.6777585799
 20
7.8926474395
 11
11.4891759027
 21
7.8926474395
  0
LINE
  5
563
100
AcDbEntity
  8
AXIS
100
AcDbLine
 62
7
  6
CENTER
 10
10.5753963752
 20
7.8926474395
 11
10.386813698
 21
7.8926474395
  0
LINE
  5
564
100
AcDbEntity
  8
AXIS
100
AcDbLine
 62
7
  6
CENTER
 10
10.5753963752
 20
7.8926474395
 11
10.7639790523
 21
7.8926474395
  0
LINE
  5
565
100
AcDbEntity
  8
AXIS
100
AcDbLine
 62
7
  6
CENTER
 10
11.6777585799
 20
7.8926474395
 11
11.866341257
 21
7.8926474395
  0
LWPOLYLINE
  5
566
100
AcDbEntity
  8
0
100
AcDbPolyline
 62
9
  6
CONTINUOUS
 90
54
 70
0
 10
11.7883196963
 20
7.7195056028
 10
11.8175962129
 20
7.7146918312
 10
11.8440841837
 20
7.7092285045
 10
11.868070902
 20
7.7032934313
 10
11.8897692107
 20
7.6970350047
 10
11.9093833752
 20
7.6905693921
 10
11.9270961613
 20
7.6839902423
 10
11.9430744181
 20
7.6773723089
 10
11.9574693418
 20
7.6707755375
 10
11.9704184734
 20
7.6642477479
 10
11.9820470804
 20
7.6578266898
 10
11.9924688073
 20
7.6515418883
 10
12.0017865484
 20
7.6454163746
 10
12.0100939932
 20
7.6394673694
 10
12.0174753082
 20
7.6337072983
 10
12.024006381
 20
7.6281449979
 10
12.0297550384
 20
7.622785858
 10
12.0347807115
 20
7.6176322115
 10
12.0391337198
 20
7.6126855182
 10
12.0428607417
 20
7.6079385298
 10
12.045975621
 20
7.6034102809
 10
12.0485393964
 20
7.5990143826
 10
12.0504052823
 20
7.5950043153
 10
12.051661077
 20
7.5907852691
 10
12.0514618526
 20
7.5872324899
 10
12.0499685157
 20
7.5829446854
 10
12.0479003455
 20
7.5788015168
 10
12.0451643481
 20
7.57434033
 10
12.0418469527
 20
7.5697070821
 10
12.0379136666
 20
7.5648684838
 10
12.0333318281
 20
7.5598244294
 10
12.0280574208
 20
7.5545747806
 10
12.0220360035
 20
7.5491197609
 10
12.015205256
 20
7.5434630823
 10
12.0074945443
 20
7.5376114709
 10
11.9988251791
 20
7.5315748968
 10
11.9891091703
 20
7.5253673957
 10
11.9782497713
 20
7.5190084985
 10
11.9661400161
 20
7.5125234117
 10
11.9526617781
 20
7.5059445468
 10
11.9376854115
 20
7.4993133723
 10
11.9210683342
 20
7.4926820325
 10
11.9026533511
 20
7.4861156713
 10
11.882267602
 20
7.4796957665
 10
11.8597207653
 20
7.4735240256
 10
11.8348038408
 20
7.4677277652
 10
11.8072839637
 20
7.4624664118
 10
11.7769126344
 20
7.4579431869
 10
11.7433842663
 20
7.4544138422
 10
11.7064762265
 20
7.4522191192
 10
11.6655283593
 20
7.4517961348
 10
11.623092957
 20
7.4535801827
 10
11.5843515829
 20
7.4572314679
 10
11.5504035725
 20
7.462099605
  0
LINE
  5
567
100
AcDbEntity
  8
0
100
AcDbLine
 62
7
  6
CONTINUOUS
 10
9.064294013
 20
8.00288366
 11
9.0721680287
 21
8.00288366
  0
LINE
  5
568
100
AcDbEntity
  8
0
100
AcDbLine
 62
9
  6
CONTINUOUS
 10
10.5036272667
 20
9.3585140813
 11
10.5036272667
 21
9.3414663371
  0
LINE
  5
569
100
AcDbEntity
  8
AXIS
100
AcDbLine
 62
7
  6
CENTER
 10
10.5753963752
 20
7.8926474395
 11
10.5753963752
 21
7.7040647623
  0
LINE
  5
56A
100
AcDbEntity
  8
AXIS
100
AcDbLine
 62
7
  6
CENTER
 10
10.5753963752
 20
7.8926474395
 11
10.5753963752
 21
8.0812301167
  0
LINE
  5
56B
100
AcDbEntity
  8
0
100
AcDbLine
 62
9
  6
CONTINUOUS
 10
9.2322856389
 20
8.0871724535
 11
9.249333383
 21
8.0871724535
  0
LWPOLYLINE
  5
56C
100
AcDbEntity
  8
0
100
AcDbPolyline
 62
7
  6
CONTINUOUS
 90
9
 70
0
 10
11.8917842572
 20
7.8597749398
 10
11.9287985654
 20
7.8497606341
 10
11.9621949053
 20
7.8389317861
 10
11.9923184803
 20
7.8275066345
 10
12.01962598
 20
7.8155855645
 10
12.044606869
 20
7.8031596158
 10
12.0677192158
 20
7.7901286035
 10
12.0893349112
 20
7.7763272831
 10
12.1094034364
 20
7.7617834692
  0
LINE
  5
56D
100
AcDbEntity
  8
AXIS
100
AcDbLine
 62
7
  6
CONTINUOUS
 10
12.1454751807
 20
8.2975293293
 11
12.4057649449
 21
8.2975293293
  0
LWPOLYLINE
  5
56E
100
AcDbEntity
  8
0
100
AcDbPolyline
 62
7
  6
CONTINUOUS
 90
13
 70
0
 10
11.5671974638
 20
7.7195056026
 10
11.5491477626
 20
7.7322630014
 10
11.5338400879
 20
7.7451912923
 10
11.5209497062
 20
7.7578329509
 10
11.5101479587
 20
7.769911181
 10
11.5011752907
 20
7.7812074512
 10
11.49369138
 20
7.791718968
 10
11.4872855302
 20
7.8017043965
 10
11.4816242154
 20
7.8114983168
 10
11.476472839
 20
7.8214578677
 10
11.4718325532
 20
7.8316574114
 10
11.4678732189
 20
7.8419582471
 10
11.4650969029
 20
7.8518723869
  0
LINE
  5
56F
100
AcDbEntity
  8
AXIS
100
AcDbLine
 62
7
  6
CONTINUOUS
 10
12.4057649449
 20
8.3847931088
 11
12.8034027401
 21
8.3847931088
  0
LINE
  5
570
100
AcDbEntity
  8
0
100
AcDbLine
 62
7
  6
CONTINUOUS
 10
10.9494121232
 20
9.4989466521
 11
10.9494121232
 21
9.5087891718
  0
LINE
  5
571
100
AcDbEntity
  8
AXIS
100
AcDbLine
 62
7
  6
CONTINUOUS
 10
11.5351277498
 20
7.3053058358
 11
11.536033086
 21
7.3031952634
  0
LINE
  5
572
100
AcDbEntity
  8
AXIS
100
AcDbLine
 62
7
  6
CONTINUOUS
 10
11.6015455148
 20
7.2903796501
 11
11.6131057481
 21
7.2634297621
  0
LINE
  5
573
100
AcDbEntity
  8
AXIS
100
AcDbLine
 62
7
  6
CONTINUOUS
 10
11.1194121232
 20
7.4123324789
 11
11.1194121232
 21
7.3926474395
  0
LINE
  5
574
100
AcDbEntity
  8
AXIS
100
AcDbLine
 62
7
  6
CONTINUOUS
 10
11.21783732
 20
7.4123324789
 11
11.21783732
 21
7.3926474395
  0
LWPOLYLINE
  5
575
100
AcDbEntity
  8
0
100
AcDbPolyline
 62
7
  6
CONTINUOUS
 90
35
 70
0
 10
12.1087464599
 20
7.7622903587
 10
12.1274112462
 20
7.7469275595
 10
12.1433094857
 20
7.731952525
 10
12.1578037035
 20
7.7162384845
 10
12.1714578559
 20
7.6988577693
 10
12.1842835122
 20
7.6789415149
 10
12.1956135235
 20
7.6559658761
 10
12.2041147691
 20
7.6304631416
 10
12.2086232745
 20
7.6038859815
 10
12.2087891067
 20
7.5771419405
 10
12.2046136063
 20
7.5505619643
 10
12.1963952348
 20
7.524938345
 10
12.1852023591
 20
7.5016763324
 10
12.1724170796
 20
7.4814840115
 10
12.1588412651
 20
7.4639772937
 10
12.1446513002
 20
7.4484050384
 10
12.1293452492
 20
7.4337860614
 10
12.1122228979
 20
7.4194135936
 10
12.093019561
 20
7.4052020577
 10
12.0719983803
 20
7.3914650351
 10
12.0492526246
 20
7.3783280755
 10
12.0245562655
 20
7.3657396482
 10
11.9976222516
 20
7.3536808292
 10
11.9681405539
 20
7.3421873782
 10
11.935716337
 20
7.3313313037
 10
11.8997388863
 20
7.3212083219
 10
11.8594849409
 20
7.3120182184
 10
11.8142551201
 20
7.3041256702
 10
11.7641218323
 20
7.2981464408
 10
11.7104825868
 20
7.294782442
 10
11.6549998549
 20
7.29449307
 10
11.5997103231
 20
7.2974232325
 10
11.5471473242
 20
7.3032768377
 10
11.4996639481
 20
7.3112924029
 10
11.4578171401
 20
7.3206905522
  0
LINE
  5
576
100
AcDbEntity
  8
0
100
AcDbLine
 62
9
  6
CONTINUOUS
 10
11.679476602
 20
7.2834736878
 11
11.6861784846
 21
7.2678498693
  0
LINE
  5
577
100
AcDbEntity
  8
AXIS
100
AcDbLine
 62
7
  6
CONTINUOUS
 10
12.4057649449
 20
8.8414466521
 11
12.8034027401
 21
8.8414466521
  0
LINE
  5
578
100
AcDbEntity
  8
AXIS
100
AcDbLine
 62
7
  6
CONTINUOUS
 10
12.1893244037
 20
8.9287104316
 11
12.4057649449
 21
8.9287104316
  0
LINE
  5
579
100
AcDbEntity
  8
0
100
AcDbLine
 62
7
  6
CONTINUOUS
 10
10.3982310208
 20
9.4989466521
 11
10.3194908633
 21
9.5776868096
  0
LINE
  5
57A
100
AcDbEntity
  8
0
100
AcDbLine
 62
9
  6
CONTINUOUS
 10
12.0218463761
 20
7.3441985444
 11
12.0307455307
 21
7.3266399048
  0
LINE
  5
57B
100
AcDbEntity
  8
0
100
AcDbLine
 62
7
  6
CONTINUOUS
 10
11.4612231468
 20
7.8926474396
 11
11.4650969029
 21
7.8518723869
  0
LINE
  5
57C
100
AcDbEntity
  8
0
100
AcDbLine
 62
9
  6
CONTINUOUS
 10
12.0157476556
 20
7.3584162363
 11
12.0218463761
 21
7.3441985444
  0
LINE
  5
57D
100
AcDbEntity
  8
0
100
AcDbLine
 62
7
  6
CONTINUOUS
 10
11.6187034618
 20
9.4989466521
 11
11.6187034618
 21
9.5087891718
  0
LINE
  5
57E
100
AcDbEntity
  8
AXIS
100
AcDbLine
 62
7
  6
CENTER
 10
11.6777585799
 20
7.8926474395
 11
11.6777585799
 21
7.7040647623
  0
LINE
  5
57F
100
AcDbEntity
  8
AXIS
100
AcDbLine
 62
7
  6
CENTER
 10
11.6777585799
 20
7.8926474395
 11
11.6777585799
 21
8.0812301167
  0
LINE
  5
580
100
AcDbEntity
  8
0
100
AcDbLine
 62
9
  6
CONTINUOUS
 10
9.2322856389
 20
9.2233561009
 11
9.249333383
 21
9.2233561009
  0
LINE
  5
581
100
AcDbEntity
  8
0
100
AcDbLine
 62
9
  6
CONTINUOUS
 10
10.6381899802
 20
9.2106850403
 11
10.6212173183
 21
9.2122832663
  0
LINE
  5
582
100
AcDbEntity
  8
AXIS
100
AcDbLine
 62
7
  6
CONTINUOUS
 10
12.075963625
 20
7.3928087867
 11
12.083268033
 21
7.3757803259
  0
LINE
  5
583
100
AcDbEntity
  8
AXIS
100
AcDbLine
 62
7
  6
CONTINUOUS
 10
12.1212986968
 20
7.4270318013
 11
12.122060595
 21
7.4252556201
  0
LINE
  5
584
100
AcDbEntity
  8
0
100
AcDbLine
 62
9
  6
CONTINUOUS
 10
11.6861784846
 20
7.2678498693
 11
11.6857494536
 21
7.2481695058
  0
LINE
  5
585
100
AcDbEntity
  8
0
100
AcDbLine
 62
7
  6
CONTINUOUS
 10
9.3674436193
 20
9.3414663371
 11
10.5036272667
 21
9.3414663371
  0
LINE
  5
586
100
AcDbEntity
  8
0
100
AcDbLine
 62
9
  6
CONTINUOUS
 10
9.3674436193
 20
9.3585140813
 11
10.5036272667
 21
9.3585140813
  0
LINE
  5
587
100
AcDbEntity
  8
0
100
AcDbLine
 62
7
  6
CONTINUOUS
 10
12.0601393749
 20
9.4989466521
 11
10.3982310208
 21
9.4989466521
  0
LINE
  5
588
100
AcDbEntity
  8
AXIS
100
AcDbLine
 62
7
  6
CONTINUOUS
 10
10.142325509
 20
9.4989466521
 11
9.1509081862
 21
9.4989466521
  0
LINE
  5
589
100
AcDbEntity
  8
0
100
AcDbLine
 62
7
  6
CONTINUOUS
 10
10.5333890012
 20
9.5087891718
 11
12.0347265837
 21
9.5087891718
  0
LINE
  5
58A
100
AcDbEntity
  8
AXIS
100
AcDbLine
 62
7
  6
CONTINUOUS
 10
9.0131129106
 20
9.5776868096
 11
9.2237755281
 21
9.5776868096
  0
LINE
  5
58B
100
AcDbEntity
  8
AXIS
100
AcDbLine
 62
7
  6
CONTINUOUS
 10
10.004541233
 20
9.5776868096
 11
10.142325509
 21
9.5776868096
  0
LINE
  5
58C
100
AcDbEntity
  8
0
100
AcDbLine
 62
7
  6
CONTINUOUS
 10
10.142325509
 20
9.5776868096
 11
10.3194908633
 21
9.5776868096
  0
LWPOLYLINE
  5
58D
100
AcDbEntity
  8
0
100
AcDbPolyline
 62
7
  6
CONTINUOUS
 90
13
 70
0
 10
11.7883196963
 20
7.7195056028
 10
11.8063692924
 20
7.7322629198
 10
11.821676876
 20
7.7451911132
 10
11.8345671811
 20
7.7578326645
 10
11.8453688655
 20
7.7699107817
 10
11.8543414838
 20
7.7812069376
 10
11.8618253538
 20
7.7917183367
 10
11.8682311685
 20
7.8017036393
 10
11.8738924534
 20
7.8114974203
 10
11.8790438096
 20
7.8214568178
 10
11.8836841004
 20
7.8316562122
 10
11.8876435974
 20
7.841957243
 10
11.8904199242
 20
7.8518706517
  0
LINE
  5
58E
100
AcDbEntity
  8
0
100
AcDbLine
 62
7
  6
CONTINUOUS
 10
9.1384869362
 20
9.6761120064
 11
10.1225420346
 21
9.6761120064
  0
LINE
  5
58F
100
AcDbEntity
  8
0
100
AcDbLine
 62
7
  6
CONTINUOUS
 10
12.1083142993
 20
7.762622563
 11
12.217241035
 21
9.330552218
  0
LINE
  5
590
100
AcDbEntity
  8
AXIS
100
AcDbLine
 62
7
  6
CONTINUOUS
 10
12.4057649449
 20
8.9287104316
 11
12.4057649449
 21
8.2975293293
  0
LWPOLYLINE
  5
591
100
AcDbEntity
  8
0
100
AcDbPolyline
 62
7
  6
CONTINUOUS
 90
16
 70
0
 10
12.1374917693
 20
7.4415782112
 10
12.1461132433
 20
7.4499085168
 10
12.1604335787
 20
7.4658784071
 10
12.1739762485
 20
7.4837143215
 10
12.1866084909
 20
7.5042244294
 10
12.1975267601
 20
7.52781089
 10
12.2053208877
 20
7.5536394168
 10
12.2089958323
 20
7.5802842062
 10
12.2083175088
 20
7.607024602
 10
12.2033147075
 20
7.6335195089
 10
12.1944193785
 20
7.6587747069
 10
12.1828454106
 20
7.68141728
 10
12.1698827923
 20
7.7010273572
 10
12.1562326601
 20
7.718058982
 10
12.1418976433
 20
7.7333674102
 10
12.1263007824
 20
7.7479022592
  0
LINE
  5
592
100
AcDbEntity
  8
0
100
AcDbLine
 62
9
  6
CONTINUOUS
 10
12.0777710731
 20
7.3728620823
 11
12.0832426574
 21
7.375839483
  0
LWPOLYLINE
  5
593
100
AcDbEntity
  8
0
100
AcDbPolyline
 62
9
  6
CONTINUOUS
 90
5
 70
0
 10
12.0218463761
 20
7.3441985444
 10
12.0392914497
 20
7.3527962202
 10
12.0552358461
 20
7.3609236985
 10
12.0684088305
 20
7.3678372016
 10
12.0777710731
 20
7.3728620823
  0
LINE
  5
594
100
AcDbEntity
  8
AXIS
100
AcDbLine
 62
7
  6
CONTINUOUS
 10
12.8034027401
 20
8.8414466521
 11
12.8034027401
 21
8.3847931088
  0
LINE
  5
595
100
AcDbEntity
  8
0
100
AcDbLine
 62
7
  6
CONTINUOUS
 10
9.0131129106
 20
4.7219022007
 11
9.0131129106
 21
4.6234770039
  0
LINE
  5
596
100
AcDbEntity
  8
0
100
AcDbLine
 62
7
  6
CONTINUOUS
 10
9.0131129106
 20
3.5998549566
 11
9.0131129106
 21
3.5014297598
  0
LINE
  5
597
100
AcDbEntity
  8
0
100
AcDbLine
 62
7
  6
CONTINUOUS
 10
9.0332104418
 20
4.086075429
 11
9.0332104418
 21
4.1372565314
  0
LINE
  5
598
100
AcDbEntity
  8
0
100
AcDbLine
 62
7
  6
CONTINUOUS
 10
9.064294013
 20
4.7219022007
 11
9.064294013
 21
4.5449993136
  0
LINE
  5
599
100
AcDbEntity
  8
0
100
AcDbLine
 62
7
  6
CONTINUOUS
 10
9.064294013
 20
3.6783326469
 11
9.064294013
 21
3.5014297598
  0
LINE
  5
59A
100
AcDbEntity
  8
0
100
AcDbLine
 62
7
  6
CONTINUOUS
 10
9.0721680287
 20
4.7219022007
 11
9.0721680287
 21
3.5014297598
  0
LINE
  5
59B
100
AcDbEntity
  8
0
100
AcDbLine
 62
9
  6
CONTINUOUS
 10
9.2296483437
 20
4.7219022007
 11
9.2296483437
 21
3.5014297598
  0
LINE
  5
59C
100
AcDbEntity
  8
0
100
AcDbLine
 62
7
  6
CONTINUOUS
 10
9.0131129106
 20
3.5998549566
 11
9.0721680287
 21
3.6904061377
  0
LINE
  5
59D
100
AcDbEntity
  8
0
100
AcDbLine
 62
7
  6
CONTINUOUS
 10
9.0721680287
 20
4.5329258228
 11
9.0131129106
 21
4.6234770039
  0
LINE
  5
59E
100
AcDbEntity
  8
AXIS
100
AcDbLine
 62
7
  6
CONTINUOUS
 10
9.8069947405
 20
4.7219022007
 11
9.8069947405
 21
4.6037919645
  0
LINE
  5
59F
100
AcDbEntity
  8
AXIS
100
AcDbLine
 62
7
  6
CONTINUOUS
 10
9.8069947405
 20
3.5014297598
 11
9.8069947405
 21
3.619539996
  0
LWPOLYLINE
  5
5A0
100
AcDbEntity
  8
0
100
AcDbPolyline
 62
7
  6
CONTINUOUS
 90
24
 70
0
 10
10.1154751153
 20
4.1116659802
 10
10.1203323431
 20
4.0475764818
 10
10.1329987638
 20
3.9921603447
 10
10.1515133383
 20
3.9450639064
 10
10.1745901167
 20
3.9061696319
 10
10.2011655442
 20
3.8756522604
 10
10.2300843659
 20
3.8538268557
 10
10.2597023934
 20
3.8408802329
 10
10.2889214671
 20
3.8361361554
 10
10.3178078425
 20
3.8388702904
 10
10.343540387
 20
3.8476942928
 10
10.3641034254
 20
3.8594902794
 10
10.3805836281
 20
3.8724259676
 10
10.3952486813
 20
3.8870019769
 10
10.4085697859
 20
3.9032682286
 10
10.4203394324
 20
3.9206393391
 10
10.4304852474
 20
3.9385418015
 10
10.4391340315
 20
3.9566776882
 10
10.4467847907
 20
3.975814307
 10
10.453811393
 20
3.997234845
 10
10.4600526366
 20
4.021487631
 10
10.4650929732
 20
4.0485231309
 10
10.4685147992
 20
4.0784563087
 10
10.469805824
 20
4.1116659802
  0
LINE
  5
5A1
100
AcDbEntity
  8
AXIS
100
AcDbLine
 62
7
  6
CONTINUOUS
 10
10.1009472038
 20
3.7836920949
 11
10.0793145468
 21
3.8359179487
  0
LINE
  5
5A2
100
AcDbEntity
  8
AXIS
100
AcDbLine
 62
7
  6
CONTINUOUS
 10
10.08783732
 20
3.8359179487
 11
10.1082218457
 21
3.7867053503
  0
LWPOLYLINE
  5
5A3
100
AcDbEntity
  8
0
100
AcDbPolyline
 62
9
  6
CONTINUOUS
 90
24
 70
0
 10
10.1312231468
 20
4.1116659802
 10
10.1358851309
 20
4.0500455568
 10
10.1480253435
 20
3.996871936
 10
10.1656449612
 20
3.95201327
 10
10.1873503559
 20
3.9153988174
 10
10.2119161942
 20
3.8871600208
 10
10.2380407341
 20
3.8674172179
 10
10.2641407411
 20
3.8559898082
 10
10.2894342604
 20
3.851875923
 10
10.3143792794
 20
3.8542411779
 10
10.336882725
 20
3.8619661371
 10
10.3551960338
 20
3.8724771938
 10
10.3701161182
 20
3.8841916733
 10
10.3835714094
 20
3.8975680149
 10
10.3959286535
 20
3.9126597607
 10
10.4069448207
 20
3.9289208476
 10
10.4165084347
 20
3.9457976867
 10
10.4247058548
 20
3.9629885619
 10
10.4319891038
 20
3.9812075416
 10
10.4387022567
 20
4.0016747716
 10
10.4446828252
 20
4.0249179602
 10
10.4495239187
 20
4.0508901925
 10
10.4528158073
 20
4.0796963388
 10
10.4540577925
 20
4.1116659802
  0
LWPOLYLINE
  5
5A4
100
AcDbEntity
  8
0
100
AcDbPolyline
 62
7
  6
CONTINUOUS
 90
22
 70
0
 10
10.1942152728
 20
4.1116659802
 10
10.196075535
 20
4.0762725245
 10
10.2008652851
 20
4.0447780014
 10
10.2078049548
 20
4.0169159231
 10
10.2164575108
 20
3.9925146687
 10
10.2264665839
 20
3.9714476713
 10
10.2374971733
 20
3.9535857797
 10
10.2493016006
 20
3.9388838889
 10
10.261659561
 20
3.9273994269
 10
10.2743359994
 20
3.9193955979
 10
10.2869136537
 20
3.9152459431
 10
10.299591581
 20
3.9154573455
 10
10.3120191825
 20
3.9199317036
 10
10.324531606
 20
3.9281173123
 10
10.3367173142
 20
3.9396910475
 10
10.3483599107
 20
3.9544090735
 10
10.3592397462
 20
3.9722353367
 10
10.3691146869
 20
3.9932213145
 10
10.3776514651
 20
4.0175022124
 10
10.3845012706
 20
4.0452052723
 10
10.3892296391
 20
4.0765044535
 10
10.3910656665
 20
4.1116659802
  0
LWPOLYLINE
  5
5A5
100
AcDbEntity
  8
0
100
AcDbPolyline
 62
9
  6
CONTINUOUS
 90
57
 70
0
 10
10.2139003122
 20
4.1116659802
 10
10.2145667673
 20
4.0911633453
 10
10.216284914
 20
4.0727527362
 10
10.2187573321
 20
4.0561273623
 10
10.2218161899
 20
4.0409584913
 10
10.2253600129
 20
4.0270362372
 10
10.2292090465
 20
4.0145682967
 10
10.2331405282
 20
4.0037752726
 10
10.2370643433
 20
3.9944271248
 10
10.2409385836
 20
3.9862568599
 10
10.2447383962
 20
3.9790730745
 10
10.2484444446
 20
3.9727424524
 10
10.252058202
 20
3.9671408601
 10
10.2555943561
 20
3.9621497803
 10
10.2590211971
 20
3.9577303297
 10
10.2622697267
 20
3.9538929799
 10
10.2653321455
 20
3.9505751314
 10
10.2682267389
 20
3.9477013927
 10
10.2709769635
 20
3.945209326
 10
10.2735958086
 20
3.9430543023
 10
10.2760544215
 20
3.941223411
 10
10.2783372658
 20
3.9396904708
 10
10.2805084171
 20
3.9383837561
 10
10.2826617962
 20
3.9372374433
 10
10.2848315954
 20
3.9362403061
 10
10.2868949114
 20
3.9354568653
 10
10.2887477985
 20
3.9349282067
 10
10.2905557148
 20
3.9346126814
 10
10.2924973007
 20
3.9345012522
 10
10.2944688731
 20
3.9345850981
 10
10.2963128281
 20
3.9348786953
 10
10.2981570449
 20
3.9353815744
 10
10.3001482527
 20
3.9361151808
 10
10.3022889285
 20
3.9370752314
 10
10.3044381167
 20
3.9381958258
 10
10.3066113568
 20
3.9394808323
 10
10.3089155631
 20
3.9410051126
 10
10.3114227254
 20
3.9428500201
 10
10.3141285471
 20
3.9450583686
 10
10.3170084969
 20
3.9476580315
 10
10.3200471369
 20
3.9506772403
 10
10.3232258775
 20
3.9541363403
 10
10.3265394546
 20
3.9580764692
 10
10.3300048328
 20
3.9625804581
 10
10.3336083743
 20
3.9677136114
 10
10.3372985083
 20
3.9734978993
 10
10.3410513727
 20
3.9799923262
 10
10.3448569214
 20
3.9872894878
 10
10.3486894668
 20
3.9954911938
 10
10.3525311806
 20
4.0047774822
 10
10.3563736851
 20
4.0154691713
 10
10.360139982
 20
4.0278179818
 10
10.3636246352
 20
4.0416627306
 10
10.3666299809
 20
4.0567360695
 10
10.3690514078
 20
4.0732089446
 10
10.3707304403
 20
4.0914165524
 10
10.3713806271
 20
4.1116659802
  0
LWPOLYLINE
  5
5A6
100
AcDbEntity
  8
0
100
AcDbPolyline
 62
9
  6
CONTINUOUS
 90
24
 70
0
 10
10.2434278712
 20
4.1116659791
 10
10.2437941108
 20
4.1267913956
 10
10.2447848923
 20
4.1405621596
 10
10.2462633311
 20
4.1531036073
 10
10.248118865
 20
4.164527946
 10
10.2502604612
 20
4.1749339132
 10
10.2526114631
 20
4.1844068379
 10
10.2551076227
 20
4.1930258
 10
10.2576956472
 20
4.2008649897
 10
10.2603309228
 20
4.2079923458
 10
10.2629826825
 20
4.2144626538
 10
10.2656313562
 20
4.2203266328
 10
10.2682593018
 20
4.2256340426
 10
10.2708497347
 20
4.2304326227
 10
10.273388104
 20
4.2347677054
 10
10.2758597682
 20
4.2386799267
 10
10.2782561419
 20
4.2421954608
 10
10.2805770731
 20
4.2453368477
 10
10.2828226316
 20
4.2481308772
 10
10.2849927005
 20
4.2506074413
 10
10.2870803115
 20
4.2527916076
 10
10.2890637716
 20
4.2546922043
 10
10.2909179834
 20
4.2563259072
 10
10.2926404696
 20
4.2576792705
  0
LWPOLYLINE
  5
5A7
100
AcDbEntity
  8
0
100
AcDbPolyline
 62
9
  6
CONTINUOUS
 90
26
 70
0
 10
10.2286640917
 20
4.1116659808
 10
10.2290588879
 20
4.127735118
 10
10.2301169134
 20
4.1422670331
 10
10.2316809889
 20
4.1554258025
 10
10.2336272113
 20
4.1673531384
 10
10.2358562891
 20
4.1781727785
 10
10.2382877946
 20
4.1879938522
 10
10.2408562765
 20
4.196913381
 10
10.2435081497
 20
4.2050178853
 10
10.246199759
 20
4.2123841125
 10
10.2489005605
 20
4.2190790059
 10
10.2515914798
 20
4.2251576627
 10
10.2542542332
 20
4.2306708292
 10
10.2568721067
 20
4.2356668337
 10
10.2594304081
 20
4.2401913573
 10
10.2619168303
 20
4.2442873913
 10
10.2643233705
 20
4.2479959487
 10
10.2666517267
 20
4.2513498754
 10
10.2689028446
 20
4.2543746986
 10
10.2710748732
 20
4.2570951125
 10
10.2731652121
 20
4.2595361145
 10
10.2751719047
 20
4.261723001
 10
10.2770910846
 20
4.2636778267
 10
10.2789147735
 20
4.2654172253
 10
10.2806299664
 20
4.2669527752
 10
10.2822317698
 20
4.2682920974
  0
LINE
  5
5A8
100
AcDbEntity
  8
0
100
AcDbLine
 62
7
  6
CONTINUOUS
 10
10.2335853515
 20
4.1116662915
 11
10.2339837549
 21
4.1276848825
  0
LINE
  5
5A9
100
AcDbEntity
  8
0
100
AcDbLine
 62
7
  6
CONTINUOUS
 10
10.2339754965
 20
4.1275192356
 11
10.2350599238
 21
4.1422516444
  0
LINE
  5
5AA
100
AcDbEntity
  8
0
100
AcDbLine
 62
7
  6
CONTINUOUS
 10
10.2350202029
 20
4.1418438049
 11
10.23666359
 21
4.1555045441
  0
LWPOLYLINE
  5
5AB
100
AcDbEntity
  8
0
100
AcDbPolyline
 62
7
  6
CONTINUOUS
 90
11
 70
0
 10
10.2365631763
 20
4.1548030808
 10
10.2386738428
 20
4.1675656237
 10
10.2409912552
 20
4.1785411599
 10
10.2435320769
 20
4.1885223901
 10
10.2462262568
 20
4.1975941239
 10
10.2490155667
 20
4.2058357219
 10
10.2518544835
 20
4.2133245569
 10
10.2547190426
 20
4.2201335774
 10
10.2575881918
 20
4.2263141619
 10
10.2604408365
 20
4.231915266
 10
10.2632570862
 20
4.2369841028
  0
LWPOLYLINE
  5
5AC
100
AcDbEntity
  8
0
100
AcDbPolyline
 62
7
  6
CONTINUOUS
 90
11
 70
0
 10
10.2384813185
 20
4.1665386125
 10
10.2406761266
 20
4.1771742297
 10
10.2430679969
 20
4.186819296
 10
10.2455922408
 20
4.1955709948
 10
10.2481962537
 20
4.2035162683
 10
10.250836561
 20
4.2107307845
 10
10.2534809591
 20
4.217274992
 10
10.2561098395
 20
4.2232033708
 10
10.2587058251
 20
4.2285688548
 10
10.2612531216
 20
4.2334214828
 10
10.2637380398
 20
4.2378083018
  0
LINE
  5
5AD
100
AcDbEntity
  8
AXIS
100
AcDbLine
 62
7
  6
CONTINUOUS
 10
10.0793145468
 20
3.8359179487
 11
10.1009472038
 21
3.8881438025
  0
LINE
  5
5AE
100
AcDbEntity
  8
AXIS
100
AcDbLine
 62
7
  6
CONTINUOUS
 10
10.1082218457
 20
3.8851305472
 11
10.08783732
 21
3.8359179487
  0
LWPOLYLINE
  5
5AF
100
AcDbEntity
  8
0
100
AcDbPolyline
 62
7
  6
CONTINUOUS
 90
16
 70
0
 10
12.0517749523
 20
3.462059681
 10
12.07255817
 20
3.4621975092
 10
12.0905154413
 20
3.4625716053
 10
12.1066348876
 20
3.463156819
 10
12.1211887976
 20
3.4639376419
 10
12.1344111874
 20
3.4649084984
 10
12.146513298
 20
3.4660759459
 10
12.1576341788
 20
3.4674553199
 10
12.1678748383
 20
3.4690741876
 10
12.1773052428
 20
3.4709782077
 10
12.1859927282
 20
3.4732520643
 10
12.1939319393
 20
3.4760395212
 10
12.2008960932
 20
3.4795494935
 10
12.2063550239
 20
3.484118332
 10
12.2091115743
 20
3.489838146
 10
12.2092539685
 20
3.4915872401
  0
LINE
  5
5B0
100
AcDbEntity
  8
0
100
AcDbLine
 62
7
  6
CONTINUOUS
 10
11.8746089736
 20
3.4600911771
 11
11.4809081858
 21
3.4600911771
  0
LINE
  5
5B1
100
AcDbEntity
  8
0
100
AcDbLine
 62
7
  6
CONTINUOUS
 10
10.7722467689
 20
3.4600911771
 11
10.3785459815
 21
3.4600911771
  0
LWPOLYLINE
  5
5B2
100
AcDbEntity
  8
0
100
AcDbPolyline
 62
7
  6
CONTINUOUS
 90
22
 70
0
 10
10.3910656665
 20
4.1116659802
 10
10.3892054043
 20
4.147059436
 10
10.3844156542
 20
4.178553959
 10
10.3774759845
 20
4.2064160374
 10
10.3688234285
 20
4.2308172917
 10
10.3588143554
 20
4.2518842892
 10
10.347783766
 20
4.2697461808
 10
10.3359793387
 20
4.2844480715
 10
10.3236213783
 20
4.2959325336
 10
10.3109449399
 20
4.3039363626
 10
10.2983672856
 20
4.3080860174
 10
10.2856893583
 20
4.3078746149
 10
10.2732617568
 20
4.3034002568
 10
10.2607493333
 20
4.2952146482
 10
10.2485636251
 20
4.283640913
 10
10.2369210286
 20
4.268922887
 10
10.2260411931
 20
4.2510966238
 10
10.2161662524
 20
4.2301106459
 10
10.2076294742
 20
4.2058297481
 10
10.2007796687
 20
4.1781266882
 10
10.1960513002
 20
4.146827507
 10
10.1942152728
 20
4.1116659802
  0
LWPOLYLINE
  5
5B3
100
AcDbEntity
  8
0
100
AcDbPolyline
 62
7
  6
CONTINUOUS
 90
6
 70
0
 10
10.2926402664
 20
3.9543093327
 10
10.292656445
 20
3.9539134267
 10
10.2926741224
 20
3.9529600432
 10
10.2926738621
 20
3.9517402278
 10
10.2926086092
 20
3.9504383153
 10
10.2926404697
 20
3.9491880354
  0
LWPOLYLINE
  5
5B4
100
AcDbEntity
  8
0
100
AcDbPolyline
 62
7
  6
CONTINUOUS
 90
6
 70
0
 10
10.2926405927
 20
4.2690228205
 10
10.2926251755
 20
4.2694165992
 10
10.2926074957
 20
4.2703673556
 10
10.2926193087
 20
4.2715864839
 10
10.2927166388
 20
4.2728917664
 10
10.2926404706
 20
4.2741439252
  0
LWPOLYLINE
  5
5B5
100
AcDbEntity
  8
0
100
AcDbPolyline
 62
9
  6
CONTINUOUS
 90
57
 70
0
 10
10.3713806271
 20
4.1116659802
 10
10.370714172
 20
4.1321686152
 10
10.3689960253
 20
4.1505792242
 10
10.3665236072
 20
4.1672045982
 10
10.3634647494
 20
4.1823734691
 10
10.3599209264
 20
4.1962957233
 10
10.3560718928
 20
4.2087636638
 10
10.3521404111
 20
4.2195566879
 10
10.348216596
 20
4.2289048357
 10
10.3443423557
 20
4.2370751006
 10
10.340542543
 20
4.244258886
 10
10.3368364947
 20
4.2505895081
 10
10.3332227372
 20
4.2561911003
 10
10.3296865831
 20
4.2611821801
 10
10.3262597422
 20
4.2656016308
 10
10.3230112126
 20
4.2694389806
 10
10.3199487938
 20
4.2727568291
 10
10.3170542004
 20
4.2756305678
 10
10.3143039758
 20
4.2781226344
 10
10.3116851307
 20
4.2802776582
 10
10.3092265178
 20
4.2821085495
 10
10.3069436735
 20
4.2836414897
 10
10.3047725222
 20
4.2849482044
 10
10.3026191431
 20
4.2860945171
 10
10.3004493439
 20
4.2870916544
 10
10.2983860279
 20
4.2878750951
 10
10.2965331408
 20
4.2884037538
 10
10.2947252245
 20
4.288719279
 10
10.2927836386
 20
4.2888307082
 10
10.2908120662
 20
4.2887468623
 10
10.2889681112
 20
4.2884532652
 10
10.2871238944
 20
4.2879503861
 10
10.2851326866
 20
4.2872167797
 10
10.2829920108
 20
4.2862567291
 10
10.2808428226
 20
4.2851361347
 10
10.2786695825
 20
4.2838511282
 10
10.2763653762
 20
4.2823268478
 10
10.2738582139
 20
4.2804819404
 10
10.2711523922
 20
4.2782735918
 10
10.2682724424
 20
4.2756739289
 10
10.2652338024
 20
4.2726547201
 10
10.2620550618
 20
4.2691956201
 10
10.2587414847
 20
4.2652554913
 10
10.2552761065
 20
4.2607515024
 10
10.251672565
 20
4.2556183491
 10
10.247982431
 20
4.2498340612
 10
10.2442295666
 20
4.2433396342
 10
10.2404240179
 20
4.2360424726
 10
10.2365914725
 20
4.2278407667
 10
10.2327497587
 20
4.2185544783
 10
10.2289072541
 20
4.2078627892
 10
10.2251409573
 20
4.1955139787
 10
10.2216563041
 20
4.1816692299
 10
10.2186509584
 20
4.166595891
 10
10.2162295315
 20
4.1501230159
 10
10.214550499
 20
4.1319154081
 10
10.2139003122
 20
4.1116659802
  0
LINE
  5
5B6
100
AcDbEntity
  8
0
100
AcDbLine
 62
7
  6
CONTINUOUS
 10
10.3588609421
 20
3.4797762165
 11
10.3588609421
 21
3.5014297598
  0
LINE
  5
5B7
100
AcDbEntity
  8
0
100
AcDbLine
 62
7
  6
CONTINUOUS
 10
10.3588609421
 20
4.7219022007
 11
10.3588609421
 21
4.743555744
  0
LWPOLYLINE
  5
5B8
100
AcDbEntity
  8
0
100
AcDbPolyline
 62
7
  6
CONTINUOUS
 90
4
 70
0
 10
10.2926409503
 20
3.9543099909
 10
10.2926475012
 20
3.9580258219
 10
10.2926353921
 20
3.96169512
 10
10.2926404697
 20
3.9656526899
  0
LINE
  5
5B9
100
AcDbEntity
  8
0
100
AcDbLine
 62
7
  6
CONTINUOUS
 10
10.2926401092
 20
4.269022255
 11
10.2926404696
 21
4.2576792705
  0
LWPOLYLINE
  5
5BA
100
AcDbEntity
  8
0
100
AcDbPolyline
 62
9
  6
CONTINUOUS
 90
24
 70
0
 10
10.3418530681
 20
4.1116656793
 10
10.3414858535
 20
4.0965205903
 10
10.3404928012
 20
4.0827358459
 10
10.3390115051
 20
4.0701850026
 10
10.3371530111
 20
4.0587549505
 10
10.3350086139
 20
4.0483459197
 10
10.3326550863
 20
4.0388717267
 10
10.3301567993
 20
4.030252963
 10
10.3275671348
 20
4.022415166
 10
10.3249307485
 20
4.0152902121
 10
10.3222783499
 20
4.0088231136
 10
10.3196295095
 20
4.0029629526
 10
10.317001892
 20
3.9976597882
 10
10.3144122797
 20
3.9928657294
 10
10.3118752163
 20
3.9885353286
 10
10.3094053252
 20
3.9846278912
 10
10.3070110788
 20
3.9811171657
 10
10.3046925933
 20
3.9779804886
 10
10.3024498084
 20
3.9751909589
 10
10.3002827084
 20
3.972718482
 10
10.2981990282
 20
3.9705387484
 10
10.2962201728
 20
3.968642526
 10
10.2943667275
 20
3.9670091742
 10
10.2926404697
 20
3.9656526899
  0
LWPOLYLINE
  5
5BB
100
AcDbEntity
  8
0
100
AcDbPolyline
 62
7
  6
CONTINUOUS
 90
30
 70
0
 10
10.3516955878
 20
4.1116656687
 10
10.3513065154
 20
4.0958343683
 10
10.3502649604
 20
4.0815318693
 10
10.3487269248
 20
4.0685935046
 10
10.3468151358
 20
4.0568770664
 10
10.3446277087
 20
4.0462583669
 10
10.3422438869
 20
4.0366279251
 10
10.3397280276
 20
4.0278885388
 10
10.33713242
 20
4.0199532578
 10
10.3345000667
 20
4.0127459168
 10
10.3318629017
 20
4.0062055731
 10
10.3292406444
 20
4.0002786999
 10
10.3266504631
 20
3.9949125984
 10
10.3241080538
 20
3.9900576103
 10
10.3216272239
 20
3.985667332
 10
10.3192188779
 20
3.9816974004
 10
10.3168939797
 20
3.97811232
 10
10.3146559906
 20
3.9748861909
 10
10.3125033089
 20
3.9719914425
 10
10.3104360217
 20
3.9694001981
 10
10.3084550079
 20
3.9670850703
 10
10.3065603613
 20
3.9650187275
 10
10.3047551987
 20
3.9631787386
 10
10.3030463633
 20
3.9615476025
 10
10.3014496264
 20
3.9601170533
 10
10.2999805431
 20
3.958887292
 10
10.2986332259
 20
3.9578429691
 10
10.2973958236
 20
3.9569605257
 10
10.2962628604
 20
3.9562203987
 10
10.2952280038
 20
3.9556028225
  0
LWPOLYLINE
  5
5BC
100
AcDbEntity
  8
0
100
AcDbPolyline
 62
9
  6
CONTINUOUS
 90
26
 70
0
 10
10.3566168476
 20
4.1116656635
 10
10.3562238132
 20
4.0956323795
 10
10.3551706738
 20
4.0811338355
 10
10.3536139518
 20
4.0680051061
 10
10.3516769074
 20
4.0561041557
 10
10.3494582549
 20
4.0453071697
 10
10.3470378802
 20
4.0355051233
 10
10.3444808852
 20
4.0266011934
 10
10.3418401764
 20
4.0185090144
 10
10.3391594572
 20
4.0111512511
 10
10.336468452
 20
4.004461502
 10
10.3337866702
 20
3.9983845565
 10
10.3311319779
 20
3.9928704716
 10
10.3285210556
 20
3.987871349
 10
10.3259684169
 20
3.9833420079
 10
10.3234867635
 20
3.9792398713
 10
10.321083594
 20
3.975524276
 10
10.3187583289
 20
3.9721620046
 10
10.3165094234
 20
3.9691279327
 10
10.314338816
 20
3.9663976529
 10
10.3122489775
 20
3.9639464168
 10
10.3102416999
 20
3.9617489293
 10
10.3083211314
 20
3.959783787
 10
10.3064973157
 20
3.9580359136
 10
10.3047807361
 20
3.9564920402
 10
10.3031738904
 20
3.9551405469
  0
LINE
  5
5BD
100
AcDbEntity
  8
0
100
AcDbLine
 62
7
  6
CONTINUOUS
 10
10.2632570862
 20
4.2369841028
 11
10.2661491716
 21
4.2417731507
  0
LWPOLYLINE
  5
5BE
100
AcDbEntity
  8
0
100
AcDbPolyline
 62
7
  6
CONTINUOUS
 90
12
 70
0
 10
10.2660191094
 20
4.2415661001
 10
10.2687186696
 20
4.2457118073
 10
10.2713687
 20
4.2494688769
 10
10.273969598
 20
4.2528568132
 10
10.2765151152
 20
4.255894271
 10
10.2790025249
 20
4.2586087537
 10
10.2814050403
 20
4.2610056727
 10
10.2836919823
 20
4.2630937478
 10
10.285954348
 20
4.2649620547
 10
10.2882029585
 20
4.2665857259
 10
10.2903716606
 20
4.2679079316
 10
10.290467971
 20
4.2679552705
  0
LWPOLYLINE
  5
5BF
100
AcDbEntity
  8
0
100
AcDbPolyline
 62
7
  6
CONTINUOUS
 90
5
 70
0
 10
10.2684764107
 20
4.2453528403
 10
10.2707158786
 20
4.2485721617
 10
10.2728694712
 20
4.2514595218
 10
10.274937066
 20
4.2540430503
 10
10.2769177438
 20
4.2563503056
  0
LWPOLYLINE
  5
5C0
100
AcDbEntity
  8
0
100
AcDbPolyline
 62
7
  6
CONTINUOUS
 90
9
 70
0
 10
10.2788111993
 20
4.2584085501
 10
10.2806151033
 20
4.260241145
 10
10.2823232771
 20
4.2618661785
 10
10.2839186665
 20
4.2632904875
 10
10.2853821076
 20
4.2645103695
 10
10.2867202996
 20
4.2655428312
 10
10.2879462551
 20
4.2664130543
 10
10.2890671448
 20
4.267142114
 10
10.2900904976
 20
4.2677504898
  0
LINE
  5
5C1
100
AcDbEntity
  8
0
100
AcDbLine
 62
7
  6
CONTINUOUS
 10
11.303766926
 20
3.462059681
 11
12.0517702431
 21
3.462059681
  0
LINE
  5
5C2
100
AcDbEntity
  8
0
100
AcDbLine
 62
9
  6
CONTINUOUS
 10
10.7919318082
 20
3.4797762165
 11
10.3588609421
 21
3.4797762165
  0
LINE
  5
5C3
100
AcDbEntity
  8
0
100
AcDbLine
 62
9
  6
CONTINUOUS
 10
11.1462625234
 20
3.4915872401
 11
12.2092546371
 21
3.4915872401
  0
LINE
  5
5C4
100
AcDbEntity
  8
0
100
AcDbLine
 62
7
  6
CONTINUOUS
 10
9.2296483437
 20
3.5014297598
 11
9.0131129106
 21
3.5014297598
  0
LINE
  5
5C5
100
AcDbEntity
  8
AXIS
100
AcDbLine
 62
7
  6
CONTINUOUS
 10
9.2296483437
 20
3.5014297598
 11
11.2525617295
 21
3.5014297598
  0
LINE
  5
5C6
100
AcDbEntity
  8
0
100
AcDbLine
 62
7
  6
CONTINUOUS
 10
12.2092546429
 20
3.5014297598
 11
12.2176049479
 21
3.5014297598
  0
LWPOLYLINE
  5
5C7
100
AcDbEntity
  8
0
100
AcDbPolyline
 62
7
  6
CONTINUOUS
 90
24
 70
0
 10
10.2829453955
 20
3.9544757221
 10
10.2808690505
 20
3.9561733702
 10
10.2788095085
 20
3.9580117509
 10
10.2766511724
 20
3.9600908689
 10
10.2743447689
 20
3.9624922259
 10
10.2719373273
 20
3.9652090957
 10
10.2694512535
 20
3.9682522902
 10
10.2668895304
 20
3.9716524539
 10
10.2642561823
 20
3.9754364027
 10
10.26155011
 20
3.9796309401
 10
10.2587718542
 20
3.9842739398
 10
10.2559332261
 20
3.9894118945
 10
10.253051903
 20
3.9950931484
 10
10.2501473469
 20
4.0013683781
 10
10.2472410269
 20
4.0082903845
 10
10.2443543714
 20
4.0159149863
 10
10.2415168754
 20
4.0243079918
 10
10.238775506
 20
4.0335461317
 10
10.2361898058
 20
4.0437107942
 10
10.2338312597
 20
4.0548889686
 10
10.2317857552
 20
4.0671731713
 10
10.2301561435
 20
4.0806612745
 10
10.2290658696
 20
4.0954562901
 10
10.2286640917
 20
4.1116659808
  0
LWPOLYLINE
  5
5C8
100
AcDbEntity
  8
0
100
AcDbPolyline
 62
7
  6
CONTINUOUS
 90
24
 70
0
 10
10.469805824
 20
4.1116659802
 10
10.4649485962
 20
4.1757554786
 10
10.4522821755
 20
4.2311716157
 10
10.433767601
 20
4.2782680541
 10
10.4106908226
 20
4.3171623286
 10
10.3841153951
 20
4.3476797001
 10
10.3551965733
 20
4.3695051048
 10
10.3255785459
 20
4.3824517276
 10
10.2963594722
 20
4.387195805
 10
10.2674730968
 20
4.3844616701
 10
10.2417405523
 20
4.3756376677
 10
10.2211775139
 20
4.3638416811
 10
10.2046973112
 20
4.3509059929
 10
10.190032258
 20
4.3363299835
 10
10.1767111534
 20
4.3200637319
 10
10.1649415069
 20
4.3026926214
 10
10.1547956918
 20
4.2847901589
 10
10.1461469078
 20
4.2666542723
 10
10.1384961486
 20
4.2475176534
 10
10.1314695463
 20
4.2260971155
 10
10.1252283027
 20
4.2018443295
 10
10.1201879661
 20
4.1748088296
 10
10.1167661401
 20
4.1448756518
 10
10.1154751153
 20
4.1116659802
  0
LWPOLYLINE
  5
5C9
100
AcDbEntity
  8
0
100
AcDbPolyline
 62
9
  6
CONTINUOUS
 90
24
 70
0
 10
10.4540577925
 20
4.1116659802
 10
10.4493958084
 20
4.1732864036
 10
10.4372555958
 20
4.2264600244
 10
10.4196359781
 20
4.2713186905
 10
10.3979305834
 20
4.3079331431
 10
10.3733647451
 20
4.3361719396
 10
10.3472402052
 20
4.3559147425
 10
10.3211401981
 20
4.3673421522
 10
10.2958466789
 20
4.3714560375
 10
10.2709016599
 20
4.3690907825
 10
10.2483982142
 20
4.3613658234
 10
10.2300849055
 20
4.3508547667
 10
10.2151648211
 20
4.3391402871
 10
10.2017095299
 20
4.3257639456
 10
10.1893522858
 20
4.3106721998
 10
10.1783361186
 20
4.2944111129
 10
10.1687725046
 20
4.2775342738
 10
10.1605750845
 20
4.2603433986
 10
10.1532918355
 20
4.2421244188
 10
10.1465786826
 20
4.2216571888
 10
10.1405981141
 20
4.1984140002
 10
10.1357570206
 20
4.172441768
 10
10.132465132
 20
4.1436356217
 10
10.1312231468
 20
4.1116659802
  0
LWPOLYLINE
  5
5CA
100
AcDbEntity
  8
0
100
AcDbPolyline
 62
9
  6
CONTINUOUS
 90
9
 70
0
 10
10.2822317698
 20
4.2682920974
 10
10.2837244584
 20
4.26944799
 10
10.2851149704
 20
4.2704389982
 10
10.286406185
 20
4.2712825276
 10
10.2876005783
 20
4.2719958342
 10
10.2887069218
 20
4.2725991678
 10
10.2897319589
 20
4.2731078298
 10
10.2906956838
 20
4.2735448365
 10
10.2916588609
 20
4.2739019275
  0
LWPOLYLINE
  5
5CB
100
AcDbEntity
  8
0
100
AcDbPolyline
 62
7
  6
CONTINUOUS
 90
3
 70
0
 10
10.2900904976
 20
4.2677504898
 10
10.2910265065
 20
4.2682582782
 10
10.2918903574
 20
4.2686853217
  0
LINE
  5
5CC
100
AcDbEntity
  8
0
100
AcDbLine
 62
7
  6
CONTINUOUS
 10
10.2918903574
 20
4.2686853217
 11
10.2926404696
 21
4.2690231125
  0
LINE
  5
5CD
100
AcDbEntity
  8
AXIS
100
AcDbLine
 62
7
  6
CONTINUOUS
 10
11.2525617295
 20
3.619539996
 11
9.8069947405
 21
3.619539996
  0
LINE
  5
5CE
100
AcDbEntity
  8
0
100
AcDbLine
 62
7
  6
CONTINUOUS
 10
11.5110284236
 20
3.6392250353
 11
12.1390890517
 21
3.6392250353
  0
LINE
  5
5CF
100
AcDbEntity
  8
0
100
AcDbLine
 62
7
  6
CONTINUOUS
 10
12.2092546429
 20
3.6392250353
 11
12.2176193147
 21
3.6392250353
  0
LINE
  5
5D0
100
AcDbEntity
  8
AXIS
100
AcDbLine
 62
7
  6
CONTINUOUS
 10
11.5274043868
 20
3.6556782364
 11
12.122060595
 21
3.6556782364
  0
LINE
  5
5D1
100
AcDbEntity
  8
AXIS
100
AcDbLine
 62
7
  6
CONTINUOUS
 10
10.0564199972
 20
3.6589100747
 11
11.1194121232
 21
3.6589100747
  0
LINE
  5
5D2
100
AcDbEntity
  8
AXIS
100
AcDbLine
 62
7
  6
CONTINUOUS
 10
10.1009472038
 20
3.8881438025
 11
10.1082218457
 21
3.8851305472
  0
LINE
  5
5D3
100
AcDbEntity
  8
0
100
AcDbLine
 62
7
  6
CONTINUOUS
 10
10.2926404696
 20
3.954308848
 11
10.2907608521
 21
3.9552130468
  0
LWPOLYLINE
  5
5D4
100
AcDbEntity
  8
0
100
AcDbPolyline
 62
7
  6
CONTINUOUS
 90
4
 70
0
 10
10.2898823258
 20
3.9501466402
 10
10.2874376717
 20
3.9514313096
 10
10.2851269641
 20
3.95288439
 10
10.2829453955
 20
3.9544757221
  0
LINE
  5
5D5
100
AcDbEntity
  8
0
100
AcDbLine
 62
7
  6
CONTINUOUS
 10
10.2907608521
 20
3.9552130468
 11
10.2887585402
 21
3.9563840951
  0
LWPOLYLINE
  5
5D6
100
AcDbEntity
  8
0
100
AcDbPolyline
 62
7
  6
CONTINUOUS
 90
26
 70
0
 10
10.2887585402
 20
3.9563840951
 10
10.2868438216
 20
3.957698094
 10
10.2849798627
 20
3.9591478574
 10
10.2831300434
 20
3.9607342027
 10
10.2812110974
 20
3.962511894
 10
10.2791669906
 20
3.9645522293
 10
10.2769962188
 20
3.9668935309
 10
10.2747352089
 20
3.9695331577
 10
10.2723934045
 20
3.9724932716
 10
10.2699709517
 20
3.9758060129
 10
10.2674685825
 20
3.979500249
 10
10.2648858579
 20
3.9836022925
 10
10.2622337252
 20
3.9881406776
 10
10.2595260747
 20
3.9931584861
 10
10.2567783765
 20
3.998703109
 10
10.2540084594
 20
4.0048239706
 10
10.2512354031
 20
4.0115732561
 10
10.2484798979
 20
4.0190038742
 10
10.2457743305
 20
4.0271735289
 10
10.2431652317
 20
4.0361518921
 10
10.2407083504
 20
4.0460163948
 10
10.238471034
 20
4.05684881
 10
10.2365338423
 20
4.0687361426
 10
10.2349930714
 20
4.0817700729
 10
10.2339639763
 20
4.0960467471
 10
10.2335853515
 20
4.1116662915
  0
LWPOLYLINE
  5
5D7
100
AcDbEntity
  8
0
100
AcDbPolyline
 62
9
  6
CONTINUOUS
 90
23
 70
0
 10
10.2926404697
 20
3.9656526899
 10
10.2907787286
 20
3.9671201978
 10
10.2887398552
 20
3.968940681
 10
10.2865485097
 20
3.9710781488
 10
10.2842620179
 20
3.9735345571
 10
10.2818985122
 20
3.9763219846
 10
10.2794626876
 20
3.9794710004
 10
10.27695554
 20
3.9830104489
 10
10.2743764055
 20
3.9869650934
 10
10.2717303759
 20
3.9913565094
 10
10.2690332762
 20
3.9962217005
 10
10.2663015635
 20
4.0016063626
 10
10.2635530392
 20
4.0075589695
 10
10.2608070708
 20
4.014129774
 10
10.2580832189
 20
4.0213693591
 10
10.2554122287
 20
4.0293324285
 10
10.2528394046
 20
4.0380848884
 10
10.2504199574
 20
4.0477014885
 10
10.2482196629
 20
4.0582611923
 10
10.2463171685
 20
4.06984758
 10
10.2448060972
 20
4.0825485975
 10
10.2437982212
 20
4.0964562533
 10
10.2434278712
 20
4.1116659791
  0
LINE
  5
5D8
100
AcDbEntity
  8
AXIS
100
AcDbLine
 62
7
  6
CONTINUOUS
 10
10.6388701172
 20
4.338043933
 11
10.6388701172
 21
4.4364691298
  0
LINE
  5
5D9
100
AcDbEntity
  8
AXIS
100
AcDbLine
 62
7
  6
CONTINUOUS
 10
10.7528464951
 20
4.4364691298
 11
10.7601211371
 21
4.4394823852
  0
LWPOLYLINE
  5
5DA
100
AcDbEntity
  8
0
100
AcDbPolyline
 62
7
  6
CONTINUOUS
 90
12
 70
0
 10
12.0218578993
 20
3.8459208681
 10
12.0335738851
 20
3.8470982764
 10
12.0518181058
 20
3.854093459
 10
12.0672591419
 20
3.8668671953
 10
12.0783836078
 20
3.8842489507
 10
12.0841439947
 20
3.9045563859
 10
12.0840332621
 20
3.9258597571
 10
12.0780573942
 20
3.9461003219
 10
12.0667409023
 20
3.9633447358
 10
12.0511620075
 20
3.9759163993
 10
12.0328622661
 20
3.982672474
 10
12.0218569912
 20
3.9837105183
  0
LINE
  5
5DB
100
AcDbEntity
  8
AXIS
100
AcDbLine
 62
7
  6
CONTINUOUS
 10
12.2092546429
 20
3.796075429
 11
12.4057649449
 21
3.796075429
  0
LINE
  5
5DC
100
AcDbEntity
  8
0
100
AcDbLine
 62
7
  6
CONTINUOUS
 10
11.679476602
 20
3.8459179487
 11
12.0218579019
 21
3.8459179652
  0
LINE
  5
5DD
100
AcDbEntity
  8
0
100
AcDbLine
 62
7
  6
CONTINUOUS
 10
10.2926402377
 20
3.9491879783
 11
10.2898823258
 21
3.9501466402
  0
LWPOLYLINE
  5
5DE
100
AcDbEntity
  8
0
100
AcDbPolyline
 62
9
  6
CONTINUOUS
 90
23
 70
0
 10
10.2926404696
 20
4.2576792705
 10
10.2945377621
 20
4.2561792988
 10
10.2965664814
 20
4.2543688143
 10
10.2987328939
 20
4.2522528035
 10
10.3009988236
 20
4.2498202246
 10
10.3033430749
 20
4.2470584379
 10
10.3057621452
 20
4.2439367456
 10
10.3082544779
 20
4.2404257012
 10
10.3108222157
 20
4.2364981412
 10
10.3134593796
 20
4.2321327167
 10
10.3161506681
 20
4.2272926521
 10
10.3188794735
 20
4.2219313743
 10
10.3216280447
 20
4.2159996043
 10
10.3243768899
 20
4.2094459821
 10
10.3271063049
 20
4.2022187365
 10
10.3297857702
 20
4.1942621575
 10
10.3323698006
 20
4.185509014
 10
10.3348026598
 20
4.1758829438
 10
10.3370177694
 20
4.1653031095
 10
10.3389353506
 20
4.1536838263
 10
10.3404602157
 20
4.1409348136
 10
10.3414784945
 20
4.1269615155
 10
10.3418530681
 20
4.1116656793
  0
LWPOLYLINE
  5
5DF
100
AcDbEntity
  8
0
100
AcDbPolyline
 62
7
  6
CONTINUOUS
 90
24
 70
0
 10
10.3040897283
 20
4.2674329739
 10
10.3060723121
 20
4.2656875865
 10
10.3081206826
 20
4.2637457006
 10
10.3102986
 20
4.2615228266
 10
10.3125830886
 20
4.2590050313
 10
10.3149460221
 20
4.2561897783
 10
10.3173804651
 20
4.2530540221
 10
10.3198836491
 20
4.2495715132
 10
10.3224541997
 20
4.2457184775
 10
10.3250946039
 20
4.2414665073
 10
10.3277986995
 20
4.2367763962
 10
10.3305527147
 20
4.2316049747
 10
10.3333401442
 20
4.2259078366
 10
10.3361426915
 20
4.2196384142
 10
10.338940834
 20
4.2127481344
 10
10.3417149499
 20
4.2051845366
 10
10.344433482
 20
4.1968847232
 10
10.3470509942
 20
4.1877778682
 10
10.3495115368
 20
4.1777892985
 10
10.3517483804
 20
4.1668393246
 10
10.35368185
 20
4.1548434166
 10
10.3552170702
 20
4.1417123482
 10
10.3562407782
 20
4.127352332
 10
10.3566168476
 20
4.1116656635
  0
LWPOLYLINE
  5
5E0
100
AcDbEntity
  8
0
100
AcDbPolyline
 62
7
  6
CONTINUOUS
 90
24
 70
0
 10
10.7060262964
 20
4.1116659802
 10
10.7108835242
 20
4.0475764818
 10
10.7235499449
 20
3.9921603447
 10
10.7420645194
 20
3.9450639064
 10
10.7651412978
 20
3.9061696319
 10
10.7917167253
 20
3.8756522604
 10
10.8206355471
 20
3.8538268557
 10
10.8502535745
 20
3.8408802329
 10
10.8794726482
 20
3.8361361554
 10
10.9083590236
 20
3.8388702904
 10
10.9340915681
 20
3.8476942928
 10
10.9546546065
 20
3.8594902794
 10
10.9711348092
 20
3.8724259676
 10
10.9857998624
 20
3.8870019769
 10
10.999120967
 20
3.9032682286
 10
11.0108906135
 20
3.9206393391
 10
11.0210364285
 20
3.9385418015
 10
11.0296852126
 20
3.9566776882
 10
11.0373359718
 20
3.975814307
 10
11.0443625741
 20
3.997234845
 10
11.0506038177
 20
4.021487631
 10
11.0556441543
 20
4.0485231309
 10
11.0590659803
 20
4.0784563087
 10
11.0603570051
 20
4.1116659802
  0
LWPOLYLINE
  5
5E1
100
AcDbEntity
  8
0
100
AcDbPolyline
 62
9
  6
CONTINUOUS
 90
24
 70
0
 10
10.7217743279
 20
4.1116659802
 10
10.726436312
 20
4.0500455568
 10
10.7385765246
 20
3.996871936
 10
10.7561961423
 20
3.95201327
 10
10.777901537
 20
3.9153988174
 10
10.8024673753
 20
3.8871600208
 10
10.8285919152
 20
3.8674172179
 10
10.8546919222
 20
3.8559898082
 10
10.8799854415
 20
3.851875923
 10
10.9049304605
 20
3.8542411779
 10
10.9274339062
 20
3.8619661371
 10
10.9457472149
 20
3.8724771938
 10
10.9606672993
 20
3.8841916733
 10
10.9741225905
 20
3.8975680149
 10
10.9864798346
 20
3.9126597607
 10
10.9974960018
 20
3.9289208476
 10
11.0070596158
 20
3.9457976867
 10
11.0152570359
 20
3.9629885619
 10
11.0225402849
 20
3.9812075416
 10
11.0292534378
 20
4.0016747716
 10
11.0352340063
 20
4.0249179602
 10
11.0400750998
 20
4.0508901925
 10
11.0433669884
 20
4.0796963388
 10
11.0446089736
 20
4.1116659802
  0
LWPOLYLINE
  5
5E2
100
AcDbEntity
  8
0
100
AcDbPolyline
 62
7
  6
CONTINUOUS
 90
22
 70
0
 10
10.7847664539
 20
4.1116659802
 10
10.7866267161
 20
4.0762725245
 10
10.7914164662
 20
4.0447780014
 10
10.7983561359
 20
4.0169159231
 10
10.8070086919
 20
3.9925146687
 10
10.817017765
 20
3.9714476713
 10
10.8280483544
 20
3.9535857797
 10
10.8398527817
 20
3.9388838889
 10
10.8522107421
 20
3.9273994269
 10
10.8648871805
 20
3.9193955979
 10
10.8774648348
 20
3.9152459431
 10
10.8901427621
 20
3.9154573455
 10
10.9025703636
 20
3.9199317036
 10
10.9150827871
 20
3.9281173123
 10
10.9272684953
 20
3.9396910475
 10
10.9389110918
 20
3.9544090735
 10
10.9497909273
 20
3.9722353367
 10
10.959665868
 20
3.9932213145
 10
10.9682026462
 20
4.0175022124
 10
10.9750524517
 20
4.0452052723
 10
10.9797808202
 20
4.0765044535
 10
10.9816168476
 20
4.1116659802
  0
LINE
  5
5E3
100
AcDbEntity
  8
AXIS
100
AcDbLine
 62
7
  6
CONTINUOUS
 10
10.737295314
 20
4.4364691298
 11
10.737295314
 21
4.338043933
  0
LINE
  5
5E4
100
AcDbEntity
  8
0
100
AcDbLine
 62
7
  6
CONTINUOUS
 10
10.7919318082
 20
3.4797762165
 11
10.7919318082
 21
3.5014297598
  0
LINE
  5
5E5
100
AcDbEntity
  8
0
100
AcDbLine
 62
7
  6
CONTINUOUS
 10
10.7919318082
 20
4.7219022007
 11
10.7919318082
 21
4.743555744
  0
LINE
  5
5E6
100
AcDbEntity
  8
AXIS
100
AcDbLine
 62
7
  6
CONTINUOUS
 10
10.7528464951
 20
4.338043933
 11
10.7732310208
 21
4.3872565314
  0
LINE
  5
5E7
100
AcDbEntity
  8
AXIS
100
AcDbLine
 62
7
  6
CONTINUOUS
 10
10.7817537941
 20
4.3872565314
 11
10.7601211371
 21
4.3350306776
  0
LWPOLYLINE
  5
5E8
100
AcDbEntity
  8
0
100
AcDbPolyline
 62
7
  6
CONTINUOUS
 90
11
 70
0
 10
10.7805834391
 20
4.3363299835
 10
10.7672623345
 20
4.3200637319
 10
10.755492688
 20
4.3026926214
 10
10.745346873
 20
4.2847901589
 10
10.7366980889
 20
4.2666542723
 10
10.7290473297
 20
4.2475176534
 10
10.7220207274
 20
4.2260971155
 10
10.7157794838
 20
4.2018443295
 10
10.7107391472
 20
4.1748088296
 10
10.7073173212
 20
4.1448756518
 10
10.7060262964
 20
4.1116659802
  0
LWPOLYLINE
  5
5E9
100
AcDbEntity
  8
0
100
AcDbPolyline
 62
9
  6
CONTINUOUS
 90
9
 70
0
 10
10.8718814212
 20
4.2675502582
 10
10.8734162747
 20
4.2687938573
 10
10.8748797975
 20
4.2698889516
 10
10.876276964
 20
4.2708473401
 10
10.8775985475
 20
4.2716734932
 10
10.8788296566
 20
4.2723720291
 10
10.8799671987
 20
4.272956323
 10
10.8810251564
 20
4.2734479193
 10
10.8821004928
 20
4.273867228
  0
LWPOLYLINE
  5
5EA
100
AcDbEntity
  8
0
100
AcDbPolyline
 62
9
  6
CONTINUOUS
 90
9
 70
0
 10
10.3031738904
 20
3.9551405469
 10
10.3016717631
 20
3.9539699159
 10
10.3002685917
 20
3.9529631832
 10
10.2989630108
 20
3.9521047399
 10
10.2977554295
 20
3.9513789555
 10
10.2966360959
 20
3.9507654703
 10
10.2956000368
 20
3.9502474539
 10
10.2946293331
 20
3.9498075057
 10
10.2936327056
 20
3.9494326465
  0
LINE
  5
5EB
100
AcDbEntity
  8
0
100
AcDbLine
 62
7
  6
CONTINUOUS
 10
10.8803620554
 20
4.2675897456
 11
10.8813963736
 21
4.2681635684
  0
LWPOLYLINE
  5
5EC
100
AcDbEntity
  8
0
100
AcDbPolyline
 62
7
  6
CONTINUOUS
 90
3
 70
0
 10
10.2952280038
 20
3.9556028225
 10
10.2942840773
 20
3.9550890469
 10
10.2934052812
 20
3.9546535706
  0
LINE
  5
5ED
100
AcDbEntity
  8
0
100
AcDbLine
 62
7
  6
CONTINUOUS
 10
10.8803700942
 20
4.2675942054
 11
10.8831918436
 21
4.269023194
  0
LINE
  5
5EE
100
AcDbEntity
  8
0
100
AcDbLine
 62
7
  6
CONTINUOUS
 10
10.8823538466
 20
4.2686437968
 11
10.8831916507
 21
4.2690231125
  0
LINE
  5
5EF
100
AcDbEntity
  8
0
100
AcDbLine
 62
9
  6
CONTINUOUS
 10
10.8842893436
 20
3.9494679529
 11
10.8831921302
 21
3.9491881579
  0
LWPOLYLINE
  5
5F0
100
AcDbEntity
  8
AXIS
100
AcDbPolyline
 62
7
  6
CONTINUOUS
 90
13
 70
0
 10
11.679476602
 20
3.9837132243
 10
11.6586918919
 20
3.9811223161
 10
11.6393822393
 20
3.973631403
 10
11.6231040176
 20
3.9620180861
 10
11.6111391051
 20
3.9475877875
 10
11.6039147133
 20
3.9314749869
 10
11.6015434903
 20
3.9147449693
 10
11.6039481234
 20
3.898040921
 10
11.61119309
 20
3.8819569672
 10
11.6231799054
 20
3.8675426589
 10
11.6394854054
 20
3.855944259
 10
11.6587489804
 20
3.8484944629
 10
11.679476602
 20
3.8459179487
  0
LWPOLYLINE
  5
5F1
100
AcDbEntity
  8
0
100
AcDbPolyline
 62
7
  6
CONTINUOUS
 90
12
 70
0
 10
12.0218578993
 20
4.0427712618
 10
12.0335738851
 20
4.0439486701
 10
12.0518181058
 20
4.0509438527
 10
12.0672591419
 20
4.063717589
 10
12.0783836078
 20
4.0810993444
 10
12.0841439947
 20
4.1014067796
 10
12.0840332621
 20
4.1227101508
 10
12.0780573942
 20
4.1429507156
 10
12.0667409023
 20
4.1601951295
 10
12.0511620075
 20
4.172766793
 10
12.0328622661
 20
4.1795228677
 10
12.0218569912
 20
4.180560912
  0
LINE
  5
5F2
100
AcDbEntity
  8
0
100
AcDbLine
 62
9
  6
CONTINUOUS
 10
12.0307455307
 20
3.8656029881
 11
11.6857494536
 21
3.8656029881
  0
LINE
  5
5F3
100
AcDbEntity
  8
AXIS
100
AcDbLine
 62
7
  6
CONTINUOUS
 10
12.4057649449
 20
3.8833392086
 11
12.8034027401
 21
3.8833392086
  0
LINE
  5
5F4
100
AcDbEntity
  8
0
100
AcDbLine
 62
9
  6
CONTINUOUS
 10
11.6857494536
 20
3.964028185
 11
12.0307455307
 21
3.964028185
  0
LINE
  5
5F5
100
AcDbEntity
  8
0
100
AcDbLine
 62
7
  6
CONTINUOUS
 10
11.679476602
 20
3.9837132243
 11
12.0218463761
 21
3.9837132243
  0
LWPOLYLINE
  5
5F6
100
AcDbEntity
  8
0
100
AcDbPolyline
 62
9
  6
CONTINUOUS
 90
13
 70
0
 10
11.6857494536
 20
3.8656029881
 10
11.6709342584
 20
3.867368556
 10
11.6570133016
 20
3.8725669084
 10
11.6452362536
 20
3.8806847399
 10
11.6364302953
 20
3.8909612832
 10
11.6310431332
 20
3.90258298
 10
11.6292393356
 20
3.9148311876
 10
11.6310521808
 20
3.9270778979
 10
11.6364475071
 20
3.9386963363
 10
11.6452611594
 20
3.9489687195
 10
11.6570405482
 20
3.957078393
 10
11.6709509234
 20
3.9622666562
 10
11.6857494536
 20
3.964028185
  0
LWPOLYLINE
  5
5F7
100
AcDbEntity
  8
0
100
AcDbPolyline
 62
9
  6
CONTINUOUS
 90
13
 70
0
 10
11.6861784846
 20
3.8459179487
 10
11.6668598863
 20
3.8484168622
 10
11.6488628802
 20
3.8557114774
 10
11.6336768073
 20
3.867081667
 10
11.6223449639
 20
3.8814604845
 10
11.6154222324
 20
3.897712035
 10
11.6131054077
 20
3.9148332839
 10
11.6154321504
 20
3.9319547107
 10
11.6223647531
 20
3.9482039946
 10
11.6337069424
 20
3.962578922
 10
11.6488974762
 20
3.9739392346
 10
11.6668826857
 20
3.9812202939
 10
11.6861784846
 20
3.9837132243
  0
LINE
  5
5F8
100
AcDbEntity
  8
0
100
AcDbLine
 62
9
  6
CONTINUOUS
 10
10.8831921302
 20
3.9491881579
 11
10.8804757803
 21
3.9501105612
  0
LWPOLYLINE
  5
5F9
100
AcDbEntity
  8
0
100
AcDbPolyline
 62
7
  6
CONTINUOUS
 90
3
 70
0
 10
10.8831915026
 20
3.9543089106
 10
10.8815656403
 20
3.9550799206
 10
10.8813061227
 20
3.9552240538
  0
LINE
  5
5FA
100
AcDbEntity
  8
0
100
AcDbLine
 62
7
  6
CONTINUOUS
 10
10.2926404696
 20
4.2690231125
 11
10.2945402628
 21
4.2681081752
  0
LWPOLYLINE
  5
5FB
100
AcDbEntity
  8
0
100
AcDbPolyline
 62
7
  6
CONTINUOUS
 90
3
 70
0
 10
10.8831916507
 20
3.954308848
 10
10.881151273
 20
3.9552992154
 10
10.8791510982
 20
3.9564858645
  0
LWPOLYLINE
  5
5FC
100
AcDbEntity
  8
0
100
AcDbPolyline
 62
7
  6
CONTINUOUS
 90
5
 70
0
 10
10.2953156129
 20
4.2732267377
 10
10.297692674
 20
4.2719853299
 10
10.2999433444
 20
4.2705907149
 10
10.3020696824
 20
4.2690608703
 10
10.3040897283
 20
4.2674329739
  0
LWPOLYLINE
  5
5FD
100
AcDbEntity
  8
0
100
AcDbPolyline
 62
9
  6
CONTINUOUS
 90
4
 70
0
 10
10.8804757803
 20
3.9501105612
 10
10.8780848736
 20
3.9513817631
 10
10.8758180177
 20
3.952787912
 10
10.8736806291
 20
3.9543341357
  0
LINE
  5
5FE
100
AcDbEntity
  8
0
100
AcDbLine
 62
7
  6
CONTINUOUS
 10
10.2945402628
 20
4.2681081752
 11
10.2965465905
 21
4.2669324289
  0
LWPOLYLINE
  5
5FF
100
AcDbEntity
  8
0
100
AcDbPolyline
 62
7
  6
CONTINUOUS
 90
26
 70
0
 10
10.2965465905
 20
4.2669324289
 10
10.2984715656
 20
4.2656085529
 10
10.3003435304
 20
4.2641492568
 10
10.3021983631
 20
4.26255534
 10
10.3041148267
 20
4.2607768211
 10
10.306149803
 20
4.2587425453
 10
10.3083106574
 20
4.2564093309
 10
10.3105622684
 20
4.253778716
 10
10.3128952608
 20
4.2508285324
 10
10.3153097149
 20
4.247526335
 10
10.3178049428
 20
4.2438430645
 10
10.3203813801
 20
4.2397522241
 10
10.323028263
 20
4.2352249779
 10
10.3257317509
 20
4.230218096
 10
10.3284764495
 20
4.2246838951
 10
10.3312445601
 20
4.2185726193
 10
10.3340169846
 20
4.211831708
 10
10.3367730231
 20
4.2044077615
 10
10.3394803672
 20
4.1962426571
 10
10.342092404
 20
4.1872662157
 10
10.3445532157
 20
4.1774003588
 10
10.346795178
 20
4.1665625757
 10
10.3487373198
 20
4.1546650295
 10
10.3502827673
 20
4.1416151075
 10
10.3513154755
 20
4.127315639
 10
10.3516955878
 20
4.1116656687
  0
LWPOLYLINE
  5
600
100
AcDbEntity
  8
0
100
AcDbPolyline
 62
7
  6
CONTINUOUS
 90
24
 70
0
 10
10.8791510982
 20
3.9564858645
 10
10.8772127579
 20
3.9578326665
 10
10.8753233306
 20
3.9593190851
 10
10.8734022353
 20
3.9609846351
 10
10.8713533767
 20
3.9629076865
 10
10.8691408837
 20
3.9651569435
 10
10.8668115398
 20
3.9677296277
 10
10.8643980641
 20
3.9706284428
 10
10.8619006787
 20
3.9738891921
 10
10.8593215505
 20
3.9775438829
 10
10.8566600564
 20
3.9816228785
 10
10.8539214896
 20
3.986152792
 10
10.8511219812
 20
3.9911731903
 10
10.8482775271
 20
3.9967346887
 10
10.845407331
 20
4.0028892786
 10
10.8425320037
 20
4.009692189
 10
10.8396734959
 20
4.0171996638
 10
10.8368625737
 20
4.0254708244
 10
10.8341475642
 20
4.0345772383
 10
10.831586934
 20
4.0446004339
 10
10.829251537
 20
4.0556265662
 10
10.8272263483
 20
4.0677473045
 10
10.8256131655
 20
4.0810592781
 10
10.8245340973
 20
4.095663765
  0
LWPOLYLINE
  5
601
100
AcDbEntity
  8
0
100
AcDbPolyline
 62
9
  6
CONTINUOUS
 90
27
 70
0
 10
10.8831916507
 20
3.9656526899
 10
10.8819765971
 20
3.9665922417
 10
10.8806429889
 20
3.9677166872
 10
10.8791682262
 20
3.9690529155
 10
10.8775667744
 20
3.9706056143
 10
10.8758595227
 20
3.9723818794
 10
10.8740698967
 20
3.9743831441
 10
10.872201905
 20
3.9766294579
 10
10.8702561614
 20
3.979144999
 10
10.8682327998
 20
3.9819542121
 10
10.8661301583
 20
3.9850822491
 10
10.8639474672
 20
3.9885505821
 10
10.8616919072
 20
3.9923848493
 10
10.8593729027
 20
3.9966214939
 10
10.8570010404
 20
4.0013011299
 10
10.8545887957
 20
4.0064669322
 10
10.8521502509
 20
4.0121647216
 10
10.8497001881
 20
4.0184425999
 10
10.8472586686
 20
4.0253493301
 10
10.8448574142
 20
4.0329432106
 10
10.8425379217
 20
4.0412916332
 10
10.8403499802
 20
4.0504674161
 10
10.8383539806
 20
4.060548587
 10
10.8366225067
 20
4.0716183547
 10
10.8352427142
 20
4.0837650116
 10
10.8343193591
 20
4.0970816983
 10
10.8339790523
 20
4.1116659791
  0
LWPOLYLINE
  5
602
100
AcDbEntity
  8
0
100
AcDbPolyline
 62
9
  6
CONTINUOUS
 90
24
 70
0
 10
10.8736806291
 20
3.9543341357
 10
10.871628699
 20
3.9559950313
 10
10.8695568271
 20
3.9578310117
 10
10.8673516913
 20
3.9599417693
 10
10.8649962685
 20
3.9623837912
 10
10.8625412126
 20
3.9651472245
 10
10.8600129962
 20
3.968238835
 10
10.8574136926
 20
3.9716897825
 10
10.854747265
 20
3.9755262207
 10
10.8520122941
 20
3.9797741499
 10
10.849210418
 20
3.9844698909
 10
10.8463535218
 20
3.9896592871
 10
10.8434597064
 20
3.9953893328
 10
10.8405485445
 20
4.0017089848
 10
10.8376413193
 20
4.0086692721
 10
10.8347592547
 20
4.0163240844
 10
10.8319321472
 20
4.0247368047
 10
10.829206803
 20
4.0339819063
 10
10.8266418435
 20
4.0441375046
 10
10.8243073903
 20
4.055287037
 10
10.8222872703
 20
4.0675189881
 10
10.8206814651
 20
4.08092673
 10
10.8196095047
 20
4.0956083205
 10
10.8192152728
 20
4.1116659808
  0
LINE
  5
603
100
AcDbEntity
  8
0
100
AcDbLine
 62
7
  6
CONTINUOUS
 10
10.8245221969
 20
4.0961427715
 11
10.8244843377
 21
4.0966913801
  0
LWPOLYLINE
  5
604
100
AcDbEntity
  8
0
100
AcDbPolyline
 62
9
  6
CONTINUOUS
 90
57
 70
0
 10
10.8044514933
 20
4.1116659802
 10
10.8051179484
 20
4.0911633453
 10
10.8068360951
 20
4.0727527362
 10
10.8093085132
 20
4.0561273623
 10
10.812367371
 20
4.0409584913
 10
10.815911194
 20
4.0270362372
 10
10.8197602276
 20
4.0145682967
 10
10.8236917093
 20
4.0037752726
 10
10.8276155244
 20
3.9944271248
 10
10.8314897647
 20
3.9862568599
 10
10.8352895773
 20
3.9790730745
 10
10.8389956257
 20
3.9727424524
 10
10.8426093832
 20
3.9671408601
 10
10.8461455372
 20
3.9621497803
 10
10.8495723782
 20
3.9577303297
 10
10.8528209078
 20
3.9538929799
 10
10.8558833266
 20
3.9505751314
 10
10.85877792
 20
3.9477013927
 10
10.8615281446
 20
3.945209326
 10
10.8641469897
 20
3.9430543023
 10
10.8666056026
 20
3.941223411
 10
10.8688884469
 20
3.9396904708
 10
10.8710595982
 20
3.9383837561
 10
10.8732129773
 20
3.9372374433
 10
10.8753827765
 20
3.9362403061
 10
10.8774460925
 20
3.9354568653
 10
10.8792989796
 20
3.9349282067
 10
10.8811068959
 20
3.9346126814
 10
10.8830484818
 20
3.9345012522
 10
10.8850200542
 20
3.9345850981
 10
10.8868640092
 20
3.9348786953
 10
10.888708226
 20
3.9353815744
 10
10.8906994338
 20
3.9361151808
 10
10.8928401096
 20
3.9370752314
 10
10.8949892978
 20
3.9381958258
 10
10.8971625379
 20
3.9394808323
 10
10.8994667442
 20
3.9410051126
 10
10.9019739065
 20
3.9428500201
 10
10.9046797282
 20
3.9450583686
 10
10.907559678
 20
3.9476580315
 10
10.910598318
 20
3.9506772403
 10
10.9137770586
 20
3.9541363403
 10
10.9170906357
 20
3.9580764692
 10
10.9205560139
 20
3.9625804581
 10
10.9241595554
 20
3.9677136114
 10
10.9278496894
 20
3.9734978993
 10
10.9316025538
 20
3.9799923262
 10
10.9354081025
 20
3.9872894878
 10
10.9392406479
 20
3.9954911938
 10
10.9430823617
 20
4.0047774822
 10
10.9469248662
 20
4.0154691713
 10
10.9506911631
 20
4.0278179818
 10
10.9541758163
 20
4.0416627306
 10
10.957181162
 20
4.0567360695
 10
10.9596025889
 20
4.0732089446
 10
10.9612816214
 20
4.0914165524
 10
10.9619318082
 20
4.1116659802
  0
LINE
  5
605
100
AcDbEntity
  8
0
100
AcDbLine
 62
7
  6
CONTINUOUS
 10
10.8245340973
 20
4.095663765
 11
10.8241365326
 21
4.1116662915
  0
LWPOLYLINE
  5
606
100
AcDbEntity
  8
0
100
AcDbPolyline
 62
7
  6
CONTINUOUS
 90
4
 70
0
 10
10.8831910493
 20
4.2680039884
 10
10.8832034362
 20
4.2653099863
 10
10.8831775426
 20
4.2616411841
 10
10.8831916507
 20
4.2576792705
  0
LINE
  5
607
100
AcDbEntity
  8
0
100
AcDbLine
 62
7
  6
CONTINUOUS
 10
10.88319184
 20
3.9543092984
 11
10.8831830678
 21
3.9580311996
  0
LWPOLYLINE
  5
608
100
AcDbEntity
  8
0
100
AcDbPolyline
 62
7
  6
CONTINUOUS
 90
4
 70
0
 10
10.8831916945
 20
3.954308744
 10
10.8831899105
 20
3.9535895724
 10
10.8830905391
 20
3.9517054952
 10
10.8831916494
 20
3.9491880353
  0
LWPOLYLINE
  5
609
100
AcDbEntity
  8
0
100
AcDbPolyline
 62
7
  6
CONTINUOUS
 90
4
 70
0
 10
10.8831910493
 20
4.2680039884
 10
10.8831951367
 20
4.2697419565
 10
10.8832893466
 20
4.2716268301
 10
10.8831916509
 20
4.2741439251
  0
LWPOLYLINE
  5
60A
100
AcDbEntity
  8
0
100
AcDbPolyline
 62
7
  6
CONTINUOUS
 90
3
 70
0
 10
10.8831830678
 20
3.9580311996
 10
10.8832061897
 20
3.9616735837
 10
10.8831916508
 20
3.9656526899
  0
LWPOLYLINE
  5
60B
100
AcDbEntity
  8
0
100
AcDbPolyline
 62
9
  6
CONTINUOUS
 90
26
 70
0
 10
10.8192152728
 20
4.1116659808
 10
10.819607091
 20
4.127674971
 10
10.8206552565
 20
4.1421337838
 10
10.8222020893
 20
4.1552128912
 10
10.8241239617
 20
4.1670583108
 10
10.8263222582
 20
4.1777967227
 10
10.8287174608
 20
4.1875392242
 10
10.8312450116
 20
4.1963841035
 10
10.8338525503
 20
4.2044187904
 10
10.8364974557
 20
4.2117221768
 10
10.8391501541
 20
4.2183625155
 10
10.841791807
 20
4.2243955728
 10
10.8444050099
 20
4.2298710012
 10
10.8469736336
 20
4.2348363207
 10
10.8494836289
 20
4.2393363746
 10
10.8519228323
 20
4.2434132305
 10
10.8542830473
 20
4.2471070144
 10
10.856563788
 20
4.2504522268
 10
10.8587672495
 20
4.2534743268
 10
10.8608923212
 20
4.256197483
 10
10.8629369711
 20
4.2586457837
 10
10.8648991128
 20
4.260843123
 10
10.8667770008
 20
4.2628126153
 10
10.8685676407
 20
4.2645744757
 10
10.870268149
 20
4.266147519
 10
10.8718814212
 20
4.2675502582
  0
LWPOLYLINE
  5
60C
100
AcDbEntity
  8
0
100
AcDbPolyline
 62
7
  6
CONTINUOUS
 90
30
 70
0
 10
10.8241365326
 20
4.1116662915
 10
10.8245281661
 20
4.1275492235
 10
10.825574272
 20
4.1418736537
 10
10.8271156078
 20
4.1548118922
 10
10.8290275782
 20
4.1665120726
 10
10.8312110657
 20
4.1771028594
 10
10.8335863915
 20
4.1866971674
 10
10.8360891212
 20
4.1953947923
 10
10.8386671727
 20
4.2032848029
 10
10.8412781632
 20
4.2104456889
 10
10.8438909299
 20
4.2169410278
 10
10.846486034
 20
4.2228250007
 10
10.8490466359
 20
4.2281505831
 10
10.8515574113
 20
4.2329676022
 10
10.8540049853
 20
4.237322608
 10
10.8563787731
 20
4.2412598431
 10
10.8586684851
 20
4.2448159646
 10
10.8608698526
 20
4.2480173575
 10
10.8629845843
 20
4.2508912292
 10
10.8650131702
 20
4.2534654804
 10
10.8669550559
 20
4.2557671194
 10
10.8688097722
 20
4.2578223725
 10
10.8705768448
 20
4.2596557535
 10
10.8722551505
 20
4.2612891035
 10
10.8738409398
 20
4.2627398975
 10
10.8753262795
 20
4.2640153191
 10
10.8767122099
 20
4.265121496
 10
10.878010948
 20
4.2660766686
 10
10.8792291891
 20
4.2668963604
 10
10.8803620554
 20
4.2675897456
  0
LWPOLYLINE
  5
60D
100
AcDbEntity
  8
0
100
AcDbPolyline
 62
9
  6
CONTINUOUS
 90
22
 70
0
 10
10.8339790523
 20
4.1116659791
 10
10.8343747656
 20
4.1273836016
 10
10.8354448341
 20
4.1416778541
 10
10.8370411425
 20
4.1546813054
 10
10.839044289
 20
4.1665123961
 10
10.8413555604
 20
4.1772732587
 10
10.8438918191
 20
4.1870537711
 10
10.8465836082
 20
4.1959374517
 10
10.8493725062
 20
4.2040033937
 10
10.8522122656
 20
4.2113184555
 10
10.8550738212
 20
4.2179392951
 10
10.8579360286
 20
4.2239200781
 10
10.8607776404
 20
4.2293143241
 10
10.8635795914
 20
4.2341740411
 10
10.8663227655
 20
4.2385449647
 10
10.8689938302
 20
4.242457628
 10
10.8715928023
 20
4.2459343746
 10
10.8741185035
 20
4.2490053125
 10
10.8765680072
 20
4.2517023753
 10
10.8789320006
 20
4.2540567754
 10
10.881165217
 20
4.256067694
 10
10.8831916507
 20
4.2576792705
  0
LINE
  5
60E
100
AcDbEntity
  8
0
100
AcDbLine
 62
7
  6
CONTINUOUS
 10
10.2934052812
 20
3.9546535706
 11
10.2926404696
 21
3.954308848
  0
LINE
  5
60F
100
AcDbEntity
  8
AXIS
100
AcDbLine
 62
7
  6
CONTINUOUS
 10
10.1082218457
 20
3.7867053503
 11
10.1009472038
 21
3.7836920949
  0
LINE
  5
610
100
AcDbEntity
  8
0
100
AcDbLine
 62
9
  6
CONTINUOUS
 10
10.2936327056
 20
3.9494326465
 11
10.2926402377
 21
3.9491879783
  0
LWPOLYLINE
  5
611
100
AcDbEntity
  8
AXIS
100
AcDbPolyline
 62
7
  6
CONTINUOUS
 90
13
 70
0
 10
11.679476602
 20
4.180563618
 10
11.6586918919
 20
4.1779727098
 10
11.6393822393
 20
4.1704817967
 10
11.6231040176
 20
4.1588684798
 10
11.6111391051
 20
4.1444381812
 10
11.6039147133
 20
4.1283253806
 10
11.6015434903
 20
4.111595363
 10
11.6039481234
 20
4.0948913147
 10
11.61119309
 20
4.0788073609
 10
11.6231799054
 20
4.0643930526
 10
11.6394854054
 20
4.0527946527
 10
11.6587489804
 20
4.0453448566
 10
11.679476602
 20
4.0427683424
  0
LWPOLYLINE
  5
612
100
AcDbEntity
  8
0
100
AcDbPolyline
 62
7
  6
CONTINUOUS
 90
12
 70
0
 10
12.0218578993
 20
4.2396216555
 10
12.0335738851
 20
4.2407990638
 10
12.0518181058
 20
4.2477942464
 10
12.0672591419
 20
4.2605679827
 10
12.0783836078
 20
4.2779497381
 10
12.0841439947
 20
4.2982571733
 10
12.0840332621
 20
4.3195605445
 10
12.0780573942
 20
4.3398011093
 10
12.0667409023
 20
4.3570455232
 10
12.0511620075
 20
4.3696171867
 10
12.0328622661
 20
4.3763732614
 10
12.0218569912
 20
4.3774113057
  0
LINE
  5
613
100
AcDbEntity
  8
0
100
AcDbLine
 62
7
  6
CONTINUOUS
 10
11.679476602
 20
4.0427683424
 11
12.0218579019
 21
4.0427683589
  0
LINE
  5
614
100
AcDbEntity
  8
0
100
AcDbLine
 62
9
  6
CONTINUOUS
 10
12.0307455307
 20
4.0624533818
 11
11.6857494536
 21
4.0624533818
  0
LINE
  5
615
100
AcDbEntity
  8
0
100
AcDbLine
 62
7
  6
CONTINUOUS
 10
9.0135254024
 20
4.086075429
 11
9.0332104418
 21
4.086075429
  0
LINE
  5
616
100
AcDbEntity
  8
0
100
AcDbLine
 62
9
  6
CONTINUOUS
 10
10.3566168476
 20
4.1116656635
 11
10.3418530681
 21
4.1116656793
  0
LINE
  5
617
100
AcDbEntity
  8
0
100
AcDbLine
 62
9
  6
CONTINUOUS
 10
10.9471680287
 20
4.1116656638
 11
10.9324042492
 21
4.1116656796
  0
LINE
  5
618
100
AcDbEntity
  8
0
100
AcDbLine
 62
9
  6
CONTINUOUS
 10
10.2434278712
 20
4.1116659791
 11
10.2286640917
 21
4.1116659808
  0
LINE
  5
619
100
AcDbEntity
  8
0
100
AcDbLine
 62
9
  6
CONTINUOUS
 10
10.8339790523
 20
4.1116659791
 11
10.8192152728
 21
4.1116659808
  0
LINE
  5
61A
100
AcDbEntity
  8
0
100
AcDbLine
 62
9
  6
CONTINUOUS
 10
10.2139003122
 20
4.1116659802
 11
10.1942151253
 21
4.1116659802
  0
LINE
  5
61B
100
AcDbEntity
  8
0
100
AcDbLine
 62
9
  6
CONTINUOUS
 10
10.3713806271
 20
4.1116659802
 11
10.391065814
 21
4.1116659802
  0
LINE
  5
61C
100
AcDbEntity
  8
0
100
AcDbLine
 62
9
  6
CONTINUOUS
 10
10.8044514933
 20
4.1116659802
 11
10.7847663064
 21
4.1116659802
  0
LINE
  5
61D
100
AcDbEntity
  8
0
100
AcDbLine
 62
9
  6
CONTINUOUS
 10
10.9619318082
 20
4.1116659802
 11
10.9816169951
 21
4.1116659802
  0
LINE
  5
61E
100
AcDbEntity
  8
0
100
AcDbLine
 62
7
  6
CONTINUOUS
 10
10.2926407626
 20
4.2741439972
 11
10.2953156129
 21
4.2732267377
  0
LINE
  5
61F
100
AcDbEntity
  8
AXIS
100
AcDbLine
 62
7
  6
CONTINUOUS
 10
10.7732310208
 20
4.3872565314
 11
10.7528464951
 21
4.4364691298
  0
LINE
  5
620
100
AcDbEntity
  8
AXIS
100
AcDbLine
 62
7
  6
CONTINUOUS
 10
10.7601211371
 20
4.4394823852
 11
10.7817537941
 21
4.3872565314
  0
LWPOLYLINE
  5
621
100
AcDbEntity
  8
0
100
AcDbPolyline
 62
9
  6
CONTINUOUS
 90
24
 70
0
 10
11.0446089736
 20
4.1116659802
 10
11.0399469895
 20
4.1732864036
 10
11.0278067769
 20
4.2264600244
 10
11.0101871592
 20
4.2713186905
 10
10.9884817645
 20
4.3079331431
 10
10.9639159262
 20
4.3361719396
 10
10.9377913863
 20
4.3559147425
 10
10.9116913793
 20
4.3673421522
 10
10.88639786
 20
4.3714560375
 10
10.861452841
 20
4.3690907825
 10
10.8389493953
 20
4.3613658234
 10
10.8206360866
 20
4.3508547667
 10
10.8057160022
 20
4.3391402871
 10
10.792260711
 20
4.3257639456
 10
10.7799034669
 20
4.3106721998
 10
10.7688872997
 20
4.2944111129
 10
10.7593236857
 20
4.2775342738
 10
10.7511262656
 20
4.2603433986
 10
10.7438430166
 20
4.2421244188
 10
10.7371298637
 20
4.2216571888
 10
10.7311492952
 20
4.1984140002
 10
10.7263082017
 20
4.172441768
 10
10.7230163131
 20
4.1436356217
 10
10.7217743279
 20
4.1116659802
  0
LINE
  5
622
100
AcDbEntity
  8
0
100
AcDbLine
 62
7
  6
CONTINUOUS
 10
10.9418611258
 20
4.1271887826
 11
10.9418989795
 21
4.1266402458
  0
LWPOLYLINE
  5
623
100
AcDbEntity
  8
0
100
AcDbPolyline
 62
7
  6
CONTINUOUS
 90
22
 70
0
 10
10.9816168476
 20
4.1116659802
 10
10.9797565854
 20
4.147059436
 10
10.9749668353
 20
4.178553959
 10
10.9680271656
 20
4.2064160374
 10
10.9593746096
 20
4.2308172917
 10
10.9493655365
 20
4.2518842892
 10
10.9383349471
 20
4.2697461808
 10
10.9265305198
 20
4.2844480715
 10
10.9141725594
 20
4.2959325336
 10
10.901496121
 20
4.3039363626
 10
10.8889184667
 20
4.3080860174
 10
10.8762405394
 20
4.3078746149
 10
10.8638129379
 20
4.3034002568
 10
10.8513005144
 20
4.2952146482
 10
10.8391148062
 20
4.283640913
 10
10.8274722097
 20
4.268922887
 10
10.8165923742
 20
4.2510966238
 10
10.8067174335
 20
4.2301106459
 10
10.7981806553
 20
4.2058297481
 10
10.7913308498
 20
4.1781266882
 10
10.7866024813
 20
4.146827507
 10
10.7847664539
 20
4.1116659802
  0
LWPOLYLINE
  5
624
100
AcDbEntity
  8
0
100
AcDbPolyline
 62
9
  6
CONTINUOUS
 90
57
 70
0
 10
10.9619318082
 20
4.1116659802
 10
10.9612653531
 20
4.1321686152
 10
10.9595472064
 20
4.1505792242
 10
10.9570747883
 20
4.1672045982
 10
10.9540159305
 20
4.1823734691
 10
10.9504721075
 20
4.1962957233
 10
10.9466230739
 20
4.2087636638
 10
10.9426915922
 20
4.2195566879
 10
10.9387677771
 20
4.2289048357
 10
10.9348935368
 20
4.2370751006
 10
10.9310937242
 20
4.244258886
 10
10.9273876758
 20
4.2505895081
 10
10.9237739183
 20
4.2561911003
 10
10.9202377642
 20
4.2611821801
 10
10.9168109233
 20
4.2656016308
 10
10.9135623937
 20
4.2694389806
 10
10.9104999749
 20
4.2727568291
 10
10.9076053815
 20
4.2756305678
 10
10.9048551569
 20
4.2781226344
 10
10.9022363118
 20
4.2802776582
 10
10.8997776989
 20
4.2821085495
 10
10.8974948546
 20
4.2836414897
 10
10.8953237033
 20
4.2849482044
 10
10.8931703242
 20
4.2860945171
 10
10.891000525
 20
4.2870916544
 10
10.888937209
 20
4.2878750951
 10
10.8870843219
 20
4.2884037538
 10
10.8852764056
 20
4.288719279
 10
10.8833348197
 20
4.2888307082
 10
10.8813632473
 20
4.2887468623
 10
10.8795192923
 20
4.2884532652
 10
10.8776750755
 20
4.2879503861
 10
10.8756838677
 20
4.2872167797
 10
10.8735431919
 20
4.2862567291
 10
10.8713940037
 20
4.2851361347
 10
10.8692207636
 20
4.2838511282
 10
10.8669165573
 20
4.2823268478
 10
10.864409395
 20
4.2804819404
 10
10.8617035733
 20
4.2782735918
 10
10.8588236235
 20
4.2756739289
 10
10.8557849835
 20
4.2726547201
 10
10.8526062429
 20
4.2691956201
 10
10.8492926658
 20
4.2652554913
 10
10.8458272876
 20
4.2607515024
 10
10.8422237461
 20
4.2556183491
 10
10.8385336121
 20
4.2498340612
 10
10.8347807477
 20
4.2433396342
 10
10.830975199
 20
4.2360424726
 10
10.8271426536
 20
4.2278407667
 10
10.8233009398
 20
4.2185544783
 10
10.8194584352
 20
4.2078627892
 10
10.8156921384
 20
4.1955139787
 10
10.8122074852
 20
4.1816692299
 10
10.8092021395
 20
4.166595891
 10
10.8067807126
 20
4.1501230159
 10
10.8051016801
 20
4.1319154081
 10
10.8044514933
 20
4.1116659802
  0
LINE
  5
625
100
AcDbEntity
  8
0
100
AcDbLine
 62
7
  6
CONTINUOUS
 10
10.941849227
 20
4.1276677406
 11
10.9422467689
 21
4.1116656691
  0
LWPOLYLINE
  5
626
100
AcDbEntity
  8
0
100
AcDbPolyline
 62
9
  6
CONTINUOUS
 90
26
 70
0
 10
10.9471680287
 20
4.1116656638
 10
10.946786006
 20
4.0958569933
 10
10.945762036
 20
4.0815541194
 10
10.9442477198
 20
4.0685939466
 10
10.9423623266
 20
4.0568364127
 10
10.9402013177
 20
4.0461598625
 10
10.9378419245
 20
4.0364574683
 10
10.935347114
 20
4.0276345811
 10
10.9327680753
 20
4.0196069466
 10
10.930146975
 20
4.012298271
 10
10.9275134184
 20
4.0056420313
 10
10.9248865365
 20
3.9995840584
 10
10.9222830649
 20
3.9940764531
 10
10.9197190422
 20
3.9890735209
 10
10.9172085195
 20
3.9845319019
 10
10.9147638531
 20
3.9804109884
 10
10.9123942585
 20
3.9766722272
 10
10.9101020585
 20
3.9732821204
 10
10.9078843034
 20
3.9702146362
 10
10.9057414017
 20
3.9674457891
 10
10.9036756274
 20
3.9649525585
 10
10.9016891372
 20
3.9627115742
 10
10.8997836973
 20
3.9606999752
 10
10.8979636509
 20
3.9588989242
 10
10.8962334
 20
3.9572907705
 10
10.8945890398
 20
3.9558550859
  0
LWPOLYLINE
  5
627
100
AcDbEntity
  8
0
100
AcDbPolyline
 62
9
  6
CONTINUOUS
 90
24
 70
0
 10
10.9324042492
 20
4.1116656796
 10
10.9320306898
 20
4.096391342
 10
10.931021999
 20
4.0825069873
 10
10.9295197867
 20
4.0698816795
 10
10.9276380367
 20
4.0583983774
 10
10.9254702649
 20
4.0479541748
 10
10.9230949137
 20
4.0384601808
 10
10.9205775255
 20
4.0298343327
 10
10.9179721932
 20
4.0219998285
 10
10.9153241002
 20
4.0148868526
 10
10.9126634524
 20
4.0084390559
 10
10.9100100145
 20
4.002603848
 10
10.9073816384
 20
3.9973297821
 10
10.9047951407
 20
3.9925677022
 10
10.9022649651
 20
3.9882709782
 10
10.8998056787
 20
3.9843987341
 10
10.8974249171
 20
3.9809240961
 10
10.8951225552
 20
3.9778236162
 10
10.892898196
 20
3.9750687939
 10
10.8907536952
 20
3.9726310449
 10
10.8886920568
 20
3.9704807015
 10
10.8867186169
 20
3.9685940238
 10
10.8848707657
 20
3.966970208
 10
10.8831916507
 20
3.9656526899
  0
LINE
  5
628
100
AcDbEntity
  8
0
100
AcDbLine
 62
7
  6
CONTINUOUS
 10
10.9422467689
 20
4.1116656691
 11
10.9418396711
 21
4.0954745593
  0
LWPOLYLINE
  5
629
100
AcDbEntity
  8
0
100
AcDbPolyline
 62
7
  6
CONTINUOUS
 90
12
 70
0
 10
10.9418649292
 20
4.0959811191
 10
10.940742218
 20
4.080776273
 10
10.9391102657
 20
4.0674259761
 10
10.9370687603
 20
4.0552960621
 10
10.9347200615
 20
4.0442755007
 10
10.9321500478
 20
4.0342690061
 10
10.9294303029
 20
4.0251883971
 10
10.9266200312
 20
4.016951219
 10
10.9237646939
 20
4.0094769481
 10
10.9208879293
 20
4.0026915546
 10
10.9180114365
 20
3.996542092
 10
10.9151566364
 20
3.9909777532
  0
LWPOLYLINE
  5
62A
100
AcDbEntity
  8
0
100
AcDbPolyline
 62
7
  6
CONTINUOUS
 90
11
 70
0
 10
10.9408429468
 20
4.0818108486
 10
10.9393339395
 20
4.0689896529
 10
10.9374581246
 20
4.0573754598
 10
10.9353114631
 20
4.0468447045
 10
10.9329713749
 20
4.0372888213
 10
10.9305006907
 20
4.0286116598
 10
10.9279504802
 20
4.0207274963
 10
10.925362247
 20
4.0135598105
 10
10.9227676832
 20
4.0070468618
 10
10.9201861519
 20
4.0011364789
 10
10.9176341558
 20
3.9957776649
  0
LWPOLYLINE
  5
62B
100
AcDbEntity
  8
0
100
AcDbPolyline
 62
7
  6
CONTINUOUS
 90
6
 70
0
 10
10.9151269255
 20
3.990922399
 10
10.9123434966
 20
3.985949638
 10
10.9095898138
 20
3.9814110057
 10
10.906901591
 20
3.9773083577
 10
10.9042662739
 20
3.9735959693
 10
10.9016845639
 20
3.970253979
  0
LWPOLYLINE
  5
62C
100
AcDbEntity
  8
0
100
AcDbPolyline
 62
7
  6
CONTINUOUS
 90
6
 70
0
 10
10.912677881
 20
3.9865256076
 10
10.9102978346
 20
3.9825443451
 10
10.9079977202
 20
3.9789429489
 10
10.9057834692
 20
3.9756957409
 10
10.9036531776
 20
3.9727761654
 10
10.9016058607
 20
3.9701565946
  0
LWPOLYLINE
  5
62D
100
AcDbEntity
  8
0
100
AcDbPolyline
 62
7
  6
CONTINUOUS
 90
9
 70
0
 10
10.9016058607
 20
3.9701565946
 10
10.8991617763
 20
3.9672610954
 10
10.8967053534
 20
3.9645939501
 10
10.8943240846
 20
3.9622282703
 10
10.8920327139
 20
3.9601447329
 10
10.8898079564
 20
3.9583158246
 10
10.8876315221
 20
3.9567478069
 10
10.8855416668
 20
3.9554690701
 10
10.8854254198
 20
3.9554116787
  0
LWPOLYLINE
  5
62E
100
AcDbEntity
  8
0
100
AcDbPolyline
 62
7
  6
CONTINUOUS
 90
9
 70
0
 10
10.8996423993
 20
3.9678110426
 10
10.8977632263
 20
3.965713544
 10
10.8959688587
 20
3.9638397628
 10
10.8942622201
 20
3.9621695789
 10
10.8926474637
 20
3.9606854972
 10
10.8911315418
 20
3.9593785099
 10
10.8897122154
 20
3.9582420301
 10
10.8883845662
 20
3.9572638892
 10
10.8871497833
 20
3.9564328228
  0
LWPOLYLINE
  5
62F
100
AcDbEntity
  8
0
100
AcDbPolyline
 62
9
  6
CONTINUOUS
 90
9
 70
0
 10
10.8945890398
 20
3.9558550859
 10
10.8930196496
 20
3.9545791626
 10
10.8915228775
 20
3.9534569135
 10
10.8901044807
 20
3.9524833715
 10
10.8887758755
 20
3.9516532844
 10
10.8875480018
 20
3.9509565833
 10
10.8864151878
 20
3.9503760867
 10
10.8853526127
 20
3.9498792918
 10
10.8842893436
 20
3.9494679529
  0
LWPOLYLINE
  5
630
100
AcDbEntity
  8
0
100
AcDbPolyline
 62
7
  6
CONTINUOUS
 90
3
 70
0
 10
10.886015076
 20
3.9557386232
 10
10.8849811786
 20
3.9551653619
 10
10.8840389876
 20
3.9546927026
  0
LINE
  5
631
100
AcDbEntity
  8
0
100
AcDbLine
 62
7
  6
CONTINUOUS
 10
10.8840389876
 20
3.9546927026
 11
10.8831916507
 21
3.954308848
  0
LINE
  5
632
100
AcDbEntity
  8
0
100
AcDbLine
 62
7
  6
CONTINUOUS
 10
9.0135254024
 20
4.1372565314
 11
9.0332104418
 21
4.1372565314
  0
LINE
  5
633
100
AcDbEntity
  8
0
100
AcDbLine
 62
9
  6
CONTINUOUS
 10
11.6857494536
 20
4.1608785787
 11
12.0307455307
 21
4.1608785787
  0
LINE
  5
634
100
AcDbEntity
  8
0
100
AcDbLine
 62
7
  6
CONTINUOUS
 10
11.679476602
 20
4.180563618
 11
12.0218463761
 21
4.180563618
  0
LINE
  5
635
100
AcDbEntity
  8
0
100
AcDbLine
 62
7
  6
CONTINUOUS
 10
11.679476602
 20
4.2396187361
 11
12.0218579019
 21
4.2396187526
  0
LINE
  5
636
100
AcDbEntity
  8
0
100
AcDbLine
 62
9
  6
CONTINUOUS
 10
12.0307455307
 20
4.2593037755
 11
11.6857494536
 21
4.2593037755
  0
LWPOLYLINE
  5
637
100
AcDbEntity
  8
0
100
AcDbPolyline
 62
9
  6
CONTINUOUS
 90
13
 70
0
 10
11.6857494536
 20
4.0624533818
 10
11.6709342584
 20
4.0642189497
 10
11.6570133016
 20
4.0694173021
 10
11.6452362536
 20
4.0775351336
 10
11.6364302953
 20
4.0878116769
 10
11.6310431332
 20
4.0994333737
 10
11.6292393356
 20
4.1116815813
 10
11.6310521808
 20
4.1239282916
 10
11.6364475071
 20
4.13554673
 10
11.6452611594
 20
4.1458191132
 10
11.6570405482
 20
4.1539287867
 10
11.6709509234
 20
4.1591170499
 10
11.6857494536
 20
4.1608785787
  0
LWPOLYLINE
  5
638
100
AcDbEntity
  8
0
100
AcDbPolyline
 62
9
  6
CONTINUOUS
 90
13
 70
0
 10
11.6861784846
 20
4.0427683424
 10
11.6668598863
 20
4.0452672559
 10
11.6488628802
 20
4.0525618711
 10
11.6336768073
 20
4.0639320607
 10
11.6223449639
 20
4.0783108782
 10
11.6154222324
 20
4.0945624287
 10
11.6131054077
 20
4.1116836776
 10
11.6154321504
 20
4.1288051044
 10
11.6223647531
 20
4.1450543883
 10
11.6337069424
 20
4.1594293157
 10
11.6488974762
 20
4.1707896283
 10
11.6668826857
 20
4.1780706876
 10
11.6861784846
 20
4.180563618
  0
LWPOLYLINE
  5
639
100
AcDbEntity
  8
0
100
AcDbPolyline
 62
9
  6
CONTINUOUS
 90
12
 70
0
 10
12.0307455307
 20
3.964028185
 10
12.0433547905
 20
3.962058067
 10
12.054943585
 20
3.9562429359
 10
12.0645038266
 20
3.9470535459
 10
12.0712906132
 20
3.9352554643
 10
12.0748082942
 20
3.9218123912
 10
12.0748072862
 20
3.9078111828
 10
12.0712884972
 20
3.8943707507
 10
12.0645017076
 20
3.8825750404
 10
12.0549423839
 20
3.873387529
 10
12.0433545555
 20
3.8675730775
 10
12.0307455307
 20
3.8656029881
  0
LINE
  5
63A
100
AcDbEntity
  8
0
100
AcDbLine
 62
9
  6
CONTINUOUS
 10
10.8831911713
 20
4.2741438034
 11
10.8859077334
 21
4.2732211846
  0
LINE
  5
63B
100
AcDbEntity
  8
AXIS
100
AcDbLine
 62
7
  6
CONTINUOUS
 10
10.7601211371
 20
4.3350306776
 11
10.7528464951
 21
4.338043933
  0
LWPOLYLINE
  5
63C
100
AcDbEntity
  8
0
100
AcDbPolyline
 62
7
  6
CONTINUOUS
 90
3
 70
0
 10
10.8831917852
 20
4.2690230557
 10
10.8848176497
 20
4.2682520457
 10
10.8850775275
 20
4.2681077125
  0
LWPOLYLINE
  5
63D
100
AcDbEntity
  8
0
100
AcDbPolyline
 62
7
  6
CONTINUOUS
 90
3
 70
0
 10
10.8831916507
 20
4.2690231125
 10
10.8852325204
 20
4.2680324793
 10
10.8872327922
 20
4.2668457157
  0
LWPOLYLINE
  5
63E
100
AcDbEntity
  8
0
100
AcDbPolyline
 62
9
  6
CONTINUOUS
 90
4
 70
0
 10
10.8859077334
 20
4.2732211846
 10
10.8882986168
 20
4.2719501171
 10
10.8905654132
 20
4.2705439509
 10
10.8927028237
 20
4.2689977113
  0
LWPOLYLINE
  5
63F
100
AcDbEntity
  8
0
100
AcDbPolyline
 62
7
  6
CONTINUOUS
 90
24
 70
0
 10
10.8872327922
 20
4.2668457157
 10
10.8891710615
 20
4.2654989092
 10
10.8910604994
 20
4.2640124373
 10
10.8929816598
 20
4.2623467897
 10
10.8950306474
 20
4.2604235691
 10
10.8972432131
 20
4.2581741751
 10
10.8995725246
 20
4.2556014545
 10
10.9019859603
 20
4.2527026128
 10
10.9044833128
 20
4.2494418299
 10
10.9070624052
 20
4.2457871132
 10
10.9097238628
 20
4.2417080993
 10
10.9124623905
 20
4.2371781733
 10
10.9152618564
 20
4.2321577677
 10
10.9181062656
 20
4.2265962674
 10
10.9209764149
 20
4.2204416822
 10
10.9238516943
 20
4.2136387845
 10
10.9267101535
 20
4.2061313322
 10
10.9295210256
 20
4.1978602039
 10
10.9322359839
 20
4.188753833
 10
10.9347965628
 20
4.1787306925
 10
10.9371319098
 20
4.1677046293
 10
10.9391570516
 20
4.1555839759
 10
10.9407701927
 20
4.142272105
 10
10.941849227
 20
4.1276677406
  0
LWPOLYLINE
  5
640
100
AcDbEntity
  8
0
100
AcDbPolyline
 62
9
  6
CONTINUOUS
 90
27
 70
0
 10
10.8831916507
 20
4.2576792705
 10
10.8844067218
 20
4.2567397048
 10
10.885740357
 20
4.2556152343
 10
10.8872151554
 20
4.2542789701
 10
10.8888166392
 20
4.2527262337
 10
10.8905238995
 20
4.2509499509
 10
10.8923135215
 20
4.248948681
 10
10.8941815101
 20
4.2467023609
 10
10.8961272504
 20
4.2441868136
 10
10.8981506091
 20
4.2413775941
 10
10.900253247
 20
4.2382495515
 10
10.9024359357
 20
4.2347812121
 10
10.9046914915
 20
4.23094694
 10
10.907010492
 20
4.2267102899
 10
10.90938235
 20
4.2220306479
 10
10.9117945902
 20
4.2168648395
 10
10.9142331305
 20
4.2111670439
 10
10.9166831885
 20
4.2048891576
 10
10.9191247036
 20
4.19798242
 10
10.9215259525
 20
4.1903885306
 10
10.923845439
 20
4.1820400985
 10
10.9260333735
 20
4.1728643054
 10
10.9280293653
 20
4.1627831235
 10
10.9297608303
 20
4.1517133441
 10
10.9311406125
 20
4.1395666746
 10
10.9320639559
 20
4.1262499745
 10
10.9324042492
 20
4.1116656796
  0
LWPOLYLINE
  5
641
100
AcDbEntity
  8
0
100
AcDbPolyline
 62
9
  6
CONTINUOUS
 90
24
 70
0
 10
10.8927028237
 20
4.2689977113
 10
10.8947547966
 20
4.2673367631
 10
10.8968267667
 20
4.2655006805
 10
10.8990319958
 20
4.2633898072
 10
10.9013874561
 20
4.2609477127
 10
10.9038424844
 20
4.2581842721
 10
10.9063706677
 20
4.2550926638
 10
10.9089699456
 20
4.2516417127
 10
10.9116363467
 20
4.2478052757
 10
10.914371293
 20
4.2435573502
 10
10.9171731448
 20
4.2388616143
 10
10.9200300168
 20
4.2336722241
 10
10.9229238084
 20
4.2279421861
 10
10.9258349471
 20
4.221622543
 10
10.9287421499
 20
4.214662266
 10
10.9316241933
 20
4.2070074655
 10
10.9344512802
 20
4.1985947572
 10
10.9371766043
 20
4.1893496682
 10
10.9397415444
 20
4.1791940828
 10
10.9420759788
 20
4.1680445634
 10
10.9440960808
 20
4.1558126251
 10
10.9457018689
 20
4.1424048952
 10
10.9467738128
 20
4.1277233156
 10
10.9471680287
 20
4.1116656638
  0
LWPOLYLINE
  5
642
100
AcDbEntity
  8
0
100
AcDbPolyline
 62
7
  6
CONTINUOUS
 90
16
 70
0
 10
11.1462641775
 20
3.4915872401
 10
11.1464066384
 20
3.4898377329
 10
11.1491636839
 20
3.4841176197
 10
11.1546232784
 20
3.4795486633
 10
11.1615881552
 20
3.4760386396
 10
11.1695281353
 20
3.4732511646
 10
11.1782164681
 20
3.4709773048
 10
11.1876478525
 20
3.4690732893
 10
11.1978896431
 20
3.467454439
 10
11.2090118247
 20
3.4660750994
 10
11.2211154573
 20
3.4649077049
 10
11.2343396789
 20
3.4639369222
 10
11.2488957649
 20
3.4631562042
 10
11.2650177862
 20
3.4625711362
 10
11.282978695
 20
3.4621972294
 10
11.303741489
 20
3.462059681
  0
LWPOLYLINE
  5
643
100
AcDbEntity
  8
0
100
AcDbPolyline
 62
7
  6
CONTINUOUS
 90
14
 70
0
 10
11.0603570051
 20
4.1116659802
 10
11.0554997773
 20
4.1757554786
 10
11.0428333566
 20
4.2311716157
 10
11.0243187821
 20
4.2782680541
 10
11.0012420037
 20
4.3171623286
 10
10.9746665762
 20
4.3476797001
 10
10.9457477544
 20
4.3695051048
 10
10.916129727
 20
4.3824517276
 10
10.8869106533
 20
4.387195805
 10
10.8580242779
 20
4.3844616701
 10
10.8322917334
 20
4.3756376677
 10
10.811728695
 20
4.3638416811
 10
10.7952484923
 20
4.3509059929
 10
10.7805834391
 20
4.3363299835
  0
LINE
  5
644
100
AcDbEntity
  8
0
100
AcDbLine
 62
7
  6
CONTINUOUS
 10
11.1462625169
 20
4.7317447204
 11
11.1462625169
 21
4.7219022007
  0
LINE
  5
645
100
AcDbEntity
  8
0
100
AcDbLine
 62
7
  6
CONTINUOUS
 10
11.1462625169
 20
3.5014297598
 11
11.1462625169
 21
3.4915872401
  0
LINE
  5
646
100
AcDbEntity
  8
AXIS
100
AcDbLine
 62
7
  6
CONTINUOUS
 10
11.157000918
 20
4.7219022007
 11
11.157000918
 21
4.6037919645
  0
LINE
  5
647
100
AcDbEntity
  8
AXIS
100
AcDbLine
 62
7
  6
CONTINUOUS
 10
11.157000918
 20
3.5014297598
 11
11.157000918
 21
3.619539996
  0
LINE
  5
648
100
AcDbEntity
  8
0
100
AcDbLine
 62
9
  6
CONTINUOUS
 10
10.8821004928
 20
4.273867228
 11
10.8831911713
 21
4.2741438034
  0
LWPOLYLINE
  5
649
100
AcDbEntity
  8
AXIS
100
AcDbPolyline
 62
7
  6
CONTINUOUS
 90
13
 70
0
 10
11.679476602
 20
4.3774140117
 10
11.6586918919
 20
4.3748231035
 10
11.6393822393
 20
4.3673321904
 10
11.6231040176
 20
4.3557188735
 10
11.6111391051
 20
4.3412885749
 10
11.6039147133
 20
4.3251757743
 10
11.6015434903
 20
4.3084457567
 10
11.6039481234
 20
4.2917417084
 10
11.61119309
 20
4.2756577546
 10
11.6231799054
 20
4.2612434463
 10
11.6394854054
 20
4.2496450464
 10
11.6587489804
 20
4.2421952503
 10
11.679476602
 20
4.2396187361
  0
LINE
  5
64A
100
AcDbEntity
  8
AXIS
100
AcDbLine
 62
7
  6
CONTINUOUS
 10
10.737295314
 20
4.338043933
 11
10.6388701172
 21
4.338043933
  0
LINE
  5
64B
100
AcDbEntity
  8
AXIS
100
AcDbLine
 62
7
  6
CONTINUOUS
 10
12.4057649449
 20
4.3399927519
 11
12.8034027401
 21
4.3399927519
  0
LINE
  5
64C
100
AcDbEntity
  8
0
100
AcDbLine
 62
9
  6
CONTINUOUS
 10
11.6857494536
 20
4.3577289724
 11
12.0307455307
 21
4.3577289724
  0
LINE
  5
64D
100
AcDbEntity
  8
0
100
AcDbLine
 62
7
  6
CONTINUOUS
 10
11.679476602
 20
4.3774140117
 11
12.0218463761
 21
4.3774140117
  0
LWPOLYLINE
  5
64E
100
AcDbEntity
  8
0
100
AcDbPolyline
 62
9
  6
CONTINUOUS
 90
13
 70
0
 10
11.6857494536
 20
4.2593037755
 10
11.6709342584
 20
4.2610693434
 10
11.6570133016
 20
4.2662676958
 10
11.6452362536
 20
4.2743855273
 10
11.6364302953
 20
4.2846620706
 10
11.6310431332
 20
4.2962837674
 10
11.6292393356
 20
4.308531975
 10
11.6310521808
 20
4.3207786853
 10
11.6364475071
 20
4.3323971237
 10
11.6452611594
 20
4.3426695069
 10
11.6570405482
 20
4.3507791804
 10
11.6709509234
 20
4.3559674436
 10
11.6857494536
 20
4.3577289724
  0
LWPOLYLINE
  5
64F
100
AcDbEntity
  8
0
100
AcDbPolyline
 62
9
  6
CONTINUOUS
 90
13
 70
0
 10
11.6861784846
 20
4.2396187361
 10
11.6668598863
 20
4.2421176496
 10
11.6488628802
 20
4.2494122648
 10
11.6336768073
 20
4.2607824544
 10
11.6223449639
 20
4.2751612719
 10
11.6154222324
 20
4.2914128224
 10
11.6131054077
 20
4.3085340713
 10
11.6154321504
 20
4.3256554981
 10
11.6223647531
 20
4.341904782
 10
11.6337069424
 20
4.3562797094
 10
11.6488974762
 20
4.367640022
 10
11.6668826857
 20
4.3749210813
 10
11.6861784846
 20
4.3774140117
  0
LWPOLYLINE
  5
650
100
AcDbEntity
  8
0
100
AcDbPolyline
 62
9
  6
CONTINUOUS
 90
12
 70
0
 10
12.0307455307
 20
4.1608785787
 10
12.0433547905
 20
4.1589084607
 10
12.054943585
 20
4.1530933296
 10
12.0645038266
 20
4.1439039396
 10
12.0712906132
 20
4.132105858
 10
12.0748082942
 20
4.1186627849
 10
12.0748072862
 20
4.1046615765
 10
12.0712884972
 20
4.0912211444
 10
12.0645017076
 20
4.0794254341
 10
12.0549423839
 20
4.0702379227
 10
12.0433545555
 20
4.0644234712
 10
12.0307455307
 20
4.0624533818
  0
LINE
  5
651
100
AcDbEntity
  8
AXIS
100
AcDbLine
 62
9
  6
CONTINUOUS
 10
11.2525617295
 20
4.7219022007
 11
11.2525617295
 21
4.6037919645
  0
LINE
  5
652
100
AcDbEntity
  8
AXIS
100
AcDbLine
 62
9
  6
CONTINUOUS
 10
11.2525617295
 20
3.5014297598
 11
11.2525617295
 21
3.619539996
  0
LINE
  5
653
100
AcDbEntity
  8
AXIS
100
AcDbLine
 62
7
  6
CONTINUOUS
 10
11.2525617295
 20
3.619539996
 11
11.2525617295
 21
4.6037919645
  0
LWPOLYLINE
  5
654
100
AcDbEntity
  8
0
100
AcDbPolyline
 62
9
  6
CONTINUOUS
 90
5
 70
0
 10
12.0218579019
 20
4.2396187526
 10
12.0252519213
 20
4.2411171582
 10
12.0281390161
 20
4.2453843235
 10
12.0300681185
 20
4.2517706143
 10
12.0307455307
 20
4.2593037755
  0
LINE
  5
655
100
AcDbEntity
  8
0
100
AcDbLine
 62
9
  6
CONTINUOUS
 10
10.2916588609
 20
4.2739019275
 11
10.2926407626
 21
4.2741439972
  0
LINE
  5
656
100
AcDbEntity
  8
AXIS
100
AcDbLine
 62
7
  6
CONTINUOUS
 10
12.2092546429
 20
4.4272565314
 11
12.4057649449
 21
4.4272565314
  0
LINE
  5
657
100
AcDbEntity
  8
AXIS
100
AcDbLine
 62
7
  6
CONTINUOUS
 10
10.6388701172
 20
4.4364691298
 11
10.737295314
 21
4.4364691298
  0
LWPOLYLINE
  5
658
100
AcDbEntity
  8
0
100
AcDbPolyline
 62
9
  6
CONTINUOUS
 90
12
 70
0
 10
12.0307455307
 20
4.3577289724
 10
12.0433547905
 20
4.3557588544
 10
12.054943585
 20
4.3499437233
 10
12.0645038266
 20
4.3407543333
 10
12.0712906132
 20
4.3289562517
 10
12.0748082942
 20
4.3155131786
 10
12.0748072862
 20
4.3015119702
 10
12.0712884972
 20
4.2880715381
 10
12.0645017076
 20
4.2762758278
 10
12.0549423839
 20
4.2670883164
 10
12.0433545555
 20
4.2612738649
 10
12.0307455307
 20
4.2593037755
  0
LWPOLYLINE
  5
659
100
AcDbEntity
  8
0
100
AcDbPolyline
 62
9
  6
CONTINUOUS
 90
5
 70
0
 10
12.0218569936
 20
3.9837132103
 10
12.0252520528
 20
3.9822146714
 10
12.0281391687
 20
3.9779472665
 10
12.0300681826
 20
3.9715609456
 10
12.0307455307
 20
3.964028185
  0
LWPOLYLINE
  5
65A
100
AcDbEntity
  8
0
100
AcDbPolyline
 62
9
  6
CONTINUOUS
 90
5
 70
0
 10
12.0218579019
 20
4.0427683589
 10
12.0252519213
 20
4.0442667645
 10
12.0281390161
 20
4.0485339298
 10
12.0300681185
 20
4.0549202206
 10
12.0307455307
 20
4.0624533818
  0
LINE
  5
65B
100
AcDbEntity
  8
AXIS
100
AcDbLine
 62
7
  6
CONTINUOUS
 10
11.1194121232
 20
4.5644218857
 11
10.0564199972
 21
4.5644218857
  0
LINE
  5
65C
100
AcDbEntity
  8
AXIS
100
AcDbLine
 62
7
  6
CONTINUOUS
 10
11.5274043868
 20
4.5659206173
 11
12.122060595
 21
4.5659206173
  0
LINE
  5
65D
100
AcDbEntity
  8
0
100
AcDbLine
 62
7
  6
CONTINUOUS
 10
12.1390890517
 20
4.5841069251
 11
11.5110284236
 21
4.5841069251
  0
LINE
  5
65E
100
AcDbEntity
  8
0
100
AcDbLine
 62
7
  6
CONTINUOUS
 10
12.2092546429
 20
4.5841069251
 11
12.2176193147
 21
4.5841069251
  0
LINE
  5
65F
100
AcDbEntity
  8
AXIS
100
AcDbLine
 62
7
  6
CONTINUOUS
 10
11.2525617295
 20
4.6037919645
 11
9.8069947405
 21
4.6037919645
  0
LWPOLYLINE
  5
660
100
AcDbEntity
  8
0
100
AcDbPolyline
 62
9
  6
CONTINUOUS
 90
5
 70
0
 10
12.0218569936
 20
4.180563604
 10
12.0252520528
 20
4.1790650651
 10
12.0281391687
 20
4.1747976602
 10
12.0300681826
 20
4.1684113393
 10
12.0307455307
 20
4.1608785787
  0
LINE
  5
661
100
AcDbEntity
  8
0
100
AcDbLine
 62
7
  6
CONTINUOUS
 10
11.5110284236
 20
3.6392250353
 11
11.5110284236
 21
4.5841069251
  0
LINE
  5
662
100
AcDbEntity
  8
0
100
AcDbLine
 62
7
  6
CONTINUOUS
 10
11.5274043868
 20
4.5659206173
 11
11.5274043868
 21
3.6556782364
  0
LINE
  5
663
100
AcDbEntity
  8
AXIS
100
AcDbLine
 62
7
  6
CONTINUOUS
 10
11.536033086
 20
3.6556782364
 11
11.536033086
 21
4.5659206173
  0
LWPOLYLINE
  5
664
100
AcDbEntity
  8
0
100
AcDbPolyline
 62
7
  6
CONTINUOUS
 90
16
 70
0
 10
11.3037422074
 20
4.7612722794
 10
11.2829589898
 20
4.7611344513
 10
11.2650017185
 20
4.7607603552
 10
11.2488822722
 20
4.7601751415
 10
11.2343283621
 20
4.7593943186
 10
11.2211059723
 20
4.758423462
 10
11.2090038618
 20
4.7572560146
 10
11.197882981
 20
4.7558766405
 10
11.1876423215
 20
4.7542577728
 10
11.1782119169
 20
4.7523537527
 10
11.1695244315
 20
4.7500798962
 10
11.1615852204
 20
4.7472924392
 10
11.1546210666
 20
4.743782467
 10
11.1491621359
 20
4.7392136285
 10
11.1464055855
 20
4.7334938144
 10
11.1462631912
 20
4.7317447204
  0
LINE
  5
665
100
AcDbEntity
  8
0
100
AcDbLine
 62
7
  6
CONTINUOUS
 10
9.0131129106
 20
4.7219022007
 11
9.2296483437
 21
4.7219022007
  0
LINE
  5
666
100
AcDbEntity
  8
AXIS
100
AcDbLine
 62
7
  6
CONTINUOUS
 10
9.2296483437
 20
4.7219022007
 11
11.2525617295
 21
4.7219022007
  0
LINE
  5
667
100
AcDbEntity
  8
0
100
AcDbLine
 62
7
  6
CONTINUOUS
 10
12.2092546429
 20
4.7219022007
 11
12.2176049479
 21
4.7219022007
  0
LINE
  5
668
100
AcDbEntity
  8
0
100
AcDbLine
 62
9
  6
CONTINUOUS
 10
12.2092546364
 20
4.7317447204
 11
11.1462625227
 21
4.7317447204
  0
LINE
  5
669
100
AcDbEntity
  8
0
100
AcDbLine
 62
9
  6
CONTINUOUS
 10
10.3588609421
 20
4.743555744
 11
10.7919318082
 21
4.743555744
  0
LINE
  5
66A
100
AcDbEntity
  8
0
100
AcDbLine
 62
7
  6
CONTINUOUS
 10
12.051750234
 20
4.7612722794
 11
11.3037469158
 21
4.7612722794
  0
LINE
  5
66B
100
AcDbEntity
  8
0
100
AcDbLine
 62
7
  6
CONTINUOUS
 10
10.3785459815
 20
4.7632407834
 11
10.7722467689
 21
4.7632407834
  0
LINE
  5
66C
100
AcDbEntity
  8
0
100
AcDbLine
 62
7
  6
CONTINUOUS
 10
11.4809081862
 20
4.7632407834
 11
11.8746089736
 21
4.7632407834
  0
LWPOLYLINE
  5
66D
100
AcDbEntity
  8
0
100
AcDbPolyline
 62
9
  6
CONTINUOUS
 90
5
 70
0
 10
11.6861784846
 20
3.8459179487
 10
11.6860143506
 20
3.8474164176
 10
11.68587518
 20
3.8516836784
 10
11.6857821612
 20
3.8580699891
 10
11.6857494537
 20
3.8656029881
  0
LWPOLYLINE
  5
66E
100
AcDbEntity
  8
0
100
AcDbPolyline
 62
9
  6
CONTINUOUS
 90
5
 70
0
 10
11.6861784846
 20
4.0427683424
 10
11.6860143506
 20
4.0442668113
 10
11.68587518
 20
4.0485340721
 10
11.6857821612
 20
4.0549203828
 10
11.6857494537
 20
4.0624533818
  0
LWPOLYLINE
  5
66F
100
AcDbEntity
  8
0
100
AcDbPolyline
 62
9
  6
CONTINUOUS
 90
5
 70
0
 10
11.6861784846
 20
4.2396187361
 10
11.6860143506
 20
4.241117205
 10
11.68587518
 20
4.2453844658
 10
11.6857821612
 20
4.2517707765
 10
11.6857494537
 20
4.2593037755
  0
LWPOLYLINE
  5
670
100
AcDbEntity
  8
0
100
AcDbPolyline
 62
9
  6
CONTINUOUS
 90
5
 70
0
 10
11.6861784846
 20
4.3774140117
 10
11.6860143024
 20
4.3759155912
 10
11.6858751146
 20
4.3716484278
 10
11.685782112
 20
4.3652621365
 10
11.6857494536
 20
4.3577289724
  0
LWPOLYLINE
  5
671
100
AcDbEntity
  8
0
100
AcDbPolyline
 62
9
  6
CONTINUOUS
 90
5
 70
0
 10
11.6861784846
 20
4.180563618
 10
11.6860143024
 20
4.1790651975
 10
11.6858751146
 20
4.1747980341
 10
11.685782112
 20
4.1684117428
 10
11.6857494536
 20
4.1608785787
  0
LWPOLYLINE
  5
672
100
AcDbEntity
  8
0
100
AcDbPolyline
 62
9
  6
CONTINUOUS
 90
5
 70
0
 10
11.6861784846
 20
3.9837132243
 10
11.6860143024
 20
3.9822148038
 10
11.6858751146
 20
3.9779476404
 10
11.685782112
 20
3.9715613491
 10
11.6857494536
 20
3.964028185
  0
LWPOLYLINE
  5
673
100
AcDbEntity
  8
0
100
AcDbPolyline
 62
9
  6
CONTINUOUS
 90
5
 70
0
 10
12.0218579019
 20
3.8459179652
 10
12.0252519213
 20
3.8474163708
 10
12.0281390161
 20
3.8516835361
 10
12.0300681185
 20
3.8580698269
 10
12.0307455307
 20
3.8656029881
  0
LWPOLYLINE
  5
674
100
AcDbEntity
  8
0
100
AcDbPolyline
 62
9
  6
CONTINUOUS
 90
5
 70
0
 10
12.0218569936
 20
4.3774139977
 10
12.0252520528
 20
4.3759154588
 10
12.0281391687
 20
4.3716480539
 10
12.0300681826
 20
4.365261733
 10
12.0307455307
 20
4.3577289724
  0
LINE
  5
675
100
AcDbEntity
  8
0
100
AcDbLine
 62
7
  6
CONTINUOUS
 10
12.0873436454
 20
3.6392250353
 11
12.0873436454
 21
3.6556782364
  0
LINE
  5
676
100
AcDbEntity
  8
0
100
AcDbLine
 62
7
  6
CONTINUOUS
 10
12.0873436454
 20
4.5659206173
 11
12.0873436454
 21
4.5841069251
  0
LINE
  5
677
100
AcDbEntity
  8
AXIS
100
AcDbLine
 62
7
  6
CONTINUOUS
 10
12.122060595
 20
3.6556782364
 11
12.122060595
 21
4.5659206173
  0
LWPOLYLINE
  5
678
100
AcDbEntity
  8
0
100
AcDbPolyline
 62
7
  6
CONTINUOUS
 90
16
 70
0
 10
12.2092529822
 20
4.7317447204
 10
12.2091105214
 20
4.7334942276
 10
12.2063534758
 20
4.7392143408
 10
12.2008938813
 20
4.7437832972
 10
12.1939290044
 20
4.747293321
 10
12.1859890242
 20
4.7500807959
 10
12.1773006913
 20
4.7523546557
 10
12.1678693069
 20
4.7542586713
 10
12.1576275162
 20
4.7558775215
 10
12.1465053345
 20
4.7572568611
 10
12.1344017017
 20
4.7584242556
 10
12.12117748
 20
4.7593950383
 10
12.1066213938
 20
4.7601757563
 10
12.0904993723
 20
4.7607608243
 10
12.0725384632
 20
4.761134731
 10
12.0517756708
 20
4.7612722794
  0
LINE
  5
679
100
AcDbEntity
  8
0
100
AcDbLine
 62
7
  6
CONTINUOUS
 10
12.1390890517
 20
3.6392250353
 11
12.1390890517
 21
4.5841069251
  0
LINE
  5
67A
100
AcDbEntity
  8
0
100
AcDbLine
 62
7
  6
CONTINUOUS
 10
12.2092546429
 20
3.4915872401
 11
12.2092546429
 21
4.7317447204
  0
LINE
  5
67B
100
AcDbEntity
  8
0
100
AcDbLine
 62
7
  6
CONTINUOUS
 10
12.2134801628
 20
3.6392250353
 11
12.2134801628
 21
3.796075429
  0
LINE
  5
67C
100
AcDbEntity
  8
0
100
AcDbLine
 62
7
  6
CONTINUOUS
 10
12.2134801628
 20
4.4272565314
 11
12.2134801628
 21
4.5841069251
  0
LINE
  5
67D
100
AcDbEntity
  8
0
100
AcDbLine
 62
9
  6
CONTINUOUS
 10
12.217241035
 20
4.7219022007
 11
12.217241035
 21
4.5841069251
  0
LINE
  5
67E
100
AcDbEntity
  8
0
100
AcDbLine
 62
9
  6
CONTINUOUS
 10
12.217241035
 20
3.6392250353
 11
12.217241035
 21
3.5014297598
  0
LINE
  5
67F
100
AcDbEntity
  8
0
100
AcDbLine
 62
7
  6
CONTINUOUS
 10
12.2176196898
 20
4.7219022007
 11
12.2176196898
 21
4.5841069251
  0
LINE
  5
680
100
AcDbEntity
  8
0
100
AcDbLine
 62
7
  6
CONTINUOUS
 10
12.2176196898
 20
3.6392250353
 11
12.2176196898
 21
3.5014297598
  0
LINE
  5
681
100
AcDbEntity
  8
AXIS
100
AcDbLine
 62
7
  6
CONTINUOUS
 10
12.4057649449
 20
3.7960896092
 11
12.4057649449
 21
4.4272423512
  0
LINE
  5
682
100
AcDbEntity
  8
AXIS
100
AcDbLine
 62
7
  6
CONTINUOUS
 10
12.8034027401
 20
3.8833392086
 11
12.8034027401
 21
4.3399927519
  0
LWPOLYLINE
  5
683
100
AcDbEntity
  8
0
100
AcDbPolyline
 62
7
  6
CONTINUOUS
 90
17
 70
0
 10
17.9502887896
 20
7.2942220449
 10
17.952367913
 20
7.2944244317
 10
17.9583186378
 20
7.2976129264
 10
17.9629646179
 20
7.303639746
 10
17.9665006773
 20
7.3112126345
 10
17.969288509
 20
7.3197840607
 10
17.9715561291
 20
7.3291709705
 10
17.9734554785
 20
7.3394427251
 10
17.9750549197
 20
7.3506198084
 10
17.9763899405
 20
7.3626858972
 10
17.9775281027
 20
7.3762277522
 10
17.9784450169
 20
7.3911405897
 10
17.9790492467
 20
7.4050281106
 10
17.979424188
 20
7.4174966606
 10
17.979652845
 20
7.4291372567
 10
17.9797733101
 20
7.4399073936
 10
17.9798163486
 20
7.7195056026
  0
LINE
  5
684
100
AcDbEntity
  8
0
100
AcDbLine
 62
7
  6
CONTINUOUS
 10
17.5762730415
 20
7.2479965722
 11
17.4778478447
 21
7.2479965722
  0
LINE
  5
685
100
AcDbEntity
  8
0
100
AcDbLine
 62
7
  6
CONTINUOUS
 10
17.3794226478
 20
7.2479965722
 11
17.280997451
 21
7.2479965722
  0
LINE
  5
686
100
AcDbEntity
  8
0
100
AcDbLine
 62
7
  6
CONTINUOUS
 10
17.1825722541
 20
7.2479965722
 11
17.0841470573
 21
7.2479965722
  0
LINE
  5
687
100
AcDbEntity
  8
AXIS
100
AcDbLine
 62
7
  6
CONTINUOUS
 10
17.7861977932
 20
7.2831198804
 11
17.5959580809
 21
7.2831198804
  0
LINE
  5
688
100
AcDbEntity
  8
AXIS
100
AcDbLine
 62
7
  6
CONTINUOUS
 10
17.4581628053
 20
7.2831198804
 11
17.3991076872
 21
7.2831198804
  0
LINE
  5
689
100
AcDbEntity
  8
AXIS
100
AcDbLine
 62
7
  6
CONTINUOUS
 10
17.2613124116
 20
7.2831198804
 11
17.2022572935
 21
7.2831198804
  0
LINE
  5
68A
100
AcDbEntity
  8
AXIS
100
AcDbLine
 62
7
  6
CONTINUOUS
 10
17.0644620179
 20
7.2831198804
 11
16.8759554123
 21
7.2831198804
  0
LINE
  5
68B
100
AcDbEntity
  8
0
100
AcDbLine
 62
7
  6
CONTINUOUS
 10
16.7101313093
 20
7.2942222427
 11
16.8577691045
 21
7.2942222427
  0
LINE
  5
68C
100
AcDbEntity
  8
0
100
AcDbLine
 62
7
  6
CONTINUOUS
 10
17.8026509943
 20
7.2942222427
 11
17.9502887896
 21
7.2942222427
  0
LINE
  5
68D
100
AcDbEntity
  8
0
100
AcDbLine
 62
7
  6
CONTINUOUS
 10
17.8026509943
 20
7.309127091
 11
17.7861977932
 21
7.309127091
  0
LINE
  5
68E
100
AcDbEntity
  8
0
100
AcDbLine
 62
7
  6
CONTINUOUS
 10
16.8759554123
 20
7.309127091
 11
16.8577691045
 21
7.309127091
  0
LINE
  5
68F
100
AcDbEntity
  8
0
100
AcDbLine
 62
7
  6
CONTINUOUS
 10
16.8577691045
 20
7.3151738619
 11
16.8759554123
 21
7.3151738619
  0
LINE
  5
690
100
AcDbEntity
  8
0
100
AcDbLine
 62
7
  6
CONTINUOUS
 10
17.7861977932
 20
7.3151738619
 11
17.8026509943
 21
7.3151738619
  0
LINE
  5
691
100
AcDbEntity
  8
AXIS
100
AcDbLine
 62
7
  6
CONTINUOUS
 10
17.7861977932
 20
7.4252556201
 11
16.8759554123
 21
7.4252556201
  0
LINE
  5
692
100
AcDbEntity
  8
0
100
AcDbLine
 62
7
  6
CONTINUOUS
 10
17.8026509943
 20
7.4428666709
 11
16.8577691045
 21
7.4428666709
  0
LINE
  5
693
100
AcDbEntity
  8
0
100
AcDbLine
 62
7
  6
CONTINUOUS
 10
16.719973829
 20
7.762622563
 11
17.9404462699
 21
7.762622563
  0
LINE
  5
694
100
AcDbEntity
  8
0
100
AcDbLine
 62
7
  6
CONTINUOUS
 10
16.8577691045
 20
7.7653510927
 11
17.8026509943
 21
7.7653510927
  0
LWPOLYLINE
  5
695
100
AcDbEntity
  8
0
100
AcDbPolyline
 62
7
  6
CONTINUOUS
 90
17
 70
0
 10
16.6806050478
 20
7.4496220529
 10
16.6806467887
 20
7.4399073939
 10
16.6807672538
 20
7.4291372573
 10
16.6809959109
 20
7.4174966617
 10
16.6813708521
 20
7.4050281122
 10
16.6819750819
 20
7.3911405917
 10
16.682891996
 20
7.376227754
 10
16.6840301582
 20
7.3626858985
 10
16.685365179
 20
7.3506198095
 10
16.6869646202
 20
7.339442726
 10
16.6888639696
 20
7.3291709712
 10
16.6911315897
 20
7.3197840613
 10
16.6939194214
 20
7.3112126349
 10
16.6974554808
 20
7.3036397463
 10
16.7021014609
 20
7.2976129265
 10
16.7080521858
 20
7.2944244318
 10
16.7101313093
 20
7.2942220449
  0
LINE
  5
696
100
AcDbEntity
  8
0
100
AcDbLine
 62
7
  6
CONTINUOUS
 10
16.7101313109
 20
7.8597749391
 11
16.719973829
 21
7.8597749387
  0
LINE
  5
697
100
AcDbEntity
  8
0
100
AcDbLine
 62
7
  6
CONTINUOUS
 10
17.9404462699
 20
7.8597749387
 11
17.950288788
 21
7.8597749391
  0
LINE
  5
698
100
AcDbEntity
  8
0
100
AcDbLine
 62
7
  6
CONTINUOUS
 10
16.6786352463
 20
7.6957981866
 11
16.6786352463
 21
8.0894978304
  0
LINE
  5
699
100
AcDbEntity
  8
0
100
AcDbLine
 62
7
  6
CONTINUOUS
 10
16.6806037502
 20
7.7195056028
 11
16.6806050478
 21
7.4496220529
  0
LINE
  5
69A
100
AcDbEntity
  8
0
100
AcDbLine
 62
9
  6
CONTINUOUS
 10
16.6983202856
 20
7.8518717009
 11
16.6983202856
 21
8.1091828726
  0
LINE
  5
69B
100
AcDbEntity
  8
0
100
AcDbLine
 62
9
  6
CONTINUOUS
 10
16.7101313093
 20
7.8597749398
 11
16.7101313093
 21
7.2942222427
  0
LINE
  5
69C
100
AcDbEntity
  8
0
100
AcDbLine
 62
7
  6
CONTINUOUS
 10
16.719973829
 20
7.762622563
 11
16.719973829
 21
9.5776868096
  0
LWPOLYLINE
  5
69D
100
AcDbEntity
  8
0
100
AcDbPolyline
 62
7
  6
CONTINUOUS
 90
13
 70
0
 10
16.6806037502
 20
7.7195056028
 10
16.6806776692
 20
7.7322629198
 10
16.6809162092
 20
7.7451911132
 10
16.6813315915
 20
7.7578326645
 10
16.6819241268
 20
7.7699107817
 10
16.6826827639
 20
7.7812069376
 10
16.6836018295
 20
7.7917183367
 10
16.6847077516
 20
7.8017036393
 10
16.6860695688
 20
7.8114974203
 10
16.6878242518
 20
7.8214568178
 10
16.6901677504
 20
7.8316562122
 10
16.6934344707
 20
7.841957243
 10
16.6983202856
 20
7.8518706517
  0
LINE
  5
69E
100
AcDbEntity
  8
0
100
AcDbLine
 62
7
  6
CONTINUOUS
 10
16.8381825002
 20
9.5776868096
 11
16.8381825002
 21
9.6761120064
  0
LINE
  5
69F
100
AcDbEntity
  8
0
100
AcDbLine
 62
7
  6
CONTINUOUS
 10
16.8398490552
 20
9.5776868096
 11
16.8398490552
 21
9.6761120064
  0
LINE
  5
6A0
100
AcDbEntity
  8
0
100
AcDbLine
 62
7
  6
CONTINUOUS
 10
16.8419067021
 20
9.5776868096
 11
16.8419067021
 21
9.6761120064
  0
LINE
  5
6A1
100
AcDbEntity
  8
0
100
AcDbLine
 62
7
  6
CONTINUOUS
 10
16.8468881078
 20
9.5776868096
 11
16.8468881078
 21
9.6761120064
  0
LINE
  5
6A2
100
AcDbEntity
  8
0
100
AcDbLine
 62
7
  6
CONTINUOUS
 10
16.8509808576
 20
9.5776868096
 11
16.8509808576
 21
9.6761120064
  0
LINE
  5
6A3
100
AcDbEntity
  8
0
100
AcDbLine
 62
7
  6
CONTINUOUS
 10
16.8577691045
 20
7.4428666709
 11
16.8577691045
 21
7.2941540419
  0
LINE
  5
6A4
100
AcDbEntity
  8
0
100
AcDbLine
 62
7
  6
CONTINUOUS
 10
16.8577691045
 20
7.762622563
 11
16.8577691045
 21
9.3827933333
  0
LINE
  5
6A5
100
AcDbEntity
  8
0
100
AcDbLine
 62
7
  6
CONTINUOUS
 10
16.8592225367
 20
9.5776868096
 11
16.8592225367
 21
9.6761120064
  0
LINE
  5
6A6
100
AcDbEntity
  8
0
100
AcDbLine
 62
7
  6
CONTINUOUS
 10
16.8653055484
 20
9.5776868096
 11
16.8653055484
 21
9.6761120064
  0
LWPOLYLINE
  5
6A7
100
AcDbEntity
  8
0
100
AcDbPolyline
 62
7
  6
CONTINUOUS
 90
4
 70
0
 10
17.950288788
 20
7.8597749391
 10
17.9547621245
 20
7.8588039228
 10
17.9587686883
 20
7.8559943502
 10
17.9620998132
 20
7.8518717009
  0
LWPOLYLINE
  5
6A8
100
AcDbEntity
  8
0
100
AcDbPolyline
 62
9
  6
CONTINUOUS
 90
5
 70
0
 10
17.0644620179
 20
7.3441985444
 10
17.0659605708
 20
7.3374788828
 10
17.0702279758
 20
7.3317823974
 10
17.0766142967
 20
7.3279763315
 10
17.0841470573
 20
7.3266399048
  0
LINE
  5
6A9
100
AcDbEntity
  8
AXIS
100
AcDbLine
 62
7
  6
CONTINUOUS
 10
16.8759554123
 20
7.283126943
 11
16.8759554123
 21
7.4428666709
  0
LINE
  5
6AA
100
AcDbEntity
  8
0
100
AcDbLine
 62
7
  6
CONTINUOUS
 10
16.8767172034
 20
9.5776868096
 11
16.8767172034
 21
9.6761120064
  0
LINE
  5
6AB
100
AcDbEntity
  8
0
100
AcDbLine
 62
7
  6
CONTINUOUS
 10
16.8847238302
 20
9.5776868096
 11
16.8847238302
 21
9.6761120064
  0
LINE
  5
6AC
100
AcDbEntity
  8
0
100
AcDbLine
 62
7
  6
CONTINUOUS
 10
16.8991804326
 20
9.5776868096
 11
16.8991804326
 21
9.6761120064
  0
LINE
  5
6AD
100
AcDbEntity
  8
0
100
AcDbLine
 62
7
  6
CONTINUOUS
 10
16.9090229523
 20
9.5776868096
 11
16.9090229523
 21
9.6761120064
  0
LINE
  5
6AE
100
AcDbEntity
  8
0
100
AcDbLine
 62
7
  6
CONTINUOUS
 10
16.9263661125
 20
9.5776868096
 11
16.9263661125
 21
9.6761120064
  0
LINE
  5
6AF
100
AcDbEntity
  8
0
100
AcDbLine
 62
7
  6
CONTINUOUS
 10
16.9379366883
 20
9.5776868096
 11
16.9379366883
 21
9.6761120064
  0
LINE
  5
6B0
100
AcDbEntity
  8
0
100
AcDbLine
 62
7
  6
CONTINUOUS
 10
16.9579763911
 20
9.5776868096
 11
16.9579763911
 21
9.6761120064
  0
LINE
  5
6B1
100
AcDbEntity
  8
0
100
AcDbLine
 62
7
  6
CONTINUOUS
 10
17.9620998132
 20
8.1091828726
 11
17.9404462699
 21
8.1091828726
  0
LINE
  5
6B2
100
AcDbEntity
  8
0
100
AcDbLine
 62
7
  6
CONTINUOUS
 10
16.719973829
 20
8.1091828726
 11
16.6983202856
 21
8.1091828726
  0
LWPOLYLINE
  5
6B3
100
AcDbEntity
  8
AXIS
100
AcDbPolyline
 62
7
  6
CONTINUOUS
 90
12
 70
0
 10
17.2022572935
 20
7.3584162363
 10
17.1994986802
 20
7.3674339463
 10
17.1913532137
 20
7.3762429237
 10
17.1784268634
 20
7.3839165026
 10
17.1619708083
 20
7.3895339384
 10
17.143076537
 20
7.3925377474
 10
17.1236027048
 20
7.3925346201
 10
17.1047357091
 20
7.3895307891
 10
17.0882782844
 20
7.3839100754
 10
17.0753797142
 20
7.3762536257
 10
17.0672231899
 20
7.3674381554
 10
17.0644620179
 20
7.3584162363
  0
LINE
  5
6B4
100
AcDbEntity
  8
0
100
AcDbLine
 62
7
  6
CONTINUOUS
 10
16.9711482534
 20
9.5776868096
 11
16.9711482534
 21
9.6761120064
  0
LINE
  5
6B5
100
AcDbEntity
  8
0
100
AcDbLine
 62
7
  6
CONTINUOUS
 10
16.9936649395
 20
9.5776868096
 11
16.9936649395
 21
9.6761120064
  0
LINE
  5
6B6
100
AcDbEntity
  8
0
100
AcDbLine
 62
7
  6
CONTINUOUS
 10
17.0082937746
 20
9.5776868096
 11
17.0082937746
 21
9.6761120064
  0
LINE
  5
6B7
100
AcDbEntity
  8
0
100
AcDbLine
 62
7
  6
CONTINUOUS
 10
17.0330407466
 20
9.5776868096
 11
17.0330407466
 21
9.6761120064
  0
LINE
  5
6B8
100
AcDbEntity
  8
0
100
AcDbLine
 62
7
  6
CONTINUOUS
 10
17.048966278
 20
9.5776868096
 11
17.048966278
 21
9.6761120064
  0
LWPOLYLINE
  5
6B9
100
AcDbEntity
  8
AXIS
100
AcDbPolyline
 62
7
  6
CONTINUOUS
 90
12
 70
0
 10
17.3991076872
 20
7.3584162363
 10
17.3963490739
 20
7.3674339463
 10
17.3882036074
 20
7.3762429237
 10
17.3752772571
 20
7.3839165026
 10
17.358821202
 20
7.3895339384
 10
17.3399269307
 20
7.3925377474
 10
17.3204530985
 20
7.3925346201
 10
17.3015861028
 20
7.3895307891
 10
17.2851286781
 20
7.3839100754
 10
17.2722301079
 20
7.3762536257
 10
17.2640735836
 20
7.3674381554
 10
17.2613124116
 20
7.3584162363
  0
LWPOLYLINE
  5
6BA
100
AcDbEntity
  8
0
100
AcDbPolyline
 62
9
  6
CONTINUOUS
 90
5
 70
0
 10
17.2613124116
 20
7.3441985444
 10
17.2628109645
 20
7.3374788828
 10
17.2670783695
 20
7.3317823974
 10
17.2734646904
 20
7.3279763315
 10
17.280997451
 20
7.3266399048
  0
LINE
  5
6BB
100
AcDbEntity
  8
0
100
AcDbLine
 62
7
  6
CONTINUOUS
 10
17.0644620179
 20
7.2676710093
 11
17.0644620179
 21
7.3584162363
  0
LINE
  5
6BC
100
AcDbEntity
  8
0
100
AcDbLine
 62
7
  6
CONTINUOUS
 10
17.0756724027
 20
9.5776868096
 11
17.0756724027
 21
9.6761120064
  0
LINE
  5
6BD
100
AcDbEntity
  8
0
100
AcDbLine
 62
9
  6
CONTINUOUS
 10
17.0841470573
 20
7.2479965751
 11
17.0841470573
 21
7.3266399048
  0
LINE
  5
6BE
100
AcDbEntity
  8
0
100
AcDbLine
 62
7
  6
CONTINUOUS
 10
17.0927201469
 20
9.5776868096
 11
17.0927201469
 21
9.6761120064
  0
LINE
  5
6BF
100
AcDbEntity
  8
0
100
AcDbLine
 62
7
  6
CONTINUOUS
 10
17.1210928266
 20
9.5776868096
 11
17.1210928266
 21
9.6761120064
  0
LINE
  5
6C0
100
AcDbEntity
  8
0
100
AcDbLine
 62
7
  6
CONTINUOUS
 10
17.137018358
 20
9.6761120064
 11
17.137018358
 21
9.5776868096
  0
LINE
  5
6C1
100
AcDbEntity
  8
0
100
AcDbLine
 62
7
  6
CONTINUOUS
 10
17.1390760049
 20
9.5776868096
 11
17.1390760049
 21
9.6761120064
  0
LINE
  5
6C2
100
AcDbEntity
  8
0
100
AcDbLine
 62
7
  6
CONTINUOUS
 10
17.1688043825
 20
9.5776868096
 11
17.1688043825
 21
9.6761120064
  0
LINE
  5
6C3
100
AcDbEntity
  8
0
100
AcDbLine
 62
9
  6
CONTINUOUS
 10
17.1825722541
 20
7.3266399048
 11
17.1825722541
 21
7.2479965751
  0
LINE
  5
6C4
100
AcDbEntity
  8
0
100
AcDbLine
 62
7
  6
CONTINUOUS
 10
17.1834332177
 20
9.6761120064
 11
17.1834332177
 21
9.5776868096
  0
LINE
  5
6C5
100
AcDbEntity
  8
0
100
AcDbLine
 62
7
  6
CONTINUOUS
 10
17.1875259675
 20
9.5776868096
 11
17.1875259675
 21
9.6761120064
  0
LINE
  5
6C6
100
AcDbEntity
  8
0
100
AcDbLine
 62
7
  6
CONTINUOUS
 10
17.2022572935
 20
7.3584162363
 11
17.2022572935
 21
7.2676709134
  0
LINE
  5
6C7
100
AcDbEntity
  8
0
100
AcDbLine
 62
7
  6
CONTINUOUS
 10
17.2182843327
 20
9.5776868096
 11
17.2182843327
 21
9.6761120064
  0
LINE
  5
6C8
100
AcDbEntity
  8
0
100
AcDbLine
 62
7
  6
CONTINUOUS
 10
17.2314561951
 20
9.6761120064
 11
17.2314561951
 21
9.5776868096
  0
LINE
  5
6C9
100
AcDbEntity
  8
0
100
AcDbLine
 62
7
  6
CONTINUOUS
 10
17.2375392068
 20
9.5776868096
 11
17.2375392068
 21
9.6761120064
  0
LINE
  5
6CA
100
AcDbEntity
  8
AXIS
100
AcDbLine
 62
7
  6
CONTINUOUS
 10
17.1819513705
 20
8.4911410756
 11
17.2097472777
 21
8.5189369828
  0
LWPOLYLINE
  5
6CB
100
AcDbEntity
  8
AXIS
100
AcDbPolyline
 62
7
  6
CONTINUOUS
 90
12
 70
0
 10
17.5959580809
 20
7.3584162363
 10
17.5931994676
 20
7.3674339463
 10
17.5850540011
 20
7.3762429237
 10
17.5721276508
 20
7.3839165026
 10
17.5556715957
 20
7.3895339384
 10
17.5367773244
 20
7.3925377474
 10
17.5173034922
 20
7.3925346201
 10
17.4984364965
 20
7.3895307891
 10
17.4819790718
 20
7.3839100754
 10
17.4690805016
 20
7.3762536257
 10
17.4609239773
 20
7.3674381554
 10
17.4581628053
 20
7.3584162363
  0
LWPOLYLINE
  5
6CC
100
AcDbEntity
  8
0
100
AcDbPolyline
 62
9
  6
CONTINUOUS
 90
5
 70
0
 10
17.4581628053
 20
7.3441985444
 10
17.4596613582
 20
7.3374788828
 10
17.4639287632
 20
7.3317823974
 10
17.4703150841
 20
7.3279763315
 10
17.4778478447
 20
7.3266399048
  0
LINE
  5
6CD
100
AcDbEntity
  8
0
100
AcDbLine
 62
7
  6
CONTINUOUS
 10
17.2613124116
 20
7.2676710093
 11
17.2613124116
 21
7.3584162363
  0
LINE
  5
6CE
100
AcDbEntity
  8
0
100
AcDbLine
 62
7
  6
CONTINUOUS
 10
17.2689905645
 20
9.5776868096
 11
17.2689905645
 21
9.6761120064
  0
LINE
  5
6CF
100
AcDbEntity
  8
0
100
AcDbLine
 62
7
  6
CONTINUOUS
 10
17.2805611403
 20
9.6761120064
 11
17.2805611403
 21
9.5776868096
  0
LINE
  5
6D0
100
AcDbEntity
  8
0
100
AcDbLine
 62
9
  6
CONTINUOUS
 10
17.280997451
 20
7.2479965751
 11
17.280997451
 21
7.3266399048
  0
LINE
  5
6D1
100
AcDbEntity
  8
0
100
AcDbLine
 62
7
  6
CONTINUOUS
 10
17.2885677672
 20
9.5776868096
 11
17.2885677672
 21
9.6761120064
  0
LINE
  5
6D2
100
AcDbEntity
  8
0
100
AcDbLine
 62
7
  6
CONTINUOUS
 10
17.3203675297
 20
9.5776868096
 11
17.3203675297
 21
9.6761120064
  0
LINE
  5
6D3
100
AcDbEntity
  8
0
100
AcDbLine
 62
7
  6
CONTINUOUS
 10
17.3302100494
 20
9.6761120064
 11
17.3302100494
 21
9.5776868096
  0
LINE
  5
6D4
100
AcDbEntity
  8
AXIS
100
AcDbLine
 62
7
  6
CENTER
 10
17.3302100494
 20
8.6131198804
 11
17.3302100494
 21
7.1170419932
  0
LINE
  5
6D5
100
AcDbEntity
  8
AXIS
100
AcDbLine
 62
7
  6
CENTER
 10
17.3302100494
 20
8.6131198804
 11
17.3302100494
 21
9.9645218114
  0
LINE
  5
6D6
100
AcDbEntity
  8
0
100
AcDbLine
 62
7
  6
CONTINUOUS
 10
17.3400525691
 20
9.5776868096
 11
17.3400525691
 21
9.6761120064
  0
LWPOLYLINE
  5
6D7
100
AcDbEntity
  8
0
100
AcDbPolyline
 62
7
  6
CONTINUOUS
 90
4
 70
0
 10
16.6983202856
 20
7.8518717009
 10
16.7016912414
 20
7.856032943
 10
16.7056749514
 20
7.8588115888
 10
16.7101313109
 20
7.8597749391
  0
LINE
  5
6D8
100
AcDbEntity
  8
AXIS
100
AcDbLine
 62
7
  6
CONTINUOUS
 10
17.2360271518
 20
8.4926571088
 11
17.2082312446
 21
8.4648612015
  0
LINE
  5
6D9
100
AcDbEntity
  8
0
100
AcDbLine
 62
7
  6
CONTINUOUS
 10
17.3718523317
 20
9.5776868096
 11
17.3718523317
 21
9.6761120064
  0
LINE
  5
6DA
100
AcDbEntity
  8
0
100
AcDbLine
 62
9
  6
CONTINUOUS
 10
17.3794226478
 20
7.3266399048
 11
17.3794226478
 21
7.2479965751
  0
LINE
  5
6DB
100
AcDbEntity
  8
0
100
AcDbLine
 62
7
  6
CONTINUOUS
 10
17.3798589585
 20
9.6761120064
 11
17.3798589585
 21
9.5776868096
  0
LINE
  5
6DC
100
AcDbEntity
  8
0
100
AcDbLine
 62
7
  6
CONTINUOUS
 10
17.3914295344
 20
9.5776868096
 11
17.3914295344
 21
9.6761120064
  0
LINE
  5
6DD
100
AcDbEntity
  8
0
100
AcDbLine
 62
7
  6
CONTINUOUS
 10
17.3991076872
 20
7.3584162363
 11
17.3991076872
 21
7.2676709134
  0
LINE
  5
6DE
100
AcDbEntity
  8
0
100
AcDbLine
 62
7
  6
CONTINUOUS
 10
17.4228808921
 20
9.5776868096
 11
17.4228808921
 21
9.6761120064
  0
LINE
  5
6DF
100
AcDbEntity
  8
0
100
AcDbLine
 62
7
  6
CONTINUOUS
 10
17.4289639038
 20
9.6761120064
 11
17.4289639038
 21
9.5776868096
  0
LWPOLYLINE
  5
6E0
100
AcDbEntity
  8
0
100
AcDbPolyline
 62
9
  6
CONTINUOUS
 90
12
 70
0
 10
17.0841470573
 20
7.3266399048
 10
17.0861171753
 20
7.3331860011
 10
17.0919323063
 20
7.3394818979
 10
17.1011216964
 20
7.3448831507
 10
17.1129197779
 20
7.3488341472
 10
17.126362851
 20
7.3509208187
 10
17.1403640595
 20
7.3509202169
 10
17.1538044916
 20
7.3488329
 10
17.1656002019
 20
7.3448819323
 10
17.1747877133
 20
7.3394812312
 10
17.1806021648
 20
7.3331858762
 10
17.1825722541
 20
7.3266399048
  0
LINE
  5
6E1
100
AcDbEntity
  8
AXIS
100
AcDbLine
 62
7
  6
CENTER
 10
17.3302100494
 20
8.6131198804
 11
16.9749825061
 21
8.6131198804
  0
LINE
  5
6E2
100
AcDbEntity
  8
AXIS
100
AcDbLine
 62
7
  6
CENTER
 10
17.3302100494
 20
8.6131198804
 11
17.6854375928
 21
8.6131198804
  0
LINE
  5
6E3
100
AcDbEntity
  8
0
100
AcDbLine
 62
7
  6
CONTINUOUS
 10
17.4421357661
 20
9.5776868096
 11
17.4421357661
 21
9.6761120064
  0
LINE
  5
6E4
100
AcDbEntity
  8
0
100
AcDbLine
 62
7
  6
CONTINUOUS
 10
17.4581628053
 20
7.2676710093
 11
17.4581628053
 21
7.3584162363
  0
LINE
  5
6E5
100
AcDbEntity
  8
0
100
AcDbLine
 62
7
  6
CONTINUOUS
 10
17.4728941313
 20
9.5776868096
 11
17.4728941313
 21
9.6761120064
  0
LINE
  5
6E6
100
AcDbEntity
  8
0
100
AcDbLine
 62
7
  6
CONTINUOUS
 10
17.4769868812
 20
9.6761120064
 11
17.4769868812
 21
9.5776868096
  0
LINE
  5
6E7
100
AcDbEntity
  8
0
100
AcDbLine
 62
9
  6
CONTINUOUS
 10
17.4778478447
 20
7.2479965751
 11
17.4778478447
 21
7.3266399048
  0
LINE
  5
6E8
100
AcDbEntity
  8
0
100
AcDbLine
 62
7
  6
CONTINUOUS
 10
17.4916157163
 20
9.5776868096
 11
17.4916157163
 21
9.6761120064
  0
LINE
  5
6E9
100
AcDbEntity
  8
0
100
AcDbLine
 62
7
  6
CONTINUOUS
 10
17.5213440939
 20
9.5776868096
 11
17.5213440939
 21
9.6761120064
  0
LINE
  5
6EA
100
AcDbEntity
  8
0
100
AcDbLine
 62
7
  6
CONTINUOUS
 10
17.5234017409
 20
9.6761120064
 11
17.5234017409
 21
9.5776868096
  0
LWPOLYLINE
  5
6EB
100
AcDbEntity
  8
0
100
AcDbPolyline
 62
9
  6
CONTINUOUS
 90
5
 70
0
 10
17.2022572935
 20
7.3441985444
 10
17.2007588715
 20
7.3374791703
 10
17.1964917062
 20
7.3317827354
 10
17.1901054154
 20
7.3279764851
 10
17.1825722541
 20
7.3266399048
  0
LWPOLYLINE
  5
6EC
100
AcDbEntity
  8
0
100
AcDbPolyline
 62
9
  6
CONTINUOUS
 90
12
 70
0
 10
17.0644620179
 20
7.3441985444
 10
17.0672560774
 20
7.3527962202
 10
17.0754185426
 20
7.3609236985
 10
17.0882887732
 20
7.3678372016
 10
17.104790978
 20
7.3728620823
 10
17.1235787322
 20
7.3755052568
 10
17.1431405273
 20
7.3755052316
 10
17.1619284625
 20
7.3728620079
 10
17.1784306823
 20
7.3678371211
 10
17.1913006756
 20
7.3609237775
 10
17.1994632446
 20
7.3527962221
 10
17.2022572935
 20
7.3441985444
  0
LINE
  5
6ED
100
AcDbEntity
  8
0
100
AcDbLine
 62
7
  6
CONTINUOUS
 10
17.5393272722
 20
9.5776868096
 11
17.5393272722
 21
9.6761120064
  0
LINE
  5
6EE
100
AcDbEntity
  8
0
100
AcDbLine
 62
7
  6
CONTINUOUS
 10
17.5676999519
 20
9.5776868096
 11
17.5676999519
 21
9.6761120064
  0
LINE
  5
6EF
100
AcDbEntity
  8
0
100
AcDbLine
 62
9
  6
CONTINUOUS
 10
17.5762730415
 20
7.3266399048
 11
17.5762730415
 21
7.2479965751
  0
LINE
  5
6F0
100
AcDbEntity
  8
0
100
AcDbLine
 62
7
  6
CONTINUOUS
 10
17.5847476961
 20
9.5776868096
 11
17.5847476961
 21
9.6761120064
  0
LINE
  5
6F1
100
AcDbEntity
  8
0
100
AcDbLine
 62
7
  6
CONTINUOUS
 10
17.5959580809
 20
7.3584162363
 11
17.5959580809
 21
7.2676709134
  0
LINE
  5
6F2
100
AcDbEntity
  8
0
100
AcDbLine
 62
7
  6
CONTINUOUS
 10
17.6114538209
 20
9.5776868096
 11
17.6114538209
 21
9.6761120064
  0
LINE
  5
6F3
100
AcDbEntity
  8
0
100
AcDbLine
 62
7
  6
CONTINUOUS
 10
17.6273793523
 20
9.5776868096
 11
17.6273793523
 21
9.6761120064
  0
LWPOLYLINE
  5
6F4
100
AcDbEntity
  8
0
100
AcDbPolyline
 62
9
  6
CONTINUOUS
 90
12
 70
0
 10
17.280997451
 20
7.3266399048
 10
17.282967569
 20
7.3331860011
 10
17.2887827
 20
7.3394818979
 10
17.2979720901
 20
7.3448831507
 10
17.3097701716
 20
7.3488341472
 10
17.3232132447
 20
7.3509208187
 10
17.3372144532
 20
7.3509202169
 10
17.3506548853
 20
7.3488329
 10
17.3624505956
 20
7.3448819323
 10
17.371638107
 20
7.3394812312
 10
17.3774525585
 20
7.3331858762
 10
17.3794226478
 20
7.3266399048
  0
LWPOLYLINE
  5
6F5
100
AcDbEntity
  8
0
100
AcDbPolyline
 62
9
  6
CONTINUOUS
 90
12
 70
0
 10
17.2613124116
 20
7.3441985444
 10
17.2641064711
 20
7.3527962202
 10
17.2722689363
 20
7.3609236985
 10
17.2851391669
 20
7.3678372016
 10
17.3016413717
 20
7.3728620823
 10
17.3204291259
 20
7.3755052568
 10
17.339990921
 20
7.3755052316
 10
17.3587788562
 20
7.3728620079
 10
17.375281076
 20
7.3678371211
 10
17.3881510693
 20
7.3609237775
 10
17.3963136383
 20
7.3527962221
 10
17.3991076872
 20
7.3441985444
  0
LINE
  5
6F6
100
AcDbEntity
  8
0
100
AcDbLine
 62
7
  6
CONTINUOUS
 10
17.6521263242
 20
9.5776868096
 11
17.6521263242
 21
9.6761120064
  0
LINE
  5
6F7
100
AcDbEntity
  8
0
100
AcDbLine
 62
7
  6
CONTINUOUS
 10
17.6667551593
 20
9.5776868096
 11
17.6667551593
 21
9.6761120064
  0
LINE
  5
6F8
100
AcDbEntity
  8
0
100
AcDbLine
 62
7
  6
CONTINUOUS
 10
17.6892718454
 20
9.5776868096
 11
17.6892718454
 21
9.6761120064
  0
LINE
  5
6F9
100
AcDbEntity
  8
0
100
AcDbLine
 62
7
  6
CONTINUOUS
 10
17.7024437078
 20
9.5776868096
 11
17.7024437078
 21
9.6761120064
  0
LINE
  5
6FA
100
AcDbEntity
  8
0
100
AcDbLine
 62
7
  6
CONTINUOUS
 10
17.7224834105
 20
9.5776868096
 11
17.7224834105
 21
9.6761120064
  0
LWPOLYLINE
  5
6FB
100
AcDbEntity
  8
0
100
AcDbPolyline
 62
9
  6
CONTINUOUS
 90
5
 70
0
 10
17.3991076872
 20
7.3441985444
 10
17.3976092652
 20
7.3374791703
 10
17.3933420999
 20
7.3317827354
 10
17.3869558091
 20
7.3279764851
 10
17.3794226478
 20
7.3266399048
  0
LINE
  5
6FC
100
AcDbEntity
  8
0
100
AcDbLine
 62
7
  6
CONTINUOUS
 10
17.7340539864
 20
9.5776868096
 11
17.7340539864
 21
9.6761120064
  0
LINE
  5
6FD
100
AcDbEntity
  8
0
100
AcDbLine
 62
7
  6
CONTINUOUS
 10
17.7513971466
 20
9.5776868096
 11
17.7513971466
 21
9.6761120064
  0
LINE
  5
6FE
100
AcDbEntity
  8
0
100
AcDbLine
 62
7
  6
CONTINUOUS
 10
17.7612396662
 20
9.5776868096
 11
17.7612396662
 21
9.6761120064
  0
LINE
  5
6FF
100
AcDbEntity
  8
0
100
AcDbLine
 62
7
  6
CONTINUOUS
 10
17.7756962686
 20
9.5776868096
 11
17.7756962686
 21
9.6761120064
  0
LINE
  5
700
100
AcDbEntity
  8
0
100
AcDbLine
 62
7
  6
CONTINUOUS
 10
17.7837028955
 20
9.5776868096
 11
17.7837028955
 21
9.6761120064
  0
LINE
  5
701
100
AcDbEntity
  8
AXIS
100
AcDbLine
 62
7
  6
CONTINUOUS
 10
17.7861977932
 20
7.283126943
 11
17.7861977932
 21
7.4428666709
  0
LINE
  5
702
100
AcDbEntity
  8
0
100
AcDbLine
 62
7
  6
CONTINUOUS
 10
17.7951145504
 20
9.5776868096
 11
17.7951145504
 21
9.6761120064
  0
LINE
  5
703
100
AcDbEntity
  8
0
100
AcDbLine
 62
7
  6
CONTINUOUS
 10
17.8011975621
 20
9.5776868096
 11
17.8011975621
 21
9.6761120064
  0
LINE
  5
704
100
AcDbEntity
  8
0
100
AcDbLine
 62
7
  6
CONTINUOUS
 10
17.8026509943
 20
7.2941540419
 11
17.8026509943
 21
7.4428666709
  0
LINE
  5
705
100
AcDbEntity
  8
0
100
AcDbLine
 62
7
  6
CONTINUOUS
 10
17.8026509943
 20
7.762622563
 11
17.8026509943
 21
9.3827933333
  0
LINE
  5
706
100
AcDbEntity
  8
0
100
AcDbLine
 62
7
  6
CONTINUOUS
 10
17.8094392413
 20
9.5776868096
 11
17.8094392413
 21
9.6761120064
  0
LINE
  5
707
100
AcDbEntity
  8
0
100
AcDbLine
 62
7
  6
CONTINUOUS
 10
17.8135319911
 20
9.5776868096
 11
17.8135319911
 21
9.6761120064
  0
LWPOLYLINE
  5
708
100
AcDbEntity
  8
0
100
AcDbPolyline
 62
9
  6
CONTINUOUS
 90
12
 70
0
 10
17.4778478447
 20
7.3266399048
 10
17.4798179627
 20
7.3331860011
 10
17.4856330937
 20
7.3394818979
 10
17.4948224838
 20
7.3448831507
 10
17.5066205653
 20
7.3488341472
 10
17.5200636384
 20
7.3509208187
 10
17.5340648469
 20
7.3509202169
 10
17.547505279
 20
7.3488329
 10
17.5593009893
 20
7.3448819323
 10
17.5684885007
 20
7.3394812312
 10
17.5743029522
 20
7.3331858762
 10
17.5762730415
 20
7.3266399048
  0
LWPOLYLINE
  5
709
100
AcDbEntity
  8
0
100
AcDbPolyline
 62
9
  6
CONTINUOUS
 90
12
 70
0
 10
17.4581628053
 20
7.3441985444
 10
17.4609568648
 20
7.3527962202
 10
17.46911933
 20
7.3609236985
 10
17.4819895606
 20
7.3678372016
 10
17.4984917654
 20
7.3728620823
 10
17.5172795196
 20
7.3755052568
 10
17.5368413147
 20
7.3755052316
 10
17.5556292499
 20
7.3728620079
 10
17.5721314697
 20
7.3678371211
 10
17.585001463
 20
7.3609237775
 10
17.593164032
 20
7.3527962221
 10
17.5959580809
 20
7.3441985444
  0
LINE
  5
70A
100
AcDbEntity
  8
0
100
AcDbLine
 62
7
  6
CONTINUOUS
 10
17.8185133968
 20
9.5776868096
 11
17.8185133968
 21
9.6761120064
  0
LINE
  5
70B
100
AcDbEntity
  8
0
100
AcDbLine
 62
7
  6
CONTINUOUS
 10
17.8205710437
 20
9.5776868096
 11
17.8205710437
 21
9.6761120064
  0
LINE
  5
70C
100
AcDbEntity
  8
0
100
AcDbLine
 62
7
  6
CONTINUOUS
 10
17.8222375986
 20
9.5776868096
 11
17.8222375986
 21
9.6761120064
  0
LWPOLYLINE
  5
70D
100
AcDbEntity
  8
0
100
AcDbPolyline
 62
9
  6
CONTINUOUS
 90
5
 70
0
 10
17.5959580809
 20
7.3441985444
 10
17.5944596589
 20
7.3374791703
 10
17.5901924936
 20
7.3317827354
 10
17.5838062028
 20
7.3279764851
 10
17.5762730415
 20
7.3266399048
  0
LWPOLYLINE
  5
70E
100
AcDbEntity
  8
0
100
AcDbPolyline
 62
7
  6
CONTINUOUS
 90
13
 70
0
 10
17.9798163486
 20
7.7195056026
 10
17.9797424284
 20
7.7322630279
 10
17.9795038836
 20
7.7451913482
 10
17.9790884922
 20
7.7578330375
 10
17.9784959421
 20
7.7699112984
 10
17.977737284
 20
7.7812075985
 10
17.9768181897
 20
7.7917191456
 10
17.9757122276
 20
7.8017046056
 10
17.9743503528
 20
7.8114985593
 10
17.9725955827
 20
7.8214581454
 10
17.9702519477
 20
7.8316577228
 10
17.9669851464
 20
7.8419585048
 10
17.9620998132
 20
7.8518728257
  0
LINE
  5
70F
100
AcDbEntity
  8
0
100
AcDbLine
 62
7
  6
CONTINUOUS
 10
17.9404462699
 20
7.762622563
 11
17.9404462699
 21
9.5776868096
  0
LINE
  5
710
100
AcDbEntity
  8
0
100
AcDbLine
 62
9
  6
CONTINUOUS
 10
17.9502887896
 20
7.2942222427
 11
17.9502887896
 21
7.8597749398
  0
LINE
  5
711
100
AcDbEntity
  8
0
100
AcDbLine
 62
9
  6
CONTINUOUS
 10
17.9620998132
 20
8.1091828726
 11
17.9620998132
 21
7.8518717009
  0
LINE
  5
712
100
AcDbEntity
  8
0
100
AcDbLine
 62
7
  6
CONTINUOUS
 10
17.9817848526
 20
8.0894978304
 11
17.9817848526
 21
7.6957981866
  0
LINE
  5
713
100
AcDbEntity
  8
0
100
AcDbLine
 62
9
  6
CONTINUOUS
 10
16.719973829
 20
9.330552218
 11
16.8577691045
 21
9.330552218
  0
LINE
  5
714
100
AcDbEntity
  8
0
100
AcDbLine
 62
9
  6
CONTINUOUS
 10
17.8026509943
 20
9.330552218
 11
17.9404462699
 21
9.330552218
  0
LINE
  5
715
100
AcDbEntity
  8
0
100
AcDbLine
 62
7
  6
CONTINUOUS
 10
16.8577691045
 20
9.3332807478
 11
17.8026509943
 21
9.3332807478
  0
LINE
  5
716
100
AcDbEntity
  8
0
100
AcDbLine
 62
9
  6
CONTINUOUS
 10
16.8577691045
 20
9.3827933333
 11
17.8026509943
 21
9.3827933333
  0
LINE
  5
717
100
AcDbEntity
  8
0
100
AcDbLine
 62
7
  6
CONTINUOUS
 10
16.719973829
 20
9.4989466521
 11
17.9404462699
 21
9.4989466521
  0
LINE
  5
718
100
AcDbEntity
  8
0
100
AcDbLine
 62
7
  6
CONTINUOUS
 10
16.8157617306
 20
9.5087891718
 11
17.8446583682
 21
9.5087891718
  0
LINE
  5
719
100
AcDbEntity
  8
0
100
AcDbLine
 62
7
  6
CONTINUOUS
 10
16.719973829
 20
9.5776868096
 11
17.9404462699
 21
9.5776868096
  0
LINE
  5
71A
100
AcDbEntity
  8
0
100
AcDbLine
 62
7
  6
CONTINUOUS
 10
16.8381825002
 20
9.6761120064
 11
17.8222375986
 21
9.6761120064
  0
LWPOLYLINE
  5
71B
100
AcDbEntity
  8
0
100
AcDbPolyline
 62
9
  6
CONTINUOUS
 90
13
 70
0
 10
5.0009120951
 20
7.2481695058
 10
5.002677663
 20
7.2486434075
 10
5.0078760154
 20
7.2493641864
 10
5.0159938469
 20
7.2501829673
 10
5.0262703902
 20
7.2509207637
 10
5.037892087
 20
7.251425249
 10
5.0501402946
 20
7.2516031981
 10
5.0623870049
 20
7.2514243678
 10
5.0740054433
 20
7.2509192166
 10
5.0842778265
 20
7.2501810331
 10
5.0923875
 20
7.2493625145
 10
5.0975757632
 20
7.2486427047
 10
5.099337292
 20
7.2481695058
  0
LWPOLYLINE
  5
71C
100
AcDbEntity
  8
0
100
AcDbPolyline
 62
7
  6
CONTINUOUS
 90
17
 70
0
 10
5.47335304
 20
7.2942220449
 10
5.4754321634
 20
7.2944244317
 10
5.4813828883
 20
7.2976129264
 10
5.4860288684
 20
7.3036397462
 10
5.4895649278
 20
7.3112126347
 10
5.4923527595
 20
7.319784061
 10
5.4946203796
 20
7.3291709709
 10
5.496519729
 20
7.3394427255
 10
5.4981191702
 20
7.3506198089
 10
5.499454191
 20
7.3626858978
 10
5.5005923532
 20
7.376227753
 10
5.5015092673
 20
7.3911405906
 10
5.5021134971
 20
7.4050281113
 10
5.5024884384
 20
7.4174966611
 10
5.5027170954
 20
7.429137257
 10
5.5028375605
 20
7.4399073937
 10
5.502880599
 20
7.6875605396
  0
LINE
  5
71D
100
AcDbEntity
  8
0
100
AcDbLine
 62
7
  6
CONTINUOUS
 10
4.6072113077
 20
7.2479965722
 11
4.7056365046
 21
7.2479965722
  0
LINE
  5
71E
100
AcDbEntity
  8
0
100
AcDbLine
 62
7
  6
CONTINUOUS
 10
4.8040617014
 20
7.2479965722
 11
4.9024868983
 21
7.2479965722
  0
LINE
  5
71F
100
AcDbEntity
  8
0
100
AcDbLine
 62
7
  6
CONTINUOUS
 10
5.0009120951
 20
7.2479965722
 11
5.099337292
 21
7.2479965722
  0
LINE
  5
720
100
AcDbEntity
  8
AXIS
100
AcDbLine
 62
7
  6
CONTINUOUS
 10
4.397286556
 20
7.2831198804
 11
4.5875262683
 21
7.2831198804
  0
LINE
  5
721
100
AcDbEntity
  8
AXIS
100
AcDbLine
 62
7
  6
CONTINUOUS
 10
4.7253215439
 20
7.2831198804
 11
4.784376662
 21
7.2831198804
  0
LINE
  5
722
100
AcDbEntity
  8
AXIS
100
AcDbLine
 62
7
  6
CONTINUOUS
 10
4.9221719376
 20
7.2831198804
 11
4.9812270557
 21
7.2831198804
  0
LINE
  5
723
100
AcDbEntity
  8
AXIS
100
AcDbLine
 62
7
  6
CONTINUOUS
 10
5.1190223313
 20
7.2831198804
 11
5.3075289369
 21
7.2831198804
  0
LWPOLYLINE
  5
724
100
AcDbEntity
  8
0
100
AcDbPolyline
 62
9
  6
CONTINUOUS
 90
13
 70
0
 10
4.8040617014
 20
7.2481695058
 10
4.8058272693
 20
7.2486434075
 10
4.8110256217
 20
7.2493641864
 10
4.8191434532
 20
7.2501829673
 10
4.8294199965
 20
7.2509207637
 10
4.8410416933
 20
7.251425249
 10
4.8532899009
 20
7.2516031981
 10
4.8655366112
 20
7.2514243678
 10
4.8771550496
 20
7.2509192166
 10
4.8874274328
 20
7.2501810331
 10
4.8955371063
 20
7.2493625145
 10
4.9007253695
 20
7.2486427047
 10
4.9024868983
 20
7.2481695058
  0
LWPOLYLINE
  5
725
100
AcDbEntity
  8
0
100
AcDbPolyline
 62
9
  6
CONTINUOUS
 90
13
 70
0
 10
4.6072113077
 20
7.2481695058
 10
4.6089768756
 20
7.2486434075
 10
4.614175228
 20
7.2493641864
 10
4.6222930595
 20
7.2501829673
 10
4.6325696028
 20
7.2509207637
 10
4.6441912996
 20
7.251425249
 10
4.6564395072
 20
7.2516031981
 10
4.6686862175
 20
7.2514243678
 10
4.6803046559
 20
7.2509192166
 10
4.6905770391
 20
7.2501810331
 10
4.6986867126
 20
7.2493625145
 10
4.7038749758
 20
7.2486427047
 10
4.7056365046
 20
7.2481695058
  0
LWPOLYLINE
  5
726
100
AcDbEntity
  8
0
100
AcDbPolyline
 62
7
  6
CONTINUOUS
 90
4
 70
0
 10
5.1131165126
 20
7.3828049198
 10
5.1193334697
 20
7.3840840479
 10
5.1245405111
 20
7.3877136646
 10
5.1276077865
 20
7.3926474395
  0
LWPOLYLINE
  5
727
100
AcDbEntity
  8
0
100
AcDbPolyline
 62
7
  6
CONTINUOUS
 90
5
 70
0
 10
5.0304394918
 20
7.3631198804
 10
5.0378806748
 20
7.3645797495
 10
5.044217451
 20
7.3687421289
 10
5.0485110195
 20
7.374989456
 10
5.0501293796
 20
7.3828049198
  0
LINE
  5
728
100
AcDbEntity
  8
0
100
AcDbLine
 62
7
  6
CONTINUOUS
 10
4.2331955597
 20
7.2942222427
 11
4.380833355
 21
7.2942222427
  0
LINE
  5
729
100
AcDbEntity
  8
0
100
AcDbLine
 62
7
  6
CONTINUOUS
 10
5.3257152447
 20
7.2942222427
 11
5.47335304
 21
7.2942222427
  0
LINE
  5
72A
100
AcDbEntity
  8
AXIS
100
AcDbLine
 62
7
  6
CONTINUOUS
 10
4.397286556
 20
7.3031952634
 11
5.3075289369
 21
7.3031952634
  0
LINE
  5
72B
100
AcDbEntity
  8
0
100
AcDbLine
 62
7
  6
CONTINUOUS
 10
4.380833355
 20
7.309127091
 11
5.3257152447
 21
7.309127091
  0
LINE
  5
72C
100
AcDbEntity
  8
0
100
AcDbLine
 62
7
  6
CONTINUOUS
 10
5.0304395493
 20
7.3631198804
 11
4.6761090504
 21
7.3631198804
  0
LINE
  5
72D
100
AcDbEntity
  8
0
100
AcDbLine
 62
7
  6
CONTINUOUS
 10
5.1131153155
 20
7.3828049198
 11
4.5934332842
 21
7.3828049198
  0
LWPOLYLINE
  5
72E
100
AcDbEntity
  8
AXIS
100
AcDbPolyline
 62
7
  6
CONTINUOUS
 90
13
 70
0
 10
4.7253215439
 20
7.2834736878
 10
4.7227306357
 20
7.2844507271
 10
4.7152397226
 20
7.285920367
 10
4.7036264057
 20
7.287582327
 10
4.6891961071
 20
7.2890523798
 10
4.6730833065
 20
7.290042557
 10
4.6563532889
 20
7.2903844616
 10
4.6396492406
 20
7.2900377994
 10
4.6235652868
 20
7.289045272
 10
4.6091509785
 20
7.2875736768
 10
4.5975525786
 20
7.2859110712
 10
4.5901027825
 20
7.2844471862
 10
4.5875262683
 20
7.2834736878
  0
LWPOLYLINE
  5
72F
100
AcDbEntity
  8
AXIS
100
AcDbPolyline
 62
7
  6
CONTINUOUS
 90
13
 70
0
 10
4.9221719376
 20
7.2834736878
 10
4.9195810294
 20
7.2844507271
 10
4.9120901163
 20
7.285920367
 10
4.9004767994
 20
7.287582327
 10
4.8860465008
 20
7.2890523798
 10
4.8699337002
 20
7.290042557
 10
4.8532036826
 20
7.2903844616
 10
4.8364996343
 20
7.2900377994
 10
4.8204156805
 20
7.289045272
 10
4.8060013722
 20
7.2875736768
 10
4.7944029723
 20
7.2859110712
 10
4.7869531762
 20
7.2844471862
 10
4.784376662
 20
7.2834736878
  0
LWPOLYLINE
  5
730
100
AcDbEntity
  8
0
100
AcDbPolyline
 62
9
  6
CONTINUOUS
 90
13
 70
0
 10
4.5875262683
 20
7.2678498693
 10
4.5900251818
 20
7.2662436675
 10
4.597319797
 20
7.2650282095
 10
4.6086899866
 20
7.264215872
 10
4.6230688041
 20
7.2637374527
 10
4.6393203546
 20
7.2635003004
 10
4.6564416035
 20
7.2634305613
 10
4.6735630303
 20
7.2635003295
 10
4.6898123142
 20
7.2637380951
 10
4.7041872416
 20
7.264217354
 10
4.7155475542
 20
7.2650303476
 10
4.7228286135
 20
7.2662453574
 10
4.7253215439
 20
7.2678498693
  0
LINE
  5
731
100
AcDbEntity
  8
AXIS
100
AcDbLine
 62
7
  6
CONTINUOUS
 10
5.3060302053
 20
7.3926474395
 11
4.4005183943
 21
7.3926474395
  0
LINE
  5
732
100
AcDbEntity
  8
0
100
AcDbLine
 62
7
  6
CONTINUOUS
 10
5.4635105203
 20
7.4123324789
 11
4.2430380794
 21
7.4123324789
  0
LWPOLYLINE
  5
733
100
AcDbEntity
  8
AXIS
100
AcDbPolyline
 62
7
  6
CONTINUOUS
 90
13
 70
0
 10
5.1190223313
 20
7.2834736878
 10
5.1164314231
 20
7.2844507271
 10
5.10894051
 20
7.285920367
 10
5.0973271931
 20
7.287582327
 10
5.0828968945
 20
7.2890523798
 10
5.0667840939
 20
7.290042557
 10
5.0500540763
 20
7.2903844616
 10
5.033350028
 20
7.2900377994
 10
5.0172660742
 20
7.289045272
 10
5.0028517659
 20
7.2875736768
 10
4.9912533661
 20
7.2859110712
 10
4.9838035699
 20
7.2844471862
 10
4.9812270557
 20
7.2834736878
  0
LWPOLYLINE
  5
734
100
AcDbEntity
  8
0
100
AcDbPolyline
 62
9
  6
CONTINUOUS
 90
13
 70
0
 10
4.784376662
 20
7.2678498693
 10
4.7868755755
 20
7.2662436675
 10
4.7941701907
 20
7.2650282095
 10
4.8055403803
 20
7.264215872
 10
4.8199191978
 20
7.2637374527
 10
4.8361707483
 20
7.2635003004
 10
4.8532919972
 20
7.2634305613
 10
4.870413424
 20
7.2635003295
 10
4.8866627079
 20
7.2637380951
 10
4.9010376353
 20
7.264217354
 10
4.9123979479
 20
7.2650303476
 10
4.9196790072
 20
7.2662453574
 10
4.9221719376
 20
7.2678498693
  0
LINE
  5
735
100
AcDbEntity
  8
0
100
AcDbLine
 62
9
  6
CONTINUOUS
 10
5.4635105203
 20
7.5698127938
 11
4.2430380794
 21
7.5698127938
  0
LWPOLYLINE
  5
736
100
AcDbEntity
  8
0
100
AcDbPolyline
 62
9
  6
CONTINUOUS
 90
13
 70
0
 10
4.9812270557
 20
7.2678498693
 10
4.9837259692
 20
7.2662436675
 10
4.9910205844
 20
7.2650282095
 10
5.002390774
 20
7.264215872
 10
5.0167695915
 20
7.2637374527
 10
5.033021142
 20
7.2635003004
 10
5.0501423909
 20
7.2634305613
 10
5.0672638177
 20
7.2635003295
 10
5.0835131016
 20
7.2637380951
 10
5.097888029
 20
7.264217354
 10
5.1092483416
 20
7.2650303476
 10
5.1165294009
 20
7.2662453574
 10
5.1190223313
 20
7.2678498693
  0
LINE
  5
737
100
AcDbEntity
  8
0
100
AcDbLine
 62
7
  6
CONTINUOUS
 10
4.2213845361
 20
7.6761120064
 11
4.2430380794
 21
7.6761120064
  0
LINE
  5
738
100
AcDbEntity
  8
0
100
AcDbLine
 62
7
  6
CONTINUOUS
 10
5.4635105203
 20
7.6761120064
 11
5.4851640636
 21
7.6761120064
  0
LWPOLYLINE
  5
739
100
AcDbEntity
  8
0
100
AcDbPolyline
 62
7
  6
CONTINUOUS
 90
4
 70
0
 10
4.5786568835
 20
7.3931041462
 10
4.5820080886
 20
7.3877136646
 10
4.58721513
 20
7.3840840479
 10
4.5934320871
 20
7.3828049198
  0
LWPOLYLINE
  5
73A
100
AcDbEntity
  8
0
100
AcDbPolyline
 62
7
  6
CONTINUOUS
 90
17
 70
0
 10
4.2036692982
 20
7.4496220529
 10
4.2037110392
 20
7.4399073933
 10
4.2038315043
 20
7.4291372561
 10
4.2040601613
 20
7.4174966597
 10
4.2044351026
 20
7.4050281091
 10
4.2050393325
 20
7.3911405878
 10
4.2059562467
 20
7.3762277506
 10
4.2070944089
 20
7.3626858959
 10
4.2084294297
 20
7.3506198073
 10
4.2100288709
 20
7.3394427242
 10
4.2119282203
 20
7.3291709699
 10
4.2141958404
 20
7.3197840602
 10
4.2169836721
 20
7.3112126342
 10
4.2205197315
 20
7.3036397458
 10
4.2251657115
 20
7.2976129262
 10
4.2311164364
 20
7.2944244317
 10
4.2331955597
 20
7.2942220449
  0
LINE
  5
73B
100
AcDbEntity
  8
0
100
AcDbLine
 62
7
  6
CONTINUOUS
 10
4.3414632762
 20
8.0540647623
 11
4.4199409665
 21
8.00288366
  0
LINE
  5
73C
100
AcDbEntity
  8
0
100
AcDbLine
 62
7
  6
CONTINUOUS
 10
4.2016994967
 20
8.0894978173
 11
4.2016994967
 21
7.6957970458
  0
LINE
  5
73D
100
AcDbEntity
  8
0
100
AcDbLine
 62
7
  6
CONTINUOUS
 10
4.2036680006
 20
7.6875605396
 11
4.2036692982
 21
7.4496220529
  0
LINE
  5
73E
100
AcDbEntity
  8
0
100
AcDbLine
 62
9
  6
CONTINUOUS
 10
4.2213845361
 20
7.6761120064
 11
4.2213845361
 21
8.1091828726
  0
LINE
  5
73F
100
AcDbEntity
  8
0
100
AcDbLine
 62
9
  6
CONTINUOUS
 10
4.2331955597
 20
7.6761120064
 11
4.2331955597
 21
7.2942222427
  0
LINE
  5
740
100
AcDbEntity
  8
0
100
AcDbLine
 62
7
  6
CONTINUOUS
 10
4.2430380794
 20
7.4123324789
 11
4.2430380794
 21
9.5776868096
  0
LINE
  5
741
100
AcDbEntity
  8
0
100
AcDbLine
 62
7
  6
CONTINUOUS
 10
4.3414632762
 20
8.0540647623
 11
4.3414632762
 21
9.5776868096
  0
LINE
  5
742
100
AcDbEntity
  8
0
100
AcDbLine
 62
7
  6
CONTINUOUS
 10
4.3612467506
 20
9.5776868096
 11
4.3612467506
 21
9.6761120064
  0
LINE
  5
743
100
AcDbEntity
  8
0
100
AcDbLine
 62
7
  6
CONTINUOUS
 10
4.3629133056
 20
9.5776868096
 11
4.3629133056
 21
9.6761120064
  0
LINE
  5
744
100
AcDbEntity
  8
0
100
AcDbLine
 62
7
  6
CONTINUOUS
 10
4.3649709525
 20
9.5776868096
 11
4.3649709525
 21
9.6761120064
  0
LINE
  5
745
100
AcDbEntity
  8
0
100
AcDbLine
 62
7
  6
CONTINUOUS
 10
4.3699523582
 20
9.5776868096
 11
4.3699523582
 21
9.6761120064
  0
LINE
  5
746
100
AcDbEntity
  8
0
100
AcDbLine
 62
7
  6
CONTINUOUS
 10
4.374045108
 20
9.5776868096
 11
4.374045108
 21
9.6761120064
  0
LINE
  5
747
100
AcDbEntity
  8
0
100
AcDbLine
 62
7
  6
CONTINUOUS
 10
4.380833355
 20
7.309127091
 11
4.380833355
 21
7.2941540419
  0
LINE
  5
748
100
AcDbEntity
  8
0
100
AcDbLine
 62
7
  6
CONTINUOUS
 10
4.3822867871
 20
9.5776868096
 11
4.3822867871
 21
9.6761120064
  0
LINE
  5
749
100
AcDbEntity
  8
0
100
AcDbLine
 62
7
  6
CONTINUOUS
 10
4.3883697988
 20
9.5776868096
 11
4.3883697988
 21
9.6761120064
  0
LINE
  5
74A
100
AcDbEntity
  8
0
100
AcDbLine
 62
7
  6
CONTINUOUS
 10
4.9480818995
 20
8.00288366
 11
4.7584667002
 21
8.00288366
  0
LINE
  5
74B
100
AcDbEntity
  8
0
100
AcDbLine
 62
7
  6
CONTINUOUS
 10
4.2430380794
 20
8.00288366
 11
4.4320144573
 21
8.00288366
  0
LINE
  5
74C
100
AcDbEntity
  8
0
100
AcDbLine
 62
7
  6
CONTINUOUS
 10
5.2745341424
 20
8.00288366
 11
5.4635105203
 21
8.00288366
  0
LWPOLYLINE
  5
74D
100
AcDbEntity
  8
0
100
AcDbPolyline
 62
7
  6
CONTINUOUS
 90
13
 70
0
 10
4.7584667002
 20
8.00288366
 10
4.7325300579
 20
8.0031201557
 10
4.7095715449
 20
8.0039111698
 10
4.6890892461
 20
8.0053342261
 10
4.6706477146
 20
8.0074428587
 10
4.6540505215
 20
8.0102698417
 10
4.6392017209
 20
8.0138349631
 10
4.6259133671
 20
8.0182113779
 10
4.6140752696
 20
8.0235479043
 10
4.6040098734
 20
8.0299082394
 10
4.5962625312
 20
8.0371940734
 10
4.5912370162
 20
8.045380129
 10
4.5894947723
 20
8.0540647623
  0
LWPOLYLINE
  5
74E
100
AcDbEntity
  8
0
100
AcDbPolyline
 62
7
  6
CONTINUOUS
 90
4
 70
0
 10
4.8276837487
 20
8.0137360793
 10
4.8446849257
 20
8.013360841
 10
4.8618632469
 20
8.0133608363
 10
4.878864851
 20
8.0137360793
  0
LWPOLYLINE
  5
74F
100
AcDbEntity
  8
0
100
AcDbPolyline
 62
9
  6
CONTINUOUS
 90
5
 70
0
 10
4.5875262683
 20
7.2678498693
 10
4.5890247372
 20
7.260318436
 10
4.593291998
 20
7.2539336343
 10
4.5996783087
 20
7.2496675255
 10
4.6072113077
 20
7.2481695058
  0
LINE
  5
750
100
AcDbEntity
  8
AXIS
100
AcDbLine
 62
7
  6
CONTINUOUS
 10
4.397286556
 20
7.309127091
 11
4.397286556
 21
7.283126943
  0
LINE
  5
751
100
AcDbEntity
  8
0
100
AcDbLine
 62
7
  6
CONTINUOUS
 10
4.3997814538
 20
9.5776868096
 11
4.3997814538
 21
9.6761120064
  0
LINE
  5
752
100
AcDbEntity
  8
AXIS
100
AcDbLine
 62
7
  6
CONTINUOUS
 10
4.4005183943
 20
7.4123324789
 11
4.4005183943
 21
7.3926474395
  0
LINE
  5
753
100
AcDbEntity
  8
0
100
AcDbLine
 62
7
  6
CONTINUOUS
 10
4.4077880806
 20
9.5776868096
 11
4.4077880806
 21
9.6761120064
  0
LINE
  5
754
100
AcDbEntity
  8
0
100
AcDbLine
 62
7
  6
CONTINUOUS
 10
4.422244683
 20
9.5776868096
 11
4.422244683
 21
9.6761120064
  0
LINE
  5
755
100
AcDbEntity
  8
AXIS
100
AcDbLine
 62
7
  6
CONTINUOUS
 10
4.4320144573
 20
8.00288366
 11
4.4320144573
 21
9.5776868096
  0
LINE
  5
756
100
AcDbEntity
  8
0
100
AcDbLine
 62
7
  6
CONTINUOUS
 10
4.4320872027
 20
9.5776868096
 11
4.4320872027
 21
9.6761120064
  0
LINE
  5
757
100
AcDbEntity
  8
0
100
AcDbLine
 62
7
  6
CONTINUOUS
 10
4.4494303629
 20
9.5776868096
 11
4.4494303629
 21
9.6761120064
  0
LINE
  5
758
100
AcDbEntity
  8
0
100
AcDbLine
 62
7
  6
CONTINUOUS
 10
4.4610009387
 20
9.5776868096
 11
4.4610009387
 21
9.6761120064
  0
LINE
  5
759
100
AcDbEntity
  8
0
100
AcDbLine
 62
7
  6
CONTINUOUS
 10
4.4810406415
 20
9.5776868096
 11
4.4810406415
 21
9.6761120064
  0
LINE
  5
75A
100
AcDbEntity
  8
0
100
AcDbLine
 62
7
  6
CONTINUOUS
 10
5.4635105203
 20
8.0540647623
 11
5.3650853235
 21
8.0540647623
  0
LINE
  5
75B
100
AcDbEntity
  8
0
100
AcDbLine
 62
9
  6
CONTINUOUS
 10
5.1170538274
 20
8.0540647623
 11
4.878864851
 21
8.0540647623
  0
LINE
  5
75C
100
AcDbEntity
  8
0
100
AcDbLine
 62
9
  6
CONTINUOUS
 10
4.8276837487
 20
8.0540647623
 11
4.5894947723
 21
8.0540647623
  0
LINE
  5
75D
100
AcDbEntity
  8
0
100
AcDbLine
 62
7
  6
CONTINUOUS
 10
4.3414632762
 20
8.0540647623
 11
4.2430380794
 21
8.0540647623
  0
LINE
  5
75E
100
AcDbEntity
  8
0
100
AcDbLine
 62
7
  6
CONTINUOUS
 10
4.2213845361
 20
8.1091828726
 11
4.2430380794
 21
8.1091828726
  0
LINE
  5
75F
100
AcDbEntity
  8
0
100
AcDbLine
 62
7
  6
CONTINUOUS
 10
5.4635105203
 20
8.1091828726
 11
5.4851640636
 21
8.1091828726
  0
LWPOLYLINE
  5
760
100
AcDbEntity
  8
0
100
AcDbPolyline
 62
7
  6
CONTINUOUS
 90
5
 70
0
 10
4.6564192201
 20
7.3828049198
 10
4.6580375802
 20
7.374989456
 10
4.6623311487
 20
7.3687421289
 10
4.6686679249
 20
7.3645797495
 10
4.6761091078
 20
7.3631198804
  0
LINE
  5
761
100
AcDbEntity
  8
0
100
AcDbLine
 62
7
  6
CONTINUOUS
 10
4.4942125038
 20
9.5776868096
 11
4.4942125038
 21
9.6761120064
  0
LINE
  5
762
100
AcDbEntity
  8
0
100
AcDbLine
 62
7
  6
CONTINUOUS
 10
4.5167291899
 20
9.5776868096
 11
4.5167291899
 21
9.6761120064
  0
LINE
  5
763
100
AcDbEntity
  8
0
100
AcDbLine
 62
7
  6
CONTINUOUS
 10
4.5313580251
 20
9.5776868096
 11
4.5313580251
 21
9.6761120064
  0
LINE
  5
764
100
AcDbEntity
  8
0
100
AcDbLine
 62
7
  6
CONTINUOUS
 10
4.556104997
 20
9.5776868096
 11
4.556104997
 21
9.6761120064
  0
LINE
  5
765
100
AcDbEntity
  8
0
100
AcDbLine
 62
7
  6
CONTINUOUS
 10
4.5720305284
 20
9.5776868096
 11
4.5720305284
 21
9.6761120064
  0
LWPOLYLINE
  5
766
100
AcDbEntity
  8
0
100
AcDbPolyline
 62
9
  6
CONTINUOUS
 90
5
 70
0
 10
4.784376662
 20
7.2678498693
 10
4.7858751309
 20
7.260318436
 10
4.7901423917
 20
7.2539336343
 10
4.7965287024
 20
7.2496675255
 10
4.8040617014
 20
7.2481695058
  0
LINE
  5
767
100
AcDbEntity
  8
0
100
AcDbLine
 62
7
  6
CONTINUOUS
 10
4.5875262683
 20
7.2834736878
 11
4.5875262683
 21
7.2678498693
  0
LINE
  5
768
100
AcDbEntity
  8
0
100
AcDbLine
 62
7
  6
CONTINUOUS
 10
4.5894947723
 20
9.5776868096
 11
4.5894947723
 21
8.0540647623
  0
LINE
  5
769
100
AcDbEntity
  8
0
100
AcDbLine
 62
7
  6
CONTINUOUS
 10
4.5987366531
 20
9.5776868096
 11
4.5987366531
 21
9.6761120064
  0
LINE
  5
76A
100
AcDbEntity
  8
0
100
AcDbLine
 62
9
  6
CONTINUOUS
 10
4.6072113077
 20
7.2479965751
 11
4.6072113077
 21
7.2481695058
  0
LINE
  5
76B
100
AcDbEntity
  8
0
100
AcDbLine
 62
7
  6
CONTINUOUS
 10
4.6157843973
 20
9.5776868096
 11
4.6157843973
 21
9.6761120064
  0
LINE
  5
76C
100
AcDbEntity
  8
0
100
AcDbLine
 62
7
  6
CONTINUOUS
 10
4.644157077
 20
9.5776868096
 11
4.644157077
 21
9.6761120064
  0
LINE
  5
76D
100
AcDbEntity
  8
0
100
AcDbLine
 62
7
  6
CONTINUOUS
 10
4.6600826084
 20
9.6761120064
 11
4.6600826084
 21
9.5776868096
  0
LINE
  5
76E
100
AcDbEntity
  8
0
100
AcDbLine
 62
7
  6
CONTINUOUS
 10
4.6621402553
 20
9.5776868096
 11
4.6621402553
 21
9.6761120064
  0
LINE
  5
76F
100
AcDbEntity
  8
0
100
AcDbLine
 62
7
  6
CONTINUOUS
 10
4.6918686329
 20
9.5776868096
 11
4.6918686329
 21
9.6761120064
  0
LINE
  5
770
100
AcDbEntity
  8
0
100
AcDbLine
 62
9
  6
CONTINUOUS
 10
4.7056365046
 20
7.2481695058
 11
4.7056365046
 21
7.2479965751
  0
LINE
  5
771
100
AcDbEntity
  8
0
100
AcDbLine
 62
7
  6
CONTINUOUS
 10
4.7064974681
 20
9.6761120064
 11
4.7064974681
 21
9.5776868096
  0
LINE
  5
772
100
AcDbEntity
  8
0
100
AcDbLine
 62
7
  6
CONTINUOUS
 10
4.7105902179
 20
9.5776868096
 11
4.7105902179
 21
9.6761120064
  0
LINE
  5
773
100
AcDbEntity
  8
0
100
AcDbLine
 62
7
  6
CONTINUOUS
 10
4.7253215439
 20
7.2834736878
 11
4.7253215439
 21
7.2678498693
  0
LINE
  5
774
100
AcDbEntity
  8
0
100
AcDbLine
 62
7
  6
CONTINUOUS
 10
4.7413485831
 20
9.5776868096
 11
4.7413485831
 21
9.6761120064
  0
LINE
  5
775
100
AcDbEntity
  8
0
100
AcDbLine
 62
7
  6
CONTINUOUS
 10
4.7545204455
 20
9.6761120064
 11
4.7545204455
 21
9.5776868096
  0
LINE
  5
776
100
AcDbEntity
  8
0
100
AcDbLine
 62
7
  6
CONTINUOUS
 10
4.7606034572
 20
9.5776868096
 11
4.7606034572
 21
9.6761120064
  0
LWPOLYLINE
  5
777
100
AcDbEntity
  8
0
100
AcDbPolyline
 62
9
  6
CONTINUOUS
 90
5
 70
0
 10
4.9812270557
 20
7.2678498693
 10
4.9827255246
 20
7.260318436
 10
4.9869927854
 20
7.2539336343
 10
4.9933790961
 20
7.2496675255
 10
5.0009120951
 20
7.2481695058
  0
LINE
  5
778
100
AcDbEntity
  8
0
100
AcDbLine
 62
7
  6
CONTINUOUS
 10
4.784376662
 20
7.2834736878
 11
4.784376662
 21
7.2678498693
  0
LINE
  5
779
100
AcDbEntity
  8
0
100
AcDbLine
 62
7
  6
CONTINUOUS
 10
4.7920548149
 20
9.5776868096
 11
4.7920548149
 21
9.6761120064
  0
LINE
  5
77A
100
AcDbEntity
  8
0
100
AcDbLine
 62
7
  6
CONTINUOUS
 10
4.8036253907
 20
9.6761120064
 11
4.8036253907
 21
9.5776868096
  0
LINE
  5
77B
100
AcDbEntity
  8
0
100
AcDbLine
 62
9
  6
CONTINUOUS
 10
4.8040617014
 20
7.2479965751
 11
4.8040617014
 21
7.2481695058
  0
LINE
  5
77C
100
AcDbEntity
  8
0
100
AcDbLine
 62
7
  6
CONTINUOUS
 10
4.8116320176
 20
9.5776868096
 11
4.8116320176
 21
9.6761120064
  0
LINE
  5
77D
100
AcDbEntity
  8
0
100
AcDbLine
 62
7
  6
CONTINUOUS
 10
4.8276837487
 20
8.0137360793
 11
4.8276837487
 21
9.5776868096
  0
LINE
  5
77E
100
AcDbEntity
  8
0
100
AcDbLine
 62
7
  6
CONTINUOUS
 10
4.8434317802
 20
9.5776868096
 11
4.8434317802
 21
9.6761120064
  0
LINE
  5
77F
100
AcDbEntity
  8
0
100
AcDbLine
 62
7
  6
CONTINUOUS
 10
4.8532742998
 20
9.6761120064
 11
4.8532742998
 21
9.5776868096
  0
LINE
  5
780
100
AcDbEntity
  8
0
100
AcDbLine
 62
9
  6
CONTINUOUS
 10
4.8532742998
 20
7.3631198804
 11
4.8532742998
 21
7.3828049198
  0
LINE
  5
781
100
AcDbEntity
  8
0
100
AcDbLine
 62
7
  6
CONTINUOUS
 10
4.8631168195
 20
9.5776868096
 11
4.8631168195
 21
9.6761120064
  0
LINE
  5
782
100
AcDbEntity
  8
0
100
AcDbLine
 62
7
  6
CONTINUOUS
 10
4.878864851
 20
8.0137360793
 11
4.878864851
 21
9.5776868096
  0
LINE
  5
783
100
AcDbEntity
  8
0
100
AcDbLine
 62
7
  6
CONTINUOUS
 10
4.8949165821
 20
9.5776868096
 11
4.8949165821
 21
9.6761120064
  0
LINE
  5
784
100
AcDbEntity
  8
0
100
AcDbLine
 62
9
  6
CONTINUOUS
 10
4.9024868983
 20
7.2481695058
 11
4.9024868983
 21
7.2479965751
  0
LINE
  5
785
100
AcDbEntity
  8
0
100
AcDbLine
 62
7
  6
CONTINUOUS
 10
4.9029232089
 20
9.6761120064
 11
4.9029232089
 21
9.5776868096
  0
LINE
  5
786
100
AcDbEntity
  8
0
100
AcDbLine
 62
7
  6
CONTINUOUS
 10
4.9144937848
 20
9.5776868096
 11
4.9144937848
 21
9.6761120064
  0
LINE
  5
787
100
AcDbEntity
  8
0
100
AcDbLine
 62
7
  6
CONTINUOUS
 10
4.9221719376
 20
7.2834736878
 11
4.9221719376
 21
7.2678498693
  0
LINE
  5
788
100
AcDbEntity
  8
0
100
AcDbLine
 62
7
  6
CONTINUOUS
 10
4.9459451425
 20
9.5776868096
 11
4.9459451425
 21
9.6761120064
  0
LINE
  5
789
100
AcDbEntity
  8
0
100
AcDbLine
 62
7
  6
CONTINUOUS
 10
4.9520281542
 20
9.6761120064
 11
4.9520281542
 21
9.5776868096
  0
LINE
  5
78A
100
AcDbEntity
  8
0
100
AcDbLine
 62
7
  6
CONTINUOUS
 10
4.9652000165
 20
9.5776868096
 11
4.9652000165
 21
9.6761120064
  0
LINE
  5
78B
100
AcDbEntity
  8
0
100
AcDbLine
 62
7
  6
CONTINUOUS
 10
4.9812270557
 20
7.2834736878
 11
4.9812270557
 21
7.2678498693
  0
LINE
  5
78C
100
AcDbEntity
  8
0
100
AcDbLine
 62
7
  6
CONTINUOUS
 10
4.9959583818
 20
9.5776868096
 11
4.9959583818
 21
9.6761120064
  0
LINE
  5
78D
100
AcDbEntity
  8
0
100
AcDbLine
 62
7
  6
CONTINUOUS
 10
5.0000511316
 20
9.6761120064
 11
5.0000511316
 21
9.5776868096
  0
LINE
  5
78E
100
AcDbEntity
  8
0
100
AcDbLine
 62
9
  6
CONTINUOUS
 10
5.0009120951
 20
7.2479965751
 11
5.0009120951
 21
7.2481695058
  0
LINE
  5
78F
100
AcDbEntity
  8
0
100
AcDbLine
 62
7
  6
CONTINUOUS
 10
5.0146799667
 20
9.5776868096
 11
5.0146799667
 21
9.6761120064
  0
LINE
  5
790
100
AcDbEntity
  8
0
100
AcDbLine
 62
7
  6
CONTINUOUS
 10
5.0444083444
 20
9.5776868096
 11
5.0444083444
 21
9.6761120064
  0
LINE
  5
791
100
AcDbEntity
  8
0
100
AcDbLine
 62
7
  6
CONTINUOUS
 10
5.0464659913
 20
9.6761120064
 11
5.0464659913
 21
9.5776868096
  0
LWPOLYLINE
  5
792
100
AcDbEntity
  8
0
100
AcDbPolyline
 62
9
  6
CONTINUOUS
 90
5
 70
0
 10
4.7253215439
 20
7.2678498693
 10
4.7238231234
 20
7.2603185538
 10
4.71955596
 20
7.2539337815
 10
4.7131696687
 20
7.249667595
 10
4.7056365046
 20
7.2481695058
  0
LINE
  5
793
100
AcDbEntity
  8
0
100
AcDbLine
 62
7
  6
CONTINUOUS
 10
5.0623915227
 20
9.5776868096
 11
5.0623915227
 21
9.6761120064
  0
LINE
  5
794
100
AcDbEntity
  8
0
100
AcDbLine
 62
7
  6
CONTINUOUS
 10
5.0907642024
 20
9.5776868096
 11
5.0907642024
 21
9.6761120064
  0
LINE
  5
795
100
AcDbEntity
  8
0
100
AcDbLine
 62
9
  6
CONTINUOUS
 10
5.099337292
 20
7.2481695058
 11
5.099337292
 21
7.2479965751
  0
LINE
  5
796
100
AcDbEntity
  8
0
100
AcDbLine
 62
7
  6
CONTINUOUS
 10
5.1078119465
 20
9.5776868096
 11
5.1078119465
 21
9.6761120064
  0
LINE
  5
797
100
AcDbEntity
  8
0
100
AcDbLine
 62
7
  6
CONTINUOUS
 10
5.1170538274
 20
8.0540647623
 11
5.1170538274
 21
9.5776868096
  0
LINE
  5
798
100
AcDbEntity
  8
0
100
AcDbLine
 62
7
  6
CONTINUOUS
 10
5.1190223313
 20
7.2834736878
 11
5.1190223313
 21
7.2678498693
  0
LINE
  5
799
100
AcDbEntity
  8
0
100
AcDbLine
 62
7
  6
CONTINUOUS
 10
5.1345180713
 20
9.5776868096
 11
5.1345180713
 21
9.6761120064
  0
LINE
  5
79A
100
AcDbEntity
  8
0
100
AcDbLine
 62
7
  6
CONTINUOUS
 10
5.1504436027
 20
9.5776868096
 11
5.1504436027
 21
9.6761120064
  0
LINE
  5
79B
100
AcDbEntity
  8
0
100
AcDbLine
 62
7
  6
CONTINUOUS
 10
5.1751905746
 20
9.5776868096
 11
5.1751905746
 21
9.6761120064
  0
LINE
  5
79C
100
AcDbEntity
  8
0
100
AcDbLine
 62
7
  6
CONTINUOUS
 10
5.1898194098
 20
9.5776868096
 11
5.1898194098
 21
9.6761120064
  0
LINE
  5
79D
100
AcDbEntity
  8
0
100
AcDbLine
 62
7
  6
CONTINUOUS
 10
5.2123360959
 20
9.5776868096
 11
5.2123360959
 21
9.6761120064
  0
LINE
  5
79E
100
AcDbEntity
  8
0
100
AcDbLine
 62
7
  6
CONTINUOUS
 10
5.2255079582
 20
9.5776868096
 11
5.2255079582
 21
9.6761120064
  0
LINE
  5
79F
100
AcDbEntity
  8
0
100
AcDbLine
 62
7
  6
CONTINUOUS
 10
5.2455476609
 20
9.5776868096
 11
5.2455476609
 21
9.6761120064
  0
LWPOLYLINE
  5
7A0
100
AcDbEntity
  8
0
100
AcDbPolyline
 62
9
  6
CONTINUOUS
 90
5
 70
0
 10
4.9221719376
 20
7.2678498693
 10
4.9206735171
 20
7.2603185538
 10
4.9164063537
 20
7.2539337815
 10
4.9100200624
 20
7.249667595
 10
4.9024868983
 20
7.2481695058
  0
LWPOLYLINE
  5
7A1
100
AcDbEntity
  8
0
100
AcDbPolyline
 62
7
  6
CONTINUOUS
 90
13
 70
0
 10
5.1170538274
 20
8.0540647623
 10
5.1152582017
 20
8.0452494361
 10
5.1100184297
 20
8.0368770317
 10
5.1020350123
 20
8.0295288585
 10
5.0917549518
 20
8.023171136
 10
5.0796597872
 20
8.0178410991
 10
5.0661015509
 20
8.0134891712
 10
5.0510471274
 20
8.0099795633
 10
5.0343866899
 20
8.0072332804
 10
5.016077755
 20
8.0052112594
 10
4.9959372568
 20
8.0038593113
 10
4.9734658264
 20
8.003109045
 10
4.9480818995
 20
8.00288366
  0
LINE
  5
7A2
100
AcDbEntity
  8
0
100
AcDbLine
 62
7
  6
CONTINUOUS
 10
5.2571182368
 20
9.5776868096
 11
5.2571182368
 21
9.6761120064
  0
LINE
  5
7A3
100
AcDbEntity
  8
0
100
AcDbLine
 62
7
  6
CONTINUOUS
 10
5.274461397
 20
9.5776868096
 11
5.274461397
 21
9.6761120064
  0
LINE
  5
7A4
100
AcDbEntity
  8
AXIS
100
AcDbLine
 62
7
  6
CONTINUOUS
 10
5.2745341424
 20
9.5776868096
 11
5.2745341424
 21
8.00288366
  0
LINE
  5
7A5
100
AcDbEntity
  8
0
100
AcDbLine
 62
7
  6
CONTINUOUS
 10
5.2843039167
 20
9.5776868096
 11
5.2843039167
 21
9.6761120064
  0
LINE
  5
7A6
100
AcDbEntity
  8
0
100
AcDbLine
 62
7
  6
CONTINUOUS
 10
5.298760519
 20
9.5776868096
 11
5.298760519
 21
9.6761120064
  0
LINE
  5
7A7
100
AcDbEntity
  8
AXIS
100
AcDbLine
 62
7
  6
CONTINUOUS
 10
5.3060302053
 20
7.4123324789
 11
5.3060302053
 21
7.3926474395
  0
LINE
  5
7A8
100
AcDbEntity
  8
0
100
AcDbLine
 62
7
  6
CONTINUOUS
 10
5.3067671459
 20
9.5776868096
 11
5.3067671459
 21
9.6761120064
  0
LINE
  5
7A9
100
AcDbEntity
  8
AXIS
100
AcDbLine
 62
7
  6
CONTINUOUS
 10
5.3075289369
 20
7.309127091
 11
5.3075289369
 21
7.283126943
  0
LINE
  5
7AA
100
AcDbEntity
  8
0
100
AcDbLine
 62
7
  6
CONTINUOUS
 10
5.3181788009
 20
9.5776868096
 11
5.3181788009
 21
9.6761120064
  0
LINE
  5
7AB
100
AcDbEntity
  8
0
100
AcDbLine
 62
7
  6
CONTINUOUS
 10
5.3242618126
 20
9.5776868096
 11
5.3242618126
 21
9.6761120064
  0
LINE
  5
7AC
100
AcDbEntity
  8
0
100
AcDbLine
 62
7
  6
CONTINUOUS
 10
5.3257152447
 20
7.2941540419
 11
5.3257152447
 21
7.309127091
  0
LINE
  5
7AD
100
AcDbEntity
  8
0
100
AcDbLine
 62
7
  6
CONTINUOUS
 10
5.3325034917
 20
9.5776868096
 11
5.3325034917
 21
9.6761120064
  0
LINE
  5
7AE
100
AcDbEntity
  8
0
100
AcDbLine
 62
7
  6
CONTINUOUS
 10
5.3365962415
 20
9.5776868096
 11
5.3365962415
 21
9.6761120064
  0
LINE
  5
7AF
100
AcDbEntity
  8
0
100
AcDbLine
 62
7
  6
CONTINUOUS
 10
5.3415776472
 20
9.5776868096
 11
5.3415776472
 21
9.6761120064
  0
LINE
  5
7B0
100
AcDbEntity
  8
0
100
AcDbLine
 62
7
  6
CONTINUOUS
 10
5.3436352941
 20
9.5776868096
 11
5.3436352941
 21
9.6761120064
  0
LINE
  5
7B1
100
AcDbEntity
  8
0
100
AcDbLine
 62
7
  6
CONTINUOUS
 10
5.345301849
 20
9.5776868096
 11
5.345301849
 21
9.6761120064
  0
LINE
  5
7B2
100
AcDbEntity
  8
0
100
AcDbLine
 62
7
  6
CONTINUOUS
 10
5.3650853235
 20
8.0540647623
 11
5.3650853235
 21
9.5776868096
  0
LWPOLYLINE
  5
7B3
100
AcDbEntity
  8
0
100
AcDbPolyline
 62
9
  6
CONTINUOUS
 90
5
 70
0
 10
5.1190223313
 20
7.2678498693
 10
5.1175239108
 20
7.2603185538
 10
5.1132567474
 20
7.2539337815
 10
5.1068704561
 20
7.249667595
 10
5.099337292
 20
7.2481695058
  0
LINE
  5
7B4
100
AcDbEntity
  8
0
100
AcDbLine
 62
7
  6
CONTINUOUS
 10
5.4635105203
 20
7.4123324789
 11
5.4635105203
 21
9.5776868096
  0
LINE
  5
7B5
100
AcDbEntity
  8
0
100
AcDbLine
 62
9
  6
CONTINUOUS
 10
5.47335304
 20
7.2942222427
 11
5.47335304
 21
7.6761120064
  0
LINE
  5
7B6
100
AcDbEntity
  8
0
100
AcDbLine
 62
9
  6
CONTINUOUS
 10
5.4851640636
 20
8.1091828726
 11
5.4851640636
 21
7.6761120064
  0
LINE
  5
7B7
100
AcDbEntity
  8
0
100
AcDbLine
 62
7
  6
CONTINUOUS
 10
5.504849103
 20
8.0894889672
 11
5.504849103
 21
7.6957970458
  0
LINE
  5
7B8
100
AcDbEntity
  8
0
100
AcDbLine
 62
7
  6
CONTINUOUS
 10
5.2866076332
 20
8.00288366
 11
5.3650853235
 21
8.0540647623
  0
LINE
  5
7B9
100
AcDbEntity
  8
AXIS
100
AcDbLine
 62
7
  6
CONTINUOUS
 10
4.2430380794
 20
9.5776868096
 11
5.4635105203
 21
9.5776868096
  0
LINE
  5
7BA
100
AcDbEntity
  8
0
100
AcDbLine
 62
7
  6
CONTINUOUS
 10
4.3612467506
 20
9.6761120064
 11
5.345301849
 21
9.6761120064
  0
LINE
  5
7BB
100
AcDbEntity
  8
AXIS
100
AcDbLine
 62
7
  6
CONTINUOUS
 10
9.0131129106
 20
14.1407654626
 11
9.0131129106
 21
14.0423402658
  0
LINE
  5
7BC
100
AcDbEntity
  8
AXIS
100
AcDbLine
 62
7
  6
CONTINUOUS
 10
9.0131129106
 20
13.0187182186
 11
9.0131129106
 21
12.9202930217
  0
LINE
  5
7BD
100
AcDbEntity
  8
AXIS
100
AcDbLine
 62
7
  6
CONTINUOUS
 10
9.0332104418
 20
13.5561197934
 11
9.0332104418
 21
13.504938691
  0
LINE
  5
7BE
100
AcDbEntity
  8
AXIS
100
AcDbLine
 62
7
  6
CONTINUOUS
 10
9.0721680287
 20
13.9517890847
 11
9.0721680287
 21
13.7943087697
  0
LINE
  5
7BF
100
AcDbEntity
  8
AXIS
100
AcDbLine
 62
7
  6
CONTINUOUS
 10
9.0721680287
 20
13.2667497146
 11
9.0721680287
 21
13.1092693997
  0
LINE
  5
7C0
100
AcDbEntity
  8
0
100
AcDbLine
 62
7
  6
CONTINUOUS
 10
9.4393804409
 20
13.0770363961
 11
9.437322794
 21
13.0966135988
  0
LINE
  5
7C1
100
AcDbEntity
  8
0
100
AcDbLine
 62
7
  6
CONTINUOUS
 10
9.3513283609
 20
13.9147959764
 11
9.3492707139
 21
13.9343731791
  0
LINE
  5
7C2
100
AcDbEntity
  8
0
100
AcDbLine
 62
7
  6
CONTINUOUS
 10
9.3930245829
 20
13.0994996254
 11
9.3930245829
 21
13.1191846647
  0
LINE
  5
7C3
100
AcDbEntity
  8
0
100
AcDbLine
 62
7
  6
CONTINUOUS
 10
9.3930245829
 20
13.9418738196
 11
9.3930245829
 21
13.961558859
  0
LINE
  5
7C4
100
AcDbEntity
  8
0
100
AcDbLine
 62
7
  6
CONTINUOUS
 10
9.3492707139
 20
13.1266853052
 11
9.3513283609
 21
13.1462625079
  0
LINE
  5
7C5
100
AcDbEntity
  8
0
100
AcDbLine
 62
7
  6
CONTINUOUS
 10
9.437322794
 20
13.9644448855
 11
9.4393804409
 21
13.9840220882
  0
LINE
  5
7C6
100
AcDbEntity
  8
0
100
AcDbLine
 62
7
  6
CONTINUOUS
 10
9.3085982106
 20
13.1582955838
 11
9.3126909604
 21
13.1775504579
  0
LINE
  5
7C7
100
AcDbEntity
  8
0
100
AcDbLine
 62
7
  6
CONTINUOUS
 10
9.4837376537
 20
13.9822618809
 11
9.4878304035
 21
14.0015167549
  0
LINE
  5
7C8
100
AcDbEntity
  8
0
100
AcDbLine
 62
7
  6
CONTINUOUS
 10
9.2714526894
 20
13.1939841323
 11
9.2775357011
 21
13.2127057172
  0
LINE
  5
7C9
100
AcDbEntity
  8
0
100
AcDbLine
 62
7
  6
CONTINUOUS
 10
9.531760631
 20
13.9951295989
 11
9.5378436427
 21
14.0138511838
  0
LINE
  5
7CA
100
AcDbEntity
  8
AXIS
100
AcDbLine
 62
7
  6
CONTINUOUS
 10
9.1509081862
 20
12.9202930217
 11
9.2137330036
 21
13.1092693997
  0
LINE
  5
7CB
100
AcDbEntity
  8
AXIS
100
AcDbLine
 62
7
  6
CONTINUOUS
 10
9.2137330036
 20
13.9517890847
 11
9.1509081862
 21
14.1407654626
  0
LINE
  5
7CC
100
AcDbEntity
  8
0
100
AcDbLine
 62
7
  6
CONTINUOUS
 10
9.5378436427
 20
13.0472073005
 11
9.531760631
 21
13.0659288855
  0
LINE
  5
7CD
100
AcDbEntity
  8
0
100
AcDbLine
 62
7
  6
CONTINUOUS
 10
9.2775357011
 20
13.8483527671
 11
9.2714526894
 21
13.8670743521
  0
LINE
  5
7CE
100
AcDbEntity
  8
0
100
AcDbLine
 62
7
  6
CONTINUOUS
 10
9.4878304035
 20
13.0595417295
 11
9.4837376537
 21
13.0787966035
  0
LINE
  5
7CF
100
AcDbEntity
  8
0
100
AcDbLine
 62
7
  6
CONTINUOUS
 10
9.3126909604
 20
13.8835080265
 11
9.3085982106
 21
13.9027629005
  0
LINE
  5
7D0
100
AcDbEntity
  8
0
100
AcDbLine
 62
7
  6
CONTINUOUS
 10
9.2382411243
 20
13.2333599393
 11
9.2462477511
 21
13.2513431176
  0
LINE
  5
7D1
100
AcDbEntity
  8
0
100
AcDbLine
 62
7
  6
CONTINUOUS
 10
9.5808655763
 20
14.0029070581
 11
9.5888722031
 21
14.0208902364
  0
LINE
  5
7D2
100
AcDbEntity
  8
0
100
AcDbLine
 62
7
  6
CONTINUOUS
 10
9.2093273883
 20
13.2759915955
 11
9.2191699079
 21
13.2930393397
  0
LINE
  5
7D3
100
AcDbEntity
  8
0
100
AcDbLine
 62
7
  6
CONTINUOUS
 10
9.6305144854
 20
14.0055090472
 11
9.6403570051
 21
14.0225567914
  0
LINE
  5
7D4
100
AcDbEntity
  8
0
100
AcDbLine
 62
7
  6
CONTINUOUS
 10
9.6403570051
 20
13.038501693
 11
9.6305144854
 21
13.0555494371
  0
LINE
  5
7D5
100
AcDbEntity
  8
0
100
AcDbLine
 62
7
  6
CONTINUOUS
 10
9.2191699079
 20
13.7680191447
 11
9.2093273883
 21
13.7850668889
  0
LINE
  5
7D6
100
AcDbEntity
  8
0
100
AcDbLine
 62
7
  6
CONTINUOUS
 10
9.5888722031
 20
13.0401682479
 11
9.5808655763
 21
13.0581514262
  0
LINE
  5
7D7
100
AcDbEntity
  8
0
100
AcDbLine
 62
7
  6
CONTINUOUS
 10
9.2462477511
 20
13.8097153667
 11
9.2382411243
 21
13.827698545
  0
LINE
  5
7D8
100
AcDbEntity
  8
AXIS
100
AcDbLine
 62
7
  6
CENTER
 10
9.6305144854
 20
13.5305292422
 11
9.6305144854
 21
12.9384032579
  0
LINE
  5
7D9
100
AcDbEntity
  8
AXIS
100
AcDbLine
 62
7
  6
CENTER
 10
9.6305144854
 20
13.5305292422
 11
9.6305144854
 21
14.1226552264
  0
LINE
  5
7DA
100
AcDbEntity
  8
AXIS
100
AcDbLine
 62
7
  6
CONTINUOUS
 10
9.0721680287
 20
13.1092693997
 11
9.0131129106
 21
13.0187182186
  0
LINE
  5
7DB
100
AcDbEntity
  8
0
100
AcDbLine
 62
7
  6
CONTINUOUS
 10
9.1850282662
 20
13.3214120194
 11
9.196598842
 21
13.3373375507
  0
LINE
  5
7DC
100
AcDbEntity
  8
0
100
AcDbLine
 62
7
  6
CONTINUOUS
 10
9.6801633945
 20
14.0029070581
 11
9.6917339703
 21
14.0188325895
  0
LINE
  5
7DD
100
AcDbEntity
  8
0
100
AcDbLine
 62
7
  6
CONTINUOUS
 10
9.1656099844
 20
13.3691235753
 11
9.1787818467
 21
13.3837524104
  0
LINE
  5
7DE
100
AcDbEntity
  8
0
100
AcDbLine
 62
7
  6
CONTINUOUS
 10
9.7292683398
 20
13.9951295989
 11
9.7424402021
 21
14.009758434
  0
LINE
  5
7DF
100
AcDbEntity
  8
0
100
AcDbLine
 62
7
  6
CONTINUOUS
 10
9.7424402021
 20
13.0513000503
 11
9.7292683398
 21
13.0659288855
  0
LINE
  5
7E0
100
AcDbEntity
  8
0
100
AcDbLine
 62
7
  6
CONTINUOUS
 10
9.1787818467
 20
13.6773060739
 11
9.1656099844
 21
13.6919349091
  0
LINE
  5
7E1
100
AcDbEntity
  8
0
100
AcDbLine
 62
7
  6
CONTINUOUS
 10
9.6917339703
 20
13.0422258948
 11
9.6801633945
 21
13.0581514262
  0
LINE
  5
7E2
100
AcDbEntity
  8
0
100
AcDbLine
 62
7
  6
CONTINUOUS
 10
9.196598842
 20
13.7237209336
 11
9.1850282662
 21
13.739646465
  0
LINE
  5
7E3
100
AcDbEntity
  8
AXIS
100
AcDbLine
 62
7
  6
CONTINUOUS
 10
9.0131129106
 20
14.0423402658
 11
9.0721680287
 21
13.9517890847
  0
LINE
  5
7E4
100
AcDbEntity
  8
0
100
AcDbLine
 62
7
  6
CONTINUOUS
 10
9.1512852935
 20
13.4186035255
 11
9.1659141287
 21
13.4317753878
  0
LINE
  5
7E5
100
AcDbEntity
  8
0
100
AcDbLine
 62
7
  6
CONTINUOUS
 10
9.7772913171
 20
13.9822618809
 11
9.7919201523
 21
13.9954337432
  0
LINE
  5
7E6
100
AcDbEntity
  8
0
100
AcDbLine
 62
7
  6
CONTINUOUS
 10
9.7919201523
 20
13.0656247412
 11
9.7772913171
 21
13.0787966035
  0
LINE
  5
7E7
100
AcDbEntity
  8
0
100
AcDbLine
 62
7
  6
CONTINUOUS
 10
9.1659141287
 20
13.6292830965
 11
9.1512852935
 21
13.6424549589
  0
LINE
  5
7E8
100
AcDbEntity
  8
0
100
AcDbLine
 62
7
  6
CONTINUOUS
 10
9.8216485299
 20
13.9840220882
 11
9.8237061768
 21
13.9644448855
  0
LINE
  5
7E9
100
AcDbEntity
  8
0
100
AcDbLine
 62
7
  6
CONTINUOUS
 10
9.9097006099
 20
13.1462625079
 11
9.9117582568
 21
13.1266853052
  0
LINE
  5
7EA
100
AcDbEntity
  8
0
100
AcDbLine
 62
7
  6
CONTINUOUS
 10
9.8680043879
 20
13.961558859
 11
9.8680043879
 21
13.9418738196
  0
LINE
  5
7EB
100
AcDbEntity
  8
0
100
AcDbLine
 62
7
  6
CONTINUOUS
 10
9.8680043879
 20
13.1191846647
 11
9.8680043879
 21
13.0994996254
  0
LINE
  5
7EC
100
AcDbEntity
  8
0
100
AcDbLine
 62
7
  6
CONTINUOUS
 10
9.9117582568
 20
13.9343731791
 11
9.9097006099
 21
13.9147959764
  0
LINE
  5
7ED
100
AcDbEntity
  8
0
100
AcDbLine
 62
7
  6
CONTINUOUS
 10
9.8237061768
 20
13.0966135988
 11
9.8216485299
 21
13.0770363961
  0
LINE
  5
7EE
100
AcDbEntity
  8
0
100
AcDbLine
 62
7
  6
CONTINUOUS
 10
9.9524307602
 20
13.9027629005
 11
9.9483380104
 21
13.8835080265
  0
LINE
  5
7EF
100
AcDbEntity
  8
0
100
AcDbLine
 62
7
  6
CONTINUOUS
 10
9.7772913171
 20
13.0787966035
 11
9.7731985673
 21
13.0595417295
  0
LINE
  5
7F0
100
AcDbEntity
  8
0
100
AcDbLine
 62
7
  6
CONTINUOUS
 10
9.9895762814
 20
13.8670743521
 11
9.9834932697
 21
13.8483527671
  0
LINE
  5
7F1
100
AcDbEntity
  8
0
100
AcDbLine
 62
7
  6
CONTINUOUS
 10
9.7292683398
 20
13.0659288855
 11
9.7231853281
 21
13.0472073005
  0
LINE
  5
7F2
100
AcDbEntity
  8
0
100
AcDbLine
 62
7
  6
CONTINUOUS
 10
10.0227878465
 20
13.827698545
 11
10.0147812197
 21
13.8097153667
  0
LINE
  5
7F3
100
AcDbEntity
  8
0
100
AcDbLine
 62
7
  6
CONTINUOUS
 10
9.6801633945
 20
13.0581514262
 11
9.6721567677
 21
13.0401682479
  0
LINE
  5
7F4
100
AcDbEntity
  8
0
100
AcDbLine
 62
7
  6
CONTINUOUS
 10
9.142211138
 20
13.4693097572
 11
9.1581366694
 21
13.4808803331
  0
LINE
  5
7F5
100
AcDbEntity
  8
0
100
AcDbLine
 62
7
  6
CONTINUOUS
 10
9.8237061768
 20
13.9644448855
 11
9.8396317082
 21
13.9760154614
  0
LINE
  5
7F6
100
AcDbEntity
  8
0
100
AcDbLine
 62
7
  6
CONTINUOUS
 10
9.8396317082
 20
13.085043023
 11
9.8237061768
 21
13.0966135988
  0
LINE
  5
7F7
100
AcDbEntity
  8
0
100
AcDbLine
 62
7
  6
CONTINUOUS
 10
9.1581366694
 20
13.5801781513
 11
9.142211138
 21
13.5917487271
  0
LINE
  5
7F8
100
AcDbEntity
  8
0
100
AcDbLine
 62
7
  6
CONTINUOUS
 10
9.6721567677
 20
14.0208902364
 11
9.6801633945
 21
14.0029070581
  0
LINE
  5
7F9
100
AcDbEntity
  8
0
100
AcDbLine
 62
7
  6
CONTINUOUS
 10
10.0147812197
 20
13.2513431176
 11
10.0227878465
 21
13.2333599393
  0
LINE
  5
7FA
100
AcDbEntity
  8
0
100
AcDbLine
 62
7
  6
CONTINUOUS
 10
9.7231853281
 20
14.0138511838
 11
9.7292683398
 21
13.9951295989
  0
LINE
  5
7FB
100
AcDbEntity
  8
0
100
AcDbLine
 62
7
  6
CONTINUOUS
 10
9.9834932697
 20
13.2127057172
 11
9.9895762814
 21
13.1939841323
  0
LINE
  5
7FC
100
AcDbEntity
  8
0
100
AcDbLine
 62
7
  6
CONTINUOUS
 10
9.7731985673
 20
14.0015167549
 11
9.7772913171
 21
13.9822618809
  0
LINE
  5
7FD
100
AcDbEntity
  8
0
100
AcDbLine
 62
7
  6
CONTINUOUS
 10
9.9483380104
 20
13.1775504579
 11
9.9524307602
 21
13.1582955838
  0
LINE
  5
7FE
100
AcDbEntity
  8
0
100
AcDbLine
 62
7
  6
CONTINUOUS
 10
10.0517015825
 20
13.7850668889
 11
10.0418590628
 21
13.7680191447
  0
LINE
  5
7FF
100
AcDbEntity
  8
0
100
AcDbLine
 62
7
  6
CONTINUOUS
 10
9.6305144854
 20
13.0555494371
 11
9.6206719657
 21
13.038501693
  0
LINE
  5
800
100
AcDbEntity
  8
0
100
AcDbLine
 62
7
  6
CONTINUOUS
 10
10.0760007046
 20
13.739646465
 11
10.0644301288
 21
13.7237209336
  0
LINE
  5
801
100
AcDbEntity
  8
0
100
AcDbLine
 62
7
  6
CONTINUOUS
 10
9.5808655763
 20
13.0581514262
 11
9.5692950005
 21
13.0422258948
  0
LINE
  5
802
100
AcDbEntity
  8
0
100
AcDbLine
 62
7
  6
CONTINUOUS
 10
9.1384869362
 20
13.5206867225
 11
9.1555346804
 21
13.5305292422
  0
LINE
  5
803
100
AcDbEntity
  8
0
100
AcDbLine
 62
7
  6
CONTINUOUS
 10
9.8680043879
 20
13.9418738196
 11
9.8850521321
 21
13.9517163393
  0
LINE
  5
804
100
AcDbEntity
  8
0
100
AcDbLine
 62
7
  6
CONTINUOUS
 10
9.8850521321
 20
13.109342145
 11
9.8680043879
 21
13.1191846647
  0
LINE
  5
805
100
AcDbEntity
  8
0
100
AcDbLine
 62
7
  6
CONTINUOUS
 10
9.1555346804
 20
13.5305292422
 11
9.1384869362
 21
13.5403717619
  0
LINE
  5
806
100
AcDbEntity
  8
0
100
AcDbLine
 62
7
  6
CONTINUOUS
 10
9.5692950005
 20
14.0188325895
 11
9.5808655763
 21
14.0029070581
  0
LINE
  5
807
100
AcDbEntity
  8
0
100
AcDbLine
 62
7
  6
CONTINUOUS
 10
10.0644301288
 20
13.3373375507
 11
10.0760007046
 21
13.3214120194
  0
LINE
  5
808
100
AcDbEntity
  8
0
100
AcDbLine
 62
7
  6
CONTINUOUS
 10
9.6206719657
 20
14.0225567914
 11
9.6305144854
 21
14.0055090472
  0
LINE
  5
809
100
AcDbEntity
  8
0
100
AcDbLine
 62
7
  6
CONTINUOUS
 10
10.0418590628
 20
13.2930393397
 11
10.0517015825
 21
13.2759915955
  0
LINE
  5
80A
100
AcDbEntity
  8
0
100
AcDbLine
 62
7
  6
CONTINUOUS
 10
10.0954189864
 20
13.6919349091
 11
10.0822471241
 21
13.6773060739
  0
LINE
  5
80B
100
AcDbEntity
  8
0
100
AcDbLine
 62
7
  6
CONTINUOUS
 10
9.531760631
 20
13.0659288855
 11
9.5185887687
 21
13.0513000503
  0
LINE
  5
80C
100
AcDbEntity
  8
0
100
AcDbLine
 62
7
  6
CONTINUOUS
 10
9.1401534911
 20
13.5721715244
 11
9.1581366694
 21
13.5801781513
  0
LINE
  5
80D
100
AcDbEntity
  8
0
100
AcDbLine
 62
7
  6
CONTINUOUS
 10
9.9097006099
 20
13.9147959764
 11
9.9276837882
 21
13.9228026033
  0
LWPOLYLINE
  5
80E
100
AcDbEntity
  8
0
100
AcDbPolyline
 62
7
  6
CONTINUOUS
 90
16
 70
0
 10
12.0517756708
 20
12.880922943
 10
12.0725384648
 20
12.8810604914
 10
12.0904993735
 20
12.8814343982
 10
12.1066213948
 20
12.8820194661
 10
12.1211774809
 20
12.8828001841
 10
12.1344017025
 20
12.8837709669
 10
12.1465053351
 20
12.8849383614
 10
12.1576275167
 20
12.886317701
 10
12.1678693073
 20
12.8879365512
 10
12.1773006916
 20
12.8898405668
 10
12.1859890245
 20
12.8921144265
 10
12.1939290045
 20
12.8949019015
 10
12.2008938814
 20
12.8984119252
 10
12.2063534759
 20
12.9029808817
 10
12.2091105214
 20
12.9087009949
 10
12.2092529822
 20
12.910450502
  0
LINE
  5
80F
100
AcDbEntity
  8
0
100
AcDbLine
 62
7
  6
CONTINUOUS
 10
11.8746089739
 20
12.878954439
 11
11.4809081862
 21
12.878954439
  0
LINE
  5
810
100
AcDbEntity
  8
0
100
AcDbLine
 62
7
  6
CONTINUOUS
 10
10.7722467689
 20
12.878954439
 11
10.3785459815
 21
12.878954439
  0
LINE
  5
811
100
AcDbEntity
  8
0
100
AcDbLine
 62
7
  6
CONTINUOUS
 10
9.9276837882
 20
13.1382558811
 11
9.9097006099
 21
13.1462625079
  0
LINE
  5
812
100
AcDbEntity
  8
0
100
AcDbLine
 62
7
  6
CONTINUOUS
 10
9.1581366694
 20
13.4808803331
 11
9.1401534911
 21
13.4888869599
  0
LINE
  5
813
100
AcDbEntity
  8
0
100
AcDbLine
 62
7
  6
CONTINUOUS
 10
9.5185887687
 20
14.009758434
 11
9.531760631
 21
13.9951295989
  0
LINE
  5
814
100
AcDbEntity
  8
0
100
AcDbLine
 62
7
  6
CONTINUOUS
 10
10.0822471241
 20
13.3837524104
 11
10.0954189864
 21
13.3691235753
  0
LINE
  5
815
100
AcDbEntity
  8
0
100
AcDbLine
 62
7
  6
CONTINUOUS
 10
10.3194908633
 20
12.9202930217
 11
10.3194908633
 21
14.1407654626
  0
LINE
  5
816
100
AcDbEntity
  8
0
100
AcDbLine
 62
7
  6
CONTINUOUS
 10
10.3588609421
 20
14.162419006
 11
10.3588609421
 21
14.1407654626
  0
LINE
  5
817
100
AcDbEntity
  8
0
100
AcDbLine
 62
7
  6
CONTINUOUS
 10
10.3588609421
 20
12.9202930217
 11
10.3588609421
 21
12.8986394784
  0
LINE
  5
818
100
AcDbEntity
  8
0
100
AcDbLine
 62
7
  6
CONTINUOUS
 10
10.1097436772
 20
13.6424549589
 11
10.0951148421
 21
13.6292830965
  0
LINE
  5
819
100
AcDbEntity
  8
0
100
AcDbLine
 62
7
  6
CONTINUOUS
 10
9.4837376537
 20
13.0787966035
 11
9.4691088185
 21
13.0656247412
  0
LINE
  5
81A
100
AcDbEntity
  8
0
100
AcDbLine
 62
7
  6
CONTINUOUS
 10
9.1471925437
 20
13.6232000848
 11
9.1659141287
 21
13.6292830965
  0
LINE
  5
81B
100
AcDbEntity
  8
0
100
AcDbLine
 62
7
  6
CONTINUOUS
 10
9.9483380104
 20
13.8835080265
 11
9.9670595953
 21
13.8895910382
  0
LINE
  5
81C
100
AcDbEntity
  8
0
100
AcDbLine
 62
7
  6
CONTINUOUS
 10
12.051750234
 20
12.880922943
 11
11.8828453755
 21
12.880922943
  0
LINE
  5
81D
100
AcDbEntity
  8
0
100
AcDbLine
 62
7
  6
CONTINUOUS
 10
11.4726717842
 20
12.880922943
 11
11.3037469158
 21
12.880922943
  0
LINE
  5
81E
100
AcDbEntity
  8
0
100
AcDbLine
 62
9
  6
CONTINUOUS
 10
11.894294013
 20
12.8986394784
 11
11.4612231468
 21
12.8986394784
  0
LINE
  5
81F
100
AcDbEntity
  8
0
100
AcDbLine
 62
9
  6
CONTINUOUS
 10
10.7919318082
 20
12.8986394784
 11
10.3588609421
 21
12.8986394784
  0
LINE
  5
820
100
AcDbEntity
  8
0
100
AcDbLine
 62
9
  6
CONTINUOUS
 10
11.1462625169
 20
12.910450502
 11
11.4612231468
 21
12.910450502
  0
LINE
  5
821
100
AcDbEntity
  8
0
100
AcDbLine
 62
9
  6
CONTINUOUS
 10
11.894294013
 20
12.910450502
 11
12.2092546429
 21
12.910450502
  0
LINE
  5
822
100
AcDbEntity
  8
AXIS
100
AcDbLine
 62
7
  6
CONTINUOUS
 10
9.0131129106
 20
12.9202930217
 11
10.142325509
 21
12.9202930217
  0
LINE
  5
823
100
AcDbEntity
  8
0
100
AcDbLine
 62
7
  6
CONTINUOUS
 10
10.142325509
 20
12.9202930217
 11
12.2176049479
 21
12.9202930217
  0
LINE
  5
824
100
AcDbEntity
  8
0
100
AcDbLine
 62
7
  6
CONTINUOUS
 10
10.516341257
 20
12.9990331792
 11
10.9494121232
 21
12.9990331792
  0
LINE
  5
825
100
AcDbEntity
  8
0
100
AcDbLine
 62
7
  6
CONTINUOUS
 10
11.6187034618
 20
12.9990331792
 11
12.0517743279
 21
12.9990331792
  0
LINE
  5
826
100
AcDbEntity
  8
0
100
AcDbLine
 62
7
  6
CONTINUOUS
 10
9.9670595953
 20
13.1714674462
 11
9.9483380104
 21
13.1775504579
  0
LINE
  5
827
100
AcDbEntity
  8
0
100
AcDbLine
 62
7
  6
CONTINUOUS
 10
9.1659141287
 20
13.4317753878
 11
9.1471925437
 21
13.4378583995
  0
LINE
  5
828
100
AcDbEntity
  8
0
100
AcDbLine
 62
7
  6
CONTINUOUS
 10
9.4691088185
 20
13.9954337432
 11
9.4837376537
 21
13.9822618809
  0
LINE
  5
829
100
AcDbEntity
  8
0
100
AcDbLine
 62
7
  6
CONTINUOUS
 10
10.0951148421
 20
13.4317753878
 11
10.1097436772
 21
13.4186035255
  0
LINE
  5
82A
100
AcDbEntity
  8
0
100
AcDbLine
 62
7
  6
CONTINUOUS
 10
10.3982310208
 20
12.9202930217
 11
10.3982310208
 21
14.1407654626
  0
LINE
  5
82B
100
AcDbEntity
  8
0
100
AcDbLine
 62
7
  6
CONTINUOUS
 10
10.516341257
 20
14.0620253052
 11
10.516341257
 21
12.9990331792
  0
LINE
  5
82C
100
AcDbEntity
  8
0
100
AcDbLine
 62
7
  6
CONTINUOUS
 10
10.1188178328
 20
13.5917487271
 11
10.1028923014
 21
13.5801781513
  0
LINE
  5
82D
100
AcDbEntity
  8
0
100
AcDbLine
 62
7
  6
CONTINUOUS
 10
9.437322794
 20
13.0966135988
 11
9.4213972626
 21
13.085043023
  0
LINE
  5
82E
100
AcDbEntity
  8
0
100
AcDbLine
 62
7
  6
CONTINUOUS
 10
10.1225420346
 20
13.5403717619
 11
10.1054942904
 21
13.5305292422
  0
LINE
  5
82F
100
AcDbEntity
  8
0
100
AcDbLine
 62
7
  6
CONTINUOUS
 10
9.3930245829
 20
13.1191846647
 11
9.3759768387
 21
13.109342145
  0
LINE
  5
830
100
AcDbEntity
  8
0
100
AcDbLine
 62
9
  6
CONTINUOUS
 10
10.5333890012
 20
13.0160809234
 11
10.932364379
 21
13.0160809234
  0
LINE
  5
831
100
AcDbEntity
  8
0
100
AcDbLine
 62
9
  6
CONTINUOUS
 10
11.6357512059
 20
13.0160809234
 11
12.0347265837
 21
13.0160809234
  0
LINE
  5
832
100
AcDbEntity
  8
0
100
AcDbLine
 62
7
  6
CONTINUOUS
 10
12.2121003205
 20
13.0580882973
 11
12.2174790096
 21
13.0580882973
  0
LINE
  5
833
100
AcDbEntity
  8
AXIS
100
AcDbLine
 62
7
  6
CENTER
 10
11.8352388948
 20
13.1171434154
 11
11.6564987374
 21
13.1171434154
  0
LINE
  5
834
100
AcDbEntity
  8
AXIS
100
AcDbLine
 62
7
  6
CENTER
 10
10.7328766901
 20
13.1171434154
 11
10.5541365326
 21
13.1171434154
  0
LINE
  5
835
100
AcDbEntity
  8
AXIS
100
AcDbLine
 62
7
  6
CENTER
 10
10.7328766901
 20
13.1171434154
 11
10.9116168476
 21
13.1171434154
  0
LINE
  5
836
100
AcDbEntity
  8
AXIS
100
AcDbLine
 62
7
  6
CENTER
 10
11.8352388948
 20
13.1171434154
 11
12.0139790523
 21
13.1171434154
  0
LINE
  5
837
100
AcDbEntity
  8
0
100
AcDbLine
 62
7
  6
CONTINUOUS
 10
10.0027481437
 20
13.2086129674
 11
9.9834932697
 21
13.2127057172
  0
LINE
  5
838
100
AcDbEntity
  8
0
100
AcDbLine
 62
7
  6
CONTINUOUS
 10
9.1787818467
 20
13.3837524104
 11
9.1595269727
 21
13.3878451603
  0
LINE
  5
839
100
AcDbEntity
  8
0
100
AcDbLine
 62
7
  6
CONTINUOUS
 10
9.3759768387
 20
13.9517163393
 11
9.3930245829
 21
13.9418738196
  0
LINE
  5
83A
100
AcDbEntity
  8
0
100
AcDbLine
 62
7
  6
CONTINUOUS
 10
10.1054942904
 20
13.5305292422
 11
10.1225420346
 21
13.5206867225
  0
LINE
  5
83B
100
AcDbEntity
  8
0
100
AcDbLine
 62
7
  6
CONTINUOUS
 10
9.4213972626
 20
13.9760154614
 11
9.437322794
 21
13.9644448855
  0
LINE
  5
83C
100
AcDbEntity
  8
0
100
AcDbLine
 62
7
  6
CONTINUOUS
 10
10.1028923014
 20
13.4808803331
 11
10.1188178328
 21
13.4693097572
  0
LINE
  5
83D
100
AcDbEntity
  8
0
100
AcDbLine
 62
9
  6
CONTINUOUS
 10
10.5333890012
 20
14.044977561
 11
10.5333890012
 21
13.0160809234
  0
LINE
  5
83E
100
AcDbEntity
  8
0
100
AcDbLine
 62
7
  6
CONTINUOUS
 10
10.932364379
 20
14.044977561
 11
10.9494121232
 21
14.0620253052
  0
LINE
  5
83F
100
AcDbEntity
  8
0
100
AcDbLine
 62
7
  6
CONTINUOUS
 10
10.1208754797
 20
13.4888869599
 11
10.1028923014
 21
13.4808803331
  0
LINE
  5
840
100
AcDbEntity
  8
0
100
AcDbLine
 62
7
  6
CONTINUOUS
 10
9.3513283609
 20
13.1462625079
 11
9.3333451826
 21
13.1382558811
  0
LINE
  5
841
100
AcDbEntity
  8
AXIS
100
AcDbLine
 62
7
  6
CONTINUOUS
 10
12.2134801628
 20
13.214938691
 11
12.4057649449
 21
13.214938691
  0
LINE
  5
842
100
AcDbEntity
  8
0
100
AcDbLine
 62
7
  6
CONTINUOUS
 10
10.0343584223
 20
13.2492854707
 11
10.0147812197
 21
13.2513431176
  0
LINE
  5
843
100
AcDbEntity
  8
0
100
AcDbLine
 62
7
  6
CONTINUOUS
 10
9.196598842
 20
13.3373375507
 11
9.1770216394
 21
13.3393951977
  0
LINE
  5
844
100
AcDbEntity
  8
0
100
AcDbLine
 62
7
  6
CONTINUOUS
 10
9.3333451826
 20
13.9228026033
 11
9.3513283609
 21
13.9147959764
  0
LINE
  5
845
100
AcDbEntity
  8
0
100
AcDbLine
 62
7
  6
CONTINUOUS
 10
10.1028923014
 20
13.5801781513
 11
10.1208754797
 21
13.5721715244
  0
LINE
  5
846
100
AcDbEntity
  8
0
100
AcDbLine
 62
7
  6
CONTINUOUS
 10
10.932364379
 20
13.0160809234
 11
10.9494121232
 21
12.9990331792
  0
LINE
  5
847
100
AcDbEntity
  8
AXIS
100
AcDbLine
 62
7
  6
CENTER
 10
10.7328766901
 20
13.9439150689
 11
10.7328766901
 21
13.7651749115
  0
LINE
  5
848
100
AcDbEntity
  8
AXIS
100
AcDbLine
 62
7
  6
CENTER
 10
10.7328766901
 20
13.1171434154
 11
10.7328766901
 21
12.9384032579
  0
LINE
  5
849
100
AcDbEntity
  8
AXIS
100
AcDbLine
 62
7
  6
CENTER
 10
10.7328766901
 20
13.1171434154
 11
10.7328766901
 21
13.2958835729
  0
LINE
  5
84A
100
AcDbEntity
  8
AXIS
100
AcDbLine
 62
7
  6
CENTER
 10
10.7328766901
 20
13.9439150689
 11
10.7328766901
 21
14.1226552264
  0
LINE
  5
84B
100
AcDbEntity
  8
0
100
AcDbLine
 62
7
  6
CONTINUOUS
 10
10.7919318082
 20
14.162419006
 11
10.7919318082
 21
14.1407654626
  0
LINE
  5
84C
100
AcDbEntity
  8
0
100
AcDbLine
 62
7
  6
CONTINUOUS
 10
10.7919318082
 20
12.9202930217
 11
10.7919318082
 21
12.8986394784
  0
LINE
  5
84D
100
AcDbEntity
  8
0
100
AcDbLine
 62
7
  6
CONTINUOUS
 10
10.1138364271
 20
13.4378583995
 11
10.0951148421
 21
13.4317753878
  0
LINE
  5
84E
100
AcDbEntity
  8
0
100
AcDbLine
 62
7
  6
CONTINUOUS
 10
9.3126909604
 20
13.1775504579
 11
9.2939693755
 21
13.1714674462
  0
LINE
  5
84F
100
AcDbEntity
  8
0
100
AcDbLine
 62
7
  6
CONTINUOUS
 10
10.0615441022
 20
13.2930393397
 11
10.0418590628
 21
13.2930393397
  0
LINE
  5
850
100
AcDbEntity
  8
0
100
AcDbLine
 62
7
  6
CONTINUOUS
 10
9.2191699079
 20
13.2930393397
 11
9.1994848686
 21
13.2930393397
  0
LINE
  5
851
100
AcDbEntity
  8
AXIS
100
AcDbLine
 62
7
  6
CONTINUOUS
 10
12.4057649449
 20
13.3022024705
 11
12.8034027401
 21
13.3022024705
  0
LINE
  5
852
100
AcDbEntity
  8
0
100
AcDbLine
 62
7
  6
CONTINUOUS
 10
9.2939693755
 20
13.8895910382
 11
9.3126909604
 21
13.8835080265
  0
LINE
  5
853
100
AcDbEntity
  8
0
100
AcDbLine
 62
7
  6
CONTINUOUS
 10
10.0951148421
 20
13.6292830965
 11
10.1138364271
 21
13.6232000848
  0
LINE
  5
854
100
AcDbEntity
  8
0
100
AcDbLine
 62
7
  6
CONTINUOUS
 10
10.0840073314
 20
13.3393951977
 11
10.0644301288
 21
13.3373375507
  0
LINE
  5
855
100
AcDbEntity
  8
0
100
AcDbLine
 62
7
  6
CONTINUOUS
 10
9.2462477511
 20
13.2513431176
 11
9.2266705485
 21
13.2492854707
  0
LINE
  5
856
100
AcDbEntity
  8
AXIS
100
AcDbLine
 62
7
  6
CONTINUOUS
 10
9.0332104418
 20
13.504938691
 11
9.0135254024
 21
13.504938691
  0
LINE
  5
857
100
AcDbEntity
  8
AXIS
100
AcDbLine
 62
7
  6
CENTER
 10
9.6305144854
 20
13.5305292422
 11
8.8673072348
 21
13.5305292422
  0
LINE
  5
858
100
AcDbEntity
  8
AXIS
100
AcDbLine
 62
7
  6
CENTER
 10
9.6305144854
 20
13.5305292422
 11
12.9397164342
 21
13.5305292422
  0
LINE
  5
859
100
AcDbEntity
  8
0
100
AcDbLine
 62
7
  6
CONTINUOUS
 10
9.258280827
 20
13.8524455169
 11
9.2775357011
 21
13.8483527671
  0
LINE
  5
85A
100
AcDbEntity
  8
0
100
AcDbLine
 62
7
  6
CONTINUOUS
 10
10.0822471241
 20
13.6773060739
 11
10.1015019981
 21
13.6732133241
  0
LINE
  5
85B
100
AcDbEntity
  8
0
100
AcDbLine
 62
9
  6
CONTINUOUS
 10
10.932364379
 20
13.0160809234
 11
10.932364379
 21
13.1935599492
  0
LINE
  5
85C
100
AcDbEntity
  8
0
100
AcDbLine
 62
9
  6
CONTINUOUS
 10
10.932364379
 20
13.8674985352
 11
10.932364379
 21
14.044977561
  0
LINE
  5
85D
100
AcDbEntity
  8
0
100
AcDbLine
 62
7
  6
CONTINUOUS
 10
10.9494121232
 20
12.9990331792
 11
10.9494121232
 21
13.2416142652
  0
LINE
  5
85E
100
AcDbEntity
  8
0
100
AcDbLine
 62
7
  6
CONTINUOUS
 10
10.9494121232
 20
13.8194442192
 11
10.9494121232
 21
14.0620253052
  0
LINE
  5
85F
100
AcDbEntity
  8
0
100
AcDbLine
 62
7
  6
CONTINUOUS
 10
10.5333890012
 20
13.0160809234
 11
10.516341257
 21
12.9990331792
  0
LINE
  5
860
100
AcDbEntity
  8
0
100
AcDbLine
 62
7
  6
CONTINUOUS
 10
10.1015019981
 20
13.3878451603
 11
10.0822471241
 21
13.3837524104
  0
LINE
  5
861
100
AcDbEntity
  8
0
100
AcDbLine
 62
7
  6
CONTINUOUS
 10
9.2775357011
 20
13.2127057172
 11
9.258280827
 21
13.2086129674
  0
LINE
  5
862
100
AcDbEntity
  8
AXIS
100
AcDbLine
 62
7
  6
CONTINUOUS
 10
9.0135254024
 20
13.5561197934
 11
9.0332104418
 21
13.5561197934
  0
LINE
  5
863
100
AcDbEntity
  8
0
100
AcDbLine
 62
7
  6
CONTINUOUS
 10
9.2266705485
 20
13.8117730136
 11
9.2462477511
 21
13.8097153667
  0
LINE
  5
864
100
AcDbEntity
  8
0
100
AcDbLine
 62
7
  6
CONTINUOUS
 10
10.0644301288
 20
13.7237209336
 11
10.0840073314
 21
13.7216632867
  0
LINE
  5
865
100
AcDbEntity
  8
0
100
AcDbLine
 62
7
  6
CONTINUOUS
 10
10.5333890012
 20
14.044977561
 11
10.516341257
 21
14.0620253052
  0
LWPOLYLINE
  5
866
100
AcDbEntity
  8
0
100
AcDbPolyline
 62
7
  6
CONTINUOUS
 90
16
 70
0
 10
11.1462631912
 20
12.910450502
 10
11.1464055855
 20
12.908701408
 10
11.1491621359
 20
12.9029815939
 10
11.1546210666
 20
12.8984127554
 10
11.1615852205
 20
12.8949027832
 10
11.1695244315
 20
12.8921153262
 10
11.1782119169
 20
12.8898414697
 10
11.1876423215
 20
12.8879374496
 10
11.197882981
 20
12.8863185819
 10
11.2090038618
 20
12.8849392078
 10
11.2211059723
 20
12.8837717604
 10
11.2343283621
 20
12.8828009038
 10
11.2488822722
 20
12.8820200809
 10
11.2650017185
 20
12.8814348672
 10
11.2829589898
 20
12.8810607711
 10
11.3037422074
 20
12.880922943
  0
LINE
  5
867
100
AcDbEntity
  8
0
100
AcDbLine
 62
7
  6
CONTINUOUS
 10
11.1462625169
 20
14.1506079823
 11
11.1462625169
 21
14.1407654626
  0
LINE
  5
868
100
AcDbEntity
  8
0
100
AcDbLine
 62
7
  6
CONTINUOUS
 10
11.1462625169
 20
12.9202930217
 11
11.1462625169
 21
12.910450502
  0
LINE
  5
869
100
AcDbEntity
  8
AXIS
100
AcDbLine
 62
7
  6
CONTINUOUS
 10
12.4057649449
 20
13.7588560138
 11
12.8034027401
 21
13.7588560138
  0
LINE
  5
86A
100
AcDbEntity
  8
0
100
AcDbLine
 62
7
  6
CONTINUOUS
 10
9.1994848686
 20
13.7680191447
 11
9.2191699079
 21
13.7680191447
  0
LINE
  5
86B
100
AcDbEntity
  8
0
100
AcDbLine
 62
7
  6
CONTINUOUS
 10
10.0418590628
 20
13.7680191447
 11
10.0615441022
 21
13.7680191447
  0
LINE
  5
86C
100
AcDbEntity
  8
0
100
AcDbLine
 62
7
  6
CONTINUOUS
 10
9.1770216394
 20
13.7216632867
 11
9.196598842
 21
13.7237209336
  0
LINE
  5
86D
100
AcDbEntity
  8
0
100
AcDbLine
 62
7
  6
CONTINUOUS
 10
10.0147812197
 20
13.8097153667
 11
10.0343584223
 21
13.8117730136
  0
LINE
  5
86E
100
AcDbEntity
  8
AXIS
100
AcDbLine
 62
7
  6
CONTINUOUS
 10
12.2134801628
 20
13.8461197934
 11
12.4057649449
 21
13.8461197934
  0
LINE
  5
86F
100
AcDbEntity
  8
AXIS
100
AcDbLine
 62
7
  6
CENTER
 10
11.8352388948
 20
13.9439150689
 11
11.6564987374
 21
13.9439150689
  0
LINE
  5
870
100
AcDbEntity
  8
AXIS
100
AcDbLine
 62
7
  6
CENTER
 10
10.7328766901
 20
13.9439150689
 11
10.5541365326
 21
13.9439150689
  0
LINE
  5
871
100
AcDbEntity
  8
AXIS
100
AcDbLine
 62
7
  6
CENTER
 10
10.7328766901
 20
13.9439150689
 11
10.9116168476
 21
13.9439150689
  0
LINE
  5
872
100
AcDbEntity
  8
AXIS
100
AcDbLine
 62
7
  6
CENTER
 10
11.8352388948
 20
13.9439150689
 11
12.0139790523
 21
13.9439150689
  0
LINE
  5
873
100
AcDbEntity
  8
0
100
AcDbLine
 62
7
  6
CONTINUOUS
 10
12.0347265837
 20
14.044977561
 11
12.0517743279
 21
14.0620253052
  0
LINE
  5
874
100
AcDbEntity
  8
0
100
AcDbLine
 62
7
  6
CONTINUOUS
 10
9.1595269727
 20
13.6732133241
 11
9.1787818467
 21
13.6773060739
  0
LINE
  5
875
100
AcDbEntity
  8
0
100
AcDbLine
 62
7
  6
CONTINUOUS
 10
9.9834932697
 20
13.8483527671
 11
10.0027481437
 21
13.8524455169
  0
LINE
  5
876
100
AcDbEntity
  8
0
100
AcDbLine
 62
7
  6
CONTINUOUS
 10
12.2121003205
 20
14.0029701871
 11
12.2174790096
 21
14.0029701871
  0
LINE
  5
877
100
AcDbEntity
  8
0
100
AcDbLine
 62
9
  6
CONTINUOUS
 10
12.0347265837
 20
14.044977561
 11
11.6357512059
 21
14.044977561
  0
LINE
  5
878
100
AcDbEntity
  8
0
100
AcDbLine
 62
9
  6
CONTINUOUS
 10
10.932364379
 20
14.044977561
 11
10.5333890012
 21
14.044977561
  0
LINE
  5
879
100
AcDbEntity
  8
0
100
AcDbLine
 62
7
  6
CONTINUOUS
 10
12.0517743279
 20
14.0620253052
 11
11.6187034618
 21
14.0620253052
  0
LINE
  5
87A
100
AcDbEntity
  8
0
100
AcDbLine
 62
7
  6
CONTINUOUS
 10
10.9494121232
 20
14.0620253052
 11
10.516341257
 21
14.0620253052
  0
LINE
  5
87B
100
AcDbEntity
  8
0
100
AcDbLine
 62
7
  6
CONTINUOUS
 10
12.0347265837
 20
13.0160809234
 11
12.0517743279
 21
12.9990331792
  0
LINE
  5
87C
100
AcDbEntity
  8
0
100
AcDbLine
 62
7
  6
CONTINUOUS
 10
11.4612231468
 20
14.162419006
 11
11.4612231468
 21
14.1407654626
  0
LINE
  5
87D
100
AcDbEntity
  8
0
100
AcDbLine
 62
7
  6
CONTINUOUS
 10
11.4612231468
 20
12.9202930217
 11
11.4612231468
 21
12.8986394784
  0
LWPOLYLINE
  5
87E
100
AcDbEntity
  8
0
100
AcDbPolyline
 62
7
  6
CONTINUOUS
 90
16
 70
0
 10
11.303741489
 20
14.1801355414
 10
11.282978695
 20
14.179997993
 10
11.2650177862
 20
14.1796240862
 10
11.2488957649
 20
14.1790390182
 10
11.2343396789
 20
14.1782583002
 10
11.2211154573
 20
14.1772875175
 10
11.2090118247
 20
14.176120123
 10
11.1978896431
 20
14.1747407834
 10
11.1876478525
 20
14.1731219331
 10
11.1782164681
 20
14.1712179176
 10
11.1695281353
 20
14.1689440578
 10
11.1615881552
 20
14.1661565828
 10
11.1546232784
 20
14.1626465591
 10
11.1491636839
 20
14.1580776027
 10
11.1464066384
 20
14.1523574895
 10
11.1462641775
 20
14.1506079823
  0
LINE
  5
87F
100
AcDbEntity
  8
AXIS
100
AcDbLine
 62
7
  6
CONTINUOUS
 10
10.142325509
 20
14.1407654626
 11
9.0131129106
 21
14.1407654626
  0
LINE
  5
880
100
AcDbEntity
  8
0
100
AcDbLine
 62
7
  6
CONTINUOUS
 10
10.142325509
 20
14.1407654626
 11
12.2176049479
 21
14.1407654626
  0
LINE
  5
881
100
AcDbEntity
  8
0
100
AcDbLine
 62
9
  6
CONTINUOUS
 10
12.2092546429
 20
14.1506079823
 11
11.894294013
 21
14.1506079823
  0
LINE
  5
882
100
AcDbEntity
  8
0
100
AcDbLine
 62
9
  6
CONTINUOUS
 10
11.4612231468
 20
14.1506079823
 11
11.1462625169
 21
14.1506079823
  0
LINE
  5
883
100
AcDbEntity
  8
0
100
AcDbLine
 62
9
  6
CONTINUOUS
 10
10.3588609421
 20
14.162419006
 11
10.7919318082
 21
14.162419006
  0
LINE
  5
884
100
AcDbEntity
  8
0
100
AcDbLine
 62
9
  6
CONTINUOUS
 10
11.4612231468
 20
14.162419006
 11
11.894294013
 21
14.162419006
  0
LINE
  5
885
100
AcDbEntity
  8
0
100
AcDbLine
 62
7
  6
CONTINUOUS
 10
12.0517702431
 20
14.1801355414
 11
11.8828453755
 21
14.1801355414
  0
LINE
  5
886
100
AcDbEntity
  8
0
100
AcDbLine
 62
7
  6
CONTINUOUS
 10
11.4726717842
 20
14.1801355414
 11
11.303766926
 21
14.1801355414
  0
LINE
  5
887
100
AcDbEntity
  8
0
100
AcDbLine
 62
7
  6
CONTINUOUS
 10
10.7722467689
 20
14.1821040453
 11
10.3785459815
 21
14.1821040453
  0
LINE
  5
888
100
AcDbEntity
  8
0
100
AcDbLine
 62
7
  6
CONTINUOUS
 10
11.4809081858
 20
14.1821040453
 11
11.8746089736
 21
14.1821040453
  0
LINE
  5
889
100
AcDbEntity
  8
0
100
AcDbLine
 62
7
  6
CONTINUOUS
 10
11.6187034618
 20
12.9990331792
 11
11.6187034618
 21
13.2416142652
  0
LINE
  5
88A
100
AcDbEntity
  8
0
100
AcDbLine
 62
7
  6
CONTINUOUS
 10
11.6187034618
 20
13.8194442192
 11
11.6187034618
 21
14.0620253052
  0
LINE
  5
88B
100
AcDbEntity
  8
0
100
AcDbLine
 62
9
  6
CONTINUOUS
 10
11.6357512059
 20
14.044977561
 11
11.6357512059
 21
13.8674985352
  0
LINE
  5
88C
100
AcDbEntity
  8
0
100
AcDbLine
 62
9
  6
CONTINUOUS
 10
11.6357512059
 20
13.1935599492
 11
11.6357512059
 21
13.0160809234
  0
LINE
  5
88D
100
AcDbEntity
  8
AXIS
100
AcDbLine
 62
7
  6
CENTER
 10
11.8352388948
 20
13.9439150689
 11
11.8352388948
 21
13.7651749115
  0
LINE
  5
88E
100
AcDbEntity
  8
AXIS
100
AcDbLine
 62
7
  6
CENTER
 10
11.8352388948
 20
13.1171434154
 11
11.8352388948
 21
12.9384032579
  0
LINE
  5
88F
100
AcDbEntity
  8
AXIS
100
AcDbLine
 62
7
  6
CENTER
 10
11.8352388948
 20
13.1171434154
 11
11.8352388948
 21
13.2958835729
  0
LINE
  5
890
100
AcDbEntity
  8
AXIS
100
AcDbLine
 62
7
  6
CENTER
 10
11.8352388948
 20
13.9439150689
 11
11.8352388948
 21
14.1226552264
  0
LINE
  5
891
100
AcDbEntity
  8
0
100
AcDbLine
 62
7
  6
CONTINUOUS
 10
11.6357512059
 20
13.0160809234
 11
11.6187034618
 21
12.9990331792
  0
LINE
  5
892
100
AcDbEntity
  8
0
100
AcDbLine
 62
7
  6
CONTINUOUS
 10
11.6357512059
 20
14.044977561
 11
11.6187034618
 21
14.0620253052
  0
LINE
  5
893
100
AcDbEntity
  8
0
100
AcDbLine
 62
7
  6
CONTINUOUS
 10
11.894294013
 20
14.162419006
 11
11.894294013
 21
14.1407654626
  0
LINE
  5
894
100
AcDbEntity
  8
0
100
AcDbLine
 62
7
  6
CONTINUOUS
 10
11.894294013
 20
12.9202930217
 11
11.894294013
 21
12.8986394784
  0
LINE
  5
895
100
AcDbEntity
  8
0
100
AcDbLine
 62
9
  6
CONTINUOUS
 10
12.0347265837
 20
13.0160809234
 11
12.0347265837
 21
14.044977561
  0
LINE
  5
896
100
AcDbEntity
  8
0
100
AcDbLine
 62
7
  6
CONTINUOUS
 10
12.0517743279
 20
12.9990331792
 11
12.0517743279
 21
14.0620253052
  0
LINE
  5
897
100
AcDbEntity
  8
0
100
AcDbLine
 62
9
  6
CONTINUOUS
 10
12.0601393749
 20
12.9202930217
 11
12.0601393749
 21
14.1407654626
  0
LWPOLYLINE
  5
898
100
AcDbEntity
  8
0
100
AcDbPolyline
 62
7
  6
CONTINUOUS
 90
16
 70
0
 10
12.2092539685
 20
14.1506079823
 10
12.2091115743
 20
14.1523570764
 10
12.2063550239
 20
14.1580768904
 10
12.2008960932
 20
14.1626457289
 10
12.1939319393
 20
14.1661557012
 10
12.1859927282
 20
14.1689431581
 10
12.1773052428
 20
14.1712170147
 10
12.1678748383
 20
14.1731210348
 10
12.1576341788
 20
14.1747399025
 10
12.146513298
 20
14.1761192765
 10
12.1344111874
 20
14.177286724
 10
12.1211887976
 20
14.1782575805
 10
12.1066348876
 20
14.1790384034
 10
12.0905154413
 20
14.1796236171
 10
12.07255817
 20
14.1799977132
 10
12.0517749523
 20
14.1801355414
  0
LINE
  5
899
100
AcDbEntity
  8
0
100
AcDbLine
 62
7
  6
CONTINUOUS
 10
12.2092546429
 20
12.910450502
 11
12.2092546429
 21
12.9202930217
  0
LINE
  5
89A
100
AcDbEntity
  8
0
100
AcDbLine
 62
7
  6
CONTINUOUS
 10
12.2092546429
 20
14.1407654626
 11
12.2092546429
 21
14.1506079823
  0
LINE
  5
89B
100
AcDbEntity
  8
0
100
AcDbLine
 62
9
  6
CONTINUOUS
 10
12.2121003205
 20
13.0580882973
 11
12.2121003205
 21
14.0029701871
  0
LINE
  5
89C
100
AcDbEntity
  8
0
100
AcDbLine
 62
7
  6
CONTINUOUS
 10
12.2134801628
 20
13.0580882973
 11
12.2134801628
 21
14.0029701871
  0
LINE
  5
89D
100
AcDbEntity
  8
0
100
AcDbLine
 62
7
  6
CONTINUOUS
 10
12.2176196898
 20
12.9202930217
 11
12.2176196898
 21
13.0580882973
  0
LINE
  5
89E
100
AcDbEntity
  8
0
100
AcDbLine
 62
7
  6
CONTINUOUS
 10
12.2176196898
 20
14.0029701871
 11
12.2176196898
 21
14.1407654626
  0
LINE
  5
89F
100
AcDbEntity
  8
AXIS
100
AcDbLine
 62
7
  6
CONTINUOUS
 10
12.4057649449
 20
13.2149528712
 11
12.4057649449
 21
13.8461056132
  0
LINE
  5
8A0
100
AcDbEntity
  8
AXIS
100
AcDbLine
 62
7
  6
CONTINUOUS
 10
12.8034027401
 20
13.3022024705
 11
12.8034027401
 21
13.7588560138
  0
CIRCLE
  5
8A1
100
AcDbEntity
  8
0
100
AcDbCircle
 62
7
  6
CONTINUOUS
 10
15.2229827477
 20
1.1139932523
 40
0.252091
  0
CIRCLE
  5
8A2
100
AcDbEntity
  8
0
100
AcDbCircle
 62
7
  6
CONTINUOUS
 10
15.2229827477
 20
1.1139932523
 40
0.182698
  0
ARC
  5
8A3
100
AcDbEntity
  8
0
100
AcDbCircle
 62
7
  6
CONTINUOUS
 10
9.2296483437
 20
7.5698127938
 40
0.157480315
100
AcDbArc
 50
180.0
 51
270.0
  0
ARC
  5
8A4
100
AcDbEntity
  8
0
100
AcDbCircle
 62
9
  6
CONTINUOUS
 10
9.3674436193
 20
8.0871724535
 40
0.1351579809
100
AcDbArc
 50
180.0
 51
275.3793789911
  0
ARC
  5
8A5
100
AcDbEntity
  8
0
100
AcDbCircle
 62
7
  6
CONTINUOUS
 10
9.3674436193
 20
8.0871724535
 40
0.1181102362
100
AcDbArc
 50
180.0
 51
275.3793789911
  0
ARC
  5
8A6
100
AcDbEntity
  8
0
100
AcDbCircle
 62
7
  6
CONTINUOUS
 10
9.0641760295
 20
8.0540647623
 40
0.0511811024
100
AcDbArc
 50
232.6828490396
 51
270.0
  0
ARC
  5
8A7
100
AcDbEntity
  8
0
100
AcDbCircle
 62
7
  6
CONTINUOUS
 10
10.3713807327
 20
7.3828049198
 40
0.0196850394
100
AcDbArc
 50
269.9996926693
 51
360.0
  0
ARC
  5
8A8
100
AcDbEntity
  8
0
100
AcDbCircle
 62
7
  6
CONTINUOUS
 10
10.2139002066
 20
7.3828049198
 40
0.0196850394
100
AcDbArc
 50
180.0
 51
270.0003073307
  0
ARC
  5
8A9
100
AcDbEntity
  8
0
100
AcDbCircle
 62
7
  6
CONTINUOUS
 10
10.1312230482
 20
7.3985529513
 40
0.0157480315
100
AcDbArc
 50
202.212829333
 51
270.0000000014
  0
ARC
  5
8AA
100
AcDbEntity
  8
0
100
AcDbCircle
 62
9
  6
CONTINUOUS
 10
9.249333383
 20
9.3414663371
 40
1.3950005001
100
AcDbArc
 50
275.3793789911
 51
354.6206210089
  0
ARC
  5
8AB
100
AcDbEntity
  8
0
100
AcDbCircle
 62
7
  6
CONTINUOUS
 10
9.249333383
 20
9.3414663371
 40
1.3779527559
100
AcDbArc
 50
275.3793789911
 51
354.6206210089
  0
ARC
  5
8AC
100
AcDbEntity
  8
AXIS
100
AcDbCircle
 62
7
  6
CONTINUOUS
 10
9.6305144854
 20
9.0001860805
 40
0.7822251385
100
AcDbArc
 50
59.874534792
 51
120.125465208
  0
ARC
  5
8AD
100
AcDbEntity
  8
0
100
AcDbCircle
 62
9
  6
CONTINUOUS
 10
9.3674436193
 20
9.2233561009
 40
0.1351579811
100
AcDbArc
 50
90.0
 51
180.0
  0
ARC
  5
8AE
100
AcDbEntity
  8
0
100
AcDbCircle
 62
9
  6
CONTINUOUS
 10
10.5036272667
 20
9.2233561009
 40
0.1351579809
100
AcDbArc
 50
354.6206210089
 51
90.0
  0
ARC
  5
8AF
100
AcDbEntity
  8
0
100
AcDbCircle
 62
7
  6
CONTINUOUS
 10
9.3674436193
 20
9.2233561009
 40
0.1181102362
100
AcDbArc
 50
90.0
 51
180.0
  0
ARC
  5
8B0
100
AcDbEntity
  8
0
100
AcDbCircle
 62
7
  6
CONTINUOUS
 10
10.5036272667
 20
9.2233561009
 40
0.1181102362
100
AcDbArc
 50
354.6206210089
 51
90.0
  0
ARC
  5
8B1
100
AcDbEntity
  8
0
100
AcDbCircle
 62
7
  6
CONTINUOUS
 10
10.5333890012
 20
9.4891041324
 40
0.0196850394
100
AcDbArc
 50
90.0
 51
150.0
  0
ARC
  5
8B2
100
AcDbEntity
  8
0
100
AcDbCircle
 62
7
  6
CONTINUOUS
 10
10.9619319138
 20
7.3828049198
 40
0.0196850394
100
AcDbArc
 50
269.9996926693
 51
360.0
  0
ARC
  5
8B3
100
AcDbEntity
  8
0
100
AcDbCircle
 62
7
  6
CONTINUOUS
 10
10.8044513877
 20
7.3828049198
 40
0.0196850394
100
AcDbArc
 50
180.0
 51
270.0003073307
  0
ARC
  5
8B4
100
AcDbEntity
  8
0
100
AcDbCircle
 62
7
  6
CONTINUOUS
 10
10.7217742293
 20
7.3985529513
 40
0.0157480315
100
AcDbArc
 50
202.212829333
 51
270.0000000014
  0
CIRCLE
  5
8B5
100
AcDbEntity
  8
0
100
AcDbCircle
 62
7
  6
CONTINUOUS
 10
10.5753963752
 20
7.8926474395
 40
0.2165354331
  0
CIRCLE
  5
8B6
100
AcDbEntity
  8
0
100
AcDbCircle
 62
9
  6
CONTINUOUS
 10
10.5753963752
 20
7.8926474395
 40
0.1968503233
  0
CIRCLE
  5
8B7
100
AcDbEntity
  8
0
100
AcDbCircle
 62
7
  6
CONTINUOUS
 10
10.5753963752
 20
7.8926474395
 40
0.0885826772
  0
ARC
  5
8B8
100
AcDbEntity
  8
0
100
AcDbCircle
 62
7
  6
CONTINUOUS
 10
12.0651497487
 20
7.3680807387
 40
0.0196850468
100
AcDbArc
 50
300.8778471893
 51
23.2165036273
  0
ARC
  5
8B9
100
AcDbEntity
  8
0
100
AcDbCircle
 62
7
  6
CONTINUOUS
 10
11.6311963149
 20
7.2711907188
 40
0.0196850394
100
AcDbArc
 50
203.2170808163
 51
264.2190336552
  0
ARC
  5
8BA
100
AcDbEntity
  8
0
100
AcDbCircle
 62
7
  6
CONTINUOUS
 10
11.7016168476
 20
7.9760332663
 40
0.7280366941
100
AcDbArc
 50
264.2945354443
 51
300.8773505003
  0
ARC
  5
8BB
100
AcDbEntity
  8
0
100
AcDbCircle
 62
9
  6
CONTINUOUS
 10
11.7016168476
 20
7.9760332663
 40
0.7083516877
100
AcDbArc
 50
268.7511526506
 51
296.8770238028
  0
ARC
  5
8BC
100
AcDbEntity
  8
AXIS
100
AcDbCircle
 62
7
  6
CONTINUOUS
 10
11.7016168476
 20
7.9760332663
 40
0.6929133858
100
AcDbArc
 50
256.1743921284
 51
307.3568057047
  0
ARC
  5
8BD
100
AcDbEntity
  8
0
100
AcDbCircle
 62
7
  6
CONTINUOUS
 10
11.6777585799
 20
7.8926474395
 40
0.2165354331
100
AcDbArc
 50
349.1458390158
 51
190.8541609765
  0
ARC
  5
8BE
100
AcDbEntity
  8
0
100
AcDbCircle
 62
7
  6
CONTINUOUS
 10
11.6777585799
 20
7.8926474395
 40
0.2054309034
100
AcDbArc
 50
237.4394054496
 51
302.560594633
  0
CIRCLE
  5
8BF
100
AcDbEntity
  8
0
100
AcDbCircle
 62
9
  6
CONTINUOUS
 10
11.6777585799
 20
7.8926474395
 40
0.1968503937
  0
CIRCLE
  5
8C0
100
AcDbEntity
  8
0
100
AcDbCircle
 62
7
  6
CONTINUOUS
 10
11.6777585799
 20
7.8926474395
 40
0.0885826772
  0
ARC
  5
8C1
100
AcDbEntity
  8
0
100
AcDbCircle
 62
7
  6
CONTINUOUS
 10
12.0601393749
 20
9.3414663371
 40
0.157480315
100
AcDbArc
 50
356.0259500363
 51
90.0
  0
ARC
  5
8C2
100
AcDbEntity
  8
0
100
AcDbCircle
 62
7
  6
CONTINUOUS
 10
12.0347265837
 20
9.4891041324
 40
0.0196850394
100
AcDbArc
 50
30.0
 51
90.0
  0
ARC
  5
8C3
100
AcDbEntity
  8
0
100
AcDbCircle
 62
7
  6
CONTINUOUS
 10
11.6357512059
 20
9.4891041324
 40
0.0196850394
100
AcDbArc
 50
90.0
 51
150.0
  0
ARC
  5
8C4
100
AcDbEntity
  8
0
100
AcDbCircle
 62
7
  6
CONTINUOUS
 10
10.932364379
 20
9.4891041324
 40
0.0196850394
100
AcDbArc
 50
30.0
 51
90.0
  0
ARC
  5
8C5
100
AcDbEntity
  8
AXIS
100
AcDbCircle
 62
7
  6
CONTINUOUS
 10
10.1272861389
 20
4.1116659802
 40
1.0905511811
100
AcDbArc
 50
335.4704525442
 51
24.5295474558
  0
ARC
  5
8C6
100
AcDbEntity
  8
AXIS
100
AcDbCircle
 62
7
  6
CONTINUOUS
 10
11.0485459815
 20
4.1116659802
 40
1.0905511811
100
AcDbArc
 50
155.4704525442
 51
204.5295474558
  0
ARC
  5
8C7
100
AcDbEntity
  8
0
100
AcDbCircle
 62
7
  6
CONTINUOUS
 10
9.6305144854
 20
4.1116659802
 40
0.6175195583
100
AcDbArc
 50
182.3750674031
 51
205.2874481273
  0
ARC
  5
8C8
100
AcDbEntity
  8
0
100
AcDbCircle
 62
7
  6
CONTINUOUS
 10
9.6305144854
 20
4.1116659802
 40
0.6175195583
100
AcDbArc
 50
154.7125518727
 51
177.6249325969
  0
ARC
  5
8C9
100
AcDbEntity
  8
0
100
AcDbCircle
 62
9
  6
CONTINUOUS
 10
9.6305144854
 20
4.1116659802
 40
0.5663384559
100
AcDbArc
 50
170.3630553055
 51
189.6369446945
  0
ARC
  5
8CA
100
AcDbEntity
  8
AXIS
100
AcDbCircle
 62
7
  6
CONTINUOUS
 10
10.1311837767
 20
3.8359179487
 40
0.1181102362
100
AcDbArc
 50
91.3517157489
 51
356.7851479727
  0
ARC
  5
8CB
100
AcDbEntity
  8
AXIS
100
AcDbCircle
 62
7
  6
CONTINUOUS
 10
10.7257113358
 20
4.3872565314
 40
0.1181102362
100
AcDbArc
 50
3.8991218764
 51
266.7183660949
  0
CIRCLE
  5
8CC
100
AcDbEntity
  8
AXIS
100
AcDbCircle
 62
7
  6
CONTINUOUS
 10
10.1634672413
 20
3.8359179487
 40
0.0492125984
  0
ARC
  5
8CD
100
AcDbEntity
  8
0
100
AcDbCircle
 62
7
  6
CONTINUOUS
 10
10.3785459815
 20
3.4797762165
 40
0.0196850394
100
AcDbArc
 50
180.0
 51
270.0
  0
ARC
  5
8CE
100
AcDbEntity
  8
0
100
AcDbCircle
 62
7
  6
CONTINUOUS
 10
10.7722467689
 20
3.4797762165
 40
0.0196850394
100
AcDbArc
 50
270.0
 51
360.0
  0
ARC
  5
8CF
100
AcDbEntity
  8
0
100
AcDbCircle
 62
7
  6
CONTINUOUS
 10
11.4809081862
 20
3.4797762165
 40
0.0196850394
100
AcDbArc
 50
245.0220442713
 51
270.0
  0
ARC
  5
8D0
100
AcDbEntity
  8
0
100
AcDbCircle
 62
7
  6
CONTINUOUS
 10
11.8746089736
 20
3.4797762165
 40
0.0196850394
100
AcDbArc
 50
270.0
 51
294.9779557287
  0
ARC
  5
8D1
100
AcDbEntity
  8
0
100
AcDbCircle
 62
7
  6
CONTINUOUS
 10
11.8746089736
 20
4.743555744
 40
0.0196850394
100
AcDbArc
 50
65.0220442713
 51
90.0
  0
ARC
  5
8D2
100
AcDbEntity
  8
0
100
AcDbCircle
 62
7
  6
CONTINUOUS
 10
11.4809081862
 20
4.743555744
 40
0.0196850394
100
AcDbArc
 50
90.0
 51
114.9779557287
  0
ARC
  5
8D3
100
AcDbEntity
  8
0
100
AcDbCircle
 62
7
  6
CONTINUOUS
 10
10.3785459815
 20
4.743555744
 40
0.0196850394
100
AcDbArc
 50
90.0
 51
180.0
  0
ARC
  5
8D4
100
AcDbEntity
  8
0
100
AcDbCircle
 62
7
  6
CONTINUOUS
 10
10.7722467689
 20
4.743555744
 40
0.0196850394
100
AcDbArc
 50
0.0
 51
90.0
  0
ARC
  5
8D5
100
AcDbEntity
  8
AXIS
100
AcDbCircle
 62
7
  6
CONTINUOUS
 10
17.3302100494
 20
9.0001860805
 40
0.7822251385
100
AcDbArc
 50
59.874534792
 51
120.125465208
  0
CIRCLE
  5
8D6
100
AcDbEntity
  8
AXIS
100
AcDbCircle
 62
7
  6
CONTINUOUS
 10
17.3302100494
 20
8.6131198804
 40
0.3155905512
  0
CIRCLE
  5
8D7
100
AcDbEntity
  8
AXIS
100
AcDbCircle
 62
7
  6
CONTINUOUS
 10
17.3302100494
 20
8.6131198804
 40
0.2283267717
  0
ARC
  5
8D8
100
AcDbEntity
  8
AXIS
100
AcDbCircle
 62
7
  6
CONTINUOUS
 10
17.3302100494
 20
8.6131198804
 40
0.191988189
100
AcDbArc
 50
230.5543961942
 51
219.4456038058
  0
ARC
  5
8D9
100
AcDbEntity
  8
0
100
AcDbCircle
 62
7
  6
CONTINUOUS
 10
17.5762730415
 20
7.2676816116
 40
0.0196850394
100
AcDbArc
 50
270.0
 51
359.9999715696
  0
ARC
  5
8DA
100
AcDbEntity
  8
0
100
AcDbCircle
 62
7
  6
CONTINUOUS
 10
17.4778478447
 20
7.2676816116
 40
0.0196850394
100
AcDbArc
 50
180.0000258301
 51
270.0
  0
ARC
  5
8DB
100
AcDbEntity
  8
0
100
AcDbCircle
 62
7
  6
CONTINUOUS
 10
17.3794226478
 20
7.2676816116
 40
0.0196850394
100
AcDbArc
 50
270.0
 51
359.9999715696
  0
ARC
  5
8DC
100
AcDbEntity
  8
0
100
AcDbCircle
 62
7
  6
CONTINUOUS
 10
17.280997451
 20
7.2676816116
 40
0.0196850394
100
AcDbArc
 50
180.0000258301
 51
270.0
  0
ARC
  5
8DD
100
AcDbEntity
  8
0
100
AcDbCircle
 62
7
  6
CONTINUOUS
 10
17.0841470573
 20
7.2676816116
 40
0.0196850394
100
AcDbArc
 50
180.0000258301
 51
270.0
  0
ARC
  5
8DE
100
AcDbEntity
  8
0
100
AcDbCircle
 62
7
  6
CONTINUOUS
 10
17.1825722541
 20
7.2676816116
 40
0.0196850394
100
AcDbArc
 50
270.0
 51
359.9999715696
  0
ARC
  5
8DF
100
AcDbEntity
  8
0
100
AcDbCircle
 62
7
  6
CONTINUOUS
 10
17.9620998132
 20
8.0894978332
 40
0.0196850394
100
AcDbArc
 50
0.0
 51
90.0
  0
ARC
  5
8E0
100
AcDbEntity
  8
0
100
AcDbCircle
 62
7
  6
CONTINUOUS
 10
17.9620998132
 20
7.6957970458
 40
0.0196850394
100
AcDbArc
 50
334.1580672368
 51
0.0033202798
  0
ARC
  5
8E1
100
AcDbEntity
  8
0
100
AcDbCircle
 62
7
  6
CONTINUOUS
 10
16.6983202856
 20
8.0894978332
 40
0.0196850394
100
AcDbArc
 50
90.0
 51
180.0
  0
ARC
  5
8E2
100
AcDbEntity
  8
0
100
AcDbCircle
 62
7
  6
CONTINUOUS
 10
16.6983202856
 20
7.6957970458
 40
0.0196850394
100
AcDbArc
 50
179.9966797162
 51
205.8419327632
  0
ARC
  5
8E3
100
AcDbEntity
  8
0
100
AcDbCircle
 62
7
  6
CONTINUOUS
 10
17.8446583682
 20
9.4891041324
 40
0.0196850394
100
AcDbArc
 50
30.0
 51
90.0
  0
ARC
  5
8E4
100
AcDbEntity
  8
0
100
AcDbCircle
 62
7
  6
CONTINUOUS
 10
16.8157617306
 20
9.4891041324
 40
0.0196850394
100
AcDbArc
 50
90.0
 51
150.0
  0
ARC
  5
8E5
100
AcDbEntity
  8
AXIS
100
AcDbCircle
 62
7
  6
CONTINUOUS
 10
17.2228872148
 20
8.5057970458
 40
0.0185826772
100
AcDbArc
 50
315.0
 51
135.0
  0
CIRCLE
  5
8E6
100
AcDbEntity
  8
AXIS
100
AcDbCircle
 62
7
  6
CONTINUOUS
 10
17.4286352463
 20
8.6131198804
 40
0.0157480315
  0
CIRCLE
  5
8E7
100
AcDbEntity
  8
AXIS
100
AcDbCircle
 62
7
  6
CONTINUOUS
 10
17.2317848526
 20
8.6131198804
 40
0.0157480315
  0
CIRCLE
  5
8E8
100
AcDbEntity
  8
AXIS
100
AcDbCircle
 62
7
  6
CONTINUOUS
 10
17.3302100494
 20
8.5146946836
 40
0.0157480315
  0
CIRCLE
  5
8E9
100
AcDbEntity
  8
AXIS
100
AcDbCircle
 62
7
  6
CONTINUOUS
 10
17.3302100494
 20
8.7115450773
 40
0.0157480315
  0
ARC
  5
8EA
100
AcDbEntity
  8
AXIS
100
AcDbCircle
 62
7
  6
CONTINUOUS
 10
4.8532742998
 20
9.0001860805
 40
0.7822251385
100
AcDbArc
 50
59.874534792
 51
120.125465208
  0
ARC
  5
8EB
100
AcDbEntity
  8
0
100
AcDbCircle
 62
7
  6
CONTINUOUS
 10
4.6072113077
 20
7.2676816116
 40
0.0196850394
100
AcDbArc
 50
180.0000284304
 51
270.0
  0
ARC
  5
8EC
100
AcDbEntity
  8
0
100
AcDbCircle
 62
7
  6
CONTINUOUS
 10
4.7056365046
 20
7.2676816116
 40
0.0196850394
100
AcDbArc
 50
270.0
 51
359.9999741699
  0
ARC
  5
8ED
100
AcDbEntity
  8
0
100
AcDbCircle
 62
7
  6
CONTINUOUS
 10
4.8040617014
 20
7.2676816116
 40
0.0196850394
100
AcDbArc
 50
180.0000284304
 51
270.0
  0
ARC
  5
8EE
100
AcDbEntity
  8
0
100
AcDbCircle
 62
7
  6
CONTINUOUS
 10
4.9024868983
 20
7.2676816116
 40
0.0196850394
100
AcDbArc
 50
270.0
 51
359.9999741699
  0
ARC
  5
8EF
100
AcDbEntity
  8
0
100
AcDbCircle
 62
7
  6
CONTINUOUS
 10
5.099337292
 20
7.2676816116
 40
0.0196850394
100
AcDbArc
 50
270.0
 51
359.9999741699
  0
ARC
  5
8F0
100
AcDbEntity
  8
0
100
AcDbCircle
 62
7
  6
CONTINUOUS
 10
5.0009120951
 20
7.2676816116
 40
0.0196850394
100
AcDbArc
 50
180.0000284304
 51
270.0
  0
ARC
  5
8F1
100
AcDbEntity
  8
0
100
AcDbCircle
 62
7
  6
CONTINUOUS
 10
4.2213845361
 20
8.0894978332
 40
0.0196850394
100
AcDbArc
 50
90.0
 51
180.0000462224
  0
ARC
  5
8F2
100
AcDbEntity
  8
0
100
AcDbCircle
 62
7
  6
CONTINUOUS
 10
4.2213845361
 20
7.6957970458
 40
0.0196850394
100
AcDbArc
 50
179.9999537776
 51
270.0
  0
ARC
  5
8F3
100
AcDbEntity
  8
0
100
AcDbCircle
 62
7
  6
CONTINUOUS
 10
5.4851640636
 20
7.6957970458
 40
0.0196850394
100
AcDbArc
 50
270.0
 51
0.0000462224
  0
ARC
  5
8F4
100
AcDbEntity
  8
0
100
AcDbCircle
 62
7
  6
CONTINUOUS
 10
5.4851640636
 20
8.0894978332
 40
0.0196850394
100
AcDbArc
 50
359.9999537776
 51
90.0
  0
ARC
  5
8F5
100
AcDbEntity
  8
AXIS
100
AcDbCircle
 62
7
  6
CONTINUOUS
 10
10.2037966314
 20
13.1098409008
 40
0.199266398
100
AcDbArc
 50
143.7278755341
 51
252.0319174929
  0
ARC
  5
8F6
100
AcDbEntity
  8
AXIS
100
AcDbCircle
 62
7
  6
CONTINUOUS
 10
9.0269347681
 20
13.1713700979
 40
0.1968503937
100
AcDbArc
 50
341.6107169863
 51
18.3892830137
  0
ARC
  5
8F7
100
AcDbEntity
  8
0
100
AcDbCircle
 62
7
  6
CONTINUOUS
 10
10.3785459815
 20
12.8986394784
 40
0.0196850394
100
AcDbArc
 50
180.0
 51
270.0
  0
ARC
  5
8F8
100
AcDbEntity
  8
AXIS
100
AcDbCircle
 62
7
  6
CONTINUOUS
 10
9.6305144854
 20
13.5305292422
 40
0.6175195583
100
AcDbArc
 50
154.7125518727
 51
177.6249325969
  0
ARC
  5
8F9
100
AcDbEntity
  8
AXIS
100
AcDbCircle
 62
7
  6
CONTINUOUS
 10
9.6305144854
 20
13.5305292422
 40
0.6175195583
100
AcDbArc
 50
182.3750674031
 51
205.2874481273
  0
ARC
  5
8FA
100
AcDbEntity
  8
AXIS
100
AcDbCircle
 62
7
  6
CONTINUOUS
 10
9.6305144854
 20
13.5305292422
 40
0.5118110236
100
AcDbArc
 50
144.5208610901
 51
215.4791389099
  0
ARC
  5
8FB
100
AcDbEntity
  8
AXIS
100
AcDbCircle
 62
7
  6
CONTINUOUS
 10
9.6305144854
 20
13.5305292422
 40
0.5118110236
100
AcDbArc
 50
323.7278755341
 51
36.2721244659
  0
ARC
  5
8FC
100
AcDbEntity
  8
0
100
AcDbCircle
 62
7
  6
CONTINUOUS
 10
9.6305144854
 20
13.5305292422
 40
0.4921259843
100
AcDbArc
 50
355.1459919984
 51
358.8540080016
  0
ARC
  5
8FD
100
AcDbEntity
  8
0
100
AcDbCircle
 62
7
  6
CONTINUOUS
 10
9.6305144854
 20
13.5305292422
 40
0.4921259843
100
AcDbArc
 50
349.1459919984
 51
352.8540080016
  0
ARC
  5
8FE
100
AcDbEntity
  8
0
100
AcDbCircle
 62
7
  6
CONTINUOUS
 10
9.6305144854
 20
13.5305292422
 40
0.4921259843
100
AcDbArc
 50
343.1459919984
 51
346.8540080016
  0
ARC
  5
8FF
100
AcDbEntity
  8
0
100
AcDbCircle
 62
7
  6
CONTINUOUS
 10
9.6305144854
 20
13.5305292422
 40
0.4921259843
100
AcDbArc
 50
337.1459919984
 51
340.8540080016
  0
ARC
  5
900
100
AcDbEntity
  8
0
100
AcDbCircle
 62
7
  6
CONTINUOUS
 10
9.6305144854
 20
13.5305292422
 40
0.4921259843
100
AcDbArc
 50
331.1459919984
 51
334.8540080016
  0
ARC
  5
901
100
AcDbEntity
  8
0
100
AcDbCircle
 62
7
  6
CONTINUOUS
 10
9.6305144854
 20
13.5305292422
 40
0.4921259843
100
AcDbArc
 50
325.1459919984
 51
328.8540080016
  0
ARC
  5
902
100
AcDbEntity
  8
0
100
AcDbCircle
 62
7
  6
CONTINUOUS
 10
9.6305144854
 20
13.5305292422
 40
0.4921259843
100
AcDbArc
 50
319.1459919984
 51
322.8540080016
  0
ARC
  5
903
100
AcDbEntity
  8
0
100
AcDbCircle
 62
7
  6
CONTINUOUS
 10
9.6305144854
 20
13.5305292422
 40
0.4921259843
100
AcDbArc
 50
313.1459919984
 51
316.8540080016
  0
ARC
  5
904
100
AcDbEntity
  8
0
100
AcDbCircle
 62
7
  6
CONTINUOUS
 10
9.6305144854
 20
13.5305292422
 40
0.4921259843
100
AcDbArc
 50
307.1459919984
 51
310.8540080016
  0
ARC
  5
905
100
AcDbEntity
  8
0
100
AcDbCircle
 62
7
  6
CONTINUOUS
 10
9.6305144854
 20
13.5305292422
 40
0.4921259843
100
AcDbArc
 50
301.1459919984
 51
304.8540080016
  0
ARC
  5
906
100
AcDbEntity
  8
0
100
AcDbCircle
 62
7
  6
CONTINUOUS
 10
9.6305144854
 20
13.5305292422
 40
0.4921259843
100
AcDbArc
 50
295.1459919984
 51
298.8540080016
  0
ARC
  5
907
100
AcDbEntity
  8
0
100
AcDbCircle
 62
7
  6
CONTINUOUS
 10
9.6305144854
 20
13.5305292422
 40
0.4921259843
100
AcDbArc
 50
289.1459919984
 51
292.8540080016
  0
ARC
  5
908
100
AcDbEntity
  8
0
100
AcDbCircle
 62
7
  6
CONTINUOUS
 10
9.6305144854
 20
13.5305292422
 40
0.4921259843
100
AcDbArc
 50
283.1459919984
 51
286.8540080016
  0
ARC
  5
909
100
AcDbEntity
  8
0
100
AcDbCircle
 62
7
  6
CONTINUOUS
 10
9.6305144854
 20
13.5305292422
 40
0.4921259843
100
AcDbArc
 50
277.1459919984
 51
280.8540080016
  0
ARC
  5
90A
100
AcDbEntity
  8
0
100
AcDbCircle
 62
7
  6
CONTINUOUS
 10
9.6305144854
 20
13.5305292422
 40
0.4921259843
100
AcDbArc
 50
271.1459919984
 51
274.8540080016
  0
ARC
  5
90B
100
AcDbEntity
  8
0
100
AcDbCircle
 62
7
  6
CONTINUOUS
 10
9.6305144854
 20
13.5305292422
 40
0.4921259843
100
AcDbArc
 50
265.1459919984
 51
268.8540080016
  0
ARC
  5
90C
100
AcDbEntity
  8
0
100
AcDbCircle
 62
7
  6
CONTINUOUS
 10
9.6305144854
 20
13.5305292422
 40
0.4921259843
100
AcDbArc
 50
259.1459919984
 51
262.8540080016
  0
ARC
  5
90D
100
AcDbEntity
  8
0
100
AcDbCircle
 62
7
  6
CONTINUOUS
 10
9.6305144854
 20
13.5305292422
 40
0.4921259843
100
AcDbArc
 50
253.1459919984
 51
256.8540080016
  0
ARC
  5
90E
100
AcDbEntity
  8
0
100
AcDbCircle
 62
7
  6
CONTINUOUS
 10
9.6305144854
 20
13.5305292422
 40
0.4921259843
100
AcDbArc
 50
247.1459919984
 51
250.8540080016
  0
ARC
  5
90F
100
AcDbEntity
  8
0
100
AcDbCircle
 62
7
  6
CONTINUOUS
 10
9.6305144854
 20
13.5305292422
 40
0.4921259843
100
AcDbArc
 50
241.1459919984
 51
244.8540080016
  0
ARC
  5
910
100
AcDbEntity
  8
0
100
AcDbCircle
 62
7
  6
CONTINUOUS
 10
9.6305144854
 20
13.5305292422
 40
0.4921259843
100
AcDbArc
 50
235.1459919984
 51
238.8540080016
  0
ARC
  5
911
100
AcDbEntity
  8
0
100
AcDbCircle
 62
7
  6
CONTINUOUS
 10
9.6305144854
 20
13.5305292422
 40
0.4921259843
100
AcDbArc
 50
229.1459919984
 51
232.8540080016
  0
ARC
  5
912
100
AcDbEntity
  8
0
100
AcDbCircle
 62
7
  6
CONTINUOUS
 10
9.6305144854
 20
13.5305292422
 40
0.4921259843
100
AcDbArc
 50
223.1459919984
 51
226.8540080016
  0
ARC
  5
913
100
AcDbEntity
  8
0
100
AcDbCircle
 62
7
  6
CONTINUOUS
 10
9.6305144854
 20
13.5305292422
 40
0.4921259843
100
AcDbArc
 50
217.1459919984
 51
220.8540080016
  0
ARC
  5
914
100
AcDbEntity
  8
0
100
AcDbCircle
 62
7
  6
CONTINUOUS
 10
9.6305144854
 20
13.5305292422
 40
0.4921259843
100
AcDbArc
 50
211.1459919984
 51
214.8540080016
  0
ARC
  5
915
100
AcDbEntity
  8
0
100
AcDbCircle
 62
7
  6
CONTINUOUS
 10
9.6305144854
 20
13.5305292422
 40
0.4921259843
100
AcDbArc
 50
205.1459919984
 51
208.8540080016
  0
ARC
  5
916
100
AcDbEntity
  8
0
100
AcDbCircle
 62
7
  6
CONTINUOUS
 10
9.6305144854
 20
13.5305292422
 40
0.4921259843
100
AcDbArc
 50
199.1459919984
 51
202.8540080016
  0
ARC
  5
917
100
AcDbEntity
  8
0
100
AcDbCircle
 62
7
  6
CONTINUOUS
 10
9.6305144854
 20
13.5305292422
 40
0.4921259843
100
AcDbArc
 50
193.1459919984
 51
196.8540080016
  0
ARC
  5
918
100
AcDbEntity
  8
0
100
AcDbCircle
 62
7
  6
CONTINUOUS
 10
9.6305144854
 20
13.5305292422
 40
0.4921259843
100
AcDbArc
 50
187.1459919984
 51
190.8540080016
  0
ARC
  5
919
100
AcDbEntity
  8
0
100
AcDbCircle
 62
7
  6
CONTINUOUS
 10
9.6305144854
 20
13.5305292422
 40
0.4921259843
100
AcDbArc
 50
181.1459919984
 51
184.8540080016
  0
ARC
  5
91A
100
AcDbEntity
  8
0
100
AcDbCircle
 62
7
  6
CONTINUOUS
 10
9.6305144854
 20
13.5305292422
 40
0.4921259843
100
AcDbArc
 50
175.1459919984
 51
178.8540080016
  0
ARC
  5
91B
100
AcDbEntity
  8
0
100
AcDbCircle
 62
7
  6
CONTINUOUS
 10
9.6305144854
 20
13.5305292422
 40
0.4921259843
100
AcDbArc
 50
169.1459919984
 51
172.8540080016
  0
ARC
  5
91C
100
AcDbEntity
  8
0
100
AcDbCircle
 62
7
  6
CONTINUOUS
 10
9.6305144854
 20
13.5305292422
 40
0.4921259843
100
AcDbArc
 50
163.1459919984
 51
166.8540080016
  0
ARC
  5
91D
100
AcDbEntity
  8
0
100
AcDbCircle
 62
7
  6
CONTINUOUS
 10
9.6305144854
 20
13.5305292422
 40
0.4921259843
100
AcDbArc
 50
157.1459919984
 51
160.8540080016
  0
ARC
  5
91E
100
AcDbEntity
  8
0
100
AcDbCircle
 62
7
  6
CONTINUOUS
 10
9.6305144854
 20
13.5305292422
 40
0.4921259843
100
AcDbArc
 50
151.1459919984
 51
154.8540080016
  0
ARC
  5
91F
100
AcDbEntity
  8
0
100
AcDbCircle
 62
7
  6
CONTINUOUS
 10
9.6305144854
 20
13.5305292422
 40
0.4921259843
100
AcDbArc
 50
145.1459919984
 51
148.8540080016
  0
ARC
  5
920
100
AcDbEntity
  8
0
100
AcDbCircle
 62
7
  6
CONTINUOUS
 10
9.6305144854
 20
13.5305292422
 40
0.4921259843
100
AcDbArc
 50
139.1459919984
 51
142.8540080016
  0
ARC
  5
921
100
AcDbEntity
  8
0
100
AcDbCircle
 62
7
  6
CONTINUOUS
 10
9.6305144854
 20
13.5305292422
 40
0.4921259843
100
AcDbArc
 50
133.1459919984
 51
136.8540080016
  0
ARC
  5
922
100
AcDbEntity
  8
0
100
AcDbCircle
 62
7
  6
CONTINUOUS
 10
9.6305144854
 20
13.5305292422
 40
0.4921259843
100
AcDbArc
 50
127.1459919984
 51
130.8540080016
  0
ARC
  5
923
100
AcDbEntity
  8
0
100
AcDbCircle
 62
7
  6
CONTINUOUS
 10
9.6305144854
 20
13.5305292422
 40
0.4921259843
100
AcDbArc
 50
121.1459919984
 51
124.8540080016
  0
ARC
  5
924
100
AcDbEntity
  8
0
100
AcDbCircle
 62
7
  6
CONTINUOUS
 10
9.6305144854
 20
13.5305292422
 40
0.4921259843
100
AcDbArc
 50
115.1459919984
 51
118.8540080016
  0
ARC
  5
925
100
AcDbEntity
  8
0
100
AcDbCircle
 62
7
  6
CONTINUOUS
 10
9.6305144854
 20
13.5305292422
 40
0.4921259843
100
AcDbArc
 50
109.1459919984
 51
112.8540080016
  0
ARC
  5
926
100
AcDbEntity
  8
0
100
AcDbCircle
 62
7
  6
CONTINUOUS
 10
9.6305144854
 20
13.5305292422
 40
0.4921259843
100
AcDbArc
 50
103.1459919984
 51
106.8540080016
  0
ARC
  5
927
100
AcDbEntity
  8
0
100
AcDbCircle
 62
7
  6
CONTINUOUS
 10
9.6305144854
 20
13.5305292422
 40
0.4921259843
100
AcDbArc
 50
97.1459919984
 51
100.8540080016
  0
ARC
  5
928
100
AcDbEntity
  8
0
100
AcDbCircle
 62
7
  6
CONTINUOUS
 10
9.6305144854
 20
13.5305292422
 40
0.4921259843
100
AcDbArc
 50
91.1459919984
 51
94.8540080016
  0
ARC
  5
929
100
AcDbEntity
  8
0
100
AcDbCircle
 62
7
  6
CONTINUOUS
 10
9.6305144854
 20
13.5305292422
 40
0.4921259843
100
AcDbArc
 50
85.1459919984
 51
88.8540080016
  0
ARC
  5
92A
100
AcDbEntity
  8
0
100
AcDbCircle
 62
7
  6
CONTINUOUS
 10
9.6305144854
 20
13.5305292422
 40
0.4921259843
100
AcDbArc
 50
79.1459919984
 51
82.8540080016
  0
ARC
  5
92B
100
AcDbEntity
  8
0
100
AcDbCircle
 62
7
  6
CONTINUOUS
 10
9.6305144854
 20
13.5305292422
 40
0.4921259843
100
AcDbArc
 50
73.1459919984
 51
76.8540080016
  0
ARC
  5
92C
100
AcDbEntity
  8
0
100
AcDbCircle
 62
7
  6
CONTINUOUS
 10
9.6305144854
 20
13.5305292422
 40
0.4921259843
100
AcDbArc
 50
67.1459919984
 51
70.8540080016
  0
ARC
  5
92D
100
AcDbEntity
  8
0
100
AcDbCircle
 62
7
  6
CONTINUOUS
 10
9.6305144854
 20
13.5305292422
 40
0.4921259843
100
AcDbArc
 50
61.1459919984
 51
64.8540080016
  0
ARC
  5
92E
100
AcDbEntity
  8
0
100
AcDbCircle
 62
7
  6
CONTINUOUS
 10
9.6305144854
 20
13.5305292422
 40
0.4921259843
100
AcDbArc
 50
55.1459919984
 51
58.8540080016
  0
ARC
  5
92F
100
AcDbEntity
  8
0
100
AcDbCircle
 62
7
  6
CONTINUOUS
 10
9.6305144854
 20
13.5305292422
 40
0.4921259843
100
AcDbArc
 50
49.1459919984
 51
52.8540080016
  0
ARC
  5
930
100
AcDbEntity
  8
0
100
AcDbCircle
 62
7
  6
CONTINUOUS
 10
9.6305144854
 20
13.5305292422
 40
0.4921259843
100
AcDbArc
 50
43.1459919984
 51
46.8540080016
  0
ARC
  5
931
100
AcDbEntity
  8
0
100
AcDbCircle
 62
7
  6
CONTINUOUS
 10
9.6305144854
 20
13.5305292422
 40
0.4921259843
100
AcDbArc
 50
37.1459919984
 51
40.8540080016
  0
ARC
  5
932
100
AcDbEntity
  8
0
100
AcDbCircle
 62
7
  6
CONTINUOUS
 10
9.6305144854
 20
13.5305292422
 40
0.4921259843
100
AcDbArc
 50
31.1459919984
 51
34.8540080016
  0
ARC
  5
933
100
AcDbEntity
  8
0
100
AcDbCircle
 62
7
  6
CONTINUOUS
 10
9.6305144854
 20
13.5305292422
 40
0.4921259843
100
AcDbArc
 50
25.1459919984
 51
28.8540080016
  0
ARC
  5
934
100
AcDbEntity
  8
0
100
AcDbCircle
 62
7
  6
CONTINUOUS
 10
9.6305144854
 20
13.5305292422
 40
0.4921259843
100
AcDbArc
 50
19.1459919984
 51
22.8540080016
  0
ARC
  5
935
100
AcDbEntity
  8
0
100
AcDbCircle
 62
7
  6
CONTINUOUS
 10
9.6305144854
 20
13.5305292422
 40
0.4921259843
100
AcDbArc
 50
13.1459919984
 51
16.8540080016
  0
ARC
  5
936
100
AcDbEntity
  8
0
100
AcDbCircle
 62
7
  6
CONTINUOUS
 10
9.6305144854
 20
13.5305292422
 40
0.4921259843
100
AcDbArc
 50
7.1459919984
 51
10.8540080016
  0
ARC
  5
937
100
AcDbEntity
  8
0
100
AcDbCircle
 62
7
  6
CONTINUOUS
 10
9.6305144854
 20
13.5305292422
 40
0.4921259843
100
AcDbArc
 50
1.1459919984
 51
4.8540080016
  0
CIRCLE
  5
938
100
AcDbEntity
  8
AXIS
100
AcDbCircle
 62
7
  6
CONTINUOUS
 10
9.6305144854
 20
13.5305292422
 40
0.3937007874
  0
ARC
  5
939
100
AcDbEntity
  8
AXIS
100
AcDbCircle
 62
7
  6
CONTINUOUS
 10
9.0269347681
 20
13.8896883864
 40
0.1968503937
100
AcDbArc
 50
341.6107169863
 51
18.3892830137
  0
ARC
  5
93A
100
AcDbEntity
  8
AXIS
100
AcDbCircle
 62
7
  6
CONTINUOUS
 10
10.2037966314
 20
13.9512175836
 40
0.199266398
100
AcDbArc
 50
107.9680825071
 51
216.2721244659
  0
ARC
  5
93B
100
AcDbEntity
  8
0
100
AcDbCircle
 62
7
  6
CONTINUOUS
 10
10.3785459815
 20
14.162419006
 40
0.0196850394
100
AcDbArc
 50
90.0
 51
180.0
  0
ARC
  5
93C
100
AcDbEntity
  8
0
100
AcDbCircle
 62
9
  6
CONTINUOUS
 10
11.2840577925
 20
12.9387477461
 40
0.4513489253
100
AcDbArc
 50
42.1462423946
 51
137.8537576054
  0
ARC
  5
93D
100
AcDbEntity
  8
0
100
AcDbCircle
 62
7
  6
CONTINUOUS
 10
11.2840577925
 20
12.9387477461
 40
0.4343011811
100
AcDbArc
 50
35.9244326706
 51
144.0755673294
  0
CIRCLE
  5
93E
100
AcDbEntity
  8
AXIS
100
AcDbCircle
 62
7
  6
CONTINUOUS
 10
10.7328766901
 20
13.1171434154
 40
0.0787401575
  0
CIRCLE
  5
93F
100
AcDbEntity
  8
AXIS
100
AcDbCircle
 62
7
  6
CONTINUOUS
 10
11.8352388948
 20
13.1171434154
 40
0.0787401575
  0
ARC
  5
940
100
AcDbEntity
  8
0
100
AcDbCircle
 62
7
  6
CONTINUOUS
 10
11.8746089736
 20
12.8986394784
 40
0.0196850394
100
AcDbArc
 50
270.0
 51
360.0
  0
ARC
  5
941
100
AcDbEntity
  8
0
100
AcDbCircle
 62
7
  6
CONTINUOUS
 10
11.4809081862
 20
12.8986394784
 40
0.0196850394
100
AcDbArc
 50
180.0
 51
270.0
  0
ARC
  5
942
100
AcDbEntity
  8
0
100
AcDbCircle
 62
7
  6
CONTINUOUS
 10
10.7722467689
 20
12.8986394784
 40
0.0196850394
100
AcDbArc
 50
270.0
 51
360.0
  0
ARC
  5
943
100
AcDbEntity
  8
0
100
AcDbCircle
 62
9
  6
CONTINUOUS
 10
11.2840577925
 20
14.1223107382
 40
0.4513489253
100
AcDbArc
 50
222.1462423946
 51
317.8537576054
  0
ARC
  5
944
100
AcDbEntity
  8
0
100
AcDbCircle
 62
7
  6
CONTINUOUS
 10
11.2840577925
 20
14.1223107382
 40
0.4343011811
100
AcDbArc
 50
215.9244326706
 51
324.0755673294
  0
CIRCLE
  5
945
100
AcDbEntity
  8
AXIS
100
AcDbCircle
 62
7
  6
CONTINUOUS
 10
10.7328766901
 20
13.9439150689
 40
0.0787401575
  0
CIRCLE
  5
946
100
AcDbEntity
  8
AXIS
100
AcDbCircle
 62
7
  6
CONTINUOUS
 10
11.8352388948
 20
13.9439150689
 40
0.0787401575
  0
ARC
  5
947
100
AcDbEntity
  8
0
100
AcDbCircle
 62
7
  6
CONTINUOUS
 10
10.7722467689
 20
14.162419006
 40
0.0196850394
100
AcDbArc
 50
0.0
 51
90.0
  0
ARC
  5
948
100
AcDbEntity
  8
0
100
AcDbCircle
 62
7
  6
CONTINUOUS
 10
11.4809081862
 20
14.162419006
 40
0.0196850394
100
AcDbArc
 50
90.0
 51
180.0
  0
ARC
  5
949
100
AcDbEntity
  8
0
100
AcDbCircle
 62
7
  6
CONTINUOUS
 10
11.8746089736
 20
14.162419006
 40
0.0196850394
100
AcDbArc
 50
0.0
 51
90.0
  0
ELLIPSE
  5
94A
100
AcDbEntity
  8
0
100
AcDbEllipse
 62
7
  6
CONTINUOUS
 10
11.6777585799
 20
7.5894978332
 30
0.0
 11
0.531496063
 21
0.0
 31
0.0
 40
0.5555555556
 41
5.6987145204
 42
5.7635186031
  0
ELLIPSE
  5
94B
100
AcDbEntity
  8
AXIS
100
AcDbEllipse
 62
7
  6
CONTINUOUS
 10
10.2926404696
 20
4.1116659802
 30
0.0
 11
0.0
 21
0.2896203789
 31
0.0
 40
0.6760630749
 41
2.9173903177
 42
8.4296607641
  0
ELLIPSE
  5
94C
100
AcDbEntity
  8
AXIS
100
AcDbEllipse
 62
7
  6
CONTINUOUS
 10
10.8831916507
 20
4.1116659802
 30
0.0
 11
0.0
 21
0.2896203789
 31
0.0
 40
0.6760630749
 41
7.2782888067
 42
12.7702475497
  0
ENDSEC
  0
SECTION
  2
OBJECTS
  0
DICTIONARY
  5
C
100
AcDbDictionary
280
0
281
1
  3
ACAD_GROUP
350
D
  3
ACAD_MLINESTYLE
350
17
  3
ACAD_LAYOUT
350
1A
  3
ACAD_PLOTSETTINGS
350
19
  3
ACAD_PLOTSTYLENAME
350
E
  0
DICTIONARY
  5
D
102
{ACAD_REACTORS
330
C
102
}
100
AcDbDictionary
280
0
281
1
  0
ACDBDICTIONARYWDFLT
  5
E
102
{ACAD_REACTORS
330
C
102
}
100
AcDbDictionary
281
1
  3
Normal
350
F
100
AcDbDictionaryWithDefault
340
F
  0
DICTIONARY
  5
17
102
{ACAD_REACTORS
330
C
102
}
100
AcDbDictionary
280
0
281
1
  3
Standard
350
18
  0
DICTIONARY
  5
19
102
{ACAD_REACTORS
330
C
102
}
100
AcDbDictionary
281
1
  0
DICTIONARY
  5
1A
102
{ACAD_REACTORS
330
C
102
}
100
AcDbDictionary
281
1
  3
Model
350
94D
  3
Layout1
350
94E
  0
ACDBPLACEHOLDER
  5
F
102
{ACAD_REACTORS
330
E
102
}
  0
MLINESTYLE
  5
18
102
{ACAD_REACTORS
330
17
102
}
100
AcDbMlineStyle
  2
STANDARD
 70
0
  3

 62
256
 51
90.0
 52
90.0
 71
2
 49
0.5
 62
256
  6
BYLAYER
 49
-0.5
 62
256
  6
BYLAYER
  0
LAYOUT
  5
94D
102
{ACAD_REACTORS
330
1A
102
}
100
AcDbPlotSettings
  1

  2
none_device
  4
ANSI_C_(22.00_x_17.00_Inches)
  6

 40
0.0
 41
0.0
 42
0.0
 43
0.0
 44
558.8
 45
431.8
 46
0.0
 47
0.0
 48
0.0
 49
0.0
140
0.0
141
0.0
142
1.0
143
1.0
 70
1024
 72
0
 73
0
 74
0
  7

 75
0
147
1.0
148
0.0
149
0.0
100
AcDbLayout
  1
Model
 70
0
 71
0
 10
0.0
 20
0.0
 11
22.0
 21
17.0
 12
0.0
 22
0.0
 32
0.0
 14
0.0
 24
0.0
 34
0.0
 15
0.0
 25
0.0
 35
0.0
146
0.0
 13
0.0
 23
0.0
 33
0.0
 16
1.0
 26
0.0
 36
0.0
 17
0.0
 27
1.0
 37
0.0
 76
0
330
20B
345
0
346
0
  0
LAYOUT
  5
94E
102
{ACAD_REACTORS
330
1A
102
}
100
AcDbPlotSettings
  1

  2
none_device
  4
ANSI_C_(22.00_x_17.00_Inches)
  6

 40
0.0
 41
0.0
 42
0.0
 43
0.0
 44
558.8
 45
431.8
 46
0.0
 47
0.0
 48
0.0
 49
0.0
140
0.0
141
0.0
142
1.0
143
1.0
 70
0
 72
0
 73
0
 74
0
  7

 75
0
147
1.0
148
0.0
149
0.0
100
AcDbLayout
  1
Layout1
 70
0
 71
1
 10
0.0
 20
0.0
 11
22.0
 21
17.0
 12
0.0
 22
0.0
 32
0.0
 14
0.0
 24
0.0
 34
0.0
 15
0.0
 25
0.0
 35
0.0
146
0.0
 13
0.0
 23
0.0
 33
0.0
 16
1.0
 26
0.0
 36
0.0
 17
0.0
 27
1.0
 37
0.0
 76
0
330
20C
345
0
346
0
  0
ENDSEC
  0
EOF
