999
DXF file: 146776_1.dxf
999
Pro/ENGINEER 2006170 by Parametric Technology Corporation
  0
SECTION
  2
HEADER
  9
$ACADVER
  1
AC1015
  9
$DWGCODEPAGE
  3
ANSI_1252
  9
$EXTMAX
 10
22.0
 20
17.0
 30
0.0
  9
$EXTMIN
 10
0.0
 20
0.0
 30
0.0
  9
$LIMMIN
 10
0.0
 20
0.0
  9
$LIMMAX
 10
22.0
 20
17.0
  9
$VIEWCTR
 10
11.0
 20
8.5
  9
$VIEWSIZE
 40
17.0
  9
$CLAYER
  8
0
  9
$LTSCALE
 40
1.21
  9
$CELTYPE
  6
BYLAYER
  9
$DIMSCALE
 40
1.0
  9
$DIMASZ
 40
0.1875
  9
$DIMEXO
 40
0.1375
  9
$DIMDLI
 40
0.836
  9
$DIMEXE
 40
0.396
  9
$DIMCEN
 40
0.198
  9
$DIMLFAC
 40
1.0
  9
$DIMBLK
  1
_FILLED
  9
$DIMTXT
 40
0.1
  9
$DIMTOL
 70
1
  9
$DIMLIM
 70
0
  9
$DIMTFAC
 40
1.0
  9
$DIMTP
 40
0.005
  9
$DIMTM
 40
0.005
  9
$PDMODE
 70
3
  9
$PDSIZE
 40
0.3125
  9
$HANDSEED
  5
825
  9
$MEASUREMENT
 70
0
  9
$INSUNITS
 70
1
  0
ENDSEC
  0
SECTION
  2
CLASSES
  0
CLASS
  1
ACDBDICTIONARYWDFLT
  2
AcDbDictionaryWithDefault
  3
AutoCAD 2000
 90
0
280
0
281
0
  0
CLASS
  1
ACDBPLACEHOLDER
  2
AcDbPlaceHolder
  3
AutoCAD 2000
 90
0
280
0
281
0
  0
CLASS
  1
LAYOUT
  2
AcDbLayout
  3
AutoCAD 2000
 90
0
280
0
281
0
  0
ENDSEC
  0
SECTION
  2
TABLES
  0
TABLE
  2
VPORT
  5
8
100
AcDbSymbolTable
 70
2
  0
VPORT
  5
1F4
100
AcDbSymbolTableRecord
100
AcDbViewportTableRecord
  2
*ACTIVE
 70
0
 10
0.0
 20
0.0
 11
1.0
 21
1.0
 12
11.0
 22
8.5
 13
0.0
 23
0.0
 14
1.0
 24
1.0
 15
0.0
 25
0.0
 16
0.0
 26
0.0
 36
1.0
 17
0.0
 27
0.0
 37
0.0
 40
17.0
 41
1.2941176471
 42
50.0
 43
0.0
 44
0.0
 50
0.0
 51
0.0
 71
0
 72
100
 73
1
 74
1
 75
0
 76
0
 77
0
 78
0
  0
ENDTAB
  0
TABLE
  2
LTYPE
  5
5
100
AcDbSymbolTable
 70
6
  0
LTYPE
  5
14
100
AcDbSymbolTableRecord
100
AcDbLinetypeTableRecord
  2
BYBLOCK
 70
0
  3

 72
65
 73
0
 40
0.0
  0
LTYPE
  5
15
100
AcDbSymbolTableRecord
100
AcDbLinetypeTableRecord
  2
BYLAYER
 70
0
  3

 72
65
 73
0
 40
0.0
  0
LTYPE
  5
16
100
AcDbSymbolTableRecord
100
AcDbLinetypeTableRecord
  2
CONTINUOUS
 70
64
  3
Solid line
 72
65
 73
0
 40
0.0
  0
LTYPE
  5
1F5
100
AcDbSymbolTableRecord
100
AcDbLinetypeTableRecord
  2
CENTER
 70
64
  3
____ _ ____ _ ____ _ ____ _ ____ _ ____ _ ____
 72
65
 73
4
 40
0.6
 49
0.375
 74
0
 49
-0.075
 74
0
 49
0.075
 74
0
 49
-0.075
 74
0
  0
LTYPE
  5
1F6
100
AcDbSymbolTableRecord
100
AcDbLinetypeTableRecord
  2
HIDDEN
 70
64
  3
- - - - - - - - - - - - - - - - - - - -
 72
65
 73
2
 40
0.2
 49
0.1
 74
0
 49
-0.1
 74
0
  0
LTYPE
  5
1F7
100
AcDbSymbolTableRecord
100
AcDbLinetypeTableRecord
  2
PHANTOM
 70
64
  3
_____ _ _ _____ _ _ _____ _ _ _____
 72
65
 73
6
 40
0.8
 49
0.45
 74
0
 49
-0.05
 74
0
 49
0.1
 74
0
 49
-0.05
 74
0
 49
0.1
 74
0
 49
-0.05
 74
0
  0
LTYPE
  5
1F8
100
AcDbSymbolTableRecord
100
AcDbLinetypeTableRecord
  2
DOT
 70
64
  3
. . . . . . . . . . . . . . . . . . . .
 72
65
 73
2
 40
0.2
 49
0.1
 74
0
 49
-0.1
 74
0
  0
LTYPE
  5
1F9
100
AcDbSymbolTableRecord
100
AcDbLinetypeTableRecord
  2
DASHED
 70
64
  3
- - - - - - - - - - - - - - - - - - - -
 72
65
 73
2
 40
0.2
 49
0.1
 74
0
 49
-0.1
 74
0
  0
ENDTAB
  0
TABLE
  2
LAYER
  5
2
100
AcDbSymbolTable
 70
36
  0
LAYER
  5
10
100
AcDbSymbolTableRecord
100
AcDbLayerTableRecord
  2
0
 70
0
 62
7
  6
CONTINUOUS
370
-3
390
F
  0
LAYER
  5
1FA
100
AcDbSymbolTableRecord
100
AcDbLayerTableRecord
  2
DEFAULT_1
 70
0
 62
7
  6
CENTER
370
-3
390
F
  0
LAYER
  5
1FB
100
AcDbSymbolTableRecord
100
AcDbLayerTableRecord
  2
DEFAULT_2
 70
0
 62
8
  6
HIDDEN
370
-3
390
F
  0
LAYER
  5
1FC
100
AcDbSymbolTableRecord
100
AcDbLayerTableRecord
  2
DEFAULT_3
 70
0
 62
7
  6
PHANTOM
370
-3
390
F
  0
LAYER
  5
1FD
100
AcDbSymbolTableRecord
100
AcDbLayerTableRecord
  2
_2D_DELETED_OBJS
 70
0
 62
7
  6
CONTINUOUS
370
-3
390
F
  0
LAYER
  5
1FE
100
AcDbSymbolTableRecord
100
AcDbLayerTableRecord
  2
_BLACK_HOLE
 70
0
 62
7
  6
CONTINUOUS
370
-3
390
F
  0
LAYER
  5
1FF
100
AcDbSymbolTableRecord
100
AcDbLayerTableRecord
  2
01_ALL_DTM_PLN
 70
0
 62
7
  6
CONTINUOUS
370
-3
390
F
  0
LAYER
  5
200
100
AcDbSymbolTableRecord
100
AcDbLayerTableRecord
  2
01__ASM_ALL_DTM_PLN
 70
0
 62
7
  6
CONTINUOUS
370
-3
390
F
  0
LAYER
  5
201
100
AcDbSymbolTableRecord
100
AcDbLayerTableRecord
  2
01__ASM_DEF_DTM_PLN
 70
0
 62
7
  6
CONTINUOUS
370
-3
390
F
  0
LAYER
  5
202
100
AcDbSymbolTableRecord
100
AcDbLayerTableRecord
  2
01___PRT_ALL_DTM_PLN
 70
0
 62
7
  6
CONTINUOUS
370
-3
390
F
  0
LAYER
  5
203
100
AcDbSymbolTableRecord
100
AcDbLayerTableRecord
  2
01___PRT_DEF_DTM_PLN
 70
0
 62
7
  6
CONTINUOUS
370
-3
390
F
  0
LAYER
  5
204
100
AcDbSymbolTableRecord
100
AcDbLayerTableRecord
  2
02_ALL_AXES
 70
0
 62
7
  6
CONTINUOUS
370
-3
390
F
  0
LAYER
  5
205
100
AcDbSymbolTableRecord
100
AcDbLayerTableRecord
  2
02__ASM_ALL_AXES
 70
0
 62
7
  6
CONTINUOUS
370
-3
390
F
  0
LAYER
  5
206
100
AcDbSymbolTableRecord
100
AcDbLayerTableRecord
  2
02___PRT_ALL_AXES
 70
0
 62
7
  6
CONTINUOUS
370
-3
390
F
  0
LAYER
  5
207
100
AcDbSymbolTableRecord
100
AcDbLayerTableRecord
  2
03_ALL_CURVES
 70
0
 62
7
  6
CONTINUOUS
370
-3
390
F
  0
LAYER
  5
208
100
AcDbSymbolTableRecord
100
AcDbLayerTableRecord
  2
03__ASM_ALL_CURVES
 70
0
 62
7
  6
CONTINUOUS
370
-3
390
F
  0
LAYER
  5
209
100
AcDbSymbolTableRecord
100
AcDbLayerTableRecord
  2
03___PRT_ALL_CURVES
 70
0
 62
7
  6
CONTINUOUS
370
-3
390
F
  0
LAYER
  5
20A
100
AcDbSymbolTableRecord
100
AcDbLayerTableRecord
  2
04_ALL_DTM_PNT
 70
0
 62
7
  6
CONTINUOUS
370
-3
390
F
  0
LAYER
  5
20B
100
AcDbSymbolTableRecord
100
AcDbLayerTableRecord
  2
04__ASM_ALL_DTM_PNT
 70
0
 62
7
  6
CONTINUOUS
370
-3
390
F
  0
LAYER
  5
20C
100
AcDbSymbolTableRecord
100
AcDbLayerTableRecord
  2
04___PRT_ALL_DTM_PNT
 70
0
 62
7
  6
CONTINUOUS
370
-3
390
F
  0
LAYER
  5
20D
100
AcDbSymbolTableRecord
100
AcDbLayerTableRecord
  2
05_ALL_DTM_CSYS
 70
0
 62
7
  6
CONTINUOUS
370
-3
390
F
  0
LAYER
  5
20E
100
AcDbSymbolTableRecord
100
AcDbLayerTableRecord
  2
05__ASM_ALL_DTM_CSYS
 70
0
 62
7
  6
CONTINUOUS
370
-3
390
F
  0
LAYER
  5
20F
100
AcDbSymbolTableRecord
100
AcDbLayerTableRecord
  2
05__ASM_DEF_DTM_CSYS
 70
0
 62
7
  6
CONTINUOUS
370
-3
390
F
  0
LAYER
  5
210
100
AcDbSymbolTableRecord
100
AcDbLayerTableRecord
  2
05___PRT_ALL_DTM_CSYS
 70
0
 62
7
  6
CONTINUOUS
370
-3
390
F
  0
LAYER
  5
211
100
AcDbSymbolTableRecord
100
AcDbLayerTableRecord
  2
05___PRT_DEF_DTM_CSYS
 70
0
 62
7
  6
CONTINUOUS
370
-3
390
F
  0
LAYER
  5
212
100
AcDbSymbolTableRecord
100
AcDbLayerTableRecord
  2
06_ALL_SURFS
 70
0
 62
7
  6
CONTINUOUS
370
-3
390
F
  0
LAYER
  5
213
100
AcDbSymbolTableRecord
100
AcDbLayerTableRecord
  2
06__ASM_ALL_SURFS
 70
0
 62
7
  6
CONTINUOUS
370
-3
390
F
  0
LAYER
  5
214
100
AcDbSymbolTableRecord
100
AcDbLayerTableRecord
  2
06___PRT_ALL_SURFS
 70
0
 62
7
  6
CONTINUOUS
370
-3
390
F
  0
LAYER
  5
215
100
AcDbSymbolTableRecord
100
AcDbLayerTableRecord
  2
07__ASM_ALL_SKELETONS
 70
0
 62
7
  6
CONTINUOUS
370
-3
390
F
  0
LAYER
  5
216
100
AcDbSymbolTableRecord
100
AcDbLayerTableRecord
  2
AXIS
 70
0
 62
7
  6
CONTINUOUS
370
-3
390
F
  0
LAYER
  5
217
100
AcDbSymbolTableRecord
100
AcDbLayerTableRecord
  2
AXIS_COSMETIC_THREADS
 70
0
 62
7
  6
CONTINUOUS
370
-3
390
F
  0
LAYER
  5
218
100
AcDbSymbolTableRecord
100
AcDbLayerTableRecord
  2
COSMETIC_THREADS
 70
0
 62
7
  6
CONTINUOUS
370
-3
390
F
  0
LAYER
  5
219
100
AcDbSymbolTableRecord
100
AcDbLayerTableRecord
  2
CSY
 70
0
 62
7
  6
CONTINUOUS
370
-3
390
F
  0
LAYER
  5
21A
100
AcDbSymbolTableRecord
100
AcDbLayerTableRecord
  2
CURVES
 70
0
 62
7
  6
CONTINUOUS
370
-3
390
F
  0
LAYER
  5
21B
100
AcDbSymbolTableRecord
100
AcDbLayerTableRecord
  2
DATUM_CURVES
 70
0
 62
7
  6
CONTINUOUS
370
-3
390
F
  0
LAYER
  5
21C
100
AcDbSymbolTableRecord
100
AcDbLayerTableRecord
  2
DATUM_PLANES
 70
0
 62
7
  6
CONTINUOUS
370
-3
390
F
  0
LAYER
  5
21D
100
AcDbSymbolTableRecord
100
AcDbLayerTableRecord
  2
DEFAULT
 70
0
 62
7
  6
CONTINUOUS
370
-3
390
F
  0
LAYER
  5
21E
100
AcDbSymbolTableRecord
100
AcDbLayerTableRecord
  2
DEF_CSY
 70
0
 62
7
  6
CONTINUOUS
370
-3
390
F
  0
LAYER
  5
21F
100
AcDbSymbolTableRecord
100
AcDbLayerTableRecord
  2
ECAD_0603
 70
0
 62
7
  6
CONTINUOUS
370
-3
390
F
  0
LAYER
  5
220
100
AcDbSymbolTableRecord
100
AcDbLayerTableRecord
  2
ECAD_0603C
 70
0
 62
7
  6
CONTINUOUS
370
-3
390
F
  0
LAYER
  5
221
100
AcDbSymbolTableRecord
100
AcDbLayerTableRecord
  2
ECAD_0805
 70
0
 62
7
  6
CONTINUOUS
370
-3
390
F
  0
LAYER
  5
222
100
AcDbSymbolTableRecord
100
AcDbLayerTableRecord
  2
ECAD_0805C
 70
0
 62
7
  6
CONTINUOUS
370
-3
390
F
  0
LAYER
  5
223
100
AcDbSymbolTableRecord
100
AcDbLayerTableRecord
  2
ECAD_0805I
 70
0
 62
7
  6
CONTINUOUS
370
-3
390
F
  0
LAYER
  5
224
100
AcDbSymbolTableRecord
100
AcDbLayerTableRecord
  2
ECAD_1206
 70
0
 62
7
  6
CONTINUOUS
370
-3
390
F
  0
LAYER
  5
225
100
AcDbSymbolTableRecord
100
AcDbLayerTableRecord
  2
ECAD_1206C
 70
0
 62
7
  6
CONTINUOUS
370
-3
390
F
  0
LAYER
  5
226
100
AcDbSymbolTableRecord
100
AcDbLayerTableRecord
  2
ECAD_1210I
 70
0
 62
7
  6
CONTINUOUS
370
-3
390
F
  0
LAYER
  5
227
100
AcDbSymbolTableRecord
100
AcDbLayerTableRecord
  2
ECAD_1808C
 70
0
 62
7
  6
CONTINUOUS
370
-3
390
F
  0
LAYER
  5
228
100
AcDbSymbolTableRecord
100
AcDbLayerTableRecord
  2
ECAD_DIP16A
 70
0
 62
7
  6
CONTINUOUS
370
-3
390
F
  0
LAYER
  5
229
100
AcDbSymbolTableRecord
100
AcDbLayerTableRecord
  2
ECAD_HDR30F
 70
0
 62
7
  6
CONTINUOUS
370
-3
390
F
  0
LAYER
  5
22A
100
AcDbSymbolTableRecord
100
AcDbLayerTableRecord
  2
ECAD_HDR30M
 70
0
 62
7
  6
CONTINUOUS
370
-3
390
F
  0
LAYER
  5
22B
100
AcDbSymbolTableRecord
100
AcDbLayerTableRecord
  2
ECAD_HR12
 70
0
 62
7
  6
CONTINUOUS
370
-3
390
F
  0
LAYER
  5
22C
100
AcDbSymbolTableRecord
100
AcDbLayerTableRecord
  2
ECAD_LEDRND
 70
0
 62
7
  6
CONTINUOUS
370
-3
390
F
  0
LAYER
  5
22D
100
AcDbSymbolTableRecord
100
AcDbLayerTableRecord
  2
ECAD_MSOP8
 70
0
 62
7
  6
CONTINUOUS
370
-3
390
F
  0
LAYER
  5
22E
100
AcDbSymbolTableRecord
100
AcDbLayerTableRecord
  2
ECAD_P10046
 70
0
 62
7
  6
CONTINUOUS
370
-3
390
F
  0
LAYER
  5
22F
100
AcDbSymbolTableRecord
100
AcDbLayerTableRecord
  2
ECAD_P6232
 70
0
 62
7
  6
CONTINUOUS
370
-3
390
F
  0
LAYER
  5
230
100
AcDbSymbolTableRecord
100
AcDbLayerTableRecord
  2
ECAD_P6239
 70
0
 62
7
  6
CONTINUOUS
370
-3
390
F
  0
LAYER
  5
231
100
AcDbSymbolTableRecord
100
AcDbLayerTableRecord
  2
ECAD_SMA
 70
0
 62
7
  6
CONTINUOUS
370
-3
390
F
  0
LAYER
  5
232
100
AcDbSymbolTableRecord
100
AcDbLayerTableRecord
  2
ECAD_SO14
 70
0
 62
7
  6
CONTINUOUS
370
-3
390
F
  0
LAYER
  5
233
100
AcDbSymbolTableRecord
100
AcDbLayerTableRecord
  2
ECAD_SO8
 70
0
 62
7
  6
CONTINUOUS
370
-3
390
F
  0
LAYER
  5
234
100
AcDbSymbolTableRecord
100
AcDbLayerTableRecord
  2
ECAD_SOD123
 70
0
 62
7
  6
CONTINUOUS
370
-3
390
F
  0
LAYER
  5
235
100
AcDbSymbolTableRecord
100
AcDbLayerTableRecord
  2
ECAD_SOT23
 70
0
 62
7
  6
CONTINUOUS
370
-3
390
F
  0
LAYER
  5
236
100
AcDbSymbolTableRecord
100
AcDbLayerTableRecord
  2
ECAD_SOT235
 70
0
 62
7
  6
CONTINUOUS
370
-3
390
F
  0
LAYER
  5
237
100
AcDbSymbolTableRecord
100
AcDbLayerTableRecord
  2
ECAD_SOT25A
 70
0
 62
7
  6
CONTINUOUS
370
-3
390
F
  0
LAYER
  5
238
100
AcDbSymbolTableRecord
100
AcDbLayerTableRecord
  2
GDT
 70
0
 62
7
  6
CONTINUOUS
370
-3
390
F
  0
LAYER
  5
239
100
AcDbSymbolTableRecord
100
AcDbLayerTableRecord
  2
GEOMTOL
 70
0
 62
7
  6
CONTINUOUS
370
-3
390
F
  0
LAYER
  5
23A
100
AcDbSymbolTableRecord
100
AcDbLayerTableRecord
  2
NOTES
 70
0
 62
7
  6
CONTINUOUS
370
-3
390
F
  0
LAYER
  5
23B
100
AcDbSymbolTableRecord
100
AcDbLayerTableRecord
  2
PNTS
 70
0
 62
7
  6
CONTINUOUS
370
-3
390
F
  0
LAYER
  5
23C
100
AcDbSymbolTableRecord
100
AcDbLayerTableRecord
  2
QUILTS
 70
0
 62
7
  6
CONTINUOUS
370
-3
390
F
  0
LAYER
  5
23D
100
AcDbSymbolTableRecord
100
AcDbLayerTableRecord
  2
SCHEME_DIMS
 70
0
 62
7
  6
CONTINUOUS
370
-3
390
F
  0
LAYER
  5
23E
100
AcDbSymbolTableRecord
100
AcDbLayerTableRecord
  2
SURFACES
 70
0
 62
7
  6
CONTINUOUS
370
-3
390
F
  0
LAYER
  5
23F
100
AcDbSymbolTableRecord
100
AcDbLayerTableRecord
  2
SURFACE_FINISH
 70
0
 62
7
  6
CONTINUOUS
370
-3
390
F
  0
LAYER
  5
240
100
AcDbSymbolTableRecord
100
AcDbLayerTableRecord
  2
SYMBOLS
 70
0
 62
7
  6
CONTINUOUS
370
-3
390
F
  0
LAYER
  5
241
100
AcDbSymbolTableRecord
100
AcDbLayerTableRecord
  2
XSEC_DATUMS
 70
0
 62
7
  6
CONTINUOUS
370
-3
390
F
  0
ENDTAB
  0
TABLE
  2
STYLE
  5
3
100
AcDbSymbolTable
 70
1
  0
STYLE
  5
11
100
AcDbSymbolTableRecord
100
AcDbTextStyleTableRecord
  2
STANDARD
 70
0
 40
0.0
 41
1.0
 50
0.0
 71
0
 42
0.2
  3
txt
  4

  0
ENDTAB
  0
TABLE
  2
VIEW
  5
6
100
AcDbSymbolTable
 70
0
  0
ENDTAB
  0
TABLE
  2
UCS
  5
7
100
AcDbSymbolTable
 70
0
  0
ENDTAB
  0
TABLE
  2
APPID
  5
9
100
AcDbSymbolTable
 70
1
  0
APPID
  5
242
100
AcDbSymbolTableRecord
100
AcDbRegAppTableRecord
  2
ACAD
 70
0
  0
ENDTAB
  0
TABLE
  2
BLOCK_RECORD
  5
1
100
AcDbSymbolTable
 70
0
  0
BLOCK_RECORD
  5
1F
100
AcDbSymbolTableRecord
100
AcDbBlockTableRecord
  2
*MODEL_SPACE
  0
BLOCK_RECORD
  5
1B
100
AcDbSymbolTableRecord
100
AcDbBlockTableRecord
  2
*PAPER_SPACE
  0
BLOCK_RECORD
  5
243
100
AcDbSymbolTableRecord
100
AcDbBlockTableRecord
  2
_FILLED
  0
BLOCK_RECORD
  5
244
100
AcDbSymbolTableRecord
100
AcDbBlockTableRecord
  2
BANNER_LOGO_TITLEBLOCK_BL0
  0
BLOCK_RECORD
  5
245
100
AcDbSymbolTableRecord
100
AcDbBlockTableRecord
  2
*D0
  0
BLOCK_RECORD
  5
246
100
AcDbSymbolTableRecord
100
AcDbBlockTableRecord
  2
*D1
  0
BLOCK_RECORD
  5
247
100
AcDbSymbolTableRecord
100
AcDbBlockTableRecord
  2
*D2
  0
BLOCK_RECORD
  5
248
100
AcDbSymbolTableRecord
100
AcDbBlockTableRecord
  2
*D3
  0
BLOCK_RECORD
  5
249
100
AcDbSymbolTableRecord
100
AcDbBlockTableRecord
  2
*D4
  0
BLOCK_RECORD
  5
24A
100
AcDbSymbolTableRecord
100
AcDbBlockTableRecord
  2
*D5
  0
BLOCK_RECORD
  5
24B
100
AcDbSymbolTableRecord
100
AcDbBlockTableRecord
  2
*D6
  0
BLOCK_RECORD
  5
24C
100
AcDbSymbolTableRecord
100
AcDbBlockTableRecord
  2
*D7
  0
BLOCK_RECORD
  5
24D
100
AcDbSymbolTableRecord
100
AcDbBlockTableRecord
  2
*D8
  0
BLOCK_RECORD
  5
24E
100
AcDbSymbolTableRecord
100
AcDbBlockTableRecord
  2
CL_BL1
  0
BLOCK_RECORD
  5
24F
100
AcDbSymbolTableRecord
100
AcDbBlockTableRecord
  2
CL_BL2
  0
BLOCK_RECORD
  5
250
100
AcDbSymbolTableRecord
100
AcDbBlockTableRecord
  2
CL_BL3
  0
BLOCK_RECORD
  5
251
100
AcDbSymbolTableRecord
100
AcDbBlockTableRecord
  2
CL_BL4
  0
BLOCK_RECORD
  5
252
100
AcDbSymbolTableRecord
100
AcDbBlockTableRecord
  2
CL_BL5
  0
BLOCK_RECORD
  5
253
100
AcDbSymbolTableRecord
100
AcDbBlockTableRecord
  2
CL_BL6
  0
ENDTAB
  0
TABLE
  2
DIMSTYLE
  5
A
100
AcDbSymbolTable
 70
1
100
AcDbDimStyleTable
 71
0
  0
DIMSTYLE
105
254
100
AcDbSymbolTableRecord
100
AcDbDimStyleTableRecord
  2
STANDARD
 70
0
  3

  4

 40
1.0
 41
0.1875
 42
0.0625
 43
0.38
 44
0.18
 45
0.0
 46
0.0
 47
0.005
 48
0.005
140
0.1
141
0.09
142
0.0
143
25.4
144
1.0
145
0.0
146
1.0
147
0.09
 71
1.0
 72
0.0
 73
1
 74
1
 75
0
 76
0
 77
0
 78
4
170
0
171
2
172
0
173
0
174
0
175
0
176
0
177
0
178
0
270
2
271
3
272
3
273
2
274
2
275
0
280
0
281
0
282
0
283
1
284
4
285
0
286
0
287
3
288
0
340
11
341
243
342
243
343
243
344
243
  0
DIMSTYLE
105
255
100
AcDbSymbolTableRecord
100
AcDbDimStyleTableRecord
  2
DIMSTYLE_1
 70
0
  3

  4

 40
1.0
 41
0.1875
 42
0.0625
 43
0.38
 44
0.18
 45
0.0
 46
0.0
 47
0.1
 48
0.1
140
0.1
141
0.09
142
0.0
143
25.4
144
1.0
145
0.0
146
1.0
147
0.09
 71
0.0
 72
0.0
 73
1
 74
1
 75
0
 76
0
 77
0
 78
4
170
0
171
2
172
0
173
0
174
0
175
0
176
0
177
0
178
0
270
2
271
1
272
1
273
2
274
2
275
0
280
0
281
0
282
0
283
1
284
4
285
0
286
0
287
3
288
0
340
11
341
243
342
243
343
243
344
243
  0
DIMSTYLE
105
256
100
AcDbSymbolTableRecord
100
AcDbDimStyleTableRecord
  2
DIMSTYLE_2
 70
0
  3

  4

 40
1.0
 41
0.1875
 42
0.0625
 43
0.38
 44
0.18
 45
0.0
 46
0.0
 47
0.1
 48
0.1
140
0.1
141
0.09
142
0.0
143
25.4
144
1.0
145
0.0
146
1.0
147
0.09
 71
0.0
 72
0.0
 73
1
 74
1
 75
0
 76
0
 77
0
 78
4
170
0
171
2
172
0
173
0
174
0
175
0
176
0
177
0
178
0
270
2
271
1
272
1
273
2
274
2
275
0
280
0
281
0
282
0
283
1
284
4
285
0
286
0
287
3
288
0
340
11
341
243
342
243
343
243
344
243
  0
ENDTAB
  0
ENDSEC
  0
SECTION
  2
BLOCKS
  0
BLOCK
  5
20
100
AcDbEntity
  8
0
100
AcDbBlockBegin
  2
*MODEL_SPACE
 70
0
 10
0.0
 20
0.0
 30
0.0
  3
*MODEL_SPACE
  1

  0
ENDBLK
  5
21
100
AcDbEntity
  8
0
100
AcDbBlockEnd
  0
BLOCK
  5
1C
100
AcDbEntity
  8
0
100
AcDbBlockBegin
  2
*PAPER_SPACE
 70
0
 10
0.0
 20
0.0
 30
0.0
  3
*PAPER_SPACE
  1

  0
ENDBLK
  5
1D
100
AcDbEntity
  8
0
100
AcDbBlockEnd
  0
BLOCK
  5
257
100
AcDbEntity
  8
0
100
AcDbBlockBegin
 62
2
  6
CONTINUOUS
  2
BANNER_LOGO_TITLEBLOCK_BL0
 70
64
 10
17.5737928667
 20
2.4016160592
  3
BANNER_LOGO_TITLEBLOCK_BL0
  1

  0
LWPOLYLINE
  5
258
100
AcDbEntity
  8
0
100
AcDbPolyline
 62
2
  6
CONTINUOUS
 90
29
 70
0
 10
16.7487923615
 20
2.4016160592
 10
16.7691351996
 20
2.3618196847
 10
16.8307163685
 20
2.3232759622
 10
16.9281409297
 20
2.2893628079
 10
17.0602177432
 20
2.2604945935
 10
17.2153753953
 20
2.2392004647
 10
17.3917175036
 20
2.2257402979
 10
17.5737926282
 20
2.2212942658
 10
17.7558682297
 20
2.2257402979
 10
17.932210338
 20
2.2392004647
 10
18.0873675133
 20
2.2604945935
 10
18.2194448036
 20
2.2893628079
 10
18.316868888
 20
2.3232759622
 10
18.3784505337
 20
2.3618196847
 10
18.3987933719
 20
2.4016160592
 10
18.3784505337
 20
2.4414124337
 10
18.316868888
 20
2.4799561562
 10
18.2194448036
 20
2.5138693105
 10
18.0873675133
 20
2.5427375249
 10
17.932210338
 20
2.5640316537
 10
17.7558682297
 20
2.5774918205
 10
17.5737926282
 20
2.5819378526
 10
17.3917175036
 20
2.5774918205
 10
17.2153753953
 20
2.5640316537
 10
17.0602177432
 20
2.5427375249
 10
16.9281409297
 20
2.5138693105
 10
16.8307163685
 20
2.4799561562
 10
16.7691351996
 20
2.4414124337
 10
16.7487923615
 20
2.4016160592
  0
ARC
  5
259
100
AcDbEntity
  8
0
100
AcDbCircle
 62
2
  6
CONTINUOUS
 10
17.0691330821
 20
2.3781140608
 40
0.0153945295
100
AcDbArc
 50
354.0454548824
 51
5.1878013979
  0
ARC
  5
25A
100
AcDbEntity
  8
0
100
AcDbCircle
 62
2
  6
CONTINUOUS
 10
17.062303393
 20
2.377925543
 40
0.0222174455
100
AcDbArc
 50
4.0793399388
 51
69.834329283
  0
LINE
  5
25B
100
AcDbEntity
  8
0
100
AcDbLine
 62
2
  6
CONTINUOUS
 10
17.0699625425
 20
2.3987810533
 11
17.0599115369
 21
2.4023300553
  0
LINE
  5
25C
100
AcDbEntity
  8
0
100
AcDbLine
 62
2
  6
CONTINUOUS
 10
17.0599115369
 20
2.4023300553
 11
17.0681515415
 21
2.4071060579
  0
ARC
  5
25D
100
AcDbEntity
  8
0
100
AcDbCircle
 62
2
  6
CONTINUOUS
 10
17.046286159
 20
2.4439329496
 40
0.0428289026
100
AcDbArc
 50
300.6990502959
 51
319.0591802498
  0
ARC
  5
25E
100
AcDbEntity
  8
0
100
AcDbCircle
 62
2
  6
CONTINUOUS
 10
17.0663147559
 20
2.4278045961
 40
0.0171568255
100
AcDbArc
 50
315.9145124245
 51
16.0049121282
  0
ARC
  5
25F
100
AcDbEntity
  8
0
100
AcDbCircle
 62
2
  6
CONTINUOUS
 10
17.0613631438
 20
2.4244509317
 40
0.0229166529
100
AcDbArc
 50
20.6563876465
 51
62.3316896973
  0
ARC
  5
260
100
AcDbEntity
  8
0
100
AcDbCircle
 62
2
  6
CONTINUOUS
 10
17.0407010201
 20
2.3915223668
 40
0.061747717
100
AcDbArc
 50
59.5385584989
 51
90.0050977555
  0
LINE
  5
261
100
AcDbEntity
  8
0
100
AcDbLine
 62
2
  6
CONTINUOUS
 10
17.0406955262
 20
2.4532700835
 11
16.8746324342
 21
2.4532700835
  0
ARC
  5
262
100
AcDbEntity
  8
0
100
AcDbCircle
 62
2
  6
CONTINUOUS
 10
16.8746324323
 20
2.450795084
 40
0.0024749995
100
AcDbArc
 50
89.9999571957
 51
180.0000428043
  0
LINE
  5
263
100
AcDbEntity
  8
0
100
AcDbLine
 62
2
  6
CONTINUOUS
 10
16.8721574328
 20
2.4507950822
 11
16.8721574328
 21
2.4309950712
  0
ARC
  5
264
100
AcDbEntity
  8
0
100
AcDbCircle
 62
2
  6
CONTINUOUS
 10
16.8746324323
 20
2.4309950693
 40
0.0024749995
100
AcDbArc
 50
179.9999571957
 51
270.0000428043
  0
LINE
  5
265
100
AcDbEntity
  8
0
100
AcDbLine
 62
2
  6
CONTINUOUS
 10
16.8746324342
 20
2.4285200698
 11
16.8985744474
 21
2.4285200698
  0
ARC
  5
266
100
AcDbEntity
  8
0
100
AcDbCircle
 62
2
  6
CONTINUOUS
 10
16.8985744493
 20
2.4260450703
 40
0.0024749995
100
AcDbArc
 50
359.9999571957
 51
90.0000428043
  0
LINE
  5
267
100
AcDbEntity
  8
0
100
AcDbLine
 62
2
  6
CONTINUOUS
 10
16.9010494488
 20
2.4260450684
 11
16.9010494488
 21
2.3796900427
  0
ARC
  5
268
100
AcDbEntity
  8
0
100
AcDbCircle
 62
2
  6
CONTINUOUS
 10
16.8985744493
 20
2.3796900409
 40
0.0024749995
100
AcDbArc
 50
269.9999571957
 51
0.0000428043
  0
LINE
  5
269
100
AcDbEntity
  8
0
100
AcDbLine
 62
2
  6
CONTINUOUS
 10
16.8985744474
 20
2.3772150414
 11
16.8746324342
 21
2.3772150414
  0
ARC
  5
26A
100
AcDbEntity
  8
0
100
AcDbCircle
 62
2
  6
CONTINUOUS
 10
16.8746324323
 20
2.3747400418
 40
0.0024749995
100
AcDbArc
 50
89.9999571957
 51
180.0000428043
  0
LINE
  5
26B
100
AcDbEntity
  8
0
100
AcDbLine
 62
2
  6
CONTINUOUS
 10
16.8721574328
 20
2.37474004
 11
16.8721574328
 21
2.354940029
  0
ARC
  5
26C
100
AcDbEntity
  8
0
100
AcDbCircle
 62
2
  6
CONTINUOUS
 10
16.8746324323
 20
2.3549400272
 40
0.0024749995
100
AcDbArc
 50
179.9999571957
 51
270.0000428043
  0
LINE
  5
26D
100
AcDbEntity
  8
0
100
AcDbLine
 62
2
  6
CONTINUOUS
 10
16.8746324342
 20
2.3524650276
 11
17.051078532
 21
2.3524650276
  0
ARC
  5
26E
100
AcDbEntity
  8
0
100
AcDbCircle
 62
2
  6
CONTINUOUS
 10
17.0483571873
 20
2.4008724794
 40
0.048483885
100
AcDbArc
 50
273.21763719
 51
303.0749121182
  0
ARC
  5
26F
100
AcDbEntity
  8
0
100
AcDbCircle
 62
2
  6
CONTINUOUS
 10
17.0631965815
 20
2.3781048705
 40
0.0213072145
100
AcDbArc
 50
303.0488228549
 51
355.7263138674
  0
LINE
  5
270
100
AcDbEntity
  8
0
100
AcDbLine
 62
2
  6
CONTINUOUS
 10
16.9640374837
 20
2.4111950602
 11
17.0054005067
 21
2.4111950602
  0
ARC
  5
271
100
AcDbEntity
  8
0
100
AcDbCircle
 62
2
  6
CONTINUOUS
 10
17.0054005067
 20
2.419857565
 40
0.0086625048
100
AcDbArc
 50
270.0
 51
90.0
  0
LINE
  5
272
100
AcDbEntity
  8
0
100
AcDbLine
 62
2
  6
CONTINUOUS
 10
17.0054005067
 20
2.4285200698
 11
16.9640374837
 21
2.4285200698
  0
ARC
  5
273
100
AcDbEntity
  8
0
100
AcDbCircle
 62
2
  6
CONTINUOUS
 10
16.9640374819
 20
2.4260450703
 40
0.0024749995
100
AcDbArc
 50
89.9999571957
 51
180.0000428043
  0
LINE
  5
274
100
AcDbEntity
  8
0
100
AcDbLine
 62
2
  6
CONTINUOUS
 10
16.9615624824
 20
2.4260450684
 11
16.9615624824
 21
2.4136700616
  0
ARC
  5
275
100
AcDbEntity
  8
0
100
AcDbCircle
 62
2
  6
CONTINUOUS
 10
16.9640374819
 20
2.4136700597
 40
0.0024749995
100
AcDbArc
 50
179.9999571957
 51
270.0000428043
  0
LINE
  5
276
100
AcDbEntity
  8
0
100
AcDbLine
 62
2
  6
CONTINUOUS
 10
16.9615624824
 20
2.3796900427
 11
16.9615624824
 21
2.3920650496
  0
ARC
  5
277
100
AcDbEntity
  8
0
100
AcDbCircle
 62
2
  6
CONTINUOUS
 10
16.9640374819
 20
2.3920650514
 40
0.0024749995
100
AcDbArc
 50
89.9999571957
 51
180.0000428043
  0
LINE
  5
278
100
AcDbEntity
  8
0
100
AcDbLine
 62
2
  6
CONTINUOUS
 10
16.9640374837
 20
2.394540051
 11
17.0054005067
 21
2.394540051
  0
ARC
  5
279
100
AcDbEntity
  8
0
100
AcDbCircle
 62
2
  6
CONTINUOUS
 10
17.0054005067
 20
2.3858775462
 40
0.0086625048
100
AcDbArc
 50
270.0
 51
90.0
  0
LINE
  5
27A
100
AcDbEntity
  8
0
100
AcDbLine
 62
2
  6
CONTINUOUS
 10
17.0054005067
 20
2.3772150414
 11
16.9640374837
 21
2.3772150414
  0
ARC
  5
27B
100
AcDbEntity
  8
0
100
AcDbCircle
 62
2
  6
CONTINUOUS
 10
16.9640374819
 20
2.3796900409
 40
0.0024749995
100
AcDbArc
 50
179.9999571957
 51
270.0000428043
  0
ARC
  5
27C
100
AcDbEntity
  8
0
100
AcDbCircle
 62
2
  6
CONTINUOUS
 10
18.2498075353
 20
2.3824863625
 40
0.044722495
100
AcDbArc
 50
195.531588407
 51
204.7624440448
  0
LINE
  5
27D
100
AcDbEntity
  8
0
100
AcDbLine
 62
2
  6
CONTINUOUS
 10
18.2067181729
 20
2.3705110376
 11
18.2049141719
 21
2.376580041
  0
ARC
  5
27E
100
AcDbEntity
  8
0
100
AcDbCircle
 62
2
  6
CONTINUOUS
 10
18.1665349746
 20
2.3667829606
 40
0.0396099176
100
AcDbArc
 50
14.3201081283
 51
22.4984722084
  0
ARC
  5
27F
100
AcDbEntity
  8
0
100
AcDbCircle
 62
2
  6
CONTINUOUS
 10
18.189301283
 20
2.3757545872
 40
0.0151491919
100
AcDbArc
 50
24.098260853
 51
63.0369451818
  0
ARC
  5
280
100
AcDbEntity
  8
0
100
AcDbCircle
 62
2
  6
CONTINUOUS
 10
18.1852466282
 20
2.3674749668
 40
0.0243676582
100
AcDbArc
 50
63.3666028271
 51
90.3937697637
  0
LINE
  5
281
100
AcDbEntity
  8
0
100
AcDbLine
 62
2
  6
CONTINUOUS
 10
18.1850791609
 20
2.3918420495
 11
18.1574721456
 21
2.3918420495
  0
ARC
  5
282
100
AcDbEntity
  8
0
100
AcDbCircle
 62
2
  6
CONTINUOUS
 10
18.1574721437
 20
2.3893670499
 40
0.0024749995
100
AcDbArc
 50
89.9999571957
 51
180.0000428043
  0
LINE
  5
283
100
AcDbEntity
  8
0
100
AcDbLine
 62
2
  6
CONTINUOUS
 10
18.1549971442
 20
2.3893670481
 11
18.1549971442
 21
2.3796680427
  0
ARC
  5
284
100
AcDbEntity
  8
0
100
AcDbCircle
 62
2
  6
CONTINUOUS
 10
18.1574721437
 20
2.3796680409
 40
0.0024749995
100
AcDbArc
 50
179.9999571957
 51
270.0000428043
  0
LINE
  5
285
100
AcDbEntity
  8
0
100
AcDbLine
 62
2
  6
CONTINUOUS
 10
18.1574721456
 20
2.3771930413
 11
18.1821311592
 21
2.3771930413
  0
ARC
  5
286
100
AcDbEntity
  8
0
100
AcDbCircle
 62
2
  6
CONTINUOUS
 10
18.1821311611
 20
2.3747180418
 40
0.0024749995
100
AcDbArc
 50
359.9999571957
 51
90.0000428043
  0
LINE
  5
287
100
AcDbEntity
  8
0
100
AcDbLine
 62
2
  6
CONTINUOUS
 10
18.1846061606
 20
2.37471804
 11
18.1846061606
 21
2.354940029
  0
ARC
  5
288
100
AcDbEntity
  8
0
100
AcDbCircle
 62
2
  6
CONTINUOUS
 10
18.1821311611
 20
2.3549400272
 40
0.0024749995
100
AcDbArc
 50
269.9999571957
 51
0.0000428043
  0
LINE
  5
289
100
AcDbEntity
  8
0
100
AcDbLine
 62
2
  6
CONTINUOUS
 10
18.1821311592
 20
2.3524650276
 11
18.0685600963
 21
2.3524650276
  0
ARC
  5
28A
100
AcDbEntity
  8
0
100
AcDbCircle
 62
2
  6
CONTINUOUS
 10
18.0685600944
 20
2.3549400272
 40
0.0024749995
100
AcDbArc
 50
179.9999571957
 51
270.0000428043
  0
LINE
  5
28B
100
AcDbEntity
  8
0
100
AcDbLine
 62
2
  6
CONTINUOUS
 10
18.0660850949
 20
2.354940029
 11
18.0660850949
 21
2.37474004
  0
ARC
  5
28C
100
AcDbEntity
  8
0
100
AcDbCircle
 62
2
  6
CONTINUOUS
 10
18.0685600944
 20
2.3747400418
 40
0.0024749995
100
AcDbArc
 50
89.9999571957
 51
180.0000428043
  0
LINE
  5
28D
100
AcDbEntity
  8
0
100
AcDbLine
 62
2
  6
CONTINUOUS
 10
18.0685600963
 20
2.3772150414
 11
18.0913061089
 21
2.3772150414
  0
ARC
  5
28E
100
AcDbEntity
  8
0
100
AcDbCircle
 62
2
  6
CONTINUOUS
 10
18.0913061107
 20
2.3796900409
 40
0.0024749995
100
AcDbArc
 50
269.9999571957
 51
0.0000428043
  0
LINE
  5
28F
100
AcDbEntity
  8
0
100
AcDbLine
 62
2
  6
CONTINUOUS
 10
18.0937811102
 20
2.3796900427
 11
18.0937811102
 21
2.4260450684
  0
ARC
  5
290
100
AcDbEntity
  8
0
100
AcDbCircle
 62
2
  6
CONTINUOUS
 10
18.0913061107
 20
2.4260450703
 40
0.0024749995
100
AcDbArc
 50
359.9999571957
 51
90.0000428043
  0
LINE
  5
291
100
AcDbEntity
  8
0
100
AcDbLine
 62
2
  6
CONTINUOUS
 10
18.0913061089
 20
2.4285200698
 11
18.0685600963
 21
2.4285200698
  0
ARC
  5
292
100
AcDbEntity
  8
0
100
AcDbCircle
 62
2
  6
CONTINUOUS
 10
18.0685600944
 20
2.4309950693
 40
0.0024749995
100
AcDbArc
 50
179.9999571957
 51
270.0000428043
  0
LINE
  5
293
100
AcDbEntity
  8
0
100
AcDbLine
 62
2
  6
CONTINUOUS
 10
18.0660850949
 20
2.4309950712
 11
18.0660850949
 21
2.4507950822
  0
ARC
  5
294
100
AcDbEntity
  8
0
100
AcDbCircle
 62
2
  6
CONTINUOUS
 10
18.0685600944
 20
2.450795084
 40
0.0024749995
100
AcDbArc
 50
89.9999571957
 51
180.0000428043
  0
LINE
  5
295
100
AcDbEntity
  8
0
100
AcDbLine
 62
2
  6
CONTINUOUS
 10
18.0685600963
 20
2.4532700835
 11
18.2181411792
 21
2.4532700835
  0
ARC
  5
296
100
AcDbEntity
  8
0
100
AcDbCircle
 62
2
  6
CONTINUOUS
 10
18.2154778759
 20
2.270731173
 40
0.1825583387
100
AcDbArc
 50
79.8618509324
 51
89.1640948679
  0
ARC
  5
297
100
AcDbEntity
  8
0
100
AcDbCircle
 62
2
  6
CONTINUOUS
 10
18.2417821663
 20
2.4115546891
 40
0.039319019
100
AcDbArc
 50
59.1202086415
 51
81.4730239328
  0
ARC
  5
298
100
AcDbEntity
  8
0
100
AcDbCircle
 62
2
  6
CONTINUOUS
 10
18.2474415625
 20
2.4178893582
 40
0.0310192946
100
AcDbArc
 50
34.7540871
 51
62.0879016178
  0
ARC
  5
299
100
AcDbEntity
  8
0
100
AcDbCircle
 62
2
  6
CONTINUOUS
 10
18.2591303136
 20
2.4264389594
 40
0.0165459396
100
AcDbArc
 50
1.548452892
 51
33.5033152417
  0
ARC
  5
29A
100
AcDbEntity
  8
0
100
AcDbCircle
 62
2
  6
CONTINUOUS
 10
18.2624269088
 20
2.4266074116
 40
0.0132462337
100
AcDbArc
 50
331.1510006998
 51
1.205404301
  0
ARC
  5
29B
100
AcDbEntity
  8
0
100
AcDbCircle
 62
2
  6
CONTINUOUS
 10
18.2514162524
 20
2.4332859993
 40
0.0261183659
100
AcDbArc
 50
305.6373831893
 51
329.9727629745
  0
ARC
  5
29C
100
AcDbEntity
  8
0
100
AcDbCircle
 62
2
  6
CONTINUOUS
 10
18.2210843148
 20
2.4764928489
 40
0.0789082104
100
AcDbArc
 50
292.906155071
 51
305.2574666259
  0
ARC
  5
29D
100
AcDbEntity
  8
0
100
AcDbCircle
 62
2
  6
CONTINUOUS
 10
18.1973831488
 20
2.2998387438
 40
0.117346916
100
AcDbArc
 50
58.614769177
 51
62.3737227606
  0
ARC
  5
29E
100
AcDbEntity
  8
0
100
AcDbCircle
 62
2
  6
CONTINUOUS
 10
18.2452661015
 20
2.377966004
 40
0.0257145923
100
AcDbArc
 50
39.3804255939
 51
59.0361096173
  0
ARC
  5
29F
100
AcDbEntity
  8
0
100
AcDbCircle
 62
2
  6
CONTINUOUS
 10
18.244145746
 20
2.3778929208
 40
0.0266349791
100
AcDbArc
 50
20.3630922153
 51
37.9727053099
  0
ARC
  5
2A0
100
AcDbEntity
  8
0
100
AcDbCircle
 62
2
  6
CONTINUOUS
 10
18.2262452042
 20
2.3707115124
 40
0.0459185159
100
AcDbArc
 50
15.6740290068
 51
20.9917271228
  0
ARC
  5
2A1
100
AcDbEntity
  8
0
100
AcDbCircle
 62
2
  6
CONTINUOUS
 10
18.2848155393
 20
2.3863544954
 40
0.0147197649
100
AcDbArc
 50
192.7054516566
 51
206.0594861022
  0
ARC
  5
2A2
100
AcDbEntity
  8
0
100
AcDbCircle
 62
2
  6
CONTINUOUS
 10
18.2763212023
 20
2.3821460089
 40
0.0052403997
100
AcDbArc
 50
205.5232099488
 51
227.5054868079
  0
ARC
  5
2A3
100
AcDbEntity
  8
0
100
AcDbCircle
 62
2
  6
CONTINUOUS
 10
18.274592903
 20
2.3803306362
 40
0.0027347709
100
AcDbArc
 50
228.5117626737
 51
266.1485845754
  0
LINE
  5
2A4
100
AcDbEntity
  8
0
100
AcDbLine
 62
2
  6
CONTINUOUS
 10
18.2744092104
 20
2.3776020416
 11
18.275518211
 21
2.3776020416
  0
ARC
  5
2A5
100
AcDbEntity
  8
0
100
AcDbCircle
 62
2
  6
CONTINUOUS
 10
18.2754566564
 20
2.3908507008
 40
0.0132488022
100
AcDbArc
 50
270.266200055
 51
281.2404888597
  0
ARC
  5
2A6
100
AcDbEntity
  8
0
100
AcDbCircle
 62
2
  6
CONTINUOUS
 10
18.2766508974
 20
2.3851140072
 40
0.0073895522
100
AcDbArc
 50
280.8288201977
 51
305.0837508495
  0
ARC
  5
2A7
100
AcDbEntity
  8
0
100
AcDbCircle
 62
2
  6
CONTINUOUS
 10
18.2770520791
 20
2.3842631608
 40
0.0064647042
100
AcDbArc
 50
306.5086174083
 51
340.2162360092
  0
ARC
  5
2A8
100
AcDbEntity
  8
0
100
AcDbCircle
 62
2
  6
CONTINUOUS
 10
18.2718509025
 20
2.3860072224
 40
0.0119498009
100
AcDbArc
 50
340.7883861657
 51
1.1691452593
  0
LINE
  5
2A9
100
AcDbEntity
  8
0
100
AcDbLine
 62
2
  6
CONTINUOUS
 10
18.2837982156
 20
2.3862510464
 11
18.2837982156
 21
2.3888770478
  0
ARC
  5
2AA
100
AcDbEntity
  8
0
100
AcDbCircle
 62
2
  6
CONTINUOUS
 10
18.2862732151
 20
2.3888770497
 40
0.0024749995
100
AcDbArc
 50
89.9999571957
 51
180.0000428043
  0
LINE
  5
2AB
100
AcDbEntity
  8
0
100
AcDbLine
 62
2
  6
CONTINUOUS
 10
18.286273217
 20
2.3913520492
 11
18.2983832237
 21
2.3913520492
  0
ARC
  5
2AC
100
AcDbEntity
  8
0
100
AcDbCircle
 62
2
  6
CONTINUOUS
 10
18.2983832256
 20
2.3888770497
 40
0.0024749995
100
AcDbArc
 50
359.9999571957
 51
90.0000428043
  0
LINE
  5
2AD
100
AcDbEntity
  8
0
100
AcDbLine
 62
2
  6
CONTINUOUS
 10
18.3008582251
 20
2.3888770478
 11
18.3008582251
 21
2.3773250414
  0
ARC
  5
2AE
100
AcDbEntity
  8
0
100
AcDbCircle
 62
2
  6
CONTINUOUS
 10
18.2833025285
 20
2.3774293591
 40
0.0175560065
100
AcDbArc
 50
332.2279060967
 51
359.6595469939
  0
ARC
  5
2AF
100
AcDbEntity
  8
0
100
AcDbCircle
 62
2
  6
CONTINUOUS
 10
18.2739955177
 20
2.3823238645
 40
0.0280715479
100
AcDbArc
 50
308.5071794988
 51
332.2400656899
  0
ARC
  5
2B0
100
AcDbEntity
  8
0
100
AcDbCircle
 62
2
  6
CONTINUOUS
 10
18.2670033323
 20
2.3899250823
 40
0.0383802683
100
AcDbArc
 50
288.7656836787
 51
309.6104317088
  0
ARC
  5
2B1
100
AcDbEntity
  8
0
100
AcDbCircle
 62
2
  6
CONTINUOUS
 10
18.2727412998
 20
2.372338333
 40
0.0198837666
100
AcDbArc
 50
271.8586572978
 51
289.4131338543
  0
LINE
  5
2B2
100
AcDbEntity
  8
0
100
AcDbLine
 62
2
  6
CONTINUOUS
 10
18.2733862098
 20
2.3524650276
 11
18.2260221836
 21
2.3524650276
  0
ARC
  5
2B3
100
AcDbEntity
  8
0
100
AcDbCircle
 62
2
  6
CONTINUOUS
 10
18.2268275043
 20
2.3697871793
 40
0.0173408616
100
AcDbArc
 50
232.4713476722
 51
267.338189944
  0
ARC
  5
2B4
100
AcDbEntity
  8
0
100
AcDbCircle
 62
2
  6
CONTINUOUS
 10
18.2299260692
 20
2.3756374832
 40
0.0238935861
100
AcDbArc
 50
209.8247607259
 51
235.1255079367
  0
ARC
  5
2B5
100
AcDbEntity
  8
0
100
AcDbCircle
 62
2
  6
CONTINUOUS
 10
18.1986405119
 20
2.4241492153
 40
0.0110815393
100
AcDbArc
 50
306.758405961
 51
320.4502234234
  0
ARC
  5
2B6
100
AcDbEntity
  8
0
100
AcDbCircle
 62
2
  6
CONTINUOUS
 10
18.1930113209
 20
2.4318900438
 40
0.0206523367
100
AcDbArc
 50
289.6883413472
 51
306.4184925496
  0
ARC
  5
2B7
100
AcDbEntity
  8
0
100
AcDbCircle
 62
2
  6
CONTINUOUS
 10
18.1910838152
 20
2.4362836911
 40
0.0254407115
100
AcDbArc
 50
270.7327484175
 51
290.441894219
  0
LINE
  5
2B8
100
AcDbEntity
  8
0
100
AcDbLine
 62
2
  6
CONTINUOUS
 10
18.1914091644
 20
2.41084506
 11
18.1574721456
 21
2.41084506
  0
ARC
  5
2B9
100
AcDbEntity
  8
0
100
AcDbCircle
 62
2
  6
CONTINUOUS
 10
18.1574721437
 20
2.4133200595
 40
0.0024749995
100
AcDbArc
 50
179.9999571957
 51
270.0000428043
  0
LINE
  5
2BA
100
AcDbEntity
  8
0
100
AcDbLine
 62
2
  6
CONTINUOUS
 10
18.1549971442
 20
2.4133200614
 11
18.1549971442
 21
2.4260450684
  0
ARC
  5
2BB
100
AcDbEntity
  8
0
100
AcDbCircle
 62
2
  6
CONTINUOUS
 10
18.1574721437
 20
2.4260450703
 40
0.0024749995
100
AcDbArc
 50
89.9999571957
 51
180.0000428043
  0
LINE
  5
2BC
100
AcDbEntity
  8
0
100
AcDbLine
 62
2
  6
CONTINUOUS
 10
18.1574721456
 20
2.4285200698
 11
18.194273166
 21
2.4285200698
  0
ARC
  5
2BD
100
AcDbEntity
  8
0
100
AcDbCircle
 62
2
  6
CONTINUOUS
 10
18.1927282785
 20
2.4000655908
 40
0.0284963867
100
AcDbArc
 50
70.3834917948
 51
86.8922743861
  0
ARC
  5
2BE
100
AcDbEntity
  8
0
100
AcDbCircle
 62
2
  6
CONTINUOUS
 10
18.1975878885
 20
2.4131073238
 40
0.0145814632
100
AcDbArc
 50
54.6746025112
 51
71.1660573124
  0
ARC
  5
2BF
100
AcDbEntity
  8
0
100
AcDbCircle
 62
2
  6
CONTINUOUS
 10
18.2027173795
 20
2.419961249
 40
0.0060275915
100
AcDbArc
 50
20.9055592135
 51
56.7851676243
  0
ARC
  5
2C0
100
AcDbEntity
  8
0
100
AcDbCircle
 62
2
  6
CONTINUOUS
 10
18.2040179384
 20
2.4206215312
 40
0.0045795888
100
AcDbArc
 50
355.6235353944
 51
18.9942678268
  0
ARC
  5
2C1
100
AcDbEntity
  8
0
100
AcDbCircle
 62
2
  6
CONTINUOUS
 10
18.202811128
 20
2.4209153074
 40
0.0058087709
100
AcDbArc
 50
318.8515287446
 51
353.6422345323
  0
LINE
  5
2C2
100
AcDbEntity
  8
0
100
AcDbLine
 62
2
  6
CONTINUOUS
 10
17.341467693
 20
2.4532700835
 11
17.4419257488
 21
2.4532700835
  0
ARC
  5
2C3
100
AcDbEntity
  8
0
100
AcDbCircle
 62
2
  6
CONTINUOUS
 10
17.4419258835
 20
2.4507959157
 40
0.0024741678
100
AcDbArc
 50
46.3477981898
 51
90.0031206038
  0
LINE
  5
2C4
100
AcDbEntity
  8
0
100
AcDbLine
 62
2
  6
CONTINUOUS
 10
17.4436337497
 20
2.4525860832
 11
17.503666783
 21
2.3953060514
  0
ARC
  5
2C5
100
AcDbEntity
  8
0
100
AcDbCircle
 62
2
  6
CONTINUOUS
 10
17.5053754839
 20
2.3970969891
 40
0.0024753014
100
AcDbArc
 50
226.3461263059
 51
0.0014637322
  0
LINE
  5
2C6
100
AcDbEntity
  8
0
100
AcDbLine
 62
2
  6
CONTINUOUS
 10
17.5078507853
 20
2.3970970524
 11
17.5078507853
 21
2.4260450684
  0
ARC
  5
2C7
100
AcDbEntity
  8
0
100
AcDbCircle
 62
2
  6
CONTINUOUS
 10
17.5053757858
 20
2.4260450703
 40
0.0024749995
100
AcDbArc
 50
359.9999571957
 51
90.0000428043
  0
LINE
  5
2C8
100
AcDbEntity
  8
0
100
AcDbLine
 62
2
  6
CONTINUOUS
 10
17.5053757839
 20
2.4285200698
 11
17.4865997735
 21
2.4285200698
  0
ARC
  5
2C9
100
AcDbEntity
  8
0
100
AcDbCircle
 62
2
  6
CONTINUOUS
 10
17.4865997717
 20
2.4309950693
 40
0.0024749995
100
AcDbArc
 50
179.9999571957
 51
270.0000428043
  0
LINE
  5
2CA
100
AcDbEntity
  8
0
100
AcDbLine
 62
2
  6
CONTINUOUS
 10
17.4841247722
 20
2.4309950712
 11
17.4841247722
 21
2.4507950822
  0
ARC
  5
2CB
100
AcDbEntity
  8
0
100
AcDbCircle
 62
2
  6
CONTINUOUS
 10
17.4865997717
 20
2.450795084
 40
0.0024749995
100
AcDbArc
 50
89.9999571957
 51
180.0000428043
  0
LINE
  5
2CC
100
AcDbEntity
  8
0
100
AcDbLine
 62
2
  6
CONTINUOUS
 10
17.4865997735
 20
2.4532700835
 11
17.5606008146
 21
2.4532700835
  0
ARC
  5
2CD
100
AcDbEntity
  8
0
100
AcDbCircle
 62
2
  6
CONTINUOUS
 10
17.5606008164
 20
2.450795084
 40
0.0024749995
100
AcDbArc
 50
359.9999571957
 51
90.0000428043
  0
LINE
  5
2CE
100
AcDbEntity
  8
0
100
AcDbLine
 62
2
  6
CONTINUOUS
 10
17.5630758159
 20
2.4507950822
 11
17.5630758159
 21
2.4309950712
  0
ARC
  5
2CF
100
AcDbEntity
  8
0
100
AcDbCircle
 62
2
  6
CONTINUOUS
 10
17.5606008164
 20
2.4309950693
 40
0.0024749995
100
AcDbArc
 50
269.9999571957
 51
0.0000428043
  0
LINE
  5
2D0
100
AcDbEntity
  8
0
100
AcDbLine
 62
2
  6
CONTINUOUS
 10
17.5606008146
 20
2.4285200698
 11
17.5426678046
 21
2.4285200698
  0
ARC
  5
2D1
100
AcDbEntity
  8
0
100
AcDbCircle
 62
2
  6
CONTINUOUS
 10
17.5426678028
 20
2.4260450703
 40
0.0024749995
100
AcDbArc
 50
89.9999571957
 51
180.0000428043
  0
LINE
  5
2D2
100
AcDbEntity
  8
0
100
AcDbLine
 62
2
  6
CONTINUOUS
 10
17.5401928032
 20
2.4260450684
 11
17.5401928032
 21
2.354940029
  0
ARC
  5
2D3
100
AcDbEntity
  8
0
100
AcDbCircle
 62
2
  6
CONTINUOUS
 10
17.5377178037
 20
2.3549400272
 40
0.0024749995
100
AcDbArc
 50
269.9999571957
 51
0.0000428043
  0
LINE
  5
2D4
100
AcDbEntity
  8
0
100
AcDbLine
 62
2
  6
CONTINUOUS
 10
17.5377178019
 20
2.3524650276
 11
17.4635127607
 21
2.3524650276
  0
ARC
  5
2D5
100
AcDbEntity
  8
0
100
AcDbCircle
 62
2
  6
CONTINUOUS
 10
17.463512126
 20
2.3549404438
 40
0.0024754162
100
AcDbArc
 50
226.3593695813
 51
270.0146919953
  0
LINE
  5
2D6
100
AcDbEntity
  8
0
100
AcDbLine
 62
2
  6
CONTINUOUS
 10
17.4618037598
 20
2.353149028
 11
17.3985237247
 21
2.4135270615
  0
ARC
  5
2D7
100
AcDbEntity
  8
0
100
AcDbCircle
 62
2
  6
CONTINUOUS
 10
17.3968150237
 20
2.4117361237
 40
0.0024753014
100
AcDbArc
 50
46.3461263059
 51
180.0014637321
  0
LINE
  5
2D8
100
AcDbEntity
  8
0
100
AcDbLine
 62
2
  6
CONTINUOUS
 10
17.3943397224
 20
2.4117360605
 11
17.3943397224
 21
2.3796900427
  0
ARC
  5
2D9
100
AcDbEntity
  8
0
100
AcDbCircle
 62
2
  6
CONTINUOUS
 10
17.3968147219
 20
2.3796900409
 40
0.0024749995
100
AcDbArc
 50
179.9999571957
 51
270.0000428043
  0
LINE
  5
2DA
100
AcDbEntity
  8
0
100
AcDbLine
 62
2
  6
CONTINUOUS
 10
17.3968147237
 20
2.3772150414
 11
17.417131735
 21
2.3772150414
  0
ARC
  5
2DB
100
AcDbEntity
  8
0
100
AcDbCircle
 62
2
  6
CONTINUOUS
 10
17.4171317369
 20
2.3747400418
 40
0.0024749995
100
AcDbArc
 50
359.9999571957
 51
90.0000428043
  0
LINE
  5
2DC
100
AcDbEntity
  8
0
100
AcDbLine
 62
2
  6
CONTINUOUS
 10
17.4196067364
 20
2.37474004
 11
17.4196067364
 21
2.354940029
  0
ARC
  5
2DD
100
AcDbEntity
  8
0
100
AcDbCircle
 62
2
  6
CONTINUOUS
 10
17.4171317369
 20
2.3549400272
 40
0.0024749995
100
AcDbArc
 50
269.9999571957
 51
0.0000428043
  0
LINE
  5
2DE
100
AcDbEntity
  8
0
100
AcDbLine
 62
2
  6
CONTINUOUS
 10
17.417131735
 20
2.3524650276
 11
17.341467693
 21
2.3524650276
  0
ARC
  5
2DF
100
AcDbEntity
  8
0
100
AcDbCircle
 62
2
  6
CONTINUOUS
 10
17.3414676912
 20
2.3549400272
 40
0.0024749995
100
AcDbArc
 50
179.9999571957
 51
270.0000428043
  0
LINE
  5
2E0
100
AcDbEntity
  8
0
100
AcDbLine
 62
2
  6
CONTINUOUS
 10
17.3389926917
 20
2.354940029
 11
17.3389926917
 21
2.37474004
  0
ARC
  5
2E1
100
AcDbEntity
  8
0
100
AcDbCircle
 62
2
  6
CONTINUOUS
 10
17.3414676912
 20
2.3747400418
 40
0.0024749995
100
AcDbArc
 50
89.9999571957
 51
180.0000428043
  0
LINE
  5
2E2
100
AcDbEntity
  8
0
100
AcDbLine
 62
2
  6
CONTINUOUS
 10
17.341467693
 20
2.3772150414
 11
17.3601147034
 21
2.3772150414
  0
ARC
  5
2E3
100
AcDbEntity
  8
0
100
AcDbCircle
 62
2
  6
CONTINUOUS
 10
17.3601147052
 20
2.3796900409
 40
0.0024749995
100
AcDbArc
 50
269.9999571957
 51
0.0000428043
  0
LINE
  5
2E4
100
AcDbEntity
  8
0
100
AcDbLine
 62
2
  6
CONTINUOUS
 10
17.3625897048
 20
2.3796900427
 11
17.3625897048
 21
2.4260450684
  0
ARC
  5
2E5
100
AcDbEntity
  8
0
100
AcDbCircle
 62
2
  6
CONTINUOUS
 10
17.3601147052
 20
2.4260450703
 40
0.0024749995
100
AcDbArc
 50
359.9999571957
 51
90.0000428043
  0
LINE
  5
2E6
100
AcDbEntity
  8
0
100
AcDbLine
 62
2
  6
CONTINUOUS
 10
17.3601147034
 20
2.4285200698
 11
17.341467693
 21
2.4285200698
  0
ARC
  5
2E7
100
AcDbEntity
  8
0
100
AcDbCircle
 62
2
  6
CONTINUOUS
 10
17.3414676912
 20
2.4309950693
 40
0.0024749995
100
AcDbArc
 50
179.9999571957
 51
270.0000428043
  0
LINE
  5
2E8
100
AcDbEntity
  8
0
100
AcDbLine
 62
2
  6
CONTINUOUS
 10
17.3389926917
 20
2.4309950712
 11
17.3389926917
 21
2.4507950822
  0
ARC
  5
2E9
100
AcDbEntity
  8
0
100
AcDbCircle
 62
2
  6
CONTINUOUS
 10
17.3414676912
 20
2.450795084
 40
0.0024749995
100
AcDbArc
 50
89.9999571957
 51
180.0000428043
  0
LINE
  5
2EA
100
AcDbEntity
  8
0
100
AcDbLine
 62
2
  6
CONTINUOUS
 10
17.1937676111
 20
2.4268270689
 11
17.1866506072
 21
2.4156100627
  0
ARC
  5
2EB
100
AcDbEntity
  8
0
100
AcDbCircle
 62
2
  6
CONTINUOUS
 10
17.188740499
 20
2.4142841006
 40
0.0024750401
100
AcDbArc
 50
147.6063258012
 51
270.0025305754
  0
LINE
  5
2EC
100
AcDbEntity
  8
0
100
AcDbLine
 62
2
  6
CONTINUOUS
 10
17.1887406083
 20
2.4118090605
 11
17.2092976197
 21
2.4118090605
  0
ARC
  5
2ED
100
AcDbEntity
  8
0
100
AcDbCircle
 62
2
  6
CONTINUOUS
 10
17.2092975986
 20
2.4142842677
 40
0.0024752071
100
AcDbArc
 50
270.0004896793
 51
32.9089806818
  0
LINE
  5
2EE
100
AcDbEntity
  8
0
100
AcDbLine
 62
2
  6
CONTINUOUS
 10
17.2113756209
 20
2.4156290627
 11
17.2041166169
 21
2.4268450689
  0
ARC
  5
2EF
100
AcDbEntity
  8
0
100
AcDbCircle
 62
2
  6
CONTINUOUS
 10
17.2020380761
 20
2.4255006094
 40
0.0024754602
100
AcDbArc
 50
32.8959418573
 51
89.9875097202
  0
LINE
  5
2F0
100
AcDbEntity
  8
0
100
AcDbLine
 62
2
  6
CONTINUOUS
 10
17.2020386157
 20
2.4279760695
 11
17.1958576123
 21
2.4279760695
  0
ARC
  5
2F1
100
AcDbEntity
  8
0
100
AcDbCircle
 62
2
  6
CONTINUOUS
 10
17.195857542
 20
2.4255008692
 40
0.0024752003
100
AcDbArc
 50
89.998372645
 51
147.602165307
  0
LINE
  5
2F2
100
AcDbEntity
  8
0
100
AcDbLine
 62
2
  6
CONTINUOUS
 10
17.2171806241
 20
2.3897280483
 11
17.2228066272
 21
2.3810350435
  0
ARC
  5
2F3
100
AcDbEntity
  8
0
100
AcDbCircle
 62
2
  6
CONTINUOUS
 10
17.2207286049
 20
2.3796902485
 40
0.0024752071
100
AcDbArc
 50
270.0004896793
 51
32.9089806818
  0
LINE
  5
2F4
100
AcDbEntity
  8
0
100
AcDbLine
 62
2
  6
CONTINUOUS
 10
17.2207286261
 20
2.3772150414
 11
17.2062776181
 21
2.3772150414
  0
ARC
  5
2F5
100
AcDbEntity
  8
0
100
AcDbCircle
 62
2
  6
CONTINUOUS
 10
17.2062776162
 20
2.3747400418
 40
0.0024749995
100
AcDbArc
 50
89.9999571957
 51
180.0000428043
  0
LINE
  5
2F6
100
AcDbEntity
  8
0
100
AcDbLine
 62
2
  6
CONTINUOUS
 10
17.2038026167
 20
2.37474004
 11
17.2038026167
 21
2.354940029
  0
ARC
  5
2F7
100
AcDbEntity
  8
0
100
AcDbCircle
 62
2
  6
CONTINUOUS
 10
17.2062776162
 20
2.3549400272
 40
0.0024749995
100
AcDbArc
 50
179.9999571957
 51
270.0000428043
  0
LINE
  5
2F8
100
AcDbEntity
  8
0
100
AcDbLine
 62
2
  6
CONTINUOUS
 10
17.2062776181
 20
2.3524650276
 11
17.3115586765
 21
2.3524650276
  0
ARC
  5
2F9
100
AcDbEntity
  8
0
100
AcDbCircle
 62
2
  6
CONTINUOUS
 10
17.3115586783
 20
2.3549400272
 40
0.0024749995
100
AcDbArc
 50
269.9999571957
 51
0.0000428043
  0
LINE
  5
2FA
100
AcDbEntity
  8
0
100
AcDbLine
 62
2
  6
CONTINUOUS
 10
17.3140336778
 20
2.354940029
 11
17.3140336778
 21
2.37474004
  0
ARC
  5
2FB
100
AcDbEntity
  8
0
100
AcDbCircle
 62
2
  6
CONTINUOUS
 10
17.3115586783
 20
2.3747400418
 40
0.0024749995
100
AcDbArc
 50
359.9999571957
 51
90.0000428043
  0
LINE
  5
2FC
100
AcDbEntity
  8
0
100
AcDbLine
 62
2
  6
CONTINUOUS
 10
17.3115586765
 20
2.3772150414
 11
17.2915426654
 21
2.3772150414
  0
ARC
  5
2FD
100
AcDbEntity
  8
0
100
AcDbCircle
 62
2
  6
CONTINUOUS
 10
17.2915427859
 20
2.3796890824
 40
0.002474041
100
AcDbArc
 50
212.9056413127
 51
269.9972091756
  0
LINE
  5
2FE
100
AcDbEntity
  8
0
100
AcDbLine
 62
2
  6
CONTINUOUS
 10
17.2894656642
 20
2.378345042
 11
17.2417096377
 21
2.4521400829
  0
ARC
  5
2FF
100
AcDbEntity
  8
0
100
AcDbCircle
 62
2
  6
CONTINUOUS
 10
17.2396320161
 20
2.4507951234
 40
0.0024749602
100
AcDbArc
 50
32.9172174468
 51
90.0087853097
  0
LINE
  5
300
100
AcDbEntity
  8
0
100
AcDbLine
 62
2
  6
CONTINUOUS
 10
17.2396316366
 20
2.4532700835
 11
17.1824566049
 21
2.4532700835
  0
ARC
  5
301
100
AcDbEntity
  8
0
100
AcDbCircle
 62
2
  6
CONTINUOUS
 10
17.1824565346
 20
2.4507948832
 40
0.0024752003
100
AcDbArc
 50
89.998372645
 51
147.602165307
  0
LINE
  5
302
100
AcDbEntity
  8
0
100
AcDbLine
 62
2
  6
CONTINUOUS
 10
17.1803666037
 20
2.4521210829
 11
17.1335665777
 21
2.378364042
  0
ARC
  5
303
100
AcDbEntity
  8
0
100
AcDbCircle
 62
2
  6
CONTINUOUS
 10
17.1314766469
 20
2.3796902417
 40
0.0024752003
100
AcDbArc
 50
269.998372645
 51
327.602165307
  0
LINE
  5
304
100
AcDbEntity
  8
0
100
AcDbLine
 62
2
  6
CONTINUOUS
 10
17.1314765766
 20
2.3772150414
 11
17.1086155639
 21
2.3772150414
  0
ARC
  5
305
100
AcDbEntity
  8
0
100
AcDbCircle
 62
2
  6
CONTINUOUS
 10
17.1086155621
 20
2.3747400418
 40
0.0024749995
100
AcDbArc
 50
89.9999571957
 51
180.0000428043
  0
LINE
  5
306
100
AcDbEntity
  8
0
100
AcDbLine
 62
2
  6
CONTINUOUS
 10
17.1061405625
 20
2.37474004
 11
17.1061405625
 21
2.354940029
  0
ARC
  5
307
100
AcDbEntity
  8
0
100
AcDbCircle
 62
2
  6
CONTINUOUS
 10
17.1086155621
 20
2.3549400272
 40
0.0024749995
100
AcDbArc
 50
179.9999571957
 51
270.0000428043
  0
LINE
  5
308
100
AcDbEntity
  8
0
100
AcDbLine
 62
2
  6
CONTINUOUS
 10
17.1086155639
 20
2.3524650276
 11
17.1859916068
 21
2.3524650276
  0
ARC
  5
309
100
AcDbEntity
  8
0
100
AcDbCircle
 62
2
  6
CONTINUOUS
 10
17.1859916087
 20
2.3549400272
 40
0.0024749995
100
AcDbArc
 50
269.9999571957
 51
0.0000428043
  0
LINE
  5
30A
100
AcDbEntity
  8
0
100
AcDbLine
 62
2
  6
CONTINUOUS
 10
17.1884666082
 20
2.354940029
 11
17.1884666082
 21
2.37474004
  0
ARC
  5
30B
100
AcDbEntity
  8
0
100
AcDbCircle
 62
2
  6
CONTINUOUS
 10
17.1859916087
 20
2.3747400418
 40
0.0024749995
100
AcDbArc
 50
359.9999571957
 51
90.0000428043
  0
LINE
  5
30C
100
AcDbEntity
  8
0
100
AcDbLine
 62
2
  6
CONTINUOUS
 10
17.1859916068
 20
2.3772150414
 11
17.1747086006
 21
2.3772150414
  0
ARC
  5
30D
100
AcDbEntity
  8
0
100
AcDbCircle
 62
2
  6
CONTINUOUS
 10
17.1747084912
 20
2.3796900814
 40
0.0024750401
100
AcDbArc
 50
147.6063258011
 51
270.0025305754
  0
LINE
  5
30E
100
AcDbEntity
  8
0
100
AcDbLine
 62
2
  6
CONTINUOUS
 10
17.1726185994
 20
2.3810160435
 11
17.1781346025
 21
2.3897100483
  0
ARC
  5
30F
100
AcDbEntity
  8
0
100
AcDbCircle
 62
2
  6
CONTINUOUS
 10
17.1802245333
 20
2.3883838486
 40
0.0024752003
100
AcDbArc
 50
89.998372645
 51
147.602165307
  0
LINE
  5
310
100
AcDbEntity
  8
0
100
AcDbLine
 62
2
  6
CONTINUOUS
 10
17.1802246036
 20
2.3908590489
 11
17.215102623
 21
2.3908590489
  0
ARC
  5
311
100
AcDbEntity
  8
0
100
AcDbCircle
 62
2
  6
CONTINUOUS
 10
17.2151020833
 20
2.3883835888
 40
0.0024754602
100
AcDbArc
 50
32.8959418573
 51
89.9875097202
  0
LINE
  5
312
100
AcDbEntity
  8
0
100
AcDbLine
 62
2
  6
CONTINUOUS
 10
17.5897208307
 20
2.4532700835
 11
17.6901788864
 21
2.4532700835
  0
ARC
  5
313
100
AcDbEntity
  8
0
100
AcDbCircle
 62
2
  6
CONTINUOUS
 10
17.6901790212
 20
2.4507959157
 40
0.0024741678
100
AcDbArc
 50
46.3477981899
 51
90.0031206038
  0
LINE
  5
314
100
AcDbEntity
  8
0
100
AcDbLine
 62
2
  6
CONTINUOUS
 10
17.6918868874
 20
2.4525860832
 11
17.7519199207
 21
2.3953060514
  0
ARC
  5
315
100
AcDbEntity
  8
0
100
AcDbCircle
 62
2
  6
CONTINUOUS
 10
17.7536286216
 20
2.3970969891
 40
0.0024753014
100
AcDbArc
 50
226.3461263059
 51
0.0014637321
  0
LINE
  5
316
100
AcDbEntity
  8
0
100
AcDbLine
 62
2
  6
CONTINUOUS
 10
17.756103923
 20
2.3970970524
 11
17.756103923
 21
2.4260450684
  0
ARC
  5
317
100
AcDbEntity
  8
0
100
AcDbCircle
 62
2
  6
CONTINUOUS
 10
17.7536289235
 20
2.4260450703
 40
0.0024749995
100
AcDbArc
 50
359.9999571957
 51
90.0000428043
  0
LINE
  5
318
100
AcDbEntity
  8
0
100
AcDbLine
 62
2
  6
CONTINUOUS
 10
17.7536289216
 20
2.4285200698
 11
17.7348529112
 21
2.4285200698
  0
ARC
  5
319
100
AcDbEntity
  8
0
100
AcDbCircle
 62
2
  6
CONTINUOUS
 10
17.7348529093
 20
2.4309950693
 40
0.0024749995
100
AcDbArc
 50
179.9999571957
 51
270.0000428043
  0
LINE
  5
31A
100
AcDbEntity
  8
0
100
AcDbLine
 62
2
  6
CONTINUOUS
 10
17.7323779098
 20
2.4309950712
 11
17.7323779098
 21
2.4507950822
  0
ARC
  5
31B
100
AcDbEntity
  8
0
100
AcDbCircle
 62
2
  6
CONTINUOUS
 10
17.7348529093
 20
2.450795084
 40
0.0024749995
100
AcDbArc
 50
89.9999571957
 51
180.0000428043
  0
LINE
  5
31C
100
AcDbEntity
  8
0
100
AcDbLine
 62
2
  6
CONTINUOUS
 10
17.7348529112
 20
2.4532700835
 11
17.8088539522
 21
2.4532700835
  0
ARC
  5
31D
100
AcDbEntity
  8
0
100
AcDbCircle
 62
2
  6
CONTINUOUS
 10
17.8088539541
 20
2.450795084
 40
0.0024749995
100
AcDbArc
 50
359.9999571957
 51
90.0000428043
  0
LINE
  5
31E
100
AcDbEntity
  8
0
100
AcDbLine
 62
2
  6
CONTINUOUS
 10
17.8113289536
 20
2.4507950822
 11
17.8113289536
 21
2.4309950712
  0
ARC
  5
31F
100
AcDbEntity
  8
0
100
AcDbCircle
 62
2
  6
CONTINUOUS
 10
17.8088539541
 20
2.4309950693
 40
0.0024749995
100
AcDbArc
 50
269.9999571957
 51
0.0000428043
  0
LINE
  5
320
100
AcDbEntity
  8
0
100
AcDbLine
 62
2
  6
CONTINUOUS
 10
17.8088539522
 20
2.4285200698
 11
17.7909209423
 21
2.4285200698
  0
ARC
  5
321
100
AcDbEntity
  8
0
100
AcDbCircle
 62
2
  6
CONTINUOUS
 10
17.7909209404
 20
2.4260450703
 40
0.0024749995
100
AcDbArc
 50
89.9999571957
 51
180.0000428043
  0
LINE
  5
322
100
AcDbEntity
  8
0
100
AcDbLine
 62
2
  6
CONTINUOUS
 10
17.7884459409
 20
2.4260450684
 11
17.7884459409
 21
2.354940029
  0
ARC
  5
323
100
AcDbEntity
  8
0
100
AcDbCircle
 62
2
  6
CONTINUOUS
 10
17.7859709414
 20
2.3549400272
 40
0.0024749995
100
AcDbArc
 50
269.9999571957
 51
0.0000428043
  0
LINE
  5
324
100
AcDbEntity
  8
0
100
AcDbLine
 62
2
  6
CONTINUOUS
 10
17.7859709395
 20
2.3524650276
 11
17.7117648984
 21
2.3524650276
  0
ARC
  5
325
100
AcDbEntity
  8
0
100
AcDbCircle
 62
2
  6
CONTINUOUS
 10
17.7117647636
 20
2.3549391954
 40
0.0024741678
100
AcDbArc
 50
226.3477981898
 51
270.0031206038
  0
LINE
  5
326
100
AcDbEntity
  8
0
100
AcDbLine
 62
2
  6
CONTINUOUS
 10
17.7100568974
 20
2.353149028
 11
17.6467768624
 21
2.4135270615
  0
ARC
  5
327
100
AcDbEntity
  8
0
100
AcDbCircle
 62
2
  6
CONTINUOUS
 10
17.6450681614
 20
2.4117361237
 40
0.0024753014
100
AcDbArc
 50
46.3461263059
 51
180.0014637321
  0
LINE
  5
328
100
AcDbEntity
  8
0
100
AcDbLine
 62
2
  6
CONTINUOUS
 10
17.64259286
 20
2.4117360605
 11
17.64259286
 21
2.3796900427
  0
ARC
  5
329
100
AcDbEntity
  8
0
100
AcDbCircle
 62
2
  6
CONTINUOUS
 10
17.6450678596
 20
2.3796900409
 40
0.0024749995
100
AcDbArc
 50
179.9999571957
 51
270.0000428043
  0
LINE
  5
32A
100
AcDbEntity
  8
0
100
AcDbLine
 62
2
  6
CONTINUOUS
 10
17.6450678614
 20
2.3772150414
 11
17.6653848727
 21
2.3772150414
  0
ARC
  5
32B
100
AcDbEntity
  8
0
100
AcDbCircle
 62
2
  6
CONTINUOUS
 10
17.6653848745
 20
2.3747400418
 40
0.0024749995
100
AcDbArc
 50
359.9999571957
 51
90.0000428043
  0
LINE
  5
32C
100
AcDbEntity
  8
0
100
AcDbLine
 62
2
  6
CONTINUOUS
 10
17.667859874
 20
2.37474004
 11
17.667859874
 21
2.354940029
  0
ARC
  5
32D
100
AcDbEntity
  8
0
100
AcDbCircle
 62
2
  6
CONTINUOUS
 10
17.6653848745
 20
2.3549400272
 40
0.0024749995
100
AcDbArc
 50
269.9999571957
 51
0.0000428043
  0
LINE
  5
32E
100
AcDbEntity
  8
0
100
AcDbLine
 62
2
  6
CONTINUOUS
 10
17.6653848727
 20
2.3524650276
 11
17.5897208307
 21
2.3524650276
  0
ARC
  5
32F
100
AcDbEntity
  8
0
100
AcDbCircle
 62
2
  6
CONTINUOUS
 10
17.5897208289
 20
2.3549400272
 40
0.0024749995
100
AcDbArc
 50
179.9999571957
 51
270.0000428043
  0
LINE
  5
330
100
AcDbEntity
  8
0
100
AcDbLine
 62
2
  6
CONTINUOUS
 10
17.5872458293
 20
2.354940029
 11
17.5872458293
 21
2.37474004
  0
ARC
  5
331
100
AcDbEntity
  8
0
100
AcDbCircle
 62
2
  6
CONTINUOUS
 10
17.5897208289
 20
2.3747400418
 40
0.0024749995
100
AcDbArc
 50
89.9999571957
 51
180.0000428043
  0
LINE
  5
332
100
AcDbEntity
  8
0
100
AcDbLine
 62
2
  6
CONTINUOUS
 10
17.5897208307
 20
2.3772150414
 11
17.6083668411
 21
2.3772150414
  0
ARC
  5
333
100
AcDbEntity
  8
0
100
AcDbCircle
 62
2
  6
CONTINUOUS
 10
17.6083668429
 20
2.3796900409
 40
0.0024749995
100
AcDbArc
 50
269.9999571957
 51
0.0000428043
  0
LINE
  5
334
100
AcDbEntity
  8
0
100
AcDbLine
 62
2
  6
CONTINUOUS
 10
17.6108418424
 20
2.3796900427
 11
17.6108418424
 21
2.4260450684
  0
ARC
  5
335
100
AcDbEntity
  8
0
100
AcDbCircle
 62
2
  6
CONTINUOUS
 10
17.6083668429
 20
2.4260450703
 40
0.0024749995
100
AcDbArc
 50
359.9999571957
 51
90.0000428043
  0
LINE
  5
336
100
AcDbEntity
  8
0
100
AcDbLine
 62
2
  6
CONTINUOUS
 10
17.6083668411
 20
2.4285200698
 11
17.5897208307
 21
2.4285200698
  0
ARC
  5
337
100
AcDbEntity
  8
0
100
AcDbCircle
 62
2
  6
CONTINUOUS
 10
17.5897208289
 20
2.4309950693
 40
0.0024749995
100
AcDbArc
 50
179.9999571957
 51
270.0000428043
  0
LINE
  5
338
100
AcDbEntity
  8
0
100
AcDbLine
 62
2
  6
CONTINUOUS
 10
17.5872458293
 20
2.4309950712
 11
17.5872458293
 21
2.4507950822
  0
ARC
  5
339
100
AcDbEntity
  8
0
100
AcDbCircle
 62
2
  6
CONTINUOUS
 10
17.5897208289
 20
2.450795084
 40
0.0024749995
100
AcDbArc
 50
89.9999571957
 51
180.0000428043
  0
LINE
  5
33A
100
AcDbEntity
  8
0
100
AcDbLine
 62
2
  6
CONTINUOUS
 10
17.9625500375
 20
2.3937150505
 11
17.927383018
 21
2.3937150505
  0
ARC
  5
33B
100
AcDbEntity
  8
0
100
AcDbCircle
 62
2
  6
CONTINUOUS
 10
17.9273830161
 20
2.391240051
 40
0.0024749995
100
AcDbArc
 50
89.9999571957
 51
180.0000428043
  0
LINE
  5
33C
100
AcDbEntity
  8
0
100
AcDbLine
 62
2
  6
CONTINUOUS
 10
17.9249080166
 20
2.3912400491
 11
17.9249080166
 21
2.3796900427
  0
ARC
  5
33D
100
AcDbEntity
  8
0
100
AcDbCircle
 62
2
  6
CONTINUOUS
 10
17.9273830161
 20
2.3796900409
 40
0.0024749995
100
AcDbArc
 50
179.9999571957
 51
270.0000428043
  0
LINE
  5
33E
100
AcDbEntity
  8
0
100
AcDbLine
 62
2
  6
CONTINUOUS
 10
17.927383018
 20
2.3772150414
 11
17.992387054
 21
2.3772150414
  0
ARC
  5
33F
100
AcDbEntity
  8
0
100
AcDbCircle
 62
2
  6
CONTINUOUS
 10
17.9923870559
 20
2.3796900409
 40
0.0024749995
100
AcDbArc
 50
269.9999571957
 51
0.0000428043
  0
LINE
  5
340
100
AcDbEntity
  8
0
100
AcDbLine
 62
2
  6
CONTINUOUS
 10
17.9948620554
 20
2.3796900427
 11
17.9948620554
 21
2.3879400473
  0
ARC
  5
341
100
AcDbEntity
  8
0
100
AcDbCircle
 62
2
  6
CONTINUOUS
 10
17.9973370549
 20
2.3879400492
 40
0.0024749995
100
AcDbArc
 50
89.9999571957
 51
180.0000428043
  0
LINE
  5
342
100
AcDbEntity
  8
0
100
AcDbLine
 62
2
  6
CONTINUOUS
 10
17.9973370568
 20
2.3904150487
 11
18.0396560802
 21
2.3904150487
  0
ARC
  5
343
100
AcDbEntity
  8
0
100
AcDbCircle
 62
2
  6
CONTINUOUS
 10
18.0396560821
 20
2.3879400492
 40
0.0024749995
100
AcDbArc
 50
359.9999571957
 51
90.0000428043
  0
LINE
  5
344
100
AcDbEntity
  8
0
100
AcDbLine
 62
2
  6
CONTINUOUS
 10
18.0421310816
 20
2.3879400473
 11
18.0421310816
 21
2.354940029
  0
ARC
  5
345
100
AcDbEntity
  8
0
100
AcDbCircle
 62
2
  6
CONTINUOUS
 10
18.0396560821
 20
2.3549400272
 40
0.0024749995
100
AcDbArc
 50
269.9999571957
 51
0.0000428043
  0
LINE
  5
346
100
AcDbEntity
  8
0
100
AcDbLine
 62
2
  6
CONTINUOUS
 10
18.0396560802
 20
2.3524650276
 11
17.8364439675
 21
2.3524650276
  0
ARC
  5
347
100
AcDbEntity
  8
0
100
AcDbCircle
 62
2
  6
CONTINUOUS
 10
17.8364439657
 20
2.3549400272
 40
0.0024749995
100
AcDbArc
 50
179.9999571957
 51
270.0000428043
  0
LINE
  5
348
100
AcDbEntity
  8
0
100
AcDbLine
 62
2
  6
CONTINUOUS
 10
17.8339689662
 20
2.354940029
 11
17.8339689662
 21
2.37474004
  0
ARC
  5
349
100
AcDbEntity
  8
0
100
AcDbCircle
 62
2
  6
CONTINUOUS
 10
17.8364439657
 20
2.3747400418
 40
0.0024749995
100
AcDbArc
 50
89.9999571957
 51
180.0000428043
  0
LINE
  5
34A
100
AcDbEntity
  8
0
100
AcDbLine
 62
2
  6
CONTINUOUS
 10
17.8364439675
 20
2.3772150414
 11
17.8603669808
 21
2.3772150414
  0
ARC
  5
34B
100
AcDbEntity
  8
0
100
AcDbCircle
 62
2
  6
CONTINUOUS
 10
17.8603669827
 20
2.3796900409
 40
0.0024749995
100
AcDbArc
 50
269.9999571956
 51
0.0000428042
  0
LINE
  5
34C
100
AcDbEntity
  8
0
100
AcDbLine
 62
2
  6
CONTINUOUS
 10
17.8628419822
 20
2.3796900427
 11
17.8628419822
 21
2.4260450684
  0
ARC
  5
34D
100
AcDbEntity
  8
0
100
AcDbCircle
 62
2
  6
CONTINUOUS
 10
17.8603669827
 20
2.4260450703
 40
0.0024749995
100
AcDbArc
 50
359.9999571957
 51
90.0000428043
  0
LINE
  5
34E
100
AcDbEntity
  8
0
100
AcDbLine
 62
2
  6
CONTINUOUS
 10
17.8603669808
 20
2.4285200698
 11
17.8364439675
 21
2.4285200698
  0
ARC
  5
34F
100
AcDbEntity
  8
0
100
AcDbCircle
 62
2
  6
CONTINUOUS
 10
17.8364439657
 20
2.4309950693
 40
0.0024749995
100
AcDbArc
 50
179.9999571957
 51
270.0000428043
  0
LINE
  5
350
100
AcDbEntity
  8
0
100
AcDbLine
 62
2
  6
CONTINUOUS
 10
17.8339689662
 20
2.4309950712
 11
17.8339689662
 21
2.4507950822
  0
ARC
  5
351
100
AcDbEntity
  8
0
100
AcDbCircle
 62
2
  6
CONTINUOUS
 10
17.8364439657
 20
2.450795084
 40
0.0024749995
100
AcDbArc
 50
89.9999571957
 51
180.0000428043
  0
LINE
  5
352
100
AcDbEntity
  8
0
100
AcDbLine
 62
2
  6
CONTINUOUS
 10
17.8364439675
 20
2.4532700835
 11
18.0382370794
 21
2.4532700835
  0
ARC
  5
353
100
AcDbEntity
  8
0
100
AcDbCircle
 62
2
  6
CONTINUOUS
 10
18.0382370813
 20
2.450795084
 40
0.0024749995
100
AcDbArc
 50
359.9999571957
 51
90.0000428043
  0
LINE
  5
354
100
AcDbEntity
  8
0
100
AcDbLine
 62
2
  6
CONTINUOUS
 10
18.0407120808
 20
2.4507950822
 11
18.0407120808
 21
2.4177950639
  0
ARC
  5
355
100
AcDbEntity
  8
0
100
AcDbCircle
 62
2
  6
CONTINUOUS
 10
18.0382370813
 20
2.417795062
 40
0.0024749995
100
AcDbArc
 50
269.9999571957
 51
0.0000428043
  0
LINE
  5
356
100
AcDbEntity
  8
0
100
AcDbLine
 62
2
  6
CONTINUOUS
 10
18.0382370794
 20
2.4153200625
 11
17.9963730562
 21
2.4153200625
  0
ARC
  5
357
100
AcDbEntity
  8
0
100
AcDbCircle
 62
2
  6
CONTINUOUS
 10
17.9963730544
 20
2.417795062
 40
0.0024749995
100
AcDbArc
 50
179.9999571957
 51
270.0000428043
  0
LINE
  5
358
100
AcDbEntity
  8
0
100
AcDbLine
 62
2
  6
CONTINUOUS
 10
17.9938980549
 20
2.4177950639
 11
17.9938980549
 21
2.4260450684
  0
ARC
  5
359
100
AcDbEntity
  8
0
100
AcDbCircle
 62
2
  6
CONTINUOUS
 10
17.9914230553
 20
2.4260450703
 40
0.0024749995
100
AcDbArc
 50
359.9999571957
 51
90.0000428043
  0
LINE
  5
35A
100
AcDbEntity
  8
0
100
AcDbLine
 62
2
  6
CONTINUOUS
 10
17.9914230535
 20
2.4285200698
 11
17.927383018
 21
2.4285200698
  0
ARC
  5
35B
100
AcDbEntity
  8
0
100
AcDbCircle
 62
2
  6
CONTINUOUS
 10
17.9273830161
 20
2.4260450703
 40
0.0024749995
100
AcDbArc
 50
89.9999571957
 51
180.0000428043
  0
LINE
  5
35C
100
AcDbEntity
  8
0
100
AcDbLine
 62
2
  6
CONTINUOUS
 10
17.9249080166
 20
2.4260450684
 11
17.9249080166
 21
2.414495062
  0
ARC
  5
35D
100
AcDbEntity
  8
0
100
AcDbCircle
 62
2
  6
CONTINUOUS
 10
17.9273830161
 20
2.4144950602
 40
0.0024749995
100
AcDbArc
 50
179.9999571957
 51
270.0000428043
  0
LINE
  5
35E
100
AcDbEntity
  8
0
100
AcDbLine
 62
2
  6
CONTINUOUS
 10
17.927383018
 20
2.4120200607
 11
17.9625500375
 21
2.4120200607
  0
ARC
  5
35F
100
AcDbEntity
  8
0
100
AcDbCircle
 62
2
  6
CONTINUOUS
 10
17.9625500393
 20
2.4095450611
 40
0.0024749995
100
AcDbArc
 50
359.9999571957
 51
90.0000428043
  0
LINE
  5
360
100
AcDbEntity
  8
0
100
AcDbLine
 62
2
  6
CONTINUOUS
 10
17.9650250388
 20
2.4095450593
 11
17.9650250388
 21
2.3961900519
  0
ARC
  5
361
100
AcDbEntity
  8
0
100
AcDbCircle
 62
2
  6
CONTINUOUS
 10
17.9625500393
 20
2.39619005
 40
0.0024749995
100
AcDbArc
 50
269.9999571956
 51
0.0000428042
  0
LINE
  5
362
100
AcDbEntity
  8
0
100
AcDbLine
 62
2
  6
CONTINUOUS
 10
18.39781452
 20
2.3963074516
 11
18.39781452
 21
2.4069246582
  0
LINE
  5
363
100
AcDbEntity
  8
0
100
AcDbLine
 62
2
  6
CONTINUOUS
 10
18.3778145089
 20
2.3616679219
 11
18.3778145089
 21
2.4415641879
  0
LINE
  5
364
100
AcDbEntity
  8
0
100
AcDbLine
 62
2
  6
CONTINUOUS
 10
18.3578144978
 20
2.345629656
 11
18.3578144978
 21
2.4576024538
  0
LINE
  5
365
100
AcDbEntity
  8
0
100
AcDbLine
 62
2
  6
CONTINUOUS
 10
18.3378144867
 20
2.3338395042
 11
18.3378144867
 21
2.4693926055
  0
LINE
  5
366
100
AcDbEntity
  8
0
100
AcDbLine
 62
2
  6
CONTINUOUS
 10
18.3178144756
 20
2.3240439832
 11
18.3178144756
 21
2.4791881266
  0
LINE
  5
367
100
AcDbEntity
  8
0
100
AcDbLine
 62
2
  6
CONTINUOUS
 10
18.2978144645
 20
2.3153630651
 11
18.2978144645
 21
2.36748602
  0
LINE
  5
368
100
AcDbEntity
  8
0
100
AcDbLine
 62
2
  6
CONTINUOUS
 10
18.2978144645
 20
2.3913520492
 11
18.2978144645
 21
2.4878690447
  0
LINE
  5
369
100
AcDbEntity
  8
0
100
AcDbLine
 62
2
  6
CONTINUOUS
 10
18.2778144535
 20
2.3077915047
 11
18.2778144535
 21
2.3531152062
  0
LINE
  5
36A
100
AcDbEntity
  8
0
100
AcDbLine
 62
2
  6
CONTINUOUS
 10
18.2778144535
 20
2.3778158317
 11
18.2778144535
 21
2.4954406051
  0
LINE
  5
36B
100
AcDbEntity
  8
0
100
AcDbLine
 62
2
  6
CONTINUOUS
 10
18.2578144424
 20
2.301041061
 11
18.2578144424
 21
2.3524650276
  0
LINE
  5
36C
100
AcDbEntity
  8
0
100
AcDbLine
 62
2
  6
CONTINUOUS
 10
18.2578144424
 20
2.4004217989
 11
18.2578144424
 21
2.4066675471
  0
LINE
  5
36D
100
AcDbEntity
  8
0
100
AcDbLine
 62
2
  6
CONTINUOUS
 10
18.2578144424
 20
2.4474440616
 11
18.2578144424
 21
2.5021910487
  0
LINE
  5
36E
100
AcDbEntity
  8
0
100
AcDbLine
 62
2
  6
CONTINUOUS
 10
18.2378144313
 20
2.2947079333
 11
18.2378144313
 21
2.3524650276
  0
LINE
  5
36F
100
AcDbEntity
  8
0
100
AcDbLine
 62
2
  6
CONTINUOUS
 10
18.2378144313
 20
2.4518964909
 11
18.2378144313
 21
2.5085241764
  0
LINE
  5
370
100
AcDbEntity
  8
0
100
AcDbLine
 62
2
  6
CONTINUOUS
 10
18.2178144202
 20
2.2891345268
 11
18.2178144202
 21
2.354983815
  0
LINE
  5
371
100
AcDbEntity
  8
0
100
AcDbLine
 62
2
  6
CONTINUOUS
 10
18.2178144202
 20
2.4532700835
 11
18.2178144202
 21
2.514097583
  0
LINE
  5
372
100
AcDbEntity
  8
0
100
AcDbLine
 62
2
  6
CONTINUOUS
 10
18.1978144091
 20
2.2837804818
 11
18.1978144091
 21
2.3882804137
  0
LINE
  5
373
100
AcDbEntity
  8
0
100
AcDbLine
 62
2
  6
CONTINUOUS
 10
18.1978144091
 20
2.4117543403
 11
18.1978144091
 21
2.4281034235
  0
LINE
  5
374
100
AcDbEntity
  8
0
100
AcDbLine
 62
2
  6
CONTINUOUS
 10
18.1978144091
 20
2.4532700835
 11
18.1978144091
 21
2.519451628
  0
LINE
  5
375
100
AcDbEntity
  8
0
100
AcDbLine
 62
2
  6
CONTINUOUS
 10
18.177814398
 20
2.2789683935
 11
18.177814398
 21
2.3524650276
  0
LINE
  5
376
100
AcDbEntity
  8
0
100
AcDbLine
 62
2
  6
CONTINUOUS
 10
18.177814398
 20
2.3771930413
 11
18.177814398
 21
2.3918420495
  0
LINE
  5
377
100
AcDbEntity
  8
0
100
AcDbLine
 62
2
  6
CONTINUOUS
 10
18.177814398
 20
2.41084506
 11
18.177814398
 21
2.4285200698
  0
LINE
  5
378
100
AcDbEntity
  8
0
100
AcDbLine
 62
2
  6
CONTINUOUS
 10
18.177814398
 20
2.4532700835
 11
18.177814398
 21
2.5242637163
  0
LINE
  5
379
100
AcDbEntity
  8
0
100
AcDbLine
 62
2
  6
CONTINUOUS
 10
18.1578143869
 20
2.2744172398
 11
18.1578143869
 21
2.3524650276
  0
LINE
  5
37A
100
AcDbEntity
  8
0
100
AcDbLine
 62
2
  6
CONTINUOUS
 10
18.1578143869
 20
2.3771930413
 11
18.1578143869
 21
2.3918420495
  0
LINE
  5
37B
100
AcDbEntity
  8
0
100
AcDbLine
 62
2
  6
CONTINUOUS
 10
18.1578143869
 20
2.41084506
 11
18.1578143869
 21
2.4285200698
  0
LINE
  5
37C
100
AcDbEntity
  8
0
100
AcDbLine
 62
2
  6
CONTINUOUS
 10
18.1578143869
 20
2.4532700835
 11
18.1578143869
 21
2.5288148699
  0
LINE
  5
37D
100
AcDbEntity
  8
0
100
AcDbLine
 62
2
  6
CONTINUOUS
 10
18.1378143758
 20
2.2701196816
 11
18.1378143758
 21
2.3524650276
  0
LINE
  5
37E
100
AcDbEntity
  8
0
100
AcDbLine
 62
2
  6
CONTINUOUS
 10
18.1378143758
 20
2.4532700835
 11
18.1378143758
 21
2.5331124282
  0
LINE
  5
37F
100
AcDbEntity
  8
0
100
AcDbLine
 62
2
  6
CONTINUOUS
 10
18.1178143647
 20
2.2662469216
 11
18.1178143647
 21
2.3524650276
  0
LINE
  5
380
100
AcDbEntity
  8
0
100
AcDbLine
 62
2
  6
CONTINUOUS
 10
18.1178143647
 20
2.4532700835
 11
18.1178143647
 21
2.5369851882
  0
LINE
  5
381
100
AcDbEntity
  8
0
100
AcDbLine
 62
2
  6
CONTINUOUS
 10
18.0978143536
 20
2.2623741615
 11
18.0978143536
 21
2.3524650276
  0
LINE
  5
382
100
AcDbEntity
  8
0
100
AcDbLine
 62
2
  6
CONTINUOUS
 10
18.0978143536
 20
2.4532700835
 11
18.0978143536
 21
2.5408579483
  0
LINE
  5
383
100
AcDbEntity
  8
0
100
AcDbLine
 62
2
  6
CONTINUOUS
 10
18.0778143425
 20
2.2592603806
 11
18.0778143425
 21
2.3524650276
  0
LINE
  5
384
100
AcDbEntity
  8
0
100
AcDbLine
 62
2
  6
CONTINUOUS
 10
18.0778143425
 20
2.3772150414
 11
18.0778143425
 21
2.4285200698
  0
LINE
  5
385
100
AcDbEntity
  8
0
100
AcDbLine
 62
2
  6
CONTINUOUS
 10
18.0778143425
 20
2.4532700835
 11
18.0778143425
 21
2.5439717292
  0
LINE
  5
386
100
AcDbEntity
  8
0
100
AcDbLine
 62
2
  6
CONTINUOUS
 10
18.0578143315
 20
2.2562429918
 11
18.0578143315
 21
2.546989118
  0
LINE
  5
387
100
AcDbEntity
  8
0
100
AcDbLine
 62
2
  6
CONTINUOUS
 10
18.0378143204
 20
2.2532256029
 11
18.0378143204
 21
2.3524650276
  0
LINE
  5
388
100
AcDbEntity
  8
0
100
AcDbLine
 62
2
  6
CONTINUOUS
 10
18.0378143204
 20
2.3904150487
 11
18.0378143204
 21
2.4153200625
  0
LINE
  5
389
100
AcDbEntity
  8
0
100
AcDbLine
 62
2
  6
CONTINUOUS
 10
18.0378143204
 20
2.4532700835
 11
18.0378143204
 21
2.5500065068
  0
LINE
  5
38A
100
AcDbEntity
  8
0
100
AcDbLine
 62
2
  6
CONTINUOUS
 10
18.0178143093
 20
2.2502082141
 11
18.0178143093
 21
2.3524650276
  0
LINE
  5
38B
100
AcDbEntity
  8
0
100
AcDbLine
 62
2
  6
CONTINUOUS
 10
18.0178143093
 20
2.3904150487
 11
18.0178143093
 21
2.4153200625
  0
LINE
  5
38C
100
AcDbEntity
  8
0
100
AcDbLine
 62
2
  6
CONTINUOUS
 10
18.0178143093
 20
2.4532700835
 11
18.0178143093
 21
2.5530238957
  0
LINE
  5
38D
100
AcDbEntity
  8
0
100
AcDbLine
 62
2
  6
CONTINUOUS
 10
17.9978142982
 20
2.2471908253
 11
17.9978142982
 21
2.3524650276
  0
LINE
  5
38E
100
AcDbEntity
  8
0
100
AcDbLine
 62
2
  6
CONTINUOUS
 10
17.9978142982
 20
2.3904150487
 11
17.9978142982
 21
2.4153200625
  0
LINE
  5
38F
100
AcDbEntity
  8
0
100
AcDbLine
 62
2
  6
CONTINUOUS
 10
17.9978142982
 20
2.4532700835
 11
17.9978142982
 21
2.5560412845
  0
LINE
  5
390
100
AcDbEntity
  8
0
100
AcDbLine
 62
2
  6
CONTINUOUS
 10
17.9778142871
 20
2.2445732581
 11
17.9778142871
 21
2.3524650276
  0
LINE
  5
391
100
AcDbEntity
  8
0
100
AcDbLine
 62
2
  6
CONTINUOUS
 10
17.9778142871
 20
2.3772150414
 11
17.9778142871
 21
2.4285200698
  0
LINE
  5
392
100
AcDbEntity
  8
0
100
AcDbLine
 62
2
  6
CONTINUOUS
 10
17.9778142871
 20
2.4532700835
 11
17.9778142871
 21
2.5586588517
  0
LINE
  5
393
100
AcDbEntity
  8
0
100
AcDbLine
 62
2
  6
CONTINUOUS
 10
17.957814276
 20
2.2424989828
 11
17.957814276
 21
2.3524650276
  0
LINE
  5
394
100
AcDbEntity
  8
0
100
AcDbLine
 62
2
  6
CONTINUOUS
 10
17.957814276
 20
2.3772150414
 11
17.957814276
 21
2.3937150505
  0
LINE
  5
395
100
AcDbEntity
  8
0
100
AcDbLine
 62
2
  6
CONTINUOUS
 10
17.957814276
 20
2.4120200607
 11
17.957814276
 21
2.4285200698
  0
LINE
  5
396
100
AcDbEntity
  8
0
100
AcDbLine
 62
2
  6
CONTINUOUS
 10
17.957814276
 20
2.4532700835
 11
17.957814276
 21
2.5607331269
  0
LINE
  5
397
100
AcDbEntity
  8
0
100
AcDbLine
 62
2
  6
CONTINUOUS
 10
17.9378142649
 20
2.2404247076
 11
17.9378142649
 21
2.3524650276
  0
LINE
  5
398
100
AcDbEntity
  8
0
100
AcDbLine
 62
2
  6
CONTINUOUS
 10
17.9378142649
 20
2.3772150414
 11
17.9378142649
 21
2.3937150505
  0
LINE
  5
399
100
AcDbEntity
  8
0
100
AcDbLine
 62
2
  6
CONTINUOUS
 10
17.9378142649
 20
2.4120200607
 11
17.9378142649
 21
2.4285200698
  0
LINE
  5
39A
100
AcDbEntity
  8
0
100
AcDbLine
 62
2
  6
CONTINUOUS
 10
17.9378142649
 20
2.4532700835
 11
17.9378142649
 21
2.5628074022
  0
LINE
  5
39B
100
AcDbEntity
  8
0
100
AcDbLine
 62
2
  6
CONTINUOUS
 10
17.9178142538
 20
2.2383504324
 11
17.9178142538
 21
2.3524650276
  0
LINE
  5
39C
100
AcDbEntity
  8
0
100
AcDbLine
 62
2
  6
CONTINUOUS
 10
17.9178142538
 20
2.4532700835
 11
17.9178142538
 21
2.5648816774
  0
LINE
  5
39D
100
AcDbEntity
  8
0
100
AcDbLine
 62
2
  6
CONTINUOUS
 10
17.8978142427
 20
2.2362761572
 11
17.8978142427
 21
2.3524650276
  0
LINE
  5
39E
100
AcDbEntity
  8
0
100
AcDbLine
 62
2
  6
CONTINUOUS
 10
17.8978142427
 20
2.4532700835
 11
17.8978142427
 21
2.5669559526
  0
LINE
  5
39F
100
AcDbEntity
  8
0
100
AcDbLine
 62
2
  6
CONTINUOUS
 10
17.8778142316
 20
2.234201882
 11
17.8778142316
 21
2.3524650276
  0
LINE
  5
3A0
100
AcDbEntity
  8
0
100
AcDbLine
 62
2
  6
CONTINUOUS
 10
17.8778142316
 20
2.4532700835
 11
17.8778142316
 21
2.5690302278
  0
LINE
  5
3A1
100
AcDbEntity
  8
0
100
AcDbLine
 62
2
  6
CONTINUOUS
 10
17.8578142205
 20
2.23247216
 11
17.8578142205
 21
2.3524650276
  0
LINE
  5
3A2
100
AcDbEntity
  8
0
100
AcDbLine
 62
2
  6
CONTINUOUS
 10
17.8578142205
 20
2.3772150414
 11
17.8578142205
 21
2.4285200698
  0
LINE
  5
3A3
100
AcDbEntity
  8
0
100
AcDbLine
 62
2
  6
CONTINUOUS
 10
17.8578142205
 20
2.4532700835
 11
17.8578142205
 21
2.5707599498
  0
LINE
  5
3A4
100
AcDbEntity
  8
0
100
AcDbLine
 62
2
  6
CONTINUOUS
 10
17.8378142094
 20
2.2312059562
 11
17.8378142094
 21
2.3524650276
  0
LINE
  5
3A5
100
AcDbEntity
  8
0
100
AcDbLine
 62
2
  6
CONTINUOUS
 10
17.8378142094
 20
2.3772150414
 11
17.8378142094
 21
2.4285200698
  0
LINE
  5
3A6
100
AcDbEntity
  8
0
100
AcDbLine
 62
2
  6
CONTINUOUS
 10
17.8378142094
 20
2.4532700835
 11
17.8378142094
 21
2.5720261536
  0
LINE
  5
3A7
100
AcDbEntity
  8
0
100
AcDbLine
 62
2
  6
CONTINUOUS
 10
17.8178141984
 20
2.2299397525
 11
17.8178141984
 21
2.5732923573
  0
LINE
  5
3A8
100
AcDbEntity
  8
0
100
AcDbLine
 62
2
  6
CONTINUOUS
 10
17.7978141873
 20
2.2286735487
 11
17.7978141873
 21
2.4285200698
  0
LINE
  5
3A9
100
AcDbEntity
  8
0
100
AcDbLine
 62
2
  6
CONTINUOUS
 10
17.7978141873
 20
2.4532700835
 11
17.7978141873
 21
2.574558561
  0
LINE
  5
3AA
100
AcDbEntity
  8
0
100
AcDbLine
 62
2
  6
CONTINUOUS
 10
17.7778141762
 20
2.227407345
 11
17.7778141762
 21
2.3524650276
  0
LINE
  5
3AB
100
AcDbEntity
  8
0
100
AcDbLine
 62
2
  6
CONTINUOUS
 10
17.7778141762
 20
2.4532700835
 11
17.7778141762
 21
2.5758247648
  0
LINE
  5
3AC
100
AcDbEntity
  8
0
100
AcDbLine
 62
2
  6
CONTINUOUS
 10
17.7578141651
 20
2.2261411413
 11
17.7578141651
 21
2.3524650276
  0
LINE
  5
3AD
100
AcDbEntity
  8
0
100
AcDbLine
 62
2
  6
CONTINUOUS
 10
17.7578141651
 20
2.4532700835
 11
17.7578141651
 21
2.5770909685
  0
LINE
  5
3AE
100
AcDbEntity
  8
0
100
AcDbLine
 62
2
  6
CONTINUOUS
 10
17.737814154
 20
2.2249117066
 11
17.737814154
 21
2.3524650276
  0
LINE
  5
3AF
100
AcDbEntity
  8
0
100
AcDbLine
 62
2
  6
CONTINUOUS
 10
17.737814154
 20
2.4087649542
 11
17.737814154
 21
2.4285200698
  0
LINE
  5
3B0
100
AcDbEntity
  8
0
100
AcDbLine
 62
2
  6
CONTINUOUS
 10
17.737814154
 20
2.4532700835
 11
17.737814154
 21
2.5783204031
  0
LINE
  5
3B1
100
AcDbEntity
  8
0
100
AcDbLine
 62
2
  6
CONTINUOUS
 10
17.7178141429
 20
2.2243809174
 11
17.7178141429
 21
2.3524650276
  0
LINE
  5
3B2
100
AcDbEntity
  8
0
100
AcDbLine
 62
2
  6
CONTINUOUS
 10
17.7178141429
 20
2.4278478026
 11
17.7178141429
 21
2.5788511924
  0
LINE
  5
3B3
100
AcDbEntity
  8
0
100
AcDbLine
 62
2
  6
CONTINUOUS
 10
17.6978141318
 20
2.2238501282
 11
17.6978141318
 21
2.3648303444
  0
LINE
  5
3B4
100
AcDbEntity
  8
0
100
AcDbLine
 62
2
  6
CONTINUOUS
 10
17.6978141318
 20
2.446930651
 11
17.6978141318
 21
2.5793819816
  0
LINE
  5
3B5
100
AcDbEntity
  8
0
100
AcDbLine
 62
2
  6
CONTINUOUS
 10
17.6778141207
 20
2.223319339
 11
17.6778141207
 21
2.3839131616
  0
LINE
  5
3B6
100
AcDbEntity
  8
0
100
AcDbLine
 62
2
  6
CONTINUOUS
 10
17.6778141207
 20
2.4532700835
 11
17.6778141207
 21
2.5799127708
  0
LINE
  5
3B7
100
AcDbEntity
  8
0
100
AcDbLine
 62
2
  6
CONTINUOUS
 10
17.6578141096
 20
2.2227885498
 11
17.6578141096
 21
2.3524650276
  0
LINE
  5
3B8
100
AcDbEntity
  8
0
100
AcDbLine
 62
2
  6
CONTINUOUS
 10
17.6578141096
 20
2.3772150414
 11
17.6578141096
 21
2.4029959788
  0
LINE
  5
3B9
100
AcDbEntity
  8
0
100
AcDbLine
 62
2
  6
CONTINUOUS
 10
17.6578141096
 20
2.4532700835
 11
17.6578141096
 21
2.58044356
  0
LINE
  5
3BA
100
AcDbEntity
  8
0
100
AcDbLine
 62
2
  6
CONTINUOUS
 10
17.6378140985
 20
2.2222577606
 11
17.6378140985
 21
2.3524650276
  0
LINE
  5
3BB
100
AcDbEntity
  8
0
100
AcDbLine
 62
2
  6
CONTINUOUS
 10
17.6378140985
 20
2.4532700835
 11
17.6378140985
 21
2.5809743492
  0
LINE
  5
3BC
100
AcDbEntity
  8
0
100
AcDbLine
 62
2
  6
CONTINUOUS
 10
17.6178140874
 20
2.2217269714
 11
17.6178140874
 21
2.3524650276
  0
LINE
  5
3BD
100
AcDbEntity
  8
0
100
AcDbLine
 62
2
  6
CONTINUOUS
 10
17.6178140874
 20
2.4532700835
 11
17.6178140874
 21
2.5815051384
  0
LINE
  5
3BE
100
AcDbEntity
  8
0
100
AcDbLine
 62
2
  6
CONTINUOUS
 10
17.5978140764
 20
2.2215213152
 11
17.5978140764
 21
2.3524650276
  0
LINE
  5
3BF
100
AcDbEntity
  8
0
100
AcDbLine
 62
2
  6
CONTINUOUS
 10
17.5978140764
 20
2.3772150414
 11
17.5978140764
 21
2.4285200698
  0
LINE
  5
3C0
100
AcDbEntity
  8
0
100
AcDbLine
 62
2
  6
CONTINUOUS
 10
17.5978140764
 20
2.4532700835
 11
17.5978140764
 21
2.5817107946
  0
LINE
  5
3C1
100
AcDbEntity
  8
0
100
AcDbLine
 62
2
  6
CONTINUOUS
 10
17.5778140653
 20
2.2216974783
 11
17.5778140653
 21
2.5815346315
  0
LINE
  5
3C2
100
AcDbEntity
  8
0
100
AcDbLine
 62
2
  6
CONTINUOUS
 10
17.5578140542
 20
2.2218736414
 11
17.5578140542
 21
2.4285200698
  0
LINE
  5
3C3
100
AcDbEntity
  8
0
100
AcDbLine
 62
2
  6
CONTINUOUS
 10
17.5578140542
 20
2.4532700835
 11
17.5578140542
 21
2.5813584684
  0
LINE
  5
3C4
100
AcDbEntity
  8
0
100
AcDbLine
 62
2
  6
CONTINUOUS
 10
17.5378140431
 20
2.2220498045
 11
17.5378140431
 21
2.3524700714
  0
LINE
  5
3C5
100
AcDbEntity
  8
0
100
AcDbLine
 62
2
  6
CONTINUOUS
 10
17.5378140431
 20
2.4532700835
 11
17.5378140431
 21
2.5811823053
  0
LINE
  5
3C6
100
AcDbEntity
  8
0
100
AcDbLine
 62
2
  6
CONTINUOUS
 10
17.517814032
 20
2.2222259676
 11
17.517814032
 21
2.3524650276
  0
LINE
  5
3C7
100
AcDbEntity
  8
0
100
AcDbLine
 62
2
  6
CONTINUOUS
 10
17.517814032
 20
2.4532700835
 11
17.517814032
 21
2.5810061422
  0
LINE
  5
3C8
100
AcDbEntity
  8
0
100
AcDbLine
 62
2
  6
CONTINUOUS
 10
17.4978140209
 20
2.2224021307
 11
17.4978140209
 21
2.3524650276
  0
LINE
  5
3C9
100
AcDbEntity
  8
0
100
AcDbLine
 62
2
  6
CONTINUOUS
 10
17.4978140209
 20
2.4008904169
 11
17.4978140209
 21
2.4285200698
  0
LINE
  5
3CA
100
AcDbEntity
  8
0
100
AcDbLine
 62
2
  6
CONTINUOUS
 10
17.4978140209
 20
2.4532700835
 11
17.4978140209
 21
2.5808299791
  0
LINE
  5
3CB
100
AcDbEntity
  8
0
100
AcDbLine
 62
2
  6
CONTINUOUS
 10
17.4778140098
 20
2.2225782938
 11
17.4778140098
 21
2.3524650276
  0
LINE
  5
3CC
100
AcDbEntity
  8
0
100
AcDbLine
 62
2
  6
CONTINUOUS
 10
17.4778140098
 20
2.4199732652
 11
17.4778140098
 21
2.580653816
  0
LINE
  5
3CD
100
AcDbEntity
  8
0
100
AcDbLine
 62
2
  6
CONTINUOUS
 10
17.4578139987
 20
2.2233466716
 11
17.4578139987
 21
2.3569558199
  0
LINE
  5
3CE
100
AcDbEntity
  8
0
100
AcDbLine
 62
2
  6
CONTINUOUS
 10
17.4578139987
 20
2.4390561136
 11
17.4578139987
 21
2.5798854382
  0
LINE
  5
3CF
100
AcDbEntity
  8
0
100
AcDbLine
 62
2
  6
CONTINUOUS
 10
17.4378139876
 20
2.2242391079
 11
17.4378139876
 21
2.3760386371
  0
LINE
  5
3D0
100
AcDbEntity
  8
0
100
AcDbLine
 62
2
  6
CONTINUOUS
 10
17.4378139876
 20
2.4532700835
 11
17.4378139876
 21
2.5789930018
  0
LINE
  5
3D1
100
AcDbEntity
  8
0
100
AcDbLine
 62
2
  6
CONTINUOUS
 10
17.4178139765
 20
2.2251315443
 11
17.4178139765
 21
2.3525640362
  0
LINE
  5
3D2
100
AcDbEntity
  8
0
100
AcDbLine
 62
2
  6
CONTINUOUS
 10
17.4178139765
 20
2.3771160328
 11
17.4178139765
 21
2.3951214543
  0
LINE
  5
3D3
100
AcDbEntity
  8
0
100
AcDbLine
 62
2
  6
CONTINUOUS
 10
17.4178139765
 20
2.4532700835
 11
17.4178139765
 21
2.5781005655
  0
LINE
  5
3D4
100
AcDbEntity
  8
0
100
AcDbLine
 62
2
  6
CONTINUOUS
 10
17.3978139654
 20
2.2260239807
 11
17.3978139654
 21
2.3524650276
  0
LINE
  5
3D5
100
AcDbEntity
  8
0
100
AcDbLine
 62
2
  6
CONTINUOUS
 10
17.3978139654
 20
2.3772150414
 11
17.3978139654
 21
2.4139978698
  0
LINE
  5
3D6
100
AcDbEntity
  8
0
100
AcDbLine
 62
2
  6
CONTINUOUS
 10
17.3978139654
 20
2.4532700835
 11
17.3978139654
 21
2.5772081291
  0
LINE
  5
3D7
100
AcDbEntity
  8
0
100
AcDbLine
 62
2
  6
CONTINUOUS
 10
17.3778139543
 20
2.226916417
 11
17.3778139543
 21
2.3524650276
  0
LINE
  5
3D8
100
AcDbEntity
  8
0
100
AcDbLine
 62
2
  6
CONTINUOUS
 10
17.3778139543
 20
2.4532700835
 11
17.3778139543
 21
2.5763156928
  0
LINE
  5
3D9
100
AcDbEntity
  8
0
100
AcDbLine
 62
2
  6
CONTINUOUS
 10
17.3578139433
 20
2.2278088534
 11
17.3578139433
 21
2.3524650276
  0
LINE
  5
3DA
100
AcDbEntity
  8
0
100
AcDbLine
 62
2
  6
CONTINUOUS
 10
17.3578139433
 20
2.3772150414
 11
17.3578139433
 21
2.4285200698
  0
LINE
  5
3DB
100
AcDbEntity
  8
0
100
AcDbLine
 62
2
  6
CONTINUOUS
 10
17.3578139433
 20
2.4532700835
 11
17.3578139433
 21
2.5754232564
  0
LINE
  5
3DC
100
AcDbEntity
  8
0
100
AcDbLine
 62
2
  6
CONTINUOUS
 10
17.3378139322
 20
2.2289481171
 11
17.3378139322
 21
2.5742839927
  0
LINE
  5
3DD
100
AcDbEntity
  8
0
100
AcDbLine
 62
2
  6
CONTINUOUS
 10
17.3178139211
 20
2.2306059865
 11
17.3178139211
 21
2.5726261233
  0
LINE
  5
3DE
100
AcDbEntity
  8
0
100
AcDbLine
 62
2
  6
CONTINUOUS
 10
17.29781391
 20
2.2322638559
 11
17.29781391
 21
2.3524650276
  0
LINE
  5
3DF
100
AcDbEntity
  8
0
100
AcDbLine
 62
2
  6
CONTINUOUS
 10
17.29781391
 20
2.3772150414
 11
17.29781391
 21
2.5709682538
  0
LINE
  5
3E0
100
AcDbEntity
  8
0
100
AcDbLine
 62
2
  6
CONTINUOUS
 10
17.2778138989
 20
2.2339217254
 11
17.2778138989
 21
2.3524650276
  0
LINE
  5
3E1
100
AcDbEntity
  8
0
100
AcDbLine
 62
2
  6
CONTINUOUS
 10
17.2778138989
 20
2.3963499423
 11
17.2778138989
 21
2.5693103844
  0
LINE
  5
3E2
100
AcDbEntity
  8
0
100
AcDbLine
 62
2
  6
CONTINUOUS
 10
17.2578138878
 20
2.2355795948
 11
17.2578138878
 21
2.3524650276
  0
LINE
  5
3E3
100
AcDbEntity
  8
0
100
AcDbLine
 62
2
  6
CONTINUOUS
 10
17.2578138878
 20
2.4272549766
 11
17.2578138878
 21
2.567652515
  0
LINE
  5
3E4
100
AcDbEntity
  8
0
100
AcDbLine
 62
2
  6
CONTINUOUS
 10
17.2378138767
 20
2.2372374642
 11
17.2378138767
 21
2.3524650276
  0
LINE
  5
3E5
100
AcDbEntity
  8
0
100
AcDbLine
 62
2
  6
CONTINUOUS
 10
17.2378138767
 20
2.4532700835
 11
17.2378138767
 21
2.5659946456
  0
LINE
  5
3E6
100
AcDbEntity
  8
0
100
AcDbLine
 62
2
  6
CONTINUOUS
 10
17.2178138656
 20
2.2389952421
 11
17.2178138656
 21
2.3524650276
  0
LINE
  5
3E7
100
AcDbEntity
  8
0
100
AcDbLine
 62
2
  6
CONTINUOUS
 10
17.2178138656
 20
2.3772150414
 11
17.2178138656
 21
2.3887495968
  0
LINE
  5
3E8
100
AcDbEntity
  8
0
100
AcDbLine
 62
2
  6
CONTINUOUS
 10
17.2178138656
 20
2.4532700835
 11
17.2178138656
 21
2.5642368677
  0
LINE
  5
3E9
100
AcDbEntity
  8
0
100
AcDbLine
 62
2
  6
CONTINUOUS
 10
17.1978138545
 20
2.2415190955
 11
17.1978138545
 21
2.3908590489
  0
LINE
  5
3EA
100
AcDbEntity
  8
0
100
AcDbLine
 62
2
  6
CONTINUOUS
 10
17.1978138545
 20
2.4118090605
 11
17.1978138545
 21
2.4279760695
  0
LINE
  5
3EB
100
AcDbEntity
  8
0
100
AcDbLine
 62
2
  6
CONTINUOUS
 10
17.1978138545
 20
2.4532700835
 11
17.1978138545
 21
2.5617130143
  0
LINE
  5
3EC
100
AcDbEntity
  8
0
100
AcDbLine
 62
2
  6
CONTINUOUS
 10
17.1778138434
 20
2.244042949
 11
17.1778138434
 21
2.3524650276
  0
LINE
  5
3ED
100
AcDbEntity
  8
0
100
AcDbLine
 62
2
  6
CONTINUOUS
 10
17.1778138434
 20
2.3772150414
 11
17.1778138434
 21
2.3892044865
  0
LINE
  5
3EE
100
AcDbEntity
  8
0
100
AcDbLine
 62
2
  6
CONTINUOUS
 10
17.1778138434
 20
2.4480979218
 11
17.1778138434
 21
2.5591891608
  0
LINE
  5
3EF
100
AcDbEntity
  8
0
100
AcDbLine
 62
2
  6
CONTINUOUS
 10
17.1578138323
 20
2.2465668024
 11
17.1578138323
 21
2.3524650276
  0
LINE
  5
3F0
100
AcDbEntity
  8
0
100
AcDbLine
 62
2
  6
CONTINUOUS
 10
17.1578138323
 20
2.4165778189
 11
17.1578138323
 21
2.5566653073
  0
LINE
  5
3F1
100
AcDbEntity
  8
0
100
AcDbLine
 62
2
  6
CONTINUOUS
 10
17.1378138213
 20
2.2490906559
 11
17.1378138213
 21
2.3524650276
  0
LINE
  5
3F2
100
AcDbEntity
  8
0
100
AcDbLine
 62
2
  6
CONTINUOUS
 10
17.1378138213
 20
2.3850577159
 11
17.1378138213
 21
2.5541414539
  0
LINE
  5
3F3
100
AcDbEntity
  8
0
100
AcDbLine
 62
2
  6
CONTINUOUS
 10
17.1178138102
 20
2.2516145094
 11
17.1178138102
 21
2.3524650276
  0
LINE
  5
3F4
100
AcDbEntity
  8
0
100
AcDbLine
 62
2
  6
CONTINUOUS
 10
17.1178138102
 20
2.3772150414
 11
17.1178138102
 21
2.5516176004
  0
LINE
  5
3F5
100
AcDbEntity
  8
0
100
AcDbLine
 62
2
  6
CONTINUOUS
 10
17.0978137991
 20
2.2544171186
 11
17.0978137991
 21
2.5488149912
  0
LINE
  5
3F6
100
AcDbEntity
  8
0
100
AcDbLine
 62
2
  6
CONTINUOUS
 10
17.077813788
 20
2.2577020445
 11
17.077813788
 21
2.362615113
  0
LINE
  5
3F7
100
AcDbEntity
  8
0
100
AcDbLine
 62
2
  6
CONTINUOUS
 10
17.077813788
 20
2.3938117115
 11
17.077813788
 21
2.4149601455
  0
LINE
  5
3F8
100
AcDbEntity
  8
0
100
AcDbLine
 62
2
  6
CONTINUOUS
 10
17.077813788
 20
2.4403850542
 11
17.077813788
 21
2.5455300653
  0
LINE
  5
3F9
100
AcDbEntity
  8
0
100
AcDbLine
 62
2
  6
CONTINUOUS
 10
17.0578137769
 20
2.2609869704
 11
17.0578137769
 21
2.3533399802
  0
LINE
  5
3FA
100
AcDbEntity
  8
0
100
AcDbLine
 62
2
  6
CONTINUOUS
 10
17.0578137769
 20
2.4508307102
 11
17.0578137769
 21
2.5422451394
  0
LINE
  5
3FB
100
AcDbEntity
  8
0
100
AcDbLine
 62
2
  6
CONTINUOUS
 10
17.0378137658
 20
2.2646895914
 11
17.0378137658
 21
2.3524650276
  0
LINE
  5
3FC
100
AcDbEntity
  8
0
100
AcDbLine
 62
2
  6
CONTINUOUS
 10
17.0378137658
 20
2.4532700835
 11
17.0378137658
 21
2.5385425184
  0
LINE
  5
3FD
100
AcDbEntity
  8
0
100
AcDbLine
 62
2
  6
CONTINUOUS
 10
17.0178137547
 20
2.2685623514
 11
17.0178137547
 21
2.3524650276
  0
LINE
  5
3FE
100
AcDbEntity
  8
0
100
AcDbLine
 62
2
  6
CONTINUOUS
 10
17.0178137547
 20
2.4532700835
 11
17.0178137547
 21
2.5346697584
  0
LINE
  5
3FF
100
AcDbEntity
  8
0
100
AcDbLine
 62
2
  6
CONTINUOUS
 10
16.9978137436
 20
2.2725871112
 11
16.9978137436
 21
2.3524650276
  0
LINE
  5
400
100
AcDbEntity
  8
0
100
AcDbLine
 62
2
  6
CONTINUOUS
 10
16.9978137436
 20
2.3772150414
 11
16.9978137436
 21
2.394540051
  0
LINE
  5
401
100
AcDbEntity
  8
0
100
AcDbLine
 62
2
  6
CONTINUOUS
 10
16.9978137436
 20
2.4111950602
 11
16.9978137436
 21
2.4285200698
  0
LINE
  5
402
100
AcDbEntity
  8
0
100
AcDbLine
 62
2
  6
CONTINUOUS
 10
16.9978137436
 20
2.4532700835
 11
16.9978137436
 21
2.5306449986
  0
LINE
  5
403
100
AcDbEntity
  8
0
100
AcDbLine
 62
2
  6
CONTINUOUS
 10
16.9778137325
 20
2.2771382649
 11
16.9778137325
 21
2.3524650276
  0
LINE
  5
404
100
AcDbEntity
  8
0
100
AcDbLine
 62
2
  6
CONTINUOUS
 10
16.9778137325
 20
2.3772150414
 11
16.9778137325
 21
2.394540051
  0
LINE
  5
405
100
AcDbEntity
  8
0
100
AcDbLine
 62
2
  6
CONTINUOUS
 10
16.9778137325
 20
2.4111950602
 11
16.9778137325
 21
2.4285200698
  0
LINE
  5
406
100
AcDbEntity
  8
0
100
AcDbLine
 62
2
  6
CONTINUOUS
 10
16.9778137325
 20
2.4532700835
 11
16.9778137325
 21
2.5260938449
  0
LINE
  5
407
100
AcDbEntity
  8
0
100
AcDbLine
 62
2
  6
CONTINUOUS
 10
16.9578137214
 20
2.2816894185
 11
16.9578137214
 21
2.3524650276
  0
LINE
  5
408
100
AcDbEntity
  8
0
100
AcDbLine
 62
2
  6
CONTINUOUS
 10
16.9578137214
 20
2.4532700835
 11
16.9578137214
 21
2.5215426913
  0
LINE
  5
409
100
AcDbEntity
  8
0
100
AcDbLine
 62
2
  6
CONTINUOUS
 10
16.9378137103
 20
2.2869815362
 11
16.9378137103
 21
2.3524650276
  0
LINE
  5
40A
100
AcDbEntity
  8
0
100
AcDbLine
 62
2
  6
CONTINUOUS
 10
16.9378137103
 20
2.4532700835
 11
16.9378137103
 21
2.5162505736
  0
LINE
  5
40B
100
AcDbEntity
  8
0
100
AcDbLine
 62
2
  6
CONTINUOUS
 10
16.9178136992
 20
2.2923355811
 11
16.9178136992
 21
2.3524650276
  0
LINE
  5
40C
100
AcDbEntity
  8
0
100
AcDbLine
 62
2
  6
CONTINUOUS
 10
16.9178136992
 20
2.4532700835
 11
16.9178136992
 21
2.5108965286
  0
LINE
  5
40D
100
AcDbEntity
  8
0
100
AcDbLine
 62
2
  6
CONTINUOUS
 10
16.8978136882
 20
2.2984943577
 11
16.8978136882
 21
2.3524650276
  0
LINE
  5
40E
100
AcDbEntity
  8
0
100
AcDbLine
 62
2
  6
CONTINUOUS
 10
16.8978136882
 20
2.3772150414
 11
16.8978136882
 21
2.4285200698
  0
LINE
  5
40F
100
AcDbEntity
  8
0
100
AcDbLine
 62
2
  6
CONTINUOUS
 10
16.8978136882
 20
2.4532700835
 11
16.8978136882
 21
2.5047377521
  0
LINE
  5
410
100
AcDbEntity
  8
0
100
AcDbLine
 62
2
  6
CONTINUOUS
 10
16.8778136771
 20
2.3048274854
 11
16.8778136771
 21
2.3524650276
  0
LINE
  5
411
100
AcDbEntity
  8
0
100
AcDbLine
 62
2
  6
CONTINUOUS
 10
16.8778136771
 20
2.3772150414
 11
16.8778136771
 21
2.4285200698
  0
LINE
  5
412
100
AcDbEntity
  8
0
100
AcDbLine
 62
2
  6
CONTINUOUS
 10
16.8778136771
 20
2.4532700835
 11
16.8778136771
 21
2.4984046244
  0
LINE
  5
413
100
AcDbEntity
  8
0
100
AcDbLine
 62
2
  6
CONTINUOUS
 10
16.857813666
 20
2.312318358
 11
16.857813666
 21
2.4909137517
  0
LINE
  5
414
100
AcDbEntity
  8
0
100
AcDbLine
 62
2
  6
CONTINUOUS
 10
16.8378136549
 20
2.3203393667
 11
16.8378136549
 21
2.4828927431
  0
LINE
  5
415
100
AcDbEntity
  8
0
100
AcDbLine
 62
2
  6
CONTINUOUS
 10
16.8178136438
 20
2.3295519864
 11
16.8178136438
 21
2.4736801234
  0
LINE
  5
416
100
AcDbEntity
  8
0
100
AcDbLine
 62
2
  6
CONTINUOUS
 10
16.7978136327
 20
2.3407309483
 11
16.7978136327
 21
2.4625011614
  0
LINE
  5
417
100
AcDbEntity
  8
0
100
AcDbLine
 62
2
  6
CONTINUOUS
 10
16.7778136216
 20
2.3546527809
 11
16.7778136216
 21
2.4485793288
  0
LINE
  5
418
100
AcDbEntity
  8
0
100
AcDbLine
 62
2
  6
CONTINUOUS
 10
16.7578136105
 20
2.3756826696
 11
16.7578136105
 21
2.4275494401
  0
ENDBLK
  5
419
100
AcDbEntity
  8
0
  6
BYBLOCK
 62
0
100
AcDbBlockEnd
  0
BLOCK
  5
41A
100
AcDbEntity
  8
SCHEME_DIMS
100
AcDbBlockBegin
 62
2
  6
CONTINUOUS
  2
*D0
 70
65
 10
0.0
 20
0.0
  3
*D0
  1

  0
TEXT
  5
41B
100
AcDbEntity
  8
SCHEME_DIMS
100
AcDbText
 62
2
  6
CONTINUOUS
 10
11.1721101786
 20
15.2474245241
  7
STANDARD
 40
0.1
  1
103,1
 41
1.0
 72
0
100
AcDbText
  0
TEXT
  5
41C
100
AcDbEntity
  8
SCHEME_DIMS
100
AcDbText
 62
2
  6
CONTINUOUS
 10
11.2721101786
 20
15.0974245241
  7
STANDARD
 40
0.1
  1
4.06
 41
1.0
 72
0
100
AcDbText
  0
TEXT
  5
41D
100
AcDbEntity
  8
SCHEME_DIMS
100
AcDbText
 62
2
  6
CONTINUOUS
 10
11.1721101786
 20
15.0974245241
  7
STANDARD
 40
0.1
  1
[
 41
1.0
 72
0
100
AcDbText
  0
TEXT
  5
41E
100
AcDbEntity
  8
SCHEME_DIMS
100
AcDbText
 62
2
  6
CONTINUOUS
 10
11.6721101786
 20
15.0974245241
  7
STANDARD
 40
0.1
  1
]
 41
1.0
 72
0
100
AcDbText
  0
LINE
  5
41F
100
AcDbEntity
  8
SCHEME_DIMS
100
AcDbLine
 62
2
  6
CONTINUOUS
 10
9.4431731184
 20
14.7283654467
 11
9.4431731184
 21
15.4224245241
  0
LINE
  5
420
100
AcDbEntity
  8
SCHEME_DIMS
100
AcDbLine
 62
2
  6
CONTINUOUS
 10
13.5010472387
 20
14.0886016759
 11
13.5010472387
 21
15.4224245241
  0
LINE
  5
421
100
AcDbEntity
  8
SCHEME_DIMS
100
AcDbLine
 62
2
  6
CONTINUOUS
 10
9.4431731184
 20
15.2974245241
 11
11.0721101786
 21
15.2974245241
  0
LINE
  5
422
100
AcDbEntity
  8
SCHEME_DIMS
100
AcDbLine
 62
2
  6
CONTINUOUS
 10
13.5010472387
 20
15.2974245241
 11
11.8721101786
 21
15.2974245241
  0
INSERT
  5
423
100
AcDbEntity
  8
SCHEME_DIMS
100
AcDbBlockReference
 62
2
  6
CONTINUOUS
  2
_FILLED
 10
9.4431731184
 20
15.2974245241
 41
0.1875
 42
0.1875
 43
0.1875
 50
180.0
  0
INSERT
  5
424
100
AcDbEntity
  8
SCHEME_DIMS
100
AcDbBlockReference
 62
2
  6
CONTINUOUS
  2
_FILLED
 10
13.5010472387
 20
15.2974245241
 41
0.1875
 42
0.1875
 43
0.1875
  0
ENDBLK
  5
425
100
AcDbEntity
  8
0
  6
BYBLOCK
 62
0
100
AcDbBlockEnd
  0
BLOCK
  5
426
100
AcDbEntity
  8
SCHEME_DIMS
100
AcDbBlockBegin
 62
2
  6
CONTINUOUS
  2
*D1
 70
65
 10
0.0
 20
0.0
  3
*D1
  1

  0
TEXT
  5
427
100
AcDbEntity
  8
SCHEME_DIMS
100
AcDbText
 62
2
  6
CONTINUOUS
 10
10.8788031442
 20
12.3223606079
  7
STANDARD
 40
0.1
  1
2X 
 41
1.0
 72
0
100
AcDbText
  0
TEXT
  5
428
100
AcDbEntity
  8
SCHEME_DIMS
100
AcDbText
 62
2
  6
CONTINUOUS
 10
11.1788031442
 20
12.3223606079
  7
STANDARD
 40
0.1
  1
66,4
 41
1.0
 72
0
100
AcDbText
  0
TEXT
  5
429
100
AcDbEntity
  8
SCHEME_DIMS
100
AcDbText
 62
2
  6
CONTINUOUS
 10
11.2788031442
 20
12.1723606079
  7
STANDARD
 40
0.1
  1
2.61
 41
1.0
 72
0
100
AcDbText
  0
TEXT
  5
42A
100
AcDbEntity
  8
SCHEME_DIMS
100
AcDbText
 62
2
  6
CONTINUOUS
 10
11.1788031442
 20
12.1723606079
  7
STANDARD
 40
0.1
  1
[
 41
1.0
 72
0
100
AcDbText
  0
TEXT
  5
42B
100
AcDbEntity
  8
SCHEME_DIMS
100
AcDbText
 62
2
  6
CONTINUOUS
 10
11.6788031442
 20
12.1723606079
  7
STANDARD
 40
0.1
  1
]
 41
1.0
 72
0
100
AcDbText
  0
LINE
  5
42C
100
AcDbEntity
  8
SCHEME_DIMS
100
AcDbLine
 62
2
  6
CONTINUOUS
 10
10.022700782
 20
13.5804937116
 11
10.022700782
 21
12.2473606079
  0
LINE
  5
42D
100
AcDbEntity
  8
SCHEME_DIMS
100
AcDbLine
 62
2
  6
CONTINUOUS
 10
12.6349055064
 20
13.5804937116
 11
12.6349055064
 21
12.2473606079
  0
LINE
  5
42E
100
AcDbEntity
  8
SCHEME_DIMS
100
AcDbLine
 62
2
  6
CONTINUOUS
 10
10.022700782
 20
12.3723606079
 11
10.7788031442
 21
12.3723606079
  0
LINE
  5
42F
100
AcDbEntity
  8
SCHEME_DIMS
100
AcDbLine
 62
2
  6
CONTINUOUS
 10
12.6349055064
 20
12.3723606079
 11
11.8788031442
 21
12.3723606079
  0
INSERT
  5
430
100
AcDbEntity
  8
SCHEME_DIMS
100
AcDbBlockReference
 62
2
  6
CONTINUOUS
  2
_FILLED
 10
10.022700782
 20
12.3723606079
 41
0.1875
 42
0.1875
 43
0.1875
 50
180.0
  0
INSERT
  5
431
100
AcDbEntity
  8
SCHEME_DIMS
100
AcDbBlockReference
 62
2
  6
CONTINUOUS
  2
_FILLED
 10
12.6349055064
 20
12.3723606079
 41
0.1875
 42
0.1875
 43
0.1875
  0
ENDBLK
  5
432
100
AcDbEntity
  8
0
  6
BYBLOCK
 62
0
100
AcDbBlockEnd
  0
BLOCK
  5
433
100
AcDbEntity
  8
SCHEME_DIMS
100
AcDbBlockBegin
 62
2
  6
CONTINUOUS
  2
*D2
 70
65
 10
0.0
 20
0.0
  3
*D2
  1

  0
TEXT
  5
434
100
AcDbEntity
  8
SCHEME_DIMS
100
AcDbText
 62
2
  6
CONTINUOUS
 10
14.600393862
 20
5.8985862779
  7
STANDARD
 40
0.1
  1
%%c
 41
1.3333333333
 72
0
100
AcDbText
  0
TEXT
  5
435
100
AcDbEntity
  8
SCHEME_DIMS
100
AcDbText
 62
2
  6
CONTINUOUS
 10
14.7337271953
 20
5.8985862779
  7
STANDARD
 40
0.1
  1
52,5
 41
1.0
 72
0
100
AcDbText
  0
TEXT
  5
436
100
AcDbEntity
  8
SCHEME_DIMS
100
AcDbText
 62
2
  6
CONTINUOUS
 10
14.8337271953
 20
5.7485862779
  7
STANDARD
 40
0.1
  1
2.07
 41
1.0
 72
0
100
AcDbText
  0
TEXT
  5
437
100
AcDbEntity
  8
SCHEME_DIMS
100
AcDbText
 62
2
  6
CONTINUOUS
 10
14.7337271953
 20
5.7485862779
  7
STANDARD
 40
0.1
  1
[
 41
1.0
 72
0
100
AcDbText
  0
TEXT
  5
438
100
AcDbEntity
  8
SCHEME_DIMS
100
AcDbText
 62
2
  6
CONTINUOUS
 10
15.2337271953
 20
5.7485862779
  7
STANDARD
 40
0.1
  1
]
 41
1.0
 72
0
100
AcDbText
  0
LINE
  5
439
100
AcDbEntity
  8
SCHEME_DIMS
100
AcDbLine
 62
2
  6
CONTINUOUS
 10
15.8092162378
 20
6.1998254032
 11
16.4419059232
 21
7.0169868151
  0
LINE
  5
43A
100
AcDbEntity
  8
SCHEME_DIMS
100
AcDbLine
 62
2
  6
CONTINUOUS
 10
16.4419059232
 20
7.0169868151
 11
15.6146935881
 21
5.9485862779
  0
LINE
  5
43B
100
AcDbEntity
  8
SCHEME_DIMS
100
AcDbLine
 62
2
  6
CONTINUOUS
 10
15.6146935881
 20
5.9485862779
 11
15.4337271953
 21
5.9485862779
  0
LINE
  5
43C
100
AcDbEntity
  8
SCHEME_DIMS
100
AcDbLine
 62
2
  6
CONTINUOUS
 10
17.0745956085
 20
7.834148227
 11
16.4419059232
 21
7.0169868151
  0
INSERT
  5
43D
100
AcDbEntity
  8
SCHEME_DIMS
100
AcDbBlockReference
 62
2
  6
CONTINUOUS
  2
_FILLED
 10
15.8092162378
 20
6.1998254032
 41
0.1875
 42
0.1875
 43
0.1875
 50
232.2510644208
  0
INSERT
  5
43E
100
AcDbEntity
  8
SCHEME_DIMS
100
AcDbBlockReference
 62
2
  6
CONTINUOUS
  2
_FILLED
 10
17.0745956085
 20
7.834148227
 41
0.1875
 42
0.1875
 43
0.1875
 50
52.2510644208
  0
ENDBLK
  5
43F
100
AcDbEntity
  8
0
  6
BYBLOCK
 62
0
100
AcDbBlockEnd
  0
BLOCK
  5
440
100
AcDbEntity
  8
SCHEME_DIMS
100
AcDbBlockBegin
 62
2
  6
CONTINUOUS
  2
*D3
 70
65
 10
0.0
 20
0.0
  3
*D3
  1

  0
TEXT
  5
441
100
AcDbEntity
  8
SCHEME_DIMS
100
AcDbText
 62
2
  6
CONTINUOUS
 10
16.1419059232
 20
8.3298943263
  7
STANDARD
 40
0.1
  1
51,5
 41
1.0
 72
0
100
AcDbText
  0
TEXT
  5
442
100
AcDbEntity
  8
SCHEME_DIMS
100
AcDbText
 62
2
  6
CONTINUOUS
 10
16.2419059232
 20
8.1798943263
  7
STANDARD
 40
0.1
  1
2.03
 41
1.0
 72
0
100
AcDbText
  0
TEXT
  5
443
100
AcDbEntity
  8
SCHEME_DIMS
100
AcDbText
 62
2
  6
CONTINUOUS
 10
16.1419059232
 20
8.1798943263
  7
STANDARD
 40
0.1
  1
[
 41
1.0
 72
0
100
AcDbText
  0
TEXT
  5
444
100
AcDbEntity
  8
SCHEME_DIMS
100
AcDbText
 62
2
  6
CONTINUOUS
 10
16.6419059232
 20
8.1798943263
  7
STANDARD
 40
0.1
  1
]
 41
1.0
 72
0
100
AcDbText
  0
LINE
  5
445
100
AcDbEntity
  8
SCHEME_DIMS
100
AcDbLine
 62
2
  6
CONTINUOUS
 10
15.4273622161
 20
7.2763275189
 11
15.4273622161
 21
8.5048943263
  0
LINE
  5
446
100
AcDbEntity
  8
SCHEME_DIMS
100
AcDbLine
 62
2
  6
CONTINUOUS
 10
17.4564496303
 20
7.2763324294
 11
17.4564496303
 21
8.5048943263
  0
LINE
  5
447
100
AcDbEntity
  8
SCHEME_DIMS
100
AcDbLine
 62
2
  6
CONTINUOUS
 10
15.4273622161
 20
8.3798943263
 11
16.0419059232
 21
8.3798943263
  0
LINE
  5
448
100
AcDbEntity
  8
SCHEME_DIMS
100
AcDbLine
 62
2
  6
CONTINUOUS
 10
17.4564496303
 20
8.3798943263
 11
16.8419059232
 21
8.3798943263
  0
INSERT
  5
449
100
AcDbEntity
  8
SCHEME_DIMS
100
AcDbBlockReference
 62
2
  6
CONTINUOUS
  2
_FILLED
 10
15.4273622161
 20
8.3798943263
 41
0.1875
 42
0.1875
 43
0.1875
 50
180.0
  0
INSERT
  5
44A
100
AcDbEntity
  8
SCHEME_DIMS
100
AcDbBlockReference
 62
2
  6
CONTINUOUS
  2
_FILLED
 10
17.4564496303
 20
8.3798943263
 41
0.1875
 42
0.1875
 43
0.1875
  0
ENDBLK
  5
44B
100
AcDbEntity
  8
0
  6
BYBLOCK
 62
0
100
AcDbBlockEnd
  0
BLOCK
  5
44C
100
AcDbEntity
  8
SCHEME_DIMS
100
AcDbBlockBegin
 62
2
  6
CONTINUOUS
  2
*D4
 70
65
 10
0.0
 20
0.0
  3
*D4
  1

  0
TEXT
  5
44D
100
AcDbEntity
  8
SCHEME_DIMS
100
AcDbText
 62
2
  6
CONTINUOUS
 10
17.7587140753
 20
6.985698301
  7
STANDARD
 40
0.1
  1
51,5
 41
1.0
 72
0
100
AcDbText
  0
TEXT
  5
44E
100
AcDbEntity
  8
SCHEME_DIMS
100
AcDbText
 62
2
  6
CONTINUOUS
 10
17.8587140753
 20
6.835698301
  7
STANDARD
 40
0.1
  1
2.03
 41
1.0
 72
0
100
AcDbText
  0
TEXT
  5
44F
100
AcDbEntity
  8
SCHEME_DIMS
100
AcDbText
 62
2
  6
CONTINUOUS
 10
17.7587140753
 20
6.835698301
  7
STANDARD
 40
0.1
  1
[
 41
1.0
 72
0
100
AcDbText
  0
TEXT
  5
450
100
AcDbEntity
  8
SCHEME_DIMS
100
AcDbText
 62
2
  6
CONTINUOUS
 10
18.2587140753
 20
6.835698301
  7
STANDARD
 40
0.1
  1
]
 41
1.0
 72
0
100
AcDbText
  0
LINE
  5
451
100
AcDbEntity
  8
SCHEME_DIMS
100
AcDbLine
 62
2
  6
CONTINUOUS
 10
16.779995649
 20
6.02094522
 11
18.1837140753
 21
6.02094522
  0
LINE
  5
452
100
AcDbEntity
  8
SCHEME_DIMS
100
AcDbLine
 62
2
  6
CONTINUOUS
 10
16.672493071
 20
8.050451382
 11
18.1837140753
 21
8.050451382
  0
LINE
  5
453
100
AcDbEntity
  8
SCHEME_DIMS
100
AcDbLine
 62
2
  6
CONTINUOUS
 10
18.0587140753
 20
6.02094522
 11
18.0587140753
 21
6.735698301
  0
LINE
  5
454
100
AcDbEntity
  8
SCHEME_DIMS
100
AcDbLine
 62
2
  6
CONTINUOUS
 10
18.0587140753
 20
8.050451382
 11
18.0587140753
 21
7.185698301
  0
INSERT
  5
455
100
AcDbEntity
  8
SCHEME_DIMS
100
AcDbBlockReference
 62
2
  6
CONTINUOUS
  2
_FILLED
 10
18.0587140753
 20
6.02094522
 41
0.1875
 42
0.1875
 43
0.1875
 50
270.0
  0
INSERT
  5
456
100
AcDbEntity
  8
SCHEME_DIMS
100
AcDbBlockReference
 62
2
  6
CONTINUOUS
  2
_FILLED
 10
18.0587140753
 20
8.050451382
 41
0.1875
 42
0.1875
 43
0.1875
 50
90.0
  0
ENDBLK
  5
457
100
AcDbEntity
  8
0
  6
BYBLOCK
 62
0
100
AcDbBlockEnd
  0
BLOCK
  5
458
100
AcDbEntity
  8
SCHEME_DIMS
100
AcDbBlockBegin
 62
2
  6
CONTINUOUS
  2
*D5
 70
65
 10
0.0
 20
0.0
  3
*D5
  1

  0
TEXT
  5
459
100
AcDbEntity
  8
SCHEME_DIMS
100
AcDbText
 62
2
  6
CONTINUOUS
 10
9.6329369502
 20
12.4723606079
  7
STANDARD
 40
0.1
  1
3X
 41
1.0
 72
0
100
AcDbText
  0
TEXT
  5
45A
100
AcDbEntity
  8
SCHEME_DIMS
100
AcDbText
 62
2
  6
CONTINUOUS
 10
9.4829369502
 20
12.3223606079
  7
STANDARD
 40
0.1
  1
14,7
 41
1.0
 72
0
100
AcDbText
  0
TEXT
  5
45B
100
AcDbEntity
  8
SCHEME_DIMS
100
AcDbText
 62
2
  6
CONTINUOUS
 10
9.5829369502
 20
12.1723606079
  7
STANDARD
 40
0.1
  1
.58
 41
1.0
 72
0
100
AcDbText
  0
TEXT
  5
45C
100
AcDbEntity
  8
SCHEME_DIMS
100
AcDbText
 62
2
  6
CONTINUOUS
 10
9.4829369502
 20
12.1723606079
  7
STANDARD
 40
0.1
  1
[
 41
1.0
 72
0
100
AcDbText
  0
TEXT
  5
45D
100
AcDbEntity
  8
SCHEME_DIMS
100
AcDbText
 62
2
  6
CONTINUOUS
 10
9.8829369502
 20
12.1723606079
  7
STANDARD
 40
0.1
  1
]
 41
1.0
 72
0
100
AcDbText
  0
LINE
  5
45E
100
AcDbEntity
  8
SCHEME_DIMS
100
AcDbLine
 62
2
  6
CONTINUOUS
 10
9.4431731184
 20
12.9004969856
 11
9.4431731184
 21
12.2473606079
  0
LINE
  5
45F
100
AcDbEntity
  8
SCHEME_DIMS
100
AcDbLine
 62
2
  6
CONTINUOUS
 10
10.022700782
 20
13.5804937116
 11
10.022700782
 21
12.2473606079
  0
LINE
  5
460
100
AcDbEntity
  8
SCHEME_DIMS
100
AcDbLine
 62
2
  6
CONTINUOUS
 10
9.4431731184
 20
12.3723606079
 11
9.0431731184
 21
12.3723606079
  0
LINE
  5
461
100
AcDbEntity
  8
SCHEME_DIMS
100
AcDbLine
 62
2
  6
CONTINUOUS
 10
10.022700782
 20
12.3723606079
 11
10.422700782
 21
12.3723606079
  0
INSERT
  5
462
100
AcDbEntity
  8
SCHEME_DIMS
100
AcDbBlockReference
 62
2
  6
CONTINUOUS
  2
_FILLED
 10
9.4431731184
 20
12.3723606079
 41
0.1875
 42
0.1875
 43
0.1875
  0
INSERT
  5
463
100
AcDbEntity
  8
SCHEME_DIMS
100
AcDbBlockReference
 62
2
  6
CONTINUOUS
  2
_FILLED
 10
10.022700782
 20
12.3723606079
 41
0.1875
 42
0.1875
 43
0.1875
 50
180.0
  0
ENDBLK
  5
464
100
AcDbEntity
  8
0
  6
BYBLOCK
 62
0
100
AcDbBlockEnd
  0
BLOCK
  5
465
100
AcDbEntity
  8
SCHEME_DIMS
100
AcDbBlockBegin
 62
2
  6
CONTINUOUS
  2
*D6
 70
65
 10
0.0
 20
0.0
  3
*D6
  1

  0
TEXT
  5
466
100
AcDbEntity
  8
SCHEME_DIMS
100
AcDbText
 62
2
  6
CONTINUOUS
 10
8.6378652631
 20
7.0598435109
  7
STANDARD
 40
0.1
  1
10
 41
1.0
 72
0
100
AcDbText
  0
TEXT
  5
467
100
AcDbEntity
  8
SCHEME_DIMS
100
AcDbText
 62
2
  6
CONTINUOUS
 10
8.7378652631
 20
6.9098435109
  7
STANDARD
 40
0.1
  1
.39
 41
1.0
 72
0
100
AcDbText
  0
TEXT
  5
468
100
AcDbEntity
  8
SCHEME_DIMS
100
AcDbText
 62
2
  6
CONTINUOUS
 10
8.6378652631
 20
6.9098435109
  7
STANDARD
 40
0.1
  1
[
 41
1.0
 72
0
100
AcDbText
  0
TEXT
  5
469
100
AcDbEntity
  8
SCHEME_DIMS
100
AcDbText
 62
2
  6
CONTINUOUS
 10
9.0378652631
 20
6.9098435109
  7
STANDARD
 40
0.1
  1
]
 41
1.0
 72
0
100
AcDbText
  0
LINE
  5
46A
100
AcDbEntity
  8
SCHEME_DIMS
100
AcDbLine
 62
2
  6
CONTINUOUS
 10
9.8570427475
 20
7.2138372088
 11
8.7628652631
 21
7.2138372088
  0
LINE
  5
46B
100
AcDbEntity
  8
SCHEME_DIMS
100
AcDbLine
 62
2
  6
CONTINUOUS
 10
9.8284714565
 20
6.8201364214
 11
8.7628652631
 21
6.8201364214
  0
LINE
  5
46C
100
AcDbEntity
  8
SCHEME_DIMS
100
AcDbLine
 62
2
  6
CONTINUOUS
 10
8.8878652631
 20
7.2138372088
 11
8.8878652631
 21
7.6138372088
  0
LINE
  5
46D
100
AcDbEntity
  8
SCHEME_DIMS
100
AcDbLine
 62
2
  6
CONTINUOUS
 10
8.8878652631
 20
6.8201364214
 11
8.8878652631
 21
6.4201364214
  0
INSERT
  5
46E
100
AcDbEntity
  8
SCHEME_DIMS
100
AcDbBlockReference
 62
2
  6
CONTINUOUS
  2
_FILLED
 10
8.8878652631
 20
7.2138372088
 41
0.1875
 42
0.1875
 43
0.1875
 50
270.0
  0
INSERT
  5
46F
100
AcDbEntity
  8
SCHEME_DIMS
100
AcDbBlockReference
 62
2
  6
CONTINUOUS
  2
_FILLED
 10
8.8878652631
 20
6.8201364214
 41
0.1875
 42
0.1875
 43
0.1875
 50
90.0
  0
ENDBLK
  5
470
100
AcDbEntity
  8
0
  6
BYBLOCK
 62
0
100
AcDbBlockEnd
  0
BLOCK
  5
471
100
AcDbEntity
  8
SCHEME_DIMS
100
AcDbBlockBegin
 62
2
  6
CONTINUOUS
  2
*D7
 70
65
 10
0.0
 20
0.0
  3
*D7
  1

  0
TEXT
  5
472
100
AcDbEntity
  8
SCHEME_DIMS
100
AcDbText
 62
2
  6
CONTINUOUS
 10
8.6250081822
 20
3.6916141378
  7
STANDARD
 40
0.1
  1
14
 41
1.0
 72
0
100
AcDbText
  0
TEXT
  5
473
100
AcDbEntity
  8
SCHEME_DIMS
100
AcDbText
 62
2
  6
CONTINUOUS
 10
8.7250081822
 20
3.5416141378
  7
STANDARD
 40
0.1
  1
.55
 41
1.0
 72
0
100
AcDbText
  0
TEXT
  5
474
100
AcDbEntity
  8
SCHEME_DIMS
100
AcDbText
 62
2
  6
CONTINUOUS
 10
8.6250081822
 20
3.5416141378
  7
STANDARD
 40
0.1
  1
[
 41
1.0
 72
0
100
AcDbText
  0
TEXT
  5
475
100
AcDbEntity
  8
SCHEME_DIMS
100
AcDbText
 62
2
  6
CONTINUOUS
 10
9.0250081822
 20
3.5416141378
  7
STANDARD
 40
0.1
  1
]
 41
1.0
 72
0
100
AcDbText
  0
LINE
  5
476
100
AcDbEntity
  8
SCHEME_DIMS
100
AcDbLine
 62
2
  6
CONTINUOUS
 10
9.838468095
 20
3.9086337831
 11
8.7500081822
 21
3.9086337831
  0
LINE
  5
477
100
AcDbEntity
  8
SCHEME_DIMS
100
AcDbLine
 62
2
  6
CONTINUOUS
 10
9.8241824495
 20
3.3574526807
 11
8.7500081822
 21
3.3574526807
  0
LINE
  5
478
100
AcDbEntity
  8
SCHEME_DIMS
100
AcDbLine
 62
2
  6
CONTINUOUS
 10
8.8750081822
 20
3.9086337831
 11
8.8750081822
 21
4.3086337831
  0
LINE
  5
479
100
AcDbEntity
  8
SCHEME_DIMS
100
AcDbLine
 62
2
  6
CONTINUOUS
 10
8.8750081822
 20
3.3574526807
 11
8.8750081822
 21
2.9574526807
  0
INSERT
  5
47A
100
AcDbEntity
  8
SCHEME_DIMS
100
AcDbBlockReference
 62
2
  6
CONTINUOUS
  2
_FILLED
 10
8.8750081822
 20
3.9086337831
 41
0.1875
 42
0.1875
 43
0.1875
 50
270.0
  0
INSERT
  5
47B
100
AcDbEntity
  8
SCHEME_DIMS
100
AcDbBlockReference
 62
2
  6
CONTINUOUS
  2
_FILLED
 10
8.8750081822
 20
3.3574526807
 41
0.1875
 42
0.1875
 43
0.1875
 50
90.0
  0
ENDBLK
  5
47C
100
AcDbEntity
  8
0
  6
BYBLOCK
 62
0
100
AcDbBlockEnd
  0
BLOCK
  5
47D
100
AcDbEntity
  8
SCHEME_DIMS
100
AcDbBlockBegin
 62
2
  6
CONTINUOUS
  2
*D8
 70
65
 10
0.0
 20
0.0
  3
*D8
  1

  0
TEXT
  5
47E
100
AcDbEntity
  8
SCHEME_DIMS
100
AcDbText
 62
2
  6
CONTINUOUS
 10
12.9262440891
 20
11.6090851041
  7
STANDARD
 40
0.1
  1
16,5
 41
1.0
 72
0
100
AcDbText
  0
TEXT
  5
47F
100
AcDbEntity
  8
SCHEME_DIMS
100
AcDbText
 62
2
  6
CONTINUOUS
 10
13.0262440891
 20
11.4590851041
  7
STANDARD
 40
0.1
  1
.65
 41
1.0
 72
0
100
AcDbText
  0
TEXT
  5
480
100
AcDbEntity
  8
SCHEME_DIMS
100
AcDbText
 62
2
  6
CONTINUOUS
 10
12.9262440891
 20
11.4590851041
  7
STANDARD
 40
0.1
  1
[
 41
1.0
 72
0
100
AcDbText
  0
TEXT
  5
481
100
AcDbEntity
  8
SCHEME_DIMS
100
AcDbText
 62
2
  6
CONTINUOUS
 10
13.3262440891
 20
11.4590851041
  7
STANDARD
 40
0.1
  1
]
 41
1.0
 72
0
100
AcDbText
  0
LINE
  5
482
100
AcDbEntity
  8
SCHEME_DIMS
100
AcDbLine
 62
2
  6
CONTINUOUS
 10
12.8514409395
 20
11.1711370044
 11
12.8514409395
 21
11.7840851041
  0
LINE
  5
483
100
AcDbEntity
  8
SCHEME_DIMS
100
AcDbLine
 62
2
  6
CONTINUOUS
 10
13.5010472387
 20
10.4427905477
 11
13.5010472387
 21
11.7840851041
  0
LINE
  5
484
100
AcDbEntity
  8
SCHEME_DIMS
100
AcDbLine
 62
2
  6
CONTINUOUS
 10
12.8514409395
 20
11.6590851041
 11
12.4514409395
 21
11.6590851041
  0
LINE
  5
485
100
AcDbEntity
  8
SCHEME_DIMS
100
AcDbLine
 62
2
  6
CONTINUOUS
 10
13.5010472387
 20
11.6590851041
 11
13.9010472387
 21
11.6590851041
  0
INSERT
  5
486
100
AcDbEntity
  8
SCHEME_DIMS
100
AcDbBlockReference
 62
2
  6
CONTINUOUS
  2
_FILLED
 10
12.8514409395
 20
11.6590851041
 41
0.1875
 42
0.1875
 43
0.1875
  0
INSERT
  5
487
100
AcDbEntity
  8
SCHEME_DIMS
100
AcDbBlockReference
 62
2
  6
CONTINUOUS
  2
_FILLED
 10
13.5010472387
 20
11.6590851041
 41
0.1875
 42
0.1875
 43
0.1875
 50
180.0
  0
ENDBLK
  5
488
100
AcDbEntity
  8
0
  6
BYBLOCK
 62
0
100
AcDbBlockEnd
  0
BLOCK
  5
489
100
AcDbEntity
  8
SYMBOLS
100
AcDbBlockBegin
 62
2
  6
CONTINUOUS
  2
CL_BL1
 70
64
 10
13.7880521851
 20
7.0091559143
  3
CL_BL1
  1

  0
LWPOLYLINE
  5
48A
100
AcDbEntity
  8
SYMBOLS
100
AcDbPolyline
 62
2
  6
CONTINUOUS
 90
9
 70
0
 10
13.8130526123
 20
7.0566555176
 10
13.7830523682
 20
7.0666558228
 10
13.753052124
 20
7.0566555176
 10
13.7330515137
 20
7.0366555786
 10
13.7230518799
 20
7.0066560059
 10
13.7330515137
 20
6.9766557617
 10
13.753052124
 20
6.9566558228
 10
13.7830523682
 20
6.9466555176
 10
13.8130526123
 20
6.9566558228
  0
LWPOLYLINE
  5
48B
100
AcDbEntity
  8
SYMBOLS
100
AcDbPolyline
 62
2
  6
CONTINUOUS
 90
3
 70
0
 10
13.7730513916
 20
7.1016558838
 10
13.7730513916
 20
6.9166559448
 10
13.8530524902
 20
6.9166559448
  0
ENDBLK
  5
48C
100
AcDbEntity
  8
0
  6
BYBLOCK
 62
0
100
AcDbBlockEnd
  0
BLOCK
  5
48D
100
AcDbEntity
  8
SYMBOLS
100
AcDbBlockBegin
 62
2
  6
CONTINUOUS
  2
CL_BL2
 70
64
 10
16.4149225464
 20
5.7172635193
  3
CL_BL2
  1

  0
LWPOLYLINE
  5
48E
100
AcDbEntity
  8
SYMBOLS
100
AcDbPolyline
 62
2
  6
CONTINUOUS
 90
9
 70
0
 10
16.4399229736
 20
5.7647637939
 10
16.4099227295
 20
5.7747634277
 10
16.3799224854
 20
5.7647637939
 10
16.3599232178
 20
5.7447631836
 10
16.3499222412
 20
5.7147636108
 10
16.3599232178
 20
5.6847633667
 10
16.3799224854
 20
5.6647634277
 10
16.4099227295
 20
5.6547637939
 10
16.4399229736
 20
5.6647634277
  0
LWPOLYLINE
  5
48F
100
AcDbEntity
  8
SYMBOLS
100
AcDbPolyline
 62
2
  6
CONTINUOUS
 90
3
 70
0
 10
16.3999230957
 20
5.8097634888
 10
16.3999230957
 20
5.6247635498
 10
16.4799228516
 20
5.6247635498
  0
ENDBLK
  5
490
100
AcDbEntity
  8
0
  6
BYBLOCK
 62
0
100
AcDbBlockEnd
  0
BLOCK
  5
491
100
AcDbEntity
  8
SYMBOLS
100
AcDbBlockBegin
 62
2
  6
CONTINUOUS
  2
CL_BL3
 70
64
 10
15.1649287109
 20
7.0297574158
  3
CL_BL3
  1

  0
LWPOLYLINE
  5
492
100
AcDbEntity
  8
SYMBOLS
100
AcDbPolyline
 62
2
  6
CONTINUOUS
 90
9
 70
0
 10
15.1899284668
 20
7.077257019
 10
15.1599282227
 20
7.0872573242
 10
15.1299293213
 20
7.077257019
 10
15.1099287109
 20
7.0572570801
 10
15.0999290771
 20
7.0272568359
 10
15.1099287109
 20
6.9972572632
 10
15.1299293213
 20
6.9772573242
 10
15.1599282227
 20
6.967257019
 10
15.1899284668
 20
6.9772573242
  0
LWPOLYLINE
  5
493
100
AcDbEntity
  8
SYMBOLS
100
AcDbPolyline
 62
2
  6
CONTINUOUS
 90
3
 70
0
 10
15.1499285889
 20
7.1222573853
 10
15.1499285889
 20
6.9372574463
 10
15.2299283447
 20
6.9372574463
  0
ENDBLK
  5
494
100
AcDbEntity
  8
0
  6
BYBLOCK
 62
0
100
AcDbBlockEnd
  0
BLOCK
  5
495
100
AcDbEntity
  8
SYMBOLS
100
AcDbBlockBegin
 62
2
  6
CONTINUOUS
  2
CL_BL4
 70
64
 10
13.7663214111
 20
10.1680428467
  3
CL_BL4
  1

  0
LWPOLYLINE
  5
496
100
AcDbEntity
  8
SYMBOLS
100
AcDbPolyline
 62
2
  6
CONTINUOUS
 90
9
 70
0
 10
13.791321167
 20
10.2155427856
 10
13.7613209229
 20
10.2255430908
 10
13.7313206787
 20
10.2155427856
 10
13.7113214111
 20
10.1955428467
 10
13.7013217773
 20
10.1655426025
 10
13.7113214111
 20
10.1355430298
 10
13.7313206787
 20
10.1155430908
 10
13.7613209229
 20
10.1055427856
 10
13.791321167
 20
10.1155430908
  0
LWPOLYLINE
  5
497
100
AcDbEntity
  8
SYMBOLS
100
AcDbPolyline
 62
2
  6
CONTINUOUS
 90
3
 70
0
 10
13.7513212891
 20
10.2605431519
 10
13.7513212891
 20
10.0755425415
 10
13.8313210449
 20
10.0755425415
  0
ENDBLK
  5
498
100
AcDbEntity
  8
0
  6
BYBLOCK
 62
0
100
AcDbBlockEnd
  0
BLOCK
  5
499
100
AcDbEntity
  8
SYMBOLS
100
AcDbBlockBegin
 62
2
  6
CONTINUOUS
  2
CL_BL5
 70
64
 10
13.7300457153
 20
3.6522005005
  3
CL_BL5
  1

  0
LWPOLYLINE
  5
49A
100
AcDbEntity
  8
SYMBOLS
100
AcDbPolyline
 62
2
  6
CONTINUOUS
 90
9
 70
0
 10
13.7550461426
 20
3.6997004395
 10
13.7250458984
 20
3.7097004089
 10
13.6950456543
 20
3.6997004395
 10
13.6750450439
 20
3.6797005005
 10
13.6650454102
 20
3.6497002563
 10
13.6750450439
 20
3.6197003479
 10
13.6950456543
 20
3.5997004089
 10
13.7250458984
 20
3.5897004395
 10
13.7550461426
 20
3.5997004089
  0
LWPOLYLINE
  5
49B
100
AcDbEntity
  8
SYMBOLS
100
AcDbPolyline
 62
2
  6
CONTINUOUS
 90
3
 70
0
 10
13.7150449219
 20
3.74470047
 10
13.7150449219
 20
3.559700531
 10
13.7950460205
 20
3.559700531
  0
ENDBLK
  5
49C
100
AcDbEntity
  8
0
  6
BYBLOCK
 62
0
100
AcDbBlockEnd
  0
BLOCK
  5
49D
100
AcDbEntity
  8
SYMBOLS
100
AcDbBlockBegin
 62
2
  6
CONTINUOUS
  2
CL_BL6
 70
64
 10
13.8109766846
 20
13.8209545898
  3
CL_BL6
  1

  0
LWPOLYLINE
  5
49E
100
AcDbEntity
  8
SYMBOLS
100
AcDbPolyline
 62
2
  6
CONTINUOUS
 90
9
 70
0
 10
13.8359764404
 20
13.8684538574
 10
13.8059761963
 20
13.878454834
 10
13.7759759521
 20
13.8684538574
 10
13.7559766846
 20
13.8484545898
 10
13.7459770508
 20
13.8184543457
 10
13.7559766846
 20
13.7884541016
 10
13.7759759521
 20
13.768454834
 10
13.8059761963
 20
13.7584538574
 10
13.8359764404
 20
13.768454834
  0
LWPOLYLINE
  5
49F
100
AcDbEntity
  8
SYMBOLS
100
AcDbPolyline
 62
2
  6
CONTINUOUS
 90
3
 70
0
 10
13.7959765625
 20
13.9134542236
 10
13.7959765625
 20
13.7284549561
 10
13.8759763184
 20
13.7284549561
  0
ENDBLK
  5
4A0
100
AcDbEntity
  8
0
  6
BYBLOCK
 62
0
100
AcDbBlockEnd
  0
BLOCK
  5
4A1
100
AcDbEntity
  8
0
100
AcDbBlockBegin
  2
_FILLED
 70
64
 10
0.0
 20
0.0
  3
_FILLED
  1

  0
SOLID
  5
4A2
100
AcDbEntity
  8
0
  6
BYBLOCK
 62
0
100
AcDbTrace
 10
0.0
 20
0.0
 11
-1.0
 21
0.1666666667
 12
-1.0
 22
-0.1666666667
 13
-1.0
 23
-0.1666666667
  0
ENDBLK
  5
4A3
100
AcDbEntity
  8
0
  6
BYBLOCK
 62
0
100
AcDbBlockEnd
  0
ENDSEC
  0
SECTION
  2
ENTITIES
  0
TEXT
  5
4A4
100
AcDbEntity
  8
0
100
AcDbText
 62
2
  6
CONTINUOUS
 10
14.8374677477
 20
1.5655662523
  7
STANDARD
 40
0.1
  1
%%uTHIRD ANGLE PROJECTION
 41
0.8
 72
1
 11
15.7174677477
 21
1.5655662523
100
AcDbText
  0
TEXT
  5
4A5
100
AcDbEntity
  8
0
100
AcDbText
 62
2
  6
CONTINUOUS
 10
17.55
 20
1.24
  7
STANDARD
 40
0.08
  1
DRAWING NO.
 41
1.0
 72
0
100
AcDbText
  0
TEXT
  5
4A6
100
AcDbEntity
  8
0
100
AcDbText
 62
2
  6
CONTINUOUS
 10
14.714
 20
2.299432
  7
STANDARD
 40
0.08
  1
and is proprietary in general
 41
0.85
 72
1
 11
15.7
 21
2.299432
100
AcDbText
  0
TEXT
  5
4A7
100
AcDbEntity
  8
0
100
AcDbText
 62
2
  6
CONTINUOUS
 10
14.748
 20
2.179432
  7
STANDARD
 40
0.08
  1
and in detail.  Its contents
 41
0.85
 72
1
 11
15.7
 21
2.179432
100
AcDbText
  0
TEXT
  5
4A8
100
AcDbEntity
  8
0
100
AcDbText
 62
2
  6
CONTINUOUS
 10
14.884
 20
2.059432
  7
STANDARD
 40
0.08
  1
shall not be revealed to
 41
0.85
 72
1
 11
15.7
 21
2.059432
100
AcDbText
  0
TEXT
  5
4A9
100
AcDbEntity
  8
0
100
AcDbText
 62
2
  6
CONTINUOUS
 10
14.918
 20
1.939432
  7
STANDARD
 40
0.08
  1
outside parties without
 41
0.85
 72
1
 11
15.7
 21
1.939432
100
AcDbText
  0
TEXT
  5
4AA
100
AcDbEntity
  8
0
100
AcDbText
 62
2
  6
CONTINUOUS
 10
14.816
 20
1.819432
  7
STANDARD
 40
0.08
  1
written consent of BANNER.
 41
0.85
 72
1
 11
15.7
 21
1.819432
100
AcDbText
  0
TEXT
  5
4AB
100
AcDbEntity
  8
0
100
AcDbText
 62
2
  6
CONTINUOUS
 10
16.75
 20
1.98
  7
STANDARD
 40
0.1
  1
TITLE
 41
0.8
 72
0
100
AcDbText
  0
TEXT
  5
4AC
100
AcDbEntity
  8
0
100
AcDbText
 62
2
  6
CONTINUOUS
 10
16.75
 20
1.24
  7
STANDARD
 40
0.08
  1
SIZE
 41
1.0
 72
0
100
AcDbText
  0
TEXT
  5
4AD
100
AcDbEntity
  8
0
100
AcDbText
 62
2
  6
CONTINUOUS
 10
16.75
 20
0.87
  7
STANDARD
 40
0.08
  1
SCALE
 41
1.0
 72
0
100
AcDbText
  0
TEXT
  5
4AE
100
AcDbEntity
  8
0
100
AcDbText
 62
2
  6
CONTINUOUS
 10
17.13
 20
1.1
  7
STANDARD
 40
0.1
  1
C
 41
0.8
 72
1
 11
17.17
 21
1.1
100
AcDbText
  0
TEXT
  5
4AF
100
AcDbEntity
  8
0
100
AcDbText
 62
2
  6
CONTINUOUS
 10
14.782
 20
2.419432
  7
STANDARD
 40
0.08
  1
of BANNER ENGINEERING CORP.
 41
0.85
 72
1
 11
15.7
 21
2.419432
100
AcDbText
  0
TEXT
  5
4B0
100
AcDbEntity
  8
0
100
AcDbText
 62
2
  6
CONTINUOUS
 10
14.748
 20
2.539432
  7
STANDARD
 40
0.08
  1
This drawing is the property
 41
0.85
 72
1
 11
15.7
 21
2.539432
100
AcDbText
  0
TEXT
  5
4B1
100
AcDbEntity
  8
0
100
AcDbText
 62
2
  6
CONTINUOUS
 10
18.86
 20
2.1764
  7
STANDARD
 40
0.1
  1
MINNEAPOLIS, MN 55440
 41
0.8
 72
1
 11
19.7
 21
2.1764
100
AcDbText
  0
TEXT
  5
4B2
100
AcDbEntity
  8
0
100
AcDbText
 62
2
  6
CONTINUOUS
 10
18.925
 20
0.87
  7
STANDARD
 40
0.08
  1
SHEET
 41
1.0
 72
0
100
AcDbText
  0
TEXT
  5
4B3
100
AcDbEntity
  8
0
100
AcDbText
 62
2
  6
CONTINUOUS
 10
20.3
 20
1.24
  7
STANDARD
 40
0.08
  1
REV.
 41
1.0
 72
0
100
AcDbText
  0
TEXT
  5
4B4
100
AcDbEntity
  8
0
100
AcDbText
 62
2
  6
CONTINUOUS
 10
20.7
 20
0.628443
  7
STANDARD
 40
0.07
  1
PRO/E
 41
1.0
 72
2
 11
21.05
 21
0.628443
100
AcDbText
  0
TEXT
  5
4B5
100
AcDbEntity
  8
0
100
AcDbText
 62
2
  6
CONTINUOUS
 10
18.3752
 20
2.494049
  7
STANDARD
 40
0.12
  1
BANNER ENGINEERING CORP.
 41
0.92
 72
1
 11
19.7
 21
2.494049
100
AcDbText
  0
TEXT
  5
4B6
100
AcDbEntity
  8
0
100
AcDbText
 62
2
  6
CONTINUOUS
 10
19.18
 20
2.3354
  7
STANDARD
 40
0.1
  1
P.O. BOX 9414
 41
0.8
 72
1
 11
19.7
 21
2.3354
100
AcDbText
  0
TEXT
  5
4B7
100
AcDbEntity
  8
0
100
AcDbText
 62
2
  6
CONTINUOUS
 10
12.217
 20
15.85
  7
STANDARD
 40
0.1
  1
4
 41
0.8
 72
1
 11
12.257
 21
15.85
100
AcDbText
  0
TEXT
  5
4B8
100
AcDbEntity
  8
0
100
AcDbText
 62
2
  6
CONTINUOUS
 10
12.217
 20
0.55
  7
STANDARD
 40
0.1
  1
4
 41
0.8
 72
1
 11
12.257
 21
0.55
100
AcDbText
  0
TEXT
  5
4B9
100
AcDbEntity
  8
0
100
AcDbText
 62
2
  6
CONTINUOUS
 10
0.784
 20
6.275
  7
STANDARD
 40
0.1
  1
B
 41
0.8
 72
2
 11
0.864
 21
6.275
100
AcDbText
  0
TEXT
  5
4BA
100
AcDbEntity
  8
0
100
AcDbText
 62
2
  6
CONTINUOUS
 10
21.15
 20
6.275
  7
STANDARD
 40
0.1
  1
B
 41
0.8
 72
0
100
AcDbText
  0
TEXT
  5
4BB
100
AcDbEntity
  8
0
100
AcDbText
 62
2
  6
CONTINUOUS
 10
0.784
 20
2.425
  7
STANDARD
 40
0.1
  1
A
 41
0.8
 72
2
 11
0.864
 21
2.425
100
AcDbText
  0
TEXT
  5
4BC
100
AcDbEntity
  8
0
100
AcDbText
 62
2
  6
CONTINUOUS
 10
21.15
 20
2.425
  7
STANDARD
 40
0.1
  1
A
 41
0.8
 72
0
100
AcDbText
  0
TEXT
  5
4BD
100
AcDbEntity
  8
0
100
AcDbText
 62
2
  6
CONTINUOUS
 10
0.784
 20
13.975
  7
STANDARD
 40
0.1
  1
D
 41
0.8
 72
2
 11
0.864
 21
13.975
100
AcDbText
  0
TEXT
  5
4BE
100
AcDbEntity
  8
0
100
AcDbText
 62
2
  6
CONTINUOUS
 10
21.15
 20
13.975
  7
STANDARD
 40
0.1
  1
D
 41
0.8
 72
0
100
AcDbText
  0
TEXT
  5
4BF
100
AcDbEntity
  8
0
100
AcDbText
 62
2
  6
CONTINUOUS
 10
0.784
 20
10.125
  7
STANDARD
 40
0.1
  1
C
 41
0.8
 72
2
 11
0.864
 21
10.125
100
AcDbText
  0
TEXT
  5
4C0
100
AcDbEntity
  8
0
100
AcDbText
 62
2
  6
CONTINUOUS
 10
21.15
 20
10.125
  7
STANDARD
 40
0.1
  1
C
 41
0.8
 72
0
100
AcDbText
  0
TEXT
  5
4C1
100
AcDbEntity
  8
0
100
AcDbText
 62
2
  6
CONTINUOUS
 10
14.717
 20
0.55
  7
STANDARD
 40
0.1
  1
3
 41
0.8
 72
1
 11
14.757
 21
0.55
100
AcDbText
  0
TEXT
  5
4C2
100
AcDbEntity
  8
0
100
AcDbText
 62
2
  6
CONTINUOUS
 10
14.717
 20
15.85
  7
STANDARD
 40
0.1
  1
3
 41
0.8
 72
1
 11
14.757
 21
15.85
100
AcDbText
  0
TEXT
  5
4C3
100
AcDbEntity
  8
0
100
AcDbText
 62
2
  6
CONTINUOUS
 10
17.217
 20
15.85
  7
STANDARD
 40
0.1
  1
2
 41
0.8
 72
1
 11
17.257
 21
15.85
100
AcDbText
  0
TEXT
  5
4C4
100
AcDbEntity
  8
0
100
AcDbText
 62
2
  6
CONTINUOUS
 10
17.217
 20
0.55
  7
STANDARD
 40
0.1
  1
2
 41
0.8
 72
1
 11
17.257
 21
0.55
100
AcDbText
  0
TEXT
  5
4C5
100
AcDbEntity
  8
0
100
AcDbText
 62
2
  6
CONTINUOUS
 10
19.717
 20
0.55
  7
STANDARD
 40
0.1
  1
1
 41
0.8
 72
1
 11
19.757
 21
0.55
100
AcDbText
  0
TEXT
  5
4C6
100
AcDbEntity
  8
0
100
AcDbText
 62
2
  6
CONTINUOUS
 10
19.717
 20
15.85
  7
STANDARD
 40
0.1
  1
1
 41
0.8
 72
1
 11
19.757
 21
15.85
100
AcDbText
  0
TEXT
  5
4C7
100
AcDbEntity
  8
0
100
AcDbText
 62
2
  6
CONTINUOUS
 10
2.217
 20
0.55
  7
STANDARD
 40
0.1
  1
8
 41
0.8
 72
1
 11
2.257
 21
0.55
100
AcDbText
  0
TEXT
  5
4C8
100
AcDbEntity
  8
0
100
AcDbText
 62
2
  6
CONTINUOUS
 10
4.717
 20
0.55
  7
STANDARD
 40
0.1
  1
7
 41
0.8
 72
1
 11
4.757
 21
0.55
100
AcDbText
  0
TEXT
  5
4C9
100
AcDbEntity
  8
0
100
AcDbText
 62
2
  6
CONTINUOUS
 10
7.217
 20
0.55
  7
STANDARD
 40
0.1
  1
6
 41
0.8
 72
1
 11
7.257
 21
0.55
100
AcDbText
  0
TEXT
  5
4CA
100
AcDbEntity
  8
0
100
AcDbText
 62
2
  6
CONTINUOUS
 10
9.717
 20
0.55
  7
STANDARD
 40
0.1
  1
5
 41
0.8
 72
1
 11
9.757
 21
0.55
100
AcDbText
  0
TEXT
  5
4CB
100
AcDbEntity
  8
0
100
AcDbText
 62
2
  6
CONTINUOUS
 10
9.717
 20
15.85
  7
STANDARD
 40
0.1
  1
5
 41
0.8
 72
1
 11
9.757
 21
15.85
100
AcDbText
  0
TEXT
  5
4CC
100
AcDbEntity
  8
0
100
AcDbText
 62
2
  6
CONTINUOUS
 10
7.217
 20
15.85
  7
STANDARD
 40
0.1
  1
6
 41
0.8
 72
1
 11
7.257
 21
15.85
100
AcDbText
  0
TEXT
  5
4CD
100
AcDbEntity
  8
0
100
AcDbText
 62
2
  6
CONTINUOUS
 10
4.717
 20
15.85
  7
STANDARD
 40
0.1
  1
7
 41
0.8
 72
1
 11
4.757
 21
15.85
100
AcDbText
  0
TEXT
  5
4CE
100
AcDbEntity
  8
0
100
AcDbText
 62
2
  6
CONTINUOUS
 10
2.217
 20
15.85
  7
STANDARD
 40
0.1
  1
8
 41
0.8
 72
1
 11
2.257
 21
15.85
100
AcDbText
  0
TEXT
  5
4CF
100
AcDbEntity
  8
0
100
AcDbText
 62
2
  6
CONTINUOUS
 10
17.2749123633
 20
0.8184107931
  7
STANDARD
 40
0.1
  1
1:1
 41
1.0
 72
0
100
AcDbText
  0
MTEXT
  5
4D0
100
AcDbEntity
  8
0
100
AcDbMText
 62
2
  6
CONTINUOUS
  7
STANDARD
 71
1
 72
1
 10
19.4499123633
 20
0.9184107931
 30
0.0
 11
1.0
 21
0.0
 31
0.0
  1
1 OF 1
 40
0.1
 41
0.6
  0
TEXT
  5
4D1
100
AcDbEntity
  8
0
100
AcDbText
 62
7
  6
CONTINUOUS
 10
18.5204017884
 20
1.1200373234
  7
STANDARD
 40
0.12
  1
146776
 41
1.0
 72
0
100
AcDbText
  0
MTEXT
  5
4D2
100
AcDbEntity
  8
0
100
AcDbMText
 62
2
  6
CONTINUOUS
  7
STANDARD
 71
1
 72
1
 10
1.7464424763
 20
1.7731130192
 30
0.0
 11
1.0
 21
0.0
 31
0.0
  1
NOTES:\P1. ALL DIMENSIONS ARE MILLIMETERS [INCHES] UNLESS OTHERWISE NOTED.
 40
0.1
 41
6.6
  0
INSERT
  5
4D3
100
AcDbEntity
  8
0
100
AcDbBlockReference
 62
2
  6
CONTINUOUS
  2
BANNER_LOGO_TITLEBLOCK_BL0
 10
17.5737928667
 20
2.4016160592
  0
DIMENSION
  5
4D4
100
AcDbEntity
  8
SCHEME_DIMS
100
AcDbDimension
 62
2
  6
CONTINUOUS
  2
*D0
 10
13.5010472387
 20
15.2974245241
 11
11.4721101786
 21
15.2224245241
 70
160
 42
103.0700026558
  3
DIMSTYLE_1
100
AcDbAlignedDimension
 13
9.4431731184
 23
14.7283654467
 14
13.5010472387
 24
14.0886016759
100
AcDbRotatedDimension
  0
DIMENSION
  5
4D5
100
AcDbEntity
  8
SCHEME_DIMS
100
AcDbDimension
 62
2
  6
CONTINUOUS
  2
*D1
 10
12.6349055064
 20
12.3723606079
 11
11.3288031442
 21
12.2973606079
 70
160
 42
66.35
  1
2X <>
  3
DIMSTYLE_1
100
AcDbAlignedDimension
 13
10.022700782
 23
13.5804937116
 14
12.6349055064
 24
13.5804937116
100
AcDbRotatedDimension
  0
DIMENSION
  5
4D6
100
AcDbEntity
  8
SCHEME_DIMS
100
AcDbDimension
 62
2
  6
CONTINUOUS
  2
*D2
 10
15.8092162378
 20
6.1998254032
 11
14.9670605286
 21
5.8735862779
 70
163
 42
52.5
  1
<>
  3
DIMSTYLE_2
100
AcDbDiametricDimension
 15
17.0745956085
 25
7.834148227
  0
DIMENSION
  5
4D7
100
AcDbEntity
  8
SCHEME_DIMS
100
AcDbDimension
 62
2
  6
CONTINUOUS
  2
*D3
 10
17.4564496303
 20
8.3798943263
 11
16.4419059232
 21
8.3048943263
 70
160
 42
51.5388203202
  3
DIMSTYLE_1
100
AcDbAlignedDimension
 13
15.4273622161
 23
7.2763275189
 14
17.4564496303
 24
7.2763324294
100
AcDbRotatedDimension
  0
DIMENSION
  5
4D8
100
AcDbEntity
  8
SCHEME_DIMS
100
AcDbDimension
 62
2
  6
CONTINUOUS
  2
*D4
 10
18.0587140753
 20
8.050451382
 11
18.0587140753
 21
6.960698301
 70
160
 42
51.5494565159
  3
DIMSTYLE_1
100
AcDbAlignedDimension
 13
16.779995649
 23
6.02094522
 14
16.672493071
 24
8.050451382
 50
90.0
100
AcDbRotatedDimension
  0
DIMENSION
  5
4D9
100
AcDbEntity
  8
SCHEME_DIMS
100
AcDbDimension
 62
2
  6
CONTINUOUS
  2
*D5
 10
10.022700782
 20
12.3723606079
 11
9.7329369502
 21
12.3723606079
 70
160
 42
14.7200026558
  1
3X\P<>
  3
DIMSTYLE_1
100
AcDbAlignedDimension
 13
9.4431731184
 23
12.9004969856
 14
10.022700782
 24
13.5804937116
100
AcDbRotatedDimension
  0
DIMENSION
  5
4DA
100
AcDbEntity
  8
SCHEME_DIMS
100
AcDbDimension
 62
2
  6
CONTINUOUS
  2
*D6
 10
8.8878652631
 20
6.8201364214
 11
8.8878652631
 21
7.0348435109
 70
160
 42
10.0
  3
DIMSTYLE_1
100
AcDbAlignedDimension
 13
9.8570427475
 23
7.2138372088
 14
9.8284714565
 24
6.8201364214
 50
270.0
100
AcDbRotatedDimension
  0
DIMENSION
  5
4DB
100
AcDbEntity
  8
SCHEME_DIMS
100
AcDbDimension
 62
2
  6
CONTINUOUS
  2
*D7
 10
8.8750081822
 20
3.3574526807
 11
8.8750081822
 21
3.6666141378
 70
160
 42
14.0
  3
DIMSTYLE_1
100
AcDbAlignedDimension
 13
9.838468095
 23
3.9086337831
 14
9.8241824495
 24
3.3574526807
 50
270.0
100
AcDbRotatedDimension
  0
DIMENSION
  5
4DC
100
AcDbEntity
  8
SCHEME_DIMS
100
AcDbDimension
 62
2
  6
CONTINUOUS
  2
*D8
 10
13.5010472387
 20
11.6590851041
 11
13.1762440891
 21
11.5840851041
 70
160
 42
16.5
  3
DIMSTYLE_1
100
AcDbAlignedDimension
 13
12.8514409395
 23
11.1711370044
 14
13.5010472387
 24
10.4427905477
100
AcDbRotatedDimension
  0
LINE
  5
4DD
100
AcDbEntity
  8
0
100
AcDbLine
 62
2
  6
CONTINUOUS
 10
21.05
 20
0.75
 11
16.7
 21
0.75
  0
LINE
  5
4DE
100
AcDbEntity
  8
0
100
AcDbLine
 62
2
  6
CONTINUOUS
 10
21.05
 20
0.75
 11
21.05
 21
2.67
  0
LINE
  5
4DF
100
AcDbEntity
  8
0
100
AcDbLine
 62
2
  6
CONTINUOUS
 10
21.05
 20
2.67
 11
16.7
 21
2.67
  0
LINE
  5
4E0
100
AcDbEntity
  8
0
100
AcDbLine
 62
2
  6
CONTINUOUS
 10
16.7
 20
0.75
 11
16.7
 21
2.67
  0
TEXT
  5
4E1
100
AcDbEntity
  8
0
100
AcDbText
 62
7
  6
CONTINUOUS
 10
20.775
 20
1.13
  7
STANDARD
 40
0.1
  1
-
 41
1.0
 72
1
 11
20.825
 21
1.13
100
AcDbText
  0
MTEXT
  5
4E2
100
AcDbEntity
  8
0
100
AcDbMText
 62
7
  6
CONTINUOUS
  7
STANDARD
 71
2
 72
1
 10
18.875
 20
1.83
 30
0.0
 11
1.0
 21
0.0
 31
0.0
  1
PPROCAMS\PWEB CAD DRAWING 2D / 3D
 40
0.1
 41
2.3
  0
MTEXT
  5
4E3
100
AcDbEntity
  8
NOTES
100
AcDbMText
 62
2
  6
CONTINUOUS
  7
STANDARD
 71
1
 72
1
 10
8.4177562468
 20
8.2335296446
 30
0.0
 11
1.0
 21
0.0
 31
0.0
  1
5X \PM5 X 0.8 
 40
0.1
 41
0.9
  0
MTEXT
  5
4E4
100
AcDbEntity
  8
NOTES
100
AcDbMText
 62
2
  6
CONTINUOUS
  7
STANDARD
 71
1
 72
1
 10
8.4177562468
 20
7.9335296446
 30
0.0
 11
1.0
 21
0.0
 31
0.0
  1
.20
 40
0.1
 41
0.9
  0
LINE
  5
4E5
100
AcDbEntity
  8
NOTES
100
AcDbLine
 62
2
  6
CONTINUOUS
 10
9.9642391978
 20
7.0754483994
 11
8.9677562468
 21
8.1835296446
  0
LINE
  5
4E6
100
AcDbEntity
  8
NOTES
100
AcDbLine
 62
2
  6
CONTINUOUS
 10
8.9677562468
 20
8.1835296446
 11
8.7177562468
 21
8.1835296446
  0
SOLID
  5
4E7
100
AcDbEntity
  8
NOTES
100
AcDbTrace
 62
2
  6
CONTINUOUS
 10
9.815627068
 20
7.1939694836
 11
9.9642391978
 21
7.0754483994
 12
9.8620994267
 22
7.235761467
 13
9.8620994267
 23
7.235761467
  0
MTEXT
  5
4E8
100
AcDbEntity
  8
NOTES
100
AcDbMText
 62
2
  6
CONTINUOUS
  7
STANDARD
 71
1
 72
1
 10
3.7369698943
 20
8.6662761692
 30
0.0
 11
1.0
 21
0.0
 31
0.0
  1
 LENS SEATS ON \PTHIS SURFACE 
 40
0.1
 41
1.5
  0
LINE
  5
4E9
100
AcDbEntity
  8
NOTES
100
AcDbLine
 62
2
  6
CONTINUOUS
 10
6.1825972796
 20
7.5712016518
 11
5.4869698943
 21
8.6162761692
  0
LINE
  5
4EA
100
AcDbEntity
  8
NOTES
100
AcDbLine
 62
2
  6
CONTINUOUS
 10
5.4869698943
 20
8.6162761692
 11
5.2369698943
 21
8.6162761692
  0
LWPOLYLINE
  5
4EB
100
AcDbEntity
  8
NOTES
100
AcDbPolyline
 62
2
  6
CONTINUOUS
 90
2
 70
1
 43
0.03125
 10
6.1842878902
 20
7.5451875762
 42
1.0
 10
6.2155378902
 20
7.5451875762
 42
1.0
  0
MTEXT
  5
4EC
100
AcDbEntity
  8
NOTES
100
AcDbMText
 62
2
  6
CONTINUOUS
  7
STANDARD
 71
1
 72
1
 10
3.1013712388
 20
5.9629409707
 30
0.0
 11
1.0
 21
0.0
 31
0.0
  1
LENS TUBE OR \PRING LIGHT SEATS \PON THIS SURFACE 
 40
0.1
 41
1.7
  0
LINE
  5
4ED
100
AcDbEntity
  8
NOTES
100
AcDbLine
 62
2
  6
CONTINUOUS
 10
5.1159233691
 20
6.3111285109
 11
4.6513712388
 21
5.9129409707
  0
LINE
  5
4EE
100
AcDbEntity
  8
NOTES
100
AcDbLine
 62
2
  6
CONTINUOUS
 10
4.6513712388
 20
5.9129409707
 11
4.4013712388
 21
5.9129409707
  0
LWPOLYLINE
  5
4EF
100
AcDbEntity
  8
NOTES
100
AcDbPolyline
 62
2
  6
CONTINUOUS
 90
2
 70
1
 43
0.03125
 10
5.1240251379
 20
6.3314657413
 42
1.0
 10
5.1552751379
 20
6.3314657413
 42
1.0
  0
INSERT
  5
4F0
100
AcDbEntity
  8
SYMBOLS
100
AcDbBlockReference
 62
2
  6
CONTINUOUS
  2
CL_BL1
 10
13.7880521851
 20
7.0091559143
  0
INSERT
  5
4F1
100
AcDbEntity
  8
SYMBOLS
100
AcDbBlockReference
 62
2
  6
CONTINUOUS
  2
CL_BL2
 10
16.4149225464
 20
5.7172635193
  0
INSERT
  5
4F2
100
AcDbEntity
  8
SYMBOLS
100
AcDbBlockReference
 62
2
  6
CONTINUOUS
  2
CL_BL3
 10
15.1649287109
 20
7.0297574158
  0
INSERT
  5
4F3
100
AcDbEntity
  8
SYMBOLS
100
AcDbBlockReference
 62
2
  6
CONTINUOUS
  2
CL_BL4
 10
13.7663214111
 20
10.1680428467
  0
INSERT
  5
4F4
100
AcDbEntity
  8
SYMBOLS
100
AcDbBlockReference
 62
2
  6
CONTINUOUS
  2
CL_BL5
 10
13.7300457153
 20
3.6522005005
  0
INSERT
  5
4F5
100
AcDbEntity
  8
SYMBOLS
100
AcDbBlockReference
 62
2
  6
CONTINUOUS
  2
CL_BL6
 10
13.8109766846
 20
13.8209545898
  0
LINE
  5
4F6
100
AcDbEntity
  8
0
100
AcDbLine
 62
2
  6
CONTINUOUS
 10
0.814
 20
8.336603
 11
0.814
 21
8.163397
  0
LINE
  5
4F7
100
AcDbEntity
  8
0
100
AcDbLine
 62
2
  6
CONTINUOUS
 10
0.964
 20
15.75
 11
0.964
 21
0.75
  0
LINE
  5
4F8
100
AcDbEntity
  8
0
100
AcDbLine
 62
7
  6
CONTINUOUS
 10
15.8276527477
 20
1.2966912523
 11
16.4340437477
 21
1.3660842523
  0
LINE
  5
4F9
100
AcDbEntity
  8
0
100
AcDbLine
 62
2
  6
CONTINUOUS
 10
10.920397
 20
0.6
 11
11.093603
 21
0.6
  0
LINE
  5
4FA
100
AcDbEntity
  8
0
100
AcDbLine
 62
2
  6
CONTINUOUS
 10
0.964
 20
0.75
 11
21.05
 21
0.75
  0
LINE
  5
4FB
100
AcDbEntity
  8
0
100
AcDbLine
 62
2
  6
CONTINUOUS
 10
3.507
 20
0.75
 11
3.507
 21
0.5
  0
LINE
  5
4FC
100
AcDbEntity
  8
0
100
AcDbLine
 62
2
  6
CONTINUOUS
 10
3.507
 20
15.75
 11
3.507
 21
16.0
  0
LINE
  5
4FD
100
AcDbEntity
  8
0
100
AcDbLine
 62
2
  6
CONTINUOUS
 10
16.7
 20
1.0
 11
21.05
 21
1.0
  0
LINE
  5
4FE
100
AcDbEntity
  8
0
100
AcDbLine
 62
7
  6
CONTINUOUS
 10
14.9008917477
 20
1.1139932523
 11
15.1229827477
 21
1.1139932523
  0
LINE
  5
4FF
100
AcDbEntity
  8
0
100
AcDbLine
 62
7
  6
CONTINUOUS
 10
15.1729827477
 20
1.1139932523
 11
15.2729827477
 21
1.1139932523
  0
LINE
  5
500
100
AcDbEntity
  8
0
100
AcDbLine
 62
7
  6
CONTINUOUS
 10
15.3229827477
 20
1.1139932523
 11
15.5450737477
 21
1.1139932523
  0
LINE
  5
501
100
AcDbEntity
  8
0
100
AcDbLine
 62
7
  6
CONTINUOUS
 10
15.7276527477
 20
1.1139932523
 11
16.0058047477
 21
1.1139932523
  0
LINE
  5
502
100
AcDbEntity
  8
0
100
AcDbLine
 62
7
  6
CONTINUOUS
 10
16.0558047477
 20
1.1139932523
 11
16.2058907477
 21
1.1139932523
  0
LINE
  5
503
100
AcDbEntity
  8
0
100
AcDbLine
 62
7
  6
CONTINUOUS
 10
16.2558907477
 20
1.1139932523
 11
16.5340437477
 21
1.1139932523
  0
LINE
  5
504
100
AcDbEntity
  8
0
100
AcDbLine
 62
2
  6
CONTINUOUS
 10
16.7
 20
1.37
 11
21.05
 21
1.37
  0
LINE
  5
505
100
AcDbEntity
  8
0
100
AcDbLine
 62
7
  6
CONTINUOUS
 10
16.4340437477
 20
0.8619022523
 11
15.8276527477
 21
0.9312952523
  0
LINE
  5
506
100
AcDbEntity
  8
0
100
AcDbLine
 62
2
  6
CONTINUOUS
 10
14.7
 20
1.77
 11
16.7
 21
1.77
  0
LINE
  5
507
100
AcDbEntity
  8
0
100
AcDbLine
 62
2
  6
CONTINUOUS
 10
16.7
 20
2.13
 11
21.05
 21
2.13
  0
LINE
  5
508
100
AcDbEntity
  8
0
100
AcDbLine
 62
2
  6
CONTINUOUS
 10
21.05
 20
2.67
 11
14.7
 21
2.67
  0
LINE
  5
509
100
AcDbEntity
  8
0
100
AcDbLine
 62
2
  6
CONTINUOUS
 10
6.007
 20
0.75
 11
6.007
 21
0.5
  0
LINE
  5
50A
100
AcDbEntity
  8
0
100
AcDbLine
 62
2
  6
CONTINUOUS
 10
6.007
 20
15.75
 11
6.007
 21
16.0
  0
LINE
  5
50B
100
AcDbEntity
  8
0
100
AcDbLine
 62
2
  6
CONTINUOUS
 10
0.814
 20
8.163397
 11
0.964
 21
8.25
  0
LINE
  5
50C
100
AcDbEntity
  8
0
100
AcDbLine
 62
2
  6
CONTINUOUS
 10
0.964
 20
8.25
 11
0.814
 21
8.336603
  0
LINE
  5
50D
100
AcDbEntity
  8
0
100
AcDbLine
 62
2
  6
CONTINUOUS
 10
0.964
 20
4.4
 11
0.714
 21
4.4
  0
LINE
  5
50E
100
AcDbEntity
  8
0
100
AcDbLine
 62
2
  6
CONTINUOUS
 10
21.05
 20
4.4
 11
21.3
 21
4.4
  0
LINE
  5
50F
100
AcDbEntity
  8
0
100
AcDbLine
 62
2
  6
CONTINUOUS
 10
11.093603
 20
0.6
 11
11.007
 21
0.75
  0
LINE
  5
510
100
AcDbEntity
  8
0
100
AcDbLine
 62
2
  6
CONTINUOUS
 10
11.007
 20
15.75
 11
11.093603
 21
15.9
  0
LINE
  5
511
100
AcDbEntity
  8
0
100
AcDbLine
 62
2
  6
CONTINUOUS
 10
8.507
 20
0.75
 11
8.507
 21
0.5
  0
LINE
  5
512
100
AcDbEntity
  8
0
100
AcDbLine
 62
2
  6
CONTINUOUS
 10
8.507
 20
15.75
 11
8.507
 21
16.0
  0
LINE
  5
513
100
AcDbEntity
  8
0
100
AcDbLine
 62
2
  6
CONTINUOUS
 10
11.007
 20
0.75
 11
11.007
 21
0.5
  0
LINE
  5
514
100
AcDbEntity
  8
0
100
AcDbLine
 62
2
  6
CONTINUOUS
 10
11.007
 20
15.75
 11
11.007
 21
16.0
  0
LINE
  5
515
100
AcDbEntity
  8
0
100
AcDbLine
 62
2
  6
CONTINUOUS
 10
0.964
 20
8.25
 11
0.714
 21
8.25
  0
LINE
  5
516
100
AcDbEntity
  8
0
100
AcDbLine
 62
2
  6
CONTINUOUS
 10
21.05
 20
8.25
 11
21.3
 21
8.25
  0
LINE
  5
517
100
AcDbEntity
  8
0
100
AcDbLine
 62
2
  6
CONTINUOUS
 10
13.507
 20
0.75
 11
13.507
 21
0.5
  0
LINE
  5
518
100
AcDbEntity
  8
0
100
AcDbLine
 62
2
  6
CONTINUOUS
 10
13.507
 20
15.75
 11
13.507
 21
16.0
  0
LINE
  5
519
100
AcDbEntity
  8
0
100
AcDbLine
 62
2
  6
CONTINUOUS
 10
14.7
 20
2.67
 11
14.7
 21
0.75
  0
LINE
  5
51A
100
AcDbEntity
  8
0
100
AcDbLine
 62
2
  6
CONTINUOUS
 10
11.007
 20
0.75
 11
10.920397
 21
0.6
  0
LINE
  5
51B
100
AcDbEntity
  8
0
100
AcDbLine
 62
2
  6
CONTINUOUS
 10
0.964
 20
12.1
 11
0.714
 21
12.1
  0
LINE
  5
51C
100
AcDbEntity
  8
0
100
AcDbLine
 62
2
  6
CONTINUOUS
 10
21.05
 20
12.1
 11
21.3
 21
12.1
  0
LINE
  5
51D
100
AcDbEntity
  8
0
100
AcDbLine
 62
2
  6
CONTINUOUS
 10
10.920397
 20
15.9
 11
11.007
 21
15.75
  0
LINE
  5
51E
100
AcDbEntity
  8
0
100
AcDbLine
 62
7
  6
CONTINUOUS
 10
15.2229827477
 20
1.0139932523
 11
15.2229827477
 21
0.7919022523
  0
LINE
  5
51F
100
AcDbEntity
  8
0
100
AcDbLine
 62
7
  6
CONTINUOUS
 10
15.2229827477
 20
1.0639932523
 11
15.2229827477
 21
1.1639932523
  0
LINE
  5
520
100
AcDbEntity
  8
0
100
AcDbLine
 62
7
  6
CONTINUOUS
 10
15.2229827477
 20
1.2139932523
 11
15.2229827477
 21
1.4360842523
  0
LINE
  5
521
100
AcDbEntity
  8
0
100
AcDbLine
 62
7
  6
CONTINUOUS
 10
15.8276527477
 20
0.9312952523
 11
15.8276527477
 21
1.2966912523
  0
LINE
  5
522
100
AcDbEntity
  8
0
100
AcDbLine
 62
2
  6
CONTINUOUS
 10
16.007
 20
0.75
 11
16.007
 21
0.5
  0
LINE
  5
523
100
AcDbEntity
  8
0
100
AcDbLine
 62
2
  6
CONTINUOUS
 10
16.007
 20
15.75
 11
16.007
 21
16.0
  0
LINE
  5
524
100
AcDbEntity
  8
0
100
AcDbLine
 62
7
  6
CONTINUOUS
 10
16.4340437477
 20
1.3660842523
 11
16.4340437477
 21
0.8619022523
  0
LINE
  5
525
100
AcDbEntity
  8
0
100
AcDbLine
 62
2
  6
CONTINUOUS
 10
21.2
 20
8.336603
 11
21.05
 21
8.25
  0
LINE
  5
526
100
AcDbEntity
  8
0
100
AcDbLine
 62
2
  6
CONTINUOUS
 10
21.05
 20
8.25
 11
21.2
 21
8.163397
  0
LINE
  5
527
100
AcDbEntity
  8
0
100
AcDbLine
 62
7
  6
CONTINUOUS
 10
16.7
 20
2.67
 11
16.7
 21
0.75
  0
LINE
  5
528
100
AcDbEntity
  8
0
100
AcDbLine
 62
2
  6
CONTINUOUS
 10
17.5
 20
1.37
 11
17.5
 21
1.0
  0
LINE
  5
529
100
AcDbEntity
  8
0
100
AcDbLine
 62
2
  6
CONTINUOUS
 10
18.507
 20
0.75
 11
18.507
 21
0.5
  0
LINE
  5
52A
100
AcDbEntity
  8
0
100
AcDbLine
 62
2
  6
CONTINUOUS
 10
18.507
 20
15.75
 11
18.507
 21
16.0
  0
LINE
  5
52B
100
AcDbEntity
  8
0
100
AcDbLine
 62
2
  6
CONTINUOUS
 10
21.05
 20
15.75
 11
0.964
 21
15.75
  0
LINE
  5
52C
100
AcDbEntity
  8
0
100
AcDbLine
 62
2
  6
CONTINUOUS
 10
11.093603
 20
15.9
 11
10.920397
 21
15.9
  0
LINE
  5
52D
100
AcDbEntity
  8
0
100
AcDbLine
 62
2
  6
CONTINUOUS
 10
18.875
 20
1.0
 11
18.875
 21
0.75
  0
LINE
  5
52E
100
AcDbEntity
  8
0
100
AcDbLine
 62
2
  6
CONTINUOUS
 10
20.25
 20
1.37
 11
20.25
 21
1.0
  0
LINE
  5
52F
100
AcDbEntity
  8
0
100
AcDbLine
 62
2
  6
CONTINUOUS
 10
21.05
 20
0.75
 11
21.05
 21
15.75
  0
LINE
  5
530
100
AcDbEntity
  8
0
100
AcDbLine
 62
2
  6
CONTINUOUS
 10
21.2
 20
8.163397
 11
21.2
 21
8.336603
  0
LINE
  5
531
100
AcDbEntity
  8
NOTES
100
AcDbLine
 62
2
  6
CONTINUOUS
 10
8.3302562256
 20
7.937696167
 11
8.3302562256
 21
7.8335298462
  0
LWPOLYLINE
  5
532
100
AcDbEntity
  8
NOTES
100
AcDbPolyline
 62
2
  6
CONTINUOUS
 90
3
 70
0
 10
8.2927559204
 20
7.8960299072
 10
8.3302562256
 20
7.8335298462
 10
8.3677565308
 20
7.8960299072
  0
LINE
  5
533
100
AcDbEntity
  8
0
100
AcDbLine
 62
7
  6
CONTINUOUS
 10
9.443173223
 20
6.1705301222
 11
9.443173223
 21
7.863443508
  0
LINE
  5
534
100
AcDbEntity
  8
0
100
AcDbLine
 62
7
  6
CONTINUOUS
 10
9.4628582623
 20
6.1508450828
 11
9.4628582623
 21
7.8831285474
  0
LINE
  5
535
100
AcDbEntity
  8
0
100
AcDbLine
 62
7
  6
CONTINUOUS
 10
9.443173175
 20
7.8634435559
 11
9.4628582133
 21
7.8831285964
  0
LINE
  5
536
100
AcDbEntity
  8
0
100
AcDbLine
 62
7
  6
CONTINUOUS
 10
9.4431731751
 20
6.1705300743
 11
9.4628582133
 21
6.1508450338
  0
LINE
  5
537
100
AcDbEntity
  8
0
100
AcDbLine
 62
7
  6
CONTINUOUS
 10
9.6006535379
 20
7.8831285474
 11
9.6006535379
 21
6.1508450828
  0
LINE
  5
538
100
AcDbEntity
  8
0
100
AcDbLine
 62
7
  6
CONTINUOUS
 10
9.6203385773
 20
7.863443508
 11
9.6203385773
 21
6.1705301222
  0
LINE
  5
539
100
AcDbEntity
  8
AXIS
100
AcDbLine
 62
7
  6
CONTINUOUS
 10
9.6322992072
 20
6.2154868151
 11
9.6322992072
 21
7.8184868151
  0
LINE
  5
53A
100
AcDbEntity
  8
0
100
AcDbLine
 62
7
  6
CONTINUOUS
 10
9.7814985258
 20
6.0229604631
 11
9.7839188567
 21
6.02094522
  0
LINE
  5
53B
100
AcDbEntity
  8
02___PRT_ALL_AXES
100
AcDbLine
 62
7
  6
CONTINUOUS
 10
9.7352992072
 20
7.8795852403
 11
9.7352992072
 21
6.1543883899
  0
LINE
  5
53C
100
AcDbEntity
  8
0
100
AcDbLine
 62
7
  6
CONTINUOUS
 10
9.774669286
 20
7.9960982426
 11
9.774669286
 21
6.0378753876
  0
LINE
  5
53D
100
AcDbEntity
  8
0
100
AcDbLine
 62
9
  6
CONTINUOUS
 10
9.7814985236
 20
8.0110131653
 11
9.7814985236
 21
6.0229604649
  0
LWPOLYLINE
  5
53E
100
AcDbEntity
  8
02___PRT_ALL_AXES
100
AcDbPolyline
 62
7
  6
CONTINUOUS
 90
12
 70
0
 10
9.8170541504
 20
7.016981843
 10
9.8183739517
 20
7.0493576897
 10
9.822304617
 20
7.080113714
 10
9.8287663501
 20
7.1085800314
 10
9.8376665825
 20
7.1340758999
 10
9.8485494669
 20
7.1556103591
 10
9.8608968058
 20
7.1730210369
 10
9.8749830714
 20
7.1872450029
 10
9.8917352891
 20
7.1989461036
 10
9.9108800066
 20
7.2074556089
 10
9.9313009199
 20
7.2123277122
 10
9.9518346403
 20
7.2138324404
  0
LINE
  5
53F
100
AcDbEntity
  8
02___PRT_ALL_AXES
100
AcDbLine
 62
9
  6
CONTINUOUS
 10
9.9518346403
 20
8.050451382
 11
9.9518346403
 21
7.2138276721
  0
LINE
  5
540
100
AcDbEntity
  8
02___PRT_ALL_AXES
100
AcDbLine
 62
9
  6
CONTINUOUS
 10
9.9518346403
 20
6.8201459502
 11
9.9518346403
 21
6.0209447625
  0
LINE
  5
541
100
AcDbEntity
  8
02___PRT_ALL_AXES
100
AcDbLine
 62
7
  6
CENTER
 10
10.022700782
 20
7.0169868151
 11
10.022700782
 21
6.7638818441
  0
LINE
  5
542
100
AcDbEntity
  8
02___PRT_ALL_AXES
100
AcDbLine
 62
7
  6
CENTER
 10
10.022700782
 20
7.0169868151
 11
10.022700782
 21
7.2700917862
  0
LINE
  5
543
100
AcDbEntity
  8
02___PRT_ALL_AXES
100
AcDbLine
 62
7
  6
CONTINUOUS
 10
10.180181097
 20
8.050451382
 11
10.180181097
 21
6.02094522
  0
LINE
  5
544
100
AcDbEntity
  8
02___PRT_ALL_AXES
100
AcDbLine
 62
7
  6
CONTINUOUS
 10
9.7839198032
 20
6.02094522
 11
12.8225052112
 21
6.02094522
  0
LINE
  5
545
100
AcDbEntity
  8
02___PRT_ALL_AXES
100
AcDbLine
 62
7
  6
CONTINUOUS
 10
9.6006535379
 20
6.1508450828
 11
9.4628582623
 21
6.1508450828
  0
LINE
  5
546
100
AcDbEntity
  8
02___PRT_ALL_AXES
100
AcDbLine
 62
7
  6
CONTINUOUS
 10
9.7352992072
 20
6.1543883899
 11
9.774669286
 21
6.1543883899
  0
LINE
  5
547
100
AcDbEntity
  8
02___PRT_ALL_AXES
100
AcDbLine
 62
7
  6
CONTINUOUS
 10
9.6322992072
 20
6.2364750041
 11
9.6203385773
 21
6.2364750041
  0
LINE
  5
548
100
AcDbEntity
  8
0
100
AcDbLine
 62
7
  6
CONTINUOUS
 10
9.6203386252
 20
6.1705300743
 11
9.600653587
 21
6.1508450338
  0
LINE
  5
549
100
AcDbEntity
  8
0
100
AcDbLine
 62
7
  6
CONTINUOUS
 10
9.6203386252
 20
7.8634435559
 11
9.600653587
 21
7.8831285964
  0
LINE
  5
54A
100
AcDbEntity
  8
0
100
AcDbLine
 62
6
  6
CONTINUOUS
 10
12.9498661364
 20
6.6394850678
 11
12.8514409395
 21
6.6394850678
  0
LINE
  5
54B
100
AcDbEntity
  8
0
100
AcDbLine
 62
7
  6
CONTINUOUS
 10
12.8514409395
 20
6.6429710671
 11
12.9892362151
 21
6.6429710671
  0
LINE
  5
54C
100
AcDbEntity
  8
0
100
AcDbLine
 62
6
  6
CONTINUOUS
 10
12.8514409395
 20
6.6467870313
 11
12.9498661364
 21
6.6467870313
  0
LINE
  5
54D
100
AcDbEntity
  8
0
100
AcDbLine
 62
6
  6
CONTINUOUS
 10
13.0612834592
 20
6.7177742167
 11
13.0482910665
 21
6.7177742167
  0
LINE
  5
54E
100
AcDbEntity
  8
AXIS
100
AcDbLine
 62
7
  6
CONTINUOUS
 10
13.0482910665
 20
6.7177742167
 11
13.0612834592
 21
6.7177742167
  0
LINE
  5
54F
100
AcDbEntity
  8
0
100
AcDbLine
 62
7
  6
CONTINUOUS
 10
12.9695511757
 20
6.7235158129
 11
12.8514409395
 21
6.7235158129
  0
LINE
  5
550
100
AcDbEntity
  8
0
100
AcDbLine
 62
6
  6
CONTINUOUS
 10
12.9498661364
 20
6.7314394766
 11
12.8514409395
 21
6.7314394766
  0
LINE
  5
551
100
AcDbEntity
  8
0
100
AcDbLine
 62
6
  6
CONTINUOUS
 10
13.0482910665
 20
6.7512387836
 11
13.1073464513
 21
6.7512387836
  0
LWPOLYLINE
  5
552
100
AcDbEntity
  8
02___PRT_ALL_AXES
100
AcDbPolyline
 62
7
  6
CONTINUOUS
 90
10
 70
0
 10
9.951838411
 20
6.8201459501
 10
9.9255010295
 20
6.8226524834
 10
9.9018876163
 20
6.8299690722
 10
9.8805703171
 20
6.8422923803
 10
9.8613421036
 20
6.860423926
 10
9.8450487578
 20
6.8844946877
 10
9.8322068505
 20
6.9143136284
 10
9.8234195459
 20
6.9478441117
 10
9.8185372937
 20
6.9827169225
 10
9.8170541504
 20
7.016981843
  0
LINE
  5
553
100
AcDbEntity
  8
0
100
AcDbLine
 62
7
  6
CONTINUOUS
 10
13.4207322781
 20
6.7807663427
 11
13.1270314907
 21
6.7807663427
  0
LINE
  5
554
100
AcDbEntity
  8
0
100
AcDbLine
 62
6
  6
CONTINUOUS
 10
13.4404173175
 20
6.7807663427
 11
13.4207322781
 21
6.7807663427
  0
LINE
  5
555
100
AcDbEntity
  8
0
100
AcDbLine
 62
7
  6
CONTINUOUS
 10
13.4813621993
 20
6.8102939017
 11
13.46167716
 21
6.8102939017
  0
LINE
  5
556
100
AcDbEntity
  8
0
100
AcDbLine
 62
6
  6
CONTINUOUS
 10
13.5010472387
 20
6.8102939017
 11
13.4813621993
 21
6.8102939017
  0
LINE
  5
557
100
AcDbEntity
  8
02___PRT_ALL_AXES
100
AcDbLine
 62
7
  6
CONTINUOUS
 10
9.951838411
 20
6.8201459501
 11
10.180181097
 21
6.8201364214
  0
LINE
  5
558
100
AcDbEntity
  8
02___PRT_ALL_AXES
100
AcDbLine
 62
7
  6
CONTINUOUS
 10
12.4774251915
 20
6.8201364214
 11
12.6545905458
 21
6.8201412008
  0
LINE
  5
559
100
AcDbEntity
  8
02___PRT_ALL_AXES
100
AcDbLine
 62
7
  6
CONTINUOUS
 10
12.4774251915
 20
6.8201364214
 11
10.180181097
 21
6.8201364214
  0
LINE
  5
55A
100
AcDbEntity
  8
0
100
AcDbLine
 62
9
  6
CONTINUOUS
 10
9.7814985058
 20
7.0169897062
 11
9.774669286
 21
7.0169868533
  0
LINE
  5
55B
100
AcDbEntity
  8
0
100
AcDbLine
 62
7
  6
CONTINUOUS
 10
12.8514409395
 20
6.9364420693
 11
12.9695511757
 21
6.9364420693
  0
LINE
  5
55C
100
AcDbEntity
  8
0
100
AcDbLine
 62
6
  6
CONTINUOUS
 10
12.8514409395
 20
6.9479227907
 11
12.9498661364
 21
6.9479227907
  0
LINE
  5
55D
100
AcDbEntity
  8
0
100
AcDbLine
 62
9
  6
CONTINUOUS
 10
9.8170539351
 20
7.0169868159
 11
9.7814984603
 21
7.0169868161
  0
LINE
  5
55E
100
AcDbEntity
  8
02___PRT_ALL_AXES
100
AcDbLine
 62
7
  6
CENTER
 10
12.6349055064
 20
7.0169868151
 11
12.3253713663
 21
7.0169868151
  0
LINE
  5
55F
100
AcDbEntity
  8
02___PRT_ALL_AXES
100
AcDbLine
 62
7
  6
CENTER
 10
10.022700782
 20
7.0169868151
 11
9.769595811
 21
7.0169868151
  0
LINE
  5
560
100
AcDbEntity
  8
02___PRT_ALL_AXES
100
AcDbLine
 62
7
  6
CENTER
 10
9.3056821609
 20
7.0169868151
 11
9.6485126531
 21
7.0169868151
  0
LINE
  5
561
100
AcDbEntity
  8
02___PRT_ALL_AXES
100
AcDbLine
 62
7
  6
CENTER
 10
10.022700782
 20
7.0169868151
 11
10.2758057531
 21
7.0169868151
  0
LINE
  5
562
100
AcDbEntity
  8
02___PRT_ALL_AXES
100
AcDbLine
 62
7
  6
CENTER
 10
10.3913662194
 20
7.0169868151
 11
12.2426965915
 21
7.0169868151
  0
LINE
  5
563
100
AcDbEntity
  8
02___PRT_ALL_AXES
100
AcDbLine
 62
7
  6
CENTER
 10
12.6349055064
 20
7.0169868151
 11
12.7893710287
 21
7.0169868167
  0
LINE
  5
564
100
AcDbEntity
  8
02___PRT_ALL_AXES
100
AcDbLine
 62
7
  6
CENTER
 10
12.8514409395
 20
7.0169868163
 11
12.9341218339
 21
7.0169868151
  0
LINE
  5
565
100
AcDbEntity
  8
02___PRT_ALL_AXES
100
AcDbLine
 62
7
  6
CENTER
 10
12.9341218339
 20
7.0169868151
 11
13.6484041091
 21
7.0169868151
  0
LINE
  5
566
100
AcDbEntity
  8
02___PRT_ALL_AXES
100
AcDbLine
 62
9
  6
CONTINUOUS
 10
12.8514409395
 20
7.0169868163
 11
12.7893710287
 21
7.0169868167
  0
LINE
  5
567
100
AcDbEntity
  8
0
100
AcDbLine
 62
9
  6
CONTINUOUS
 10
13.1073464513
 20
7.0169868151
 11
13.1270314907
 21
7.0169868144
  0
LINE
  5
568
100
AcDbEntity
  8
0
100
AcDbLine
 62
6
  6
CONTINUOUS
 10
13.0612834592
 20
7.0396533758
 11
13.0482910665
 21
7.0396533758
  0
LINE
  5
569
100
AcDbEntity
  8
0
100
AcDbLine
 62
7
  6
CONTINUOUS
 10
12.9695511757
 20
7.0975315609
 11
12.8514409395
 21
7.0975315609
  0
LINE
  5
56A
100
AcDbEntity
  8
0
100
AcDbLine
 62
7
  6
CONTINUOUS
 10
13.0482910665
 20
7.1060466893
 11
13.0612834592
 21
7.1060466893
  0
LINE
  5
56B
100
AcDbEntity
  8
0
100
AcDbLine
 62
6
  6
CONTINUOUS
 10
12.9498661364
 20
7.1089412239
 11
12.8514409395
 21
7.1089412239
  0
LINE
  5
56C
100
AcDbEntity
  8
02___PRT_ALL_AXES
100
AcDbLine
 62
7
  6
CONTINUOUS
 10
12.4774251915
 20
7.2138372088
 11
10.180181097
 21
7.2138372088
  0
LINE
  5
56D
100
AcDbEntity
  8
02___PRT_ALL_AXES
100
AcDbLine
 62
7
  6
CONTINUOUS
 10
9.9518346403
 20
7.2138324404
 11
10.180181097
 21
7.2138372088
  0
LINE
  5
56E
100
AcDbEntity
  8
0
100
AcDbLine
 62
7
  6
CONTINUOUS
 10
13.4813621993
 20
7.2236797285
 11
13.46167716
 21
7.2236797285
  0
LINE
  5
56F
100
AcDbEntity
  8
0
100
AcDbLine
 62
6
  6
CONTINUOUS
 10
13.5010472387
 20
7.2236797285
 11
13.4813621993
 21
7.2236797285
  0
LINE
  5
570
100
AcDbEntity
  8
0
100
AcDbLine
 62
7
  6
CONTINUOUS
 10
13.4207322781
 20
7.2532072875
 11
13.1270314907
 21
7.2532072875
  0
LINE
  5
571
100
AcDbEntity
  8
0
100
AcDbLine
 62
6
  6
CONTINUOUS
 10
13.4404173175
 20
7.2532072875
 11
13.4207322781
 21
7.2532072875
  0
LINE
  5
572
100
AcDbEntity
  8
0
100
AcDbLine
 62
6
  6
CONTINUOUS
 10
13.0482910665
 20
7.2736211634
 11
13.0612834592
 21
7.2736211634
  0
LINE
  5
573
100
AcDbEntity
  8
0
100
AcDbLine
 62
6
  6
CONTINUOUS
 10
13.0482910665
 20
7.2827348466
 11
13.1073464513
 21
7.2827348466
  0
LINE
  5
574
100
AcDbEntity
  8
0
100
AcDbLine
 62
7
  6
CONTINUOUS
 10
13.0482910665
 20
7.3026378572
 11
13.0612834592
 21
7.3026378572
  0
LINE
  5
575
100
AcDbEntity
  8
0
100
AcDbLine
 62
7
  6
CONTINUOUS
 10
12.8514409395
 20
7.3104578173
 11
12.9695511757
 21
7.3104578173
  0
LINE
  5
576
100
AcDbEntity
  8
0
100
AcDbLine
 62
6
  6
CONTINUOUS
 10
13.0612834592
 20
7.3161994135
 11
13.0482910665
 21
7.3161994135
  0
LINE
  5
577
100
AcDbEntity
  8
AXIS
100
AcDbLine
 62
7
  6
CONTINUOUS
 10
13.0482910665
 20
7.3161994135
 11
13.0612834592
 21
7.3161994135
  0
LINE
  5
578
100
AcDbEntity
  8
0
100
AcDbLine
 62
6
  6
CONTINUOUS
 10
12.8514409395
 20
7.3181225745
 11
12.9498661364
 21
7.3181225745
  0
LINE
  5
579
100
AcDbEntity
  8
02___PRT_ALL_AXES
100
AcDbLine
 62
7
  6
CONTINUOUS
 10
12.4774251915
 20
7.2138372088
 11
12.6545905458
 21
7.2138275189
  0
LWPOLYLINE
  5
57A
100
AcDbEntity
  8
02___PRT_ALL_AXES
100
AcDbPolyline
 62
7
  6
CONTINUOUS
 90
12
 70
0
 10
12.6545905458
 20
7.2138275189
 10
12.6743959465
 20
7.2124346778
 10
12.6939297878
 20
7.207983616
 10
12.7123570607
 20
7.2002277847
 10
12.7288096319
 20
7.1894082952
 10
12.7432365549
 20
7.1756802316
 10
12.7559758278
 20
7.1586825503
 10
12.7669900898
 20
7.1381243682
 10
12.7761950085
 20
7.1135271573
 10
12.7832473915
 20
7.0848777802
 10
12.7877624331
 20
7.0526451755
 10
12.7893720143
 20
7.0170086085
  0
LINE
  5
57B
100
AcDbEntity
  8
0
100
AcDbLine
 62
7
  6
CONTINUOUS
 10
12.9892367813
 20
7.3910025631
 11
12.8514409395
 21
7.3910025631
  0
LINE
  5
57C
100
AcDbEntity
  8
0
100
AcDbLine
 62
6
  6
CONTINUOUS
 10
12.9498661364
 20
7.3944885624
 11
12.8514409395
 21
7.3944885624
  0
LINE
  5
57D
100
AcDbEntity
  8
02___PRT_ALL_AXES
100
AcDbLine
 62
7
  6
CONTINUOUS
 10
9.6322992072
 20
7.7974986261
 11
9.6203385773
 21
7.7974986261
  0
LINE
  5
57E
100
AcDbEntity
  8
02___PRT_ALL_AXES
100
AcDbLine
 62
7
  6
CONTINUOUS
 10
9.7352992072
 20
7.8795852403
 11
9.774669286
 21
7.8795852403
  0
LINE
  5
57F
100
AcDbEntity
  8
02___PRT_ALL_AXES
100
AcDbLine
 62
7
  6
CONTINUOUS
 10
9.6006535379
 20
7.8831285474
 11
9.4628582623
 21
7.8831285474
  0
LINE
  5
580
100
AcDbEntity
  8
NOTES
100
AcDbLine
 62
2
  6
CONTINUOUS
 10
8.2760894165
 20
7.937696167
 11
8.3844230347
 21
7.937696167
  0
LWPOLYLINE
  5
581
100
AcDbEntity
  8
0
100
AcDbPolyline
 62
6
  6
CONTINUOUS
 90
4
 70
0
 10
12.9693880379
 20
7.3911682032
 10
12.9674145494
 20
7.3920267406
 10
12.9609287218
 20
7.3932364424
 10
12.9498661364
 20
7.3944885624
  0
LINE
  5
582
100
AcDbEntity
  8
02___PRT_ALL_AXES
100
AcDbLine
 62
7
  6
CONTINUOUS
 10
12.4774251915
 20
8.050451382
 11
12.4774251915
 21
6.02094522
  0
LWPOLYLINE
  5
583
100
AcDbEntity
  8
0
100
AcDbPolyline
 62
6
  6
CONTINUOUS
 90
4
 70
0
 10
12.9693880379
 20
6.642805427
 10
12.9674145494
 20
6.6419468896
 10
12.9609287218
 20
6.6407371878
 10
12.9498661364
 20
6.6394850678
  0
LWPOLYLINE
  5
584
100
AcDbEntity
  8
0
100
AcDbPolyline
 62
7
  6
CONTINUOUS
 90
7
 70
0
 10
9.9518346403
 20
8.0504504236
 10
9.9208824816
 20
8.0497889563
 10
9.8863988587
 20
8.0471564084
 10
9.8545544291
 20
8.0422416775
 10
9.8255104825
 20
8.0345887644
 10
9.7997384698
 20
8.0235091356
 10
9.7814985258
 20
8.0110131671
  0
LINE
  5
585
100
AcDbEntity
  8
02___PRT_ALL_AXES
100
AcDbLine
 62
7
  6
CONTINUOUS
 10
9.9518346403
 20
8.050451382
 11
12.6545905458
 21
8.050451382
  0
LINE
  5
586
100
AcDbEntity
  8
02___PRT_ALL_AXES
100
AcDbLine
 62
7
  6
CENTER
 10
12.6349055064
 20
7.0169868151
 11
12.6349055064
 21
6.707452675
  0
LINE
  5
587
100
AcDbEntity
  8
02___PRT_ALL_AXES
100
AcDbLine
 62
7
  6
CENTER
 10
12.6349055064
 20
7.0169868151
 11
12.6349055064
 21
7.3265209552
  0
LINE
  5
588
100
AcDbEntity
  8
02___PRT_ALL_AXES
100
AcDbLine
 62
9
  6
CONTINUOUS
 10
12.6545905458
 20
8.050451382
 11
12.6545905458
 21
7.2138276979
  0
LINE
  5
589
100
AcDbEntity
  8
02___PRT_ALL_AXES
100
AcDbLine
 62
9
  6
CONTINUOUS
 10
12.6545905458
 20
6.8201459802
 11
12.6545905458
 21
6.0209447596
  0
LINE
  5
58A
100
AcDbEntity
  8
0
100
AcDbLine
 62
7
  6
CONTINUOUS
 10
12.8514409395
 20
7.95201856
 11
12.8514409395
 21
6.0819550702
  0
LWPOLYLINE
  5
58B
100
AcDbEntity
  8
02___PRT_ALL_AXES
100
AcDbPolyline
 62
7
  6
CONTINUOUS
 90
12
 70
0
 10
12.7893720143
 20
7.0170086085
 10
12.7877545872
 20
6.9812468566
 10
12.7832271438
 20
6.9489871487
 10
12.7761648912
 20
6.9203454394
 10
12.7669541614
 20
6.8957672326
 10
12.7559332279
 20
6.875222445
 10
12.7431834801
 20
6.8582325921
 10
12.7287477966
 20
6.8445155855
 10
12.7122964843
 20
6.8337133258
 10
12.6938852125
 20
6.8259757874
 10
12.6743758845
 20
6.8215361362
 10
12.6545905458
 20
6.8201412008
  0
LWPOLYLINE
  5
58C
100
AcDbEntity
  8
0
100
AcDbPolyline
 62
7
  6
CONTINUOUS
 90
4
 70
0
 10
13.0612834592
 20
7.1060466893
 10
13.072282756
 20
7.1241463513
 10
13.0810188051
 20
7.1414797278
 10
13.0876614119
 20
7.158328099
  0
LINE
  5
58D
100
AcDbEntity
  8
0
100
AcDbLine
 62
6
  6
CONTINUOUS
 10
12.9695511757
 20
6.6429710671
 11
12.9689562243
 21
6.6423761156
  0
LINE
  5
58E
100
AcDbEntity
  8
0
100
AcDbLine
 62
7
  6
CONTINUOUS
 10
13.0876614119
 20
6.7441521694
 11
13.0612834592
 21
6.7177742167
  0
LINE
  5
58F
100
AcDbEntity
  8
0
100
AcDbLine
 62
7
  6
CONTINUOUS
 10
13.0425272869
 20
6.6962621389
 11
12.9892362151
 21
6.6429710671
  0
LINE
  5
590
100
AcDbEntity
  8
0
100
AcDbLine
 62
6
  6
CONTINUOUS
 10
12.9695511757
 20
7.3910025631
 11
12.9689562243
 21
7.3915975146
  0
LINE
  5
591
100
AcDbEntity
  8
0
100
AcDbLine
 62
7
  6
CONTINUOUS
 10
13.0876614119
 20
7.2898214608
 11
13.0612834592
 21
7.3161994135
  0
LINE
  5
592
100
AcDbEntity
  8
0
100
AcDbLine
 62
7
  6
CONTINUOUS
 10
13.0425272869
 20
7.3377114913
 11
12.9892364982
 21
7.39100228
  0
LINE
  5
593
100
AcDbEntity
  8
0
100
AcDbLine
 62
6
  6
CONTINUOUS
 10
12.9498661364
 20
7.3944885624
 11
12.9498661364
 21
7.3181225745
  0
LINE
  5
594
100
AcDbEntity
  8
0
100
AcDbLine
 62
6
  6
CONTINUOUS
 10
12.9498661364
 20
7.1089412239
 11
12.9498661364
 21
6.9479227907
  0
LINE
  5
595
100
AcDbEntity
  8
0
100
AcDbLine
 62
6
  6
CONTINUOUS
 10
12.9498661364
 20
6.7314394766
 11
12.9498661364
 21
6.6467870313
  0
LINE
  5
596
100
AcDbEntity
  8
0
100
AcDbLine
 62
7
  6
CONTINUOUS
 10
12.9695511757
 20
7.3910025631
 11
12.9695511757
 21
7.3104578173
  0
LINE
  5
597
100
AcDbEntity
  8
0
100
AcDbLine
 62
7
  6
CONTINUOUS
 10
12.9695511757
 20
7.0975315609
 11
12.9695511757
 21
6.9364420693
  0
LINE
  5
598
100
AcDbEntity
  8
0
100
AcDbLine
 62
7
  6
CONTINUOUS
 10
12.9695511757
 20
6.7235158129
 11
12.9695511757
 21
6.6429710671
  0
LWPOLYLINE
  5
599
100
AcDbEntity
  8
0
100
AcDbPolyline
 62
6
  6
CONTINUOUS
 90
7
 70
0
 10
12.9498661364
 20
7.3181225745
 10
12.9609287218
 20
7.2822527501
 10
12.9674145494
 20
7.247598091
 10
12.9695517419
 20
7.2135318992
 10
12.9674145494
 20
7.1794657075
 10
12.9609287218
 20
7.1448110483
 10
12.9498661364
 20
7.1089412239
  0
LWPOLYLINE
  5
59A
100
AcDbEntity
  8
0
100
AcDbPolyline
 62
7
  6
CONTINUOUS
 90
7
 70
0
 10
12.9695511757
 20
6.9364420693
 10
12.9806137611
 20
6.8999300791
 10
12.9870995888
 20
6.8646550088
 10
12.9892367813
 20
6.8299789411
 10
12.9870995888
 20
6.7953028734
 10
12.9806137611
 20
6.7600278031
 10
12.9695511757
 20
6.7235158129
  0
LWPOLYLINE
  5
59B
100
AcDbEntity
  8
0
100
AcDbPolyline
 62
7
  6
CONTINUOUS
 90
7
 70
0
 10
12.9695511757
 20
7.3104578173
 10
12.9806137611
 20
7.2739458271
 10
12.9870995888
 20
7.2386707568
 10
12.9892367813
 20
7.2039946891
 10
12.9870995888
 20
7.1693186214
 10
12.9806137611
 20
7.1340435511
 10
12.9695511757
 20
7.0975315609
  0
LWPOLYLINE
  5
59C
100
AcDbEntity
  8
0
100
AcDbPolyline
 62
6
  6
CONTINUOUS
 90
7
 70
0
 10
12.9498661364
 20
6.9479227907
 10
12.9609287218
 20
6.9108008463
 10
12.9674145494
 20
6.8749364854
 10
12.9695517419
 20
6.8396811337
 10
12.9674145494
 20
6.804425782
 10
12.9609287218
 20
6.768561421
 10
12.9498661364
 20
6.7314394766
  0
LWPOLYLINE
  5
59D
100
AcDbEntity
  8
0
100
AcDbPolyline
 62
7
  6
CONTINUOUS
 90
11
 70
0
 10
12.8514409395
 20
7.9520253162
 10
12.8492386959
 20
7.9717451394
 10
12.8417970358
 20
7.9907740324
 10
12.8286673376
 20
8.0075936165
 10
12.8107488072
 20
8.0211792543
 10
12.7891923397
 20
8.0315971997
 10
12.7650568068
 20
8.0392354331
 10
12.7387561836
 20
8.0446192096
 10
12.7105089294
 20
8.0481200866
 10
12.6804044816
 20
8.0499970343
 10
12.6545905458
 20
8.0504504216
  0
LINE
  5
59E
100
AcDbEntity
  8
0
100
AcDbLine
 62
9
  6
CONTINUOUS
 10
13.0425272869
 20
7.3377114913
 11
13.0425272869
 21
6.6962621389
  0
LINE
  5
59F
100
AcDbEntity
  8
0
100
AcDbLine
 62
7
  6
CONTINUOUS
 10
13.0482910665
 20
7.3237935814
 11
13.0482910665
 21
6.7101800491
  0
LINE
  5
5A0
100
AcDbEntity
  8
0
100
AcDbLine
 62
7
  6
CONTINUOUS
 10
13.0612834592
 20
7.3161994135
 11
13.0612834592
 21
7.3026378572
  0
LINE
  5
5A1
100
AcDbEntity
  8
0
100
AcDbLine
 62
6
  6
CONTINUOUS
 10
13.0612834592
 20
7.3026378572
 11
13.0612834592
 21
7.2736211634
  0
LINE
  5
5A2
100
AcDbEntity
  8
0
100
AcDbLine
 62
7
  6
CONTINUOUS
 10
13.0612834592
 20
6.7177742167
 11
13.0612834592
 21
7.1060466893
  0
LINE
  5
5A3
100
AcDbEntity
  8
0
100
AcDbLine
 62
6
  6
CONTINUOUS
 10
13.0809684986
 20
7.2827348466
 11
13.0809684986
 21
6.7512387836
  0
LINE
  5
5A4
100
AcDbEntity
  8
0
100
AcDbLine
 62
7
  6
CONTINUOUS
 10
13.0876614119
 20
6.7512387836
 11
13.0876614119
 21
6.7441552775
  0
LINE
  5
5A5
100
AcDbEntity
  8
0
100
AcDbLine
 62
7
  6
CONTINUOUS
 10
13.0876614119
 20
7.2827348466
 11
13.0876614119
 21
7.2898183402
  0
LINE
  5
5A6
100
AcDbEntity
  8
0
100
AcDbLine
 62
6
  6
CONTINUOUS
 10
13.1073464513
 20
7.2827348466
 11
13.1073464513
 21
6.7512387836
  0
LINE
  5
5A7
100
AcDbEntity
  8
0
100
AcDbLine
 62
9
  6
CONTINUOUS
 10
13.1270314907
 20
6.7807663427
 11
13.1270314907
 21
7.2532072875
  0
LINE
  5
5A8
100
AcDbEntity
  8
0
100
AcDbLine
 62
6
  6
CONTINUOUS
 10
13.46167716
 20
6.8020261852
 11
13.4404173175
 21
6.7807663427
  0
LWPOLYLINE
  5
5A9
100
AcDbEntity
  8
0
100
AcDbPolyline
 62
7
  6
CONTINUOUS
 90
5
 70
0
 10
12.8225063269
 20
6.02094522
 10
12.8286673376
 20
6.0263800137
 10
12.8417970358
 20
6.0431995979
 10
12.8492386959
 20
6.0622284908
 10
12.8514409395
 20
6.081948314
  0
LINE
  5
5AA
100
AcDbEntity
  8
0
100
AcDbLine
 62
6
  6
CONTINUOUS
 10
13.46167716
 20
7.231947445
 11
13.4404173175
 21
7.2532072875
  0
LWPOLYLINE
  5
5AB
100
AcDbEntity
  8
0
100
AcDbPolyline
 62
7
  6
CONTINUOUS
 90
3
 70
0
 10
13.0731889388
 20
7.2827348466
 10
13.0722465534
 20
7.2846032267
 10
13.0612834592
 20
7.3026378572
  0
LINE
  5
5AC
100
AcDbEntity
  8
0
100
AcDbLine
 62
7
  6
CONTINUOUS
 10
13.4207322781
 20
7.2532072875
 11
13.4207322781
 21
6.7807663427
  0
LINE
  5
5AD
100
AcDbEntity
  8
0
100
AcDbLine
 62
6
  6
CONTINUOUS
 10
13.4404173175
 20
7.2532072875
 11
13.4404173175
 21
6.7807663427
  0
LINE
  5
5AE
100
AcDbEntity
  8
0
100
AcDbLine
 62
6
  6
CONTINUOUS
 10
13.46167716
 20
7.2319471524
 11
13.46167716
 21
6.8020264778
  0
LINE
  5
5AF
100
AcDbEntity
  8
0
100
AcDbLine
 62
7
  6
CONTINUOUS
 10
13.4813621993
 20
7.2236797285
 11
13.4813621993
 21
6.8102939017
  0
LINE
  5
5B0
100
AcDbEntity
  8
0
100
AcDbLine
 62
6
  6
CONTINUOUS
 10
13.5010472387
 20
7.2236771245
 11
13.5010472387
 21
6.8102965057
  0
LINE
  5
5B1
100
AcDbEntity
  8
02___PRT_ALL_AXES
100
AcDbLine
 62
7
  6
CONTINUOUS
 10
15.4273622161
 20
6.8201364214
 11
15.4273622161
 21
7.2138372088
  0
LWPOLYLINE
  5
5B2
100
AcDbEntity
  8
0
100
AcDbPolyline
 62
9
  6
CONTINUOUS
 90
24
 70
0
 10
15.5068665531
 20
7.0169868151
 10
15.515529149
 20
6.8900079736
 10
15.5414827691
 20
6.764921326
 10
15.5841894349
 20
6.6446684648
 10
15.6428932401
 20
6.5313147553
 10
15.7164813235
 20
6.4270226157
 10
15.8035902724
 20
6.3337213141
 10
15.9025936237
 20
6.2531538086
 10
16.0116474197
 20
6.1868204213
 10
16.1287191346
 20
6.1359574975
 10
16.2516272845
 20
6.101512805
 10
16.378081249
 20
6.0841282867
 10
16.5057246906
 20
6.0841278836
 10
16.6321787716
 20
6.1015116044
 10
16.7550871415
 20
6.1359555225
 10
16.8721591763
 20
6.1868177075
 10
16.9812133588
 20
6.2531503848
 10
17.0802172193
 20
6.3337172594
 10
17.1673269236
 20
6.4270182098
 10
17.2409153927
 20
6.5313094873
 10
17.2996201693
 20
6.6446633718
 10
17.3423273231
 20
6.7649149298
 10
17.3682814762
 20
6.8900006175
 10
17.3769452933
 20
7.0169868151
  0
LINE
  5
5B3
100
AcDbEntity
  8
02___PRT_ALL_AXES
100
AcDbLine
 62
7
  6
CONTINUOUS
 10
16.1663170996
 20
6.02094522
 11
16.717495649
 21
6.02094522
  0
LINE
  5
5B4
100
AcDbEntity
  8
0
100
AcDbLine
 62
7
  6
CONTINUOUS
 10
16.1794652997
 20
7.3104578173
 11
16.0565322682
 21
7.0975315609
  0
LINE
  5
5B5
100
AcDbEntity
  8
0
100
AcDbLine
 62
6
  6
CONTINUOUS
 10
16.1207763652
 20
7.2088056009
 11
16.059094355
 21
7.1089412239
  0
LINE
  5
5B6
100
AcDbEntity
  8
0
100
AcDbLine
 62
7
  6
CONTINUOUS
 10
16.0565322682
 20
6.9364420693
 11
16.1794652997
 21
6.7235158129
  0
LINE
  5
5B7
100
AcDbEntity
  8
0
100
AcDbLine
 62
6
  6
CONTINUOUS
 10
16.1152212028
 20
6.8347898528
 11
16.1708652851
 21
6.7314394766
  0
LINE
  5
5B8
100
AcDbEntity
  8
0
100
AcDbLine
 62
7
  6
CONTINUOUS
 10
16.3329430383
 20
7.2827348466
 11
16.352846049
 21
7.3026378572
  0
LINE
  5
5B9
100
AcDbEntity
  8
0
100
AcDbLine
 62
7
  6
CONTINUOUS
 10
16.4182838759
 20
7.1567505946
 11
16.4182838759
 21
7.1781740529
  0
LINE
  5
5BA
100
AcDbEntity
  8
02___PRT_ALL_AXES
100
AcDbLine
 62
7
  6
CENTER
 10
16.4419059232
 20
7.0169868151
 11
16.4419059232
 21
5.8835222482
  0
LINE
  5
5BB
100
AcDbEntity
  8
02___PRT_ALL_AXES
100
AcDbLine
 62
7
  6
CENTER
 10
16.4419059232
 20
7.0169868151
 11
16.4419059232
 21
8.150451382
  0
LINE
  5
5BC
100
AcDbEntity
  8
0
100
AcDbLine
 62
7
  6
CONTINUOUS
 10
16.4655279704
 20
7.178656006
 11
16.4655279704
 21
7.1567505946
  0
LINE
  5
5BD
100
AcDbEntity
  8
0
100
AcDbLine
 62
7
  6
CONTINUOUS
 10
16.3189728917
 20
6.6429710671
 11
16.5648389546
 21
6.6429710671
  0
LINE
  5
5BE
100
AcDbEntity
  8
0
100
AcDbLine
 62
6
  6
CONTINUOUS
 10
16.4363507608
 20
6.6429710671
 11
16.5536768532
 21
6.6394850678
  0
LINE
  5
5BF
100
AcDbEntity
  8
0
100
AcDbLine
 62
6
  6
CONTINUOUS
 10
16.5484027228
 20
7.1105301038
 11
16.5670397135
 21
7.1220413862
  0
LINE
  5
5C0
100
AcDbEntity
  8
0
100
AcDbLine
 62
6
  6
CONTINUOUS
 10
16.591866461
 20
7.081846398
 11
16.5732294703
 21
7.0703351156
  0
LINE
  5
5C1
100
AcDbEntity
  8
0
100
AcDbLine
 62
6
  6
CONTINUOUS
 10
16.5794056061
 20
6.7512387836
 11
16.3044062402
 21
6.7512387836
  0
LINE
  5
5C2
100
AcDbEntity
  8
0
100
AcDbLine
 62
7
  6
CONTINUOUS
 10
16.7043465467
 20
6.7235158129
 11
16.8272795781
 21
6.9364420693
  0
LINE
  5
5C3
100
AcDbEntity
  8
0
100
AcDbLine
 62
6
  6
CONTINUOUS
 10
16.7630354812
 20
6.8251680294
 11
16.8247174913
 21
6.9250324063
  0
LINE
  5
5C4
100
AcDbEntity
  8
0
100
AcDbLine
 62
7
  6
CONTINUOUS
 10
16.550868808
 20
6.7512387836
 11
16.5309657974
 21
6.731335773
  0
LINE
  5
5C5
100
AcDbEntity
  8
0
100
AcDbLine
 62
9
  6
CONTINUOUS
 10
16.1860004114
 20
7.0169868151
 11
16.2056854507
 21
7.0169868144
  0
LINE
  5
5C6
100
AcDbEntity
  8
02___PRT_ALL_AXES
100
AcDbLine
 62
9
  6
CONTINUOUS
 10
17.3769452933
 20
7.0169868139
 11
17.4564496303
 21
7.0169868155
  0
LINE
  5
5C7
100
AcDbEntity
  8
02___PRT_ALL_AXES
100
AcDbLine
 62
9
  6
CONTINUOUS
 10
15.5068665531
 20
7.0169868163
 11
15.4273622161
 21
7.0169868167
  0
LINE
  5
5C8
100
AcDbEntity
  8
0
100
AcDbLine
 62
9
  6
CONTINUOUS
 10
16.697811435
 20
7.0169868151
 11
16.6781263956
 21
7.0169868151
  0
LINE
  5
5C9
100
AcDbEntity
  8
02___PRT_ALL_AXES
100
AcDbLine
 62
7
  6
CENTER
 10
16.4419059232
 20
7.0169868151
 11
15.5068665531
 21
7.0169868163
  0
LINE
  5
5CA
100
AcDbEntity
  8
02___PRT_ALL_AXES
100
AcDbLine
 62
7
  6
CENTER
 10
15.4273622161
 20
7.0169868167
 11
15.3084413562
 21
7.0169868151
  0
LINE
  5
5CB
100
AcDbEntity
  8
02___PRT_ALL_AXES
100
AcDbLine
 62
7
  6
CENTER
 10
16.4419059232
 20
7.0169868151
 11
17.3769452933
 21
7.0169868139
  0
LINE
  5
5CC
100
AcDbEntity
  8
02___PRT_ALL_AXES
100
AcDbLine
 62
7
  6
CENTER
 10
17.4564496303
 20
7.0169868155
 11
17.5753704901
 21
7.0169868151
  0
LINE
  5
5CD
100
AcDbEntity
  8
0
100
AcDbLine
 62
7
  6
CONTINUOUS
 10
16.8272795781
 20
7.0975315609
 11
16.7043465467
 21
7.3104578173
  0
LINE
  5
5CE
100
AcDbEntity
  8
0
100
AcDbLine
 62
6
  6
CONTINUOUS
 10
16.7685906436
 20
7.1991837774
 11
16.7129465613
 21
7.3025341536
  0
LINE
  5
5CF
100
AcDbEntity
  8
0
100
AcDbLine
 62
6
  6
CONTINUOUS
 10
16.3044062402
 20
7.2827348466
 11
16.5794056061
 21
7.2827348466
  0
LWPOLYLINE
  5
5D0
100
AcDbEntity
  8
0
100
AcDbPolyline
 62
9
  6
CONTINUOUS
 90
24
 70
0
 10
17.3769452933
 20
7.0169868151
 10
17.3682826973
 20
7.1439656566
 10
17.3423290773
 20
7.2690523042
 10
17.2996224114
 20
7.3893051654
 10
17.2409186062
 20
7.5026588749
 10
17.1673305229
 20
7.6069510145
 10
17.0802215739
 20
7.7002523161
 10
16.9812182226
 20
7.7808198216
 10
16.8721644267
 20
7.8471532089
 10
16.7550927118
 20
7.8980161327
 10
16.6321845618
 20
7.9324608253
 10
16.5057305974
 20
7.9498453435
 10
16.3780871558
 20
7.9498457466
 10
16.2516330748
 20
7.9324620258
 10
16.1287247048
 20
7.8980181077
 10
16.0116526701
 20
7.8471559227
 10
15.9025984876
 20
7.7808232454
 10
15.8035946271
 20
7.7002563708
 10
15.7164849228
 20
7.6069554204
 10
15.6428964536
 20
7.502664143
 10
15.5841916771
 20
7.3893102584
 10
15.5414845233
 20
7.2690587004
 10
15.5155303701
 20
7.1439730127
 10
15.5068665531
 20
7.0169868151
  0
LINE
  5
5D1
100
AcDbEntity
  8
0
100
AcDbLine
 62
7
  6
CONTINUOUS
 10
16.5648389546
 20
7.3910025631
 11
16.3189728917
 21
7.3910025631
  0
LINE
  5
5D2
100
AcDbEntity
  8
0
100
AcDbLine
 62
6
  6
CONTINUOUS
 10
16.4474610856
 20
7.3910025631
 11
16.3301349931
 21
7.3944885624
  0
LINE
  5
5D3
100
AcDbEntity
  8
02___PRT_ALL_AXES
100
AcDbLine
 62
7
  6
CONTINUOUS
 10
17.4564496303
 20
6.8201364214
 11
17.4564496303
 21
7.2138372088
  0
LINE
  5
5D4
100
AcDbEntity
  8
0
100
AcDbLine
 62
7
  6
CONTINUOUS
 10
9.4431731745
 20
9.3271408941
 11
9.4628582139
 21
9.3074558524
  0
LWPOLYLINE
  5
5D5
100
AcDbEntity
  8
0
100
AcDbPolyline
 62
7
  6
CONTINUOUS
 90
3
 70
0
 10
9.8035772957
 20
9.1650489993
 10
9.7916924787
 20
9.1719042321
 10
9.7814984603
 20
9.179568343
  0
LINE
  5
5D6
100
AcDbEntity
  8
0
100
AcDbLine
 62
7
  6
CONTINUOUS
 10
9.7814984401
 20
9.1795682874
 11
9.7997384517
 21
9.1670722165
  0
LINE
  5
5D7
100
AcDbEntity
  8
0
100
AcDbLine
 62
7
  6
CONTINUOUS
 10
9.443173223
 20
9.3271409426
 11
9.443173223
 21
11.0200543261
  0
LINE
  5
5D8
100
AcDbEntity
  8
0
100
AcDbLine
 62
7
  6
CONTINUOUS
 10
9.4628582635
 20
9.3074559021
 11
9.4628582635
 21
11.0397393666
  0
LINE
  5
5D9
100
AcDbEntity
  8
0
100
AcDbLine
 62
7
  6
CONTINUOUS
 10
9.8170539351
 20
9.1590539273
 11
9.8035772957
 21
9.1650489993
  0
LINE
  5
5DA
100
AcDbEntity
  8
0
100
AcDbLine
 62
7
  6
CONTINUOUS
 10
9.7997384517
 20
9.1670722165
 11
9.8170537445
 21
9.1590539273
  0
LINE
  5
5DB
100
AcDbEntity
  8
0
100
AcDbLine
 62
7
  6
CONTINUOUS
 10
9.6006535368
 20
11.0397393666
 11
9.6006535368
 21
9.3074559021
  0
LINE
  5
5DC
100
AcDbEntity
  8
0
100
AcDbLine
 62
7
  6
CONTINUOUS
 10
9.6203385773
 20
11.0200543261
 11
9.6203385773
 21
9.3271409426
  0
LINE
  5
5DD
100
AcDbEntity
  8
AXIS
100
AcDbLine
 62
7
  6
CONTINUOUS
 10
9.6322992072
 20
9.3720976343
 11
9.6322992072
 21
10.9750976343
  0
LINE
  5
5DE
100
AcDbEntity
  8
02___PRT_ALL_AXES
100
AcDbLine
 62
7
  6
CONTINUOUS
 10
9.7352992072
 20
11.0361960595
 11
9.7352992072
 21
9.3109992092
  0
LINE
  5
5DF
100
AcDbEntity
  8
0
100
AcDbLine
 62
7
  6
CONTINUOUS
 10
9.774669286
 20
11.1527194477
 11
9.774669286
 21
9.194475823
  0
LINE
  5
5E0
100
AcDbEntity
  8
0
100
AcDbLine
 62
9
  6
CONTINUOUS
 10
9.781498461
 20
11.1676269993
 11
9.7814985486
 21
9.1795683518
  0
LINE
  5
5E1
100
AcDbEntity
  8
0
100
AcDbLine
 62
7
  6
CONTINUOUS
 10
9.4431731745
 20
11.0200543746
 11
9.4628582139
 21
11.0397394163
  0
LINE
  5
5E2
100
AcDbEntity
  8
02___PRT_ALL_AXES
100
AcDbLine
 62
7
  6
CONTINUOUS
 10
9.8170519351
 20
9.1590539273
 11
12.7893704446
 21
9.1590539273
  0
LINE
  5
5E3
100
AcDbEntity
  8
02___PRT_ALL_AXES
100
AcDbLine
 62
9
  6
CONTINUOUS
 10
9.9518346403
 20
11.1881431903
 11
9.9518346403
 21
9.1590520769
  0
LINE
  5
5E4
100
AcDbEntity
  8
0
100
AcDbLine
 62
7
  6
CONTINUOUS
 10
9.7997384517
 20
11.1801230522
 11
9.7814984401
 21
11.1676269813
  0
LINE
  5
5E5
100
AcDbEntity
  8
02___PRT_ALL_AXES
100
AcDbLine
 62
7
  6
CONTINUOUS
 10
9.6006535368
 20
9.3074559021
 11
9.4628582635
 21
9.3074559021
  0
LINE
  5
5E6
100
AcDbEntity
  8
02___PRT_ALL_AXES
100
AcDbLine
 62
7
  6
CONTINUOUS
 10
9.7352992072
 20
9.3109992092
 11
9.774669286
 21
9.3109992092
  0
LINE
  5
5E7
100
AcDbEntity
  8
02___PRT_ALL_AXES
100
AcDbLine
 62
7
  6
CONTINUOUS
 10
10.180181097
 20
11.1881413414
 11
10.180181097
 21
9.1590539273
  0
LWPOLYLINE
  5
5E8
100
AcDbEntity
  8
0
100
AcDbPolyline
 62
7
  6
CONTINUOUS
 90
3
 70
0
 10
9.8035772957
 20
11.1821462694
 10
9.7916924787
 20
11.1752910366
 10
9.7814984603
 20
11.1676269257
  0
LINE
  5
5E9
100
AcDbEntity
  8
02___PRT_ALL_AXES
100
AcDbLine
 62
7
  6
CONTINUOUS
 10
9.6322992072
 20
9.3930858233
 11
9.6203385773
 21
9.3930858233
  0
LINE
  5
5EA
100
AcDbEntity
  8
0
100
AcDbLine
 62
7
  6
CONTINUOUS
 10
9.8170537445
 20
11.1881413414
 11
9.7997384517
 21
11.1801230522
  0
LINE
  5
5EB
100
AcDbEntity
  8
0
100
AcDbLine
 62
7
  6
CONTINUOUS
 10
9.8170539351
 20
11.1881413414
 11
9.8035772957
 21
11.1821462694
  0
LINE
  5
5EC
100
AcDbEntity
  8
0
100
AcDbLine
 62
7
  6
CONTINUOUS
 10
9.6203386258
 20
11.0200543746
 11
9.6006535864
 21
11.0397394163
  0
LINE
  5
5ED
100
AcDbEntity
  8
0
100
AcDbLine
 62
7
  6
CONTINUOUS
 10
12.8514409395
 20
9.7798968469
 11
12.9695511757
 21
9.7798968469
  0
LINE
  5
5EE
100
AcDbEntity
  8
0
100
AcDbLine
 62
7
  6
CONTINUOUS
 10
12.9695511757
 20
9.7882239794
 11
12.8514409395
 21
9.7882239794
  0
LINE
  5
5EF
100
AcDbEntity
  8
0
100
AcDbLine
 62
6
  6
CONTINUOUS
 10
12.9498661364
 20
9.7907860662
 11
12.8514409395
 21
9.7907860662
  0
LINE
  5
5F0
100
AcDbEntity
  8
0
100
AcDbLine
 62
6
  6
CONTINUOUS
 10
13.0809684986
 20
9.8743850359
 11
13.0482910665
 21
9.8743850359
  0
LINE
  5
5F1
100
AcDbEntity
  8
AXIS
100
AcDbLine
 62
7
  6
CONTINUOUS
 10
13.0482910665
 20
9.8743850359
 11
13.0612834592
 21
9.8743850359
  0
LINE
  5
5F2
100
AcDbEntity
  8
0
100
AcDbLine
 62
6
  6
CONTINUOUS
 10
13.0612834592
 20
9.8752448129
 11
13.0482910665
 21
9.8752448129
  0
LINE
  5
5F3
100
AcDbEntity
  8
0
100
AcDbLine
 62
7
  6
CONTINUOUS
 10
12.8514409395
 20
9.9111570109
 11
12.9695511757
 21
9.9111570109
  0
LINE
  5
5F4
100
AcDbEntity
  8
0
100
AcDbLine
 62
6
  6
CONTINUOUS
 10
12.8514409395
 20
9.9199885564
 11
12.9498661364
 21
9.9199885564
  0
LINE
  5
5F5
100
AcDbEntity
  8
0
100
AcDbLine
 62
7
  6
CONTINUOUS
 10
13.4207322781
 20
9.9373771619
 11
13.1270314907
 21
9.9373771619
  0
LINE
  5
5F6
100
AcDbEntity
  8
0
100
AcDbLine
 62
6
  6
CONTINUOUS
 10
13.4404173175
 20
9.9373771619
 11
13.4207322781
 21
9.9373771619
  0
LINE
  5
5F7
100
AcDbEntity
  8
0
100
AcDbLine
 62
7
  6
CONTINUOUS
 10
13.4813621993
 20
9.966904721
 11
13.46167716
 21
9.966904721
  0
LINE
  5
5F8
100
AcDbEntity
  8
0
100
AcDbLine
 62
6
  6
CONTINUOUS
 10
13.5010472387
 20
9.966904721
 11
13.4813621993
 21
9.966904721
  0
LINE
  5
5F9
100
AcDbEntity
  8
0
100
AcDbLine
 62
6
  6
CONTINUOUS
 10
13.0482910665
 20
10.0197568389
 11
13.0612834592
 21
10.0197568389
  0
LINE
  5
5FA
100
AcDbEntity
  8
0
100
AcDbLine
 62
6
  6
CONTINUOUS
 10
13.0809684986
 20
10.0360979514
 11
13.0482910665
 21
10.0360979514
  0
LINE
  5
5FB
100
AcDbEntity
  8
0
100
AcDbLine
 62
7
  6
CONTINUOUS
 10
12.9695511757
 20
10.0506646029
 11
12.8514409395
 21
10.0506646029
  0
LINE
  5
5FC
100
AcDbEntity
  8
0
100
AcDbLine
 62
6
  6
CONTINUOUS
 10
12.9498661364
 20
10.0618267043
 11
12.8514409395
 21
10.0618267043
  0
LINE
  5
5FD
100
AcDbEntity
  8
0
100
AcDbLine
 62
7
  6
CONTINUOUS
 10
13.0482910665
 20
10.0845377601
 11
13.0612834592
 21
10.0845377601
  0
LINE
  5
5FE
100
AcDbEntity
  8
02___PRT_ALL_AXES
100
AcDbLine
 62
7
  6
CENTER
 10
9.0794026721
 20
10.1735976343
 11
13.6329521767
 21
10.1735976343
  0
LINE
  5
5FF
100
AcDbEntity
  8
0
100
AcDbLine
 62
7
  6
CONTINUOUS
 10
12.8514409395
 20
10.2965306658
 11
12.9695511757
 21
10.2965306658
  0
LINE
  5
600
100
AcDbEntity
  8
0
100
AcDbLine
 62
6
  6
CONTINUOUS
 10
12.8514409395
 20
10.307584313
 11
12.9498661364
 21
10.307584313
  0
LINE
  5
601
100
AcDbEntity
  8
0
100
AcDbLine
 62
6
  6
CONTINUOUS
 10
13.0482910665
 20
10.3110973173
 11
13.0809684986
 21
10.3110973173
  0
LINE
  5
602
100
AcDbEntity
  8
0
100
AcDbLine
 62
7
  6
CONTINUOUS
 10
9.6203386258
 20
9.3271408941
 11
9.6006535864
 21
9.3074558524
  0
LINE
  5
603
100
AcDbEntity
  8
0
100
AcDbLine
 62
7
  6
CONTINUOUS
 10
13.4813621993
 20
10.3802905477
 11
13.46167716
 21
10.3802905477
  0
LINE
  5
604
100
AcDbEntity
  8
0
100
AcDbLine
 62
6
  6
CONTINUOUS
 10
13.5010472387
 20
10.3802905477
 11
13.4813621993
 21
10.3802905477
  0
LINE
  5
605
100
AcDbEntity
  8
0
100
AcDbLine
 62
7
  6
CONTINUOUS
 10
13.4207322781
 20
10.4098181068
 11
13.1270314907
 21
10.4098181068
  0
LINE
  5
606
100
AcDbEntity
  8
0
100
AcDbLine
 62
6
  6
CONTINUOUS
 10
13.4404173175
 20
10.4098181068
 11
13.4207322781
 21
10.4098181068
  0
LINE
  5
607
100
AcDbEntity
  8
0
100
AcDbLine
 62
7
  6
CONTINUOUS
 10
12.9695511757
 20
10.4360382578
 11
12.8514409395
 21
10.4360382578
  0
LINE
  5
608
100
AcDbEntity
  8
0
100
AcDbLine
 62
6
  6
CONTINUOUS
 10
12.9498661364
 20
10.4446382724
 11
12.8514409395
 21
10.4446382724
  0
LINE
  5
609
100
AcDbEntity
  8
0
100
AcDbLine
 62
6
  6
CONTINUOUS
 10
13.0809684986
 20
10.4728102328
 11
13.0482910665
 21
10.4728102328
  0
LINE
  5
60A
100
AcDbEntity
  8
AXIS
100
AcDbLine
 62
7
  6
CONTINUOUS
 10
13.0482910665
 20
10.4728102328
 11
13.0612834592
 21
10.4728102328
  0
LINE
  5
60B
100
AcDbEntity
  8
0
100
AcDbLine
 62
7
  6
CONTINUOUS
 10
12.8514409395
 20
10.5589712893
 11
12.9695511757
 21
10.5589712893
  0
LINE
  5
60C
100
AcDbEntity
  8
0
100
AcDbLine
 62
6
  6
CONTINUOUS
 10
12.8514409395
 20
10.5611933909
 11
12.9498661364
 21
10.5611933909
  0
LINE
  5
60D
100
AcDbEntity
  8
0
100
AcDbLine
 62
7
  6
CONTINUOUS
 10
12.8514409395
 20
10.5672984218
 11
12.9695511757
 21
10.5672984218
  0
LINE
  5
60E
100
AcDbEntity
  8
02___PRT_ALL_AXES
100
AcDbLine
 62
7
  6
CONTINUOUS
 10
9.6322992072
 20
10.9541094454
 11
9.6203385773
 21
10.9541094454
  0
LINE
  5
60F
100
AcDbEntity
  8
02___PRT_ALL_AXES
100
AcDbLine
 62
7
  6
CONTINUOUS
 10
9.7352992072
 20
11.0361960595
 11
9.774669286
 21
11.0361960595
  0
LINE
  5
610
100
AcDbEntity
  8
02___PRT_ALL_AXES
100
AcDbLine
 62
7
  6
CONTINUOUS
 10
9.6006535368
 20
11.0397393666
 11
9.4628582635
 21
11.0397393666
  0
LINE
  5
611
100
AcDbEntity
  8
02___PRT_ALL_AXES
100
AcDbLine
 62
7
  6
CONTINUOUS
 10
9.8170519351
 20
11.1881413414
 11
12.7893700561
 21
11.1881413414
  0
LINE
  5
612
100
AcDbEntity
  8
0
100
AcDbLine
 62
7
  6
CONTINUOUS
 10
13.0425272869
 20
10.4943223105
 11
12.9695511757
 21
10.5672984218
  0
LINE
  5
613
100
AcDbEntity
  8
0
100
AcDbLine
 62
6
  6
CONTINUOUS
 10
13.1073464513
 20
10.44643228
 11
13.0809684986
 21
10.4728102328
  0
LWPOLYLINE
  5
614
100
AcDbEntity
  8
0
100
AcDbPolyline
 62
7
  6
CONTINUOUS
 90
7
 70
0
 10
12.9695511757
 20
9.9111570109
 10
12.9806137611
 20
9.8900768035
 10
12.9870995888
 20
9.8697107322
 10
12.9892367813
 20
9.8496904951
 10
12.9870995888
 20
9.8296702581
 10
12.9806137611
 20
9.8093041868
 10
12.9695511757
 20
9.7882239794
  0
LWPOLYLINE
  5
615
100
AcDbEntity
  8
0
100
AcDbPolyline
 62
6
  6
CONTINUOUS
 90
7
 70
0
 10
12.9498661364
 20
9.9199885564
 10
12.9609287218
 20
9.89783328
 10
12.9674145494
 20
9.8764285599
 10
12.9695517419
 20
9.8553873113
 10
12.9674145494
 20
9.8343460627
 10
12.9609287218
 20
9.8129413426
 10
12.9498661364
 20
9.7907860662
  0
LINE
  5
616
100
AcDbEntity
  8
02___PRT_ALL_AXES
100
AcDbLine
 62
7
  6
CONTINUOUS
 10
12.4774251915
 20
11.1881413414
 11
12.4774251915
 21
9.1590539273
  0
LINE
  5
617
100
AcDbEntity
  8
02___PRT_ALL_AXES
100
AcDbLine
 62
9
  6
CONTINUOUS
 10
12.6545905458
 20
11.1881431961
 11
12.6545905458
 21
9.1590520819
  0
LINE
  5
618
100
AcDbEntity
  8
0
100
AcDbLine
 62
7
  6
CONTINUOUS
 10
12.8107488545
 20
11.1777930628
 11
12.7893712227
 21
11.1881413414
  0
LINE
  5
619
100
AcDbEntity
  8
0
100
AcDbLine
 62
7
  6
CONTINUOUS
 10
12.8107488658
 20
11.1777938083
 11
12.7893731695
 21
11.1881413414
  0
LWPOLYLINE
  5
61A
100
AcDbEntity
  8
02___PRT_ALL_AXES
100
AcDbPolyline
 62
7
  6
CONTINUOUS
 90
3
 70
0
 10
12.8245513988
 20
11.1679487196
 10
12.8087769414
 20
11.1789499372
 10
12.7893710287
 20
11.1881413414
  0
LINE
  5
61B
100
AcDbEntity
  8
0
100
AcDbLine
 62
7
  6
CONTINUOUS
 10
12.8286673675
 20
11.1642073835
 11
12.8107488545
 21
11.1777930628
  0
LINE
  5
61C
100
AcDbEntity
  8
0
100
AcDbLine
 62
6
  6
CONTINUOUS
 10
13.46167716
 20
10.3885582643
 11
13.4404173175
 21
10.4098181068
  0
LINE
  5
61D
100
AcDbEntity
  8
0
100
AcDbLine
 62
7
  6
CONTINUOUS
 10
12.8514409395
 20
11.1086368883
 11
12.8514409395
 21
9.2385583735
  0
LINE
  5
61E
100
AcDbEntity
  8
02___PRT_ALL_AXES
100
AcDbLine
 62
7
  6
CONTINUOUS
 10
12.836428058
 20
11.1554951225
 11
12.8245513988
 21
11.1679487196
  0
LINE
  5
61F
100
AcDbEntity
  8
0
100
AcDbLine
 62
7
  6
CONTINUOUS
 10
12.8417970462
 20
11.1473877593
 11
12.8286673675
 21
11.1642073835
  0
LWPOLYLINE
  5
620
100
AcDbEntity
  8
0
100
AcDbPolyline
 62
6
  6
CONTINUOUS
 90
7
 70
0
 10
12.9498661364
 20
10.5611933909
 10
12.9609287218
 20
10.54120685
 10
12.9674145494
 20
10.5218973948
 10
12.9695517419
 20
10.5029158317
 10
12.9674145494
 20
10.4839342685
 10
12.9609287218
 20
10.4646248134
 10
12.9498661364
 20
10.4446382724
  0
LWPOLYLINE
  5
621
100
AcDbEntity
  8
0
100
AcDbPolyline
 62
7
  6
CONTINUOUS
 90
7
 70
0
 10
12.9695511757
 20
10.5589712893
 10
12.9806137611
 20
10.5378910819
 10
12.9870995888
 20
10.5175250106
 10
12.9892367813
 20
10.4975047736
 10
12.9870995888
 20
10.4774845365
 10
12.9806137611
 20
10.4571184652
 10
12.9695511757
 20
10.4360382578
  0
LINE
  5
622
100
AcDbEntity
  8
0
100
AcDbLine
 62
6
  6
CONTINUOUS
 10
13.0916021373
 20
10.2861142879
 11
13.0809684986
 21
10.3110973173
  0
LWPOLYLINE
  5
623
100
AcDbEntity
  8
0
100
AcDbPolyline
 62
7
  6
CONTINUOUS
 90
4
 70
0
 10
13.0876614119
 20
10.0322563505
 10
13.0809917404
 20
10.0491648586
 10
13.0722465534
 20
10.0665031296
 10
13.0612834592
 20
10.0845377601
  0
LWPOLYLINE
  5
624
100
AcDbEntity
  8
0
100
AcDbPolyline
 62
7
  6
CONTINUOUS
 90
7
 70
0
 10
12.9695511757
 20
10.2965306658
 10
12.9806137611
 20
10.254370251
 10
12.9870995888
 20
10.2136381084
 10
12.9892367813
 20
10.1735976343
 10
12.9870995888
 20
10.1335571603
 10
12.9806137611
 20
10.0928250177
 10
12.9695511757
 20
10.0506646029
  0
LINE
  5
625
100
AcDbEntity
  8
02___PRT_ALL_AXES
100
AcDbLine
 62
7
  6
CONTINUOUS
 10
12.8514409395
 20
11.1086370044
 11
12.8497002433
 21
11.1262795523
  0
LINE
  5
626
100
AcDbEntity
  8
0
100
AcDbLine
 62
6
  6
CONTINUOUS
 10
12.9498661364
 20
10.5672984218
 11
12.9498661364
 21
10.5611933909
  0
LINE
  5
627
100
AcDbEntity
  8
0
100
AcDbLine
 62
6
  6
CONTINUOUS
 10
12.9498661364
 20
10.4446382724
 11
12.9498661364
 21
10.307584313
  0
LINE
  5
628
100
AcDbEntity
  8
0
100
AcDbLine
 62
6
  6
CONTINUOUS
 10
12.9498661364
 20
10.0618267043
 11
12.9498661364
 21
9.9199885564
  0
LINE
  5
629
100
AcDbEntity
  8
0
100
AcDbLine
 62
6
  6
CONTINUOUS
 10
12.9498661364
 20
9.7907860662
 11
12.9498661364
 21
9.7798968469
  0
LINE
  5
62A
100
AcDbEntity
  8
0
100
AcDbLine
 62
7
  6
CONTINUOUS
 10
12.9695511757
 20
10.5672984218
 11
12.9695511757
 21
10.5589712893
  0
LINE
  5
62B
100
AcDbEntity
  8
0
100
AcDbLine
 62
7
  6
CONTINUOUS
 10
12.9695511757
 20
10.4360382578
 11
12.9695511757
 21
10.2965306658
  0
LINE
  5
62C
100
AcDbEntity
  8
0
100
AcDbLine
 62
7
  6
CONTINUOUS
 10
12.9695511757
 20
10.0506646029
 11
12.9695511757
 21
9.9111570109
  0
LINE
  5
62D
100
AcDbEntity
  8
0
100
AcDbLine
 62
7
  6
CONTINUOUS
 10
12.9695511757
 20
9.7882239794
 11
12.9695511757
 21
9.7798968469
  0
LINE
  5
62E
100
AcDbEntity
  8
0
100
AcDbLine
 62
9
  6
CONTINUOUS
 10
13.0425272869
 20
10.4943223105
 11
13.0425272869
 21
9.8528729582
  0
LINE
  5
62F
100
AcDbEntity
  8
0
100
AcDbLine
 62
7
  6
CONTINUOUS
 10
13.0482910665
 20
10.480404721
 11
13.0482910665
 21
9.8667905477
  0
LINE
  5
630
100
AcDbEntity
  8
02___PRT_ALL_AXES
100
AcDbLine
 62
7
  6
CONTINUOUS
 10
12.8514409395
 20
9.2385582643
 11
12.8497002433
 21
9.2209157164
  0
LINE
  5
631
100
AcDbEntity
  8
0
100
AcDbLine
 62
7
  6
CONTINUOUS
 10
12.8492386967
 20
9.2188357291
 11
12.8514409395
 21
9.238555623
  0
LINE
  5
632
100
AcDbEntity
  8
02___PRT_ALL_AXES
100
AcDbLine
 62
7
  6
CONTINUOUS
 10
12.8446957233
 20
11.1417053025
 11
12.836428058
 21
11.1554951225
  0
LINE
  5
633
100
AcDbEntity
  8
0
100
AcDbLine
 62
7
  6
CONTINUOUS
 10
12.8492386966
 20
11.1283588249
 11
12.8417970462
 21
11.1473877593
  0
LINE
  5
634
100
AcDbEntity
  8
02___PRT_ALL_AXES
100
AcDbLine
 62
7
  6
CONTINUOUS
 10
12.8497002433
 20
11.1262795523
 11
12.8446957233
 21
11.1417053025
  0
LWPOLYLINE
  5
635
100
AcDbEntity
  8
0
100
AcDbPolyline
 62
6
  6
CONTINUOUS
 90
3
 70
0
 10
13.1073464513
 20
10.2353773044
 10
13.1004273058
 20
10.2610319562
 10
13.0916021373
 20
10.2861142879
  0
LINE
  5
636
100
AcDbEntity
  8
0
100
AcDbLine
 62
7
  6
CONTINUOUS
 10
12.8514409395
 20
11.1086389452
 11
12.8492386966
 21
11.1283588249
  0
LINE
  5
637
100
AcDbEntity
  8
0
100
AcDbLine
 62
7
  6
CONTINUOUS
 10
13.0612834592
 20
10.4728102328
 11
13.0612834592
 21
10.0845377601
  0
LINE
  5
638
100
AcDbEntity
  8
0
100
AcDbLine
 62
6
  6
CONTINUOUS
 10
13.0612834592
 20
10.0845377601
 11
13.0612834592
 21
10.0197568389
  0
LINE
  5
639
100
AcDbEntity
  8
0
100
AcDbLine
 62
6
  6
CONTINUOUS
 10
13.0612834592
 20
9.8752448129
 11
13.0612834592
 21
9.8743850359
  0
LINE
  5
63A
100
AcDbEntity
  8
0
100
AcDbLine
 62
6
  6
CONTINUOUS
 10
13.0809684986
 20
10.4728102328
 11
13.0809684986
 21
10.3110973173
  0
LINE
  5
63B
100
AcDbEntity
  8
0
100
AcDbLine
 62
6
  6
CONTINUOUS
 10
13.0809684986
 20
10.0360979514
 11
13.0809684986
 21
9.8743850359
  0
LINE
  5
63C
100
AcDbEntity
  8
0
100
AcDbLine
 62
6
  6
CONTINUOUS
 10
13.0876614119
 20
10.0391194189
 11
13.0876614119
 21
10.0322563505
  0
LINE
  5
63D
100
AcDbEntity
  8
0
100
AcDbLine
 62
7
  6
CONTINUOUS
 10
13.0876614119
 20
10.0391194189
 11
13.0876614119
 21
10.3080758498
  0
LINE
  5
63E
100
AcDbEntity
  8
0
100
AcDbLine
 62
6
  6
CONTINUOUS
 10
13.1073464513
 20
9.9007629887
 11
13.1073464513
 21
10.4464319987
  0
LINE
  5
63F
100
AcDbEntity
  8
0
100
AcDbLine
 62
9
  6
CONTINUOUS
 10
13.1270314907
 20
9.9373771619
 11
13.1270314907
 21
10.4098181068
  0
LINE
  5
640
100
AcDbEntity
  8
02___PRT_ALL_AXES
100
AcDbLine
 62
7
  6
CONTINUOUS
 10
12.8497002433
 20
9.2209157164
 11
12.8446957233
 21
9.2054899662
  0
LWPOLYLINE
  5
641
100
AcDbEntity
  8
0
100
AcDbPolyline
 62
6
  6
CONTINUOUS
 90
4
 70
0
 10
13.0809684986
 20
10.0360979514
 10
13.091601566
 20
10.0610795166
 10
13.1004268246
 20
10.0861617714
 10
13.1073464513
 20
10.1118179643
  0
LINE
  5
642
100
AcDbEntity
  8
0
100
AcDbLine
 62
7
  6
CONTINUOUS
 10
13.0425272869
 20
9.8528729582
 11
12.9695511757
 21
9.7798968469
  0
LINE
  5
643
100
AcDbEntity
  8
0
100
AcDbLine
 62
6
  6
CONTINUOUS
 10
13.1073464513
 20
9.9007629887
 11
13.0809684986
 21
9.8743850359
  0
LINE
  5
644
100
AcDbEntity
  8
0
100
AcDbLine
 62
7
  6
CONTINUOUS
 10
13.4207322781
 20
10.4098181068
 11
13.4207322781
 21
9.9373771619
  0
LINE
  5
645
100
AcDbEntity
  8
0
100
AcDbLine
 62
6
  6
CONTINUOUS
 10
13.4404173175
 20
10.4098181068
 11
13.4404173175
 21
9.9373771619
  0
LINE
  5
646
100
AcDbEntity
  8
0
100
AcDbLine
 62
7
  6
CONTINUOUS
 10
12.8417970488
 20
9.1998067843
 11
12.8492386967
 21
9.2188357291
  0
LINE
  5
647
100
AcDbEntity
  8
02___PRT_ALL_AXES
100
AcDbLine
 62
7
  6
CONTINUOUS
 10
12.8446957233
 20
9.2054899662
 11
12.836428058
 21
9.1917001462
  0
LINE
  5
648
100
AcDbEntity
  8
0
100
AcDbLine
 62
6
  6
CONTINUOUS
 10
13.46167716
 20
9.9586370044
 11
13.4404173175
 21
9.9373771619
  0
LINE
  5
649
100
AcDbEntity
  8
0
100
AcDbLine
 62
7
  6
CONTINUOUS
 10
12.7893731695
 20
9.1590539273
 11
12.8107488658
 21
9.1694014604
  0
LINE
  5
64A
100
AcDbEntity
  8
0
100
AcDbLine
 62
6
  6
CONTINUOUS
 10
13.46167716
 20
10.3885582643
 11
13.46167716
 21
9.9586370044
  0
LINE
  5
64B
100
AcDbEntity
  8
0
100
AcDbLine
 62
7
  6
CONTINUOUS
 10
13.4813621993
 20
10.3802902694
 11
13.4813621993
 21
9.9669049993
  0
LINE
  5
64C
100
AcDbEntity
  8
0
100
AcDbLine
 62
6
  6
CONTINUOUS
 10
13.5010472387
 20
10.3802931113
 11
13.5010472387
 21
9.9669021574
  0
LINE
  5
64D
100
AcDbEntity
  8
02___PRT_ALL_AXES
100
AcDbLine
 62
7
  6
CONTINUOUS
 10
12.836428058
 20
9.1917001462
 11
12.8245513988
 21
9.1792465491
  0
LWPOLYLINE
  5
64E
100
AcDbEntity
  8
0
100
AcDbPolyline
 62
7
  6
CONTINUOUS
 90
3
 70
0
 10
12.8107488658
 20
9.1694014604
 10
12.8286673747
 20
9.18298715
 10
12.8417970463
 20
9.1998075094
  0
LWPOLYLINE
  5
64F
100
AcDbEntity
  8
02___PRT_ALL_AXES
100
AcDbPolyline
 62
7
  6
CONTINUOUS
 90
3
 70
0
 10
12.8245513988
 20
9.1792465491
 10
12.8087769414
 20
9.1682453315
 10
12.7893710287
 20
9.1590539273
  0
LINE
  5
650
100
AcDbEntity
  8
0
100
AcDbLine
 62
7
  6
CONTINUOUS
 10
9.4431731745
 20
4.4794999722
 11
9.4628582139
 21
4.4991850138
  0
LINE
  5
651
100
AcDbEntity
  8
0
100
AcDbLine
 62
7
  6
CONTINUOUS
 10
9.7997384517
 20
4.6395686497
 11
9.7814984401
 21
4.6270725789
  0
LWPOLYLINE
  5
652
100
AcDbEntity
  8
0
100
AcDbPolyline
 62
7
  6
CONTINUOUS
 90
3
 70
0
 10
9.8035772957
 20
4.641591867
 10
9.7916924787
 20
4.6347366342
 10
9.7814984603
 20
4.6270725233
  0
LINE
  5
653
100
AcDbEntity
  8
0
100
AcDbLine
 62
7
  6
CONTINUOUS
 10
9.443173223
 20
2.7865865402
 11
9.443173223
 21
4.4794999237
  0
LINE
  5
654
100
AcDbEntity
  8
0
100
AcDbLine
 62
7
  6
CONTINUOUS
 10
9.4628582635
 20
2.7669014996
 11
9.4628582635
 21
4.4991849642
  0
LINE
  5
655
100
AcDbEntity
  8
0
100
AcDbLine
 62
7
  6
CONTINUOUS
 10
9.8170537445
 20
4.647586939
 11
9.7997384517
 21
4.6395686497
  0
LINE
  5
656
100
AcDbEntity
  8
0
100
AcDbLine
 62
7
  6
CONTINUOUS
 10
9.8170539351
 20
4.647586939
 11
9.8035772957
 21
4.641591867
  0
LINE
  5
657
100
AcDbEntity
  8
0
100
AcDbLine
 62
7
  6
CONTINUOUS
 10
9.6006535368
 20
4.4991849642
 11
9.6006535368
 21
2.7669014996
  0
LINE
  5
658
100
AcDbEntity
  8
0
100
AcDbLine
 62
7
  6
CONTINUOUS
 10
9.6203385773
 20
4.4794999237
 11
9.6203385773
 21
2.7865865402
  0
LINE
  5
659
100
AcDbEntity
  8
AXIS
100
AcDbLine
 62
7
  6
CONTINUOUS
 10
9.6322992072
 20
2.8315432319
 11
9.6322992072
 21
4.4345432319
  0
LINE
  5
65A
100
AcDbEntity
  8
02___PRT_ALL_AXES
100
AcDbLine
 62
7
  6
CONTINUOUS
 10
9.7352992072
 20
4.4956416571
 11
9.7352992072
 21
2.7704448067
  0
LINE
  5
65B
100
AcDbEntity
  8
0
100
AcDbLine
 62
7
  6
CONTINUOUS
 10
9.774669286
 20
4.6121650453
 11
9.774669286
 21
2.6539214206
  0
LINE
  5
65C
100
AcDbEntity
  8
0
100
AcDbLine
 62
9
  6
CONTINUOUS
 10
9.781498461
 20
4.6270725968
 11
9.7814985486
 21
2.6390139494
  0
LINE
  5
65D
100
AcDbEntity
  8
0
100
AcDbLine
 62
7
  6
CONTINUOUS
 10
9.4431731745
 20
2.7865864917
 11
9.4628582139
 21
2.76690145
  0
LINE
  5
65E
100
AcDbEntity
  8
02___PRT_ALL_AXES
100
AcDbLine
 62
9
  6
CONTINUOUS
 10
9.9518346403
 20
4.6475887878
 11
9.9518346403
 21
3.9086321295
  0
LINE
  5
65F
100
AcDbEntity
  8
02___PRT_ALL_AXES
100
AcDbLine
 62
9
  6
CONTINUOUS
 10
9.9518346403
 20
3.357454337
 11
9.9518346403
 21
2.6184976745
  0
LINE
  5
660
100
AcDbEntity
  8
02___PRT_ALL_AXES
100
AcDbLine
 62
7
  6
CENTER
 10
10.022700782
 20
3.6330432319
 11
10.022700782
 21
3.3646257314
  0
LINE
  5
661
100
AcDbEntity
  8
02___PRT_ALL_AXES
100
AcDbLine
 62
7
  6
CENTER
 10
10.022700782
 20
3.6330432319
 11
10.022700782
 21
3.9014607324
  0
LINE
  5
662
100
AcDbEntity
  8
0
100
AcDbLine
 62
7
  6
CONTINUOUS
 10
9.7814984401
 20
2.639013885
 11
9.7997384517
 21
2.6265178141
  0
LINE
  5
663
100
AcDbEntity
  8
02___PRT_ALL_AXES
100
AcDbLine
 62
7
  6
CONTINUOUS
 10
10.180181097
 20
4.647586939
 11
10.180181097
 21
2.6184995248
  0
LWPOLYLINE
  5
664
100
AcDbEntity
  8
0
100
AcDbPolyline
 62
7
  6
CONTINUOUS
 90
3
 70
0
 10
9.8035772957
 20
2.6244945969
 10
9.7916924787
 20
2.6313498296
 10
9.7814984603
 20
2.6390139405
  0
LINE
  5
665
100
AcDbEntity
  8
0
100
AcDbLine
 62
7
  6
CONTINUOUS
 10
9.6203386258
 20
2.7865864917
 11
9.6006535864
 21
2.76690145
  0
LINE
  5
666
100
AcDbEntity
  8
0
100
AcDbLine
 62
7
  6
CONTINUOUS
 10
9.8170539351
 20
2.6184995248
 11
9.8035772957
 21
2.6244945969
  0
LINE
  5
667
100
AcDbEntity
  8
0
100
AcDbLine
 62
7
  6
CONTINUOUS
 10
9.7997384517
 20
2.6265178141
 11
9.8170537445
 21
2.6184995248
  0
LINE
  5
668
100
AcDbEntity
  8
02___PRT_ALL_AXES
100
AcDbLine
 62
7
  6
CONTINUOUS
 10
9.8170519351
 20
2.6184995248
 11
12.7893704446
 21
2.6184995248
  0
LINE
  5
669
100
AcDbEntity
  8
02___PRT_ALL_AXES
100
AcDbLine
 62
7
  6
CONTINUOUS
 10
9.6006535368
 20
2.7669014996
 11
9.4628582635
 21
2.7669014996
  0
LINE
  5
66A
100
AcDbEntity
  8
02___PRT_ALL_AXES
100
AcDbLine
 62
7
  6
CONTINUOUS
 10
9.7352992072
 20
2.7704448067
 11
9.774669286
 21
2.7704448067
  0
LINE
  5
66B
100
AcDbEntity
  8
02___PRT_ALL_AXES
100
AcDbLine
 62
7
  6
CONTINUOUS
 10
9.6322992072
 20
2.8525314209
 11
9.6203385773
 21
2.8525314209
  0
LINE
  5
66C
100
AcDbEntity
  8
0
100
AcDbLine
 62
7
  6
CONTINUOUS
 10
9.6203386258
 20
4.4794999722
 11
9.6006535864
 21
4.4991850138
  0
LINE
  5
66D
100
AcDbEntity
  8
0
100
AcDbLine
 62
7
  6
CONTINUOUS
 10
12.8514409395
 20
3.2393424445
 11
12.9695511757
 21
3.2393424445
  0
LINE
  5
66E
100
AcDbEntity
  8
0
100
AcDbLine
 62
7
  6
CONTINUOUS
 10
12.9695511757
 20
3.247669577
 11
12.8514409395
 21
3.247669577
  0
LINE
  5
66F
100
AcDbEntity
  8
0
100
AcDbLine
 62
6
  6
CONTINUOUS
 10
12.9498661364
 20
3.2502316638
 11
12.8514409395
 21
3.2502316638
  0
LWPOLYLINE
  5
670
100
AcDbEntity
  8
02___PRT_ALL_AXES
100
AcDbPolyline
 62
7
  6
CONTINUOUS
 90
24
 70
0
 10
9.9518346403
 20
3.3574535089
 10
9.9228705789
 20
3.3596238791
 10
9.8946181993
 20
3.3667913613
 10
9.8683855833
 20
3.3797344373
 10
9.8458863212
 20
3.3981807983
 10
9.8276075042
 20
3.4213304269
 10
9.8125786806
 20
3.4500080294
 10
9.800612902
 20
3.4849032925
 10
9.7919879438
 20
3.5249995348
 10
9.7868617228
 20
3.565691784
 10
9.7844423056
 20
3.6041776687
 10
9.7839554606
 20
3.6407016645
 10
9.7850579616
 20
3.6754480007
 10
9.7875883819
 20
3.7079001771
 10
9.7914726238
 20
3.7379003103
 10
9.7969028229
 20
3.7663145756
 10
9.8044367421
 20
3.7940901303
 10
9.8148005082
 20
3.8211211794
 10
9.8288264609
 20
3.8466228773
 10
9.8470217679
 20
3.8690581614
 10
9.8692919442
 20
3.8869304048
 10
9.8948719057
 20
3.8993868573
 10
9.9225923143
 20
3.9064188191
 10
9.9518346403
 20
3.9086329563
  0
LINE
  5
671
100
AcDbEntity
  8
0
100
AcDbLine
 62
6
  6
CONTINUOUS
 10
13.0809684986
 20
3.3338306335
 11
13.0482910665
 21
3.3338306335
  0
LINE
  5
672
100
AcDbEntity
  8
AXIS
100
AcDbLine
 62
7
  6
CONTINUOUS
 10
13.0482910665
 20
3.3338306335
 11
13.0612834592
 21
3.3338306335
  0
LINE
  5
673
100
AcDbEntity
  8
0
100
AcDbLine
 62
6
  6
CONTINUOUS
 10
13.0612834592
 20
3.3346904104
 11
13.0482910665
 21
3.3346904104
  0
LINE
  5
674
100
AcDbEntity
  8
0
100
AcDbLine
 62
7
  6
CONTINUOUS
 10
13.0482910665
 20
3.3473921898
 11
13.0612834592
 21
3.3473921898
  0
LINE
  5
675
100
AcDbEntity
  8
02___PRT_ALL_AXES
100
AcDbLine
 62
7
  6
CONTINUOUS
 10
12.6545905458
 20
3.3574535061
 11
9.9518346403
 21
3.3574535089
  0
LINE
  5
676
100
AcDbEntity
  8
0
100
AcDbLine
 62
7
  6
CONTINUOUS
 10
12.8514409395
 20
3.3706026084
 11
12.9695511757
 21
3.3706026084
  0
LINE
  5
677
100
AcDbEntity
  8
0
100
AcDbLine
 62
6
  6
CONTINUOUS
 10
12.8514409395
 20
3.379434154
 11
12.9498661364
 21
3.379434154
  0
LINE
  5
678
100
AcDbEntity
  8
0
100
AcDbLine
 62
7
  6
CONTINUOUS
 10
13.4207322781
 20
3.3968227595
 11
13.1270314907
 21
3.3968227595
  0
LINE
  5
679
100
AcDbEntity
  8
0
100
AcDbLine
 62
6
  6
CONTINUOUS
 10
13.4404173175
 20
3.3968227595
 11
13.4207322781
 21
3.3968227595
  0
LINE
  5
67A
100
AcDbEntity
  8
0
100
AcDbLine
 62
7
  6
CONTINUOUS
 10
13.4813621993
 20
3.4263503185
 11
13.46167716
 21
3.4263503185
  0
LINE
  5
67B
100
AcDbEntity
  8
0
100
AcDbLine
 62
6
  6
CONTINUOUS
 10
13.5010472387
 20
3.4263503185
 11
13.4813621993
 21
3.4263503185
  0
LINE
  5
67C
100
AcDbEntity
  8
0
100
AcDbLine
 62
6
  6
CONTINUOUS
 10
13.0482910665
 20
3.4792024364
 11
13.0612834592
 21
3.4792024364
  0
LINE
  5
67D
100
AcDbEntity
  8
0
100
AcDbLine
 62
6
  6
CONTINUOUS
 10
13.0809684986
 20
3.495543549
 11
13.0482910665
 21
3.495543549
  0
LINE
  5
67E
100
AcDbEntity
  8
0
100
AcDbLine
 62
7
  6
CONTINUOUS
 10
12.9695511757
 20
3.5101102005
 11
12.8514409395
 21
3.5101102005
  0
LINE
  5
67F
100
AcDbEntity
  8
0
100
AcDbLine
 62
6
  6
CONTINUOUS
 10
12.9498661364
 20
3.5212723019
 11
12.8514409395
 21
3.5212723019
  0
LINE
  5
680
100
AcDbEntity
  8
0
100
AcDbLine
 62
7
  6
CONTINUOUS
 10
13.0482910665
 20
3.5439833577
 11
13.0612834592
 21
3.5439833577
  0
LINE
  5
681
100
AcDbEntity
  8
02___PRT_ALL_AXES
100
AcDbLine
 62
7
  6
CENTER
 10
10.022700782
 20
3.6330432319
 11
9.7542832815
 21
3.6330432319
  0
LINE
  5
682
100
AcDbEntity
  8
02___PRT_ALL_AXES
100
AcDbLine
 62
7
  6
CENTER
 10
9.3171054975
 20
3.6330432319
 11
9.6635084011
 21
3.6330432319
  0
LINE
  5
683
100
AcDbEntity
  8
02___PRT_ALL_AXES
100
AcDbLine
 62
7
  6
CENTER
 10
10.022700782
 20
3.6330432319
 11
10.2911182825
 21
3.6330432319
  0
LINE
  5
684
100
AcDbEntity
  8
02___PRT_ALL_AXES
100
AcDbLine
 62
7
  6
CENTER
 10
10.293119084
 20
3.6330432319
 11
10.3048218848
 21
3.6330432319
  0
LINE
  5
685
100
AcDbEntity
  8
02___PRT_ALL_AXES
100
AcDbLine
 62
7
  6
CENTER
 10
10.3586547685
 20
3.6330432319
 11
13.6026296408
 21
3.6330432319
  0
LINE
  5
686
100
AcDbEntity
  8
0
100
AcDbLine
 62
7
  6
CONTINUOUS
 10
12.8514409395
 20
3.7559762634
 11
12.9695511757
 21
3.7559762634
  0
LINE
  5
687
100
AcDbEntity
  8
0
100
AcDbLine
 62
6
  6
CONTINUOUS
 10
12.8514409395
 20
3.7670299106
 11
12.9498661364
 21
3.7670299106
  0
LINE
  5
688
100
AcDbEntity
  8
0
100
AcDbLine
 62
6
  6
CONTINUOUS
 10
13.0482910665
 20
3.7705429149
 11
13.0809684986
 21
3.7705429149
  0
LINE
  5
689
100
AcDbEntity
  8
0
100
AcDbLine
 62
7
  6
CONTINUOUS
 10
13.4813621993
 20
3.8397361453
 11
13.46167716
 21
3.8397361453
  0
LINE
  5
68A
100
AcDbEntity
  8
0
100
AcDbLine
 62
6
  6
CONTINUOUS
 10
13.5010472387
 20
3.8397361453
 11
13.4813621993
 21
3.8397361453
  0
LINE
  5
68B
100
AcDbEntity
  8
0
100
AcDbLine
 62
7
  6
CONTINUOUS
 10
13.4207322781
 20
3.8692637044
 11
13.1270314907
 21
3.8692637044
  0
LINE
  5
68C
100
AcDbEntity
  8
0
100
AcDbLine
 62
6
  6
CONTINUOUS
 10
13.4404173175
 20
3.8692637044
 11
13.4207322781
 21
3.8692637044
  0
LINE
  5
68D
100
AcDbEntity
  8
0
100
AcDbLine
 62
7
  6
CONTINUOUS
 10
12.9695511757
 20
3.8954838554
 11
12.8514409395
 21
3.8954838554
  0
LINE
  5
68E
100
AcDbEntity
  8
0
100
AcDbLine
 62
6
  6
CONTINUOUS
 10
12.9498661364
 20
3.90408387
 11
12.8514409395
 21
3.90408387
  0
LINE
  5
68F
100
AcDbEntity
  8
02___PRT_ALL_AXES
100
AcDbLine
 62
7
  6
CONTINUOUS
 10
9.9518346403
 20
3.9086329563
 11
12.6545905458
 21
3.9086320555
  0
LINE
  5
690
100
AcDbEntity
  8
0
100
AcDbLine
 62
7
  6
CONTINUOUS
 10
13.0425272869
 20
3.3123185557
 11
12.9695511757
 21
3.2393424445
  0
LINE
  5
691
100
AcDbEntity
  8
0
100
AcDbLine
 62
6
  6
CONTINUOUS
 10
13.1073464513
 20
3.3602085862
 11
13.0809684986
 21
3.3338306335
  0
LINE
  5
692
100
AcDbEntity
  8
0
100
AcDbLine
 62
6
  6
CONTINUOUS
 10
13.0809684986
 20
3.9322558303
 11
13.0482910665
 21
3.9322558303
  0
LINE
  5
693
100
AcDbEntity
  8
AXIS
100
AcDbLine
 62
7
  6
CONTINUOUS
 10
13.0482910665
 20
3.9322558303
 11
13.0612834592
 21
3.9322558303
  0
LINE
  5
694
100
AcDbEntity
  8
0
100
AcDbLine
 62
7
  6
CONTINUOUS
 10
12.8514409395
 20
4.0184168869
 11
12.9695511757
 21
4.0184168869
  0
LINE
  5
695
100
AcDbEntity
  8
0
100
AcDbLine
 62
6
  6
CONTINUOUS
 10
12.8514409395
 20
4.0206389885
 11
12.9498661364
 21
4.0206389885
  0
LINE
  5
696
100
AcDbEntity
  8
0
100
AcDbLine
 62
7
  6
CONTINUOUS
 10
12.8514409395
 20
4.0267440193
 11
12.9695511757
 21
4.0267440193
  0
LWPOLYLINE
  5
697
100
AcDbEntity
  8
02___PRT_ALL_AXES
100
AcDbPolyline
 62
7
  6
CONTINUOUS
 90
30
 70
0
 10
12.6545905458
 20
3.9086320555
 10
12.6746198541
 20
3.9076212623
 10
12.6944647826
 20
3.9043734396
 10
12.713716741
 20
3.8985864181
 10
12.7318740357
 20
3.8900794284
 10
12.7487782788
 20
3.8786102232
 10
12.7642534999
 20
3.863933545
 10
12.7778918701
 20
3.8461789389
 10
12.7890677719
 20
3.8265253165
 10
12.7980240601
 20
3.8055740233
 10
12.8054582128
 20
3.7824691417
 10
12.8116768598
 20
3.7562277035
 10
12.8166954415
 20
3.7259861007
 10
12.8203087922
 20
3.6915285748
 10
12.8222253002
 20
3.6542291427
 10
12.8223189652
 20
3.6157347599
 10
12.8205484696
 20
3.5777524627
 10
12.8169885374
 20
3.5423105422
 10
12.8119463116
 20
3.5112145484
 10
12.8056831408
 20
3.4844319737
 10
12.7982153541
 20
3.4610298529
 10
12.7892472252
 20
3.4399276704
 10
12.7780636073
 20
3.4201689874
 10
12.7643885716
 20
3.4023032567
 10
12.748845426
 20
3.3875300602
 10
12.7318681705
 20
3.376003584
 10
12.7136739702
 20
3.3674837361
 10
12.6944315343
 20
3.3617053963
 10
12.674614876
 20
3.3584646511
 10
12.6545905458
 20
3.3574535061
  0
LINE
  5
698
100
AcDbEntity
  8
02___PRT_ALL_AXES
100
AcDbLine
 62
7
  6
CONTINUOUS
 10
12.4774251915
 20
4.647586939
 11
12.4774251915
 21
2.6184995248
  0
LINE
  5
699
100
AcDbEntity
  8
02___PRT_ALL_AXES
100
AcDbLine
 62
9
  6
CONTINUOUS
 10
12.6545905458
 20
4.6475887936
 11
12.6545905458
 21
3.9086321192
  0
LINE
  5
69A
100
AcDbEntity
  8
02___PRT_ALL_AXES
100
AcDbLine
 62
9
  6
CONTINUOUS
 10
12.6545905458
 20
3.3574543315
 11
12.6545905458
 21
2.6184976795
  0
LINE
  5
69B
100
AcDbEntity
  8
0
100
AcDbLine
 62
6
  6
CONTINUOUS
 10
13.46167716
 20
3.418082602
 11
13.4404173175
 21
3.3968227595
  0
LWPOLYLINE
  5
69C
100
AcDbEntity
  8
0
100
AcDbPolyline
 62
7
  6
CONTINUOUS
 90
3
 70
0
 10
12.8107488659
 20
2.628847058
 10
12.8286673747
 20
2.6424327476
 10
12.8417970463
 20
2.659253107
  0
LWPOLYLINE
  5
69D
100
AcDbEntity
  8
02___PRT_ALL_AXES
100
AcDbPolyline
 62
7
  6
CONTINUOUS
 90
3
 70
0
 10
12.8245513988
 20
2.6386921467
 10
12.8087769414
 20
2.6276909291
 10
12.7893710287
 20
2.6184995248
  0
LINE
  5
69E
100
AcDbEntity
  8
0
100
AcDbLine
 62
7
  6
CONTINUOUS
 10
12.7893731695
 20
2.6184995248
 11
12.8107488659
 21
2.628847058
  0
LINE
  5
69F
100
AcDbEntity
  8
0
100
AcDbLine
 62
7
  6
CONTINUOUS
 10
12.8514409395
 20
4.5680824858
 11
12.8514409395
 21
2.6980039711
  0
LWPOLYLINE
  5
6A0
100
AcDbEntity
  8
0
100
AcDbPolyline
 62
6
  6
CONTINUOUS
 90
4
 70
0
 10
13.0809684986
 20
3.495543549
 10
13.091601566
 20
3.5205251142
 10
13.1004268246
 20
3.545607369
 10
13.1073464513
 20
3.5712635619
  0
LWPOLYLINE
  5
6A1
100
AcDbEntity
  8
0
100
AcDbPolyline
 62
7
  6
CONTINUOUS
 90
4
 70
0
 10
13.0612834592
 20
3.3473921898
 10
13.072282756
 20
3.3654918518
 10
13.0810188051
 20
3.3828252283
 10
13.0876614119
 20
3.3996735995
  0
LINE
  5
6A2
100
AcDbEntity
  8
02___PRT_ALL_AXES
100
AcDbLine
 62
7
  6
CONTINUOUS
 10
12.836428058
 20
2.6511457438
 11
12.8245513988
 21
2.6386921467
  0
LINE
  5
6A3
100
AcDbEntity
  8
02___PRT_ALL_AXES
100
AcDbLine
 62
7
  6
CONTINUOUS
 10
9.6322992072
 20
4.4135550429
 11
9.6203385773
 21
4.4135550429
  0
LINE
  5
6A4
100
AcDbEntity
  8
02___PRT_ALL_AXES
100
AcDbLine
 62
7
  6
CONTINUOUS
 10
12.8514409395
 20
4.568082602
 11
12.8497002433
 21
4.5857251498
  0
LINE
  5
6A5
100
AcDbEntity
  8
0
100
AcDbLine
 62
6
  6
CONTINUOUS
 10
12.9498661364
 20
4.0267440193
 11
12.9498661364
 21
4.0206389885
  0
LINE
  5
6A6
100
AcDbEntity
  8
0
100
AcDbLine
 62
6
  6
CONTINUOUS
 10
12.9498661364
 20
3.90408387
 11
12.9498661364
 21
3.7670299106
  0
LINE
  5
6A7
100
AcDbEntity
  8
0
100
AcDbLine
 62
6
  6
CONTINUOUS
 10
12.9498661364
 20
3.5212723019
 11
12.9498661364
 21
3.379434154
  0
LINE
  5
6A8
100
AcDbEntity
  8
0
100
AcDbLine
 62
6
  6
CONTINUOUS
 10
12.9498661364
 20
3.2502316638
 11
12.9498661364
 21
3.2393424445
  0
LINE
  5
6A9
100
AcDbEntity
  8
0
100
AcDbLine
 62
7
  6
CONTINUOUS
 10
12.9695511757
 20
4.0267440193
 11
12.9695511757
 21
4.0184168869
  0
LINE
  5
6AA
100
AcDbEntity
  8
0
100
AcDbLine
 62
7
  6
CONTINUOUS
 10
12.9695511757
 20
3.8954838554
 11
12.9695511757
 21
3.7559762634
  0
LINE
  5
6AB
100
AcDbEntity
  8
0
100
AcDbLine
 62
7
  6
CONTINUOUS
 10
12.9695511757
 20
3.5101102005
 11
12.9695511757
 21
3.3706026084
  0
LINE
  5
6AC
100
AcDbEntity
  8
0
100
AcDbLine
 62
7
  6
CONTINUOUS
 10
12.9695511757
 20
3.247669577
 11
12.9695511757
 21
3.2393424445
  0
LINE
  5
6AD
100
AcDbEntity
  8
0
100
AcDbLine
 62
9
  6
CONTINUOUS
 10
13.0425272869
 20
3.9537679081
 11
13.0425272869
 21
3.3123185557
  0
LINE
  5
6AE
100
AcDbEntity
  8
0
100
AcDbLine
 62
7
  6
CONTINUOUS
 10
13.0482910665
 20
3.9398503185
 11
13.0482910665
 21
3.3262361453
  0
LINE
  5
6AF
100
AcDbEntity
  8
02___PRT_ALL_AXES
100
AcDbLine
 62
7
  6
CONTINUOUS
 10
12.8514409395
 20
2.6980038618
 11
12.8497002433
 21
2.680361314
  0
LINE
  5
6B0
100
AcDbEntity
  8
0
100
AcDbLine
 62
7
  6
CONTINUOUS
 10
12.8492386966
 20
2.6782820413
 11
12.8514409395
 21
2.6980019211
  0
LINE
  5
6B1
100
AcDbEntity
  8
02___PRT_ALL_AXES
100
AcDbLine
 62
7
  6
CONTINUOUS
 10
12.8497002433
 20
2.680361314
 11
12.8446957233
 21
2.6649355637
  0
LINE
  5
6B2
100
AcDbEntity
  8
0
100
AcDbLine
 62
7
  6
CONTINUOUS
 10
12.8417970463
 20
2.659253107
 11
12.8492386966
 21
2.6782820413
  0
LINE
  5
6B3
100
AcDbEntity
  8
02___PRT_ALL_AXES
100
AcDbLine
 62
7
  6
CONTINUOUS
 10
12.8446957233
 20
2.6649355637
 11
12.836428058
 21
2.6511457438
  0
LINE
  5
6B4
100
AcDbEntity
  8
02___PRT_ALL_AXES
100
AcDbLine
 62
7
  6
CONTINUOUS
 10
9.7352992072
 20
4.4956416571
 11
9.774669286
 21
4.4956416571
  0
LINE
  5
6B5
100
AcDbEntity
  8
02___PRT_ALL_AXES
100
AcDbLine
 62
7
  6
CONTINUOUS
 10
9.6006535368
 20
4.4991849642
 11
9.4628582635
 21
4.4991849642
  0
LINE
  5
6B6
100
AcDbEntity
  8
02___PRT_ALL_AXES
100
AcDbLine
 62
7
  6
CONTINUOUS
 10
9.8170519351
 20
4.647586939
 11
12.7893700561
 21
4.647586939
  0
LWPOLYLINE
  5
6B7
100
AcDbEntity
  8
0
100
AcDbPolyline
 62
7
  6
CONTINUOUS
 90
7
 70
0
 10
12.9695511757
 20
3.3706026084
 10
12.9806137611
 20
3.349522401
 10
12.9870995888
 20
3.3291563297
 10
12.9892367813
 20
3.3091360927
 10
12.9870995888
 20
3.2891158557
 10
12.9806137611
 20
3.2687497844
 10
12.9695511757
 20
3.247669577
  0
LINE
  5
6B8
100
AcDbEntity
  8
0
100
AcDbLine
 62
7
  6
CONTINUOUS
 10
12.8514409395
 20
4.5680852433
 11
12.8492386967
 21
4.5878051371
  0
LINE
  5
6B9
100
AcDbEntity
  8
0
100
AcDbLine
 62
6
  6
CONTINUOUS
 10
13.0612834592
 20
3.5439833577
 11
13.0612834592
 21
3.4792024364
  0
LINE
  5
6BA
100
AcDbEntity
  8
0
100
AcDbLine
 62
7
  6
CONTINUOUS
 10
13.0612834592
 20
3.3473921898
 11
13.0612834592
 21
3.3338306335
  0
LINE
  5
6BB
100
AcDbEntity
  8
0
100
AcDbLine
 62
7
  6
CONTINUOUS
 10
13.0612834592
 20
3.5439833577
 11
13.0612834592
 21
3.9322558303
  0
LINE
  5
6BC
100
AcDbEntity
  8
0
100
AcDbLine
 62
6
  6
CONTINUOUS
 10
13.0809684986
 20
3.9322558303
 11
13.0809684986
 21
3.7705429149
  0
LINE
  5
6BD
100
AcDbEntity
  8
0
100
AcDbLine
 62
6
  6
CONTINUOUS
 10
13.0809684986
 20
3.495543549
 11
13.0809684986
 21
3.3338306335
  0
LINE
  5
6BE
100
AcDbEntity
  8
0
100
AcDbLine
 62
7
  6
CONTINUOUS
 10
13.0876614119
 20
3.7675214474
 11
13.0876614119
 21
3.4985650165
  0
LINE
  5
6BF
100
AcDbEntity
  8
0
100
AcDbLine
 62
6
  6
CONTINUOUS
 10
13.0876614119
 20
3.4985650165
 11
13.0876614119
 21
3.491701948
  0
LINE
  5
6C0
100
AcDbEntity
  8
0
100
AcDbLine
 62
6
  6
CONTINUOUS
 10
13.1073464513
 20
3.3602088675
 11
13.1073464513
 21
3.9058778776
  0
LINE
  5
6C1
100
AcDbEntity
  8
0
100
AcDbLine
 62
9
  6
CONTINUOUS
 10
13.1270314907
 20
3.3968227595
 11
13.1270314907
 21
3.8692637044
  0
LINE
  5
6C2
100
AcDbEntity
  8
0
100
AcDbLine
 62
7
  6
CONTINUOUS
 10
13.0425272869
 20
3.9537679081
 11
12.9695511757
 21
4.0267440193
  0
LINE
  5
6C3
100
AcDbEntity
  8
0
100
AcDbLine
 62
6
  6
CONTINUOUS
 10
13.1073464513
 20
3.9058778776
 11
13.0809684986
 21
3.9322558303
  0
LWPOLYLINE
  5
6C4
100
AcDbEntity
  8
0
100
AcDbPolyline
 62
6
  6
CONTINUOUS
 90
7
 70
0
 10
12.9498661364
 20
4.0206389885
 10
12.9609287218
 20
4.0006524475
 10
12.9674145494
 20
3.9813429924
 10
12.9695517419
 20
3.9623614293
 10
12.9674145494
 20
3.9433798661
 10
12.9609287218
 20
3.924070411
 10
12.9498661364
 20
3.90408387
  0
LWPOLYLINE
  5
6C5
100
AcDbEntity
  8
0
100
AcDbPolyline
 62
7
  6
CONTINUOUS
 90
7
 70
0
 10
12.9695511757
 20
4.0184168869
 10
12.9806137611
 20
3.9973366795
 10
12.9870995888
 20
3.9769706082
 10
12.9892367813
 20
3.9569503711
 10
12.9870995888
 20
3.9369301341
 10
12.9806137611
 20
3.9165640628
 10
12.9695511757
 20
3.8954838554
  0
LINE
  5
6C6
100
AcDbEntity
  8
0
100
AcDbLine
 62
6
  6
CONTINUOUS
 10
13.0916021373
 20
3.7455598854
 11
13.0809684986
 21
3.7705429149
  0
LWPOLYLINE
  5
6C7
100
AcDbEntity
  8
0
100
AcDbPolyline
 62
7
  6
CONTINUOUS
 90
4
 70
0
 10
13.0876614119
 20
3.491701948
 10
13.0809916498
 20
3.5086106574
 10
13.0722464794
 20
3.5259488599
 10
13.0612834592
 20
3.5439833577
  0
LINE
  5
6C8
100
AcDbEntity
  8
02___PRT_ALL_AXES
100
AcDbLine
 62
7
  6
CONTINUOUS
 10
12.8497002433
 20
4.5857251498
 11
12.8446957233
 21
4.6011509001
  0
LWPOLYLINE
  5
6C9
100
AcDbEntity
  8
0
100
AcDbPolyline
 62
6
  6
CONTINUOUS
 90
3
 70
0
 10
13.1073464513
 20
3.694822902
 10
13.1004273058
 20
3.7204775538
 10
13.0916021373
 20
3.7455598854
  0
LWPOLYLINE
  5
6CA
100
AcDbEntity
  8
0
100
AcDbPolyline
 62
6
  6
CONTINUOUS
 90
7
 70
0
 10
12.9498661364
 20
3.7670299106
 10
12.9609287218
 20
3.7248880932
 10
12.9674145494
 20
3.684173918
 10
12.9695517419
 20
3.6441511062
 10
12.9674145494
 20
3.6041282944
 10
12.9609287218
 20
3.5634141192
 10
12.9498661364
 20
3.5212723019
  0
LWPOLYLINE
  5
6CB
100
AcDbEntity
  8
0
100
AcDbPolyline
 62
7
  6
CONTINUOUS
 90
7
 70
0
 10
12.9695511757
 20
3.7559762634
 10
12.9806137589
 20
3.7138158481
 10
12.9870990491
 20
3.6730836485
 10
12.9892362151
 20
3.6330432319
 10
12.9870990491
 20
3.5930028153
 10
12.9806137589
 20
3.5522706157
 10
12.9695511757
 20
3.5101102005
  0
LINE
  5
6CC
100
AcDbEntity
  8
0
100
AcDbLine
 62
7
  6
CONTINUOUS
 10
13.4207322781
 20
3.8692637044
 11
13.4207322781
 21
3.3968227595
  0
LINE
  5
6CD
100
AcDbEntity
  8
0
100
AcDbLine
 62
6
  6
CONTINUOUS
 10
13.4404173175
 20
3.8692637044
 11
13.4404173175
 21
3.3968227595
  0
LINE
  5
6CE
100
AcDbEntity
  8
0
100
AcDbLine
 62
7
  6
CONTINUOUS
 10
12.8107488545
 20
4.6372386603
 11
12.7893712227
 21
4.647586939
  0
LINE
  5
6CF
100
AcDbEntity
  8
0
100
AcDbLine
 62
6
  6
CONTINUOUS
 10
13.46167716
 20
3.8480038618
 11
13.4404173175
 21
3.8692637044
  0
LINE
  5
6D0
100
AcDbEntity
  8
02___PRT_ALL_AXES
100
AcDbLine
 62
7
  6
CONTINUOUS
 10
12.8446957233
 20
4.6011509001
 11
12.836428058
 21
4.61494072
  0
LINE
  5
6D1
100
AcDbEntity
  8
0
100
AcDbLine
 62
7
  6
CONTINUOUS
 10
12.8492386967
 20
4.5878051371
 11
12.8417970488
 21
4.606834082
  0
LINE
  5
6D2
100
AcDbEntity
  8
0
100
AcDbLine
 62
6
  6
CONTINUOUS
 10
13.46167716
 20
3.8480038618
 11
13.46167716
 21
3.418082602
  0
LINE
  5
6D3
100
AcDbEntity
  8
0
100
AcDbLine
 62
7
  6
CONTINUOUS
 10
13.4813621993
 20
3.8397358669
 11
13.4813621993
 21
3.4263505969
  0
LINE
  5
6D4
100
AcDbEntity
  8
0
100
AcDbLine
 62
6
  6
CONTINUOUS
 10
13.5010472387
 20
3.8397387089
 11
13.5010472387
 21
3.4263477549
  0
LWPOLYLINE
  5
6D5
100
AcDbEntity
  8
02___PRT_ALL_AXES
100
AcDbPolyline
 62
7
  6
CONTINUOUS
 90
3
 70
0
 10
12.8245513988
 20
4.6273943172
 10
12.8087769414
 20
4.6383955347
 10
12.7893710287
 20
4.647586939
  0
LINE
  5
6D6
100
AcDbEntity
  8
0
100
AcDbLine
 62
7
  6
CONTINUOUS
 10
12.8286673675
 20
4.6236529811
 11
12.8107488545
 21
4.6372386603
  0
LINE
  5
6D7
100
AcDbEntity
  8
02___PRT_ALL_AXES
100
AcDbLine
 62
7
  6
CONTINUOUS
 10
12.836428058
 20
4.61494072
 11
12.8245513988
 21
4.6273943172
  0
LINE
  5
6D8
100
AcDbEntity
  8
0
100
AcDbLine
 62
7
  6
CONTINUOUS
 10
12.8417970463
 20
4.6068333569
 11
12.8286673675
 21
4.6236529811
  0
LINE
  5
6D9
100
AcDbEntity
  8
0
100
AcDbLine
 62
7
  6
CONTINUOUS
 10
9.443173223
 20
12.9729520696
 11
9.443173223
 21
14.6658654554
  0
LINE
  5
6DA
100
AcDbEntity
  8
0
100
AcDbLine
 62
7
  6
CONTINUOUS
 10
9.4628582623
 20
12.9532670302
 11
9.4628582623
 21
14.6855504948
  0
LINE
  5
6DB
100
AcDbEntity
  8
0
100
AcDbLine
 62
7
  6
CONTINUOUS
 10
9.4431731751
 20
14.6658655033
 11
9.4628582133
 21
14.6855505438
  0
LINE
  5
6DC
100
AcDbEntity
  8
0
100
AcDbLine
 62
7
  6
CONTINUOUS
 10
9.443173175
 20
12.9729520217
 11
9.4628582133
 21
12.9532669812
  0
LINE
  5
6DD
100
AcDbEntity
  8
0
100
AcDbLine
 62
7
  6
CONTINUOUS
 10
9.6006535379
 20
14.6855504948
 11
9.6006535379
 21
12.9532670302
  0
LINE
  5
6DE
100
AcDbEntity
  8
0
100
AcDbLine
 62
7
  6
CONTINUOUS
 10
9.6203385773
 20
14.6658654554
 11
9.6203385773
 21
12.9729520696
  0
LINE
  5
6DF
100
AcDbEntity
  8
AXIS
100
AcDbLine
 62
7
  6
CONTINUOUS
 10
9.6322992072
 20
13.0179087625
 11
9.6322992072
 21
14.6209087625
  0
LINE
  5
6E0
100
AcDbEntity
  8
0
100
AcDbLine
 62
7
  6
CONTINUOUS
 10
9.7839188567
 20
14.8154503576
 11
9.7814985258
 21
14.8134351145
  0
LINE
  5
6E1
100
AcDbEntity
  8
02___PRT_ALL_AXES
100
AcDbLine
 62
7
  6
CONTINUOUS
 10
9.7352992072
 20
14.6820071877
 11
9.7352992072
 21
12.9568103373
  0
LINE
  5
6E2
100
AcDbEntity
  8
0
100
AcDbLine
 62
7
  6
CONTINUOUS
 10
9.774669286
 20
14.79852019
 11
9.774669286
 21
12.840297335
  0
LINE
  5
6E3
100
AcDbEntity
  8
0
100
AcDbLine
 62
9
  6
CONTINUOUS
 10
9.7814985236
 20
14.8134351127
 11
9.7814985236
 21
12.8253824123
  0
LWPOLYLINE
  5
6E4
100
AcDbEntity
  8
02___PRT_ALL_AXES
100
AcDbPolyline
 62
7
  6
CONTINUOUS
 90
12
 70
0
 10
9.8170541504
 20
13.8194037919
 10
9.8183739518
 20
13.8517796383
 10
9.8223046172
 20
13.8825356623
 10
9.8287663503
 20
13.9110019795
 10
9.8376665827
 20
13.9364978478
 10
9.8485494672
 20
13.9580323069
 10
9.860896806
 20
13.9754429846
 10
9.8749830716
 20
13.9896669505
 10
9.8917352893
 20
14.0013680511
 10
9.9108800067
 20
14.0098775563
 10
9.93130092
 20
14.0147496596
 10
9.9518346403
 20
14.0162543878
  0
LWPOLYLINE
  5
6E5
100
AcDbEntity
  8
0
100
AcDbPolyline
 62
7
  6
CONTINUOUS
 90
7
 70
0
 10
9.7814985258
 20
12.8253824105
 10
9.7997384698
 20
12.8128864421
 10
9.8255104825
 20
12.8018068132
 10
9.8545544291
 20
12.7941539001
 10
9.8863988587
 20
12.7892391692
 10
9.9208824816
 20
12.7866066213
 10
9.9518346403
 20
12.785945154
  0
LINE
  5
6E6
100
AcDbEntity
  8
02___PRT_ALL_AXES
100
AcDbLine
 62
9
  6
CONTINUOUS
 10
9.9518346403
 20
14.8154508159
 11
9.9518346403
 21
14.0162496195
  0
LINE
  5
6E7
100
AcDbEntity
  8
02___PRT_ALL_AXES
100
AcDbLine
 62
9
  6
CONTINUOUS
 10
9.9518346403
 20
13.6225678976
 11
9.9518346403
 21
12.7859441956
  0
LINE
  5
6E8
100
AcDbEntity
  8
02___PRT_ALL_AXES
100
AcDbLine
 62
7
  6
CENTER
 10
10.022700782
 20
13.8194087625
 11
10.022700782
 21
13.540461753
  0
LINE
  5
6E9
100
AcDbEntity
  8
02___PRT_ALL_AXES
100
AcDbLine
 62
7
  6
CENTER
 10
10.022700782
 20
13.8194087625
 11
10.022700782
 21
14.098355772
  0
LINE
  5
6EA
100
AcDbEntity
  8
02___PRT_ALL_AXES
100
AcDbLine
 62
7
  6
CONTINUOUS
 10
10.180181097
 20
14.8154503576
 11
10.180181097
 21
12.7859441956
  0
LWPOLYLINE
  5
6EB
100
AcDbEntity
  8
0
100
AcDbPolyline
 62
7
  6
CONTINUOUS
 90
11
 70
0
 10
12.6545905458
 20
12.785945156
 10
12.6804044816
 20
12.7863985433
 10
12.7105089294
 20
12.788275491
 10
12.7387561836
 20
12.791776368
 10
12.7650568068
 20
12.7971601445
 10
12.7891923397
 20
12.8047983779
 10
12.8107488072
 20
12.8152163233
 10
12.8286673376
 20
12.8288019611
 10
12.8417970358
 20
12.8456215453
 10
12.8492386959
 20
12.8646504382
 10
12.8514409395
 20
12.8843702614
  0
LINE
  5
6EC
100
AcDbEntity
  8
02___PRT_ALL_AXES
100
AcDbLine
 62
7
  6
CONTINUOUS
 10
9.9518346403
 20
12.7859441956
 11
12.6545905458
 21
12.7859441956
  0
LINE
  5
6ED
100
AcDbEntity
  8
02___PRT_ALL_AXES
100
AcDbLine
 62
7
  6
CONTINUOUS
 10
9.6006535379
 20
12.9532670302
 11
9.4628582623
 21
12.9532670302
  0
LINE
  5
6EE
100
AcDbEntity
  8
02___PRT_ALL_AXES
100
AcDbLine
 62
7
  6
CONTINUOUS
 10
9.7352992072
 20
12.9568103373
 11
9.774669286
 21
12.9568103373
  0
LINE
  5
6EF
100
AcDbEntity
  8
02___PRT_ALL_AXES
100
AcDbLine
 62
7
  6
CONTINUOUS
 10
9.6322992072
 20
13.0388969515
 11
9.6203385773
 21
13.0388969515
  0
LINE
  5
6F0
100
AcDbEntity
  8
0
100
AcDbLine
 62
7
  6
CONTINUOUS
 10
9.6203386252
 20
12.9729520217
 11
9.600653587
 21
12.9532669812
  0
LINE
  5
6F1
100
AcDbEntity
  8
0
100
AcDbLine
 62
7
  6
CONTINUOUS
 10
9.6203386252
 20
14.6658655033
 11
9.600653587
 21
14.6855505438
  0
LINE
  5
6F2
100
AcDbEntity
  8
0
100
AcDbLine
 62
6
  6
CONTINUOUS
 10
12.9498661364
 20
13.4419070152
 11
12.8514409395
 21
13.4419070152
  0
LINE
  5
6F3
100
AcDbEntity
  8
0
100
AcDbLine
 62
7
  6
CONTINUOUS
 10
12.8514409395
 20
13.4453930145
 11
12.9892367813
 21
13.4453930145
  0
LINE
  5
6F4
100
AcDbEntity
  8
0
100
AcDbLine
 62
6
  6
CONTINUOUS
 10
12.8514409395
 20
13.4492089787
 11
12.9498661364
 21
13.4492089787
  0
LWPOLYLINE
  5
6F5
100
AcDbEntity
  8
02___PRT_ALL_AXES
100
AcDbPolyline
 62
7
  6
CONTINUOUS
 90
10
 70
0
 10
9.951838411
 20
13.6225678975
 10
9.9255010294
 20
13.6250744308
 10
9.9018876162
 20
13.6323910196
 10
9.8805703169
 20
13.6447143278
 10
9.8613421034
 20
13.6628458737
 10
9.8450487576
 20
13.6869166356
 10
9.8322068503
 20
13.7167355764
 10
9.8234195457
 20
13.7502660599
 10
9.8185372936
 20
13.785138871
 10
9.8170541504
 20
13.8194037919
  0
LINE
  5
6F6
100
AcDbEntity
  8
0
100
AcDbLine
 62
6
  6
CONTINUOUS
 10
13.0612834592
 20
13.5201961641
 11
13.0482910665
 21
13.5201961641
  0
LINE
  5
6F7
100
AcDbEntity
  8
AXIS
100
AcDbLine
 62
7
  6
CONTINUOUS
 10
13.0482910665
 20
13.5201961641
 11
13.0612834592
 21
13.5201961641
  0
LINE
  5
6F8
100
AcDbEntity
  8
0
100
AcDbLine
 62
7
  6
CONTINUOUS
 10
12.9695511757
 20
13.5259377603
 11
12.8514409395
 21
13.5259377603
  0
LINE
  5
6F9
100
AcDbEntity
  8
0
100
AcDbLine
 62
6
  6
CONTINUOUS
 10
12.9498661364
 20
13.533861424
 11
12.8514409395
 21
13.533861424
  0
LINE
  5
6FA
100
AcDbEntity
  8
0
100
AcDbLine
 62
6
  6
CONTINUOUS
 10
13.0482910665
 20
13.553660731
 11
13.1073464513
 21
13.553660731
  0
LINE
  5
6FB
100
AcDbEntity
  8
0
100
AcDbLine
 62
7
  6
CONTINUOUS
 10
13.4207322781
 20
13.5831882901
 11
13.1270314907
 21
13.5831882901
  0
LINE
  5
6FC
100
AcDbEntity
  8
0
100
AcDbLine
 62
6
  6
CONTINUOUS
 10
13.4404173175
 20
13.5831882901
 11
13.4207322781
 21
13.5831882901
  0
LINE
  5
6FD
100
AcDbEntity
  8
0
100
AcDbLine
 62
7
  6
CONTINUOUS
 10
13.4813621993
 20
13.6127158491
 11
13.46167716
 21
13.6127158491
  0
LINE
  5
6FE
100
AcDbEntity
  8
0
100
AcDbLine
 62
6
  6
CONTINUOUS
 10
13.5010472387
 20
13.6127158491
 11
13.4813621993
 21
13.6127158491
  0
LINE
  5
6FF
100
AcDbEntity
  8
02___PRT_ALL_AXES
100
AcDbLine
 62
7
  6
CONTINUOUS
 10
9.951838411
 20
13.6225678975
 11
10.180181097
 21
13.6225583688
  0
LINE
  5
700
100
AcDbEntity
  8
02___PRT_ALL_AXES
100
AcDbLine
 62
7
  6
CONTINUOUS
 10
12.4774251915
 20
13.6225583688
 11
12.6545905458
 21
13.6225631482
  0
LINE
  5
701
100
AcDbEntity
  8
02___PRT_ALL_AXES
100
AcDbLine
 62
7
  6
CONTINUOUS
 10
12.4774251915
 20
13.6225583688
 11
10.180181097
 21
13.6225583688
  0
LINE
  5
702
100
AcDbEntity
  8
0
100
AcDbLine
 62
9
  6
CONTINUOUS
 10
9.7814985058
 20
13.8194116545
 11
9.774669286
 21
13.8194088016
  0
LINE
  5
703
100
AcDbEntity
  8
0
100
AcDbLine
 62
7
  6
CONTINUOUS
 10
12.8514409395
 20
13.7388640167
 11
12.9695511757
 21
13.7388640167
  0
LINE
  5
704
100
AcDbEntity
  8
0
100
AcDbLine
 62
6
  6
CONTINUOUS
 10
12.8514409395
 20
13.7503447381
 11
12.9498661364
 21
13.7503447381
  0
LINE
  5
705
100
AcDbEntity
  8
02___PRT_ALL_AXES
100
AcDbLine
 62
9
  6
CONTINUOUS
 10
12.8514409395
 20
13.8194087637
 11
12.7893710287
 21
13.8194087621
  0
LINE
  5
706
100
AcDbEntity
  8
02___PRT_ALL_AXES
100
AcDbLine
 62
7
  6
CENTER
 10
12.6349055064
 20
13.8194087625
 11
12.3097301481
 21
13.8194087625
  0
LINE
  5
707
100
AcDbEntity
  8
02___PRT_ALL_AXES
100
AcDbLine
 62
7
  6
CENTER
 10
10.022700782
 20
13.8194087625
 11
9.7437537725
 21
13.8194087625
  0
LINE
  5
708
100
AcDbEntity
  8
02___PRT_ALL_AXES
100
AcDbLine
 62
7
  6
CENTER
 10
9.2261999564
 20
13.8194087625
 11
9.7045369391
 21
13.8194087625
  0
LINE
  5
709
100
AcDbEntity
  8
02___PRT_ALL_AXES
100
AcDbLine
 62
7
  6
CENTER
 10
10.022700782
 20
13.8194087625
 11
10.3016477915
 21
13.8194087625
  0
LINE
  5
70A
100
AcDbEntity
  8
02___PRT_ALL_AXES
100
AcDbLine
 62
7
  6
CENTER
 10
10.3399624511
 20
13.8194087625
 11
12.2602032057
 21
13.8194087625
  0
LINE
  5
70B
100
AcDbEntity
  8
02___PRT_ALL_AXES
100
AcDbLine
 62
7
  6
CENTER
 10
12.6349055064
 20
13.8194087625
 11
12.7893710287
 21
13.8194087621
  0
LINE
  5
70C
100
AcDbEntity
  8
02___PRT_ALL_AXES
100
AcDbLine
 62
7
  6
CENTER
 10
12.8514409395
 20
13.8194087637
 11
12.9600808648
 21
13.8194087625
  0
LINE
  5
70D
100
AcDbEntity
  8
02___PRT_ALL_AXES
100
AcDbLine
 62
7
  6
CENTER
 10
12.9961996621
 20
13.8194087625
 11
13.695624866
 21
13.8194087625
  0
LINE
  5
70E
100
AcDbEntity
  8
0
100
AcDbLine
 62
9
  6
CONTINUOUS
 10
13.1073464513
 20
13.8194087625
 11
13.1270314907
 21
13.8194087625
  0
LINE
  5
70F
100
AcDbEntity
  8
0
100
AcDbLine
 62
9
  6
CONTINUOUS
 10
9.8170539351
 20
13.8194087647
 11
9.7814984603
 21
13.8194087644
  0
LINE
  5
710
100
AcDbEntity
  8
0
100
AcDbLine
 62
6
  6
CONTINUOUS
 10
13.0612834592
 20
13.8420753232
 11
13.0482910665
 21
13.8420753232
  0
LINE
  5
711
100
AcDbEntity
  8
0
100
AcDbLine
 62
7
  6
CONTINUOUS
 10
12.9695511757
 20
13.8999535083
 11
12.8514409395
 21
13.8999535083
  0
LINE
  5
712
100
AcDbEntity
  8
0
100
AcDbLine
 62
7
  6
CONTINUOUS
 10
13.0482910665
 20
13.9084686367
 11
13.0612834592
 21
13.9084686367
  0
LINE
  5
713
100
AcDbEntity
  8
0
100
AcDbLine
 62
6
  6
CONTINUOUS
 10
12.9498661364
 20
13.9113631713
 11
12.8514409395
 21
13.9113631713
  0
LINE
  5
714
100
AcDbEntity
  8
02___PRT_ALL_AXES
100
AcDbLine
 62
7
  6
CONTINUOUS
 10
12.4774251915
 20
14.0162591562
 11
10.180181097
 21
14.0162591562
  0
LINE
  5
715
100
AcDbEntity
  8
02___PRT_ALL_AXES
100
AcDbLine
 62
7
  6
CONTINUOUS
 10
9.9518346403
 20
14.0162543878
 11
10.180181097
 21
14.0162591562
  0
LINE
  5
716
100
AcDbEntity
  8
0
100
AcDbLine
 62
7
  6
CONTINUOUS
 10
13.4813621993
 20
14.0261016759
 11
13.46167716
 21
14.0261016759
  0
LINE
  5
717
100
AcDbEntity
  8
0
100
AcDbLine
 62
6
  6
CONTINUOUS
 10
13.5010472387
 20
14.0261016759
 11
13.4813621993
 21
14.0261016759
  0
LINE
  5
718
100
AcDbEntity
  8
0
100
AcDbLine
 62
7
  6
CONTINUOUS
 10
13.4207322781
 20
14.0556292349
 11
13.1270314907
 21
14.0556292349
  0
LINE
  5
719
100
AcDbEntity
  8
0
100
AcDbLine
 62
6
  6
CONTINUOUS
 10
13.4404173175
 20
14.0556292349
 11
13.4207322781
 21
14.0556292349
  0
LINE
  5
71A
100
AcDbEntity
  8
0
100
AcDbLine
 62
6
  6
CONTINUOUS
 10
13.0482910665
 20
14.0760431108
 11
13.0612834592
 21
14.0760431108
  0
LINE
  5
71B
100
AcDbEntity
  8
0
100
AcDbLine
 62
6
  6
CONTINUOUS
 10
13.0482910665
 20
14.085156794
 11
13.1073464513
 21
14.085156794
  0
LINE
  5
71C
100
AcDbEntity
  8
0
100
AcDbLine
 62
7
  6
CONTINUOUS
 10
13.0482910665
 20
14.1050598046
 11
13.0612834592
 21
14.1050598046
  0
LINE
  5
71D
100
AcDbEntity
  8
0
100
AcDbLine
 62
7
  6
CONTINUOUS
 10
12.8514409395
 20
14.1128797647
 11
12.9695511757
 21
14.1128797647
  0
LINE
  5
71E
100
AcDbEntity
  8
0
100
AcDbLine
 62
6
  6
CONTINUOUS
 10
13.0612834592
 20
14.1186213609
 11
13.0482910665
 21
14.1186213609
  0
LINE
  5
71F
100
AcDbEntity
  8
AXIS
100
AcDbLine
 62
7
  6
CONTINUOUS
 10
13.0482910665
 20
14.1186213609
 11
13.0612834592
 21
14.1186213609
  0
LINE
  5
720
100
AcDbEntity
  8
0
100
AcDbLine
 62
6
  6
CONTINUOUS
 10
12.8514409395
 20
14.1205445219
 11
12.9498661364
 21
14.1205445219
  0
LINE
  5
721
100
AcDbEntity
  8
02___PRT_ALL_AXES
100
AcDbLine
 62
7
  6
CONTINUOUS
 10
12.4774251915
 20
14.0162591562
 11
12.6545905458
 21
14.0162494663
  0
LWPOLYLINE
  5
722
100
AcDbEntity
  8
02___PRT_ALL_AXES
100
AcDbPolyline
 62
7
  6
CONTINUOUS
 90
12
 70
0
 10
12.6545905458
 20
14.0162494663
 10
12.6743959466
 20
14.0148566251
 10
12.693929788
 20
14.0104055634
 10
12.7123570609
 20
14.002649732
 10
12.7288096322
 20
13.9918302423
 10
12.7432365552
 20
13.9781021786
 10
12.7559758281
 20
13.9611044971
 10
12.7669900901
 20
13.9405463149
 10
12.7761950088
 20
13.9159491037
 10
12.7832473917
 20
13.8872997263
 10
12.7877624332
 20
13.8550671213
 10
12.7893720143
 20
13.8194305539
  0
LINE
  5
723
100
AcDbEntity
  8
0
100
AcDbLine
 62
7
  6
CONTINUOUS
 10
12.9892362151
 20
14.1934245105
 11
12.8514409395
 21
14.1934245105
  0
LINE
  5
724
100
AcDbEntity
  8
0
100
AcDbLine
 62
6
  6
CONTINUOUS
 10
12.9498661364
 20
14.1969105098
 11
12.8514409395
 21
14.1969105098
  0
LWPOLYLINE
  5
725
100
AcDbEntity
  8
0
100
AcDbPolyline
 62
6
  6
CONTINUOUS
 90
4
 70
0
 10
12.9693880379
 20
13.4452273744
 10
12.9674145494
 20
13.444368837
 10
12.9609287218
 20
13.4431591352
 10
12.9498661364
 20
13.4419070152
  0
LINE
  5
726
100
AcDbEntity
  8
02___PRT_ALL_AXES
100
AcDbLine
 62
7
  6
CONTINUOUS
 10
9.6322992072
 20
14.5999205735
 11
9.6203385773
 21
14.5999205735
  0
LINE
  5
727
100
AcDbEntity
  8
02___PRT_ALL_AXES
100
AcDbLine
 62
7
  6
CONTINUOUS
 10
9.7352992072
 20
14.6820071877
 11
9.774669286
 21
14.6820071877
  0
LINE
  5
728
100
AcDbEntity
  8
02___PRT_ALL_AXES
100
AcDbLine
 62
7
  6
CONTINUOUS
 10
9.6006535379
 20
14.6855504948
 11
9.4628582623
 21
14.6855504948
  0
LINE
  5
729
100
AcDbEntity
  8
02___PRT_ALL_AXES
100
AcDbLine
 62
7
  6
CONTINUOUS
 10
12.4774251915
 20
14.8154503576
 11
12.4774251915
 21
12.7859441956
  0
LINE
  5
72A
100
AcDbEntity
  8
02___PRT_ALL_AXES
100
AcDbLine
 62
7
  6
CONTINUOUS
 10
9.7839198032
 20
14.8154503576
 11
12.8225052112
 21
14.8154503576
  0
LWPOLYLINE
  5
72B
100
AcDbEntity
  8
0
100
AcDbPolyline
 62
6
  6
CONTINUOUS
 90
4
 70
0
 10
12.9693880379
 20
14.1935901506
 10
12.9674145494
 20
14.194448688
 10
12.9609287218
 20
14.1956583898
 10
12.9498661364
 20
14.1969105098
  0
LINE
  5
72C
100
AcDbEntity
  8
02___PRT_ALL_AXES
100
AcDbLine
 62
7
  6
CENTER
 10
12.6349055064
 20
13.8194087625
 11
12.6349055064
 21
13.4942334041
  0
LINE
  5
72D
100
AcDbEntity
  8
02___PRT_ALL_AXES
100
AcDbLine
 62
7
  6
CENTER
 10
12.6349055064
 20
13.8194087625
 11
12.6349055064
 21
14.1445841209
  0
LINE
  5
72E
100
AcDbEntity
  8
02___PRT_ALL_AXES
100
AcDbLine
 62
9
  6
CONTINUOUS
 10
12.6545905458
 20
14.8154508143
 11
12.6545905458
 21
14.0162496453
  0
LINE
  5
72F
100
AcDbEntity
  8
02___PRT_ALL_AXES
100
AcDbLine
 62
9
  6
CONTINUOUS
 10
12.6545905458
 20
13.6225679276
 11
12.6545905458
 21
12.7859441956
  0
LINE
  5
730
100
AcDbEntity
  8
0
100
AcDbLine
 62
7
  6
CONTINUOUS
 10
12.8514409395
 20
14.7544405074
 11
12.8514409395
 21
12.8843770176
  0
LWPOLYLINE
  5
731
100
AcDbEntity
  8
02___PRT_ALL_AXES
100
AcDbPolyline
 62
7
  6
CONTINUOUS
 90
12
 70
0
 10
12.7893720143
 20
13.8194305539
 10
12.7877545871
 20
13.7836688024
 10
12.7832271435
 20
13.7514090948
 10
12.7761648909
 20
13.7227673858
 10
12.766954161
 20
13.6981891793
 10
12.7559332276
 20
13.6776443918
 10
12.7431834798
 20
13.6606545392
 10
12.7287477963
 20
13.6469375327
 10
12.712296484
 20
13.636135273
 10
12.6938852123
 20
13.6283977347
 10
12.6743758844
 20
13.6239580836
 10
12.6545905458
 20
13.6225631482
  0
LWPOLYLINE
  5
732
100
AcDbEntity
  8
0
100
AcDbPolyline
 62
7
  6
CONTINUOUS
 90
4
 70
0
 10
13.0612834592
 20
13.9084686367
 10
13.072282756
 20
13.9265682987
 10
13.0810188051
 20
13.9439016752
 10
13.0876614119
 20
13.9607500464
  0
LINE
  5
733
100
AcDbEntity
  8
0
100
AcDbLine
 62
6
  6
CONTINUOUS
 10
12.9695511757
 20
13.4453930145
 11
12.9689562243
 21
13.444798063
  0
LINE
  5
734
100
AcDbEntity
  8
0
100
AcDbLine
 62
7
  6
CONTINUOUS
 10
13.0876614119
 20
13.5465741168
 11
13.0612834592
 21
13.5201961641
  0
LINE
  5
735
100
AcDbEntity
  8
0
100
AcDbLine
 62
7
  6
CONTINUOUS
 10
13.0425272869
 20
13.4986840863
 11
12.9892364982
 21
13.4453932976
  0
LINE
  5
736
100
AcDbEntity
  8
0
100
AcDbLine
 62
6
  6
CONTINUOUS
 10
12.9695511757
 20
14.1934245105
 11
12.9689562243
 21
14.194019462
  0
LINE
  5
737
100
AcDbEntity
  8
0
100
AcDbLine
 62
7
  6
CONTINUOUS
 10
13.0876614119
 20
14.0922434082
 11
13.0612834592
 21
14.1186213609
  0
LINE
  5
738
100
AcDbEntity
  8
0
100
AcDbLine
 62
7
  6
CONTINUOUS
 10
13.0425272869
 20
14.1401334387
 11
12.9892362151
 21
14.1934245105
  0
LINE
  5
739
100
AcDbEntity
  8
0
100
AcDbLine
 62
6
  6
CONTINUOUS
 10
12.9498661364
 20
14.1969105098
 11
12.9498661364
 21
14.1205445219
  0
LINE
  5
73A
100
AcDbEntity
  8
0
100
AcDbLine
 62
6
  6
CONTINUOUS
 10
12.9498661364
 20
13.9113631713
 11
12.9498661364
 21
13.7503447381
  0
LINE
  5
73B
100
AcDbEntity
  8
0
100
AcDbLine
 62
6
  6
CONTINUOUS
 10
12.9498661364
 20
13.533861424
 11
12.9498661364
 21
13.4492089787
  0
LINE
  5
73C
100
AcDbEntity
  8
0
100
AcDbLine
 62
7
  6
CONTINUOUS
 10
12.9695511757
 20
14.1934245105
 11
12.9695511757
 21
14.1128797647
  0
LINE
  5
73D
100
AcDbEntity
  8
0
100
AcDbLine
 62
7
  6
CONTINUOUS
 10
12.9695511757
 20
13.8999535083
 11
12.9695511757
 21
13.7388640167
  0
LINE
  5
73E
100
AcDbEntity
  8
0
100
AcDbLine
 62
7
  6
CONTINUOUS
 10
12.9695511757
 20
13.5259377603
 11
12.9695511757
 21
13.4453930145
  0
LWPOLYLINE
  5
73F
100
AcDbEntity
  8
0
100
AcDbPolyline
 62
7
  6
CONTINUOUS
 90
7
 70
0
 10
12.9695511757
 20
13.7388640167
 10
12.9806137611
 20
13.7023520265
 10
12.9870995888
 20
13.6670769562
 10
12.9892367813
 20
13.6324008885
 10
12.9870995888
 20
13.5977248208
 10
12.9806137611
 20
13.5624497505
 10
12.9695511757
 20
13.5259377603
  0
LWPOLYLINE
  5
740
100
AcDbEntity
  8
0
100
AcDbPolyline
 62
7
  6
CONTINUOUS
 90
7
 70
0
 10
12.9695511757
 20
14.1128797647
 10
12.9806137611
 20
14.0763677745
 10
12.9870995888
 20
14.0410927042
 10
12.9892367813
 20
14.0064166365
 10
12.9870995888
 20
13.9717405688
 10
12.9806137611
 20
13.9364654985
 10
12.9695511757
 20
13.8999535083
  0
LWPOLYLINE
  5
741
100
AcDbEntity
  8
0
100
AcDbPolyline
 62
6
  6
CONTINUOUS
 90
7
 70
0
 10
12.9498661364
 20
13.7503447381
 10
12.9609287218
 20
13.7132227937
 10
12.9674145494
 20
13.6773584328
 10
12.9695517419
 20
13.6421030811
 10
12.9674145494
 20
13.6068477293
 10
12.9609287218
 20
13.5709833684
 10
12.9498661364
 20
13.533861424
  0
LWPOLYLINE
  5
742
100
AcDbEntity
  8
0
100
AcDbPolyline
 62
7
  6
CONTINUOUS
 90
5
 70
0
 10
12.8514409395
 20
14.7544472636
 10
12.8492386959
 20
14.7741670868
 10
12.8417970358
 20
14.7931959797
 10
12.8286673376
 20
14.8100155639
 10
12.8225063269
 20
14.8154503576
  0
LINE
  5
743
100
AcDbEntity
  8
0
100
AcDbLine
 62
9
  6
CONTINUOUS
 10
13.0425272869
 20
14.1401334387
 11
13.0425272869
 21
13.4986840863
  0
LINE
  5
744
100
AcDbEntity
  8
0
100
AcDbLine
 62
7
  6
CONTINUOUS
 10
13.0482910665
 20
14.1262158491
 11
13.0482910665
 21
13.5126019962
  0
LINE
  5
745
100
AcDbEntity
  8
0
100
AcDbLine
 62
6
  6
CONTINUOUS
 10
13.0612834592
 20
14.1050598046
 11
13.0612834592
 21
14.0760431108
  0
LINE
  5
746
100
AcDbEntity
  8
0
100
AcDbLine
 62
7
  6
CONTINUOUS
 10
13.0612834592
 20
13.9084686367
 11
13.0612834592
 21
13.5201961641
  0
LINE
  5
747
100
AcDbEntity
  8
0
100
AcDbLine
 62
7
  6
CONTINUOUS
 10
13.0612834592
 20
14.1050598046
 11
13.0612834592
 21
14.1186213609
  0
LINE
  5
748
100
AcDbEntity
  8
0
100
AcDbLine
 62
6
  6
CONTINUOUS
 10
13.0809684986
 20
14.085156794
 11
13.0809684986
 21
13.553660731
  0
LINE
  5
749
100
AcDbEntity
  8
0
100
AcDbLine
 62
7
  6
CONTINUOUS
 10
13.0876614119
 20
14.0922403001
 11
13.0876614119
 21
14.085156794
  0
LINE
  5
74A
100
AcDbEntity
  8
0
100
AcDbLine
 62
7
  6
CONTINUOUS
 10
13.0876614119
 20
13.5465772374
 11
13.0876614119
 21
13.553660731
  0
LINE
  5
74B
100
AcDbEntity
  8
0
100
AcDbLine
 62
6
  6
CONTINUOUS
 10
13.1073464513
 20
14.085156794
 11
13.1073464513
 21
13.553660731
  0
LINE
  5
74C
100
AcDbEntity
  8
0
100
AcDbLine
 62
9
  6
CONTINUOUS
 10
13.1270314907
 20
13.5831882901
 11
13.1270314907
 21
14.0556292349
  0
LINE
  5
74D
100
AcDbEntity
  8
0
100
AcDbLine
 62
6
  6
CONTINUOUS
 10
13.46167716
 20
13.6044481326
 11
13.4404173175
 21
13.5831882901
  0
LINE
  5
74E
100
AcDbEntity
  8
0
100
AcDbLine
 62
6
  6
CONTINUOUS
 10
13.46167716
 20
14.0343693924
 11
13.4404173175
 21
14.0556292349
  0
LWPOLYLINE
  5
74F
100
AcDbEntity
  8
0
100
AcDbPolyline
 62
7
  6
CONTINUOUS
 90
3
 70
0
 10
13.0731889337
 20
14.085156794
 10
13.0722464794
 20
14.0870253069
 10
13.0612834592
 20
14.1050598046
  0
LINE
  5
750
100
AcDbEntity
  8
0
100
AcDbLine
 62
7
  6
CONTINUOUS
 10
13.4207322781
 20
14.0556292349
 11
13.4207322781
 21
13.5831882901
  0
LINE
  5
751
100
AcDbEntity
  8
0
100
AcDbLine
 62
6
  6
CONTINUOUS
 10
13.4404173175
 20
14.0556292349
 11
13.4404173175
 21
13.5831882901
  0
LINE
  5
752
100
AcDbEntity
  8
0
100
AcDbLine
 62
6
  6
CONTINUOUS
 10
13.46167716
 20
14.0343690998
 11
13.46167716
 21
13.6044484252
  0
LINE
  5
753
100
AcDbEntity
  8
0
100
AcDbLine
 62
7
  6
CONTINUOUS
 10
13.4813621993
 20
14.0261016759
 11
13.4813621993
 21
13.6127158491
  0
LINE
  5
754
100
AcDbEntity
  8
0
100
AcDbLine
 62
6
  6
CONTINUOUS
 10
13.5010472387
 20
14.0260990719
 11
13.5010472387
 21
13.6127184531
  0
LINE
  5
755
100
AcDbEntity
  8
02___PRT_ALL_AXES
100
AcDbLine
 62
7
  6
CONTINUOUS
 10
5.4611837956
 20
6.02094522
 11
6.0123632431
 21
6.02094522
  0
LINE
  5
756
100
AcDbEntity
  8
02___PRT_ALL_AXES
100
AcDbLine
 62
7
  6
CONTINUOUS
 10
4.7222298116
 20
6.8201364214
 11
4.7222298116
 21
7.2138372088
  0
LWPOLYLINE
  5
757
100
AcDbEntity
  8
0
100
AcDbPolyline
 62
9
  6
CONTINUOUS
 90
24
 70
0
 10
4.7427442273
 20
7.0169868132
 10
4.7519538222
 20
7.1519654675
 10
4.7795503183
 20
7.2849685388
 10
4.8249988499
 20
7.4129124127
 10
4.8873909301
 20
7.5333582138
 10
4.9655813917
 20
7.6441653394
 10
5.0581525526
 20
7.7433226799
 10
5.1634081788
 20
7.8289858269
 10
5.279376679
 20
7.8995276598
 10
5.403842183
 20
7.9536014316
 10
5.5344906835
 20
7.9902143685
 10
5.668918475
 20
8.0086953964
 10
5.8046308414
 20
8.0086952406
 10
5.9390585441
 20
7.9902139137
 10
6.0697069792
 20
7.9536006771
 10
6.1941724377
 20
7.8995265834
 10
6.310140781
 20
7.8289844712
 10
6.4153961075
 20
7.7433211661
 10
6.5079669572
 20
7.6441637298
 10
6.58615718
 20
7.5333564531
 10
6.6485491101
 20
7.4129102988
 10
6.6939974085
 20
7.2849660543
 10
6.721593525
 20
7.1519635111
 10
6.7308027262
 20
7.0169868161
  0
LWPOLYLINE
  5
758
100
AcDbEntity
  8
0
100
AcDbPolyline
 62
9
  6
CONTINUOUS
 90
24
 70
0
 10
4.7576516051
 20
7.016986776
 10
4.7667209663
 20
7.1499260508
 10
4.7939027127
 20
7.2809388545
 10
4.8386683012
 20
7.4069647104
 10
4.9001240725
 20
7.5256060379
 10
4.977141523
 20
7.6347529792
 10
5.0683243945
 20
7.7324248463
 10
5.1720018234
 20
7.8168047588
 10
5.2862317745
 20
7.8862899558
 10
5.408831557
 20
7.9395538237
 10
5.5375218093
 20
7.9756184302
 10
5.669934812
 20
7.9938227303
 10
5.8036131971
 20
7.993822664
 10
5.9360261598
 20
7.9756182369
 10
6.0647164157
 20
7.9395534919
 10
6.1873162402
 20
7.8862894503
 10
6.3015461413
 20
7.8168041055
 10
6.4052233949
 20
7.7324241457
 10
6.4964060902
 20
7.6347522739
 10
6.573423445
 20
7.5256052514
 10
6.6348792073
 20
7.4069636346
 10
6.6796447214
 20
7.2809374197
 10
6.7068262226
 20
7.1499252145
 10
6.7158954323
 20
7.0169868533
  0
LINE
  5
759
100
AcDbEntity
  8
0
100
AcDbLine
 62
7
  6
CONTINUOUS
 10
6.3399206925
 20
6.627419886
 11
6.3099206925
 21
6.627419886
  0
LINE
  5
75A
100
AcDbEntity
  8
0
100
AcDbLine
 62
7
  6
CONTINUOUS
 10
5.1636263449
 20
6.627419886
 11
5.1336263449
 21
6.627419886
  0
LINE
  5
75B
100
AcDbEntity
  8
0
100
AcDbLine
 62
7
  6
CONTINUOUS
 10
6.3749206925
 20
6.662419886
 11
6.3399206925
 21
6.662419886
  0
LINE
  5
75C
100
AcDbEntity
  8
0
100
AcDbLine
 62
7
  6
CONTINUOUS
 10
6.3099206925
 20
6.662419886
 11
6.2749206925
 21
6.662419886
  0
LINE
  5
75D
100
AcDbEntity
  8
0
100
AcDbLine
 62
7
  6
CONTINUOUS
 10
5.1986263449
 20
6.662419886
 11
5.1636263449
 21
6.662419886
  0
LINE
  5
75E
100
AcDbEntity
  8
0
100
AcDbLine
 62
7
  6
CONTINUOUS
 10
5.1336263449
 20
6.662419886
 11
5.0986263449
 21
6.662419886
  0
LINE
  5
75F
100
AcDbEntity
  8
0
100
AcDbLine
 62
7
  6
CONTINUOUS
 10
5.0986263449
 20
6.692419886
 11
5.1336263449
 21
6.692419886
  0
LINE
  5
760
100
AcDbEntity
  8
0
100
AcDbLine
 62
7
  6
CONTINUOUS
 10
5.1636263449
 20
6.692419886
 11
5.1986263449
 21
6.692419886
  0
LINE
  5
761
100
AcDbEntity
  8
0
100
AcDbLine
 62
7
  6
CONTINUOUS
 10
6.2749206925
 20
6.692419886
 11
6.3099206925
 21
6.692419886
  0
LINE
  5
762
100
AcDbEntity
  8
0
100
AcDbLine
 62
7
  6
CONTINUOUS
 10
6.3399206925
 20
6.692419886
 11
6.3749206925
 21
6.692419886
  0
LINE
  5
763
100
AcDbEntity
  8
0
100
AcDbLine
 62
7
  6
CONTINUOUS
 10
5.1336263449
 20
6.727419886
 11
5.1636263449
 21
6.727419886
  0
LINE
  5
764
100
AcDbEntity
  8
0
100
AcDbLine
 62
7
  6
CONTINUOUS
 10
6.3099206925
 20
6.727419886
 11
6.3399206925
 21
6.727419886
  0
LINE
  5
765
100
AcDbEntity
  8
0
100
AcDbLine
 62
7
  6
CONTINUOUS
 10
5.5662214974
 20
6.7653372088
 11
5.9073278886
 21
6.7653372088
  0
LINE
  5
766
100
AcDbEntity
  8
0
100
AcDbLine
 62
7
  6
CONTINUOUS
 10
5.0986263449
 20
6.662419886
 11
5.0986263449
 21
6.692419886
  0
LINE
  5
767
100
AcDbEntity
  8
0
100
AcDbLine
 62
7
  6
CONTINUOUS
 10
5.1336263449
 20
6.627419886
 11
5.1336263449
 21
6.662419886
  0
LINE
  5
768
100
AcDbEntity
  8
0
100
AcDbLine
 62
7
  6
CONTINUOUS
 10
5.1336263449
 20
6.692419886
 11
5.1336263449
 21
6.727419886
  0
LINE
  5
769
100
AcDbEntity
  8
0
100
AcDbLine
 62
7
  6
CONTINUOUS
 10
5.1636263449
 20
6.727419886
 11
5.1636263449
 21
6.692419886
  0
LINE
  5
76A
100
AcDbEntity
  8
0
100
AcDbLine
 62
7
  6
CONTINUOUS
 10
5.1636263449
 20
6.662419886
 11
5.1636263449
 21
6.627419886
  0
LINE
  5
76B
100
AcDbEntity
  8
0
100
AcDbLine
 62
7
  6
CONTINUOUS
 10
5.1986263449
 20
6.692419886
 11
5.1986263449
 21
6.662419886
  0
LINE
  5
76C
100
AcDbEntity
  8
0
100
AcDbLine
 62
9
  6
CONTINUOUS
 10
6.7308027562
 20
7.0169897062
 11
6.7158954323
 21
7.0169868533
  0
LINE
  5
76D
100
AcDbEntity
  8
0
100
AcDbLine
 62
9
  6
CONTINUOUS
 10
4.7427442813
 20
7.0169839231
 11
4.7576516051
 21
7.016986776
  0
LINE
  5
76E
100
AcDbEntity
  8
0
100
AcDbLine
 62
9
  6
CONTINUOUS
 10
4.7222298116
 20
7.0169868129
 11
4.7427442273
 21
7.0169868132
  0
LINE
  5
76F
100
AcDbEntity
  8
0
100
AcDbLine
 62
9
  6
CONTINUOUS
 10
6.7513172258
 20
7.0169868159
 11
6.7308028101
 21
7.0169868161
  0
LINE
  5
770
100
AcDbEntity
  8
0
100
AcDbLine
 62
7
  6
CONTINUOUS
 10
5.4955727313
 20
7.2024796194
 11
5.4955727313
 21
6.831500872
  0
LINE
  5
771
100
AcDbEntity
  8
0
100
AcDbLine
 62
7
  6
CONTINUOUS
 10
5.9077516631
 20
7.2683372088
 11
5.565793258
 21
7.2683372088
  0
LINE
  5
772
100
AcDbEntity
  8
0
100
AcDbLine
 62
7
  6
CONTINUOUS
 10
5.6867735187
 20
7.6811206734
 11
5.6867735187
 21
7.7111206734
  0
LINE
  5
773
100
AcDbEntity
  8
0
100
AcDbLine
 62
7
  6
CONTINUOUS
 10
5.7217735187
 20
7.6461206734
 11
5.7217735187
 21
7.6811206734
  0
LINE
  5
774
100
AcDbEntity
  8
0
100
AcDbLine
 62
7
  6
CONTINUOUS
 10
5.7217735187
 20
7.7111206734
 11
5.7217735187
 21
7.7461206734
  0
LINE
  5
775
100
AcDbEntity
  8
0
100
AcDbLine
 62
7
  6
CONTINUOUS
 10
5.7517735187
 20
7.7461206734
 11
5.7517735187
 21
7.7111206734
  0
LINE
  5
776
100
AcDbEntity
  8
0
100
AcDbLine
 62
7
  6
CONTINUOUS
 10
5.7517735187
 20
7.6811206734
 11
5.7517735187
 21
7.6461206734
  0
LINE
  5
777
100
AcDbEntity
  8
0
100
AcDbLine
 62
7
  6
CONTINUOUS
 10
5.7867735187
 20
7.7111206734
 11
5.7867735187
 21
7.6811206734
  0
LINE
  5
778
100
AcDbEntity
  8
0
100
AcDbLine
 62
7
  6
CONTINUOUS
 10
5.7517735187
 20
7.6461206734
 11
5.7217735187
 21
7.6461206734
  0
LINE
  5
779
100
AcDbEntity
  8
0
100
AcDbLine
 62
7
  6
CONTINUOUS
 10
5.9795727313
 20
6.8337899774
 11
5.9795727313
 21
7.2001782543
  0
LINE
  5
77A
100
AcDbEntity
  8
0
100
AcDbLine
 62
7
  6
CONTINUOUS
 10
5.7867735187
 20
7.6811206734
 11
5.7517735187
 21
7.6811206734
  0
LINE
  5
77B
100
AcDbEntity
  8
0
100
AcDbLine
 62
7
  6
CONTINUOUS
 10
5.7217735187
 20
7.6811206734
 11
5.6867735187
 21
7.6811206734
  0
LINE
  5
77C
100
AcDbEntity
  8
0
100
AcDbLine
 62
7
  6
CONTINUOUS
 10
5.6867735187
 20
7.7111206734
 11
5.7217735187
 21
7.7111206734
  0
LINE
  5
77D
100
AcDbEntity
  8
0
100
AcDbLine
 62
7
  6
CONTINUOUS
 10
5.7517735187
 20
7.7111206734
 11
5.7867735187
 21
7.7111206734
  0
LINE
  5
77E
100
AcDbEntity
  8
0
100
AcDbLine
 62
7
  6
CONTINUOUS
 10
5.7217735187
 20
7.7461206734
 11
5.7517735187
 21
7.7461206734
  0
LINE
  5
77F
100
AcDbEntity
  8
02___PRT_ALL_AXES
100
AcDbLine
 62
7
  6
CONTINUOUS
 10
6.163938873
 20
7.1877640335
 11
6.163938873
 21
6.8462095967
  0
LINE
  5
780
100
AcDbEntity
  8
0
100
AcDbLine
 62
7
  6
CONTINUOUS
 10
6.2749206925
 20
6.662419886
 11
6.2749206925
 21
6.692419886
  0
LINE
  5
781
100
AcDbEntity
  8
0
100
AcDbLine
 62
7
  6
CONTINUOUS
 10
6.3099206925
 20
6.627419886
 11
6.3099206925
 21
6.662419886
  0
LINE
  5
782
100
AcDbEntity
  8
0
100
AcDbLine
 62
7
  6
CONTINUOUS
 10
6.3099206925
 20
6.692419886
 11
6.3099206925
 21
6.727419886
  0
LINE
  5
783
100
AcDbEntity
  8
0
100
AcDbLine
 62
7
  6
CONTINUOUS
 10
6.3399206925
 20
6.727419886
 11
6.3399206925
 21
6.692419886
  0
LINE
  5
784
100
AcDbEntity
  8
0
100
AcDbLine
 62
7
  6
CONTINUOUS
 10
6.3399206925
 20
6.662419886
 11
6.3399206925
 21
6.627419886
  0
LINE
  5
785
100
AcDbEntity
  8
0
100
AcDbLine
 62
7
  6
CONTINUOUS
 10
6.3749206925
 20
6.692419886
 11
6.3749206925
 21
6.662419886
  0
LINE
  5
786
100
AcDbEntity
  8
02___PRT_ALL_AXES
100
AcDbLine
 62
7
  6
CONTINUOUS
 10
6.7513172258
 20
6.8201364214
 11
6.7513172258
 21
7.2138372088
  0
LWPOLYLINE
  5
787
100
AcDbEntity
  8
0
100
AcDbPolyline
 62
9
  6
CONTINUOUS
 90
24
 70
0
 10
6.7158954323
 20
7.0169868533
 10
6.706826071
 20
6.8840475786
 10
6.6796443245
 20
6.7530347749
 10
6.634878736
 20
6.6270089192
 10
6.5734229646
 20
6.5083675918
 10
6.4964055141
 20
6.3992206506
 10
6.4052226426
 20
6.3015487836
 10
6.3015452137
 20
6.2171688712
 10
6.1873152626
 20
6.1476836743
 10
6.0647154802
 20
6.0944198064
 10
5.936025228
 20
6.0583552
 10
5.8036122254
 20
6.0401508999
 10
5.6699338403
 20
6.0401509663
 10
5.5375208777
 20
6.0583553933
 10
5.4088306219
 20
6.0944201382
 10
5.2862307974
 20
6.1476841798
 10
5.1720008964
 20
6.2171695245
 10
5.0683236429
 20
6.3015494842
 10
4.9771409475
 20
6.3992213559
 10
4.9001235927
 20
6.5083683783
 10
4.8386678304
 20
6.627009995
 10
4.7939023163
 20
6.7530362098
 10
4.7667208149
 20
6.8840484149
 10
4.7576516051
 20
7.016986776
  0
LWPOLYLINE
  5
788
100
AcDbEntity
  8
0
100
AcDbPolyline
 62
9
  6
CONTINUOUS
 90
24
 70
0
 10
6.7308028101
 20
7.0169868161
 10
6.7215932151
 20
6.8820081619
 10
6.6939967189
 20
6.7490050907
 10
6.6485481873
 20
6.6210612169
 10
6.5861561069
 20
6.5006154158
 10
6.5079656454
 20
6.3898082904
 10
6.4153944845
 20
6.29065095
 10
6.3101388583
 20
6.2049878031
 10
6.1941703581
 20
6.1344459703
 10
6.0697048542
 20
6.0803721986
 10
5.9390563538
 20
6.0437592617
 10
5.8046285624
 20
6.0252782338
 10
5.6689161961
 20
6.0252783896
 10
5.5344884935
 20
6.0437597165
 10
5.4038400584
 20
6.080372953
 10
5.2793746
 20
6.1344470467
 10
5.1634062567
 20
6.2049891588
 10
5.0581509303
 20
6.2906524638
 10
4.9655800805
 20
6.3898099
 10
4.8873898577
 20
6.5006171766
 10
4.8249979276
 20
6.6210633307
 10
4.7795496291
 20
6.7490075752
 10
4.7519535125
 20
6.8820101182
 10
4.7427443113
 20
7.0169868132
  0
CIRCLE
  5
789
100
AcDbEntity
  8
0
100
AcDbCircle
 62
7
  6
CONTINUOUS
 10
15.2229827477
 20
1.1139932523
 40
0.252091
  0
CIRCLE
  5
78A
100
AcDbEntity
  8
0
100
AcDbCircle
 62
7
  6
CONTINUOUS
 10
15.2229827477
 20
1.1139932523
 40
0.182698
  0
ARC
  5
78B
100
AcDbEntity
  8
AXIS
100
AcDbCircle
 62
7
  6
CONTINUOUS
 10
9.6837992072
 20
6.2154868151
 40
0.0515
100
AcDbArc
 50
180.0
 51
360.0
  0
ARC
  5
78C
100
AcDbEntity
  8
0
100
AcDbCircle
 62
7
  6
CONTINUOUS
 10
9.7943543253
 20
6.0378677996
 40
0.0196850394
100
AcDbArc
 50
180.0
 51
229.2261494718
  0
CIRCLE
  5
78D
100
AcDbEntity
  8
DEFAULT_2
100
AcDbCircle
 62
8
  6
HIDDEN
 10
10.022700782
 20
7.0169868151
 40
0.0984251969
  0
CIRCLE
  5
78E
100
AcDbEntity
  8
02___PRT_ALL_AXES
100
AcDbCircle
 62
7
  6
CONTINUOUS
 10
10.022700782
 20
7.0169868151
 40
0.0826771654
  0
ARC
  5
78F
100
AcDbEntity
  8
AXIS
100
AcDbCircle
 62
7
  6
CONTINUOUS
 10
9.6837992072
 20
7.8184868151
 40
0.0515
100
AcDbArc
 50
0.0
 51
180.0
  0
ARC
  5
790
100
AcDbEntity
  8
0
100
AcDbCircle
 62
7
  6
CONTINUOUS
 10
9.7943543253
 20
7.9961058306
 40
0.0196850394
100
AcDbArc
 50
130.7738505282
 51
180.0
  0
ARC
  5
791
100
AcDbEntity
  8
0
100
AcDbCircle
 62
7
  6
CONTINUOUS
 10
13.0286060271
 20
6.7101797285
 40
0.0196850394
100
AcDbArc
 50
315.0075538757
 51
360.0
  0
ARC
  5
792
100
AcDbEntity
  8
0
100
AcDbCircle
 62
6
  6
CONTINUOUS
 10
13.1270314907
 20
6.7610813033
 40
0.0196850394
100
AcDbArc
 50
90.0
 51
180.0
  0
CIRCLE
  5
793
100
AcDbEntity
  8
DEFAULT_2
100
AcDbCircle
 62
8
  6
HIDDEN
 10
12.6349055064
 20
7.0169868151
 40
0.0984251969
  0
CIRCLE
  5
794
100
AcDbEntity
  8
02___PRT_ALL_AXES
100
AcDbCircle
 62
7
  6
CONTINUOUS
 10
12.6349055064
 20
7.0169868151
 40
0.0826771654
  0
ARC
  5
795
100
AcDbEntity
  8
0
100
AcDbCircle
 62
7
  6
CONTINUOUS
 10
13.0286060271
 20
7.3237939017
 40
0.0196850394
100
AcDbArc
 50
0.0
 51
44.9924461243
  0
ARC
  5
796
100
AcDbEntity
  8
0
100
AcDbCircle
 62
6
  6
CONTINUOUS
 10
13.1270314907
 20
7.2728923269
 40
0.0196850394
100
AcDbArc
 50
180.0
 51
270.0
  0
CIRCLE
  5
797
100
AcDbEntity
  8
0
100
AcDbCircle
 62
7
  6
CONTINUOUS
 10
16.3722049266
 20
6.926560463
 40
0.0118110236
  0
CIRCLE
  5
798
100
AcDbEntity
  8
0
100
AcDbCircle
 62
6
  6
CONTINUOUS
 10
16.3447692322
 20
6.956990004
 40
0.0118110236
  0
CIRCLE
  5
799
100
AcDbEntity
  8
0
100
AcDbCircle
 62
7
  6
CONTINUOUS
 10
16.3722049266
 20
6.926560463
 40
0.0039370079
  0
CIRCLE
  5
79A
100
AcDbEntity
  8
0
100
AcDbCircle
 62
6
  6
CONTINUOUS
 10
16.3447692322
 20
6.956990004
 40
0.0039370079
  0
CIRCLE
  5
79B
100
AcDbEntity
  8
0
100
AcDbCircle
 62
7
  6
CONTINUOUS
 10
16.3314966503
 20
6.9879188512
 40
0.0118110236
  0
CIRCLE
  5
79C
100
AcDbEntity
  8
0
100
AcDbCircle
 62
6
  6
CONTINUOUS
 10
16.3283438949
 20
7.0287689972
 40
0.0118110236
  0
CIRCLE
  5
79D
100
AcDbEntity
  8
0
100
AcDbCircle
 62
6
  6
CONTINUOUS
 10
16.3283438949
 20
7.0287689972
 40
0.0039370079
  0
CIRCLE
  5
79E
100
AcDbEntity
  8
0
100
AcDbCircle
 62
7
  6
CONTINUOUS
 10
16.3314966503
 20
6.9879188512
 40
0.0039370079
  0
CIRCLE
  5
79F
100
AcDbEntity
  8
0
100
AcDbCircle
 62
6
  6
CONTINUOUS
 10
16.4015988982
 20
6.9101668834
 40
0.0118110236
  0
CIRCLE
  5
7A0
100
AcDbEntity
  8
0
100
AcDbCircle
 62
7
  6
CONTINUOUS
 10
16.4419055637
 20
6.9028152159
 40
0.0118110236
  0
CIRCLE
  5
7A1
100
AcDbEntity
  8
0
100
AcDbCircle
 62
7
  6
CONTINUOUS
 10
16.4419055637
 20
6.9028152159
 40
0.0039370079
  0
CIRCLE
  5
7A2
100
AcDbEntity
  8
0
100
AcDbCircle
 62
6
  6
CONTINUOUS
 10
16.4015988982
 20
6.9101668834
 40
0.0039370079
  0
CIRCLE
  5
7A3
100
AcDbEntity
  8
0
100
AcDbCircle
 62
7
  6
CONTINUOUS
 10
16.404400886
 20
6.9953332718
 40
0.0118110236
  0
CIRCLE
  5
7A4
100
AcDbEntity
  8
0
100
AcDbCircle
 62
7
  6
CONTINUOUS
 10
16.404400886
 20
6.9953332718
 40
0.0039370079
  0
CIRCLE
  5
7A5
100
AcDbEntity
  8
0
100
AcDbCircle
 62
6
  6
CONTINUOUS
 10
16.4431920981
 20
6.9736988317
 40
0.0127952756
  0
CIRCLE
  5
7A6
100
AcDbEntity
  8
0
100
AcDbCircle
 62
6
  6
CONTINUOUS
 10
16.4431920981
 20
6.9736988317
 40
0.0118110236
  0
CIRCLE
  5
7A7
100
AcDbEntity
  8
0
100
AcDbCircle
 62
6
  6
CONTINUOUS
 10
16.4431920981
 20
6.9736988317
 40
0.0039370079
  0
ARC
  5
7A8
100
AcDbEntity
  8
02___PRT_ALL_AXES
100
AcDbCircle
 62
7
  6
CONTINUOUS
 10
16.4419059232
 20
7.0169868151
 40
1.0334645669
100
AcDbArc
 50
10.9800356017
 51
169.0199616937
  0
ARC
  5
7A9
100
AcDbEntity
  8
02___PRT_ALL_AXES
100
AcDbCircle
 62
7
  6
CONTINUOUS
 10
16.4419059232
 20
7.0169868151
 40
1.0334645669
100
AcDbArc
 50
190.9800356017
 51
254.5340857614
  0
ARC
  5
7AA
100
AcDbEntity
  8
02___PRT_ALL_AXES
100
AcDbCircle
 62
7
  6
CONTINUOUS
 10
16.4419059232
 20
7.0169868151
 40
1.0334645669
100
AcDbArc
 50
285.4659149978
 51
349.0199616937
  0
ARC
  5
7AB
100
AcDbEntity
  8
0
100
AcDbCircle
 62
6
  6
CONTINUOUS
 10
16.4419059232
 20
7.0169868151
 40
0.3937007874
100
AcDbArc
 50
226.4929977082
 51
228.0954605678
  0
ARC
  5
7AC
100
AcDbEntity
  8
0
100
AcDbCircle
 62
7
  6
CONTINUOUS
 10
16.4419059232
 20
7.0169868151
 40
0.3937007874
100
AcDbArc
 50
168.1948723388
 51
191.8051276612
  0
ARC
  5
7AD
100
AcDbEntity
  8
0
100
AcDbCircle
 62
6
  6
CONTINUOUS
 10
16.4419059232
 20
7.0169868151
 40
0.3937007874
100
AcDbArc
 50
106.4929977082
 51
108.1936815968
  0
ARC
  5
7AE
100
AcDbEntity
  8
0
100
AcDbCircle
 62
6
  6
CONTINUOUS
 10
16.4419059232
 20
7.0169868151
 40
0.3937007874
100
AcDbArc
 50
166.4929977082
 51
168.1936815968
  0
ARC
  5
7AF
100
AcDbEntity
  8
0
100
AcDbCircle
 62
6
  6
CONTINUOUS
 10
16.4419059232
 20
7.0169868151
 40
0.3937007874
100
AcDbArc
 50
346.4929977082
 51
348.1936815968
  0
ARC
  5
7B0
100
AcDbEntity
  8
0
100
AcDbCircle
 62
6
  6
CONTINUOUS
 10
16.4419059232
 20
7.0169868151
 40
0.3937007874
100
AcDbArc
 50
46.4929977082
 51
48.0954605678
  0
ARC
  5
7B1
100
AcDbEntity
  8
0
100
AcDbCircle
 62
7
  6
CONTINUOUS
 10
16.4419059232
 20
7.0169868151
 40
0.3937007874
100
AcDbArc
 50
348.1948723388
 51
11.8051276612
  0
ARC
  5
7B2
100
AcDbEntity
  8
0
100
AcDbCircle
 62
7
  6
CONTINUOUS
 10
16.4419059232
 20
7.0169868151
 40
0.3937007874
100
AcDbArc
 50
288.1948723388
 51
311.8051276612
  0
ARC
  5
7B3
100
AcDbEntity
  8
0
100
AcDbCircle
 62
7
  6
CONTINUOUS
 10
16.4419059232
 20
7.0169868151
 40
0.3937007874
100
AcDbArc
 50
228.1948723388
 51
251.8051276612
  0
ARC
  5
7B4
100
AcDbEntity
  8
0
100
AcDbCircle
 62
7
  6
CONTINUOUS
 10
16.4419059232
 20
7.0169868151
 40
0.3937007874
100
AcDbArc
 50
108.1948723388
 51
131.8051276612
  0
ARC
  5
7B5
100
AcDbEntity
  8
0
100
AcDbCircle
 62
7
  6
CONTINUOUS
 10
16.4419059232
 20
7.0169868151
 40
0.3937007874
100
AcDbArc
 50
48.1948723388
 51
71.8051276612
  0
ARC
  5
7B6
100
AcDbEntity
  8
0
100
AcDbCircle
 62
6
  6
CONTINUOUS
 10
16.4419059232
 20
7.0169868151
 40
0.3937007874
100
AcDbArc
 50
286.4929977082
 51
288.1936815968
  0
CIRCLE
  5
7B7
100
AcDbEntity
  8
0
100
AcDbCircle
 62
9
  6
CONTINUOUS
 10
16.4419059232
 20
7.0169868151
 40
0.3207246762
  0
ARC
  5
7B8
100
AcDbEntity
  8
0
100
AcDbCircle
 62
9
  6
CONTINUOUS
 10
16.4419059232
 20
7.0169868151
 40
0.3068069364
100
AcDbArc
 50
0.0
 51
90.0004827006
  0
ARC
  5
7B9
100
AcDbEntity
  8
0
100
AcDbCircle
 62
9
  6
CONTINUOUS
 10
16.4419059232
 20
7.0169868151
 40
0.3068069364
100
AcDbArc
 50
180.0
 51
270.0000000076
  0
ARC
  5
7BA
100
AcDbEntity
  8
0
100
AcDbCircle
 62
9
  6
CONTINUOUS
 10
16.4419059232
 20
7.0169868151
 40
0.3068042852
100
AcDbArc
 50
90.0004827006
 51
180.0
  0
ARC
  5
7BB
100
AcDbEntity
  8
0
100
AcDbCircle
 62
9
  6
CONTINUOUS
 10
16.4419059232
 20
7.0169868151
 40
0.3068042851
100
AcDbArc
 50
270.0000000076
 51
360.0
  0
ARC
  5
7BC
100
AcDbEntity
  8
0
100
AcDbCircle
 62
6
  6
CONTINUOUS
 10
16.4419059232
 20
7.0169868151
 40
0.2992125984
100
AcDbArc
 50
117.0210059783
 51
242.6410633207
  0
ARC
  5
7BD
100
AcDbEntity
  8
0
100
AcDbCircle
 62
6
  6
CONTINUOUS
 10
16.4419059232
 20
7.0169868151
 40
0.2992125984
100
AcDbArc
 50
107.3163596367
 51
117.0210059783
  0
ARC
  5
7BE
100
AcDbEntity
  8
0
100
AcDbCircle
 62
6
  6
CONTINUOUS
 10
16.4419059232
 20
7.0169868151
 40
0.2992125984
100
AcDbArc
 50
287.3163596367
 51
62.6410633207
  0
ARC
  5
7BF
100
AcDbEntity
  8
0
100
AcDbCircle
 62
7
  6
CONTINUOUS
 10
16.4419059232
 20
7.0169868151
 40
0.2992125984
100
AcDbArc
 50
62.6410633207
 51
107.3163596367
  0
ARC
  5
7C0
100
AcDbEntity
  8
0
100
AcDbCircle
 62
7
  6
CONTINUOUS
 10
16.4419059232
 20
7.0169868151
 40
0.2992125984
100
AcDbArc
 50
242.6410633207
 51
287.3163596367
  0
ARC
  5
7C1
100
AcDbEntity
  8
0
100
AcDbCircle
 62
7
  6
CONTINUOUS
 10
16.4419059232
 20
7.0169868151
 40
0.2728346457
100
AcDbArc
 50
76.9081389911
 51
102.8521312722
  0
ARC
  5
7C2
100
AcDbEntity
  8
0
100
AcDbCircle
 62
7
  6
CONTINUOUS
 10
16.4419059232
 20
7.0169868151
 40
0.2728346457
100
AcDbArc
 50
256.9081589101
 51
282.8522587306
  0
ARC
  5
7C3
100
AcDbEntity
  8
0
100
AcDbCircle
 62
6
  6
CONTINUOUS
 10
16.4419059232
 20
7.0169868151
 40
0.2728346457
100
AcDbArc
 50
103.0873526646
 51
256.9081589101
  0
ARC
  5
7C4
100
AcDbEntity
  8
0
100
AcDbCircle
 62
6
  6
CONTINUOUS
 10
16.4419059232
 20
7.0169868151
 40
0.2728346457
100
AcDbArc
 50
282.8522587306
 51
76.9081389911
  0
ARC
  5
7C5
100
AcDbEntity
  8
0
100
AcDbCircle
 62
6
  6
CONTINUOUS
 10
16.4419059232
 20
7.0169868151
 40
0.2728346457
100
AcDbArc
 50
102.8521312722
 51
103.0817375102
  0
CIRCLE
  5
7C6
100
AcDbEntity
  8
0
100
AcDbCircle
 62
9
  6
CONTINUOUS
 10
16.4419059232
 20
7.0169868151
 40
0.2559042951
  0
CIRCLE
  5
7C7
100
AcDbEntity
  8
0
100
AcDbCircle
 62
6
  6
CONTINUOUS
 10
16.4419059232
 20
7.0169868151
 40
0.2362204724
  0
CIRCLE
  5
7C8
100
AcDbEntity
  8
0
100
AcDbCircle
 62
6
  6
CONTINUOUS
 10
16.4419059232
 20
7.0169868151
 40
0.2149606299
  0
CIRCLE
  5
7C9
100
AcDbEntity
  8
0
100
AcDbCircle
 62
6
  6
CONTINUOUS
 10
16.4419059232
 20
7.0169868151
 40
0.2066929134
  0
CIRCLE
  5
7CA
100
AcDbEntity
  8
0
100
AcDbCircle
 62
6
  6
CONTINUOUS
 10
16.4419059232
 20
7.0169868151
 40
0.1633858268
  0
ARC
  5
7CB
100
AcDbEntity
  8
0
100
AcDbCircle
 62
9
  6
CONTINUOUS
 10
16.4419059232
 20
7.0169868151
 40
0.1515721146
100
AcDbArc
 50
40.6676324253
 51
81.032128517
  0
ARC
  5
7CC
100
AcDbEntity
  8
0
100
AcDbCircle
 62
9
  6
CONTINUOUS
 10
16.4419059232
 20
7.0169868151
 40
0.1515721146
100
AcDbArc
 50
98.9909199526
 51
22.7361168358
  0
CIRCLE
  5
7CD
100
AcDbEntity
  8
0
100
AcDbCircle
 62
6
  6
CONTINUOUS
 10
16.3591550599
 20
7.0956471526
 40
0.0118110236
  0
CIRCLE
  5
7CE
100
AcDbEntity
  8
0
100
AcDbCircle
 62
7
  6
CONTINUOUS
 10
16.3367134771
 20
7.0613681553
 40
0.0118110236
  0
CIRCLE
  5
7CF
100
AcDbEntity
  8
0
100
AcDbCircle
 62
7
  6
CONTINUOUS
 10
16.3367134771
 20
7.0613681553
 40
0.0039370079
  0
CIRCLE
  5
7D0
100
AcDbEntity
  8
0
100
AcDbCircle
 62
6
  6
CONTINUOUS
 10
16.3591550599
 20
7.0956471526
 40
0.0039370079
  0
CIRCLE
  5
7D1
100
AcDbEntity
  8
0
100
AcDbCircle
 62
7
  6
CONTINUOUS
 10
16.3856854507
 20
7.1163568938
 40
0.0118110236
  0
CIRCLE
  5
7D2
100
AcDbEntity
  8
0
100
AcDbCircle
 62
7
  6
CONTINUOUS
 10
16.3856854507
 20
7.1163568938
 40
0.0039370079
  0
CIRCLE
  5
7D3
100
AcDbEntity
  8
0
100
AcDbCircle
 62
6
  6
CONTINUOUS
 10
16.4037743424
 20
7.0375169466
 40
0.0127952756
  0
CIRCLE
  5
7D4
100
AcDbEntity
  8
0
100
AcDbCircle
 62
7
  6
CONTINUOUS
 10
16.4419059232
 20
7.0602939017
 40
0.0118110236
  0
CIRCLE
  5
7D5
100
AcDbEntity
  8
0
100
AcDbCircle
 62
6
  6
CONTINUOUS
 10
16.4037743424
 20
7.0375169466
 40
0.0118110236
  0
CIRCLE
  5
7D6
100
AcDbEntity
  8
0
100
AcDbCircle
 62
6
  6
CONTINUOUS
 10
16.4037743424
 20
7.0375169466
 40
0.0039370079
  0
CIRCLE
  5
7D7
100
AcDbEntity
  8
0
100
AcDbCircle
 62
7
  6
CONTINUOUS
 10
16.4419059232
 20
7.0602939017
 40
0.0039370079
  0
ARC
  5
7D8
100
AcDbEntity
  8
0
100
AcDbCircle
 62
7
  6
CONTINUOUS
 10
16.4419059232
 20
7.1567505946
 40
0.0236220472
100
AcDbArc
 50
180.0
 51
360.0
  0
ARC
  5
7D9
100
AcDbEntity
  8
0
100
AcDbCircle
 62
6
  6
CONTINUOUS
 10
16.4243867209
 20
7.1298062798
 40
0.0118110236
100
AcDbArc
 50
91.1747717885
 51
22.9957647808
  0
CIRCLE
  5
7DA
100
AcDbEntity
  8
0
100
AcDbCircle
 62
6
  6
CONTINUOUS
 10
16.4243867209
 20
7.1298062798
 40
0.0039370079
  0
CIRCLE
  5
7DB
100
AcDbEntity
  8
0
100
AcDbCircle
 62
7
  6
CONTINUOUS
 10
16.5116063502
 20
6.9265600241
 40
0.0118110236
  0
CIRCLE
  5
7DC
100
AcDbEntity
  8
0
100
AcDbCircle
 62
7
  6
CONTINUOUS
 10
16.4794109603
 20
6.9953332718
 40
0.0118110236
  0
CIRCLE
  5
7DD
100
AcDbEntity
  8
0
100
AcDbCircle
 62
6
  6
CONTINUOUS
 10
16.5559932387
 20
7.0213729862
 40
0.0118110236
  0
CIRCLE
  5
7DE
100
AcDbEntity
  8
0
100
AcDbCircle
 62
7
  6
CONTINUOUS
 10
16.552315013
 20
6.9879181558
 40
0.0118110236
  0
CIRCLE
  5
7DF
100
AcDbEntity
  8
0
100
AcDbCircle
 62
6
  6
CONTINUOUS
 10
16.4751944049
 20
6.9077758676
 40
0.0118110236
  0
CIRCLE
  5
7E0
100
AcDbEntity
  8
0
100
AcDbCircle
 62
6
  6
CONTINUOUS
 10
16.5349434572
 20
6.9508115076
 40
0.0118110236
  0
CIRCLE
  5
7E1
100
AcDbEntity
  8
0
100
AcDbCircle
 62
7
  6
CONTINUOUS
 10
16.4794109603
 20
6.9953332718
 40
0.0039370079
  0
CIRCLE
  5
7E2
100
AcDbEntity
  8
0
100
AcDbCircle
 62
6
  6
CONTINUOUS
 10
16.5349434572
 20
6.9508115076
 40
0.0039370079
  0
CIRCLE
  5
7E3
100
AcDbEntity
  8
0
100
AcDbCircle
 62
7
  6
CONTINUOUS
 10
16.5116063502
 20
6.9265600241
 40
0.0039370079
  0
CIRCLE
  5
7E4
100
AcDbEntity
  8
0
100
AcDbCircle
 62
7
  6
CONTINUOUS
 10
16.552315013
 20
6.9879181558
 40
0.0039370079
  0
CIRCLE
  5
7E5
100
AcDbEntity
  8
0
100
AcDbCircle
 62
6
  6
CONTINUOUS
 10
16.5559932387
 20
7.0213729862
 40
0.0039370079
  0
CIRCLE
  5
7E6
100
AcDbEntity
  8
0
100
AcDbCircle
 62
6
  6
CONTINUOUS
 10
16.4751944049
 20
6.9077758676
 40
0.0039370079
  0
ARC
  5
7E7
100
AcDbEntity
  8
0
100
AcDbCircle
 62
6
  6
CONTINUOUS
 10
16.5608160965
 20
7.0904326097
 40
0.0236220472
100
AcDbArc
 50
121.7018746306
 51
301.7018746306
  0
CIRCLE
  5
7E8
100
AcDbEntity
  8
0
100
AcDbCircle
 62
6
  6
CONTINUOUS
 10
16.478751329
 20
7.039744667
 40
0.0127952756
  0
CIRCLE
  5
7E9
100
AcDbEntity
  8
0
100
AcDbCircle
 62
6
  6
CONTINUOUS
 10
16.478751329
 20
7.039744667
 40
0.0118110236
  0
ARC
  5
7EA
100
AcDbEntity
  8
0
100
AcDbCircle
 62
7
  6
CONTINUOUS
 10
16.4981270214
 20
7.1163565398
 40
0.0118110236
100
AcDbArc
 50
241.7939038589
 51
58.90083817
  0
CIRCLE
  5
7EB
100
AcDbEntity
  8
0
100
AcDbCircle
 62
6
  6
CONTINUOUS
 10
16.4969055522
 20
7.1170377765
 40
0.0118110236
  0
ARC
  5
7EC
100
AcDbEntity
  8
0
100
AcDbCircle
 62
7
  6
CONTINUOUS
 10
16.5470986488
 20
7.0613674928
 40
0.0118110236
100
AcDbArc
 50
98.6555104312
 51
30.45782935
  0
CIRCLE
  5
7ED
100
AcDbEntity
  8
0
100
AcDbCircle
 62
6
  6
CONTINUOUS
 10
16.478751329
 20
7.039744667
 40
0.0039370079
  0
CIRCLE
  5
7EE
100
AcDbEntity
  8
0
100
AcDbCircle
 62
7
  6
CONTINUOUS
 10
16.5470986488
 20
7.0613674928
 40
0.0039370079
  0
CIRCLE
  5
7EF
100
AcDbEntity
  8
0
100
AcDbCircle
 62
6
  6
CONTINUOUS
 10
16.4969055522
 20
7.1170377765
 40
0.0039370079
  0
ARC
  5
7F0
100
AcDbEntity
  8
AXIS
100
AcDbCircle
 62
7
  6
CONTINUOUS
 10
9.6837992072
 20
9.3720976343
 40
0.0515
100
AcDbArc
 50
180.0
 51
360.0
  0
ARC
  5
7F1
100
AcDbEntity
  8
0
100
AcDbCircle
 62
7
  6
CONTINUOUS
 10
9.7943543253
 20
9.1944757329
 40
0.0196850394
100
AcDbArc
 50
180.0000356542
 51
229.2261033552
  0
ARC
  5
7F2
100
AcDbEntity
  8
AXIS
100
AcDbCircle
 62
7
  6
CONTINUOUS
 10
9.6837992072
 20
10.9750976343
 40
0.0515
100
AcDbArc
 50
0.0
 51
180.0
  0
ARC
  5
7F3
100
AcDbEntity
  8
0
100
AcDbCircle
 62
7
  6
CONTINUOUS
 10
9.7943543253
 20
11.1527194516
 40
0.0196850394
100
AcDbArc
 50
130.773896644
 51
179.9999999824
  0
ARC
  5
7F4
100
AcDbEntity
  8
0
100
AcDbCircle
 62
7
  6
CONTINUOUS
 10
13.0286060271
 20
9.8667905477
 40
0.0196850394
100
AcDbArc
 50
315.0075538757
 51
360.0
  0
ARC
  5
7F5
100
AcDbEntity
  8
0
100
AcDbCircle
 62
9
  6
CONTINUOUS
 10
13.1270314907
 20
9.9176921225
 40
0.0196850394
100
AcDbArc
 50
90.0
 51
180.0
  0
ARC
  5
7F6
100
AcDbEntity
  8
0
100
AcDbCircle
 62
7
  6
CONTINUOUS
 10
13.0286060271
 20
10.480404721
 40
0.0196850394
100
AcDbArc
 50
0.0
 51
44.9924461243
  0
ARC
  5
7F7
100
AcDbEntity
  8
0
100
AcDbCircle
 62
6
  6
CONTINUOUS
 10
13.1270314907
 20
10.4295031462
 40
0.0196850394
100
AcDbArc
 50
180.0
 51
270.0
  0
ARC
  5
7F8
100
AcDbEntity
  8
AXIS
100
AcDbCircle
 62
7
  6
CONTINUOUS
 10
9.6837992072
 20
2.8315432319
 40
0.0515
100
AcDbArc
 50
180.0
 51
360.0
  0
ARC
  5
7F9
100
AcDbEntity
  8
0
100
AcDbCircle
 62
7
  6
CONTINUOUS
 10
9.7943543253
 20
2.6539214147
 40
0.0196850394
100
AcDbArc
 50
180.0000000207
 51
229.2260529095
  0
CIRCLE
  5
7FA
100
AcDbEntity
  8
DEFAULT_2
100
AcDbCircle
 62
8
  6
HIDDEN
 10
10.022700782
 20
3.6330432319
 40
0.125
  0
CIRCLE
  5
7FB
100
AcDbEntity
  8
02___PRT_ALL_AXES
100
AcDbCircle
 62
7
  6
CONTINUOUS
 10
10.022700782
 20
3.6330432319
 40
0.100492126
  0
ARC
  5
7FC
100
AcDbEntity
  8
AXIS
100
AcDbCircle
 62
7
  6
CONTINUOUS
 10
9.6837992072
 20
4.4345432319
 40
0.0515
100
AcDbArc
 50
0.0
 51
180.0
  0
ARC
  5
7FD
100
AcDbEntity
  8
0
100
AcDbCircle
 62
7
  6
CONTINUOUS
 10
9.7943543253
 20
4.6121651334
 40
0.0196850394
100
AcDbArc
 50
130.7738966448
 51
179.9999643458
  0
ARC
  5
7FE
100
AcDbEntity
  8
0
100
AcDbCircle
 62
7
  6
CONTINUOUS
 10
13.0286060271
 20
3.3262361453
 40
0.0196850394
100
AcDbArc
 50
315.0075538757
 51
360.0
  0
ARC
  5
7FF
100
AcDbEntity
  8
0
100
AcDbCircle
 62
6
  6
CONTINUOUS
 10
13.1270314907
 20
3.3771377201
 40
0.0196850394
100
AcDbArc
 50
90.0
 51
180.0
  0
ARC
  5
800
100
AcDbEntity
  8
0
100
AcDbCircle
 62
7
  6
CONTINUOUS
 10
13.0286060271
 20
3.9398503185
 40
0.0196850394
100
AcDbArc
 50
0.0
 51
44.9924461243
  0
ARC
  5
801
100
AcDbEntity
  8
0
100
AcDbCircle
 62
6
  6
CONTINUOUS
 10
13.1270314907
 20
3.8889487437
 40
0.0196850394
100
AcDbArc
 50
180.0
 51
270.0
  0
ARC
  5
802
100
AcDbEntity
  8
AXIS
100
AcDbCircle
 62
7
  6
CONTINUOUS
 10
9.6837992072
 20
13.0179087625
 40
0.0515
100
AcDbArc
 50
180.0
 51
360.0
  0
ARC
  5
803
100
AcDbEntity
  8
0
100
AcDbCircle
 62
7
  6
CONTINUOUS
 10
9.7943543253
 20
12.840289747
 40
0.0196850394
100
AcDbArc
 50
180.0
 51
229.2261494718
  0
CIRCLE
  5
804
100
AcDbEntity
  8
DEFAULT_2
100
AcDbCircle
 62
8
  6
HIDDEN
 10
10.022700782
 20
13.8194087625
 40
0.0984251969
  0
CIRCLE
  5
805
100
AcDbEntity
  8
02___PRT_ALL_AXES
100
AcDbCircle
 62
7
  6
CONTINUOUS
 10
10.022700782
 20
13.8194087625
 40
0.0826771654
  0
ARC
  5
806
100
AcDbEntity
  8
AXIS
100
AcDbCircle
 62
7
  6
CONTINUOUS
 10
9.6837992072
 20
14.6209087625
 40
0.0515
100
AcDbArc
 50
0.0
 51
180.0
  0
ARC
  5
807
100
AcDbEntity
  8
0
100
AcDbCircle
 62
7
  6
CONTINUOUS
 10
9.7943543253
 20
14.798527778
 40
0.0196850394
100
AcDbArc
 50
130.7738505282
 51
180.0
  0
ARC
  5
808
100
AcDbEntity
  8
0
100
AcDbCircle
 62
7
  6
CONTINUOUS
 10
13.0286060271
 20
13.5126016759
 40
0.0196850394
100
AcDbArc
 50
315.0075538757
 51
360.0
  0
ARC
  5
809
100
AcDbEntity
  8
0
100
AcDbCircle
 62
6
  6
CONTINUOUS
 10
13.1270314907
 20
13.5635032507
 40
0.0196850394
100
AcDbArc
 50
90.0
 51
180.0
  0
CIRCLE
  5
80A
100
AcDbEntity
  8
DEFAULT_2
100
AcDbCircle
 62
8
  6
HIDDEN
 10
12.6349055064
 20
13.8194087625
 40
0.0984251969
  0
CIRCLE
  5
80B
100
AcDbEntity
  8
02___PRT_ALL_AXES
100
AcDbCircle
 62
7
  6
CONTINUOUS
 10
12.6349055064
 20
13.8194087625
 40
0.0826771654
  0
ARC
  5
80C
100
AcDbEntity
  8
0
100
AcDbCircle
 62
7
  6
CONTINUOUS
 10
13.0286060271
 20
14.1262158491
 40
0.0196850394
100
AcDbArc
 50
0.0
 51
44.9924461243
  0
ARC
  5
80D
100
AcDbEntity
  8
0
100
AcDbCircle
 62
6
  6
CONTINUOUS
 10
13.1270314907
 20
14.0753142743
 40
0.0196850394
100
AcDbArc
 50
180.0
 51
270.0
  0
ARC
  5
80E
100
AcDbEntity
  8
02___PRT_ALL_AXES
100
AcDbCircle
 62
7
  6
CONTINUOUS
 10
5.4465464013
 20
7.0502405515
 40
0.1901574803
100
AcDbArc
 50
178.2223929819
 51
243.3407197911
  0
ARC
  5
80F
100
AcDbEntity
  8
02___PRT_ALL_AXES
100
AcDbCircle
 62
7
  6
CONTINUOUS
 10
5.5358217379
 20
6.80495858
 40
0.1901574803
100
AcDbArc
 50
156.6592802089
 51
223.5319169777
  0
CIRCLE
  5
810
100
AcDbEntity
  8
02___PRT_ALL_AXES
100
AcDbCircle
 62
7
  6
CONTINUOUS
 10
5.1486263449
 20
6.677419886
 40
0.1279527559
  0
CIRCLE
  5
811
100
AcDbEntity
  8
0
100
AcDbCircle
 62
7
  6
CONTINUOUS
 10
5.1486263449
 20
6.677419886
 40
0.1095
  0
CIRCLE
  5
812
100
AcDbEntity
  8
0
100
AcDbCircle
 62
9
  6
CONTINUOUS
 10
5.1486263449
 20
6.677419886
 40
0.0938888156
  0
ARC
  5
813
100
AcDbEntity
  8
02___PRT_ALL_AXES
100
AcDbCircle
 62
7
  6
CONTINUOUS
 10
5.6062617077
 20
7.278337648
 40
0.1901574803
100
AcDbArc
 50
46.6592802089
 51
113.7827110956
  0
ARC
  5
814
100
AcDbEntity
  8
02___PRT_ALL_AXES
100
AcDbCircle
 62
7
  6
CONTINUOUS
 10
5.7367735187
 20
7.0169868151
 40
1.0334645669
100
AcDbArc
 50
10.9800368462
 51
169.0199627075
  0
ARC
  5
815
100
AcDbEntity
  8
02___PRT_ALL_AXES
100
AcDbCircle
 62
7
  6
CONTINUOUS
 10
5.7367735187
 20
7.0169868151
 40
1.0334645669
100
AcDbArc
 50
285.4659148315
 51
349.0199627075
  0
ARC
  5
816
100
AcDbEntity
  8
02___PRT_ALL_AXES
100
AcDbCircle
 62
7
  6
CONTINUOUS
 10
5.7367735187
 20
7.0169868151
 40
1.0334645669
100
AcDbArc
 50
190.9800368462
 51
254.534085319
  0
CIRCLE
  5
817
100
AcDbEntity
  8
0
100
AcDbCircle
 62
7
  6
CONTINUOUS
 10
5.7367735187
 20
7.0169868151
 40
0.8661417323
  0
CIRCLE
  5
818
100
AcDbEntity
  8
0
100
AcDbCircle
 62
7
  6
CONTINUOUS
 10
5.7367735187
 20
7.0169868151
 40
0.8464566842
  0
CIRCLE
  5
819
100
AcDbEntity
  8
02___PRT_ALL_AXES
100
AcDbCircle
 62
7
  6
CONTINUOUS
 10
5.7367735187
 20
7.0169868151
 40
0.4822834646
  0
CIRCLE
  5
81A
100
AcDbEntity
  8
0
100
AcDbCircle
 62
7
  6
CONTINUOUS
 10
5.7367735187
 20
7.0169868151
 40
0.3248023937
  0
CIRCLE
  5
81B
100
AcDbEntity
  8
0
100
AcDbCircle
 62
7
  6
CONTINUOUS
 10
5.7367735187
 20
7.0169868151
 40
0.3051181102
  0
ARC
  5
81C
100
AcDbEntity
  8
02___PRT_ALL_AXES
100
AcDbCircle
 62
7
  6
CONTINUOUS
 10
5.9737813927
 20
6.8462095967
 40
0.1901574803
100
AcDbArc
 50
330.1760935467
 51
360.0
  0
CIRCLE
  5
81D
100
AcDbEntity
  8
02___PRT_ALL_AXES
100
AcDbCircle
 62
7
  6
CONTINUOUS
 10
6.3249206925
 20
6.677419886
 40
0.1279527559
  0
CIRCLE
  5
81E
100
AcDbEntity
  8
0
100
AcDbCircle
 62
7
  6
CONTINUOUS
 10
6.3249206925
 20
6.677419886
 40
0.1095
  0
CIRCLE
  5
81F
100
AcDbEntity
  8
0
100
AcDbCircle
 62
9
  6
CONTINUOUS
 10
6.3249206925
 20
6.677419886
 40
0.0938888156
  0
ARC
  5
820
100
AcDbEntity
  8
02___PRT_ALL_AXES
100
AcDbCircle
 62
7
  6
CONTINUOUS
 10
5.9737813927
 20
7.1877640335
 40
0.1901574803
100
AcDbArc
 50
0.0
 51
29.8239066026
  0
ARC
  5
821
100
AcDbEntity
  8
02___PRT_ALL_AXES
100
AcDbCircle
 62
7
  6
CONTINUOUS
 10
5.8672853297
 20
7.278337648
 40
0.1901574803
100
AcDbArc
 50
66.2172889044
 51
133.3407197911
  0
CIRCLE
  5
822
100
AcDbEntity
  8
02___PRT_ALL_AXES
100
AcDbCircle
 62
7
  6
CONTINUOUS
 10
5.7367735187
 20
7.6961206734
 40
0.1279527559
  0
CIRCLE
  5
823
100
AcDbEntity
  8
0
100
AcDbCircle
 62
7
  6
CONTINUOUS
 10
5.7367735187
 20
7.6961206734
 40
0.1095
  0
CIRCLE
  5
824
100
AcDbEntity
  8
0
100
AcDbCircle
 62
9
  6
CONTINUOUS
 10
5.7367735187
 20
7.6961206734
 40
0.0938888156
  0
ENDSEC
  0
SECTION
  2
OBJECTS
  0
DICTIONARY
  5
C
100
AcDbDictionary
280
0
281
1
  3
ACAD_GROUP
350
D
  3
ACAD_MLINESTYLE
350
17
  3
ACAD_LAYOUT
350
1A
  3
ACAD_PLOTSETTINGS
350
19
  3
ACAD_PLOTSTYLENAME
350
E
  0
DICTIONARY
  5
D
102
{ACAD_REACTORS
330
C
102
}
100
AcDbDictionary
280
0
281
1
  0
ACDBDICTIONARYWDFLT
  5
E
102
{ACAD_REACTORS
330
C
102
}
100
AcDbDictionary
281
1
  3
Normal
350
F
100
AcDbDictionaryWithDefault
340
F
  0
DICTIONARY
  5
17
102
{ACAD_REACTORS
330
C
102
}
100
AcDbDictionary
280
0
281
1
  3
Standard
350
18
  0
DICTIONARY
  5
19
102
{ACAD_REACTORS
330
C
102
}
100
AcDbDictionary
281
1
  0
DICTIONARY
  5
1A
102
{ACAD_REACTORS
330
C
102
}
100
AcDbDictionary
281
1
  3
Layout1
350
1E
  3
Model
350
22
  0
ACDBPLACEHOLDER
  5
F
102
{ACAD_REACTORS
330
E
102
}
  0
MLINESTYLE
  5
18
102
{ACAD_REACTORS
330
17
102
}
100
AcDbMlineStyle
  2
STANDARD
 70
0
  3

 62
256
 51
90.0
 52
90.0
 71
2
 49
0.5
 62
256
  6
BYLAYER
 49
-0.5
 62
256
  6
BYLAYER
  0
LAYOUT
  5
1E
102
{ACAD_REACTORS
330
1A
102
}
100
AcDbPlotSettings
  1

  2

  4

  6

 40
0.0
 41
0.0
 42
0.0
 43
0.0
 44
0.0
 45
0.0
 46
0.0
 47
0.0
 48
0.0
 49
0.0
140
0.0
141
0.0
142
1.0
143
1.0
 70
0
 72
0
 73
0
 74
0
  7

 75
0
147
1.0
148
0.0
149
0.0
100
AcDbLayout
  1
Layout1
 70
0
 71
0
 10
0.0
 20
0.0
 11
0.0
 21
0.0
 12
0.0
 22
0.0
 32
0.0
 14
0.0
 24
0.0
 34
0.0
 15
0.0
 25
0.0
 35
0.0
146
0.0
 13
0.0
 23
0.0
 33
0.0
 16
0.0
 26
0.0
 36
0.0
 17
0.0
 27
0.0
 37
0.0
 76
0
330
1B
331
0
345
0
346
0
  0
LAYOUT
  5
22
102
{ACAD_REACTORS
330
1A
102
}
100
AcDbPlotSettings
  1

  2

  4

  6

 40
0.0
 41
0.0
 42
0.0
 43
0.0
 44
0.0
 45
0.0
 46
0.0
 47
0.0
 48
0.0
 49
0.0
140
0.0
141
0.0
142
1.0
143
1.0
 70
0
 72
0
 73
0
 74
0
  7

 75
0
147
1.0
148
0.0
149
0.0
100
AcDbLayout
  1
Model
 70
0
 71
0
 10
0.0
 20
0.0
 11
0.0
 21
0.0
 12
0.0
 22
0.0
 32
0.0
 14
0.0
 24
0.0
 34
0.0
 15
0.0
 25
0.0
 35
0.0
146
0.0
 13
0.0
 23
0.0
 33
0.0
 16
0.0
 26
0.0
 36
0.0
 17
0.0
 27
0.0
 37
0.0
 76
0
330
1F
331
0
345
0
346
0
  0
ENDSEC
  0
EOF
