999
DXF file: 146178_1.dxf
999
Pro/ENGINEER 2006170 by Parametric Technology Corporation
  0
SECTION
  2
HEADER
  9
$ACADVER
  1
AC1015
  9
$DWGCODEPAGE
  3
ANSI_1252
  9
$EXTMAX
 10
17.0
 20
11.0
 30
0.0
  9
$EXTMIN
 10
0.0
 20
0.0
 30
0.0
  9
$LIMMIN
 10
0.0
 20
0.0
  9
$LIMMAX
 10
17.0
 20
11.0
  9
$VIEWCTR
 10
8.5
 20
5.5
  9
$VIEWSIZE
 40
11.0
  9
$CLAYER
  8
0
  9
$LTSCALE
 40
0.935
  9
$CELTYPE
  6
BYLAYER
  9
$DIMSCALE
 40
1.0
  9
$DIMASZ
 40
0.1875
  9
$DIMEXO
 40
0.10625
  9
$DIMDLI
 40
0.646
  9
$DIMEXE
 40
0.306
  9
$DIMCEN
 40
0.153
  9
$DIMLFAC
 40
1.0
  9
$DIMBLK
  1
_FILLED
  9
$DIMTXT
 40
0.1
  9
$DIMTOL
 70
1
  9
$DIMLIM
 70
0
  9
$DIMTFAC
 40
1.0
  9
$DIMTP
 40
0.005
  9
$DIMTM
 40
0.005
  9
$PDMODE
 70
3
  9
$PDSIZE
 40
0.3125
  9
$HANDSEED
  5
73E
  9
$MEASUREMENT
 70
0
  9
$INSUNITS
 70
1
  0
ENDSEC
  0
SECTION
  2
CLASSES
  0
CLASS
  1
ACDBDICTIONARYWDFLT
  2
AcDbDictionaryWithDefault
  3
AutoCAD 2000
 90
0
280
0
281
0
  0
CLASS
  1
ACDBPLACEHOLDER
  2
AcDbPlaceHolder
  3
AutoCAD 2000
 90
0
280
0
281
0
  0
CLASS
  1
LAYOUT
  2
AcDbLayout
  3
AutoCAD 2000
 90
0
280
0
281
0
  0
ENDSEC
  0
SECTION
  2
TABLES
  0
TABLE
  2
VPORT
  5
8
100
AcDbSymbolTable
 70
2
  0
VPORT
  5
1F4
100
AcDbSymbolTableRecord
100
AcDbViewportTableRecord
  2
*ACTIVE
 70
0
 10
0.0
 20
0.0
 11
1.0
 21
1.0
 12
8.5
 22
5.5
 13
0.0
 23
0.0
 14
1.0
 24
1.0
 15
0.0
 25
0.0
 16
0.0
 26
0.0
 36
1.0
 17
0.0
 27
0.0
 37
0.0
 40
11.0
 41
1.5454545455
 42
50.0
 43
0.0
 44
0.0
 50
0.0
 51
0.0
 71
0
 72
100
 73
1
 74
1
 75
0
 76
0
 77
0
 78
0
  0
ENDTAB
  0
TABLE
  2
LTYPE
  5
5
100
AcDbSymbolTable
 70
6
  0
LTYPE
  5
14
100
AcDbSymbolTableRecord
100
AcDbLinetypeTableRecord
  2
BYBLOCK
 70
0
  3

 72
65
 73
0
 40
0.0
  0
LTYPE
  5
15
100
AcDbSymbolTableRecord
100
AcDbLinetypeTableRecord
  2
BYLAYER
 70
0
  3

 72
65
 73
0
 40
0.0
  0
LTYPE
  5
16
100
AcDbSymbolTableRecord
100
AcDbLinetypeTableRecord
  2
CONTINUOUS
 70
64
  3
Solid line
 72
65
 73
0
 40
0.0
  0
LTYPE
  5
1F5
100
AcDbSymbolTableRecord
100
AcDbLinetypeTableRecord
  2
CENTER
 70
64
  3
____ _ ____ _ ____ _ ____ _ ____ _ ____ _ ____
 72
65
 73
4
 40
0.6
 49
0.375
 74
0
 49
-0.075
 74
0
 49
0.075
 74
0
 49
-0.075
 74
0
  0
LTYPE
  5
1F6
100
AcDbSymbolTableRecord
100
AcDbLinetypeTableRecord
  2
HIDDEN
 70
64
  3
- - - - - - - - - - - - - - - - - - - -
 72
65
 73
2
 40
0.2
 49
0.1
 74
0
 49
-0.1
 74
0
  0
LTYPE
  5
1F7
100
AcDbSymbolTableRecord
100
AcDbLinetypeTableRecord
  2
PHANTOM
 70
64
  3
_____ _ _ _____ _ _ _____ _ _ _____
 72
65
 73
6
 40
0.8
 49
0.45
 74
0
 49
-0.05
 74
0
 49
0.1
 74
0
 49
-0.05
 74
0
 49
0.1
 74
0
 49
-0.05
 74
0
  0
LTYPE
  5
1F8
100
AcDbSymbolTableRecord
100
AcDbLinetypeTableRecord
  2
DOT
 70
64
  3
. . . . . . . . . . . . . . . . . . . .
 72
65
 73
2
 40
0.2
 49
0.1
 74
0
 49
-0.1
 74
0
  0
LTYPE
  5
1F9
100
AcDbSymbolTableRecord
100
AcDbLinetypeTableRecord
  2
DASHED
 70
64
  3
- - - - - - - - - - - - - - - - - - - -
 72
65
 73
2
 40
0.2
 49
0.1
 74
0
 49
-0.1
 74
0
  0
ENDTAB
  0
TABLE
  2
LAYER
  5
2
100
AcDbSymbolTable
 70
36
  0
LAYER
  5
10
100
AcDbSymbolTableRecord
100
AcDbLayerTableRecord
  2
0
 70
0
 62
7
  6
CONTINUOUS
370
-3
390
F
  0
LAYER
  5
1FA
100
AcDbSymbolTableRecord
100
AcDbLayerTableRecord
  2
DEFAULT_1
 70
0
 62
7
  6
CENTER
370
-3
390
F
  0
LAYER
  5
1FB
100
AcDbSymbolTableRecord
100
AcDbLayerTableRecord
  2
DEFAULT_2
 70
0
 62
8
  6
HIDDEN
370
-3
390
F
  0
LAYER
  5
1FC
100
AcDbSymbolTableRecord
100
AcDbLayerTableRecord
  2
DEFAULT_3
 70
0
 62
7
  6
PHANTOM
370
-3
390
F
  0
LAYER
  5
1FD
100
AcDbSymbolTableRecord
100
AcDbLayerTableRecord
  2
_2D_DELETED_OBJS
 70
0
 62
7
  6
CONTINUOUS
370
-3
390
F
  0
LAYER
  5
1FE
100
AcDbSymbolTableRecord
100
AcDbLayerTableRecord
  2
_BLACK_HOLE
 70
0
 62
7
  6
CONTINUOUS
370
-3
390
F
  0
LAYER
  5
1FF
100
AcDbSymbolTableRecord
100
AcDbLayerTableRecord
  2
01___PRT_ALL_DTM_PLN
 70
0
 62
7
  6
CONTINUOUS
370
-3
390
F
  0
LAYER
  5
200
100
AcDbSymbolTableRecord
100
AcDbLayerTableRecord
  2
01___PRT_DEF_DTM_PLN
 70
0
 62
7
  6
CONTINUOUS
370
-3
390
F
  0
LAYER
  5
201
100
AcDbSymbolTableRecord
100
AcDbLayerTableRecord
  2
02___PRT_ALL_AXES
 70
0
 62
7
  6
CONTINUOUS
370
-3
390
F
  0
LAYER
  5
202
100
AcDbSymbolTableRecord
100
AcDbLayerTableRecord
  2
03___PRT_ALL_CURVES
 70
0
 62
7
  6
CONTINUOUS
370
-3
390
F
  0
LAYER
  5
203
100
AcDbSymbolTableRecord
100
AcDbLayerTableRecord
  2
04___PRT_ALL_DTM_PNT
 70
0
 62
7
  6
CONTINUOUS
370
-3
390
F
  0
LAYER
  5
204
100
AcDbSymbolTableRecord
100
AcDbLayerTableRecord
  2
05___PRT_ALL_DTM_CSYS
 70
0
 62
7
  6
CONTINUOUS
370
-3
390
F
  0
LAYER
  5
205
100
AcDbSymbolTableRecord
100
AcDbLayerTableRecord
  2
05___PRT_DEF_DTM_CSYS
 70
0
 62
7
  6
CONTINUOUS
370
-3
390
F
  0
LAYER
  5
206
100
AcDbSymbolTableRecord
100
AcDbLayerTableRecord
  2
06___PRT_ALL_SURFS
 70
0
 62
7
  6
CONTINUOUS
370
-3
390
F
  0
LAYER
  5
207
100
AcDbSymbolTableRecord
100
AcDbLayerTableRecord
  2
AXIS
 70
0
 62
7
  6
CONTINUOUS
370
-3
390
F
  0
LAYER
  5
208
100
AcDbSymbolTableRecord
100
AcDbLayerTableRecord
  2
AXIS_COSMETIC_THREADS
 70
0
 62
7
  6
CONTINUOUS
370
-3
390
F
  0
LAYER
  5
209
100
AcDbSymbolTableRecord
100
AcDbLayerTableRecord
  2
DATUM_CURVES
 70
0
 62
7
  6
CONTINUOUS
370
-3
390
F
  0
LAYER
  5
20A
100
AcDbSymbolTableRecord
100
AcDbLayerTableRecord
  2
DATUM_PLANES
 70
0
 62
7
  6
CONTINUOUS
370
-3
390
F
  0
LAYER
  5
20B
100
AcDbSymbolTableRecord
100
AcDbLayerTableRecord
  2
NOTES
 70
0
 62
7
  6
CONTINUOUS
370
-3
390
F
  0
LAYER
  5
20C
100
AcDbSymbolTableRecord
100
AcDbLayerTableRecord
  2
QUILTS
 70
0
 62
7
  6
CONTINUOUS
370
-3
390
F
  0
LAYER
  5
20D
100
AcDbSymbolTableRecord
100
AcDbLayerTableRecord
  2
SCHEME_DIMS
 70
0
 62
7
  6
CONTINUOUS
370
-3
390
F
  0
LAYER
  5
20E
100
AcDbSymbolTableRecord
100
AcDbLayerTableRecord
  2
SYMBOLS
 70
0
 62
7
  6
CONTINUOUS
370
-3
390
F
  0
ENDTAB
  0
TABLE
  2
STYLE
  5
3
100
AcDbSymbolTable
 70
1
  0
STYLE
  5
11
100
AcDbSymbolTableRecord
100
AcDbTextStyleTableRecord
  2
STANDARD
 70
0
 40
0.0
 41
1.0
 50
0.0
 71
0
 42
0.2
  3
txt
  4

  0
ENDTAB
  0
TABLE
  2
VIEW
  5
6
100
AcDbSymbolTable
 70
0
  0
ENDTAB
  0
TABLE
  2
UCS
  5
7
100
AcDbSymbolTable
 70
0
  0
ENDTAB
  0
TABLE
  2
APPID
  5
9
100
AcDbSymbolTable
 70
1
  0
APPID
  5
20F
100
AcDbSymbolTableRecord
100
AcDbRegAppTableRecord
  2
ACAD
 70
0
  0
ENDTAB
  0
TABLE
  2
BLOCK_RECORD
  5
1
100
AcDbSymbolTable
 70
0
  0
BLOCK_RECORD
  5
1F
100
AcDbSymbolTableRecord
100
AcDbBlockTableRecord
  2
*MODEL_SPACE
  0
BLOCK_RECORD
  5
1B
100
AcDbSymbolTableRecord
100
AcDbBlockTableRecord
  2
*PAPER_SPACE
  0
BLOCK_RECORD
  5
210
100
AcDbSymbolTableRecord
100
AcDbBlockTableRecord
  2
_FILLED
  0
BLOCK_RECORD
  5
211
100
AcDbSymbolTableRecord
100
AcDbBlockTableRecord
  2
BANNER_LOGO_TITLEBLOCK_BL0
  0
BLOCK_RECORD
  5
212
100
AcDbSymbolTableRecord
100
AcDbBlockTableRecord
  2
*D0
  0
BLOCK_RECORD
  5
213
100
AcDbSymbolTableRecord
100
AcDbBlockTableRecord
  2
*D1
  0
BLOCK_RECORD
  5
214
100
AcDbSymbolTableRecord
100
AcDbBlockTableRecord
  2
*D2
  0
BLOCK_RECORD
  5
215
100
AcDbSymbolTableRecord
100
AcDbBlockTableRecord
  2
*D3
  0
ENDTAB
  0
TABLE
  2
DIMSTYLE
  5
A
100
AcDbSymbolTable
 70
1
100
AcDbDimStyleTable
 71
0
  0
DIMSTYLE
105
216
100
AcDbSymbolTableRecord
100
AcDbDimStyleTableRecord
  2
STANDARD
 70
0
  3

  4

 40
1.0
 41
0.1875
 42
0.0625
 43
0.38
 44
0.18
 45
0.0
 46
0.0
 47
0.005
 48
0.005
140
0.1
141
0.09
142
0.0
143
25.4
144
1.0
145
0.0
146
1.0
147
0.09
 71
1.0
 72
0.0
 73
1
 74
1
 75
0
 76
0
 77
0
 78
4
170
0
171
2
172
0
173
0
174
0
175
0
176
0
177
0
178
0
270
2
271
3
272
3
273
2
274
2
275
0
280
0
281
0
282
0
283
1
284
4
285
0
286
0
287
3
288
0
340
11
341
210
342
210
343
210
344
210
  0
DIMSTYLE
105
217
100
AcDbSymbolTableRecord
100
AcDbDimStyleTableRecord
  2
DIMSTYLE_1
 70
0
  3

  4

 40
1.0
 41
0.1875
 42
0.0625
 43
0.38
 44
0.18
 45
0.0
 46
0.0
 47
0.1
 48
0.1
140
0.1
141
0.09
142
0.0
143
25.4
144
1.0
145
0.0
146
1.0
147
0.09
 71
0.0
 72
0.0
 73
1
 74
1
 75
0
 76
0
 77
0
 78
4
170
0
171
2
172
0
173
0
174
0
175
0
176
0
177
0
178
0
270
2
271
1
272
1
273
2
274
2
275
0
280
0
281
0
282
0
283
1
284
4
285
0
286
0
287
3
288
0
340
11
341
210
342
210
343
210
344
210
  0
DIMSTYLE
105
218
100
AcDbSymbolTableRecord
100
AcDbDimStyleTableRecord
  2
DIMSTYLE_2
 70
0
  3

  4

 40
1.0
 41
0.1875
 42
0.0625
 43
0.38
 44
0.18
 45
0.0
 46
0.0
 47
0.1
 48
0.1
140
0.1
141
0.09
142
0.0
143
25.4
144
1.0
145
0.0
146
1.0
147
0.09
 71
0.0
 72
0.0
 73
1
 74
1
 75
0
 76
0
 77
0
 78
4
170
0
171
2
172
0
173
0
174
0
175
0
176
0
177
0
178
0
270
2
271
1
272
1
273
2
274
2
275
0
280
0
281
0
282
0
283
1
284
4
285
0
286
0
287
3
288
0
340
11
341
210
342
210
343
210
344
210
  0
ENDTAB
  0
ENDSEC
  0
SECTION
  2
BLOCKS
  0
BLOCK
  5
20
100
AcDbEntity
  8
0
100
AcDbBlockBegin
  2
*MODEL_SPACE
 70
0
 10
0.0
 20
0.0
 30
0.0
  3
*MODEL_SPACE
  1

  0
ENDBLK
  5
21
100
AcDbEntity
  8
0
100
AcDbBlockEnd
  0
BLOCK
  5
1C
100
AcDbEntity
  8
0
100
AcDbBlockBegin
  2
*PAPER_SPACE
 70
0
 10
0.0
 20
0.0
 30
0.0
  3
*PAPER_SPACE
  1

  0
ENDBLK
  5
1D
100
AcDbEntity
  8
0
100
AcDbBlockEnd
  0
BLOCK
  5
219
100
AcDbEntity
  8
0
100
AcDbBlockBegin
 62
2
  6
CONTINUOUS
  2
BANNER_LOGO_TITLEBLOCK_BL0
 70
64
 10
12.9046655056
 20
2.5403783448
  3
BANNER_LOGO_TITLEBLOCK_BL0
  1

  0
LWPOLYLINE
  5
21A
100
AcDbEntity
  8
0
100
AcDbPolyline
 62
2
  6
CONTINUOUS
 90
29
 70
0
 10
12.0796650004
 20
2.5403783448
 10
12.1000078385
 20
2.5005819703
 10
12.1615890075
 20
2.4620382478
 10
12.2590135686
 20
2.4281250935
 10
12.3910903821
 20
2.3992568791
 10
12.5462480343
 20
2.3779627503
 10
12.7225901426
 20
2.3645025835
 10
12.9046652672
 20
2.3600565514
 10
13.0867408686
 20
2.3645025835
 10
13.2630829769
 20
2.3779627503
 10
13.4182401522
 20
2.3992568791
 10
13.5503174426
 20
2.4281250935
 10
13.6477415269
 20
2.4620382478
 10
13.7093231727
 20
2.5005819703
 10
13.7296660108
 20
2.5403783448
 10
13.7093231727
 20
2.5801747193
 10
13.6477415269
 20
2.6187184418
 10
13.5503174426
 20
2.6526315961
 10
13.4182401522
 20
2.6814998105
 10
13.2630829769
 20
2.7027939393
 10
13.0867408686
 20
2.7162541061
 10
12.9046652672
 20
2.7207001382
 10
12.7225901426
 20
2.7162541061
 10
12.5462480343
 20
2.7027939393
 10
12.3910903821
 20
2.6814998105
 10
12.2590135686
 20
2.6526315961
 10
12.1615890075
 20
2.6187184418
 10
12.1000078385
 20
2.5801747193
 10
12.0796650004
 20
2.5403783448
  0
ARC
  5
21B
100
AcDbEntity
  8
0
100
AcDbCircle
 62
2
  6
CONTINUOUS
 10
12.400005721
 20
2.5168763464
 40
0.0153945295
100
AcDbArc
 50
354.0454548824
 51
5.1878013979
  0
ARC
  5
21C
100
AcDbEntity
  8
0
100
AcDbCircle
 62
2
  6
CONTINUOUS
 10
12.3931760319
 20
2.5166878286
 40
0.0222174455
100
AcDbArc
 50
4.0793399388
 51
69.834329283
  0
LINE
  5
21D
100
AcDbEntity
  8
0
100
AcDbLine
 62
2
  6
CONTINUOUS
 10
12.4008351814
 20
2.5375433389
 11
12.3907841758
 21
2.5410923409
  0
LINE
  5
21E
100
AcDbEntity
  8
0
100
AcDbLine
 62
2
  6
CONTINUOUS
 10
12.3907841758
 20
2.5410923409
 11
12.3990241804
 21
2.5458683435
  0
ARC
  5
21F
100
AcDbEntity
  8
0
100
AcDbCircle
 62
2
  6
CONTINUOUS
 10
12.3771587979
 20
2.5826952352
 40
0.0428289026
100
AcDbArc
 50
300.6990502959
 51
319.0591802498
  0
ARC
  5
220
100
AcDbEntity
  8
0
100
AcDbCircle
 62
2
  6
CONTINUOUS
 10
12.3971873948
 20
2.5665668817
 40
0.0171568255
100
AcDbArc
 50
315.9145124245
 51
16.0049121282
  0
ARC
  5
221
100
AcDbEntity
  8
0
100
AcDbCircle
 62
2
  6
CONTINUOUS
 10
12.3922357827
 20
2.5632132173
 40
0.0229166529
100
AcDbArc
 50
20.6563876465
 51
62.3316896973
  0
ARC
  5
222
100
AcDbEntity
  8
0
100
AcDbCircle
 62
2
  6
CONTINUOUS
 10
12.371573659
 20
2.5302846524
 40
0.061747717
100
AcDbArc
 50
59.5385584989
 51
90.0050977555
  0
LINE
  5
223
100
AcDbEntity
  8
0
100
AcDbLine
 62
2
  6
CONTINUOUS
 10
12.3715681652
 20
2.5920323691
 11
12.2055050731
 21
2.5920323691
  0
ARC
  5
224
100
AcDbEntity
  8
0
100
AcDbCircle
 62
2
  6
CONTINUOUS
 10
12.2055050712
 20
2.5895573696
 40
0.0024749995
100
AcDbArc
 50
89.9999571957
 51
180.0000428043
  0
LINE
  5
225
100
AcDbEntity
  8
0
100
AcDbLine
 62
2
  6
CONTINUOUS
 10
12.2030300717
 20
2.5895573678
 11
12.2030300717
 21
2.5697573568
  0
ARC
  5
226
100
AcDbEntity
  8
0
100
AcDbCircle
 62
2
  6
CONTINUOUS
 10
12.2055050712
 20
2.5697573549
 40
0.0024749995
100
AcDbArc
 50
179.9999571957
 51
270.0000428043
  0
LINE
  5
227
100
AcDbEntity
  8
0
100
AcDbLine
 62
2
  6
CONTINUOUS
 10
12.2055050731
 20
2.5672823554
 11
12.2294470864
 21
2.5672823554
  0
ARC
  5
228
100
AcDbEntity
  8
0
100
AcDbCircle
 62
2
  6
CONTINUOUS
 10
12.2294470882
 20
2.5648073559
 40
0.0024749995
100
AcDbArc
 50
359.9999571957
 51
90.0000428043
  0
LINE
  5
229
100
AcDbEntity
  8
0
100
AcDbLine
 62
2
  6
CONTINUOUS
 10
12.2319220877
 20
2.564807354
 11
12.2319220877
 21
2.5184523283
  0
ARC
  5
22A
100
AcDbEntity
  8
0
100
AcDbCircle
 62
2
  6
CONTINUOUS
 10
12.2294470882
 20
2.5184523265
 40
0.0024749995
100
AcDbArc
 50
269.9999571957
 51
0.0000428043
  0
LINE
  5
22B
100
AcDbEntity
  8
0
100
AcDbLine
 62
2
  6
CONTINUOUS
 10
12.2294470864
 20
2.515977327
 11
12.2055050731
 21
2.515977327
  0
ARC
  5
22C
100
AcDbEntity
  8
0
100
AcDbCircle
 62
2
  6
CONTINUOUS
 10
12.2055050712
 20
2.5135023274
 40
0.0024749995
100
AcDbArc
 50
89.9999571957
 51
180.0000428043
  0
LINE
  5
22D
100
AcDbEntity
  8
0
100
AcDbLine
 62
2
  6
CONTINUOUS
 10
12.2030300717
 20
2.5135023256
 11
12.2030300717
 21
2.4937023146
  0
ARC
  5
22E
100
AcDbEntity
  8
0
100
AcDbCircle
 62
2
  6
CONTINUOUS
 10
12.2055050712
 20
2.4937023128
 40
0.0024749995
100
AcDbArc
 50
179.9999571957
 51
270.0000428043
  0
LINE
  5
22F
100
AcDbEntity
  8
0
100
AcDbLine
 62
2
  6
CONTINUOUS
 10
12.2055050731
 20
2.4912273132
 11
12.3819511709
 21
2.4912273132
  0
ARC
  5
230
100
AcDbEntity
  8
0
100
AcDbCircle
 62
2
  6
CONTINUOUS
 10
12.3792298263
 20
2.539634765
 40
0.048483885
100
AcDbArc
 50
273.21763719
 51
303.0749121182
  0
ARC
  5
231
100
AcDbEntity
  8
0
100
AcDbCircle
 62
2
  6
CONTINUOUS
 10
12.3940692204
 20
2.5168671561
 40
0.0213072145
100
AcDbArc
 50
303.0488228549
 51
355.7263138674
  0
LINE
  5
232
100
AcDbEntity
  8
0
100
AcDbLine
 62
2
  6
CONTINUOUS
 10
12.2949101227
 20
2.5499573458
 11
12.3362731456
 21
2.5499573458
  0
ARC
  5
233
100
AcDbEntity
  8
0
100
AcDbCircle
 62
2
  6
CONTINUOUS
 10
12.3362731456
 20
2.5586198506
 40
0.0086625048
100
AcDbArc
 50
270.0
 51
90.0
  0
LINE
  5
234
100
AcDbEntity
  8
0
100
AcDbLine
 62
2
  6
CONTINUOUS
 10
12.3362731456
 20
2.5672823554
 11
12.2949101227
 21
2.5672823554
  0
ARC
  5
235
100
AcDbEntity
  8
0
100
AcDbCircle
 62
2
  6
CONTINUOUS
 10
12.2949101208
 20
2.5648073559
 40
0.0024749995
100
AcDbArc
 50
89.9999571957
 51
180.0000428043
  0
LINE
  5
236
100
AcDbEntity
  8
0
100
AcDbLine
 62
2
  6
CONTINUOUS
 10
12.2924351213
 20
2.564807354
 11
12.2924351213
 21
2.5524323472
  0
ARC
  5
237
100
AcDbEntity
  8
0
100
AcDbCircle
 62
2
  6
CONTINUOUS
 10
12.2949101208
 20
2.5524323453
 40
0.0024749995
100
AcDbArc
 50
179.9999571957
 51
270.0000428043
  0
LINE
  5
238
100
AcDbEntity
  8
0
100
AcDbLine
 62
2
  6
CONTINUOUS
 10
12.2924351213
 20
2.5184523283
 11
12.2924351213
 21
2.5308273352
  0
ARC
  5
239
100
AcDbEntity
  8
0
100
AcDbCircle
 62
2
  6
CONTINUOUS
 10
12.2949101208
 20
2.530827337
 40
0.0024749995
100
AcDbArc
 50
89.9999571957
 51
180.0000428043
  0
LINE
  5
23A
100
AcDbEntity
  8
0
100
AcDbLine
 62
2
  6
CONTINUOUS
 10
12.2949101227
 20
2.5333023366
 11
12.3362731456
 21
2.5333023366
  0
ARC
  5
23B
100
AcDbEntity
  8
0
100
AcDbCircle
 62
2
  6
CONTINUOUS
 10
12.3362731456
 20
2.5246398318
 40
0.0086625048
100
AcDbArc
 50
270.0
 51
90.0
  0
LINE
  5
23C
100
AcDbEntity
  8
0
100
AcDbLine
 62
2
  6
CONTINUOUS
 10
12.3362731456
 20
2.515977327
 11
12.2949101227
 21
2.515977327
  0
ARC
  5
23D
100
AcDbEntity
  8
0
100
AcDbCircle
 62
2
  6
CONTINUOUS
 10
12.2949101208
 20
2.5184523265
 40
0.0024749995
100
AcDbArc
 50
179.9999571957
 51
270.0000428043
  0
ARC
  5
23E
100
AcDbEntity
  8
0
100
AcDbCircle
 62
2
  6
CONTINUOUS
 10
13.5806801742
 20
2.5212486481
 40
0.044722495
100
AcDbArc
 50
195.531588407
 51
204.7624440448
  0
LINE
  5
23F
100
AcDbEntity
  8
0
100
AcDbLine
 62
2
  6
CONTINUOUS
 10
13.5375908118
 20
2.5092733232
 11
13.5357868108
 21
2.5153423266
  0
ARC
  5
240
100
AcDbEntity
  8
0
100
AcDbCircle
 62
2
  6
CONTINUOUS
 10
13.4974076135
 20
2.5055452462
 40
0.0396099176
100
AcDbArc
 50
14.3201081283
 51
22.4984722084
  0
ARC
  5
241
100
AcDbEntity
  8
0
100
AcDbCircle
 62
2
  6
CONTINUOUS
 10
13.5201739219
 20
2.5145168728
 40
0.0151491919
100
AcDbArc
 50
24.098260853
 51
63.0369451818
  0
ARC
  5
242
100
AcDbEntity
  8
0
100
AcDbCircle
 62
2
  6
CONTINUOUS
 10
13.5161192671
 20
2.5062372524
 40
0.0243676582
100
AcDbArc
 50
63.3666028271
 51
90.3937697637
  0
LINE
  5
243
100
AcDbEntity
  8
0
100
AcDbLine
 62
2
  6
CONTINUOUS
 10
13.5159517998
 20
2.5306043351
 11
13.4883447845
 21
2.5306043351
  0
ARC
  5
244
100
AcDbEntity
  8
0
100
AcDbCircle
 62
2
  6
CONTINUOUS
 10
13.4883447827
 20
2.5281293355
 40
0.0024749995
100
AcDbArc
 50
89.9999571957
 51
180.0000428043
  0
LINE
  5
245
100
AcDbEntity
  8
0
100
AcDbLine
 62
2
  6
CONTINUOUS
 10
13.4858697831
 20
2.5281293337
 11
13.4858697831
 21
2.5184303283
  0
ARC
  5
246
100
AcDbEntity
  8
0
100
AcDbCircle
 62
2
  6
CONTINUOUS
 10
13.4883447827
 20
2.5184303265
 40
0.0024749995
100
AcDbArc
 50
179.9999571957
 51
270.0000428043
  0
LINE
  5
247
100
AcDbEntity
  8
0
100
AcDbLine
 62
2
  6
CONTINUOUS
 10
13.4883447845
 20
2.5159553269
 11
13.5130037982
 21
2.5159553269
  0
ARC
  5
248
100
AcDbEntity
  8
0
100
AcDbCircle
 62
2
  6
CONTINUOUS
 10
13.5130038
 20
2.5134803274
 40
0.0024749995
100
AcDbArc
 50
359.9999571957
 51
90.0000428043
  0
LINE
  5
249
100
AcDbEntity
  8
0
100
AcDbLine
 62
2
  6
CONTINUOUS
 10
13.5154787995
 20
2.5134803256
 11
13.5154787995
 21
2.4937023146
  0
ARC
  5
24A
100
AcDbEntity
  8
0
100
AcDbCircle
 62
2
  6
CONTINUOUS
 10
13.5130038
 20
2.4937023128
 40
0.0024749995
100
AcDbArc
 50
269.9999571957
 51
0.0000428043
  0
LINE
  5
24B
100
AcDbEntity
  8
0
100
AcDbLine
 62
2
  6
CONTINUOUS
 10
13.5130037982
 20
2.4912273132
 11
13.3994327352
 21
2.4912273132
  0
ARC
  5
24C
100
AcDbEntity
  8
0
100
AcDbCircle
 62
2
  6
CONTINUOUS
 10
13.3994327333
 20
2.4937023128
 40
0.0024749995
100
AcDbArc
 50
179.9999571957
 51
270.0000428043
  0
LINE
  5
24D
100
AcDbEntity
  8
0
100
AcDbLine
 62
2
  6
CONTINUOUS
 10
13.3969577338
 20
2.4937023146
 11
13.3969577338
 21
2.5135023256
  0
ARC
  5
24E
100
AcDbEntity
  8
0
100
AcDbCircle
 62
2
  6
CONTINUOUS
 10
13.3994327333
 20
2.5135023274
 40
0.0024749995
100
AcDbArc
 50
89.9999571957
 51
180.0000428043
  0
LINE
  5
24F
100
AcDbEntity
  8
0
100
AcDbLine
 62
2
  6
CONTINUOUS
 10
13.3994327352
 20
2.515977327
 11
13.4221787478
 21
2.515977327
  0
ARC
  5
250
100
AcDbEntity
  8
0
100
AcDbCircle
 62
2
  6
CONTINUOUS
 10
13.4221787497
 20
2.5184523265
 40
0.0024749995
100
AcDbArc
 50
269.9999571957
 51
0.0000428042
  0
LINE
  5
251
100
AcDbEntity
  8
0
100
AcDbLine
 62
2
  6
CONTINUOUS
 10
13.4246537492
 20
2.5184523283
 11
13.4246537492
 21
2.564807354
  0
ARC
  5
252
100
AcDbEntity
  8
0
100
AcDbCircle
 62
2
  6
CONTINUOUS
 10
13.4221787497
 20
2.5648073559
 40
0.0024749995
100
AcDbArc
 50
359.9999571957
 51
90.0000428043
  0
LINE
  5
253
100
AcDbEntity
  8
0
100
AcDbLine
 62
2
  6
CONTINUOUS
 10
13.4221787478
 20
2.5672823554
 11
13.3994327352
 21
2.5672823554
  0
ARC
  5
254
100
AcDbEntity
  8
0
100
AcDbCircle
 62
2
  6
CONTINUOUS
 10
13.3994327333
 20
2.5697573549
 40
0.0024749995
100
AcDbArc
 50
179.9999571957
 51
270.0000428043
  0
LINE
  5
255
100
AcDbEntity
  8
0
100
AcDbLine
 62
2
  6
CONTINUOUS
 10
13.3969577338
 20
2.5697573568
 11
13.3969577338
 21
2.5895573678
  0
ARC
  5
256
100
AcDbEntity
  8
0
100
AcDbCircle
 62
2
  6
CONTINUOUS
 10
13.3994327333
 20
2.5895573696
 40
0.0024749995
100
AcDbArc
 50
89.9999571957
 51
180.0000428043
  0
LINE
  5
257
100
AcDbEntity
  8
0
100
AcDbLine
 62
2
  6
CONTINUOUS
 10
13.3994327352
 20
2.5920323691
 11
13.5490138181
 21
2.5920323691
  0
ARC
  5
258
100
AcDbEntity
  8
0
100
AcDbCircle
 62
2
  6
CONTINUOUS
 10
13.5463505148
 20
2.4094934586
 40
0.1825583387
100
AcDbArc
 50
79.8618509324
 51
89.1640948679
  0
ARC
  5
259
100
AcDbEntity
  8
0
100
AcDbCircle
 62
2
  6
CONTINUOUS
 10
13.5726548052
 20
2.5503169747
 40
0.039319019
100
AcDbArc
 50
59.1202086415
 51
81.4730239328
  0
ARC
  5
25A
100
AcDbEntity
  8
0
100
AcDbCircle
 62
2
  6
CONTINUOUS
 10
13.5783142014
 20
2.5566516438
 40
0.0310192946
100
AcDbArc
 50
34.7540871
 51
62.0879016178
  0
ARC
  5
25B
100
AcDbEntity
  8
0
100
AcDbCircle
 62
2
  6
CONTINUOUS
 10
13.5900029525
 20
2.565201245
 40
0.0165459396
100
AcDbArc
 50
1.548452892
 51
33.5033152417
  0
ARC
  5
25C
100
AcDbEntity
  8
0
100
AcDbCircle
 62
2
  6
CONTINUOUS
 10
13.5932995477
 20
2.5653696972
 40
0.0132462337
100
AcDbArc
 50
331.1510006998
 51
1.205404301
  0
ARC
  5
25D
100
AcDbEntity
  8
0
100
AcDbCircle
 62
2
  6
CONTINUOUS
 10
13.5822888914
 20
2.5720482849
 40
0.0261183659
100
AcDbArc
 50
305.6373831893
 51
329.9727629745
  0
ARC
  5
25E
100
AcDbEntity
  8
0
100
AcDbCircle
 62
2
  6
CONTINUOUS
 10
13.5519569538
 20
2.6152551345
 40
0.0789082104
100
AcDbArc
 50
292.906155071
 51
305.2574666259
  0
ARC
  5
25F
100
AcDbEntity
  8
0
100
AcDbCircle
 62
2
  6
CONTINUOUS
 10
13.5282557878
 20
2.4386010294
 40
0.117346916
100
AcDbArc
 50
58.614769177
 51
62.3737227606
  0
ARC
  5
260
100
AcDbEntity
  8
0
100
AcDbCircle
 62
2
  6
CONTINUOUS
 10
13.5761387404
 20
2.5167282896
 40
0.0257145923
100
AcDbArc
 50
39.3804255939
 51
59.0361096173
  0
ARC
  5
261
100
AcDbEntity
  8
0
100
AcDbCircle
 62
2
  6
CONTINUOUS
 10
13.5750183849
 20
2.5166552064
 40
0.0266349791
100
AcDbArc
 50
20.3630922153
 51
37.9727053099
  0
ARC
  5
262
100
AcDbEntity
  8
0
100
AcDbCircle
 62
2
  6
CONTINUOUS
 10
13.5571178432
 20
2.509473798
 40
0.0459185159
100
AcDbArc
 50
15.6740290068
 51
20.9917271228
  0
ARC
  5
263
100
AcDbEntity
  8
0
100
AcDbCircle
 62
2
  6
CONTINUOUS
 10
13.6156881783
 20
2.525116781
 40
0.0147197649
100
AcDbArc
 50
192.7054516565
 51
206.0594861022
  0
ARC
  5
264
100
AcDbEntity
  8
0
100
AcDbCircle
 62
2
  6
CONTINUOUS
 10
13.6071938412
 20
2.5209082945
 40
0.0052403997
100
AcDbArc
 50
205.5232099488
 51
227.5054868079
  0
ARC
  5
265
100
AcDbEntity
  8
0
100
AcDbCircle
 62
2
  6
CONTINUOUS
 10
13.6054655419
 20
2.5190929218
 40
0.0027347709
100
AcDbArc
 50
228.5117626737
 51
266.1485845754
  0
LINE
  5
266
100
AcDbEntity
  8
0
100
AcDbLine
 62
2
  6
CONTINUOUS
 10
13.6052818493
 20
2.5163643272
 11
13.60639085
 21
2.5163643272
  0
ARC
  5
267
100
AcDbEntity
  8
0
100
AcDbCircle
 62
2
  6
CONTINUOUS
 10
13.6063292954
 20
2.5296129864
 40
0.0132488022
100
AcDbArc
 50
270.266200055
 51
281.2404888597
  0
ARC
  5
268
100
AcDbEntity
  8
0
100
AcDbCircle
 62
2
  6
CONTINUOUS
 10
13.6075235364
 20
2.5238762928
 40
0.0073895522
100
AcDbArc
 50
280.8288201977
 51
305.0837508495
  0
ARC
  5
269
100
AcDbEntity
  8
0
100
AcDbCircle
 62
2
  6
CONTINUOUS
 10
13.607924718
 20
2.5230254464
 40
0.0064647042
100
AcDbArc
 50
306.5086174083
 51
340.2162360092
  0
ARC
  5
26A
100
AcDbEntity
  8
0
100
AcDbCircle
 62
2
  6
CONTINUOUS
 10
13.6027235414
 20
2.524769508
 40
0.0119498009
100
AcDbArc
 50
340.7883861657
 51
1.1691452593
  0
LINE
  5
26B
100
AcDbEntity
  8
0
100
AcDbLine
 62
2
  6
CONTINUOUS
 10
13.6146708546
 20
2.525013332
 11
13.6146708546
 21
2.5276393334
  0
ARC
  5
26C
100
AcDbEntity
  8
0
100
AcDbCircle
 62
2
  6
CONTINUOUS
 10
13.6171458541
 20
2.5276393353
 40
0.0024749995
100
AcDbArc
 50
89.9999571957
 51
180.0000428043
  0
LINE
  5
26D
100
AcDbEntity
  8
0
100
AcDbLine
 62
2
  6
CONTINUOUS
 10
13.6171458559
 20
2.5301143348
 11
13.6292558626
 21
2.5301143348
  0
ARC
  5
26E
100
AcDbEntity
  8
0
100
AcDbCircle
 62
2
  6
CONTINUOUS
 10
13.6292558645
 20
2.5276393353
 40
0.0024749995
100
AcDbArc
 50
359.9999571957
 51
90.0000428043
  0
LINE
  5
26F
100
AcDbEntity
  8
0
100
AcDbLine
 62
2
  6
CONTINUOUS
 10
13.631730864
 20
2.5276393334
 11
13.631730864
 21
2.516087327
  0
ARC
  5
270
100
AcDbEntity
  8
0
100
AcDbCircle
 62
2
  6
CONTINUOUS
 10
13.6141751675
 20
2.5161916447
 40
0.0175560065
100
AcDbArc
 50
332.2279060967
 51
359.6595469939
  0
ARC
  5
271
100
AcDbEntity
  8
0
100
AcDbCircle
 62
2
  6
CONTINUOUS
 10
13.6048681567
 20
2.5210861501
 40
0.0280715479
100
AcDbArc
 50
308.5071794988
 51
332.2400656899
  0
ARC
  5
272
100
AcDbEntity
  8
0
100
AcDbCircle
 62
2
  6
CONTINUOUS
 10
13.5978759713
 20
2.5286873679
 40
0.0383802683
100
AcDbArc
 50
288.7656836787
 51
309.6104317088
  0
ARC
  5
273
100
AcDbEntity
  8
0
100
AcDbCircle
 62
2
  6
CONTINUOUS
 10
13.6036139387
 20
2.5111006186
 40
0.0198837666
100
AcDbArc
 50
271.8586572978
 51
289.4131338543
  0
LINE
  5
274
100
AcDbEntity
  8
0
100
AcDbLine
 62
2
  6
CONTINUOUS
 10
13.6042588488
 20
2.4912273132
 11
13.5568948225
 21
2.4912273132
  0
ARC
  5
275
100
AcDbEntity
  8
0
100
AcDbCircle
 62
2
  6
CONTINUOUS
 10
13.5577001432
 20
2.5085494649
 40
0.0173408616
100
AcDbArc
 50
232.4713476722
 51
267.338189944
  0
ARC
  5
276
100
AcDbEntity
  8
0
100
AcDbCircle
 62
2
  6
CONTINUOUS
 10
13.5607987082
 20
2.5143997688
 40
0.0238935861
100
AcDbArc
 50
209.8247607259
 51
235.1255079367
  0
ARC
  5
277
100
AcDbEntity
  8
0
100
AcDbCircle
 62
2
  6
CONTINUOUS
 10
13.5295131508
 20
2.5629115009
 40
0.0110815393
100
AcDbArc
 50
306.758405961
 51
320.4502234234
  0
ARC
  5
278
100
AcDbEntity
  8
0
100
AcDbCircle
 62
2
  6
CONTINUOUS
 10
13.5238839599
 20
2.5706523294
 40
0.0206523367
100
AcDbArc
 50
289.6883413472
 51
306.4184925496
  0
ARC
  5
279
100
AcDbEntity
  8
0
100
AcDbCircle
 62
2
  6
CONTINUOUS
 10
13.5219564542
 20
2.5750459767
 40
0.0254407115
100
AcDbArc
 50
270.7327484175
 51
290.441894219
  0
LINE
  5
27A
100
AcDbEntity
  8
0
100
AcDbLine
 62
2
  6
CONTINUOUS
 10
13.5222818033
 20
2.5496073456
 11
13.4883447845
 21
2.5496073456
  0
ARC
  5
27B
100
AcDbEntity
  8
0
100
AcDbCircle
 62
2
  6
CONTINUOUS
 10
13.4883447827
 20
2.5520823451
 40
0.0024749995
100
AcDbArc
 50
179.9999571957
 51
270.0000428043
  0
LINE
  5
27C
100
AcDbEntity
  8
0
100
AcDbLine
 62
2
  6
CONTINUOUS
 10
13.4858697831
 20
2.552082347
 11
13.4858697831
 21
2.564807354
  0
ARC
  5
27D
100
AcDbEntity
  8
0
100
AcDbCircle
 62
2
  6
CONTINUOUS
 10
13.4883447827
 20
2.5648073559
 40
0.0024749995
100
AcDbArc
 50
89.9999571957
 51
180.0000428043
  0
LINE
  5
27E
100
AcDbEntity
  8
0
100
AcDbLine
 62
2
  6
CONTINUOUS
 10
13.4883447845
 20
2.5672823554
 11
13.5251458049
 21
2.5672823554
  0
ARC
  5
27F
100
AcDbEntity
  8
0
100
AcDbCircle
 62
2
  6
CONTINUOUS
 10
13.5236009174
 20
2.5388278764
 40
0.0284963867
100
AcDbArc
 50
70.3834917948
 51
86.8922743861
  0
ARC
  5
280
100
AcDbEntity
  8
0
100
AcDbCircle
 62
2
  6
CONTINUOUS
 10
13.5284605274
 20
2.5518696094
 40
0.0145814632
100
AcDbArc
 50
54.6746025112
 51
71.1660573124
  0
ARC
  5
281
100
AcDbEntity
  8
0
100
AcDbCircle
 62
2
  6
CONTINUOUS
 10
13.5335900184
 20
2.5587235346
 40
0.0060275915
100
AcDbArc
 50
20.9055592135
 51
56.7851676243
  0
ARC
  5
282
100
AcDbEntity
  8
0
100
AcDbCircle
 62
2
  6
CONTINUOUS
 10
13.5348905773
 20
2.5593838168
 40
0.0045795888
100
AcDbArc
 50
355.6235353944
 51
18.9942678268
  0
ARC
  5
283
100
AcDbEntity
  8
0
100
AcDbCircle
 62
2
  6
CONTINUOUS
 10
13.533683767
 20
2.559677593
 40
0.0058087709
100
AcDbArc
 50
318.8515287446
 51
353.6422345323
  0
LINE
  5
284
100
AcDbEntity
  8
0
100
AcDbLine
 62
2
  6
CONTINUOUS
 10
12.672340332
 20
2.5920323691
 11
12.7727983877
 21
2.5920323691
  0
ARC
  5
285
100
AcDbEntity
  8
0
100
AcDbCircle
 62
2
  6
CONTINUOUS
 10
12.7727985224
 20
2.5895582013
 40
0.0024741678
100
AcDbArc
 50
46.3477981899
 51
90.0031206038
  0
LINE
  5
286
100
AcDbEntity
  8
0
100
AcDbLine
 62
2
  6
CONTINUOUS
 10
12.7745063886
 20
2.5913483688
 11
12.8345394219
 21
2.534068337
  0
ARC
  5
287
100
AcDbEntity
  8
0
100
AcDbCircle
 62
2
  6
CONTINUOUS
 10
12.8362481229
 20
2.5358592748
 40
0.0024753014
100
AcDbArc
 50
226.3461263059
 51
0.0014637321
  0
LINE
  5
288
100
AcDbEntity
  8
0
100
AcDbLine
 62
2
  6
CONTINUOUS
 10
12.8387234242
 20
2.535859338
 11
12.8387234242
 21
2.564807354
  0
ARC
  5
289
100
AcDbEntity
  8
0
100
AcDbCircle
 62
2
  6
CONTINUOUS
 10
12.8362484247
 20
2.5648073559
 40
0.0024749995
100
AcDbArc
 50
359.9999571957
 51
90.0000428043
  0
LINE
  5
28A
100
AcDbEntity
  8
0
100
AcDbLine
 62
2
  6
CONTINUOUS
 10
12.8362484229
 20
2.5672823554
 11
12.8174724125
 21
2.5672823554
  0
ARC
  5
28B
100
AcDbEntity
  8
0
100
AcDbCircle
 62
2
  6
CONTINUOUS
 10
12.8174724106
 20
2.5697573549
 40
0.0024749995
100
AcDbArc
 50
179.9999571957
 51
270.0000428043
  0
LINE
  5
28C
100
AcDbEntity
  8
0
100
AcDbLine
 62
2
  6
CONTINUOUS
 10
12.8149974111
 20
2.5697573568
 11
12.8149974111
 21
2.5895573678
  0
ARC
  5
28D
100
AcDbEntity
  8
0
100
AcDbCircle
 62
2
  6
CONTINUOUS
 10
12.8174724106
 20
2.5895573696
 40
0.0024749995
100
AcDbArc
 50
89.9999571957
 51
180.0000428043
  0
LINE
  5
28E
100
AcDbEntity
  8
0
100
AcDbLine
 62
2
  6
CONTINUOUS
 10
12.8174724125
 20
2.5920323691
 11
12.8914734535
 21
2.5920323691
  0
ARC
  5
28F
100
AcDbEntity
  8
0
100
AcDbCircle
 62
2
  6
CONTINUOUS
 10
12.8914734553
 20
2.5895573696
 40
0.0024749995
100
AcDbArc
 50
359.9999571957
 51
90.0000428043
  0
LINE
  5
290
100
AcDbEntity
  8
0
100
AcDbLine
 62
2
  6
CONTINUOUS
 10
12.8939484549
 20
2.5895573678
 11
12.8939484549
 21
2.5697573568
  0
ARC
  5
291
100
AcDbEntity
  8
0
100
AcDbCircle
 62
2
  6
CONTINUOUS
 10
12.8914734553
 20
2.5697573549
 40
0.0024749995
100
AcDbArc
 50
269.9999571957
 51
0.0000428043
  0
LINE
  5
292
100
AcDbEntity
  8
0
100
AcDbLine
 62
2
  6
CONTINUOUS
 10
12.8914734535
 20
2.5672823554
 11
12.8735404436
 21
2.5672823554
  0
ARC
  5
293
100
AcDbEntity
  8
0
100
AcDbCircle
 62
2
  6
CONTINUOUS
 10
12.8735404417
 20
2.5648073559
 40
0.0024749995
100
AcDbArc
 50
89.9999571957
 51
180.0000428043
  0
LINE
  5
294
100
AcDbEntity
  8
0
100
AcDbLine
 62
2
  6
CONTINUOUS
 10
12.8710654422
 20
2.564807354
 11
12.8710654422
 21
2.4937023146
  0
ARC
  5
295
100
AcDbEntity
  8
0
100
AcDbCircle
 62
2
  6
CONTINUOUS
 10
12.8685904427
 20
2.4937023128
 40
0.0024749995
100
AcDbArc
 50
269.9999571957
 51
0.0000428043
  0
LINE
  5
296
100
AcDbEntity
  8
0
100
AcDbLine
 62
2
  6
CONTINUOUS
 10
12.8685904408
 20
2.4912273132
 11
12.7943853997
 21
2.4912273132
  0
ARC
  5
297
100
AcDbEntity
  8
0
100
AcDbCircle
 62
2
  6
CONTINUOUS
 10
12.7943847649
 20
2.4937027294
 40
0.0024754162
100
AcDbArc
 50
226.3593695813
 51
270.0146919953
  0
LINE
  5
298
100
AcDbEntity
  8
0
100
AcDbLine
 62
2
  6
CONTINUOUS
 10
12.7926763987
 20
2.4919113136
 11
12.7293963636
 21
2.5522893471
  0
ARC
  5
299
100
AcDbEntity
  8
0
100
AcDbCircle
 62
2
  6
CONTINUOUS
 10
12.7276876627
 20
2.5504984093
 40
0.0024753014
100
AcDbArc
 50
46.3461263059
 51
180.0014637321
  0
LINE
  5
29A
100
AcDbEntity
  8
0
100
AcDbLine
 62
2
  6
CONTINUOUS
 10
12.7252123613
 20
2.5504983461
 11
12.7252123613
 21
2.5184523283
  0
ARC
  5
29B
100
AcDbEntity
  8
0
100
AcDbCircle
 62
2
  6
CONTINUOUS
 10
12.7276873608
 20
2.5184523265
 40
0.0024749995
100
AcDbArc
 50
179.9999571957
 51
270.0000428043
  0
LINE
  5
29C
100
AcDbEntity
  8
0
100
AcDbLine
 62
2
  6
CONTINUOUS
 10
12.7276873627
 20
2.515977327
 11
12.7480043739
 21
2.515977327
  0
ARC
  5
29D
100
AcDbEntity
  8
0
100
AcDbCircle
 62
2
  6
CONTINUOUS
 10
12.7480043758
 20
2.5135023274
 40
0.0024749995
100
AcDbArc
 50
359.9999571957
 51
90.0000428043
  0
LINE
  5
29E
100
AcDbEntity
  8
0
100
AcDbLine
 62
2
  6
CONTINUOUS
 10
12.7504793753
 20
2.5135023256
 11
12.7504793753
 21
2.4937023146
  0
ARC
  5
29F
100
AcDbEntity
  8
0
100
AcDbCircle
 62
2
  6
CONTINUOUS
 10
12.7480043758
 20
2.4937023128
 40
0.0024749995
100
AcDbArc
 50
269.9999571957
 51
0.0000428043
  0
LINE
  5
2A0
100
AcDbEntity
  8
0
100
AcDbLine
 62
2
  6
CONTINUOUS
 10
12.7480043739
 20
2.4912273132
 11
12.672340332
 21
2.4912273132
  0
ARC
  5
2A1
100
AcDbEntity
  8
0
100
AcDbCircle
 62
2
  6
CONTINUOUS
 10
12.6723403301
 20
2.4937023128
 40
0.0024749995
100
AcDbArc
 50
179.9999571957
 51
270.0000428043
  0
LINE
  5
2A2
100
AcDbEntity
  8
0
100
AcDbLine
 62
2
  6
CONTINUOUS
 10
12.6698653306
 20
2.4937023146
 11
12.6698653306
 21
2.5135023256
  0
ARC
  5
2A3
100
AcDbEntity
  8
0
100
AcDbCircle
 62
2
  6
CONTINUOUS
 10
12.6723403301
 20
2.5135023274
 40
0.0024749995
100
AcDbArc
 50
89.9999571957
 51
180.0000428043
  0
LINE
  5
2A4
100
AcDbEntity
  8
0
100
AcDbLine
 62
2
  6
CONTINUOUS
 10
12.672340332
 20
2.515977327
 11
12.6909873423
 21
2.515977327
  0
ARC
  5
2A5
100
AcDbEntity
  8
0
100
AcDbCircle
 62
2
  6
CONTINUOUS
 10
12.6909873442
 20
2.5184523265
 40
0.0024749995
100
AcDbArc
 50
269.9999571957
 51
0.0000428043
  0
LINE
  5
2A6
100
AcDbEntity
  8
0
100
AcDbLine
 62
2
  6
CONTINUOUS
 10
12.6934623437
 20
2.5184523283
 11
12.6934623437
 21
2.564807354
  0
ARC
  5
2A7
100
AcDbEntity
  8
0
100
AcDbCircle
 62
2
  6
CONTINUOUS
 10
12.6909873442
 20
2.5648073559
 40
0.0024749995
100
AcDbArc
 50
359.9999571957
 51
90.0000428043
  0
LINE
  5
2A8
100
AcDbEntity
  8
0
100
AcDbLine
 62
2
  6
CONTINUOUS
 10
12.6909873423
 20
2.5672823554
 11
12.672340332
 21
2.5672823554
  0
ARC
  5
2A9
100
AcDbEntity
  8
0
100
AcDbCircle
 62
2
  6
CONTINUOUS
 10
12.6723403301
 20
2.5697573549
 40
0.0024749995
100
AcDbArc
 50
179.9999571957
 51
270.0000428043
  0
LINE
  5
2AA
100
AcDbEntity
  8
0
100
AcDbLine
 62
2
  6
CONTINUOUS
 10
12.6698653306
 20
2.5697573568
 11
12.6698653306
 21
2.5895573678
  0
ARC
  5
2AB
100
AcDbEntity
  8
0
100
AcDbCircle
 62
2
  6
CONTINUOUS
 10
12.6723403301
 20
2.5895573696
 40
0.0024749995
100
AcDbArc
 50
89.9999571957
 51
180.0000428043
  0
LINE
  5
2AC
100
AcDbEntity
  8
0
100
AcDbLine
 62
2
  6
CONTINUOUS
 10
12.5246402501
 20
2.5655893545
 11
12.5175232461
 21
2.5543723483
  0
ARC
  5
2AD
100
AcDbEntity
  8
0
100
AcDbCircle
 62
2
  6
CONTINUOUS
 10
12.519613138
 20
2.5530463862
 40
0.0024750401
100
AcDbArc
 50
147.6063258012
 51
270.0025305754
  0
LINE
  5
2AE
100
AcDbEntity
  8
0
100
AcDbLine
 62
2
  6
CONTINUOUS
 10
12.5196132473
 20
2.5505713461
 11
12.5401702587
 21
2.5505713461
  0
ARC
  5
2AF
100
AcDbEntity
  8
0
100
AcDbCircle
 62
2
  6
CONTINUOUS
 10
12.5401702375
 20
2.5530465533
 40
0.0024752071
100
AcDbArc
 50
270.0004896793
 51
32.9089806818
  0
LINE
  5
2B0
100
AcDbEntity
  8
0
100
AcDbLine
 62
2
  6
CONTINUOUS
 10
12.5422482598
 20
2.5543913483
 11
12.5349892558
 21
2.5656073545
  0
ARC
  5
2B1
100
AcDbEntity
  8
0
100
AcDbCircle
 62
2
  6
CONTINUOUS
 10
12.532910715
 20
2.564262895
 40
0.0024754602
100
AcDbArc
 50
32.8959418573
 51
89.9875097202
  0
LINE
  5
2B2
100
AcDbEntity
  8
0
100
AcDbLine
 62
2
  6
CONTINUOUS
 10
12.5329112547
 20
2.5667383551
 11
12.5267302512
 21
2.5667383551
  0
ARC
  5
2B3
100
AcDbEntity
  8
0
100
AcDbCircle
 62
2
  6
CONTINUOUS
 10
12.5267301809
 20
2.5642631548
 40
0.0024752003
100
AcDbArc
 50
89.998372645
 51
147.602165307
  0
LINE
  5
2B4
100
AcDbEntity
  8
0
100
AcDbLine
 62
2
  6
CONTINUOUS
 10
12.548053263
 20
2.5284903339
 11
12.5536792662
 21
2.5197973291
  0
ARC
  5
2B5
100
AcDbEntity
  8
0
100
AcDbCircle
 62
2
  6
CONTINUOUS
 10
12.5516012439
 20
2.5184525341
 40
0.0024752071
100
AcDbArc
 50
270.0004896794
 51
32.9089806818
  0
LINE
  5
2B6
100
AcDbEntity
  8
0
100
AcDbLine
 62
2
  6
CONTINUOUS
 10
12.551601265
 20
2.515977327
 11
12.537150257
 21
2.515977327
  0
ARC
  5
2B7
100
AcDbEntity
  8
0
100
AcDbCircle
 62
2
  6
CONTINUOUS
 10
12.5371502552
 20
2.5135023274
 40
0.0024749995
100
AcDbArc
 50
89.9999571957
 51
180.0000428043
  0
LINE
  5
2B8
100
AcDbEntity
  8
0
100
AcDbLine
 62
2
  6
CONTINUOUS
 10
12.5346752556
 20
2.5135023256
 11
12.5346752556
 21
2.4937023146
  0
ARC
  5
2B9
100
AcDbEntity
  8
0
100
AcDbCircle
 62
2
  6
CONTINUOUS
 10
12.5371502552
 20
2.4937023128
 40
0.0024749995
100
AcDbArc
 50
179.9999571957
 51
270.0000428043
  0
LINE
  5
2BA
100
AcDbEntity
  8
0
100
AcDbLine
 62
2
  6
CONTINUOUS
 10
12.537150257
 20
2.4912273132
 11
12.6424313154
 21
2.4912273132
  0
ARC
  5
2BB
100
AcDbEntity
  8
0
100
AcDbCircle
 62
2
  6
CONTINUOUS
 10
12.6424313172
 20
2.4937023128
 40
0.0024749995
100
AcDbArc
 50
269.9999571957
 51
0.0000428043
  0
LINE
  5
2BC
100
AcDbEntity
  8
0
100
AcDbLine
 62
2
  6
CONTINUOUS
 10
12.6449063168
 20
2.4937023146
 11
12.6449063168
 21
2.5135023256
  0
ARC
  5
2BD
100
AcDbEntity
  8
0
100
AcDbCircle
 62
2
  6
CONTINUOUS
 10
12.6424313172
 20
2.5135023274
 40
0.0024749995
100
AcDbArc
 50
359.9999571957
 51
90.0000428043
  0
LINE
  5
2BE
100
AcDbEntity
  8
0
100
AcDbLine
 62
2
  6
CONTINUOUS
 10
12.6424313154
 20
2.515977327
 11
12.6224153043
 21
2.515977327
  0
ARC
  5
2BF
100
AcDbEntity
  8
0
100
AcDbCircle
 62
2
  6
CONTINUOUS
 10
12.6224154248
 20
2.518451368
 40
0.002474041
100
AcDbArc
 50
212.9056413127
 51
269.9972091756
  0
LINE
  5
2C0
100
AcDbEntity
  8
0
100
AcDbLine
 62
2
  6
CONTINUOUS
 10
12.6203383031
 20
2.5171073276
 11
12.5725822767
 21
2.5909023685
  0
ARC
  5
2C1
100
AcDbEntity
  8
0
100
AcDbCircle
 62
2
  6
CONTINUOUS
 10
12.570504655
 20
2.589557409
 40
0.0024749602
100
AcDbArc
 50
32.9172174468
 51
90.0087853097
  0
LINE
  5
2C2
100
AcDbEntity
  8
0
100
AcDbLine
 62
2
  6
CONTINUOUS
 10
12.5705042755
 20
2.5920323691
 11
12.5133292438
 21
2.5920323691
  0
ARC
  5
2C3
100
AcDbEntity
  8
0
100
AcDbCircle
 62
2
  6
CONTINUOUS
 10
12.5133291735
 20
2.5895571688
 40
0.0024752003
100
AcDbArc
 50
89.9983726451
 51
147.602165307
  0
LINE
  5
2C4
100
AcDbEntity
  8
0
100
AcDbLine
 62
2
  6
CONTINUOUS
 10
12.5112392426
 20
2.5908833685
 11
12.4644392167
 21
2.5171263276
  0
ARC
  5
2C5
100
AcDbEntity
  8
0
100
AcDbCircle
 62
2
  6
CONTINUOUS
 10
12.4623492858
 20
2.5184525273
 40
0.0024752003
100
AcDbArc
 50
269.9983726451
 51
327.602165307
  0
LINE
  5
2C6
100
AcDbEntity
  8
0
100
AcDbLine
 62
2
  6
CONTINUOUS
 10
12.4623492155
 20
2.515977327
 11
12.4394882028
 21
2.515977327
  0
ARC
  5
2C7
100
AcDbEntity
  8
0
100
AcDbCircle
 62
2
  6
CONTINUOUS
 10
12.439488201
 20
2.5135023274
 40
0.0024749995
100
AcDbArc
 50
89.9999571957
 51
180.0000428043
  0
LINE
  5
2C8
100
AcDbEntity
  8
0
100
AcDbLine
 62
2
  6
CONTINUOUS
 10
12.4370132015
 20
2.5135023256
 11
12.4370132015
 21
2.4937023146
  0
ARC
  5
2C9
100
AcDbEntity
  8
0
100
AcDbCircle
 62
2
  6
CONTINUOUS
 10
12.439488201
 20
2.4937023128
 40
0.0024749995
100
AcDbArc
 50
179.9999571957
 51
270.0000428043
  0
LINE
  5
2CA
100
AcDbEntity
  8
0
100
AcDbLine
 62
2
  6
CONTINUOUS
 10
12.4394882028
 20
2.4912273132
 11
12.5168642458
 21
2.4912273132
  0
ARC
  5
2CB
100
AcDbEntity
  8
0
100
AcDbCircle
 62
2
  6
CONTINUOUS
 10
12.5168642476
 20
2.4937023128
 40
0.0024749995
100
AcDbArc
 50
269.9999571957
 51
0.0000428043
  0
LINE
  5
2CC
100
AcDbEntity
  8
0
100
AcDbLine
 62
2
  6
CONTINUOUS
 10
12.5193392471
 20
2.4937023146
 11
12.5193392471
 21
2.5135023256
  0
ARC
  5
2CD
100
AcDbEntity
  8
0
100
AcDbCircle
 62
2
  6
CONTINUOUS
 10
12.5168642476
 20
2.5135023274
 40
0.0024749995
100
AcDbArc
 50
359.9999571957
 51
90.0000428043
  0
LINE
  5
2CE
100
AcDbEntity
  8
0
100
AcDbLine
 62
2
  6
CONTINUOUS
 10
12.5168642458
 20
2.515977327
 11
12.5055812395
 21
2.515977327
  0
ARC
  5
2CF
100
AcDbEntity
  8
0
100
AcDbCircle
 62
2
  6
CONTINUOUS
 10
12.5055811302
 20
2.518452367
 40
0.0024750401
100
AcDbArc
 50
147.6063258011
 51
270.0025305754
  0
LINE
  5
2D0
100
AcDbEntity
  8
0
100
AcDbLine
 62
2
  6
CONTINUOUS
 10
12.5034912383
 20
2.5197783291
 11
12.5090072414
 21
2.5284723339
  0
ARC
  5
2D1
100
AcDbEntity
  8
0
100
AcDbCircle
 62
2
  6
CONTINUOUS
 10
12.5110971723
 20
2.5271461342
 40
0.0024752003
100
AcDbArc
 50
89.998372645
 51
147.602165307
  0
LINE
  5
2D2
100
AcDbEntity
  8
0
100
AcDbLine
 62
2
  6
CONTINUOUS
 10
12.5110972426
 20
2.5296213345
 11
12.5459752619
 21
2.5296213345
  0
ARC
  5
2D3
100
AcDbEntity
  8
0
100
AcDbCircle
 62
2
  6
CONTINUOUS
 10
12.5459747223
 20
2.5271458744
 40
0.0024754602
100
AcDbArc
 50
32.8959418573
 51
89.9875097202
  0
LINE
  5
2D4
100
AcDbEntity
  8
0
100
AcDbLine
 62
2
  6
CONTINUOUS
 10
12.9205934696
 20
2.5920323691
 11
13.0210515254
 21
2.5920323691
  0
ARC
  5
2D5
100
AcDbEntity
  8
0
100
AcDbCircle
 62
2
  6
CONTINUOUS
 10
13.0210516601
 20
2.5895582013
 40
0.0024741678
100
AcDbArc
 50
46.3477981899
 51
90.0031206038
  0
LINE
  5
2D6
100
AcDbEntity
  8
0
100
AcDbLine
 62
2
  6
CONTINUOUS
 10
13.0227595263
 20
2.5913483688
 11
13.0827925596
 21
2.534068337
  0
ARC
  5
2D7
100
AcDbEntity
  8
0
100
AcDbCircle
 62
2
  6
CONTINUOUS
 10
13.0845012605
 20
2.5358592748
 40
0.0024753014
100
AcDbArc
 50
226.3461263059
 51
0.0014637321
  0
LINE
  5
2D8
100
AcDbEntity
  8
0
100
AcDbLine
 62
2
  6
CONTINUOUS
 10
13.0869765619
 20
2.535859338
 11
13.0869765619
 21
2.564807354
  0
ARC
  5
2D9
100
AcDbEntity
  8
0
100
AcDbCircle
 62
2
  6
CONTINUOUS
 10
13.0845015624
 20
2.5648073559
 40
0.0024749995
100
AcDbArc
 50
359.9999571957
 51
90.0000428043
  0
LINE
  5
2DA
100
AcDbEntity
  8
0
100
AcDbLine
 62
2
  6
CONTINUOUS
 10
13.0845015605
 20
2.5672823554
 11
13.0657255501
 21
2.5672823554
  0
ARC
  5
2DB
100
AcDbEntity
  8
0
100
AcDbCircle
 62
2
  6
CONTINUOUS
 10
13.0657255483
 20
2.5697573549
 40
0.0024749995
100
AcDbArc
 50
179.9999571957
 51
270.0000428043
  0
LINE
  5
2DC
100
AcDbEntity
  8
0
100
AcDbLine
 62
2
  6
CONTINUOUS
 10
13.0632505488
 20
2.5697573568
 11
13.0632505488
 21
2.5895573678
  0
ARC
  5
2DD
100
AcDbEntity
  8
0
100
AcDbCircle
 62
2
  6
CONTINUOUS
 10
13.0657255483
 20
2.5895573696
 40
0.0024749995
100
AcDbArc
 50
89.9999571957
 51
180.0000428043
  0
LINE
  5
2DE
100
AcDbEntity
  8
0
100
AcDbLine
 62
2
  6
CONTINUOUS
 10
13.0657255501
 20
2.5920323691
 11
13.1397265912
 21
2.5920323691
  0
ARC
  5
2DF
100
AcDbEntity
  8
0
100
AcDbCircle
 62
2
  6
CONTINUOUS
 10
13.139726593
 20
2.5895573696
 40
0.0024749995
100
AcDbArc
 50
359.9999571957
 51
90.0000428043
  0
LINE
  5
2E0
100
AcDbEntity
  8
0
100
AcDbLine
 62
2
  6
CONTINUOUS
 10
13.1422015925
 20
2.5895573678
 11
13.1422015925
 21
2.5697573568
  0
ARC
  5
2E1
100
AcDbEntity
  8
0
100
AcDbCircle
 62
2
  6
CONTINUOUS
 10
13.139726593
 20
2.5697573549
 40
0.0024749995
100
AcDbArc
 50
269.9999571957
 51
0.0000428042
  0
LINE
  5
2E2
100
AcDbEntity
  8
0
100
AcDbLine
 62
2
  6
CONTINUOUS
 10
13.1397265912
 20
2.5672823554
 11
13.1217935812
 21
2.5672823554
  0
ARC
  5
2E3
100
AcDbEntity
  8
0
100
AcDbCircle
 62
2
  6
CONTINUOUS
 10
13.1217935794
 20
2.5648073559
 40
0.0024749995
100
AcDbArc
 50
89.9999571957
 51
180.0000428042
  0
LINE
  5
2E4
100
AcDbEntity
  8
0
100
AcDbLine
 62
2
  6
CONTINUOUS
 10
13.1193185799
 20
2.564807354
 11
13.1193185799
 21
2.4937023146
  0
ARC
  5
2E5
100
AcDbEntity
  8
0
100
AcDbCircle
 62
2
  6
CONTINUOUS
 10
13.1168435803
 20
2.4937023128
 40
0.0024749995
100
AcDbArc
 50
269.9999571957
 51
0.0000428043
  0
LINE
  5
2E6
100
AcDbEntity
  8
0
100
AcDbLine
 62
2
  6
CONTINUOUS
 10
13.1168435785
 20
2.4912273132
 11
13.0426375373
 21
2.4912273132
  0
ARC
  5
2E7
100
AcDbEntity
  8
0
100
AcDbCircle
 62
2
  6
CONTINUOUS
 10
13.0426374026
 20
2.493701481
 40
0.0024741678
100
AcDbArc
 50
226.3477981898
 51
270.0031206038
  0
LINE
  5
2E8
100
AcDbEntity
  8
0
100
AcDbLine
 62
2
  6
CONTINUOUS
 10
13.0409295364
 20
2.4919113136
 11
12.9776495013
 21
2.5522893471
  0
ARC
  5
2E9
100
AcDbEntity
  8
0
100
AcDbCircle
 62
2
  6
CONTINUOUS
 10
12.9759408003
 20
2.5504984093
 40
0.0024753014
100
AcDbArc
 50
46.3461263059
 51
180.0014637321
  0
LINE
  5
2EA
100
AcDbEntity
  8
0
100
AcDbLine
 62
2
  6
CONTINUOUS
 10
12.973465499
 20
2.5504983461
 11
12.973465499
 21
2.5184523283
  0
ARC
  5
2EB
100
AcDbEntity
  8
0
100
AcDbCircle
 62
2
  6
CONTINUOUS
 10
12.9759404985
 20
2.5184523265
 40
0.0024749995
100
AcDbArc
 50
179.9999571957
 51
270.0000428043
  0
LINE
  5
2EC
100
AcDbEntity
  8
0
100
AcDbLine
 62
2
  6
CONTINUOUS
 10
12.9759405003
 20
2.515977327
 11
12.9962575116
 21
2.515977327
  0
ARC
  5
2ED
100
AcDbEntity
  8
0
100
AcDbCircle
 62
2
  6
CONTINUOUS
 10
12.9962575135
 20
2.5135023274
 40
0.0024749995
100
AcDbArc
 50
359.9999571957
 51
90.0000428043
  0
LINE
  5
2EE
100
AcDbEntity
  8
0
100
AcDbLine
 62
2
  6
CONTINUOUS
 10
12.998732513
 20
2.5135023256
 11
12.998732513
 21
2.4937023146
  0
ARC
  5
2EF
100
AcDbEntity
  8
0
100
AcDbCircle
 62
2
  6
CONTINUOUS
 10
12.9962575135
 20
2.4937023128
 40
0.0024749995
100
AcDbArc
 50
269.9999571957
 51
0.0000428043
  0
LINE
  5
2F0
100
AcDbEntity
  8
0
100
AcDbLine
 62
2
  6
CONTINUOUS
 10
12.9962575116
 20
2.4912273132
 11
12.9205934696
 21
2.4912273132
  0
ARC
  5
2F1
100
AcDbEntity
  8
0
100
AcDbCircle
 62
2
  6
CONTINUOUS
 10
12.9205934678
 20
2.4937023128
 40
0.0024749995
100
AcDbArc
 50
179.9999571957
 51
270.0000428043
  0
LINE
  5
2F2
100
AcDbEntity
  8
0
100
AcDbLine
 62
2
  6
CONTINUOUS
 10
12.9181184683
 20
2.4937023146
 11
12.9181184683
 21
2.5135023256
  0
ARC
  5
2F3
100
AcDbEntity
  8
0
100
AcDbCircle
 62
2
  6
CONTINUOUS
 10
12.9205934678
 20
2.5135023274
 40
0.0024749995
100
AcDbArc
 50
89.9999571957
 51
180.0000428042
  0
LINE
  5
2F4
100
AcDbEntity
  8
0
100
AcDbLine
 62
2
  6
CONTINUOUS
 10
12.9205934696
 20
2.515977327
 11
12.93923948
 21
2.515977327
  0
ARC
  5
2F5
100
AcDbEntity
  8
0
100
AcDbCircle
 62
2
  6
CONTINUOUS
 10
12.9392394818
 20
2.5184523265
 40
0.0024749995
100
AcDbArc
 50
269.9999571957
 51
0.0000428043
  0
LINE
  5
2F6
100
AcDbEntity
  8
0
100
AcDbLine
 62
2
  6
CONTINUOUS
 10
12.9417144814
 20
2.5184523283
 11
12.9417144814
 21
2.564807354
  0
ARC
  5
2F7
100
AcDbEntity
  8
0
100
AcDbCircle
 62
2
  6
CONTINUOUS
 10
12.9392394818
 20
2.5648073559
 40
0.0024749995
100
AcDbArc
 50
359.9999571957
 51
90.0000428043
  0
LINE
  5
2F8
100
AcDbEntity
  8
0
100
AcDbLine
 62
2
  6
CONTINUOUS
 10
12.93923948
 20
2.5672823554
 11
12.9205934696
 21
2.5672823554
  0
ARC
  5
2F9
100
AcDbEntity
  8
0
100
AcDbCircle
 62
2
  6
CONTINUOUS
 10
12.9205934678
 20
2.5697573549
 40
0.0024749995
100
AcDbArc
 50
179.9999571957
 51
270.0000428043
  0
LINE
  5
2FA
100
AcDbEntity
  8
0
100
AcDbLine
 62
2
  6
CONTINUOUS
 10
12.9181184683
 20
2.5697573568
 11
12.9181184683
 21
2.5895573678
  0
ARC
  5
2FB
100
AcDbEntity
  8
0
100
AcDbCircle
 62
2
  6
CONTINUOUS
 10
12.9205934678
 20
2.5895573696
 40
0.0024749995
100
AcDbArc
 50
89.9999571957
 51
180.0000428042
  0
LINE
  5
2FC
100
AcDbEntity
  8
0
100
AcDbLine
 62
2
  6
CONTINUOUS
 10
13.2934226764
 20
2.5324773361
 11
13.2582556569
 21
2.5324773361
  0
ARC
  5
2FD
100
AcDbEntity
  8
0
100
AcDbCircle
 62
2
  6
CONTINUOUS
 10
13.2582556551
 20
2.5300023366
 40
0.0024749995
100
AcDbArc
 50
89.9999571957
 51
180.0000428043
  0
LINE
  5
2FE
100
AcDbEntity
  8
0
100
AcDbLine
 62
2
  6
CONTINUOUS
 10
13.2557806555
 20
2.5300023347
 11
13.2557806555
 21
2.5184523283
  0
ARC
  5
2FF
100
AcDbEntity
  8
0
100
AcDbCircle
 62
2
  6
CONTINUOUS
 10
13.2582556551
 20
2.5184523265
 40
0.0024749995
100
AcDbArc
 50
179.9999571957
 51
270.0000428043
  0
LINE
  5
300
100
AcDbEntity
  8
0
100
AcDbLine
 62
2
  6
CONTINUOUS
 10
13.2582556569
 20
2.515977327
 11
13.3232596929
 21
2.515977327
  0
ARC
  5
301
100
AcDbEntity
  8
0
100
AcDbCircle
 62
2
  6
CONTINUOUS
 10
13.3232596948
 20
2.5184523265
 40
0.0024749995
100
AcDbArc
 50
269.9999571957
 51
0.0000428043
  0
LINE
  5
302
100
AcDbEntity
  8
0
100
AcDbLine
 62
2
  6
CONTINUOUS
 10
13.3257346943
 20
2.5184523283
 11
13.3257346943
 21
2.5267023329
  0
ARC
  5
303
100
AcDbEntity
  8
0
100
AcDbCircle
 62
2
  6
CONTINUOUS
 10
13.3282096938
 20
2.5267023348
 40
0.0024749995
100
AcDbArc
 50
89.9999571957
 51
180.0000428043
  0
LINE
  5
304
100
AcDbEntity
  8
0
100
AcDbLine
 62
2
  6
CONTINUOUS
 10
13.3282096957
 20
2.5291773343
 11
13.3705287192
 21
2.5291773343
  0
ARC
  5
305
100
AcDbEntity
  8
0
100
AcDbCircle
 62
2
  6
CONTINUOUS
 10
13.370528721
 20
2.5267023348
 40
0.0024749995
100
AcDbArc
 50
359.9999571957
 51
90.0000428043
  0
LINE
  5
306
100
AcDbEntity
  8
0
100
AcDbLine
 62
2
  6
CONTINUOUS
 10
13.3730037205
 20
2.5267023329
 11
13.3730037205
 21
2.4937023146
  0
ARC
  5
307
100
AcDbEntity
  8
0
100
AcDbCircle
 62
2
  6
CONTINUOUS
 10
13.370528721
 20
2.4937023128
 40
0.0024749995
100
AcDbArc
 50
269.9999571957
 51
0.0000428043
  0
LINE
  5
308
100
AcDbEntity
  8
0
100
AcDbLine
 62
2
  6
CONTINUOUS
 10
13.3705287192
 20
2.4912273132
 11
13.1673166065
 21
2.4912273132
  0
ARC
  5
309
100
AcDbEntity
  8
0
100
AcDbCircle
 62
2
  6
CONTINUOUS
 10
13.1673166046
 20
2.4937023128
 40
0.0024749995
100
AcDbArc
 50
179.9999571957
 51
270.0000428043
  0
LINE
  5
30A
100
AcDbEntity
  8
0
100
AcDbLine
 62
2
  6
CONTINUOUS
 10
13.1648416051
 20
2.4937023146
 11
13.1648416051
 21
2.5135023256
  0
ARC
  5
30B
100
AcDbEntity
  8
0
100
AcDbCircle
 62
2
  6
CONTINUOUS
 10
13.1673166046
 20
2.5135023274
 40
0.0024749995
100
AcDbArc
 50
89.9999571957
 51
180.0000428043
  0
LINE
  5
30C
100
AcDbEntity
  8
0
100
AcDbLine
 62
2
  6
CONTINUOUS
 10
13.1673166065
 20
2.515977327
 11
13.1912396197
 21
2.515977327
  0
ARC
  5
30D
100
AcDbEntity
  8
0
100
AcDbCircle
 62
2
  6
CONTINUOUS
 10
13.1912396216
 20
2.5184523265
 40
0.0024749995
100
AcDbArc
 50
269.9999571957
 51
0.0000428042
  0
LINE
  5
30E
100
AcDbEntity
  8
0
100
AcDbLine
 62
2
  6
CONTINUOUS
 10
13.1937146211
 20
2.5184523283
 11
13.1937146211
 21
2.564807354
  0
ARC
  5
30F
100
AcDbEntity
  8
0
100
AcDbCircle
 62
2
  6
CONTINUOUS
 10
13.1912396216
 20
2.5648073559
 40
0.0024749995
100
AcDbArc
 50
359.9999571957
 51
90.0000428043
  0
LINE
  5
310
100
AcDbEntity
  8
0
100
AcDbLine
 62
2
  6
CONTINUOUS
 10
13.1912396197
 20
2.5672823554
 11
13.1673166065
 21
2.5672823554
  0
ARC
  5
311
100
AcDbEntity
  8
0
100
AcDbCircle
 62
2
  6
CONTINUOUS
 10
13.1673166046
 20
2.5697573549
 40
0.0024749995
100
AcDbArc
 50
179.9999571957
 51
270.0000428043
  0
LINE
  5
312
100
AcDbEntity
  8
0
100
AcDbLine
 62
2
  6
CONTINUOUS
 10
13.1648416051
 20
2.5697573568
 11
13.1648416051
 21
2.5895573678
  0
ARC
  5
313
100
AcDbEntity
  8
0
100
AcDbCircle
 62
2
  6
CONTINUOUS
 10
13.1673166046
 20
2.5895573696
 40
0.0024749995
100
AcDbArc
 50
89.9999571957
 51
180.0000428043
  0
LINE
  5
314
100
AcDbEntity
  8
0
100
AcDbLine
 62
2
  6
CONTINUOUS
 10
13.1673166065
 20
2.5920323691
 11
13.3691097184
 21
2.5920323691
  0
ARC
  5
315
100
AcDbEntity
  8
0
100
AcDbCircle
 62
2
  6
CONTINUOUS
 10
13.3691097202
 20
2.5895573696
 40
0.0024749995
100
AcDbArc
 50
359.9999571957
 51
90.0000428043
  0
LINE
  5
316
100
AcDbEntity
  8
0
100
AcDbLine
 62
2
  6
CONTINUOUS
 10
13.3715847197
 20
2.5895573678
 11
13.3715847197
 21
2.5565573495
  0
ARC
  5
317
100
AcDbEntity
  8
0
100
AcDbCircle
 62
2
  6
CONTINUOUS
 10
13.3691097202
 20
2.5565573476
 40
0.0024749995
100
AcDbArc
 50
269.9999571957
 51
0.0000428042
  0
LINE
  5
318
100
AcDbEntity
  8
0
100
AcDbLine
 62
2
  6
CONTINUOUS
 10
13.3691097184
 20
2.5540823481
 11
13.3272456952
 21
2.5540823481
  0
ARC
  5
319
100
AcDbEntity
  8
0
100
AcDbCircle
 62
2
  6
CONTINUOUS
 10
13.3272456933
 20
2.5565573476
 40
0.0024749995
100
AcDbArc
 50
179.9999571957
 51
270.0000428043
  0
LINE
  5
31A
100
AcDbEntity
  8
0
100
AcDbLine
 62
2
  6
CONTINUOUS
 10
13.3247706938
 20
2.5565573495
 11
13.3247706938
 21
2.564807354
  0
ARC
  5
31B
100
AcDbEntity
  8
0
100
AcDbCircle
 62
2
  6
CONTINUOUS
 10
13.3222956943
 20
2.5648073559
 40
0.0024749995
100
AcDbArc
 50
359.9999571957
 51
90.0000428043
  0
LINE
  5
31C
100
AcDbEntity
  8
0
100
AcDbLine
 62
2
  6
CONTINUOUS
 10
13.3222956924
 20
2.5672823554
 11
13.2582556569
 21
2.5672823554
  0
ARC
  5
31D
100
AcDbEntity
  8
0
100
AcDbCircle
 62
2
  6
CONTINUOUS
 10
13.2582556551
 20
2.5648073559
 40
0.0024749995
100
AcDbArc
 50
89.9999571957
 51
180.0000428043
  0
LINE
  5
31E
100
AcDbEntity
  8
0
100
AcDbLine
 62
2
  6
CONTINUOUS
 10
13.2557806555
 20
2.564807354
 11
13.2557806555
 21
2.5532573476
  0
ARC
  5
31F
100
AcDbEntity
  8
0
100
AcDbCircle
 62
2
  6
CONTINUOUS
 10
13.2582556551
 20
2.5532573458
 40
0.0024749995
100
AcDbArc
 50
179.9999571957
 51
270.0000428043
  0
LINE
  5
320
100
AcDbEntity
  8
0
100
AcDbLine
 62
2
  6
CONTINUOUS
 10
13.2582556569
 20
2.5507823463
 11
13.2934226764
 21
2.5507823463
  0
ARC
  5
321
100
AcDbEntity
  8
0
100
AcDbCircle
 62
2
  6
CONTINUOUS
 10
13.2934226783
 20
2.5483073467
 40
0.0024749995
100
AcDbArc
 50
359.9999571957
 51
90.0000428043
  0
LINE
  5
322
100
AcDbEntity
  8
0
100
AcDbLine
 62
2
  6
CONTINUOUS
 10
13.2958976778
 20
2.5483073449
 11
13.2958976778
 21
2.5349523375
  0
ARC
  5
323
100
AcDbEntity
  8
0
100
AcDbCircle
 62
2
  6
CONTINUOUS
 10
13.2934226783
 20
2.5349523356
 40
0.0024749995
100
AcDbArc
 50
269.9999571957
 51
0.0000428042
  0
LINE
  5
324
100
AcDbEntity
  8
0
100
AcDbLine
 62
2
  6
CONTINUOUS
 10
13.7286871589
 20
2.5350697372
 11
13.7286871589
 21
2.5456869438
  0
LINE
  5
325
100
AcDbEntity
  8
0
100
AcDbLine
 62
2
  6
CONTINUOUS
 10
13.7086871478
 20
2.5004302075
 11
13.7086871478
 21
2.5803264735
  0
LINE
  5
326
100
AcDbEntity
  8
0
100
AcDbLine
 62
2
  6
CONTINUOUS
 10
13.6886871368
 20
2.4843919416
 11
13.6886871368
 21
2.5963647394
  0
LINE
  5
327
100
AcDbEntity
  8
0
100
AcDbLine
 62
2
  6
CONTINUOUS
 10
13.6686871257
 20
2.4726017898
 11
13.6686871257
 21
2.6081548911
  0
LINE
  5
328
100
AcDbEntity
  8
0
100
AcDbLine
 62
2
  6
CONTINUOUS
 10
13.6486871146
 20
2.4628062688
 11
13.6486871146
 21
2.6179504122
  0
LINE
  5
329
100
AcDbEntity
  8
0
100
AcDbLine
 62
2
  6
CONTINUOUS
 10
13.6286871035
 20
2.4541253507
 11
13.6286871035
 21
2.5062483056
  0
LINE
  5
32A
100
AcDbEntity
  8
0
100
AcDbLine
 62
2
  6
CONTINUOUS
 10
13.6286871035
 20
2.5301143348
 11
13.6286871035
 21
2.6266313303
  0
LINE
  5
32B
100
AcDbEntity
  8
0
100
AcDbLine
 62
2
  6
CONTINUOUS
 10
13.6086870924
 20
2.4465537903
 11
13.6086870924
 21
2.4918774918
  0
LINE
  5
32C
100
AcDbEntity
  8
0
100
AcDbLine
 62
2
  6
CONTINUOUS
 10
13.6086870924
 20
2.5165781173
 11
13.6086870924
 21
2.6342028907
  0
LINE
  5
32D
100
AcDbEntity
  8
0
100
AcDbLine
 62
2
  6
CONTINUOUS
 10
13.5886870813
 20
2.4398033466
 11
13.5886870813
 21
2.4912273132
  0
LINE
  5
32E
100
AcDbEntity
  8
0
100
AcDbLine
 62
2
  6
CONTINUOUS
 10
13.5886870813
 20
2.5391840845
 11
13.5886870813
 21
2.5454298327
  0
LINE
  5
32F
100
AcDbEntity
  8
0
100
AcDbLine
 62
2
  6
CONTINUOUS
 10
13.5886870813
 20
2.5862063472
 11
13.5886870813
 21
2.6409533343
  0
LINE
  5
330
100
AcDbEntity
  8
0
100
AcDbLine
 62
2
  6
CONTINUOUS
 10
13.5686870702
 20
2.4334702189
 11
13.5686870702
 21
2.4912273132
  0
LINE
  5
331
100
AcDbEntity
  8
0
100
AcDbLine
 62
2
  6
CONTINUOUS
 10
13.5686870702
 20
2.5906587765
 11
13.5686870702
 21
2.647286462
  0
LINE
  5
332
100
AcDbEntity
  8
0
100
AcDbLine
 62
2
  6
CONTINUOUS
 10
13.5486870591
 20
2.4278968124
 11
13.5486870591
 21
2.4937461006
  0
LINE
  5
333
100
AcDbEntity
  8
0
100
AcDbLine
 62
2
  6
CONTINUOUS
 10
13.5486870591
 20
2.5920323691
 11
13.5486870591
 21
2.6528598686
  0
LINE
  5
334
100
AcDbEntity
  8
0
100
AcDbLine
 62
2
  6
CONTINUOUS
 10
13.528687048
 20
2.4225427674
 11
13.528687048
 21
2.5270426993
  0
LINE
  5
335
100
AcDbEntity
  8
0
100
AcDbLine
 62
2
  6
CONTINUOUS
 10
13.528687048
 20
2.5505166259
 11
13.528687048
 21
2.5668657091
  0
LINE
  5
336
100
AcDbEntity
  8
0
100
AcDbLine
 62
2
  6
CONTINUOUS
 10
13.528687048
 20
2.5920323691
 11
13.528687048
 21
2.6582139136
  0
LINE
  5
337
100
AcDbEntity
  8
0
100
AcDbLine
 62
2
  6
CONTINUOUS
 10
13.5086870369
 20
2.4177306791
 11
13.5086870369
 21
2.4912273132
  0
LINE
  5
338
100
AcDbEntity
  8
0
100
AcDbLine
 62
2
  6
CONTINUOUS
 10
13.5086870369
 20
2.5159553269
 11
13.5086870369
 21
2.5306043351
  0
LINE
  5
339
100
AcDbEntity
  8
0
100
AcDbLine
 62
2
  6
CONTINUOUS
 10
13.5086870369
 20
2.5496073456
 11
13.5086870369
 21
2.5672823554
  0
LINE
  5
33A
100
AcDbEntity
  8
0
100
AcDbLine
 62
2
  6
CONTINUOUS
 10
13.5086870369
 20
2.5920323691
 11
13.5086870369
 21
2.6630260019
  0
LINE
  5
33B
100
AcDbEntity
  8
0
100
AcDbLine
 62
2
  6
CONTINUOUS
 10
13.4886870258
 20
2.4131795254
 11
13.4886870258
 21
2.4912273132
  0
LINE
  5
33C
100
AcDbEntity
  8
0
100
AcDbLine
 62
2
  6
CONTINUOUS
 10
13.4886870258
 20
2.5159553269
 11
13.4886870258
 21
2.5306043351
  0
LINE
  5
33D
100
AcDbEntity
  8
0
100
AcDbLine
 62
2
  6
CONTINUOUS
 10
13.4886870258
 20
2.5496073456
 11
13.4886870258
 21
2.5672823554
  0
LINE
  5
33E
100
AcDbEntity
  8
0
100
AcDbLine
 62
2
  6
CONTINUOUS
 10
13.4886870258
 20
2.5920323691
 11
13.4886870258
 21
2.6675771555
  0
LINE
  5
33F
100
AcDbEntity
  8
0
100
AcDbLine
 62
2
  6
CONTINUOUS
 10
13.4686870147
 20
2.4088819672
 11
13.4686870147
 21
2.4912273132
  0
LINE
  5
340
100
AcDbEntity
  8
0
100
AcDbLine
 62
2
  6
CONTINUOUS
 10
13.4686870147
 20
2.5920323691
 11
13.4686870147
 21
2.6718747138
  0
LINE
  5
341
100
AcDbEntity
  8
0
100
AcDbLine
 62
2
  6
CONTINUOUS
 10
13.4486870037
 20
2.4050092072
 11
13.4486870037
 21
2.4912273132
  0
LINE
  5
342
100
AcDbEntity
  8
0
100
AcDbLine
 62
2
  6
CONTINUOUS
 10
13.4486870037
 20
2.5920323691
 11
13.4486870037
 21
2.6757474738
  0
LINE
  5
343
100
AcDbEntity
  8
0
100
AcDbLine
 62
2
  6
CONTINUOUS
 10
13.4286869926
 20
2.4011364471
 11
13.4286869926
 21
2.4912273132
  0
LINE
  5
344
100
AcDbEntity
  8
0
100
AcDbLine
 62
2
  6
CONTINUOUS
 10
13.4286869926
 20
2.5920323691
 11
13.4286869926
 21
2.6796202339
  0
LINE
  5
345
100
AcDbEntity
  8
0
100
AcDbLine
 62
2
  6
CONTINUOUS
 10
13.4086869815
 20
2.3980226662
 11
13.4086869815
 21
2.4912273132
  0
LINE
  5
346
100
AcDbEntity
  8
0
100
AcDbLine
 62
2
  6
CONTINUOUS
 10
13.4086869815
 20
2.515977327
 11
13.4086869815
 21
2.5672823554
  0
LINE
  5
347
100
AcDbEntity
  8
0
100
AcDbLine
 62
2
  6
CONTINUOUS
 10
13.4086869815
 20
2.5920323691
 11
13.4086869815
 21
2.6827340148
  0
LINE
  5
348
100
AcDbEntity
  8
0
100
AcDbLine
 62
2
  6
CONTINUOUS
 10
13.3886869704
 20
2.3950052774
 11
13.3886869704
 21
2.6857514036
  0
LINE
  5
349
100
AcDbEntity
  8
0
100
AcDbLine
 62
2
  6
CONTINUOUS
 10
13.3686869593
 20
2.3919878885
 11
13.3686869593
 21
2.4912273132
  0
LINE
  5
34A
100
AcDbEntity
  8
0
100
AcDbLine
 62
2
  6
CONTINUOUS
 10
13.3686869593
 20
2.5291773343
 11
13.3686869593
 21
2.5540823481
  0
LINE
  5
34B
100
AcDbEntity
  8
0
100
AcDbLine
 62
2
  6
CONTINUOUS
 10
13.3686869593
 20
2.5920323691
 11
13.3686869593
 21
2.6887687924
  0
LINE
  5
34C
100
AcDbEntity
  8
0
100
AcDbLine
 62
2
  6
CONTINUOUS
 10
13.3486869482
 20
2.3889704997
 11
13.3486869482
 21
2.4912273132
  0
LINE
  5
34D
100
AcDbEntity
  8
0
100
AcDbLine
 62
2
  6
CONTINUOUS
 10
13.3486869482
 20
2.5291773343
 11
13.3486869482
 21
2.5540823481
  0
LINE
  5
34E
100
AcDbEntity
  8
0
100
AcDbLine
 62
2
  6
CONTINUOUS
 10
13.3486869482
 20
2.5920323691
 11
13.3486869482
 21
2.6917861813
  0
LINE
  5
34F
100
AcDbEntity
  8
0
100
AcDbLine
 62
2
  6
CONTINUOUS
 10
13.3286869371
 20
2.3859531109
 11
13.3286869371
 21
2.4912273132
  0
LINE
  5
350
100
AcDbEntity
  8
0
100
AcDbLine
 62
2
  6
CONTINUOUS
 10
13.3286869371
 20
2.5291773343
 11
13.3286869371
 21
2.5540823481
  0
LINE
  5
351
100
AcDbEntity
  8
0
100
AcDbLine
 62
2
  6
CONTINUOUS
 10
13.3286869371
 20
2.5920323691
 11
13.3286869371
 21
2.6948035701
  0
LINE
  5
352
100
AcDbEntity
  8
0
100
AcDbLine
 62
2
  6
CONTINUOUS
 10
13.308686926
 20
2.3833355437
 11
13.308686926
 21
2.4912273132
  0
LINE
  5
353
100
AcDbEntity
  8
0
100
AcDbLine
 62
2
  6
CONTINUOUS
 10
13.308686926
 20
2.515977327
 11
13.308686926
 21
2.5672823554
  0
LINE
  5
354
100
AcDbEntity
  8
0
100
AcDbLine
 62
2
  6
CONTINUOUS
 10
13.308686926
 20
2.5920323691
 11
13.308686926
 21
2.6974211373
  0
LINE
  5
355
100
AcDbEntity
  8
0
100
AcDbLine
 62
2
  6
CONTINUOUS
 10
13.2886869149
 20
2.3812612684
 11
13.2886869149
 21
2.4912273132
  0
LINE
  5
356
100
AcDbEntity
  8
0
100
AcDbLine
 62
2
  6
CONTINUOUS
 10
13.2886869149
 20
2.515977327
 11
13.2886869149
 21
2.5324773361
  0
LINE
  5
357
100
AcDbEntity
  8
0
100
AcDbLine
 62
2
  6
CONTINUOUS
 10
13.2886869149
 20
2.5507823463
 11
13.2886869149
 21
2.5672823554
  0
LINE
  5
358
100
AcDbEntity
  8
0
100
AcDbLine
 62
2
  6
CONTINUOUS
 10
13.2886869149
 20
2.5920323691
 11
13.2886869149
 21
2.6994954125
  0
LINE
  5
359
100
AcDbEntity
  8
0
100
AcDbLine
 62
2
  6
CONTINUOUS
 10
13.2686869038
 20
2.3791869932
 11
13.2686869038
 21
2.4912273132
  0
LINE
  5
35A
100
AcDbEntity
  8
0
100
AcDbLine
 62
2
  6
CONTINUOUS
 10
13.2686869038
 20
2.515977327
 11
13.2686869038
 21
2.5324773361
  0
LINE
  5
35B
100
AcDbEntity
  8
0
100
AcDbLine
 62
2
  6
CONTINUOUS
 10
13.2686869038
 20
2.5507823463
 11
13.2686869038
 21
2.5672823554
  0
LINE
  5
35C
100
AcDbEntity
  8
0
100
AcDbLine
 62
2
  6
CONTINUOUS
 10
13.2686869038
 20
2.5920323691
 11
13.2686869038
 21
2.7015696878
  0
LINE
  5
35D
100
AcDbEntity
  8
0
100
AcDbLine
 62
2
  6
CONTINUOUS
 10
13.2486868927
 20
2.377112718
 11
13.2486868927
 21
2.4912273132
  0
LINE
  5
35E
100
AcDbEntity
  8
0
100
AcDbLine
 62
2
  6
CONTINUOUS
 10
13.2486868927
 20
2.5920323691
 11
13.2486868927
 21
2.703643963
  0
LINE
  5
35F
100
AcDbEntity
  8
0
100
AcDbLine
 62
2
  6
CONTINUOUS
 10
13.2286868817
 20
2.3750384428
 11
13.2286868817
 21
2.4912273132
  0
LINE
  5
360
100
AcDbEntity
  8
0
100
AcDbLine
 62
2
  6
CONTINUOUS
 10
13.2286868817
 20
2.5920323691
 11
13.2286868817
 21
2.7057182382
  0
LINE
  5
361
100
AcDbEntity
  8
0
100
AcDbLine
 62
2
  6
CONTINUOUS
 10
13.2086868706
 20
2.3729641676
 11
13.2086868706
 21
2.4912273132
  0
LINE
  5
362
100
AcDbEntity
  8
0
100
AcDbLine
 62
2
  6
CONTINUOUS
 10
13.2086868706
 20
2.5920323691
 11
13.2086868706
 21
2.7077925134
  0
LINE
  5
363
100
AcDbEntity
  8
0
100
AcDbLine
 62
2
  6
CONTINUOUS
 10
13.1886868595
 20
2.3712344456
 11
13.1886868595
 21
2.4912273132
  0
LINE
  5
364
100
AcDbEntity
  8
0
100
AcDbLine
 62
2
  6
CONTINUOUS
 10
13.1886868595
 20
2.515977327
 11
13.1886868595
 21
2.5672823554
  0
LINE
  5
365
100
AcDbEntity
  8
0
100
AcDbLine
 62
2
  6
CONTINUOUS
 10
13.1886868595
 20
2.5920323691
 11
13.1886868595
 21
2.7095222354
  0
LINE
  5
366
100
AcDbEntity
  8
0
100
AcDbLine
 62
2
  6
CONTINUOUS
 10
13.1686868484
 20
2.3699682418
 11
13.1686868484
 21
2.4912273132
  0
LINE
  5
367
100
AcDbEntity
  8
0
100
AcDbLine
 62
2
  6
CONTINUOUS
 10
13.1686868484
 20
2.515977327
 11
13.1686868484
 21
2.5672823554
  0
LINE
  5
368
100
AcDbEntity
  8
0
100
AcDbLine
 62
2
  6
CONTINUOUS
 10
13.1686868484
 20
2.5920323691
 11
13.1686868484
 21
2.7107884392
  0
LINE
  5
369
100
AcDbEntity
  8
0
100
AcDbLine
 62
2
  6
CONTINUOUS
 10
13.1486868373
 20
2.3687020381
 11
13.1486868373
 21
2.7120546429
  0
LINE
  5
36A
100
AcDbEntity
  8
0
100
AcDbLine
 62
2
  6
CONTINUOUS
 10
13.1286868262
 20
2.3674358343
 11
13.1286868262
 21
2.5672823554
  0
LINE
  5
36B
100
AcDbEntity
  8
0
100
AcDbLine
 62
2
  6
CONTINUOUS
 10
13.1286868262
 20
2.5920323691
 11
13.1286868262
 21
2.7133208466
  0
LINE
  5
36C
100
AcDbEntity
  8
0
100
AcDbLine
 62
2
  6
CONTINUOUS
 10
13.1086868151
 20
2.3661696306
 11
13.1086868151
 21
2.4912273132
  0
LINE
  5
36D
100
AcDbEntity
  8
0
100
AcDbLine
 62
2
  6
CONTINUOUS
 10
13.1086868151
 20
2.5920323691
 11
13.1086868151
 21
2.7145870504
  0
LINE
  5
36E
100
AcDbEntity
  8
0
100
AcDbLine
 62
2
  6
CONTINUOUS
 10
13.088686804
 20
2.3649034269
 11
13.088686804
 21
2.4912273132
  0
LINE
  5
36F
100
AcDbEntity
  8
0
100
AcDbLine
 62
2
  6
CONTINUOUS
 10
13.088686804
 20
2.5920323691
 11
13.088686804
 21
2.7158532541
  0
LINE
  5
370
100
AcDbEntity
  8
0
100
AcDbLine
 62
2
  6
CONTINUOUS
 10
13.0686867929
 20
2.3636739922
 11
13.0686867929
 21
2.4912273132
  0
LINE
  5
371
100
AcDbEntity
  8
0
100
AcDbLine
 62
2
  6
CONTINUOUS
 10
13.0686867929
 20
2.5475272398
 11
13.0686867929
 21
2.5672823554
  0
LINE
  5
372
100
AcDbEntity
  8
0
100
AcDbLine
 62
2
  6
CONTINUOUS
 10
13.0686867929
 20
2.5920323691
 11
13.0686867929
 21
2.7170826887
  0
LINE
  5
373
100
AcDbEntity
  8
0
100
AcDbLine
 62
2
  6
CONTINUOUS
 10
13.0486867818
 20
2.363143203
 11
13.0486867818
 21
2.4912273132
  0
LINE
  5
374
100
AcDbEntity
  8
0
100
AcDbLine
 62
2
  6
CONTINUOUS
 10
13.0486867818
 20
2.5666100882
 11
13.0486867818
 21
2.717613478
  0
LINE
  5
375
100
AcDbEntity
  8
0
100
AcDbLine
 62
2
  6
CONTINUOUS
 10
13.0286867707
 20
2.3626124138
 11
13.0286867707
 21
2.50359263
  0
LINE
  5
376
100
AcDbEntity
  8
0
100
AcDbLine
 62
2
  6
CONTINUOUS
 10
13.0286867707
 20
2.5856929366
 11
13.0286867707
 21
2.7181442672
  0
LINE
  5
377
100
AcDbEntity
  8
0
100
AcDbLine
 62
2
  6
CONTINUOUS
 10
13.0086867596
 20
2.3620816246
 11
13.0086867596
 21
2.5226754472
  0
LINE
  5
378
100
AcDbEntity
  8
0
100
AcDbLine
 62
2
  6
CONTINUOUS
 10
13.0086867596
 20
2.5920323691
 11
13.0086867596
 21
2.7186750564
  0
LINE
  5
379
100
AcDbEntity
  8
0
100
AcDbLine
 62
2
  6
CONTINUOUS
 10
12.9886867486
 20
2.3615508354
 11
12.9886867486
 21
2.4912273132
  0
LINE
  5
37A
100
AcDbEntity
  8
0
100
AcDbLine
 62
2
  6
CONTINUOUS
 10
12.9886867486
 20
2.515977327
 11
12.9886867486
 21
2.5417582644
  0
LINE
  5
37B
100
AcDbEntity
  8
0
100
AcDbLine
 62
2
  6
CONTINUOUS
 10
12.9886867486
 20
2.5920323691
 11
12.9886867486
 21
2.7192058456
  0
LINE
  5
37C
100
AcDbEntity
  8
0
100
AcDbLine
 62
2
  6
CONTINUOUS
 10
12.9686867375
 20
2.3610200462
 11
12.9686867375
 21
2.4912273132
  0
LINE
  5
37D
100
AcDbEntity
  8
0
100
AcDbLine
 62
2
  6
CONTINUOUS
 10
12.9686867375
 20
2.5920323691
 11
12.9686867375
 21
2.7197366348
  0
LINE
  5
37E
100
AcDbEntity
  8
0
100
AcDbLine
 62
2
  6
CONTINUOUS
 10
12.9486867264
 20
2.360489257
 11
12.9486867264
 21
2.4912273132
  0
LINE
  5
37F
100
AcDbEntity
  8
0
100
AcDbLine
 62
2
  6
CONTINUOUS
 10
12.9486867264
 20
2.5920323691
 11
12.9486867264
 21
2.720267424
  0
LINE
  5
380
100
AcDbEntity
  8
0
100
AcDbLine
 62
2
  6
CONTINUOUS
 10
12.9286867153
 20
2.3602836008
 11
12.9286867153
 21
2.4912273132
  0
LINE
  5
381
100
AcDbEntity
  8
0
100
AcDbLine
 62
2
  6
CONTINUOUS
 10
12.9286867153
 20
2.515977327
 11
12.9286867153
 21
2.5672823554
  0
LINE
  5
382
100
AcDbEntity
  8
0
100
AcDbLine
 62
2
  6
CONTINUOUS
 10
12.9286867153
 20
2.5920323691
 11
12.9286867153
 21
2.7204730802
  0
LINE
  5
383
100
AcDbEntity
  8
0
100
AcDbLine
 62
2
  6
CONTINUOUS
 10
12.9086867042
 20
2.3604597639
 11
12.9086867042
 21
2.7202969171
  0
LINE
  5
384
100
AcDbEntity
  8
0
100
AcDbLine
 62
2
  6
CONTINUOUS
 10
12.8886866931
 20
2.360635927
 11
12.8886866931
 21
2.5672823554
  0
LINE
  5
385
100
AcDbEntity
  8
0
100
AcDbLine
 62
2
  6
CONTINUOUS
 10
12.8886866931
 20
2.5920323691
 11
12.8886866931
 21
2.720120754
  0
LINE
  5
386
100
AcDbEntity
  8
0
100
AcDbLine
 62
2
  6
CONTINUOUS
 10
12.868686682
 20
2.3608120901
 11
12.868686682
 21
2.491232357
  0
LINE
  5
387
100
AcDbEntity
  8
0
100
AcDbLine
 62
2
  6
CONTINUOUS
 10
12.868686682
 20
2.5920323691
 11
12.868686682
 21
2.7199445909
  0
LINE
  5
388
100
AcDbEntity
  8
0
100
AcDbLine
 62
2
  6
CONTINUOUS
 10
12.8486866709
 20
2.3609882532
 11
12.8486866709
 21
2.4912273132
  0
LINE
  5
389
100
AcDbEntity
  8
0
100
AcDbLine
 62
2
  6
CONTINUOUS
 10
12.8486866709
 20
2.5920323691
 11
12.8486866709
 21
2.7197684278
  0
LINE
  5
38A
100
AcDbEntity
  8
0
100
AcDbLine
 62
2
  6
CONTINUOUS
 10
12.8286866598
 20
2.3611644163
 11
12.8286866598
 21
2.4912273132
  0
LINE
  5
38B
100
AcDbEntity
  8
0
100
AcDbLine
 62
2
  6
CONTINUOUS
 10
12.8286866598
 20
2.5396527025
 11
12.8286866598
 21
2.5672823554
  0
LINE
  5
38C
100
AcDbEntity
  8
0
100
AcDbLine
 62
2
  6
CONTINUOUS
 10
12.8286866598
 20
2.5920323691
 11
12.8286866598
 21
2.7195922647
  0
LINE
  5
38D
100
AcDbEntity
  8
0
100
AcDbLine
 62
2
  6
CONTINUOUS
 10
12.8086866487
 20
2.3613405794
 11
12.8086866487
 21
2.4912273132
  0
LINE
  5
38E
100
AcDbEntity
  8
0
100
AcDbLine
 62
2
  6
CONTINUOUS
 10
12.8086866487
 20
2.5587355508
 11
12.8086866487
 21
2.7194161016
  0
LINE
  5
38F
100
AcDbEntity
  8
0
100
AcDbLine
 62
2
  6
CONTINUOUS
 10
12.7886866376
 20
2.3621089572
 11
12.7886866376
 21
2.4957181055
  0
LINE
  5
390
100
AcDbEntity
  8
0
100
AcDbLine
 62
2
  6
CONTINUOUS
 10
12.7886866376
 20
2.5778183992
 11
12.7886866376
 21
2.7186477238
  0
LINE
  5
391
100
AcDbEntity
  8
0
100
AcDbLine
 62
2
  6
CONTINUOUS
 10
12.7686866266
 20
2.3630013935
 11
12.7686866266
 21
2.5148009227
  0
LINE
  5
392
100
AcDbEntity
  8
0
100
AcDbLine
 62
2
  6
CONTINUOUS
 10
12.7686866266
 20
2.5920323691
 11
12.7686866266
 21
2.7177552874
  0
LINE
  5
393
100
AcDbEntity
  8
0
100
AcDbLine
 62
2
  6
CONTINUOUS
 10
12.7486866155
 20
2.3638938299
 11
12.7486866155
 21
2.4913263218
  0
LINE
  5
394
100
AcDbEntity
  8
0
100
AcDbLine
 62
2
  6
CONTINUOUS
 10
12.7486866155
 20
2.5158783184
 11
12.7486866155
 21
2.5338837399
  0
LINE
  5
395
100
AcDbEntity
  8
0
100
AcDbLine
 62
2
  6
CONTINUOUS
 10
12.7486866155
 20
2.5920323691
 11
12.7486866155
 21
2.7168628511
  0
LINE
  5
396
100
AcDbEntity
  8
0
100
AcDbLine
 62
2
  6
CONTINUOUS
 10
12.7286866044
 20
2.3647862663
 11
12.7286866044
 21
2.4912273132
  0
LINE
  5
397
100
AcDbEntity
  8
0
100
AcDbLine
 62
2
  6
CONTINUOUS
 10
12.7286866044
 20
2.515977327
 11
12.7286866044
 21
2.5527601554
  0
LINE
  5
398
100
AcDbEntity
  8
0
100
AcDbLine
 62
2
  6
CONTINUOUS
 10
12.7286866044
 20
2.5920323691
 11
12.7286866044
 21
2.7159704147
  0
LINE
  5
399
100
AcDbEntity
  8
0
100
AcDbLine
 62
2
  6
CONTINUOUS
 10
12.7086865933
 20
2.3656787026
 11
12.7086865933
 21
2.4912273132
  0
LINE
  5
39A
100
AcDbEntity
  8
0
100
AcDbLine
 62
2
  6
CONTINUOUS
 10
12.7086865933
 20
2.5920323691
 11
12.7086865933
 21
2.7150779784
  0
LINE
  5
39B
100
AcDbEntity
  8
0
100
AcDbLine
 62
2
  6
CONTINUOUS
 10
12.6886865822
 20
2.366571139
 11
12.6886865822
 21
2.4912273132
  0
LINE
  5
39C
100
AcDbEntity
  8
0
100
AcDbLine
 62
2
  6
CONTINUOUS
 10
12.6886865822
 20
2.515977327
 11
12.6886865822
 21
2.5672823554
  0
LINE
  5
39D
100
AcDbEntity
  8
0
100
AcDbLine
 62
2
  6
CONTINUOUS
 10
12.6886865822
 20
2.5920323691
 11
12.6886865822
 21
2.714185542
  0
LINE
  5
39E
100
AcDbEntity
  8
0
100
AcDbLine
 62
2
  6
CONTINUOUS
 10
12.6686865711
 20
2.3677104027
 11
12.6686865711
 21
2.7130462783
  0
LINE
  5
39F
100
AcDbEntity
  8
0
100
AcDbLine
 62
2
  6
CONTINUOUS
 10
12.64868656
 20
2.3693682721
 11
12.64868656
 21
2.7113884089
  0
LINE
  5
3A0
100
AcDbEntity
  8
0
100
AcDbLine
 62
2
  6
CONTINUOUS
 10
12.6286865489
 20
2.3710261415
 11
12.6286865489
 21
2.4912273132
  0
LINE
  5
3A1
100
AcDbEntity
  8
0
100
AcDbLine
 62
2
  6
CONTINUOUS
 10
12.6286865489
 20
2.515977327
 11
12.6286865489
 21
2.7097305395
  0
LINE
  5
3A2
100
AcDbEntity
  8
0
100
AcDbLine
 62
2
  6
CONTINUOUS
 10
12.6086865378
 20
2.372684011
 11
12.6086865378
 21
2.4912273132
  0
LINE
  5
3A3
100
AcDbEntity
  8
0
100
AcDbLine
 62
2
  6
CONTINUOUS
 10
12.6086865378
 20
2.5351122279
 11
12.6086865378
 21
2.70807267
  0
LINE
  5
3A4
100
AcDbEntity
  8
0
100
AcDbLine
 62
2
  6
CONTINUOUS
 10
12.5886865267
 20
2.3743418804
 11
12.5886865267
 21
2.4912273132
  0
LINE
  5
3A5
100
AcDbEntity
  8
0
100
AcDbLine
 62
2
  6
CONTINUOUS
 10
12.5886865267
 20
2.5660172622
 11
12.5886865267
 21
2.7064148006
  0
LINE
  5
3A6
100
AcDbEntity
  8
0
100
AcDbLine
 62
2
  6
CONTINUOUS
 10
12.5686865156
 20
2.3759997498
 11
12.5686865156
 21
2.4912273132
  0
LINE
  5
3A7
100
AcDbEntity
  8
0
100
AcDbLine
 62
2
  6
CONTINUOUS
 10
12.5686865156
 20
2.5920323691
 11
12.5686865156
 21
2.7047569312
  0
LINE
  5
3A8
100
AcDbEntity
  8
0
100
AcDbLine
 62
2
  6
CONTINUOUS
 10
12.5486865045
 20
2.3777575277
 11
12.5486865045
 21
2.4912273132
  0
LINE
  5
3A9
100
AcDbEntity
  8
0
100
AcDbLine
 62
2
  6
CONTINUOUS
 10
12.5486865045
 20
2.515977327
 11
12.5486865045
 21
2.5275118824
  0
LINE
  5
3AA
100
AcDbEntity
  8
0
100
AcDbLine
 62
2
  6
CONTINUOUS
 10
12.5486865045
 20
2.5920323691
 11
12.5486865045
 21
2.7029991533
  0
LINE
  5
3AB
100
AcDbEntity
  8
0
100
AcDbLine
 62
2
  6
CONTINUOUS
 10
12.5286864935
 20
2.3802813811
 11
12.5286864935
 21
2.5296213345
  0
LINE
  5
3AC
100
AcDbEntity
  8
0
100
AcDbLine
 62
2
  6
CONTINUOUS
 10
12.5286864935
 20
2.5505713461
 11
12.5286864935
 21
2.5667383551
  0
LINE
  5
3AD
100
AcDbEntity
  8
0
100
AcDbLine
 62
2
  6
CONTINUOUS
 10
12.5286864935
 20
2.5920323691
 11
12.5286864935
 21
2.7004752999
  0
LINE
  5
3AE
100
AcDbEntity
  8
0
100
AcDbLine
 62
2
  6
CONTINUOUS
 10
12.5086864824
 20
2.3828052346
 11
12.5086864824
 21
2.4912273132
  0
LINE
  5
3AF
100
AcDbEntity
  8
0
100
AcDbLine
 62
2
  6
CONTINUOUS
 10
12.5086864824
 20
2.515977327
 11
12.5086864824
 21
2.5279667721
  0
LINE
  5
3B0
100
AcDbEntity
  8
0
100
AcDbLine
 62
2
  6
CONTINUOUS
 10
12.5086864824
 20
2.5868602074
 11
12.5086864824
 21
2.6979514464
  0
LINE
  5
3B1
100
AcDbEntity
  8
0
100
AcDbLine
 62
2
  6
CONTINUOUS
 10
12.4886864713
 20
2.385329088
 11
12.4886864713
 21
2.4912273132
  0
LINE
  5
3B2
100
AcDbEntity
  8
0
100
AcDbLine
 62
2
  6
CONTINUOUS
 10
12.4886864713
 20
2.5553401045
 11
12.4886864713
 21
2.695427593
  0
LINE
  5
3B3
100
AcDbEntity
  8
0
100
AcDbLine
 62
2
  6
CONTINUOUS
 10
12.4686864602
 20
2.3878529415
 11
12.4686864602
 21
2.4912273132
  0
LINE
  5
3B4
100
AcDbEntity
  8
0
100
AcDbLine
 62
2
  6
CONTINUOUS
 10
12.4686864602
 20
2.5238200015
 11
12.4686864602
 21
2.6929037395
  0
LINE
  5
3B5
100
AcDbEntity
  8
0
100
AcDbLine
 62
2
  6
CONTINUOUS
 10
12.4486864491
 20
2.390376795
 11
12.4486864491
 21
2.4912273132
  0
LINE
  5
3B6
100
AcDbEntity
  8
0
100
AcDbLine
 62
2
  6
CONTINUOUS
 10
12.4486864491
 20
2.515977327
 11
12.4486864491
 21
2.690379886
  0
LINE
  5
3B7
100
AcDbEntity
  8
0
100
AcDbLine
 62
2
  6
CONTINUOUS
 10
12.428686438
 20
2.3931794042
 11
12.428686438
 21
2.6875772768
  0
LINE
  5
3B8
100
AcDbEntity
  8
0
100
AcDbLine
 62
2
  6
CONTINUOUS
 10
12.4086864269
 20
2.3964643301
 11
12.4086864269
 21
2.5013773986
  0
LINE
  5
3B9
100
AcDbEntity
  8
0
100
AcDbLine
 62
2
  6
CONTINUOUS
 10
12.4086864269
 20
2.5325739971
 11
12.4086864269
 21
2.5537224311
  0
LINE
  5
3BA
100
AcDbEntity
  8
0
100
AcDbLine
 62
2
  6
CONTINUOUS
 10
12.4086864269
 20
2.5791473398
 11
12.4086864269
 21
2.6842923509
  0
LINE
  5
3BB
100
AcDbEntity
  8
0
100
AcDbLine
 62
2
  6
CONTINUOUS
 10
12.3886864158
 20
2.399749256
 11
12.3886864158
 21
2.4921022658
  0
LINE
  5
3BC
100
AcDbEntity
  8
0
100
AcDbLine
 62
2
  6
CONTINUOUS
 10
12.3886864158
 20
2.5895929958
 11
12.3886864158
 21
2.681007425
  0
LINE
  5
3BD
100
AcDbEntity
  8
0
100
AcDbLine
 62
2
  6
CONTINUOUS
 10
12.3686864047
 20
2.403451877
 11
12.3686864047
 21
2.4912273132
  0
LINE
  5
3BE
100
AcDbEntity
  8
0
100
AcDbLine
 62
2
  6
CONTINUOUS
 10
12.3686864047
 20
2.5920323691
 11
12.3686864047
 21
2.677304804
  0
LINE
  5
3BF
100
AcDbEntity
  8
0
100
AcDbLine
 62
2
  6
CONTINUOUS
 10
12.3486863936
 20
2.407324637
 11
12.3486863936
 21
2.4912273132
  0
LINE
  5
3C0
100
AcDbEntity
  8
0
100
AcDbLine
 62
2
  6
CONTINUOUS
 10
12.3486863936
 20
2.5920323691
 11
12.3486863936
 21
2.673432044
  0
LINE
  5
3C1
100
AcDbEntity
  8
0
100
AcDbLine
 62
2
  6
CONTINUOUS
 10
12.3286863825
 20
2.4113493968
 11
12.3286863825
 21
2.4912273132
  0
LINE
  5
3C2
100
AcDbEntity
  8
0
100
AcDbLine
 62
2
  6
CONTINUOUS
 10
12.3286863825
 20
2.515977327
 11
12.3286863825
 21
2.5333023366
  0
LINE
  5
3C3
100
AcDbEntity
  8
0
100
AcDbLine
 62
2
  6
CONTINUOUS
 10
12.3286863825
 20
2.5499573458
 11
12.3286863825
 21
2.5672823554
  0
LINE
  5
3C4
100
AcDbEntity
  8
0
100
AcDbLine
 62
2
  6
CONTINUOUS
 10
12.3286863825
 20
2.5920323691
 11
12.3286863825
 21
2.6694072842
  0
LINE
  5
3C5
100
AcDbEntity
  8
0
100
AcDbLine
 62
2
  6
CONTINUOUS
 10
12.3086863715
 20
2.4159005505
 11
12.3086863715
 21
2.4912273132
  0
LINE
  5
3C6
100
AcDbEntity
  8
0
100
AcDbLine
 62
2
  6
CONTINUOUS
 10
12.3086863715
 20
2.515977327
 11
12.3086863715
 21
2.5333023366
  0
LINE
  5
3C7
100
AcDbEntity
  8
0
100
AcDbLine
 62
2
  6
CONTINUOUS
 10
12.3086863715
 20
2.5499573458
 11
12.3086863715
 21
2.5672823554
  0
LINE
  5
3C8
100
AcDbEntity
  8
0
100
AcDbLine
 62
2
  6
CONTINUOUS
 10
12.3086863715
 20
2.5920323691
 11
12.3086863715
 21
2.6648561305
  0
LINE
  5
3C9
100
AcDbEntity
  8
0
100
AcDbLine
 62
2
  6
CONTINUOUS
 10
12.2886863604
 20
2.4204517041
 11
12.2886863604
 21
2.4912273132
  0
LINE
  5
3CA
100
AcDbEntity
  8
0
100
AcDbLine
 62
2
  6
CONTINUOUS
 10
12.2886863604
 20
2.5920323691
 11
12.2886863604
 21
2.6603049769
  0
LINE
  5
3CB
100
AcDbEntity
  8
0
100
AcDbLine
 62
2
  6
CONTINUOUS
 10
12.2686863493
 20
2.4257438218
 11
12.2686863493
 21
2.4912273132
  0
LINE
  5
3CC
100
AcDbEntity
  8
0
100
AcDbLine
 62
2
  6
CONTINUOUS
 10
12.2686863493
 20
2.5920323691
 11
12.2686863493
 21
2.6550128592
  0
LINE
  5
3CD
100
AcDbEntity
  8
0
100
AcDbLine
 62
2
  6
CONTINUOUS
 10
12.2486863382
 20
2.4310978667
 11
12.2486863382
 21
2.4912273132
  0
LINE
  5
3CE
100
AcDbEntity
  8
0
100
AcDbLine
 62
2
  6
CONTINUOUS
 10
12.2486863382
 20
2.5920323691
 11
12.2486863382
 21
2.6496588142
  0
LINE
  5
3CF
100
AcDbEntity
  8
0
100
AcDbLine
 62
2
  6
CONTINUOUS
 10
12.2286863271
 20
2.4372566433
 11
12.2286863271
 21
2.4912273132
  0
LINE
  5
3D0
100
AcDbEntity
  8
0
100
AcDbLine
 62
2
  6
CONTINUOUS
 10
12.2286863271
 20
2.515977327
 11
12.2286863271
 21
2.5672823554
  0
LINE
  5
3D1
100
AcDbEntity
  8
0
100
AcDbLine
 62
2
  6
CONTINUOUS
 10
12.2286863271
 20
2.5920323691
 11
12.2286863271
 21
2.6435000377
  0
LINE
  5
3D2
100
AcDbEntity
  8
0
100
AcDbLine
 62
2
  6
CONTINUOUS
 10
12.208686316
 20
2.443589771
 11
12.208686316
 21
2.4912273132
  0
LINE
  5
3D3
100
AcDbEntity
  8
0
100
AcDbLine
 62
2
  6
CONTINUOUS
 10
12.208686316
 20
2.515977327
 11
12.208686316
 21
2.5672823554
  0
LINE
  5
3D4
100
AcDbEntity
  8
0
100
AcDbLine
 62
2
  6
CONTINUOUS
 10
12.208686316
 20
2.5920323691
 11
12.208686316
 21
2.63716691
  0
LINE
  5
3D5
100
AcDbEntity
  8
0
100
AcDbLine
 62
2
  6
CONTINUOUS
 10
12.1886863049
 20
2.4510806436
 11
12.1886863049
 21
2.6296760373
  0
LINE
  5
3D6
100
AcDbEntity
  8
0
100
AcDbLine
 62
2
  6
CONTINUOUS
 10
12.1686862938
 20
2.4591016523
 11
12.1686862938
 21
2.6216550287
  0
LINE
  5
3D7
100
AcDbEntity
  8
0
100
AcDbLine
 62
2
  6
CONTINUOUS
 10
12.1486862827
 20
2.468314272
 11
12.1486862827
 21
2.612442409
  0
LINE
  5
3D8
100
AcDbEntity
  8
0
100
AcDbLine
 62
2
  6
CONTINUOUS
 10
12.1286862716
 20
2.4794932339
 11
12.1286862716
 21
2.601263447
  0
LINE
  5
3D9
100
AcDbEntity
  8
0
100
AcDbLine
 62
2
  6
CONTINUOUS
 10
12.1086862605
 20
2.4934150665
 11
12.1086862605
 21
2.5873416144
  0
LINE
  5
3DA
100
AcDbEntity
  8
0
100
AcDbLine
 62
2
  6
CONTINUOUS
 10
12.0886862494
 20
2.5144449553
 11
12.0886862494
 21
2.5663117257
  0
ENDBLK
  5
3DB
100
AcDbEntity
  8
0
  6
BYBLOCK
 62
0
100
AcDbBlockEnd
  0
BLOCK
  5
3DC
100
AcDbEntity
  8
SCHEME_DIMS
100
AcDbBlockBegin
 62
2
  6
CONTINUOUS
  2
*D0
 70
65
 10
0.0
 20
0.0
  3
*D0
  1

  0
TEXT
  5
3DD
100
AcDbEntity
  8
SCHEME_DIMS
100
AcDbText
 62
2
  6
CONTINUOUS
 10
6.498563714
 20
7.3419950949
  7
STANDARD
 40
0.1
  1
114,2
 41
1.0
 72
0
100
AcDbText
  0
TEXT
  5
3DE
100
AcDbEntity
  8
SCHEME_DIMS
100
AcDbText
 62
2
  6
CONTINUOUS
 10
6.598563714
 20
7.1919950949
  7
STANDARD
 40
0.1
  1
4.50
 41
1.0
 72
0
100
AcDbText
  0
TEXT
  5
3DF
100
AcDbEntity
  8
SCHEME_DIMS
100
AcDbText
 62
2
  6
CONTINUOUS
 10
6.498563714
 20
7.1919950949
  7
STANDARD
 40
0.1
  1
[
 41
1.0
 72
0
100
AcDbText
  0
TEXT
  5
3E0
100
AcDbEntity
  8
SCHEME_DIMS
100
AcDbText
 62
2
  6
CONTINUOUS
 10
6.998563714
 20
7.1919950949
  7
STANDARD
 40
0.1
  1
]
 41
1.0
 72
0
100
AcDbText
  0
LINE
  5
3E1
100
AcDbEntity
  8
SCHEME_DIMS
100
AcDbLine
 62
2
  6
CONTINUOUS
 10
9.04659521
 20
6.357331425
 11
9.04659521
 21
7.5169950949
  0
LINE
  5
3E2
100
AcDbEntity
  8
SCHEME_DIMS
100
AcDbLine
 62
2
  6
CONTINUOUS
 10
4.5505322179
 20
6.5298117748
 11
4.5505322179
 21
7.5169950949
  0
LINE
  5
3E3
100
AcDbEntity
  8
SCHEME_DIMS
100
AcDbLine
 62
2
  6
CONTINUOUS
 10
9.04659521
 20
7.3919950949
 11
7.198563714
 21
7.3919950949
  0
LINE
  5
3E4
100
AcDbEntity
  8
SCHEME_DIMS
100
AcDbLine
 62
2
  6
CONTINUOUS
 10
4.5505322179
 20
7.3919950949
 11
6.398563714
 21
7.3919950949
  0
INSERT
  5
3E5
100
AcDbEntity
  8
SCHEME_DIMS
100
AcDbBlockReference
 62
2
  6
CONTINUOUS
  2
_FILLED
 10
9.04659521
 20
7.3919950949
 41
0.1875
 42
0.1875
 43
0.1875
  0
INSERT
  5
3E6
100
AcDbEntity
  8
SCHEME_DIMS
100
AcDbBlockReference
 62
2
  6
CONTINUOUS
  2
_FILLED
 10
4.5505322179
 20
7.3919950949
 41
0.1875
 42
0.1875
 43
0.1875
 50
180.0
  0
ENDBLK
  5
3E7
100
AcDbEntity
  8
0
  6
BYBLOCK
 62
0
100
AcDbBlockEnd
  0
BLOCK
  5
3E8
100
AcDbEntity
  8
SCHEME_DIMS
100
AcDbBlockBegin
 62
2
  6
CONTINUOUS
  2
*D1
 70
65
 10
0.0
 20
0.0
  3
*D1
  1

  0
TEXT
  5
3E9
100
AcDbEntity
  8
SCHEME_DIMS
100
AcDbText
 62
2
  6
CONTINUOUS
 10
9.1706109581
 20
7.3419950949
  7
STANDARD
 40
0.1
  1
19
 41
1.0
 72
0
100
AcDbText
  0
TEXT
  5
3EA
100
AcDbEntity
  8
SCHEME_DIMS
100
AcDbText
 62
2
  6
CONTINUOUS
 10
9.2706109581
 20
7.1919950949
  7
STANDARD
 40
0.1
  1
.75
 41
1.0
 72
0
100
AcDbText
  0
TEXT
  5
3EB
100
AcDbEntity
  8
SCHEME_DIMS
100
AcDbText
 62
2
  6
CONTINUOUS
 10
9.1706109581
 20
7.1919950949
  7
STANDARD
 40
0.1
  1
[
 41
1.0
 72
0
100
AcDbText
  0
TEXT
  5
3EC
100
AcDbEntity
  8
SCHEME_DIMS
100
AcDbText
 62
2
  6
CONTINUOUS
 10
9.5706109581
 20
7.1919950949
  7
STANDARD
 40
0.1
  1
]
 41
1.0
 72
0
100
AcDbText
  0
LINE
  5
3ED
100
AcDbEntity
  8
SCHEME_DIMS
100
AcDbLine
 62
2
  6
CONTINUOUS
 10
9.7946267061
 20
6.1309534723
 11
9.7946267061
 21
7.5169950949
  0
LINE
  5
3EE
100
AcDbEntity
  8
SCHEME_DIMS
100
AcDbLine
 62
2
  6
CONTINUOUS
 10
9.04659521
 20
6.357331425
 11
9.04659521
 21
7.5169950949
  0
LINE
  5
3EF
100
AcDbEntity
  8
SCHEME_DIMS
100
AcDbLine
 62
2
  6
CONTINUOUS
 10
9.7946267061
 20
7.3919950949
 11
10.1946267061
 21
7.3919950949
  0
LINE
  5
3F0
100
AcDbEntity
  8
SCHEME_DIMS
100
AcDbLine
 62
2
  6
CONTINUOUS
 10
9.04659521
 20
7.3919950949
 11
8.64659521
 21
7.3919950949
  0
INSERT
  5
3F1
100
AcDbEntity
  8
SCHEME_DIMS
100
AcDbBlockReference
 62
2
  6
CONTINUOUS
  2
_FILLED
 10
9.7946267061
 20
7.3919950949
 41
0.1875
 42
0.1875
 43
0.1875
 50
180.0
  0
INSERT
  5
3F2
100
AcDbEntity
  8
SCHEME_DIMS
100
AcDbBlockReference
 62
2
  6
CONTINUOUS
  2
_FILLED
 10
9.04659521
 20
7.3919950949
 41
0.1875
 42
0.1875
 43
0.1875
  0
ENDBLK
  5
3F3
100
AcDbEntity
  8
0
  6
BYBLOCK
 62
0
100
AcDbBlockEnd
  0
BLOCK
  5
3F4
100
AcDbEntity
  8
SCHEME_DIMS
100
AcDbBlockBegin
 62
2
  6
CONTINUOUS
  2
*D2
 70
65
 10
0.0
 20
0.0
  3
*D2
  1

  0
TEXT
  5
3F5
100
AcDbEntity
  8
SCHEME_DIMS
100
AcDbText
 62
2
  6
CONTINUOUS
 10
10.5413908824
 20
6.8917102848
  7
STANDARD
 40
0.1
  1
8,3
 41
1.0
 72
0
100
AcDbText
  0
TEXT
  5
3F6
100
AcDbEntity
  8
SCHEME_DIMS
100
AcDbText
 62
2
  6
CONTINUOUS
 10
10.6413908824
 20
6.7417102848
  7
STANDARD
 40
0.1
  1
.33
 41
1.0
 72
0
100
AcDbText
  0
TEXT
  5
3F7
100
AcDbEntity
  8
SCHEME_DIMS
100
AcDbText
 62
2
  6
CONTINUOUS
 10
10.5413908824
 20
6.7417102848
  7
STANDARD
 40
0.1
  1
[
 41
1.0
 72
0
100
AcDbText
  0
TEXT
  5
3F8
100
AcDbEntity
  8
SCHEME_DIMS
100
AcDbText
 62
2
  6
CONTINUOUS
 10
10.9413908824
 20
6.7417102848
  7
STANDARD
 40
0.1
  1
]
 41
1.0
 72
0
100
AcDbText
  0
LINE
  5
3F9
100
AcDbEntity
  8
SCHEME_DIMS
100
AcDbLine
 62
2
  6
CONTINUOUS
 10
9.7946267061
 20
6.1309534723
 11
9.7946267061
 21
7.0667102848
  0
LINE
  5
3FA
100
AcDbEntity
  8
SCHEME_DIMS
100
AcDbLine
 62
2
  6
CONTINUOUS
 10
10.1213983596
 20
5.8327251258
 11
10.1213983596
 21
7.0667102848
  0
LINE
  5
3FB
100
AcDbEntity
  8
SCHEME_DIMS
100
AcDbLine
 62
2
  6
CONTINUOUS
 10
9.7946267061
 20
6.9417102848
 11
9.3946267061
 21
6.9417102848
  0
LINE
  5
3FC
100
AcDbEntity
  8
SCHEME_DIMS
100
AcDbLine
 62
2
  6
CONTINUOUS
 10
10.1213983596
 20
6.9417102848
 11
10.4413908824
 21
6.9417102848
  0
INSERT
  5
3FD
100
AcDbEntity
  8
SCHEME_DIMS
100
AcDbBlockReference
 62
2
  6
CONTINUOUS
  2
_FILLED
 10
9.7946267061
 20
6.9417102848
 41
0.1875
 42
0.1875
 43
0.1875
  0
INSERT
  5
3FE
100
AcDbEntity
  8
SCHEME_DIMS
100
AcDbBlockReference
 62
2
  6
CONTINUOUS
  2
_FILLED
 10
10.1213983596
 20
6.9417102848
 41
0.1875
 42
0.1875
 43
0.1875
 50
180.0
  0
ENDBLK
  5
3FF
100
AcDbEntity
  8
0
  6
BYBLOCK
 62
0
100
AcDbBlockEnd
  0
BLOCK
  5
400
100
AcDbEntity
  8
SCHEME_DIMS
100
AcDbBlockBegin
 62
2
  6
CONTINUOUS
  2
*D3
 70
65
 10
0.0
 20
0.0
  3
*D3
  1

  0
TEXT
  5
401
100
AcDbEntity
  8
SCHEME_DIMS
100
AcDbText
 62
2
  6
CONTINUOUS
 10
3.1962044462
 20
6.7402857575
  7
STANDARD
 40
0.1
  1
%%c
 41
1.3333333333
 72
0
100
AcDbText
  0
TEXT
  5
402
100
AcDbEntity
  8
SCHEME_DIMS
100
AcDbText
 62
2
  6
CONTINUOUS
 10
3.3295377796
 20
6.7402857575
  7
STANDARD
 40
0.1
  1
50
 41
1.0
 72
0
100
AcDbText
  0
TEXT
  5
403
100
AcDbEntity
  8
SCHEME_DIMS
100
AcDbText
 62
2
  6
CONTINUOUS
 10
3.4295377796
 20
6.5902857575
  7
STANDARD
 40
0.1
  1
1.97
 41
1.0
 72
0
100
AcDbText
  0
TEXT
  5
404
100
AcDbEntity
  8
SCHEME_DIMS
100
AcDbText
 62
2
  6
CONTINUOUS
 10
3.3295377796
 20
6.5902857575
  7
STANDARD
 40
0.1
  1
[
 41
1.0
 72
0
100
AcDbText
  0
TEXT
  5
405
100
AcDbEntity
  8
SCHEME_DIMS
100
AcDbText
 62
2
  6
CONTINUOUS
 10
3.8295377796
 20
6.5902857575
  7
STANDARD
 40
0.1
  1
]
 41
1.0
 72
0
100
AcDbText
  0
LINE
  5
406
100
AcDbEntity
  8
SCHEME_DIMS
100
AcDbLine
 62
2
  6
CONTINUOUS
 10
2.8209729776
 20
6.4794347708
 11
2.9462044462
 21
6.7902857575
  0
LINE
  5
407
100
AcDbEntity
  8
SCHEME_DIMS
100
AcDbLine
 62
2
  6
CONTINUOUS
 10
2.9462044462
 20
6.7902857575
 11
3.0962044462
 21
6.7902857575
  0
INSERT
  5
408
100
AcDbEntity
  8
SCHEME_DIMS
100
AcDbBlockReference
 62
2
  6
CONTINUOUS
  2
_FILLED
 10
2.8209729776
 20
6.4794347708
 41
0.1875
 42
0.1875
 43
0.1875
 50
248.0571427196
  0
ENDBLK
  5
409
100
AcDbEntity
  8
0
  6
BYBLOCK
 62
0
100
AcDbBlockEnd
  0
BLOCK
  5
40A
100
AcDbEntity
  8
0
100
AcDbBlockBegin
  2
_FILLED
 70
64
 10
0.0
 20
0.0
  3
_FILLED
  1

  0
SOLID
  5
40B
100
AcDbEntity
  8
0
  6
BYBLOCK
 62
0
100
AcDbTrace
 10
0.0
 20
0.0
 11
-1.0
 21
0.1666666667
 12
-1.0
 22
-0.1666666667
 13
-1.0
 23
-0.1666666667
  0
ENDBLK
  5
40C
100
AcDbEntity
  8
0
  6
BYBLOCK
 62
0
100
AcDbBlockEnd
  0
ENDSEC
  0
SECTION
  2
ENTITIES
  0
TEXT
  5
40D
100
AcDbEntity
  8
0
100
AcDbText
 62
2
  6
CONTINUOUS
 10
10.1487658475
 20
1.694867839
  7
STANDARD
 40
0.1
  1
%%uTHIRD ANGLE PROJECTION
 41
0.8
 72
1
 11
11.0287658475
 21
1.694867839
100
AcDbText
  0
TEXT
  5
40E
100
AcDbEntity
  8
0
100
AcDbText
 62
2
  6
CONTINUOUS
 10
12.88
 20
1.377
  7
STANDARD
 40
0.08
  1
DRAWING NO.
 41
1.0
 72
0
100
AcDbText
  0
TEXT
  5
40F
100
AcDbEntity
  8
0
100
AcDbText
 62
2
  6
CONTINUOUS
 10
10.044
 20
2.436432
  7
STANDARD
 40
0.08
  1
and is proprietary in general
 41
0.85
 72
1
 11
11.03
 21
2.436432
100
AcDbText
  0
TEXT
  5
410
100
AcDbEntity
  8
0
100
AcDbText
 62
2
  6
CONTINUOUS
 10
10.078
 20
2.316432
  7
STANDARD
 40
0.08
  1
and in detail.  Its contents
 41
0.85
 72
1
 11
11.03
 21
2.316432
100
AcDbText
  0
TEXT
  5
411
100
AcDbEntity
  8
0
100
AcDbText
 62
2
  6
CONTINUOUS
 10
10.214
 20
2.196432
  7
STANDARD
 40
0.08
  1
shall not be revealed to
 41
0.85
 72
1
 11
11.03
 21
2.196432
100
AcDbText
  0
TEXT
  5
412
100
AcDbEntity
  8
0
100
AcDbText
 62
2
  6
CONTINUOUS
 10
10.248
 20
2.076432
  7
STANDARD
 40
0.08
  1
outside parties without
 41
0.85
 72
1
 11
11.03
 21
2.076432
100
AcDbText
  0
TEXT
  5
413
100
AcDbEntity
  8
0
100
AcDbText
 62
2
  6
CONTINUOUS
 10
10.146
 20
1.956432
  7
STANDARD
 40
0.08
  1
written consent of BANNER.
 41
0.85
 72
1
 11
11.03
 21
1.956432
100
AcDbText
  0
TEXT
  5
414
100
AcDbEntity
  8
0
100
AcDbText
 62
2
  6
CONTINUOUS
 10
12.08
 20
2.117
  7
STANDARD
 40
0.1
  1
TITLE
 41
0.8
 72
0
100
AcDbText
  0
TEXT
  5
415
100
AcDbEntity
  8
0
100
AcDbText
 62
2
  6
CONTINUOUS
 10
12.08
 20
1.377
  7
STANDARD
 40
0.08
  1
SIZE
 41
1.0
 72
0
100
AcDbText
  0
TEXT
  5
416
100
AcDbEntity
  8
0
100
AcDbText
 62
2
  6
CONTINUOUS
 10
12.08
 20
1.007
  7
STANDARD
 40
0.08
  1
SCALE
 41
1.0
 72
0
100
AcDbText
  0
TEXT
  5
417
100
AcDbEntity
  8
0
100
AcDbText
 62
2
  6
CONTINUOUS
 10
12.46
 20
1.237
  7
STANDARD
 40
0.1
  1
B
 41
0.8
 72
1
 11
12.5
 21
1.237
100
AcDbText
  0
TEXT
  5
418
100
AcDbEntity
  8
0
100
AcDbText
 62
2
  6
CONTINUOUS
 10
10.112
 20
2.556432
  7
STANDARD
 40
0.08
  1
of BANNER ENGINEERING CORP.
 41
0.85
 72
1
 11
11.03
 21
2.556432
100
AcDbText
  0
TEXT
  5
419
100
AcDbEntity
  8
0
100
AcDbText
 62
2
  6
CONTINUOUS
 10
10.078
 20
2.676432
  7
STANDARD
 40
0.08
  1
This drawing is the property
 41
0.85
 72
1
 11
11.03
 21
2.676432
100
AcDbText
  0
TEXT
  5
41A
100
AcDbEntity
  8
0
100
AcDbText
 62
2
  6
CONTINUOUS
 10
14.19
 20
2.3134
  7
STANDARD
 40
0.1
  1
MINNEAPOLIS, MN 55440
 41
0.8
 72
1
 11
15.03
 21
2.3134
100
AcDbText
  0
TEXT
  5
41B
100
AcDbEntity
  8
0
100
AcDbText
 62
2
  6
CONTINUOUS
 10
14.255
 20
1.007
  7
STANDARD
 40
0.08
  1
SHEET
 41
1.0
 72
0
100
AcDbText
  0
TEXT
  5
41C
100
AcDbEntity
  8
0
100
AcDbText
 62
2
  6
CONTINUOUS
 10
15.63
 20
1.377
  7
STANDARD
 40
0.08
  1
REV.
 41
1.0
 72
0
100
AcDbText
  0
TEXT
  5
41D
100
AcDbEntity
  8
0
100
AcDbText
 62
2
  6
CONTINUOUS
 10
16.03
 20
0.765443
  7
STANDARD
 40
0.07
  1
PRO/E
 41
1.0
 72
2
 11
16.38
 21
0.765443
100
AcDbText
  0
TEXT
  5
41E
100
AcDbEntity
  8
0
100
AcDbText
 62
2
  6
CONTINUOUS
 10
13.7052
 20
2.631049
  7
STANDARD
 40
0.12
  1
BANNER ENGINEERING CORP.
 41
0.92
 72
1
 11
15.03
 21
2.631049
100
AcDbText
  0
TEXT
  5
41F
100
AcDbEntity
  8
0
100
AcDbText
 62
2
  6
CONTINUOUS
 10
14.51
 20
2.4724
  7
STANDARD
 40
0.1
  1
P.O. BOX 9414
 41
0.8
 72
1
 11
15.03
 21
2.4724
100
AcDbText
  0
TEXT
  5
420
100
AcDbEntity
  8
0
100
AcDbText
 62
2
  6
CONTINUOUS
 10
9.445
 20
10.212
  7
STANDARD
 40
0.1
  1
4
 41
0.8
 72
1
 11
9.485
 21
10.212
100
AcDbText
  0
TEXT
  5
421
100
AcDbEntity
  8
0
100
AcDbText
 62
2
  6
CONTINUOUS
 10
11.415
 20
10.212
  7
STANDARD
 40
0.1
  1
3
 41
0.8
 72
1
 11
11.455
 21
10.212
100
AcDbText
  0
TEXT
  5
422
100
AcDbEntity
  8
0
100
AcDbText
 62
2
  6
CONTINUOUS
 10
13.385
 20
10.212
  7
STANDARD
 40
0.1
  1
2
 41
0.8
 72
1
 11
13.425
 21
10.212
100
AcDbText
  0
TEXT
  5
423
100
AcDbEntity
  8
0
100
AcDbText
 62
2
  6
CONTINUOUS
 10
15.355
 20
10.212
  7
STANDARD
 40
0.1
  1
1
 41
0.8
 72
1
 11
15.395
 21
10.212
100
AcDbText
  0
TEXT
  5
424
100
AcDbEntity
  8
0
100
AcDbText
 62
2
  6
CONTINUOUS
 10
3.535
 20
10.212
  7
STANDARD
 40
0.1
  1
7
 41
0.8
 72
1
 11
3.575
 21
10.212
100
AcDbText
  0
TEXT
  5
425
100
AcDbEntity
  8
0
100
AcDbText
 62
2
  6
CONTINUOUS
 10
5.505
 20
10.212
  7
STANDARD
 40
0.1
  1
6
 41
0.8
 72
1
 11
5.545
 21
10.212
100
AcDbText
  0
TEXT
  5
426
100
AcDbEntity
  8
0
100
AcDbText
 62
2
  6
CONTINUOUS
 10
7.475
 20
10.212
  7
STANDARD
 40
0.1
  1
5
 41
0.8
 72
1
 11
7.515
 21
10.212
100
AcDbText
  0
TEXT
  5
427
100
AcDbEntity
  8
0
100
AcDbText
 62
2
  6
CONTINUOUS
 10
1.565
 20
10.212
  7
STANDARD
 40
0.1
  1
8
 41
0.8
 72
1
 11
1.605
 21
10.212
100
AcDbText
  0
TEXT
  5
428
100
AcDbEntity
  8
0
100
AcDbText
 62
2
  6
CONTINUOUS
 10
1.565
 20
0.687
  7
STANDARD
 40
0.1
  1
8
 41
0.8
 72
1
 11
1.605
 21
0.687
100
AcDbText
  0
TEXT
  5
429
100
AcDbEntity
  8
0
100
AcDbText
 62
2
  6
CONTINUOUS
 10
3.535
 20
0.687
  7
STANDARD
 40
0.1
  1
7
 41
0.8
 72
1
 11
3.575
 21
0.687
100
AcDbText
  0
TEXT
  5
42A
100
AcDbEntity
  8
0
100
AcDbText
 62
2
  6
CONTINUOUS
 10
5.505
 20
0.687
  7
STANDARD
 40
0.1
  1
6
 41
0.8
 72
1
 11
5.545
 21
0.687
100
AcDbText
  0
TEXT
  5
42B
100
AcDbEntity
  8
0
100
AcDbText
 62
2
  6
CONTINUOUS
 10
7.475
 20
0.687
  7
STANDARD
 40
0.1
  1
5
 41
0.8
 72
1
 11
7.515
 21
0.687
100
AcDbText
  0
TEXT
  5
42C
100
AcDbEntity
  8
0
100
AcDbText
 62
2
  6
CONTINUOUS
 10
9.445
 20
0.687
  7
STANDARD
 40
0.1
  1
4
 41
0.8
 72
1
 11
9.485
 21
0.687
100
AcDbText
  0
TEXT
  5
42D
100
AcDbEntity
  8
0
100
AcDbText
 62
2
  6
CONTINUOUS
 10
11.415
 20
0.687
  7
STANDARD
 40
0.1
  1
3
 41
0.8
 72
1
 11
11.455
 21
0.687
100
AcDbText
  0
TEXT
  5
42E
100
AcDbEntity
  8
0
100
AcDbText
 62
2
  6
CONTINUOUS
 10
13.385
 20
0.687
  7
STANDARD
 40
0.1
  1
2
 41
0.8
 72
1
 11
13.425
 21
0.687
100
AcDbText
  0
TEXT
  5
42F
100
AcDbEntity
  8
0
100
AcDbText
 62
2
  6
CONTINUOUS
 10
15.355
 20
0.687
  7
STANDARD
 40
0.1
  1
1
 41
0.8
 72
1
 11
15.395
 21
0.687
100
AcDbText
  0
TEXT
  5
430
100
AcDbEntity
  8
0
100
AcDbText
 62
2
  6
CONTINUOUS
 10
0.44
 20
4.2995
  7
STANDARD
 40
0.1
  1
B
 41
0.8
 72
2
 11
0.52
 21
4.2995
100
AcDbText
  0
TEXT
  5
431
100
AcDbEntity
  8
0
100
AcDbText
 62
2
  6
CONTINUOUS
 10
0.44
 20
1.9995
  7
STANDARD
 40
0.1
  1
A
 41
0.8
 72
2
 11
0.52
 21
1.9995
100
AcDbText
  0
TEXT
  5
432
100
AcDbEntity
  8
0
100
AcDbText
 62
2
  6
CONTINUOUS
 10
0.44
 20
8.8995
  7
STANDARD
 40
0.1
  1
D
 41
0.8
 72
2
 11
0.52
 21
8.8995
100
AcDbText
  0
TEXT
  5
433
100
AcDbEntity
  8
0
100
AcDbText
 62
2
  6
CONTINUOUS
 10
0.44
 20
6.5995
  7
STANDARD
 40
0.1
  1
C
 41
0.8
 72
2
 11
0.52
 21
6.5995
100
AcDbText
  0
TEXT
  5
434
100
AcDbEntity
  8
0
100
AcDbText
 62
2
  6
CONTINUOUS
 10
16.48
 20
8.8995
  7
STANDARD
 40
0.1
  1
D
 41
0.8
 72
0
100
AcDbText
  0
TEXT
  5
435
100
AcDbEntity
  8
0
100
AcDbText
 62
2
  6
CONTINUOUS
 10
16.48
 20
6.5995
  7
STANDARD
 40
0.1
  1
C
 41
0.8
 72
0
100
AcDbText
  0
TEXT
  5
436
100
AcDbEntity
  8
0
100
AcDbText
 62
2
  6
CONTINUOUS
 10
16.48
 20
4.2995
  7
STANDARD
 40
0.1
  1
B
 41
0.8
 72
0
100
AcDbText
  0
TEXT
  5
437
100
AcDbEntity
  8
0
100
AcDbText
 62
2
  6
CONTINUOUS
 10
16.48
 20
1.9995
  7
STANDARD
 40
0.1
  1
A
 41
0.8
 72
0
100
AcDbText
  0
MTEXT
  5
438
100
AcDbEntity
  8
0
100
AcDbMText
 62
2
  6
CONTINUOUS
  7
STANDARD
 71
1
 72
1
 10
14.819264911
 20
1.0627941725
 30
0.0
 11
1.0
 21
0.0
 31
0.0
  1
1 OF 1
 40
0.1
 41
0.6
  0
TEXT
  5
439
100
AcDbEntity
  8
0
100
AcDbText
 62
7
  6
CONTINUOUS
 10
13.8911999818
 20
1.2547321586
  7
STANDARD
 40
0.12
  1
146178
 41
1.0
 72
0
100
AcDbText
  0
TEXT
  5
43A
100
AcDbEntity
  8
0
100
AcDbText
 62
2
  6
CONTINUOUS
 10
12.644264911
 20
0.9627941725
  7
STANDARD
 40
0.1
  1
1:1
 41
1.0
 72
0
100
AcDbText
  0
MTEXT
  5
43B
100
AcDbEntity
  8
0
100
AcDbMText
 62
2
  6
CONTINUOUS
  7
STANDARD
 71
1
 72
1
 10
1.0597007627
 20
1.6202922458
 30
0.0
 11
1.0
 21
0.0
 31
0.0
  1
NOTES:\P1. ALL DIMENSIONS ARE MILLIMETERS [INCHES] UNLESS OTHERWISE NOTED.
 40
0.1
 41
6.6
  0
INSERT
  5
43C
100
AcDbEntity
  8
0
100
AcDbBlockReference
 62
2
  6
CONTINUOUS
  2
BANNER_LOGO_TITLEBLOCK_BL0
 10
12.9046655056
 20
2.5403783448
  0
DIMENSION
  5
43D
100
AcDbEntity
  8
SCHEME_DIMS
100
AcDbDimension
 62
2
  6
CONTINUOUS
  2
*D0
 10
4.5505322179
 20
7.3919950949
 11
6.798563714
 21
7.3169950949
 70
160
 42
114.2
  3
DIMSTYLE_1
100
AcDbAlignedDimension
 13
9.04659521
 23
6.357331425
 14
4.5505322179
 24
6.5298117748
 50
180.0
100
AcDbRotatedDimension
  0
DIMENSION
  5
43E
100
AcDbEntity
  8
SCHEME_DIMS
100
AcDbDimension
 62
2
  6
CONTINUOUS
  2
*D1
 10
9.04659521
 20
7.3919950949
 11
9.4206109581
 21
7.3169950949
 70
160
 42
19.0
  3
DIMSTYLE_1
100
AcDbAlignedDimension
 13
9.7946267061
 23
6.1309534723
 14
9.04659521
 24
6.357331425
 50
180.0
100
AcDbRotatedDimension
  0
DIMENSION
  5
43F
100
AcDbEntity
  8
SCHEME_DIMS
100
AcDbDimension
 62
2
  6
CONTINUOUS
  2
*D2
 10
10.1213983596
 20
6.9417102848
 11
10.7913908824
 21
6.8667102848
 70
160
 42
8.3
  3
DIMSTYLE_1
100
AcDbAlignedDimension
 13
9.7946267061
 23
6.1309534723
 14
10.1213983596
 24
5.8327251258
100
AcDbRotatedDimension
  0
DIMENSION
  5
440
100
AcDbEntity
  8
SCHEME_DIMS
100
AcDbDimension
 62
2
  6
CONTINUOUS
  2
*D3
 10
2.8209729776
 20
6.4794347708
 11
3.5628711129
 21
6.7152857575
 70
163
 42
50.0
  1
<>
  3
DIMSTYLE_2
100
AcDbDiametricDimension
 15
2.0853790794
 25
4.6535351659
  0
LINE
  5
441
100
AcDbEntity
  8
0
100
AcDbLine
 62
2
  6
CONTINUOUS
 10
16.38
 20
0.887
 11
12.03
 21
0.887
  0
LINE
  5
442
100
AcDbEntity
  8
0
100
AcDbLine
 62
2
  6
CONTINUOUS
 10
16.38
 20
0.887
 11
16.38
 21
2.807
  0
LINE
  5
443
100
AcDbEntity
  8
0
100
AcDbLine
 62
2
  6
CONTINUOUS
 10
16.38
 20
2.807
 11
12.03
 21
2.807
  0
LINE
  5
444
100
AcDbEntity
  8
0
100
AcDbLine
 62
2
  6
CONTINUOUS
 10
12.03
 20
0.887
 11
12.03
 21
2.807
  0
TEXT
  5
445
100
AcDbEntity
  8
0
100
AcDbText
 62
7
  6
CONTINUOUS
 10
16.105
 20
1.267
  7
STANDARD
 40
0.1
  1
1
 41
1.0
 72
1
 11
16.155
 21
1.267
100
AcDbText
  0
MTEXT
  5
446
100
AcDbEntity
  8
0
100
AcDbMText
 62
7
  6
CONTINUOUS
  7
STANDARD
 71
2
 72
1
 10
14.205
 20
1.967
 30
0.0
 11
1.0
 21
0.0
 31
0.0
  1
CL50 STANDARD QD\PWEB CAD DRAWINGS 2D/3D
 40
0.1
 41
2.2
  0
MTEXT
  5
447
100
AcDbEntity
  8
NOTES
100
AcDbMText
 62
2
  6
CONTINUOUS
  7
STANDARD
 71
1
 72
1
 10
10.8294411214
 20
4.2359570177
 30
0.0
 11
1.0
 21
0.0
 31
0.0
  1
INTERNAL THREADS\P1/2-14 NPSM\PMAX TORQUE 2.25 Nm\P[20in-lbs]
 40
0.1
 41
1.8
  0
LINE
  5
448
100
AcDbEntity
  8
NOTES
100
AcDbLine
 62
2
  6
CONTINUOUS
 10
9.7946267061
 20
5.2126028214
 11
10.5794411214
 21
4.1859570177
  0
LINE
  5
449
100
AcDbEntity
  8
NOTES
100
AcDbLine
 62
2
  6
CONTINUOUS
 10
10.5794411214
 20
4.1859570177
 11
10.8294411214
 21
4.1859570177
  0
SOLID
  5
44A
100
AcDbEntity
  8
NOTES
100
AcDbTrace
 62
2
  6
CONTINUOUS
 10
9.9333258984
 20
5.0826207205
 11
9.7946267061
 21
5.2126028214
 12
9.8836722878
 22
5.0446632582
 13
9.8836722878
 23
5.0446632582
  0
MTEXT
  5
44B
100
AcDbEntity
  8
NOTES
100
AcDbMText
 62
2
  6
CONTINUOUS
  7
STANDARD
 71
1
 72
1
 10
7.7421835443
 20
4.1973299051
 30
0.0
 11
1.0
 21
0.0
 31
0.0
  1
M30 X 1.5\P(MOUNTING\PNUT INCLUDED)
 40
0.1
 41
1.3
  0
LINE
  5
44C
100
AcDbEntity
  8
NOTES
100
AcDbLine
 62
2
  6
CONTINUOUS
 10
9.2714742811
 20
5.0670494574
 11
8.8921835443
 21
4.1473299051
  0
LINE
  5
44D
100
AcDbEntity
  8
NOTES
100
AcDbLine
 62
2
  6
CONTINUOUS
 10
8.8921835443
 20
4.1473299051
 11
8.6421835443
 21
4.1473299051
  0
SOLID
  5
44E
100
AcDbEntity
  8
NOTES
100
AcDbTrace
 62
2
  6
CONTINUOUS
 10
9.2288795478
 20
4.8817969239
 11
9.2714742811
 21
5.0670494574
 12
9.171100063
 22
4.9056250825
 13
9.171100063
 23
4.9056250825
  0
MTEXT
  5
44F
100
AcDbEntity
  8
NOTES
100
AcDbMText
 62
2
  6
CONTINUOUS
  7
STANDARD
 71
2
 72
1
 10
15.137145447
 20
7.0027264078
 30
0.0
 11
1.0
 21
0.0
 31
0.0
  1
ISOMETRIC VIEW\P\H0.1;SCALE  1:2
 40
0.12
 41
1.68
  0
LINE
  5
450
100
AcDbEntity
  8
0
100
AcDbLine
 62
2
  6
CONTINUOUS
 10
0.47
 20
5.586103
 11
0.47
 21
5.412897
  0
LINE
  5
451
100
AcDbEntity
  8
0
100
AcDbLine
 62
2
  6
CONTINUOUS
 10
0.62
 20
10.112
 11
0.62
 21
0.887
  0
LINE
  5
452
100
AcDbEntity
  8
0
100
AcDbLine
 62
2
  6
CONTINUOUS
 10
2.59
 20
0.887
 11
2.59
 21
0.637
  0
LINE
  5
453
100
AcDbEntity
  8
0
100
AcDbLine
 62
2
  6
CONTINUOUS
 10
2.59
 20
10.112
 11
2.59
 21
10.362
  0
LINE
  5
454
100
AcDbEntity
  8
0
100
AcDbLine
 62
2
  6
CONTINUOUS
 10
8.413397
 20
0.737
 11
8.586603
 21
0.737
  0
LINE
  5
455
100
AcDbEntity
  8
0
100
AcDbLine
 62
7
  6
CONTINUOUS
 10
11.1389508475
 20
1.425992839
 11
11.7453418475
 21
1.495385839
  0
LINE
  5
456
100
AcDbEntity
  8
0
100
AcDbLine
 62
2
  6
CONTINUOUS
 10
0.62
 20
0.887
 11
16.38
 21
0.887
  0
LINE
  5
457
100
AcDbEntity
  8
0
100
AcDbLine
 62
2
  6
CONTINUOUS
 10
12.03
 20
1.137
 11
16.38
 21
1.137
  0
LINE
  5
458
100
AcDbEntity
  8
0
100
AcDbLine
 62
7
  6
CONTINUOUS
 10
10.2121898475
 20
1.243294839
 11
10.4342808475
 21
1.243294839
  0
LINE
  5
459
100
AcDbEntity
  8
0
100
AcDbLine
 62
7
  6
CONTINUOUS
 10
10.4842808475
 20
1.243294839
 11
10.5842808475
 21
1.243294839
  0
LINE
  5
45A
100
AcDbEntity
  8
0
100
AcDbLine
 62
7
  6
CONTINUOUS
 10
10.6342808475
 20
1.243294839
 11
10.8563718475
 21
1.243294839
  0
LINE
  5
45B
100
AcDbEntity
  8
0
100
AcDbLine
 62
7
  6
CONTINUOUS
 10
11.0389508475
 20
1.243294839
 11
11.3171028475
 21
1.243294839
  0
LINE
  5
45C
100
AcDbEntity
  8
0
100
AcDbLine
 62
7
  6
CONTINUOUS
 10
11.3671028475
 20
1.243294839
 11
11.5171888475
 21
1.243294839
  0
LINE
  5
45D
100
AcDbEntity
  8
0
100
AcDbLine
 62
7
  6
CONTINUOUS
 10
11.5671888475
 20
1.243294839
 11
11.8453418475
 21
1.243294839
  0
LINE
  5
45E
100
AcDbEntity
  8
0
100
AcDbLine
 62
7
  6
CONTINUOUS
 10
11.7453418475
 20
0.991203839
 11
11.1389508475
 21
1.060596839
  0
LINE
  5
45F
100
AcDbEntity
  8
0
100
AcDbLine
 62
2
  6
CONTINUOUS
 10
4.56
 20
0.887
 11
4.56
 21
0.637
  0
LINE
  5
460
100
AcDbEntity
  8
0
100
AcDbLine
 62
2
  6
CONTINUOUS
 10
4.56
 20
10.112
 11
4.56
 21
10.362
  0
LINE
  5
461
100
AcDbEntity
  8
0
100
AcDbLine
 62
2
  6
CONTINUOUS
 10
0.47
 20
5.412897
 11
0.62
 21
5.4995
  0
LINE
  5
462
100
AcDbEntity
  8
0
100
AcDbLine
 62
2
  6
CONTINUOUS
 10
12.03
 20
1.507
 11
16.38
 21
1.507
  0
LINE
  5
463
100
AcDbEntity
  8
0
100
AcDbLine
 62
2
  6
CONTINUOUS
 10
10.03
 20
1.907
 11
12.03
 21
1.907
  0
LINE
  5
464
100
AcDbEntity
  8
0
100
AcDbLine
 62
2
  6
CONTINUOUS
 10
0.62
 20
5.4995
 11
0.47
 21
5.586103
  0
LINE
  5
465
100
AcDbEntity
  8
0
100
AcDbLine
 62
2
  6
CONTINUOUS
 10
12.03
 20
2.267
 11
16.38
 21
2.267
  0
LINE
  5
466
100
AcDbEntity
  8
0
100
AcDbLine
 62
2
  6
CONTINUOUS
 10
8.5
 20
10.112
 11
8.586603
 21
10.262
  0
LINE
  5
467
100
AcDbEntity
  8
0
100
AcDbLine
 62
2
  6
CONTINUOUS
 10
16.38
 20
2.807
 11
10.03
 21
2.807
  0
LINE
  5
468
100
AcDbEntity
  8
0
100
AcDbLine
 62
2
  6
CONTINUOUS
 10
0.62
 20
3.1995
 11
0.37
 21
3.1995
  0
LINE
  5
469
100
AcDbEntity
  8
0
100
AcDbLine
 62
2
  6
CONTINUOUS
 10
16.38
 20
3.1995
 11
16.63
 21
3.1995
  0
LINE
  5
46A
100
AcDbEntity
  8
0
100
AcDbLine
 62
2
  6
CONTINUOUS
 10
8.586603
 20
0.737
 11
8.5
 21
0.887
  0
LINE
  5
46B
100
AcDbEntity
  8
0
100
AcDbLine
 62
2
  6
CONTINUOUS
 10
6.53
 20
0.887
 11
6.53
 21
0.637
  0
LINE
  5
46C
100
AcDbEntity
  8
0
100
AcDbLine
 62
2
  6
CONTINUOUS
 10
6.53
 20
10.112
 11
6.53
 21
10.362
  0
LINE
  5
46D
100
AcDbEntity
  8
0
100
AcDbLine
 62
2
  6
CONTINUOUS
 10
8.5
 20
0.887
 11
8.5
 21
0.637
  0
LINE
  5
46E
100
AcDbEntity
  8
0
100
AcDbLine
 62
2
  6
CONTINUOUS
 10
8.5
 20
10.112
 11
8.5
 21
10.362
  0
LINE
  5
46F
100
AcDbEntity
  8
0
100
AcDbLine
 62
2
  6
CONTINUOUS
 10
0.62
 20
5.4995
 11
0.37
 21
5.4995
  0
LINE
  5
470
100
AcDbEntity
  8
0
100
AcDbLine
 62
2
  6
CONTINUOUS
 10
16.38
 20
5.4995
 11
16.63
 21
5.4995
  0
LINE
  5
471
100
AcDbEntity
  8
0
100
AcDbLine
 62
2
  6
CONTINUOUS
 10
10.03
 20
2.807
 11
10.03
 21
0.887
  0
LINE
  5
472
100
AcDbEntity
  8
0
100
AcDbLine
 62
2
  6
CONTINUOUS
 10
10.47
 20
0.887
 11
10.47
 21
0.637
  0
LINE
  5
473
100
AcDbEntity
  8
0
100
AcDbLine
 62
2
  6
CONTINUOUS
 10
10.47
 20
10.112
 11
10.47
 21
10.362
  0
LINE
  5
474
100
AcDbEntity
  8
0
100
AcDbLine
 62
7
  6
CONTINUOUS
 10
10.5342808475
 20
1.143294839
 11
10.5342808475
 21
0.921203839
  0
LINE
  5
475
100
AcDbEntity
  8
0
100
AcDbLine
 62
7
  6
CONTINUOUS
 10
10.5342808475
 20
1.193294839
 11
10.5342808475
 21
1.293294839
  0
LINE
  5
476
100
AcDbEntity
  8
0
100
AcDbLine
 62
7
  6
CONTINUOUS
 10
10.5342808475
 20
1.343294839
 11
10.5342808475
 21
1.565385839
  0
LINE
  5
477
100
AcDbEntity
  8
0
100
AcDbLine
 62
2
  6
CONTINUOUS
 10
8.5
 20
0.887
 11
8.413397
 21
0.737
  0
LINE
  5
478
100
AcDbEntity
  8
0
100
AcDbLine
 62
2
  6
CONTINUOUS
 10
0.62
 20
7.7995
 11
0.37
 21
7.7995
  0
LINE
  5
479
100
AcDbEntity
  8
0
100
AcDbLine
 62
2
  6
CONTINUOUS
 10
16.38
 20
7.7995
 11
16.63
 21
7.7995
  0
LINE
  5
47A
100
AcDbEntity
  8
0
100
AcDbLine
 62
2
  6
CONTINUOUS
 10
8.413397
 20
10.262
 11
8.5
 21
10.112
  0
LINE
  5
47B
100
AcDbEntity
  8
0
100
AcDbLine
 62
7
  6
CONTINUOUS
 10
11.1389508475
 20
1.060596839
 11
11.1389508475
 21
1.425992839
  0
LINE
  5
47C
100
AcDbEntity
  8
0
100
AcDbLine
 62
7
  6
CONTINUOUS
 10
11.7453418475
 20
1.495385839
 11
11.7453418475
 21
0.991203839
  0
LINE
  5
47D
100
AcDbEntity
  8
0
100
AcDbLine
 62
1
  6
CONTINUOUS
 10
12.03
 20
2.807
 11
12.03
 21
0.887
  0
LINE
  5
47E
100
AcDbEntity
  8
0
100
AcDbLine
 62
2
  6
CONTINUOUS
 10
12.44
 20
0.887
 11
12.44
 21
0.637
  0
LINE
  5
47F
100
AcDbEntity
  8
0
100
AcDbLine
 62
2
  6
CONTINUOUS
 10
12.44
 20
10.112
 11
12.44
 21
10.362
  0
LINE
  5
480
100
AcDbEntity
  8
0
100
AcDbLine
 62
2
  6
CONTINUOUS
 10
16.53
 20
5.586103
 11
16.38
 21
5.4995
  0
LINE
  5
481
100
AcDbEntity
  8
0
100
AcDbLine
 62
2
  6
CONTINUOUS
 10
16.38
 20
5.4995
 11
16.53
 21
5.412897
  0
LINE
  5
482
100
AcDbEntity
  8
0
100
AcDbLine
 62
2
  6
CONTINUOUS
 10
12.83
 20
1.507
 11
12.83
 21
1.137
  0
LINE
  5
483
100
AcDbEntity
  8
0
100
AcDbLine
 62
2
  6
CONTINUOUS
 10
16.38
 20
10.112
 11
0.62
 21
10.112
  0
LINE
  5
484
100
AcDbEntity
  8
0
100
AcDbLine
 62
2
  6
CONTINUOUS
 10
8.586603
 20
10.262
 11
8.413397
 21
10.262
  0
LINE
  5
485
100
AcDbEntity
  8
0
100
AcDbLine
 62
2
  6
CONTINUOUS
 10
14.205
 20
1.137
 11
14.205
 21
0.887
  0
LINE
  5
486
100
AcDbEntity
  8
0
100
AcDbLine
 62
2
  6
CONTINUOUS
 10
14.41
 20
0.887
 11
14.41
 21
0.637
  0
LINE
  5
487
100
AcDbEntity
  8
0
100
AcDbLine
 62
2
  6
CONTINUOUS
 10
14.41
 20
10.112
 11
14.41
 21
10.362
  0
LINE
  5
488
100
AcDbEntity
  8
0
100
AcDbLine
 62
2
  6
CONTINUOUS
 10
15.58
 20
1.507
 11
15.58
 21
1.137
  0
LINE
  5
489
100
AcDbEntity
  8
0
100
AcDbLine
 62
2
  6
CONTINUOUS
 10
16.38
 20
0.887
 11
16.38
 21
10.112
  0
LINE
  5
48A
100
AcDbEntity
  8
0
100
AcDbLine
 62
2
  6
CONTINUOUS
 10
16.53
 20
5.412897
 11
16.53
 21
5.586103
  0
LINE
  5
48B
100
AcDbEntity
  8
0
100
AcDbLine
 62
7
  6
CONTINUOUS
 10
4.5505322179
 20
4.6656581612
 11
4.5505322179
 21
6.4673117755
  0
LINE
  5
48C
100
AcDbEntity
  8
0
100
AcDbLine
 62
9
  6
CONTINUOUS
 10
4.6278981701
 20
4.5869299962
 11
4.6278981701
 21
6.5460399405
  0
LINE
  5
48D
100
AcDbEntity
  8
0
100
AcDbLine
 62
7
  6
CONTINUOUS
 10
4.8969889108
 20
4.5822329999
 11
4.8969889108
 21
6.5507369369
  0
LINE
  5
48E
100
AcDbEntity
  8
AXIS
100
AcDbLine
 62
7
  6
CONTINUOUS
 10
4.8969889108
 20
4.5822329999
 11
4.8969889108
 21
6.5507369369
  0
LINE
  5
48F
100
AcDbEntity
  8
AXIS
100
AcDbLine
 62
7
  6
CONTINUOUS
 10
8.04659521
 20
4.5822329999
 11
4.8969889108
 21
4.5822329999
  0
LINE
  5
490
100
AcDbEntity
  8
02___PRT_ALL_AXES
100
AcDbLine
 62
7
  6
CONTINUOUS
 10
8.04659521
 20
4.5822329999
 11
8.3576188321
 21
4.5822329999
  0
LINE
  5
491
100
AcDbEntity
  8
0
100
AcDbLine
 62
7
  6
CONTINUOUS
 10
4.8969889108
 20
4.5822329999
 11
4.6278981701
 21
4.5869299962
  0
LINE
  5
492
100
AcDbEntity
  8
02___PRT_ALL_AXES
100
AcDbLine
 62
7
  6
CONTINUOUS
 10
8.4560440289
 20
4.6806581967
 11
8.8891148951
 21
4.6806581967
  0
LINE
  5
493
100
AcDbEntity
  8
0
100
AcDbLine
 62
7
  6
CONTINUOUS
 10
9.0859652888
 20
5.0251463857
 11
9.128935807
 21
5.0251463857
  0
LINE
  5
494
100
AcDbEntity
  8
02___PRT_ALL_AXES
100
AcDbLine
 62
7
  6
CONTINUOUS
 10
9.128935807
 20
5.0251463857
 11
9.7087283458
 21
5.0251463857
  0
LINE
  5
495
100
AcDbEntity
  8
0
100
AcDbLine
 62
7
  6
CONTINUOUS
 10
9.7087283458
 20
5.0251463857
 11
9.7552566273
 21
5.0251463857
  0
LINE
  5
496
100
AcDbEntity
  8
AXIS
100
AcDbLine
 62
7
  6
CONTINUOUS
 10
9.8261227691
 20
5.3302644959
 11
9.828091273
 21
5.3302644959
  0
LINE
  5
497
100
AcDbEntity
  8
AXIS
100
AcDbLine
 62
7
  6
CONTINUOUS
 10
9.8654928478
 20
5.3302644959
 11
9.8674613518
 21
5.3302644959
  0
LINE
  5
498
100
AcDbEntity
  8
AXIS
100
AcDbLine
 62
7
  6
CONTINUOUS
 10
9.9048629266
 20
5.3302644959
 11
9.9068314305
 21
5.3302644959
  0
LINE
  5
499
100
AcDbEntity
  8
AXIS
100
AcDbLine
 62
7
  6
CONTINUOUS
 10
9.9442330053
 20
5.3302644959
 11
9.9462015092
 21
5.3302644959
  0
LINE
  5
49A
100
AcDbEntity
  8
AXIS
100
AcDbLine
 62
7
  6
CONTINUOUS
 10
9.983603084
 20
5.3302644959
 11
9.985571588
 21
5.3302644959
  0
LINE
  5
49B
100
AcDbEntity
  8
AXIS
100
AcDbLine
 62
7
  6
CONTINUOUS
 10
10.0229731628
 20
5.3302644959
 11
10.0249416667
 21
5.3302644959
  0
LINE
  5
49C
100
AcDbEntity
  8
0
100
AcDbLine
 62
7
  6
CONTINUOUS
 10
10.0820282809
 20
5.3627448109
 11
10.1213983596
 21
5.3627448109
  0
LINE
  5
49D
100
AcDbEntity
  8
0
100
AcDbLine
 62
7
  6
CONTINUOUS
 10
10.0820282809
 20
5.7702251258
 11
10.1213983596
 21
5.7702251258
  0
LINE
  5
49E
100
AcDbEntity
  8
AXIS
100
AcDbLine
 62
7
  6
CONTINUOUS
 10
9.8064377297
 20
5.8027054408
 11
9.8084062336
 21
5.8027054408
  0
LINE
  5
49F
100
AcDbEntity
  8
AXIS
100
AcDbLine
 62
7
  6
CONTINUOUS
 10
9.8458078085
 20
5.8027054408
 11
9.8477763124
 21
5.8027054408
  0
LINE
  5
4A0
100
AcDbEntity
  8
AXIS
100
AcDbLine
 62
7
  6
CONTINUOUS
 10
9.8851778872
 20
5.8027054408
 11
9.8871463911
 21
5.8027054408
  0
LINE
  5
4A1
100
AcDbEntity
  8
AXIS
100
AcDbLine
 62
7
  6
CONTINUOUS
 10
9.9245479659
 20
5.8027054408
 11
9.9265164699
 21
5.8027054408
  0
LINE
  5
4A2
100
AcDbEntity
  8
AXIS
100
AcDbLine
 62
7
  6
CONTINUOUS
 10
9.9639180447
 20
5.8027054408
 11
9.9658865486
 21
5.8027054408
  0
LINE
  5
4A3
100
AcDbEntity
  8
AXIS
100
AcDbLine
 62
7
  6
CONTINUOUS
 10
10.0032881234
 20
5.8027054408
 11
10.0052566273
 21
5.8027054408
  0
LINE
  5
4A4
100
AcDbEntity
  8
AXIS
100
AcDbLine
 62
7
  6
CONTINUOUS
 10
10.0426582022
 20
5.8027054408
 11
10.0446267061
 21
5.8027054408
  0
LINE
  5
4A5
100
AcDbEntity
  8
0
100
AcDbLine
 62
7
  6
CONTINUOUS
 10
9.0859652888
 20
6.107823551
 11
9.1029660113
 21
6.107823551
  0
LINE
  5
4A6
100
AcDbEntity
  8
02___PRT_ALL_AXES
100
AcDbLine
 62
7
  6
CONTINUOUS
 10
9.1029660113
 20
6.107823551
 11
9.68275855
 21
6.107823551
  0
LINE
  5
4A7
100
AcDbEntity
  8
0
100
AcDbLine
 62
7
  6
CONTINUOUS
 10
9.68275855
 20
6.107823551
 11
9.7552566273
 21
6.107823551
  0
LINE
  5
4A8
100
AcDbEntity
  8
02___PRT_ALL_AXES
100
AcDbLine
 62
7
  6
CONTINUOUS
 10
8.04659521
 20
6.5507369369
 11
8.04659521
 21
4.5822329999
  0
LINE
  5
4A9
100
AcDbEntity
  8
AXIS
100
AcDbLine
 62
7
  6
CONTINUOUS
 10
8.04659521
 20
4.5822329999
 11
8.04659521
 21
6.5507369369
  0
LINE
  5
4AA
100
AcDbEntity
  8
0
100
AcDbLine
 62
7
  6
CONTINUOUS
 10
10.0748230635
 20
5.7902256909
 11
10.0746307083
 21
5.7901555143
  0
LINE
  5
4AB
100
AcDbEntity
  8
02___PRT_ALL_AXES
100
AcDbLine
 62
7
  6
CONTINUOUS
 10
8.4560440289
 20
6.45231174
 11
8.8891148951
 21
6.45231174
  0
LINE
  5
4AC
100
AcDbEntity
  8
AXIS
100
AcDbLine
 62
7
  6
CONTINUOUS
 10
8.04659521
 20
6.5507369369
 11
4.8969889108
 21
6.5507369369
  0
LINE
  5
4AD
100
AcDbEntity
  8
02___PRT_ALL_AXES
100
AcDbLine
 62
7
  6
CONTINUOUS
 10
8.04659521
 20
6.5507369369
 11
8.3576188321
 21
6.5507369369
  0
LINE
  5
4AE
100
AcDbEntity
  8
02___PRT_ALL_AXES
100
AcDbLine
 62
9
  6
CONTINUOUS
 10
8.3576188321
 20
6.5507369369
 11
8.3576188321
 21
4.5822329999
  0
LINE
  5
4AF
100
AcDbEntity
  8
02___PRT_ALL_AXES
100
AcDbLine
 62
7
  6
CONTINUOUS
 10
8.3969889108
 20
6.5113668581
 11
8.3969889108
 21
4.6216030786
  0
LINE
  5
4B0
100
AcDbEntity
  8
02___PRT_ALL_AXES
100
AcDbLine
 62
9
  6
CONTINUOUS
 10
8.4560440289
 20
6.45231174
 11
8.4560440289
 21
4.6806581967
  0
LINE
  5
4B1
100
AcDbEntity
  8
0
100
AcDbLine
 62
7
  6
CONTINUOUS
 10
4.8969889108
 20
6.5507369369
 11
4.6278981701
 21
6.5460399405
  0
LINE
  5
4B2
100
AcDbEntity
  8
02___PRT_ALL_AXES
100
AcDbLine
 62
9
  6
CONTINUOUS
 10
8.8891148951
 20
6.45231174
 11
8.8891148951
 21
4.6806581967
  0
LINE
  5
4B3
100
AcDbEntity
  8
0
100
AcDbLine
 62
7
  6
CONTINUOUS
 10
9.8061500496
 20
5.8024565217
 11
9.8064377297
 21
5.8027054408
  0
LINE
  5
4B4
100
AcDbEntity
  8
0
100
AcDbLine
 62
7
  6
CONTINUOUS
 10
9.8455201283
 20
5.8024565217
 11
9.8458078085
 21
5.8027054408
  0
LINE
  5
4B5
100
AcDbEntity
  8
0
100
AcDbLine
 62
7
  6
CONTINUOUS
 10
9.884890207
 20
5.8024565217
 11
9.8851778872
 21
5.8027054408
  0
LINE
  5
4B6
100
AcDbEntity
  8
0
100
AcDbLine
 62
7
  6
CONTINUOUS
 10
9.9242602858
 20
5.8024565217
 11
9.9245479659
 21
5.8027054408
  0
LINE
  5
4B7
100
AcDbEntity
  8
0
100
AcDbLine
 62
7
  6
CONTINUOUS
 10
9.9636303645
 20
5.8024565217
 11
9.9639180447
 21
5.8027054408
  0
LINE
  5
4B8
100
AcDbEntity
  8
0
100
AcDbLine
 62
7
  6
CONTINUOUS
 10
10.0030004433
 20
5.8024565217
 11
10.0032881234
 21
5.8027054408
  0
LINE
  5
4B9
100
AcDbEntity
  8
0
100
AcDbLine
 62
7
  6
CONTINUOUS
 10
10.042370522
 20
5.8024565217
 11
10.0426582022
 21
5.8027054408
  0
LINE
  5
4BA
100
AcDbEntity
  8
0
100
AcDbLine
 62
7
  6
CONTINUOUS
 10
9.8258350889
 20
5.330513415
 11
9.8261227691
 21
5.3302644959
  0
LINE
  5
4BB
100
AcDbEntity
  8
0
100
AcDbLine
 62
7
  6
CONTINUOUS
 10
9.8652051677
 20
5.330513415
 11
9.8654928478
 21
5.3302644959
  0
LINE
  5
4BC
100
AcDbEntity
  8
0
100
AcDbLine
 62
7
  6
CONTINUOUS
 10
9.9045752464
 20
5.330513415
 11
9.9048629266
 21
5.3302644959
  0
LINE
  5
4BD
100
AcDbEntity
  8
0
100
AcDbLine
 62
7
  6
CONTINUOUS
 10
9.9439453251
 20
5.330513415
 11
9.9442330053
 21
5.3302644959
  0
LINE
  5
4BE
100
AcDbEntity
  8
0
100
AcDbLine
 62
7
  6
CONTINUOUS
 10
9.9833154039
 20
5.330513415
 11
9.983603084
 21
5.3302644959
  0
LINE
  5
4BF
100
AcDbEntity
  8
0
100
AcDbLine
 62
7
  6
CONTINUOUS
 10
10.0226854826
 20
5.330513415
 11
10.0229731628
 21
5.3302644959
  0
LWPOLYLINE
  5
4C0
100
AcDbEntity
  8
02___PRT_ALL_AXES
100
AcDbPolyline
 62
7
  6
CONTINUOUS
 90
8
 70
0
 10
9.1029660113
 20
6.107823551
 10
9.1045118971
 20
6.0835390699
 10
9.1060518406
 20
6.0454712545
 10
9.1075711106
 20
5.9953366927
 10
9.1090955295
 20
5.9337961807
 10
9.1106229902
 20
5.8624639106
 10
9.1121366505
 20
5.7840755302
 10
9.1136501869
 20
5.7000629826
  0
LWPOLYLINE
  5
4C1
100
AcDbEntity
  8
02___PRT_ALL_AXES
100
AcDbPolyline
 62
7
  6
CONTINUOUS
 90
7
 70
0
 10
9.147455071
 20
5.0251463857
 10
9.1459821551
 20
5.0670494574
 10
9.1445092393
 20
5.1211927981
 10
9.1430363235
 20
5.1862494514
 10
9.1415634076
 20
5.2606249954
 10
9.1400904918
 20
5.342496619
 10
9.1386175759
 20
5.4298577953
  0
LWPOLYLINE
  5
4C2
100
AcDbEntity
  8
02___PRT_ALL_AXES
100
AcDbPolyline
 62
7
  6
CONTINUOUS
 90
7
 70
0
 10
9.1548369608
 20
5.0251463857
 10
9.1533640449
 20
5.0670494574
 10
9.1518911291
 20
5.1211927981
 10
9.1504182132
 20
5.1862494514
 10
9.1489452974
 20
5.2606249954
 10
9.1474723815
 20
5.342496619
 10
9.1459994657
 20
5.4298577953
  0
LWPOLYLINE
  5
4C3
100
AcDbEntity
  8
02___PRT_ALL_AXES
100
AcDbPolyline
 62
7
  6
CONTINUOUS
 90
8
 70
0
 10
9.1182686465
 20
5.4319391068
 10
9.1197836196
 20
5.3479006427
 10
9.1213003972
 20
5.2694397704
 10
9.1228142336
 20
5.1988265164
 10
9.1243313075
 20
5.1376111509
 10
9.1258499135
 20
5.0875005441
 10
9.12738994
 20
5.0494304851
 10
9.128935807
 20
5.0251463857
  0
LINE
  5
4C4
100
AcDbEntity
  8
02___PRT_ALL_AXES
100
AcDbLine
 62
7
  6
CONTINUOUS
 10
9.1136501869
 20
5.7000629826
 11
9.1182686465
 21
5.4319391068
  0
LINE
  5
4C5
100
AcDbEntity
  8
02___PRT_ALL_AXES
100
AcDbLine
 62
7
  6
CONTINUOUS
 10
9.04659521
 20
6.294831425
 11
9.04659521
 21
4.8381385117
  0
LINE
  5
4C6
100
AcDbEntity
  8
0
100
AcDbLine
 62
9
  6
CONTINUOUS
 10
9.0859652888
 20
6.107823551
 11
9.0859652888
 21
5.0251463857
  0
LINE
  5
4C7
100
AcDbEntity
  8
0
100
AcDbLine
 62
7
  6
CONTINUOUS
 10
10.0620555614
 20
5.330513415
 11
10.0623432415
 21
5.3302644959
  0
LINE
  5
4C8
100
AcDbEntity
  8
0
100
AcDbLine
 62
7
  6
CONTINUOUS
 10
9.8086939138
 20
5.8024565216
 11
9.8084062336
 21
5.8027054408
  0
LWPOLYLINE
  5
4C9
100
AcDbEntity
  8
02___PRT_ALL_AXES
100
AcDbPolyline
 62
7
  6
CONTINUOUS
 90
7
 70
0
 10
9.3543976371
 20
5.0251463857
 10
9.3530393648
 20
5.0457228635
 10
9.3516839528
 20
5.0770789608
 10
9.3503432651
 20
5.1180925896
 10
9.3490102625
 20
5.167902769
 10
9.3476689096
 20
5.2261017782
 10
9.3463339991
 20
5.2908944172
  0
LWPOLYLINE
  5
4CA
100
AcDbEntity
  8
02___PRT_ALL_AXES
100
AcDbPolyline
 62
7
  6
CONTINUOUS
 90
7
 70
0
 10
9.1620211294
 20
6.107823551
 10
9.1635367702
 20
6.0841508017
 10
9.1650508207
 20
6.0470915694
 10
9.1665657703
 20
5.9975550321
 10
9.1680977381
 20
5.9361037379
 10
9.1696435019
 20
5.8641738998
 10
9.171181722
 20
5.7846167184
  0
LWPOLYLINE
  5
4CB
100
AcDbEntity
  8
02___PRT_ALL_AXES
100
AcDbPolyline
 62
7
  6
CONTINUOUS
 90
8
 70
0
 10
9.295342519
 20
5.0251463857
 10
9.2938294216
 20
5.048767938
 10
9.2923111369
 20
5.0859269166
 10
9.29079562
 20
5.1354974394
 10
9.2892639808
 20
5.1969501449
 10
9.2877184448
 20
5.2688800273
 10
9.2861803964
 20
5.3484356197
 10
9.2846655991
 20
5.4324941859
  0
LWPOLYLINE
  5
4CC
100
AcDbEntity
  8
02___PRT_ALL_AXES
100
AcDbPolyline
 62
7
  6
CONTINUOUS
 90
10
 70
0
 10
9.2801313656
 20
6.107823551
 10
9.2816424562
 20
6.0842423698
 10
9.2831481203
 20
6.0474625342
 10
9.2846340475
 20
5.9990841151
 10
9.2861185895
 20
5.9399754583
 10
9.2876034508
 20
5.8715528544
 10
9.2890818426
 20
5.7958771015
 10
9.2905616257
 20
5.7144589694
 10
9.2920591348
 20
5.6283476092
 10
9.2950758098
 20
5.4524018481
  0
LWPOLYLINE
  5
4CD
100
AcDbEntity
  8
02___PRT_ALL_AXES
100
AcDbPolyline
 62
7
  6
CONTINUOUS
 90
7
 70
0
 10
9.1772322828
 20
5.0251463857
 10
9.1756864158
 20
5.0494304851
 10
9.1741463893
 20
5.0875005441
 10
9.1726277832
 20
5.1376111509
 10
9.1711107093
 20
5.1988265164
 10
9.169596873
 20
5.2694397704
 10
9.1680800954
 20
5.3479006427
  0
LWPOLYLINE
  5
4CE
100
AcDbEntity
  8
02___PRT_ALL_AXES
100
AcDbPolyline
 62
7
  6
CONTINUOUS
 90
8
 70
0
 10
9.2362874009
 20
5.0251463857
 10
9.2347433329
 20
5.0493939486
 10
9.2332057947
 20
5.0873761942
 10
9.2316879582
 20
5.1374249379
 10
9.2301553154
 20
5.1992860237
 10
9.2286094829
 20
5.2715426291
 10
9.227071773
 20
5.3513208811
 10
9.2255552887
 20
5.4356360294
  0
LWPOLYLINE
  5
4CF
100
AcDbEntity
  8
02___PRT_ALL_AXES
100
AcDbPolyline
 62
7
  6
CONTINUOUS
 90
8
 70
0
 10
9.2210762475
 20
6.107823551
 10
9.22262148
 20
6.0835523388
 10
9.2241607181
 20
6.0455106746
 10
9.2256786558
 20
5.9954358099
 10
9.2272031518
 20
5.933910456
 10
9.228743811
 20
5.861940095
 10
9.2302788116
 20
5.7823541664
 10
9.2317951196
 20
5.6980880206
  0
LWPOLYLINE
  5
4D0
100
AcDbEntity
  8
02___PRT_ALL_AXES
100
AcDbPolyline
 62
7
  6
CONTINUOUS
 90
7
 70
0
 10
9.2065101891
 20
5.0251463857
 10
9.2050372733
 20
5.0670494574
 10
9.2035643574
 20
5.1211927981
 10
9.2020914416
 20
5.1862494514
 10
9.2006185257
 20
5.2606249954
 10
9.1991456099
 20
5.342496619
 10
9.197672694
 20
5.4298577953
  0
LWPOLYLINE
  5
4D1
100
AcDbEntity
  8
02___PRT_ALL_AXES
100
AcDbPolyline
 62
7
  6
CONTINUOUS
 90
7
 70
0
 10
9.2138920789
 20
5.0251463857
 10
9.212419163
 20
5.0670494574
 10
9.2109462472
 20
5.1211927981
 10
9.2094733313
 20
5.1862494514
 10
9.2080004155
 20
5.2606249954
 10
9.2065274996
 20
5.342496619
 10
9.2050545838
 20
5.4298577953
  0
LWPOLYLINE
  5
4D2
100
AcDbEntity
  8
02___PRT_ALL_AXES
100
AcDbPolyline
 62
7
  6
CONTINUOUS
 90
7
 70
0
 10
9.2655653072
 20
5.0251463857
 10
9.2640923914
 20
5.0670494574
 10
9.2626194755
 20
5.1211927981
 10
9.2611465597
 20
5.1862494514
 10
9.2596736438
 20
5.2606249954
 10
9.258200728
 20
5.342496619
 10
9.2567278121
 20
5.4298577953
  0
LWPOLYLINE
  5
4D3
100
AcDbEntity
  8
02___PRT_ALL_AXES
100
AcDbPolyline
 62
7
  6
CONTINUOUS
 90
7
 70
0
 10
9.272947197
 20
5.0251463857
 10
9.2714742811
 20
5.0670494574
 10
9.2700013653
 20
5.1211927981
 10
9.2685284494
 20
5.1862494514
 10
9.2670555336
 20
5.2606249954
 10
9.2655826177
 20
5.342496619
 10
9.2641097019
 20
5.4298577953
  0
LWPOLYLINE
  5
4D4
100
AcDbEntity
  8
02___PRT_ALL_AXES
100
AcDbPolyline
 62
7
  6
CONTINUOUS
 90
5
 70
0
 10
9.3246204253
 20
5.0251463857
 10
9.3230890231
 20
5.068973843
 10
9.3215576208
 20
5.1259797709
 10
9.3200262186
 20
5.194654151
 10
9.3184948163
 20
5.2731778817
  0
LWPOLYLINE
  5
4D5
100
AcDbEntity
  8
02___PRT_ALL_AXES
100
AcDbPolyline
 62
7
  6
CONTINUOUS
 90
5
 70
0
 10
9.3320023151
 20
5.0251463857
 10
9.3304709128
 20
5.068973843
 10
9.3289395106
 20
5.1259797709
 10
9.3274081083
 20
5.194654151
 10
9.3258767061
 20
5.2731778817
  0
LWPOLYLINE
  5
4D6
100
AcDbEntity
  8
02___PRT_ALL_AXES
100
AcDbPolyline
 62
7
  6
CONTINUOUS
 90
7
 70
0
 10
9.2980375233
 20
5.2908944172
 10
9.2993724338
 20
5.2261017782
 10
9.3007137868
 20
5.167902769
 10
9.3020467893
 20
5.1180925896
 10
9.303387477
 20
5.0770789608
 10
9.3047428891
 20
5.0457228635
 10
9.3061011614
 20
5.0251463857
  0
LINE
  5
4D7
100
AcDbEntity
  8
02___PRT_ALL_AXES
100
AcDbLine
 62
7
  6
CONTINUOUS
 10
9.1680800954
 20
5.3479006427
 11
9.1665651222
 21
5.4319391068
  0
LWPOLYLINE
  5
4D8
100
AcDbEntity
  8
02___PRT_ALL_AXES
100
AcDbPolyline
 62
7
  6
CONTINUOUS
 90
8
 70
0
 10
9.1619466626
 20
5.7000629826
 10
9.1604331263
 20
5.7840755302
 10
9.1589194659
 20
5.8624639106
 10
9.1573920052
 20
5.9337961807
 10
9.1558675864
 20
5.9953366927
 10
9.1543483164
 20
6.0454712545
 10
9.1528083728
 20
6.0835390699
 10
9.151262487
 20
6.107823551
  0
LWPOLYLINE
  5
4D9
100
AcDbEntity
  8
02___PRT_ALL_AXES
100
AcDbPolyline
 62
7
  6
CONTINUOUS
 90
8
 70
0
 10
9.1772588129
 20
5.4356360294
 10
9.1787752972
 20
5.3513208811
 10
9.1803130072
 20
5.2715426291
 10
9.1818588396
 20
5.1992860237
 10
9.1833914824
 20
5.1374249379
 10
9.1849093189
 20
5.0873761942
 10
9.1864468572
 20
5.0493939486
 10
9.1879909251
 20
5.0251463857
  0
LINE
  5
4DA
100
AcDbEntity
  8
02___PRT_ALL_AXES
100
AcDbLine
 62
7
  6
CONTINUOUS
 10
9.171181722
 20
5.7846167184
 11
9.1726968549
 21
5.7005436917
  0
LWPOLYLINE
  5
4DB
100
AcDbEntity
  8
02___PRT_ALL_AXES
100
AcDbPolyline
 62
7
  6
CONTINUOUS
 90
8
 70
0
 10
9.2209933307
 20
5.7005436917
 10
9.2194781978
 20
5.7846167184
 10
9.2179399776
 20
5.8641738998
 10
9.2163942139
 20
5.9361037379
 10
9.2148622461
 20
5.9975550321
 10
9.2133472965
 20
6.0470915694
 10
9.211833246
 20
6.0841508017
 10
9.2103176052
 20
6.107823551
  0
LWPOLYLINE
  5
4DC
100
AcDbEntity
  8
02___PRT_ALL_AXES
100
AcDbPolyline
 62
7
  6
CONTINUOUS
 90
8
 70
0
 10
9.2363691233
 20
5.4324941859
 10
9.2378839206
 20
5.3484356197
 10
9.2394219691
 20
5.2688800273
 10
9.240967505
 20
5.1969501449
 10
9.2424991442
 20
5.1354974394
 10
9.2440146612
 20
5.0859269166
 10
9.2455329458
 20
5.048767938
 10
9.2470460432
 20
5.0251463857
  0
LWPOLYLINE
  5
4DD
100
AcDbEntity
  8
02___PRT_ALL_AXES
100
AcDbPolyline
 62
7
  6
CONTINUOUS
 90
8
 70
0
 10
9.2800915954
 20
5.6980880206
 10
9.2785752874
 20
5.7823541664
 10
9.2770402868
 20
5.861940095
 10
9.2754996275
 20
5.933910456
 10
9.2739751316
 20
5.9954358099
 10
9.2724571938
 20
6.0455106746
 10
9.2709179558
 20
6.0835523388
 10
9.2693727233
 20
6.107823551
  0
LWPOLYLINE
  5
4DE
100
AcDbEntity
  8
02___PRT_ALL_AXES
100
AcDbPolyline
 62
7
  6
CONTINUOUS
 90
3
 70
0
 10
9.2950758098
 20
5.4524018481
 10
9.2965590575
 20
5.3690736405
 10
9.2980375233
 20
5.2908944172
  0
LWPOLYLINE
  5
4DF
100
AcDbEntity
  8
02___PRT_ALL_AXES
100
AcDbPolyline
 62
7
  6
CONTINUOUS
 90
3
 70
0
 10
9.3184948163
 20
5.2731778817
 10
9.3170431683
 20
5.3548210296
 10
9.3155915202
 20
5.4415032511
  0
LWPOLYLINE
  5
4E0
100
AcDbEntity
  8
02___PRT_ALL_AXES
100
AcDbPolyline
 62
7
  6
CONTINUOUS
 90
3
 70
0
 10
9.3258767061
 20
5.2731778817
 10
9.324425058
 20
5.3548210296
 10
9.32297341
 20
5.4415032511
  0
LINE
  5
4E1
100
AcDbEntity
  8
02___PRT_ALL_AXES
100
AcDbLine
 62
7
  6
CONTINUOUS
 10
9.1665651222
 20
5.4319391068
 11
9.1619466626
 21
5.7000629826
  0
LINE
  5
4E2
100
AcDbEntity
  8
02___PRT_ALL_AXES
100
AcDbLine
 62
7
  6
CONTINUOUS
 10
9.1726968549
 20
5.7005436917
 11
9.1772588129
 21
5.4356360294
  0
LINE
  5
4E3
100
AcDbEntity
  8
02___PRT_ALL_AXES
100
AcDbLine
 62
7
  6
CONTINUOUS
 10
9.2255552887
 20
5.4356360294
 11
9.2209933307
 21
5.7005436917
  0
LINE
  5
4E4
100
AcDbEntity
  8
02___PRT_ALL_AXES
100
AcDbLine
 62
7
  6
CONTINUOUS
 10
9.2317951196
 20
5.6980880206
 11
9.2363691233
 21
5.4324941859
  0
LINE
  5
4E5
100
AcDbEntity
  8
02___PRT_ALL_AXES
100
AcDbLine
 62
7
  6
CONTINUOUS
 10
9.2846655991
 20
5.4324941859
 11
9.2800915954
 21
5.6980880206
  0
LWPOLYLINE
  5
4E6
100
AcDbEntity
  8
02___PRT_ALL_AXES
100
AcDbPolyline
 62
7
  6
CONTINUOUS
 90
7
 70
0
 10
9.311236576
 20
5.7108445966
 10
9.309784928
 20
5.7965929094
 10
9.3083332799
 20
5.8768630529
 10
9.3068816318
 20
5.9497440395
 10
9.3054299838
 20
6.0135007949
 10
9.3039783357
 20
6.066615465
 10
9.3025266876
 20
6.107823551
  0
LWPOLYLINE
  5
4E7
100
AcDbEntity
  8
02___PRT_ALL_AXES
100
AcDbPolyline
 62
7
  6
CONTINUOUS
 90
7
 70
0
 10
9.3186184658
 20
5.7108445966
 10
9.3171668177
 20
5.7965929094
 10
9.3157151697
 20
5.8768630529
 10
9.3142635216
 20
5.9497440395
 10
9.3128118735
 20
6.0135007949
 10
9.3113602255
 20
6.066615465
 10
9.3099085774
 20
6.107823551
  0
LWPOLYLINE
  5
4E8
100
AcDbEntity
  8
02___PRT_ALL_AXES
100
AcDbPolyline
 62
7
  6
CONTINUOUS
 90
7
 70
0
 10
9.1341988284
 20
5.7031121414
 10
9.1327259125
 20
5.7904733178
 10
9.1312529967
 20
5.8723449413
 10
9.1297800808
 20
5.9467204853
 10
9.128307165
 20
6.0117771386
 10
9.1268342492
 20
6.0659204793
 10
9.1253613333
 20
6.107823551
  0
LWPOLYLINE
  5
4E9
100
AcDbEntity
  8
02___PRT_ALL_AXES
100
AcDbPolyline
 62
7
  6
CONTINUOUS
 90
7
 70
0
 10
9.1415807181
 20
5.7031121414
 10
9.1401078023
 20
5.7904733178
 10
9.1386348865
 20
5.8723449413
 10
9.1371619706
 20
5.9467204853
 10
9.1356890548
 20
6.0117771386
 10
9.1342161389
 20
6.0659204793
 10
9.1327432231
 20
6.107823551
  0
LWPOLYLINE
  5
4EA
100
AcDbEntity
  8
02___PRT_ALL_AXES
100
AcDbPolyline
 62
7
  6
CONTINUOUS
 90
7
 70
0
 10
9.1932539465
 20
5.7031121414
 10
9.1917810306
 20
5.7904733178
 10
9.1903081148
 20
5.8723449413
 10
9.188835199
 20
5.9467204853
 10
9.1873622831
 20
6.0117771386
 10
9.1858893673
 20
6.0659204793
 10
9.1844164514
 20
6.107823551
  0
LWPOLYLINE
  5
4EB
100
AcDbEntity
  8
02___PRT_ALL_AXES
100
AcDbPolyline
 62
7
  6
CONTINUOUS
 90
7
 70
0
 10
9.2006358363
 20
5.7031121414
 10
9.1991629204
 20
5.7904733178
 10
9.1976900046
 20
5.8723449413
 10
9.1962170887
 20
5.9467204853
 10
9.1947441729
 20
6.0117771386
 10
9.193271257
 20
6.0659204793
 10
9.1917983412
 20
6.107823551
  0
LWPOLYLINE
  5
4EC
100
AcDbEntity
  8
02___PRT_ALL_AXES
100
AcDbPolyline
 62
7
  6
CONTINUOUS
 90
7
 70
0
 10
9.2523090646
 20
5.7031121414
 10
9.2508361488
 20
5.7904733178
 10
9.2493632329
 20
5.8723449413
 10
9.2478903171
 20
5.9467204853
 10
9.2464174012
 20
6.0117771386
 10
9.2449444854
 20
6.0659204793
 10
9.2434715695
 20
6.107823551
  0
LWPOLYLINE
  5
4ED
100
AcDbEntity
  8
02___PRT_ALL_AXES
100
AcDbPolyline
 62
7
  6
CONTINUOUS
 90
7
 70
0
 10
9.2596909544
 20
5.7031121414
 10
9.2582180385
 20
5.7904733178
 10
9.2567451227
 20
5.8723449413
 10
9.2552722068
 20
5.9467204853
 10
9.253799291
 20
6.0117771386
 10
9.2523263751
 20
6.0659204793
 10
9.2508534593
 20
6.107823551
  0
LINE
  5
4EE
100
AcDbEntity
  8
02___PRT_ALL_AXES
100
AcDbLine
 62
7
  6
CONTINUOUS
 10
9.1386175759
 20
5.4298577953
 11
9.1341988284
 21
5.7031121414
  0
LINE
  5
4EF
100
AcDbEntity
  8
02___PRT_ALL_AXES
100
AcDbLine
 62
7
  6
CONTINUOUS
 10
9.1459994657
 20
5.4298577953
 11
9.1415807181
 21
5.7031121414
  0
LINE
  5
4F0
100
AcDbEntity
  8
02___PRT_ALL_AXES
100
AcDbLine
 62
7
  6
CONTINUOUS
 10
9.197672694
 20
5.4298577953
 11
9.1932539465
 21
5.7031121414
  0
LINE
  5
4F1
100
AcDbEntity
  8
02___PRT_ALL_AXES
100
AcDbLine
 62
7
  6
CONTINUOUS
 10
9.2050545838
 20
5.4298577953
 11
9.2006358363
 21
5.7031121414
  0
LINE
  5
4F2
100
AcDbEntity
  8
02___PRT_ALL_AXES
100
AcDbLine
 62
7
  6
CONTINUOUS
 10
9.2567278121
 20
5.4298577953
 11
9.2523090646
 21
5.7031121414
  0
LINE
  5
4F3
100
AcDbEntity
  8
02___PRT_ALL_AXES
100
AcDbLine
 62
7
  6
CONTINUOUS
 10
9.2641097019
 20
5.4298577953
 11
9.2596909544
 21
5.7031121414
  0
LINE
  5
4F4
100
AcDbEntity
  8
02___PRT_ALL_AXES
100
AcDbLine
 62
7
  6
CONTINUOUS
 10
9.3155915202
 20
5.4415032511
 11
9.311236576
 21
5.7108445966
  0
LINE
  5
4F5
100
AcDbEntity
  8
02___PRT_ALL_AXES
100
AcDbLine
 62
7
  6
CONTINUOUS
 10
9.32297341
 20
5.4415032511
 11
9.3186184658
 21
5.7108445966
  0
LINE
  5
4F6
100
AcDbEntity
  8
0
100
AcDbLine
 62
7
  6
CONTINUOUS
 10
9.8283789532
 20
5.3305134151
 11
9.828091273
 21
5.3302644959
  0
LINE
  5
4F7
100
AcDbEntity
  8
0
100
AcDbLine
 62
7
  6
CONTINUOUS
 10
9.8677490319
 20
5.3305134151
 11
9.8674613518
 21
5.3302644959
  0
LINE
  5
4F8
100
AcDbEntity
  8
0
100
AcDbLine
 62
7
  6
CONTINUOUS
 10
9.9071191107
 20
5.3305134151
 11
9.9068314305
 21
5.3302644959
  0
LINE
  5
4F9
100
AcDbEntity
  8
0
100
AcDbLine
 62
7
  6
CONTINUOUS
 10
9.9464891894
 20
5.3305134151
 11
9.9462015092
 21
5.3302644959
  0
LINE
  5
4FA
100
AcDbEntity
  8
0
100
AcDbLine
 62
7
  6
CONTINUOUS
 10
9.9858592682
 20
5.3305134151
 11
9.985571588
 21
5.3302644959
  0
LINE
  5
4FB
100
AcDbEntity
  8
0
100
AcDbLine
 62
7
  6
CONTINUOUS
 10
10.0252293469
 20
5.3305134151
 11
10.0249416667
 21
5.3302644959
  0
LINE
  5
4FC
100
AcDbEntity
  8
0
100
AcDbLine
 62
7
  6
CONTINUOUS
 10
9.8480639926
 20
5.8024565216
 11
9.8477763124
 21
5.8027054408
  0
LINE
  5
4FD
100
AcDbEntity
  8
0
100
AcDbLine
 62
7
  6
CONTINUOUS
 10
9.8874340713
 20
5.8024565216
 11
9.8871463911
 21
5.8027054408
  0
LINE
  5
4FE
100
AcDbEntity
  8
0
100
AcDbLine
 62
7
  6
CONTINUOUS
 10
9.9268041501
 20
5.8024565216
 11
9.9265164699
 21
5.8027054408
  0
LINE
  5
4FF
100
AcDbEntity
  8
0
100
AcDbLine
 62
7
  6
CONTINUOUS
 10
9.9661742288
 20
5.8024565216
 11
9.9658865486
 21
5.8027054408
  0
LINE
  5
500
100
AcDbEntity
  8
0
100
AcDbLine
 62
7
  6
CONTINUOUS
 10
10.0055443075
 20
5.8024565216
 11
10.0052566273
 21
5.8027054408
  0
LINE
  5
501
100
AcDbEntity
  8
0
100
AcDbLine
 62
7
  6
CONTINUOUS
 10
10.0449143863
 20
5.8024565216
 11
10.0446267061
 21
5.8027054408
  0
LWPOLYLINE
  5
502
100
AcDbEntity
  8
02___PRT_ALL_AXES
100
AcDbPolyline
 62
7
  6
CONTINUOUS
 90
8
 70
0
 10
9.3391864837
 20
6.107823551
 10
9.3407012106
 20
6.0841692032
 10
9.3422241012
 20
6.0468638343
 10
9.3437402644
 20
5.9972208191
 10
9.3452716524
 20
5.9357312014
 10
9.3468168547
 20
5.8637790317
 10
9.3483543798
 20
5.7842233215
 10
9.3498686532
 20
5.7001771159
  0
LWPOLYLINE
  5
503
100
AcDbEntity
  8
02___PRT_ALL_AXES
100
AcDbPolyline
 62
7
  6
CONTINUOUS
 90
8
 70
0
 10
9.4725078733
 20
5.0251463857
 10
9.4709853665
 20
5.0489575365
 10
9.4694720471
 20
5.0860546041
 10
9.4679565027
 20
5.1356609514
 10
9.4664225722
 20
5.1972445011
 10
9.4648749703
 20
5.2693159505
 10
9.463334963
 20
5.3490167797
 10
9.4618177873
 20
5.4332432542
  0
LWPOLYLINE
  5
504
100
AcDbEntity
  8
02___PRT_ALL_AXES
100
AcDbPolyline
 62
7
  6
CONTINUOUS
 90
8
 70
0
 10
9.5315629915
 20
5.0251463857
 10
9.530025407
 20
5.0492624314
 10
9.5284898641
 20
5.087130565
 10
9.526971264
 20
5.137141073
 10
9.5254441834
 20
5.1987057111
 10
9.5239101677
 20
5.2703005001
 10
9.5223895808
 20
5.3490437416
 10
9.5208773344
 20
5.4329912425
  0
LWPOLYLINE
  5
505
100
AcDbEntity
  8
02___PRT_ALL_AXES
100
AcDbPolyline
 62
7
  6
CONTINUOUS
 90
8
 70
0
 10
9.4134527552
 20
5.0251463857
 10
9.4119079009
 20
5.0494099168
 10
9.4103688874
 20
5.0874417779
 10
9.4088518765
 20
5.1374778051
 10
9.4073372927
 20
5.1985596042
 10
9.4058049774
 20
5.270050986
 10
9.4042740984
 20
5.3493264732
 10
9.4027582485
 20
5.4334948251
  0
LWPOLYLINE
  5
506
100
AcDbEntity
  8
02___PRT_ALL_AXES
100
AcDbPolyline
 62
7
  6
CONTINUOUS
 90
8
 70
0
 10
9.3982416018
 20
6.107823551
 10
9.3997808678
 20
6.0836734188
 10
9.4013104806
 20
6.0459623047
 10
9.402824235
 20
5.9961630987
 10
9.4043588569
 20
5.9343320545
 10
9.4059065151
 20
5.8620712879
 10
9.4074461084
 20
5.7822493512
 10
9.408964018
 20
5.6978861872
  0
LWPOLYLINE
  5
507
100
AcDbEntity
  8
02___PRT_ALL_AXES
100
AcDbPolyline
 62
7
  6
CONTINUOUS
 90
8
 70
0
 10
9.4572967199
 20
6.107823551
 10
9.4588422661
 20
6.0835459692
 10
9.4603818897
 20
6.0454903919
 10
9.4618997851
 20
5.995411619
 10
9.4634137862
 20
5.9343402981
 10
9.4649273936
 20
5.8637640839
 10
9.4664481371
 20
5.7851107607
 10
9.467963417
 20
5.7010571892
  0
LWPOLYLINE
  5
508
100
AcDbEntity
  8
02___PRT_ALL_AXES
100
AcDbPolyline
 62
7
  6
CONTINUOUS
 90
7
 70
0
 10
9.3836755434
 20
5.0251463857
 10
9.3822026276
 20
5.0670494574
 10
9.3807297117
 20
5.1211927981
 10
9.3792567959
 20
5.1862494514
 10
9.37778388
 20
5.2606249954
 10
9.3763109642
 20
5.342496619
 10
9.3748380484
 20
5.4298577953
  0
LWPOLYLINE
  5
509
100
AcDbEntity
  8
02___PRT_ALL_AXES
100
AcDbPolyline
 62
7
  6
CONTINUOUS
 90
7
 70
0
 10
9.3910574332
 20
5.0251463857
 10
9.3895845173
 20
5.0670494574
 10
9.3881116015
 20
5.1211927981
 10
9.3866386857
 20
5.1862494514
 10
9.3851657698
 20
5.2606249954
 10
9.383692854
 20
5.342496619
 10
9.3822199381
 20
5.4298577953
  0
LWPOLYLINE
  5
50A
100
AcDbEntity
  8
02___PRT_ALL_AXES
100
AcDbPolyline
 62
7
  6
CONTINUOUS
 90
7
 70
0
 10
9.4427306615
 20
5.0251463857
 10
9.4412577457
 20
5.0670494574
 10
9.4397848298
 20
5.1211927981
 10
9.438311914
 20
5.1862494514
 10
9.4368389982
 20
5.2606249954
 10
9.4353660823
 20
5.342496619
 10
9.4338931665
 20
5.4298577953
  0
LWPOLYLINE
  5
50B
100
AcDbEntity
  8
02___PRT_ALL_AXES
100
AcDbPolyline
 62
7
  6
CONTINUOUS
 90
7
 70
0
 10
9.4501125513
 20
5.0251463857
 10
9.4486396355
 20
5.0670494574
 10
9.4471667196
 20
5.1211927981
 10
9.4456938038
 20
5.1862494514
 10
9.4442208879
 20
5.2606249954
 10
9.4427479721
 20
5.342496619
 10
9.4412750562
 20
5.4298577953
  0
LWPOLYLINE
  5
50C
100
AcDbEntity
  8
02___PRT_ALL_AXES
100
AcDbPolyline
 62
7
  6
CONTINUOUS
 90
7
 70
0
 10
9.5017857796
 20
5.0251463857
 10
9.5003128638
 20
5.0670494574
 10
9.498839948
 20
5.1211927981
 10
9.4973670321
 20
5.1862494514
 10
9.4958941163
 20
5.2606249954
 10
9.4944212004
 20
5.342496619
 10
9.4929482846
 20
5.4298577953
  0
LWPOLYLINE
  5
50D
100
AcDbEntity
  8
02___PRT_ALL_AXES
100
AcDbPolyline
 62
7
  6
CONTINUOUS
 90
7
 70
0
 10
9.5091676694
 20
5.0251463857
 10
9.5076947536
 20
5.0670494574
 10
9.5062218377
 20
5.1211927981
 10
9.5047489219
 20
5.1862494514
 10
9.503276006
 20
5.2606249954
 10
9.5018030902
 20
5.342496619
 10
9.5003301743
 20
5.4298577953
  0
LWPOLYLINE
  5
50E
100
AcDbEntity
  8
02___PRT_ALL_AXES
100
AcDbPolyline
 62
7
  6
CONTINUOUS
 90
3
 70
0
 10
9.3463339991
 20
5.2908944172
 10
9.3448555332
 20
5.3690736405
 10
9.3433722856
 20
5.4524018481
  0
LWPOLYLINE
  5
50F
100
AcDbEntity
  8
02___PRT_ALL_AXES
100
AcDbPolyline
 62
7
  6
CONTINUOUS
 90
8
 70
0
 10
9.3544617727
 20
5.4334948251
 10
9.3559776226
 20
5.3493264732
 10
9.3575085016
 20
5.270050986
 10
9.3590408169
 20
5.1985596042
 10
9.3605554007
 20
5.1374778051
 10
9.3620724117
 20
5.0874417779
 10
9.3636114251
 20
5.0494099168
 10
9.3651562795
 20
5.0251463857
  0
LWPOLYLINE
  5
510
100
AcDbEntity
  8
02___PRT_ALL_AXES
100
AcDbPolyline
 62
7
  6
CONTINUOUS
 90
8
 70
0
 10
9.398165129
 20
5.7001771159
 10
9.3966508556
 20
5.7842233215
 10
9.3951133305
 20
5.8637790317
 10
9.3935681282
 20
5.9357312014
 10
9.3920367402
 20
5.9972208191
 10
9.390520577
 20
6.0468638343
 10
9.3889976864
 20
6.0841692032
 10
9.3874829595
 20
6.107823551
  0
LWPOLYLINE
  5
511
100
AcDbEntity
  8
02___PRT_ALL_AXES
100
AcDbPolyline
 62
7
  6
CONTINUOUS
 90
8
 70
0
 10
9.4135213116
 20
5.4332432542
 10
9.4150384872
 20
5.3490167797
 10
9.4165784946
 20
5.2693159505
 10
9.4181260965
 20
5.1972445011
 10
9.4196600269
 20
5.1356609514
 10
9.4211755714
 20
5.0860546041
 10
9.4226888907
 20
5.0489575365
 10
9.4242113976
 20
5.0251463857
  0
LWPOLYLINE
  5
512
100
AcDbEntity
  8
02___PRT_ALL_AXES
100
AcDbPolyline
 62
7
  6
CONTINUOUS
 90
8
 70
0
 10
9.4572604938
 20
5.6978861872
 10
9.4557425841
 20
5.7822493512
 10
9.4542029908
 20
5.8620712879
 10
9.4526553327
 20
5.9343320545
 10
9.4511207107
 20
5.9961630987
 10
9.4496069563
 20
6.0459623047
 10
9.4480773436
 20
6.0836734188
 10
9.4465380776
 20
6.107823551
  0
LWPOLYLINE
  5
513
100
AcDbEntity
  8
02___PRT_ALL_AXES
100
AcDbPolyline
 62
7
  6
CONTINUOUS
 90
8
 70
0
 10
9.4725808587
 20
5.4329912425
 10
9.474093105
 20
5.3490437416
 10
9.4756136919
 20
5.2703005001
 10
9.4771477076
 20
5.1987057111
 10
9.4786747882
 20
5.137141073
 10
9.4801933884
 20
5.087130565
 10
9.4817289312
 20
5.0492624314
 10
9.4832665157
 20
5.0251463857
  0
LWPOLYLINE
  5
514
100
AcDbEntity
  8
02___PRT_ALL_AXES
100
AcDbPolyline
 62
7
  6
CONTINUOUS
 90
8
 70
0
 10
9.5162598928
 20
5.7010571892
 10
9.5147446129
 20
5.7851107607
 10
9.5132238694
 20
5.8637640839
 10
9.511710262
 20
5.9343402981
 10
9.5101962609
 20
5.995411619
 10
9.5086783654
 20
6.0454903919
 10
9.5071387418
 20
6.0835459692
 10
9.5055931957
 20
6.107823551
  0
LWPOLYLINE
  5
515
100
AcDbEntity
  8
02___PRT_ALL_AXES
100
AcDbPolyline
 62
7
  6
CONTINUOUS
 90
10
 70
0
 10
9.3433722856
 20
5.4524018481
 10
9.3403556106
 20
5.6283476092
 10
9.3388581015
 20
5.7144589694
 10
9.3373783184
 20
5.7958771015
 10
9.3358999266
 20
5.8715528544
 10
9.3344150653
 20
5.9399754583
 10
9.3329305233
 20
5.9990841151
 10
9.331444596
 20
6.0474625342
 10
9.329938932
 20
6.0842423698
 10
9.3284278414
 20
6.107823551
  0
LINE
  5
516
100
AcDbEntity
  8
02___PRT_ALL_AXES
100
AcDbLine
 62
7
  6
CONTINUOUS
 10
9.3498686532
 20
5.7001771159
 11
9.3544617727
 21
5.4334948251
  0
LINE
  5
517
100
AcDbEntity
  8
02___PRT_ALL_AXES
100
AcDbLine
 62
7
  6
CONTINUOUS
 10
9.4027582485
 20
5.4334948251
 11
9.398165129
 21
5.7001771159
  0
LINE
  5
518
100
AcDbEntity
  8
02___PRT_ALL_AXES
100
AcDbLine
 62
7
  6
CONTINUOUS
 10
9.408964018
 20
5.6978861872
 11
9.4135213116
 21
5.4332432542
  0
LINE
  5
519
100
AcDbEntity
  8
02___PRT_ALL_AXES
100
AcDbLine
 62
7
  6
CONTINUOUS
 10
9.4618177873
 20
5.4332432542
 11
9.4572604938
 21
5.6978861872
  0
LINE
  5
51A
100
AcDbEntity
  8
02___PRT_ALL_AXES
100
AcDbLine
 62
7
  6
CONTINUOUS
 10
9.467963417
 20
5.7010571892
 11
9.4725808587
 21
5.4329912425
  0
LINE
  5
51B
100
AcDbEntity
  8
02___PRT_ALL_AXES
100
AcDbLine
 62
7
  6
CONTINUOUS
 10
9.5208773344
 20
5.4329912425
 11
9.5162598928
 21
5.7010571892
  0
LWPOLYLINE
  5
51C
100
AcDbEntity
  8
02___PRT_ALL_AXES
100
AcDbPolyline
 62
7
  6
CONTINUOUS
 90
7
 70
0
 10
9.3704193008
 20
5.7031121414
 10
9.368946385
 20
5.7904733178
 10
9.3674734691
 20
5.8723449413
 10
9.3660005533
 20
5.9467204853
 10
9.3645276374
 20
6.0117771386
 10
9.3630547216
 20
6.0659204793
 10
9.3615818058
 20
6.107823551
  0
LWPOLYLINE
  5
51D
100
AcDbEntity
  8
02___PRT_ALL_AXES
100
AcDbPolyline
 62
7
  6
CONTINUOUS
 90
7
 70
0
 10
9.3778011906
 20
5.7031121414
 10
9.3763282747
 20
5.7904733178
 10
9.3748553589
 20
5.8723449413
 10
9.3733824431
 20
5.9467204853
 10
9.3719095272
 20
6.0117771386
 10
9.3704366114
 20
6.0659204793
 10
9.3689636955
 20
6.107823551
  0
LWPOLYLINE
  5
51E
100
AcDbEntity
  8
02___PRT_ALL_AXES
100
AcDbPolyline
 62
7
  6
CONTINUOUS
 90
7
 70
0
 10
9.4294744189
 20
5.7031121414
 10
9.4280015031
 20
5.7904733178
 10
9.4265285872
 20
5.8723449413
 10
9.4250556714
 20
5.9467204853
 10
9.4235827556
 20
6.0117771386
 10
9.4221098397
 20
6.0659204793
 10
9.4206369239
 20
6.107823551
  0
LWPOLYLINE
  5
51F
100
AcDbEntity
  8
02___PRT_ALL_AXES
100
AcDbPolyline
 62
7
  6
CONTINUOUS
 90
7
 70
0
 10
9.4368563087
 20
5.7031121414
 10
9.4353833929
 20
5.7904733178
 10
9.433910477
 20
5.8723449413
 10
9.4324375612
 20
5.9467204853
 10
9.4309646453
 20
6.0117771386
 10
9.4294917295
 20
6.0659204793
 10
9.4280188136
 20
6.107823551
  0
LWPOLYLINE
  5
520
100
AcDbEntity
  8
02___PRT_ALL_AXES
100
AcDbPolyline
 62
7
  6
CONTINUOUS
 90
7
 70
0
 10
9.488529537
 20
5.7031121414
 10
9.4870566212
 20
5.7904733178
 10
9.4855837054
 20
5.8723449413
 10
9.4841107895
 20
5.9467204853
 10
9.4826378737
 20
6.0117771386
 10
9.4811649578
 20
6.0659204793
 10
9.479692042
 20
6.107823551
  0
LWPOLYLINE
  5
521
100
AcDbEntity
  8
02___PRT_ALL_AXES
100
AcDbPolyline
 62
7
  6
CONTINUOUS
 90
7
 70
0
 10
9.4959114268
 20
5.7031121414
 10
9.494438511
 20
5.7904733178
 10
9.4929655951
 20
5.8723449413
 10
9.4914926793
 20
5.9467204853
 10
9.4900197634
 20
6.0117771386
 10
9.4885468476
 20
6.0659204793
 10
9.4870739317
 20
6.107823551
  0
LINE
  5
522
100
AcDbEntity
  8
02___PRT_ALL_AXES
100
AcDbLine
 62
7
  6
CONTINUOUS
 10
9.3748380484
 20
5.4298577953
 11
9.3704193008
 21
5.7031121414
  0
LINE
  5
523
100
AcDbEntity
  8
02___PRT_ALL_AXES
100
AcDbLine
 62
7
  6
CONTINUOUS
 10
9.3822199381
 20
5.4298577953
 11
9.3778011906
 21
5.7031121414
  0
LINE
  5
524
100
AcDbEntity
  8
02___PRT_ALL_AXES
100
AcDbLine
 62
7
  6
CONTINUOUS
 10
9.4338931665
 20
5.4298577953
 11
9.4294744189
 21
5.7031121414
  0
LINE
  5
525
100
AcDbEntity
  8
02___PRT_ALL_AXES
100
AcDbLine
 62
7
  6
CONTINUOUS
 10
9.4412750562
 20
5.4298577953
 11
9.4368563087
 21
5.7031121414
  0
LINE
  5
526
100
AcDbEntity
  8
02___PRT_ALL_AXES
100
AcDbLine
 62
7
  6
CONTINUOUS
 10
9.4929482846
 20
5.4298577953
 11
9.488529537
 21
5.7031121414
  0
LINE
  5
527
100
AcDbEntity
  8
02___PRT_ALL_AXES
100
AcDbLine
 62
7
  6
CONTINUOUS
 10
9.5003301743
 20
5.4298577953
 11
9.4959114268
 21
5.7031121414
  0
LINE
  5
528
100
AcDbEntity
  8
0
100
AcDbLine
 62
7
  6
CONTINUOUS
 10
9.8061500496
 20
5.8024565217
 11
9.7946267061
 21
5.7825206181
  0
LINE
  5
529
100
AcDbEntity
  8
0
100
AcDbLine
 62
7
  6
CONTINUOUS
 10
9.8455201283
 20
5.8024565217
 11
9.8271070209
 21
5.770602947
  0
LINE
  5
52A
100
AcDbEntity
  8
0
100
AcDbLine
 62
7
  6
CONTINUOUS
 10
9.884890207
 20
5.8024565217
 11
9.8664770996
 21
5.770602947
  0
LINE
  5
52B
100
AcDbEntity
  8
0
100
AcDbLine
 62
7
  6
CONTINUOUS
 10
9.9242602858
 20
5.8024565217
 11
9.9058471784
 21
5.770602947
  0
LINE
  5
52C
100
AcDbEntity
  8
0
100
AcDbLine
 62
7
  6
CONTINUOUS
 10
9.9636303645
 20
5.8024565217
 11
9.9452172571
 21
5.770602947
  0
LINE
  5
52D
100
AcDbEntity
  8
0
100
AcDbLine
 62
7
  6
CONTINUOUS
 10
10.0030004433
 20
5.8024565217
 11
9.9845873358
 21
5.770602947
  0
LINE
  5
52E
100
AcDbEntity
  8
0
100
AcDbLine
 62
7
  6
CONTINUOUS
 10
10.0670006699
 20
5.3349218496
 11
10.0623432796
 21
5.3302644578
  0
LINE
  5
52F
100
AcDbEntity
  8
0
100
AcDbLine
 62
7
  6
CONTINUOUS
 10
10.0820282809
 20
5.7830204712
 11
10.0748230828
 21
5.7902256716
  0
LINE
  5
530
100
AcDbEntity
  8
0
100
AcDbLine
 62
7
  6
CONTINUOUS
 10
9.8070886663
 20
5.3629435287
 11
9.8258350889
 21
5.330513415
  0
LINE
  5
531
100
AcDbEntity
  8
0
100
AcDbLine
 62
7
  6
CONTINUOUS
 10
9.846458745
 20
5.3629435287
 11
9.8652051677
 21
5.330513415
  0
LINE
  5
532
100
AcDbEntity
  8
0
100
AcDbLine
 62
7
  6
CONTINUOUS
 10
9.8858288238
 20
5.3629435287
 11
9.9045752464
 21
5.330513415
  0
LINE
  5
533
100
AcDbEntity
  8
0
100
AcDbLine
 62
7
  6
CONTINUOUS
 10
9.9251989025
 20
5.3629435287
 11
9.9439453251
 21
5.330513415
  0
LINE
  5
534
100
AcDbEntity
  8
0
100
AcDbLine
 62
7
  6
CONTINUOUS
 10
9.9645689812
 20
5.3629435287
 11
9.9833154039
 21
5.330513415
  0
LWPOLYLINE
  5
535
100
AcDbEntity
  8
02___PRT_ALL_AXES
100
AcDbPolyline
 62
7
  6
CONTINUOUS
 90
8
 70
0
 10
9.7087283458
 20
5.0251463857
 10
9.7072090138
 20
5.0488935046
 10
9.7056832435
 20
5.0863214687
 10
9.7041673112
 20
5.1360146631
 10
9.7026369591
 20
5.1975095404
 10
9.7010927831
 20
5.2694473233
 10
9.6995561811
 20
5.3489766005
 10
9.6980406708
 20
5.4331060609
  0
LWPOLYLINE
  5
536
100
AcDbEntity
  8
02___PRT_ALL_AXES
100
AcDbPolyline
 62
7
  6
CONTINUOUS
 90
8
 70
0
 10
9.516351838
 20
6.107823551
 10
9.5178813042
 20
6.0838718355
 10
9.5194123703
 20
6.0462035251
 10
9.5209298405
 20
5.9963331322
 10
9.5224587289
 20
5.9347844608
 10
9.5239979062
 20
5.8630034707
 10
9.5255264273
 20
5.7838626866
 10
9.5270388325
 20
5.6999025964
  0
LWPOLYLINE
  5
537
100
AcDbEntity
  8
02___PRT_ALL_AXES
100
AcDbPolyline
 62
7
  6
CONTINUOUS
 90
8
 70
0
 10
9.5754069562
 20
6.107823551
 10
9.5769350223
 20
6.0839001363
 10
9.5784508981
 20
6.0466818743
 10
9.5799660625
 20
5.9970258878
 10
9.5815010465
 20
5.9353425979
 10
9.583049443
 20
5.8631804894
 10
9.5845900356
 20
5.7834050632
 10
9.5861081303
 20
5.6990956318
  0
LWPOLYLINE
  5
538
100
AcDbEntity
  8
02___PRT_ALL_AXES
100
AcDbPolyline
 62
7
  6
CONTINUOUS
 90
8
 70
0
 10
9.6496732277
 20
5.0251463857
 10
9.6481387728
 20
5.049199037
 10
9.6466160106
 20
5.0866707049
 10
9.6451024874
 20
5.1363703608
 10
9.6435673105
 20
5.1981429957
 10
9.6420189089
 20
5.2703744427
 10
9.6404783665
 20
5.3502002061
 10
9.6389599322
 20
5.434564367
  0
LWPOLYLINE
  5
539
100
AcDbEntity
  8
02___PRT_ALL_AXES
100
AcDbPolyline
 62
7
  6
CONTINUOUS
 90
8
 70
0
 10
9.5906181096
 20
5.0251463857
 10
9.5890733301
 20
5.0494083971
 10
9.587534361
 20
5.0874383198
 10
9.5860173959
 20
5.1374717287
 10
9.5845061422
 20
5.1984070145
 10
9.5829890446
 20
5.2691264126
 10
9.5814655493
 20
5.3479207121
 10
9.5799505213
 20
5.4319634298
  0
LWPOLYLINE
  5
53A
100
AcDbEntity
  8
02___PRT_ALL_AXES
100
AcDbPolyline
 62
7
  6
CONTINUOUS
 90
8
 70
0
 10
9.6344620743
 20
6.107823551
 10
9.6360059304
 20
6.0835802884
 10
9.6375438916
 20
6.0455876196
 10
9.6390596989
 20
5.9956119183
 10
9.6405695633
 20
5.9347583645
 10
9.6420939861
 20
5.8637029415
 10
9.6436205451
 20
5.7847309846
 10
9.6451352349
 20
5.7006895872
  0
LWPOLYLINE
  5
53B
100
AcDbEntity
  8
02___PRT_ALL_AXES
100
AcDbPolyline
 62
7
  6
CONTINUOUS
 90
7
 70
0
 10
9.5608408978
 20
5.0251463857
 10
9.5593679819
 20
5.0670494574
 10
9.5578950661
 20
5.1211927981
 10
9.5564221502
 20
5.1862494514
 10
9.5549492344
 20
5.2606249954
 10
9.5534763185
 20
5.342496619
 10
9.5520034027
 20
5.4298577953
  0
LWPOLYLINE
  5
53C
100
AcDbEntity
  8
02___PRT_ALL_AXES
100
AcDbPolyline
 62
7
  6
CONTINUOUS
 90
7
 70
0
 10
9.5682227875
 20
5.0251463857
 10
9.5667498717
 20
5.0670494574
 10
9.5652769558
 20
5.1211927981
 10
9.56380404
 20
5.1862494514
 10
9.5623311241
 20
5.2606249954
 10
9.5608582083
 20
5.342496619
 10
9.5593852925
 20
5.4298577953
  0
LWPOLYLINE
  5
53D
100
AcDbEntity
  8
02___PRT_ALL_AXES
100
AcDbPolyline
 62
7
  6
CONTINUOUS
 90
7
 70
0
 10
9.6198960159
 20
5.0251463857
 10
9.6184231
 20
5.0670494574
 10
9.6169501842
 20
5.1211927981
 10
9.6154772683
 20
5.1862494514
 10
9.6140043525
 20
5.2606249954
 10
9.6125314366
 20
5.342496619
 10
9.6110585208
 20
5.4298577953
  0
LWPOLYLINE
  5
53E
100
AcDbEntity
  8
02___PRT_ALL_AXES
100
AcDbPolyline
 62
7
  6
CONTINUOUS
 90
7
 70
0
 10
9.6272779056
 20
5.0251463857
 10
9.6258049898
 20
5.0670494574
 10
9.6243320739
 20
5.1211927981
 10
9.6228591581
 20
5.1862494514
 10
9.6213862423
 20
5.2606249954
 10
9.6199133264
 20
5.342496619
 10
9.6184404106
 20
5.4298577953
  0
LWPOLYLINE
  5
53F
100
AcDbEntity
  8
02___PRT_ALL_AXES
100
AcDbPolyline
 62
7
  6
CONTINUOUS
 90
7
 70
0
 10
9.678951134
 20
5.0251463857
 10
9.6774782181
 20
5.0670494574
 10
9.6760053023
 20
5.1211927981
 10
9.6745323864
 20
5.1862494514
 10
9.6730594706
 20
5.2606249954
 10
9.6715865548
 20
5.342496619
 10
9.6701136389
 20
5.4298577953
  0
LWPOLYLINE
  5
540
100
AcDbEntity
  8
02___PRT_ALL_AXES
100
AcDbPolyline
 62
7
  6
CONTINUOUS
 90
7
 70
0
 10
9.6863330237
 20
5.0251463857
 10
9.6848601079
 20
5.0670494574
 10
9.6833871921
 20
5.1211927981
 10
9.6819142762
 20
5.1862494514
 10
9.6804413604
 20
5.2606249954
 10
9.6789684445
 20
5.342496619
 10
9.6774955287
 20
5.4298577953
  0
LWPOLYLINE
  5
541
100
AcDbEntity
  8
02___PRT_ALL_AXES
100
AcDbPolyline
 62
7
  6
CONTINUOUS
 90
8
 70
0
 10
9.5316540455
 20
5.4319634298
 10
9.5331690736
 20
5.3479207121
 10
9.5346925689
 20
5.2691264126
 10
9.5362096664
 20
5.1984070145
 10
9.5377209201
 20
5.1374717287
 10
9.5392378852
 20
5.0874383198
 10
9.5407768543
 20
5.0494083971
 10
9.5423216338
 20
5.0251463857
  0
LWPOLYLINE
  5
542
100
AcDbEntity
  8
02___PRT_ALL_AXES
100
AcDbPolyline
 62
7
  6
CONTINUOUS
 90
8
 70
0
 10
9.5753353083
 20
5.6999025964
 10
9.573822903
 20
5.7838626866
 10
9.572294382
 20
5.8630034707
 10
9.5707552047
 20
5.9347844608
 10
9.5692263162
 20
5.9963331322
 10
9.5677088461
 20
6.0462035251
 10
9.56617778
 20
6.0838718355
 10
9.5646483138
 20
6.107823551
  0
LWPOLYLINE
  5
543
100
AcDbEntity
  8
02___PRT_ALL_AXES
100
AcDbPolyline
 62
7
  6
CONTINUOUS
 90
8
 70
0
 10
9.5906634564
 20
5.434564367
 10
9.5921818907
 20
5.3502002061
 10
9.5937224331
 20
5.2703744427
 10
9.5952708347
 20
5.1981429957
 10
9.5968060116
 20
5.1363703608
 10
9.5983195348
 20
5.0866707049
 10
9.599842297
 20
5.049199037
 10
9.6013767519
 20
5.0251463857
  0
LWPOLYLINE
  5
544
100
AcDbEntity
  8
02___PRT_ALL_AXES
100
AcDbPolyline
 62
7
  6
CONTINUOUS
 90
8
 70
0
 10
9.6344046061
 20
5.6990956318
 10
9.6328865113
 20
5.7834050632
 10
9.6313459188
 20
5.8631804894
 10
9.6297975223
 20
5.9353425979
 10
9.6282625383
 20
5.9970258878
 10
9.6267473739
 20
6.0466818743
 10
9.6252314981
 20
6.0839001363
 10
9.6237034319
 20
6.107823551
  0
LWPOLYLINE
  5
545
100
AcDbEntity
  8
02___PRT_ALL_AXES
100
AcDbPolyline
 62
7
  6
CONTINUOUS
 90
8
 70
0
 10
9.649744195
 20
5.4331060609
 10
9.6512597053
 20
5.3489766005
 10
9.6527963073
 20
5.2694473233
 10
9.6543404833
 20
5.1975095404
 10
9.6558708354
 20
5.1360146631
 10
9.6573867677
 20
5.0863214687
 10
9.6589125381
 20
5.0488935046
 10
9.66043187
 20
5.0251463857
  0
LWPOLYLINE
  5
546
100
AcDbEntity
  8
02___PRT_ALL_AXES
100
AcDbPolyline
 62
7
  6
CONTINUOUS
 90
8
 70
0
 10
9.6934317106
 20
5.7006895872
 10
9.6919170208
 20
5.7847309846
 10
9.6903904618
 20
5.8637029415
 10
9.688866039
 20
5.9347583645
 10
9.6873561746
 20
5.9956119183
 10
9.6858403674
 20
6.0455876196
 10
9.6843024062
 20
6.0835802884
 10
9.68275855
 20
6.107823551
  0
LINE
  5
547
100
AcDbEntity
  8
02___PRT_ALL_AXES
100
AcDbLine
 62
7
  6
CONTINUOUS
 10
9.5270388325
 20
5.6999025964
 11
9.5316540455
 21
5.4319634298
  0
LINE
  5
548
100
AcDbEntity
  8
02___PRT_ALL_AXES
100
AcDbLine
 62
7
  6
CONTINUOUS
 10
9.5799505213
 20
5.4319634298
 11
9.5753353083
 21
5.6999025964
  0
LINE
  5
549
100
AcDbEntity
  8
02___PRT_ALL_AXES
100
AcDbLine
 62
7
  6
CONTINUOUS
 10
9.5861081303
 20
5.6990956318
 11
9.5906634564
 21
5.434564367
  0
LINE
  5
54A
100
AcDbEntity
  8
02___PRT_ALL_AXES
100
AcDbLine
 62
7
  6
CONTINUOUS
 10
9.6389599322
 20
5.434564367
 11
9.6344046061
 21
5.6990956318
  0
LINE
  5
54B
100
AcDbEntity
  8
02___PRT_ALL_AXES
100
AcDbLine
 62
7
  6
CONTINUOUS
 10
9.6451352349
 20
5.7006895872
 11
9.649744195
 21
5.4331060609
  0
LINE
  5
54C
100
AcDbEntity
  8
02___PRT_ALL_AXES
100
AcDbLine
 62
7
  6
CONTINUOUS
 10
9.6980406708
 20
5.4331060609
 11
9.6934317106
 21
5.7006895872
  0
LWPOLYLINE
  5
54D
100
AcDbEntity
  8
02___PRT_ALL_AXES
100
AcDbPolyline
 62
7
  6
CONTINUOUS
 90
7
 70
0
 10
9.5475846552
 20
5.7031121414
 10
9.5461117393
 20
5.7904733178
 10
9.5446388235
 20
5.8723449413
 10
9.5431659076
 20
5.9467204853
 10
9.5416929918
 20
6.0117771386
 10
9.5402200759
 20
6.0659204793
 10
9.5387471601
 20
6.107823551
  0
LWPOLYLINE
  5
54E
100
AcDbEntity
  8
02___PRT_ALL_AXES
100
AcDbPolyline
 62
7
  6
CONTINUOUS
 90
7
 70
0
 10
9.5549665449
 20
5.7031121414
 10
9.5534936291
 20
5.7904733178
 10
9.5520207132
 20
5.8723449413
 10
9.5505477974
 20
5.9467204853
 10
9.5490748815
 20
6.0117771386
 10
9.5476019657
 20
6.0659204793
 10
9.5461290499
 20
6.107823551
  0
LWPOLYLINE
  5
54F
100
AcDbEntity
  8
02___PRT_ALL_AXES
100
AcDbPolyline
 62
7
  6
CONTINUOUS
 90
7
 70
0
 10
9.6066397733
 20
5.7031121414
 10
9.6051668574
 20
5.7904733178
 10
9.6036939416
 20
5.8723449413
 10
9.6022210257
 20
5.9467204853
 10
9.6007481099
 20
6.0117771386
 10
9.599275194
 20
6.0659204793
 10
9.5978022782
 20
6.107823551
  0
LWPOLYLINE
  5
550
100
AcDbEntity
  8
02___PRT_ALL_AXES
100
AcDbPolyline
 62
7
  6
CONTINUOUS
 90
7
 70
0
 10
9.614021663
 20
5.7031121414
 10
9.6125487472
 20
5.7904733178
 10
9.6110758313
 20
5.8723449413
 10
9.6096029155
 20
5.9467204853
 10
9.6081299997
 20
6.0117771386
 10
9.6066570838
 20
6.0659204793
 10
9.605184168
 20
6.107823551
  0
LWPOLYLINE
  5
551
100
AcDbEntity
  8
02___PRT_ALL_AXES
100
AcDbPolyline
 62
7
  6
CONTINUOUS
 90
7
 70
0
 10
9.6656948914
 20
5.7031121414
 10
9.6642219755
 20
5.7904733178
 10
9.6627490597
 20
5.8723449413
 10
9.6612761438
 20
5.9467204853
 10
9.659803228
 20
6.0117771386
 10
9.6583303122
 20
6.0659204793
 10
9.6568573963
 20
6.107823551
  0
LWPOLYLINE
  5
552
100
AcDbEntity
  8
02___PRT_ALL_AXES
100
AcDbPolyline
 62
7
  6
CONTINUOUS
 90
7
 70
0
 10
9.6730767811
 20
5.7031121414
 10
9.6716038653
 20
5.7904733178
 10
9.6701309495
 20
5.8723449413
 10
9.6686580336
 20
5.9467204853
 10
9.6671851178
 20
6.0117771386
 10
9.6657122019
 20
6.0659204793
 10
9.6642392861
 20
6.107823551
  0
LINE
  5
553
100
AcDbEntity
  8
02___PRT_ALL_AXES
100
AcDbLine
 62
7
  6
CONTINUOUS
 10
9.5520034027
 20
5.4298577953
 11
9.5475846552
 21
5.7031121414
  0
LINE
  5
554
100
AcDbEntity
  8
02___PRT_ALL_AXES
100
AcDbLine
 62
7
  6
CONTINUOUS
 10
9.5593852925
 20
5.4298577953
 11
9.5549665449
 21
5.7031121414
  0
LINE
  5
555
100
AcDbEntity
  8
02___PRT_ALL_AXES
100
AcDbLine
 62
7
  6
CONTINUOUS
 10
9.6110585208
 20
5.4298577953
 11
9.6066397733
 21
5.7031121414
  0
LINE
  5
556
100
AcDbEntity
  8
02___PRT_ALL_AXES
100
AcDbLine
 62
7
  6
CONTINUOUS
 10
9.6184404106
 20
5.4298577953
 11
9.614021663
 21
5.7031121414
  0
LINE
  5
557
100
AcDbEntity
  8
02___PRT_ALL_AXES
100
AcDbLine
 62
7
  6
CONTINUOUS
 10
9.6701136389
 20
5.4298577953
 11
9.6656948914
 21
5.7031121414
  0
LINE
  5
558
100
AcDbEntity
  8
02___PRT_ALL_AXES
100
AcDbLine
 62
7
  6
CONTINUOUS
 10
9.6774955287
 20
5.4298577953
 11
9.6730767811
 21
5.7031121414
  0
LINE
  5
559
100
AcDbEntity
  8
0
100
AcDbLine
 62
7
  6
CONTINUOUS
 10
10.042370522
 20
5.8024565217
 11
10.0239574146
 21
5.770602947
  0
LINE
  5
55A
100
AcDbEntity
  8
0
100
AcDbLine
 62
7
  6
CONTINUOUS
 10
9.7946267061
 20
5.3402330352
 11
9.8074219815
 21
5.3623669897
  0
LINE
  5
55B
100
AcDbEntity
  8
0
100
AcDbLine
 62
7
  6
CONTINUOUS
 10
10.0746307083
 20
5.7901555143
 11
10.0633274933
 21
5.770602947
  0
LINE
  5
55C
100
AcDbEntity
  8
0
100
AcDbLine
 62
7
  6
CONTINUOUS
 10
9.8283789532
 20
5.3305134151
 11
9.8467920603
 21
5.3623669897
  0
LINE
  5
55D
100
AcDbEntity
  8
0
100
AcDbLine
 62
7
  6
CONTINUOUS
 10
9.8677490319
 20
5.3305134151
 11
9.886162139
 21
5.3623669897
  0
LINE
  5
55E
100
AcDbEntity
  8
0
100
AcDbLine
 62
7
  6
CONTINUOUS
 10
9.9071191107
 20
5.3305134151
 11
9.9255322177
 21
5.3623669897
  0
LINE
  5
55F
100
AcDbEntity
  8
0
100
AcDbLine
 62
7
  6
CONTINUOUS
 10
9.9464891894
 20
5.3305134151
 11
9.9649022965
 21
5.3623669897
  0
LINE
  5
560
100
AcDbEntity
  8
0
100
AcDbLine
 62
7
  6
CONTINUOUS
 10
10.0670003174
 20
5.3349214972
 11
10.0676970898
 21
5.3358729421
  0
LINE
  5
561
100
AcDbEntity
  8
0
100
AcDbLine
 62
7
  6
CONTINUOUS
 10
10.00393906
 20
5.3629435287
 11
10.0226854826
 21
5.330513415
  0
LINE
  5
562
100
AcDbEntity
  8
0
100
AcDbLine
 62
7
  6
CONTINUOUS
 10
10.0433091387
 20
5.3629435287
 11
10.0620555614
 21
5.330513415
  0
LINE
  5
563
100
AcDbEntity
  8
0
100
AcDbLine
 62
7
  6
CONTINUOUS
 10
9.8274403364
 20
5.770026408
 11
9.8086939138
 21
5.8024565216
  0
LINE
  5
564
100
AcDbEntity
  8
0
100
AcDbLine
 62
7
  6
CONTINUOUS
 10
9.8668104152
 20
5.770026408
 11
9.8480639926
 21
5.8024565216
  0
LINE
  5
565
100
AcDbEntity
  8
0
100
AcDbLine
 62
7
  6
CONTINUOUS
 10
9.9061804939
 20
5.770026408
 11
9.8874340713
 21
5.8024565216
  0
LINE
  5
566
100
AcDbEntity
  8
0
100
AcDbLine
 62
7
  6
CONTINUOUS
 10
9.9455505726
 20
5.770026408
 11
9.9268041501
 21
5.8024565216
  0
LWPOLYLINE
  5
567
100
AcDbEntity
  8
0
100
AcDbPolyline
 62
7
  6
CONTINUOUS
 90
9
 70
0
 10
10.00393906
 20
5.3629435287
 10
10.0037984763
 20
5.363237889
 10
10.0027413168
 20
5.3687098248
 10
10.0016841572
 20
5.3797980503
 10
10.0006269977
 20
5.3961876895
 10
9.9995698382
 20
5.41741332
 10
9.9985126787
 20
5.4428721901
 10
9.9974555192
 20
5.4718413354
 10
9.9963983596
 20
5.503498109
  0
LINE
  5
568
100
AcDbEntity
  8
0
100
AcDbLine
 62
7
  6
CONTINUOUS
 10
9.9462015092
 20
5.3302644959
 11
9.9452664979
 21
5.3328895752
  0
LINE
  5
569
100
AcDbEntity
  8
0
100
AcDbLine
 62
7
  6
CONTINUOUS
 10
9.828091273
 20
5.3302644959
 11
9.8271103037
 21
5.3331534347
  0
LINE
  5
56A
100
AcDbEntity
  8
0
100
AcDbLine
 62
7
  6
CONTINUOUS
 10
9.8674613518
 20
5.3302644959
 11
9.8664803837
 21
5.333153427
  0
LINE
  5
56B
100
AcDbEntity
  8
0
100
AcDbLine
 62
7
  6
CONTINUOUS
 10
9.9068314305
 20
5.3302644959
 11
9.9058487359
 21
5.3331635845
  0
LWPOLYLINE
  5
56C
100
AcDbEntity
  8
0
100
AcDbPolyline
 62
7
  6
CONTINUOUS
 90
9
 70
0
 10
9.8070886663
 20
5.3629435287
 10
9.8065535241
 20
5.3646098494
 10
9.8054920759
 20
5.3722470305
 10
9.8044306277
 20
5.385444791
 10
9.8033691795
 20
5.4038253096
 10
9.8023077313
 20
5.4268623951
 10
9.8012462831
 20
5.4538965493
 10
9.8001848349
 20
5.4841538475
 10
9.7991233867
 20
5.5167680937
  0
LWPOLYLINE
  5
56D
100
AcDbEntity
  8
0
100
AcDbPolyline
 62
7
  6
CONTINUOUS
 90
9
 70
0
 10
9.846458745
 20
5.3629435287
 10
9.8458271075
 20
5.3650674388
 10
9.8447656593
 20
5.3732216125
 10
9.8437042111
 20
5.3869084655
 10
9.8426427629
 20
5.4057361752
 10
9.8415813147
 20
5.429165748
 10
9.8405198665
 20
5.4565264499
 10
9.8394584183
 20
5.4870350079
 10
9.8383969701
 20
5.519818033
  0
LWPOLYLINE
  5
56E
100
AcDbEntity
  8
0
100
AcDbPolyline
 62
7
  6
CONTINUOUS
 90
9
 70
0
 10
9.9137597924
 20
5.6282765047
 10
9.9126983442
 20
5.660138717
 10
9.911636896
 20
5.6893198408
 10
9.9105754478
 20
5.7149844885
 10
9.9095139996
 20
5.7363979412
 10
9.9084525514
 20
5.7529471817
 10
9.9073911032
 20
5.7641584436
 10
9.906329655
 20
5.7697107749
 10
9.9061804939
 20
5.770026408
  0
LWPOLYLINE
  5
56F
100
AcDbEntity
  8
0
100
AcDbPolyline
 62
7
  6
CONTINUOUS
 90
9
 70
0
 10
9.8744862089
 20
5.6252780386
 10
9.8734247607
 20
5.6573397098
 10
9.8723633125
 20
5.6868004215
 10
9.8713018643
 20
5.7128167823
 10
9.8702404161
 20
5.7346440044
 10
9.8691789679
 20
5.7516572253
 10
9.8681175197
 20
5.7633693963
 10
9.8670560715
 20
5.7694452251
 10
9.8668104152
 20
5.770026408
  0
LWPOLYLINE
  5
570
100
AcDbEntity
  8
0
100
AcDbPolyline
 62
7
  6
CONTINUOUS
 90
9
 70
0
 10
9.8352126255
 20
5.6222656295
 10
9.8341511773
 20
5.654519156
 10
9.8330897291
 20
5.6842524689
 10
9.8320282809
 20
5.7106143728
 10
9.8309668327
 20
5.7328501879
 10
9.8299053845
 20
5.7503233546
 10
9.8288439363
 20
5.7625336569
 10
9.8277824881
 20
5.7691315424
 10
9.8274403364
 20
5.770026408
  0
LINE
  5
571
100
AcDbEntity
  8
0
100
AcDbLine
 62
7
  6
CONTINUOUS
 10
9.795939042
 20
5.6192399918
 11
9.7946267061
 21
5.6587683648
  0
LINE
  5
572
100
AcDbEntity
  8
0
100
AcDbLine
 62
7
  6
CONTINUOUS
 10
9.7991233867
 20
5.5167680937
 11
9.795939042
 21
5.6192399918
  0
LINE
  5
573
100
AcDbEntity
  8
0
100
AcDbLine
 62
7
  6
CONTINUOUS
 10
9.8383969701
 20
5.519818033
 11
9.8352126255
 21
5.6222656295
  0
LINE
  5
574
100
AcDbEntity
  8
0
100
AcDbLine
 62
7
  6
CONTINUOUS
 10
9.8776705535
 20
5.5228790397
 11
9.8744862089
 21
5.6252780386
  0
LINE
  5
575
100
AcDbEntity
  8
0
100
AcDbLine
 62
7
  6
CONTINUOUS
 10
9.916944137
 20
5.5259503876
 11
9.9137597924
 21
5.6282765047
  0
LWPOLYLINE
  5
576
100
AcDbEntity
  8
0
100
AcDbPolyline
 62
7
  6
CONTINUOUS
 90
9
 70
0
 10
9.8182521692
 20
5.4933663667
 10
9.819234567
 20
5.4591906646
 10
9.8202292181
 20
5.4272735161
 10
9.8212239616
 20
5.3988544237
 10
9.822206248
 20
5.3749256465
 10
9.8231855779
 20
5.3557452455
 10
9.8241704934
 20
5.3416376484
 10
9.8251491257
 20
5.3331105328
 10
9.8258350889
 20
5.330513415
  0
LWPOLYLINE
  5
577
100
AcDbEntity
  8
0
100
AcDbPolyline
 62
7
  6
CONTINUOUS
 90
9
 70
0
 10
9.8162883537
 20
5.6391904772
 10
9.815303323
 20
5.6734806799
 10
9.8143058574
 20
5.7055113982
 10
9.8133081644
 20
5.7340325328
 10
9.8123228946
 20
5.7580412033
 10
9.811343805
 20
5.7772182157
 10
9.8103654215
 20
5.7912522683
 10
9.8093855918
 20
5.7998259645
 10
9.8086939138
 20
5.8024565216
  0
LWPOLYLINE
  5
578
100
AcDbEntity
  8
0
100
AcDbPolyline
 62
7
  6
CONTINUOUS
 90
9
 70
0
 10
9.8576070453
 20
5.4939115611
 10
9.8585920592
 20
5.4596136115
 10
9.8595895327
 20
5.427571071
 10
9.8605872201
 20
5.3990356806
 10
9.8615725322
 20
5.3750093861
 10
9.8625501012
 20
5.3558399451
 10
9.8635277638
 20
5.3417861409
 10
9.8645118785
 20
5.3331534347
 10
9.8652051677
 20
5.330513415
  0
LWPOLYLINE
  5
579
100
AcDbEntity
  8
0
100
AcDbPolyline
 62
7
  6
CONTINUOUS
 90
9
 70
0
 10
9.8556420773
 20
5.6397768708
 10
9.8546614369
 20
5.6738826237
 10
9.8536686237
 20
5.7057341752
 10
9.8526756745
 20
5.7341007784
 10
9.8516951388
 20
5.7579934227
 10
9.8507166165
 20
5.7771716472
 10
9.8497304654
 20
5.7913105823
 10
9.8487483863
 20
5.7998685532
 10
9.8480639926
 20
5.8024565216
  0
LWPOLYLINE
  5
57A
100
AcDbEntity
  8
0
100
AcDbPolyline
 62
7
  6
CONTINUOUS
 90
9
 70
0
 10
9.8969729082
 20
5.4940628213
 10
9.8979531646
 20
5.4599154063
 10
9.8989458511
 20
5.4279909764
 10
9.8999389183
 20
5.3995251522
 10
9.9009198723
 20
5.3755126623
 10
9.9018984257
 20
5.3562123708
 10
9.9028896415
 20
5.3418817122
 10
9.9038819586
 20
5.333153427
 10
9.9045752464
 20
5.330513415
  0
LWPOLYLINE
  5
57B
100
AcDbEntity
  8
0
100
AcDbPolyline
 62
7
  6
CONTINUOUS
 90
9
 70
0
 10
9.8950160321
 20
5.6396379452
 10
9.8940433014
 20
5.6734866961
 10
9.8930639435
 20
5.7049643952
 10
9.8920784984
 20
5.7332286523
 10
9.8910991862
 20
5.7572409108
 10
9.890117701
 20
5.776640477
 10
9.8891237682
 20
5.7910403934
 10
9.8881291469
 20
5.7998059921
 10
9.8874340713
 20
5.8024565216
  0
LINE
  5
57C
100
AcDbEntity
  8
0
100
AcDbLine
 62
7
  6
CONTINUOUS
 10
9.8143276021
 20
5.6389123523
 11
9.8182521692
 21
5.4933663667
  0
LINE
  5
57D
100
AcDbEntity
  8
0
100
AcDbLine
 62
7
  6
CONTINUOUS
 10
9.8202054705
 20
5.4939115611
 11
9.8162883537
 21
5.6391904772
  0
LINE
  5
57E
100
AcDbEntity
  8
0
100
AcDbLine
 62
7
  6
CONTINUOUS
 10
9.8536899285
 20
5.6391904772
 11
9.8576070453
 21
5.4939115611
  0
LWPOLYLINE
  5
57F
100
AcDbEntity
  8
0
100
AcDbPolyline
 62
7
  6
CONTINUOUS
 90
3
 70
0
 10
9.8595713334
 20
5.4940628213
 10
9.857602496
 20
5.5671008238
 10
9.8556420773
 20
5.6397768708
  0
LINE
  5
580
100
AcDbEntity
  8
0
100
AcDbLine
 62
7
  6
CONTINUOUS
 10
9.8930436521
 20
5.6397768708
 11
9.8969729082
 21
5.4940628213
  0
LINE
  5
581
100
AcDbEntity
  8
0
100
AcDbLine
 62
7
  6
CONTINUOUS
 10
9.8989686347
 20
5.4930866658
 11
9.8950160321
 21
5.6396379452
  0
LINE
  5
582
100
AcDbEntity
  8
0
100
AcDbLine
 62
9
  6
CONTINUOUS
 10
9.7552566273
 20
5.0251463857
 11
9.7552566273
 21
6.107823551
  0
LINE
  5
583
100
AcDbEntity
  8
0
100
AcDbLine
 62
7
  6
CONTINUOUS
 10
9.7946267061
 20
5.0645164644
 11
9.7946267061
 21
6.0684534723
  0
LINE
  5
584
100
AcDbEntity
  8
0
100
AcDbLine
 62
7
  6
CONTINUOUS
 10
9.9858592682
 20
5.3305134151
 11
10.0042723752
 21
5.3623669897
  0
LINE
  5
585
100
AcDbEntity
  8
0
100
AcDbLine
 62
7
  6
CONTINUOUS
 10
10.0252293469
 20
5.3305134151
 11
10.043642454
 21
5.3623669897
  0
LINE
  5
586
100
AcDbEntity
  8
0
100
AcDbLine
 62
7
  6
CONTINUOUS
 10
10.0676970898
 20
5.3358729421
 11
10.0820282809
 21
5.3606646276
  0
LINE
  5
587
100
AcDbEntity
  8
0
100
AcDbLine
 62
7
  6
CONTINUOUS
 10
9.9849206514
 20
5.770026408
 11
9.9661742288
 21
5.8024565216
  0
LINE
  5
588
100
AcDbEntity
  8
0
100
AcDbLine
 62
7
  6
CONTINUOUS
 10
10.0242907301
 20
5.770026408
 11
10.0055443075
 21
5.8024565216
  0
LINE
  5
589
100
AcDbEntity
  8
0
100
AcDbLine
 62
7
  6
CONTINUOUS
 10
10.0636608089
 20
5.770026408
 11
10.0449143863
 21
5.8024565216
  0
LWPOLYLINE
  5
58A
100
AcDbEntity
  8
0
100
AcDbPolyline
 62
7
  6
CONTINUOUS
 90
9
 70
0
 10
10.0433091387
 20
5.3629435287
 10
10.0429133786
 20
5.3640334337
 10
10.0418562191
 20
5.370881403
 10
10.0407990595
 20
5.3832839949
 10
10.0397419
 20
5.4008890089
 10
10.0386847405
 20
5.4231965092
 10
10.037627581
 20
5.4495730218
 10
10.0365704215
 20
5.4792695239
 10
10.0355132619
 20
5.5114427133
  0
LWPOLYLINE
  5
58B
100
AcDbEntity
  8
0
100
AcDbPolyline
 62
7
  6
CONTINUOUS
 90
4
 70
0
 10
10.0623433177
 20
5.3418250616
 10
10.064509465
 20
5.335727283
 10
10.0666806789
 20
5.33465587
 10
10.0670003174
 20
5.3349214972
  0
LINE
  5
58C
100
AcDbEntity
  8
0
100
AcDbLine
 62
7
  6
CONTINUOUS
 10
9.8851778872
 20
5.8027054408
 11
9.8861499611
 21
5.7998685532
  0
LINE
  5
58D
100
AcDbEntity
  8
0
100
AcDbLine
 62
7
  6
CONTINUOUS
 10
9.985571588
 20
5.3302644959
 11
9.9845983377
 21
5.3331082396
  0
LINE
  5
58E
100
AcDbEntity
  8
0
100
AcDbLine
 62
7
  6
CONTINUOUS
 10
10.0249416667
 20
5.3302644959
 11
10.0239635896
 21
5.3331364595
  0
LINE
  5
58F
100
AcDbEntity
  8
0
100
AcDbLine
 62
7
  6
CONTINUOUS
 10
9.8458078085
 20
5.8027054408
 11
9.8467871666
 21
5.7998259645
  0
LINE
  5
590
100
AcDbEntity
  8
0
100
AcDbLine
 62
7
  6
CONTINUOUS
 10
9.8064377297
 20
5.8027054408
 11
9.8074193833
 21
5.7998124786
  0
LINE
  5
591
100
AcDbEntity
  8
0
100
AcDbLine
 62
7
  6
CONTINUOUS
 10
9.9245479659
 20
5.8027054408
 11
9.9255307217
 21
5.7998059921
  0
LINE
  5
592
100
AcDbEntity
  8
0
100
AcDbLine
 62
7
  6
CONTINUOUS
 10
9.9639180447
 20
5.8027054408
 11
9.9649273601
 21
5.7996474988
  0
LWPOLYLINE
  5
593
100
AcDbEntity
  8
0
100
AcDbPolyline
 62
7
  6
CONTINUOUS
 90
9
 70
0
 10
9.8858288238
 20
5.3629435287
 10
9.885100691
 20
5.3655727952
 10
9.8840392428
 20
5.3742420277
 10
9.8829777946
 20
5.3884147274
 10
9.8819163464
 20
5.407685163
 10
9.8808548982
 20
5.4315016667
 10
9.87979345
 20
5.4591824277
 10
9.8787320018
 20
5.4899350103
 10
9.8776705535
 20
5.5228790397
  0
LINE
  5
594
100
AcDbEntity
  8
0
100
AcDbLine
 62
7
  6
CONTINUOUS
 10
10.0613651644
 20
5.3331364595
 11
10.0620555614
 21
5.330513415
  0
LWPOLYLINE
  5
595
100
AcDbEntity
  8
0
100
AcDbPolyline
 62
7
  6
CONTINUOUS
 90
9
 70
0
 10
9.9251989025
 20
5.3629435287
 10
9.9243742744
 20
5.3661257988
 10
9.9233128262
 20
5.3753080342
 10
9.922251378
 20
5.3899632194
 10
9.9211899298
 20
5.4096718108
 10
9.9201284816
 20
5.4338695973
 10
9.9190670334
 20
5.4618638527
 10
9.9180055852
 20
5.4928531668
 10
9.916944137
 20
5.5259503876
  0
LWPOLYLINE
  5
596
100
AcDbEntity
  8
0
100
AcDbPolyline
 62
7
  6
CONTINUOUS
 90
7
 70
0
 10
9.9645689812
 20
5.3629435287
 10
9.9636264145
 20
5.3668662059
 10
9.9625692549
 20
5.3766216781
 10
9.9615120954
 20
5.3917687644
 10
9.9604549359
 20
5.4118773278
 10
9.9593977764
 20
5.4363763384
 10
9.9583406168
 20
5.4645700891
  0
LWPOLYLINE
  5
597
100
AcDbEntity
  8
0
100
AcDbPolyline
 62
7
  6
CONTINUOUS
 90
7
 70
0
 10
9.9452664979
 20
5.3328895752
 10
9.94432016
 20
5.3408323904
 10
9.9433733063
 20
5.3539209786
 10
9.9424366854
 20
5.3716357988
 10
9.9415067944
 20
5.3935232672
 10
9.9405711738
 20
5.41938196
 10
9.9396398294
 20
5.4483747321
  0
LWPOLYLINE
  5
598
100
AcDbEntity
  8
0
100
AcDbPolyline
 62
7
  6
CONTINUOUS
 90
8
 70
0
 10
9.8861499611
 20
5.7998685532
 10
9.8871320402
 20
5.7913105823
 10
9.8881181913
 20
5.7771716472
 10
9.8890967136
 20
5.7579934227
 10
9.8900772493
 20
5.7341007784
 10
9.8910701985
 20
5.7057341752
 10
9.8920630117
 20
5.6738826237
 10
9.8930436521
 20
5.6397768708
  0
LWPOLYLINE
  5
599
100
AcDbEntity
  8
0
100
AcDbPolyline
 62
7
  6
CONTINUOUS
 90
8
 70
0
 10
9.8467871666
 20
5.7998259645
 10
9.8477669964
 20
5.7912522683
 10
9.8487453798
 20
5.7772182157
 10
9.8497244694
 20
5.7580412033
 10
9.8507097392
 20
5.7340325328
 10
9.8517074322
 20
5.7055113982
 10
9.8527048978
 20
5.6734806799
 10
9.8536899285
 20
5.6391904772
  0
LWPOLYLINE
  5
59A
100
AcDbEntity
  8
0
100
AcDbPolyline
 62
7
  6
CONTINUOUS
 90
8
 70
0
 10
9.8271103037
 20
5.3331534347
 10
9.826126189
 20
5.3417861409
 10
9.8251485264
 20
5.3558399451
 10
9.8241709574
 20
5.3750093861
 10
9.8231856453
 20
5.3990356806
 10
9.8221879579
 20
5.427571071
 10
9.8211904843
 20
5.4596136115
 10
9.8202054705
 20
5.4939115611
  0
LWPOLYLINE
  5
59B
100
AcDbEntity
  8
0
100
AcDbPolyline
 62
7
  6
CONTINUOUS
 90
8
 70
0
 10
9.8074193833
 20
5.7998124786
 10
9.808410296
 20
5.7910966153
 10
9.8093980596
 20
5.7768291684
 10
9.8103734332
 20
5.7576202456
 10
9.811356186
 20
5.733592785
 10
9.8123510737
 20
5.7050928953
 10
9.8133455659
 20
5.6731193183
 10
9.8143276021
 20
5.6389123523
  0
LWPOLYLINE
  5
59C
100
AcDbEntity
  8
0
100
AcDbPolyline
 62
7
  6
CONTINUOUS
 90
8
 70
0
 10
9.8664803837
 20
5.333153427
 10
9.8654880667
 20
5.3418817122
 10
9.8644968509
 20
5.3562123708
 10
9.8635182975
 20
5.3755126623
 10
9.8625373435
 20
5.3995251522
 10
9.8615442763
 20
5.4279909764
 10
9.8605515898
 20
5.4599154063
 10
9.8595713334
 20
5.4940628213
  0
LWPOLYLINE
  5
59D
100
AcDbEntity
  8
0
100
AcDbPolyline
 62
7
  6
CONTINUOUS
 90
8
 70
0
 10
9.9058487359
 20
5.3331635845
 10
9.9048541405
 20
5.3419285245
 10
9.9038601677
 20
5.3563286506
 10
9.9028787432
 20
5.3757266293
 10
9.9019051505
 20
5.3995857467
 10
9.9009293737
 20
5.4275327054
 10
9.8999468162
 20
5.4590701835
 10
9.8989686347
 20
5.4930866658
  0
LWPOLYLINE
  5
59E
100
AcDbEntity
  8
0
100
AcDbPolyline
 62
7
  6
CONTINUOUS
 90
7
 70
0
 10
10.0623433177
 20
5.3418250616
 10
10.0613600183
 20
5.3559933827
 10
10.0603852461
 20
5.3751460016
 10
10.0594009201
 20
5.3991739476
 10
10.0584043462
 20
5.4276956293
 10
10.0574080359
 20
5.459711823
 10
10.0564241973
 20
5.4939741892
  0
LWPOLYLINE
  5
59F
100
AcDbEntity
  8
0
100
AcDbPolyline
 62
7
  6
CONTINUOUS
 90
3
 70
0
 10
9.9583406168
 20
5.4645700891
 10
9.9572791686
 20
5.4957887854
 10
9.9562177204
 20
5.5290313485
  0
LWPOLYLINE
  5
5A0
100
AcDbEntity
  8
0
100
AcDbPolyline
 62
7
  6
CONTINUOUS
 90
9
 70
0
 10
10.0714566857
 20
5.6215272234
 10
10.0703995262
 20
5.6537004128
 10
10.0693423666
 20
5.6833969149
 10
10.0682852071
 20
5.7097734275
 10
10.0672280476
 20
5.7320809278
 10
10.0661708881
 20
5.7496859418
 10
10.0651137285
 20
5.7620885337
 10
10.064056569
 20
5.768936503
 10
10.0636608089
 20
5.770026408
  0
LWPOLYLINE
  5
5A1
100
AcDbEntity
  8
0
100
AcDbPolyline
 62
7
  6
CONTINUOUS
 90
9
 70
0
 10
10.0323417834
 20
5.6134913456
 10
10.0312846238
 20
5.6461275999
 10
10.0302274643
 20
5.6765022146
 10
10.0291703048
 20
5.7037526312
 10
10.0281131453
 20
5.72710501
 10
10.0270559858
 20
5.7458962054
 10
10.0259988262
 20
5.7595925972
 10
10.0249416667
 20
5.7678052443
 10
10.0242907301
 20
5.770026408
  0
LWPOLYLINE
  5
5A2
100
AcDbEntity
  8
0
100
AcDbPolyline
 62
7
  6
CONTINUOUS
 90
8
 70
0
 10
9.9770414043
 20
5.4483747321
 10
9.9779727486
 20
5.41938196
 10
9.9789083692
 20
5.3935232672
 10
9.9798382602
 20
5.3716357988
 10
9.9807748811
 20
5.3539209786
 10
9.9817217348
 20
5.3408323904
 10
9.9826680727
 20
5.3328895752
 10
9.9833154039
 20
5.330513415
  0
LWPOLYLINE
  5
5A3
100
AcDbEntity
  8
0
100
AcDbPolyline
 62
7
  6
CONTINUOUS
 90
9
 70
0
 10
9.9932268811
 20
5.6053775198
 10
9.9921697215
 20
5.6384227201
 10
9.991112562
 20
5.669425079
 10
9.9900554025
 20
5.6975042116
 10
9.988998243
 20
5.721862745
 10
9.9879410835
 20
5.7418089615
 10
9.9868839239
 20
5.7567764412
 10
9.9858267644
 20
5.7663401476
 10
9.9849206514
 20
5.770026408
  0
LWPOLYLINE
  5
5A4
100
AcDbEntity
  8
0
100
AcDbPolyline
 62
7
  6
CONTINUOUS
 90
10
 70
0
 10
9.9562177204
 20
5.5290313485
 10
9.954094824
 20
5.5977507523
 10
9.9530333758
 20
5.6312603167
 10
9.9519719276
 20
5.6629155138
 10
9.9509104794
 20
5.6918101292
 10
9.9498490312
 20
5.7171169775
 10
9.948787583
 20
5.7381115825
 10
9.9477261348
 20
5.7541929177
 10
9.9466646866
 20
5.7649006119
 10
9.9455505726
 20
5.770026408
  0
LINE
  5
5A5
100
AcDbEntity
  8
0
100
AcDbLine
 62
7
  6
CONTINUOUS
 10
9.9963983596
 20
5.503498109
 11
9.9932268811
 21
5.6053775198
  0
LINE
  5
5A6
100
AcDbEntity
  8
0
100
AcDbLine
 62
7
  6
CONTINUOUS
 10
10.0355132619
 20
5.5114427133
 11
10.0323417834
 21
5.6134913456
  0
LINE
  5
5A7
100
AcDbEntity
  8
0
100
AcDbLine
 62
7
  6
CONTINUOUS
 10
10.0746281642
 20
5.5194785911
 11
10.0714566857
 21
5.6215272234
  0
LWPOLYLINE
  5
5A8
100
AcDbEntity
  8
0
100
AcDbPolyline
 62
7
  6
CONTINUOUS
 90
3
 70
0
 10
9.9396398294
 20
5.4483747321
 10
9.9386396248
 20
5.4823928527
 10
9.9376359981
 20
5.5186754534
  0
LWPOLYLINE
  5
5A9
100
AcDbEntity
  8
0
100
AcDbPolyline
 62
7
  6
CONTINUOUS
 90
9
 70
0
 10
9.9363702095
 20
5.4930866658
 10
9.937348391
 20
5.4590701835
 10
9.9383309485
 20
5.4275327054
 10
9.9393067253
 20
5.3995857467
 10
9.940280318
 20
5.3757266293
 10
9.9412617425
 20
5.3563286506
 10
9.9422557153
 20
5.3419285245
 10
9.9432503107
 20
5.3331635845
 10
9.9439453251
 20
5.330513415
  0
LWPOLYLINE
  5
5AA
100
AcDbEntity
  8
0
100
AcDbPolyline
 62
7
  6
CONTINUOUS
 90
9
 70
0
 10
9.9737654814
 20
5.6393047889
 10
9.9727864549
 20
5.6733859892
 10
9.9717962877
 20
5.7052029183
 10
9.9708068985
 20
5.7335423202
 10
9.9698304489
 20
5.7574384994
 10
9.9688510811
 20
5.7767570217
 10
9.9678593767
 20
5.791093559
 10
9.9668670431
 20
5.7998192925
 10
9.9661742288
 20
5.8024565216
  0
LWPOLYLINE
  5
5AB
100
AcDbEntity
  8
0
100
AcDbPolyline
 62
7
  6
CONTINUOUS
 90
9
 70
0
 10
10.0151045737
 20
5.4932942879
 10
10.016084387
 20
5.4592099336
 10
10.0170763637
 20
5.42737246
 10
10.0180684729
 20
5.3990107451
 10
10.0190482329
 20
5.3751113099
 10
10.0200266793
 20
5.3559037387
 10
10.0210144653
 20
5.3417119823
 10
10.0219999125
 20
5.3331082396
 10
10.0226854826
 20
5.330513415
  0
LWPOLYLINE
  5
5AC
100
AcDbEntity
  8
0
100
AcDbPolyline
 62
7
  6
CONTINUOUS
 90
9
 70
0
 10
10.013144057
 20
5.6390000008
 10
10.012159492
 20
5.6732865235
 10
10.0111624507
 20
5.7053223755
 10
10.0101651052
 20
5.7338584524
 10
10.0091800541
 20
5.75789184
 10
10.0082037373
 20
5.777055495
 10
10.0072244266
 20
5.791152196
 10
10.0062381721
 20
5.7998131188
 10
10.0055443075
 20
5.8024565216
  0
LWPOLYLINE
  5
5AD
100
AcDbEntity
  8
0
100
AcDbPolyline
 62
7
  6
CONTINUOUS
 90
8
 70
0
 10
10.0544637455
 20
5.4936853461
 10
10.0554484824
 20
5.4594109474
 10
10.0564456082
 20
5.4273978812
 10
10.0574428774
 20
5.3988957772
 10
10.0584276828
 20
5.3749044213
 10
10.059407211
 20
5.35572548
 10
10.0603876863
 20
5.3416755803
 10
10.0613651644
 20
5.3331364595
  0
LWPOLYLINE
  5
5AE
100
AcDbEntity
  8
0
100
AcDbPolyline
 62
7
  6
CONTINUOUS
 90
9
 70
0
 10
10.0525033949
 20
5.6393852625
 10
10.0515194064
 20
5.6736281696
 10
10.0505230574
 20
5.7056111191
 10
10.0495265218
 20
5.7340887294
 10
10.0485424435
 20
5.7580615754
 10
10.0475626265
 20
5.7772463305
 10
10.0465797523
 20
5.791323382
 10
10.0456030585
 20
5.7998435768
 10
10.0449143863
 20
5.8024565216
  0
LWPOLYLINE
  5
5AF
100
AcDbEntity
  8
0
100
AcDbPolyline
 62
7
  6
CONTINUOUS
 90
9
 70
0
 10
9.9345828495
 20
5.6325507841
 10
9.9335809288
 20
5.6678178646
 10
9.9325753553
 20
5.7006129785
 10
9.9315748602
 20
5.7298228308
 10
9.9305734115
 20
5.7548988924
 10
9.9295673501
 20
5.775253811
 10
9.928547269
 20
5.790407179
 10
9.9275257853
 20
5.7996474988
 10
9.9268041501
 20
5.8024565216
  0
LWPOLYLINE
  5
5B0
100
AcDbEntity
  8
0
100
AcDbPolyline
 62
7
  6
CONTINUOUS
 90
3
 70
0
 10
9.9750375729
 20
5.5186754534
 10
9.9760411996
 20
5.4823928527
 10
9.9770414043
 20
5.4483747321
  0
LINE
  5
5B1
100
AcDbEntity
  8
0
100
AcDbLine
 62
7
  6
CONTINUOUS
 10
9.9324176069
 20
5.6396379452
 11
9.9363702095
 21
5.4930866658
  0
LINE
  5
5B2
100
AcDbEntity
  8
0
100
AcDbLine
 62
7
  6
CONTINUOUS
 10
9.9376359981
 20
5.5186754534
 11
9.9345828495
 21
5.6325507841
  0
LINE
  5
5B3
100
AcDbEntity
  8
0
100
AcDbLine
 62
7
  6
CONTINUOUS
 10
9.9719844243
 20
5.6325507841
 11
9.9750375729
 21
5.5186754534
  0
LINE
  5
5B4
100
AcDbEntity
  8
0
100
AcDbLine
 62
7
  6
CONTINUOUS
 10
9.9777029989
 20
5.4932942879
 11
9.9737654814
 21
5.6393047889
  0
LINE
  5
5B5
100
AcDbEntity
  8
0
100
AcDbLine
 62
7
  6
CONTINUOUS
 10
10.0111670563
 20
5.6393047889
 11
10.0151045737
 21
5.4932942879
  0
LINE
  5
5B6
100
AcDbEntity
  8
0
100
AcDbLine
 62
7
  6
CONTINUOUS
 10
10.0170621707
 20
5.4936853461
 11
10.013144057
 21
5.6390000008
  0
LINE
  5
5B7
100
AcDbEntity
  8
0
100
AcDbLine
 62
7
  6
CONTINUOUS
 10
10.0505456318
 20
5.6390000008
 11
10.0544637455
 21
5.4936853461
  0
LINE
  5
5B8
100
AcDbEntity
  8
0
100
AcDbLine
 62
7
  6
CONTINUOUS
 10
10.0564241973
 20
5.4939741892
 11
10.0525033949
 21
5.6393852625
  0
LWPOLYLINE
  5
5B9
100
AcDbEntity
  8
0
100
AcDbPolyline
 62
7
  6
CONTINUOUS
 90
8
 70
0
 10
10.0793785685
 20
5.6566650392
 10
10.0787173662
 20
5.6888853442
 10
10.0780566521
 20
5.7178843702
 10
10.0773964531
 20
5.742846115
 10
10.0767367665
 20
5.7630659603
 10
10.0760775604
 20
5.7779692284
 10
10.0754188537
 20
5.7871250319
 10
10.0748230635
 20
5.7902256909
  0
LINE
  5
5BA
100
AcDbEntity
  8
0
100
AcDbLine
 62
7
  6
CONTINUOUS
 10
10.0820282809
 20
5.5143838692
 11
10.0793785685
 21
5.6566650392
  0
LINE
  5
5BB
100
AcDbEntity
  8
0
100
AcDbLine
 62
7
  6
CONTINUOUS
 10
10.0820282809
 20
5.783020372
 11
10.0820282809
 21
5.3606661438
  0
LINE
  5
5BC
100
AcDbEntity
  8
0
100
AcDbLine
 62
7
  6
CONTINUOUS
 10
10.1213983596
 20
5.7702251258
 11
10.1213983596
 21
5.3627448109
  0
LINE
  5
5BD
100
AcDbEntity
  8
0
100
AcDbLine
 62
7
  6
CONTINUOUS
 10
10.0623432415
 20
5.3302644959
 11
10.0623433177
 21
5.3418250616
  0
LINE
  5
5BE
100
AcDbEntity
  8
0
100
AcDbLine
 62
7
  6
CONTINUOUS
 10
10.0032881234
 20
5.8027054408
 11
10.0042686179
 21
5.7998192925
  0
LINE
  5
5BF
100
AcDbEntity
  8
0
100
AcDbLine
 62
7
  6
CONTINUOUS
 10
10.0426582022
 20
5.8027054408
 11
10.0436397469
 21
5.7998131188
  0
LWPOLYLINE
  5
5C0
100
AcDbEntity
  8
0
100
AcDbPolyline
 62
7
  6
CONTINUOUS
 90
8
 70
0
 10
10.0820282809
 20
5.3651646924
 10
10.0809711214
 20
5.3733773395
 10
10.0799139618
 20
5.3870737313
 10
10.0788568023
 20
5.4058649267
 10
10.0777996428
 20
5.4292173055
 10
10.0767424833
 20
5.4564677221
 10
10.0756853238
 20
5.4868423368
 10
10.0746281642
 20
5.5194785911
  0
LWPOLYLINE
  5
5C1
100
AcDbEntity
  8
0
100
AcDbPolyline
 62
7
  6
CONTINUOUS
 90
8
 70
0
 10
9.9845983377
 20
5.3331082396
 10
9.9836128905
 20
5.3417119823
 10
9.9826251045
 20
5.3559037387
 10
9.9816466581
 20
5.3751113099
 10
9.9806668981
 20
5.3990107451
 10
9.9796747889
 20
5.42737246
 10
9.9786828122
 20
5.4592099336
 10
9.9777029989
 20
5.4932942879
  0
LWPOLYLINE
  5
5C2
100
AcDbEntity
  8
0
100
AcDbPolyline
 62
7
  6
CONTINUOUS
 90
8
 70
0
 10
10.0239635896
 20
5.3331364595
 10
10.0229861115
 20
5.3416755803
 10
10.0220056362
 20
5.35572548
 10
10.021026108
 20
5.3749044213
 10
10.0200413026
 20
5.3988957772
 10
10.0190440334
 20
5.4273978812
 10
10.0180469076
 20
5.4594109474
 10
10.0170621707
 20
5.4936853461
  0
LWPOLYLINE
  5
5C3
100
AcDbEntity
  8
0
100
AcDbPolyline
 62
7
  6
CONTINUOUS
 90
8
 70
0
 10
10.0042686179
 20
5.7998192925
 10
10.0052609515
 20
5.791093559
 10
10.0062526559
 20
5.7767570217
 10
10.0072320237
 20
5.7574384994
 10
10.0082084733
 20
5.7335423202
 10
10.0091978625
 20
5.7052029183
 10
10.0101880297
 20
5.6733859892
 10
10.0111670563
 20
5.6393047889
  0
LWPOLYLINE
  5
5C4
100
AcDbEntity
  8
0
100
AcDbPolyline
 62
7
  6
CONTINUOUS
 90
8
 70
0
 10
10.0436397469
 20
5.7998131188
 10
10.0446260014
 20
5.791152196
 10
10.0456053121
 20
5.777055495
 10
10.0465816289
 20
5.75789184
 10
10.04756668
 20
5.7338584524
 10
10.0485640255
 20
5.7053223755
 10
10.0495610668
 20
5.6732865235
 10
10.0505456318
 20
5.6390000008
  0
LWPOLYLINE
  5
5C5
100
AcDbEntity
  8
0
100
AcDbPolyline
 62
7
  6
CONTINUOUS
 90
8
 70
0
 10
9.9255307217
 20
5.7998059921
 10
9.926525343
 20
5.7910403934
 10
9.9275192758
 20
5.776640477
 10
9.928500761
 20
5.7572409108
 10
9.9294800732
 20
5.7332286523
 10
9.9304655183
 20
5.7049643952
 10
9.9314448762
 20
5.6734866961
 10
9.9324176069
 20
5.6396379452
  0
LWPOLYLINE
  5
5C6
100
AcDbEntity
  8
0
100
AcDbPolyline
 62
7
  6
CONTINUOUS
 90
8
 70
0
 10
9.9649273601
 20
5.7996474988
 10
9.9659488438
 20
5.790407179
 10
9.9669689249
 20
5.775253811
 10
9.9679749863
 20
5.7548988924
 10
9.968976435
 20
5.7298228308
 10
9.9699769301
 20
5.7006129785
 10
9.9709825036
 20
5.6678178646
 10
9.9719844243
 20
5.6325507841
  0
LWPOLYLINE
  5
5C7
100
AcDbEntity
  8
02___PRT_ALL_AXES
100
AcDbPolyline
 62
7
  6
CONTINUOUS
 90
6
 70
0
 10
11.9356556296
 20
5.7904733178
 10
11.9772574086
 20
5.8723449413
 10
12.0311271515
 20
5.9467204853
 10
12.0959446077
 20
6.0117771386
 10
12.1701212174
 20
6.0659204793
 10
12.2518390449
 20
6.107823551
  0
LINE
  5
5C8
100
AcDbEntity
  8
0
100
AcDbLine
 62
9
  6
CONTINUOUS
 10
12.3704537402
 20
4.9857763069
 11
12.5851921676
 21
4.9857763069
  0
LWPOLYLINE
  5
5C9
100
AcDbEntity
  8
02___PRT_ALL_AXES
100
AcDbPolyline
 62
7
  6
CONTINUOUS
 90
3
 70
0
 10
12.2518390449
 20
5.0251463857
 10
12.1701212174
 20
5.0670494574
 10
12.0959446077
 20
5.1211927981
  0
LINE
  5
5CA
100
AcDbEntity
  8
02___PRT_ALL_AXES
100
AcDbLine
 62
7
  6
CONTINUOUS
 10
12.0959446077
 20
5.1211927981
 11
12.0311271515
 21
5.1862494514
  0
LWPOLYLINE
  5
5CB
100
AcDbEntity
  8
02___PRT_ALL_AXES
100
AcDbPolyline
 62
7
  6
CONTINUOUS
 90
3
 70
0
 10
12.0311271515
 20
5.1862494514
 10
11.9772574086
 20
5.2606249954
 10
11.9356556296
 20
5.342496619
  0
LWPOLYLINE
  5
5CC
100
AcDbEntity
  8
02___PRT_ALL_AXES
100
AcDbPolyline
 62
7
  6
CONTINUOUS
 90
6
 70
0
 10
11.9356556296
 20
5.342496619
 10
11.9073413996
 20
5.4298577953
 10
11.8930086496
 20
5.5205674587
 10
11.8930086496
 20
5.612402478
 10
11.9073413996
 20
5.7031121414
 10
11.9356556296
 20
5.7904733178
  0
LINE
  5
5CD
100
AcDbEntity
  8
02___PRT_ALL_AXES
100
AcDbLine
 62
7
  6
CONTINUOUS
 10
12.2518390449
 20
5.0251463857
 11
12.3741255744
 21
5.0251463857
  0
LINE
  5
5CE
100
AcDbEntity
  8
0
100
AcDbLine
 62
7
  6
CONTINUOUS
 10
12.3741255744
 20
5.0251463857
 11
12.5815203334
 21
5.0251463857
  0
LINE
  5
5CF
100
AcDbEntity
  8
02___PRT_ALL_AXES
100
AcDbLine
 62
7
  6
CONTINUOUS
 10
12.5815203334
 20
5.0251463857
 11
12.7038068629
 21
5.0251463857
  0
LINE
  5
5D0
100
AcDbEntity
  8
0
100
AcDbLine
 62
9
  6
CONTINUOUS
 10
12.3779322889
 20
5.0645164644
 11
12.5777136189
 21
5.0645164644
  0
LWPOLYLINE
  5
5D1
100
AcDbEntity
  8
0
100
AcDbPolyline
 62
7
  6
CONTINUOUS
 90
19
 70
0
 10
12.4887380869
 20
5.1253268399
 10
12.4144345708
 20
5.1331506378
 10
12.3430810164
 20
5.153301072
 10
12.2763747152
 20
5.185194218
 10
12.2166001374
 20
5.2276045822
 10
12.1649187522
 20
5.2796408221
 10
12.1233197103
 20
5.3392089456
 10
12.0927770216
 20
5.4045401524
 10
12.0739517531
 20
5.4740910152
 10
12.067478541
 20
5.5449759533
 10
12.0733168023
 20
5.6157211118
 10
12.0912235303
 20
5.6840017401
 10
12.1203538764
 20
5.7474179447
 10
12.16008294
 20
5.8048381627
 10
12.2087162447
 20
5.8539407275
 10
12.264696791
 20
5.8934824795
 10
12.3266125041
 20
5.9225631328
 10
12.3918298115
 20
5.9401181664
 10
12.4590344343
 20
5.9459413627
  0
LWPOLYLINE
  5
5D2
100
AcDbEntity
  8
0
100
AcDbPolyline
 62
7
  6
CONTINUOUS
 90
16
 70
0
 10
12.2780487969
 20
5.6566650392
 10
12.2952014989
 20
5.6888853442
 10
12.3175057159
 20
5.7178843702
 10
12.3443623427
 20
5.742846115
 10
12.3750458167
 20
5.7630659603
 10
12.4087249928
 20
5.7779692284
 10
12.4444819411
 20
5.7871250319
 10
12.4813411539
 20
5.7902604665
 10
12.5182962401
 20
5.7872668093
 10
12.5543328613
 20
5.7782028423
 10
12.5884588862
 20
5.7632947147
 10
12.6197327018
 20
5.7429298729
 10
12.647291321
 20
5.7176441365
 10
12.6703695512
 20
5.6881094441
 10
12.6883227801
 20
5.655114839
 10
12.700644509
 20
5.6195448795
  0
LWPOLYLINE
  5
5D3
100
AcDbEntity
  8
0
100
AcDbPolyline
 62
7
  6
CONTINUOUS
 90
8
 70
0
 10
12.4757608371
 20
5.3610697322
 10
12.506110633
 20
5.3614045602
 10
12.5362913993
 20
5.3662283354
 10
12.5655181793
 20
5.3754464176
 10
12.5933111193
 20
5.3889488458
 10
12.6189321261
 20
5.4064295048
 10
12.6418663165
 20
5.4275743623
 10
12.6616101566
 20
5.4519865487
  0
LINE
  5
5D4
100
AcDbEntity
  8
0
100
AcDbLine
 62
7
  6
CONTINUOUS
 10
12.4459404909
 20
5.3651867663
 11
12.4757608371
 21
5.3610697322
  0
LWPOLYLINE
  5
5D5
100
AcDbEntity
  8
0
100
AcDbPolyline
 62
7
  6
CONTINUOUS
 90
10
 70
0
 10
12.4048295439
 20
5.3418250616
 10
12.4386781275
 20
5.335727283
 10
12.4728183801
 20
5.33465587
 10
12.5065192207
 20
5.3385782803
 10
12.5390451838
 20
5.3473524417
 10
12.5697001886
 20
5.3607295449
 10
12.5978346491
 20
5.3783608818
 10
12.6228601792
 20
5.3998064148
 10
12.6442622206
 20
5.4245452717
 10
12.6616101566
 20
5.4519865487
  0
LWPOLYLINE
  5
5D6
100
AcDbEntity
  8
0
100
AcDbPolyline
 62
7
  6
CONTINUOUS
 90
10
 70
0
 10
12.2676489796
 20
5.5143838692
 10
12.2784385123
 20
5.4860175582
 10
12.2930104899
 20
5.4596234316
 10
12.3106399297
 20
5.43614719
 10
12.3300351213
 20
5.4164921439
 10
12.3506897992
 20
5.400330298
 10
12.3725428855
 20
5.3872263819
 10
12.3958483181
 20
5.3768939647
 10
12.420472959
 20
5.3694629609
 10
12.4459404909
 20
5.3651867663
  0
LWPOLYLINE
  5
5D7
100
AcDbEntity
  8
0
100
AcDbPolyline
 62
7
  6
CONTINUOUS
 90
5
 70
0
 10
12.2676489796
 20
5.5143838692
 10
12.2612520281
 20
5.5499832302
 10
12.2608584935
 20
5.5862334939
 10
12.2665020402
 20
5.6221267825
 10
12.2780487969
 20
5.6566650392
  0
LINE
  5
5D8
100
AcDbEntity
  8
0
100
AcDbLine
 62
7
  6
CONTINUOUS
 10
12.3734119275
 20
6.1153681601
 11
12.3779322889
 21
6.0684534723
  0
LINE
  5
5D9
100
AcDbEntity
  8
0
100
AcDbLine
 62
7
  6
CONTINUOUS
 10
12.3704537402
 20
6.1471936298
 11
12.3734119275
 21
6.1153681601
  0
LINE
  5
5DA
100
AcDbEntity
  8
0
100
AcDbLine
 62
7
  6
CONTINUOUS
 10
12.3704537402
 20
4.9857763069
 11
12.3743095917
 21
5.0270834071
  0
LWPOLYLINE
  5
5DB
100
AcDbEntity
  8
0
100
AcDbPolyline
 62
7
  6
CONTINUOUS
 90
3
 70
0
 10
12.3743095917
 20
5.0270834071
 10
12.3767437797
 20
5.0523826555
 10
12.3779322889
 20
5.0645164644
  0
LINE
  5
5DC
100
AcDbEntity
  8
AXIS_COSMETIC_THREADS
100
AcDbLine
 62
7
  6
CONTINUOUS
 10
12.5432442506
 20
5.4676570521
 11
12.5753362912
 21
5.4355650115
  0
LINE
  5
5DD
100
AcDbEntity
  8
0
100
AcDbLine
 62
7
  6
CONTINUOUS
 10
12.5777136189
 20
5.0645164644
 11
12.5817039138
 21
5.0232105334
  0
LWPOLYLINE
  5
5DE
100
AcDbEntity
  8
0
100
AcDbPolyline
 62
7
  6
CONTINUOUS
 90
3
 70
0
 10
12.5817039138
 20
5.0232105334
 10
12.584073515
 20
4.9979157964
 10
12.5851921676
 20
4.9857763069
  0
LINE
  5
5DF
100
AcDbEntity
  8
0
100
AcDbLine
 62
7
  6
CONTINUOUS
 10
12.5851921676
 20
6.1471936298
 11
12.5813363161
 21
6.1058865296
  0
LWPOLYLINE
  5
5E0
100
AcDbEntity
  8
0
100
AcDbPolyline
 62
7
  6
CONTINUOUS
 90
3
 70
0
 10
12.5813363161
 20
6.1058865296
 10
12.5789021281
 20
6.0805872812
 10
12.5777136189
 20
6.0684534723
  0
LINE
  5
5E1
100
AcDbEntity
  8
AXIS_COSMETIC_THREADS
100
AcDbLine
 62
7
  6
CONTINUOUS
 10
12.6088436449
 20
5.468870897
 11
12.5766508702
 21
5.5010636717
  0
LINE
  5
5E2
100
AcDbEntity
  8
AXIS_COSMETIC_THREADS
100
AcDbLine
 62
7
  6
CONTINUOUS
 10
12.5766508702
 20
5.5010636717
 11
12.5432442506
 21
5.4676570521
  0
LWPOLYLINE
  5
5E3
100
AcDbEntity
  8
0
100
AcDbPolyline
 62
7
  6
CONTINUOUS
 90
12
 70
0
 10
12.700644509
 20
5.6195448795
 10
12.7069800548
 20
5.5823546311
 10
12.7071354926
 20
5.5445474743
 10
12.7010845981
 20
5.5071466459
 10
12.6889696752
 20
5.4711655538
 10
12.6710961226
 20
5.4375788734
 10
12.6479258019
 20
5.4073010329
 10
12.6200635951
 20
5.3811583708
 10
12.5882420812
 20
5.359868306
 10
12.5533002945
 20
5.3440189492
 10
12.5161653585
 20
5.3340552267
 10
12.4778235605
 20
5.3302644578
  0
LWPOLYLINE
  5
5E4
100
AcDbEntity
  8
0
100
AcDbPolyline
 62
7
  6
CONTINUOUS
 90
22
 70
0
 10
12.4778229539
 20
5.9464062282
 10
12.5233921928
 20
5.9460332467
 10
12.5687763343
 20
5.9401982307
 10
12.6131523413
 20
5.9290054232
 10
12.6556269626
 20
5.9127657107
 10
12.696304851
 20
5.8914429493
 10
12.7359911977
 20
5.8641051751
 10
12.7748141367
 20
5.8293097808
 10
12.8121658025
 20
5.7850602074
 10
12.8454307237
 20
5.7306105239
 10
12.8706400344
 20
5.668500003
 10
12.8854042219
 20
5.6021012939
 10
12.8889321851
 20
5.5335982901
 10
12.8809837097
 20
5.4651579836
 10
12.8616405359
 20
5.3984855162
 10
12.8312090797
 20
5.3353620069
 10
12.7910232485
 20
5.27847796
 10
12.7424881764
 20
5.2292656862
 10
12.6864559288
 20
5.1883730155
 10
12.6246330613
 20
5.1570056187
 10
12.5580889634
 20
5.1357471246
 10
12.4887380869
 20
5.1253268399
  0
LINE
  5
5E5
100
AcDbEntity
  8
0
100
AcDbLine
 62
9
  6
CONTINUOUS
 10
12.5777136189
 20
6.0684534723
 11
12.3779322889
 21
6.0684534723
  0
LINE
  5
5E6
100
AcDbEntity
  8
02___PRT_ALL_AXES
100
AcDbLine
 62
7
  6
CONTINUOUS
 10
12.7038068629
 20
6.107823551
 11
12.5815203334
 21
6.107823551
  0
LINE
  5
5E7
100
AcDbEntity
  8
0
100
AcDbLine
 62
7
  6
CONTINUOUS
 10
12.5815203334
 20
6.107823551
 11
12.3741255744
 21
6.107823551
  0
LINE
  5
5E8
100
AcDbEntity
  8
02___PRT_ALL_AXES
100
AcDbLine
 62
7
  6
CONTINUOUS
 10
12.3741255744
 20
6.107823551
 11
12.2518390449
 21
6.107823551
  0
LWPOLYLINE
  5
5E9
100
AcDbEntity
  8
02___PRT_ALL_AXES
100
AcDbPolyline
 62
7
  6
CONTINUOUS
 90
6
 70
0
 10
13.0626372582
 20
5.5205674587
 10
13.0483045082
 20
5.4298577953
 10
13.0199902782
 20
5.342496619
 10
12.9783884992
 20
5.2606249954
 10
12.9245187563
 20
5.1862494514
 10
12.8597013001
 20
5.1211927981
  0
LWPOLYLINE
  5
5EA
100
AcDbEntity
  8
02___PRT_ALL_AXES
100
AcDbPolyline
 62
7
  6
CONTINUOUS
 90
3
 70
0
 10
12.8597013001
 20
5.1211927981
 10
12.7855246904
 20
5.0670494574
 10
12.7038068629
 20
5.0251463857
  0
LINE
  5
5EB
100
AcDbEntity
  8
0
100
AcDbLine
 62
9
  6
CONTINUOUS
 10
12.5851921676
 20
6.1471936298
 11
12.3704537402
 21
6.1471936298
  0
LWPOLYLINE
  5
5EC
100
AcDbEntity
  8
02___PRT_ALL_AXES
100
AcDbPolyline
 62
7
  6
CONTINUOUS
 90
3
 70
0
 10
12.7038068629
 20
6.107823551
 10
12.7855246904
 20
6.0659204793
 10
12.8597013001
 20
6.0117771386
  0
LWPOLYLINE
  5
5ED
100
AcDbEntity
  8
02___PRT_ALL_AXES
100
AcDbPolyline
 62
7
  6
CONTINUOUS
 90
5
 70
0
 10
12.8597013001
 20
6.0117771386
 10
12.9245187563
 20
5.9467204853
 10
12.9783884992
 20
5.8723449413
 10
13.0199902782
 20
5.7904733178
 10
13.0483045082
 20
5.7031121414
  0
LWPOLYLINE
  5
5EE
100
AcDbEntity
  8
02___PRT_ALL_AXES
100
AcDbPolyline
 62
7
  6
CONTINUOUS
 90
3
 70
0
 10
13.0483045082
 20
5.7031121414
 10
13.0626372582
 20
5.612402478
 10
13.0626372582
 20
5.5205674587
  0
LWPOLYLINE
  5
5EF
100
AcDbEntity
  8
0
100
AcDbPolyline
 62
7
  6
CONTINUOUS
 90
8
 70
0
 10
15.2227808821
 20
7.1658602158
 10
15.2089372267
 20
7.1622723889
 10
15.1944535391
 20
7.1598592025
 10
15.1799204946
 20
7.1586657113
 10
15.1661141511
 20
7.1586126363
 10
15.1530975376
 20
7.1595296873
 10
15.140738358
 20
7.161315549
 10
15.1364067823
 20
7.1622800138
  0
LWPOLYLINE
  5
5F0
100
AcDbEntity
  8
02___PRT_ALL_AXES
100
AcDbPolyline
 62
7
  6
CONTINUOUS
 90
14
 70
0
 10
15.0553997105
 20
7.2243119816
 10
15.0991063572
 20
7.2167863695
 10
15.1444743402
 20
7.2132985828
 10
15.1903917716
 20
7.2139488381
 10
15.2357332974
 20
7.218735936
 10
15.2793876783
 20
7.2275572907
 10
15.3202850235
 20
7.2402114438
 10
15.3574230125
 20
7.2564030021
 10
15.3898914597
 20
7.2757498766
 10
15.4168946218
 20
7.2977926475
 10
15.4377706996
 20
7.3220058233
 10
15.4520080579
 20
7.3478107196
 10
15.4592577647
 20
7.374589642
 10
15.4602003817
 20
7.3884626052
  0
LWPOLYLINE
  5
5F1
100
AcDbEntity
  8
02___PRT_ALL_AXES
100
AcDbPolyline
 62
7
  6
CONTINUOUS
 90
13
 70
0
 10
15.0553997105
 20
7.227325647
 10
15.0991063572
 20
7.219800035
 10
15.1444743402
 20
7.2163122482
 10
15.1903917716
 20
7.2169625035
 10
15.2357332974
 20
7.2217496014
 10
15.2793876783
 20
7.2305709561
 10
15.3202850235
 20
7.2432251093
 10
15.3574230125
 20
7.2594166675
 10
15.3898914597
 20
7.278763542
 10
15.4168946218
 20
7.3008063129
 10
15.4377706996
 20
7.3250194887
 10
15.4520080579
 20
7.350824385
 10
15.4592577647
 20
7.3776033075
  0
LWPOLYLINE
  5
5F2
100
AcDbEntity
  8
02___PRT_ALL_AXES
100
AcDbPolyline
 62
7
  6
CONTINUOUS
 90
11
 70
0
 10
15.0553997105
 20
7.248421305
 10
15.0991063572
 20
7.2408956929
 10
15.1444743402
 20
7.2374079062
 10
15.1903917716
 20
7.2380581614
 10
15.2357332974
 20
7.2428452594
 10
15.2793876783
 20
7.251666614
 10
15.3202850235
 20
7.2643207672
 10
15.3574230125
 20
7.2805123254
 10
15.3898914597
 20
7.2998591999
 10
15.4168946218
 20
7.3219019708
 10
15.4377706996
 20
7.3461151466
  0
LWPOLYLINE
  5
5F3
100
AcDbEntity
  8
02___PRT_ALL_AXES
100
AcDbPolyline
 62
7
  6
CONTINUOUS
 90
11
 70
0
 10
15.0553997105
 20
7.2514349704
 10
15.0991063572
 20
7.2439093583
 10
15.1444743402
 20
7.2404215716
 10
15.1903917716
 20
7.2410718268
 10
15.2357332974
 20
7.2458589248
 10
15.2793876783
 20
7.2546802795
 10
15.3202850235
 20
7.2673344326
 10
15.3574230125
 20
7.2835259908
 10
15.3898914597
 20
7.3028728654
 10
15.4168946218
 20
7.3249156363
 10
15.4377706996
 20
7.349128812
  0
LWPOLYLINE
  5
5F4
100
AcDbEntity
  8
02___PRT_ALL_AXES
100
AcDbPolyline
 62
7
  6
CONTINUOUS
 90
3
 70
0
 10
15.0928150965
 20
7.2395021932
 10
15.0508866294
 20
7.2478065394
 10
15.0121647133
 20
7.2598473315
  0
LWPOLYLINE
  5
5F5
100
AcDbEntity
  8
0
100
AcDbPolyline
 62
7
  6
CONTINUOUS
 90
3
 70
0
 10
15.0990348568
 20
7.1904247098
 10
15.0561117342
 20
7.1992297521
 10
15.0165834655
 20
7.2119972291
  0
LWPOLYLINE
  5
5F6
100
AcDbEntity
  8
0
100
AcDbPolyline
 62
7
  6
CONTINUOUS
 90
11
 70
0
 10
15.1132715291
 20
7.1666749121
 10
15.1303772513
 20
7.1629846614
 10
15.1482216521
 20
7.1608992564
 10
15.166697102
 20
7.1604437309
 10
15.1854054305
 20
7.1616932821
 10
15.2036417473
 20
7.1646418378
 10
15.2207418108
 20
7.1691582824
 10
15.2364697773
 20
7.1751467024
 10
15.2505637364
 20
7.182523116
 10
15.262515678
 20
7.1910253369
 10
15.2690152009
 20
7.1974225425
  0
LINE
  5
5F7
100
AcDbEntity
  8
0
100
AcDbLine
 62
7
  6
CONTINUOUS
 10
15.1300959859
 20
7.1638349136
 11
15.1130554475
 21
7.1675370286
  0
LWPOLYLINE
  5
5F8
100
AcDbEntity
  8
02___PRT_ALL_AXES
100
AcDbPolyline
 62
7
  6
CONTINUOUS
 90
5
 70
0
 10
15.0553997105
 20
7.2243119816
 10
15.0449174948
 20
7.2276425802
 10
15.0339368185
 20
7.2314657833
 10
15.0228979466
 20
7.2356729957
 10
15.0121647133
 20
7.2401302369
  0
LINE
  5
5F9
100
AcDbEntity
  8
0
100
AcDbLine
 62
7
  6
CONTINUOUS
 10
15.1130554475
 20
7.1675370286
 11
15.0973761075
 21
7.1727042212
  0
LWPOLYLINE
  5
5FA
100
AcDbEntity
  8
0
100
AcDbPolyline
 62
9
  6
CONTINUOUS
 90
14
 70
0
 10
15.0121647133
 20
7.2211350097
 10
15.0488670165
 20
7.2090207851
 10
15.0883230265
 20
7.2002942256
 10
15.1296295771
 20
7.1951521106
 10
15.1718209724
 20
7.193716346
 10
15.2138965326
 20
7.1960221533
 10
15.2548647971
 20
7.2020149545
 10
15.293763077
 20
7.211553496
 10
15.3296786946
 20
7.2244139314
 10
15.3617663138
 20
7.2402937692
 10
15.3892710419
 20
7.2588194758
 10
15.4115458753
 20
7.2795551933
 10
15.4280669594
 20
7.3020129633
 10
15.4358761158
 20
7.319808385
  0
LWPOLYLINE
  5
5FB
100
AcDbEntity
  8
0
100
AcDbPolyline
 62
7
  6
CONTINUOUS
 90
4
 70
0
 10
15.1132715291
 20
7.1666749121
 10
15.0991483164
 20
7.1714550743
 10
15.086699064
 20
7.1773186958
 10
15.0850235965
 20
7.1782639525
  0
LWPOLYLINE
  5
5FC
100
AcDbEntity
  8
02___PRT_ALL_AXES
100
AcDbPolyline
 62
7
  6
CONTINUOUS
 90
12
 70
0
 10
15.0553997105
 20
7.2725306283
 10
15.0991063572
 20
7.2650050162
 10
15.1444743402
 20
7.2615172295
 10
15.1903917716
 20
7.2621674848
 10
15.2357332974
 20
7.2669545827
 10
15.2793876783
 20
7.2757759374
 10
15.3202850235
 20
7.2884300905
 10
15.3574230125
 20
7.3046216487
 10
15.3898914597
 20
7.3239685233
 10
15.4168946218
 20
7.3460112942
 10
15.4377706996
 20
7.3702244699
 10
15.4520080579
 20
7.3960293663
  0
LWPOLYLINE
  5
5FD
100
AcDbEntity
  8
02___PRT_ALL_AXES
100
AcDbPolyline
 62
7
  6
CONTINUOUS
 90
12
 70
0
 10
15.0553997105
 20
7.2755442937
 10
15.0991063572
 20
7.2680186816
 10
15.1444743402
 20
7.2645308949
 10
15.1903917716
 20
7.2651811502
 10
15.2357332974
 20
7.2699682481
 10
15.2793876783
 20
7.2787896028
 10
15.3202850235
 20
7.2914437559
 10
15.3574230125
 20
7.3076353142
 10
15.3898914597
 20
7.3269821887
 10
15.4168946218
 20
7.3490249596
 10
15.4377706996
 20
7.3732381354
 10
15.4520080579
 20
7.3990430317
  0
LWPOLYLINE
  5
5FE
100
AcDbEntity
  8
02___PRT_ALL_AXES
100
AcDbPolyline
 62
7
  6
CONTINUOUS
 90
11
 70
0
 10
15.0553997105
 20
7.2966399516
 10
15.0991063572
 20
7.2891143396
 10
15.1444743402
 20
7.2856265528
 10
15.1903917716
 20
7.2862768081
 10
15.2357332974
 20
7.291063906
 10
15.2793876783
 20
7.2998852607
 10
15.3202850235
 20
7.3125394139
 10
15.3574230125
 20
7.3287309721
 10
15.3898914597
 20
7.3480778466
 10
15.4168946218
 20
7.3701206175
 10
15.4377706996
 20
7.3943337933
  0
LWPOLYLINE
  5
5FF
100
AcDbEntity
  8
02___PRT_ALL_AXES
100
AcDbPolyline
 62
7
  6
CONTINUOUS
 90
12
 70
0
 10
15.0553997105
 20
7.2996536171
 10
15.0991063572
 20
7.292128005
 10
15.1444743402
 20
7.2886402183
 10
15.1903917716
 20
7.2892904735
 10
15.2357332974
 20
7.2940775715
 10
15.2793876783
 20
7.3028989261
 10
15.3202850235
 20
7.3155530793
 10
15.3574230125
 20
7.3317446375
 10
15.3898914597
 20
7.351091512
 10
15.4168946218
 20
7.3731342829
 10
15.4377706996
 20
7.3973474587
 10
15.4520080579
 20
7.423152355
  0
LWPOLYLINE
  5
600
100
AcDbEntity
  8
02___PRT_ALL_AXES
100
AcDbPolyline
 62
7
  6
CONTINUOUS
 90
11
 70
0
 10
15.0553997105
 20
7.320749275
 10
15.0991063572
 20
7.3132236629
 10
15.1444743402
 20
7.3097358762
 10
15.1903917716
 20
7.3103861314
 10
15.2357332974
 20
7.3151732294
 10
15.2793876783
 20
7.3239945841
 10
15.3202850235
 20
7.3366487372
 10
15.3574230125
 20
7.3528402954
 10
15.3898914597
 20
7.37218717
 10
15.4168946218
 20
7.3942299409
 10
15.4377706996
 20
7.4184431166
  0
LWPOLYLINE
  5
601
100
AcDbEntity
  8
02___PRT_ALL_AXES
100
AcDbPolyline
 62
7
  6
CONTINUOUS
 90
12
 70
0
 10
15.0553997105
 20
7.3237629404
 10
15.0991063572
 20
7.3162373283
 10
15.1444743402
 20
7.3127495416
 10
15.1903917716
 20
7.3133997969
 10
15.2357332974
 20
7.3181868948
 10
15.2793876783
 20
7.3270082495
 10
15.3202850235
 20
7.3396624026
 10
15.3574230125
 20
7.3558539608
 10
15.3898914597
 20
7.3752008354
 10
15.4168946218
 20
7.3972436063
 10
15.4377706996
 20
7.421456782
 10
15.4520080579
 20
7.4472616784
  0
LWPOLYLINE
  5
602
100
AcDbEntity
  8
02___PRT_ALL_AXES
100
AcDbPolyline
 62
7
  6
CONTINUOUS
 90
11
 70
0
 10
15.0553997105
 20
7.3448585983
 10
15.0991063572
 20
7.3373329863
 10
15.1444743402
 20
7.3338451995
 10
15.1903917716
 20
7.3344954548
 10
15.2357332974
 20
7.3392825527
 10
15.2793876783
 20
7.3481039074
 10
15.3202850235
 20
7.3607580605
 10
15.3574230125
 20
7.3769496188
 10
15.3898914597
 20
7.3962964933
 10
15.4168946218
 20
7.4183392642
 10
15.4377706996
 20
7.44255244
  0
LWPOLYLINE
  5
603
100
AcDbEntity
  8
02___PRT_ALL_AXES
100
AcDbPolyline
 62
7
  6
CONTINUOUS
 90
12
 70
0
 10
15.0553997105
 20
7.3478722637
 10
15.0991063572
 20
7.3403466517
 10
15.1444743402
 20
7.3368588649
 10
15.1903917716
 20
7.3375091202
 10
15.2357332974
 20
7.3422962181
 10
15.2793876783
 20
7.3511175728
 10
15.3202850235
 20
7.363771726
 10
15.3574230125
 20
7.3799632842
 10
15.3898914597
 20
7.3993101587
 10
15.4168946218
 20
7.4213529296
 10
15.4377706996
 20
7.4455661054
 10
15.4520080579
 20
7.4713710017
  0
LINE
  5
604
100
AcDbEntity
  8
02___PRT_ALL_AXES
100
AcDbLine
 62
7
  6
CONTINUOUS
 10
15.0939071841
 20
7.2875620586
 11
15.051563889
 21
7.295854768
  0
LINE
  5
605
100
AcDbEntity
  8
02___PRT_ALL_AXES
100
AcDbLine
 62
7
  6
CONTINUOUS
 10
15.0936069193
 20
7.3117147618
 11
15.051372314
 21
7.3200121682
  0
LINE
  5
606
100
AcDbEntity
  8
02___PRT_ALL_AXES
100
AcDbLine
 62
7
  6
CONTINUOUS
 10
15.0931573086
 20
7.263561463
 11
15.0512890081
 21
7.2718144593
  0
LWPOLYLINE
  5
607
100
AcDbEntity
  8
02___PRT_ALL_AXES
100
AcDbPolyline
 62
7
  6
CONTINUOUS
 90
3
 70
0
 10
15.092553154
 20
7.3359779837
 10
15.0509710793
 20
7.3442225133
 10
15.0121647133
 20
7.3562846248
  0
LINE
  5
608
100
AcDbEntity
  8
02___PRT_ALL_AXES
100
AcDbLine
 62
7
  6
CONTINUOUS
 10
15.051563889
 20
7.295854768
 11
15.0121647133
 21
7.3080659782
  0
LINE
  5
609
100
AcDbEntity
  8
02___PRT_ALL_AXES
100
AcDbLine
 62
7
  6
CONTINUOUS
 10
15.0512890081
 20
7.2718144593
 11
15.0121647133
 21
7.2839566548
  0
LINE
  5
60A
100
AcDbEntity
  8
02___PRT_ALL_AXES
100
AcDbLine
 62
7
  6
CONTINUOUS
 10
15.051372314
 20
7.3200121682
 11
15.0121647133
 21
7.3321753015
  0
LWPOLYLINE
  5
60B
100
AcDbEntity
  8
02___PRT_ALL_AXES
100
AcDbPolyline
 62
7
  6
CONTINUOUS
 90
4
 70
0
 10
15.0553997105
 20
7.320749275
 10
15.0450311732
 20
7.3240421147
 10
15.0341840807
 20
7.3278130839
 10
15.0231394408
 20
7.3320142186
  0
LWPOLYLINE
  5
60C
100
AcDbEntity
  8
02___PRT_ALL_AXES
100
AcDbPolyline
 62
7
  6
CONTINUOUS
 90
3
 70
0
 10
15.0553997105
 20
7.248421305
 10
15.0409125523
 20
7.2531057031
 10
15.026494379
 20
7.2583704418
  0
LWPOLYLINE
  5
60D
100
AcDbEntity
  8
02___PRT_ALL_AXES
100
AcDbPolyline
 62
7
  6
CONTINUOUS
 90
4
 70
0
 10
14.8956042907
 20
7.316546622
 10
14.9100890964
 20
7.3118630326
 10
14.9245070661
 20
7.3065984743
 10
14.9388392878
 20
7.3007283667
  0
LWPOLYLINE
  5
60E
100
AcDbEntity
  8
02___PRT_ALL_AXES
100
AcDbPolyline
 62
7
  6
CONTINUOUS
 90
3
 70
0
 10
15.0553997105
 20
7.2725306283
 10
15.0409125523
 20
7.2772150265
 10
15.026494379
 20
7.2824797651
  0
LWPOLYLINE
  5
60F
100
AcDbEntity
  8
02___PRT_ALL_AXES
100
AcDbPolyline
 62
7
  6
CONTINUOUS
 90
4
 70
0
 10
14.8956042907
 20
7.3406559453
 10
14.9100890964
 20
7.3359723559
 10
14.9245070661
 20
7.3307077976
 10
14.9388392878
 20
7.3248376901
  0
LWPOLYLINE
  5
610
100
AcDbEntity
  8
02___PRT_ALL_AXES
100
AcDbPolyline
 62
7
  6
CONTINUOUS
 90
3
 70
0
 10
15.0553997105
 20
7.2966399516
 10
15.0409125523
 20
7.3013243498
 10
15.026494379
 20
7.3065890885
  0
LWPOLYLINE
  5
611
100
AcDbEntity
  8
02___PRT_ALL_AXES
100
AcDbPolyline
 62
7
  6
CONTINUOUS
 90
4
 70
0
 10
14.8956042907
 20
7.3647652687
 10
14.9100920614
 20
7.36008066
 10
14.9245097313
 20
7.3548160896
 10
14.9388392878
 20
7.3489470134
  0
LINE
  5
612
100
AcDbEntity
  8
02___PRT_ALL_AXES
100
AcDbLine
 62
7
  6
CONTINUOUS
 10
15.026494379
 20
7.2583704418
 11
15.0121647133
 21
7.2642395602
  0
LINE
  5
613
100
AcDbEntity
  8
02___PRT_ALL_AXES
100
AcDbLine
 62
7
  6
CONTINUOUS
 10
15.026494379
 20
7.2824797651
 11
15.0121647133
 21
7.2883488836
  0
LINE
  5
614
100
AcDbEntity
  8
02___PRT_ALL_AXES
100
AcDbLine
 62
7
  6
CONTINUOUS
 10
15.026494379
 20
7.3065890885
 11
15.0121647133
 21
7.3124582069
  0
LINE
  5
615
100
AcDbEntity
  8
0
100
AcDbLine
 62
7
  6
CONTINUOUS
 10
15.0973761075
 20
7.1727042212
 11
15.0833770939
 21
7.1792146189
  0
LWPOLYLINE
  5
616
100
AcDbEntity
  8
0
100
AcDbPolyline
 62
7
  6
CONTINUOUS
 90
10
 70
0
 10
15.0866364418
 20
7.1929680608
 10
15.0973761075
 20
7.1879734593
 10
15.1130554475
 20
7.1828062667
 10
15.1300959859
 20
7.1791041517
 10
15.1480180489
 20
7.1769865969
 10
15.1664999128
 20
7.1765126265
 10
15.1852236008
 20
7.1777456015
 10
15.2034813732
 20
7.1806808262
 10
15.2206066796
 20
7.1851879761
 10
15.2343204061
 20
7.1903919951
  0
LINE
  5
617
100
AcDbEntity
  8
0
100
AcDbLine
 62
7
  6
CONTINUOUS
 10
15.0158529776
 20
7.2123479112
 11
15.0165828599
 21
7.2119975733
  0
LWPOLYLINE
  5
618
100
AcDbEntity
  8
0
100
AcDbPolyline
 62
7
  6
CONTINUOUS
 90
4
 70
0
 10
15.0833770939
 20
7.1792146189
 10
15.0924969032
 20
7.1744702633
 10
15.1024954131
 20
7.1702698832
 10
15.1132715291
 20
7.1666749121
  0
LINE
  5
619
100
AcDbEntity
  8
0
100
AcDbLine
 62
7
  6
CONTINUOUS
 10
15.0158407675
 20
7.2123549605
 11
14.943317262
 21
7.2542254787
  0
LINE
  5
61A
100
AcDbEntity
  8
0
100
AcDbLine
 62
7
  6
CONTINUOUS
 10
15.0833750013
 20
7.179215796
 11
15.0833768659
 21
7.1792147194
  0
LINE
  5
61B
100
AcDbEntity
  8
0
100
AcDbLine
 62
9
  6
CONTINUOUS
 10
15.0121647133
 20
7.2211350097
 11
14.9388392878
 21
7.2634685061
  0
LINE
  5
61C
100
AcDbEntity
  8
0
100
AcDbLine
 62
7
  6
CONTINUOUS
 10
14.9421350341
 20
7.2550591695
 11
14.9433061442
 21
7.2542318974
  0
LWPOLYLINE
  5
61D
100
AcDbEntity
  8
02___PRT_ALL_AXES
100
AcDbPolyline
 62
7
  6
CONTINUOUS
 90
7
 70
0
 10
15.2428079347
 20
7.3645275331
 10
15.2854877264
 20
7.3738095986
 10
15.325344146
 20
7.3867788573
 10
15.3614283333
 20
7.4031406594
 10
15.3928812338
 20
7.4225195891
 10
15.4189540498
 20
7.4444684021
 10
15.4390260669
 20
7.4684786727
  0
LWPOLYLINE
  5
61E
100
AcDbEntity
  8
02___PRT_ALL_AXES
100
AcDbPolyline
 62
7
  6
CONTINUOUS
 90
8
 70
0
 10
15.2428079347
 20
7.3675411985
 10
15.2854877264
 20
7.3768232641
 10
15.325344146
 20
7.3897925227
 10
15.3614283333
 20
7.4061543248
 10
15.3928812338
 20
7.4255332545
 10
15.4189540498
 20
7.4474820675
 10
15.4390260669
 20
7.4714923382
 10
15.443051253
 20
7.4790474586
  0
LINE
  5
61F
100
AcDbEntity
  8
02___PRT_ALL_AXES
100
AcDbLine
 62
7
  6
CONTINUOUS
 10
15.2357332974
 20
7.3875011994
 11
15.2793876783
 21
7.3963225541
  0
LWPOLYLINE
  5
620
100
AcDbEntity
  8
02___PRT_ALL_AXES
100
AcDbPolyline
 62
7
  6
CONTINUOUS
 90
5
 70
0
 10
15.2692271191
 20
7.3680729778
 10
15.2263783652
 20
7.3598226899
 10
15.1819129456
 20
7.3556829658
 10
15.1375661101
 20
7.3557316336
 10
15.0939105552
 20
7.3598895428
  0
LWPOLYLINE
  5
621
100
AcDbEntity
  8
02___PRT_ALL_AXES
100
AcDbPolyline
 62
7
  6
CONTINUOUS
 90
5
 70
0
 10
15.2382224867
 20
7.3857728746
 10
15.199823392
 20
7.3809461262
 10
15.1605722915
 20
7.3793004305
 10
15.1216912283
 20
7.3808691699
 10
15.0835030475
 20
7.3856258554
  0
LINE
  5
622
100
AcDbEntity
  8
02___PRT_ALL_AXES
100
AcDbLine
 62
7
  6
CONTINUOUS
 10
15.1958452252
 20
7.3619727342
 11
15.2428079347
 21
7.3675411985
  0
LWPOLYLINE
  5
623
100
AcDbEntity
  8
02___PRT_ALL_AXES
100
AcDbPolyline
 62
7
  6
CONTINUOUS
 90
5
 70
0
 10
15.0553997105
 20
7.3689679217
 10
15.1008834009
 20
7.3612258459
 10
15.148115614
 20
7.3578542717
 10
15.1958452252
 20
7.3589590688
 10
15.2428079347
 20
7.3645275331
  0
LWPOLYLINE
  5
624
100
AcDbEntity
  8
02___PRT_ALL_AXES
100
AcDbPolyline
 62
7
  6
CONTINUOUS
 90
4
 70
0
 10
15.0553997105
 20
7.3719815871
 10
15.1008834009
 20
7.3642395113
 10
15.148115614
 20
7.3608679371
 10
15.1958452252
 20
7.3619727342
  0
LWPOLYLINE
  5
625
100
AcDbEntity
  8
02___PRT_ALL_AXES
100
AcDbPolyline
 62
7
  6
CONTINUOUS
 90
5
 70
0
 10
15.0553997105
 20
7.393077245
 10
15.0991063572
 20
7.3855516329
 10
15.1444743402
 20
7.3820638462
 10
15.1903917716
 20
7.3827141015
 10
15.2357332974
 20
7.3875011994
  0
LWPOLYLINE
  5
626
100
AcDbEntity
  8
02___PRT_ALL_AXES
100
AcDbPolyline
 62
7
  6
CONTINUOUS
 90
6
 70
0
 10
15.0553997105
 20
7.3960909104
 10
15.0991063572
 20
7.3885652984
 10
15.1444743402
 20
7.3850775116
 10
15.1903917716
 20
7.3857277669
 10
15.2357332974
 20
7.3905148648
 10
15.2793876783
 20
7.3993362195
  0
LWPOLYLINE
  5
627
100
AcDbEntity
  8
02___PRT_ALL_AXES
100
AcDbPolyline
 62
7
  6
CONTINUOUS
 90
8
 70
0
 10
15.0553997105
 20
7.4171865683
 10
15.0991063572
 20
7.4096609563
 10
15.1444743402
 20
7.4061731695
 10
15.1903917716
 20
7.4068234248
 10
15.2357332974
 20
7.4116105227
 10
15.2793876783
 20
7.4204318774
 10
15.3202850235
 20
7.4330860306
 10
15.3308526283
 20
7.4376933341
  0
LWPOLYLINE
  5
628
100
AcDbEntity
  8
02___PRT_ALL_AXES
100
AcDbPolyline
 62
7
  6
CONTINUOUS
 90
7
 70
0
 10
15.0553997105
 20
7.4202002338
 10
15.0991063572
 20
7.4126746217
 10
15.1444743402
 20
7.409186835
 10
15.1903917716
 20
7.4098370902
 10
15.2357332974
 20
7.4146241882
 10
15.2793876783
 20
7.4234455428
 10
15.3112038588
 20
7.4332898694
  0
LINE
  5
629
100
AcDbEntity
  8
02___PRT_ALL_AXES
100
AcDbLine
 62
7
  6
CONTINUOUS
 10
15.0939105552
 20
7.3598895428
 11
15.0515658819
 21
7.3681822385
  0
LWPOLYLINE
  5
62A
100
AcDbEntity
  8
02___PRT_ALL_AXES
100
AcDbPolyline
 62
7
  6
CONTINUOUS
 90
3
 70
0
 10
15.0924276845
 20
7.4083244503
 10
15.0507208349
 20
7.4166137155
 10
15.0121647133
 20
7.4286125949
  0
LWPOLYLINE
  5
62B
100
AcDbEntity
  8
02___PRT_ALL_AXES
100
AcDbPolyline
 62
7
  6
CONTINUOUS
 90
3
 70
0
 10
15.0835030475
 20
7.3856258554
 10
15.046620128
 20
7.3935655517
 10
15.0121647133
 20
7.4045032715
  0
LWPOLYLINE
  5
62C
100
AcDbEntity
  8
02___PRT_ALL_AXES
100
AcDbPolyline
 62
7
  6
CONTINUOUS
 90
3
 70
0
 10
15.0360746734
 20
7.4297698994
 10
14.9769131257
 20
7.4442482845
 10
14.9211936223
 20
7.4641949858
  0
LINE
  5
62D
100
AcDbEntity
  8
02___PRT_ALL_AXES
100
AcDbLine
 62
7
  6
CONTINUOUS
 10
15.0515658819
 20
7.3681822385
 11
15.0121647133
 21
7.3803939482
  0
LWPOLYLINE
  5
62E
100
AcDbEntity
  8
02___PRT_ALL_AXES
100
AcDbPolyline
 62
7
  6
CONTINUOUS
 90
5
 70
0
 10
14.8956042907
 20
7.4370932387
 10
14.9059480693
 20
7.4338086178
 10
14.9167889001
 20
7.4300407069
 10
14.9278414781
 20
7.425837468
 10
14.9388392878
 20
7.4212749834
  0
LWPOLYLINE
  5
62F
100
AcDbEntity
  8
02___PRT_ALL_AXES
100
AcDbPolyline
 62
7
  6
CONTINUOUS
 90
4
 70
0
 10
14.8956042907
 20
7.388874592
 10
14.9100890964
 20
7.3841910026
 10
14.9245070661
 20
7.3789264443
 10
14.9388392878
 20
7.3730563368
  0
LWPOLYLINE
  5
630
100
AcDbEntity
  8
02___PRT_ALL_AXES
100
AcDbPolyline
 62
7
  6
CONTINUOUS
 90
3
 70
0
 10
15.0553997105
 20
7.3448585983
 10
15.0409125523
 20
7.3495429965
 10
15.026494379
 20
7.3548077352
  0
LWPOLYLINE
  5
631
100
AcDbEntity
  8
02___PRT_ALL_AXES
100
AcDbPolyline
 62
7
  6
CONTINUOUS
 90
4
 70
0
 10
14.8956042907
 20
7.4129839154
 10
14.9100890964
 20
7.4083003259
 10
14.9245070661
 20
7.4030357676
 10
14.9388392878
 20
7.3971656601
  0
LWPOLYLINE
  5
632
100
AcDbEntity
  8
02___PRT_ALL_AXES
100
AcDbPolyline
 62
7
  6
CONTINUOUS
 90
3
 70
0
 10
15.0553997105
 20
7.3689679217
 10
15.0409125523
 20
7.3736523198
 10
15.026494379
 20
7.3789170585
  0
LWPOLYLINE
  5
633
100
AcDbEntity
  8
02___PRT_ALL_AXES
100
AcDbPolyline
 62
7
  6
CONTINUOUS
 90
3
 70
0
 10
15.0553997105
 20
7.393077245
 10
15.0409088038
 20
7.3977629319
 10
15.0264909937
 20
7.403027692
  0
LWPOLYLINE
  5
634
100
AcDbEntity
  8
02___PRT_ALL_AXES
100
AcDbPolyline
 62
7
  6
CONTINUOUS
 90
4
 70
0
 10
14.8956042907
 20
7.461202562
 10
14.9100890964
 20
7.4565189726
 10
14.9245070661
 20
7.4512544143
 10
14.9388392878
 20
7.4453843068
  0
LWPOLYLINE
  5
635
100
AcDbEntity
  8
02___PRT_ALL_AXES
100
AcDbPolyline
 62
7
  6
CONTINUOUS
 90
3
 70
0
 10
15.0553997105
 20
7.4171865683
 10
15.0409125523
 20
7.4218709665
 10
15.026494379
 20
7.4271357052
  0
LINE
  5
636
100
AcDbEntity
  8
02___PRT_ALL_AXES
100
AcDbLine
 62
7
  6
CONTINUOUS
 10
15.026494379
 20
7.3548077352
 11
15.0121647133
 21
7.3606768536
  0
LINE
  5
637
100
AcDbEntity
  8
02___PRT_ALL_AXES
100
AcDbLine
 62
7
  6
CONTINUOUS
 10
15.026494379
 20
7.3789170585
 11
15.0121647133
 21
7.3847861769
  0
LINE
  5
638
100
AcDbEntity
  8
02___PRT_ALL_AXES
100
AcDbLine
 62
7
  6
CONTINUOUS
 10
15.0264909937
 20
7.403027692
 11
15.0121647133
 21
7.4088955003
  0
LINE
  5
639
100
AcDbEntity
  8
02___PRT_ALL_AXES
100
AcDbLine
 62
7
  6
CONTINUOUS
 10
15.0231394408
 20
7.3320142186
 11
15.0121647133
 21
7.3365675302
  0
LWPOLYLINE
  5
63A
100
AcDbEntity
  8
02___PRT_ALL_AXES
100
AcDbPolyline
 62
7
  6
CONTINUOUS
 90
4
 70
0
 10
14.9388392878
 20
7.2810112721
 10
14.9245099035
 20
7.2911422954
 10
14.9100905997
 20
7.301997681
 10
14.8956042907
 20
7.3135329566
  0
LWPOLYLINE
  5
63B
100
AcDbEntity
  8
02___PRT_ALL_AXES
100
AcDbPolyline
 62
7
  6
CONTINUOUS
 90
4
 70
0
 10
14.9388392878
 20
7.3051205955
 10
14.9245099035
 20
7.3152516187
 10
14.9100905997
 20
7.3261070044
 10
14.8956042907
 20
7.3376422799
  0
LWPOLYLINE
  5
63C
100
AcDbEntity
  8
02___PRT_ALL_AXES
100
AcDbPolyline
 62
7
  6
CONTINUOUS
 90
4
 70
0
 10
14.9388392878
 20
7.3292299188
 10
14.9245134481
 20
7.3393583537
 10
14.910094492
 20
7.3502133112
 10
14.8956042907
 20
7.3617516033
  0
LWPOLYLINE
  5
63D
100
AcDbEntity
  8
02___PRT_ALL_AXES
100
AcDbPolyline
 62
7
  6
CONTINUOUS
 90
4
 70
0
 10
15.0121647133
 20
7.2839566548
 10
15.0264967716
 20
7.2738236789
 10
15.0409158476
 20
7.2629683502
 10
15.0553997105
 20
7.2514349704
  0
LWPOLYLINE
  5
63E
100
AcDbEntity
  8
02___PRT_ALL_AXES
100
AcDbPolyline
 62
7
  6
CONTINUOUS
 90
4
 70
0
 10
14.9388392878
 20
7.3533392422
 10
14.9245099035
 20
7.3634702654
 10
14.9100905997
 20
7.374325651
 10
14.8956042907
 20
7.3858609266
  0
LWPOLYLINE
  5
63F
100
AcDbEntity
  8
02___PRT_ALL_AXES
100
AcDbPolyline
 62
7
  6
CONTINUOUS
 90
4
 70
0
 10
15.0121647133
 20
7.3080659782
 10
15.0264967716
 20
7.2979330023
 10
15.0409158476
 20
7.2870776736
 10
15.0553997105
 20
7.2755442937
  0
LWPOLYLINE
  5
640
100
AcDbEntity
  8
02___PRT_ALL_AXES
100
AcDbPolyline
 62
7
  6
CONTINUOUS
 90
4
 70
0
 10
15.0121647133
 20
7.2598473315
 10
15.0265919949
 20
7.2496448036
 10
15.0412799468
 20
7.2385766531
 10
15.0553997105
 20
7.227325647
  0
LINE
  5
641
100
AcDbEntity
  8
0
100
AcDbLine
 62
7
  6
CONTINUOUS
 10
14.9417623182
 20
7.2553985691
 11
14.9421350341
 21
7.2550591695
  0
LINE
  5
642
100
AcDbEntity
  8
02___PRT_ALL_AXES
100
AcDbLine
 62
7
  6
CONTINUOUS
 10
15.026494379
 20
7.4271357052
 11
15.0121647133
 21
7.4330048236
  0
LINE
  5
643
100
AcDbEntity
  8
02___PRT_ALL_AXES
100
AcDbLine
 62
7
  6
CONTINUOUS
 10
14.9211936223
 20
7.4641949858
 11
14.8700155972
 21
7.4895413689
  0
LINE
  5
644
100
AcDbEntity
  8
02___PRT_ALL_AXES
100
AcDbLine
 62
9
  6
CONTINUOUS
 10
14.9038838698
 20
7.5006579753
 11
14.8537075404
 21
7.5255875223
  0
LWPOLYLINE
  5
645
100
AcDbEntity
  8
02___PRT_ALL_AXES
100
AcDbPolyline
 62
7
  6
CONTINUOUS
 90
7
 70
0
 10
14.8700155972
 20
7.4895413689
 10
14.8253842329
 20
7.5195187466
 10
14.7882431919
 20
7.5534734261
 10
14.759576597
 20
7.5901479441
 10
14.7395852758
 20
7.6282823332
 10
14.7278486459
 20
7.6671666001
 10
14.7239799093
 20
7.7064043227
  0
LWPOLYLINE
  5
646
100
AcDbEntity
  8
02___PRT_ALL_AXES
100
AcDbPolyline
 62
7
  6
CONTINUOUS
 90
5
 70
0
 10
14.9388392878
 20
7.4015578888
 10
14.927875614
 20
7.4092492553
 10
14.9168354867
 20
7.4173862318
 10
14.9059849013
 20
7.4257513562
 10
14.8956042907
 20
7.4340795733
  0
LWPOLYLINE
  5
647
100
AcDbEntity
  8
02___PRT_ALL_AXES
100
AcDbPolyline
 62
7
  6
CONTINUOUS
 90
5
 70
0
 10
15.0121647133
 20
7.3562846248
 10
15.0231499613
 20
7.3485777364
 10
15.034199658
 20
7.340432786
 10
15.0450456134
 20
7.3320702843
 10
15.0553997105
 20
7.3237629404
  0
LWPOLYLINE
  5
648
100
AcDbEntity
  8
02___PRT_ALL_AXES
100
AcDbPolyline
 62
7
  6
CONTINUOUS
 90
4
 70
0
 10
14.9388392878
 20
7.3774485655
 10
14.9245099035
 20
7.3875795887
 10
14.9100905997
 20
7.3984349744
 10
14.8956042907
 20
7.4099702499
  0
LWPOLYLINE
  5
649
100
AcDbEntity
  8
02___PRT_ALL_AXES
100
AcDbPolyline
 62
7
  6
CONTINUOUS
 90
4
 70
0
 10
15.0121647133
 20
7.3321753015
 10
15.0264967716
 20
7.3220423256
 10
15.0409158476
 20
7.3111869969
 10
15.0553997105
 20
7.2996536171
  0
LWPOLYLINE
  5
64A
100
AcDbEntity
  8
02___PRT_ALL_AXES
100
AcDbPolyline
 62
7
  6
CONTINUOUS
 90
4
 70
0
 10
14.9388392878
 20
7.4256672122
 10
14.9245099035
 20
7.4357982354
 10
14.9100905997
 20
7.4466536211
 10
14.8956042907
 20
7.4581888966
  0
LWPOLYLINE
  5
64B
100
AcDbEntity
  8
02___PRT_ALL_AXES
100
AcDbPolyline
 62
7
  6
CONTINUOUS
 90
4
 70
0
 10
15.0121647133
 20
7.3803939482
 10
15.0264967716
 20
7.3702609723
 10
15.0409158476
 20
7.3594056436
 10
15.0553997105
 20
7.3478722637
  0
LWPOLYLINE
  5
64C
100
AcDbEntity
  8
02___PRT_ALL_AXES
100
AcDbPolyline
 62
7
  6
CONTINUOUS
 90
3
 70
0
 10
14.9388392878
 20
7.4497765355
 10
14.9245099035
 20
7.4599075587
 10
14.9142411323
 20
7.4676382698
  0
LWPOLYLINE
  5
64D
100
AcDbEntity
  8
02___PRT_ALL_AXES
100
AcDbPolyline
 62
7
  6
CONTINUOUS
 90
4
 70
0
 10
15.0121647133
 20
7.4045032715
 10
15.0264967716
 20
7.3943702956
 10
15.0409158476
 20
7.3835149669
 10
15.0553997105
 20
7.3719815871
  0
LWPOLYLINE
  5
64E
100
AcDbEntity
  8
02___PRT_ALL_AXES
100
AcDbPolyline
 62
7
  6
CONTINUOUS
 90
4
 70
0
 10
15.0121647133
 20
7.4286125949
 10
15.0264941444
 20
7.4184815375
 10
15.040912942
 20
7.4076265421
 10
15.0553997105
 20
7.3960909104
  0
LINE
  5
64F
100
AcDbEntity
  8
02___PRT_ALL_AXES
100
AcDbLine
 62
7
  6
CONTINUOUS
 10
14.9388392878
 20
7.3730563368
 11
14.921755504
 21
7.3896532026
  0
LINE
  5
650
100
AcDbEntity
  8
02___PRT_ALL_AXES
100
AcDbLine
 62
7
  6
CONTINUOUS
 10
14.9388392878
 20
7.3489470134
 11
14.9231110059
 21
7.3645234073
  0
LINE
  5
651
100
AcDbEntity
  8
02___PRT_ALL_AXES
100
AcDbLine
 62
7
  6
CONTINUOUS
 10
14.9388392878
 20
7.3248376901
 11
14.9233585364
 21
7.3402278006
  0
LINE
  5
652
100
AcDbEntity
  8
02___PRT_ALL_AXES
100
AcDbLine
 62
7
  6
CONTINUOUS
 10
14.9388392878
 20
7.3007283667
 11
14.9233754923
 21
7.3161056455
  0
LWPOLYLINE
  5
653
100
AcDbEntity
  8
0
100
AcDbPolyline
 62
7
  6
CONTINUOUS
 90
4
 70
0
 10
14.9421353084
 20
7.2550590143
 10
14.9200078897
 20
7.2775513
 10
14.9039607285
 20
7.3019524947
 10
14.9013093734
 20
7.3089900671
  0
LINE
  5
654
100
AcDbEntity
  8
02___PRT_ALL_AXES
100
AcDbLine
 62
7
  6
CONTINUOUS
 10
15.0450157265
 20
7.4284689141
 11
15.0553997105
 21
7.4202002338
  0
LINE
  5
655
100
AcDbEntity
  8
02___PRT_ALL_AXES
100
AcDbLine
 62
7
  6
CONTINUOUS
 10
14.9388392878
 20
7.4212749834
 11
14.9231833244
 21
7.4367969333
  0
LINE
  5
656
100
AcDbEntity
  8
02___PRT_ALL_AXES
100
AcDbLine
 62
7
  6
CONTINUOUS
 10
14.9388392878
 20
7.4453843068
 11
14.9233156084
 21
7.4608066683
  0
LINE
  5
657
100
AcDbEntity
  8
02___PRT_ALL_AXES
100
AcDbLine
 62
7
  6
CONTINUOUS
 10
14.9388392878
 20
7.3971656601
 11
14.9232791273
 21
7.4126370336
  0
LWPOLYLINE
  5
658
100
AcDbEntity
  8
02___PRT_ALL_AXES
100
AcDbPolyline
 62
7
  6
CONTINUOUS
 90
3
 70
0
 10
14.9937382092
 20
7.6494349472
 10
14.9321359249
 20
7.665986972
 10
14.874866802
 20
7.6874370023
  0
LINE
  5
659
100
AcDbEntity
  8
02___PRT_ALL_AXES
100
AcDbLine
 62
9
  6
CONTINUOUS
 10
14.9599353952
 20
7.6571261661
 11
14.9451456172
 21
7.6624913752
  0
LINE
  5
65A
100
AcDbEntity
  8
02___PRT_ALL_AXES
100
AcDbLine
 62
7
  6
CONTINUOUS
 10
14.874866802
 20
7.6874370023
 11
14.8229861374
 21
7.7134691384
  0
LWPOLYLINE
  5
65B
100
AcDbEntity
  8
02___PRT_ALL_AXES
100
AcDbPolyline
 62
7
  6
CONTINUOUS
 90
7
 70
0
 10
14.8229861374
 20
7.7134691384
 10
14.77901508
 20
7.7425422709
 10
14.7419752784
 20
7.7749574204
 10
14.7126391337
 20
7.8100476396
 10
14.6915603327
 20
7.8469923003
 10
14.6789512446
 20
7.8849780169
 10
14.6747673108
 20
7.9233882328
  0
LWPOLYLINE
  5
65C
100
AcDbEntity
  8
02___PRT_ALL_AXES
100
AcDbPolyline
 62
9
  6
CONTINUOUS
 90
5
 70
0
 10
14.8189091232
 20
7.7224806768
 10
14.7729273768
 20
7.7531175143
 10
14.7349656404
 20
7.7872205726
 10
14.7057967055
 20
7.8240956118
 10
14.6860143675
 20
7.8629919624
  0
LWPOLYLINE
  5
65D
100
AcDbEntity
  8
0
100
AcDbPolyline
 62
7
  6
CONTINUOUS
 90
4
 70
0
 10
15.0606137706
 20
7.1983062261
 10
15.0615546264
 20
7.1968981992
 10
15.0711611704
 20
7.1875497029
 10
15.0833750013
 20
7.179215796
  0
LINE
  5
65E
100
AcDbEntity
  8
02___PRT_ALL_AXES
100
AcDbLine
 62
7
  6
CONTINUOUS
 10
14.8815274668
 20
7.3381652527
 11
14.8956042907
 21
7.3135329566
  0
LINE
  5
65F
100
AcDbEntity
  8
02___PRT_ALL_AXES
100
AcDbLine
 62
7
  6
CONTINUOUS
 10
14.8815274668
 20
7.3622745761
 11
14.8956042907
 21
7.3376422799
  0
LINE
  5
660
100
AcDbEntity
  8
02___PRT_ALL_AXES
100
AcDbLine
 62
7
  6
CONTINUOUS
 10
14.8815274668
 20
7.3652882415
 11
14.8956042907
 21
7.3406559453
  0
LINE
  5
661
100
AcDbEntity
  8
02___PRT_ALL_AXES
100
AcDbLine
 62
7
  6
CONTINUOUS
 10
14.8815274668
 20
7.3863838994
 11
14.8956042907
 21
7.3617516033
  0
LINE
  5
662
100
AcDbEntity
  8
02___PRT_ALL_AXES
100
AcDbLine
 62
7
  6
CONTINUOUS
 10
14.8815274668
 20
7.4346025461
 11
14.8956042907
 21
7.4099702499
  0
LINE
  5
663
100
AcDbEntity
  8
02___PRT_ALL_AXES
100
AcDbLine
 62
7
  6
CONTINUOUS
 10
14.8815274668
 20
7.4587118694
 11
14.8956042907
 21
7.4340795733
  0
LINE
  5
664
100
AcDbEntity
  8
02___PRT_ALL_AXES
100
AcDbLine
 62
7
  6
CONTINUOUS
 10
14.8811111635
 20
7.4114953056
 11
14.8956042907
 21
7.3858609266
  0
LWPOLYLINE
  5
665
100
AcDbEntity
  8
02___PRT_ALL_AXES
100
AcDbPolyline
 62
7
  6
CONTINUOUS
 90
7
 70
0
 10
15.3552236489
 20
7.7878671759
 10
15.2942668515
 20
7.7759206258
 10
15.2311306573
 20
7.768669878
 10
15.166895344
 20
7.7662389948
 10
15.1026599957
 20
7.7686695692
 10
15.0395236969
 20
7.7759200135
 10
14.9785667272
 20
7.7878662705
  0
LWPOLYLINE
  5
666
100
AcDbEntity
  8
AXIS
100
AcDbPolyline
 62
7
  6
CONTINUOUS
 90
3
 70
0
 10
15.2715041995
 20
7.7727323931
 10
15.3388756182
 20
7.784153568
 10
15.4027459727
 20
7.8009940197
  0
LWPOLYLINE
  5
667
100
AcDbEntity
  8
AXIS
100
AcDbPolyline
 62
7
  6
CONTINUOUS
 90
4
 70
0
 10
15.0622863948
 20
7.7727318902
 10
15.131787473
 20
7.7669628283
 10
15.2020032045
 20
7.7669629971
 10
15.2715041995
 20
7.7727323931
  0
LWPOLYLINE
  5
668
100
AcDbEntity
  8
AXIS
100
AcDbPolyline
 62
7
  6
CONTINUOUS
 90
3
 70
0
 10
14.9310442141
 20
7.8009928859
 10
14.9949148115
 20
7.7841527413
 10
15.0622863948
 20
7.7727318902
  0
LINE
  5
669
100
AcDbEntity
  8
02___PRT_ALL_AXES
100
AcDbLine
 62
7
  6
CONTINUOUS
 10
14.9785667272
 20
7.7878662705
 11
14.9208320774
 21
7.8043039365
  0
LINE
  5
66A
100
AcDbEntity
  8
AXIS
100
AcDbLine
 62
7
  6
CONTINUOUS
 10
14.8719748239
 20
7.8229095073
 11
14.9310442141
 21
7.8009928859
  0
LWPOLYLINE
  5
66B
100
AcDbEntity
  8
02___PRT_ALL_AXES
100
AcDbPolyline
 62
7
  6
CONTINUOUS
 90
3
 70
0
 10
14.9208320774
 20
7.8043039365
 10
14.8673076032
 20
7.8249517584
 10
14.8189091232
 20
7.8494564463
  0
LWPOLYLINE
  5
66C
100
AcDbEntity
  8
AXIS
100
AcDbPolyline
 62
7
  6
CONTINUOUS
 90
3
 70
0
 10
14.7729273768
 20
7.8800932838
 10
14.8189091232
 20
7.8494564463
 10
14.8719748239
 20
7.8229095073
  0
LWPOLYLINE
  5
66D
100
AcDbEntity
  8
02___PRT_ALL_AXES
100
AcDbPolyline
 62
7
  6
CONTINUOUS
 90
3
 70
0
 10
14.7407007153
 20
7.9083004741
 10
14.7764647489
 20
7.8773987183
 10
14.8189091232
 20
7.8494564463
  0
LINE
  5
66E
100
AcDbEntity
  8
02___PRT_ALL_AXES
100
AcDbLine
 62
7
  6
CONTINUOUS
 10
14.7122289549
 20
7.9416329764
 11
14.7407007153
 21
7.9083004741
  0
LINE
  5
66F
100
AcDbEntity
  8
02___PRT_ALL_AXES
100
AcDbLine
 62
7
  6
CONTINUOUS
 10
14.6915366274
 20
7.9768258966
 11
14.7122289549
 21
7.9416329764
  0
LINE
  5
670
100
AcDbEntity
  8
02___PRT_ALL_AXES
100
AcDbLine
 62
7
  6
CONTINUOUS
 10
14.8815274668
 20
7.4828211928
 11
14.8956042907
 21
7.4581888966
  0
LINE
  5
671
100
AcDbEntity
  8
02___PRT_ALL_AXES
100
AcDbLine
 62
7
  6
CONTINUOUS
 10
14.8831175082
 20
7.4830525282
 11
14.8956042907
 21
7.461202562
  0
LWPOLYLINE
  5
672
100
AcDbEntity
  8
0
100
AcDbPolyline
 62
9
  6
CONTINUOUS
 90
4
 70
0
 10
14.9025217034
 20
7.3080247031
 10
14.902741178
 20
7.307437072
 10
14.9178570398
 20
7.2846572
 10
14.9388392878
 20
7.2634685061
  0
LINE
  5
673
100
AcDbEntity
  8
AXIS
100
AcDbLine
 62
7
  6
CONTINUOUS
 10
14.6748905016
 20
9.3381160374
 11
14.6747720989
 21
9.3361945826
  0
LWPOLYLINE
  5
674
100
AcDbEntity
  8
0
100
AcDbPolyline
 62
9
  6
CONTINUOUS
 90
14
 70
0
 10
15.4556831544
 20
9.2176670732
 10
15.4854416347
 20
9.2312606174
 10
15.5132882205
 20
9.2461436273
 10
15.5390552695
 20
9.2622265087
 10
15.562588614
 20
9.2794130512
 10
15.5837472751
 20
9.2976004738
 10
15.6024036988
 20
9.3166793355
 10
15.6184455044
 20
9.3365347494
 10
15.6317761572
 20
9.3570470231
 10
15.6423162915
 20
9.3780939487
 10
15.6500031516
 20
9.3995514982
 10
15.6547896794
 20
9.4212920172
 10
15.6566456125
 20
9.4431845648
 10
15.6566334751
 20
9.4495412305
  0
LINE
  5
675
100
AcDbEntity
  8
02___PRT_ALL_AXES
100
AcDbLine
 62
7
  6
CONTINUOUS
 10
14.6789777843
 20
8.0132770742
 11
14.6915366274
 21
7.9768258966
  0
LINE
  5
676
100
AcDbEntity
  8
02___PRT_ALL_AXES
100
AcDbLine
 62
7
  6
CONTINUOUS
 10
14.8744444477
 20
7.3878660651
 11
14.8815274668
 21
7.3622745761
  0
LINE
  5
677
100
AcDbEntity
  8
02___PRT_ALL_AXES
100
AcDbLine
 62
7
  6
CONTINUOUS
 10
14.8744444477
 20
7.3908797305
 11
14.8815274668
 21
7.3652882415
  0
LINE
  5
678
100
AcDbEntity
  8
02___PRT_ALL_AXES
100
AcDbLine
 62
7
  6
CONTINUOUS
 10
14.8744444477
 20
7.4119753884
 11
14.8815274668
 21
7.3863838994
  0
LWPOLYLINE
  5
679
100
AcDbEntity
  8
02___PRT_ALL_AXES
100
AcDbPolyline
 62
7
  6
CONTINUOUS
 90
3
 70
0
 10
14.8744444477
 20
7.4149890539
 10
14.8815274668
 20
7.3893975648
 10
14.8956042907
 20
7.3647652687
  0
LINE
  5
67A
100
AcDbEntity
  8
02___PRT_ALL_AXES
100
AcDbLine
 62
7
  6
CONTINUOUS
 10
14.8744444477
 20
7.4601940351
 11
14.8815274668
 21
7.4346025461
  0
LWPOLYLINE
  5
67B
100
AcDbEntity
  8
02___PRT_ALL_AXES
100
AcDbPolyline
 62
7
  6
CONTINUOUS
 90
3
 70
0
 10
14.8744444477
 20
7.4632077005
 10
14.8815274668
 20
7.4376162115
 10
14.8956042907
 20
7.4129839154
  0
LWPOLYLINE
  5
67C
100
AcDbEntity
  8
02___PRT_ALL_AXES
100
AcDbPolyline
 62
9
  6
CONTINUOUS
 90
3
 70
0
 10
14.6860143675
 20
7.8629919624
 10
14.6760213376
 20
7.9031178069
 10
14.6747673108
 20
7.9233882328
  0
LWPOLYLINE
  5
67D
100
AcDbEntity
  8
AXIS
100
AcDbPolyline
 62
7
  6
CONTINUOUS
 90
6
 70
0
 10
14.6747720989
 20
8.0503640044
 10
14.6760213376
 20
8.0300935765
 10
14.6860143675
 20
7.989967732
 10
14.7057967055
 20
7.9510713814
 10
14.7349656404
 20
7.9141963422
 10
14.7729273768
 20
7.8800932838
  0
LWPOLYLINE
  5
67E
100
AcDbEntity
  8
02___PRT_ALL_AXES
100
AcDbPolyline
 62
9
  6
CONTINUOUS
 90
7
 70
0
 10
14.7239799093
 20
7.7064043227
 10
14.7242897054
 20
7.6968418628
 10
14.7317017945
 20
7.6588633535
 10
14.7488353425
 20
7.6219468309
 10
14.7753076144
 20
7.5869169492
 10
14.8105272633
 20
7.5545562179
 10
14.8537075404
 20
7.5255875223
  0
LINE
  5
67F
100
AcDbEntity
  8
02___PRT_ALL_AXES
100
AcDbLine
 62
7
  6
CONTINUOUS
 10
14.6747673108
 20
8.0503640024
 11
14.6747673108
 21
7.9233882328
  0
LINE
  5
680
100
AcDbEntity
  8
AXIS
100
AcDbLine
 62
7
  6
CONTINUOUS
 10
14.6747673108
 20
8.0503640024
 11
14.6747673108
 21
9.3361945805
  0
LINE
  5
681
100
AcDbEntity
  8
0
100
AcDbLine
 62
7
  6
CONTINUOUS
 10
14.6748047958
 20
9.3397013452
 11
14.6771531151
 21
9.4495412305
  0
LINE
  5
682
100
AcDbEntity
  8
02___PRT_ALL_AXES
100
AcDbLine
 62
7
  6
CONTINUOUS
 10
14.8744444477
 20
7.4843033585
 11
14.8815274668
 21
7.4587118694
  0
LWPOLYLINE
  5
683
100
AcDbEntity
  8
02___PRT_ALL_AXES
100
AcDbPolyline
 62
7
  6
CONTINUOUS
 90
3
 70
0
 10
14.8744444477
 20
7.4873170239
 10
14.8815274668
 20
7.4617255349
 10
14.8956042907
 20
7.4370932387
  0
LINE
  5
684
100
AcDbEntity
  8
02___PRT_ALL_AXES
100
AcDbLine
 62
7
  6
CONTINUOUS
 10
14.881200694
 20
7.4840018478
 11
14.8815274668
 21
7.4828211928
  0
LINE
  5
685
100
AcDbEntity
  8
02___PRT_ALL_AXES
100
AcDbLine
 62
7
  6
CONTINUOUS
 10
14.8741880608
 20
7.4381392166
 11
14.8811111635
 21
7.4114953056
  0
LWPOLYLINE
  5
686
100
AcDbEntity
  8
02___PRT_ALL_AXES
100
AcDbPolyline
 62
7
  6
CONTINUOUS
 90
3
 70
0
 10
14.8741880608
 20
7.441152882
 10
14.8811111635
 20
7.4145089711
 10
14.8956042907
 20
7.388874592
  0
LINE
  5
687
100
AcDbEntity
  8
02___PRT_ALL_AXES
100
AcDbLine
 62
7
  6
CONTINUOUS
 10
14.6747673108
 20
8.050363999
 11
14.6789777843
 21
8.0132770742
  0
LWPOLYLINE
  5
688
100
AcDbEntity
  8
02___PRT_ALL_AXES
100
AcDbPolyline
 62
7
  6
CONTINUOUS
 90
3
 70
0
 10
14.8735862085
 20
7.3764079435
 10
14.8744444477
 20
7.3637567418
 10
14.8815274668
 20
7.3381652527
  0
LWPOLYLINE
  5
689
100
AcDbEntity
  8
02___PRT_ALL_AXES
100
AcDbPolyline
 62
7
  6
CONTINUOUS
 90
4
 70
0
 10
14.8735862085
 20
7.3794216089
 10
14.8744444477
 20
7.3667704072
 10
14.8815274668
 20
7.3411789182
 10
14.8956042907
 20
7.316546622
  0
LINE
  5
68A
100
AcDbEntity
  8
02___PRT_ALL_AXES
100
AcDbLine
 62
7
  6
CONTINUOUS
 10
14.8735862085
 20
7.4005172669
 11
14.8744444477
 21
7.3878660651
  0
LINE
  5
68B
100
AcDbEntity
  8
02___PRT_ALL_AXES
100
AcDbLine
 62
7
  6
CONTINUOUS
 10
14.8735862085
 20
7.4035309323
 11
14.8744444477
 21
7.3908797305
  0
LINE
  5
68C
100
AcDbEntity
  8
02___PRT_ALL_AXES
100
AcDbLine
 62
7
  6
CONTINUOUS
 10
14.8735862085
 20
7.4246265902
 11
14.8744444477
 21
7.4119753884
  0
LINE
  5
68D
100
AcDbEntity
  8
02___PRT_ALL_AXES
100
AcDbLine
 62
7
  6
CONTINUOUS
 10
14.8735862085
 20
7.4276402556
 11
14.8744444477
 21
7.4149890539
  0
LINE
  5
68E
100
AcDbEntity
  8
02___PRT_ALL_AXES
100
AcDbLine
 62
7
  6
CONTINUOUS
 10
14.8735862085
 20
7.4728452369
 11
14.8744444477
 21
7.4601940351
  0
LWPOLYLINE
  5
68F
100
AcDbEntity
  8
AXIS
100
AcDbPolyline
 62
7
  6
CONTINUOUS
 90
7
 70
0
 10
14.6747720989
 20
9.3361945826
 10
14.6760213376
 20
9.3159241547
 10
14.6860143675
 20
9.2757983101
 10
14.7057967055
 20
9.2369019595
 10
14.7349656404
 20
9.2000269203
 10
14.7729273768
 20
9.165923862
 10
14.8189091232
 20
9.1352870245
  0
LWPOLYLINE
  5
690
100
AcDbEntity
  8
0
100
AcDbPolyline
 62
7
  6
CONTINUOUS
 90
7
 70
0
 10
14.6748094252
 20
9.3397071069
 10
14.6760213376
 20
9.3159241547
 10
14.6860143675
 20
9.2757983101
 10
14.7057967055
 20
9.2369019595
 10
14.7349656404
 20
9.2000269203
 10
14.7729273768
 20
9.165923862
 10
14.8189091232
 20
9.1352870245
  0
LWPOLYLINE
  5
691
100
AcDbEntity
  8
0
100
AcDbPolyline
 62
9
  6
CONTINUOUS
 90
11
 70
0
 10
14.6771531151
 20
9.4495412304
 10
14.678227737
 20
9.4270080299
 10
14.6822502948
 20
9.4052141053
 10
14.6891901234
 20
9.3836510628
 10
14.6990114527
 20
9.3624490318
 10
14.711614543
 20
9.3418041998
 10
14.7269292306
 20
9.3218037545
 10
14.7451091674
 20
9.3023172295
 10
14.766462622
 20
9.2832271774
 10
14.7914257058
 20
9.2644809684
 10
14.8205697553
 20
9.2461024052
  0
LINE
  5
692
100
AcDbEntity
  8
02___PRT_ALL_AXES
100
AcDbLine
 62
7
  6
CONTINUOUS
 10
14.7239799093
 20
7.7964824522
 11
14.7239799093
 21
7.7064043227
  0
LWPOLYLINE
  5
693
100
AcDbEntity
  8
AXIS
100
AcDbPolyline
 62
7
  6
CONTINUOUS
 90
7
 70
0
 10
15.5148803646
 20
9.1352886974
 10
15.5608616691
 20
9.165925756
 10
15.5988229136
 20
9.2000289968
 10
15.6279913167
 20
9.2369041762
 10
15.6477730938
 20
9.2758006219
 10
15.6577655449
 20
9.3159265145
 10
15.6590144913
 20
9.3361945785
  0
LWPOLYLINE
  5
694
100
AcDbEntity
  8
0
100
AcDbPolyline
 62
7
  6
CONTINUOUS
 90
6
 70
0
 10
15.0672080099
 20
7.1913966749
 10
15.0673513571
 20
7.1908210811
 10
15.0714463011
 20
7.1827695365
 10
15.0774842706
 20
7.1751364034
 10
15.08534235
 20
7.1680770703
 10
15.0948605715
 20
7.1617352449
  0
LWPOLYLINE
  5
695
100
AcDbEntity
  8
0
100
AcDbPolyline
 62
7
  6
CONTINUOUS
 90
3
 70
0
 10
14.9388392878
 20
7.2634685061
 10
14.9395891857
 20
7.2588468513
 10
14.9417623182
 20
7.2553985691
  0
LINE
  5
696
100
AcDbEntity
  8
02___PRT_ALL_AXES
100
AcDbLine
 62
7
  6
CONTINUOUS
 10
14.8735862085
 20
7.4758589023
 11
14.8744444477
 21
7.4632077005
  0
LINE
  5
697
100
AcDbEntity
  8
02___PRT_ALL_AXES
100
AcDbLine
 62
7
  6
CONTINUOUS
 10
14.8742307272
 20
7.4874537874
 11
14.8744444477
 21
7.4843033585
  0
LINE
  5
698
100
AcDbEntity
  8
02___PRT_ALL_AXES
100
AcDbLine
 62
7
  6
CONTINUOUS
 10
14.8744422775
 20
7.4873490152
 11
14.8744444477
 21
7.4873170239
  0
LINE
  5
699
100
AcDbEntity
  8
02___PRT_ALL_AXES
100
AcDbLine
 62
7
  6
CONTINUOUS
 10
14.8735862085
 20
7.4487359136
 11
14.8741880608
 21
7.4381392166
  0
LINE
  5
69A
100
AcDbEntity
  8
02___PRT_ALL_AXES
100
AcDbLine
 62
7
  6
CONTINUOUS
 10
14.8735862085
 20
7.451749579
 11
14.8741880608
 21
7.441152882
  0
LINE
  5
69B
100
AcDbEntity
  8
02___PRT_ALL_AXES
100
AcDbLine
 62
7
  6
CONTINUOUS
 10
14.8956042907
 20
7.3135329566
 11
14.8956042907
 21
7.316546622
  0
LINE
  5
69C
100
AcDbEntity
  8
02___PRT_ALL_AXES
100
AcDbLine
 62
7
  6
CONTINUOUS
 10
14.8956042907
 20
7.3376422799
 11
14.8956042907
 21
7.3406559453
  0
LINE
  5
69D
100
AcDbEntity
  8
02___PRT_ALL_AXES
100
AcDbLine
 62
7
  6
CONTINUOUS
 10
14.8956042907
 20
7.3617516033
 11
14.8956042907
 21
7.3647652687
  0
LINE
  5
69E
100
AcDbEntity
  8
02___PRT_ALL_AXES
100
AcDbLine
 62
7
  6
CONTINUOUS
 10
14.8956042907
 20
7.3858609266
 11
14.8956042907
 21
7.388874592
  0
LINE
  5
69F
100
AcDbEntity
  8
02___PRT_ALL_AXES
100
AcDbLine
 62
7
  6
CONTINUOUS
 10
14.8956042907
 20
7.4099702499
 11
14.8956042907
 21
7.4129839154
  0
LINE
  5
6A0
100
AcDbEntity
  8
02___PRT_ALL_AXES
100
AcDbLine
 62
7
  6
CONTINUOUS
 10
14.8956042907
 20
7.4340795733
 11
14.8956042907
 21
7.4370932387
  0
LINE
  5
6A1
100
AcDbEntity
  8
02___PRT_ALL_AXES
100
AcDbLine
 62
7
  6
CONTINUOUS
 10
14.8956042907
 20
7.4581888966
 11
14.8956042907
 21
7.461202562
  0
LWPOLYLINE
  5
6A2
100
AcDbEntity
  8
0
100
AcDbPolyline
 62
7
  6
CONTINUOUS
 90
4
 70
0
 10
15.0121647133
 20
7.2211350097
 10
15.0127844908
 20
7.2165884781
 10
15.0145793483
 20
7.2133585883
 10
15.0158529776
 20
7.2123479112
  0
LINE
  5
6A3
100
AcDbEntity
  8
02___PRT_ALL_AXES
100
AcDbLine
 62
7
  6
CONTINUOUS
 10
14.9388392878
 20
7.4497765355
 11
14.9388392878
 21
7.4453843068
  0
LINE
  5
6A4
100
AcDbEntity
  8
02___PRT_ALL_AXES
100
AcDbLine
 62
7
  6
CONTINUOUS
 10
14.9388392878
 20
7.4256672122
 11
14.9388392878
 21
7.4212749834
  0
LINE
  5
6A5
100
AcDbEntity
  8
02___PRT_ALL_AXES
100
AcDbLine
 62
7
  6
CONTINUOUS
 10
14.9388392878
 20
7.4015578888
 11
14.9388392878
 21
7.3971656601
  0
LINE
  5
6A6
100
AcDbEntity
  8
02___PRT_ALL_AXES
100
AcDbLine
 62
7
  6
CONTINUOUS
 10
14.9388392878
 20
7.3774485655
 11
14.9388392878
 21
7.3730563368
  0
LINE
  5
6A7
100
AcDbEntity
  8
02___PRT_ALL_AXES
100
AcDbLine
 62
7
  6
CONTINUOUS
 10
14.9388392878
 20
7.3533392422
 11
14.9388392878
 21
7.3489470134
  0
LINE
  5
6A8
100
AcDbEntity
  8
02___PRT_ALL_AXES
100
AcDbLine
 62
7
  6
CONTINUOUS
 10
14.9388392878
 20
7.3292299188
 11
14.9388392878
 21
7.3248376901
  0
LINE
  5
6A9
100
AcDbEntity
  8
02___PRT_ALL_AXES
100
AcDbLine
 62
7
  6
CONTINUOUS
 10
14.9388392878
 20
7.3051205955
 11
14.9388392878
 21
7.3007283667
  0
LINE
  5
6AA
100
AcDbEntity
  8
0
100
AcDbLine
 62
7
  6
CONTINUOUS
 10
14.9388392878
 20
7.2810112721
 11
14.9388392878
 21
7.2634685061
  0
LINE
  5
6AB
100
AcDbEntity
  8
02___PRT_ALL_AXES
100
AcDbLine
 62
7
  6
CONTINUOUS
 10
14.874318557
 20
7.4861590987
 11
14.8735862085
 21
7.4758589023
  0
LINE
  5
6AC
100
AcDbEntity
  8
02___PRT_ALL_AXES
100
AcDbLine
 62
7
  6
CONTINUOUS
 10
14.8743016166
 20
7.4377021914
 11
14.8735862085
 21
7.4276402556
  0
LINE
  5
6AD
100
AcDbEntity
  8
02___PRT_ALL_AXES
100
AcDbLine
 62
7
  6
CONTINUOUS
 10
14.874318557
 20
7.4138311287
 11
14.8735862085
 21
7.4035309323
  0
LINE
  5
6AE
100
AcDbEntity
  8
02___PRT_ALL_AXES
100
AcDbLine
 62
7
  6
CONTINUOUS
 10
14.874318557
 20
7.3897218054
 11
14.8735862085
 21
7.3794216089
  0
LINE
  5
6AF
100
AcDbEntity
  8
02___PRT_ALL_AXES
100
AcDbLine
 62
7
  6
CONTINUOUS
 10
14.8743930389
 20
7.4609518462
 11
14.8735862085
 21
7.451749579
  0
LINE
  5
6B0
100
AcDbEntity
  8
02___PRT_ALL_AXES
100
AcDbLine
 62
7
  6
CONTINUOUS
 10
15.0121647133
 20
7.4330048236
 11
15.0121647133
 21
7.4286125949
  0
LINE
  5
6B1
100
AcDbEntity
  8
02___PRT_ALL_AXES
100
AcDbLine
 62
7
  6
CONTINUOUS
 10
15.0121647133
 20
7.4088955003
 11
15.0121647133
 21
7.4045032715
  0
LINE
  5
6B2
100
AcDbEntity
  8
02___PRT_ALL_AXES
100
AcDbLine
 62
7
  6
CONTINUOUS
 10
15.0121647133
 20
7.3847861769
 11
15.0121647133
 21
7.3803939482
  0
LINE
  5
6B3
100
AcDbEntity
  8
02___PRT_ALL_AXES
100
AcDbLine
 62
7
  6
CONTINUOUS
 10
15.0121647133
 20
7.3606768536
 11
15.0121647133
 21
7.3562846248
  0
LINE
  5
6B4
100
AcDbEntity
  8
02___PRT_ALL_AXES
100
AcDbLine
 62
7
  6
CONTINUOUS
 10
15.0121647133
 20
7.3365675302
 11
15.0121647133
 21
7.3321753015
  0
LINE
  5
6B5
100
AcDbEntity
  8
02___PRT_ALL_AXES
100
AcDbLine
 62
7
  6
CONTINUOUS
 10
15.0121647133
 20
7.3124582069
 11
15.0121647133
 21
7.3080659782
  0
LINE
  5
6B6
100
AcDbEntity
  8
02___PRT_ALL_AXES
100
AcDbLine
 62
7
  6
CONTINUOUS
 10
15.0121647133
 20
7.2883488836
 11
15.0121647133
 21
7.2839566548
  0
LINE
  5
6B7
100
AcDbEntity
  8
02___PRT_ALL_AXES
100
AcDbLine
 62
7
  6
CONTINUOUS
 10
15.0121647133
 20
7.2642395602
 11
15.0121647133
 21
7.2598473315
  0
LINE
  5
6B8
100
AcDbEntity
  8
0
100
AcDbLine
 62
7
  6
CONTINUOUS
 10
15.0121647133
 20
7.2401302369
 11
15.0121647133
 21
7.2211350097
  0
LINE
  5
6B9
100
AcDbEntity
  8
02___PRT_ALL_AXES
100
AcDbLine
 62
7
  6
CONTINUOUS
 10
15.0553997105
 20
7.4202002338
 11
15.0553997105
 21
7.4171865683
  0
LINE
  5
6BA
100
AcDbEntity
  8
02___PRT_ALL_AXES
100
AcDbLine
 62
7
  6
CONTINUOUS
 10
15.0553997105
 20
7.3960909104
 11
15.0553997105
 21
7.393077245
  0
LINE
  5
6BB
100
AcDbEntity
  8
02___PRT_ALL_AXES
100
AcDbLine
 62
7
  6
CONTINUOUS
 10
15.0553997105
 20
7.3719815871
 11
15.0553997105
 21
7.3689679217
  0
LINE
  5
6BC
100
AcDbEntity
  8
02___PRT_ALL_AXES
100
AcDbLine
 62
7
  6
CONTINUOUS
 10
15.0553997105
 20
7.3478722637
 11
15.0553997105
 21
7.3448585983
  0
LINE
  5
6BD
100
AcDbEntity
  8
02___PRT_ALL_AXES
100
AcDbLine
 62
7
  6
CONTINUOUS
 10
15.0553997105
 20
7.3237629404
 11
15.0553997105
 21
7.320749275
  0
LINE
  5
6BE
100
AcDbEntity
  8
02___PRT_ALL_AXES
100
AcDbLine
 62
7
  6
CONTINUOUS
 10
15.0553997105
 20
7.2996536171
 11
15.0553997105
 21
7.2966399516
  0
LINE
  5
6BF
100
AcDbEntity
  8
02___PRT_ALL_AXES
100
AcDbLine
 62
7
  6
CONTINUOUS
 10
15.0553997105
 20
7.2755442937
 11
15.0553997105
 21
7.2725306283
  0
LINE
  5
6C0
100
AcDbEntity
  8
02___PRT_ALL_AXES
100
AcDbLine
 62
7
  6
CONTINUOUS
 10
15.0553997105
 20
7.2514349704
 11
15.0553997105
 21
7.248421305
  0
LINE
  5
6C1
100
AcDbEntity
  8
02___PRT_ALL_AXES
100
AcDbLine
 62
7
  6
CONTINUOUS
 10
15.0553997105
 20
7.227325647
 11
15.0553997105
 21
7.2243119816
  0
LINE
  5
6C2
100
AcDbEntity
  8
0
100
AcDbLine
 62
9
  6
CONTINUOUS
 10
15.5944138881
 20
9.3957868932
 11
15.6041067407
 21
9.415142474
  0
LWPOLYLINE
  5
6C3
100
AcDbEntity
  8
0
100
AcDbPolyline
 62
9
  6
CONTINUOUS
 90
8
 70
0
 10
14.7275849832
 20
9.4202479166
 10
14.7366174593
 20
9.4007498159
 10
14.7482081516
 20
9.3817641644
 10
14.7622925728
 20
9.3633710958
 10
14.779012085
 20
9.3454505914
 10
14.7986502534
 20
9.3278946532
 10
14.821608167
 20
9.3106548697
 10
14.8484042491
 20
9.2937573053
  0
LWPOLYLINE
  5
6C4
100
AcDbEntity
  8
0
100
AcDbPolyline
 62
9
  6
CONTINUOUS
 90
14
 70
0
 10
15.6041067407
 20
9.415142474
 10
15.6111755854
 20
9.4348756707
 10
15.615577147
 20
9.4548690848
 10
15.617283597
 20
9.4750022953
 10
15.6162838124
 20
9.4951513607
 10
15.6125841353
 20
9.5151938396
 10
15.606201607
 20
9.5350239717
 10
15.5971691309
 20
9.5545220724
 10
15.5855784386
 20
9.5735077238
 10
15.5714940174
 20
9.5919007925
 10
15.5547745052
 20
9.6098212969
 10
15.5351363368
 20
9.6273772351
 10
15.5121784232
 20
9.6446170186
 10
15.4853823411
 20
9.661514583
  0
LINE
  5
6C5
100
AcDbEntity
  8
02___PRT_ALL_AXES
100
AcDbLine
 62
7
  6
CONTINUOUS
 10
15.4602003817
 20
7.3914762706
 11
15.4595005195
 21
7.4022717092
  0
LINE
  5
6C6
100
AcDbEntity
  8
02___PRT_ALL_AXES
100
AcDbLine
 62
7
  6
CONTINUOUS
 10
15.4602003817
 20
7.415585594
 11
15.4595005195
 21
7.4263810325
  0
LINE
  5
6C7
100
AcDbEntity
  8
02___PRT_ALL_AXES
100
AcDbLine
 62
7
  6
CONTINUOUS
 10
15.4602003817
 20
7.4396949173
 11
15.4595005195
 21
7.4504903558
  0
LINE
  5
6C8
100
AcDbEntity
  8
02___PRT_ALL_AXES
100
AcDbLine
 62
7
  6
CONTINUOUS
 10
15.4602003817
 20
7.4638042406
 11
15.4595005195
 21
7.4745996792
  0
LINE
  5
6C9
100
AcDbEntity
  8
02___PRT_ALL_AXES
100
AcDbLine
 62
7
  6
CONTINUOUS
 10
15.4592577647
 20
7.4740406008
 11
15.4602003817
 21
7.487913564
  0
LINE
  5
6CA
100
AcDbEntity
  8
02___PRT_ALL_AXES
100
AcDbLine
 62
7
  6
CONTINUOUS
 10
15.4592577647
 20
7.4499312775
 11
15.4602003817
 21
7.4638042406
  0
LINE
  5
6CB
100
AcDbEntity
  8
02___PRT_ALL_AXES
100
AcDbLine
 62
7
  6
CONTINUOUS
 10
15.4592577647
 20
7.4258219541
 11
15.4602003817
 21
7.4396949173
  0
LINE
  5
6CC
100
AcDbEntity
  8
02___PRT_ALL_AXES
100
AcDbLine
 62
7
  6
CONTINUOUS
 10
15.4592577647
 20
7.4017126308
 11
15.4602003817
 21
7.415585594
  0
LINE
  5
6CD
100
AcDbEntity
  8
02___PRT_ALL_AXES
100
AcDbLine
 62
7
  6
CONTINUOUS
 10
15.4592577647
 20
7.3776033075
 11
15.4602003817
 21
7.3914762706
  0
LINE
  5
6CE
100
AcDbEntity
  8
02___PRT_ALL_AXES
100
AcDbLine
 62
7
  6
CONTINUOUS
 10
15.6098066809
 20
7.7963109283
 11
15.6098066809
 21
7.7064043227
  0
LINE
  5
6CF
100
AcDbEntity
  8
0
100
AcDbLine
 62
7
  6
CONTINUOUS
 10
15.6577655449
 20
9.3159265145
 11
15.6589771647
 21
9.3397071032
  0
LWPOLYLINE
  5
6D0
100
AcDbEntity
  8
0
100
AcDbPolyline
 62
7
  6
CONTINUOUS
 90
17
 70
0
 10
15.2677618665
 20
7.1961480918
 10
15.2664354134
 20
7.1908215596
 10
15.2623405856
 20
7.1827699953
 10
15.2563027261
 20
7.1751368332
 10
15.2484447485
 20
7.1680774623
 10
15.2389266185
 20
7.1617355912
 10
15.2279420977
 20
7.156240322
 10
15.2157147994
 20
7.1517035226
 10
15.202493636
 20
7.1482175491
 10
15.1885477523
 20
7.1458533659
 10
15.1741610463
 20
7.1446591009
 10
15.1596263899
 20
7.144659066
 10
15.1452396667
 20
7.1458532618
 10
15.131293749
 20
7.148217378
 10
15.1180725353
 20
7.1517032879
 10
15.1058451716
 20
7.1562400285
 10
15.0948605715
 20
7.1617352449
  0
LWPOLYLINE
  5
6D1
100
AcDbEntity
  8
0
100
AcDbPolyline
 62
7
  6
CONTINUOUS
 90
17
 70
0
 10
14.8189091232
 20
9.1352870245
 10
14.8719748239
 20
9.1087400855
 10
14.9310442141
 20
9.086823464
 10
14.9949148115
 20
9.0699833194
 10
15.0622863948
 20
9.0585624684
 10
15.131787473
 20
9.0527934065
 10
15.2020032045
 20
9.0527935753
 10
15.2715041995
 20
9.0585629713
 10
15.3388756182
 20
9.0699841462
 10
15.4027459727
 20
9.0868245979
 10
15.4618150468
 20
9.1087415033
 10
15.5148803646
 20
9.1352886974
 10
15.5608616691
 20
9.165925756
 10
15.5988229136
 20
9.2000289968
 10
15.6279913167
 20
9.2369041762
 10
15.6477730938
 20
9.2758006219
 10
15.6577655449
 20
9.3159265145
  0
LWPOLYLINE
  5
6D2
100
AcDbEntity
  8
AXIS
100
AcDbPolyline
 62
7
  6
CONTINUOUS
 90
12
 70
0
 10
14.8189091232
 20
9.1352870245
 10
14.8719748239
 20
9.1087400855
 10
14.9310442141
 20
9.086823464
 10
14.9949148115
 20
9.0699833194
 10
15.0622863948
 20
9.0585624684
 10
15.131787473
 20
9.0527934065
 10
15.2020032045
 20
9.0527935753
 10
15.2715041995
 20
9.0585629713
 10
15.3388756182
 20
9.0699841462
 10
15.4027459727
 20
9.0868245979
 10
15.4618150468
 20
9.1087415033
 10
15.5148803646
 20
9.1352886974
  0
LINE
  5
6D3
100
AcDbEntity
  8
AXIS
100
AcDbLine
 62
7
  6
CONTINUOUS
 10
15.6590144913
 20
9.3361945785
 11
15.6588960884
 21
9.3381158103
  0
LINE
  5
6D4
100
AcDbEntity
  8
0
100
AcDbLine
 62
7
  6
CONTINUOUS
 10
15.6589817944
 20
9.3397013452
 11
15.6566334751
 21
9.4495412305
  0
LINE
  5
6D5
100
AcDbEntity
  8
02___PRT_ALL_AXES
100
AcDbLine
 62
7
  6
CONTINUOUS
 10
15.6590192793
 20
8.0503640024
 11
15.6590192793
 21
7.9233882328
  0
LINE
  5
6D6
100
AcDbEntity
  8
AXIS
100
AcDbLine
 62
7
  6
CONTINUOUS
 10
15.6590192793
 20
8.0503640024
 11
15.6590192793
 21
9.3361945805
  0
LINE
  5
6D7
100
AcDbEntity
  8
02___PRT_ALL_AXES
100
AcDbLine
 62
9
  6
CONTINUOUS
 10
15.6590192793
 20
7.9233882328
 11
15.6577655449
 21
7.9031201667
  0
LWPOLYLINE
  5
6D8
100
AcDbEntity
  8
02___PRT_ALL_AXES
100
AcDbPolyline
 62
9
  6
CONTINUOUS
 90
16
 70
0
 10
15.6098066809
 20
7.7064043227
 10
15.607021941
 20
7.6777746638
 10
15.5947152505
 20
7.6402220842
 10
15.5728517246
 20
7.6041479065
 10
15.5419197581
 20
7.5703579682
 10
15.5026103202
 20
7.5396070806
 10
15.4558015187
 20
7.5125821677
 10
15.4025389849
 20
7.4898869216
 10
15.3440125157
 20
7.4720283163
 10
15.2815294959
 20
7.4594052838
 10
15.2164856927
 20
7.4522998017
 10
15.1503340774
 20
7.4508705946
 10
15.0845523676
 20
7.4551495888
 10
15.020610018
 20
7.4650411985
 10
14.9599353952
 20
7.4803244616
 10
14.9038838698
 20
7.5006579753
  0
LWPOLYLINE
  5
6D9
100
AcDbEntity
  8
02___PRT_ALL_AXES
100
AcDbPolyline
 62
7
  6
CONTINUOUS
 90
6
 70
0
 10
15.6098066809
 20
7.7064043227
 10
15.6057462014
 20
7.6662117335
 10
15.5932801406
 20
7.6260645133
 10
15.5719423793
 20
7.5867029237
 10
15.5414805889
 20
7.5491862996
 10
15.5023182698
 20
7.5148657143
  0
LWPOLYLINE
  5
6DA
100
AcDbEntity
  8
02___PRT_ALL_AXES
100
AcDbPolyline
 62
7
  6
CONTINUOUS
 90
15
 70
0
 10
15.6590192793
 20
7.9233882328
 10
15.6545030073
 20
7.8834892858
 10
15.6408504631
 20
7.8439873468
 10
15.6181244397
 20
7.8058167564
 10
15.5865493622
 20
7.7697316441
 10
15.5467912647
 20
7.7366478071
 10
15.4997376393
 20
7.7072787108
 10
15.4464222754
 20
7.6821806741
 10
15.3879518013
 20
7.6617731685
 10
15.3254090049
 20
7.6463539939
 10
15.2599880402
 20
7.6361622644
 10
15.1928885738
 20
7.6313466733
 10
15.1253253684
 20
7.6319760421
 10
15.0585437253
 20
7.6380364663
 10
14.9937382092
 20
7.6494349472
  0
LINE
  5
6DB
100
AcDbEntity
  8
02___PRT_ALL_AXES
100
AcDbLine
 62
7
  6
CONTINUOUS
 10
15.6590192793
 20
8.0503640058
 11
15.6548093408
 21
8.0132794198
  0
LINE
  5
6DC
100
AcDbEntity
  8
02___PRT_ALL_AXES
100
AcDbLine
 62
7
  6
CONTINUOUS
 10
15.4520080579
 20
7.4713710017
 11
15.4559799802
 21
7.4860424641
  0
LINE
  5
6DD
100
AcDbEntity
  8
02___PRT_ALL_AXES
100
AcDbLine
 62
7
  6
CONTINUOUS
 10
15.4520080579
 20
7.4683573363
 11
15.4567401395
 21
7.4858366704
  0
LINE
  5
6DE
100
AcDbEntity
  8
02___PRT_ALL_AXES
100
AcDbLine
 62
7
  6
CONTINUOUS
 10
15.4520080579
 20
7.4472616784
 11
15.4592577647
 21
7.4740406008
  0
LWPOLYLINE
  5
6DF
100
AcDbEntity
  8
02___PRT_ALL_AXES
100
AcDbPolyline
 62
7
  6
CONTINUOUS
 90
3
 70
0
 10
15.4520080579
 20
7.444248013
 10
15.4592577647
 20
7.4710269354
 10
15.4602003817
 20
7.4848998986
  0
LINE
  5
6E0
100
AcDbEntity
  8
02___PRT_ALL_AXES
100
AcDbLine
 62
7
  6
CONTINUOUS
 10
15.4520080579
 20
7.423152355
 11
15.4592577647
 21
7.4499312775
  0
LWPOLYLINE
  5
6E1
100
AcDbEntity
  8
02___PRT_ALL_AXES
100
AcDbPolyline
 62
7
  6
CONTINUOUS
 90
3
 70
0
 10
15.4520080579
 20
7.4201386896
 10
15.4592577647
 20
7.4469176121
 10
15.4602003817
 20
7.4607905752
  0
LINE
  5
6E2
100
AcDbEntity
  8
02___PRT_ALL_AXES
100
AcDbLine
 62
7
  6
CONTINUOUS
 10
15.4520080579
 20
7.3990430317
 11
15.4592577647
 21
7.4258219541
  0
LWPOLYLINE
  5
6E3
100
AcDbEntity
  8
02___PRT_ALL_AXES
100
AcDbPolyline
 62
7
  6
CONTINUOUS
 90
3
 70
0
 10
15.4520080579
 20
7.3960293663
 10
15.4592577647
 20
7.4228082887
 10
15.4602003817
 20
7.4366812519
  0
LINE
  5
6E4
100
AcDbEntity
  8
02___PRT_ALL_AXES
100
AcDbLine
 62
7
  6
CONTINUOUS
 10
15.4520080579
 20
7.3749337083
 11
15.4592577647
 21
7.4017126308
  0
LWPOLYLINE
  5
6E5
100
AcDbEntity
  8
02___PRT_ALL_AXES
100
AcDbPolyline
 62
7
  6
CONTINUOUS
 90
3
 70
0
 10
15.4520080579
 20
7.3719200429
 10
15.4592577647
 20
7.3986989654
 10
15.4602003817
 20
7.4125719285
  0
LWPOLYLINE
  5
6E6
100
AcDbEntity
  8
0
100
AcDbPolyline
 62
9
  6
CONTINUOUS
 90
19
 70
0
 10
14.8205697553
 20
9.2461024052
 10
14.8524404854
 20
9.229258377
 10
14.8849495532
 20
9.214833319
 10
14.9180489497
 20
9.2024987494
 10
14.9518271675
 20
9.1920019859
 10
14.9864854891
 20
9.1831639743
 10
15.0222541881
 20
9.1758936823
 10
15.0589871492
 20
9.1702301694
 10
15.0963434143
 20
9.1662310299
 10
15.1340971971
 20
9.1639167327
 10
15.1720508303
 20
9.1632977581
 10
15.2099734701
 20
9.1643780574
 10
15.2476313731
 20
9.1671505753
 10
15.2847986887
 20
9.1715978999
 10
15.3212532214
 20
9.1776927204
 10
15.356776552
 20
9.1853978504
 10
15.3911574088
 20
9.1946669181
 10
15.4241920187
 20
9.2054447537
 10
15.4556831544
 20
9.2176670732
  0
LWPOLYLINE
  5
6E7
100
AcDbEntity
  8
02___PRT_ALL_AXES
100
AcDbPolyline
 62
9
  6
CONTINUOUS
 90
17
 70
0
 10
15.6577655449
 20
7.9031201667
 10
15.6477730938
 20
7.8629942742
 10
15.6279913167
 20
7.8240978284
 10
15.5988229136
 20
7.787222649
 10
15.5608616691
 20
7.7531194082
 10
15.5148803646
 20
7.7224823497
 10
15.4618150468
 20
7.6959351555
 10
15.4027459727
 20
7.6740182501
 10
15.3388756182
 20
7.6571777984
 10
15.2715041995
 20
7.6457566235
 10
15.2020032045
 20
7.6399872275
 10
15.131787473
 20
7.6399870588
 10
15.0622863948
 20
7.6457561206
 10
14.9949148115
 20
7.6571769717
 10
14.9310442141
 20
7.6740171163
 10
14.8719748239
 20
7.6959337377
 10
14.8189091232
 20
7.7224806768
  0
LINE
  5
6E8
100
AcDbEntity
  8
02___PRT_ALL_AXES
100
AcDbLine
 62
7
  6
CONTINUOUS
 10
15.6548093408
 20
8.0132794198
 11
15.6422510234
 21
7.9768281818
  0
LINE
  5
6E9
100
AcDbEntity
  8
02___PRT_ALL_AXES
100
AcDbLine
 62
7
  6
CONTINUOUS
 10
15.6422510234
 20
7.9768281818
 11
15.6215592034
 21
7.9416351621
  0
LWPOLYLINE
  5
6EA
100
AcDbEntity
  8
0
100
AcDbPolyline
 62
9
  6
CONTINUOUS
 90
27
 70
0
 10
14.8484042491
 20
9.2937573053
 10
14.8777086062
 20
9.2782694041
 10
14.9076052559
 20
9.2650031917
 10
14.9380447207
 20
9.2536595601
 10
14.9691083996
 20
9.2440061188
 10
15.0009813927
 20
9.2358781724
 10
15.0338755131
 20
9.229191981
 10
15.0676564403
 20
9.2239834513
 10
15.1020106183
 20
9.2203055522
 10
15.1367303902
 20
9.2181771109
 10
15.1716339704
 20
9.2176077661
 10
15.2065090644
 20
9.2186011529
 10
15.2411407087
 20
9.2211507836
 10
15.2753211978
 20
9.2252406459
 10
15.3088461883
 20
9.2308456243
 10
15.3415148093
 20
9.2379315204
 10
15.373132763
 20
9.2464556885
 10
15.4035126474
 20
9.2563673919
 10
15.4324730782
 20
9.2676075102
 10
15.4598400733
 20
9.2801086697
 10
15.485448795
 20
9.2937956797
 10
15.5091450706
 20
9.308586144
 10
15.5307871199
 20
9.3243915817
 10
15.5502452917
 20
9.3411174693
 10
15.5674022815
 20
9.3586631581
 10
15.5821547393
 20
9.3769229914
 10
15.5944138881
 20
9.3957868932
  0
LWPOLYLINE
  5
6EB
100
AcDbEntity
  8
0
100
AcDbPolyline
 62
7
  6
CONTINUOUS
 90
7
 70
0
 10
15.6566334751
 20
9.4495412304
 10
15.6517832566
 20
9.4884253096
 10
15.6387418558
 20
9.5270242249
 10
15.6172675079
 20
9.5647569247
 10
15.5874020823
 20
9.6007190024
 10
15.5496933841
 20
9.6338967117
 10
15.5050670465
 20
9.6634644997
  0
LWPOLYLINE
  5
6EC
100
AcDbEntity
  8
0
100
AcDbPolyline
 62
7
  6
CONTINUOUS
 90
11
 70
0
 10
15.437240715
 20
7.3213911192
 10
15.428084356
 20
7.2986697512
 10
15.4099100122
 20
7.2729776153
 10
15.3847165281
 20
7.2494009478
 10
15.3533981422
 20
7.2288579475
 10
15.3170466548
 20
7.2119363034
 10
15.2767742185
 20
7.1989948286
 10
15.2337096588
 20
7.1902682334
 10
15.1889723623
 20
7.1858982645
 10
15.1436998847
 20
7.185952944
 10
15.0990348568
 20
7.1904247098
  0
LINE
  5
6ED
100
AcDbEntity
  8
02___PRT_ALL_AXES
100
AcDbLine
 62
7
  6
CONTINUOUS
 10
15.4390260669
 20
7.4684786727
 11
15.4451908883
 21
7.4800498068
  0
LINE
  5
6EE
100
AcDbEntity
  8
02___PRT_ALL_AXES
100
AcDbLine
 62
7
  6
CONTINUOUS
 10
15.4377706996
 20
7.44255244
 11
15.4520080579
 21
7.4683573363
  0
LINE
  5
6EF
100
AcDbEntity
  8
02___PRT_ALL_AXES
100
AcDbLine
 62
7
  6
CONTINUOUS
 10
15.4377706996
 20
7.4184431166
 11
15.4520080579
 21
7.444248013
  0
LINE
  5
6F0
100
AcDbEntity
  8
02___PRT_ALL_AXES
100
AcDbLine
 62
7
  6
CONTINUOUS
 10
15.4377706996
 20
7.3943337933
 11
15.4520080579
 21
7.4201386896
  0
LINE
  5
6F1
100
AcDbEntity
  8
02___PRT_ALL_AXES
100
AcDbLine
 62
7
  6
CONTINUOUS
 10
15.6215592034
 20
7.9416351621
 11
15.5930879238
 21
7.908302523
  0
LWPOLYLINE
  5
6F2
100
AcDbEntity
  8
AXIS
100
AcDbPolyline
 62
7
  6
CONTINUOUS
 90
6
 70
0
 10
15.5608616691
 20
7.8800951778
 10
15.5988229136
 20
7.9141984186
 10
15.6279913167
 20
7.951073598
 10
15.6477730938
 20
7.9899700438
 10
15.6577655449
 20
8.0300959363
 10
15.6590144913
 20
8.0503640004
  0
LINE
  5
6F3
100
AcDbEntity
  8
02___PRT_ALL_AXES
100
AcDbLine
 62
7
  6
CONTINUOUS
 10
15.5930879238
 20
7.908302523
 11
15.5573243358
 21
7.8774005952
  0
LINE
  5
6F4
100
AcDbEntity
  8
AXIS
100
AcDbLine
 62
7
  6
CONTINUOUS
 10
15.5148803646
 20
7.8494581193
 11
15.5608616691
 21
7.8800951778
  0
LINE
  5
6F5
100
AcDbEntity
  8
02___PRT_ALL_AXES
100
AcDbLine
 62
7
  6
CONTINUOUS
 10
15.5573243358
 20
7.8774005952
 11
15.5148803646
 21
7.8494581193
  0
LINE
  5
6F6
100
AcDbEntity
  8
02___PRT_ALL_AXES
100
AcDbLine
 62
7
  6
CONTINUOUS
 10
15.5148803646
 20
7.8494581193
 11
15.466482238
 21
7.8249531987
  0
LINE
  5
6F7
100
AcDbEntity
  8
AXIS
100
AcDbLine
 62
7
  6
CONTINUOUS
 10
15.4618150468
 20
7.8229109251
 11
15.5148803646
 21
7.8494581193
  0
LWPOLYLINE
  5
6F8
100
AcDbEntity
  8
02___PRT_ALL_AXES
100
AcDbPolyline
 62
7
  6
CONTINUOUS
 90
3
 70
0
 10
15.466482238
 20
7.8249531987
 10
15.4129580616
 20
7.8043051194
 10
15.3552236489
 20
7.7878671759
  0
LINE
  5
6F9
100
AcDbEntity
  8
AXIS
100
AcDbLine
 62
7
  6
CONTINUOUS
 10
15.4027459727
 20
7.8009940197
 11
15.4618150468
 21
7.8229109251
  0
LINE
  5
6FA
100
AcDbEntity
  8
02___PRT_ALL_AXES
100
AcDbLine
 62
7
  6
CONTINUOUS
 10
15.4377706996
 20
7.349128812
 11
15.4520080579
 21
7.3749337083
  0
LINE
  5
6FB
100
AcDbEntity
  8
02___PRT_ALL_AXES
100
AcDbLine
 62
7
  6
CONTINUOUS
 10
15.4377706996
 20
7.3461151466
 11
15.4520080579
 21
7.3719200429
  0
LWPOLYLINE
  5
6FC
100
AcDbEntity
  8
02___PRT_ALL_AXES
100
AcDbPolyline
 62
9
  6
CONTINUOUS
 90
8
 70
0
 10
15.3985331579
 20
7.6654662991
 10
15.3440125157
 20
7.6488300208
 10
15.2815294959
 20
7.6362069883
 10
15.2164856927
 20
7.6291015061
 10
15.1503340774
 20
7.6276722991
 10
15.0845523676
 20
7.6319512933
 10
15.020610018
 20
7.641842903
 10
14.9599353952
 20
7.6571261661
  0
LWPOLYLINE
  5
6FD
100
AcDbEntity
  8
0
100
AcDbPolyline
 62
7
  6
CONTINUOUS
 90
10
 70
0
 10
15.2679860164
 20
7.1972139888
 10
15.2623408901
 20
7.191683725
 10
15.2502944088
 20
7.1831629427
 10
15.2362922938
 20
7.1758710395
 10
15.2206066796
 20
7.169918738
 10
15.2034813732
 20
7.1654115881
 10
15.1852236008
 20
7.1624763634
 10
15.1664999128
 20
7.1612433883
 10
15.1480180489
 20
7.1617173588
 10
15.1300959859
 20
7.1638349136
  0
LWPOLYLINE
  5
6FE
100
AcDbEntity
  8
02___PRT_ALL_AXES
100
AcDbPolyline
 62
7
  6
CONTINUOUS
 90
9
 70
0
 10
15.5023182698
 20
7.5148657143
 10
15.4553888568
 20
7.484827217
 10
15.4026074314
 20
7.4601008691
 10
15.3455447906
 20
7.4409859789
 10
15.2854115993
 20
7.4275095937
 10
15.223281499
 20
7.4196622758
 10
15.1603453898
 20
7.4174418757
 10
15.0975889785
 20
7.4208191407
 10
15.0360746734
 20
7.4297698994
  0
LWPOLYLINE
  5
6FF
100
AcDbEntity
  8
02___PRT_ALL_AXES
100
AcDbPolyline
 62
7
  6
CONTINUOUS
 90
4
 70
0
 10
15.3292588075
 20
7.4128891309
 10
15.317211838
 20
7.4073124217
 10
15.2790430439
 20
7.3947251787
 10
15.2382224867
 20
7.3857728746
  0
LWPOLYLINE
  5
700
100
AcDbEntity
  8
02___PRT_ALL_AXES
100
AcDbPolyline
 62
7
  6
CONTINUOUS
 90
5
 70
0
 10
15.3202850235
 20
7.4089767072
 10
15.3574230125
 20
7.4251682654
 10
15.3898914597
 20
7.44451514
 10
15.4168946218
 20
7.4665579109
 10
15.4172360133
 20
7.4669538747
  0
LWPOLYLINE
  5
701
100
AcDbEntity
  8
02___PRT_ALL_AXES
100
AcDbPolyline
 62
7
  6
CONTINUOUS
 90
7
 70
0
 10
15.3306335387
 20
7.4376442342
 10
15.3085475321
 20
7.4281546045
 10
15.2687768151
 20
7.4161811689
 10
15.225699533
 20
7.4079455415
 10
15.1808317639
 20
7.4038536977
 10
15.1359928232
 20
7.4040280941
 10
15.0924276845
 20
7.4083244503
  0
LWPOLYLINE
  5
702
100
AcDbEntity
  8
0
100
AcDbPolyline
 62
7
  6
CONTINUOUS
 90
4
 70
0
 10
15.2437943412
 20
7.1753952195
 10
15.2505842641
 20
7.179681525
 10
15.2612791019
 20
7.18843043
 10
15.2679599282
 20
7.1963838822
  0
LWPOLYLINE
  5
703
100
AcDbEntity
  8
02___PRT_ALL_AXES
100
AcDbPolyline
 62
7
  6
CONTINUOUS
 90
7
 70
0
 10
15.3195416199
 20
7.2882000721
 10
15.3094613753
 20
7.2838310515
 10
15.2696681322
 20
7.27174438
 10
15.2265656216
 20
7.263412005
 10
15.1816334695
 20
7.2592330509
 10
15.136687576
 20
7.2593371428
 10
15.0931573086
 20
7.263561463
  0
LWPOLYLINE
  5
704
100
AcDbEntity
  8
02___PRT_ALL_AXES
100
AcDbPolyline
 62
7
  6
CONTINUOUS
 90
3
 70
0
 10
15.3217392936
 20
7.3856058402
 10
15.3089896213
 20
7.3800964048
 10
15.2692271191
 20
7.3680729778
  0
LWPOLYLINE
  5
705
100
AcDbEntity
  8
02___PRT_ALL_AXES
100
AcDbPolyline
 62
7
  6
CONTINUOUS
 90
7
 70
0
 10
15.3193183349
 20
7.3363496316
 10
15.308767223
 20
7.3317969611
 10
15.2690842765
 20
7.3198192352
 10
15.2265228244
 20
7.3116245633
 10
15.1820108955
 20
7.3074687816
 10
15.137299319
 20
7.3075258116
 10
15.0936069193
 20
7.3117147618
  0
LWPOLYLINE
  5
706
100
AcDbEntity
  8
02___PRT_ALL_AXES
100
AcDbPolyline
 62
7
  6
CONTINUOUS
 90
7
 70
0
 10
15.3406350735
 20
7.3696303509
 10
15.3088785418
 20
7.3559467056
 10
15.2690706513
 20
7.3439252136
 10
15.2259524198
 20
7.3356531365
 10
15.1810298054
 20
7.3315343201
 10
15.1361231144
 20
7.3316934799
 10
15.092553154
 20
7.3359779837
  0
LWPOLYLINE
  5
707
100
AcDbEntity
  8
02___PRT_ALL_AXES
100
AcDbPolyline
 62
7
  6
CONTINUOUS
 90
7
 70
0
 10
15.3408677475
 20
7.3215131462
 10
15.3083127549
 20
7.3075230475
 10
15.2685162428
 20
7.2955708802
 10
15.2258424906
 20
7.2874190121
 10
15.1818106143
 20
7.2833503553
 10
15.1375612984
 20
7.2834038935
 10
15.0939071841
 20
7.2875620586
  0
LWPOLYLINE
  5
708
100
AcDbEntity
  8
02___PRT_ALL_AXES
100
AcDbPolyline
 62
7
  6
CONTINUOUS
 90
5
 70
0
 10
15.2793876783
 20
7.3993362195
 10
15.3202850235
 20
7.4119903726
 10
15.3574230125
 20
7.4281819309
 10
15.3898914597
 20
7.4475288054
 10
15.4089091679
 20
7.4630530237
  0
LINE
  5
709
100
AcDbEntity
  8
02___PRT_ALL_AXES
100
AcDbLine
 62
7
  6
CONTINUOUS
 10
15.2793876783
 20
7.3963225541
 11
15.3202850235
 21
7.4089767072
  0
LWPOLYLINE
  5
70A
100
AcDbEntity
  8
0
100
AcDbPolyline
 62
7
  6
CONTINUOUS
 90
3
 70
0
 10
15.2437943412
 20
7.1753952195
 10
15.2371892286
 20
7.1718558543
 10
15.2227808821
 20
7.1658602158
  0
LWPOLYLINE
  5
70B
100
AcDbEntity
  8
02___PRT_ALL_AXES
100
AcDbPolyline
 62
7
  6
CONTINUOUS
 90
7
 70
0
 10
15.3193446952
 20
7.2640298178
 10
15.3088179462
 20
7.2594874041
 10
15.2690503456
 20
7.2474829363
 10
15.2260285915
 20
7.239226584
 10
15.1812080064
 20
7.2351048289
 10
15.1364047207
 20
7.2352419496
 10
15.0928150965
 20
7.2395021932
  0
LINE
  5
70C
100
AcDbEntity
  8
0
100
AcDbLine
 62
7
  6
CONTINUOUS
 10
15.2227808821
 20
7.1658602158
 11
15.2376287778
 21
7.1720918322
  0
LWPOLYLINE
  5
70D
100
AcDbEntity
  8
0
100
AcDbPolyline
 62
7
  6
CONTINUOUS
 90
10
 70
0
 10
15.2312556277
 20
7.190028522
 10
15.2204234973
 20
7.1859332795
 10
15.2033741214
 20
7.1814618861
 10
15.1852080648
 20
7.1785474965
 10
15.1665814512
 20
7.177317896
 10
15.1481924407
 20
7.1777778442
 10
15.1302832647
 20
7.1798767127
 10
15.1131081737
 20
7.1835956136
 10
15.0973025727
 20
7.1888060667
 10
15.0897190886
 20
7.1923357016
  0
LWPOLYLINE
  5
70E
100
AcDbEntity
  8
0
100
AcDbPolyline
 62
7
  6
CONTINUOUS
 90
18
 70
0
 10
15.5050670465
 20
9.6634644997
 10
15.4530406629
 20
9.6895421098
 10
15.3958400066
 20
9.7108772591
 10
15.3345757377
 20
9.7271931405
 10
15.2704006811
 20
9.7382887552
 10
15.2045228814
 20
9.7440376028
 10
15.1380150338
 20
9.7443935749
 10
15.0720484343
 20
9.7393601306
 10
15.0077418035
 20
9.7290017462
 10
14.9461808803
 20
9.7134314688
 10
14.8885650905
 20
9.6928623026
 10
14.8358913344
 20
9.6675213508
 10
14.7892713167
 20
9.6377721829
 10
14.7499204847
 20
9.6042818946
 10
14.7186722136
 20
9.5678087038
 10
14.6961035924
 20
9.5293415545
 10
14.6822824037
 20
9.4896249451
 10
14.6771531151
 20
9.4495412304
  0
LWPOLYLINE
  5
70F
100
AcDbEntity
  8
0
100
AcDbPolyline
 62
9
  6
CONTINUOUS
 90
34
 70
0
 10
15.4853823411
 20
9.661514583
 10
15.456077984
 20
9.6770024842
 10
15.4261813343
 20
9.6902686966
 10
15.3957418695
 20
9.7016123282
 10
15.3646781906
 20
9.7112657695
 10
15.3328051975
 20
9.7193937159
 10
15.2999110771
 20
9.7260799073
 10
15.2661301499
 20
9.731288437
 10
15.2317759719
 20
9.7349663361
 10
15.1970562
 20
9.7370947774
 10
15.1621526198
 20
9.7376641221
 10
15.1272775258
 20
9.7366707354
 10
15.0926458815
 20
9.7341211047
 10
15.0584653923
 20
9.7300312423
 10
15.0249404019
 20
9.724426264
 10
14.9922717809
 20
9.7173403679
 10
14.9606538272
 20
9.7088161997
 10
14.9302739428
 20
9.6989044964
 10
14.901313512
 20
9.687664378
 10
14.8739465169
 20
9.6751632186
 10
14.8483377952
 20
9.6614762086
 10
14.8246415196
 20
9.6466857443
 10
14.8029994703
 20
9.6308803066
 10
14.7835412985
 20
9.614154419
 10
14.7663843087
 20
9.5966087302
 10
14.7516318509
 20
9.5783488969
 10
14.7393727021
 20
9.5594849951
 10
14.7296798495
 20
9.5401294143
 10
14.7226110048
 20
9.5203962176
 10
14.7182094431
 20
9.5004028035
 10
14.7165029932
 20
9.480269593
 10
14.7175027778
 20
9.4601205276
 10
14.7212024549
 20
9.4400780486
 10
14.7275849832
 20
9.4202479166
  0
CIRCLE
  5
710
100
AcDbEntity
  8
0
100
AcDbCircle
 62
7
  6
CONTINUOUS
 10
10.5342808475
 20
1.243294839
 40
0.252091
  0
CIRCLE
  5
711
100
AcDbEntity
  8
0
100
AcDbCircle
 62
7
  6
CONTINUOUS
 10
10.5342808475
 20
1.243294839
 40
0.182698
  0
ARC
  5
712
100
AcDbEntity
  8
02___PRT_ALL_AXES
100
AcDbCircle
 62
7
  6
CONTINUOUS
 10
8.8891148951
 20
6.294831425
 40
0.157480315
100
AcDbArc
 50
0.0
 51
90.0
  0
ARC
  5
713
100
AcDbEntity
  8
02___PRT_ALL_AXES
100
AcDbCircle
 62
7
  6
CONTINUOUS
 10
8.8891148951
 20
4.8381385117
 40
0.157480315
100
AcDbArc
 50
270.0
 51
360.0
  0
ARC
  5
714
100
AcDbEntity
  8
0
100
AcDbCircle
 62
7
  6
CONTINUOUS
 10
4.6292723754
 20
4.6656581612
 40
0.0787401575
100
AcDbArc
 50
180.0
 51
269.0
  0
ARC
  5
715
100
AcDbEntity
  8
0
100
AcDbCircle
 62
7
  6
CONTINUOUS
 10
4.6292723754
 20
6.4673117755
 40
0.0787401575
100
AcDbArc
 50
91.0
 51
180.0
  0
ARC
  5
716
100
AcDbEntity
  8
02___PRT_ALL_AXES
100
AcDbCircle
 62
7
  6
CONTINUOUS
 10
8.4560440289
 20
6.5113668581
 40
0.0590551181
100
AcDbArc
 50
180.0
 51
270.0
  0
ARC
  5
717
100
AcDbEntity
  8
02___PRT_ALL_AXES
100
AcDbCircle
 62
7
  6
CONTINUOUS
 10
8.4560440289
 20
4.6216030786
 40
0.0590551181
100
AcDbArc
 50
90.0
 51
180.0
  0
ARC
  5
718
100
AcDbEntity
  8
02___PRT_ALL_AXES
100
AcDbCircle
 62
7
  6
CONTINUOUS
 10
8.3576188321
 20
6.5113668581
 40
0.0393700787
100
AcDbArc
 50
0.0
 51
90.0
  0
ARC
  5
719
100
AcDbEntity
  8
02___PRT_ALL_AXES
100
AcDbCircle
 62
7
  6
CONTINUOUS
 10
8.3576188321
 20
4.6216030786
 40
0.0393700787
100
AcDbArc
 50
270.0
 51
360.0
  0
ARC
  5
71A
100
AcDbEntity
  8
0
100
AcDbCircle
 62
7
  6
CONTINUOUS
 10
9.0859652888
 20
4.9857763069
 40
0.0393700787
100
AcDbArc
 50
90.0
 51
180.0
  0
ARC
  5
71B
100
AcDbEntity
  8
0
100
AcDbCircle
 62
7
  6
CONTINUOUS
 10
9.0859652888
 20
6.1471936298
 40
0.0393700787
100
AcDbArc
 50
180.0
 51
270.0
  0
ARC
  5
71C
100
AcDbEntity
  8
0
100
AcDbCircle
 62
7
  6
CONTINUOUS
 10
9.7552566273
 20
6.0684534723
 40
0.0393700787
100
AcDbArc
 50
0.0
 51
90.0
  0
ARC
  5
71D
100
AcDbEntity
  8
0
100
AcDbCircle
 62
7
  6
CONTINUOUS
 10
9.7552566273
 20
5.0645164644
 40
0.0393700787
100
AcDbArc
 50
270.0
 51
360.0
  0
CIRCLE
  5
71E
100
AcDbEntity
  8
AXIS
100
AcDbCircle
 62
7
  6
CONTINUOUS
 10
2.4531760285
 20
5.5664849684
 40
0.9842519685
  0
CIRCLE
  5
71F
100
AcDbEntity
  8
0
100
AcDbCircle
 62
7
  6
CONTINUOUS
 10
2.4531760285
 20
5.5664849684
 40
0.9842519685
  0
CIRCLE
  5
720
100
AcDbEntity
  8
0
100
AcDbCircle
 62
9
  6
CONTINUOUS
 10
2.4531760285
 20
5.5664849684
 40
0.9795549722
  0
CIRCLE
  5
721
100
AcDbEntity
  8
0
100
AcDbCircle
 62
9
  6
CONTINUOUS
 10
2.4531760285
 20
5.5664849684
 40
0.9008268065
  0
CIRCLE
  5
722
100
AcDbEntity
  8
0
100
AcDbCircle
 62
7
  6
CONTINUOUS
 10
12.3793977571
 20
5.5664849684
 40
0.0196850394
  0
CIRCLE
  5
723
100
AcDbEntity
  8
0
100
AcDbCircle
 62
9
  6
CONTINUOUS
 10
12.3793977571
 20
5.5664849684
 40
0.00468503
  0
CIRCLE
  5
724
100
AcDbEntity
  8
0
100
AcDbCircle
 62
7
  6
CONTINUOUS
 10
12.4778229539
 20
5.4680597715
 40
0.0196850394
  0
CIRCLE
  5
725
100
AcDbEntity
  8
0
100
AcDbCircle
 62
9
  6
CONTINUOUS
 10
12.4778229539
 20
5.4680597715
 40
0.00468503
  0
ARC
  5
726
100
AcDbEntity
  8
AXIS
100
AcDbCircle
 62
7
  6
CONTINUOUS
 10
12.4778229539
 20
5.5664849684
 40
0.9842519685
100
AcDbArc
 50
270.0
 51
360.0
  0
CIRCLE
  5
727
100
AcDbEntity
  8
02___PRT_ALL_AXES
100
AcDbCircle
 62
7
  6
CONTINUOUS
 10
12.4778229539
 20
5.5664849684
 40
0.9842519685
  0
CIRCLE
  5
728
100
AcDbEntity
  8
02___PRT_ALL_AXES
100
AcDbCircle
 62
9
  6
CONTINUOUS
 10
12.4778229539
 20
5.5664849684
 40
0.9448818898
  0
CIRCLE
  5
729
100
AcDbEntity
  8
02___PRT_ALL_AXES
100
AcDbCircle
 62
7
  6
CONTINUOUS
 10
12.4778229539
 20
5.5664849684
 40
0.8858267717
  0
CIRCLE
  5
72A
100
AcDbEntity
  8
02___PRT_ALL_AXES
100
AcDbCircle
 62
9
  6
CONTINUOUS
 10
12.4778229539
 20
5.5664849684
 40
0.7283464567
  0
ARC
  5
72B
100
AcDbEntity
  8
0
100
AcDbCircle
 62
9
  6
CONTINUOUS
 10
12.4778229539
 20
5.5664849684
 40
0.5905511811
100
AcDbArc
 50
280.4753138432
 51
79.5246861568
  0
ARC
  5
72C
100
AcDbEntity
  8
0
100
AcDbCircle
 62
9
  6
CONTINUOUS
 10
12.4778229539
 20
5.5664849684
 40
0.5905511811
100
AcDbArc
 50
100.4753138432
 51
259.5246861568
  0
ARC
  5
72D
100
AcDbEntity
  8
0
100
AcDbCircle
 62
7
  6
CONTINUOUS
 10
12.4778229539
 20
5.5664849684
 40
0.5511811024
100
AcDbArc
 50
100.8440625637
 51
259.1559374363
  0
ARC
  5
72E
100
AcDbEntity
  8
0
100
AcDbCircle
 62
7
  6
CONTINUOUS
 10
12.4778229539
 20
5.5664849684
 40
0.5511811024
100
AcDbArc
 50
280.8440625637
 51
79.1559374363
  0
ARC
  5
72F
100
AcDbEntity
  8
0
100
AcDbCircle
 62
9
  6
CONTINUOUS
 10
12.4778229539
 20
5.5664849684
 40
0.5118110236
100
AcDbArc
 50
281.2547126182
 51
78.7452873818
  0
ARC
  5
730
100
AcDbEntity
  8
0
100
AcDbCircle
 62
9
  6
CONTINUOUS
 10
12.4778229539
 20
5.5664849684
 40
0.5118110236
100
AcDbArc
 50
101.2547126182
 51
258.7452873818
  0
CIRCLE
  5
731
100
AcDbEntity
  8
0
100
AcDbCircle
 62
7
  6
CONTINUOUS
 10
12.4778229539
 20
5.5664849684
 40
0.3799212598
  0
CIRCLE
  5
732
100
AcDbEntity
  8
0
100
AcDbCircle
 62
7
  6
CONTINUOUS
 10
12.4778229539
 20
5.5664849684
 40
0.3208224134
  0
CIRCLE
  5
733
100
AcDbEntity
  8
AXIS
100
AcDbCircle
 62
7
  6
CONTINUOUS
 10
12.4778229539
 20
5.5664849684
 40
0.3051181102
  0
CIRCLE
  5
734
100
AcDbEntity
  8
AXIS
100
AcDbCircle
 62
9
  6
CONTINUOUS
 10
12.4778229539
 20
5.5664849684
 40
0.2944051522
  0
CIRCLE
  5
735
100
AcDbEntity
  8
AXIS
100
AcDbCircle
 62
9
  6
CONTINUOUS
 10
12.4778229539
 20
5.5664849684
 40
0.2469334304
  0
CIRCLE
  5
736
100
AcDbEntity
  8
0
100
AcDbCircle
 62
7
  6
CONTINUOUS
 10
12.4778229539
 20
5.5664849684
 40
0.2362204724
  0
ARC
  5
737
100
AcDbEntity
  8
0
100
AcDbCircle
 62
7
  6
CONTINUOUS
 10
12.4778229539
 20
5.5664849684
 40
0.2165355029
100
AcDbArc
 50
328.0773200832
 51
193.9226799136
  0
CIRCLE
  5
738
100
AcDbEntity
  8
0
100
AcDbCircle
 62
7
  6
CONTINUOUS
 10
12.4778229539
 20
5.5664849684
 40
0.2037401575
  0
CIRCLE
  5
739
100
AcDbEntity
  8
0
100
AcDbCircle
 62
7
  6
CONTINUOUS
 10
12.4778229539
 20
5.5664849684
 40
0.1633858268
  0
CIRCLE
  5
73A
100
AcDbEntity
  8
0
100
AcDbCircle
 62
7
  6
CONTINUOUS
 10
12.4778229539
 20
5.6649101652
 40
0.0196850394
  0
CIRCLE
  5
73B
100
AcDbEntity
  8
0
100
AcDbCircle
 62
9
  6
CONTINUOUS
 10
12.4778229539
 20
5.6649101652
 40
0.00468503
  0
CIRCLE
  5
73C
100
AcDbEntity
  8
0
100
AcDbCircle
 62
7
  6
CONTINUOUS
 10
12.5762481508
 20
5.5664849684
 40
0.0196850394
  0
CIRCLE
  5
73D
100
AcDbEntity
  8
0
100
AcDbCircle
 62
9
  6
CONTINUOUS
 10
12.5762481508
 20
5.5664849684
 40
0.00468503
  0
ENDSEC
  0
SECTION
  2
OBJECTS
  0
DICTIONARY
  5
C
100
AcDbDictionary
280
0
281
1
  3
ACAD_GROUP
350
D
  3
ACAD_MLINESTYLE
350
17
  3
ACAD_LAYOUT
350
1A
  3
ACAD_PLOTSETTINGS
350
19
  3
ACAD_PLOTSTYLENAME
350
E
  0
DICTIONARY
  5
D
102
{ACAD_REACTORS
330
C
102
}
100
AcDbDictionary
280
0
281
1
  0
ACDBDICTIONARYWDFLT
  5
E
102
{ACAD_REACTORS
330
C
102
}
100
AcDbDictionary
281
1
  3
Normal
350
F
100
AcDbDictionaryWithDefault
340
F
  0
DICTIONARY
  5
17
102
{ACAD_REACTORS
330
C
102
}
100
AcDbDictionary
280
0
281
1
  3
Standard
350
18
  0
DICTIONARY
  5
19
102
{ACAD_REACTORS
330
C
102
}
100
AcDbDictionary
281
1
  0
DICTIONARY
  5
1A
102
{ACAD_REACTORS
330
C
102
}
100
AcDbDictionary
281
1
  3
Layout1
350
1E
  3
Model
350
22
  0
ACDBPLACEHOLDER
  5
F
102
{ACAD_REACTORS
330
E
102
}
  0
MLINESTYLE
  5
18
102
{ACAD_REACTORS
330
17
102
}
100
AcDbMlineStyle
  2
STANDARD
 70
0
  3

 62
256
 51
90.0
 52
90.0
 71
2
 49
0.5
 62
256
  6
BYLAYER
 49
-0.5
 62
256
  6
BYLAYER
  0
LAYOUT
  5
1E
102
{ACAD_REACTORS
330
1A
102
}
100
AcDbPlotSettings
  1

  2

  4

  6

 40
0.0
 41
0.0
 42
0.0
 43
0.0
 44
0.0
 45
0.0
 46
0.0
 47
0.0
 48
0.0
 49
0.0
140
0.0
141
0.0
142
1.0
143
1.0
 70
0
 72
0
 73
0
 74
0
  7

 75
0
147
1.0
148
0.0
149
0.0
100
AcDbLayout
  1
Layout1
 70
0
 71
0
 10
0.0
 20
0.0
 11
0.0
 21
0.0
 12
0.0
 22
0.0
 32
0.0
 14
0.0
 24
0.0
 34
0.0
 15
0.0
 25
0.0
 35
0.0
146
0.0
 13
0.0
 23
0.0
 33
0.0
 16
0.0
 26
0.0
 36
0.0
 17
0.0
 27
0.0
 37
0.0
 76
0
330
1B
331
0
345
0
346
0
  0
LAYOUT
  5
22
102
{ACAD_REACTORS
330
1A
102
}
100
AcDbPlotSettings
  1

  2

  4

  6

 40
0.0
 41
0.0
 42
0.0
 43
0.0
 44
0.0
 45
0.0
 46
0.0
 47
0.0
 48
0.0
 49
0.0
140
0.0
141
0.0
142
1.0
143
1.0
 70
0
 72
0
 73
0
 74
0
  7

 75
0
147
1.0
148
0.0
149
0.0
100
AcDbLayout
  1
Model
 70
0
 71
0
 10
0.0
 20
0.0
 11
0.0
 21
0.0
 12
0.0
 22
0.0
 32
0.0
 14
0.0
 24
0.0
 34
0.0
 15
0.0
 25
0.0
 35
0.0
146
0.0
 13
0.0
 23
0.0
 33
0.0
 16
0.0
 26
0.0
 36
0.0
 17
0.0
 27
0.0
 37
0.0
 76
0
330
1F
331
0
345
0
346
0
  0
ENDSEC
  0
EOF
